  0
SECTION
  2
HEADER
  9
$ACADVER
  1
AC1009
  9
$INSBASE
 10
0.0
 20
0.0
 30
0.0
  9
$EXTMIN
 10
693.52933363429997
 20
-321.35219302420001
 30
0.0
  9
$EXTMAX
 10
980.50063363429979
 20
-119.87234302420001
 30
0.0
  9
$LIMMIN
 10
0.0
 20
0.0
  9
$LIMMAX
 10
0.0
 20
0.0
  9
$ORTHOMODE
 70
     0
  9
$REGENMODE
 70
     1
  9
$FILLMODE
 70
     1
  9
$QTEXTMODE
 70
     0
  9
$MIRRTEXT
 70
     1
  9
$DRAGMODE
 70
     2
  9
$LTSCALE
 40
1.0
  9
$OSMODE
 70
    31
  9
$ATTMODE
 70
     1
  9
$TEXTSIZE
 40
0.0
  9
$TRACEWID
 40
0.05
  9
$TEXTSTYLE
  7
STANDARD
  9
$CLAYER
  8
0
  9
$CELTYPE
  6
CONTINUOUS
  9
$CECOLOR
 62
   256
  9
$DIMSCALE
 40
1.0
  9
$DIMASZ
 40
0.18
  9
$DIMEXO
 40
0.0625
  9
$DIMDLI
 40
0.38
  9
$DIMRND
 40
0.0
  9
$DIMDLE
 40
0.0
  9
$DIMEXE
 40
0.18
  9
$DIMTP
 40
0.0
  9
$DIMTM
 40
0.0
  9
$DIMTXT
 40
0.18
  9
$DIMCEN
 40
0.09
  9
$DIMTSZ
 40
0.0
  9
$DIMTOL
 70
     0
  9
$DIMLIM
 70
     0
  9
$DIMTIH
 70
     1
  9
$DIMTOH
 70
     1
  9
$DIMSE1
 70
     0
  9
$DIMSE2
 70
     0
  9
$DIMTAD
 70
     0
  9
$DIMZIN
 70
     0
  9
$DIMBLK
  1

  9
$DIMASO
 70
     1
  9
$DIMSHO
 70
     1
  9
$DIMPOST
  1

  9
$DIMAPOST
  1

  9
$DIMALT
 70
     0
  9
$DIMALTD
 70
     2
  9
$DIMALTF
 40
25.399999999999999
  9
$DIMLFAC
 40
1.0
  9
$DIMTOFL
 70
     0
  9
$DIMTVP
 40
0.0
  9
$DIMTIX
 70
     0
  9
$DIMSOXD
 70
     0
  9
$DIMSAH
 70
     0
  9
$DIMBLK1
  1

  9
$DIMBLK2
  1

  9
$DIMSTYLE
  2
STANDARD
  9
$DIMCLRD
 70
     0
  9
$DIMCLRE
 70
     0
  9
$DIMCLRT
 70
     0
  9
$DIMTFAC
 40
1.0
  9
$DIMGAP
 40
0.09
  9
$LUNITS
 70
     2
  9
$LUPREC
 70
     4
  9
$SKETCHINC
 40
0.1
  9
$FILLETRAD
 40
0.0
  9
$AUNITS
 70
     0
  9
$AUPREC
 70
     0
  9
$MENU
  1
acad
  9
$ELEVATION
 40
0.0
  9
$PELEVATION
 40
0.0
  9
$THICKNESS
 40
0.0
  9
$LIMCHECK
 70
     0
  9
$BLIPMODE
 70
     0
  9
$CHAMFERA
 40
0.0
  9
$CHAMFERB
 40
0.0
  9
$SKPOLY
 70
     0
  9
$TDCREATE
 40
2454865.6463498259
  9
$TDUPDATE
 40
2454865.6467811349
  9
$TDINDWG
 40
0.0004651389
  9
$TDUSRTIMER
 40
0.0004607986
  9
$USRTIMER
 70
     1
  9
$ANGBASE
 50
0.0
  9
$ANGDIR
 70
     0
  9
$PDMODE
 70
     3
  9
$PDSIZE
 40
-1.0
  9
$PLINEWID
 40
0.0
  9
$COORDS
 70
     2
  9
$SPLFRAME
 70
     0
  9
$SPLINETYPE
 70
     6
  9
$SPLINESEGS
 70
     8
  9
$ATTDIA
 70
     0
  9
$ATTREQ
 70
     1
  9
$HANDLING
 70
     1
  9
$HANDSEED
  5
590
  9
$SURFTAB1
 70
     6
  9
$SURFTAB2
 70
     6
  9
$SURFTYPE
 70
     6
  9
$SURFU
 70
     6
  9
$SURFV
 70
     6
  9
$UCSNAME
  2

  9
$UCSORG
 10
0.0
 20
0.0
 30
0.0
  9
$UCSXDIR
 10
1.0
 20
0.0
 30
0.0
  9
$UCSYDIR
 10
0.0
 20
1.0
 30
0.0
  9
$PUCSNAME
  2

  9
$PUCSORG
 10
0.0
 20
0.0
 30
0.0
  9
$PUCSXDIR
 10
1.0
 20
0.0
 30
0.0
  9
$PUCSYDIR
 10
0.0
 20
1.0
 30
0.0
  9
$USERI1
 70
     0
  9
$USERI2
 70
     0
  9
$USERI3
 70
     0
  9
$USERI4
 70
     0
  9
$USERI5
 70
     0
  9
$USERR1
 40
0.0
  9
$USERR2
 40
0.0
  9
$USERR3
 40
0.0
  9
$USERR4
 40
0.0
  9
$USERR5
 40
0.0
  9
$WORLDVIEW
 70
     1
  9
$SHADEDGE
 70
     3
  9
$SHADEDIF
 70
    70
  9
$TILEMODE
 70
     1
  9
$MAXACTVP
 70
    16
  9
$PLIMCHECK
 70
     0
  9
$PEXTMIN
 10
1.0000000000000000E+020
 20
1.0000000000000000E+020
 30
1.0000000000000000E+020
  9
$PEXTMAX
 10
-1.0000000000000000E+020
 20
-1.0000000000000000E+020
 30
-1.0000000000000000E+020
  9
$PLIMMIN
 10
0.0
 20
0.0
  9
$PLIMMAX
 10
12.0
 20
9.0
  9
$UNITMODE
 70
     0
  9
$VISRETAIN
 70
     0
  9
$PLINEGEN
 70
     1
  9
$PSLTSCALE
 70
     0
  0
ENDSEC
  0
SECTION
  2
TABLES
  0
TABLE
  2
VPORT
 70
     2
  0
VPORT
  2
*ACTIVE
 70
     0
 10
0.0
 20
0.0
 11
1.0
 21
1.0
 12
837.01498363429994
 22
-220.61226802420001
 13
0.0
 23
0.0
 14
1.0
 24
1.0
 15
0.0
 25
0.0
 16
0.0
 26
0.0
 36
1.0
 17
0.0
 27
0.0
 37
0.0
 40
203.1518819502075
 41
1.6343490304709141
 42
50.0
 43
0.0
 44
0.0
 50
0.0
 51
0.0
 71
     0
 72
   100
 73
     1
 74
     1
 75
     0
 76
     0
 77
     0
 78
     0
  0
ENDTAB
  0
TABLE
  2
LTYPE
 70
    11
  0
LTYPE
  2
CONTINUOUS
 70
     0
  3
Solid line
 72
    65
 73
     0
 40
0.0
  0
LTYPE
  2
DOT
 70
     0
  3
. . . . . . . . 
 72
    65
 73
     2
 40
1.0
 49
0.0
 49
-1.0
  0
LTYPE
  2
DASHED
 70
     0
  3
___  ___  ___  ___  
 72
    65
 73
     2
 40
4.0
 49
3.0
 49
-1.0
  0
LTYPE
  2
HIDDEN
 70
     0
  3
__ __ __ __ 
 72
    65
 73
     2
 40
3.0
 49
2.0
 49
-1.0
  0
LTYPE
  2
STITCH
 70
     0
  3
_ _ _ _ 
 72
    65
 73
     2
 40
2.0
 49
1.0
 49
-1.0
  0
LTYPE
  2
CENTER
 70
     0
  3
______  __  ______  __  
 72
    65
 73
     4
 40
43.0
 49
40.0
 49
-1.0
 49
1.0
 49
-1.0
  0
LTYPE
  2
DASHDOT
 70
     0
  3
____ . ____ . 
 72
    65
 73
     4
 40
32.0
 49
30.0
 49
-1.0
 49
0.0
 49
-1.0
  0
LTYPE
  2
BORDER
 70
     0
  3
__ . __ . 
 72
    65
 73
     4
 40
22.0
 49
20.0
 49
-1.0
 49
0.0
 49
-1.0
  0
LTYPE
  2
CUTTING
 70
     0
  3
________   ___   ___   
 72
    65
 73
     6
 40
45.0
 49
40.0
 49
-1.0
 49
1.0
 49
-1.0
 49
1.0
 49
-1.0
  0
LTYPE
  2
PHANTOM
 70
     0
  3
______  __  __  
 72
    65
 73
     6
 40
35.0
 49
30.0
 49
-1.0
 49
1.0
 49
-1.0
 49
1.0
 49
-1.0
  0
LTYPE
  2
DIVIDE
 70
     0
  3
____ . . ____ . . 
 72
    65
 73
     6
 40
23.0
 49
20.0
 49
-1.0
 49
0.0
 49
-1.0
 49
0.0
 49
-1.0
  0
ENDTAB
  0
TABLE
  2
LAYER
 70
     4
  0
LAYER
  2
0
 70
     0
 62
     7
  6
CONTINUOUS
  0
LAYER
  2
図枠
 70
     0
 62
     7
  6
CONTINUOUS
  0
LAYER
  2
寸法線
 70
     0
 62
     7
  6
CONTINUOUS
  0
LAYER
  2
ﾚｲﾔ_1
 70
     0
 62
     7
  6
CONTINUOUS
  0
ENDTAB
  0
TABLE
  2
STYLE
 70
     1
  0
STYLE
  2
STANDARD
 70
     0
 40
0.0
 41
1.0
 50
0.0
 71
     0
 42
0.0
  3
txt
  4
extfont
  0
ENDTAB
  0
TABLE
  2
VIEW
 70
     0
  0
ENDTAB
  0
TABLE
  2
UCS
 70
     0
  0
ENDTAB
  0
TABLE
  2
APPID
 70
     2
  0
APPID
  2
ACAD
 70
     0
  0
APPID
  2
DCO15
 70
     0
  0
ENDTAB
  0
TABLE
  2
DIMSTYLE
 70
     3
  0
DIMSTYLE
  2
STANDARD
 70
     0
  3

  4

  5

  6

  7

 40
1.0
 41
0.18
 42
0.0625
 43
0.38
 44
0.18
 45
0.0
 46
0.0
 47
0.0
 48
0.0
140
0.18
141
0.09
142
0.0
143
25.399999999999999
144
1.0
145
0.0
146
1.0
147
0.09
 71
     0
 72
     0
 73
     1
 74
     1
 75
     0
 76
     0
 77
     0
 78
     0
170
     0
171
     2
172
     0
173
     0
174
     0
175
     0
176
     0
177
     0
178
     0
  0
DIMSTYLE
  2
VELDIM0
 70
     0
  3

  4

  5

  6

  7

 40
1.0
 41
3.0
 42
0.0625
 43
0.38
 44
0.5
 45
0.0
 46
3.0
 47
0.0
 48
0.0
140
2.9986110209999999
141
0.09
142
0.0
143
25.399999999999999
144
1.0
145
0.0
146
1.0
147
0.09
 71
     0
 72
     0
 73
     0
 74
     0
 75
     0
 76
     0
 77
     0
 78
     8
170
     0
171
     2
172
     0
173
     0
174
     0
175
     0
176
     0
177
     0
178
     0
  0
DIMSTYLE
  2
VELDIM1
 70
     0
  3

  4

  5

  6

  7

 40
1.0
 41
3.0
 42
0.0625
 43
0.38
 44
1.25
 45
0.0
 46
5.0
 47
0.0
 48
0.0
140
2.9986110209999999
141
0.09
142
0.0
143
25.399999999999999
144
1.0
145
0.0
146
1.0
147
0.09
 71
     0
 72
     0
 73
     0
 74
     0
 75
     0
 76
     0
 77
     0
 78
     8
170
     0
171
     2
172
     0
173
     0
174
     0
175
     0
176
     0
177
     0
178
     0
  0
ENDTAB
  0
ENDSEC
  0
SECTION
  2
BLOCKS
  0
BLOCK
  8
0
  2
$MODEL_SPACE
 70
     0
 10
0.0
 20
0.0
 30
0.0
  3
$MODEL_SPACE
  1

  0
ENDBLK
  5
E
  8
0
  0
BLOCK
 67
     1
  8
0
  2
$PAPER_SPACE
 70
     0
 10
0.0
 20
0.0
 30
0.0
  3
$PAPER_SPACE
  1

  0
ENDBLK
  5
10
 67
     1
  8
0
  0
BLOCK
  8
0
  2
*D0
 70
     1
 10
0.0
 20
0.0
 30
0.0
  3
*D0
  1

  0
TEXT
  5
3A
  8
0
 62
     0
 10
824.98381086990003
 20
-198.15705276400001
 30
0.0
 40
2.9986110209999999
  1
46.5
  0
LINE
  5
3B
  8
0
 62
     0
 10
805.26158854169989
 20
-181.25123467680001
 30
0.0
 11
805.26158854169989
 21
-200.18621941469999
 31
0.0
  0
LINE
  5
3C
  8
0
 62
     0
 10
851.76158854169989
 20
-181.25123467680001
 30
0.0
 11
851.76158854169989
 21
-200.18621941469999
 31
0.0
  0
LINE
  5
3D
  8
0
 62
     0
 10
805.26158854169989
 20
-199.68621941469999
 30
0.0
 11
833.80325504940004
 21
-199.68621941469999
 31
0.0
  0
LINE
  5
3E
  8
0
 62
     0
 10
805.26158854169989
 20
-199.68621941469999
 30
0.0
 11
823.21992203389993
 21
-199.68621941469999
 31
0.0
  0
LINE
  5
3F
  8
0
 62
     0
 10
851.76158854169989
 20
-199.68621941469999
 30
0.0
 11
833.80325504940004
 21
-199.68621941469999
 31
0.0
  0
LINE
  5
40
  8
0
 62
     0
 10
851.76158854169989
 20
-199.68621941469999
 30
0.0
 11
823.21992203389993
 21
-199.68621941469999
 31
0.0
  0
LINE
  5
41
  8
0
 62
     0
 10
851.76158854169989
 20
-199.68621941469999
 30
0.0
 11
848.76158854170001
 21
-199.68621941469999
 31
0.0
  0
SOLID
  5
42
  8
0
 62
     0
 10
851.76158854169989
 20
-199.68621941469999
 30
0.0
 11
848.76158854170001
 21
-200.43621941469999
 31
0.0
 12
848.76158854170001
 22
-198.93621941469999
 32
0.0
 13
849.51158854170001
 23
-199.68621941469999
 33
0.0
  0
LINE
  5
43
  8
0
 62
     0
 10
805.26158854169989
 20
-199.68621941469999
 30
0.0
 11
808.26158854170001
 21
-199.68621941469999
 31
0.0
  0
SOLID
  5
44
  8
0
 62
     0
 10
805.26158854169989
 20
-199.68621941469999
 30
0.0
 11
808.26158854170001
 21
-198.93621941469999
 31
0.0
 12
808.26158854170001
 22
-200.43621941469999
 32
0.0
 13
807.51158854170001
 23
-199.68621941469999
 33
0.0
  0
ENDBLK
  5
45
  8
0
  0
BLOCK
  8
0
  2
*D1
 70
     1
 10
0.0
 20
0.0
 30
0.0
  3
*D1
  1

  0
TEXT
  5
4A
  8
0
 62
     0
 10
836.98381086989991
 20
-191.4584809804999
 30
0.0
 40
2.9986110209999999
  1
11.5
  0
LINE
  5
4B
  8
0
 62
     0
 10
834.76158854169989
 20
-182.25123467680001
 30
0.0
 11
834.76158854169989
 21
-193.48764763130001
 31
0.0
  0
LINE
  5
4C
  8
0
 62
     0
 10
846.26158854169989
 20
-173.25123467680001
 30
0.0
 11
846.26158854169989
 21
-193.48764763130001
 31
0.0
  0
LINE
  5
4D
  8
0
 62
     0
 10
834.76158854169989
 20
-192.98764763130001
 30
0.0
 11
845.80325504939992
 21
-192.98764763130001
 31
0.0
  0
LINE
  5
4E
  8
0
 62
     0
 10
834.76158854169989
 20
-192.98764763130001
 30
0.0
 11
835.21992203390005
 21
-192.98764763130001
 31
0.0
  0
LINE
  5
4F
  8
0
 62
     0
 10
846.26158854169989
 20
-192.98764763130001
 30
0.0
 11
845.80325504939992
 21
-192.98764763130001
 31
0.0
  0
LINE
  5
50
  8
0
 62
     0
 10
846.26158854169989
 20
-192.98764763130001
 30
0.0
 11
835.21992203390005
 21
-192.98764763130001
 31
0.0
  0
LINE
  5
51
  8
0
 62
     0
 10
846.26158854169989
 20
-192.98764763130001
 30
0.0
 11
849.26158854170001
 21
-192.98764763130001
 31
0.0
  0
SOLID
  5
52
  8
0
 62
     0
 10
846.26158854169989
 20
-192.98764763130001
 30
0.0
 11
849.26158854170001
 21
-192.23764763130001
 31
0.0
 12
849.26158854170001
 22
-193.73764763130001
 32
0.0
 13
848.51158854170001
 23
-192.98764763130001
 33
0.0
  0
LINE
  5
53
  8
0
 62
     0
 10
834.76158854169989
 20
-192.98764763130001
 30
0.0
 11
831.76158854170001
 21
-192.98764763130001
 31
0.0
  0
SOLID
  5
54
  8
0
 62
     0
 10
834.76158854169989
 20
-192.98764763130001
 30
0.0
 11
831.76158854170001
 21
-193.73764763130001
 31
0.0
 12
831.76158854170001
 22
-192.23764763130001
 32
0.0
 13
832.51158854170001
 23
-192.98764763130001
 33
0.0
  0
ENDBLK
  5
55
  8
0
  0
BLOCK
  8
0
  2
*D2
 70
     1
 10
0.0
 20
0.0
 30
0.0
  3
*D2
  1

  0
TEXT
  5
59
  8
0
 62
     0
 10
814.49769970579996
 20
-154.48212003099999
 30
0.0
 40
2.9986110209999999
  1
71
  0
LINE
  5
5A
  8
0
 62
     0
 10
851.76158854169989
 20
-162.25123467680001
 30
0.0
 11
851.76158854169989
 21
-155.51128668179999
 31
0.0
  0
LINE
  5
5B
  8
0
 62
     0
 10
780.76158854170001
 20
-165.25123467680001
 30
0.0
 11
780.76158854170001
 21
-155.51128668179999
 31
0.0
  0
LINE
  5
5C
  8
0
 62
     0
 10
851.76158854169989
 20
-156.01128668179999
 30
0.0
 11
819.7893662135001
 21
-156.01128668179999
 31
0.0
  0
LINE
  5
5D
  8
0
 62
     0
 10
851.76158854169989
 20
-156.01128668179999
 30
0.0
 11
812.73381086989991
 21
-156.01128668179999
 31
0.0
  0
LINE
  5
5E
  8
0
 62
     0
 10
780.76158854170001
 20
-156.01128668179999
 30
0.0
 11
819.7893662135001
 21
-156.01128668179999
 31
0.0
  0
LINE
  5
5F
  8
0
 62
     0
 10
780.76158854170001
 20
-156.01128668179999
 30
0.0
 11
812.73381086989991
 21
-156.01128668179999
 31
0.0
  0
LINE
  5
60
  8
0
 62
     0
 10
780.76158854170001
 20
-156.01128668179999
 30
0.0
 11
783.76158854170001
 21
-156.01128668179999
 31
0.0
  0
SOLID
  5
61
  8
0
 62
     0
 10
780.76158854170001
 20
-156.01128668179999
 30
0.0
 11
783.76158854170001
 21
-155.26128668179999
 31
0.0
 12
783.76158854170001
 22
-156.76128668179999
 32
0.0
 13
783.01158854170001
 23
-156.01128668179999
 33
0.0
  0
LINE
  5
62
  8
0
 62
     0
 10
851.76158854169989
 20
-156.01128668179999
 30
0.0
 11
848.76158854170001
 21
-156.01128668179999
 31
0.0
  0
SOLID
  5
63
  8
0
 62
     0
 10
851.76158854169989
 20
-156.01128668179999
 30
0.0
 11
848.76158854170001
 21
-156.76128668179999
 31
0.0
 12
848.76158854170001
 22
-155.26128668179999
 32
0.0
 13
849.51158854170001
 23
-156.01128668179999
 33
0.0
  0
ENDBLK
  5
64
  8
0
  0
BLOCK
  8
0
  2
*D3
 70
     1
 10
0.0
 20
0.0
 30
0.0
  3
*D3
  1

  0
TEXT
  5
69
  8
0
 62
     0
 10
789.96528439580004
 20
-146.39756910049999
 30
0.0
 40
2.9986110209999999
  1
4x6-6x8皿長穴
  0
LINE
  5
6A
  8
0
 62
     0
 10
817.53918476359991
 20
-146.92673575129999
 30
0.0
 11
786.43750672399995
 21
-146.92673575129999
 31
0.0
  0
LINE
  5
6B
  8
0
 62
     0
 10
843.19354348239995
 20
-165.0779446288
 30
0.0
 11
817.53918476359991
 21
-146.92673575129999
 31
0.0
  0
SOLID
  5
6C
  8
0
 62
     0
 10
843.19354348239995
 20
-165.0779446288
 30
0.0
 11
840.31135643309995
 21
-163.957454641
 31
0.0
 12
841.1777266685001
 22
-162.73295367520001
 32
0.0
 13
841.35679203369989
 23
-163.77838927580001
 33
0.0
  0
ENDBLK
  5
6D
  8
0
  0
BLOCK
  8
0
  2
CLUMP0
 70
     0
 10
0.0
 20
0.0
 30
0.0
  3
CLUMP0
  1

  0
LINE
  5
9C
  8
ﾚｲﾔ_1
  6
BORDER
 62
     3
 10
846.26158854169989
 20
-162.25123467680001
 30
0.0
 11
846.26158854169989
 21
-172.25123467680001
 31
0.0
  0
LINE
  5
9D
  8
ﾚｲﾔ_1
  6
BORDER
 62
     3
 10
840.26158854170001
 20
-167.25123467680001
 30
0.0
 11
852.26158854170001
 21
-167.25123467680001
 31
0.0
  0
ARC
  5
9E
  8
ﾚｲﾔ_1
 62
     5
 10
845.26158854169989
 20
-167.25123467680001
 30
0.0
 40
3.0
 50
90.000007315700003
 51
269.99999227770002
  0
LINE
  5
9F
  8
ﾚｲﾔ_1
 62
     5
 10
845.26158813730012
 20
-170.25123467680001
 30
0.0
 11
847.2615887705
 21
-170.25123467680001
 31
0.0
  0
ARC
  5
A0
  8
ﾚｲﾔ_1
 62
     5
 10
847.26158854169989
 20
-167.25123467680001
 30
0.0
 40
3.0
 50
270.0000043709
 51
89.999993036400014
  0
LINE
  5
A1
  8
ﾚｲﾔ_1
 62
     5
 10
845.26158815860003
 20
-164.25123467680001
 30
0.0
 11
847.26158890629995
 21
-164.25123467680001
 31
0.0
  0
CIRCLE
  5
A2
  8
ﾚｲﾔ_1
 62
     5
 10
834.76158854169989
 20
-176.25123467680001
 30
0.0
 40
3.0
  0
LINE
  5
A3
  8
ﾚｲﾔ_1
  6
BORDER
 62
     3
 10
834.76158854169989
 20
-171.25123467680001
 30
0.0
 11
834.76158854169989
 21
-181.25123467680001
 31
0.0
  0
LINE
  5
A4
  8
ﾚｲﾔ_1
  6
BORDER
 62
     3
 10
839.76158854170001
 20
-176.25123467680001
 30
0.0
 11
829.76158854170001
 21
-176.25123467680001
 31
0.0
  0
LINE
  5
A5
  8
ﾚｲﾔ_1
  6
BORDER
 62
     3
 10
818.76158854169989
 20
-176.25123467680001
 30
0.0
 11
808.76158854169989
 21
-176.25123467680001
 31
0.0
  0
LINE
  5
A6
  8
ﾚｲﾔ_1
  6
BORDER
 62
     3
 10
813.76158854170001
 20
-171.25123467680001
 30
0.0
 11
813.76158854170001
 21
-181.25123467680001
 31
0.0
  0
CIRCLE
  5
A7
  8
ﾚｲﾔ_1
 62
     5
 10
813.76158854170001
 20
-176.25123467680001
 30
0.0
 40
3.0
  0
LINE
  5
A8
  8
ﾚｲﾔ_1
 62
     5
 10
845.16158781440004
 20
-169.05123467679999
 30
0.0
 11
847.36158810979998
 21
-169.05123467679999
 31
0.0
  0
ARC
  5
A9
  8
ﾚｲﾔ_1
 62
     5
 10
845.16158854169998
 20
-167.25123467680001
 30
0.0
 40
1.8
 50
90.000010104699996
 51
269.9999768504
  0
LINE
  5
AA
  8
ﾚｲﾔ_1
 62
     5
 10
845.16158822419982
 20
-165.4512346768
 30
0.0
 11
847.36158874899979
 21
-165.4512346768
 31
0.0
  0
ARC
  5
AB
  8
ﾚｲﾔ_1
 62
     5
 10
847.36158854170003
 20
-167.25123467680001
 30
0.0
 40
1.8
 50
269.99998625379999
 51
89.999993401599994
  0
LINE
  5
AC
  8
ﾚｲﾔ_1
  6
STITCH
 10
805.26158854169989
 20
-167.8512346768
 30
0.0
 11
805.26158854169989
 21
-166.25123467680001
 31
0.0
  0
CIRCLE
  5
AD
  8
ﾚｲﾔ_1
 62
     5
 10
834.76158854169989
 20
-176.25123467680001
 30
0.0
 40
1.8
  0
CIRCLE
  5
AE
  8
ﾚｲﾔ_1
 62
     5
 10
813.76158854170001
 20
-176.25123467680001
 30
0.0
 40
1.8
  0
ARC
  5
AF
  8
ﾚｲﾔ_1
 62
     5
 10
850.76158854169989
 20
-163.25123467680001
 30
0.0
 40
1.0
 50
0.0
 51
90.0
  0
LINE
  5
B0
  8
ﾚｲﾔ_1
 62
     5
 10
851.76158854169989
 20
-163.25123467680001
 30
0.0
 11
851.76158854169989
 21
-180.25123467680001
 31
0.0
  0
ARC
  5
B1
  8
ﾚｲﾔ_1
 62
     5
 10
850.76158854169989
 20
-180.25123467680001
 30
0.0
 40
1.0
 50
270.0
 51
0.0
  0
LINE
  5
B2
  8
ﾚｲﾔ_1
 62
     5
 10
841.76158854169989
 20
-162.25123467680001
 30
0.0
 11
850.76158854169989
 21
-162.25123467680001
 31
0.0
  0
ARC
  5
B3
  8
ﾚｲﾔ_1
 62
     5
 10
841.76158854169989
 20
-163.25123467680001
 30
0.0
 40
1.0
 50
90.0
 51
180.0
  0
LINE
  5
B4
  8
ﾚｲﾔ_1
 62
     5
 10
840.76158854170001
 20
-163.25123467680001
 30
0.0
 11
840.76158854170001
 21
-169.25123467680001
 31
0.0
  0
LINE
  5
B5
  8
ﾚｲﾔ_1
 62
     5
 10
840.76158854170001
 20
-169.25123467680001
 30
0.0
 11
835.76158854170012
 21
-169.25123467680001
 31
0.0
  0
LINE
  5
B6
  8
ﾚｲﾔ_1
 62
     5
 10
835.76158854170012
 20
-166.25123467680001
 30
0.0
 11
835.76158854170012
 21
-169.25123467680001
 31
0.0
  0
LINE
  5
B7
  8
ﾚｲﾔ_1
 62
     5
 10
835.76158854170012
 20
-166.25123467680001
 30
0.0
 11
780.76158854170001
 21
-166.25123467680001
 31
0.0
  0
LINE
  5
B8
  8
ﾚｲﾔ_1
 62
     5
 10
780.76158854170001
 20
-166.25123467680001
 30
0.0
 11
780.76158854170001
 21
-167.8512346768
 31
0.0
  0
LINE
  5
B9
  8
ﾚｲﾔ_1
 62
     5
 10
835.76158854170012
 20
-167.8512346768
 30
0.0
 11
780.76158854170001
 21
-167.8512346768
 31
0.0
  0
LINE
  5
BA
  8
ﾚｲﾔ_1
 62
     5
 10
805.26158854169989
 20
-180.25123467680001
 30
0.0
 11
805.26158854169989
 21
-167.8512346768
 31
0.0
  0
LINE
  5
BB
  8
ﾚｲﾔ_1
 62
     5
 10
850.76158854169989
 20
-181.25123467680001
 30
0.0
 11
806.26158854169989
 21
-181.25123467680001
 31
0.0
  0
ARC
  5
BC
  8
ﾚｲﾔ_1
 62
     5
 10
806.26158854169989
 20
-180.25123467680001
 30
0.0
 40
1.0
 50
180.0
 51
270.0
  0
ENDBLK
  5
BD
  8
0
  0
BLOCK
  8
0
  2
*D5
 70
     1
 10
0.0
 20
0.0
 30
0.0
  3
*D5
  1

  0
TEXT
  5
C8
  8
0
 62
     0
 10
806.86575528779986
 20
-191.4584809804999
 30
0.0
 40
2.9986110209999999
  1
8.5
  0
LINE
  5
C9
  8
0
 62
     0
 10
805.26158854169989
 20
-181.25123467680001
 30
0.0
 11
805.26158854169989
 21
-193.48764763130001
 31
0.0
  0
LINE
  5
CA
  8
0
 62
     0
 10
813.76158854170001
 20
-182.25123467680001
 30
0.0
 11
813.76158854170001
 21
-193.48764763130001
 31
0.0
  0
LINE
  5
CB
  8
0
 62
     0
 10
805.26158854169989
 20
-192.98764763130001
 30
0.0
 11
805.26158854169989
 21
-192.98764763130001
 31
0.0
  0
LINE
  5
CC
  8
0
 62
     0
 10
805.26158854169989
 20
-192.98764763130001
 30
0.0
 11
813.76158854170001
 21
-192.98764763130001
 31
0.0
  0
LINE
  5
CD
  8
0
 62
     0
 10
813.76158854170001
 20
-192.98764763130001
 30
0.0
 11
805.26158854169989
 21
-192.98764763130001
 31
0.0
  0
LINE
  5
CE
  8
0
 62
     0
 10
813.76158854170001
 20
-192.98764763130001
 30
0.0
 11
813.76158854170001
 21
-192.98764763130001
 31
0.0
  0
LINE
  5
CF
  8
0
 62
     0
 10
813.76158854170001
 20
-192.98764763130001
 30
0.0
 11
810.76158854170012
 21
-192.98764763130001
 31
0.0
  0
SOLID
  5
D0
  8
0
 62
     0
 10
813.76158854170001
 20
-192.98764763130001
 30
0.0
 11
810.76158854170012
 21
-193.73764763130001
 31
0.0
 12
810.76158854170012
 22
-192.23764763130001
 32
0.0
 13
811.51158854169989
 23
-192.98764763130001
 33
0.0
  0
LINE
  5
D1
  8
0
 62
     0
 10
805.26158854169989
 20
-192.98764763130001
 30
0.0
 11
808.26158854170001
 21
-192.98764763130001
 31
0.0
  0
SOLID
  5
D2
  8
0
 62
     0
 10
805.26158854169989
 20
-192.98764763130001
 30
0.0
 11
808.26158854170001
 21
-192.23764763130001
 31
0.0
 12
808.26158854170001
 22
-193.73764763130001
 32
0.0
 13
807.51158854170001
 23
-192.98764763130001
 33
0.0
  0
ENDBLK
  5
D3
  8
0
  0
BLOCK
  8
0
  2
*D6
 70
     1
 10
0.0
 20
0.0
 30
0.0
  3
*D6
  1

  0
TEXT
  5
D7
  8
0
 62
     0
 10
768.25263822219995
 20
-194.51512351279999
 30
0.0
 40
2.9986110209999999
  1
48
 50
90.0
  0
LINE
  5
D8
  8
0
 62
     0
 10
779.76158854170001
 20
-168.75123467680001
 30
0.0
 11
769.28180487300006
 21
-168.75123467680001
 31
0.0
  0
LINE
  5
D9
  8
0
 62
     0
 10
785.26158854170001
 20
-216.75123467680001
 30
0.0
 11
769.28180487300006
 21
-216.75123467680001
 31
0.0
  0
LINE
  5
DA
  8
0
 62
     0
 10
769.78180487300006
 20
-168.75123467680001
 30
0.0
 11
769.78180487300006
 21
-189.223457005
 31
0.0
  0
LINE
  5
DB
  8
0
 62
     0
 10
769.78180487300006
 20
-168.75123467680001
 30
0.0
 11
769.78180487300006
 21
-196.27901234870001
 31
0.0
  0
LINE
  5
DC
  8
0
 62
     0
 10
769.78180487300006
 20
-216.75123467680001
 30
0.0
 11
769.78180487300006
 21
-189.223457005
 31
0.0
  0
LINE
  5
DD
  8
0
 62
     0
 10
769.78180487300006
 20
-216.75123467680001
 30
0.0
 11
769.78180487300006
 21
-196.27901234870001
 31
0.0
  0
LINE
  5
DE
  8
0
 62
     0
 10
769.78180487300006
 20
-216.75123467680001
 30
0.0
 11
769.78180487300006
 21
-213.75123467680001
 31
0.0
  0
SOLID
  5
DF
  8
0
 62
     0
 10
769.78180487300006
 20
-216.75123467680001
 30
0.0
 11
769.03180487300006
 21
-213.75123467680001
 31
0.0
 12
770.53180487300006
 22
-213.75123467680001
 32
0.0
 13
769.78180487300006
 23
-214.50123467680001
 33
0.0
  0
LINE
  5
E0
  8
0
 62
     0
 10
769.78180487300006
 20
-168.75123467680001
 30
0.0
 11
769.78180487300006
 21
-171.75123467680001
 31
0.0
  0
SOLID
  5
E1
  8
0
 62
     0
 10
769.78180487300006
 20
-168.75123467680001
 30
0.0
 11
770.53180487300006
 21
-171.75123467680001
 31
0.0
 12
769.03180487300006
 22
-171.75123467680001
 32
0.0
 13
769.78180487300006
 23
-171.00123467680001
 33
0.0
  0
ENDBLK
  5
E2
  8
0
  0
BLOCK
  8
0
  2
*D7
 70
     1
 10
0.0
 20
0.0
 30
0.0
  3
*D7
  1

  0
TEXT
  5
E6
  8
0
 62
     0
 10
774.73242189090001
 20
-189.01512351279999
 30
0.0
 40
2.9986110209999999
  1
15
 50
90.0
  0
LINE
  5
E7
  8
0
 62
     0
 10
791.76158854170001
 20
-179.75123467680001
 30
0.0
 11
775.76158854170001
 21
-179.75123467680001
 31
0.0
  0
LINE
  5
E8
  8
0
 62
     0
 10
783.26158854169989
 20
-194.75123467680001
 30
0.0
 11
775.76158854170001
 21
-194.75123467680001
 31
0.0
  0
LINE
  5
E9
  8
0
 62
     0
 10
776.26158854170001
 20
-179.75123467680001
 30
0.0
 11
776.26158854170001
 21
-183.723457005
 31
0.0
  0
LINE
  5
EA
  8
0
 62
     0
 10
776.26158854170001
 20
-179.75123467680001
 30
0.0
 11
776.26158854170001
 21
-190.77901234870001
 31
0.0
  0
LINE
  5
EB
  8
0
 62
     0
 10
776.26158854170001
 20
-194.75123467680001
 30
0.0
 11
776.26158854170001
 21
-183.723457005
 31
0.0
  0
LINE
  5
EC
  8
0
 62
     0
 10
776.26158854170001
 20
-194.75123467680001
 30
0.0
 11
776.26158854170001
 21
-190.77901234870001
 31
0.0
  0
LINE
  5
ED
  8
0
 62
     0
 10
776.26158854170001
 20
-194.75123467680001
 30
0.0
 11
776.26158854170001
 21
-191.75123467680001
 31
0.0
  0
SOLID
  5
EE
  8
0
 62
     0
 10
776.26158854170001
 20
-194.75123467680001
 30
0.0
 11
775.51158854170001
 21
-191.75123467680001
 31
0.0
 12
777.01158854169989
 22
-191.75123467680001
 32
0.0
 13
776.26158854170001
 23
-192.50123467680001
 33
0.0
  0
LINE
  5
EF
  8
0
 62
     0
 10
776.26158854170001
 20
-179.75123467680001
 30
0.0
 11
776.26158854170001
 21
-182.75123467680001
 31
0.0
  0
SOLID
  5
F0
  8
0
 62
     0
 10
776.26158854170001
 20
-179.75123467680001
 30
0.0
 11
777.01158854169989
 21
-182.75123467680001
 31
0.0
 12
775.51158854170001
 22
-182.75123467680001
 32
0.0
 13
776.26158854170001
 23
-182.00123467680001
 33
0.0
  0
ENDBLK
  5
F1
  8
0
  0
BLOCK
  8
0
  2
*D8
 70
     1
 10
0.0
 20
0.0
 30
0.0
  3
*D8
  1

  0
TEXT
  5
F5
  8
0
 62
     0
 10
774.73242189090001
 20
-204.01512351279999
 30
0.0
 40
2.9986110209999999
  1
15
 50
90.0
  0
LINE
  5
F6
  8
0
 62
     0
 10
783.26158854169989
 20
-194.75123467680001
 30
0.0
 11
775.76158854170001
 21
-194.75123467680001
 31
0.0
  0
LINE
  5
F7
  8
0
 62
     0
 10
791.76158854170001
 20
-209.75123467680001
 30
0.0
 11
775.76158854170001
 21
-209.75123467680001
 31
0.0
  0
LINE
  5
F8
  8
0
 62
     0
 10
776.26158854170001
 20
-194.75123467680001
 30
0.0
 11
776.26158854170001
 21
-198.723457005
 31
0.0
  0
LINE
  5
F9
  8
0
 62
     0
 10
776.26158854170001
 20
-194.75123467680001
 30
0.0
 11
776.26158854170001
 21
-205.77901234870001
 31
0.0
  0
LINE
  5
FA
  8
0
 62
     0
 10
776.26158854170001
 20
-209.75123467680001
 30
0.0
 11
776.26158854170001
 21
-198.723457005
 31
0.0
  0
LINE
  5
FB
  8
0
 62
     0
 10
776.26158854170001
 20
-209.75123467680001
 30
0.0
 11
776.26158854170001
 21
-205.77901234870001
 31
0.0
  0
LINE
  5
FC
  8
0
 62
     0
 10
776.26158854170001
 20
-209.75123467680001
 30
0.0
 11
776.26158854170001
 21
-206.75123467680001
 31
0.0
  0
SOLID
  5
FD
  8
0
 62
     0
 10
776.26158854170001
 20
-209.75123467680001
 30
0.0
 11
775.51158854170001
 21
-206.75123467680001
 31
0.0
 12
777.01158854169989
 22
-206.75123467680001
 32
0.0
 13
776.26158854170001
 23
-207.50123467680001
 33
0.0
  0
LINE
  5
FE
  8
0
 62
     0
 10
776.26158854170001
 20
-194.75123467680001
 30
0.0
 11
776.26158854170001
 21
-197.75123467680001
 31
0.0
  0
SOLID
  5
FF
  8
0
 62
     0
 10
776.26158854170001
 20
-194.75123467680001
 30
0.0
 11
777.01158854169989
 21
-197.75123467680001
 31
0.0
 12
775.51158854170001
 22
-197.75123467680001
 32
0.0
 13
776.26158854170001
 23
-197.00123467680001
 33
0.0
  0
ENDBLK
  5
100
  8
0
  0
BLOCK
  8
0
  2
*D9
 70
     1
 10
0.0
 20
0.0
 30
0.0
  3
*D9
  1

  0
TEXT
  5
104
  8
0
 62
     0
 10
774.73242189090001
 20
-214.1331790948
 30
0.0
 40
2.9986110209999999
  1
7
 50
90.0
  0
LINE
  5
105
  8
0
 62
     0
 10
791.76158854170001
 20
-209.75123467680001
 30
0.0
 11
775.76158854170001
 21
-209.75123467680001
 31
0.0
  0
LINE
  5
106
  8
0
 62
     0
 10
785.26158854170001
 20
-216.75123467680001
 30
0.0
 11
775.76158854170001
 21
-216.75123467680001
 31
0.0
  0
LINE
  5
107
  8
0
 62
     0
 10
776.26158854170001
 20
-209.75123467680001
 30
0.0
 11
776.26158854170001
 21
-210.60540142299999
 31
0.0
  0
LINE
  5
108
  8
0
 62
     0
 10
776.26158854170001
 20
-209.75123467680001
 30
0.0
 11
776.26158854170001
 21
-215.89706793069999
 31
0.0
  0
LINE
  5
109
  8
0
 62
     0
 10
776.26158854170001
 20
-216.75123467680001
 30
0.0
 11
776.26158854170001
 21
-210.60540142299999
 31
0.0
  0
LINE
  5
10A
  8
0
 62
     0
 10
776.26158854170001
 20
-216.75123467680001
 30
0.0
 11
776.26158854170001
 21
-215.89706793069999
 31
0.0
  0
LINE
  5
10B
  8
0
 62
     0
 10
776.26158854170001
 20
-216.75123467680001
 30
0.0
 11
776.26158854170001
 21
-219.75123467680001
 31
0.0
  0
SOLID
  5
10C
  8
0
 62
     0
 10
776.26158854170001
 20
-216.75123467680001
 30
0.0
 11
777.01158854169989
 21
-219.75123467680001
 31
0.0
 12
775.51158854170001
 22
-219.75123467680001
 32
0.0
 13
776.26158854170001
 23
-219.00123467680001
 33
0.0
  0
LINE
  5
10D
  8
0
 62
     0
 10
776.26158854170001
 20
-209.75123467680001
 30
0.0
 11
776.26158854170001
 21
-206.75123467680001
 31
0.0
  0
SOLID
  5
10E
  8
0
 62
     0
 10
776.26158854170001
 20
-209.75123467680001
 30
0.0
 11
775.51158854170001
 21
-206.75123467680001
 31
0.0
 12
777.01158854169989
 22
-206.75123467680001
 32
0.0
 13
776.26158854170001
 23
-207.50123467680001
 33
0.0
  0
ENDBLK
  5
10F
  8
0
  0
BLOCK
  8
0
  2
*D10
 70
     1
 10
0.0
 20
0.0
 30
0.0
  3
*D10
  1

  0
TEXT
  5
113
  8
0
 62
     0
 10
822.49769970579996
 20
-191.4584809804999
 30
0.0
 40
2.9986110209999999
  1
21
  0
LINE
  5
114
  8
0
 62
     0
 10
813.76158854170001
 20
-182.25123467680001
 30
0.0
 11
813.76158854170001
 21
-193.48764763130001
 31
0.0
  0
LINE
  5
115
  8
0
 62
     0
 10
834.76158854169989
 20
-182.25123467680001
 30
0.0
 11
834.76158854169989
 21
-193.48764763130001
 31
0.0
  0
LINE
  5
116
  8
0
 62
     0
 10
813.76158854170001
 20
-192.98764763130001
 30
0.0
 11
827.7893662135001
 21
-192.98764763130001
 31
0.0
  0
LINE
  5
117
  8
0
 62
     0
 10
813.76158854170001
 20
-192.98764763130001
 30
0.0
 11
820.73381086990003
 21
-192.98764763130001
 31
0.0
  0
LINE
  5
118
  8
0
 62
     0
 10
834.76158854169989
 20
-192.98764763130001
 30
0.0
 11
827.7893662135001
 21
-192.98764763130001
 31
0.0
  0
LINE
  5
119
  8
0
 62
     0
 10
834.76158854169989
 20
-192.98764763130001
 30
0.0
 11
820.73381086990003
 21
-192.98764763130001
 31
0.0
  0
LINE
  5
11A
  8
0
 62
     0
 10
834.76158854169989
 20
-192.98764763130001
 30
0.0
 11
831.76158854170001
 21
-192.98764763130001
 31
0.0
  0
SOLID
  5
11B
  8
0
 62
     0
 10
834.76158854169989
 20
-192.98764763130001
 30
0.0
 11
831.76158854170001
 21
-193.73764763130001
 31
0.0
 12
831.76158854170001
 22
-192.23764763130001
 32
0.0
 13
832.51158854170001
 23
-192.98764763130001
 33
0.0
  0
LINE
  5
11C
  8
0
 62
     0
 10
813.76158854170001
 20
-192.98764763130001
 30
0.0
 11
816.76158854169989
 21
-192.98764763130001
 31
0.0
  0
SOLID
  5
11D
  8
0
 62
     0
 10
813.76158854170001
 20
-192.98764763130001
 30
0.0
 11
816.76158854169989
 21
-192.23764763130001
 31
0.0
 12
816.76158854169989
 22
-193.73764763130001
 32
0.0
 13
816.01158854169989
 23
-192.98764763130001
 33
0.0
  0
ENDBLK
  5
11E
  8
0
  0
BLOCK
  8
0
  2
*D11
 70
     1
 10
0.0
 20
0.0
 30
0.0
  3
*D11
  1

  0
TEXT
  5
122
  8
0
 62
     0
 10
789.98381086990003
 20
-232.01053981859999
 30
0.0
 40
2.9986110209999999
  1
18.5
  0
LINE
  5
123
  8
0
 62
     0
 10
784.26158854170001
 20
-215.75123467680001
 30
0.0
 11
784.26158854170001
 21
-234.03970646939999
 31
0.0
  0
LINE
  5
124
  8
0
 62
     0
 10
802.76158854170001
 20
-215.75123467680001
 30
0.0
 11
802.76158854170001
 21
-234.03970646939999
 31
0.0
  0
LINE
  5
125
  8
0
 62
     0
 10
784.26158854170001
 20
-233.53970646939999
 30
0.0
 11
798.80325504940004
 21
-233.53970646939999
 31
0.0
  0
LINE
  5
126
  8
0
 62
     0
 10
784.26158854170001
 20
-233.53970646939999
 30
0.0
 11
788.21992203390005
 21
-233.53970646939999
 31
0.0
  0
LINE
  5
127
  8
0
 62
     0
 10
802.76158854170001
 20
-233.53970646939999
 30
0.0
 11
798.80325504940004
 21
-233.53970646939999
 31
0.0
  0
LINE
  5
128
  8
0
 62
     0
 10
802.76158854170001
 20
-233.53970646939999
 30
0.0
 11
788.21992203390005
 21
-233.53970646939999
 31
0.0
  0
LINE
  5
129
  8
0
 62
     0
 10
802.76158854170001
 20
-233.53970646939999
 30
0.0
 11
799.76158854169989
 21
-233.53970646939999
 31
0.0
  0
SOLID
  5
12A
  8
0
 62
     0
 10
802.76158854170001
 20
-233.53970646939999
 30
0.0
 11
799.76158854169989
 21
-234.28970646939999
 31
0.0
 12
799.76158854169989
 22
-232.78970646939999
 32
0.0
 13
800.51158854170001
 23
-233.53970646939999
 33
0.0
  0
LINE
  5
12B
  8
0
 62
     0
 10
784.26158854170001
 20
-233.53970646939999
 30
0.0
 11
787.26158854169989
 21
-233.53970646939999
 31
0.0
  0
SOLID
  5
12C
  8
0
 62
     0
 10
784.26158854170001
 20
-233.53970646939999
 30
0.0
 11
787.26158854169989
 21
-232.78970646939999
 31
0.0
 12
787.26158854169989
 22
-234.28970646939999
 32
0.0
 13
786.51158854170001
 23
-233.53970646939999
 33
0.0
  0
ENDBLK
  5
12D
  8
0
  0
BLOCK
  8
0
  2
*D12
 70
     1
 10
0.0
 20
0.0
 30
0.0
  3
*D12
  1

  0
TEXT
  5
131
  8
0
 62
     0
 10
799.3796441236999
 20
-224.59165742120001
 30
0.0
 40
2.9986110209999999
  1
5
  0
LINE
  5
132
  8
0
 62
     0
 10
797.76158854170001
 20
-215.75123467680001
 30
0.0
 11
797.76158854170001
 21
-226.620824072
 31
0.0
  0
LINE
  5
133
  8
0
 62
     0
 10
802.76158854170001
 20
-215.75123467680001
 30
0.0
 11
802.76158854170001
 21
-226.620824072
 31
0.0
  0
LINE
  5
134
  8
0
 62
     0
 10
797.76158854170001
 20
-226.120824072
 30
0.0
 11
797.76158854170001
 21
-226.120824072
 31
0.0
  0
LINE
  5
135
  8
0
 62
     0
 10
797.76158854170001
 20
-226.120824072
 30
0.0
 11
802.76158854170001
 21
-226.120824072
 31
0.0
  0
LINE
  5
136
  8
0
 62
     0
 10
802.76158854170001
 20
-226.120824072
 30
0.0
 11
797.76158854170001
 21
-226.120824072
 31
0.0
  0
LINE
  5
137
  8
0
 62
     0
 10
802.76158854170001
 20
-226.120824072
 30
0.0
 11
802.76158854170001
 21
-226.120824072
 31
0.0
  0
LINE
  5
138
  8
0
 62
     0
 10
802.76158854170001
 20
-226.120824072
 30
0.0
 11
805.76158854170001
 21
-226.120824072
 31
0.0
  0
SOLID
  5
139
  8
0
 62
     0
 10
802.76158854170001
 20
-226.120824072
 30
0.0
 11
805.76158854170001
 21
-225.370824072
 31
0.0
 12
805.76158854170001
 22
-226.870824072
 32
0.0
 13
805.01158854170001
 23
-226.120824072
 33
0.0
  0
LINE
  5
13A
  8
0
 62
     0
 10
797.76158854170001
 20
-226.120824072
 30
0.0
 11
794.76158854170001
 21
-226.120824072
 31
0.0
  0
SOLID
  5
13B
  8
0
 62
     0
 10
797.76158854170001
 20
-226.120824072
 30
0.0
 11
794.76158854170001
 21
-226.870824072
 31
0.0
 12
794.76158854170001
 22
-225.370824072
 32
0.0
 13
795.51158854170001
 23
-226.120824072
 33
0.0
  0
ENDBLK
  5
13C
  8
0
  0
BLOCK
  8
0
  2
*D13
 70
     1
 10
0.0
 20
0.0
 30
0.0
  3
*D13
  1

  0
TEXT
  5
140
  8
0
 62
     0
 10
790.86575528779997
 20
-224.59165742120001
 30
0.0
 40
2.9986110209999999
  1
8.5
  0
LINE
  5
141
  8
0
 62
     0
 10
789.26158854170001
 20
-200.75123467680001
 30
0.0
 11
789.26158854170001
 21
-226.620824072
 31
0.0
  0
LINE
  5
142
  8
0
 62
     0
 10
797.76158854170001
 20
-215.75123467680001
 30
0.0
 11
797.76158854170001
 21
-226.620824072
 31
0.0
  0
LINE
  5
143
  8
0
 62
     0
 10
789.26158854170001
 20
-226.120824072
 30
0.0
 11
789.26158854170001
 21
-226.120824072
 31
0.0
  0
LINE
  5
144
  8
0
 62
     0
 10
789.26158854170001
 20
-226.120824072
 30
0.0
 11
797.76158854170001
 21
-226.120824072
 31
0.0
  0
LINE
  5
145
  8
0
 62
     0
 10
797.76158854170001
 20
-226.120824072
 30
0.0
 11
789.26158854170001
 21
-226.120824072
 31
0.0
  0
LINE
  5
146
  8
0
 62
     0
 10
797.76158854170001
 20
-226.120824072
 30
0.0
 11
797.76158854170001
 21
-226.120824072
 31
0.0
  0
LINE
  5
147
  8
0
 62
     0
 10
797.76158854170001
 20
-226.120824072
 30
0.0
 11
794.76158854170001
 21
-226.120824072
 31
0.0
  0
SOLID
  5
148
  8
0
 62
     0
 10
797.76158854170001
 20
-226.120824072
 30
0.0
 11
794.76158854170001
 21
-226.870824072
 31
0.0
 12
794.76158854170001
 22
-225.370824072
 32
0.0
 13
795.51158854170001
 23
-226.120824072
 33
0.0
  0
LINE
  5
149
  8
0
 62
     0
 10
789.26158854170001
 20
-226.120824072
 30
0.0
 11
792.26158854170001
 21
-226.120824072
 31
0.0
  0
SOLID
  5
14A
  8
0
 62
     0
 10
789.26158854170001
 20
-226.120824072
 30
0.0
 11
792.26158854170001
 21
-225.370824072
 31
0.0
 12
792.26158854170001
 22
-226.870824072
 32
0.0
 13
791.51158854170001
 23
-226.120824072
 33
0.0
  0
ENDBLK
  5
14B
  8
0
  0
BLOCK
  8
0
  2
*D14
 70
     1
 10
0.0
 20
0.0
 30
0.0
  3
*D14
  1

  0
TEXT
  5
14F
  8
0
 62
     0
 10
785.87964412369979
 20
-224.59165742120001
 30
0.0
 40
2.9986110209999999
  1
5
  0
LINE
  5
150
  8
0
 62
     0
 10
784.26158854170001
 20
-215.75123467680001
 30
0.0
 11
784.26158854170001
 21
-226.620824072
 31
0.0
  0
LINE
  5
151
  8
0
 62
     0
 10
789.26158854170001
 20
-200.75123467680001
 30
0.0
 11
789.26158854170001
 21
-226.620824072
 31
0.0
  0
LINE
  5
152
  8
0
 62
     0
 10
784.26158854170001
 20
-226.120824072
 30
0.0
 11
784.26158854170001
 21
-226.120824072
 31
0.0
  0
LINE
  5
153
  8
0
 62
     0
 10
784.26158854170001
 20
-226.120824072
 30
0.0
 11
789.26158854170001
 21
-226.120824072
 31
0.0
  0
LINE
  5
154
  8
0
 62
     0
 10
789.26158854170001
 20
-226.120824072
 30
0.0
 11
784.26158854170001
 21
-226.120824072
 31
0.0
  0
LINE
  5
155
  8
0
 62
     0
 10
789.26158854170001
 20
-226.120824072
 30
0.0
 11
789.26158854170001
 21
-226.120824072
 31
0.0
  0
LINE
  5
156
  8
0
 62
     0
 10
789.26158854170001
 20
-226.120824072
 30
0.0
 11
792.26158854170001
 21
-226.120824072
 31
0.0
  0
SOLID
  5
157
  8
0
 62
     0
 10
789.26158854170001
 20
-226.120824072
 30
0.0
 11
792.26158854170001
 21
-225.370824072
 31
0.0
 12
792.26158854170001
 22
-226.870824072
 32
0.0
 13
791.51158854170001
 23
-226.120824072
 33
0.0
  0
LINE
  5
158
  8
0
 62
     0
 10
784.26158854170001
 20
-226.120824072
 30
0.0
 11
781.26158854170001
 21
-226.120824072
 31
0.0
  0
SOLID
  5
159
  8
0
 62
     0
 10
784.26158854170001
 20
-226.120824072
 30
0.0
 11
781.26158854170001
 21
-226.870824072
 31
0.0
 12
781.26158854170001
 22
-225.370824072
 32
0.0
 13
782.01158854170001
 23
-226.120824072
 33
0.0
  0
ENDBLK
  5
15A
  8
0
  0
BLOCK
  8
0
  2
*D15
 70
     1
 10
0.0
 20
0.0
 30
0.0
  3
*D15
  1

  0
TEXT
  5
15E
  8
0
 62
     0
 10
823.8552843937
 20
-175.51512351279999
 30
0.0
 40
2.9986110209999999
  1
15
 50
90.0
  0
LINE
  5
15F
  8
0
 62
     0
 10
825.14438370439996
 20
-181.25123467680001
 30
0.0
 11
825.88445104449988
 21
-181.25123467680001
 31
0.0
  0
LINE
  5
160
  8
0
 62
     0
 10
825.14438370439996
 20
-166.25123467680001
 30
0.0
 11
825.88445104449988
 21
-166.25123467680001
 31
0.0
  0
LINE
  5
161
  8
0
 62
     0
 10
825.3844510445
 20
-181.25123467680001
 30
0.0
 11
825.3844510445
 21
-170.223457005
 31
0.0
  0
LINE
  5
162
  8
0
 62
     0
 10
825.3844510445
 20
-181.25123467680001
 30
0.0
 11
825.3844510445
 21
-177.27901234870001
 31
0.0
  0
LINE
  5
163
  8
0
 62
     0
 10
825.3844510445
 20
-166.25123467680001
 30
0.0
 11
825.3844510445
 21
-170.223457005
 31
0.0
  0
LINE
  5
164
  8
0
 62
     0
 10
825.3844510445
 20
-166.25123467680001
 30
0.0
 11
825.3844510445
 21
-177.27901234870001
 31
0.0
  0
LINE
  5
165
  8
0
 62
     0
 10
825.3844510445
 20
-166.25123467680001
 30
0.0
 11
825.3844510445
 21
-169.25123467680001
 31
0.0
  0
SOLID
  5
166
  8
0
 62
     0
 10
825.3844510445
 20
-166.25123467680001
 30
0.0
 11
826.13445104449988
 21
-169.25123467680001
 31
0.0
 12
824.6344510445
 22
-169.25123467680001
 32
0.0
 13
825.3844510445
 23
-168.50123467680001
 33
0.0
  0
LINE
  5
167
  8
0
 62
     0
 10
825.3844510445
 20
-181.25123467680001
 30
0.0
 11
825.3844510445
 21
-178.25123467680001
 31
0.0
  0
SOLID
  5
168
  8
0
 62
     0
 10
825.3844510445
 20
-181.25123467680001
 30
0.0
 11
824.6344510445
 21
-178.25123467680001
 31
0.0
 12
826.13445104449988
 22
-178.25123467680001
 32
0.0
 13
825.3844510445
 23
-179.00123467680001
 33
0.0
  0
ENDBLK
  5
169
  8
0
  0
BLOCK
  8
0
  2
*D16
 70
     1
 10
0.0
 20
0.0
 30
0.0
  3
*D16
  1

  0
TEXT
  5
16D
  8
0
 62
     0
 10
762.11644309999986
 20
-195.02901234870001
 30
0.0
 40
2.9986110209999999
  1
50.5
 50
90.0
  0
LINE
  5
16E
  8
0
 62
     0
 10
779.76158854170001
 20
-166.25123467680001
 30
0.0
 11
763.14560975079985
 21
-166.25123467680001
 31
0.0
  0
LINE
  5
16F
  8
0
 62
     0
 10
785.26158854170001
 20
-216.75123467680001
 30
0.0
 11
763.14560975079985
 21
-216.75123467680001
 31
0.0
  0
LINE
  5
170
  8
0
 62
     0
 10
763.64560975079985
 20
-166.25123467680001
 30
0.0
 11
763.64560975079985
 21
-186.20956816910001
 31
0.0
  0
LINE
  5
171
  8
0
 62
     0
 10
763.64560975079985
 20
-166.25123467680001
 30
0.0
 11
763.64560975079985
 21
-196.7929011846
 31
0.0
  0
LINE
  5
172
  8
0
 62
     0
 10
763.64560975079985
 20
-216.75123467680001
 30
0.0
 11
763.64560975079985
 21
-186.20956816910001
 31
0.0
  0
LINE
  5
173
  8
0
 62
     0
 10
763.64560975079985
 20
-216.75123467680001
 30
0.0
 11
763.64560975079985
 21
-196.7929011846
 31
0.0
  0
LINE
  5
174
  8
0
 62
     0
 10
763.64560975079985
 20
-216.75123467680001
 30
0.0
 11
763.64560975079985
 21
-213.75123467680001
 31
0.0
  0
SOLID
  5
175
  8
0
 62
     0
 10
763.64560975079985
 20
-216.75123467680001
 30
0.0
 11
762.89560975079985
 21
-213.75123467680001
 31
0.0
 12
764.39560975079996
 22
-213.75123467680001
 32
0.0
 13
763.64560975079985
 23
-214.50123467680001
 33
0.0
  0
LINE
  5
176
  8
0
 62
     0
 10
763.64560975079985
 20
-166.25123467680001
 30
0.0
 11
763.64560975079985
 21
-169.25123467680001
 31
0.0
  0
SOLID
  5
177
  8
0
 62
     0
 10
763.64560975079985
 20
-166.25123467680001
 30
0.0
 11
764.39560975079996
 21
-169.25123467680001
 31
0.0
 12
762.89560975079985
 22
-169.25123467680001
 32
0.0
 13
763.64560975079985
 23
-168.50123467680001
 33
0.0
  0
ENDBLK
  5
178
  8
0
  0
BLOCK
  8
0
  2
*D17
 70
     1
 10
0.0
 20
0.0
 30
0.0
  3
*D17
  1

  0
TEXT
  5
17C
  8
0
 62
     0
 10
735.55152303429998
 20
-181.8512011821
 30
0.0
 40
2.9986110209999999
  1
3-%%c4x%%c6皿穴
  0
LINE
  5
17D
  8
0
 62
     0
 10
771.77698694740002
 20
-182.3803678328
 30
0.0
 11
732.02374536249999
 21
-182.3803678328
 31
0.0
  0
LINE
  5
17E
  8
0
 62
     0
 10
786.81258661000004
 20
-193.0184942061
 30
0.0
 11
771.77698694740002
 21
-182.3803678328
 31
0.0
  0
SOLID
  5
17F
  8
0
 62
     0
 10
786.81258661000004
 20
-193.0184942061
 30
0.0
 11
783.93039956070004
 21
-191.8980042183
 31
0.0
 12
784.79676979609985
 22
-190.67350325250001
 32
0.0
 13
784.9758351613001
 23
-191.71893885310001
 33
0.0
  0
ENDBLK
  5
180
  8
0
  0
BLOCK
  8
0
  2
*D18
 70
     1
 10
0.0
 20
0.0
 30
0.0
  3
*D18
  1

  0
TEXT
  5
184
  8
0
 62
     0
 10
752.94239598959996
 20
-160.47818863929999
 30
0.0
 40
2.9986110209999999
  1
2-%%c4x%%c6皿穴
  0
LINE
  5
185
  8
0
 62
     0
 10
792.21635964309985
 20
-161.00735529010001
 30
0.0
 11
749.41461831779986
 21
-161.00735529010001
 31
0.0
  0
LINE
  5
186
  8
0
 62
     0
 10
811.31258661000004
 20
-174.5184942061
 30
0.0
 11
792.21635964309985
 21
-161.00735529010001
 31
0.0
  0
SOLID
  5
187
  8
0
 62
     0
 10
811.31258661000004
 20
-174.5184942061
 30
0.0
 11
808.43039956069993
 21
-173.3980042183
 31
0.0
 12
809.29676979609985
 22
-172.17350325250001
 32
0.0
 13
809.47583516129998
 23
-173.21893885310001
 33
0.0
  0
ENDBLK
  5
188
  8
0
  0
BLOCK
  8
0
  2
CLUMP1
 70
     0
 10
0.0
 20
0.0
 30
0.0
  3
CLUMP1
  1

  0
LINE
  5
18E
  8
ﾚｲﾔ_1
  6
STITCH
 10
792.26158854170001
 20
-273.6235197803
 30
0.0
 11
791.26158854169989
 21
-272.6235197803
 31
0.0
  0
LINE
  5
18F
  8
ﾚｲﾔ_1
  6
STITCH
 10
791.26158854169989
 20
-272.6235197803
 30
0.0
 11
791.26158854169989
 21
-272.02351978029998
 31
0.0
  0
LINE
  5
190
  8
ﾚｲﾔ_1
  6
STITCH
 10
786.26158854170001
 20
-273.6235197803
 30
0.0
 11
787.26158854169989
 21
-272.6235197803
 31
0.0
  0
LINE
  5
191
  8
ﾚｲﾔ_1
  6
STITCH
 10
787.26158854169989
 20
-272.6235197803
 30
0.0
 11
787.26158854169989
 21
-272.02351978029998
 31
0.0
  0
LINE
  5
192
  8
ﾚｲﾔ_1
  6
STITCH
 10
795.76158854169989
 20
-272.6235197803
 30
0.0
 11
795.76158854169989
 21
-272.02351978029998
 31
0.0
  0
LINE
  5
193
  8
ﾚｲﾔ_1
  6
STITCH
 10
794.76158854170001
 20
-273.6235197803
 30
0.0
 11
795.76158854169989
 21
-272.6235197803
 31
0.0
  0
LINE
  5
194
  8
ﾚｲﾔ_1
  6
STITCH
 10
799.76158854169989
 20
-272.6235197803
 30
0.0
 11
799.76158854169989
 21
-272.02351978029998
 31
0.0
  0
LINE
  5
195
  8
ﾚｲﾔ_1
  6
STITCH
 10
800.76158854169989
 20
-273.6235197803
 30
0.0
 11
799.76158854169989
 21
-272.6235197803
 31
0.0
  0
CIRCLE
  5
196
  8
ﾚｲﾔ_1
 62
     5
 10
785.76158854170001
 20
-256.6235197803
 30
0.0
 40
2.0
  0
LINE
  5
197
  8
ﾚｲﾔ_1
  6
BORDER
 62
     3
 10
781.76158854170001
 20
-256.6235197803
 30
0.0
 11
789.76158854170001
 21
-256.6235197803
 31
0.0
  0
LINE
  5
198
  8
ﾚｲﾔ_1
  6
BORDER
 62
     3
 10
785.76158854170001
 20
-252.6235197803
 30
0.0
 11
785.76158854170001
 21
-260.6235197803
 31
0.0
  0
ARC
  5
199
  8
ﾚｲﾔ_1
 62
     5
 10
784.76158854170001
 20
-255.6235197803
 30
0.0
 40
4.0
 50
90.0
 51
180.0
  0
ARC
  5
19A
  8
ﾚｲﾔ_1
 62
     5
 10
782.76783014269995
 20
-271.52389483820002
 30
0.0
 40
20.0
 50
358.56853105990001
 51
84.2788001901
  0
ARC
  5
19B
  8
ﾚｲﾔ_1
 62
     5
 10
830.71797424409999
 20
-253.5355716121
 30
0.0
 40
50.0
 50
182.39330828109999
 51
201.70075270129999
  0
LINE
  5
19C
  8
ﾚｲﾔ_1
 62
     5
 10
802.76158854170001
 20
-272.02351978029998
 30
0.0
 11
802.76158854170001
 21
-273.6235197803
 31
0.0
  0
LINE
  5
19D
  8
ﾚｲﾔ_1
 62
     5
 10
784.26158854170001
 20
-272.02351978029998
 30
0.0
 11
784.26158854170001
 21
-273.6235197803
 31
0.0
  0
LINE
  5
19E
  8
ﾚｲﾔ_1
 62
     5
 10
784.26158854170001
 20
-272.02351978029998
 30
0.0
 11
802.76158854170001
 21
-272.02351978029998
 31
0.0
  0
LINE
  5
19F
  8
ﾚｲﾔ_1
 62
     5
 10
784.26158854170001
 20
-273.6235197803
 30
0.0
 11
802.76158854170001
 21
-273.6235197803
 31
0.0
  0
LINE
  5
1A0
  8
ﾚｲﾔ_1
  6
BORDER
 62
     3
 10
797.76158854170001
 20
-270.02351978029998
 30
0.0
 11
797.76158854170001
 21
-275.6235197803
 31
0.0
  0
LINE
  5
1A1
  8
ﾚｲﾔ_1
  6
BORDER
 62
     3
 10
789.26158854170001
 20
-270.02351978029998
 30
0.0
 11
789.26158854170001
 21
-275.6235197803
 31
0.0
  0
ENDBLK
  5
1A2
  8
0
  0
BLOCK
  8
0
  2
CLUMP2
 70
     0
 10
0.0
 20
0.0
 30
0.0
  3
CLUMP2
  1

  0
LINE
  5
1C0
  8
ﾚｲﾔ_1
  6
STITCH
 10
784.26158854170001
 20
-170.55123467679999
 30
0.0
 11
784.26158854170001
 21
-168.75123467680001
 31
0.0
  0
LINE
  5
1C1
  8
ﾚｲﾔ_1
 62
     5
 10
784.26158854170001
 20
-170.55123467679999
 30
0.0
 11
784.26158854170001
 21
-214.75123467680001
 31
0.0
  0
LINE
  5
1C2
  8
ﾚｲﾔ_1
 62
     5
 10
802.76158854170001
 20
-168.75123467680001
 30
0.0
 11
802.76158854170001
 21
-214.75123467680001
 31
0.0
  0
LINE
  5
1C3
  8
ﾚｲﾔ_1
 62
     5
 10
780.76158854170001
 20
-168.75123467680001
 30
0.0
 11
780.76158854170001
 21
-170.3512346768
 31
0.0
  0
LINE
  5
1C4
  8
ﾚｲﾔ_1
 62
     5
 10
780.76158854170001
 20
-170.3512346768
 30
0.0
 11
802.76158854170001
 21
-170.3512346768
 31
0.0
  0
LINE
  5
1C5
  8
ﾚｲﾔ_1
 62
     5
 10
780.76158854170001
 20
-168.75123467680001
 30
0.0
 11
802.76158854170001
 21
-168.75123467680001
 31
0.0
  0
ARC
  5
1C6
  8
ﾚｲﾔ_1
 62
     5
 10
786.26158854170001
 20
-214.75123467680001
 30
0.0
 40
2.0
 50
180.0
 51
270.0
  0
LINE
  5
1C7
  8
ﾚｲﾔ_1
 62
     5
 10
800.76158854169989
 20
-216.75123467680001
 30
0.0
 11
786.26158854170001
 21
-216.75123467680001
 31
0.0
  0
ARC
  5
1C8
  8
ﾚｲﾔ_1
 62
     5
 10
800.76158854169989
 20
-214.75123467680001
 30
0.0
 40
2.0
 50
270.0
 51
0.0
  0
CIRCLE
  5
1C9
  8
ﾚｲﾔ_1
 62
     5
 10
797.76158854170001
 20
-209.75123467680001
 30
0.0
 40
2.0
  0
CIRCLE
  5
1CA
  8
ﾚｲﾔ_1
 62
     5
 10
789.26158854170001
 20
-194.75123467680001
 30
0.0
 40
2.0
  0
CIRCLE
  5
1CB
  8
ﾚｲﾔ_1
 62
     5
 10
797.76158854170001
 20
-179.75123467680001
 30
0.0
 40
2.0
  0
CIRCLE
  5
1CC
  8
ﾚｲﾔ_1
  6
STITCH
 10
797.76158854170001
 20
-209.75123467680001
 30
0.0
 40
3.0
  0
CIRCLE
  5
1CD
  8
ﾚｲﾔ_1
  6
STITCH
 10
789.26158854170001
 20
-194.75123467680001
 30
0.0
 40
3.0
  0
CIRCLE
  5
1CE
  8
ﾚｲﾔ_1
  6
STITCH
 10
797.76158854170001
 20
-179.75123467680001
 30
0.0
 40
3.0
  0
LINE
  5
1CF
  8
ﾚｲﾔ_1
  6
BORDER
 62
     3
 10
797.76158854170001
 20
-204.75123467680001
 30
0.0
 11
797.76158854170001
 21
-214.75123467680001
 31
0.0
  0
LINE
  5
1D0
  8
ﾚｲﾔ_1
  6
BORDER
 62
     3
 10
802.76158854170001
 20
-209.75123467680001
 30
0.0
 11
792.76158854170001
 21
-209.75123467680001
 31
0.0
  0
LINE
  5
1D1
  8
ﾚｲﾔ_1
  6
BORDER
 62
     3
 10
794.26158854170001
 20
-194.75123467680001
 30
0.0
 11
784.26158854170001
 21
-194.75123467680001
 31
0.0
  0
LINE
  5
1D2
  8
ﾚｲﾔ_1
  6
BORDER
 62
     3
 10
789.26158854170001
 20
-189.75123467680001
 30
0.0
 11
789.26158854170001
 21
-199.75123467680001
 31
0.0
  0
LINE
  5
1D3
  8
ﾚｲﾔ_1
  6
BORDER
 62
     3
 10
797.76158854170001
 20
-174.75123467680001
 30
0.0
 11
797.76158854170001
 21
-184.75123467680001
 31
0.0
  0
LINE
  5
1D4
  8
ﾚｲﾔ_1
  6
BORDER
 62
     3
 10
802.76158854170001
 20
-179.75123467680001
 30
0.0
 11
792.76158854170001
 21
-179.75123467680001
 31
0.0
  0
ENDBLK
  5
1D5
  8
0
  0
BLOCK
  8
0
  2
*D21
 70
     1
 10
0.0
 20
0.0
 30
0.0
  3
*D21
  1

  0
TEXT
  5
23D
  8
0
 62
     0
 10
846.36575528779997
 20
-191.4584809804999
 30
0.0
 40
2.9986110209999999
  1
5.5
  0
LINE
  5
23E
  8
0
 62
     0
 10
846.26158854169989
 20
-173.25123467680001
 30
0.0
 11
846.26158854169989
 21
-193.48764763130001
 31
0.0
  0
LINE
  5
23F
  8
0
 62
     0
 10
851.76158854169989
 20
-181.25123467680001
 30
0.0
 11
851.76158854169989
 21
-193.48764763130001
 31
0.0
  0
LINE
  5
240
  8
0
 62
     0
 10
846.26158854169989
 20
-192.98764763130001
 30
0.0
 11
846.26158854169989
 21
-192.98764763130001
 31
0.0
  0
LINE
  5
241
  8
0
 62
     0
 10
846.26158854169989
 20
-192.98764763130001
 30
0.0
 11
851.76158854169989
 21
-192.98764763130001
 31
0.0
  0
LINE
  5
242
  8
0
 62
     0
 10
851.76158854169989
 20
-192.98764763130001
 30
0.0
 11
846.26158854169989
 21
-192.98764763130001
 31
0.0
  0
LINE
  5
243
  8
0
 62
     0
 10
851.76158854169989
 20
-192.98764763130001
 30
0.0
 11
851.76158854169989
 21
-192.98764763130001
 31
0.0
  0
LINE
  5
244
  8
0
 62
     0
 10
851.76158854169989
 20
-192.98764763130001
 30
0.0
 11
854.76158854170001
 21
-192.98764763130001
 31
0.0
  0
SOLID
  5
245
  8
0
 62
     0
 10
851.76158854169989
 20
-192.98764763130001
 30
0.0
 11
854.76158854170001
 21
-192.23764763130001
 31
0.0
 12
854.76158854170001
 22
-193.73764763130001
 32
0.0
 13
854.01158854170001
 23
-192.98764763130001
 33
0.0
  0
LINE
  5
246
  8
0
 62
     0
 10
846.26158854169989
 20
-192.98764763130001
 30
0.0
 11
843.26158854170001
 21
-192.98764763130001
 31
0.0
  0
SOLID
  5
247
  8
0
 62
     0
 10
846.26158854169989
 20
-192.98764763130001
 30
0.0
 11
843.26158854170001
 21
-193.73764763130001
 31
0.0
 12
843.26158854170001
 22
-192.23764763130001
 32
0.0
 13
844.01158854170001
 23
-192.98764763130001
 33
0.0
  0
ENDBLK
  5
248
  8
0
  0
BLOCK
  8
0
  2
*D22
 70
     1
 10
0.0
 20
0.0
 30
0.0
  3
*D22
  1

  0
TEXT
  5
24C
  8
0
 62
     0
 10
907.89511312690001
 20
-225.2220680261
 30
0.0
 40
2.9986110209999999
  1
22
  0
LINE
  5
24D
  8
0
 62
     0
 10
898.65900196279995
 20
-171.3512346768
 30
0.0
 11
898.65900196279995
 21
-227.25123467680001
 31
0.0
  0
LINE
  5
24E
  8
0
 62
     0
 10
920.65900196279995
 20
-217.75123467680001
 30
0.0
 11
920.65900196279995
 21
-227.25123467680001
 31
0.0
  0
LINE
  5
24F
  8
0
 62
     0
 10
898.65900196279995
 20
-226.75123467680001
 30
0.0
 11
913.18677963460004
 21
-226.75123467680001
 31
0.0
  0
LINE
  5
250
  8
0
 62
     0
 10
898.65900196279995
 20
-226.75123467680001
 30
0.0
 11
906.13122429099997
 21
-226.75123467680001
 31
0.0
  0
LINE
  5
251
  8
0
 62
     0
 10
920.65900196279995
 20
-226.75123467680001
 30
0.0
 11
913.18677963460004
 21
-226.75123467680001
 31
0.0
  0
LINE
  5
252
  8
0
 62
     0
 10
920.65900196279995
 20
-226.75123467680001
 30
0.0
 11
906.13122429099997
 21
-226.75123467680001
 31
0.0
  0
LINE
  5
253
  8
0
 62
     0
 10
920.65900196279995
 20
-226.75123467680001
 30
0.0
 11
917.65900196279995
 21
-226.75123467680001
 31
0.0
  0
SOLID
  5
254
  8
0
 62
     0
 10
920.65900196279995
 20
-226.75123467680001
 30
0.0
 11
917.65900196279995
 21
-227.50123467680001
 31
0.0
 12
917.65900196279995
 22
-226.00123467680001
 32
0.0
 13
918.40900196279995
 23
-226.75123467680001
 33
0.0
  0
LINE
  5
255
  8
0
 62
     0
 10
898.65900196279995
 20
-226.75123467680001
 30
0.0
 11
901.65900196279995
 21
-226.75123467680001
 31
0.0
  0
SOLID
  5
256
  8
0
 62
     0
 10
898.65900196279995
 20
-226.75123467680001
 30
0.0
 11
901.65900196279995
 21
-226.00123467680001
 31
0.0
 12
901.65900196279995
 22
-227.50123467680001
 32
0.0
 13
900.90900196279995
 23
-226.75123467680001
 33
0.0
  0
ENDBLK
  5
257
  8
0
  0
BLOCK
  8
0
  2
*D23
 70
     1
 10
0.0
 20
0.0
 30
0.0
  3
*D23
  1

  0
TEXT
  5
25B
  8
0
 62
     0
 10
867.43680383950004
 20
-173.51512351279999
 30
0.0
 40
2.9986110209999999
  1
19
 50
90.0
  0
LINE
  5
25C
  8
0
 62
     0
 10
851.76158854169989
 20
-181.25123467680001
 30
0.0
 11
869.46597049030015
 21
-181.25123467680001
 31
0.0
  0
LINE
  5
25D
  8
0
 62
     0
 10
851.76158854169989
 20
-162.25123467680001
 30
0.0
 11
869.46597049030015
 21
-162.25123467680001
 31
0.0
  0
LINE
  5
25E
  8
0
 62
     0
 10
868.96597049030004
 20
-181.25123467680001
 30
0.0
 11
868.96597049030004
 21
-168.223457005
 31
0.0
  0
LINE
  5
25F
  8
0
 62
     0
 10
868.96597049030004
 20
-181.25123467680001
 30
0.0
 11
868.96597049030004
 21
-175.27901234870001
 31
0.0
  0
LINE
  5
260
  8
0
 62
     0
 10
868.96597049030004
 20
-162.25123467680001
 30
0.0
 11
868.96597049030004
 21
-168.223457005
 31
0.0
  0
LINE
  5
261
  8
0
 62
     0
 10
868.96597049030004
 20
-162.25123467680001
 30
0.0
 11
868.96597049030004
 21
-175.27901234870001
 31
0.0
  0
LINE
  5
262
  8
0
 62
     0
 10
868.96597049030004
 20
-162.25123467680001
 30
0.0
 11
868.96597049030004
 21
-165.25123467680001
 31
0.0
  0
SOLID
  5
263
  8
0
 62
     0
 10
868.96597049030004
 20
-162.25123467680001
 30
0.0
 11
869.71597049030004
 21
-165.25123467680001
 31
0.0
 12
868.21597049030004
 22
-165.25123467680001
 32
0.0
 13
868.96597049030004
 23
-164.50123467680001
 33
0.0
  0
LINE
  5
264
  8
0
 62
     0
 10
868.96597049030004
 20
-181.25123467680001
 30
0.0
 11
868.96597049030004
 21
-178.25123467680001
 31
0.0
  0
SOLID
  5
265
  8
0
 62
     0
 10
868.96597049030004
 20
-181.25123467680001
 30
0.0
 11
868.21597049030004
 21
-178.25123467680001
 31
0.0
 12
869.71597049030004
 22
-178.25123467680001
 32
0.0
 13
868.96597049030004
 23
-179.00123467680001
 33
0.0
  0
ENDBLK
  5
266
  8
0
  0
BLOCK
  8
0
  2
*D24
 70
     1
 10
0.0
 20
0.0
 30
0.0
  3
*D24
  1

  0
TEXT
  5
26A
  8
0
 62
     0
 10
907.38122429100008
 20
-150.7220680261
 30
0.0
 40
2.9986110209999999
  1
24.5
  0
LINE
  5
26B
  8
0
 62
     0
 10
923.15900196279995
 20
-161.25123467680001
 30
0.0
 11
923.15900196279995
 21
-151.75123467680001
 31
0.0
  0
LINE
  5
26C
  8
0
 62
     0
 10
898.65900196279995
 20
-165.25123467680001
 30
0.0
 11
898.65900196279995
 21
-151.75123467680001
 31
0.0
  0
LINE
  5
26D
  8
0
 62
     0
 10
923.15900196279995
 20
-152.25123467680001
 30
0.0
 11
916.20066847049998
 21
-152.25123467680001
 31
0.0
  0
LINE
  5
26E
  8
0
 62
     0
 10
923.15900196279995
 20
-152.25123467680001
 30
0.0
 11
905.61733545509992
 21
-152.25123467680001
 31
0.0
  0
LINE
  5
26F
  8
0
 62
     0
 10
898.65900196279995
 20
-152.25123467680001
 30
0.0
 11
916.20066847049998
 21
-152.25123467680001
 31
0.0
  0
LINE
  5
270
  8
0
 62
     0
 10
898.65900196279995
 20
-152.25123467680001
 30
0.0
 11
905.61733545509992
 21
-152.25123467680001
 31
0.0
  0
LINE
  5
271
  8
0
 62
     0
 10
898.65900196279995
 20
-152.25123467680001
 30
0.0
 11
901.65900196279995
 21
-152.25123467680001
 31
0.0
  0
SOLID
  5
272
  8
0
 62
     0
 10
898.65900196279995
 20
-152.25123467680001
 30
0.0
 11
901.65900196279995
 21
-151.50123467680001
 31
0.0
 12
901.65900196279995
 22
-153.00123467680001
 32
0.0
 13
900.90900196279995
 23
-152.25123467680001
 33
0.0
  0
LINE
  5
273
  8
0
 62
     0
 10
923.15900196279995
 20
-152.25123467680001
 30
0.0
 11
920.15900196279995
 21
-152.25123467680001
 31
0.0
  0
SOLID
  5
274
  8
0
 62
     0
 10
923.15900196279995
 20
-152.25123467680001
 30
0.0
 11
920.15900196279995
 21
-153.00123467680001
 31
0.0
 12
920.15900196279995
 22
-151.50123467680001
 32
0.0
 13
920.90900196279995
 23
-152.25123467680001
 33
0.0
  0
ENDBLK
  5
275
  8
0
  0
BLOCK
  8
0
  2
*D25
 70
     1
 10
0.0
 20
0.0
 30
0.0
  3
*D25
  1

  0
TEXT
  5
279
  8
0
 62
     0
 10
860.7324218908999
 20
-179.6331790948
 30
0.0
 40
2.9986110209999999
  1
5
 50
90.0
  0
LINE
  5
27A
  8
0
 62
     0
 10
851.76158854169989
 20
-181.25123467680001
 30
0.0
 11
862.76158854170001
 21
-181.25123467680001
 31
0.0
  0
LINE
  5
27B
  8
0
 62
     0
 10
840.76158854170001
 20
-176.25123467680001
 30
0.0
 11
862.76158854170001
 21
-176.25123467680001
 31
0.0
  0
LINE
  5
27C
  8
0
 62
     0
 10
862.26158854169989
 20
-181.25123467680001
 30
0.0
 11
862.26158854169989
 21
-181.25123467680001
 31
0.0
  0
LINE
  5
27D
  8
0
 62
     0
 10
862.26158854169989
 20
-181.25123467680001
 30
0.0
 11
862.26158854169989
 21
-176.25123467680001
 31
0.0
  0
LINE
  5
27E
  8
0
 62
     0
 10
862.26158854169989
 20
-176.25123467680001
 30
0.0
 11
862.26158854169989
 21
-181.25123467680001
 31
0.0
  0
LINE
  5
27F
  8
0
 62
     0
 10
862.26158854169989
 20
-176.25123467680001
 30
0.0
 11
862.26158854169989
 21
-176.25123467680001
 31
0.0
  0
LINE
  5
280
  8
0
 62
     0
 10
862.26158854169989
 20
-176.25123467680001
 30
0.0
 11
862.26158854169989
 21
-173.25123467680001
 31
0.0
  0
SOLID
  5
281
  8
0
 62
     0
 10
862.26158854169989
 20
-176.25123467680001
 30
0.0
 11
861.51158854169989
 21
-173.25123467680001
 31
0.0
 12
863.01158854170001
 22
-173.25123467680001
 32
0.0
 13
862.26158854169989
 23
-174.00123467680001
 33
0.0
  0
LINE
  5
282
  8
0
 62
     0
 10
862.26158854169989
 20
-181.25123467680001
 30
0.0
 11
862.26158854169989
 21
-184.25123467680001
 31
0.0
  0
SOLID
  5
283
  8
0
 62
     0
 10
862.26158854169989
 20
-181.25123467680001
 30
0.0
 11
863.01158854170001
 21
-184.25123467680001
 31
0.0
 12
861.51158854169989
 22
-184.25123467680001
 32
0.0
 13
862.26158854169989
 23
-183.50123467680001
 33
0.0
  0
ENDBLK
  5
284
  8
0
  0
BLOCK
  8
0
  2
*D26
 70
     1
 10
0.0
 20
0.0
 30
0.0
  3
*D26
  1

  0
TEXT
  5
288
  8
0
 62
     0
 10
860.7324218908999
 20
-172.6331790948
 30
0.0
 40
2.9986110209999999
  1
9
 50
90.0
  0
LINE
  5
289
  8
0
 62
     0
 10
840.76158854170001
 20
-176.25123467680001
 30
0.0
 11
862.76158854170001
 21
-176.25123467680001
 31
0.0
  0
LINE
  5
28A
  8
0
 62
     0
 10
853.26158854170001
 20
-167.25123467680001
 30
0.0
 11
862.76158854170001
 21
-167.25123467680001
 31
0.0
  0
LINE
  5
28B
  8
0
 62
     0
 10
862.26158854169989
 20
-176.25123467680001
 30
0.0
 11
862.26158854169989
 21
-169.10540142299999
 31
0.0
  0
LINE
  5
28C
  8
0
 62
     0
 10
862.26158854169989
 20
-176.25123467680001
 30
0.0
 11
862.26158854169989
 21
-174.39706793069999
 31
0.0
  0
LINE
  5
28D
  8
0
 62
     0
 10
862.26158854169989
 20
-167.25123467680001
 30
0.0
 11
862.26158854169989
 21
-169.10540142299999
 31
0.0
  0
LINE
  5
28E
  8
0
 62
     0
 10
862.26158854169989
 20
-167.25123467680001
 30
0.0
 11
862.26158854169989
 21
-174.39706793069999
 31
0.0
  0
LINE
  5
28F
  8
0
 62
     0
 10
862.26158854169989
 20
-167.25123467680001
 30
0.0
 11
862.26158854169989
 21
-164.25123467680001
 31
0.0
  0
SOLID
  5
290
  8
0
 62
     0
 10
862.26158854169989
 20
-167.25123467680001
 30
0.0
 11
861.51158854169989
 21
-164.25123467680001
 31
0.0
 12
863.01158854170001
 22
-164.25123467680001
 32
0.0
 13
862.26158854169989
 23
-165.00123467680001
 33
0.0
  0
LINE
  5
291
  8
0
 62
     0
 10
862.26158854169989
 20
-176.25123467680001
 30
0.0
 11
862.26158854169989
 21
-179.25123467680001
 31
0.0
  0
SOLID
  5
292
  8
0
 62
     0
 10
862.26158854169989
 20
-176.25123467680001
 30
0.0
 11
863.01158854170001
 21
-179.25123467680001
 31
0.0
 12
861.51158854169989
 22
-179.25123467680001
 32
0.0
 13
862.26158854169989
 23
-178.50123467680001
 33
0.0
  0
ENDBLK
  5
293
  8
0
  0
BLOCK
  8
0
  2
*D27
 70
     1
 10
0.0
 20
0.0
 30
0.0
  3
*D27
  1

  0
TEXT
  5
2C2
  8
0
 62
     0
 10
860.7324218908999
 20
-165.6331790948
 30
0.0
 40
2.9986110209999999
  1
5
 50
90.0
  0
LINE
  5
2C3
  8
0
 62
     0
 10
853.26158854170001
 20
-167.25123467680001
 30
0.0
 11
862.76158854170001
 21
-167.25123467680001
 31
0.0
  0
LINE
  5
2C4
  8
0
 62
     0
 10
851.76158854169989
 20
-162.25123467680001
 30
0.0
 11
862.76158854170001
 21
-162.25123467680001
 31
0.0
  0
LINE
  5
2C5
  8
0
 62
     0
 10
862.26158854169989
 20
-167.25123467680001
 30
0.0
 11
862.26158854169989
 21
-167.25123467680001
 31
0.0
  0
LINE
  5
2C6
  8
0
 62
     0
 10
862.26158854169989
 20
-167.25123467680001
 30
0.0
 11
862.26158854169989
 21
-162.25123467680001
 31
0.0
  0
LINE
  5
2C7
  8
0
 62
     0
 10
862.26158854169989
 20
-162.25123467680001
 30
0.0
 11
862.26158854169989
 21
-167.25123467680001
 31
0.0
  0
LINE
  5
2C8
  8
0
 62
     0
 10
862.26158854169989
 20
-162.25123467680001
 30
0.0
 11
862.26158854169989
 21
-162.25123467680001
 31
0.0
  0
LINE
  5
2C9
  8
0
 62
     0
 10
862.26158854169989
 20
-162.25123467680001
 30
0.0
 11
862.26158854169989
 21
-159.25123467680001
 31
0.0
  0
SOLID
  5
2CA
  8
0
 62
     0
 10
862.26158854169989
 20
-162.25123467680001
 30
0.0
 11
861.51158854169989
 21
-159.25123467680001
 31
0.0
 12
863.01158854170001
 22
-159.25123467680001
 32
0.0
 13
862.26158854169989
 23
-160.00123467680001
 33
0.0
  0
LINE
  5
2CB
  8
0
 62
     0
 10
862.26158854169989
 20
-167.25123467680001
 30
0.0
 11
862.26158854169989
 21
-170.25123467680001
 31
0.0
  0
SOLID
  5
2CC
  8
0
 62
     0
 10
862.26158854169989
 20
-167.25123467680001
 30
0.0
 11
863.01158854170001
 21
-170.25123467680001
 31
0.0
 12
861.51158854169989
 22
-170.25123467680001
 32
0.0
 13
862.26158854169989
 23
-169.50123467680001
 33
0.0
  0
ENDBLK
  5
2CD
  8
0
  0
BLOCK
  8
0
  2
*U28
 70
     1
 10
0.0
 20
0.0
 30
0.0
  3
*U28
  1

  0
TEXT
  5
301
  8
図枠
  6
CONTINUOUS
 10
891.36548403161089
 20
-129.34473955629389
 30
0.0
 40
2.698480084499999
  1
改訂日
  0
ENDBLK
  5
303
  8
0
  0
BLOCK
  8
0
  2
*U29
 70
     1
 10
0.0
 20
0.0
 30
0.0
  3
*U29
  1

  0
TEXT
  5
305
  8
図枠
  6
CONTINUOUS
 10
881.13370906156263
 20
-129.3173438193954
 30
0.0
 40
2.698480084499999
  1
副番
  0
ENDBLK
  5
307
  8
0
  0
BLOCK
  8
0
  2
*U30
 70
     1
 10
0.0
 20
0.0
 30
0.0
  3
*U30
  1

  0
TEXT
  5
309
  8
図枠
  6
CONTINUOUS
 10
954.50301165032784
 20
-129.3721352931924
 30
0.0
 40
2.698480084499999
  1
改訂者
  0
ENDBLK
  5
30B
  8
0
  0
BLOCK
  8
0
  2
*U31
 70
     1
 10
0.0
 20
0.0
 30
0.0
  3
*U31
  1

  0
TEXT
  5
30D
  8
図枠
  6
CONTINUOUS
 10
964.46091804498008
 20
-129.38583316164161
 30
0.0
 40
2.698480084499999
  1
検認者
  0
ENDBLK
  5
30F
  8
0
  0
BLOCK
  8
0
  2
*U32
 70
     1
 10
0.0
 20
0.0
 30
0.0
  3
*U32
  1

  0
TEXT
  5
311
  8
図枠
  6
CONTINUOUS
 10
917.43791153052075
 20
-129.3721352931924
 30
0.0
 40
2.698480084499999
  1
改　訂　内　容
  0
ENDBLK
  5
313
  8
0
  0
BLOCK
  8
0
  2
*U33
 70
     1
 10
0.0
 20
0.0
 30
0.0
  3
*U33
  1

  0
TEXT
  5
315
  8
図枠
  6
CONTINUOUS
 10
918.7309863436908
 20
-293.06117723105268
 30
0.0
 40
2.337266249999999
  1
製品名
  0
ENDBLK
  5
317
  8
0
  0
BLOCK
  8
0
  2
*U34
 70
     1
 10
0.0
 20
0.0
 30
0.0
  3
*U34
  1

  0
TEXT
  5
319
  8
図枠
  6
CONTINUOUS
 10
859.91415287922371
 20
-306.01541508515271
 30
0.0
 40
2.337266249999999
  1
製図
  0
ENDBLK
  5
31B
  8
0
  0
BLOCK
  8
0
  2
*U35
 70
     1
 10
0.0
 20
0.0
 30
0.0
  3
*U35
  1

  0
TEXT
  5
31D
  8
図枠
  6
CONTINUOUS
 10
935.56156684300754
 20
-295.8775579025675
 30
0.0
 40
2.9983111599000001
  1
キャビネット丁番
  0
ENDBLK
  5
31F
  8
0
  0
BLOCK
  8
0
  2
*U36
 70
     1
 10
0.0
 20
0.0
 30
0.0
  3
*U36
  1

  0
TEXT
  5
321
  8
ﾚｲﾔ_1
  6
CONTINUOUS
 10
928.89929339749995
 20
-288.27449014578173
 30
0.0
 40
3.5983331442000002
  1
＊図はＲ用(Ｌ用は対称)
  0
ENDBLK
  5
323
  8
0
  0
BLOCK
  8
0
  2
*U37
 70
     1
 10
0.0
 20
0.0
 30
0.0
  3
*U37
  1

  0
TEXT
  5
325
  8
ﾚｲﾔ_1
  6
CONTINUOUS
 10
857.76796833260005
 20
-288.3110214467381
 30
0.0
 40
3.5983331442000002
  1
材質：鉄製　クロメートメッキ
  0
ENDBLK
  5
327
  8
0
  0
BLOCK
  8
0
  2
*U38
 70
     1
 10
0.0
 20
0.0
 30
0.0
  3
*U38
  1

  0
TEXT
  5
329
  8
図枠
  6
CONTINUOUS
 10
883.33106856767574
 20
-293.26669008515279
 30
0.0
 40
2.337266249999999
  1
尺 　度
  0
ENDBLK
  5
32B
  8
0
  0
BLOCK
  8
0
  2
*U39
 70
     1
 10
0.0
 20
0.0
 30
0.0
  3
*U39
  1

  0
TEXT
  5
32D
  8
図枠
  6
CONTINUOUS
 10
888.50983363429998
 20
-306.02727938083808
 30
0.0
 40
2.337266249999999
  1
 検図
  0
ENDBLK
  5
32F
  8
0
  0
BLOCK
  8
0
  2
*U40
 70
     1
 10
0.0
 20
0.0
 30
0.0
  3
*U40
  1

  0
TEXT
  5
331
  8
図枠
  6
CONTINUOUS
 10
862.73296530369998
 20
-313.38876289840658
 30
0.0
 40
4.3175681352000002
  1
株式会社
  0
ENDBLK
  5
333
  8
0
  0
BLOCK
  8
0
  2
*U41
 70
     1
 10
0.0
 20
0.0
 30
0.0
  3
*U41
  1

  0
TEXT
  5
335
  8
図枠
  6
CONTINUOUS
 10
858.5128336342998
 20
-301.7421114937822
 30
0.0
 40
2.337266249999999
  1
 設計
  0
ENDBLK
  5
337
  8
0
  0
BLOCK
  8
0
  2
*U42
 70
     1
 10
0.0
 20
0.0
 30
0.0
  3
*U42
  1

  0
TEXT
  5
339
  8
図枠
  6
CONTINUOUS
 10
888.50983363429998
 20
-301.75397578946752
 30
0.0
 40
2.337266249999999
  1
 照査
  0
ENDBLK
  5
33B
  8
0
  0
BLOCK
  8
0
  2
*U43
 70
     1
 10
0.0
 20
0.0
 30
0.0
  3
*U43
  1

  0
TEXT
  5
33D
  8
図枠
  6
CONTINUOUS
 10
863.58221877706649
 20
-293.19550431104108
 30
0.0
 40
2.337266249999999
  1
日 　付
  0
ENDBLK
  5
33F
  8
0
  0
BLOCK
  8
0
  2
*U44
 70
     1
 10
0.0
 20
0.0
 30
0.0
  3
*U44
  1

  0
TEXT
  5
341
  8
図枠
  6
CONTINUOUS
 10
935.812694427466
 20
-312.58668068409997
 30
0.0
 40
2.9983111599000001
  1
ＳＦＺ０００２４
  0
ENDBLK
  5
343
  8
0
  0
BLOCK
  8
0
  2
*U45
 70
     1
 10
0.0
 20
0.0
 30
0.0
  3
*U45
  1

  0
TEXT
  5
345
  8
図枠
  6
CONTINUOUS
 10
939.03930339141948
 20
-304.1484100985142
 30
0.0
 40
2.9983111599000001
  1
Ａ型   承認図
  0
ENDBLK
  5
347
  8
0
  0
BLOCK
  8
0
  2
*U46
 70
     1
 10
0.0
 20
0.0
 30
0.0
  3
*U46
  1

  0
TEXT
  5
349
  8
図枠
  6
CONTINUOUS
 10
864.69746257148267
 20
-297.39762212829999
 30
0.0
 40
2.337266249999999
  1
H16.4
  0
ENDBLK
  5
34B
  8
0
  0
BLOCK
  8
0
  2
*U47
 70
     1
 10
0.0
 20
0.0
 30
0.0
  3
*U47
  1

  0
TEXT
  5
34D
  8
図枠
  6
CONTINUOUS
 10
885.62087763493457
 20
-297.39762212829999
 30
0.0
 40
2.337266249999999
  1
1：1
  0
ENDBLK
  5
34F
  8
0
  0
BLOCK
  8
0
  2
*U48
 70
     1
 10
0.0
 20
0.0
 30
0.0
  3
*U48
  1

  0
TEXT
  5
351
  8
図枠
  6
CONTINUOUS
 10
873.89232345028961
 20
-306.03914367652328
 30
0.0
 40
2.337266249999999
  1
岸 本
  0
ENDBLK
  5
353
  8
0
  0
BLOCK
  8
0
  2
*U49
 70
     1
 10
0.0
 20
0.0
 30
0.0
  3
*U49
  1

  0
TEXT
  5
355
  8
図枠
  6
CONTINUOUS
 10
873.19233000485826
 20
-301.77770438083809
 30
0.0
 40
2.337266249999999
  1
白須賀
  0
ENDBLK
  5
357
  8
0
  0
BLOCK
  8
0
  2
*U50
 70
     1
 10
0.0
 20
0.0
 30
0.0
  3
*U50
  1

  0
TEXT
  5
359
  8
図枠
  6
CONTINUOUS
 10
903.90118774597488
 20
-301.70651860672638
 30
0.0
 40
2.337266249999999
  1
園 原
  0
ENDBLK
  5
35B
  8
0
  0
BLOCK
  8
0
  2
*U51
 70
     1
 10
0.0
 20
0.0
 30
0.0
  3
*U51
  1

  0
TEXT
  5
35D
  8
図枠
  6
CONTINUOUS
 10
903.90118774597488
 20
-305.95609360672643
 30
0.0
 40
2.337266249999999
  1
園 原
  0
ENDBLK
  5
35F
  8
0
  0
BLOCK
  8
0
  2
*U52
 70
     1
 10
0.0
 20
0.0
 30
0.0
  3
*U52
  1

  0
TEXT
  5
361
  8
図枠
  6
CONTINUOUS
 10
918.78437567427454
 20
-310.01202004831168
 30
0.0
 40
2.337266249999999
  1
図　番
  0
ENDBLK
  5
363
  8
0
  0
BLOCK
  8
0
  2
*U53
 70
     1
 10
0.0
 20
0.0
 30
0.0
  3
*U53
  1

  0
TEXT
  5
365
  8
図枠
  6
CONTINUOUS
 10
918.79623996995986
 20
-301.53659863968221
 30
0.0
 40
2.337266249999999
  1
図面名
  0
ENDBLK
  5
367
  8
0
  0
ENDSEC
  0
SECTION
  2
ENTITIES
  0
LINE
  5
2F
  8
図枠
 62
     5
 10
880.51063363429989
 20
-140.62026802419999
 30
0.0
 11
974.50123363429998
 21
-140.62026802419999
 31
0.0
  0
LINE
  5
30
  8
図枠
 62
     5
 10
884.22597667679997
 20
-135.85312728630001
 30
0.0
 11
881.75122417679995
 21
-140.1395243524
 31
0.0
  0
LINE
  5
31
  8
図枠
 62
     5
 10
884.22597667679997
 20
-135.85312728630001
 30
0.0
 11
886.70072917679988
 21
-140.1395243524
 31
0.0
  0
LINE
  5
32
  8
図枠
 62
     5
 10
881.75122417679995
 20
-140.1395243524
 30
0.0
 11
886.70072917679988
 21
-140.1395243524
 31
0.0
  0
LINE
  5
33
  8
図枠
 62
     5
 10
881.75122417679995
 20
-135.14002435239999
 30
0.0
 11
886.70072917679988
 21
-135.14002435239999
 31
0.0
  0
LINE
  5
34
  8
図枠
 62
     5
 10
880.51063363429989
 20
-135.6207680242
 30
0.0
 11
974.50123363429998
 21
-135.6207680242
 31
0.0
  0
LINE
  5
35
  8
図枠
  6
DOT
 10
693.52933363429997
 20
-321.35219302420001
 30
0.0
 11
980.50063363429979
 21
-321.35219302420001
 31
0.0
  0
LINE
  5
36
  8
図枠
 62
     5
 10
699.5287336342999
 20
-315.60276802419997
 30
0.0
 11
974.50123363429998
 21
-315.60276802419997
 31
0.0
  0
DIMENSION
  5
47
  8
寸法線
  2
*D0
 10
805.26158854169989
 20
-199.68621941469999
 30
0.0
 11
828.51158854169989
 21
-199.68621941469999
 31
0.0
 70
   128
  1
<>
 13
805.26158854169989
 23
-180.25123467680001
 33
0.0
 14
851.76158854169989
 24
-180.25123467680001
 34
0.0
 50
180.0
  0
DIMENSION
  5
56
  8
寸法線
  2
*D1
 10
834.76158854169989
 20
-192.98764763130001
 30
0.0
 11
840.51158854170001
 21
-192.98764763130001
 31
0.0
 70
   128
  1
<>
 13
834.76158854169989
 23
-181.25123467680001
 33
0.0
 14
846.26158854169989
 24
-172.25123467680001
 34
0.0
 50
180.0
  0
DIMENSION
  5
65
  8
寸法線
  2
*D2
 10
851.76158854169989
 20
-156.01128668179999
 30
0.0
 11
816.26158854170001
 21
-156.01128668179999
 31
0.0
 70
   128
  1
<>
 13
851.76158854169989
 23
-163.25123467680001
 33
0.0
 14
780.76158854170001
 24
-166.25123467680001
 34
0.0
  0
DIMENSION
  5
6E
  8
寸法線
  2
*D3
 10
848.09154734570006
 20
-168.5434255703
 30
0.0
 11
814.65972809849995
 21
-146.92673575129999
 31
0.0
 70
   131
  1
4x6-6x8皿長穴
 15
843.19354348239995
 25
-165.0779446288
 35
0.0
 40
0.0
  0
LINE
  5
6F
  8
図枠
  6
DOT
 10
693.52933363429997
 20
-119.87234302420001
 30
0.0
 11
980.50063363429979
 21
-119.87234302420001
 31
0.0
  0
LINE
  5
70
  8
図枠
 62
     5
 10
699.5287336342999
 20
-125.62176802419999
 30
0.0
 11
974.50123363429998
 21
-125.62176802419999
 31
0.0
  0
LINE
  5
71
  8
図枠
 62
     5
 10
699.5287336342999
 20
-315.60276802419997
 30
0.0
 11
699.5287336342999
 21
-125.62176802419999
 31
0.0
  0
LINE
  5
72
  8
図枠
  6
DOT
 10
693.53233333429978
 20
-321.35219302420001
 30
0.0
 11
693.53233333429978
 21
-119.87234302420001
 31
0.0
  0
LINE
  5
73
  8
図枠
 62
     5
 10
974.50123363429998
 20
-315.60276802419997
 30
0.0
 11
974.50123363429998
 21
-125.62176802419999
 31
0.0
  0
LINE
  5
74
  8
図枠
  6
DOT
 10
980.50063363429979
 20
-321.35219302420001
 30
0.0
 11
980.50063363429979
 21
-119.87234302420001
 31
0.0
  0
LINE
  5
75
  8
図枠
 62
     5
 10
880.51063363429989
 20
-140.62026802419999
 30
0.0
 11
880.51063363429989
 21
-125.62176802419999
 31
0.0
  0
LINE
  5
76
  8
図枠
 62
     5
 10
954.50323363429982
 20
-140.62026802419999
 30
0.0
 11
954.50323363429982
 21
-125.62176802419999
 31
0.0
  0
INSERT
  5
77
  8
0
  6
CONTINUOUS
  2
*U28
 10
0.0
 20
0.0
 30
0.0
  0
INSERT
  5
78
  8
0
  6
CONTINUOUS
  2
*U29
 10
0.0
 20
0.0
 30
0.0
  0
INSERT
  5
79
  8
0
  6
CONTINUOUS
  2
*U30
 10
0.0
 20
0.0
 30
0.0
  0
INSERT
  5
7A
  8
0
  6
CONTINUOUS
  2
*U31
 10
0.0
 20
0.0
 30
0.0
  0
LINE
  5
7B
  8
図枠
 62
     5
 10
888.50983363429998
 20
-140.62026802419999
 30
0.0
 11
888.50983363429998
 21
-125.62176802419999
 31
0.0
  0
LINE
  5
7C
  8
図枠
 62
     5
 10
884.22597667679997
 20
-130.8536272863
 30
0.0
 11
886.70072917679988
 21
-135.14002435239999
 31
0.0
  0
LINE
  5
7D
  8
図枠
 62
     5
 10
884.22597667679997
 20
-130.8536272863
 30
0.0
 11
881.75122417679995
 21
-135.14002435239999
 31
0.0
  0
LINE
  5
7E
  8
図枠
 62
     5
 10
964.50223363429996
 20
-140.62026802419999
 30
0.0
 11
964.50223363429996
 21
-125.62176802419999
 31
0.0
  0
LINE
  5
7F
  8
図枠
 62
     5
 10
880.51063363429989
 20
-130.62126802419999
 30
0.0
 11
974.50123363429998
 21
-130.62126802419999
 31
0.0
  0
INSERT
  5
80
  8
0
  6
CONTINUOUS
  2
*U32
 10
0.0
 20
0.0
 30
0.0
  0
LINE
  5
81
  8
図枠
 62
     5
 10
904.50823363429981
 20
-140.62026802419999
 30
0.0
 11
904.50823363429981
 21
-125.62176802419999
 31
0.0
  0
LINE
  5
83
  8
ﾚｲﾔ_1
  6
STITCH
 10
837.76158854170001
 20
-274.52351978029998
 30
0.0
 11
836.56158854169996
 21
-275.72351978030002
 31
0.0
  0
LINE
  5
84
  8
ﾚｲﾔ_1
  6
STITCH
 10
836.56158854169996
 20
-275.72351978030002
 30
0.0
 11
836.56158854169996
 21
-276.1235197803
 31
0.0
  0
LINE
  5
85
  8
ﾚｲﾔ_1
  6
STITCH
 10
815.56158854169985
 20
-275.72351978030002
 30
0.0
 11
815.56158854169985
 21
-276.1235197803
 31
0.0
  0
LINE
  5
86
  8
ﾚｲﾔ_1
  6
STITCH
 10
816.76158854169989
 20
-274.52351978029998
 30
0.0
 11
815.56158854169985
 21
-275.72351978030002
 31
0.0
  0
LINE
  5
87
  8
ﾚｲﾔ_1
  6
STITCH
 10
811.96158854169994
 20
-275.72351978030002
 30
0.0
 11
811.96158854169994
 21
-276.1235197803
 31
0.0
  0
LINE
  5
88
  8
ﾚｲﾔ_1
  6
STITCH
 10
810.76158854170012
 20
-274.52351978029998
 30
0.0
 11
811.96158854169994
 21
-275.72351978030002
 31
0.0
  0
LINE
  5
89
  8
ﾚｲﾔ_1
  6
BORDER
 62
     3
 10
813.76158854170001
 20
-272.52351978029998
 30
0.0
 11
813.76158854170001
 21
-278.1235197803
 31
0.0
  0
ARC
  5
8A
  8
ﾚｲﾔ_1
 62
     5
 10
835.26158854170001
 20
-272.4564825887
 30
0.0
 40
0.5
 50
0.0
 51
67.321325522099997
  0
LINE
  5
8B
  8
ﾚｲﾔ_1
 62
     5
 10
805.26158854169989
 20
-274.52351978029998
 30
0.0
 11
805.26158854169989
 21
-276.1235197803
 31
0.0
  0
LINE
  5
8C
  8
ﾚｲﾔ_1
 62
     5
 10
805.26158854169989
 20
-274.52351978029998
 30
0.0
 11
785.82615814359986
 21
-274.52351978029998
 31
0.0
  0
LINE
  5
8D
  8
ﾚｲﾔ_1
 62
     5
 10
835.76158854170012
 20
-272.4564825887
 30
0.0
 11
835.76158854170012
 21
-274.52351978029998
 31
0.0
  0
LINE
  5
8E
  8
ﾚｲﾔ_1
  6
STITCH
 10
835.76158854170012
 20
-274.52351978029998
 30
0.0
 11
835.76158854170012
 21
-276.1235197803
 31
0.0
  0
LINE
  5
8F
  8
ﾚｲﾔ_1
  6
BORDER
 62
     3
 10
787.76158854170001
 20
-256.6235197803
 30
0.0
 11
783.76158854170001
 21
-256.6235197803
 31
0.0
  0
LINE
  5
90
  8
ﾚｲﾔ_1
  6
BORDER
 62
     3
 10
785.76158854170001
 20
-254.6235197803
 30
0.0
 11
785.76158854170001
 21
-258.6235197803
 31
0.0
  0
LINE
  5
91
  8
ﾚｲﾔ_1
  6
STITCH
 10
792.45805572439997
 20
-254.0281945614
 30
0.0
 11
788.40692053709995
 21
-252.33533940730001
 31
0.0
  0
ARC
  5
92
  8
ﾚｲﾔ_1
  6
STITCH
 10
785.91217451419993
 20
-255.6235197803
 30
0.0
 40
4.0
 50
99.519485281200005
 51
157.62740406809999
  0
ARC
  5
93
  8
ﾚｲﾔ_1
  6
STITCH
 10
800.12370909280003
 20
-261.46334469329997
 30
0.0
 40
19.364610413000001
 50
157.65420806860001
 51
171.45923594179999
  0
ARC
  5
94
  8
ﾚｲﾔ_1
  6
STITCH
 10
800.12370909269998
 20
-261.46334469340002
 30
0.0
 40
19.364610412800001
 50
215.00226789440001
 51
218.89967730410001
  0
ARC
  5
95
  8
ﾚｲﾔ_1
 62
     5
 10
800.12370909280003
 20
-261.46334469329997
 30
0.0
 40
19.364610413000001
 50
171.45923594179999
 51
215.00226789440001
  0
ARC
  5
96
  8
ﾚｲﾔ_1
 62
     5
 10
800.12370909269998
 20
-261.46334469340002
 30
0.0
 40
19.364610412800001
 50
218.89967730410001
 51
222.41030634929999
  0
ARC
  5
97
  8
ﾚｲﾔ_1
 62
     5
 10
785.91217451419993
 20
-255.6235197803
 30
0.0
 40
4.0
 50
69.939474032299984
 51
99.519485281200005
  0
LINE
  5
98
  8
ﾚｲﾔ_1
 62
     5
 10
788.40692053709995
 20
-252.33533940730001
 30
0.0
 11
787.2842250036
 21
-251.86619660349999
 31
0.0
  0
INSERT
  5
9A
  8
ﾚｲﾔ_1
  6
STITCH
  2
CLUMP0
 10
0.0
 20
0.0
 30
0.0
  0
LINE
  5
BE
  8
ﾚｲﾔ_1
 62
     5
 10
851.76158854169989
 20
-276.1235197803
 30
0.0
 11
805.26158854169989
 21
-276.1235197803
 31
0.0
  0
LINE
  5
BF
  8
ﾚｲﾔ_1
 62
     5
 10
851.76158854169989
 20
-274.52351978029998
 30
0.0
 11
805.26158854169989
 21
-274.52351978029998
 31
0.0
  0
LINE
  5
C0
  8
ﾚｲﾔ_1
 62
     5
 10
781.76158854170001
 20
-167.8512346768
 30
0.0
 11
781.76158854170001
 21
-168.75123467680001
 31
0.0
  0
LINE
  5
C1
  8
ﾚｲﾔ_1
 62
     5
 10
789.76158854170001
 20
-167.8512346768
 30
0.0
 11
789.76158854170001
 21
-168.75123467680001
 31
0.0
  0
LINE
  5
C2
  8
ﾚｲﾔ_1
 62
     5
 10
787.76158854170001
 20
-165.25123467680001
 30
0.0
 11
783.76158854170001
 21
-165.25123467680001
 31
0.0
  0
LINE
  5
C3
  8
ﾚｲﾔ_1
 62
     5
 10
787.76158854170001
 20
-165.25123467680001
 30
0.0
 11
787.76158854170001
 21
-166.25123467680001
 31
0.0
  0
LINE
  5
C4
  8
ﾚｲﾔ_1
 62
     5
 10
783.76158854170001
 20
-165.25123467680001
 30
0.0
 11
783.76158854170001
 21
-166.25123467680001
 31
0.0
  0
LINE
  5
C5
  8
ﾚｲﾔ_1
  6
BORDER
 62
     3
 10
785.76158854170001
 20
-162.25123467680001
 30
0.0
 11
785.76158854170001
 21
-173.65123467679999
 31
0.0
  0
DIMENSION
  5
D4
  8
寸法線
  2
*D5
 10
805.26158854169989
 20
-192.98764763130001
 30
0.0
 11
809.51158854170001
 21
-192.98764763130001
 31
0.0
 70
   128
  1
<>
 13
805.26158854169989
 23
-180.25123467680001
 33
0.0
 14
813.76158854170001
 24
-181.25123467680001
 34
0.0
 50
180.0
  0
DIMENSION
  5
E3
  8
寸法線
  2
*D6
 10
769.78180487300006
 20
-168.75123467680001
 30
0.0
 11
769.78180487300006
 21
-192.75123467680001
 31
0.0
 70
   128
  1
<>
 13
780.76158854170001
 23
-168.75123467680001
 33
0.0
 14
786.26158854170001
 24
-216.75123467680001
 34
0.0
 50
90.0
  0
DIMENSION
  5
F2
  8
寸法線
  2
*D7
 10
776.26158854170001
 20
-179.75123467680001
 30
0.0
 11
776.26158854170001
 21
-187.25123467680001
 31
0.0
 70
   128
  1
<>
 13
792.76158854170001
 23
-179.75123467680001
 33
0.0
 14
784.26158854170001
 24
-194.75123467680001
 34
0.0
 50
90.0
  0
DIMENSION
  5
101
  8
寸法線
  2
*D8
 10
776.26158854170001
 20
-194.75123467680001
 30
0.0
 11
776.26158854170001
 21
-202.25123467680001
 31
0.0
 70
   128
  1
<>
 13
784.26158854170001
 23
-194.75123467680001
 33
0.0
 14
792.76158854170001
 24
-209.75123467680001
 34
0.0
 50
90.0
  0
DIMENSION
  5
110
  8
寸法線
  2
*D9
 10
776.26158854170001
 20
-209.75123467680001
 30
0.0
 11
776.26158854170001
 21
-213.25123467680001
 31
0.0
 70
   128
  1
<>
 13
792.76158854170001
 23
-209.75123467680001
 33
0.0
 14
786.26158854170001
 24
-216.75123467680001
 34
0.0
 50
90.0
  0
DIMENSION
  5
11F
  8
寸法線
  2
*D10
 10
813.76158854170001
 20
-192.98764763130001
 30
0.0
 11
824.26158854170001
 21
-192.98764763130001
 31
0.0
 70
   128
  1
<>
 13
813.76158854170001
 23
-181.25123467680001
 33
0.0
 14
834.76158854169989
 24
-181.25123467680001
 34
0.0
 50
180.0
  0
DIMENSION
  5
12E
  8
寸法線
  2
*D11
 10
784.26158854170001
 20
-233.53970646939999
 30
0.0
 11
793.51158854169989
 21
-233.53970646939999
 31
0.0
 70
   128
  1
<>
 13
784.26158854170001
 23
-214.75123467680001
 33
0.0
 14
802.76158854170001
 24
-214.75123467680001
 34
0.0
 50
180.0
  0
DIMENSION
  5
13D
  8
寸法線
  2
*D12
 10
797.76158854170001
 20
-226.120824072
 30
0.0
 11
800.26158854170001
 21
-226.120824072
 31
0.0
 70
   128
  1
<>
 13
797.76158854170001
 23
-214.75123467680001
 33
0.0
 14
802.76158854170001
 24
-214.75123467680001
 34
0.0
 50
180.0
  0
DIMENSION
  5
14C
  8
寸法線
  2
*D13
 10
789.26158854170001
 20
-226.120824072
 30
0.0
 11
793.51158854169989
 21
-226.120824072
 31
0.0
 70
   128
  1
<>
 13
789.26158854170001
 23
-199.75123467680001
 33
0.0
 14
797.76158854170001
 24
-214.75123467680001
 34
0.0
 50
180.0
  0
DIMENSION
  5
15B
  8
寸法線
  2
*D14
 10
784.26158854170001
 20
-226.120824072
 30
0.0
 11
786.76158854169989
 21
-226.120824072
 31
0.0
 70
   128
  1
<>
 13
784.26158854170001
 23
-214.75123467680001
 33
0.0
 14
789.26158854170001
 24
-199.75123467680001
 34
0.0
 50
180.0
  0
DIMENSION
  5
16A
  8
寸法線
  2
*D15
 10
825.3844510445
 20
-181.25123467680001
 30
0.0
 11
825.3844510445
 21
-173.75123467680001
 31
0.0
 70
   128
  1
<>
 13
824.14438370439996
 23
-181.25123467680001
 33
0.0
 14
824.14438370439996
 24
-166.25123467680001
 34
0.0
 50
90.0
  0
DIMENSION
  5
179
  8
寸法線
  2
*D16
 10
763.64560975079985
 20
-166.25123467680001
 30
0.0
 11
763.64560975079985
 21
-191.50123467680001
 31
0.0
 70
   128
  1
<>
 13
780.76158854170001
 23
-166.25123467680001
 33
0.0
 14
786.26158854170001
 24
-216.75123467680001
 34
0.0
 50
90.0
  0
DIMENSION
  5
181
  8
寸法線
  2
*D17
 10
791.71059047330004
 20
-196.48397514760001
 30
0.0
 11
760.24596673699989
 21
-182.3803678328
 31
0.0
 70
   131
  1
3-%%c4x%%c6皿穴
 15
786.81258661000004
 25
-193.0184942061
 35
0.0
 40
0.0
  0
DIMENSION
  5
189
  8
寸法線
  2
*D18
 10
816.21059047330004
 20
-177.98397514760001
 30
0.0
 11
777.63683969229987
 21
-161.00735529010001
 31
0.0
 70
   131
  1
2-%%c4x%%c6皿穴
 15
811.31258661000004
 25
-174.5184942061
 35
0.0
 40
0.0
  0
LINE
  5
18A
  8
ﾚｲﾔ_1
 62
     5
 10
835.45436986490006
 20
-271.99514175870002
 30
0.0
 11
792.45805572439997
 21
-254.0281945614
 31
0.0
  0
INSERT
  5
18C
  8
ﾚｲﾔ_1
  6
BORDER
  2
CLUMP1
 10
0.0
 20
0.0
 30
0.0
  0
LINE
  5
1A3
  8
ﾚｲﾔ_1
  6
BORDER
 62
     3
 10
834.76158854169989
 20
-272.52351978029998
 30
0.0
 11
834.76158854169989
 21
-278.1235197803
 31
0.0
  0
LINE
  5
1A4
  8
ﾚｲﾔ_1
  6
STITCH
 10
831.76158854170001
 20
-274.52351978029998
 30
0.0
 11
832.96158854169983
 21
-275.72351978030002
 31
0.0
  0
LINE
  5
1A5
  8
ﾚｲﾔ_1
  6
STITCH
 10
832.96158854169983
 20
-275.72351978030002
 30
0.0
 11
832.96158854169983
 21
-276.1235197803
 31
0.0
  0
LINE
  5
1A6
  8
図枠
 10
898.63450728019995
 20
-314.07478246459999
 30
0.0
 11
900.63430728020001
 21
-314.07478246459999
 31
0.0
  0
LINE
  5
1A7
  8
図枠
 10
858.5128336342998
 20
-298.6044680242
 30
0.0
 11
974.50123363429998
 21
-298.6044680242
 31
0.0
  0
ARC
  5
1A8
  8
図枠
 10
899.59441128020001
 20
-309.83520646459999
 30
0.0
 40
3.0396959999999988
 50
270.0
 51
298.08590481520002
  0
LINE
  5
1A9
  8
図枠
 10
910.9672600002001
 20
-314.47474246460001
 30
0.0
 11
913.20703600019999
 21
-314.47474246460001
 31
0.0
  0
LINE
  5
1AA
  8
図枠
 10
905.03386728019996
 20
-309.67522246459998
 30
0.0
 11
905.83378728019989
 21
-308.47534246459998
 31
0.0
  0
LINE
  5
1AB
  8
図枠
 10
858.5128336342998
 20
-307.10361802419999
 30
0.0
 11
974.50123363429998
 21
-307.10361802419999
 31
0.0
  0
CIRCLE
  5
1AC
  8
図枠
 10
904.57222723429993
 20
-294.35489302420001
 30
0.0
 40
2.303769599999999
  0
LINE
  5
1AD
  8
図枠
  6
BORDER
 10
901.11657283429997
 20
-294.35489302420001
 30
0.0
 11
915.89909443429985
 21
-294.35489302420001
 31
0.0
  0
LINE
  5
1AE
  8
図枠
 10
904.12413374429991
 20
-312.35425950130002
 30
0.0
 11
903.98166634459994
 21
-312.49374806639997
 31
0.0
  0
LINE
  5
1AF
  8
図枠
 10
905.83378728019989
 20
-312.87490246459998
 30
0.0
 11
905.83378728019989
 21
-314.07478246459999
 31
0.0
  0
LINE
  5
1B0
  8
図枠
 10
905.83378728019989
 20
-308.47534246459998
 30
0.0
 11
898.63450728019995
 21
-308.47534246459998
 31
0.0
  0
INSERT
  5
1B1
  8
0
  6
CONTINUOUS
  2
*U33
 10
0.0
 20
0.0
 30
0.0
  0
LINE
  5
1B2
  8
図枠
 10
890.50963363430003
 20
-302.8540430242
 30
0.0
 11
916.50703363429989
 21
-302.8540430242
 31
0.0
  0
LINE
  5
1B3
  8
図枠
 10
898.63450728019995
 20
-309.9151984646
 30
0.0
 11
902.63410728020006
 21
-309.9151984646
 31
0.0
  0
INSERT
  5
1B4
  8
0
  6
CONTINUOUS
  2
*U34
 10
0.0
 20
0.0
 30
0.0
  0
LINE
  5
1B5
  8
図枠
 10
898.63450728019995
 20
-312.87490246459998
 30
0.0
 11
898.63450728019995
 21
-314.07478246459999
 31
0.0
  0
LINE
  5
1B6
  8
図枠
 10
860.51263363429985
 20
-302.8540430242
 30
0.0
 11
886.51003363429993
 21
-302.8540430242
 31
0.0
  0
INSERT
  5
1B7
  8
0
  6
CONTINUOUS
  2
*U35
 10
0.0
 20
0.0
 30
0.0
  0
INSERT
  5
1B8
  8
0
  6
CONTINUOUS
  2
*U36
 10
0.0
 20
0.0
 30
0.0
  0
INSERT
  5
1B9
  8
0
  6
CONTINUOUS
  2
*U37
 10
0.0
 20
0.0
 30
0.0
  0
LINE
  5
1BA
  8
ﾚｲﾔ_1
 62
     5
 10
787.76158854170001
 20
-170.3512346768
 30
0.0
 11
787.76158854170001
 21
-170.55123467679999
 31
0.0
  0
LINE
  5
1BB
  8
ﾚｲﾔ_1
 62
     5
 10
783.76158854170001
 20
-170.3512346768
 30
0.0
 11
783.76158854170001
 21
-170.55123467679999
 31
0.0
  0
LINE
  5
1BC
  8
ﾚｲﾔ_1
 62
     5
 10
783.76158854170001
 20
-170.55123467679999
 30
0.0
 11
787.76158854170001
 21
-170.55123467679999
 31
0.0
  0
INSERT
  5
1BE
  8
ﾚｲﾔ_1
  2
CLUMP2
 10
0.0
 20
0.0
 30
0.0
  0
LINE
  5
1D6
  8
ﾚｲﾔ_1
 62
     5
 10
789.76158854170001
 20
-168.75123467680001
 30
0.0
 11
781.76158854170001
 21
-168.75123467680001
 31
0.0
  0
LINE
  5
1D7
  8
図枠
 10
888.78612431919998
 20
-311.27506246460001
 30
0.0
 11
889.58604431920014
 21
-311.27506246460001
 31
0.0
  0
LINE
  5
1D8
  8
図枠
 10
891.70671528019989
 20
-309.67522246459998
 30
0.0
 11
892.90659528020001
 21
-308.47534246459998
 31
0.0
  0
POLYLINE
  8
図枠
  5
368
  66
     1
 10
0.000000
 20
0.000000
 30
0.000000
  70
     8
  0
VERTEX
  8
図枠
  5
369
 10
903.001
 20
-313.384
 30
0.000000
  70
    32
  0
VERTEX
  8
図枠
  5
36A
 10
903.023
 20
-313.391
 30
0.000000
  70
    32
  0
VERTEX
  8
図枠
  5
36B
 10
903.044
 20
-313.398
 30
0.000000
  70
    32
  0
VERTEX
  8
図枠
  5
36C
 10
903.066
 20
-313.404
 30
0.000000
  70
    32
  0
VERTEX
  8
図枠
  5
36D
 10
903.087
 20
-313.411
 30
0.000000
  70
    32
  0
VERTEX
  8
図枠
  5
36E
 10
903.109
 20
-313.418
 30
0.000000
  70
    32
  0
VERTEX
  8
図枠
  5
36F
 10
903.131
 20
-313.425
 30
0.000000
  70
    32
  0
VERTEX
  8
図枠
  5
370
 10
903.152
 20
-313.431
 30
0.000000
  70
    32
  0
VERTEX
  8
図枠
  5
371
 10
903.174
 20
-313.438
 30
0.000000
  70
    32
  0
VERTEX
  8
図枠
  5
372
 10
903.196
 20
-313.445
 30
0.000000
  70
    32
  0
VERTEX
  8
図枠
  5
373
 10
903.217
 20
-313.451
 30
0.000000
  70
    32
  0
VERTEX
  8
図枠
  5
374
 10
903.239
 20
-313.458
 30
0.000000
  70
    32
  0
VERTEX
  8
図枠
  5
375
 10
903.261
 20
-313.464
 30
0.000000
  70
    32
  0
VERTEX
  8
図枠
  5
376
 10
903.282
 20
-313.471
 30
0.000000
  70
    32
  0
VERTEX
  8
図枠
  5
377
 10
903.304
 20
-313.477
 30
0.000000
  70
    32
  0
VERTEX
  8
図枠
  5
378
 10
903.326
 20
-313.483
 30
0.000000
  70
    32
  0
VERTEX
  8
図枠
  5
379
 10
903.348
 20
-313.490
 30
0.000000
  70
    32
  0
VERTEX
  8
図枠
  5
37A
 10
903.370
 20
-313.496
 30
0.000000
  70
    32
  0
VERTEX
  8
図枠
  5
37B
 10
903.391
 20
-313.503
 30
0.000000
  70
    32
  0
VERTEX
  8
図枠
  5
37C
 10
903.413
 20
-313.509
 30
0.000000
  70
    32
  0
VERTEX
  8
図枠
  5
37D
 10
903.435
 20
-313.515
 30
0.000000
  70
    32
  0
VERTEX
  8
図枠
  5
37E
 10
903.457
 20
-313.521
 30
0.000000
  70
    32
  0
VERTEX
  8
図枠
  5
37F
 10
903.479
 20
-313.528
 30
0.000000
  70
    32
  0
VERTEX
  8
図枠
  5
380
 10
903.501
 20
-313.534
 30
0.000000
  70
    32
  0
VERTEX
  8
図枠
  5
381
 10
903.523
 20
-313.540
 30
0.000000
  70
    32
  0
VERTEX
  8
図枠
  5
382
 10
903.545
 20
-313.546
 30
0.000000
  70
    32
  0
VERTEX
  8
図枠
  5
383
 10
903.567
 20
-313.552
 30
0.000000
  70
    32
  0
VERTEX
  8
図枠
  5
384
 10
903.588
 20
-313.558
 30
0.000000
  70
    32
  0
VERTEX
  8
図枠
  5
385
 10
903.610
 20
-313.564
 30
0.000000
  70
    32
  0
VERTEX
  8
図枠
  5
386
 10
903.632
 20
-313.570
 30
0.000000
  70
    32
  0
VERTEX
  8
図枠
  5
387
 10
903.654
 20
-313.576
 30
0.000000
  70
    32
  0
VERTEX
  8
図枠
  5
388
 10
903.676
 20
-313.582
 30
0.000000
  70
    32
  0
VERTEX
  8
図枠
  5
389
 10
903.699
 20
-313.588
 30
0.000000
  70
    32
  0
VERTEX
  8
図枠
  5
38A
 10
903.721
 20
-313.594
 30
0.000000
  70
    32
  0
VERTEX
  8
図枠
  5
38B
 10
903.743
 20
-313.600
 30
0.000000
  70
    32
  0
VERTEX
  8
図枠
  5
38C
 10
903.765
 20
-313.606
 30
0.000000
  70
    32
  0
VERTEX
  8
図枠
  5
38D
 10
903.787
 20
-313.612
 30
0.000000
  70
    32
  0
VERTEX
  8
図枠
  5
38E
 10
903.809
 20
-313.618
 30
0.000000
  70
    32
  0
VERTEX
  8
図枠
  5
38F
 10
903.831
 20
-313.623
 30
0.000000
  70
    32
  0
VERTEX
  8
図枠
  5
390
 10
903.853
 20
-313.629
 30
0.000000
  70
    32
  0
VERTEX
  8
図枠
  5
391
 10
903.875
 20
-313.635
 30
0.000000
  70
    32
  0
VERTEX
  8
図枠
  5
392
 10
903.897
 20
-313.641
 30
0.000000
  70
    32
  0
VERTEX
  8
図枠
  5
393
 10
903.920
 20
-313.646
 30
0.000000
  70
    32
  0
VERTEX
  8
図枠
  5
394
 10
903.942
 20
-313.652
 30
0.000000
  70
    32
  0
VERTEX
  8
図枠
  5
395
 10
903.964
 20
-313.658
 30
0.000000
  70
    32
  0
VERTEX
  8
図枠
  5
396
 10
903.986
 20
-313.663
 30
0.000000
  70
    32
  0
VERTEX
  8
図枠
  5
397
 10
904.008
 20
-313.669
 30
0.000000
  70
    32
  0
VERTEX
  8
図枠
  5
398
 10
904.031
 20
-313.674
 30
0.000000
  70
    32
  0
VERTEX
  8
図枠
  5
399
 10
904.053
 20
-313.680
 30
0.000000
  70
    32
  0
VERTEX
  8
図枠
  5
39A
 10
904.075
 20
-313.686
 30
0.000000
  70
    32
  0
VERTEX
  8
図枠
  5
39B
 10
904.097
 20
-313.691
 30
0.000000
  70
    32
  0
VERTEX
  8
図枠
  5
39C
 10
904.120
 20
-313.697
 30
0.000000
  70
    32
  0
VERTEX
  8
図枠
  5
39D
 10
904.142
 20
-313.702
 30
0.000000
  70
    32
  0
VERTEX
  8
図枠
  5
39E
 10
904.164
 20
-313.708
 30
0.000000
  70
    32
  0
VERTEX
  8
図枠
  5
39F
 10
904.186
 20
-313.713
 30
0.000000
  70
    32
  0
VERTEX
  8
図枠
  5
3A0
 10
904.209
 20
-313.718
 30
0.000000
  70
    32
  0
VERTEX
  8
図枠
  5
3A1
 10
904.231
 20
-313.724
 30
0.000000
  70
    32
  0
VERTEX
  8
図枠
  5
3A2
 10
904.253
 20
-313.729
 30
0.000000
  70
    32
  0
VERTEX
  8
図枠
  5
3A3
 10
904.276
 20
-313.735
 30
0.000000
  70
    32
  0
VERTEX
  8
図枠
  5
3A4
 10
904.298
 20
-313.740
 30
0.000000
  70
    32
  0
VERTEX
  8
図枠
  5
3A5
 10
904.321
 20
-313.745
 30
0.000000
  70
    32
  0
VERTEX
  8
図枠
  5
3A6
 10
904.343
 20
-313.751
 30
0.000000
  70
    32
  0
VERTEX
  8
図枠
  5
3A7
 10
904.365
 20
-313.756
 30
0.000000
  70
    32
  0
VERTEX
  8
図枠
  5
3A8
 10
904.388
 20
-313.761
 30
0.000000
  70
    32
  0
VERTEX
  8
図枠
  5
3A9
 10
904.410
 20
-313.766
 30
0.000000
  70
    32
  0
VERTEX
  8
図枠
  5
3AA
 10
904.432
 20
-313.772
 30
0.000000
  70
    32
  0
VERTEX
  8
図枠
  5
3AB
 10
904.455
 20
-313.777
 30
0.000000
  70
    32
  0
VERTEX
  8
図枠
  5
3AC
 10
904.477
 20
-313.782
 30
0.000000
  70
    32
  0
VERTEX
  8
図枠
  5
3AD
 10
904.500
 20
-313.787
 30
0.000000
  70
    32
  0
VERTEX
  8
図枠
  5
3AE
 10
904.522
 20
-313.792
 30
0.000000
  70
    32
  0
VERTEX
  8
図枠
  5
3AF
 10
904.545
 20
-313.798
 30
0.000000
  70
    32
  0
VERTEX
  8
図枠
  5
3B0
 10
904.567
 20
-313.803
 30
0.000000
  70
    32
  0
VERTEX
  8
図枠
  5
3B1
 10
904.590
 20
-313.808
 30
0.000000
  70
    32
  0
VERTEX
  8
図枠
  5
3B2
 10
904.612
 20
-313.813
 30
0.000000
  70
    32
  0
VERTEX
  8
図枠
  5
3B3
 10
904.635
 20
-313.818
 30
0.000000
  70
    32
  0
VERTEX
  8
図枠
  5
3B4
 10
904.657
 20
-313.823
 30
0.000000
  70
    32
  0
VERTEX
  8
図枠
  5
3B5
 10
904.680
 20
-313.828
 30
0.000000
  70
    32
  0
VERTEX
  8
図枠
  5
3B6
 10
904.702
 20
-313.833
 30
0.000000
  70
    32
  0
VERTEX
  8
図枠
  5
3B7
 10
904.725
 20
-313.838
 30
0.000000
  70
    32
  0
VERTEX
  8
図枠
  5
3B8
 10
904.747
 20
-313.843
 30
0.000000
  70
    32
  0
VERTEX
  8
図枠
  5
3B9
 10
904.770
 20
-313.848
 30
0.000000
  70
    32
  0
VERTEX
  8
図枠
  5
3BA
 10
904.792
 20
-313.853
 30
0.000000
  70
    32
  0
VERTEX
  8
図枠
  5
3BB
 10
904.815
 20
-313.858
 30
0.000000
  70
    32
  0
VERTEX
  8
図枠
  5
3BC
 10
904.837
 20
-313.863
 30
0.000000
  70
    32
  0
VERTEX
  8
図枠
  5
3BD
 10
904.860
 20
-313.868
 30
0.000000
  70
    32
  0
VERTEX
  8
図枠
  5
3BE
 10
904.882
 20
-313.873
 30
0.000000
  70
    32
  0
VERTEX
  8
図枠
  5
3BF
 10
904.905
 20
-313.878
 30
0.000000
  70
    32
  0
VERTEX
  8
図枠
  5
3C0
 10
904.928
 20
-313.883
 30
0.000000
  70
    32
  0
VERTEX
  8
図枠
  5
3C1
 10
904.950
 20
-313.888
 30
0.000000
  70
    32
  0
VERTEX
  8
図枠
  5
3C2
 10
904.973
 20
-313.893
 30
0.000000
  70
    32
  0
VERTEX
  8
図枠
  5
3C3
 10
904.995
 20
-313.898
 30
0.000000
  70
    32
  0
VERTEX
  8
図枠
  5
3C4
 10
905.018
 20
-313.903
 30
0.000000
  70
    32
  0
VERTEX
  8
図枠
  5
3C5
 10
905.041
 20
-313.908
 30
0.000000
  70
    32
  0
VERTEX
  8
図枠
  5
3C6
 10
905.063
 20
-313.913
 30
0.000000
  70
    32
  0
VERTEX
  8
図枠
  5
3C7
 10
905.086
 20
-313.917
 30
0.000000
  70
    32
  0
VERTEX
  8
図枠
  5
3C8
 10
905.108
 20
-313.922
 30
0.000000
  70
    32
  0
VERTEX
  8
図枠
  5
3C9
 10
905.131
 20
-313.927
 30
0.000000
  70
    32
  0
VERTEX
  8
図枠
  5
3CA
 10
905.154
 20
-313.932
 30
0.000000
  70
    32
  0
VERTEX
  8
図枠
  5
3CB
 10
905.176
 20
-313.937
 30
0.000000
  70
    32
  0
VERTEX
  8
図枠
  5
3CC
 10
905.199
 20
-313.942
 30
0.000000
  70
    32
  0
VERTEX
  8
図枠
  5
3CD
 10
905.221
 20
-313.947
 30
0.000000
  70
    32
  0
VERTEX
  8
図枠
  5
3CE
 10
905.244
 20
-313.951
 30
0.000000
  70
    32
  0
VERTEX
  8
図枠
  5
3CF
 10
905.267
 20
-313.956
 30
0.000000
  70
    32
  0
VERTEX
  8
図枠
  5
3D0
 10
905.289
 20
-313.961
 30
0.000000
  70
    32
  0
VERTEX
  8
図枠
  5
3D1
 10
905.312
 20
-313.966
 30
0.000000
  70
    32
  0
VERTEX
  8
図枠
  5
3D2
 10
905.335
 20
-313.971
 30
0.000000
  70
    32
  0
VERTEX
  8
図枠
  5
3D3
 10
905.357
 20
-313.975
 30
0.000000
  70
    32
  0
VERTEX
  8
図枠
  5
3D4
 10
905.380
 20
-313.980
 30
0.000000
  70
    32
  0
VERTEX
  8
図枠
  5
3D5
 10
905.403
 20
-313.985
 30
0.000000
  70
    32
  0
VERTEX
  8
図枠
  5
3D6
 10
905.425
 20
-313.990
 30
0.000000
  70
    32
  0
VERTEX
  8
図枠
  5
3D7
 10
905.448
 20
-313.994
 30
0.000000
  70
    32
  0
VERTEX
  8
図枠
  5
3D8
 10
905.471
 20
-313.999
 30
0.000000
  70
    32
  0
VERTEX
  8
図枠
  5
3D9
 10
905.493
 20
-314.004
 30
0.000000
  70
    32
  0
VERTEX
  8
図枠
  5
3DA
 10
905.516
 20
-314.009
 30
0.000000
  70
    32
  0
VERTEX
  8
図枠
  5
3DB
 10
905.539
 20
-314.013
 30
0.000000
  70
    32
  0
VERTEX
  8
図枠
  5
3DC
 10
905.561
 20
-314.018
 30
0.000000
  70
    32
  0
VERTEX
  8
図枠
  5
3DD
 10
905.584
 20
-314.023
 30
0.000000
  70
    32
  0
VERTEX
  8
図枠
  5
3DE
 10
905.607
 20
-314.028
 30
0.000000
  70
    32
  0
VERTEX
  8
図枠
  5
3DF
 10
905.630
 20
-314.032
 30
0.000000
  70
    32
  0
VERTEX
  8
図枠
  5
3E0
 10
905.652
 20
-314.037
 30
0.000000
  70
    32
  0
VERTEX
  8
図枠
  5
3E1
 10
905.675
 20
-314.042
 30
0.000000
  70
    32
  0
VERTEX
  8
図枠
  5
3E2
 10
905.698
 20
-314.046
 30
0.000000
  70
    32
  0
VERTEX
  8
図枠
  5
3E3
 10
905.720
 20
-314.051
 30
0.000000
  70
    32
  0
VERTEX
  8
図枠
  5
3E4
 10
905.743
 20
-314.056
 30
0.000000
  70
    32
  0
VERTEX
  8
図枠
  5
3E5
 10
905.766
 20
-314.061
 30
0.000000
  70
    32
  0
VERTEX
  8
図枠
  5
3E6
 10
905.788
 20
-314.065
 30
0.000000
  70
    32
  0
VERTEX
  8
図枠
  5
3E7
 10
905.811
 20
-314.070
 30
0.000000
  70
    32
  0
VERTEX
  8
図枠
  5
3E8
 10
905.834
 20
-314.075
 30
0.000000
  70
    32
  0
SEQEND
  8
図枠
  5
3E9
  0
LINE
  5
1DA
  8
図枠
 10
880.51063363429989
 20
-294.35489302420001
 30
0.0
 11
894.50923363429979
 21
-294.35489302420001
 31
0.0
  0
INSERT
  5
1DB
  8
0
  6
CONTINUOUS
  2
*U38
 10
0.0
 20
0.0
 30
0.0
  0
ARC
  5
1DC
  8
図枠
 10
892.90659528020001
 20
-311.67502246459998
 30
0.0
 40
2.3997599999999988
 50
270.0
 51
0.0
  0
LINE
  5
1DD
  8
図枠
 10
909.83818139740004
 20
-293.2030082242
 30
0.0
 11
909.83818139740004
 21
-295.50677782420001
 31
0.0
  0
LINE
  5
1DE
  8
図枠
 10
888.50983363429998
 20
-298.6044680242
 30
0.0
 11
888.50983363429998
 21
-307.10361802419999
 31
0.0
  0
INSERT
  5
1DF
  8
0
  6
CONTINUOUS
  2
*U39
 10
0.0
 20
0.0
 30
0.0
  0
LINE
  5
1E0
  8
図枠
 10
889.70691528019995
 20
-310.0751824646
 30
0.0
 11
888.78612431919998
 21
-310.0751824646
 31
0.0
  0
LINE
  5
1E1
  8
図枠
 10
888.78612431919998
 20
-310.0751824646
 30
0.0
 11
888.78612431919998
 21
-311.27506246460001
 31
0.0
  0
LINE
  5
1E2
  8
図枠
 10
912.47043186649989
 20
-311.91499846459999
 30
0.0
 11
912.28628083309991
 21
-311.27506246460001
 31
0.0
  0
POLYLINE
  8
図枠
  5
3EA
  66
     1
 10
0.000000
 20
0.000000
 30
0.000000
  70
     8
  0
VERTEX
  8
図枠
  5
3EB
 10
901.382
 20
-310.785
 30
0.000000
  70
    32
  0
VERTEX
  8
図枠
  5
3EC
 10
901.387
 20
-310.791
 30
0.000000
  70
    32
  0
VERTEX
  8
図枠
  5
3ED
 10
901.392
 20
-310.797
 30
0.000000
  70
    32
  0
VERTEX
  8
図枠
  5
3EE
 10
901.398
 20
-310.803
 30
0.000000
  70
    32
  0
VERTEX
  8
図枠
  5
3EF
 10
901.403
 20
-310.809
 30
0.000000
  70
    32
  0
VERTEX
  8
図枠
  5
3F0
 10
901.408
 20
-310.815
 30
0.000000
  70
    32
  0
VERTEX
  8
図枠
  5
3F1
 10
901.413
 20
-310.821
 30
0.000000
  70
    32
  0
VERTEX
  8
図枠
  5
3F2
 10
901.419
 20
-310.827
 30
0.000000
  70
    32
  0
VERTEX
  8
図枠
  5
3F3
 10
901.424
 20
-310.832
 30
0.000000
  70
    32
  0
VERTEX
  8
図枠
  5
3F4
 10
901.429
 20
-310.838
 30
0.000000
  70
    32
  0
VERTEX
  8
図枠
  5
3F5
 10
901.434
 20
-310.844
 30
0.000000
  70
    32
  0
VERTEX
  8
図枠
  5
3F6
 10
901.440
 20
-310.850
 30
0.000000
  70
    32
  0
VERTEX
  8
図枠
  5
3F7
 10
901.445
 20
-310.856
 30
0.000000
  70
    32
  0
VERTEX
  8
図枠
  5
3F8
 10
901.450
 20
-310.862
 30
0.000000
  70
    32
  0
VERTEX
  8
図枠
  5
3F9
 10
901.456
 20
-310.868
 30
0.000000
  70
    32
  0
VERTEX
  8
図枠
  5
3FA
 10
901.461
 20
-310.874
 30
0.000000
  70
    32
  0
VERTEX
  8
図枠
  5
3FB
 10
901.466
 20
-310.879
 30
0.000000
  70
    32
  0
VERTEX
  8
図枠
  5
3FC
 10
901.471
 20
-310.885
 30
0.000000
  70
    32
  0
VERTEX
  8
図枠
  5
3FD
 10
901.477
 20
-310.891
 30
0.000000
  70
    32
  0
VERTEX
  8
図枠
  5
3FE
 10
901.482
 20
-310.897
 30
0.000000
  70
    32
  0
VERTEX
  8
図枠
  5
3FF
 10
901.487
 20
-310.903
 30
0.000000
  70
    32
  0
VERTEX
  8
図枠
  5
400
 10
901.493
 20
-310.909
 30
0.000000
  70
    32
  0
VERTEX
  8
図枠
  5
401
 10
901.498
 20
-310.915
 30
0.000000
  70
    32
  0
VERTEX
  8
図枠
  5
402
 10
901.503
 20
-310.921
 30
0.000000
  70
    32
  0
VERTEX
  8
図枠
  5
403
 10
901.509
 20
-310.926
 30
0.000000
  70
    32
  0
VERTEX
  8
図枠
  5
404
 10
901.514
 20
-310.932
 30
0.000000
  70
    32
  0
VERTEX
  8
図枠
  5
405
 10
901.519
 20
-310.938
 30
0.000000
  70
    32
  0
VERTEX
  8
図枠
  5
406
 10
901.524
 20
-310.944
 30
0.000000
  70
    32
  0
VERTEX
  8
図枠
  5
407
 10
901.530
 20
-310.950
 30
0.000000
  70
    32
  0
VERTEX
  8
図枠
  5
408
 10
901.535
 20
-310.956
 30
0.000000
  70
    32
  0
VERTEX
  8
図枠
  5
409
 10
901.540
 20
-310.962
 30
0.000000
  70
    32
  0
VERTEX
  8
図枠
  5
40A
 10
901.546
 20
-310.967
 30
0.000000
  70
    32
  0
VERTEX
  8
図枠
  5
40B
 10
901.551
 20
-310.973
 30
0.000000
  70
    32
  0
VERTEX
  8
図枠
  5
40C
 10
901.556
 20
-310.979
 30
0.000000
  70
    32
  0
VERTEX
  8
図枠
  5
40D
 10
901.562
 20
-310.985
 30
0.000000
  70
    32
  0
VERTEX
  8
図枠
  5
40E
 10
901.567
 20
-310.991
 30
0.000000
  70
    32
  0
VERTEX
  8
図枠
  5
40F
 10
901.572
 20
-310.997
 30
0.000000
  70
    32
  0
VERTEX
  8
図枠
  5
410
 10
901.577
 20
-311.002
 30
0.000000
  70
    32
  0
VERTEX
  8
図枠
  5
411
 10
901.583
 20
-311.008
 30
0.000000
  70
    32
  0
VERTEX
  8
図枠
  5
412
 10
901.588
 20
-311.014
 30
0.000000
  70
    32
  0
VERTEX
  8
図枠
  5
413
 10
901.593
 20
-311.020
 30
0.000000
  70
    32
  0
VERTEX
  8
図枠
  5
414
 10
901.599
 20
-311.026
 30
0.000000
  70
    32
  0
VERTEX
  8
図枠
  5
415
 10
901.604
 20
-311.031
 30
0.000000
  70
    32
  0
VERTEX
  8
図枠
  5
416
 10
901.609
 20
-311.037
 30
0.000000
  70
    32
  0
VERTEX
  8
図枠
  5
417
 10
901.615
 20
-311.043
 30
0.000000
  70
    32
  0
VERTEX
  8
図枠
  5
418
 10
901.620
 20
-311.049
 30
0.000000
  70
    32
  0
VERTEX
  8
図枠
  5
419
 10
901.625
 20
-311.055
 30
0.000000
  70
    32
  0
VERTEX
  8
図枠
  5
41A
 10
901.631
 20
-311.060
 30
0.000000
  70
    32
  0
VERTEX
  8
図枠
  5
41B
 10
901.636
 20
-311.066
 30
0.000000
  70
    32
  0
VERTEX
  8
図枠
  5
41C
 10
901.641
 20
-311.072
 30
0.000000
  70
    32
  0
VERTEX
  8
図枠
  5
41D
 10
901.647
 20
-311.078
 30
0.000000
  70
    32
  0
VERTEX
  8
図枠
  5
41E
 10
901.652
 20
-311.084
 30
0.000000
  70
    32
  0
VERTEX
  8
図枠
  5
41F
 10
901.657
 20
-311.089
 30
0.000000
  70
    32
  0
VERTEX
  8
図枠
  5
420
 10
901.663
 20
-311.095
 30
0.000000
  70
    32
  0
VERTEX
  8
図枠
  5
421
 10
901.668
 20
-311.101
 30
0.000000
  70
    32
  0
VERTEX
  8
図枠
  5
422
 10
901.674
 20
-311.107
 30
0.000000
  70
    32
  0
VERTEX
  8
図枠
  5
423
 10
901.679
 20
-311.112
 30
0.000000
  70
    32
  0
VERTEX
  8
図枠
  5
424
 10
901.684
 20
-311.118
 30
0.000000
  70
    32
  0
VERTEX
  8
図枠
  5
425
 10
901.690
 20
-311.124
 30
0.000000
  70
    32
  0
VERTEX
  8
図枠
  5
426
 10
901.695
 20
-311.130
 30
0.000000
  70
    32
  0
VERTEX
  8
図枠
  5
427
 10
901.700
 20
-311.135
 30
0.000000
  70
    32
  0
VERTEX
  8
図枠
  5
428
 10
901.706
 20
-311.141
 30
0.000000
  70
    32
  0
VERTEX
  8
図枠
  5
429
 10
901.711
 20
-311.147
 30
0.000000
  70
    32
  0
VERTEX
  8
図枠
  5
42A
 10
901.717
 20
-311.153
 30
0.000000
  70
    32
  0
VERTEX
  8
図枠
  5
42B
 10
901.722
 20
-311.158
 30
0.000000
  70
    32
  0
VERTEX
  8
図枠
  5
42C
 10
901.727
 20
-311.164
 30
0.000000
  70
    32
  0
VERTEX
  8
図枠
  5
42D
 10
901.733
 20
-311.170
 30
0.000000
  70
    32
  0
VERTEX
  8
図枠
  5
42E
 10
901.738
 20
-311.175
 30
0.000000
  70
    32
  0
VERTEX
  8
図枠
  5
42F
 10
901.744
 20
-311.181
 30
0.000000
  70
    32
  0
VERTEX
  8
図枠
  5
430
 10
901.749
 20
-311.187
 30
0.000000
  70
    32
  0
VERTEX
  8
図枠
  5
431
 10
901.754
 20
-311.192
 30
0.000000
  70
    32
  0
VERTEX
  8
図枠
  5
432
 10
901.760
 20
-311.198
 30
0.000000
  70
    32
  0
VERTEX
  8
図枠
  5
433
 10
901.765
 20
-311.204
 30
0.000000
  70
    32
  0
VERTEX
  8
図枠
  5
434
 10
901.771
 20
-311.209
 30
0.000000
  70
    32
  0
VERTEX
  8
図枠
  5
435
 10
901.776
 20
-311.215
 30
0.000000
  70
    32
  0
VERTEX
  8
図枠
  5
436
 10
901.781
 20
-311.221
 30
0.000000
  70
    32
  0
VERTEX
  8
図枠
  5
437
 10
901.787
 20
-311.226
 30
0.000000
  70
    32
  0
VERTEX
  8
図枠
  5
438
 10
901.792
 20
-311.232
 30
0.000000
  70
    32
  0
VERTEX
  8
図枠
  5
439
 10
901.798
 20
-311.238
 30
0.000000
  70
    32
  0
VERTEX
  8
図枠
  5
43A
 10
901.803
 20
-311.243
 30
0.000000
  70
    32
  0
VERTEX
  8
図枠
  5
43B
 10
901.809
 20
-311.249
 30
0.000000
  70
    32
  0
VERTEX
  8
図枠
  5
43C
 10
901.814
 20
-311.254
 30
0.000000
  70
    32
  0
VERTEX
  8
図枠
  5
43D
 10
901.820
 20
-311.260
 30
0.000000
  70
    32
  0
VERTEX
  8
図枠
  5
43E
 10
901.825
 20
-311.266
 30
0.000000
  70
    32
  0
VERTEX
  8
図枠
  5
43F
 10
901.831
 20
-311.271
 30
0.000000
  70
    32
  0
VERTEX
  8
図枠
  5
440
 10
901.836
 20
-311.277
 30
0.000000
  70
    32
  0
VERTEX
  8
図枠
  5
441
 10
901.841
 20
-311.282
 30
0.000000
  70
    32
  0
VERTEX
  8
図枠
  5
442
 10
901.847
 20
-311.288
 30
0.000000
  70
    32
  0
VERTEX
  8
図枠
  5
443
 10
901.852
 20
-311.293
 30
0.000000
  70
    32
  0
VERTEX
  8
図枠
  5
444
 10
901.858
 20
-311.299
 30
0.000000
  70
    32
  0
VERTEX
  8
図枠
  5
445
 10
901.863
 20
-311.304
 30
0.000000
  70
    32
  0
VERTEX
  8
図枠
  5
446
 10
901.869
 20
-311.310
 30
0.000000
  70
    32
  0
VERTEX
  8
図枠
  5
447
 10
901.874
 20
-311.315
 30
0.000000
  70
    32
  0
VERTEX
  8
図枠
  5
448
 10
901.880
 20
-311.321
 30
0.000000
  70
    32
  0
VERTEX
  8
図枠
  5
449
 10
901.885
 20
-311.326
 30
0.000000
  70
    32
  0
VERTEX
  8
図枠
  5
44A
 10
901.891
 20
-311.332
 30
0.000000
  70
    32
  0
VERTEX
  8
図枠
  5
44B
 10
901.897
 20
-311.337
 30
0.000000
  70
    32
  0
VERTEX
  8
図枠
  5
44C
 10
901.902
 20
-311.343
 30
0.000000
  70
    32
  0
VERTEX
  8
図枠
  5
44D
 10
901.908
 20
-311.348
 30
0.000000
  70
    32
  0
VERTEX
  8
図枠
  5
44E
 10
901.913
 20
-311.354
 30
0.000000
  70
    32
  0
VERTEX
  8
図枠
  5
44F
 10
901.919
 20
-311.359
 30
0.000000
  70
    32
  0
VERTEX
  8
図枠
  5
450
 10
901.924
 20
-311.365
 30
0.000000
  70
    32
  0
VERTEX
  8
図枠
  5
451
 10
901.930
 20
-311.370
 30
0.000000
  70
    32
  0
VERTEX
  8
図枠
  5
452
 10
901.935
 20
-311.376
 30
0.000000
  70
    32
  0
VERTEX
  8
図枠
  5
453
 10
901.941
 20
-311.381
 30
0.000000
  70
    32
  0
VERTEX
  8
図枠
  5
454
 10
901.947
 20
-311.386
 30
0.000000
  70
    32
  0
VERTEX
  8
図枠
  5
455
 10
901.952
 20
-311.392
 30
0.000000
  70
    32
  0
VERTEX
  8
図枠
  5
456
 10
901.958
 20
-311.397
 30
0.000000
  70
    32
  0
VERTEX
  8
図枠
  5
457
 10
901.963
 20
-311.403
 30
0.000000
  70
    32
  0
VERTEX
  8
図枠
  5
458
 10
901.969
 20
-311.408
 30
0.000000
  70
    32
  0
VERTEX
  8
図枠
  5
459
 10
901.974
 20
-311.413
 30
0.000000
  70
    32
  0
VERTEX
  8
図枠
  5
45A
 10
901.980
 20
-311.419
 30
0.000000
  70
    32
  0
VERTEX
  8
図枠
  5
45B
 10
901.986
 20
-311.424
 30
0.000000
  70
    32
  0
VERTEX
  8
図枠
  5
45C
 10
901.991
 20
-311.429
 30
0.000000
  70
    32
  0
VERTEX
  8
図枠
  5
45D
 10
901.997
 20
-311.435
 30
0.000000
  70
    32
  0
VERTEX
  8
図枠
  5
45E
 10
902.003
 20
-311.440
 30
0.000000
  70
    32
  0
VERTEX
  8
図枠
  5
45F
 10
902.008
 20
-311.445
 30
0.000000
  70
    32
  0
VERTEX
  8
図枠
  5
460
 10
902.014
 20
-311.451
 30
0.000000
  70
    32
  0
VERTEX
  8
図枠
  5
461
 10
902.020
 20
-311.456
 30
0.000000
  70
    32
  0
VERTEX
  8
図枠
  5
462
 10
902.025
 20
-311.461
 30
0.000000
  70
    32
  0
VERTEX
  8
図枠
  5
463
 10
902.031
 20
-311.466
 30
0.000000
  70
    32
  0
VERTEX
  8
図枠
  5
464
 10
902.037
 20
-311.472
 30
0.000000
  70
    32
  0
VERTEX
  8
図枠
  5
465
 10
902.042
 20
-311.477
 30
0.000000
  70
    32
  0
VERTEX
  8
図枠
  5
466
 10
902.048
 20
-311.482
 30
0.000000
  70
    32
  0
VERTEX
  8
図枠
  5
467
 10
902.054
 20
-311.487
 30
0.000000
  70
    32
  0
VERTEX
  8
図枠
  5
468
 10
902.059
 20
-311.493
 30
0.000000
  70
    32
  0
VERTEX
  8
図枠
  5
469
 10
902.065
 20
-311.498
 30
0.000000
  70
    32
  0
VERTEX
  8
図枠
  5
46A
 10
902.071
 20
-311.503
 30
0.000000
  70
    32
  0
SEQEND
  8
図枠
  5
46B
  0
LINE
  5
1E4
  8
図枠
 10
892.90659528020001
 20
-308.47534246459998
 30
0.0
 11
889.70691528019995
 21
-308.47534246459998
 31
0.0
  0
LINE
  5
1E5
  8
図枠
 10
891.70671528019989
 20
-312.47494246460002
 30
0.0
 11
891.70671528019989
 21
-311.27506246460001
 31
0.0
  0
POLYLINE
  8
図枠
  5
46C
  66
     1
 10
0.000000
 20
0.000000
 30
0.000000
  70
     8
  0
VERTEX
  8
図枠
  5
46D
 10
898.635
 20
-310.591
 30
0.000000
  70
    32
  0
VERTEX
  8
図枠
  5
46E
 10
898.649
 20
-310.604
 30
0.000000
  70
    32
  0
VERTEX
  8
図枠
  5
46F
 10
898.663
 20
-310.617
 30
0.000000
  70
    32
  0
VERTEX
  8
図枠
  5
470
 10
898.678
 20
-310.630
 30
0.000000
  70
    32
  0
VERTEX
  8
図枠
  5
471
 10
898.692
 20
-310.644
 30
0.000000
  70
    32
  0
VERTEX
  8
図枠
  5
472
 10
898.707
 20
-310.657
 30
0.000000
  70
    32
  0
VERTEX
  8
図枠
  5
473
 10
898.721
 20
-310.670
 30
0.000000
  70
    32
  0
VERTEX
  8
図枠
  5
474
 10
898.735
 20
-310.683
 30
0.000000
  70
    32
  0
VERTEX
  8
図枠
  5
475
 10
898.750
 20
-310.697
 30
0.000000
  70
    32
  0
VERTEX
  8
図枠
  5
476
 10
898.764
 20
-310.710
 30
0.000000
  70
    32
  0
VERTEX
  8
図枠
  5
477
 10
898.779
 20
-310.723
 30
0.000000
  70
    32
  0
VERTEX
  8
図枠
  5
478
 10
898.793
 20
-310.737
 30
0.000000
  70
    32
  0
VERTEX
  8
図枠
  5
479
 10
898.807
 20
-310.750
 30
0.000000
  70
    32
  0
VERTEX
  8
図枠
  5
47A
 10
898.822
 20
-310.763
 30
0.000000
  70
    32
  0
VERTEX
  8
図枠
  5
47B
 10
898.836
 20
-310.776
 30
0.000000
  70
    32
  0
VERTEX
  8
図枠
  5
47C
 10
898.851
 20
-310.790
 30
0.000000
  70
    32
  0
VERTEX
  8
図枠
  5
47D
 10
898.865
 20
-310.803
 30
0.000000
  70
    32
  0
VERTEX
  8
図枠
  5
47E
 10
898.880
 20
-310.816
 30
0.000000
  70
    32
  0
VERTEX
  8
図枠
  5
47F
 10
898.894
 20
-310.829
 30
0.000000
  70
    32
  0
VERTEX
  8
図枠
  5
480
 10
898.908
 20
-310.843
 30
0.000000
  70
    32
  0
VERTEX
  8
図枠
  5
481
 10
898.923
 20
-310.856
 30
0.000000
  70
    32
  0
VERTEX
  8
図枠
  5
482
 10
898.937
 20
-310.869
 30
0.000000
  70
    32
  0
VERTEX
  8
図枠
  5
483
 10
898.952
 20
-310.882
 30
0.000000
  70
    32
  0
VERTEX
  8
図枠
  5
484
 10
898.966
 20
-310.895
 30
0.000000
  70
    32
  0
VERTEX
  8
図枠
  5
485
 10
898.981
 20
-310.909
 30
0.000000
  70
    32
  0
VERTEX
  8
図枠
  5
486
 10
898.995
 20
-310.922
 30
0.000000
  70
    32
  0
VERTEX
  8
図枠
  5
487
 10
899.010
 20
-310.935
 30
0.000000
  70
    32
  0
VERTEX
  8
図枠
  5
488
 10
899.024
 20
-310.948
 30
0.000000
  70
    32
  0
VERTEX
  8
図枠
  5
489
 10
899.038
 20
-310.961
 30
0.000000
  70
    32
  0
VERTEX
  8
図枠
  5
48A
 10
899.053
 20
-310.975
 30
0.000000
  70
    32
  0
VERTEX
  8
図枠
  5
48B
 10
899.067
 20
-310.988
 30
0.000000
  70
    32
  0
VERTEX
  8
図枠
  5
48C
 10
899.082
 20
-311.001
 30
0.000000
  70
    32
  0
VERTEX
  8
図枠
  5
48D
 10
899.096
 20
-311.014
 30
0.000000
  70
    32
  0
VERTEX
  8
図枠
  5
48E
 10
899.111
 20
-311.027
 30
0.000000
  70
    32
  0
VERTEX
  8
図枠
  5
48F
 10
899.125
 20
-311.040
 30
0.000000
  70
    32
  0
VERTEX
  8
図枠
  5
490
 10
899.140
 20
-311.053
 30
0.000000
  70
    32
  0
VERTEX
  8
図枠
  5
491
 10
899.154
 20
-311.066
 30
0.000000
  70
    32
  0
VERTEX
  8
図枠
  5
492
 10
899.169
 20
-311.080
 30
0.000000
  70
    32
  0
VERTEX
  8
図枠
  5
493
 10
899.183
 20
-311.093
 30
0.000000
  70
    32
  0
VERTEX
  8
図枠
  5
494
 10
899.198
 20
-311.106
 30
0.000000
  70
    32
  0
VERTEX
  8
図枠
  5
495
 10
899.212
 20
-311.119
 30
0.000000
  70
    32
  0
VERTEX
  8
図枠
  5
496
 10
899.227
 20
-311.132
 30
0.000000
  70
    32
  0
VERTEX
  8
図枠
  5
497
 10
899.241
 20
-311.145
 30
0.000000
  70
    32
  0
VERTEX
  8
図枠
  5
498
 10
899.256
 20
-311.158
 30
0.000000
  70
    32
  0
VERTEX
  8
図枠
  5
499
 10
899.271
 20
-311.171
 30
0.000000
  70
    32
  0
VERTEX
  8
図枠
  5
49A
 10
899.285
 20
-311.184
 30
0.000000
  70
    32
  0
VERTEX
  8
図枠
  5
49B
 10
899.300
 20
-311.197
 30
0.000000
  70
    32
  0
VERTEX
  8
図枠
  5
49C
 10
899.314
 20
-311.210
 30
0.000000
  70
    32
  0
VERTEX
  8
図枠
  5
49D
 10
899.329
 20
-311.223
 30
0.000000
  70
    32
  0
VERTEX
  8
図枠
  5
49E
 10
899.343
 20
-311.236
 30
0.000000
  70
    32
  0
VERTEX
  8
図枠
  5
49F
 10
899.358
 20
-311.249
 30
0.000000
  70
    32
  0
VERTEX
  8
図枠
  5
4A0
 10
899.373
 20
-311.262
 30
0.000000
  70
    32
  0
VERTEX
  8
図枠
  5
4A1
 10
899.387
 20
-311.275
 30
0.000000
  70
    32
  0
VERTEX
  8
図枠
  5
4A2
 10
899.402
 20
-311.288
 30
0.000000
  70
    32
  0
VERTEX
  8
図枠
  5
4A3
 10
899.416
 20
-311.300
 30
0.000000
  70
    32
  0
VERTEX
  8
図枠
  5
4A4
 10
899.431
 20
-311.313
 30
0.000000
  70
    32
  0
VERTEX
  8
図枠
  5
4A5
 10
899.446
 20
-311.326
 30
0.000000
  70
    32
  0
VERTEX
  8
図枠
  5
4A6
 10
899.460
 20
-311.339
 30
0.000000
  70
    32
  0
VERTEX
  8
図枠
  5
4A7
 10
899.475
 20
-311.352
 30
0.000000
  70
    32
  0
VERTEX
  8
図枠
  5
4A8
 10
899.490
 20
-311.365
 30
0.000000
  70
    32
  0
VERTEX
  8
図枠
  5
4A9
 10
899.504
 20
-311.377
 30
0.000000
  70
    32
  0
VERTEX
  8
図枠
  5
4AA
 10
899.519
 20
-311.390
 30
0.000000
  70
    32
  0
VERTEX
  8
図枠
  5
4AB
 10
899.534
 20
-311.403
 30
0.000000
  70
    32
  0
VERTEX
  8
図枠
  5
4AC
 10
899.548
 20
-311.416
 30
0.000000
  70
    32
  0
VERTEX
  8
図枠
  5
4AD
 10
899.563
 20
-311.428
 30
0.000000
  70
    32
  0
VERTEX
  8
図枠
  5
4AE
 10
899.578
 20
-311.441
 30
0.000000
  70
    32
  0
VERTEX
  8
図枠
  5
4AF
 10
899.593
 20
-311.454
 30
0.000000
  70
    32
  0
VERTEX
  8
図枠
  5
4B0
 10
899.607
 20
-311.466
 30
0.000000
  70
    32
  0
VERTEX
  8
図枠
  5
4B1
 10
899.622
 20
-311.479
 30
0.000000
  70
    32
  0
VERTEX
  8
図枠
  5
4B2
 10
899.637
 20
-311.492
 30
0.000000
  70
    32
  0
VERTEX
  8
図枠
  5
4B3
 10
899.652
 20
-311.504
 30
0.000000
  70
    32
  0
VERTEX
  8
図枠
  5
4B4
 10
899.666
 20
-311.517
 30
0.000000
  70
    32
  0
VERTEX
  8
図枠
  5
4B5
 10
899.681
 20
-311.530
 30
0.000000
  70
    32
  0
VERTEX
  8
図枠
  5
4B6
 10
899.696
 20
-311.542
 30
0.000000
  70
    32
  0
VERTEX
  8
図枠
  5
4B7
 10
899.711
 20
-311.555
 30
0.000000
  70
    32
  0
VERTEX
  8
図枠
  5
4B8
 10
899.726
 20
-311.567
 30
0.000000
  70
    32
  0
VERTEX
  8
図枠
  5
4B9
 10
899.740
 20
-311.580
 30
0.000000
  70
    32
  0
VERTEX
  8
図枠
  5
4BA
 10
899.755
 20
-311.592
 30
0.000000
  70
    32
  0
VERTEX
  8
図枠
  5
4BB
 10
899.770
 20
-311.605
 30
0.000000
  70
    32
  0
VERTEX
  8
図枠
  5
4BC
 10
899.785
 20
-311.617
 30
0.000000
  70
    32
  0
VERTEX
  8
図枠
  5
4BD
 10
899.800
 20
-311.629
 30
0.000000
  70
    32
  0
VERTEX
  8
図枠
  5
4BE
 10
899.815
 20
-311.642
 30
0.000000
  70
    32
  0
VERTEX
  8
図枠
  5
4BF
 10
899.830
 20
-311.654
 30
0.000000
  70
    32
  0
VERTEX
  8
図枠
  5
4C0
 10
899.845
 20
-311.666
 30
0.000000
  70
    32
  0
VERTEX
  8
図枠
  5
4C1
 10
899.860
 20
-311.679
 30
0.000000
  70
    32
  0
VERTEX
  8
図枠
  5
4C2
 10
899.874
 20
-311.691
 30
0.000000
  70
    32
  0
VERTEX
  8
図枠
  5
4C3
 10
899.889
 20
-311.703
 30
0.000000
  70
    32
  0
VERTEX
  8
図枠
  5
4C4
 10
899.904
 20
-311.716
 30
0.000000
  70
    32
  0
VERTEX
  8
図枠
  5
4C5
 10
899.919
 20
-311.728
 30
0.000000
  70
    32
  0
VERTEX
  8
図枠
  5
4C6
 10
899.934
 20
-311.740
 30
0.000000
  70
    32
  0
VERTEX
  8
図枠
  5
4C7
 10
899.949
 20
-311.752
 30
0.000000
  70
    32
  0
VERTEX
  8
図枠
  5
4C8
 10
899.964
 20
-311.764
 30
0.000000
  70
    32
  0
VERTEX
  8
図枠
  5
4C9
 10
899.979
 20
-311.776
 30
0.000000
  70
    32
  0
VERTEX
  8
図枠
  5
4CA
 10
899.994
 20
-311.789
 30
0.000000
  70
    32
  0
VERTEX
  8
図枠
  5
4CB
 10
900.010
 20
-311.801
 30
0.000000
  70
    32
  0
VERTEX
  8
図枠
  5
4CC
 10
900.025
 20
-311.813
 30
0.000000
  70
    32
  0
VERTEX
  8
図枠
  5
4CD
 10
900.040
 20
-311.825
 30
0.000000
  70
    32
  0
VERTEX
  8
図枠
  5
4CE
 10
900.055
 20
-311.837
 30
0.000000
  70
    32
  0
VERTEX
  8
図枠
  5
4CF
 10
900.070
 20
-311.849
 30
0.000000
  70
    32
  0
VERTEX
  8
図枠
  5
4D0
 10
900.085
 20
-311.861
 30
0.000000
  70
    32
  0
VERTEX
  8
図枠
  5
4D1
 10
900.100
 20
-311.873
 30
0.000000
  70
    32
  0
VERTEX
  8
図枠
  5
4D2
 10
900.115
 20
-311.884
 30
0.000000
  70
    32
  0
VERTEX
  8
図枠
  5
4D3
 10
900.131
 20
-311.896
 30
0.000000
  70
    32
  0
VERTEX
  8
図枠
  5
4D4
 10
900.146
 20
-311.908
 30
0.000000
  70
    32
  0
VERTEX
  8
図枠
  5
4D5
 10
900.161
 20
-311.920
 30
0.000000
  70
    32
  0
VERTEX
  8
図枠
  5
4D6
 10
900.176
 20
-311.932
 30
0.000000
  70
    32
  0
VERTEX
  8
図枠
  5
4D7
 10
900.191
 20
-311.943
 30
0.000000
  70
    32
  0
VERTEX
  8
図枠
  5
4D8
 10
900.207
 20
-311.955
 30
0.000000
  70
    32
  0
VERTEX
  8
図枠
  5
4D9
 10
900.222
 20
-311.967
 30
0.000000
  70
    32
  0
VERTEX
  8
図枠
  5
4DA
 10
900.237
 20
-311.978
 30
0.000000
  70
    32
  0
VERTEX
  8
図枠
  5
4DB
 10
900.253
 20
-311.990
 30
0.000000
  70
    32
  0
VERTEX
  8
図枠
  5
4DC
 10
900.268
 20
-312.002
 30
0.000000
  70
    32
  0
VERTEX
  8
図枠
  5
4DD
 10
900.283
 20
-312.013
 30
0.000000
  70
    32
  0
VERTEX
  8
図枠
  5
4DE
 10
900.299
 20
-312.025
 30
0.000000
  70
    32
  0
VERTEX
  8
図枠
  5
4DF
 10
900.314
 20
-312.036
 30
0.000000
  70
    32
  0
VERTEX
  8
図枠
  5
4E0
 10
900.329
 20
-312.048
 30
0.000000
  70
    32
  0
VERTEX
  8
図枠
  5
4E1
 10
900.345
 20
-312.059
 30
0.000000
  70
    32
  0
VERTEX
  8
図枠
  5
4E2
 10
900.360
 20
-312.071
 30
0.000000
  70
    32
  0
VERTEX
  8
図枠
  5
4E3
 10
900.376
 20
-312.082
 30
0.000000
  70
    32
  0
VERTEX
  8
図枠
  5
4E4
 10
900.391
 20
-312.093
 30
0.000000
  70
    32
  0
VERTEX
  8
図枠
  5
4E5
 10
900.406
 20
-312.105
 30
0.000000
  70
    32
  0
VERTEX
  8
図枠
  5
4E6
 10
900.422
 20
-312.116
 30
0.000000
  70
    32
  0
VERTEX
  8
図枠
  5
4E7
 10
900.437
 20
-312.127
 30
0.000000
  70
    32
  0
VERTEX
  8
図枠
  5
4E8
 10
900.453
 20
-312.138
 30
0.000000
  70
    32
  0
VERTEX
  8
図枠
  5
4E9
 10
900.469
 20
-312.149
 30
0.000000
  70
    32
  0
VERTEX
  8
図枠
  5
4EA
 10
900.484
 20
-312.161
 30
0.000000
  70
    32
  0
VERTEX
  8
図枠
  5
4EB
 10
900.500
 20
-312.172
 30
0.000000
  70
    32
  0
VERTEX
  8
図枠
  5
4EC
 10
900.515
 20
-312.183
 30
0.000000
  70
    32
  0
VERTEX
  8
図枠
  5
4ED
 10
900.531
 20
-312.194
 30
0.000000
  70
    32
  0
VERTEX
  8
図枠
  5
4EE
 10
900.547
 20
-312.205
 30
0.000000
  70
    32
  0
VERTEX
  8
図枠
  5
4EF
 10
900.562
 20
-312.216
 30
0.000000
  70
    32
  0
VERTEX
  8
図枠
  5
4F0
 10
900.578
 20
-312.227
 30
0.000000
  70
    32
  0
VERTEX
  8
図枠
  5
4F1
 10
900.594
 20
-312.238
 30
0.000000
  70
    32
  0
VERTEX
  8
図枠
  5
4F2
 10
900.609
 20
-312.248
 30
0.000000
  70
    32
  0
VERTEX
  8
図枠
  5
4F3
 10
900.625
 20
-312.259
 30
0.000000
  70
    32
  0
VERTEX
  8
図枠
  5
4F4
 10
900.641
 20
-312.270
 30
0.000000
  70
    32
  0
VERTEX
  8
図枠
  5
4F5
 10
900.657
 20
-312.281
 30
0.000000
  70
    32
  0
VERTEX
  8
図枠
  5
4F6
 10
900.672
 20
-312.292
 30
0.000000
  70
    32
  0
VERTEX
  8
図枠
  5
4F7
 10
900.688
 20
-312.302
 30
0.000000
  70
    32
  0
VERTEX
  8
図枠
  5
4F8
 10
900.704
 20
-312.313
 30
0.000000
  70
    32
  0
VERTEX
  8
図枠
  5
4F9
 10
900.720
 20
-312.323
 30
0.000000
  70
    32
  0
VERTEX
  8
図枠
  5
4FA
 10
900.736
 20
-312.334
 30
0.000000
  70
    32
  0
VERTEX
  8
図枠
  5
4FB
 10
900.752
 20
-312.344
 30
0.000000
  70
    32
  0
VERTEX
  8
図枠
  5
4FC
 10
900.768
 20
-312.355
 30
0.000000
  70
    32
  0
VERTEX
  8
図枠
  5
4FD
 10
900.784
 20
-312.365
 30
0.000000
  70
    32
  0
VERTEX
  8
図枠
  5
4FE
 10
900.800
 20
-312.376
 30
0.000000
  70
    32
  0
VERTEX
  8
図枠
  5
4FF
 10
900.816
 20
-312.386
 30
0.000000
  70
    32
  0
VERTEX
  8
図枠
  5
500
 10
900.832
 20
-312.396
 30
0.000000
  70
    32
  0
VERTEX
  8
図枠
  5
501
 10
900.848
 20
-312.407
 30
0.000000
  70
    32
  0
VERTEX
  8
図枠
  5
502
 10
900.864
 20
-312.417
 30
0.000000
  70
    32
  0
VERTEX
  8
図枠
  5
503
 10
900.880
 20
-312.427
 30
0.000000
  70
    32
  0
VERTEX
  8
図枠
  5
504
 10
900.896
 20
-312.437
 30
0.000000
  70
    32
  0
VERTEX
  8
図枠
  5
505
 10
900.912
 20
-312.447
 30
0.000000
  70
    32
  0
VERTEX
  8
図枠
  5
506
 10
900.928
 20
-312.457
 30
0.000000
  70
    32
  0
VERTEX
  8
図枠
  5
507
 10
900.944
 20
-312.467
 30
0.000000
  70
    32
  0
VERTEX
  8
図枠
  5
508
 10
900.960
 20
-312.477
 30
0.000000
  70
    32
  0
VERTEX
  8
図枠
  5
509
 10
900.977
 20
-312.487
 30
0.000000
  70
    32
  0
VERTEX
  8
図枠
  5
50A
 10
900.993
 20
-312.497
 30
0.000000
  70
    32
  0
VERTEX
  8
図枠
  5
50B
 10
901.009
 20
-312.507
 30
0.000000
  70
    32
  0
VERTEX
  8
図枠
  5
50C
 10
901.025
 20
-312.517
 30
0.000000
  70
    32
  0
SEQEND
  8
図枠
  5
50D
  0
INSERT
  5
1E7
  8
0
  6
CONTINUOUS
  2
*U40
 10
0.0
 20
0.0
 30
0.0
  0
LINE
  5
1E8
  8
図枠
  6
BORDER
 10
904.57222723429993
 20
-290.8992386242
 30
0.0
 11
904.57222723429993
 21
-297.81054742420002
 31
0.0
  0
CIRCLE
  5
1E9
  8
図枠
 10
904.57222723429993
 20
-294.35489302420001
 30
0.0
 40
2.303769599999999
  0
LINE
  5
1EA
  8
図枠
 10
905.03386728019996
 20
-309.67522246459998
 30
0.0
 11
905.83378728019989
 21
-308.47534246459998
 31
0.0
  0
POLYLINE
  8
図枠
  5
50E
  66
     1
 10
0.000000
 20
0.000000
 30
0.000000
  70
     8
  0
VERTEX
  8
図枠
  5
50F
 10
903.982
 20
-312.494
 30
0.000000
  70
    32
  0
VERTEX
  8
図枠
  5
510
 10
903.996
 20
-312.498
 30
0.000000
  70
    32
  0
VERTEX
  8
図枠
  5
511
 10
904.010
 20
-312.502
 30
0.000000
  70
    32
  0
VERTEX
  8
図枠
  5
512
 10
904.024
 20
-312.506
 30
0.000000
  70
    32
  0
VERTEX
  8
図枠
  5
513
 10
904.038
 20
-312.509
 30
0.000000
  70
    32
  0
VERTEX
  8
図枠
  5
514
 10
904.052
 20
-312.513
 30
0.000000
  70
    32
  0
VERTEX
  8
図枠
  5
515
 10
904.066
 20
-312.517
 30
0.000000
  70
    32
  0
VERTEX
  8
図枠
  5
516
 10
904.080
 20
-312.521
 30
0.000000
  70
    32
  0
VERTEX
  8
図枠
  5
517
 10
904.094
 20
-312.525
 30
0.000000
  70
    32
  0
VERTEX
  8
図枠
  5
518
 10
904.108
 20
-312.529
 30
0.000000
  70
    32
  0
VERTEX
  8
図枠
  5
519
 10
904.122
 20
-312.532
 30
0.000000
  70
    32
  0
VERTEX
  8
図枠
  5
51A
 10
904.136
 20
-312.536
 30
0.000000
  70
    32
  0
VERTEX
  8
図枠
  5
51B
 10
904.150
 20
-312.540
 30
0.000000
  70
    32
  0
VERTEX
  8
図枠
  5
51C
 10
904.165
 20
-312.544
 30
0.000000
  70
    32
  0
VERTEX
  8
図枠
  5
51D
 10
904.179
 20
-312.547
 30
0.000000
  70
    32
  0
VERTEX
  8
図枠
  5
51E
 10
904.193
 20
-312.551
 30
0.000000
  70
    32
  0
VERTEX
  8
図枠
  5
51F
 10
904.207
 20
-312.555
 30
0.000000
  70
    32
  0
VERTEX
  8
図枠
  5
520
 10
904.221
 20
-312.558
 30
0.000000
  70
    32
  0
VERTEX
  8
図枠
  5
521
 10
904.235
 20
-312.562
 30
0.000000
  70
    32
  0
VERTEX
  8
図枠
  5
522
 10
904.250
 20
-312.565
 30
0.000000
  70
    32
  0
VERTEX
  8
図枠
  5
523
 10
904.264
 20
-312.569
 30
0.000000
  70
    32
  0
VERTEX
  8
図枠
  5
524
 10
904.278
 20
-312.572
 30
0.000000
  70
    32
  0
VERTEX
  8
図枠
  5
525
 10
904.292
 20
-312.576
 30
0.000000
  70
    32
  0
VERTEX
  8
図枠
  5
526
 10
904.307
 20
-312.579
 30
0.000000
  70
    32
  0
VERTEX
  8
図枠
  5
527
 10
904.321
 20
-312.583
 30
0.000000
  70
    32
  0
VERTEX
  8
図枠
  5
528
 10
904.335
 20
-312.586
 30
0.000000
  70
    32
  0
VERTEX
  8
図枠
  5
529
 10
904.350
 20
-312.590
 30
0.000000
  70
    32
  0
VERTEX
  8
図枠
  5
52A
 10
904.364
 20
-312.593
 30
0.000000
  70
    32
  0
VERTEX
  8
図枠
  5
52B
 10
904.378
 20
-312.597
 30
0.000000
  70
    32
  0
VERTEX
  8
図枠
  5
52C
 10
904.393
 20
-312.600
 30
0.000000
  70
    32
  0
VERTEX
  8
図枠
  5
52D
 10
904.407
 20
-312.603
 30
0.000000
  70
    32
  0
VERTEX
  8
図枠
  5
52E
 10
904.421
 20
-312.607
 30
0.000000
  70
    32
  0
VERTEX
  8
図枠
  5
52F
 10
904.436
 20
-312.610
 30
0.000000
  70
    32
  0
VERTEX
  8
図枠
  5
530
 10
904.450
 20
-312.613
 30
0.000000
  70
    32
  0
VERTEX
  8
図枠
  5
531
 10
904.464
 20
-312.617
 30
0.000000
  70
    32
  0
VERTEX
  8
図枠
  5
532
 10
904.479
 20
-312.620
 30
0.000000
  70
    32
  0
VERTEX
  8
図枠
  5
533
 10
904.493
 20
-312.623
 30
0.000000
  70
    32
  0
VERTEX
  8
図枠
  5
534
 10
904.508
 20
-312.627
 30
0.000000
  70
    32
  0
VERTEX
  8
図枠
  5
535
 10
904.522
 20
-312.630
 30
0.000000
  70
    32
  0
VERTEX
  8
図枠
  5
536
 10
904.537
 20
-312.633
 30
0.000000
  70
    32
  0
VERTEX
  8
図枠
  5
537
 10
904.551
 20
-312.636
 30
0.000000
  70
    32
  0
VERTEX
  8
図枠
  5
538
 10
904.566
 20
-312.639
 30
0.000000
  70
    32
  0
VERTEX
  8
図枠
  5
539
 10
904.580
 20
-312.643
 30
0.000000
  70
    32
  0
VERTEX
  8
図枠
  5
53A
 10
904.594
 20
-312.646
 30
0.000000
  70
    32
  0
VERTEX
  8
図枠
  5
53B
 10
904.609
 20
-312.649
 30
0.000000
  70
    32
  0
VERTEX
  8
図枠
  5
53C
 10
904.623
 20
-312.652
 30
0.000000
  70
    32
  0
VERTEX
  8
図枠
  5
53D
 10
904.638
 20
-312.655
 30
0.000000
  70
    32
  0
VERTEX
  8
図枠
  5
53E
 10
904.652
 20
-312.658
 30
0.000000
  70
    32
  0
VERTEX
  8
図枠
  5
53F
 10
904.667
 20
-312.661
 30
0.000000
  70
    32
  0
VERTEX
  8
図枠
  5
540
 10
904.682
 20
-312.664
 30
0.000000
  70
    32
  0
VERTEX
  8
図枠
  5
541
 10
904.696
 20
-312.668
 30
0.000000
  70
    32
  0
VERTEX
  8
図枠
  5
542
 10
904.711
 20
-312.671
 30
0.000000
  70
    32
  0
VERTEX
  8
図枠
  5
543
 10
904.725
 20
-312.674
 30
0.000000
  70
    32
  0
VERTEX
  8
図枠
  5
544
 10
904.740
 20
-312.677
 30
0.000000
  70
    32
  0
VERTEX
  8
図枠
  5
545
 10
904.754
 20
-312.680
 30
0.000000
  70
    32
  0
VERTEX
  8
図枠
  5
546
 10
904.769
 20
-312.683
 30
0.000000
  70
    32
  0
VERTEX
  8
図枠
  5
547
 10
904.784
 20
-312.686
 30
0.000000
  70
    32
  0
VERTEX
  8
図枠
  5
548
 10
904.798
 20
-312.689
 30
0.000000
  70
    32
  0
VERTEX
  8
図枠
  5
549
 10
904.813
 20
-312.692
 30
0.000000
  70
    32
  0
VERTEX
  8
図枠
  5
54A
 10
904.827
 20
-312.694
 30
0.000000
  70
    32
  0
VERTEX
  8
図枠
  5
54B
 10
904.842
 20
-312.697
 30
0.000000
  70
    32
  0
VERTEX
  8
図枠
  5
54C
 10
904.857
 20
-312.700
 30
0.000000
  70
    32
  0
VERTEX
  8
図枠
  5
54D
 10
904.871
 20
-312.703
 30
0.000000
  70
    32
  0
VERTEX
  8
図枠
  5
54E
 10
904.886
 20
-312.706
 30
0.000000
  70
    32
  0
VERTEX
  8
図枠
  5
54F
 10
904.901
 20
-312.709
 30
0.000000
  70
    32
  0
VERTEX
  8
図枠
  5
550
 10
904.915
 20
-312.712
 30
0.000000
  70
    32
  0
VERTEX
  8
図枠
  5
551
 10
904.930
 20
-312.715
 30
0.000000
  70
    32
  0
VERTEX
  8
図枠
  5
552
 10
904.945
 20
-312.718
 30
0.000000
  70
    32
  0
VERTEX
  8
図枠
  5
553
 10
904.959
 20
-312.720
 30
0.000000
  70
    32
  0
VERTEX
  8
図枠
  5
554
 10
904.974
 20
-312.723
 30
0.000000
  70
    32
  0
VERTEX
  8
図枠
  5
555
 10
904.989
 20
-312.726
 30
0.000000
  70
    32
  0
VERTEX
  8
図枠
  5
556
 10
905.003
 20
-312.729
 30
0.000000
  70
    32
  0
VERTEX
  8
図枠
  5
557
 10
905.018
 20
-312.732
 30
0.000000
  70
    32
  0
VERTEX
  8
図枠
  5
558
 10
905.033
 20
-312.734
 30
0.000000
  70
    32
  0
VERTEX
  8
図枠
  5
559
 10
905.048
 20
-312.737
 30
0.000000
  70
    32
  0
VERTEX
  8
図枠
  5
55A
 10
905.062
 20
-312.740
 30
0.000000
  70
    32
  0
VERTEX
  8
図枠
  5
55B
 10
905.077
 20
-312.743
 30
0.000000
  70
    32
  0
VERTEX
  8
図枠
  5
55C
 10
905.092
 20
-312.745
 30
0.000000
  70
    32
  0
VERTEX
  8
図枠
  5
55D
 10
905.107
 20
-312.748
 30
0.000000
  70
    32
  0
VERTEX
  8
図枠
  5
55E
 10
905.121
 20
-312.751
 30
0.000000
  70
    32
  0
VERTEX
  8
図枠
  5
55F
 10
905.136
 20
-312.754
 30
0.000000
  70
    32
  0
VERTEX
  8
図枠
  5
560
 10
905.151
 20
-312.756
 30
0.000000
  70
    32
  0
VERTEX
  8
図枠
  5
561
 10
905.166
 20
-312.759
 30
0.000000
  70
    32
  0
VERTEX
  8
図枠
  5
562
 10
905.180
 20
-312.762
 30
0.000000
  70
    32
  0
VERTEX
  8
図枠
  5
563
 10
905.195
 20
-312.764
 30
0.000000
  70
    32
  0
VERTEX
  8
図枠
  5
564
 10
905.210
 20
-312.767
 30
0.000000
  70
    32
  0
VERTEX
  8
図枠
  5
565
 10
905.225
 20
-312.770
 30
0.000000
  70
    32
  0
VERTEX
  8
図枠
  5
566
 10
905.240
 20
-312.772
 30
0.000000
  70
    32
  0
VERTEX
  8
図枠
  5
567
 10
905.254
 20
-312.775
 30
0.000000
  70
    32
  0
VERTEX
  8
図枠
  5
568
 10
905.269
 20
-312.778
 30
0.000000
  70
    32
  0
VERTEX
  8
図枠
  5
569
 10
905.284
 20
-312.780
 30
0.000000
  70
    32
  0
VERTEX
  8
図枠
  5
56A
 10
905.299
 20
-312.783
 30
0.000000
  70
    32
  0
VERTEX
  8
図枠
  5
56B
 10
905.314
 20
-312.786
 30
0.000000
  70
    32
  0
VERTEX
  8
図枠
  5
56C
 10
905.328
 20
-312.788
 30
0.000000
  70
    32
  0
VERTEX
  8
図枠
  5
56D
 10
905.343
 20
-312.791
 30
0.000000
  70
    32
  0
VERTEX
  8
図枠
  5
56E
 10
905.358
 20
-312.793
 30
0.000000
  70
    32
  0
VERTEX
  8
図枠
  5
56F
 10
905.373
 20
-312.796
 30
0.000000
  70
    32
  0
VERTEX
  8
図枠
  5
570
 10
905.388
 20
-312.799
 30
0.000000
  70
    32
  0
VERTEX
  8
図枠
  5
571
 10
905.403
 20
-312.801
 30
0.000000
  70
    32
  0
VERTEX
  8
図枠
  5
572
 10
905.417
 20
-312.804
 30
0.000000
  70
    32
  0
VERTEX
  8
図枠
  5
573
 10
905.432
 20
-312.806
 30
0.000000
  70
    32
  0
VERTEX
  8
図枠
  5
574
 10
905.447
 20
-312.809
 30
0.000000
  70
    32
  0
VERTEX
  8
図枠
  5
575
 10
905.462
 20
-312.812
 30
0.000000
  70
    32
  0
VERTEX
  8
図枠
  5
576
 10
905.477
 20
-312.814
 30
0.000000
  70
    32
  0
VERTEX
  8
図枠
  5
577
 10
905.492
 20
-312.817
 30
0.000000
  70
    32
  0
VERTEX
  8
図枠
  5
578
 10
905.506
 20
-312.819
 30
0.000000
  70
    32
  0
VERTEX
  8
図枠
  5
579
 10
905.521
 20
-312.822
 30
0.000000
  70
    32
  0
VERTEX
  8
図枠
  5
57A
 10
905.536
 20
-312.824
 30
0.000000
  70
    32
  0
VERTEX
  8
図枠
  5
57B
 10
905.551
 20
-312.827
 30
0.000000
  70
    32
  0
VERTEX
  8
図枠
  5
57C
 10
905.566
 20
-312.829
 30
0.000000
  70
    32
  0
VERTEX
  8
図枠
  5
57D
 10
905.581
 20
-312.832
 30
0.000000
  70
    32
  0
VERTEX
  8
図枠
  5
57E
 10
905.596
 20
-312.835
 30
0.000000
  70
    32
  0
VERTEX
  8
図枠
  5
57F
 10
905.611
 20
-312.837
 30
0.000000
  70
    32
  0
VERTEX
  8
図枠
  5
580
 10
905.625
 20
-312.840
 30
0.000000
  70
    32
  0
VERTEX
  8
図枠
  5
581
 10
905.640
 20
-312.842
 30
0.000000
  70
    32
  0
VERTEX
  8
図枠
  5
582
 10
905.655
 20
-312.845
 30
0.000000
  70
    32
  0
VERTEX
  8
図枠
  5
583
 10
905.670
 20
-312.847
 30
0.000000
  70
    32
  0
VERTEX
  8
図枠
  5
584
 10
905.685
 20
-312.850
 30
0.000000
  70
    32
  0
VERTEX
  8
図枠
  5
585
 10
905.700
 20
-312.852
 30
0.000000
  70
    32
  0
VERTEX
  8
図枠
  5
586
 10
905.715
 20
-312.855
 30
0.000000
  70
    32
  0
VERTEX
  8
図枠
  5
587
 10
905.730
 20
-312.857
 30
0.000000
  70
    32
  0
VERTEX
  8
図枠
  5
588
 10
905.744
 20
-312.860
 30
0.000000
  70
    32
  0
VERTEX
  8
図枠
  5
589
 10
905.759
 20
-312.862
 30
0.000000
  70
    32
  0
VERTEX
  8
図枠
  5
58A
 10
905.774
 20
-312.865
 30
0.000000
  70
    32
  0
VERTEX
  8
図枠
  5
58B
 10
905.789
 20
-312.867
 30
0.000000
  70
    32
  0
VERTEX
  8
図枠
  5
58C
 10
905.804
 20
-312.870
 30
0.000000
  70
    32
  0
VERTEX
  8
図枠
  5
58D
 10
905.819
 20
-312.872
 30
0.000000
  70
    32
  0
VERTEX
  8
図枠
  5
58E
 10
905.834
 20
-312.875
 30
0.000000
  70
    32
  0
SEQEND
  8
図枠
  5
58F
  0
LINE
  5
1EC
  8
図枠
  6
BORDER
 10
904.57222723429993
 20
-290.8992386242
 30
0.0
 11
904.57222723429993
 21
-297.81054742420002
 31
0.0
  0
ARC
  5
1ED
  8
図枠
 10
900.63430728020001
 20
-309.67522246459998
 30
0.0
 40
4.3995600000000001
 50
322.48761197969998
 51
0.0
  0
LINE
  5
1EE
  8
図枠
 10
902.26319436849997
 20
-311.290317663
 30
0.0
 11
902.07073697110013
 21
-311.5028870924001
 31
0.0
  0
LINE
  5
1EF
  8
図枠
 10
889.70691528019995
 20
-312.87490246459998
 30
0.0
 11
889.70691528019995
 21
-314.07478246459999
 31
0.0
  0
CIRCLE
  5
1F0
  8
図枠
 10
904.57222723429993
 20
-294.35489302420001
 30
0.0
 40
1.151884799999999
  0
CIRCLE
  5
1F1
  8
図枠
 10
904.57222723429993
 20
-294.35489302420001
 30
0.0
 40
2.303769599999999
  0
LINE
  5
1F2
  8
図枠
 10
895.30635528019991
 20
-309.67522246459998
 30
0.0
 11
896.50623528020003
 21
-308.47534246459998
 31
0.0
  0
LINE
  5
1F3
  8
図枠
 10
893.30655528019997
 20
-308.47534246459998
 30
0.0
 11
893.30655528019997
 21
-310.0751824646
 31
0.0
  0
LINE
  5
1F4
  8
図枠
 10
896.50623528020003
 20
-310.0751824646
 30
0.0
 11
895.30635528019991
 21
-310.0751824646
 31
0.0
  0
LINE
  5
1F5
  8
図枠
 10
891.70671528019989
 20
-311.27506246460001
 30
0.0
 11
893.30655528019997
 21
-311.27506246460001
 31
0.0
  0
LINE
  5
1F6
  8
図枠
 10
889.70691528019995
 20
-308.47534246459998
 30
0.0
 11
889.70691528019995
 21
-310.0751824646
 31
0.0
  0
LINE
  5
1F7
  8
図枠
 10
896.50623528020003
 20
-310.0751824646
 30
0.0
 11
896.50623528020003
 21
-311.27506246460001
 31
0.0
  0
LINE
  5
1F8
  8
図枠
 10
914.80687600020008
 20
-311.91499846459999
 30
0.0
 11
914.80687600020008
 21
-313.35485446460001
 31
0.0
  0
LINE
  5
1F9
  8
図枠
 10
913.20703600019999
 20
-314.47474246460001
 30
0.0
 11
912.88477169169994
 21
-313.35485446460001
 31
0.0
  0
LINE
  5
1FA
  8
図枠
 10
909.20743600019989
 20
-308.47534246459998
 30
0.0
 11
912.40711600020006
 21
-308.47534246459998
 31
0.0
  0
LINE
  5
1FB
  8
図枠
 10
907.60759600020003
 20
-311.27506246460001
 30
0.0
 11
910.02868720020001
 21
-311.27506246460001
 31
0.0
  0
LINE
  5
1FC
  8
図枠
 10
889.70691528019995
 20
-314.07478246459999
 30
0.0
 11
892.90659528020001
 21
-314.07478246459999
 31
0.0
  0
LINE
  5
1FD
  8
図枠
 10
898.63450728019995
 20
-312.87490246459998
 30
0.0
 11
899.59441128020001
 21
-312.87490246459998
 31
0.0
  0
LINE
  5
1FE
  8
図枠
 10
889.70691528019995
 20
-312.47494246460002
 30
0.0
 11
891.70671528019989
 21
-312.47494246460002
 31
0.0
  0
LINE
  5
1FF
  8
図枠
 10
858.5128336342998
 20
-290.10531802420002
 30
0.0
 11
858.5128336342998
 21
-315.60276802419997
 31
0.0
  0
LINE
  5
200
  8
図枠
 10
896.50623528020003
 20
-308.47534246459998
 30
0.0
 11
893.30655528019997
 21
-308.47534246459998
 31
0.0
  0
LINE
  5
201
  8
図枠
 10
891.70671528019989
 20
-310.0751824646
 30
0.0
 11
891.70671528019989
 21
-309.67522246459998
 31
0.0
  0
ARC
  5
202
  8
図枠
 10
899.59441128020001
 20
-309.83520646459999
 30
0.0
 40
3.0396959999999988
 50
331.39928138329998
 51
358.49204224580001
  0
CIRCLE
  5
203
  8
図枠
 10
904.57222723429993
 20
-294.35489302420001
 30
0.0
 40
2.303769599999999
  0
CIRCLE
  5
204
  8
図枠
 10
904.57222723429993
 20
-294.35489302420001
 30
0.0
 40
1.151884799999999
  0
LINE
  5
205
  8
図枠
 10
898.63450728019995
 20
-310.33284490969999
 30
0.0
 11
901.83418728020001
 21
-310.33284490969999
 31
0.0
  0
LINE
  5
206
  8
図枠
 10
898.63450728019995
 20
-310.59050735490001
 30
0.0
 11
898.63450728019995
 21
-310.33284490969999
 31
0.0
  0
LINE
  5
207
  8
図枠
 10
898.63450728019995
 20
-314.07478246459999
 30
0.0
 11
898.63450728019995
 21
-312.87490246459998
 31
0.0
  0
INSERT
  5
208
  8
0
  6
CONTINUOUS
  2
*U41
 10
0.0
 20
0.0
 30
0.0
  0
INSERT
  5
209
  8
0
  6
CONTINUOUS
  2
*U42
 10
0.0
 20
0.0
 30
0.0
  0
LINE
  5
20A
  8
図枠
 10
898.50883363429978
 20
-290.10531802420002
 30
0.0
 11
898.50883363429978
 21
-298.6044680242
 31
0.0
  0
LINE
  5
20B
  8
図枠
 10
910.21640176020003
 20
-311.91499846459999
 30
0.0
 11
910.02868720020001
 21
-311.27506246460001
 31
0.0
  0
LINE
  5
20C
  8
図枠
 10
909.83818139740004
 20
-293.2030082242
 30
0.0
 11
909.83818139740004
 21
-295.50677782420001
 31
0.0
  0
LINE
  5
20D
  8
図枠
 10
895.30635528019991
 20
-310.0751824646
 30
0.0
 11
895.30635528019991
 21
-309.67522246459998
 31
0.0
  0
LINE
  5
20E
  8
図枠
 10
889.70691528019995
 20
-311.27506246460001
 30
0.0
 11
889.58604431920014
 21
-311.27506246460001
 31
0.0
  0
LINE
  5
20F
  8
図枠
 10
914.44572059740005
 20
-292.0511234242
 30
0.0
 11
914.44572059740005
 21
-296.65866262419991
 31
0.0
  0
LINE
  5
210
  8
図枠
 10
898.63450728019995
 20
-308.47534246459998
 30
0.0
 11
898.63450728019995
 21
-309.9151984646
 31
0.0
  0
LINE
  5
211
  8
図枠
 10
909.83818139740004
 20
-293.2030082242
 30
0.0
 11
914.44572059740005
 21
-292.0511234242
 31
0.0
  0
LINE
  5
212
  8
図枠
 10
909.83818139740004
 20
-293.2030082242
 30
0.0
 11
914.44572059740005
 21
-292.0511234242
 31
0.0
  0
LINE
  5
213
  8
図枠
 10
914.44572059740005
 20
-292.0511234242
 30
0.0
 11
914.44572059740005
 21
-296.65866262419991
 31
0.0
  0
LINE
  5
214
  8
図枠
 10
911.87194100789998
 20
-309.83520646459999
 30
0.0
 11
911.75483731919985
 21
-309.42826405049999
 31
0.0
  0
LINE
  5
215
  8
図枠
 10
878.51083363429984
 20
-290.10531802420002
 30
0.0
 11
878.51083363429984
 21
-298.6044680242
 31
0.0
  0
LINE
  5
216
  8
図枠
 10
910.9672600002001
 20
-314.47474246460001
 30
0.0
 11
910.6387595202001
 21
-313.35485446460001
 31
0.0
  0
LINE
  5
217
  8
図枠
 10
909.83818139740004
 20
-295.50677782420001
 30
0.0
 11
914.44572059740005
 21
-296.65866262419991
 31
0.0
  0
LINE
  5
218
  8
図枠
 10
912.88477169169994
 20
-313.35485446460001
 30
0.0
 11
914.80687600020008
 21
-313.35485446460001
 31
0.0
  0
LINE
  5
219
  8
図枠
 10
914.80687600020008
 20
-309.83520646459999
 30
0.0
 11
914.80687600020008
 21
-311.27506246460001
 31
0.0
  0
LINE
  5
21A
  8
図枠
 10
907.60759600020003
 20
-309.83520646459999
 30
0.0
 11
909.60632944020006
 21
-309.83520646459999
 31
0.0
  0
LINE
  5
21B
  8
図枠
 10
912.47043186649989
 20
-311.91499846459999
 30
0.0
 11
914.80687600020008
 21
-311.91499846459999
 31
0.0
  0
LINE
  5
21C
  8
図枠
 10
909.83818139740004
 20
-293.2030082242
 30
0.0
 11
914.44572059740005
 21
-292.0511234242
 31
0.0
  0
LINE
  5
21D
  8
図枠
 10
895.30635528019991
 20
-311.27506246460001
 30
0.0
 11
896.50623528020003
 21
-311.27506246460001
 31
0.0
  0
LINE
  5
21E
  8
図枠
 10
914.44572059740005
 20
-292.0511234242
 30
0.0
 11
914.44572059740005
 21
-296.65866262419991
 31
0.0
  0
LINE
  5
21F
  8
図枠
 10
911.75483731919985
 20
-309.42826405049999
 30
0.0
 11
912.40711600020006
 21
-308.47534246459998
 31
0.0
  0
LINE
  5
220
  8
図枠
 10
892.10667528020008
 20
-312.87490246459998
 30
0.0
 11
889.70691528019995
 21
-312.87490246459998
 31
0.0
  0
LINE
  5
221
  8
図枠
 10
893.30655528019997
 20
-311.27506246460001
 30
0.0
 11
893.30655528019997
 21
-311.67502246459998
 31
0.0
  0
CIRCLE
  5
222
  8
図枠
 10
904.57222723429993
 20
-294.35489302420001
 30
0.0
 40
1.151884799999999
  0
CIRCLE
  5
223
  8
図枠
 10
904.57222723429993
 20
-294.35489302420001
 30
0.0
 40
1.151884799999999
  0
LINE
  5
224
  8
図枠
 10
901.83418728020001
 20
-310.33284490969999
 30
0.0
 11
901.38168419500005
 21
-310.78534799490001
 31
0.0
  0
INSERT
  5
225
  8
0
  6
CONTINUOUS
  2
*U43
 10
0.0
 20
0.0
 30
0.0
  0
LINE
  5
226
  8
図枠
 10
860.51263363429985
 20
-294.35489302420001
 30
0.0
 11
876.51103363429991
 21
-294.35489302420001
 31
0.0
  0
ARC
  5
227
  8
図枠
 10
900.63430728020001
 20
-309.67522246459998
 30
0.0
 40
4.3995600000000001
 50
270.0
 51
302.54495885400001
  0
LINE
  5
228
  8
図枠
 10
889.70691528019995
 20
-311.27506246460001
 30
0.0
 11
889.70691528019995
 21
-312.47494246460002
 31
0.0
  0
LINE
  5
229
  8
図枠
 10
909.83818139740004
 20
-295.50677782420001
 30
0.0
 11
914.44572059740005
 21
-296.65866262419991
 31
0.0
  0
LINE
  5
22A
  8
図枠
 10
918.50683363429994
 20
-290.10531802420002
 30
0.0
 11
918.50683363429994
 21
-315.60276802419997
 31
0.0
  0
LINE
  5
22B
  8
図枠
 10
907.60759600020003
 20
-309.83520646459999
 30
0.0
 11
907.60759600020003
 21
-311.27506246460001
 31
0.0
  0
LINE
  5
22C
  8
図枠
 10
909.83818139740004
 20
-295.50677782420001
 30
0.0
 11
914.44572059740005
 21
-296.65866262419991
 31
0.0
  0
INSERT
  5
22D
  8
0
  6
CONTINUOUS
  2
*U44
 10
0.0
 20
0.0
 30
0.0
  0
INSERT
  5
22E
  8
0
  6
CONTINUOUS
  2
*U45
 10
0.0
 20
0.0
 30
0.0
  0
LINE
  5
22F
  8
図枠
 10
907.60759600020003
 20
-311.91499846459999
 30
0.0
 11
910.21640176020003
 21
-311.91499846459999
 31
0.0
  0
LINE
  5
230
  8
図枠
 10
914.44572059740005
 20
-292.0511234242
 30
0.0
 11
914.44572059740005
 21
-296.65866262419991
 31
0.0
  0
INSERT
  5
231
  8
0
  6
CONTINUOUS
  2
*U46
 10
0.0
 20
0.0
 30
0.0
  0
INSERT
  5
232
  8
0
  6
CONTINUOUS
  2
*U47
 10
0.0
 20
0.0
 30
0.0
  0
INSERT
  5
233
  8
0
  6
CONTINUOUS
  2
*U48
 10
0.0
 20
0.0
 30
0.0
  0
INSERT
  5
234
  8
0
  6
CONTINUOUS
  2
*U49
 10
0.0
 20
0.0
 30
0.0
  0
INSERT
  5
235
  8
0
  6
CONTINUOUS
  2
*U50
 10
0.0
 20
0.0
 30
0.0
  0
INSERT
  5
236
  8
0
  6
CONTINUOUS
  2
*U51
 10
0.0
 20
0.0
 30
0.0
  0
LINE
  5
237
  8
図枠
 10
909.60632944020006
 20
-309.83520646459999
 30
0.0
 11
909.20743600019989
 21
-308.47534246459998
 31
0.0
  0
LINE
  5
238
  8
図枠
 10
911.87194100789998
 20
-309.83520646459999
 30
0.0
 11
914.80687600020008
 21
-309.83520646459999
 31
0.0
  0
LINE
  5
239
  8
図枠
 10
909.83818139740004
 20
-293.2030082242
 30
0.0
 11
914.44572059740005
 21
-292.0511234242
 31
0.0
  0
LINE
  5
23A
  8
図枠
  6
BORDER
 10
904.57222723429993
 20
-290.8992386242
 30
0.0
 11
904.57222723429993
 21
-297.81054742420002
 31
0.0
  0
DIMENSION
  5
249
  8
寸法線
  2
*D21
 10
846.26158854169989
 20
-192.98764763130001
 30
0.0
 11
849.01158854169989
 21
-192.98764763130001
 31
0.0
 70
   128
  1
<>
 13
846.26158854169989
 23
-172.25123467680001
 33
0.0
 14
851.76158854169989
 24
-180.25123467680001
 34
0.0
 50
180.0
  0
DIMENSION
  5
258
  8
寸法線
  2
*D22
 10
898.65900196279995
 20
-226.75123467680001
 30
0.0
 11
909.65900196279995
 21
-226.75123467680001
 31
0.0
 70
   128
  1
<>
 13
898.65900196279995
 23
-170.3512346768
 33
0.0
 14
920.65900196279995
 24
-216.75123467680001
 34
0.0
 50
180.0
  0
DIMENSION
  5
267
  8
寸法線
  2
*D23
 10
868.96597049030004
 20
-181.25123467680001
 30
0.0
 11
868.96597049030004
 21
-171.75123467680001
 31
0.0
 70
   128
  1
<>
 13
850.76158854169989
 23
-181.25123467680001
 33
0.0
 14
850.76158854169989
 24
-162.25123467680001
 34
0.0
 50
90.0
  0
DIMENSION
  5
276
  8
寸法線
  2
*D24
 10
923.15900196279995
 20
-152.25123467680001
 30
0.0
 11
910.90900196279983
 21
-152.25123467680001
 31
0.0
 70
   128
  1
<>
 13
923.15900196279995
 23
-162.25123467680001
 33
0.0
 14
898.65900196279995
 24
-166.25123467680001
 34
0.0
  0
DIMENSION
  5
285
  8
寸法線
  2
*D25
 10
862.26158854169989
 20
-181.25123467680001
 30
0.0
 11
862.26158854169989
 21
-178.75123467680001
 31
0.0
 70
   128
  1
<>
 13
850.76158854169989
 23
-181.25123467680001
 33
0.0
 14
839.76158854170001
 24
-176.25123467680001
 34
0.0
 50
90.0
  0
DIMENSION
  5
294
  8
寸法線
  2
*D26
 10
862.26158854169989
 20
-176.25123467680001
 30
0.0
 11
862.26158854169989
 21
-171.75123467680001
 31
0.0
 70
   128
  1
<>
 13
839.76158854170001
 23
-176.25123467680001
 33
0.0
 14
852.26158854170001
 24
-167.25123467680001
 34
0.0
 50
90.0
  0
LINE
  5
295
  8
ﾚｲﾔ_1
  6
STITCH
 10
843.36158854169992
 20
-275.72351978030002
 30
0.0
 11
843.36158854169992
 21
-276.1235197803
 31
0.0
  0
LINE
  5
296
  8
ﾚｲﾔ_1
  6
STITCH
 10
842.16158854169987
 20
-274.52351978029998
 30
0.0
 11
843.36158854169992
 21
-275.72351978030002
 31
0.0
  0
LINE
  5
297
  8
ﾚｲﾔ_1
  6
STITCH
 10
849.16158854169987
 20
-275.72351978030002
 30
0.0
 11
849.16158854169987
 21
-276.1235197803
 31
0.0
  0
LINE
  5
298
  8
ﾚｲﾔ_1
  6
STITCH
 10
850.36158854170003
 20
-274.52351978029998
 30
0.0
 11
849.16158854169987
 21
-275.72351978030002
 31
0.0
  0
LINE
  5
299
  8
ﾚｲﾔ_1
  6
BORDER
 62
     3
 10
846.26158854169989
 20
-272.52351978029998
 30
0.0
 11
846.26158854169989
 21
-278.1235197803
 31
0.0
  0
LINE
  5
29A
  8
ﾚｲﾔ_1
 62
     5
 10
851.76158854169989
 20
-274.52351978029998
 30
0.0
 11
851.76158854169989
 21
-276.1235197803
 31
0.0
  0
LINE
  5
29B
  8
図枠
 10
895.30635528019991
 20
-311.67502246459998
 30
0.0
 11
895.30635528019991
 21
-311.27506246460001
 31
0.0
  0
INSERT
  5
29C
  8
0
  6
CONTINUOUS
  2
*U52
 10
0.0
 20
0.0
 30
0.0
  0
INSERT
  5
29D
  8
0
  6
CONTINUOUS
  2
*U53
 10
0.0
 20
0.0
 30
0.0
  0
LINE
  5
29E
  8
図枠
 10
909.83818139740004
 20
-295.50677782420001
 30
0.0
 11
914.44572059740005
 21
-296.65866262419991
 31
0.0
  0
LINE
  5
29F
  8
図枠
 10
893.30655528019997
 20
-310.0751824646
 30
0.0
 11
891.70671528019989
 21
-310.0751824646
 31
0.0
  0
LINE
  5
2A0
  8
図枠
 10
858.5128336342998
 20
-290.10531802420002
 30
0.0
 11
974.50123363429998
 21
-290.10531802420002
 31
0.0
  0
LINE
  5
2A1
  8
図枠
 10
909.83818139740004
 20
-293.2030082242
 30
0.0
 11
909.83818139740004
 21
-295.50677782420001
 31
0.0
  0
LINE
  5
2A2
  8
図枠
 10
907.60759600020003
 20
-311.91499846459999
 30
0.0
 11
907.60759600020003
 21
-313.35485446460001
 31
0.0
  0
LINE
  5
2A3
  8
図枠
 10
909.83818139740004
 20
-293.2030082242
 30
0.0
 11
909.83818139740004
 21
-295.50677782420001
 31
0.0
  0
LINE
  5
2A4
  8
図枠
 10
912.28628083309991
 20
-311.27506246460001
 30
0.0
 11
914.80687600020008
 21
-311.27506246460001
 31
0.0
  0
LINE
  5
2A5
  8
図枠
 10
907.60759600020003
 20
-313.35485446460001
 30
0.0
 11
910.6387595202001
 21
-313.35485446460001
 31
0.0
  0
ARC
  5
2A6
  8
図枠
 10
892.10667528020008
 20
-311.67502246459998
 30
0.0
 40
1.1998799999999989
 50
270.0
 51
0.0
  0
LINE
  5
2A7
  8
図枠
  6
BORDER
 10
904.57222723429993
 20
-290.8992386242
 30
0.0
 11
904.57222723429993
 21
-297.81054742420002
 31
0.0
  0
LINE
  5
2A8
  8
ﾚｲﾔ_1
  6
STITCH
 10
922.75900196279986
 20
-165.4512346768
 30
0.0
 11
923.15900196279995
 21
-165.4512346768
 31
0.0
  0
LINE
  5
2A9
  8
ﾚｲﾔ_1
  6
STITCH
 10
921.55900196280015
 20
-170.25123467680001
 30
0.0
 11
922.75900196279986
 21
-169.05123467679999
 31
0.0
  0
LINE
  5
2AA
  8
ﾚｲﾔ_1
  6
STITCH
 10
922.75900196279986
 20
-169.05123467679999
 30
0.0
 11
923.15900196279995
 21
-169.05123467679999
 31
0.0
  0
LINE
  5
2AB
  8
ﾚｲﾔ_1
  6
BORDER
 62
     3
 10
919.55900196279993
 20
-167.25123467680001
 30
0.0
 11
925.15900196279983
 21
-167.25123467680001
 31
0.0
  0
LINE
  5
2AC
  8
ﾚｲﾔ_1
  6
BORDER
 62
     3
 10
919.55900196279993
 20
-176.25123467680001
 30
0.0
 11
925.15900196279983
 21
-176.25123467680001
 31
0.0
  0
LINE
  5
2AD
  8
ﾚｲﾔ_1
  6
STITCH
 10
922.75900196279986
 20
-178.05123467679999
 30
0.0
 11
923.15900196279995
 21
-178.05123467679999
 31
0.0
  0
LINE
  5
2AE
  8
ﾚｲﾔ_1
  6
STITCH
 10
921.55900196280015
 20
-179.25123467680001
 30
0.0
 11
922.75900196279986
 21
-178.05123467679999
 31
0.0
  0
LINE
  5
2AF
  8
ﾚｲﾔ_1
  6
STITCH
 10
922.75900196279986
 20
-174.4512346768
 30
0.0
 11
923.15900196279995
 21
-174.4512346768
 31
0.0
  0
LINE
  5
2B0
  8
ﾚｲﾔ_1
  6
STITCH
 10
921.55900196280015
 20
-173.25123467680001
 30
0.0
 11
922.75900196279986
 21
-174.4512346768
 31
0.0
  0
LINE
  5
2B1
  8
ﾚｲﾔ_1
  6
STITCH
 10
919.65900196279995
 20
-181.75123467680001
 30
0.0
 11
919.05900196280004
 21
-181.75123467680001
 31
0.0
  0
LINE
  5
2B2
  8
ﾚｲﾔ_1
  6
STITCH
 10
920.65900196279995
 20
-182.75123467680001
 30
0.0
 11
919.65900196279995
 21
-181.75123467680001
 31
0.0
  0
LINE
  5
2B3
  8
ﾚｲﾔ_1
  6
STITCH
 10
919.65900196279995
 20
-177.75123467680001
 30
0.0
 11
919.05900196280004
 21
-177.75123467680001
 31
0.0
  0
LINE
  5
2B4
  8
ﾚｲﾔ_1
  6
STITCH
 10
920.65900196279995
 20
-176.75123467680001
 30
0.0
 11
919.65900196279995
 21
-177.75123467680001
 31
0.0
  0
LINE
  5
2B5
  8
ﾚｲﾔ_1
  6
BORDER
 62
     3
 10
922.65900196279995
 20
-179.75123467680001
 30
0.0
 11
917.05900196280015
 21
-179.75123467680001
 31
0.0
  0
LINE
  5
2B6
  8
ﾚｲﾔ_1
  6
BORDER
 62
     3
 10
922.65900196279995
 20
-194.75123467680001
 30
0.0
 11
917.05900196280015
 21
-194.75123467680001
 31
0.0
  0
LINE
  5
2B7
  8
ﾚｲﾔ_1
  6
STITCH
 10
920.65900196279995
 20
-191.75123467680001
 30
0.0
 11
919.65900196279995
 21
-192.75123467680001
 31
0.0
  0
LINE
  5
2B8
  8
ﾚｲﾔ_1
  6
STITCH
 10
919.65900196279995
 20
-192.75123467680001
 30
0.0
 11
919.05900196280004
 21
-192.75123467680001
 31
0.0
  0
LINE
  5
2B9
  8
ﾚｲﾔ_1
  6
STITCH
 10
920.65900196279995
 20
-197.75123467680001
 30
0.0
 11
919.65900196279995
 21
-196.75123467680001
 31
0.0
  0
LINE
  5
2BA
  8
ﾚｲﾔ_1
  6
STITCH
 10
919.65900196279995
 20
-196.75123467680001
 30
0.0
 11
919.05900196280004
 21
-196.75123467680001
 31
0.0
  0
LINE
  5
2BB
  8
ﾚｲﾔ_1
  6
STITCH
 10
919.65900196279995
 20
-211.75123467680001
 30
0.0
 11
919.05900196280004
 21
-211.75123467680001
 31
0.0
  0
LINE
  5
2BC
  8
ﾚｲﾔ_1
  6
STITCH
 10
920.65900196279995
 20
-212.75123467680001
 30
0.0
 11
919.65900196279995
 21
-211.75123467680001
 31
0.0
  0
LINE
  5
2BD
  8
ﾚｲﾔ_1
  6
STITCH
 10
919.65900196279995
 20
-207.75123467680001
 30
0.0
 11
919.05900196280004
 21
-207.75123467680001
 31
0.0
  0
LINE
  5
2BE
  8
ﾚｲﾔ_1
  6
STITCH
 10
920.65900196279995
 20
-206.75123467680001
 30
0.0
 11
919.65900196279995
 21
-207.75123467680001
 31
0.0
  0
LINE
  5
2BF
  8
ﾚｲﾔ_1
  6
BORDER
 62
     3
 10
922.65900196279995
 20
-209.75123467680001
 30
0.0
 11
917.05900196280015
 21
-209.75123467680001
 31
0.0
  0
DIMENSION
  5
2CE
  8
寸法線
  2
*D27
 10
862.26158854169989
 20
-167.25123467680001
 30
0.0
 11
862.26158854169989
 21
-164.75123467680001
 31
0.0
 70
   128
  1
<>
 13
852.26158854170001
 23
-167.25123467680001
 33
0.0
 14
850.76158854169989
 24
-162.25123467680001
 34
0.0
 50
90.0
  0
LINE
  5
2CF
  8
ﾚｲﾔ_1
 62
     5
 10
921.55900196280015
 20
-181.25123467680001
 30
0.0
 11
921.55900196280015
 21
-162.25123467680001
 31
0.0
  0
LINE
  5
2D0
  8
ﾚｲﾔ_1
 62
     5
 10
923.15900196279995
 20
-181.25123467680001
 30
0.0
 11
921.55900196280015
 21
-181.25123467680001
 31
0.0
  0
LINE
  5
2D1
  8
ﾚｲﾔ_1
 62
     5
 10
898.65900196279995
 20
-166.25123467680001
 30
0.0
 11
898.65900196279995
 21
-167.8512346768
 31
0.0
  0
LINE
  5
2D2
  8
ﾚｲﾔ_1
 62
     5
 10
921.55900196280015
 20
-167.8512346768
 30
0.0
 11
898.65900196279995
 21
-167.8512346768
 31
0.0
  0
LINE
  5
2D3
  8
ﾚｲﾔ_1
 62
     5
 10
921.55900196280015
 20
-166.25123467680001
 30
0.0
 11
898.65900196279995
 21
-166.25123467680001
 31
0.0
  0
ARC
  5
2D4
  8
ﾚｲﾔ_1
  6
STITCH
 10
921.55900196280015
 20
-167.8512346768
 30
0.0
 40
1.6000000000000001
 50
0.0
 51
90.0
  0
LINE
  5
2D5
  8
ﾚｲﾔ_1
 62
     5
 10
921.55900196280015
 20
-162.25123467680001
 30
0.0
 11
923.15900196279995
 21
-162.25123467680001
 31
0.0
  0
LINE
  5
2D6
  8
ﾚｲﾔ_1
 62
     5
 10
923.15900196279995
 20
-162.25123467680001
 30
0.0
 11
923.15900196279995
 21
-181.25123467680001
 31
0.0
  0
LINE
  5
2D7
  8
ﾚｲﾔ_1
  6
BORDER
 62
     3
 10
903.65900196279995
 20
-162.25123467680001
 30
0.0
 11
903.65900196279995
 21
-173.65123467679999
 31
0.0
  0
LINE
  5
2D8
  8
ﾚｲﾔ_1
 62
     5
 10
901.65900196279995
 20
-165.25123467680001
 30
0.0
 11
901.65900196279995
 21
-166.25123467680001
 31
0.0
  0
LINE
  5
2D9
  8
ﾚｲﾔ_1
 62
     5
 10
905.65900196279995
 20
-165.25123467680001
 30
0.0
 11
905.65900196279995
 21
-166.25123467680001
 31
0.0
  0
LINE
  5
2DA
  8
ﾚｲﾔ_1
 62
     5
 10
905.65900196279995
 20
-165.25123467680001
 30
0.0
 11
901.65900196279995
 21
-165.25123467680001
 31
0.0
  0
LINE
  5
2DB
  8
ﾚｲﾔ_1
 62
     5
 10
907.65900196279995
 20
-167.8512346768
 30
0.0
 11
907.65900196279995
 21
-168.75123467680001
 31
0.0
  0
LINE
  5
2DC
  8
ﾚｲﾔ_1
 62
     5
 10
899.65900196279995
 20
-167.8512346768
 30
0.0
 11
899.65900196279995
 21
-168.75123467680001
 31
0.0
  0
LINE
  5
2DD
  8
ﾚｲﾔ_1
 62
     5
 10
901.65900196279995
 20
-170.55123467679999
 30
0.0
 11
905.65900196279995
 21
-170.55123467679999
 31
0.0
  0
LINE
  5
2DE
  8
ﾚｲﾔ_1
 62
     5
 10
901.65900196279995
 20
-170.3512346768
 30
0.0
 11
901.65900196279995
 21
-170.55123467679999
 31
0.0
  0
LINE
  5
2DF
  8
ﾚｲﾔ_1
 62
     5
 10
905.65900196279995
 20
-170.3512346768
 30
0.0
 11
905.65900196279995
 21
-170.55123467679999
 31
0.0
  0
ARC
  5
2E0
  8
ﾚｲﾔ_1
 62
     5
 10
919.05900196280004
 20
-170.3512346768
 30
0.0
 40
1.6000000000000001
 50
0.0
 51
90.0
  0
LINE
  5
2E1
  8
ﾚｲﾔ_1
 62
     5
 10
920.65900196279995
 20
-170.3512346768
 30
0.0
 11
920.65900196279995
 21
-216.75123467680001
 31
0.0
  0
LINE
  5
2E2
  8
ﾚｲﾔ_1
 62
     5
 10
898.65900196279995
 20
-168.75123467680001
 30
0.0
 11
919.05900196280004
 21
-168.75123467680001
 31
0.0
  0
LINE
  5
2E3
  8
ﾚｲﾔ_1
 62
     5
 10
919.05900196280004
 20
-170.3512346768
 30
0.0
 11
919.05900196280004
 21
-216.75123467680001
 31
0.0
  0
LINE
  5
2E4
  8
ﾚｲﾔ_1
 62
     5
 10
898.65900196279995
 20
-170.3512346768
 30
0.0
 11
919.05900196280004
 21
-170.3512346768
 31
0.0
  0
LINE
  5
2E5
  8
ﾚｲﾔ_1
 62
     5
 10
920.65900196279995
 20
-216.75123467680001
 30
0.0
 11
919.05900196280004
 21
-216.75123467680001
 31
0.0
  0
LINE
  5
2E6
  8
ﾚｲﾔ_1
 62
     5
 10
898.65900196279995
 20
-170.3512346768
 30
0.0
 11
898.65900196279995
 21
-168.75123467680001
 31
0.0
  0
LINE
  5
2E7
  8
ﾚｲﾔ_1
  6
STITCH
 10
921.55900196280015
 20
-164.25123467680001
 30
0.0
 11
922.75900196279986
 21
-165.4512346768
 31
0.0
  0
ENDSEC
  0
EOF
