  0
SECTION
  2
HEADER
  9
$ACADVER
  1
AC1009
  9
$INSBASE
 10
0.0
 20
0.0
 30
0.0
  9
$EXTMIN
 10
693.5293336348999
 20
-321.3515166684
 30
0.0
  9
$EXTMAX
 10
980.50063363490005
 20
-119.8716666684
 30
0.0
  9
$LIMMIN
 10
0.0
 20
0.0
  9
$LIMMAX
 10
0.0
 20
0.0
  9
$ORTHOMODE
 70
     0
  9
$REGENMODE
 70
     1
  9
$FILLMODE
 70
     1
  9
$QTEXTMODE
 70
     0
  9
$MIRRTEXT
 70
     1
  9
$DRAGMODE
 70
     2
  9
$LTSCALE
 40
1.0
  9
$OSMODE
 70
    31
  9
$ATTMODE
 70
     1
  9
$TEXTSIZE
 40
0.0
  9
$TRACEWID
 40
0.05
  9
$TEXTSTYLE
  7
STANDARD
  9
$CLAYER
  8
0
  9
$CELTYPE
  6
CONTINUOUS
  9
$CECOLOR
 62
   256
  9
$DIMSCALE
 40
1.0
  9
$DIMASZ
 40
0.18
  9
$DIMEXO
 40
0.0625
  9
$DIMDLI
 40
0.38
  9
$DIMRND
 40
0.0
  9
$DIMDLE
 40
0.0
  9
$DIMEXE
 40
0.18
  9
$DIMTP
 40
0.0
  9
$DIMTM
 40
0.0
  9
$DIMTXT
 40
0.18
  9
$DIMCEN
 40
0.09
  9
$DIMTSZ
 40
0.0
  9
$DIMTOL
 70
     0
  9
$DIMLIM
 70
     0
  9
$DIMTIH
 70
     1
  9
$DIMTOH
 70
     1
  9
$DIMSE1
 70
     0
  9
$DIMSE2
 70
     0
  9
$DIMTAD
 70
     0
  9
$DIMZIN
 70
     0
  9
$DIMBLK
  1

  9
$DIMASO
 70
     1
  9
$DIMSHO
 70
     1
  9
$DIMPOST
  1

  9
$DIMAPOST
  1

  9
$DIMALT
 70
     0
  9
$DIMALTD
 70
     2
  9
$DIMALTF
 40
25.399999999999999
  9
$DIMLFAC
 40
1.0
  9
$DIMTOFL
 70
     0
  9
$DIMTVP
 40
0.0
  9
$DIMTIX
 70
     0
  9
$DIMSOXD
 70
     0
  9
$DIMSAH
 70
     0
  9
$DIMBLK1
  1

  9
$DIMBLK2
  1

  9
$DIMSTYLE
  2
STANDARD
  9
$DIMCLRD
 70
     0
  9
$DIMCLRE
 70
     0
  9
$DIMCLRT
 70
     0
  9
$DIMTFAC
 40
1.0
  9
$DIMGAP
 40
0.09
  9
$LUNITS
 70
     2
  9
$LUPREC
 70
     4
  9
$SKETCHINC
 40
0.1
  9
$FILLETRAD
 40
0.0
  9
$AUNITS
 70
     0
  9
$AUPREC
 70
     0
  9
$MENU
  1
acad
  9
$ELEVATION
 40
0.0
  9
$PELEVATION
 40
0.0
  9
$THICKNESS
 40
0.0
  9
$LIMCHECK
 70
     0
  9
$BLIPMODE
 70
     0
  9
$CHAMFERA
 40
0.0
  9
$CHAMFERB
 40
0.0
  9
$SKPOLY
 70
     0
  9
$TDCREATE
 40
2454865.6603832059
  9
$TDUPDATE
 40
2454865.6607693061
  9
$TDINDWG
 40
0.0003978588
  9
$TDUSRTIMER
 40
0.0003975
  9
$USRTIMER
 70
     1
  9
$ANGBASE
 50
0.0
  9
$ANGDIR
 70
     0
  9
$PDMODE
 70
     3
  9
$PDSIZE
 40
-1.0
  9
$PLINEWID
 40
0.0
  9
$COORDS
 70
     2
  9
$SPLFRAME
 70
     0
  9
$SPLINETYPE
 70
     6
  9
$SPLINESEGS
 70
     8
  9
$ATTDIA
 70
     0
  9
$ATTREQ
 70
     1
  9
$HANDLING
 70
     1
  9
$HANDSEED
  5
4E7
  9
$SURFTAB1
 70
     6
  9
$SURFTAB2
 70
     6
  9
$SURFTYPE
 70
     6
  9
$SURFU
 70
     6
  9
$SURFV
 70
     6
  9
$UCSNAME
  2

  9
$UCSORG
 10
0.0
 20
0.0
 30
0.0
  9
$UCSXDIR
 10
1.0
 20
0.0
 30
0.0
  9
$UCSYDIR
 10
0.0
 20
1.0
 30
0.0
  9
$PUCSNAME
  2

  9
$PUCSORG
 10
0.0
 20
0.0
 30
0.0
  9
$PUCSXDIR
 10
1.0
 20
0.0
 30
0.0
  9
$PUCSYDIR
 10
0.0
 20
1.0
 30
0.0
  9
$USERI1
 70
     0
  9
$USERI2
 70
     0
  9
$USERI3
 70
     0
  9
$USERI4
 70
     0
  9
$USERI5
 70
     0
  9
$USERR1
 40
0.0
  9
$USERR2
 40
0.0
  9
$USERR3
 40
0.0
  9
$USERR4
 40
0.0
  9
$USERR5
 40
0.0
  9
$WORLDVIEW
 70
     1
  9
$SHADEDGE
 70
     3
  9
$SHADEDIF
 70
    70
  9
$TILEMODE
 70
     1
  9
$MAXACTVP
 70
    16
  9
$PLIMCHECK
 70
     0
  9
$PEXTMIN
 10
1.0000000000000000E+020
 20
1.0000000000000000E+020
 30
1.0000000000000000E+020
  9
$PEXTMAX
 10
-1.0000000000000000E+020
 20
-1.0000000000000000E+020
 30
-1.0000000000000000E+020
  9
$PLIMMIN
 10
0.0
 20
0.0
  9
$PLIMMAX
 10
12.0
 20
9.0
  9
$UNITMODE
 70
     0
  9
$VISRETAIN
 70
     0
  9
$PLINEGEN
 70
     1
  9
$PSLTSCALE
 70
     0
  0
ENDSEC
  0
SECTION
  2
TABLES
  0
TABLE
  2
VPORT
 70
     2
  0
VPORT
  2
*ACTIVE
 70
     0
 10
0.0
 20
0.0
 11
1.0
 21
1.0
 12
837.01498363489998
 22
-220.6115916684
 13
0.0
 23
0.0
 14
1.0
 24
1.0
 15
0.0
 25
0.0
 16
0.0
 26
0.0
 36
1.0
 17
0.0
 27
0.0
 37
0.0
 40
203.1518819502075
 41
1.6343490304709141
 42
50.0
 43
0.0
 44
0.0
 50
0.0
 51
0.0
 71
     0
 72
   100
 73
     1
 74
     1
 75
     0
 76
     0
 77
     0
 78
     0
  0
ENDTAB
  0
TABLE
  2
LTYPE
 70
    11
  0
LTYPE
  2
CONTINUOUS
 70
     0
  3
Solid line
 72
    65
 73
     0
 40
0.0
  0
LTYPE
  2
DOT
 70
     0
  3
. . . . . . . . 
 72
    65
 73
     2
 40
1.0
 49
0.0
 49
-1.0
  0
LTYPE
  2
DASHED
 70
     0
  3
___  ___  ___  ___  
 72
    65
 73
     2
 40
4.0
 49
3.0
 49
-1.0
  0
LTYPE
  2
HIDDEN
 70
     0
  3
__ __ __ __ 
 72
    65
 73
     2
 40
3.0
 49
2.0
 49
-1.0
  0
LTYPE
  2
STITCH
 70
     0
  3
_ _ _ _ 
 72
    65
 73
     2
 40
2.0
 49
1.0
 49
-1.0
  0
LTYPE
  2
CENTER
 70
     0
  3
______  __  ______  __  
 72
    65
 73
     4
 40
43.0
 49
40.0
 49
-1.0
 49
1.0
 49
-1.0
  0
LTYPE
  2
DASHDOT
 70
     0
  3
____ . ____ . 
 72
    65
 73
     4
 40
32.0
 49
30.0
 49
-1.0
 49
0.0
 49
-1.0
  0
LTYPE
  2
BORDER
 70
     0
  3
__ . __ . 
 72
    65
 73
     4
 40
22.0
 49
20.0
 49
-1.0
 49
0.0
 49
-1.0
  0
LTYPE
  2
CUTTING
 70
     0
  3
________   ___   ___   
 72
    65
 73
     6
 40
45.0
 49
40.0
 49
-1.0
 49
1.0
 49
-1.0
 49
1.0
 49
-1.0
  0
LTYPE
  2
PHANTOM
 70
     0
  3
______  __  __  
 72
    65
 73
     6
 40
35.0
 49
30.0
 49
-1.0
 49
1.0
 49
-1.0
 49
1.0
 49
-1.0
  0
LTYPE
  2
DIVIDE
 70
     0
  3
____ . . ____ . . 
 72
    65
 73
     6
 40
23.0
 49
20.0
 49
-1.0
 49
0.0
 49
-1.0
 49
0.0
 49
-1.0
  0
ENDTAB
  0
TABLE
  2
LAYER
 70
     4
  0
LAYER
  2
0
 70
     0
 62
     7
  6
CONTINUOUS
  0
LAYER
  2
ﾚｲﾔ_1
 70
     0
 62
     7
  6
CONTINUOUS
  0
LAYER
  2
寸法線
 70
     0
 62
     7
  6
CONTINUOUS
  0
LAYER
  2
図枠
 70
     0
 62
     7
  6
CONTINUOUS
  0
ENDTAB
  0
TABLE
  2
STYLE
 70
     1
  0
STYLE
  2
STANDARD
 70
     0
 40
0.0
 41
1.0
 50
0.0
 71
     0
 42
0.0
  3
txt
  4
extfont
  0
ENDTAB
  0
TABLE
  2
VIEW
 70
     0
  0
ENDTAB
  0
TABLE
  2
UCS
 70
     0
  0
ENDTAB
  0
TABLE
  2
APPID
 70
     2
  0
APPID
  2
ACAD
 70
     0
  0
APPID
  2
DCO15
 70
     0
  0
ENDTAB
  0
TABLE
  2
DIMSTYLE
 70
     3
  0
DIMSTYLE
  2
STANDARD
 70
     0
  3

  4

  5

  6

  7

 40
1.0
 41
0.18
 42
0.0625
 43
0.38
 44
0.18
 45
0.0
 46
0.0
 47
0.0
 48
0.0
140
0.18
141
0.09
142
0.0
143
25.399999999999999
144
1.0
145
0.0
146
1.0
147
0.09
 71
     0
 72
     0
 73
     1
 74
     1
 75
     0
 76
     0
 77
     0
 78
     0
170
     0
171
     2
172
     0
173
     0
174
     0
175
     0
176
     0
177
     0
178
     0
  0
DIMSTYLE
  2
VELDIM0
 70
     0
  3

  4

  5

  6

  7

 40
1.0
 41
3.0
 42
0.0625
 43
0.38
 44
0.5
 45
0.0
 46
3.0
 47
0.0
 48
0.0
140
2.9986110209999999
141
0.09
142
0.0
143
25.399999999999999
144
1.0
145
0.0
146
1.0
147
0.09
 71
     0
 72
     0
 73
     0
 74
     0
 75
     0
 76
     0
 77
     0
 78
     8
170
     0
171
     2
172
     0
173
     0
174
     0
175
     0
176
     0
177
     0
178
     0
  0
DIMSTYLE
  2
VELDIM1
 70
     0
  3

  4

  5

  6

  7

 40
1.0
 41
3.0
 42
0.0625
 43
0.38
 44
1.25
 45
0.0
 46
5.0
 47
0.0
 48
0.0
140
2.9986110209999999
141
0.09
142
0.0
143
25.399999999999999
144
1.0
145
0.0
146
1.0
147
0.09
 71
     0
 72
     0
 73
     0
 74
     0
 75
     0
 76
     0
 77
     0
 78
     8
170
     0
171
     2
172
     0
173
     0
174
     0
175
     0
176
     0
177
     0
178
     0
  0
ENDTAB
  0
ENDSEC
  0
SECTION
  2
BLOCKS
  0
BLOCK
  8
0
  2
$MODEL_SPACE
 70
     0
 10
0.0
 20
0.0
 30
0.0
  3
$MODEL_SPACE
  1

  0
ENDBLK
  5
E
  8
0
  0
BLOCK
 67
     1
  8
0
  2
$PAPER_SPACE
 70
     0
 10
0.0
 20
0.0
 30
0.0
  3
$PAPER_SPACE
  1

  0
ENDBLK
  5
10
 67
     1
  8
0
  0
BLOCK
  8
0
  2
*D0
 70
     1
 10
0.0
 20
0.0
 30
0.0
  3
*D0
  1

  0
TEXT
  5
42
  8
0
 62
     0
 10
943.00411022229991
 20
-208.28404860570001
 30
0.0
 40
2.9986110209999999
  1
1.7
 50
90.0
  0
LINE
  5
43
  8
0
 62
     0
 10
935.53327687299986
 20
-212.5262362981
 30
0.0
 11
945.03327687299998
 21
-212.5262362981
 31
0.0
  0
LINE
  5
44
  8
0
 62
     0
 10
935.53327687299986
 20
-210.82623629810001
 30
0.0
 11
945.03327687299998
 21
-210.82623629810001
 31
0.0
  0
LINE
  5
45
  8
0
 62
     0
 10
944.53327687299986
 20
-212.5262362981
 30
0.0
 11
944.53327687299986
 21
-201.22849326209999
 31
0.0
  0
LINE
  5
46
  8
0
 62
     0
 10
944.53327687299986
 20
-212.5262362981
 30
0.0
 11
944.53327687299986
 21
-210.0479374416
 31
0.0
  0
LINE
  5
47
  8
0
 62
     0
 10
944.53327687299986
 20
-210.82623629810001
 30
0.0
 11
944.53327687299986
 21
-201.22849326209999
 31
0.0
  0
LINE
  5
48
  8
0
 62
     0
 10
944.53327687299986
 20
-210.82623629810001
 30
0.0
 11
944.53327687299986
 21
-210.0479374416
 31
0.0
  0
LINE
  5
49
  8
0
 62
     0
 10
944.53327687299986
 20
-210.82623629810001
 30
0.0
 11
944.53327687299986
 21
-207.82623629810001
 31
0.0
  0
SOLID
  5
4A
  8
0
 62
     0
 10
944.53327687299986
 20
-210.82623629810001
 30
0.0
 11
943.78327687299998
 21
-207.82623629810001
 31
0.0
 12
945.28327687299986
 22
-207.82623629810001
 32
0.0
 13
944.53327687299986
 23
-208.57623629810001
 33
0.0
  0
LINE
  5
4B
  8
0
 62
     0
 10
944.53327687299986
 20
-212.5262362981
 30
0.0
 11
944.53327687299986
 21
-215.5262362981
 31
0.0
  0
SOLID
  5
4C
  8
0
 62
     0
 10
944.53327687299986
 20
-212.5262362981
 30
0.0
 11
945.28327687299986
 21
-215.5262362981
 31
0.0
 12
943.78327687299998
 22
-215.5262362981
 32
0.0
 13
944.53327687299986
 23
-214.7762362981
 33
0.0
  0
ENDBLK
  5
4D
  8
0
  0
BLOCK
  8
0
  2
*D1
 70
     1
 10
0.0
 20
0.0
 30
0.0
  3
*D1
  1

  0
TEXT
  5
52
  8
0
 62
     0
 10
950.4338854225
 20
-209.20401396989999
 30
0.0
 40
2.9986110209999999
  1
13.5
 50
90.0
  0
LINE
  5
53
  8
0
 62
     0
 10
935.53327687299986
 20
-212.5262362981
 30
0.0
 11
952.46305207329988
 21
-212.5262362981
 31
0.0
  0
LINE
  5
54
  8
0
 62
     0
 10
922.18327687300007
 20
-198.82623629810001
 30
0.0
 11
952.46305207329988
 21
-198.82623629810001
 31
0.0
  0
LINE
  5
55
  8
0
 62
     0
 10
951.96305207329999
 20
-212.5262362981
 30
0.0
 11
951.96305207329999
 21
-200.38456979040001
 31
0.0
  0
LINE
  5
56
  8
0
 62
     0
 10
951.96305207329999
 20
-212.5262362981
 30
0.0
 11
951.96305207329999
 21
-210.96790280580001
 31
0.0
  0
LINE
  5
57
  8
0
 62
     0
 10
951.96305207329999
 20
-198.82623629810001
 30
0.0
 11
951.96305207329999
 21
-200.38456979040001
 31
0.0
  0
LINE
  5
58
  8
0
 62
     0
 10
951.96305207329999
 20
-198.82623629810001
 30
0.0
 11
951.96305207329999
 21
-210.96790280580001
 31
0.0
  0
LINE
  5
59
  8
0
 62
     0
 10
951.96305207329999
 20
-198.82623629810001
 30
0.0
 11
951.96305207329999
 21
-195.82623629810001
 31
0.0
  0
SOLID
  5
5A
  8
0
 62
     0
 10
951.96305207329999
 20
-198.82623629810001
 30
0.0
 11
951.21305207329999
 21
-195.82623629810001
 31
0.0
 12
952.71305207329988
 22
-195.82623629810001
 32
0.0
 13
951.96305207329999
 23
-196.57623629810001
 33
0.0
  0
LINE
  5
5B
  8
0
 62
     0
 10
951.96305207329999
 20
-212.5262362981
 30
0.0
 11
951.96305207329999
 21
-215.5262362981
 31
0.0
  0
SOLID
  5
5C
  8
0
 62
     0
 10
951.96305207329999
 20
-212.5262362981
 30
0.0
 11
952.71305207329988
 21
-215.5262362981
 31
0.0
 12
951.21305207329999
 22
-215.5262362981
 32
0.0
 13
951.96305207329999
 23
-214.7762362981
 33
0.0
  0
ENDBLK
  5
5D
  8
0
  0
BLOCK
  8
0
  2
*D2
 70
     1
 10
0.0
 20
0.0
 30
0.0
  3
*D2
  1

  0
TEXT
  5
61
  8
0
 62
     0
 10
917.65549920119986
 20
-171.81333084459999
 30
0.0
 40
2.9986110209999999
  1
20.5
  0
LINE
  5
62
  8
0
 62
     0
 10
931.43327687299995
 20
-180.51813569430001
 30
0.0
 11
931.43327687299995
 21
-172.84249749540001
 31
0.0
  0
LINE
  5
63
  8
0
 62
     0
 10
910.93327687299995
 20
-180.51813569430001
 30
0.0
 11
910.93327687299995
 21
-172.84249749540001
 31
0.0
  0
LINE
  5
64
  8
0
 62
     0
 10
931.43327687299995
 20
-173.34249749540001
 30
0.0
 11
926.47494338080014
 21
-173.34249749540001
 31
0.0
  0
LINE
  5
65
  8
0
 62
     0
 10
931.43327687299995
 20
-173.34249749540001
 30
0.0
 11
915.89161036530004
 21
-173.34249749540001
 31
0.0
  0
LINE
  5
66
  8
0
 62
     0
 10
910.93327687299995
 20
-173.34249749540001
 30
0.0
 11
926.47494338080014
 21
-173.34249749540001
 31
0.0
  0
LINE
  5
67
  8
0
 62
     0
 10
910.93327687299995
 20
-173.34249749540001
 30
0.0
 11
915.89161036530004
 21
-173.34249749540001
 31
0.0
  0
LINE
  5
68
  8
0
 62
     0
 10
910.93327687299995
 20
-173.34249749540001
 30
0.0
 11
913.93327687299995
 21
-173.34249749540001
 31
0.0
  0
SOLID
  5
69
  8
0
 62
     0
 10
910.93327687299995
 20
-173.34249749540001
 30
0.0
 11
913.93327687299995
 21
-172.59249749540001
 31
0.0
 12
913.93327687299995
 22
-174.09249749540001
 32
0.0
 13
913.18327687300007
 23
-173.34249749540001
 33
0.0
  0
LINE
  5
6A
  8
0
 62
     0
 10
931.43327687299995
 20
-173.34249749540001
 30
0.0
 11
928.43327687300007
 21
-173.34249749540001
 31
0.0
  0
SOLID
  5
6B
  8
0
 62
     0
 10
931.43327687299995
 20
-173.34249749540001
 30
0.0
 11
928.43327687300007
 21
-174.09249749540001
 31
0.0
 12
928.43327687300007
 22
-172.59249749540001
 32
0.0
 13
929.18327687300007
 23
-173.34249749540001
 33
0.0
  0
ENDBLK
  5
6C
  8
0
  0
BLOCK
  8
0
  2
*D3
 70
     1
 10
0.0
 20
0.0
 30
0.0
  3
*D3
  1

  0
TEXT
  5
70
  8
0
 62
     0
 10
917.65549920119986
 20
-165.42929954889999
 30
0.0
 40
2.9986110209999999
  1
26.5
  0
LINE
  5
71
  8
0
 62
     0
 10
934.53327687299986
 20
-181.51813569430001
 30
0.0
 11
934.53327687299986
 21
-166.4584661996
 31
0.0
  0
LINE
  5
72
  8
0
 62
     0
 10
907.83327687300005
 20
-181.51813569430001
 30
0.0
 11
907.83327687300005
 21
-166.4584661996
 31
0.0
  0
LINE
  5
73
  8
0
 62
     0
 10
934.53327687299986
 20
-166.9584661996
 30
0.0
 11
926.47494338080014
 21
-166.9584661996
 31
0.0
  0
LINE
  5
74
  8
0
 62
     0
 10
934.53327687299986
 20
-166.9584661996
 30
0.0
 11
915.89161036530004
 21
-166.9584661996
 31
0.0
  0
LINE
  5
75
  8
0
 62
     0
 10
907.83327687300005
 20
-166.9584661996
 30
0.0
 11
926.47494338080014
 21
-166.9584661996
 31
0.0
  0
LINE
  5
76
  8
0
 62
     0
 10
907.83327687300005
 20
-166.9584661996
 30
0.0
 11
915.89161036530004
 21
-166.9584661996
 31
0.0
  0
LINE
  5
77
  8
0
 62
     0
 10
907.83327687300005
 20
-166.9584661996
 30
0.0
 11
910.83327687300005
 21
-166.9584661996
 31
0.0
  0
SOLID
  5
78
  8
0
 62
     0
 10
907.83327687300005
 20
-166.9584661996
 30
0.0
 11
910.83327687300005
 21
-166.2084661996
 31
0.0
 12
910.83327687300005
 22
-167.7084661996
 32
0.0
 13
910.08327687300005
 23
-166.9584661996
 33
0.0
  0
LINE
  5
79
  8
0
 62
     0
 10
934.53327687299986
 20
-166.9584661996
 30
0.0
 11
931.53327687299998
 21
-166.9584661996
 31
0.0
  0
SOLID
  5
7A
  8
0
 62
     0
 10
934.53327687299986
 20
-166.9584661996
 30
0.0
 11
931.53327687299998
 21
-167.7084661996
 31
0.0
 12
931.53327687299998
 22
-166.2084661996
 32
0.0
 13
932.28327687299998
 23
-166.9584661996
 33
0.0
  0
ENDBLK
  5
7B
  8
0
  0
BLOCK
  8
0
  2
*D4
 70
     1
 10
0.0
 20
0.0
 30
0.0
  3
*D4
  1

  0
TEXT
  5
7F
  8
0
 62
     0
 10
942.36613680699998
 20
-184.90008011219999
 30
0.0
 40
2.9986110209999999
  1
7
 50
90.0
  0
LINE
  5
80
  8
0
 62
     0
 10
933.53327687299986
 20
-187.51813569430001
 30
0.0
 11
944.39530345779986
 21
-187.51813569430001
 31
0.0
  0
LINE
  5
81
  8
0
 62
     0
 10
933.53327687299986
 20
-180.51813569430001
 30
0.0
 11
944.39530345779986
 21
-180.51813569430001
 31
0.0
  0
LINE
  5
82
  8
0
 62
     0
 10
943.89530345779997
 20
-187.51813569430001
 30
0.0
 11
943.89530345779997
 21
-181.37230244040001
 31
0.0
  0
LINE
  5
83
  8
0
 62
     0
 10
943.89530345779997
 20
-187.51813569430001
 30
0.0
 11
943.89530345779997
 21
-186.66396894810001
 31
0.0
  0
LINE
  5
84
  8
0
 62
     0
 10
943.89530345779997
 20
-180.51813569430001
 30
0.0
 11
943.89530345779997
 21
-181.37230244040001
 31
0.0
  0
LINE
  5
85
  8
0
 62
     0
 10
943.89530345779997
 20
-180.51813569430001
 30
0.0
 11
943.89530345779997
 21
-186.66396894810001
 31
0.0
  0
LINE
  5
86
  8
0
 62
     0
 10
943.89530345779997
 20
-180.51813569430001
 30
0.0
 11
943.89530345779997
 21
-177.51813569430001
 31
0.0
  0
SOLID
  5
87
  8
0
 62
     0
 10
943.89530345779997
 20
-180.51813569430001
 30
0.0
 11
943.14530345779997
 21
-177.51813569430001
 31
0.0
 12
944.64530345779986
 22
-177.51813569430001
 32
0.0
 13
943.89530345779997
 23
-178.26813569430001
 33
0.0
  0
LINE
  5
88
  8
0
 62
     0
 10
943.89530345779997
 20
-187.51813569430001
 30
0.0
 11
943.89530345779997
 21
-190.51813569430001
 31
0.0
  0
SOLID
  5
89
  8
0
 62
     0
 10
943.89530345779997
 20
-187.51813569430001
 30
0.0
 11
944.64530345779986
 21
-190.51813569430001
 31
0.0
 12
943.14530345779997
 22
-190.51813569430001
 32
0.0
 13
943.89530345779997
 23
-189.76813569430001
 33
0.0
  0
ENDBLK
  5
8A
  8
0
  0
BLOCK
  8
0
  2
*D5
 70
     1
 10
0.0
 20
0.0
 30
0.0
  3
*D5
  1

  0
TEXT
  5
10D
  8
0
 62
     0
 10
774.84322695149979
 20
-174.67735813409999
 30
0.0
 40
2.9986110209999999
  1
2.8
  0
LINE
  5
10E
  8
0
 62
     0
 10
785.31598022589992
 20
-186.3134801418
 30
0.0
 11
785.31598022589992
 21
-175.70652478490001
 31
0.0
  0
LINE
  5
10F
  8
0
 62
     0
 10
782.41598022589994
 20
-186.31348018739999
 30
0.0
 11
782.41598022589994
 21
-175.70652478490001
 31
0.0
  0
LINE
  5
110
  8
0
 62
     0
 10
785.31598022589992
 20
-176.20652478490001
 30
0.0
 11
781.89878229509986
 21
-176.20652478490001
 31
0.0
  0
LINE
  5
111
  8
0
 62
     0
 10
785.31598022589992
 20
-176.20652478490001
 30
0.0
 11
773.07933811559985
 21
-176.20652478490001
 31
0.0
  0
LINE
  5
112
  8
0
 62
     0
 10
782.41598022589994
 20
-176.20652478490001
 30
0.0
 11
781.89878229509986
 21
-176.20652478490001
 31
0.0
  0
LINE
  5
113
  8
0
 62
     0
 10
782.41598022589994
 20
-176.20652478490001
 30
0.0
 11
773.07933811559985
 21
-176.20652478490001
 31
0.0
  0
LINE
  5
114
  8
0
 62
     0
 10
782.41598022589994
 20
-176.20652478490001
 30
0.0
 11
779.41598022589994
 21
-176.20652478490001
 31
0.0
  0
SOLID
  5
115
  8
0
 62
     0
 10
782.41598022589994
 20
-176.20652478490001
 30
0.0
 11
779.41598022589994
 21
-176.95652478490001
 31
0.0
 12
779.41598022589994
 22
-175.45652478490001
 32
0.0
 13
780.16598022589994
 23
-176.20652478490001
 33
0.0
  0
LINE
  5
116
  8
0
 62
     0
 10
785.31598022589992
 20
-176.20652478490001
 30
0.0
 11
788.31598022589992
 21
-176.20652478490001
 31
0.0
  0
SOLID
  5
117
  8
0
 62
     0
 10
785.31598022589992
 20
-176.20652478490001
 30
0.0
 11
788.31598022589992
 21
-175.45652478490001
 31
0.0
 12
788.31598022589992
 22
-176.95652478490001
 32
0.0
 13
787.56598022589992
 23
-176.20652478490001
 33
0.0
  0
ENDBLK
  5
118
  8
0
  0
BLOCK
  8
0
  2
*D6
 70
     1
 10
0.0
 20
0.0
 30
0.0
  3
*D6
  1

  0
TEXT
  5
11C
  8
0
 62
     0
 10
771.05209138369992
 20
-162.35507547860001
 30
0.0
 40
2.9986110209999999
  1
28
  0
LINE
  5
11D
  8
0
 62
     0
 10
786.91598021970003
 20
-185.0134803773
 30
0.0
 11
786.91598021970003
 21
-163.38424212929999
 31
0.0
  0
LINE
  5
11E
  8
0
 62
     0
 10
758.71598021969999
 20
-185.0134803773
 30
0.0
 11
758.71598021969999
 21
-163.38424212929999
 31
0.0
  0
LINE
  5
11F
  8
0
 62
     0
 10
786.91598021970003
 20
-163.88424212929999
 30
0.0
 11
776.34375789149999
 21
-163.88424212929999
 31
0.0
  0
LINE
  5
120
  8
0
 62
     0
 10
786.91598021970003
 20
-163.88424212929999
 30
0.0
 11
769.28820254779998
 21
-163.88424212929999
 31
0.0
  0
LINE
  5
121
  8
0
 62
     0
 10
758.71598021969999
 20
-163.88424212929999
 30
0.0
 11
776.34375789149999
 21
-163.88424212929999
 31
0.0
  0
LINE
  5
122
  8
0
 62
     0
 10
758.71598021969999
 20
-163.88424212929999
 30
0.0
 11
769.28820254779998
 21
-163.88424212929999
 31
0.0
  0
LINE
  5
123
  8
0
 62
     0
 10
758.71598021969999
 20
-163.88424212929999
 30
0.0
 11
761.71598021969999
 21
-163.88424212929999
 31
0.0
  0
SOLID
  5
124
  8
0
 62
     0
 10
758.71598021969999
 20
-163.88424212929999
 30
0.0
 11
761.71598021969999
 21
-163.13424212929999
 31
0.0
 12
761.71598021969999
 22
-164.63424212929999
 32
0.0
 13
760.96598021969999
 23
-163.88424212929999
 33
0.0
  0
LINE
  5
125
  8
0
 62
     0
 10
786.91598021970003
 20
-163.88424212929999
 30
0.0
 11
783.91598021970003
 21
-163.88424212929999
 31
0.0
  0
SOLID
  5
126
  8
0
 62
     0
 10
786.91598021970003
 20
-163.88424212929999
 30
0.0
 11
783.91598021970003
 21
-164.63424212929999
 31
0.0
 12
783.91598021970003
 22
-163.13424212929999
 32
0.0
 13
784.66598021970003
 23
-163.88424212929999
 33
0.0
  0
ENDBLK
  5
127
  8
0
  0
BLOCK
  8
0
  2
*D7
 70
     1
 10
0.0
 20
0.0
 30
0.0
  3
*D7
  1

  0
TEXT
  5
12B
  8
0
 62
     0
 10
771.05209138369992
 20
-168.83817425269999
 30
0.0
 40
2.9986110209999999
  1
22
  0
LINE
  5
12C
  8
0
 62
     0
 10
783.86598022960015
 20
-182.86348037729999
 30
0.0
 11
783.86598022960015
 21
-169.86734090339999
 31
0.0
  0
LINE
  5
12D
  8
0
 62
     0
 10
761.76598020970005
 20
-182.86348037729999
 30
0.0
 11
761.76598020970005
 21
-169.86734090339999
 31
0.0
  0
LINE
  5
12E
  8
0
 62
     0
 10
783.86598022960015
 20
-170.36734090339999
 30
0.0
 11
776.34375789149999
 21
-170.36734090339999
 31
0.0
  0
LINE
  5
12F
  8
0
 62
     0
 10
783.86598022960015
 20
-170.36734090339999
 30
0.0
 11
769.28820254779998
 21
-170.36734090339999
 31
0.0
  0
LINE
  5
130
  8
0
 62
     0
 10
761.76598020970005
 20
-170.36734090339999
 30
0.0
 11
776.34375789149999
 21
-170.36734090339999
 31
0.0
  0
LINE
  5
131
  8
0
 62
     0
 10
761.76598020970005
 20
-170.36734090339999
 30
0.0
 11
769.28820254779998
 21
-170.36734090339999
 31
0.0
  0
LINE
  5
132
  8
0
 62
     0
 10
761.76598020970005
 20
-170.36734090339999
 30
0.0
 11
764.76598020970005
 21
-170.36734090339999
 31
0.0
  0
SOLID
  5
133
  8
0
 62
     0
 10
761.76598020970005
 20
-170.36734090339999
 30
0.0
 11
764.76598020970005
 21
-169.61734090339999
 31
0.0
 12
764.76598020970005
 22
-171.11734090339999
 32
0.0
 13
764.01598020970005
 23
-170.36734090339999
 33
0.0
  0
LINE
  5
134
  8
0
 62
     0
 10
783.86598022960015
 20
-170.36734090339999
 30
0.0
 11
780.86598022960004
 21
-170.36734090339999
 31
0.0
  0
SOLID
  5
135
  8
0
 62
     0
 10
783.86598022960015
 20
-170.36734090339999
 30
0.0
 11
780.86598022960004
 21
-171.11734090339999
 31
0.0
 12
780.86598022960004
 22
-169.61734090339999
 32
0.0
 13
781.61598022960004
 23
-170.36734090339999
 33
0.0
  0
ENDBLK
  5
136
  8
0
  0
BLOCK
  8
0
  2
*D8
 70
     1
 10
0.0
 20
0.0
 30
0.0
  3
*D8
  1

  0
TEXT
  5
13A
  8
0
 62
     0
 10
792.33681357520004
 20
-191.75931363110001
 30
0.0
 40
2.9986110209999999
  1
6.5
 50
90.0
  0
LINE
  5
13B
  8
0
 62
     0
 10
784.86598022589999
 20
-192.36348037729999
 30
0.0
 11
794.36598022589988
 21
-192.36348037729999
 31
0.0
  0
LINE
  5
13C
  8
0
 62
     0
 10
784.86598022589999
 20
-185.86348037729999
 30
0.0
 11
794.36598022589988
 21
-185.86348037729999
 31
0.0
  0
LINE
  5
13D
  8
0
 62
     0
 10
793.86598022589999
 20
-192.36348037729999
 30
0.0
 11
793.86598022589999
 21
-192.36348037729999
 31
0.0
  0
LINE
  5
13E
  8
0
 62
     0
 10
793.86598022589999
 20
-192.36348037729999
 30
0.0
 11
793.86598022589999
 21
-185.86348037729999
 31
0.0
  0
LINE
  5
13F
  8
0
 62
     0
 10
793.86598022589999
 20
-185.86348037729999
 30
0.0
 11
793.86598022589999
 21
-192.36348037729999
 31
0.0
  0
LINE
  5
140
  8
0
 62
     0
 10
793.86598022589999
 20
-185.86348037729999
 30
0.0
 11
793.86598022589999
 21
-185.86348037729999
 31
0.0
  0
LINE
  5
141
  8
0
 62
     0
 10
793.86598022589999
 20
-185.86348037729999
 30
0.0
 11
793.86598022589999
 21
-188.86348037729999
 31
0.0
  0
SOLID
  5
142
  8
0
 62
     0
 10
793.86598022589999
 20
-185.86348037729999
 30
0.0
 11
794.61598022589999
 21
-188.86348037729999
 31
0.0
 12
793.11598022589988
 22
-188.86348037729999
 32
0.0
 13
793.86598022589999
 23
-188.11348037729999
 33
0.0
  0
LINE
  5
143
  8
0
 62
     0
 10
793.86598022589999
 20
-192.36348037729999
 30
0.0
 11
793.86598022589999
 21
-189.36348037729999
 31
0.0
  0
SOLID
  5
144
  8
0
 62
     0
 10
793.86598022589999
 20
-192.36348037729999
 30
0.0
 11
793.11598022589988
 21
-189.36348037729999
 31
0.0
 12
794.61598022589999
 22
-189.36348037729999
 32
0.0
 13
793.86598022589999
 23
-190.11348037729999
 33
0.0
  0
ENDBLK
  5
145
  8
0
  0
BLOCK
  8
0
  2
*D9
 70
     1
 10
0.0
 20
0.0
 30
0.0
  3
*D9
  1

  0
TEXT
  5
19D
  8
0
 62
     0
 10
875.24244245009993
 20
-249.13233028659999
 30
0.0
 40
2.9986110209999999
  1
11
 50
90.0
  0
LINE
  5
19E
  8
0
 62
     0
 10
860.43093629309988
 20
-252.81844145069999
 30
0.0
 11
877.27160910090004
 21
-252.81844145069999
 31
0.0
  0
LINE
  5
19F
  8
0
 62
     0
 10
848.43093629309999
 20
-241.91844145069999
 30
0.0
 11
877.27160910090004
 21
-241.91844145069999
 31
0.0
  0
LINE
  5
1A0
  8
0
 62
     0
 10
876.77160910089992
 20
-252.81844145069999
 30
0.0
 11
876.77160910089992
 21
-243.84066377880001
 31
0.0
  0
LINE
  5
1A1
  8
0
 62
     0
 10
876.77160910089992
 20
-252.81844145069999
 30
0.0
 11
876.77160910089992
 21
-250.89621912250001
 31
0.0
  0
LINE
  5
1A2
  8
0
 62
     0
 10
876.77160910089992
 20
-241.91844145069999
 30
0.0
 11
876.77160910089992
 21
-243.84066377880001
 31
0.0
  0
LINE
  5
1A3
  8
0
 62
     0
 10
876.77160910089992
 20
-241.91844145069999
 30
0.0
 11
876.77160910089992
 21
-250.89621912250001
 31
0.0
  0
LINE
  5
1A4
  8
0
 62
     0
 10
876.77160910089992
 20
-241.91844145069999
 30
0.0
 11
876.77160910089992
 21
-238.91844145069999
 31
0.0
  0
SOLID
  5
1A5
  8
0
 62
     0
 10
876.77160910089992
 20
-241.91844145069999
 30
0.0
 11
876.02160910089992
 21
-238.91844145069999
 31
0.0
 12
877.52160910089992
 22
-238.91844145069999
 32
0.0
 13
876.77160910089992
 23
-239.66844145069999
 33
0.0
  0
LINE
  5
1A6
  8
0
 62
     0
 10
876.77160910089992
 20
-252.81844145069999
 30
0.0
 11
876.77160910089992
 21
-255.81844145069999
 31
0.0
  0
SOLID
  5
1A7
  8
0
 62
     0
 10
876.77160910089992
 20
-252.81844145069999
 30
0.0
 11
877.52160910089992
 21
-255.81844145069999
 31
0.0
 12
876.02160910089992
 22
-255.81844145069999
 32
0.0
 13
876.77160910089992
 23
-255.06844145069999
 33
0.0
  0
ENDBLK
  5
1A8
  8
0
  0
BLOCK
  8
0
  2
*D10
 70
     1
 10
0.0
 20
0.0
 30
0.0
  3
*D10
  1

  0
TEXT
  5
1AC
  8
0
 62
     0
 10
830.88838030539978
 20
-253.8531635404
 30
0.0
 40
2.9986110209999999
  1
(6.5)
 50
90.0
  0
LINE
  5
1AD
  8
0
 62
     0
 10
836.43093629309988
 20
-246.06844145069999
 30
0.0
 11
831.91754695619989
 21
-246.06844145069999
 31
0.0
  0
LINE
  5
1AE
  8
0
 62
     0
 10
846.43093629309999
 20
-252.81844145069999
 30
0.0
 11
831.91754695619989
 21
-252.81844145069999
 31
0.0
  0
LINE
  5
1AF
  8
0
 62
     0
 10
832.4175469562
 20
-246.06844145069999
 30
0.0
 11
832.4175469562
 21
-246.06844145069999
 31
0.0
  0
LINE
  5
1B0
  8
0
 62
     0
 10
832.4175469562
 20
-246.06844145069999
 30
0.0
 11
832.4175469562
 21
-252.81844145069999
 31
0.0
  0
LINE
  5
1B1
  8
0
 62
     0
 10
832.4175469562
 20
-252.81844145069999
 30
0.0
 11
832.4175469562
 21
-246.06844145069999
 31
0.0
  0
LINE
  5
1B2
  8
0
 62
     0
 10
832.4175469562
 20
-252.81844145069999
 30
0.0
 11
832.4175469562
 21
-252.81844145069999
 31
0.0
  0
LINE
  5
1B3
  8
0
 62
     0
 10
832.4175469562
 20
-252.81844145069999
 30
0.0
 11
832.4175469562
 21
-249.81844145069999
 31
0.0
  0
SOLID
  5
1B4
  8
0
 62
     0
 10
832.4175469562
 20
-252.81844145069999
 30
0.0
 11
831.66754695619989
 21
-249.81844145069999
 31
0.0
 12
833.1675469562
 22
-249.81844145069999
 32
0.0
 13
832.4175469562
 23
-250.56844145069999
 33
0.0
  0
LINE
  5
1B5
  8
0
 62
     0
 10
832.4175469562
 20
-246.06844145069999
 30
0.0
 11
832.4175469562
 21
-249.06844145069999
 31
0.0
  0
SOLID
  5
1B6
  8
0
 62
     0
 10
832.4175469562
 20
-246.06844145069999
 30
0.0
 11
833.1675469562
 21
-249.06844145069999
 31
0.0
 12
831.66754695619989
 22
-249.06844145069999
 32
0.0
 13
832.4175469562
 23
-248.31844145069999
 33
0.0
  0
ENDBLK
  5
1B7
  8
0
  0
BLOCK
  8
0
  2
*D11
 70
     1
 10
0.0
 20
0.0
 30
0.0
  3
*D11
  1

  0
TEXT
  5
1BB
  8
0
 62
     0
 10
867.90176964230011
 20
-252.70038586859999
 30
0.0
 40
2.9986110209999999
  1
2
 50
90.0
  0
LINE
  5
1BC
  8
0
 62
     0
 10
860.43093629309988
 20
-252.81844145069999
 30
0.0
 11
869.93093629309999
 21
-252.81844145069999
 31
0.0
  0
LINE
  5
1BD
  8
0
 62
     0
 10
860.43093629309988
 20
-250.81844145069999
 30
0.0
 11
869.93093629309999
 21
-250.81844145069999
 31
0.0
  0
LINE
  5
1BE
  8
0
 62
     0
 10
869.43093629309988
 20
-252.81844145069999
 30
0.0
 11
869.43093629309988
 21
-252.81844145069999
 31
0.0
  0
LINE
  5
1BF
  8
0
 62
     0
 10
869.43093629309988
 20
-252.81844145069999
 30
0.0
 11
869.43093629309988
 21
-250.81844145069999
 31
0.0
  0
LINE
  5
1C0
  8
0
 62
     0
 10
869.43093629309988
 20
-250.81844145069999
 30
0.0
 11
869.43093629309988
 21
-252.81844145069999
 31
0.0
  0
LINE
  5
1C1
  8
0
 62
     0
 10
869.43093629309988
 20
-250.81844145069999
 30
0.0
 11
869.43093629309988
 21
-250.81844145069999
 31
0.0
  0
LINE
  5
1C2
  8
0
 62
     0
 10
869.43093629309988
 20
-250.81844145069999
 30
0.0
 11
869.43093629309988
 21
-247.81844145069999
 31
0.0
  0
SOLID
  5
1C3
  8
0
 62
     0
 10
869.43093629309988
 20
-250.81844145069999
 30
0.0
 11
868.68093629309988
 21
-247.81844145069999
 31
0.0
 12
870.18093629309988
 22
-247.81844145069999
 32
0.0
 13
869.43093629309988
 23
-248.56844145069999
 33
0.0
  0
LINE
  5
1C4
  8
0
 62
     0
 10
869.43093629309988
 20
-252.81844145069999
 30
0.0
 11
869.43093629309988
 21
-255.81844145069999
 31
0.0
  0
SOLID
  5
1C5
  8
0
 62
     0
 10
869.43093629309988
 20
-252.81844145069999
 30
0.0
 11
870.18093629309988
 21
-255.81844145069999
 31
0.0
 12
868.68093629309988
 22
-255.81844145069999
 32
0.0
 13
869.43093629309988
 23
-255.06844145069999
 33
0.0
  0
ENDBLK
  5
1C6
  8
0
  0
BLOCK
  8
0
  2
*D12
 70
     1
 10
0.0
 20
0.0
 30
0.0
  3
*D12
  1

  0
TEXT
  5
1D2
  8
0
 62
     0
 10
799.4929278346001
 20
-190.8273692132
 30
0.0
 40
2.9986110209999999
  1
12
 50
90.0
  0
LINE
  5
1D3
  8
0
 62
     0
 10
784.91598021970003
 20
-195.11348037729999
 30
0.0
 11
801.52209448539998
 21
-195.11348037729999
 31
0.0
  0
LINE
  5
1D4
  8
0
 62
     0
 10
784.91598021970003
 20
-183.0134803773
 30
0.0
 11
801.52209448539998
 21
-183.0134803773
 31
0.0
  0
LINE
  5
1D5
  8
0
 62
     0
 10
801.02209448539986
 20
-195.11348037729999
 30
0.0
 11
801.02209448539986
 21
-185.53570270540001
 31
0.0
  0
LINE
  5
1D6
  8
0
 62
     0
 10
801.02209448539986
 20
-195.11348037729999
 30
0.0
 11
801.02209448539986
 21
-192.59125804909999
 31
0.0
  0
LINE
  5
1D7
  8
0
 62
     0
 10
801.02209448539986
 20
-183.0134803773
 30
0.0
 11
801.02209448539986
 21
-185.53570270540001
 31
0.0
  0
LINE
  5
1D8
  8
0
 62
     0
 10
801.02209448539986
 20
-183.0134803773
 30
0.0
 11
801.02209448539986
 21
-192.59125804909999
 31
0.0
  0
LINE
  5
1D9
  8
0
 62
     0
 10
801.02209448539986
 20
-183.0134803773
 30
0.0
 11
801.02209448539986
 21
-180.0134803773
 31
0.0
  0
SOLID
  5
1DA
  8
0
 62
     0
 10
801.02209448539986
 20
-183.0134803773
 30
0.0
 11
800.27209448539986
 21
-180.0134803773
 31
0.0
 12
801.77209448539998
 22
-180.0134803773
 32
0.0
 13
801.02209448539986
 23
-180.7634803773
 33
0.0
  0
LINE
  5
1DB
  8
0
 62
     0
 10
801.02209448539986
 20
-195.11348037729999
 30
0.0
 11
801.02209448539986
 21
-198.11348037729999
 31
0.0
  0
SOLID
  5
1DC
  8
0
 62
     0
 10
801.02209448539986
 20
-195.11348037729999
 30
0.0
 11
801.77209448539998
 21
-198.11348037729999
 31
0.0
 12
800.27209448539986
 22
-198.11348037729999
 32
0.0
 13
801.02209448539986
 23
-197.36348037729999
 33
0.0
  0
ENDBLK
  5
1DD
  8
0
  0
BLOCK
  8
0
  2
*D13
 70
     1
 10
0.0
 20
0.0
 30
0.0
  3
*D13
  1

  0
TEXT
  5
211
  8
0
 62
     0
 10
806.63317392070007
 20
-194.77736921319999
 30
0.0
 40
2.9986110209999999
  1
20
 50
90.0
  0
LINE
  5
212
  8
0
 62
     0
 10
778.06598021970001
 20
-203.0134803773
 30
0.0
 11
808.66234057140002
 21
-203.0134803773
 31
0.0
  0
LINE
  5
213
  8
0
 62
     0
 10
784.91598021970003
 20
-183.0134803773
 30
0.0
 11
808.66234057140002
 21
-183.0134803773
 31
0.0
  0
LINE
  5
214
  8
0
 62
     0
 10
808.16234057139991
 20
-203.0134803773
 30
0.0
 11
808.16234057139991
 21
-189.4857027054
 31
0.0
  0
LINE
  5
215
  8
0
 62
     0
 10
808.16234057139991
 20
-203.0134803773
 30
0.0
 11
808.16234057139991
 21
-196.54125804910001
 31
0.0
  0
LINE
  5
216
  8
0
 62
     0
 10
808.16234057139991
 20
-183.0134803773
 30
0.0
 11
808.16234057139991
 21
-189.4857027054
 31
0.0
  0
LINE
  5
217
  8
0
 62
     0
 10
808.16234057139991
 20
-183.0134803773
 30
0.0
 11
808.16234057139991
 21
-196.54125804910001
 31
0.0
  0
LINE
  5
218
  8
0
 62
     0
 10
808.16234057139991
 20
-183.0134803773
 30
0.0
 11
808.16234057139991
 21
-186.0134803773
 31
0.0
  0
SOLID
  5
219
  8
0
 62
     0
 10
808.16234057139991
 20
-183.0134803773
 30
0.0
 11
808.91234057140002
 21
-186.0134803773
 31
0.0
 12
807.41234057140014
 22
-186.0134803773
 32
0.0
 13
808.16234057139991
 23
-185.2634803773
 33
0.0
  0
LINE
  5
21A
  8
0
 62
     0
 10
808.16234057139991
 20
-203.0134803773
 30
0.0
 11
808.16234057139991
 21
-200.0134803773
 31
0.0
  0
SOLID
  5
21B
  8
0
 62
     0
 10
808.16234057139991
 20
-203.0134803773
 30
0.0
 11
807.41234057140014
 21
-200.0134803773
 31
0.0
 12
808.91234057140002
 22
-200.0134803773
 32
0.0
 13
808.16234057139991
 23
-200.7634803773
 33
0.0
  0
ENDBLK
  5
21C
  8
0
  0
BLOCK
  8
0
  2
*D14
 70
     1
 10
0.0
 20
0.0
 30
0.0
  3
*D14
  1

  0
TEXT
  5
221
  8
0
 62
     0
 10
887.29142468470013
 20
-196.0035781899
 30
0.0
 40
2.9986110209999999
  1
2-%%c3
  0
LINE
  5
222
  8
0
 62
     0
 10
898.41866772669994
 20
-196.53274484069999
 30
0.0
 11
883.76364701279999
 21
-196.53274484069999
 31
0.0
  0
LINE
  5
223
  8
0
 62
     0
 10
909.8726167013001
 20
-185.07879586599989
 30
0.0
 11
898.41866772669994
 21
-196.53274484069999
 31
0.0
  0
SOLID
  5
224
  8
0
 62
     0
 10
909.8726167013001
 20
-185.07879586599989
 30
0.0
 11
908.28162644359986
 21
-187.7304462955
 31
0.0
 12
907.22096627179997
 22
-186.66978612369999
 32
0.0
 13
908.28162644359986
 23
-186.66978612369999
 33
0.0
  0
ENDBLK
  5
225
  8
0
  0
BLOCK
  8
0
  2
*U15
 70
     1
 10
0.0
 20
0.0
 30
0.0
  3
*U15
  1

  0
TEXT
  5
258
  8
図枠
  6
CONTINUOUS
 10
942.75294767128639
 20
-304.14773374271419
 30
0.0
 40
2.9983111599000001
  1
小 承認図
  0
ENDBLK
  5
25A
  8
0
  0
BLOCK
  8
0
  2
*U16
 70
     1
 10
0.0
 20
0.0
 30
0.0
  3
*U16
  1

  0
TEXT
  5
25C
  8
図枠
  6
CONTINUOUS
 10
935.7822547208591
 20
-312.58600432830002
 30
0.0
 40
2.9983111599000001
  1
ＳＦＣ０００４７
  0
ENDBLK
  5
25E
  8
0
  0
BLOCK
  8
0
  2
*U17
 70
     1
 10
0.0
 20
0.0
 30
0.0
  3
*U17
  1

  0
TEXT
  5
260
  8
図枠
  6
CONTINUOUS
 10
918.79623997056001
 20
-301.53592228388231
 30
0.0
 40
2.337266249999999
  1
図面名
  0
ENDBLK
  5
262
  8
0
  0
BLOCK
  8
0
  2
*U18
 70
     1
 10
0.0
 20
0.0
 30
0.0
  3
*U18
  1

  0
TEXT
  5
264
  8
図枠
  6
CONTINUOUS
 10
918.78437567487458
 20
-310.01134369251167
 30
0.0
 40
2.337266249999999
  1
図　番
  0
ENDBLK
  5
266
  8
0
  0
BLOCK
  8
0
  2
*U19
 70
     1
 10
0.0
 20
0.0
 30
0.0
  3
*U19
  1

  0
TEXT
  5
268
  8
図枠
  6
CONTINUOUS
 10
918.73098634429095
 20
-293.06050087525279
 30
0.0
 40
2.337266249999999
  1
製品名
  0
ENDBLK
  5
26A
  8
0
  0
BLOCK
  8
0
  2
*U20
 70
     1
 10
0.0
 20
0.0
 30
0.0
  3
*U20
  1

  0
TEXT
  5
26C
  8
図枠
  6
CONTINUOUS
 10
863.58221877766664
 20
-293.19482795514108
 30
0.0
 40
2.337266249999999
  1
日 　付
  0
ENDBLK
  5
26E
  8
0
  0
BLOCK
  8
0
  2
*U21
 70
     1
 10
0.0
 20
0.0
 30
0.0
  3
*U21
  1

  0
TEXT
  5
270
  8
ﾚｲﾔ_1
  6
CONTINUOUS
 10
868.67281755369982
 20
-162.59898493375229
 30
0.0
 40
2.9986110209999999
  1
受板(ストライク)
  0
ENDBLK
  5
272
  8
0
  0
BLOCK
  8
0
  2
*U22
 70
     1
 10
0.0
 20
0.0
 30
0.0
  3
*U22
  1

  0
TEXT
  5
274
  8
図枠
  6
CONTINUOUS
 10
939.89922512062014
 20
-295.67902344992132
 30
0.0
 40
2.9983111599000001
  1
ＳＰキャッチ
  0
ENDBLK
  5
276
  8
0
  0
BLOCK
  8
0
  2
*U23
 70
     1
 10
0.0
 20
0.0
 30
0.0
  3
*U23
  1

  0
TEXT
  5
278
  8
図枠
  6
CONTINUOUS
 10
888.50983363490013
 20
-301.75329943356752
 30
0.0
 40
2.337266249999999
  1
 照査
  0
ENDBLK
  5
27A
  8
0
  0
BLOCK
  8
0
  2
*U24
 70
     1
 10
0.0
 20
0.0
 30
0.0
  3
*U24
  1

  0
TEXT
  5
27C
  8
図枠
  6
CONTINUOUS
 10
873.1923300054583
 20
-301.77702802493809
 30
0.0
 40
2.337266249999999
  1
白須賀
  0
ENDBLK
  5
27E
  8
0
  0
BLOCK
  8
0
  2
*U25
 70
     1
 10
0.0
 20
0.0
 30
0.0
  3
*U25
  1

  0
TEXT
  5
280
  8
図枠
  6
CONTINUOUS
 10
873.89232345088988
 20
-306.03846732062328
 30
0.0
 40
2.337266249999999
  1
岸 本
  0
ENDBLK
  5
282
  8
0
  0
BLOCK
  8
0
  2
*U26
 70
     1
 10
0.0
 20
0.0
 30
0.0
  3
*U26
  1

  0
TEXT
  5
284
  8
図枠
  6
CONTINUOUS
 10
885.62087763553461
 20
-297.39694577239999
 30
0.0
 40
2.337266249999999
  1
1：1
  0
ENDBLK
  5
286
  8
0
  0
BLOCK
  8
0
  2
*U27
 70
     1
 10
0.0
 20
0.0
 30
0.0
  3
*U27
  1

  0
TEXT
  5
288
  8
図枠
  6
CONTINUOUS
 10
864.69746257208283
 20
-297.39694577239999
 30
0.0
 40
2.337266249999999
  1
H16.4
  0
ENDBLK
  5
28A
  8
0
  0
BLOCK
  8
0
  2
*U28
 70
     1
 10
0.0
 20
0.0
 30
0.0
  3
*U28
  1

  0
TEXT
  5
28C
  8
図枠
  6
CONTINUOUS
 10
859.91415287982375
 20
-306.01473872925271
 30
0.0
 40
2.337266249999999
  1
製図
  0
ENDBLK
  5
28E
  8
0
  0
BLOCK
  8
0
  2
*U29
 70
     1
 10
0.0
 20
0.0
 30
0.0
  3
*U29
  1

  0
TEXT
  5
290
  8
ﾚｲﾔ_1
  6
CONTINUOUS
 10
858.66671741399978
 20
-288.14271996879438
 30
0.0
 40
3.5983331442000002
  1
材質：ジュラコン
  0
ENDBLK
  5
292
  8
0
  0
BLOCK
  8
0
  2
*U30
 70
     1
 10
0.0
 20
0.0
 30
0.0
  3
*U30
  1

  0
TEXT
  5
294
  8
図枠
  6
CONTINUOUS
 10
883.33106856827567
 20
-293.26601372925279
 30
0.0
 40
2.337266249999999
  1
尺 　度
  0
ENDBLK
  5
296
  8
0
  0
BLOCK
  8
0
  2
*U31
 70
     1
 10
0.0
 20
0.0
 30
0.0
  3
*U31
  1

  0
TEXT
  5
298
  8
図枠
  6
CONTINUOUS
 10
858.51283363490006
 20
-301.74143513788221
 30
0.0
 40
2.337266249999999
  1
 設計
  0
ENDBLK
  5
29A
  8
0
  0
BLOCK
  8
0
  2
*U32
 70
     1
 10
0.0
 20
0.0
 30
0.0
  3
*U32
  1

  0
TEXT
  5
29C
  8
図枠
  6
CONTINUOUS
 10
862.7329653042998
 20
-313.38808654260657
 30
0.0
 40
4.3175681352000002
  1
株式会社
  0
ENDBLK
  5
29E
  8
0
  0
BLOCK
  8
0
  2
*U33
 70
     1
 10
0.0
 20
0.0
 30
0.0
  3
*U33
  1

  0
TEXT
  5
2A0
  8
図枠
  6
CONTINUOUS
 10
888.50983363490013
 20
-306.02660302493808
 30
0.0
 40
2.337266249999999
  1
 検図
  0
ENDBLK
  5
2A2
  8
0
  0
BLOCK
  8
0
  2
*U34
 70
     1
 10
0.0
 20
0.0
 30
0.0
  3
*U34
  1

  0
TEXT
  5
2A4
  8
図枠
  6
CONTINUOUS
 10
891.36548403221093
 20
-129.34406320049391
 30
0.0
 40
2.698480084499999
  1
改訂日
  0
ENDBLK
  5
2A6
  8
0
  0
BLOCK
  8
0
  2
*U35
 70
     1
 10
0.0
 20
0.0
 30
0.0
  3
*U35
  1

  0
TEXT
  5
2A8
  8
図枠
  6
CONTINUOUS
 10
903.90118774657515
 20
-305.95541725082637
 30
0.0
 40
2.337266249999999
  1
園 原
  0
ENDBLK
  5
2AA
  8
0
  0
BLOCK
  8
0
  2
*U36
 70
     1
 10
0.0
 20
0.0
 30
0.0
  3
*U36
  1

  0
TEXT
  5
2AC
  8
図枠
  6
CONTINUOUS
 10
903.90118774657515
 20
-301.70584225082638
 30
0.0
 40
2.337266249999999
  1
園 原
  0
ENDBLK
  5
2AE
  8
0
  0
BLOCK
  8
0
  2
*U37
 70
     1
 10
0.0
 20
0.0
 30
0.0
  3
*U37
  1

  0
TEXT
  5
2B0
  8
図枠
  6
CONTINUOUS
 10
917.43791153112068
 20
-129.37145893739239
 30
0.0
 40
2.698480084499999
  1
改　訂　内　容
  0
ENDBLK
  5
2B2
  8
0
  0
BLOCK
  8
0
  2
*U38
 70
     1
 10
0.0
 20
0.0
 30
0.0
  3
*U38
  1

  0
TEXT
  5
2B4
  8
図枠
  6
CONTINUOUS
 10
964.46091804558023
 20
-129.3851568058416
 30
0.0
 40
2.698480084499999
  1
検認者
  0
ENDBLK
  5
2B6
  8
0
  0
BLOCK
  8
0
  2
*U39
 70
     1
 10
0.0
 20
0.0
 30
0.0
  3
*U39
  1

  0
TEXT
  5
2B8
  8
図枠
  6
CONTINUOUS
 10
954.50301165092787
 20
-129.37145893739239
 30
0.0
 40
2.698480084499999
  1
改訂者
  0
ENDBLK
  5
2BA
  8
0
  0
BLOCK
  8
0
  2
*U40
 70
     1
 10
0.0
 20
0.0
 30
0.0
  3
*U40
  1

  0
TEXT
  5
2BC
  8
図枠
  6
CONTINUOUS
 10
881.13370906216267
 20
-129.31666746359539
 30
0.0
 40
2.698480084499999
  1
副番
  0
ENDBLK
  5
2BE
  8
0
  0
ENDSEC
  0
SECTION
  2
ENTITIES
  0
LINE
  5
2F
  8
ﾚｲﾔ_1
  6
BORDER
 62
     3
 10
910.93327687299995
 20
-181.51813569430001
 30
0.0
 11
910.93327687299995
 21
-186.51813569430001
 31
0.0
  0
LINE
  5
30
  8
ﾚｲﾔ_1
 62
     5
 10
909.83327687300005
 20
-180.51813569430001
 30
0.0
 11
932.53327687299998
 21
-180.51813569430001
 31
0.0
  0
CIRCLE
  5
31
  8
ﾚｲﾔ_1
 62
     5
 10
931.43327687299995
 20
-184.01813569430001
 30
0.0
 40
1.5
  0
CIRCLE
  5
32
  8
ﾚｲﾔ_1
 62
     5
 10
910.93327687299995
 20
-184.01813569430001
 30
0.0
 40
1.5
  0
LINE
  5
33
  8
ﾚｲﾔ_1
 62
     5
 10
924.03327687299986
 20
-187.51813569430001
 30
0.0
 11
924.03327687299986
 21
-180.51813569430001
 31
0.0
  0
LINE
  5
34
  8
ﾚｲﾔ_1
 62
     5
 10
918.33327687300005
 20
-187.51813569430001
 30
0.0
 11
918.33327687300005
 21
-180.51813569430001
 31
0.0
  0
ARC
  5
35
  8
ﾚｲﾔ_1
 62
     5
 10
909.83327687300005
 20
-185.51813569430001
 30
0.0
 40
2.0
 50
180.0
 51
270.0
  0
ARC
  5
36
  8
ﾚｲﾔ_1
 62
     5
 10
932.53327687299998
 20
-185.51813569430001
 30
0.0
 40
2.0
 50
270.0
 51
0.0
  0
LINE
  5
37
  8
ﾚｲﾔ_1
 62
     5
 10
932.53327687299998
 20
-187.51813569430001
 30
0.0
 11
909.83327687300005
 21
-187.51813569430001
 31
0.0
  0
LINE
  5
38
  8
ﾚｲﾔ_1
 62
     5
 10
934.53327687299986
 20
-182.51813569430001
 30
0.0
 11
934.53327687299986
 21
-185.51813569430001
 31
0.0
  0
LINE
  5
39
  8
ﾚｲﾔ_1
 62
     5
 10
907.83327687300005
 20
-185.51813569430001
 30
0.0
 11
907.83327687300005
 21
-182.51813569430001
 31
0.0
  0
LINE
  5
3A
  8
ﾚｲﾔ_1
 62
     5
 10
918.43327687299995
 20
-210.82623629810001
 30
0.0
 11
907.83327687300005
 21
-210.82623629810001
 31
0.0
  0
ARC
  5
3B
  8
ﾚｲﾔ_1
 62
     5
 10
918.43327687299995
 20
-209.32623629810001
 30
0.0
 40
1.5
 50
270.0
 51
0.0
  0
LINE
  5
3C
  8
ﾚｲﾔ_1
 62
     5
 10
922.43327687299995
 20
-204.82623629810001
 30
0.0
 11
922.43327687299995
 21
-209.32623629810001
 31
0.0
  0
LINE
  5
3D
  8
ﾚｲﾔ_1
 62
     5
 10
919.93327687299995
 20
-204.82623629810001
 30
0.0
 11
919.93327687299995
 21
-209.32623629810001
 31
0.0
  0
LINE
  5
3E
  8
ﾚｲﾔ_1
 62
     5
 10
919.93327687299995
 20
-204.82623629810001
 30
0.0
 11
918.62617009190012
 21
-203.755826558
 31
0.0
  0
DIMENSION
  5
4F
  8
寸法線
  2
*D0
 10
944.53327687299986
 20
-212.5262362981
 30
0.0
 11
944.53327687299986
 21
-205.63821535189999
 31
0.0
 70
   128
  1
<>
 13
934.53327687299986
 23
-212.5262362981
 33
0.0
 14
934.53327687299986
 24
-210.82623629810001
 34
0.0
 50
90.0
  0
DIMENSION
  5
5E
  8
寸法線
  2
*D1
 10
951.96305207329999
 20
-212.5262362981
 30
0.0
 11
951.96305207329999
 21
-205.67623629810001
 31
0.0
 70
   128
  1
13.5
 13
934.53327687299986
 23
-212.5262362981
 33
0.0
 14
921.18327687300007
 24
-198.82623629810001
 34
0.0
 50
90.0
  0
DIMENSION
  5
6D
  8
寸法線
  2
*D2
 10
931.43327687299995
 20
-173.34249749540001
 30
0.0
 11
921.18327687300007
 21
-173.34249749540001
 31
0.0
 70
   128
  1
<>
 13
931.43327687299995
 23
-181.51813569430001
 33
0.0
 14
910.93327687299995
 24
-181.51813569430001
 34
0.0
  0
DIMENSION
  5
7C
  8
寸法線
  2
*D3
 10
934.53327687299986
 20
-166.9584661996
 30
0.0
 11
921.18327687300007
 21
-166.9584661996
 31
0.0
 70
   128
  1
26.5
 13
934.53327687299986
 23
-182.51813569430001
 33
0.0
 14
907.83327687300005
 24
-182.51813569430001
 34
0.0
  0
DIMENSION
  5
8B
  8
寸法線
  2
*D4
 10
943.89530345779997
 20
-187.51813569430001
 30
0.0
 11
943.89530345779997
 21
-184.01813569430001
 31
0.0
 70
   128
  1
<>
 13
932.53327687299998
 23
-187.51813569430001
 33
0.0
 14
932.53327687299998
 24
-180.51813569430001
 34
0.0
 50
90.0
  0
LINE
  5
8D
  8
図枠
 10
914.44572059810002
 20
-292.05044706839999
 30
0.0
 11
914.44572059810002
 21
-296.65798626840001
 31
0.0
  0
LINE
  5
8E
  8
図枠
 10
907.60759600080007
 20
-311.91432210869999
 30
0.0
 11
910.21640176079995
 21
-311.91432210869999
 31
0.0
  0
INSERT
  5
8F
  8
0
  6
CONTINUOUS
  2
*U15
 10
0.0
 20
0.0
 30
0.0
  0
INSERT
  5
90
  8
0
  6
CONTINUOUS
  2
*U16
 10
0.0
 20
0.0
 30
0.0
  0
LINE
  5
91
  8
図枠
 10
909.83818139809989
 20
-295.5061014684
 30
0.0
 11
914.44572059810002
 21
-296.65798626840001
 31
0.0
  0
LINE
  5
92
  8
図枠
 10
907.60759600080007
 20
-309.83453010869999
 30
0.0
 11
907.60759600080007
 21
-311.27438610870001
 31
0.0
  0
LINE
  5
93
  8
図枠
 10
918.50683363490009
 20
-290.10464166840001
 30
0.0
 11
918.50683363490009
 21
-315.60209166840002
 31
0.0
  0
ARC
  5
94
  8
ﾚｲﾔ_1
 62
     5
 10
919.33327687300005
 20
-203.0487197768
 30
0.0
 40
1.0
 50
151.33697536860001
 51
225.0
  0
LINE
  5
95
  8
ﾚｲﾔ_1
 62
     5
 10
934.53327687299986
 20
-212.5262362981
 30
0.0
 11
934.53327687299986
 21
-210.82623629810001
 31
0.0
  0
LINE
  5
96
  8
ﾚｲﾔ_1
 62
     5
 10
907.83327687300005
 20
-212.5262362981
 30
0.0
 11
907.83327687300005
 21
-210.82623629810001
 31
0.0
  0
LINE
  5
97
  8
ﾚｲﾔ_1
 62
     5
 10
934.53327687299986
 20
-212.5262362981
 30
0.0
 11
907.83327687300005
 21
-212.5262362981
 31
0.0
  0
LINE
  5
98
  8
ﾚｲﾔ_1
 62
     5
 10
934.53327687299986
 20
-210.82623629810001
 30
0.0
 11
923.93327687300007
 21
-210.82623629810001
 31
0.0
  0
ARC
  5
99
  8
ﾚｲﾔ_1
 62
     5
 10
923.03327687299986
 20
-203.0487197768
 30
0.0
 40
1.0
 50
315.0
 51
28.663024631399999
  0
LINE
  5
9A
  8
ﾚｲﾔ_1
 62
     5
 10
922.43327687299995
 20
-204.82623629810001
 30
0.0
 11
923.74038365419983
 21
-203.755826558
 31
0.0
  0
ARC
  5
9B
  8
ﾚｲﾔ_1
 62
     5
 10
923.93327687300007
 20
-209.32623629810001
 30
0.0
 40
1.5
 50
180.0
 51
270.0
  0
ARC
  5
9C
  8
ﾚｲﾔ_1
 62
     5
 10
909.83327687300005
 20
-182.51813569430001
 30
0.0
 40
2.0
 50
90.0
 51
180.0
  0
ARC
  5
9D
  8
ﾚｲﾔ_1
 62
     5
 10
932.53327687299998
 20
-182.51813569430001
 30
0.0
 40
2.0
 50
0.0
 51
90.0
  0
LINE
  5
9E
  8
ﾚｲﾔ_1
  6
BORDER
 62
     3
 10
921.18327687300007
 20
-196.82623629810001
 30
0.0
 11
921.18327687300007
 21
-214.5262362981
 31
0.0
  0
LINE
  5
9F
  8
ﾚｲﾔ_1
 62
     5
 10
918.45582098370005
 20
-202.56906243860001
 30
0.0
 11
920.52518495600009
 21
-199.21649329440001
 31
0.0
  0
ARC
  5
A0
  8
ﾚｲﾔ_1
 62
     5
 10
921.18327687300007
 20
-199.57623629810001
 30
0.0
 40
0.75
 50
90.0
 51
151.33697536860001
  0
LINE
  5
A1
  8
ﾚｲﾔ_1
 62
     5
 10
923.9107327623999
 20
-202.56906243860001
 30
0.0
 11
921.84136879009998
 21
-199.21649329440001
 31
0.0
  0
ARC
  5
A2
  8
ﾚｲﾔ_1
 62
     5
 10
921.18327687300007
 20
-199.57623629810001
 30
0.0
 40
0.75
 50
28.663024631399999
 51
90.0
  0
LINE
  5
A3
  8
ﾚｲﾔ_1
  6
BORDER
 62
     3
 10
921.18327687300007
 20
-189.51813569430001
 30
0.0
 11
921.18327687300007
 21
-178.51813569430001
 31
0.0
  0
LINE
  5
A4
  8
ﾚｲﾔ_1
  6
BORDER
 62
     3
 10
905.83327687300005
 20
-184.01813569430001
 30
0.0
 11
936.53327687299986
 21
-184.01813569430001
 31
0.0
  0
LINE
  5
A5
  8
ﾚｲﾔ_1
  6
BORDER
 62
     3
 10
931.43327687299995
 20
-181.51813569430001
 30
0.0
 11
931.43327687299995
 21
-186.51813569430001
 31
0.0
  0
LINE
  5
A6
  8
図枠
 10
907.60759600080007
 20
-313.35417810870001
 30
0.0
 11
910.63875952080002
 21
-313.35417810870001
 31
0.0
  0
LINE
  5
A7
  8
図枠
 10
912.28628083369995
 20
-311.27438610870001
 30
0.0
 11
914.80687600079989
 21
-311.27438610870001
 31
0.0
  0
LINE
  5
A8
  8
図枠
 10
909.83818139809989
 20
-293.20233186839999
 30
0.0
 11
909.83818139809989
 21
-295.5061014684
 31
0.0
  0
LINE
  5
A9
  8
図枠
 10
907.60759600080007
 20
-311.91432210869999
 30
0.0
 11
907.60759600080007
 21
-313.35417810870001
 31
0.0
  0
LINE
  5
AA
  8
図枠
 10
909.83818139809989
 20
-293.20233186839999
 30
0.0
 11
909.83818139809989
 21
-295.5061014684
 31
0.0
  0
LINE
  5
AB
  8
図枠
 10
909.83818139809989
 20
-293.20233186839999
 30
0.0
 11
914.44572059810002
 21
-292.05044706839999
 31
0.0
  0
LINE
  5
AC
  8
図枠
 10
911.87194100850013
 20
-309.83453010869999
 30
0.0
 11
914.80687600079989
 21
-309.83453010869999
 31
0.0
  0
LINE
  5
AD
  8
図枠
 10
905.03386728079988
 20
-309.67454610869999
 30
0.0
 11
905.83378728079992
 21
-308.47466610869998
 31
0.0
  0
LINE
  5
AE
  8
図枠
 10
910.96726000080002
 20
-314.47406610870001
 30
0.0
 11
913.20703600080003
 21
-314.47406610870001
 31
0.0
  0
CIRCLE
  5
AF
  8
図枠
 10
904.57222723490008
 20
-294.3542166684
 30
0.0
 40
1.151884799999999
  0
ARC
  5
B0
  8
図枠
 10
900.63430728080004
 20
-309.67454610869999
 30
0.0
 40
4.3995600000000001
 50
322.48761197969998
 51
0.0
  0
LINE
  5
B1
  8
図枠
  6
BORDER
 10
904.57222723490008
 20
-290.89856226839998
 30
0.0
 11
904.57222723490008
 21
-297.80987106840001
 31
0.0
  0
POLYLINE
  8
図枠
  5
2BF
  66
     1
 10
0.000000
 20
0.000000
 30
0.000000
  70
     8
  0
VERTEX
  8
図枠
  5
2C0
 10
903.982
 20
-312.493
 30
0.000000
  70
    32
  0
VERTEX
  8
図枠
  5
2C1
 10
903.996
 20
-312.497
 30
0.000000
  70
    32
  0
VERTEX
  8
図枠
  5
2C2
 10
904.010
 20
-312.501
 30
0.000000
  70
    32
  0
VERTEX
  8
図枠
  5
2C3
 10
904.024
 20
-312.505
 30
0.000000
  70
    32
  0
VERTEX
  8
図枠
  5
2C4
 10
904.038
 20
-312.509
 30
0.000000
  70
    32
  0
VERTEX
  8
図枠
  5
2C5
 10
904.052
 20
-312.513
 30
0.000000
  70
    32
  0
VERTEX
  8
図枠
  5
2C6
 10
904.066
 20
-312.517
 30
0.000000
  70
    32
  0
VERTEX
  8
図枠
  5
2C7
 10
904.080
 20
-312.520
 30
0.000000
  70
    32
  0
VERTEX
  8
図枠
  5
2C8
 10
904.094
 20
-312.524
 30
0.000000
  70
    32
  0
VERTEX
  8
図枠
  5
2C9
 10
904.108
 20
-312.528
 30
0.000000
  70
    32
  0
VERTEX
  8
図枠
  5
2CA
 10
904.122
 20
-312.532
 30
0.000000
  70
    32
  0
VERTEX
  8
図枠
  5
2CB
 10
904.136
 20
-312.535
 30
0.000000
  70
    32
  0
VERTEX
  8
図枠
  5
2CC
 10
904.150
 20
-312.539
 30
0.000000
  70
    32
  0
VERTEX
  8
図枠
  5
2CD
 10
904.165
 20
-312.543
 30
0.000000
  70
    32
  0
VERTEX
  8
図枠
  5
2CE
 10
904.179
 20
-312.547
 30
0.000000
  70
    32
  0
VERTEX
  8
図枠
  5
2CF
 10
904.193
 20
-312.550
 30
0.000000
  70
    32
  0
VERTEX
  8
図枠
  5
2D0
 10
904.207
 20
-312.554
 30
0.000000
  70
    32
  0
VERTEX
  8
図枠
  5
2D1
 10
904.221
 20
-312.557
 30
0.000000
  70
    32
  0
VERTEX
  8
図枠
  5
2D2
 10
904.235
 20
-312.561
 30
0.000000
  70
    32
  0
VERTEX
  8
図枠
  5
2D3
 10
904.250
 20
-312.565
 30
0.000000
  70
    32
  0
VERTEX
  8
図枠
  5
2D4
 10
904.264
 20
-312.568
 30
0.000000
  70
    32
  0
VERTEX
  8
図枠
  5
2D5
 10
904.278
 20
-312.572
 30
0.000000
  70
    32
  0
VERTEX
  8
図枠
  5
2D6
 10
904.292
 20
-312.575
 30
0.000000
  70
    32
  0
VERTEX
  8
図枠
  5
2D7
 10
904.307
 20
-312.579
 30
0.000000
  70
    32
  0
VERTEX
  8
図枠
  5
2D8
 10
904.321
 20
-312.582
 30
0.000000
  70
    32
  0
VERTEX
  8
図枠
  5
2D9
 10
904.335
 20
-312.586
 30
0.000000
  70
    32
  0
VERTEX
  8
図枠
  5
2DA
 10
904.350
 20
-312.589
 30
0.000000
  70
    32
  0
VERTEX
  8
図枠
  5
2DB
 10
904.364
 20
-312.593
 30
0.000000
  70
    32
  0
VERTEX
  8
図枠
  5
2DC
 10
904.378
 20
-312.596
 30
0.000000
  70
    32
  0
VERTEX
  8
図枠
  5
2DD
 10
904.393
 20
-312.599
 30
0.000000
  70
    32
  0
VERTEX
  8
図枠
  5
2DE
 10
904.407
 20
-312.603
 30
0.000000
  70
    32
  0
VERTEX
  8
図枠
  5
2DF
 10
904.421
 20
-312.606
 30
0.000000
  70
    32
  0
VERTEX
  8
図枠
  5
2E0
 10
904.436
 20
-312.609
 30
0.000000
  70
    32
  0
VERTEX
  8
図枠
  5
2E1
 10
904.450
 20
-312.613
 30
0.000000
  70
    32
  0
VERTEX
  8
図枠
  5
2E2
 10
904.464
 20
-312.616
 30
0.000000
  70
    32
  0
VERTEX
  8
図枠
  5
2E3
 10
904.479
 20
-312.619
 30
0.000000
  70
    32
  0
VERTEX
  8
図枠
  5
2E4
 10
904.493
 20
-312.623
 30
0.000000
  70
    32
  0
VERTEX
  8
図枠
  5
2E5
 10
904.508
 20
-312.626
 30
0.000000
  70
    32
  0
VERTEX
  8
図枠
  5
2E6
 10
904.522
 20
-312.629
 30
0.000000
  70
    32
  0
VERTEX
  8
図枠
  5
2E7
 10
904.537
 20
-312.632
 30
0.000000
  70
    32
  0
VERTEX
  8
図枠
  5
2E8
 10
904.551
 20
-312.636
 30
0.000000
  70
    32
  0
VERTEX
  8
図枠
  5
2E9
 10
904.566
 20
-312.639
 30
0.000000
  70
    32
  0
VERTEX
  8
図枠
  5
2EA
 10
904.580
 20
-312.642
 30
0.000000
  70
    32
  0
VERTEX
  8
図枠
  5
2EB
 10
904.594
 20
-312.645
 30
0.000000
  70
    32
  0
VERTEX
  8
図枠
  5
2EC
 10
904.609
 20
-312.648
 30
0.000000
  70
    32
  0
VERTEX
  8
図枠
  5
2ED
 10
904.623
 20
-312.651
 30
0.000000
  70
    32
  0
VERTEX
  8
図枠
  5
2EE
 10
904.638
 20
-312.655
 30
0.000000
  70
    32
  0
VERTEX
  8
図枠
  5
2EF
 10
904.652
 20
-312.658
 30
0.000000
  70
    32
  0
VERTEX
  8
図枠
  5
2F0
 10
904.667
 20
-312.661
 30
0.000000
  70
    32
  0
VERTEX
  8
図枠
  5
2F1
 10
904.682
 20
-312.664
 30
0.000000
  70
    32
  0
VERTEX
  8
図枠
  5
2F2
 10
904.696
 20
-312.667
 30
0.000000
  70
    32
  0
VERTEX
  8
図枠
  5
2F3
 10
904.711
 20
-312.670
 30
0.000000
  70
    32
  0
VERTEX
  8
図枠
  5
2F4
 10
904.725
 20
-312.673
 30
0.000000
  70
    32
  0
VERTEX
  8
図枠
  5
2F5
 10
904.740
 20
-312.676
 30
0.000000
  70
    32
  0
VERTEX
  8
図枠
  5
2F6
 10
904.754
 20
-312.679
 30
0.000000
  70
    32
  0
VERTEX
  8
図枠
  5
2F7
 10
904.769
 20
-312.682
 30
0.000000
  70
    32
  0
VERTEX
  8
図枠
  5
2F8
 10
904.784
 20
-312.685
 30
0.000000
  70
    32
  0
VERTEX
  8
図枠
  5
2F9
 10
904.798
 20
-312.688
 30
0.000000
  70
    32
  0
VERTEX
  8
図枠
  5
2FA
 10
904.813
 20
-312.691
 30
0.000000
  70
    32
  0
VERTEX
  8
図枠
  5
2FB
 10
904.827
 20
-312.694
 30
0.000000
  70
    32
  0
VERTEX
  8
図枠
  5
2FC
 10
904.842
 20
-312.697
 30
0.000000
  70
    32
  0
VERTEX
  8
図枠
  5
2FD
 10
904.857
 20
-312.700
 30
0.000000
  70
    32
  0
VERTEX
  8
図枠
  5
2FE
 10
904.871
 20
-312.703
 30
0.000000
  70
    32
  0
VERTEX
  8
図枠
  5
2FF
 10
904.886
 20
-312.705
 30
0.000000
  70
    32
  0
VERTEX
  8
図枠
  5
300
 10
904.901
 20
-312.708
 30
0.000000
  70
    32
  0
VERTEX
  8
図枠
  5
301
 10
904.915
 20
-312.711
 30
0.000000
  70
    32
  0
VERTEX
  8
図枠
  5
302
 10
904.930
 20
-312.714
 30
0.000000
  70
    32
  0
VERTEX
  8
図枠
  5
303
 10
904.945
 20
-312.717
 30
0.000000
  70
    32
  0
VERTEX
  8
図枠
  5
304
 10
904.959
 20
-312.720
 30
0.000000
  70
    32
  0
VERTEX
  8
図枠
  5
305
 10
904.974
 20
-312.723
 30
0.000000
  70
    32
  0
VERTEX
  8
図枠
  5
306
 10
904.989
 20
-312.725
 30
0.000000
  70
    32
  0
VERTEX
  8
図枠
  5
307
 10
905.003
 20
-312.728
 30
0.000000
  70
    32
  0
VERTEX
  8
図枠
  5
308
 10
905.018
 20
-312.731
 30
0.000000
  70
    32
  0
VERTEX
  8
図枠
  5
309
 10
905.033
 20
-312.734
 30
0.000000
  70
    32
  0
VERTEX
  8
図枠
  5
30A
 10
905.048
 20
-312.736
 30
0.000000
  70
    32
  0
VERTEX
  8
図枠
  5
30B
 10
905.062
 20
-312.739
 30
0.000000
  70
    32
  0
VERTEX
  8
図枠
  5
30C
 10
905.077
 20
-312.742
 30
0.000000
  70
    32
  0
VERTEX
  8
図枠
  5
30D
 10
905.092
 20
-312.745
 30
0.000000
  70
    32
  0
VERTEX
  8
図枠
  5
30E
 10
905.107
 20
-312.747
 30
0.000000
  70
    32
  0
VERTEX
  8
図枠
  5
30F
 10
905.121
 20
-312.750
 30
0.000000
  70
    32
  0
VERTEX
  8
図枠
  5
310
 10
905.136
 20
-312.753
 30
0.000000
  70
    32
  0
VERTEX
  8
図枠
  5
311
 10
905.151
 20
-312.756
 30
0.000000
  70
    32
  0
VERTEX
  8
図枠
  5
312
 10
905.166
 20
-312.758
 30
0.000000
  70
    32
  0
VERTEX
  8
図枠
  5
313
 10
905.180
 20
-312.761
 30
0.000000
  70
    32
  0
VERTEX
  8
図枠
  5
314
 10
905.195
 20
-312.764
 30
0.000000
  70
    32
  0
VERTEX
  8
図枠
  5
315
 10
905.210
 20
-312.766
 30
0.000000
  70
    32
  0
VERTEX
  8
図枠
  5
316
 10
905.225
 20
-312.769
 30
0.000000
  70
    32
  0
VERTEX
  8
図枠
  5
317
 10
905.240
 20
-312.772
 30
0.000000
  70
    32
  0
VERTEX
  8
図枠
  5
318
 10
905.254
 20
-312.774
 30
0.000000
  70
    32
  0
VERTEX
  8
図枠
  5
319
 10
905.269
 20
-312.777
 30
0.000000
  70
    32
  0
VERTEX
  8
図枠
  5
31A
 10
905.284
 20
-312.780
 30
0.000000
  70
    32
  0
VERTEX
  8
図枠
  5
31B
 10
905.299
 20
-312.782
 30
0.000000
  70
    32
  0
VERTEX
  8
図枠
  5
31C
 10
905.314
 20
-312.785
 30
0.000000
  70
    32
  0
VERTEX
  8
図枠
  5
31D
 10
905.328
 20
-312.788
 30
0.000000
  70
    32
  0
VERTEX
  8
図枠
  5
31E
 10
905.343
 20
-312.790
 30
0.000000
  70
    32
  0
VERTEX
  8
図枠
  5
31F
 10
905.358
 20
-312.793
 30
0.000000
  70
    32
  0
VERTEX
  8
図枠
  5
320
 10
905.373
 20
-312.795
 30
0.000000
  70
    32
  0
VERTEX
  8
図枠
  5
321
 10
905.388
 20
-312.798
 30
0.000000
  70
    32
  0
VERTEX
  8
図枠
  5
322
 10
905.403
 20
-312.801
 30
0.000000
  70
    32
  0
VERTEX
  8
図枠
  5
323
 10
905.417
 20
-312.803
 30
0.000000
  70
    32
  0
VERTEX
  8
図枠
  5
324
 10
905.432
 20
-312.806
 30
0.000000
  70
    32
  0
VERTEX
  8
図枠
  5
325
 10
905.447
 20
-312.808
 30
0.000000
  70
    32
  0
VERTEX
  8
図枠
  5
326
 10
905.462
 20
-312.811
 30
0.000000
  70
    32
  0
VERTEX
  8
図枠
  5
327
 10
905.477
 20
-312.813
 30
0.000000
  70
    32
  0
VERTEX
  8
図枠
  5
328
 10
905.492
 20
-312.816
 30
0.000000
  70
    32
  0
VERTEX
  8
図枠
  5
329
 10
905.506
 20
-312.819
 30
0.000000
  70
    32
  0
VERTEX
  8
図枠
  5
32A
 10
905.521
 20
-312.821
 30
0.000000
  70
    32
  0
VERTEX
  8
図枠
  5
32B
 10
905.536
 20
-312.824
 30
0.000000
  70
    32
  0
VERTEX
  8
図枠
  5
32C
 10
905.551
 20
-312.826
 30
0.000000
  70
    32
  0
VERTEX
  8
図枠
  5
32D
 10
905.566
 20
-312.829
 30
0.000000
  70
    32
  0
VERTEX
  8
図枠
  5
32E
 10
905.581
 20
-312.831
 30
0.000000
  70
    32
  0
VERTEX
  8
図枠
  5
32F
 10
905.596
 20
-312.834
 30
0.000000
  70
    32
  0
VERTEX
  8
図枠
  5
330
 10
905.611
 20
-312.836
 30
0.000000
  70
    32
  0
VERTEX
  8
図枠
  5
331
 10
905.625
 20
-312.839
 30
0.000000
  70
    32
  0
VERTEX
  8
図枠
  5
332
 10
905.640
 20
-312.841
 30
0.000000
  70
    32
  0
VERTEX
  8
図枠
  5
333
 10
905.655
 20
-312.844
 30
0.000000
  70
    32
  0
VERTEX
  8
図枠
  5
334
 10
905.670
 20
-312.847
 30
0.000000
  70
    32
  0
VERTEX
  8
図枠
  5
335
 10
905.685
 20
-312.849
 30
0.000000
  70
    32
  0
VERTEX
  8
図枠
  5
336
 10
905.700
 20
-312.852
 30
0.000000
  70
    32
  0
VERTEX
  8
図枠
  5
337
 10
905.715
 20
-312.854
 30
0.000000
  70
    32
  0
VERTEX
  8
図枠
  5
338
 10
905.730
 20
-312.857
 30
0.000000
  70
    32
  0
VERTEX
  8
図枠
  5
339
 10
905.744
 20
-312.859
 30
0.000000
  70
    32
  0
VERTEX
  8
図枠
  5
33A
 10
905.759
 20
-312.862
 30
0.000000
  70
    32
  0
VERTEX
  8
図枠
  5
33B
 10
905.774
 20
-312.864
 30
0.000000
  70
    32
  0
VERTEX
  8
図枠
  5
33C
 10
905.789
 20
-312.867
 30
0.000000
  70
    32
  0
VERTEX
  8
図枠
  5
33D
 10
905.804
 20
-312.869
 30
0.000000
  70
    32
  0
VERTEX
  8
図枠
  5
33E
 10
905.819
 20
-312.872
 30
0.000000
  70
    32
  0
VERTEX
  8
図枠
  5
33F
 10
905.834
 20
-312.874
 30
0.000000
  70
    32
  0
SEQEND
  8
図枠
  5
340
  0
LINE
  5
B3
  8
図枠
 10
909.83818139809989
 20
-295.5061014684
 30
0.0
 11
914.44572059810002
 21
-296.65798626840001
 31
0.0
  0
LINE
  5
B4
  8
図枠
 10
909.83818139809989
 20
-295.5061014684
 30
0.0
 11
914.44572059810002
 21
-296.65798626840001
 31
0.0
  0
INSERT
  5
B5
  8
0
  6
CONTINUOUS
  2
*U17
 10
0.0
 20
0.0
 30
0.0
  0
INSERT
  5
B6
  8
0
  6
CONTINUOUS
  2
*U18
 10
0.0
 20
0.0
 30
0.0
  0
CIRCLE
  5
B7
  8
図枠
 10
904.57222723490008
 20
-294.3542166684
 30
0.0
 40
1.151884799999999
  0
CIRCLE
  5
B8
  8
図枠
 10
904.57222723490008
 20
-294.3542166684
 30
0.0
 40
1.151884799999999
  0
LINE
  5
B9
  8
図枠
  6
BORDER
 10
904.57222723490008
 20
-290.89856226839998
 30
0.0
 11
904.57222723490008
 21
-297.80987106840001
 31
0.0
  0
LINE
  5
BA
  8
図枠
 10
911.75483731979989
 20
-309.42758769469998
 30
0.0
 11
912.40711600079999
 21
-308.47466610869998
 31
0.0
  0
LINE
  5
BB
  8
図枠
 10
914.44572059810002
 20
-292.05044706839999
 30
0.0
 11
914.44572059810002
 21
-296.65798626840001
 31
0.0
  0
LINE
  5
BC
  8
図枠
 10
909.83818139809989
 20
-293.20233186839999
 30
0.0
 11
914.44572059810002
 21
-292.05044706839999
 31
0.0
  0
LINE
  5
BD
  8
図枠
 10
912.47043186710005
 20
-311.91432210869999
 30
0.0
 11
914.80687600079989
 21
-311.91432210869999
 31
0.0
  0
LINE
  5
BE
  8
図枠
 10
909.60632944079987
 20
-309.83453010869999
 30
0.0
 11
909.20743600080004
 21
-308.47466610869998
 31
0.0
  0
LINE
  5
BF
  8
図枠
  6
BORDER
 10
904.57222723490008
 20
-290.89856226839998
 30
0.0
 11
904.57222723490008
 21
-297.80987106840001
 31
0.0
  0
LINE
  5
C0
  8
図枠
 10
912.47043186710005
 20
-311.91432210869999
 30
0.0
 11
912.28628083369995
 21
-311.27438610870001
 31
0.0
  0
LINE
  5
C1
  8
図枠
 10
909.83818139809989
 20
-293.20233186839999
 30
0.0
 11
909.83818139809989
 21
-295.5061014684
 31
0.0
  0
LINE
  5
C2
  8
図枠
 10
914.44572059810002
 20
-292.05044706839999
 30
0.0
 11
914.44572059810002
 21
-296.65798626840001
 31
0.0
  0
LINE
  5
C3
  8
図枠
 10
909.83818139809989
 20
-293.20233186839999
 30
0.0
 11
909.83818139809989
 21
-295.5061014684
 31
0.0
  0
LINE
  5
C4
  8
図枠
 10
910.21640176079995
 20
-311.91432210869999
 30
0.0
 11
910.02868720080005
 21
-311.27438610870001
 31
0.0
  0
LINE
  5
C5
  8
図枠
  6
BORDER
 10
904.57222723490008
 20
-290.89856226839998
 30
0.0
 11
904.57222723490008
 21
-297.80987106840001
 31
0.0
  0
CIRCLE
  5
C6
  8
図枠
 10
904.57222723490008
 20
-294.3542166684
 30
0.0
 40
1.151884799999999
  0
LINE
  5
C7
  8
図枠
 10
907.60759600080007
 20
-311.27438610870001
 30
0.0
 11
910.02868720080005
 21
-311.27438610870001
 31
0.0
  0
LINE
  5
C8
  8
図枠
 10
909.20743600080004
 20
-308.47466610869998
 30
0.0
 11
912.40711600079999
 21
-308.47466610869998
 31
0.0
  0
LINE
  5
C9
  8
図枠
 10
913.20703600080003
 20
-314.47406610870001
 30
0.0
 11
912.88477169229986
 21
-313.35417810870001
 31
0.0
  0
LINE
  5
CA
  8
図枠
 10
914.80687600079989
 20
-311.91432210869999
 30
0.0
 11
914.80687600079989
 21
-313.35417810870001
 31
0.0
  0
POLYLINE
  8
図枠
  5
341
  66
     1
 10
0.000000
 20
0.000000
 30
0.000000
  70
     8
  0
VERTEX
  8
図枠
  5
342
 10
903.001
 20
-313.383
 30
0.000000
  70
    32
  0
VERTEX
  8
図枠
  5
343
 10
903.023
 20
-313.390
 30
0.000000
  70
    32
  0
VERTEX
  8
図枠
  5
344
 10
903.044
 20
-313.397
 30
0.000000
  70
    32
  0
VERTEX
  8
図枠
  5
345
 10
903.066
 20
-313.404
 30
0.000000
  70
    32
  0
VERTEX
  8
図枠
  5
346
 10
903.087
 20
-313.411
 30
0.000000
  70
    32
  0
VERTEX
  8
図枠
  5
347
 10
903.109
 20
-313.417
 30
0.000000
  70
    32
  0
VERTEX
  8
図枠
  5
348
 10
903.131
 20
-313.424
 30
0.000000
  70
    32
  0
VERTEX
  8
図枠
  5
349
 10
903.152
 20
-313.431
 30
0.000000
  70
    32
  0
VERTEX
  8
図枠
  5
34A
 10
903.174
 20
-313.437
 30
0.000000
  70
    32
  0
VERTEX
  8
図枠
  5
34B
 10
903.196
 20
-313.444
 30
0.000000
  70
    32
  0
VERTEX
  8
図枠
  5
34C
 10
903.217
 20
-313.450
 30
0.000000
  70
    32
  0
VERTEX
  8
図枠
  5
34D
 10
903.239
 20
-313.457
 30
0.000000
  70
    32
  0
VERTEX
  8
図枠
  5
34E
 10
903.261
 20
-313.463
 30
0.000000
  70
    32
  0
VERTEX
  8
図枠
  5
34F
 10
903.282
 20
-313.470
 30
0.000000
  70
    32
  0
VERTEX
  8
図枠
  5
350
 10
903.304
 20
-313.476
 30
0.000000
  70
    32
  0
VERTEX
  8
図枠
  5
351
 10
903.326
 20
-313.483
 30
0.000000
  70
    32
  0
VERTEX
  8
図枠
  5
352
 10
903.348
 20
-313.489
 30
0.000000
  70
    32
  0
VERTEX
  8
図枠
  5
353
 10
903.370
 20
-313.496
 30
0.000000
  70
    32
  0
VERTEX
  8
図枠
  5
354
 10
903.391
 20
-313.502
 30
0.000000
  70
    32
  0
VERTEX
  8
図枠
  5
355
 10
903.413
 20
-313.508
 30
0.000000
  70
    32
  0
VERTEX
  8
図枠
  5
356
 10
903.435
 20
-313.514
 30
0.000000
  70
    32
  0
VERTEX
  8
図枠
  5
357
 10
903.457
 20
-313.521
 30
0.000000
  70
    32
  0
VERTEX
  8
図枠
  5
358
 10
903.479
 20
-313.527
 30
0.000000
  70
    32
  0
VERTEX
  8
図枠
  5
359
 10
903.501
 20
-313.533
 30
0.000000
  70
    32
  0
VERTEX
  8
図枠
  5
35A
 10
903.523
 20
-313.539
 30
0.000000
  70
    32
  0
VERTEX
  8
図枠
  5
35B
 10
903.545
 20
-313.545
 30
0.000000
  70
    32
  0
VERTEX
  8
図枠
  5
35C
 10
903.567
 20
-313.551
 30
0.000000
  70
    32
  0
VERTEX
  8
図枠
  5
35D
 10
903.588
 20
-313.558
 30
0.000000
  70
    32
  0
VERTEX
  8
図枠
  5
35E
 10
903.610
 20
-313.564
 30
0.000000
  70
    32
  0
VERTEX
  8
図枠
  5
35F
 10
903.632
 20
-313.570
 30
0.000000
  70
    32
  0
VERTEX
  8
図枠
  5
360
 10
903.654
 20
-313.576
 30
0.000000
  70
    32
  0
VERTEX
  8
図枠
  5
361
 10
903.676
 20
-313.582
 30
0.000000
  70
    32
  0
VERTEX
  8
図枠
  5
362
 10
903.699
 20
-313.588
 30
0.000000
  70
    32
  0
VERTEX
  8
図枠
  5
363
 10
903.721
 20
-313.593
 30
0.000000
  70
    32
  0
VERTEX
  8
図枠
  5
364
 10
903.743
 20
-313.599
 30
0.000000
  70
    32
  0
VERTEX
  8
図枠
  5
365
 10
903.765
 20
-313.605
 30
0.000000
  70
    32
  0
VERTEX
  8
図枠
  5
366
 10
903.787
 20
-313.611
 30
0.000000
  70
    32
  0
VERTEX
  8
図枠
  5
367
 10
903.809
 20
-313.617
 30
0.000000
  70
    32
  0
VERTEX
  8
図枠
  5
368
 10
903.831
 20
-313.623
 30
0.000000
  70
    32
  0
VERTEX
  8
図枠
  5
369
 10
903.853
 20
-313.628
 30
0.000000
  70
    32
  0
VERTEX
  8
図枠
  5
36A
 10
903.875
 20
-313.634
 30
0.000000
  70
    32
  0
VERTEX
  8
図枠
  5
36B
 10
903.897
 20
-313.640
 30
0.000000
  70
    32
  0
VERTEX
  8
図枠
  5
36C
 10
903.920
 20
-313.646
 30
0.000000
  70
    32
  0
VERTEX
  8
図枠
  5
36D
 10
903.942
 20
-313.651
 30
0.000000
  70
    32
  0
VERTEX
  8
図枠
  5
36E
 10
903.964
 20
-313.657
 30
0.000000
  70
    32
  0
VERTEX
  8
図枠
  5
36F
 10
903.986
 20
-313.663
 30
0.000000
  70
    32
  0
VERTEX
  8
図枠
  5
370
 10
904.008
 20
-313.668
 30
0.000000
  70
    32
  0
VERTEX
  8
図枠
  5
371
 10
904.031
 20
-313.674
 30
0.000000
  70
    32
  0
VERTEX
  8
図枠
  5
372
 10
904.053
 20
-313.679
 30
0.000000
  70
    32
  0
VERTEX
  8
図枠
  5
373
 10
904.075
 20
-313.685
 30
0.000000
  70
    32
  0
VERTEX
  8
図枠
  5
374
 10
904.097
 20
-313.690
 30
0.000000
  70
    32
  0
VERTEX
  8
図枠
  5
375
 10
904.120
 20
-313.696
 30
0.000000
  70
    32
  0
VERTEX
  8
図枠
  5
376
 10
904.142
 20
-313.701
 30
0.000000
  70
    32
  0
VERTEX
  8
図枠
  5
377
 10
904.164
 20
-313.707
 30
0.000000
  70
    32
  0
VERTEX
  8
図枠
  5
378
 10
904.186
 20
-313.712
 30
0.000000
  70
    32
  0
VERTEX
  8
図枠
  5
379
 10
904.209
 20
-313.718
 30
0.000000
  70
    32
  0
VERTEX
  8
図枠
  5
37A
 10
904.231
 20
-313.723
 30
0.000000
  70
    32
  0
VERTEX
  8
図枠
  5
37B
 10
904.253
 20
-313.728
 30
0.000000
  70
    32
  0
VERTEX
  8
図枠
  5
37C
 10
904.276
 20
-313.734
 30
0.000000
  70
    32
  0
VERTEX
  8
図枠
  5
37D
 10
904.298
 20
-313.739
 30
0.000000
  70
    32
  0
VERTEX
  8
図枠
  5
37E
 10
904.321
 20
-313.745
 30
0.000000
  70
    32
  0
VERTEX
  8
図枠
  5
37F
 10
904.343
 20
-313.750
 30
0.000000
  70
    32
  0
VERTEX
  8
図枠
  5
380
 10
904.365
 20
-313.755
 30
0.000000
  70
    32
  0
VERTEX
  8
図枠
  5
381
 10
904.388
 20
-313.760
 30
0.000000
  70
    32
  0
VERTEX
  8
図枠
  5
382
 10
904.410
 20
-313.766
 30
0.000000
  70
    32
  0
VERTEX
  8
図枠
  5
383
 10
904.432
 20
-313.771
 30
0.000000
  70
    32
  0
VERTEX
  8
図枠
  5
384
 10
904.455
 20
-313.776
 30
0.000000
  70
    32
  0
VERTEX
  8
図枠
  5
385
 10
904.477
 20
-313.781
 30
0.000000
  70
    32
  0
VERTEX
  8
図枠
  5
386
 10
904.500
 20
-313.787
 30
0.000000
  70
    32
  0
VERTEX
  8
図枠
  5
387
 10
904.522
 20
-313.792
 30
0.000000
  70
    32
  0
VERTEX
  8
図枠
  5
388
 10
904.545
 20
-313.797
 30
0.000000
  70
    32
  0
VERTEX
  8
図枠
  5
389
 10
904.567
 20
-313.802
 30
0.000000
  70
    32
  0
VERTEX
  8
図枠
  5
38A
 10
904.590
 20
-313.807
 30
0.000000
  70
    32
  0
VERTEX
  8
図枠
  5
38B
 10
904.612
 20
-313.812
 30
0.000000
  70
    32
  0
VERTEX
  8
図枠
  5
38C
 10
904.635
 20
-313.817
 30
0.000000
  70
    32
  0
VERTEX
  8
図枠
  5
38D
 10
904.657
 20
-313.822
 30
0.000000
  70
    32
  0
VERTEX
  8
図枠
  5
38E
 10
904.680
 20
-313.828
 30
0.000000
  70
    32
  0
VERTEX
  8
図枠
  5
38F
 10
904.702
 20
-313.833
 30
0.000000
  70
    32
  0
VERTEX
  8
図枠
  5
390
 10
904.725
 20
-313.838
 30
0.000000
  70
    32
  0
VERTEX
  8
図枠
  5
391
 10
904.747
 20
-313.843
 30
0.000000
  70
    32
  0
VERTEX
  8
図枠
  5
392
 10
904.770
 20
-313.848
 30
0.000000
  70
    32
  0
VERTEX
  8
図枠
  5
393
 10
904.792
 20
-313.853
 30
0.000000
  70
    32
  0
VERTEX
  8
図枠
  5
394
 10
904.815
 20
-313.858
 30
0.000000
  70
    32
  0
VERTEX
  8
図枠
  5
395
 10
904.837
 20
-313.863
 30
0.000000
  70
    32
  0
VERTEX
  8
図枠
  5
396
 10
904.860
 20
-313.868
 30
0.000000
  70
    32
  0
VERTEX
  8
図枠
  5
397
 10
904.882
 20
-313.873
 30
0.000000
  70
    32
  0
VERTEX
  8
図枠
  5
398
 10
904.905
 20
-313.878
 30
0.000000
  70
    32
  0
VERTEX
  8
図枠
  5
399
 10
904.928
 20
-313.883
 30
0.000000
  70
    32
  0
VERTEX
  8
図枠
  5
39A
 10
904.950
 20
-313.887
 30
0.000000
  70
    32
  0
VERTEX
  8
図枠
  5
39B
 10
904.973
 20
-313.892
 30
0.000000
  70
    32
  0
VERTEX
  8
図枠
  5
39C
 10
904.995
 20
-313.897
 30
0.000000
  70
    32
  0
VERTEX
  8
図枠
  5
39D
 10
905.018
 20
-313.902
 30
0.000000
  70
    32
  0
VERTEX
  8
図枠
  5
39E
 10
905.041
 20
-313.907
 30
0.000000
  70
    32
  0
VERTEX
  8
図枠
  5
39F
 10
905.063
 20
-313.912
 30
0.000000
  70
    32
  0
VERTEX
  8
図枠
  5
3A0
 10
905.086
 20
-313.917
 30
0.000000
  70
    32
  0
VERTEX
  8
図枠
  5
3A1
 10
905.108
 20
-313.922
 30
0.000000
  70
    32
  0
VERTEX
  8
図枠
  5
3A2
 10
905.131
 20
-313.927
 30
0.000000
  70
    32
  0
VERTEX
  8
図枠
  5
3A3
 10
905.154
 20
-313.931
 30
0.000000
  70
    32
  0
VERTEX
  8
図枠
  5
3A4
 10
905.176
 20
-313.936
 30
0.000000
  70
    32
  0
VERTEX
  8
図枠
  5
3A5
 10
905.199
 20
-313.941
 30
0.000000
  70
    32
  0
VERTEX
  8
図枠
  5
3A6
 10
905.221
 20
-313.946
 30
0.000000
  70
    32
  0
VERTEX
  8
図枠
  5
3A7
 10
905.244
 20
-313.951
 30
0.000000
  70
    32
  0
VERTEX
  8
図枠
  5
3A8
 10
905.267
 20
-313.955
 30
0.000000
  70
    32
  0
VERTEX
  8
図枠
  5
3A9
 10
905.289
 20
-313.960
 30
0.000000
  70
    32
  0
VERTEX
  8
図枠
  5
3AA
 10
905.312
 20
-313.965
 30
0.000000
  70
    32
  0
VERTEX
  8
図枠
  5
3AB
 10
905.335
 20
-313.970
 30
0.000000
  70
    32
  0
VERTEX
  8
図枠
  5
3AC
 10
905.357
 20
-313.975
 30
0.000000
  70
    32
  0
VERTEX
  8
図枠
  5
3AD
 10
905.380
 20
-313.979
 30
0.000000
  70
    32
  0
VERTEX
  8
図枠
  5
3AE
 10
905.403
 20
-313.984
 30
0.000000
  70
    32
  0
VERTEX
  8
図枠
  5
3AF
 10
905.425
 20
-313.989
 30
0.000000
  70
    32
  0
VERTEX
  8
図枠
  5
3B0
 10
905.448
 20
-313.994
 30
0.000000
  70
    32
  0
VERTEX
  8
図枠
  5
3B1
 10
905.471
 20
-313.998
 30
0.000000
  70
    32
  0
VERTEX
  8
図枠
  5
3B2
 10
905.493
 20
-314.003
 30
0.000000
  70
    32
  0
VERTEX
  8
図枠
  5
3B3
 10
905.516
 20
-314.008
 30
0.000000
  70
    32
  0
VERTEX
  8
図枠
  5
3B4
 10
905.539
 20
-314.013
 30
0.000000
  70
    32
  0
VERTEX
  8
図枠
  5
3B5
 10
905.561
 20
-314.017
 30
0.000000
  70
    32
  0
VERTEX
  8
図枠
  5
3B6
 10
905.584
 20
-314.022
 30
0.000000
  70
    32
  0
VERTEX
  8
図枠
  5
3B7
 10
905.607
 20
-314.027
 30
0.000000
  70
    32
  0
VERTEX
  8
図枠
  5
3B8
 10
905.630
 20
-314.032
 30
0.000000
  70
    32
  0
VERTEX
  8
図枠
  5
3B9
 10
905.652
 20
-314.036
 30
0.000000
  70
    32
  0
VERTEX
  8
図枠
  5
3BA
 10
905.675
 20
-314.041
 30
0.000000
  70
    32
  0
VERTEX
  8
図枠
  5
3BB
 10
905.698
 20
-314.046
 30
0.000000
  70
    32
  0
VERTEX
  8
図枠
  5
3BC
 10
905.720
 20
-314.051
 30
0.000000
  70
    32
  0
VERTEX
  8
図枠
  5
3BD
 10
905.743
 20
-314.055
 30
0.000000
  70
    32
  0
VERTEX
  8
図枠
  5
3BE
 10
905.766
 20
-314.060
 30
0.000000
  70
    32
  0
VERTEX
  8
図枠
  5
3BF
 10
905.788
 20
-314.065
 30
0.000000
  70
    32
  0
VERTEX
  8
図枠
  5
3C0
 10
905.811
 20
-314.069
 30
0.000000
  70
    32
  0
VERTEX
  8
図枠
  5
3C1
 10
905.834
 20
-314.074
 30
0.000000
  70
    32
  0
SEQEND
  8
図枠
  5
3C2
  0
INSERT
  5
CC
  8
0
  6
CONTINUOUS
  2
*U19
 10
0.0
 20
0.0
 30
0.0
  0
LINE
  5
CD
  8
図枠
 10
905.83378728079992
 20
-312.87422610869999
 30
0.0
 11
905.83378728079992
 21
-314.07410610869999
 31
0.0
  0
LINE
  5
CE
  8
図枠
 10
904.12413374490006
 20
-312.35358314540002
 30
0.0
 11
903.98166634519998
 21
-312.49307171049998
 31
0.0
  0
LINE
  5
CF
  8
図枠
 10
907.60759600080007
 20
-309.83453010869999
 30
0.0
 11
909.60632944079987
 21
-309.83453010869999
 31
0.0
  0
LINE
  5
D0
  8
図枠
 10
914.80687600079989
 20
-309.83453010869999
 30
0.0
 11
914.80687600079989
 21
-311.27438610870001
 31
0.0
  0
LINE
  5
D1
  8
図枠
 10
912.88477169229986
 20
-313.35417810870001
 30
0.0
 11
914.80687600079989
 21
-313.35417810870001
 31
0.0
  0
LINE
  5
D2
  8
図枠
 10
909.83818139809989
 20
-295.5061014684
 30
0.0
 11
914.44572059810002
 21
-296.65798626840001
 31
0.0
  0
LINE
  5
D3
  8
図枠
 10
910.96726000080002
 20
-314.47406610870001
 30
0.0
 11
910.63875952080002
 21
-313.35417810870001
 31
0.0
  0
LINE
  5
D4
  8
図枠
 10
911.87194100850013
 20
-309.83453010869999
 30
0.0
 11
911.75483731979989
 21
-309.42758769469998
 31
0.0
  0
LINE
  5
D5
  8
図枠
 10
914.44572059810002
 20
-292.05044706839999
 30
0.0
 11
914.44572059810002
 21
-296.65798626840001
 31
0.0
  0
LINE
  5
D6
  8
図枠
 10
909.83818139809989
 20
-293.20233186839999
 30
0.0
 11
914.44572059810002
 21
-292.05044706839999
 31
0.0
  0
LINE
  5
D7
  8
図枠
 10
909.83818139809989
 20
-293.20233186839999
 30
0.0
 11
914.44572059810002
 21
-292.05044706839999
 31
0.0
  0
POLYLINE
  8
図枠
  5
3C3
  66
     1
 10
0.000000
 20
0.000000
 30
0.000000
  70
     8
  0
VERTEX
  8
図枠
  5
3C4
 10
898.635
 20
-310.590
 30
0.000000
  70
    32
  0
VERTEX
  8
図枠
  5
3C5
 10
898.649
 20
-310.603
 30
0.000000
  70
    32
  0
VERTEX
  8
図枠
  5
3C6
 10
898.663
 20
-310.616
 30
0.000000
  70
    32
  0
VERTEX
  8
図枠
  5
3C7
 10
898.678
 20
-310.630
 30
0.000000
  70
    32
  0
VERTEX
  8
図枠
  5
3C8
 10
898.692
 20
-310.643
 30
0.000000
  70
    32
  0
VERTEX
  8
図枠
  5
3C9
 10
898.707
 20
-310.656
 30
0.000000
  70
    32
  0
VERTEX
  8
図枠
  5
3CA
 10
898.721
 20
-310.670
 30
0.000000
  70
    32
  0
VERTEX
  8
図枠
  5
3CB
 10
898.735
 20
-310.683
 30
0.000000
  70
    32
  0
VERTEX
  8
図枠
  5
3CC
 10
898.750
 20
-310.696
 30
0.000000
  70
    32
  0
VERTEX
  8
図枠
  5
3CD
 10
898.764
 20
-310.709
 30
0.000000
  70
    32
  0
VERTEX
  8
図枠
  5
3CE
 10
898.779
 20
-310.723
 30
0.000000
  70
    32
  0
VERTEX
  8
図枠
  5
3CF
 10
898.793
 20
-310.736
 30
0.000000
  70
    32
  0
VERTEX
  8
図枠
  5
3D0
 10
898.807
 20
-310.749
 30
0.000000
  70
    32
  0
VERTEX
  8
図枠
  5
3D1
 10
898.822
 20
-310.762
 30
0.000000
  70
    32
  0
VERTEX
  8
図枠
  5
3D2
 10
898.836
 20
-310.776
 30
0.000000
  70
    32
  0
VERTEX
  8
図枠
  5
3D3
 10
898.851
 20
-310.789
 30
0.000000
  70
    32
  0
VERTEX
  8
図枠
  5
3D4
 10
898.865
 20
-310.802
 30
0.000000
  70
    32
  0
VERTEX
  8
図枠
  5
3D5
 10
898.880
 20
-310.815
 30
0.000000
  70
    32
  0
VERTEX
  8
図枠
  5
3D6
 10
898.894
 20
-310.829
 30
0.000000
  70
    32
  0
VERTEX
  8
図枠
  5
3D7
 10
898.908
 20
-310.842
 30
0.000000
  70
    32
  0
VERTEX
  8
図枠
  5
3D8
 10
898.923
 20
-310.855
 30
0.000000
  70
    32
  0
VERTEX
  8
図枠
  5
3D9
 10
898.937
 20
-310.868
 30
0.000000
  70
    32
  0
VERTEX
  8
図枠
  5
3DA
 10
898.952
 20
-310.882
 30
0.000000
  70
    32
  0
VERTEX
  8
図枠
  5
3DB
 10
898.966
 20
-310.895
 30
0.000000
  70
    32
  0
VERTEX
  8
図枠
  5
3DC
 10
898.981
 20
-310.908
 30
0.000000
  70
    32
  0
VERTEX
  8
図枠
  5
3DD
 10
898.995
 20
-310.921
 30
0.000000
  70
    32
  0
VERTEX
  8
図枠
  5
3DE
 10
899.010
 20
-310.934
 30
0.000000
  70
    32
  0
VERTEX
  8
図枠
  5
3DF
 10
899.024
 20
-310.948
 30
0.000000
  70
    32
  0
VERTEX
  8
図枠
  5
3E0
 10
899.038
 20
-310.961
 30
0.000000
  70
    32
  0
VERTEX
  8
図枠
  5
3E1
 10
899.053
 20
-310.974
 30
0.000000
  70
    32
  0
VERTEX
  8
図枠
  5
3E2
 10
899.067
 20
-310.987
 30
0.000000
  70
    32
  0
VERTEX
  8
図枠
  5
3E3
 10
899.082
 20
-311.000
 30
0.000000
  70
    32
  0
VERTEX
  8
図枠
  5
3E4
 10
899.096
 20
-311.013
 30
0.000000
  70
    32
  0
VERTEX
  8
図枠
  5
3E5
 10
899.111
 20
-311.026
 30
0.000000
  70
    32
  0
VERTEX
  8
図枠
  5
3E6
 10
899.125
 20
-311.040
 30
0.000000
  70
    32
  0
VERTEX
  8
図枠
  5
3E7
 10
899.140
 20
-311.053
 30
0.000000
  70
    32
  0
VERTEX
  8
図枠
  5
3E8
 10
899.154
 20
-311.066
 30
0.000000
  70
    32
  0
VERTEX
  8
図枠
  5
3E9
 10
899.169
 20
-311.079
 30
0.000000
  70
    32
  0
VERTEX
  8
図枠
  5
3EA
 10
899.183
 20
-311.092
 30
0.000000
  70
    32
  0
VERTEX
  8
図枠
  5
3EB
 10
899.198
 20
-311.105
 30
0.000000
  70
    32
  0
VERTEX
  8
図枠
  5
3EC
 10
899.212
 20
-311.118
 30
0.000000
  70
    32
  0
VERTEX
  8
図枠
  5
3ED
 10
899.227
 20
-311.131
 30
0.000000
  70
    32
  0
VERTEX
  8
図枠
  5
3EE
 10
899.241
 20
-311.144
 30
0.000000
  70
    32
  0
VERTEX
  8
図枠
  5
3EF
 10
899.256
 20
-311.157
 30
0.000000
  70
    32
  0
VERTEX
  8
図枠
  5
3F0
 10
899.271
 20
-311.170
 30
0.000000
  70
    32
  0
VERTEX
  8
図枠
  5
3F1
 10
899.285
 20
-311.183
 30
0.000000
  70
    32
  0
VERTEX
  8
図枠
  5
3F2
 10
899.300
 20
-311.196
 30
0.000000
  70
    32
  0
VERTEX
  8
図枠
  5
3F3
 10
899.314
 20
-311.209
 30
0.000000
  70
    32
  0
VERTEX
  8
図枠
  5
3F4
 10
899.329
 20
-311.222
 30
0.000000
  70
    32
  0
VERTEX
  8
図枠
  5
3F5
 10
899.343
 20
-311.235
 30
0.000000
  70
    32
  0
VERTEX
  8
図枠
  5
3F6
 10
899.358
 20
-311.248
 30
0.000000
  70
    32
  0
VERTEX
  8
図枠
  5
3F7
 10
899.373
 20
-311.261
 30
0.000000
  70
    32
  0
VERTEX
  8
図枠
  5
3F8
 10
899.387
 20
-311.274
 30
0.000000
  70
    32
  0
VERTEX
  8
図枠
  5
3F9
 10
899.402
 20
-311.287
 30
0.000000
  70
    32
  0
VERTEX
  8
図枠
  5
3FA
 10
899.416
 20
-311.300
 30
0.000000
  70
    32
  0
VERTEX
  8
図枠
  5
3FB
 10
899.431
 20
-311.313
 30
0.000000
  70
    32
  0
VERTEX
  8
図枠
  5
3FC
 10
899.446
 20
-311.325
 30
0.000000
  70
    32
  0
VERTEX
  8
図枠
  5
3FD
 10
899.460
 20
-311.338
 30
0.000000
  70
    32
  0
VERTEX
  8
図枠
  5
3FE
 10
899.475
 20
-311.351
 30
0.000000
  70
    32
  0
VERTEX
  8
図枠
  5
3FF
 10
899.490
 20
-311.364
 30
0.000000
  70
    32
  0
VERTEX
  8
図枠
  5
400
 10
899.504
 20
-311.377
 30
0.000000
  70
    32
  0
VERTEX
  8
図枠
  5
401
 10
899.519
 20
-311.390
 30
0.000000
  70
    32
  0
VERTEX
  8
図枠
  5
402
 10
899.534
 20
-311.402
 30
0.000000
  70
    32
  0
VERTEX
  8
図枠
  5
403
 10
899.548
 20
-311.415
 30
0.000000
  70
    32
  0
VERTEX
  8
図枠
  5
404
 10
899.563
 20
-311.428
 30
0.000000
  70
    32
  0
VERTEX
  8
図枠
  5
405
 10
899.578
 20
-311.440
 30
0.000000
  70
    32
  0
VERTEX
  8
図枠
  5
406
 10
899.593
 20
-311.453
 30
0.000000
  70
    32
  0
VERTEX
  8
図枠
  5
407
 10
899.607
 20
-311.466
 30
0.000000
  70
    32
  0
VERTEX
  8
図枠
  5
408
 10
899.622
 20
-311.478
 30
0.000000
  70
    32
  0
VERTEX
  8
図枠
  5
409
 10
899.637
 20
-311.491
 30
0.000000
  70
    32
  0
VERTEX
  8
図枠
  5
40A
 10
899.652
 20
-311.504
 30
0.000000
  70
    32
  0
VERTEX
  8
図枠
  5
40B
 10
899.666
 20
-311.516
 30
0.000000
  70
    32
  0
VERTEX
  8
図枠
  5
40C
 10
899.681
 20
-311.529
 30
0.000000
  70
    32
  0
VERTEX
  8
図枠
  5
40D
 10
899.696
 20
-311.541
 30
0.000000
  70
    32
  0
VERTEX
  8
図枠
  5
40E
 10
899.711
 20
-311.554
 30
0.000000
  70
    32
  0
VERTEX
  8
図枠
  5
40F
 10
899.726
 20
-311.566
 30
0.000000
  70
    32
  0
VERTEX
  8
図枠
  5
410
 10
899.740
 20
-311.579
 30
0.000000
  70
    32
  0
VERTEX
  8
図枠
  5
411
 10
899.755
 20
-311.591
 30
0.000000
  70
    32
  0
VERTEX
  8
図枠
  5
412
 10
899.770
 20
-311.604
 30
0.000000
  70
    32
  0
VERTEX
  8
図枠
  5
413
 10
899.785
 20
-311.616
 30
0.000000
  70
    32
  0
VERTEX
  8
図枠
  5
414
 10
899.800
 20
-311.629
 30
0.000000
  70
    32
  0
VERTEX
  8
図枠
  5
415
 10
899.815
 20
-311.641
 30
0.000000
  70
    32
  0
VERTEX
  8
図枠
  5
416
 10
899.830
 20
-311.653
 30
0.000000
  70
    32
  0
VERTEX
  8
図枠
  5
417
 10
899.845
 20
-311.666
 30
0.000000
  70
    32
  0
VERTEX
  8
図枠
  5
418
 10
899.860
 20
-311.678
 30
0.000000
  70
    32
  0
VERTEX
  8
図枠
  5
419
 10
899.874
 20
-311.690
 30
0.000000
  70
    32
  0
VERTEX
  8
図枠
  5
41A
 10
899.889
 20
-311.703
 30
0.000000
  70
    32
  0
VERTEX
  8
図枠
  5
41B
 10
899.904
 20
-311.715
 30
0.000000
  70
    32
  0
VERTEX
  8
図枠
  5
41C
 10
899.919
 20
-311.727
 30
0.000000
  70
    32
  0
VERTEX
  8
図枠
  5
41D
 10
899.934
 20
-311.739
 30
0.000000
  70
    32
  0
VERTEX
  8
図枠
  5
41E
 10
899.949
 20
-311.752
 30
0.000000
  70
    32
  0
VERTEX
  8
図枠
  5
41F
 10
899.964
 20
-311.764
 30
0.000000
  70
    32
  0
VERTEX
  8
図枠
  5
420
 10
899.979
 20
-311.776
 30
0.000000
  70
    32
  0
VERTEX
  8
図枠
  5
421
 10
899.994
 20
-311.788
 30
0.000000
  70
    32
  0
VERTEX
  8
図枠
  5
422
 10
900.010
 20
-311.800
 30
0.000000
  70
    32
  0
VERTEX
  8
図枠
  5
423
 10
900.025
 20
-311.812
 30
0.000000
  70
    32
  0
VERTEX
  8
図枠
  5
424
 10
900.040
 20
-311.824
 30
0.000000
  70
    32
  0
VERTEX
  8
図枠
  5
425
 10
900.055
 20
-311.836
 30
0.000000
  70
    32
  0
VERTEX
  8
図枠
  5
426
 10
900.070
 20
-311.848
 30
0.000000
  70
    32
  0
VERTEX
  8
図枠
  5
427
 10
900.085
 20
-311.860
 30
0.000000
  70
    32
  0
VERTEX
  8
図枠
  5
428
 10
900.100
 20
-311.872
 30
0.000000
  70
    32
  0
VERTEX
  8
図枠
  5
429
 10
900.115
 20
-311.884
 30
0.000000
  70
    32
  0
VERTEX
  8
図枠
  5
42A
 10
900.131
 20
-311.896
 30
0.000000
  70
    32
  0
VERTEX
  8
図枠
  5
42B
 10
900.146
 20
-311.907
 30
0.000000
  70
    32
  0
VERTEX
  8
図枠
  5
42C
 10
900.161
 20
-311.919
 30
0.000000
  70
    32
  0
VERTEX
  8
図枠
  5
42D
 10
900.176
 20
-311.931
 30
0.000000
  70
    32
  0
VERTEX
  8
図枠
  5
42E
 10
900.191
 20
-311.943
 30
0.000000
  70
    32
  0
VERTEX
  8
図枠
  5
42F
 10
900.207
 20
-311.954
 30
0.000000
  70
    32
  0
VERTEX
  8
図枠
  5
430
 10
900.222
 20
-311.966
 30
0.000000
  70
    32
  0
VERTEX
  8
図枠
  5
431
 10
900.237
 20
-311.978
 30
0.000000
  70
    32
  0
VERTEX
  8
図枠
  5
432
 10
900.253
 20
-311.989
 30
0.000000
  70
    32
  0
VERTEX
  8
図枠
  5
433
 10
900.268
 20
-312.001
 30
0.000000
  70
    32
  0
VERTEX
  8
図枠
  5
434
 10
900.283
 20
-312.013
 30
0.000000
  70
    32
  0
VERTEX
  8
図枠
  5
435
 10
900.299
 20
-312.024
 30
0.000000
  70
    32
  0
VERTEX
  8
図枠
  5
436
 10
900.314
 20
-312.036
 30
0.000000
  70
    32
  0
VERTEX
  8
図枠
  5
437
 10
900.329
 20
-312.047
 30
0.000000
  70
    32
  0
VERTEX
  8
図枠
  5
438
 10
900.345
 20
-312.058
 30
0.000000
  70
    32
  0
VERTEX
  8
図枠
  5
439
 10
900.360
 20
-312.070
 30
0.000000
  70
    32
  0
VERTEX
  8
図枠
  5
43A
 10
900.376
 20
-312.081
 30
0.000000
  70
    32
  0
VERTEX
  8
図枠
  5
43B
 10
900.391
 20
-312.093
 30
0.000000
  70
    32
  0
VERTEX
  8
図枠
  5
43C
 10
900.406
 20
-312.104
 30
0.000000
  70
    32
  0
VERTEX
  8
図枠
  5
43D
 10
900.422
 20
-312.115
 30
0.000000
  70
    32
  0
VERTEX
  8
図枠
  5
43E
 10
900.437
 20
-312.126
 30
0.000000
  70
    32
  0
VERTEX
  8
図枠
  5
43F
 10
900.453
 20
-312.138
 30
0.000000
  70
    32
  0
VERTEX
  8
図枠
  5
440
 10
900.469
 20
-312.149
 30
0.000000
  70
    32
  0
VERTEX
  8
図枠
  5
441
 10
900.484
 20
-312.160
 30
0.000000
  70
    32
  0
VERTEX
  8
図枠
  5
442
 10
900.500
 20
-312.171
 30
0.000000
  70
    32
  0
VERTEX
  8
図枠
  5
443
 10
900.515
 20
-312.182
 30
0.000000
  70
    32
  0
VERTEX
  8
図枠
  5
444
 10
900.531
 20
-312.193
 30
0.000000
  70
    32
  0
VERTEX
  8
図枠
  5
445
 10
900.547
 20
-312.204
 30
0.000000
  70
    32
  0
VERTEX
  8
図枠
  5
446
 10
900.562
 20
-312.215
 30
0.000000
  70
    32
  0
VERTEX
  8
図枠
  5
447
 10
900.578
 20
-312.226
 30
0.000000
  70
    32
  0
VERTEX
  8
図枠
  5
448
 10
900.594
 20
-312.237
 30
0.000000
  70
    32
  0
VERTEX
  8
図枠
  5
449
 10
900.609
 20
-312.248
 30
0.000000
  70
    32
  0
VERTEX
  8
図枠
  5
44A
 10
900.625
 20
-312.259
 30
0.000000
  70
    32
  0
VERTEX
  8
図枠
  5
44B
 10
900.641
 20
-312.269
 30
0.000000
  70
    32
  0
VERTEX
  8
図枠
  5
44C
 10
900.657
 20
-312.280
 30
0.000000
  70
    32
  0
VERTEX
  8
図枠
  5
44D
 10
900.672
 20
-312.291
 30
0.000000
  70
    32
  0
VERTEX
  8
図枠
  5
44E
 10
900.688
 20
-312.301
 30
0.000000
  70
    32
  0
VERTEX
  8
図枠
  5
44F
 10
900.704
 20
-312.312
 30
0.000000
  70
    32
  0
VERTEX
  8
図枠
  5
450
 10
900.720
 20
-312.323
 30
0.000000
  70
    32
  0
VERTEX
  8
図枠
  5
451
 10
900.736
 20
-312.333
 30
0.000000
  70
    32
  0
VERTEX
  8
図枠
  5
452
 10
900.752
 20
-312.344
 30
0.000000
  70
    32
  0
VERTEX
  8
図枠
  5
453
 10
900.768
 20
-312.354
 30
0.000000
  70
    32
  0
VERTEX
  8
図枠
  5
454
 10
900.784
 20
-312.365
 30
0.000000
  70
    32
  0
VERTEX
  8
図枠
  5
455
 10
900.800
 20
-312.375
 30
0.000000
  70
    32
  0
VERTEX
  8
図枠
  5
456
 10
900.816
 20
-312.385
 30
0.000000
  70
    32
  0
VERTEX
  8
図枠
  5
457
 10
900.832
 20
-312.396
 30
0.000000
  70
    32
  0
VERTEX
  8
図枠
  5
458
 10
900.848
 20
-312.406
 30
0.000000
  70
    32
  0
VERTEX
  8
図枠
  5
459
 10
900.864
 20
-312.416
 30
0.000000
  70
    32
  0
VERTEX
  8
図枠
  5
45A
 10
900.880
 20
-312.426
 30
0.000000
  70
    32
  0
VERTEX
  8
図枠
  5
45B
 10
900.896
 20
-312.437
 30
0.000000
  70
    32
  0
VERTEX
  8
図枠
  5
45C
 10
900.912
 20
-312.447
 30
0.000000
  70
    32
  0
VERTEX
  8
図枠
  5
45D
 10
900.928
 20
-312.457
 30
0.000000
  70
    32
  0
VERTEX
  8
図枠
  5
45E
 10
900.944
 20
-312.467
 30
0.000000
  70
    32
  0
VERTEX
  8
図枠
  5
45F
 10
900.960
 20
-312.477
 30
0.000000
  70
    32
  0
VERTEX
  8
図枠
  5
460
 10
900.977
 20
-312.487
 30
0.000000
  70
    32
  0
VERTEX
  8
図枠
  5
461
 10
900.993
 20
-312.497
 30
0.000000
  70
    32
  0
VERTEX
  8
図枠
  5
462
 10
901.009
 20
-312.506
 30
0.000000
  70
    32
  0
VERTEX
  8
図枠
  5
463
 10
901.025
 20
-312.516
 30
0.000000
  70
    32
  0
SEQEND
  8
図枠
  5
464
  0
LINE
  5
D9
  8
図枠
 10
898.63450728079988
 20
-312.87422610869999
 30
0.0
 11
899.59441128080005
 21
-312.87422610869999
 31
0.0
  0
LINE
  5
DA
  8
図枠
 10
889.70691528079988
 20
-314.07410610869999
 30
0.0
 11
892.90659528080005
 21
-314.07410610869999
 31
0.0
  0
LINE
  5
DB
  8
図枠
 10
896.50623528080007
 20
-310.07450610870001
 30
0.0
 11
896.50623528080007
 21
-311.27438610870001
 31
0.0
  0
LINE
  5
DC
  8
図枠
 10
889.70691528079988
 20
-308.47466610869998
 30
0.0
 11
889.70691528079988
 21
-310.07450610870001
 31
0.0
  0
LINE
  5
DD
  8
図枠
 10
889.70691528079988
 20
-311.27438610870001
 30
0.0
 11
889.70691528079988
 21
-312.47426610870002
 31
0.0
  0
LINE
  5
DE
  8
図枠
 10
860.5126336349
 20
-294.3542166684
 30
0.0
 11
876.51103363489995
 21
-294.3542166684
 31
0.0
  0
INSERT
  5
DF
  8
0
  6
CONTINUOUS
  2
*U20
 10
0.0
 20
0.0
 30
0.0
  0
LINE
  5
E0
  8
図枠
 10
895.30635528079995
 20
-311.27438610870001
 30
0.0
 11
896.50623528080007
 21
-311.27438610870001
 31
0.0
  0
LINE
  5
E1
  8
ﾚｲﾔ_1
 62
     5
 10
859.43093629309988
 20
-252.81844145069999
 30
0.0
 11
847.43093629309999
 21
-252.81844145069999
 31
0.0
  0
LINE
  5
E2
  8
ﾚｲﾔ_1
 62
     5
 10
859.43093629309988
 20
-250.81844145069999
 30
0.0
 11
847.43093629309999
 21
-250.81844145069999
 31
0.0
  0
LINE
  5
E3
  8
ﾚｲﾔ_1
 62
     5
 10
859.43093629309988
 20
-252.81844145069999
 30
0.0
 11
859.43093629309988
 21
-250.81844145069999
 31
0.0
  0
LINE
  5
E4
  8
ﾚｲﾔ_1
 62
     5
 10
847.43093629309999
 20
-252.81844145069999
 30
0.0
 11
847.43093629309999
 21
-250.81844145069999
 31
0.0
  0
INSERT
  5
E5
  8
0
  6
CONTINUOUS
  2
*U21
 10
0.0
 20
0.0
 30
0.0
  0
LINE
  5
E6
  8
ﾚｲﾔ_1
 62
     5
 10
839.43093629309999
 20
-241.91844145069999
 30
0.0
 11
839.43093629309999
 21
-244.6184414507
 31
0.0
  0
LINE
  5
E7
  8
ﾚｲﾔ_1
 62
     5
 10
847.43093629309999
 20
-241.91844145069999
 30
0.0
 11
839.43093629309999
 21
-241.91844145069999
 31
0.0
  0
LINE
  5
E8
  8
ﾚｲﾔ_1
 62
     5
 10
847.43093629309999
 20
-241.91844145069999
 30
0.0
 11
847.43093629309999
 21
-244.6184414507
 31
0.0
  0
LINE
  5
E9
  8
ﾚｲﾔ_1
 62
     5
 10
855.43093629309999
 20
-244.81844145069999
 30
0.0
 11
839.73093629309983
 21
-244.81844145069999
 31
0.0
  0
LINE
  5
EA
  8
ﾚｲﾔ_1
  6
BORDER
 62
     3
 10
849.43093629309999
 20
-246.06844145069999
 30
0.0
 11
837.43093629309988
 21
-246.06844145069999
 31
0.0
  0
LINE
  5
EB
  8
ﾚｲﾔ_1
 62
     5
 10
847.43093629309999
 20
-244.6184414507
 30
0.0
 11
839.43093629309999
 21
-244.6184414507
 31
0.0
  0
LINE
  5
EC
  8
ﾚｲﾔ_1
 62
     5
 10
842.08093629309985
 20
-244.81844145069999
 30
0.0
 11
842.08093629309985
 21
-244.6184414507
 31
0.0
  0
LINE
  5
ED
  8
ﾚｲﾔ_1
 62
     5
 10
844.78093629310001
 20
-244.81844145069999
 30
0.0
 11
844.78093629310001
 21
-244.6184414507
 31
0.0
  0
LINE
  5
EE
  8
ﾚｲﾔ_1
  6
DIVIDE
 62
     4
 10
865.15746557509999
 20
-224.032963929
 30
0.0
 11
865.15746557509999
 21
-154.032963929
 31
0.0
  0
INSERT
  5
EF
  8
0
  6
CONTINUOUS
  2
*U22
 10
0.0
 20
0.0
 30
0.0
  0
LINE
  5
F0
  8
図枠
 10
905.03386728079988
 20
-309.67454610869999
 30
0.0
 11
905.83378728079992
 21
-308.47466610869998
 31
0.0
  0
INSERT
  5
F1
  8
0
  6
CONTINUOUS
  2
*U23
 10
0.0
 20
0.0
 30
0.0
  0
LINE
  5
F2
  8
図枠
 10
898.63450728079988
 20
-310.5898309991
 30
0.0
 11
898.63450728079988
 21
-310.33216855389998
 31
0.0
  0
LINE
  5
F3
  8
図枠
 10
891.70671528080004
 20
-310.07450610870001
 30
0.0
 11
891.70671528080004
 21
-309.67454610869999
 31
0.0
  0
LINE
  5
F4
  8
図枠
 10
896.50623528080007
 20
-308.47466610869998
 30
0.0
 11
893.30655528080013
 21
-308.47466610869998
 31
0.0
  0
LINE
  5
F5
  8
図枠
 10
858.51283363490006
 20
-290.10464166840001
 30
0.0
 11
858.51283363490006
 21
-315.60209166840002
 31
0.0
  0
LINE
  5
F6
  8
図枠
 10
889.70691528079988
 20
-312.47426610870002
 30
0.0
 11
891.70671528080004
 21
-312.47426610870002
 31
0.0
  0
LINE
  5
F7
  8
図枠
 10
878.51083363490011
 20
-290.10464166840001
 30
0.0
 11
878.51083363490011
 21
-298.60379166839999
 31
0.0
  0
LINE
  5
F8
  8
図枠
 10
898.63450728079988
 20
-308.47466610869998
 30
0.0
 11
898.63450728079988
 21
-309.9145221087
 31
0.0
  0
ARC
  5
F9
  8
図枠
 10
892.1066752808
 20
-311.67434610869998
 30
0.0
 40
1.1998799999999989
 50
270.0
 51
0.0
  0
LINE
  5
FA
  8
図枠
 10
893.30655528080013
 20
-310.07450610870001
 30
0.0
 11
891.70671528080004
 21
-310.07450610870001
 31
0.0
  0
INSERT
  5
FB
  8
0
  6
CONTINUOUS
  2
*U24
 10
0.0
 20
0.0
 30
0.0
  0
INSERT
  5
FC
  8
0
  6
CONTINUOUS
  2
*U25
 10
0.0
 20
0.0
 30
0.0
  0
INSERT
  5
FD
  8
0
  6
CONTINUOUS
  2
*U26
 10
0.0
 20
0.0
 30
0.0
  0
INSERT
  5
FE
  8
0
  6
CONTINUOUS
  2
*U27
 10
0.0
 20
0.0
 30
0.0
  0
LINE
  5
FF
  8
図枠
 10
895.30635528079995
 20
-311.67434610869998
 30
0.0
 11
895.30635528079995
 21
-311.27438610870001
 31
0.0
  0
LINE
  5
100
  8
図枠
 10
860.5126336349
 20
-302.85336666839999
 30
0.0
 11
886.51003363489997
 21
-302.85336666839999
 31
0.0
  0
LINE
  5
101
  8
図枠
 10
898.63450728079988
 20
-312.87422610869999
 30
0.0
 11
898.63450728079988
 21
-314.07410610869999
 31
0.0
  0
INSERT
  5
102
  8
0
  6
CONTINUOUS
  2
*U28
 10
0.0
 20
0.0
 30
0.0
  0
LINE
  5
103
  8
図枠
 10
891.70671528080004
 20
-311.27438610870001
 30
0.0
 11
893.30655528080013
 21
-311.27438610870001
 31
0.0
  0
LINE
  5
104
  8
図枠
 10
896.50623528080007
 20
-310.07450610870001
 30
0.0
 11
895.30635528079995
 21
-310.07450610870001
 31
0.0
  0
LINE
  5
105
  8
図枠
 10
893.30655528080013
 20
-308.47466610869998
 30
0.0
 11
893.30655528080013
 21
-310.07450610870001
 31
0.0
  0
LINE
  5
106
  8
図枠
 10
895.30635528079995
 20
-309.67454610869999
 30
0.0
 11
896.50623528080007
 21
-308.47466610869998
 31
0.0
  0
LINE
  5
107
  8
図枠
 10
893.30655528080013
 20
-311.27438610870001
 30
0.0
 11
893.30655528080013
 21
-311.67434610869998
 31
0.0
  0
ARC
  5
108
  8
図枠
 10
899.59441128080005
 20
-309.83453010869999
 30
0.0
 40
3.0396959999999988
 50
270.0
 51
298.08590481520002
  0
LINE
  5
109
  8
図枠
 10
898.63450728079988
 20
-314.07410610869999
 30
0.0
 11
900.63430728080004
 21
-314.07410610869999
 31
0.0
  0
LINE
  5
10A
  8
ﾚｲﾔ_1
 62
     5
 10
760.31598022589992
 20
-187.3134801418
 30
0.0
 11
760.31598022589992
 21
-190.91348064109999
 31
0.0
  0
DIMENSION
  5
119
  8
寸法線
  2
*D5
 10
785.31598022589992
 20
-176.20652478490001
 30
0.0
 11
777.48906020539994
 21
-176.20652478490001
 31
0.0
 70
   128
  1
2.8
 13
785.31598022589992
 23
-187.3134801418
 33
0.0
 14
782.41598022589994
 24
-187.31348018739999
 34
0.0
  0
DIMENSION
  5
128
  8
寸法線
  2
*D6
 10
786.91598021970003
 20
-163.88424212929999
 30
0.0
 11
772.81598021970001
 21
-163.88424212929999
 31
0.0
 70
   128
  1
28
 13
786.91598021970003
 23
-186.0134803773
 33
0.0
 14
758.71598021969999
 24
-186.0134803773
 34
0.0
  0
DIMENSION
  5
137
  8
寸法線
  2
*D7
 10
783.86598022960015
 20
-170.36734090339999
 30
0.0
 11
772.81598021970001
 21
-170.36734090339999
 31
0.0
 70
   128
  1
22
 13
783.86598022960015
 23
-183.86348037729999
 33
0.0
 14
761.76598020970005
 24
-183.86348037729999
 34
0.0
  0
DIMENSION
  5
146
  8
寸法線
  2
*D8
 10
793.86598022589999
 20
-192.36348037729999
 30
0.0
 11
793.86598022589999
 21
-189.11348037729999
 31
0.0
 70
   128
  1
<>
 13
783.86598022589999
 23
-192.36348037729999
 33
0.0
 14
783.86598022589999
 24
-185.86348037729999
 34
0.0
 50
90.0
  0
INSERT
  5
147
  8
0
  6
CONTINUOUS
  2
*U29
 10
0.0
 20
0.0
 30
0.0
  0
LINE
  5
148
  8
図枠
 10
889.70691528079988
 20
-312.87422610869999
 30
0.0
 11
889.70691528079988
 21
-314.07410610869999
 31
0.0
  0
ARC
  5
149
  8
図枠
 10
892.90659528080005
 20
-311.67434610869998
 30
0.0
 40
2.3997599999999988
 50
270.0
 51
0.0
  0
INSERT
  5
14A
  8
0
  6
CONTINUOUS
  2
*U30
 10
0.0
 20
0.0
 30
0.0
  0
LINE
  5
14B
  8
図枠
 10
880.51063363490005
 20
-294.3542166684
 30
0.0
 11
894.50923363490006
 21
-294.3542166684
 31
0.0
  0
LINE
  5
14C
  8
図枠
 10
891.70671528080004
 20
-309.67454610869999
 30
0.0
 11
892.90659528080005
 21
-308.47466610869998
 31
0.0
  0
LINE
  5
14D
  8
図枠
 10
888.78612431979991
 20
-311.27438610870001
 30
0.0
 11
889.58604431979995
 21
-311.27438610870001
 31
0.0
  0
INSERT
  5
14E
  8
0
  6
CONTINUOUS
  2
*U31
 10
0.0
 20
0.0
 30
0.0
  0
LINE
  5
14F
  8
図枠
 10
898.63450728079988
 20
-314.07410610869999
 30
0.0
 11
898.63450728079988
 21
-312.87422610869999
 31
0.0
  0
LINE
  5
150
  8
図枠
 10
892.1066752808
 20
-312.87422610869999
 30
0.0
 11
889.70691528079988
 21
-312.87422610869999
 31
0.0
  0
INSERT
  5
151
  8
0
  6
CONTINUOUS
  2
*U32
 10
0.0
 20
0.0
 30
0.0
  0
LINE
  5
152
  8
図枠
 10
891.70671528080004
 20
-312.47426610870002
 30
0.0
 11
891.70671528080004
 21
-311.27438610870001
 31
0.0
  0
LINE
  5
153
  8
図枠
 10
892.90659528080005
 20
-308.47466610869998
 30
0.0
 11
889.70691528079988
 21
-308.47466610869998
 31
0.0
  0
LINE
  5
154
  8
図枠
 10
888.78612431979991
 20
-310.07450610870001
 30
0.0
 11
888.78612431979991
 21
-311.27438610870001
 31
0.0
  0
LINE
  5
155
  8
図枠
 10
889.70691528079988
 20
-310.07450610870001
 30
0.0
 11
888.78612431979991
 21
-310.07450610870001
 31
0.0
  0
INSERT
  5
156
  8
0
  6
CONTINUOUS
  2
*U33
 10
0.0
 20
0.0
 30
0.0
  0
LINE
  5
157
  8
図枠
 10
888.50983363490013
 20
-298.60379166839999
 30
0.0
 11
888.50983363490013
 21
-307.10294166839998
 31
0.0
  0
LINE
  5
158
  8
図枠
 10
889.70691528079988
 20
-311.27438610870001
 30
0.0
 11
889.58604431979995
 21
-311.27438610870001
 31
0.0
  0
LINE
  5
159
  8
図枠
 10
895.30635528079995
 20
-310.07450610870001
 30
0.0
 11
895.30635528079995
 21
-309.67454610869999
 31
0.0
  0
LINE
  5
15A
  8
図枠
 10
898.50883363490016
 20
-290.10464166840001
 30
0.0
 11
898.50883363490016
 21
-298.60379166839999
 31
0.0
  0
LINE
  5
15B
  8
ﾚｲﾔ_1
 62
     5
 10
782.41598022589994
 20
-187.31348018739999
 30
0.0
 11
782.41598022589994
 21
-190.91348057370001
 31
0.0
  0
LINE
  5
15C
  8
ﾚｲﾔ_1
 62
     5
 10
771.96598021969999
 20
-184.71348037729999
 30
0.0
 11
771.96598021969999
 21
-187.1127480801
 31
0.0
  0
LINE
  5
15D
  8
ﾚｲﾔ_1
 62
     5
 10
773.66598021970003
 20
-184.71348037729999
 30
0.0
 11
773.66598021970003
 21
-187.1127480801
 31
0.0
  0
ARC
  5
15E
  8
ﾚｲﾔ_1
 62
     5
 10
772.81598021970001
 20
-190.70226361530001
 30
0.0
 40
3.6887832380000001
 50
33.603368937900001
 51
146.3966278556
  0
LINE
  5
15F
  8
ﾚｲﾔ_1
 62
     5
 10
776.11740531380008
 20
-189.0134803773
 30
0.0
 11
779.91598021970003
 21
-189.0134803773
 31
0.0
  0
LINE
  5
160
  8
ﾚｲﾔ_1
 62
     5
 10
765.71598021969999
 20
-189.0134803773
 30
0.0
 11
769.5145551254999
 21
-189.0134803773
 31
0.0
  0
ARC
  5
161
  8
ﾚｲﾔ_1
 62
     5
 10
772.81598021970001
 20
-190.8290244328
 30
0.0
 40
2.0
 50
33.230921620799997
 51
146.76907837920001
  0
LINE
  5
162
  8
ﾚｲﾔ_1
 62
     5
 10
771.96598021969999
 20
-184.71348037729999
 30
0.0
 11
773.66598021970003
 21
-184.71348037729999
 31
0.0
  0
LINE
  5
163
  8
ﾚｲﾔ_1
  6
BORDER
 62
     3
 10
772.81598021970001
 20
-180.0134803773
 30
0.0
 11
772.81598021970001
 21
-206.0134803773
 31
0.0
  0
LINE
  5
164
  8
ﾚｲﾔ_1
  6
BORDER
 62
     3
 10
762.56598021970001
 20
-199.0134803773
 30
0.0
 11
783.06598021970001
 21
-199.0134803773
 31
0.0
  0
LINE
  5
165
  8
ﾚｲﾔ_1
  6
BORDER
 62
     3
 10
777.06598021970001
 20
-193.0134803773
 30
0.0
 11
777.06598021970001
 21
-205.0134803773
 31
0.0
  0
LINE
  5
166
  8
ﾚｲﾔ_1
  6
BORDER
 62
     3
 10
768.56598021970001
 20
-193.0134803773
 30
0.0
 11
768.56598021970001
 21
-205.0134803773
 31
0.0
  0
LINE
  5
167
  8
ﾚｲﾔ_1
  6
BORDER
 62
     3
 10
783.86598022960015
 20
-183.86348037729999
 30
0.0
 11
783.86598021019995
 21
-194.36348037729999
 31
0.0
  0
LINE
  5
168
  8
ﾚｲﾔ_1
  6
BORDER
 62
     3
 10
786.91598021970003
 20
-189.0634802047
 30
0.0
 11
780.91598021970003
 21
-189.0634802047
 31
0.0
  0
LINE
  5
169
  8
ﾚｲﾔ_1
  6
BORDER
 62
     3
 10
758.71598021969999
 20
-189.0634802047
 30
0.0
 11
764.71598021969987
 21
-189.0634802047
 31
0.0
  0
LINE
  5
16A
  8
ﾚｲﾔ_1
  6
BORDER
 62
     3
 10
761.76598020970005
 20
-183.86348037729999
 30
0.0
 11
761.76598022910002
 21
-194.36348037729999
 31
0.0
  0
ARC
  5
16B
  8
ﾚｲﾔ_1
 62
     5
 10
759.23055333210004
 20
-199.72955382550001
 30
0.0
 40
18.241405332900001
 50
14.964856767600001
 51
33.230921620799997
  0
ARC
  5
16C
  8
ﾚｲﾔ_1
 62
     5
 10
786.40140710720004
 20
-199.72955382550001
 30
0.0
 40
18.241405332900001
 50
146.76907837920001
 51
165.0351432324
  0
CIRCLE
  5
16D
  8
ﾚｲﾔ_1
 62
     5
 10
768.56598021970001
 20
-199.0134803773
 30
0.0
 40
4.0
  0
LINE
  5
16E
  8
ﾚｲﾔ_1
 62
     5
 10
780.91598021970003
 20
-190.0134803773
 30
0.0
 11
780.91598021970003
 21
-192.11348068109999
 31
0.0
  0
ARC
  5
16F
  8
ﾚｲﾔ_1
 62
     5
 10
779.91598021970003
 20
-190.0134803773
 30
0.0
 40
1.0
 50
0.0
 51
90.0
  0
CIRCLE
  5
170
  8
ﾚｲﾔ_1
 62
     5
 10
777.06598021970001
 20
-199.0134803773
 30
0.0
 40
4.0
  0
ARC
  5
171
  8
ﾚｲﾔ_1
 62
     5
 10
761.76598022589985
 20
-187.31348037730001
 30
0.0
 40
1.45
 50
0.0000075033
 51
179.9999906971
  0
ARC
  5
172
  8
ﾚｲﾔ_1
 62
     5
 10
761.76598022589985
 20
-190.9134803773
 30
0.0
 40
1.45
 50
180.00001042380001
 51
359.99999223730009
  0
LINE
  5
173
  8
ﾚｲﾔ_1
 62
     5
 10
763.21598022590001
 20
-187.31348018739999
 30
0.0
 11
763.21598022590001
 21
-190.91348057370001
 31
0.0
  0
LINE
  5
174
  8
ﾚｲﾔ_1
 62
     5
 10
772.56594878289991
 20
-241.91844145069999
 30
0.0
 11
772.56594878289991
 21
-244.6184414507
 31
0.0
  0
LINE
  5
175
  8
ﾚｲﾔ_1
 62
     5
 10
773.06594878289991
 20
-241.91844145069999
 30
0.0
 11
773.06594878289991
 21
-244.6184414507
 31
0.0
  0
LINE
  5
176
  8
ﾚｲﾔ_1
 62
     5
 10
781.06594878289991
 20
-241.91844145069999
 30
0.0
 11
781.06594878289991
 21
-244.6184414507
 31
0.0
  0
LINE
  5
177
  8
ﾚｲﾔ_1
 62
     5
 10
769.91594878289993
 20
-244.81844145069999
 30
0.0
 11
769.91594878289993
 21
-244.6184414507
 31
0.0
  0
LINE
  5
178
  8
ﾚｲﾔ_1
 62
     5
 10
767.21594878289989
 20
-244.81844145069999
 30
0.0
 11
767.21594878289989
 21
-244.6184414507
 31
0.0
  0
LINE
  5
179
  8
ﾚｲﾔ_1
 62
     5
 10
778.41594878289993
 20
-244.81844145069999
 30
0.0
 11
778.41594878289993
 21
-244.6184414507
 31
0.0
  0
LINE
  5
17A
  8
ﾚｲﾔ_1
 62
     5
 10
775.71594878289989
 20
-244.81844145069999
 30
0.0
 11
775.71594878289989
 21
-244.6184414507
 31
0.0
  0
LINE
  5
17B
  8
ﾚｲﾔ_1
 62
     5
 10
764.56594878289991
 20
-244.6184414507
 30
0.0
 11
772.56594878289991
 21
-244.6184414507
 31
0.0
  0
LINE
  5
17C
  8
ﾚｲﾔ_1
 62
     5
 10
781.06594878289991
 20
-244.6184414507
 30
0.0
 11
773.06594878289991
 21
-244.6184414507
 31
0.0
  0
LINE
  5
17D
  8
ﾚｲﾔ_1
 62
     5
 10
765.06594878289991
 20
-244.81844145069999
 30
0.0
 11
772.81594878289991
 21
-244.81844145069999
 31
0.0
  0
LINE
  5
17E
  8
ﾚｲﾔ_1
 62
     5
 10
780.5659487828998
 20
-244.81844145069999
 30
0.0
 11
772.81594878289991
 21
-244.81844145069999
 31
0.0
  0
LINE
  5
17F
  8
ﾚｲﾔ_1
 62
     5
 10
764.71598021969987
 20
-190.0134803773
 30
0.0
 11
764.71598021969987
 21
-192.11348070899999
 31
0.0
  0
LINE
  5
180
  8
ﾚｲﾔ_1
 62
     5
 10
758.71598021969999
 20
-186.0134803773
 30
0.0
 11
758.71598021969999
 21
-192.1134808422
 31
0.0
  0
ARC
  5
181
  8
ﾚｲﾔ_1
 62
     5
 10
761.71598021969999
 20
-192.11348037729999
 30
0.0
 40
3.0
 50
180.00000888060001
 51
359.99999366340001
  0
ARC
  5
182
  8
ﾚｲﾔ_1
 62
     5
 10
783.91598021970003
 20
-192.11348037729999
 30
0.0
 40
3.0
 50
180.0000058036
 51
0.0000065894
  0
ARC
  5
183
  8
ﾚｲﾔ_1
 62
     5
 10
765.71598021969999
 20
-190.0134803773
 30
0.0
 40
1.0
 50
90.0
 51
180.0
  0
ARC
  5
184
  8
ﾚｲﾔ_1
 62
     5
 10
786.13091212699987
 20
-200.12396094420001
 30
0.0
 40
20.0
 50
144.71662742239999
 51
166.59820668969999
  0
ARC
  5
185
  8
ﾚｲﾔ_1
 62
     5
 10
759.50104831229987
 20
-200.12396094420001
 30
0.0
 40
20.0
 50
13.4017933103
 51
35.283372577599998
  0
LINE
  5
186
  8
ﾚｲﾔ_1
 62
     5
 10
786.91598021970003
 20
-186.0134803773
 30
0.0
 11
786.91598021970003
 21
-192.11348003219999
 31
0.0
  0
ARC
  5
187
  8
ﾚｲﾔ_1
 62
     5
 10
761.71598021969999
 20
-186.0134803773
 30
0.0
 40
3.0
 50
90.0
 51
180.0
  0
LINE
  5
188
  8
ﾚｲﾔ_1
 62
     5
 10
761.71598021969999
 20
-183.0134803773
 30
0.0
 11
783.91598021970003
 21
-183.0134803773
 31
0.0
  0
ARC
  5
189
  8
ﾚｲﾔ_1
 62
     5
 10
783.91598021970003
 20
-186.0134803773
 30
0.0
 40
3.0
 50
0.0
 51
90.0
  0
ARC
  5
18A
  8
ﾚｲﾔ_1
 62
     5
 10
783.86598022589999
 20
-190.9134803773
 30
0.0
 40
1.45
 50
180.00000776269999
 51
359.99998957619999
  0
ARC
  5
18B
  8
ﾚｲﾔ_1
 62
     5
 10
783.86598022589999
 20
-187.31348037730001
 30
0.0
 40
1.45
 50
0.0000093029
 51
179.9999924967
  0
LINE
  5
18C
  8
ﾚｲﾔ_1
 62
     5
 10
785.31598022589992
 20
-187.3134801418
 30
0.0
 11
785.31598022589992
 21
-190.91348064109999
 31
0.0
  0
LINE
  5
18D
  8
ﾚｲﾔ_1
 62
     5
 10
847.43093629309999
 20
-247.51844145070001
 30
0.0
 11
847.43093629309999
 21
-250.2184414507
 31
0.0
  0
ARC
  5
18E
  8
ﾚｲﾔ_1
 62
     5
 10
848.63093629309992
 20
-247.7184414507
 30
0.0
 40
1.0
 50
180.0
 51
270.0
  0
LINE
  5
18F
  8
ﾚｲﾔ_1
 62
     5
 10
847.63093629309992
 20
-247.31844145069999
 30
0.0
 11
847.63093629309992
 21
-247.7184414507
 31
0.0
  0
LINE
  5
190
  8
ﾚｲﾔ_1
 62
     5
 10
852.93093629309999
 20
-248.7184414507
 30
0.0
 11
852.93093629309999
 21
-250.81844145069999
 31
0.0
  0
LINE
  5
191
  8
ﾚｲﾔ_1
 62
     5
 10
857.73093629309994
 20
-250.81844145069999
 30
0.0
 11
855.43093629309999
 21
-248.51844145070001
 31
0.0
  0
LINE
  5
192
  8
ﾚｲﾔ_1
 62
     5
 10
855.43093629309999
 20
-244.81844145069999
 30
0.0
 11
855.43093629309999
 21
-248.51844145070001
 31
0.0
  0
LINE
  5
193
  8
ﾚｲﾔ_1
 62
     5
 10
847.63093629309992
 20
-247.31844145069999
 30
0.0
 11
839.73093629309983
 21
-247.31844145069999
 31
0.0
  0
LINE
  5
194
  8
ﾚｲﾔ_1
 62
     5
 10
847.43093629309999
 20
-247.51844145070001
 30
0.0
 11
839.43093629309999
 21
-247.51844145070001
 31
0.0
  0
LINE
  5
195
  8
ﾚｲﾔ_1
 62
     5
 10
847.43093629309999
 20
-250.2184414507
 30
0.0
 11
839.43093629309999
 21
-250.2184414507
 31
0.0
  0
LINE
  5
196
  8
ﾚｲﾔ_1
 62
     5
 10
842.08093629309985
 20
-247.31844145069999
 30
0.0
 11
842.08093629309985
 21
-247.51844145070001
 31
0.0
  0
LINE
  5
197
  8
ﾚｲﾔ_1
 62
     5
 10
839.73093629309983
 20
-244.81844145069999
 30
0.0
 11
839.73093629309983
 21
-247.31844145069999
 31
0.0
  0
LINE
  5
198
  8
ﾚｲﾔ_1
 62
     5
 10
839.43093629309999
 20
-247.51844145070001
 30
0.0
 11
839.43093629309999
 21
-250.2184414507
 31
0.0
  0
LINE
  5
199
  8
ﾚｲﾔ_1
 62
     5
 10
852.93093629309999
 20
-248.7184414507
 30
0.0
 11
848.63093629309992
 21
-248.7184414507
 31
0.0
  0
LINE
  5
19A
  8
ﾚｲﾔ_1
 62
     5
 10
844.78093629310001
 20
-247.31844145069999
 30
0.0
 11
844.78093629310001
 21
-247.51844145070001
 31
0.0
  0
DIMENSION
  5
1A9
  8
寸法線
  2
*D9
 10
876.77160910089992
 20
-252.81844145069999
 30
0.0
 11
876.77160910089992
 21
-247.3684414507
 31
0.0
 70
   128
  1
11
 13
859.43093629309988
 23
-252.81844145069999
 33
0.0
 14
847.43093629309999
 24
-241.91844145069999
 34
0.0
 50
90.0
  0
DIMENSION
  5
1B8
  8
寸法線
  2
*D10
 10
832.4175469562
 20
-246.06844145069999
 30
0.0
 11
832.4175469562
 21
-249.44344145069999
 31
0.0
 70
   128
  1
(6.5)
 13
837.43093629309988
 23
-246.06844145069999
 33
0.0
 14
847.43093629309999
 24
-252.81844145069999
 34
0.0
 50
90.0
  0
DIMENSION
  5
1C7
  8
寸法線
  2
*D11
 10
869.43093629309988
 20
-252.81844145069999
 30
0.0
 11
869.43093629309988
 21
-251.81844145069999
 31
0.0
 70
   128
  1
<>
 13
859.43093629309988
 23
-252.81844145069999
 33
0.0
 14
859.43093629309988
 24
-250.81844145069999
 34
0.0
 50
90.0
  0
LINE
  5
1C8
  8
ﾚｲﾔ_1
 62
     5
 10
786.91594878289993
 20
-250.81844145069999
 30
0.0
 11
786.91594878289993
 21
-252.81844145069999
 31
0.0
  0
LINE
  5
1C9
  8
ﾚｲﾔ_1
 62
     5
 10
758.71594878289989
 20
-250.81844145069999
 30
0.0
 11
786.91594878289993
 21
-250.81844145069999
 31
0.0
  0
LINE
  5
1CA
  8
ﾚｲﾔ_1
 62
     5
 10
758.71594878289989
 20
-250.81844145069999
 30
0.0
 11
758.71594878289989
 21
-252.81844145069999
 31
0.0
  0
LINE
  5
1CB
  8
ﾚｲﾔ_1
 62
     5
 10
758.71594878289989
 20
-252.81844145069999
 30
0.0
 11
786.91594878289993
 21
-252.81844145069999
 31
0.0
  0
LINE
  5
1CC
  8
ﾚｲﾔ_1
 62
     5
 10
764.56594878289991
 20
-241.91844145069999
 30
0.0
 11
772.56594878289991
 21
-241.91844145069999
 31
0.0
  0
LINE
  5
1CD
  8
ﾚｲﾔ_1
  6
BORDER
 62
     3
 10
763.06594878289991
 20
-246.06844145069999
 30
0.0
 11
782.56594878289991
 21
-246.06844145069999
 31
0.0
  0
LINE
  5
1CE
  8
ﾚｲﾔ_1
 62
     5
 10
781.06594878289991
 20
-241.91844145069999
 30
0.0
 11
773.06594878289991
 21
-241.91844145069999
 31
0.0
  0
LINE
  5
1CF
  8
ﾚｲﾔ_1
 62
     5
 10
764.56594878289991
 20
-241.91844145069999
 30
0.0
 11
764.56594878289991
 21
-244.6184414507
 31
0.0
  0
DIMENSION
  5
1DE
  8
寸法線
  2
*D12
 10
801.02209448539986
 20
-195.11348037729999
 30
0.0
 11
801.02209448539986
 21
-189.06348037730001
 31
0.0
 70
   128
  1
12
 13
783.91598021970003
 23
-195.11348037729999
 33
0.0
 14
783.91598021970003
 24
-183.0134803773
 34
0.0
 50
90.0
  0
LINE
  5
1DF
  8
ﾚｲﾔ_1
  6
BORDER
 62
     3
 10
772.81594878289991
 20
-255.81844145069999
 30
0.0
 11
772.81594878289991
 21
-238.91844145069999
 31
0.0
  0
LINE
  5
1E0
  8
ﾚｲﾔ_1
  6
BORDER
 62
     3
 10
768.56594878289991
 20
-239.91844145069999
 30
0.0
 11
768.56594878289991
 21
-252.2184414507
 31
0.0
  0
LINE
  5
1E1
  8
ﾚｲﾔ_1
  6
BORDER
 62
     3
 10
777.06594878289991
 20
-239.91844145069999
 30
0.0
 11
777.06594878289991
 21
-252.2184414507
 31
0.0
  0
LINE
  5
1E2
  8
ﾚｲﾔ_1
 62
     5
 10
780.5659487828998
 20
-247.31844145069999
 30
0.0
 11
772.81594878289991
 21
-247.31844145069999
 31
0.0
  0
LINE
  5
1E3
  8
ﾚｲﾔ_1
 62
     5
 10
776.61594878289998
 20
-250.81844145069999
 30
0.0
 11
776.61594878289998
 21
-250.2184414507
 31
0.0
  0
LINE
  5
1E4
  8
ﾚｲﾔ_1
 62
     5
 10
769.91594878289993
 20
-247.31844145069999
 30
0.0
 11
769.91594878289993
 21
-247.51844145070001
 31
0.0
  0
LINE
  5
1E5
  8
ﾚｲﾔ_1
 62
     5
 10
775.71594878289989
 20
-247.31844145069999
 30
0.0
 11
775.71594878289989
 21
-247.51844145070001
 31
0.0
  0
LINE
  5
1E6
  8
ﾚｲﾔ_1
 62
     5
 10
778.41594878289993
 20
-247.31844145069999
 30
0.0
 11
778.41594878289993
 21
-247.51844145070001
 31
0.0
  0
LINE
  5
1E7
  8
ﾚｲﾔ_1
 62
     5
 10
781.06594878289991
 20
-247.51844145070001
 30
0.0
 11
781.06594878289991
 21
-250.2184414507
 31
0.0
  0
LINE
  5
1E8
  8
ﾚｲﾔ_1
 62
     5
 10
781.06594878289991
 20
-247.51844145070001
 30
0.0
 11
773.06594878289991
 21
-247.51844145070001
 31
0.0
  0
LINE
  5
1E9
  8
ﾚｲﾔ_1
 62
     5
 10
773.06594878289991
 20
-247.51844145070001
 30
0.0
 11
773.06594878289991
 21
-250.2184414507
 31
0.0
  0
LINE
  5
1EA
  8
ﾚｲﾔ_1
 62
     5
 10
772.56594878289991
 20
-247.51844145070001
 30
0.0
 11
772.56594878289991
 21
-250.2184414507
 31
0.0
  0
LINE
  5
1EB
  8
ﾚｲﾔ_1
 62
     5
 10
764.56594878289991
 20
-247.51844145070001
 30
0.0
 11
772.56594878289991
 21
-247.51844145070001
 31
0.0
  0
LINE
  5
1EC
  8
ﾚｲﾔ_1
 62
     5
 10
764.56594878289991
 20
-247.51844145070001
 30
0.0
 11
764.56594878289991
 21
-250.2184414507
 31
0.0
  0
LINE
  5
1ED
  8
ﾚｲﾔ_1
 62
     5
 10
764.56594878289991
 20
-250.2184414507
 30
0.0
 11
772.56594878289991
 21
-250.2184414507
 31
0.0
  0
LINE
  5
1EE
  8
ﾚｲﾔ_1
 62
     5
 10
780.5659487828998
 20
-247.31844145069999
 30
0.0
 11
780.5659487828998
 21
-244.81844145069999
 31
0.0
  0
LINE
  5
1EF
  8
ﾚｲﾔ_1
 62
     5
 10
765.06594878289991
 20
-247.31844145069999
 30
0.0
 11
765.06594878289991
 21
-244.81844145069999
 31
0.0
  0
LINE
  5
1F0
  8
ﾚｲﾔ_1
 62
     5
 10
765.06594878289991
 20
-247.31844145069999
 30
0.0
 11
772.81594878289991
 21
-247.31844145069999
 31
0.0
  0
LINE
  5
1F1
  8
ﾚｲﾔ_1
 62
     5
 10
781.06594878289991
 20
-250.2184414507
 30
0.0
 11
773.06594878289991
 21
-250.2184414507
 31
0.0
  0
LINE
  5
1F2
  8
ﾚｲﾔ_1
 62
     5
 10
769.01594878289995
 20
-250.81844145069999
 30
0.0
 11
769.01594878289995
 21
-250.2184414507
 31
0.0
  0
LINE
  5
1F3
  8
ﾚｲﾔ_1
 62
     5
 10
767.21594878289989
 20
-247.31844145069999
 30
0.0
 11
767.21594878289989
 21
-247.51844145070001
 31
0.0
  0
LINE
  5
1F4
  8
ﾚｲﾔ_1
 62
     5
 10
774.81594878289991
 20
-247.31844145069999
 30
0.0
 11
774.81594878289991
 21
-244.81844145069999
 31
0.0
  0
LINE
  5
1F5
  8
ﾚｲﾔ_1
 62
     5
 10
770.81594878289991
 20
-247.31844145069999
 30
0.0
 11
770.81594878289991
 21
-244.81844145069999
 31
0.0
  0
LINE
  5
1F6
  8
ﾚｲﾔ_1
  6
BORDER
 62
     3
 10
843.43093629309988
 20
-239.91844145069999
 30
0.0
 11
843.43093629309988
 21
-252.2184414507
 31
0.0
  0
LINE
  5
1F7
  8
図枠
 62
     5
 10
884.22597667740013
 20
-130.8529509304
 30
0.0
 11
886.70072917739992
 21
-135.13934799660001
 31
0.0
  0
LINE
  5
1F8
  8
図枠
 62
     5
 10
888.50983363490013
 20
-140.61959166840001
 30
0.0
 11
888.50983363490013
 21
-125.6210916684
 31
0.0
  0
LINE
  5
1F9
  8
図枠
  6
BORDER
 10
901.11657283490001
 20
-294.3542166684
 30
0.0
 11
915.89909443490001
 21
-294.3542166684
 31
0.0
  0
LINE
  5
1FA
  8
図枠
 10
858.51283363490006
 20
-307.10294166839998
 30
0.0
 11
974.50123363490013
 21
-307.10294166839998
 31
0.0
  0
INSERT
  5
1FB
  8
0
  6
CONTINUOUS
  2
*U34
 10
0.0
 20
0.0
 30
0.0
  0
LINE
  5
1FC
  8
図枠
 62
     5
 10
880.51063363490005
 20
-140.61959166840001
 30
0.0
 11
974.50123363490013
 21
-140.61959166840001
 31
0.0
  0
LINE
  5
1FD
  8
図枠
 10
858.51283363490006
 20
-298.60379166839999
 30
0.0
 11
974.50123363490013
 21
-298.60379166839999
 31
0.0
  0
LINE
  5
1FE
  8
図枠
 10
898.63450728079988
 20
-310.33216855389998
 30
0.0
 11
901.83418728080005
 21
-310.33216855389998
 31
0.0
  0
LINE
  5
1FF
  8
図枠
 62
     5
 10
699.52873363490005
 20
-125.6210916684
 30
0.0
 11
974.50123363490013
 21
-125.6210916684
 31
0.0
  0
ARC
  5
200
  8
図枠
 10
900.63430728080004
 20
-309.67454610869999
 30
0.0
 40
4.3995600000000001
 50
270.0
 51
302.54495885400001
  0
LINE
  5
201
  8
図枠
 62
     5
 10
699.52873363490005
 20
-315.60209166840002
 30
0.0
 11
974.50123363490013
 21
-315.60209166840002
 31
0.0
  0
LINE
  5
202
  8
図枠
  6
DOT
 10
693.5293336348999
 20
-321.3515166684
 30
0.0
 11
980.50063363490005
 21
-321.3515166684
 31
0.0
  0
LINE
  5
203
  8
図枠
 10
858.51283363490006
 20
-290.10464166840001
 30
0.0
 11
974.50123363490013
 21
-290.10464166840001
 31
0.0
  0
LINE
  5
204
  8
図枠
  6
DOT
 10
693.5293336348999
 20
-119.8716666684
 30
0.0
 11
980.50063363490005
 21
-119.8716666684
 31
0.0
  0
INSERT
  5
205
  8
0
  6
CONTINUOUS
  2
*U35
 10
0.0
 20
0.0
 30
0.0
  0
INSERT
  5
206
  8
0
  6
CONTINUOUS
  2
*U36
 10
0.0
 20
0.0
 30
0.0
  0
LINE
  5
207
  8
図枠
 62
     5
 10
880.51063363490005
 20
-140.61959166840001
 30
0.0
 11
880.51063363490005
 21
-125.6210916684
 31
0.0
  0
LINE
  5
208
  8
図枠
  6
DOT
 10
693.53233333490004
 20
-321.3515166684
 30
0.0
 11
693.53233333490004
 21
-119.8716666684
 31
0.0
  0
LINE
  5
209
  8
図枠
 62
     5
 10
699.52873363490005
 20
-315.60209166840002
 30
0.0
 11
699.52873363490005
 21
-125.6210916684
 31
0.0
  0
LINE
  5
20A
  8
図枠
 10
898.63450728079988
 20
-309.9145221087
 30
0.0
 11
902.63410728079998
 21
-309.9145221087
 31
0.0
  0
LINE
  5
20B
  8
図枠
 62
     5
 10
880.51063363490005
 20
-135.62009166839999
 30
0.0
 11
974.50123363490013
 21
-135.62009166839999
 31
0.0
  0
LINE
  5
20C
  8
図枠
 62
     5
 10
880.51063363490005
 20
-130.62059166840001
 30
0.0
 11
974.50123363490013
 21
-130.62059166840001
 31
0.0
  0
LINE
  5
20D
  8
図枠
 10
890.50963363489996
 20
-302.85336666839999
 30
0.0
 11
916.50703363490004
 21
-302.85336666839999
 31
0.0
  0
LINE
  5
20E
  8
図枠
 10
905.83378728079992
 20
-308.47466610869998
 30
0.0
 11
898.63450728079988
 21
-308.47466610869998
 31
0.0
  0
DIMENSION
  5
21D
  8
寸法線
  2
*D13
 10
808.16234057139991
 20
-203.0134803773
 30
0.0
 11
808.16234057139991
 21
-193.0134803773
 31
0.0
 70
   128
  1
<>
 13
777.06598021970001
 23
-203.0134803773
 33
0.0
 14
783.91598021970003
 24
-183.0134803773
 34
0.0
 50
90.0
  0
DIMENSION
  5
226
  8
寸法線
  2
*D14
 10
911.99393704479985
 20
-182.9574755225
 30
0.0
 11
897.87475770009996
 21
-196.53274484069999
 31
0.0
 70
   131
  1
2-%%c<>
 15
909.8726167013001
 25
-185.07879586599989
 35
0.0
 40
0.0
  0
LINE
  5
227
  8
ﾚｲﾔ_1
  6
DIVIDE
 62
     4
 10
865.15746557509999
 20
-224.032963929
 30
0.0
 11
974.50123363490013
 21
-224.032963929
 31
0.0
  0
LINE
  5
228
  8
ﾚｲﾔ_1
  6
DIVIDE
 62
     4
 10
865.15746557509999
 20
-154.032963929
 30
0.0
 11
974.50123363490013
 21
-154.032963929
 31
0.0
  0
CIRCLE
  5
229
  8
図枠
 10
904.57222723490008
 20
-294.3542166684
 30
0.0
 40
2.303769599999999
  0
POLYLINE
  8
図枠
  5
465
  66
     1
 10
0.000000
 20
0.000000
 30
0.000000
  70
     8
  0
VERTEX
  8
図枠
  5
466
 10
901.382
 20
-310.785
 30
0.000000
  70
    32
  0
VERTEX
  8
図枠
  5
467
 10
901.387
 20
-310.791
 30
0.000000
  70
    32
  0
VERTEX
  8
図枠
  5
468
 10
901.392
 20
-310.796
 30
0.000000
  70
    32
  0
VERTEX
  8
図枠
  5
469
 10
901.398
 20
-310.802
 30
0.000000
  70
    32
  0
VERTEX
  8
図枠
  5
46A
 10
901.403
 20
-310.808
 30
0.000000
  70
    32
  0
VERTEX
  8
図枠
  5
46B
 10
901.408
 20
-310.814
 30
0.000000
  70
    32
  0
VERTEX
  8
図枠
  5
46C
 10
901.413
 20
-310.820
 30
0.000000
  70
    32
  0
VERTEX
  8
図枠
  5
46D
 10
901.419
 20
-310.826
 30
0.000000
  70
    32
  0
VERTEX
  8
図枠
  5
46E
 10
901.424
 20
-310.832
 30
0.000000
  70
    32
  0
VERTEX
  8
図枠
  5
46F
 10
901.429
 20
-310.838
 30
0.000000
  70
    32
  0
VERTEX
  8
図枠
  5
470
 10
901.434
 20
-310.844
 30
0.000000
  70
    32
  0
VERTEX
  8
図枠
  5
471
 10
901.440
 20
-310.849
 30
0.000000
  70
    32
  0
VERTEX
  8
図枠
  5
472
 10
901.445
 20
-310.855
 30
0.000000
  70
    32
  0
VERTEX
  8
図枠
  5
473
 10
901.450
 20
-310.861
 30
0.000000
  70
    32
  0
VERTEX
  8
図枠
  5
474
 10
901.456
 20
-310.867
 30
0.000000
  70
    32
  0
VERTEX
  8
図枠
  5
475
 10
901.461
 20
-310.873
 30
0.000000
  70
    32
  0
VERTEX
  8
図枠
  5
476
 10
901.466
 20
-310.879
 30
0.000000
  70
    32
  0
VERTEX
  8
図枠
  5
477
 10
901.471
 20
-310.885
 30
0.000000
  70
    32
  0
VERTEX
  8
図枠
  5
478
 10
901.477
 20
-310.891
 30
0.000000
  70
    32
  0
VERTEX
  8
図枠
  5
479
 10
901.482
 20
-310.896
 30
0.000000
  70
    32
  0
VERTEX
  8
図枠
  5
47A
 10
901.487
 20
-310.902
 30
0.000000
  70
    32
  0
VERTEX
  8
図枠
  5
47B
 10
901.493
 20
-310.908
 30
0.000000
  70
    32
  0
VERTEX
  8
図枠
  5
47C
 10
901.498
 20
-310.914
 30
0.000000
  70
    32
  0
VERTEX
  8
図枠
  5
47D
 10
901.503
 20
-310.920
 30
0.000000
  70
    32
  0
VERTEX
  8
図枠
  5
47E
 10
901.509
 20
-310.926
 30
0.000000
  70
    32
  0
VERTEX
  8
図枠
  5
47F
 10
901.514
 20
-310.932
 30
0.000000
  70
    32
  0
VERTEX
  8
図枠
  5
480
 10
901.519
 20
-310.937
 30
0.000000
  70
    32
  0
VERTEX
  8
図枠
  5
481
 10
901.524
 20
-310.943
 30
0.000000
  70
    32
  0
VERTEX
  8
図枠
  5
482
 10
901.530
 20
-310.949
 30
0.000000
  70
    32
  0
VERTEX
  8
図枠
  5
483
 10
901.535
 20
-310.955
 30
0.000000
  70
    32
  0
VERTEX
  8
図枠
  5
484
 10
901.540
 20
-310.961
 30
0.000000
  70
    32
  0
VERTEX
  8
図枠
  5
485
 10
901.546
 20
-310.967
 30
0.000000
  70
    32
  0
VERTEX
  8
図枠
  5
486
 10
901.551
 20
-310.973
 30
0.000000
  70
    32
  0
VERTEX
  8
図枠
  5
487
 10
901.556
 20
-310.978
 30
0.000000
  70
    32
  0
VERTEX
  8
図枠
  5
488
 10
901.562
 20
-310.984
 30
0.000000
  70
    32
  0
VERTEX
  8
図枠
  5
489
 10
901.567
 20
-310.990
 30
0.000000
  70
    32
  0
VERTEX
  8
図枠
  5
48A
 10
901.572
 20
-310.996
 30
0.000000
  70
    32
  0
VERTEX
  8
図枠
  5
48B
 10
901.577
 20
-311.002
 30
0.000000
  70
    32
  0
VERTEX
  8
図枠
  5
48C
 10
901.583
 20
-311.008
 30
0.000000
  70
    32
  0
VERTEX
  8
図枠
  5
48D
 10
901.588
 20
-311.013
 30
0.000000
  70
    32
  0
VERTEX
  8
図枠
  5
48E
 10
901.593
 20
-311.019
 30
0.000000
  70
    32
  0
VERTEX
  8
図枠
  5
48F
 10
901.599
 20
-311.025
 30
0.000000
  70
    32
  0
VERTEX
  8
図枠
  5
490
 10
901.604
 20
-311.031
 30
0.000000
  70
    32
  0
VERTEX
  8
図枠
  5
491
 10
901.609
 20
-311.037
 30
0.000000
  70
    32
  0
VERTEX
  8
図枠
  5
492
 10
901.615
 20
-311.042
 30
0.000000
  70
    32
  0
VERTEX
  8
図枠
  5
493
 10
901.620
 20
-311.048
 30
0.000000
  70
    32
  0
VERTEX
  8
図枠
  5
494
 10
901.625
 20
-311.054
 30
0.000000
  70
    32
  0
VERTEX
  8
図枠
  5
495
 10
901.631
 20
-311.060
 30
0.000000
  70
    32
  0
VERTEX
  8
図枠
  5
496
 10
901.636
 20
-311.066
 30
0.000000
  70
    32
  0
VERTEX
  8
図枠
  5
497
 10
901.641
 20
-311.071
 30
0.000000
  70
    32
  0
VERTEX
  8
図枠
  5
498
 10
901.647
 20
-311.077
 30
0.000000
  70
    32
  0
VERTEX
  8
図枠
  5
499
 10
901.652
 20
-311.083
 30
0.000000
  70
    32
  0
VERTEX
  8
図枠
  5
49A
 10
901.657
 20
-311.089
 30
0.000000
  70
    32
  0
VERTEX
  8
図枠
  5
49B
 10
901.663
 20
-311.094
 30
0.000000
  70
    32
  0
VERTEX
  8
図枠
  5
49C
 10
901.668
 20
-311.100
 30
0.000000
  70
    32
  0
VERTEX
  8
図枠
  5
49D
 10
901.674
 20
-311.106
 30
0.000000
  70
    32
  0
VERTEX
  8
図枠
  5
49E
 10
901.679
 20
-311.112
 30
0.000000
  70
    32
  0
VERTEX
  8
図枠
  5
49F
 10
901.684
 20
-311.117
 30
0.000000
  70
    32
  0
VERTEX
  8
図枠
  5
4A0
 10
901.690
 20
-311.123
 30
0.000000
  70
    32
  0
VERTEX
  8
図枠
  5
4A1
 10
901.695
 20
-311.129
 30
0.000000
  70
    32
  0
VERTEX
  8
図枠
  5
4A2
 10
901.700
 20
-311.135
 30
0.000000
  70
    32
  0
VERTEX
  8
図枠
  5
4A3
 10
901.706
 20
-311.140
 30
0.000000
  70
    32
  0
VERTEX
  8
図枠
  5
4A4
 10
901.711
 20
-311.146
 30
0.000000
  70
    32
  0
VERTEX
  8
図枠
  5
4A5
 10
901.717
 20
-311.152
 30
0.000000
  70
    32
  0
VERTEX
  8
図枠
  5
4A6
 10
901.722
 20
-311.158
 30
0.000000
  70
    32
  0
VERTEX
  8
図枠
  5
4A7
 10
901.727
 20
-311.163
 30
0.000000
  70
    32
  0
VERTEX
  8
図枠
  5
4A8
 10
901.733
 20
-311.169
 30
0.000000
  70
    32
  0
VERTEX
  8
図枠
  5
4A9
 10
901.738
 20
-311.175
 30
0.000000
  70
    32
  0
VERTEX
  8
図枠
  5
4AA
 10
901.744
 20
-311.180
 30
0.000000
  70
    32
  0
VERTEX
  8
図枠
  5
4AB
 10
901.749
 20
-311.186
 30
0.000000
  70
    32
  0
VERTEX
  8
図枠
  5
4AC
 10
901.754
 20
-311.192
 30
0.000000
  70
    32
  0
VERTEX
  8
図枠
  5
4AD
 10
901.760
 20
-311.197
 30
0.000000
  70
    32
  0
VERTEX
  8
図枠
  5
4AE
 10
901.765
 20
-311.203
 30
0.000000
  70
    32
  0
VERTEX
  8
図枠
  5
4AF
 10
901.771
 20
-311.209
 30
0.000000
  70
    32
  0
VERTEX
  8
図枠
  5
4B0
 10
901.776
 20
-311.214
 30
0.000000
  70
    32
  0
VERTEX
  8
図枠
  5
4B1
 10
901.781
 20
-311.220
 30
0.000000
  70
    32
  0
VERTEX
  8
図枠
  5
4B2
 10
901.787
 20
-311.226
 30
0.000000
  70
    32
  0
VERTEX
  8
図枠
  5
4B3
 10
901.792
 20
-311.231
 30
0.000000
  70
    32
  0
VERTEX
  8
図枠
  5
4B4
 10
901.798
 20
-311.237
 30
0.000000
  70
    32
  0
VERTEX
  8
図枠
  5
4B5
 10
901.803
 20
-311.242
 30
0.000000
  70
    32
  0
VERTEX
  8
図枠
  5
4B6
 10
901.809
 20
-311.248
 30
0.000000
  70
    32
  0
VERTEX
  8
図枠
  5
4B7
 10
901.814
 20
-311.254
 30
0.000000
  70
    32
  0
VERTEX
  8
図枠
  5
4B8
 10
901.820
 20
-311.259
 30
0.000000
  70
    32
  0
VERTEX
  8
図枠
  5
4B9
 10
901.825
 20
-311.265
 30
0.000000
  70
    32
  0
VERTEX
  8
図枠
  5
4BA
 10
901.831
 20
-311.270
 30
0.000000
  70
    32
  0
VERTEX
  8
図枠
  5
4BB
 10
901.836
 20
-311.276
 30
0.000000
  70
    32
  0
VERTEX
  8
図枠
  5
4BC
 10
901.841
 20
-311.282
 30
0.000000
  70
    32
  0
VERTEX
  8
図枠
  5
4BD
 10
901.847
 20
-311.287
 30
0.000000
  70
    32
  0
VERTEX
  8
図枠
  5
4BE
 10
901.852
 20
-311.293
 30
0.000000
  70
    32
  0
VERTEX
  8
図枠
  5
4BF
 10
901.858
 20
-311.298
 30
0.000000
  70
    32
  0
VERTEX
  8
図枠
  5
4C0
 10
901.863
 20
-311.304
 30
0.000000
  70
    32
  0
VERTEX
  8
図枠
  5
4C1
 10
901.869
 20
-311.309
 30
0.000000
  70
    32
  0
VERTEX
  8
図枠
  5
4C2
 10
901.874
 20
-311.315
 30
0.000000
  70
    32
  0
VERTEX
  8
図枠
  5
4C3
 10
901.880
 20
-311.320
 30
0.000000
  70
    32
  0
VERTEX
  8
図枠
  5
4C4
 10
901.885
 20
-311.326
 30
0.000000
  70
    32
  0
VERTEX
  8
図枠
  5
4C5
 10
901.891
 20
-311.331
 30
0.000000
  70
    32
  0
VERTEX
  8
図枠
  5
4C6
 10
901.897
 20
-311.337
 30
0.000000
  70
    32
  0
VERTEX
  8
図枠
  5
4C7
 10
901.902
 20
-311.342
 30
0.000000
  70
    32
  0
VERTEX
  8
図枠
  5
4C8
 10
901.908
 20
-311.348
 30
0.000000
  70
    32
  0
VERTEX
  8
図枠
  5
4C9
 10
901.913
 20
-311.353
 30
0.000000
  70
    32
  0
VERTEX
  8
図枠
  5
4CA
 10
901.919
 20
-311.359
 30
0.000000
  70
    32
  0
VERTEX
  8
図枠
  5
4CB
 10
901.924
 20
-311.364
 30
0.000000
  70
    32
  0
VERTEX
  8
図枠
  5
4CC
 10
901.930
 20
-311.370
 30
0.000000
  70
    32
  0
VERTEX
  8
図枠
  5
4CD
 10
901.935
 20
-311.375
 30
0.000000
  70
    32
  0
VERTEX
  8
図枠
  5
4CE
 10
901.941
 20
-311.380
 30
0.000000
  70
    32
  0
VERTEX
  8
図枠
  5
4CF
 10
901.947
 20
-311.386
 30
0.000000
  70
    32
  0
VERTEX
  8
図枠
  5
4D0
 10
901.952
 20
-311.391
 30
0.000000
  70
    32
  0
VERTEX
  8
図枠
  5
4D1
 10
901.958
 20
-311.397
 30
0.000000
  70
    32
  0
VERTEX
  8
図枠
  5
4D2
 10
901.963
 20
-311.402
 30
0.000000
  70
    32
  0
VERTEX
  8
図枠
  5
4D3
 10
901.969
 20
-311.407
 30
0.000000
  70
    32
  0
VERTEX
  8
図枠
  5
4D4
 10
901.974
 20
-311.413
 30
0.000000
  70
    32
  0
VERTEX
  8
図枠
  5
4D5
 10
901.980
 20
-311.418
 30
0.000000
  70
    32
  0
VERTEX
  8
図枠
  5
4D6
 10
901.986
 20
-311.423
 30
0.000000
  70
    32
  0
VERTEX
  8
図枠
  5
4D7
 10
901.991
 20
-311.429
 30
0.000000
  70
    32
  0
VERTEX
  8
図枠
  5
4D8
 10
901.997
 20
-311.434
 30
0.000000
  70
    32
  0
VERTEX
  8
図枠
  5
4D9
 10
902.003
 20
-311.439
 30
0.000000
  70
    32
  0
VERTEX
  8
図枠
  5
4DA
 10
902.008
 20
-311.445
 30
0.000000
  70
    32
  0
VERTEX
  8
図枠
  5
4DB
 10
902.014
 20
-311.450
 30
0.000000
  70
    32
  0
VERTEX
  8
図枠
  5
4DC
 10
902.020
 20
-311.455
 30
0.000000
  70
    32
  0
VERTEX
  8
図枠
  5
4DD
 10
902.025
 20
-311.460
 30
0.000000
  70
    32
  0
VERTEX
  8
図枠
  5
4DE
 10
902.031
 20
-311.466
 30
0.000000
  70
    32
  0
VERTEX
  8
図枠
  5
4DF
 10
902.037
 20
-311.471
 30
0.000000
  70
    32
  0
VERTEX
  8
図枠
  5
4E0
 10
902.042
 20
-311.476
 30
0.000000
  70
    32
  0
VERTEX
  8
図枠
  5
4E1
 10
902.048
 20
-311.481
 30
0.000000
  70
    32
  0
VERTEX
  8
図枠
  5
4E2
 10
902.054
 20
-311.487
 30
0.000000
  70
    32
  0
VERTEX
  8
図枠
  5
4E3
 10
902.059
 20
-311.492
 30
0.000000
  70
    32
  0
VERTEX
  8
図枠
  5
4E4
 10
902.065
 20
-311.497
 30
0.000000
  70
    32
  0
VERTEX
  8
図枠
  5
4E5
 10
902.071
 20
-311.502
 30
0.000000
  70
    32
  0
SEQEND
  8
図枠
  5
4E6
  0
CIRCLE
  5
22B
  8
図枠
 10
904.57222723490008
 20
-294.3542166684
 30
0.0
 40
2.303769599999999
  0
ARC
  5
22C
  8
図枠
 10
899.59441128080005
 20
-309.83453010869999
 30
0.0
 40
3.0396959999999988
 50
331.39928138329998
 51
358.49204224580001
  0
INSERT
  5
22D
  8
0
  6
CONTINUOUS
  2
*U37
 10
0.0
 20
0.0
 30
0.0
  0
INSERT
  5
22E
  8
0
  6
CONTINUOUS
  2
*U38
 10
0.0
 20
0.0
 30
0.0
  0
INSERT
  5
22F
  8
0
  6
CONTINUOUS
  2
*U39
 10
0.0
 20
0.0
 30
0.0
  0
LINE
  5
230
  8
図枠
 10
902.26319436909989
 20
-311.28964130719999
 30
0.0
 11
902.07073697169994
 21
-311.50221073649999
 31
0.0
  0
CIRCLE
  5
231
  8
図枠
 10
904.57222723490008
 20
-294.3542166684
 30
0.0
 40
2.303769599999999
  0
CIRCLE
  5
232
  8
図枠
 10
904.57222723490008
 20
-294.3542166684
 30
0.0
 40
2.303769599999999
  0
INSERT
  5
233
  8
0
  6
CONTINUOUS
  2
*U40
 10
0.0
 20
0.0
 30
0.0
  0
LINE
  5
234
  8
図枠
 62
     5
 10
881.75122417739999
 20
-135.13934799660001
 30
0.0
 11
886.70072917739992
 21
-135.13934799660001
 31
0.0
  0
LINE
  5
235
  8
図枠
 62
     5
 10
881.75122417739999
 20
-140.13884799659999
 30
0.0
 11
886.70072917739992
 21
-140.13884799659999
 31
0.0
  0
LINE
  5
236
  8
図枠
 62
     5
 10
884.22597667740013
 20
-135.85245093040001
 30
0.0
 11
886.70072917739992
 21
-140.13884799659999
 31
0.0
  0
LINE
  5
237
  8
図枠
 62
     5
 10
884.22597667740013
 20
-135.85245093040001
 30
0.0
 11
881.75122417739999
 21
-140.13884799659999
 31
0.0
  0
LINE
  5
238
  8
図枠
 10
901.83418728080005
 20
-310.33216855389998
 30
0.0
 11
901.38168419570002
 21
-310.78467163900001
 31
0.0
  0
LINE
  5
239
  8
図枠
 62
     5
 10
904.50823363489997
 20
-140.61959166840001
 30
0.0
 11
904.50823363489997
 21
-125.6210916684
 31
0.0
  0
LINE
  5
23A
  8
図枠
 62
     5
 10
964.50223363490011
 20
-140.61959166840001
 30
0.0
 11
964.50223363490011
 21
-125.6210916684
 31
0.0
  0
LINE
  5
23B
  8
図枠
 62
     5
 10
954.50323363490008
 20
-140.61959166840001
 30
0.0
 11
954.50323363490008
 21
-125.6210916684
 31
0.0
  0
LINE
  5
23C
  8
図枠
  6
DOT
 10
980.50063363490005
 20
-321.3515166684
 30
0.0
 11
980.50063363490005
 21
-119.8716666684
 31
0.0
  0
LINE
  5
23D
  8
図枠
 62
     5
 10
974.50123363490013
 20
-315.60209166840002
 30
0.0
 11
974.50123363490013
 21
-125.6210916684
 31
0.0
  0
LINE
  5
23E
  8
図枠
 62
     5
 10
884.22597667740013
 20
-130.8529509304
 30
0.0
 11
881.75122417739999
 21
-135.13934799660001
 31
0.0
  0
ENDSEC
  0
EOF
