  0
SECTION
  2
HEADER
  9
$ACADVER
  1
AC1009
  9
$INSBASE
 10
0.0
 20
0.0
 30
0.0
  9
$EXTMIN
 10
693.5293336348999
 20
-321.58365208330002
 30
0.0
  9
$EXTMAX
 10
980.50063363490005
 20
-120.1038020833
 30
0.0
  9
$LIMMIN
 10
0.0
 20
0.0
  9
$LIMMAX
 10
0.0
 20
0.0
  9
$ORTHOMODE
 70
     0
  9
$REGENMODE
 70
     1
  9
$FILLMODE
 70
     1
  9
$QTEXTMODE
 70
     0
  9
$MIRRTEXT
 70
     1
  9
$DRAGMODE
 70
     2
  9
$LTSCALE
 40
1.0
  9
$OSMODE
 70
    31
  9
$ATTMODE
 70
     1
  9
$TEXTSIZE
 40
0.0
  9
$TRACEWID
 40
0.05
  9
$TEXTSTYLE
  7
STANDARD
  9
$CLAYER
  8
0
  9
$CELTYPE
  6
CONTINUOUS
  9
$CECOLOR
 62
   256
  9
$DIMSCALE
 40
1.0
  9
$DIMASZ
 40
0.18
  9
$DIMEXO
 40
0.0625
  9
$DIMDLI
 40
0.38
  9
$DIMRND
 40
0.0
  9
$DIMDLE
 40
0.0
  9
$DIMEXE
 40
0.18
  9
$DIMTP
 40
0.0
  9
$DIMTM
 40
0.0
  9
$DIMTXT
 40
0.18
  9
$DIMCEN
 40
0.09
  9
$DIMTSZ
 40
0.0
  9
$DIMTOL
 70
     0
  9
$DIMLIM
 70
     0
  9
$DIMTIH
 70
     1
  9
$DIMTOH
 70
     1
  9
$DIMSE1
 70
     0
  9
$DIMSE2
 70
     0
  9
$DIMTAD
 70
     0
  9
$DIMZIN
 70
     0
  9
$DIMBLK
  1

  9
$DIMASO
 70
     1
  9
$DIMSHO
 70
     1
  9
$DIMPOST
  1

  9
$DIMAPOST
  1

  9
$DIMALT
 70
     0
  9
$DIMALTD
 70
     2
  9
$DIMALTF
 40
25.399999999999999
  9
$DIMLFAC
 40
1.0
  9
$DIMTOFL
 70
     0
  9
$DIMTVP
 40
0.0
  9
$DIMTIX
 70
     0
  9
$DIMSOXD
 70
     0
  9
$DIMSAH
 70
     0
  9
$DIMBLK1
  1

  9
$DIMBLK2
  1

  9
$DIMSTYLE
  2
STANDARD
  9
$DIMCLRD
 70
     0
  9
$DIMCLRE
 70
     0
  9
$DIMCLRT
 70
     0
  9
$DIMTFAC
 40
1.0
  9
$DIMGAP
 40
0.09
  9
$LUNITS
 70
     2
  9
$LUPREC
 70
     4
  9
$SKETCHINC
 40
0.1
  9
$FILLETRAD
 40
0.0
  9
$AUNITS
 70
     0
  9
$AUPREC
 70
     0
  9
$MENU
  1
acad
  9
$ELEVATION
 40
0.0
  9
$PELEVATION
 40
0.0
  9
$THICKNESS
 40
0.0
  9
$LIMCHECK
 70
     0
  9
$BLIPMODE
 70
     0
  9
$CHAMFERA
 40
0.0
  9
$CHAMFERB
 40
0.0
  9
$SKPOLY
 70
     0
  9
$TDCREATE
 40
2454865.6608573841
  9
$TDUPDATE
 40
2454865.6610957291
  9
$TDINDWG
 40
0.0002472106
  9
$TDUSRTIMER
 40
0.0002468519
  9
$USRTIMER
 70
     1
  9
$ANGBASE
 50
0.0
  9
$ANGDIR
 70
     0
  9
$PDMODE
 70
     3
  9
$PDSIZE
 40
-1.0
  9
$PLINEWID
 40
0.0
  9
$COORDS
 70
     2
  9
$SPLFRAME
 70
     0
  9
$SPLINETYPE
 70
     6
  9
$SPLINESEGS
 70
     8
  9
$ATTDIA
 70
     0
  9
$ATTREQ
 70
     1
  9
$HANDLING
 70
     1
  9
$HANDSEED
  5
4E6
  9
$SURFTAB1
 70
     6
  9
$SURFTAB2
 70
     6
  9
$SURFTYPE
 70
     6
  9
$SURFU
 70
     6
  9
$SURFV
 70
     6
  9
$UCSNAME
  2

  9
$UCSORG
 10
0.0
 20
0.0
 30
0.0
  9
$UCSXDIR
 10
1.0
 20
0.0
 30
0.0
  9
$UCSYDIR
 10
0.0
 20
1.0
 30
0.0
  9
$PUCSNAME
  2

  9
$PUCSORG
 10
0.0
 20
0.0
 30
0.0
  9
$PUCSXDIR
 10
1.0
 20
0.0
 30
0.0
  9
$PUCSYDIR
 10
0.0
 20
1.0
 30
0.0
  9
$USERI1
 70
     0
  9
$USERI2
 70
     0
  9
$USERI3
 70
     0
  9
$USERI4
 70
     0
  9
$USERI5
 70
     0
  9
$USERR1
 40
0.0
  9
$USERR2
 40
0.0
  9
$USERR3
 40
0.0
  9
$USERR4
 40
0.0
  9
$USERR5
 40
0.0
  9
$WORLDVIEW
 70
     1
  9
$SHADEDGE
 70
     3
  9
$SHADEDIF
 70
    70
  9
$TILEMODE
 70
     1
  9
$MAXACTVP
 70
    16
  9
$PLIMCHECK
 70
     0
  9
$PEXTMIN
 10
1.0000000000000000E+020
 20
1.0000000000000000E+020
 30
1.0000000000000000E+020
  9
$PEXTMAX
 10
-1.0000000000000000E+020
 20
-1.0000000000000000E+020
 30
-1.0000000000000000E+020
  9
$PLIMMIN
 10
0.0
 20
0.0
  9
$PLIMMAX
 10
12.0
 20
9.0
  9
$UNITMODE
 70
     0
  9
$VISRETAIN
 70
     0
  9
$PLINEGEN
 70
     1
  9
$PSLTSCALE
 70
     0
  0
ENDSEC
  0
SECTION
  2
TABLES
  0
TABLE
  2
VPORT
 70
     2
  0
VPORT
  2
*ACTIVE
 70
     0
 10
0.0
 20
0.0
 11
1.0
 21
1.0
 12
837.01498363489998
 22
-220.8437270833
 13
0.0
 23
0.0
 14
1.0
 24
1.0
 15
0.0
 25
0.0
 16
0.0
 26
0.0
 36
1.0
 17
0.0
 27
0.0
 37
0.0
 40
203.1518819502075
 41
1.6343490304709141
 42
50.0
 43
0.0
 44
0.0
 50
0.0
 51
0.0
 71
     0
 72
   100
 73
     1
 74
     1
 75
     0
 76
     0
 77
     0
 78
     0
  0
ENDTAB
  0
TABLE
  2
LTYPE
 70
    11
  0
LTYPE
  2
CONTINUOUS
 70
     0
  3
Solid line
 72
    65
 73
     0
 40
0.0
  0
LTYPE
  2
DOT
 70
     0
  3
. . . . . . . . 
 72
    65
 73
     2
 40
1.0
 49
0.0
 49
-1.0
  0
LTYPE
  2
DASHED
 70
     0
  3
___  ___  ___  ___  
 72
    65
 73
     2
 40
4.0
 49
3.0
 49
-1.0
  0
LTYPE
  2
HIDDEN
 70
     0
  3
__ __ __ __ 
 72
    65
 73
     2
 40
3.0
 49
2.0
 49
-1.0
  0
LTYPE
  2
STITCH
 70
     0
  3
_ _ _ _ 
 72
    65
 73
     2
 40
2.0
 49
1.0
 49
-1.0
  0
LTYPE
  2
CENTER
 70
     0
  3
______  __  ______  __  
 72
    65
 73
     4
 40
43.0
 49
40.0
 49
-1.0
 49
1.0
 49
-1.0
  0
LTYPE
  2
DASHDOT
 70
     0
  3
____ . ____ . 
 72
    65
 73
     4
 40
32.0
 49
30.0
 49
-1.0
 49
0.0
 49
-1.0
  0
LTYPE
  2
BORDER
 70
     0
  3
__ . __ . 
 72
    65
 73
     4
 40
22.0
 49
20.0
 49
-1.0
 49
0.0
 49
-1.0
  0
LTYPE
  2
CUTTING
 70
     0
  3
________   ___   ___   
 72
    65
 73
     6
 40
45.0
 49
40.0
 49
-1.0
 49
1.0
 49
-1.0
 49
1.0
 49
-1.0
  0
LTYPE
  2
PHANTOM
 70
     0
  3
______  __  __  
 72
    65
 73
     6
 40
35.0
 49
30.0
 49
-1.0
 49
1.0
 49
-1.0
 49
1.0
 49
-1.0
  0
LTYPE
  2
DIVIDE
 70
     0
  3
____ . . ____ . . 
 72
    65
 73
     6
 40
23.0
 49
20.0
 49
-1.0
 49
0.0
 49
-1.0
 49
0.0
 49
-1.0
  0
ENDTAB
  0
TABLE
  2
LAYER
 70
     4
  0
LAYER
  2
0
 70
     0
 62
     7
  6
CONTINUOUS
  0
LAYER
  2
ﾚｲﾔ_1
 70
     0
 62
     7
  6
CONTINUOUS
  0
LAYER
  2
図枠
 70
     0
 62
     7
  6
CONTINUOUS
  0
LAYER
  2
寸法線
 70
     0
 62
     7
  6
CONTINUOUS
  0
ENDTAB
  0
TABLE
  2
STYLE
 70
     1
  0
STYLE
  2
STANDARD
 70
     0
 40
0.0
 41
1.0
 50
0.0
 71
     0
 42
0.0
  3
txt
  4
extfont
  0
ENDTAB
  0
TABLE
  2
VIEW
 70
     0
  0
ENDTAB
  0
TABLE
  2
UCS
 70
     0
  0
ENDTAB
  0
TABLE
  2
APPID
 70
     2
  0
APPID
  2
ACAD
 70
     0
  0
APPID
  2
DCO15
 70
     0
  0
ENDTAB
  0
TABLE
  2
DIMSTYLE
 70
     3
  0
DIMSTYLE
  2
STANDARD
 70
     0
  3

  4

  5

  6

  7

 40
1.0
 41
0.18
 42
0.0625
 43
0.38
 44
0.18
 45
0.0
 46
0.0
 47
0.0
 48
0.0
140
0.18
141
0.09
142
0.0
143
25.399999999999999
144
1.0
145
0.0
146
1.0
147
0.09
 71
     0
 72
     0
 73
     1
 74
     1
 75
     0
 76
     0
 77
     0
 78
     0
170
     0
171
     2
172
     0
173
     0
174
     0
175
     0
176
     0
177
     0
178
     0
  0
DIMSTYLE
  2
VELDIM0
 70
     0
  3

  4

  5

  6

  7

 40
1.0
 41
3.0
 42
0.0625
 43
0.38
 44
0.5
 45
0.0
 46
3.0
 47
0.0
 48
0.0
140
2.9986110209999999
141
0.09
142
0.0
143
25.399999999999999
144
1.0
145
0.0
146
1.0
147
0.09
 71
     0
 72
     0
 73
     0
 74
     0
 75
     0
 76
     0
 77
     0
 78
     8
170
     0
171
     2
172
     0
173
     0
174
     0
175
     0
176
     0
177
     0
178
     0
  0
DIMSTYLE
  2
VELDIM1
 70
     0
  3

  4

  5

  6

  7

 40
1.0
 41
3.0
 42
0.0625
 43
0.38
 44
1.25
 45
0.0
 46
5.0
 47
0.0
 48
0.0
140
2.9986110209999999
141
0.09
142
0.0
143
25.399999999999999
144
1.0
145
0.0
146
1.0
147
0.09
 71
     0
 72
     0
 73
     0
 74
     0
 75
     0
 76
     0
 77
     0
 78
     8
170
     0
171
     2
172
     0
173
     0
174
     0
175
     0
176
     0
177
     0
178
     0
  0
ENDTAB
  0
ENDSEC
  0
SECTION
  2
BLOCKS
  0
BLOCK
  8
0
  2
$MODEL_SPACE
 70
     0
 10
0.0
 20
0.0
 30
0.0
  3
$MODEL_SPACE
  1

  0
ENDBLK
  5
E
  8
0
  0
BLOCK
 67
     1
  8
0
  2
$PAPER_SPACE
 70
     0
 10
0.0
 20
0.0
 30
0.0
  3
$PAPER_SPACE
  1

  0
ENDBLK
  5
10
 67
     1
  8
0
  0
BLOCK
  8
0
  2
*D0
 70
     1
 10
0.0
 20
0.0
 30
0.0
  3
*D0
  1

  0
TEXT
  5
44
  8
0
 62
     0
 10
918.63473532139994
 20
-167.95750471349999
 30
0.0
 40
2.9986110209999999
  1
32
  0
LINE
  5
45
  8
0
 62
     0
 10
936.34862415729992
 20
-185.96261270869999
 30
0.0
 11
936.34862415729992
 21
-168.98667136430001
 31
0.0
  0
LINE
  5
46
  8
0
 62
     0
 10
904.44862415729983
 20
-185.96261270869999
 30
0.0
 11
904.44862415729983
 21
-168.98667136430001
 31
0.0
  0
LINE
  5
47
  8
0
 62
     0
 10
936.34862415729992
 20
-169.48667136430001
 30
0.0
 11
923.92640182920013
 21
-169.48667136430001
 31
0.0
  0
LINE
  5
48
  8
0
 62
     0
 10
936.34862415729992
 20
-169.48667136430001
 30
0.0
 11
916.8708464854999
 21
-169.48667136430001
 31
0.0
  0
LINE
  5
49
  8
0
 62
     0
 10
904.44862415729983
 20
-169.48667136430001
 30
0.0
 11
923.92640182920013
 21
-169.48667136430001
 31
0.0
  0
LINE
  5
4A
  8
0
 62
     0
 10
904.44862415729983
 20
-169.48667136430001
 30
0.0
 11
916.8708464854999
 21
-169.48667136430001
 31
0.0
  0
LINE
  5
4B
  8
0
 62
     0
 10
904.44862415729983
 20
-169.48667136430001
 30
0.0
 11
907.44862415729995
 21
-169.48667136430001
 31
0.0
  0
SOLID
  5
4C
  8
0
 62
     0
 10
904.44862415729983
 20
-169.48667136430001
 30
0.0
 11
907.44862415729995
 21
-168.73667136430001
 31
0.0
 12
907.44862415729995
 22
-170.23667136430001
 32
0.0
 13
906.69862415729995
 23
-169.48667136430001
 33
0.0
  0
LINE
  5
4D
  8
0
 62
     0
 10
936.34862415729992
 20
-169.48667136430001
 30
0.0
 11
933.34862415729981
 21
-169.48667136430001
 31
0.0
  0
SOLID
  5
4E
  8
0
 62
     0
 10
936.34862415729992
 20
-169.48667136430001
 30
0.0
 11
933.34862415729981
 21
-170.23667136430001
 31
0.0
 12
933.34862415729981
 22
-168.73667136430001
 32
0.0
 13
934.09862415729981
 23
-169.48667136430001
 33
0.0
  0
ENDBLK
  5
4F
  8
0
  0
BLOCK
  8
0
  2
*D1
 70
     1
 10
0.0
 20
0.0
 30
0.0
  3
*D1
  1

  0
TEXT
  5
54
  8
0
 62
     0
 10
918.63473532139994
 20
-174.49960527109999
 30
0.0
 40
2.9986110209999999
  1
24
  0
LINE
  5
55
  8
0
 62
     0
 10
932.29862415729997
 20
-185.02877192189999
 30
0.0
 11
932.29862415729997
 21
-175.52877192189999
 31
0.0
  0
LINE
  5
56
  8
0
 62
     0
 10
908.49862415729979
 20
-185.02877192189999
 30
0.0
 11
908.49862415729979
 21
-175.52877192189999
 31
0.0
  0
LINE
  5
57
  8
0
 62
     0
 10
932.29862415729997
 20
-176.02877192189999
 30
0.0
 11
923.92640182920013
 21
-176.02877192189999
 31
0.0
  0
LINE
  5
58
  8
0
 62
     0
 10
932.29862415729997
 20
-176.02877192189999
 30
0.0
 11
916.8708464854999
 21
-176.02877192189999
 31
0.0
  0
LINE
  5
59
  8
0
 62
     0
 10
908.49862415729979
 20
-176.02877192189999
 30
0.0
 11
923.92640182920013
 21
-176.02877192189999
 31
0.0
  0
LINE
  5
5A
  8
0
 62
     0
 10
908.49862415729979
 20
-176.02877192189999
 30
0.0
 11
916.8708464854999
 21
-176.02877192189999
 31
0.0
  0
LINE
  5
5B
  8
0
 62
     0
 10
908.49862415729979
 20
-176.02877192189999
 30
0.0
 11
911.4986241572999
 21
-176.02877192189999
 31
0.0
  0
SOLID
  5
5C
  8
0
 62
     0
 10
908.49862415729979
 20
-176.02877192189999
 30
0.0
 11
911.4986241572999
 21
-175.27877192189999
 31
0.0
 12
911.4986241572999
 22
-176.77877192189999
 32
0.0
 13
910.7486241572999
 23
-176.02877192189999
 33
0.0
  0
LINE
  5
5D
  8
0
 62
     0
 10
932.29862415729997
 20
-176.02877192189999
 30
0.0
 11
929.29862415729997
 21
-176.02877192189999
 31
0.0
  0
SOLID
  5
5E
  8
0
 62
     0
 10
932.29862415729997
 20
-176.02877192189999
 30
0.0
 11
929.29862415729997
 21
-176.77877192189999
 31
0.0
 12
929.29862415729997
 22
-175.27877192189999
 32
0.0
 13
930.04862415729986
 23
-176.02877192189999
 33
0.0
  0
ENDBLK
  5
5F
  8
0
  0
BLOCK
  8
0
  2
*D2
 70
     1
 10
0.0
 20
0.0
 30
0.0
  3
*D2
  1

  0
TEXT
  5
63
  8
0
 62
     0
 10
945.31124432139995
 20
-214.41884203039999
 30
0.0
 40
2.9986110209999999
  1
2
 50
90.0
  0
LINE
  5
64
  8
0
 62
     0
 10
937.54862415729997
 20
-221.63134181940001
 30
0.0
 11
947.34041097219995
 21
-221.63134181940001
 31
0.0
  0
LINE
  5
65
  8
0
 62
     0
 10
937.54862415729997
 20
-219.53134181940001
 30
0.0
 11
947.34041097219995
 21
-219.53134181940001
 31
0.0
  0
LINE
  5
66
  8
0
 62
     0
 10
946.84041097219995
 20
-221.63134181940001
 30
0.0
 11
946.84041097219995
 21
-210.8910643586
 31
0.0
  0
LINE
  5
67
  8
0
 62
     0
 10
946.84041097219995
 20
-221.63134181940001
 30
0.0
 11
946.84041097219995
 21
-216.18273086630001
 31
0.0
  0
LINE
  5
68
  8
0
 62
     0
 10
946.84041097219995
 20
-219.53134181940001
 30
0.0
 11
946.84041097219995
 21
-210.8910643586
 31
0.0
  0
LINE
  5
69
  8
0
 62
     0
 10
946.84041097219995
 20
-219.53134181940001
 30
0.0
 11
946.84041097219995
 21
-216.18273086630001
 31
0.0
  0
LINE
  5
6A
  8
0
 62
     0
 10
946.84041097219995
 20
-219.53134181940001
 30
0.0
 11
946.84041097219995
 21
-216.53134181940001
 31
0.0
  0
SOLID
  5
6B
  8
0
 62
     0
 10
946.84041097219995
 20
-219.53134181940001
 30
0.0
 11
946.09041097220006
 21
-216.53134181940001
 31
0.0
 12
947.59041097219995
 22
-216.53134181940001
 32
0.0
 13
946.84041097219995
 23
-217.28134181940001
 33
0.0
  0
LINE
  5
6C
  8
0
 62
     0
 10
946.84041097219995
 20
-221.63134181940001
 30
0.0
 11
946.84041097219995
 21
-224.63134181940001
 31
0.0
  0
SOLID
  5
6D
  8
0
 62
     0
 10
946.84041097219995
 20
-221.63134181940001
 30
0.0
 11
947.59041097219995
 21
-224.63134181940001
 31
0.0
 12
946.09041097220006
 22
-224.63134181940001
 32
0.0
 13
946.84041097219995
 23
-223.88134181940001
 33
0.0
  0
ENDBLK
  5
6E
  8
0
  0
BLOCK
  8
0
  2
*D3
 70
     1
 10
0.0
 20
0.0
 30
0.0
  3
*D3
  1

  0
TEXT
  5
72
  8
0
 62
     0
 10
952.3308291100999
 20
-216.75911949120001
 30
0.0
 40
2.9986110209999999
  1
16.5
 50
90.0
  0
LINE
  5
73
  8
0
 62
     0
 10
937.54862415729997
 20
-221.63134181940001
 30
0.0
 11
954.35999576090001
 21
-221.63134181940001
 31
0.0
  0
LINE
  5
74
  8
0
 62
     0
 10
921.39862415729999
 20
-204.8313418194
 30
0.0
 11
954.35999576090001
 21
-204.8313418194
 31
0.0
  0
LINE
  5
75
  8
0
 62
     0
 10
953.85999576089989
 20
-221.63134181940001
 30
0.0
 11
953.85999576089989
 21
-207.93967531160001
 31
0.0
  0
LINE
  5
76
  8
0
 62
     0
 10
953.85999576089989
 20
-221.63134181940001
 30
0.0
 11
953.85999576089989
 21
-218.5230083271
 31
0.0
  0
LINE
  5
77
  8
0
 62
     0
 10
953.85999576089989
 20
-204.8313418194
 30
0.0
 11
953.85999576089989
 21
-207.93967531160001
 31
0.0
  0
LINE
  5
78
  8
0
 62
     0
 10
953.85999576089989
 20
-204.8313418194
 30
0.0
 11
953.85999576089989
 21
-218.5230083271
 31
0.0
  0
LINE
  5
79
  8
0
 62
     0
 10
953.85999576089989
 20
-204.8313418194
 30
0.0
 11
953.85999576089989
 21
-207.8313418194
 31
0.0
  0
SOLID
  5
7A
  8
0
 62
     0
 10
953.85999576089989
 20
-204.8313418194
 30
0.0
 11
954.60999576089989
 21
-207.8313418194
 31
0.0
 12
953.10999576089989
 22
-207.8313418194
 32
0.0
 13
953.85999576089989
 23
-207.0813418194
 33
0.0
  0
LINE
  5
7B
  8
0
 62
     0
 10
953.85999576089989
 20
-221.63134181940001
 30
0.0
 11
953.85999576089989
 21
-218.63134181940001
 31
0.0
  0
SOLID
  5
7C
  8
0
 62
     0
 10
953.85999576089989
 20
-221.63134181940001
 30
0.0
 11
953.10999576089989
 21
-218.63134181940001
 31
0.0
 12
954.60999576089989
 22
-218.63134181940001
 32
0.0
 13
953.85999576089989
 23
-219.38134181940001
 33
0.0
  0
ENDBLK
  5
7D
  8
0
  0
BLOCK
  8
0
  2
*D4
 70
     1
 10
0.0
 20
0.0
 30
0.0
  3
*D4
  1

  0
TEXT
  5
81
  8
0
 62
     0
 10
943.31945750659997
 20
-190.89455712669999
 30
0.0
 40
2.9986110209999999
  1
9
 50
90.0
  0
LINE
  5
82
  8
0
 62
     0
 10
935.84862415729992
 20
-194.56261270869999
 30
0.0
 11
945.34862415729992
 21
-194.56261270869999
 31
0.0
  0
LINE
  5
83
  8
0
 62
     0
 10
935.84862415729992
 20
-185.46261270869999
 30
0.0
 11
945.34862415729992
 21
-185.46261270869999
 31
0.0
  0
LINE
  5
84
  8
0
 62
     0
 10
944.84862415729981
 20
-194.56261270869999
 30
0.0
 11
944.84862415729981
 21
-187.36677945490001
 31
0.0
  0
LINE
  5
85
  8
0
 62
     0
 10
944.84862415729981
 20
-194.56261270869999
 30
0.0
 11
944.84862415729981
 21
-192.6584459625999
 31
0.0
  0
LINE
  5
86
  8
0
 62
     0
 10
944.84862415729981
 20
-185.46261270869999
 30
0.0
 11
944.84862415729981
 21
-187.36677945490001
 31
0.0
  0
LINE
  5
87
  8
0
 62
     0
 10
944.84862415729981
 20
-185.46261270869999
 30
0.0
 11
944.84862415729981
 21
-192.6584459625999
 31
0.0
  0
LINE
  5
88
  8
0
 62
     0
 10
944.84862415729981
 20
-185.46261270869999
 30
0.0
 11
944.84862415729981
 21
-182.46261270869999
 31
0.0
  0
SOLID
  5
89
  8
0
 62
     0
 10
944.84862415729981
 20
-185.46261270869999
 30
0.0
 11
944.09862415729981
 21
-182.46261270869999
 31
0.0
 12
945.59862415729992
 22
-182.46261270869999
 32
0.0
 13
944.84862415729981
 23
-183.21261270869999
 33
0.0
  0
LINE
  5
8A
  8
0
 62
     0
 10
944.84862415729981
 20
-194.56261270869999
 30
0.0
 11
944.84862415729981
 21
-197.56261270869999
 31
0.0
  0
SOLID
  5
8B
  8
0
 62
     0
 10
944.84862415729981
 20
-194.56261270869999
 30
0.0
 11
945.59862415729992
 21
-197.56261270869999
 31
0.0
 12
944.09862415729981
 22
-197.56261270869999
 32
0.0
 13
944.84862415729981
 23
-196.81261270869999
 33
0.0
  0
ENDBLK
  5
8C
  8
0
  0
BLOCK
  8
0
  2
*D5
 70
     1
 10
0.0
 20
0.0
 30
0.0
  3
*D5
  1

  0
TEXT
  5
D9
  8
0
 62
     0
 10
831.43824226940001
 20
-258.90267969169997
 30
0.0
 40
2.9986110209999999
  1
(7.5)
 50
90.0
  0
LINE
  5
DA
  8
0
 62
     0
 10
840.38444349570011
 20
-250.71795760200001
 30
0.0
 11
832.4674089202
 21
-250.71795760200001
 31
0.0
  0
LINE
  5
DB
  8
0
 62
     0
 10
853.08444349570004
 20
-258.26795760200002
 30
0.0
 11
832.4674089202
 21
-258.26795760200002
 31
0.0
  0
LINE
  5
DC
  8
0
 62
     0
 10
832.96740892019989
 20
-250.71795760200001
 30
0.0
 11
832.96740892019989
 21
-250.71795760200001
 31
0.0
  0
LINE
  5
DD
  8
0
 62
     0
 10
832.96740892019989
 20
-250.71795760200001
 30
0.0
 11
832.96740892019989
 21
-258.26795760200002
 31
0.0
  0
LINE
  5
DE
  8
0
 62
     0
 10
832.96740892019989
 20
-258.26795760200002
 30
0.0
 11
832.96740892019989
 21
-250.71795760200001
 31
0.0
  0
LINE
  5
DF
  8
0
 62
     0
 10
832.96740892019989
 20
-258.26795760200002
 30
0.0
 11
832.96740892019989
 21
-258.26795760200002
 31
0.0
  0
LINE
  5
E0
  8
0
 62
     0
 10
832.96740892019989
 20
-258.26795760200002
 30
0.0
 11
832.96740892019989
 21
-255.267957602
 31
0.0
  0
SOLID
  5
E1
  8
0
 62
     0
 10
832.96740892019989
 20
-258.26795760200002
 30
0.0
 11
832.2174089202
 21
-255.267957602
 31
0.0
 12
833.71740892019989
 22
-255.267957602
 32
0.0
 13
832.96740892019989
 23
-256.01795760200002
 33
0.0
  0
LINE
  5
E2
  8
0
 62
     0
 10
832.96740892019989
 20
-250.71795760200001
 30
0.0
 11
832.96740892019989
 21
-253.71795760200001
 31
0.0
  0
SOLID
  5
E3
  8
0
 62
     0
 10
832.96740892019989
 20
-250.71795760200001
 30
0.0
 11
833.71740892019989
 21
-253.71795760200001
 31
0.0
 12
832.2174089202
 22
-253.71795760200001
 32
0.0
 13
832.96740892019989
 23
-252.96795760200001
 33
0.0
  0
ENDBLK
  5
E4
  8
0
  0
BLOCK
  8
0
  2
*D6
 70
     1
 10
0.0
 20
0.0
 30
0.0
  3
*D6
  1

  0
TEXT
  5
E8
  8
0
 62
     0
 10
886.50751221849998
 20
-254.1068464379
 30
0.0
 40
2.9986110209999999
  1
12
 50
90.0
  0
LINE
  5
E9
  8
0
 62
     0
 10
869.08444349570004
 20
-258.26795760200002
 30
0.0
 11
888.53667886920005
 21
-258.26795760200002
 31
0.0
  0
LINE
  5
EA
  8
0
 62
     0
 10
853.78444349570009
 20
-246.417957602
 30
0.0
 11
888.53667886920005
 21
-246.417957602
 31
0.0
  0
LINE
  5
EB
  8
0
 62
     0
 10
888.03667886919993
 20
-258.26795760200002
 30
0.0
 11
888.03667886919993
 21
-248.8151799302
 31
0.0
  0
LINE
  5
EC
  8
0
 62
     0
 10
888.03667886919993
 20
-258.26795760200002
 30
0.0
 11
888.03667886919993
 21
-255.87073527379999
 31
0.0
  0
LINE
  5
ED
  8
0
 62
     0
 10
888.03667886919993
 20
-246.417957602
 30
0.0
 11
888.03667886919993
 21
-248.8151799302
 31
0.0
  0
LINE
  5
EE
  8
0
 62
     0
 10
888.03667886919993
 20
-246.417957602
 30
0.0
 11
888.03667886919993
 21
-255.87073527379999
 31
0.0
  0
LINE
  5
EF
  8
0
 62
     0
 10
888.03667886919993
 20
-246.417957602
 30
0.0
 11
888.03667886919993
 21
-243.417957602
 31
0.0
  0
SOLID
  5
F0
  8
0
 62
     0
 10
888.03667886919993
 20
-246.417957602
 30
0.0
 11
887.28667886919982
 21
-243.417957602
 31
0.0
 12
888.78667886919993
 22
-243.417957602
 32
0.0
 13
888.03667886919993
 23
-244.167957602
 33
0.0
  0
LINE
  5
F1
  8
0
 62
     0
 10
888.03667886919993
 20
-258.26795760200002
 30
0.0
 11
888.03667886919993
 21
-261.26795760200002
 31
0.0
  0
SOLID
  5
F2
  8
0
 62
     0
 10
888.03667886919993
 20
-258.26795760200002
 30
0.0
 11
888.78667886919993
 21
-261.26795760200002
 31
0.0
 12
887.28667886919982
 22
-261.26795760200002
 32
0.0
 13
888.03667886919993
 23
-260.51795760200002
 33
0.0
  0
ENDBLK
  5
F3
  8
0
  0
BLOCK
  8
0
  2
*D7
 70
     1
 10
0.0
 20
0.0
 30
0.0
  3
*D7
  1

  0
TEXT
  5
F7
  8
0
 62
     0
 10
879.71150917289992
 20
-254.26778824499999
 30
0.0
 40
2.9986110209999999
  1
2.2
 50
90.0
  0
LINE
  5
F8
  8
0
 62
     0
 10
869.08444349570004
 20
-258.26795760200002
 30
0.0
 11
881.74067582359999
 21
-258.26795760200002
 31
0.0
  0
LINE
  5
F9
  8
0
 62
     0
 10
869.08444349570004
 20
-255.96795760200001
 30
0.0
 11
881.74067582359999
 21
-255.96795760200001
 31
0.0
  0
LINE
  5
FA
  8
0
 62
     0
 10
881.24067582359987
 20
-258.26795760200002
 30
0.0
 11
881.24067582359987
 21
-247.2122329014
 31
0.0
  0
LINE
  5
FB
  8
0
 62
     0
 10
881.24067582359987
 20
-258.26795760200002
 30
0.0
 11
881.24067582359987
 21
-256.03167708090001
 31
0.0
  0
LINE
  5
FC
  8
0
 62
     0
 10
881.24067582359987
 20
-255.96795760200001
 30
0.0
 11
881.24067582359987
 21
-247.2122329014
 31
0.0
  0
LINE
  5
FD
  8
0
 62
     0
 10
881.24067582359987
 20
-255.96795760200001
 30
0.0
 11
881.24067582359987
 21
-256.03167708090001
 31
0.0
  0
LINE
  5
FE
  8
0
 62
     0
 10
881.24067582359987
 20
-255.96795760200001
 30
0.0
 11
881.24067582359987
 21
-252.96795760200001
 31
0.0
  0
SOLID
  5
FF
  8
0
 62
     0
 10
881.24067582359987
 20
-255.96795760200001
 30
0.0
 11
880.49067582359987
 21
-252.96795760200001
 31
0.0
 12
881.99067582359987
 22
-252.96795760200001
 32
0.0
 13
881.24067582359987
 23
-253.71795760200001
 33
0.0
  0
LINE
  5
100
  8
0
 62
     0
 10
881.24067582359987
 20
-258.26795760200002
 30
0.0
 11
881.24067582359987
 21
-261.26795760200002
 31
0.0
  0
SOLID
  5
101
  8
0
 62
     0
 10
881.24067582359987
 20
-258.26795760200002
 30
0.0
 11
881.99067582359987
 21
-261.26795760200002
 31
0.0
 12
880.49067582359987
 22
-261.26795760200002
 32
0.0
 13
881.24067582359987
 23
-260.51795760200002
 33
0.0
  0
ENDBLK
  5
102
  8
0
  0
BLOCK
  8
0
  2
CLUMP0
 70
     0
 10
0.0
 20
0.0
 30
0.0
  3
CLUMP0
  1

  0
ARC
  5
167
  8
ﾚｲﾔ_1
 62
     5
 10
762.8282872794
 20
-195.53302515760001
 30
0.0
 40
1.6000000000000001
 50
180.00000138669989
 51
0.000001524
  0
ARC
  5
168
  8
ﾚｲﾔ_1
 62
     5
 10
762.8282872794
 20
-191.53302515760001
 30
0.0
 40
1.6000000000000001
 50
0.000001524
 51
180.00000138669989
  0
LINE
  5
169
  8
ﾚｲﾔ_1
 62
     5
 10
764.42828727940002
 20
-191.53302515760001
 30
0.0
 11
764.42828727940002
 21
-195.53302515760001
 31
0.0
  0
LINE
  5
16A
  8
ﾚｲﾔ_1
 62
     5
 10
761.22828727939998
 20
-191.53302515760001
 30
0.0
 11
761.22828727939998
 21
-195.53302515760001
 31
0.0
  0
ENDBLK
  5
16B
  8
0
  0
BLOCK
  8
0
  2
*D9
 70
     1
 10
0.0
 20
0.0
 30
0.0
  3
*D9
  1

  0
TEXT
  5
176
  8
0
 62
     0
 10
771.55732778949994
 20
-171.40119316900001
 30
0.0
 40
2.9986110209999999
  1
24.5
  0
LINE
  5
177
  8
0
 62
     0
 10
787.33510546130003
 20
-186.93302515760001
 30
0.0
 11
787.33510546130003
 21
-172.4303598198
 31
0.0
  0
LINE
  5
178
  8
0
 62
     0
 10
762.83510546130003
 20
-186.93302515760001
 30
0.0
 11
762.83510546130003
 21
-172.4303598198
 31
0.0
  0
LINE
  5
179
  8
0
 62
     0
 10
787.33510546130003
 20
-172.9303598198
 30
0.0
 11
780.37677196899995
 21
-172.9303598198
 31
0.0
  0
LINE
  5
17A
  8
0
 62
     0
 10
787.33510546130003
 20
-172.9303598198
 30
0.0
 11
769.79343895349996
 21
-172.9303598198
 31
0.0
  0
LINE
  5
17B
  8
0
 62
     0
 10
762.83510546130003
 20
-172.9303598198
 30
0.0
 11
780.37677196899995
 21
-172.9303598198
 31
0.0
  0
LINE
  5
17C
  8
0
 62
     0
 10
762.83510546130003
 20
-172.9303598198
 30
0.0
 11
769.79343895349996
 21
-172.9303598198
 31
0.0
  0
LINE
  5
17D
  8
0
 62
     0
 10
762.83510546130003
 20
-172.9303598198
 30
0.0
 11
765.83510546130003
 21
-172.9303598198
 31
0.0
  0
SOLID
  5
17E
  8
0
 62
     0
 10
762.83510546130003
 20
-172.9303598198
 30
0.0
 11
765.83510546130003
 21
-172.1803598198
 31
0.0
 12
765.83510546130003
 22
-173.6803598198
 32
0.0
 13
765.08510546130003
 23
-172.9303598198
 33
0.0
  0
LINE
  5
17F
  8
0
 62
     0
 10
787.33510546130003
 20
-172.9303598198
 30
0.0
 11
784.33510546130003
 21
-172.9303598198
 31
0.0
  0
SOLID
  5
180
  8
0
 62
     0
 10
787.33510546130003
 20
-172.9303598198
 30
0.0
 11
784.33510546130003
 21
-173.6803598198
 31
0.0
 12
784.33510546130003
 22
-172.1803598198
 32
0.0
 13
785.08510546130003
 23
-172.9303598198
 33
0.0
  0
ENDBLK
  5
181
  8
0
  0
BLOCK
  8
0
  2
*D10
 70
     1
 10
0.0
 20
0.0
 30
0.0
  3
*D10
  1

  0
TEXT
  5
185
  8
0
 62
     0
 10
771.55732778949994
 20
-165.3639585876
 30
0.0
 40
2.9986110209999999
  1
31.5
  0
LINE
  5
186
  8
0
 62
     0
 10
790.83510546130003
 20
-188.63190872999999
 30
0.0
 11
790.83510546130003
 21
-166.3931252383
 31
0.0
  0
LINE
  5
187
  8
0
 62
     0
 10
759.33510546130003
 20
-188.63190872999999
 30
0.0
 11
759.33510546130003
 21
-166.3931252383
 31
0.0
  0
LINE
  5
188
  8
0
 62
     0
 10
790.83510546130003
 20
-166.8931252383
 30
0.0
 11
780.37677196899995
 21
-166.8931252383
 31
0.0
  0
LINE
  5
189
  8
0
 62
     0
 10
790.83510546130003
 20
-166.8931252383
 30
0.0
 11
769.79343895349996
 21
-166.8931252383
 31
0.0
  0
LINE
  5
18A
  8
0
 62
     0
 10
759.33510546130003
 20
-166.8931252383
 30
0.0
 11
780.37677196899995
 21
-166.8931252383
 31
0.0
  0
LINE
  5
18B
  8
0
 62
     0
 10
759.33510546130003
 20
-166.8931252383
 30
0.0
 11
769.79343895349996
 21
-166.8931252383
 31
0.0
  0
LINE
  5
18C
  8
0
 62
     0
 10
759.33510546130003
 20
-166.8931252383
 30
0.0
 11
762.33510546130003
 21
-166.8931252383
 31
0.0
  0
SOLID
  5
18D
  8
0
 62
     0
 10
759.33510546130003
 20
-166.8931252383
 30
0.0
 11
762.33510546130003
 21
-166.1431252383
 31
0.0
 12
762.33510546130003
 22
-167.6431252383
 32
0.0
 13
761.58510546130003
 23
-166.8931252383
 33
0.0
  0
LINE
  5
18E
  8
0
 62
     0
 10
790.83510546130003
 20
-166.8931252383
 30
0.0
 11
787.83510546130003
 21
-166.8931252383
 31
0.0
  0
SOLID
  5
18F
  8
0
 62
     0
 10
790.83510546130003
 20
-166.8931252383
 30
0.0
 11
787.83510546130003
 21
-167.6431252383
 31
0.0
 12
787.83510546130003
 22
-166.1431252383
 32
0.0
 13
788.58510546130003
 23
-166.8931252383
 33
0.0
  0
ENDBLK
  5
190
  8
0
  0
BLOCK
  8
0
  2
*D11
 70
     1
 10
0.0
 20
0.0
 30
0.0
  3
*D11
  1

  0
TEXT
  5
194
  8
0
 62
     0
 10
780.45838597049988
 20
-177.51906200799999
 30
0.0
 40
2.9986110209999999
  1
3
  0
LINE
  5
195
  8
0
 62
     0
 10
788.93510546130005
 20
-190.5330251963
 30
0.0
 11
788.93510546130005
 21
-178.54822865880001
 31
0.0
  0
LINE
  5
196
  8
0
 62
     0
 10
785.7351054612999
 20
-190.53302511499999
 30
0.0
 11
785.7351054612999
 21
-178.54822865880001
 31
0.0
  0
LINE
  5
197
  8
0
 62
     0
 10
788.93510546130005
 20
-179.04822865880001
 30
0.0
 11
783.98616364240002
 21
-179.04822865880001
 31
0.0
  0
LINE
  5
198
  8
0
 62
     0
 10
788.93510546130005
 20
-179.04822865880001
 30
0.0
 11
778.69449713460006
 21
-179.04822865880001
 31
0.0
  0
LINE
  5
199
  8
0
 62
     0
 10
785.7351054612999
 20
-179.04822865880001
 30
0.0
 11
783.98616364240002
 21
-179.04822865880001
 31
0.0
  0
LINE
  5
19A
  8
0
 62
     0
 10
785.7351054612999
 20
-179.04822865880001
 30
0.0
 11
778.69449713460006
 21
-179.04822865880001
 31
0.0
  0
LINE
  5
19B
  8
0
 62
     0
 10
785.7351054612999
 20
-179.04822865880001
 30
0.0
 11
782.73510546130001
 21
-179.04822865880001
 31
0.0
  0
SOLID
  5
19C
  8
0
 62
     0
 10
785.7351054612999
 20
-179.04822865880001
 30
0.0
 11
782.73510546130001
 21
-179.79822865880001
 31
0.0
 12
782.73510546130001
 22
-178.29822865880001
 32
0.0
 13
783.4851054612999
 23
-179.04822865880001
 33
0.0
  0
LINE
  5
19D
  8
0
 62
     0
 10
788.93510546130005
 20
-179.04822865880001
 30
0.0
 11
791.93510546130005
 21
-179.04822865880001
 31
0.0
  0
SOLID
  5
19E
  8
0
 62
     0
 10
788.93510546130005
 20
-179.04822865880001
 30
0.0
 11
791.93510546130005
 21
-178.29822865880001
 31
0.0
 12
791.93510546130005
 22
-179.79822865880001
 32
0.0
 13
791.18510546130005
 23
-179.04822865880001
 33
0.0
  0
ENDBLK
  5
19F
  8
0
  0
BLOCK
  8
0
  2
CLUMP1
 70
     0
 10
0.0
 20
0.0
 30
0.0
  3
CLUMP1
  1

  0
ARC
  5
1B8
  8
ﾚｲﾔ_1
 62
     5
 10
787.33510546130003
 20
-195.53302515760001
 30
0.0
 40
1.6000000000000001
 50
179.99999847599989
 51
359.99999861330002
  0
ARC
  5
1B9
  8
ﾚｲﾔ_1
 62
     5
 10
787.33510546130003
 20
-191.53302515760001
 30
0.0
 40
1.6000000000000001
 50
359.99999861330002
 51
179.99999847599989
  0
LINE
  5
1BA
  8
ﾚｲﾔ_1
 62
     5
 10
785.7351054612999
 20
-191.53302515760001
 30
0.0
 11
785.7351054612999
 21
-195.53302515760001
 31
0.0
  0
LINE
  5
1BB
  8
ﾚｲﾔ_1
 62
     5
 10
788.93510546130005
 20
-191.53302515760001
 30
0.0
 11
788.93510546130005
 21
-195.53302515760001
 31
0.0
  0
ENDBLK
  5
1BC
  8
0
  0
BLOCK
  8
0
  2
*D13
 70
     1
 10
0.0
 20
0.0
 30
0.0
  3
*D13
  1

  0
TEXT
  5
1C4
  8
0
 62
     0
 10
805.58657560850008
 20
-194.94579973809999
 30
0.0
 40
2.9986110209999999
  1
14
 50
90.0
  0
LINE
  5
1C5
  8
0
 62
     0
 10
788.49943759789994
 20
-200.2319130743
 30
0.0
 11
807.61574225929985
 21
-200.2319130743
 31
0.0
  0
LINE
  5
1C6
  8
0
 62
     0
 10
788.33510546130003
 20
-186.13190872999999
 30
0.0
 11
807.61574225929985
 21
-186.13190872999999
 31
0.0
  0
LINE
  5
1C7
  8
0
 62
     0
 10
807.11574225929996
 20
-200.2319130743
 30
0.0
 11
807.11574225929996
 21
-189.6541332303
 31
0.0
  0
LINE
  5
1C8
  8
0
 62
     0
 10
807.11574225929996
 20
-200.2319130743
 30
0.0
 11
807.11574225929996
 21
-196.70968857400001
 31
0.0
  0
LINE
  5
1C9
  8
0
 62
     0
 10
807.11574225929996
 20
-186.13190872999999
 30
0.0
 11
807.11574225929996
 21
-189.6541332303
 31
0.0
  0
LINE
  5
1CA
  8
0
 62
     0
 10
807.11574225929996
 20
-186.13190872999999
 30
0.0
 11
807.11574225929996
 21
-196.70968857400001
 31
0.0
  0
LINE
  5
1CB
  8
0
 62
     0
 10
807.11574225929996
 20
-186.13190872999999
 30
0.0
 11
807.11574225929996
 21
-189.13190872999999
 31
0.0
  0
SOLID
  5
1CC
  8
0
 62
     0
 10
807.11574225929996
 20
-186.13190872999999
 30
0.0
 11
807.86574225929996
 21
-189.13190872999999
 31
0.0
 12
806.36574225929985
 22
-189.13190872999999
 32
0.0
 13
807.11574225929996
 23
-188.38190872999999
 33
0.0
  0
LINE
  5
1CD
  8
0
 62
     0
 10
807.11574225929996
 20
-200.2319130743
 30
0.0
 11
807.11574225929996
 21
-197.2319130743
 31
0.0
  0
SOLID
  5
1CE
  8
0
 62
     0
 10
807.11574225929996
 20
-200.2319130743
 30
0.0
 11
806.36574225929985
 21
-197.2319130743
 31
0.0
 12
807.86574225929996
 22
-197.2319130743
 32
0.0
 13
807.11574225929996
 23
-197.9819130743
 33
0.0
  0
ENDBLK
  5
1CF
  8
0
  0
BLOCK
  8
0
  2
*D14
 70
     1
 10
0.0
 20
0.0
 30
0.0
  3
*D14
  1

  0
TEXT
  5
1D3
  8
0
 62
     0
 10
813.42820886410004
 20
-202.0096864018
 30
0.0
 40
2.9986110209999999
  1
24.5
 50
90.0
  0
LINE
  5
1D4
  8
0
 62
     0
 10
781.03510546130008
 20
-210.83190873000001
 30
0.0
 11
815.45737551490004
 21
-210.83190873000001
 31
0.0
  0
LINE
  5
1D5
  8
0
 62
     0
 10
788.33510546130003
 20
-186.13190872999999
 30
0.0
 11
815.45737551490004
 21
-186.13190872999999
 31
0.0
  0
LINE
  5
1D6
  8
0
 62
     0
 10
814.95737551490015
 20
-210.83190873000001
 30
0.0
 11
814.95737551490015
 21
-193.19024222229999
 31
0.0
  0
LINE
  5
1D7
  8
0
 62
     0
 10
814.95737551490015
 20
-210.83190873000001
 30
0.0
 11
814.95737551490015
 21
-203.77357523769999
 31
0.0
  0
LINE
  5
1D8
  8
0
 62
     0
 10
814.95737551490015
 20
-186.13190872999999
 30
0.0
 11
814.95737551490015
 21
-193.19024222229999
 31
0.0
  0
LINE
  5
1D9
  8
0
 62
     0
 10
814.95737551490015
 20
-186.13190872999999
 30
0.0
 11
814.95737551490015
 21
-203.77357523769999
 31
0.0
  0
LINE
  5
1DA
  8
0
 62
     0
 10
814.95737551490015
 20
-186.13190872999999
 30
0.0
 11
814.95737551490015
 21
-189.13190872999999
 31
0.0
  0
SOLID
  5
1DB
  8
0
 62
     0
 10
814.95737551490015
 20
-186.13190872999999
 30
0.0
 11
815.70737551489992
 21
-189.13190872999999
 31
0.0
 12
814.20737551490015
 22
-189.13190872999999
 32
0.0
 13
814.95737551490015
 23
-188.38190872999999
 33
0.0
  0
LINE
  5
1DC
  8
0
 62
     0
 10
814.95737551490015
 20
-210.83190873000001
 30
0.0
 11
814.95737551490015
 21
-207.83190873000001
 31
0.0
  0
SOLID
  5
1DD
  8
0
 62
     0
 10
814.95737551490015
 20
-210.83190873000001
 30
0.0
 11
814.20737551490015
 21
-207.83190873000001
 31
0.0
 12
815.70737551489992
 22
-207.83190873000001
 32
0.0
 13
814.95737551490015
 23
-208.58190873000001
 33
0.0
  0
ENDBLK
  5
1DE
  8
0
  0
BLOCK
  8
0
  2
*D15
 70
     1
 10
0.0
 20
0.0
 30
0.0
  3
*D15
  1

  0
TEXT
  5
1E2
  8
0
 62
     0
 10
799.07279770259993
 20
-194.41496957550001
 30
0.0
 40
2.9986110209999999
  1
7
 50
90.0
  0
LINE
  5
1E3
  8
0
 62
     0
 10
788.33510546130003
 20
-197.1330251576
 30
0.0
 11
801.10196435339981
 21
-197.1330251576
 31
0.0
  0
LINE
  5
1E4
  8
0
 62
     0
 10
788.33510546130003
 20
-189.93302515760001
 30
0.0
 11
801.10196435339981
 21
-189.93302515760001
 31
0.0
  0
LINE
  5
1E5
  8
0
 62
     0
 10
800.60196435339992
 20
-197.1330251576
 30
0.0
 11
800.60196435339992
 21
-190.8871919037
 31
0.0
  0
LINE
  5
1E6
  8
0
 62
     0
 10
800.60196435339992
 20
-197.1330251576
 30
0.0
 11
800.60196435339992
 21
-196.1788584114
 31
0.0
  0
LINE
  5
1E7
  8
0
 62
     0
 10
800.60196435339992
 20
-189.93302515760001
 30
0.0
 11
800.60196435339992
 21
-190.8871919037
 31
0.0
  0
LINE
  5
1E8
  8
0
 62
     0
 10
800.60196435339992
 20
-189.93302515760001
 30
0.0
 11
800.60196435339992
 21
-196.1788584114
 31
0.0
  0
LINE
  5
1E9
  8
0
 62
     0
 10
800.60196435339992
 20
-189.93302515760001
 30
0.0
 11
800.60196435339992
 21
-186.93302515760001
 31
0.0
  0
SOLID
  5
1EA
  8
0
 62
     0
 10
800.60196435339992
 20
-189.93302515760001
 30
0.0
 11
799.85196435339992
 21
-186.93302515760001
 31
0.0
 12
801.35196435339992
 22
-186.93302515760001
 32
0.0
 13
800.60196435339992
 23
-187.68302515760001
 33
0.0
  0
LINE
  5
1EB
  8
0
 62
     0
 10
800.60196435339992
 20
-197.1330251576
 30
0.0
 11
800.60196435339992
 21
-200.1330251576
 31
0.0
  0
SOLID
  5
1EC
  8
0
 62
     0
 10
800.60196435339992
 20
-197.1330251576
 30
0.0
 11
801.35196435339992
 21
-200.1330251576
 31
0.0
 12
799.85196435339992
 22
-200.1330251576
 32
0.0
 13
800.60196435339992
 23
-199.3830251576
 33
0.0
  0
ENDBLK
  5
1ED
  8
0
  0
BLOCK
  8
0
  2
*D16
 70
     1
 10
0.0
 20
0.0
 30
0.0
  3
*D16
  1

  0
TEXT
  5
220
  8
0
 62
     0
 10
884.8657164803999
 20
-201.9980552044
 30
0.0
 40
2.9986110209999999
  1
2-%%c3
  0
LINE
  5
221
  8
0
 62
     0
 10
895.984015011
 20
-202.52722185510001
 30
0.0
 11
881.33793880860003
 21
-202.52722185510001
 31
0.0
  0
LINE
  5
222
  8
0
 62
     0
 10
907.43796398559994
 20
-191.0732728804999
 30
0.0
 11
895.984015011
 21
-202.52722185510001
 31
0.0
  0
SOLID
  5
223
  8
0
 62
     0
 10
907.43796398559994
 20
-191.0732728804999
 30
0.0
 11
905.84697372789992
 21
-193.72492331000001
 31
0.0
 12
904.78631355610003
 22
-192.6642631382
 32
0.0
 13
905.84697372789992
 23
-192.6642631382
 33
0.0
  0
ENDBLK
  5
224
  8
0
  0
BLOCK
  8
0
  2
*U17
 70
     1
 10
0.0
 20
0.0
 30
0.0
  3
*U17
  1

  0
TEXT
  5
257
  8
図枠
  6
CONTINUOUS
 10
954.50301165092787
 20
-129.60359435229239
 30
0.0
 40
2.698480084499999
  1
改訂者
  0
ENDBLK
  5
259
  8
0
  0
BLOCK
  8
0
  2
*U18
 70
     1
 10
0.0
 20
0.0
 30
0.0
  3
*U18
  1

  0
TEXT
  5
25B
  8
図枠
  6
CONTINUOUS
 10
964.46091804558023
 20
-129.6172922207416
 30
0.0
 40
2.698480084499999
  1
検認者
  0
ENDBLK
  5
25D
  8
0
  0
BLOCK
  8
0
  2
*U19
 70
     1
 10
0.0
 20
0.0
 30
0.0
  3
*U19
  1

  0
TEXT
  5
25F
  8
図枠
  6
CONTINUOUS
 10
917.43791153112068
 20
-129.60359435229239
 30
0.0
 40
2.698480084499999
  1
改　訂　内　容
  0
ENDBLK
  5
261
  8
0
  0
BLOCK
  8
0
  2
*U20
 70
     1
 10
0.0
 20
0.0
 30
0.0
  3
*U20
  1

  0
TEXT
  5
263
  8
図枠
  6
CONTINUOUS
 10
939.89922512062014
 20
-295.91115886482129
 30
0.0
 40
2.9983111599000001
  1
ＳＰキャッチ
  0
ENDBLK
  5
265
  8
0
  0
BLOCK
  8
0
  2
*U21
 70
     1
 10
0.0
 20
0.0
 30
0.0
  3
*U21
  1

  0
TEXT
  5
267
  8
図枠
  6
CONTINUOUS
 10
918.73098634429095
 20
-293.2926362901527
 30
0.0
 40
2.337266249999999
  1
製品名
  0
ENDBLK
  5
269
  8
0
  0
BLOCK
  8
0
  2
*U22
 70
     1
 10
0.0
 20
0.0
 30
0.0
  3
*U22
  1

  0
TEXT
  5
26B
  8
図枠
  6
CONTINUOUS
 10
918.78437567487458
 20
-310.2434791074117
 30
0.0
 40
2.337266249999999
  1
図　番
  0
ENDBLK
  5
26D
  8
0
  0
BLOCK
  8
0
  2
*U23
 70
     1
 10
0.0
 20
0.0
 30
0.0
  3
*U23
  1

  0
TEXT
  5
26F
  8
図枠
  6
CONTINUOUS
 10
918.79623997056001
 20
-301.76805769878229
 30
0.0
 40
2.337266249999999
  1
図面名
  0
ENDBLK
  5
271
  8
0
  0
BLOCK
  8
0
  2
*U24
 70
     1
 10
0.0
 20
0.0
 30
0.0
  3
*U24
  1

  0
TEXT
  5
273
  8
図枠
  6
CONTINUOUS
 10
935.75942494045375
 20
-312.81813974320011
 30
0.0
 40
2.9983111599000001
  1
ＳＦＣ０００４８
  0
ENDBLK
  5
275
  8
0
  0
BLOCK
  8
0
  2
*U25
 70
     1
 10
0.0
 20
0.0
 30
0.0
  3
*U25
  1

  0
TEXT
  5
277
  8
図枠
  6
CONTINUOUS
 10
942.87470650011483
 20
-304.41030886482127
 30
0.0
 40
2.9983111599000001
  1
中 承認図
  0
ENDBLK
  5
279
  8
0
  0
BLOCK
  8
0
  2
*U26
 70
     1
 10
0.0
 20
0.0
 30
0.0
  3
*U26
  1

  0
TEXT
  5
27B
  8
ﾚｲﾔ_1
  6
CONTINUOUS
 10
868.67281755369982
 20
-166.4545861944523
 30
0.0
 40
2.9986110209999999
  1
受板(ストライク)
  0
ENDBLK
  5
27D
  8
0
  0
BLOCK
  8
0
  2
*U27
 70
     1
 10
0.0
 20
0.0
 30
0.0
  3
*U27
  1

  0
TEXT
  5
27F
  8
図枠
  6
CONTINUOUS
 10
881.13370906216267
 20
-129.54880287849539
 30
0.0
 40
2.698480084499999
  1
副番
  0
ENDBLK
  5
281
  8
0
  0
BLOCK
  8
0
  2
*U28
 70
     1
 10
0.0
 20
0.0
 30
0.0
  3
*U28
  1

  0
TEXT
  5
283
  8
ﾚｲﾔ_1
  6
CONTINUOUS
 10
858.66671741399978
 20
-288.37485538369441
 30
0.0
 40
3.5983331442000002
  1
材質：ジュラコン
  0
ENDBLK
  5
285
  8
0
  0
BLOCK
  8
0
  2
*U29
 70
     1
 10
0.0
 20
0.0
 30
0.0
  3
*U29
  1

  0
TEXT
  5
287
  8
図枠
  6
CONTINUOUS
 10
862.7329653042998
 20
-313.6202219575066
 30
0.0
 40
4.3175681352000002
  1
株式会社
  0
ENDBLK
  5
289
  8
0
  0
BLOCK
  8
0
  2
*U30
 70
     1
 10
0.0
 20
0.0
 30
0.0
  3
*U30
  1

  0
TEXT
  5
28B
  8
図枠
  6
CONTINUOUS
 10
858.51283363490006
 20
-301.97357055278218
 30
0.0
 40
2.337266249999999
  1
 設計
  0
ENDBLK
  5
28D
  8
0
  0
BLOCK
  8
0
  2
*U31
 70
     1
 10
0.0
 20
0.0
 30
0.0
  3
*U31
  1

  0
TEXT
  5
28F
  8
図枠
  6
CONTINUOUS
 10
883.33106856827567
 20
-293.49814914415271
 30
0.0
 40
2.337266249999999
  1
尺 　度
  0
ENDBLK
  5
291
  8
0
  0
BLOCK
  8
0
  2
*U32
 70
     1
 10
0.0
 20
0.0
 30
0.0
  3
*U32
  1

  0
TEXT
  5
293
  8
図枠
  6
CONTINUOUS
 10
888.50983363490013
 20
-301.98543484846749
 30
0.0
 40
2.337266249999999
  1
 照査
  0
ENDBLK
  5
295
  8
0
  0
BLOCK
  8
0
  2
*U33
 70
     1
 10
0.0
 20
0.0
 30
0.0
  3
*U33
  1

  0
TEXT
  5
297
  8
図枠
  6
CONTINUOUS
 10
863.58221877766664
 20
-293.42696337004111
 30
0.0
 40
2.337266249999999
  1
日 　付
  0
ENDBLK
  5
299
  8
0
  0
BLOCK
  8
0
  2
*U34
 70
     1
 10
0.0
 20
0.0
 30
0.0
  3
*U34
  1

  0
TEXT
  5
29B
  8
図枠
  6
CONTINUOUS
 10
873.89232345088988
 20
-306.27060273552331
 30
0.0
 40
2.337266249999999
  1
岸 本
  0
ENDBLK
  5
29D
  8
0
  0
BLOCK
  8
0
  2
*U35
 70
     1
 10
0.0
 20
0.0
 30
0.0
  3
*U35
  1

  0
TEXT
  5
29F
  8
図枠
  6
CONTINUOUS
 10
873.1923300054583
 20
-302.00916343983812
 30
0.0
 40
2.337266249999999
  1
白須賀
  0
ENDBLK
  5
2A1
  8
0
  0
BLOCK
  8
0
  2
*U36
 70
     1
 10
0.0
 20
0.0
 30
0.0
  3
*U36
  1

  0
TEXT
  5
2A3
  8
図枠
  6
CONTINUOUS
 10
859.91415287982375
 20
-306.2468741441528
 30
0.0
 40
2.337266249999999
  1
製図
  0
ENDBLK
  5
2A5
  8
0
  0
BLOCK
  8
0
  2
*U37
 70
     1
 10
0.0
 20
0.0
 30
0.0
  3
*U37
  1

  0
TEXT
  5
2A7
  8
図枠
  6
CONTINUOUS
 10
864.69746257208283
 20
-297.62908118730002
 30
0.0
 40
2.337266249999999
  1
H16.4
  0
ENDBLK
  5
2A9
  8
0
  0
BLOCK
  8
0
  2
*U38
 70
     1
 10
0.0
 20
0.0
 30
0.0
  3
*U38
  1

  0
TEXT
  5
2AB
  8
図枠
  6
CONTINUOUS
 10
885.62087763553461
 20
-297.62908118730002
 30
0.0
 40
2.337266249999999
  1
1：1
  0
ENDBLK
  5
2AD
  8
0
  0
BLOCK
  8
0
  2
*U39
 70
     1
 10
0.0
 20
0.0
 30
0.0
  3
*U39
  1

  0
TEXT
  5
2AF
  8
図枠
  6
CONTINUOUS
 10
888.50983363490013
 20
-306.258738439838
 30
0.0
 40
2.337266249999999
  1
 検図
  0
ENDBLK
  5
2B1
  8
0
  0
BLOCK
  8
0
  2
*U40
 70
     1
 10
0.0
 20
0.0
 30
0.0
  3
*U40
  1

  0
TEXT
  5
2B3
  8
図枠
  6
CONTINUOUS
 10
891.36548403221093
 20
-129.57619861539391
 30
0.0
 40
2.698480084499999
  1
改訂日
  0
ENDBLK
  5
2B5
  8
0
  0
BLOCK
  8
0
  2
*U41
 70
     1
 10
0.0
 20
0.0
 30
0.0
  3
*U41
  1

  0
TEXT
  5
2B7
  8
図枠
  6
CONTINUOUS
 10
903.90118774657515
 20
-301.93797766572641
 30
0.0
 40
2.337266249999999
  1
園 原
  0
ENDBLK
  5
2B9
  8
0
  0
BLOCK
  8
0
  2
*U42
 70
     1
 10
0.0
 20
0.0
 30
0.0
  3
*U42
  1

  0
TEXT
  5
2BB
  8
図枠
  6
CONTINUOUS
 10
903.90118774657515
 20
-306.1875526657264
 30
0.0
 40
2.337266249999999
  1
園 原
  0
ENDBLK
  5
2BD
  8
0
  0
ENDSEC
  0
SECTION
  2
ENTITIES
  0
LINE
  5
2F
  8
ﾚｲﾔ_1
 62
     5
 10
934.84862415729992
 20
-194.56261270869999
 30
0.0
 11
905.94862415729995
 21
-194.56261270869999
 31
0.0
  0
LINE
  5
30
  8
ﾚｲﾔ_1
  6
BORDER
 62
     3
 10
920.39862415729999
 20
-196.56261270869999
 30
0.0
 11
920.39862415729999
 21
-183.46261270869999
 31
0.0
  0
LINE
  5
31
  8
ﾚｲﾔ_1
  6
BORDER
 62
     3
 10
932.29862415729997
 20
-186.02877192189999
 30
0.0
 11
932.29862415729997
 21
-193.99645349560001
 31
0.0
  0
INSERT
  5
33
  8
0
  6
CONTINUOUS
  2
*U17
 10
0.0
 20
0.0
 30
0.0
  0
INSERT
  5
34
  8
0
  6
CONTINUOUS
  2
*U18
 10
0.0
 20
0.0
 30
0.0
  0
INSERT
  5
35
  8
0
  6
CONTINUOUS
  2
*U19
 10
0.0
 20
0.0
 30
0.0
  0
ARC
  5
36
  8
ﾚｲﾔ_1
 62
     5
 10
934.84862415729992
 20
-186.96261270869999
 30
0.0
 40
1.5
 50
0.0
 51
90.0
  0
LINE
  5
37
  8
ﾚｲﾔ_1
 62
     5
 10
923.72432269619981
 20
-194.56261270869999
 30
0.0
 11
923.72432269619981
 21
-185.46261270869999
 31
0.0
  0
LINE
  5
38
  8
ﾚｲﾔ_1
 62
     5
 10
917.07292561850011
 20
-194.56261270869999
 30
0.0
 11
917.07292561850011
 21
-185.46166084599989
 31
0.0
  0
LINE
  5
39
  8
ﾚｲﾔ_1
  6
BORDER
 62
     3
 10
908.49862415729979
 20
-186.02877192189999
 30
0.0
 11
908.49862415729979
 21
-193.99645349560001
 31
0.0
  0
LINE
  5
3A
  8
ﾚｲﾔ_1
 62
     5
 10
921.69766226299987
 20
-205.5813418194
 30
0.0
 11
923.45637350369987
 21
-208.62751904410001
 31
0.0
  0
ARC
  5
3B
  8
ﾚｲﾔ_1
 62
     5
 10
921.72432269619992
 20
-209.62751904410001
 30
0.0
 40
2.0
 50
315.0
 51
30.0
  0
LINE
  5
3C
  8
ﾚｲﾔ_1
 62
     5
 10
921.69862415729995
 20
-218.03134181940001
 30
0.0
 11
921.69862415729995
 21
-212.4316447077
 31
0.0
  0
ARC
  5
3D
  8
ﾚｲﾔ_1
 62
     5
 10
920.39862415729999
 20
-206.3313418194
 30
0.0
 40
1.5
 50
30.0
 51
150.0
  0
LINE
  5
3E
  8
ﾚｲﾔ_1
 62
     5
 10
919.09862415729981
 20
-212.4316447077
 30
0.0
 11
917.7087120560999
 21
-211.04173260650001
 31
0.0
  0
LINE
  5
3F
  8
ﾚｲﾔ_1
 62
     5
 10
919.09862415729981
 20
-218.03134181940001
 30
0.0
 11
919.09862415729981
 21
-212.4316447077
 31
0.0
  0
LINE
  5
40
  8
ﾚｲﾔ_1
 62
     5
 10
919.09958605169993
 20
-205.5813418194
 30
0.0
 11
917.34087481100005
 21
-208.62751904410001
 31
0.0
  0
DIMENSION
  5
51
  8
寸法線
  2
*D0
 10
936.34862415729992
 20
-169.48667136430001
 30
0.0
 11
920.39862415729999
 21
-169.48667136430001
 31
0.0
 70
   128
  1
32
 13
936.34862415729992
 23
-186.96261270869999
 33
0.0
 14
904.44862415729983
 24
-186.96261270869999
 34
0.0
  0
DIMENSION
  5
60
  8
寸法線
  2
*D1
 10
932.29862415729997
 20
-176.02877192189999
 30
0.0
 11
920.39862415729999
 21
-176.02877192189999
 31
0.0
 70
   128
  1
24
 13
932.29862415729997
 23
-186.02877192189999
 33
0.0
 14
908.49862415729979
 24
-186.02877192189999
 34
0.0
  0
DIMENSION
  5
6F
  8
寸法線
  2
*D2
 10
946.84041097219995
 20
-221.63134181940001
 30
0.0
 11
946.84041097219995
 21
-213.53689761250001
 31
0.0
 70
   128
  1
2
 13
936.54862415729997
 23
-221.63134181940001
 33
0.0
 14
936.54862415729997
 24
-219.53134181940001
 34
0.0
 50
90.0
  0
DIMENSION
  5
7E
  8
寸法線
  2
*D3
 10
953.85999576089989
 20
-221.63134181940001
 30
0.0
 11
953.85999576089989
 21
-213.2313418194
 31
0.0
 70
   128
  1
16.5
 13
936.54862415729997
 23
-221.63134181940001
 33
0.0
 14
920.39862415729999
 24
-204.8313418194
 34
0.0
 50
90.0
  0
DIMENSION
  5
8D
  8
寸法線
  2
*D4
 10
944.84862415729981
 20
-194.56261270869999
 30
0.0
 11
944.84862415729981
 21
-190.01261270869989
 31
0.0
 70
   128
  1
9
 13
934.84862415729992
 23
-194.56261270869999
 33
0.0
 14
934.84862415729992
 24
-185.46261270869999
 34
0.0
 50
90.0
  0
ARC
  5
8E
  8
ﾚｲﾔ_1
 62
     5
 10
919.07292561850011
 20
-209.62751904410001
 30
0.0
 40
2.0
 50
150.0
 51
225.0
  0
ARC
  5
8F
  8
ﾚｲﾔ_1
 62
     5
 10
917.59862415729992
 20
-218.03134181940001
 30
0.0
 40
1.5
 50
270.0
 51
0.0
  0
LINE
  5
90
  8
ﾚｲﾔ_1
 62
     5
 10
921.69862415729995
 20
-212.4316447077
 30
0.0
 11
923.13853625859986
 21
-211.04173260650001
 31
0.0
  0
LINE
  5
91
  8
ﾚｲﾔ_1
 62
     5
 10
936.54862415729997
 20
-221.63134181940001
 30
0.0
 11
936.54862415729997
 21
-219.53134181940001
 31
0.0
  0
LINE
  5
92
  8
ﾚｲﾔ_1
  6
BORDER
 62
     3
 10
920.39862415729999
 20
-202.8313418194
 30
0.0
 11
920.39862415729999
 21
-223.63134181940001
 31
0.0
  0
LINE
  5
93
  8
ﾚｲﾔ_1
 62
     5
 10
936.54862415729997
 20
-219.53134181940001
 30
0.0
 11
923.19862415729983
 21
-219.53134181940001
 31
0.0
  0
ARC
  5
94
  8
ﾚｲﾔ_1
 62
     5
 10
923.19862415729983
 20
-218.03134181940001
 30
0.0
 40
1.5
 50
180.0
 51
270.0
  0
CIRCLE
  5
95
  8
ﾚｲﾔ_1
 62
     5
 10
908.49862415729979
 20
-190.01261270869989
 30
0.0
 40
1.6000000000000001
  0
LINE
  5
96
  8
ﾚｲﾔ_1
 62
     5
 10
905.94862415729995
 20
-185.46261270869999
 30
0.0
 11
934.84862415729992
 21
-185.46261270869999
 31
0.0
  0
INSERT
  5
97
  8
0
  6
CONTINUOUS
  2
*U20
 10
0.0
 20
0.0
 30
0.0
  0
LINE
  5
98
  8
図枠
 10
907.60759600080007
 20
-312.14645752370001
 30
0.0
 11
907.60759600080007
 21
-313.58631352370003
 31
0.0
  0
LINE
  5
99
  8
図枠
 10
909.83818139809989
 20
-293.43446728330002
 30
0.0
 11
909.83818139809989
 21
-295.73823688329998
 31
0.0
  0
LINE
  5
9A
  8
図枠
 10
912.28628083369995
 20
-311.50652152369997
 30
0.0
 11
914.80687600079989
 21
-311.50652152369997
 31
0.0
  0
LINE
  5
9B
  8
図枠
 10
907.60759600080007
 20
-313.58631352370003
 30
0.0
 11
910.63875952080002
 21
-313.58631352370003
 31
0.0
  0
LINE
  5
9C
  8
図枠
 10
918.50683363490009
 20
-290.33677708329998
 30
0.0
 11
918.50683363490009
 21
-315.83422708329999
 31
0.0
  0
LINE
  5
9D
  8
図枠
 10
907.60759600080007
 20
-310.06666552370001
 30
0.0
 11
907.60759600080007
 21
-311.50652152369997
 31
0.0
  0
LINE
  5
9E
  8
図枠
 10
909.83818139809989
 20
-295.73823688329998
 30
0.0
 11
914.44572059810002
 21
-296.89012168329998
 31
0.0
  0
LINE
  5
9F
  8
図枠
 10
914.44572059810002
 20
-292.28258248330002
 30
0.0
 11
914.44572059810002
 21
-296.89012168329998
 31
0.0
  0
LINE
  5
A0
  8
図枠
 10
909.83818139809989
 20
-293.43446728330002
 30
0.0
 11
909.83818139809989
 21
-295.73823688329998
 31
0.0
  0
LINE
  5
A1
  8
図枠
 10
914.44572059810002
 20
-292.28258248330002
 30
0.0
 11
914.44572059810002
 21
-296.89012168329998
 31
0.0
  0
LINE
  5
A2
  8
図枠
 10
911.87194100850013
 20
-310.06666552370001
 30
0.0
 11
911.75483731979989
 21
-309.65972310960001
 31
0.0
  0
LINE
  5
A3
  8
図枠
 10
910.96726000080002
 20
-314.70620152369997
 30
0.0
 11
910.63875952080002
 21
-313.58631352370003
 31
0.0
  0
LINE
  5
A4
  8
図枠
 10
909.83818139809989
 20
-295.73823688329998
 30
0.0
 11
914.44572059810002
 21
-296.89012168329998
 31
0.0
  0
LINE
  5
A5
  8
図枠
 10
912.88477169229986
 20
-313.58631352370003
 30
0.0
 11
914.80687600079989
 21
-313.58631352370003
 31
0.0
  0
LINE
  5
A6
  8
図枠
 10
914.80687600079989
 20
-310.06666552370001
 30
0.0
 11
914.80687600079989
 21
-311.50652152369997
 31
0.0
  0
LINE
  5
A7
  8
図枠
 10
907.60759600080007
 20
-310.06666552370001
 30
0.0
 11
909.60632944079987
 21
-310.06666552370001
 31
0.0
  0
INSERT
  5
A8
  8
0
  6
CONTINUOUS
  2
*U21
 10
0.0
 20
0.0
 30
0.0
  0
LINE
  5
A9
  8
図枠
 10
914.80687600079989
 20
-312.14645752370001
 30
0.0
 11
914.80687600079989
 21
-313.58631352370003
 31
0.0
  0
LINE
  5
AA
  8
図枠
 10
905.03386728079988
 20
-309.9066815237
 30
0.0
 11
905.83378728079992
 21
-308.70680152369999
 31
0.0
  0
LINE
  5
AB
  8
図枠
 10
905.83378728079992
 20
-313.1063615237
 30
0.0
 11
905.83378728079992
 21
-314.30624152370001
 31
0.0
  0
LINE
  5
AC
  8
図枠
 10
905.03386728079988
 20
-309.9066815237
 30
0.0
 11
905.83378728079992
 21
-308.70680152369999
 31
0.0
  0
CIRCLE
  5
AD
  8
ﾚｲﾔ_1
 62
     5
 10
932.29862415729997
 20
-190.01261270869989
 30
0.0
 40
1.6000000000000001
  0
ARC
  5
AE
  8
ﾚｲﾔ_1
 62
     5
 10
934.84862415729992
 20
-193.06261270869999
 30
0.0
 40
1.5
 50
270.0
 51
0.0
  0
LINE
  5
AF
  8
ﾚｲﾔ_1
 62
     5
 10
936.34862415729992
 20
-186.96261270869999
 30
0.0
 11
936.34862415729992
 21
-193.06261270869999
 31
0.0
  0
LINE
  5
B0
  8
図枠
 10
912.47043186710005
 20
-312.14645752370001
 30
0.0
 11
912.28628083369995
 21
-311.50652152369997
 31
0.0
  0
LINE
  5
B1
  8
図枠
 10
909.60632944079987
 20
-310.06666552370001
 30
0.0
 11
909.20743600080004
 21
-308.70680152369999
 31
0.0
  0
LINE
  5
B2
  8
図枠
 10
912.47043186710005
 20
-312.14645752370001
 30
0.0
 11
914.80687600079989
 21
-312.14645752370001
 31
0.0
  0
LINE
  5
B3
  8
図枠
 10
909.83818139809989
 20
-293.43446728330002
 30
0.0
 11
914.44572059810002
 21
-292.28258248330002
 31
0.0
  0
LINE
  5
B4
  8
図枠
 10
914.44572059810002
 20
-292.28258248330002
 30
0.0
 11
914.44572059810002
 21
-296.89012168329998
 31
0.0
  0
LINE
  5
B5
  8
図枠
 10
911.75483731979989
 20
-309.65972310960001
 30
0.0
 11
912.40711600079999
 21
-308.70680152369999
 31
0.0
  0
INSERT
  5
B6
  8
0
  6
CONTINUOUS
  2
*U22
 10
0.0
 20
0.0
 30
0.0
  0
INSERT
  5
B7
  8
0
  6
CONTINUOUS
  2
*U23
 10
0.0
 20
0.0
 30
0.0
  0
LINE
  5
B8
  8
図枠
 10
909.83818139809989
 20
-295.73823688329998
 30
0.0
 11
914.44572059810002
 21
-296.89012168329998
 31
0.0
  0
LINE
  5
B9
  8
図枠
 10
909.83818139809989
 20
-295.73823688329998
 30
0.0
 11
914.44572059810002
 21
-296.89012168329998
 31
0.0
  0
LINE
  5
BA
  8
図枠
 10
910.96726000080002
 20
-314.70620152369997
 30
0.0
 11
913.20703600080003
 21
-314.70620152369997
 31
0.0
  0
LINE
  5
BB
  8
図枠
 10
911.87194100850013
 20
-310.06666552370001
 30
0.0
 11
914.80687600079989
 21
-310.06666552370001
 31
0.0
  0
LINE
  5
BC
  8
図枠
 10
909.83818139809989
 20
-293.43446728330002
 30
0.0
 11
914.44572059810002
 21
-292.28258248330002
 31
0.0
  0
LINE
  5
BD
  8
図枠
 10
909.83818139809989
 20
-293.43446728330002
 30
0.0
 11
909.83818139809989
 21
-295.73823688329998
 31
0.0
  0
LINE
  5
BE
  8
図枠
 10
909.83818139809989
 20
-293.43446728330002
 30
0.0
 11
914.44572059810002
 21
-292.28258248330002
 31
0.0
  0
LINE
  5
BF
  8
図枠
 10
909.83818139809989
 20
-293.43446728330002
 30
0.0
 11
914.44572059810002
 21
-292.28258248330002
 31
0.0
  0
INSERT
  5
C0
  8
0
  6
CONTINUOUS
  2
*U24
 10
0.0
 20
0.0
 30
0.0
  0
INSERT
  5
C1
  8
0
  6
CONTINUOUS
  2
*U25
 10
0.0
 20
0.0
 30
0.0
  0
LINE
  5
C2
  8
図枠
 10
907.60759600080007
 20
-312.14645752370001
 30
0.0
 11
910.21640176079995
 21
-312.14645752370001
 31
0.0
  0
LINE
  5
C3
  8
図枠
 10
914.44572059810002
 20
-292.28258248330002
 30
0.0
 11
914.44572059810002
 21
-296.89012168329998
 31
0.0
  0
LINE
  5
C4
  8
図枠
 10
913.20703600080003
 20
-314.70620152369997
 30
0.0
 11
912.88477169229986
 21
-313.58631352370003
 31
0.0
  0
LINE
  5
C5
  8
図枠
 10
909.20743600080004
 20
-308.70680152369999
 30
0.0
 11
912.40711600079999
 21
-308.70680152369999
 31
0.0
  0
LINE
  5
C6
  8
図枠
 10
907.60759600080007
 20
-311.50652152369997
 30
0.0
 11
910.02868720080005
 21
-311.50652152369997
 31
0.0
  0
LINE
  5
C7
  8
図枠
 10
910.21640176079995
 20
-312.14645752370001
 30
0.0
 11
910.02868720080005
 21
-311.50652152369997
 31
0.0
  0
LINE
  5
C8
  8
図枠
 10
909.83818139809989
 20
-293.43446728330002
 30
0.0
 11
909.83818139809989
 21
-295.73823688329998
 31
0.0
  0
LINE
  5
C9
  8
ﾚｲﾔ_1
 62
     5
 10
846.33444349570016
 20
-252.167957602
 30
0.0
 11
846.33444349570016
 21
-252.31795760200001
 31
0.0
  0
LINE
  5
CA
  8
ﾚｲﾔ_1
  6
BORDER
 62
     3
 10
848.08444349570016
 20
-257.01795760200002
 30
0.0
 11
848.08444349570016
 21
-244.417957602
 31
0.0
  0
LINE
  5
CB
  8
ﾚｲﾔ_1
 62
     5
 10
849.83444349570016
 20
-249.267957602
 30
0.0
 11
849.83444349570016
 21
-249.11795760199999
 31
0.0
  0
LINE
  5
CC
  8
ﾚｲﾔ_1
 62
     5
 10
849.83444349570016
 20
-252.167957602
 30
0.0
 11
849.83444349570016
 21
-252.31795760200001
 31
0.0
  0
LINE
  5
CD
  8
ﾚｲﾔ_1
 62
     5
 10
843.3844434957
 20
-246.417957602
 30
0.0
 11
843.3844434957
 21
-249.11795760199999
 31
0.0
  0
LINE
  5
CE
  8
ﾚｲﾔ_1
 62
     5
 10
843.3844434957
 20
-255.017957602
 30
0.0
 11
843.3844434957
 21
-252.31795760200001
 31
0.0
  0
LINE
  5
CF
  8
ﾚｲﾔ_1
 62
     5
 10
843.58444349570016
 20
-249.267957602
 30
0.0
 11
843.58444349570016
 21
-252.167957602
 31
0.0
  0
LINE
  5
D0
  8
ﾚｲﾔ_1
 62
     5
 10
843.3844434957
 20
-255.017957602
 30
0.0
 11
852.78444349569997
 21
-255.017957602
 31
0.0
  0
LINE
  5
D1
  8
ﾚｲﾔ_1
 62
     5
 10
843.3844434957
 20
-246.417957602
 30
0.0
 11
852.78444349569997
 21
-246.417957602
 31
0.0
  0
LINE
  5
D2
  8
ﾚｲﾔ_1
 62
     5
 10
843.3844434957
 20
-252.31795760200001
 30
0.0
 11
852.78444349569997
 21
-252.31795760200001
 31
0.0
  0
LINE
  5
D3
  8
ﾚｲﾔ_1
 62
     5
 10
843.3844434957
 20
-249.11795760199999
 30
0.0
 11
852.78444349569997
 21
-249.11795760199999
 31
0.0
  0
LINE
  5
D4
  8
ﾚｲﾔ_1
  6
BORDER
 62
     3
 10
841.38444349570011
 20
-250.71795760200001
 30
0.0
 11
854.78444349570009
 21
-250.71795760200001
 31
0.0
  0
LINE
  5
D5
  8
ﾚｲﾔ_1
 62
     5
 10
854.08444349570004
 20
-252.167957602
 30
0.0
 11
843.58444349570016
 21
-252.167957602
 31
0.0
  0
LINE
  5
D6
  8
ﾚｲﾔ_1
 62
     5
 10
863.79281986590001
 20
-249.267957602
 30
0.0
 11
843.58444349570016
 21
-249.267957602
 31
0.0
  0
DIMENSION
  5
E5
  8
寸法線
  2
*D5
 10
832.96740892019989
 20
-250.71795760200001
 30
0.0
 11
832.96740892019989
 21
-254.49295760199999
 31
0.0
 70
   128
  1
(7.5)
 13
841.38444349570011
 23
-250.71795760200001
 33
0.0
 14
854.08444349570004
 24
-258.26795760200002
 34
0.0
 50
90.0
  0
DIMENSION
  5
F4
  8
寸法線
  2
*D6
 10
888.03667886919993
 20
-258.26795760200002
 30
0.0
 11
888.03667886919993
 21
-252.34295760200001
 31
0.0
 70
   128
  1
12
 13
868.08444349570004
 23
-258.26795760200002
 33
0.0
 14
852.78444349569997
 24
-246.417957602
 34
0.0
 50
90.0
  0
DIMENSION
  5
103
  8
寸法線
  2
*D7
 10
881.24067582359987
 20
-258.26795760200002
 30
0.0
 11
881.24067582359987
 21
-251.6219549912
 31
0.0
 70
   128
  1
2.2
 13
868.08444349570004
 23
-258.26795760200002
 33
0.0
 14
868.08444349570004
 24
-255.96795760200001
 34
0.0
 50
90.0
  0
INSERT
  5
104
  8
0
  6
CONTINUOUS
  2
*U26
 10
0.0
 20
0.0
 30
0.0
  0
LINE
  5
105
  8
図枠
 62
     5
 10
884.22597667740013
 20
-131.0850863453
 30
0.0
 11
886.70072917739992
 21
-135.37148341150001
 31
0.0
  0
LINE
  5
106
  8
図枠
 62
     5
 10
884.22597667740013
 20
-131.0850863453
 30
0.0
 11
881.75122417739999
 21
-135.37148341150001
 31
0.0
  0
LINE
  5
107
  8
図枠
 62
     5
 10
884.22597667740013
 20
-136.08458634530001
 30
0.0
 11
881.75122417739999
 21
-140.37098341149999
 31
0.0
  0
LINE
  5
108
  8
図枠
 62
     5
 10
884.22597667740013
 20
-136.08458634530001
 30
0.0
 11
886.70072917739992
 21
-140.37098341149999
 31
0.0
  0
LINE
  5
109
  8
図枠
 62
     5
 10
881.75122417739999
 20
-140.37098341149999
 30
0.0
 11
886.70072917739992
 21
-140.37098341149999
 31
0.0
  0
LINE
  5
10A
  8
図枠
 62
     5
 10
881.75122417739999
 20
-135.37148341150001
 30
0.0
 11
886.70072917739992
 21
-135.37148341150001
 31
0.0
  0
INSERT
  5
10B
  8
0
  6
CONTINUOUS
  2
*U27
 10
0.0
 20
0.0
 30
0.0
  0
LINE
  5
10C
  8
図枠
 10
898.50883363490016
 20
-290.33677708329998
 30
0.0
 11
898.50883363490016
 21
-298.83592708330002
 31
0.0
  0
ARC
  5
10D
  8
図枠
 10
900.63430728080004
 20
-309.9066815237
 30
0.0
 40
4.3995600000000001
 50
270.0
 51
302.54495885400001
  0
LINE
  5
10E
  8
図枠
 10
898.63450728079988
 20
-310.5643039688
 30
0.0
 11
901.83418728080005
 21
-310.5643039688
 31
0.0
  0
LINE
  5
10F
  8
図枠
 10
901.83418728080005
 20
-310.5643039688
 30
0.0
 11
901.38168419570002
 21
-311.01680705389998
 31
0.0
  0
LINE
  5
110
  8
図枠
 10
902.26319436909989
 20
-311.52177672210001
 30
0.0
 11
902.07073697169994
 21
-311.73434615140002
 31
0.0
  0
ARC
  5
111
  8
図枠
 10
899.59441128080005
 20
-310.06666552370001
 30
0.0
 40
3.0396959999999988
 50
331.39928138329998
 51
358.49204224580001
  0
POLYLINE
  8
図枠
  5
2BE
  66
     1
 10
0.000000
 20
0.000000
 30
0.000000
  70
     8
  0
VERTEX
  8
図枠
  5
2BF
 10
901.382
 20
-311.017
 30
0.000000
  70
    32
  0
VERTEX
  8
図枠
  5
2C0
 10
901.387
 20
-311.023
 30
0.000000
  70
    32
  0
VERTEX
  8
図枠
  5
2C1
 10
901.392
 20
-311.029
 30
0.000000
  70
    32
  0
VERTEX
  8
図枠
  5
2C2
 10
901.398
 20
-311.034
 30
0.000000
  70
    32
  0
VERTEX
  8
図枠
  5
2C3
 10
901.403
 20
-311.040
 30
0.000000
  70
    32
  0
VERTEX
  8
図枠
  5
2C4
 10
901.408
 20
-311.046
 30
0.000000
  70
    32
  0
VERTEX
  8
図枠
  5
2C5
 10
901.413
 20
-311.052
 30
0.000000
  70
    32
  0
VERTEX
  8
図枠
  5
2C6
 10
901.419
 20
-311.058
 30
0.000000
  70
    32
  0
VERTEX
  8
図枠
  5
2C7
 10
901.424
 20
-311.064
 30
0.000000
  70
    32
  0
VERTEX
  8
図枠
  5
2C8
 10
901.429
 20
-311.070
 30
0.000000
  70
    32
  0
VERTEX
  8
図枠
  5
2C9
 10
901.434
 20
-311.076
 30
0.000000
  70
    32
  0
VERTEX
  8
図枠
  5
2CA
 10
901.440
 20
-311.082
 30
0.000000
  70
    32
  0
VERTEX
  8
図枠
  5
2CB
 10
901.445
 20
-311.087
 30
0.000000
  70
    32
  0
VERTEX
  8
図枠
  5
2CC
 10
901.450
 20
-311.093
 30
0.000000
  70
    32
  0
VERTEX
  8
図枠
  5
2CD
 10
901.456
 20
-311.099
 30
0.000000
  70
    32
  0
VERTEX
  8
図枠
  5
2CE
 10
901.461
 20
-311.105
 30
0.000000
  70
    32
  0
VERTEX
  8
図枠
  5
2CF
 10
901.466
 20
-311.111
 30
0.000000
  70
    32
  0
VERTEX
  8
図枠
  5
2D0
 10
901.471
 20
-311.117
 30
0.000000
  70
    32
  0
VERTEX
  8
図枠
  5
2D1
 10
901.477
 20
-311.123
 30
0.000000
  70
    32
  0
VERTEX
  8
図枠
  5
2D2
 10
901.482
 20
-311.129
 30
0.000000
  70
    32
  0
VERTEX
  8
図枠
  5
2D3
 10
901.487
 20
-311.134
 30
0.000000
  70
    32
  0
VERTEX
  8
図枠
  5
2D4
 10
901.493
 20
-311.140
 30
0.000000
  70
    32
  0
VERTEX
  8
図枠
  5
2D5
 10
901.498
 20
-311.146
 30
0.000000
  70
    32
  0
VERTEX
  8
図枠
  5
2D6
 10
901.503
 20
-311.152
 30
0.000000
  70
    32
  0
VERTEX
  8
図枠
  5
2D7
 10
901.509
 20
-311.158
 30
0.000000
  70
    32
  0
VERTEX
  8
図枠
  5
2D8
 10
901.514
 20
-311.164
 30
0.000000
  70
    32
  0
VERTEX
  8
図枠
  5
2D9
 10
901.519
 20
-311.170
 30
0.000000
  70
    32
  0
VERTEX
  8
図枠
  5
2DA
 10
901.524
 20
-311.175
 30
0.000000
  70
    32
  0
VERTEX
  8
図枠
  5
2DB
 10
901.530
 20
-311.181
 30
0.000000
  70
    32
  0
VERTEX
  8
図枠
  5
2DC
 10
901.535
 20
-311.187
 30
0.000000
  70
    32
  0
VERTEX
  8
図枠
  5
2DD
 10
901.540
 20
-311.193
 30
0.000000
  70
    32
  0
VERTEX
  8
図枠
  5
2DE
 10
901.546
 20
-311.199
 30
0.000000
  70
    32
  0
VERTEX
  8
図枠
  5
2DF
 10
901.551
 20
-311.205
 30
0.000000
  70
    32
  0
VERTEX
  8
図枠
  5
2E0
 10
901.556
 20
-311.211
 30
0.000000
  70
    32
  0
VERTEX
  8
図枠
  5
2E1
 10
901.562
 20
-311.216
 30
0.000000
  70
    32
  0
VERTEX
  8
図枠
  5
2E2
 10
901.567
 20
-311.222
 30
0.000000
  70
    32
  0
VERTEX
  8
図枠
  5
2E3
 10
901.572
 20
-311.228
 30
0.000000
  70
    32
  0
VERTEX
  8
図枠
  5
2E4
 10
901.577
 20
-311.234
 30
0.000000
  70
    32
  0
VERTEX
  8
図枠
  5
2E5
 10
901.583
 20
-311.240
 30
0.000000
  70
    32
  0
VERTEX
  8
図枠
  5
2E6
 10
901.588
 20
-311.245
 30
0.000000
  70
    32
  0
VERTEX
  8
図枠
  5
2E7
 10
901.593
 20
-311.251
 30
0.000000
  70
    32
  0
VERTEX
  8
図枠
  5
2E8
 10
901.599
 20
-311.257
 30
0.000000
  70
    32
  0
VERTEX
  8
図枠
  5
2E9
 10
901.604
 20
-311.263
 30
0.000000
  70
    32
  0
VERTEX
  8
図枠
  5
2EA
 10
901.609
 20
-311.269
 30
0.000000
  70
    32
  0
VERTEX
  8
図枠
  5
2EB
 10
901.615
 20
-311.275
 30
0.000000
  70
    32
  0
VERTEX
  8
図枠
  5
2EC
 10
901.620
 20
-311.280
 30
0.000000
  70
    32
  0
VERTEX
  8
図枠
  5
2ED
 10
901.625
 20
-311.286
 30
0.000000
  70
    32
  0
VERTEX
  8
図枠
  5
2EE
 10
901.631
 20
-311.292
 30
0.000000
  70
    32
  0
VERTEX
  8
図枠
  5
2EF
 10
901.636
 20
-311.298
 30
0.000000
  70
    32
  0
VERTEX
  8
図枠
  5
2F0
 10
901.641
 20
-311.304
 30
0.000000
  70
    32
  0
VERTEX
  8
図枠
  5
2F1
 10
901.647
 20
-311.309
 30
0.000000
  70
    32
  0
VERTEX
  8
図枠
  5
2F2
 10
901.652
 20
-311.315
 30
0.000000
  70
    32
  0
VERTEX
  8
図枠
  5
2F3
 10
901.657
 20
-311.321
 30
0.000000
  70
    32
  0
VERTEX
  8
図枠
  5
2F4
 10
901.663
 20
-311.327
 30
0.000000
  70
    32
  0
VERTEX
  8
図枠
  5
2F5
 10
901.668
 20
-311.332
 30
0.000000
  70
    32
  0
VERTEX
  8
図枠
  5
2F6
 10
901.674
 20
-311.338
 30
0.000000
  70
    32
  0
VERTEX
  8
図枠
  5
2F7
 10
901.679
 20
-311.344
 30
0.000000
  70
    32
  0
VERTEX
  8
図枠
  5
2F8
 10
901.684
 20
-311.350
 30
0.000000
  70
    32
  0
VERTEX
  8
図枠
  5
2F9
 10
901.690
 20
-311.355
 30
0.000000
  70
    32
  0
VERTEX
  8
図枠
  5
2FA
 10
901.695
 20
-311.361
 30
0.000000
  70
    32
  0
VERTEX
  8
図枠
  5
2FB
 10
901.700
 20
-311.367
 30
0.000000
  70
    32
  0
VERTEX
  8
図枠
  5
2FC
 10
901.706
 20
-311.373
 30
0.000000
  70
    32
  0
VERTEX
  8
図枠
  5
2FD
 10
901.711
 20
-311.378
 30
0.000000
  70
    32
  0
VERTEX
  8
図枠
  5
2FE
 10
901.717
 20
-311.384
 30
0.000000
  70
    32
  0
VERTEX
  8
図枠
  5
2FF
 10
901.722
 20
-311.390
 30
0.000000
  70
    32
  0
VERTEX
  8
図枠
  5
300
 10
901.727
 20
-311.395
 30
0.000000
  70
    32
  0
VERTEX
  8
図枠
  5
301
 10
901.733
 20
-311.401
 30
0.000000
  70
    32
  0
VERTEX
  8
図枠
  5
302
 10
901.738
 20
-311.407
 30
0.000000
  70
    32
  0
VERTEX
  8
図枠
  5
303
 10
901.744
 20
-311.412
 30
0.000000
  70
    32
  0
VERTEX
  8
図枠
  5
304
 10
901.749
 20
-311.418
 30
0.000000
  70
    32
  0
VERTEX
  8
図枠
  5
305
 10
901.754
 20
-311.424
 30
0.000000
  70
    32
  0
VERTEX
  8
図枠
  5
306
 10
901.760
 20
-311.429
 30
0.000000
  70
    32
  0
VERTEX
  8
図枠
  5
307
 10
901.765
 20
-311.435
 30
0.000000
  70
    32
  0
VERTEX
  8
図枠
  5
308
 10
901.771
 20
-311.441
 30
0.000000
  70
    32
  0
VERTEX
  8
図枠
  5
309
 10
901.776
 20
-311.446
 30
0.000000
  70
    32
  0
VERTEX
  8
図枠
  5
30A
 10
901.781
 20
-311.452
 30
0.000000
  70
    32
  0
VERTEX
  8
図枠
  5
30B
 10
901.787
 20
-311.458
 30
0.000000
  70
    32
  0
VERTEX
  8
図枠
  5
30C
 10
901.792
 20
-311.463
 30
0.000000
  70
    32
  0
VERTEX
  8
図枠
  5
30D
 10
901.798
 20
-311.469
 30
0.000000
  70
    32
  0
VERTEX
  8
図枠
  5
30E
 10
901.803
 20
-311.475
 30
0.000000
  70
    32
  0
VERTEX
  8
図枠
  5
30F
 10
901.809
 20
-311.480
 30
0.000000
  70
    32
  0
VERTEX
  8
図枠
  5
310
 10
901.814
 20
-311.486
 30
0.000000
  70
    32
  0
VERTEX
  8
図枠
  5
311
 10
901.820
 20
-311.491
 30
0.000000
  70
    32
  0
VERTEX
  8
図枠
  5
312
 10
901.825
 20
-311.497
 30
0.000000
  70
    32
  0
VERTEX
  8
図枠
  5
313
 10
901.831
 20
-311.503
 30
0.000000
  70
    32
  0
VERTEX
  8
図枠
  5
314
 10
901.836
 20
-311.508
 30
0.000000
  70
    32
  0
VERTEX
  8
図枠
  5
315
 10
901.841
 20
-311.514
 30
0.000000
  70
    32
  0
VERTEX
  8
図枠
  5
316
 10
901.847
 20
-311.519
 30
0.000000
  70
    32
  0
VERTEX
  8
図枠
  5
317
 10
901.852
 20
-311.525
 30
0.000000
  70
    32
  0
VERTEX
  8
図枠
  5
318
 10
901.858
 20
-311.530
 30
0.000000
  70
    32
  0
VERTEX
  8
図枠
  5
319
 10
901.863
 20
-311.536
 30
0.000000
  70
    32
  0
VERTEX
  8
図枠
  5
31A
 10
901.869
 20
-311.541
 30
0.000000
  70
    32
  0
VERTEX
  8
図枠
  5
31B
 10
901.874
 20
-311.547
 30
0.000000
  70
    32
  0
VERTEX
  8
図枠
  5
31C
 10
901.880
 20
-311.552
 30
0.000000
  70
    32
  0
VERTEX
  8
図枠
  5
31D
 10
901.885
 20
-311.558
 30
0.000000
  70
    32
  0
VERTEX
  8
図枠
  5
31E
 10
901.891
 20
-311.563
 30
0.000000
  70
    32
  0
VERTEX
  8
図枠
  5
31F
 10
901.897
 20
-311.569
 30
0.000000
  70
    32
  0
VERTEX
  8
図枠
  5
320
 10
901.902
 20
-311.574
 30
0.000000
  70
    32
  0
VERTEX
  8
図枠
  5
321
 10
901.908
 20
-311.580
 30
0.000000
  70
    32
  0
VERTEX
  8
図枠
  5
322
 10
901.913
 20
-311.585
 30
0.000000
  70
    32
  0
VERTEX
  8
図枠
  5
323
 10
901.919
 20
-311.591
 30
0.000000
  70
    32
  0
VERTEX
  8
図枠
  5
324
 10
901.924
 20
-311.596
 30
0.000000
  70
    32
  0
VERTEX
  8
図枠
  5
325
 10
901.930
 20
-311.602
 30
0.000000
  70
    32
  0
VERTEX
  8
図枠
  5
326
 10
901.935
 20
-311.607
 30
0.000000
  70
    32
  0
VERTEX
  8
図枠
  5
327
 10
901.941
 20
-311.612
 30
0.000000
  70
    32
  0
VERTEX
  8
図枠
  5
328
 10
901.947
 20
-311.618
 30
0.000000
  70
    32
  0
VERTEX
  8
図枠
  5
329
 10
901.952
 20
-311.623
 30
0.000000
  70
    32
  0
VERTEX
  8
図枠
  5
32A
 10
901.958
 20
-311.629
 30
0.000000
  70
    32
  0
VERTEX
  8
図枠
  5
32B
 10
901.963
 20
-311.634
 30
0.000000
  70
    32
  0
VERTEX
  8
図枠
  5
32C
 10
901.969
 20
-311.639
 30
0.000000
  70
    32
  0
VERTEX
  8
図枠
  5
32D
 10
901.974
 20
-311.645
 30
0.000000
  70
    32
  0
VERTEX
  8
図枠
  5
32E
 10
901.980
 20
-311.650
 30
0.000000
  70
    32
  0
VERTEX
  8
図枠
  5
32F
 10
901.986
 20
-311.655
 30
0.000000
  70
    32
  0
VERTEX
  8
図枠
  5
330
 10
901.991
 20
-311.661
 30
0.000000
  70
    32
  0
VERTEX
  8
図枠
  5
331
 10
901.997
 20
-311.666
 30
0.000000
  70
    32
  0
VERTEX
  8
図枠
  5
332
 10
902.003
 20
-311.671
 30
0.000000
  70
    32
  0
VERTEX
  8
図枠
  5
333
 10
902.008
 20
-311.677
 30
0.000000
  70
    32
  0
VERTEX
  8
図枠
  5
334
 10
902.014
 20
-311.682
 30
0.000000
  70
    32
  0
VERTEX
  8
図枠
  5
335
 10
902.020
 20
-311.687
 30
0.000000
  70
    32
  0
VERTEX
  8
図枠
  5
336
 10
902.025
 20
-311.693
 30
0.000000
  70
    32
  0
VERTEX
  8
図枠
  5
337
 10
902.031
 20
-311.698
 30
0.000000
  70
    32
  0
VERTEX
  8
図枠
  5
338
 10
902.037
 20
-311.703
 30
0.000000
  70
    32
  0
VERTEX
  8
図枠
  5
339
 10
902.042
 20
-311.708
 30
0.000000
  70
    32
  0
VERTEX
  8
図枠
  5
33A
 10
902.048
 20
-311.714
 30
0.000000
  70
    32
  0
VERTEX
  8
図枠
  5
33B
 10
902.054
 20
-311.719
 30
0.000000
  70
    32
  0
VERTEX
  8
図枠
  5
33C
 10
902.059
 20
-311.724
 30
0.000000
  70
    32
  0
VERTEX
  8
図枠
  5
33D
 10
902.065
 20
-311.729
 30
0.000000
  70
    32
  0
VERTEX
  8
図枠
  5
33E
 10
902.071
 20
-311.734
 30
0.000000
  70
    32
  0
SEQEND
  8
図枠
  5
33F
  0
ARC
  5
113
  8
図枠
 10
892.90659528080005
 20
-311.90648152369999
 30
0.0
 40
2.3997599999999988
 50
270.0
 51
0.0
  0
LINE
  5
114
  8
図枠
 10
889.70691528079988
 20
-313.1063615237
 30
0.0
 11
889.70691528079988
 21
-314.30624152370001
 31
0.0
  0
INSERT
  5
115
  8
0
  6
CONTINUOUS
  2
*U28
 10
0.0
 20
0.0
 30
0.0
  0
LINE
  5
116
  8
図枠
 10
898.63450728079988
 20
-310.14665752370001
 30
0.0
 11
902.63410728079998
 21
-310.14665752370001
 31
0.0
  0
LINE
  5
117
  8
ﾚｲﾔ_1
 62
     5
 10
868.08444349570004
 20
-251.767957602
 30
0.0
 11
863.79281986590001
 21
-249.267957602
 31
0.0
  0
ARC
  5
118
  8
ﾚｲﾔ_1
 62
     5
 10
860.58444349570016
 20
-255.267957602
 30
0.0
 40
1.0
 50
0.0
 51
90.0
  0
LINE
  5
119
  8
ﾚｲﾔ_1
 62
     5
 10
852.78444349569997
 20
-246.417957602
 30
0.0
 11
852.78444349569997
 21
-249.11795760199999
 31
0.0
  0
LINE
  5
11A
  8
ﾚｲﾔ_1
 62
     5
 10
852.78444349569997
 20
-252.31795760200001
 30
0.0
 11
852.78444349569997
 21
-255.017957602
 31
0.0
  0
LINE
  5
11B
  8
ﾚｲﾔ_1
 62
     5
 10
863.79281986590001
 20
-249.267957602
 30
0.0
 11
863.79281986590001
 21
-255.96795760200001
 31
0.0
  0
LINE
  5
11C
  8
ﾚｲﾔ_1
 62
     5
 10
854.08444349570004
 20
-255.96795760200001
 30
0.0
 11
854.08444349570004
 21
-258.26795760200002
 31
0.0
  0
LINE
  5
11D
  8
ﾚｲﾔ_1
 62
     5
 10
868.08444349570004
 20
-255.96795760200001
 30
0.0
 11
854.08444349570004
 21
-255.96795760200001
 31
0.0
  0
LINE
  5
11E
  8
ﾚｲﾔ_1
 62
     5
 10
868.08444349570004
 20
-258.26795760200002
 30
0.0
 11
854.08444349570004
 21
-258.26795760200002
 31
0.0
  0
ARC
  5
11F
  8
ﾚｲﾔ_1
 62
     5
 10
855.58444349570004
 20
-252.767957602
 30
0.0
 40
1.5
 50
180.0
 51
270.0
  0
LINE
  5
120
  8
ﾚｲﾔ_1
 62
     5
 10
854.08444349570004
 20
-252.767957602
 30
0.0
 11
854.08444349570004
 21
-252.167957602
 31
0.0
  0
LINE
  5
121
  8
ﾚｲﾔ_1
 62
     5
 10
868.08444349570004
 20
-258.26795760200002
 30
0.0
 11
868.08444349570004
 21
-251.767957602
 31
0.0
  0
LINE
  5
122
  8
ﾚｲﾔ_1
 62
     5
 10
860.58444349570016
 20
-254.267957602
 30
0.0
 11
855.58444349570004
 21
-254.267957602
 31
0.0
  0
LINE
  5
123
  8
ﾚｲﾔ_1
 62
     5
 10
861.58444349570016
 20
-255.267957602
 30
0.0
 11
861.58444349570016
 21
-255.96795760200001
 31
0.0
  0
LINE
  5
124
  8
ﾚｲﾔ_1
 62
     5
 10
846.33444349570016
 20
-249.267957602
 30
0.0
 11
846.33444349570016
 21
-249.11795760199999
 31
0.0
  0
INSERT
  5
125
  8
0
  6
CONTINUOUS
  2
*U29
 10
0.0
 20
0.0
 30
0.0
  0
LINE
  5
126
  8
図枠
 10
892.1066752808
 20
-313.1063615237
 30
0.0
 11
889.70691528079988
 21
-313.1063615237
 31
0.0
  0
LINE
  5
127
  8
図枠
 10
898.63450728079988
 20
-314.30624152370001
 30
0.0
 11
898.63450728079988
 21
-313.1063615237
 31
0.0
  0
INSERT
  5
128
  8
0
  6
CONTINUOUS
  2
*U30
 10
0.0
 20
0.0
 30
0.0
  0
LINE
  5
129
  8
図枠
 10
888.78612431979991
 20
-311.50652152369997
 30
0.0
 11
889.58604431979995
 21
-311.50652152369997
 31
0.0
  0
LINE
  5
12A
  8
図枠
 10
891.70671528080004
 20
-309.9066815237
 30
0.0
 11
892.90659528080005
 21
-308.70680152369999
 31
0.0
  0
LINE
  5
12B
  8
図枠
 10
880.51063363490005
 20
-294.58635208330003
 30
0.0
 11
894.50923363490006
 21
-294.58635208330003
 31
0.0
  0
INSERT
  5
12C
  8
0
  6
CONTINUOUS
  2
*U31
 10
0.0
 20
0.0
 30
0.0
  0
LINE
  5
12D
  8
図枠
 10
889.70691528079988
 20
-314.30624152370001
 30
0.0
 11
892.90659528080005
 21
-314.30624152370001
 31
0.0
  0
LINE
  5
12E
  8
図枠
 10
898.63450728079988
 20
-313.1063615237
 30
0.0
 11
899.59441128080005
 21
-313.1063615237
 31
0.0
  0
POLYLINE
  8
図枠
  5
340
  66
     1
 10
0.000000
 20
0.000000
 30
0.000000
  70
     8
  0
VERTEX
  8
図枠
  5
341
 10
898.635
 20
-310.822
 30
0.000000
  70
    32
  0
VERTEX
  8
図枠
  5
342
 10
898.649
 20
-310.835
 30
0.000000
  70
    32
  0
VERTEX
  8
図枠
  5
343
 10
898.663
 20
-310.849
 30
0.000000
  70
    32
  0
VERTEX
  8
図枠
  5
344
 10
898.678
 20
-310.862
 30
0.000000
  70
    32
  0
VERTEX
  8
図枠
  5
345
 10
898.692
 20
-310.875
 30
0.000000
  70
    32
  0
VERTEX
  8
図枠
  5
346
 10
898.707
 20
-310.888
 30
0.000000
  70
    32
  0
VERTEX
  8
図枠
  5
347
 10
898.721
 20
-310.902
 30
0.000000
  70
    32
  0
VERTEX
  8
図枠
  5
348
 10
898.735
 20
-310.915
 30
0.000000
  70
    32
  0
VERTEX
  8
図枠
  5
349
 10
898.750
 20
-310.928
 30
0.000000
  70
    32
  0
VERTEX
  8
図枠
  5
34A
 10
898.764
 20
-310.941
 30
0.000000
  70
    32
  0
VERTEX
  8
図枠
  5
34B
 10
898.779
 20
-310.955
 30
0.000000
  70
    32
  0
VERTEX
  8
図枠
  5
34C
 10
898.793
 20
-310.968
 30
0.000000
  70
    32
  0
VERTEX
  8
図枠
  5
34D
 10
898.807
 20
-310.981
 30
0.000000
  70
    32
  0
VERTEX
  8
図枠
  5
34E
 10
898.822
 20
-310.995
 30
0.000000
  70
    32
  0
VERTEX
  8
図枠
  5
34F
 10
898.836
 20
-311.008
 30
0.000000
  70
    32
  0
VERTEX
  8
図枠
  5
350
 10
898.851
 20
-311.021
 30
0.000000
  70
    32
  0
VERTEX
  8
図枠
  5
351
 10
898.865
 20
-311.034
 30
0.000000
  70
    32
  0
VERTEX
  8
図枠
  5
352
 10
898.880
 20
-311.048
 30
0.000000
  70
    32
  0
VERTEX
  8
図枠
  5
353
 10
898.894
 20
-311.061
 30
0.000000
  70
    32
  0
VERTEX
  8
図枠
  5
354
 10
898.908
 20
-311.074
 30
0.000000
  70
    32
  0
VERTEX
  8
図枠
  5
355
 10
898.923
 20
-311.087
 30
0.000000
  70
    32
  0
VERTEX
  8
図枠
  5
356
 10
898.937
 20
-311.100
 30
0.000000
  70
    32
  0
VERTEX
  8
図枠
  5
357
 10
898.952
 20
-311.114
 30
0.000000
  70
    32
  0
VERTEX
  8
図枠
  5
358
 10
898.966
 20
-311.127
 30
0.000000
  70
    32
  0
VERTEX
  8
図枠
  5
359
 10
898.981
 20
-311.140
 30
0.000000
  70
    32
  0
VERTEX
  8
図枠
  5
35A
 10
898.995
 20
-311.153
 30
0.000000
  70
    32
  0
VERTEX
  8
図枠
  5
35B
 10
899.010
 20
-311.166
 30
0.000000
  70
    32
  0
VERTEX
  8
図枠
  5
35C
 10
899.024
 20
-311.180
 30
0.000000
  70
    32
  0
VERTEX
  8
図枠
  5
35D
 10
899.038
 20
-311.193
 30
0.000000
  70
    32
  0
VERTEX
  8
図枠
  5
35E
 10
899.053
 20
-311.206
 30
0.000000
  70
    32
  0
VERTEX
  8
図枠
  5
35F
 10
899.067
 20
-311.219
 30
0.000000
  70
    32
  0
VERTEX
  8
図枠
  5
360
 10
899.082
 20
-311.232
 30
0.000000
  70
    32
  0
VERTEX
  8
図枠
  5
361
 10
899.096
 20
-311.245
 30
0.000000
  70
    32
  0
VERTEX
  8
図枠
  5
362
 10
899.111
 20
-311.259
 30
0.000000
  70
    32
  0
VERTEX
  8
図枠
  5
363
 10
899.125
 20
-311.272
 30
0.000000
  70
    32
  0
VERTEX
  8
図枠
  5
364
 10
899.140
 20
-311.285
 30
0.000000
  70
    32
  0
VERTEX
  8
図枠
  5
365
 10
899.154
 20
-311.298
 30
0.000000
  70
    32
  0
VERTEX
  8
図枠
  5
366
 10
899.169
 20
-311.311
 30
0.000000
  70
    32
  0
VERTEX
  8
図枠
  5
367
 10
899.183
 20
-311.324
 30
0.000000
  70
    32
  0
VERTEX
  8
図枠
  5
368
 10
899.198
 20
-311.337
 30
0.000000
  70
    32
  0
VERTEX
  8
図枠
  5
369
 10
899.212
 20
-311.350
 30
0.000000
  70
    32
  0
VERTEX
  8
図枠
  5
36A
 10
899.227
 20
-311.363
 30
0.000000
  70
    32
  0
VERTEX
  8
図枠
  5
36B
 10
899.241
 20
-311.376
 30
0.000000
  70
    32
  0
VERTEX
  8
図枠
  5
36C
 10
899.256
 20
-311.389
 30
0.000000
  70
    32
  0
VERTEX
  8
図枠
  5
36D
 10
899.271
 20
-311.402
 30
0.000000
  70
    32
  0
VERTEX
  8
図枠
  5
36E
 10
899.285
 20
-311.415
 30
0.000000
  70
    32
  0
VERTEX
  8
図枠
  5
36F
 10
899.300
 20
-311.428
 30
0.000000
  70
    32
  0
VERTEX
  8
図枠
  5
370
 10
899.314
 20
-311.441
 30
0.000000
  70
    32
  0
VERTEX
  8
図枠
  5
371
 10
899.329
 20
-311.454
 30
0.000000
  70
    32
  0
VERTEX
  8
図枠
  5
372
 10
899.343
 20
-311.467
 30
0.000000
  70
    32
  0
VERTEX
  8
図枠
  5
373
 10
899.358
 20
-311.480
 30
0.000000
  70
    32
  0
VERTEX
  8
図枠
  5
374
 10
899.373
 20
-311.493
 30
0.000000
  70
    32
  0
VERTEX
  8
図枠
  5
375
 10
899.387
 20
-311.506
 30
0.000000
  70
    32
  0
VERTEX
  8
図枠
  5
376
 10
899.402
 20
-311.519
 30
0.000000
  70
    32
  0
VERTEX
  8
図枠
  5
377
 10
899.416
 20
-311.532
 30
0.000000
  70
    32
  0
VERTEX
  8
図枠
  5
378
 10
899.431
 20
-311.545
 30
0.000000
  70
    32
  0
VERTEX
  8
図枠
  5
379
 10
899.446
 20
-311.558
 30
0.000000
  70
    32
  0
VERTEX
  8
図枠
  5
37A
 10
899.460
 20
-311.570
 30
0.000000
  70
    32
  0
VERTEX
  8
図枠
  5
37B
 10
899.475
 20
-311.583
 30
0.000000
  70
    32
  0
VERTEX
  8
図枠
  5
37C
 10
899.490
 20
-311.596
 30
0.000000
  70
    32
  0
VERTEX
  8
図枠
  5
37D
 10
899.504
 20
-311.609
 30
0.000000
  70
    32
  0
VERTEX
  8
図枠
  5
37E
 10
899.519
 20
-311.622
 30
0.000000
  70
    32
  0
VERTEX
  8
図枠
  5
37F
 10
899.534
 20
-311.634
 30
0.000000
  70
    32
  0
VERTEX
  8
図枠
  5
380
 10
899.548
 20
-311.647
 30
0.000000
  70
    32
  0
VERTEX
  8
図枠
  5
381
 10
899.563
 20
-311.660
 30
0.000000
  70
    32
  0
VERTEX
  8
図枠
  5
382
 10
899.578
 20
-311.673
 30
0.000000
  70
    32
  0
VERTEX
  8
図枠
  5
383
 10
899.593
 20
-311.685
 30
0.000000
  70
    32
  0
VERTEX
  8
図枠
  5
384
 10
899.607
 20
-311.698
 30
0.000000
  70
    32
  0
VERTEX
  8
図枠
  5
385
 10
899.622
 20
-311.711
 30
0.000000
  70
    32
  0
VERTEX
  8
図枠
  5
386
 10
899.637
 20
-311.723
 30
0.000000
  70
    32
  0
VERTEX
  8
図枠
  5
387
 10
899.652
 20
-311.736
 30
0.000000
  70
    32
  0
VERTEX
  8
図枠
  5
388
 10
899.666
 20
-311.748
 30
0.000000
  70
    32
  0
VERTEX
  8
図枠
  5
389
 10
899.681
 20
-311.761
 30
0.000000
  70
    32
  0
VERTEX
  8
図枠
  5
38A
 10
899.696
 20
-311.774
 30
0.000000
  70
    32
  0
VERTEX
  8
図枠
  5
38B
 10
899.711
 20
-311.786
 30
0.000000
  70
    32
  0
VERTEX
  8
図枠
  5
38C
 10
899.726
 20
-311.799
 30
0.000000
  70
    32
  0
VERTEX
  8
図枠
  5
38D
 10
899.740
 20
-311.811
 30
0.000000
  70
    32
  0
VERTEX
  8
図枠
  5
38E
 10
899.755
 20
-311.824
 30
0.000000
  70
    32
  0
VERTEX
  8
図枠
  5
38F
 10
899.770
 20
-311.836
 30
0.000000
  70
    32
  0
VERTEX
  8
図枠
  5
390
 10
899.785
 20
-311.848
 30
0.000000
  70
    32
  0
VERTEX
  8
図枠
  5
391
 10
899.800
 20
-311.861
 30
0.000000
  70
    32
  0
VERTEX
  8
図枠
  5
392
 10
899.815
 20
-311.873
 30
0.000000
  70
    32
  0
VERTEX
  8
図枠
  5
393
 10
899.830
 20
-311.886
 30
0.000000
  70
    32
  0
VERTEX
  8
図枠
  5
394
 10
899.845
 20
-311.898
 30
0.000000
  70
    32
  0
VERTEX
  8
図枠
  5
395
 10
899.860
 20
-311.910
 30
0.000000
  70
    32
  0
VERTEX
  8
図枠
  5
396
 10
899.874
 20
-311.923
 30
0.000000
  70
    32
  0
VERTEX
  8
図枠
  5
397
 10
899.889
 20
-311.935
 30
0.000000
  70
    32
  0
VERTEX
  8
図枠
  5
398
 10
899.904
 20
-311.947
 30
0.000000
  70
    32
  0
VERTEX
  8
図枠
  5
399
 10
899.919
 20
-311.959
 30
0.000000
  70
    32
  0
VERTEX
  8
図枠
  5
39A
 10
899.934
 20
-311.971
 30
0.000000
  70
    32
  0
VERTEX
  8
図枠
  5
39B
 10
899.949
 20
-311.984
 30
0.000000
  70
    32
  0
VERTEX
  8
図枠
  5
39C
 10
899.964
 20
-311.996
 30
0.000000
  70
    32
  0
VERTEX
  8
図枠
  5
39D
 10
899.979
 20
-312.008
 30
0.000000
  70
    32
  0
VERTEX
  8
図枠
  5
39E
 10
899.994
 20
-312.020
 30
0.000000
  70
    32
  0
VERTEX
  8
図枠
  5
39F
 10
900.010
 20
-312.032
 30
0.000000
  70
    32
  0
VERTEX
  8
図枠
  5
3A0
 10
900.025
 20
-312.044
 30
0.000000
  70
    32
  0
VERTEX
  8
図枠
  5
3A1
 10
900.040
 20
-312.056
 30
0.000000
  70
    32
  0
VERTEX
  8
図枠
  5
3A2
 10
900.055
 20
-312.068
 30
0.000000
  70
    32
  0
VERTEX
  8
図枠
  5
3A3
 10
900.070
 20
-312.080
 30
0.000000
  70
    32
  0
VERTEX
  8
図枠
  5
3A4
 10
900.085
 20
-312.092
 30
0.000000
  70
    32
  0
VERTEX
  8
図枠
  5
3A5
 10
900.100
 20
-312.104
 30
0.000000
  70
    32
  0
VERTEX
  8
図枠
  5
3A6
 10
900.115
 20
-312.116
 30
0.000000
  70
    32
  0
VERTEX
  8
図枠
  5
3A7
 10
900.131
 20
-312.128
 30
0.000000
  70
    32
  0
VERTEX
  8
図枠
  5
3A8
 10
900.146
 20
-312.140
 30
0.000000
  70
    32
  0
VERTEX
  8
図枠
  5
3A9
 10
900.161
 20
-312.151
 30
0.000000
  70
    32
  0
VERTEX
  8
図枠
  5
3AA
 10
900.176
 20
-312.163
 30
0.000000
  70
    32
  0
VERTEX
  8
図枠
  5
3AB
 10
900.191
 20
-312.175
 30
0.000000
  70
    32
  0
VERTEX
  8
図枠
  5
3AC
 10
900.207
 20
-312.187
 30
0.000000
  70
    32
  0
VERTEX
  8
図枠
  5
3AD
 10
900.222
 20
-312.198
 30
0.000000
  70
    32
  0
VERTEX
  8
図枠
  5
3AE
 10
900.237
 20
-312.210
 30
0.000000
  70
    32
  0
VERTEX
  8
図枠
  5
3AF
 10
900.253
 20
-312.222
 30
0.000000
  70
    32
  0
VERTEX
  8
図枠
  5
3B0
 10
900.268
 20
-312.233
 30
0.000000
  70
    32
  0
VERTEX
  8
図枠
  5
3B1
 10
900.283
 20
-312.245
 30
0.000000
  70
    32
  0
VERTEX
  8
図枠
  5
3B2
 10
900.299
 20
-312.256
 30
0.000000
  70
    32
  0
VERTEX
  8
図枠
  5
3B3
 10
900.314
 20
-312.268
 30
0.000000
  70
    32
  0
VERTEX
  8
図枠
  5
3B4
 10
900.329
 20
-312.279
 30
0.000000
  70
    32
  0
VERTEX
  8
図枠
  5
3B5
 10
900.345
 20
-312.291
 30
0.000000
  70
    32
  0
VERTEX
  8
図枠
  5
3B6
 10
900.360
 20
-312.302
 30
0.000000
  70
    32
  0
VERTEX
  8
図枠
  5
3B7
 10
900.376
 20
-312.313
 30
0.000000
  70
    32
  0
VERTEX
  8
図枠
  5
3B8
 10
900.391
 20
-312.325
 30
0.000000
  70
    32
  0
VERTEX
  8
図枠
  5
3B9
 10
900.406
 20
-312.336
 30
0.000000
  70
    32
  0
VERTEX
  8
図枠
  5
3BA
 10
900.422
 20
-312.347
 30
0.000000
  70
    32
  0
VERTEX
  8
図枠
  5
3BB
 10
900.437
 20
-312.359
 30
0.000000
  70
    32
  0
VERTEX
  8
図枠
  5
3BC
 10
900.453
 20
-312.370
 30
0.000000
  70
    32
  0
VERTEX
  8
図枠
  5
3BD
 10
900.469
 20
-312.381
 30
0.000000
  70
    32
  0
VERTEX
  8
図枠
  5
3BE
 10
900.484
 20
-312.392
 30
0.000000
  70
    32
  0
VERTEX
  8
図枠
  5
3BF
 10
900.500
 20
-312.403
 30
0.000000
  70
    32
  0
VERTEX
  8
図枠
  5
3C0
 10
900.515
 20
-312.414
 30
0.000000
  70
    32
  0
VERTEX
  8
図枠
  5
3C1
 10
900.531
 20
-312.425
 30
0.000000
  70
    32
  0
VERTEX
  8
図枠
  5
3C2
 10
900.547
 20
-312.436
 30
0.000000
  70
    32
  0
VERTEX
  8
図枠
  5
3C3
 10
900.562
 20
-312.447
 30
0.000000
  70
    32
  0
VERTEX
  8
図枠
  5
3C4
 10
900.578
 20
-312.458
 30
0.000000
  70
    32
  0
VERTEX
  8
図枠
  5
3C5
 10
900.594
 20
-312.469
 30
0.000000
  70
    32
  0
VERTEX
  8
図枠
  5
3C6
 10
900.609
 20
-312.480
 30
0.000000
  70
    32
  0
VERTEX
  8
図枠
  5
3C7
 10
900.625
 20
-312.491
 30
0.000000
  70
    32
  0
VERTEX
  8
図枠
  5
3C8
 10
900.641
 20
-312.502
 30
0.000000
  70
    32
  0
VERTEX
  8
図枠
  5
3C9
 10
900.657
 20
-312.512
 30
0.000000
  70
    32
  0
VERTEX
  8
図枠
  5
3CA
 10
900.672
 20
-312.523
 30
0.000000
  70
    32
  0
VERTEX
  8
図枠
  5
3CB
 10
900.688
 20
-312.534
 30
0.000000
  70
    32
  0
VERTEX
  8
図枠
  5
3CC
 10
900.704
 20
-312.544
 30
0.000000
  70
    32
  0
VERTEX
  8
図枠
  5
3CD
 10
900.720
 20
-312.555
 30
0.000000
  70
    32
  0
VERTEX
  8
図枠
  5
3CE
 10
900.736
 20
-312.565
 30
0.000000
  70
    32
  0
VERTEX
  8
図枠
  5
3CF
 10
900.752
 20
-312.576
 30
0.000000
  70
    32
  0
VERTEX
  8
図枠
  5
3D0
 10
900.768
 20
-312.586
 30
0.000000
  70
    32
  0
VERTEX
  8
図枠
  5
3D1
 10
900.784
 20
-312.597
 30
0.000000
  70
    32
  0
VERTEX
  8
図枠
  5
3D2
 10
900.800
 20
-312.607
 30
0.000000
  70
    32
  0
VERTEX
  8
図枠
  5
3D3
 10
900.816
 20
-312.618
 30
0.000000
  70
    32
  0
VERTEX
  8
図枠
  5
3D4
 10
900.832
 20
-312.628
 30
0.000000
  70
    32
  0
VERTEX
  8
図枠
  5
3D5
 10
900.848
 20
-312.638
 30
0.000000
  70
    32
  0
VERTEX
  8
図枠
  5
3D6
 10
900.864
 20
-312.648
 30
0.000000
  70
    32
  0
VERTEX
  8
図枠
  5
3D7
 10
900.880
 20
-312.659
 30
0.000000
  70
    32
  0
VERTEX
  8
図枠
  5
3D8
 10
900.896
 20
-312.669
 30
0.000000
  70
    32
  0
VERTEX
  8
図枠
  5
3D9
 10
900.912
 20
-312.679
 30
0.000000
  70
    32
  0
VERTEX
  8
図枠
  5
3DA
 10
900.928
 20
-312.689
 30
0.000000
  70
    32
  0
VERTEX
  8
図枠
  5
3DB
 10
900.944
 20
-312.699
 30
0.000000
  70
    32
  0
VERTEX
  8
図枠
  5
3DC
 10
900.960
 20
-312.709
 30
0.000000
  70
    32
  0
VERTEX
  8
図枠
  5
3DD
 10
900.977
 20
-312.719
 30
0.000000
  70
    32
  0
VERTEX
  8
図枠
  5
3DE
 10
900.993
 20
-312.729
 30
0.000000
  70
    32
  0
VERTEX
  8
図枠
  5
3DF
 10
901.009
 20
-312.739
 30
0.000000
  70
    32
  0
VERTEX
  8
図枠
  5
3E0
 10
901.025
 20
-312.748
 30
0.000000
  70
    32
  0
SEQEND
  8
図枠
  5
3E1
  0
LINE
  5
130
  8
図枠
 10
896.50623528080007
 20
-308.70680152369999
 30
0.0
 11
893.30655528080013
 21
-308.70680152369999
 31
0.0
  0
LINE
  5
131
  8
図枠
 10
891.70671528080004
 20
-310.30664152369991
 30
0.0
 11
891.70671528080004
 21
-309.9066815237
 31
0.0
  0
LINE
  5
132
  8
図枠
 10
898.63450728079988
 20
-310.82196641399997
 30
0.0
 11
898.63450728079988
 21
-310.5643039688
 31
0.0
  0
INSERT
  5
133
  8
0
  6
CONTINUOUS
  2
*U32
 10
0.0
 20
0.0
 30
0.0
  0
LINE
  5
134
  8
図枠
 10
895.30635528079995
 20
-311.50652152369997
 30
0.0
 11
896.50623528080007
 21
-311.50652152369997
 31
0.0
  0
INSERT
  5
135
  8
0
  6
CONTINUOUS
  2
*U33
 10
0.0
 20
0.0
 30
0.0
  0
INSERT
  5
136
  8
0
  6
CONTINUOUS
  2
*U34
 10
0.0
 20
0.0
 30
0.0
  0
INSERT
  5
137
  8
0
  6
CONTINUOUS
  2
*U35
 10
0.0
 20
0.0
 30
0.0
  0
LINE
  5
138
  8
図枠
 10
893.30655528080013
 20
-310.30664152369991
 30
0.0
 11
891.70671528080004
 21
-310.30664152369991
 31
0.0
  0
ARC
  5
139
  8
図枠
 10
892.1066752808
 20
-311.90648152369999
 30
0.0
 40
1.1998799999999989
 50
270.0
 51
0.0
  0
LINE
  5
13A
  8
図枠
 10
898.63450728079988
 20
-308.70680152369999
 30
0.0
 11
898.63450728079988
 21
-310.14665752370001
 31
0.0
  0
LINE
  5
13B
  8
図枠
 10
878.51083363490011
 20
-290.33677708329998
 30
0.0
 11
878.51083363490011
 21
-298.83592708330002
 31
0.0
  0
LINE
  5
13C
  8
図枠
 10
889.70691528079988
 20
-312.70640152369998
 30
0.0
 11
891.70671528080004
 21
-312.70640152369998
 31
0.0
  0
LINE
  5
13D
  8
図枠
 10
858.51283363490006
 20
-290.33677708329998
 30
0.0
 11
858.51283363490006
 21
-315.83422708329999
 31
0.0
  0
LINE
  5
13E
  8
図枠
 10
896.50623528080007
 20
-310.30664152369991
 30
0.0
 11
896.50623528080007
 21
-311.50652152369997
 31
0.0
  0
LINE
  5
13F
  8
図枠
 10
860.5126336349
 20
-294.58635208330003
 30
0.0
 11
876.51103363489995
 21
-294.58635208330003
 31
0.0
  0
LINE
  5
140
  8
図枠
 10
889.70691528079988
 20
-311.50652152369997
 30
0.0
 11
889.70691528079988
 21
-312.70640152369998
 31
0.0
  0
LINE
  5
141
  8
図枠
 10
889.70691528079988
 20
-308.70680152369999
 30
0.0
 11
889.70691528079988
 21
-310.30664152369991
 31
0.0
  0
LINE
  5
142
  8
図枠
 10
898.63450728079988
 20
-314.30624152370001
 30
0.0
 11
900.63430728080004
 21
-314.30624152370001
 31
0.0
  0
ARC
  5
143
  8
図枠
 10
899.59441128080005
 20
-310.06666552370001
 30
0.0
 40
3.0396959999999988
 50
270.0
 51
298.08590481520002
  0
LINE
  5
144
  8
図枠
 10
893.30655528080013
 20
-311.50652152369997
 30
0.0
 11
893.30655528080013
 21
-311.90648152369999
 31
0.0
  0
LINE
  5
145
  8
図枠
 10
895.30635528079995
 20
-309.9066815237
 30
0.0
 11
896.50623528080007
 21
-308.70680152369999
 31
0.0
  0
LINE
  5
146
  8
図枠
 10
893.30655528080013
 20
-308.70680152369999
 30
0.0
 11
893.30655528080013
 21
-310.30664152369991
 31
0.0
  0
LINE
  5
147
  8
図枠
 10
896.50623528080007
 20
-310.30664152369991
 30
0.0
 11
895.30635528079995
 21
-310.30664152369991
 31
0.0
  0
LINE
  5
148
  8
図枠
 10
891.70671528080004
 20
-311.50652152369997
 30
0.0
 11
893.30655528080013
 21
-311.50652152369997
 31
0.0
  0
INSERT
  5
149
  8
0
  6
CONTINUOUS
  2
*U36
 10
0.0
 20
0.0
 30
0.0
  0
LINE
  5
14A
  8
図枠
 10
898.63450728079988
 20
-313.1063615237
 30
0.0
 11
898.63450728079988
 21
-314.30624152370001
 31
0.0
  0
LINE
  5
14B
  8
図枠
 10
860.5126336349
 20
-303.08550208330001
 30
0.0
 11
886.51003363489997
 21
-303.08550208330001
 31
0.0
  0
LINE
  5
14C
  8
図枠
 10
895.30635528079995
 20
-311.90648152369999
 30
0.0
 11
895.30635528079995
 21
-311.50652152369997
 31
0.0
  0
INSERT
  5
14D
  8
0
  6
CONTINUOUS
  2
*U37
 10
0.0
 20
0.0
 30
0.0
  0
INSERT
  5
14E
  8
0
  6
CONTINUOUS
  2
*U38
 10
0.0
 20
0.0
 30
0.0
  0
LINE
  5
14F
  8
図枠
 10
895.30635528079995
 20
-310.30664152369991
 30
0.0
 11
895.30635528079995
 21
-309.9066815237
 31
0.0
  0
LINE
  5
150
  8
図枠
 10
889.70691528079988
 20
-311.50652152369997
 30
0.0
 11
889.58604431979995
 21
-311.50652152369997
 31
0.0
  0
LINE
  5
151
  8
図枠
 10
888.50983363490013
 20
-298.83592708330002
 30
0.0
 11
888.50983363490013
 21
-307.33507708330001
 31
0.0
  0
INSERT
  5
152
  8
0
  6
CONTINUOUS
  2
*U39
 10
0.0
 20
0.0
 30
0.0
  0
LINE
  5
153
  8
図枠
 10
889.70691528079988
 20
-310.30664152369991
 30
0.0
 11
888.78612431979991
 21
-310.30664152369991
 31
0.0
  0
LINE
  5
154
  8
図枠
 10
888.78612431979991
 20
-310.30664152369991
 30
0.0
 11
888.78612431979991
 21
-311.50652152369997
 31
0.0
  0
LINE
  5
155
  8
図枠
 10
892.90659528080005
 20
-308.70680152369999
 30
0.0
 11
889.70691528079988
 21
-308.70680152369999
 31
0.0
  0
LINE
  5
156
  8
図枠
 10
891.70671528080004
 20
-312.70640152369998
 30
0.0
 11
891.70671528080004
 21
-311.50652152369997
 31
0.0
  0
LINE
  5
157
  8
ﾚｲﾔ_1
 62
     5
 10
790.83510546130003
 20
-189.63190872999999
 30
0.0
 11
790.83510546130003
 21
-196.85714226979999
 31
0.0
  0
ARC
  5
158
  8
ﾚｲﾔ_1
 62
     5
 10
762.71010546130003
 20
-196.85714226979999
 30
0.0
 40
3.375
 50
180.0
 51
0.0
  0
LINE
  5
159
  8
ﾚｲﾔ_1
 62
     5
 10
759.33510546130003
 20
-189.63190872999999
 30
0.0
 11
759.33510546130003
 21
-196.85714226979999
 31
0.0
  0
LINE
  5
15A
  8
ﾚｲﾔ_1
 62
     5
 10
768.08510546130003
 20
-192.63190872999999
 30
0.0
 11
770.61519371889995
 21
-192.63190872999999
 31
0.0
  0
ARC
  5
15B
  8
ﾚｲﾔ_1
 62
     5
 10
775.08510546130003
 20
-195.83190873000001
 30
0.0
 40
3.5
 50
89.931156526600006
 51
144.30182445060001
  0
LINE
  5
15C
  8
ﾚｲﾔ_1
  6
BORDER
 62
     3
 10
763.43510546130005
 20
-206.13190872999999
 30
0.0
 11
786.73510546130001
 21
-206.13190872999999
 31
0.0
  0
LINE
  5
15D
  8
ﾚｲﾔ_1
  6
BORDER
 62
     3
 10
775.08510546130003
 20
-183.13190872999999
 30
0.0
 11
775.08510546130003
 21
-213.83190873000001
 31
0.0
  0
LINE
  5
15E
  8
ﾚｲﾔ_1
 62
     5
 10
776.08510546130003
 20
-187.1319084525
 30
0.0
 11
776.08510546130003
 21
-190.42353235979999
 31
0.0
  0
ARC
  5
15F
  8
ﾚｲﾔ_1
 62
     5
 10
775.08510546130003
 20
-187.13190872999999
 30
0.0
 40
1.0
 50
0.0000159009
 51
179.99998171050001
  0
LINE
  5
160
  8
ﾚｲﾔ_1
 62
     5
 10
774.08510546130003
 20
-187.13190841080001
 30
0.0
 11
774.08510546130003
 21
-190.42353235979999
 31
0.0
  0
LINE
  5
161
  8
ﾚｲﾔ_1
  6
BORDER
 62
     3
 10
762.83510546130003
 20
-187.93302515760001
 30
0.0
 11
762.83510546130003
 21
-199.1330251576
 31
0.0
  0
LINE
  5
162
  8
ﾚｲﾔ_1
  6
BORDER
 62
     3
 10
759.33510546130003
 20
-193.53302515759989
 30
0.0
 11
766.08510546130003
 21
-193.53302515759989
 31
0.0
  0
LINE
  5
163
  8
ﾚｲﾔ_1
 62
     5
 10
784.08510546130003
 20
-194.63190872999999
 30
0.0
 11
784.08510546130003
 21
-196.85714226979999
 31
0.0
  0
INSERT
  5
165
  8
ﾚｲﾔ_1
 62
     5
  2
CLUMP0
 10
0.0
 20
0.0
 30
0.0
  0
ARC
  5
16C
  8
ﾚｲﾔ_1
 62
     5
 10
792.51902286429993
 20
-208.41868385250001
 30
0.0
 40
25.0
 50
144.17182445060001
 51
164.54016952489999
  0
ARC
  5
16D
  8
ﾚｲﾔ_1
 62
     5
 10
792.51902286429993
 20
-208.41868385250001
 30
0.0
 40
27.0
 50
144.17182445060001
 51
171.00992262330001
  0
ARC
  5
16E
  8
ﾚｲﾔ_1
 62
     5
 10
757.65118805820009
 20
-208.41868385250001
 30
0.0
 40
27.0
 50
8.9900773767000022
 51
35.828175549400001
  0
ARC
  5
16F
  8
ﾚｲﾔ_1
 62
     5
 10
757.65118805820009
 20
-208.41868385250001
 30
0.0
 40
25.0
 50
15.4598304751
 51
35.828175549400001
  0
LINE
  5
170
  8
ﾚｲﾔ_1
 62
     5
 10
762.83510546130003
 20
-186.13190872999999
 30
0.0
 11
787.33510546130003
 21
-186.13190872999999
 31
0.0
  0
ARC
  5
171
  8
ﾚｲﾔ_1
 62
     5
 10
787.33510546130003
 20
-189.63190872999999
 30
0.0
 40
3.5
 50
0.0
 51
90.0
  0
ARC
  5
172
  8
ﾚｲﾔ_1
 62
     5
 10
768.08510546130003
 20
-194.63190872999999
 30
0.0
 40
2.0
 50
90.0
 51
180.0
  0
ARC
  5
173
  8
ﾚｲﾔ_1
 62
     5
 10
782.08510546130003
 20
-194.63190872999999
 30
0.0
 40
2.0
 50
0.0
 51
90.0
  0
DIMENSION
  5
182
  8
寸法線
  2
*D9
 10
787.33510546130003
 20
-172.9303598198
 30
0.0
 11
775.08510546130003
 21
-172.9303598198
 31
0.0
 70
   128
  1
<>
 13
787.33510546130003
 23
-187.93302515760001
 33
0.0
 14
762.83510546130003
 24
-187.93302515760001
 34
0.0
  0
DIMENSION
  5
191
  8
寸法線
  2
*D10
 10
790.83510546130003
 20
-166.8931252383
 30
0.0
 11
775.08510546130003
 21
-166.8931252383
 31
0.0
 70
   128
  1
<>
 13
790.83510546130003
 23
-189.63190872999999
 33
0.0
 14
759.33510546130003
 24
-189.63190872999999
 34
0.0
  0
DIMENSION
  5
1A0
  8
寸法線
  2
*D11
 10
788.93510546130005
 20
-179.04822865880001
 30
0.0
 11
781.34033038849998
 21
-179.04822865880001
 31
0.0
 70
   128
  1
3
 13
788.93510546130005
 23
-191.5330251963
 33
0.0
 14
785.7351054612999
 24
-191.53302511499999
 34
0.0
  0
LINE
  5
1A1
  8
ﾚｲﾔ_1
 62
     5
 10
774.83494184070003
 20
-246.41800645250001
 30
0.0
 11
765.43494184070005
 21
-246.41800645250001
 31
0.0
  0
LINE
  5
1A2
  8
ﾚｲﾔ_1
 62
     5
 10
774.83494184070003
 20
-255.0180064525
 30
0.0
 11
765.43494184070005
 21
-255.0180064525
 31
0.0
  0
LINE
  5
1A3
  8
ﾚｲﾔ_1
 62
     5
 10
759.33507402460009
 20
-258.26795760200002
 30
0.0
 11
790.83507402459998
 21
-258.26795760200002
 31
0.0
  0
LINE
  5
1A4
  8
ﾚｲﾔ_1
 62
     5
 10
759.33507402460009
 20
-255.96795760200001
 30
0.0
 11
790.83507402459998
 21
-255.96795760200001
 31
0.0
  0
LINE
  5
1A5
  8
ﾚｲﾔ_1
 62
     5
 10
759.33507402460009
 20
-255.96795760200001
 30
0.0
 11
759.33507402460009
 21
-258.26795760200002
 31
0.0
  0
LINE
  5
1A6
  8
ﾚｲﾔ_1
 62
     5
 10
790.83507402459998
 20
-255.96795760200001
 30
0.0
 11
790.83507402459998
 21
-258.26795760200002
 31
0.0
  0
LINE
  5
1A7
  8
ﾚｲﾔ_1
 62
     5
 10
765.63657033710001
 20
-252.167957602
 30
0.0
 11
784.53507402460002
 21
-252.167957602
 31
0.0
  0
LINE
  5
1A8
  8
ﾚｲﾔ_1
 62
     5
 10
779.58507402460009
 20
-255.96795760200001
 30
0.0
 11
779.58507402460009
 21
-255.0180064525
 31
0.0
  0
LINE
  5
1A9
  8
ﾚｲﾔ_1
 62
     5
 10
770.58507402460009
 20
-255.96795760200001
 30
0.0
 11
770.58507402460009
 21
-255.0180064525
 31
0.0
  0
LINE
  5
1AA
  8
ﾚｲﾔ_1
 62
     5
 10
784.53507402460002
 20
-249.267957602
 30
0.0
 11
784.53507402460002
 21
-252.167957602
 31
0.0
  0
LINE
  5
1AB
  8
ﾚｲﾔ_1
  6
BORDER
 62
     3
 10
780.03507402460002
 20
-245.60754093529999
 30
0.0
 11
780.03507402460002
 21
-256.51379093529999
 31
0.0
  0
LINE
  5
1AC
  8
ﾚｲﾔ_1
  6
BORDER
 62
     3
 10
790.83510546130003
 20
-193.53302515759989
 30
0.0
 11
784.08510546130003
 21
-193.53302515759989
 31
0.0
  0
LINE
  5
1AD
  8
ﾚｲﾔ_1
  6
BORDER
 62
     3
 10
787.33510546130003
 20
-187.93302515760001
 30
0.0
 11
787.33510546130003
 21
-199.1330251576
 31
0.0
  0
LINE
  5
1AE
  8
ﾚｲﾔ_1
  6
BORDER
 62
     3
 10
780.03510546130008
 20
-212.83190873000001
 30
0.0
 11
780.03510546130008
 21
-199.43190873
 31
0.0
  0
LINE
  5
1AF
  8
ﾚｲﾔ_1
  6
BORDER
 62
     3
 10
770.1351054613001
 20
-212.83190873000001
 30
0.0
 11
770.1351054613001
 21
-199.43190873
 31
0.0
  0
LINE
  5
1B0
  8
ﾚｲﾔ_1
 62
     5
 10
779.5550172037
 20
-192.63190872999999
 30
0.0
 11
782.08510546130003
 21
-192.63190872999999
 31
0.0
  0
CIRCLE
  5
1B1
  8
ﾚｲﾔ_1
 62
     5
 10
770.1351054613001
 20
-206.13190872999999
 30
0.0
 40
4.7000000000000002
  0
CIRCLE
  5
1B2
  8
ﾚｲﾔ_1
 62
     5
 10
780.03510546130008
 20
-206.13190872999999
 30
0.0
 40
4.7000000000000002
  0
ARC
  5
1B3
  8
ﾚｲﾔ_1
 62
     5
 10
762.83510546130003
 20
-189.63190872999999
 30
0.0
 40
3.5
 50
90.0
 51
180.0
  0
ARC
  5
1B4
  8
ﾚｲﾔ_1
 62
     5
 10
775.08510546130003
 20
-195.83190873000001
 30
0.0
 40
5.5000486326999987
 50
100.47558802179999
 51
144.30182445060001
  0
INSERT
  5
1B6
  8
ﾚｲﾔ_1
 62
     5
  2
CLUMP1
 10
0.0
 20
0.0
 30
0.0
  0
ARC
  5
1BD
  8
ﾚｲﾔ_1
 62
     5
 10
775.08510546130003
 20
-195.83190873000001
 30
0.0
 40
3.5
 50
35.698175549399998
 51
90.068843473400008
  0
ARC
  5
1BE
  8
ﾚｲﾔ_1
 62
     5
 10
775.08510546130003
 20
-195.83190873000001
 30
0.0
 40
5.5000486326999987
 50
35.698175549399998
 51
79.524411978200007
  0
LINE
  5
1BF
  8
ﾚｲﾔ_1
 62
     5
 10
766.08510546130003
 20
-194.63190872999999
 30
0.0
 11
766.08510546130003
 21
-196.85714226979999
 31
0.0
  0
ARC
  5
1C0
  8
ﾚｲﾔ_1
 62
     5
 10
787.46010546130003
 20
-196.85714226979999
 30
0.0
 40
3.375
 50
180.0
 51
0.0
  0
LINE
  5
1C1
  8
図枠
 10
858.51283363490006
 20
-290.33677708329998
 30
0.0
 11
974.50123363490013
 21
-290.33677708329998
 31
0.0
  0
DIMENSION
  5
1D0
  8
寸法線
  2
*D13
 10
807.11574225929996
 20
-200.2319130743
 30
0.0
 11
807.11574225929996
 21
-193.1819109022
 31
0.0
 70
   128
  1
14
 13
787.49943759789994
 23
-200.2319130743
 33
0.0
 14
787.33510546130003
 24
-186.13190872999999
 34
0.0
 50
90.0
  0
DIMENSION
  5
1DF
  8
寸法線
  2
*D14
 10
814.95737551490015
 20
-210.83190873000001
 30
0.0
 11
814.95737551490015
 21
-198.48190872999999
 31
0.0
 70
   128
  1
24.5
 13
780.03510546130008
 23
-210.83190873000001
 33
0.0
 14
787.33510546130003
 24
-186.13190872999999
 34
0.0
 50
90.0
  0
DIMENSION
  5
1EE
  8
寸法線
  2
*D15
 10
800.60196435339992
 20
-197.1330251576
 30
0.0
 11
800.60196435339992
 21
-193.53302515759989
 31
0.0
 70
   128
  1
7
 13
787.33510546130003
 23
-197.1330251576
 33
0.0
 14
787.33510546130003
 24
-189.93302515760001
 34
0.0
 50
90.0
  0
LINE
  5
1EF
  8
ﾚｲﾔ_1
  6
DIVIDE
 62
     4
 10
865.15746557509999
 20
-230.30461077109999
 30
0.0
 11
865.15746557509999
 21
-160.30461077109999
 31
0.0
  0
LINE
  5
1F0
  8
ﾚｲﾔ_1
  6
BORDER
 62
     3
 10
770.13507402460004
 20
-245.60754093529999
 30
0.0
 11
770.13507402460004
 21
-256.51379093529999
 31
0.0
  0
LINE
  5
1F1
  8
ﾚｲﾔ_1
  6
BORDER
 62
     3
 10
775.08507402460009
 20
-260.54848921119998
 30
0.0
 11
775.08507402460009
 21
-244.05308691229999
 31
0.0
  0
LINE
  5
1F2
  8
ﾚｲﾔ_1
 62
     5
 10
772.58507402459998
 20
-249.267957602
 30
0.0
 11
772.58507402459998
 21
-252.167957602
 31
0.0
  0
LINE
  5
1F3
  8
ﾚｲﾔ_1
 62
     5
 10
777.58507402459998
 20
-249.267957602
 30
0.0
 11
777.58507402459998
 21
-252.167957602
 31
0.0
  0
LINE
  5
1F4
  8
ﾚｲﾔ_1
 62
     5
 10
765.63700050520004
 20
-249.267957602
 30
0.0
 11
765.63657033710001
 21
-252.167957602
 31
0.0
  0
LINE
  5
1F5
  8
ﾚｲﾔ_1
 62
     5
 10
765.63700050520004
 20
-249.267957602
 30
0.0
 11
784.53507402460002
 21
-249.267957602
 31
0.0
  0
LINE
  5
1F6
  8
ﾚｲﾔ_1
 62
     5
 10
774.83494184070003
 20
-252.31800645249999
 30
0.0
 11
765.43494184070005
 21
-252.31800645249999
 31
0.0
  0
LINE
  5
1F7
  8
ﾚｲﾔ_1
 62
     5
 10
765.43494184070005
 20
-252.31800645249999
 30
0.0
 11
765.43494184070005
 21
-255.0180064525
 31
0.0
  0
LINE
  5
1F8
  8
ﾚｲﾔ_1
 62
     5
 10
774.83494184070003
 20
-249.1180064525
 30
0.0
 11
765.43494184070005
 21
-249.1180064525
 31
0.0
  0
LINE
  5
1F9
  8
ﾚｲﾔ_1
 62
     5
 10
765.43494184070005
 20
-246.41800645250001
 30
0.0
 11
765.43494184070005
 21
-249.1180064525
 31
0.0
  0
LINE
  5
1FA
  8
ﾚｲﾔ_1
 62
     5
 10
774.83494184070003
 20
-246.41800645250001
 30
0.0
 11
774.83494184070003
 21
-249.1180064525
 31
0.0
  0
LINE
  5
1FB
  8
ﾚｲﾔ_1
 62
     5
 10
774.83494184070003
 20
-252.31800645249999
 30
0.0
 11
774.83494184070003
 21
-255.0180064525
 31
0.0
  0
LINE
  5
1FC
  8
ﾚｲﾔ_1
 62
     5
 10
775.33520620850004
 20
-252.31800645249999
 30
0.0
 11
775.33520620850004
 21
-255.0180064525
 31
0.0
  0
LINE
  5
1FD
  8
ﾚｲﾔ_1
 62
     5
 10
775.33520620850004
 20
-252.31800645249999
 30
0.0
 11
784.73520620850002
 21
-252.31800645249999
 31
0.0
  0
LINE
  5
1FE
  8
ﾚｲﾔ_1
 62
     5
 10
775.33520620850004
 20
-249.1180064525
 30
0.0
 11
784.73520620850002
 21
-249.1180064525
 31
0.0
  0
LINE
  5
1FF
  8
ﾚｲﾔ_1
 62
     5
 10
775.33520620850004
 20
-246.41800645250001
 30
0.0
 11
775.33520620850004
 21
-249.1180064525
 31
0.0
  0
LINE
  5
200
  8
ﾚｲﾔ_1
 62
     5
 10
784.73520620850002
 20
-252.31800645249999
 30
0.0
 11
784.73520620850002
 21
-255.0180064525
 31
0.0
  0
LINE
  5
201
  8
ﾚｲﾔ_1
 62
     5
 10
784.73520620850002
 20
-246.41800645250001
 30
0.0
 11
784.73520620850002
 21
-249.1180064525
 31
0.0
  0
LINE
  5
202
  8
ﾚｲﾔ_1
 62
     5
 10
775.33520620850004
 20
-246.41800645250001
 30
0.0
 11
784.73520620850002
 21
-246.41800645250001
 31
0.0
  0
LINE
  5
203
  8
ﾚｲﾔ_1
 62
     5
 10
775.33520620850004
 20
-255.0180064525
 30
0.0
 11
784.73520620850002
 21
-255.0180064525
 31
0.0
  0
LINE
  5
204
  8
図枠
  6
BORDER
 10
901.11657283490001
 20
-294.58635208330003
 30
0.0
 11
915.89909443490001
 21
-294.58635208330003
 31
0.0
  0
CIRCLE
  5
205
  8
図枠
 10
904.57222723490008
 20
-294.58635208330003
 30
0.0
 40
2.303769599999999
  0
LINE
  5
206
  8
図枠
  6
DOT
 10
693.5293336348999
 20
-321.58365208330002
 30
0.0
 11
980.50063363490005
 21
-321.58365208330002
 31
0.0
  0
LINE
  5
207
  8
図枠
 62
     5
 10
699.52873363490005
 20
-315.83422708329999
 30
0.0
 11
974.50123363490013
 21
-315.83422708329999
 31
0.0
  0
LINE
  5
208
  8
図枠
 62
     5
 10
699.52873363490005
 20
-125.8532270833
 30
0.0
 11
974.50123363490013
 21
-125.8532270833
 31
0.0
  0
LINE
  5
209
  8
図枠
 10
858.51283363490006
 20
-298.83592708330002
 30
0.0
 11
974.50123363490013
 21
-298.83592708330002
 31
0.0
  0
LINE
  5
20A
  8
図枠
 62
     5
 10
880.51063363490005
 20
-140.85172708330001
 30
0.0
 11
974.50123363490013
 21
-140.85172708330001
 31
0.0
  0
INSERT
  5
20B
  8
0
  6
CONTINUOUS
  2
*U40
 10
0.0
 20
0.0
 30
0.0
  0
LINE
  5
20C
  8
図枠
 62
     5
 10
904.50823363489997
 20
-140.85172708330001
 30
0.0
 11
904.50823363489997
 21
-125.8532270833
 31
0.0
  0
CIRCLE
  5
20D
  8
図枠
 10
904.57222723490008
 20
-294.58635208330003
 30
0.0
 40
2.303769599999999
  0
CIRCLE
  5
20E
  8
図枠
 10
904.57222723490008
 20
-294.58635208330003
 30
0.0
 40
2.303769599999999
  0
CIRCLE
  5
20F
  8
図枠
 10
904.57222723490008
 20
-294.58635208330003
 30
0.0
 40
2.303769599999999
  0
LINE
  5
210
  8
図枠
 62
     5
 10
974.50123363490013
 20
-315.83422708329999
 30
0.0
 11
974.50123363490013
 21
-125.8532270833
 31
0.0
  0
LINE
  5
211
  8
図枠
  6
DOT
 10
980.50063363490005
 20
-321.58365208330002
 30
0.0
 11
980.50063363490005
 21
-120.1038020833
 31
0.0
  0
LINE
  5
212
  8
図枠
 62
     5
 10
699.52873363490005
 20
-315.83422708329999
 30
0.0
 11
699.52873363490005
 21
-125.8532270833
 31
0.0
  0
LINE
  5
213
  8
図枠
  6
DOT
 10
693.53233333490004
 20
-321.58365208330002
 30
0.0
 11
693.53233333490004
 21
-120.1038020833
 31
0.0
  0
LINE
  5
214
  8
図枠
  6
BORDER
 10
904.57222723490008
 20
-291.13069768330001
 30
0.0
 11
904.57222723490008
 21
-298.04200648329999
 31
0.0
  0
LINE
  5
215
  8
図枠
  6
BORDER
 10
904.57222723490008
 20
-291.13069768330001
 30
0.0
 11
904.57222723490008
 21
-298.04200648329999
 31
0.0
  0
LINE
  5
216
  8
図枠
 10
905.83378728079992
 20
-308.70680152369999
 30
0.0
 11
898.63450728079988
 21
-308.70680152369999
 31
0.0
  0
LINE
  5
217
  8
図枠
 10
890.50963363489996
 20
-303.08550208330001
 30
0.0
 11
916.50703363490004
 21
-303.08550208330001
 31
0.0
  0
LINE
  5
218
  8
図枠
 62
     5
 10
880.51063363490005
 20
-130.85272708330001
 30
0.0
 11
974.50123363490013
 21
-130.85272708330001
 31
0.0
  0
LINE
  5
219
  8
図枠
 62
     5
 10
880.51063363490005
 20
-135.85222708329999
 30
0.0
 11
974.50123363490013
 21
-135.85222708329999
 31
0.0
  0
INSERT
  5
21A
  8
0
  6
CONTINUOUS
  2
*U41
 10
0.0
 20
0.0
 30
0.0
  0
INSERT
  5
21B
  8
0
  6
CONTINUOUS
  2
*U42
 10
0.0
 20
0.0
 30
0.0
  0
LINE
  5
21C
  8
図枠
  6
DOT
 10
693.5293336348999
 20
-120.1038020833
 30
0.0
 11
980.50063363490005
 21
-120.1038020833
 31
0.0
  0
DIMENSION
  5
225
  8
寸法線
  2
*D16
 10
909.55928432909991
 20
-188.95195253700001
 30
0.0
 11
895.44904949580007
 21
-202.52722185510001
 31
0.0
 70
   131
  1
2-%%c<>
 15
907.43796398559994
 25
-191.0732728804999
 35
0.0
 40
0.0
  0
LINE
  5
226
  8
ﾚｲﾔ_1
  6
DIVIDE
 62
     4
 10
865.15746557509999
 20
-230.30461077109999
 30
0.0
 11
974.50123363490013
 21
-230.30461077109999
 31
0.0
  0
LINE
  5
227
  8
ﾚｲﾔ_1
  6
DIVIDE
 62
     4
 10
865.15746557509999
 20
-160.30461077109999
 30
0.0
 11
974.50123363490013
 21
-160.30461077109999
 31
0.0
  0
LINE
  5
228
  8
ﾚｲﾔ_1
 62
     5
 10
904.24862415730001
 20
-219.53134181940001
 30
0.0
 11
904.24862415730001
 21
-221.63134181940001
 31
0.0
  0
LINE
  5
229
  8
ﾚｲﾔ_1
 62
     5
 10
917.59862415729992
 20
-219.53134181940001
 30
0.0
 11
904.24862415730001
 21
-219.53134181940001
 31
0.0
  0
LINE
  5
22A
  8
ﾚｲﾔ_1
 62
     5
 10
936.54862415729997
 20
-221.63134181940001
 30
0.0
 11
904.24862415730001
 21
-221.63134181940001
 31
0.0
  0
LINE
  5
22B
  8
ﾚｲﾔ_1
  6
BORDER
 62
     3
 10
902.44862415729995
 20
-190.01261270869989
 30
0.0
 11
938.34862415729992
 21
-190.01261270869989
 31
0.0
  0
ARC
  5
22C
  8
ﾚｲﾔ_1
 62
     5
 10
905.94862415729995
 20
-193.06261270869999
 30
0.0
 40
1.5
 50
180.0
 51
270.0
  0
LINE
  5
22D
  8
ﾚｲﾔ_1
 62
     5
 10
904.44862415729983
 20
-193.06261270869999
 30
0.0
 11
904.44862415729983
 21
-186.96261270869999
 31
0.0
  0
ARC
  5
22E
  8
ﾚｲﾔ_1
 62
     5
 10
905.94862415729995
 20
-186.96261270869999
 30
0.0
 40
1.5
 50
90.0
 51
180.0
  0
LINE
  5
22F
  8
図枠
 62
     5
 10
954.50323363490008
 20
-140.85172708330001
 30
0.0
 11
954.50323363490008
 21
-125.8532270833
 31
0.0
  0
LINE
  5
230
  8
図枠
 62
     5
 10
964.50223363490011
 20
-140.85172708330001
 30
0.0
 11
964.50223363490011
 21
-125.8532270833
 31
0.0
  0
LINE
  5
231
  8
図枠
 62
     5
 10
888.50983363490013
 20
-140.85172708330001
 30
0.0
 11
888.50983363490013
 21
-125.8532270833
 31
0.0
  0
LINE
  5
232
  8
図枠
 62
     5
 10
880.51063363490005
 20
-140.85172708330001
 30
0.0
 11
880.51063363490005
 21
-125.8532270833
 31
0.0
  0
CIRCLE
  5
233
  8
図枠
 10
904.57222723490008
 20
-294.58635208330003
 30
0.0
 40
1.151884799999999
  0
CIRCLE
  5
234
  8
図枠
 10
904.57222723490008
 20
-294.58635208330003
 30
0.0
 40
1.151884799999999
  0
POLYLINE
  8
図枠
  5
3E2
  66
     1
 10
0.000000
 20
0.000000
 30
0.000000
  70
     8
  0
VERTEX
  8
図枠
  5
3E3
 10
903.982
 20
-312.725
 30
0.000000
  70
    32
  0
VERTEX
  8
図枠
  5
3E4
 10
903.996
 20
-312.729
 30
0.000000
  70
    32
  0
VERTEX
  8
図枠
  5
3E5
 10
904.010
 20
-312.733
 30
0.000000
  70
    32
  0
VERTEX
  8
図枠
  5
3E6
 10
904.024
 20
-312.737
 30
0.000000
  70
    32
  0
VERTEX
  8
図枠
  5
3E7
 10
904.038
 20
-312.741
 30
0.000000
  70
    32
  0
VERTEX
  8
図枠
  5
3E8
 10
904.052
 20
-312.745
 30
0.000000
  70
    32
  0
VERTEX
  8
図枠
  5
3E9
 10
904.066
 20
-312.749
 30
0.000000
  70
    32
  0
VERTEX
  8
図枠
  5
3EA
 10
904.080
 20
-312.752
 30
0.000000
  70
    32
  0
VERTEX
  8
図枠
  5
3EB
 10
904.094
 20
-312.756
 30
0.000000
  70
    32
  0
VERTEX
  8
図枠
  5
3EC
 10
904.108
 20
-312.760
 30
0.000000
  70
    32
  0
VERTEX
  8
図枠
  5
3ED
 10
904.122
 20
-312.764
 30
0.000000
  70
    32
  0
VERTEX
  8
図枠
  5
3EE
 10
904.136
 20
-312.768
 30
0.000000
  70
    32
  0
VERTEX
  8
図枠
  5
3EF
 10
904.150
 20
-312.771
 30
0.000000
  70
    32
  0
VERTEX
  8
図枠
  5
3F0
 10
904.165
 20
-312.775
 30
0.000000
  70
    32
  0
VERTEX
  8
図枠
  5
3F1
 10
904.179
 20
-312.779
 30
0.000000
  70
    32
  0
VERTEX
  8
図枠
  5
3F2
 10
904.193
 20
-312.782
 30
0.000000
  70
    32
  0
VERTEX
  8
図枠
  5
3F3
 10
904.207
 20
-312.786
 30
0.000000
  70
    32
  0
VERTEX
  8
図枠
  5
3F4
 10
904.221
 20
-312.790
 30
0.000000
  70
    32
  0
VERTEX
  8
図枠
  5
3F5
 10
904.235
 20
-312.793
 30
0.000000
  70
    32
  0
VERTEX
  8
図枠
  5
3F6
 10
904.250
 20
-312.797
 30
0.000000
  70
    32
  0
VERTEX
  8
図枠
  5
3F7
 10
904.264
 20
-312.800
 30
0.000000
  70
    32
  0
VERTEX
  8
図枠
  5
3F8
 10
904.278
 20
-312.804
 30
0.000000
  70
    32
  0
VERTEX
  8
図枠
  5
3F9
 10
904.292
 20
-312.807
 30
0.000000
  70
    32
  0
VERTEX
  8
図枠
  5
3FA
 10
904.307
 20
-312.811
 30
0.000000
  70
    32
  0
VERTEX
  8
図枠
  5
3FB
 10
904.321
 20
-312.814
 30
0.000000
  70
    32
  0
VERTEX
  8
図枠
  5
3FC
 10
904.335
 20
-312.818
 30
0.000000
  70
    32
  0
VERTEX
  8
図枠
  5
3FD
 10
904.350
 20
-312.821
 30
0.000000
  70
    32
  0
VERTEX
  8
図枠
  5
3FE
 10
904.364
 20
-312.825
 30
0.000000
  70
    32
  0
VERTEX
  8
図枠
  5
3FF
 10
904.378
 20
-312.828
 30
0.000000
  70
    32
  0
VERTEX
  8
図枠
  5
400
 10
904.393
 20
-312.832
 30
0.000000
  70
    32
  0
VERTEX
  8
図枠
  5
401
 10
904.407
 20
-312.835
 30
0.000000
  70
    32
  0
VERTEX
  8
図枠
  5
402
 10
904.421
 20
-312.838
 30
0.000000
  70
    32
  0
VERTEX
  8
図枠
  5
403
 10
904.436
 20
-312.842
 30
0.000000
  70
    32
  0
VERTEX
  8
図枠
  5
404
 10
904.450
 20
-312.845
 30
0.000000
  70
    32
  0
VERTEX
  8
図枠
  5
405
 10
904.464
 20
-312.848
 30
0.000000
  70
    32
  0
VERTEX
  8
図枠
  5
406
 10
904.479
 20
-312.852
 30
0.000000
  70
    32
  0
VERTEX
  8
図枠
  5
407
 10
904.493
 20
-312.855
 30
0.000000
  70
    32
  0
VERTEX
  8
図枠
  5
408
 10
904.508
 20
-312.858
 30
0.000000
  70
    32
  0
VERTEX
  8
図枠
  5
409
 10
904.522
 20
-312.861
 30
0.000000
  70
    32
  0
VERTEX
  8
図枠
  5
40A
 10
904.537
 20
-312.865
 30
0.000000
  70
    32
  0
VERTEX
  8
図枠
  5
40B
 10
904.551
 20
-312.868
 30
0.000000
  70
    32
  0
VERTEX
  8
図枠
  5
40C
 10
904.566
 20
-312.871
 30
0.000000
  70
    32
  0
VERTEX
  8
図枠
  5
40D
 10
904.580
 20
-312.874
 30
0.000000
  70
    32
  0
VERTEX
  8
図枠
  5
40E
 10
904.594
 20
-312.877
 30
0.000000
  70
    32
  0
VERTEX
  8
図枠
  5
40F
 10
904.609
 20
-312.880
 30
0.000000
  70
    32
  0
VERTEX
  8
図枠
  5
410
 10
904.623
 20
-312.884
 30
0.000000
  70
    32
  0
VERTEX
  8
図枠
  5
411
 10
904.638
 20
-312.887
 30
0.000000
  70
    32
  0
VERTEX
  8
図枠
  5
412
 10
904.652
 20
-312.890
 30
0.000000
  70
    32
  0
VERTEX
  8
図枠
  5
413
 10
904.667
 20
-312.893
 30
0.000000
  70
    32
  0
VERTEX
  8
図枠
  5
414
 10
904.682
 20
-312.896
 30
0.000000
  70
    32
  0
VERTEX
  8
図枠
  5
415
 10
904.696
 20
-312.899
 30
0.000000
  70
    32
  0
VERTEX
  8
図枠
  5
416
 10
904.711
 20
-312.902
 30
0.000000
  70
    32
  0
VERTEX
  8
図枠
  5
417
 10
904.725
 20
-312.905
 30
0.000000
  70
    32
  0
VERTEX
  8
図枠
  5
418
 10
904.740
 20
-312.908
 30
0.000000
  70
    32
  0
VERTEX
  8
図枠
  5
419
 10
904.754
 20
-312.911
 30
0.000000
  70
    32
  0
VERTEX
  8
図枠
  5
41A
 10
904.769
 20
-312.914
 30
0.000000
  70
    32
  0
VERTEX
  8
図枠
  5
41B
 10
904.784
 20
-312.917
 30
0.000000
  70
    32
  0
VERTEX
  8
図枠
  5
41C
 10
904.798
 20
-312.920
 30
0.000000
  70
    32
  0
VERTEX
  8
図枠
  5
41D
 10
904.813
 20
-312.923
 30
0.000000
  70
    32
  0
VERTEX
  8
図枠
  5
41E
 10
904.827
 20
-312.926
 30
0.000000
  70
    32
  0
VERTEX
  8
図枠
  5
41F
 10
904.842
 20
-312.929
 30
0.000000
  70
    32
  0
VERTEX
  8
図枠
  5
420
 10
904.857
 20
-312.932
 30
0.000000
  70
    32
  0
VERTEX
  8
図枠
  5
421
 10
904.871
 20
-312.935
 30
0.000000
  70
    32
  0
VERTEX
  8
図枠
  5
422
 10
904.886
 20
-312.938
 30
0.000000
  70
    32
  0
VERTEX
  8
図枠
  5
423
 10
904.901
 20
-312.940
 30
0.000000
  70
    32
  0
VERTEX
  8
図枠
  5
424
 10
904.915
 20
-312.943
 30
0.000000
  70
    32
  0
VERTEX
  8
図枠
  5
425
 10
904.930
 20
-312.946
 30
0.000000
  70
    32
  0
VERTEX
  8
図枠
  5
426
 10
904.945
 20
-312.949
 30
0.000000
  70
    32
  0
VERTEX
  8
図枠
  5
427
 10
904.959
 20
-312.952
 30
0.000000
  70
    32
  0
VERTEX
  8
図枠
  5
428
 10
904.974
 20
-312.955
 30
0.000000
  70
    32
  0
VERTEX
  8
図枠
  5
429
 10
904.989
 20
-312.957
 30
0.000000
  70
    32
  0
VERTEX
  8
図枠
  5
42A
 10
905.003
 20
-312.960
 30
0.000000
  70
    32
  0
VERTEX
  8
図枠
  5
42B
 10
905.018
 20
-312.963
 30
0.000000
  70
    32
  0
VERTEX
  8
図枠
  5
42C
 10
905.033
 20
-312.966
 30
0.000000
  70
    32
  0
VERTEX
  8
図枠
  5
42D
 10
905.048
 20
-312.969
 30
0.000000
  70
    32
  0
VERTEX
  8
図枠
  5
42E
 10
905.062
 20
-312.971
 30
0.000000
  70
    32
  0
VERTEX
  8
図枠
  5
42F
 10
905.077
 20
-312.974
 30
0.000000
  70
    32
  0
VERTEX
  8
図枠
  5
430
 10
905.092
 20
-312.977
 30
0.000000
  70
    32
  0
VERTEX
  8
図枠
  5
431
 10
905.107
 20
-312.980
 30
0.000000
  70
    32
  0
VERTEX
  8
図枠
  5
432
 10
905.121
 20
-312.982
 30
0.000000
  70
    32
  0
VERTEX
  8
図枠
  5
433
 10
905.136
 20
-312.985
 30
0.000000
  70
    32
  0
VERTEX
  8
図枠
  5
434
 10
905.151
 20
-312.988
 30
0.000000
  70
    32
  0
VERTEX
  8
図枠
  5
435
 10
905.166
 20
-312.990
 30
0.000000
  70
    32
  0
VERTEX
  8
図枠
  5
436
 10
905.180
 20
-312.993
 30
0.000000
  70
    32
  0
VERTEX
  8
図枠
  5
437
 10
905.195
 20
-312.996
 30
0.000000
  70
    32
  0
VERTEX
  8
図枠
  5
438
 10
905.210
 20
-312.999
 30
0.000000
  70
    32
  0
VERTEX
  8
図枠
  5
439
 10
905.225
 20
-313.001
 30
0.000000
  70
    32
  0
VERTEX
  8
図枠
  5
43A
 10
905.240
 20
-313.004
 30
0.000000
  70
    32
  0
VERTEX
  8
図枠
  5
43B
 10
905.254
 20
-313.007
 30
0.000000
  70
    32
  0
VERTEX
  8
図枠
  5
43C
 10
905.269
 20
-313.009
 30
0.000000
  70
    32
  0
VERTEX
  8
図枠
  5
43D
 10
905.284
 20
-313.012
 30
0.000000
  70
    32
  0
VERTEX
  8
図枠
  5
43E
 10
905.299
 20
-313.014
 30
0.000000
  70
    32
  0
VERTEX
  8
図枠
  5
43F
 10
905.314
 20
-313.017
 30
0.000000
  70
    32
  0
VERTEX
  8
図枠
  5
440
 10
905.328
 20
-313.020
 30
0.000000
  70
    32
  0
VERTEX
  8
図枠
  5
441
 10
905.343
 20
-313.022
 30
0.000000
  70
    32
  0
VERTEX
  8
図枠
  5
442
 10
905.358
 20
-313.025
 30
0.000000
  70
    32
  0
VERTEX
  8
図枠
  5
443
 10
905.373
 20
-313.028
 30
0.000000
  70
    32
  0
VERTEX
  8
図枠
  5
444
 10
905.388
 20
-313.030
 30
0.000000
  70
    32
  0
VERTEX
  8
図枠
  5
445
 10
905.403
 20
-313.033
 30
0.000000
  70
    32
  0
VERTEX
  8
図枠
  5
446
 10
905.417
 20
-313.035
 30
0.000000
  70
    32
  0
VERTEX
  8
図枠
  5
447
 10
905.432
 20
-313.038
 30
0.000000
  70
    32
  0
VERTEX
  8
図枠
  5
448
 10
905.447
 20
-313.040
 30
0.000000
  70
    32
  0
VERTEX
  8
図枠
  5
449
 10
905.462
 20
-313.043
 30
0.000000
  70
    32
  0
VERTEX
  8
図枠
  5
44A
 10
905.477
 20
-313.046
 30
0.000000
  70
    32
  0
VERTEX
  8
図枠
  5
44B
 10
905.492
 20
-313.048
 30
0.000000
  70
    32
  0
VERTEX
  8
図枠
  5
44C
 10
905.506
 20
-313.051
 30
0.000000
  70
    32
  0
VERTEX
  8
図枠
  5
44D
 10
905.521
 20
-313.053
 30
0.000000
  70
    32
  0
VERTEX
  8
図枠
  5
44E
 10
905.536
 20
-313.056
 30
0.000000
  70
    32
  0
VERTEX
  8
図枠
  5
44F
 10
905.551
 20
-313.058
 30
0.000000
  70
    32
  0
VERTEX
  8
図枠
  5
450
 10
905.566
 20
-313.061
 30
0.000000
  70
    32
  0
VERTEX
  8
図枠
  5
451
 10
905.581
 20
-313.063
 30
0.000000
  70
    32
  0
VERTEX
  8
図枠
  5
452
 10
905.596
 20
-313.066
 30
0.000000
  70
    32
  0
VERTEX
  8
図枠
  5
453
 10
905.611
 20
-313.069
 30
0.000000
  70
    32
  0
VERTEX
  8
図枠
  5
454
 10
905.625
 20
-313.071
 30
0.000000
  70
    32
  0
VERTEX
  8
図枠
  5
455
 10
905.640
 20
-313.074
 30
0.000000
  70
    32
  0
VERTEX
  8
図枠
  5
456
 10
905.655
 20
-313.076
 30
0.000000
  70
    32
  0
VERTEX
  8
図枠
  5
457
 10
905.670
 20
-313.079
 30
0.000000
  70
    32
  0
VERTEX
  8
図枠
  5
458
 10
905.685
 20
-313.081
 30
0.000000
  70
    32
  0
VERTEX
  8
図枠
  5
459
 10
905.700
 20
-313.084
 30
0.000000
  70
    32
  0
VERTEX
  8
図枠
  5
45A
 10
905.715
 20
-313.086
 30
0.000000
  70
    32
  0
VERTEX
  8
図枠
  5
45B
 10
905.730
 20
-313.089
 30
0.000000
  70
    32
  0
VERTEX
  8
図枠
  5
45C
 10
905.744
 20
-313.091
 30
0.000000
  70
    32
  0
VERTEX
  8
図枠
  5
45D
 10
905.759
 20
-313.094
 30
0.000000
  70
    32
  0
VERTEX
  8
図枠
  5
45E
 10
905.774
 20
-313.096
 30
0.000000
  70
    32
  0
VERTEX
  8
図枠
  5
45F
 10
905.789
 20
-313.099
 30
0.000000
  70
    32
  0
VERTEX
  8
図枠
  5
460
 10
905.804
 20
-313.101
 30
0.000000
  70
    32
  0
VERTEX
  8
図枠
  5
461
 10
905.819
 20
-313.104
 30
0.000000
  70
    32
  0
VERTEX
  8
図枠
  5
462
 10
905.834
 20
-313.106
 30
0.000000
  70
    32
  0
SEQEND
  8
図枠
  5
463
  0
LINE
  5
236
  8
図枠
  6
BORDER
 10
904.57222723490008
 20
-291.13069768330001
 30
0.0
 11
904.57222723490008
 21
-298.04200648329999
 31
0.0
  0
ARC
  5
237
  8
図枠
 10
900.63430728080004
 20
-309.9066815237
 30
0.0
 40
4.3995600000000001
 50
322.48761197969998
 51
0.0
  0
CIRCLE
  5
238
  8
図枠
 10
904.57222723490008
 20
-294.58635208330003
 30
0.0
 40
1.151884799999999
  0
LINE
  5
239
  8
図枠
 10
904.12413374490006
 20
-312.58571856029999
 30
0.0
 11
903.98166634519998
 21
-312.7252071254
 31
0.0
  0
POLYLINE
  8
図枠
  5
464
  66
     1
 10
0.000000
 20
0.000000
 30
0.000000
  70
     8
  0
VERTEX
  8
図枠
  5
465
 10
903.001
 20
-313.615
 30
0.000000
  70
    32
  0
VERTEX
  8
図枠
  5
466
 10
903.023
 20
-313.622
 30
0.000000
  70
    32
  0
VERTEX
  8
図枠
  5
467
 10
903.044
 20
-313.629
 30
0.000000
  70
    32
  0
VERTEX
  8
図枠
  5
468
 10
903.066
 20
-313.636
 30
0.000000
  70
    32
  0
VERTEX
  8
図枠
  5
469
 10
903.087
 20
-313.643
 30
0.000000
  70
    32
  0
VERTEX
  8
図枠
  5
46A
 10
903.109
 20
-313.649
 30
0.000000
  70
    32
  0
VERTEX
  8
図枠
  5
46B
 10
903.131
 20
-313.656
 30
0.000000
  70
    32
  0
VERTEX
  8
図枠
  5
46C
 10
903.152
 20
-313.663
 30
0.000000
  70
    32
  0
VERTEX
  8
図枠
  5
46D
 10
903.174
 20
-313.669
 30
0.000000
  70
    32
  0
VERTEX
  8
図枠
  5
46E
 10
903.196
 20
-313.676
 30
0.000000
  70
    32
  0
VERTEX
  8
図枠
  5
46F
 10
903.217
 20
-313.683
 30
0.000000
  70
    32
  0
VERTEX
  8
図枠
  5
470
 10
903.239
 20
-313.689
 30
0.000000
  70
    32
  0
VERTEX
  8
図枠
  5
471
 10
903.261
 20
-313.696
 30
0.000000
  70
    32
  0
VERTEX
  8
図枠
  5
472
 10
903.282
 20
-313.702
 30
0.000000
  70
    32
  0
VERTEX
  8
図枠
  5
473
 10
903.304
 20
-313.709
 30
0.000000
  70
    32
  0
VERTEX
  8
図枠
  5
474
 10
903.326
 20
-313.715
 30
0.000000
  70
    32
  0
VERTEX
  8
図枠
  5
475
 10
903.348
 20
-313.721
 30
0.000000
  70
    32
  0
VERTEX
  8
図枠
  5
476
 10
903.370
 20
-313.728
 30
0.000000
  70
    32
  0
VERTEX
  8
図枠
  5
477
 10
903.391
 20
-313.734
 30
0.000000
  70
    32
  0
VERTEX
  8
図枠
  5
478
 10
903.413
 20
-313.740
 30
0.000000
  70
    32
  0
VERTEX
  8
図枠
  5
479
 10
903.435
 20
-313.747
 30
0.000000
  70
    32
  0
VERTEX
  8
図枠
  5
47A
 10
903.457
 20
-313.753
 30
0.000000
  70
    32
  0
VERTEX
  8
図枠
  5
47B
 10
903.479
 20
-313.759
 30
0.000000
  70
    32
  0
VERTEX
  8
図枠
  5
47C
 10
903.501
 20
-313.765
 30
0.000000
  70
    32
  0
VERTEX
  8
図枠
  5
47D
 10
903.523
 20
-313.771
 30
0.000000
  70
    32
  0
VERTEX
  8
図枠
  5
47E
 10
903.545
 20
-313.778
 30
0.000000
  70
    32
  0
VERTEX
  8
図枠
  5
47F
 10
903.567
 20
-313.784
 30
0.000000
  70
    32
  0
VERTEX
  8
図枠
  5
480
 10
903.588
 20
-313.790
 30
0.000000
  70
    32
  0
VERTEX
  8
図枠
  5
481
 10
903.610
 20
-313.796
 30
0.000000
  70
    32
  0
VERTEX
  8
図枠
  5
482
 10
903.632
 20
-313.802
 30
0.000000
  70
    32
  0
VERTEX
  8
図枠
  5
483
 10
903.654
 20
-313.808
 30
0.000000
  70
    32
  0
VERTEX
  8
図枠
  5
484
 10
903.676
 20
-313.814
 30
0.000000
  70
    32
  0
VERTEX
  8
図枠
  5
485
 10
903.699
 20
-313.820
 30
0.000000
  70
    32
  0
VERTEX
  8
図枠
  5
486
 10
903.721
 20
-313.826
 30
0.000000
  70
    32
  0
VERTEX
  8
図枠
  5
487
 10
903.743
 20
-313.831
 30
0.000000
  70
    32
  0
VERTEX
  8
図枠
  5
488
 10
903.765
 20
-313.837
 30
0.000000
  70
    32
  0
VERTEX
  8
図枠
  5
489
 10
903.787
 20
-313.843
 30
0.000000
  70
    32
  0
VERTEX
  8
図枠
  5
48A
 10
903.809
 20
-313.849
 30
0.000000
  70
    32
  0
VERTEX
  8
図枠
  5
48B
 10
903.831
 20
-313.855
 30
0.000000
  70
    32
  0
VERTEX
  8
図枠
  5
48C
 10
903.853
 20
-313.861
 30
0.000000
  70
    32
  0
VERTEX
  8
図枠
  5
48D
 10
903.875
 20
-313.866
 30
0.000000
  70
    32
  0
VERTEX
  8
図枠
  5
48E
 10
903.897
 20
-313.872
 30
0.000000
  70
    32
  0
VERTEX
  8
図枠
  5
48F
 10
903.920
 20
-313.878
 30
0.000000
  70
    32
  0
VERTEX
  8
図枠
  5
490
 10
903.942
 20
-313.883
 30
0.000000
  70
    32
  0
VERTEX
  8
図枠
  5
491
 10
903.964
 20
-313.889
 30
0.000000
  70
    32
  0
VERTEX
  8
図枠
  5
492
 10
903.986
 20
-313.895
 30
0.000000
  70
    32
  0
VERTEX
  8
図枠
  5
493
 10
904.008
 20
-313.900
 30
0.000000
  70
    32
  0
VERTEX
  8
図枠
  5
494
 10
904.031
 20
-313.906
 30
0.000000
  70
    32
  0
VERTEX
  8
図枠
  5
495
 10
904.053
 20
-313.911
 30
0.000000
  70
    32
  0
VERTEX
  8
図枠
  5
496
 10
904.075
 20
-313.917
 30
0.000000
  70
    32
  0
VERTEX
  8
図枠
  5
497
 10
904.097
 20
-313.923
 30
0.000000
  70
    32
  0
VERTEX
  8
図枠
  5
498
 10
904.120
 20
-313.928
 30
0.000000
  70
    32
  0
VERTEX
  8
図枠
  5
499
 10
904.142
 20
-313.934
 30
0.000000
  70
    32
  0
VERTEX
  8
図枠
  5
49A
 10
904.164
 20
-313.939
 30
0.000000
  70
    32
  0
VERTEX
  8
図枠
  5
49B
 10
904.186
 20
-313.944
 30
0.000000
  70
    32
  0
VERTEX
  8
図枠
  5
49C
 10
904.209
 20
-313.950
 30
0.000000
  70
    32
  0
VERTEX
  8
図枠
  5
49D
 10
904.231
 20
-313.955
 30
0.000000
  70
    32
  0
VERTEX
  8
図枠
  5
49E
 10
904.253
 20
-313.961
 30
0.000000
  70
    32
  0
VERTEX
  8
図枠
  5
49F
 10
904.276
 20
-313.966
 30
0.000000
  70
    32
  0
VERTEX
  8
図枠
  5
4A0
 10
904.298
 20
-313.971
 30
0.000000
  70
    32
  0
VERTEX
  8
図枠
  5
4A1
 10
904.321
 20
-313.977
 30
0.000000
  70
    32
  0
VERTEX
  8
図枠
  5
4A2
 10
904.343
 20
-313.982
 30
0.000000
  70
    32
  0
VERTEX
  8
図枠
  5
4A3
 10
904.365
 20
-313.987
 30
0.000000
  70
    32
  0
VERTEX
  8
図枠
  5
4A4
 10
904.388
 20
-313.993
 30
0.000000
  70
    32
  0
VERTEX
  8
図枠
  5
4A5
 10
904.410
 20
-313.998
 30
0.000000
  70
    32
  0
VERTEX
  8
図枠
  5
4A6
 10
904.432
 20
-314.003
 30
0.000000
  70
    32
  0
VERTEX
  8
図枠
  5
4A7
 10
904.455
 20
-314.008
 30
0.000000
  70
    32
  0
VERTEX
  8
図枠
  5
4A8
 10
904.477
 20
-314.013
 30
0.000000
  70
    32
  0
VERTEX
  8
図枠
  5
4A9
 10
904.500
 20
-314.019
 30
0.000000
  70
    32
  0
VERTEX
  8
図枠
  5
4AA
 10
904.522
 20
-314.024
 30
0.000000
  70
    32
  0
VERTEX
  8
図枠
  5
4AB
 10
904.545
 20
-314.029
 30
0.000000
  70
    32
  0
VERTEX
  8
図枠
  5
4AC
 10
904.567
 20
-314.034
 30
0.000000
  70
    32
  0
VERTEX
  8
図枠
  5
4AD
 10
904.590
 20
-314.039
 30
0.000000
  70
    32
  0
VERTEX
  8
図枠
  5
4AE
 10
904.612
 20
-314.044
 30
0.000000
  70
    32
  0
VERTEX
  8
図枠
  5
4AF
 10
904.635
 20
-314.050
 30
0.000000
  70
    32
  0
VERTEX
  8
図枠
  5
4B0
 10
904.657
 20
-314.055
 30
0.000000
  70
    32
  0
VERTEX
  8
図枠
  5
4B1
 10
904.680
 20
-314.060
 30
0.000000
  70
    32
  0
VERTEX
  8
図枠
  5
4B2
 10
904.702
 20
-314.065
 30
0.000000
  70
    32
  0
VERTEX
  8
図枠
  5
4B3
 10
904.725
 20
-314.070
 30
0.000000
  70
    32
  0
VERTEX
  8
図枠
  5
4B4
 10
904.747
 20
-314.075
 30
0.000000
  70
    32
  0
VERTEX
  8
図枠
  5
4B5
 10
904.770
 20
-314.080
 30
0.000000
  70
    32
  0
VERTEX
  8
図枠
  5
4B6
 10
904.792
 20
-314.085
 30
0.000000
  70
    32
  0
VERTEX
  8
図枠
  5
4B7
 10
904.815
 20
-314.090
 30
0.000000
  70
    32
  0
VERTEX
  8
図枠
  5
4B8
 10
904.837
 20
-314.095
 30
0.000000
  70
    32
  0
VERTEX
  8
図枠
  5
4B9
 10
904.860
 20
-314.100
 30
0.000000
  70
    32
  0
VERTEX
  8
図枠
  5
4BA
 10
904.882
 20
-314.105
 30
0.000000
  70
    32
  0
VERTEX
  8
図枠
  5
4BB
 10
904.905
 20
-314.110
 30
0.000000
  70
    32
  0
VERTEX
  8
図枠
  5
4BC
 10
904.928
 20
-314.115
 30
0.000000
  70
    32
  0
VERTEX
  8
図枠
  5
4BD
 10
904.950
 20
-314.120
 30
0.000000
  70
    32
  0
VERTEX
  8
図枠
  5
4BE
 10
904.973
 20
-314.124
 30
0.000000
  70
    32
  0
VERTEX
  8
図枠
  5
4BF
 10
904.995
 20
-314.129
 30
0.000000
  70
    32
  0
VERTEX
  8
図枠
  5
4C0
 10
905.018
 20
-314.134
 30
0.000000
  70
    32
  0
VERTEX
  8
図枠
  5
4C1
 10
905.041
 20
-314.139
 30
0.000000
  70
    32
  0
VERTEX
  8
図枠
  5
4C2
 10
905.063
 20
-314.144
 30
0.000000
  70
    32
  0
VERTEX
  8
図枠
  5
4C3
 10
905.086
 20
-314.149
 30
0.000000
  70
    32
  0
VERTEX
  8
図枠
  5
4C4
 10
905.108
 20
-314.154
 30
0.000000
  70
    32
  0
VERTEX
  8
図枠
  5
4C5
 10
905.131
 20
-314.159
 30
0.000000
  70
    32
  0
VERTEX
  8
図枠
  5
4C6
 10
905.154
 20
-314.163
 30
0.000000
  70
    32
  0
VERTEX
  8
図枠
  5
4C7
 10
905.176
 20
-314.168
 30
0.000000
  70
    32
  0
VERTEX
  8
図枠
  5
4C8
 10
905.199
 20
-314.173
 30
0.000000
  70
    32
  0
VERTEX
  8
図枠
  5
4C9
 10
905.221
 20
-314.178
 30
0.000000
  70
    32
  0
VERTEX
  8
図枠
  5
4CA
 10
905.244
 20
-314.183
 30
0.000000
  70
    32
  0
VERTEX
  8
図枠
  5
4CB
 10
905.267
 20
-314.188
 30
0.000000
  70
    32
  0
VERTEX
  8
図枠
  5
4CC
 10
905.289
 20
-314.192
 30
0.000000
  70
    32
  0
VERTEX
  8
図枠
  5
4CD
 10
905.312
 20
-314.197
 30
0.000000
  70
    32
  0
VERTEX
  8
図枠
  5
4CE
 10
905.335
 20
-314.202
 30
0.000000
  70
    32
  0
VERTEX
  8
図枠
  5
4CF
 10
905.357
 20
-314.207
 30
0.000000
  70
    32
  0
VERTEX
  8
図枠
  5
4D0
 10
905.380
 20
-314.212
 30
0.000000
  70
    32
  0
VERTEX
  8
図枠
  5
4D1
 10
905.403
 20
-314.216
 30
0.000000
  70
    32
  0
VERTEX
  8
図枠
  5
4D2
 10
905.425
 20
-314.221
 30
0.000000
  70
    32
  0
VERTEX
  8
図枠
  5
4D3
 10
905.448
 20
-314.226
 30
0.000000
  70
    32
  0
VERTEX
  8
図枠
  5
4D4
 10
905.471
 20
-314.231
 30
0.000000
  70
    32
  0
VERTEX
  8
図枠
  5
4D5
 10
905.493
 20
-314.235
 30
0.000000
  70
    32
  0
VERTEX
  8
図枠
  5
4D6
 10
905.516
 20
-314.240
 30
0.000000
  70
    32
  0
VERTEX
  8
図枠
  5
4D7
 10
905.539
 20
-314.245
 30
0.000000
  70
    32
  0
VERTEX
  8
図枠
  5
4D8
 10
905.561
 20
-314.250
 30
0.000000
  70
    32
  0
VERTEX
  8
図枠
  5
4D9
 10
905.584
 20
-314.254
 30
0.000000
  70
    32
  0
VERTEX
  8
図枠
  5
4DA
 10
905.607
 20
-314.259
 30
0.000000
  70
    32
  0
VERTEX
  8
図枠
  5
4DB
 10
905.630
 20
-314.264
 30
0.000000
  70
    32
  0
VERTEX
  8
図枠
  5
4DC
 10
905.652
 20
-314.268
 30
0.000000
  70
    32
  0
VERTEX
  8
図枠
  5
4DD
 10
905.675
 20
-314.273
 30
0.000000
  70
    32
  0
VERTEX
  8
図枠
  5
4DE
 10
905.698
 20
-314.278
 30
0.000000
  70
    32
  0
VERTEX
  8
図枠
  5
4DF
 10
905.720
 20
-314.283
 30
0.000000
  70
    32
  0
VERTEX
  8
図枠
  5
4E0
 10
905.743
 20
-314.287
 30
0.000000
  70
    32
  0
VERTEX
  8
図枠
  5
4E1
 10
905.766
 20
-314.292
 30
0.000000
  70
    32
  0
VERTEX
  8
図枠
  5
4E2
 10
905.788
 20
-314.297
 30
0.000000
  70
    32
  0
VERTEX
  8
図枠
  5
4E3
 10
905.811
 20
-314.302
 30
0.000000
  70
    32
  0
VERTEX
  8
図枠
  5
4E4
 10
905.834
 20
-314.306
 30
0.000000
  70
    32
  0
SEQEND
  8
図枠
  5
4E5
  0
CIRCLE
  5
23B
  8
図枠
 10
904.57222723490008
 20
-294.58635208330003
 30
0.0
 40
1.151884799999999
  0
LINE
  5
23C
  8
図枠
  6
BORDER
 10
904.57222723490008
 20
-291.13069768330001
 30
0.0
 11
904.57222723490008
 21
-298.04200648329999
 31
0.0
  0
LINE
  5
23D
  8
図枠
 10
858.51283363490006
 20
-307.33507708330001
 30
0.0
 11
974.50123363490013
 21
-307.33507708330001
 31
0.0
  0
ENDSEC
  0
EOF
