  0
SECTION
  2
HEADER
  9
$ACADVER
  1
AC1015
  9
$ACADMAINTVER
 70
               6
  9
$DWGCODEPAGE
  3
ANSI_932
  9
$INSBASE
 10
0.0
 20
0.0
 30
0.0
  9
$EXTMIN
 10
650.96216216216249
 20
-117.42319819819797
 30
0.0
  9
$EXTMAX
 10
1023.0378378378382
 20
-324.05563063063039
 30
0.0
  9
$LIMMIN
 10
0.0
 20
0.0
  9
$LIMMAX
 10
0.0
 20
0.0
  9
$ORTHOMODE
 70
               0
  9
$REGENMODE
 70
               1
  9
$FILLMODE
 70
               1
  9
$QTEXTMODE
 70
               0
  9
$MIRRTEXT
 70
               1
  9
$LTSCALE
 40
1.0
  9
$ATTMODE
 70
               1
  9
$TEXTSIZE
 40
0.2
  9
$TRACEWID
 40
0.05
  9
$TEXTSTYLE
  7
Standard
  9
$CLAYER
  8
0
  9
$CELTYPE
  6
Continuous
  9
$CECOLOR
 62
             256
  9
$CELTSCALE
 40
1.0
  9
$DISPSILH
 70
               0
  9
$DIMSCALE
 40
1.0
  9
$DIMASZ
 40
3.0
  9
$DIMEXO
 40
1.0
  9
$DIMDLI
 40
0.38
  9
$DIMRND
 40
0.0
  9
$DIMDLE
 40
0.0
  9
$DIMEXE
 40
0.5
  9
$DIMTP
 40
0.0
  9
$DIMTM
 40
0.0
  9
$DIMTXT
 40
3.5277777777777777
  9
$DIMCEN
 40
0.09
  9
$DIMTSZ
 40
0.0
  9
$DIMTOL
 70
               0
  9
$DIMLIM
 70
               0
  9
$DIMTIH
 70
               0
  9
$DIMTOH
 70
               0
  9
$DIMSE1
 70
               0
  9
$DIMSE2
 70
               0
  9
$DIMTAD
 70
               1
  9
$DIMZIN
 70
               0
  9
$DIMBLK
  1

  9
$DIMASO
 70
               1
  9
$DIMSHO
 70
               1
  9
$DIMPOST
  1

  9
$DIMAPOST
  1

  9
$DIMALT
 70
               0
  9
$DIMALTD
 70
               3
  9
$DIMALTF
 40
25.399999999999999
  9
$DIMLFAC
 40
1.0
  9
$DIMTOFL
 70
               0
  9
$DIMTVP
 40
0.0
  9
$DIMTIX
 70
               0
  9
$DIMSOXD
 70
               0
  9
$DIMSAH
 70
               0
  9
$DIMBLK1
  1

  9
$DIMBLK2
  1

  9
$DIMSTYLE
  2
Standard
  9
$DIMCLRD
 70
               7
  9
$DIMCLRE
 70
               7
  9
$DIMCLRT
 70
               7
  9
$DIMTFAC
 40
1.0
  9
$DIMGAP
 40
1.0
  9
$DIMJUST
 70
               0
  9
$DIMSD1
 70
               0
  9
$DIMSD2
 70
               0
  9
$DIMTOLJ
 70
               1
  9
$DIMTZIN
 70
               0
  9
$DIMALTZ
 70
               0
  9
$DIMALTTZ
 70
               0
  9
$DIMUPT
 70
               0
  9
$DIMDEC
 70
               3
  9
$DIMTDEC
 70
               4
  9
$DIMALTU
 70
               2
  9
$DIMALTTD
 70
               2
  9
$DIMTXSTY
  7
Standard
  9
$DIMAUNIT
 70
               0
  9
$DIMADEC
 70
               0
  9
$DIMALTRND
 40
0.0
  9
$DIMAZIN
 70
               0
  9
$DIMDSEP
 70
               0
  9
$DIMATFIT
 70
               3
  9
$DIMFRAC
 70
               0
  9
$DIMLDRBLK
  1

  9
$DIMLUNIT
 70
               2
  9
$DIMLWD
 70
               0
  9
$DIMLWE
 70
               0
  9
$DIMTMOVE
 70
               0
  9
$LUNITS
 70
               2
  9
$LUPREC
 70
               4
  9
$SKETCHINC
 40
0.1
  9
$FILLETRAD
 40
0.0
  9
$AUNITS
 70
               0
  9
$AUPREC
 70
               0
  9
$MENU
  1
acad
  9
$ELEVATION
 40
0.0
  9
$PELEVATION
 40
0.0
  9
$THICKNESS
 40
0.0
  9
$LIMCHECK
 70
               0
  9
$CHAMFERA
 40
0.0
  9
$CHAMFERB
 40
0.0
  9
$CHAMFERC
 40
0.0
  9
$CHAMFERD
 40
0.0
  9
$SKPOLY
 70
               0
  9
$TDCREATE
 40
2455847.748969907
  9
$TDUCREATE
 40
0.000000000
  9
$TDUPDATE
 40
2455847.748969907
  9
$TDUUPDATE
 40
0.000000000
  9
$TDINDWG
 40
0.0000000000
  9
$TDUSRTIMER
 40
0.0000000000
  9
$USRTIMER
 70
               1
  9
$ANGBASE
 50
0.0
  9
$ANGDIR
 70
               0
  9
$PDMODE
 70
               0
  9
$PDSIZE
 40
0.0
  9
$PLINEWID
 40
0.0
  9
$SPLFRAME
 70
               0
  9
$SPLINETYPE
 70
               6
  9
$SPLINESEGS
 70
               8
  9
$HANDSEED
  5
216
  9
$SURFTAB1
 70
               6
  9
$SURFTAB2
 70
               6
  9
$SURFTYPE
 70
               6
  9
$SURFU
 70
               6
  9
$SURFV
 70
               6
  9
$UCSBASE
  2

  9
$UCSNAME
  2

  9
$UCSORG
 10
0.0
 20
0.0
 30
0.0
  9
$UCSXDIR
 10
1.0
 20
0.0
 30
0.0
  9
$UCSYDIR
 10
0.0
 20
1.0
 30
0.0
  9
$UCSORTHOREF
  2

  9
$UCSORTHOVIEW
 70
               0
  9
$UCSORGTOP
 10
0.0
 20
0.0
 30
0.0
  9
$UCSORGBOTTOM
 10
0.0
 20
0.0
 30
0.0
  9
$UCSORGLEFT
 10
0.0
 20
0.0
 30
0.0
  9
$UCSORGRIGHT
 10
0.0
 20
0.0
 30
0.0
  9
$UCSORGFRONT
 10
0.0
 20
0.0
 30
0.0
  9
$UCSORGBACK
 10
0.0
 20
0.0
 30
0.0
  9
$PUCSBASE
  2

  9
$PUCSNAME
  2

  9
$PUCSORG
 10
0.0
 20
0.0
 30
0.0
  9
$PUCSXDIR
 10
1.0
 20
0.0
 30
0.0
  9
$PUCSYDIR
 10
0.0
 20
1.0
 30
0.0
  9
$PUCSORTHOREF
  2

  9
$PUCSORTHOVIEW
 70
               0
  9
$PUCSORGTOP
 10
0.0
 20
0.0
 30
0.0
  9
$PUCSORGBOTTOM
 10
0.0
 20
0.0
 30
0.0
  9
$PUCSORGLEFT
 10
0.0
 20
0.0
 30
0.0
  9
$PUCSORGRIGHT
 10
0.0
 20
0.0
 30
0.0
  9
$PUCSORGFRONT
 10
0.0
 20
0.0
 30
0.0
  9
$PUCSORGBACK
 10
0.0
 20
0.0
 30
0.0
  9
$USERI1
 70
               0
  9
$USERI2
 70
               0
  9
$USERI3
 70
               0
  9
$USERI4
 70
               0
  9
$USERI5
 70
               0
  9
$USERR1
 40
0.0
  9
$USERR2
 40
0.0
  9
$USERR3
 40
0.0
  9
$USERR4
 40
0.0
  9
$USERR5
 40
0.0
  9
$WORLDVIEW
 70
               1
  9
$SHADEDGE
 70
               3
  9
$SHADEDIF
 70
              70
  9
$TILEMODE
 70
               1
  9
$MAXACTVP
 70
              16
  9
$PINSBASE
 10
0.0
 20
0.0
 30
0.0
  9
$PLIMCHECK
 70
               0
  9
$PEXTMIN
 10
1.0000000000000000E+20
 20
1.0000000000000000E+20
 30
1.0000000000000000E+20
  9
$PEXTMAX
 10
-1.0000000000000000E+20
 20
-1.0000000000000000E+20
 30
-1.0000000000000000E+20
  9
$PLIMMIN
 10
0.0
 20
0.0
  9
$PLIMMAX
 10
12.0
 20
9.0
  9
$UNITMODE
 70
               0
  9
$VISRETAIN
 70
               0
  9
$PLINEGEN
 70
               1
  9
$PSLTSCALE
 70
               0
  9
$TREEDEPTH
 70
            3020
  9
$CMLSTYLE
  2
Standard
  9
$CMLJUST
 70
               0
  9
$CMLSCALE
 40
1.0
  9
$PROXYGRAPHICS
 70
               0
  9
$MEASUREMENT
 70
               0
  9
$CELWEIGHT
370
               0
  9
$ENDCAPS
280
               0
  9
$JOINSTYLE
280
               0
  9
$LWDISPLAY
290
               0
  9
$INSUNITS
 70
               0
  9
$HYPERLINKBASE
  1

  9
$STYLESHEET
  1

  9
$XEDIT
290
               1
  9
$CEPSNTYPE
380
               0
  9
$PSTYLEMODE
290
               1
  9
$FINGERPRINTGUID
  2

  9
$VERSIONGUID
  2

  9
$EXTNAMES
290
               1
  9
$PSVPSCALE
 40
0.0
  0
ENDSEC
  0
SECTION
  2
CLASSES
  0
CLASS
  1
LWPOLYLINE
  2
AcDbPolyline
  3
AutoCAD 2000
 90
        0
280
               0
281
               1
  0
CLASS
  1
IMAGE
  2
AcDbRasterImage
  3
ISM
 90
      127
280
               0
281
               1
  0
CLASS
  1
OLE2FRAME
  2
AcDbOle2Frame
  3
AutoCAD 2000
 90
        0
280
               0
281
               1
  0
CLASS
  1
HATCH
  2
AcDbHatch
  3
AutoCAD 2000
 90
        0
280
               0
281
               1
  0
CLASS
  1
DICTIONARYVAR
  2
AcDbDictionaryVar
  3
AutoCAD 2000
 90
        0
280
               0
281
               0
  0
CLASS
  1
RASTERVARIABLES
  2
AcDbRasterVariables
  3
ISM
 90
        0
280
               0
281
               0
  0
CLASS
  1
IMAGEDEF
  2
AcDbRasterImageDef
  3
ISM
 90
        0
280
               0
281
               0
  0
CLASS
  1
IMAGEDEF_REACTOR
  2
AcDbRasterImageDefReactor
  3
ISM
 90
        1
280
               0
281
               0
  0
CLASS
  1
IDBUFFER
  2
AcDbIdBuffer
  3
AutoCAD 2000
 90
        0
280
               0
281
               0
  0
CLASS
  1
SPATIAL_FILTER
  2
AcDbSpatialFilter
  3
AutoCAD 2000
 90
        0
280
               0
281
               0
  0
CLASS
  1
XRECORD
  2
AcDbXrecord
  3
AutoCAD 2000
 90
        0
280
               0
281
               0
  0
CLASS
  1
SORTENTSTABLE
  2
AcDbSortentsTable
  3
AutoCAD 2000
 90
        0
280
               0
281
               0
  0
CLASS
  1
LAYER_INDEX
  2
AcDbLayerIndex
  3
AutoCAD 2000
 90
        0
280
               0
281
               0
  0
CLASS
  1
SPATIAL_INDEX
  2
AcDbSpatialIndex
  3
AutoCAD 2000
 90
        0
280
               0
281
               0
  0
CLASS
  1
OBJECT_PTR
  2
CAseDLPNTableRecord
  3
"ASE-LPNTableRecord"
 90
        1
280
               0
281
               0
  0
CLASS
  1
LAYOUT
  2
AcDbLayout
  3
AutoCAD 2000
 90
        0
280
               0
281
               0
  0
CLASS
  1
PLOTSETTINGS
  2
AcDbPlotSettings
  3
AutoCAD 2000
 90
        0
280
               0
281
               0
  0
CLASS
  1
ACDBDICTIONARYWDFLT
  2
AcDbDictionaryWithDefault
  3
AutoCAD 2000
 90
        0
280
               0
281
               0
  0
CLASS
  1
ACDBPLACEHOLDER
  2
AcDbPlaceHolder
  3
AutoCAD 2000
 90
        0
280
               0
281
               0
  0
CLASS
  1
VBA_PROJECT
  2
AcDbVbaProject
  3
acadvba
 90
        0
280
               0
281
               0
  0
CLASS
  1
WIPEOUT
  2
AcDbWipeout
  3
WipeOut|AutoCAD Express Tool|expresstools@autodesk.com
 90
      127
280
               0
281
               1
  0
CLASS
  1
WIPEOUTVARIABLES
  2
AcDbWipeoutVariables
  3
WipeOut|AutoCAD Express Tool|expresstools@autodesk.com
 90
        0
280
               0
281
               0
  0
CLASS
  1
RTEXT
  2
RText
  3
RText|AutoCAD Express Tool|expresstools@autodesk.com
 90
        0
280
               0
281
               1
  0
CLASS
  1
ARCALIGNEDTEXT
  2
AcDbArcAlignedText
  3
ATEXT|AutoCAD Express Tool|expresstools@autodesk.com
 90
        0
280
               0
281
               1
  0
ENDSEC
  0
SECTION
  2
TABLES
  0
TABLE
  2
VPORT
  5
7
100
AcDbSymbolTable
 70
               1
  0
VPORT
  5
15
100
AcDbSymbolTableRecord
100
AcDbViewportTableRecord
  2
*ACTIVE
 70
               0
 10
0.0
 20
0.0
 11
1.0
 21
1.0
 12
6.5912879999999996
 22
4.5791839999999997
 13
0.0
 23
0.0
 14
1.0
 24
1.0
 15
0.0
 25
0.0
 16
0.0
 26
0.0
 36
1.0
 17
0.0
 27
0.0
 37
0.0
 40
9.1583690000000004
 41
0.688564
 42
50.0
 43
0.0
 44
0.0
 50
0.0
 51
0.0
 71
               0
 72
             100
 73
               1
 74
               1
 75
               0
 76
               0
 77
               0
 78
               0
281
               0
 65
               0
110
0.0
120
0.0
130
0.0
111
1.0
121
0.0
131
0.0
112
0.0
122
1.0
132
0.0
345
0
346
0
 79
               0
146
0.0
  0
ENDTAB
  0
TABLE
  2
LTYPE
  5
4
100
AcDbSymbolTable
 70
              13
  0
LTYPE
  5
11
100
AcDbSymbolTableRecord
100
AcDbLinetypeTableRecord
  2
ByBlock
 70
              64
  3

 72
              65
 73
               0
 40
0.0
  0
LTYPE
  5
12
100
AcDbSymbolTableRecord
100
AcDbLinetypeTableRecord
  2
ByLayer
 70
              64
  3

 72
              65
 73
               0
 40
0.0
  0
LTYPE
  5
13
100
AcDbSymbolTableRecord
100
AcDbLinetypeTableRecord
  2
Continuous
 70
              64
  3
Solid line
 72
              65
 73
               0
 40
0.0
  0
LTYPE
  5
24
100
AcDbSymbolTableRecord
100
AcDbLinetypeTableRecord
  2
DOT
 70
              64
  3

 72
              65
 73
               2
 40
1.0
 49
0.0
 74
               0
 49
-1.0
 74
               0
  0
LTYPE
  5
25
100
AcDbSymbolTableRecord
100
AcDbLinetypeTableRecord
  2
DASHEDX2
 70
              64
  3

 72
              65
 73
               2
 40
4.0
 49
3.0
 74
               0
 49
-1.0
 74
               0
  0
LTYPE
  5
26
100
AcDbSymbolTableRecord
100
AcDbLinetypeTableRecord
  2
DASHED
 70
              64
  3

 72
              65
 73
               2
 40
3.0
 49
2.0
 74
               0
 49
-1.0
 74
               0
  0
LTYPE
  5
27
100
AcDbSymbolTableRecord
100
AcDbLinetypeTableRecord
  2
DASHED2
 70
              64
  3

 72
              65
 73
               2
 40
2.0
 49
1.0
 74
               0
 49
-1.0
 74
               0
  0
LTYPE
  5
28
100
AcDbSymbolTableRecord
100
AcDbLinetypeTableRecord
  2
CENTERX2
 70
              64
  3

 72
              65
 73
               4
 40
43.0
 49
40.0
 74
               0
 49
-1.0
 74
               0
 49
1.0
 74
               0
 49
-1.0
 74
               0
  0
LTYPE
  5
29
100
AcDbSymbolTableRecord
100
AcDbLinetypeTableRecord
  2
CENTER
 70
              64
  3

 72
              65
 73
               4
 40
33.0
 49
30.0
 74
               0
 49
-1.0
 74
               0
 49
1.0
 74
               0
 49
-1.0
 74
               0
  0
LTYPE
  5
2A
100
AcDbSymbolTableRecord
100
AcDbLinetypeTableRecord
  2
CENTER2
 70
              64
  3

 72
              65
 73
               4
 40
23.0
 49
20.0
 74
               0
 49
-1.0
 74
               0
 49
1.0
 74
               0
 49
-1.0
 74
               0
  0
LTYPE
  5
2B
100
AcDbSymbolTableRecord
100
AcDbLinetypeTableRecord
  2
PHANTOMX2
 70
              64
  3

 72
              65
 73
               6
 40
45.0
 49
40.0
 74
               0
 49
-1.0
 74
               0
 49
1.0
 74
               0
 49
-1.0
 74
               0
 49
1.0
 74
               0
 49
-1.0
 74
               0
  0
LTYPE
  5
2C
100
AcDbSymbolTableRecord
100
AcDbLinetypeTableRecord
  2
PHANTOM
 70
              64
  3

 72
              65
 73
               6
 40
35.0
 49
30.0
 74
               0
 49
-1.0
 74
               0
 49
1.0
 74
               0
 49
-1.0
 74
               0
 49
1.0
 74
               0
 49
-1.0
 74
               0
  0
LTYPE
  5
2D
100
AcDbSymbolTableRecord
100
AcDbLinetypeTableRecord
  2
PHANTOM2
 70
              64
  3

 72
              65
 73
               6
 40
25.0
 49
20.0
 74
               0
 49
-1.0
 74
               0
 49
1.0
 74
               0
 49
-1.0
 74
               0
 49
1.0
 74
               0
 49
-1.0
 74
               0
  0
ENDTAB
  0
TABLE
  2
LAYER
  5
2
100
AcDbSymbolTable
 70
              11
  0
LAYER
  5
14
100
AcDbSymbolTableRecord
100
AcDbLayerTableRecord
  2
0
 70
               0
 62
               7
  6
Continuous
290
               1
370
              -3
390
1D
  0
LAYER
  5
2E
100
AcDbSymbolTableRecord
100
AcDbLayerTableRecord
  2
DEFPOINTS
 70
               0
 62
               7
  6
Continuous
290
               0
370
              -3
390
1D
  0
LAYER
  5
2F
100
AcDbSymbolTableRecord
100
AcDbLayerTableRecord
  2
____1
 70
               0
 62
               7
  6
Continuous
290
               1
370
              -3
390
1D
  0
LAYER
  5
30
100
AcDbSymbolTableRecord
100
AcDbLayerTableRecord
  2
______
 70
               0
 62
               7
  6
Continuous
290
               1
370
              -3
390
1D
  0
LAYER
  5
31
100
AcDbSymbolTableRecord
100
AcDbLayerTableRecord
  2
寸法線_1
 70
               0
 62
               7
  6
Continuous
290
               1
370
              -3
390
1D
  0
LAYER
  5
32
100
AcDbSymbolTableRecord
100
AcDbLayerTableRecord
  2
CONSTRUCTION
 70
               0
 62
               7
  6
Continuous
290
               1
370
              -3
390
1D
  0
LAYER
  5
33
100
AcDbSymbolTableRecord
100
AcDbLayerTableRecord
  2
DIMENSION
 70
               0
 62
               7
  6
Continuous
290
               1
370
              -3
390
1D
  0
LAYER
  5
34
100
AcDbSymbolTableRecord
100
AcDbLayerTableRecord
  2
FORMAT
 70
               0
 62
               7
  6
Continuous
290
               1
370
              -3
390
1D
  0
LAYER
  5
35
100
AcDbSymbolTableRecord
100
AcDbLayerTableRecord
  2
____2
 70
               0
 62
               5
  6
Continuous
290
               1
370
              -3
390
1D
  0
LAYER
  5
36
100
AcDbSymbolTableRecord
100
AcDbLayerTableRecord
  2
0_1
 70
               0
 62
               5
  6
Continuous
290
               1
370
              -3
390
1D
  0
LAYER
  5
37
100
AcDbSymbolTableRecord
100
AcDbLayerTableRecord
  2
DEFPOINTS_1
 70
               0
 62
               5
  6
Continuous
290
               1
370
              -3
390
1D
  0
ENDTAB
  0
TABLE
  2
STYLE
  5
3
100
AcDbSymbolTable
 70
               2
  0
STYLE
  5
17
100
AcDbSymbolTableRecord
100
AcDbTextStyleTableRecord
  2
Standard
 70
               0
 40
0.0
 41
1.0
 50
0.0
 71
               0
 42
0.35
  3
txt
  4

  0
STYLE
  5
3E
100
AcDbSymbolTableRecord
100
AcDbTextStyleTableRecord
  2
Style1
 70
               0
 40
0.0
 41
1.0
 50
0.0
 71
               0
 42
0.35
  3
ＭＳ ゴシック
  4

  0
ENDTAB
  0
TABLE
  2
VIEW
  5
5
100
AcDbSymbolTable
 70
               0
  0
ENDTAB
  0
TABLE
  2
UCS
  5
6
100
AcDbSymbolTable
 70
               0
  0
ENDTAB
  0
TABLE
  2
APPID
  5
8
100
AcDbSymbolTable
 70
               1
  0
APPID
  5
16
100
AcDbSymbolTableRecord
100
AcDbRegAppTableRecord
  2
ACAD
 70
               0
  0
ENDTAB
  0
TABLE
  2
DIMSTYLE
  5
9
100
AcDbSymbolTable
 70
               2
100
AcDbDimStyleTable
 71
               0
  0
DIMSTYLE
105
18
100
AcDbSymbolTableRecord
100
AcDbDimStyleTableRecord
  2
Standard
 70
               0
  3

  4

 40
1.0
 41
3.0
 42
1.0
 43
0.38
 44
0.5
 45
0.0
 46
0.0
 47
0.0
 48
0.0
 71
               0
 72
               0
 73
               0
 74
               0
 75
               0
 76
               0
 77
               1
 78
               0
 79
               0
140
3.5277777777777777
141
0.09
142
0.0
143
25.399999999999999
144
1.0
145
0.0
146
1.0
147
1.0
148
0.0
170
               0
171
               3
172
               0
173
               0
174
               0
175
               0
176
               7
177
               7
178
               7
179
               0
271
               3
272
               4
273
               2
274
               2
275
               0
276
               0
277
               2
278
              46
279
               0
280
               0
281
               0
282
               0
283
               1
284
               0
285
               0
286
               0
288
               0
289
               0
340
17
341
0
342
0
343
0
344
0
371
              -2
372
              -2
  0
DIMSTYLE
105
77
100
AcDbSymbolTableRecord
100
AcDbDimStyleTableRecord
  2
DS1
 70
               0
  3

  4

 40
1.0
 41
3.0
 42
1.0
 43
0.38
 44
0.5
 45
0.0
 46
0.0
 47
0.0
 48
0.0
 71
               0
 72
               0
 73
               0
 74
               0
 75
               0
 76
               0
 77
               1
 78
               8
 79
               0
140
3.5277776718139648
141
0.09
142
0.0
143
25.399999999999999
144
1.0
145
0.0
146
1.0
147
1.0
148
0.0
170
               0
171
               3
172
               0
173
               0
174
               0
175
               0
176
               7
177
               7
178
               7
179
               0
271
               3
272
               4
273
               2
274
               2
275
               0
276
               0
277
               2
278
              46
279
               0
280
               0
281
               0
282
               0
283
               1
284
               0
285
               0
286
               0
288
               0
289
               3
340
17
341
0
342
0
343
0
344
0
371
              -2
372
              -2
  0
ENDTAB
  0
TABLE
  2
BLOCK_RECORD
  5
1
100
AcDbSymbolTable
 70
              15
  0
BLOCK_RECORD
  5
A
100
AcDbSymbolTableRecord
100
AcDbBlockTableRecord
  2
*MODEL_SPACE
340
20
  0
BLOCK_RECORD
  5
B
100
AcDbSymbolTableRecord
100
AcDbBlockTableRecord
  2
*PAPER_SPACE
340
21
  0
BLOCK_RECORD
  5
41
100
AcDbSymbolTableRecord
100
AcDbBlockTableRecord
  2
C0
340
0
102
{BLKREFS
331
48
102
}
  0
BLOCK_RECORD
  5
5F
100
AcDbSymbolTableRecord
100
AcDbBlockTableRecord
  2
C1
340
0
102
{BLKREFS
331
66
102
}
  0
BLOCK_RECORD
  5
67
100
AcDbSymbolTableRecord
100
AcDbBlockTableRecord
  2
*D2
340
0
  0
BLOCK_RECORD
  5
8C
100
AcDbSymbolTableRecord
100
AcDbBlockTableRecord
  2
*D3
340
0
  0
BLOCK_RECORD
  5
F5
100
AcDbSymbolTableRecord
100
AcDbBlockTableRecord
  2
*D4
340
0
  0
BLOCK_RECORD
  5
152
100
AcDbSymbolTableRecord
100
AcDbBlockTableRecord
  2
*D5
340
0
  0
BLOCK_RECORD
  5
16B
100
AcDbSymbolTableRecord
100
AcDbBlockTableRecord
  2
*D6
340
0
  0
BLOCK_RECORD
  5
17D
100
AcDbSymbolTableRecord
100
AcDbBlockTableRecord
  2
*D7
340
0
  0
BLOCK_RECORD
  5
18A
100
AcDbSymbolTableRecord
100
AcDbBlockTableRecord
  2
*D8
340
0
  0
BLOCK_RECORD
  5
1B3
100
AcDbSymbolTableRecord
100
AcDbBlockTableRecord
  2
*D9
340
0
  0
BLOCK_RECORD
  5
1C3
100
AcDbSymbolTableRecord
100
AcDbBlockTableRecord
  2
*D10
340
0
  0
BLOCK_RECORD
  5
1D4
100
AcDbSymbolTableRecord
100
AcDbBlockTableRecord
  2
*D11
340
0
  0
BLOCK_RECORD
  5
1E1
100
AcDbSymbolTableRecord
100
AcDbBlockTableRecord
  2
*D12
340
0
  0
BLOCK_RECORD
  5
1EF
100
AcDbSymbolTableRecord
100
AcDbBlockTableRecord
  2
*D13
340
0
  0
BLOCK_RECORD
  5
1FD
100
AcDbSymbolTableRecord
100
AcDbBlockTableRecord
  2
*D14
340
0
  0
ENDTAB
  0
ENDSEC
  0
SECTION
  2
BLOCKS
  0
BLOCK
  5
D
100
AcDbEntity
  8
0
390
0
100
AcDbBlockBegin
  2
*MODEL_SPACE
 70
               0
 10
0.0
 20
0.0
 30
0.0
  3
*MODEL_SPACE
  1

  0
ENDBLK
  5
E
100
AcDbEntity
  8
0
390
0
100
AcDbBlockEnd
  0
BLOCK
  5
F
100
AcDbEntity
 67
               1
  8
0
390
0
100
AcDbBlockBegin
  2
*PAPER_SPACE
 70
               0
 10
0.0
 20
0.0
 30
0.0
  3
*PAPER_SPACE
  1

  0
ENDBLK
  5
10
100
AcDbEntity
 67
               1
  8
0
390
0
100
AcDbBlockEnd
  0
BLOCK
  5
42
100
AcDbEntity
  8
0
390
0
100
AcDbBlockBegin
  2
C0
 70
              64
 10
0.0
 20
0.0
 30
0.0
  3
C0
  1

  0
LINE
  5
43
100
AcDbEntity
  8
____1
370
              18
390
0
  6
Continuous
 62
               5
100
AcDbLine
 10
967.54203263052227
 20
-186.2280766645035
 30
0.0
 11
972.49203263052232
 21
-186.2280766645035
 31
0.0
  0
MTEXT
  5
44
100
AcDbEntity
  8
____1
370
               5
390
0
  6
Continuous
 62
               7
100
AcDbMText
 10
968.43428960573237
 20
-183.17826067468715
 30
0.0
 40
2.9266439437866216
 41
3.1654860495798762
 71
               1
 72
               1
  1
1
  7
Style1
 73
               1
 44
1.0
  0
LINE
  5
45
100
AcDbEntity
  8
____1
370
              18
390
0
  6
Continuous
 62
               5
100
AcDbLine
 10
970.01703263052218
 20
-181.9412509157705
 30
0.0
 11
967.54203263052227
 21
-186.2280766645035
 31
0.0
  0
LINE
  5
46
100
AcDbEntity
  8
____1
370
              18
390
0
  6
Continuous
 62
               5
100
AcDbLine
 10
970.01703263052218
 20
-181.9412509157705
 30
0.0
 11
972.49203263052232
 21
-186.2280766645035
 31
0.0
  0
ENDBLK
  5
47
100
AcDbEntity
  8
0
390
0
100
AcDbBlockEnd
  0
BLOCK
  5
60
100
AcDbEntity
  8
0
390
0
100
AcDbBlockBegin
  2
C1
 70
              64
 10
0.0
 20
0.0
 30
0.0
  3
C1
  1

  0
LINE
  5
61
100
AcDbEntity
  8
____1
370
              18
390
0
  6
Continuous
 62
               5
100
AcDbLine
 10
887.78334149662464
 20
-134.03129977436851
 30
0.0
 11
892.73334149662469
 21
-134.03129977436851
 31
0.0
  0
MTEXT
  5
62
100
AcDbEntity
  8
____1
370
               5
390
0
  6
Continuous
 62
               7
100
AcDbMText
 10
888.67559847183475
 20
-130.98148378455215
 30
0.0
 40
2.9266439437866216
 41
3.1654860495798762
 71
               1
 72
               1
  1
1
  7
Style1
 73
               1
 44
1.0
  0
LINE
  5
63
100
AcDbEntity
  8
____1
370
              18
390
0
  6
Continuous
 62
               5
100
AcDbLine
 10
890.25834149662455
 20
-129.7444740256355
 30
0.0
 11
887.78334149662464
 21
-134.03129977436851
 31
0.0
  0
LINE
  5
64
100
AcDbEntity
  8
____1
370
              18
390
0
  6
Continuous
 62
               5
100
AcDbLine
 10
890.25834149662455
 20
-129.7444740256355
 30
0.0
 11
892.73334149662469
 21
-134.03129977436851
 31
0.0
  0
ENDBLK
  5
65
100
AcDbEntity
  8
0
390
0
100
AcDbBlockEnd
  0
BLOCK
  5
68
100
AcDbEntity
  8
0
390
0
100
AcDbBlockBegin
  2
*D2
 70
              65
 10
0.0
 20
0.0
 30
0.0
  3
*D2
  1

  0
LINE
  5
69
100
AcDbEntity
  8
____1
370
               5
390
0
  6
Continuous
 62
               7
100
AcDbLine
 10
946.15305275857918
 20
-179.78597335680985
 30
0.0
 11
946.15305275857918
 21
-192.2859733568099
 31
0.0
  0
LINE
  5
6A
100
AcDbEntity
  8
____1
370
               5
390
0
  6
Continuous
 62
               7
100
AcDbLine
 10
937.15305275857918
 20
-192.2859733568099
 30
0.0
 11
946.65305275857918
 21
-192.2859733568099
 31
0.0
  0
LINE
  5
6B
100
AcDbEntity
  8
____1
370
               5
390
0
  6
Continuous
 62
               7
100
AcDbLine
 10
937.15305275857918
 20
-179.78597335680985
 30
0.0
 11
946.65305275857918
 21
-179.78597335680985
 31
0.0
  0
SOLID
  5
6C
100
AcDbEntity
  8
____1
370
               5
390
0
  6
Continuous
 62
               7
100
AcDbTrace
 10
946.15305275857918
 20
-179.78597335680985
 30
0.0
 11
946.15305275857918
 21
-179.78597335680985
 31
0.0
 12
945.59055275857918
 22
-177.53597335680985
 32
0.0
 13
946.71555275857918
 23
-177.53597335680985
 33
0.0
  0
SOLID
  5
6D
100
AcDbEntity
  8
____1
370
               5
390
0
  6
Continuous
 62
               7
100
AcDbTrace
 10
945.59055275857918
 20
-177.53597335680985
 30
0.0
 11
946.15305275857918
 21
-177.53597335680985
 31
0.0
 12
945.40305275857918
 22
-176.78597335680985
 32
0.0
 13
945.40305275857918
 23
-176.78597335680985
 33
0.0
  0
SOLID
  5
6E
100
AcDbEntity
  8
____1
370
               5
390
0
  6
Continuous
 62
               7
100
AcDbTrace
 10
946.15305275857918
 20
-177.53597335680985
 30
0.0
 11
946.71555275857918
 21
-177.53597335680985
 31
0.0
 12
946.90305275857918
 22
-176.78597335680985
 32
0.0
 13
946.90305275857918
 23
-176.78597335680985
 33
0.0
  0
LINE
  5
6F
100
AcDbEntity
  8
____1
370
               5
390
0
  6
Continuous
 62
               7
100
AcDbLine
 10
946.15305275857918
 20
-179.78597335680985
 30
0.0
 11
946.15305275857918
 21
-176.78597335680985
 31
0.0
  0
SOLID
  5
70
100
AcDbEntity
  8
____1
370
               5
390
0
  6
Continuous
 62
               7
100
AcDbTrace
 10
945.40305275857918
 20
-195.2859733568099
 30
0.0
 11
945.40305275857918
 21
-195.2859733568099
 31
0.0
 12
945.59055275857918
 22
-194.5359733568099
 32
0.0
 13
946.15305275857918
 23
-194.5359733568099
 33
0.0
  0
SOLID
  5
71
100
AcDbEntity
  8
____1
370
               5
390
0
  6
Continuous
 62
               7
100
AcDbTrace
 10
946.90305275857918
 20
-195.2859733568099
 30
0.0
 11
946.90305275857918
 21
-195.2859733568099
 31
0.0
 12
946.15305275857918
 22
-194.5359733568099
 32
0.0
 13
946.71555275857918
 23
-194.5359733568099
 33
0.0
  0
SOLID
  5
72
100
AcDbEntity
  8
____1
370
               5
390
0
  6
Continuous
 62
               7
100
AcDbTrace
 10
945.59055275857918
 20
-194.5359733568099
 30
0.0
 11
946.71555275857918
 21
-194.5359733568099
 31
0.0
 12
946.15305275857918
 22
-192.2859733568099
 32
0.0
 13
946.15305275857918
 23
-192.2859733568099
 33
0.0
  0
LINE
  5
73
100
AcDbEntity
  8
____1
370
               5
390
0
  6
Continuous
 62
               7
100
AcDbLine
 10
946.15305275857918
 20
-192.2859733568099
 30
0.0
 11
946.15305275857918
 21
-195.2859733568099
 31
0.0
  0
MTEXT
  5
74
100
AcDbEntity
  8
寸法線_1
370
              18
390
0
  6
Continuous
 62
               7
100
AcDbMText
 10
941.62527508676521
 20
-189.56375102862381
 30
0.0
 40
3.5277776718139648
 41
7.0831161066889763
 71
               1
 72
               1
  1
12.5
  7
Style1
 11
0.0
 21
1.0
 31
0.0
 73
               1
 44
1.0
  0
ENDBLK
  5
75
100
AcDbEntity
  8
0
390
0
100
AcDbBlockEnd
  0
BLOCK
  5
8D
100
AcDbEntity
  8
0
390
0
100
AcDbBlockBegin
  2
*D3
 70
              65
 10
0.0
 20
0.0
 30
0.0
  3
*D3
  1

  0
LINE
  5
8E
100
AcDbEntity
  8
____1
370
               5
390
0
  6
Continuous
 62
               7
100
AcDbLine
 10
883.65660789537628
 20
-248.50876656296873
 30
0.0
 11
883.65660789537628
 21
-256.11807243808073
 31
0.0
  0
LINE
  5
8F
100
AcDbEntity
  8
____1
370
               5
390
0
  6
Continuous
 62
               7
100
AcDbLine
 10
877.31427867616298
 20
-248.50876656296873
 30
0.0
 11
877.31427867616298
 21
-256.11807243808073
 31
0.0
  0
SOLID
  5
90
100
AcDbEntity
  8
____1
370
               5
390
0
  6
Continuous
 62
               7
100
AcDbTrace
 10
880.31427867616298
 20
-256.36807243808073
 30
0.0
 11
880.31427867616298
 21
-256.36807243808073
 31
0.0
 12
877.31427867616298
 22
-255.61807243808073
 32
0.0
 13
879.56427867616298
 23
-255.61807243808073
 33
0.0
  0
SOLID
  5
91
100
AcDbEntity
  8
____1
370
               5
390
0
  6
Continuous
 62
               7
100
AcDbTrace
 10
877.31427867616298
 20
-255.61807243808073
 30
0.0
 11
879.56427867616298
 21
-255.61807243808073
 31
0.0
 12
880.31427867616298
 22
-254.86807243808073
 32
0.0
 13
880.31427867616298
 23
-254.86807243808073
 33
0.0
  0
LINE
  5
92
100
AcDbEntity
  8
____1
370
               5
390
0
  6
Continuous
 62
               7
100
AcDbLine
 10
877.31427867616298
 20
-255.61807243808073
 30
0.0
 11
883.65660789537628
 21
-255.61807243808073
 31
0.0
  0
SOLID
  5
93
100
AcDbEntity
  8
____1
370
               5
390
0
  6
Continuous
 62
               7
100
AcDbTrace
 10
880.65660789537628
 20
-256.36807243808073
 30
0.0
 11
880.65660789537628
 21
-256.36807243808073
 31
0.0
 12
881.40660789537628
 22
-255.61807243808073
 32
0.0
 13
883.65660789537628
 23
-255.61807243808073
 33
0.0
  0
SOLID
  5
94
100
AcDbEntity
  8
____1
370
               5
390
0
  6
Continuous
 62
               7
100
AcDbTrace
 10
881.40660789537628
 20
-255.61807243808073
 30
0.0
 11
883.65660789537628
 21
-255.61807243808073
 31
0.0
 12
880.65660789537628
 22
-254.86807243808073
 32
0.0
 13
880.65660789537628
 23
-254.86807243808073
 33
0.0
  0
LINE
  5
95
100
AcDbEntity
  8
____1
370
               5
390
0
  6
Continuous
 62
               7
100
AcDbLine
 10
883.65660789537628
 20
-255.61807243808073
 30
0.0
 11
862.11831899146659
 21
-255.61807243808073
 31
0.0
  0
MTEXT
  5
96
100
AcDbEntity
  8
寸法線_1
370
              18
390
0
  6
Continuous
 62
               7
100
AcDbMText
 10
863.88220782737358
 20
-251.09029476626677
 30
0.0
 40
3.5277776718139648
 41
5.3123370800167322
 71
               1
 72
               1
  1
φ6
  7
Style1
 73
               1
 44
1.0
  0
ENDBLK
  5
97
100
AcDbEntity
  8
0
390
0
100
AcDbBlockEnd
  0
BLOCK
  5
F6
100
AcDbEntity
  8
0
390
0
100
AcDbBlockBegin
  2
*D4
 70
              65
 10
0.0
 20
0.0
 30
0.0
  3
*D4
  1

  0
LINE
  5
F7
100
AcDbEntity
  8
____1
370
               5
390
0
  6
Continuous
 62
               7
100
AcDbLine
 10
779.8850954708937
 20
-187.91349301082897
 30
0.0
 11
779.8850954708937
 21
-197.41349301082897
 31
0.0
  0
LINE
  5
F8
100
AcDbEntity
  8
____1
370
               5
390
0
  6
Continuous
 62
               7
100
AcDbLine
 10
810.8850954708937
 20
-187.91349301082857
 30
0.0
 11
810.8850954708937
 21
-197.41349301082897
 31
0.0
  0
SOLID
  5
F9
100
AcDbEntity
  8
____1
370
               5
390
0
  6
Continuous
 62
               7
100
AcDbTrace
 10
807.8850954708937
 20
-197.66349301082897
 30
0.0
 11
807.8850954708937
 21
-197.66349301082897
 31
0.0
 12
808.6350954708937
 22
-196.91349301082897
 32
0.0
 13
810.8850954708937
 23
-196.91349301082897
 33
0.0
  0
SOLID
  5
FA
100
AcDbEntity
  8
____1
370
               5
390
0
  6
Continuous
 62
               7
100
AcDbTrace
 10
808.6350954708937
 20
-196.91349301082897
 30
0.0
 11
810.8850954708937
 21
-196.91349301082897
 31
0.0
 12
807.8850954708937
 22
-196.16349301082897
 32
0.0
 13
807.8850954708937
 23
-196.16349301082897
 33
0.0
  0
LINE
  5
FB
100
AcDbEntity
  8
____1
370
               5
390
0
  6
Continuous
 62
               7
100
AcDbLine
 10
810.8850954708937
 20
-196.91349301082897
 30
0.0
 11
795.3850954708937
 21
-196.91349301082897
 31
0.0
  0
SOLID
  5
FC
100
AcDbEntity
  8
____1
370
               5
390
0
  6
Continuous
 62
               7
100
AcDbTrace
 10
782.8850954708937
 20
-197.66349301082897
 30
0.0
 11
782.8850954708937
 21
-197.66349301082897
 31
0.0
 12
779.8850954708937
 22
-196.91349301082897
 32
0.0
 13
782.1350954708937
 23
-196.91349301082897
 33
0.0
  0
SOLID
  5
FD
100
AcDbEntity
  8
____1
370
               5
390
0
  6
Continuous
 62
               7
100
AcDbTrace
 10
779.8850954708937
 20
-196.91349301082897
 30
0.0
 11
782.1350954708937
 21
-196.91349301082897
 31
0.0
 12
782.8850954708937
 22
-196.16349301082897
 32
0.0
 13
782.8850954708937
 23
-196.16349301082897
 33
0.0
  0
LINE
  5
FE
100
AcDbEntity
  8
____1
370
               5
390
0
  6
Continuous
 62
               7
100
AcDbLine
 10
779.8850954708937
 20
-196.91349301082897
 30
0.0
 11
795.3850954708937
 21
-196.91349301082897
 31
0.0
  0
MTEXT
  5
FF
100
AcDbEntity
  8
寸法線_1
370
               5
390
0
  6
CENTER2
 62
               7
100
AcDbMText
 10
793.62120663498672
 20
-192.38571533901501
 30
0.0
 40
3.5277776718139648
 41
3.5415580533444881
 71
               1
 72
               1
  1
31
  7
Style1
 73
               1
 44
1.0
  0
ENDBLK
  5
100
100
AcDbEntity
  8
0
390
0
100
AcDbBlockEnd
  0
BLOCK
  5
153
100
AcDbEntity
  8
0
390
0
100
AcDbBlockBegin
  2
*D5
 70
              65
 10
0.0
 20
0.0
 30
0.0
  3
*D5
  1

  0
LINE
  5
154
100
AcDbEntity
  8
____1
370
               5
390
0
  6
Continuous
 62
               7
100
AcDbLine
 10
936.15305275857918
 20
-178.78597335680985
 30
0.0
 11
936.15305275857918
 21
-169.28597335680985
 31
0.0
  0
LINE
  5
155
100
AcDbEntity
  8
____1
370
               5
390
0
  6
Continuous
 62
               7
100
AcDbLine
 10
913.65305275857918
 20
-178.78597335680985
 30
0.0
 11
913.65305275857918
 21
-169.28597335680985
 31
0.0
  0
SOLID
  5
156
100
AcDbEntity
  8
____1
370
               5
390
0
  6
Continuous
 62
               7
100
AcDbTrace
 10
916.65305275857918
 20
-170.53597335680985
 30
0.0
 11
916.65305275857918
 21
-170.53597335680985
 31
0.0
 12
913.65305275857918
 22
-169.78597335680985
 32
0.0
 13
915.90305275857918
 23
-169.78597335680985
 33
0.0
  0
SOLID
  5
157
100
AcDbEntity
  8
____1
370
               5
390
0
  6
Continuous
 62
               7
100
AcDbTrace
 10
913.65305275857918
 20
-169.78597335680985
 30
0.0
 11
915.90305275857918
 21
-169.78597335680985
 31
0.0
 12
916.65305275857918
 22
-169.03597335680985
 32
0.0
 13
916.65305275857918
 23
-169.03597335680985
 33
0.0
  0
LINE
  5
158
100
AcDbEntity
  8
____1
370
               5
390
0
  6
Continuous
 62
               7
100
AcDbLine
 10
913.65305275857918
 20
-169.78597335680985
 30
0.0
 11
924.90305275857918
 21
-169.78597335680985
 31
0.0
  0
SOLID
  5
159
100
AcDbEntity
  8
____1
370
               5
390
0
  6
Continuous
 62
               7
100
AcDbTrace
 10
933.15305275857918
 20
-170.53597335680985
 30
0.0
 11
933.15305275857918
 21
-170.53597335680985
 31
0.0
 12
933.90305275857918
 22
-169.78597335680985
 32
0.0
 13
936.15305275857918
 23
-169.78597335680985
 33
0.0
  0
SOLID
  5
15A
100
AcDbEntity
  8
____1
370
               5
390
0
  6
Continuous
 62
               7
100
AcDbTrace
 10
933.90305275857918
 20
-169.78597335680985
 30
0.0
 11
936.15305275857918
 21
-169.78597335680985
 31
0.0
 12
933.15305275857918
 22
-169.03597335680985
 32
0.0
 13
933.15305275857918
 23
-169.03597335680985
 33
0.0
  0
LINE
  5
15B
100
AcDbEntity
  8
____1
370
               5
390
0
  6
Continuous
 62
               7
100
AcDbLine
 10
936.15305275857918
 20
-169.78597335680985
 30
0.0
 11
924.90305275857918
 21
-169.78597335680985
 31
0.0
  0
MTEXT
  5
15C
100
AcDbEntity
  8
寸法線_1
370
              18
390
0
  6
Continuous
 62
               7
100
AcDbMText
 10
921.37527508676521
 20
-165.25819568499588
 30
0.0
 40
3.5277776718139648
 41
7.0831161066889763
 71
               1
 72
               1
  1
22.5
  7
Style1
 73
               1
 44
1.0
  0
ENDBLK
  5
15D
100
AcDbEntity
  8
0
390
0
100
AcDbBlockEnd
  0
BLOCK
  5
16C
100
AcDbEntity
  8
0
390
0
100
AcDbBlockBegin
  2
*D6
 70
              65
 10
0.0
 20
0.0
 30
0.0
  3
*D6
  1

  0
LINE
  5
16D
100
AcDbEntity
  8
____1
370
               5
390
0
  6
Continuous
 62
               7
100
AcDbLine
 10
750.13509547089359
 20
-240.00876656296873
 30
0.0
 11
750.13509547089359
 21
-237.00876656296873
 31
0.0
  0
LINE
  5
16E
100
AcDbEntity
  8
____1
370
               5
390
0
  6
Continuous
 62
               7
100
AcDbLine
 10
760.05865914699393
 20
-237.00876656296873
 30
0.0
 11
749.63509547089359
 21
-237.00876656296873
 31
0.0
  0
LINE
  5
16F
100
AcDbEntity
  8
____1
370
               5
390
0
  6
Continuous
 62
               7
100
AcDbLine
 10
759.13509547089359
 20
-240.00876656296873
 30
0.0
 11
749.63509547089359
 21
-240.00876656296873
 31
0.0
  0
SOLID
  5
170
100
AcDbEntity
  8
____1
370
               5
390
0
  6
Continuous
 62
               7
100
AcDbTrace
 10
749.38509547089359
 20
-243.00876656296873
 30
0.0
 11
749.38509547089359
 21
-243.00876656296873
 31
0.0
 12
749.57259547089359
 22
-242.25876656296873
 32
0.0
 13
750.13509547089359
 23
-242.25876656296873
 33
0.0
  0
SOLID
  5
171
100
AcDbEntity
  8
____1
370
               5
390
0
  6
Continuous
 62
               7
100
AcDbTrace
 10
750.88509547089359
 20
-243.00876656296873
 30
0.0
 11
750.88509547089359
 21
-243.00876656296873
 31
0.0
 12
750.13509547089359
 22
-242.25876656296873
 32
0.0
 13
750.69759547089359
 23
-242.25876656296873
 33
0.0
  0
SOLID
  5
172
100
AcDbEntity
  8
____1
370
               5
390
0
  6
Continuous
 62
               7
100
AcDbTrace
 10
749.57259547089359
 20
-242.25876656296873
 30
0.0
 11
750.69759547089359
 21
-242.25876656296873
 31
0.0
 12
750.13509547089359
 22
-240.00876656296873
 32
0.0
 13
750.13509547089359
 23
-240.00876656296873
 33
0.0
  0
LINE
  5
173
100
AcDbEntity
  8
____1
370
               5
390
0
  6
Continuous
 62
               7
100
AcDbLine
 10
750.13509547089359
 20
-240.00876656296873
 30
0.0
 11
750.13509547089359
 21
-243.00876656296873
 31
0.0
  0
SOLID
  5
174
100
AcDbEntity
  8
____1
370
               5
390
0
  6
Continuous
 62
               7
100
AcDbTrace
 10
750.13509547089359
 20
-237.00876656296873
 30
0.0
 11
750.13509547089359
 21
-237.00876656296873
 31
0.0
 12
749.57259547089359
 22
-234.75876656296873
 32
0.0
 13
750.69759547089359
 23
-234.75876656296873
 33
0.0
  0
SOLID
  5
175
100
AcDbEntity
  8
____1
370
               5
390
0
  6
Continuous
 62
               7
100
AcDbTrace
 10
749.57259547089359
 20
-234.75876656296873
 30
0.0
 11
750.13509547089359
 21
-234.75876656296873
 31
0.0
 12
749.38509547089359
 22
-234.00876656296873
 32
0.0
 13
749.38509547089359
 23
-234.00876656296873
 33
0.0
  0
SOLID
  5
176
100
AcDbEntity
  8
____1
370
               5
390
0
  6
Continuous
 62
               7
100
AcDbTrace
 10
750.13509547089359
 20
-234.75876656296873
 30
0.0
 11
750.69759547089359
 21
-234.75876656296873
 31
0.0
 12
750.88509547089359
 22
-234.00876656296873
 32
0.0
 13
750.88509547089359
 23
-234.00876656296873
 33
0.0
  0
LINE
  5
177
100
AcDbEntity
  8
____1
370
               5
390
0
  6
Continuous
 62
               7
100
AcDbLine
 10
750.13509547089359
 20
-237.00876656296873
 30
0.0
 11
750.13509547089359
 21
-234.00876656296873
 31
0.0
  0
MTEXT
  5
178
100
AcDbEntity
  8
寸法線_1
370
               5
390
0
  6
CENTER2
 62
               7
100
AcDbMText
 10
745.60731779907962
 20
-239.39071098092222
 30
0.0
 40
3.5277776718139648
 41
1.7707790266722441
 71
               1
 72
               1
  1
3
  7
Style1
 11
0.0
 21
1.0
 31
0.0
 73
               1
 44
1.0
  0
ENDBLK
  5
179
100
AcDbEntity
  8
0
390
0
100
AcDbBlockEnd
  0
BLOCK
  5
17E
100
AcDbEntity
  8
0
390
0
100
AcDbBlockBegin
  2
*D7
 70
              65
 10
0.0
 20
0.0
 30
0.0
  3
*D7
  1

  0
LINE
  5
17F
100
AcDbEntity
  8
____1
370
               5
390
0
  6
Continuous
 62
               7
100
AcDbLine
 10
830.63509547089359
 20
-241.00876656296873
 30
0.0
 11
830.63509547089359
 21
-268.87234594235429
 31
0.0
  0
LINE
  5
180
100
AcDbEntity
  8
____1
370
               5
390
0
  6
Continuous
 62
               7
100
AcDbLine
 10
760.13509547089359
 20
-241.00876656296873
 30
0.0
 11
760.13509547089359
 21
-268.87234594235429
 31
0.0
  0
SOLID
  5
181
100
AcDbEntity
  8
____1
370
               5
390
0
  6
Continuous
 62
               7
100
AcDbTrace
 10
763.13509547089359
 20
-269.12234594235429
 30
0.0
 11
763.13509547089359
 21
-269.12234594235429
 31
0.0
 12
760.13509547089359
 22
-268.37234594235429
 32
0.0
 13
762.38509547089359
 23
-268.37234594235429
 33
0.0
  0
SOLID
  5
182
100
AcDbEntity
  8
____1
370
               5
390
0
  6
Continuous
 62
               7
100
AcDbTrace
 10
760.13509547089359
 20
-268.37234594235429
 30
0.0
 11
762.38509547089359
 21
-268.37234594235429
 31
0.0
 12
763.13509547089359
 22
-267.62234594235429
 32
0.0
 13
763.13509547089359
 23
-267.62234594235429
 33
0.0
  0
LINE
  5
183
100
AcDbEntity
  8
____1
370
               5
390
0
  6
Continuous
 62
               7
100
AcDbLine
 10
760.13509547089359
 20
-268.37234594235429
 30
0.0
 11
795.38509547089359
 21
-268.37234594235429
 31
0.0
  0
SOLID
  5
184
100
AcDbEntity
  8
____1
370
               5
390
0
  6
Continuous
 62
               7
100
AcDbTrace
 10
827.63509547089359
 20
-269.12234594235429
 30
0.0
 11
827.63509547089359
 21
-269.12234594235429
 31
0.0
 12
828.38509547089359
 22
-268.37234594235429
 32
0.0
 13
830.63509547089359
 23
-268.37234594235429
 33
0.0
  0
SOLID
  5
185
100
AcDbEntity
  8
____1
370
               5
390
0
  6
Continuous
 62
               7
100
AcDbTrace
 10
828.38509547089359
 20
-268.37234594235429
 30
0.0
 11
830.63509547089359
 21
-268.37234594235429
 31
0.0
 12
827.63509547089359
 22
-267.62234594235429
 32
0.0
 13
827.63509547089359
 23
-267.62234594235429
 33
0.0
  0
LINE
  5
186
100
AcDbEntity
  8
____1
370
               5
390
0
  6
Continuous
 62
               7
100
AcDbLine
 10
830.63509547089359
 20
-268.37234594235429
 30
0.0
 11
795.38509547089359
 21
-268.37234594235429
 31
0.0
  0
MTEXT
  5
187
100
AcDbEntity
  8
寸法線_1
370
              18
390
0
  6
Continuous
 62
               7
100
AcDbMText
 10
791.85731779907962
 20
-263.84456827054032
 30
0.0
 40
3.5277776718139648
 41
7.0831161066889763
 71
               1
 72
               1
  1
70.5
  7
Style1
 73
               1
 44
1.0
  0
ENDBLK
  5
188
100
AcDbEntity
  8
0
390
0
100
AcDbBlockEnd
  0
BLOCK
  5
18B
100
AcDbEntity
  8
0
390
0
100
AcDbBlockBegin
  2
*D8
 70
              65
 10
0.0
 20
0.0
 30
0.0
  3
*D8
  1

  0
LINE
  5
18C
100
AcDbEntity
  8
____1
370
               5
390
0
  6
Continuous
 62
               7
100
AcDbLine
 10
765.38509547089359
 20
-251.00876656296873
 30
0.0
 11
765.38509547089359
 21
-260.50876656296873
 31
0.0
  0
LINE
  5
18D
100
AcDbEntity
  8
____1
370
               5
390
0
  6
Continuous
 62
               7
100
AcDbLine
 10
825.38509547089359
 20
-251.00876656296873
 30
0.0
 11
825.38509547089359
 21
-260.50876656296873
 31
0.0
  0
SOLID
  5
18E
100
AcDbEntity
  8
____1
370
               5
390
0
  6
Continuous
 62
               7
100
AcDbTrace
 10
822.38509547089359
 20
-260.75876656296873
 30
0.0
 11
822.38509547089359
 21
-260.75876656296873
 31
0.0
 12
823.13509547089359
 22
-260.00876656296873
 32
0.0
 13
825.38509547089359
 23
-260.00876656296873
 33
0.0
  0
SOLID
  5
18F
100
AcDbEntity
  8
____1
370
               5
390
0
  6
Continuous
 62
               7
100
AcDbTrace
 10
823.13509547089359
 20
-260.00876656296873
 30
0.0
 11
825.38509547089359
 21
-260.00876656296873
 31
0.0
 12
822.38509547089359
 22
-259.25876656296873
 32
0.0
 13
822.38509547089359
 23
-259.25876656296873
 33
0.0
  0
LINE
  5
190
100
AcDbEntity
  8
____1
370
               5
390
0
  6
Continuous
 62
               7
100
AcDbLine
 10
825.38509547089359
 20
-260.00876656296873
 30
0.0
 11
795.38509547089359
 21
-260.00876656296873
 31
0.0
  0
SOLID
  5
191
100
AcDbEntity
  8
____1
370
               5
390
0
  6
Continuous
 62
               7
100
AcDbTrace
 10
768.38509547089359
 20
-260.75876656296873
 30
0.0
 11
768.38509547089359
 21
-260.75876656296873
 31
0.0
 12
765.38509547089359
 22
-260.00876656296873
 32
0.0
 13
767.63509547089359
 23
-260.00876656296873
 33
0.0
  0
SOLID
  5
192
100
AcDbEntity
  8
____1
370
               5
390
0
  6
Continuous
 62
               7
100
AcDbTrace
 10
765.38509547089359
 20
-260.00876656296873
 30
0.0
 11
767.63509547089359
 21
-260.00876656296873
 31
0.0
 12
768.38509547089359
 22
-259.25876656296873
 32
0.0
 13
768.38509547089359
 23
-259.25876656296873
 33
0.0
  0
LINE
  5
193
100
AcDbEntity
  8
____1
370
               5
390
0
  6
Continuous
 62
               7
100
AcDbLine
 10
765.38509547089359
 20
-260.00876656296873
 30
0.0
 11
795.38509547089359
 21
-260.00876656296873
 31
0.0
  0
MTEXT
  5
194
100
AcDbEntity
  8
寸法線_1
370
               5
390
0
  6
CENTER2
 62
               7
100
AcDbMText
 10
793.62120663498661
 20
-255.48098889115477
 30
0.0
 40
3.5277776718139648
 41
3.5415580533444881
 71
               1
 72
               1
  1
60
  7
Style1
 73
               1
 44
1.0
  0
ENDBLK
  5
195
100
AcDbEntity
  8
0
390
0
100
AcDbBlockEnd
  0
BLOCK
  5
1B4
100
AcDbEntity
  8
0
390
0
100
AcDbBlockBegin
  2
*D9
 70
              65
 10
0.0
 20
0.0
 30
0.0
  3
*D9
  1

  0
LINE
  5
1B5
100
AcDbEntity
  8
____1
370
               5
390
0
  6
Continuous
 62
               7
100
AcDbLine
 10
842.2837198910596
 20
-227.50876656296873
 30
0.0
 11
842.2837198910596
 21
-240.00876656296873
 31
0.0
  0
LINE
  5
1B6
100
AcDbEntity
  8
____1
370
               5
390
0
  6
Continuous
 62
               7
100
AcDbLine
 10
831.63509547089359
 20
-240.00876656296873
 30
0.0
 11
842.7837198910596
 21
-240.00876656296873
 31
0.0
  0
LINE
  5
1B7
100
AcDbEntity
  8
____1
370
               5
390
0
  6
Continuous
 62
               7
100
AcDbLine
 10
822.21093133654904
 20
-227.50876656296873
 30
0.0
 11
842.7837198910596
 21
-227.50876656296873
 31
0.0
  0
SOLID
  5
1B8
100
AcDbEntity
  8
____1
370
               5
390
0
  6
Continuous
 62
               7
100
AcDbTrace
 10
842.2837198910596
 20
-227.50876656296873
 30
0.0
 11
842.2837198910596
 21
-227.50876656296873
 31
0.0
 12
841.7212198910596
 22
-225.25876656296873
 32
0.0
 13
842.8462198910596
 23
-225.25876656296873
 33
0.0
  0
SOLID
  5
1B9
100
AcDbEntity
  8
____1
370
               5
390
0
  6
Continuous
 62
               7
100
AcDbTrace
 10
841.7212198910596
 20
-225.25876656296873
 30
0.0
 11
842.2837198910596
 21
-225.25876656296873
 31
0.0
 12
841.5337198910596
 22
-224.50876656296873
 32
0.0
 13
841.5337198910596
 23
-224.50876656296873
 33
0.0
  0
SOLID
  5
1BA
100
AcDbEntity
  8
____1
370
               5
390
0
  6
Continuous
 62
               7
100
AcDbTrace
 10
842.2837198910596
 20
-225.25876656296873
 30
0.0
 11
842.8462198910596
 21
-225.25876656296873
 31
0.0
 12
843.0337198910596
 22
-224.50876656296873
 32
0.0
 13
843.0337198910596
 23
-224.50876656296873
 33
0.0
  0
LINE
  5
1BB
100
AcDbEntity
  8
____1
370
               5
390
0
  6
Continuous
 62
               7
100
AcDbLine
 10
842.2837198910596
 20
-227.50876656296873
 30
0.0
 11
842.2837198910596
 21
-224.50876656296873
 31
0.0
  0
SOLID
  5
1BC
100
AcDbEntity
  8
____1
370
               5
390
0
  6
Continuous
 62
               7
100
AcDbTrace
 10
841.5337198910596
 20
-243.00876656296873
 30
0.0
 11
841.5337198910596
 21
-243.00876656296873
 31
0.0
 12
841.7212198910596
 22
-242.25876656296873
 32
0.0
 13
842.2837198910596
 23
-242.25876656296873
 33
0.0
  0
SOLID
  5
1BD
100
AcDbEntity
  8
____1
370
               5
390
0
  6
Continuous
 62
               7
100
AcDbTrace
 10
843.0337198910596
 20
-243.00876656296873
 30
0.0
 11
843.0337198910596
 21
-243.00876656296873
 31
0.0
 12
842.2837198910596
 22
-242.25876656296873
 32
0.0
 13
842.8462198910596
 23
-242.25876656296873
 33
0.0
  0
SOLID
  5
1BE
100
AcDbEntity
  8
____1
370
               5
390
0
  6
Continuous
 62
               7
100
AcDbTrace
 10
841.7212198910596
 20
-242.25876656296873
 30
0.0
 11
842.8462198910596
 21
-242.25876656296873
 31
0.0
 12
842.2837198910596
 22
-240.00876656296873
 32
0.0
 13
842.2837198910596
 23
-240.00876656296873
 33
0.0
  0
LINE
  5
1BF
100
AcDbEntity
  8
____1
370
               5
390
0
  6
Continuous
 62
               7
100
AcDbLine
 10
842.2837198910596
 20
-240.00876656296873
 30
0.0
 11
842.2837198910596
 21
-243.00876656296873
 31
0.0
  0
MTEXT
  5
1C0
100
AcDbEntity
  8
寸法線_1
370
               5
390
0
  6
CENTER2
 62
               7
100
AcDbMText
 10
837.75594221924564
 20
-237.2865442347827
 30
0.0
 40
3.5277776718139648
 41
7.0831161066889763
 71
               1
 72
               1
  1
12.5
  7
Style1
 11
0.0
 21
1.0
 31
0.0
 73
               1
 44
1.0
  0
ENDBLK
  5
1C1
100
AcDbEntity
  8
0
390
0
100
AcDbBlockEnd
  0
BLOCK
  5
1C4
100
AcDbEntity
  8
0
390
0
100
AcDbBlockBegin
  2
*D10
 70
              65
 10
0.0
 20
0.0
 30
0.0
  3
*D10
  1

  0
LINE
  5
1C5
100
AcDbEntity
  8
____1
370
               5
390
0
  6
Continuous
 62
               7
100
AcDbLine
 10
842.28372035954806
 20
-240.00876656296873
 30
0.0
 11
842.28372035954806
 21
-248.00876656296873
 31
0.0
  0
LINE
  5
1C6
100
AcDbEntity
  8
____1
370
               5
390
0
  6
Continuous
 62
               7
100
AcDbLine
 10
829.05626008050024
 20
-248.00876656296873
 30
0.0
 11
842.78372035954806
 21
-248.00876656296873
 31
0.0
  0
LINE
  5
1C7
100
AcDbEntity
  8
____1
370
               5
390
0
  6
Continuous
 62
               7
100
AcDbLine
 10
831.63509547089359
 20
-240.00876656296873
 30
0.0
 11
842.78372035954806
 21
-240.00876656296873
 31
0.0
  0
SOLID
  5
1C8
100
AcDbEntity
  8
____1
370
               5
390
0
  6
Continuous
 62
               7
100
AcDbTrace
 10
842.28372035954806
 20
-240.00876656296873
 30
0.0
 11
842.28372035954806
 21
-240.00876656296873
 31
0.0
 12
841.72122035954806
 22
-237.75876656296873
 32
0.0
 13
842.84622035954806
 23
-237.75876656296873
 33
0.0
  0
SOLID
  5
1C9
100
AcDbEntity
  8
____1
370
               5
390
0
  6
Continuous
 62
               7
100
AcDbTrace
 10
841.72122035954806
 20
-237.75876656296873
 30
0.0
 11
842.28372035954806
 21
-237.75876656296873
 31
0.0
 12
841.53372035954806
 22
-237.00876656296873
 32
0.0
 13
841.53372035954806
 23
-237.00876656296873
 33
0.0
  0
SOLID
  5
1CA
100
AcDbEntity
  8
____1
370
               5
390
0
  6
Continuous
 62
               7
100
AcDbTrace
 10
842.28372035954806
 20
-237.75876656296873
 30
0.0
 11
842.84622035954806
 21
-237.75876656296873
 31
0.0
 12
843.03372035954806
 22
-237.00876656296873
 32
0.0
 13
843.03372035954806
 23
-237.00876656296873
 33
0.0
  0
LINE
  5
1CB
100
AcDbEntity
  8
____1
370
               5
390
0
  6
Continuous
 62
               7
100
AcDbLine
 10
842.28372035954806
 20
-240.00876656296873
 30
0.0
 11
842.28372035954806
 21
-237.00876656296873
 31
0.0
  0
SOLID
  5
1CC
100
AcDbEntity
  8
____1
370
               5
390
0
  6
Continuous
 62
               7
100
AcDbTrace
 10
841.53372035954806
 20
-251.00876656296873
 30
0.0
 11
841.53372035954806
 21
-251.00876656296873
 31
0.0
 12
841.72122035954806
 22
-250.25876656296873
 32
0.0
 13
842.28372035954806
 23
-250.25876656296873
 33
0.0
  0
SOLID
  5
1CD
100
AcDbEntity
  8
____1
370
               5
390
0
  6
Continuous
 62
               7
100
AcDbTrace
 10
843.03372035954806
 20
-251.00876656296873
 30
0.0
 11
843.03372035954806
 21
-251.00876656296873
 31
0.0
 12
842.28372035954806
 22
-250.25876656296873
 32
0.0
 13
842.84622035954806
 23
-250.25876656296873
 33
0.0
  0
SOLID
  5
1CE
100
AcDbEntity
  8
____1
370
               5
390
0
  6
Continuous
 62
               7
100
AcDbTrace
 10
841.72122035954806
 20
-250.25876656296873
 30
0.0
 11
842.84622035954806
 21
-250.25876656296873
 31
0.0
 12
842.28372035954806
 22
-248.00876656296873
 32
0.0
 13
842.28372035954806
 23
-248.00876656296873
 33
0.0
  0
LINE
  5
1CF
100
AcDbEntity
  8
____1
370
               5
390
0
  6
Continuous
 62
               7
100
AcDbLine
 10
842.28372035954806
 20
-248.00876656296873
 30
0.0
 11
842.28372035954806
 21
-251.00876656296873
 31
0.0
  0
MTEXT
  5
1D0
100
AcDbEntity
  8
寸法線_1
370
               5
390
0
  6
CENTER2
 62
               7
100
AcDbMText
 10
837.75594268773409
 20
-244.89071098092222
 30
0.0
 40
3.5277776718139648
 41
1.7707790266722441
 71
               1
 72
               1
  1
8
  7
Style1
 11
0.0
 21
1.0
 31
0.0
 73
               1
 44
1.0
  0
ENDBLK
  5
1D1
100
AcDbEntity
  8
0
390
0
100
AcDbBlockEnd
  0
BLOCK
  5
1D5
100
AcDbEntity
  8
0
390
0
100
AcDbBlockBegin
  2
*D11
 70
              65
 10
0.0
 20
0.0
 30
0.0
  3
*D11
  1

  0
LINE
  5
1D6
100
AcDbEntity
  8
____1
370
               5
390
0
  6
Continuous
 62
               7
100
AcDbLine
 10
798.63509547089348
 20
-234.50876656296873
 30
0.0
 11
798.63509547089348
 21
-216.41907158616209
 31
0.0
  0
LINE
  5
1D7
100
AcDbEntity
  8
____1
370
               5
390
0
  6
Continuous
 62
               7
100
AcDbLine
 10
822.84872846373912
 20
-235.54811780567866
 30
0.0
 11
822.84872846373912
 21
-216.41907158616209
 31
0.0
  0
SOLID
  5
1D8
100
AcDbEntity
  8
____1
370
               5
390
0
  6
Continuous
 62
               7
100
AcDbTrace
 10
819.84872846373912
 20
-217.66907158616209
 30
0.0
 11
819.84872846373912
 21
-217.66907158616209
 31
0.0
 12
820.59872846373912
 22
-216.91907158616209
 32
0.0
 13
822.84872846373912
 23
-216.91907158616209
 33
0.0
  0
SOLID
  5
1D9
100
AcDbEntity
  8
____1
370
               5
390
0
  6
Continuous
 62
               7
100
AcDbTrace
 10
820.59872846373912
 20
-216.91907158616209
 30
0.0
 11
822.84872846373912
 21
-216.91907158616209
 31
0.0
 12
819.84872846373912
 22
-216.16907158616209
 32
0.0
 13
819.84872846373912
 23
-216.16907158616209
 33
0.0
  0
LINE
  5
1DA
100
AcDbEntity
  8
____1
370
               5
390
0
  6
Continuous
 62
               7
100
AcDbLine
 10
822.84872846373912
 20
-216.91907158616209
 30
0.0
 11
810.88509558147518
 21
-216.91907158616209
 31
0.0
  0
SOLID
  5
1DB
100
AcDbEntity
  8
____1
370
               5
390
0
  6
Continuous
 62
               7
100
AcDbTrace
 10
801.63509547089348
 20
-217.66907158616209
 30
0.0
 11
801.63509547089348
 21
-217.66907158616209
 31
0.0
 12
798.63509547089348
 22
-216.91907158616209
 32
0.0
 13
800.88509547089348
 23
-216.91907158616209
 33
0.0
  0
SOLID
  5
1DC
100
AcDbEntity
  8
____1
370
               5
390
0
  6
Continuous
 62
               7
100
AcDbTrace
 10
798.63509547089348
 20
-216.91907158616209
 30
0.0
 11
800.88509547089348
 21
-216.91907158616209
 31
0.0
 12
801.63509547089348
 22
-216.16907158616209
 32
0.0
 13
801.63509547089348
 23
-216.16907158616209
 33
0.0
  0
LINE
  5
1DD
100
AcDbEntity
  8
____1
370
               5
390
0
  6
Continuous
 62
               7
100
AcDbLine
 10
798.63509547089348
 20
-216.91907158616209
 30
0.0
 11
810.88509558147518
 21
-216.91907158616209
 31
0.0
  0
MTEXT
  5
1DE
100
AcDbEntity
  8
寸法線_1
370
              18
390
0
  6
Continuous
 62
               7
100
AcDbMText
 10
809.1212067455682
 20
-212.39129391434813
 30
0.0
 40
3.5277776718139648
 41
3.5415580533444881
 71
               1
 72
               1
  1
24
  7
Style1
 73
               1
 44
1.0
  0
ENDBLK
  5
1DF
100
AcDbEntity
  8
0
390
0
100
AcDbBlockEnd
  0
BLOCK
  5
1E2
100
AcDbEntity
  8
0
390
0
100
AcDbBlockBegin
  2
*D12
 70
              65
 10
0.0
 20
0.0
 30
0.0
  3
*D12
  1

  0
LINE
  5
1E3
100
AcDbEntity
  8
____1
370
               5
390
0
  6
Continuous
 62
               7
100
AcDbLine
 10
792.13509547089359
 20
-234.50876656296873
 30
0.0
 11
792.13509547089359
 21
-216.41907158616209
 31
0.0
  0
LINE
  5
1E4
100
AcDbEntity
  8
____1
370
               5
390
0
  6
Continuous
 62
               7
100
AcDbLine
 10
767.92146247804806
 20
-235.54811780567877
 30
0.0
 11
767.92146247804806
 21
-216.41907158616209
 31
0.0
  0
SOLID
  5
1E5
100
AcDbEntity
  8
____1
370
               5
390
0
  6
Continuous
 62
               7
100
AcDbTrace
 10
770.92146247804806
 20
-217.66907158616209
 30
0.0
 11
770.92146247804806
 21
-217.66907158616209
 31
0.0
 12
767.92146247804806
 22
-216.91907158616209
 32
0.0
 13
770.17146247804806
 23
-216.91907158616209
 33
0.0
  0
SOLID
  5
1E6
100
AcDbEntity
  8
____1
370
               5
390
0
  6
Continuous
 62
               7
100
AcDbTrace
 10
767.92146247804806
 20
-216.91907158616209
 30
0.0
 11
770.17146247804806
 21
-216.91907158616209
 31
0.0
 12
770.92146247804806
 22
-216.16907158616209
 32
0.0
 13
770.92146247804806
 23
-216.16907158616209
 33
0.0
  0
LINE
  5
1E7
100
AcDbEntity
  8
____1
370
               5
390
0
  6
Continuous
 62
               7
100
AcDbLine
 10
767.92146247804806
 20
-216.91907158616209
 30
0.0
 11
780.7078294363024
 21
-216.91907158616209
 31
0.0
  0
SOLID
  5
1E8
100
AcDbEntity
  8
____1
370
               5
390
0
  6
Continuous
 62
               7
100
AcDbTrace
 10
789.13509547089359
 20
-217.66907158616209
 30
0.0
 11
789.13509547089359
 21
-217.66907158616209
 31
0.0
 12
789.88509547089359
 22
-216.91907158616209
 32
0.0
 13
792.13509547089359
 23
-216.91907158616209
 33
0.0
  0
SOLID
  5
1E9
100
AcDbEntity
  8
____1
370
               5
390
0
  6
Continuous
 62
               7
100
AcDbTrace
 10
789.88509547089359
 20
-216.91907158616209
 30
0.0
 11
792.13509547089359
 21
-216.91907158616209
 31
0.0
 12
789.13509547089359
 22
-216.16907158616209
 32
0.0
 13
789.13509547089359
 23
-216.16907158616209
 33
0.0
  0
LINE
  5
1EA
100
AcDbEntity
  8
____1
370
               5
390
0
  6
Continuous
 62
               7
100
AcDbLine
 10
792.13509547089359
 20
-216.91907158616209
 30
0.0
 11
780.7078294363024
 21
-216.91907158616209
 31
0.0
  0
MTEXT
  5
1EB
100
AcDbEntity
  8
寸法線_1
370
              18
390
0
  6
Continuous
 62
               7
100
AcDbMText
 10
778.94394060039542
 20
-212.39129391434813
 30
0.0
 40
3.5277776718139648
 41
3.5415580533444881
 71
               1
 72
               1
  1
24
  7
Style1
 73
               1
 44
1.0
  0
ENDBLK
  5
1EC
100
AcDbEntity
  8
0
390
0
100
AcDbBlockEnd
  0
BLOCK
  5
1F0
100
AcDbEntity
  8
0
390
0
100
AcDbBlockBegin
  2
*D13
 70
              65
 10
0.0
 20
0.0
 30
0.0
  3
*D13
  1

  0
LINE
  5
1F1
100
AcDbEntity
  8
____1
370
               5
390
0
  6
Continuous
 62
               7
100
AcDbLine
 10
868.98544328576963
 20
-217.50876656296873
 30
0.0
 11
870.98544328576963
 21
-217.50876656296873
 31
0.0
  0
LINE
  5
1F2
100
AcDbEntity
  8
____1
370
               5
390
0
  6
Continuous
 62
               7
100
AcDbLine
 10
870.98544328576963
 20
-226.50876656296873
 30
0.0
 11
870.98544328576963
 21
-217.00876656296873
 31
0.0
  0
LINE
  5
1F3
100
AcDbEntity
  8
____1
370
               5
390
0
  6
Continuous
 62
               7
100
AcDbLine
 10
868.98544328576963
 20
-227.70876656296872
 30
0.0
 11
868.98544328576963
 21
-217.00876656296873
 31
0.0
  0
SOLID
  5
1F4
100
AcDbEntity
  8
____1
370
               5
390
0
  6
Continuous
 62
               7
100
AcDbTrace
 10
865.98544328576963
 20
-218.25876656296873
 30
0.0
 11
865.98544328576963
 21
-218.25876656296873
 31
0.0
 12
866.73544328576963
 22
-217.50876656296873
 32
0.0
 13
868.98544328576963
 23
-217.50876656296873
 33
0.0
  0
SOLID
  5
1F5
100
AcDbEntity
  8
____1
370
               5
390
0
  6
Continuous
 62
               7
100
AcDbTrace
 10
866.73544328576963
 20
-217.50876656296873
 30
0.0
 11
868.98544328576963
 21
-217.50876656296873
 31
0.0
 12
865.98544328576963
 22
-216.75876656296873
 32
0.0
 13
865.98544328576963
 23
-216.75876656296873
 33
0.0
  0
LINE
  5
1F6
100
AcDbEntity
  8
____1
370
               5
390
0
  6
Continuous
 62
               7
100
AcDbLine
 10
868.98544328576963
 20
-217.50876656296873
 30
0.0
 11
858.41433440201047
 21
-217.50876656296873
 31
0.0
  0
SOLID
  5
1F7
100
AcDbEntity
  8
____1
370
               5
390
0
  6
Continuous
 62
               7
100
AcDbTrace
 10
873.98544328576963
 20
-218.25876656296873
 30
0.0
 11
873.98544328576963
 21
-218.25876656296873
 31
0.0
 12
870.98544328576963
 22
-217.50876656296873
 32
0.0
 13
873.23544328576963
 23
-217.50876656296873
 33
0.0
  0
SOLID
  5
1F8
100
AcDbEntity
  8
____1
370
               5
390
0
  6
Continuous
 62
               7
100
AcDbTrace
 10
870.98544328576963
 20
-217.50876656296873
 30
0.0
 11
873.23544328576963
 21
-217.50876656296873
 31
0.0
 12
873.98544328576963
 22
-216.75876656296873
 32
0.0
 13
873.98544328576963
 23
-216.75876656296873
 33
0.0
  0
LINE
  5
1F9
100
AcDbEntity
  8
____1
370
               5
390
0
  6
Continuous
 62
               7
100
AcDbLine
 10
870.98544328576963
 20
-217.50876656296873
 30
0.0
 11
873.98544328576963
 21
-217.50876656296873
 31
0.0
  0
MTEXT
  5
1FA
100
AcDbEntity
  8
寸法線_1
370
               5
390
0
  6
CENTER2
 62
               7
100
AcDbMText
 10
860.17822323791745
 20
-212.98098889115477
 30
0.0
 40
3.5277776718139648
 41
5.3123370800167322
 71
               1
 72
               1
  1
(2)
  7
Style1
 73
               1
 44
1.0
  0
ENDBLK
  5
1FB
100
AcDbEntity
  8
0
390
0
100
AcDbBlockEnd
  0
BLOCK
  5
1FE
100
AcDbEntity
  8
0
390
0
100
AcDbBlockBegin
  2
*D14
 70
              65
 10
0.0
 20
0.0
 30
0.0
  3
*D14
  1

  0
LINE
  5
1FF
100
AcDbEntity
  8
____1
370
               5
390
0
  6
Continuous
 62
               7
100
AcDbLine
 10
889.98544328576963
 20
-226.50876656296873
 30
0.0
 11
889.98544328576963
 21
-217.00876656296873
 31
0.0
  0
LINE
  5
200
100
AcDbEntity
  8
____1
370
               5
390
0
  6
Continuous
 62
               7
100
AcDbLine
 10
870.98544328576963
 20
-226.50876656296873
 30
0.0
 11
870.98544328576963
 21
-217.00876656296873
 31
0.0
  0
SOLID
  5
201
100
AcDbEntity
  8
____1
370
               5
390
0
  6
Continuous
 62
               7
100
AcDbTrace
 10
873.98544328576963
 20
-218.25876656296873
 30
0.0
 11
873.98544328576963
 21
-218.25876656296873
 31
0.0
 12
870.98544328576963
 22
-217.50876656296873
 32
0.0
 13
873.23544328576963
 23
-217.50876656296873
 33
0.0
  0
SOLID
  5
202
100
AcDbEntity
  8
____1
370
               5
390
0
  6
Continuous
 62
               7
100
AcDbTrace
 10
870.98544328576963
 20
-217.50876656296873
 30
0.0
 11
873.23544328576963
 21
-217.50876656296873
 31
0.0
 12
873.98544328576963
 22
-216.75876656296873
 32
0.0
 13
873.98544328576963
 23
-216.75876656296873
 33
0.0
  0
LINE
  5
203
100
AcDbEntity
  8
____1
370
               5
390
0
  6
Continuous
 62
               7
100
AcDbLine
 10
870.98544328576963
 20
-217.50876656296873
 30
0.0
 11
880.48544328576963
 21
-217.50876656296873
 31
0.0
  0
SOLID
  5
204
100
AcDbEntity
  8
____1
370
               5
390
0
  6
Continuous
 62
               7
100
AcDbTrace
 10
886.98544328576963
 20
-218.25876656296873
 30
0.0
 11
886.98544328576963
 21
-218.25876656296873
 31
0.0
 12
887.73544328576963
 22
-217.50876656296873
 32
0.0
 13
889.98544328576963
 23
-217.50876656296873
 33
0.0
  0
SOLID
  5
205
100
AcDbEntity
  8
____1
370
               5
390
0
  6
Continuous
 62
               7
100
AcDbTrace
 10
887.73544328576963
 20
-217.50876656296873
 30
0.0
 11
889.98544328576963
 21
-217.50876656296873
 31
0.0
 12
886.98544328576963
 22
-216.75876656296873
 32
0.0
 13
886.98544328576963
 23
-216.75876656296873
 33
0.0
  0
LINE
  5
206
100
AcDbEntity
  8
____1
370
               5
390
0
  6
Continuous
 62
               7
100
AcDbLine
 10
889.98544328576963
 20
-217.50876656296873
 30
0.0
 11
880.48544328576963
 21
-217.50876656296873
 31
0.0
  0
MTEXT
  5
207
100
AcDbEntity
  8
寸法線_1
370
               5
390
0
  6
CENTER2
 62
               7
100
AcDbMText
 10
878.72155444986265
 20
-212.98098889115477
 30
0.0
 40
3.5277776718139648
 41
3.5415580533444881
 71
               1
 72
               1
  1
19
  7
Style1
 73
               1
 44
1.0
  0
ENDBLK
  5
208
100
AcDbEntity
  8
0
390
0
100
AcDbBlockEnd
  0
ENDSEC
  0
SECTION
  2
ENTITIES
  0
LINE
  5
38
100
AcDbEntity
  8
____1
370
              18
390
0
  6
Continuous
 62
               5
100
AcDbLine
 10
914.65305275857918
 20
-192.2859733568099
 30
0.0
 11
913.65305275857918
 21
-191.2859733568099
 31
0.0
  0
LINE
  5
39
100
AcDbEntity
  8
____1
370
              18
390
0
  6
Continuous
 62
               5
100
AcDbLine
 10
935.15305275857918
 20
-179.78597335680985
 30
0.0
 11
936.15305275857918
 21
-180.78597335680996
 31
0.0
  0
LINE
  5
3A
100
AcDbEntity
  8
____1
370
               5
390
0
  6
CENTER2
 62
               3
100
AcDbLine
 10
910.65305275857918
 20
-186.03597335680985
 30
0.0
 11
939.15305275857918
 21
-186.03597335680985
 31
0.0
  0
LINE
  5
3B
100
AcDbEntity
  8
____1
370
              18
390
0
  6
Continuous
 62
               5
100
AcDbLine
 10
936.15305275857918
 20
-179.78597335680985
 30
0.0
 11
936.15305275857918
 21
-192.2859733568099
 31
0.0
  0
LINE
  5
3C
100
AcDbEntity
  8
____1
370
              18
390
0
  6
Continuous
 62
               5
100
AcDbLine
 10
936.15305275857918
 20
-192.2859733568099
 30
0.0
 11
913.65305275857918
 21
-192.2859733568099
 31
0.0
  0
MTEXT
  5
3D
100
AcDbEntity
  8
____1
370
               5
390
0
  6
Continuous
 62
               7
100
AcDbMText
 10
954.40305275857918
 20
-176.45664501894896
 30
0.0
 40
3.5277776718139648
 41
12.0
 71
               1
 72
               1
  1
ｔ1.6
  7
Style1
 73
               1
 44
1.0
  0
LINE
  5
3F
100
AcDbEntity
  8
____1
370
               5
390
0
  6
Continuous
 62
               7
100
AcDbLine
 10
954.40305275857918
 20
-183.44279500354347
 30
0.0
 11
965.22265512048216
 21
-183.44279500354347
 31
0.0
  0
LINE
  5
40
100
AcDbEntity
  8
____1
370
               5
390
0
  6
Continuous
 62
               7
100
AcDbLine
 10
954.40305275857918
 20
-184.66689138908561
 30
0.0
 11
965.22265512048216
 21
-184.66689138908561
 31
0.0
  0
INSERT
  5
48
100
AcDbEntity
  8
____1
370
               5
390
0
  6
Continuous
 62
             254
100
AcDbBlockReference
  2
C0
 10
0.0
 20
0.0
 30
0.0
  0
MTEXT
  5
49
100
AcDbEntity
  8
____1
370
               5
390
0
  6
Continuous
 62
               7
100
AcDbMText
 10
915.54262688266726
 20
-135.18856286075624
 30
0.0
 40
3.5277776718139648
 41
60.0
 71
               1
 72
               1
  1
黒色と茶色を削除
  7
Style1
 73
               1
 44
1.0
  0
MTEXT
  5
4A
100
AcDbEntity
  8
____1
370
               5
390
0
  6
Continuous
 62
               7
100
AcDbMText
 10
915.54262688266726
 20
-130.18856286075624
 30
0.0
 40
3.5277776718139648
 41
60.0
 71
               1
 72
               1
  1
材料板厚ｔ1.5からｔ1.6に変更
  7
Style1
 73
               1
 44
1.0
  0
MTEXT
  5
4B
100
AcDbEntity
  8
____1
370
               5
390
0
  6
Continuous
 62
               7
100
AcDbMText
 10
915.54262688266726
 20
-125.22398736141911
 30
0.0
 40
3.5277776718139648
 41
60.0
 71
               1
 72
               1
  1
改　訂　内　容
  7
Style1
 73
               1
 44
1.0
  0
LINE
  5
4C
100
AcDbEntity
  8
____1
370
              18
390
0
  6
Continuous
 62
               5
100
AcDbLine
 10
915.54262688266726
 20
-139.4620915253717
 30
0.0
 11
915.54262688266726
 21
-124.4620915253717
 31
0.0
  0
LINE
  5
4D
100
AcDbEntity
  8
____1
370
              18
390
0
  6
Continuous
 62
               5
100
AcDbLine
 10
915.54262688266726
 20
-139.4620915253717
 30
0.0
 11
915.54262688266726
 21
-124.4620915253717
 31
0.0
  0
LINE
  5
4E
100
AcDbEntity
  8
____1
370
               5
390
0
  6
Continuous
 62
               7
100
AcDbLine
 10
942.1422677041553
 20
-168.79541666666654
 30
0.0
 11
969.49547738771378
 21
-168.79541666666654
 31
0.0
  0
MTEXT
  5
4F
100
AcDbEntity
  8
____1
370
               5
390
0
  6
Continuous
 62
               7
100
AcDbMText
 10
946.53148932141687
 20
-164.67041666666654
 30
0.0
 40
3.5277776718139648
 41
24.526344011916677
 71
               1
 72
               1
  1
皿ビス用皿穴
  7
Style1
 73
               1
 44
1.0
  0
LINE
  5
50
100
AcDbEntity
  8
____1
370
              18
390
0
  6
Continuous
 62
               5
100
AcDbLine
 10
912.50562141430214
 20
-310.77395315186141
 30
0.0
 11
912.32145196393458
 21
-310.13395315186142
 31
0.0
  0
LINE
  5
51
100
AcDbEntity
  8
____1
370
              18
390
0
  6
Continuous
 62
               5
100
AcDbLine
 10
911.00229921577238
 20
-313.33395315186135
 30
0.0
 11
910.67376588243906
 21
-312.21395315186146
 31
0.0
  0
LINE
  5
52
100
AcDbEntity
  8
____1
370
              18
390
0
  6
Continuous
 62
               5
100
AcDbLine
 10
914.8422992157723
 20
-308.69395315186148
 30
0.0
 11
914.8422992157723
 21
-310.13395315186142
 31
0.0
  0
LINE
  5
53
100
AcDbEntity
  8
____1
370
              18
390
0
  6
Continuous
 62
               5
100
AcDbLine
 10
912.9200026776291
 20
-312.21395315186146
 30
0.0
 11
914.8422992157723
 21
-312.21395315186146
 31
0.0
  0
LINE
  5
54
100
AcDbEntity
  8
____1
370
              18
390
0
  6
Continuous
 62
               5
100
AcDbLine
 10
911.78995530042835
 20
-308.28697003948764
 30
0.0
 11
912.44229921577244
 21
-307.33395315186135
 31
0.0
  0
LINE
  5
55
100
AcDbEntity
  8
____1
370
               5
390
0
  6
Continuous
 62
               7
100
AcDbLine
 10
919.54262688266738
 20
-297.46209152537165
 30
0.0
 11
975.54262688266738
 21
-297.46209152537165
 31
0.0
  0
MTEXT
  5
56
100
AcDbEntity
  8
____1
370
               5
390
0
  6
Continuous
 62
               7
100
AcDbMText
 10
920.43312633637561
 20
-306.65059180021842
 30
0.0
 40
2.75
 41
6.0
 71
               1
 72
               1
  1
図番
  7
Style1
 73
               1
 44
1.0
  0
MTEXT
  5
57
100
AcDbEntity
  8
____1
370
               5
390
0
  6
Continuous
 62
               7
100
AcDbMText
 10
920.43312633637561
 20
-298.15059180021842
 30
0.0
 40
2.75
 41
6.0
 71
               1
 72
               1
  1
品名
  7
Style1
 73
               1
 44
1.0
  0
MTEXT
  5
58
100
AcDbEntity
  8
____1
370
               5
390
0
  6
Continuous
 62
               7
100
AcDbMText
 10
920.43312633637561
 20
-289.65059180021842
 30
0.0
 40
2.75
 41
6.0
 71
               1
 72
               1
  1
型番
  7
Style1
 73
               1
 44
1.0
  0
MTEXT
  5
59
100
AcDbEntity
  8
____1
370
               5
390
0
  6
Continuous
 62
               7
100
AcDbMText
 10
888.67559847183475
 20
-135.98148378455215
 30
0.0
 40
2.9266439437866216
 41
3.1654860495798762
 71
               1
 72
               1
  1
2
  7
Style1
 73
               1
 44
1.0
  0
LINE
  5
5A
100
AcDbEntity
  8
____1
370
              18
390
0
  6
Continuous
 62
               5
100
AcDbLine
 10
895.54262688266726
 20
-139.4620915253717
 30
0.0
 11
895.54262688266726
 21
-124.4620915253717
 31
0.0
  0
LINE
  5
5B
100
AcDbEntity
  8
____1
370
              18
390
0
  6
Continuous
 62
               5
100
AcDbLine
 10
885.54262688266726
 20
-139.4620915253717
 30
0.0
 11
885.54262688266726
 21
-124.4620915253717
 31
0.0
  0
LINE
  5
5C
100
AcDbEntity
  8
____1
370
              18
390
0
  6
Continuous
 62
               5
100
AcDbLine
 10
890.25834149662455
 20
-124.79447402563555
 30
0.0
 11
887.78334149662464
 21
-129.08129977436846
 31
0.0
  0
LINE
  5
5D
100
AcDbEntity
  8
____1
370
              18
390
0
  6
Continuous
 62
               5
100
AcDbLine
 10
890.25834149662455
 20
-124.79447402563555
 30
0.0
 11
892.73334149662469
 21
-129.08129977436846
 31
0.0
  0
LINE
  5
5E
100
AcDbEntity
  8
____1
370
              18
390
0
  6
Continuous
 62
               5
100
AcDbLine
 10
887.78334149662464
 20
-129.08129977436846
 30
0.0
 11
892.73334149662469
 21
-129.08129977436846
 31
0.0
  0
INSERT
  5
66
100
AcDbEntity
  8
____1
370
               5
390
0
  6
Continuous
 62
             254
100
AcDbBlockReference
  2
C1
 10
0.0
 20
0.0
 30
0.0
  0
DIMENSION
  5
76
100
AcDbEntity
  8
寸法線_1
370
               5
390
0
  6
Continuous
 62
               7
100
AcDbDimension
  2
*D2
 10
946.15305275857918
 20
-192.2859733568099
 30
0.0
 11
946.15305275857918
 21
-186.03597335680985
 31
0.0
 71
               5
 72
               1
 41
1.0
 42
0.0
  3
DS1
100
AcDbAlignedDimension
 13
936.15305275857918
 23
-179.78597335680985
 33
0.0
 14
936.15305275857918
 24
-192.2859733568099
 34
0.0
 50
90.0
100
AcDbRotatedDimension
  0
LINE
  5
78
100
AcDbEntity
  8
____1
370
               5
390
0
  6
CENTER2
 62
               3
100
AcDbLine
 10
924.90305275857918
 20
-176.78597335680996
 30
0.0
 11
924.90305275857918
 21
-195.2859733568099
 31
0.0
  0
CIRCLE
  5
79
100
AcDbEntity
  8
____1
370
              18
390
0
  6
Continuous
 62
               5
100
AcDbCircle
 10
924.90305275857918
 20
-186.03597335680985
 30
0.0
 40
3.0000000000000244
  0
LINE
  5
7A
100
AcDbEntity
  8
____1
370
              18
390
0
  6
Continuous
 62
               5
100
AcDbLine
 10
913.65305275857918
 20
-192.2859733568099
 30
0.0
 11
913.65305275857918
 21
-179.78597335680985
 31
0.0
  0
CIRCLE
  5
7B
100
AcDbEntity
  8
____1
370
              18
390
0
  6
Continuous
 62
               5
100
AcDbCircle
 10
924.90305275857918
 20
-186.03597335680985
 30
0.0
 40
2.000000000000016
  0
LINE
  5
7C
100
AcDbEntity
  8
____1
370
              18
390
0
  6
Continuous
 62
               5
100
AcDbLine
 10
913.65305275857918
 20
-179.78597335680985
 30
0.0
 11
936.15305275857918
 21
-179.78597335680985
 31
0.0
  0
MTEXT
  5
7D
100
AcDbEntity
  8
____1
370
               5
390
0
  6
Continuous
 62
               7
100
AcDbMText
 10
954.40305275857918
 20
-182.24814448138335
 30
0.0
 40
3.5277776718139648
 41
12.0
 71
               1
 72
               1
  1
ｔ1.5
  7
Style1
 73
               1
 44
1.0
  0
LINE
  5
7E
100
AcDbEntity
  8
____1
370
              18
390
0
  6
Continuous
 62
               5
100
AcDbLine
 10
914.65305275857918
 20
-179.78597335680985
 30
0.0
 11
913.65305275857918
 21
-180.78597335680996
 31
0.0
  0
LINE
  5
7F
100
AcDbEntity
  8
____1
370
              18
390
0
  6
Continuous
 62
               5
100
AcDbLine
 10
935.15305275857918
 20
-192.2859733568099
 30
0.0
 11
936.15305275857918
 21
-191.2859733568099
 31
0.0
  0
LINE
  5
80
100
AcDbEntity
  8
____1
370
              18
390
0
  6
Continuous
 62
               5
100
AcDbLine
 10
868.98544328576975
 20
-233.40876656296876
 30
0.0
 11
870.98544328576963
 21
-233.40876656296876
 31
0.0
  0
LINE
  5
81
100
AcDbEntity
  8
____1
370
              18
390
0
  6
Continuous
 62
               5
100
AcDbLine
 10
868.98544328576963
 20
-228.70876656296872
 30
0.0
 11
870.98544328576963
 21
-228.70876656296872
 31
0.0
  0
LINE
  5
82
100
AcDbEntity
  8
____1
370
              18
390
0
  6
Continuous
 62
               5
100
AcDbLine
 10
868.98544328576975
 20
-228.70876656296872
 30
0.0
 11
868.98544328576975
 21
-230.50876656296873
 31
0.0
  0
LINE
  5
83
100
AcDbEntity
  8
____1
370
              18
390
0
  6
Continuous
 62
               5
100
AcDbLine
 10
868.98544328576975
 20
-230.50876656296873
 30
0.0
 11
870.98544328576963
 21
-230.50876656296873
 31
0.0
  0
LINE
  5
84
100
AcDbEntity
  8
____1
370
              18
390
0
  6
Continuous
 62
               5
100
AcDbLine
 10
871.98544328576963
 20
-227.50876656296873
 30
0.0
 11
888.98544328576963
 21
-227.50876656296873
 31
0.0
  0
ARC
  5
85
100
AcDbEntity
  8
____1
370
              18
390
0
  6
Continuous
 62
               5
100
AcDbCircle
 10
871.98544328576963
 20
-238.00876656296873
 30
0.0
 40
1.0
100
AcDbArc
 50
90.0
 51
180.0
  0
LINE
  5
86
100
AcDbEntity
  8
____1
370
              18
390
0
  6
Continuous
 62
               5
100
AcDbLine
 10
871.98544328576963
 20
-237.00876656296873
 30
0.0
 11
888.98544328576963
 21
-237.00876656296873
 31
0.0
  0
ARC
  5
87
100
AcDbEntity
  8
____1
370
              18
390
0
  6
Continuous
 62
               5
100
AcDbCircle
 10
888.98544328576963
 20
-238.00876656296873
 30
0.0
 40
1.0
210
0.0
220
0.0
230
1.0
100
AcDbArc
 50
0.0
 51
90.0
  0
ARC
  5
88
100
AcDbEntity
  8
____1
370
              18
390
0
  6
Continuous
 62
               5
100
AcDbCircle
 10
888.98544328576963
 20
-228.50876656296873
 30
0.0
 40
1.0
210
0.0
220
0.0
230
1.0
100
AcDbArc
 50
0.000012258802647
 51
90.0
  0
ARC
  5
89
100
AcDbEntity
  8
____1
370
              18
390
0
  6
Continuous
 62
               5
100
AcDbCircle
 10
871.98544328576963
 20
-228.50876656296873
 30
0.0
 40
1.0
100
AcDbArc
 50
90.0
 51
179.99998805735325
  0
LINE
  5
8A
100
AcDbEntity
  8
____1
370
              18
390
0
  6
Continuous
 62
               5
100
AcDbLine
 10
868.98544328576963
 20
-235.20876656296878
 30
0.0
 11
870.98544328576963
 21
-235.20876656296878
 31
0.0
  0
LINE
  5
8B
100
AcDbEntity
  8
____1
370
              18
390
0
  6
Continuous
 62
               5
100
AcDbLine
 10
869.48544328576975
 20
-230.50876656296873
 30
0.0
 11
869.48544328576975
 21
-233.40876656296876
 31
0.0
  0
DIMENSION
  5
98
100
AcDbEntity
  8
寸法線_1
370
               5
390
0
  6
Continuous
 62
               7
100
AcDbDimension
  2
*D3
 10
883.65660789537628
 20
-255.61807243808073
 30
0.0
 11
866.52804108123405
 21
-255.61807243808073
 31
0.0
 71
               5
 72
               1
 41
1.0
 42
0.0
  3
DS1
100
AcDbAlignedDimension
 13
877.31427867616298
 23
-247.50876656296873
 33
0.0
 14
883.65660789537628
 24
-247.50876656296873
 34
0.0
100
AcDbRotatedDimension
  0
MTEXT
  5
99
100
AcDbEntity
  8
____1
370
               5
390
0
  6
Continuous
 62
               7
100
AcDbMText
 10
915.81626496794047
 20
-282.77357064073362
 30
0.0
 40
4.2333331108093262
 41
50.0
 71
               1
 72
               1
  1
受板ビス：2.4x13
  7
Style1
 73
               1
 44
1.0
  0
MTEXT
  5
9A
100
AcDbEntity
  8
____1
370
               5
390
0
  6
Continuous
 62
               7
100
AcDbMText
 10
930.40744793833585
 20
-298.17844639660711
 30
0.0
 40
3.5277776718139648
 41
43.655084411985797
 71
               1
 72
               1
  1
打ち込み式\Pマグネットチャッチ(角型 )
  7
Style1
 11
0.9999999999999999
 21
0.0
 31
0.0
 73
               1
 44
1.0
  0
MTEXT
  5
9B
100
AcDbEntity
  8
____1
370
               5
390
0
  6
Continuous
 62
               7
100
AcDbMText
 10
940.29465669163687
 20
-290.97613282110422
 30
0.0
 40
4.2333331108093262
 41
14.5
 71
               1
 72
               1
  1
３０Ｗ
  7
Style1
 73
               1
 44
1.0
  0
LINE
  5
9C
100
AcDbEntity
  8
____1
370
              18
390
0
  6
Continuous
 62
               5
100
AcDbLine
 10
911.90707070060762
 20
-308.69395315186136
 30
0.0
 11
911.78995530042835
 21
-308.28697003948764
 31
0.0
  0
LINE
  5
9D
100
AcDbEntity
  8
____1
370
              18
390
0
  6
Continuous
 62
               5
100
AcDbLine
 10
910.25136588243913
 20
-310.77395315186141
 30
0.0
 11
910.06363254910571
 21
-310.13395315186142
 31
0.0
  0
LINE
  5
9E
100
AcDbEntity
  8
____1
370
              18
390
0
  6
Continuous
 62
               5
100
AcDbLine
 10
912.32145196393458
 20
-310.13395315186142
 30
0.0
 11
914.8422992157723
 21
-310.13395315186142
 31
0.0
  0
LINE
  5
9F
100
AcDbEntity
  8
____1
370
               5
390
0
  6
Continuous
 62
               7
100
AcDbLine
 10
919.54262688266738
 20
-288.96209152537165
 30
0.0
 11
919.54262688266738
 21
-314.46209152537165
 31
0.0
  0
LINE
  5
A0
100
AcDbEntity
  8
____1
370
              18
390
0
  6
Continuous
 62
               5
100
AcDbLine
 10
911.90707070060762
 20
-308.69395315186148
 30
0.0
 11
914.8422992157723
 21
-308.69395315186148
 31
0.0
  0
LINE
  5
A1
100
AcDbEntity
  8
____1
370
              18
390
0
  6
Continuous
 62
               5
100
AcDbLine
 10
913.24229921577239
 20
-313.33395315186135
 30
0.0
 11
912.9200026776291
 21
-312.21395315186146
 31
0.0
  0
LINE
  5
A2
100
AcDbEntity
  8
____1
370
              18
390
0
  6
Continuous
 62
               5
100
AcDbLine
 10
912.50562141430214
 20
-310.77395315186141
 30
0.0
 11
914.8422992157723
 21
-310.77395315186141
 31
0.0
  0
LINE
  5
A3
100
AcDbEntity
  8
____1
370
              18
390
0
  6
Continuous
 62
               5
100
AcDbLine
 10
911.00229921577238
 20
-313.33395315186135
 30
0.0
 11
913.24229921577239
 21
-313.33395315186135
 31
0.0
  0
LINE
  5
A4
100
AcDbEntity
  8
____1
370
              18
390
0
  6
Continuous
 62
               5
100
AcDbLine
 10
914.8422992157723
 20
-310.77395315186141
 30
0.0
 11
914.8422992157723
 21
-312.21395315186146
 31
0.0
  0
LINE
  5
A5
100
AcDbEntity
  8
____1
370
              18
390
0
  6
Continuous
 62
               5
100
AcDbLine
 10
901.86831309714557
 20
-309.19164136584641
 30
0.0
 11
901.41576475718603
 21
-309.64418970580584
 31
0.0
  0
LINE
  5
A6
100
AcDbEntity
  8
____1
370
              18
390
0
  6
Continuous
 62
               5
100
AcDbLine
 10
898.66831309714553
 20
-309.44932957983156
 30
0.0
 11
898.66831309714553
 21
-309.19164136584641
 31
0.0
  0
LINE
  5
A7
100
AcDbEntity
  8
____1
370
              18
390
0
  6
Continuous
 62
               5
100
AcDbLine
 10
888.81894519941829
 20
-308.93395315186137
 30
0.0
 11
888.81894519941829
 21
-310.13395315186142
 31
0.0
  0
SPLINE
  5
A8
100
AcDbEntity
  8
____1
370
              18
390
0
  6
Continuous
 62
               5
100
AcDbSpline
210
0.0
220
0.0
230
1.0
 70
               0
 71
               3
 72
               8
 73
               4
 74
               0
 42
0.0000001
 43
0.0000001
 12
0.6676726695721045
 22
-0.7444549726521138
 32
0.0
 13
0.741315969719885
 23
-0.6711561912388697
 33
0.0
 40
0.0
 40
0.0
 40
0.0
 40
0.0
 40
1.0
 40
1.0
 40
1.0
 40
1.0
 10
901.41576475718603
 20
-309.64418970580584
 30
0.0
 10
901.6392626990372
 20
-309.89338989292037
 30
0.0
 10
901.86276064088838
 20
-310.14259008003478
 30
0.0
 10
902.10488644544137
 20
-310.36180056439252
 30
0.0
  0
SPLINE
  5
A9
100
AcDbEntity
  8
____1
370
              18
390
0
  6
Continuous
 62
               5
100
AcDbSpline
210
0.0
220
0.0
230
1.0
 70
               0
 71
               3
 72
               8
 73
               4
 74
               0
 42
0.0000001
 43
0.0000001
 12
0.9618578240638548
 22
-0.2735498606966318
 32
0.0
 13
0.9860364361537934
 23
-0.1665297167989134
 33
0.0
 40
0.0
 40
0.0
 40
0.0
 40
0.0
 40
1.0
 40
1.0
 40
1.0
 40
1.0
 10
904.0160069309818
 20
-311.35276063439187
 30
0.0
 10
904.60782233380542
 20
-311.5210713939972
 30
0.0
 10
905.23806771547538
 20
-311.62751227292927
 30
0.0
 10
905.86831309714557
 20
-311.73395315186144
 30
0.0
  0
SPLINE
  5
AA
100
AcDbEntity
  8
____1
370
              18
390
0
  6
Continuous
 62
               5
100
AcDbSpline
210
0.0
220
0.0
230
1.0
 70
               0
 71
               3
 72
               9
 73
               5
 74
               0
 42
0.0000001
 43
0.0000001
 12
0.7352773642103068
 22
-0.6777663297036403
 32
0.0
 13
0.8573032032596281
 23
-0.5148118274484193
 33
0.0
 40
0.0
 40
0.0
 40
0.0
 40
0.0
 40
0.9999999993702069
 40
1.0
 40
1.0
 40
1.0
 40
1.0
 10
898.66831309714553
 20
-309.44932957983156
 30
0.0
 10
899.4319967798391
 20
-310.15328037699737
 30
0.0
 10
900.19568046301356
 20
-310.85723117460645
 30
0.0
 10
901.05952946426396
 20
-311.3759709961555
 30
0.0
 10
901.05952946480807
 20
-311.37597099648224
 30
0.0
  0
SPLINE
  5
AB
100
AcDbEntity
  8
____1
370
              18
390
0
  6
Continuous
 62
               5
100
AcDbSpline
210
0.0
220
0.0
230
1.0
 70
               0
 71
               3
 72
               8
 73
               4
 74
               0
 42
0.0000001
 43
0.0000001
 12
0.9524773181045301
 22
-0.3046095180660017
 32
0.0
 13
0.9790669434801788
 23
-0.2035384980400032
 33
0.0
 40
0.0
 40
0.0
 40
0.0
 40
0.0
 40
1.0
 40
1.0
 40
1.0
 40
1.0
 10
903.03534253242583
 20
-312.24301929477622
 30
0.0
 10
903.94661156134543
 20
-312.53445008735412
 30
0.0
 10
904.90746232924539
 20
-312.7342016196078
 30
0.0
 10
905.86831309714557
 20
-312.93395315186137
 30
0.0
  0
LINE
  5
AC
100
AcDbEntity
  8
____1
370
               5
390
0
  6
CENTER2
 62
               3
100
AcDbLine
 10
880.48544328576963
 20
-251.00876656296873
 30
0.0
 11
880.48544328576963
 21
-224.50876656296833
 31
0.0
  0
ARC
  5
AD
100
AcDbEntity
  8
____1
370
              18
390
0
  6
Continuous
 62
               5
100
AcDbCircle
 10
875.61044328576963
 20
-246.00876656296873
 30
0.0
 40
2.125
210
0.0
220
0.0
230
1.0
100
AcDbArc
 50
-28.072486935852957
 51
28.072486935852957
  0
ARC
  5
AE
100
AcDbEntity
  8
____1
370
              18
390
0
  6
Continuous
 62
               5
100
AcDbCircle
 10
879.36044328577327
 20
-240.00876656296779
 30
0.0
 40
2.125000000003638
100
AcDbArc
 50
-179.9999999999747
 51
-151.92751306417091
  0
ARC
  5
AF
100
AcDbEntity
  8
____1
370
              18
390
0
  6
Continuous
 62
               5
100
AcDbCircle
 10
881.61044328577304
 20
-240.00876656296961
 30
0.0
 40
2.1249999999965894
210
0.0
220
0.0
230
1.0
100
AcDbArc
 50
-28.072486935875272
 51
0.0000000000237561
  0
LINE
  5
B0
100
AcDbEntity
  8
____1
370
              18
390
0
  6
Continuous
 62
               5
100
AcDbLine
 10
870.98544328576963
 20
-240.00876656296873
 30
0.0
 11
889.98544328576963
 21
-240.00876656296873
 31
0.0
  0
LINE
  5
B1
100
AcDbEntity
  8
____1
370
              18
390
0
  6
Continuous
 62
               5
100
AcDbLine
 10
889.98544328576963
 20
-228.50876634901226
 30
0.0
 11
889.98544328576963
 21
-240.00876656296873
 31
0.0
  0
LINE
  5
B2
100
AcDbEntity
  8
____1
370
              18
390
0
  6
Continuous
 62
               5
100
AcDbLine
 10
870.98544328576963
 20
-228.50876635453022
 30
0.0
 11
870.98544328576963
 21
-240.00876656296873
 31
0.0
  0
ARC
  5
B3
100
AcDbEntity
  8
____1
370
              18
390
0
  6
Continuous
 62
               5
100
AcDbCircle
 10
875.61044328576963
 20
-242.00876656296873
 30
0.0
 40
2.125
100
AcDbArc
 50
-28.072486935852957
 51
28.072486935852957
  0
ARC
  5
B4
100
AcDbEntity
  8
____1
370
              18
390
0
  6
Continuous
 62
               5
100
AcDbCircle
 10
885.36044328576963
 20
-242.00876656296873
 30
0.0
 40
2.125
210
0.0
220
0.0
230
1.0
100
AcDbArc
 50
151.92751306414706
 51
-151.92751306414706
  0
ARC
  5
B5
100
AcDbEntity
  8
____1
370
              18
390
0
  6
Continuous
 62
               5
100
AcDbCircle
 10
879.36044328577009
 20
-248.00876656296839
 30
0.0
 40
2.1250000000002371
210
0.0
220
0.0
230
0.9999999999999999
100
AcDbArc
 50
151.92751306416093
 51
162.07978686062006
  0
ARC
  5
B6
100
AcDbEntity
  8
____1
370
              18
390
0
  6
Continuous
 62
               5
100
AcDbCircle
 10
881.61044328576793
 20
-248.00876656297021
 30
0.0
 40
2.1250000000022027
100
AcDbArc
 50
17.92021313941434
 51
28.072486935866479
  0
ARC
  5
B7
100
AcDbEntity
  8
____1
370
              18
390
0
  6
Continuous
 62
               5
100
AcDbCircle
 10
883.15660789537628
 20
-247.50876656296873
 30
0.0
 40
0.5000000000001007
210
0.0
220
0.0
230
1.0
100
AcDbArc
 50
-90.0
 51
17.920213139385922
  0
LINE
  5
B8
100
AcDbEntity
  8
____1
370
              18
390
0
  6
Continuous
 62
               5
100
AcDbLine
 10
877.8142786761631
 20
-248.00876656296873
 30
0.0
 11
883.15660789537628
 21
-248.00876656296873
 31
0.0
  0
ARC
  5
B9
100
AcDbEntity
  8
____1
370
              18
390
0
  6
Continuous
 62
               5
100
AcDbCircle
 10
877.8142786761631
 20
-247.50876656296873
 30
0.0
 40
0.4999999999999926
100
AcDbArc
 50
162.07978686061008
 51
-90.0
  0
ARC
  5
BA
100
AcDbEntity
  8
____1
370
              18
390
0
  6
Continuous
 62
               5
100
AcDbCircle
 10
885.36044328576963
 20
-246.00876656296873
 30
0.0
 40
2.125
100
AcDbArc
 50
151.92751306414706
 51
-151.92751306414706
  0
ARC
  5
BB
100
AcDbEntity
  8
____1
370
              18
390
0
  6
Continuous
 62
               5
100
AcDbCircle
 10
879.36044328576963
 20
-244.00876656296873
 30
0.0
 40
2.125
100
AcDbArc
 50
151.92751306414706
 51
-151.92751306414706
  0
ARC
  5
BC
100
AcDbEntity
  8
____1
370
              18
390
0
  6
Continuous
 62
               5
100
AcDbCircle
 10
881.61044328576963
 20
-244.00876656296873
 30
0.0
 40
2.125
210
0.0
220
0.0
230
1.0
100
AcDbArc
 50
-28.072486935852957
 51
28.072486935852957
  0
LINE
  5
BD
100
AcDbEntity
  8
____1
370
              18
390
0
  6
Continuous
 62
               5
100
AcDbLine
 10
868.98544328576975
 20
-235.20876656296878
 30
0.0
 11
868.98544328576975
 21
-233.40876656296876
 31
0.0
  0
LINE
  5
BE
100
AcDbEntity
  8
____1
370
              18
390
0
  6
Continuous
 62
               5
100
AcDbLine
 10
889.73982824866084
 20
-311.73395315186144
 30
0.0
 11
889.73982824866084
 21
-312.93395315186137
 31
0.0
  0
LINE
  5
BF
100
AcDbEntity
  8
____1
370
              18
390
0
  6
Continuous
 62
               5
100
AcDbLine
 10
892.13982824866071
 20
-311.73395315186144
 30
0.0
 11
889.73982824866084
 21
-311.73395315186144
 31
0.0
  0
LINE
  5
C0
100
AcDbEntity
  8
____1
370
              18
390
0
  6
Continuous
 62
               5
100
AcDbLine
 10
898.66831309714553
 20
-308.77395315186141
 30
0.0
 11
902.66831309714553
 21
-308.77395315186141
 31
0.0
  0
LINE
  5
C1
100
AcDbEntity
  8
____1
370
              18
390
0
  6
Continuous
 62
               5
100
AcDbLine
 10
891.73982824866084
 20
-311.33395315186135
 30
0.0
 11
891.73982824866084
 21
-310.13395315186142
 31
0.0
  0
LINE
  5
C2
100
AcDbEntity
  8
____1
370
              18
390
0
  6
Continuous
 62
               5
100
AcDbLine
 10
896.5398282486608
 20
-307.33395315186135
 30
0.0
 11
893.33982824866075
 21
-307.33395315186135
 31
0.0
  0
LINE
  5
C3
100
AcDbEntity
  8
____1
370
              18
390
0
  6
Continuous
 62
               5
100
AcDbLine
 10
898.66831309714553
 20
-307.33395315186135
 30
0.0
 11
898.66831309714553
 21
-308.77395315186141
 31
0.0
  0
ARC
  5
C4
100
AcDbEntity
  8
____1
370
              18
390
0
  6
Continuous
 62
               5
100
AcDbCircle
 10
892.93982824866077
 20
-310.5339531518614
 30
0.0
 40
2.3999999999999773
210
0.0
220
0.0
230
1.0
100
AcDbArc
 50
-90.0
 51
0.0
  0
LINE
  5
C5
100
AcDbEntity
  8
____1
370
              18
390
0
  6
Continuous
 62
               5
100
AcDbLine
 10
893.33982824866075
 20
-308.93395315186137
 30
0.0
 11
891.73982824866084
 21
-308.93395315186137
 31
0.0
  0
LINE
  5
C6
100
AcDbEntity
  8
____1
370
              18
390
0
  6
Continuous
 62
               5
100
AcDbLine
 10
892.93982824866077
 20
-307.33395315186135
 30
0.0
 11
889.73982824866084
 21
-307.33395315186135
 31
0.0
  0
LINE
  5
C7
100
AcDbEntity
  8
____1
370
              18
390
0
  6
Continuous
 62
               5
100
AcDbLine
 10
891.73982824866084
 20
-308.5339531518614
 30
0.0
 11
892.93982824866077
 21
-307.33395315186135
 31
0.0
  0
LINE
  5
C8
100
AcDbEntity
  8
____1
370
               5
390
0
  6
Continuous
 62
               7
100
AcDbLine
 10
855.54262688266738
 20
-297.46209152537165
 30
0.0
 11
903.54262688266738
 21
-297.46209152537165
 31
0.0
  0
MTEXT
  5
C9
100
AcDbEntity
  8
____1
370
               5
390
0
  6
Continuous
 62
               7
100
AcDbMText
 10
888.00801269394435
 20
-298.16762493272847
 30
0.0
 40
2.75
 41
15.0
 71
               1
 72
               1
  1
　尺 　度
  7
Style1
 73
               1
 44
1.0
  0
MTEXT
  5
CA
100
AcDbEntity
  8
____1
370
               5
390
0
  6
Continuous
 62
               7
100
AcDbMText
 10
888.00801269394435
 20
-289.66762493272847
 30
0.0
 40
2.75
 41
15.0
 71
               1
 72
               1
  1
　板 　厚
  7
Style1
 73
               1
 44
1.0
  0
MTEXT
  5
CB
100
AcDbEntity
  8
____1
370
               5
390
0
  6
Continuous
 62
               7
100
AcDbMText
 10
872.00801269394435
 20
-289.66762493272847
 30
0.0
 40
2.75
 41
15.0
 71
               1
 72
               1
  1
　材 　質
  7
Style1
 73
               1
 44
1.0
  0
MTEXT
  5
CC
100
AcDbEntity
  8
____1
370
              18
390
0
  6
Continuous
 62
               5
100
AcDbMText
 10
887.54262688266738
 20
-302.41762493272847
 30
0.0
 40
2.75
 41
16.0
 71
               1
 72
               1
  1
1：1
  7
Style1
 73
               1
 44
1.0
  0
MTEXT
  5
CD
100
AcDbEntity
  8
____1
370
              18
390
0
  6
Continuous
 62
               5
100
AcDbMText
 10
855.54262688266738
 20
-293.91762493272847
 30
0.0
 40
2.75
 41
16.0
 71
               1
 72
               1
  1
H16.4
  7
Style1
 73
               1
 44
1.0
  0
MTEXT
  5
CE
100
AcDbEntity
  8
____1
370
               5
390
0
  6
Continuous
 62
               7
100
AcDbMText
 10
856.00801269394435
 20
-289.66762493272847
 30
0.0
 40
2.75
 41
15.0
 71
               1
 72
               1
  1
　日 　付
  7
Style1
 73
               1
 44
1.0
  0
MTEXT
  5
CF
100
AcDbEntity
  8
____1
370
               5
390
0
  6
Continuous
 62
               7
100
AcDbMText
 10
855.54262688266738
 20
-302.41762493272847
 30
0.0
 40
2.75
 41
32.0
 71
               1
 72
               1
  1
 製図　　  岸本
  7
Style1
 73
               1
 44
1.0
  0
MTEXT
  5
D0
100
AcDbEntity
  8
____1
370
               5
390
0
  6
Continuous
 62
               7
100
AcDbMText
 10
855.54262688266738
 20
-298.16762493272847
 30
0.0
 40
2.75
 41
32.0
 71
               1
 72
               1
  1
 設計　　 白須賀
  7
Style1
 73
               1
 44
1.0
  0
LINE
  5
D1
100
AcDbEntity
  8
____1
370
               5
390
0
  6
Continuous
 62
               7
100
AcDbLine
 10
889.54262688266726
 20
-301.71209152537165
 30
0.0
 11
901.54262688266738
 21
-301.71209152537165
 31
0.0
  0
LINE
  5
D2
100
AcDbEntity
  8
____1
370
               5
390
0
  6
Continuous
 62
               7
100
AcDbLine
 10
889.54262688266726
 20
-293.21209152537165
 30
0.0
 11
901.54262688266738
 21
-293.21209152537165
 31
0.0
  0
LINE
  5
D3
100
AcDbEntity
  8
____1
370
               5
390
0
  6
Continuous
 62
               7
100
AcDbLine
 10
857.54262688266738
 20
-301.71209152537165
 30
0.0
 11
885.54262688266738
 21
-301.71209152537165
 31
0.0
  0
LINE
  5
D4
100
AcDbEntity
  8
____1
370
               5
390
0
  6
Continuous
 62
               7
100
AcDbLine
 10
873.54262688266761
 20
-293.21209152537165
 30
0.0
 11
885.54262688266749
 21
-293.21209152537165
 31
0.0
  0
LINE
  5
D5
100
AcDbEntity
  8
____1
370
               5
390
0
  6
Continuous
 62
               7
100
AcDbLine
 10
857.54262688266738
 20
-293.21209152537165
 30
0.0
 11
869.54262688266738
 21
-293.21209152537165
 31
0.0
  0
LINE
  5
D6
100
AcDbEntity
  8
____1
370
               5
390
0
  6
Continuous
 62
               7
100
AcDbLine
 10
887.54262688266738
 20
-288.96209152537165
 30
0.0
 11
887.54262688266738
 21
-305.96209152537165
 31
0.0
  0
LINE
  5
D7
100
AcDbEntity
  8
____1
370
               5
390
0
  6
Continuous
 62
               7
100
AcDbLine
 10
855.54262688266738
 20
-288.96209152537165
 30
0.0
 11
855.54262688266738
 21
-314.46209152537165
 31
0.0
  0
LINE
  5
D8
100
AcDbEntity
  8
____1
370
              18
390
0
  6
Continuous
 62
               5
100
AcDbLine
 10
889.73982824866084
 20
-307.33395315186135
 30
0.0
 11
889.73982824866084
 21
-308.93395315186137
 31
0.0
  0
MTEXT
  5
D9
100
AcDbEntity
  8
____1
370
               5
390
0
  6
Continuous
 62
               7
100
AcDbMText
 10
862.76318060745007
 20
-307.65542485870498
 30
0.0
 40
5.0799999237060547
 41
24.996311053240746
 71
               1
 72
               1
  1
株式会社
  7
Style1
 73
               1
 44
1.0
  0
LINE
  5
DA
100
AcDbEntity
  8
____1
370
              18
390
0
  6
Continuous
 62
               5
100
AcDbLine
 10
889.73982824866084
 20
-310.13395315186142
 30
0.0
 11
889.73982824866084
 21
-311.33395315186135
 31
0.0
  0
LINE
  5
DB
100
AcDbEntity
  8
____1
370
              18
390
0
  6
Continuous
 62
               5
100
AcDbLine
 10
904.15848857881565
 20
-311.21325811904035
 30
0.0
 11
904.0160069309818
 21
-311.35276063439187
 31
0.0
  0
ARC
  5
DC
100
AcDbEntity
  8
____1
370
              18
390
0
  6
Continuous
 62
               5
100
AcDbCircle
 10
899.62831309714556
 20
-308.69395315186148
 30
0.0
 40
3.0399999999998291
210
0.0
220
0.0
230
1.0
100
AcDbArc
 50
-90.0
 51
-61.914095184793482
  0
LINE
  5
DD
100
AcDbEntity
  8
____1
370
              18
390
0
  6
Continuous
 62
               5
100
AcDbLine
 10
898.66831309714553
 20
-311.73395315186144
 30
0.0
 11
898.66831309714553
 21
-312.93395315186137
 31
0.0
  0
LINE
  5
DE
100
AcDbEntity
  8
____1
370
              18
390
0
  6
Continuous
 62
               5
100
AcDbLine
 10
898.66831309714553
 20
-311.73395315186144
 30
0.0
 11
899.62831309714556
 21
-311.73395315186144
 31
0.0
  0
LINE
  5
DF
100
AcDbEntity
  8
____1
370
              18
390
0
  6
Continuous
 62
               5
100
AcDbLine
 10
905.06831309714551
 20
-308.5339531518614
 30
0.0
 11
905.86831309714557
 21
-307.33395315186135
 31
0.0
  0
LINE
  5
E0
100
AcDbEntity
  8
____1
370
              18
390
0
  6
Continuous
 62
               5
100
AcDbLine
 10
889.73982824866084
 20
-312.93395315186137
 30
0.0
 11
892.93982824866077
 21
-312.93395315186137
 31
0.0
  0
LINE
  5
E1
100
AcDbEntity
  8
____1
370
              18
390
0
  6
Continuous
 62
               5
100
AcDbLine
 10
898.66831309714553
 20
-312.93395315186137
 30
0.0
 11
900.66831309714553
 21
-312.93395315186137
 31
0.0
  0
ARC
  5
E2
100
AcDbEntity
  8
____1
370
              18
390
0
  6
Continuous
 62
               5
100
AcDbCircle
 10
899.62831309714556
 20
-308.69395315186148
 30
0.0
 40
3.0399999999999783
210
0.0
220
0.0
230
1.0
100
AcDbArc
 50
-28.600718616740252
 51
-1.5079577542374585
  0
LINE
  5
E3
100
AcDbEntity
  8
____1
370
              18
390
0
  6
Continuous
 62
               5
100
AcDbLine
 10
895.33982824866075
 20
-310.13395315186142
 30
0.0
 11
896.5398282486608
 21
-310.13395315186142
 31
0.0
  0
ARC
  5
E4
100
AcDbEntity
  8
____1
370
              18
390
0
  6
Continuous
 62
               5
100
AcDbCircle
 10
900.66831309714553
 20
-308.5339531518614
 30
0.0
 40
4.4000000000000465
210
0.0
220
0.0
230
1.0
100
AcDbArc
 50
-90.0
 51
-57.455041145955242
  0
LINE
  5
E5
100
AcDbEntity
  8
____1
370
              18
390
0
  6
Continuous
 62
               5
100
AcDbLine
 10
888.81894519941829
 20
-310.13395315186142
 30
0.0
 11
889.61894519941825
 21
-310.13395315186142
 31
0.0
  0
LINE
  5
E6
100
AcDbEntity
  8
____1
370
              18
390
0
  6
Continuous
 62
               5
100
AcDbLine
 10
896.5398282486608
 20
-308.93395315186137
 30
0.0
 11
895.33982824866075
 21
-308.93395315186137
 31
0.0
  0
LINE
  5
E7
100
AcDbEntity
  8
____1
370
              18
390
0
  6
Continuous
 62
               5
100
AcDbLine
 10
895.33982824866075
 20
-308.93395315186137
 30
0.0
 11
895.33982824866075
 21
-308.5339531518614
 31
0.0
  0
LINE
  5
E8
100
AcDbEntity
  8
____1
370
              18
390
0
  6
Continuous
 62
               5
100
AcDbLine
 10
893.33982824866075
 20
-310.13395315186142
 30
0.0
 11
893.33982824866075
 21
-310.5339531518614
 31
0.0
  0
LINE
  5
E9
100
AcDbEntity
  8
____1
370
              18
390
0
  6
Continuous
 62
               5
100
AcDbLine
 10
891.73982824866084
 20
-310.13395315186142
 30
0.0
 11
893.33982824866075
 21
-310.13395315186142
 31
0.0
  0
LINE
  5
EA
100
AcDbEntity
  8
____1
370
              18
390
0
  6
Continuous
 62
               5
100
AcDbLine
 10
896.5398282486608
 20
-308.93395315186137
 30
0.0
 11
896.5398282486608
 21
-310.13395315186142
 31
0.0
  0
LINE
  5
EB
100
AcDbEntity
  8
____1
370
              18
390
0
  6
Continuous
 62
               5
100
AcDbLine
 10
891.73982824866084
 20
-308.93395315186137
 30
0.0
 11
891.73982824866084
 21
-308.5339531518614
 31
0.0
  0
LINE
  5
EC
100
AcDbEntity
  8
____1
370
              18
390
0
  6
Continuous
 62
               5
100
AcDbLine
 10
898.66831309714553
 20
-312.93395315186137
 30
0.0
 11
898.66831309714553
 21
-311.73395315186144
 31
0.0
  0
LINE
  5
ED
100
AcDbEntity
  8
____1
370
              18
390
0
  6
Continuous
 62
               5
100
AcDbLine
 10
889.73982824866084
 20
-308.93395315186137
 30
0.0
 11
888.81894519941829
 21
-308.93395315186137
 31
0.0
  0
LINE
  5
EE
100
AcDbEntity
  8
____1
370
              18
390
0
  6
Continuous
 62
               5
100
AcDbLine
 10
905.86831309714557
 20
-311.73395315186144
 30
0.0
 11
905.86831309714557
 21
-312.93395315186137
 31
0.0
  0
LINE
  5
EF
100
AcDbEntity
  8
____1
370
              18
390
0
  6
Continuous
 62
               5
100
AcDbLine
 10
889.73982824866084
 20
-310.13395315186142
 30
0.0
 11
889.61894519941825
 21
-310.13395315186142
 31
0.0
  0
LINE
  5
F0
100
AcDbEntity
  8
____1
370
              18
390
0
  6
Continuous
 62
               5
100
AcDbLine
 10
769.88509547089359
 20
-183.91349301082926
 30
0.0
 11
769.88509547089359
 21
-181.91349301082857
 31
0.0
  0
LINE
  5
F1
100
AcDbEntity
  8
____1
370
              18
390
0
  6
Continuous
 62
               5
100
AcDbLine
 10
789.88509547089359
 20
-183.91349301082869
 30
0.0
 11
769.88509547089359
 21
-183.91349301082926
 31
0.0
  0
LINE
  5
F2
100
AcDbEntity
  8
____1
370
              18
390
0
  6
Continuous
 62
               5
100
AcDbLine
 10
789.88509547089359
 20
-183.91349301082869
 30
0.0
 11
789.88509547089359
 21
-181.91349301082857
 31
0.0
  0
LINE
  5
F3
100
AcDbEntity
  8
____1
370
              18
390
0
  6
Continuous
 62
               5
100
AcDbLine
 10
820.88509547089359
 20
-183.91349301082857
 30
0.0
 11
820.88509547089359
 21
-181.91349301082857
 31
0.0
  0
ARC
  5
F4
100
AcDbEntity
  8
____1
370
              18
390
0
  6
Continuous
 62
               5
100
AcDbCircle
 10
799.63509547089359
 20
-180.91349301082857
 30
0.0
 40
1.0
100
AcDbArc
 50
180.0
 51
-90.0
  0
DIMENSION
  5
101
100
AcDbEntity
  8
寸法線_1
370
               5
390
0
  6
Continuous
 62
               7
100
AcDbDimension
  2
*D4
 10
779.8850954708937
 20
-196.91349301082897
 30
0.0
 11
795.3850954708937
 21
-196.91349301082897
 31
0.0
 71
               5
 72
               1
 41
1.0
 42
0.0
  3
DS1
100
AcDbAlignedDimension
 13
810.8850954708937
 23
-186.91349301082857
 33
0.0
 14
779.8850954708937
 24
-186.91349301082897
 34
0.0
 50
180.0
100
AcDbRotatedDimension
  0
ARC
  5
102
100
AcDbEntity
  8
____1
370
              18
390
0
  6
Continuous
 62
               5
100
AcDbCircle
 10
829.63509547089359
 20
-163.91349301082857
 30
0.0
 40
0.999999999999989
210
0.0
220
0.0
230
1.0
100
AcDbArc
 50
0.0
 51
89.999989280832523
  0
LINE
  5
103
100
AcDbEntity
  8
____1
370
              18
390
0
  6
Continuous
 62
               5
100
AcDbLine
 10
792.13509547089359
 20
-168.41349301082857
 30
0.0
 11
798.6350954708937
 21
-168.41349301082857
 31
0.0
  0
ARC
  5
104
100
AcDbEntity
  8
____1
370
              18
390
0
  6
Continuous
 62
               5
100
AcDbCircle
 10
791.13509547089359
 20
-163.91349301082857
 30
0.0
 40
1.0
100
AcDbArc
 50
0.0
 51
90.0
  0
ARC
  5
105
100
AcDbEntity
  8
____1
370
              18
390
0
  6
Continuous
 62
               5
100
AcDbCircle
 10
799.63509547089359
 20
-163.91349301082857
 30
0.0
 40
1.0
100
AcDbArc
 50
90.0
 51
180.0
  0
ARC
  5
106
100
AcDbEntity
  8
____1
370
              18
390
0
  6
Continuous
 62
               5
100
AcDbCircle
 10
822.13509547089359
 20
-163.91349301082857
 30
0.0
 40
1.0
210
0.0
220
0.0
230
1.0
100
AcDbArc
 50
0.0
 51
90.0
  0
LINE
  5
107
100
AcDbEntity
  8
____1
370
              18
390
0
  6
Continuous
 62
               5
100
AcDbLine
 10
792.13509547089359
 20
-167.41349301082857
 30
0.0
 11
798.6350954708937
 21
-167.41349301082857
 31
0.0
  0
MTEXT
  5
108
100
AcDbEntity
  8
____1
370
               5
390
0
  6
Continuous
 62
               7
100
AcDbMText
 10
855.81626496794047
 20
-282.77357064073362
 30
0.0
 40
4.2333331108093262
 41
30.0
 71
               1
 72
               1
  1
色：白
  7
Style1
 73
               1
 44
1.0
  0
ARC
  5
109
100
AcDbEntity
  8
____1
370
              18
390
0
  6
Continuous
 62
               5
100
AcDbCircle
 10
900.66831309714553
 20
-308.5339531518614
 30
0.0
 40
4.3999999999999773
210
0.0
220
0.0
230
1.0
100
AcDbArc
 50
-37.512388020300733
 51
0.0
  0
LINE
  5
10A
100
AcDbEntity
  8
____1
370
              18
390
0
  6
Continuous
 62
               5
100
AcDbLine
 10
905.86831309714557
 20
-307.33395315186135
 30
0.0
 11
898.66831309714553
 21
-307.33395315186135
 31
0.0
  0
LINE
  5
10B
100
AcDbEntity
  8
____1
370
              18
390
0
  6
Continuous
 62
               5
100
AcDbLine
 10
889.73982824866084
 20
-311.33395315186135
 30
0.0
 11
891.73982824866084
 21
-311.33395315186135
 31
0.0
  0
LINE
  5
10C
100
AcDbEntity
  8
____1
370
              18
390
0
  6
Continuous
 62
               5
100
AcDbLine
 10
895.33982824866075
 20
-308.5339531518614
 30
0.0
 11
896.5398282486608
 21
-307.33395315186135
 31
0.0
  0
LINE
  5
10D
100
AcDbEntity
  8
____1
370
              18
390
0
  6
Continuous
 62
               5
100
AcDbLine
 10
905.06831309714551
 20
-308.5339531518614
 30
0.0
 11
905.86831309714557
 21
-307.33395315186135
 31
0.0
  0
LINE
  5
10E
100
AcDbEntity
  8
____1
370
              18
390
0
  6
Continuous
 62
               5
100
AcDbLine
 10
893.33982824866075
 20
-307.33395315186135
 30
0.0
 11
893.33982824866075
 21
-308.93395315186137
 31
0.0
  0
ARC
  5
10F
100
AcDbEntity
  8
____1
370
              18
390
0
  6
Continuous
 62
               5
100
AcDbCircle
 10
892.13982824866071
 20
-310.5339531518614
 30
0.0
 40
1.2000000000000455
210
0.0
220
0.0
230
1.0
100
AcDbArc
 50
-90.0
 51
0.0
  0
LINE
  5
110
100
AcDbEntity
  8
____1
370
              18
390
0
  6
Continuous
 62
               5
100
AcDbLine
 10
902.29736309049463
 20
-310.1492098759494
 30
0.0
 11
902.10488644544137
 21
-310.36180056439252
 31
0.0
  0
LINE
  5
111
100
AcDbEntity
  8
____1
370
              18
390
0
  6
Continuous
 62
               5
100
AcDbLine
 10
898.66831309714553
 20
-309.19164136584641
 30
0.0
 11
901.86831309714557
 21
-309.19164136584641
 31
0.0
  0
LINE
  5
112
100
AcDbEntity
  8
____1
370
              18
390
0
  6
Continuous
 62
               5
100
AcDbLine
 10
895.33982824866075
 20
-310.5339531518614
 30
0.0
 11
895.33982824866075
 21
-310.13395315186142
 31
0.0
  0
LINE
  5
113
100
AcDbEntity
  8
____1
370
               5
390
0
  6
Continuous
 62
               7
100
AcDbLine
 10
903.54262688266738
 20
-288.96209152537165
 30
0.0
 11
903.54262688266738
 21
-305.96209152537165
 31
0.0
  0
LINE
  5
114
100
AcDbEntity
  8
____1
370
               5
390
0
  6
Continuous
 62
               7
100
AcDbLine
 10
871.54262688266738
 20
-288.96209152537165
 30
0.0
 11
871.54262688266738
 21
-297.46209152537165
 31
0.0
  0
LINE
  5
115
100
AcDbEntity
  8
____1
370
              18
390
0
  6
Continuous
 62
               5
100
AcDbLine
 10
769.88509547089359
 20
-228.70876656296872
 30
0.0
 11
769.88509547089359
 21
-235.20876656296878
 31
0.0
  0
LINE
  5
116
100
AcDbEntity
  8
____1
370
              18
390
0
  6
Continuous
 62
               5
100
AcDbLine
 10
789.88509547089359
 20
-228.70876656296872
 30
0.0
 11
769.88509547089359
 21
-228.70876656296872
 31
0.0
  0
LINE
  5
117
100
AcDbEntity
  8
____1
370
              18
390
0
  6
Continuous
 62
               5
100
AcDbLine
 10
789.88509547089359
 20
-235.20876656296878
 30
0.0
 11
769.88509547089359
 21
-235.20876656296878
 31
0.0
  0
LINE
  5
118
100
AcDbEntity
  8
____1
370
              18
390
0
  6
Continuous
 62
               5
100
AcDbLine
 10
800.88509547089359
 20
-228.70876656296872
 30
0.0
 11
800.88509547089359
 21
-235.20876656296878
 31
0.0
  0
LINE
  5
119
100
AcDbEntity
  8
____1
370
              18
390
0
  6
Continuous
 62
               5
100
AcDbLine
 10
820.88509547089359
 20
-228.70876656296872
 30
0.0
 11
820.88509547089359
 21
-235.20876656296878
 31
0.0
  0
LINE
  5
11A
100
AcDbEntity
  8
____1
370
              18
390
0
  6
Continuous
 62
               5
100
AcDbLine
 10
800.88509547089359
 20
-230.50876656296873
 30
0.0
 11
820.88509547089359
 21
-230.50876656296873
 31
0.0
  0
LINE
  5
11B
100
AcDbEntity
  8
____1
370
              18
390
0
  6
Continuous
 62
               5
100
AcDbLine
 10
800.88509547089359
 20
-235.20876656296878
 30
0.0
 11
820.88509547089359
 21
-235.20876656296878
 31
0.0
  0
LINE
  5
11C
100
AcDbEntity
  8
____1
370
              18
390
0
  6
Continuous
 62
               5
100
AcDbLine
 10
800.88509547089359
 20
-228.70876656296872
 30
0.0
 11
820.88509547089359
 21
-228.70876656296872
 31
0.0
  0
LINE
  5
11D
100
AcDbEntity
  8
____1
370
              18
390
0
  6
Continuous
 62
               5
100
AcDbLine
 10
800.88509547089359
 20
-233.40876656296876
 30
0.0
 11
820.88509547089359
 21
-233.40876656296876
 31
0.0
  0
LINE
  5
11E
100
AcDbEntity
  8
____1
370
              18
390
0
  6
Continuous
 62
               5
100
AcDbLine
 10
822.20782948520252
 20
-228.43006407754876
 30
0.0
 11
822.88509547089359
 21
-237.00876656296873
 31
0.0
  0
ARC
  5
11F
100
AcDbEntity
  8
____1
370
              18
390
0
  6
Continuous
 62
               5
100
AcDbCircle
 10
800.07454669226126
 20
-228.50876656296873
 30
0.0
 40
1.0
100
AcDbArc
 50
90.0
 51
176.42366562500186
  0
LINE
  5
120
100
AcDbEntity
  8
____1
370
              18
390
0
  6
Continuous
 62
               5
100
AcDbLine
 10
799.07649411377838
 20
-228.44638827681354
 30
0.0
 11
798.63509547089359
 21
-235.50876656296873
 31
0.0
  0
LINE
  5
121
100
AcDbEntity
  8
____1
370
              18
390
0
  6
Continuous
 62
               5
100
AcDbLine
 10
800.07454669226126
 20
-227.50876656296873
 30
0.0
 11
821.21093133654904
 21
-227.50876656296873
 31
0.0
  0
ARC
  5
122
100
AcDbEntity
  8
____1
370
              18
390
0
  6
Continuous
 62
               5
100
AcDbCircle
 10
821.21093133654904
 20
-228.50876656296873
 30
0.0
 40
1.0
210
0.0
220
0.0
230
1.0
100
AcDbArc
 50
4.5139884579986989
 51
90.0
  0
ARC
  5
123
100
AcDbEntity
  8
____1
370
              18
390
0
  6
Continuous
 62
               5
100
AcDbCircle
 10
790.69564424952603
 20
-228.50876656296873
 30
0.0
 40
1.0
210
0.0
220
0.0
230
1.0
100
AcDbArc
 50
3.5763343749981638
 51
90.0
  0
LINE
  5
124
100
AcDbEntity
  8
____1
370
              18
390
0
  6
Continuous
 62
               5
100
AcDbLine
 10
791.69369682800891
 20
-228.44638827681354
 30
0.0
 11
792.13509547089359
 21
-235.50876656296873
 31
0.0
  0
ARC
  5
125
100
AcDbEntity
  8
____1
370
              18
390
0
  6
Continuous
 62
               5
100
AcDbCircle
 10
761.13509547089359
 20
-180.91349301082857
 30
0.0
 40
1.0
100
AcDbArc
 50
180.0
 51
-89.999990992561663
  0
ARC
  5
126
100
AcDbEntity
  8
____1
370
              18
390
0
  6
Continuous
 62
               5
100
AcDbCircle
 10
761.13509547089359
 20
-163.91349301082857
 30
0.0
 40
1.0000000000000124
100
AcDbArc
 50
89.999990943089543
 51
180.0
  0
ARC
  5
127
100
AcDbEntity
  8
____1
370
              18
390
0
  6
Continuous
 62
               5
100
AcDbCircle
 10
829.63509547089359
 20
-180.91349301082857
 30
0.0
 40
1.0
210
0.0
220
0.0
230
1.0
100
AcDbArc
 50
-89.999989425353675
 51
0.0
  0
LINE
  5
128
100
AcDbEntity
  8
____1
370
              18
390
0
  6
Continuous
 62
               5
100
AcDbLine
 10
792.13509547089359
 20
-177.41349301082857
 30
0.0
 11
798.6350954708937
 21
-177.41349301082857
 31
0.0
  0
LINE
  5
129
100
AcDbEntity
  8
____1
370
              18
390
0
  6
Continuous
 62
               5
100
AcDbLine
 10
792.13509547089359
 20
-176.41349301082857
 30
0.0
 11
798.6350954708937
 21
-176.41349301082857
 31
0.0
  0
ARC
  5
12A
100
AcDbEntity
  8
____1
370
              18
390
0
  6
Continuous
 62
               5
100
AcDbCircle
 10
791.13509547089359
 20
-180.91349301082857
 30
0.0
 40
1.0
210
0.0
220
0.0
230
1.0
100
AcDbArc
 50
-90.0
 51
0.0
  0
ARC
  5
12B
100
AcDbEntity
  8
____1
370
              18
390
0
  6
Continuous
 62
               5
100
AcDbCircle
 10
822.13509547089359
 20
-180.91349301082857
 30
0.0
 40
1.0
210
0.0
220
0.0
230
1.0
100
AcDbArc
 50
-90.0
 51
0.0
  0
LINE
  5
12C
100
AcDbEntity
  8
____1
370
              18
390
0
  6
Continuous
 62
               5
100
AcDbLine
 10
800.88509547089359
 20
-183.91349301082857
 30
0.0
 11
820.88509547089359
 21
-183.91349301082857
 31
0.0
  0
LINE
  5
12D
100
AcDbEntity
  8
____1
370
              18
390
0
  6
Continuous
 62
               5
100
AcDbLine
 10
800.88509547089359
 20
-183.91349301082857
 30
0.0
 11
800.88509547089359
 21
-181.91349301082857
 31
0.0
  0
ARC
  5
12E
100
AcDbEntity
  8
____1
370
              18
390
0
  6
Continuous
 62
               5
100
AcDbCircle
 10
829.2879683825106
 20
-238.00876656296873
 30
0.0
 40
1.0
210
0.0
220
0.0
230
1.0
100
AcDbArc
 50
9.4623222080277589
 51
90.0
  0
LINE
  5
12F
100
AcDbEntity
  8
____1
370
              18
390
0
  6
Continuous
 62
               5
100
AcDbLine
 10
829.2879683825106
 20
-237.00876656296873
 30
0.0
 11
822.88509547089359
 21
-237.00876656296873
 31
0.0
  0
ARC
  5
130
100
AcDbEntity
  8
____1
370
              18
390
0
  6
Continuous
 62
               5
100
AcDbCircle
 10
830.2600954708937
 20
-242.00876656296873
 30
0.0
 40
2.1250000000001004
210
0.0
220
0.0
230
1.0
100
AcDbArc
 50
151.92751306414849
 51
-151.92751306414849
  0
ARC
  5
131
100
AcDbEntity
  8
____1
370
              18
390
0
  6
Continuous
 62
               5
100
AcDbCircle
 10
826.5100954708937
 20
-240.00876656296873
 30
0.0
 40
2.1249999999998863
210
0.0
220
0.0
230
1.0
100
AcDbArc
 50
-28.0724869358544
 51
0.0
  0
ARC
  5
132
100
AcDbEntity
  8
____1
370
              18
390
0
  6
Continuous
 62
               5
100
AcDbCircle
 10
826.51009547090518
 20
-248.0087665629639
 30
0.0
 40
2.1249999999874971
100
AcDbArc
 50
17.920213139363764
 51
28.072486935885145
  0
LINE
  5
133
100
AcDbEntity
  8
____1
370
              18
390
0
  6
Continuous
 62
               5
100
AcDbLine
 10
822.71393086128694
 20
-248.00876656296873
 30
0.0
 11
828.05626008050024
 21
-248.00876656296873
 31
0.0
  0
ARC
  5
134
100
AcDbEntity
  8
____1
370
              18
390
0
  6
Continuous
 62
               5
100
AcDbCircle
 10
828.05626008050024
 20
-247.50876656296873
 30
0.0
 40
0.4999999999999926
210
0.0
220
0.0
230
1.0
100
AcDbArc
 50
-90.0
 51
17.920213139389929
  0
ARC
  5
135
100
AcDbEntity
  8
____1
370
              18
390
0
  6
Continuous
 62
               5
100
AcDbCircle
 10
830.26009547089359
 20
-246.00876656296873
 30
0.0
 40
2.125
100
AcDbArc
 50
151.92751306414706
 51
-151.92751306414706
  0
ARC
  5
136
100
AcDbEntity
  8
____1
370
              18
390
0
  6
Continuous
 62
               5
100
AcDbCircle
 10
826.5100954708937
 20
-244.00876656296873
 30
0.0
 40
2.1249999999998996
210
0.0
220
0.0
230
1.0
100
AcDbArc
 50
-28.0724869358544
 51
28.0724869358544
  0
LINE
  5
137
100
AcDbEntity
  8
____1
370
               5
390
0
  6
CENTER2
 62
               3
100
AcDbLine
 10
810.88509547089359
 20
-243.00876656296873
 30
0.0
 11
810.88509547089359
 21
-224.50876656296833
 31
0.0
  0
ARC
  5
138
100
AcDbEntity
  8
____1
370
              18
390
0
  6
Continuous
 62
               5
100
AcDbCircle
 10
820.51009547089359
 20
-242.00876656296873
 30
0.0
 40
2.125
100
AcDbArc
 50
-28.072486935852957
 51
28.072486935852957
  0
ARC
  5
139
100
AcDbEntity
  8
____1
370
              18
390
0
  6
Continuous
 62
               5
100
AcDbCircle
 10
824.2600954708937
 20
-240.00876656296873
 30
0.0
 40
2.1250000000001137
100
AcDbArc
 50
180.0
 51
-151.92751306414849
  0
ARC
  5
13A
100
AcDbEntity
  8
____1
370
              18
390
0
  6
Continuous
 62
               5
100
AcDbCircle
 10
824.26009547088256
 20
-248.00876656296415
 30
0.0
 40
2.1249999999881166
210
0.0
220
0.0
230
1.0
100
AcDbArc
 50
151.927513064116
 51
162.07978686063439
  0
ARC
  5
13B
100
AcDbEntity
  8
____1
370
              18
390
0
  6
Continuous
 62
               5
100
AcDbCircle
 10
822.71393086128694
 20
-247.50876656296873
 30
0.0
 40
0.4999999999999926
100
AcDbArc
 50
162.07978686061008
 51
-90.0
  0
LINE
  5
13C
100
AcDbEntity
  8
____1
370
               5
390
0
  6
CENTER2
 62
               3
100
AcDbLine
 10
779.88509547089359
 20
-243.00876656296873
 30
0.0
 11
779.88509547089359
 21
-224.50876656296833
 31
0.0
  0
ARC
  5
13D
100
AcDbEntity
  8
____1
370
              18
390
0
  6
Continuous
 62
               5
100
AcDbCircle
 10
824.26009547089359
 20
-244.00876656296873
 30
0.0
 40
2.125
100
AcDbArc
 50
151.92751306414706
 51
-151.92751306414706
  0
ARC
  5
13E
100
AcDbEntity
  8
____1
370
              18
390
0
  6
Continuous
 62
               5
100
AcDbCircle
 10
820.5100954708937
 20
-246.00876656296873
 30
0.0
 40
2.1249999999998996
210
0.0
220
0.0
230
1.0
100
AcDbArc
 50
-28.0724869358544
 51
28.0724869358544
  0
LINE
  5
13F
100
AcDbEntity
  8
____1
370
              18
390
0
  6
Continuous
 62
               5
100
AcDbLine
 10
789.88509547089359
 20
-230.50876656296873
 30
0.0
 11
769.88509547089359
 21
-230.50876656296873
 31
0.0
  0
LINE
  5
140
100
AcDbEntity
  8
____1
370
              18
390
0
  6
Continuous
 62
               5
100
AcDbLine
 10
789.88509547089359
 20
-233.40876656296876
 30
0.0
 11
769.88509547089359
 21
-233.40876656296876
 31
0.0
  0
LINE
  5
141
100
AcDbEntity
  8
____1
370
              18
390
0
  6
Continuous
 62
               5
100
AcDbLine
 10
791.91634547089348
 20
-232.00876656296873
 30
0.0
 11
798.85384547089359
 21
-232.00876656296873
 31
0.0
  0
LINE
  5
142
100
AcDbEntity
  8
____1
370
              18
390
0
  6
Continuous
 62
               5
100
AcDbLine
 10
798.63509547089359
 20
-235.50876656296873
 30
0.0
 11
797.13509547089359
 21
-237.00876656296873
 31
0.0
  0
LINE
  5
143
100
AcDbEntity
  8
____1
370
              18
390
0
  6
Continuous
 62
               5
100
AcDbLine
 10
795.38509547089359
 20
-237.00876656296873
 30
0.0
 11
797.13509547089359
 21
-237.00876656296873
 31
0.0
  0
LINE
  5
144
100
AcDbEntity
  8
____1
370
              18
390
0
  6
Continuous
 62
               5
100
AcDbLine
 10
789.88509547089359
 20
-228.70876656296872
 30
0.0
 11
789.88509547089359
 21
-235.20876656296878
 31
0.0
  0
LINE
  5
145
100
AcDbEntity
  8
____1
370
              18
390
0
  6
Continuous
 62
               5
100
AcDbLine
 10
793.63509547089359
 20
-237.00876656296873
 30
0.0
 11
795.38509547089359
 21
-237.00876656296873
 31
0.0
  0
LINE
  5
146
100
AcDbEntity
  8
____1
370
              18
390
0
  6
Continuous
 62
               5
100
AcDbLine
 10
792.13509547089359
 20
-235.50876656296873
 30
0.0
 11
793.63509547089359
 21
-237.00876656296873
 31
0.0
  0
LINE
  5
147
100
AcDbEntity
  8
____1
370
               5
390
0
  6
CENTER2
 62
               3
100
AcDbLine
 10
885.54262688266726
 20
-149.51416666666648
 30
0.0
 11
975.54262688266738
 21
-149.51416666666648
 31
0.0
  0
LINE
  5
148
100
AcDbEntity
  8
____1
370
               5
390
0
  6
CENTER2
 62
               3
100
AcDbLine
 10
885.54262688266726
 20
-204.51416666666654
 30
0.0
 11
975.54262688266738
 21
-204.51416666666654
 31
0.0
  0
MTEXT
  5
149
100
AcDbEntity
  8
____1
370
               5
390
0
  6
Continuous
 62
               7
100
AcDbMText
 10
900.81669936664775
 20
-158.30388528718646
 30
0.0
 40
3.5277776718139648
 41
15.0
 71
               1
 72
               1
  1
受板ｘ２
  7
Style1
 73
               1
 44
1.0
  0
LINE
  5
14A
100
AcDbEntity
  8
____1
370
              18
390
0
  6
Continuous
 62
               5
100
AcDbLine
 10
760.13509547089359
 20
-180.91349301082857
 30
0.0
 11
760.13509547089359
 21
-163.91349301082857
 31
0.0
  0
LINE
  5
14B
100
AcDbEntity
  8
____1
370
              18
390
0
  6
Continuous
 62
               5
100
AcDbLine
 10
830.63509547089359
 20
-180.91349301082857
 30
0.0
 11
830.63509547089359
 21
-163.91349301082857
 31
0.0
  0
LINE
  5
14C
100
AcDbEntity
  8
____1
370
              18
390
0
  6
Continuous
 62
               5
100
AcDbLine
 10
792.13509547089359
 20
-180.91349301082857
 30
0.0
 11
792.13509547089359
 21
-163.91349301082857
 31
0.0
  0
LINE
  5
14D
100
AcDbEntity
  8
____1
370
               5
390
0
  6
CENTER2
 62
               3
100
AcDbLine
 10
779.8850954708937
 20
-186.91349301082897
 30
0.0
 11
779.8850954708937
 21
-159.91349301082857
 31
0.0
  0
LINE
  5
14E
100
AcDbEntity
  8
____1
370
              18
390
0
  6
Continuous
 62
               5
100
AcDbLine
 10
823.13509547089359
 20
-180.91349301082857
 30
0.0
 11
823.13509547089359
 21
-163.91349301082857
 31
0.0
  0
LINE
  5
14F
100
AcDbEntity
  8
____1
370
               5
390
0
  6
CENTER2
 62
               3
100
AcDbLine
 10
810.8850954708937
 20
-186.91349301082857
 30
0.0
 11
810.8850954708937
 21
-159.91349301082818
 31
0.0
  0
LINE
  5
150
100
AcDbEntity
  8
____1
370
              18
390
0
  6
Continuous
 62
               5
100
AcDbLine
 10
798.63509547089359
 20
-180.91349301082857
 30
0.0
 11
798.63509547089359
 21
-163.91349301082857
 31
0.0
  0
LINE
  5
151
100
AcDbEntity
  8
____1
370
               5
390
0
  6
CENTER2
 62
               3
100
AcDbLine
 10
885.54262688266726
 20
-204.51416666666654
 30
0.0
 11
885.54262688266726
 21
-149.51416666666648
 31
0.0
  0
DIMENSION
  5
15E
100
AcDbEntity
  8
寸法線_1
370
               5
390
0
  6
Continuous
 62
               7
100
AcDbDimension
  2
*D5
 10
936.15305275857918
 20
-169.78597335680985
 30
0.0
 11
924.90305275857918
 21
-169.78597335680985
 31
0.0
 71
               5
 72
               1
 41
1.0
 42
0.0
  3
DS1
100
AcDbAlignedDimension
 13
913.65305275857918
 23
-179.78597335680985
 33
0.0
 14
936.15305275857918
 24
-179.78597335680985
 34
0.0
100
AcDbRotatedDimension
  0
LINE
  5
15F
100
AcDbEntity
  8
____1
370
               5
390
0
  6
Continuous
 62
               7
100
AcDbLine
 10
927.25298520753199
 20
-184.17108261326513
 30
0.0
 11
942.1422677041553
 21
-168.79541666666654
 31
0.0
  0
SOLID
  5
160
100
AcDbEntity
  8
____1
390
0
 62
               7
100
AcDbTrace
 10
927.25298520753199
 20
-184.17108261326513
 30
0.0
 11
930.34066415655082
 21
-182.25033276857056
 31
0.0
 12
927.25298520753199
 22
-184.17108261326513
 32
0.0
 13
929.09356743424632
 23
-182.27037467306562
 33
0.0
  0
SOLID
  5
161
100
AcDbEntity
  8
____1
390
0
 62
               7
100
AcDbTrace
 10
929.09356743424632
 20
-182.27037467306562
 30
0.0
 11
929.07352552975124
 21
-181.02327795076104
 31
0.0
 12
927.25298520753199
 22
-184.17108261326513
 32
0.0
 13
927.25298520753199
 23
-184.17108261326513
 33
0.0
  0
LINE
  5
162
100
AcDbEntity
  8
____1
370
               5
390
0
  6
CENTER2
 62
               3
100
AcDbLine
 10
765.38509547089359
 20
-250.00876656296873
 30
0.0
 11
765.38509547089359
 21
-238.00876656296873
 31
0.0
  0
ARC
  5
163
100
AcDbEntity
  8
____1
370
              18
390
0
  6
Continuous
 62
               5
100
AcDbCircle
 10
764.2600954708937
 20
-240.00876656296873
 30
0.0
 40
2.1250000000001137
100
AcDbArc
 50
180.0
 51
-151.92751306414849
  0
LINE
  5
164
100
AcDbEntity
  8
____1
370
              18
390
0
  6
Continuous
 62
               5
100
AcDbLine
 10
760.13509547089359
 20
-240.00876656296873
 30
0.0
 11
760.49582863544447
 21
-237.84436757566334
 31
0.0
  0
ARC
  5
165
100
AcDbEntity
  8
____1
370
              18
390
0
  6
Continuous
 62
               5
100
AcDbCircle
 10
760.51009547089359
 20
-242.00876656296873
 30
0.0
 40
2.125
100
AcDbArc
 50
-28.072486935852957
 51
28.072486935852957
  0
ARC
  5
166
100
AcDbEntity
  8
____1
370
              18
390
0
  6
Continuous
 62
               5
100
AcDbCircle
 10
764.26009547088256
 20
-248.00876656296415
 30
0.0
 40
2.1249999999881166
210
0.0
220
0.0
230
1.0
100
AcDbArc
 50
151.927513064116
 51
162.07978686063439
  0
ARC
  5
167
100
AcDbEntity
  8
____1
370
              18
390
0
  6
Continuous
 62
               5
100
AcDbCircle
 10
762.71393086128694
 20
-247.50876656296873
 30
0.0
 40
0.4999999999999926
100
AcDbArc
 50
162.07978686061008
 51
-90.0
  0
ARC
  5
168
100
AcDbEntity
  8
____1
370
              18
390
0
  6
Continuous
 62
               5
100
AcDbCircle
 10
764.26009547089359
 20
-244.00876656296873
 30
0.0
 40
2.125
100
AcDbArc
 50
151.92751306414706
 51
-151.92751306414706
  0
ARC
  5
169
100
AcDbEntity
  8
____1
370
              18
390
0
  6
Continuous
 62
               5
100
AcDbCircle
 10
760.5100954708937
 20
-246.00876656296873
 30
0.0
 40
2.1249999999998996
210
0.0
220
0.0
230
1.0
100
AcDbArc
 50
-28.0724869358544
 51
28.0724869358544
  0
ARC
  5
16A
100
AcDbEntity
  8
____1
370
              18
390
0
  6
Continuous
 62
               5
100
AcDbCircle
 10
761.48222255927658
 20
-238.00876656296873
 30
0.0
 40
1.0
100
AcDbArc
 50
90.0
 51
170.53767779197224
  0
DIMENSION
  5
17A
100
AcDbEntity
  8
寸法線_1
370
               5
390
0
  6
Continuous
 62
               7
100
AcDbDimension
  2
*D6
 10
750.13509547089359
 20
-237.00876656296873
 30
0.0
 11
750.13509547089359
 21
-238.50876656296873
 31
0.0
 71
               5
 72
               1
 41
1.0
 42
0.0
  3
DS1
100
AcDbAlignedDimension
 13
760.13509547089359
 23
-240.00876656296873
 33
0.0
 14
761.05865914699393
 24
-237.00876656296873
 34
0.0
 50
90.0
100
AcDbRotatedDimension
  0
LINE
  5
17B
100
AcDbEntity
  8
____1
370
               5
390
0
  6
CENTER2
 62
               3
100
AcDbLine
 10
825.38509547089359
 20
-250.00876656296873
 30
0.0
 11
825.38509547089359
 21
-238.00876656296873
 31
0.0
  0
LINE
  5
17C
100
AcDbEntity
  8
____1
370
              18
390
0
  6
Continuous
 62
               5
100
AcDbLine
 10
830.63509547089359
 20
-240.00876656296873
 30
0.0
 11
830.27436230634271
 21
-237.84436757566334
 31
0.0
  0
DIMENSION
  5
189
100
AcDbEntity
  8
寸法線_1
370
               5
390
0
  6
Continuous
 62
               7
100
AcDbDimension
  2
*D7
 10
830.63509547089359
 20
-268.37234594235429
 30
0.0
 11
795.38509547089359
 21
-268.37234594235429
 31
0.0
 71
               5
 72
               1
 41
1.0
 42
0.0
  3
DS1
100
AcDbAlignedDimension
 13
760.13509547089359
 23
-240.00876656296873
 33
0.0
 14
830.63509547089359
 24
-240.00876656296873
 34
0.0
100
AcDbRotatedDimension
  0
DIMENSION
  5
196
100
AcDbEntity
  8
寸法線_1
370
               5
390
0
  6
Continuous
 62
               7
100
AcDbDimension
  2
*D8
 10
765.38509547089359
 20
-260.00876656296873
 30
0.0
 11
795.38509547089359
 21
-260.00876656296873
 31
0.0
 71
               5
 72
               1
 41
1.0
 42
0.0
  3
DS1
100
AcDbAlignedDimension
 13
825.38509547089359
 23
-250.00876656296873
 33
0.0
 14
765.38509547089359
 24
-250.00876656296873
 34
0.0
 50
180.0
100
AcDbRotatedDimension
  0
LINE
  5
197
100
AcDbEntity
  8
____1
370
              18
390
0
  6
Continuous
 62
               5
100
AcDbLine
 10
761.1350956289665
 20
-162.91349301082857
 30
0.0
 11
829.63509565797835
 21
-162.91349301082857
 31
0.0
  0
LINE
  5
198
100
AcDbEntity
  8
____1
370
              18
390
0
  6
Continuous
 62
               5
100
AcDbLine
 10
761.13509562810304
 20
-181.91349301082857
 30
0.0
 11
829.63509565545598
 21
-181.91349301082857
 31
0.0
  0
ARC
  5
199
100
AcDbEntity
  8
____1
370
              18
390
0
  6
Continuous
 62
               5
100
AcDbCircle
 10
768.63509547089359
 20
-180.91349301082857
 30
0.0
 40
1.0
100
AcDbArc
 50
180.0
 51
-90.0
  0
LINE
  5
19A
100
AcDbEntity
  8
____1
370
              18
390
0
  6
Continuous
 62
               5
100
AcDbLine
 10
767.63509547089359
 20
-180.91349301082857
 30
0.0
 11
767.63509547089359
 21
-163.91349301082857
 31
0.0
  0
ARC
  5
19B
100
AcDbEntity
  8
____1
370
              18
390
0
  6
Continuous
 62
               5
100
AcDbCircle
 10
768.63509547089359
 20
-163.91349301082857
 30
0.0
 40
1.0
100
AcDbArc
 50
90.0
 51
180.0
  0
LINE
  5
19C
100
AcDbEntity
  8
____1
370
              18
390
0
  6
Continuous
 62
               5
100
AcDbLine
 10
907.64229921577225
 20
-312.21395315186146
 30
0.0
 11
910.67376588243906
 21
-312.21395315186146
 31
0.0
  0
LINE
  5
19D
100
AcDbEntity
  8
____1
370
              18
390
0
  6
Continuous
 62
               5
100
AcDbLine
 10
907.64229921577225
 20
-308.69395315186148
 30
0.0
 11
907.64229921577225
 21
-310.13395315186142
 31
0.0
  0
LINE
  5
19E
100
AcDbEntity
  8
____1
370
               5
390
0
  6
Continuous
 62
               7
100
AcDbLine
 10
855.54262688266738
 20
-305.96209152537165
 30
0.0
 11
975.54262688266738
 21
-305.96209152537165
 31
0.0
  0
LINE
  5
19F
100
AcDbEntity
  8
____1
370
               5
390
0
  6
Continuous
 62
               7
100
AcDbLine
 10
855.54262688266738
 20
-288.96209152537165
 30
0.0
 11
975.54262688266738
 21
-288.96209152537165
 31
0.0
  0
LINE
  5
1A0
100
AcDbEntity
  8
____1
370
              18
390
0
  6
Continuous
 62
               5
100
AcDbLine
 10
909.64123254910555
 20
-308.69395315186136
 30
0.0
 11
909.24229921577239
 21
-307.33395315186135
 31
0.0
  0
LINE
  5
1A1
100
AcDbEntity
  8
____1
370
              18
390
0
  6
Continuous
 62
               5
100
AcDbLine
 10
909.24229921577239
 20
-307.33395315186135
 30
0.0
 11
912.44229921577244
 21
-307.33395315186135
 31
0.0
  0
LINE
  5
1A2
100
AcDbEntity
  8
____1
370
              18
390
0
  6
Continuous
 62
               5
100
AcDbLine
 10
907.64229921577225
 20
-310.77395315186141
 30
0.0
 11
910.25136588243913
 21
-310.77395315186141
 31
0.0
  0
LINE
  5
1A3
100
AcDbEntity
  8
____1
370
              18
390
0
  6
Continuous
 62
               5
100
AcDbLine
 10
907.64229921577225
 20
-308.69395315186148
 30
0.0
 11
909.64123254910555
 21
-308.69395315186148
 31
0.0
  0
LINE
  5
1A4
100
AcDbEntity
  8
____1
370
              18
390
0
  6
Continuous
 62
               5
100
AcDbLine
 10
907.64229921577225
 20
-310.13395315186142
 30
0.0
 11
910.06363254910571
 21
-310.13395315186142
 31
0.0
  0
LINE
  5
1A5
100
AcDbEntity
  8
____1
370
              18
390
0
  6
Continuous
 62
               5
100
AcDbLine
 10
907.64229921577225
 20
-310.77395315186141
 30
0.0
 11
907.64229921577225
 21
-312.21395315186146
 31
0.0
  0
LINE
  5
1A6
100
AcDbEntity
  8
____1
370
               5
390
0
  6
Continuous
 62
               7
100
AcDbLine
 10
903.54262688266738
 20
-293.21209152537165
 30
0.0
 11
919.54262688266738
 21
-293.21209152537165
 31
0.0
  0
MTEXT
  5
1A7
100
AcDbEntity
  8
____1
370
               5
390
0
  6
Continuous
 62
               7
100
AcDbMText
 10
904.00801269394435
 20
-289.66762493272847
 30
0.0
 40
2.75
 41
15.0
 71
               1
 72
               1
  1
　検 　印
  7
Style1
 73
               1
 44
1.0
  0
MTEXT
  5
1A8
100
AcDbEntity
  8
____1
370
               5
390
0
  6
Continuous
 62
               7
100
AcDbMText
 10
895.54262688266726
 20
-135.18856286075624
 30
0.0
 40
3.5277776718139648
 41
20.0
 71
               1
 72
               1
  1
H23.10.12
  7
Style1
 73
               1
 44
1.0
  0
LINE
  5
1A9
100
AcDbEntity
  8
____1
370
              18
390
0
  6
Continuous
 62
               5
100
AcDbLine
 10
885.54262688266726
 20
-134.4620915253717
 30
0.0
 11
975.54262688266738
 21
-134.4620915253717
 31
0.0
  0
LINE
  5
1AA
100
AcDbEntity
  8
____1
370
              18
390
0
  6
Continuous
 62
               5
100
AcDbLine
 10
885.54262688266726
 20
-129.4620915253717
 30
0.0
 11
975.54262688266738
 21
-129.4620915253717
 31
0.0
  0
LINE
  5
1AB
100
AcDbEntity
  8
____1
370
              18
390
0
  6
Continuous
 62
               5
100
AcDbLine
 10
885.54262688266726
 20
-139.4620915253717
 30
0.0
 11
975.54262688266738
 21
-139.4620915253717
 31
0.0
  0
MTEXT
  5
1AC
100
AcDbEntity
  8
____1
370
               5
390
0
  6
Continuous
 62
               7
100
AcDbMText
 10
895.54262688266726
 20
-125.22398736141911
 30
0.0
 40
3.5277776718139648
 41
20.0
 71
               1
 72
               1
  1
改訂日
  7
Style1
 73
               1
 44
1.0
  0
MTEXT
  5
1AD
100
AcDbEntity
  8
____1
370
               5
390
0
  6
Continuous
 62
               7
100
AcDbMText
 10
895.54262688266726
 20
-130.18856286075624
 30
0.0
 40
3.5277776718139648
 41
20.0
 71
               1
 72
               1
  1
H16.12.10
  7
Style1
 73
               1
 44
1.0
  0
LINE
  5
1AE
100
AcDbEntity
  8
____1
370
              18
390
0
  6
Continuous
 62
               5
100
AcDbLine
 10
890.25834149662478
 20
-134.7444740256355
 30
0.0
 11
892.73334149662469
 21
-139.03129977436851
 31
0.0
  0
LINE
  5
1AF
100
AcDbEntity
  8
____1
370
              18
390
0
  6
Continuous
 62
               5
100
AcDbLine
 10
890.25834149662478
 20
-134.7444740256355
 30
0.0
 11
887.78334149662487
 21
-139.03129977436851
 31
0.0
  0
LINE
  5
1B0
100
AcDbEntity
  8
____1
370
              18
390
0
  6
Continuous
 62
               5
100
AcDbLine
 10
887.78334149662487
 20
-139.03129977436851
 30
0.0
 11
892.73334149662469
 21
-139.03129977436851
 31
0.0
  0
LINE
  5
1B1
100
AcDbEntity
  8
____1
370
              18
390
0
  6
Continuous
 62
               5
100
AcDbLine
 10
700.54262688266738
 20
-314.46209152537165
 30
0.0
 11
975.54262688266738
 21
-314.46209152537165
 31
0.0
  0
LINE
  5
1B2
100
AcDbEntity
  8
____1
370
              18
390
0
  6
Continuous
 62
               5
100
AcDbLine
 10
700.54262688266738
 20
-124.4620915253717
 30
0.0
 11
975.54262688266738
 21
-124.4620915253717
 31
0.0
  0
DIMENSION
  5
1C2
100
AcDbEntity
  8
寸法線_1
370
               5
390
0
  6
Continuous
 62
               7
100
AcDbDimension
  2
*D9
 10
842.2837198910596
 20
-240.00876656296873
 30
0.0
 11
842.2837198910596
 21
-233.75876656296873
 31
0.0
 71
               5
 72
               1
 41
1.0
 42
0.0
  3
DS1
100
AcDbAlignedDimension
 13
821.21093133654904
 23
-227.50876656296873
 33
0.0
 14
830.63509547089359
 24
-240.00876656296873
 34
0.0
 50
90.0
100
AcDbRotatedDimension
  0
DIMENSION
  5
1D2
100
AcDbEntity
  8
寸法線_1
370
               5
390
0
  6
Continuous
 62
               7
100
AcDbDimension
  2
*D10
 10
842.28372035954806
 20
-248.00876656296873
 30
0.0
 11
842.28372035954806
 21
-244.00876656296873
 31
0.0
 71
               5
 72
               1
 41
1.0
 42
0.0
  3
DS1
100
AcDbAlignedDimension
 13
830.63509547089359
 23
-240.00876656296873
 33
0.0
 14
828.05626008050024
 24
-248.00876656296873
 34
0.0
 50
90.0
100
AcDbRotatedDimension
  0
LINE
  5
1D3
100
AcDbEntity
  8
____1
370
              18
390
0
  6
Continuous
 62
               5
100
AcDbLine
 10
700.54262688266738
 20
-314.46209152537165
 30
0.0
 11
700.54262688266738
 21
-124.4620915253717
 31
0.0
  0
DIMENSION
  5
1E0
100
AcDbEntity
  8
寸法線_1
370
               5
390
0
  6
Continuous
 62
               7
100
AcDbDimension
  2
*D11
 10
798.63509547089348
 20
-216.91907158616209
 30
0.0
 11
810.88509558147518
 21
-216.91907158616209
 31
0.0
 71
               5
 72
               1
 41
1.0
 42
0.0
  3
DS1
100
AcDbAlignedDimension
 13
822.84872846373912
 23
-236.54811780567866
 33
0.0
 14
798.63509547089348
 24
-235.50876656296873
 34
0.0
 50
180.0
100
AcDbRotatedDimension
  0
DIMENSION
  5
1ED
100
AcDbEntity
  8
寸法線_1
370
               5
390
0
  6
Continuous
 62
               7
100
AcDbDimension
  2
*D12
 10
792.13509547089359
 20
-216.91907158616209
 30
0.0
 11
780.7078294363024
 21
-216.91907158616209
 31
0.0
 71
               5
 72
               1
 41
1.0
 42
0.0
  3
DS1
100
AcDbAlignedDimension
 13
767.92146247804806
 23
-236.54811780567877
 33
0.0
 14
792.13509547089359
 24
-235.50876656296873
 34
0.0
100
AcDbRotatedDimension
  0
LINE
  5
1EE
100
AcDbEntity
  8
____1
370
              18
390
0
  6
Continuous
 62
               5
100
AcDbLine
 10
975.54262688266738
 20
-314.46209152537165
 30
0.0
 11
975.54262688266738
 21
-124.4620915253717
 31
0.0
  0
DIMENSION
  5
1FC
100
AcDbEntity
  8
寸法線_1
370
               5
390
0
  6
Continuous
 62
               7
100
AcDbDimension
  2
*D13
 10
870.98544328576963
 20
-217.50876656296873
 30
0.0
 11
862.82405649177792
 21
-217.50876656296873
 31
0.0
 71
               5
 72
               1
 41
1.0
 42
0.0
  3
DS1
100
AcDbAlignedDimension
 13
868.98544328576963
 23
-228.70876656296872
 33
0.0
 14
870.98544328576963
 24
-227.50876656296873
 34
0.0
100
AcDbRotatedDimension
  0
DIMENSION
  5
209
100
AcDbEntity
  8
寸法線_1
370
               5
390
0
  6
Continuous
 62
               7
100
AcDbDimension
  2
*D14
 10
889.98544328576963
 20
-217.50876656296873
 30
0.0
 11
880.48544328576963
 21
-217.50876656296873
 31
0.0
 71
               5
 72
               1
 41
1.0
 42
0.0
  3
DS1
100
AcDbAlignedDimension
 13
870.98544328576963
 23
-227.50876656296873
 33
0.0
 14
889.98544328576963
 24
-227.50876656296873
 34
0.0
100
AcDbRotatedDimension
  0
ARC
  5
20A
100
AcDbEntity
  8
____1
370
              18
390
0
  6
Continuous
 62
               5
100
AcDbCircle
 10
766.51009547090518
 20
-248.0087665629639
 30
0.0
 40
2.1249999999874971
100
AcDbArc
 50
17.920213139363764
 51
28.072486935885145
  0
LINE
  5
20B
100
AcDbEntity
  8
____1
370
              18
390
0
  6
Continuous
 62
               5
100
AcDbLine
 10
760.13509547089359
 20
-240.00876656296873
 30
0.0
 11
830.63509547089359
 21
-240.00876656296873
 31
0.0
  0
ARC
  5
20C
100
AcDbEntity
  8
____1
370
              18
390
0
  6
Continuous
 62
               5
100
AcDbCircle
 10
770.2600954708937
 20
-242.00876656296873
 30
0.0
 40
2.1250000000001004
210
0.0
220
0.0
230
1.0
100
AcDbArc
 50
151.92751306414849
 51
-151.92751306414849
  0
ARC
  5
20D
100
AcDbEntity
  8
____1
370
              18
390
0
  6
Continuous
 62
               5
100
AcDbCircle
 10
766.5100954708937
 20
-240.00876656296873
 30
0.0
 40
2.1249999999998863
210
0.0
220
0.0
230
1.0
100
AcDbArc
 50
-28.0724869358544
 51
0.0
  0
ARC
  5
20E
100
AcDbEntity
  8
____1
370
              18
390
0
  6
Continuous
 62
               5
100
AcDbCircle
 10
768.05626008050024
 20
-247.50876656296873
 30
0.0
 40
0.4999999999999926
210
0.0
220
0.0
230
1.0
100
AcDbArc
 50
-90.0
 51
17.920213139389929
  0
LINE
  5
20F
100
AcDbEntity
  8
____1
370
              18
390
0
  6
Continuous
 62
               5
100
AcDbLine
 10
768.05626008050024
 20
-248.00876656296873
 30
0.0
 11
762.71393086128694
 21
-248.00876656296873
 31
0.0
  0
ARC
  5
210
100
AcDbEntity
  8
____1
370
              18
390
0
  6
Continuous
 62
               5
100
AcDbCircle
 10
770.26009547089359
 20
-246.00876656296873
 30
0.0
 40
2.125
100
AcDbArc
 50
151.92751306414706
 51
-151.92751306414706
  0
ARC
  5
211
100
AcDbEntity
  8
____1
370
              18
390
0
  6
Continuous
 62
               5
100
AcDbCircle
 10
766.5100954708937
 20
-244.00876656296873
 30
0.0
 40
2.1249999999998996
210
0.0
220
0.0
230
1.0
100
AcDbArc
 50
-28.0724869358544
 51
28.0724869358544
  0
LINE
  5
212
100
AcDbEntity
  8
____1
370
              18
390
0
  6
Continuous
 62
               5
100
AcDbLine
 10
761.48222255927658
 20
-237.00876656296873
 30
0.0
 11
767.88509547089359
 21
-237.00876656296873
 31
0.0
  0
LINE
  5
213
100
AcDbEntity
  8
____1
370
              18
390
0
  6
Continuous
 62
               5
100
AcDbLine
 10
768.56236145658465
 20
-228.43006407754876
 30
0.0
 11
767.88509547089359
 21
-237.00876656296873
 31
0.0
  0
ARC
  5
214
100
AcDbEntity
  8
____1
370
              18
390
0
  6
Continuous
 62
               5
100
AcDbCircle
 10
769.55925960523814
 20
-228.50876656296873
 30
0.0
 40
1.0
100
AcDbArc
 50
90.0
 51
175.48601154200131
  0
LINE
  5
215
100
AcDbEntity
  8
____1
370
              18
390
0
  6
Continuous
 62
               5
100
AcDbLine
 10
790.69564424952603
 20
-227.50876656296873
 30
0.0
 11
769.55925960523814
 21
-227.50876656296873
 31
0.0
  0
ENDSEC
  0
SECTION
  2
OBJECTS
  0
DICTIONARY
  5
19
100
AcDbDictionary
280
               0
281
               1
  3
ACAD_GROUP
350
1A
  3
ACAD_MLINESTYLE
350
1B
  3
ACAD_LAYOUT
350
1E
  3
ACAD_PLOTSETTINGS
350
22
  3
ACAD_PLOTSTYLENAME
350
1F
  3
ACAD_WIPEOUT_VARS
350
23
  0
DICTIONARY
  5
1A
102
{ACAD_REACTORS
330
19
102
}
100
AcDbDictionary
280
               0
281
               1
  0
DICTIONARY
  5
1B
102
{ACAD_REACTORS
330
19
102
}
100
AcDbDictionary
280
               0
281
               1
  3
Standard
350
1C
  0
MLINESTYLE
  5
1C
102
{ACAD_REACTORS
330
1B
102
}
100
AcDbMlineStyle
  2
Standard
 70
               0
  3

 62
               0
 51
90.0
 52
90.0
 71
               2
 49
0.5
 62
             256
  6
ByLayer
 49
-0.5
 62
             256
  6
ByLayer
  0
ACDBDICTIONARYWDFLT
  5
1F
102
{ACAD_REACTORS
330
19
102
}
100
AcDbDictionary
281
               1
  3
Normal
350
1D
100
AcDbDictionaryWithDefault
340
1D
  0
ACDBPLACEHOLDER
  5
1D
102
{ACAD_REACTORS
330
1F
102
}
  0
LAYOUT
  5
20
102
{ACAD_REACTORS
330
1E
102
}
100
AcDbPlotSettings
  1

  2

  4

  6

 40
0.0
 41
0.0
 42
0.0
 43
0.0
 44
0.0
 45
0.0
 46
0.0
 47
0.0
 48
0.0
 49
0.0
140
0.0
141
0.0
142
1.0
143
1.0
 70
            1024
 72
               0
 73
               0
 74
               0
  7

 75
               0
147
1.0
148
0.0
149
0.0
100
AcDbLayout
  1
Model
 70
               0
 71
               0
 10
0.0
 20
0.0
 11
0.0
 21
0.0
 12
0.0
 22
0.0
 32
0.0
 14
0.0
 24
0.0
 34
0.0
 15
0.0
 25
0.0
 35
0.0
146
0.0
 13
0.0
 23
0.0
 33
0.0
 16
0.0
 26
0.0
 36
0.0
 17
0.0
 27
0.0
 37
0.0
 76
               0
330
A
331
0
345
0
346
0
  0
LAYOUT
  5
21
102
{ACAD_REACTORS
330
1E
102
}
100
AcDbPlotSettings
  1

  2

  4

  6

 40
0.0
 41
0.0
 42
0.0
 43
0.0
 44
0.0
 45
0.0
 46
0.0
 47
0.0
 48
0.0
 49
0.0
140
0.0
141
0.0
142
1.0
143
1.0
 70
               0
 72
               0
 73
               0
 74
               0
  7

 75
               0
147
1.0
148
0.0
149
0.0
100
AcDbLayout
  1
Layout1
 70
               0
 71
               0
 10
0.0
 20
0.0
 11
0.0
 21
0.0
 12
0.0
 22
0.0
 32
0.0
 14
0.0
 24
0.0
 34
0.0
 15
0.0
 25
0.0
 35
0.0
146
0.0
 13
0.0
 23
0.0
 33
0.0
 16
0.0
 26
0.0
 36
0.0
 17
0.0
 27
0.0
 37
0.0
 76
               0
330
B
331
0
345
0
346
0
  0
DICTIONARY
  5
1E
102
{ACAD_REACTORS
330
19
102
}
100
AcDbDictionary
280
               0
281
               1
  3
Layout1
350
21
  3
Model
350
20
  0
DICTIONARY
  5
22
102
{ACAD_REACTORS
330
19
102
}
100
AcDbDictionary
280
               0
281
               1
  0
WIPEOUTVARIABLES
  5
23
100
AcDbWipeoutVariables
 70
               1
  0
ENDSEC
  0
EOF
