  0
SECTION
  2
HEADER
  9
$ACADVER
  1
AC1015
  9
$ACADMAINTVER
 70
               6
  9
$DWGCODEPAGE
  3
ANSI_932
  9
$INSBASE
 10
0.0
 20
0.0
 30
0.0
  9
$EXTMIN
 10
650.96216216216249
 20
-117.42319819819797
 30
0.0
  9
$EXTMAX
 10
1023.0378378378382
 20
-324.05563063063039
 30
0.0
  9
$LIMMIN
 10
0.0
 20
0.0
  9
$LIMMAX
 10
0.0
 20
0.0
  9
$ORTHOMODE
 70
               0
  9
$REGENMODE
 70
               1
  9
$FILLMODE
 70
               1
  9
$QTEXTMODE
 70
               0
  9
$MIRRTEXT
 70
               1
  9
$LTSCALE
 40
1.0
  9
$ATTMODE
 70
               1
  9
$TEXTSIZE
 40
0.2
  9
$TRACEWID
 40
0.05
  9
$TEXTSTYLE
  7
Standard
  9
$CLAYER
  8
0
  9
$CELTYPE
  6
Continuous
  9
$CECOLOR
 62
             256
  9
$CELTSCALE
 40
1.0
  9
$DISPSILH
 70
               0
  9
$DIMSCALE
 40
1.0
  9
$DIMASZ
 40
3.0
  9
$DIMEXO
 40
1.0
  9
$DIMDLI
 40
0.38
  9
$DIMRND
 40
0.0
  9
$DIMDLE
 40
0.0
  9
$DIMEXE
 40
0.5
  9
$DIMTP
 40
0.0
  9
$DIMTM
 40
0.0
  9
$DIMTXT
 40
3.5277777777777777
  9
$DIMCEN
 40
0.09
  9
$DIMTSZ
 40
0.0
  9
$DIMTOL
 70
               0
  9
$DIMLIM
 70
               0
  9
$DIMTIH
 70
               0
  9
$DIMTOH
 70
               0
  9
$DIMSE1
 70
               0
  9
$DIMSE2
 70
               0
  9
$DIMTAD
 70
               1
  9
$DIMZIN
 70
               0
  9
$DIMBLK
  1

  9
$DIMASO
 70
               1
  9
$DIMSHO
 70
               1
  9
$DIMPOST
  1

  9
$DIMAPOST
  1

  9
$DIMALT
 70
               0
  9
$DIMALTD
 70
               3
  9
$DIMALTF
 40
25.399999999999999
  9
$DIMLFAC
 40
1.0
  9
$DIMTOFL
 70
               0
  9
$DIMTVP
 40
0.0
  9
$DIMTIX
 70
               0
  9
$DIMSOXD
 70
               0
  9
$DIMSAH
 70
               0
  9
$DIMBLK1
  1

  9
$DIMBLK2
  1

  9
$DIMSTYLE
  2
Standard
  9
$DIMCLRD
 70
               7
  9
$DIMCLRE
 70
               7
  9
$DIMCLRT
 70
               7
  9
$DIMTFAC
 40
1.0
  9
$DIMGAP
 40
1.0
  9
$DIMJUST
 70
               0
  9
$DIMSD1
 70
               0
  9
$DIMSD2
 70
               0
  9
$DIMTOLJ
 70
               1
  9
$DIMTZIN
 70
               0
  9
$DIMALTZ
 70
               0
  9
$DIMALTTZ
 70
               0
  9
$DIMUPT
 70
               0
  9
$DIMDEC
 70
               3
  9
$DIMTDEC
 70
               4
  9
$DIMALTU
 70
               2
  9
$DIMALTTD
 70
               2
  9
$DIMTXSTY
  7
Standard
  9
$DIMAUNIT
 70
               0
  9
$DIMADEC
 70
               0
  9
$DIMALTRND
 40
0.0
  9
$DIMAZIN
 70
               0
  9
$DIMDSEP
 70
               0
  9
$DIMATFIT
 70
               3
  9
$DIMFRAC
 70
               0
  9
$DIMLDRBLK
  1

  9
$DIMLUNIT
 70
               2
  9
$DIMLWD
 70
               0
  9
$DIMLWE
 70
               0
  9
$DIMTMOVE
 70
               0
  9
$LUNITS
 70
               2
  9
$LUPREC
 70
               4
  9
$SKETCHINC
 40
0.1
  9
$FILLETRAD
 40
0.0
  9
$AUNITS
 70
               0
  9
$AUPREC
 70
               0
  9
$MENU
  1
acad
  9
$ELEVATION
 40
0.0
  9
$PELEVATION
 40
0.0
  9
$THICKNESS
 40
0.0
  9
$LIMCHECK
 70
               0
  9
$CHAMFERA
 40
0.0
  9
$CHAMFERB
 40
0.0
  9
$CHAMFERC
 40
0.0
  9
$CHAMFERD
 40
0.0
  9
$SKPOLY
 70
               0
  9
$TDCREATE
 40
2455847.745937500
  9
$TDUCREATE
 40
0.000000000
  9
$TDUPDATE
 40
2455847.745937500
  9
$TDUUPDATE
 40
0.000000000
  9
$TDINDWG
 40
0.0000000000
  9
$TDUSRTIMER
 40
0.0000000000
  9
$USRTIMER
 70
               1
  9
$ANGBASE
 50
0.0
  9
$ANGDIR
 70
               0
  9
$PDMODE
 70
               0
  9
$PDSIZE
 40
0.0
  9
$PLINEWID
 40
0.0
  9
$SPLFRAME
 70
               0
  9
$SPLINETYPE
 70
               6
  9
$SPLINESEGS
 70
               8
  9
$HANDSEED
  5
1DC
  9
$SURFTAB1
 70
               6
  9
$SURFTAB2
 70
               6
  9
$SURFTYPE
 70
               6
  9
$SURFU
 70
               6
  9
$SURFV
 70
               6
  9
$UCSBASE
  2

  9
$UCSNAME
  2

  9
$UCSORG
 10
0.0
 20
0.0
 30
0.0
  9
$UCSXDIR
 10
1.0
 20
0.0
 30
0.0
  9
$UCSYDIR
 10
0.0
 20
1.0
 30
0.0
  9
$UCSORTHOREF
  2

  9
$UCSORTHOVIEW
 70
               0
  9
$UCSORGTOP
 10
0.0
 20
0.0
 30
0.0
  9
$UCSORGBOTTOM
 10
0.0
 20
0.0
 30
0.0
  9
$UCSORGLEFT
 10
0.0
 20
0.0
 30
0.0
  9
$UCSORGRIGHT
 10
0.0
 20
0.0
 30
0.0
  9
$UCSORGFRONT
 10
0.0
 20
0.0
 30
0.0
  9
$UCSORGBACK
 10
0.0
 20
0.0
 30
0.0
  9
$PUCSBASE
  2

  9
$PUCSNAME
  2

  9
$PUCSORG
 10
0.0
 20
0.0
 30
0.0
  9
$PUCSXDIR
 10
1.0
 20
0.0
 30
0.0
  9
$PUCSYDIR
 10
0.0
 20
1.0
 30
0.0
  9
$PUCSORTHOREF
  2

  9
$PUCSORTHOVIEW
 70
               0
  9
$PUCSORGTOP
 10
0.0
 20
0.0
 30
0.0
  9
$PUCSORGBOTTOM
 10
0.0
 20
0.0
 30
0.0
  9
$PUCSORGLEFT
 10
0.0
 20
0.0
 30
0.0
  9
$PUCSORGRIGHT
 10
0.0
 20
0.0
 30
0.0
  9
$PUCSORGFRONT
 10
0.0
 20
0.0
 30
0.0
  9
$PUCSORGBACK
 10
0.0
 20
0.0
 30
0.0
  9
$USERI1
 70
               0
  9
$USERI2
 70
               0
  9
$USERI3
 70
               0
  9
$USERI4
 70
               0
  9
$USERI5
 70
               0
  9
$USERR1
 40
0.0
  9
$USERR2
 40
0.0
  9
$USERR3
 40
0.0
  9
$USERR4
 40
0.0
  9
$USERR5
 40
0.0
  9
$WORLDVIEW
 70
               1
  9
$SHADEDGE
 70
               3
  9
$SHADEDIF
 70
              70
  9
$TILEMODE
 70
               1
  9
$MAXACTVP
 70
              16
  9
$PINSBASE
 10
0.0
 20
0.0
 30
0.0
  9
$PLIMCHECK
 70
               0
  9
$PEXTMIN
 10
1.0000000000000000E+20
 20
1.0000000000000000E+20
 30
1.0000000000000000E+20
  9
$PEXTMAX
 10
-1.0000000000000000E+20
 20
-1.0000000000000000E+20
 30
-1.0000000000000000E+20
  9
$PLIMMIN
 10
0.0
 20
0.0
  9
$PLIMMAX
 10
12.0
 20
9.0
  9
$UNITMODE
 70
               0
  9
$VISRETAIN
 70
               0
  9
$PLINEGEN
 70
               1
  9
$PSLTSCALE
 70
               0
  9
$TREEDEPTH
 70
            3020
  9
$CMLSTYLE
  2
Standard
  9
$CMLJUST
 70
               0
  9
$CMLSCALE
 40
1.0
  9
$PROXYGRAPHICS
 70
               0
  9
$MEASUREMENT
 70
               0
  9
$CELWEIGHT
370
               0
  9
$ENDCAPS
280
               0
  9
$JOINSTYLE
280
               0
  9
$LWDISPLAY
290
               0
  9
$INSUNITS
 70
               0
  9
$HYPERLINKBASE
  1

  9
$STYLESHEET
  1

  9
$XEDIT
290
               1
  9
$CEPSNTYPE
380
               0
  9
$PSTYLEMODE
290
               1
  9
$FINGERPRINTGUID
  2

  9
$VERSIONGUID
  2

  9
$EXTNAMES
290
               1
  9
$PSVPSCALE
 40
0.0
  0
ENDSEC
  0
SECTION
  2
CLASSES
  0
CLASS
  1
LWPOLYLINE
  2
AcDbPolyline
  3
AutoCAD 2000
 90
        0
280
               0
281
               1
  0
CLASS
  1
IMAGE
  2
AcDbRasterImage
  3
ISM
 90
      127
280
               0
281
               1
  0
CLASS
  1
OLE2FRAME
  2
AcDbOle2Frame
  3
AutoCAD 2000
 90
        0
280
               0
281
               1
  0
CLASS
  1
HATCH
  2
AcDbHatch
  3
AutoCAD 2000
 90
        0
280
               0
281
               1
  0
CLASS
  1
DICTIONARYVAR
  2
AcDbDictionaryVar
  3
AutoCAD 2000
 90
        0
280
               0
281
               0
  0
CLASS
  1
RASTERVARIABLES
  2
AcDbRasterVariables
  3
ISM
 90
        0
280
               0
281
               0
  0
CLASS
  1
IMAGEDEF
  2
AcDbRasterImageDef
  3
ISM
 90
        0
280
               0
281
               0
  0
CLASS
  1
IMAGEDEF_REACTOR
  2
AcDbRasterImageDefReactor
  3
ISM
 90
        1
280
               0
281
               0
  0
CLASS
  1
IDBUFFER
  2
AcDbIdBuffer
  3
AutoCAD 2000
 90
        0
280
               0
281
               0
  0
CLASS
  1
SPATIAL_FILTER
  2
AcDbSpatialFilter
  3
AutoCAD 2000
 90
        0
280
               0
281
               0
  0
CLASS
  1
XRECORD
  2
AcDbXrecord
  3
AutoCAD 2000
 90
        0
280
               0
281
               0
  0
CLASS
  1
SORTENTSTABLE
  2
AcDbSortentsTable
  3
AutoCAD 2000
 90
        0
280
               0
281
               0
  0
CLASS
  1
LAYER_INDEX
  2
AcDbLayerIndex
  3
AutoCAD 2000
 90
        0
280
               0
281
               0
  0
CLASS
  1
SPATIAL_INDEX
  2
AcDbSpatialIndex
  3
AutoCAD 2000
 90
        0
280
               0
281
               0
  0
CLASS
  1
OBJECT_PTR
  2
CAseDLPNTableRecord
  3
"ASE-LPNTableRecord"
 90
        1
280
               0
281
               0
  0
CLASS
  1
LAYOUT
  2
AcDbLayout
  3
AutoCAD 2000
 90
        0
280
               0
281
               0
  0
CLASS
  1
PLOTSETTINGS
  2
AcDbPlotSettings
  3
AutoCAD 2000
 90
        0
280
               0
281
               0
  0
CLASS
  1
ACDBDICTIONARYWDFLT
  2
AcDbDictionaryWithDefault
  3
AutoCAD 2000
 90
        0
280
               0
281
               0
  0
CLASS
  1
ACDBPLACEHOLDER
  2
AcDbPlaceHolder
  3
AutoCAD 2000
 90
        0
280
               0
281
               0
  0
CLASS
  1
VBA_PROJECT
  2
AcDbVbaProject
  3
acadvba
 90
        0
280
               0
281
               0
  0
CLASS
  1
WIPEOUT
  2
AcDbWipeout
  3
WipeOut|AutoCAD Express Tool|expresstools@autodesk.com
 90
      127
280
               0
281
               1
  0
CLASS
  1
WIPEOUTVARIABLES
  2
AcDbWipeoutVariables
  3
WipeOut|AutoCAD Express Tool|expresstools@autodesk.com
 90
        0
280
               0
281
               0
  0
CLASS
  1
RTEXT
  2
RText
  3
RText|AutoCAD Express Tool|expresstools@autodesk.com
 90
        0
280
               0
281
               1
  0
CLASS
  1
ARCALIGNEDTEXT
  2
AcDbArcAlignedText
  3
ATEXT|AutoCAD Express Tool|expresstools@autodesk.com
 90
        0
280
               0
281
               1
  0
ENDSEC
  0
SECTION
  2
TABLES
  0
TABLE
  2
VPORT
  5
7
100
AcDbSymbolTable
 70
               1
  0
VPORT
  5
15
100
AcDbSymbolTableRecord
100
AcDbViewportTableRecord
  2
*ACTIVE
 70
               0
 10
0.0
 20
0.0
 11
1.0
 21
1.0
 12
6.5912879999999996
 22
4.5791839999999997
 13
0.0
 23
0.0
 14
1.0
 24
1.0
 15
0.0
 25
0.0
 16
0.0
 26
0.0
 36
1.0
 17
0.0
 27
0.0
 37
0.0
 40
9.1583690000000004
 41
0.688564
 42
50.0
 43
0.0
 44
0.0
 50
0.0
 51
0.0
 71
               0
 72
             100
 73
               1
 74
               1
 75
               0
 76
               0
 77
               0
 78
               0
281
               0
 65
               0
110
0.0
120
0.0
130
0.0
111
1.0
121
0.0
131
0.0
112
0.0
122
1.0
132
0.0
345
0
346
0
 79
               0
146
0.0
  0
ENDTAB
  0
TABLE
  2
LTYPE
  5
4
100
AcDbSymbolTable
 70
              13
  0
LTYPE
  5
11
100
AcDbSymbolTableRecord
100
AcDbLinetypeTableRecord
  2
ByBlock
 70
              64
  3

 72
              65
 73
               0
 40
0.0
  0
LTYPE
  5
12
100
AcDbSymbolTableRecord
100
AcDbLinetypeTableRecord
  2
ByLayer
 70
              64
  3

 72
              65
 73
               0
 40
0.0
  0
LTYPE
  5
13
100
AcDbSymbolTableRecord
100
AcDbLinetypeTableRecord
  2
Continuous
 70
              64
  3
Solid line
 72
              65
 73
               0
 40
0.0
  0
LTYPE
  5
24
100
AcDbSymbolTableRecord
100
AcDbLinetypeTableRecord
  2
DOT
 70
              64
  3

 72
              65
 73
               2
 40
1.0
 49
0.0
 74
               0
 49
-1.0
 74
               0
  0
LTYPE
  5
25
100
AcDbSymbolTableRecord
100
AcDbLinetypeTableRecord
  2
DASHEDX2
 70
              64
  3

 72
              65
 73
               2
 40
4.0
 49
3.0
 74
               0
 49
-1.0
 74
               0
  0
LTYPE
  5
26
100
AcDbSymbolTableRecord
100
AcDbLinetypeTableRecord
  2
DASHED
 70
              64
  3

 72
              65
 73
               2
 40
3.0
 49
2.0
 74
               0
 49
-1.0
 74
               0
  0
LTYPE
  5
27
100
AcDbSymbolTableRecord
100
AcDbLinetypeTableRecord
  2
DASHED2
 70
              64
  3

 72
              65
 73
               2
 40
2.0
 49
1.0
 74
               0
 49
-1.0
 74
               0
  0
LTYPE
  5
28
100
AcDbSymbolTableRecord
100
AcDbLinetypeTableRecord
  2
CENTERX2
 70
              64
  3

 72
              65
 73
               4
 40
43.0
 49
40.0
 74
               0
 49
-1.0
 74
               0
 49
1.0
 74
               0
 49
-1.0
 74
               0
  0
LTYPE
  5
29
100
AcDbSymbolTableRecord
100
AcDbLinetypeTableRecord
  2
CENTER
 70
              64
  3

 72
              65
 73
               4
 40
33.0
 49
30.0
 74
               0
 49
-1.0
 74
               0
 49
1.0
 74
               0
 49
-1.0
 74
               0
  0
LTYPE
  5
2A
100
AcDbSymbolTableRecord
100
AcDbLinetypeTableRecord
  2
CENTER2
 70
              64
  3

 72
              65
 73
               4
 40
23.0
 49
20.0
 74
               0
 49
-1.0
 74
               0
 49
1.0
 74
               0
 49
-1.0
 74
               0
  0
LTYPE
  5
2B
100
AcDbSymbolTableRecord
100
AcDbLinetypeTableRecord
  2
PHANTOMX2
 70
              64
  3

 72
              65
 73
               6
 40
45.0
 49
40.0
 74
               0
 49
-1.0
 74
               0
 49
1.0
 74
               0
 49
-1.0
 74
               0
 49
1.0
 74
               0
 49
-1.0
 74
               0
  0
LTYPE
  5
2C
100
AcDbSymbolTableRecord
100
AcDbLinetypeTableRecord
  2
PHANTOM
 70
              64
  3

 72
              65
 73
               6
 40
35.0
 49
30.0
 74
               0
 49
-1.0
 74
               0
 49
1.0
 74
               0
 49
-1.0
 74
               0
 49
1.0
 74
               0
 49
-1.0
 74
               0
  0
LTYPE
  5
2D
100
AcDbSymbolTableRecord
100
AcDbLinetypeTableRecord
  2
PHANTOM2
 70
              64
  3

 72
              65
 73
               6
 40
25.0
 49
20.0
 74
               0
 49
-1.0
 74
               0
 49
1.0
 74
               0
 49
-1.0
 74
               0
 49
1.0
 74
               0
 49
-1.0
 74
               0
  0
ENDTAB
  0
TABLE
  2
LAYER
  5
2
100
AcDbSymbolTable
 70
              11
  0
LAYER
  5
14
100
AcDbSymbolTableRecord
100
AcDbLayerTableRecord
  2
0
 70
               0
 62
               7
  6
Continuous
290
               1
370
              -3
390
1D
  0
LAYER
  5
2E
100
AcDbSymbolTableRecord
100
AcDbLayerTableRecord
  2
DEFPOINTS
 70
               0
 62
               7
  6
Continuous
290
               0
370
              -3
390
1D
  0
LAYER
  5
2F
100
AcDbSymbolTableRecord
100
AcDbLayerTableRecord
  2
____1
 70
               0
 62
               7
  6
Continuous
290
               1
370
              -3
390
1D
  0
LAYER
  5
30
100
AcDbSymbolTableRecord
100
AcDbLayerTableRecord
  2
______
 70
               0
 62
               7
  6
Continuous
290
               1
370
              -3
390
1D
  0
LAYER
  5
31
100
AcDbSymbolTableRecord
100
AcDbLayerTableRecord
  2
寸法線_1
 70
               0
 62
               7
  6
Continuous
290
               1
370
              -3
390
1D
  0
LAYER
  5
32
100
AcDbSymbolTableRecord
100
AcDbLayerTableRecord
  2
CONSTRUCTION
 70
               0
 62
               7
  6
Continuous
290
               1
370
              -3
390
1D
  0
LAYER
  5
33
100
AcDbSymbolTableRecord
100
AcDbLayerTableRecord
  2
DIMENSION
 70
               0
 62
               7
  6
Continuous
290
               1
370
              -3
390
1D
  0
LAYER
  5
34
100
AcDbSymbolTableRecord
100
AcDbLayerTableRecord
  2
FORMAT
 70
               0
 62
               7
  6
Continuous
290
               1
370
              -3
390
1D
  0
LAYER
  5
35
100
AcDbSymbolTableRecord
100
AcDbLayerTableRecord
  2
____2
 70
               0
 62
               5
  6
Continuous
290
               1
370
              -3
390
1D
  0
LAYER
  5
36
100
AcDbSymbolTableRecord
100
AcDbLayerTableRecord
  2
0_1
 70
               0
 62
               5
  6
Continuous
290
               1
370
              -3
390
1D
  0
LAYER
  5
37
100
AcDbSymbolTableRecord
100
AcDbLayerTableRecord
  2
DEFPOINTS_1
 70
               0
 62
               5
  6
Continuous
290
               1
370
              -3
390
1D
  0
ENDTAB
  0
TABLE
  2
STYLE
  5
3
100
AcDbSymbolTable
 70
               2
  0
STYLE
  5
17
100
AcDbSymbolTableRecord
100
AcDbTextStyleTableRecord
  2
Standard
 70
               0
 40
0.0
 41
1.0
 50
0.0
 71
               0
 42
0.35
  3
txt
  4

  0
STYLE
  5
44
100
AcDbSymbolTableRecord
100
AcDbTextStyleTableRecord
  2
Style1
 70
               0
 40
0.0
 41
1.0
 50
0.0
 71
               0
 42
0.35
  3
ＭＳ ゴシック
  4

  0
ENDTAB
  0
TABLE
  2
VIEW
  5
5
100
AcDbSymbolTable
 70
               0
  0
ENDTAB
  0
TABLE
  2
UCS
  5
6
100
AcDbSymbolTable
 70
               0
  0
ENDTAB
  0
TABLE
  2
APPID
  5
8
100
AcDbSymbolTable
 70
               1
  0
APPID
  5
16
100
AcDbSymbolTableRecord
100
AcDbRegAppTableRecord
  2
ACAD
 70
               0
  0
ENDTAB
  0
TABLE
  2
DIMSTYLE
  5
9
100
AcDbSymbolTable
 70
               2
100
AcDbDimStyleTable
 71
               0
  0
DIMSTYLE
105
18
100
AcDbSymbolTableRecord
100
AcDbDimStyleTableRecord
  2
Standard
 70
               0
  3

  4

 40
1.0
 41
3.0
 42
1.0
 43
0.38
 44
0.5
 45
0.0
 46
0.0
 47
0.0
 48
0.0
 71
               0
 72
               0
 73
               0
 74
               0
 75
               0
 76
               0
 77
               1
 78
               0
 79
               0
140
3.5277777777777777
141
0.09
142
0.0
143
25.399999999999999
144
1.0
145
0.0
146
1.0
147
1.0
148
0.0
170
               0
171
               3
172
               0
173
               0
174
               0
175
               0
176
               7
177
               7
178
               7
179
               0
271
               3
272
               4
273
               2
274
               2
275
               0
276
               0
277
               2
278
              46
279
               0
280
               0
281
               0
282
               0
283
               1
284
               0
285
               0
286
               0
288
               0
289
               0
340
17
341
0
342
0
343
0
344
0
371
              -2
372
              -2
  0
DIMSTYLE
105
47
100
AcDbSymbolTableRecord
100
AcDbDimStyleTableRecord
  2
DS1
 70
               0
  3

  4

 40
1.0
 41
3.0
 42
1.0
 43
0.38
 44
0.5
 45
0.0
 46
0.0
 47
0.0
 48
0.0
 71
               0
 72
               0
 73
               0
 74
               0
 75
               0
 76
               0
 77
               1
 78
               8
 79
               0
140
3.5277776718139648
141
0.09
142
0.0
143
25.399999999999999
144
1.0
145
0.0
146
1.0
147
1.0
148
0.0
170
               0
171
               3
172
               0
173
               0
174
               0
175
               0
176
               7
177
               7
178
               7
179
               0
271
               3
272
               4
273
               2
274
               2
275
               0
276
               0
277
               2
278
              46
279
               0
280
               0
281
               0
282
               0
283
               1
284
               0
285
               0
286
               0
288
               0
289
               3
340
17
341
0
342
0
343
0
344
0
371
              -2
372
              -2
  0
ENDTAB
  0
TABLE
  2
BLOCK_RECORD
  5
1
100
AcDbSymbolTable
 70
              13
  0
BLOCK_RECORD
  5
A
100
AcDbSymbolTableRecord
100
AcDbBlockTableRecord
  2
*MODEL_SPACE
340
20
  0
BLOCK_RECORD
  5
B
100
AcDbSymbolTableRecord
100
AcDbBlockTableRecord
  2
*PAPER_SPACE
340
21
  0
BLOCK_RECORD
  5
38
100
AcDbSymbolTableRecord
100
AcDbBlockTableRecord
  2
*D0
340
0
  0
BLOCK_RECORD
  5
48
100
AcDbSymbolTableRecord
100
AcDbBlockTableRecord
  2
*D1
340
0
  0
BLOCK_RECORD
  5
55
100
AcDbSymbolTableRecord
100
AcDbBlockTableRecord
  2
*D2
340
0
  0
BLOCK_RECORD
  5
65
100
AcDbSymbolTableRecord
100
AcDbBlockTableRecord
  2
*D3
340
0
  0
BLOCK_RECORD
  5
72
100
AcDbSymbolTableRecord
100
AcDbBlockTableRecord
  2
*D4
340
0
  0
BLOCK_RECORD
  5
82
100
AcDbSymbolTableRecord
100
AcDbBlockTableRecord
  2
*D5
340
0
  0
BLOCK_RECORD
  5
8F
100
AcDbSymbolTableRecord
100
AcDbBlockTableRecord
  2
*D6
340
0
  0
BLOCK_RECORD
  5
97
100
AcDbSymbolTableRecord
100
AcDbBlockTableRecord
  2
*D7
340
0
  0
BLOCK_RECORD
  5
A5
100
AcDbSymbolTableRecord
100
AcDbBlockTableRecord
  2
*D8
340
0
  0
BLOCK_RECORD
  5
CA
100
AcDbSymbolTableRecord
100
AcDbBlockTableRecord
  2
*D9
340
0
  0
BLOCK_RECORD
  5
DA
100
AcDbSymbolTableRecord
100
AcDbBlockTableRecord
  2
*D10
340
0
  0
BLOCK_RECORD
  5
1BF
100
AcDbSymbolTableRecord
100
AcDbBlockTableRecord
  2
C0
340
0
102
{BLKREFS
331
1C6
102
}
  0
BLOCK_RECORD
  5
1D2
100
AcDbSymbolTableRecord
100
AcDbBlockTableRecord
  2
*D12
340
0
  0
ENDTAB
  0
ENDSEC
  0
SECTION
  2
BLOCKS
  0
BLOCK
  5
D
100
AcDbEntity
  8
0
390
0
100
AcDbBlockBegin
  2
*MODEL_SPACE
 70
               0
 10
0.0
 20
0.0
 30
0.0
  3
*MODEL_SPACE
  1

  0
ENDBLK
  5
E
100
AcDbEntity
  8
0
390
0
100
AcDbBlockEnd
  0
BLOCK
  5
F
100
AcDbEntity
 67
               1
  8
0
390
0
100
AcDbBlockBegin
  2
*PAPER_SPACE
 70
               0
 10
0.0
 20
0.0
 30
0.0
  3
*PAPER_SPACE
  1

  0
ENDBLK
  5
10
100
AcDbEntity
 67
               1
  8
0
390
0
100
AcDbBlockEnd
  0
BLOCK
  5
39
100
AcDbEntity
  8
0
390
0
100
AcDbBlockBegin
  2
*D0
 70
              65
 10
0.0
 20
0.0
 30
0.0
  3
*D0
  1

  0
LINE
  5
3A
100
AcDbEntity
  8
____1
370
               5
390
0
  6
Continuous
 62
               7
100
AcDbLine
 10
819.88667613092889
 20
-166.44859032799747
 30
0.0
 11
823.38667613092889
 21
-166.44859032799747
 31
0.0
  0
LINE
  5
3B
100
AcDbEntity
  8
____1
370
               5
390
0
  6
Continuous
 62
               7
100
AcDbLine
 10
823.38667613092889
 20
-175.01404277667308
 30
0.0
 11
823.38667613092889
 21
-165.94859032799747
 31
0.0
  0
LINE
  5
3C
100
AcDbEntity
  8
____1
370
               5
390
0
  6
Continuous
 62
               7
100
AcDbLine
 10
819.88667613092889
 20
-175.01404277667308
 30
0.0
 11
819.88667613092889
 21
-165.94859032799747
 31
0.0
  0
SOLID
  5
3D
100
AcDbEntity
  8
____1
370
               5
390
0
  6
Continuous
 62
               7
100
AcDbTrace
 10
816.88667613092889
 20
-167.19859032799747
 30
0.0
 11
816.88667613092889
 21
-167.19859032799747
 31
0.0
 12
817.63667613092889
 22
-166.44859032799747
 32
0.0
 13
819.88667613092889
 23
-166.44859032799747
 33
0.0
  0
SOLID
  5
3E
100
AcDbEntity
  8
____1
370
               5
390
0
  6
Continuous
 62
               7
100
AcDbTrace
 10
817.63667613092889
 20
-166.44859032799747
 30
0.0
 11
819.88667613092889
 21
-166.44859032799747
 31
0.0
 12
816.88667613092889
 22
-165.69859032799747
 32
0.0
 13
816.88667613092889
 23
-165.69859032799747
 33
0.0
  0
LINE
  5
3F
100
AcDbEntity
  8
____1
370
               5
390
0
  6
Continuous
 62
               7
100
AcDbLine
 10
819.88667613092889
 20
-166.44859032799747
 30
0.0
 11
816.88667613092889
 21
-166.44859032799747
 31
0.0
  0
SOLID
  5
40
100
AcDbEntity
  8
____1
370
               5
390
0
  6
Continuous
 62
               7
100
AcDbTrace
 10
826.38667613092889
 20
-167.19859032799747
 30
0.0
 11
826.38667613092889
 21
-167.19859032799747
 31
0.0
 12
823.38667613092889
 22
-166.44859032799747
 32
0.0
 13
825.63667613092889
 23
-166.44859032799747
 33
0.0
  0
SOLID
  5
41
100
AcDbEntity
  8
____1
370
               5
390
0
  6
Continuous
 62
               7
100
AcDbTrace
 10
823.38667613092889
 20
-166.44859032799747
 30
0.0
 11
825.63667613092889
 21
-166.44859032799747
 31
0.0
 12
826.38667613092889
 22
-165.69859032799747
 32
0.0
 13
826.38667613092889
 23
-165.69859032799747
 33
0.0
  0
LINE
  5
42
100
AcDbEntity
  8
____1
370
               5
390
0
  6
Continuous
 62
               7
100
AcDbLine
 10
823.38667613092889
 20
-166.44859032799747
 30
0.0
 11
833.53837390277079
 21
-166.44859032799747
 31
0.0
  0
MTEXT
  5
43
100
AcDbEntity
  8
寸法線_1
370
              18
390
0
  6
Continuous
 62
               7
100
AcDbMText
 10
826.48281855914286
 20
-161.9208126561835
 30
0.0
 40
3.5277776718139648
 41
5.3123370800167322
 71
               1
 72
               1
  1
3.5
  7
Style1
 73
               1
 44
1.0
  0
ENDBLK
  5
45
100
AcDbEntity
  8
0
390
0
100
AcDbBlockEnd
  0
BLOCK
  5
49
100
AcDbEntity
  8
0
390
0
100
AcDbBlockBegin
  2
*D1
 70
              65
 10
0.0
 20
0.0
 30
0.0
  3
*D1
  1

  0
LINE
  5
4A
100
AcDbEntity
  8
____1
370
               5
390
0
  6
Continuous
 62
               7
100
AcDbLine
 10
764.13667613092889
 20
-248.88173670609268
 30
0.0
 11
764.13667613092889
 21
-260.56935704479906
 31
0.0
  0
LINE
  5
4B
100
AcDbEntity
  8
____1
370
               5
390
0
  6
Continuous
 62
               7
100
AcDbLine
 10
825.63667613092889
 20
-248.88173670609268
 30
0.0
 11
825.63667613092889
 21
-260.56935704479906
 31
0.0
  0
SOLID
  5
4C
100
AcDbEntity
  8
____1
370
               5
390
0
  6
Continuous
 62
               7
100
AcDbTrace
 10
822.63667613092889
 20
-260.81935704479906
 30
0.0
 11
822.63667613092889
 21
-260.81935704479906
 31
0.0
 12
823.38667613092889
 22
-260.06935704479906
 32
0.0
 13
825.63667613092889
 23
-260.06935704479906
 33
0.0
  0
SOLID
  5
4D
100
AcDbEntity
  8
____1
370
               5
390
0
  6
Continuous
 62
               7
100
AcDbTrace
 10
823.38667613092889
 20
-260.06935704479906
 30
0.0
 11
825.63667613092889
 21
-260.06935704479906
 31
0.0
 12
822.63667613092889
 22
-259.31935704479906
 32
0.0
 13
822.63667613092889
 23
-259.31935704479906
 33
0.0
  0
LINE
  5
4E
100
AcDbEntity
  8
____1
370
               5
390
0
  6
Continuous
 62
               7
100
AcDbLine
 10
825.63667613092889
 20
-260.06935704479906
 30
0.0
 11
794.88667613092889
 21
-260.06935704479906
 31
0.0
  0
SOLID
  5
4F
100
AcDbEntity
  8
____1
370
               5
390
0
  6
Continuous
 62
               7
100
AcDbTrace
 10
767.13667613092889
 20
-260.81935704479906
 30
0.0
 11
767.13667613092889
 21
-260.81935704479906
 31
0.0
 12
764.13667613092889
 22
-260.06935704479906
 32
0.0
 13
766.38667613092889
 23
-260.06935704479906
 33
0.0
  0
SOLID
  5
50
100
AcDbEntity
  8
____1
370
               5
390
0
  6
Continuous
 62
               7
100
AcDbTrace
 10
764.13667613092889
 20
-260.06935704479906
 30
0.0
 11
766.38667613092889
 21
-260.06935704479906
 31
0.0
 12
767.13667613092889
 22
-259.31935704479906
 32
0.0
 13
767.13667613092889
 23
-259.31935704479906
 33
0.0
  0
LINE
  5
51
100
AcDbEntity
  8
____1
370
               5
390
0
  6
Continuous
 62
               7
100
AcDbLine
 10
764.13667613092889
 20
-260.06935704479906
 30
0.0
 11
794.88667613092889
 21
-260.06935704479906
 31
0.0
  0
MTEXT
  5
52
100
AcDbEntity
  8
寸法線_1
370
              18
390
0
  6
Continuous
 62
               7
100
AcDbMText
 10
791.35889845911493
 20
-255.5415793729851
 30
0.0
 40
3.5277776718139648
 41
7.0831161066889763
 71
               1
 72
               1
  1
61.5
  7
Style1
 73
               1
 44
1.0
  0
ENDBLK
  5
53
100
AcDbEntity
  8
0
390
0
100
AcDbBlockEnd
  0
BLOCK
  5
56
100
AcDbEntity
  8
0
390
0
100
AcDbBlockBegin
  2
*D2
 70
              65
 10
0.0
 20
0.0
 30
0.0
  3
*D2
  1

  0
LINE
  5
57
100
AcDbEntity
  8
____1
370
               5
390
0
  6
Continuous
 62
               7
100
AcDbLine
 10
831.63667613092889
 20
-175.26404277667308
 30
0.0
 11
831.63667613092889
 21
-180.26404277667325
 31
0.0
  0
LINE
  5
58
100
AcDbEntity
  8
____1
370
               5
390
0
  6
Continuous
 62
               7
100
AcDbLine
 10
822.63667613092889
 20
-180.26404277667325
 30
0.0
 11
832.13667613092889
 21
-180.26404277667325
 31
0.0
  0
LINE
  5
59
100
AcDbEntity
  8
____1
370
               5
390
0
  6
Continuous
 62
               7
100
AcDbLine
 10
822.63667613092889
 20
-175.26404277667308
 30
0.0
 11
832.13667613092889
 21
-175.26404277667308
 31
0.0
  0
SOLID
  5
5A
100
AcDbEntity
  8
____1
370
               5
390
0
  6
Continuous
 62
               7
100
AcDbTrace
 10
831.63667613092889
 20
-175.26404277667308
 30
0.0
 11
831.63667613092889
 21
-175.26404277667308
 31
0.0
 12
831.07417613092889
 22
-173.01404277667308
 32
0.0
 13
832.19917613092889
 23
-173.01404277667308
 33
0.0
  0
SOLID
  5
5B
100
AcDbEntity
  8
____1
370
               5
390
0
  6
Continuous
 62
               7
100
AcDbTrace
 10
831.07417613092889
 20
-173.01404277667308
 30
0.0
 11
831.63667613092889
 21
-173.01404277667308
 31
0.0
 12
830.88667613092889
 22
-172.26404277667308
 32
0.0
 13
830.88667613092889
 23
-172.26404277667308
 33
0.0
  0
SOLID
  5
5C
100
AcDbEntity
  8
____1
370
               5
390
0
  6
Continuous
 62
               7
100
AcDbTrace
 10
831.63667613092889
 20
-173.01404277667308
 30
0.0
 11
832.19917613092889
 21
-173.01404277667308
 31
0.0
 12
832.38667613092889
 22
-172.26404277667308
 32
0.0
 13
832.38667613092889
 23
-172.26404277667308
 33
0.0
  0
LINE
  5
5D
100
AcDbEntity
  8
____1
370
               5
390
0
  6
Continuous
 62
               7
100
AcDbLine
 10
831.63667613092889
 20
-175.26404277667308
 30
0.0
 11
831.63667613092889
 21
-172.26404277667308
 31
0.0
  0
SOLID
  5
5E
100
AcDbEntity
  8
____1
370
               5
390
0
  6
Continuous
 62
               7
100
AcDbTrace
 10
830.88667613092889
 20
-183.26404277667325
 30
0.0
 11
830.88667613092889
 21
-183.26404277667325
 31
0.0
 12
831.07417613092889
 22
-182.51404277667325
 32
0.0
 13
831.63667613092889
 23
-182.51404277667325
 33
0.0
  0
SOLID
  5
5F
100
AcDbEntity
  8
____1
370
               5
390
0
  6
Continuous
 62
               7
100
AcDbTrace
 10
832.38667613092889
 20
-183.26404277667325
 30
0.0
 11
832.38667613092889
 21
-183.26404277667325
 31
0.0
 12
831.63667613092889
 22
-182.51404277667325
 32
0.0
 13
832.19917613092889
 23
-182.51404277667325
 33
0.0
  0
SOLID
  5
60
100
AcDbEntity
  8
____1
370
               5
390
0
  6
Continuous
 62
               7
100
AcDbTrace
 10
831.07417613092889
 20
-182.51404277667325
 30
0.0
 11
832.19917613092889
 21
-182.51404277667325
 31
0.0
 12
831.63667613092889
 22
-180.26404277667325
 32
0.0
 13
831.63667613092889
 23
-180.26404277667325
 33
0.0
  0
LINE
  5
61
100
AcDbEntity
  8
____1
370
               5
390
0
  6
Continuous
 62
               7
100
AcDbLine
 10
831.63667613092889
 20
-180.26404277667325
 30
0.0
 11
831.63667613092889
 21
-183.26404277667325
 31
0.0
  0
MTEXT
  5
62
100
AcDbEntity
  8
寸法線_1
370
              18
390
0
  6
Continuous
 62
               7
100
AcDbMText
 10
827.10889845911493
 20
-178.64598719462657
 30
0.0
 40
3.5277776718139648
 41
1.7707790266722441
 71
               1
 72
               1
  1
5
  7
Style1
 11
0.0
 21
1.0
 31
0.0
 73
               1
 44
1.0
  0
ENDBLK
  5
63
100
AcDbEntity
  8
0
390
0
100
AcDbBlockEnd
  0
BLOCK
  5
66
100
AcDbEntity
  8
0
390
0
100
AcDbBlockBegin
  2
*D3
 70
              65
 10
0.0
 20
0.0
 30
0.0
  3
*D3
  1

  0
LINE
  5
67
100
AcDbEntity
  8
____1
370
               5
390
0
  6
Continuous
 62
               7
100
AcDbLine
 10
821.63667613092889
 20
-173.26404277667314
 30
0.0
 11
821.63667613092889
 21
-159.2894142980349
 31
0.0
  0
LINE
  5
68
100
AcDbEntity
  8
____1
370
               5
390
0
  6
Continuous
 62
               7
100
AcDbLine
 10
768.63667613092889
 20
-173.26404277667314
 30
0.0
 11
768.63667613092889
 21
-159.2894142980349
 31
0.0
  0
SOLID
  5
69
100
AcDbEntity
  8
____1
370
               5
390
0
  6
Continuous
 62
               7
100
AcDbTrace
 10
771.63667613092889
 20
-160.5394142980349
 30
0.0
 11
771.63667613092889
 21
-160.5394142980349
 31
0.0
 12
768.63667613092889
 22
-159.7894142980349
 32
0.0
 13
770.88667613092889
 23
-159.7894142980349
 33
0.0
  0
SOLID
  5
6A
100
AcDbEntity
  8
____1
370
               5
390
0
  6
Continuous
 62
               7
100
AcDbTrace
 10
768.63667613092889
 20
-159.7894142980349
 30
0.0
 11
770.88667613092889
 21
-159.7894142980349
 31
0.0
 12
771.63667613092889
 22
-159.0394142980349
 32
0.0
 13
771.63667613092889
 23
-159.0394142980349
 33
0.0
  0
LINE
  5
6B
100
AcDbEntity
  8
____1
370
               5
390
0
  6
Continuous
 62
               7
100
AcDbLine
 10
768.63667613092889
 20
-159.7894142980349
 30
0.0
 11
795.13667613092889
 21
-159.7894142980349
 31
0.0
  0
SOLID
  5
6C
100
AcDbEntity
  8
____1
370
               5
390
0
  6
Continuous
 62
               7
100
AcDbTrace
 10
818.63667613092889
 20
-160.5394142980349
 30
0.0
 11
818.63667613092889
 21
-160.5394142980349
 31
0.0
 12
819.38667613092889
 22
-159.7894142980349
 32
0.0
 13
821.63667613092889
 23
-159.7894142980349
 33
0.0
  0
SOLID
  5
6D
100
AcDbEntity
  8
____1
370
               5
390
0
  6
Continuous
 62
               7
100
AcDbTrace
 10
819.38667613092889
 20
-159.7894142980349
 30
0.0
 11
821.63667613092889
 21
-159.7894142980349
 31
0.0
 12
818.63667613092889
 22
-159.0394142980349
 32
0.0
 13
818.63667613092889
 23
-159.0394142980349
 33
0.0
  0
LINE
  5
6E
100
AcDbEntity
  8
____1
370
               5
390
0
  6
Continuous
 62
               7
100
AcDbLine
 10
821.63667613092889
 20
-159.7894142980349
 30
0.0
 11
795.13667613092889
 21
-159.7894142980349
 31
0.0
  0
MTEXT
  5
6F
100
AcDbEntity
  8
寸法線_1
370
              18
390
0
  6
Continuous
 62
               7
100
AcDbMText
 10
793.37278729502191
 20
-155.26163662622093
 30
0.0
 40
3.5277776718139648
 41
3.5415580533444881
 71
               1
 72
               1
  1
53
  7
Style1
 73
               1
 44
1.0
  0
ENDBLK
  5
70
100
AcDbEntity
  8
0
390
0
100
AcDbBlockEnd
  0
BLOCK
  5
73
100
AcDbEntity
  8
0
390
0
100
AcDbBlockBegin
  2
*D4
 70
              65
 10
0.0
 20
0.0
 30
0.0
  3
*D4
  1

  0
LINE
  5
74
100
AcDbEntity
  8
____1
370
               5
390
0
  6
Continuous
 62
               7
100
AcDbLine
 10
755.88667613092889
 20
-185.76404277667319
 30
0.0
 11
755.88667613092889
 21
-177.76404277667314
 31
0.0
  0
LINE
  5
75
100
AcDbEntity
  8
____1
370
               5
390
0
  6
Continuous
 62
               7
100
AcDbLine
 10
764.88667613092889
 20
-177.76404277667314
 30
0.0
 11
755.38667613092889
 21
-177.76404277667314
 31
0.0
  0
LINE
  5
76
100
AcDbEntity
  8
____1
370
               5
390
0
  6
Continuous
 62
               7
100
AcDbLine
 10
770.88667613092889
 20
-185.76404277667319
 30
0.0
 11
755.38667613092889
 21
-185.76404277667319
 31
0.0
  0
SOLID
  5
77
100
AcDbEntity
  8
____1
370
               5
390
0
  6
Continuous
 62
               7
100
AcDbTrace
 10
755.13667613092889
 20
-188.76404277667319
 30
0.0
 11
755.13667613092889
 21
-188.76404277667319
 31
0.0
 12
755.32417613092889
 22
-188.01404277667319
 32
0.0
 13
755.88667613092889
 23
-188.01404277667319
 33
0.0
  0
SOLID
  5
78
100
AcDbEntity
  8
____1
370
               5
390
0
  6
Continuous
 62
               7
100
AcDbTrace
 10
756.63667613092889
 20
-188.76404277667319
 30
0.0
 11
756.63667613092889
 21
-188.76404277667319
 31
0.0
 12
755.88667613092889
 22
-188.01404277667319
 32
0.0
 13
756.44917613092889
 23
-188.01404277667319
 33
0.0
  0
SOLID
  5
79
100
AcDbEntity
  8
____1
370
               5
390
0
  6
Continuous
 62
               7
100
AcDbTrace
 10
755.32417613092889
 20
-188.01404277667319
 30
0.0
 11
756.44917613092889
 21
-188.01404277667319
 31
0.0
 12
755.88667613092889
 22
-185.76404277667319
 32
0.0
 13
755.88667613092889
 23
-185.76404277667319
 33
0.0
  0
LINE
  5
7A
100
AcDbEntity
  8
____1
370
               5
390
0
  6
Continuous
 62
               7
100
AcDbLine
 10
755.88667613092889
 20
-185.76404277667319
 30
0.0
 11
755.88667613092889
 21
-188.76404277667319
 31
0.0
  0
SOLID
  5
7B
100
AcDbEntity
  8
____1
370
               5
390
0
  6
Continuous
 62
               7
100
AcDbTrace
 10
755.88667613092889
 20
-177.76404277667314
 30
0.0
 11
755.88667613092889
 21
-177.76404277667314
 31
0.0
 12
755.32417613092889
 22
-175.51404277667314
 32
0.0
 13
756.44917613092889
 23
-175.51404277667314
 33
0.0
  0
SOLID
  5
7C
100
AcDbEntity
  8
____1
370
               5
390
0
  6
Continuous
 62
               7
100
AcDbTrace
 10
755.32417613092889
 20
-175.51404277667314
 30
0.0
 11
755.88667613092889
 21
-175.51404277667314
 31
0.0
 12
755.13667613092889
 22
-174.76404277667314
 32
0.0
 13
755.13667613092889
 23
-174.76404277667314
 33
0.0
  0
SOLID
  5
7D
100
AcDbEntity
  8
____1
370
               5
390
0
  6
Continuous
 62
               7
100
AcDbTrace
 10
755.88667613092889
 20
-175.51404277667314
 30
0.0
 11
756.44917613092889
 21
-175.51404277667314
 31
0.0
 12
756.63667613092889
 22
-174.76404277667314
 32
0.0
 13
756.63667613092889
 23
-174.76404277667314
 33
0.0
  0
LINE
  5
7E
100
AcDbEntity
  8
____1
370
               5
390
0
  6
Continuous
 62
               7
100
AcDbLine
 10
755.88667613092889
 20
-177.76404277667314
 30
0.0
 11
755.88667613092889
 21
-174.76404277667314
 31
0.0
  0
MTEXT
  5
7F
100
AcDbEntity
  8
寸法線_1
370
               5
390
0
  6
CENTER2
 62
               7
100
AcDbMText
 10
751.35889845911493
 20
-182.64598719462666
 30
0.0
 40
3.5277776718139648
 41
1.7707790266722441
 71
               1
 72
               1
  1
8
  7
Style1
 11
0.0
 21
1.0
 31
0.0
 73
               1
 44
1.0
  0
ENDBLK
  5
80
100
AcDbEntity
  8
0
390
0
100
AcDbBlockEnd
  0
BLOCK
  5
83
100
AcDbEntity
  8
0
390
0
100
AcDbBlockBegin
  2
*D5
 70
              65
 10
0.0
 20
0.0
 30
0.0
  3
*D5
  1

  0
LINE
  5
84
100
AcDbEntity
  8
____1
370
               5
390
0
  6
Continuous
 62
               7
100
AcDbLine
 10
809.88667613092889
 20
-226.88173670609268
 30
0.0
 11
809.88667613092889
 21
-217.38173670609268
 31
0.0
  0
LINE
  5
85
100
AcDbEntity
  8
____1
370
               5
390
0
  6
Continuous
 62
               7
100
AcDbLine
 10
779.88667613092889
 20
-226.88173670609268
 30
0.0
 11
779.88667613092889
 21
-217.38173670609268
 31
0.0
  0
SOLID
  5
86
100
AcDbEntity
  8
____1
370
               5
390
0
  6
Continuous
 62
               7
100
AcDbTrace
 10
782.88667613092889
 20
-218.63173670609268
 30
0.0
 11
782.88667613092889
 21
-218.63173670609268
 31
0.0
 12
779.88667613092889
 22
-217.88173670609268
 32
0.0
 13
782.13667613092889
 23
-217.88173670609268
 33
0.0
  0
SOLID
  5
87
100
AcDbEntity
  8
____1
370
               5
390
0
  6
Continuous
 62
               7
100
AcDbTrace
 10
779.88667613092889
 20
-217.88173670609268
 30
0.0
 11
782.13667613092889
 21
-217.88173670609268
 31
0.0
 12
782.88667613092889
 22
-217.13173670609268
 32
0.0
 13
782.88667613092889
 23
-217.13173670609268
 33
0.0
  0
LINE
  5
88
100
AcDbEntity
  8
____1
370
               5
390
0
  6
Continuous
 62
               7
100
AcDbLine
 10
779.88667613092889
 20
-217.88173670609268
 30
0.0
 11
794.88667613092889
 21
-217.88173670609268
 31
0.0
  0
SOLID
  5
89
100
AcDbEntity
  8
____1
370
               5
390
0
  6
Continuous
 62
               7
100
AcDbTrace
 10
806.88667613092889
 20
-218.63173670609268
 30
0.0
 11
806.88667613092889
 21
-218.63173670609268
 31
0.0
 12
807.63667613092889
 22
-217.88173670609268
 32
0.0
 13
809.88667613092889
 23
-217.88173670609268
 33
0.0
  0
SOLID
  5
8A
100
AcDbEntity
  8
____1
370
               5
390
0
  6
Continuous
 62
               7
100
AcDbTrace
 10
807.63667613092889
 20
-217.88173670609268
 30
0.0
 11
809.88667613092889
 21
-217.88173670609268
 31
0.0
 12
806.88667613092889
 22
-217.13173670609268
 32
0.0
 13
806.88667613092889
 23
-217.13173670609268
 33
0.0
  0
LINE
  5
8B
100
AcDbEntity
  8
____1
370
               5
390
0
  6
Continuous
 62
               7
100
AcDbLine
 10
809.88667613092889
 20
-217.88173670609268
 30
0.0
 11
794.88667613092889
 21
-217.88173670609268
 31
0.0
  0
MTEXT
  5
8C
100
AcDbEntity
  8
寸法線_1
370
              18
390
0
  6
Continuous
 62
               7
100
AcDbMText
 10
793.12278729502191
 20
-213.35395903427872
 30
0.0
 40
3.5277776718139648
 41
3.5415580533444881
 71
               1
 72
               1
  1
30
  7
Style1
 73
               1
 44
1.0
  0
ENDBLK
  5
8D
100
AcDbEntity
  8
0
390
0
100
AcDbBlockEnd
  0
BLOCK
  5
90
100
AcDbEntity
  8
0
390
0
100
AcDbBlockBegin
  2
*D6
 70
              65
 10
0.0
 20
0.0
 30
0.0
  3
*D6
  1

  0
SOLID
  5
91
100
AcDbEntity
  8
____1
370
               5
390
0
  6
Continuous
 62
               7
100
AcDbTrace
 10
785.54353038042132
 20
-233.22488245660031
 30
0.0
 11
785.54353038042132
 21
-233.22488245660031
 31
0.0
 12
786.49812453502318
 22
-231.6338921989306
 32
0.0
 13
788.19518080987086
 23
-231.6338921989306
 33
0.0
  0
SOLID
  5
92
100
AcDbEntity
  8
____1
370
               5
390
0
  6
Continuous
 62
               7
100
AcDbTrace
 10
786.49812453502318
 20
-231.6338921989306
 30
0.0
 11
787.13452063809109
 21
-231.6338921989306
 31
0.0
 12
787.13452063809109
 22
-230.57323202715077
 32
0.0
 13
787.13452063809109
 23
-230.57323202715077
 33
0.0
  0
LINE
  5
93
100
AcDbEntity
  8
____1
370
               5
390
0
  6
Continuous
 62
               7
100
AcDbLine
 10
785.54353038042132
 20
-233.22488245660031
 30
0.0
 11
796.68776730254092
 21
-222.08064553448082
 31
0.0
  0
MTEXT
  5
94
100
AcDbEntity
  8
寸法線_1
370
              18
390
0
  6
Continuous
 62
               7
100
AcDbMText
 10
787.45805989978578
 20
-225.32351570301631
 30
0.0
 40
3.5277776718139648
 41
8.8538956120610237
 71
               1
 72
               1
  1
φ 16
  7
Style1
 11
0.7071067811865539
 21
0.707106781186541
 31
0.0
 73
               1
 44
1.0
  0
ENDBLK
  5
95
100
AcDbEntity
  8
0
390
0
100
AcDbBlockEnd
  0
BLOCK
  5
98
100
AcDbEntity
  8
0
390
0
100
AcDbBlockBegin
  2
*D7
 70
              65
 10
0.0
 20
0.0
 30
0.0
  3
*D7
  1

  0
LINE
  5
99
100
AcDbEntity
  8
____1
370
               5
390
0
  6
Continuous
 62
               7
100
AcDbLine
 10
879.34987952971937
 20
-220.88173670609268
 30
0.0
 11
894.84987952971937
 21
-220.88173670609268
 31
0.0
  0
LINE
  5
9A
100
AcDbEntity
  8
____1
370
               5
390
0
  6
Continuous
 62
               7
100
AcDbLine
 10
894.84987952971937
 20
-233.38173670609268
 30
0.0
 11
894.84987952971937
 21
-220.38173670609268
 31
0.0
  0
LINE
  5
9B
100
AcDbEntity
  8
____1
370
               5
390
0
  6
Continuous
 62
               7
100
AcDbLine
 10
879.34987952971937
 20
-229.88173670609268
 30
0.0
 11
879.34987952971937
 21
-220.38173670609268
 31
0.0
  0
SOLID
  5
9C
100
AcDbEntity
  8
____1
370
               5
390
0
  6
Continuous
 62
               7
100
AcDbTrace
 10
876.34987952971937
 20
-221.63173670609268
 30
0.0
 11
876.34987952971937
 21
-221.63173670609268
 31
0.0
 12
877.09987952971937
 22
-220.88173670609268
 32
0.0
 13
879.34987952971937
 23
-220.88173670609268
 33
0.0
  0
SOLID
  5
9D
100
AcDbEntity
  8
____1
370
               5
390
0
  6
Continuous
 62
               7
100
AcDbTrace
 10
877.09987952971937
 20
-220.88173670609268
 30
0.0
 11
879.34987952971937
 21
-220.88173670609268
 31
0.0
 12
876.34987952971937
 22
-220.13173670609268
 32
0.0
 13
876.34987952971937
 23
-220.13173670609268
 33
0.0
  0
LINE
  5
9E
100
AcDbEntity
  8
____1
370
               5
390
0
  6
Continuous
 62
               7
100
AcDbLine
 10
879.34987952971937
 20
-220.88173670609268
 30
0.0
 11
876.34987952971937
 21
-220.88173670609268
 31
0.0
  0
SOLID
  5
9F
100
AcDbEntity
  8
____1
370
               5
390
0
  6
Continuous
 62
               7
100
AcDbTrace
 10
897.84987952971937
 20
-221.63173670609268
 30
0.0
 11
897.84987952971937
 21
-221.63173670609268
 31
0.0
 12
894.84987952971937
 22
-220.88173670609268
 32
0.0
 13
897.09987952971937
 23
-220.88173670609268
 33
0.0
  0
SOLID
  5
A0
100
AcDbEntity
  8
____1
370
               5
390
0
  6
Continuous
 62
               7
100
AcDbTrace
 10
894.84987952971937
 20
-220.88173670609268
 30
0.0
 11
897.09987952971937
 21
-220.88173670609268
 31
0.0
 12
897.84987952971937
 22
-220.13173670609268
 32
0.0
 13
897.84987952971937
 23
-220.13173670609268
 33
0.0
  0
LINE
  5
A1
100
AcDbEntity
  8
____1
370
               5
390
0
  6
Continuous
 62
               7
100
AcDbLine
 10
894.84987952971937
 20
-220.88173670609268
 30
0.0
 11
897.84987952971937
 21
-220.88173670609268
 31
0.0
  0
MTEXT
  5
A2
100
AcDbEntity
  8
寸法線_1
370
              18
390
0
  6
Continuous
 62
               7
100
AcDbMText
 10
883.57210185790541
 20
-216.35395903427872
 30
0.0
 40
3.5277776718139648
 41
7.0831161066889763
 71
               1
 72
               1
  1
15.5
  7
Style1
 73
               1
 44
1.0
  0
ENDBLK
  5
A3
100
AcDbEntity
  8
0
390
0
100
AcDbBlockEnd
  0
BLOCK
  5
A6
100
AcDbEntity
  8
0
390
0
100
AcDbBlockBegin
  2
*D8
 70
              65
 10
0.0
 20
0.0
 30
0.0
  3
*D8
  1

  0
LINE
  5
A7
100
AcDbEntity
  8
____1
370
               5
390
0
  6
Continuous
 62
               7
100
AcDbLine
 10
878.84987952971937
 20
-220.88173670609268
 30
0.0
 11
879.34987952971937
 21
-220.88173670609268
 31
0.0
  0
LINE
  5
A8
100
AcDbEntity
  8
____1
370
               5
390
0
  6
Continuous
 62
               7
100
AcDbLine
 10
879.34987952971937
 20
-229.88173670609268
 30
0.0
 11
879.34987952971937
 21
-220.38173670609268
 31
0.0
  0
LINE
  5
A9
100
AcDbEntity
  8
____1
370
               5
390
0
  6
Continuous
 62
               7
100
AcDbLine
 10
878.84987952971937
 20
-233.88173670609268
 30
0.0
 11
878.84987952971937
 21
-220.38173670609268
 31
0.0
  0
SOLID
  5
AA
100
AcDbEntity
  8
____1
370
               5
390
0
  6
Continuous
 62
               7
100
AcDbTrace
 10
875.84987952971937
 20
-221.63173670609268
 30
0.0
 11
875.84987952971937
 21
-221.63173670609268
 31
0.0
 12
876.59987952971937
 22
-220.88173670609268
 32
0.0
 13
878.84987952971937
 23
-220.88173670609268
 33
0.0
  0
SOLID
  5
AB
100
AcDbEntity
  8
____1
370
               5
390
0
  6
Continuous
 62
               7
100
AcDbTrace
 10
876.59987952971937
 20
-220.88173670609268
 30
0.0
 11
878.84987952971937
 21
-220.88173670609268
 31
0.0
 12
875.84987952971937
 22
-220.13173670609268
 32
0.0
 13
875.84987952971937
 23
-220.13173670609268
 33
0.0
  0
LINE
  5
AC
100
AcDbEntity
  8
____1
370
               5
390
0
  6
Continuous
 62
               7
100
AcDbLine
 10
878.84987952971937
 20
-220.88173670609268
 30
0.0
 11
865.03121828093538
 21
-220.88173670609268
 31
0.0
  0
SOLID
  5
AD
100
AcDbEntity
  8
____1
370
               5
390
0
  6
Continuous
 62
               7
100
AcDbTrace
 10
882.34987952971937
 20
-221.63173670609268
 30
0.0
 11
882.34987952971937
 21
-221.63173670609268
 31
0.0
 12
879.34987952971937
 22
-220.88173670609268
 32
0.0
 13
881.59987952971937
 23
-220.88173670609268
 33
0.0
  0
SOLID
  5
AE
100
AcDbEntity
  8
____1
370
               5
390
0
  6
Continuous
 62
               7
100
AcDbTrace
 10
879.34987952971937
 20
-220.88173670609268
 30
0.0
 11
881.59987952971937
 21
-220.88173670609268
 31
0.0
 12
882.34987952971937
 22
-220.13173670609268
 32
0.0
 13
882.34987952971937
 23
-220.13173670609268
 33
0.0
  0
LINE
  5
AF
100
AcDbEntity
  8
____1
370
               5
390
0
  6
Continuous
 62
               7
100
AcDbLine
 10
879.34987952971937
 20
-220.88173670609268
 30
0.0
 11
882.34987952971937
 21
-220.88173670609268
 31
0.0
  0
MTEXT
  5
B0
100
AcDbEntity
  8
寸法線_1
370
              18
390
0
  6
Continuous
 62
               7
100
AcDbMText
 10
866.79510711684236
 20
-216.35395903427872
 30
0.0
 40
3.5277776718139648
 41
8.8538956120610237
 71
               1
 72
               1
  1
(0.5)
  7
Style1
 73
               1
 44
1.0
  0
ENDBLK
  5
B1
100
AcDbEntity
  8
0
390
0
100
AcDbBlockEnd
  0
BLOCK
  5
CB
100
AcDbEntity
  8
0
390
0
100
AcDbBlockBegin
  2
*D9
 70
              65
 10
0.0
 20
0.0
 30
0.0
  3
*D9
  1

  0
LINE
  5
CC
100
AcDbEntity
  8
____1
370
               5
390
0
  6
Continuous
 62
               7
100
AcDbLine
 10
902.34987952971937
 20
-245.38173670609268
 30
0.0
 11
902.34987952971937
 21
-247.88173670609268
 31
0.0
  0
LINE
  5
CD
100
AcDbEntity
  8
____1
370
               5
390
0
  6
Continuous
 62
               7
100
AcDbLine
 10
893.34987952971937
 20
-247.88173670609268
 30
0.0
 11
902.84987952971937
 21
-247.88173670609268
 31
0.0
  0
LINE
  5
CE
100
AcDbEntity
  8
____1
370
               5
390
0
  6
Continuous
 62
               7
100
AcDbLine
 10
893.34987952971937
 20
-245.38173670609268
 30
0.0
 11
902.84987952971937
 21
-245.38173670609268
 31
0.0
  0
SOLID
  5
CF
100
AcDbEntity
  8
____1
370
               5
390
0
  6
Continuous
 62
               7
100
AcDbTrace
 10
902.34987952971937
 20
-245.38173670609268
 30
0.0
 11
902.34987952971937
 21
-245.38173670609268
 31
0.0
 12
901.78737952971937
 22
-243.13173670609268
 32
0.0
 13
902.91237952971937
 23
-243.13173670609268
 33
0.0
  0
SOLID
  5
D0
100
AcDbEntity
  8
____1
370
               5
390
0
  6
Continuous
 62
               7
100
AcDbTrace
 10
901.78737952971937
 20
-243.13173670609268
 30
0.0
 11
902.34987952971937
 21
-243.13173670609268
 31
0.0
 12
901.59987952971937
 22
-242.38173670609268
 32
0.0
 13
901.59987952971937
 23
-242.38173670609268
 33
0.0
  0
SOLID
  5
D1
100
AcDbEntity
  8
____1
370
               5
390
0
  6
Continuous
 62
               7
100
AcDbTrace
 10
902.34987952971937
 20
-243.13173670609268
 30
0.0
 11
902.91237952971937
 21
-243.13173670609268
 31
0.0
 12
903.09987952971937
 22
-242.38173670609268
 32
0.0
 13
903.09987952971937
 23
-242.38173670609268
 33
0.0
  0
LINE
  5
D2
100
AcDbEntity
  8
____1
370
               5
390
0
  6
Continuous
 62
               7
100
AcDbLine
 10
902.34987952971937
 20
-245.38173670609268
 30
0.0
 11
902.34987952971937
 21
-242.38173670609268
 31
0.0
  0
SOLID
  5
D3
100
AcDbEntity
  8
____1
370
               5
390
0
  6
Continuous
 62
               7
100
AcDbTrace
 10
901.59987952971937
 20
-250.88173670609268
 30
0.0
 11
901.59987952971937
 21
-250.88173670609268
 31
0.0
 12
901.78737952971937
 22
-250.13173670609268
 32
0.0
 13
902.34987952971937
 23
-250.13173670609268
 33
0.0
  0
SOLID
  5
D4
100
AcDbEntity
  8
____1
370
               5
390
0
  6
Continuous
 62
               7
100
AcDbTrace
 10
903.09987952971937
 20
-250.88173670609268
 30
0.0
 11
903.09987952971937
 21
-250.88173670609268
 31
0.0
 12
902.34987952971937
 22
-250.13173670609268
 32
0.0
 13
902.91237952971937
 23
-250.13173670609268
 33
0.0
  0
SOLID
  5
D5
100
AcDbEntity
  8
____1
370
               5
390
0
  6
Continuous
 62
               7
100
AcDbTrace
 10
901.78737952971937
 20
-250.13173670609268
 30
0.0
 11
902.91237952971937
 21
-250.13173670609268
 31
0.0
 12
902.34987952971937
 22
-247.88173670609268
 32
0.0
 13
902.34987952971937
 23
-247.88173670609268
 33
0.0
  0
LINE
  5
D6
100
AcDbEntity
  8
____1
370
               5
390
0
  6
Continuous
 62
               7
100
AcDbLine
 10
902.34987952971937
 20
-247.88173670609268
 30
0.0
 11
902.34987952971937
 21
-258.25062095346055
 31
0.0
  0
MTEXT
  5
D7
100
AcDbEntity
  8
寸法線_1
370
               5
390
0
  6
CENTER2
 62
               7
100
AcDbMText
 10
897.82210185790541
 20
-256.48673211755357
 30
0.0
 40
3.5277776718139648
 41
5.3123370800167322
 71
               1
 72
               1
  1
2.5
  7
Style1
 11
0.0
 21
1.0
 31
0.0
 73
               1
 44
1.0
  0
ENDBLK
  5
D8
100
AcDbEntity
  8
0
390
0
100
AcDbBlockEnd
  0
BLOCK
  5
DB
100
AcDbEntity
  8
0
390
0
100
AcDbBlockBegin
  2
*D10
 70
              65
 10
0.0
 20
0.0
 30
0.0
  3
*D10
  1

  0
LINE
  5
DC
100
AcDbEntity
  8
____1
370
               5
390
0
  6
Continuous
 62
               7
100
AcDbLine
 10
826.63667613092889
 20
-247.88173670609268
 30
0.0
 11
836.13667613092889
 21
-247.88173670609268
 31
0.0
  0
LINE
  5
DD
100
AcDbEntity
  8
____1
370
               5
390
0
  6
Continuous
 62
               7
100
AcDbLine
 10
810.88667613092889
 20
-230.88173670609268
 30
0.0
 11
836.13667613092889
 21
-230.88173670609268
 31
0.0
  0
SOLID
  5
DE
100
AcDbEntity
  8
____1
370
               5
390
0
  6
Continuous
 62
               7
100
AcDbTrace
 10
834.88667613092889
 20
-233.88173670609268
 30
0.0
 11
834.88667613092889
 21
-233.88173670609268
 31
0.0
 12
835.07417613092889
 22
-233.13173670609268
 32
0.0
 13
835.63667613092889
 23
-233.13173670609268
 33
0.0
  0
SOLID
  5
DF
100
AcDbEntity
  8
____1
370
               5
390
0
  6
Continuous
 62
               7
100
AcDbTrace
 10
836.38667613092889
 20
-233.88173670609268
 30
0.0
 11
836.38667613092889
 21
-233.88173670609268
 31
0.0
 12
835.63667613092889
 22
-233.13173670609268
 32
0.0
 13
836.19917613092889
 23
-233.13173670609268
 33
0.0
  0
SOLID
  5
E0
100
AcDbEntity
  8
____1
370
               5
390
0
  6
Continuous
 62
               7
100
AcDbTrace
 10
835.07417613092889
 20
-233.13173670609268
 30
0.0
 11
836.19917613092889
 21
-233.13173670609268
 31
0.0
 12
835.63667613092889
 22
-230.88173670609268
 32
0.0
 13
835.63667613092889
 23
-230.88173670609268
 33
0.0
  0
LINE
  5
E1
100
AcDbEntity
  8
____1
370
               5
390
0
  6
Continuous
 62
               7
100
AcDbLine
 10
835.63667613092889
 20
-230.88173670609268
 30
0.0
 11
835.63667613092889
 21
-239.38173670609268
 31
0.0
  0
SOLID
  5
E2
100
AcDbEntity
  8
____1
370
               5
390
0
  6
Continuous
 62
               7
100
AcDbTrace
 10
835.63667613092889
 20
-247.88173670609268
 30
0.0
 11
835.63667613092889
 21
-247.88173670609268
 31
0.0
 12
835.07417613092889
 22
-245.63173670609268
 32
0.0
 13
836.19917613092889
 23
-245.63173670609268
 33
0.0
  0
SOLID
  5
E3
100
AcDbEntity
  8
____1
370
               5
390
0
  6
Continuous
 62
               7
100
AcDbTrace
 10
835.07417613092889
 20
-245.63173670609268
 30
0.0
 11
835.63667613092889
 21
-245.63173670609268
 31
0.0
 12
834.88667613092889
 22
-244.88173670609268
 32
0.0
 13
834.88667613092889
 23
-244.88173670609268
 33
0.0
  0
SOLID
  5
E4
100
AcDbEntity
  8
____1
370
               5
390
0
  6
Continuous
 62
               7
100
AcDbTrace
 10
835.63667613092889
 20
-245.63173670609268
 30
0.0
 11
836.19917613092889
 21
-245.63173670609268
 31
0.0
 12
836.38667613092889
 22
-244.88173670609268
 32
0.0
 13
836.38667613092889
 23
-244.88173670609268
 33
0.0
  0
LINE
  5
E5
100
AcDbEntity
  8
____1
370
               5
390
0
  6
Continuous
 62
               7
100
AcDbLine
 10
835.63667613092889
 20
-247.88173670609268
 30
0.0
 11
835.63667613092889
 21
-239.38173670609268
 31
0.0
  0
MTEXT
  5
E6
100
AcDbEntity
  8
寸法線_1
370
              18
390
0
  6
Continuous
 62
               7
100
AcDbMText
 10
831.10889845911493
 20
-241.14562554199966
 30
0.0
 40
3.5277776718139648
 41
3.5415580533444881
 71
               1
 72
               1
  1
17
  7
Style1
 11
0.0
 21
1.0
 31
0.0
 73
               1
 44
1.0
  0
ENDBLK
  5
E7
100
AcDbEntity
  8
0
390
0
100
AcDbBlockEnd
  0
BLOCK
  5
1C0
100
AcDbEntity
  8
0
390
0
100
AcDbBlockBegin
  2
C0
 70
              64
 10
0.0
 20
0.0
 30
0.0
  3
C0
  1

  0
LINE
  5
1C1
100
AcDbEntity
  8
____1
370
              18
390
0
  6
Continuous
 62
               5
100
AcDbLine
 10
886.6273907448865
 20
-134.56852894694759
 30
0.0
 11
891.57739074488632
 21
-134.56852894694759
 31
0.0
  0
MTEXT
  5
1C2
100
AcDbEntity
  8
____1
370
               5
390
0
  6
Continuous
 62
               7
100
AcDbMText
 10
887.51964772009637
 20
-131.5187129571313
 30
0.0
 40
2.9266439437866216
 41
3.1654860495798762
 71
               1
 72
               1
  1
1
  7
Style1
 73
               1
 44
1.0
  0
LINE
  5
1C3
100
AcDbEntity
  8
____1
370
              18
390
0
  6
Continuous
 62
               5
100
AcDbLine
 10
889.10239074488641
 20
-130.28170319821464
 30
0.0
 11
886.6273907448865
 21
-134.56852894694759
 31
0.0
  0
LINE
  5
1C4
100
AcDbEntity
  8
____1
370
              18
390
0
  6
Continuous
 62
               5
100
AcDbLine
 10
889.10239074488641
 20
-130.28170319821464
 30
0.0
 11
891.57739074488632
 21
-134.56852894694759
 31
0.0
  0
ENDBLK
  5
1C5
100
AcDbEntity
  8
0
390
0
100
AcDbBlockEnd
  0
BLOCK
  5
1D3
100
AcDbEntity
  8
0
390
0
100
AcDbBlockBegin
  2
*D12
 70
              65
 10
0.0
 20
0.0
 30
0.0
  3
*D12
  1

  0
SOLID
  5
1D4
100
AcDbEntity
  8
____1
370
               5
390
0
  6
Continuous
 62
               7
100
AcDbTrace
 10
917.56870111478986
 20
-168.39561269753989
 30
0.0
 11
917.56870111478986
 21
-168.39561269753989
 31
0.0
 12
918.52329526939172
 22
-166.80462243987017
 32
0.0
 13
920.22035154423941
 23
-166.80462243987017
 33
0.0
  0
SOLID
  5
1D5
100
AcDbEntity
  8
____1
370
               5
390
0
  6
Continuous
 62
               7
100
AcDbTrace
 10
918.52329526939172
 20
-166.80462243987017
 30
0.0
 11
919.15969137245963
 21
-166.80462243987014
 31
0.0
 12
919.15969137245963
 22
-165.74396226809034
 32
0.0
 13
919.15969137245963
 23
-165.74396226809034
 33
0.0
  0
LINE
  5
1D6
100
AcDbEntity
  8
____1
370
               5
390
0
  6
Continuous
 62
               7
100
AcDbLine
 10
917.56870111478986
 20
-168.39561269753989
 30
0.0
 11
930.15056964396513
 21
-155.81374416836462
 31
0.0
  0
MTEXT
  5
1D7
100
AcDbEntity
  8
寸法線_1
370
               5
390
0
  6
CENTER2
 62
               7
100
AcDbMText
 10
920.92086224120999
 20
-159.05661433690025
 30
0.0
 40
3.5277776718139648
 41
8.8538956120610237
 71
               1
 72
               1
  1
φ 16
  7
Style1
 11
0.707106781186546
 21
0.7071067811865492
 31
0.0
 73
               1
 44
1.0
  0
ENDBLK
  5
1D8
100
AcDbEntity
  8
0
390
0
100
AcDbBlockEnd
  0
ENDSEC
  0
SECTION
  2
ENTITIES
  0
DIMENSION
  5
46
100
AcDbEntity
  8
寸法線_1
370
               5
390
0
  6
Continuous
 62
               7
100
AcDbDimension
  2
*D0
 10
823.38667613092889
 20
-166.44859032799747
 30
0.0
 11
829.12865181300333
 21
-166.44859032799747
 31
0.0
 71
               5
 72
               1
 41
1.0
 42
0.0
  3
DS1
100
AcDbAlignedDimension
 13
819.88667613092889
 23
-176.01404277667308
 33
0.0
 14
823.38667613092889
 24
-176.01404277667308
 34
0.0
100
AcDbRotatedDimension
  0
DIMENSION
  5
54
100
AcDbEntity
  8
寸法線_1
370
               5
390
0
  6
Continuous
 62
               7
100
AcDbDimension
  2
*D1
 10
764.13667613092889
 20
-260.06935704479906
 30
0.0
 11
794.88667613092889
 21
-260.06935704479906
 31
0.0
 71
               5
 72
               1
 41
1.0
 42
0.0
  3
DS1
100
AcDbAlignedDimension
 13
825.63667613092889
 23
-247.88173670609268
 33
0.0
 14
764.13667613092889
 24
-247.88173670609268
 34
0.0
 50
180.0
100
AcDbRotatedDimension
  0
DIMENSION
  5
64
100
AcDbEntity
  8
寸法線_1
370
               5
390
0
  6
Continuous
 62
               7
100
AcDbDimension
  2
*D2
 10
831.63667613092889
 20
-180.26404277667325
 30
0.0
 11
831.63667613092889
 21
-177.76404277667308
 31
0.0
 71
               5
 72
               1
 41
1.0
 42
0.0
  3
DS1
100
AcDbAlignedDimension
 13
821.63667613092889
 23
-175.26404277667308
 33
0.0
 14
821.63667613092889
 24
-180.26404277667325
 34
0.0
 50
90.0
100
AcDbRotatedDimension
  0
DIMENSION
  5
71
100
AcDbEntity
  8
寸法線_1
370
               5
390
0
  6
Continuous
 62
               7
100
AcDbDimension
  2
*D3
 10
821.63667613092889
 20
-159.7894142980349
 30
0.0
 11
795.13667613092889
 21
-159.7894142980349
 31
0.0
 71
               5
 72
               1
 41
1.0
 42
0.0
  3
DS1
100
AcDbAlignedDimension
 13
768.63667613092889
 23
-174.26404277667314
 33
0.0
 14
821.63667613092889
 24
-174.26404277667314
 34
0.0
100
AcDbRotatedDimension
  0
DIMENSION
  5
81
100
AcDbEntity
  8
寸法線_1
370
               5
390
0
  6
Continuous
 62
               7
100
AcDbDimension
  2
*D4
 10
755.88667613092889
 20
-177.76404277667314
 30
0.0
 11
755.88667613092889
 21
-181.76404277667316
 31
0.0
 71
               5
 72
               1
 41
1.0
 42
0.0
  3
DS1
100
AcDbAlignedDimension
 13
771.88667613092889
 23
-185.76404277667319
 33
0.0
 14
765.88667613092889
 24
-177.76404277667314
 34
0.0
 50
90.0
100
AcDbRotatedDimension
  0
DIMENSION
  5
8E
100
AcDbEntity
  8
寸法線_1
370
               5
390
0
  6
Continuous
 62
               7
100
AcDbDimension
  2
*D5
 10
809.88667613092889
 20
-217.88173670609268
 30
0.0
 11
794.88667613092889
 21
-217.88173670609268
 31
0.0
 71
               5
 72
               1
 41
1.0
 42
0.0
  3
DS1
100
AcDbAlignedDimension
 13
779.88667613092889
 23
-227.88173670609268
 33
0.0
 14
809.88667613092889
 24
-227.88173670609268
 34
0.0
100
AcDbRotatedDimension
  0
DIMENSION
  5
96
100
AcDbEntity
  8
寸法線_1
370
               5
390
0
  6
Continuous
 62
               7
100
AcDbDimension
  2
*D6
 10
774.22982188143646
 20
-244.53859095558505
 30
0.0
 11
804.65447131364886
 21
-225.19878992730344
 31
0.0
 70
             131
 71
               5
 72
               1
 41
1.0
 42
0.0
  3
DS1
100
AcDbDiametricDimension
 15
785.54353038042132
 25
-233.22488245660031
 35
0.0
 40
0.0
  0
DIMENSION
  5
A4
100
AcDbEntity
  8
寸法線_1
370
               5
390
0
  6
Continuous
 62
               7
100
AcDbDimension
  2
*D7
 10
894.84987952971937
 20
-220.88173670609268
 30
0.0
 11
887.09987952971937
 21
-220.88173670609268
 31
0.0
 71
               5
 72
               1
 41
1.0
 42
0.0
  3
DS1
100
AcDbAlignedDimension
 13
879.34987952971937
 23
-230.88173670609268
 33
0.0
 14
894.84987952971937
 24
-234.38173670609268
 34
0.0
100
AcDbRotatedDimension
  0
DIMENSION
  5
B2
100
AcDbEntity
  8
寸法線_1
370
               5
390
0
  6
Continuous
 62
               7
100
AcDbDimension
  2
*D8
 10
879.34987952971937
 20
-220.88173670609268
 30
0.0
 11
871.20482920660982
 21
-220.88173670609268
 31
0.0
 71
               5
 72
               1
 41
1.0
 42
0.0
  3
DS1
100
AcDbAlignedDimension
 13
878.84987952971937
 23
-234.88173670609268
 33
0.0
 14
879.34987952971937
 24
-230.88173670609268
 34
0.0
100
AcDbRotatedDimension
  0
LINE
  5
B3
100
AcDbEntity
  8
____1
370
              18
390
0
  6
Continuous
 62
               5
100
AcDbLine
 10
906.48634846403388
 20
-309.23118232444062
 30
0.0
 11
906.48634846403388
 21
-310.67118232444057
 31
0.0
  0
LINE
  5
B4
100
AcDbEntity
  8
____1
370
              18
390
0
  6
Continuous
 62
               5
100
AcDbLine
 10
894.18387749692226
 20
-311.07118232444054
 30
0.0
 11
894.18387749692226
 21
-310.67118232444057
 31
0.0
  0
LINE
  5
B5
100
AcDbEntity
  8
____1
370
              18
390
0
  6
Continuous
 62
               5
100
AcDbLine
 10
897.51236234540704
 20
-309.72887053842567
 30
0.0
 11
900.71236234540697
 21
-309.72887053842567
 31
0.0
  0
LINE
  5
B6
100
AcDbEntity
  8
____1
370
              18
390
0
  6
Continuous
 62
               5
100
AcDbLine
 10
901.14141233875614
 20
-310.68643904852854
 30
0.0
 11
900.94893569370288
 21
-310.89902973697167
 31
0.0
  0
ARC
  5
B7
100
AcDbEntity
  8
____1
370
              18
390
0
  6
Continuous
 62
               5
100
AcDbCircle
 10
890.98387749692233
 20
-311.07118232444054
 30
0.0
 40
1.1999999999999318
210
0.0
220
0.0
230
0.9999999999999999
100
AcDbArc
 50
-90.0
 51
0.0
  0
LINE
  5
B8
100
AcDbEntity
  8
____1
370
              18
390
0
  6
Continuous
 62
               5
100
AcDbLine
 10
892.18387749692226
 20
-307.87118232444061
 30
0.0
 11
892.18387749692226
 21
-309.47118232444063
 31
0.0
  0
LINE
  5
B9
100
AcDbEntity
  8
____1
370
              18
390
0
  6
Continuous
 62
               5
100
AcDbLine
 10
911.16550121219609
 20
-310.67118232444057
 30
0.0
 11
913.68634846403393
 21
-310.67118232444057
 31
0.0
  0
LINE
  5
BA
100
AcDbEntity
  8
____1
370
              18
390
0
  6
Continuous
 62
               5
100
AcDbLine
 10
903.91236234540702
 20
-309.07118232444054
 30
0.0
 11
904.71236234540697
 21
-307.87118232444061
 31
0.0
  0
LINE
  5
BB
100
AcDbEntity
  8
____1
370
              18
390
0
  6
Continuous
 62
               5
100
AcDbLine
 10
909.09541513070053
 20
-311.31118232444055
 30
0.0
 11
908.9076817973671
 21
-310.67118232444057
 31
0.0
  0
LINE
  5
BC
100
AcDbEntity
  8
____1
370
              18
390
0
  6
Continuous
 62
               5
100
AcDbLine
 10
894.18387749692226
 20
-309.07118232444054
 30
0.0
 11
895.38387749692231
 21
-307.87118232444061
 31
0.0
  0
LINE
  5
BD
100
AcDbEntity
  8
____1
370
              18
390
0
  6
Continuous
 62
               5
100
AcDbLine
 10
888.58387749692224
 20
-311.87118232444061
 30
0.0
 11
890.58387749692224
 21
-311.87118232444061
 31
0.0
  0
LINE
  5
BE
100
AcDbEntity
  8
____1
370
              18
390
0
  6
Continuous
 62
               5
100
AcDbLine
 10
974.38667613092889
 20
-314.99932069795091
 30
0.0
 11
974.38667613092889
 21
-124.99932069795091
 31
0.0
  0
LINE
  5
BF
100
AcDbEntity
  8
____1
370
              18
390
0
  6
Continuous
 62
               5
100
AcDbLine
 10
699.38667613092889
 20
-314.99932069795091
 30
0.0
 11
699.38667613092889
 21
-124.99932069795091
 31
0.0
  0
LINE
  5
C0
100
AcDbEntity
  8
____1
370
              18
390
0
  6
Continuous
 62
               5
100
AcDbLine
 10
699.38667613092889
 20
-124.99932069795088
 30
0.0
 11
974.38667613092889
 21
-124.99932069795088
 31
0.0
  0
LINE
  5
C1
100
AcDbEntity
  8
____1
370
              18
390
0
  6
Continuous
 62
               5
100
AcDbLine
 10
699.38667613092889
 20
-314.99932069795091
 30
0.0
 11
974.38667613092889
 21
-314.99932069795091
 31
0.0
  0
LINE
  5
C2
100
AcDbEntity
  8
____1
370
              18
390
0
  6
Continuous
 62
               5
100
AcDbLine
 10
904.71236234540697
 20
-307.87118232444061
 30
0.0
 11
897.51236234540704
 21
-307.87118232444061
 31
0.0
  0
LINE
  5
C3
100
AcDbEntity
  8
____1
370
              18
390
0
  6
Continuous
 62
               5
100
AcDbLine
 10
910.75111994886925
 20
-309.23118232444062
 30
0.0
 11
910.63400454868997
 21
-308.8241992120669
 31
0.0
  0
LINE
  5
C4
100
AcDbEntity
  8
____1
370
              18
390
0
  6
Continuous
 62
               5
100
AcDbLine
 10
906.48634846403388
 20
-312.75118232444061
 30
0.0
 11
909.51781513070057
 21
-312.75118232444061
 31
0.0
  0
ARC
  5
C5
100
AcDbEntity
  8
____1
370
              18
390
0
  6
Continuous
 62
               5
100
AcDbCircle
 10
899.51236234540704
 20
-309.07118232444054
 30
0.0
 40
4.3999999999999773
210
0.0
220
0.0
230
1.0
100
AcDbArc
 50
-37.512388020300733
 51
0.0
  0
MTEXT
  5
C6
100
AcDbEntity
  8
____1
370
               5
390
0
  6
Continuous
 62
               7
100
AcDbMText
 10
914.66031421620198
 20
-279.07746670250356
 30
0.0
 40
4.2333331108093262
 41
50.0
 71
               1
 72
               1
  1
本体ビス：＋ 3.1x13\P受板ビス：2.4x13
  7
Style1
 73
               1
 44
1.0
  0
MTEXT
  5
C7
100
AcDbEntity
  8
____1
370
               5
390
0
  6
Continuous
 62
               7
100
AcDbMText
 10
929.25149718659736
 20
-298.71567556918637
 30
0.0
 40
3.5277776718139648
 41
43.655084411985797
 71
               1
 72
               1
  1
ねじ止め式\Pマグネットチャッチ(丸型 )
  7
Style1
 73
               1
 44
1.0
  0
MTEXT
  5
C8
100
AcDbEntity
  8
____1
370
               5
390
0
  6
Continuous
 62
               7
100
AcDbMText
 10
940.22047686705844
 20
-291.51336199368353
 30
0.0
 40
4.2333331108093262
 41
14.5
 71
               1
 72
               1
  1
２５Ｗ
  7
Style1
 73
               1
 44
1.0
  0
CIRCLE
  5
C9
100
AcDbEntity
  8
____1
370
              18
390
0
  6
Continuous
 62
               5
100
AcDbCircle
 10
937.84965367362599
 20
-281.19630250735952
 30
0.0
 40
2.2500000000000324
  0
DIMENSION
  5
D9
100
AcDbEntity
  8
寸法線_1
370
               5
390
0
  6
Continuous
 62
               7
100
AcDbDimension
  2
*D9
 10
902.34987952971937
 20
-247.88173670609268
 30
0.0
 11
902.34987952971937
 21
-253.8408988636931
 31
0.0
 71
               5
 72
               1
 41
1.0
 42
0.0
  3
DS1
100
AcDbAlignedDimension
 13
892.34987952971937
 23
-245.38173670609268
 33
0.0
 14
892.34987952971937
 24
-247.88173670609268
 34
0.0
 50
90.0
100
AcDbRotatedDimension
  0
DIMENSION
  5
E8
100
AcDbEntity
  8
寸法線_1
370
               5
390
0
  6
Continuous
 62
               7
100
AcDbDimension
  2
*D10
 10
835.63667613092889
 20
-247.88173670609268
 30
0.0
 11
835.63667613092889
 21
-239.38173670609268
 31
0.0
 71
               5
 72
               1
 41
1.0
 42
0.0
  3
DS1
100
AcDbAlignedDimension
 13
809.88667613092889
 23
-230.88173670609268
 33
0.0
 14
825.63667613092889
 24
-247.88173670609268
 34
0.0
 50
90.0
100
AcDbRotatedDimension
  0
LINE
  5
E9
100
AcDbEntity
  8
____1
370
              18
390
0
  6
Continuous
 62
               5
100
AcDbLine
 10
895.38387749692231
 20
-309.47118232444063
 30
0.0
 11
894.18387749692226
 21
-309.47118232444063
 31
0.0
  0
LINE
  5
EA
100
AcDbEntity
  8
____1
370
              18
390
0
  6
Continuous
 62
               5
100
AcDbLine
 10
906.48634846403388
 20
-311.31118232444055
 30
0.0
 11
909.09541513070053
 21
-311.31118232444055
 31
0.0
  0
LINE
  5
EB
100
AcDbEntity
  8
____1
370
              18
390
0
  6
Continuous
 62
               5
100
AcDbLine
 10
887.66299444767969
 20
-310.67118232444057
 30
0.0
 11
888.46299444767976
 21
-310.67118232444057
 31
0.0
  0
ARC
  5
EC
100
AcDbEntity
  8
____1
370
              18
390
0
  6
Continuous
 62
               5
100
AcDbCircle
 10
899.51236234540704
 20
-309.07118232444054
 30
0.0
 40
4.4000000000000465
210
0.0
220
0.0
230
1.0
100
AcDbArc
 50
-90.0
 51
-57.455041145955242
  0
LINE
  5
ED
100
AcDbEntity
  8
____1
370
              18
390
0
  6
Continuous
 62
               5
100
AcDbLine
 10
894.18387749692226
 20
-310.67118232444057
 30
0.0
 11
895.38387749692231
 21
-310.67118232444057
 31
0.0
  0
ARC
  5
EE
100
AcDbEntity
  8
____1
370
              18
390
0
  6
Continuous
 62
               5
100
AcDbCircle
 10
898.47236234540708
 20
-309.23118232444062
 30
0.0
 40
3.0399999999998646
210
0.0
220
0.0
230
1.0
100
AcDbArc
 50
-28.600718616740252
 51
-1.5079577542375149
  0
LINE
  5
EF
100
AcDbEntity
  8
____1
370
              18
390
0
  6
Continuous
 62
               5
100
AcDbLine
 10
897.51236234540704
 20
-313.47118232444063
 30
0.0
 11
899.51236234540715
 21
-313.47118232444063
 31
0.0
  0
LINE
  5
F0
100
AcDbEntity
  8
____1
370
              18
390
0
  6
Continuous
 62
               5
100
AcDbLine
 10
888.58387749692224
 20
-313.47118232444063
 30
0.0
 11
891.78387749692229
 21
-313.47118232444063
 31
0.0
  0
LINE
  5
F1
100
AcDbEntity
  8
____1
370
              18
390
0
  6
Continuous
 62
               5
100
AcDbLine
 10
903.91236234540702
 20
-309.07118232444054
 30
0.0
 11
904.71236234540697
 21
-307.87118232444061
 31
0.0
  0
LINE
  5
F2
100
AcDbEntity
  8
____1
370
              18
390
0
  6
Continuous
 62
               5
100
AcDbLine
 10
908.08634846403379
 20
-307.87118232444061
 30
0.0
 11
911.28634846403384
 21
-307.87118232444061
 31
0.0
  0
LINE
  5
F3
100
AcDbEntity
  8
____1
370
              18
390
0
  6
Continuous
 62
               5
100
AcDbLine
 10
897.51236234540704
 20
-312.27118232444059
 30
0.0
 11
898.47236234540708
 21
-312.27118232444059
 31
0.0
  0
LINE
  5
F4
100
AcDbEntity
  8
____1
370
              18
390
0
  6
Continuous
 62
               5
100
AcDbLine
 10
897.51236234540704
 20
-312.27118232444059
 30
0.0
 11
897.51236234540704
 21
-313.47118232444063
 31
0.0
  0
ARC
  5
F5
100
AcDbEntity
  8
____1
370
              18
390
0
  6
Continuous
 62
               5
100
AcDbCircle
 10
898.47236234540708
 20
-309.23118232444062
 30
0.0
 40
3.0399999999999827
210
0.0
220
0.0
230
1.0
100
AcDbArc
 50
-90.0
 51
-61.914095184792608
  0
LINE
  5
F6
100
AcDbEntity
  8
____1
370
              18
390
0
  6
Continuous
 62
               5
100
AcDbLine
 10
903.00253782707716
 20
-311.75048729161949
 30
0.0
 11
902.86005617924332
 21
-311.88998980697102
 31
0.0
  0
LINE
  5
F7
100
AcDbEntity
  8
____1
370
              18
390
0
  6
Continuous
 62
               5
100
AcDbLine
 10
888.58387749692224
 20
-310.67118232444057
 30
0.0
 11
888.58387749692224
 21
-311.87118232444061
 31
0.0
  0
MTEXT
  5
F8
100
AcDbEntity
  8
____1
370
               5
390
0
  6
Continuous
 62
               7
100
AcDbMText
 10
861.60722985571169
 20
-308.19265403128423
 30
0.0
 40
5.0799999237060547
 41
24.996311053240746
 71
               1
 72
               1
  1
株式会社
  7
Style1
 73
               1
 44
1.0
  0
LINE
  5
F9
100
AcDbEntity
  8
____1
370
              18
390
0
  6
Continuous
 62
               5
100
AcDbLine
 10
910.75111994886925
 20
-309.23118232444062
 30
0.0
 11
913.68634846403393
 21
-309.23118232444062
 31
0.0
  0
LINE
  5
FA
100
AcDbEntity
  8
____1
370
              18
390
0
  6
Continuous
 62
               5
100
AcDbLine
 10
908.48528179736718
 20
-309.23118232444062
 30
0.0
 11
908.08634846403379
 21
-307.87118232444061
 31
0.0
  0
LINE
  5
FB
100
AcDbEntity
  8
____1
370
              18
390
0
  6
Continuous
 62
               5
100
AcDbLine
 10
888.58387749692224
 20
-307.87118232444061
 30
0.0
 11
888.58387749692224
 21
-309.47118232444063
 31
0.0
  0
LINE
  5
FC
100
AcDbEntity
  8
____1
370
               5
390
0
  6
Continuous
 62
               7
100
AcDbLine
 10
854.38667613092889
 20
-289.49932069795091
 30
0.0
 11
854.38667613092889
 21
-314.99932069795091
 31
0.0
  0
LINE
  5
FD
100
AcDbEntity
  8
____1
370
               5
390
0
  6
Continuous
 62
               7
100
AcDbLine
 10
918.38667613092889
 20
-289.49932069795091
 30
0.0
 11
918.38667613092889
 21
-314.99932069795091
 31
0.0
  0
LINE
  5
FE
100
AcDbEntity
  8
____1
370
               5
390
0
  6
Continuous
 62
               7
100
AcDbLine
 10
854.38667613092889
 20
-289.49932069795091
 30
0.0
 11
974.38667613092889
 21
-289.49932069795091
 31
0.0
  0
LINE
  5
FF
100
AcDbEntity
  8
____1
370
               5
390
0
  6
Continuous
 62
               7
100
AcDbLine
 10
854.38667613092889
 20
-306.49932069795091
 30
0.0
 11
974.38667613092889
 21
-306.49932069795091
 31
0.0
  0
LINE
  5
100
100
AcDbEntity
  8
____1
370
               5
390
0
  6
Continuous
 62
               7
100
AcDbLine
 10
870.38667613092889
 20
-289.49932069795091
 30
0.0
 11
870.38667613092889
 21
-297.99932069795091
 31
0.0
  0
LINE
  5
101
100
AcDbEntity
  8
____1
370
               5
390
0
  6
Continuous
 62
               7
100
AcDbLine
 10
902.38667613092889
 20
-289.49932069795091
 30
0.0
 11
902.38667613092889
 21
-306.49932069795091
 31
0.0
  0
LINE
  5
102
100
AcDbEntity
  8
____1
370
              18
390
0
  6
Continuous
 62
               5
100
AcDbLine
 10
895.38387749692231
 20
-307.87118232444061
 30
0.0
 11
892.18387749692226
 21
-307.87118232444061
 31
0.0
  0
LINE
  5
103
100
AcDbEntity
  8
____1
370
              18
390
0
  6
Continuous
 62
               5
100
AcDbLine
 10
911.76405192589073
 20
-312.75118232444061
 30
0.0
 11
913.68634846403393
 21
-312.75118232444061
 31
0.0
  0
LINE
  5
104
100
AcDbEntity
  8
____1
370
              18
390
0
  6
Continuous
 62
               5
100
AcDbLine
 10
890.58387749692224
 20
-311.87118232444061
 30
0.0
 11
890.58387749692224
 21
-310.67118232444057
 31
0.0
  0
LINE
  5
105
100
AcDbEntity
  8
____1
370
              18
390
0
  6
Continuous
 62
               5
100
AcDbLine
 10
906.48634846403388
 20
-311.31118232444055
 30
0.0
 11
906.48634846403388
 21
-312.75118232444061
 31
0.0
  0
LINE
  5
106
100
AcDbEntity
  8
____1
370
              18
390
0
  6
Continuous
 62
               5
100
AcDbLine
 10
906.48634846403388
 20
-310.67118232444057
 30
0.0
 11
908.9076817973671
 21
-310.67118232444057
 31
0.0
  0
LINE
  5
107
100
AcDbEntity
  8
____1
370
              18
390
0
  6
Continuous
 62
               5
100
AcDbLine
 10
913.68634846403393
 20
-309.23118232444062
 30
0.0
 11
913.68634846403393
 21
-310.67118232444057
 31
0.0
  0
LINE
  5
108
100
AcDbEntity
  8
____1
370
              18
390
0
  6
Continuous
 62
               5
100
AcDbLine
 10
897.51236234540704
 20
-309.31118232444055
 30
0.0
 11
901.51236234540704
 21
-309.31118232444055
 31
0.0
  0
LINE
  5
109
100
AcDbEntity
  8
____1
370
              18
390
0
  6
Continuous
 62
               5
100
AcDbLine
 10
890.98387749692233
 20
-312.27118232444059
 30
0.0
 11
888.58387749692224
 21
-312.27118232444059
 31
0.0
  0
LINE
  5
10A
100
AcDbEntity
  8
____1
370
              18
390
0
  6
Continuous
 62
               5
100
AcDbLine
 10
909.84634846403389
 20
-313.87118232444061
 30
0.0
 11
909.51781513070057
 21
-312.75118232444061
 31
0.0
  0
LINE
  5
10B
100
AcDbEntity
  8
____1
370
              18
390
0
  6
Continuous
 62
               5
100
AcDbLine
 10
911.34967066256354
 20
-311.31118232444055
 30
0.0
 11
911.16550121219609
 21
-310.67118232444057
 31
0.0
  0
LINE
  5
10C
100
AcDbEntity
  8
____1
370
              18
390
0
  6
Continuous
 62
               5
100
AcDbLine
 10
888.58387749692224
 20
-312.27118232444059
 30
0.0
 11
888.58387749692224
 21
-313.47118232444063
 31
0.0
  0
LINE
  5
10D
100
AcDbEntity
  8
____1
370
              18
390
0
  6
Continuous
 62
               5
100
AcDbLine
 10
888.58387749692224
 20
-310.67118232444057
 30
0.0
 11
888.46299444767976
 21
-310.67118232444057
 31
0.0
  0
LINE
  5
10E
100
AcDbEntity
  8
____1
370
              18
390
0
  6
Continuous
 62
               5
100
AcDbLine
 10
904.71236234540697
 20
-312.27118232444059
 30
0.0
 11
904.71236234540697
 21
-313.47118232444063
 31
0.0
  0
LINE
  5
10F
100
AcDbEntity
  8
____1
370
              18
390
0
  6
Continuous
 62
               5
100
AcDbLine
 10
913.68634846403393
 20
-311.31118232444055
 30
0.0
 11
913.68634846403393
 21
-312.75118232444061
 31
0.0
  0
LINE
  5
110
100
AcDbEntity
  8
____1
370
              18
390
0
  6
Continuous
 62
               5
100
AcDbLine
 10
888.58387749692224
 20
-309.47118232444063
 30
0.0
 11
887.66299444767969
 21
-309.47118232444063
 31
0.0
  0
LINE
  5
111
100
AcDbEntity
  8
____1
370
              18
390
0
  6
Continuous
 62
               5
100
AcDbLine
 10
897.51236234540704
 20
-313.47118232444063
 30
0.0
 11
897.51236234540704
 21
-312.27118232444059
 31
0.0
  0
LINE
  5
112
100
AcDbEntity
  8
____1
370
              18
390
0
  6
Continuous
 62
               5
100
AcDbLine
 10
890.58387749692224
 20
-309.47118232444063
 30
0.0
 11
890.58387749692224
 21
-309.07118232444054
 31
0.0
  0
LINE
  5
113
100
AcDbEntity
  8
____1
370
              18
390
0
  6
Continuous
 62
               5
100
AcDbLine
 10
909.84634846403389
 20
-313.87118232444061
 30
0.0
 11
912.08634846403379
 21
-313.87118232444061
 31
0.0
  0
LINE
  5
114
100
AcDbEntity
  8
____1
370
              18
390
0
  6
Continuous
 62
               5
100
AcDbLine
 10
895.38387749692231
 20
-309.47118232444063
 30
0.0
 11
895.38387749692231
 21
-310.67118232444057
 31
0.0
  0
LINE
  5
115
100
AcDbEntity
  8
____1
370
              18
390
0
  6
Continuous
 62
               5
100
AcDbLine
 10
911.34967066256354
 20
-311.31118232444055
 30
0.0
 11
913.68634846403393
 21
-311.31118232444055
 31
0.0
  0
LINE
  5
116
100
AcDbEntity
  8
____1
370
              18
390
0
  6
Continuous
 62
               5
100
AcDbLine
 10
912.08634846403379
 20
-313.87118232444061
 30
0.0
 11
911.76405192589073
 21
-312.75118232444061
 31
0.0
  0
LINE
  5
117
100
AcDbEntity
  8
____1
370
              18
390
0
  6
Continuous
 62
               5
100
AcDbLine
 10
890.58387749692224
 20
-310.67118232444057
 30
0.0
 11
892.18387749692226
 21
-310.67118232444057
 31
0.0
  0
LINE
  5
118
100
AcDbEntity
  8
____1
370
              18
390
0
  6
Continuous
 62
               5
100
AcDbLine
 10
892.18387749692226
 20
-310.67118232444057
 30
0.0
 11
892.18387749692226
 21
-311.07118232444054
 31
0.0
  0
LINE
  5
119
100
AcDbEntity
  8
____1
370
              18
390
0
  6
Continuous
 62
               5
100
AcDbLine
 10
906.48634846403388
 20
-309.23118232444062
 30
0.0
 11
908.48528179736718
 21
-309.23118232444062
 31
0.0
  0
LINE
  5
11A
100
AcDbEntity
  8
____1
370
              18
390
0
  6
Continuous
 62
               5
100
AcDbLine
 10
894.18387749692226
 20
-309.47118232444063
 30
0.0
 11
894.18387749692226
 21
-309.07118232444054
 31
0.0
  0
LINE
  5
11B
100
AcDbEntity
  8
____1
370
               5
390
0
  6
Continuous
 62
               7
100
AcDbLine
 10
872.38667613092912
 20
-293.74932069795091
 30
0.0
 11
884.38667613092912
 21
-293.74932069795091
 31
0.0
  0
LINE
  5
11C
100
AcDbEntity
  8
____1
370
               5
390
0
  6
Continuous
 62
               7
100
AcDbLine
 10
856.38667613092889
 20
-302.24932069795091
 30
0.0
 11
884.38667613092889
 21
-302.24932069795091
 31
0.0
  0
LINE
  5
11D
100
AcDbEntity
  8
____1
370
               5
390
0
  6
Continuous
 62
               7
100
AcDbLine
 10
888.38667613092889
 20
-293.74932069795091
 30
0.0
 11
900.38667613092889
 21
-293.74932069795091
 31
0.0
  0
LINE
  5
11E
100
AcDbEntity
  8
____1
370
               5
390
0
  6
Continuous
 62
               7
100
AcDbLine
 10
888.38667613092889
 20
-302.24932069795091
 30
0.0
 11
900.38667613092889
 21
-302.24932069795091
 31
0.0
  0
MTEXT
  5
11F
100
AcDbEntity
  8
____1
370
               5
390
0
  6
Continuous
 62
               7
100
AcDbMText
 10
854.38667613092889
 20
-298.70485410530773
 30
0.0
 40
2.75
 41
32.0
 71
               1
 72
               1
  1
 設計　　 白須賀
  7
Style1
 73
               1
 44
1.0
  0
MTEXT
  5
120
100
AcDbEntity
  8
____1
370
               5
390
0
  6
Continuous
 62
               7
100
AcDbMText
 10
854.38667613092889
 20
-302.95485410530773
 30
0.0
 40
2.75
 41
32.0
 71
               1
 72
               1
  1
 製図　　  岸本
  7
Style1
 73
               1
 44
1.0
  0
MTEXT
  5
121
100
AcDbEntity
  8
____1
370
               5
390
0
  6
Continuous
 62
               7
100
AcDbMText
 10
854.85206194220586
 20
-290.20485410530773
 30
0.0
 40
2.75
 41
15.0
 71
               1
 72
               1
  1
　日 　付
  7
Style1
 73
               1
 44
1.0
  0
MTEXT
  5
122
100
AcDbEntity
  8
____1
370
               5
390
0
  6
Continuous
 62
               7
100
AcDbMText
 10
919.27717558463712
 20
-290.18782097279768
 30
0.0
 40
2.75
 41
6.0
 71
               1
 72
               1
  1
型番
  7
Style1
 73
               1
 44
1.0
  0
MTEXT
  5
123
100
AcDbEntity
  8
____1
370
               5
390
0
  6
Continuous
 62
               7
100
AcDbMText
 10
919.27717558463712
 20
-298.68782097279768
 30
0.0
 40
2.75
 41
6.0
 71
               1
 72
               1
  1
品名
  7
Style1
 73
               1
 44
1.0
  0
MTEXT
  5
124
100
AcDbEntity
  8
____1
370
               5
390
0
  6
Continuous
 62
               7
100
AcDbMText
 10
919.27717558463712
 20
-307.18782097279768
 30
0.0
 40
2.75
 41
6.0
 71
               1
 72
               1
  1
図番
  7
Style1
 73
               1
 44
1.0
  0
MTEXT
  5
125
100
AcDbEntity
  8
____1
370
              18
390
0
  6
Continuous
 62
               5
100
AcDbMText
 10
854.38667613092889
 20
-294.45485410530773
 30
0.0
 40
2.75
 41
16.0
 71
               1
 72
               1
  1
H16.4
  7
Style1
 73
               1
 44
1.0
  0
MTEXT
  5
126
100
AcDbEntity
  8
____1
370
              18
390
0
  6
Continuous
 62
               5
100
AcDbMText
 10
886.38667613092889
 20
-302.95485410530773
 30
0.0
 40
2.75
 41
16.0
 71
               1
 72
               1
  1
1：1
  7
Style1
 73
               1
 44
1.0
  0
MTEXT
  5
127
100
AcDbEntity
  8
____1
370
               5
390
0
  6
Continuous
 62
               7
100
AcDbMText
 10
870.85206194220586
 20
-290.20485410530773
 30
0.0
 40
2.75
 41
15.0
 71
               1
 72
               1
  1
　材 　質
  7
Style1
 73
               1
 44
1.0
  0
MTEXT
  5
128
100
AcDbEntity
  8
____1
370
               5
390
0
  6
Continuous
 62
               7
100
AcDbMText
 10
886.85206194220586
 20
-290.20485410530773
 30
0.0
 40
2.75
 41
15.0
 71
               1
 72
               1
  1
　板 　厚
  7
Style1
 73
               1
 44
1.0
  0
MTEXT
  5
129
100
AcDbEntity
  8
____1
370
               5
390
0
  6
Continuous
 62
               7
100
AcDbMText
 10
886.85206194220586
 20
-298.70485410530773
 30
0.0
 40
2.75
 41
15.0
 71
               1
 72
               1
  1
　尺 　度
  7
Style1
 73
               1
 44
1.0
  0
MTEXT
  5
12A
100
AcDbEntity
  8
____1
370
               5
390
0
  6
Continuous
 62
               7
100
AcDbMText
 10
902.85206194220586
 20
-290.20485410530773
 30
0.0
 40
2.75
 41
15.0
 71
               1
 72
               1
  1
　検 　印
  7
Style1
 73
               1
 44
1.0
  0
LINE
  5
12B
100
AcDbEntity
  8
____1
370
               5
390
0
  6
Continuous
 62
               7
100
AcDbLine
 10
854.38667613092889
 20
-297.99932069795091
 30
0.0
 11
902.38667613092889
 21
-297.99932069795091
 31
0.0
  0
LINE
  5
12C
100
AcDbEntity
  8
____1
370
               5
390
0
  6
Continuous
 62
               7
100
AcDbLine
 10
918.38667613092889
 20
-297.99932069795091
 30
0.0
 11
974.38667613092889
 21
-297.99932069795091
 31
0.0
  0
LINE
  5
12D
100
AcDbEntity
  8
____1
370
               5
390
0
  6
Continuous
 62
               7
100
AcDbLine
 10
902.38667613092889
 20
-293.74932069795091
 30
0.0
 11
918.38667613092889
 21
-293.74932069795091
 31
0.0
  0
LINE
  5
12E
100
AcDbEntity
  8
____1
370
              18
390
0
  6
Continuous
 62
               5
100
AcDbLine
 10
890.58387749692224
 20
-309.07118232444054
 30
0.0
 11
891.78387749692229
 21
-307.87118232444061
 31
0.0
  0
LINE
  5
12F
100
AcDbEntity
  8
____1
370
              18
390
0
  6
Continuous
 62
               5
100
AcDbLine
 10
891.78387749692229
 20
-307.87118232444061
 30
0.0
 11
888.58387749692224
 21
-307.87118232444061
 31
0.0
  0
LINE
  5
130
100
AcDbEntity
  8
____1
370
              18
390
0
  6
Continuous
 62
               5
100
AcDbLine
 10
892.18387749692226
 20
-309.47118232444063
 30
0.0
 11
890.58387749692224
 21
-309.47118232444063
 31
0.0
  0
LINE
  5
131
100
AcDbEntity
  8
____1
370
              18
390
0
  6
Continuous
 62
               5
100
AcDbLine
 10
910.63400454868997
 20
-308.8241992120669
 30
0.0
 11
911.28634846403384
 21
-307.87118232444061
 31
0.0
  0
ARC
  5
132
100
AcDbEntity
  8
____1
370
              18
390
0
  6
Continuous
 62
               5
100
AcDbCircle
 10
891.78387749692229
 20
-311.07118232444054
 30
0.0
 40
2.3999999999999773
210
0.0
220
0.0
230
1.0
100
AcDbArc
 50
-90.0
 51
0.0
  0
LINE
  5
133
100
AcDbEntity
  8
____1
370
              18
390
0
  6
Continuous
 62
               5
100
AcDbLine
 10
897.51236234540704
 20
-307.87118232444061
 30
0.0
 11
897.51236234540704
 21
-309.31118232444055
 31
0.0
  0
LINE
  5
134
100
AcDbEntity
  8
____1
370
              18
390
0
  6
Continuous
 62
               5
100
AcDbLine
 10
892.34987952971937
 20
-230.88173670609268
 30
0.0
 11
892.34987952971937
 21
-247.88173670609268
 31
0.0
  0
LINE
  5
135
100
AcDbEntity
  8
____1
370
              18
390
0
  6
Continuous
 62
               5
100
AcDbLine
 10
892.34987952971937
 20
-244.88173670609268
 30
0.0
 11
893.84987952971937
 21
-244.88173670609268
 31
0.0
  0
LINE
  5
136
100
AcDbEntity
  8
____1
370
              18
390
0
  6
Continuous
 62
               5
100
AcDbLine
 10
894.84987952971937
 20
-243.38173670609268
 30
0.0
 11
893.84987952971937
 21
-244.88173670609268
 31
0.0
  0
LINE
  5
137
100
AcDbEntity
  8
____1
370
              18
390
0
  6
Continuous
 62
               5
100
AcDbLine
 10
894.84987952971937
 20
-234.38173670609268
 30
0.0
 11
894.84987952971937
 21
-243.38173670609268
 31
0.0
  0
ARC
  5
138
100
AcDbEntity
  8
____1
370
              18
390
0
  6
Continuous
 62
               5
100
AcDbCircle
 10
891.34987952971937
 20
-246.38173670609268
 30
0.0
 40
1.0
210
0.0
220
0.0
230
1.0
100
AcDbArc
 50
0.0
 51
90.0
  0
LINE
  5
139
100
AcDbEntity
  8
____1
370
              18
390
0
  6
Continuous
 62
               5
100
AcDbLine
 10
882.34987952971937
 20
-245.38173670609268
 30
0.0
 11
891.34987952971937
 21
-245.38173670609268
 31
0.0
  0
LINE
  5
13A
100
AcDbEntity
  8
____1
370
              18
390
0
  6
Continuous
 62
               5
100
AcDbLine
 10
825.40751431905937
 20
-245.10443987528504
 30
0.0
 11
816.05338163597321
 21
-233.78548875156221
 31
0.0
  0
LINE
  5
13B
100
AcDbEntity
  8
____1
370
              18
390
0
  6
Continuous
 62
               5
100
AcDbLine
 10
764.36583794279841
 20
-245.10443987528504
 30
0.0
 11
773.71997062588457
 21
-233.78548875156221
 31
0.0
  0
CIRCLE
  5
13C
100
AcDbEntity
  8
____1
370
              18
390
0
  6
Continuous
 62
               5
100
AcDbCircle
 10
779.88667613092889
 20
-238.88173670609268
 30
0.0
 40
7.9999999999999263
  0
LINE
  5
13D
100
AcDbEntity
  8
____1
370
               5
390
0
  6
CENTER2
 62
               3
100
AcDbLine
 10
779.88667613092889
 20
-227.88173670609268
 30
0.0
 11
779.88667613092889
 21
-250.88173670609268
 31
0.0
  0
CIRCLE
  5
13E
100
AcDbEntity
  8
____1
370
              18
390
0
  6
Continuous
 62
               5
100
AcDbCircle
 10
809.88667613092889
 20
-238.88173670609268
 30
0.0
 40
7.9999999999999263
210
0.0
220
0.0
230
1.0
  0
LINE
  5
13F
100
AcDbEntity
  8
____1
370
               5
390
0
  6
CENTER2
 62
               3
100
AcDbLine
 10
809.88667613092889
 20
-227.88173670609268
 30
0.0
 11
809.88667613092889
 21
-250.88173670609268
 31
0.0
  0
ARC
  5
140
100
AcDbEntity
  8
____1
370
              18
390
0
  6
Continuous
 62
               5
100
AcDbCircle
 10
824.63667613092889
 20
-245.74147086960133
 30
0.0
 40
0.9999999999999442
210
0.0
220
0.0
230
1.0
100
AcDbArc
 50
0.0
 51
39.570782809548945
  0
LINE
  5
141
100
AcDbEntity
  8
____1
370
              18
390
0
  6
Continuous
 62
               5
100
AcDbLine
 10
825.63667613092889
 20
-245.74147086960133
 30
0.0
 11
825.63667613092889
 21
-247.88173670609268
 31
0.0
  0
ARC
  5
142
100
AcDbEntity
  8
____1
370
              18
390
0
  6
Continuous
 62
               5
100
AcDbCircle
 10
765.13667613092889
 20
-245.74147086960133
 30
0.0
 40
0.9999999999999442
100
AcDbArc
 50
140.42921719045106
 51
180.0
  0
LINE
  5
143
100
AcDbEntity
  8
____1
370
              18
390
0
  6
Continuous
 62
               5
100
AcDbLine
 10
764.13667613092889
 20
-245.74147086960133
 30
0.0
 11
764.13667613092889
 21
-247.88173670609268
 31
0.0
  0
SPLINE
  5
144
100
AcDbEntity
  8
____1
370
              18
390
0
  6
Continuous
 62
               5
100
AcDbSpline
210
0.0
220
0.0
230
1.0
 70
               0
 71
               3
 72
               8
 73
               4
 74
               0
 42
0.0000001
 43
0.0000001
 12
0.9524773181045301
 22
-0.3046095180660017
 32
0.0
 13
0.9790669434801461
 23
-0.2035384980401604
 33
0.0
 40
0.0
 40
0.0
 40
0.0
 40
0.0
 40
1.0
 40
1.0
 40
1.0
 40
1.0
 10
901.87939178068734
 20
-312.78024846735536
 30
0.0
 10
902.79066080960695
 20
-313.07167925993326
 30
0.0
 10
903.75151157750702
 20
-313.27143079218695
 30
0.0
 10
904.71236234540697
 20
-313.47118232444063
 30
0.0
  0
SPLINE
  5
145
100
AcDbEntity
  8
____1
370
              18
390
0
  6
Continuous
 62
               5
100
AcDbSpline
210
0.0
220
0.0
230
1.0
 70
               0
 71
               3
 72
               9
 73
               5
 74
               0
 42
0.0000001
 43
0.0000001
 12
0.7352773642103068
 22
-0.6777663297036403
 32
0.0
 13
0.8572557179984813
 23
-0.5148908951990783
 33
0.0
 40
0.0
 40
0.0
 40
0.0
 40
0.0
 40
0.9999999993702069
 40
1.0
 40
1.0
 40
1.0
 40
1.0
 10
897.51236234540704
 20
-309.9865587524107
 30
0.0
 10
898.27604602810061
 20
-310.69050954957652
 30
0.0
 10
899.03972971127519
 20
-311.3944603471856
 30
0.0
 10
899.90357871252547
 20
-311.91320016873465
 30
0.0
 10
899.90357871306946
 20
-311.91320016906138
 30
0.0
  0
SPLINE
  5
146
100
AcDbEntity
  8
____1
370
              18
390
0
  6
Continuous
 62
               5
100
AcDbSpline
210
0.0
220
0.0
230
1.0
 70
               0
 71
               3
 72
               8
 73
               4
 74
               0
 42
0.0000001
 43
0.0000001
 12
0.9618578240638687
 22
-0.2735498606965832
 32
0.0
 13
0.9860364361538176
 23
-0.1665297167987696
 33
0.0
 40
0.0
 40
0.0
 40
0.0
 40
0.0
 40
1.0
 40
1.0
 40
1.0
 40
1.0
 10
902.86005617924332
 20
-311.88998980697102
 30
0.0
 10
903.45187158206704
 20
-312.05830056657635
 30
0.0
 10
904.08211696373689
 20
-312.16474144550853
 30
0.0
 10
904.71236234540697
 20
-312.27118232444059
 30
0.0
  0
SPLINE
  5
147
100
AcDbEntity
  8
____1
370
              18
390
0
  6
Continuous
 62
               5
100
AcDbSpline
210
0.0
220
0.0
230
1.0
 70
               0
 71
               3
 72
               8
 73
               4
 74
               0
 42
0.0000001
 43
0.0000001
 12
0.667672669572085
 22
-0.7444549726521311
 32
0.0
 13
0.7413159697197119
 23
-0.6711561912390611
 33
0.0
 40
0.0
 40
0.0
 40
0.0
 40
0.0
 40
1.0
 40
1.0
 40
1.0
 40
1.0
 10
900.25981400544765
 20
-310.1814188783851
 30
0.0
 10
900.48331194729872
 20
-310.43061906549951
 30
0.0
 10
900.70680988914989
 20
-310.67981925261392
 30
0.0
 10
900.94893569370288
 20
-310.89902973697178
 30
0.0
  0
LINE
  5
148
100
AcDbEntity
  8
____1
370
              18
390
0
  6
Continuous
 62
               5
100
AcDbLine
 10
887.66299444767969
 20
-309.47118232444063
 30
0.0
 11
887.66299444767969
 21
-310.67118232444057
 31
0.0
  0
LINE
  5
149
100
AcDbEntity
  8
____1
370
              18
390
0
  6
Continuous
 62
               5
100
AcDbLine
 10
897.51236234540704
 20
-309.9865587524107
 30
0.0
 11
897.51236234540704
 21
-309.72887053842567
 31
0.0
  0
LINE
  5
14A
100
AcDbEntity
  8
____1
370
              18
390
0
  6
Continuous
 62
               5
100
AcDbLine
 10
900.71236234540697
 20
-309.72887053842567
 30
0.0
 11
900.25981400544765
 21
-310.1814188783851
 31
0.0
  0
LINE
  5
14B
100
AcDbEntity
  8
____1
370
               5
390
0
  6
Continuous
 62
               7
100
AcDbLine
 10
886.38667613092889
 20
-289.49932069795091
 30
0.0
 11
886.38667613092889
 21
-306.49932069795091
 31
0.0
  0
LINE
  5
14C
100
AcDbEntity
  8
____1
370
               5
390
0
  6
Continuous
 62
               7
100
AcDbLine
 10
856.38667613092889
 20
-293.74932069795091
 30
0.0
 11
868.38667613092889
 21
-293.74932069795091
 31
0.0
  0
LINE
  5
14D
100
AcDbEntity
  8
____1
370
              18
390
0
  6
Continuous
 62
               5
100
AcDbLine
 10
803.88667613092889
 20
-171.26404277667314
 30
0.0
 11
803.88667613092889
 21
-172.76404277667314
 31
0.0
  0
LINE
  5
14E
100
AcDbEntity
  8
____1
370
              18
390
0
  6
Continuous
 62
               5
100
AcDbLine
 10
805.88667613092889
 20
-234.88173670609268
 30
0.0
 11
813.88667613092889
 21
-234.88173670609268
 31
0.0
  0
ARC
  5
14F
100
AcDbEntity
  8
____1
370
              18
390
0
  6
Continuous
 62
               5
100
AcDbCircle
 10
824.13667613092889
 20
-174.26404277667314
 30
0.0
 40
1.499999999999982
210
0.0
220
0.0
230
1.0
100
AcDbArc
 50
0.0
 51
89.999986976113121
  0
LINE
  5
150
100
AcDbEntity
  8
____1
370
              18
390
0
  6
Continuous
 62
               5
100
AcDbLine
 10
765.63667613092889
 20
-172.76404277667314
 30
0.0
 11
824.13667647189345
 21
-172.76404277667314
 31
0.0
  0
ARC
  5
151
100
AcDbEntity
  8
____1
370
              18
390
0
  6
Continuous
 62
               5
100
AcDbCircle
 10
765.63667613092889
 20
-174.26404277667314
 30
0.0
 40
1.5
100
AcDbArc
 50
90.0
 51
180.0
  0
LINE
  5
152
100
AcDbEntity
  8
____1
370
               5
390
0
  6
CENTER2
 62
               3
100
AcDbLine
 10
809.88667613092889
 20
-167.26404277667314
 30
0.0
 11
809.88667613092889
 21
-189.26404277667316
 31
0.0
  0
LINE
  5
153
100
AcDbEntity
  8
____1
370
               5
390
0
  6
CENTER2
 62
               3
100
AcDbLine
 10
779.88667613092889
 20
-167.26404277667314
 30
0.0
 11
779.88667613092889
 21
-189.26404277667316
 31
0.0
  0
LINE
  5
154
100
AcDbEntity
  8
____1
370
              18
390
0
  6
Continuous
 62
               5
100
AcDbLine
 10
779.88667613092889
 20
-230.88173670609268
 30
0.0
 11
809.88667613092889
 21
-230.88173670609268
 31
0.0
  0
LINE
  5
155
100
AcDbEntity
  8
____1
370
               5
390
0
  6
CENTER2
 62
               3
100
AcDbLine
 10
768.88667613092889
 20
-238.88173670609268
 30
0.0
 11
790.88667613092889
 21
-238.88173670609268
 31
0.0
  0
LINE
  5
156
100
AcDbEntity
  8
____1
370
              18
390
0
  6
Continuous
 62
               5
100
AcDbLine
 10
781.58667613092894
 20
-242.88173670609268
 30
0.0
 11
781.58667613092894
 21
-234.88173670609268
 31
0.0
  0
LINE
  5
157
100
AcDbEntity
  8
____1
370
              18
390
0
  6
Continuous
 62
               5
100
AcDbLine
 10
783.88667613092889
 20
-242.88173670609268
 30
0.0
 11
775.88667613092889
 21
-242.88173670609268
 31
0.0
  0
LINE
  5
158
100
AcDbEntity
  8
____1
370
              18
390
0
  6
Continuous
 62
               5
100
AcDbLine
 10
775.88667613092889
 20
-242.88173670609268
 30
0.0
 11
775.88667613092889
 21
-234.88173670609268
 31
0.0
  0
LINE
  5
159
100
AcDbEntity
  8
____1
370
              18
390
0
  6
Continuous
 62
               5
100
AcDbLine
 10
783.88667613092889
 20
-242.88173670609268
 30
0.0
 11
783.88667613092889
 21
-234.88173670609268
 31
0.0
  0
LINE
  5
15A
100
AcDbEntity
  8
____1
370
              18
390
0
  6
Continuous
 62
               5
100
AcDbLine
 10
778.18667613092884
 20
-242.88173670609268
 30
0.0
 11
778.18667613092884
 21
-234.88173670609268
 31
0.0
  0
LINE
  5
15B
100
AcDbEntity
  8
____1
370
              18
390
0
  6
Continuous
 62
               5
100
AcDbLine
 10
811.58667613092894
 20
-242.88173670609268
 30
0.0
 11
811.58667613092894
 21
-234.88173670609268
 31
0.0
  0
LINE
  5
15C
100
AcDbEntity
  8
____1
370
              18
390
0
  6
Continuous
 62
               5
100
AcDbLine
 10
805.88667613092889
 20
-242.88173670609268
 30
0.0
 11
805.88667613092889
 21
-234.88173670609268
 31
0.0
  0
LINE
  5
15D
100
AcDbEntity
  8
____1
370
              18
390
0
  6
Continuous
 62
               5
100
AcDbLine
 10
813.88667613092889
 20
-242.88173670609268
 30
0.0
 11
813.88667613092889
 21
-234.88173670609268
 31
0.0
  0
LINE
  5
15E
100
AcDbEntity
  8
____1
370
              18
390
0
  6
Continuous
 62
               5
100
AcDbLine
 10
805.88667613092889
 20
-242.88173670609268
 30
0.0
 11
813.88667613092889
 21
-242.88173670609268
 31
0.0
  0
LINE
  5
15F
100
AcDbEntity
  8
____1
370
              18
390
0
  6
Continuous
 62
               5
100
AcDbLine
 10
808.18667613092884
 20
-242.88173670609268
 30
0.0
 11
808.18667613092884
 21
-234.88173670609268
 31
0.0
  0
LINE
  5
160
100
AcDbEntity
  8
____1
370
              18
390
0
  6
Continuous
 62
               5
100
AcDbLine
 10
775.38667613092889
 20
-170.26404277667314
 30
0.0
 11
784.38667613092889
 21
-170.26404277667314
 31
0.0
  0
LINE
  5
161
100
AcDbEntity
  8
____1
370
              18
390
0
  6
Continuous
 62
               5
100
AcDbLine
 10
773.88667613092889
 20
-171.26404277667314
 30
0.0
 11
773.88667613092889
 21
-172.76404277667314
 31
0.0
  0
LINE
  5
162
100
AcDbEntity
  8
____1
370
              18
390
0
  6
Continuous
 62
               5
100
AcDbLine
 10
764.13667613092889
 20
-247.88173670609268
 30
0.0
 11
825.63667613092889
 21
-247.88173670609268
 31
0.0
  0
LINE
  5
163
100
AcDbEntity
  8
____1
370
              18
390
0
  6
Continuous
 62
               5
100
AcDbLine
 10
882.34987952971937
 20
-233.78573670609268
 30
0.0
 11
882.34987952971937
 21
-245.38173670609268
 31
0.0
  0
LINE
  5
164
100
AcDbEntity
  8
____1
370
              18
390
0
  6
Continuous
 62
               5
100
AcDbLine
 10
879.34987952971937
 20
-231.38173670609268
 30
0.0
 11
879.34987952971937
 21
-246.38173670609268
 31
0.0
  0
LINE
  5
165
100
AcDbEntity
  8
____1
370
              18
390
0
  6
Continuous
 62
               5
100
AcDbLine
 10
880.34987952971937
 20
-230.88173670609268
 30
0.0
 11
880.34987952971937
 21
-247.88173670609268
 31
0.0
  0
LINE
  5
166
100
AcDbEntity
  8
____1
370
              18
390
0
  6
Continuous
 62
               5
100
AcDbLine
 10
817.88667613092889
 20
-184.76404277667319
 30
0.0
 11
817.88667613092889
 21
-185.26404277667319
 31
0.0
  0
ARC
  5
167
100
AcDbEntity
  8
____1
370
              18
390
0
  6
Continuous
 62
               5
100
AcDbCircle
 10
817.38667613092889
 20
-185.26404277667319
 30
0.0
 40
0.5
100
AcDbArc
 50
-90.0
 51
0.0
  0
LINE
  5
168
100
AcDbEntity
  8
____1
370
              18
390
0
  6
Continuous
 62
               5
100
AcDbLine
 10
764.13667613092889
 20
-183.76404277667319
 30
0.0
 11
764.13667613092889
 21
-174.26404277667314
 31
0.0
  0
LINE
  5
169
100
AcDbEntity
  8
____1
370
              18
390
0
  6
Continuous
 62
               5
100
AcDbLine
 10
775.38667613092889
 20
-170.26404277667314
 30
0.0
 11
773.88667613092889
 21
-171.26404277667314
 31
0.0
  0
LINE
  5
16A
100
AcDbEntity
  8
____1
370
              18
390
0
  6
Continuous
 62
               5
100
AcDbLine
 10
775.88667613092889
 20
-186.26404277667319
 30
0.0
 11
775.88667613092889
 21
-185.76404277667319
 31
0.0
  0
LINE
  5
16B
100
AcDbEntity
  8
____1
370
              18
390
0
  6
Continuous
 62
               5
100
AcDbLine
 10
771.88667613092889
 20
-182.76404277667325
 30
0.0
 11
771.88667613092889
 21
-172.76404277667314
 31
0.0
  0
LINE
  5
16C
100
AcDbEntity
  8
____1
370
              18
390
0
  6
Continuous
 62
               5
100
AcDbLine
 10
783.88667613092889
 20
-186.26404277667319
 30
0.0
 11
783.88667613092889
 21
-185.76404277667319
 31
0.0
  0
LINE
  5
16D
100
AcDbEntity
  8
____1
370
              18
390
0
  6
Continuous
 62
               5
100
AcDbLine
 10
783.88667613092889
 20
-234.88173670609268
 30
0.0
 11
775.88667613092889
 21
-234.88173670609268
 31
0.0
  0
LINE
  5
16E
100
AcDbEntity
  8
____1
370
              18
390
0
  6
Continuous
 62
               5
100
AcDbLine
 10
785.88667613092889
 20
-171.26404277667314
 30
0.0
 11
785.88667613092889
 21
-172.76404277667314
 31
0.0
  0
LINE
  5
16F
100
AcDbEntity
  8
____1
370
              18
390
0
  6
Continuous
 62
               5
100
AcDbLine
 10
784.38667613092889
 20
-170.26404277667314
 30
0.0
 11
785.88667613092889
 21
-171.26404277667314
 31
0.0
  0
LINE
  5
170
100
AcDbEntity
  8
____1
370
              18
390
0
  6
Continuous
 62
               5
100
AcDbLine
 10
781.58667613092894
 20
-186.26404277667319
 30
0.0
 11
783.88667613092889
 21
-186.26404277667319
 31
0.0
  0
LINE
  5
171
100
AcDbEntity
  8
____1
370
              18
390
0
  6
Continuous
 62
               5
100
AcDbLine
 10
781.58667613092894
 20
-186.26404277667319
 30
0.0
 11
781.58667613092894
 21
-185.76404277667319
 31
0.0
  0
LINE
  5
172
100
AcDbEntity
  8
____1
370
              18
390
0
  6
Continuous
 62
               5
100
AcDbLine
 10
775.88667613092889
 20
-186.26404277667319
 30
0.0
 11
778.18667613092884
 21
-186.26404277667319
 31
0.0
  0
LINE
  5
173
100
AcDbEntity
  8
____1
370
              18
390
0
  6
Continuous
 62
               5
100
AcDbLine
 10
778.18667613092884
 20
-186.26404277667319
 30
0.0
 11
778.18667613092884
 21
-185.76404277667319
 31
0.0
  0
LINE
  5
174
100
AcDbEntity
  8
____1
370
               5
390
0
  6
CENTER2
 62
               3
100
AcDbLine
 10
768.63667613092889
 20
-174.26404277667314
 30
0.0
 11
768.63667613092889
 21
-181.26404277667319
 31
0.0
  0
LINE
  5
175
100
AcDbEntity
  8
____1
370
               5
390
0
  6
CENTER2
 62
               3
100
AcDbLine
 10
771.38667613092889
 20
-177.76404277667314
 30
0.0
 11
765.88667613092889
 21
-177.76404277667314
 31
0.0
  0
LINE
  5
176
100
AcDbEntity
  8
____1
370
              18
390
0
  6
Continuous
 62
               5
100
AcDbLine
 10
766.88667613092889
 20
-176.01404277667314
 30
0.0
 11
766.88667613092889
 21
-179.51404277667319
 31
0.0
  0
LINE
  5
177
100
AcDbEntity
  8
____1
370
              18
390
0
  6
Continuous
 62
               5
100
AcDbLine
 10
770.38667613092889
 20
-176.01404277667314
 30
0.0
 11
770.38667613092889
 21
-179.51404277667319
 31
0.0
  0
ARC
  5
178
100
AcDbEntity
  8
____1
370
              18
390
0
  6
Continuous
 62
               5
100
AcDbCircle
 10
768.63667613092889
 20
-177.68070944333977
 30
0.0
 40
2.4166666666666408
100
AcDbArc
 50
43.60281897270297
 51
136.39718102729702
  0
ARC
  5
179
100
AcDbEntity
  8
____1
370
              18
390
0
  6
Continuous
 62
               5
100
AcDbCircle
 10
768.63667613092889
 20
-177.84737611000642
 30
0.0
 40
2.4166666666667385
210
0.0
220
0.0
230
1.0
100
AcDbArc
 50
-136.39718102729458
 51
-43.602818972705414
  0
LINE
  5
17A
100
AcDbEntity
  8
____1
370
              18
390
0
  6
Continuous
 62
               5
100
AcDbLine
 10
811.58667613092894
 20
-186.26404277667319
 30
0.0
 11
811.58667613092894
 21
-185.76404277667319
 31
0.0
  0
LINE
  5
17B
100
AcDbEntity
  8
____1
370
              18
390
0
  6
Continuous
 62
               5
100
AcDbLine
 10
811.58667613092894
 20
-186.26404277667319
 30
0.0
 11
813.88667613092889
 21
-186.26404277667319
 31
0.0
  0
LINE
  5
17C
100
AcDbEntity
  8
____1
370
              18
390
0
  6
Continuous
 62
               5
100
AcDbLine
 10
815.88667613092889
 20
-171.26404277667314
 30
0.0
 11
815.88667613092889
 21
-172.76404277667314
 31
0.0
  0
LINE
  5
17D
100
AcDbEntity
  8
____1
370
              18
390
0
  6
Continuous
 62
               5
100
AcDbLine
 10
814.38667613092889
 20
-170.26404277667314
 30
0.0
 11
815.88667613092889
 21
-171.26404277667314
 31
0.0
  0
LINE
  5
17E
100
AcDbEntity
  8
____1
370
              18
390
0
  6
Continuous
 62
               5
100
AcDbLine
 10
805.38667613092889
 20
-170.26404277667314
 30
0.0
 11
814.38667613092889
 21
-170.26404277667314
 31
0.0
  0
ARC
  5
17F
100
AcDbEntity
  8
____1
370
              18
390
0
  6
Continuous
 62
               5
100
AcDbCircle
 10
824.63667613092889
 20
-183.76404277667319
 30
0.0
 40
0.9999999999999889
100
AcDbArc
 50
-89.999989322572802
 51
0.0
  0
LINE
  5
180
100
AcDbEntity
  8
____1
370
              18
390
0
  6
Continuous
 62
               5
100
AcDbLine
 10
765.13667613092889
 20
-184.76404277667319
 30
0.0
 11
824.63667631728515
 21
-184.76404277667319
 31
0.0
  0
LINE
  5
181
100
AcDbEntity
  8
____1
370
              18
390
0
  6
Continuous
 62
               5
100
AcDbLine
 10
773.71967613092886
 20
-182.76404277667325
 30
0.0
 11
764.13667613092889
 21
-182.76404277667325
 31
0.0
  0
LINE
  5
182
100
AcDbEntity
  8
____1
370
              18
390
0
  6
Continuous
 62
               5
100
AcDbLine
 10
816.05367613092892
 20
-182.76404277667319
 30
0.0
 11
825.63667613092889
 21
-182.76404277667319
 31
0.0
  0
LINE
  5
183
100
AcDbEntity
  8
____1
370
              18
390
0
  6
Continuous
 62
               5
100
AcDbLine
 10
805.38667613092889
 20
-170.26404277667314
 30
0.0
 11
803.88667613092889
 21
-171.26404277667314
 31
0.0
  0
LINE
  5
184
100
AcDbEntity
  8
____1
370
              18
390
0
  6
Continuous
 62
               5
100
AcDbLine
 10
817.88667613092889
 20
-182.76404277667319
 30
0.0
 11
817.88667613092889
 21
-172.76404277667314
 31
0.0
  0
LINE
  5
185
100
AcDbEntity
  8
____1
370
              18
390
0
  6
Continuous
 62
               5
100
AcDbLine
 10
805.88667613092889
 20
-186.26404277667319
 30
0.0
 11
805.88667613092889
 21
-185.76404277667319
 31
0.0
  0
LINE
  5
186
100
AcDbEntity
  8
____1
370
              18
390
0
  6
Continuous
 62
               5
100
AcDbLine
 10
808.18667613092884
 20
-186.26404277667319
 30
0.0
 11
808.18667613092884
 21
-185.76404277667319
 31
0.0
  0
LINE
  5
187
100
AcDbEntity
  8
____1
370
              18
390
0
  6
Continuous
 62
               5
100
AcDbLine
 10
805.88667613092889
 20
-186.26404277667319
 30
0.0
 11
808.18667613092884
 21
-186.26404277667319
 31
0.0
  0
LINE
  5
188
100
AcDbEntity
  8
____1
370
               5
390
0
  6
CENTER2
 62
               3
100
AcDbLine
 10
798.88667613092889
 20
-238.88173670609268
 30
0.0
 11
820.88667613092889
 21
-238.88173670609268
 31
0.0
  0
LINE
  5
189
100
AcDbEntity
  8
____1
370
               5
390
0
  6
CENTER2
 62
               3
100
AcDbLine
 10
818.88667613092889
 20
-177.76404277667314
 30
0.0
 11
824.38667613092889
 21
-177.76404277667314
 31
0.0
  0
LINE
  5
18A
100
AcDbEntity
  8
____1
370
               5
390
0
  6
CENTER2
 62
               3
100
AcDbLine
 10
821.63667613092889
 20
-174.26404277667314
 30
0.0
 11
821.63667613092889
 21
-181.26404277667319
 31
0.0
  0
ARC
  5
18B
100
AcDbEntity
  8
____1
370
              18
390
0
  6
Continuous
 62
               5
100
AcDbCircle
 10
821.63667613092878
 20
-177.84737611000642
 30
0.0
 40
2.4166666666666563
100
AcDbArc
 50
-136.39718102729273
 51
-43.60281897270356
  0
ARC
  5
18C
100
AcDbEntity
  8
____1
370
              18
390
0
  6
Continuous
 62
               5
100
AcDbCircle
 10
821.63667613092889
 20
-177.68070944333977
 30
0.0
 40
2.4166666666666408
210
0.0
220
0.0
230
1.0
100
AcDbArc
 50
43.60281897270297
 51
136.39718102729702
  0
LINE
  5
18D
100
AcDbEntity
  8
____1
370
              18
390
0
  6
Continuous
 62
               5
100
AcDbLine
 10
819.88667613092889
 20
-176.01404277667314
 30
0.0
 11
819.88667613092889
 21
-179.51404277667319
 31
0.0
  0
LINE
  5
18E
100
AcDbEntity
  8
____1
370
              18
390
0
  6
Continuous
 62
               5
100
AcDbLine
 10
823.38667613092889
 20
-176.01404277667314
 30
0.0
 11
823.38667613092889
 21
-179.51404277667319
 31
0.0
  0
LINE
  5
18F
100
AcDbEntity
  8
____1
370
              18
390
0
  6
Continuous
 62
               5
100
AcDbLine
 10
813.88667613092889
 20
-186.26404277667319
 30
0.0
 11
813.88667613092889
 21
-185.76404277667319
 31
0.0
  0
LINE
  5
190
100
AcDbEntity
  8
____1
370
              18
390
0
  6
Continuous
 62
               5
100
AcDbLine
 10
771.88667613092889
 20
-184.76404277667319
 30
0.0
 11
771.88667613092889
 21
-185.26404277667319
 31
0.0
  0
ARC
  5
191
100
AcDbEntity
  8
____1
370
              18
390
0
  6
Continuous
 62
               5
100
AcDbCircle
 10
772.38667613092889
 20
-185.26404277667319
 30
0.0
 40
0.5
100
AcDbArc
 50
180.0
 51
-90.0
  0
LINE
  5
192
100
AcDbEntity
  8
____1
370
              18
390
0
  6
Continuous
 62
               5
100
AcDbLine
 10
772.38667613092889
 20
-185.76404277667319
 30
0.0
 11
787.38667613092889
 21
-185.76404277667319
 31
0.0
  0
LINE
  5
193
100
AcDbEntity
  8
____1
370
              18
390
0
  6
Continuous
 62
               5
100
AcDbLine
 10
787.88667613092889
 20
-184.76404277667319
 30
0.0
 11
787.88667613092889
 21
-185.26404277667319
 31
0.0
  0
ARC
  5
194
100
AcDbEntity
  8
____1
370
              18
390
0
  6
Continuous
 62
               5
100
AcDbCircle
 10
787.38667613092889
 20
-185.26404277667319
 30
0.0
 40
0.5
100
AcDbArc
 50
-90.0
 51
0.0
  0
LINE
  5
195
100
AcDbEntity
  8
____1
370
              18
390
0
  6
Continuous
 62
               5
100
AcDbLine
 10
801.88667613092889
 20
-184.76404277667319
 30
0.0
 11
801.88667613092889
 21
-185.26404277667319
 31
0.0
  0
ARC
  5
196
100
AcDbEntity
  8
____1
370
              18
390
0
  6
Continuous
 62
               5
100
AcDbCircle
 10
802.38667613092889
 20
-185.26404277667319
 30
0.0
 40
0.5
100
AcDbArc
 50
180.0
 51
-90.0
  0
LINE
  5
197
100
AcDbEntity
  8
____1
370
              18
390
0
  6
Continuous
 62
               5
100
AcDbLine
 10
802.38667613092889
 20
-185.76404277667319
 30
0.0
 11
817.38667613092889
 21
-185.76404277667319
 31
0.0
  0
LINE
  5
198
100
AcDbEntity
  8
____1
370
               5
390
0
  6
Continuous
 62
               7
100
AcDbLine
 10
923.86941480710607
 20
-186.98716216216195
 30
0.0
 11
952.74694114499619
 21
-186.98716216216195
 31
0.0
  0
LINE
  5
199
100
AcDbEntity
  8
____1
370
               5
390
0
  6
Continuous
 62
               7
100
AcDbLine
 10
914.03316720885709
 20
-176.17378729059197
 30
0.0
 11
923.86941480710607
 21
-186.98716216216195
 31
0.0
  0
SOLID
  5
19A
100
AcDbEntity
  8
____1
390
0
 62
               7
100
AcDbTrace
 10
914.03316720885709
 20
-176.17378729059197
 30
0.0
 11
915.75457904488098
 21
-179.37687682241992
 31
0.0
 12
914.03316720885709
 22
-176.17378729059197
 32
0.0
 13
915.81353253990233
 23
-178.1310131067016
 33
0.0
  0
SOLID
  5
19B
100
AcDbEntity
  8
____1
390
0
 62
               7
100
AcDbTrace
 10
915.81353253990233
 20
-178.1310131067016
 30
0.0
 11
917.05939625562064
 21
-178.18996660172306
 31
0.0
 12
914.03316720885709
 22
-176.17378729059197
 32
0.0
 13
914.03316720885709
 23
-176.17378729059197
 33
0.0
  0
CIRCLE
  5
19C
100
AcDbEntity
  8
____1
370
              18
390
0
  6
Continuous
 62
               5
100
AcDbCircle
 10
911.91184686529743
 20
-174.05246694703231
 30
0.0
 40
3.0000000000000244
  0
CIRCLE
  5
19D
100
AcDbEntity
  8
____1
370
              18
390
0
  6
Continuous
 62
               5
100
AcDbCircle
 10
911.91184686529743
 20
-174.05246694703231
 30
0.0
 40
1.7500000000000266
  0
LINE
  5
19E
100
AcDbEntity
  8
____1
370
               5
390
0
  6
CENTER2
 62
               3
100
AcDbLine
 10
911.91184686529743
 20
-164.05246694703231
 30
0.0
 11
911.91184686529743
 21
-184.05246694703231
 31
0.0
  0
LINE
  5
19F
100
AcDbEntity
  8
____1
370
               5
390
0
  6
CENTER2
 62
               3
100
AcDbLine
 10
901.91184686529743
 20
-174.05246694703231
 30
0.0
 11
921.91184686529743
 21
-174.05246694703231
 31
0.0
  0
CIRCLE
  5
1A0
100
AcDbEntity
  8
____1
370
              18
390
0
  6
Continuous
 62
               5
100
AcDbCircle
 10
911.91184686529743
 20
-174.05246694703231
 30
0.0
 40
8.0000000000000639
  0
MTEXT
  5
1A1
100
AcDbEntity
  8
____1
370
               5
390
0
  6
Continuous
 62
               7
100
AcDbMText
 10
934.82328854118202
 20
-168.30206860190668
 30
0.0
 40
3.5277776718139648
 41
12.0
 71
               1
 72
               1
  1
ｔ2
  7
Style1
 73
               1
 44
1.0
  0
MTEXT
  5
1A2
100
AcDbEntity
  8
____1
370
               5
390
0
  6
Continuous
 62
               7
100
AcDbMText
 10
854.66031421620187
 20
-283.31079981331288
 30
0.0
 40
4.2333331108093262
 41
55.0
 71
               1
 72
               1
  1
色：白
  7
Style1
 73
               1
 44
1.0
  0
LINE
  5
1A3
100
AcDbEntity
  8
____1
370
               5
390
0
  6
CENTER2
 62
               3
100
AcDbLine
 10
897.84987952971937
 20
-238.88173670609268
 30
0.0
 11
875.84987952971937
 21
-238.88173670609268
 31
0.0
  0
LINE
  5
1A4
100
AcDbEntity
  8
____1
370
              18
390
0
  6
Continuous
 62
               5
100
AcDbLine
 10
878.84987952971937
 20
-234.88173670609268
 30
0.0
 11
878.84987952971937
 21
-242.88173670609268
 31
0.0
  0
LINE
  5
1A5
100
AcDbEntity
  8
____1
370
              18
390
0
  6
Continuous
 62
               5
100
AcDbLine
 10
878.84987952971937
 20
-242.88173670609268
 30
0.0
 11
879.34987952971937
 21
-242.88173670609268
 31
0.0
  0
LINE
  5
1A6
100
AcDbEntity
  8
____1
370
              18
390
0
  6
Continuous
 62
               5
100
AcDbLine
 10
878.84987952971937
 20
-234.88173670609268
 30
0.0
 11
879.34987952971937
 21
-234.88173670609268
 31
0.0
  0
LINE
  5
1A7
100
AcDbEntity
  8
____1
370
              18
390
0
  6
Continuous
 62
               5
100
AcDbLine
 10
892.34987952971937
 20
-232.88173670609268
 30
0.0
 11
893.84987952971937
 21
-232.88173670609268
 31
0.0
  0
LINE
  5
1A8
100
AcDbEntity
  8
____1
370
              18
390
0
  6
Continuous
 62
               5
100
AcDbLine
 10
894.84987952971937
 20
-234.38173670609268
 30
0.0
 11
893.84987952971937
 21
-232.88173670609268
 31
0.0
  0
LINE
  5
1A9
100
AcDbEntity
  8
____1
370
               5
390
0
  6
CENTER2
 62
               3
100
AcDbLine
 10
864.38667613092889
 20
-194.99932069795102
 30
0.0
 11
974.38667613092889
 21
-194.99932069795102
 31
0.0
  0
ARC
  5
1AA
100
AcDbEntity
  8
____1
370
              18
390
0
  6
Continuous
 62
               5
100
AcDbCircle
 10
879.84987952971937
 20
-231.38173670609268
 30
0.0
 40
0.5
100
AcDbArc
 50
90.0
 51
180.0
  0
LINE
  5
1AB
100
AcDbEntity
  8
____1
370
              18
390
0
  6
Continuous
 62
               5
100
AcDbLine
 10
879.84987952971937
 20
-230.88173670609268
 30
0.0
 11
892.34987952971937
 21
-230.88173670609268
 31
0.0
  0
ARC
  5
1AC
100
AcDbEntity
  8
____1
370
              18
390
0
  6
Continuous
 62
               5
100
AcDbCircle
 10
879.84987952971937
 20
-246.38173670609268
 30
0.0
 40
0.5
100
AcDbArc
 50
180.0
 51
-90.0
  0
LINE
  5
1AD
100
AcDbEntity
  8
____1
370
              18
390
0
  6
Continuous
 62
               5
100
AcDbLine
 10
879.84987952971937
 20
-246.88173670609268
 30
0.0
 11
880.34987952971937
 21
-246.88173670609268
 31
0.0
  0
LINE
  5
1AE
100
AcDbEntity
  8
____1
370
              18
390
0
  6
Continuous
 62
               5
100
AcDbLine
 10
880.34987952971937
 20
-247.88173670609268
 30
0.0
 11
892.34987952971937
 21
-247.88173670609268
 31
0.0
  0
MTEXT
  5
1AF
100
AcDbEntity
  8
____1
370
               5
390
0
  6
Continuous
 62
               7
100
AcDbMText
 10
865.34987952971937
 20
-258.02369734619128
 30
0.0
 40
3.5277776718139648
 41
15.0
 71
               1
 72
               1
  1
調整可能
  7
Style1
 73
               1
 44
1.0
  0
LINE
  5
1B0
100
AcDbEntity
  8
____1
370
              18
390
0
  6
Continuous
 62
               5
100
AcDbLine
 10
880.34987952971937
 20
-255.04506470833735
 30
0.0
 11
865.34987952971937
 21
-255.04506470833735
 31
0.0
  0
SOLID
  5
1B1
100
AcDbEntity
  8
____1
390
0
 62
               5
100
AcDbTrace
 10
865.34987952971937
 20
-255.04506470833735
 30
0.0
 11
868.87765720153334
 21
-254.16312029038386
 31
0.0
 12
865.34987952971937
 22
-255.04506470833735
 32
0.0
 13
867.99571278357985
 23
-255.04506470833735
 33
0.0
  0
SOLID
  5
1B2
100
AcDbEntity
  8
____1
390
0
 62
               5
100
AcDbTrace
 10
867.99571278357985
 20
-255.04506470833735
 30
0.0
 11
868.87765720153334
 21
-255.92700912629084
 31
0.0
 12
865.34987952971937
 22
-255.04506470833735
 32
0.0
 13
865.34987952971937
 23
-255.04506470833735
 33
0.0
  0
ARC
  5
1B3
100
AcDbEntity
  8
____1
370
              18
390
0
  6
Continuous
 62
               5
100
AcDbCircle
 10
765.13667613092889
 20
-183.76404277667319
 30
0.0
 40
1.0
100
AcDbArc
 50
180.0
 51
-90.0
  0
LINE
  5
1B4
100
AcDbEntity
  8
____1
370
              18
390
0
  6
Continuous
 62
               5
100
AcDbLine
 10
825.63667613092889
 20
-183.76404277667319
 30
0.0
 11
825.63667613092889
 21
-174.26404277667314
 31
0.0
  0
LINE
  5
1B5
100
AcDbEntity
  8
____1
370
              18
390
0
  6
Continuous
 62
               5
100
AcDbLine
 10
889.10239074488641
 20
-135.28170319821459
 30
0.0
 11
891.57739074488632
 21
-139.56852894694759
 31
0.0
  0
LINE
  5
1B6
100
AcDbEntity
  8
____1
370
              18
390
0
  6
Continuous
 62
               5
100
AcDbLine
 10
889.10239074488641
 20
-135.28170319821459
 30
0.0
 11
886.6273907448865
 21
-139.56852894694759
 31
0.0
  0
MTEXT
  5
1B7
100
AcDbEntity
  8
____1
370
               5
390
0
  6
Continuous
 62
               7
100
AcDbMText
 10
887.51964772009637
 20
-136.51871295713124
 30
0.0
 40
2.9266439437866216
 41
3.1654860495798762
 71
               1
 72
               1
  1
2
  7
Style1
 73
               1
 44
1.0
  0
LINE
  5
1B8
100
AcDbEntity
  8
____1
370
              18
390
0
  6
Continuous
 62
               5
100
AcDbLine
 10
886.6273907448865
 20
-139.56852894694759
 30
0.0
 11
891.57739074488632
 21
-139.56852894694759
 31
0.0
  0
MTEXT
  5
1B9
100
AcDbEntity
  8
____1
370
               5
390
0
  6
Continuous
 62
               7
100
AcDbMText
 10
894.38667613092889
 20
-135.72579203333532
 30
0.0
 40
3.5277776718139648
 41
20.0
 71
               1
 72
               1
  1
H23.10.12
  7
Style1
 73
               1
 44
1.0
  0
MTEXT
  5
1BA
100
AcDbEntity
  8
____1
370
               5
390
0
  6
Continuous
 62
               7
100
AcDbMText
 10
914.38667613092889
 20
-135.72579203333532
 30
0.0
 40
3.5277776718139648
 41
60.0
 71
               1
 72
               1
  1
黒色と茶色を削除
  7
Style1
 73
               1
 44
1.0
  0
LINE
  5
1BB
100
AcDbEntity
  8
____1
370
              18
390
0
  6
Continuous
 62
               5
100
AcDbLine
 10
914.38667613092889
 20
-139.99932069795079
 30
0.0
 11
914.38667613092889
 21
-124.99932069795088
 31
0.0
  0
LINE
  5
1BC
100
AcDbEntity
  8
____1
370
              18
390
0
  6
Continuous
 62
               5
100
AcDbLine
 10
914.38667613092889
 20
-139.99932069795079
 30
0.0
 11
914.38667613092889
 21
-124.99932069795088
 31
0.0
  0
MTEXT
  5
1BD
100
AcDbEntity
  8
____1
370
               5
390
0
  6
Continuous
 62
               7
100
AcDbMText
 10
914.38667613092889
 20
-125.76121653399829
 30
0.0
 40
3.5277776718139648
 41
60.0
 71
               1
 72
               1
  1
改　訂　内　容
  7
Style1
 73
               1
 44
1.0
  0
MTEXT
  5
1BE
100
AcDbEntity
  8
____1
370
               5
390
0
  6
Continuous
 62
               7
100
AcDbMText
 10
914.38667613092889
 20
-130.72579203333538
 30
0.0
 40
3.5277776718139648
 41
60.0
 71
               1
 72
               1
  1
材料板厚ｔ1.5からｔ1.6に変更
  7
Style1
 73
               1
 44
1.0
  0
INSERT
  5
1C6
100
AcDbEntity
  8
____1
370
               5
390
0
  6
Continuous
 62
             254
100
AcDbBlockReference
  2
C0
 10
0.0
 20
0.0
 30
0.0
  0
LINE
  5
1C7
100
AcDbEntity
  8
____1
370
              18
390
0
  6
Continuous
 62
               5
100
AcDbLine
 10
886.6273907448865
 20
-129.61852894694761
 30
0.0
 11
891.57739074488632
 21
-129.61852894694761
 31
0.0
  0
LINE
  5
1C8
100
AcDbEntity
  8
____1
370
              18
390
0
  6
Continuous
 62
               5
100
AcDbLine
 10
889.10239074488641
 20
-125.33170319821474
 30
0.0
 11
891.57739074488632
 21
-129.61852894694761
 31
0.0
  0
LINE
  5
1C9
100
AcDbEntity
  8
____1
370
              18
390
0
  6
Continuous
 62
               5
100
AcDbLine
 10
889.10239074488641
 20
-125.33170319821474
 30
0.0
 11
886.6273907448865
 21
-129.61852894694761
 31
0.0
  0
LINE
  5
1CA
100
AcDbEntity
  8
____1
370
              18
390
0
  6
Continuous
 62
               5
100
AcDbLine
 10
884.38667613092889
 20
-139.99932069795079
 30
0.0
 11
884.38667613092889
 21
-124.99932069795088
 31
0.0
  0
LINE
  5
1CB
100
AcDbEntity
  8
____1
370
              18
390
0
  6
Continuous
 62
               5
100
AcDbLine
 10
894.38667613092889
 20
-139.99932069795079
 30
0.0
 11
894.38667613092889
 21
-124.99932069795088
 31
0.0
  0
MTEXT
  5
1CC
100
AcDbEntity
  8
____1
370
               5
390
0
  6
Continuous
 62
               7
100
AcDbMText
 10
894.38667613092889
 20
-130.72579203333538
 30
0.0
 40
3.5277776718139648
 41
20.0
 71
               1
 72
               1
  1
H16.12.10
  7
Style1
 73
               1
 44
1.0
  0
MTEXT
  5
1CD
100
AcDbEntity
  8
____1
370
               5
390
0
  6
Continuous
 62
               7
100
AcDbMText
 10
894.38667613092889
 20
-125.76121653399829
 30
0.0
 40
3.5277776718139648
 41
20.0
 71
               1
 72
               1
  1
改訂日
  7
Style1
 73
               1
 44
1.0
  0
LINE
  5
1CE
100
AcDbEntity
  8
____1
370
              18
390
0
  6
Continuous
 62
               5
100
AcDbLine
 10
884.38667613092889
 20
-139.99932069795079
 30
0.0
 11
974.38667613092889
 21
-139.99932069795079
 31
0.0
  0
LINE
  5
1CF
100
AcDbEntity
  8
____1
370
              18
390
0
  6
Continuous
 62
               5
100
AcDbLine
 10
884.38667613092889
 20
-129.99932069795085
 30
0.0
 11
974.38667613092889
 21
-129.99932069795085
 31
0.0
  0
LINE
  5
1D0
100
AcDbEntity
  8
____1
370
              18
390
0
  6
Continuous
 62
               5
100
AcDbLine
 10
884.38667613092889
 20
-134.99932069795079
 30
0.0
 11
974.38667613092889
 21
-134.99932069795079
 31
0.0
  0
LINE
  5
1D1
100
AcDbEntity
  8
____1
370
               5
390
0
  6
CENTER2
 62
               3
100
AcDbLine
 10
864.38667613092889
 20
-194.99932069795102
 30
0.0
 11
864.38667613092889
 21
-142.13671171171148
 31
0.0
  0
DIMENSION
  5
1D9
100
AcDbEntity
  8
寸法線_1
370
               5
390
0
  6
Continuous
 62
               7
100
AcDbDimension
  2
*D12
 10
906.25499261580501
 20
-179.70932119652474
 30
0.0
 11
936.53751596464338
 21
-158.93188856118735
 31
0.0
 70
             131
 71
               5
 72
               1
 41
1.0
 42
0.0
  3
DS1
100
AcDbDiametricDimension
 15
917.56870111478986
 25
-168.39561269753989
 35
0.0
 40
0.0
  0
MTEXT
  5
1DA
100
AcDbEntity
  8
____1
370
               5
390
0
  6
Continuous
 62
               7
100
AcDbMText
 10
927.41045196796824
 20
-182.70606228174921
 30
0.0
 40
3.5277776718139648
 41
24.526344011916677
 71
               1
 72
               1
  1
皿ビス用皿穴
  7
Style1
 73
               1
 44
1.0
  0
MTEXT
  5
1DB
100
AcDbEntity
  8
____1
370
               5
390
0
  6
Continuous
 62
               7
100
AcDbMText
 10
889.62560243260327
 20
-152.49353572436593
 30
0.0
 40
3.5277776718139648
 41
15.0
 71
               1
 72
               1
  1
受板ｘ２
  7
Style1
 73
               1
 44
1.0
  0
ENDSEC
  0
SECTION
  2
OBJECTS
  0
DICTIONARY
  5
19
100
AcDbDictionary
280
               0
281
               1
  3
ACAD_GROUP
350
1A
  3
ACAD_MLINESTYLE
350
1B
  3
ACAD_LAYOUT
350
1E
  3
ACAD_PLOTSETTINGS
350
22
  3
ACAD_PLOTSTYLENAME
350
1F
  3
ACAD_WIPEOUT_VARS
350
23
  0
DICTIONARY
  5
1A
102
{ACAD_REACTORS
330
19
102
}
100
AcDbDictionary
280
               0
281
               1
  0
DICTIONARY
  5
1B
102
{ACAD_REACTORS
330
19
102
}
100
AcDbDictionary
280
               0
281
               1
  3
Standard
350
1C
  0
MLINESTYLE
  5
1C
102
{ACAD_REACTORS
330
1B
102
}
100
AcDbMlineStyle
  2
Standard
 70
               0
  3

 62
               0
 51
90.0
 52
90.0
 71
               2
 49
0.5
 62
             256
  6
ByLayer
 49
-0.5
 62
             256
  6
ByLayer
  0
ACDBDICTIONARYWDFLT
  5
1F
102
{ACAD_REACTORS
330
19
102
}
100
AcDbDictionary
281
               1
  3
Normal
350
1D
100
AcDbDictionaryWithDefault
340
1D
  0
ACDBPLACEHOLDER
  5
1D
102
{ACAD_REACTORS
330
1F
102
}
  0
LAYOUT
  5
20
102
{ACAD_REACTORS
330
1E
102
}
100
AcDbPlotSettings
  1

  2

  4

  6

 40
0.0
 41
0.0
 42
0.0
 43
0.0
 44
0.0
 45
0.0
 46
0.0
 47
0.0
 48
0.0
 49
0.0
140
0.0
141
0.0
142
1.0
143
1.0
 70
            1024
 72
               0
 73
               0
 74
               0
  7

 75
               0
147
1.0
148
0.0
149
0.0
100
AcDbLayout
  1
Model
 70
               0
 71
               0
 10
0.0
 20
0.0
 11
0.0
 21
0.0
 12
0.0
 22
0.0
 32
0.0
 14
0.0
 24
0.0
 34
0.0
 15
0.0
 25
0.0
 35
0.0
146
0.0
 13
0.0
 23
0.0
 33
0.0
 16
0.0
 26
0.0
 36
0.0
 17
0.0
 27
0.0
 37
0.0
 76
               0
330
A
331
0
345
0
346
0
  0
LAYOUT
  5
21
102
{ACAD_REACTORS
330
1E
102
}
100
AcDbPlotSettings
  1

  2

  4

  6

 40
0.0
 41
0.0
 42
0.0
 43
0.0
 44
0.0
 45
0.0
 46
0.0
 47
0.0
 48
0.0
 49
0.0
140
0.0
141
0.0
142
1.0
143
1.0
 70
               0
 72
               0
 73
               0
 74
               0
  7

 75
               0
147
1.0
148
0.0
149
0.0
100
AcDbLayout
  1
Layout1
 70
               0
 71
               0
 10
0.0
 20
0.0
 11
0.0
 21
0.0
 12
0.0
 22
0.0
 32
0.0
 14
0.0
 24
0.0
 34
0.0
 15
0.0
 25
0.0
 35
0.0
146
0.0
 13
0.0
 23
0.0
 33
0.0
 16
0.0
 26
0.0
 36
0.0
 17
0.0
 27
0.0
 37
0.0
 76
               0
330
B
331
0
345
0
346
0
  0
DICTIONARY
  5
1E
102
{ACAD_REACTORS
330
19
102
}
100
AcDbDictionary
280
               0
281
               1
  3
Layout1
350
21
  3
Model
350
20
  0
DICTIONARY
  5
22
102
{ACAD_REACTORS
330
19
102
}
100
AcDbDictionary
280
               0
281
               1
  0
WIPEOUTVARIABLES
  5
23
100
AcDbWipeoutVariables
 70
               1
  0
ENDSEC
  0
EOF
