  0
SECTION
  2
HEADER
  9
$ACADVER
  1
AC1015
  9
$ACADMAINTVER
 70
               6
  9
$DWGCODEPAGE
  3
ANSI_932
  9
$INSBASE
 10
0.0
 20
0.0
 30
0.0
  9
$EXTMIN
 10
650.96216216216249
 20
-117.42319819819797
 30
0.0
  9
$EXTMAX
 10
1023.0378378378382
 20
-324.05563063063039
 30
0.0
  9
$LIMMIN
 10
0.0
 20
0.0
  9
$LIMMAX
 10
0.0
 20
0.0
  9
$ORTHOMODE
 70
               0
  9
$REGENMODE
 70
               1
  9
$FILLMODE
 70
               1
  9
$QTEXTMODE
 70
               0
  9
$MIRRTEXT
 70
               1
  9
$LTSCALE
 40
1.0
  9
$ATTMODE
 70
               1
  9
$TEXTSIZE
 40
0.2
  9
$TRACEWID
 40
0.05
  9
$TEXTSTYLE
  7
Standard
  9
$CLAYER
  8
0
  9
$CELTYPE
  6
Continuous
  9
$CECOLOR
 62
             256
  9
$CELTSCALE
 40
1.0
  9
$DISPSILH
 70
               0
  9
$DIMSCALE
 40
1.0
  9
$DIMASZ
 40
3.0
  9
$DIMEXO
 40
1.0
  9
$DIMDLI
 40
0.38
  9
$DIMRND
 40
0.0
  9
$DIMDLE
 40
0.0
  9
$DIMEXE
 40
0.5
  9
$DIMTP
 40
0.0
  9
$DIMTM
 40
0.0
  9
$DIMTXT
 40
3.5277777777777777
  9
$DIMCEN
 40
0.09
  9
$DIMTSZ
 40
0.0
  9
$DIMTOL
 70
               0
  9
$DIMLIM
 70
               0
  9
$DIMTIH
 70
               0
  9
$DIMTOH
 70
               0
  9
$DIMSE1
 70
               0
  9
$DIMSE2
 70
               0
  9
$DIMTAD
 70
               1
  9
$DIMZIN
 70
               0
  9
$DIMBLK
  1

  9
$DIMASO
 70
               1
  9
$DIMSHO
 70
               1
  9
$DIMPOST
  1

  9
$DIMAPOST
  1

  9
$DIMALT
 70
               0
  9
$DIMALTD
 70
               3
  9
$DIMALTF
 40
25.399999999999999
  9
$DIMLFAC
 40
1.0
  9
$DIMTOFL
 70
               0
  9
$DIMTVP
 40
0.0
  9
$DIMTIX
 70
               0
  9
$DIMSOXD
 70
               0
  9
$DIMSAH
 70
               0
  9
$DIMBLK1
  1

  9
$DIMBLK2
  1

  9
$DIMSTYLE
  2
Standard
  9
$DIMCLRD
 70
               7
  9
$DIMCLRE
 70
               7
  9
$DIMCLRT
 70
               7
  9
$DIMTFAC
 40
1.0
  9
$DIMGAP
 40
1.0
  9
$DIMJUST
 70
               0
  9
$DIMSD1
 70
               0
  9
$DIMSD2
 70
               0
  9
$DIMTOLJ
 70
               1
  9
$DIMTZIN
 70
               0
  9
$DIMALTZ
 70
               0
  9
$DIMALTTZ
 70
               0
  9
$DIMUPT
 70
               0
  9
$DIMDEC
 70
               3
  9
$DIMTDEC
 70
               4
  9
$DIMALTU
 70
               2
  9
$DIMALTTD
 70
               2
  9
$DIMTXSTY
  7
Standard
  9
$DIMAUNIT
 70
               0
  9
$DIMADEC
 70
               0
  9
$DIMALTRND
 40
0.0
  9
$DIMAZIN
 70
               0
  9
$DIMDSEP
 70
               0
  9
$DIMATFIT
 70
               3
  9
$DIMFRAC
 70
               0
  9
$DIMLDRBLK
  1

  9
$DIMLUNIT
 70
               2
  9
$DIMLWD
 70
               0
  9
$DIMLWE
 70
               0
  9
$DIMTMOVE
 70
               0
  9
$LUNITS
 70
               2
  9
$LUPREC
 70
               4
  9
$SKETCHINC
 40
0.1
  9
$FILLETRAD
 40
0.0
  9
$AUNITS
 70
               0
  9
$AUPREC
 70
               0
  9
$MENU
  1
acad
  9
$ELEVATION
 40
0.0
  9
$PELEVATION
 40
0.0
  9
$THICKNESS
 40
0.0
  9
$LIMCHECK
 70
               0
  9
$CHAMFERA
 40
0.0
  9
$CHAMFERB
 40
0.0
  9
$CHAMFERC
 40
0.0
  9
$CHAMFERD
 40
0.0
  9
$SKPOLY
 70
               0
  9
$TDCREATE
 40
2455840.410231481
  9
$TDUCREATE
 40
0.000000000
  9
$TDUPDATE
 40
2455840.410231481
  9
$TDUUPDATE
 40
0.000000000
  9
$TDINDWG
 40
0.0000000000
  9
$TDUSRTIMER
 40
0.0000000000
  9
$USRTIMER
 70
               1
  9
$ANGBASE
 50
0.0
  9
$ANGDIR
 70
               0
  9
$PDMODE
 70
               0
  9
$PDSIZE
 40
0.0
  9
$PLINEWID
 40
0.0
  9
$SPLFRAME
 70
               0
  9
$SPLINETYPE
 70
               6
  9
$SPLINESEGS
 70
               8
  9
$HANDSEED
  5
1C7
  9
$SURFTAB1
 70
               6
  9
$SURFTAB2
 70
               6
  9
$SURFTYPE
 70
               6
  9
$SURFU
 70
               6
  9
$SURFV
 70
               6
  9
$UCSBASE
  2

  9
$UCSNAME
  2

  9
$UCSORG
 10
0.0
 20
0.0
 30
0.0
  9
$UCSXDIR
 10
1.0
 20
0.0
 30
0.0
  9
$UCSYDIR
 10
0.0
 20
1.0
 30
0.0
  9
$UCSORTHOREF
  2

  9
$UCSORTHOVIEW
 70
               0
  9
$UCSORGTOP
 10
0.0
 20
0.0
 30
0.0
  9
$UCSORGBOTTOM
 10
0.0
 20
0.0
 30
0.0
  9
$UCSORGLEFT
 10
0.0
 20
0.0
 30
0.0
  9
$UCSORGRIGHT
 10
0.0
 20
0.0
 30
0.0
  9
$UCSORGFRONT
 10
0.0
 20
0.0
 30
0.0
  9
$UCSORGBACK
 10
0.0
 20
0.0
 30
0.0
  9
$PUCSBASE
  2

  9
$PUCSNAME
  2

  9
$PUCSORG
 10
0.0
 20
0.0
 30
0.0
  9
$PUCSXDIR
 10
1.0
 20
0.0
 30
0.0
  9
$PUCSYDIR
 10
0.0
 20
1.0
 30
0.0
  9
$PUCSORTHOREF
  2

  9
$PUCSORTHOVIEW
 70
               0
  9
$PUCSORGTOP
 10
0.0
 20
0.0
 30
0.0
  9
$PUCSORGBOTTOM
 10
0.0
 20
0.0
 30
0.0
  9
$PUCSORGLEFT
 10
0.0
 20
0.0
 30
0.0
  9
$PUCSORGRIGHT
 10
0.0
 20
0.0
 30
0.0
  9
$PUCSORGFRONT
 10
0.0
 20
0.0
 30
0.0
  9
$PUCSORGBACK
 10
0.0
 20
0.0
 30
0.0
  9
$USERI1
 70
               0
  9
$USERI2
 70
               0
  9
$USERI3
 70
               0
  9
$USERI4
 70
               0
  9
$USERI5
 70
               0
  9
$USERR1
 40
0.0
  9
$USERR2
 40
0.0
  9
$USERR3
 40
0.0
  9
$USERR4
 40
0.0
  9
$USERR5
 40
0.0
  9
$WORLDVIEW
 70
               1
  9
$SHADEDGE
 70
               3
  9
$SHADEDIF
 70
              70
  9
$TILEMODE
 70
               1
  9
$MAXACTVP
 70
              16
  9
$PINSBASE
 10
0.0
 20
0.0
 30
0.0
  9
$PLIMCHECK
 70
               0
  9
$PEXTMIN
 10
1.0000000000000000E+20
 20
1.0000000000000000E+20
 30
1.0000000000000000E+20
  9
$PEXTMAX
 10
-1.0000000000000000E+20
 20
-1.0000000000000000E+20
 30
-1.0000000000000000E+20
  9
$PLIMMIN
 10
0.0
 20
0.0
  9
$PLIMMAX
 10
12.0
 20
9.0
  9
$UNITMODE
 70
               0
  9
$VISRETAIN
 70
               0
  9
$PLINEGEN
 70
               1
  9
$PSLTSCALE
 70
               0
  9
$TREEDEPTH
 70
            3020
  9
$CMLSTYLE
  2
Standard
  9
$CMLJUST
 70
               0
  9
$CMLSCALE
 40
1.0
  9
$PROXYGRAPHICS
 70
               0
  9
$MEASUREMENT
 70
               0
  9
$CELWEIGHT
370
               0
  9
$ENDCAPS
280
               0
  9
$JOINSTYLE
280
               0
  9
$LWDISPLAY
290
               0
  9
$INSUNITS
 70
               0
  9
$HYPERLINKBASE
  1

  9
$STYLESHEET
  1

  9
$XEDIT
290
               1
  9
$CEPSNTYPE
380
               0
  9
$PSTYLEMODE
290
               1
  9
$FINGERPRINTGUID
  2

  9
$VERSIONGUID
  2

  9
$EXTNAMES
290
               1
  9
$PSVPSCALE
 40
0.0
  0
ENDSEC
  0
SECTION
  2
CLASSES
  0
CLASS
  1
LWPOLYLINE
  2
AcDbPolyline
  3
AutoCAD 2000
 90
        0
280
               0
281
               1
  0
CLASS
  1
IMAGE
  2
AcDbRasterImage
  3
ISM
 90
      127
280
               0
281
               1
  0
CLASS
  1
OLE2FRAME
  2
AcDbOle2Frame
  3
AutoCAD 2000
 90
        0
280
               0
281
               1
  0
CLASS
  1
HATCH
  2
AcDbHatch
  3
AutoCAD 2000
 90
        0
280
               0
281
               1
  0
CLASS
  1
DICTIONARYVAR
  2
AcDbDictionaryVar
  3
AutoCAD 2000
 90
        0
280
               0
281
               0
  0
CLASS
  1
RASTERVARIABLES
  2
AcDbRasterVariables
  3
ISM
 90
        0
280
               0
281
               0
  0
CLASS
  1
IMAGEDEF
  2
AcDbRasterImageDef
  3
ISM
 90
        0
280
               0
281
               0
  0
CLASS
  1
IMAGEDEF_REACTOR
  2
AcDbRasterImageDefReactor
  3
ISM
 90
        1
280
               0
281
               0
  0
CLASS
  1
IDBUFFER
  2
AcDbIdBuffer
  3
AutoCAD 2000
 90
        0
280
               0
281
               0
  0
CLASS
  1
SPATIAL_FILTER
  2
AcDbSpatialFilter
  3
AutoCAD 2000
 90
        0
280
               0
281
               0
  0
CLASS
  1
XRECORD
  2
AcDbXrecord
  3
AutoCAD 2000
 90
        0
280
               0
281
               0
  0
CLASS
  1
SORTENTSTABLE
  2
AcDbSortentsTable
  3
AutoCAD 2000
 90
        0
280
               0
281
               0
  0
CLASS
  1
LAYER_INDEX
  2
AcDbLayerIndex
  3
AutoCAD 2000
 90
        0
280
               0
281
               0
  0
CLASS
  1
SPATIAL_INDEX
  2
AcDbSpatialIndex
  3
AutoCAD 2000
 90
        0
280
               0
281
               0
  0
CLASS
  1
OBJECT_PTR
  2
CAseDLPNTableRecord
  3
"ASE-LPNTableRecord"
 90
        1
280
               0
281
               0
  0
CLASS
  1
LAYOUT
  2
AcDbLayout
  3
AutoCAD 2000
 90
        0
280
               0
281
               0
  0
CLASS
  1
PLOTSETTINGS
  2
AcDbPlotSettings
  3
AutoCAD 2000
 90
        0
280
               0
281
               0
  0
CLASS
  1
ACDBDICTIONARYWDFLT
  2
AcDbDictionaryWithDefault
  3
AutoCAD 2000
 90
        0
280
               0
281
               0
  0
CLASS
  1
ACDBPLACEHOLDER
  2
AcDbPlaceHolder
  3
AutoCAD 2000
 90
        0
280
               0
281
               0
  0
CLASS
  1
VBA_PROJECT
  2
AcDbVbaProject
  3
acadvba
 90
        0
280
               0
281
               0
  0
CLASS
  1
WIPEOUT
  2
AcDbWipeout
  3
WipeOut|AutoCAD Express Tool|expresstools@autodesk.com
 90
      127
280
               0
281
               1
  0
CLASS
  1
WIPEOUTVARIABLES
  2
AcDbWipeoutVariables
  3
WipeOut|AutoCAD Express Tool|expresstools@autodesk.com
 90
        0
280
               0
281
               0
  0
CLASS
  1
RTEXT
  2
RText
  3
RText|AutoCAD Express Tool|expresstools@autodesk.com
 90
        0
280
               0
281
               1
  0
CLASS
  1
ARCALIGNEDTEXT
  2
AcDbArcAlignedText
  3
ATEXT|AutoCAD Express Tool|expresstools@autodesk.com
 90
        0
280
               0
281
               1
  0
ENDSEC
  0
SECTION
  2
TABLES
  0
TABLE
  2
VPORT
  5
7
100
AcDbSymbolTable
 70
               1
  0
VPORT
  5
15
100
AcDbSymbolTableRecord
100
AcDbViewportTableRecord
  2
*ACTIVE
 70
               0
 10
0.0
 20
0.0
 11
1.0
 21
1.0
 12
6.5912879999999996
 22
4.5791839999999997
 13
0.0
 23
0.0
 14
1.0
 24
1.0
 15
0.0
 25
0.0
 16
0.0
 26
0.0
 36
1.0
 17
0.0
 27
0.0
 37
0.0
 40
9.1583690000000004
 41
0.688564
 42
50.0
 43
0.0
 44
0.0
 50
0.0
 51
0.0
 71
               0
 72
             100
 73
               1
 74
               1
 75
               0
 76
               0
 77
               0
 78
               0
281
               0
 65
               0
110
0.0
120
0.0
130
0.0
111
1.0
121
0.0
131
0.0
112
0.0
122
1.0
132
0.0
345
0
346
0
 79
               0
146
0.0
  0
ENDTAB
  0
TABLE
  2
LTYPE
  5
4
100
AcDbSymbolTable
 70
              13
  0
LTYPE
  5
11
100
AcDbSymbolTableRecord
100
AcDbLinetypeTableRecord
  2
ByBlock
 70
              64
  3

 72
              65
 73
               0
 40
0.0
  0
LTYPE
  5
12
100
AcDbSymbolTableRecord
100
AcDbLinetypeTableRecord
  2
ByLayer
 70
              64
  3

 72
              65
 73
               0
 40
0.0
  0
LTYPE
  5
13
100
AcDbSymbolTableRecord
100
AcDbLinetypeTableRecord
  2
Continuous
 70
              64
  3
Solid line
 72
              65
 73
               0
 40
0.0
  0
LTYPE
  5
24
100
AcDbSymbolTableRecord
100
AcDbLinetypeTableRecord
  2
DOT
 70
              64
  3

 72
              65
 73
               2
 40
1.0
 49
0.0
 74
               0
 49
-1.0
 74
               0
  0
LTYPE
  5
25
100
AcDbSymbolTableRecord
100
AcDbLinetypeTableRecord
  2
DASHEDX2
 70
              64
  3

 72
              65
 73
               2
 40
4.0
 49
3.0
 74
               0
 49
-1.0
 74
               0
  0
LTYPE
  5
26
100
AcDbSymbolTableRecord
100
AcDbLinetypeTableRecord
  2
DASHED
 70
              64
  3

 72
              65
 73
               2
 40
3.0
 49
2.0
 74
               0
 49
-1.0
 74
               0
  0
LTYPE
  5
27
100
AcDbSymbolTableRecord
100
AcDbLinetypeTableRecord
  2
DASHED2
 70
              64
  3

 72
              65
 73
               2
 40
2.0
 49
1.0
 74
               0
 49
-1.0
 74
               0
  0
LTYPE
  5
28
100
AcDbSymbolTableRecord
100
AcDbLinetypeTableRecord
  2
CENTERX2
 70
              64
  3

 72
              65
 73
               4
 40
43.0
 49
40.0
 74
               0
 49
-1.0
 74
               0
 49
1.0
 74
               0
 49
-1.0
 74
               0
  0
LTYPE
  5
29
100
AcDbSymbolTableRecord
100
AcDbLinetypeTableRecord
  2
CENTER
 70
              64
  3

 72
              65
 73
               4
 40
33.0
 49
30.0
 74
               0
 49
-1.0
 74
               0
 49
1.0
 74
               0
 49
-1.0
 74
               0
  0
LTYPE
  5
2A
100
AcDbSymbolTableRecord
100
AcDbLinetypeTableRecord
  2
CENTER2
 70
              64
  3

 72
              65
 73
               4
 40
23.0
 49
20.0
 74
               0
 49
-1.0
 74
               0
 49
1.0
 74
               0
 49
-1.0
 74
               0
  0
LTYPE
  5
2B
100
AcDbSymbolTableRecord
100
AcDbLinetypeTableRecord
  2
PHANTOMX2
 70
              64
  3

 72
              65
 73
               6
 40
45.0
 49
40.0
 74
               0
 49
-1.0
 74
               0
 49
1.0
 74
               0
 49
-1.0
 74
               0
 49
1.0
 74
               0
 49
-1.0
 74
               0
  0
LTYPE
  5
2C
100
AcDbSymbolTableRecord
100
AcDbLinetypeTableRecord
  2
PHANTOM
 70
              64
  3

 72
              65
 73
               6
 40
35.0
 49
30.0
 74
               0
 49
-1.0
 74
               0
 49
1.0
 74
               0
 49
-1.0
 74
               0
 49
1.0
 74
               0
 49
-1.0
 74
               0
  0
LTYPE
  5
2D
100
AcDbSymbolTableRecord
100
AcDbLinetypeTableRecord
  2
PHANTOM2
 70
              64
  3

 72
              65
 73
               6
 40
25.0
 49
20.0
 74
               0
 49
-1.0
 74
               0
 49
1.0
 74
               0
 49
-1.0
 74
               0
 49
1.0
 74
               0
 49
-1.0
 74
               0
  0
ENDTAB
  0
TABLE
  2
LAYER
  5
2
100
AcDbSymbolTable
 70
              11
  0
LAYER
  5
14
100
AcDbSymbolTableRecord
100
AcDbLayerTableRecord
  2
0
 70
               0
 62
               7
  6
Continuous
290
               1
370
              -3
390
1D
  0
LAYER
  5
2E
100
AcDbSymbolTableRecord
100
AcDbLayerTableRecord
  2
DEFPOINTS
 70
               0
 62
               7
  6
Continuous
290
               0
370
              -3
390
1D
  0
LAYER
  5
2F
100
AcDbSymbolTableRecord
100
AcDbLayerTableRecord
  2
____1
 70
               0
 62
               7
  6
Continuous
290
               1
370
              -3
390
1D
  0
LAYER
  5
30
100
AcDbSymbolTableRecord
100
AcDbLayerTableRecord
  2
______
 70
               0
 62
               7
  6
Continuous
290
               1
370
              -3
390
1D
  0
LAYER
  5
31
100
AcDbSymbolTableRecord
100
AcDbLayerTableRecord
  2
寸法線_1
 70
               0
 62
               7
  6
Continuous
290
               1
370
              -3
390
1D
  0
LAYER
  5
32
100
AcDbSymbolTableRecord
100
AcDbLayerTableRecord
  2
CONSTRUCTION
 70
               0
 62
               7
  6
Continuous
290
               1
370
              -3
390
1D
  0
LAYER
  5
33
100
AcDbSymbolTableRecord
100
AcDbLayerTableRecord
  2
DIMENSION
 70
               0
 62
               7
  6
Continuous
290
               1
370
              -3
390
1D
  0
LAYER
  5
34
100
AcDbSymbolTableRecord
100
AcDbLayerTableRecord
  2
FORMAT
 70
               0
 62
               7
  6
Continuous
290
               1
370
              -3
390
1D
  0
LAYER
  5
35
100
AcDbSymbolTableRecord
100
AcDbLayerTableRecord
  2
____2
 70
               0
 62
               5
  6
Continuous
290
               1
370
              -3
390
1D
  0
LAYER
  5
36
100
AcDbSymbolTableRecord
100
AcDbLayerTableRecord
  2
0_1
 70
               0
 62
               5
  6
Continuous
290
               1
370
              -3
390
1D
  0
LAYER
  5
37
100
AcDbSymbolTableRecord
100
AcDbLayerTableRecord
  2
DEFPOINTS_1
 70
               0
 62
               5
  6
Continuous
290
               1
370
              -3
390
1D
  0
ENDTAB
  0
TABLE
  2
STYLE
  5
3
100
AcDbSymbolTable
 70
               2
  0
STYLE
  5
17
100
AcDbSymbolTableRecord
100
AcDbTextStyleTableRecord
  2
Standard
 70
               0
 40
0.0
 41
1.0
 50
0.0
 71
               0
 42
0.35
  3
txt
  4

  0
STYLE
  5
3B
100
AcDbSymbolTableRecord
100
AcDbTextStyleTableRecord
  2
Style1
 70
               0
 40
0.0
 41
1.0
 50
0.0
 71
               0
 42
0.35
  3
ＭＳ ゴシック
  4

  0
ENDTAB
  0
TABLE
  2
VIEW
  5
5
100
AcDbSymbolTable
 70
               0
  0
ENDTAB
  0
TABLE
  2
UCS
  5
6
100
AcDbSymbolTable
 70
               0
  0
ENDTAB
  0
TABLE
  2
APPID
  5
8
100
AcDbSymbolTable
 70
               1
  0
APPID
  5
16
100
AcDbSymbolTableRecord
100
AcDbRegAppTableRecord
  2
ACAD
 70
               0
  0
ENDTAB
  0
TABLE
  2
DIMSTYLE
  5
9
100
AcDbSymbolTable
 70
               2
100
AcDbDimStyleTable
 71
               0
  0
DIMSTYLE
105
18
100
AcDbSymbolTableRecord
100
AcDbDimStyleTableRecord
  2
Standard
 70
               0
  3

  4

 40
1.0
 41
3.0
 42
1.0
 43
0.38
 44
0.5
 45
0.0
 46
0.0
 47
0.0
 48
0.0
 71
               0
 72
               0
 73
               0
 74
               0
 75
               0
 76
               0
 77
               1
 78
               0
 79
               0
140
3.5277777777777777
141
0.09
142
0.0
143
25.399999999999999
144
1.0
145
0.0
146
1.0
147
1.0
148
0.0
170
               0
171
               3
172
               0
173
               0
174
               0
175
               0
176
               7
177
               7
178
               7
179
               0
271
               3
272
               4
273
               2
274
               2
275
               0
276
               0
277
               2
278
              46
279
               0
280
               0
281
               0
282
               0
283
               1
284
               0
285
               0
286
               0
288
               0
289
               0
340
17
341
0
342
0
343
0
344
0
371
              -2
372
              -2
  0
DIMSTYLE
105
64
100
AcDbSymbolTableRecord
100
AcDbDimStyleTableRecord
  2
DS1
 70
               0
  3

  4

 40
1.0
 41
3.0
 42
1.0
 43
0.38
 44
0.5
 45
0.0
 46
0.0
 47
0.0
 48
0.0
 71
               0
 72
               0
 73
               0
 74
               0
 75
               0
 76
               0
 77
               1
 78
               8
 79
               0
140
3.5277776718139648
141
0.09
142
0.0
143
25.399999999999999
144
1.0
145
0.0
146
1.0
147
1.0
148
0.0
170
               0
171
               3
172
               0
173
               0
174
               0
175
               0
176
               7
177
               7
178
               7
179
               0
271
               3
272
               4
273
               2
274
               2
275
               0
276
               0
277
               2
278
              46
279
               0
280
               0
281
               0
282
               0
283
               1
284
               0
285
               0
286
               0
288
               0
289
               3
340
17
341
0
342
0
343
0
344
0
371
              -2
372
              -2
  0
ENDTAB
  0
TABLE
  2
BLOCK_RECORD
  5
1
100
AcDbSymbolTable
 70
              14
  0
BLOCK_RECORD
  5
A
100
AcDbSymbolTableRecord
100
AcDbBlockTableRecord
  2
*MODEL_SPACE
340
20
  0
BLOCK_RECORD
  5
B
100
AcDbSymbolTableRecord
100
AcDbBlockTableRecord
  2
*PAPER_SPACE
340
21
  0
BLOCK_RECORD
  5
54
100
AcDbSymbolTableRecord
100
AcDbBlockTableRecord
  2
*D0
340
0
  0
BLOCK_RECORD
  5
65
100
AcDbSymbolTableRecord
100
AcDbBlockTableRecord
  2
*D1
340
0
  0
BLOCK_RECORD
  5
72
100
AcDbSymbolTableRecord
100
AcDbBlockTableRecord
  2
C0
340
0
102
{BLKREFS
331
79
102
}
  0
BLOCK_RECORD
  5
87
100
AcDbSymbolTableRecord
100
AcDbBlockTableRecord
  2
C1
340
0
102
{BLKREFS
331
8E
102
}
  0
BLOCK_RECORD
  5
A7
100
AcDbSymbolTableRecord
100
AcDbBlockTableRecord
  2
*D4
340
0
  0
BLOCK_RECORD
  5
B4
100
AcDbSymbolTableRecord
100
AcDbBlockTableRecord
  2
*D5
340
0
  0
BLOCK_RECORD
  5
C4
100
AcDbSymbolTableRecord
100
AcDbBlockTableRecord
  2
*D6
340
0
  0
BLOCK_RECORD
  5
D2
100
AcDbSymbolTableRecord
100
AcDbBlockTableRecord
  2
*D7
340
0
  0
BLOCK_RECORD
  5
E0
100
AcDbSymbolTableRecord
100
AcDbBlockTableRecord
  2
*D8
340
0
  0
BLOCK_RECORD
  5
ED
100
AcDbSymbolTableRecord
100
AcDbBlockTableRecord
  2
*D9
340
0
  0
BLOCK_RECORD
  5
FA
100
AcDbSymbolTableRecord
100
AcDbBlockTableRecord
  2
*D10
340
0
  0
BLOCK_RECORD
  5
107
100
AcDbSymbolTableRecord
100
AcDbBlockTableRecord
  2
*D11
340
0
  0
BLOCK_RECORD
  5
116
100
AcDbSymbolTableRecord
100
AcDbBlockTableRecord
  2
*D12
340
0
  0
BLOCK_RECORD
  5
1A8
100
AcDbSymbolTableRecord
100
AcDbBlockTableRecord
  2
C2
340
0
102
{BLKREFS
331
1AF
102
}
  0
ENDTAB
  0
ENDSEC
  0
SECTION
  2
BLOCKS
  0
BLOCK
  5
D
100
AcDbEntity
  8
0
390
0
100
AcDbBlockBegin
  2
*MODEL_SPACE
 70
               0
 10
0.0
 20
0.0
 30
0.0
  3
*MODEL_SPACE
  1

  0
ENDBLK
  5
E
100
AcDbEntity
  8
0
390
0
100
AcDbBlockEnd
  0
BLOCK
  5
F
100
AcDbEntity
 67
               1
  8
0
390
0
100
AcDbBlockBegin
  2
*PAPER_SPACE
 70
               0
 10
0.0
 20
0.0
 30
0.0
  3
*PAPER_SPACE
  1

  0
ENDBLK
  5
10
100
AcDbEntity
 67
               1
  8
0
390
0
100
AcDbBlockEnd
  0
BLOCK
  5
55
100
AcDbEntity
  8
0
390
0
100
AcDbBlockBegin
  2
*D0
 70
              65
 10
0.0
 20
0.0
 30
0.0
  3
*D0
  1

  0
LINE
  5
56
100
AcDbEntity
  8
____1
370
               5
390
0
  6
Continuous
 62
               7
100
AcDbLine
 10
946.07348632667288
 20
-224.86952739546658
 30
0.0
 11
946.07348632667288
 21
-237.36952739546669
 31
0.0
  0
LINE
  5
57
100
AcDbEntity
  8
____1
370
               5
390
0
  6
Continuous
 62
               7
100
AcDbLine
 10
937.07348632667288
 20
-237.36952739546669
 30
0.0
 11
946.57348632667288
 21
-237.36952739546669
 31
0.0
  0
LINE
  5
58
100
AcDbEntity
  8
____1
370
               5
390
0
  6
Continuous
 62
               7
100
AcDbLine
 10
937.07348632667288
 20
-224.86952739546658
 30
0.0
 11
946.57348632667288
 21
-224.86952739546658
 31
0.0
  0
SOLID
  5
59
100
AcDbEntity
  8
____1
370
               5
390
0
  6
Continuous
 62
               7
100
AcDbTrace
 10
946.07348632667288
 20
-224.86952739546658
 30
0.0
 11
946.07348632667288
 21
-224.86952739546658
 31
0.0
 12
945.51098632667288
 22
-222.61952739546658
 32
0.0
 13
946.63598632667288
 23
-222.61952739546658
 33
0.0
  0
SOLID
  5
5A
100
AcDbEntity
  8
____1
370
               5
390
0
  6
Continuous
 62
               7
100
AcDbTrace
 10
945.51098632667288
 20
-222.61952739546658
 30
0.0
 11
946.07348632667288
 21
-222.61952739546658
 31
0.0
 12
945.32348632667288
 22
-221.86952739546658
 32
0.0
 13
945.32348632667288
 23
-221.86952739546658
 33
0.0
  0
SOLID
  5
5B
100
AcDbEntity
  8
____1
370
               5
390
0
  6
Continuous
 62
               7
100
AcDbTrace
 10
946.07348632667288
 20
-222.61952739546658
 30
0.0
 11
946.63598632667288
 21
-222.61952739546658
 31
0.0
 12
946.82348632667288
 22
-221.86952739546658
 32
0.0
 13
946.82348632667288
 23
-221.86952739546658
 33
0.0
  0
LINE
  5
5C
100
AcDbEntity
  8
____1
370
               5
390
0
  6
Continuous
 62
               7
100
AcDbLine
 10
946.07348632667288
 20
-224.86952739546658
 30
0.0
 11
946.07348632667288
 21
-221.86952739546658
 31
0.0
  0
SOLID
  5
5D
100
AcDbEntity
  8
____1
370
               5
390
0
  6
Continuous
 62
               7
100
AcDbTrace
 10
945.32348632667288
 20
-240.36952739546669
 30
0.0
 11
945.32348632667288
 21
-240.36952739546669
 31
0.0
 12
945.51098632667288
 22
-239.61952739546669
 32
0.0
 13
946.07348632667288
 23
-239.61952739546669
 33
0.0
  0
SOLID
  5
5E
100
AcDbEntity
  8
____1
370
               5
390
0
  6
Continuous
 62
               7
100
AcDbTrace
 10
946.82348632667288
 20
-240.36952739546669
 30
0.0
 11
946.82348632667288
 21
-240.36952739546669
 31
0.0
 12
946.07348632667288
 22
-239.61952739546669
 32
0.0
 13
946.63598632667288
 23
-239.61952739546669
 33
0.0
  0
SOLID
  5
5F
100
AcDbEntity
  8
____1
370
               5
390
0
  6
Continuous
 62
               7
100
AcDbTrace
 10
945.51098632667288
 20
-239.61952739546669
 30
0.0
 11
946.63598632667288
 21
-239.61952739546669
 31
0.0
 12
946.07348632667288
 22
-237.36952739546669
 32
0.0
 13
946.07348632667288
 23
-237.36952739546669
 33
0.0
  0
LINE
  5
60
100
AcDbEntity
  8
____1
370
               5
390
0
  6
Continuous
 62
               7
100
AcDbLine
 10
946.07348632667288
 20
-237.36952739546669
 30
0.0
 11
946.07348632667288
 21
-240.36952739546669
 31
0.0
  0
MTEXT
  5
61
100
AcDbEntity
  8
寸法線_1
370
              18
390
0
  6
Continuous
 62
               7
100
AcDbMText
 10
941.54570865485891
 20
-234.6473050672806
 30
0.0
 40
3.5277776718139648
 41
7.0831161066889763
 71
               1
 72
               1
  1
12.5
  7
Style1
 11
0.0
 21
1.0
 31
0.0
 73
               1
 44
1.0
  0
ENDBLK
  5
62
100
AcDbEntity
  8
0
390
0
100
AcDbBlockEnd
  0
BLOCK
  5
66
100
AcDbEntity
  8
0
390
0
100
AcDbBlockBegin
  2
*D1
 70
              65
 10
0.0
 20
0.0
 30
0.0
  3
*D1
  1

  0
LINE
  5
67
100
AcDbEntity
  8
____1
370
               5
390
0
  6
Continuous
 62
               7
100
AcDbLine
 10
936.07348632667288
 20
-223.86952739546658
 30
0.0
 11
936.07348632667288
 21
-214.36952739546663
 31
0.0
  0
LINE
  5
68
100
AcDbEntity
  8
____1
370
               5
390
0
  6
Continuous
 62
               7
100
AcDbLine
 10
913.57348632667288
 20
-223.86952739546658
 30
0.0
 11
913.57348632667288
 21
-214.36952739546663
 31
0.0
  0
SOLID
  5
69
100
AcDbEntity
  8
____1
370
               5
390
0
  6
Continuous
 62
               7
100
AcDbTrace
 10
916.57348632667288
 20
-215.61952739546663
 30
0.0
 11
916.57348632667288
 21
-215.61952739546663
 31
0.0
 12
913.57348632667288
 22
-214.86952739546663
 32
0.0
 13
915.82348632667288
 23
-214.86952739546663
 33
0.0
  0
SOLID
  5
6A
100
AcDbEntity
  8
____1
370
               5
390
0
  6
Continuous
 62
               7
100
AcDbTrace
 10
913.57348632667288
 20
-214.86952739546663
 30
0.0
 11
915.82348632667288
 21
-214.86952739546663
 31
0.0
 12
916.57348632667288
 22
-214.11952739546663
 32
0.0
 13
916.57348632667288
 23
-214.11952739546663
 33
0.0
  0
LINE
  5
6B
100
AcDbEntity
  8
____1
370
               5
390
0
  6
Continuous
 62
               7
100
AcDbLine
 10
913.57348632667288
 20
-214.86952739546663
 30
0.0
 11
924.82348632667288
 21
-214.86952739546663
 31
0.0
  0
SOLID
  5
6C
100
AcDbEntity
  8
____1
370
               5
390
0
  6
Continuous
 62
               7
100
AcDbTrace
 10
933.07348632667288
 20
-215.61952739546663
 30
0.0
 11
933.07348632667288
 21
-215.61952739546663
 31
0.0
 12
933.82348632667288
 22
-214.86952739546663
 32
0.0
 13
936.07348632667288
 23
-214.86952739546663
 33
0.0
  0
SOLID
  5
6D
100
AcDbEntity
  8
____1
370
               5
390
0
  6
Continuous
 62
               7
100
AcDbTrace
 10
933.82348632667288
 20
-214.86952739546663
 30
0.0
 11
936.07348632667288
 21
-214.86952739546663
 31
0.0
 12
933.07348632667288
 22
-214.11952739546663
 32
0.0
 13
933.07348632667288
 23
-214.11952739546663
 33
0.0
  0
LINE
  5
6E
100
AcDbEntity
  8
____1
370
               5
390
0
  6
Continuous
 62
               7
100
AcDbLine
 10
936.07348632667288
 20
-214.86952739546663
 30
0.0
 11
924.82348632667288
 21
-214.86952739546663
 31
0.0
  0
MTEXT
  5
6F
100
AcDbEntity
  8
寸法線_1
370
              18
390
0
  6
Continuous
 62
               7
100
AcDbMText
 10
921.29570865485891
 20
-210.34174972365267
 30
0.0
 40
3.5277776718139648
 41
7.0831161066889763
 71
               1
 72
               1
  1
22.5
  7
Style1
 73
               1
 44
1.0
  0
ENDBLK
  5
70
100
AcDbEntity
  8
0
390
0
100
AcDbBlockEnd
  0
BLOCK
  5
73
100
AcDbEntity
  8
0
390
0
100
AcDbBlockBegin
  2
C0
 70
              64
 10
0.0
 20
0.0
 30
0.0
  3
C0
  1

  0
LINE
  5
74
100
AcDbEntity
  8
____1
370
              18
390
0
  6
Continuous
 62
               5
100
AcDbLine
 10
967.4624661986162
 20
-231.31163070316026
 30
0.0
 11
972.41246619861602
 21
-231.31163070316026
 31
0.0
  0
MTEXT
  5
75
100
AcDbEntity
  8
____1
370
               5
390
0
  6
Continuous
 62
               7
100
AcDbMText
 10
968.35472317382607
 20
-228.26181471334391
 30
0.0
 40
2.9266439437866216
 41
3.1654860495798762
 71
               1
 72
               1
  1
1
  7
Style1
 73
               1
 44
1.0
  0
LINE
  5
76
100
AcDbEntity
  8
____1
370
              18
390
0
  6
Continuous
 62
               5
100
AcDbLine
 10
969.93746619861611
 20
-227.02480495442722
 30
0.0
 11
967.4624661986162
 21
-231.31163070316026
 31
0.0
  0
LINE
  5
77
100
AcDbEntity
  8
____1
370
              18
390
0
  6
Continuous
 62
               5
100
AcDbLine
 10
969.93746619861611
 20
-227.02480495442722
 30
0.0
 11
972.41246619861602
 21
-231.31163070316026
 31
0.0
  0
ENDBLK
  5
78
100
AcDbEntity
  8
0
390
0
100
AcDbBlockEnd
  0
BLOCK
  5
88
100
AcDbEntity
  8
0
390
0
100
AcDbBlockBegin
  2
C1
 70
              64
 10
0.0
 20
0.0
 30
0.0
  3
C1
  1

  0
LINE
  5
89
100
AcDbEntity
  8
____1
370
              18
390
0
  6
Continuous
 62
               5
100
AcDbLine
 10
887.70377506471857
 20
-135.46159604060239
 30
0.0
 11
892.65377506471839
 21
-135.46159604060239
 31
0.0
  0
MTEXT
  5
8A
100
AcDbEntity
  8
____1
370
               5
390
0
  6
Continuous
 62
               7
100
AcDbMText
 10
888.59603203992845
 20
-132.41178005078604
 30
0.0
 40
2.9266439437866216
 41
3.1654860495798762
 71
               1
 72
               1
  1
1
  7
Style1
 73
               1
 44
1.0
  0
LINE
  5
8B
100
AcDbEntity
  8
____1
370
              18
390
0
  6
Continuous
 62
               5
100
AcDbLine
 10
890.17877506471848
 20
-131.17477029186938
 30
0.0
 11
887.70377506471857
 21
-135.46159604060239
 31
0.0
  0
LINE
  5
8C
100
AcDbEntity
  8
____1
370
              18
390
0
  6
Continuous
 62
               5
100
AcDbLine
 10
890.17877506471848
 20
-131.17477029186938
 30
0.0
 11
892.65377506471839
 21
-135.46159604060239
 31
0.0
  0
ENDBLK
  5
8D
100
AcDbEntity
  8
0
390
0
100
AcDbBlockEnd
  0
BLOCK
  5
A8
100
AcDbEntity
  8
0
390
0
100
AcDbBlockBegin
  2
*D4
 70
              65
 10
0.0
 20
0.0
 30
0.0
  3
*D4
  1

  0
LINE
  5
A9
100
AcDbEntity
  8
____1
370
               5
390
0
  6
Continuous
 62
               7
100
AcDbLine
 10
787.19730472509173
 20
-178.69607264874244
 30
0.0
 11
787.19730472509173
 21
-163.21133036727795
 31
0.0
  0
LINE
  5
AA
100
AcDbEntity
  8
____1
370
               5
390
0
  6
Continuous
 62
               7
100
AcDbLine
 10
734.69730472509173
 20
-178.69607360908611
 30
0.0
 11
734.69730472509173
 21
-163.21133036727795
 31
0.0
  0
SOLID
  5
AB
100
AcDbEntity
  8
____1
370
               5
390
0
  6
Continuous
 62
               7
100
AcDbTrace
 10
737.69730472509173
 20
-164.46133036727795
 30
0.0
 11
737.69730472509173
 21
-164.46133036727795
 31
0.0
 12
734.69730472509173
 22
-163.71133036727795
 32
0.0
 13
736.94730472509173
 23
-163.71133036727795
 33
0.0
  0
SOLID
  5
AC
100
AcDbEntity
  8
____1
370
               5
390
0
  6
Continuous
 62
               7
100
AcDbTrace
 10
734.69730472509173
 20
-163.71133036727795
 30
0.0
 11
736.94730472509173
 21
-163.71133036727795
 31
0.0
 12
737.69730472509173
 22
-162.96133036727795
 32
0.0
 13
737.69730472509173
 23
-162.96133036727795
 33
0.0
  0
LINE
  5
AD
100
AcDbEntity
  8
____1
370
               5
390
0
  6
Continuous
 62
               7
100
AcDbLine
 10
734.69730472509173
 20
-163.71133036727795
 30
0.0
 11
760.94730472509173
 21
-163.71133036727795
 31
0.0
  0
SOLID
  5
AE
100
AcDbEntity
  8
____1
370
               5
390
0
  6
Continuous
 62
               7
100
AcDbTrace
 10
784.19730472509173
 20
-164.46133036727795
 30
0.0
 11
784.19730472509173
 21
-164.46133036727795
 31
0.0
 12
784.94730472509173
 22
-163.71133036727795
 32
0.0
 13
787.19730472509173
 23
-163.71133036727795
 33
0.0
  0
SOLID
  5
AF
100
AcDbEntity
  8
____1
370
               5
390
0
  6
Continuous
 62
               7
100
AcDbTrace
 10
784.94730472509173
 20
-163.71133036727795
 30
0.0
 11
787.19730472509173
 21
-163.71133036727795
 31
0.0
 12
784.19730472509173
 22
-162.96133036727795
 32
0.0
 13
784.19730472509173
 23
-162.96133036727795
 33
0.0
  0
LINE
  5
B0
100
AcDbEntity
  8
____1
370
               5
390
0
  6
Continuous
 62
               7
100
AcDbLine
 10
787.19730472509173
 20
-163.71133036727795
 30
0.0
 11
760.94730472509173
 21
-163.71133036727795
 31
0.0
  0
MTEXT
  5
B1
100
AcDbEntity
  8
寸法線_1
370
              18
390
0
  6
Continuous
 62
               7
100
AcDbMText
 10
759.18341588918474
 20
-159.18355269546399
 30
0.0
 40
3.5277776718139648
 41
3.5415580533444881
 71
               1
 72
               1
  1
52
  7
Style1
 73
               1
 44
1.0
  0
ENDBLK
  5
B2
100
AcDbEntity
  8
0
390
0
100
AcDbBlockEnd
  0
BLOCK
  5
B5
100
AcDbEntity
  8
0
390
0
100
AcDbBlockBegin
  2
*D5
 70
              65
 10
0.0
 20
0.0
 30
0.0
  3
*D5
  1

  0
LINE
  5
B6
100
AcDbEntity
  8
____1
370
               5
390
0
  6
Continuous
 62
               7
100
AcDbLine
 10
803.20311260167864
 20
-180.94607264874247
 30
0.0
 11
803.20311260167864
 21
-187.44607264874247
 31
0.0
  0
LINE
  5
B7
100
AcDbEntity
  8
____1
370
               5
390
0
  6
Continuous
 62
               7
100
AcDbLine
 10
788.19730472509173
 20
-187.44607264874247
 30
0.0
 11
803.70311260167864
 21
-187.44607264874247
 31
0.0
  0
LINE
  5
B8
100
AcDbEntity
  8
____1
370
               5
390
0
  6
Continuous
 62
               7
100
AcDbLine
 10
788.19730472509173
 20
-180.94607264874247
 30
0.0
 11
803.70311260167864
 21
-180.94607264874247
 31
0.0
  0
SOLID
  5
B9
100
AcDbEntity
  8
____1
370
               5
390
0
  6
Continuous
 62
               7
100
AcDbTrace
 10
803.20311260167864
 20
-180.94607264874247
 30
0.0
 11
803.20311260167864
 21
-180.94607264874247
 31
0.0
 12
802.64061260167864
 22
-178.69607264874247
 32
0.0
 13
803.76561260167864
 23
-178.69607264874247
 33
0.0
  0
SOLID
  5
BA
100
AcDbEntity
  8
____1
370
               5
390
0
  6
Continuous
 62
               7
100
AcDbTrace
 10
802.64061260167864
 20
-178.69607264874247
 30
0.0
 11
803.20311260167864
 21
-178.69607264874247
 31
0.0
 12
802.45311260167864
 22
-177.94607264874247
 32
0.0
 13
802.45311260167864
 23
-177.94607264874247
 33
0.0
  0
SOLID
  5
BB
100
AcDbEntity
  8
____1
370
               5
390
0
  6
Continuous
 62
               7
100
AcDbTrace
 10
803.20311260167864
 20
-178.69607264874247
 30
0.0
 11
803.76561260167864
 21
-178.69607264874247
 31
0.0
 12
803.95311260167864
 22
-177.94607264874247
 32
0.0
 13
803.95311260167864
 23
-177.94607264874247
 33
0.0
  0
LINE
  5
BC
100
AcDbEntity
  8
____1
370
               5
390
0
  6
Continuous
 62
               7
100
AcDbLine
 10
803.20311260167864
 20
-180.94607264874247
 30
0.0
 11
803.20311260167864
 21
-177.94607264874247
 31
0.0
  0
SOLID
  5
BD
100
AcDbEntity
  8
____1
370
               5
390
0
  6
Continuous
 62
               7
100
AcDbTrace
 10
802.45311260167864
 20
-190.44607264874247
 30
0.0
 11
802.45311260167864
 21
-190.44607264874247
 31
0.0
 12
802.64061260167864
 22
-189.69607264874247
 32
0.0
 13
803.20311260167864
 23
-189.69607264874247
 33
0.0
  0
SOLID
  5
BE
100
AcDbEntity
  8
____1
370
               5
390
0
  6
Continuous
 62
               7
100
AcDbTrace
 10
803.95311260167864
 20
-190.44607264874247
 30
0.0
 11
803.95311260167864
 21
-190.44607264874247
 31
0.0
 12
803.20311260167864
 22
-189.69607264874247
 32
0.0
 13
803.76561260167864
 23
-189.69607264874247
 33
0.0
  0
SOLID
  5
BF
100
AcDbEntity
  8
____1
370
               5
390
0
  6
Continuous
 62
               7
100
AcDbTrace
 10
802.64061260167864
 20
-189.69607264874247
 30
0.0
 11
803.76561260167864
 21
-189.69607264874247
 31
0.0
 12
803.20311260167864
 22
-187.44607264874247
 32
0.0
 13
803.20311260167864
 23
-187.44607264874247
 33
0.0
  0
LINE
  5
C0
100
AcDbEntity
  8
____1
370
               5
390
0
  6
Continuous
 62
               7
100
AcDbLine
 10
803.20311260167864
 20
-187.44607264874247
 30
0.0
 11
803.20311260167864
 21
-190.44607264874247
 31
0.0
  0
MTEXT
  5
C1
100
AcDbEntity
  8
寸法線_1
370
              18
390
0
  6
Continuous
 62
               7
100
AcDbMText
 10
798.67533492986468
 20
-186.84190590260295
 30
0.0
 40
3.5277776718139648
 41
5.3123370800167322
 71
               1
 72
               1
  1
6.5
  7
Style1
 11
0.0
 21
1.0
 31
0.0
 73
               1
 44
1.0
  0
ENDBLK
  5
C2
100
AcDbEntity
  8
0
390
0
100
AcDbBlockEnd
  0
BLOCK
  5
C5
100
AcDbEntity
  8
0
390
0
100
AcDbBlockBegin
  2
*D6
 70
              65
 10
0.0
 20
0.0
 30
0.0
  3
*D6
  1

  0
LINE
  5
C6
100
AcDbEntity
  8
____1
370
               5
390
0
  6
Continuous
 62
               7
100
AcDbLine
 10
785.44730472509173
 20
-169.29702443601749
 30
0.0
 11
788.94730472509173
 21
-169.29702443601749
 31
0.0
  0
LINE
  5
C7
100
AcDbEntity
  8
____1
370
               5
390
0
  6
Continuous
 62
               7
100
AcDbLine
 10
788.94730472509173
 20
-179.44607228757999
 30
0.0
 11
788.94730472509173
 21
-168.79702443601749
 31
0.0
  0
LINE
  5
C8
100
AcDbEntity
  8
____1
370
               5
390
0
  6
Continuous
 62
               7
100
AcDbLine
 10
785.44730472509173
 20
-179.44607239267242
 30
0.0
 11
785.44730472509173
 21
-168.79702443601749
 31
0.0
  0
SOLID
  5
C9
100
AcDbEntity
  8
____1
370
               5
390
0
  6
Continuous
 62
               7
100
AcDbTrace
 10
782.44730472509173
 20
-170.04702443601749
 30
0.0
 11
782.44730472509173
 21
-170.04702443601749
 31
0.0
 12
783.19730472509173
 22
-169.29702443601749
 32
0.0
 13
785.44730472509173
 23
-169.29702443601749
 33
0.0
  0
SOLID
  5
CA
100
AcDbEntity
  8
____1
370
               5
390
0
  6
Continuous
 62
               7
100
AcDbTrace
 10
783.19730472509173
 20
-169.29702443601749
 30
0.0
 11
785.44730472509173
 21
-169.29702443601749
 31
0.0
 12
782.44730472509173
 22
-168.54702443601749
 32
0.0
 13
782.44730472509173
 23
-168.54702443601749
 33
0.0
  0
LINE
  5
CB
100
AcDbEntity
  8
____1
370
               5
390
0
  6
Continuous
 62
               7
100
AcDbLine
 10
785.44730472509173
 20
-169.29702443601749
 30
0.0
 11
782.44730472509173
 21
-169.29702443601749
 31
0.0
  0
SOLID
  5
CC
100
AcDbEntity
  8
____1
370
               5
390
0
  6
Continuous
 62
               7
100
AcDbTrace
 10
791.94730472509173
 20
-170.04702443601749
 30
0.0
 11
791.94730472509173
 21
-170.04702443601749
 31
0.0
 12
788.94730472509173
 22
-169.29702443601749
 32
0.0
 13
791.19730472509173
 23
-169.29702443601749
 33
0.0
  0
SOLID
  5
CD
100
AcDbEntity
  8
____1
370
               5
390
0
  6
Continuous
 62
               7
100
AcDbTrace
 10
788.94730472509173
 20
-169.29702443601749
 30
0.0
 11
791.19730472509173
 21
-169.29702443601749
 31
0.0
 12
791.94730472509173
 22
-168.54702443601749
 32
0.0
 13
791.94730472509173
 23
-168.54702443601749
 33
0.0
  0
LINE
  5
CE
100
AcDbEntity
  8
____1
370
               5
390
0
  6
Continuous
 62
               7
100
AcDbLine
 10
788.94730472509173
 20
-169.29702443601749
 30
0.0
 11
798.9357836240938
 21
-169.29702443601749
 31
0.0
  0
MTEXT
  5
CF
100
AcDbEntity
  8
寸法線_1
370
              18
390
0
  6
Continuous
 62
               7
100
AcDbMText
 10
791.88022828046587
 20
-164.76924676420353
 30
0.0
 40
3.5277776718139648
 41
5.3123370800167322
 71
               1
 72
               1
  1
3.5
  7
Style1
 73
               1
 44
1.0
  0
ENDBLK
  5
D0
100
AcDbEntity
  8
0
390
0
100
AcDbBlockEnd
  0
BLOCK
  5
D3
100
AcDbEntity
  8
0
390
0
100
AcDbBlockBegin
  2
*D7
 70
              65
 10
0.0
 20
0.0
 30
0.0
  3
*D7
  1

  0
LINE
  5
D4
100
AcDbEntity
  8
____1
370
               5
390
0
  6
Continuous
 62
               7
100
AcDbLine
 10
849.79765262444255
 20
-227.02963247377343
 30
0.0
 11
852.29765253254152
 21
-227.02963247377343
 31
0.0
  0
LINE
  5
D5
100
AcDbEntity
  8
____1
370
               5
390
0
  6
Continuous
 62
               7
100
AcDbLine
 10
852.29765253254152
 20
-236.02963247377343
 30
0.0
 11
852.29765253254152
 21
-226.52963247377343
 31
0.0
  0
LINE
  5
D6
100
AcDbEntity
  8
____1
370
               5
390
0
  6
Continuous
 62
               7
100
AcDbLine
 10
849.79765262444255
 20
-238.52963247377343
 30
0.0
 11
849.79765262444255
 21
-226.52963247377343
 31
0.0
  0
SOLID
  5
D7
100
AcDbEntity
  8
____1
370
               5
390
0
  6
Continuous
 62
               7
100
AcDbTrace
 10
846.79765262444255
 20
-227.77963247377343
 30
0.0
 11
846.79765262444255
 21
-227.77963247377343
 31
0.0
 12
847.54765262444255
 22
-227.02963247377343
 32
0.0
 13
849.79765262444255
 23
-227.02963247377343
 33
0.0
  0
SOLID
  5
D8
100
AcDbEntity
  8
____1
370
               5
390
0
  6
Continuous
 62
               7
100
AcDbTrace
 10
847.54765262444255
 20
-227.02963247377343
 30
0.0
 11
849.79765262444255
 21
-227.02963247377343
 31
0.0
 12
846.79765262444255
 22
-226.27963247377343
 32
0.0
 13
846.79765262444255
 23
-226.27963247377343
 33
0.0
  0
LINE
  5
D9
100
AcDbEntity
  8
____1
370
               5
390
0
  6
Continuous
 62
               7
100
AcDbLine
 10
849.79765262444255
 20
-227.02963247377343
 30
0.0
 11
837.60743822891948
 21
-227.02963247377343
 31
0.0
  0
SOLID
  5
DA
100
AcDbEntity
  8
____1
370
               5
390
0
  6
Continuous
 62
               7
100
AcDbTrace
 10
855.29765253254152
 20
-227.77963247377343
 30
0.0
 11
855.29765253254152
 21
-227.77963247377343
 31
0.0
 12
852.29765253254152
 22
-227.02963247377343
 32
0.0
 13
854.54765253254152
 23
-227.02963247377343
 33
0.0
  0
SOLID
  5
DB
100
AcDbEntity
  8
____1
370
               5
390
0
  6
Continuous
 62
               7
100
AcDbTrace
 10
852.29765253254152
 20
-227.02963247377343
 30
0.0
 11
854.54765253254152
 21
-227.02963247377343
 31
0.0
 12
855.29765253254152
 22
-226.27963247377343
 32
0.0
 13
855.29765253254152
 23
-226.27963247377343
 33
0.0
  0
LINE
  5
DC
100
AcDbEntity
  8
____1
370
               5
390
0
  6
Continuous
 62
               7
100
AcDbLine
 10
852.29765253254152
 20
-227.02963247377343
 30
0.0
 11
855.29765253254152
 21
-227.02963247377343
 31
0.0
  0
MTEXT
  5
DD
100
AcDbEntity
  8
寸法線_1
370
               5
390
0
  6
CENTER2
 62
               7
100
AcDbMText
 10
839.37132706482646
 20
-222.50185480195947
 30
0.0
 40
3.5277776718139648
 41
8.8538956120610237
 71
               1
 72
               1
  1
(2.5)
  7
Style1
 73
               1
 44
1.0
  0
ENDBLK
  5
DE
100
AcDbEntity
  8
0
390
0
100
AcDbBlockEnd
  0
BLOCK
  5
E1
100
AcDbEntity
  8
0
390
0
100
AcDbBlockBegin
  2
*D8
 70
              65
 10
0.0
 20
0.0
 30
0.0
  3
*D8
  1

  0
LINE
  5
E2
100
AcDbEntity
  8
____1
370
               5
390
0
  6
Continuous
 62
               7
100
AcDbLine
 10
872.29765253254152
 20
-236.02963236874371
 30
0.0
 11
872.29765253254152
 21
-226.52963236874371
 31
0.0
  0
LINE
  5
E3
100
AcDbEntity
  8
____1
370
               5
390
0
  6
Continuous
 62
               7
100
AcDbLine
 10
852.29765253254152
 20
-236.02963247377343
 30
0.0
 11
852.29765253254152
 21
-226.52963236874371
 31
0.0
  0
SOLID
  5
E4
100
AcDbEntity
  8
____1
370
               5
390
0
  6
Continuous
 62
               7
100
AcDbTrace
 10
855.29765253254152
 20
-227.77963236874371
 30
0.0
 11
855.29765253254152
 21
-227.77963236874371
 31
0.0
 12
852.29765253254152
 22
-227.02963236874371
 32
0.0
 13
854.54765253254152
 23
-227.02963236874371
 33
0.0
  0
SOLID
  5
E5
100
AcDbEntity
  8
____1
370
               5
390
0
  6
Continuous
 62
               7
100
AcDbTrace
 10
852.29765253254152
 20
-227.02963236874371
 30
0.0
 11
854.54765253254152
 21
-227.02963236874371
 31
0.0
 12
855.29765253254152
 22
-226.27963236874371
 32
0.0
 13
855.29765253254152
 23
-226.27963236874371
 33
0.0
  0
LINE
  5
E6
100
AcDbEntity
  8
____1
370
               5
390
0
  6
Continuous
 62
               7
100
AcDbLine
 10
852.29765253254152
 20
-227.02963236874371
 30
0.0
 11
862.29765253254152
 21
-227.02963236874371
 31
0.0
  0
SOLID
  5
E7
100
AcDbEntity
  8
____1
370
               5
390
0
  6
Continuous
 62
               7
100
AcDbTrace
 10
869.29765253254152
 20
-227.77963236874371
 30
0.0
 11
869.29765253254152
 21
-227.77963236874371
 31
0.0
 12
870.04765253254152
 22
-227.02963236874371
 32
0.0
 13
872.29765253254152
 23
-227.02963236874371
 33
0.0
  0
SOLID
  5
E8
100
AcDbEntity
  8
____1
370
               5
390
0
  6
Continuous
 62
               7
100
AcDbTrace
 10
870.04765253254152
 20
-227.02963236874371
 30
0.0
 11
872.29765253254152
 21
-227.02963236874371
 31
0.0
 12
869.29765253254152
 22
-226.27963236874371
 32
0.0
 13
869.29765253254152
 23
-226.27963236874371
 33
0.0
  0
LINE
  5
E9
100
AcDbEntity
  8
____1
370
               5
390
0
  6
Continuous
 62
               7
100
AcDbLine
 10
872.29765253254152
 20
-227.02963236874371
 30
0.0
 11
862.29765253254152
 21
-227.02963236874371
 31
0.0
  0
MTEXT
  5
EA
100
AcDbEntity
  8
寸法線_1
370
               5
390
0
  6
CENTER2
 62
               7
100
AcDbMText
 10
860.53376369663454
 20
-222.50185469692974
 30
0.0
 40
3.5277776718139648
 41
3.5415580533444881
 71
               1
 72
               1
  1
20
  7
Style1
 73
               1
 44
1.0
  0
ENDBLK
  5
EB
100
AcDbEntity
  8
0
390
0
100
AcDbBlockEnd
  0
BLOCK
  5
EE
100
AcDbEntity
  8
0
390
0
100
AcDbBlockBegin
  2
*D9
 70
              65
 10
0.0
 20
0.0
 30
0.0
  3
*D9
  1

  0
LINE
  5
EF
100
AcDbEntity
  8
____1
370
               5
390
0
  6
Continuous
 62
               7
100
AcDbLine
 10
730.94730494172393
 20
-255.5296326711013
 30
0.0
 11
730.94730494172393
 21
-268.6324626042678
 31
0.0
  0
LINE
  5
F0
100
AcDbEntity
  8
____1
370
               5
390
0
  6
Continuous
 62
               7
100
AcDbLine
 10
790.94730494172393
 20
-255.52963230270296
 30
0.0
 11
790.94730494172393
 21
-268.6324626042678
 31
0.0
  0
SOLID
  5
F1
100
AcDbEntity
  8
____1
370
               5
390
0
  6
Continuous
 62
               7
100
AcDbTrace
 10
787.94730494172393
 20
-268.8824626042678
 30
0.0
 11
787.94730494172393
 21
-268.8824626042678
 31
0.0
 12
788.69730494172393
 22
-268.1324626042678
 32
0.0
 13
790.94730494172393
 23
-268.1324626042678
 33
0.0
  0
SOLID
  5
F2
100
AcDbEntity
  8
____1
370
               5
390
0
  6
Continuous
 62
               7
100
AcDbTrace
 10
788.69730494172393
 20
-268.1324626042678
 30
0.0
 11
790.94730494172393
 21
-268.1324626042678
 31
0.0
 12
787.94730494172393
 22
-267.3824626042678
 32
0.0
 13
787.94730494172393
 23
-267.3824626042678
 33
0.0
  0
LINE
  5
F3
100
AcDbEntity
  8
____1
370
               5
390
0
  6
Continuous
 62
               7
100
AcDbLine
 10
790.94730494172393
 20
-268.1324626042678
 30
0.0
 11
760.94730494172393
 21
-268.1324626042678
 31
0.0
  0
SOLID
  5
F4
100
AcDbEntity
  8
____1
370
               5
390
0
  6
Continuous
 62
               7
100
AcDbTrace
 10
733.94730494172393
 20
-268.8824626042678
 30
0.0
 11
733.94730494172393
 21
-268.8824626042678
 31
0.0
 12
730.94730494172393
 22
-268.1324626042678
 32
0.0
 13
733.19730494172393
 23
-268.1324626042678
 33
0.0
  0
SOLID
  5
F5
100
AcDbEntity
  8
____1
370
               5
390
0
  6
Continuous
 62
               7
100
AcDbTrace
 10
730.94730494172393
 20
-268.1324626042678
 30
0.0
 11
733.19730494172393
 21
-268.1324626042678
 31
0.0
 12
733.94730494172393
 22
-267.3824626042678
 32
0.0
 13
733.94730494172393
 23
-267.3824626042678
 33
0.0
  0
LINE
  5
F6
100
AcDbEntity
  8
____1
370
               5
390
0
  6
Continuous
 62
               7
100
AcDbLine
 10
730.94730494172393
 20
-268.1324626042678
 30
0.0
 11
760.94730494172393
 21
-268.1324626042678
 31
0.0
  0
MTEXT
  5
F7
100
AcDbEntity
  8
寸法線_1
370
              18
390
0
  6
Continuous
 62
               7
100
AcDbMText
 10
759.18341610581695
 20
-263.60468493245384
 30
0.0
 40
3.5277776718139648
 41
3.5415580533444881
 71
               1
 72
               1
  1
60
  7
Style1
 73
               1
 44
1.0
  0
ENDBLK
  5
F8
100
AcDbEntity
  8
0
390
0
100
AcDbBlockEnd
  0
BLOCK
  5
FB
100
AcDbEntity
  8
0
390
0
100
AcDbBlockBegin
  2
*D10
 70
              65
 10
0.0
 20
0.0
 30
0.0
  3
*D10
  1

  0
LINE
  5
FC
100
AcDbEntity
  8
____1
370
               5
390
0
  6
Continuous
 62
               7
100
AcDbLine
 10
783.44730494172393
 20
-248.52963230270296
 30
0.0
 11
783.44730494172393
 21
-226.21982663438544
 31
0.0
  0
LINE
  5
FD
100
AcDbEntity
  8
____1
370
               5
390
0
  6
Continuous
 62
               7
100
AcDbLine
 10
738.44730494172393
 20
-248.5296326711013
 30
0.0
 11
738.44730494172393
 21
-226.21982663438544
 31
0.0
  0
SOLID
  5
FE
100
AcDbEntity
  8
____1
370
               5
390
0
  6
Continuous
 62
               7
100
AcDbTrace
 10
741.44730494172393
 20
-227.46982663438544
 30
0.0
 11
741.44730494172393
 21
-227.46982663438544
 31
0.0
 12
738.44730494172393
 22
-226.71982663438544
 32
0.0
 13
740.69730494172393
 23
-226.71982663438544
 33
0.0
  0
SOLID
  5
FF
100
AcDbEntity
  8
____1
370
               5
390
0
  6
Continuous
 62
               7
100
AcDbTrace
 10
738.44730494172393
 20
-226.71982663438544
 30
0.0
 11
740.69730494172393
 21
-226.71982663438544
 31
0.0
 12
741.44730494172393
 22
-225.96982663438544
 32
0.0
 13
741.44730494172393
 23
-225.96982663438544
 33
0.0
  0
LINE
  5
100
100
AcDbEntity
  8
____1
370
               5
390
0
  6
Continuous
 62
               7
100
AcDbLine
 10
738.44730494172393
 20
-226.71982663438544
 30
0.0
 11
760.94730494172393
 21
-226.71982663438544
 31
0.0
  0
SOLID
  5
101
100
AcDbEntity
  8
____1
370
               5
390
0
  6
Continuous
 62
               7
100
AcDbTrace
 10
780.44730494172393
 20
-227.46982663438544
 30
0.0
 11
780.44730494172393
 21
-227.46982663438544
 31
0.0
 12
781.19730494172393
 22
-226.71982663438544
 32
0.0
 13
783.44730494172393
 23
-226.71982663438544
 33
0.0
  0
SOLID
  5
102
100
AcDbEntity
  8
____1
370
               5
390
0
  6
Continuous
 62
               7
100
AcDbTrace
 10
781.19730494172393
 20
-226.71982663438544
 30
0.0
 11
783.44730494172393
 21
-226.71982663438544
 31
0.0
 12
780.44730494172393
 22
-225.96982663438544
 32
0.0
 13
780.44730494172393
 23
-225.96982663438544
 33
0.0
  0
LINE
  5
103
100
AcDbEntity
  8
____1
370
               5
390
0
  6
Continuous
 62
               7
100
AcDbLine
 10
783.44730494172393
 20
-226.71982663438544
 30
0.0
 11
760.94730494172393
 21
-226.71982663438544
 31
0.0
  0
MTEXT
  5
104
100
AcDbEntity
  8
寸法線_1
370
              18
390
0
  6
Continuous
 62
               7
100
AcDbMText
 10
759.18341610581695
 20
-222.19204896257148
 30
0.0
 40
3.5277776718139648
 41
3.5415580533444881
 71
               1
 72
               1
  1
45
  7
Style1
 73
               1
 44
1.0
  0
ENDBLK
  5
105
100
AcDbEntity
  8
0
390
0
100
AcDbBlockEnd
  0
BLOCK
  5
108
100
AcDbEntity
  8
0
390
0
100
AcDbBlockBegin
  2
*D11
 70
              65
 10
0.0
 20
0.0
 30
0.0
  3
*D11
  1

  0
LINE
  5
109
100
AcDbEntity
  8
____1
370
               5
390
0
  6
Continuous
 62
               7
100
AcDbLine
 10
791.94730494172393
 20
-254.52963230270296
 30
0.0
 11
801.44730494172393
 21
-254.52963230270296
 31
0.0
  0
LINE
  5
10A
100
AcDbEntity
  8
____1
370
               5
390
0
  6
Continuous
 62
               7
100
AcDbLine
 10
782.76316496740174
 20
-237.02963230506958
 30
0.0
 11
801.44730494172393
 21
-237.02963230506958
 31
0.0
  0
SOLID
  5
10B
100
AcDbEntity
  8
____1
370
               5
390
0
  6
Continuous
 62
               7
100
AcDbTrace
 10
800.19730494172393
 20
-240.02963230506958
 30
0.0
 11
800.19730494172393
 21
-240.02963230506958
 31
0.0
 12
800.38480494172393
 22
-239.27963230506958
 32
0.0
 13
800.94730494172393
 23
-239.27963230506958
 33
0.0
  0
SOLID
  5
10C
100
AcDbEntity
  8
____1
370
               5
390
0
  6
Continuous
 62
               7
100
AcDbTrace
 10
801.69730494172393
 20
-240.02963230506958
 30
0.0
 11
801.69730494172393
 21
-240.02963230506958
 31
0.0
 12
800.94730494172393
 22
-239.27963230506958
 32
0.0
 13
801.50980494172393
 23
-239.27963230506958
 33
0.0
  0
SOLID
  5
10D
100
AcDbEntity
  8
____1
370
               5
390
0
  6
Continuous
 62
               7
100
AcDbTrace
 10
800.38480494172393
 20
-239.27963230506958
 30
0.0
 11
801.50980494172393
 21
-239.27963230506958
 31
0.0
 12
800.94730494172393
 22
-237.02963230506958
 32
0.0
 13
800.94730494172393
 23
-237.02963230506958
 33
0.0
  0
LINE
  5
10E
100
AcDbEntity
  8
____1
370
               5
390
0
  6
Continuous
 62
               7
100
AcDbLine
 10
800.94730494172393
 20
-237.02963230506958
 30
0.0
 11
800.94730494172393
 21
-245.77963230388627
 31
0.0
  0
SOLID
  5
10F
100
AcDbEntity
  8
____1
370
               5
390
0
  6
Continuous
 62
               7
100
AcDbTrace
 10
800.94730494172393
 20
-254.52963230270296
 30
0.0
 11
800.94730494172393
 21
-254.52963230270296
 31
0.0
 12
800.38480494172393
 22
-252.27963230270296
 32
0.0
 13
801.50980494172393
 23
-252.27963230270296
 33
0.0
  0
SOLID
  5
110
100
AcDbEntity
  8
____1
370
               5
390
0
  6
Continuous
 62
               7
100
AcDbTrace
 10
800.38480494172393
 20
-252.27963230270296
 30
0.0
 11
800.94730494172393
 21
-252.27963230270296
 31
0.0
 12
800.19730494172393
 22
-251.52963230270296
 32
0.0
 13
800.19730494172393
 23
-251.52963230270296
 33
0.0
  0
SOLID
  5
111
100
AcDbEntity
  8
____1
370
               5
390
0
  6
Continuous
 62
               7
100
AcDbTrace
 10
800.94730494172393
 20
-252.27963230270296
 30
0.0
 11
801.50980494172393
 21
-252.27963230270296
 31
0.0
 12
801.69730494172393
 22
-251.52963230270296
 32
0.0
 13
801.69730494172393
 23
-251.52963230270296
 33
0.0
  0
LINE
  5
112
100
AcDbEntity
  8
____1
370
               5
390
0
  6
Continuous
 62
               7
100
AcDbLine
 10
800.94730494172393
 20
-254.52963230270296
 30
0.0
 11
800.94730494172393
 21
-245.77963230388627
 31
0.0
  0
MTEXT
  5
113
100
AcDbEntity
  8
寸法線_1
370
              18
390
0
  6
Continuous
 62
               7
100
AcDbMText
 10
796.41952726990996
 20
-249.30740997570024
 30
0.0
 40
3.5277776718139648
 41
7.0831161066889763
 71
               1
 72
               1
  1
17.5
  7
Style1
 11
0.0
 21
1.0
 31
0.0
 73
               1
 44
1.0
  0
ENDBLK
  5
114
100
AcDbEntity
  8
0
390
0
100
AcDbBlockEnd
  0
BLOCK
  5
117
100
AcDbEntity
  8
0
390
0
100
AcDbBlockBegin
  2
*D12
 70
              65
 10
0.0
 20
0.0
 30
0.0
  3
*D12
  1

  0
LINE
  5
118
100
AcDbEntity
  8
____1
370
               5
390
0
  6
Continuous
 62
               7
100
AcDbLine
 10
720.94730494172393
 20
-254.5296326711013
 30
0.0
 11
720.94730494172393
 21
-249.5296326711013
 31
0.0
  0
LINE
  5
119
100
AcDbEntity
  8
____1
370
               5
390
0
  6
Continuous
 62
               7
100
AcDbLine
 10
730.44730514462879
 20
-249.5296326711013
 30
0.0
 11
720.44730494172393
 21
-249.5296326711013
 31
0.0
  0
LINE
  5
11A
100
AcDbEntity
  8
____1
370
               5
390
0
  6
Continuous
 62
               7
100
AcDbLine
 10
729.94730494172393
 20
-254.5296326711013
 30
0.0
 11
720.44730494172393
 21
-254.5296326711013
 31
0.0
  0
SOLID
  5
11B
100
AcDbEntity
  8
____1
370
               5
390
0
  6
Continuous
 62
               7
100
AcDbTrace
 10
720.19730494172393
 20
-257.5296326711013
 30
0.0
 11
720.19730494172393
 21
-257.5296326711013
 31
0.0
 12
720.38480494172393
 22
-256.7796326711013
 32
0.0
 13
720.94730494172393
 23
-256.7796326711013
 33
0.0
  0
SOLID
  5
11C
100
AcDbEntity
  8
____1
370
               5
390
0
  6
Continuous
 62
               7
100
AcDbTrace
 10
721.69730494172393
 20
-257.5296326711013
 30
0.0
 11
721.69730494172393
 21
-257.5296326711013
 31
0.0
 12
720.94730494172393
 22
-256.7796326711013
 32
0.0
 13
721.50980494172393
 23
-256.7796326711013
 33
0.0
  0
SOLID
  5
11D
100
AcDbEntity
  8
____1
370
               5
390
0
  6
Continuous
 62
               7
100
AcDbTrace
 10
720.38480494172393
 20
-256.7796326711013
 30
0.0
 11
721.50980494172393
 21
-256.7796326711013
 31
0.0
 12
720.94730494172393
 22
-254.5296326711013
 32
0.0
 13
720.94730494172393
 23
-254.5296326711013
 33
0.0
  0
LINE
  5
11E
100
AcDbEntity
  8
____1
370
               5
390
0
  6
Continuous
 62
               7
100
AcDbLine
 10
720.94730494172393
 20
-254.5296326711013
 30
0.0
 11
720.94730494172393
 21
-257.5296326711013
 31
0.0
  0
SOLID
  5
11F
100
AcDbEntity
  8
____1
370
               5
390
0
  6
Continuous
 62
               7
100
AcDbTrace
 10
720.94730494172393
 20
-249.5296326711013
 30
0.0
 11
720.94730494172393
 21
-249.5296326711013
 31
0.0
 12
720.38480494172393
 22
-247.2796326711013
 32
0.0
 13
721.50980494172393
 23
-247.2796326711013
 33
0.0
  0
SOLID
  5
120
100
AcDbEntity
  8
____1
370
               5
390
0
  6
Continuous
 62
               7
100
AcDbTrace
 10
720.38480494172393
 20
-247.2796326711013
 30
0.0
 11
720.94730494172393
 21
-247.2796326711013
 31
0.0
 12
720.19730494172393
 22
-246.5296326711013
 32
0.0
 13
720.19730494172393
 23
-246.5296326711013
 33
0.0
  0
SOLID
  5
121
100
AcDbEntity
  8
____1
370
               5
390
0
  6
Continuous
 62
               7
100
AcDbTrace
 10
720.94730494172393
 20
-247.2796326711013
 30
0.0
 11
721.50980494172393
 21
-247.2796326711013
 31
0.0
 12
721.69730494172393
 22
-246.5296326711013
 32
0.0
 13
721.69730494172393
 23
-246.5296326711013
 33
0.0
  0
LINE
  5
122
100
AcDbEntity
  8
____1
370
               5
390
0
  6
Continuous
 62
               7
100
AcDbLine
 10
720.94730494172393
 20
-249.5296326711013
 30
0.0
 11
720.94730494172393
 21
-246.5296326711013
 31
0.0
  0
MTEXT
  5
123
100
AcDbEntity
  8
寸法線_1
370
              18
390
0
  6
Continuous
 62
               7
100
AcDbMText
 10
716.41952726990996
 20
-252.91157708905479
 30
0.0
 40
3.5277776718139648
 41
1.7707790266722441
 71
               1
 72
               1
  1
5
  7
Style1
 11
0.0
 21
1.0
 31
0.0
 73
               1
 44
1.0
  0
ENDBLK
  5
124
100
AcDbEntity
  8
0
390
0
100
AcDbBlockEnd
  0
BLOCK
  5
1A9
100
AcDbEntity
  8
0
390
0
100
AcDbBlockBegin
  2
C2
 70
              64
 10
0.0
 20
0.0
 30
0.0
  3
C2
  1

  0
LINE
  5
1AA
100
AcDbEntity
  8
____1
370
              18
390
0
  6
Continuous
 62
               5
100
AcDbLine
 10
890.17877506471848
 20
-136.17477029186941
 30
0.0
 11
892.65377506471839
 21
-140.46159604060242
 31
0.0
  0
LINE
  5
1AB
100
AcDbEntity
  8
____1
370
              18
390
0
  6
Continuous
 62
               5
100
AcDbLine
 10
890.17877506471848
 20
-136.17477029186941
 30
0.0
 11
887.70377506471857
 21
-140.46159604060242
 31
0.0
  0
MTEXT
  5
1AC
100
AcDbEntity
  8
____1
370
               5
390
0
  6
Continuous
 62
               7
100
AcDbMText
 10
888.59603203992845
 20
-137.41178005078606
 30
0.0
 40
2.9266439437866216
 41
3.1654860495798762
 71
               1
 72
               1
  1
2
  7
Style1
 73
               1
 44
1.0
  0
LINE
  5
1AD
100
AcDbEntity
  8
____1
370
              18
390
0
  6
Continuous
 62
               5
100
AcDbLine
 10
887.70377506471857
 20
-140.46159604060242
 30
0.0
 11
892.65377506471839
 21
-140.46159604060242
 31
0.0
  0
ENDBLK
  5
1AE
100
AcDbEntity
  8
0
390
0
100
AcDbBlockEnd
  0
ENDSEC
  0
SECTION
  2
ENTITIES
  0
LINE
  5
38
100
AcDbEntity
  8
____1
370
               5
390
0
  6
CENTER2
 62
               3
100
AcDbLine
 10
885.46306045076096
 20
-242.120958769184
 30
0.0
 11
885.46306045076096
 21
-199.21669755374327
 31
0.0
  0
LINE
  5
39
100
AcDbEntity
  8
____1
370
               5
390
0
  6
CENTER2
 62
               3
100
AcDbLine
 10
885.46306045076096
 20
-242.120958769184
 30
0.0
 11
975.46306045076096
 21
-242.120958769184
 31
0.0
  0
MTEXT
  5
3A
100
AcDbEntity
  8
____1
370
               5
390
0
  6
Continuous
 62
               7
100
AcDbMText
 10
890.54317837339477
 20
-202.33599579935731
 30
0.0
 40
4.2333331108093262
 41
14.550715066808849
 71
               1
 72
               1
  1
８５Ｗ
  7
Style1
 73
               1
 44
1.0
  0
MTEXT
  5
3C
100
AcDbEntity
  8
____1
370
               5
390
0
  6
Continuous
 62
               7
100
AcDbMText
 10
895.64556461576524
 20
-211.73102514508719
 30
0.0
 40
3.5277776718139648
 41
15.0
 71
               1
 72
               1
  1
受板ｘ２
  7
Style1
 73
               1
 44
1.0
  0
MTEXT
  5
3D
100
AcDbEntity
  8
____1
370
               5
390
0
  6
Continuous
 62
               7
100
AcDbMText
 10
915.46306045076096
 20
-126.654283627653
 30
0.0
 40
3.5277776718139648
 41
60.0
 71
               1
 72
               1
  1
改　訂　内　容
  7
Style1
 73
               1
 44
1.0
  0
MTEXT
  5
3E
100
AcDbEntity
  8
____1
370
               5
390
0
  6
Continuous
 62
               7
100
AcDbMText
 10
915.46306045076096
 20
-131.61885912699012
 30
0.0
 40
3.5277776718139648
 41
60.0
 71
               1
 72
               1
  1
材料板厚ｔ1.5からｔ1.6に変更
  7
Style1
 73
               1
 44
1.0
  0
LINE
  5
3F
100
AcDbEntity
  8
____1
370
               5
390
0
  6
CENTER2
 62
               3
100
AcDbLine
 10
885.46306045076096
 20
-199.21669755374327
 30
0.0
 11
975.46306045076096
 21
-199.21669755374327
 31
0.0
  0
LINE
  5
40
100
AcDbEntity
  8
____1
370
               5
390
0
  6
CENTER2
 62
               3
100
AcDbLine
 10
910.57348632667288
 20
-231.11952739546663
 30
0.0
 11
939.07348632667288
 21
-231.11952739546663
 31
0.0
  0
LINE
  5
41
100
AcDbEntity
  8
____1
370
               5
390
0
  6
Continuous
 62
               7
100
AcDbLine
 10
954.32348632667288
 20
-228.52634904220022
 30
0.0
 11
965.14308868857586
 21
-228.52634904220022
 31
0.0
  0
MTEXT
  5
42
100
AcDbEntity
  8
____1
370
               5
390
0
  6
Continuous
 62
               7
100
AcDbMText
 10
954.32348632667288
 20
-221.54019905760572
 30
0.0
 40
3.5277776718139648
 41
12.0
 71
               1
 72
               1
  1
ｔ1.6
  7
Style1
 73
               1
 44
1.0
  0
MTEXT
  5
43
100
AcDbEntity
  8
____1
370
               5
390
0
  6
Continuous
 62
               7
100
AcDbMText
 10
946.45192288951046
 20
-209.75397070532333
 30
0.0
 40
3.5277776718139648
 41
24.526344011916677
 71
               1
 72
               1
  1
皿ビス用皿穴
  7
Style1
 73
               1
 44
1.0
  0
LINE
  5
44
100
AcDbEntity
  8
____1
370
              18
390
0
  6
Continuous
 62
               5
100
AcDbLine
 10
936.07348632667288
 20
-237.36952739546669
 30
0.0
 11
913.57348632667288
 21
-237.36952739546669
 31
0.0
  0
LINE
  5
45
100
AcDbEntity
  8
____1
370
              18
390
0
  6
Continuous
 62
               5
100
AcDbLine
 10
936.07348632667288
 20
-224.86952739546658
 30
0.0
 11
936.07348632667288
 21
-237.36952739546669
 31
0.0
  0
LINE
  5
46
100
AcDbEntity
  8
____1
370
              18
390
0
  6
Continuous
 62
               5
100
AcDbLine
 10
935.07348632667288
 20
-224.86952739546658
 30
0.0
 11
936.07348632667288
 21
-225.86952739546672
 31
0.0
  0
LINE
  5
47
100
AcDbEntity
  8
____1
370
              18
390
0
  6
Continuous
 62
               5
100
AcDbLine
 10
914.57348632667288
 20
-237.36952739546669
 30
0.0
 11
913.57348632667288
 21
-236.36952739546669
 31
0.0
  0
LINE
  5
48
100
AcDbEntity
  8
____1
370
              18
390
0
  6
Continuous
 62
               5
100
AcDbLine
 10
935.07348632667288
 20
-237.36952739546669
 30
0.0
 11
936.07348632667288
 21
-236.36952739546669
 31
0.0
  0
LINE
  5
49
100
AcDbEntity
  8
____1
370
              18
390
0
  6
Continuous
 62
               5
100
AcDbLine
 10
914.57348632667288
 20
-224.86952739546658
 30
0.0
 11
913.57348632667288
 21
-225.86952739546672
 31
0.0
  0
MTEXT
  5
4A
100
AcDbEntity
  8
____1
370
               5
390
0
  6
Continuous
 62
               7
100
AcDbMText
 10
954.32348632667288
 20
-227.33169852004011
 30
0.0
 40
3.5277776718139648
 41
12.0
 71
               1
 72
               1
  1
ｔ1.5
  7
Style1
 73
               1
 44
1.0
  0
LINE
  5
4B
100
AcDbEntity
  8
____1
370
              18
390
0
  6
Continuous
 62
               5
100
AcDbLine
 10
913.57348632667288
 20
-224.86952739546658
 30
0.0
 11
936.07348632667288
 21
-224.86952739546658
 31
0.0
  0
CIRCLE
  5
4C
100
AcDbEntity
  8
____1
370
              18
390
0
  6
Continuous
 62
               5
100
AcDbCircle
 10
924.82348632667288
 20
-231.11952739546663
 30
0.0
 40
2.0000000000001767
  0
LINE
  5
4D
100
AcDbEntity
  8
____1
370
              18
390
0
  6
Continuous
 62
               5
100
AcDbLine
 10
913.57348632667288
 20
-237.36952739546669
 30
0.0
 11
913.57348632667288
 21
-224.86952739546658
 31
0.0
  0
CIRCLE
  5
4E
100
AcDbEntity
  8
____1
370
              18
390
0
  6
Continuous
 62
               5
100
AcDbCircle
 10
924.82348632667288
 20
-231.11952739546663
 30
0.0
 40
2.9999999999999436
  0
LINE
  5
4F
100
AcDbEntity
  8
____1
370
               5
390
0
  6
Continuous
 62
               7
100
AcDbLine
 10
927.17341877562592
 20
-229.25463665192191
 30
0.0
 11
942.06270127224923
 21
-213.87897070532333
 31
0.0
  0
SOLID
  5
50
100
AcDbEntity
  8
____1
390
0
 62
               7
100
AcDbTrace
 10
927.17341877562592
 20
-229.25463665192191
 30
0.0
 11
930.26109772464474
 21
-227.33388680722734
 31
0.0
 12
927.17341877562592
 22
-229.25463665192191
 32
0.0
 13
929.01400100234025
 23
-227.3539287117224
 33
0.0
  0
SOLID
  5
51
100
AcDbEntity
  8
____1
390
0
 62
               7
100
AcDbTrace
 10
929.01400100234025
 20
-227.3539287117224
 30
0.0
 11
928.99395909784516
 21
-226.10683198941783
 31
0.0
 12
927.17341877562592
 22
-229.25463665192191
 32
0.0
 13
927.17341877562592
 23
-229.25463665192191
 33
0.0
  0
LINE
  5
52
100
AcDbEntity
  8
____1
370
               5
390
0
  6
Continuous
 62
               7
100
AcDbLine
 10
942.06270127224923
 20
-213.87897070532333
 30
0.0
 11
969.41591095580759
 21
-213.87897070532333
 31
0.0
  0
LINE
  5
53
100
AcDbEntity
  8
____1
370
               5
390
0
  6
CENTER2
 62
               3
100
AcDbLine
 10
924.82348632667288
 20
-221.86952739546672
 30
0.0
 11
924.82348632667288
 21
-240.36952739546669
 31
0.0
  0
DIMENSION
  5
63
100
AcDbEntity
  8
寸法線_1
370
               5
390
0
  6
Continuous
 62
               7
100
AcDbDimension
  2
*D0
 10
946.07348632667288
 20
-237.36952739546669
 30
0.0
 11
946.07348632667288
 21
-231.11952739546663
 31
0.0
 71
               5
 72
               1
 41
1.0
 42
0.0
  3
DS1
100
AcDbAlignedDimension
 13
936.07348632667288
 23
-224.86952739546658
 33
0.0
 14
936.07348632667288
 24
-237.36952739546669
 34
0.0
 50
90.0
100
AcDbRotatedDimension
  0
DIMENSION
  5
71
100
AcDbEntity
  8
寸法線_1
370
               5
390
0
  6
Continuous
 62
               7
100
AcDbDimension
  2
*D1
 10
936.07348632667288
 20
-214.86952739546663
 30
0.0
 11
924.82348632667288
 21
-214.86952739546663
 31
0.0
 71
               5
 72
               1
 41
1.0
 42
0.0
  3
DS1
100
AcDbAlignedDimension
 13
913.57348632667288
 23
-224.86952739546658
 33
0.0
 14
936.07348632667288
 24
-224.86952739546658
 34
0.0
100
AcDbRotatedDimension
  0
INSERT
  5
79
100
AcDbEntity
  8
____1
370
               5
390
0
  6
Continuous
 62
             254
100
AcDbBlockReference
  2
C0
 10
0.0
 20
0.0
 30
0.0
  0
LINE
  5
7A
100
AcDbEntity
  8
____1
370
               5
390
0
  6
Continuous
 62
               7
100
AcDbLine
 10
954.32348632667288
 20
-229.75044542774239
 30
0.0
 11
965.14308868857586
 21
-229.75044542774239
 31
0.0
  0
LINE
  5
7B
100
AcDbEntity
  8
____1
370
              18
390
0
  6
Continuous
 62
               5
100
AcDbLine
 10
852.29765262521437
 20
-254.5296324737734
 30
0.0
 11
872.29765262521437
 21
-254.52963236874371
 31
0.0
  0
LINE
  5
7C
100
AcDbEntity
  8
____1
370
              18
390
0
  6
Continuous
 62
               5
100
AcDbLine
 10
781.75550647375644
 20
-237.02963230513649
 30
0.0
 11
740.13910323957543
 21
-237.0296326686678
 31
0.0
  0
ARC
  5
7D
100
AcDbEntity
  8
____1
370
              18
390
0
  6
Continuous
 62
               5
100
AcDbCircle
 10
740.13910324831068
 20
-238.0296326686678
 30
0.0
 40
0.9999999999999825
210
0.0
220
0.0
230
1.0
100
AcDbArc
 50
90.00000050049249
 51
176.5663700152017
  0
ARC
  5
7E
100
AcDbEntity
  8
____1
370
              18
390
0
  6
Continuous
 62
               5
100
AcDbCircle
 10
787.19730472509173
 20
-185.69607264874247
 30
0.0
 40
1.7500000000000182
210
0.0
220
0.0
230
1.0
100
AcDbArc
 50
-179.99999184467805
 51
-0.00000828582269
  0
ARC
  5
7F
100
AcDbEntity
  8
____1
370
              18
390
0
  6
Continuous
 62
               5
100
AcDbCircle
 10
734.69730472509173
 20
-185.69607360908608
 30
0.0
 40
1.7500000000000182
100
AcDbArc
 50
-179.99999171417639
 51
-0.0000081553229102
  0
LINE
  5
80
100
AcDbEntity
  8
____1
370
              18
390
0
  6
Continuous
 62
               5
100
AcDbLine
 10
732.94730472509173
 20
-185.69607386216217
 30
0.0
 11
732.94730472509173
 21
-182.69607324792369
 31
0.0
  0
LINE
  5
81
100
AcDbEntity
  8
____1
370
              18
390
0
  6
Continuous
 62
               5
100
AcDbLine
 10
736.44730472509173
 20
-185.69607385817625
 30
0.0
 11
736.44730472509173
 21
-182.69607335301612
 31
0.0
  0
LINE
  5
82
100
AcDbEntity
  8
____1
370
              18
390
0
  6
Continuous
 62
               5
100
AcDbLine
 10
788.94730472509173
 20
-185.69607290181852
 30
0.0
 11
788.94730472509173
 21
-182.69607228758002
 31
0.0
  0
LINE
  5
83
100
AcDbEntity
  8
____1
370
              18
390
0
  6
Continuous
 62
               5
100
AcDbLine
 10
785.44730472509173
 20
-185.69607289783261
 30
0.0
 11
785.44730472509173
 21
-182.69607239267248
 31
0.0
  0
ARC
  5
84
100
AcDbEntity
  8
____1
370
              18
390
0
  6
Continuous
 62
               5
100
AcDbCircle
 10
787.19730472509173
 20
-182.69607264874253
 30
0.0
 40
1.7500000000000189
210
0.0
220
0.0
230
1.0
100
AcDbArc
 50
0.0000118246213253
 51
179.99999161615244
  0
ARC
  5
85
100
AcDbEntity
  8
____1
370
              18
390
0
  6
Continuous
 62
               5
100
AcDbCircle
 10
734.69730472509173
 20
-182.69607360908614
 30
0.0
 40
1.7500000000000189
100
AcDbArc
 50
0.0000083838466437
 51
179.9999881753796
  0
LINE
  5
86
100
AcDbEntity
  8
____1
370
               5
390
0
  6
CENTER2
 62
               3
100
AcDbLine
 10
734.69730472509173
 20
-188.69607360908611
 30
0.0
 11
734.69730472509173
 21
-179.69607360908611
 31
0.0
  0
INSERT
  5
8E
100
AcDbEntity
  8
____1
370
               5
390
0
  6
Continuous
 62
             254
100
AcDbBlockReference
  2
C1
 10
0.0
 20
0.0
 30
0.0
  0
LINE
  5
8F
100
AcDbEntity
  8
____1
370
              18
390
0
  6
Continuous
 62
               5
100
AcDbLine
 10
887.70377506471857
 20
-130.51159604060234
 30
0.0
 11
892.65377506471839
 21
-130.51159604060234
 31
0.0
  0
LINE
  5
90
100
AcDbEntity
  8
____1
370
              18
390
0
  6
Continuous
 62
               5
100
AcDbLine
 10
890.17877506471848
 20
-126.22477029186945
 30
0.0
 11
892.65377506471839
 21
-130.51159604060234
 31
0.0
  0
LINE
  5
91
100
AcDbEntity
  8
____1
370
              18
390
0
  6
Continuous
 62
               5
100
AcDbLine
 10
890.17877506471848
 20
-126.22477029186945
 30
0.0
 11
887.70377506471857
 21
-130.51159604060234
 31
0.0
  0
LINE
  5
92
100
AcDbEntity
  8
____1
370
              18
390
0
  6
Continuous
 62
               5
100
AcDbLine
 10
885.46306045076096
 20
-140.89238779160561
 30
0.0
 11
885.46306045076096
 21
-125.89238779160559
 31
0.0
  0
LINE
  5
93
100
AcDbEntity
  8
____1
370
              18
390
0
  6
Continuous
 62
               5
100
AcDbLine
 10
895.46306045076096
 20
-140.89238779160561
 30
0.0
 11
895.46306045076096
 21
-125.89238779160559
 31
0.0
  0
MTEXT
  5
94
100
AcDbEntity
  8
____1
370
               5
390
0
  6
Continuous
 62
               7
100
AcDbMText
 10
895.46306045076096
 20
-131.61885912699012
 30
0.0
 40
3.5277776718139648
 41
20.0
 71
               1
 72
               1
  1
H16.12.10
  7
Style1
 73
               1
 44
1.0
  0
MTEXT
  5
95
100
AcDbEntity
  8
____1
370
               5
390
0
  6
Continuous
 62
               7
100
AcDbMText
 10
895.46306045076096
 20
-126.654283627653
 30
0.0
 40
3.5277776718139648
 41
20.0
 71
               1
 72
               1
  1
改訂日
  7
Style1
 73
               1
 44
1.0
  0
LINE
  5
96
100
AcDbEntity
  8
____1
370
              18
390
0
  6
Continuous
 62
               5
100
AcDbLine
 10
885.46306045076096
 20
-140.89238779160561
 30
0.0
 11
975.46306045076096
 21
-140.89238779160561
 31
0.0
  0
LINE
  5
97
100
AcDbEntity
  8
____1
370
              18
390
0
  6
Continuous
 62
               5
100
AcDbLine
 10
885.46306045076096
 20
-130.89238779160559
 30
0.0
 11
975.46306045076096
 21
-130.89238779160559
 31
0.0
  0
LINE
  5
98
100
AcDbEntity
  8
____1
370
              18
390
0
  6
Continuous
 62
               5
100
AcDbLine
 10
885.46306045076096
 20
-135.89238779160559
 30
0.0
 11
975.46306045076096
 21
-135.89238779160559
 31
0.0
  0
LINE
  5
99
100
AcDbEntity
  8
____1
370
              18
390
0
  6
Continuous
 62
               5
100
AcDbLine
 10
915.46306045076096
 20
-140.89238779160561
 30
0.0
 11
915.46306045076096
 21
-125.89238779160559
 31
0.0
  0
LINE
  5
9A
100
AcDbEntity
  8
____1
370
              18
390
0
  6
Continuous
 62
               5
100
AcDbLine
 10
915.46306045076096
 20
-140.89238779160561
 30
0.0
 11
915.46306045076096
 21
-125.89238779160559
 31
0.0
  0
LINE
  5
9B
100
AcDbEntity
  8
____1
370
              18
390
0
  6
Continuous
 62
               5
100
AcDbLine
 10
730.94730494375972
 20
-193.19607360831759
 30
0.0
 11
730.9473043987125
 21
-175.19607360831759
 31
0.0
  0
LINE
  5
9C
100
AcDbEntity
  8
____1
370
              18
390
0
  6
Continuous
 62
               5
100
AcDbLine
 10
790.94730497456476
 20
-193.196072649511
 30
0.0
 11
790.94730442951754
 21
-175.196072649511
 31
0.0
  0
LINE
  5
9D
100
AcDbEntity
  8
____1
370
               5
390
0
  6
CENTER2
 62
               3
100
AcDbLine
 10
760.94730441573233
 20
-171.19607288580926
 30
0.0
 11
760.94730496077977
 21
-199.19607288580963
 31
0.0
  0
ARC
  5
9E
100
AcDbEntity
  8
____1
370
              18
390
0
  6
Continuous
 62
               5
100
AcDbCircle
 10
789.94730442951754
 20
-175.196072649511
 30
0.0
 40
0.9999999999999949
210
0.0
220
0.0
230
1.0
100
AcDbArc
 50
0.0
 51
89.999987624470492
  0
LINE
  5
9F
100
AcDbEntity
  8
____1
370
              18
390
0
  6
Continuous
 62
               5
100
AcDbLine
 10
731.94730457734317
 20
-174.19607360831759
 30
0.0
 11
789.94730464551128
 21
-174.196072649511
 31
0.0
  0
ARC
  5
A0
100
AcDbEntity
  8
____1
370
              18
390
0
  6
Continuous
 62
               5
100
AcDbCircle
 10
731.9473043987125
 20
-175.19607360831759
 30
0.0
 40
0.9999999999999875
100
AcDbArc
 50
89.999989765216455
 51
180.0
  0
ARC
  5
A1
100
AcDbEntity
  8
____1
370
              18
390
0
  6
Continuous
 62
               5
100
AcDbCircle
 10
739.4473043987125
 20
-175.19607361846215
 30
0.0
 40
1.0
100
AcDbArc
 50
90.0
 51
180.0
  0
ARC
  5
A2
100
AcDbEntity
  8
____1
370
              18
390
0
  6
Continuous
 62
               5
100
AcDbCircle
 10
782.44730439871239
 20
-175.19607279531044
 30
0.0
 40
1.0
210
0.0
220
0.0
230
1.0
100
AcDbArc
 50
0.0
 51
90.0
  0
ARC
  5
A3
100
AcDbEntity
  8
____1
370
              18
390
0
  6
Continuous
 62
               5
100
AcDbCircle
 10
781.75550648249168
 20
-238.02963230513649
 30
0.0
 40
1.0
210
0.0
220
0.0
230
1.0
100
AcDbArc
 50
3.4336307401022821
 51
90.00000050049249
  0
LINE
  5
A4
100
AcDbEntity
  8
____1
370
              18
390
0
  6
Continuous
 62
               5
100
AcDbLine
 10
790.9473049522926
 20
-250.52963230270296
 30
0.0
 11
790.94730494172393
 21
-254.52963230270296
 31
0.0
  0
LINE
  5
A5
100
AcDbEntity
  8
____1
370
              18
390
0
  6
Continuous
 62
               5
100
AcDbLine
 10
730.9473049522926
 20
-250.5296326711013
 30
0.0
 11
730.94730494172393
 21
-254.5296326711013
 31
0.0
  0
LINE
  5
A6
100
AcDbEntity
  8
____1
370
              18
390
0
  6
Continuous
 62
               5
100
AcDbLine
 10
730.94730494172393
 20
-254.5296326711013
 30
0.0
 11
790.94730494172393
 21
-254.52963230270296
 31
0.0
  0
DIMENSION
  5
B3
100
AcDbEntity
  8
寸法線_1
370
               5
390
0
  6
Continuous
 62
               7
100
AcDbDimension
  2
*D4
 10
787.19730472509173
 20
-163.71133036727795
 30
0.0
 11
760.94730472509173
 21
-163.71133036727795
 31
0.0
 71
               5
 72
               1
 41
1.0
 42
0.0
  3
DS1
100
AcDbAlignedDimension
 13
734.69730472509173
 23
-179.69607360908611
 33
0.0
 14
787.19730472509173
 24
-179.69607264874244
 34
0.0
100
AcDbRotatedDimension
  0
DIMENSION
  5
C3
100
AcDbEntity
  8
寸法線_1
370
               5
390
0
  6
Continuous
 62
               7
100
AcDbDimension
  2
*D5
 10
803.20311260167864
 20
-187.44607264874247
 30
0.0
 11
803.20311260167864
 21
-184.19607264874247
 31
0.0
 71
               5
 72
               1
 41
1.0
 42
0.0
  3
DS1
100
AcDbAlignedDimension
 13
787.19730472509173
 23
-180.94607264874247
 33
0.0
 14
787.19730472509173
 24
-187.44607264874247
 34
0.0
 50
90.0
100
AcDbRotatedDimension
  0
DIMENSION
  5
D1
100
AcDbEntity
  8
寸法線_1
370
               5
390
0
  6
Continuous
 62
               7
100
AcDbDimension
  2
*D6
 10
788.94730472509173
 20
-169.29702443601749
 30
0.0
 11
794.52606153432635
 21
-169.29702443601749
 31
0.0
 71
               5
 72
               1
 41
1.0
 42
0.0
  3
DS1
100
AcDbAlignedDimension
 13
785.44730472509173
 23
-180.44607239267242
 33
0.0
 14
788.94730472509173
 24
-180.44607228757999
 34
0.0
100
AcDbRotatedDimension
  0
DIMENSION
  5
DF
100
AcDbEntity
  8
寸法線_1
370
               5
390
0
  6
Continuous
 62
               7
100
AcDbDimension
  2
*D7
 10
852.29765253254152
 20
-227.02963247377343
 30
0.0
 11
843.78104915459392
 21
-227.02963247377343
 31
0.0
 71
               5
 72
               1
 41
1.0
 42
0.0
  3
DS1
100
AcDbAlignedDimension
 13
849.79765262444255
 23
-239.52963247377343
 33
0.0
 14
852.29765253254152
 24
-237.02963247377343
 34
0.0
100
AcDbRotatedDimension
  0
DIMENSION
  5
EC
100
AcDbEntity
  8
寸法線_1
370
               5
390
0
  6
Continuous
 62
               7
100
AcDbDimension
  2
*D8
 10
872.29765253254152
 20
-227.02963236874371
 30
0.0
 11
862.29765253254152
 21
-227.02963236874371
 31
0.0
 71
               5
 72
               1
 41
1.0
 42
0.0
  3
DS1
100
AcDbAlignedDimension
 13
852.29765253254152
 23
-237.02963247377343
 33
0.0
 14
872.29765253254152
 24
-237.02963236874371
 34
0.0
100
AcDbRotatedDimension
  0
DIMENSION
  5
F9
100
AcDbEntity
  8
寸法線_1
370
               5
390
0
  6
Continuous
 62
               7
100
AcDbDimension
  2
*D9
 10
730.94730494172393
 20
-268.1324626042678
 30
0.0
 11
760.94730494172393
 21
-268.1324626042678
 31
0.0
 71
               5
 72
               1
 41
1.0
 42
0.0
  3
DS1
100
AcDbAlignedDimension
 13
790.94730494172393
 23
-254.52963230270296
 33
0.0
 14
730.94730494172393
 24
-254.5296326711013
 34
0.0
 50
180.0
100
AcDbRotatedDimension
  0
DIMENSION
  5
106
100
AcDbEntity
  8
寸法線_1
370
               5
390
0
  6
Continuous
 62
               7
100
AcDbDimension
  2
*D10
 10
783.44730494172393
 20
-226.71982663438544
 30
0.0
 11
760.94730494172393
 21
-226.71982663438544
 31
0.0
 71
               5
 72
               1
 41
1.0
 42
0.0
  3
DS1
100
AcDbAlignedDimension
 13
738.44730494172393
 23
-249.5296326711013
 33
0.0
 14
783.44730494172393
 24
-249.52963230270296
 34
0.0
100
AcDbRotatedDimension
  0
DIMENSION
  5
115
100
AcDbEntity
  8
寸法線_1
370
               5
390
0
  6
Continuous
 62
               7
100
AcDbDimension
  2
*D11
 10
800.94730494172393
 20
-254.52963230270296
 30
0.0
 11
800.94730494172393
 21
-245.77963230388627
 31
0.0
 71
               5
 72
               1
 41
1.0
 42
0.0
  3
DS1
100
AcDbAlignedDimension
 13
781.76316496740174
 23
-237.02963230506958
 33
0.0
 14
790.94730494172393
 24
-254.52963230270296
 34
0.0
 50
90.0
100
AcDbRotatedDimension
  0
DIMENSION
  5
125
100
AcDbEntity
  8
寸法線_1
370
               5
390
0
  6
Continuous
 62
               7
100
AcDbDimension
  2
*D12
 10
720.94730494172393
 20
-249.5296326711013
 30
0.0
 11
720.94730494172393
 21
-252.0296326711013
 31
0.0
 71
               5
 72
               1
 41
1.0
 42
0.0
  3
DS1
100
AcDbAlignedDimension
 13
730.94730494172393
 23
-254.5296326711013
 33
0.0
 14
731.44730514462879
 24
-249.5296326711013
 34
0.0
 50
90.0
100
AcDbRotatedDimension
  0
LINE
  5
126
100
AcDbEntity
  8
____1
370
              18
390
0
  6
Continuous
 62
               5
100
AcDbLine
 10
849.7976526305921
 20
-239.52963247377343
 30
0.0
 11
852.2976526305921
 21
-239.52963247377343
 31
0.0
  0
ARC
  5
127
100
AcDbEntity
  8
____1
370
              18
390
0
  6
Continuous
 62
               5
100
AcDbCircle
 10
853.29765253910591
 20
-238.02963246720907
 30
0.0
 40
1.0
100
AcDbArc
 50
90.000000376111942
 51
179.99998982605186
  0
LINE
  5
128
100
AcDbEntity
  8
____1
370
              18
390
0
  6
Continuous
 62
               5
100
AcDbLine
 10
853.29765253254152
 20
-237.02963246720907
 30
0.0
 11
871.29765253254152
 21
-237.02963237530807
 31
0.0
  0
ARC
  5
129
100
AcDbEntity
  8
____1
370
              18
390
0
  6
Continuous
 62
               5
100
AcDbCircle
 10
871.29765253910591
 20
-238.02963237530807
 30
0.0
 40
1.0
210
0.0
220
0.0
230
1.0
100
AcDbArc
 50
-0.000009720037286
 51
90.000000376111942
  0
LINE
  5
12A
100
AcDbEntity
  8
____1
370
              18
390
0
  6
Continuous
 62
               5
100
AcDbLine
 10
778.94730488611594
 20
-241.32963248690217
 30
0.0
 11
742.94730488611594
 21
-241.32963248690214
 31
0.0
  0
LINE
  5
12B
100
AcDbEntity
  8
____1
370
              18
390
0
  6
Continuous
 62
               5
100
AcDbLine
 10
778.94730487784477
 20
-239.52963248690216
 30
0.0
 11
778.94730488611594
 21
-241.32963248690217
 31
0.0
  0
LINE
  5
12C
100
AcDbEntity
  8
____1
370
              18
390
0
  6
Continuous
 62
               5
100
AcDbLine
 10
782.75371132756277
 20
-237.9697400078291
 30
0.0
 11
783.44730494172393
 21
-249.52963230270296
 31
0.0
  0
LINE
  5
12D
100
AcDbEntity
  8
____1
370
              18
390
0
  6
Continuous
 62
               5
100
AcDbLine
 10
739.14089840245015
 20
-237.9697403845193
 30
0.0
 11
738.44730494172393
 21
-249.5296326711013
 31
0.0
  0
LINE
  5
12E
100
AcDbEntity
  8
____1
370
               5
390
0
  6
CENTER2
 62
               3
100
AcDbLine
 10
760.9473048424868
 20
-233.02963248690213
 30
0.0
 11
760.94730494172393
 21
-257.52963248690219
 31
0.0
  0
LINE
  5
12F
100
AcDbEntity
  8
____1
370
              18
390
0
  6
Continuous
 62
               5
100
AcDbLine
 10
742.94730489902361
 20
-247.22963248690212
 30
0.0
 11
742.94730490729467
 21
-249.02963248690213
 31
0.0
  0
LINE
  5
130
100
AcDbEntity
  8
____1
370
              18
390
0
  6
Continuous
 62
               5
100
AcDbLine
 10
778.94730490729467
 20
-249.02963248690216
 30
0.0
 11
742.94730490729467
 21
-249.02963248690213
 31
0.0
  0
LINE
  5
131
100
AcDbEntity
  8
____1
370
              18
390
0
  6
Continuous
 62
               5
100
AcDbLine
 10
778.94730489902361
 20
-247.22963248690215
 30
0.0
 11
742.94730489902361
 21
-247.22963248690212
 31
0.0
  0
LINE
  5
132
100
AcDbEntity
  8
____1
370
              18
390
0
  6
Continuous
 62
               5
100
AcDbLine
 10
778.94730489902361
 20
-247.22963248690215
 30
0.0
 11
778.94730490729467
 21
-249.02963248690216
 31
0.0
  0
LINE
  5
133
100
AcDbEntity
  8
____1
370
              18
390
0
  6
Continuous
 62
               5
100
AcDbLine
 10
731.9473049522926
 20
-249.5296326711013
 30
0.0
 11
738.44730494172393
 21
-249.5296326711013
 31
0.0
  0
LINE
  5
134
100
AcDbEntity
  8
____1
370
              18
390
0
  6
Continuous
 62
               5
100
AcDbLine
 10
789.9473049522926
 20
-249.52963230270296
 30
0.0
 11
783.44730494172393
 21
-249.52963230270296
 31
0.0
  0
ARC
  5
135
100
AcDbEntity
  8
____1
370
              18
390
0
  6
Continuous
 62
               5
100
AcDbCircle
 10
731.9473049522926
 20
-250.5296326711013
 30
0.0
 40
1.0
100
AcDbArc
 50
90.0
 51
180.0
  0
LINE
  5
136
100
AcDbEntity
  8
____1
370
               5
390
0
  6
CENTER2
 62
               3
100
AcDbLine
 10
787.19730472509173
 20
-188.69607264874247
 30
0.0
 11
787.19730472509173
 21
-179.69607264874244
 31
0.0
  0
LINE
  5
137
100
AcDbEntity
  8
____1
370
               5
390
0
  6
CENTER2
 62
               3
100
AcDbLine
 10
793.94730475589677
 20
-184.1960725252697
 30
0.0
 11
727.94730483280296
 21
-184.19607373255886
 31
0.0
  0
LINE
  5
138
100
AcDbEntity
  8
____1
370
              18
390
0
  6
Continuous
 62
               5
100
AcDbLine
 10
742.9473049094122
 20
-196.19607288580988
 30
0.0
 11
742.9473049094122
 21
-194.1960728858092
 31
0.0
  0
LINE
  5
139
100
AcDbEntity
  8
____1
370
              18
390
0
  6
Continuous
 62
               5
100
AcDbLine
 10
778.94730487784477
 20
-239.52963248690216
 30
0.0
 11
742.94730487784477
 21
-239.52963248690213
 31
0.0
  0
LINE
  5
13A
100
AcDbEntity
  8
____1
370
              18
390
0
  6
Continuous
 62
               5
100
AcDbLine
 10
778.9473049094122
 20
-196.19607288580937
 30
0.0
 11
742.9473049094122
 21
-196.19607288580988
 31
0.0
  0
LINE
  5
13B
100
AcDbEntity
  8
____1
370
              18
390
0
  6
Continuous
 62
               5
100
AcDbLine
 10
778.9473049094122
 20
-196.19607288580937
 30
0.0
 11
778.9473049094122
 21
-194.19607288580926
 31
0.0
  0
ARC
  5
13C
100
AcDbEntity
  8
____1
370
              18
390
0
  6
Continuous
 62
               5
100
AcDbCircle
 10
789.94730497456476
 20
-193.196072649511
 30
0.0
 40
1.0
210
0.0
220
0.0
230
1.0
100
AcDbArc
 50
-90.000007824745055
 51
0.0
  0
LINE
  5
13D
100
AcDbEntity
  8
____1
370
              18
390
0
  6
Continuous
 62
               5
100
AcDbLine
 10
731.94730511654768
 20
-194.19607360831759
 30
0.0
 11
789.94730483799719
 21
-194.196072649511
 31
0.0
  0
ARC
  5
13E
100
AcDbEntity
  8
____1
370
              18
390
0
  6
Continuous
 62
               5
100
AcDbCircle
 10
731.94730494375972
 20
-193.19607360831759
 30
0.0
 40
1.0
100
AcDbArc
 50
180.0
 51
-89.999990099978945
  0
ARC
  5
13F
100
AcDbEntity
  8
____1
370
              18
390
0
  6
Continuous
 62
               5
100
AcDbCircle
 10
739.44730494375972
 20
-193.19607361846212
 30
0.0
 40
1.0
100
AcDbArc
 50
180.0
 51
-90.0
  0
ARC
  5
140
100
AcDbEntity
  8
____1
370
              18
390
0
  6
Continuous
 62
               5
100
AcDbCircle
 10
782.44730494375972
 20
-193.19607279531044
 30
0.0
 40
1.0
210
0.0
220
0.0
230
1.0
100
AcDbArc
 50
-90.0
 51
0.0
  0
LINE
  5
141
100
AcDbEntity
  8
____1
370
              18
390
0
  6
Continuous
 62
               5
100
AcDbLine
 10
783.44730439871239
 20
-175.19607279531044
 30
0.0
 11
783.44730494375972
 21
-193.19607279531044
 31
0.0
  0
LINE
  5
142
100
AcDbEntity
  8
____1
370
              18
390
0
  6
Continuous
 62
               5
100
AcDbLine
 10
738.4473043987125
 20
-175.19607361846215
 30
0.0
 11
738.44730494375972
 21
-193.19607361846212
 31
0.0
  0
LINE
  5
143
100
AcDbEntity
  8
____1
370
              18
390
0
  6
Continuous
 62
               5
100
AcDbLine
 10
911.82750426870132
 20
-310.1242494180953
 30
0.0
 11
911.71038886852205
 21
-309.71726630572158
 31
0.0
  0
LINE
  5
144
100
AcDbEntity
  8
____1
370
              18
390
0
  6
Continuous
 62
               5
100
AcDbLine
 10
907.56273278386595
 20
-313.64424941809534
 30
0.0
 11
910.59419945053264
 21
-313.64424941809534
 31
0.0
  0
ARC
  5
145
100
AcDbEntity
  8
____1
370
              18
390
0
  6
Continuous
 62
               5
100
AcDbCircle
 10
900.58874666523911
 20
-309.96424941809528
 30
0.0
 40
4.3999999999999773
210
0.0
220
0.0
230
1.0
100
AcDbArc
 50
-37.512388020300733
 51
0.0
  0
LINE
  5
146
100
AcDbEntity
  8
____1
370
              18
390
0
  6
Continuous
 62
               5
100
AcDbLine
 10
912.42605498239561
 20
-312.20424941809529
 30
0.0
 11
914.762732783866
 21
-312.20424941809529
 31
0.0
  0
LINE
  5
147
100
AcDbEntity
  8
____1
370
              18
390
0
  6
Continuous
 62
               5
100
AcDbLine
 10
913.16273278386586
 20
-314.76424941809529
 30
0.0
 11
912.8404362457228
 21
-313.64424941809534
 31
0.0
  0
LINE
  5
148
100
AcDbEntity
  8
____1
370
              18
390
0
  6
Continuous
 62
               5
100
AcDbLine
 10
891.66026181675431
 20
-311.5642494180953
 30
0.0
 11
893.26026181675434
 21
-311.5642494180953
 31
0.0
  0
MTEXT
  5
149
100
AcDbEntity
  8
____1
370
               5
390
0
  6
Continuous
 62
               7
100
AcDbMText
 10
855.46306045076096
 20
-285.39332367684864
 30
0.0
 40
4.2333331108093262
 41
32.0
 71
               1
 72
               1
  1
色：白・茶
  7
Style1
 73
               1
 44
1.0
  0
SPLINE
  5
14A
100
AcDbEntity
  8
____1
370
              18
390
0
  6
Continuous
 62
               5
100
AcDbSpline
210
0.0
220
0.0
230
1.0
 70
               0
 71
               3
 72
               8
 73
               4
 74
               0
 42
0.0000001
 43
0.0000001
 12
0.6676726695720007
 22
-0.744454972652207
 32
0.0
 13
0.7413159697197984
 23
-0.6711561912389654
 33
0.0
 40
0.0
 40
0.0
 40
0.0
 40
0.0
 40
1.0
 40
1.0
 40
1.0
 40
1.0
 10
901.33619832527972
 20
-311.07448597203978
 30
0.0
 10
901.55969626713079
 20
-311.32368615915425
 30
0.0
 10
901.78319420898197
 20
-311.57288634626866
 30
0.0
 10
902.02532001353495
 20
-311.79209683062646
 30
0.0
  0
SPLINE
  5
14B
100
AcDbEntity
  8
____1
370
              18
390
0
  6
Continuous
 62
               5
100
AcDbSpline
210
0.0
220
0.0
230
1.0
 70
               0
 71
               3
 72
               8
 73
               4
 74
               0
 42
0.0000001
 43
0.0000001
 12
0.9524773181045301
 22
-0.3046095180660017
 32
0.0
 13
0.9790669434801577
 23
-0.2035384980401049
 33
0.0
 40
0.0
 40
0.0
 40
0.0
 40
0.0
 40
1.0
 40
1.0
 40
1.0
 40
1.0
 10
902.95577610051942
 20
-313.6733155610101
 30
0.0
 10
903.86704512943902
 20
-313.964746353588
 30
0.0
 10
904.82789589733909
 20
-314.16449788584168
 30
0.0
 10
905.78874666523905
 20
-314.36424941809531
 30
0.0
  0
SPLINE
  5
14C
100
AcDbEntity
  8
____1
370
              18
390
0
  6
Continuous
 62
               5
100
AcDbSpline
210
0.0
220
0.0
230
1.0
 70
               0
 71
               3
 72
               9
 73
               5
 74
               0
 42
0.0000001
 43
0.0000001
 12
0.7352773642103068
 22
-0.6777663297036403
 32
0.0
 13
0.8572557179984813
 23
-0.5148908951990783
 33
0.0
 40
0.0
 40
0.0
 40
0.0
 40
0.0
 40
0.9999999993702069
 40
1.0
 40
1.0
 40
1.0
 40
1.0
 10
898.58874666523911
 20
-310.87962584606544
 30
0.0
 10
899.35243034793268
 20
-311.58357664323125
 30
0.0
 10
900.11611403110726
 20
-312.28752744084034
 30
0.0
 10
900.97996303235755
 20
-312.80626726238938
 30
0.0
 10
900.97996303290154
 20
-312.80626726271612
 30
0.0
  0
SPLINE
  5
14D
100
AcDbEntity
  8
____1
370
              18
390
0
  6
Continuous
 62
               5
100
AcDbSpline
210
0.0
220
0.0
230
1.0
 70
               0
 71
               3
 72
               8
 73
               4
 74
               0
 42
0.0000001
 43
0.0000001
 12
0.9618578240638687
 22
-0.2735498606965832
 32
0.0
 13
0.9860364361538031
 23
-0.1665297167988561
 33
0.0
 40
0.0
 40
0.0
 40
0.0
 40
0.0
 40
1.0
 40
1.0
 40
1.0
 40
1.0
 10
903.93644049907539
 20
-312.78305690062575
 30
0.0
 10
904.52825590189912
 20
-312.95136766023109
 30
0.0
 10
905.15850128356897
 20
-313.0578085391632
 30
0.0
 10
905.78874666523905
 20
-313.16424941809532
 30
0.0
  0
ARC
  5
14E
100
AcDbEntity
  8
____1
370
              18
390
0
  6
Continuous
 62
               5
100
AcDbCircle
 10
789.9473049522926
 20
-250.52963230270296
 30
0.0
 40
1.0
210
0.0
220
0.0
230
1.0
100
AcDbArc
 50
0.0
 51
90.0
  0
LINE
  5
14F
100
AcDbEntity
  8
____1
370
              18
390
0
  6
Continuous
 62
               5
100
AcDbLine
 10
730.94730494172393
 20
-254.5296326711013
 30
0.0
 11
790.94730494172393
 21
-254.52963230270296
 31
0.0
  0
LINE
  5
150
100
AcDbEntity
  8
____1
370
              18
390
0
  6
Continuous
 62
               5
100
AcDbLine
 10
849.7976526305921
 20
-239.52963247377343
 30
0.0
 11
849.7976526305921
 21
-241.32963247377344
 31
0.0
  0
LINE
  5
151
100
AcDbEntity
  8
____1
370
              18
390
0
  6
Continuous
 62
               5
100
AcDbLine
 10
849.7976526305921
 20
-241.32963247377344
 30
0.0
 11
852.2976526305921
 21
-241.32963247377344
 31
0.0
  0
LINE
  5
152
100
AcDbEntity
  8
____1
370
              18
390
0
  6
Continuous
 62
               5
100
AcDbLine
 10
849.79765263017418
 20
-247.22963247377342
 30
0.0
 11
852.29765263017407
 21
-247.22963247377342
 31
0.0
  0
LINE
  5
153
100
AcDbEntity
  8
____1
370
              18
390
0
  6
Continuous
 62
               5
100
AcDbLine
 10
849.79765263017418
 20
-249.02963247377343
 30
0.0
 11
849.79765263017418
 21
-247.22963247377342
 31
0.0
  0
LINE
  5
154
100
AcDbEntity
  8
____1
370
              18
390
0
  6
Continuous
 62
               5
100
AcDbLine
 10
849.79765263017407
 20
-249.02963247377343
 30
0.0
 11
852.29765263017407
 21
-249.02963247377343
 31
0.0
  0
ARC
  5
155
100
AcDbEntity
  8
____1
370
              18
390
0
  6
Continuous
 62
               5
100
AcDbCircle
 10
853.297652619372
 20
-250.52963246720907
 30
0.0
 40
1.0
100
AcDbArc
 50
90.000000376105419
 51
-179.99999962388969
  0
LINE
  5
156
100
AcDbEntity
  8
____1
370
              18
390
0
  6
Continuous
 62
               5
100
AcDbLine
 10
853.29765261280772
 20
-249.52963246720907
 30
0.0
 11
871.29765261280772
 21
-249.52963237530807
 31
0.0
  0
ARC
  5
157
100
AcDbEntity
  8
____1
370
              18
390
0
  6
Continuous
 62
               5
100
AcDbCircle
 10
871.297652619372
 20
-250.52963237530807
 30
0.0
 40
1.0
210
0.0
220
0.0
230
1.0
100
AcDbArc
 50
0.0000003761103109
 51
90.000000376105419
  0
LINE
  5
158
100
AcDbEntity
  8
____1
370
              18
390
0
  6
Continuous
 62
               5
100
AcDbLine
 10
852.29765253910591
 20
-238.02963228964018
 30
0.0
 11
852.29765262521437
 21
-254.5296324737734
 31
0.0
  0
LINE
  5
159
100
AcDbEntity
  8
____1
370
              18
390
0
  6
Continuous
 62
               5
100
AcDbLine
 10
872.29765253910591
 20
-238.02963254495472
 30
0.0
 11
872.29765262521437
 21
-254.52963236874371
 31
0.0
  0
LINE
  5
15A
100
AcDbEntity
  8
____1
370
               5
390
0
  6
CENTER2
 62
               3
100
AcDbLine
 10
862.297652624541
 20
-234.02963242125855
 30
0.0
 11
862.29765262531282
 21
-257.52963248690219
 31
0.0
  0
LINE
  5
15B
100
AcDbEntity
  8
____1
370
              18
390
0
  6
Continuous
 62
               5
100
AcDbLine
 10
742.94730487784477
 20
-239.52963248690213
 30
0.0
 11
742.94730488611594
 21
-241.32963248690214
 31
0.0
  0
LINE
  5
15C
100
AcDbEntity
  8
____1
370
              18
390
0
  6
Continuous
 62
               5
100
AcDbLine
 10
911.82750426870132
 20
-310.12424941809536
 30
0.0
 11
914.762732783866
 21
-310.12424941809536
 31
0.0
  0
LINE
  5
15D
100
AcDbEntity
  8
____1
370
              18
390
0
  6
Continuous
 62
               5
100
AcDbLine
 10
909.56166611719925
 20
-310.1242494180953
 30
0.0
 11
909.16273278386586
 21
-308.76424941809529
 31
0.0
  0
LINE
  5
15E
100
AcDbEntity
  8
____1
370
              18
390
0
  6
Continuous
 62
               5
100
AcDbLine
 10
889.66026181675431
 20
-308.76424941809529
 30
0.0
 11
889.66026181675431
 21
-310.36424941809531
 31
0.0
  0
LINE
  5
15F
100
AcDbEntity
  8
____1
370
              18
390
0
  6
Continuous
 62
               5
100
AcDbLine
 10
891.66026181675431
 20
-309.96424941809528
 30
0.0
 11
892.86026181675436
 21
-308.76424941809529
 31
0.0
  0
LINE
  5
160
100
AcDbEntity
  8
____1
370
              18
390
0
  6
Continuous
 62
               5
100
AcDbLine
 10
892.86026181675436
 20
-308.76424941809529
 30
0.0
 11
889.66026181675431
 21
-308.76424941809529
 31
0.0
  0
LINE
  5
161
100
AcDbEntity
  8
____1
370
              18
390
0
  6
Continuous
 62
               5
100
AcDbLine
 10
893.26026181675434
 20
-310.36424941809531
 30
0.0
 11
891.66026181675431
 21
-310.36424941809531
 31
0.0
  0
MTEXT
  5
162
100
AcDbEntity
  8
____1
370
               5
390
0
  6
Continuous
 62
               7
100
AcDbMText
 10
928.35152933771269
 20
-299.60458230711225
 30
0.0
 40
3.5277776718139648
 41
44.887960811622378
 71
               1
 72
               1
  1
ねじ止め式\Pマグネットキャッチ<角型 >
  7
Style1
 73
               1
 44
1.0
  0
LINE
  5
163
100
AcDbEntity
  8
____1
370
               5
390
0
  6
Continuous
 62
               7
100
AcDbLine
 10
855.46306045076096
 20
-290.39238779160559
 30
0.0
 11
855.46306045076096
 21
-315.89238779160559
 31
0.0
  0
LINE
  5
164
100
AcDbEntity
  8
____1
370
               5
390
0
  6
Continuous
 62
               7
100
AcDbLine
 10
919.46306045076096
 20
-290.39238779160559
 30
0.0
 11
919.46306045076096
 21
-315.89238779160559
 31
0.0
  0
LINE
  5
165
100
AcDbEntity
  8
____1
370
               5
390
0
  6
Continuous
 62
               7
100
AcDbLine
 10
855.46306045076096
 20
-290.39238779160559
 30
0.0
 11
975.46306045076096
 21
-290.39238779160559
 31
0.0
  0
LINE
  5
166
100
AcDbEntity
  8
____1
370
               5
390
0
  6
Continuous
 62
               7
100
AcDbLine
 10
855.46306045076096
 20
-307.39238779160559
 30
0.0
 11
975.46306045076096
 21
-307.39238779160559
 31
0.0
  0
LINE
  5
167
100
AcDbEntity
  8
____1
370
               5
390
0
  6
Continuous
 62
               7
100
AcDbLine
 10
871.46306045076096
 20
-290.39238779160559
 30
0.0
 11
871.46306045076096
 21
-298.89238779160559
 31
0.0
  0
LINE
  5
168
100
AcDbEntity
  8
____1
370
               5
390
0
  6
Continuous
 62
               7
100
AcDbLine
 10
903.46306045076096
 20
-290.39238779160559
 30
0.0
 11
903.46306045076096
 21
-307.39238779160559
 31
0.0
  0
LINE
  5
169
100
AcDbEntity
  8
____1
370
              18
390
0
  6
Continuous
 62
               5
100
AcDbLine
 10
907.56273278386595
 20
-310.12424941809536
 30
0.0
 11
907.56273278386595
 21
-311.5642494180953
 31
0.0
  0
LINE
  5
16A
100
AcDbEntity
  8
____1
370
              18
390
0
  6
Continuous
 62
               5
100
AcDbLine
 10
895.26026181675434
 20
-311.96424941809528
 30
0.0
 11
895.26026181675434
 21
-311.5642494180953
 31
0.0
  0
LINE
  5
16B
100
AcDbEntity
  8
____1
370
              18
390
0
  6
Continuous
 62
               5
100
AcDbLine
 10
898.58874666523911
 20
-310.62193763208035
 30
0.0
 11
901.78874666523905
 21
-310.62193763208035
 31
0.0
  0
LINE
  5
16C
100
AcDbEntity
  8
____1
370
              18
390
0
  6
Continuous
 62
               5
100
AcDbLine
 10
902.21779665858821
 20
-311.57950614218328
 30
0.0
 11
902.02532001353495
 21
-311.79209683062641
 31
0.0
  0
ARC
  5
16D
100
AcDbEntity
  8
____1
370
              18
390
0
  6
Continuous
 62
               5
100
AcDbCircle
 10
892.06026181675441
 20
-311.96424941809528
 30
0.0
 40
1.1999999999999318
210
0.0
220
0.0
230
0.9999999999999999
100
AcDbArc
 50
-90.0
 51
0.0
  0
LINE
  5
16E
100
AcDbEntity
  8
____1
370
              18
390
0
  6
Continuous
 62
               5
100
AcDbLine
 10
893.26026181675434
 20
-308.76424941809529
 30
0.0
 11
893.26026181675434
 21
-310.36424941809531
 31
0.0
  0
LINE
  5
16F
100
AcDbEntity
  8
____1
370
              18
390
0
  6
Continuous
 62
               5
100
AcDbLine
 10
912.24188553202816
 20
-311.5642494180953
 30
0.0
 11
914.762732783866
 21
-311.5642494180953
 31
0.0
  0
LINE
  5
170
100
AcDbEntity
  8
____1
370
              18
390
0
  6
Continuous
 62
               5
100
AcDbLine
 10
904.98874666523909
 20
-309.96424941809528
 30
0.0
 11
905.78874666523905
 21
-308.76424941809529
 31
0.0
  0
LINE
  5
171
100
AcDbEntity
  8
____1
370
              18
390
0
  6
Continuous
 62
               5
100
AcDbLine
 10
910.1717994505326
 20
-312.20424941809529
 30
0.0
 11
909.98406611719918
 21
-311.5642494180953
 31
0.0
  0
LINE
  5
172
100
AcDbEntity
  8
____1
370
              18
390
0
  6
Continuous
 62
               5
100
AcDbLine
 10
895.26026181675434
 20
-309.96424941809528
 30
0.0
 11
896.46026181675438
 21
-308.76424941809529
 31
0.0
  0
LINE
  5
173
100
AcDbEntity
  8
____1
370
              18
390
0
  6
Continuous
 62
               5
100
AcDbLine
 10
889.66026181675431
 20
-312.76424941809529
 30
0.0
 11
891.66026181675431
 21
-312.76424941809529
 31
0.0
  0
LINE
  5
174
100
AcDbEntity
  8
____1
370
              18
390
0
  6
Continuous
 62
               5
100
AcDbLine
 10
905.78874666523905
 20
-308.76424941809529
 30
0.0
 11
898.58874666523911
 21
-308.76424941809529
 31
0.0
  0
LINE
  5
175
100
AcDbEntity
  8
____1
370
              18
390
0
  6
Continuous
 62
               5
100
AcDbLine
 10
891.66026181675431
 20
-310.36424941809531
 30
0.0
 11
891.66026181675431
 21
-309.96424941809528
 31
0.0
  0
LINE
  5
176
100
AcDbEntity
  8
____1
370
              18
390
0
  6
Continuous
 62
               5
100
AcDbLine
 10
910.92273278386597
 20
-314.76424941809529
 30
0.0
 11
913.16273278386586
 21
-314.76424941809529
 31
0.0
  0
LINE
  5
177
100
AcDbEntity
  8
____1
370
              18
390
0
  6
Continuous
 62
               5
100
AcDbLine
 10
896.46026181675438
 20
-310.36424941809531
 30
0.0
 11
896.46026181675438
 21
-311.5642494180953
 31
0.0
  0
LINE
  5
178
100
AcDbEntity
  8
____1
370
              18
390
0
  6
Continuous
 62
               5
100
AcDbLine
 10
888.73937876751177
 20
-310.36424941809531
 30
0.0
 11
888.73937876751177
 21
-311.5642494180953
 31
0.0
  0
LINE
  5
179
100
AcDbEntity
  8
____1
370
              18
390
0
  6
Continuous
 62
               5
100
AcDbLine
 10
898.58874666523911
 20
-310.87962584606544
 30
0.0
 11
898.58874666523911
 21
-310.62193763208035
 31
0.0
  0
LINE
  5
17A
100
AcDbEntity
  8
____1
370
              18
390
0
  6
Continuous
 62
               5
100
AcDbLine
 10
901.78874666523905
 20
-310.62193763208035
 30
0.0
 11
901.33619832527972
 21
-311.07448597203978
 31
0.0
  0
LINE
  5
17B
100
AcDbEntity
  8
____1
370
              18
390
0
  6
Continuous
 62
               5
100
AcDbLine
 10
893.26026181675434
 20
-311.5642494180953
 30
0.0
 11
893.26026181675434
 21
-311.96424941809528
 31
0.0
  0
LINE
  5
17C
100
AcDbEntity
  8
____1
370
              18
390
0
  6
Continuous
 62
               5
100
AcDbLine
 10
907.56273278386595
 20
-310.12424941809536
 30
0.0
 11
909.56166611719925
 21
-310.12424941809536
 31
0.0
  0
LINE
  5
17D
100
AcDbEntity
  8
____1
370
              18
390
0
  6
Continuous
 62
               5
100
AcDbLine
 10
895.26026181675434
 20
-310.36424941809531
 30
0.0
 11
895.26026181675434
 21
-309.96424941809528
 31
0.0
  0
LINE
  5
17E
100
AcDbEntity
  8
____1
370
              18
390
0
  6
Continuous
 62
               5
100
AcDbLine
 10
896.46026181675438
 20
-310.36424941809531
 30
0.0
 11
895.26026181675434
 21
-310.36424941809531
 31
0.0
  0
LINE
  5
17F
100
AcDbEntity
  8
____1
370
              18
390
0
  6
Continuous
 62
               5
100
AcDbLine
 10
907.56273278386595
 20
-312.20424941809529
 30
0.0
 11
910.1717994505326
 21
-312.20424941809529
 31
0.0
  0
LINE
  5
180
100
AcDbEntity
  8
____1
370
              18
390
0
  6
Continuous
 62
               5
100
AcDbLine
 10
888.73937876751177
 20
-311.5642494180953
 30
0.0
 11
889.53937876751183
 21
-311.5642494180953
 31
0.0
  0
ARC
  5
181
100
AcDbEntity
  8
____1
370
              18
390
0
  6
Continuous
 62
               5
100
AcDbCircle
 10
900.58874666523911
 20
-309.96424941809528
 30
0.0
 40
4.4000000000000465
210
0.0
220
0.0
230
1.0
100
AcDbArc
 50
-90.0
 51
-57.455041145955242
  0
LINE
  5
182
100
AcDbEntity
  8
____1
370
              18
390
0
  6
Continuous
 62
               5
100
AcDbLine
 10
895.26026181675434
 20
-311.5642494180953
 30
0.0
 11
896.46026181675438
 21
-311.5642494180953
 31
0.0
  0
ARC
  5
183
100
AcDbEntity
  8
____1
370
              18
390
0
  6
Continuous
 62
               5
100
AcDbCircle
 10
899.54874666523915
 20
-310.12424941809536
 30
0.0
 40
3.0399999999998646
210
0.0
220
0.0
230
1.0
100
AcDbArc
 50
-28.600718616740252
 51
-1.5079577542375149
  0
LINE
  5
184
100
AcDbEntity
  8
____1
370
              18
390
0
  6
Continuous
 62
               5
100
AcDbLine
 10
898.58874666523911
 20
-314.36424941809531
 30
0.0
 11
900.58874666523923
 21
-314.36424941809531
 31
0.0
  0
LINE
  5
185
100
AcDbEntity
  8
____1
370
              18
390
0
  6
Continuous
 62
               5
100
AcDbLine
 10
889.66026181675431
 20
-314.36424941809531
 30
0.0
 11
892.86026181675436
 21
-314.36424941809531
 31
0.0
  0
LINE
  5
186
100
AcDbEntity
  8
____1
370
              18
390
0
  6
Continuous
 62
               5
100
AcDbLine
 10
904.98874666523909
 20
-309.96424941809528
 30
0.0
 11
905.78874666523905
 21
-308.76424941809529
 31
0.0
  0
LINE
  5
187
100
AcDbEntity
  8
____1
370
              18
390
0
  6
Continuous
 62
               5
100
AcDbLine
 10
909.16273278386586
 20
-308.76424941809529
 30
0.0
 11
912.36273278386591
 21
-308.76424941809529
 31
0.0
  0
LINE
  5
188
100
AcDbEntity
  8
____1
370
              18
390
0
  6
Continuous
 62
               5
100
AcDbLine
 10
898.58874666523911
 20
-313.16424941809532
 30
0.0
 11
899.54874666523915
 21
-313.16424941809532
 31
0.0
  0
LINE
  5
189
100
AcDbEntity
  8
____1
370
              18
390
0
  6
Continuous
 62
               5
100
AcDbLine
 10
898.58874666523911
 20
-313.16424941809532
 30
0.0
 11
898.58874666523911
 21
-314.36424941809531
 31
0.0
  0
ARC
  5
18A
100
AcDbEntity
  8
____1
370
              18
390
0
  6
Continuous
 62
               5
100
AcDbCircle
 10
899.54874666523915
 20
-310.12424941809536
 30
0.0
 40
3.039999999999933
210
0.0
220
0.0
230
1.0
100
AcDbArc
 50
-90.0
 51
-61.914095184792096
  0
LINE
  5
18B
100
AcDbEntity
  8
____1
370
              18
390
0
  6
Continuous
 62
               5
100
AcDbLine
 10
904.07892214690924
 20
-312.64355438527423
 30
0.0
 11
903.93644049907539
 21
-312.78305690062575
 31
0.0
  0
LINE
  5
18C
100
AcDbEntity
  8
____1
370
              18
390
0
  6
Continuous
 62
               5
100
AcDbLine
 10
889.66026181675431
 20
-311.5642494180953
 30
0.0
 11
889.66026181675431
 21
-312.76424941809529
 31
0.0
  0
MTEXT
  5
18D
100
AcDbEntity
  8
____1
370
               5
390
0
  6
Continuous
 62
               7
100
AcDbMText
 10
862.68361417554377
 20
-309.08572112493891
 30
0.0
 40
5.0799999237060547
 41
24.996311053240746
 71
               1
 72
               1
  1
株式会社
  7
Style1
 73
               1
 44
1.0
  0
MTEXT
  5
18E
100
AcDbEntity
  8
____1
370
               5
390
0
  6
Continuous
 62
               7
100
AcDbMText
 10
887.92844626203794
 20
-291.09792119896241
 30
0.0
 40
2.75
 41
15.0
 71
               1
 72
               1
  1
　板 　厚
  7
Style1
 73
               1
 44
1.0
  0
MTEXT
  5
18F
100
AcDbEntity
  8
____1
370
               5
390
0
  6
Continuous
 62
               7
100
AcDbMText
 10
887.92844626203794
 20
-299.59792119896241
 30
0.0
 40
2.75
 41
15.0
 71
               1
 72
               1
  1
　尺 　度
  7
Style1
 73
               1
 44
1.0
  0
MTEXT
  5
190
100
AcDbEntity
  8
____1
370
               5
390
0
  6
Continuous
 62
               7
100
AcDbMText
 10
903.92844626203794
 20
-291.09792119896241
 30
0.0
 40
2.75
 41
15.0
 71
               1
 72
               1
  1
　検 　印
  7
Style1
 73
               1
 44
1.0
  0
LINE
  5
191
100
AcDbEntity
  8
____1
370
               5
390
0
  6
Continuous
 62
               7
100
AcDbLine
 10
855.46306045076096
 20
-298.89238779160559
 30
0.0
 11
903.46306045076096
 21
-298.89238779160559
 31
0.0
  0
LINE
  5
192
100
AcDbEntity
  8
____1
370
               5
390
0
  6
Continuous
 62
               7
100
AcDbLine
 10
919.46306045076096
 20
-298.89238779160559
 30
0.0
 11
975.46306045076096
 21
-298.89238779160559
 31
0.0
  0
LINE
  5
193
100
AcDbEntity
  8
____1
370
               5
390
0
  6
Continuous
 62
               7
100
AcDbLine
 10
903.46306045076096
 20
-294.64238779160559
 30
0.0
 11
919.46306045076096
 21
-294.64238779160559
 31
0.0
  0
LINE
  5
194
100
AcDbEntity
  8
____1
370
              18
390
0
  6
Continuous
 62
               5
100
AcDbLine
 10
911.71038886852205
 20
-309.71726630572158
 30
0.0
 11
912.36273278386591
 21
-308.76424941809529
 31
0.0
  0
ARC
  5
195
100
AcDbEntity
  8
____1
370
              18
390
0
  6
Continuous
 62
               5
100
AcDbCircle
 10
892.86026181675436
 20
-311.96424941809528
 30
0.0
 40
2.3999999999999773
210
0.0
220
0.0
230
1.0
100
AcDbArc
 50
-90.0
 51
0.0
  0
LINE
  5
196
100
AcDbEntity
  8
____1
370
              18
390
0
  6
Continuous
 62
               5
100
AcDbLine
 10
898.58874666523911
 20
-308.76424941809529
 30
0.0
 11
898.58874666523911
 21
-310.20424941809529
 31
0.0
  0
LINE
  5
197
100
AcDbEntity
  8
____1
370
              18
390
0
  6
Continuous
 62
               5
100
AcDbLine
 10
896.46026181675438
 20
-308.76424941809529
 30
0.0
 11
893.26026181675434
 21
-308.76424941809529
 31
0.0
  0
LINE
  5
198
100
AcDbEntity
  8
____1
370
              18
390
0
  6
Continuous
 62
               5
100
AcDbLine
 10
912.8404362457228
 20
-313.64424941809534
 30
0.0
 11
914.762732783866
 21
-313.64424941809534
 31
0.0
  0
LINE
  5
199
100
AcDbEntity
  8
____1
370
              18
390
0
  6
Continuous
 62
               5
100
AcDbLine
 10
891.66026181675431
 20
-312.76424941809529
 30
0.0
 11
891.66026181675431
 21
-311.5642494180953
 31
0.0
  0
LINE
  5
19A
100
AcDbEntity
  8
____1
370
              18
390
0
  6
Continuous
 62
               5
100
AcDbLine
 10
907.56273278386595
 20
-312.20424941809529
 30
0.0
 11
907.56273278386595
 21
-313.64424941809534
 31
0.0
  0
LINE
  5
19B
100
AcDbEntity
  8
____1
370
              18
390
0
  6
Continuous
 62
               5
100
AcDbLine
 10
907.56273278386595
 20
-311.5642494180953
 30
0.0
 11
909.98406611719918
 21
-311.5642494180953
 31
0.0
  0
LINE
  5
19C
100
AcDbEntity
  8
____1
370
              18
390
0
  6
Continuous
 62
               5
100
AcDbLine
 10
914.762732783866
 20
-310.12424941809536
 30
0.0
 11
914.762732783866
 21
-311.5642494180953
 31
0.0
  0
LINE
  5
19D
100
AcDbEntity
  8
____1
370
              18
390
0
  6
Continuous
 62
               5
100
AcDbLine
 10
898.58874666523911
 20
-310.20424941809529
 30
0.0
 11
902.58874666523911
 21
-310.20424941809529
 31
0.0
  0
LINE
  5
19E
100
AcDbEntity
  8
____1
370
              18
390
0
  6
Continuous
 62
               5
100
AcDbLine
 10
892.06026181675441
 20
-313.16424941809532
 30
0.0
 11
889.66026181675431
 21
-313.16424941809532
 31
0.0
  0
LINE
  5
19F
100
AcDbEntity
  8
____1
370
              18
390
0
  6
Continuous
 62
               5
100
AcDbLine
 10
910.92273278386597
 20
-314.76424941809529
 30
0.0
 11
910.59419945053264
 21
-313.64424941809534
 31
0.0
  0
LINE
  5
1A0
100
AcDbEntity
  8
____1
370
              18
390
0
  6
Continuous
 62
               5
100
AcDbLine
 10
912.42605498239561
 20
-312.20424941809529
 30
0.0
 11
912.24188553202816
 21
-311.5642494180953
 31
0.0
  0
LINE
  5
1A1
100
AcDbEntity
  8
____1
370
              18
390
0
  6
Continuous
 62
               5
100
AcDbLine
 10
889.66026181675431
 20
-313.16424941809532
 30
0.0
 11
889.66026181675431
 21
-314.36424941809531
 31
0.0
  0
LINE
  5
1A2
100
AcDbEntity
  8
____1
370
              18
390
0
  6
Continuous
 62
               5
100
AcDbLine
 10
889.66026181675431
 20
-311.5642494180953
 30
0.0
 11
889.53937876751183
 21
-311.5642494180953
 31
0.0
  0
LINE
  5
1A3
100
AcDbEntity
  8
____1
370
              18
390
0
  6
Continuous
 62
               5
100
AcDbLine
 10
905.78874666523905
 20
-313.16424941809532
 30
0.0
 11
905.78874666523905
 21
-314.36424941809531
 31
0.0
  0
LINE
  5
1A4
100
AcDbEntity
  8
____1
370
              18
390
0
  6
Continuous
 62
               5
100
AcDbLine
 10
914.762732783866
 20
-312.20424941809529
 30
0.0
 11
914.762732783866
 21
-313.64424941809534
 31
0.0
  0
LINE
  5
1A5
100
AcDbEntity
  8
____1
370
              18
390
0
  6
Continuous
 62
               5
100
AcDbLine
 10
889.66026181675431
 20
-310.36424941809531
 30
0.0
 11
888.73937876751177
 21
-310.36424941809531
 31
0.0
  0
LINE
  5
1A6
100
AcDbEntity
  8
____1
370
              18
390
0
  6
Continuous
 62
               5
100
AcDbLine
 10
898.58874666523911
 20
-314.36424941809531
 30
0.0
 11
898.58874666523911
 21
-313.16424941809532
 31
0.0
  0
MTEXT
  5
1A7
100
AcDbEntity
  8
____1
370
               5
390
0
  6
Continuous
 62
               7
100
AcDbMText
 10
934.44912123212453
 20
-292.40642908733821
 30
0.0
 40
4.2333331108093262
 41
30.005553809358716
 71
               1
 72
               1
  1
８５Ｗ
  7
Style1
 73
               1
 44
1.0
  0
INSERT
  5
1AF
100
AcDbEntity
  8
____1
370
               5
390
0
  6
Continuous
 62
             254
100
AcDbBlockReference
  2
C2
 10
0.0
 20
0.0
 30
0.0
  0
MTEXT
  5
1B0
100
AcDbEntity
  8
____1
370
               5
390
0
  6
Continuous
 62
               7
100
AcDbMText
 10
915.46306045076096
 20
-136.61885912699015
 30
0.0
 40
3.5277776718139648
 41
60.0
 71
               1
 72
               1
  1
８５Ｓ受板　廃盤の為削除
  7
Style1
 73
               1
 44
1.0
  0
MTEXT
  5
1B1
100
AcDbEntity
  8
____1
370
               5
390
0
  6
Continuous
 62
               7
100
AcDbMText
 10
895.46306045076096
 20
-136.61885912699015
 30
0.0
 40
3.5277776718139648
 41
20.0
 71
               1
 72
               1
  1
H23.10.05
  7
Style1
 73
               1
 44
1.0
  0
MTEXT
  5
1B2
100
AcDbEntity
  8
____1
370
               5
390
0
  6
Continuous
 62
               7
100
AcDbMText
 10
919.47382939365377
 20
-275.61165711956568
 30
0.0
 40
4.2333331108093262
 41
52.785529796714172
 71
               1
 72
               1
  1
本体ビス：3x13 ＋ Ｗ付\P受板ビス：85S　2.7x13\P          85W  2.4x13
  7
Style1
 73
               1
 44
1.0
  0
CIRCLE
  5
1B3
100
AcDbEntity
  8
____1
370
              18
390
0
  6
Continuous
 62
               5
100
AcDbCircle
 10
953.37825425096082
 20
-277.73049292442164
 30
0.0
 40
2.2499999999999862
  0
LINE
  5
1B4
100
AcDbEntity
  8
____1
370
              18
390
0
  6
Continuous
 62
               5
100
AcDbLine
 10
700.46306045076096
 20
-125.89238779160559
 30
0.0
 11
975.46306045076096
 21
-125.89238779160559
 31
0.0
  0
LINE
  5
1B5
100
AcDbEntity
  8
____1
370
              18
390
0
  6
Continuous
 62
               5
100
AcDbLine
 10
700.46306045076096
 20
-315.89238779160559
 30
0.0
 11
975.46306045076096
 21
-315.89238779160559
 31
0.0
  0
LINE
  5
1B6
100
AcDbEntity
  8
____1
370
              18
390
0
  6
Continuous
 62
               5
100
AcDbLine
 10
700.46306045076096
 20
-315.89238779160559
 30
0.0
 11
700.46306045076096
 21
-125.89238779160561
 31
0.0
  0
LINE
  5
1B7
100
AcDbEntity
  8
____1
370
              18
390
0
  6
Continuous
 62
               5
100
AcDbLine
 10
975.46306045076096
 20
-315.89238779160559
 30
0.0
 11
975.46306045076096
 21
-125.89238779160561
 31
0.0
  0
LINE
  5
1B8
100
AcDbEntity
  8
____1
370
               5
390
0
  6
Continuous
 62
               7
100
AcDbLine
 10
887.46306045076096
 20
-290.39238779160559
 30
0.0
 11
887.46306045076096
 21
-307.39238779160559
 31
0.0
  0
LINE
  5
1B9
100
AcDbEntity
  8
____1
370
               5
390
0
  6
Continuous
 62
               7
100
AcDbLine
 10
857.46306045076096
 20
-294.64238779160559
 30
0.0
 11
869.46306045076096
 21
-294.64238779160559
 31
0.0
  0
LINE
  5
1BA
100
AcDbEntity
  8
____1
370
               5
390
0
  6
Continuous
 62
               7
100
AcDbLine
 10
873.46306045076119
 20
-294.64238779160559
 30
0.0
 11
885.46306045076119
 21
-294.64238779160559
 31
0.0
  0
LINE
  5
1BB
100
AcDbEntity
  8
____1
370
               5
390
0
  6
Continuous
 62
               7
100
AcDbLine
 10
857.46306045076096
 20
-303.14238779160559
 30
0.0
 11
885.46306045076096
 21
-303.14238779160559
 31
0.0
  0
LINE
  5
1BC
100
AcDbEntity
  8
____1
370
               5
390
0
  6
Continuous
 62
               7
100
AcDbLine
 10
889.46306045076096
 20
-294.64238779160559
 30
0.0
 11
901.46306045076096
 21
-294.64238779160559
 31
0.0
  0
LINE
  5
1BD
100
AcDbEntity
  8
____1
370
               5
390
0
  6
Continuous
 62
               7
100
AcDbLine
 10
889.46306045076096
 20
-303.14238779160559
 30
0.0
 11
901.46306045076096
 21
-303.14238779160559
 31
0.0
  0
MTEXT
  5
1BE
100
AcDbEntity
  8
____1
370
               5
390
0
  6
Continuous
 62
               7
100
AcDbMText
 10
855.46306045076096
 20
-299.59792119896241
 30
0.0
 40
2.75
 41
32.0
 71
               1
 72
               1
  1
 設計　　 白須賀
  7
Style1
 73
               1
 44
1.0
  0
MTEXT
  5
1BF
100
AcDbEntity
  8
____1
370
               5
390
0
  6
Continuous
 62
               7
100
AcDbMText
 10
855.46306045076096
 20
-303.84792119896241
 30
0.0
 40
2.75
 41
32.0
 71
               1
 72
               1
  1
 製図　　  岸本
  7
Style1
 73
               1
 44
1.0
  0
MTEXT
  5
1C0
100
AcDbEntity
  8
____1
370
               5
390
0
  6
Continuous
 62
               7
100
AcDbMText
 10
855.92844626203794
 20
-291.09792119896241
 30
0.0
 40
2.75
 41
15.0
 71
               1
 72
               1
  1
　日 　付
  7
Style1
 73
               1
 44
1.0
  0
MTEXT
  5
1C1
100
AcDbEntity
  8
____1
370
               5
390
0
  6
Continuous
 62
               7
100
AcDbMText
 10
920.35355990446919
 20
-291.08088806645236
 30
0.0
 40
2.75
 41
6.0
 71
               1
 72
               1
  1
型番
  7
Style1
 73
               1
 44
1.0
  0
MTEXT
  5
1C2
100
AcDbEntity
  8
____1
370
               5
390
0
  6
Continuous
 62
               7
100
AcDbMText
 10
920.35355990446919
 20
-299.58088806645236
 30
0.0
 40
2.75
 41
6.0
 71
               1
 72
               1
  1
品名
  7
Style1
 73
               1
 44
1.0
  0
MTEXT
  5
1C3
100
AcDbEntity
  8
____1
370
               5
390
0
  6
Continuous
 62
               7
100
AcDbMText
 10
920.35355990446919
 20
-308.08088806645236
 30
0.0
 40
2.75
 41
6.0
 71
               1
 72
               1
  1
図番
  7
Style1
 73
               1
 44
1.0
  0
MTEXT
  5
1C4
100
AcDbEntity
  8
____1
370
              18
390
0
  6
Continuous
 62
               5
100
AcDbMText
 10
855.46306045076096
 20
-295.34792119896241
 30
0.0
 40
2.75
 41
16.0
 71
               1
 72
               1
  1
H16.4
  7
Style1
 73
               1
 44
1.0
  0
MTEXT
  5
1C5
100
AcDbEntity
  8
____1
370
              18
390
0
  6
Continuous
 62
               5
100
AcDbMText
 10
887.46306045076096
 20
-303.84792119896241
 30
0.0
 40
2.75
 41
16.0
 71
               1
 72
               1
  1
1：1
  7
Style1
 73
               1
 44
1.0
  0
MTEXT
  5
1C6
100
AcDbEntity
  8
____1
370
               5
390
0
  6
Continuous
 62
               7
100
AcDbMText
 10
871.92844626203794
 20
-291.09792119896241
 30
0.0
 40
2.75
 41
15.0
 71
               1
 72
               1
  1
　材 　質
  7
Style1
 73
               1
 44
1.0
  0
ENDSEC
  0
SECTION
  2
OBJECTS
  0
DICTIONARY
  5
19
100
AcDbDictionary
280
               0
281
               1
  3
ACAD_GROUP
350
1A
  3
ACAD_MLINESTYLE
350
1B
  3
ACAD_LAYOUT
350
1E
  3
ACAD_PLOTSETTINGS
350
22
  3
ACAD_PLOTSTYLENAME
350
1F
  3
ACAD_WIPEOUT_VARS
350
23
  0
DICTIONARY
  5
1A
102
{ACAD_REACTORS
330
19
102
}
100
AcDbDictionary
280
               0
281
               1
  0
DICTIONARY
  5
1B
102
{ACAD_REACTORS
330
19
102
}
100
AcDbDictionary
280
               0
281
               1
  3
Standard
350
1C
  0
MLINESTYLE
  5
1C
102
{ACAD_REACTORS
330
1B
102
}
100
AcDbMlineStyle
  2
Standard
 70
               0
  3

 62
               0
 51
90.0
 52
90.0
 71
               2
 49
0.5
 62
             256
  6
ByLayer
 49
-0.5
 62
             256
  6
ByLayer
  0
ACDBDICTIONARYWDFLT
  5
1F
102
{ACAD_REACTORS
330
19
102
}
100
AcDbDictionary
281
               1
  3
Normal
350
1D
100
AcDbDictionaryWithDefault
340
1D
  0
ACDBPLACEHOLDER
  5
1D
102
{ACAD_REACTORS
330
1F
102
}
  0
LAYOUT
  5
20
102
{ACAD_REACTORS
330
1E
102
}
100
AcDbPlotSettings
  1

  2

  4

  6

 40
0.0
 41
0.0
 42
0.0
 43
0.0
 44
0.0
 45
0.0
 46
0.0
 47
0.0
 48
0.0
 49
0.0
140
0.0
141
0.0
142
1.0
143
1.0
 70
            1024
 72
               0
 73
               0
 74
               0
  7

 75
               0
147
1.0
148
0.0
149
0.0
100
AcDbLayout
  1
Model
 70
               0
 71
               0
 10
0.0
 20
0.0
 11
0.0
 21
0.0
 12
0.0
 22
0.0
 32
0.0
 14
0.0
 24
0.0
 34
0.0
 15
0.0
 25
0.0
 35
0.0
146
0.0
 13
0.0
 23
0.0
 33
0.0
 16
0.0
 26
0.0
 36
0.0
 17
0.0
 27
0.0
 37
0.0
 76
               0
330
A
331
0
345
0
346
0
  0
LAYOUT
  5
21
102
{ACAD_REACTORS
330
1E
102
}
100
AcDbPlotSettings
  1

  2

  4

  6

 40
0.0
 41
0.0
 42
0.0
 43
0.0
 44
0.0
 45
0.0
 46
0.0
 47
0.0
 48
0.0
 49
0.0
140
0.0
141
0.0
142
1.0
143
1.0
 70
               0
 72
               0
 73
               0
 74
               0
  7

 75
               0
147
1.0
148
0.0
149
0.0
100
AcDbLayout
  1
Layout1
 70
               0
 71
               0
 10
0.0
 20
0.0
 11
0.0
 21
0.0
 12
0.0
 22
0.0
 32
0.0
 14
0.0
 24
0.0
 34
0.0
 15
0.0
 25
0.0
 35
0.0
146
0.0
 13
0.0
 23
0.0
 33
0.0
 16
0.0
 26
0.0
 36
0.0
 17
0.0
 27
0.0
 37
0.0
 76
               0
330
B
331
0
345
0
346
0
  0
DICTIONARY
  5
1E
102
{ACAD_REACTORS
330
19
102
}
100
AcDbDictionary
280
               0
281
               1
  3
Layout1
350
21
  3
Model
350
20
  0
DICTIONARY
  5
22
102
{ACAD_REACTORS
330
19
102
}
100
AcDbDictionary
280
               0
281
               1
  0
WIPEOUTVARIABLES
  5
23
100
AcDbWipeoutVariables
 70
               1
  0
ENDSEC
  0
EOF
