  0
SECTION
  2
HEADER
  9
$ACADVER
  1
AC1009
  9
$INSBASE
 10
0.0
 20
0.0
 30
0.0
  9
$EXTMIN
 10
-140.9706663753
 20
-75.476516663300004
 30
0.0
  9
$EXTMAX
 10
233.91823571372569
 20
126.0033333367
 30
0.0
  9
$LIMMIN
 10
0.0
 20
0.0
  9
$LIMMAX
 10
0.0
 20
0.0
  9
$ORTHOMODE
 70
     0
  9
$REGENMODE
 70
     1
  9
$FILLMODE
 70
     1
  9
$QTEXTMODE
 70
     0
  9
$MIRRTEXT
 70
     1
  9
$DRAGMODE
 70
     2
  9
$LTSCALE
 40
1.0
  9
$OSMODE
 70
    31
  9
$ATTMODE
 70
     1
  9
$TEXTSIZE
 40
0.0
  9
$TRACEWID
 40
0.05
  9
$TEXTSTYLE
  7
STANDARD
  9
$CLAYER
  8
0
  9
$CELTYPE
  6
CONTINUOUS
  9
$CECOLOR
 62
   256
  9
$DIMSCALE
 40
0.0
  9
$DIMASZ
 40
2.5
  9
$DIMEXO
 40
2.5
  9
$DIMDLI
 40
14.0
  9
$DIMRND
 40
0.0
  9
$DIMDLE
 40
0.0
  9
$DIMEXE
 40
2.0
  9
$DIMTP
 40
0.0
  9
$DIMTM
 40
0.0
  9
$DIMTXT
 40
5.0
  9
$DIMCEN
 40
2.0
  9
$DIMTSZ
 40
0.0
  9
$DIMTOL
 70
     0
  9
$DIMLIM
 70
     0
  9
$DIMTIH
 70
     0
  9
$DIMTOH
 70
     0
  9
$DIMSE1
 70
     0
  9
$DIMSE2
 70
     0
  9
$DIMTAD
 70
     1
  9
$DIMZIN
 70
     8
  9
$DIMBLK
  1

  9
$DIMASO
 70
     1
  9
$DIMSHO
 70
     1
  9
$DIMPOST
  1

  9
$DIMAPOST
  1

  9
$DIMALT
 70
     0
  9
$DIMALTD
 70
     4
  9
$DIMALTF
 40
0.0394
  9
$DIMLFAC
 40
1.0
  9
$DIMTOFL
 70
     1
  9
$DIMTVP
 40
0.0
  9
$DIMTIX
 70
     0
  9
$DIMSOXD
 70
     0
  9
$DIMSAH
 70
     0
  9
$DIMBLK1
  1

  9
$DIMBLK2
  1

  9
$DIMSTYLE
  2
基本_１_２_
  9
$DIMCLRD
 70
     4
  9
$DIMCLRE
 70
     4
  9
$DIMCLRT
 70
     4
  9
$DIMTFAC
 40
1.0
  9
$DIMGAP
 40
1.0
  9
$LUNITS
 70
     2
  9
$LUPREC
 70
     4
  9
$SKETCHINC
 40
0.1
  9
$FILLETRAD
 40
0.0
  9
$AUNITS
 70
     0
  9
$AUPREC
 70
     0
  9
$MENU
  1
acad
  9
$ELEVATION
 40
0.0
  9
$PELEVATION
 40
0.0
  9
$THICKNESS
 40
0.0
  9
$LIMCHECK
 70
     0
  9
$BLIPMODE
 70
     0
  9
$CHAMFERA
 40
0.0
  9
$CHAMFERB
 40
0.0
  9
$SKPOLY
 70
     0
  9
$TDCREATE
 40
2454863.5412659142
  9
$TDUPDATE
 40
2454863.6428135769
  9
$TDINDWG
 40
0.0053340278
  9
$TDUSRTIMER
 40
0.0053332986
  9
$USRTIMER
 70
     1
  9
$ANGBASE
 50
0.0
  9
$ANGDIR
 70
     0
  9
$PDMODE
 70
     3
  9
$PDSIZE
 40
-1.0
  9
$PLINEWID
 40
0.0
  9
$COORDS
 70
     2
  9
$SPLFRAME
 70
     0
  9
$SPLINETYPE
 70
     6
  9
$SPLINESEGS
 70
     8
  9
$ATTDIA
 70
     0
  9
$ATTREQ
 70
     1
  9
$HANDLING
 70
     1
  9
$HANDSEED
  5
826
  9
$SURFTAB1
 70
     6
  9
$SURFTAB2
 70
     6
  9
$SURFTYPE
 70
     6
  9
$SURFU
 70
     6
  9
$SURFV
 70
     6
  9
$UCSNAME
  2

  9
$UCSORG
 10
0.0
 20
0.0
 30
0.0
  9
$UCSXDIR
 10
1.0
 20
0.0
 30
0.0
  9
$UCSYDIR
 10
0.0
 20
1.0
 30
0.0
  9
$PUCSNAME
  2

  9
$PUCSORG
 10
0.0
 20
0.0
 30
0.0
  9
$PUCSXDIR
 10
1.0
 20
0.0
 30
0.0
  9
$PUCSYDIR
 10
0.0
 20
1.0
 30
0.0
  9
$USERI1
 70
     0
  9
$USERI2
 70
     0
  9
$USERI3
 70
     0
  9
$USERI4
 70
     0
  9
$USERI5
 70
     0
  9
$USERR1
 40
0.0
  9
$USERR2
 40
0.0
  9
$USERR3
 40
0.0
  9
$USERR4
 40
0.0
  9
$USERR5
 40
0.0
  9
$WORLDVIEW
 70
     1
  9
$SHADEDGE
 70
     3
  9
$SHADEDIF
 70
    70
  9
$TILEMODE
 70
     1
  9
$MAXACTVP
 70
    16
  9
$PLIMCHECK
 70
     0
  9
$PEXTMIN
 10
1.0000000000000000E+020
 20
1.0000000000000000E+020
 30
1.0000000000000000E+020
  9
$PEXTMAX
 10
-1.0000000000000000E+020
 20
-1.0000000000000000E+020
 30
-1.0000000000000000E+020
  9
$PLIMMIN
 10
0.0
 20
0.0
  9
$PLIMMAX
 10
12.0
 20
9.0
  9
$UNITMODE
 70
     0
  9
$VISRETAIN
 70
     0
  9
$PLINEGEN
 70
     1
  9
$PSLTSCALE
 70
     0
  0
ENDSEC
  0
SECTION
  2
TABLES
  0
TABLE
  2
VPORT
 70
     2
  0
VPORT
  2
*ACTIVE
 70
     0
 10
0.0
 20
0.0
 11
1.0
 21
1.0
 12
0.0658106213981569
 22
5.2571006840587406
 13
0.0
 23
0.0
 14
1.0
 24
1.0
 15
0.0
 25
0.0
 16
0.0
 26
0.0
 36
1.0
 17
0.0
 27
0.0
 37
0.0
 40
215.3297666639383
 41
1.6343490304709141
 42
50.0
 43
0.0
 44
0.0
 50
0.0
 51
0.0
 71
     0
 72
   100
 73
     1
 74
     1
 75
     0
 76
     0
 77
     0
 78
     0
  0
ENDTAB
  0
TABLE
  2
LTYPE
 70
    11
  0
LTYPE
  2
CONTINUOUS
 70
     0
  3
Solid line
 72
    65
 73
     0
 40
0.0
  0
LTYPE
  2
DOT
 70
     0
  3
. . . . . . . . 
 72
    65
 73
     2
 40
1.0
 49
0.0
 49
-1.0
  0
LTYPE
  2
DASHED
 70
     0
  3
___  ___  ___  ___  
 72
    65
 73
     2
 40
4.0
 49
3.0
 49
-1.0
  0
LTYPE
  2
HIDDEN
 70
     0
  3
__ __ __ __ 
 72
    65
 73
     2
 40
3.0
 49
2.0
 49
-1.0
  0
LTYPE
  2
STITCH
 70
     0
  3
_ _ _ _ 
 72
    65
 73
     2
 40
2.0
 49
1.0
 49
-1.0
  0
LTYPE
  2
CENTER
 70
     0
  3
______  __  ______  __  
 72
    65
 73
     4
 40
43.0
 49
40.0
 49
-1.0
 49
1.0
 49
-1.0
  0
LTYPE
  2
DASHDOT
 70
     0
  3
____ . ____ . 
 72
    65
 73
     4
 40
32.0
 49
30.0
 49
-1.0
 49
0.0
 49
-1.0
  0
LTYPE
  2
BORDER
 70
     0
  3
__ . __ . 
 72
    65
 73
     4
 40
22.0
 49
20.0
 49
-1.0
 49
0.0
 49
-1.0
  0
LTYPE
  2
CUTTING
 70
     0
  3
________   ___   ___   
 72
    65
 73
     6
 40
45.0
 49
40.0
 49
-1.0
 49
1.0
 49
-1.0
 49
1.0
 49
-1.0
  0
LTYPE
  2
PHANTOM
 70
     0
  3
______  __  __  
 72
    65
 73
     6
 40
35.0
 49
30.0
 49
-1.0
 49
1.0
 49
-1.0
 49
1.0
 49
-1.0
  0
LTYPE
  2
DIVIDE
 70
     0
  3
____ . . ____ . . 
 72
    65
 73
     6
 40
23.0
 49
20.0
 49
-1.0
 49
0.0
 49
-1.0
 49
0.0
 49
-1.0
  0
ENDTAB
  0
TABLE
  2
LAYER
 70
     5
  0
LAYER
  2
0
 70
     0
 62
     7
  6
CONTINUOUS
  0
LAYER
  2
図枠
 70
     0
 62
     7
  6
CONTINUOUS
  0
LAYER
  2
ﾚｲﾔ_1
 70
     0
 62
     7
  6
CONTINUOUS
  0
LAYER
  2
寸法線
 70
     0
 62
     7
  6
CONTINUOUS
  0
LAYER
  2
DEFPOINTS
 70
     0
 62
     7
  6
CONTINUOUS
  0
ENDTAB
  0
TABLE
  2
STYLE
 70
     2
  0
STYLE
  2
STANDARD
 70
     0
 40
0.0
 41
1.0
 50
0.0
 71
     0
 42
0.0
  3
txt
  4
extfont
  0
STYLE
  2
ゴシック
 70
     0
 40
0.0
 41
1.0
 50
0.0
 71
     0
 42
1.7676767676767671
  3
txt
  4

  0
ENDTAB
  0
TABLE
  2
VIEW
 70
     0
  0
ENDTAB
  0
TABLE
  2
UCS
 70
     0
  0
ENDTAB
  0
TABLE
  2
APPID
 70
     2
  0
APPID
  2
ACAD
 70
     0
  0
APPID
  2
DCO15
 70
     0
  0
ENDTAB
  0
TABLE
  2
DIMSTYLE
 70
     6
  0
DIMSTYLE
  2
STANDARD
 70
     0
  3

  4

  5

  6

  7

 40
1.0
 41
0.18
 42
0.0625
 43
0.38
 44
0.18
 45
0.0
 46
0.0
 47
0.0
 48
0.0
140
0.18
141
0.09
142
0.0
143
25.399999999999999
144
1.0
145
0.0
146
1.0
147
0.09
 71
     0
 72
     0
 73
     1
 74
     1
 75
     0
 76
     0
 77
     0
 78
     0
170
     0
171
     2
172
     0
173
     0
174
     0
175
     0
176
     0
177
     0
178
     0
  0
DIMSTYLE
  2
VELDIM0
 70
     0
  3

  4

  5

  6

  7

 40
1.0
 41
3.0
 42
0.0625
 43
0.38
 44
1.0
 45
0.0
 46
5.0
 47
0.0
 48
0.0
140
2.998611020999999
141
0.09
142
0.0
143
25.399999999999999
144
1.0
145
0.0
146
1.0
147
0.09
 71
     0
 72
     0
 73
     0
 74
     0
 75
     0
 76
     0
 77
     0
 78
     8
170
     0
171
     2
172
     0
173
     0
174
     0
175
     0
176
     0
177
     0
178
     0
  0
DIMSTYLE
  2
VELDIM1
 70
     0
  3

  4

  5

  6

  7

 40
1.0
 41
3.0
 42
0.0625
 43
0.38
 44
1.25
 45
0.0
 46
5.0
 47
0.0
 48
0.0
140
2.998611020999999
141
0.09
142
0.0
143
25.399999999999999
144
1.0
145
0.0
146
1.0
147
0.09
 71
     0
 72
     0
 73
     0
 74
     0
 75
     0
 76
     0
 77
     0
 78
     8
170
     0
171
     2
172
     0
173
     0
174
     0
175
     0
176
     0
177
     0
178
     0
  0
DIMSTYLE
  2
VELDIM2
 70
     0
  3

  4

  5

  6

  7

 40
1.0
 41
1.0
 42
0.0625
 43
0.38
 44
0.6666666865000001
 45
0.0
 46
1.6666666268999979
 47
0.0
 48
0.0
140
0.899583286
141
0.09
142
0.0
143
25.399999999999999
144
1.0
145
0.0
146
1.0
147
0.09
 71
     0
 72
     0
 73
     0
 74
     0
 75
     0
 76
     0
 77
     0
 78
     8
170
     0
171
     2
172
     0
173
     0
174
     0
175
     0
176
     0
177
     0
178
     0
  0
DIMSTYLE
  2
VELDIM3
 70
     0
  3

  4

  5

  6

  7

 40
1.0
 41
1.0
 42
0.0625
 43
0.38
 44
1.25
 45
0.0
 46
5.0
 47
0.0
 48
0.0
140
0.899583286
141
0.09
142
0.0
143
25.399999999999999
144
1.0
145
0.0
146
1.0
147
0.09
 71
     0
 72
     0
 73
     0
 74
     0
 75
     0
 76
     0
 77
     0
 78
     8
170
     0
171
     2
172
     0
173
     0
174
     0
175
     0
176
     0
177
     0
178
     0
  0
DIMSTYLE
  2
基本_１_２_
 70
     0
  3

  4

  5

  6

  7

 40
0.0
 41
2.5
 42
2.5
 43
14.0
 44
2.0
 45
0.0
 46
0.0
 47
0.0
 48
0.0
140
5.0
141
2.0
142
0.0
143
0.0394
144
1.0
145
0.0
146
1.0
147
1.0
 71
     0
 72
     0
 73
     0
 74
     0
 75
     0
 76
     0
 77
     1
 78
     8
170
     0
171
     4
172
     1
173
     0
174
     0
175
     0
176
     4
177
     4
178
     4
  0
ENDTAB
  0
ENDSEC
  0
SECTION
  2
BLOCKS
  0
BLOCK
  8
0
  2
$MODEL_SPACE
 70
     0
 10
0.0
 20
0.0
 30
0.0
  3
$MODEL_SPACE
  1

  0
ENDBLK
  5
5C2
  8
0
  0
BLOCK
 67
     1
  8
0
  2
$PAPER_SPACE
 70
     0
 10
0.0
 20
0.0
 30
0.0
  3
$PAPER_SPACE
  1

  0
ENDBLK
  5
5BE
 67
     1
  8
0
  0
BLOCK
  8
0
  2
*D2
 70
     1
 10
0.0
 20
0.0
 30
0.0
  3
*D2
  1

  0
TEXT
  5
43
  8
0
 62
     0
 10
36.3567265784
 20
70.675759601599992
 30
0.0
 40
2.998611020999999
  1
20
 50
90.0
  0
LINE
  5
44
  8
0
 62
     0
 10
49.831481481499999
 20
82.439648437499969
 30
0.0
 11
36.885893229200001
 21
82.439648437499969
 31
0.0
  0
LINE
  5
45
  8
0
 62
     0
 10
54.831481481499999
 20
62.43964843749999
 30
0.0
 11
36.885893229200001
 21
62.43964843749999
 31
0.0
  0
LINE
  5
46
  8
0
 62
     0
 10
37.885893229200001
 20
82.439648437499969
 30
0.0
 11
37.885893229200001
 21
75.967426109300007
 31
0.0
  0
LINE
  5
47
  8
0
 62
     0
 10
37.885893229200001
 20
82.439648437499969
 30
0.0
 11
37.885893229200001
 21
68.911870765700002
 31
0.0
  0
LINE
  5
48
  8
0
 62
     0
 10
37.885893229200001
 20
62.43964843749999
 30
0.0
 11
37.885893229200001
 21
75.967426109300007
 31
0.0
  0
LINE
  5
49
  8
0
 62
     0
 10
37.885893229200001
 20
62.43964843749999
 30
0.0
 11
37.885893229200001
 21
68.911870765700002
 31
0.0
  0
LINE
  5
4A
  8
0
 62
     0
 10
37.885893229200001
 20
62.43964843749999
 30
0.0
 11
37.885893229200001
 21
67.439648437499983
 31
0.0
  0
SOLID
  5
4B
  8
0
 62
     0
 10
37.885893229200001
 20
62.43964843749999
 30
0.0
 11
37.135893229200001
 21
65.439648437499997
 31
0.0
 12
38.635893229200001
 22
65.439648437499997
 32
0.0
 13
37.885893229200001
 23
64.689648437499997
 33
0.0
  0
LINE
  5
4C
  8
0
 62
     0
 10
37.885893229200001
 20
82.439648437499969
 30
0.0
 11
37.885893229200001
 21
77.439648437499983
 31
0.0
  0
SOLID
  5
4D
  8
0
 62
     0
 10
37.885893229200001
 20
82.439648437499969
 30
0.0
 11
38.635893229200001
 21
79.439648437499983
 31
0.0
 12
37.135893229200001
 22
79.439648437499983
 32
0.0
 13
37.885893229200001
 23
80.189648437499983
 33
0.0
  0
ENDBLK
  5
4E
  8
0
  0
BLOCK
  8
0
  2
*D3
 70
     1
 10
0.0
 20
0.0
 30
0.0
  3
*D3
  1

  0
TEXT
  5
53
  8
0
 62
     0
 10
77.067592645600001
 20
93.968815088300005
 30
0.0
 40
2.998611020999999
  1
30
  0
LINE
  5
54
  8
0
 62
     0
 10
93.831481481499992
 20
84.439648437499983
 30
0.0
 11
93.831481481499992
 21
93.439648437499983
 31
0.0
  0
LINE
  5
55
  8
0
 62
     0
 10
63.831481481499999
 20
71.439648437499997
 30
0.0
 11
63.831481481499999
 21
93.439648437499983
 31
0.0
  0
LINE
  5
56
  8
0
 62
     0
 10
93.831481481499992
 20
92.439648437499969
 30
0.0
 11
82.359259153300002
 21
92.439648437499969
 31
0.0
  0
LINE
  5
57
  8
0
 62
     0
 10
93.831481481499992
 20
92.439648437499969
 30
0.0
 11
75.303703809699982
 21
92.439648437499969
 31
0.0
  0
LINE
  5
58
  8
0
 62
     0
 10
63.831481481499999
 20
92.439648437499969
 30
0.0
 11
82.359259153300002
 21
92.439648437499969
 31
0.0
  0
LINE
  5
59
  8
0
 62
     0
 10
63.831481481499999
 20
92.439648437499969
 30
0.0
 11
75.303703809699982
 21
92.439648437499969
 31
0.0
  0
LINE
  5
5A
  8
0
 62
     0
 10
63.831481481499999
 20
92.439648437499969
 30
0.0
 11
68.831481481499992
 21
92.439648437499969
 31
0.0
  0
SOLID
  5
5B
  8
0
 62
     0
 10
63.831481481499999
 20
92.439648437499969
 30
0.0
 11
66.831481481499992
 21
93.189648437499997
 31
0.0
 12
66.831481481499992
 22
91.689648437499997
 32
0.0
 13
66.081481481499992
 23
92.439648437499969
 33
0.0
  0
LINE
  5
5C
  8
0
 62
     0
 10
93.831481481499992
 20
92.439648437499969
 30
0.0
 11
88.831481481499964
 21
92.439648437499969
 31
0.0
  0
SOLID
  5
5D
  8
0
 62
     0
 10
93.831481481499992
 20
92.439648437499969
 30
0.0
 11
90.831481481500006
 21
91.689648437499997
 31
0.0
 12
90.831481481500006
 22
93.189648437499997
 32
0.0
 13
91.581481481499992
 23
92.439648437499969
 33
0.0
  0
ENDBLK
  5
5E
  8
0
  0
BLOCK
  8
0
  2
*D4
 70
     1
 10
0.0
 20
0.0
 30
0.0
  3
*D4
  1

  0
TEXT
  5
62
  8
0
 62
     0
 10
54.567592645600001
 20
93.968815088300005
 30
0.0
 40
2.998611020999999
  1
15
  0
LINE
  5
63
  8
0
 62
     0
 10
63.831481481499999
 20
71.439648437499997
 30
0.0
 11
63.831481481499999
 21
93.439648437499983
 31
0.0
  0
LINE
  5
64
  8
0
 62
     0
 10
48.831481481499999
 20
81.439648437499983
 30
0.0
 11
48.831481481499999
 21
93.439648437499983
 31
0.0
  0
LINE
  5
65
  8
0
 62
     0
 10
63.831481481499999
 20
92.439648437499969
 30
0.0
 11
59.859259153300002
 21
92.439648437499969
 31
0.0
  0
LINE
  5
66
  8
0
 62
     0
 10
63.831481481499999
 20
92.439648437499969
 30
0.0
 11
52.803703809700004
 21
92.439648437499969
 31
0.0
  0
LINE
  5
67
  8
0
 62
     0
 10
48.831481481499999
 20
92.439648437499969
 30
0.0
 11
59.859259153300002
 21
92.439648437499969
 31
0.0
  0
LINE
  5
68
  8
0
 62
     0
 10
48.831481481499999
 20
92.439648437499969
 30
0.0
 11
52.803703809700004
 21
92.439648437499969
 31
0.0
  0
LINE
  5
69
  8
0
 62
     0
 10
48.831481481499999
 20
92.439648437499969
 30
0.0
 11
53.831481481499999
 21
92.439648437499969
 31
0.0
  0
SOLID
  5
6A
  8
0
 62
     0
 10
48.831481481499999
 20
92.439648437499969
 30
0.0
 11
51.831481481499992
 21
93.189648437499997
 31
0.0
 12
51.831481481499992
 22
91.689648437499997
 32
0.0
 13
51.081481481499999
 23
92.439648437499969
 33
0.0
  0
LINE
  5
6B
  8
0
 62
     0
 10
63.831481481499999
 20
92.439648437499969
 30
0.0
 11
58.831481481499999
 21
92.439648437499969
 31
0.0
  0
SOLID
  5
6C
  8
0
 62
     0
 10
63.831481481499999
 20
92.439648437499969
 30
0.0
 11
60.831481481499999
 21
91.689648437499997
 31
0.0
 12
60.831481481499999
 22
93.189648437499997
 32
0.0
 13
61.581481481499999
 23
92.439648437499969
 33
0.0
  0
ENDBLK
  5
6D
  8
0
  0
BLOCK
  8
0
  2
*D5
 70
     1
 10
0.0
 20
0.0
 30
0.0
  3
*D5
  1

  0
TEXT
  5
71
  8
0
 62
     0
 10
36.3567265784
 20
50.675759601599999
 30
0.0
 40
2.998611020999999
  1
20
 50
90.0
  0
LINE
  5
72
  8
0
 62
     0
 10
54.831481481499999
 20
62.43964843749999
 30
0.0
 11
36.885893229200001
 21
62.43964843749999
 31
0.0
  0
LINE
  5
73
  8
0
 62
     0
 10
49.831481481499999
 20
42.439648437499983
 30
0.0
 11
36.885893229200001
 21
42.439648437499983
 31
0.0
  0
LINE
  5
74
  8
0
 62
     0
 10
37.885893229200001
 20
62.43964843749999
 30
0.0
 11
37.885893229200001
 21
55.9674261093
 31
0.0
  0
LINE
  5
75
  8
0
 62
     0
 10
37.885893229200001
 20
62.43964843749999
 30
0.0
 11
37.885893229200001
 21
48.911870765699987
 31
0.0
  0
LINE
  5
76
  8
0
 62
     0
 10
37.885893229200001
 20
42.439648437499983
 30
0.0
 11
37.885893229200001
 21
55.9674261093
 31
0.0
  0
LINE
  5
77
  8
0
 62
     0
 10
37.885893229200001
 20
42.439648437499983
 30
0.0
 11
37.885893229200001
 21
48.911870765699987
 31
0.0
  0
LINE
  5
78
  8
0
 62
     0
 10
37.885893229200001
 20
42.439648437499983
 30
0.0
 11
37.885893229200001
 21
47.439648437499983
 31
0.0
  0
SOLID
  5
79
  8
0
 62
     0
 10
37.885893229200001
 20
42.439648437499983
 30
0.0
 11
37.135893229200001
 21
45.43964843749999
 31
0.0
 12
38.635893229200001
 22
45.43964843749999
 32
0.0
 13
37.885893229200001
 23
44.689648437499997
 33
0.0
  0
LINE
  5
7A
  8
0
 62
     0
 10
37.885893229200001
 20
62.43964843749999
 30
0.0
 11
37.885893229200001
 21
57.43964843749999
 31
0.0
  0
SOLID
  5
7B
  8
0
 62
     0
 10
37.885893229200001
 20
62.43964843749999
 30
0.0
 11
38.635893229200001
 21
59.43964843749999
 31
0.0
 12
37.135893229200001
 22
59.43964843749999
 32
0.0
 13
37.885893229200001
 23
60.189648437499997
 33
0.0
  0
ENDBLK
  5
7C
  8
0
  0
BLOCK
  8
0
  2
*D6
 70
     1
 10
0.0
 20
0.0
 30
0.0
  3
*D6
  1

  0
TEXT
  5
126
  8
0
 62
     0
 10
-5.6624140465999986
 20
50.675759601599999
 30
0.0
 40
2.998611020999999
  1
20
 50
90.0
  0
LINE
  5
127
  8
0
 62
     0
 10
-16.374074074100001
 20
42.439648437499983
 30
0.0
 11
-3.133247395799998
 21
42.439648437499983
 31
0.0
  0
LINE
  5
128
  8
0
 62
     0
 10
-18.374074074100001
 20
62.43964843749999
 30
0.0
 11
-3.133247395799998
 21
62.43964843749999
 31
0.0
  0
LINE
  5
129
  8
0
 62
     0
 10
-4.133247395799998
 20
42.439648437499983
 30
0.0
 11
-4.133247395799998
 21
55.9674261093
 31
0.0
  0
LINE
  5
12A
  8
0
 62
     0
 10
-4.133247395799998
 20
42.439648437499983
 30
0.0
 11
-4.133247395799998
 21
48.911870765699987
 31
0.0
  0
LINE
  5
12B
  8
0
 62
     0
 10
-4.133247395799998
 20
62.43964843749999
 30
0.0
 11
-4.133247395799998
 21
55.9674261093
 31
0.0
  0
LINE
  5
12C
  8
0
 62
     0
 10
-4.133247395799998
 20
62.43964843749999
 30
0.0
 11
-4.133247395799998
 21
48.911870765699987
 31
0.0
  0
LINE
  5
12D
  8
0
 62
     0
 10
-4.133247395799998
 20
62.43964843749999
 30
0.0
 11
-4.133247395799998
 21
57.43964843749999
 31
0.0
  0
SOLID
  5
12E
  8
0
 62
     0
 10
-4.133247395799998
 20
62.43964843749999
 30
0.0
 11
-3.383247395799998
 21
59.43964843749999
 31
0.0
 12
-4.883247395799998
 22
59.43964843749999
 32
0.0
 13
-4.133247395799998
 23
60.189648437499997
 33
0.0
  0
LINE
  5
12F
  8
0
 62
     0
 10
-4.133247395799998
 20
42.439648437499983
 30
0.0
 11
-4.133247395799998
 21
47.439648437499983
 31
0.0
  0
SOLID
  5
130
  8
0
 62
     0
 10
-4.133247395799998
 20
42.439648437499983
 30
0.0
 11
-4.883247395799998
 21
45.43964843749999
 31
0.0
 12
-3.383247395799998
 22
45.43964843749999
 32
0.0
 13
-4.133247395799998
 23
44.689648437499997
 33
0.0
  0
ENDBLK
  5
131
  8
0
  0
BLOCK
  8
0
  2
*D7
 70
     1
 10
0.0
 20
0.0
 30
0.0
  3
*D7
  1

  0
TEXT
  5
135
  8
0
 62
     0
 10
-22.137962909999999
 20
93.968815088300005
 30
0.0
 40
2.998611020999999
  1
10
  0
LINE
  5
136
  8
0
 62
     0
 10
-15.374074074099999
 20
81.439648437499983
 30
0.0
 11
-15.374074074099999
 21
93.439648437499983
 31
0.0
  0
LINE
  5
137
  8
0
 62
     0
 10
-25.374074074100001
 20
69.439648437499983
 30
0.0
 11
-25.374074074100001
 21
93.439648437499983
 31
0.0
  0
LINE
  5
138
  8
0
 62
     0
 10
-15.374074074099999
 20
92.439648437499969
 30
0.0
 11
-16.846296402299998
 21
92.439648437499969
 31
0.0
  0
LINE
  5
139
  8
0
 62
     0
 10
-15.374074074099999
 20
92.439648437499969
 30
0.0
 11
-23.9018517459
 21
92.439648437499969
 31
0.0
  0
LINE
  5
13A
  8
0
 62
     0
 10
-25.374074074100001
 20
92.439648437499969
 30
0.0
 11
-16.846296402299998
 21
92.439648437499969
 31
0.0
  0
LINE
  5
13B
  8
0
 62
     0
 10
-25.374074074100001
 20
92.439648437499969
 30
0.0
 11
-23.9018517459
 21
92.439648437499969
 31
0.0
  0
LINE
  5
13C
  8
0
 62
     0
 10
-25.374074074100001
 20
92.439648437499969
 30
0.0
 11
-30.374074074100001
 21
92.439648437499969
 31
0.0
  0
SOLID
  5
13D
  8
0
 62
     0
 10
-25.374074074100001
 20
92.439648437499969
 30
0.0
 11
-28.374074074100001
 21
91.689648437499997
 31
0.0
 12
-28.374074074100001
 22
93.189648437499997
 32
0.0
 13
-27.624074074100001
 23
92.439648437499969
 33
0.0
  0
LINE
  5
13E
  8
0
 62
     0
 10
-15.374074074099999
 20
92.439648437499969
 30
0.0
 11
-10.374074074099999
 21
92.439648437499969
 31
0.0
  0
SOLID
  5
13F
  8
0
 62
     0
 10
-15.374074074099999
 20
92.439648437499969
 30
0.0
 11
-12.374074074099999
 21
93.189648437499997
 31
0.0
 12
-12.374074074099999
 22
91.689648437499997
 32
0.0
 13
-13.124074074099999
 23
92.439648437499969
 33
0.0
  0
ENDBLK
  5
140
  8
0
  0
BLOCK
  8
0
  2
*D8
 70
     1
 10
0.0
 20
0.0
 30
0.0
  3
*D8
  1

  0
TEXT
  5
144
  8
0
 62
     0
 10
-38.137962909999999
 20
93.968815088300005
 30
0.0
 40
2.998611020999999
  1
22
  0
LINE
  5
145
  8
0
 62
     0
 10
-25.374074074100001
 20
69.439648437499983
 30
0.0
 11
-25.374074074100001
 21
93.439648437499983
 31
0.0
  0
LINE
  5
146
  8
0
 62
     0
 10
-47.374074074100001
 20
69.439648437499983
 30
0.0
 11
-47.374074074100001
 21
93.439648437499983
 31
0.0
  0
LINE
  5
147
  8
0
 62
     0
 10
-25.374074074100001
 20
92.439648437499969
 30
0.0
 11
-32.846296402299998
 21
92.439648437499969
 31
0.0
  0
LINE
  5
148
  8
0
 62
     0
 10
-25.374074074100001
 20
92.439648437499969
 30
0.0
 11
-39.901851745900011
 21
92.439648437499969
 31
0.0
  0
LINE
  5
149
  8
0
 62
     0
 10
-47.374074074100001
 20
92.439648437499969
 30
0.0
 11
-32.846296402299998
 21
92.439648437499969
 31
0.0
  0
LINE
  5
14A
  8
0
 62
     0
 10
-47.374074074100001
 20
92.439648437499969
 30
0.0
 11
-39.901851745900011
 21
92.439648437499969
 31
0.0
  0
LINE
  5
14B
  8
0
 62
     0
 10
-47.374074074100001
 20
92.439648437499969
 30
0.0
 11
-42.374074074100001
 21
92.439648437499969
 31
0.0
  0
SOLID
  5
14C
  8
0
 62
     0
 10
-47.374074074100001
 20
92.439648437499969
 30
0.0
 11
-44.374074074100001
 21
93.189648437499997
 31
0.0
 12
-44.374074074100001
 22
91.689648437499997
 32
0.0
 13
-45.124074074100001
 23
92.439648437499969
 33
0.0
  0
LINE
  5
14D
  8
0
 62
     0
 10
-25.374074074100001
 20
92.439648437499969
 30
0.0
 11
-30.374074074100001
 21
92.439648437499969
 31
0.0
  0
SOLID
  5
14E
  8
0
 62
     0
 10
-25.374074074100001
 20
92.439648437499969
 30
0.0
 11
-28.374074074100001
 21
91.689648437499997
 31
0.0
 12
-28.374074074100001
 22
93.189648437499997
 32
0.0
 13
-27.624074074100001
 23
92.439648437499969
 33
0.0
  0
ENDBLK
  5
14F
  8
0
  0
BLOCK
  8
0
  2
*D9
 70
     1
 10
0.0
 20
0.0
 30
0.0
  3
*D9
  1

  0
TEXT
  5
153
  8
0
 62
     0
 10
-63.137962909999999
 20
93.968815088300005
 30
0.0
 40
2.998611020999999
  1
28
  0
LINE
  5
154
  8
0
 62
     0
 10
-47.374074074100001
 20
69.439648437499983
 30
0.0
 11
-47.374074074100001
 21
93.439648437499983
 31
0.0
  0
LINE
  5
155
  8
0
 62
     0
 10
-75.374074074099994
 20
84.439648437499983
 30
0.0
 11
-75.374074074099994
 21
93.439648437499983
 31
0.0
  0
LINE
  5
156
  8
0
 62
     0
 10
-47.374074074100001
 20
92.439648437499969
 30
0.0
 11
-57.846296402299998
 21
92.439648437499969
 31
0.0
  0
LINE
  5
157
  8
0
 62
     0
 10
-47.374074074100001
 20
92.439648437499969
 30
0.0
 11
-64.901851745900004
 21
92.439648437499969
 31
0.0
  0
LINE
  5
158
  8
0
 62
     0
 10
-75.374074074099994
 20
92.439648437499969
 30
0.0
 11
-57.846296402299998
 21
92.439648437499969
 31
0.0
  0
LINE
  5
159
  8
0
 62
     0
 10
-75.374074074099994
 20
92.439648437499969
 30
0.0
 11
-64.901851745900004
 21
92.439648437499969
 31
0.0
  0
LINE
  5
15A
  8
0
 62
     0
 10
-75.374074074099994
 20
92.439648437499969
 30
0.0
 11
-70.374074074099994
 21
92.439648437499969
 31
0.0
  0
SOLID
  5
15B
  8
0
 62
     0
 10
-75.374074074099994
 20
92.439648437499969
 30
0.0
 11
-72.374074074099994
 21
93.189648437499997
 31
0.0
 12
-72.374074074099994
 22
91.689648437499997
 32
0.0
 13
-73.124074074099994
 23
92.439648437499969
 33
0.0
  0
LINE
  5
15C
  8
0
 62
     0
 10
-47.374074074100001
 20
92.439648437499969
 30
0.0
 11
-52.374074074100001
 21
92.439648437499969
 31
0.0
  0
SOLID
  5
15D
  8
0
 62
     0
 10
-47.374074074100001
 20
92.439648437499969
 30
0.0
 11
-50.374074074100001
 21
91.689648437499997
 31
0.0
 12
-50.374074074100001
 22
93.189648437499997
 32
0.0
 13
-49.624074074100001
 23
92.439648437499969
 33
0.0
  0
ENDBLK
  5
15E
  8
0
  0
BLOCK
  8
0
  2
*D10
 70
     1
 10
0.0
 20
0.0
 30
0.0
  3
*D10
  1

  0
TEXT
  5
162
  8
0
 62
     0
 10
-89.599324770400003
 20
60.675759601599999
 30
0.0
 40
2.998611020999999
  1
40
 50
90.0
  0
LINE
  5
163
  8
0
 62
     0
 10
-77.374074074099994
 20
82.439648437499969
 30
0.0
 11
-89.070158119699997
 21
82.439648437499969
 31
0.0
  0
LINE
  5
164
  8
0
 62
     0
 10
-77.374074074099994
 20
42.439648437499983
 30
0.0
 11
-89.070158119699997
 21
42.439648437499983
 31
0.0
  0
LINE
  5
165
  8
0
 62
     0
 10
-88.070158119699997
 20
82.439648437499969
 30
0.0
 11
-88.070158119699997
 21
65.967426109300007
 31
0.0
  0
LINE
  5
166
  8
0
 62
     0
 10
-88.070158119699997
 20
82.439648437499969
 30
0.0
 11
-88.070158119699997
 21
58.911870765699987
 31
0.0
  0
LINE
  5
167
  8
0
 62
     0
 10
-88.070158119699997
 20
42.439648437499983
 30
0.0
 11
-88.070158119699997
 21
65.967426109300007
 31
0.0
  0
LINE
  5
168
  8
0
 62
     0
 10
-88.070158119699997
 20
42.439648437499983
 30
0.0
 11
-88.070158119699997
 21
58.911870765699987
 31
0.0
  0
LINE
  5
169
  8
0
 62
     0
 10
-88.070158119699997
 20
42.439648437499983
 30
0.0
 11
-88.070158119699997
 21
47.439648437499983
 31
0.0
  0
SOLID
  5
16A
  8
0
 62
     0
 10
-88.070158119699997
 20
42.439648437499983
 30
0.0
 11
-88.820158119699997
 21
45.43964843749999
 31
0.0
 12
-87.320158119699997
 22
45.43964843749999
 32
0.0
 13
-88.070158119699997
 23
44.689648437499997
 33
0.0
  0
LINE
  5
16B
  8
0
 62
     0
 10
-88.070158119699997
 20
82.439648437499969
 30
0.0
 11
-88.070158119699997
 21
77.439648437499983
 31
0.0
  0
SOLID
  5
16C
  8
0
 62
     0
 10
-88.070158119699997
 20
82.439648437499969
 30
0.0
 11
-87.320158119699997
 21
79.439648437499983
 31
0.0
 12
-88.820158119699997
 22
79.439648437499983
 32
0.0
 13
-88.070158119699997
 23
80.189648437499983
 33
0.0
  0
ENDBLK
  5
16D
  8
0
  0
BLOCK
  8
0
  2
*D11
 70
     1
 10
0.0
 20
0.0
 30
0.0
  3
*D11
  1

  0
TEXT
  5
171
  8
0
 62
     0
 10
-5.6624140465999986
 20
70.675759601599992
 30
0.0
 40
2.998611020999999
  1
20
 50
90.0
  0
LINE
  5
172
  8
0
 62
     0
 10
-18.374074074100001
 20
62.43964843749999
 30
0.0
 11
-3.133247395799998
 21
62.43964843749999
 31
0.0
  0
LINE
  5
173
  8
0
 62
     0
 10
-16.374074074100001
 20
82.439648437499969
 30
0.0
 11
-3.133247395799998
 21
82.439648437499969
 31
0.0
  0
LINE
  5
174
  8
0
 62
     0
 10
-4.133247395799998
 20
62.43964843749999
 30
0.0
 11
-4.133247395799998
 21
75.967426109300007
 31
0.0
  0
LINE
  5
175
  8
0
 62
     0
 10
-4.133247395799998
 20
62.43964843749999
 30
0.0
 11
-4.133247395799998
 21
68.911870765700002
 31
0.0
  0
LINE
  5
176
  8
0
 62
     0
 10
-4.133247395799998
 20
82.439648437499969
 30
0.0
 11
-4.133247395799998
 21
75.967426109300007
 31
0.0
  0
LINE
  5
177
  8
0
 62
     0
 10
-4.133247395799998
 20
82.439648437499969
 30
0.0
 11
-4.133247395799998
 21
68.911870765700002
 31
0.0
  0
LINE
  5
178
  8
0
 62
     0
 10
-4.133247395799998
 20
82.439648437499969
 30
0.0
 11
-4.133247395799998
 21
77.439648437499983
 31
0.0
  0
SOLID
  5
179
  8
0
 62
     0
 10
-4.133247395799998
 20
82.439648437499969
 30
0.0
 11
-3.383247395799998
 21
79.439648437499983
 31
0.0
 12
-4.883247395799998
 22
79.439648437499983
 32
0.0
 13
-4.133247395799998
 23
80.189648437499983
 33
0.0
  0
LINE
  5
17A
  8
0
 62
     0
 10
-4.133247395799998
 20
62.43964843749999
 30
0.0
 11
-4.133247395799998
 21
67.439648437499983
 31
0.0
  0
SOLID
  5
17B
  8
0
 62
     0
 10
-4.133247395799998
 20
62.43964843749999
 30
0.0
 11
-4.883247395799998
 21
65.439648437499997
 31
0.0
 12
-3.383247395799998
 22
65.439648437499997
 32
0.0
 13
-4.133247395799998
 23
64.689648437499997
 33
0.0
  0
ENDBLK
  5
17C
  8
0
  0
BLOCK
  8
0
  2
*D12
 70
     1
 10
0.0
 20
0.0
 30
0.0
  3
*D12
  1

  0
TEXT
  5
181
  8
0
 62
     0
 10
-25.145442362499999
 20
35.196679734600011
 30
0.0
 40
2.998611020999999
  1
4-R 3
  0
LINE
  5
182
  8
0
 62
     0
 10
-7.6019387203999989
 20
34.667513083899998
 30
0.0
 11
-28.673220034300002
 21
34.667513083899998
 31
0.0
  0
LINE
  5
183
  8
0
 62
     0
 10
-16.2527537305
 20
43.318328093899993
 30
0.0
 11
-7.6019387203999989
 21
34.667513083899998
 31
0.0
  0
SOLID
  5
184
  8
0
 62
     0
 10
-16.2527537305
 20
43.318328093899993
 30
0.0
 11
-13.6011033011
 21
41.727337836300002
 31
0.0
 12
-14.661763472800001
 22
40.6666776645
 32
0.0
 13
-14.661763472800001
 23
41.727337836300002
 33
0.0
  0
ENDBLK
  5
185
  8
0
  0
BLOCK
  8
0
  2
*D13
 70
     1
 10
0.0
 20
0.0
 30
0.0
  3
*D13
  1

  0
TEXT
  5
189
  8
0
 62
     0
 10
-88.347062298600008
 20
85.1497934824
 30
0.0
 40
2.998611020999999
  1
2-%%c 6
  0
LINE
  5
18A
  8
0
 62
     0
 10
-69.555052468200003
 20
84.620626831599992
 30
0.0
 11
-91.874839970500005
 21
84.620626831599992
 31
0.0
  0
LINE
  5
18B
  8
0
 62
     0
 10
-49.495394417599996
 20
64.560968781100001
 30
0.0
 11
-69.555052468200003
 21
84.620626831599992
 31
0.0
  0
SOLID
  5
18C
  8
0
 62
     0
 10
-49.495394417599996
 20
64.560968781100001
 30
0.0
 11
-52.147044847099998
 21
66.151959038699999
 31
0.0
 12
-51.086384675299989
 22
67.212619210499994
 32
0.0
 13
-51.086384675299989
 23
66.151959038699999
 33
0.0
  0
ENDBLK
  5
18D
  8
0
  0
BLOCK
  8
0
  2
*D14
 70
     1
 10
0.0
 20
0.0
 30
0.0
  3
*D14
  1

  0
TEXT
  5
19A
  8
0
 62
     0
 10
167.9821759676
 20
-12.965610846600001
 30
0.0
 40
0.899583286
  1
%%c6
  0
LINE
  5
19B
  8
0
 62
     0
 10
165.7759259259
 20
-9.9388888888999993
 30
0.0
 11
165.7759259259
 21
-14.1243608681
 31
0.0
  0
LINE
  5
19C
  8
0
 62
     0
 10
171.7759259259
 20
-9.9388888888999993
 30
0.0
 11
171.7759259259
 21
-14.1243608681
 31
0.0
  0
LINE
  5
19D
  8
0
 62
     0
 10
165.7759259259
 20
-13.457694181600001
 30
0.0
 11
170.09884252309999
 21
-13.457694181600001
 31
0.0
  0
LINE
  5
19E
  8
0
 62
     0
 10
165.7759259259
 20
-13.457694181600001
 30
0.0
 11
167.45300932879999
 21
-13.457694181600001
 31
0.0
  0
LINE
  5
19F
  8
0
 62
     0
 10
171.7759259259
 20
-13.457694181600001
 30
0.0
 11
170.09884252309999
 21
-13.457694181600001
 31
0.0
  0
LINE
  5
1A0
  8
0
 62
     0
 10
171.7759259259
 20
-13.457694181600001
 30
0.0
 11
167.45300932879999
 21
-13.457694181600001
 31
0.0
  0
LINE
  5
1A1
  8
0
 62
     0
 10
171.7759259259
 20
-13.457694181600001
 30
0.0
 11
170.109259299
 21
-13.457694181600001
 31
0.0
  0
SOLID
  5
1A2
  8
0
 62
     0
 10
171.7759259259
 20
-13.457694181600001
 30
0.0
 11
170.7759259259
 21
-13.7256941882
 31
0.0
 12
170.7759259259
 22
-13.1896941749
 32
0.0
 13
171.0259259259
 23
-13.457694181600001
 33
0.0
  0
LINE
  5
1A3
  8
0
 62
     0
 10
165.7759259259
 20
-13.457694181600001
 30
0.0
 11
167.44259255290001
 21
-13.457694181600001
 31
0.0
  0
SOLID
  5
1A4
  8
0
 62
     0
 10
165.7759259259
 20
-13.457694181600001
 30
0.0
 11
166.7759259259
 21
-13.1896941749
 31
0.0
 12
166.7759259259
 22
-13.7256941882
 32
0.0
 13
166.5259259259
 23
-13.457694181600001
 33
0.0
  0
ENDBLK
  5
1A5
  8
0
  0
BLOCK
  8
0
  2
*D15
 70
     1
 10
0.0
 20
0.0
 30
0.0
  3
*D15
  1

  0
TEXT
  5
1AE
  8
0
 62
     0
 10
-47.137962909999999
 20
-33.222279809900002
 30
0.0
 40
2.998611020999999
  1
60
  0
LINE
  5
1AF
  8
0
 62
     0
 10
-75.374074074099994
 20
-18.068554687500001
 30
0.0
 11
-75.374074074099994
 21
-35.751446460700002
 31
0.0
  0
LINE
  5
1B0
  8
0
 62
     0
 10
-15.374074074099999
 20
-22.568554687500001
 30
0.0
 11
-15.374074074099999
 21
-35.751446460700002
 31
0.0
  0
LINE
  5
1B1
  8
0
 62
     0
 10
-75.374074074099994
 20
-34.751446460700002
 30
0.0
 11
-41.846296402299977
 21
-34.751446460700002
 31
0.0
  0
LINE
  5
1B2
  8
0
 62
     0
 10
-75.374074074099994
 20
-34.751446460700002
 30
0.0
 11
-48.901851745899997
 21
-34.751446460700002
 31
0.0
  0
LINE
  5
1B3
  8
0
 62
     0
 10
-15.374074074099999
 20
-34.751446460700002
 30
0.0
 11
-41.846296402299977
 21
-34.751446460700002
 31
0.0
  0
LINE
  5
1B4
  8
0
 62
     0
 10
-15.374074074099999
 20
-34.751446460700002
 30
0.0
 11
-48.901851745899997
 21
-34.751446460700002
 31
0.0
  0
LINE
  5
1B5
  8
0
 62
     0
 10
-15.374074074099999
 20
-34.751446460700002
 30
0.0
 11
-20.374074074100001
 21
-34.751446460700002
 31
0.0
  0
SOLID
  5
1B6
  8
0
 62
     0
 10
-15.374074074099999
 20
-34.751446460700002
 30
0.0
 11
-18.374074074100001
 21
-35.501446460700009
 31
0.0
 12
-18.374074074100001
 22
-34.001446460700002
 32
0.0
 13
-17.624074074100001
 23
-34.751446460700002
 33
0.0
  0
LINE
  5
1B7
  8
0
 62
     0
 10
-75.374074074099994
 20
-34.751446460700002
 30
0.0
 11
-70.374074074099994
 21
-34.751446460700002
 31
0.0
  0
SOLID
  5
1B8
  8
0
 62
     0
 10
-75.374074074099994
 20
-34.751446460700002
 30
0.0
 11
-72.374074074099994
 21
-34.001446460700002
 31
0.0
 12
-72.374074074099994
 22
-35.501446460700009
 32
0.0
 13
-73.124074074099994
 23
-34.751446460700002
 33
0.0
  0
ENDBLK
  5
1B9
  8
0
  0
BLOCK
  8
0
  2
*D16
 70
     1
 10
0.0
 20
0.0
 30
0.0
  3
*D16
  1

  0
TEXT
  5
1BD
  8
0
 62
     0
 10
-6.9032407247999981
 20
-13.0608155172
 30
0.0
 40
2.998611020999999
  1
3.2t
 50
90.0
  0
LINE
  5
1BE
  8
0
 62
     0
 10
-13.374074074099999
 20
-20.568554687500001
 30
0.0
 11
-4.3740740741000002
 21
-20.568554687500001
 31
0.0
  0
LINE
  5
1BF
  8
0
 62
     0
 10
-13.374074074099999
 20
-17.568554687500001
 30
0.0
 11
-4.3740740741000002
 21
-17.568554687500001
 31
0.0
  0
LINE
  5
1C0
  8
0
 62
     0
 10
-5.3740740740999993
 20
-20.568554687500001
 30
0.0
 11
-5.3740740740999993
 21
-4.2413713376999986
 31
0.0
  0
LINE
  5
1C1
  8
0
 62
     0
 10
-5.3740740740999993
 20
-20.568554687500001
 30
0.0
 11
-5.3740740740999993
 21
-14.8247043531
 31
0.0
  0
LINE
  5
1C2
  8
0
 62
     0
 10
-5.3740740740999993
 20
-17.568554687500001
 30
0.0
 11
-5.3740740740999993
 21
-4.2413713376999986
 31
0.0
  0
LINE
  5
1C3
  8
0
 62
     0
 10
-5.3740740740999993
 20
-17.568554687500001
 30
0.0
 11
-5.3740740740999993
 21
-14.8247043531
 31
0.0
  0
LINE
  5
1C4
  8
0
 62
     0
 10
-5.3740740740999993
 20
-17.568554687500001
 30
0.0
 11
-5.3740740740999993
 21
-12.568554687500001
 31
0.0
  0
SOLID
  5
1C5
  8
0
 62
     0
 10
-5.3740740740999993
 20
-17.568554687500001
 30
0.0
 11
-6.1240740740999993
 21
-14.568554687500001
 31
0.0
 12
-4.6240740741000002
 22
-14.568554687500001
 32
0.0
 13
-5.3740740740999993
 23
-15.318554687500001
 33
0.0
  0
LINE
  5
1C6
  8
0
 62
     0
 10
-5.3740740740999993
 20
-20.568554687500001
 30
0.0
 11
-5.3740740740999993
 21
-25.568554687500001
 31
0.0
  0
SOLID
  5
1C7
  8
0
 62
     0
 10
-5.3740740740999993
 20
-20.568554687500001
 30
0.0
 11
-4.6240740741000002
 21
-23.568554687500001
 31
0.0
 12
-6.1240740740999993
 22
-23.568554687500001
 32
0.0
 13
-5.3740740740999993
 23
-22.818554687500001
 33
0.0
  0
ENDBLK
  5
1C8
  8
0
  0
BLOCK
  8
0
  2
*D17
 70
     1
 10
0.0
 20
0.0
 30
0.0
  3
*D17
  1

  0
TEXT
  5
1E8
  8
0
 62
     0
 10
-60.670701216600001
 20
-1.625704197099999
 30
0.0
 40
2.998611020999999
  1
90%%d
 50
316.0301094806
  0
ARC
  5
1E9
  8
0
 62
     0
 10
-72.374074074099994
 20
-17.568554687500001
 30
0.0
 40
18.0120659713
 50
75.888511366099991
 51
90.0
  0
ARC
  5
1EA
  8
0
 62
     0
 10
-72.374074074099994
 20
-17.568554687500001
 30
0.0
 40
18.0120659713
 50
0.0
 51
14.111488633900001
  0
SOLID
  5
1EB
  8
0
 62
     0
 10
-54.36200810279999
 20
-17.568554687500001
 30
0.0
 11
-53.61200810279999
 21
-20.568554687500001
 31
0.0
 12
-55.112008102799997
 22
-20.568554687500001
 32
0.0
 13
-54.36200810279999
 23
-19.818554687500001
 33
0.0
  0
SOLID
  5
1EC
  8
0
 62
     0
 10
-72.374074074099994
 20
0.4435112838000002
 30
0.0
 11
-75.374074074099994
 21
-0.3064887162
 31
0.0
 12
-75.374074074099994
 22
1.193511283799999
 32
0.0
 13
-74.624074074099994
 23
0.4435112838000002
 33
0.0
  0
ARC
  5
1ED
  8
0
 62
     0
 10
-72.374074074099994
 20
-17.568554687500001
 30
0.0
 40
18.0120659713
 50
0.0
 51
31.735245448200001
  0
ARC
  5
1EE
  8
0
 62
     0
 10
-72.374074074099994
 20
-17.568554687500001
 30
0.0
 40
18.0120659713
 50
60.324973513000003
 51
90.0
  0
LINE
  5
1EF
  8
0
 62
     0
 10
-17.374074074100001
 20
-17.568554687500001
 30
0.0
 11
-56.362008102799997
 21
-17.568554687500001
 31
0.0
  0
LINE
  5
1F0
  8
0
 62
     0
 10
-72.374074074099994
 20
22.431445312499999
 30
0.0
 11
-72.374074074099994
 21
-1.5564887162000001
 31
0.0
  0
ENDBLK
  5
1F1
  8
0
  0
BLOCK
  8
0
  2
*D18
 70
     1
 10
0.0
 20
0.0
 30
0.0
  3
*D18
  1

  0
TEXT
  5
1F5
  8
0
 62
     0
 10
-89.1549921716
 20
0.1675564766
 30
0.0
 40
2.998611020999999
  1
45
 50
90.0
  0
LINE
  5
1F6
  8
0
 62
     0
 10
-77.374074074099994
 20
24.431445312499999
 30
0.0
 11
-88.625825520799964
 21
24.431445312499999
 31
0.0
  0
LINE
  5
1F7
  8
0
 62
     0
 10
-72.874074074099994
 20
-20.568554687500001
 30
0.0
 11
-88.625825520799964
 21
-20.568554687500001
 31
0.0
  0
LINE
  5
1F8
  8
0
 62
     0
 10
-87.625825520799964
 20
24.431445312499999
 30
0.0
 11
-87.625825520799964
 21
5.4592229842999993
 31
0.0
  0
LINE
  5
1F9
  8
0
 62
     0
 10
-87.625825520799964
 20
24.431445312499999
 30
0.0
 11
-87.625825520799964
 21
-1.5963323593000001
 31
0.0
  0
LINE
  5
1FA
  8
0
 62
     0
 10
-87.625825520799964
 20
-20.568554687500001
 30
0.0
 11
-87.625825520799964
 21
5.4592229842999993
 31
0.0
  0
LINE
  5
1FB
  8
0
 62
     0
 10
-87.625825520799964
 20
-20.568554687500001
 30
0.0
 11
-87.625825520799964
 21
-1.5963323593000001
 31
0.0
  0
LINE
  5
1FC
  8
0
 62
     0
 10
-87.625825520799964
 20
-20.568554687500001
 30
0.0
 11
-87.625825520799964
 21
-15.568554687500001
 31
0.0
  0
SOLID
  5
1FD
  8
0
 62
     0
 10
-87.625825520799964
 20
-20.568554687500001
 30
0.0
 11
-88.375825520799964
 21
-17.568554687500001
 31
0.0
 12
-86.875825520800007
 22
-17.568554687500001
 32
0.0
 13
-87.625825520799964
 23
-18.318554687500001
 33
0.0
  0
LINE
  5
1FE
  8
0
 62
     0
 10
-87.625825520799964
 20
24.431445312499999
 30
0.0
 11
-87.625825520799964
 21
19.431445312499999
 31
0.0
  0
SOLID
  5
1FF
  8
0
 62
     0
 10
-87.625825520799964
 20
24.431445312499999
 30
0.0
 11
-86.875825520800007
 21
21.431445312499999
 31
0.0
 12
-88.375825520799964
 22
21.431445312499999
 32
0.0
 13
-87.625825520799964
 23
22.181445312499999
 33
0.0
  0
ENDBLK
  5
200
  8
0
  0
BLOCK
  8
0
  2
*D19
 70
     1
 10
0.0
 20
0.0
 30
0.0
  3
*D19
  1

  0
TEXT
  5
207
  8
0
 62
     0
 10
167.18842600939999
 20
0.1703211053
 30
0.0
 40
0.899583286
  1
%%c10.5
  0
LINE
  5
208
  8
0
 62
     0
 10
174.0259259259
 20
-2.938888888899998
 30
0.0
 11
174.0259259259
 21
0.3449044569
 31
0.0
  0
LINE
  5
209
  8
0
 62
     0
 10
163.5259259259
 20
-2.938888888899998
 30
0.0
 11
163.5259259259
 21
0.3449044569
 31
0.0
  0
LINE
  5
20A
  8
0
 62
     0
 10
174.0259259259
 20
-0.3217622296
 30
0.0
 11
170.8925924813
 21
-0.3217622296
 31
0.0
  0
LINE
  5
20B
  8
0
 62
     0
 10
174.0259259259
 20
-0.3217622296
 30
0.0
 11
166.6592593705
 21
-0.3217622296
 31
0.0
  0
LINE
  5
20C
  8
0
 62
     0
 10
163.5259259259
 20
-0.3217622296
 30
0.0
 11
170.8925924813
 21
-0.3217622296
 31
0.0
  0
LINE
  5
20D
  8
0
 62
     0
 10
163.5259259259
 20
-0.3217622296
 30
0.0
 11
166.6592593705
 21
-0.3217622296
 31
0.0
  0
LINE
  5
20E
  8
0
 62
     0
 10
163.5259259259
 20
-0.3217622296
 30
0.0
 11
165.19259255290001
 21
-0.3217622296
 31
0.0
  0
SOLID
  5
20F
  8
0
 62
     0
 10
163.5259259259
 20
-0.3217622296
 30
0.0
 11
164.5259259259
 21
-0.0537622229
 31
0.0
 12
164.5259259259
 22
-0.5897622363
 32
0.0
 13
164.2759259259
 23
-0.3217622296
 33
0.0
  0
LINE
  5
210
  8
0
 62
     0
 10
174.0259259259
 20
-0.3217622296
 30
0.0
 11
172.359259299
 21
-0.3217622296
 31
0.0
  0
SOLID
  5
211
  8
0
 62
     0
 10
174.0259259259
 20
-0.3217622296
 30
0.0
 11
173.0259259259
 21
-0.5897622363
 31
0.0
 12
173.0259259259
 22
-0.0537622229
 32
0.0
 13
173.2759259259
 23
-0.3217622296
 33
0.0
  0
ENDBLK
  5
212
  8
0
  0
BLOCK
  8
0
  2
*D20
 70
     1
 10
0.0
 20
0.0
 30
0.0
  3
*D20
  1

  0
TEXT
  5
217
  8
0
 62
     0
 10
167.9821759676
 20
3.048235118
 30
0.0
 40
0.899583286
  1
90%%d
  0
ARC
  5
218
  8
0
 62
     0
 10
168.7759259259
 20
-10.188888888899999
 30
0.0
 40
12.7608740319
 50
130.05862626379999
 51
135.0
  0
ARC
  5
219
  8
0
 62
     0
 10
168.7759259259
 20
-10.188888888899999
 30
0.0
 40
12.7608740319
 50
45.0
 51
49.941373736199999
  0
SOLID
  5
21A
  8
0
 62
     0
 10
177.7992264877999
 20
-1.165588327
 30
0.0
 11
178.695837891
 21
-1.6831904862
 31
0.0
 12
178.31682864689981
 22
-2.0621997303000001
 32
0.0
 13
178.32955657369999
 23
-1.6959184129
 33
0.0
  0
SOLID
  5
21B
  8
0
 62
     0
 10
159.7526253641
 20
-1.165588327
 30
0.0
 11
159.235023205
 21
-2.0621997303000001
 31
0.0
 12
158.8560139608
 22
-1.6831904862
 32
0.0
 13
159.22229527819999
 23
-1.6959184129
 33
0.0
  0
ARC
  5
21C
  8
0
 62
     0
 10
168.7759259259
 20
-10.188888888899999
 30
0.0
 40
12.7608740319
 50
45.0
 51
83.982200401499995
  0
ARC
  5
21D
  8
0
 62
     0
 10
168.7759259259
 20
-10.188888888899999
 30
0.0
 40
12.7608740319
 50
96.017799598500005
 51
135.0
  0
LINE
  5
21E
  8
0
 62
     0
 10
174.49733046079999
 20
-4.467484353999998
 30
0.0
 11
178.27063102260001
 21
-0.6941837922000002
 31
0.0
  0
LINE
  5
21F
  8
0
 62
     0
 10
163.0545213911
 20
-4.467484353999998
 30
0.0
 11
159.28122082920001
 21
-0.6941837922000002
 31
0.0
  0
ENDBLK
  5
220
  8
0
  0
BLOCK
  8
0
  2
*D21
 70
     1
 10
0.0
 20
0.0
 30
0.0
  3
*D21
  1

  0
LINE
  5
362
  8
寸法線
 62
     0
 10
41.555325400389748
 20
-2.0767504577801241
 30
0.0
 11
53.814059487398389
 21
10.18198362922851
 31
0.0
  0
LINE
  5
363
  8
寸法線
 62
     0
 10
29.90627688094143
 20
-2.0767504577801241
 30
0.0
 11
17.647542793932789
 21
10.18198362922851
 31
0.0
  0
ARC
  5
364
  8
寸法線
 62
     0
 10
35.730801140665612
 20
-7.9012747175042808
 30
0.0
 40
24.573589205846002
 50
51.999150963238058
 51
78.750404291128845
  0
ARC
  5
365
  8
寸法線
 62
     0
 10
35.730801140665612
 20
-7.9012747175042808
 30
0.0
 40
24.573589205846002
 50
100.5083290533118
 51
128.00084903676191
  0
SOLID
  5
366
  8
寸法線
 62
     0
 10
51.191413071142762
 20
11.83722904584808
 30
0.0
 11
50.528787473749901
 21
11.088278234592901
 31
0.0
 12
53.106952706211842
 22
9.4748768480419674
 32
0.0
 13
53.106952706211842
 23
9.4748768480419674
 33
0.0
  0
SOLID
  5
367
  8
寸法線
 62
     0
 10
20.93281480758127
 20
11.088278234592901
 30
0.0
 11
20.27018921018842
 21
11.83722904584808
 31
0.0
 12
18.354649575119328
 22
9.4748768480419656
 32
0.0
 13
18.354649575119328
 23
9.4748768480419656
 33
0.0
  0
TEXT
  5
377
  8
寸法線
 62
     0
 10
29.892499999999998
 20
11.3643
 30
0.0
 40
2.9986099999999989
  1
90°
  0
POINT
  5
369
  8
DEFPOINTS
 62
     0
 10
35.730801140665612
 20
-7.9012747175042808
 30
0.0
  0
POINT
  5
36A
  8
DEFPOINTS
 62
     0
 10
41.511131226565603
 20
-2.1209446316042819
 30
0.0
  0
POINT
  5
36B
  8
DEFPOINTS
 62
     0
 10
29.9504710547656
 20
-2.1209446316042819
 30
0.0
  0
POINT
  5
36C
  8
DEFPOINTS
 62
     0
 10
29.370688247666919
 20
15.834989741040641
 30
0.0
  0
ENDBLK
  5
244
  8
0
  0
BLOCK
  8
0
  2
*D22
 70
     1
 10
0.0
 20
0.0
 30
0.0
  3
*D22
  1

  0
LINE
  5
2A8
  8
寸法線
 62
     0
 10
40.980801140665591
 20
-2.588774717504283
 30
0.0
 11
40.980801140665591
 21
8.4902379756953223
 31
0.0
  0
LINE
  5
2A9
  8
寸法線
 62
     0
 10
30.480801140665591
 20
-2.588774717504283
 30
0.0
 11
30.480801140665591
 21
8.4902379756953223
 31
0.0
  0
LINE
  5
2AA
  8
寸法線
 62
     0
 10
43.980801140665591
 20
7.4902379756953206
 30
0.0
 11
46.980801140665577
 21
7.4902379756953206
 31
0.0
  0
LINE
  5
2AB
  8
寸法線
 62
     0
 10
27.480801140665591
 20
7.4902379756953206
 30
0.0
 11
24.480801140665591
 21
7.4902379756953206
 31
0.0
  0
SOLID
  5
2AC
  8
寸法線
 62
     0
 10
43.980801140665591
 20
7.9902379756953206
 30
0.0
 11
43.980801140665591
 21
6.9902379756953206
 31
0.0
 12
40.980801140665591
 22
7.4902379756953206
 32
0.0
 13
40.980801140665591
 23
7.4902379756953206
 33
0.0
  0
SOLID
  5
2AD
  8
寸法線
 62
     0
 10
27.480801140665591
 20
7.9902379756953206
 30
0.0
 11
27.480801140665591
 21
6.9902379756953206
 31
0.0
 12
30.480801140665591
 22
7.4902379756953206
 32
0.0
 13
30.480801140665591
 23
7.4902379756953206
 33
0.0
  0
INSERT
  5
2AE
  8
0
  6
CONTINUOUS
  2
*U23
 10
0.0
 20
0.0
 30
0.0
  0
POINT
  5
2AF
  8
DEFPOINTS
 62
     0
 10
40.980801140665591
 20
-2.651274717504283
 30
0.0
  0
POINT
  5
2B0
  8
DEFPOINTS
 62
     0
 10
30.480801140665591
 20
-2.651274717504283
 30
0.0
  0
POINT
  5
2B1
  8
DEFPOINTS
 62
     0
 10
30.480801140665591
 20
7.4902379756953206
 30
0.0
  0
ENDBLK
  5
251
  8
0
  0
BLOCK
  8
0
  2
*U23
 70
     1
 10
0.0
 20
0.0
 30
0.0
  3
*U23
  1

  0
TEXT
  5
36E
  8
寸法線
  6
CONTINUOUS
 62
     0
 10
30.15360375932293
 20
5.9909324651953213
 30
0.0
 40
2.998611020999999
  1
\U+2205
  0
TEXT
  5
36F
  8
寸法線
  6
CONTINUOUS
 62
     0
 10
33.152214780322929
 20
5.9909324651953213
 30
0.0
 40
2.998611020999999
  1
10.5
  0
ENDBLK
  5
371
  8
0
  0
BLOCK
  8
0
  2
*D24
 70
     1
 10
0.0
 20
0.0
 30
0.0
  3
*D24
  1

  0
LINE
  5
2B2
  8
寸法線
 62
     0
 10
32.730801140665591
 20
-5.7137747175042808
 30
0.0
 11
32.730801140665591
 21
-17.14740010580897
 31
0.0
  0
LINE
  5
2B3
  8
寸法線
 62
     0
 10
38.730801140665591
 20
-5.7137747175042808
 30
0.0
 11
38.730801140665591
 21
-17.14740010580897
 31
0.0
  0
LINE
  5
2B4
  8
寸法線
 62
     0
 10
29.730801140665591
 20
-16.14740010580897
 30
0.0
 11
26.730801140665591
 21
-16.14740010580897
 31
0.0
  0
LINE
  5
2B5
  8
寸法線
 62
     0
 10
41.730801140665591
 20
-16.14740010580897
 30
0.0
 11
44.730801140665598
 21
-16.14740010580897
 31
0.0
  0
SOLID
  5
2B6
  8
寸法線
 62
     0
 10
29.730801140665591
 20
-15.64740010580897
 30
0.0
 11
29.730801140665591
 21
-16.64740010580897
 31
0.0
 12
32.730801140665591
 22
-16.14740010580897
 32
0.0
 13
32.730801140665591
 23
-16.14740010580897
 33
0.0
  0
SOLID
  5
2B7
  8
寸法線
 62
     0
 10
41.730801140665591
 20
-15.64740010580897
 30
0.0
 11
41.730801140665591
 21
-16.64740010580897
 31
0.0
 12
38.730801140665591
 22
-16.14740010580897
 32
0.0
 13
38.730801140665591
 23
-16.14740010580897
 33
0.0
  0
INSERT
  5
2B8
  8
0
  6
CONTINUOUS
  2
*U25
 10
0.0
 20
0.0
 30
0.0
  0
POINT
  5
2B9
  8
DEFPOINTS
 62
     0
 10
32.730801140665591
 20
-5.6512747175042808
 30
0.0
  0
POINT
  5
2BA
  8
DEFPOINTS
 62
     0
 10
38.730801140665591
 20
-5.6512747175042808
 30
0.0
  0
POINT
  5
2BB
  8
DEFPOINTS
 62
     0
 10
38.730801140665591
 20
-16.14740010580897
 30
0.0
  0
ENDBLK
  5
25E
  8
0
  0
BLOCK
  8
0
  2
*U25
 70
     1
 10
0.0
 20
0.0
 30
0.0
  3
*U25
  1

  0
TEXT
  5
373
  8
寸法線
  6
CONTINUOUS
 62
     0
 10
33.231958623165589
 20
-17.646705616308971
 30
0.0
 40
2.998611020999999
  1
\U+2205
  0
TEXT
  5
374
  8
寸法線
  6
CONTINUOUS
 62
     0
 10
36.230569644165591
 20
-17.646705616308971
 30
0.0
 40
2.998611020999999
  1
6
  0
ENDBLK
  5
376
  8
0
  0
BLOCK
  8
0
  2
*U26
 70
     1
 10
0.0
 20
0.0
 30
0.0
  3
*U26
  1

  0
TEXT
  5
2CD
  8
図枠
  6
CONTINUOUS
 10
82.937911520920807
 20
116.5035410677076
 30
0.0
 40
2.698480084499999
  1
改　訂　内　容
  0
ENDBLK
  5
2CF
  8
0
  0
BLOCK
  8
0
  2
*U27
 70
     1
 10
0.0
 20
0.0
 30
0.0
  3
*U27
  1

  0
TEXT
  5
2D1
  8
図枠
  6
CONTINUOUS
 10
56.865484022010918
 20
116.5309368046061
 30
0.0
 40
2.698480084499999
  1
改訂日
  0
ENDBLK
  5
2D3
  8
0
  0
BLOCK
  8
0
  2
*U28
 70
     1
 10
0.0
 20
0.0
 30
0.0
  3
*U28
  1

  0
TEXT
  5
2D5
  8
図枠
  6
CONTINUOUS
 10
46.63370905196269
 20
116.5583325415045
 30
0.0
 40
2.698480084499999
  1
副番
  0
ENDBLK
  5
2D7
  8
0
  0
BLOCK
  8
0
  2
*U29
 70
     1
 10
0.0
 20
0.0
 30
0.0
  3
*U29
  1

  0
TEXT
  5
2D9
  8
図枠
  6
CONTINUOUS
 10
120.00301164072791
 20
116.5035410677076
 30
0.0
 40
2.698480084499999
  1
改訂者
  0
ENDBLK
  5
2DB
  8
0
  0
BLOCK
  8
0
  2
*U30
 70
     1
 10
0.0
 20
0.0
 30
0.0
  3
*U30
  1

  0
TEXT
  5
2DD
  8
図枠
  6
CONTINUOUS
 10
129.96091803538019
 20
116.4898431992583
 30
0.0
 40
2.698480084499999
  1
検認者
  0
ENDBLK
  5
2DF
  8
0
  0
BLOCK
  8
0
  2
*U31
 70
     1
 10
0.0
 20
0.0
 30
0.0
  3
*U31
  1

  0
TEXT
  5
2E1
  8
図枠
  6
CONTINUOUS
 10
48.831068558075643
 20
-47.39101372425278
 30
0.0
 40
2.3372662499999981
  1
尺 　度
  0
ENDBLK
  5
2E3
  8
0
  0
BLOCK
  8
0
  2
*U32
 70
     1
 10
0.0
 20
0.0
 30
0.0
  3
*U32
  1

  0
TEXT
  5
2E5
  8
図枠
  6
CONTINUOUS
 10
61.211068188666992
 20
-42.791409823584253
 30
0.0
 40
2.804719459499998
  1
指定無き公差はJIS 0408-Bによること
  0
ENDBLK
  5
2E7
  8
0
  0
BLOCK
  8
0
  2
*U33
 70
     1
 10
0.0
 20
0.0
 30
0.0
  3
*U33
  1

  0
TEXT
  5
2E9
  8
図枠
  6
CONTINUOUS
 10
103.4130342151566
 20
-50.017101395271062
 30
0.0
 40
2.9983111599000001
  1
Ｌ型ブラケット
  0
ENDBLK
  5
2EB
  8
0
  0
BLOCK
  8
0
  2
*U34
 70
     1
 10
0.0
 20
0.0
 30
0.0
  3
*U34
  1

  0
TEXT
  5
2ED
  8
図枠
  6
CONTINUOUS
 10
79.463100407342111
 20
-37.220774050500502
 30
0.0
 40
2.804719459499998
  1
ユニクロメッキ
  0
ENDBLK
  5
2EF
  8
0
  0
BLOCK
  8
0
  2
*U35
 70
     1
 10
0.0
 20
0.0
 30
0.0
  3
*U35
  1

  0
TEXT
  5
2F1
  8
ﾚｲﾔ_1
  6
CONTINUOUS
 10
24.596779068350759
 20
-26.350465994093401
 30
0.0
 40
2.998611020999999
  1
皿押し部詳細
  0
ENDBLK
  5
2F3
  8
0
  0
BLOCK
  8
0
  2
*U36
 70
     1
 10
0.0
 20
0.0
 30
0.0
  3
*U36
  1

  0
TEXT
  5
2F5
  8
図枠
  6
CONTINUOUS
 10
82.81647054324057
 20
-31.792509823584268
 30
0.0
 40
2.804719459499998
  1
板　　厚
  0
ENDBLK
  5
2F7
  8
0
  0
BLOCK
  8
0
  2
*U37
 70
     1
 10
0.0
 20
0.0
 30
0.0
  3
*U37
  1

  0
TEXT
  5
2F9
  8
図枠
  6
CONTINUOUS
 10
28.232965294100001
 20
-67.513086537506595
 30
0.0
 40
4.3175681352000002
  1
株式会社
  0
ENDBLK
  5
2FB
  8
0
  0
BLOCK
  8
0
  2
*U38
 70
     1
 10
0.0
 20
0.0
 30
0.0
  3
*U38
  1

  0
TEXT
  5
2FD
  8
図枠
  6
CONTINUOUS
 10
26.90037489363274
 20
-42.819884132817762
 30
0.0
 40
2.804719459499998
  1
一般公差
  0
ENDBLK
  5
2FF
  8
0
  0
BLOCK
  8
0
  2
*U39
 70
     1
 10
0.0
 20
0.0
 30
0.0
  3
*U39
  1

  0
TEXT
  5
301
  8
図枠
  6
CONTINUOUS
 10
26.857663429782491
 20
-31.735561205117261
 30
0.0
 40
2.804719459499998
  1
材　　質
  0
ENDBLK
  5
303
  8
0
  0
BLOCK
  8
0
  2
*U40
 70
     1
 10
0.0
 20
0.0
 30
0.0
  3
*U40
  1

  0
TEXT
  5
305
  8
図枠
  6
CONTINUOUS
 10
54.009833624700001
 20
-60.151603019938058
 30
0.0
 40
2.3372662499999981
  1
 検図
  0
ENDBLK
  5
307
  8
0
  0
BLOCK
  8
0
  2
*U41
 70
     1
 10
0.0
 20
0.0
 30
0.0
  3
*U41
  1

  0
TEXT
  5
309
  8
図枠
  6
CONTINUOUS
 10
26.829189120548978
 20
-37.263485514350762
 30
0.0
 40
2.804719459499998
  1
表面処理
  0
ENDBLK
  5
30B
  8
0
  0
BLOCK
  8
0
  2
*U42
 70
     1
 10
0.0
 20
0.0
 30
0.0
  3
*U42
  1

  0
TEXT
  5
30D
  8
図枠
  6
CONTINUOUS
 10
58.597481248586789
 20
-31.5795178232
 30
0.0
 40
2.9983111599000001
  1
SPCC
  0
ENDBLK
  5
30F
  8
0
  0
BLOCK
  8
0
  2
*U43
 70
     1
 10
0.0
 20
0.0
 30
0.0
  3
*U43
  1

  0
TEXT
  5
311
  8
図枠
  6
CONTINUOUS
 10
54.009833624700001
 20
-55.878299428567502
 30
0.0
 40
2.3372662499999981
  1
 照査
  0
ENDBLK
  5
313
  8
0
  0
BLOCK
  8
0
  2
*U44
 70
     1
 10
0.0
 20
0.0
 30
0.0
  3
*U44
  1

  0
TEXT
  5
315
  8
図枠
  6
CONTINUOUS
 10
104.13597726132529
 20
-58.27273373761421
 30
0.0
 40
2.9983111599000001
  1
LY-618 承認図
  0
ENDBLK
  5
317
  8
0
  0
BLOCK
  8
0
  2
*U45
 70
     1
 10
0.0
 20
0.0
 30
0.0
  3
*U45
  1

  0
TEXT
  5
319
  8
図枠
  6
CONTINUOUS
 10
101.3126944178662
 20
-66.711004323200001
 30
0.0
 40
2.9983111599000001
  1
ＳＲＫ００１２４
  0
ENDBLK
  5
31B
  8
0
  0
BLOCK
  8
0
  2
*U46
 70
     1
 10
0.0
 20
0.0
 30
0.0
  3
*U46
  1

  0
TEXT
  5
31D
  8
図枠
  6
CONTINUOUS
 10
25.414152869623859
 20
-60.13973872425278
 30
0.0
 40
2.3372662499999981
  1
製図
  0
ENDBLK
  5
31F
  8
0
  0
BLOCK
  8
0
  2
*U47
 70
     1
 10
0.0
 20
0.0
 30
0.0
  3
*U47
  1

  0
TEXT
  5
321
  8
図枠
  6
CONTINUOUS
 10
61.211068188666992
 20
-42.791409823584253
 30
0.0
 40
2.804719459499998
  1
指定無き公差はJIS 0408-Bによること
  0
ENDBLK
  5
323
  8
0
  0
BLOCK
  8
0
  2
*U48
 70
     1
 10
0.0
 20
0.0
 30
0.0
  3
*U48
  1

  0
TEXT
  5
325
  8
図枠
  6
CONTINUOUS
 10
115.3391316058522
 20
-31.810883622800009
 30
0.0
 40
3.2296769594999981
  1
3.2t
  0
ENDBLK
  5
327
  8
0
  0
BLOCK
  8
0
  2
*U49
 70
     1
 10
0.0
 20
0.0
 30
0.0
  3
*U49
  1

  0
TEXT
  5
329
  8
図枠
  6
CONTINUOUS
 10
51.120877625334522
 20
-51.521945767399998
 30
0.0
 40
2.3372662499999981
  1
1：1
  0
ENDBLK
  5
32B
  8
0
  0
BLOCK
  8
0
  2
*U50
 70
     1
 10
0.0
 20
0.0
 30
0.0
  3
*U50
  1

  0
TEXT
  5
32D
  8
図枠
  6
CONTINUOUS
 10
69.330001962263452
 20
-55.890163724252787
 30
0.0
 40
2.3372662499999981
  1
柳 原
  0
ENDBLK
  5
32F
  8
0
  0
BLOCK
  8
0
  2
*U51
 70
     1
 10
0.0
 20
0.0
 30
0.0
  3
*U51
  1

  0
TEXT
  5
331
  8
図枠
  6
CONTINUOUS
 10
39.404187736375128
 20
-60.080417245826389
 30
0.0
 40
2.3372662499999981
  1
園 原
  0
ENDBLK
  5
333
  8
0
  0
BLOCK
  8
0
  2
*U52
 70
     1
 10
0.0
 20
0.0
 30
0.0
  3
*U52
  1

  0
TEXT
  5
335
  8
図枠
  6
CONTINUOUS
 10
69.330001962263452
 20
-60.13973872425278
 30
0.0
 40
2.3372662499999981
  1
柳 原
  0
ENDBLK
  5
337
  8
0
  0
BLOCK
  8
0
  2
*U53
 70
     1
 10
0.0
 20
0.0
 30
0.0
  3
*U53
  1

  0
TEXT
  5
339
  8
図枠
  6
CONTINUOUS
 10
29.681365699573089
 20
-51.521945767399998
 30
0.0
 40
2.3372662499999981
  1
H12.11
  0
ENDBLK
  5
33B
  8
0
  0
BLOCK
  8
0
  2
*U54
 70
     1
 10
0.0
 20
0.0
 30
0.0
  3
*U54
  1

  0
TEXT
  5
33D
  8
図枠
  6
CONTINUOUS
 10
84.296239960359898
 20
-55.660922278782223
 30
0.0
 40
2.3372662499999981
  1
図面名
  0
ENDBLK
  5
33F
  8
0
  0
BLOCK
  8
0
  2
*U55
 70
     1
 10
0.0
 20
0.0
 30
0.0
  3
*U55
  1

  0
TEXT
  5
341
  8
図枠
  6
CONTINUOUS
 10
84.230986334090844
 20
-47.185500870152786
 30
0.0
 40
2.3372662499999981
  1
製品名
  0
ENDBLK
  5
343
  8
0
  0
BLOCK
  8
0
  2
*U56
 70
     1
 10
0.0
 20
0.0
 30
0.0
  3
*U56
  1

  0
TEXT
  5
345
  8
図枠
  6
CONTINUOUS
 10
29.082218767466511
 20
-47.319827950141097
 30
0.0
 40
2.3372662499999981
  1
日 　付
  0
ENDBLK
  5
347
  8
0
  0
BLOCK
  8
0
  2
*U57
 70
     1
 10
0.0
 20
0.0
 30
0.0
  3
*U57
  1

  0
TEXT
  5
349
  8
図枠
  6
CONTINUOUS
 10
84.284375664674613
 20
-64.136343687411681
 30
0.0
 40
2.3372662499999981
  1
図　番
  0
ENDBLK
  5
34B
  8
0
  0
BLOCK
  8
0
  2
*U58
 70
     1
 10
0.0
 20
0.0
 30
0.0
  3
*U58
  1

  0
TEXT
  5
34D
  8
図枠
  6
CONTINUOUS
 10
24.012833624700001
 20
-55.866435132882231
 30
0.0
 40
2.3372662499999981
  1
 設計
  0
ENDBLK
  5
34F
  8
0
  0
BLOCK
  8
0
  2
*U59
 70
     1
 10
0.0
 20
0.0
 30
0.0
  3
*U59
  1

  0
TEXT
  5
351
  8
図枠
  6
CONTINUOUS
 10
39.404187736375128
 20
-55.830842245826389
 30
0.0
 40
2.3372662499999981
  1
園 原
  0
ENDBLK
  5
353
  8
0
  0
BLOCK
  8
0
  2
*D60
 70
     1
 10
0.0
 20
0.0
 30
0.0
  3
*D60
  1

  0
LINE
  5
355
  8
寸法線
 62
     0
 10
-15.436574074099999
 20
-17.56855468749999
 30
0.0
 11
-55.612008102765721
 21
-17.568554687500011
 31
0.0
  0
LINE
  5
356
  8
寸法線
 62
     0
 10
-72.374074074099994
 20
24.368945312499999
 30
0.0
 11
-72.374074074099994
 21
-0.8064887161657453
 31
0.0
  0
ARC
  5
357
  8
寸法線
 62
     0
 10
-72.374074074099994
 20
-17.568554687500001
 30
0.0
 40
18.012065971334241
 50
9.5539644730312432
 51
31.109040119763801
  0
ARC
  5
358
  8
寸法線
 62
     0
 10
-72.374074074099994
 20
-17.568554687500001
 30
0.0
 40
18.012065971334241
 50
60.951178841205142
 51
80.446035526968757
  0
SOLID
  5
359
  8
寸法線
 62
     0
 10
-54.113577434482572
 20
-14.5373367469592
 30
0.0
 11
-55.110103829700279
 21
-14.62061425673444
 31
0.0
 12
-54.362008102765721
 22
-17.56855468749999
 32
0.0
 13
-54.362008102765721
 23
-17.56855468749999
 33
0.0
  0
SOLID
  5
35A
  8
寸法線
 62
     0
 10
-69.426133643334424
 20
-0.3045844431003175
 30
0.0
 11
-69.342856133559181
 21
0.6919419521174035
 31
0.0
 12
-72.374074074099994
 22
0.4435112838342549
 32
0.0
 13
-72.374074074099994
 23
0.4435112838342549
 33
0.0
  0
TEXT
  5
378
  8
寸法線
 62
     0
 10
-65.865899999999996
 20
-9.9127299999999998
 30
0.0
 40
2.9986099999999989
  1
90°
  0
POINT
  5
35C
  8
DEFPOINTS
 62
     0
 10
-72.374074074099994
 20
-17.568554687500001
 30
0.0
  0
POINT
  5
35D
  8
DEFPOINTS
 62
     0
 10
-15.374074074099999
 20
-17.56855468749999
 30
0.0
  0
POINT
  5
35E
  8
DEFPOINTS
 62
     0
 10
-72.374074074099994
 20
24.431445312499999
 30
0.0
  0
POINT
  5
35F
  8
DEFPOINTS
 62
     0
 10
-56.775167368283292
 20
-8.5625217018328712
 30
0.0
  0
ENDBLK
  5
361
  8
0
  0
BLOCK
  8
0
  2
*D61
 70
     1
 10
0.0
 20
0.0
 30
0.0
  3
*D61
  1

  0
LINE
  5
658
  8
0
  6
CONTINUOUS
 62
     0
 10
32.730801140665591
 20
-5.7762747175042808
 30
0.0
 11
32.730801140665591
 21
-13.14056802116982
 31
0.0
  0
LINE
  5
659
  8
0
  6
CONTINUOUS
 62
     0
 10
38.730801140665591
 20
-5.7762747175042808
 30
0.0
 11
38.730801140665591
 21
-13.14056802116982
 31
0.0
  0
LINE
  5
65A
  8
0
  6
CONTINUOUS
 62
     0
 10
32.91080114066559
 20
-12.96056802116982
 30
0.0
 11
35.250801140665601
 21
-12.96056802116982
 31
0.0
  0
LINE
  5
65B
  8
0
  6
CONTINUOUS
 62
     0
 10
38.550801140665591
 20
-12.96056802116982
 30
0.0
 11
36.210801140665588
 21
-12.96056802116982
 31
0.0
  0
SOLID
  5
65C
  8
0
  6
CONTINUOUS
 62
     0
 10
32.91080114066559
 20
-12.930568021169821
 30
0.0
 11
32.91080114066559
 21
-12.990568021169819
 31
0.0
 12
32.730801140665591
 22
-12.96056802116982
 32
0.0
 13
32.730801140665591
 23
-12.96056802116982
 33
0.0
  0
SOLID
  5
65D
  8
0
  6
CONTINUOUS
 62
     0
 10
38.550801140665591
 20
-12.930568021169821
 30
0.0
 11
38.550801140665591
 21
-12.990568021169819
 31
0.0
 12
38.730801140665591
 22
-12.96056802116982
 32
0.0
 13
38.730801140665591
 23
-12.96056802116982
 33
0.0
  0
INSERT
  5
65E
  8
0
  6
CONTINUOUS
  2
*U74
 10
0.0
 20
0.0
 30
0.0
  0
POINT
  5
65F
  8
DEFPOINTS
  6
CONTINUOUS
 62
     0
 10
32.730801140665591
 20
-5.7137747175042808
 30
0.0
  0
POINT
  5
660
  8
DEFPOINTS
  6
CONTINUOUS
 62
     0
 10
38.730801140665591
 20
-5.7137747175042808
 30
0.0
  0
POINT
  5
661
  8
DEFPOINTS
  6
CONTINUOUS
 62
     0
 10
38.730801140665591
 20
-12.96056802116982
 30
0.0
  0
ENDBLK
  5
663
  8
0
  0
BLOCK
  8
0
  2
*U62
 70
     1
 10
0.0
 20
0.0
 30
0.0
  3
*U62
  1

  0
TEXT
  5
666
  8
ﾚｲﾔ_1
  6
CONTINUOUS
 10
114.5259489319
 20
-66.625775672492892
 30
0.0
 40
5.9972220420999989
  1
皿加工部詳細
  0
ENDBLK
  5
667
  8
0
  0
BLOCK
  8
0
  2
*D63
 70
     1
 10
0.0
 20
0.0
 30
0.0
  3
*D63
  1

  0
LINE
  5
66A
  8
0
  6
CONTINUOUS
 62
     4
 10
126.3132160380861
 20
-30.822488686615898
 30
0.0
 11
126.3132160380861
 21
-51.826218802956312
 31
0.0
  0
LINE
  5
66B
  8
0
  6
CONTINUOUS
 62
     4
 10
135.91321603808601
 20
-30.822488686615898
 30
0.0
 11
135.91321603808601
 21
-51.826218802956312
 31
0.0
  0
LINE
  5
66C
  8
0
  6
CONTINUOUS
 62
     4
 10
128.8132160380861
 20
-49.826218802956312
 30
0.0
 11
133.41321603808601
 21
-49.826218802956312
 31
0.0
  0
LINE
  5
66D
  8
0
  6
CONTINUOUS
 62
     4
 10
135.91321603808601
 20
-49.826218802956312
 30
0.0
 11
149.6177614926315
 21
-49.826218802956312
 31
0.0
  0
SOLID
  5
66E
  8
0
  6
CONTINUOUS
 62
     4
 10
128.8132160380861
 20
-49.409552136289641
 30
0.0
 11
128.8132160380861
 21
-50.242885469622969
 31
0.0
 12
126.3132160380861
 22
-49.826218802956312
 32
0.0
 13
126.3132160380861
 23
-49.826218802956312
 33
0.0
  0
SOLID
  5
66F
  8
0
  6
CONTINUOUS
 62
     4
 10
133.41321603808601
 20
-49.409552136289641
 30
0.0
 11
133.41321603808601
 21
-50.242885469622969
 31
0.0
 12
135.91321603808601
 22
-49.826218802956312
 32
0.0
 13
135.91321603808601
 23
-49.826218802956312
 33
0.0
  0
INSERT
  5
670
  8
0
  6
CONTINUOUS
  2
*U75
 10
0.0
 20
0.0
 30
0.0
  0
POINT
  5
671
  8
DEFPOINTS
  6
CONTINUOUS
 62
     0
 10
126.3132160380861
 20
-28.322488686615898
 30
0.0
  0
POINT
  5
672
  8
DEFPOINTS
  6
CONTINUOUS
 62
     0
 10
135.91321603808601
 20
-28.322488686615898
 30
0.0
  0
POINT
  5
673
  8
DEFPOINTS
  6
CONTINUOUS
 62
     0
 10
135.91321603808601
 20
-49.826218802956312
 30
0.0
  0
ENDBLK
  5
674
  8
0
  0
BLOCK
  8
0
  2
*D64
 70
     1
 10
0.0
 20
0.0
 30
0.0
  3
*D64
  1

  0
LINE
  5
677
  8
0
  6
CONTINUOUS
 62
     4
 10
123.11321603808599
 20
-19.422488686615878
 30
0.0
 11
123.11321603808599
 21
-1.992296491435581
 31
0.0
  0
LINE
  5
678
  8
0
  6
CONTINUOUS
 62
     4
 10
139.11321603808611
 20
-19.422488686615878
 30
0.0
 11
139.11321603808611
 21
-1.992296491435581
 31
0.0
  0
LINE
  5
679
  8
0
  6
CONTINUOUS
 62
     4
 10
125.61321603808599
 20
-3.9922964914355812
 30
0.0
 11
136.61321603808611
 21
-3.9922964914355812
 31
0.0
  0
SOLID
  5
67A
  8
0
  6
CONTINUOUS
 62
     4
 10
125.61321603808599
 20
-3.5756298247689151
 30
0.0
 11
125.61321603808599
 21
-4.4089631581022477
 31
0.0
 12
123.11321603808599
 22
-3.9922964914355812
 32
0.0
 13
123.11321603808599
 23
-3.9922964914355812
 33
0.0
  0
SOLID
  5
67B
  8
0
  6
CONTINUOUS
 62
     4
 10
136.61321603808611
 20
-3.5756298247689151
 30
0.0
 11
136.61321603808611
 21
-4.4089631581022477
 31
0.0
 12
139.11321603808611
 22
-3.9922964914355812
 32
0.0
 13
139.11321603808611
 23
-3.9922964914355812
 33
0.0
  0
INSERT
  5
67C
  8
0
  6
CONTINUOUS
  2
*U76
 10
0.0
 20
0.0
 30
0.0
  0
POINT
  5
67D
  8
DEFPOINTS
  6
CONTINUOUS
 62
     0
 10
123.11321603808599
 20
-21.922488686615889
 30
0.0
  0
POINT
  5
67E
  8
DEFPOINTS
  6
CONTINUOUS
 62
     0
 10
139.11321603808611
 20
-21.922488686615889
 30
0.0
  0
POINT
  5
67F
  8
DEFPOINTS
  6
CONTINUOUS
 62
     0
 10
139.11321603808611
 20
-3.9922964914355812
 30
0.0
  0
ENDBLK
  5
680
  8
0
  0
BLOCK
  8
0
  2
*D65
 70
     1
 10
0.0
 20
0.0
 30
0.0
  3
*D65
  1

  0
LINE
  5
683
  8
0
  6
CONTINUOUS
 62
     4
 10
140.88098299105249
 20
-20.154721733649549
 30
0.0
 11
165.29461020109881
 21
4.2589054763957641
 31
0.0
  0
LINE
  5
684
  8
0
  6
CONTINUOUS
 62
     4
 10
121.3454490851197
 20
-20.15472173364952
 30
0.0
 11
96.931821875073709
 21
4.2589054763963503
 31
0.0
  0
ARC
  5
685
  8
0
  6
CONTINUOUS
 62
     4
 10
131.11321603808591
 20
-29.92248868661575
 30
0.0
 40
46.339791206152363
 50
48.091443048884308
 51
131.90855695111469
  0
SOLID
  5
686
  8
0
  6
CONTINUOUS
 62
     4
 10
162.3521611675408
 20
4.8665988000398377
 30
0.0
 11
161.77901490565341
 21
4.2616625993303119
 31
0.0
 12
163.8803966387257
 22
2.8446919140226958
 32
0.0
 13
163.8803966387257
 23
2.8446919140226958
 33
0.0
  0
SOLID
  5
687
  8
0
  6
CONTINUOUS
 62
     4
 10
100.4474171705191
 20
4.2616625993308377
 30
0.0
 11
99.874270908631686
 21
4.8665988000403742
 31
0.0
 12
98.346035437446801
 22
2.8446919140232581
 32
0.0
 13
98.346035437446801
 23
2.8446919140232581
 33
0.0
  0
INSERT
  5
688
  8
0
  6
CONTINUOUS
  2
*U77
 10
0.0
 20
0.0
 30
0.0
  0
POINT
  5
689
  8
DEFPOINTS
  6
CONTINUOUS
 62
     0
 10
143.106836548313
 20
14.838312424249731
 30
0.0
  0
POINT
  5
68A
  8
DEFPOINTS
  6
CONTINUOUS
 62
     0
 10
123.11321603808599
 20
-21.922488686615889
 30
0.0
  0
POINT
  5
68B
  8
DEFPOINTS
  6
CONTINUOUS
 62
     0
 10
135.91321603808601
 20
-25.122488686615899
 30
0.0
  0
POINT
  5
68C
  8
DEFPOINTS
  6
CONTINUOUS
 62
     0
 10
139.11321603808611
 20
-21.922488686615889
 30
0.0
  0
POINT
  5
68D
  8
DEFPOINTS
  6
CONTINUOUS
 62
     0
 10
126.3132160380861
 20
-25.122488686615899
 30
0.0
  0
ENDBLK
  5
68E
  8
0
  0
BLOCK
  8
0
  2
*D67
 70
     1
 10
0.0
 20
0.0
 30
0.0
  3
*D67
  1

  0
LINE
  5
805
  8
0
  6
CONTINUOUS
 62
     4
 10
45.948568093632119
 20
2.3164922354620638
 30
0.0
 11
58.269382167247173
 21
14.637306309076671
 31
0.0
  0
LINE
  5
806
  8
0
  6
CONTINUOUS
 62
     4
 10
26.413034187699299
 20
2.3164922354620932
 30
0.0
 11
14.0922201140843
 21
14.63730630907704
 31
0.0
  0
ARC
  5
807
  8
0
  6
CONTINUOUS
 62
     4
 10
36.180801140665558
 20
-7.45127471750415
 30
0.0
 40
29.23797086136819
 50
49.90058357982732
 51
130.09941642017171
  0
SOLID
  5
808
  8
0
  6
CONTINUOUS
 62
     4
 10
55.295203595088893
 20
15.220621289517711
 30
0.0
 11
54.731678933083501
 21
14.606712175921761
 31
0.0
 12
56.855168604874059
 22
13.2230927467036
 32
0.0
 13
56.855168604874059
 23
13.2230927467036
 33
0.0
  0
SOLID
  5
809
  8
0
  6
CONTINUOUS
 62
     4
 10
17.629923348247971
 20
14.60671217592207
 30
0.0
 11
17.066398686242611
 21
15.22062128951803
 31
0.0
 12
15.5064336764574
 22
13.22309274670395
 32
0.0
 13
15.5064336764574
 23
13.22309274670395
 33
0.0
  0
TEXT
  8
0
  40
5
  5
824
  62
4
  72
0
  71
0
 10
26.9325
 20
16.4281
 30
0.000000
  1
90°
  7
ゴシック
  0
POINT
  5
80B
  8
DEFPOINTS
  6
CONTINUOUS
 62
     0
 10
28.61345744159107
 20
20.79043644577866
 30
0.0
  0
POINT
  5
80C
  8
DEFPOINTS
  6
CONTINUOUS
 62
     0
 10
28.180801140665672
 20
0.5487252824957273
 30
0.0
  0
POINT
  5
80D
  8
DEFPOINTS
  6
CONTINUOUS
 62
     0
 10
40.980801140665591
 20
-2.651274717504283
 30
0.0
  0
POINT
  5
80E
  8
DEFPOINTS
  6
CONTINUOUS
 62
     0
 10
44.180801140665707
 20
0.5487252824957276
 30
0.0
  0
POINT
  5
80F
  8
DEFPOINTS
  6
CONTINUOUS
 62
     0
 10
31.380801140665689
 20
-2.651274717504283
 30
0.0
  0
ENDBLK
  5
6BD
  8
0
  0
BLOCK
  8
0
  2
*D68
 70
     1
 10
0.0
 20
0.0
 30
0.0
  3
*D68
  1

  0
LINE
  5
6E2
  8
0
  6
CONTINUOUS
 62
     4
 10
191.73684155071291
 20
39.060184691687958
 30
0.0
 11
191.73684155071291
 21
56.490376886868262
 31
0.0
  0
LINE
  5
6E3
  8
0
  6
CONTINUOUS
 62
     4
 10
207.736841550713
 20
39.060184691687958
 30
0.0
 11
207.736841550713
 21
56.490376886868262
 31
0.0
  0
LINE
  5
6E4
  8
0
  6
CONTINUOUS
 62
     4
 10
194.23684155071291
 20
54.490376886868262
 30
0.0
 11
205.236841550713
 21
54.490376886868262
 31
0.0
  0
SOLID
  5
6E5
  8
0
  6
CONTINUOUS
 62
     4
 10
194.23684155071291
 20
54.907043553534933
 30
0.0
 11
194.23684155071291
 21
54.073710220201598
 31
0.0
 12
191.73684155071291
 22
54.490376886868262
 32
0.0
 13
191.73684155071291
 23
54.490376886868262
 33
0.0
  0
SOLID
  5
6E6
  8
0
  6
CONTINUOUS
 62
     4
 10
205.236841550713
 20
54.907043553534933
 30
0.0
 11
205.236841550713
 21
54.073710220201598
 31
0.0
 12
207.736841550713
 22
54.490376886868262
 32
0.0
 13
207.736841550713
 23
54.490376886868262
 33
0.0
  0
INSERT
  5
6E7
  8
0
  6
CONTINUOUS
  2
*U78
 10
0.0
 20
0.0
 30
0.0
  0
POINT
  5
6E8
  8
DEFPOINTS
  6
CONTINUOUS
 62
     0
 10
191.73684155071291
 20
36.560184691687958
 30
0.0
  0
POINT
  5
6E9
  8
DEFPOINTS
  6
CONTINUOUS
 62
     0
 10
207.736841550713
 20
36.560184691687958
 30
0.0
  0
POINT
  5
6EA
  8
DEFPOINTS
  6
CONTINUOUS
 62
     0
 10
207.736841550713
 20
54.490376886868262
 30
0.0
  0
ENDBLK
  5
6C9
  8
0
  0
BLOCK
  8
0
  2
*D69
 70
     1
 10
0.0
 20
0.0
 30
0.0
  3
*D69
  1

  0
LINE
  5
6EB
  8
0
  6
CONTINUOUS
 62
     4
 10
194.9368415507129
 20
27.660184691687949
 30
0.0
 11
194.9368415507129
 21
6.6564545753475377
 31
0.0
  0
LINE
  5
6EC
  8
0
  6
CONTINUOUS
 62
     4
 10
204.53684155071289
 20
27.660184691687949
 30
0.0
 11
204.53684155071289
 21
6.6564545753475377
 31
0.0
  0
LINE
  5
6ED
  8
0
  6
CONTINUOUS
 62
     4
 10
197.4368415507129
 20
8.6564545753475386
 30
0.0
 11
202.03684155071289
 21
8.6564545753475386
 31
0.0
  0
LINE
  5
6EE
  8
0
  6
CONTINUOUS
 62
     4
 10
204.53684155071289
 20
8.6564545753475386
 30
0.0
 11
218.2413870052583
 21
8.6564545753475386
 31
0.0
  0
SOLID
  5
6EF
  8
0
  6
CONTINUOUS
 62
     4
 10
197.4368415507129
 20
9.0731212420142047
 30
0.0
 11
197.4368415507129
 21
8.2397879086808725
 31
0.0
 12
194.9368415507129
 22
8.6564545753475386
 32
0.0
 13
194.9368415507129
 23
8.6564545753475386
 33
0.0
  0
SOLID
  5
6F0
  8
0
  6
CONTINUOUS
 62
     4
 10
202.03684155071289
 20
9.0731212420142047
 30
0.0
 11
202.03684155071289
 21
8.2397879086808725
 31
0.0
 12
204.53684155071289
 22
8.6564545753475386
 32
0.0
 13
204.53684155071289
 23
8.6564545753475386
 33
0.0
  0
INSERT
  5
6F1
  8
0
  6
CONTINUOUS
  2
*U79
 10
0.0
 20
0.0
 30
0.0
  0
POINT
  5
6F2
  8
DEFPOINTS
  6
CONTINUOUS
 62
     0
 10
194.9368415507129
 20
30.160184691687949
 30
0.0
  0
POINT
  5
6F3
  8
DEFPOINTS
  6
CONTINUOUS
 62
     0
 10
204.53684155071289
 20
30.160184691687949
 30
0.0
  0
POINT
  5
6F4
  8
DEFPOINTS
  6
CONTINUOUS
 62
     0
 10
204.53684155071289
 20
8.6564545753475386
 30
0.0
  0
ENDBLK
  5
6D6
  8
0
  0
BLOCK
  8
0
  2
*D70
 70
     1
 10
0.0
 20
0.0
 30
0.0
  3
*D70
  1

  0
LINE
  5
7D0
  8
0
  6
CONTINUOUS
 62
     4
 10
32.730801140665591
 20
-8.2137747175042826
 30
0.0
 11
32.730801140665591
 21
-18.087850975856892
 31
0.0
  0
LINE
  5
7D1
  8
0
  6
CONTINUOUS
 62
     4
 10
38.730801140665591
 20
-8.2137747175042826
 30
0.0
 11
38.730801140665591
 21
-18.087850975856892
 31
0.0
  0
LINE
  5
7D2
  8
0
  6
CONTINUOUS
 62
     4
 10
30.230801140665591
 20
-16.087850975856892
 30
0.0
 11
27.730801140665591
 21
-16.087850975856892
 31
0.0
  0
LINE
  5
7D3
  8
0
  6
CONTINUOUS
 62
     4
 10
41.230801140665591
 20
-16.087850975856892
 30
0.0
 11
54.76489204975649
 21
-16.087850975856892
 31
0.0
  0
LINE
  5
7D4
  8
0
  6
CONTINUOUS
 62
     4
 10
32.730801140665591
 20
-16.087850975856892
 30
0.0
 11
38.730801140665591
 21
-16.087850975856892
 31
0.0
  0
SOLID
  5
7D5
  8
0
  6
CONTINUOUS
 62
     4
 10
30.230801140665591
 20
-15.671184309190229
 30
0.0
 11
30.230801140665591
 21
-16.50451764252356
 31
0.0
 12
32.730801140665591
 22
-16.087850975856892
 32
0.0
 13
32.730801140665591
 23
-16.087850975856892
 33
0.0
  0
SOLID
  5
7D6
  8
0
  6
CONTINUOUS
 62
     4
 10
41.230801140665591
 20
-15.671184309190229
 30
0.0
 11
41.230801140665591
 21
-16.50451764252356
 31
0.0
 12
38.730801140665591
 22
-16.087850975856892
 32
0.0
 13
38.730801140665591
 23
-16.087850975856892
 33
0.0
  0
INSERT
  5
7D7
  8
0
  6
CONTINUOUS
  2
*U82
 10
0.0
 20
0.0
 30
0.0
  0
POINT
  5
7D8
  8
DEFPOINTS
  6
CONTINUOUS
 62
     0
 10
32.730801140665591
 20
-5.7137747175042808
 30
0.0
  0
POINT
  5
7D9
  8
DEFPOINTS
  6
CONTINUOUS
 62
     0
 10
38.730801140665591
 20
-5.7137747175042808
 30
0.0
  0
POINT
  5
7DA
  8
DEFPOINTS
  6
CONTINUOUS
 62
     0
 10
38.730801140665591
 20
-16.087850975856892
 30
0.0
  0
ENDBLK
  5
703
  8
0
  0
BLOCK
  8
0
  2
*D71
 70
     1
 10
0.0
 20
0.0
 30
0.0
  3
*D71
  1

  0
LINE
  5
7C7
  8
0
  6
CONTINUOUS
 62
     4
 10
30.480801140665591
 20
-0.088774717504283
 30
0.0
 11
30.480801140665591
 21
12.649245409189691
 31
0.0
  0
LINE
  5
7C8
  8
0
  6
CONTINUOUS
 62
     4
 10
40.980801140665591
 20
-0.088774717504283
 30
0.0
 11
40.980801140665591
 21
12.649245409189691
 31
0.0
  0
LINE
  5
7C9
  8
0
  6
CONTINUOUS
 62
     4
 10
32.980801140665591
 20
10.649245409189691
 30
0.0
 11
38.480801140665591
 21
10.649245409189691
 31
0.0
  0
SOLID
  5
7CA
  8
0
  6
CONTINUOUS
 62
     4
 10
32.980801140665591
 20
11.06591207585635
 30
0.0
 11
32.980801140665591
 21
10.232578742523019
 31
0.0
 12
30.480801140665591
 22
10.649245409189691
 32
0.0
 13
30.480801140665591
 23
10.649245409189691
 33
0.0
  0
SOLID
  5
7CB
  8
0
  6
CONTINUOUS
 62
     4
 10
38.480801140665591
 20
11.06591207585635
 30
0.0
 11
38.480801140665591
 21
10.232578742523019
 31
0.0
 12
40.980801140665591
 22
10.649245409189691
 32
0.0
 13
40.980801140665591
 23
10.649245409189691
 33
0.0
  0
INSERT
  5
7CC
  8
0
  6
CONTINUOUS
  2
*U81
 10
0.0
 20
0.0
 30
0.0
  0
POINT
  5
7CD
  8
DEFPOINTS
  6
CONTINUOUS
 62
     0
 10
30.480801140665591
 20
-2.588774717504283
 30
0.0
  0
POINT
  5
7CE
  8
DEFPOINTS
  6
CONTINUOUS
 62
     0
 10
40.980801140665591
 20
-2.588774717504283
 30
0.0
  0
POINT
  5
7CF
  8
DEFPOINTS
  6
CONTINUOUS
 62
     0
 10
40.980801140665591
 20
10.649245409189691
 30
0.0
  0
ENDBLK
  5
711
  8
0
  0
BLOCK
  8
0
  2
*D72
 70
     1
 10
0.0
 20
0.0
 30
0.0
  3
*D72
  1

  0
LINE
  5
74E
  8
寸法線
 62
     0
 10
41.555325400389762
 20
-2.0767504577801228
 30
0.0
 11
55.627972279107873
 21
11.99589642093796
 31
0.0
  0
LINE
  5
74F
  8
寸法線
 62
     0
 10
29.906276880941409
 20
-2.0767504577801228
 30
0.0
 11
15.833630002223289
 21
11.99589642093795
 31
0.0
  0
ARC
  5
750
  8
寸法線
 62
     0
 10
35.730801140665591
 20
-7.9012747175042808
 30
0.0
 40
27.958849276843569
 50
45.368872768024133
 51
89.256086968236346
  0
ARC
  5
751
  8
寸法線
 62
     0
 10
35.730801140665591
 20
-7.9012747175042808
 30
0.0
 40
27.958849276843569
 50
90.743913031763711
 51
134.63112723197591
  0
SOLID
  5
752
  8
寸法線
 62
     0
 10
55.394149591271059
 20
12.016767426757051
 30
0.0
 11
55.35185997552118
 21
11.974204668390991
 31
0.0
 12
55.500693058494292
 22
11.86861720032438
 32
0.0
 13
55.500693058494292
 23
11.86861720032438
 33
0.0
  0
SOLID
  5
753
  8
寸法線
 62
     0
 10
16.109742305809991
 20
11.97420466839098
 30
0.0
 11
16.067452690060112
 21
12.01676742675704
 31
0.0
 12
15.96090922283687
 22
11.868617200324371
 32
0.0
 13
15.96090922283687
 23
11.868617200324371
 33
0.0
  0
INSERT
  5
754
  8
0
  6
CONTINUOUS
  2
*U80
 10
0.0
 20
0.0
 30
0.0
  0
POINT
  5
755
  8
DEFPOINTS
 62
     0
 10
35.730801140665591
 20
-7.9012747175042808
 30
0.0
  0
POINT
  5
756
  8
DEFPOINTS
 62
     0
 10
41.511131226565603
 20
-2.1209446316042819
 30
0.0
  0
POINT
  5
757
  8
DEFPOINTS
 62
     0
 10
29.950471054765568
 20
-2.1209446316042819
 30
0.0
  0
POINT
  5
758
  8
DEFPOINTS
 62
     0
 10
42.967083812663553
 20
19.104899872322349
 30
0.0
  0
ENDBLK
  5
72C
  8
0
  0
BLOCK
  8
0
  2
*D73
 70
     1
 10
0.0
 20
0.0
 30
0.0
  3
*D73
  1

  0
LINE
  5
7E0
  8
寸法線
 62
     0
 10
-15.436574074099999
 20
-17.568554687500001
 30
0.0
 11
-54.542008102765742
 21
-17.568554687500011
 31
0.0
  0
LINE
  5
7E1
  8
寸法線
 62
     0
 10
-72.374074074099994
 20
24.368945312499999
 30
0.0
 11
-72.374074074099994
 21
0.263511283834255
 31
0.0
  0
ARC
  5
7E2
  8
寸法線
 62
     0
 10
-72.374074074099994
 20
-17.568554687500001
 30
0.0
 40
18.012065971334259
 50
0.5725763631741085
 51
45.211442911054327
  0
ARC
  5
7E3
  8
寸法線
 62
     0
 10
-72.374074074099994
 20
-17.568554687500001
 30
0.0
 40
18.012065971334259
 50
46.861086641980968
 51
89.427423636825878
  0
SOLID
  5
7E4
  8
寸法線
 62
     0
 10
-54.332907874371401
 20
-17.388407034982968
 30
0.0
 11
-54.39290712537121
 21
-17.388706834018159
 31
0.0
 12
-54.362008102765728
 22
-17.568554687500001
 32
0.0
 13
-54.362008102765728
 23
-17.568554687500001
 33
0.0
  0
SOLID
  5
7E5
  8
寸法線
 62
     0
 10
-72.194226220618162
 20
0.4126122612287802
 30
0.0
 11
-72.193926421582972
 21
0.4726115122285961
 31
0.0
 12
-72.374074074099994
 22
0.4435112838342619
 32
0.0
 13
-72.374074074099994
 23
0.4435112838342619
 33
0.0
  0
TEXT
  8
寸法線
  40
0.18
  5
825
  62
0
  72
0
  71
0
 10
-60.2287
 20
-4.92379
 30
0.000000
  1
90°
  0
POINT
  5
7E7
  8
DEFPOINTS
 62
     0
 10
-72.374074074099994
 20
-17.568554687500001
 30
0.0
  0
POINT
  5
7E8
  8
DEFPOINTS
 62
     0
 10
-15.374074074099999
 20
-17.568554687500001
 30
0.0
  0
POINT
  5
7E9
  8
DEFPOINTS
 62
     0
 10
-72.374074074099994
 20
24.431445312499999
 30
0.0
  0
POINT
  5
7EA
  8
DEFPOINTS
 62
     0
 10
-56.775167368283299
 20
-8.5625217018328712
 30
0.0
  0
ENDBLK
  5
7EC
  8
0
  0
BLOCK
  8
0
  2
*U74
 70
     1
 10
0.0
 20
0.0
 30
0.0
  3
*U74
  1

  0
TEXT
  5
7F6
  8
0
  6
CONTINUOUS
 62
     0
 10
35.34080114066559
 20
-13.05056802116982
 30
0.0
 40
0.18
  1
6.0000
  0
ENDBLK
  5
7F8
  8
0
  0
BLOCK
  8
0
  2
*U75
 70
     1
 10
0.0
 20
0.0
 30
0.0
  3
*U75
  1

  0
TEXT
  5
7FA
  8
0
  6
CONTINUOUS
 62
     4
 10
139.41321603808601
 20
-47.618832439319938
 30
0.0
 40
5.0
  1
φ4
  7
ゴシック
  0
ENDBLK
  5
7FC
  8
0
  0
BLOCK
  8
0
  2
*U76
 70
     1
 10
0.0
 20
0.0
 30
0.0
  3
*U76
  1

  0
TEXT
  5
7FE
  8
0
  6
CONTINUOUS
 62
     4
 10
126.5677614926315
 20
-1.784910127799217
 30
0.0
 40
5.0
  1
φ8
  7
ゴシック
  0
ENDBLK
  5
800
  8
0
  0
BLOCK
  8
0
  2
*U77
 70
     1
 10
0.0
 20
0.0
 30
0.0
  3
*U77
  1

  0
TEXT
  5
802
  8
0
  6
CONTINUOUS
 62
     4
 10
123.6416251289954
 20
17.41730251953663
 30
0.0
 40
5.0
  1
90°
  7
ゴシック
  0
ENDBLK
  5
804
  8
0
  0
BLOCK
  8
0
  2
*U78
 70
     1
 10
0.0
 20
0.0
 30
0.0
  3
*U78
  1

  0
TEXT
  5
811
  8
0
  6
CONTINUOUS
 62
     4
 10
195.19138700525841
 20
56.697763250504622
 30
0.0
 40
5.0
  1
φ8
  7
ゴシック
  0
ENDBLK
  5
813
  8
0
  0
BLOCK
  8
0
  2
*U79
 70
     1
 10
0.0
 20
0.0
 30
0.0
  3
*U79
  1

  0
TEXT
  5
815
  8
0
  6
CONTINUOUS
 62
     4
 10
208.03684155071289
 20
10.8638409389839
 30
0.0
 40
5.0
  1
φ4
  7
ゴシック
  0
ENDBLK
  5
817
  8
0
  0
BLOCK
  8
0
  2
*U80
 70
     1
 10
0.0
 20
0.0
 30
0.0
  3
*U80
  1

  0
TEXT
  5
819
  8
寸法線
  6
CONTINUOUS
 62
     0
 10
35.45780114066558
 20
19.96757455933928
 30
0.0
 40
0.18
  1
90°
  0
ENDBLK
  5
81B
  8
0
  0
BLOCK
  8
0
  2
*U81
 70
     1
 10
0.0
 20
0.0
 30
0.0
  3
*U81
  1

  0
TEXT
  5
81D
  8
0
  6
CONTINUOUS
 62
     4
 10
26.824551140665591
 20
12.85663177282605
 30
0.0
 40
5.0
  1
φ10.5
  7
ゴシック
  0
ENDBLK
  5
81F
  8
0
  0
BLOCK
  8
0
  2
*U82
 70
     1
 10
0.0
 20
0.0
 30
0.0
  3
*U82
  1

  0
TEXT
  5
821
  8
0
  6
CONTINUOUS
 62
     4
 10
44.730801140665591
 20
-13.88046461222053
 30
0.0
 40
5.0
  1
φ6
  7
ゴシック
  0
ENDBLK
  5
823
  8
0
  0
ENDSEC
  0
SECTION
  2
ENTITIES
  0
LINE
  5
2F
  8
図枠
 62
     5
 10
46.010633624699999
 20
115.2544083367
 30
0.0
 11
140.00123362470001
 21
115.2544083367
 31
0.0
  0
LINE
  5
30
  8
図枠
 62
     5
 10
120.0032336247
 20
105.2554083367
 30
0.0
 11
120.0032336247
 21
120.25390833669999
 31
0.0
  0
LINE
  5
31
  8
図枠
 62
     5
 10
47.2512241672
 20
105.7361520085
 30
0.0
 11
52.200729167200002
 21
105.7361520085
 31
0.0
  0
LINE
  5
32
  8
図枠
 62
     5
 10
46.010633624699999
 20
110.2549083367
 30
0.0
 11
140.00123362470001
 21
110.2549083367
 31
0.0
  0
INSERT
  5
33
  8
0
  6
CONTINUOUS
  2
*U26
 10
0.0
 20
0.0
 30
0.0
  0
LINE
  5
34
  8
図枠
 62
     5
 10
49.725976667200001
 20
114.9720540746
 30
0.0
 11
47.2512241672
 21
110.6856570085
 31
0.0
  0
LINE
  5
35
  8
図枠
 62
     5
 10
46.010633624699999
 20
105.2554083367
 30
0.0
 11
46.010633624699999
 21
120.25390833669999
 31
0.0
  0
LINE
  5
37
  8
ﾚｲﾔ_1
 62
     5
 10
93.831481481499992
 20
82.439648437499969
 30
0.0
 11
51.831481481499992
 21
82.439648437499969
 31
0.0
  0
ARC
  5
38
  8
ﾚｲﾔ_1
 62
     5
 10
51.831481481499992
 20
79.439648437499983
 30
0.0
 40
3.0
 50
90.0
 51
180.0
  0
LINE
  5
39
  8
ﾚｲﾔ_1
  6
BORDER
 62
     3
 10
56.831481481499992
 20
62.43964843749999
 30
0.0
 11
70.831481481499992
 21
62.43964843749999
 31
0.0
  0
LINE
  5
3A
  8
ﾚｲﾔ_1
  6
BORDER
 62
     3
 10
63.831481481499999
 20
69.439648437499983
 30
0.0
 11
63.831481481499999
 21
55.439648437499997
 31
0.0
  0
CIRCLE
  5
3B
  8
ﾚｲﾔ_1
 62
     5
 10
63.831481481499999
 20
62.43964843749999
 30
0.0
 40
5.25
  0
CIRCLE
  5
3C
  8
ﾚｲﾔ_1
 62
     5
 10
63.831481481499999
 20
62.43964843749999
 30
0.0
 40
3.0
  0
LINE
  5
3D
  8
ﾚｲﾔ_1
  6
STITCH
 10
90.831481481500006
 20
65.439648437499997
 30
0.0
 11
93.831481481499992
 21
65.439648437499997
 31
0.0
  0
LINE
  5
3E
  8
ﾚｲﾔ_1
  6
STITCH
 10
90.831481481500006
 20
59.43964843749999
 30
0.0
 11
93.831481481499992
 21
59.43964843749999
 31
0.0
  0
LINE
  5
3F
  8
ﾚｲﾔ_1
  6
BORDER
 62
     3
 10
85.755555555599983
 20
62.43964843749999
 30
0.0
 11
99.161111111100013
 21
62.43964843749999
 31
0.0
  0
DIMENSION
  5
50
  8
寸法線
  2
*D2
 10
37.885893229200001
 20
82.439648437499969
 30
0.0
 11
37.885893229200001
 21
72.439648437499983
 31
0.0
 70
   128
  1
<>
 13
51.831481481499992
 23
82.439648437499969
 33
0.0
 14
56.831481481499992
 24
62.43964843749999
 34
0.0
 50
90.0
  0
DIMENSION
  5
5F
  8
寸法線
  2
*D3
 10
93.831481481499992
 20
92.439648437499969
 30
0.0
 11
78.831481481499992
 21
92.439648437499969
 31
0.0
 70
   128
  1
<>
 13
93.831481481499992
 23
82.439648437499969
 33
0.0
 14
63.831481481499999
 24
69.439648437499983
 34
0.0
  0
DIMENSION
  5
6E
  8
寸法線
  2
*D4
 10
63.831481481499999
 20
92.439648437499969
 30
0.0
 11
56.331481481499999
 21
92.439648437499969
 31
0.0
 70
   128
  1
<>
 13
63.831481481499999
 23
69.439648437499983
 33
0.0
 14
48.831481481499999
 24
79.439648437499983
 34
0.0
  0
DIMENSION
  5
7D
  8
寸法線
  2
*D5
 10
37.885893229200001
 20
62.43964843749999
 30
0.0
 11
37.885893229200001
 21
52.43964843749999
 31
0.0
 70
   128
  1
<>
 13
56.831481481499992
 23
62.43964843749999
 33
0.0
 14
51.831481481499992
 24
42.439648437499983
 34
0.0
 50
90.0
  0
INSERT
  5
7E
  8
0
  6
CONTINUOUS
  2
*U27
 10
0.0
 20
0.0
 30
0.0
  0
INSERT
  5
7F
  8
0
  6
CONTINUOUS
  2
*U28
 10
0.0
 20
0.0
 30
0.0
  0
LINE
  5
80
  8
図枠
 62
     5
 10
130.00223362470001
 20
105.2554083367
 30
0.0
 11
130.00223362470001
 21
120.25390833669999
 31
0.0
  0
INSERT
  5
81
  8
0
  6
CONTINUOUS
  2
*U29
 10
0.0
 20
0.0
 30
0.0
  0
INSERT
  5
82
  8
0
  6
CONTINUOUS
  2
*U30
 10
0.0
 20
0.0
 30
0.0
  0
LINE
  5
83
  8
図枠
 62
     5
 10
54.009833624700001
 20
105.2554083367
 30
0.0
 11
54.009833624700001
 21
120.25390833669999
 31
0.0
  0
LINE
  5
84
  8
図枠
 62
     5
 10
49.725976667200001
 20
114.9720540746
 30
0.0
 11
52.200729167200002
 21
110.6856570085
 31
0.0
  0
LINE
  5
85
  8
図枠
 62
     5
 10
70.008233624699997
 20
105.2554083367
 30
0.0
 11
70.008233624699997
 21
120.25390833669999
 31
0.0
  0
LINE
  5
86
  8
図枠
 62
     5
 10
46.010633624699999
 20
105.2554083367
 30
0.0
 11
140.00123362470001
 21
105.2554083367
 31
0.0
  0
LINE
  5
87
  8
図枠
 62
     5
 10
49.725976667200001
 20
110.02254907459999
 30
0.0
 11
47.2512241672
 21
105.7361520085
 31
0.0
  0
LINE
  5
88
  8
図枠
 62
     5
 10
49.725976667200001
 20
110.02254907459999
 30
0.0
 11
52.200729167200002
 21
105.7361520085
 31
0.0
  0
LINE
  5
89
  8
図枠
 62
     5
 10
47.2512241672
 20
110.6856570085
 30
0.0
 11
52.200729167200002
 21
110.6856570085
 31
0.0
  0
CIRCLE
  5
8A
  8
図枠
 10
70.072227224700001
 20
-48.479216663300001
 30
0.0
 40
1.151884799999999
  0
INSERT
  5
8B
  8
0
  6
CONTINUOUS
  2
*U31
 10
0.0
 20
0.0
 30
0.0
  0
ARC
  5
8C
  8
図枠
 10
58.406595270600008
 20
-65.799346103700003
 30
0.0
 40
2.3997599999999979
 50
270.0
 51
0.0
  0
LINE
  5
8D
  8
図枠
 10
24.012833624700001
 20
-44.229641663299986
 30
0.0
 11
24.012833624700001
 21
-69.727091663300001
 31
0.0
  0
LINE
  5
8E
  8
図枠
 10
75.338181387899979
 20
-47.327331863299989
 30
0.0
 11
79.945720587899999
 21
-46.175447063299998
 31
0.0
  0
LINE
  5
8F
  8
図枠
 10
44.010833624699998
 20
-44.229641663299986
 30
0.0
 11
44.010833624699998
 21
-52.728791663300001
 31
0.0
  0
LINE
  5
90
  8
図枠
 10
60.806355270600001
 20
-65.799346103700003
 30
0.0
 11
60.806355270600001
 21
-65.399386103699996
 31
0.0
  0
LINE
  5
91
  8
図枠
 10
57.206715270600007
 20
-64.199506103700003
 30
0.0
 11
57.206715270600007
 21
-63.799546103699988
 31
0.0
  0
ARC
  5
92
  8
図枠
 10
65.094411270600006
 20
-63.959530103699997
 30
0.0
 40
3.039695999999998
 50
331.39928138329998
 51
358.49204224580001
  0
INSERT
  5
93
  8
0
  6
CONTINUOUS
  2
*U32
 10
0.0
 20
0.0
 30
0.0
  0
INSERT
  5
94
  8
0
  6
CONTINUOUS
  2
*U33
 10
0.0
 20
0.0
 30
0.0
  0
LINE
  5
95
  8
図枠
 10
81.007133624700003
 20
-33.230741663300002
 30
0.0
 11
81.007133624700003
 21
-27.731291663299999
 31
0.0
  0
LINE
  5
96
  8
図枠
 10
75.338181387899979
 20
-47.327331863299989
 30
0.0
 11
79.945720587899999
 21
-46.175447063299998
 31
0.0
  0
LINE
  5
97
  8
図枠
 10
75.338181387899979
 20
-47.327331863299989
 30
0.0
 11
75.338181387899979
 21
-49.631101463299998
 31
0.0
  0
LINE
  5
98
  8
図枠
 10
71.333787270599998
 20
-62.599666103700002
 30
0.0
 11
64.134507270600011
 21
-62.599666103700002
 31
0.0
  0
LINE
  5
99
  8
図枠
 10
24.012833624700001
 20
-52.728791663300001
 30
0.0
 11
140.00123362470001
 21
-52.728791663300001
 31
0.0
  0
LINE
  5
9A
  8
図枠
 10
24.012833624700001
 20
-61.227941663300001
 30
0.0
 11
140.00123362470001
 21
-61.227941663300001
 31
0.0
  0
CIRCLE
  5
9B
  8
図枠
 10
70.072227224700001
 20
-48.479216663300001
 30
0.0
 40
2.3037695999999981
  0
INSERT
  5
9C
  8
0
  6
CONTINUOUS
  2
*U34
 10
0.0
 20
0.0
 30
0.0
  0
INSERT
  5
9D
  8
0
  6
CONTINUOUS
  2
*U35
 10
0.0
 20
0.0
 30
0.0
  0
LINE
  5
9E
  8
ﾚｲﾔ_1
 62
     5
 10
93.831481481499992
 20
42.439648437499983
 30
0.0
 11
93.831481481499992
 21
82.439648437499969
 31
0.0
  0
LINE
  5
9F
  8
ﾚｲﾔ_1
 62
     5
 10
90.831481481500006
 20
42.439648437499983
 30
0.0
 11
90.831481481500006
 21
82.439648437499969
 31
0.0
  0
LINE
  5
A0
  8
ﾚｲﾔ_1
 62
     5
 10
51.831481481499992
 20
42.439648437499983
 30
0.0
 11
93.831481481499992
 21
42.439648437499983
 31
0.0
  0
ARC
  5
A1
  8
ﾚｲﾔ_1
 62
     5
 10
51.831481481499992
 20
45.43964843749999
 30
0.0
 40
3.0
 50
180.0
 51
270.0
  0
LINE
  5
A2
  8
ﾚｲﾔ_1
 62
     5
 10
48.831481481499999
 20
79.439648437499983
 30
0.0
 11
48.831481481499999
 21
45.43964843749999
 31
0.0
  0
INSERT
  5
A3
  8
0
  6
CONTINUOUS
  2
*U36
 10
0.0
 20
0.0
 30
0.0
  0
CIRCLE
  5
A4
  8
図枠
 10
70.072227224700001
 20
-48.479216663300001
 30
0.0
 40
2.3037695999999981
  0
CIRCLE
  5
A5
  8
図枠
 10
70.072227224700001
 20
-48.479216663300001
 30
0.0
 40
1.151884799999999
  0
INSERT
  5
A6
  8
0
  6
CONTINUOUS
  2
*U37
 10
0.0
 20
0.0
 30
0.0
  0
INSERT
  5
A7
  8
0
  6
CONTINUOUS
  2
*U38
 10
0.0
 20
0.0
 30
0.0
  0
LINE
  5
A8
  8
図枠
 10
54.286124309599998
 20
-64.199506103700003
 30
0.0
 11
54.286124309599998
 21
-65.399386103699996
 31
0.0
  0
INSERT
  5
A9
  8
0
  6
CONTINUOUS
  2
*U39
 10
0.0
 20
0.0
 30
0.0
  0
LINE
  5
AA
  8
図枠
 10
64.134507270600011
 20
-64.039522103699994
 30
0.0
 11
68.134107270599969
 21
-64.039522103699994
 31
0.0
  0
LINE
  5
AB
  8
図枠
 10
76.467259990599999
 20
-68.599066103699997
 30
0.0
 11
76.138759510600011
 21
-67.479178103699994
 31
0.0
  0
LINE
  5
AC
  8
図枠
 10
75.338181387899979
 20
-49.631101463299998
 30
0.0
 11
79.945720587899999
 21
-50.782986263299989
 31
0.0
  0
LINE
  5
AD
  8
図枠
 10
78.384771682099981
 20
-67.479178103699994
 30
0.0
 11
80.306875990600005
 21
-67.479178103699994
 31
0.0
  0
LINE
  5
AE
  8
図枠
 10
58.406595270600008
 20
-62.599666103700002
 30
0.0
 11
55.206915270600007
 21
-62.599666103700002
 31
0.0
  0
LINE
  5
AF
  8
図枠
 10
77.254837309600006
 20
-63.552587689600003
 30
0.0
 11
77.907115990600005
 21
-62.599666103700002
 31
0.0
  0
LINE
  5
B0
  8
図枠
 10
64.134507270600011
 20
-64.714830993999996
 30
0.0
 11
64.134507270600011
 21
-64.457168548799999
 31
0.0
  0
LINE
  5
B1
  8
図枠
  6
BORDER
 10
70.072227224700001
 20
-45.023562263299979
 30
0.0
 11
70.072227224700001
 21
-51.934871063300001
 31
0.0
  0
LINE
  5
B2
  8
図枠
 10
75.338181387899979
 20
-49.631101463299998
 30
0.0
 11
79.945720587899999
 21
-50.782986263299989
 31
0.0
  0
LINE
  5
B3
  8
図枠
 10
77.970431856899992
 20
-66.039322103700002
 30
0.0
 11
77.786280823499979
 21
-65.399386103699996
 31
0.0
  0
INSERT
  5
B4
  8
0
  6
CONTINUOUS
  2
*U40
 10
0.0
 20
0.0
 30
0.0
  0
LINE
  5
B5
  8
図枠
 10
55.206915270600007
 20
-64.199506103700003
 30
0.0
 11
54.286124309599998
 21
-64.199506103700003
 31
0.0
  0
LINE
  5
B6
  8
図枠
 10
56.009633624700001
 20
-56.978366663300001
 30
0.0
 11
82.007033624699986
 21
-56.978366663300001
 31
0.0
  0
LINE
  5
B7
  8
図枠
 10
57.206715270600007
 20
-66.599266103700003
 30
0.0
 11
57.206715270600007
 21
-65.399386103699996
 31
0.0
  0
LINE
  5
B8
  8
図枠
 10
73.107595990600004
 20
-66.039322103700002
 30
0.0
 11
75.716401750599999
 21
-66.039322103700002
 31
0.0
  0
LINE
  5
B9
  8
図枠
 10
79.945720587899999
 20
-46.175447063299998
 30
0.0
 11
79.945720587899999
 21
-50.782986263299989
 31
0.0
  0
INSERT
  5
BA
  8
0
  6
CONTINUOUS
  2
*U41
 10
0.0
 20
0.0
 30
0.0
  0
INSERT
  5
BB
  8
0
  6
CONTINUOUS
  2
*U42
 10
0.0
 20
0.0
 30
0.0
  0
INSERT
  5
BC
  8
0
  6
CONTINUOUS
  2
*U43
 10
0.0
 20
0.0
 30
0.0
  0
LINE
  5
BD
  8
図枠
 10
64.008833624700003
 20
-44.229641663299986
 30
0.0
 11
64.008833624700003
 21
-52.728791663300001
 31
0.0
  0
LINE
  5
BE
  8
図枠
 10
24.012833624700001
 20
-38.730191663299998
 30
0.0
 11
140.00123362470001
 21
-38.730191663299998
 31
0.0
  0
LINE
  5
BF
  8
図枠
 10
62.006235270600001
 20
-62.599666103700002
 30
0.0
 11
58.806555270600001
 21
-62.599666103700002
 31
0.0
  0
INSERT
  5
C0
  8
0
  6
CONTINUOUS
  2
*U44
 10
0.0
 20
0.0
 30
0.0
  0
LINE
  5
C1
  8
図枠
 10
58.806555270600001
 20
-64.199506103700003
 30
0.0
 11
57.206715270600007
 21
-64.199506103700003
 31
0.0
  0
LINE
  5
C2
  8
図枠
 10
24.012833624700001
 20
-44.229641663299986
 30
0.0
 11
140.00123362470001
 21
-44.229641663299986
 31
0.0
  0
LINE
  5
C3
  8
図枠
 10
75.338181387899979
 20
-47.327331863299989
 30
0.0
 11
75.338181387899979
 21
-49.631101463299998
 31
0.0
  0
INSERT
  5
C4
  8
0
  6
CONTINUOUS
  2
*U45
 10
0.0
 20
0.0
 30
0.0
  0
LINE
  5
C5
  8
図枠
 10
73.107595990600004
 20
-66.039322103700002
 30
0.0
 11
73.107595990600004
 21
-67.479178103699994
 31
0.0
  0
LINE
  5
C6
  8
図枠
 10
75.338181387899979
 20
-47.327331863299989
 30
0.0
 11
75.338181387899979
 21
-49.631101463299998
 31
0.0
  0
LINE
  5
C7
  8
図枠
 10
55.206915270600007
 20
-66.999226103699996
 30
0.0
 11
55.206915270600007
 21
-68.199106103700004
 31
0.0
  0
INSERT
  5
C8
  8
0
  6
CONTINUOUS
  2
*U46
 10
0.0
 20
0.0
 30
0.0
  0
LINE
  5
C9
  8
図枠
 10
69.62413373470001
 20
-66.478583140300003
 30
0.0
 11
69.481666335
 21
-66.618071705399998
 31
0.0
  0
LINE
  5
CA
  8
図枠
 10
67.763194358900009
 20
-65.414641302099994
 30
0.0
 11
67.570736961499989
 21
-65.6272107315
 31
0.0
  0
INSERT
  5
CB
  8
0
  6
CONTINUOUS
  2
*U47
 10
0.0
 20
0.0
 30
0.0
  0
LINE
  5
CC
  8
図枠
 10
79.945720587899999
 20
-46.175447063299998
 30
0.0
 11
79.945720587899999
 21
-50.782986263299989
 31
0.0
  0
LINE
  5
CD
  8
図枠
 10
77.371940998300005
 20
-63.959530103699997
 30
0.0
 11
77.254837309600006
 21
-63.552587689600003
 31
0.0
  0
LINE
  5
CE
  8
図枠
 10
74.707435990600004
 20
-62.599666103700002
 30
0.0
 11
77.907115990600005
 21
-62.599666103700002
 31
0.0
  0
LINE
  5
CF
  8
図枠
 10
76.467259990599999
 20
-68.599066103699997
 30
0.0
 11
78.707035990600005
 21
-68.599066103699997
 31
0.0
  0
LINE
  5
D0
  8
図枠
 10
55.206915270600007
 20
-68.199106103700004
 30
0.0
 11
58.406595270600008
 21
-68.199106103700004
 31
0.0
  0
LINE
  5
D1
  8
図枠
 10
64.134507270600011
 20
-66.999226103699996
 30
0.0
 11
65.094411270600006
 21
-66.999226103699996
 31
0.0
  0
LINE
  5
D2
  8
図枠
 10
44.010833624699998
 20
-44.229641663299986
 30
0.0
 11
44.010833624699998
 21
-27.731291663299999
 31
0.0
  0
LINE
  5
D3
  8
図枠
 10
55.206915270600007
 20
-66.599266103700003
 30
0.0
 11
57.206715270600007
 21
-66.599266103700003
 31
0.0
  0
LINE
  5
D4
  8
図枠
 10
24.012833624700001
 20
-27.731291663299999
 30
0.0
 11
24.012833624700001
 21
-44.229641663299986
 31
0.0
  0
LINE
  5
D5
  8
図枠
 10
58.806555270600001
 20
-65.399386103699996
 30
0.0
 11
58.806555270600001
 21
-65.799346103700003
 31
0.0
  0
CIRCLE
  5
D6
  8
図枠
 10
70.072227224700001
 20
-48.479216663300001
 30
0.0
 40
1.151884799999999
  0
LINE
  5
D7
  8
図枠
 10
62.006235270600001
 20
-64.199506103700003
 30
0.0
 11
60.806355270600001
 21
-64.199506103700003
 31
0.0
  0
LINE
  5
D8
  8
図枠
 10
62.006235270600001
 20
-64.199506103700003
 30
0.0
 11
62.006235270600001
 21
-65.399386103699996
 31
0.0
  0
INSERT
  5
D9
  8
0
  6
CONTINUOUS
  2
*U48
 10
0.0
 20
0.0
 30
0.0
  0
LINE
  5
DA
  8
図枠
 10
80.306875990600005
 20
-66.039322103700002
 30
0.0
 11
80.306875990600005
 21
-67.479178103699994
 31
0.0
  0
LINE
  5
DB
  8
図枠
 10
78.707035990600005
 20
-68.599066103699997
 30
0.0
 11
78.384771682099981
 21
-67.479178103699994
 31
0.0
  0
LINE
  5
DC
  8
図枠
 10
77.786280823499979
 20
-65.399386103699996
 30
0.0
 11
80.306875990600005
 21
-65.399386103699996
 31
0.0
  0
LINE
  5
DD
  8
図枠
 10
64.134507270600011
 20
-64.457168548799999
 30
0.0
 11
67.334187270599998
 21
-64.457168548799999
 31
0.0
  0
INSERT
  5
DE
  8
0
  6
CONTINUOUS
  2
*U49
 10
0.0
 20
0.0
 30
0.0
  0
LINE
  5
DF
  8
図枠
 10
26.012633624700001
 20
-56.978366663300001
 30
0.0
 11
52.0100336247
 21
-56.978366663300001
 31
0.0
  0
LINE
  5
E0
  8
図枠
  6
BORDER
 10
70.072227224700001
 20
-45.023562263299979
 30
0.0
 11
70.072227224700001
 21
-51.934871063300001
 31
0.0
  0
CIRCLE
  5
E1
  8
図枠
 10
70.072227224700001
 20
-48.479216663300001
 30
0.0
 40
2.3037695999999981
  0
LINE
  5
E2
  8
図枠
 10
71.333787270599998
 20
-66.999226103699996
 30
0.0
 11
71.333787270599998
 21
-68.199106103700004
 31
0.0
  0
POLYLINE
  5
379
  8
図枠
 66
     1
 10
0.0
 20
0.0
 30
0.0
 70
     8
  0
VERTEX
  5
37A
  8
図枠
 10
66.881699999999995
 20
-64.909700000000001
 30
0.0
 70
    32
  0
VERTEX
  5
37B
  8
図枠
 10
66.887
 20
-64.915599999999984
 30
0.0
 70
    32
  0
VERTEX
  5
37C
  8
図枠
 10
66.892200000000003
 20
-64.921400000000006
 30
0.0
 70
    32
  0
VERTEX
  5
37D
  8
図枠
 10
66.897499999999994
 20
-64.927300000000002
 30
0.0
 70
    32
  0
VERTEX
  5
37E
  8
図枠
 10
66.902799999999999
 20
-64.933199999999999
 30
0.0
 70
    32
  0
VERTEX
  5
37F
  8
図枠
 10
66.908100000000005
 20
-64.939099999999996
 30
0.0
 70
    32
  0
VERTEX
  5
380
  8
図枠
 10
66.913399999999996
 20
-64.944999999999993
 30
0.0
 70
    32
  0
VERTEX
  5
381
  8
図枠
 10
66.918599999999998
 20
-64.950900000000004
 30
0.0
 70
    32
  0
VERTEX
  5
382
  8
図枠
 10
66.923900000000003
 20
-64.956800000000001
 30
0.0
 70
    32
  0
VERTEX
  5
383
  8
図枠
 10
66.929199999999994
 20
-64.962599999999995
 30
0.0
 70
    32
  0
VERTEX
  5
384
  8
図枠
 10
66.9345
 20
-64.968500000000006
 30
0.0
 70
    32
  0
VERTEX
  5
385
  8
図枠
 10
66.939800000000005
 20
-64.974400000000003
 30
0.0
 70
    32
  0
VERTEX
  5
386
  8
図枠
 10
66.944999999999993
 20
-64.980299999999986
 30
0.0
 70
    32
  0
VERTEX
  5
387
  8
図枠
 10
66.950299999999999
 20
-64.986199999999997
 30
0.0
 70
    32
  0
VERTEX
  5
388
  8
図枠
 10
66.955600000000004
 20
-64.992000000000004
 30
0.0
 70
    32
  0
VERTEX
  5
389
  8
図枠
 10
66.960899999999995
 20
-64.997900000000001
 30
0.0
 70
    32
  0
VERTEX
  5
38A
  8
図枠
 10
66.966200000000001
 20
-65.003799999999984
 30
0.0
 70
    32
  0
VERTEX
  5
38B
  8
図枠
 10
66.971500000000006
 20
-65.009699999999995
 30
0.0
 70
    32
  0
VERTEX
  5
38C
  8
図枠
 10
66.976799999999997
 20
-65.015500000000003
 30
0.0
 70
    32
  0
VERTEX
  5
38D
  8
図枠
 10
66.981999999999985
 20
-65.0214
 30
0.0
 70
    32
  0
VERTEX
  5
38E
  8
図枠
 10
66.987300000000005
 20
-65.027299999999997
 30
0.0
 70
    32
  0
VERTEX
  5
38F
  8
図枠
 10
66.992599999999996
 20
-65.033100000000005
 30
0.0
 70
    32
  0
VERTEX
  5
390
  8
図枠
 10
66.997900000000001
 20
-65.039000000000001
 30
0.0
 70
    32
  0
VERTEX
  5
391
  8
図枠
 10
67.003200000000007
 20
-65.044899999999998
 30
0.0
 70
    32
  0
VERTEX
  5
392
  8
図枠
 10
67.008499999999984
 20
-65.050700000000006
 30
0.0
 70
    32
  0
VERTEX
  5
393
  8
図枠
 10
67.013800000000003
 20
-65.056600000000003
 30
0.0
 70
    32
  0
VERTEX
  5
394
  8
図枠
 10
67.019099999999995
 20
-65.0625
 30
0.0
 70
    32
  0
VERTEX
  5
395
  8
図枠
 10
67.0244
 20
-65.068299999999994
 30
0.0
 70
    32
  0
VERTEX
  5
396
  8
図枠
 10
67.029700000000005
 20
-65.074200000000005
 30
0.0
 70
    32
  0
VERTEX
  5
397
  8
図枠
 10
67.034999999999997
 20
-65.079999999999998
 30
0.0
 70
    32
  0
VERTEX
  5
398
  8
図枠
 10
67.040300000000002
 20
-65.085899999999995
 30
0.0
 70
    32
  0
VERTEX
  5
399
  8
図枠
 10
67.045599999999993
 20
-65.091700000000003
 30
0.0
 70
    32
  0
VERTEX
  5
39A
  8
図枠
 10
67.050899999999999
 20
-65.097499999999997
 30
0.0
 70
    32
  0
VERTEX
  5
39B
  8
図枠
 10
67.056200000000004
 20
-65.103399999999993
 30
0.0
 70
    32
  0
VERTEX
  5
39C
  8
図枠
 10
67.061499999999995
 20
-65.109200000000001
 30
0.0
 70
    32
  0
VERTEX
  5
39D
  8
図枠
 10
67.066800000000001
 20
-65.115099999999998
 30
0.0
 70
    32
  0
VERTEX
  5
39E
  8
図枠
 10
67.072199999999995
 20
-65.120900000000006
 30
0.0
 70
    32
  0
VERTEX
  5
39F
  8
図枠
 10
67.077500000000001
 20
-65.126699999999985
 30
0.0
 70
    32
  0
VERTEX
  5
3A0
  8
図枠
 10
67.082800000000006
 20
-65.132499999999993
 30
0.0
 70
    32
  0
VERTEX
  5
3A1
  8
図枠
 10
67.088099999999983
 20
-65.138400000000004
 30
0.0
 70
    32
  0
VERTEX
  5
3A2
  8
図枠
 10
67.093400000000003
 20
-65.144199999999998
 30
0.0
 70
    32
  0
VERTEX
  5
3A3
  8
図枠
 10
67.098699999999994
 20
-65.150000000000006
 30
0.0
 70
    32
  0
VERTEX
  5
3A4
  8
図枠
 10
67.104100000000003
 20
-65.155799999999985
 30
0.0
 70
    32
  0
VERTEX
  5
3A5
  8
図枠
 10
67.109399999999994
 20
-65.161600000000007
 30
0.0
 70
    32
  0
VERTEX
  5
3A6
  8
図枠
 10
67.114699999999999
 20
-65.167400000000001
 30
0.0
 70
    32
  0
VERTEX
  5
3A7
  8
図枠
 10
67.120099999999994
 20
-65.173199999999994
 30
0.0
 70
    32
  0
VERTEX
  5
3A8
  8
図枠
 10
67.125399999999999
 20
-65.179000000000002
 30
0.0
 70
    32
  0
VERTEX
  5
3A9
  8
図枠
 10
67.130700000000004
 20
-65.184799999999996
 30
0.0
 70
    32
  0
VERTEX
  5
3AA
  8
図枠
 10
67.136099999999999
 20
-65.190600000000003
 30
0.0
 70
    32
  0
VERTEX
  5
3AB
  8
図枠
 10
67.141400000000004
 20
-65.196399999999997
 30
0.0
 70
    32
  0
VERTEX
  5
3AC
  8
図枠
 10
67.146799999999999
 20
-65.202100000000002
 30
0.0
 70
    32
  0
VERTEX
  5
3AD
  8
図枠
 10
67.152100000000004
 20
-65.207899999999995
 30
0.0
 70
    32
  0
VERTEX
  5
3AE
  8
図枠
 10
67.157499999999985
 20
-65.213700000000003
 30
0.0
 70
    32
  0
VERTEX
  5
3AF
  8
図枠
 10
67.162800000000004
 20
-65.219499999999996
 30
0.0
 70
    32
  0
VERTEX
  5
3B0
  8
図枠
 10
67.168199999999999
 20
-65.225200000000001
 30
0.0
 70
    32
  0
VERTEX
  5
3B1
  8
図枠
 10
67.173500000000004
 20
-65.230999999999995
 30
0.0
 70
    32
  0
VERTEX
  5
3B2
  8
図枠
 10
67.178899999999999
 20
-65.236699999999999
 30
0.0
 70
    32
  0
VERTEX
  5
3B3
  8
図枠
 10
67.184299999999993
 20
-65.242500000000007
 30
0.0
 70
    32
  0
VERTEX
  5
3B4
  8
図枠
 10
67.189599999999999
 20
-65.248199999999997
 30
0.0
 70
    32
  0
VERTEX
  5
3B5
  8
図枠
 10
67.194999999999993
 20
-65.253900000000002
 30
0.0
 70
    32
  0
VERTEX
  5
3B6
  8
図枠
 10
67.200400000000002
 20
-65.259699999999995
 30
0.0
 70
    32
  0
VERTEX
  5
3B7
  8
図枠
 10
67.205799999999996
 20
-65.2654
 30
0.0
 70
    32
  0
VERTEX
  5
3B8
  8
図枠
 10
67.211100000000002
 20
-65.271100000000004
 30
0.0
 70
    32
  0
VERTEX
  5
3B9
  8
図枠
 10
67.216499999999996
 20
-65.276799999999994
 30
0.0
 70
    32
  0
VERTEX
  5
3BA
  8
図枠
 10
67.221900000000005
 20
-65.282499999999985
 30
0.0
 70
    32
  0
VERTEX
  5
3BB
  8
図枠
 10
67.2273
 20
-65.288200000000003
 30
0.0
 70
    32
  0
VERTEX
  5
3BC
  8
図枠
 10
67.232699999999994
 20
-65.293899999999994
 30
0.0
 70
    32
  0
VERTEX
  5
3BD
  8
図枠
 10
67.238100000000003
 20
-65.299599999999984
 30
0.0
 70
    32
  0
VERTEX
  5
3BE
  8
図枠
 10
67.243499999999997
 20
-65.305300000000003
 30
0.0
 70
    32
  0
VERTEX
  5
3BF
  8
図枠
 10
67.248900000000006
 20
-65.311000000000007
 30
0.0
 70
    32
  0
VERTEX
  5
3C0
  8
図枠
 10
67.254300000000001
 20
-65.316699999999997
 30
0.0
 70
    32
  0
VERTEX
  5
3C1
  8
図枠
 10
67.259699999999995
 20
-65.322299999999998
 30
0.0
 70
    32
  0
VERTEX
  5
3C2
  8
図枠
 10
67.265199999999993
 20
-65.328000000000003
 30
0.0
 70
    32
  0
VERTEX
  5
3C3
  8
図枠
 10
67.270600000000002
 20
-65.333699999999993
 30
0.0
 70
    32
  0
VERTEX
  5
3C4
  8
図枠
 10
67.275999999999996
 20
-65.339299999999994
 30
0.0
 70
    32
  0
VERTEX
  5
3C5
  8
図枠
 10
67.281400000000005
 20
-65.344899999999996
 30
0.0
 70
    32
  0
VERTEX
  5
3C6
  8
図枠
 10
67.286900000000003
 20
-65.3506
 30
0.0
 70
    32
  0
VERTEX
  5
3C7
  8
図枠
 10
67.292299999999997
 20
-65.356200000000001
 30
0.0
 70
    32
  0
VERTEX
  5
3C8
  8
図枠
 10
67.297799999999995
 20
-65.361800000000002
 30
0.0
 70
    32
  0
VERTEX
  5
3C9
  8
図枠
 10
67.303200000000004
 20
-65.367500000000007
 30
0.0
 70
    32
  0
VERTEX
  5
3CA
  8
図枠
 10
67.308700000000002
 20
-65.373099999999994
 30
0.0
 70
    32
  0
VERTEX
  5
3CB
  8
図枠
 10
67.314099999999996
 20
-65.378699999999995
 30
0.0
 70
    32
  0
VERTEX
  5
3CC
  8
図枠
 10
67.319599999999994
 20
-65.384299999999996
 30
0.0
 70
    32
  0
VERTEX
  5
3CD
  8
図枠
 10
67.325000000000003
 20
-65.389799999999994
 30
0.0
 70
    32
  0
VERTEX
  5
3CE
  8
図枠
 10
67.330500000000001
 20
-65.395399999999995
 30
0.0
 70
    32
  0
VERTEX
  5
3CF
  8
図枠
 10
67.335999999999999
 20
-65.400999999999996
 30
0.0
 70
    32
  0
VERTEX
  5
3D0
  8
図枠
 10
67.341499999999996
 20
-65.406599999999983
 30
0.0
 70
    32
  0
VERTEX
  5
3D1
  8
図枠
 10
67.346900000000005
 20
-65.412099999999995
 30
0.0
 70
    32
  0
VERTEX
  5
3D2
  8
図枠
 10
67.352400000000003
 20
-65.417699999999996
 30
0.0
 70
    32
  0
VERTEX
  5
3D3
  8
図枠
 10
67.357900000000001
 20
-65.423199999999994
 30
0.0
 70
    32
  0
VERTEX
  5
3D4
  8
図枠
 10
67.363399999999999
 20
-65.428700000000006
 30
0.0
 70
    32
  0
VERTEX
  5
3D5
  8
図枠
 10
67.368899999999996
 20
-65.434299999999993
 30
0.0
 70
    32
  0
VERTEX
  5
3D6
  8
図枠
 10
67.374399999999994
 20
-65.439800000000005
 30
0.0
 70
    32
  0
VERTEX
  5
3D7
  8
図枠
 10
67.379900000000006
 20
-65.445300000000003
 30
0.0
 70
    32
  0
VERTEX
  5
3D8
  8
図枠
 10
67.385499999999993
 20
-65.450800000000001
 30
0.0
 70
    32
  0
VERTEX
  5
3D9
  8
図枠
 10
67.391000000000005
 20
-65.456299999999999
 30
0.0
 70
    32
  0
VERTEX
  5
3DA
  8
図枠
 10
67.396500000000003
 20
-65.461799999999997
 30
0.0
 70
    32
  0
VERTEX
  5
3DB
  8
図枠
 10
67.402000000000001
 20
-65.467299999999994
 30
0.0
 70
    32
  0
VERTEX
  5
3DC
  8
図枠
 10
67.407600000000002
 20
-65.472700000000003
 30
0.0
 70
    32
  0
VERTEX
  5
3DD
  8
図枠
 10
67.4131
 20
-65.478200000000001
 30
0.0
 70
    32
  0
VERTEX
  5
3DE
  8
図枠
 10
67.418700000000001
 20
-65.483599999999996
 30
0.0
 70
    32
  0
VERTEX
  5
3DF
  8
図枠
 10
67.424199999999999
 20
-65.489099999999993
 30
0.0
 70
    32
  0
VERTEX
  5
3E0
  8
図枠
 10
67.4298
 20
-65.494500000000002
 30
0.0
 70
    32
  0
VERTEX
  5
3E1
  8
図枠
 10
67.435400000000001
 20
-65.499899999999997
 30
0.0
 70
    32
  0
VERTEX
  5
3E2
  8
図枠
 10
67.440899999999985
 20
-65.505399999999995
 30
0.0
 70
    32
  0
VERTEX
  5
3E3
  8
図枠
 10
67.4465
 20
-65.510800000000003
 30
0.0
 70
    32
  0
VERTEX
  5
3E4
  8
図枠
 10
67.452100000000002
 20
-65.516199999999984
 30
0.0
 70
    32
  0
VERTEX
  5
3E5
  8
図枠
 10
67.457700000000003
 20
-65.521500000000003
 30
0.0
 70
    32
  0
VERTEX
  5
3E6
  8
図枠
 10
67.463300000000004
 20
-65.526899999999998
 30
0.0
 70
    32
  0
VERTEX
  5
3E7
  8
図枠
 10
67.468900000000005
 20
-65.532300000000006
 30
0.0
 70
    32
  0
VERTEX
  5
3E8
  8
図枠
 10
67.474500000000006
 20
-65.537700000000001
 30
0.0
 70
    32
  0
VERTEX
  5
3E9
  8
図枠
 10
67.480099999999993
 20
-65.543000000000006
 30
0.0
 70
    32
  0
VERTEX
  5
3EA
  8
図枠
 10
67.485699999999994
 20
-65.548299999999983
 30
0.0
 70
    32
  0
VERTEX
  5
3EB
  8
図枠
 10
67.491299999999995
 20
-65.553700000000006
 30
0.0
 70
    32
  0
VERTEX
  5
3EC
  8
図枠
 10
67.497
 20
-65.558999999999997
 30
0.0
 70
    32
  0
VERTEX
  5
3ED
  8
図枠
 10
67.502600000000001
 20
-65.564300000000003
 30
0.0
 70
    32
  0
VERTEX
  5
3EE
  8
図枠
 10
67.508200000000002
 20
-65.569599999999994
 30
0.0
 70
    32
  0
VERTEX
  5
3EF
  8
図枠
 10
67.513900000000007
 20
-65.5749
 30
0.0
 70
    32
  0
VERTEX
  5
3F0
  8
図枠
 10
67.519499999999994
 20
-65.580200000000005
 30
0.0
 70
    32
  0
VERTEX
  5
3F1
  8
図枠
 10
67.525199999999998
 20
-65.585400000000007
 30
0.0
 70
    32
  0
VERTEX
  5
3F2
  8
図枠
 10
67.530900000000003
 20
-65.590699999999998
 30
0.0
 70
    32
  0
VERTEX
  5
3F3
  8
図枠
 10
67.536500000000004
 20
-65.5959
 30
0.0
 70
    32
  0
VERTEX
  5
3F4
  8
図枠
 10
67.542199999999994
 20
-65.601200000000006
 30
0.0
 70
    32
  0
VERTEX
  5
3F5
  8
図枠
 10
67.547899999999984
 20
-65.606399999999994
 30
0.0
 70
    32
  0
VERTEX
  5
3F6
  8
図枠
 10
67.553600000000003
 20
-65.611599999999996
 30
0.0
 70
    32
  0
VERTEX
  5
3F7
  8
図枠
 10
67.559299999999993
 20
-65.616799999999984
 30
0.0
 70
    32
  0
VERTEX
  5
3F8
  8
図枠
 10
67.564999999999984
 20
-65.622
 30
0.0
 70
    32
  0
VERTEX
  5
3F9
  8
図枠
 10
67.570700000000002
 20
-65.627200000000002
 30
0.0
 70
    32
  0
SEQEND
  5
3FA
  8
図枠
  0
POLYLINE
  5
3FB
  8
図枠
 66
     1
 10
0.0
 20
0.0
 30
0.0
 70
     8
  0
VERTEX
  5
3FC
  8
図枠
 10
69.481700000000004
 20
-66.618099999999998
 30
0.0
 70
    32
  0
VERTEX
  5
3FD
  8
図枠
 10
69.495699999999999
 20
-66.622
 30
0.0
 70
    32
  0
VERTEX
  5
3FE
  8
図枠
 10
69.509699999999995
 20
-66.626000000000005
 30
0.0
 70
    32
  0
VERTEX
  5
3FF
  8
図枠
 10
69.523700000000005
 20
-66.629900000000006
 30
0.0
 70
    32
  0
VERTEX
  5
400
  8
図枠
 10
69.537700000000001
 20
-66.633799999999994
 30
0.0
 70
    32
  0
VERTEX
  5
401
  8
図枠
 10
69.551699999999997
 20
-66.637699999999995
 30
0.0
 70
    32
  0
VERTEX
  5
402
  8
図枠
 10
69.565799999999996
 20
-66.641499999999994
 30
0.0
 70
    32
  0
VERTEX
  5
403
  8
図枠
 10
69.579899999999995
 20
-66.645300000000006
 30
0.0
 70
    32
  0
VERTEX
  5
404
  8
図枠
 10
69.593900000000005
 20
-66.649199999999993
 30
0.0
 70
    32
  0
VERTEX
  5
405
  8
図枠
 10
69.608000000000004
 20
-66.652900000000002
 30
0.0
 70
    32
  0
VERTEX
  5
406
  8
図枠
 10
69.622100000000003
 20
-66.656700000000001
 30
0.0
 70
    32
  0
VERTEX
  5
407
  8
図枠
 10
69.636300000000006
 20
-66.660399999999996
 30
0.0
 70
    32
  0
VERTEX
  5
408
  8
図枠
 10
69.650400000000005
 20
-66.664199999999994
 30
0.0
 70
    32
  0
VERTEX
  5
409
  8
図枠
 10
69.664599999999993
 20
-66.667900000000003
 30
0.0
 70
    32
  0
VERTEX
  5
40A
  8
図枠
 10
69.678700000000006
 20
-66.671599999999984
 30
0.0
 70
    32
  0
VERTEX
  5
40B
  8
図枠
 10
69.692899999999995
 20
-66.675200000000004
 30
0.0
 70
    32
  0
VERTEX
  5
40C
  8
図枠
 10
69.707099999999997
 20
-66.678899999999985
 30
0.0
 70
    32
  0
VERTEX
  5
40D
  8
図枠
 10
69.721299999999985
 20
-66.682500000000005
 30
0.0
 70
    32
  0
VERTEX
  5
40E
  8
図枠
 10
69.735500000000002
 20
-66.686099999999996
 30
0.0
 70
    32
  0
VERTEX
  5
40F
  8
図枠
 10
69.749700000000004
 20
-66.689700000000002
 30
0.0
 70
    32
  0
VERTEX
  5
410
  8
図枠
 10
69.763900000000007
 20
-66.693200000000004
 30
0.0
 70
    32
  0
VERTEX
  5
411
  8
図枠
 10
69.778199999999998
 20
-66.696799999999996
 30
0.0
 70
    32
  0
VERTEX
  5
412
  8
図枠
 10
69.792500000000004
 20
-66.700299999999999
 30
0.0
 70
    32
  0
VERTEX
  5
413
  8
図枠
 10
69.806700000000006
 20
-66.703800000000001
 30
0.0
 70
    32
  0
VERTEX
  5
414
  8
図枠
 10
69.820999999999984
 20
-66.707300000000004
 30
0.0
 70
    32
  0
VERTEX
  5
415
  8
図枠
 10
69.835300000000004
 20
-66.710700000000003
 30
0.0
 70
    32
  0
VERTEX
  5
416
  8
図枠
 10
69.849599999999995
 20
-66.714200000000005
 30
0.0
 70
    32
  0
VERTEX
  5
417
  8
図枠
 10
69.863900000000001
 20
-66.717600000000004
 30
0.0
 70
    32
  0
VERTEX
  5
418
  8
図枠
 10
69.878299999999996
 20
-66.721000000000004
 30
0.0
 70
    32
  0
VERTEX
  5
419
  8
図枠
 10
69.892600000000002
 20
-66.724400000000003
 30
0.0
 70
    32
  0
VERTEX
  5
41A
  8
図枠
 10
69.906899999999993
 20
-66.727800000000002
 30
0.0
 70
    32
  0
VERTEX
  5
41B
  8
図枠
 10
69.921300000000002
 20
-66.731200000000001
 30
0.0
 70
    32
  0
VERTEX
  5
41C
  8
図枠
 10
69.935699999999997
 20
-66.734499999999997
 30
0.0
 70
    32
  0
VERTEX
  5
41D
  8
図枠
 10
69.950100000000006
 20
-66.737799999999993
 30
0.0
 70
    32
  0
VERTEX
  5
41E
  8
図枠
 10
69.964500000000001
 20
-66.741100000000003
 30
0.0
 70
    32
  0
VERTEX
  5
41F
  8
図枠
 10
69.978899999999996
 20
-66.744399999999999
 30
0.0
 70
    32
  0
VERTEX
  5
420
  8
図枠
 10
69.993300000000005
 20
-66.747699999999995
 30
0.0
 70
    32
  0
VERTEX
  5
421
  8
図枠
 10
70.0077
 20
-66.750900000000001
 30
0.0
 70
    32
  0
VERTEX
  5
422
  8
図枠
 10
70.022099999999995
 20
-66.754199999999983
 30
0.0
 70
    32
  0
VERTEX
  5
423
  8
図枠
 10
70.036600000000007
 20
-66.757400000000004
 30
0.0
 70
    32
  0
VERTEX
  5
424
  8
図枠
 10
70.051000000000002
 20
-66.760599999999997
 30
0.0
 70
    32
  0
VERTEX
  5
425
  8
図枠
 10
70.0655
 20
-66.763800000000003
 30
0.0
 70
    32
  0
VERTEX
  5
426
  8
図枠
 10
70.079999999999998
 20
-66.766999999999996
 30
0.0
 70
    32
  0
VERTEX
  5
427
  8
図枠
 10
70.094499999999996
 20
-66.770099999999999
 30
0.0
 70
    32
  0
VERTEX
  5
428
  8
図枠
 10
70.108999999999995
 20
-66.773300000000006
 30
0.0
 70
    32
  0
VERTEX
  5
429
  8
図枠
 10
70.123500000000007
 20
-66.776399999999995
 30
0.0
 70
    32
  0
VERTEX
  5
42A
  8
図枠
 10
70.138000000000005
 20
-66.779499999999999
 30
0.0
 70
    32
  0
VERTEX
  5
42B
  8
図枠
 10
70.152500000000003
 20
-66.782600000000002
 30
0.0
 70
    32
  0
VERTEX
  5
42C
  8
図枠
 10
70.167000000000002
 20
-66.785700000000006
 30
0.0
 70
    32
  0
VERTEX
  5
42D
  8
図枠
 10
70.181600000000003
 20
-66.788799999999995
 30
0.0
 70
    32
  0
VERTEX
  5
42E
  8
図枠
 10
70.196100000000001
 20
-66.791899999999998
 30
0.0
 70
    32
  0
VERTEX
  5
42F
  8
図枠
 10
70.210700000000003
 20
-66.794899999999998
 30
0.0
 70
    32
  0
VERTEX
  5
430
  8
図枠
 10
70.225200000000001
 20
-66.797899999999998
 30
0.0
 70
    32
  0
VERTEX
  5
431
  8
図枠
 10
70.239800000000002
 20
-66.800899999999984
 30
0.0
 70
    32
  0
VERTEX
  5
432
  8
図枠
 10
70.254400000000004
 20
-66.803899999999999
 30
0.0
 70
    32
  0
VERTEX
  5
433
  8
図枠
 10
70.269000000000005
 20
-66.806899999999999
 30
0.0
 70
    32
  0
VERTEX
  5
434
  8
図枠
 10
70.283600000000007
 20
-66.809899999999999
 30
0.0
 70
    32
  0
VERTEX
  5
435
  8
図枠
 10
70.298199999999994
 20
-66.812899999999999
 30
0.0
 70
    32
  0
VERTEX
  5
436
  8
図枠
 10
70.312799999999996
 20
-66.815799999999996
 30
0.0
 70
    32
  0
VERTEX
  5
437
  8
図枠
 10
70.327399999999997
 20
-66.818799999999996
 30
0.0
 70
    32
  0
VERTEX
  5
438
  8
図枠
 10
70.342100000000002
 20
-66.821700000000007
 30
0.0
 70
    32
  0
VERTEX
  5
439
  8
図枠
 10
70.356700000000004
 20
-66.824600000000004
 30
0.0
 70
    32
  0
VERTEX
  5
43A
  8
図枠
 10
70.371300000000005
 20
-66.827500000000001
 30
0.0
 70
    32
  0
VERTEX
  5
43B
  8
図枠
 10
70.385999999999996
 20
-66.830399999999997
 30
0.0
 70
    32
  0
VERTEX
  5
43C
  8
図枠
 10
70.400599999999997
 20
-66.833299999999994
 30
0.0
 70
    32
  0
VERTEX
  5
43D
  8
図枠
 10
70.415300000000002
 20
-66.836200000000005
 30
0.0
 70
    32
  0
VERTEX
  5
43E
  8
図枠
 10
70.430000000000007
 20
-66.838999999999999
 30
0.0
 70
    32
  0
VERTEX
  5
43F
  8
図枠
 10
70.444699999999997
 20
-66.841899999999995
 30
0.0
 70
    32
  0
VERTEX
  5
440
  8
図枠
 10
70.459400000000002
 20
-66.844700000000003
 30
0.0
 70
    32
  0
VERTEX
  5
441
  8
図枠
 10
70.474000000000004
 20
-66.847499999999997
 30
0.0
 70
    32
  0
VERTEX
  5
442
  8
図枠
 10
70.488699999999994
 20
-66.850300000000004
 30
0.0
 70
    32
  0
VERTEX
  5
443
  8
図枠
 10
70.503500000000003
 20
-66.853099999999998
 30
0.0
 70
    32
  0
VERTEX
  5
444
  8
図枠
 10
70.518199999999993
 20
-66.855900000000005
 30
0.0
 70
    32
  0
VERTEX
  5
445
  8
図枠
 10
70.532899999999998
 20
-66.858699999999999
 30
0.0
 70
    32
  0
VERTEX
  5
446
  8
図枠
 10
70.547600000000003
 20
-66.861500000000007
 30
0.0
 70
    32
  0
VERTEX
  5
447
  8
図枠
 10
70.562299999999993
 20
-66.864199999999997
 30
0.0
 70
    32
  0
VERTEX
  5
448
  8
図枠
 10
70.577100000000002
 20
-66.867000000000004
 30
0.0
 70
    32
  0
VERTEX
  5
449
  8
図枠
 10
70.591800000000006
 20
-66.869699999999995
 30
0.0
 70
    32
  0
VERTEX
  5
44A
  8
図枠
 10
70.6066
 20
-66.872500000000002
 30
0.0
 70
    32
  0
VERTEX
  5
44B
  8
図枠
 10
70.621300000000005
 20
-66.875200000000007
 30
0.0
 70
    32
  0
VERTEX
  5
44C
  8
図枠
 10
70.636099999999999
 20
-66.877899999999997
 30
0.0
 70
    32
  0
VERTEX
  5
44D
  8
図枠
 10
70.650800000000004
 20
-66.880600000000001
 30
0.0
 70
    32
  0
VERTEX
  5
44E
  8
図枠
 10
70.665599999999984
 20
-66.883300000000006
 30
0.0
 70
    32
  0
VERTEX
  5
44F
  8
図枠
 10
70.680400000000006
 20
-66.885999999999996
 30
0.0
 70
    32
  0
VERTEX
  5
450
  8
図枠
 10
70.6952
 20
-66.8887
 30
0.0
 70
    32
  0
VERTEX
  5
451
  8
図枠
 10
70.709999999999994
 20
-66.891400000000004
 30
0.0
 70
    32
  0
VERTEX
  5
452
  8
図枠
 10
70.724699999999999
 20
-66.894099999999995
 30
0.0
 70
    32
  0
VERTEX
  5
453
  8
図枠
 10
70.739500000000007
 20
-66.896699999999996
 30
0.0
 70
    32
  0
VERTEX
  5
454
  8
図枠
 10
70.754300000000001
 20
-66.899399999999986
 30
0.0
 70
    32
  0
VERTEX
  5
455
  8
図枠
 10
70.769099999999995
 20
-66.902000000000001
 30
0.0
 70
    32
  0
VERTEX
  5
456
  8
図枠
 10
70.783900000000003
 20
-66.904700000000005
 30
0.0
 70
    32
  0
VERTEX
  5
457
  8
図枠
 10
70.7988
 20
-66.907300000000006
 30
0.0
 70
    32
  0
VERTEX
  5
458
  8
図枠
 10
70.813599999999994
 20
-66.909899999999993
 30
0.0
 70
    32
  0
VERTEX
  5
459
  8
図枠
 10
70.828400000000002
 20
-66.912599999999983
 30
0.0
 70
    32
  0
VERTEX
  5
45A
  8
図枠
 10
70.843199999999996
 20
-66.915199999999999
 30
0.0
 70
    32
  0
VERTEX
  5
45B
  8
図枠
 10
70.858000000000004
 20
-66.9178
 30
0.0
 70
    32
  0
VERTEX
  5
45C
  8
図枠
 10
70.872900000000001
 20
-66.920400000000001
 30
0.0
 70
    32
  0
VERTEX
  5
45D
  8
図枠
 10
70.887699999999995
 20
-66.923000000000002
 30
0.0
 70
    32
  0
VERTEX
  5
45E
  8
図枠
 10
70.902500000000003
 20
-66.925600000000003
 30
0.0
 70
    32
  0
VERTEX
  5
45F
  8
図枠
 10
70.917400000000001
 20
-66.928200000000004
 30
0.0
 70
    32
  0
VERTEX
  5
460
  8
図枠
 10
70.932199999999995
 20
-66.930800000000005
 30
0.0
 70
    32
  0
VERTEX
  5
461
  8
図枠
 10
70.947100000000006
 20
-66.933300000000003
 30
0.0
 70
    32
  0
VERTEX
  5
462
  8
図枠
 10
70.961899999999986
 20
-66.935900000000004
 30
0.0
 70
    32
  0
VERTEX
  5
463
  8
図枠
 10
70.976799999999997
 20
-66.938500000000005
 30
0.0
 70
    32
  0
VERTEX
  5
464
  8
図枠
 10
70.991600000000005
 20
-66.941000000000003
 30
0.0
 70
    32
  0
VERTEX
  5
465
  8
図枠
 10
71.006500000000003
 20
-66.943600000000004
 30
0.0
 70
    32
  0
VERTEX
  5
466
  8
図枠
 10
71.0214
 20
-66.946200000000005
 30
0.0
 70
    32
  0
VERTEX
  5
467
  8
図枠
 10
71.036199999999994
 20
-66.948700000000002
 30
0.0
 70
    32
  0
VERTEX
  5
468
  8
図枠
 10
71.051100000000005
 20
-66.951300000000003
 30
0.0
 70
    32
  0
VERTEX
  5
469
  8
図枠
 10
71.065899999999999
 20
-66.953800000000001
 30
0.0
 70
    32
  0
VERTEX
  5
46A
  8
図枠
 10
71.080799999999996
 20
-66.956299999999999
 30
0.0
 70
    32
  0
VERTEX
  5
46B
  8
図枠
 10
71.095699999999994
 20
-66.9589
 30
0.0
 70
    32
  0
VERTEX
  5
46C
  8
図枠
 10
71.110600000000005
 20
-66.961399999999983
 30
0.0
 70
    32
  0
VERTEX
  5
46D
  8
図枠
 10
71.125399999999999
 20
-66.963899999999995
 30
0.0
 70
    32
  0
VERTEX
  5
46E
  8
図枠
 10
71.140299999999996
 20
-66.966499999999996
 30
0.0
 70
    32
  0
VERTEX
  5
46F
  8
図枠
 10
71.155199999999994
 20
-66.968999999999994
 30
0.0
 70
    32
  0
VERTEX
  5
470
  8
図枠
 10
71.170100000000005
 20
-66.971500000000006
 30
0.0
 70
    32
  0
VERTEX
  5
471
  8
図枠
 10
71.184899999999999
 20
-66.974100000000007
 30
0.0
 70
    32
  0
VERTEX
  5
472
  8
図枠
 10
71.199799999999996
 20
-66.976600000000005
 30
0.0
 70
    32
  0
VERTEX
  5
473
  8
図枠
 10
71.214699999999993
 20
-66.979100000000003
 30
0.0
 70
    32
  0
VERTEX
  5
474
  8
図枠
 10
71.229600000000005
 20
-66.9816
 30
0.0
 70
    32
  0
VERTEX
  5
475
  8
図枠
 10
71.244500000000002
 20
-66.984099999999984
 30
0.0
 70
    32
  0
VERTEX
  5
476
  8
図枠
 10
71.259399999999985
 20
-66.986699999999985
 30
0.0
 70
    32
  0
VERTEX
  5
477
  8
図枠
 10
71.274199999999993
 20
-66.989199999999997
 30
0.0
 70
    32
  0
VERTEX
  5
478
  8
図枠
 10
71.289100000000005
 20
-66.991699999999994
 30
0.0
 70
    32
  0
VERTEX
  5
479
  8
図枠
 10
71.304000000000002
 20
-66.994200000000006
 30
0.0
 70
    32
  0
VERTEX
  5
47A
  8
図枠
 10
71.318899999999999
 20
-66.996700000000004
 30
0.0
 70
    32
  0
VERTEX
  5
47B
  8
図枠
 10
71.333799999999997
 20
-66.999200000000002
 30
0.0
 70
    32
  0
SEQEND
  5
47C
  8
図枠
  0
INSERT
  5
E5
  8
0
  6
CONTINUOUS
  2
*U50
 10
0.0
 20
0.0
 30
0.0
  0
LINE
  5
E6
  8
図枠
 10
24.012833624700001
 20
-27.731291663299999
 30
0.0
 11
140.00123362470001
 21
-27.731291663299999
 31
0.0
  0
LINE
  5
E7
  8
図枠
 10
73.107595990600004
 20
-63.959530103699997
 30
0.0
 11
75.106329430599999
 21
-63.959530103699997
 31
0.0
  0
LINE
  5
E8
  8
図枠
 10
77.970431856899992
 20
-66.039322103700002
 30
0.0
 11
80.306875990600005
 21
-66.039322103700002
 31
0.0
  0
LINE
  5
E9
  8
図枠
 10
75.338181387899979
 20
-47.327331863299989
 30
0.0
 11
79.945720587899999
 21
-46.175447063299998
 31
0.0
  0
LINE
  5
EA
  8
図枠
 10
60.806355270600001
 20
-65.399386103699996
 30
0.0
 11
62.006235270600001
 21
-65.399386103699996
 31
0.0
  0
INSERT
  5
EB
  8
0
  6
CONTINUOUS
  2
*U51
 10
0.0
 20
0.0
 30
0.0
  0
LINE
  5
EC
  8
図枠
 10
79.945720587899999
 20
-46.175447063299998
 30
0.0
 11
79.945720587899999
 21
-50.782986263299989
 31
0.0
  0
LINE
  5
ED
  8
図枠
 10
64.134507270600011
 20
-62.599666103700002
 30
0.0
 11
64.134507270600011
 21
-64.039522103699994
 31
0.0
  0
LINE
  5
EE
  8
図枠
 10
73.107595990600004
 20
-63.959530103699997
 30
0.0
 11
73.107595990600004
 21
-65.399386103699996
 31
0.0
  0
LINE
  5
EF
  8
図枠
 10
80.306875990600005
 20
-63.959530103699997
 30
0.0
 11
80.306875990600005
 21
-65.399386103699996
 31
0.0
  0
LINE
  5
F0
  8
図枠
 10
75.716401750599999
 20
-66.039322103700002
 30
0.0
 11
75.52868719060001
 21
-65.399386103699996
 31
0.0
  0
LINE
  5
F1
  8
図枠
 10
75.338181387899979
 20
-47.327331863299989
 30
0.0
 11
75.338181387899979
 21
-49.631101463299998
 31
0.0
  0
LINE
  5
F2
  8
図枠
 10
60.806355270600001
 20
-64.199506103700003
 30
0.0
 11
60.806355270600001
 21
-63.799546103699988
 31
0.0
  0
LINE
  5
F3
  8
図枠
 10
55.206915270600007
 20
-65.399386103699996
 30
0.0
 11
55.086044309599998
 21
-65.399386103699996
 31
0.0
  0
LINE
  5
F4
  8
図枠
 10
67.334187270599998
 20
-64.457168548799999
 30
0.0
 11
66.881684185500006
 21
-64.909671633999992
 31
0.0
  0
LINE
  5
F5
  8
図枠
 10
57.206715270600007
 20
-65.399386103699996
 30
0.0
 11
58.806555270600001
 21
-65.399386103699996
 31
0.0
  0
LINE
  5
F6
  8
図枠
 10
64.134507270600011
 20
-68.199106103700004
 30
0.0
 11
66.134307270600004
 21
-68.199106103700004
 31
0.0
  0
CIRCLE
  5
F7
  8
図枠
 10
70.072227224700001
 20
-48.479216663300001
 30
0.0
 40
1.151884799999999
  0
INSERT
  5
F8
  8
0
  6
CONTINUOUS
  2
*U52
 10
0.0
 20
0.0
 30
0.0
  0
INSERT
  5
F9
  8
0
  6
CONTINUOUS
  2
*U53
 10
0.0
 20
0.0
 30
0.0
  0
LINE
  5
FA
  8
図枠
  6
BORDER
 10
66.6165728247
 20
-48.479216663300001
 30
0.0
 11
81.399094424699967
 21
-48.479216663300001
 31
0.0
  0
LINE
  5
FB
  8
図枠
 10
75.338181387899979
 20
-49.631101463299998
 30
0.0
 11
79.945720587899999
 21
-50.782986263299989
 31
0.0
  0
ARC
  5
FC
  8
図枠
 10
65.094411270600006
 20
-63.959530103699997
 30
0.0
 40
3.039695999999998
 50
270.0
 51
298.08590481520002
  0
LINE
  5
FD
  8
図枠
 10
46.010633624699999
 20
-48.479216663300001
 30
0.0
 11
60.009233624700002
 21
-48.479216663300001
 31
0.0
  0
INSERT
  5
FE
  8
0
  6
CONTINUOUS
  2
*U54
 10
0.0
 20
0.0
 30
0.0
  0
INSERT
  5
FF
  8
0
  6
CONTINUOUS
  2
*U55
 10
0.0
 20
0.0
 30
0.0
  0
LINE
  5
100
  8
図枠
 10
54.009833624700001
 20
-52.728791663300001
 30
0.0
 11
54.009833624700001
 21
-61.227941663300001
 31
0.0
  0
LINE
  5
101
  8
図枠
  6
BORDER
 10
70.072227224700001
 20
-45.023562263299979
 30
0.0
 11
70.072227224700001
 21
-51.934871063300001
 31
0.0
  0
LINE
  5
102
  8
図枠
  6
BORDER
 10
70.072227224700001
 20
-45.023562263299979
 30
0.0
 11
70.072227224700001
 21
-51.934871063300001
 31
0.0
  0
LINE
  5
103
  8
図枠
 10
26.012633624700001
 20
-48.479216663300001
 30
0.0
 11
42.011033624699991
 21
-48.479216663300001
 31
0.0
  0
ARC
  5
104
  8
図枠
 10
66.134307270600004
 20
-63.799546103699988
 30
0.0
 40
4.3995600000000001
 50
270.0
 51
302.54495885400001
  0
LINE
  5
105
  8
図枠
 10
55.206915270600007
 20
-65.399386103699996
 30
0.0
 11
55.206915270600007
 21
-66.599266103700003
 31
0.0
  0
LINE
  5
106
  8
図枠
 10
55.206915270600007
 20
-62.599666103700002
 30
0.0
 11
55.206915270600007
 21
-64.199506103700003
 31
0.0
  0
LINE
  5
107
  8
図枠
 10
57.206715270600007
 20
-63.799546103699988
 30
0.0
 11
58.406595270600008
 21
-62.599666103700002
 31
0.0
  0
LINE
  5
108
  8
図枠
 10
75.338181387899979
 20
-49.631101463299998
 30
0.0
 11
79.945720587899999
 21
-50.782986263299989
 31
0.0
  0
LINE
  5
109
  8
図枠
 10
79.945720587899999
 20
-46.175447063299998
 30
0.0
 11
79.945720587899999
 21
-50.782986263299989
 31
0.0
  0
LINE
  5
10A
  8
図枠
 10
24.012833624700001
 20
-33.230741663300002
 30
0.0
 11
140.00123362470001
 21
-33.230741663300002
 31
0.0
  0
LINE
  5
10B
  8
図枠
 10
70.533867270599998
 20
-63.799546103699988
 30
0.0
 11
71.333787270599998
 21
-62.599666103700002
 31
0.0
  0
LINE
  5
10C
  8
図枠
 10
99.0053336247
 20
-33.230741663300002
 30
0.0
 11
99.0053336247
 21
-27.731291663299999
 31
0.0
  0
LINE
  5
10D
  8
図枠
 10
73.107595990600004
 20
-65.399386103699996
 30
0.0
 11
75.52868719060001
 21
-65.399386103699996
 31
0.0
  0
LINE
  5
10E
  8
図枠
 10
75.106329430599999
 20
-63.959530103699997
 30
0.0
 11
74.707435990600004
 21
-62.599666103700002
 31
0.0
  0
CIRCLE
  5
10F
  8
図枠
 10
70.072227224700001
 20
-48.479216663300001
 30
0.0
 40
2.3037695999999981
  0
LINE
  5
110
  8
図枠
 10
60.806355270600001
 20
-63.799546103699988
 30
0.0
 11
62.006235270600001
 21
-62.599666103700002
 31
0.0
  0
LINE
  5
111
  8
図枠
 10
58.806555270600001
 20
-62.599666103700002
 30
0.0
 11
58.806555270600001
 21
-64.199506103700003
 31
0.0
  0
LINE
  5
112
  8
図枠
 10
64.134507270600011
 20
-68.199106103700004
 30
0.0
 11
64.134507270600011
 21
-66.999226103699996
 31
0.0
  0
INSERT
  5
113
  8
0
  6
CONTINUOUS
  2
*U56
 10
0.0
 20
0.0
 30
0.0
  0
LINE
  5
114
  8
図枠
 10
73.107595990600004
 20
-67.479178103699994
 30
0.0
 11
76.138759510600011
 21
-67.479178103699994
 31
0.0
  0
INSERT
  5
115
  8
0
  6
CONTINUOUS
  2
*U57
 10
0.0
 20
0.0
 30
0.0
  0
LINE
  5
116
  8
図枠
 10
24.012833624700001
 20
-27.731291663299999
 30
0.0
 11
24.012833624700001
 21
-44.229641663299986
 31
0.0
  0
LINE
  5
117
  8
図枠
 10
64.134507270600011
 20
-66.999226103699996
 30
0.0
 11
64.134507270600011
 21
-68.199106103700004
 31
0.0
  0
INSERT
  5
118
  8
0
  6
CONTINUOUS
  2
*U58
 10
0.0
 20
0.0
 30
0.0
  0
LINE
  5
119
  8
図枠
 10
54.286124309599998
 20
-65.399386103699996
 30
0.0
 11
55.086044309599998
 21
-65.399386103699996
 31
0.0
  0
LINE
  5
11A
  8
図枠
 10
70.533867270599998
 20
-63.799546103699988
 30
0.0
 11
71.333787270599998
 21
-62.599666103700002
 31
0.0
  0
POLYLINE
  5
47D
  8
図枠
 66
     1
 10
0.0
 20
0.0
 30
0.0
 70
     8
  0
VERTEX
  5
47E
  8
図枠
 10
64.134500000000003
 20
-64.714799999999997
 30
0.0
 70
    32
  0
VERTEX
  5
47F
  8
図枠
 10
64.148899999999983
 20
-64.728099999999984
 30
0.0
 70
    32
  0
VERTEX
  5
480
  8
図枠
 10
64.163300000000007
 20
-64.741399999999999
 30
0.0
 70
    32
  0
VERTEX
  5
481
  8
図枠
 10
64.177700000000002
 20
-64.7547
 30
0.0
 70
    32
  0
VERTEX
  5
482
  8
図枠
 10
64.192099999999996
 20
-64.768000000000001
 30
0.0
 70
    32
  0
VERTEX
  5
483
  8
図枠
 10
64.206500000000005
 20
-64.781199999999998
 30
0.0
 70
    32
  0
VERTEX
  5
484
  8
図枠
 10
64.221000000000004
 20
-64.794499999999985
 30
0.0
 70
    32
  0
VERTEX
  5
485
  8
図枠
 10
64.235399999999998
 20
-64.8078
 30
0.0
 70
    32
  0
VERTEX
  5
486
  8
図枠
 10
64.249799999999993
 20
-64.821100000000001
 30
0.0
 70
    32
  0
VERTEX
  5
487
  8
図枠
 10
64.264200000000002
 20
-64.834299999999999
 30
0.0
 70
    32
  0
VERTEX
  5
488
  8
図枠
 10
64.278599999999983
 20
-64.8476
 30
0.0
 70
    32
  0
VERTEX
  5
489
  8
図枠
 10
64.293000000000006
 20
-64.860900000000001
 30
0.0
 70
    32
  0
VERTEX
  5
48A
  8
図枠
 10
64.307400000000001
 20
-64.874099999999999
 30
0.0
 70
    32
  0
VERTEX
  5
48B
  8
図枠
 10
64.321899999999999
 20
-64.887399999999985
 30
0.0
 70
    32
  0
VERTEX
  5
48C
  8
図枠
 10
64.336299999999994
 20
-64.900599999999983
 30
0.0
 70
    32
  0
VERTEX
  5
48D
  8
図枠
 10
64.350700000000003
 20
-64.913899999999984
 30
0.0
 70
    32
  0
VERTEX
  5
48E
  8
図枠
 10
64.365099999999998
 20
-64.927099999999996
 30
0.0
 70
    32
  0
VERTEX
  5
48F
  8
図枠
 10
64.379599999999996
 20
-64.940399999999997
 30
0.0
 70
    32
  0
VERTEX
  5
490
  8
図枠
 10
64.394000000000005
 20
-64.953599999999994
 30
0.0
 70
    32
  0
VERTEX
  5
491
  8
図枠
 10
64.4084
 20
-64.966800000000006
 30
0.0
 70
    32
  0
VERTEX
  5
492
  8
図枠
 10
64.422899999999984
 20
-64.980099999999993
 30
0.0
 70
    32
  0
VERTEX
  5
493
  8
図枠
 10
64.437299999999993
 20
-64.993300000000005
 30
0.0
 70
    32
  0
VERTEX
  5
494
  8
図枠
 10
64.451700000000002
 20
-65.006500000000003
 30
0.0
 70
    32
  0
VERTEX
  5
495
  8
図枠
 10
64.466200000000001
 20
-65.0197
 30
0.0
 70
    32
  0
VERTEX
  5
496
  8
図枠
 10
64.480599999999995
 20
-65.032899999999984
 30
0.0
 70
    32
  0
VERTEX
  5
497
  8
図枠
 10
64.495099999999994
 20
-65.046099999999996
 30
0.0
 70
    32
  0
VERTEX
  5
498
  8
図枠
 10
64.509500000000003
 20
-65.059299999999993
 30
0.0
 70
    32
  0
VERTEX
  5
499
  8
図枠
 10
64.524000000000001
 20
-65.072500000000005
 30
0.0
 70
    32
  0
VERTEX
  5
49A
  8
図枠
 10
64.538499999999999
 20
-65.085700000000003
 30
0.0
 70
    32
  0
VERTEX
  5
49B
  8
図枠
 10
64.552899999999994
 20
-65.098799999999983
 30
0.0
 70
    32
  0
VERTEX
  5
49C
  8
図枠
 10
64.567400000000006
 20
-65.111999999999995
 30
0.0
 70
    32
  0
VERTEX
  5
49D
  8
図枠
 10
64.581900000000005
 20
-65.125200000000007
 30
0.0
 70
    32
  0
VERTEX
  5
49E
  8
図枠
 10
64.596400000000003
 20
-65.138300000000001
 30
0.0
 70
    32
  0
VERTEX
  5
49F
  8
図枠
 10
64.610900000000001
 20
-65.151399999999995
 30
0.0
 70
    32
  0
VERTEX
  5
4A0
  8
図枠
 10
64.625299999999996
 20
-65.164599999999993
 30
0.0
 70
    32
  0
VERTEX
  5
4A1
  8
図枠
 10
64.639799999999994
 20
-65.177700000000002
 30
0.0
 70
    32
  0
VERTEX
  5
4A2
  8
図枠
 10
64.654300000000006
 20
-65.190799999999996
 30
0.0
 70
    32
  0
VERTEX
  5
4A3
  8
図枠
 10
64.668899999999994
 20
-65.203900000000004
 30
0.0
 70
    32
  0
VERTEX
  5
4A4
  8
図枠
 10
64.683400000000006
 20
-65.216999999999999
 30
0.0
 70
    32
  0
VERTEX
  5
4A5
  8
図枠
 10
64.697900000000004
 20
-65.230000000000004
 30
0.0
 70
    32
  0
VERTEX
  5
4A6
  8
図枠
 10
64.712400000000002
 20
-65.243099999999984
 30
0.0
 70
    32
  0
VERTEX
  5
4A7
  8
図枠
 10
64.726900000000001
 20
-65.256200000000007
 30
0.0
 70
    32
  0
VERTEX
  5
4A8
  8
図枠
 10
64.741500000000002
 20
-65.269199999999998
 30
0.0
 70
    32
  0
VERTEX
  5
4A9
  8
図枠
 10
64.756
 20
-65.282200000000003
 30
0.0
 70
    32
  0
VERTEX
  5
4AA
  8
図枠
 10
64.770600000000002
 20
-65.295299999999997
 30
0.0
 70
    32
  0
VERTEX
  5
4AB
  8
図枠
 10
64.785099999999986
 20
-65.308300000000003
 30
0.0
 70
    32
  0
VERTEX
  5
4AC
  8
図枠
 10
64.799700000000001
 20
-65.321299999999994
 30
0.0
 70
    32
  0
VERTEX
  5
4AD
  8
図枠
 10
64.814300000000003
 20
-65.334199999999996
 30
0.0
 70
    32
  0
VERTEX
  5
4AE
  8
図枠
 10
64.828800000000001
 20
-65.347200000000001
 30
0.0
 70
    32
  0
VERTEX
  5
4AF
  8
図枠
 10
64.843400000000003
 20
-65.360200000000006
 30
0.0
 70
    32
  0
VERTEX
  5
4B0
  8
図枠
 10
64.858000000000004
 20
-65.373099999999994
 30
0.0
 70
    32
  0
VERTEX
  5
4B1
  8
図枠
 10
64.872600000000006
 20
-65.385999999999996
 30
0.0
 70
    32
  0
VERTEX
  5
4B2
  8
図枠
 10
64.887200000000007
 20
-65.399000000000001
 30
0.0
 70
    32
  0
VERTEX
  5
4B3
  8
図枠
 10
64.901799999999994
 20
-65.411900000000003
 30
0.0
 70
    32
  0
VERTEX
  5
4B4
  8
図枠
 10
64.916399999999996
 20
-65.424700000000001
 30
0.0
 70
    32
  0
VERTEX
  5
4B5
  8
図枠
 10
64.931100000000001
 20
-65.437600000000003
 30
0.0
 70
    32
  0
VERTEX
  5
4B6
  8
図枠
 10
64.945700000000002
 20
-65.450500000000005
 30
0.0
 70
    32
  0
VERTEX
  5
4B7
  8
図枠
 10
64.960400000000007
 20
-65.463300000000004
 30
0.0
 70
    32
  0
VERTEX
  5
4B8
  8
図枠
 10
64.974999999999994
 20
-65.476100000000002
 30
0.0
 70
    32
  0
VERTEX
  5
4B9
  8
図枠
 10
64.989699999999985
 20
-65.488900000000001
 30
0.0
 70
    32
  0
VERTEX
  5
4BA
  8
図枠
 10
65.004400000000004
 20
-65.5017
 30
0.0
 70
    32
  0
VERTEX
  5
4BB
  8
図枠
 10
65.019000000000005
 20
-65.514499999999984
 30
0.0
 70
    32
  0
VERTEX
  5
4BC
  8
図枠
 10
65.033699999999996
 20
-65.527299999999997
 30
0.0
 70
    32
  0
VERTEX
  5
4BD
  8
図枠
 10
65.048400000000001
 20
-65.540000000000006
 30
0.0
 70
    32
  0
VERTEX
  5
4BE
  8
図枠
 10
65.063100000000006
 20
-65.552700000000002
 30
0.0
 70
    32
  0
VERTEX
  5
4BF
  8
図枠
 10
65.077799999999996
 20
-65.565399999999997
 30
0.0
 70
    32
  0
VERTEX
  5
4C0
  8
図枠
 10
65.092600000000004
 20
-65.578100000000006
 30
0.0
 70
    32
  0
VERTEX
  5
4C1
  8
図枠
 10
65.107299999999995
 20
-65.590800000000002
 30
0.0
 70
    32
  0
VERTEX
  5
4C2
  8
図枠
 10
65.122100000000003
 20
-65.603399999999993
 30
0.0
 70
    32
  0
VERTEX
  5
4C3
  8
図枠
 10
65.136799999999994
 20
-65.616100000000003
 30
0.0
 70
    32
  0
VERTEX
  5
4C4
  8
図枠
 10
65.151600000000002
 20
-65.628699999999995
 30
0.0
 70
    32
  0
VERTEX
  5
4C5
  8
図枠
 10
65.166399999999996
 20
-65.641300000000001
 30
0.0
 70
    32
  0
VERTEX
  5
4C6
  8
図枠
 10
65.181200000000004
 20
-65.653800000000004
 30
0.0
 70
    32
  0
VERTEX
  5
4C7
  8
図枠
 10
65.195999999999998
 20
-65.666399999999996
 30
0.0
 70
    32
  0
VERTEX
  5
4C8
  8
図枠
 10
65.210800000000006
 20
-65.678899999999999
 30
0.0
 70
    32
  0
VERTEX
  5
4C9
  8
図枠
 10
65.2256
 20
-65.691500000000005
 30
0.0
 70
    32
  0
VERTEX
  5
4CA
  8
図枠
 10
65.240399999999994
 20
-65.703900000000004
 30
0.0
 70
    32
  0
VERTEX
  5
4CB
  8
図枠
 10
65.255300000000005
 20
-65.716399999999993
 30
0.0
 70
    32
  0
VERTEX
  5
4CC
  8
図枠
 10
65.270099999999999
 20
-65.728899999999996
 30
0.0
 70
    32
  0
VERTEX
  5
4CD
  8
図枠
 10
65.284999999999997
 20
-65.741299999999995
 30
0.0
 70
    32
  0
VERTEX
  5
4CE
  8
図枠
 10
65.299899999999994
 20
-65.753699999999995
 30
0.0
 70
    32
  0
VERTEX
  5
4CF
  8
図枠
 10
65.314800000000005
 20
-65.766099999999994
 30
0.0
 70
    32
  0
VERTEX
  5
4D0
  8
図枠
 10
65.329700000000003
 20
-65.778499999999994
 30
0.0
 70
    32
  0
VERTEX
  5
4D1
  8
図枠
 10
65.3446
 20
-65.790800000000004
 30
0.0
 70
    32
  0
VERTEX
  5
4D2
  8
図枠
 10
65.359499999999997
 20
-65.803100000000001
 30
0.0
 70
    32
  0
VERTEX
  5
4D3
  8
図枠
 10
65.374499999999983
 20
-65.815399999999997
 30
0.0
 70
    32
  0
VERTEX
  5
4D4
  8
図枠
 10
65.389399999999995
 20
-65.827699999999993
 30
0.0
 70
    32
  0
VERTEX
  5
4D5
  8
図枠
 10
65.404399999999995
 20
-65.8399
 30
0.0
 70
    32
  0
VERTEX
  5
4D6
  8
図枠
 10
65.419399999999996
 20
-65.852099999999993
 30
0.0
 70
    32
  0
VERTEX
  5
4D7
  8
図枠
 10
65.434399999999997
 20
-65.8643
 30
0.0
 70
    32
  0
VERTEX
  5
4D8
  8
図枠
 10
65.449399999999997
 20
-65.876499999999993
 30
0.0
 70
    32
  0
VERTEX
  5
4D9
  8
図枠
 10
65.464399999999998
 20
-65.8887
 30
0.0
 70
    32
  0
VERTEX
  5
4DA
  8
図枠
 10
65.479399999999998
 20
-65.900800000000004
 30
0.0
 70
    32
  0
VERTEX
  5
4DB
  8
図枠
 10
65.494500000000002
 20
-65.912899999999993
 30
0.0
 70
    32
  0
VERTEX
  5
4DC
  8
図枠
 10
65.509500000000003
 20
-65.924999999999997
 30
0.0
 70
    32
  0
VERTEX
  5
4DD
  8
図枠
 10
65.524600000000007
 20
-65.936999999999998
 30
0.0
 70
    32
  0
VERTEX
  5
4DE
  8
図枠
 10
65.539699999999996
 20
-65.948999999999984
 30
0.0
 70
    32
  0
VERTEX
  5
4DF
  8
図枠
 10
65.5548
 20
-65.960999999999984
 30
0.0
 70
    32
  0
VERTEX
  5
4E0
  8
図枠
 10
65.569900000000004
 20
-65.972999999999999
 30
0.0
 70
    32
  0
VERTEX
  5
4E1
  8
図枠
 10
65.584999999999994
 20
-65.984899999999996
 30
0.0
 70
    32
  0
VERTEX
  5
4E2
  8
図枠
 10
65.600200000000001
 20
-65.996799999999993
 30
0.0
 70
    32
  0
VERTEX
  5
4E3
  8
図枠
 10
65.615399999999994
 20
-66.008700000000005
 30
0.0
 70
    32
  0
VERTEX
  5
4E4
  8
図枠
 10
65.630499999999998
 20
-66.020600000000002
 30
0.0
 70
    32
  0
VERTEX
  5
4E5
  8
図枠
 10
65.645700000000005
 20
-66.032399999999996
 30
0.0
 70
    32
  0
VERTEX
  5
4E6
  8
図枠
 10
65.660899999999984
 20
-66.044200000000004
 30
0.0
 70
    32
  0
VERTEX
  5
4E7
  8
図枠
 10
65.676199999999994
 20
-66.055999999999983
 30
0.0
 70
    32
  0
VERTEX
  5
4E8
  8
図枠
 10
65.691400000000002
 20
-66.067700000000002
 30
0.0
 70
    32
  0
VERTEX
  5
4E9
  8
図枠
 10
65.706699999999984
 20
-66.079400000000007
 30
0.0
 70
    32
  0
VERTEX
  5
4EA
  8
図枠
 10
65.721900000000005
 20
-66.091099999999997
 30
0.0
 70
    32
  0
VERTEX
  5
4EB
  8
図枠
 10
65.737200000000001
 20
-66.102800000000002
 30
0.0
 70
    32
  0
VERTEX
  5
4EC
  8
図枠
 10
65.752499999999998
 20
-66.114400000000003
 30
0.0
 70
    32
  0
VERTEX
  5
4ED
  8
図枠
 10
65.767799999999994
 20
-66.126000000000005
 30
0.0
 70
    32
  0
VERTEX
  5
4EE
  8
図枠
 10
65.783199999999994
 20
-66.137500000000003
 30
0.0
 70
    32
  0
VERTEX
  5
4EF
  8
図枠
 10
65.798500000000004
 20
-66.149100000000004
 30
0.0
 70
    32
  0
VERTEX
  5
4F0
  8
図枠
 10
65.813900000000004
 20
-66.160600000000002
 30
0.0
 70
    32
  0
VERTEX
  5
4F1
  8
図枠
 10
65.829300000000003
 20
-66.171999999999997
 30
0.0
 70
    32
  0
VERTEX
  5
4F2
  8
図枠
 10
65.844700000000003
 20
-66.183499999999995
 30
0.0
 70
    32
  0
VERTEX
  5
4F3
  8
図枠
 10
65.860100000000003
 20
-66.194900000000004
 30
0.0
 70
    32
  0
VERTEX
  5
4F4
  8
図枠
 10
65.875600000000006
 20
-66.206299999999999
 30
0.0
 70
    32
  0
VERTEX
  5
4F5
  8
図枠
 10
65.891000000000005
 20
-66.217600000000004
 30
0.0
 70
    32
  0
VERTEX
  5
4F6
  8
図枠
 10
65.906499999999994
 20
-66.228899999999996
 30
0.0
 70
    32
  0
VERTEX
  5
4F7
  8
図枠
 10
65.921999999999997
 20
-66.240200000000002
 30
0.0
 70
    32
  0
VERTEX
  5
4F8
  8
図枠
 10
65.9375
 20
-66.251400000000004
 30
0.0
 70
    32
  0
VERTEX
  5
4F9
  8
図枠
 10
65.953000000000003
 20
-66.262600000000006
 30
0.0
 70
    32
  0
VERTEX
  5
4FA
  8
図枠
 10
65.968599999999995
 20
-66.273799999999994
 30
0.0
 70
    32
  0
VERTEX
  5
4FB
  8
図枠
 10
65.984099999999998
 20
-66.284899999999993
 30
0.0
 70
    32
  0
VERTEX
  5
4FC
  8
図枠
 10
65.999700000000004
 20
-66.296000000000006
 30
0.0
 70
    32
  0
VERTEX
  5
4FD
  8
図枠
 10
66.015299999999996
 20
-66.307100000000005
 30
0.0
 70
    32
  0
VERTEX
  5
4FE
  8
図枠
 10
66.030900000000003
 20
-66.318100000000001
 30
0.0
 70
    32
  0
VERTEX
  5
4FF
  8
図枠
 10
66.046599999999984
 20
-66.329099999999997
 30
0.0
 70
    32
  0
VERTEX
  5
500
  8
図枠
 10
66.062200000000004
 20
-66.340100000000007
 30
0.0
 70
    32
  0
VERTEX
  5
501
  8
図枠
 10
66.0779
 20
-66.350999999999999
 30
0.0
 70
    32
  0
VERTEX
  5
502
  8
図枠
 10
66.093599999999995
 20
-66.361900000000006
 30
0.0
 70
    32
  0
VERTEX
  5
503
  8
図枠
 10
66.109300000000005
 20
-66.372799999999998
 30
0.0
 70
    32
  0
VERTEX
  5
504
  8
図枠
 10
66.125100000000003
 20
-66.383600000000001
 30
0.0
 70
    32
  0
VERTEX
  5
505
  8
図枠
 10
66.140799999999999
 20
-66.394400000000005
 30
0.0
 70
    32
  0
VERTEX
  5
506
  8
図枠
 10
66.156599999999997
 20
-66.405100000000004
 30
0.0
 70
    32
  0
VERTEX
  5
507
  8
図枠
 10
66.172399999999996
 20
-66.415800000000004
 30
0.0
 70
    32
  0
VERTEX
  5
508
  8
図枠
 10
66.188199999999995
 20
-66.426500000000004
 30
0.0
 70
    32
  0
VERTEX
  5
509
  8
図枠
 10
66.204099999999997
 20
-66.437100000000001
 30
0.0
 70
    32
  0
VERTEX
  5
50A
  8
図枠
 10
66.219999999999985
 20
-66.447699999999998
 30
0.0
 70
    32
  0
VERTEX
  5
50B
  8
図枠
 10
66.235799999999998
 20
-66.458299999999994
 30
0.0
 70
    32
  0
VERTEX
  5
50C
  8
図枠
 10
66.2517
 20
-66.468800000000002
 30
0.0
 70
    32
  0
VERTEX
  5
50D
  8
図枠
 10
66.267700000000005
 20
-66.479299999999995
 30
0.0
 70
    32
  0
VERTEX
  5
50E
  8
図枠
 10
66.283600000000007
 20
-66.489699999999999
 30
0.0
 70
    32
  0
VERTEX
  5
50F
  8
図枠
 10
66.299599999999998
 20
-66.500100000000003
 30
0.0
 70
    32
  0
VERTEX
  5
510
  8
図枠
 10
66.315600000000003
 20
-66.510400000000004
 30
0.0
 70
    32
  0
VERTEX
  5
511
  8
図枠
 10
66.331599999999995
 20
-66.520799999999994
 30
0.0
 70
    32
  0
VERTEX
  5
512
  8
図枠
 10
66.347599999999986
 20
-66.531000000000006
 30
0.0
 70
    32
  0
VERTEX
  5
513
  8
図枠
 10
66.363699999999994
 20
-66.541300000000007
 30
0.0
 70
    32
  0
VERTEX
  5
514
  8
図枠
 10
66.379800000000003
 20
-66.551500000000004
 30
0.0
 70
    32
  0
VERTEX
  5
515
  8
図枠
 10
66.395899999999997
 20
-66.561599999999984
 30
0.0
 70
    32
  0
VERTEX
  5
516
  8
図枠
 10
66.412000000000006
 20
-66.571700000000007
 30
0.0
 70
    32
  0
VERTEX
  5
517
  8
図枠
 10
66.428100000000001
 20
-66.581800000000001
 30
0.0
 70
    32
  0
VERTEX
  5
518
  8
図枠
 10
66.444299999999984
 20
-66.591800000000006
 30
0.0
 70
    32
  0
VERTEX
  5
519
  8
図枠
 10
66.460499999999996
 20
-66.601799999999997
 30
0.0
 70
    32
  0
VERTEX
  5
51A
  8
図枠
 10
66.476699999999994
 20
-66.611699999999999
 30
0.0
 70
    32
  0
VERTEX
  5
51B
  8
図枠
 10
66.492900000000006
 20
-66.621600000000001
 30
0.0
 70
    32
  0
VERTEX
  5
51C
  8
図枠
 10
66.509200000000007
 20
-66.631500000000003
 30
0.0
 70
    32
  0
VERTEX
  5
51D
  8
図枠
 10
66.525499999999994
 20
-66.641300000000001
 30
0.0
 70
    32
  0
SEQEND
  5
51E
  8
図枠
  0
POLYLINE
  5
51F
  8
図枠
 66
     1
 10
0.0
 20
0.0
 30
0.0
 70
     8
  0
VERTEX
  5
520
  8
図枠
 10
68.501099999999994
 20
-67.508200000000002
 30
0.0
 70
    32
  0
VERTEX
  5
521
  8
図枠
 10
68.522599999999997
 20
-67.515100000000004
 30
0.0
 70
    32
  0
VERTEX
  5
522
  8
図枠
 10
68.544200000000004
 20
-67.521900000000002
 30
0.0
 70
    32
  0
VERTEX
  5
523
  8
図枠
 10
68.565799999999996
 20
-67.528700000000001
 30
0.0
 70
    32
  0
VERTEX
  5
524
  8
図枠
 10
68.587299999999999
 20
-67.535499999999999
 30
0.0
 70
    32
  0
VERTEX
  5
525
  8
図枠
 10
68.608900000000006
 20
-67.542199999999994
 30
0.0
 70
    32
  0
VERTEX
  5
526
  8
図枠
 10
68.630600000000001
 20
-67.548900000000003
 30
0.0
 70
    32
  0
VERTEX
  5
527
  8
図枠
 10
68.652199999999993
 20
-67.555599999999998
 30
0.0
 70
    32
  0
VERTEX
  5
528
  8
図枠
 10
68.673900000000003
 20
-67.562200000000004
 30
0.0
 70
    32
  0
VERTEX
  5
529
  8
図枠
 10
68.695499999999996
 20
-67.568799999999996
 30
0.0
 70
    32
  0
VERTEX
  5
52A
  8
図枠
 10
68.717200000000005
 20
-67.575400000000002
 30
0.0
 70
    32
  0
VERTEX
  5
52B
  8
図枠
 10
68.738900000000001
 20
-67.581999999999994
 30
0.0
 70
    32
  0
VERTEX
  5
52C
  8
図枠
 10
68.7607
 20
-67.588499999999996
 30
0.0
 70
    32
  0
VERTEX
  5
52D
  8
図枠
 10
68.782399999999996
 20
-67.594899999999996
 30
0.0
 70
    32
  0
VERTEX
  5
52E
  8
図枠
 10
68.804199999999994
 20
-67.601399999999984
 30
0.0
 70
    32
  0
VERTEX
  5
52F
  8
図枠
 10
68.825999999999993
 20
-67.607799999999997
 30
0.0
 70
    32
  0
VERTEX
  5
530
  8
図枠
 10
68.847700000000003
 20
-67.614199999999997
 30
0.0
 70
    32
  0
VERTEX
  5
531
  8
図枠
 10
68.869600000000005
 20
-67.620599999999996
 30
0.0
 70
    32
  0
VERTEX
  5
532
  8
図枠
 10
68.891400000000004
 20
-67.626900000000006
 30
0.0
 70
    32
  0
VERTEX
  5
533
  8
図枠
 10
68.913200000000003
 20
-67.633200000000002
 30
0.0
 70
    32
  0
VERTEX
  5
534
  8
図枠
 10
68.935100000000006
 20
-67.639399999999995
 30
0.0
 70
    32
  0
VERTEX
  5
535
  8
図枠
 10
68.956900000000005
 20
-67.645700000000005
 30
0.0
 70
    32
  0
VERTEX
  5
536
  8
図枠
 10
68.978800000000007
 20
-67.651899999999998
 30
0.0
 70
    32
  0
VERTEX
  5
537
  8
図枠
 10
69.000699999999995
 20
-67.658100000000005
 30
0.0
 70
    32
  0
VERTEX
  5
538
  8
図枠
 10
69.0227
 20
-67.664199999999994
 30
0.0
 70
    32
  0
VERTEX
  5
539
  8
図枠
 10
69.044600000000003
 20
-67.670400000000001
 30
0.0
 70
    32
  0
VERTEX
  5
53A
  8
図枠
 10
69.066500000000005
 20
-67.676500000000004
 30
0.0
 70
    32
  0
VERTEX
  5
53B
  8
図枠
 10
69.088499999999996
 20
-67.682500000000005
 30
0.0
 70
    32
  0
VERTEX
  5
53C
  8
図枠
 10
69.110500000000002
 20
-67.688599999999994
 30
0.0
 70
    32
  0
VERTEX
  5
53D
  8
図枠
 10
69.132499999999993
 20
-67.694599999999994
 30
0.0
 70
    32
  0
VERTEX
  5
53E
  8
図枠
 10
69.154499999999985
 20
-67.700599999999994
 30
0.0
 70
    32
  0
VERTEX
  5
53F
  8
図枠
 10
69.176500000000004
 20
-67.706599999999995
 30
0.0
 70
    32
  0
VERTEX
  5
540
  8
図枠
 10
69.198499999999996
 20
-67.712500000000006
 30
0.0
 70
    32
  0
VERTEX
  5
541
  8
図枠
 10
69.220600000000005
 20
-67.718400000000003
 30
0.0
 70
    32
  0
VERTEX
  5
542
  8
図枠
 10
69.242599999999996
 20
-67.724299999999985
 30
0.0
 70
    32
  0
VERTEX
  5
543
  8
図枠
 10
69.264700000000005
 20
-67.730199999999996
 30
0.0
 70
    32
  0
VERTEX
  5
544
  8
図枠
 10
69.286799999999985
 20
-67.736000000000004
 30
0.0
 70
    32
  0
VERTEX
  5
545
  8
図枠
 10
69.308899999999994
 20
-67.741900000000001
 30
0.0
 70
    32
  0
VERTEX
  5
546
  8
図枠
 10
69.331000000000003
 20
-67.747600000000006
 30
0.0
 70
    32
  0
VERTEX
  5
547
  8
図枠
 10
69.353099999999998
 20
-67.753399999999985
 30
0.0
 70
    32
  0
VERTEX
  5
548
  8
図枠
 10
69.375299999999996
 20
-67.759200000000007
 30
0.0
 70
    32
  0
VERTEX
  5
549
  8
図枠
 10
69.397400000000005
 20
-67.764899999999983
 30
0.0
 70
    32
  0
VERTEX
  5
54A
  8
図枠
 10
69.419600000000003
 20
-67.770600000000002
 30
0.0
 70
    32
  0
VERTEX
  5
54B
  8
図枠
 10
69.441800000000001
 20
-67.776300000000006
 30
0.0
 70
    32
  0
VERTEX
  5
54C
  8
図枠
 10
69.463899999999995
 20
-67.781899999999993
 30
0.0
 70
    32
  0
VERTEX
  5
54D
  8
図枠
 10
69.486099999999993
 20
-67.787499999999994
 30
0.0
 70
    32
  0
VERTEX
  5
54E
  8
図枠
 10
69.508399999999995
 20
-67.793199999999999
 30
0.0
 70
    32
  0
VERTEX
  5
54F
  8
図枠
 10
69.530600000000007
 20
-67.798699999999997
 30
0.0
 70
    32
  0
VERTEX
  5
550
  8
図枠
 10
69.552800000000005
 20
-67.804299999999984
 30
0.0
 70
    32
  0
VERTEX
  5
551
  8
図枠
 10
69.575100000000006
 20
-67.809899999999999
 30
0.0
 70
    32
  0
VERTEX
  5
552
  8
図枠
 10
69.597300000000004
 20
-67.815399999999997
 30
0.0
 70
    32
  0
VERTEX
  5
553
  8
図枠
 10
69.619600000000005
 20
-67.820899999999995
 30
0.0
 70
    32
  0
VERTEX
  5
554
  8
図枠
 10
69.641900000000007
 20
-67.826400000000007
 30
0.0
 70
    32
  0
VERTEX
  5
555
  8
図枠
 10
69.664199999999994
 20
-67.831800000000001
 30
0.0
 70
    32
  0
VERTEX
  5
556
  8
図枠
 10
69.686499999999995
 20
-67.837299999999999
 30
0.0
 70
    32
  0
VERTEX
  5
557
  8
図枠
 10
69.708799999999997
 20
-67.842699999999994
 30
0.0
 70
    32
  0
VERTEX
  5
558
  8
図枠
 10
69.731099999999998
 20
-67.848100000000002
 30
0.0
 70
    32
  0
VERTEX
  5
559
  8
図枠
 10
69.753399999999999
 20
-67.853499999999997
 30
0.0
 70
    32
  0
VERTEX
  5
55A
  8
図枠
 10
69.775800000000004
 20
-67.858900000000006
 30
0.0
 70
    32
  0
VERTEX
  5
55B
  8
図枠
 10
69.798100000000005
 20
-67.864199999999997
 30
0.0
 70
    32
  0
VERTEX
  5
55C
  8
図枠
 10
69.820499999999996
 20
-67.869500000000002
 30
0.0
 70
    32
  0
VERTEX
  5
55D
  8
図枠
 10
69.8429
 20
-67.874799999999993
 30
0.0
 70
    32
  0
VERTEX
  5
55E
  8
図枠
 10
69.865300000000005
 20
-67.880099999999985
 30
0.0
 70
    32
  0
VERTEX
  5
55F
  8
図枠
 10
69.887699999999995
 20
-67.885400000000004
 30
0.0
 70
    32
  0
VERTEX
  5
560
  8
図枠
 10
69.9101
 20
-67.890699999999995
 30
0.0
 70
    32
  0
VERTEX
  5
561
  8
図枠
 10
69.932500000000005
 20
-67.895899999999997
 30
0.0
 70
    32
  0
VERTEX
  5
562
  8
図枠
 10
69.954899999999995
 20
-67.9011
 30
0.0
 70
    32
  0
VERTEX
  5
563
  8
図枠
 10
69.9773
 20
-67.906400000000005
 30
0.0
 70
    32
  0
VERTEX
  5
564
  8
図枠
 10
69.999799999999993
 20
-67.911500000000004
 30
0.0
 70
    32
  0
VERTEX
  5
565
  8
図枠
 10
70.022199999999998
 20
-67.916700000000006
 30
0.0
 70
    32
  0
VERTEX
  5
566
  8
図枠
 10
70.044700000000006
 20
-67.921899999999994
 30
0.0
 70
    32
  0
VERTEX
  5
567
  8
図枠
 10
70.067099999999996
 20
-67.927000000000007
 30
0.0
 70
    32
  0
VERTEX
  5
568
  8
図枠
 10
70.089600000000004
 20
-67.932199999999995
 30
0.0
 70
    32
  0
VERTEX
  5
569
  8
図枠
 10
70.112099999999998
 20
-67.937299999999993
 30
0.0
 70
    32
  0
VERTEX
  5
56A
  8
図枠
 10
70.134600000000006
 20
-67.942400000000006
 30
0.0
 70
    32
  0
VERTEX
  5
56B
  8
図枠
 10
70.1571
 20
-67.947500000000005
 30
0.0
 70
    32
  0
VERTEX
  5
56C
  8
図枠
 10
70.179599999999994
 20
-67.952500000000001
 30
0.0
 70
    32
  0
VERTEX
  5
56D
  8
図枠
 10
70.202100000000002
 20
-67.957599999999999
 30
0.0
 70
    32
  0
VERTEX
  5
56E
  8
図枠
 10
70.224599999999995
 20
-67.962699999999984
 30
0.0
 70
    32
  0
VERTEX
  5
56F
  8
図枠
 10
70.247100000000003
 20
-67.967699999999994
 30
0.0
 70
    32
  0
VERTEX
  5
570
  8
図枠
 10
70.269599999999997
 20
-67.972700000000003
 30
0.0
 70
    32
  0
VERTEX
  5
571
  8
図枠
 10
70.292199999999994
 20
-67.977699999999984
 30
0.0
 70
    32
  0
VERTEX
  5
572
  8
図枠
 10
70.314700000000002
 20
-67.982699999999994
 30
0.0
 70
    32
  0
VERTEX
  5
573
  8
図枠
 10
70.337299999999999
 20
-67.987700000000004
 30
0.0
 70
    32
  0
VERTEX
  5
574
  8
図枠
 10
70.359800000000007
 20
-67.992699999999985
 30
0.0
 70
    32
  0
VERTEX
  5
575
  8
図枠
 10
70.382400000000004
 20
-67.997600000000006
 30
0.0
 70
    32
  0
VERTEX
  5
576
  8
図枠
 10
70.405000000000001
 20
-68.002600000000001
 30
0.0
 70
    32
  0
VERTEX
  5
577
  8
図枠
 10
70.427499999999995
 20
-68.007499999999993
 30
0.0
 70
    32
  0
VERTEX
  5
578
  8
図枠
 10
70.450100000000006
 20
-68.012399999999985
 30
0.0
 70
    32
  0
VERTEX
  5
579
  8
図枠
 10
70.472700000000003
 20
-68.017399999999995
 30
0.0
 70
    32
  0
VERTEX
  5
57A
  8
図枠
 10
70.4953
 20
-68.022300000000001
 30
0.0
 70
    32
  0
VERTEX
  5
57B
  8
図枠
 10
70.517899999999997
 20
-68.027199999999993
 30
0.0
 70
    32
  0
VERTEX
  5
57C
  8
図枠
 10
70.540499999999994
 20
-68.032099999999986
 30
0.0
 70
    32
  0
VERTEX
  5
57D
  8
図枠
 10
70.563100000000006
 20
-68.036900000000003
 30
0.0
 70
    32
  0
VERTEX
  5
57E
  8
図枠
 10
70.585700000000003
 20
-68.041799999999995
 30
0.0
 70
    32
  0
VERTEX
  5
57F
  8
図枠
 10
70.6083
 20
-68.046700000000001
 30
0.0
 70
    32
  0
VERTEX
  5
580
  8
図枠
 10
70.631
 20
-68.051500000000004
 30
0.0
 70
    32
  0
VERTEX
  5
581
  8
図枠
 10
70.653599999999997
 20
-68.056399999999996
 30
0.0
 70
    32
  0
VERTEX
  5
582
  8
図枠
 10
70.676199999999994
 20
-68.061199999999985
 30
0.0
 70
    32
  0
VERTEX
  5
583
  8
図枠
 10
70.698899999999995
 20
-68.066000000000003
 30
0.0
 70
    32
  0
VERTEX
  5
584
  8
図枠
 10
70.721500000000006
 20
-68.070800000000006
 30
0.0
 70
    32
  0
VERTEX
  5
585
  8
図枠
 10
70.744100000000003
 20
-68.075599999999994
 30
0.0
 70
    32
  0
VERTEX
  5
586
  8
図枠
 10
70.766800000000003
 20
-68.080500000000001
 30
0.0
 70
    32
  0
VERTEX
  5
587
  8
図枠
 10
70.789400000000001
 20
-68.085300000000004
 30
0.0
 70
    32
  0
VERTEX
  5
588
  8
図枠
 10
70.812100000000001
 20
-68.090000000000003
 30
0.0
 70
    32
  0
VERTEX
  5
589
  8
図枠
 10
70.834800000000001
 20
-68.094800000000006
 30
0.0
 70
    32
  0
VERTEX
  5
58A
  8
図枠
 10
70.857399999999998
 20
-68.099599999999995
 30
0.0
 70
    32
  0
VERTEX
  5
58B
  8
図枠
 10
70.880099999999999
 20
-68.104399999999984
 30
0.0
 70
    32
  0
VERTEX
  5
58C
  8
図枠
 10
70.902699999999996
 20
-68.109200000000001
 30
0.0
 70
    32
  0
VERTEX
  5
58D
  8
図枠
 10
70.925399999999996
 20
-68.113900000000001
 30
0.0
 70
    32
  0
VERTEX
  5
58E
  8
図枠
 10
70.948099999999997
 20
-68.118700000000004
 30
0.0
 70
    32
  0
VERTEX
  5
58F
  8
図枠
 10
70.970799999999997
 20
-68.123400000000004
 30
0.0
 70
    32
  0
VERTEX
  5
590
  8
図枠
 10
70.993399999999994
 20
-68.128200000000007
 30
0.0
 70
    32
  0
VERTEX
  5
591
  8
図枠
 10
71.016099999999994
 20
-68.132900000000006
 30
0.0
 70
    32
  0
VERTEX
  5
592
  8
図枠
 10
71.038799999999995
 20
-68.137699999999995
 30
0.0
 70
    32
  0
VERTEX
  5
593
  8
図枠
 10
71.061499999999995
 20
-68.142399999999995
 30
0.0
 70
    32
  0
VERTEX
  5
594
  8
図枠
 10
71.084199999999996
 20
-68.147099999999995
 30
0.0
 70
    32
  0
VERTEX
  5
595
  8
図枠
 10
71.106899999999996
 20
-68.151899999999998
 30
0.0
 70
    32
  0
VERTEX
  5
596
  8
図枠
 10
71.129499999999993
 20
-68.156599999999997
 30
0.0
 70
    32
  0
VERTEX
  5
597
  8
図枠
 10
71.152199999999993
 20
-68.161299999999997
 30
0.0
 70
    32
  0
VERTEX
  5
598
  8
図枠
 10
71.174899999999994
 20
-68.1661
 30
0.0
 70
    32
  0
VERTEX
  5
599
  8
図枠
 10
71.197599999999994
 20
-68.1708
 30
0.0
 70
    32
  0
VERTEX
  5
59A
  8
図枠
 10
71.220299999999995
 20
-68.1755
 30
0.0
 70
    32
  0
VERTEX
  5
59B
  8
図枠
 10
71.242999999999995
 20
-68.180199999999999
 30
0.0
 70
    32
  0
VERTEX
  5
59C
  8
図枠
 10
71.265699999999995
 20
-68.185000000000002
 30
0.0
 70
    32
  0
VERTEX
  5
59D
  8
図枠
 10
71.288399999999996
 20
-68.189700000000002
 30
0.0
 70
    32
  0
VERTEX
  5
59E
  8
図枠
 10
71.311099999999996
 20
-68.194400000000002
 30
0.0
 70
    32
  0
VERTEX
  5
59F
  8
図枠
 10
71.333799999999997
 20
-68.199100000000001
 30
0.0
 70
    32
  0
SEQEND
  5
5A0
  8
図枠
  0
ARC
  5
11D
  8
図枠
 10
66.134307270600004
 20
-63.799546103699988
 30
0.0
 40
4.3995600000000001
 50
322.48761197969998
 51
0.0
  0
LINE
  5
11E
  8
図枠
 10
57.6066752706
 20
-66.999226103699996
 30
0.0
 11
55.206915270600007
 21
-66.999226103699996
 31
0.0
  0
LINE
  5
11F
  8
図枠
 10
84.006833624700008
 20
-44.229641663299986
 30
0.0
 11
84.006833624700008
 21
-69.727091663300001
 31
0.0
  0
LINE
  5
120
  8
ﾚｲﾔ_1
  6
STITCH
 10
-74.624074074099994
 20
12.431445312499999
 30
0.0
 11
-75.374074074099994
 21
12.431445312499999
 31
0.0
  0
LINE
  5
121
  8
ﾚｲﾔ_1
  6
STITCH
 10
-74.624074074099994
 20
6.4314453125000002
 30
0.0
 11
-75.374074074099994
 21
6.4314453125000002
 31
0.0
  0
LINE
  5
122
  8
ﾚｲﾔ_1
  6
STITCH
 10
-72.374074074099994
 20
4.1814453125000002
 30
0.0
 11
-74.624074074099994
 21
6.4314453125000002
 31
0.0
  0
LINE
  5
123
  8
ﾚｲﾔ_1
  6
BORDER
 62
     3
 10
-52.374074074100001
 20
62.43964843749999
 30
0.0
 11
-42.374074074100001
 21
62.43964843749999
 31
0.0
  0
DIMENSION
  5
132
  8
寸法線
  2
*D6
 10
-4.133247395799998
 20
42.439648437499983
 30
0.0
 11
-4.133247395799998
 21
52.43964843749999
 31
0.0
 70
   128
  1
<>
 13
-18.374074074100001
 23
42.439648437499983
 33
0.0
 14
-20.374074074100001
 24
62.43964843749999
 34
0.0
 50
90.0
  0
DIMENSION
  5
141
  8
寸法線
  2
*D7
 10
-15.374074074099999
 20
92.439648437499969
 30
0.0
 11
-20.374074074100001
 21
92.439648437499969
 31
0.0
 70
   128
  1
<>
 13
-15.374074074099999
 23
79.439648437499983
 33
0.0
 14
-25.374074074100001
 24
67.439648437499983
 34
0.0
  0
DIMENSION
  5
150
  8
寸法線
  2
*D8
 10
-25.374074074100001
 20
92.439648437499969
 30
0.0
 11
-36.374074074100001
 21
92.439648437499969
 31
0.0
 70
   128
  1
<>
 13
-25.374074074100001
 23
67.439648437499983
 33
0.0
 14
-47.374074074100001
 24
67.439648437499983
 34
0.0
  0
DIMENSION
  5
15F
  8
寸法線
  2
*D9
 10
-47.374074074100001
 20
92.439648437499969
 30
0.0
 11
-61.374074074100001
 21
92.439648437499969
 31
0.0
 70
   128
  1
<>
 13
-47.374074074100001
 23
67.439648437499983
 33
0.0
 14
-75.374074074099994
 24
82.439648437499969
 34
0.0
  0
DIMENSION
  5
16E
  8
寸法線
  2
*D10
 10
-88.070158119699997
 20
82.439648437499969
 30
0.0
 11
-88.070158119699997
 21
62.43964843749999
 31
0.0
 70
   128
  1
<>
 13
-75.374074074099994
 23
82.439648437499969
 33
0.0
 14
-75.374074074099994
 24
42.439648437499983
 34
0.0
 50
90.0
  0
DIMENSION
  5
17D
  8
寸法線
  2
*D11
 10
-4.133247395799998
 20
62.43964843749999
 30
0.0
 11
-4.133247395799998
 21
72.439648437499983
 31
0.0
 70
   128
  1
<>
 13
-20.374074074100001
 23
62.43964843749999
 33
0.0
 14
-18.374074074100001
 24
82.439648437499969
 34
0.0
 50
90.0
  0
DIMENSION
  5
186
  8
寸法線
  2
*D12
 10
-18.374074074100001
 20
45.43964843749999
 30
0.0
 11
-14.5621093471
 21
34.667513083899998
 31
0.0
 70
   132
  1
4-R <>
 15
-16.2527537305
 25
43.318328093899993
 35
0.0
 40
0.0
  0
DIMENSION
  5
18E
  8
寸法線
  2
*D13
 10
-45.252753730499997
 20
60.318328093899993
 30
0.0
 11
-75.999840447300002
 21
84.620626831599992
 31
0.0
 70
   131
  1
2-%%c <>
 15
-49.495394417599996
 25
64.560968781100001
 35
0.0
 40
0.0
  0
LINE
  5
18F
  8
ﾚｲﾔ_1
 62
     5
 10
20.730801140665591
 20
-5.6512747175042808
 30
0.0
 11
53.134504844365573
 21
-5.6512747175042808
 31
0.0
  0
LINE
  5
190
  8
ﾚｲﾔ_1
 62
     5
 10
20.730801140665591
 20
-2.6512747175042821
 30
0.0
 11
20.730801140665591
 21
-5.6512747175042808
 31
0.0
  0
LINE
  5
191
  8
ﾚｲﾔ_1
 62
     5
 10
32.730801140665591
 20
-4.9012747175042808
 30
0.0
 11
32.730801140665591
 21
-5.6512747175042808
 31
0.0
  0
LINE
  5
192
  8
ﾚｲﾔ_1
 62
     5
 10
30.480801140665591
 20
-2.6512747175042821
 30
0.0
 11
32.730801140665591
 21
-4.9012747175042808
 31
0.0
  0
LINE
  5
193
  8
ﾚｲﾔ_1
 62
     5
 10
40.980801140665591
 20
-2.6512747175042821
 30
0.0
 11
38.730801140665591
 21
-4.9012747175042808
 31
0.0
  0
LINE
  5
194
  8
ﾚｲﾔ_1
 62
     5
 10
38.730801140665591
 20
-4.9012747175042808
 30
0.0
 11
38.730801140665591
 21
-5.6512747175042808
 31
0.0
  0
LINE
  5
195
  8
ﾚｲﾔ_1
 62
     5
 10
38.730801140665591
 20
-4.9012747175042808
 30
0.0
 11
32.730801140665591
 21
-4.9012747175042808
 31
0.0
  0
LINE
  5
196
  8
ﾚｲﾔ_1
 62
     5
 10
20.730801140665591
 20
-2.6512747175042821
 30
0.0
 11
53.134504844365573
 21
-2.6512747175042821
 31
0.0
  0
ARC
  5
1A7
  8
図枠
 10
57.6066752706
 20
-65.799346103700003
 30
0.0
 40
1.1998799999999981
 50
270.0
 51
0.0
  0
LINE
  5
1A8
  8
図枠
 10
77.371940998300005
 20
-63.959530103699997
 30
0.0
 11
80.306875990600005
 21
-63.959530103699997
 31
0.0
  0
LINE
  5
1A9
  8
図枠
 10
75.338181387899979
 20
-47.327331863299989
 30
0.0
 11
79.945720587899999
 21
-46.175447063299998
 31
0.0
  0
INSERT
  5
1AA
  8
0
  6
CONTINUOUS
  2
*U59
 10
0.0
 20
0.0
 30
0.0
  0
LINE
  5
1AB
  8
ﾚｲﾔ_1
  6
STITCH
 10
-50.374074074100001
 20
-17.568554687500001
 30
0.0
 11
-50.374074074100001
 21
-20.568554687500001
 31
0.0
  0
DIMENSION
  5
1BA
  8
寸法線
  2
*D15
 10
-75.374074074099994
 20
-34.751446460700002
 30
0.0
 11
-45.374074074099987
 21
-34.751446460700002
 31
0.0
 70
   128
  1
<>
 13
-75.374074074099994
 23
-16.068554687500001
 33
0.0
 14
-15.374074074099999
 24
-20.568554687500001
 34
0.0
 50
180.0
  0
DIMENSION
  5
1C9
  8
寸法線
  2
*D16
 10
-5.3740740740999993
 20
-20.568554687500001
 30
0.0
 11
-5.3740740740999993
 21
-9.5330378454000009
 31
0.0
 70
   128
  1
3.2t
 13
-15.374074074099999
 23
-20.568554687500001
 33
0.0
 14
-15.374074074099999
 24
-17.568554687500001
 34
0.0
 50
90.0
  0
LINE
  5
1CA
  8
ﾚｲﾔ_1
  6
BORDER
 62
     3
 10
-47.374074074100001
 20
67.439648437499983
 30
0.0
 11
-47.374074074100001
 21
57.43964843749999
 31
0.0
  0
CIRCLE
  5
1CB
  8
ﾚｲﾔ_1
 62
     5
 10
-47.374074074100001
 20
62.43964843749999
 30
0.0
 40
3.0
  0
ARC
  5
1CC
  8
ﾚｲﾔ_1
 62
     5
 10
-18.374074074100001
 20
45.43964843749999
 30
0.0
 40
3.0
 50
270.0
 51
0.0
  0
CIRCLE
  5
1CD
  8
ﾚｲﾔ_1
 62
     5
 10
-25.374074074100001
 20
62.43964843749999
 30
0.0
 40
3.0
  0
LINE
  5
1CE
  8
ﾚｲﾔ_1
  6
BORDER
 62
     3
 10
-25.374074074100001
 20
67.439648437499983
 30
0.0
 11
-25.374074074100001
 21
57.43964843749999
 31
0.0
  0
LINE
  5
1CF
  8
ﾚｲﾔ_1
  6
BORDER
 62
     3
 10
-30.374074074100001
 20
62.43964843749999
 30
0.0
 11
-20.374074074100001
 21
62.43964843749999
 31
0.0
  0
LINE
  5
1D0
  8
ﾚｲﾔ_1
  6
STITCH
 10
-72.374074074099994
 20
57.189648437499997
 30
0.0
 11
-74.624074074099994
 21
59.43964843749999
 31
0.0
  0
LINE
  5
1D1
  8
ﾚｲﾔ_1
  6
STITCH
 10
-74.624074074099994
 20
59.43964843749999
 30
0.0
 11
-75.374074074099994
 21
59.43964843749999
 31
0.0
  0
LINE
  5
1D2
  8
ﾚｲﾔ_1
  6
STITCH
 10
-74.624074074099994
 20
65.439648437499997
 30
0.0
 11
-75.374074074099994
 21
65.439648437499997
 31
0.0
  0
LINE
  5
1D3
  8
ﾚｲﾔ_1
  6
STITCH
 10
-74.624074074099994
 20
59.43964843749999
 30
0.0
 11
-74.624074074099994
 21
65.439648437499997
 31
0.0
  0
LINE
  5
1D4
  8
ﾚｲﾔ_1
  6
STITCH
 10
-72.374074074099994
 20
67.689648437499997
 30
0.0
 11
-74.624074074099994
 21
65.439648437499997
 31
0.0
  0
LINE
  5
1D5
  8
ﾚｲﾔ_1
  6
BORDER
 62
     3
 10
-83.107407407400004
 20
62.43964843749999
 30
0.0
 11
-65.644907407399998
 21
62.43964843749999
 31
0.0
  0
LINE
  5
1D6
  8
ﾚｲﾔ_1
 62
     5
 10
-75.374074074099994
 20
82.439648437499969
 30
0.0
 11
-75.374074074099994
 21
42.439648437499983
 31
0.0
  0
LINE
  5
1D7
  8
ﾚｲﾔ_1
 62
     5
 10
-72.374074074099994
 20
82.439648437499969
 30
0.0
 11
-72.374074074099994
 21
42.439648437499983
 31
0.0
  0
LINE
  5
1D8
  8
ﾚｲﾔ_1
 62
     5
 10
-18.374074074100001
 20
82.439648437499969
 30
0.0
 11
-75.374074074099994
 21
82.439648437499969
 31
0.0
  0
ARC
  5
1D9
  8
ﾚｲﾔ_1
 62
     5
 10
-18.374074074100001
 20
79.439648437499983
 30
0.0
 40
3.0
 50
0.0
 51
90.0
  0
LINE
  5
1DA
  8
ﾚｲﾔ_1
 62
     5
 10
-15.374074074099999
 20
45.43964843749999
 30
0.0
 11
-15.374074074099999
 21
79.439648437499983
 31
0.0
  0
LINE
  5
1DB
  8
ﾚｲﾔ_1
 62
     5
 10
-75.374074074099994
 20
42.439648437499983
 30
0.0
 11
-18.374074074100001
 21
42.439648437499983
 31
0.0
  0
LINE
  5
1DC
  8
ﾚｲﾔ_1
 62
     5
 10
-72.374074074099994
 20
24.431445312499999
 30
0.0
 11
-75.374074074099994
 21
24.431445312499999
 31
0.0
  0
LINE
  5
1DD
  8
ﾚｲﾔ_1
  6
BORDER
 62
     3
 10
-83.107407407400004
 20
9.4314453124999993
 30
0.0
 11
-65.644907407399998
 21
9.4314453124999993
 31
0.0
  0
LINE
  5
1DE
  8
ﾚｲﾔ_1
  6
STITCH
 10
-72.374074074099994
 20
14.681445312499999
 30
0.0
 11
-74.624074074099994
 21
12.431445312499999
 31
0.0
  0
LINE
  5
1DF
  8
ﾚｲﾔ_1
  6
STITCH
 10
-74.624074074099994
 20
6.4314453125000002
 30
0.0
 11
-74.624074074099994
 21
12.431445312499999
 31
0.0
  0
LINE
  5
1E0
  8
図枠
  6
DOT
 10
-140.9706663753
 20
126.0033333367
 30
0.0
 11
146.00063362469999
 21
126.0033333367
 31
0.0
  0
LINE
  5
1E1
  8
図枠
 62
     5
 10
-134.97126637529999
 20
120.25390833669999
 30
0.0
 11
140.00123362470001
 21
120.25390833669999
 31
0.0
  0
LINE
  5
1E2
  8
図枠
  6
DOT
 10
-140.9706663753
 20
-75.476516663300004
 30
0.0
 11
146.00063362469999
 21
-75.476516663300004
 31
0.0
  0
LINE
  5
1E3
  8
図枠
 62
     5
 10
-134.97126637529999
 20
-69.727091663300001
 30
0.0
 11
140.00123362470001
 21
-69.727091663300001
 31
0.0
  0
LINE
  5
1E4
  8
ﾚｲﾔ_1
 62
     5
 10
-75.374074074099994
 20
24.431445312499999
 30
0.0
 11
-75.374074074099994
 21
-16.068554687500001
 31
0.0
  0
LINE
  5
1E5
  8
ﾚｲﾔ_1
 62
     5
 10
-72.374074074099994
 20
24.431445312499999
 30
0.0
 11
-72.374074074099994
 21
-16.068554687500001
 31
0.0
  0
DIMENSION
  5
1F2
  8
寸法線
  2
*D73
 10
-56.775167368283299
 20
-8.5625217018328712
 30
0.0
 11
-59.868652325500001
 21
-4.6051852395000017
 31
0.0
 70
   133
  1
<>
 13
-72.374074074099994
 23
24.431445312499999
 33
0.0
 14
-15.374074074099999
 24
-17.568554687500001
 34
0.0
 15
-72.374074074099994
 25
-17.568554687500001
 35
0.0
1001
ACAD
1000
DSTYLE
1002
{
1070
   271
1070
     0
1070
   271
1070
     0
1002
}
  0
DIMENSION
  5
201
  8
寸法線
  2
*D18
 10
-87.625825520799964
 20
24.431445312499999
 30
0.0
 11
-87.625825520799964
 21
1.9314453125
 31
0.0
 70
   128
  1
<>
 13
-75.374074074099994
 23
24.431445312499999
 33
0.0
 14
-70.874074074099994
 24
-20.568554687500001
 34
0.0
 50
90.0
  0
LINE
  5
202
  8
図枠
 62
     5
 10
-134.97126637529999
 20
-69.727091663300001
 30
0.0
 11
-134.97126637529999
 21
120.25390833669999
 31
0.0
  0
LINE
  5
203
  8
図枠
  6
DOT
 10
-140.96766667529999
 20
-75.476516663300004
 30
0.0
 11
-140.96766667529999
 21
126.0033333367
 31
0.0
  0
LINE
  5
204
  8
ﾚｲﾔ_1
  6
BORDER
 62
     3
 10
35.730801140665591
 20
-7.9012747175042808
 30
0.0
 11
35.730801140665591
 21
0.682058536395715
 31
0.0
  0
LINE
  5
222
  8
図枠
 62
     5
 10
140.00123362470001
 20
-69.727091663300001
 30
0.0
 11
140.00123362470001
 21
120.25390833669999
 31
0.0
  0
LINE
  5
223
  8
図枠
  6
DOT
 10
146.00063362469999
 20
-75.476516663300004
 30
0.0
 11
146.00063362469999
 21
126.0033333367
 31
0.0
  0
LINE
  5
224
  8
ﾚｲﾔ_1
  6
STITCH
 10
-22.374074074100001
 20
-17.568554687500001
 30
0.0
 11
-22.374074074100001
 21
-20.568554687500001
 31
0.0
  0
LINE
  5
225
  8
ﾚｲﾔ_1
  6
STITCH
 10
-28.374074074100001
 20
-17.568554687500001
 30
0.0
 11
-28.374074074100001
 21
-20.568554687500001
 31
0.0
  0
LINE
  5
226
  8
ﾚｲﾔ_1
 62
     5
 10
-70.874074074099994
 20
-20.568554687500001
 30
0.0
 11
-15.374074074099999
 21
-20.568554687500001
 31
0.0
  0
ARC
  5
227
  8
ﾚｲﾔ_1
 62
     5
 10
-70.874074074099994
 20
-16.068554687500001
 30
0.0
 40
4.5
 50
180.0
 51
270.0
  0
LINE
  5
228
  8
ﾚｲﾔ_1
 62
     5
 10
-70.874074074099994
 20
-17.568554687500001
 30
0.0
 11
-15.374074074099999
 21
-17.568554687500001
 31
0.0
  0
ARC
  5
229
  8
ﾚｲﾔ_1
 62
     5
 10
-70.874074074099994
 20
-16.068554687500001
 30
0.0
 40
1.5
 50
180.0
 51
270.0
  0
LINE
  5
22A
  8
ﾚｲﾔ_1
 62
     5
 10
-15.374074074099999
 20
-20.568554687500001
 30
0.0
 11
-15.374074074099999
 21
-17.568554687500001
 31
0.0
  0
LINE
  5
22B
  8
ﾚｲﾔ_1
  6
BORDER
 62
     3
 10
-25.374074074100001
 20
-12.101888020800001
 30
0.0
 11
-25.374074074100001
 21
-26.918554687499999
 31
0.0
  0
LINE
  5
22C
  8
ﾚｲﾔ_1
  6
BORDER
 62
     3
 10
-47.374074074100001
 20
-12.101888020800001
 30
0.0
 11
-47.374074074100001
 21
-26.918554687499999
 31
0.0
  0
LINE
  5
22D
  8
ﾚｲﾔ_1
  6
STITCH
 10
-44.374074074100001
 20
-17.568554687500001
 30
0.0
 11
-44.374074074100001
 21
-20.568554687500001
 31
0.0
  0
DIMENSION
  5
6A4
  8
0
  6
CONTINUOUS
  2
*D67
 10
31.380801140665682
 20
-2.6512747175042821
 30
0.0
 11
36.852112215298582
 21
21.77898839337616
 31
0.0
 70
   130
 13
40.980801140665591
 23
-2.6512747175042821
 33
0.0
 14
44.180801140665707
 24
0.5487252824957274
 34
0.0
 15
28.180801140665661
 25
0.5487252824957274
 35
0.0
 16
28.61345744159107
 26
20.79043644577866
 36
0.0
1001
ACAD
1000
DSTYLE
1002
{
1070
   271
1070
     0
1070
    40
1040
1.0
1002
}
  0
DIMENSION
  5
6F5
  8
0
  6
CONTINUOUS
  2
*D70
 10
38.730801140665591
 20
-16.087850975856892
 30
0.0
 11
49.247846595211051
 21
-16.087850975856892
 31
0.0
 70
   128
  1
φ6
 13
32.730801140665591
 23
-5.7137747175042808
 33
0.0
 14
38.730801140665591
 24
-5.7137747175042808
 34
0.0
1001
ACAD
1000
DSTYLE
1002
{
1070
    40
1040
1.0
1002
}
  0
DIMENSION
  5
704
  8
0
  6
CONTINUOUS
  2
*D71
 10
40.980801140665591
 20
10.649245409189691
 30
0.0
 11
35.730801140665591
 21
10.649245409189691
 31
0.0
 70
   128
  1
φ10.5
 13
30.480801140665591
 23
-2.588774717504283
 33
0.0
 14
40.980801140665591
 24
-2.588774717504283
 34
0.0
1001
ACAD
1000
DSTYLE
1002
{
1070
    40
1040
1.0
1002
}
  0
ENDSEC
  0
EOF
