  0
SECTION
  2
HEADER
  9
$ACADVER
  1
AC1009
  9
$INSBASE
 10
0.0
 20
0.0
 30
0.0
  9
$EXTMIN
 10
-140.97066448730001
 20
-75.476530485099985
 30
0.0
  9
$EXTMAX
 10
146.0006355127
 20
126.0033195149
 30
0.0
  9
$LIMMIN
 10
0.0
 20
0.0
  9
$LIMMAX
 10
0.0
 20
0.0
  9
$ORTHOMODE
 70
     0
  9
$REGENMODE
 70
     1
  9
$FILLMODE
 70
     1
  9
$QTEXTMODE
 70
     0
  9
$MIRRTEXT
 70
     1
  9
$DRAGMODE
 70
     2
  9
$LTSCALE
 40
1.0
  9
$OSMODE
 70
    31
  9
$ATTMODE
 70
     1
  9
$TEXTSIZE
 40
0.0
  9
$TRACEWID
 40
0.05
  9
$TEXTSTYLE
  7
STANDARD
  9
$CLAYER
  8
0
  9
$CELTYPE
  6
CONTINUOUS
  9
$CECOLOR
 62
   256
  9
$DIMSCALE
 40
1.0
  9
$DIMASZ
 40
0.18
  9
$DIMEXO
 40
0.0625
  9
$DIMDLI
 40
0.38
  9
$DIMRND
 40
0.0
  9
$DIMDLE
 40
0.0
  9
$DIMEXE
 40
0.18
  9
$DIMTP
 40
0.0
  9
$DIMTM
 40
0.0
  9
$DIMTXT
 40
0.18
  9
$DIMCEN
 40
0.09
  9
$DIMTSZ
 40
0.0
  9
$DIMTOL
 70
     0
  9
$DIMLIM
 70
     0
  9
$DIMTIH
 70
     1
  9
$DIMTOH
 70
     1
  9
$DIMSE1
 70
     0
  9
$DIMSE2
 70
     0
  9
$DIMTAD
 70
     0
  9
$DIMZIN
 70
     0
  9
$DIMBLK
  1

  9
$DIMASO
 70
     1
  9
$DIMSHO
 70
     1
  9
$DIMPOST
  1

  9
$DIMAPOST
  1

  9
$DIMALT
 70
     0
  9
$DIMALTD
 70
     2
  9
$DIMALTF
 40
25.399999999999999
  9
$DIMLFAC
 40
1.0
  9
$DIMTOFL
 70
     0
  9
$DIMTVP
 40
0.0
  9
$DIMTIX
 70
     0
  9
$DIMSOXD
 70
     0
  9
$DIMSAH
 70
     0
  9
$DIMBLK1
  1

  9
$DIMBLK2
  1

  9
$DIMSTYLE
  2
STANDARD
  9
$DIMCLRD
 70
     0
  9
$DIMCLRE
 70
     0
  9
$DIMCLRT
 70
     0
  9
$DIMTFAC
 40
1.0
  9
$DIMGAP
 40
0.09
  9
$LUNITS
 70
     2
  9
$LUPREC
 70
     4
  9
$SKETCHINC
 40
0.1
  9
$FILLETRAD
 40
0.0
  9
$AUNITS
 70
     0
  9
$AUPREC
 70
     0
  9
$MENU
  1
acad
  9
$ELEVATION
 40
0.0
  9
$PELEVATION
 40
0.0
  9
$THICKNESS
 40
0.0
  9
$LIMCHECK
 70
     0
  9
$BLIPMODE
 70
     0
  9
$CHAMFERA
 40
0.0
  9
$CHAMFERB
 40
0.0
  9
$SKPOLY
 70
     0
  9
$TDCREATE
 40
2454863.5398714119
  9
$TDUPDATE
 40
2454863.5400696178
  9
$TDINDWG
 40
0.0002096065
  9
$TDUSRTIMER
 40
0.0002092477
  9
$USRTIMER
 70
     1
  9
$ANGBASE
 50
0.0
  9
$ANGDIR
 70
     0
  9
$PDMODE
 70
     3
  9
$PDSIZE
 40
-1.0
  9
$PLINEWID
 40
0.0
  9
$COORDS
 70
     2
  9
$SPLFRAME
 70
     0
  9
$SPLINETYPE
 70
     6
  9
$SPLINESEGS
 70
     8
  9
$ATTDIA
 70
     0
  9
$ATTREQ
 70
     1
  9
$HANDLING
 70
     1
  9
$HANDSEED
  5
4DD
  9
$SURFTAB1
 70
     6
  9
$SURFTAB2
 70
     6
  9
$SURFTYPE
 70
     6
  9
$SURFU
 70
     6
  9
$SURFV
 70
     6
  9
$UCSNAME
  2

  9
$UCSORG
 10
0.0
 20
0.0
 30
0.0
  9
$UCSXDIR
 10
1.0
 20
0.0
 30
0.0
  9
$UCSYDIR
 10
0.0
 20
1.0
 30
0.0
  9
$PUCSNAME
  2

  9
$PUCSORG
 10
0.0
 20
0.0
 30
0.0
  9
$PUCSXDIR
 10
1.0
 20
0.0
 30
0.0
  9
$PUCSYDIR
 10
0.0
 20
1.0
 30
0.0
  9
$USERI1
 70
     0
  9
$USERI2
 70
     0
  9
$USERI3
 70
     0
  9
$USERI4
 70
     0
  9
$USERI5
 70
     0
  9
$USERR1
 40
0.0
  9
$USERR2
 40
0.0
  9
$USERR3
 40
0.0
  9
$USERR4
 40
0.0
  9
$USERR5
 40
0.0
  9
$WORLDVIEW
 70
     1
  9
$SHADEDGE
 70
     3
  9
$SHADEDIF
 70
    70
  9
$TILEMODE
 70
     1
  9
$MAXACTVP
 70
    16
  9
$PLIMCHECK
 70
     0
  9
$PEXTMIN
 10
1.0000000000000000E+020
 20
1.0000000000000000E+020
 30
1.0000000000000000E+020
  9
$PEXTMAX
 10
-1.0000000000000000E+020
 20
-1.0000000000000000E+020
 30
-1.0000000000000000E+020
  9
$PLIMMIN
 10
0.0
 20
0.0
  9
$PLIMMAX
 10
12.0
 20
9.0
  9
$UNITMODE
 70
     0
  9
$VISRETAIN
 70
     0
  9
$PLINEGEN
 70
     1
  9
$PSLTSCALE
 70
     0
  0
ENDSEC
  0
SECTION
  2
TABLES
  0
TABLE
  2
VPORT
 70
     2
  0
VPORT
  2
*ACTIVE
 70
     0
 10
0.0
 20
0.0
 11
1.0
 21
1.0
 12
2.514985512700008
 22
25.2633945149
 13
0.0
 23
0.0
 14
1.0
 24
1.0
 15
0.0
 25
0.0
 16
0.0
 26
0.0
 36
1.0
 17
0.0
 27
0.0
 37
0.0
 40
203.8371790897445
 41
1.4164265129682989
 42
50.0
 43
0.0
 44
0.0
 50
0.0
 51
0.0
 71
     0
 72
   100
 73
     1
 74
     1
 75
     0
 76
     0
 77
     0
 78
     0
  0
ENDTAB
  0
TABLE
  2
LTYPE
 70
    11
  0
LTYPE
  2
CONTINUOUS
 70
     0
  3
Solid line
 72
    65
 73
     0
 40
0.0
  0
LTYPE
  2
DOT
 70
     0
  3
. . . . . . . . 
 72
    65
 73
     2
 40
1.0
 49
0.0
 49
-1.0
  0
LTYPE
  2
DASHED
 70
     0
  3
___  ___  ___  ___  
 72
    65
 73
     2
 40
4.0
 49
3.0
 49
-1.0
  0
LTYPE
  2
HIDDEN
 70
     0
  3
__ __ __ __ 
 72
    65
 73
     2
 40
3.0
 49
2.0
 49
-1.0
  0
LTYPE
  2
STITCH
 70
     0
  3
_ _ _ _ 
 72
    65
 73
     2
 40
2.0
 49
1.0
 49
-1.0
  0
LTYPE
  2
CENTER
 70
     0
  3
______  __  ______  __  
 72
    65
 73
     4
 40
43.0
 49
40.0
 49
-1.0
 49
1.0
 49
-1.0
  0
LTYPE
  2
DASHDOT
 70
     0
  3
____ . ____ . 
 72
    65
 73
     4
 40
32.0
 49
30.0
 49
-1.0
 49
0.0
 49
-1.0
  0
LTYPE
  2
BORDER
 70
     0
  3
__ . __ . 
 72
    65
 73
     4
 40
22.0
 49
20.0
 49
-1.0
 49
0.0
 49
-1.0
  0
LTYPE
  2
CUTTING
 70
     0
  3
________   ___   ___   
 72
    65
 73
     6
 40
45.0
 49
40.0
 49
-1.0
 49
1.0
 49
-1.0
 49
1.0
 49
-1.0
  0
LTYPE
  2
PHANTOM
 70
     0
  3
______  __  __  
 72
    65
 73
     6
 40
35.0
 49
30.0
 49
-1.0
 49
1.0
 49
-1.0
 49
1.0
 49
-1.0
  0
LTYPE
  2
DIVIDE
 70
     0
  3
____ . . ____ . . 
 72
    65
 73
     6
 40
23.0
 49
20.0
 49
-1.0
 49
0.0
 49
-1.0
 49
0.0
 49
-1.0
  0
ENDTAB
  0
TABLE
  2
LAYER
 70
     5
  0
LAYER
  2
0
 70
     0
 62
     7
  6
CONTINUOUS
  0
LAYER
  2
図枠
 70
     0
 62
     7
  6
CONTINUOUS
  0
LAYER
  2
ﾚｲﾔ_1
 70
     0
 62
     7
  6
CONTINUOUS
  0
LAYER
  2
寸法線
 70
     0
 62
     7
  6
CONTINUOUS
  0
LAYER
  2
Defpoints
 70
     0
 62
     7
  6
CONTINUOUS
  0
ENDTAB
  0
TABLE
  2
STYLE
 70
     1
  0
STYLE
  2
STANDARD
 70
     0
 40
0.0
 41
1.0
 50
0.0
 71
     0
 42
0.0
  3
txt
  4
extfont
  0
ENDTAB
  0
TABLE
  2
VIEW
 70
     0
  0
ENDTAB
  0
TABLE
  2
UCS
 70
     0
  0
ENDTAB
  0
TABLE
  2
APPID
 70
     2
  0
APPID
  2
ACAD
 70
     0
  0
APPID
  2
DCO15
 70
     0
  0
ENDTAB
  0
TABLE
  2
DIMSTYLE
 70
     3
  0
DIMSTYLE
  2
STANDARD
 70
     0
  3

  4

  5

  6

  7

 40
1.0
 41
0.18
 42
0.0625
 43
0.38
 44
0.18
 45
0.0
 46
0.0
 47
0.0
 48
0.0
140
0.18
141
0.09
142
0.0
143
25.399999999999999
144
1.0
145
0.0
146
1.0
147
0.09
 71
     0
 72
     0
 73
     1
 74
     1
 75
     0
 76
     0
 77
     0
 78
     0
170
     0
171
     2
172
     0
173
     0
174
     0
175
     0
176
     0
177
     0
178
     0
  0
DIMSTYLE
  2
VELDIM0
 70
     0
  3

  4

  5

  6

  7

 40
1.0
 41
3.0
 42
0.0625
 43
0.38
 44
1.0
 45
0.0
 46
5.0
 47
0.0
 48
0.0
140
2.9986110209999999
141
0.09
142
0.0
143
25.399999999999999
144
1.0
145
0.0
146
1.0
147
0.09
 71
     0
 72
     0
 73
     0
 74
     0
 75
     0
 76
     0
 77
     0
 78
     8
170
     0
171
     2
172
     0
173
     0
174
     0
175
     0
176
     0
177
     0
178
     0
  0
DIMSTYLE
  2
VELDIM1
 70
     0
  3

  4

  5

  6

  7

 40
1.0
 41
3.0
 42
0.0625
 43
0.38
 44
1.25
 45
0.0
 46
5.0
 47
0.0
 48
0.0
140
2.9986110209999999
141
0.09
142
0.0
143
25.399999999999999
144
1.0
145
0.0
146
1.0
147
0.09
 71
     0
 72
     0
 73
     0
 74
     0
 75
     0
 76
     0
 77
     0
 78
     8
170
     0
171
     2
172
     0
173
     0
174
     0
175
     0
176
     0
177
     0
178
     0
  0
ENDTAB
  0
ENDSEC
  0
SECTION
  2
BLOCKS
  0
BLOCK
  8
0
  2
$MODEL_SPACE
 70
     0
 10
0.0
 20
0.0
 30
0.0
  3
$MODEL_SPACE
  1

  0
ENDBLK
  5
E
  8
0
  0
BLOCK
 67
     1
  8
0
  2
$PAPER_SPACE
 70
     0
 10
0.0
 20
0.0
 30
0.0
  3
$PAPER_SPACE
  1

  0
ENDBLK
  5
10
 67
     1
  8
0
  0
BLOCK
  8
0
  2
*D0
 70
     1
 10
0.0
 20
0.0
 30
0.0
  3
*D0
  1

  0
TEXT
  5
37
  8
0
 62
     0
 10
31.649706588699999
 20
51.106494628699998
 30
0.0
 40
2.9986110209999999
  1
12.5
 50
90.0
  0
LINE
  5
38
  8
0
 62
     0
 10
47.678873239399998
 20
60.884272300500001
 30
0.0
 11
32.178873239399998
 21
60.884272300500001
 31
0.0
  0
LINE
  5
39
  8
0
 62
     0
 10
41.178873239399991
 20
48.384272300500001
 30
0.0
 11
32.178873239399998
 21
48.384272300500001
 31
0.0
  0
LINE
  5
3A
  8
0
 62
     0
 10
33.178873239399998
 20
60.884272300500001
 30
0.0
 11
33.178873239399998
 21
59.925938808199987
 31
0.0
  0
LINE
  5
3B
  8
0
 62
     0
 10
33.178873239399998
 20
60.884272300500001
 30
0.0
 11
33.178873239399998
 21
49.342605792699999
 31
0.0
  0
LINE
  5
3C
  8
0
 62
     0
 10
33.178873239399998
 20
48.384272300500001
 30
0.0
 11
33.178873239399998
 21
59.925938808199987
 31
0.0
  0
LINE
  5
3D
  8
0
 62
     0
 10
33.178873239399998
 20
48.384272300500001
 30
0.0
 11
33.178873239399998
 21
49.342605792699999
 31
0.0
  0
LINE
  5
3E
  8
0
 62
     0
 10
33.178873239399998
 20
48.384272300500001
 30
0.0
 11
33.178873239399998
 21
43.384272300500001
 31
0.0
  0
SOLID
  5
3F
  8
0
 62
     0
 10
33.178873239399998
 20
48.384272300500001
 30
0.0
 11
33.928873239399998
 21
45.384272300499987
 31
0.0
 12
32.428873239399998
 22
45.384272300499987
 32
0.0
 13
33.178873239399998
 23
46.134272300500001
 33
0.0
  0
LINE
  5
40
  8
0
 62
     0
 10
33.178873239399998
 20
60.884272300500001
 30
0.0
 11
33.178873239399998
 21
65.884272300500001
 31
0.0
  0
SOLID
  5
41
  8
0
 62
     0
 10
33.178873239399998
 20
60.884272300500001
 30
0.0
 11
32.428873239399998
 21
63.884272300500001
 31
0.0
 12
33.928873239399998
 22
63.884272300500001
 32
0.0
 13
33.178873239399998
 23
63.134272300500001
 33
0.0
  0
ENDBLK
  5
42
  8
0
  0
BLOCK
  8
0
  2
*D1
 70
     1
 10
0.0
 20
0.0
 30
0.0
  3
*D1
  1

  0
TEXT
  5
47
  8
0
 62
     0
 10
31.649706588699999
 20
63.606494628699998
 30
0.0
 40
2.9986110209999999
  1
12.5
 50
90.0
  0
LINE
  5
48
  8
0
 62
     0
 10
41.178873239399991
 20
73.384272300500001
 30
0.0
 11
32.178873239399998
 21
73.384272300500001
 31
0.0
  0
LINE
  5
49
  8
0
 62
     0
 10
47.678873239399998
 20
60.884272300500001
 30
0.0
 11
32.178873239399998
 21
60.884272300500001
 31
0.0
  0
LINE
  5
4A
  8
0
 62
     0
 10
33.178873239399998
 20
73.384272300500001
 30
0.0
 11
33.178873239399998
 21
72.425938808200002
 31
0.0
  0
LINE
  5
4B
  8
0
 62
     0
 10
33.178873239399998
 20
73.384272300500001
 30
0.0
 11
33.178873239399998
 21
61.842605792699999
 31
0.0
  0
LINE
  5
4C
  8
0
 62
     0
 10
33.178873239399998
 20
60.884272300500001
 30
0.0
 11
33.178873239399998
 21
72.425938808200002
 31
0.0
  0
LINE
  5
4D
  8
0
 62
     0
 10
33.178873239399998
 20
60.884272300500001
 30
0.0
 11
33.178873239399998
 21
61.842605792699999
 31
0.0
  0
LINE
  5
4E
  8
0
 62
     0
 10
33.178873239399998
 20
60.884272300500001
 30
0.0
 11
33.178873239399998
 21
55.884272300500001
 31
0.0
  0
SOLID
  5
4F
  8
0
 62
     0
 10
33.178873239399998
 20
60.884272300500001
 30
0.0
 11
33.928873239399998
 21
57.884272300500001
 31
0.0
 12
32.428873239399998
 22
57.884272300500001
 32
0.0
 13
33.178873239399998
 23
58.634272300500001
 33
0.0
  0
LINE
  5
50
  8
0
 62
     0
 10
33.178873239399998
 20
73.384272300500001
 30
0.0
 11
33.178873239399998
 21
78.384272300500001
 31
0.0
  0
SOLID
  5
51
  8
0
 62
     0
 10
33.178873239399998
 20
73.384272300500001
 30
0.0
 11
32.428873239399998
 21
76.384272300500001
 31
0.0
 12
33.928873239399998
 22
76.384272300500001
 32
0.0
 13
33.178873239399998
 23
75.634272300500001
 33
0.0
  0
ENDBLK
  5
52
  8
0
  0
BLOCK
  8
0
  2
*D2
 70
     1
 10
0.0
 20
0.0
 30
0.0
  3
*D2
  1

  0
TEXT
  5
56
  8
0
 62
     0
 10
57.9149844035
 20
39.9134389512
 30
0.0
 40
2.9986110209999999
  1
13
  0
LINE
  5
57
  8
0
 62
     0
 10
53.178873239399991
 20
51.884272300500001
 30
0.0
 11
53.178873239399991
 21
37.384272300500001
 31
0.0
  0
LINE
  5
58
  8
0
 62
     0
 10
66.178873239399991
 20
46.384272300500001
 30
0.0
 11
66.178873239399991
 21
37.384272300500001
 31
0.0
  0
LINE
  5
59
  8
0
 62
     0
 10
53.178873239399991
 20
38.384272300500001
 30
0.0
 11
63.206650911300002
 21
38.384272300500001
 31
0.0
  0
LINE
  5
5A
  8
0
 62
     0
 10
53.178873239399991
 20
38.384272300500001
 30
0.0
 11
56.151095567600002
 21
38.384272300500001
 31
0.0
  0
LINE
  5
5B
  8
0
 62
     0
 10
66.178873239399991
 20
38.384272300500001
 30
0.0
 11
63.206650911300002
 21
38.384272300500001
 31
0.0
  0
LINE
  5
5C
  8
0
 62
     0
 10
66.178873239399991
 20
38.384272300500001
 30
0.0
 11
56.151095567600002
 21
38.384272300500001
 31
0.0
  0
LINE
  5
5D
  8
0
 62
     0
 10
66.178873239399991
 20
38.384272300500001
 30
0.0
 11
71.178873239399991
 21
38.384272300500001
 31
0.0
  0
SOLID
  5
5E
  8
0
 62
     0
 10
66.178873239399991
 20
38.384272300500001
 30
0.0
 11
69.178873239399991
 21
39.134272300500001
 31
0.0
 12
69.178873239399991
 22
37.634272300500001
 32
0.0
 13
68.428873239399991
 23
38.384272300500001
 33
0.0
  0
LINE
  5
5F
  8
0
 62
     0
 10
53.178873239399991
 20
38.384272300500001
 30
0.0
 11
48.178873239399991
 21
38.384272300500001
 31
0.0
  0
SOLID
  5
60
  8
0
 62
     0
 10
53.178873239399991
 20
38.384272300500001
 30
0.0
 11
50.178873239399998
 21
37.634272300500001
 31
0.0
 12
50.178873239399998
 22
39.134272300500001
 32
0.0
 13
50.928873239399998
 23
38.384272300500001
 33
0.0
  0
ENDBLK
  5
61
  8
0
  0
BLOCK
  8
0
  2
*D3
 70
     1
 10
0.0
 20
0.0
 30
0.0
  3
*D3
  1

  0
TEXT
  5
65
  8
0
 62
     0
 10
46.414984403500007
 20
39.9134389512
 30
0.0
 40
2.9986110209999999
  1
10
  0
LINE
  5
66
  8
0
 62
     0
 10
43.178873239399991
 20
46.384272300500001
 30
0.0
 11
43.178873239399991
 21
37.384272300500001
 31
0.0
  0
LINE
  5
67
  8
0
 62
     0
 10
53.178873239399991
 20
51.884272300500001
 30
0.0
 11
53.178873239399991
 21
37.384272300500001
 31
0.0
  0
LINE
  5
68
  8
0
 62
     0
 10
43.178873239399991
 20
38.384272300500001
 30
0.0
 11
51.706650911300002
 21
38.384272300500001
 31
0.0
  0
LINE
  5
69
  8
0
 62
     0
 10
43.178873239399991
 20
38.384272300500001
 30
0.0
 11
44.651095567600002
 21
38.384272300500001
 31
0.0
  0
LINE
  5
6A
  8
0
 62
     0
 10
53.178873239399991
 20
38.384272300500001
 30
0.0
 11
51.706650911300002
 21
38.384272300500001
 31
0.0
  0
LINE
  5
6B
  8
0
 62
     0
 10
53.178873239399991
 20
38.384272300500001
 30
0.0
 11
44.651095567600002
 21
38.384272300500001
 31
0.0
  0
LINE
  5
6C
  8
0
 62
     0
 10
53.178873239399991
 20
38.384272300500001
 30
0.0
 11
58.178873239399991
 21
38.384272300500001
 31
0.0
  0
SOLID
  5
6D
  8
0
 62
     0
 10
53.178873239399991
 20
38.384272300500001
 30
0.0
 11
56.178873239399991
 21
39.134272300500001
 31
0.0
 12
56.178873239399991
 22
37.634272300500001
 32
0.0
 13
55.428873239399998
 23
38.384272300500001
 33
0.0
  0
LINE
  5
6E
  8
0
 62
     0
 10
43.178873239399991
 20
38.384272300500001
 30
0.0
 11
38.178873239399998
 21
38.384272300500001
 31
0.0
  0
SOLID
  5
6F
  8
0
 62
     0
 10
43.178873239399991
 20
38.384272300500001
 30
0.0
 11
40.178873239399998
 21
37.634272300500001
 31
0.0
 12
40.178873239399998
 22
39.134272300500001
 32
0.0
 13
40.928873239399998
 23
38.384272300500001
 33
0.0
  0
ENDBLK
  5
70
  8
0
  0
BLOCK
  8
0
  2
*D4
 70
     1
 10
0.0
 20
0.0
 30
0.0
  3
*D4
  1

  0
TEXT
  5
74
  8
0
 62
     0
 10
50.533039985599999
 20
84.128462040800002
 30
0.0
 40
2.9986110209999999
  1
4.5
  0
LINE
  5
75
  8
0
 62
     0
 10
55.428873239399998
 20
65.634272300500001
 30
0.0
 11
55.428873239399998
 21
83.599295389999995
 31
0.0
  0
LINE
  5
76
  8
0
 62
     0
 10
50.928873239399998
 20
65.634272300500001
 30
0.0
 11
50.928873239399998
 21
83.599295389999995
 31
0.0
  0
LINE
  5
77
  8
0
 62
     0
 10
55.428873239399998
 20
82.599295389999995
 30
0.0
 11
55.428873239399998
 21
82.599295389999995
 31
0.0
  0
LINE
  5
78
  8
0
 62
     0
 10
55.428873239399998
 20
82.599295389999995
 30
0.0
 11
50.928873239399998
 21
82.599295389999995
 31
0.0
  0
LINE
  5
79
  8
0
 62
     0
 10
50.928873239399998
 20
82.599295389999995
 30
0.0
 11
55.428873239399998
 21
82.599295389999995
 31
0.0
  0
LINE
  5
7A
  8
0
 62
     0
 10
50.928873239399998
 20
82.599295389999995
 30
0.0
 11
50.928873239399998
 21
82.599295389999995
 31
0.0
  0
LINE
  5
7B
  8
0
 62
     0
 10
50.928873239399998
 20
82.599295389999995
 30
0.0
 11
45.928873239399998
 21
82.599295389999995
 31
0.0
  0
SOLID
  5
7C
  8
0
 62
     0
 10
50.928873239399998
 20
82.599295389999995
 30
0.0
 11
47.928873239399991
 21
81.849295389999995
 31
0.0
 12
47.928873239399991
 22
83.349295389999995
 32
0.0
 13
48.678873239399991
 23
82.599295389999995
 33
0.0
  0
LINE
  5
7D
  8
0
 62
     0
 10
55.428873239399998
 20
82.599295389999995
 30
0.0
 11
60.428873239399998
 21
82.599295389999995
 31
0.0
  0
SOLID
  5
7E
  8
0
 62
     0
 10
55.428873239399998
 20
82.599295389999995
 30
0.0
 11
58.428873239399998
 21
83.349295389999995
 31
0.0
 12
58.428873239399998
 22
81.849295389999995
 32
0.0
 13
57.678873239399998
 23
82.599295389999995
 33
0.0
  0
ENDBLK
  5
7F
  8
0
  0
BLOCK
  8
0
  2
*D5
 70
     1
 10
0.0
 20
0.0
 30
0.0
  3
*D5
  1

  0
TEXT
  5
83
  8
0
 62
     0
 10
73.936591465399999
 20
59.12038346460001
 30
0.0
 40
2.9986110209999999
  1
10
 50
90.0
  0
LINE
  5
84
  8
0
 62
     0
 10
55.178873239399998
 20
55.884272300500001
 30
0.0
 11
76.465758116099991
 21
55.884272300500001
 31
0.0
  0
LINE
  5
85
  8
0
 62
     0
 10
55.178873239399998
 20
65.884272300500001
 30
0.0
 11
76.465758116099991
 21
65.884272300500001
 31
0.0
  0
LINE
  5
86
  8
0
 62
     0
 10
75.465758116099991
 20
55.884272300500001
 30
0.0
 11
75.465758116099991
 21
64.412049972299997
 31
0.0
  0
LINE
  5
87
  8
0
 62
     0
 10
75.465758116099991
 20
55.884272300500001
 30
0.0
 11
75.465758116099991
 21
57.356494628699998
 31
0.0
  0
LINE
  5
88
  8
0
 62
     0
 10
75.465758116099991
 20
65.884272300500001
 30
0.0
 11
75.465758116099991
 21
64.412049972299997
 31
0.0
  0
LINE
  5
89
  8
0
 62
     0
 10
75.465758116099991
 20
65.884272300500001
 30
0.0
 11
75.465758116099991
 21
57.356494628699998
 31
0.0
  0
LINE
  5
8A
  8
0
 62
     0
 10
75.465758116099991
 20
65.884272300500001
 30
0.0
 11
75.465758116099991
 21
70.884272300500001
 31
0.0
  0
SOLID
  5
8B
  8
0
 62
     0
 10
75.465758116099991
 20
65.884272300500001
 30
0.0
 11
74.715758116099991
 21
68.884272300500001
 31
0.0
 12
76.215758116099991
 22
68.884272300500001
 32
0.0
 13
75.465758116099991
 23
68.134272300500001
 33
0.0
  0
LINE
  5
8C
  8
0
 62
     0
 10
75.465758116099991
 20
55.884272300500001
 30
0.0
 11
75.465758116099991
 21
50.884272300500001
 31
0.0
  0
SOLID
  5
8D
  8
0
 62
     0
 10
75.465758116099991
 20
55.884272300500001
 30
0.0
 11
76.215758116099991
 21
52.884272300500001
 31
0.0
 12
74.715758116099991
 22
52.884272300500001
 32
0.0
 13
75.465758116099991
 23
53.634272300500001
 33
0.0
  0
ENDBLK
  5
8E
  8
0
  0
BLOCK
  8
0
  2
*D6
 70
     1
 10
0.0
 20
0.0
 30
0.0
  3
*D6
  1

  0
TEXT
  5
141
  8
0
 62
     0
 10
-37.89205785
 20
39.9134389512
 30
0.0
 40
2.9986110209999999
  1
10
  0
LINE
  5
142
  8
0
 62
     0
 10
-41.128169014099988
 20
55.384272300500001
 30
0.0
 11
-41.128169014099988
 21
37.384272300500001
 31
0.0
  0
LINE
  5
143
  8
0
 62
     0
 10
-31.128169014099999
 20
46.384272300500001
 30
0.0
 11
-31.128169014099999
 21
37.384272300500001
 31
0.0
  0
LINE
  5
144
  8
0
 62
     0
 10
-41.128169014099988
 20
38.384272300500001
 30
0.0
 11
-32.6003913423
 21
38.384272300500001
 31
0.0
  0
LINE
  5
145
  8
0
 62
     0
 10
-41.128169014099988
 20
38.384272300500001
 30
0.0
 11
-39.655946685899998
 21
38.384272300500001
 31
0.0
  0
LINE
  5
146
  8
0
 62
     0
 10
-31.128169014099999
 20
38.384272300500001
 30
0.0
 11
-32.6003913423
 21
38.384272300500001
 31
0.0
  0
LINE
  5
147
  8
0
 62
     0
 10
-31.128169014099999
 20
38.384272300500001
 30
0.0
 11
-39.655946685899998
 21
38.384272300500001
 31
0.0
  0
LINE
  5
148
  8
0
 62
     0
 10
-31.128169014099999
 20
38.384272300500001
 30
0.0
 11
-26.128169014099999
 21
38.384272300500001
 31
0.0
  0
SOLID
  5
149
  8
0
 62
     0
 10
-31.128169014099999
 20
38.384272300500001
 30
0.0
 11
-28.128169014099999
 21
39.134272300500001
 31
0.0
 12
-28.128169014099999
 22
37.634272300500001
 32
0.0
 13
-28.878169014099999
 23
38.384272300500001
 33
0.0
  0
LINE
  5
14A
  8
0
 62
     0
 10
-41.128169014099988
 20
38.384272300500001
 30
0.0
 11
-46.128169014099988
 21
38.384272300500001
 31
0.0
  0
SOLID
  5
14B
  8
0
 62
     0
 10
-41.128169014099988
 20
38.384272300500001
 30
0.0
 11
-44.128169014099988
 21
37.634272300500001
 31
0.0
 12
-44.128169014099988
 22
39.134272300500001
 32
0.0
 13
-43.378169014100003
 23
38.384272300500001
 33
0.0
  0
ENDBLK
  5
14C
  8
0
  0
BLOCK
  8
0
  2
*D7
 70
     1
 10
0.0
 20
0.0
 30
0.0
  3
*D7
  1

  0
TEXT
  5
150
  8
0
 62
     0
 10
-55.39205785
 20
39.9134389512
 30
0.0
 40
2.9986110209999999
  1
25
  0
LINE
  5
151
  8
0
 62
     0
 10
-66.128169014099996
 20
46.384272300500001
 30
0.0
 11
-66.128169014099996
 21
37.384272300500001
 31
0.0
  0
LINE
  5
152
  8
0
 62
     0
 10
-41.128169014099988
 20
55.384272300500001
 30
0.0
 11
-41.128169014099988
 21
37.384272300500001
 31
0.0
  0
LINE
  5
153
  8
0
 62
     0
 10
-66.128169014099996
 20
38.384272300500001
 30
0.0
 11
-50.100391342299993
 21
38.384272300500001
 31
0.0
  0
LINE
  5
154
  8
0
 62
     0
 10
-66.128169014099996
 20
38.384272300500001
 30
0.0
 11
-57.155946685899998
 21
38.384272300500001
 31
0.0
  0
LINE
  5
155
  8
0
 62
     0
 10
-41.128169014099988
 20
38.384272300500001
 30
0.0
 11
-50.100391342299993
 21
38.384272300500001
 31
0.0
  0
LINE
  5
156
  8
0
 62
     0
 10
-41.128169014099988
 20
38.384272300500001
 30
0.0
 11
-57.155946685899998
 21
38.384272300500001
 31
0.0
  0
LINE
  5
157
  8
0
 62
     0
 10
-41.128169014099988
 20
38.384272300500001
 30
0.0
 11
-46.128169014099988
 21
38.384272300500001
 31
0.0
  0
SOLID
  5
158
  8
0
 62
     0
 10
-41.128169014099988
 20
38.384272300500001
 30
0.0
 11
-44.128169014099988
 21
37.634272300500001
 31
0.0
 12
-44.128169014099988
 22
39.134272300500001
 32
0.0
 13
-43.378169014100003
 23
38.384272300500001
 33
0.0
  0
LINE
  5
159
  8
0
 62
     0
 10
-66.128169014099996
 20
38.384272300500001
 30
0.0
 11
-61.128169014099988
 21
38.384272300500001
 31
0.0
  0
SOLID
  5
15A
  8
0
 62
     0
 10
-66.128169014099996
 20
38.384272300500001
 30
0.0
 11
-63.128169014099988
 21
39.134272300500001
 31
0.0
 12
-63.128169014099988
 22
37.634272300500001
 32
0.0
 13
-63.878169014099988
 23
38.384272300500001
 33
0.0
  0
ENDBLK
  5
15B
  8
0
  0
BLOCK
  8
0
  2
*D8
 70
     1
 10
0.0
 20
0.0
 30
0.0
  3
*D8
  1

  0
TEXT
  5
15F
  8
0
 62
     0
 10
-55.407335664900003
 20
58.2384390466
 30
0.0
 40
2.9986110209999999
  1
4.5
 50
90.0
  0
LINE
  5
160
  8
0
 62
     0
 10
-45.878169014100003
 20
63.134272300500001
 30
0.0
 11
-54.878169014099988
 21
63.134272300500001
 31
0.0
  0
LINE
  5
161
  8
0
 62
     0
 10
-45.878169014100003
 20
58.634272300500001
 30
0.0
 11
-54.878169014099988
 21
58.634272300500001
 31
0.0
  0
LINE
  5
162
  8
0
 62
     0
 10
-53.878169014099988
 20
63.134272300500001
 30
0.0
 11
-53.878169014099988
 21
63.134272300500001
 31
0.0
  0
LINE
  5
163
  8
0
 62
     0
 10
-53.878169014099988
 20
63.134272300500001
 30
0.0
 11
-53.878169014099988
 21
58.634272300500001
 31
0.0
  0
LINE
  5
164
  8
0
 62
     0
 10
-53.878169014099988
 20
58.634272300500001
 30
0.0
 11
-53.878169014099988
 21
63.134272300500001
 31
0.0
  0
LINE
  5
165
  8
0
 62
     0
 10
-53.878169014099988
 20
58.634272300500001
 30
0.0
 11
-53.878169014099988
 21
58.634272300500001
 31
0.0
  0
LINE
  5
166
  8
0
 62
     0
 10
-53.878169014099988
 20
58.634272300500001
 30
0.0
 11
-53.878169014099988
 21
53.634272300500001
 31
0.0
  0
SOLID
  5
167
  8
0
 62
     0
 10
-53.878169014099988
 20
58.634272300500001
 30
0.0
 11
-53.128169014099988
 21
55.634272300500001
 31
0.0
 12
-54.628169014100003
 22
55.634272300500001
 32
0.0
 13
-53.878169014099988
 23
56.384272300500001
 33
0.0
  0
LINE
  5
168
  8
0
 62
     0
 10
-53.878169014099988
 20
63.134272300500001
 30
0.0
 11
-53.878169014099988
 21
68.134272300500001
 31
0.0
  0
SOLID
  5
169
  8
0
 62
     0
 10
-53.878169014099988
 20
63.134272300500001
 30
0.0
 11
-54.628169014100003
 21
66.134272300500001
 31
0.0
 12
-53.128169014099988
 22
66.134272300500001
 32
0.0
 13
-53.878169014099988
 23
65.384272300500001
 33
0.0
  0
ENDBLK
  5
16A
  8
0
  0
BLOCK
  8
0
  2
*D9
 70
     1
 10
0.0
 20
0.0
 30
0.0
  3
*D9
  1

  0
TEXT
  5
16E
  8
0
 62
     0
 10
-77.657335664900003
 20
59.12038346460001
 30
0.0
 40
2.9986110209999999
  1
25
 50
90.0
  0
LINE
  5
16F
  8
0
 62
     0
 10
-68.128169014099996
 20
73.384272300500001
 30
0.0
 11
-77.128169014099996
 21
73.384272300500001
 31
0.0
  0
LINE
  5
170
  8
0
 62
     0
 10
-68.128169014099996
 20
48.384272300500001
 30
0.0
 11
-77.128169014099996
 21
48.384272300500001
 31
0.0
  0
LINE
  5
171
  8
0
 62
     0
 10
-76.128169014099996
 20
73.384272300500001
 30
0.0
 11
-76.128169014099996
 21
64.412049972299997
 31
0.0
  0
LINE
  5
172
  8
0
 62
     0
 10
-76.128169014099996
 20
73.384272300500001
 30
0.0
 11
-76.128169014099996
 21
57.356494628699998
 31
0.0
  0
LINE
  5
173
  8
0
 62
     0
 10
-76.128169014099996
 20
48.384272300500001
 30
0.0
 11
-76.128169014099996
 21
64.412049972299997
 31
0.0
  0
LINE
  5
174
  8
0
 62
     0
 10
-76.128169014099996
 20
48.384272300500001
 30
0.0
 11
-76.128169014099996
 21
57.356494628699998
 31
0.0
  0
LINE
  5
175
  8
0
 62
     0
 10
-76.128169014099996
 20
48.384272300500001
 30
0.0
 11
-76.128169014099996
 21
53.384272300500001
 31
0.0
  0
SOLID
  5
176
  8
0
 62
     0
 10
-76.128169014099996
 20
48.384272300500001
 30
0.0
 11
-76.878169014099996
 21
51.384272300500001
 31
0.0
 12
-75.378169014099996
 22
51.384272300500001
 32
0.0
 13
-76.128169014099996
 23
50.634272300500001
 33
0.0
  0
LINE
  5
177
  8
0
 62
     0
 10
-76.128169014099996
 20
73.384272300500001
 30
0.0
 11
-76.128169014099996
 21
68.384272300500001
 31
0.0
  0
SOLID
  5
178
  8
0
 62
     0
 10
-76.128169014099996
 20
73.384272300500001
 30
0.0
 11
-75.378169014099996
 21
70.384272300500001
 31
0.0
 12
-76.878169014099996
 22
70.384272300500001
 32
0.0
 13
-76.128169014099996
 23
71.134272300500001
 33
0.0
  0
ENDBLK
  5
179
  8
0
  0
BLOCK
  8
0
  2
*D10
 70
     1
 10
0.0
 20
0.0
 30
0.0
  3
*D10
  1

  0
TEXT
  5
17D
  8
0
 62
     0
 10
-42.89205785
 20
83.793695804400002
 30
0.0
 40
2.9986110209999999
  1
10
  0
LINE
  5
17E
  8
0
 62
     0
 10
-36.128169014100003
 20
62.884272300500001
 30
0.0
 11
-36.128169014100003
 21
83.264529153699996
 31
0.0
  0
LINE
  5
17F
  8
0
 62
     0
 10
-46.128169014099988
 20
62.884272300500001
 30
0.0
 11
-46.128169014099988
 21
83.264529153699996
 31
0.0
  0
LINE
  5
180
  8
0
 62
     0
 10
-36.128169014100003
 20
82.264529153699996
 30
0.0
 11
-37.6003913423
 21
82.264529153699996
 31
0.0
  0
LINE
  5
181
  8
0
 62
     0
 10
-36.128169014100003
 20
82.264529153699996
 30
0.0
 11
-44.655946685899991
 21
82.264529153699996
 31
0.0
  0
LINE
  5
182
  8
0
 62
     0
 10
-46.128169014099988
 20
82.264529153699996
 30
0.0
 11
-37.6003913423
 21
82.264529153699996
 31
0.0
  0
LINE
  5
183
  8
0
 62
     0
 10
-46.128169014099988
 20
82.264529153699996
 30
0.0
 11
-44.655946685899991
 21
82.264529153699996
 31
0.0
  0
LINE
  5
184
  8
0
 62
     0
 10
-46.128169014099988
 20
82.264529153699996
 30
0.0
 11
-51.128169014099988
 21
82.264529153699996
 31
0.0
  0
SOLID
  5
185
  8
0
 62
     0
 10
-46.128169014099988
 20
82.264529153699996
 30
0.0
 11
-49.128169014100003
 21
81.514529153699996
 31
0.0
 12
-49.128169014100003
 22
83.014529153699996
 32
0.0
 13
-48.378169014100003
 23
82.264529153699996
 33
0.0
  0
LINE
  5
186
  8
0
 62
     0
 10
-36.128169014100003
 20
82.264529153699996
 30
0.0
 11
-31.128169014099999
 21
82.264529153699996
 31
0.0
  0
SOLID
  5
187
  8
0
 62
     0
 10
-36.128169014100003
 20
82.264529153699996
 30
0.0
 11
-33.128169014100003
 21
83.014529153699996
 31
0.0
 12
-33.128169014100003
 22
81.514529153699996
 32
0.0
 13
-33.878169014100003
 23
82.264529153699996
 33
0.0
  0
ENDBLK
  5
188
  8
0
  0
BLOCK
  8
0
  2
*D11
 70
     1
 10
0.0
 20
0.0
 30
0.0
  3
*D11
  1

  0
TEXT
  5
18C
  8
0
 62
     0
 10
-19.767743429799999
 20
63.606494628699998
 30
0.0
 40
2.9986110209999999
  1
12.5
 50
90.0
  0
LINE
  5
18D
  8
0
 62
     0
 10
-32.128169014100003
 20
60.884272300500001
 30
0.0
 11
-17.238576778999999
 21
60.884272300500001
 31
0.0
  0
LINE
  5
18E
  8
0
 62
     0
 10
-29.128169014099999
 20
73.384272300500001
 30
0.0
 11
-17.238576778999999
 21
73.384272300500001
 31
0.0
  0
LINE
  5
18F
  8
0
 62
     0
 10
-18.238576778999999
 20
60.884272300500001
 30
0.0
 11
-18.238576778999999
 21
72.425938808200002
 31
0.0
  0
LINE
  5
190
  8
0
 62
     0
 10
-18.238576778999999
 20
60.884272300500001
 30
0.0
 11
-18.238576778999999
 21
61.842605792699999
 31
0.0
  0
LINE
  5
191
  8
0
 62
     0
 10
-18.238576778999999
 20
73.384272300500001
 30
0.0
 11
-18.238576778999999
 21
72.425938808200002
 31
0.0
  0
LINE
  5
192
  8
0
 62
     0
 10
-18.238576778999999
 20
73.384272300500001
 30
0.0
 11
-18.238576778999999
 21
61.842605792699999
 31
0.0
  0
LINE
  5
193
  8
0
 62
     0
 10
-18.238576778999999
 20
73.384272300500001
 30
0.0
 11
-18.238576778999999
 21
78.384272300500001
 31
0.0
  0
SOLID
  5
194
  8
0
 62
     0
 10
-18.238576778999999
 20
73.384272300500001
 30
0.0
 11
-18.988576778999999
 21
76.384272300500001
 31
0.0
 12
-17.488576778999999
 22
76.384272300500001
 32
0.0
 13
-18.238576778999999
 23
75.634272300500001
 33
0.0
  0
LINE
  5
195
  8
0
 62
     0
 10
-18.238576778999999
 20
60.884272300500001
 30
0.0
 11
-18.238576778999999
 21
55.884272300500001
 31
0.0
  0
SOLID
  5
196
  8
0
 62
     0
 10
-18.238576778999999
 20
60.884272300500001
 30
0.0
 11
-17.488576778999999
 21
57.884272300500001
 31
0.0
 12
-18.988576778999999
 22
57.884272300500001
 32
0.0
 13
-18.238576778999999
 23
58.634272300500001
 33
0.0
  0
ENDBLK
  5
197
  8
0
  0
BLOCK
  8
0
  2
*D12
 70
     1
 10
0.0
 20
0.0
 30
0.0
  3
*D12
  1

  0
TEXT
  5
19B
  8
0
 62
     0
 10
-19.767743429799999
 20
51.106494628699998
 30
0.0
 40
2.9986110209999999
  1
12.5
 50
90.0
  0
LINE
  5
19C
  8
0
 62
     0
 10
-29.128169014099999
 20
48.384272300500001
 30
0.0
 11
-17.238576778999999
 21
48.384272300500001
 31
0.0
  0
LINE
  5
19D
  8
0
 62
     0
 10
-32.128169014100003
 20
60.884272300500001
 30
0.0
 11
-17.238576778999999
 21
60.884272300500001
 31
0.0
  0
LINE
  5
19E
  8
0
 62
     0
 10
-18.238576778999999
 20
48.384272300500001
 30
0.0
 11
-18.238576778999999
 21
59.925938808199987
 31
0.0
  0
LINE
  5
19F
  8
0
 62
     0
 10
-18.238576778999999
 20
48.384272300500001
 30
0.0
 11
-18.238576778999999
 21
49.342605792699999
 31
0.0
  0
LINE
  5
1A0
  8
0
 62
     0
 10
-18.238576778999999
 20
60.884272300500001
 30
0.0
 11
-18.238576778999999
 21
59.925938808199987
 31
0.0
  0
LINE
  5
1A1
  8
0
 62
     0
 10
-18.238576778999999
 20
60.884272300500001
 30
0.0
 11
-18.238576778999999
 21
49.342605792699999
 31
0.0
  0
LINE
  5
1A2
  8
0
 62
     0
 10
-18.238576778999999
 20
60.884272300500001
 30
0.0
 11
-18.238576778999999
 21
65.884272300500001
 31
0.0
  0
SOLID
  5
1A3
  8
0
 62
     0
 10
-18.238576778999999
 20
60.884272300500001
 30
0.0
 11
-18.988576778999999
 21
63.884272300500001
 31
0.0
 12
-17.488576778999999
 22
63.884272300500001
 32
0.0
 13
-18.238576778999999
 23
63.134272300500001
 33
0.0
  0
LINE
  5
1A4
  8
0
 62
     0
 10
-18.238576778999999
 20
48.384272300500001
 30
0.0
 11
-18.238576778999999
 21
43.384272300500001
 31
0.0
  0
SOLID
  5
1A5
  8
0
 62
     0
 10
-18.238576778999999
 20
48.384272300500001
 30
0.0
 11
-17.488576778999999
 21
45.384272300499987
 31
0.0
 12
-18.988576778999999
 22
45.384272300499987
 32
0.0
 13
-18.238576778999999
 23
46.134272300500001
 33
0.0
  0
ENDBLK
  5
1A6
  8
0
  0
BLOCK
  8
0
  2
*D13
 70
     1
 10
0.0
 20
0.0
 30
0.0
  3
*D13
  1

  0
TEXT
  5
1AB
  8
0
 62
     0
 10
-18.108013107000001
 20
86.651589548299995
 30
0.0
 40
2.9986110209999999
  1
4-R 2.5
  0
LINE
  5
1AC
  8
0
 62
     0
 10
-18.390018417
 20
86.122422897500002
 30
0.0
 11
-0.4691247479
 21
86.122422897500002
 31
0.0
  0
LINE
  5
1AD
  8
0
 62
     0
 10
-31.8604020611
 20
72.652039253400005
 30
0.0
 11
-18.390018417
 21
86.122422897500002
 31
0.0
  0
SOLID
  5
1AE
  8
0
 62
     0
 10
-31.8604020611
 20
72.652039253400005
 30
0.0
 11
-30.269411803400001
 21
75.3036896829
 31
0.0
 12
-29.2087516317
 22
74.243029511099991
 32
0.0
 13
-30.269411803400001
 23
74.243029511099991
 33
0.0
  0
ENDBLK
  5
1AF
  8
0
  0
BLOCK
  8
0
  2
*D14
 70
     1
 10
0.0
 20
0.0
 30
0.0
  3
*D14
  1

  0
TEXT
  5
1C2
  8
0
 62
     0
 10
-54.5918393842
 20
4.386226259999999
 30
0.0
 40
2.9986110209999999
  1
90%%d
 50
315.79361311320002
  0
ARC
  5
1C3
  8
0
 62
     0
 10
-64.528169014100001
 20
-9.6239436620000003
 30
0.0
 40
15.3835069168
 50
71.883958711899993
 51
90.0
  0
ARC
  5
1C4
  8
0
 62
     0
 10
-64.528169014100001
 20
-9.6239436620000003
 30
0.0
 40
15.3835069168
 50
0.0
 51
18.1160412881
  0
SOLID
  5
1C5
  8
0
 62
     0
 10
-49.144662097299992
 20
-9.6239436620000003
 30
0.0
 11
-48.394662097299992
 21
-12.623943662
 31
0.0
 12
-49.894662097299992
 22
-12.623943662
 32
0.0
 13
-49.144662097299992
 23
-11.873943662
 33
0.0
  0
SOLID
  5
1C6
  8
0
 62
     0
 10
-64.528169014100001
 20
5.7595632547999989
 30
0.0
 11
-67.528169014100001
 21
5.0095632547999989
 31
0.0
 12
-67.528169014100001
 22
6.5095632547999989
 32
0.0
 13
-66.778169014100001
 23
5.7595632547999989
 33
0.0
  0
ARC
  5
1C7
  8
0
 62
     0
 10
-64.528169014100001
 20
-9.6239436620000003
 30
0.0
 40
15.3835069168
 50
0.0
 51
29.071678565300001
  0
ARC
  5
1C8
  8
0
 62
     0
 10
-64.528169014100001
 20
-9.6239436620000003
 30
0.0
 40
15.3835069168
 50
62.515547661100001
 51
90.0
  0
LINE
  5
1C9
  8
0
 62
     0
 10
-33.128169014100003
 20
-9.6239436620000003
 30
0.0
 11
-51.144662097299992
 21
-9.6239436620000003
 31
0.0
  0
LINE
  5
1CA
  8
0
 62
     0
 10
-64.528169014100001
 20
9.7760563380000001
 30
0.0
 11
-64.528169014100001
 21
3.7595632548000002
 31
0.0
  0
ENDBLK
  5
1CB
  8
0
  0
BLOCK
  8
0
  2
*D15
 70
     1
 10
0.0
 20
0.0
 30
0.0
  3
*D15
  1

  0
TEXT
  5
1CF
  8
0
 62
     0
 10
-77.657335664900003
 20
-1.4878324978999991
 30
0.0
 40
2.9986110209999999
  1
23
 50
90.0
  0
LINE
  5
1D0
  8
0
 62
     0
 10
-68.128169014099996
 20
11.776056338
 30
0.0
 11
-77.128169014099996
 21
11.776056338
 31
0.0
  0
LINE
  5
1D1
  8
0
 62
     0
 10
-65.128169014099996
 20
-11.223943662
 30
0.0
 11
-77.128169014099996
 21
-11.223943662
 31
0.0
  0
LINE
  5
1D2
  8
0
 62
     0
 10
-76.128169014099996
 20
11.776056338
 30
0.0
 11
-76.128169014099996
 21
3.8038340098000001
 31
0.0
  0
LINE
  5
1D3
  8
0
 62
     0
 10
-76.128169014099996
 20
11.776056338
 30
0.0
 11
-76.128169014099996
 21
-3.2517213337999991
 31
0.0
  0
LINE
  5
1D4
  8
0
 62
     0
 10
-76.128169014099996
 20
-11.223943662
 30
0.0
 11
-76.128169014099996
 21
3.8038340098000001
 31
0.0
  0
LINE
  5
1D5
  8
0
 62
     0
 10
-76.128169014099996
 20
-11.223943662
 30
0.0
 11
-76.128169014099996
 21
-3.2517213337999991
 31
0.0
  0
LINE
  5
1D6
  8
0
 62
     0
 10
-76.128169014099996
 20
-11.223943662
 30
0.0
 11
-76.128169014099996
 21
-6.2239436619999999
 31
0.0
  0
SOLID
  5
1D7
  8
0
 62
     0
 10
-76.128169014099996
 20
-11.223943662
 30
0.0
 11
-76.878169014099996
 21
-8.2239436619999982
 31
0.0
 12
-75.378169014099996
 22
-8.2239436619999982
 32
0.0
 13
-76.128169014099996
 23
-8.9739436619999982
 33
0.0
  0
LINE
  5
1D8
  8
0
 62
     0
 10
-76.128169014099996
 20
11.776056338
 30
0.0
 11
-76.128169014099996
 21
6.7760563379999992
 31
0.0
  0
SOLID
  5
1D9
  8
0
 62
     0
 10
-76.128169014099996
 20
11.776056338
 30
0.0
 11
-75.378169014099996
 21
8.7760563380000001
 31
0.0
 12
-76.878169014099996
 22
8.7760563380000001
 32
0.0
 13
-76.128169014099996
 23
9.5260563380000001
 33
0.0
  0
ENDBLK
  5
1DA
  8
0
  0
BLOCK
  8
0
  2
*D16
 70
     1
 10
0.0
 20
0.0
 30
0.0
  3
*D16
  1

  0
TEXT
  5
1DE
  8
0
 62
     0
 10
-22.6573356649
 20
-7.4929921078999993
 30
0.0
 40
2.9986110209999999
  1
1.6t
 50
90.0
  0
LINE
  5
1DF
  8
0
 62
     0
 10
-29.128169014099999
 20
-11.223943662
 30
0.0
 11
-20.128169014099999
 21
-11.223943662
 31
0.0
  0
LINE
  5
1E0
  8
0
 62
     0
 10
-29.128169014099999
 20
-9.6239436620000003
 30
0.0
 11
-20.128169014099999
 21
-9.6239436620000003
 31
0.0
  0
LINE
  5
1E1
  8
0
 62
     0
 10
-21.128169014099999
 20
-11.223943662
 30
0.0
 11
-21.128169014099999
 21
1.3264520716999999
 31
0.0
  0
LINE
  5
1E2
  8
0
 62
     0
 10
-21.128169014099999
 20
-11.223943662
 30
0.0
 11
-21.128169014099999
 21
-9.2568809438000006
 31
0.0
  0
LINE
  5
1E3
  8
0
 62
     0
 10
-21.128169014099999
 20
-9.6239436620000003
 30
0.0
 11
-21.128169014099999
 21
1.3264520716999999
 31
0.0
  0
LINE
  5
1E4
  8
0
 62
     0
 10
-21.128169014099999
 20
-9.6239436620000003
 30
0.0
 11
-21.128169014099999
 21
-9.2568809438000006
 31
0.0
  0
LINE
  5
1E5
  8
0
 62
     0
 10
-21.128169014099999
 20
-9.6239436620000003
 30
0.0
 11
-21.128169014099999
 21
-4.6239436620000003
 31
0.0
  0
SOLID
  5
1E6
  8
0
 62
     0
 10
-21.128169014099999
 20
-9.6239436620000003
 30
0.0
 11
-21.878169014099999
 21
-6.6239436620000003
 31
0.0
 12
-20.378169014099999
 22
-6.6239436620000003
 32
0.0
 13
-21.128169014099999
 23
-7.3739436620000003
 33
0.0
  0
LINE
  5
1E7
  8
0
 62
     0
 10
-21.128169014099999
 20
-11.223943662
 30
0.0
 11
-21.128169014099999
 21
-16.223943662
 31
0.0
  0
SOLID
  5
1E8
  8
0
 62
     0
 10
-21.128169014099999
 20
-11.223943662
 30
0.0
 11
-20.378169014099999
 21
-14.223943662
 31
0.0
 12
-21.878169014099999
 22
-14.223943662
 32
0.0
 13
-21.128169014099999
 23
-13.473943662
 33
0.0
  0
ENDBLK
  5
1E9
  8
0
  0
BLOCK
  8
0
  2
*D17
 70
     1
 10
0.0
 20
0.0
 30
0.0
  3
*D17
  1

  0
TEXT
  5
1F6
  8
0
 62
     0
 10
-50.39205785
 20
-19.694777011199999
 30
0.0
 40
2.9986110209999999
  1
35
  0
LINE
  5
1F7
  8
0
 62
     0
 10
-66.128169014099996
 20
-10.223943662
 30
0.0
 11
-66.128169014099996
 21
-22.223943662
 31
0.0
  0
LINE
  5
1F8
  8
0
 62
     0
 10
-31.128169014099999
 20
-13.223943662
 30
0.0
 11
-31.128169014099999
 21
-22.223943662
 31
0.0
  0
LINE
  5
1F9
  8
0
 62
     0
 10
-66.128169014099996
 20
-21.223943662
 30
0.0
 11
-45.100391342299993
 21
-21.223943662
 31
0.0
  0
LINE
  5
1FA
  8
0
 62
     0
 10
-66.128169014099996
 20
-21.223943662
 30
0.0
 11
-52.155946685899998
 21
-21.223943662
 31
0.0
  0
LINE
  5
1FB
  8
0
 62
     0
 10
-31.128169014099999
 20
-21.223943662
 30
0.0
 11
-45.100391342299993
 21
-21.223943662
 31
0.0
  0
LINE
  5
1FC
  8
0
 62
     0
 10
-31.128169014099999
 20
-21.223943662
 30
0.0
 11
-52.155946685899998
 21
-21.223943662
 31
0.0
  0
LINE
  5
1FD
  8
0
 62
     0
 10
-31.128169014099999
 20
-21.223943662
 30
0.0
 11
-36.128169014100003
 21
-21.223943662
 31
0.0
  0
SOLID
  5
1FE
  8
0
 62
     0
 10
-31.128169014099999
 20
-21.223943662
 30
0.0
 11
-34.128169014100003
 21
-21.973943662
 31
0.0
 12
-34.128169014100003
 22
-20.473943662
 32
0.0
 13
-33.378169014100003
 23
-21.223943662
 33
0.0
  0
LINE
  5
1FF
  8
0
 62
     0
 10
-66.128169014099996
 20
-21.223943662
 30
0.0
 11
-61.128169014099988
 21
-21.223943662
 31
0.0
  0
SOLID
  5
200
  8
0
 62
     0
 10
-66.128169014099996
 20
-21.223943662
 30
0.0
 11
-63.128169014099988
 21
-20.473943662
 31
0.0
 12
-63.128169014099988
 22
-21.973943662
 32
0.0
 13
-63.878169014099988
 23
-21.223943662
 33
0.0
  0
ENDBLK
  5
201
  8
0
  0
BLOCK
  8
0
  2
*U18
 70
     1
 10
0.0
 20
0.0
 30
0.0
  3
*U18
  1

  0
TEXT
  5
222
  8
図枠
  6
CONTINUOUS
 10
82.937913408920835
 20
116.50352724590761
 30
0.0
 40
2.698480084499999
  1
改　訂　内　容
  0
ENDBLK
  5
224
  8
0
  0
BLOCK
  8
0
  2
*U19
 70
     1
 10
0.0
 20
0.0
 30
0.0
  3
*U19
  1

  0
TEXT
  5
226
  8
図枠
  6
CONTINUOUS
 10
129.9609199233802
 20
116.48982937745831
 30
0.0
 40
2.698480084499999
  1
検認者
  0
ENDBLK
  5
228
  8
0
  0
BLOCK
  8
0
  2
*U20
 70
     1
 10
0.0
 20
0.0
 30
0.0
  3
*U20
  1

  0
TEXT
  5
22A
  8
図枠
  6
CONTINUOUS
 10
120.00301352872791
 20
116.50352724590761
 30
0.0
 40
2.698480084499999
  1
改訂者
  0
ENDBLK
  5
22C
  8
0
  0
BLOCK
  8
0
  2
*U21
 70
     1
 10
0.0
 20
0.0
 30
0.0
  3
*U21
  1

  0
TEXT
  5
22E
  8
図枠
  6
CONTINUOUS
 10
46.633710939962697
 20
116.5583187197045
 30
0.0
 40
2.698480084499999
  1
副番
  0
ENDBLK
  5
230
  8
0
  0
BLOCK
  8
0
  2
*U22
 70
     1
 10
0.0
 20
0.0
 30
0.0
  3
*U22
  1

  0
TEXT
  5
232
  8
図枠
  6
CONTINUOUS
 10
56.865485910010911
 20
116.5309229828061
 30
0.0
 40
2.698480084499999
  1
改訂日
  0
ENDBLK
  5
234
  8
0
  0
BLOCK
  8
0
  2
*U23
 70
     1
 10
0.0
 20
0.0
 30
0.0
  3
*U23
  1

  0
TEXT
  5
236
  8
図枠
  6
CONTINUOUS
 10
84.230988222090872
 20
-47.18551469195279
 30
0.0
 40
2.337266249999999
  1
製品名
  0
ENDBLK
  5
238
  8
0
  0
BLOCK
  8
0
  2
*U24
 70
     1
 10
0.0
 20
0.0
 30
0.0
  3
*U24
  1

  0
TEXT
  5
23A
  8
図枠
  6
CONTINUOUS
 10
61.211070076667013
 20
-42.791423645384263
 30
0.0
 40
2.8047194594999989
  1
指定無き公差はJIS 0408-Bによること
  0
ENDBLK
  5
23C
  8
0
  0
BLOCK
  8
0
  2
*U25
 70
     1
 10
0.0
 20
0.0
 30
0.0
  3
*U25
  1

  0
TEXT
  5
23E
  8
図枠
  6
CONTINUOUS
 10
84.296241848359927
 20
-55.660936100582227
 30
0.0
 40
2.337266249999999
  1
図面名
  0
ENDBLK
  5
240
  8
0
  0
BLOCK
  8
0
  2
*U26
 70
     1
 10
0.0
 20
0.0
 30
0.0
  3
*U26
  1

  0
TEXT
  5
242
  8
図枠
  6
CONTINUOUS
 10
69.330003850263452
 20
-55.89017754605279
 30
0.0
 40
2.337266249999999
  1
柳 原
  0
ENDBLK
  5
244
  8
0
  0
BLOCK
  8
0
  2
*U27
 70
     1
 10
0.0
 20
0.0
 30
0.0
  3
*U27
  1

  0
TEXT
  5
246
  8
図枠
  6
CONTINUOUS
 10
39.404189624375128
 20
-55.830856067626399
 30
0.0
 40
2.337266249999999
  1
園 原
  0
ENDBLK
  5
248
  8
0
  0
BLOCK
  8
0
  2
*U28
 70
     1
 10
0.0
 20
0.0
 30
0.0
  3
*U28
  1

  0
TEXT
  5
24A
  8
図枠
  6
CONTINUOUS
 10
24.012835512700001
 20
-55.866448954682227
 30
0.0
 40
2.337266249999999
  1
 設計
  0
ENDBLK
  5
24C
  8
0
  0
BLOCK
  8
0
  2
*U29
 70
     1
 10
0.0
 20
0.0
 30
0.0
  3
*U29
  1

  0
TEXT
  5
24E
  8
図枠
  6
CONTINUOUS
 10
84.284377552674627
 20
-64.136357509211678
 30
0.0
 40
2.337266249999999
  1
図　番
  0
ENDBLK
  5
250
  8
0
  0
BLOCK
  8
0
  2
*U30
 70
     1
 10
0.0
 20
0.0
 30
0.0
  3
*U30
  1

  0
TEXT
  5
252
  8
図枠
  6
CONTINUOUS
 10
29.0822206554665
 20
-47.319841771941121
 30
0.0
 40
2.337266249999999
  1
日 　付
  0
ENDBLK
  5
254
  8
0
  0
BLOCK
  8
0
  2
*U31
 70
     1
 10
0.0
 20
0.0
 30
0.0
  3
*U31
  1

  0
TEXT
  5
256
  8
図枠
  6
CONTINUOUS
 10
48.831070446075643
 20
-47.39102754605279
 30
0.0
 40
2.337266249999999
  1
尺 　度
  0
ENDBLK
  5
258
  8
0
  0
BLOCK
  8
0
  2
*U32
 70
     1
 10
0.0
 20
0.0
 30
0.0
  3
*U32
  1

  0
TEXT
  5
25A
  8
図枠
  6
CONTINUOUS
 10
30.233057336938579
 20
-51.521959589200002
 30
0.0
 40
2.337266249999999
  1
H12.9
  0
ENDBLK
  5
25C
  8
0
  0
BLOCK
  8
0
  2
*U33
 70
     1
 10
0.0
 20
0.0
 30
0.0
  3
*U33
  1

  0
TEXT
  5
25E
  8
図枠
  6
CONTINUOUS
 10
69.330003850263452
 20
-60.139752546052797
 30
0.0
 40
2.337266249999999
  1
柳 原
  0
ENDBLK
  5
260
  8
0
  0
BLOCK
  8
0
  2
*U34
 70
     1
 10
0.0
 20
0.0
 30
0.0
  3
*U34
  1

  0
TEXT
  5
262
  8
図枠
  6
CONTINUOUS
 10
54.009835512700008
 20
-55.878313250367512
 30
0.0
 40
2.337266249999999
  1
 照査
  0
ENDBLK
  5
264
  8
0
  0
BLOCK
  8
0
  2
*U35
 70
     1
 10
0.0
 20
0.0
 30
0.0
  3
*U35
  1

  0
TEXT
  5
266
  8
図枠
  6
CONTINUOUS
 10
54.009835512700008
 20
-60.151616841738083
 30
0.0
 40
2.337266249999999
  1
 検図
  0
ENDBLK
  5
268
  8
0
  0
BLOCK
  8
0
  2
*U36
 70
     1
 10
0.0
 20
0.0
 30
0.0
  3
*U36
  1

  0
TEXT
  5
26A
  8
図枠
  6
CONTINUOUS
 10
51.120879513334522
 20
-51.521959589200002
 30
0.0
 40
2.337266249999999
  1
1：1
  0
ENDBLK
  5
26C
  8
0
  0
BLOCK
  8
0
  2
*U37
 70
     1
 10
0.0
 20
0.0
 30
0.0
  3
*U37
  1

  0
TEXT
  5
26E
  8
図枠
  6
CONTINUOUS
 10
115.2243733988447
 20
-31.810897444599998
 30
0.0
 40
3.229676959499999
  1
1.6t
  0
ENDBLK
  5
270
  8
0
  0
BLOCK
  8
0
  2
*U38
 70
     1
 10
0.0
 20
0.0
 30
0.0
  3
*U38
  1

  0
TEXT
  5
272
  8
図枠
  6
CONTINUOUS
 10
82.816472431240598
 20
-31.792523645384271
 30
0.0
 40
2.8047194594999989
  1
板　　厚
  0
ENDBLK
  5
274
  8
0
  0
BLOCK
  8
0
  2
*U39
 70
     1
 10
0.0
 20
0.0
 30
0.0
  3
*U39
  1

  0
TEXT
  5
276
  8
図枠
  6
CONTINUOUS
 10
25.414154757623859
 20
-60.139752546052797
 30
0.0
 40
2.337266249999999
  1
製図
  0
ENDBLK
  5
278
  8
0
  0
BLOCK
  8
0
  2
*U40
 70
     1
 10
0.0
 20
0.0
 30
0.0
  3
*U40
  1

  0
TEXT
  5
27A
  8
図枠
  6
CONTINUOUS
 10
101.2974764522627
 20
-66.711018144999997
 30
0.0
 40
2.9983111599000001
  1
ＳＲＫ００１２１
  0
ENDBLK
  5
27C
  8
0
  0
BLOCK
  8
0
  2
*U41
 70
     1
 10
0.0
 20
0.0
 30
0.0
  3
*U41
  1

  0
TEXT
  5
27E
  8
図枠
  6
CONTINUOUS
 10
104.13597914932529
 20
-58.272747559414221
 30
0.0
 40
2.9983111599000001
  1
LY-614 承認図
  0
ENDBLK
  5
280
  8
0
  0
BLOCK
  8
0
  2
*U42
 70
     1
 10
0.0
 20
0.0
 30
0.0
  3
*U42
  1

  0
TEXT
  5
282
  8
図枠
  6
CONTINUOUS
 10
39.404189624375128
 20
-60.0804310676264
 30
0.0
 40
2.337266249999999
  1
園 原
  0
ENDBLK
  5
284
  8
0
  0
BLOCK
  8
0
  2
*U43
 70
     1
 10
0.0
 20
0.0
 30
0.0
  3
*U43
  1

  0
TEXT
  5
286
  8
図枠
  6
CONTINUOUS
 10
26.857665317782491
 20
-31.735575026917271
 30
0.0
 40
2.8047194594999989
  1
材　　質
  0
ENDBLK
  5
288
  8
0
  0
BLOCK
  8
0
  2
*U44
 70
     1
 10
0.0
 20
0.0
 30
0.0
  3
*U44
  1

  0
TEXT
  5
28A
  8
図枠
  6
CONTINUOUS
 10
26.900376781632751
 20
-42.819897954617772
 30
0.0
 40
2.8047194594999989
  1
一般公差
  0
ENDBLK
  5
28C
  8
0
  0
BLOCK
  8
0
  2
*U45
 70
     1
 10
0.0
 20
0.0
 30
0.0
  3
*U45
  1

  0
TEXT
  5
28E
  8
図枠
  6
CONTINUOUS
 10
28.232967182100001
 20
-67.513100359306591
 30
0.0
 40
4.3175681352000002
  1
株式会社
  0
ENDBLK
  5
290
  8
0
  0
BLOCK
  8
0
  2
*U46
 70
     1
 10
0.0
 20
0.0
 30
0.0
  3
*U46
  1

  0
TEXT
  5
292
  8
図枠
  6
CONTINUOUS
 10
103.4130361031566
 20
-50.017115217071073
 30
0.0
 40
2.9983111599000001
  1
Ｌ型ブラケット
  0
ENDBLK
  5
294
  8
0
  0
BLOCK
  8
0
  2
*U47
 70
     1
 10
0.0
 20
0.0
 30
0.0
  3
*U47
  1

  0
TEXT
  5
296
  8
図枠
  6
CONTINUOUS
 10
61.211070076667013
 20
-42.791423645384263
 30
0.0
 40
2.8047194594999989
  1
指定無き公差はJIS 0408-Bによること
  0
ENDBLK
  5
298
  8
0
  0
BLOCK
  8
0
  2
*U48
 70
     1
 10
0.0
 20
0.0
 30
0.0
  3
*U48
  1

  0
TEXT
  5
29A
  8
図枠
  6
CONTINUOUS
 10
79.463102295342139
 20
-37.220787872300512
 30
0.0
 40
2.8047194594999989
  1
ユニクロメッキ
  0
ENDBLK
  5
29C
  8
0
  0
BLOCK
  8
0
  2
*U49
 70
     1
 10
0.0
 20
0.0
 30
0.0
  3
*U49
  1

  0
TEXT
  5
29E
  8
図枠
  6
CONTINUOUS
 10
58.597483136586803
 20
-31.579531644999999
 30
0.0
 40
2.9983111599000001
  1
SPCC
  0
ENDBLK
  5
2A0
  8
0
  0
BLOCK
  8
0
  2
*U50
 70
     1
 10
0.0
 20
0.0
 30
0.0
  3
*U50
  1

  0
TEXT
  5
2A2
  8
図枠
  6
CONTINUOUS
 10
26.829191008548989
 20
-37.263499336150758
 30
0.0
 40
2.8047194594999989
  1
表面処理
  0
ENDBLK
  5
2A4
  8
0
  0
BLOCK
  8
0
  2
*D51
 70
     1
 10
0.0
 20
0.0
 30
0.0
  3
*D51
  1

  0
LINE
  5
2A7
  8
寸法線
 62
     0
 10
-31.190669014099999
 20
-9.6239436620000003
 30
0.0
 11
-50.394662097320577
 21
-9.6239436619999985
 31
0.0
  0
LINE
  5
2A8
  8
寸法線
 62
     0
 10
-64.528169014100001
 20
11.713556338
 30
0.0
 11
-64.528169014100001
 21
4.5095632547794251
 31
0.0
  0
ARC
  5
2A9
  8
寸法線
 62
     0
 10
-64.528169014100001
 20
-9.6239436619999985
 30
0.0
 40
15.383506916779419
 50
11.191263779313431
 51
28.246808103183199
  0
ARC
  5
2AA
  8
寸法線
 62
     0
 10
-64.528169014100001
 20
-9.6239436619999985
 30
0.0
 40
15.383506916779419
 50
63.340418123527833
 51
78.808736220686555
  0
SOLID
  5
2AB
  8
寸法線
 62
     0
 10
-48.939565755281023
 20
-6.5894856394724171
 30
0.0
 11
-49.934800591886692
 21
-6.6869926648935163
 31
0.0
 12
-49.144662097320577
 22
-9.6239436620000021
 32
0.0
 13
-49.144662097320577
 23
-9.6239436620000021
 33
0.0
  0
SOLID
  5
2AC
  8
寸法線
 62
     0
 10
-61.591218016993523
 20
4.969424760213303
 30
0.0
 11
-61.493710991572421
 21
5.9646595968189748
 31
0.0
 12
-64.528169014100001
 22
5.7595632547794224
 32
0.0
 13
-64.528169014100001
 23
5.7595632547794224
 33
0.0
  0
TEXT
  8
寸法線
  40
2.99861
  5
2B4
  62
0
  72
0
  71
0
 10
-59.7993
 20
-3.90408
 30
0.000000
  1
90°
  0
POINT
  5
2AE
  8
Defpoints
 62
     0
 10
-64.528169014100001
 20
-9.6239436619999985
 30
0.0
  0
POINT
  5
2AF
  8
Defpoints
 62
     0
 10
-31.128169014099999
 20
-9.6239436620000003
 30
0.0
  0
POINT
  5
2B0
  8
Defpoints
 62
     0
 10
-64.528169014100001
 20
11.776056338
 30
0.0
  0
POINT
  5
2B1
  8
Defpoints
 62
     0
 10
-51.205661224875399
 20
-1.932190203610286
 30
0.0
  0
ENDBLK
  5
2B3
  8
0
  0
ENDSEC
  0
SECTION
  2
ENTITIES
  0
LINE
  5
2F
  8
図枠
 62
     5
 10
120.0032355127
 20
105.2553945149
 30
0.0
 11
120.0032355127
 21
120.2538945149
 31
0.0
  0
LINE
  5
30
  8
図枠
 62
     5
 10
46.010635512700013
 20
115.2543945149
 30
0.0
 11
140.00123551269999
 21
115.2543945149
 31
0.0
  0
LINE
  5
32
  8
ﾚｲﾔ_1
 62
     5
 10
50.928873239399998
 20
63.634272300500001
 30
0.0
 11
50.928873239399998
 21
58.134272300500001
 31
0.0
  0
LINE
  5
33
  8
ﾚｲﾔ_1
 62
     5
 10
55.428873239399998
 20
58.134272300500001
 30
0.0
 11
55.428873239399998
 21
63.634272300500001
 31
0.0
  0
DIMENSION
  5
44
  8
寸法線
  2
*D0
 10
33.178873239399998
 20
60.884272300500001
 30
0.0
 11
33.178873239399998
 21
54.634272300500001
 31
0.0
 70
   128
  1
<>
 13
49.678873239399998
 23
60.884272300500001
 33
0.0
 14
43.178873239399991
 24
48.384272300500001
 34
0.0
 50
90.0
  0
DIMENSION
  5
53
  8
寸法線
  2
*D1
 10
33.178873239399998
 20
73.384272300500001
 30
0.0
 11
33.178873239399998
 21
67.134272300500001
 31
0.0
 70
   128
  1
<>
 13
43.178873239399991
 23
73.384272300500001
 33
0.0
 14
49.678873239399998
 24
60.884272300500001
 34
0.0
 50
90.0
  0
DIMENSION
  5
62
  8
寸法線
  2
*D2
 10
53.178873239399991
 20
38.384272300500001
 30
0.0
 11
59.678873239399998
 21
38.384272300500001
 31
0.0
 70
   128
  1
<>
 13
53.178873239399991
 23
53.884272300500001
 33
0.0
 14
66.178873239399991
 24
48.384272300500001
 34
0.0
 50
180.0
  0
DIMENSION
  5
71
  8
寸法線
  2
*D3
 10
43.178873239399991
 20
38.384272300500001
 30
0.0
 11
48.178873239399991
 21
38.384272300500001
 31
0.0
 70
   128
  1
<>
 13
43.178873239399991
 23
48.384272300500001
 33
0.0
 14
53.178873239399991
 24
53.884272300500001
 34
0.0
 50
180.0
  0
DIMENSION
  5
80
  8
寸法線
  2
*D4
 10
55.428873239399998
 20
82.599295389999995
 30
0.0
 11
53.178873239399991
 21
82.599295389999995
 31
0.0
 70
   128
  1
<>
 13
55.428873239399998
 23
63.634272300500001
 33
0.0
 14
50.928873239399998
 24
63.634272300500001
 34
0.0
  0
DIMENSION
  5
8F
  8
寸法線
  2
*D5
 10
75.465758116099991
 20
55.884272300500001
 30
0.0
 11
75.465758116099991
 21
60.884272300500001
 31
0.0
 70
   128
  1
<>
 13
53.178873239399991
 23
55.884272300500001
 33
0.0
 14
53.178873239399991
 24
65.884272300500001
 34
0.0
 50
90.0
  0
INSERT
  5
90
  8
0
  6
CONTINUOUS
  2
*U18
 10
0.0
 20
0.0
 30
0.0
  0
LINE
  5
91
  8
図枠
 62
     5
 10
46.010635512700013
 20
110.2548945149
 30
0.0
 11
140.00123551269999
 21
110.2548945149
 31
0.0
  0
LINE
  5
92
  8
図枠
 62
     5
 10
47.251226055200007
 20
105.7361381867
 30
0.0
 11
52.200731055200002
 21
105.7361381867
 31
0.0
  0
LINE
  5
93
  8
図枠
 62
     5
 10
47.251226055200007
 20
110.68564318670001
 30
0.0
 11
52.200731055200002
 21
110.68564318670001
 31
0.0
  0
LINE
  5
94
  8
図枠
 62
     5
 10
49.725978555200001
 20
110.0225352528
 30
0.0
 11
52.200731055200002
 21
105.7361381867
 31
0.0
  0
LINE
  5
95
  8
図枠
 62
     5
 10
49.725978555200001
 20
110.0225352528
 30
0.0
 11
47.251226055200007
 21
105.7361381867
 31
0.0
  0
LINE
  5
96
  8
図枠
 62
     5
 10
46.010635512700013
 20
105.2553945149
 30
0.0
 11
140.00123551269999
 21
105.2553945149
 31
0.0
  0
LINE
  5
97
  8
図枠
 62
     5
 10
70.008235512700011
 20
105.2553945149
 30
0.0
 11
70.008235512700011
 21
120.2538945149
 31
0.0
  0
LINE
  5
98
  8
図枠
 62
     5
 10
46.010635512700013
 20
105.2553945149
 30
0.0
 11
46.010635512700013
 21
120.2538945149
 31
0.0
  0
LINE
  5
99
  8
図枠
 62
     5
 10
49.725978555200001
 20
114.9720402528
 30
0.0
 11
47.251226055200007
 21
110.68564318670001
 31
0.0
  0
LINE
  5
9A
  8
図枠
 62
     5
 10
49.725978555200001
 20
114.9720402528
 30
0.0
 11
52.200731055200002
 21
110.68564318670001
 31
0.0
  0
LINE
  5
9B
  8
図枠
 62
     5
 10
54.009835512700008
 20
105.2553945149
 30
0.0
 11
54.009835512700008
 21
120.2538945149
 31
0.0
  0
INSERT
  5
9C
  8
0
  6
CONTINUOUS
  2
*U19
 10
0.0
 20
0.0
 30
0.0
  0
INSERT
  5
9D
  8
0
  6
CONTINUOUS
  2
*U20
 10
0.0
 20
0.0
 30
0.0
  0
LINE
  5
9E
  8
図枠
 62
     5
 10
130.0022355127
 20
105.2553945149
 30
0.0
 11
130.0022355127
 21
120.2538945149
 31
0.0
  0
INSERT
  5
9F
  8
0
  6
CONTINUOUS
  2
*U21
 10
0.0
 20
0.0
 30
0.0
  0
INSERT
  5
A0
  8
0
  6
CONTINUOUS
  2
*U22
 10
0.0
 20
0.0
 30
0.0
  0
INSERT
  5
A1
  8
0
  6
CONTINUOUS
  2
*U23
 10
0.0
 20
0.0
 30
0.0
  0
INSERT
  5
A2
  8
0
  6
CONTINUOUS
  2
*U24
 10
0.0
 20
0.0
 30
0.0
  0
LINE
  5
A3
  8
図枠
 10
67.763196246899994
 20
-65.414655123900005
 30
0.0
 11
67.570738849500003
 21
-65.627224553299996
 31
0.0
  0
LINE
  5
A4
  8
図枠
 10
75.338183275900008
 20
-49.631115285100002
 30
0.0
 11
79.945722475899984
 21
-50.783000085099999
 31
0.0
  0
INSERT
  5
A5
  8
0
  6
CONTINUOUS
  2
*U25
 10
0.0
 20
0.0
 30
0.0
  0
LINE
  5
A6
  8
図枠
 10
75.338183275900008
 20
-47.327345685099992
 30
0.0
 11
79.945722475899984
 21
-46.175460885100001
 31
0.0
  0
LINE
  5
A7
  8
図枠
 10
77.371942886300005
 20
-63.9595439255
 30
0.0
 11
80.306877878599991
 21
-63.9595439255
 31
0.0
  0
LINE
  5
A8
  8
図枠
 10
75.106331318599999
 20
-63.9595439255
 30
0.0
 11
74.70743787859999
 21
-62.599679925499998
 31
0.0
  0
LINE
  5
A9
  8
図枠
 10
73.107597878600004
 20
-65.399399925500006
 30
0.0
 11
75.528689078599996
 21
-65.399399925500006
 31
0.0
  0
LINE
  5
AA
  8
図枠
 10
99.005335512700015
 20
-33.230755485100012
 30
0.0
 11
99.005335512700015
 21
-27.731305485099998
 31
0.0
  0
LINE
  5
AB
  8
図枠
 10
70.533869158599984
 20
-63.799559925499999
 30
0.0
 11
71.333789158599984
 21
-62.599679925499998
 31
0.0
  0
LINE
  5
AC
  8
図枠
 10
24.012835512700001
 20
-33.230755485100012
 30
0.0
 11
140.00123551269999
 21
-33.230755485100012
 31
0.0
  0
LINE
  5
AD
  8
図枠
 10
79.945722475899984
 20
-46.175460885100001
 30
0.0
 11
79.945722475899984
 21
-50.783000085099999
 31
0.0
  0
LINE
  5
AE
  8
図枠
 10
75.338183275900008
 20
-49.631115285100002
 30
0.0
 11
79.945722475899984
 21
-50.783000085099999
 31
0.0
  0
ARC
  5
AF
  8
ﾚｲﾔ_1
 62
     5
 10
53.178873239399991
 20
58.134272300500001
 30
0.0
 40
2.25
 50
180.0
 51
0.0
  0
LINE
  5
B0
  8
ﾚｲﾔ_1
  6
BORDER
 62
     3
 10
53.178873239399991
 20
67.884272300500001
 30
0.0
 11
53.178873239399991
 21
53.884272300500001
 31
0.0
  0
ARC
  5
B1
  8
ﾚｲﾔ_1
 62
     5
 10
53.178873239399991
 20
63.634272300500001
 30
0.0
 40
2.25
 50
0.0
 51
180.0
  0
LINE
  5
B2
  8
ﾚｲﾔ_1
  6
BORDER
 62
     3
 10
56.678873239399998
 20
60.884272300500001
 30
0.0
 11
49.678873239399998
 21
60.884272300500001
 31
0.0
  0
ARC
  5
B3
  8
ﾚｲﾔ_1
 62
     5
 10
45.678873239399991
 20
70.884272300500001
 30
0.0
 40
2.5
 50
90.0
 51
180.0
  0
LINE
  5
B4
  8
ﾚｲﾔ_1
 62
     5
 10
66.178873239399991
 20
73.384272300500001
 30
0.0
 11
45.678873239399991
 21
73.384272300500001
 31
0.0
  0
LINE
  5
B5
  8
ﾚｲﾔ_1
 62
     5
 10
43.178873239399991
 20
70.884272300500001
 30
0.0
 11
43.178873239399991
 21
50.884272300500001
 31
0.0
  0
ARC
  5
B6
  8
ﾚｲﾔ_1
 62
     5
 10
45.678873239399991
 20
50.884272300500001
 30
0.0
 40
2.5
 50
180.0
 51
270.0
  0
LINE
  5
B7
  8
ﾚｲﾔ_1
 62
     5
 10
45.678873239399991
 20
48.384272300500001
 30
0.0
 11
66.178873239399991
 21
48.384272300500001
 31
0.0
  0
LINE
  5
B8
  8
ﾚｲﾔ_1
 62
     5
 10
64.578873239399996
 20
48.384272300500001
 30
0.0
 11
64.578873239399996
 21
73.384272300500001
 31
0.0
  0
LINE
  5
B9
  8
ﾚｲﾔ_1
 62
     5
 10
66.178873239399991
 20
48.384272300500001
 30
0.0
 11
66.178873239399991
 21
73.384272300500001
 31
0.0
  0
LINE
  5
BA
  8
図枠
 10
73.107597878600004
 20
-63.9595439255
 30
0.0
 11
75.106331318599999
 21
-63.9595439255
 31
0.0
  0
LINE
  5
BB
  8
図枠
 10
24.012835512700001
 20
-27.731305485099998
 30
0.0
 11
140.00123551269999
 21
-27.731305485099998
 31
0.0
  0
INSERT
  5
BC
  8
0
  6
CONTINUOUS
  2
*U26
 10
0.0
 20
0.0
 30
0.0
  0
LINE
  5
BD
  8
図枠
  6
BORDER
 10
70.072229112700001
 20
-45.023576085099997
 30
0.0
 11
70.072229112700001
 21
-51.934884885099997
 31
0.0
  0
LINE
  5
BE
  8
図枠
 10
64.134509158599997
 20
-64.714844815799992
 30
0.0
 11
64.134509158599997
 21
-64.457182370600009
 31
0.0
  0
LINE
  5
BF
  8
図枠
 10
57.2067171586
 20
-63.799559925499999
 30
0.0
 11
58.406597158599993
 21
-62.599679925499998
 31
0.0
  0
INSERT
  5
C0
  8
0
  6
CONTINUOUS
  2
*U27
 10
0.0
 20
0.0
 30
0.0
  0
LINE
  5
C1
  8
図枠
 10
54.2861261977
 20
-65.399399925500006
 30
0.0
 11
55.0860461977
 21
-65.399399925500006
 31
0.0
  0
INSERT
  5
C2
  8
0
  6
CONTINUOUS
  2
*U28
 10
0.0
 20
0.0
 30
0.0
  0
LINE
  5
C3
  8
図枠
 10
64.134509158599997
 20
-66.999239925500007
 30
0.0
 11
64.134509158599997
 21
-68.1991199255
 31
0.0
  0
LINE
  5
C4
  8
図枠
 10
24.012835512700001
 20
-27.731305485099998
 30
0.0
 11
24.012835512700001
 21
-44.229655485099997
 31
0.0
  0
INSERT
  5
C5
  8
0
  6
CONTINUOUS
  2
*U29
 10
0.0
 20
0.0
 30
0.0
  0
LINE
  5
C6
  8
図枠
 10
73.107597878600004
 20
-67.479191925500004
 30
0.0
 11
76.138761398599996
 21
-67.479191925500004
 31
0.0
  0
INSERT
  5
C7
  8
0
  6
CONTINUOUS
  2
*U30
 10
0.0
 20
0.0
 30
0.0
  0
LINE
  5
C8
  8
図枠
 10
64.134509158599997
 20
-68.1991199255
 30
0.0
 11
64.134509158599997
 21
-66.999239925500007
 31
0.0
  0
LINE
  5
C9
  8
図枠
 10
58.806557158599993
 20
-62.599679925499998
 30
0.0
 11
58.806557158599993
 21
-64.199519925499999
 31
0.0
  0
LINE
  5
CA
  8
図枠
 10
60.806357158599987
 20
-63.799559925499999
 30
0.0
 11
62.006237158599987
 21
-62.599679925499998
 31
0.0
  0
CIRCLE
  5
CB
  8
図枠
 10
70.072229112700001
 20
-48.479230485100011
 30
0.0
 40
2.303769599999999
  0
CIRCLE
  5
CC
  8
図枠
 10
70.072229112700001
 20
-48.479230485100011
 30
0.0
 40
1.151884799999999
  0
LINE
  5
CD
  8
図枠
 10
58.806557158599993
 20
-65.399399925500006
 30
0.0
 11
58.806557158599993
 21
-65.799359925499999
 31
0.0
  0
LINE
  5
CE
  8
図枠
 10
57.606677158599993
 20
-66.999239925500007
 30
0.0
 11
55.206917158599992
 21
-66.999239925500007
 31
0.0
  0
ARC
  5
CF
  8
図枠
 10
66.13430915859999
 20
-63.799559925499999
 30
0.0
 40
4.3995600000000001
 50
322.48761197969998
 51
0.0
  0
LINE
  5
D0
  8
図枠
  6
BORDER
 10
70.072229112700001
 20
-45.023576085099997
 30
0.0
 11
70.072229112700001
 21
-51.934884885099997
 31
0.0
  0
LINE
  5
D1
  8
図枠
  6
BORDER
 10
70.072229112700001
 20
-45.023576085099997
 30
0.0
 11
70.072229112700001
 21
-51.934884885099997
 31
0.0
  0
LINE
  5
D2
  8
図枠
 10
54.009835512700008
 20
-52.728805485099997
 30
0.0
 11
54.009835512700008
 21
-61.227955485099997
 31
0.0
  0
LINE
  5
D3
  8
図枠
 10
74.70743787859999
 20
-62.599679925499998
 30
0.0
 11
77.90711787859999
 21
-62.599679925499998
 31
0.0
  0
LINE
  5
D4
  8
図枠
 10
77.371942886300005
 20
-63.9595439255
 30
0.0
 11
77.254839197700008
 21
-63.552601511400013
 31
0.0
  0
LINE
  5
D5
  8
図枠
 10
79.945722475899984
 20
-46.175460885100001
 30
0.0
 11
79.945722475899984
 21
-50.783000085099999
 31
0.0
  0
ARC
  5
D6
  8
図枠
 10
58.406597158599993
 20
-65.799359925499999
 30
0.0
 40
2.3997599999999988
 50
270.0
 51
0.0
  0
INSERT
  5
D7
  8
0
  6
CONTINUOUS
  2
*U31
 10
0.0
 20
0.0
 30
0.0
  0
LINE
  5
D8
  8
図枠
 10
46.010635512700013
 20
-48.479230485100011
 30
0.0
 11
60.009235512700002
 21
-48.479230485100011
 31
0.0
  0
ARC
  5
D9
  8
図枠
 10
65.094413158599991
 20
-63.9595439255
 30
0.0
 40
3.0396959999999988
 50
270.0
 51
298.08590481520002
  0
INSERT
  5
DA
  8
0
  6
CONTINUOUS
  2
*U32
 10
0.0
 20
0.0
 30
0.0
  0
INSERT
  5
DB
  8
0
  6
CONTINUOUS
  2
*U33
 10
0.0
 20
0.0
 30
0.0
  0
CIRCLE
  5
DC
  8
図枠
 10
70.072229112700001
 20
-48.479230485100011
 30
0.0
 40
1.151884799999999
  0
LINE
  5
DD
  8
図枠
 10
64.134509158599997
 20
-68.1991199255
 30
0.0
 11
66.13430915859999
 21
-68.1991199255
 31
0.0
  0
LINE
  5
DE
  8
図枠
 10
57.2067171586
 20
-65.399399925500006
 30
0.0
 11
58.806557158599993
 21
-65.399399925500006
 31
0.0
  0
LINE
  5
DF
  8
図枠
 10
67.334189158599983
 20
-64.457182370600009
 30
0.0
 11
66.881686073500006
 21
-64.909685455800002
 31
0.0
  0
LINE
  5
E0
  8
図枠
 10
55.206917158599992
 20
-65.399399925500006
 30
0.0
 11
55.0860461977
 21
-65.399399925500006
 31
0.0
  0
LINE
  5
E1
  8
図枠
 10
60.806357158599987
 20
-64.199519925499999
 30
0.0
 11
60.806357158599987
 21
-63.799559925499999
 31
0.0
  0
LINE
  5
E2
  8
図枠
 10
75.338183275900008
 20
-47.327345685099992
 30
0.0
 11
75.338183275900008
 21
-49.631115285100002
 31
0.0
  0
LINE
  5
E3
  8
図枠
 10
75.716403638599999
 20
-66.039335925499984
 30
0.0
 11
75.528689078599996
 21
-65.399399925500006
 31
0.0
  0
LINE
  5
E4
  8
図枠
 10
64.008835512700003
 20
-44.229655485099997
 30
0.0
 11
64.008835512700003
 21
-52.728805485099997
 31
0.0
  0
INSERT
  5
E5
  8
0
  6
CONTINUOUS
  2
*U34
 10
0.0
 20
0.0
 30
0.0
  0
LINE
  5
E6
  8
図枠
 10
64.134509158599997
 20
-62.599679925499998
 30
0.0
 11
64.134509158599997
 21
-64.039535925500005
 31
0.0
  0
ARC
  5
E7
  8
図枠
 10
57.606677158599993
 20
-65.799359925499999
 30
0.0
 40
1.1998799999999989
 50
270.0
 51
0.0
  0
LINE
  5
E8
  8
図枠
 10
80.306877878599991
 20
-63.9595439255
 30
0.0
 11
80.306877878599991
 21
-65.399399925500006
 31
0.0
  0
LINE
  5
E9
  8
図枠
 10
73.107597878600004
 20
-63.9595439255
 30
0.0
 11
73.107597878600004
 21
-65.399399925500006
 31
0.0
  0
LINE
  5
EA
  8
図枠
 10
84.006835512700007
 20
-44.229655485099997
 30
0.0
 11
84.006835512700007
 21
-69.727105485099997
 31
0.0
  0
LINE
  5
EB
  8
図枠
 10
77.970433744899992
 20
-66.039335925499984
 30
0.0
 11
80.306877878599991
 21
-66.039335925499984
 31
0.0
  0
INSERT
  5
EC
  8
0
  6
CONTINUOUS
  2
*U35
 10
0.0
 20
0.0
 30
0.0
  0
LINE
  5
ED
  8
図枠
 10
77.970433744899992
 20
-66.039335925499984
 30
0.0
 11
77.786282711499993
 21
-65.399399925500006
 31
0.0
  0
LINE
  5
EE
  8
図枠
 10
75.338183275900008
 20
-49.631115285100002
 30
0.0
 11
79.945722475899984
 21
-50.783000085099999
 31
0.0
  0
POLYLINE
  8
図枠
  5
2B5
  66
     1
 10
0.000000
 20
0.000000
 30
0.000000
  70
     8
  0
VERTEX
  8
図枠
  5
2B6
 10
68.5011
 20
-67.5083
 30
0.000000
  70
    32
  0
VERTEX
  8
図枠
  5
2B7
 10
68.5226
 20
-67.5151
 30
0.000000
  70
    32
  0
VERTEX
  8
図枠
  5
2B8
 10
68.5442
 20
-67.5220
 30
0.000000
  70
    32
  0
VERTEX
  8
図枠
  5
2B9
 10
68.5658
 20
-67.5288
 30
0.000000
  70
    32
  0
VERTEX
  8
図枠
  5
2BA
 10
68.5873
 20
-67.5355
 30
0.000000
  70
    32
  0
VERTEX
  8
図枠
  5
2BB
 10
68.6089
 20
-67.5423
 30
0.000000
  70
    32
  0
VERTEX
  8
図枠
  5
2BC
 10
68.6306
 20
-67.5490
 30
0.000000
  70
    32
  0
VERTEX
  8
図枠
  5
2BD
 10
68.6522
 20
-67.5556
 30
0.000000
  70
    32
  0
VERTEX
  8
図枠
  5
2BE
 10
68.6739
 20
-67.5623
 30
0.000000
  70
    32
  0
VERTEX
  8
図枠
  5
2BF
 10
68.6955
 20
-67.5689
 30
0.000000
  70
    32
  0
VERTEX
  8
図枠
  5
2C0
 10
68.7172
 20
-67.5754
 30
0.000000
  70
    32
  0
VERTEX
  8
図枠
  5
2C1
 10
68.7389
 20
-67.5820
 30
0.000000
  70
    32
  0
VERTEX
  8
図枠
  5
2C2
 10
68.7607
 20
-67.5885
 30
0.000000
  70
    32
  0
VERTEX
  8
図枠
  5
2C3
 10
68.7824
 20
-67.5950
 30
0.000000
  70
    32
  0
VERTEX
  8
図枠
  5
2C4
 10
68.8042
 20
-67.6014
 30
0.000000
  70
    32
  0
VERTEX
  8
図枠
  5
2C5
 10
68.8260
 20
-67.6078
 30
0.000000
  70
    32
  0
VERTEX
  8
図枠
  5
2C6
 10
68.8477
 20
-67.6142
 30
0.000000
  70
    32
  0
VERTEX
  8
図枠
  5
2C7
 10
68.8696
 20
-67.6206
 30
0.000000
  70
    32
  0
VERTEX
  8
図枠
  5
2C8
 10
68.8914
 20
-67.6269
 30
0.000000
  70
    32
  0
VERTEX
  8
図枠
  5
2C9
 10
68.9132
 20
-67.6332
 30
0.000000
  70
    32
  0
VERTEX
  8
図枠
  5
2CA
 10
68.9351
 20
-67.6395
 30
0.000000
  70
    32
  0
VERTEX
  8
図枠
  5
2CB
 10
68.9569
 20
-67.6457
 30
0.000000
  70
    32
  0
VERTEX
  8
図枠
  5
2CC
 10
68.9788
 20
-67.6519
 30
0.000000
  70
    32
  0
VERTEX
  8
図枠
  5
2CD
 10
69.0007
 20
-67.6581
 30
0.000000
  70
    32
  0
VERTEX
  8
図枠
  5
2CE
 10
69.0227
 20
-67.6643
 30
0.000000
  70
    32
  0
VERTEX
  8
図枠
  5
2CF
 10
69.0446
 20
-67.6704
 30
0.000000
  70
    32
  0
VERTEX
  8
図枠
  5
2D0
 10
69.0665
 20
-67.6765
 30
0.000000
  70
    32
  0
VERTEX
  8
図枠
  5
2D1
 10
69.0885
 20
-67.6826
 30
0.000000
  70
    32
  0
VERTEX
  8
図枠
  5
2D2
 10
69.1105
 20
-67.6886
 30
0.000000
  70
    32
  0
VERTEX
  8
図枠
  5
2D3
 10
69.1325
 20
-67.6946
 30
0.000000
  70
    32
  0
VERTEX
  8
図枠
  5
2D4
 10
69.1545
 20
-67.7006
 30
0.000000
  70
    32
  0
VERTEX
  8
図枠
  5
2D5
 10
69.1765
 20
-67.7066
 30
0.000000
  70
    32
  0
VERTEX
  8
図枠
  5
2D6
 10
69.1985
 20
-67.7125
 30
0.000000
  70
    32
  0
VERTEX
  8
図枠
  5
2D7
 10
69.2206
 20
-67.7185
 30
0.000000
  70
    32
  0
VERTEX
  8
図枠
  5
2D8
 10
69.2426
 20
-67.7243
 30
0.000000
  70
    32
  0
VERTEX
  8
図枠
  5
2D9
 10
69.2647
 20
-67.7302
 30
0.000000
  70
    32
  0
VERTEX
  8
図枠
  5
2DA
 10
69.2868
 20
-67.7361
 30
0.000000
  70
    32
  0
VERTEX
  8
図枠
  5
2DB
 10
69.3089
 20
-67.7419
 30
0.000000
  70
    32
  0
VERTEX
  8
図枠
  5
2DC
 10
69.3310
 20
-67.7477
 30
0.000000
  70
    32
  0
VERTEX
  8
図枠
  5
2DD
 10
69.3531
 20
-67.7534
 30
0.000000
  70
    32
  0
VERTEX
  8
図枠
  5
2DE
 10
69.3753
 20
-67.7592
 30
0.000000
  70
    32
  0
VERTEX
  8
図枠
  5
2DF
 10
69.3974
 20
-67.7649
 30
0.000000
  70
    32
  0
VERTEX
  8
図枠
  5
2E0
 10
69.4196
 20
-67.7706
 30
0.000000
  70
    32
  0
VERTEX
  8
図枠
  5
2E1
 10
69.4418
 20
-67.7763
 30
0.000000
  70
    32
  0
VERTEX
  8
図枠
  5
2E2
 10
69.4639
 20
-67.7819
 30
0.000000
  70
    32
  0
VERTEX
  8
図枠
  5
2E3
 10
69.4861
 20
-67.7876
 30
0.000000
  70
    32
  0
VERTEX
  8
図枠
  5
2E4
 10
69.5084
 20
-67.7932
 30
0.000000
  70
    32
  0
VERTEX
  8
図枠
  5
2E5
 10
69.5306
 20
-67.7988
 30
0.000000
  70
    32
  0
VERTEX
  8
図枠
  5
2E6
 10
69.5528
 20
-67.8043
 30
0.000000
  70
    32
  0
VERTEX
  8
図枠
  5
2E7
 10
69.5751
 20
-67.8099
 30
0.000000
  70
    32
  0
VERTEX
  8
図枠
  5
2E8
 10
69.5973
 20
-67.8154
 30
0.000000
  70
    32
  0
VERTEX
  8
図枠
  5
2E9
 10
69.6196
 20
-67.8209
 30
0.000000
  70
    32
  0
VERTEX
  8
図枠
  5
2EA
 10
69.6419
 20
-67.8264
 30
0.000000
  70
    32
  0
VERTEX
  8
図枠
  5
2EB
 10
69.6642
 20
-67.8318
 30
0.000000
  70
    32
  0
VERTEX
  8
図枠
  5
2EC
 10
69.6865
 20
-67.8373
 30
0.000000
  70
    32
  0
VERTEX
  8
図枠
  5
2ED
 10
69.7088
 20
-67.8427
 30
0.000000
  70
    32
  0
VERTEX
  8
図枠
  5
2EE
 10
69.7311
 20
-67.8481
 30
0.000000
  70
    32
  0
VERTEX
  8
図枠
  5
2EF
 10
69.7534
 20
-67.8535
 30
0.000000
  70
    32
  0
VERTEX
  8
図枠
  5
2F0
 10
69.7758
 20
-67.8589
 30
0.000000
  70
    32
  0
VERTEX
  8
図枠
  5
2F1
 10
69.7981
 20
-67.8642
 30
0.000000
  70
    32
  0
VERTEX
  8
図枠
  5
2F2
 10
69.8205
 20
-67.8695
 30
0.000000
  70
    32
  0
VERTEX
  8
図枠
  5
2F3
 10
69.8429
 20
-67.8749
 30
0.000000
  70
    32
  0
VERTEX
  8
図枠
  5
2F4
 10
69.8653
 20
-67.8802
 30
0.000000
  70
    32
  0
VERTEX
  8
図枠
  5
2F5
 10
69.8877
 20
-67.8854
 30
0.000000
  70
    32
  0
VERTEX
  8
図枠
  5
2F6
 10
69.9101
 20
-67.8907
 30
0.000000
  70
    32
  0
VERTEX
  8
図枠
  5
2F7
 10
69.9325
 20
-67.8959
 30
0.000000
  70
    32
  0
VERTEX
  8
図枠
  5
2F8
 10
69.9549
 20
-67.9012
 30
0.000000
  70
    32
  0
VERTEX
  8
図枠
  5
2F9
 10
69.9773
 20
-67.9064
 30
0.000000
  70
    32
  0
VERTEX
  8
図枠
  5
2FA
 10
69.9998
 20
-67.9116
 30
0.000000
  70
    32
  0
VERTEX
  8
図枠
  5
2FB
 10
70.0222
 20
-67.9167
 30
0.000000
  70
    32
  0
VERTEX
  8
図枠
  5
2FC
 10
70.0447
 20
-67.9219
 30
0.000000
  70
    32
  0
VERTEX
  8
図枠
  5
2FD
 10
70.0671
 20
-67.9270
 30
0.000000
  70
    32
  0
VERTEX
  8
図枠
  5
2FE
 10
70.0896
 20
-67.9322
 30
0.000000
  70
    32
  0
VERTEX
  8
図枠
  5
2FF
 10
70.1121
 20
-67.9373
 30
0.000000
  70
    32
  0
VERTEX
  8
図枠
  5
300
 10
70.1346
 20
-67.9424
 30
0.000000
  70
    32
  0
VERTEX
  8
図枠
  5
301
 10
70.1571
 20
-67.9475
 30
0.000000
  70
    32
  0
VERTEX
  8
図枠
  5
302
 10
70.1796
 20
-67.9526
 30
0.000000
  70
    32
  0
VERTEX
  8
図枠
  5
303
 10
70.2021
 20
-67.9576
 30
0.000000
  70
    32
  0
VERTEX
  8
図枠
  5
304
 10
70.2246
 20
-67.9627
 30
0.000000
  70
    32
  0
VERTEX
  8
図枠
  5
305
 10
70.2471
 20
-67.9677
 30
0.000000
  70
    32
  0
VERTEX
  8
図枠
  5
306
 10
70.2696
 20
-67.9727
 30
0.000000
  70
    32
  0
VERTEX
  8
図枠
  5
307
 10
70.2922
 20
-67.9777
 30
0.000000
  70
    32
  0
VERTEX
  8
図枠
  5
308
 10
70.3147
 20
-67.9827
 30
0.000000
  70
    32
  0
VERTEX
  8
図枠
  5
309
 10
70.3373
 20
-67.9877
 30
0.000000
  70
    32
  0
VERTEX
  8
図枠
  5
30A
 10
70.3598
 20
-67.9927
 30
0.000000
  70
    32
  0
VERTEX
  8
図枠
  5
30B
 10
70.3824
 20
-67.9976
 30
0.000000
  70
    32
  0
VERTEX
  8
図枠
  5
30C
 10
70.4050
 20
-68.0026
 30
0.000000
  70
    32
  0
VERTEX
  8
図枠
  5
30D
 10
70.4275
 20
-68.0075
 30
0.000000
  70
    32
  0
VERTEX
  8
図枠
  5
30E
 10
70.4501
 20
-68.0125
 30
0.000000
  70
    32
  0
VERTEX
  8
図枠
  5
30F
 10
70.4727
 20
-68.0174
 30
0.000000
  70
    32
  0
VERTEX
  8
図枠
  5
310
 10
70.4953
 20
-68.0223
 30
0.000000
  70
    32
  0
VERTEX
  8
図枠
  5
311
 10
70.5179
 20
-68.0272
 30
0.000000
  70
    32
  0
VERTEX
  8
図枠
  5
312
 10
70.5405
 20
-68.0321
 30
0.000000
  70
    32
  0
VERTEX
  8
図枠
  5
313
 10
70.5631
 20
-68.0369
 30
0.000000
  70
    32
  0
VERTEX
  8
図枠
  5
314
 10
70.5857
 20
-68.0418
 30
0.000000
  70
    32
  0
VERTEX
  8
図枠
  5
315
 10
70.6083
 20
-68.0467
 30
0.000000
  70
    32
  0
VERTEX
  8
図枠
  5
316
 10
70.6310
 20
-68.0515
 30
0.000000
  70
    32
  0
VERTEX
  8
図枠
  5
317
 10
70.6536
 20
-68.0564
 30
0.000000
  70
    32
  0
VERTEX
  8
図枠
  5
318
 10
70.6762
 20
-68.0612
 30
0.000000
  70
    32
  0
VERTEX
  8
図枠
  5
319
 10
70.6989
 20
-68.0660
 30
0.000000
  70
    32
  0
VERTEX
  8
図枠
  5
31A
 10
70.7215
 20
-68.0709
 30
0.000000
  70
    32
  0
VERTEX
  8
図枠
  5
31B
 10
70.7441
 20
-68.0757
 30
0.000000
  70
    32
  0
VERTEX
  8
図枠
  5
31C
 10
70.7668
 20
-68.0805
 30
0.000000
  70
    32
  0
VERTEX
  8
図枠
  5
31D
 10
70.7894
 20
-68.0853
 30
0.000000
  70
    32
  0
VERTEX
  8
図枠
  5
31E
 10
70.8121
 20
-68.0901
 30
0.000000
  70
    32
  0
VERTEX
  8
図枠
  5
31F
 10
70.8348
 20
-68.0948
 30
0.000000
  70
    32
  0
VERTEX
  8
図枠
  5
320
 10
70.8574
 20
-68.0996
 30
0.000000
  70
    32
  0
VERTEX
  8
図枠
  5
321
 10
70.8801
 20
-68.1044
 30
0.000000
  70
    32
  0
VERTEX
  8
図枠
  5
322
 10
70.9028
 20
-68.1092
 30
0.000000
  70
    32
  0
VERTEX
  8
図枠
  5
323
 10
70.9254
 20
-68.1139
 30
0.000000
  70
    32
  0
VERTEX
  8
図枠
  5
324
 10
70.9481
 20
-68.1187
 30
0.000000
  70
    32
  0
VERTEX
  8
図枠
  5
325
 10
70.9708
 20
-68.1234
 30
0.000000
  70
    32
  0
VERTEX
  8
図枠
  5
326
 10
70.9934
 20
-68.1282
 30
0.000000
  70
    32
  0
VERTEX
  8
図枠
  5
327
 10
71.0161
 20
-68.1329
 30
0.000000
  70
    32
  0
VERTEX
  8
図枠
  5
328
 10
71.0388
 20
-68.1377
 30
0.000000
  70
    32
  0
VERTEX
  8
図枠
  5
329
 10
71.0615
 20
-68.1424
 30
0.000000
  70
    32
  0
VERTEX
  8
図枠
  5
32A
 10
71.0842
 20
-68.1472
 30
0.000000
  70
    32
  0
VERTEX
  8
図枠
  5
32B
 10
71.1069
 20
-68.1519
 30
0.000000
  70
    32
  0
VERTEX
  8
図枠
  5
32C
 10
71.1296
 20
-68.1566
 30
0.000000
  70
    32
  0
VERTEX
  8
図枠
  5
32D
 10
71.1522
 20
-68.1614
 30
0.000000
  70
    32
  0
VERTEX
  8
図枠
  5
32E
 10
71.1749
 20
-68.1661
 30
0.000000
  70
    32
  0
VERTEX
  8
図枠
  5
32F
 10
71.1976
 20
-68.1708
 30
0.000000
  70
    32
  0
VERTEX
  8
図枠
  5
330
 10
71.2203
 20
-68.1755
 30
0.000000
  70
    32
  0
VERTEX
  8
図枠
  5
331
 10
71.2430
 20
-68.1802
 30
0.000000
  70
    32
  0
VERTEX
  8
図枠
  5
332
 10
71.2657
 20
-68.1850
 30
0.000000
  70
    32
  0
VERTEX
  8
図枠
  5
333
 10
71.2884
 20
-68.1897
 30
0.000000
  70
    32
  0
VERTEX
  8
図枠
  5
334
 10
71.3111
 20
-68.1944
 30
0.000000
  70
    32
  0
VERTEX
  8
図枠
  5
335
 10
71.3338
 20
-68.1991
 30
0.000000
  70
    32
  0
SEQEND
  8
図枠
  5
336
  0
LINE
  5
F0
  8
図枠
 10
71.333789158599984
 20
-62.599679925499998
 30
0.0
 11
64.134509158599997
 21
-62.599679925499998
 31
0.0
  0
LINE
  5
F1
  8
図枠
 10
71.333789158599984
 20
-66.999239925500007
 30
0.0
 11
71.333789158599984
 21
-68.1991199255
 31
0.0
  0
LINE
  5
F2
  8
図枠
 10
70.533869158599984
 20
-63.799559925499999
 30
0.0
 11
71.333789158599984
 21
-62.599679925499998
 31
0.0
  0
CIRCLE
  5
F3
  8
図枠
 10
70.072229112700001
 20
-48.479230485100011
 30
0.0
 40
2.303769599999999
  0
LINE
  5
F4
  8
図枠
  6
BORDER
 10
70.072229112700001
 20
-45.023576085099997
 30
0.0
 11
70.072229112700001
 21
-51.934884885099997
 31
0.0
  0
LINE
  5
F5
  8
図枠
 10
26.012635512700001
 20
-56.978380485099997
 30
0.0
 11
52.010035512700007
 21
-56.978380485099997
 31
0.0
  0
POLYLINE
  8
図枠
  5
337
  66
     1
 10
0.000000
 20
0.000000
 30
0.000000
  70
     8
  0
VERTEX
  8
図枠
  5
338
 10
64.1345
 20
-64.7148
 30
0.000000
  70
    32
  0
VERTEX
  8
図枠
  5
339
 10
64.1489
 20
-64.7281
 30
0.000000
  70
    32
  0
VERTEX
  8
図枠
  5
33A
 10
64.1633
 20
-64.7414
 30
0.000000
  70
    32
  0
VERTEX
  8
図枠
  5
33B
 10
64.1777
 20
-64.7547
 30
0.000000
  70
    32
  0
VERTEX
  8
図枠
  5
33C
 10
64.1921
 20
-64.7680
 30
0.000000
  70
    32
  0
VERTEX
  8
図枠
  5
33D
 10
64.2066
 20
-64.7812
 30
0.000000
  70
    32
  0
VERTEX
  8
図枠
  5
33E
 10
64.2210
 20
-64.7945
 30
0.000000
  70
    32
  0
VERTEX
  8
図枠
  5
33F
 10
64.2354
 20
-64.8078
 30
0.000000
  70
    32
  0
VERTEX
  8
図枠
  5
340
 10
64.2498
 20
-64.8211
 30
0.000000
  70
    32
  0
VERTEX
  8
図枠
  5
341
 10
64.2642
 20
-64.8343
 30
0.000000
  70
    32
  0
VERTEX
  8
図枠
  5
342
 10
64.2786
 20
-64.8476
 30
0.000000
  70
    32
  0
VERTEX
  8
図枠
  5
343
 10
64.2930
 20
-64.8609
 30
0.000000
  70
    32
  0
VERTEX
  8
図枠
  5
344
 10
64.3074
 20
-64.8741
 30
0.000000
  70
    32
  0
VERTEX
  8
図枠
  5
345
 10
64.3219
 20
-64.8874
 30
0.000000
  70
    32
  0
VERTEX
  8
図枠
  5
346
 10
64.3363
 20
-64.9006
 30
0.000000
  70
    32
  0
VERTEX
  8
図枠
  5
347
 10
64.3507
 20
-64.9139
 30
0.000000
  70
    32
  0
VERTEX
  8
図枠
  5
348
 10
64.3651
 20
-64.9271
 30
0.000000
  70
    32
  0
VERTEX
  8
図枠
  5
349
 10
64.3796
 20
-64.9404
 30
0.000000
  70
    32
  0
VERTEX
  8
図枠
  5
34A
 10
64.3940
 20
-64.9536
 30
0.000000
  70
    32
  0
VERTEX
  8
図枠
  5
34B
 10
64.4084
 20
-64.9669
 30
0.000000
  70
    32
  0
VERTEX
  8
図枠
  5
34C
 10
64.4229
 20
-64.9801
 30
0.000000
  70
    32
  0
VERTEX
  8
図枠
  5
34D
 10
64.4373
 20
-64.9933
 30
0.000000
  70
    32
  0
VERTEX
  8
図枠
  5
34E
 10
64.4517
 20
-65.0065
 30
0.000000
  70
    32
  0
VERTEX
  8
図枠
  5
34F
 10
64.4662
 20
-65.0197
 30
0.000000
  70
    32
  0
VERTEX
  8
図枠
  5
350
 10
64.4806
 20
-65.0329
 30
0.000000
  70
    32
  0
VERTEX
  8
図枠
  5
351
 10
64.4951
 20
-65.0461
 30
0.000000
  70
    32
  0
VERTEX
  8
図枠
  5
352
 10
64.5095
 20
-65.0593
 30
0.000000
  70
    32
  0
VERTEX
  8
図枠
  5
353
 10
64.5240
 20
-65.0725
 30
0.000000
  70
    32
  0
VERTEX
  8
図枠
  5
354
 10
64.5385
 20
-65.0857
 30
0.000000
  70
    32
  0
VERTEX
  8
図枠
  5
355
 10
64.5529
 20
-65.0989
 30
0.000000
  70
    32
  0
VERTEX
  8
図枠
  5
356
 10
64.5674
 20
-65.1120
 30
0.000000
  70
    32
  0
VERTEX
  8
図枠
  5
357
 10
64.5819
 20
-65.1252
 30
0.000000
  70
    32
  0
VERTEX
  8
図枠
  5
358
 10
64.5964
 20
-65.1383
 30
0.000000
  70
    32
  0
VERTEX
  8
図枠
  5
359
 10
64.6109
 20
-65.1515
 30
0.000000
  70
    32
  0
VERTEX
  8
図枠
  5
35A
 10
64.6253
 20
-65.1646
 30
0.000000
  70
    32
  0
VERTEX
  8
図枠
  5
35B
 10
64.6398
 20
-65.1777
 30
0.000000
  70
    32
  0
VERTEX
  8
図枠
  5
35C
 10
64.6543
 20
-65.1908
 30
0.000000
  70
    32
  0
VERTEX
  8
図枠
  5
35D
 10
64.6689
 20
-65.2039
 30
0.000000
  70
    32
  0
VERTEX
  8
図枠
  5
35E
 10
64.6834
 20
-65.2170
 30
0.000000
  70
    32
  0
VERTEX
  8
図枠
  5
35F
 10
64.6979
 20
-65.2301
 30
0.000000
  70
    32
  0
VERTEX
  8
図枠
  5
360
 10
64.7124
 20
-65.2431
 30
0.000000
  70
    32
  0
VERTEX
  8
図枠
  5
361
 10
64.7269
 20
-65.2562
 30
0.000000
  70
    32
  0
VERTEX
  8
図枠
  5
362
 10
64.7415
 20
-65.2692
 30
0.000000
  70
    32
  0
VERTEX
  8
図枠
  5
363
 10
64.7560
 20
-65.2823
 30
0.000000
  70
    32
  0
VERTEX
  8
図枠
  5
364
 10
64.7706
 20
-65.2953
 30
0.000000
  70
    32
  0
VERTEX
  8
図枠
  5
365
 10
64.7851
 20
-65.3083
 30
0.000000
  70
    32
  0
VERTEX
  8
図枠
  5
366
 10
64.7997
 20
-65.3213
 30
0.000000
  70
    32
  0
VERTEX
  8
図枠
  5
367
 10
64.8143
 20
-65.3343
 30
0.000000
  70
    32
  0
VERTEX
  8
図枠
  5
368
 10
64.8288
 20
-65.3472
 30
0.000000
  70
    32
  0
VERTEX
  8
図枠
  5
369
 10
64.8434
 20
-65.3602
 30
0.000000
  70
    32
  0
VERTEX
  8
図枠
  5
36A
 10
64.8580
 20
-65.3731
 30
0.000000
  70
    32
  0
VERTEX
  8
図枠
  5
36B
 10
64.8726
 20
-65.3861
 30
0.000000
  70
    32
  0
VERTEX
  8
図枠
  5
36C
 10
64.8872
 20
-65.3990
 30
0.000000
  70
    32
  0
VERTEX
  8
図枠
  5
36D
 10
64.9018
 20
-65.4119
 30
0.000000
  70
    32
  0
VERTEX
  8
図枠
  5
36E
 10
64.9164
 20
-65.4248
 30
0.000000
  70
    32
  0
VERTEX
  8
図枠
  5
36F
 10
64.9311
 20
-65.4376
 30
0.000000
  70
    32
  0
VERTEX
  8
図枠
  5
370
 10
64.9457
 20
-65.4505
 30
0.000000
  70
    32
  0
VERTEX
  8
図枠
  5
371
 10
64.9604
 20
-65.4633
 30
0.000000
  70
    32
  0
VERTEX
  8
図枠
  5
372
 10
64.9750
 20
-65.4761
 30
0.000000
  70
    32
  0
VERTEX
  8
図枠
  5
373
 10
64.9897
 20
-65.4889
 30
0.000000
  70
    32
  0
VERTEX
  8
図枠
  5
374
 10
65.0044
 20
-65.5017
 30
0.000000
  70
    32
  0
VERTEX
  8
図枠
  5
375
 10
65.0190
 20
-65.5145
 30
0.000000
  70
    32
  0
VERTEX
  8
図枠
  5
376
 10
65.0337
 20
-65.5273
 30
0.000000
  70
    32
  0
VERTEX
  8
図枠
  5
377
 10
65.0484
 20
-65.5400
 30
0.000000
  70
    32
  0
VERTEX
  8
図枠
  5
378
 10
65.0631
 20
-65.5527
 30
0.000000
  70
    32
  0
VERTEX
  8
図枠
  5
379
 10
65.0779
 20
-65.5654
 30
0.000000
  70
    32
  0
VERTEX
  8
図枠
  5
37A
 10
65.0926
 20
-65.5781
 30
0.000000
  70
    32
  0
VERTEX
  8
図枠
  5
37B
 10
65.1073
 20
-65.5908
 30
0.000000
  70
    32
  0
VERTEX
  8
図枠
  5
37C
 10
65.1221
 20
-65.6035
 30
0.000000
  70
    32
  0
VERTEX
  8
図枠
  5
37D
 10
65.1368
 20
-65.6161
 30
0.000000
  70
    32
  0
VERTEX
  8
図枠
  5
37E
 10
65.1516
 20
-65.6287
 30
0.000000
  70
    32
  0
VERTEX
  8
図枠
  5
37F
 10
65.1664
 20
-65.6413
 30
0.000000
  70
    32
  0
VERTEX
  8
図枠
  5
380
 10
65.1812
 20
-65.6539
 30
0.000000
  70
    32
  0
VERTEX
  8
図枠
  5
381
 10
65.1960
 20
-65.6664
 30
0.000000
  70
    32
  0
VERTEX
  8
図枠
  5
382
 10
65.2108
 20
-65.6790
 30
0.000000
  70
    32
  0
VERTEX
  8
図枠
  5
383
 10
65.2256
 20
-65.6915
 30
0.000000
  70
    32
  0
VERTEX
  8
図枠
  5
384
 10
65.2404
 20
-65.7040
 30
0.000000
  70
    32
  0
VERTEX
  8
図枠
  5
385
 10
65.2553
 20
-65.7164
 30
0.000000
  70
    32
  0
VERTEX
  8
図枠
  5
386
 10
65.2701
 20
-65.7289
 30
0.000000
  70
    32
  0
VERTEX
  8
図枠
  5
387
 10
65.2850
 20
-65.7413
 30
0.000000
  70
    32
  0
VERTEX
  8
図枠
  5
388
 10
65.2999
 20
-65.7537
 30
0.000000
  70
    32
  0
VERTEX
  8
図枠
  5
389
 10
65.3148
 20
-65.7661
 30
0.000000
  70
    32
  0
VERTEX
  8
図枠
  5
38A
 10
65.3297
 20
-65.7785
 30
0.000000
  70
    32
  0
VERTEX
  8
図枠
  5
38B
 10
65.3446
 20
-65.7908
 30
0.000000
  70
    32
  0
VERTEX
  8
図枠
  5
38C
 10
65.3595
 20
-65.8031
 30
0.000000
  70
    32
  0
VERTEX
  8
図枠
  5
38D
 10
65.3745
 20
-65.8154
 30
0.000000
  70
    32
  0
VERTEX
  8
図枠
  5
38E
 10
65.3894
 20
-65.8277
 30
0.000000
  70
    32
  0
VERTEX
  8
図枠
  5
38F
 10
65.4044
 20
-65.8399
 30
0.000000
  70
    32
  0
VERTEX
  8
図枠
  5
390
 10
65.4194
 20
-65.8522
 30
0.000000
  70
    32
  0
VERTEX
  8
図枠
  5
391
 10
65.4344
 20
-65.8644
 30
0.000000
  70
    32
  0
VERTEX
  8
図枠
  5
392
 10
65.4494
 20
-65.8765
 30
0.000000
  70
    32
  0
VERTEX
  8
図枠
  5
393
 10
65.4644
 20
-65.8887
 30
0.000000
  70
    32
  0
VERTEX
  8
図枠
  5
394
 10
65.4794
 20
-65.9008
 30
0.000000
  70
    32
  0
VERTEX
  8
図枠
  5
395
 10
65.4945
 20
-65.9129
 30
0.000000
  70
    32
  0
VERTEX
  8
図枠
  5
396
 10
65.5095
 20
-65.9250
 30
0.000000
  70
    32
  0
VERTEX
  8
図枠
  5
397
 10
65.5246
 20
-65.9370
 30
0.000000
  70
    32
  0
VERTEX
  8
図枠
  5
398
 10
65.5397
 20
-65.9490
 30
0.000000
  70
    32
  0
VERTEX
  8
図枠
  5
399
 10
65.5548
 20
-65.9610
 30
0.000000
  70
    32
  0
VERTEX
  8
図枠
  5
39A
 10
65.5699
 20
-65.9730
 30
0.000000
  70
    32
  0
VERTEX
  8
図枠
  5
39B
 10
65.5850
 20
-65.9849
 30
0.000000
  70
    32
  0
VERTEX
  8
図枠
  5
39C
 10
65.6002
 20
-65.9968
 30
0.000000
  70
    32
  0
VERTEX
  8
図枠
  5
39D
 10
65.6154
 20
-66.0087
 30
0.000000
  70
    32
  0
VERTEX
  8
図枠
  5
39E
 10
65.6305
 20
-66.0206
 30
0.000000
  70
    32
  0
VERTEX
  8
図枠
  5
39F
 10
65.6457
 20
-66.0324
 30
0.000000
  70
    32
  0
VERTEX
  8
図枠
  5
3A0
 10
65.6609
 20
-66.0442
 30
0.000000
  70
    32
  0
VERTEX
  8
図枠
  5
3A1
 10
65.6762
 20
-66.0560
 30
0.000000
  70
    32
  0
VERTEX
  8
図枠
  5
3A2
 10
65.6914
 20
-66.0677
 30
0.000000
  70
    32
  0
VERTEX
  8
図枠
  5
3A3
 10
65.7067
 20
-66.0794
 30
0.000000
  70
    32
  0
VERTEX
  8
図枠
  5
3A4
 10
65.7219
 20
-66.0911
 30
0.000000
  70
    32
  0
VERTEX
  8
図枠
  5
3A5
 10
65.7372
 20
-66.1028
 30
0.000000
  70
    32
  0
VERTEX
  8
図枠
  5
3A6
 10
65.7525
 20
-66.1144
 30
0.000000
  70
    32
  0
VERTEX
  8
図枠
  5
3A7
 10
65.7678
 20
-66.1260
 30
0.000000
  70
    32
  0
VERTEX
  8
図枠
  5
3A8
 10
65.7832
 20
-66.1376
 30
0.000000
  70
    32
  0
VERTEX
  8
図枠
  5
3A9
 10
65.7985
 20
-66.1491
 30
0.000000
  70
    32
  0
VERTEX
  8
図枠
  5
3AA
 10
65.8139
 20
-66.1606
 30
0.000000
  70
    32
  0
VERTEX
  8
図枠
  5
3AB
 10
65.8293
 20
-66.1721
 30
0.000000
  70
    32
  0
VERTEX
  8
図枠
  5
3AC
 10
65.8447
 20
-66.1835
 30
0.000000
  70
    32
  0
VERTEX
  8
図枠
  5
3AD
 10
65.8601
 20
-66.1949
 30
0.000000
  70
    32
  0
VERTEX
  8
図枠
  5
3AE
 10
65.8756
 20
-66.2063
 30
0.000000
  70
    32
  0
VERTEX
  8
図枠
  5
3AF
 10
65.8910
 20
-66.2176
 30
0.000000
  70
    32
  0
VERTEX
  8
図枠
  5
3B0
 10
65.9065
 20
-66.2289
 30
0.000000
  70
    32
  0
VERTEX
  8
図枠
  5
3B1
 10
65.9220
 20
-66.2402
 30
0.000000
  70
    32
  0
VERTEX
  8
図枠
  5
3B2
 10
65.9375
 20
-66.2514
 30
0.000000
  70
    32
  0
VERTEX
  8
図枠
  5
3B3
 10
65.9530
 20
-66.2626
 30
0.000000
  70
    32
  0
VERTEX
  8
図枠
  5
3B4
 10
65.9686
 20
-66.2738
 30
0.000000
  70
    32
  0
VERTEX
  8
図枠
  5
3B5
 10
65.9841
 20
-66.2850
 30
0.000000
  70
    32
  0
VERTEX
  8
図枠
  5
3B6
 10
65.9997
 20
-66.2961
 30
0.000000
  70
    32
  0
VERTEX
  8
図枠
  5
3B7
 10
66.0153
 20
-66.3071
 30
0.000000
  70
    32
  0
VERTEX
  8
図枠
  5
3B8
 10
66.0309
 20
-66.3182
 30
0.000000
  70
    32
  0
VERTEX
  8
図枠
  5
3B9
 10
66.0466
 20
-66.3292
 30
0.000000
  70
    32
  0
VERTEX
  8
図枠
  5
3BA
 10
66.0622
 20
-66.3401
 30
0.000000
  70
    32
  0
VERTEX
  8
図枠
  5
3BB
 10
66.0779
 20
-66.3511
 30
0.000000
  70
    32
  0
VERTEX
  8
図枠
  5
3BC
 10
66.0936
 20
-66.3619
 30
0.000000
  70
    32
  0
VERTEX
  8
図枠
  5
3BD
 10
66.1094
 20
-66.3728
 30
0.000000
  70
    32
  0
VERTEX
  8
図枠
  5
3BE
 10
66.1251
 20
-66.3836
 30
0.000000
  70
    32
  0
VERTEX
  8
図枠
  5
3BF
 10
66.1408
 20
-66.3944
 30
0.000000
  70
    32
  0
VERTEX
  8
図枠
  5
3C0
 10
66.1566
 20
-66.4051
 30
0.000000
  70
    32
  0
VERTEX
  8
図枠
  5
3C1
 10
66.1724
 20
-66.4158
 30
0.000000
  70
    32
  0
VERTEX
  8
図枠
  5
3C2
 10
66.1883
 20
-66.4265
 30
0.000000
  70
    32
  0
VERTEX
  8
図枠
  5
3C3
 10
66.2041
 20
-66.4371
 30
0.000000
  70
    32
  0
VERTEX
  8
図枠
  5
3C4
 10
66.2200
 20
-66.4477
 30
0.000000
  70
    32
  0
VERTEX
  8
図枠
  5
3C5
 10
66.2358
 20
-66.4583
 30
0.000000
  70
    32
  0
VERTEX
  8
図枠
  5
3C6
 10
66.2517
 20
-66.4688
 30
0.000000
  70
    32
  0
VERTEX
  8
図枠
  5
3C7
 10
66.2677
 20
-66.4793
 30
0.000000
  70
    32
  0
VERTEX
  8
図枠
  5
3C8
 10
66.2836
 20
-66.4897
 30
0.000000
  70
    32
  0
VERTEX
  8
図枠
  5
3C9
 10
66.2996
 20
-66.5001
 30
0.000000
  70
    32
  0
VERTEX
  8
図枠
  5
3CA
 10
66.3156
 20
-66.5105
 30
0.000000
  70
    32
  0
VERTEX
  8
図枠
  5
3CB
 10
66.3316
 20
-66.5208
 30
0.000000
  70
    32
  0
VERTEX
  8
図枠
  5
3CC
 10
66.3476
 20
-66.5310
 30
0.000000
  70
    32
  0
VERTEX
  8
図枠
  5
3CD
 10
66.3637
 20
-66.5413
 30
0.000000
  70
    32
  0
VERTEX
  8
図枠
  5
3CE
 10
66.3798
 20
-66.5515
 30
0.000000
  70
    32
  0
VERTEX
  8
図枠
  5
3CF
 10
66.3959
 20
-66.5616
 30
0.000000
  70
    32
  0
VERTEX
  8
図枠
  5
3D0
 10
66.4120
 20
-66.5717
 30
0.000000
  70
    32
  0
VERTEX
  8
図枠
  5
3D1
 10
66.4281
 20
-66.5818
 30
0.000000
  70
    32
  0
VERTEX
  8
図枠
  5
3D2
 10
66.4443
 20
-66.5918
 30
0.000000
  70
    32
  0
VERTEX
  8
図枠
  5
3D3
 10
66.4605
 20
-66.6018
 30
0.000000
  70
    32
  0
VERTEX
  8
図枠
  5
3D4
 10
66.4767
 20
-66.6117
 30
0.000000
  70
    32
  0
VERTEX
  8
図枠
  5
3D5
 10
66.4929
 20
-66.6216
 30
0.000000
  70
    32
  0
VERTEX
  8
図枠
  5
3D6
 10
66.5092
 20
-66.6315
 30
0.000000
  70
    32
  0
VERTEX
  8
図枠
  5
3D7
 10
66.5255
 20
-66.6413
 30
0.000000
  70
    32
  0
SEQEND
  8
図枠
  5
3D8
  0
INSERT
  5
F7
  8
0
  6
CONTINUOUS
  2
*U36
 10
0.0
 20
0.0
 30
0.0
  0
LINE
  5
F8
  8
図枠
 10
64.134509158599997
 20
-64.457182370600009
 30
0.0
 11
67.334189158599983
 21
-64.457182370600009
 31
0.0
  0
LINE
  5
F9
  8
図枠
 10
77.786282711499993
 20
-65.399399925500006
 30
0.0
 11
80.306877878599991
 21
-65.399399925500006
 31
0.0
  0
LINE
  5
FA
  8
図枠
 10
78.707037878599991
 20
-68.599079925500007
 30
0.0
 11
78.384773570100009
 21
-67.479191925500004
 31
0.0
  0
LINE
  5
FB
  8
図枠
 10
80.306877878599991
 20
-66.039335925499984
 30
0.0
 11
80.306877878599991
 21
-67.479191925500004
 31
0.0
  0
INSERT
  5
FC
  8
0
  6
CONTINUOUS
  2
*U37
 10
0.0
 20
0.0
 30
0.0
  0
LINE
  5
FD
  8
図枠
 10
62.006237158599987
 20
-64.199519925499999
 30
0.0
 11
62.006237158599987
 21
-65.399399925500006
 31
0.0
  0
LINE
  5
FE
  8
図枠
 10
62.006237158599987
 20
-64.199519925499999
 30
0.0
 11
60.806357158599987
 21
-64.199519925499999
 31
0.0
  0
INSERT
  5
FF
  8
0
  6
CONTINUOUS
  2
*U38
 10
0.0
 20
0.0
 30
0.0
  0
LINE
  5
100
  8
図枠
 10
55.206917158599992
 20
-62.599679925499998
 30
0.0
 11
55.206917158599992
 21
-64.199519925499999
 31
0.0
  0
LINE
  5
101
  8
図枠
 10
55.206917158599992
 20
-65.399399925500006
 30
0.0
 11
55.206917158599992
 21
-66.599279925499999
 31
0.0
  0
ARC
  5
102
  8
図枠
 10
66.13430915859999
 20
-63.799559925499999
 30
0.0
 40
4.3995600000000001
 50
270.0
 51
302.54495885400001
  0
LINE
  5
103
  8
図枠
 10
26.012635512700001
 20
-48.479230485100011
 30
0.0
 11
42.011035512699998
 21
-48.479230485100011
 31
0.0
  0
LINE
  5
104
  8
図枠
 10
76.467261878599999
 20
-68.599079925500007
 30
0.0
 11
78.707037878599991
 21
-68.599079925500007
 31
0.0
  0
LINE
  5
105
  8
図枠
 10
55.206917158599992
 20
-68.1991199255
 30
0.0
 11
58.406597158599993
 21
-68.1991199255
 31
0.0
  0
LINE
  5
106
  8
図枠
 10
60.806357158599987
 20
-65.799359925499999
 30
0.0
 11
60.806357158599987
 21
-65.399399925500006
 31
0.0
  0
LINE
  5
107
  8
図枠
 10
44.010835512700012
 20
-44.229655485099997
 30
0.0
 11
44.010835512700012
 21
-52.728805485099997
 31
0.0
  0
LINE
  5
108
  8
図枠
 10
75.338183275900008
 20
-47.327345685099992
 30
0.0
 11
79.945722475899984
 21
-46.175460885100001
 31
0.0
  0
LINE
  5
109
  8
図枠
 10
24.012835512700001
 20
-44.229655485099997
 30
0.0
 11
24.012835512700001
 21
-69.727105485099997
 31
0.0
  0
LINE
  5
10A
  8
図枠
 10
69.624135622699995
 20
-66.478596962200001
 30
0.0
 11
69.481668223
 21
-66.618085527299996
 31
0.0
  0
LINE
  5
10B
  8
図枠
  6
BORDER
 10
66.6165747127
 20
-48.479230485100011
 30
0.0
 11
81.39909631270001
 21
-48.479230485100011
 31
0.0
  0
CIRCLE
  5
10C
  8
図枠
 10
70.072229112700001
 20
-48.479230485100011
 30
0.0
 40
2.303769599999999
  0
LINE
  5
10D
  8
図枠
 10
24.012835512700001
 20
-61.227955485099997
 30
0.0
 11
140.00123551269999
 21
-61.227955485099997
 31
0.0
  0
LINE
  5
10E
  8
図枠
 10
24.012835512700001
 20
-52.728805485099997
 30
0.0
 11
140.00123551269999
 21
-52.728805485099997
 31
0.0
  0
INSERT
  5
10F
  8
0
  6
CONTINUOUS
  2
*U39
 10
0.0
 20
0.0
 30
0.0
  0
LINE
  5
110
  8
図枠
 10
55.206917158599992
 20
-66.999239925500007
 30
0.0
 11
55.206917158599992
 21
-68.1991199255
 31
0.0
  0
POLYLINE
  8
図枠
  5
3D9
  66
     1
 10
0.000000
 20
0.000000
 30
0.000000
  70
     8
  0
VERTEX
  8
図枠
  5
3DA
 10
69.4817
 20
-66.6181
 30
0.000000
  70
    32
  0
VERTEX
  8
図枠
  5
3DB
 10
69.4957
 20
-66.6220
 30
0.000000
  70
    32
  0
VERTEX
  8
図枠
  5
3DC
 10
69.5097
 20
-66.6260
 30
0.000000
  70
    32
  0
VERTEX
  8
図枠
  5
3DD
 10
69.5237
 20
-66.6299
 30
0.000000
  70
    32
  0
VERTEX
  8
図枠
  5
3DE
 10
69.5377
 20
-66.6338
 30
0.000000
  70
    32
  0
VERTEX
  8
図枠
  5
3DF
 10
69.5517
 20
-66.6377
 30
0.000000
  70
    32
  0
VERTEX
  8
図枠
  5
3E0
 10
69.5658
 20
-66.6415
 30
0.000000
  70
    32
  0
VERTEX
  8
図枠
  5
3E1
 10
69.5799
 20
-66.6454
 30
0.000000
  70
    32
  0
VERTEX
  8
図枠
  5
3E2
 10
69.5939
 20
-66.6492
 30
0.000000
  70
    32
  0
VERTEX
  8
図枠
  5
3E3
 10
69.6080
 20
-66.6530
 30
0.000000
  70
    32
  0
VERTEX
  8
図枠
  5
3E4
 10
69.6221
 20
-66.6567
 30
0.000000
  70
    32
  0
VERTEX
  8
図枠
  5
3E5
 10
69.6363
 20
-66.6605
 30
0.000000
  70
    32
  0
VERTEX
  8
図枠
  5
3E6
 10
69.6504
 20
-66.6642
 30
0.000000
  70
    32
  0
VERTEX
  8
図枠
  5
3E7
 10
69.6646
 20
-66.6679
 30
0.000000
  70
    32
  0
VERTEX
  8
図枠
  5
3E8
 10
69.6787
 20
-66.6716
 30
0.000000
  70
    32
  0
VERTEX
  8
図枠
  5
3E9
 10
69.6929
 20
-66.6752
 30
0.000000
  70
    32
  0
VERTEX
  8
図枠
  5
3EA
 10
69.7071
 20
-66.6789
 30
0.000000
  70
    32
  0
VERTEX
  8
図枠
  5
3EB
 10
69.7213
 20
-66.6825
 30
0.000000
  70
    32
  0
VERTEX
  8
図枠
  5
3EC
 10
69.7355
 20
-66.6861
 30
0.000000
  70
    32
  0
VERTEX
  8
図枠
  5
3ED
 10
69.7497
 20
-66.6897
 30
0.000000
  70
    32
  0
VERTEX
  8
図枠
  5
3EE
 10
69.7639
 20
-66.6932
 30
0.000000
  70
    32
  0
VERTEX
  8
図枠
  5
3EF
 10
69.7782
 20
-66.6968
 30
0.000000
  70
    32
  0
VERTEX
  8
図枠
  5
3F0
 10
69.7925
 20
-66.7003
 30
0.000000
  70
    32
  0
VERTEX
  8
図枠
  5
3F1
 10
69.8067
 20
-66.7038
 30
0.000000
  70
    32
  0
VERTEX
  8
図枠
  5
3F2
 10
69.8210
 20
-66.7073
 30
0.000000
  70
    32
  0
VERTEX
  8
図枠
  5
3F3
 10
69.8353
 20
-66.7108
 30
0.000000
  70
    32
  0
VERTEX
  8
図枠
  5
3F4
 10
69.8496
 20
-66.7142
 30
0.000000
  70
    32
  0
VERTEX
  8
図枠
  5
3F5
 10
69.8639
 20
-66.7176
 30
0.000000
  70
    32
  0
VERTEX
  8
図枠
  5
3F6
 10
69.8783
 20
-66.7210
 30
0.000000
  70
    32
  0
VERTEX
  8
図枠
  5
3F7
 10
69.8926
 20
-66.7244
 30
0.000000
  70
    32
  0
VERTEX
  8
図枠
  5
3F8
 10
69.9069
 20
-66.7278
 30
0.000000
  70
    32
  0
VERTEX
  8
図枠
  5
3F9
 10
69.9213
 20
-66.7312
 30
0.000000
  70
    32
  0
VERTEX
  8
図枠
  5
3FA
 10
69.9357
 20
-66.7345
 30
0.000000
  70
    32
  0
VERTEX
  8
図枠
  5
3FB
 10
69.9501
 20
-66.7378
 30
0.000000
  70
    32
  0
VERTEX
  8
図枠
  5
3FC
 10
69.9645
 20
-66.7411
 30
0.000000
  70
    32
  0
VERTEX
  8
図枠
  5
3FD
 10
69.9789
 20
-66.7444
 30
0.000000
  70
    32
  0
VERTEX
  8
図枠
  5
3FE
 10
69.9933
 20
-66.7477
 30
0.000000
  70
    32
  0
VERTEX
  8
図枠
  5
3FF
 10
70.0077
 20
-66.7510
 30
0.000000
  70
    32
  0
VERTEX
  8
図枠
  5
400
 10
70.0221
 20
-66.7542
 30
0.000000
  70
    32
  0
VERTEX
  8
図枠
  5
401
 10
70.0366
 20
-66.7574
 30
0.000000
  70
    32
  0
VERTEX
  8
図枠
  5
402
 10
70.0510
 20
-66.7606
 30
0.000000
  70
    32
  0
VERTEX
  8
図枠
  5
403
 10
70.0655
 20
-66.7638
 30
0.000000
  70
    32
  0
VERTEX
  8
図枠
  5
404
 10
70.0800
 20
-66.7670
 30
0.000000
  70
    32
  0
VERTEX
  8
図枠
  5
405
 10
70.0945
 20
-66.7702
 30
0.000000
  70
    32
  0
VERTEX
  8
図枠
  5
406
 10
70.1090
 20
-66.7733
 30
0.000000
  70
    32
  0
VERTEX
  8
図枠
  5
407
 10
70.1235
 20
-66.7764
 30
0.000000
  70
    32
  0
VERTEX
  8
図枠
  5
408
 10
70.1380
 20
-66.7795
 30
0.000000
  70
    32
  0
VERTEX
  8
図枠
  5
409
 10
70.1525
 20
-66.7826
 30
0.000000
  70
    32
  0
VERTEX
  8
図枠
  5
40A
 10
70.1670
 20
-66.7857
 30
0.000000
  70
    32
  0
VERTEX
  8
図枠
  5
40B
 10
70.1816
 20
-66.7888
 30
0.000000
  70
    32
  0
VERTEX
  8
図枠
  5
40C
 10
70.1961
 20
-66.7919
 30
0.000000
  70
    32
  0
VERTEX
  8
図枠
  5
40D
 10
70.2107
 20
-66.7949
 30
0.000000
  70
    32
  0
VERTEX
  8
図枠
  5
40E
 10
70.2252
 20
-66.7979
 30
0.000000
  70
    32
  0
VERTEX
  8
図枠
  5
40F
 10
70.2398
 20
-66.8010
 30
0.000000
  70
    32
  0
VERTEX
  8
図枠
  5
410
 10
70.2544
 20
-66.8040
 30
0.000000
  70
    32
  0
VERTEX
  8
図枠
  5
411
 10
70.2690
 20
-66.8070
 30
0.000000
  70
    32
  0
VERTEX
  8
図枠
  5
412
 10
70.2836
 20
-66.8099
 30
0.000000
  70
    32
  0
VERTEX
  8
図枠
  5
413
 10
70.2982
 20
-66.8129
 30
0.000000
  70
    32
  0
VERTEX
  8
図枠
  5
414
 10
70.3128
 20
-66.8158
 30
0.000000
  70
    32
  0
VERTEX
  8
図枠
  5
415
 10
70.3274
 20
-66.8188
 30
0.000000
  70
    32
  0
VERTEX
  8
図枠
  5
416
 10
70.3421
 20
-66.8217
 30
0.000000
  70
    32
  0
VERTEX
  8
図枠
  5
417
 10
70.3567
 20
-66.8246
 30
0.000000
  70
    32
  0
VERTEX
  8
図枠
  5
418
 10
70.3713
 20
-66.8275
 30
0.000000
  70
    32
  0
VERTEX
  8
図枠
  5
419
 10
70.3860
 20
-66.8304
 30
0.000000
  70
    32
  0
VERTEX
  8
図枠
  5
41A
 10
70.4006
 20
-66.8333
 30
0.000000
  70
    32
  0
VERTEX
  8
図枠
  5
41B
 10
70.4153
 20
-66.8362
 30
0.000000
  70
    32
  0
VERTEX
  8
図枠
  5
41C
 10
70.4300
 20
-66.8390
 30
0.000000
  70
    32
  0
VERTEX
  8
図枠
  5
41D
 10
70.4447
 20
-66.8419
 30
0.000000
  70
    32
  0
VERTEX
  8
図枠
  5
41E
 10
70.4594
 20
-66.8447
 30
0.000000
  70
    32
  0
VERTEX
  8
図枠
  5
41F
 10
70.4740
 20
-66.8475
 30
0.000000
  70
    32
  0
VERTEX
  8
図枠
  5
420
 10
70.4887
 20
-66.8503
 30
0.000000
  70
    32
  0
VERTEX
  8
図枠
  5
421
 10
70.5035
 20
-66.8531
 30
0.000000
  70
    32
  0
VERTEX
  8
図枠
  5
422
 10
70.5182
 20
-66.8559
 30
0.000000
  70
    32
  0
VERTEX
  8
図枠
  5
423
 10
70.5329
 20
-66.8587
 30
0.000000
  70
    32
  0
VERTEX
  8
図枠
  5
424
 10
70.5476
 20
-66.8615
 30
0.000000
  70
    32
  0
VERTEX
  8
図枠
  5
425
 10
70.5623
 20
-66.8643
 30
0.000000
  70
    32
  0
VERTEX
  8
図枠
  5
426
 10
70.5771
 20
-66.8670
 30
0.000000
  70
    32
  0
VERTEX
  8
図枠
  5
427
 10
70.5918
 20
-66.8698
 30
0.000000
  70
    32
  0
VERTEX
  8
図枠
  5
428
 10
70.6066
 20
-66.8725
 30
0.000000
  70
    32
  0
VERTEX
  8
図枠
  5
429
 10
70.6213
 20
-66.8752
 30
0.000000
  70
    32
  0
VERTEX
  8
図枠
  5
42A
 10
70.6361
 20
-66.8779
 30
0.000000
  70
    32
  0
VERTEX
  8
図枠
  5
42B
 10
70.6509
 20
-66.8807
 30
0.000000
  70
    32
  0
VERTEX
  8
図枠
  5
42C
 10
70.6656
 20
-66.8834
 30
0.000000
  70
    32
  0
VERTEX
  8
図枠
  5
42D
 10
70.6804
 20
-66.8860
 30
0.000000
  70
    32
  0
VERTEX
  8
図枠
  5
42E
 10
70.6952
 20
-66.8887
 30
0.000000
  70
    32
  0
VERTEX
  8
図枠
  5
42F
 10
70.7100
 20
-66.8914
 30
0.000000
  70
    32
  0
VERTEX
  8
図枠
  5
430
 10
70.7247
 20
-66.8941
 30
0.000000
  70
    32
  0
VERTEX
  8
図枠
  5
431
 10
70.7395
 20
-66.8967
 30
0.000000
  70
    32
  0
VERTEX
  8
図枠
  5
432
 10
70.7543
 20
-66.8994
 30
0.000000
  70
    32
  0
VERTEX
  8
図枠
  5
433
 10
70.7691
 20
-66.9020
 30
0.000000
  70
    32
  0
VERTEX
  8
図枠
  5
434
 10
70.7840
 20
-66.9047
 30
0.000000
  70
    32
  0
VERTEX
  8
図枠
  5
435
 10
70.7988
 20
-66.9073
 30
0.000000
  70
    32
  0
VERTEX
  8
図枠
  5
436
 10
70.8136
 20
-66.9100
 30
0.000000
  70
    32
  0
VERTEX
  8
図枠
  5
437
 10
70.8284
 20
-66.9126
 30
0.000000
  70
    32
  0
VERTEX
  8
図枠
  5
438
 10
70.8432
 20
-66.9152
 30
0.000000
  70
    32
  0
VERTEX
  8
図枠
  5
439
 10
70.8580
 20
-66.9178
 30
0.000000
  70
    32
  0
VERTEX
  8
図枠
  5
43A
 10
70.8729
 20
-66.9204
 30
0.000000
  70
    32
  0
VERTEX
  8
図枠
  5
43B
 10
70.8877
 20
-66.9230
 30
0.000000
  70
    32
  0
VERTEX
  8
図枠
  5
43C
 10
70.9025
 20
-66.9256
 30
0.000000
  70
    32
  0
VERTEX
  8
図枠
  5
43D
 10
70.9174
 20
-66.9282
 30
0.000000
  70
    32
  0
VERTEX
  8
図枠
  5
43E
 10
70.9322
 20
-66.9308
 30
0.000000
  70
    32
  0
VERTEX
  8
図枠
  5
43F
 10
70.9471
 20
-66.9333
 30
0.000000
  70
    32
  0
VERTEX
  8
図枠
  5
440
 10
70.9619
 20
-66.9359
 30
0.000000
  70
    32
  0
VERTEX
  8
図枠
  5
441
 10
70.9768
 20
-66.9385
 30
0.000000
  70
    32
  0
VERTEX
  8
図枠
  5
442
 10
70.9916
 20
-66.9410
 30
0.000000
  70
    32
  0
VERTEX
  8
図枠
  5
443
 10
71.0065
 20
-66.9436
 30
0.000000
  70
    32
  0
VERTEX
  8
図枠
  5
444
 10
71.0214
 20
-66.9462
 30
0.000000
  70
    32
  0
VERTEX
  8
図枠
  5
445
 10
71.0362
 20
-66.9487
 30
0.000000
  70
    32
  0
VERTEX
  8
図枠
  5
446
 10
71.0511
 20
-66.9513
 30
0.000000
  70
    32
  0
VERTEX
  8
図枠
  5
447
 10
71.0659
 20
-66.9538
 30
0.000000
  70
    32
  0
VERTEX
  8
図枠
  5
448
 10
71.0808
 20
-66.9564
 30
0.000000
  70
    32
  0
VERTEX
  8
図枠
  5
449
 10
71.0957
 20
-66.9589
 30
0.000000
  70
    32
  0
VERTEX
  8
図枠
  5
44A
 10
71.1106
 20
-66.9614
 30
0.000000
  70
    32
  0
VERTEX
  8
図枠
  5
44B
 10
71.1254
 20
-66.9640
 30
0.000000
  70
    32
  0
VERTEX
  8
図枠
  5
44C
 10
71.1403
 20
-66.9665
 30
0.000000
  70
    32
  0
VERTEX
  8
図枠
  5
44D
 10
71.1552
 20
-66.9690
 30
0.000000
  70
    32
  0
VERTEX
  8
図枠
  5
44E
 10
71.1701
 20
-66.9715
 30
0.000000
  70
    32
  0
VERTEX
  8
図枠
  5
44F
 10
71.1849
 20
-66.9741
 30
0.000000
  70
    32
  0
VERTEX
  8
図枠
  5
450
 10
71.1998
 20
-66.9766
 30
0.000000
  70
    32
  0
VERTEX
  8
図枠
  5
451
 10
71.2147
 20
-66.9791
 30
0.000000
  70
    32
  0
VERTEX
  8
図枠
  5
452
 10
71.2296
 20
-66.9816
 30
0.000000
  70
    32
  0
VERTEX
  8
図枠
  5
453
 10
71.2445
 20
-66.9841
 30
0.000000
  70
    32
  0
VERTEX
  8
図枠
  5
454
 10
71.2594
 20
-66.9867
 30
0.000000
  70
    32
  0
VERTEX
  8
図枠
  5
455
 10
71.2742
 20
-66.9892
 30
0.000000
  70
    32
  0
VERTEX
  8
図枠
  5
456
 10
71.2891
 20
-66.9917
 30
0.000000
  70
    32
  0
VERTEX
  8
図枠
  5
457
 10
71.3040
 20
-66.9942
 30
0.000000
  70
    32
  0
VERTEX
  8
図枠
  5
458
 10
71.3189
 20
-66.9967
 30
0.000000
  70
    32
  0
VERTEX
  8
図枠
  5
459
 10
71.3338
 20
-66.9992
 30
0.000000
  70
    32
  0
SEQEND
  8
図枠
  5
45A
  0
LINE
  5
112
  8
図枠
 10
75.338183275900008
 20
-47.327345685099992
 30
0.0
 11
75.338183275900008
 21
-49.631115285100002
 31
0.0
  0
LINE
  5
113
  8
図枠
 10
73.107597878600004
 20
-66.039335925499984
 30
0.0
 11
73.107597878600004
 21
-67.479191925500004
 31
0.0
  0
INSERT
  5
114
  8
0
  6
CONTINUOUS
  2
*U40
 10
0.0
 20
0.0
 30
0.0
  0
LINE
  5
115
  8
図枠
 10
75.338183275900008
 20
-47.327345685099992
 30
0.0
 11
75.338183275900008
 21
-49.631115285100002
 31
0.0
  0
LINE
  5
116
  8
図枠
 10
24.012835512700001
 20
-44.229655485099997
 30
0.0
 11
140.00123551269999
 21
-44.229655485099997
 31
0.0
  0
LINE
  5
117
  8
図枠
 10
58.806557158599993
 20
-64.199519925499999
 30
0.0
 11
57.2067171586
 21
-64.199519925499999
 31
0.0
  0
INSERT
  5
118
  8
0
  6
CONTINUOUS
  2
*U41
 10
0.0
 20
0.0
 30
0.0
  0
LINE
  5
119
  8
図枠
 10
79.945722475899984
 20
-46.175460885100001
 30
0.0
 11
79.945722475899984
 21
-50.783000085099999
 31
0.0
  0
INSERT
  5
11A
  8
0
  6
CONTINUOUS
  2
*U42
 10
0.0
 20
0.0
 30
0.0
  0
LINE
  5
11B
  8
図枠
 10
60.806357158599987
 20
-65.399399925500006
 30
0.0
 11
62.006237158599987
 21
-65.399399925500006
 31
0.0
  0
LINE
  5
11C
  8
図枠
 10
75.338183275900008
 20
-47.327345685099992
 30
0.0
 11
79.945722475899984
 21
-46.175460885100001
 31
0.0
  0
LINE
  5
11D
  8
図枠
 10
55.206917158599992
 20
-64.199519925499999
 30
0.0
 11
54.2861261977
 21
-64.199519925499999
 31
0.0
  0
LINE
  5
11E
  8
図枠
 10
57.2067171586
 20
-66.599279925499999
 30
0.0
 11
57.2067171586
 21
-65.399399925500006
 31
0.0
  0
LINE
  5
11F
  8
図枠
 10
56.009635512700008
 20
-56.978380485099997
 30
0.0
 11
82.007035512700014
 21
-56.978380485099997
 31
0.0
  0
LINE
  5
120
  8
図枠
 10
78.384773570100009
 20
-67.479191925500004
 30
0.0
 11
80.306877878599991
 21
-67.479191925500004
 31
0.0
  0
LINE
  5
121
  8
図枠
 10
75.338183275900008
 20
-49.631115285100002
 30
0.0
 11
79.945722475899984
 21
-50.783000085099999
 31
0.0
  0
LINE
  5
122
  8
図枠
 10
76.467261878599999
 20
-68.599079925500007
 30
0.0
 11
76.138761398599996
 21
-67.479191925500004
 31
0.0
  0
LINE
  5
123
  8
図枠
 10
77.254839197700008
 20
-63.552601511400013
 30
0.0
 11
77.90711787859999
 21
-62.599679925499998
 31
0.0
  0
LINE
  5
124
  8
図枠
 10
58.406597158599993
 20
-62.599679925499998
 30
0.0
 11
55.206917158599992
 21
-62.599679925499998
 31
0.0
  0
POLYLINE
  8
図枠
  5
45B
  66
     1
 10
0.000000
 20
0.000000
 30
0.000000
  70
     8
  0
VERTEX
  8
図枠
  5
45C
 10
66.8817
 20
-64.9097
 30
0.000000
  70
    32
  0
VERTEX
  8
図枠
  5
45D
 10
66.8870
 20
-64.9156
 30
0.000000
  70
    32
  0
VERTEX
  8
図枠
  5
45E
 10
66.8922
 20
-64.9215
 30
0.000000
  70
    32
  0
VERTEX
  8
図枠
  5
45F
 10
66.8975
 20
-64.9273
 30
0.000000
  70
    32
  0
VERTEX
  8
図枠
  5
460
 10
66.9028
 20
-64.9332
 30
0.000000
  70
    32
  0
VERTEX
  8
図枠
  5
461
 10
66.9081
 20
-64.9391
 30
0.000000
  70
    32
  0
VERTEX
  8
図枠
  5
462
 10
66.9134
 20
-64.9450
 30
0.000000
  70
    32
  0
VERTEX
  8
図枠
  5
463
 10
66.9186
 20
-64.9509
 30
0.000000
  70
    32
  0
VERTEX
  8
図枠
  5
464
 10
66.9239
 20
-64.9568
 30
0.000000
  70
    32
  0
VERTEX
  8
図枠
  5
465
 10
66.9292
 20
-64.9626
 30
0.000000
  70
    32
  0
VERTEX
  8
図枠
  5
466
 10
66.9345
 20
-64.9685
 30
0.000000
  70
    32
  0
VERTEX
  8
図枠
  5
467
 10
66.9398
 20
-64.9744
 30
0.000000
  70
    32
  0
VERTEX
  8
図枠
  5
468
 10
66.9450
 20
-64.9803
 30
0.000000
  70
    32
  0
VERTEX
  8
図枠
  5
469
 10
66.9503
 20
-64.9862
 30
0.000000
  70
    32
  0
VERTEX
  8
図枠
  5
46A
 10
66.9556
 20
-64.9920
 30
0.000000
  70
    32
  0
VERTEX
  8
図枠
  5
46B
 10
66.9609
 20
-64.9979
 30
0.000000
  70
    32
  0
VERTEX
  8
図枠
  5
46C
 10
66.9662
 20
-65.0038
 30
0.000000
  70
    32
  0
VERTEX
  8
図枠
  5
46D
 10
66.9715
 20
-65.0097
 30
0.000000
  70
    32
  0
VERTEX
  8
図枠
  5
46E
 10
66.9768
 20
-65.0155
 30
0.000000
  70
    32
  0
VERTEX
  8
図枠
  5
46F
 10
66.9820
 20
-65.0214
 30
0.000000
  70
    32
  0
VERTEX
  8
図枠
  5
470
 10
66.9873
 20
-65.0273
 30
0.000000
  70
    32
  0
VERTEX
  8
図枠
  5
471
 10
66.9926
 20
-65.0332
 30
0.000000
  70
    32
  0
VERTEX
  8
図枠
  5
472
 10
66.9979
 20
-65.0390
 30
0.000000
  70
    32
  0
VERTEX
  8
図枠
  5
473
 10
67.0032
 20
-65.0449
 30
0.000000
  70
    32
  0
VERTEX
  8
図枠
  5
474
 10
67.0085
 20
-65.0507
 30
0.000000
  70
    32
  0
VERTEX
  8
図枠
  5
475
 10
67.0138
 20
-65.0566
 30
0.000000
  70
    32
  0
VERTEX
  8
図枠
  5
476
 10
67.0191
 20
-65.0625
 30
0.000000
  70
    32
  0
VERTEX
  8
図枠
  5
477
 10
67.0244
 20
-65.0683
 30
0.000000
  70
    32
  0
VERTEX
  8
図枠
  5
478
 10
67.0297
 20
-65.0742
 30
0.000000
  70
    32
  0
VERTEX
  8
図枠
  5
479
 10
67.0350
 20
-65.0800
 30
0.000000
  70
    32
  0
VERTEX
  8
図枠
  5
47A
 10
67.0403
 20
-65.0859
 30
0.000000
  70
    32
  0
VERTEX
  8
図枠
  5
47B
 10
67.0456
 20
-65.0917
 30
0.000000
  70
    32
  0
VERTEX
  8
図枠
  5
47C
 10
67.0509
 20
-65.0976
 30
0.000000
  70
    32
  0
VERTEX
  8
図枠
  5
47D
 10
67.0562
 20
-65.1034
 30
0.000000
  70
    32
  0
VERTEX
  8
図枠
  5
47E
 10
67.0615
 20
-65.1092
 30
0.000000
  70
    32
  0
VERTEX
  8
図枠
  5
47F
 10
67.0668
 20
-65.1151
 30
0.000000
  70
    32
  0
VERTEX
  8
図枠
  5
480
 10
67.0722
 20
-65.1209
 30
0.000000
  70
    32
  0
VERTEX
  8
図枠
  5
481
 10
67.0775
 20
-65.1267
 30
0.000000
  70
    32
  0
VERTEX
  8
図枠
  5
482
 10
67.0828
 20
-65.1326
 30
0.000000
  70
    32
  0
VERTEX
  8
図枠
  5
483
 10
67.0881
 20
-65.1384
 30
0.000000
  70
    32
  0
VERTEX
  8
図枠
  5
484
 10
67.0934
 20
-65.1442
 30
0.000000
  70
    32
  0
VERTEX
  8
図枠
  5
485
 10
67.0987
 20
-65.1500
 30
0.000000
  70
    32
  0
VERTEX
  8
図枠
  5
486
 10
67.1041
 20
-65.1558
 30
0.000000
  70
    32
  0
VERTEX
  8
図枠
  5
487
 10
67.1094
 20
-65.1616
 30
0.000000
  70
    32
  0
VERTEX
  8
図枠
  5
488
 10
67.1147
 20
-65.1674
 30
0.000000
  70
    32
  0
VERTEX
  8
図枠
  5
489
 10
67.1201
 20
-65.1732
 30
0.000000
  70
    32
  0
VERTEX
  8
図枠
  5
48A
 10
67.1254
 20
-65.1790
 30
0.000000
  70
    32
  0
VERTEX
  8
図枠
  5
48B
 10
67.1307
 20
-65.1848
 30
0.000000
  70
    32
  0
VERTEX
  8
図枠
  5
48C
 10
67.1361
 20
-65.1906
 30
0.000000
  70
    32
  0
VERTEX
  8
図枠
  5
48D
 10
67.1414
 20
-65.1964
 30
0.000000
  70
    32
  0
VERTEX
  8
図枠
  5
48E
 10
67.1468
 20
-65.2022
 30
0.000000
  70
    32
  0
VERTEX
  8
図枠
  5
48F
 10
67.1521
 20
-65.2079
 30
0.000000
  70
    32
  0
VERTEX
  8
図枠
  5
490
 10
67.1575
 20
-65.2137
 30
0.000000
  70
    32
  0
VERTEX
  8
図枠
  5
491
 10
67.1628
 20
-65.2195
 30
0.000000
  70
    32
  0
VERTEX
  8
図枠
  5
492
 10
67.1682
 20
-65.2252
 30
0.000000
  70
    32
  0
VERTEX
  8
図枠
  5
493
 10
67.1735
 20
-65.2310
 30
0.000000
  70
    32
  0
VERTEX
  8
図枠
  5
494
 10
67.1789
 20
-65.2367
 30
0.000000
  70
    32
  0
VERTEX
  8
図枠
  5
495
 10
67.1843
 20
-65.2425
 30
0.000000
  70
    32
  0
VERTEX
  8
図枠
  5
496
 10
67.1896
 20
-65.2482
 30
0.000000
  70
    32
  0
VERTEX
  8
図枠
  5
497
 10
67.1950
 20
-65.2540
 30
0.000000
  70
    32
  0
VERTEX
  8
図枠
  5
498
 10
67.2004
 20
-65.2597
 30
0.000000
  70
    32
  0
VERTEX
  8
図枠
  5
499
 10
67.2058
 20
-65.2654
 30
0.000000
  70
    32
  0
VERTEX
  8
図枠
  5
49A
 10
67.2111
 20
-65.2711
 30
0.000000
  70
    32
  0
VERTEX
  8
図枠
  5
49B
 10
67.2165
 20
-65.2768
 30
0.000000
  70
    32
  0
VERTEX
  8
図枠
  5
49C
 10
67.2219
 20
-65.2826
 30
0.000000
  70
    32
  0
VERTEX
  8
図枠
  5
49D
 10
67.2273
 20
-65.2883
 30
0.000000
  70
    32
  0
VERTEX
  8
図枠
  5
49E
 10
67.2327
 20
-65.2940
 30
0.000000
  70
    32
  0
VERTEX
  8
図枠
  5
49F
 10
67.2381
 20
-65.2996
 30
0.000000
  70
    32
  0
VERTEX
  8
図枠
  5
4A0
 10
67.2435
 20
-65.3053
 30
0.000000
  70
    32
  0
VERTEX
  8
図枠
  5
4A1
 10
67.2489
 20
-65.3110
 30
0.000000
  70
    32
  0
VERTEX
  8
図枠
  5
4A2
 10
67.2543
 20
-65.3167
 30
0.000000
  70
    32
  0
VERTEX
  8
図枠
  5
4A3
 10
67.2597
 20
-65.3224
 30
0.000000
  70
    32
  0
VERTEX
  8
図枠
  5
4A4
 10
67.2652
 20
-65.3280
 30
0.000000
  70
    32
  0
VERTEX
  8
図枠
  5
4A5
 10
67.2706
 20
-65.3337
 30
0.000000
  70
    32
  0
VERTEX
  8
図枠
  5
4A6
 10
67.2760
 20
-65.3393
 30
0.000000
  70
    32
  0
VERTEX
  8
図枠
  5
4A7
 10
67.2814
 20
-65.3450
 30
0.000000
  70
    32
  0
VERTEX
  8
図枠
  5
4A8
 10
67.2869
 20
-65.3506
 30
0.000000
  70
    32
  0
VERTEX
  8
図枠
  5
4A9
 10
67.2923
 20
-65.3562
 30
0.000000
  70
    32
  0
VERTEX
  8
図枠
  5
4AA
 10
67.2978
 20
-65.3618
 30
0.000000
  70
    32
  0
VERTEX
  8
図枠
  5
4AB
 10
67.3032
 20
-65.3675
 30
0.000000
  70
    32
  0
VERTEX
  8
図枠
  5
4AC
 10
67.3087
 20
-65.3731
 30
0.000000
  70
    32
  0
VERTEX
  8
図枠
  5
4AD
 10
67.3141
 20
-65.3787
 30
0.000000
  70
    32
  0
VERTEX
  8
図枠
  5
4AE
 10
67.3196
 20
-65.3843
 30
0.000000
  70
    32
  0
VERTEX
  8
図枠
  5
4AF
 10
67.3250
 20
-65.3899
 30
0.000000
  70
    32
  0
VERTEX
  8
図枠
  5
4B0
 10
67.3305
 20
-65.3954
 30
0.000000
  70
    32
  0
VERTEX
  8
図枠
  5
4B1
 10
67.3360
 20
-65.4010
 30
0.000000
  70
    32
  0
VERTEX
  8
図枠
  5
4B2
 10
67.3415
 20
-65.4066
 30
0.000000
  70
    32
  0
VERTEX
  8
図枠
  5
4B3
 10
67.3469
 20
-65.4121
 30
0.000000
  70
    32
  0
VERTEX
  8
図枠
  5
4B4
 10
67.3524
 20
-65.4177
 30
0.000000
  70
    32
  0
VERTEX
  8
図枠
  5
4B5
 10
67.3579
 20
-65.4232
 30
0.000000
  70
    32
  0
VERTEX
  8
図枠
  5
4B6
 10
67.3634
 20
-65.4288
 30
0.000000
  70
    32
  0
VERTEX
  8
図枠
  5
4B7
 10
67.3689
 20
-65.4343
 30
0.000000
  70
    32
  0
VERTEX
  8
図枠
  5
4B8
 10
67.3744
 20
-65.4398
 30
0.000000
  70
    32
  0
VERTEX
  8
図枠
  5
4B9
 10
67.3799
 20
-65.4453
 30
0.000000
  70
    32
  0
VERTEX
  8
図枠
  5
4BA
 10
67.3855
 20
-65.4508
 30
0.000000
  70
    32
  0
VERTEX
  8
図枠
  5
4BB
 10
67.3910
 20
-65.4563
 30
0.000000
  70
    32
  0
VERTEX
  8
図枠
  5
4BC
 10
67.3965
 20
-65.4618
 30
0.000000
  70
    32
  0
VERTEX
  8
図枠
  5
4BD
 10
67.4020
 20
-65.4673
 30
0.000000
  70
    32
  0
VERTEX
  8
図枠
  5
4BE
 10
67.4076
 20
-65.4727
 30
0.000000
  70
    32
  0
VERTEX
  8
図枠
  5
4BF
 10
67.4131
 20
-65.4782
 30
0.000000
  70
    32
  0
VERTEX
  8
図枠
  5
4C0
 10
67.4187
 20
-65.4836
 30
0.000000
  70
    32
  0
VERTEX
  8
図枠
  5
4C1
 10
67.4242
 20
-65.4891
 30
0.000000
  70
    32
  0
VERTEX
  8
図枠
  5
4C2
 10
67.4298
 20
-65.4945
 30
0.000000
  70
    32
  0
VERTEX
  8
図枠
  5
4C3
 10
67.4354
 20
-65.4999
 30
0.000000
  70
    32
  0
VERTEX
  8
図枠
  5
4C4
 10
67.4409
 20
-65.5054
 30
0.000000
  70
    32
  0
VERTEX
  8
図枠
  5
4C5
 10
67.4465
 20
-65.5108
 30
0.000000
  70
    32
  0
VERTEX
  8
図枠
  5
4C6
 10
67.4521
 20
-65.5162
 30
0.000000
  70
    32
  0
VERTEX
  8
図枠
  5
4C7
 10
67.4577
 20
-65.5216
 30
0.000000
  70
    32
  0
VERTEX
  8
図枠
  5
4C8
 10
67.4633
 20
-65.5269
 30
0.000000
  70
    32
  0
VERTEX
  8
図枠
  5
4C9
 10
67.4689
 20
-65.5323
 30
0.000000
  70
    32
  0
VERTEX
  8
図枠
  5
4CA
 10
67.4745
 20
-65.5377
 30
0.000000
  70
    32
  0
VERTEX
  8
図枠
  5
4CB
 10
67.4801
 20
-65.5430
 30
0.000000
  70
    32
  0
VERTEX
  8
図枠
  5
4CC
 10
67.4857
 20
-65.5484
 30
0.000000
  70
    32
  0
VERTEX
  8
図枠
  5
4CD
 10
67.4913
 20
-65.5537
 30
0.000000
  70
    32
  0
VERTEX
  8
図枠
  5
4CE
 10
67.4970
 20
-65.5590
 30
0.000000
  70
    32
  0
VERTEX
  8
図枠
  5
4CF
 10
67.5026
 20
-65.5643
 30
0.000000
  70
    32
  0
VERTEX
  8
図枠
  5
4D0
 10
67.5082
 20
-65.5696
 30
0.000000
  70
    32
  0
VERTEX
  8
図枠
  5
4D1
 10
67.5139
 20
-65.5749
 30
0.000000
  70
    32
  0
VERTEX
  8
図枠
  5
4D2
 10
67.5195
 20
-65.5802
 30
0.000000
  70
    32
  0
VERTEX
  8
図枠
  5
4D3
 10
67.5252
 20
-65.5855
 30
0.000000
  70
    32
  0
VERTEX
  8
図枠
  5
4D4
 10
67.5309
 20
-65.5907
 30
0.000000
  70
    32
  0
VERTEX
  8
図枠
  5
4D5
 10
67.5365
 20
-65.5960
 30
0.000000
  70
    32
  0
VERTEX
  8
図枠
  5
4D6
 10
67.5422
 20
-65.6012
 30
0.000000
  70
    32
  0
VERTEX
  8
図枠
  5
4D7
 10
67.5479
 20
-65.6064
 30
0.000000
  70
    32
  0
VERTEX
  8
図枠
  5
4D8
 10
67.5536
 20
-65.6116
 30
0.000000
  70
    32
  0
VERTEX
  8
図枠
  5
4D9
 10
67.5593
 20
-65.6168
 30
0.000000
  70
    32
  0
VERTEX
  8
図枠
  5
4DA
 10
67.5650
 20
-65.6220
 30
0.000000
  70
    32
  0
VERTEX
  8
図枠
  5
4DB
 10
67.5707
 20
-65.6272
 30
0.000000
  70
    32
  0
SEQEND
  8
図枠
  5
4DC
  0
LINE
  5
126
  8
図枠
 10
64.134509158599997
 20
-64.039535925500005
 30
0.0
 11
68.134109158599998
 21
-64.039535925500005
 31
0.0
  0
INSERT
  5
127
  8
0
  6
CONTINUOUS
  2
*U43
 10
0.0
 20
0.0
 30
0.0
  0
LINE
  5
128
  8
図枠
 10
54.2861261977
 20
-64.199519925499999
 30
0.0
 11
54.2861261977
 21
-65.399399925500006
 31
0.0
  0
INSERT
  5
129
  8
0
  6
CONTINUOUS
  2
*U44
 10
0.0
 20
0.0
 30
0.0
  0
INSERT
  5
12A
  8
0
  6
CONTINUOUS
  2
*U45
 10
0.0
 20
0.0
 30
0.0
  0
CIRCLE
  5
12B
  8
図枠
 10
70.072229112700001
 20
-48.479230485100011
 30
0.0
 40
1.151884799999999
  0
CIRCLE
  5
12C
  8
図枠
 10
70.072229112700001
 20
-48.479230485100011
 30
0.0
 40
2.303769599999999
  0
LINE
  5
12D
  8
図枠
 10
75.338183275900008
 20
-47.327345685099992
 30
0.0
 11
75.338183275900008
 21
-49.631115285100002
 31
0.0
  0
LINE
  5
12E
  8
図枠
 10
75.338183275900008
 20
-47.327345685099992
 30
0.0
 11
79.945722475899984
 21
-46.175460885100001
 31
0.0
  0
LINE
  5
12F
  8
図枠
 10
81.007135512700003
 20
-33.230755485100012
 30
0.0
 11
81.007135512700003
 21
-27.731305485099998
 31
0.0
  0
INSERT
  5
130
  8
0
  6
CONTINUOUS
  2
*U46
 10
0.0
 20
0.0
 30
0.0
  0
INSERT
  5
131
  8
0
  6
CONTINUOUS
  2
*U47
 10
0.0
 20
0.0
 30
0.0
  0
INSERT
  5
132
  8
0
  6
CONTINUOUS
  2
*U48
 10
0.0
 20
0.0
 30
0.0
  0
LINE
  5
133
  8
図枠
 10
24.012835512700001
 20
-27.731305485099998
 30
0.0
 11
24.012835512700001
 21
-44.229655485099997
 31
0.0
  0
LINE
  5
134
  8
図枠
 10
55.206917158599992
 20
-66.599279925499999
 30
0.0
 11
57.2067171586
 21
-66.599279925499999
 31
0.0
  0
LINE
  5
135
  8
図枠
 10
44.010835512700012
 20
-44.229655485099997
 30
0.0
 11
44.010835512700012
 21
-27.731305485099998
 31
0.0
  0
LINE
  5
136
  8
図枠
 10
64.134509158599997
 20
-66.999239925500007
 30
0.0
 11
65.094413158599991
 21
-66.999239925500007
 31
0.0
  0
LINE
  5
137
  8
ﾚｲﾔ_1
 62
     5
 10
-66.128169014099996
 20
73.384272300500001
 30
0.0
 11
-66.128169014099996
 21
48.384272300500001
 31
0.0
  0
ARC
  5
138
  8
ﾚｲﾔ_1
 62
     5
 10
-33.628169014100003
 20
50.884272300500001
 30
0.0
 40
2.5
 50
270.0
 51
0.0
  0
LINE
  5
139
  8
ﾚｲﾔ_1
 62
     5
 10
-66.128169014099996
 20
48.384272300500001
 30
0.0
 11
-33.628169014100003
 21
48.384272300500001
 31
0.0
  0
LINE
  5
13A
  8
ﾚｲﾔ_1
 62
     5
 10
-31.128169014099999
 20
50.884272300500001
 30
0.0
 11
-31.128169014099999
 21
70.884272300500001
 31
0.0
  0
ARC
  5
13B
  8
ﾚｲﾔ_1
 62
     5
 10
-33.628169014100003
 20
70.884272300500001
 30
0.0
 40
2.5
 50
0.0
 51
90.0
  0
LINE
  5
13C
  8
ﾚｲﾔ_1
 62
     5
 10
-33.628169014100003
 20
73.384272300500001
 30
0.0
 11
-66.128169014099996
 21
73.384272300500001
 31
0.0
  0
LINE
  5
13D
  8
ﾚｲﾔ_1
  6
BORDER
 62
     3
 10
-48.128169014099988
 20
60.884272300500001
 30
0.0
 11
-34.128169014100003
 21
60.884272300500001
 31
0.0
  0
LINE
  5
13E
  8
ﾚｲﾔ_1
  6
BORDER
 62
     3
 10
-41.128169014099988
 20
64.384272300500001
 30
0.0
 11
-41.128169014099988
 21
57.384272300500001
 31
0.0
  0
DIMENSION
  5
14D
  8
寸法線
  2
*D6
 10
-41.128169014099988
 20
38.384272300500001
 30
0.0
 11
-36.128169014100003
 21
38.384272300500001
 31
0.0
 70
   128
  1
<>
 13
-41.128169014099988
 23
57.384272300500001
 33
0.0
 14
-31.128169014099999
 24
48.384272300500001
 34
0.0
 50
180.0
  0
DIMENSION
  5
15C
  8
寸法線
  2
*D7
 10
-66.128169014099996
 20
38.384272300500001
 30
0.0
 11
-53.628169014099988
 21
38.384272300500001
 31
0.0
 70
   128
  1
<>
 13
-66.128169014099996
 23
48.384272300500001
 33
0.0
 14
-41.128169014099988
 24
57.384272300500001
 34
0.0
 50
180.0
  0
DIMENSION
  5
16B
  8
寸法線
  2
*D8
 10
-53.878169014099988
 20
63.134272300500001
 30
0.0
 11
-53.878169014099988
 21
60.884272300500001
 31
0.0
 70
   128
  1
<>
 13
-43.878169014099988
 23
63.134272300500001
 33
0.0
 14
-43.878169014099988
 24
58.634272300500001
 34
0.0
 50
90.0
  0
DIMENSION
  5
17A
  8
寸法線
  2
*D9
 10
-76.128169014099996
 20
73.384272300500001
 30
0.0
 11
-76.128169014099996
 21
60.884272300500001
 31
0.0
 70
   128
  1
<>
 13
-66.128169014099996
 23
73.384272300500001
 33
0.0
 14
-66.128169014099996
 24
48.384272300500001
 34
0.0
 50
90.0
  0
DIMENSION
  5
189
  8
寸法線
  2
*D10
 10
-36.128169014100003
 20
82.264529153699996
 30
0.0
 11
-41.128169014099988
 21
82.264529153699996
 31
0.0
 70
   128
  1
<>
 13
-36.128169014100003
 23
60.884272300500001
 33
0.0
 14
-46.128169014099988
 24
60.884272300500001
 34
0.0
  0
DIMENSION
  5
198
  8
寸法線
  2
*D11
 10
-18.238576778999999
 20
60.884272300500001
 30
0.0
 11
-18.238576778999999
 21
67.134272300500001
 31
0.0
 70
   128
  1
<>
 13
-34.128169014100003
 23
60.884272300500001
 33
0.0
 14
-31.128169014099999
 24
73.384272300500001
 34
0.0
 50
90.0
  0
DIMENSION
  5
1A7
  8
寸法線
  2
*D12
 10
-18.238576778999999
 20
48.384272300500001
 30
0.0
 11
-18.238576778999999
 21
54.634272300500001
 31
0.0
 70
   128
  1
<>
 13
-31.128169014099999
 23
48.384272300500001
 33
0.0
 14
-34.128169014100003
 24
60.884272300500001
 34
0.0
 50
90.0
  0
DIMENSION
  5
1B0
  8
寸法線
  2
*D13
 10
-33.628169014100003
 20
70.884272300500001
 30
0.0
 11
-18.108013107000001
 21
86.122422897500002
 31
0.0
 70
   132
  1
4-R <>
 15
-31.8604020611
 25
72.652039253400005
 35
0.0
 40
0.0
  0
ARC
  5
1B1
  8
図枠
 10
65.094413158599991
 20
-63.9595439255
 30
0.0
 40
3.0396959999999988
 50
331.39928138329998
 51
358.49204224580001
  0
LINE
  5
1B2
  8
図枠
 10
57.2067171586
 20
-64.199519925499999
 30
0.0
 11
57.2067171586
 21
-63.799559925499999
 31
0.0
  0
LINE
  5
1B3
  8
図枠
 10
62.006237158599987
 20
-62.599679925499998
 30
0.0
 11
58.806557158599993
 21
-62.599679925499998
 31
0.0
  0
LINE
  5
1B4
  8
図枠
 10
24.012835512700001
 20
-38.730205485100001
 30
0.0
 11
140.00123551269999
 21
-38.730205485100001
 31
0.0
  0
CIRCLE
  5
1B5
  8
図枠
 10
70.072229112700001
 20
-48.479230485100011
 30
0.0
 40
1.151884799999999
  0
INSERT
  5
1B6
  8
0
  6
CONTINUOUS
  2
*U49
 10
0.0
 20
0.0
 30
0.0
  0
INSERT
  5
1B7
  8
0
  6
CONTINUOUS
  2
*U50
 10
0.0
 20
0.0
 30
0.0
  0
LINE
  5
1B8
  8
図枠
 10
79.945722475899984
 20
-46.175460885100001
 30
0.0
 11
79.945722475899984
 21
-50.783000085099999
 31
0.0
  0
LINE
  5
1B9
  8
図枠
 10
73.107597878600004
 20
-66.039335925499984
 30
0.0
 11
75.716403638599999
 21
-66.039335925499984
 31
0.0
  0
LINE
  5
1BA
  8
図枠
 62
     5
 10
-134.9712644873
 20
-69.727105485099997
 30
0.0
 11
140.00123551269999
 21
-69.727105485099997
 31
0.0
  0
LINE
  5
1BB
  8
図枠
  6
DOT
 10
-140.97066448730001
 20
-75.476530485099985
 30
0.0
 11
146.0006355127
 21
-75.476530485099985
 31
0.0
  0
LINE
  5
1BC
  8
図枠
 62
     5
 10
-134.9712644873
 20
120.2538945149
 30
0.0
 11
140.00123551269999
 21
120.2538945149
 31
0.0
  0
LINE
  5
1BD
  8
図枠
  6
DOT
 10
-140.97066448730001
 20
126.0033195149
 30
0.0
 11
146.0006355127
 21
126.0033195149
 31
0.0
  0
LINE
  5
1BE
  8
ﾚｲﾔ_1
 62
     5
 10
-66.128169014099996
 20
11.776056338
 30
0.0
 11
-66.128169014099996
 21
-8.2239436619999982
 31
0.0
  0
LINE
  5
1BF
  8
ﾚｲﾔ_1
 62
     5
 10
-64.528169014100001
 20
11.776056338
 30
0.0
 11
-64.528169014100001
 21
-8.2239436619999982
 31
0.0
  0
DIMENSION
  5
1CC
  8
寸法線
  2
*D51
 10
-51.205661224875399
 20
-1.932190203610286
 30
0.0
 11
-53.802095516600012
 21
1.403460039000002
 31
0.0
 70
   133
  1
<>
 13
-64.528169014100001
 23
11.776056338
 33
0.0
 14
-31.128169014099999
 24
-9.6239436620000003
 34
0.0
 15
-64.528169014100001
 25
-9.6239436620000003
 35
0.0
1001
ACAD
1000
DSTYLE
1002
{
1070
   271
1070
     0
1002
}
  0
DIMENSION
  5
1DB
  8
寸法線
  2
*D15
 10
-76.128169014099996
 20
11.776056338
 30
0.0
 11
-76.128169014099996
 21
0.276056338
 31
0.0
 70
   128
  1
<>
 13
-66.128169014099996
 23
11.776056338
 33
0.0
 14
-63.128169014099988
 24
-11.223943662
 34
0.0
 50
90.0
  0
DIMENSION
  5
1EA
  8
寸法線
  2
*D16
 10
-21.128169014099999
 20
-11.223943662
 30
0.0
 11
-21.128169014099999
 21
-3.9652144361000001
 31
0.0
 70
   128
  1
<>t
 13
-31.128169014099999
 23
-11.223943662
 33
0.0
 14
-31.128169014099999
 24
-9.6239436620000003
 34
0.0
 50
90.0
  0
LINE
  5
1EB
  8
図枠
  6
DOT
 10
-140.96766478730001
 20
-75.476530485099985
 30
0.0
 11
-140.96766478730001
 21
126.0033195149
 31
0.0
  0
LINE
  5
1EC
  8
図枠
 62
     5
 10
-134.9712644873
 20
-69.727105485099997
 30
0.0
 11
-134.9712644873
 21
120.2538945149
 31
0.0
  0
LINE
  5
1ED
  8
図枠
  6
DOT
 10
146.0006355127
 20
-75.476530485099985
 30
0.0
 11
146.0006355127
 21
126.0033195149
 31
0.0
  0
LINE
  5
1EE
  8
図枠
 62
     5
 10
140.00123551269999
 20
-69.727105485099997
 30
0.0
 11
140.00123551269999
 21
120.2538945149
 31
0.0
  0
ARC
  5
1EF
  8
ﾚｲﾔ_1
 62
     5
 10
-63.128169014099988
 20
-8.2239436619999982
 30
0.0
 40
3.0
 50
180.0
 51
270.0
  0
ARC
  5
1F0
  8
ﾚｲﾔ_1
 62
     5
 10
-63.128169014099988
 20
-8.2239436619999982
 30
0.0
 40
1.399999999999999
 50
180.0
 51
270.0
  0
LINE
  5
1F1
  8
ﾚｲﾔ_1
 62
     5
 10
-31.128169014099999
 20
-11.223943662
 30
0.0
 11
-31.128169014099999
 21
-9.6239436620000003
 31
0.0
  0
LINE
  5
1F2
  8
ﾚｲﾔ_1
 62
     5
 10
-63.128169014099988
 20
-11.223943662
 30
0.0
 11
-31.128169014099999
 21
-11.223943662
 31
0.0
  0
LINE
  5
1F3
  8
ﾚｲﾔ_1
 62
     5
 10
-63.128169014099988
 20
-9.6239436620000003
 30
0.0
 11
-31.128169014099999
 21
-9.6239436620000003
 31
0.0
  0
DIMENSION
  5
202
  8
寸法線
  2
*D17
 10
-66.128169014099996
 20
-21.223943662
 30
0.0
 11
-48.628169014099988
 21
-21.223943662
 31
0.0
 70
   128
  1
<>
 13
-66.128169014099996
 23
-8.2239436619999982
 33
0.0
 14
-31.128169014099999
 24
-11.223943662
 34
0.0
 50
180.0
  0
ARC
  5
203
  8
ﾚｲﾔ_1
 62
     5
 10
-43.878169014099988
 20
60.884272300500001
 30
0.0
 40
2.25
 50
90.0
 51
270.0
  0
ARC
  5
204
  8
ﾚｲﾔ_1
 62
     5
 10
-38.378169014100003
 20
60.884272300500001
 30
0.0
 40
2.25
 50
270.0
 51
90.0
  0
LINE
  5
205
  8
ﾚｲﾔ_1
 62
     5
 10
-38.378169014100003
 20
63.134272300500001
 30
0.0
 11
-43.878169014099988
 21
63.134272300500001
 31
0.0
  0
LINE
  5
206
  8
ﾚｲﾔ_1
 62
     5
 10
-43.878169014099988
 20
58.634272300500001
 30
0.0
 11
-38.378169014100003
 21
58.634272300500001
 31
0.0
  0
LINE
  5
207
  8
ﾚｲﾔ_1
 62
     5
 10
-64.528169014100001
 20
11.776056338
 30
0.0
 11
-66.128169014099996
 21
11.776056338
 31
0.0
  0
LINE
  5
208
  8
ﾚｲﾔ_1
 62
     5
 10
-64.528169014100001
 20
73.384272300500001
 30
0.0
 11
-64.528169014100001
 21
48.384272300500001
 31
0.0
  0
ENDSEC
  0
EOF
