  0
SECTION
  2
HEADER
  9
$ACADVER
  1
AC1009
  9
$INSBASE
 10
0.0
 20
0.0
 30
0.0
  9
$EXTMIN
 10
-140.98229476282049
 20
-75.482821119163361
 30
-0.0015258207003583
  9
$EXTMAX
 10
146.0065205753346
 20
126.0093262349769
 30
0.0000000349246037
  9
$LIMMIN
 10
0.0
 20
0.0
  9
$LIMMAX
 10
0.0
 20
0.0
  9
$ORTHOMODE
 70
     0
  9
$REGENMODE
 70
     1
  9
$FILLMODE
 70
     1
  9
$QTEXTMODE
 70
     0
  9
$MIRRTEXT
 70
     1
  9
$DRAGMODE
 70
     2
  9
$LTSCALE
 40
1.0
  9
$OSMODE
 70
    31
  9
$ATTMODE
 70
     1
  9
$TEXTSIZE
 40
0.0
  9
$TRACEWID
 40
0.05
  9
$TEXTSTYLE
  7
STANDARD
  9
$CLAYER
  8
0
  9
$CELTYPE
  6
CONTINUOUS
  9
$CECOLOR
 62
   256
  9
$DIMSCALE
 40
1.0
  9
$DIMASZ
 40
0.18
  9
$DIMEXO
 40
0.0625
  9
$DIMDLI
 40
0.38
  9
$DIMRND
 40
0.0
  9
$DIMDLE
 40
0.0
  9
$DIMEXE
 40
0.18
  9
$DIMTP
 40
0.0
  9
$DIMTM
 40
0.0
  9
$DIMTXT
 40
0.18
  9
$DIMCEN
 40
0.09
  9
$DIMTSZ
 40
0.0
  9
$DIMTOL
 70
     0
  9
$DIMLIM
 70
     0
  9
$DIMTIH
 70
     1
  9
$DIMTOH
 70
     1
  9
$DIMSE1
 70
     0
  9
$DIMSE2
 70
     0
  9
$DIMTAD
 70
     0
  9
$DIMZIN
 70
     0
  9
$DIMBLK
  1

  9
$DIMASO
 70
     1
  9
$DIMSHO
 70
     1
  9
$DIMPOST
  1

  9
$DIMAPOST
  1

  9
$DIMALT
 70
     0
  9
$DIMALTD
 70
     2
  9
$DIMALTF
 40
25.399999999999999
  9
$DIMLFAC
 40
1.0
  9
$DIMTOFL
 70
     0
  9
$DIMTVP
 40
0.0
  9
$DIMTIX
 70
     0
  9
$DIMSOXD
 70
     0
  9
$DIMSAH
 70
     0
  9
$DIMBLK1
  1

  9
$DIMBLK2
  1

  9
$DIMSTYLE
  2
STANDARD
  9
$DIMCLRD
 70
     0
  9
$DIMCLRE
 70
     0
  9
$DIMCLRT
 70
     0
  9
$DIMTFAC
 40
1.0
  9
$DIMGAP
 40
0.09
  9
$LUNITS
 70
     2
  9
$LUPREC
 70
     4
  9
$SKETCHINC
 40
0.1
  9
$FILLETRAD
 40
0.0
  9
$AUNITS
 70
     0
  9
$AUPREC
 70
     0
  9
$MENU
  1
acad
  9
$ELEVATION
 40
0.0
  9
$PELEVATION
 40
0.0
  9
$THICKNESS
 40
0.0
  9
$LIMCHECK
 70
     0
  9
$BLIPMODE
 70
     0
  9
$CHAMFERA
 40
0.0
  9
$CHAMFERB
 40
0.0
  9
$SKPOLY
 70
     0
  9
$TDCREATE
 40
2454863.539342986
  9
$TDUPDATE
 40
2454863.5396522339
  9
$TDINDWG
 40
0.0003206366
  9
$TDUSRTIMER
 40
0.0003202778
  9
$USRTIMER
 70
     1
  9
$ANGBASE
 50
0.0
  9
$ANGDIR
 70
     0
  9
$PDMODE
 70
     3
  9
$PDSIZE
 40
-1.0
  9
$PLINEWID
 40
0.0
  9
$COORDS
 70
     2
  9
$SPLFRAME
 70
     0
  9
$SPLINETYPE
 70
     6
  9
$SPLINESEGS
 70
     8
  9
$ATTDIA
 70
     0
  9
$ATTREQ
 70
     1
  9
$HANDLING
 70
     1
  9
$HANDSEED
  5
4DD
  9
$SURFTAB1
 70
     6
  9
$SURFTAB2
 70
     6
  9
$SURFTYPE
 70
     6
  9
$SURFU
 70
     6
  9
$SURFV
 70
     6
  9
$UCSNAME
  2

  9
$UCSORG
 10
0.0
 20
0.0
 30
0.0
  9
$UCSXDIR
 10
1.0
 20
0.0
 30
0.0
  9
$UCSYDIR
 10
0.0
 20
1.0
 30
0.0
  9
$PUCSNAME
  2

  9
$PUCSORG
 10
0.0
 20
0.0
 30
0.0
  9
$PUCSXDIR
 10
1.0
 20
0.0
 30
0.0
  9
$PUCSYDIR
 10
0.0
 20
1.0
 30
0.0
  9
$USERI1
 70
     0
  9
$USERI2
 70
     0
  9
$USERI3
 70
     0
  9
$USERI4
 70
     0
  9
$USERI5
 70
     0
  9
$USERR1
 40
0.0
  9
$USERR2
 40
0.0
  9
$USERR3
 40
0.0
  9
$USERR4
 40
0.0
  9
$USERR5
 40
0.0
  9
$WORLDVIEW
 70
     1
  9
$SHADEDGE
 70
     3
  9
$SHADEDIF
 70
    70
  9
$TILEMODE
 70
     1
  9
$MAXACTVP
 70
    16
  9
$PLIMCHECK
 70
     0
  9
$PEXTMIN
 10
1.0000000000000000E+020
 20
1.0000000000000000E+020
 30
1.0000000000000000E+020
  9
$PEXTMAX
 10
-1.0000000000000000E+020
 20
-1.0000000000000000E+020
 30
-1.0000000000000000E+020
  9
$PLIMMIN
 10
0.0
 20
0.0
  9
$PLIMMAX
 10
12.0
 20
9.0
  9
$UNITMODE
 70
     0
  9
$VISRETAIN
 70
     0
  9
$PLINEGEN
 70
     1
  9
$PSLTSCALE
 70
     0
  0
ENDSEC
  0
SECTION
  2
TABLES
  0
TABLE
  2
VPORT
 70
     2
  0
VPORT
  2
*ACTIVE
 70
     0
 10
0.0
 20
0.0
 11
1.0
 21
1.0
 12
2.5121129062570731
 22
25.263252557906782
 13
0.0
 23
0.0
 14
1.0
 24
1.0
 15
0.0
 25
0.0
 16
0.0
 26
0.0
 36
1.0
 17
0.0
 27
0.0
 37
0.0
 40
203.84962032383419
 41
1.4164265129682989
 42
50.0
 43
0.0
 44
0.0
 50
0.0
 51
0.0
 71
     0
 72
   100
 73
     1
 74
     1
 75
     0
 76
     0
 77
     0
 78
     0
  0
ENDTAB
  0
TABLE
  2
LTYPE
 70
    11
  0
LTYPE
  2
CONTINUOUS
 70
     0
  3
Solid line
 72
    65
 73
     0
 40
0.0
  0
LTYPE
  2
DOT
 70
     0
  3
. . . . . . . . 
 72
    65
 73
     2
 40
1.0
 49
0.0
 49
-1.0
  0
LTYPE
  2
DASHED
 70
     0
  3
___  ___  ___  ___  
 72
    65
 73
     2
 40
4.0
 49
3.0
 49
-1.0
  0
LTYPE
  2
HIDDEN
 70
     0
  3
__ __ __ __ 
 72
    65
 73
     2
 40
3.0
 49
2.0
 49
-1.0
  0
LTYPE
  2
STITCH
 70
     0
  3
_ _ _ _ 
 72
    65
 73
     2
 40
2.0
 49
1.0
 49
-1.0
  0
LTYPE
  2
CENTER
 70
     0
  3
______  __  ______  __  
 72
    65
 73
     4
 40
43.0
 49
40.0
 49
-1.0
 49
1.0
 49
-1.0
  0
LTYPE
  2
DASHDOT
 70
     0
  3
____ . ____ . 
 72
    65
 73
     4
 40
32.0
 49
30.0
 49
-1.0
 49
0.0
 49
-1.0
  0
LTYPE
  2
BORDER
 70
     0
  3
__ . __ . 
 72
    65
 73
     4
 40
22.0
 49
20.0
 49
-1.0
 49
0.0
 49
-1.0
  0
LTYPE
  2
CUTTING
 70
     0
  3
________   ___   ___   
 72
    65
 73
     6
 40
45.0
 49
40.0
 49
-1.0
 49
1.0
 49
-1.0
 49
1.0
 49
-1.0
  0
LTYPE
  2
PHANTOM
 70
     0
  3
______  __  __  
 72
    65
 73
     6
 40
35.0
 49
30.0
 49
-1.0
 49
1.0
 49
-1.0
 49
1.0
 49
-1.0
  0
LTYPE
  2
DIVIDE
 70
     0
  3
____ . . ____ . . 
 72
    65
 73
     6
 40
23.0
 49
20.0
 49
-1.0
 49
0.0
 49
-1.0
 49
0.0
 49
-1.0
  0
ENDTAB
  0
TABLE
  2
LAYER
 70
     5
  0
LAYER
  2
0
 70
     0
 62
     7
  6
CONTINUOUS
  0
LAYER
  2
図枠
 70
     0
 62
     7
  6
CONTINUOUS
  0
LAYER
  2
ﾚｲﾔ_1
 70
     0
 62
     7
  6
CONTINUOUS
  0
LAYER
  2
寸法線
 70
     0
 62
     7
  6
CONTINUOUS
  0
LAYER
  2
Defpoints
 70
     0
 62
     7
  6
CONTINUOUS
  0
ENDTAB
  0
TABLE
  2
STYLE
 70
     1
  0
STYLE
  2
STANDARD
 70
     0
 40
0.0
 41
1.0
 50
0.0
 71
     0
 42
0.0
  3
txt
  4
extfont
  0
ENDTAB
  0
TABLE
  2
VIEW
 70
     0
  0
ENDTAB
  0
TABLE
  2
UCS
 70
     0
  0
ENDTAB
  0
TABLE
  2
APPID
 70
     2
  0
APPID
  2
ACAD
 70
     0
  0
APPID
  2
DCO15
 70
     0
  0
ENDTAB
  0
TABLE
  2
DIMSTYLE
 70
     3
  0
DIMSTYLE
  2
STANDARD
 70
     0
  3

  4

  5

  6

  7

 40
1.0
 41
0.18
 42
0.0625
 43
0.38
 44
0.18
 45
0.0
 46
0.0
 47
0.0
 48
0.0
140
0.18
141
0.09
142
0.0
143
25.399999999999999
144
1.0
145
0.0
146
1.0
147
0.09
 71
     0
 72
     0
 73
     1
 74
     1
 75
     0
 76
     0
 77
     0
 78
     0
170
     0
171
     2
172
     0
173
     0
174
     0
175
     0
176
     0
177
     0
178
     0
  0
DIMSTYLE
  2
VELDIM0
 70
     0
  3

  4

  5

  6

  7

 40
1.0
 41
3.0
 42
0.0625
 43
0.38
 44
1.0
 45
0.0
 46
5.0
 47
0.0
 48
0.0
140
2.9986110209999999
141
0.09
142
0.0
143
25.399999999999999
144
1.0
145
0.0
146
1.0
147
0.09
 71
     0
 72
     0
 73
     0
 74
     0
 75
     0
 76
     0
 77
     0
 78
     8
170
     0
171
     2
172
     0
173
     0
174
     0
175
     0
176
     0
177
     0
178
     0
  0
DIMSTYLE
  2
VELDIM1
 70
     0
  3

  4

  5

  6

  7

 40
1.0
 41
3.0
 42
0.0625
 43
0.38
 44
1.25
 45
0.0
 46
5.0
 47
0.0
 48
0.0
140
2.9986110209999999
141
0.09
142
0.0
143
25.399999999999999
144
1.0
145
0.0
146
1.0
147
0.09
 71
     0
 72
     0
 73
     0
 74
     0
 75
     0
 76
     0
 77
     0
 78
     8
170
     0
171
     2
172
     0
173
     0
174
     0
175
     0
176
     0
177
     0
178
     0
  0
ENDTAB
  0
ENDSEC
  0
SECTION
  2
BLOCKS
  0
BLOCK
  8
0
  2
$MODEL_SPACE
 70
     0
 10
0.0
 20
0.0
 30
0.0
  3
$MODEL_SPACE
  1

  0
ENDBLK
  5
E
  8
0
  0
BLOCK
 67
     1
  8
0
  2
$PAPER_SPACE
 70
     0
 10
0.0
 20
0.0
 30
0.0
  3
$PAPER_SPACE
  1

  0
ENDBLK
  5
10
 67
     1
  8
0
  0
BLOCK
  8
0
  2
*D0
 70
     1
 10
0.0
 20
0.0
 30
0.0
  3
*D0
  1

  0
TEXT
  5
37
  8
0
 62
     0
 10
61.296928821499989
 20
39.9134389512
 30
0.0
 40
2.9986110209999999
  1
8
  0
LINE
  5
38
  8
0
 62
     0
 10
58.178873239399991
 20
51.884272300500001
 30
0.0
 11
58.178873239399991
 21
37.384272300500001
 31
0.0
  0
LINE
  5
39
  8
0
 62
     0
 10
66.178873239399991
 20
46.384272300500001
 30
0.0
 11
66.178873239399991
 21
37.384272300500001
 31
0.0
  0
LINE
  5
3A
  8
0
 62
     0
 10
58.178873239399991
 20
38.384272300500001
 30
0.0
 11
64.824706493299999
 21
38.384272300500001
 31
0.0
  0
LINE
  5
3B
  8
0
 62
     0
 10
58.178873239399991
 20
38.384272300500001
 30
0.0
 11
59.533039985599999
 21
38.384272300500001
 31
0.0
  0
LINE
  5
3C
  8
0
 62
     0
 10
66.178873239399991
 20
38.384272300500001
 30
0.0
 11
64.824706493299999
 21
38.384272300500001
 31
0.0
  0
LINE
  5
3D
  8
0
 62
     0
 10
66.178873239399991
 20
38.384272300500001
 30
0.0
 11
59.533039985599999
 21
38.384272300500001
 31
0.0
  0
LINE
  5
3E
  8
0
 62
     0
 10
66.178873239399991
 20
38.384272300500001
 30
0.0
 11
71.178873239399991
 21
38.384272300500001
 31
0.0
  0
SOLID
  5
3F
  8
0
 62
     0
 10
66.178873239399991
 20
38.384272300500001
 30
0.0
 11
69.178873239399991
 21
39.134272300500001
 31
0.0
 12
69.178873239399991
 22
37.634272300500001
 32
0.0
 13
68.428873239399991
 23
38.384272300500001
 33
0.0
  0
LINE
  5
40
  8
0
 62
     0
 10
58.178873239399991
 20
38.384272300500001
 30
0.0
 11
53.178873239399991
 21
38.384272300500001
 31
0.0
  0
SOLID
  5
41
  8
0
 62
     0
 10
58.178873239399991
 20
38.384272300500001
 30
0.0
 11
55.178873239399998
 21
37.634272300500001
 31
0.0
 12
55.178873239399998
 22
39.134272300500001
 32
0.0
 13
55.928873239399998
 23
38.384272300500001
 33
0.0
  0
ENDBLK
  5
42
  8
0
  0
BLOCK
  8
0
  2
*D1
 70
     1
 10
0.0
 20
0.0
 30
0.0
  3
*D1
  1

  0
TEXT
  5
47
  8
0
 62
     0
 10
69.710799027099995
 20
59.12038346460001
 30
0.0
 40
2.9986110209999999
  1
10
 50
90.0
  0
LINE
  5
48
  8
0
 62
     0
 10
60.178873239399998
 20
55.884272300500001
 30
0.0
 11
72.239965677900003
 21
55.884272300500001
 31
0.0
  0
LINE
  5
49
  8
0
 62
     0
 10
60.178873239399998
 20
65.884272300500001
 30
0.0
 11
72.239965677900003
 21
65.884272300500001
 31
0.0
  0
LINE
  5
4A
  8
0
 62
     0
 10
71.239965677900003
 20
55.884272300500001
 30
0.0
 11
71.239965677900003
 21
64.412049972299997
 31
0.0
  0
LINE
  5
4B
  8
0
 62
     0
 10
71.239965677900003
 20
55.884272300500001
 30
0.0
 11
71.239965677900003
 21
57.356494628699998
 31
0.0
  0
LINE
  5
4C
  8
0
 62
     0
 10
71.239965677900003
 20
65.884272300500001
 30
0.0
 11
71.239965677900003
 21
64.412049972299997
 31
0.0
  0
LINE
  5
4D
  8
0
 62
     0
 10
71.239965677900003
 20
65.884272300500001
 30
0.0
 11
71.239965677900003
 21
57.356494628699998
 31
0.0
  0
LINE
  5
4E
  8
0
 62
     0
 10
71.239965677900003
 20
65.884272300500001
 30
0.0
 11
71.239965677900003
 21
70.884272300500001
 31
0.0
  0
SOLID
  5
4F
  8
0
 62
     0
 10
71.239965677900003
 20
65.884272300500001
 30
0.0
 11
70.489965677900003
 21
68.884272300500001
 31
0.0
 12
71.989965677900003
 22
68.884272300500001
 32
0.0
 13
71.239965677900003
 23
68.134272300500001
 33
0.0
  0
LINE
  5
50
  8
0
 62
     0
 10
71.239965677900003
 20
55.884272300500001
 30
0.0
 11
71.239965677900003
 21
50.884272300500001
 31
0.0
  0
SOLID
  5
51
  8
0
 62
     0
 10
71.239965677900003
 20
55.884272300500001
 30
0.0
 11
71.989965677900003
 21
52.884272300500001
 31
0.0
 12
70.489965677900003
 22
52.884272300500001
 32
0.0
 13
71.239965677900003
 23
53.634272300500001
 33
0.0
  0
ENDBLK
  5
52
  8
0
  0
BLOCK
  8
0
  2
*D2
 70
     1
 10
0.0
 20
0.0
 30
0.0
  3
*D2
  1

  0
TEXT
  5
56
  8
0
 62
     0
 10
53.796928821499989
 20
39.9134389512
 30
0.0
 40
2.9986110209999999
  1
7
  0
LINE
  5
57
  8
0
 62
     0
 10
51.178873239399991
 20
46.384272300500001
 30
0.0
 11
51.178873239399991
 21
37.384272300500001
 31
0.0
  0
LINE
  5
58
  8
0
 62
     0
 10
58.178873239399991
 20
51.884272300500001
 30
0.0
 11
58.178873239399991
 21
37.384272300500001
 31
0.0
  0
LINE
  5
59
  8
0
 62
     0
 10
51.178873239399991
 20
38.384272300500001
 30
0.0
 11
57.324706493299999
 21
38.384272300500001
 31
0.0
  0
LINE
  5
5A
  8
0
 62
     0
 10
51.178873239399991
 20
38.384272300500001
 30
0.0
 11
52.033039985599999
 21
38.384272300500001
 31
0.0
  0
LINE
  5
5B
  8
0
 62
     0
 10
58.178873239399991
 20
38.384272300500001
 30
0.0
 11
57.324706493299999
 21
38.384272300500001
 31
0.0
  0
LINE
  5
5C
  8
0
 62
     0
 10
58.178873239399991
 20
38.384272300500001
 30
0.0
 11
52.033039985599999
 21
38.384272300500001
 31
0.0
  0
LINE
  5
5D
  8
0
 62
     0
 10
58.178873239399991
 20
38.384272300500001
 30
0.0
 11
63.178873239399991
 21
38.384272300500001
 31
0.0
  0
SOLID
  5
5E
  8
0
 62
     0
 10
58.178873239399991
 20
38.384272300500001
 30
0.0
 11
61.178873239399991
 21
39.134272300500001
 31
0.0
 12
61.178873239399991
 22
37.634272300500001
 32
0.0
 13
60.428873239399998
 23
38.384272300500001
 33
0.0
  0
LINE
  5
5F
  8
0
 62
     0
 10
51.178873239399991
 20
38.384272300500001
 30
0.0
 11
46.178873239399991
 21
38.384272300500001
 31
0.0
  0
SOLID
  5
60
  8
0
 62
     0
 10
51.178873239399991
 20
38.384272300500001
 30
0.0
 11
48.178873239399991
 21
37.634272300500001
 31
0.0
 12
48.178873239399991
 22
39.134272300500001
 32
0.0
 13
48.928873239399998
 23
38.384272300500001
 33
0.0
  0
ENDBLK
  5
61
  8
0
  0
BLOCK
  8
0
  2
*D3
 70
     1
 10
0.0
 20
0.0
 30
0.0
  3
*D3
  1

  0
TEXT
  5
65
  8
0
 62
     0
 10
39.649706588699999
 20
63.606494628699998
 30
0.0
 40
2.9986110209999999
  1
12.5
 50
90.0
  0
LINE
  5
66
  8
0
 62
     0
 10
49.178873239399998
 20
73.384272300500001
 30
0.0
 11
40.178873239399998
 21
73.384272300500001
 31
0.0
  0
LINE
  5
67
  8
0
 62
     0
 10
52.678873239399998
 20
60.884272300500001
 30
0.0
 11
40.178873239399998
 21
60.884272300500001
 31
0.0
  0
LINE
  5
68
  8
0
 62
     0
 10
41.178873239399991
 20
73.384272300500001
 30
0.0
 11
41.178873239399991
 21
72.425938808200002
 31
0.0
  0
LINE
  5
69
  8
0
 62
     0
 10
41.178873239399991
 20
73.384272300500001
 30
0.0
 11
41.178873239399991
 21
61.842605792699999
 31
0.0
  0
LINE
  5
6A
  8
0
 62
     0
 10
41.178873239399991
 20
60.884272300500001
 30
0.0
 11
41.178873239399991
 21
72.425938808200002
 31
0.0
  0
LINE
  5
6B
  8
0
 62
     0
 10
41.178873239399991
 20
60.884272300500001
 30
0.0
 11
41.178873239399991
 21
61.842605792699999
 31
0.0
  0
LINE
  5
6C
  8
0
 62
     0
 10
41.178873239399991
 20
60.884272300500001
 30
0.0
 11
41.178873239399991
 21
55.884272300500001
 31
0.0
  0
SOLID
  5
6D
  8
0
 62
     0
 10
41.178873239399991
 20
60.884272300500001
 30
0.0
 11
41.928873239399991
 21
57.884272300500001
 31
0.0
 12
40.428873239399991
 22
57.884272300500001
 32
0.0
 13
41.178873239399991
 23
58.634272300500001
 33
0.0
  0
LINE
  5
6E
  8
0
 62
     0
 10
41.178873239399991
 20
73.384272300500001
 30
0.0
 11
41.178873239399991
 21
78.384272300500001
 31
0.0
  0
SOLID
  5
6F
  8
0
 62
     0
 10
41.178873239399991
 20
73.384272300500001
 30
0.0
 11
40.428873239399991
 21
76.384272300500001
 31
0.0
 12
41.928873239399991
 22
76.384272300500001
 32
0.0
 13
41.178873239399991
 23
75.634272300500001
 33
0.0
  0
ENDBLK
  5
70
  8
0
  0
BLOCK
  8
0
  2
*D4
 70
     1
 10
0.0
 20
0.0
 30
0.0
  3
*D4
  1

  0
TEXT
  5
74
  8
0
 62
     0
 10
55.533039985599999
 20
80.403041834599989
 30
0.0
 40
2.9986110209999999
  1
4.5
  0
LINE
  5
75
  8
0
 62
     0
 10
60.428873239399998
 20
65.634272300500001
 30
0.0
 11
60.428873239399998
 21
79.873875183899997
 31
0.0
  0
LINE
  5
76
  8
0
 62
     0
 10
55.928873239399998
 20
65.634272300500001
 30
0.0
 11
55.928873239399998
 21
79.873875183899997
 31
0.0
  0
LINE
  5
77
  8
0
 62
     0
 10
60.428873239399998
 20
78.873875183899983
 30
0.0
 11
60.428873239399998
 21
78.873875183899983
 31
0.0
  0
LINE
  5
78
  8
0
 62
     0
 10
60.428873239399998
 20
78.873875183899983
 30
0.0
 11
55.928873239399998
 21
78.873875183899983
 31
0.0
  0
LINE
  5
79
  8
0
 62
     0
 10
55.928873239399998
 20
78.873875183899983
 30
0.0
 11
60.428873239399998
 21
78.873875183899983
 31
0.0
  0
LINE
  5
7A
  8
0
 62
     0
 10
55.928873239399998
 20
78.873875183899983
 30
0.0
 11
55.928873239399998
 21
78.873875183899983
 31
0.0
  0
LINE
  5
7B
  8
0
 62
     0
 10
55.928873239399998
 20
78.873875183899983
 30
0.0
 11
50.928873239399998
 21
78.873875183899983
 31
0.0
  0
SOLID
  5
7C
  8
0
 62
     0
 10
55.928873239399998
 20
78.873875183899983
 30
0.0
 11
52.928873239399998
 21
78.123875183899997
 31
0.0
 12
52.928873239399998
 22
79.623875183899983
 32
0.0
 13
53.678873239399991
 23
78.873875183899983
 33
0.0
  0
LINE
  5
7D
  8
0
 62
     0
 10
60.428873239399998
 20
78.873875183899983
 30
0.0
 11
65.428873239399991
 21
78.873875183899983
 31
0.0
  0
SOLID
  5
7E
  8
0
 62
     0
 10
60.428873239399998
 20
78.873875183899983
 30
0.0
 11
63.428873239399998
 21
79.623875183899983
 31
0.0
 12
63.428873239399998
 22
78.123875183899997
 32
0.0
 13
62.678873239399998
 23
78.873875183899983
 33
0.0
  0
ENDBLK
  5
7F
  8
0
  0
BLOCK
  8
0
  2
*D5
 70
     1
 10
0.0
 20
0.0
 30
0.0
  3
*D5
  1

  0
TEXT
  5
83
  8
0
 62
     0
 10
39.649706588699999
 20
51.106494628699998
 30
0.0
 40
2.9986110209999999
  1
12.5
 50
90.0
  0
LINE
  5
84
  8
0
 62
     0
 10
52.678873239399998
 20
60.884272300500001
 30
0.0
 11
40.178873239399998
 21
60.884272300500001
 31
0.0
  0
LINE
  5
85
  8
0
 62
     0
 10
49.178873239399998
 20
48.384272300500001
 30
0.0
 11
40.178873239399998
 21
48.384272300500001
 31
0.0
  0
LINE
  5
86
  8
0
 62
     0
 10
41.178873239399991
 20
60.884272300500001
 30
0.0
 11
41.178873239399991
 21
59.925938808199987
 31
0.0
  0
LINE
  5
87
  8
0
 62
     0
 10
41.178873239399991
 20
60.884272300500001
 30
0.0
 11
41.178873239399991
 21
49.342605792699999
 31
0.0
  0
LINE
  5
88
  8
0
 62
     0
 10
41.178873239399991
 20
48.384272300500001
 30
0.0
 11
41.178873239399991
 21
59.925938808199987
 31
0.0
  0
LINE
  5
89
  8
0
 62
     0
 10
41.178873239399991
 20
48.384272300500001
 30
0.0
 11
41.178873239399991
 21
49.342605792699999
 31
0.0
  0
LINE
  5
8A
  8
0
 62
     0
 10
41.178873239399991
 20
48.384272300500001
 30
0.0
 11
41.178873239399991
 21
43.384272300500001
 31
0.0
  0
SOLID
  5
8B
  8
0
 62
     0
 10
41.178873239399991
 20
48.384272300500001
 30
0.0
 11
41.928873239399991
 21
45.384272300499987
 31
0.0
 12
40.428873239399991
 22
45.384272300499987
 32
0.0
 13
41.178873239399991
 23
46.134272300500001
 33
0.0
  0
LINE
  5
8C
  8
0
 62
     0
 10
41.178873239399991
 20
60.884272300500001
 30
0.0
 11
41.178873239399991
 21
65.884272300500001
 31
0.0
  0
SOLID
  5
8D
  8
0
 62
     0
 10
41.178873239399991
 20
60.884272300500001
 30
0.0
 11
40.428873239399991
 21
63.884272300500001
 31
0.0
 12
41.928873239399991
 22
63.884272300500001
 32
0.0
 13
41.178873239399991
 23
63.134272300500001
 33
0.0
  0
ENDBLK
  5
8E
  8
0
  0
BLOCK
  8
0
  2
*D6
 70
     1
 10
0.0
 20
0.0
 30
0.0
  3
*D6
  1

  0
TEXT
  5
142
  8
0
 62
     0
 10
-52.39205785
 20
39.9134389512
 30
0.0
 40
2.9986110209999999
  1
31
  0
LINE
  5
143
  8
0
 62
     0
 10
-66.128169014099996
 20
46.384272300500001
 30
0.0
 11
-66.128169014099996
 21
37.384272300500001
 31
0.0
  0
LINE
  5
144
  8
0
 62
     0
 10
-35.128169014100003
 20
55.384272300500001
 30
0.0
 11
-35.128169014100003
 21
37.384272300500001
 31
0.0
  0
LINE
  5
145
  8
0
 62
     0
 10
-66.128169014099996
 20
38.384272300500001
 30
0.0
 11
-47.100391342299993
 21
38.384272300500001
 31
0.0
  0
LINE
  5
146
  8
0
 62
     0
 10
-66.128169014099996
 20
38.384272300500001
 30
0.0
 11
-54.155946685899991
 21
38.384272300500001
 31
0.0
  0
LINE
  5
147
  8
0
 62
     0
 10
-35.128169014100003
 20
38.384272300500001
 30
0.0
 11
-47.100391342299993
 21
38.384272300500001
 31
0.0
  0
LINE
  5
148
  8
0
 62
     0
 10
-35.128169014100003
 20
38.384272300500001
 30
0.0
 11
-54.155946685899991
 21
38.384272300500001
 31
0.0
  0
LINE
  5
149
  8
0
 62
     0
 10
-35.128169014100003
 20
38.384272300500001
 30
0.0
 11
-40.128169014099988
 21
38.384272300500001
 31
0.0
  0
SOLID
  5
14A
  8
0
 62
     0
 10
-35.128169014100003
 20
38.384272300500001
 30
0.0
 11
-38.128169014100003
 21
37.634272300500001
 31
0.0
 12
-38.128169014100003
 22
39.134272300500001
 32
0.0
 13
-37.378169014100003
 23
38.384272300500001
 33
0.0
  0
LINE
  5
14B
  8
0
 62
     0
 10
-66.128169014099996
 20
38.384272300500001
 30
0.0
 11
-61.128169014099988
 21
38.384272300500001
 31
0.0
  0
SOLID
  5
14C
  8
0
 62
     0
 10
-66.128169014099996
 20
38.384272300500001
 30
0.0
 11
-63.128169014099988
 21
39.134272300500001
 31
0.0
 12
-63.128169014099988
 22
37.634272300500001
 32
0.0
 13
-63.878169014099988
 23
38.384272300500001
 33
0.0
  0
ENDBLK
  5
14D
  8
0
  0
BLOCK
  8
0
  2
*D7
 70
     1
 10
0.0
 20
0.0
 30
0.0
  3
*D7
  1

  0
TEXT
  5
151
  8
0
 62
     0
 10
-77.657335664900003
 20
59.12038346460001
 30
0.0
 40
2.9986110209999999
  1
25
 50
90.0
  0
LINE
  5
152
  8
0
 62
     0
 10
-68.128169014099996
 20
73.384272300500001
 30
0.0
 11
-77.128169014099996
 21
73.384272300500001
 31
0.0
  0
LINE
  5
153
  8
0
 62
     0
 10
-68.128169014099996
 20
48.384272300500001
 30
0.0
 11
-77.128169014099996
 21
48.384272300500001
 31
0.0
  0
LINE
  5
154
  8
0
 62
     0
 10
-76.128169014099996
 20
73.384272300500001
 30
0.0
 11
-76.128169014099996
 21
64.412049972299997
 31
0.0
  0
LINE
  5
155
  8
0
 62
     0
 10
-76.128169014099996
 20
73.384272300500001
 30
0.0
 11
-76.128169014099996
 21
57.356494628699998
 31
0.0
  0
LINE
  5
156
  8
0
 62
     0
 10
-76.128169014099996
 20
48.384272300500001
 30
0.0
 11
-76.128169014099996
 21
64.412049972299997
 31
0.0
  0
LINE
  5
157
  8
0
 62
     0
 10
-76.128169014099996
 20
48.384272300500001
 30
0.0
 11
-76.128169014099996
 21
57.356494628699998
 31
0.0
  0
LINE
  5
158
  8
0
 62
     0
 10
-76.128169014099996
 20
48.384272300500001
 30
0.0
 11
-76.128169014099996
 21
53.384272300500001
 31
0.0
  0
SOLID
  5
159
  8
0
 62
     0
 10
-76.128169014099996
 20
48.384272300500001
 30
0.0
 11
-76.878169014099996
 21
51.384272300500001
 31
0.0
 12
-75.378169014099996
 22
51.384272300500001
 32
0.0
 13
-76.128169014099996
 23
50.634272300500001
 33
0.0
  0
LINE
  5
15A
  8
0
 62
     0
 10
-76.128169014099996
 20
73.384272300500001
 30
0.0
 11
-76.128169014099996
 21
68.384272300500001
 31
0.0
  0
SOLID
  5
15B
  8
0
 62
     0
 10
-76.128169014099996
 20
73.384272300500001
 30
0.0
 11
-75.378169014099996
 21
70.384272300500001
 31
0.0
 12
-76.878169014099996
 22
70.384272300500001
 32
0.0
 13
-76.128169014099996
 23
71.134272300500001
 33
0.0
  0
ENDBLK
  5
15C
  8
0
  0
BLOCK
  8
0
  2
*D8
 70
     1
 10
0.0
 20
0.0
 30
0.0
  3
*D8
  1

  0
TEXT
  5
160
  8
0
 62
     0
 10
-14.6573356649
 20
51.106494628699998
 30
0.0
 40
2.9986110209999999
  1
12.5
 50
90.0
  0
LINE
  5
161
  8
0
 62
     0
 10
-21.128169014099999
 20
48.384272300500001
 30
0.0
 11
-12.128169014099999
 21
48.384272300500001
 31
0.0
  0
LINE
  5
162
  8
0
 62
     0
 10
-26.128169014099999
 20
60.884272300500001
 30
0.0
 11
-12.128169014099999
 21
60.884272300500001
 31
0.0
  0
LINE
  5
163
  8
0
 62
     0
 10
-13.128169014099999
 20
48.384272300500001
 30
0.0
 11
-13.128169014099999
 21
59.925938808199987
 31
0.0
  0
LINE
  5
164
  8
0
 62
     0
 10
-13.128169014099999
 20
48.384272300500001
 30
0.0
 11
-13.128169014099999
 21
49.342605792699999
 31
0.0
  0
LINE
  5
165
  8
0
 62
     0
 10
-13.128169014099999
 20
60.884272300500001
 30
0.0
 11
-13.128169014099999
 21
59.925938808199987
 31
0.0
  0
LINE
  5
166
  8
0
 62
     0
 10
-13.128169014099999
 20
60.884272300500001
 30
0.0
 11
-13.128169014099999
 21
49.342605792699999
 31
0.0
  0
LINE
  5
167
  8
0
 62
     0
 10
-13.128169014099999
 20
60.884272300500001
 30
0.0
 11
-13.128169014099999
 21
65.884272300500001
 31
0.0
  0
SOLID
  5
168
  8
0
 62
     0
 10
-13.128169014099999
 20
60.884272300500001
 30
0.0
 11
-13.878169014099999
 21
63.884272300500001
 31
0.0
 12
-12.378169014099999
 22
63.884272300500001
 32
0.0
 13
-13.128169014099999
 23
63.134272300500001
 33
0.0
  0
LINE
  5
169
  8
0
 62
     0
 10
-13.128169014099999
 20
48.384272300500001
 30
0.0
 11
-13.128169014099999
 21
43.384272300500001
 31
0.0
  0
SOLID
  5
16A
  8
0
 62
     0
 10
-13.128169014099999
 20
48.384272300500001
 30
0.0
 11
-12.378169014099999
 21
45.384272300499987
 31
0.0
 12
-13.878169014099999
 22
45.384272300499987
 32
0.0
 13
-13.128169014099999
 23
46.134272300500001
 33
0.0
  0
ENDBLK
  5
16B
  8
0
  0
BLOCK
  8
0
  2
*D9
 70
     1
 10
0.0
 20
0.0
 30
0.0
  3
*D9
  1

  0
TEXT
  5
16F
  8
0
 62
     0
 10
-30.89205785
 20
39.9134389512
 30
0.0
 40
2.9986110209999999
  1
12
  0
LINE
  5
170
  8
0
 62
     0
 10
-35.128169014100003
 20
55.384272300500001
 30
0.0
 11
-35.128169014100003
 21
37.384272300500001
 31
0.0
  0
LINE
  5
171
  8
0
 62
     0
 10
-23.128169014099999
 20
46.384272300500001
 30
0.0
 11
-23.128169014099999
 21
37.384272300500001
 31
0.0
  0
LINE
  5
172
  8
0
 62
     0
 10
-35.128169014100003
 20
38.384272300500001
 30
0.0
 11
-25.6003913423
 21
38.384272300500001
 31
0.0
  0
LINE
  5
173
  8
0
 62
     0
 10
-35.128169014100003
 20
38.384272300500001
 30
0.0
 11
-32.655946685899998
 21
38.384272300500001
 31
0.0
  0
LINE
  5
174
  8
0
 62
     0
 10
-23.128169014099999
 20
38.384272300500001
 30
0.0
 11
-25.6003913423
 21
38.384272300500001
 31
0.0
  0
LINE
  5
175
  8
0
 62
     0
 10
-23.128169014099999
 20
38.384272300500001
 30
0.0
 11
-32.655946685899998
 21
38.384272300500001
 31
0.0
  0
LINE
  5
176
  8
0
 62
     0
 10
-23.128169014099999
 20
38.384272300500001
 30
0.0
 11
-18.128169014099999
 21
38.384272300500001
 31
0.0
  0
SOLID
  5
177
  8
0
 62
     0
 10
-23.128169014099999
 20
38.384272300500001
 30
0.0
 11
-20.128169014099999
 21
39.134272300500001
 31
0.0
 12
-20.128169014099999
 22
37.634272300500001
 32
0.0
 13
-20.878169014099999
 23
38.384272300500001
 33
0.0
  0
LINE
  5
178
  8
0
 62
     0
 10
-35.128169014100003
 20
38.384272300500001
 30
0.0
 11
-40.128169014099988
 21
38.384272300500001
 31
0.0
  0
SOLID
  5
179
  8
0
 62
     0
 10
-35.128169014100003
 20
38.384272300500001
 30
0.0
 11
-38.128169014100003
 21
37.634272300500001
 31
0.0
 12
-38.128169014100003
 22
39.134272300500001
 32
0.0
 13
-37.378169014100003
 23
38.384272300500001
 33
0.0
  0
ENDBLK
  5
17A
  8
0
  0
BLOCK
  8
0
  2
*D10
 70
     1
 10
0.0
 20
0.0
 30
0.0
  3
*D10
  1

  0
TEXT
  5
17E
  8
0
 62
     0
 10
-49.407335664899989
 20
58.2384390466
 30
0.0
 40
2.9986110209999999
  1
4.5
 50
90.0
  0
LINE
  5
17F
  8
0
 62
     0
 10
-39.878169014099988
 20
63.134272300500001
 30
0.0
 11
-48.878169014099988
 21
63.134272300500001
 31
0.0
  0
LINE
  5
180
  8
0
 62
     0
 10
-39.878169014099988
 20
58.634272300500001
 30
0.0
 11
-48.878169014099988
 21
58.634272300500001
 31
0.0
  0
LINE
  5
181
  8
0
 62
     0
 10
-47.878169014099988
 20
63.134272300500001
 30
0.0
 11
-47.878169014099988
 21
63.134272300500001
 31
0.0
  0
LINE
  5
182
  8
0
 62
     0
 10
-47.878169014099988
 20
63.134272300500001
 30
0.0
 11
-47.878169014099988
 21
58.634272300500001
 31
0.0
  0
LINE
  5
183
  8
0
 62
     0
 10
-47.878169014099988
 20
58.634272300500001
 30
0.0
 11
-47.878169014099988
 21
63.134272300500001
 31
0.0
  0
LINE
  5
184
  8
0
 62
     0
 10
-47.878169014099988
 20
58.634272300500001
 30
0.0
 11
-47.878169014099988
 21
58.634272300500001
 31
0.0
  0
LINE
  5
185
  8
0
 62
     0
 10
-47.878169014099988
 20
58.634272300500001
 30
0.0
 11
-47.878169014099988
 21
53.634272300500001
 31
0.0
  0
SOLID
  5
186
  8
0
 62
     0
 10
-47.878169014099988
 20
58.634272300500001
 30
0.0
 11
-47.128169014100003
 21
55.634272300500001
 31
0.0
 12
-48.628169014099988
 22
55.634272300500001
 32
0.0
 13
-47.878169014099988
 23
56.384272300500001
 33
0.0
  0
LINE
  5
187
  8
0
 62
     0
 10
-47.878169014099988
 20
63.134272300500001
 30
0.0
 11
-47.878169014099988
 21
68.134272300500001
 31
0.0
  0
SOLID
  5
188
  8
0
 62
     0
 10
-47.878169014099988
 20
63.134272300500001
 30
0.0
 11
-48.628169014099988
 21
66.134272300500001
 31
0.0
 12
-47.128169014100003
 22
66.134272300500001
 32
0.0
 13
-47.878169014099988
 23
65.384272300500001
 33
0.0
  0
ENDBLK
  5
189
  8
0
  0
BLOCK
  8
0
  2
*D11
 70
     1
 10
0.0
 20
0.0
 30
0.0
  3
*D11
  1

  0
TEXT
  5
18D
  8
0
 62
     0
 10
-14.6573356649
 20
63.606494628699998
 30
0.0
 40
2.9986110209999999
  1
12.5
 50
90.0
  0
LINE
  5
18E
  8
0
 62
     0
 10
-26.128169014099999
 20
60.884272300500001
 30
0.0
 11
-12.128169014099999
 21
60.884272300500001
 31
0.0
  0
LINE
  5
18F
  8
0
 62
     0
 10
-21.128169014099999
 20
73.384272300500001
 30
0.0
 11
-12.128169014099999
 21
73.384272300500001
 31
0.0
  0
LINE
  5
190
  8
0
 62
     0
 10
-13.128169014099999
 20
60.884272300500001
 30
0.0
 11
-13.128169014099999
 21
72.425938808200002
 31
0.0
  0
LINE
  5
191
  8
0
 62
     0
 10
-13.128169014099999
 20
60.884272300500001
 30
0.0
 11
-13.128169014099999
 21
61.842605792699999
 31
0.0
  0
LINE
  5
192
  8
0
 62
     0
 10
-13.128169014099999
 20
73.384272300500001
 30
0.0
 11
-13.128169014099999
 21
72.425938808200002
 31
0.0
  0
LINE
  5
193
  8
0
 62
     0
 10
-13.128169014099999
 20
73.384272300500001
 30
0.0
 11
-13.128169014099999
 21
61.842605792699999
 31
0.0
  0
LINE
  5
194
  8
0
 62
     0
 10
-13.128169014099999
 20
73.384272300500001
 30
0.0
 11
-13.128169014099999
 21
78.384272300500001
 31
0.0
  0
SOLID
  5
195
  8
0
 62
     0
 10
-13.128169014099999
 20
73.384272300500001
 30
0.0
 11
-13.878169014099999
 21
76.384272300500001
 31
0.0
 12
-12.378169014099999
 22
76.384272300500001
 32
0.0
 13
-13.128169014099999
 23
75.634272300500001
 33
0.0
  0
LINE
  5
196
  8
0
 62
     0
 10
-13.128169014099999
 20
60.884272300500001
 30
0.0
 11
-13.128169014099999
 21
55.884272300500001
 31
0.0
  0
SOLID
  5
197
  8
0
 62
     0
 10
-13.128169014099999
 20
60.884272300500001
 30
0.0
 11
-12.378169014099999
 21
57.884272300500001
 31
0.0
 12
-13.878169014099999
 22
57.884272300500001
 32
0.0
 13
-13.128169014099999
 23
58.634272300500001
 33
0.0
  0
ENDBLK
  5
198
  8
0
  0
BLOCK
  8
0
  2
*D12
 70
     1
 10
0.0
 20
0.0
 30
0.0
  3
*D12
  1

  0
TEXT
  5
19C
  8
0
 62
     0
 10
-36.89205785
 20
81.462706404900004
 30
0.0
 40
2.9986110209999999
  1
10
  0
LINE
  5
19D
  8
0
 62
     0
 10
-30.128169014099999
 20
62.884272300500001
 30
0.0
 11
-30.128169014099999
 21
80.933539754099996
 31
0.0
  0
LINE
  5
19E
  8
0
 62
     0
 10
-40.128169014099988
 20
62.884272300500001
 30
0.0
 11
-40.128169014099988
 21
80.933539754099996
 31
0.0
  0
LINE
  5
19F
  8
0
 62
     0
 10
-30.128169014099999
 20
79.933539754099996
 30
0.0
 11
-31.6003913423
 21
79.933539754099996
 31
0.0
  0
LINE
  5
1A0
  8
0
 62
     0
 10
-30.128169014099999
 20
79.933539754099996
 30
0.0
 11
-38.655946685899998
 21
79.933539754099996
 31
0.0
  0
LINE
  5
1A1
  8
0
 62
     0
 10
-40.128169014099988
 20
79.933539754099996
 30
0.0
 11
-31.6003913423
 21
79.933539754099996
 31
0.0
  0
LINE
  5
1A2
  8
0
 62
     0
 10
-40.128169014099988
 20
79.933539754099996
 30
0.0
 11
-38.655946685899998
 21
79.933539754099996
 31
0.0
  0
LINE
  5
1A3
  8
0
 62
     0
 10
-40.128169014099988
 20
79.933539754099996
 30
0.0
 11
-45.128169014099988
 21
79.933539754099996
 31
0.0
  0
SOLID
  5
1A4
  8
0
 62
     0
 10
-40.128169014099988
 20
79.933539754099996
 30
0.0
 11
-43.128169014099988
 21
79.183539754099996
 31
0.0
 12
-43.128169014099988
 22
80.683539754099996
 32
0.0
 13
-42.378169014099988
 23
79.933539754099996
 33
0.0
  0
LINE
  5
1A5
  8
0
 62
     0
 10
-30.128169014099999
 20
79.933539754099996
 30
0.0
 11
-25.128169014099999
 21
79.933539754099996
 31
0.0
  0
SOLID
  5
1A6
  8
0
 62
     0
 10
-30.128169014099999
 20
79.933539754099996
 30
0.0
 11
-27.128169014099999
 21
80.683539754099996
 31
0.0
 12
-27.128169014099999
 22
79.183539754099996
 32
0.0
 13
-27.878169014099999
 23
79.933539754099996
 33
0.0
  0
ENDBLK
  5
1A7
  8
0
  0
BLOCK
  8
0
  2
*D13
 70
     1
 10
0.0
 20
0.0
 30
0.0
  3
*D13
  1

  0
TEXT
  5
1B5
  8
0
 62
     0
 10
-10.0331201092
 20
86.651589548299995
 30
0.0
 40
2.9986110209999999
  1
4-R 2.5
  0
LINE
  5
1B6
  8
0
 62
     0
 10
-10.390018417
 20
86.122422897500002
 30
0.0
 11
7.6057682498999988
 21
86.122422897500002
 31
0.0
  0
LINE
  5
1B7
  8
0
 62
     0
 10
-23.8604020611
 20
72.652039253400005
 30
0.0
 11
-10.390018417
 21
86.122422897500002
 31
0.0
  0
SOLID
  5
1B8
  8
0
 62
     0
 10
-23.8604020611
 20
72.652039253400005
 30
0.0
 11
-22.269411803400001
 21
75.3036896829
 31
0.0
 12
-21.2087516317
 22
74.243029511099991
 32
0.0
 13
-22.269411803400001
 23
74.243029511099991
 33
0.0
  0
ENDBLK
  5
1B9
  8
0
  0
BLOCK
  8
0
  2
*D14
 70
     1
 10
0.0
 20
0.0
 30
0.0
  3
*D14
  1

  0
TEXT
  5
1C3
  8
0
 62
     0
 10
-58.525814955000001
 20
0.5646334347000001
 30
0.0
 40
2.9986110209999999
  1
90%%d
 50
316.56745228019997
  0
ARC
  5
1C4
  8
0
 62
     0
 10
-64.528169014100001
 20
-9.6239436620000003
 30
0.0
 40
9.9379034634999996
 50
42.856171354499992
 51
90.0
  0
ARC
  5
1C5
  8
0
 62
     0
 10
-64.528169014100001
 20
-9.6239436620000003
 30
0.0
 40
9.9379034634999996
 50
0.0
 51
47.143828645500001
  0
SOLID
  5
1C6
  8
0
 62
     0
 10
-54.590265550600002
 20
-9.6239436620000003
 30
0.0
 11
-53.840265550600002
 21
-12.623943662
 31
0.0
 12
-55.340265550600002
 22
-12.623943662
 32
0.0
 13
-54.590265550600002
 23
-11.873943662
 33
0.0
  0
SOLID
  5
1C7
  8
0
 62
     0
 10
-64.528169014100001
 20
0.3139598016
 30
0.0
 11
-67.528169014100001
 21
-0.4360401984000001
 31
0.0
 12
-67.528169014100001
 22
1.0639598016
 32
0.0
 13
-66.778169014100001
 23
0.3139598016
 33
0.0
  0
ARC
  5
1C8
  8
0
 62
     0
 10
-64.528169014100001
 20
-9.6239436620000003
 30
0.0
 40
9.9379034634999996
 50
0.0
 51
21.0365289774
  0
ARC
  5
1C9
  8
0
 62
     0
 10
-64.528169014100001
 20
-9.6239436620000003
 30
0.0
 40
9.9379034634999996
 50
72.098375583100008
 51
90.0
  0
LINE
  5
1CA
  8
0
 62
     0
 10
-25.128169014099999
 20
-9.6239436620000003
 30
0.0
 11
-56.590265550600002
 21
-9.6239436620000003
 31
0.0
  0
LINE
  5
1CB
  8
0
 62
     0
 10
-64.528169014100001
 20
1.7760563380000001
 30
0.0
 11
-64.528169014100001
 21
-1.6860401983999991
 31
0.0
  0
ENDBLK
  5
1CC
  8
0
  0
BLOCK
  8
0
  2
*D15
 70
     1
 10
0.0
 20
0.0
 30
0.0
  3
*D15
  1

  0
TEXT
  5
1D0
  8
0
 62
     0
 10
-77.657335664900003
 20
-5.4878324978999986
 30
0.0
 40
2.9986110209999999
  1
15
 50
90.0
  0
LINE
  5
1D1
  8
0
 62
     0
 10
-68.128169014099996
 20
3.7760563380000001
 30
0.0
 11
-77.128169014099996
 21
3.7760563380000001
 31
0.0
  0
LINE
  5
1D2
  8
0
 62
     0
 10
-65.128169014099996
 20
-11.223943662
 30
0.0
 11
-77.128169014099996
 21
-11.223943662
 31
0.0
  0
LINE
  5
1D3
  8
0
 62
     0
 10
-76.128169014099996
 20
3.7760563380000001
 30
0.0
 11
-76.128169014099996
 21
-0.1961659902
 31
0.0
  0
LINE
  5
1D4
  8
0
 62
     0
 10
-76.128169014099996
 20
3.7760563380000001
 30
0.0
 11
-76.128169014099996
 21
-7.2517213337999991
 31
0.0
  0
LINE
  5
1D5
  8
0
 62
     0
 10
-76.128169014099996
 20
-11.223943662
 30
0.0
 11
-76.128169014099996
 21
-0.1961659902
 31
0.0
  0
LINE
  5
1D6
  8
0
 62
     0
 10
-76.128169014099996
 20
-11.223943662
 30
0.0
 11
-76.128169014099996
 21
-7.2517213337999991
 31
0.0
  0
LINE
  5
1D7
  8
0
 62
     0
 10
-76.128169014099996
 20
-11.223943662
 30
0.0
 11
-76.128169014099996
 21
-6.2239436619999999
 31
0.0
  0
SOLID
  5
1D8
  8
0
 62
     0
 10
-76.128169014099996
 20
-11.223943662
 30
0.0
 11
-76.878169014099996
 21
-8.2239436619999982
 31
0.0
 12
-75.378169014099996
 22
-8.2239436619999982
 32
0.0
 13
-76.128169014099996
 23
-8.9739436619999982
 33
0.0
  0
LINE
  5
1D9
  8
0
 62
     0
 10
-76.128169014099996
 20
3.7760563380000001
 30
0.0
 11
-76.128169014099996
 21
-1.223943661999999
 31
0.0
  0
SOLID
  5
1DA
  8
0
 62
     0
 10
-76.128169014099996
 20
3.7760563380000001
 30
0.0
 11
-75.378169014099996
 21
0.776056338
 31
0.0
 12
-76.878169014099996
 22
0.776056338
 32
0.0
 13
-76.128169014099996
 23
1.5260563380000001
 33
0.0
  0
ENDBLK
  5
1DB
  8
0
  0
BLOCK
  8
0
  2
*D16
 70
     1
 10
0.0
 20
0.0
 30
0.0
  3
*D16
  1

  0
TEXT
  5
1DF
  8
0
 62
     0
 10
-14.6573356649
 20
-5.2482357186000002
 30
0.0
 40
2.9986110209999999
  1
1.6t
 50
90.0
  0
LINE
  5
1E0
  8
0
 62
     0
 10
-21.128169014099999
 20
-11.223943662
 30
0.0
 11
-12.128169014099999
 21
-11.223943662
 31
0.0
  0
LINE
  5
1E1
  8
0
 62
     0
 10
-21.128169014099999
 20
-9.6239436620000003
 30
0.0
 11
-12.128169014099999
 21
-9.6239436620000003
 31
0.0
  0
LINE
  5
1E2
  8
0
 62
     0
 10
-13.128169014099999
 20
-11.223943662
 30
0.0
 11
-13.128169014099999
 21
3.571208460899999
 31
0.0
  0
LINE
  5
1E3
  8
0
 62
     0
 10
-13.128169014099999
 20
-11.223943662
 30
0.0
 11
-13.128169014099999
 21
-7.0121245545999997
 31
0.0
  0
LINE
  5
1E4
  8
0
 62
     0
 10
-13.128169014099999
 20
-9.6239436620000003
 30
0.0
 11
-13.128169014099999
 21
3.571208460899999
 31
0.0
  0
LINE
  5
1E5
  8
0
 62
     0
 10
-13.128169014099999
 20
-9.6239436620000003
 30
0.0
 11
-13.128169014099999
 21
-7.0121245545999997
 31
0.0
  0
LINE
  5
1E6
  8
0
 62
     0
 10
-13.128169014099999
 20
-9.6239436620000003
 30
0.0
 11
-13.128169014099999
 21
-4.6239436620000003
 31
0.0
  0
SOLID
  5
1E7
  8
0
 62
     0
 10
-13.128169014099999
 20
-9.6239436620000003
 30
0.0
 11
-13.878169014099999
 21
-6.6239436620000003
 31
0.0
 12
-12.378169014099999
 22
-6.6239436620000003
 32
0.0
 13
-13.128169014099999
 23
-7.3739436620000003
 33
0.0
  0
LINE
  5
1E8
  8
0
 62
     0
 10
-13.128169014099999
 20
-11.223943662
 30
0.0
 11
-13.128169014099999
 21
-16.223943662
 31
0.0
  0
SOLID
  5
1E9
  8
0
 62
     0
 10
-13.128169014099999
 20
-11.223943662
 30
0.0
 11
-12.378169014099999
 21
-14.223943662
 31
0.0
 12
-13.878169014099999
 22
-14.223943662
 32
0.0
 13
-13.128169014099999
 23
-13.473943662
 33
0.0
  0
ENDBLK
  5
1EA
  8
0
  0
BLOCK
  8
0
  2
*D17
 70
     1
 10
0.0
 20
0.0
 30
0.0
  3
*D17
  1

  0
TEXT
  5
1F7
  8
0
 62
     0
 10
-46.39205785
 20
-19.694777011199999
 30
0.0
 40
2.9986110209999999
  1
43
  0
LINE
  5
1F8
  8
0
 62
     0
 10
-66.128169014099996
 20
-10.223943662
 30
0.0
 11
-66.128169014099996
 21
-22.223943662
 31
0.0
  0
LINE
  5
1F9
  8
0
 62
     0
 10
-23.128169014099999
 20
-13.223943662
 30
0.0
 11
-23.128169014099999
 21
-22.223943662
 31
0.0
  0
LINE
  5
1FA
  8
0
 62
     0
 10
-66.128169014099996
 20
-21.223943662
 30
0.0
 11
-41.1003913423
 21
-21.223943662
 31
0.0
  0
LINE
  5
1FB
  8
0
 62
     0
 10
-66.128169014099996
 20
-21.223943662
 30
0.0
 11
-48.155946685899998
 21
-21.223943662
 31
0.0
  0
LINE
  5
1FC
  8
0
 62
     0
 10
-23.128169014099999
 20
-21.223943662
 30
0.0
 11
-41.1003913423
 21
-21.223943662
 31
0.0
  0
LINE
  5
1FD
  8
0
 62
     0
 10
-23.128169014099999
 20
-21.223943662
 30
0.0
 11
-48.155946685899998
 21
-21.223943662
 31
0.0
  0
LINE
  5
1FE
  8
0
 62
     0
 10
-23.128169014099999
 20
-21.223943662
 30
0.0
 11
-28.128169014099999
 21
-21.223943662
 31
0.0
  0
SOLID
  5
1FF
  8
0
 62
     0
 10
-23.128169014099999
 20
-21.223943662
 30
0.0
 11
-26.128169014099999
 21
-21.973943662
 31
0.0
 12
-26.128169014099999
 22
-20.473943662
 32
0.0
 13
-25.378169014099999
 23
-21.223943662
 33
0.0
  0
LINE
  5
200
  8
0
 62
     0
 10
-66.128169014099996
 20
-21.223943662
 30
0.0
 11
-61.128169014099988
 21
-21.223943662
 31
0.0
  0
SOLID
  5
201
  8
0
 62
     0
 10
-66.128169014099996
 20
-21.223943662
 30
0.0
 11
-63.128169014099988
 21
-20.473943662
 31
0.0
 12
-63.128169014099988
 22
-21.973943662
 32
0.0
 13
-63.878169014099988
 23
-21.223943662
 33
0.0
  0
ENDBLK
  5
202
  8
0
  0
BLOCK
  8
0
  2
*U18
 70
     1
 10
0.0
 20
0.0
 30
0.0
  3
*U18
  1

  0
TEXT
  5
222
  8
図枠
  6
CONTINUOUS
 10
46.630837665362691
 20
116.5581762936045
 30
0.0
 40
2.698480084499999
  1
副番
  0
ENDBLK
  5
224
  8
0
  0
BLOCK
  8
0
  2
*U19
 70
     1
 10
0.0
 20
0.0
 30
0.0
  3
*U19
  1

  0
TEXT
  5
226
  8
図枠
  6
CONTINUOUS
 10
56.862612635410919
 20
116.53078055670601
 30
0.0
 40
2.698480084499999
  1
改訂日
  0
ENDBLK
  5
228
  8
0
  0
BLOCK
  8
0
  2
*U20
 70
     1
 10
0.0
 20
0.0
 30
0.0
  3
*U20
  1

  0
TEXT
  5
22A
  8
図枠
  6
CONTINUOUS
 10
82.935040134320815
 20
116.50338481980759
 30
0.0
 40
2.698480084499999
  1
改　訂　内　容
  0
ENDBLK
  5
22C
  8
0
  0
BLOCK
  8
0
  2
*U21
 70
     1
 10
0.0
 20
0.0
 30
0.0
  3
*U21
  1

  0
TEXT
  5
22E
  8
図枠
  6
CONTINUOUS
 10
129.9580466487802
 20
116.48968695135829
 30
0.0
 40
2.698480084499999
  1
検認者
  0
ENDBLK
  5
230
  8
0
  0
BLOCK
  8
0
  2
*U22
 70
     1
 10
0.0
 20
0.0
 30
0.0
  3
*U22
  1

  0
TEXT
  5
232
  8
図枠
  6
CONTINUOUS
 10
120.0001402541279
 20
116.50338481980759
 30
0.0
 40
2.698480084499999
  1
改訂者
  0
ENDBLK
  5
234
  8
0
  0
BLOCK
  8
0
  2
*U23
 70
     1
 10
0.0
 20
0.0
 30
0.0
  3
*U23
  1

  0
TEXT
  5
236
  8
図枠
  6
CONTINUOUS
 10
84.228114947490866
 20
-47.185657118052788
 30
0.0
 40
2.337266249999999
  1
製品名
  0
ENDBLK
  5
238
  8
0
  0
BLOCK
  8
0
  2
*U24
 70
     1
 10
0.0
 20
0.0
 30
0.0
  3
*U24
  1

  0
TEXT
  5
23A
  8
図枠
  6
CONTINUOUS
 10
84.293368573759906
 20
-55.661078526682232
 30
0.0
 40
2.337266249999999
  1
図面名
  0
ENDBLK
  5
23C
  8
0
  0
BLOCK
  8
0
  2
*U25
 70
     1
 10
0.0
 20
0.0
 30
0.0
  3
*U25
  1

  0
TEXT
  5
23E
  8
図枠
  6
CONTINUOUS
 10
39.401316349775129
 20
-55.830998493626403
 30
0.0
 40
2.337266249999999
  1
園 原
  0
ENDBLK
  5
240
  8
0
  0
BLOCK
  8
0
  2
*U26
 70
     1
 10
0.0
 20
0.0
 30
0.0
  3
*U26
  1

  0
TEXT
  5
242
  8
図枠
  6
CONTINUOUS
 10
24.009962238100002
 20
-55.866591380682237
 30
0.0
 40
2.337266249999999
  1
 設計
  0
ENDBLK
  5
244
  8
0
  0
BLOCK
  8
0
  2
*U27
 70
     1
 10
0.0
 20
0.0
 30
0.0
  3
*U27
  1

  0
TEXT
  5
246
  8
図枠
  6
CONTINUOUS
 10
84.281504278074621
 20
-64.136499935311676
 30
0.0
 40
2.337266249999999
  1
図　番
  0
ENDBLK
  5
248
  8
0
  0
BLOCK
  8
0
  2
*U28
 70
     1
 10
0.0
 20
0.0
 30
0.0
  3
*U28
  1

  0
TEXT
  5
24A
  8
図枠
  6
CONTINUOUS
 10
29.079347380866501
 20
-47.319984197941118
 30
0.0
 40
2.337266249999999
  1
日 　付
  0
ENDBLK
  5
24C
  8
0
  0
BLOCK
  8
0
  2
*U29
 70
     1
 10
0.0
 20
0.0
 30
0.0
  3
*U29
  1

  0
TEXT
  5
24E
  8
図枠
  6
CONTINUOUS
 10
61.208196802066993
 20
-42.791566071484262
 30
0.0
 40
2.8047194594999989
  1
指定無き公差はJIS 0408-Bによること
  0
ENDBLK
  5
250
  8
0
  0
BLOCK
  8
0
  2
*U30
 70
     1
 10
0.0
 20
0.0
 30
0.0
  3
*U30
  1

  0
TEXT
  5
252
  8
図枠
  6
CONTINUOUS
 10
48.828197171475637
 20
-47.391169972052801
 30
0.0
 40
2.337266249999999
  1
尺 　度
  0
ENDBLK
  5
254
  8
0
  0
BLOCK
  8
0
  2
*U31
 70
     1
 10
0.0
 20
0.0
 30
0.0
  3
*U31
  1

  0
TEXT
  5
256
  8
図枠
  6
CONTINUOUS
 10
30.23018406233858
 20
-51.522102015199998
 30
0.0
 40
2.337266249999999
  1
H12.9
  0
ENDBLK
  5
258
  8
0
  0
BLOCK
  8
0
  2
*U32
 70
     1
 10
0.0
 20
0.0
 30
0.0
  3
*U32
  1

  0
TEXT
  5
25A
  8
図枠
  6
CONTINUOUS
 10
69.32713057566346
 20
-60.139894972052801
 30
0.0
 40
2.337266249999999
  1
柳 原
  0
ENDBLK
  5
25C
  8
0
  0
BLOCK
  8
0
  2
*U33
 70
     1
 10
0.0
 20
0.0
 30
0.0
  3
*U33
  1

  0
TEXT
  5
25E
  8
図枠
  6
CONTINUOUS
 10
54.006962238100002
 20
-55.878455676367508
 30
0.0
 40
2.337266249999999
  1
 照査
  0
ENDBLK
  5
260
  8
0
  0
BLOCK
  8
0
  2
*U34
 70
     1
 10
0.0
 20
0.0
 30
0.0
  3
*U34
  1

  0
TEXT
  5
262
  8
図枠
  6
CONTINUOUS
 10
39.401316349775129
 20
-60.08057349362641
 30
0.0
 40
2.337266249999999
  1
園 原
  0
ENDBLK
  5
264
  8
0
  0
BLOCK
  8
0
  2
*U35
 70
     1
 10
0.0
 20
0.0
 30
0.0
  3
*U35
  1

  0
TEXT
  5
266
  8
図枠
  6
CONTINUOUS
 10
54.006962238100002
 20
-60.151759267738079
 30
0.0
 40
2.337266249999999
  1
 検図
  0
ENDBLK
  5
268
  8
0
  0
BLOCK
  8
0
  2
*U36
 70
     1
 10
0.0
 20
0.0
 30
0.0
  3
*U36
  1

  0
TEXT
  5
26A
  8
図枠
  6
CONTINUOUS
 10
69.32713057566346
 20
-55.890319972052801
 30
0.0
 40
2.337266249999999
  1
柳 原
  0
ENDBLK
  5
26C
  8
0
  0
BLOCK
  8
0
  2
*U37
 70
     1
 10
0.0
 20
0.0
 30
0.0
  3
*U37
  1

  0
TEXT
  5
26E
  8
図枠
  6
CONTINUOUS
 10
51.118006238734523
 20
-51.522102015199998
 30
0.0
 40
2.337266249999999
  1
1：1
  0
ENDBLK
  5
270
  8
0
  0
BLOCK
  8
0
  2
*U38
 70
     1
 10
0.0
 20
0.0
 30
0.0
  3
*U38
  1

  0
TEXT
  5
272
  8
図枠
  6
CONTINUOUS
 10
115.2215001242447
 20
-31.8110398707
 30
0.0
 40
3.229676959499999
  1
1.6t
  0
ENDBLK
  5
274
  8
0
  0
BLOCK
  8
0
  2
*U39
 70
     1
 10
0.0
 20
0.0
 30
0.0
  3
*U39
  1

  0
TEXT
  5
276
  8
図枠
  6
CONTINUOUS
 10
82.813599156640606
 20
-31.792666071484259
 30
0.0
 40
2.8047194594999989
  1
板　　厚
  0
ENDBLK
  5
278
  8
0
  0
BLOCK
  8
0
  2
*U40
 70
     1
 10
0.0
 20
0.0
 30
0.0
  3
*U40
  1

  0
TEXT
  5
27A
  8
図枠
  6
CONTINUOUS
 10
25.41128148302386
 20
-60.139894972052801
 30
0.0
 40
2.337266249999999
  1
製図
  0
ENDBLK
  5
27C
  8
0
  0
BLOCK
  8
0
  2
*U41
 70
     1
 10
0.0
 20
0.0
 30
0.0
  3
*U41
  1

  0
TEXT
  5
27E
  8
図枠
  6
CONTINUOUS
 10
101.29460317766269
 20
-66.711160571099995
 30
0.0
 40
2.9983111599000001
  1
ＳＲＫ００１２０
  0
ENDBLK
  5
280
  8
0
  0
BLOCK
  8
0
  2
*U42
 70
     1
 10
0.0
 20
0.0
 30
0.0
  3
*U42
  1

  0
TEXT
  5
282
  8
図枠
  6
CONTINUOUS
 10
104.1331058747254
 20
-58.272889985514212
 30
0.0
 40
2.9983111599000001
  1
LY-613 承認図
  0
ENDBLK
  5
284
  8
0
  0
BLOCK
  8
0
  2
*U43
 70
     1
 10
0.0
 20
0.0
 30
0.0
  3
*U43
  1

  0
TEXT
  5
286
  8
図枠
  6
CONTINUOUS
 10
26.854792043182481
 20
-31.735717453017259
 30
0.0
 40
2.8047194594999989
  1
材　　質
  0
ENDBLK
  5
288
  8
0
  0
BLOCK
  8
0
  2
*U44
 70
     1
 10
0.0
 20
0.0
 30
0.0
  3
*U44
  1

  0
TEXT
  5
28A
  8
図枠
  6
CONTINUOUS
 10
26.897503507032742
 20
-42.820040380717771
 30
0.0
 40
2.8047194594999989
  1
一般公差
  0
ENDBLK
  5
28C
  8
0
  0
BLOCK
  8
0
  2
*U45
 70
     1
 10
0.0
 20
0.0
 30
0.0
  3
*U45
  1

  0
TEXT
  5
28E
  8
図枠
  6
CONTINUOUS
 10
28.230093907499999
 20
-67.513242785306602
 30
0.0
 40
4.3175681352000002
  1
株式会社
  0
ENDBLK
  5
290
  8
0
  0
BLOCK
  8
0
  2
*U46
 70
     1
 10
0.0
 20
0.0
 30
0.0
  3
*U46
  1

  0
TEXT
  5
292
  8
図枠
  6
CONTINUOUS
 10
103.41016282855659
 20
-50.017257643171057
 30
0.0
 40
2.9983111599000001
  1
Ｌ型ブラケット
  0
ENDBLK
  5
294
  8
0
  0
BLOCK
  8
0
  2
*U47
 70
     1
 10
0.0
 20
0.0
 30
0.0
  3
*U47
  1

  0
TEXT
  5
296
  8
図枠
  6
CONTINUOUS
 10
61.208196802066993
 20
-42.791566071484262
 30
0.0
 40
2.8047194594999989
  1
指定無き公差はJIS 0408-Bによること
  0
ENDBLK
  5
298
  8
0
  0
BLOCK
  8
0
  2
*U48
 70
     1
 10
0.0
 20
0.0
 30
0.0
  3
*U48
  1

  0
TEXT
  5
29A
  8
図枠
  6
CONTINUOUS
 10
79.460229020742105
 20
-37.220930298400503
 30
0.0
 40
2.8047194594999989
  1
ユニクロメッキ
  0
ENDBLK
  5
29C
  8
0
  0
BLOCK
  8
0
  2
*U49
 70
     1
 10
0.0
 20
0.0
 30
0.0
  3
*U49
  1

  0
TEXT
  5
29E
  8
図枠
  6
CONTINUOUS
 10
58.594609861986797
 20
-31.579674071100001
 30
0.0
 40
2.9983111599000001
  1
SPCC
  0
ENDBLK
  5
2A0
  8
0
  0
BLOCK
  8
0
  2
*U50
 70
     1
 10
0.0
 20
0.0
 30
0.0
  3
*U50
  1

  0
TEXT
  5
2A2
  8
図枠
  6
CONTINUOUS
 10
26.826317733948979
 20
-37.263641762250757
 30
0.0
 40
2.8047194594999989
  1
表面処理
  0
ENDBLK
  5
2A4
  8
0
  0
BLOCK
  8
0
  2
*D51
 70
     1
 10
0.0
 20
0.0
 30
0.0
  3
*D51
  1

  0
LINE
  5
2A7
  8
寸法線
 62
     0
 10
-23.190669014099999
 20
-9.6239436619999985
 30
0.0
 11
-55.840265550522112
 21
-9.6239436620000021
 31
0.0
  0
LINE
  5
2A8
  8
寸法線
 62
     0
 10
-64.528169014100001
 20
32.463556337999997
 30
0.0
 11
-64.528169014100001
 21
-0.936040198422102
 31
0.0
  0
ARC
  5
2A9
  8
寸法線
 62
     0
 10
-64.528169014100001
 20
-9.6239436620000021
 30
0.0
 40
9.9379034635778964
 50
325.27501394016969
 51
342.63750697008493
  0
ARC
  5
2AA
  8
寸法線
 62
     0
 10
-64.528169014100001
 20
-9.6239436620000021
 30
0.0
 40
9.9379034635778964
 50
107.3624930299151
 51
124.7249860598302
  0
SOLID
  5
2AB
  8
寸法線
 62
     0
 10
-55.537349026516161
 20
-12.51410505706067
 30
0.0
 11
-54.548805683469787
 21
-12.66504232521762
 31
0.0
 12
-54.590265550522112
 22
-9.6239436620000021
 32
0.0
 13
-54.590265550522112
 23
-9.6239436620000021
 33
0.0
  0
SOLID
  5
2AC
  8
寸法線
 62
     0
 10
-67.569267677317626
 20
0.3554196686302191
 30
0.0
 11
-67.41833040916066
 21
-0.6331236744161615
 31
0.0
 12
-64.528169014100001
 22
0.3139598015778944
 32
0.0
 13
-64.528169014100001
 23
0.3139598015778944
 33
0.0
  0
TEXT
  8
寸法線
  40
2.99861
  5
2B4
  62
0
  72
0
  71
0
 10
-63.6931
 20
-7.71474
 30
0.000000
  1
90°
  0
POINT
  5
2AE
  8
Defpoints
 62
     0
 10
-64.528169014100001
 20
-9.6239436620000021
 30
0.0
  0
POINT
  5
2AF
  8
Defpoints
 62
     0
 10
-23.128169014099999
 20
-9.6239436620000003
 30
0.0
  0
POINT
  5
2B0
  8
Defpoints
 62
     0
 10
-64.528169014100001
 20
32.526056337999997
 30
0.0
  0
POINT
  5
2B1
  8
Defpoints
 62
     0
 10
-55.92169215428418
 20
-4.654991930211053
 30
0.0
  0
ENDBLK
  5
2B3
  8
0
  0
ENDSEC
  0
SECTION
  2
ENTITIES
  0
INSERT
  5
2F
  8
0
  6
CONTINUOUS
  2
*U18
 10
0.0
 20
0.0
 30
0.0
  0
INSERT
  5
30
  8
0
  6
CONTINUOUS
  2
*U19
 10
0.0
 20
0.0
 30
0.0
  0
LINE
  5
32
  8
ﾚｲﾔ_1
 62
     5
 10
60.428873239399998
 20
58.134272300500001
 30
0.0
 11
60.428873239399998
 21
63.634272300500001
 31
0.0
  0
LINE
  5
33
  8
ﾚｲﾔ_1
 62
     5
 10
55.928873239399998
 20
63.634272300500001
 30
0.0
 11
55.928873239399998
 21
58.134272300500001
 31
0.0
  0
DIMENSION
  5
44
  8
寸法線
  2
*D0
 10
58.178873239399991
 20
38.384272300500001
 30
0.0
 11
62.178873239399998
 21
38.384272300500001
 31
0.0
 70
   128
  1
<>
 13
58.178873239399991
 23
53.884272300500001
 33
0.0
 14
66.178873239399991
 24
48.384272300500001
 34
0.0
 50
180.0
  0
DIMENSION
  5
53
  8
寸法線
  2
*D1
 10
71.239965677900003
 20
55.884272300500001
 30
0.0
 11
71.239965677900003
 21
60.884272300500001
 31
0.0
 70
   128
  1
<>
 13
58.178873239399991
 23
55.884272300500001
 33
0.0
 14
58.178873239399991
 24
65.884272300500001
 34
0.0
 50
90.0
  0
DIMENSION
  5
62
  8
寸法線
  2
*D2
 10
51.178873239399991
 20
38.384272300500001
 30
0.0
 11
54.678873239399998
 21
38.384272300500001
 31
0.0
 70
   128
  1
<>
 13
51.178873239399991
 23
48.384272300500001
 33
0.0
 14
58.178873239399991
 24
53.884272300500001
 34
0.0
 50
180.0
  0
DIMENSION
  5
71
  8
寸法線
  2
*D3
 10
41.178873239399991
 20
73.384272300500001
 30
0.0
 11
41.178873239399991
 21
67.134272300500001
 31
0.0
 70
   128
  1
<>
 13
51.178873239399991
 23
73.384272300500001
 33
0.0
 14
54.678873239399998
 24
60.884272300500001
 34
0.0
 50
90.0
  0
DIMENSION
  5
80
  8
寸法線
  2
*D4
 10
60.428873239399998
 20
78.873875183899983
 30
0.0
 11
58.178873239399991
 21
78.873875183899983
 31
0.0
 70
   128
  1
<>
 13
60.428873239399998
 23
63.634272300500001
 33
0.0
 14
55.928873239399998
 24
63.634272300500001
 34
0.0
  0
DIMENSION
  5
8F
  8
寸法線
  2
*D5
 10
41.178873239399991
 20
60.884272300500001
 30
0.0
 11
41.178873239399991
 21
54.634272300500001
 31
0.0
 70
   128
  1
<>
 13
54.678873239399998
 23
60.884272300500001
 33
0.0
 14
51.178873239399991
 24
48.384272300500001
 34
0.0
 50
90.0
  0
INSERT
  5
90
  8
0
  6
CONTINUOUS
  2
*U20
 10
0.0
 20
0.0
 30
0.0
  0
LINE
  5
91
  8
図枠
 62
     5
 10
46.0077622381
 20
110.2547520888
 30
0.0
 11
139.99836223809999
 21
110.2547520888
 31
0.0
  0
LINE
  5
92
  8
図枠
 62
     5
 10
47.248352780600001
 20
105.73599576070001
 30
0.0
 11
52.197857780600003
 21
105.73599576070001
 31
0.0
  0
LINE
  5
93
  8
図枠
 62
     5
 10
47.248352780600001
 20
110.68550076069999
 30
0.0
 11
52.197857780600003
 21
110.68550076069999
 31
0.0
  0
LINE
  5
94
  8
図枠
 62
     5
 10
49.723105280600002
 20
110.0223928268
 30
0.0
 11
52.197857780600003
 21
105.73599576070001
 31
0.0
  0
LINE
  5
95
  8
図枠
 62
     5
 10
49.723105280600002
 20
110.0223928268
 30
0.0
 11
47.248352780600001
 21
105.73599576070001
 31
0.0
  0
LINE
  5
96
  8
図枠
 62
     5
 10
46.0077622381
 20
105.25525208880001
 30
0.0
 11
139.99836223809999
 21
105.25525208880001
 31
0.0
  0
LINE
  5
97
  8
図枠
 62
     5
 10
70.005362238100005
 20
105.25525208880001
 30
0.0
 11
70.005362238100005
 21
120.2537520888
 31
0.0
  0
LINE
  5
98
  8
図枠
 62
     5
 10
120.0003622381
 20
105.25525208880001
 30
0.0
 11
120.0003622381
 21
120.2537520888
 31
0.0
  0
LINE
  5
99
  8
図枠
 62
     5
 10
46.0077622381
 20
115.2542520888
 30
0.0
 11
139.99836223809999
 21
115.2542520888
 31
0.0
  0
LINE
  5
9A
  8
図枠
 62
     5
 10
46.0077622381
 20
105.25525208880001
 30
0.0
 11
46.0077622381
 21
120.2537520888
 31
0.0
  0
LINE
  5
9B
  8
図枠
 62
     5
 10
49.723105280600002
 20
114.9718978268
 30
0.0
 11
47.248352780600001
 21
110.68550076069999
 31
0.0
  0
LINE
  5
9C
  8
図枠
 62
     5
 10
49.723105280600002
 20
114.9718978268
 30
0.0
 11
52.197857780600003
 21
110.68550076069999
 31
0.0
  0
LINE
  5
9D
  8
図枠
 62
     5
 10
54.006962238100002
 20
105.25525208880001
 30
0.0
 11
54.006962238100002
 21
120.2537520888
 31
0.0
  0
INSERT
  5
9E
  8
0
  6
CONTINUOUS
  2
*U21
 10
0.0
 20
0.0
 30
0.0
  0
INSERT
  5
9F
  8
0
  6
CONTINUOUS
  2
*U22
 10
0.0
 20
0.0
 30
0.0
  0
LINE
  5
A0
  8
図枠
 62
     5
 10
129.99936223809999
 20
105.25525208880001
 30
0.0
 11
129.99936223809999
 21
120.2537520888
 31
0.0
  0
ARC
  5
A1
  8
図枠
 10
66.131435883899996
 20
-63.799702351500002
 30
0.0
 40
4.3995600000000001
 50
322.48761197969998
 51
0.0
  0
LINE
  5
A2
  8
図枠
  6
BORDER
 10
70.069355838100009
 20
-45.023718511200002
 30
0.0
 11
70.069355838100009
 21
-51.935027311199988
 31
0.0
  0
LINE
  5
A3
  8
図枠
  6
BORDER
 10
70.069355838100009
 20
-45.023718511200002
 30
0.0
 11
70.069355838100009
 21
-51.935027311199988
 31
0.0
  0
LINE
  5
A4
  8
図枠
 10
54.006962238100002
 20
-52.728947911200002
 30
0.0
 11
54.006962238100002
 21
-61.228097911199988
 31
0.0
  0
INSERT
  5
A5
  8
0
  6
CONTINUOUS
  2
*U23
 10
0.0
 20
0.0
 30
0.0
  0
LINE
  5
A6
  8
図枠
 10
79.942849201200005
 20
-46.175603311199993
 30
0.0
 11
79.942849201200005
 21
-50.783142511199998
 31
0.0
  0
LINE
  5
A7
  8
図枠
 10
75.335310001199986
 20
-49.6312577112
 30
0.0
 11
79.942849201200005
 21
-50.783142511199998
 31
0.0
  0
LINE
  5
A8
  8
図枠
 10
75.335310001199986
 20
-49.6312577112
 30
0.0
 11
79.942849201200005
 21
-50.783142511199998
 31
0.0
  0
INSERT
  5
A9
  8
0
  6
CONTINUOUS
  2
*U24
 10
0.0
 20
0.0
 30
0.0
  0
LINE
  5
AA
  8
図枠
 10
75.335310001199986
 20
-47.32748811119999
 30
0.0
 11
79.942849201200005
 21
-46.175603311199993
 31
0.0
  0
LINE
  5
AB
  8
図枠
 10
77.369069611599997
 20
-63.959686351499997
 30
0.0
 11
80.304004603999999
 21
-63.959686351499997
 31
0.0
  0
LINE
  5
AC
  8
図枠
 10
75.103458043999993
 20
-63.959686351499997
 30
0.0
 11
74.704564603999998
 21
-62.599822351499988
 31
0.0
  0
LINE
  5
AD
  8
図枠
 10
73.104724603999983
 20
-65.399542351500003
 30
0.0
 11
75.52581580399999
 21
-65.399542351500003
 31
0.0
  0
LINE
  5
AE
  8
図枠
 10
99.002462238099994
 20
-33.230897911200003
 30
0.0
 11
99.002462238099994
 21
-27.7314479112
 31
0.0
  0
ARC
  5
AF
  8
ﾚｲﾔ_1
 62
     5
 10
53.678873239399991
 20
50.884272300500001
 30
0.0
 40
2.5
 50
180.0
 51
270.0
  0
LINE
  5
B0
  8
ﾚｲﾔ_1
 62
     5
 10
53.678873239399991
 20
48.384272300500001
 30
0.0
 11
66.178873239399991
 21
48.384272300500001
 31
0.0
  0
LINE
  5
B1
  8
ﾚｲﾔ_1
 62
     5
 10
51.178873239399991
 20
50.884272300500001
 30
0.0
 11
51.178873239399991
 21
70.884272300500001
 31
0.0
  0
ARC
  5
B2
  8
ﾚｲﾔ_1
 62
     5
 10
53.678873239399991
 20
70.884272300500001
 30
0.0
 40
2.5
 50
90.0
 51
180.0
  0
LINE
  5
B3
  8
ﾚｲﾔ_1
 62
     5
 10
66.178873239399991
 20
73.384272300500001
 30
0.0
 11
53.678873239399991
 21
73.384272300500001
 31
0.0
  0
LINE
  5
B4
  8
ﾚｲﾔ_1
 62
     5
 10
64.578873239399996
 20
48.384272300500001
 30
0.0
 11
64.578873239399996
 21
73.384272300500001
 31
0.0
  0
LINE
  5
B5
  8
ﾚｲﾔ_1
 62
     5
 10
66.178873239399991
 20
48.384272300500001
 30
0.0
 11
66.178873239399991
 21
73.384272300500001
 31
0.0
  0
LINE
  5
B6
  8
ﾚｲﾔ_1
  6
BORDER
 62
     3
 10
61.678873239399998
 20
60.884272300500001
 30
0.0
 11
54.678873239399998
 21
60.884272300500001
 31
0.0
  0
ARC
  5
B7
  8
ﾚｲﾔ_1
 62
     5
 10
58.178873239399991
 20
63.634272300500001
 30
0.0
 40
2.25
 50
0.0
 51
180.0
  0
LINE
  5
B8
  8
ﾚｲﾔ_1
  6
BORDER
 62
     3
 10
58.178873239399991
 20
67.884272300500001
 30
0.0
 11
58.178873239399991
 21
53.884272300500001
 31
0.0
  0
ARC
  5
B9
  8
ﾚｲﾔ_1
 62
     5
 10
58.178873239399991
 20
58.134272300500001
 30
0.0
 40
2.25
 50
180.0
 51
0.0
  0
LINE
  5
BA
  8
図枠
 10
80.304004603999999
 20
-63.959686351499997
 30
0.0
 11
80.304004603999999
 21
-65.399542351500003
 31
0.0
  0
LINE
  5
BB
  8
図枠
 10
73.104724603999983
 20
-63.959686351499997
 30
0.0
 11
73.104724603999983
 21
-65.399542351500003
 31
0.0
  0
LINE
  5
BC
  8
図枠
 10
84.003962238100002
 20
-44.229797911200002
 30
0.0
 11
84.003962238100002
 21
-69.727247911199996
 31
0.0
  0
LINE
  5
BD
  8
図枠
 10
77.9675604703
 20
-66.039478351499994
 30
0.0
 11
80.304004603999999
 21
-66.039478351499994
 31
0.0
  0
LINE
  5
BE
  8
図枠
 10
73.104724603999983
 20
-63.959686351499997
 30
0.0
 11
75.103458043999993
 21
-63.959686351499997
 31
0.0
  0
LINE
  5
BF
  8
図枠
 10
70.530995883900005
 20
-63.799702351500002
 30
0.0
 11
71.330915883900005
 21
-62.599822351499988
 31
0.0
  0
LINE
  5
C0
  8
図枠
 10
24.009962238100002
 20
-33.230897911200003
 30
0.0
 11
139.99836223809999
 21
-33.230897911200003
 31
0.0
  0
LINE
  5
C1
  8
図枠
  6
BORDER
 10
70.069355838100009
 20
-45.023718511200002
 30
0.0
 11
70.069355838100009
 21
-51.935027311199988
 31
0.0
  0
LINE
  5
C2
  8
図枠
 10
64.131635883900003
 20
-64.714987241800003
 30
0.0
 11
64.131635883900003
 21
-64.457324796600005
 31
0.0
  0
LINE
  5
C3
  8
図枠
 10
57.203843883900007
 20
-63.799702351500002
 30
0.0
 11
58.403723883900007
 21
-62.599822351499988
 31
0.0
  0
INSERT
  5
C4
  8
0
  6
CONTINUOUS
  2
*U25
 10
0.0
 20
0.0
 30
0.0
  0
LINE
  5
C5
  8
図枠
 10
54.283252922999999
 20
-65.399542351500003
 30
0.0
 11
55.083172922999999
 21
-65.399542351500003
 31
0.0
  0
INSERT
  5
C6
  8
0
  6
CONTINUOUS
  2
*U26
 10
0.0
 20
0.0
 30
0.0
  0
LINE
  5
C7
  8
図枠
 10
64.131635883900003
 20
-66.999382351500003
 30
0.0
 11
64.131635883900003
 21
-68.199262351499996
 31
0.0
  0
LINE
  5
C8
  8
図枠
 10
24.009962238100002
 20
-27.7314479112
 30
0.0
 11
24.009962238100002
 21
-44.229797911200002
 31
0.0
  0
INSERT
  5
C9
  8
0
  6
CONTINUOUS
  2
*U27
 10
0.0
 20
0.0
 30
0.0
  0
LINE
  5
CA
  8
図枠
 10
73.104724603999983
 20
-67.4793343515
 30
0.0
 11
76.13588812399999
 21
-67.4793343515
 31
0.0
  0
INSERT
  5
CB
  8
0
  6
CONTINUOUS
  2
*U28
 10
0.0
 20
0.0
 30
0.0
  0
LINE
  5
CC
  8
図枠
 10
64.131635883900003
 20
-68.199262351499996
 30
0.0
 11
64.131635883900003
 21
-66.999382351500003
 31
0.0
  0
LINE
  5
CD
  8
図枠
 10
58.8036838839
 20
-62.599822351499988
 30
0.0
 11
58.8036838839
 21
-64.199662351499995
 31
0.0
  0
LINE
  5
CE
  8
図枠
 10
60.8034838839
 20
-63.799702351500002
 30
0.0
 11
62.003363883900001
 21
-62.599822351499988
 31
0.0
  0
CIRCLE
  5
CF
  8
図枠
 10
70.069355838100009
 20
-48.479372911200002
 30
0.0
 40
2.303769599999999
  0
CIRCLE
  5
D0
  8
図枠
 10
70.069355838100009
 20
-48.479372911200002
 30
0.0
 40
1.151884799999999
  0
LINE
  5
D1
  8
図枠
 10
58.8036838839
 20
-65.399542351500003
 30
0.0
 11
58.8036838839
 21
-65.799502351499996
 31
0.0
  0
LINE
  5
D2
  8
図枠
 10
57.6038038839
 20
-66.999382351500003
 30
0.0
 11
55.204043883900013
 21
-66.999382351500003
 31
0.0
  0
LINE
  5
D3
  8
図枠
 10
55.204043883900013
 20
-65.399542351500003
 30
0.0
 11
55.204043883900013
 21
-66.599422351499996
 31
0.0
  0
ARC
  5
D4
  8
図枠
 10
66.131435883899996
 20
-63.799702351500002
 30
0.0
 40
4.3995600000000001
 50
270.0
 51
302.54495885400001
  0
LINE
  5
D5
  8
図枠
 10
26.009762238099999
 20
-48.479372911200002
 30
0.0
 11
42.008162238099999
 21
-48.479372911200002
 31
0.0
  0
LINE
  5
D6
  8
図枠
 10
76.464388603999993
 20
-68.599222351499989
 30
0.0
 11
78.704164603999999
 21
-68.599222351499989
 31
0.0
  0
LINE
  5
D7
  8
図枠
 10
74.704564603999998
 20
-62.599822351499988
 30
0.0
 11
77.904244603999999
 21
-62.599822351499988
 31
0.0
  0
INSERT
  5
D8
  8
0
  6
CONTINUOUS
  2
*U29
 10
0.0
 20
0.0
 30
0.0
  0
LINE
  5
D9
  8
図枠
 10
67.760322972299988
 20
-65.414797549900001
 30
0.0
 11
67.567865574899983
 21
-65.627366979300007
 31
0.0
  0
ARC
  5
DA
  8
図枠
 10
58.403723883900007
 20
-65.799502351499996
 30
0.0
 40
2.3997599999999988
 50
270.0
 51
0.0
  0
INSERT
  5
DB
  8
0
  6
CONTINUOUS
  2
*U30
 10
0.0
 20
0.0
 30
0.0
  0
LINE
  5
DC
  8
図枠
 10
46.0077622381
 20
-48.479372911200002
 30
0.0
 11
60.006362238100003
 21
-48.479372911200002
 31
0.0
  0
ARC
  5
DD
  8
図枠
 10
65.091539883899998
 20
-63.959686351499997
 30
0.0
 40
3.0396959999999988
 50
270.0
 51
298.08590481520002
  0
INSERT
  5
DE
  8
0
  6
CONTINUOUS
  2
*U31
 10
0.0
 20
0.0
 30
0.0
  0
INSERT
  5
DF
  8
0
  6
CONTINUOUS
  2
*U32
 10
0.0
 20
0.0
 30
0.0
  0
CIRCLE
  5
E0
  8
図枠
 10
70.069355838100009
 20
-48.479372911200002
 30
0.0
 40
1.151884799999999
  0
LINE
  5
E1
  8
図枠
 10
64.131635883900003
 20
-68.199262351499996
 30
0.0
 11
66.131435883899996
 21
-68.199262351499996
 31
0.0
  0
LINE
  5
E2
  8
図枠
 10
57.203843883900007
 20
-65.399542351500003
 30
0.0
 11
58.8036838839
 21
-65.399542351500003
 31
0.0
  0
LINE
  5
E3
  8
図枠
 10
67.331315883900004
 20
-64.457324796600005
 30
0.0
 11
66.878812798799999
 21
-64.909827881799998
 31
0.0
  0
LINE
  5
E4
  8
図枠
 10
55.204043883900013
 20
-65.399542351500003
 30
0.0
 11
55.083172922999999
 21
-65.399542351500003
 31
0.0
  0
LINE
  5
E5
  8
図枠
 10
60.8034838839
 20
-64.199662351499995
 30
0.0
 11
60.8034838839
 21
-63.799702351500002
 31
0.0
  0
LINE
  5
E6
  8
図枠
 10
75.335310001199986
 20
-47.32748811119999
 30
0.0
 11
75.335310001199986
 21
-49.6312577112
 31
0.0
  0
LINE
  5
E7
  8
図枠
 10
75.713530363999993
 20
-66.039478351499994
 30
0.0
 11
75.52581580399999
 21
-65.399542351500003
 31
0.0
  0
LINE
  5
E8
  8
図枠
 10
64.005962238100011
 20
-44.229797911200002
 30
0.0
 11
64.005962238100011
 21
-52.728947911200002
 31
0.0
  0
INSERT
  5
E9
  8
0
  6
CONTINUOUS
  2
*U33
 10
0.0
 20
0.0
 30
0.0
  0
LINE
  5
EA
  8
図枠
 10
64.131635883900003
 20
-62.599822351499988
 30
0.0
 11
64.131635883900003
 21
-64.039678351500001
 31
0.0
  0
ARC
  5
EB
  8
図枠
 10
57.6038038839
 20
-65.799502351499996
 30
0.0
 40
1.1998799999999989
 50
270.0
 51
0.0
  0
INSERT
  5
EC
  8
0
  6
CONTINUOUS
  2
*U34
 10
0.0
 20
0.0
 30
0.0
  0
LINE
  5
ED
  8
図枠
 10
60.8034838839
 20
-65.399542351500003
 30
0.0
 11
62.003363883900001
 21
-65.399542351500003
 31
0.0
  0
LINE
  5
EE
  8
図枠
 10
75.335310001199986
 20
-47.32748811119999
 30
0.0
 11
79.942849201200005
 21
-46.175603311199993
 31
0.0
  0
LINE
  5
EF
  8
図枠
 10
55.204043883900013
 20
-64.199662351499995
 30
0.0
 11
54.283252922999999
 21
-64.199662351499995
 31
0.0
  0
INSERT
  5
F0
  8
0
  6
CONTINUOUS
  2
*U35
 10
0.0
 20
0.0
 30
0.0
  0
LINE
  5
F1
  8
図枠
 10
24.009962238100002
 20
-27.7314479112
 30
0.0
 11
139.99836223809999
 21
-27.7314479112
 31
0.0
  0
INSERT
  5
F2
  8
0
  6
CONTINUOUS
  2
*U36
 10
0.0
 20
0.0
 30
0.0
  0
POLYLINE
  8
図枠
  5
2B5
  66
     1
 10
0.000000
 20
0.000000
 30
0.000000
  70
     8
  0
VERTEX
  8
図枠
  5
2B6
 10
68.4982
 20
-67.5084
 30
0.000000
  70
    32
  0
VERTEX
  8
図枠
  5
2B7
 10
68.5198
 20
-67.5153
 30
0.000000
  70
    32
  0
VERTEX
  8
図枠
  5
2B8
 10
68.5413
 20
-67.5221
 30
0.000000
  70
    32
  0
VERTEX
  8
図枠
  5
2B9
 10
68.5629
 20
-67.5289
 30
0.000000
  70
    32
  0
VERTEX
  8
図枠
  5
2BA
 10
68.5845
 20
-67.5357
 30
0.000000
  70
    32
  0
VERTEX
  8
図枠
  5
2BB
 10
68.6061
 20
-67.5424
 30
0.000000
  70
    32
  0
VERTEX
  8
図枠
  5
2BC
 10
68.6277
 20
-67.5491
 30
0.000000
  70
    32
  0
VERTEX
  8
図枠
  5
2BD
 10
68.6493
 20
-67.5558
 30
0.000000
  70
    32
  0
VERTEX
  8
図枠
  5
2BE
 10
68.6710
 20
-67.5624
 30
0.000000
  70
    32
  0
VERTEX
  8
図枠
  5
2BF
 10
68.6927
 20
-67.5690
 30
0.000000
  70
    32
  0
VERTEX
  8
図枠
  5
2C0
 10
68.7144
 20
-67.5756
 30
0.000000
  70
    32
  0
VERTEX
  8
図枠
  5
2C1
 10
68.7361
 20
-67.5821
 30
0.000000
  70
    32
  0
VERTEX
  8
図枠
  5
2C2
 10
68.7578
 20
-67.5886
 30
0.000000
  70
    32
  0
VERTEX
  8
図枠
  5
2C3
 10
68.7795
 20
-67.5951
 30
0.000000
  70
    32
  0
VERTEX
  8
図枠
  5
2C4
 10
68.8013
 20
-67.6015
 30
0.000000
  70
    32
  0
VERTEX
  8
図枠
  5
2C5
 10
68.8231
 20
-67.6080
 30
0.000000
  70
    32
  0
VERTEX
  8
図枠
  5
2C6
 10
68.8449
 20
-67.6144
 30
0.000000
  70
    32
  0
VERTEX
  8
図枠
  5
2C7
 10
68.8667
 20
-67.6207
 30
0.000000
  70
    32
  0
VERTEX
  8
図枠
  5
2C8
 10
68.8885
 20
-67.6270
 30
0.000000
  70
    32
  0
VERTEX
  8
図枠
  5
2C9
 10
68.9103
 20
-67.6333
 30
0.000000
  70
    32
  0
VERTEX
  8
図枠
  5
2CA
 10
68.9322
 20
-67.6396
 30
0.000000
  70
    32
  0
VERTEX
  8
図枠
  5
2CB
 10
68.9541
 20
-67.6458
 30
0.000000
  70
    32
  0
VERTEX
  8
図枠
  5
2CC
 10
68.9760
 20
-67.6521
 30
0.000000
  70
    32
  0
VERTEX
  8
図枠
  5
2CD
 10
68.9979
 20
-67.6582
 30
0.000000
  70
    32
  0
VERTEX
  8
図枠
  5
2CE
 10
69.0198
 20
-67.6644
 30
0.000000
  70
    32
  0
VERTEX
  8
図枠
  5
2CF
 10
69.0417
 20
-67.6705
 30
0.000000
  70
    32
  0
VERTEX
  8
図枠
  5
2D0
 10
69.0637
 20
-67.6766
 30
0.000000
  70
    32
  0
VERTEX
  8
図枠
  5
2D1
 10
69.0856
 20
-67.6827
 30
0.000000
  70
    32
  0
VERTEX
  8
図枠
  5
2D2
 10
69.1076
 20
-67.6888
 30
0.000000
  70
    32
  0
VERTEX
  8
図枠
  5
2D3
 10
69.1296
 20
-67.6948
 30
0.000000
  70
    32
  0
VERTEX
  8
図枠
  5
2D4
 10
69.1516
 20
-67.7008
 30
0.000000
  70
    32
  0
VERTEX
  8
図枠
  5
2D5
 10
69.1736
 20
-67.7067
 30
0.000000
  70
    32
  0
VERTEX
  8
図枠
  5
2D6
 10
69.1956
 20
-67.7127
 30
0.000000
  70
    32
  0
VERTEX
  8
図枠
  5
2D7
 10
69.2177
 20
-67.7186
 30
0.000000
  70
    32
  0
VERTEX
  8
図枠
  5
2D8
 10
69.2397
 20
-67.7245
 30
0.000000
  70
    32
  0
VERTEX
  8
図枠
  5
2D9
 10
69.2618
 20
-67.7304
 30
0.000000
  70
    32
  0
VERTEX
  8
図枠
  5
2DA
 10
69.2839
 20
-67.7362
 30
0.000000
  70
    32
  0
VERTEX
  8
図枠
  5
2DB
 10
69.3060
 20
-67.7420
 30
0.000000
  70
    32
  0
VERTEX
  8
図枠
  5
2DC
 10
69.3281
 20
-67.7478
 30
0.000000
  70
    32
  0
VERTEX
  8
図枠
  5
2DD
 10
69.3503
 20
-67.7536
 30
0.000000
  70
    32
  0
VERTEX
  8
図枠
  5
2DE
 10
69.3724
 20
-67.7593
 30
0.000000
  70
    32
  0
VERTEX
  8
図枠
  5
2DF
 10
69.3945
 20
-67.7650
 30
0.000000
  70
    32
  0
VERTEX
  8
図枠
  5
2E0
 10
69.4167
 20
-67.7707
 30
0.000000
  70
    32
  0
VERTEX
  8
図枠
  5
2E1
 10
69.4389
 20
-67.7764
 30
0.000000
  70
    32
  0
VERTEX
  8
図枠
  5
2E2
 10
69.4611
 20
-67.7821
 30
0.000000
  70
    32
  0
VERTEX
  8
図枠
  5
2E3
 10
69.4833
 20
-67.7877
 30
0.000000
  70
    32
  0
VERTEX
  8
図枠
  5
2E4
 10
69.5055
 20
-67.7933
 30
0.000000
  70
    32
  0
VERTEX
  8
図枠
  5
2E5
 10
69.5277
 20
-67.7989
 30
0.000000
  70
    32
  0
VERTEX
  8
図枠
  5
2E6
 10
69.5499
 20
-67.8045
 30
0.000000
  70
    32
  0
VERTEX
  8
図枠
  5
2E7
 10
69.5722
 20
-67.8100
 30
0.000000
  70
    32
  0
VERTEX
  8
図枠
  5
2E8
 10
69.5945
 20
-67.8155
 30
0.000000
  70
    32
  0
VERTEX
  8
図枠
  5
2E9
 10
69.6167
 20
-67.8210
 30
0.000000
  70
    32
  0
VERTEX
  8
図枠
  5
2EA
 10
69.6390
 20
-67.8265
 30
0.000000
  70
    32
  0
VERTEX
  8
図枠
  5
2EB
 10
69.6613
 20
-67.8320
 30
0.000000
  70
    32
  0
VERTEX
  8
図枠
  5
2EC
 10
69.6836
 20
-67.8374
 30
0.000000
  70
    32
  0
VERTEX
  8
図枠
  5
2ED
 10
69.7059
 20
-67.8429
 30
0.000000
  70
    32
  0
VERTEX
  8
図枠
  5
2EE
 10
69.7282
 20
-67.8483
 30
0.000000
  70
    32
  0
VERTEX
  8
図枠
  5
2EF
 10
69.7506
 20
-67.8536
 30
0.000000
  70
    32
  0
VERTEX
  8
図枠
  5
2F0
 10
69.7729
 20
-67.8590
 30
0.000000
  70
    32
  0
VERTEX
  8
図枠
  5
2F1
 10
69.7953
 20
-67.8644
 30
0.000000
  70
    32
  0
VERTEX
  8
図枠
  5
2F2
 10
69.8176
 20
-67.8697
 30
0.000000
  70
    32
  0
VERTEX
  8
図枠
  5
2F3
 10
69.8400
 20
-67.8750
 30
0.000000
  70
    32
  0
VERTEX
  8
図枠
  5
2F4
 10
69.8624
 20
-67.8803
 30
0.000000
  70
    32
  0
VERTEX
  8
図枠
  5
2F5
 10
69.8848
 20
-67.8856
 30
0.000000
  70
    32
  0
VERTEX
  8
図枠
  5
2F6
 10
69.9072
 20
-67.8908
 30
0.000000
  70
    32
  0
VERTEX
  8
図枠
  5
2F7
 10
69.9296
 20
-67.8961
 30
0.000000
  70
    32
  0
VERTEX
  8
図枠
  5
2F8
 10
69.9520
 20
-67.9013
 30
0.000000
  70
    32
  0
VERTEX
  8
図枠
  5
2F9
 10
69.9744
 20
-67.9065
 30
0.000000
  70
    32
  0
VERTEX
  8
図枠
  5
2FA
 10
69.9969
 20
-67.9117
 30
0.000000
  70
    32
  0
VERTEX
  8
図枠
  5
2FB
 10
70.0193
 20
-67.9169
 30
0.000000
  70
    32
  0
VERTEX
  8
図枠
  5
2FC
 10
70.0418
 20
-67.9220
 30
0.000000
  70
    32
  0
VERTEX
  8
図枠
  5
2FD
 10
70.0642
 20
-67.9272
 30
0.000000
  70
    32
  0
VERTEX
  8
図枠
  5
2FE
 10
70.0867
 20
-67.9323
 30
0.000000
  70
    32
  0
VERTEX
  8
図枠
  5
2FF
 10
70.1092
 20
-67.9374
 30
0.000000
  70
    32
  0
VERTEX
  8
図枠
  5
300
 10
70.1317
 20
-67.9425
 30
0.000000
  70
    32
  0
VERTEX
  8
図枠
  5
301
 10
70.1542
 20
-67.9476
 30
0.000000
  70
    32
  0
VERTEX
  8
図枠
  5
302
 10
70.1767
 20
-67.9527
 30
0.000000
  70
    32
  0
VERTEX
  8
図枠
  5
303
 10
70.1992
 20
-67.9578
 30
0.000000
  70
    32
  0
VERTEX
  8
図枠
  5
304
 10
70.2217
 20
-67.9628
 30
0.000000
  70
    32
  0
VERTEX
  8
図枠
  5
305
 10
70.2442
 20
-67.9678
 30
0.000000
  70
    32
  0
VERTEX
  8
図枠
  5
306
 10
70.2668
 20
-67.9729
 30
0.000000
  70
    32
  0
VERTEX
  8
図枠
  5
307
 10
70.2893
 20
-67.9779
 30
0.000000
  70
    32
  0
VERTEX
  8
図枠
  5
308
 10
70.3118
 20
-67.9829
 30
0.000000
  70
    32
  0
VERTEX
  8
図枠
  5
309
 10
70.3344
 20
-67.9879
 30
0.000000
  70
    32
  0
VERTEX
  8
図枠
  5
30A
 10
70.3570
 20
-67.9928
 30
0.000000
  70
    32
  0
VERTEX
  8
図枠
  5
30B
 10
70.3795
 20
-67.9978
 30
0.000000
  70
    32
  0
VERTEX
  8
図枠
  5
30C
 10
70.4021
 20
-68.0027
 30
0.000000
  70
    32
  0
VERTEX
  8
図枠
  5
30D
 10
70.4247
 20
-68.0077
 30
0.000000
  70
    32
  0
VERTEX
  8
図枠
  5
30E
 10
70.4472
 20
-68.0126
 30
0.000000
  70
    32
  0
VERTEX
  8
図枠
  5
30F
 10
70.4698
 20
-68.0175
 30
0.000000
  70
    32
  0
VERTEX
  8
図枠
  5
310
 10
70.4924
 20
-68.0224
 30
0.000000
  70
    32
  0
VERTEX
  8
図枠
  5
311
 10
70.5150
 20
-68.0273
 30
0.000000
  70
    32
  0
VERTEX
  8
図枠
  5
312
 10
70.5376
 20
-68.0322
 30
0.000000
  70
    32
  0
VERTEX
  8
図枠
  5
313
 10
70.5602
 20
-68.0371
 30
0.000000
  70
    32
  0
VERTEX
  8
図枠
  5
314
 10
70.5829
 20
-68.0420
 30
0.000000
  70
    32
  0
VERTEX
  8
図枠
  5
315
 10
70.6055
 20
-68.0468
 30
0.000000
  70
    32
  0
VERTEX
  8
図枠
  5
316
 10
70.6281
 20
-68.0517
 30
0.000000
  70
    32
  0
VERTEX
  8
図枠
  5
317
 10
70.6507
 20
-68.0565
 30
0.000000
  70
    32
  0
VERTEX
  8
図枠
  5
318
 10
70.6734
 20
-68.0613
 30
0.000000
  70
    32
  0
VERTEX
  8
図枠
  5
319
 10
70.6960
 20
-68.0662
 30
0.000000
  70
    32
  0
VERTEX
  8
図枠
  5
31A
 10
70.7186
 20
-68.0710
 30
0.000000
  70
    32
  0
VERTEX
  8
図枠
  5
31B
 10
70.7413
 20
-68.0758
 30
0.000000
  70
    32
  0
VERTEX
  8
図枠
  5
31C
 10
70.7639
 20
-68.0806
 30
0.000000
  70
    32
  0
VERTEX
  8
図枠
  5
31D
 10
70.7866
 20
-68.0854
 30
0.000000
  70
    32
  0
VERTEX
  8
図枠
  5
31E
 10
70.8092
 20
-68.0902
 30
0.000000
  70
    32
  0
VERTEX
  8
図枠
  5
31F
 10
70.8319
 20
-68.0950
 30
0.000000
  70
    32
  0
VERTEX
  8
図枠
  5
320
 10
70.8545
 20
-68.0998
 30
0.000000
  70
    32
  0
VERTEX
  8
図枠
  5
321
 10
70.8772
 20
-68.1045
 30
0.000000
  70
    32
  0
VERTEX
  8
図枠
  5
322
 10
70.8999
 20
-68.1093
 30
0.000000
  70
    32
  0
VERTEX
  8
図枠
  5
323
 10
70.9225
 20
-68.1141
 30
0.000000
  70
    32
  0
VERTEX
  8
図枠
  5
324
 10
70.9452
 20
-68.1188
 30
0.000000
  70
    32
  0
VERTEX
  8
図枠
  5
325
 10
70.9679
 20
-68.1236
 30
0.000000
  70
    32
  0
VERTEX
  8
図枠
  5
326
 10
70.9906
 20
-68.1283
 30
0.000000
  70
    32
  0
VERTEX
  8
図枠
  5
327
 10
71.0133
 20
-68.1331
 30
0.000000
  70
    32
  0
VERTEX
  8
図枠
  5
328
 10
71.0359
 20
-68.1378
 30
0.000000
  70
    32
  0
VERTEX
  8
図枠
  5
329
 10
71.0586
 20
-68.1426
 30
0.000000
  70
    32
  0
VERTEX
  8
図枠
  5
32A
 10
71.0813
 20
-68.1473
 30
0.000000
  70
    32
  0
VERTEX
  8
図枠
  5
32B
 10
71.1040
 20
-68.1520
 30
0.000000
  70
    32
  0
VERTEX
  8
図枠
  5
32C
 10
71.1267
 20
-68.1568
 30
0.000000
  70
    32
  0
VERTEX
  8
図枠
  5
32D
 10
71.1494
 20
-68.1615
 30
0.000000
  70
    32
  0
VERTEX
  8
図枠
  5
32E
 10
71.1721
 20
-68.1662
 30
0.000000
  70
    32
  0
VERTEX
  8
図枠
  5
32F
 10
71.1948
 20
-68.1709
 30
0.000000
  70
    32
  0
VERTEX
  8
図枠
  5
330
 10
71.2174
 20
-68.1757
 30
0.000000
  70
    32
  0
VERTEX
  8
図枠
  5
331
 10
71.2401
 20
-68.1804
 30
0.000000
  70
    32
  0
VERTEX
  8
図枠
  5
332
 10
71.2628
 20
-68.1851
 30
0.000000
  70
    32
  0
VERTEX
  8
図枠
  5
333
 10
71.2855
 20
-68.1898
 30
0.000000
  70
    32
  0
VERTEX
  8
図枠
  5
334
 10
71.3082
 20
-68.1945
 30
0.000000
  70
    32
  0
VERTEX
  8
図枠
  5
335
 10
71.3309
 20
-68.1993
 30
0.000000
  70
    32
  0
SEQEND
  8
図枠
  5
336
  0
LINE
  5
F4
  8
図枠
 10
71.330915883900005
 20
-62.599822351499988
 30
0.0
 11
64.131635883900003
 21
-62.599822351499988
 31
0.0
  0
LINE
  5
F5
  8
図枠
 10
71.330915883900005
 20
-66.999382351500003
 30
0.0
 11
71.330915883900005
 21
-68.199262351499996
 31
0.0
  0
LINE
  5
F6
  8
図枠
 10
70.530995883900005
 20
-63.799702351500002
 30
0.0
 11
71.330915883900005
 21
-62.599822351499988
 31
0.0
  0
CIRCLE
  5
F7
  8
図枠
 10
70.069355838100009
 20
-48.479372911200002
 30
0.0
 40
2.303769599999999
  0
LINE
  5
F8
  8
図枠
  6
BORDER
 10
70.069355838100009
 20
-45.023718511200002
 30
0.0
 11
70.069355838100009
 21
-51.935027311199988
 31
0.0
  0
LINE
  5
F9
  8
図枠
 10
26.009762238099999
 20
-56.978522911200002
 30
0.0
 11
52.007162238100001
 21
-56.978522911200002
 31
0.0
  0
POLYLINE
  8
図枠
  5
337
  66
     1
 10
0.000000
 20
0.000000
 30
0.000000
  70
     8
  0
VERTEX
  8
図枠
  5
338
 10
64.1316
 20
-64.7150
 30
0.000000
  70
    32
  0
VERTEX
  8
図枠
  5
339
 10
64.1460
 20
-64.7283
 30
0.000000
  70
    32
  0
VERTEX
  8
図枠
  5
33A
 10
64.1605
 20
-64.7415
 30
0.000000
  70
    32
  0
VERTEX
  8
図枠
  5
33B
 10
64.1749
 20
-64.7548
 30
0.000000
  70
    32
  0
VERTEX
  8
図枠
  5
33C
 10
64.1893
 20
-64.7681
 30
0.000000
  70
    32
  0
VERTEX
  8
図枠
  5
33D
 10
64.2037
 20
-64.7814
 30
0.000000
  70
    32
  0
VERTEX
  8
図枠
  5
33E
 10
64.2181
 20
-64.7947
 30
0.000000
  70
    32
  0
VERTEX
  8
図枠
  5
33F
 10
64.2325
 20
-64.8079
 30
0.000000
  70
    32
  0
VERTEX
  8
図枠
  5
340
 10
64.2469
 20
-64.8212
 30
0.000000
  70
    32
  0
VERTEX
  8
図枠
  5
341
 10
64.2613
 20
-64.8345
 30
0.000000
  70
    32
  0
VERTEX
  8
図枠
  5
342
 10
64.2757
 20
-64.8477
 30
0.000000
  70
    32
  0
VERTEX
  8
図枠
  5
343
 10
64.2902
 20
-64.8610
 30
0.000000
  70
    32
  0
VERTEX
  8
図枠
  5
344
 10
64.3046
 20
-64.8743
 30
0.000000
  70
    32
  0
VERTEX
  8
図枠
  5
345
 10
64.3190
 20
-64.8875
 30
0.000000
  70
    32
  0
VERTEX
  8
図枠
  5
346
 10
64.3334
 20
-64.9008
 30
0.000000
  70
    32
  0
VERTEX
  8
図枠
  5
347
 10
64.3478
 20
-64.9140
 30
0.000000
  70
    32
  0
VERTEX
  8
図枠
  5
348
 10
64.3623
 20
-64.9273
 30
0.000000
  70
    32
  0
VERTEX
  8
図枠
  5
349
 10
64.3767
 20
-64.9405
 30
0.000000
  70
    32
  0
VERTEX
  8
図枠
  5
34A
 10
64.3911
 20
-64.9538
 30
0.000000
  70
    32
  0
VERTEX
  8
図枠
  5
34B
 10
64.4056
 20
-64.9670
 30
0.000000
  70
    32
  0
VERTEX
  8
図枠
  5
34C
 10
64.4200
 20
-64.9802
 30
0.000000
  70
    32
  0
VERTEX
  8
図枠
  5
34D
 10
64.4344
 20
-64.9935
 30
0.000000
  70
    32
  0
VERTEX
  8
図枠
  5
34E
 10
64.4489
 20
-65.0067
 30
0.000000
  70
    32
  0
VERTEX
  8
図枠
  5
34F
 10
64.4633
 20
-65.0199
 30
0.000000
  70
    32
  0
VERTEX
  8
図枠
  5
350
 10
64.4778
 20
-65.0331
 30
0.000000
  70
    32
  0
VERTEX
  8
図枠
  5
351
 10
64.4922
 20
-65.0463
 30
0.000000
  70
    32
  0
VERTEX
  8
図枠
  5
352
 10
64.5067
 20
-65.0595
 30
0.000000
  70
    32
  0
VERTEX
  8
図枠
  5
353
 10
64.5211
 20
-65.0727
 30
0.000000
  70
    32
  0
VERTEX
  8
図枠
  5
354
 10
64.5356
 20
-65.0858
 30
0.000000
  70
    32
  0
VERTEX
  8
図枠
  5
355
 10
64.5501
 20
-65.0990
 30
0.000000
  70
    32
  0
VERTEX
  8
図枠
  5
356
 10
64.5645
 20
-65.1122
 30
0.000000
  70
    32
  0
VERTEX
  8
図枠
  5
357
 10
64.5790
 20
-65.1253
 30
0.000000
  70
    32
  0
VERTEX
  8
図枠
  5
358
 10
64.5935
 20
-65.1385
 30
0.000000
  70
    32
  0
VERTEX
  8
図枠
  5
359
 10
64.6080
 20
-65.1516
 30
0.000000
  70
    32
  0
VERTEX
  8
図枠
  5
35A
 10
64.6225
 20
-65.1647
 30
0.000000
  70
    32
  0
VERTEX
  8
図枠
  5
35B
 10
64.6370
 20
-65.1778
 30
0.000000
  70
    32
  0
VERTEX
  8
図枠
  5
35C
 10
64.6515
 20
-65.1909
 30
0.000000
  70
    32
  0
VERTEX
  8
図枠
  5
35D
 10
64.6660
 20
-65.2040
 30
0.000000
  70
    32
  0
VERTEX
  8
図枠
  5
35E
 10
64.6805
 20
-65.2171
 30
0.000000
  70
    32
  0
VERTEX
  8
図枠
  5
35F
 10
64.6950
 20
-65.2302
 30
0.000000
  70
    32
  0
VERTEX
  8
図枠
  5
360
 10
64.7095
 20
-65.2433
 30
0.000000
  70
    32
  0
VERTEX
  8
図枠
  5
361
 10
64.7241
 20
-65.2563
 30
0.000000
  70
    32
  0
VERTEX
  8
図枠
  5
362
 10
64.7386
 20
-65.2694
 30
0.000000
  70
    32
  0
VERTEX
  8
図枠
  5
363
 10
64.7531
 20
-65.2824
 30
0.000000
  70
    32
  0
VERTEX
  8
図枠
  5
364
 10
64.7677
 20
-65.2954
 30
0.000000
  70
    32
  0
VERTEX
  8
図枠
  5
365
 10
64.7823
 20
-65.3084
 30
0.000000
  70
    32
  0
VERTEX
  8
図枠
  5
366
 10
64.7968
 20
-65.3214
 30
0.000000
  70
    32
  0
VERTEX
  8
図枠
  5
367
 10
64.8114
 20
-65.3344
 30
0.000000
  70
    32
  0
VERTEX
  8
図枠
  5
368
 10
64.8260
 20
-65.3474
 30
0.000000
  70
    32
  0
VERTEX
  8
図枠
  5
369
 10
64.8405
 20
-65.3603
 30
0.000000
  70
    32
  0
VERTEX
  8
図枠
  5
36A
 10
64.8551
 20
-65.3733
 30
0.000000
  70
    32
  0
VERTEX
  8
図枠
  5
36B
 10
64.8697
 20
-65.3862
 30
0.000000
  70
    32
  0
VERTEX
  8
図枠
  5
36C
 10
64.8843
 20
-65.3991
 30
0.000000
  70
    32
  0
VERTEX
  8
図枠
  5
36D
 10
64.8990
 20
-65.4120
 30
0.000000
  70
    32
  0
VERTEX
  8
図枠
  5
36E
 10
64.9136
 20
-65.4249
 30
0.000000
  70
    32
  0
VERTEX
  8
図枠
  5
36F
 10
64.9282
 20
-65.4378
 30
0.000000
  70
    32
  0
VERTEX
  8
図枠
  5
370
 10
64.9428
 20
-65.4506
 30
0.000000
  70
    32
  0
VERTEX
  8
図枠
  5
371
 10
64.9575
 20
-65.4635
 30
0.000000
  70
    32
  0
VERTEX
  8
図枠
  5
372
 10
64.9721
 20
-65.4763
 30
0.000000
  70
    32
  0
VERTEX
  8
図枠
  5
373
 10
64.9868
 20
-65.4891
 30
0.000000
  70
    32
  0
VERTEX
  8
図枠
  5
374
 10
65.0015
 20
-65.5019
 30
0.000000
  70
    32
  0
VERTEX
  8
図枠
  5
375
 10
65.0162
 20
-65.5147
 30
0.000000
  70
    32
  0
VERTEX
  8
図枠
  5
376
 10
65.0309
 20
-65.5274
 30
0.000000
  70
    32
  0
VERTEX
  8
図枠
  5
377
 10
65.0456
 20
-65.5402
 30
0.000000
  70
    32
  0
VERTEX
  8
図枠
  5
378
 10
65.0603
 20
-65.5529
 30
0.000000
  70
    32
  0
VERTEX
  8
図枠
  5
379
 10
65.0750
 20
-65.5656
 30
0.000000
  70
    32
  0
VERTEX
  8
図枠
  5
37A
 10
65.0897
 20
-65.5783
 30
0.000000
  70
    32
  0
VERTEX
  8
図枠
  5
37B
 10
65.1044
 20
-65.5909
 30
0.000000
  70
    32
  0
VERTEX
  8
図枠
  5
37C
 10
65.1192
 20
-65.6036
 30
0.000000
  70
    32
  0
VERTEX
  8
図枠
  5
37D
 10
65.1340
 20
-65.6162
 30
0.000000
  70
    32
  0
VERTEX
  8
図枠
  5
37E
 10
65.1487
 20
-65.6288
 30
0.000000
  70
    32
  0
VERTEX
  8
図枠
  5
37F
 10
65.1635
 20
-65.6414
 30
0.000000
  70
    32
  0
VERTEX
  8
図枠
  5
380
 10
65.1783
 20
-65.6540
 30
0.000000
  70
    32
  0
VERTEX
  8
図枠
  5
381
 10
65.1931
 20
-65.6666
 30
0.000000
  70
    32
  0
VERTEX
  8
図枠
  5
382
 10
65.2079
 20
-65.6791
 30
0.000000
  70
    32
  0
VERTEX
  8
図枠
  5
383
 10
65.2227
 20
-65.6916
 30
0.000000
  70
    32
  0
VERTEX
  8
図枠
  5
384
 10
65.2376
 20
-65.7041
 30
0.000000
  70
    32
  0
VERTEX
  8
図枠
  5
385
 10
65.2524
 20
-65.7166
 30
0.000000
  70
    32
  0
VERTEX
  8
図枠
  5
386
 10
65.2673
 20
-65.7290
 30
0.000000
  70
    32
  0
VERTEX
  8
図枠
  5
387
 10
65.2821
 20
-65.7415
 30
0.000000
  70
    32
  0
VERTEX
  8
図枠
  5
388
 10
65.2970
 20
-65.7539
 30
0.000000
  70
    32
  0
VERTEX
  8
図枠
  5
389
 10
65.3119
 20
-65.7662
 30
0.000000
  70
    32
  0
VERTEX
  8
図枠
  5
38A
 10
65.3268
 20
-65.7786
 30
0.000000
  70
    32
  0
VERTEX
  8
図枠
  5
38B
 10
65.3417
 20
-65.7909
 30
0.000000
  70
    32
  0
VERTEX
  8
図枠
  5
38C
 10
65.3566
 20
-65.8033
 30
0.000000
  70
    32
  0
VERTEX
  8
図枠
  5
38D
 10
65.3716
 20
-65.8156
 30
0.000000
  70
    32
  0
VERTEX
  8
図枠
  5
38E
 10
65.3865
 20
-65.8278
 30
0.000000
  70
    32
  0
VERTEX
  8
図枠
  5
38F
 10
65.4015
 20
-65.8401
 30
0.000000
  70
    32
  0
VERTEX
  8
図枠
  5
390
 10
65.4165
 20
-65.8523
 30
0.000000
  70
    32
  0
VERTEX
  8
図枠
  5
391
 10
65.4315
 20
-65.8645
 30
0.000000
  70
    32
  0
VERTEX
  8
図枠
  5
392
 10
65.4465
 20
-65.8767
 30
0.000000
  70
    32
  0
VERTEX
  8
図枠
  5
393
 10
65.4615
 20
-65.8888
 30
0.000000
  70
    32
  0
VERTEX
  8
図枠
  5
394
 10
65.4765
 20
-65.9009
 30
0.000000
  70
    32
  0
VERTEX
  8
図枠
  5
395
 10
65.4916
 20
-65.9130
 30
0.000000
  70
    32
  0
VERTEX
  8
図枠
  5
396
 10
65.5067
 20
-65.9251
 30
0.000000
  70
    32
  0
VERTEX
  8
図枠
  5
397
 10
65.5217
 20
-65.9372
 30
0.000000
  70
    32
  0
VERTEX
  8
図枠
  5
398
 10
65.5368
 20
-65.9492
 30
0.000000
  70
    32
  0
VERTEX
  8
図枠
  5
399
 10
65.5519
 20
-65.9612
 30
0.000000
  70
    32
  0
VERTEX
  8
図枠
  5
39A
 10
65.5670
 20
-65.9731
 30
0.000000
  70
    32
  0
VERTEX
  8
図枠
  5
39B
 10
65.5822
 20
-65.9851
 30
0.000000
  70
    32
  0
VERTEX
  8
図枠
  5
39C
 10
65.5973
 20
-65.9970
 30
0.000000
  70
    32
  0
VERTEX
  8
図枠
  5
39D
 10
65.6125
 20
-66.0089
 30
0.000000
  70
    32
  0
VERTEX
  8
図枠
  5
39E
 10
65.6277
 20
-66.0207
 30
0.000000
  70
    32
  0
VERTEX
  8
図枠
  5
39F
 10
65.6429
 20
-66.0326
 30
0.000000
  70
    32
  0
VERTEX
  8
図枠
  5
3A0
 10
65.6581
 20
-66.0444
 30
0.000000
  70
    32
  0
VERTEX
  8
図枠
  5
3A1
 10
65.6733
 20
-66.0561
 30
0.000000
  70
    32
  0
VERTEX
  8
図枠
  5
3A2
 10
65.6885
 20
-66.0679
 30
0.000000
  70
    32
  0
VERTEX
  8
図枠
  5
3A3
 10
65.7038
 20
-66.0796
 30
0.000000
  70
    32
  0
VERTEX
  8
図枠
  5
3A4
 10
65.7191
 20
-66.0913
 30
0.000000
  70
    32
  0
VERTEX
  8
図枠
  5
3A5
 10
65.7343
 20
-66.1029
 30
0.000000
  70
    32
  0
VERTEX
  8
図枠
  5
3A6
 10
65.7496
 20
-66.1145
 30
0.000000
  70
    32
  0
VERTEX
  8
図枠
  5
3A7
 10
65.7650
 20
-66.1261
 30
0.000000
  70
    32
  0
VERTEX
  8
図枠
  5
3A8
 10
65.7803
 20
-66.1377
 30
0.000000
  70
    32
  0
VERTEX
  8
図枠
  5
3A9
 10
65.7957
 20
-66.1492
 30
0.000000
  70
    32
  0
VERTEX
  8
図枠
  5
3AA
 10
65.8110
 20
-66.1607
 30
0.000000
  70
    32
  0
VERTEX
  8
図枠
  5
3AB
 10
65.8264
 20
-66.1722
 30
0.000000
  70
    32
  0
VERTEX
  8
図枠
  5
3AC
 10
65.8418
 20
-66.1836
 30
0.000000
  70
    32
  0
VERTEX
  8
図枠
  5
3AD
 10
65.8572
 20
-66.1950
 30
0.000000
  70
    32
  0
VERTEX
  8
図枠
  5
3AE
 10
65.8727
 20
-66.2064
 30
0.000000
  70
    32
  0
VERTEX
  8
図枠
  5
3AF
 10
65.8881
 20
-66.2178
 30
0.000000
  70
    32
  0
VERTEX
  8
図枠
  5
3B0
 10
65.9036
 20
-66.2291
 30
0.000000
  70
    32
  0
VERTEX
  8
図枠
  5
3B1
 10
65.9191
 20
-66.2403
 30
0.000000
  70
    32
  0
VERTEX
  8
図枠
  5
3B2
 10
65.9346
 20
-66.2516
 30
0.000000
  70
    32
  0
VERTEX
  8
図枠
  5
3B3
 10
65.9501
 20
-66.2628
 30
0.000000
  70
    32
  0
VERTEX
  8
図枠
  5
3B4
 10
65.9657
 20
-66.2740
 30
0.000000
  70
    32
  0
VERTEX
  8
図枠
  5
3B5
 10
65.9813
 20
-66.2851
 30
0.000000
  70
    32
  0
VERTEX
  8
図枠
  5
3B6
 10
65.9968
 20
-66.2962
 30
0.000000
  70
    32
  0
VERTEX
  8
図枠
  5
3B7
 10
66.0124
 20
-66.3073
 30
0.000000
  70
    32
  0
VERTEX
  8
図枠
  5
3B8
 10
66.0281
 20
-66.3183
 30
0.000000
  70
    32
  0
VERTEX
  8
図枠
  5
3B9
 10
66.0437
 20
-66.3293
 30
0.000000
  70
    32
  0
VERTEX
  8
図枠
  5
3BA
 10
66.0594
 20
-66.3403
 30
0.000000
  70
    32
  0
VERTEX
  8
図枠
  5
3BB
 10
66.0751
 20
-66.3512
 30
0.000000
  70
    32
  0
VERTEX
  8
図枠
  5
3BC
 10
66.0908
 20
-66.3621
 30
0.000000
  70
    32
  0
VERTEX
  8
図枠
  5
3BD
 10
66.1065
 20
-66.3729
 30
0.000000
  70
    32
  0
VERTEX
  8
図枠
  5
3BE
 10
66.1222
 20
-66.3838
 30
0.000000
  70
    32
  0
VERTEX
  8
図枠
  5
3BF
 10
66.1380
 20
-66.3945
 30
0.000000
  70
    32
  0
VERTEX
  8
図枠
  5
3C0
 10
66.1538
 20
-66.4053
 30
0.000000
  70
    32
  0
VERTEX
  8
図枠
  5
3C1
 10
66.1696
 20
-66.4160
 30
0.000000
  70
    32
  0
VERTEX
  8
図枠
  5
3C2
 10
66.1854
 20
-66.4267
 30
0.000000
  70
    32
  0
VERTEX
  8
図枠
  5
3C3
 10
66.2012
 20
-66.4373
 30
0.000000
  70
    32
  0
VERTEX
  8
図枠
  5
3C4
 10
66.2171
 20
-66.4479
 30
0.000000
  70
    32
  0
VERTEX
  8
図枠
  5
3C5
 10
66.2330
 20
-66.4584
 30
0.000000
  70
    32
  0
VERTEX
  8
図枠
  5
3C6
 10
66.2489
 20
-66.4689
 30
0.000000
  70
    32
  0
VERTEX
  8
図枠
  5
3C7
 10
66.2648
 20
-66.4794
 30
0.000000
  70
    32
  0
VERTEX
  8
図枠
  5
3C8
 10
66.2807
 20
-66.4898
 30
0.000000
  70
    32
  0
VERTEX
  8
図枠
  5
3C9
 10
66.2967
 20
-66.5002
 30
0.000000
  70
    32
  0
VERTEX
  8
図枠
  5
3CA
 10
66.3127
 20
-66.5106
 30
0.000000
  70
    32
  0
VERTEX
  8
図枠
  5
3CB
 10
66.3287
 20
-66.5209
 30
0.000000
  70
    32
  0
VERTEX
  8
図枠
  5
3CC
 10
66.3447
 20
-66.5312
 30
0.000000
  70
    32
  0
VERTEX
  8
図枠
  5
3CD
 10
66.3608
 20
-66.5414
 30
0.000000
  70
    32
  0
VERTEX
  8
図枠
  5
3CE
 10
66.3769
 20
-66.5516
 30
0.000000
  70
    32
  0
VERTEX
  8
図枠
  5
3CF
 10
66.3930
 20
-66.5618
 30
0.000000
  70
    32
  0
VERTEX
  8
図枠
  5
3D0
 10
66.4091
 20
-66.5719
 30
0.000000
  70
    32
  0
VERTEX
  8
図枠
  5
3D1
 10
66.4253
 20
-66.5819
 30
0.000000
  70
    32
  0
VERTEX
  8
図枠
  5
3D2
 10
66.4414
 20
-66.5920
 30
0.000000
  70
    32
  0
VERTEX
  8
図枠
  5
3D3
 10
66.4576
 20
-66.6019
 30
0.000000
  70
    32
  0
VERTEX
  8
図枠
  5
3D4
 10
66.4738
 20
-66.6119
 30
0.000000
  70
    32
  0
VERTEX
  8
図枠
  5
3D5
 10
66.4901
 20
-66.6218
 30
0.000000
  70
    32
  0
VERTEX
  8
図枠
  5
3D6
 10
66.5063
 20
-66.6316
 30
0.000000
  70
    32
  0
VERTEX
  8
図枠
  5
3D7
 10
66.5226
 20
-66.6414
 30
0.000000
  70
    32
  0
SEQEND
  8
図枠
  5
3D8
  0
INSERT
  5
FB
  8
0
  6
CONTINUOUS
  2
*U37
 10
0.0
 20
0.0
 30
0.0
  0
LINE
  5
FC
  8
図枠
 10
64.131635883900003
 20
-64.457324796600005
 30
0.0
 11
67.331315883900004
 21
-64.457324796600005
 31
0.0
  0
LINE
  5
FD
  8
図枠
 10
77.783409436799985
 20
-65.399542351500003
 30
0.0
 11
80.304004603999999
 21
-65.399542351500003
 31
0.0
  0
LINE
  5
FE
  8
図枠
 10
78.704164603999999
 20
-68.599222351499989
 30
0.0
 11
78.381900295500003
 21
-67.4793343515
 31
0.0
  0
LINE
  5
FF
  8
図枠
 10
80.304004603999999
 20
-66.039478351499994
 30
0.0
 11
80.304004603999999
 21
-67.4793343515
 31
0.0
  0
INSERT
  5
100
  8
0
  6
CONTINUOUS
  2
*U38
 10
0.0
 20
0.0
 30
0.0
  0
LINE
  5
101
  8
図枠
 10
62.003363883900001
 20
-64.199662351499995
 30
0.0
 11
62.003363883900001
 21
-65.399542351500003
 31
0.0
  0
LINE
  5
102
  8
図枠
 10
62.003363883900001
 20
-64.199662351499995
 30
0.0
 11
60.8034838839
 21
-64.199662351499995
 31
0.0
  0
INSERT
  5
103
  8
0
  6
CONTINUOUS
  2
*U39
 10
0.0
 20
0.0
 30
0.0
  0
LINE
  5
104
  8
図枠
 10
55.204043883900013
 20
-62.599822351499988
 30
0.0
 11
55.204043883900013
 21
-64.199662351499995
 31
0.0
  0
LINE
  5
105
  8
図枠
 10
44.007962238099999
 20
-44.229797911200002
 30
0.0
 11
44.007962238099999
 21
-27.7314479112
 31
0.0
  0
LINE
  5
106
  8
図枠
 10
64.131635883900003
 20
-66.999382351500003
 30
0.0
 11
65.091539883899998
 21
-66.999382351500003
 31
0.0
  0
LINE
  5
107
  8
図枠
 10
55.204043883900013
 20
-68.199262351499996
 30
0.0
 11
58.403723883900007
 21
-68.199262351499996
 31
0.0
  0
LINE
  5
108
  8
図枠
 10
60.8034838839
 20
-65.799502351499996
 30
0.0
 11
60.8034838839
 21
-65.399542351500003
 31
0.0
  0
LINE
  5
109
  8
図枠
 10
44.007962238099999
 20
-44.229797911200002
 30
0.0
 11
44.007962238099999
 21
-52.728947911200002
 31
0.0
  0
LINE
  5
10A
  8
図枠
 10
77.369069611599997
 20
-63.959686351499997
 30
0.0
 11
77.251965923
 21
-63.552743937400002
 31
0.0
  0
LINE
  5
10B
  8
図枠
 10
79.942849201200005
 20
-46.175603311199993
 30
0.0
 11
79.942849201200005
 21
-50.783142511199998
 31
0.0
  0
LINE
  5
10C
  8
図枠
 10
75.335310001199986
 20
-47.32748811119999
 30
0.0
 11
79.942849201200005
 21
-46.175603311199993
 31
0.0
  0
LINE
  5
10D
  8
図枠
 10
24.009962238100002
 20
-44.229797911200002
 30
0.0
 11
24.009962238100002
 21
-69.727247911199996
 31
0.0
  0
LINE
  5
10E
  8
図枠
 10
69.621262348100004
 20
-66.478739388199998
 30
0.0
 11
69.478794948400008
 21
-66.618227953299993
 31
0.0
  0
LINE
  5
10F
  8
図枠
  6
BORDER
 10
66.613701438100009
 20
-48.479372911200002
 30
0.0
 11
81.396223038100004
 21
-48.479372911200002
 31
0.0
  0
CIRCLE
  5
110
  8
図枠
 10
70.069355838100009
 20
-48.479372911200002
 30
0.0
 40
2.303769599999999
  0
LINE
  5
111
  8
図枠
 10
24.009962238100002
 20
-61.228097911199988
 30
0.0
 11
139.99836223809999
 21
-61.228097911199988
 31
0.0
  0
LINE
  5
112
  8
図枠
 10
24.009962238100002
 20
-52.728947911200002
 30
0.0
 11
139.99836223809999
 21
-52.728947911200002
 31
0.0
  0
INSERT
  5
113
  8
0
  6
CONTINUOUS
  2
*U40
 10
0.0
 20
0.0
 30
0.0
  0
LINE
  5
114
  8
図枠
 10
55.204043883900013
 20
-66.999382351500003
 30
0.0
 11
55.204043883900013
 21
-68.199262351499996
 31
0.0
  0
POLYLINE
  8
図枠
  5
3D9
  66
     1
 10
0.000000
 20
0.000000
 30
0.000000
  70
     8
  0
VERTEX
  8
図枠
  5
3DA
 10
69.4788
 20
-66.6182
 30
0.000000
  70
    32
  0
VERTEX
  8
図枠
  5
3DB
 10
69.4928
 20
-66.6222
 30
0.000000
  70
    32
  0
VERTEX
  8
図枠
  5
3DC
 10
69.5068
 20
-66.6261
 30
0.000000
  70
    32
  0
VERTEX
  8
図枠
  5
3DD
 10
69.5208
 20
-66.6301
 30
0.000000
  70
    32
  0
VERTEX
  8
図枠
  5
3DE
 10
69.5348
 20
-66.6339
 30
0.000000
  70
    32
  0
VERTEX
  8
図枠
  5
3DF
 10
69.5489
 20
-66.6378
 30
0.000000
  70
    32
  0
VERTEX
  8
図枠
  5
3E0
 10
69.5629
 20
-66.6417
 30
0.000000
  70
    32
  0
VERTEX
  8
図枠
  5
3E1
 10
69.5770
 20
-66.6455
 30
0.000000
  70
    32
  0
VERTEX
  8
図枠
  5
3E2
 10
69.5911
 20
-66.6493
 30
0.000000
  70
    32
  0
VERTEX
  8
図枠
  5
3E3
 10
69.6052
 20
-66.6531
 30
0.000000
  70
    32
  0
VERTEX
  8
図枠
  5
3E4
 10
69.6193
 20
-66.6569
 30
0.000000
  70
    32
  0
VERTEX
  8
図枠
  5
3E5
 10
69.6334
 20
-66.6606
 30
0.000000
  70
    32
  0
VERTEX
  8
図枠
  5
3E6
 10
69.6475
 20
-66.6643
 30
0.000000
  70
    32
  0
VERTEX
  8
図枠
  5
3E7
 10
69.6617
 20
-66.6680
 30
0.000000
  70
    32
  0
VERTEX
  8
図枠
  5
3E8
 10
69.6758
 20
-66.6717
 30
0.000000
  70
    32
  0
VERTEX
  8
図枠
  5
3E9
 10
69.6900
 20
-66.6754
 30
0.000000
  70
    32
  0
VERTEX
  8
図枠
  5
3EA
 10
69.7042
 20
-66.6790
 30
0.000000
  70
    32
  0
VERTEX
  8
図枠
  5
3EB
 10
69.7184
 20
-66.6826
 30
0.000000
  70
    32
  0
VERTEX
  8
図枠
  5
3EC
 10
69.7326
 20
-66.6862
 30
0.000000
  70
    32
  0
VERTEX
  8
図枠
  5
3ED
 10
69.7468
 20
-66.6898
 30
0.000000
  70
    32
  0
VERTEX
  8
図枠
  5
3EE
 10
69.7611
 20
-66.6934
 30
0.000000
  70
    32
  0
VERTEX
  8
図枠
  5
3EF
 10
69.7753
 20
-66.6969
 30
0.000000
  70
    32
  0
VERTEX
  8
図枠
  5
3F0
 10
69.7896
 20
-66.7004
 30
0.000000
  70
    32
  0
VERTEX
  8
図枠
  5
3F1
 10
69.8039
 20
-66.7039
 30
0.000000
  70
    32
  0
VERTEX
  8
図枠
  5
3F2
 10
69.8181
 20
-66.7074
 30
0.000000
  70
    32
  0
VERTEX
  8
図枠
  5
3F3
 10
69.8324
 20
-66.7109
 30
0.000000
  70
    32
  0
VERTEX
  8
図枠
  5
3F4
 10
69.8467
 20
-66.7143
 30
0.000000
  70
    32
  0
VERTEX
  8
図枠
  5
3F5
 10
69.8611
 20
-66.7178
 30
0.000000
  70
    32
  0
VERTEX
  8
図枠
  5
3F6
 10
69.8754
 20
-66.7212
 30
0.000000
  70
    32
  0
VERTEX
  8
図枠
  5
3F7
 10
69.8897
 20
-66.7246
 30
0.000000
  70
    32
  0
VERTEX
  8
図枠
  5
3F8
 10
69.9041
 20
-66.7280
 30
0.000000
  70
    32
  0
VERTEX
  8
図枠
  5
3F9
 10
69.9184
 20
-66.7313
 30
0.000000
  70
    32
  0
VERTEX
  8
図枠
  5
3FA
 10
69.9328
 20
-66.7346
 30
0.000000
  70
    32
  0
VERTEX
  8
図枠
  5
3FB
 10
69.9472
 20
-66.7380
 30
0.000000
  70
    32
  0
VERTEX
  8
図枠
  5
3FC
 10
69.9616
 20
-66.7413
 30
0.000000
  70
    32
  0
VERTEX
  8
図枠
  5
3FD
 10
69.9760
 20
-66.7446
 30
0.000000
  70
    32
  0
VERTEX
  8
図枠
  5
3FE
 10
69.9904
 20
-66.7478
 30
0.000000
  70
    32
  0
VERTEX
  8
図枠
  5
3FF
 10
70.0048
 20
-66.7511
 30
0.000000
  70
    32
  0
VERTEX
  8
図枠
  5
400
 10
70.0193
 20
-66.7543
 30
0.000000
  70
    32
  0
VERTEX
  8
図枠
  5
401
 10
70.0337
 20
-66.7576
 30
0.000000
  70
    32
  0
VERTEX
  8
図枠
  5
402
 10
70.0482
 20
-66.7608
 30
0.000000
  70
    32
  0
VERTEX
  8
図枠
  5
403
 10
70.0626
 20
-66.7640
 30
0.000000
  70
    32
  0
VERTEX
  8
図枠
  5
404
 10
70.0771
 20
-66.7671
 30
0.000000
  70
    32
  0
VERTEX
  8
図枠
  5
405
 10
70.0916
 20
-66.7703
 30
0.000000
  70
    32
  0
VERTEX
  8
図枠
  5
406
 10
70.1061
 20
-66.7734
 30
0.000000
  70
    32
  0
VERTEX
  8
図枠
  5
407
 10
70.1206
 20
-66.7766
 30
0.000000
  70
    32
  0
VERTEX
  8
図枠
  5
408
 10
70.1351
 20
-66.7797
 30
0.000000
  70
    32
  0
VERTEX
  8
図枠
  5
409
 10
70.1496
 20
-66.7828
 30
0.000000
  70
    32
  0
VERTEX
  8
図枠
  5
40A
 10
70.1642
 20
-66.7859
 30
0.000000
  70
    32
  0
VERTEX
  8
図枠
  5
40B
 10
70.1787
 20
-66.7890
 30
0.000000
  70
    32
  0
VERTEX
  8
図枠
  5
40C
 10
70.1932
 20
-66.7920
 30
0.000000
  70
    32
  0
VERTEX
  8
図枠
  5
40D
 10
70.2078
 20
-66.7951
 30
0.000000
  70
    32
  0
VERTEX
  8
図枠
  5
40E
 10
70.2224
 20
-66.7981
 30
0.000000
  70
    32
  0
VERTEX
  8
図枠
  5
40F
 10
70.2369
 20
-66.8011
 30
0.000000
  70
    32
  0
VERTEX
  8
図枠
  5
410
 10
70.2515
 20
-66.8041
 30
0.000000
  70
    32
  0
VERTEX
  8
図枠
  5
411
 10
70.2661
 20
-66.8071
 30
0.000000
  70
    32
  0
VERTEX
  8
図枠
  5
412
 10
70.2807
 20
-66.8101
 30
0.000000
  70
    32
  0
VERTEX
  8
図枠
  5
413
 10
70.2953
 20
-66.8130
 30
0.000000
  70
    32
  0
VERTEX
  8
図枠
  5
414
 10
70.3099
 20
-66.8160
 30
0.000000
  70
    32
  0
VERTEX
  8
図枠
  5
415
 10
70.3246
 20
-66.8189
 30
0.000000
  70
    32
  0
VERTEX
  8
図枠
  5
416
 10
70.3392
 20
-66.8219
 30
0.000000
  70
    32
  0
VERTEX
  8
図枠
  5
417
 10
70.3538
 20
-66.8248
 30
0.000000
  70
    32
  0
VERTEX
  8
図枠
  5
418
 10
70.3685
 20
-66.8277
 30
0.000000
  70
    32
  0
VERTEX
  8
図枠
  5
419
 10
70.3831
 20
-66.8306
 30
0.000000
  70
    32
  0
VERTEX
  8
図枠
  5
41A
 10
70.3978
 20
-66.8334
 30
0.000000
  70
    32
  0
VERTEX
  8
図枠
  5
41B
 10
70.4124
 20
-66.8363
 30
0.000000
  70
    32
  0
VERTEX
  8
図枠
  5
41C
 10
70.4271
 20
-66.8392
 30
0.000000
  70
    32
  0
VERTEX
  8
図枠
  5
41D
 10
70.4418
 20
-66.8420
 30
0.000000
  70
    32
  0
VERTEX
  8
図枠
  5
41E
 10
70.4565
 20
-66.8448
 30
0.000000
  70
    32
  0
VERTEX
  8
図枠
  5
41F
 10
70.4712
 20
-66.8477
 30
0.000000
  70
    32
  0
VERTEX
  8
図枠
  5
420
 10
70.4859
 20
-66.8505
 30
0.000000
  70
    32
  0
VERTEX
  8
図枠
  5
421
 10
70.5006
 20
-66.8533
 30
0.000000
  70
    32
  0
VERTEX
  8
図枠
  5
422
 10
70.5153
 20
-66.8561
 30
0.000000
  70
    32
  0
VERTEX
  8
図枠
  5
423
 10
70.5300
 20
-66.8589
 30
0.000000
  70
    32
  0
VERTEX
  8
図枠
  5
424
 10
70.5447
 20
-66.8616
 30
0.000000
  70
    32
  0
VERTEX
  8
図枠
  5
425
 10
70.5595
 20
-66.8644
 30
0.000000
  70
    32
  0
VERTEX
  8
図枠
  5
426
 10
70.5742
 20
-66.8672
 30
0.000000
  70
    32
  0
VERTEX
  8
図枠
  5
427
 10
70.5890
 20
-66.8699
 30
0.000000
  70
    32
  0
VERTEX
  8
図枠
  5
428
 10
70.6037
 20
-66.8726
 30
0.000000
  70
    32
  0
VERTEX
  8
図枠
  5
429
 10
70.6185
 20
-66.8754
 30
0.000000
  70
    32
  0
VERTEX
  8
図枠
  5
42A
 10
70.6332
 20
-66.8781
 30
0.000000
  70
    32
  0
VERTEX
  8
図枠
  5
42B
 10
70.6480
 20
-66.8808
 30
0.000000
  70
    32
  0
VERTEX
  8
図枠
  5
42C
 10
70.6627
 20
-66.8835
 30
0.000000
  70
    32
  0
VERTEX
  8
図枠
  5
42D
 10
70.6775
 20
-66.8862
 30
0.000000
  70
    32
  0
VERTEX
  8
図枠
  5
42E
 10
70.6923
 20
-66.8889
 30
0.000000
  70
    32
  0
VERTEX
  8
図枠
  5
42F
 10
70.7071
 20
-66.8916
 30
0.000000
  70
    32
  0
VERTEX
  8
図枠
  5
430
 10
70.7219
 20
-66.8942
 30
0.000000
  70
    32
  0
VERTEX
  8
図枠
  5
431
 10
70.7367
 20
-66.8969
 30
0.000000
  70
    32
  0
VERTEX
  8
図枠
  5
432
 10
70.7515
 20
-66.8995
 30
0.000000
  70
    32
  0
VERTEX
  8
図枠
  5
433
 10
70.7663
 20
-66.9022
 30
0.000000
  70
    32
  0
VERTEX
  8
図枠
  5
434
 10
70.7811
 20
-66.9048
 30
0.000000
  70
    32
  0
VERTEX
  8
図枠
  5
435
 10
70.7959
 20
-66.9075
 30
0.000000
  70
    32
  0
VERTEX
  8
図枠
  5
436
 10
70.8107
 20
-66.9101
 30
0.000000
  70
    32
  0
VERTEX
  8
図枠
  5
437
 10
70.8255
 20
-66.9127
 30
0.000000
  70
    32
  0
VERTEX
  8
図枠
  5
438
 10
70.8403
 20
-66.9153
 30
0.000000
  70
    32
  0
VERTEX
  8
図枠
  5
439
 10
70.8552
 20
-66.9179
 30
0.000000
  70
    32
  0
VERTEX
  8
図枠
  5
43A
 10
70.8700
 20
-66.9205
 30
0.000000
  70
    32
  0
VERTEX
  8
図枠
  5
43B
 10
70.8848
 20
-66.9231
 30
0.000000
  70
    32
  0
VERTEX
  8
図枠
  5
43C
 10
70.8997
 20
-66.9257
 30
0.000000
  70
    32
  0
VERTEX
  8
図枠
  5
43D
 10
70.9145
 20
-66.9283
 30
0.000000
  70
    32
  0
VERTEX
  8
図枠
  5
43E
 10
70.9294
 20
-66.9309
 30
0.000000
  70
    32
  0
VERTEX
  8
図枠
  5
43F
 10
70.9442
 20
-66.9335
 30
0.000000
  70
    32
  0
VERTEX
  8
図枠
  5
440
 10
70.9591
 20
-66.9361
 30
0.000000
  70
    32
  0
VERTEX
  8
図枠
  5
441
 10
70.9739
 20
-66.9386
 30
0.000000
  70
    32
  0
VERTEX
  8
図枠
  5
442
 10
70.9888
 20
-66.9412
 30
0.000000
  70
    32
  0
VERTEX
  8
図枠
  5
443
 10
71.0036
 20
-66.9438
 30
0.000000
  70
    32
  0
VERTEX
  8
図枠
  5
444
 10
71.0185
 20
-66.9463
 30
0.000000
  70
    32
  0
VERTEX
  8
図枠
  5
445
 10
71.0333
 20
-66.9489
 30
0.000000
  70
    32
  0
VERTEX
  8
図枠
  5
446
 10
71.0482
 20
-66.9514
 30
0.000000
  70
    32
  0
VERTEX
  8
図枠
  5
447
 10
71.0631
 20
-66.9540
 30
0.000000
  70
    32
  0
VERTEX
  8
図枠
  5
448
 10
71.0779
 20
-66.9565
 30
0.000000
  70
    32
  0
VERTEX
  8
図枠
  5
449
 10
71.0928
 20
-66.9590
 30
0.000000
  70
    32
  0
VERTEX
  8
図枠
  5
44A
 10
71.1077
 20
-66.9616
 30
0.000000
  70
    32
  0
VERTEX
  8
図枠
  5
44B
 10
71.1226
 20
-66.9641
 30
0.000000
  70
    32
  0
VERTEX
  8
図枠
  5
44C
 10
71.1374
 20
-66.9666
 30
0.000000
  70
    32
  0
VERTEX
  8
図枠
  5
44D
 10
71.1523
 20
-66.9692
 30
0.000000
  70
    32
  0
VERTEX
  8
図枠
  5
44E
 10
71.1672
 20
-66.9717
 30
0.000000
  70
    32
  0
VERTEX
  8
図枠
  5
44F
 10
71.1821
 20
-66.9742
 30
0.000000
  70
    32
  0
VERTEX
  8
図枠
  5
450
 10
71.1970
 20
-66.9767
 30
0.000000
  70
    32
  0
VERTEX
  8
図枠
  5
451
 10
71.2118
 20
-66.9793
 30
0.000000
  70
    32
  0
VERTEX
  8
図枠
  5
452
 10
71.2267
 20
-66.9818
 30
0.000000
  70
    32
  0
VERTEX
  8
図枠
  5
453
 10
71.2416
 20
-66.9843
 30
0.000000
  70
    32
  0
VERTEX
  8
図枠
  5
454
 10
71.2565
 20
-66.9868
 30
0.000000
  70
    32
  0
VERTEX
  8
図枠
  5
455
 10
71.2714
 20
-66.9893
 30
0.000000
  70
    32
  0
VERTEX
  8
図枠
  5
456
 10
71.2863
 20
-66.9918
 30
0.000000
  70
    32
  0
VERTEX
  8
図枠
  5
457
 10
71.3011
 20
-66.9944
 30
0.000000
  70
    32
  0
VERTEX
  8
図枠
  5
458
 10
71.3160
 20
-66.9969
 30
0.000000
  70
    32
  0
VERTEX
  8
図枠
  5
459
 10
71.3309
 20
-66.9994
 30
0.000000
  70
    32
  0
SEQEND
  8
図枠
  5
45A
  0
LINE
  5
116
  8
図枠
 10
75.335310001199986
 20
-47.32748811119999
 30
0.0
 11
75.335310001199986
 21
-49.6312577112
 31
0.0
  0
LINE
  5
117
  8
図枠
 10
73.104724603999983
 20
-66.039478351499994
 30
0.0
 11
73.104724603999983
 21
-67.4793343515
 31
0.0
  0
INSERT
  5
118
  8
0
  6
CONTINUOUS
  2
*U41
 10
0.0
 20
0.0
 30
0.0
  0
LINE
  5
119
  8
図枠
 10
75.335310001199986
 20
-47.32748811119999
 30
0.0
 11
75.335310001199986
 21
-49.6312577112
 31
0.0
  0
LINE
  5
11A
  8
図枠
 10
24.009962238100002
 20
-44.229797911200002
 30
0.0
 11
139.99836223809999
 21
-44.229797911200002
 31
0.0
  0
LINE
  5
11B
  8
図枠
 10
58.8036838839
 20
-64.199662351499995
 30
0.0
 11
57.203843883900007
 21
-64.199662351499995
 31
0.0
  0
INSERT
  5
11C
  8
0
  6
CONTINUOUS
  2
*U42
 10
0.0
 20
0.0
 30
0.0
  0
LINE
  5
11D
  8
図枠
 10
79.942849201200005
 20
-46.175603311199993
 30
0.0
 11
79.942849201200005
 21
-50.783142511199998
 31
0.0
  0
LINE
  5
11E
  8
図枠
 10
57.203843883900007
 20
-66.599422351499996
 30
0.0
 11
57.203843883900007
 21
-65.399542351500003
 31
0.0
  0
LINE
  5
11F
  8
図枠
 10
56.006762238100002
 20
-56.978522911200002
 30
0.0
 11
82.004162238099994
 21
-56.978522911200002
 31
0.0
  0
LINE
  5
120
  8
図枠
 10
78.381900295500003
 20
-67.4793343515
 30
0.0
 11
80.304004603999999
 21
-67.4793343515
 31
0.0
  0
LINE
  5
121
  8
図枠
 10
75.335310001199986
 20
-49.6312577112
 30
0.0
 11
79.942849201200005
 21
-50.783142511199998
 31
0.0
  0
LINE
  5
122
  8
図枠
 10
76.464388603999993
 20
-68.599222351499989
 30
0.0
 11
76.13588812399999
 21
-67.4793343515
 31
0.0
  0
LINE
  5
123
  8
図枠
 10
77.9675604703
 20
-66.039478351499994
 30
0.0
 11
77.783409436799985
 21
-65.399542351500003
 31
0.0
  0
LINE
  5
124
  8
図枠
 10
75.335310001199986
 20
-49.6312577112
 30
0.0
 11
79.942849201200005
 21
-50.783142511199998
 31
0.0
  0
LINE
  5
125
  8
図枠
 10
77.251965923
 20
-63.552743937400002
 30
0.0
 11
77.904244603999999
 21
-62.599822351499988
 31
0.0
  0
LINE
  5
126
  8
図枠
 10
58.403723883900007
 20
-62.599822351499988
 30
0.0
 11
55.204043883900013
 21
-62.599822351499988
 31
0.0
  0
POLYLINE
  8
図枠
  5
45B
  66
     1
 10
0.000000
 20
0.000000
 30
0.000000
  70
     8
  0
VERTEX
  8
図枠
  5
45C
 10
66.8788
 20
-64.9098
 30
0.000000
  70
    32
  0
VERTEX
  8
図枠
  5
45D
 10
66.8841
 20
-64.9157
 30
0.000000
  70
    32
  0
VERTEX
  8
図枠
  5
45E
 10
66.8894
 20
-64.9216
 30
0.000000
  70
    32
  0
VERTEX
  8
図枠
  5
45F
 10
66.8946
 20
-64.9275
 30
0.000000
  70
    32
  0
VERTEX
  8
図枠
  5
460
 10
66.8999
 20
-64.9334
 30
0.000000
  70
    32
  0
VERTEX
  8
図枠
  5
461
 10
66.9052
 20
-64.9393
 30
0.000000
  70
    32
  0
VERTEX
  8
図枠
  5
462
 10
66.9105
 20
-64.9451
 30
0.000000
  70
    32
  0
VERTEX
  8
図枠
  5
463
 10
66.9158
 20
-64.9510
 30
0.000000
  70
    32
  0
VERTEX
  8
図枠
  5
464
 10
66.9210
 20
-64.9569
 30
0.000000
  70
    32
  0
VERTEX
  8
図枠
  5
465
 10
66.9263
 20
-64.9628
 30
0.000000
  70
    32
  0
VERTEX
  8
図枠
  5
466
 10
66.9316
 20
-64.9687
 30
0.000000
  70
    32
  0
VERTEX
  8
図枠
  5
467
 10
66.9369
 20
-64.9746
 30
0.000000
  70
    32
  0
VERTEX
  8
図枠
  5
468
 10
66.9422
 20
-64.9804
 30
0.000000
  70
    32
  0
VERTEX
  8
図枠
  5
469
 10
66.9475
 20
-64.9863
 30
0.000000
  70
    32
  0
VERTEX
  8
図枠
  5
46A
 10
66.9527
 20
-64.9922
 30
0.000000
  70
    32
  0
VERTEX
  8
図枠
  5
46B
 10
66.9580
 20
-64.9981
 30
0.000000
  70
    32
  0
VERTEX
  8
図枠
  5
46C
 10
66.9633
 20
-65.0039
 30
0.000000
  70
    32
  0
VERTEX
  8
図枠
  5
46D
 10
66.9686
 20
-65.0098
 30
0.000000
  70
    32
  0
VERTEX
  8
図枠
  5
46E
 10
66.9739
 20
-65.0157
 30
0.000000
  70
    32
  0
VERTEX
  8
図枠
  5
46F
 10
66.9792
 20
-65.0216
 30
0.000000
  70
    32
  0
VERTEX
  8
図枠
  5
470
 10
66.9845
 20
-65.0274
 30
0.000000
  70
    32
  0
VERTEX
  8
図枠
  5
471
 10
66.9898
 20
-65.0333
 30
0.000000
  70
    32
  0
VERTEX
  8
図枠
  5
472
 10
66.9950
 20
-65.0392
 30
0.000000
  70
    32
  0
VERTEX
  8
図枠
  5
473
 10
67.0003
 20
-65.0450
 30
0.000000
  70
    32
  0
VERTEX
  8
図枠
  5
474
 10
67.0056
 20
-65.0509
 30
0.000000
  70
    32
  0
VERTEX
  8
図枠
  5
475
 10
67.0109
 20
-65.0567
 30
0.000000
  70
    32
  0
VERTEX
  8
図枠
  5
476
 10
67.0162
 20
-65.0626
 30
0.000000
  70
    32
  0
VERTEX
  8
図枠
  5
477
 10
67.0215
 20
-65.0685
 30
0.000000
  70
    32
  0
VERTEX
  8
図枠
  5
478
 10
67.0268
 20
-65.0743
 30
0.000000
  70
    32
  0
VERTEX
  8
図枠
  5
479
 10
67.0321
 20
-65.0802
 30
0.000000
  70
    32
  0
VERTEX
  8
図枠
  5
47A
 10
67.0374
 20
-65.0860
 30
0.000000
  70
    32
  0
VERTEX
  8
図枠
  5
47B
 10
67.0427
 20
-65.0919
 30
0.000000
  70
    32
  0
VERTEX
  8
図枠
  5
47C
 10
67.0480
 20
-65.0977
 30
0.000000
  70
    32
  0
VERTEX
  8
図枠
  5
47D
 10
67.0533
 20
-65.1035
 30
0.000000
  70
    32
  0
VERTEX
  8
図枠
  5
47E
 10
67.0587
 20
-65.1094
 30
0.000000
  70
    32
  0
VERTEX
  8
図枠
  5
47F
 10
67.0640
 20
-65.1152
 30
0.000000
  70
    32
  0
VERTEX
  8
図枠
  5
480
 10
67.0693
 20
-65.1210
 30
0.000000
  70
    32
  0
VERTEX
  8
図枠
  5
481
 10
67.0746
 20
-65.1269
 30
0.000000
  70
    32
  0
VERTEX
  8
図枠
  5
482
 10
67.0799
 20
-65.1327
 30
0.000000
  70
    32
  0
VERTEX
  8
図枠
  5
483
 10
67.0852
 20
-65.1385
 30
0.000000
  70
    32
  0
VERTEX
  8
図枠
  5
484
 10
67.0906
 20
-65.1443
 30
0.000000
  70
    32
  0
VERTEX
  8
図枠
  5
485
 10
67.0959
 20
-65.1501
 30
0.000000
  70
    32
  0
VERTEX
  8
図枠
  5
486
 10
67.1012
 20
-65.1560
 30
0.000000
  70
    32
  0
VERTEX
  8
図枠
  5
487
 10
67.1065
 20
-65.1618
 30
0.000000
  70
    32
  0
VERTEX
  8
図枠
  5
488
 10
67.1119
 20
-65.1676
 30
0.000000
  70
    32
  0
VERTEX
  8
図枠
  5
489
 10
67.1172
 20
-65.1734
 30
0.000000
  70
    32
  0
VERTEX
  8
図枠
  5
48A
 10
67.1225
 20
-65.1792
 30
0.000000
  70
    32
  0
VERTEX
  8
図枠
  5
48B
 10
67.1279
 20
-65.1850
 30
0.000000
  70
    32
  0
VERTEX
  8
図枠
  5
48C
 10
67.1332
 20
-65.1907
 30
0.000000
  70
    32
  0
VERTEX
  8
図枠
  5
48D
 10
67.1386
 20
-65.1965
 30
0.000000
  70
    32
  0
VERTEX
  8
図枠
  5
48E
 10
67.1439
 20
-65.2023
 30
0.000000
  70
    32
  0
VERTEX
  8
図枠
  5
48F
 10
67.1492
 20
-65.2081
 30
0.000000
  70
    32
  0
VERTEX
  8
図枠
  5
490
 10
67.1546
 20
-65.2138
 30
0.000000
  70
    32
  0
VERTEX
  8
図枠
  5
491
 10
67.1600
 20
-65.2196
 30
0.000000
  70
    32
  0
VERTEX
  8
図枠
  5
492
 10
67.1653
 20
-65.2254
 30
0.000000
  70
    32
  0
VERTEX
  8
図枠
  5
493
 10
67.1707
 20
-65.2311
 30
0.000000
  70
    32
  0
VERTEX
  8
図枠
  5
494
 10
67.1760
 20
-65.2369
 30
0.000000
  70
    32
  0
VERTEX
  8
図枠
  5
495
 10
67.1814
 20
-65.2426
 30
0.000000
  70
    32
  0
VERTEX
  8
図枠
  5
496
 10
67.1868
 20
-65.2484
 30
0.000000
  70
    32
  0
VERTEX
  8
図枠
  5
497
 10
67.1921
 20
-65.2541
 30
0.000000
  70
    32
  0
VERTEX
  8
図枠
  5
498
 10
67.1975
 20
-65.2598
 30
0.000000
  70
    32
  0
VERTEX
  8
図枠
  5
499
 10
67.2029
 20
-65.2656
 30
0.000000
  70
    32
  0
VERTEX
  8
図枠
  5
49A
 10
67.2083
 20
-65.2713
 30
0.000000
  70
    32
  0
VERTEX
  8
図枠
  5
49B
 10
67.2137
 20
-65.2770
 30
0.000000
  70
    32
  0
VERTEX
  8
図枠
  5
49C
 10
67.2190
 20
-65.2827
 30
0.000000
  70
    32
  0
VERTEX
  8
図枠
  5
49D
 10
67.2244
 20
-65.2884
 30
0.000000
  70
    32
  0
VERTEX
  8
図枠
  5
49E
 10
67.2298
 20
-65.2941
 30
0.000000
  70
    32
  0
VERTEX
  8
図枠
  5
49F
 10
67.2352
 20
-65.2998
 30
0.000000
  70
    32
  0
VERTEX
  8
図枠
  5
4A0
 10
67.2406
 20
-65.3055
 30
0.000000
  70
    32
  0
VERTEX
  8
図枠
  5
4A1
 10
67.2460
 20
-65.3112
 30
0.000000
  70
    32
  0
VERTEX
  8
図枠
  5
4A2
 10
67.2515
 20
-65.3168
 30
0.000000
  70
    32
  0
VERTEX
  8
図枠
  5
4A3
 10
67.2569
 20
-65.3225
 30
0.000000
  70
    32
  0
VERTEX
  8
図枠
  5
4A4
 10
67.2623
 20
-65.3282
 30
0.000000
  70
    32
  0
VERTEX
  8
図枠
  5
4A5
 10
67.2677
 20
-65.3338
 30
0.000000
  70
    32
  0
VERTEX
  8
図枠
  5
4A6
 10
67.2731
 20
-65.3395
 30
0.000000
  70
    32
  0
VERTEX
  8
図枠
  5
4A7
 10
67.2786
 20
-65.3451
 30
0.000000
  70
    32
  0
VERTEX
  8
図枠
  5
4A8
 10
67.2840
 20
-65.3507
 30
0.000000
  70
    32
  0
VERTEX
  8
図枠
  5
4A9
 10
67.2894
 20
-65.3564
 30
0.000000
  70
    32
  0
VERTEX
  8
図枠
  5
4AA
 10
67.2949
 20
-65.3620
 30
0.000000
  70
    32
  0
VERTEX
  8
図枠
  5
4AB
 10
67.3003
 20
-65.3676
 30
0.000000
  70
    32
  0
VERTEX
  8
図枠
  5
4AC
 10
67.3058
 20
-65.3732
 30
0.000000
  70
    32
  0
VERTEX
  8
図枠
  5
4AD
 10
67.3112
 20
-65.3788
 30
0.000000
  70
    32
  0
VERTEX
  8
図枠
  5
4AE
 10
67.3167
 20
-65.3844
 30
0.000000
  70
    32
  0
VERTEX
  8
図枠
  5
4AF
 10
67.3222
 20
-65.3900
 30
0.000000
  70
    32
  0
VERTEX
  8
図枠
  5
4B0
 10
67.3276
 20
-65.3956
 30
0.000000
  70
    32
  0
VERTEX
  8
図枠
  5
4B1
 10
67.3331
 20
-65.4012
 30
0.000000
  70
    32
  0
VERTEX
  8
図枠
  5
4B2
 10
67.3386
 20
-65.4067
 30
0.000000
  70
    32
  0
VERTEX
  8
図枠
  5
4B3
 10
67.3441
 20
-65.4123
 30
0.000000
  70
    32
  0
VERTEX
  8
図枠
  5
4B4
 10
67.3496
 20
-65.4178
 30
0.000000
  70
    32
  0
VERTEX
  8
図枠
  5
4B5
 10
67.3550
 20
-65.4234
 30
0.000000
  70
    32
  0
VERTEX
  8
図枠
  5
4B6
 10
67.3605
 20
-65.4289
 30
0.000000
  70
    32
  0
VERTEX
  8
図枠
  5
4B7
 10
67.3660
 20
-65.4344
 30
0.000000
  70
    32
  0
VERTEX
  8
図枠
  5
4B8
 10
67.3716
 20
-65.4399
 30
0.000000
  70
    32
  0
VERTEX
  8
図枠
  5
4B9
 10
67.3771
 20
-65.4455
 30
0.000000
  70
    32
  0
VERTEX
  8
図枠
  5
4BA
 10
67.3826
 20
-65.4510
 30
0.000000
  70
    32
  0
VERTEX
  8
図枠
  5
4BB
 10
67.3881
 20
-65.4564
 30
0.000000
  70
    32
  0
VERTEX
  8
図枠
  5
4BC
 10
67.3936
 20
-65.4619
 30
0.000000
  70
    32
  0
VERTEX
  8
図枠
  5
4BD
 10
67.3992
 20
-65.4674
 30
0.000000
  70
    32
  0
VERTEX
  8
図枠
  5
4BE
 10
67.4047
 20
-65.4729
 30
0.000000
  70
    32
  0
VERTEX
  8
図枠
  5
4BF
 10
67.4103
 20
-65.4783
 30
0.000000
  70
    32
  0
VERTEX
  8
図枠
  5
4C0
 10
67.4158
 20
-65.4838
 30
0.000000
  70
    32
  0
VERTEX
  8
図枠
  5
4C1
 10
67.4214
 20
-65.4892
 30
0.000000
  70
    32
  0
VERTEX
  8
図枠
  5
4C2
 10
67.4269
 20
-65.4947
 30
0.000000
  70
    32
  0
VERTEX
  8
図枠
  5
4C3
 10
67.4325
 20
-65.5001
 30
0.000000
  70
    32
  0
VERTEX
  8
図枠
  5
4C4
 10
67.4381
 20
-65.5055
 30
0.000000
  70
    32
  0
VERTEX
  8
図枠
  5
4C5
 10
67.4436
 20
-65.5109
 30
0.000000
  70
    32
  0
VERTEX
  8
図枠
  5
4C6
 10
67.4492
 20
-65.5163
 30
0.000000
  70
    32
  0
VERTEX
  8
図枠
  5
4C7
 10
67.4548
 20
-65.5217
 30
0.000000
  70
    32
  0
VERTEX
  8
図枠
  5
4C8
 10
67.4604
 20
-65.5271
 30
0.000000
  70
    32
  0
VERTEX
  8
図枠
  5
4C9
 10
67.4660
 20
-65.5324
 30
0.000000
  70
    32
  0
VERTEX
  8
図枠
  5
4CA
 10
67.4716
 20
-65.5378
 30
0.000000
  70
    32
  0
VERTEX
  8
図枠
  5
4CB
 10
67.4772
 20
-65.5432
 30
0.000000
  70
    32
  0
VERTEX
  8
図枠
  5
4CC
 10
67.4828
 20
-65.5485
 30
0.000000
  70
    32
  0
VERTEX
  8
図枠
  5
4CD
 10
67.4885
 20
-65.5538
 30
0.000000
  70
    32
  0
VERTEX
  8
図枠
  5
4CE
 10
67.4941
 20
-65.5591
 30
0.000000
  70
    32
  0
VERTEX
  8
図枠
  5
4CF
 10
67.4997
 20
-65.5645
 30
0.000000
  70
    32
  0
VERTEX
  8
図枠
  5
4D0
 10
67.5054
 20
-65.5698
 30
0.000000
  70
    32
  0
VERTEX
  8
図枠
  5
4D1
 10
67.5110
 20
-65.5750
 30
0.000000
  70
    32
  0
VERTEX
  8
図枠
  5
4D2
 10
67.5167
 20
-65.5803
 30
0.000000
  70
    32
  0
VERTEX
  8
図枠
  5
4D3
 10
67.5223
 20
-65.5856
 30
0.000000
  70
    32
  0
VERTEX
  8
図枠
  5
4D4
 10
67.5280
 20
-65.5909
 30
0.000000
  70
    32
  0
VERTEX
  8
図枠
  5
4D5
 10
67.5337
 20
-65.5961
 30
0.000000
  70
    32
  0
VERTEX
  8
図枠
  5
4D6
 10
67.5394
 20
-65.6013
 30
0.000000
  70
    32
  0
VERTEX
  8
図枠
  5
4D7
 10
67.5450
 20
-65.6066
 30
0.000000
  70
    32
  0
VERTEX
  8
図枠
  5
4D8
 10
67.5507
 20
-65.6118
 30
0.000000
  70
    32
  0
VERTEX
  8
図枠
  5
4D9
 10
67.5564
 20
-65.6170
 30
0.000000
  70
    32
  0
VERTEX
  8
図枠
  5
4DA
 10
67.5622
 20
-65.6222
 30
0.000000
  70
    32
  0
VERTEX
  8
図枠
  5
4DB
 10
67.5679
 20
-65.6274
 30
0.000000
  70
    32
  0
SEQEND
  8
図枠
  5
4DC
  0
LINE
  5
128
  8
図枠
 10
64.131635883900003
 20
-64.039678351500001
 30
0.0
 11
68.131235883900004
 21
-64.039678351500001
 31
0.0
  0
INSERT
  5
129
  8
0
  6
CONTINUOUS
  2
*U43
 10
0.0
 20
0.0
 30
0.0
  0
LINE
  5
12A
  8
図枠
 10
54.283252922999999
 20
-64.199662351499995
 30
0.0
 11
54.283252922999999
 21
-65.399542351500003
 31
0.0
  0
INSERT
  5
12B
  8
0
  6
CONTINUOUS
  2
*U44
 10
0.0
 20
0.0
 30
0.0
  0
INSERT
  5
12C
  8
0
  6
CONTINUOUS
  2
*U45
 10
0.0
 20
0.0
 30
0.0
  0
CIRCLE
  5
12D
  8
図枠
 10
70.069355838100009
 20
-48.479372911200002
 30
0.0
 40
1.151884799999999
  0
CIRCLE
  5
12E
  8
図枠
 10
70.069355838100009
 20
-48.479372911200002
 30
0.0
 40
2.303769599999999
  0
LINE
  5
12F
  8
図枠
 10
75.335310001199986
 20
-47.32748811119999
 30
0.0
 11
75.335310001199986
 21
-49.6312577112
 31
0.0
  0
LINE
  5
130
  8
図枠
 10
75.335310001199986
 20
-47.32748811119999
 30
0.0
 11
79.942849201200005
 21
-46.175603311199993
 31
0.0
  0
LINE
  5
131
  8
図枠
 10
81.004262238099997
 20
-33.230897911200003
 30
0.0
 11
81.004262238099997
 21
-27.7314479112
 31
0.0
  0
INSERT
  5
132
  8
0
  6
CONTINUOUS
  2
*U46
 10
0.0
 20
0.0
 30
0.0
  0
INSERT
  5
133
  8
0
  6
CONTINUOUS
  2
*U47
 10
0.0
 20
0.0
 30
0.0
  0
INSERT
  5
134
  8
0
  6
CONTINUOUS
  2
*U48
 10
0.0
 20
0.0
 30
0.0
  0
LINE
  5
135
  8
図枠
 10
24.009962238100002
 20
-27.7314479112
 30
0.0
 11
24.009962238100002
 21
-44.229797911200002
 31
0.0
  0
LINE
  5
136
  8
図枠
 10
55.204043883900013
 20
-66.599422351499996
 30
0.0
 11
57.203843883900007
 21
-66.599422351499996
 31
0.0
  0
LINE
  5
137
  8
ﾚｲﾔ_1
  6
BORDER
 62
     3
 10
-42.128169014100003
 20
60.884272300500001
 30
0.0
 11
-28.128169014099999
 21
60.884272300500001
 31
0.0
  0
ARC
  5
138
  8
ﾚｲﾔ_1
 62
     5
 10
-25.628169014099999
 20
50.884272300500001
 30
0.0
 40
2.5
 50
270.0
 51
0.0
  0
LINE
  5
139
  8
ﾚｲﾔ_1
 62
     5
 10
-66.128169014099996
 20
48.384272300500001
 30
0.0
 11
-25.628169014099999
 21
48.384272300500001
 31
0.0
  0
LINE
  5
13A
  8
ﾚｲﾔ_1
 62
     5
 10
-23.128169014099999
 20
70.884272300500001
 30
0.0
 11
-23.128169014099999
 21
50.884272300500001
 31
0.0
  0
ARC
  5
13B
  8
ﾚｲﾔ_1
 62
     5
 10
-25.628169014099999
 20
70.884272300500001
 30
0.0
 40
2.5
 50
0.0
 51
90.0
  0
LINE
  5
13C
  8
ﾚｲﾔ_1
 62
     5
 10
-25.628169014099999
 20
73.384272300500001
 30
0.0
 11
-66.128169014099996
 21
73.384272300500001
 31
0.0
  0
LINE
  5
13D
  8
ﾚｲﾔ_1
 62
     5
 10
-64.528169014100001
 20
73.384272300500001
 30
0.0
 11
-64.528169014100001
 21
48.384272300500001
 31
0.0
  0
LINE
  5
13E
  8
ﾚｲﾔ_1
 62
     5
 10
-66.128169014099996
 20
73.384272300500001
 30
0.0
 11
-66.128169014099996
 21
48.384272300500001
 31
0.0
  0
LINE
  5
13F
  8
ﾚｲﾔ_1
 62
     5
 10
-64.528169014100001
 20
3.7760563380000001
 30
0.0
 11
-66.128169014099996
 21
3.7760563380000001
 31
0.0
  0
DIMENSION
  5
14E
  8
寸法線
  2
*D6
 10
-66.128169014099996
 20
38.384272300500001
 30
0.0
 11
-50.628169014099988
 21
38.384272300500001
 31
0.0
 70
   128
  1
<>
 13
-66.128169014099996
 23
48.384272300500001
 33
0.0
 14
-35.128169014100003
 24
57.384272300500001
 34
0.0
 50
180.0
  0
DIMENSION
  5
15D
  8
寸法線
  2
*D7
 10
-76.128169014099996
 20
73.384272300500001
 30
0.0
 11
-76.128169014099996
 21
60.884272300500001
 31
0.0
 70
   128
  1
<>
 13
-66.128169014099996
 23
73.384272300500001
 33
0.0
 14
-66.128169014099996
 24
48.384272300500001
 34
0.0
 50
90.0
  0
DIMENSION
  5
16C
  8
寸法線
  2
*D8
 10
-13.128169014099999
 20
48.384272300500001
 30
0.0
 11
-13.128169014099999
 21
54.634272300500001
 31
0.0
 70
   128
  1
<>
 13
-23.128169014099999
 23
48.384272300500001
 33
0.0
 14
-28.128169014099999
 24
60.884272300500001
 34
0.0
 50
90.0
  0
DIMENSION
  5
17B
  8
寸法線
  2
*D9
 10
-35.128169014100003
 20
38.384272300500001
 30
0.0
 11
-29.128169014099999
 21
38.384272300500001
 31
0.0
 70
   128
  1
<>
 13
-35.128169014100003
 23
57.384272300500001
 33
0.0
 14
-23.128169014099999
 24
48.384272300500001
 34
0.0
 50
180.0
  0
DIMENSION
  5
18A
  8
寸法線
  2
*D10
 10
-47.878169014099988
 20
63.134272300500001
 30
0.0
 11
-47.878169014099988
 21
60.884272300500001
 31
0.0
 70
   128
  1
<>
 13
-37.878169014100003
 23
63.134272300500001
 33
0.0
 14
-37.878169014100003
 24
58.634272300500001
 34
0.0
 50
90.0
  0
DIMENSION
  5
199
  8
寸法線
  2
*D11
 10
-13.128169014099999
 20
60.884272300500001
 30
0.0
 11
-13.128169014099999
 21
67.134272300500001
 31
0.0
 70
   128
  1
<>
 13
-28.128169014099999
 23
60.884272300500001
 33
0.0
 14
-23.128169014099999
 24
73.384272300500001
 34
0.0
 50
90.0
  0
DIMENSION
  5
1A8
  8
寸法線
  2
*D12
 10
-30.128169014099999
 20
79.933539754099996
 30
0.0
 11
-35.128169014100003
 21
79.933539754099996
 31
0.0
 70
   128
  1
<>
 13
-30.128169014099999
 23
60.884272300500001
 33
0.0
 14
-40.128169014099988
 24
60.884272300500001
 34
0.0
  0
ARC
  5
1A9
  8
図枠
 10
65.091539883899998
 20
-63.959686351499997
 30
0.0
 40
3.0396959999999988
 50
331.39928138329998
 51
358.49204224580001
  0
LINE
  5
1AA
  8
図枠
 10
57.203843883900007
 20
-64.199662351499995
 30
0.0
 11
57.203843883900007
 21
-63.799702351500002
 31
0.0
  0
LINE
  5
1AB
  8
図枠
 10
62.003363883900001
 20
-62.599822351499988
 30
0.0
 11
58.8036838839
 21
-62.599822351499988
 31
0.0
  0
LINE
  5
1AC
  8
図枠
 10
24.009962238100002
 20
-38.730347911199999
 30
0.0
 11
139.99836223809999
 21
-38.730347911199999
 31
0.0
  0
CIRCLE
  5
1AD
  8
図枠
 10
70.069355838100009
 20
-48.479372911200002
 30
0.0
 40
1.151884799999999
  0
INSERT
  5
1AE
  8
0
  6
CONTINUOUS
  2
*U49
 10
0.0
 20
0.0
 30
0.0
  0
INSERT
  5
1AF
  8
0
  6
CONTINUOUS
  2
*U50
 10
0.0
 20
0.0
 30
0.0
  0
LINE
  5
1B0
  8
図枠
 10
79.942849201200005
 20
-46.175603311199993
 30
0.0
 11
79.942849201200005
 21
-50.783142511199998
 31
0.0
  0
LINE
  5
1B1
  8
図枠
 10
73.104724603999983
 20
-66.039478351499994
 30
0.0
 11
75.713530363999993
 21
-66.039478351499994
 31
0.0
  0
DIMENSION
  5
1BA
  8
寸法線
  2
*D13
 10
-25.628169014099999
 20
70.884272300500001
 30
0.0
 11
-10.0331201092
 21
86.122422897500002
 31
0.0
 70
   132
  1
4-R <>
 15
-23.8604020611
 25
72.652039253400005
 35
0.0
 40
0.0
  0
LINE
  5
1BB
  8
図枠
 62
     5
 10
-134.97413776190001
 20
-69.727247911199996
 30
0.0
 11
139.99836223809999
 21
-69.727247911199996
 31
0.0
  0
LINE
  5
1BC
  8
図枠
  6
DOT
 10
-140.97353776189999
 20
-75.476672911199984
 30
0.0
 11
145.99776223809999
 21
-75.476672911199984
 31
0.0
  0
LINE
  5
1BD
  8
図枠
 62
     5
 10
-134.97413776190001
 20
120.2537520888
 30
0.0
 11
139.99836223809999
 21
120.2537520888
 31
0.0
  0
LINE
  5
1BE
  8
図枠
  6
DOT
 10
-140.97353776189999
 20
126.0031770888
 30
0.0
 11
145.99776223809999
 21
126.0031770888
 31
0.0
  0
LINE
  5
1BF
  8
ﾚｲﾔ_1
 62
     5
 10
-64.528169014100001
 20
3.7760563380000001
 30
0.0
 11
-64.528169014100001
 21
-8.2239436619999982
 31
0.0
  0
LINE
  5
1C0
  8
ﾚｲﾔ_1
 62
     5
 10
-66.128169014099996
 20
3.7760563380000001
 30
0.0
 11
-66.128169014099996
 21
-8.2239436619999982
 31
0.0
  0
DIMENSION
  5
1CD
  8
寸法線
  2
*D51
 10
-55.92169215428418
 20
-4.654991930211053
 30
0.0
 11
-57.695858977
 21
-2.4071947534999971
 31
0.0
 70
   133
  1
<>
 13
-64.528169014100001
 23
32.526056337999997
 33
0.0
 14
-23.128169014099999
 24
-9.6239436620000003
 34
0.0
 15
-64.528169014100001
 25
-9.6239436620000003
 35
0.0
1001
ACAD
1000
DSTYLE
1002
{
1070
   271
1070
     0
1002
}
  0
DIMENSION
  5
1DC
  8
寸法線
  2
*D15
 10
-76.128169014099996
 20
3.7760563380000001
 30
0.0
 11
-76.128169014099996
 21
-3.723943661999999
 31
0.0
 70
   128
  1
<>
 13
-66.128169014099996
 23
3.7760563380000001
 33
0.0
 14
-63.128169014099988
 24
-11.223943662
 34
0.0
 50
90.0
  0
DIMENSION
  5
1EB
  8
寸法線
  2
*D16
 10
-13.128169014099999
 20
-11.223943662
 30
0.0
 11
-13.128169014099999
 21
-1.7204580467999999
 31
0.0
 70
   128
  1
<>t
 13
-23.128169014099999
 23
-11.223943662
 33
0.0
 14
-23.128169014099999
 24
-9.6239436620000003
 34
0.0
 50
90.0
  0
LINE
  5
1EC
  8
図枠
  6
DOT
 10
-140.97053806189999
 20
-75.476672911199984
 30
0.0
 11
-140.97053806189999
 21
126.0031770888
 31
0.0
  0
LINE
  5
1ED
  8
図枠
 62
     5
 10
-134.97413776190001
 20
-69.727247911199996
 30
0.0
 11
-134.97413776190001
 21
120.2537520888
 31
0.0
  0
LINE
  5
1EE
  8
図枠
  6
DOT
 10
145.99776223809999
 20
-75.476672911199984
 30
0.0
 11
145.99776223809999
 21
126.0031770888
 31
0.0
  0
LINE
  5
1EF
  8
図枠
 62
     5
 10
139.99836223809999
 20
-69.727247911199996
 30
0.0
 11
139.99836223809999
 21
120.2537520888
 31
0.0
  0
LINE
  5
1F0
  8
ﾚｲﾔ_1
 62
     5
 10
-63.128169014099988
 20
-11.223943662
 30
0.0
 11
-23.128169014099999
 21
-11.223943662
 31
0.0
  0
LINE
  5
1F1
  8
ﾚｲﾔ_1
 62
     5
 10
-23.128169014099999
 20
-11.223943662
 30
0.0
 11
-23.128169014099999
 21
-9.6239436620000003
 31
0.0
  0
ARC
  5
1F2
  8
ﾚｲﾔ_1
 62
     5
 10
-63.128169014099988
 20
-8.2239436619999982
 30
0.0
 40
3.0
 50
180.0
 51
270.0
  0
ARC
  5
1F3
  8
ﾚｲﾔ_1
 62
     5
 10
-63.128169014099988
 20
-8.2239436619999982
 30
0.0
 40
1.399999999999999
 50
180.0
 51
270.0
  0
LINE
  5
1F4
  8
ﾚｲﾔ_1
 62
     5
 10
-63.128169014099988
 20
-9.6239436620000003
 30
0.0
 11
-23.128169014099999
 21
-9.6239436620000003
 31
0.0
  0
DIMENSION
  5
203
  8
寸法線
  2
*D17
 10
-66.128169014099996
 20
-21.223943662
 30
0.0
 11
-44.628169014100003
 21
-21.223943662
 31
0.0
 70
   128
  1
<>
 13
-66.128169014099996
 23
-8.2239436619999982
 33
0.0
 14
-23.128169014099999
 24
-11.223943662
 34
0.0
 50
180.0
  0
LINE
  5
204
  8
ﾚｲﾔ_1
 62
     5
 10
-37.878169014100003
 20
58.634272300500001
 30
0.0
 11
-32.378169014100003
 21
58.634272300500001
 31
0.0
  0
LINE
  5
205
  8
ﾚｲﾔ_1
 62
     5
 10
-32.378169014100003
 20
63.134272300500001
 30
0.0
 11
-37.878169014100003
 21
63.134272300500001
 31
0.0
  0
ARC
  5
206
  8
ﾚｲﾔ_1
 62
     5
 10
-32.378169014100003
 20
60.884272300500001
 30
0.0
 40
2.25
 50
270.0
 51
90.0
  0
ARC
  5
207
  8
ﾚｲﾔ_1
 62
     5
 10
-37.878169014100003
 20
60.884272300500001
 30
0.0
 40
2.25
 50
90.0
 51
270.0
  0
LINE
  5
208
  8
ﾚｲﾔ_1
  6
BORDER
 62
     3
 10
-35.128169014100003
 20
64.384272300500001
 30
0.0
 11
-35.128169014100003
 21
57.384272300500001
 31
0.0
  0
ENDSEC
  0
EOF
