  0
SECTION
  2
HEADER
  9
$ACADVER
  1
AC1009
  9
$INSBASE
 10
0.0
 20
0.0
 30
0.0
  9
$EXTMIN
 10
-284.45584704444082
 20
-176.2153301827266
 30
-0.0015258207003583
  9
$EXTMAX
 10
289.52178363186948
 20
226.76896452555391
 30
0.0000000349246037
  9
$LIMMIN
 10
0.0
 20
0.0
  9
$LIMMAX
 10
0.0
 20
0.0
  9
$ORTHOMODE
 70
     0
  9
$REGENMODE
 70
     1
  9
$FILLMODE
 70
     1
  9
$QTEXTMODE
 70
     0
  9
$MIRRTEXT
 70
     1
  9
$DRAGMODE
 70
     2
  9
$LTSCALE
 40
1.0
  9
$OSMODE
 70
    31
  9
$ATTMODE
 70
     1
  9
$TEXTSIZE
 40
0.0
  9
$TRACEWID
 40
0.05
  9
$TEXTSTYLE
  7
STANDARD
  9
$CLAYER
  8
0
  9
$CELTYPE
  6
CONTINUOUS
  9
$CECOLOR
 62
   256
  9
$DIMSCALE
 40
1.0
  9
$DIMASZ
 40
0.18
  9
$DIMEXO
 40
0.0625
  9
$DIMDLI
 40
0.38
  9
$DIMRND
 40
0.0
  9
$DIMDLE
 40
0.0
  9
$DIMEXE
 40
0.18
  9
$DIMTP
 40
0.0
  9
$DIMTM
 40
0.0
  9
$DIMTXT
 40
0.18
  9
$DIMCEN
 40
0.09
  9
$DIMTSZ
 40
0.0
  9
$DIMTOL
 70
     0
  9
$DIMLIM
 70
     0
  9
$DIMTIH
 70
     1
  9
$DIMTOH
 70
     1
  9
$DIMSE1
 70
     0
  9
$DIMSE2
 70
     0
  9
$DIMTAD
 70
     0
  9
$DIMZIN
 70
     0
  9
$DIMBLK
  1

  9
$DIMASO
 70
     1
  9
$DIMSHO
 70
     1
  9
$DIMPOST
  1

  9
$DIMAPOST
  1

  9
$DIMALT
 70
     0
  9
$DIMALTD
 70
     2
  9
$DIMALTF
 40
25.399999999999999
  9
$DIMLFAC
 40
1.0
  9
$DIMTOFL
 70
     0
  9
$DIMTVP
 40
0.0
  9
$DIMTIX
 70
     0
  9
$DIMSOXD
 70
     0
  9
$DIMSAH
 70
     0
  9
$DIMBLK1
  1

  9
$DIMBLK2
  1

  9
$DIMSTYLE
  2
STANDARD
  9
$DIMCLRD
 70
     0
  9
$DIMCLRE
 70
     0
  9
$DIMCLRT
 70
     0
  9
$DIMTFAC
 40
1.0
  9
$DIMGAP
 40
0.09
  9
$LUNITS
 70
     2
  9
$LUPREC
 70
     4
  9
$SKETCHINC
 40
0.1
  9
$FILLETRAD
 40
0.0
  9
$AUNITS
 70
     0
  9
$AUPREC
 70
     0
  9
$MENU
  1
acad
  9
$ELEVATION
 40
0.0
  9
$PELEVATION
 40
0.0
  9
$THICKNESS
 40
0.0
  9
$LIMCHECK
 70
     0
  9
$BLIPMODE
 70
     0
  9
$CHAMFERA
 40
0.0
  9
$CHAMFERB
 40
0.0
  9
$SKPOLY
 70
     0
  9
$TDCREATE
 40
2454863.5359966322
  9
$TDUPDATE
 40
2454863.5364478361
  9
$TDINDWG
 40
0.0004664005
  9
$TDUSRTIMER
 40
0.0004660417
  9
$USRTIMER
 70
     1
  9
$ANGBASE
 50
0.0
  9
$ANGDIR
 70
     0
  9
$PDMODE
 70
     3
  9
$PDSIZE
 40
-1.0
  9
$PLINEWID
 40
0.0
  9
$COORDS
 70
     2
  9
$SPLFRAME
 70
     0
  9
$SPLINETYPE
 70
     6
  9
$SPLINESEGS
 70
     8
  9
$ATTDIA
 70
     0
  9
$ATTREQ
 70
     1
  9
$HANDLING
 70
     1
  9
$HANDSEED
  5
602
  9
$SURFTAB1
 70
     6
  9
$SURFTAB2
 70
     6
  9
$SURFTYPE
 70
     6
  9
$SURFU
 70
     6
  9
$SURFV
 70
     6
  9
$UCSNAME
  2

  9
$UCSORG
 10
0.0
 20
0.0
 30
0.0
  9
$UCSXDIR
 10
1.0
 20
0.0
 30
0.0
  9
$UCSYDIR
 10
0.0
 20
1.0
 30
0.0
  9
$PUCSNAME
  2

  9
$PUCSORG
 10
0.0
 20
0.0
 30
0.0
  9
$PUCSXDIR
 10
1.0
 20
0.0
 30
0.0
  9
$PUCSYDIR
 10
0.0
 20
1.0
 30
0.0
  9
$USERI1
 70
     0
  9
$USERI2
 70
     0
  9
$USERI3
 70
     0
  9
$USERI4
 70
     0
  9
$USERI5
 70
     0
  9
$USERR1
 40
0.0
  9
$USERR2
 40
0.0
  9
$USERR3
 40
0.0
  9
$USERR4
 40
0.0
  9
$USERR5
 40
0.0
  9
$WORLDVIEW
 70
     1
  9
$SHADEDGE
 70
     3
  9
$SHADEDIF
 70
    70
  9
$TILEMODE
 70
     1
  9
$MAXACTVP
 70
    16
  9
$PLIMCHECK
 70
     0
  9
$PEXTMIN
 10
1.0000000000000000E+020
 20
1.0000000000000000E+020
 30
1.0000000000000000E+020
  9
$PEXTMAX
 10
-1.0000000000000000E+020
 20
-1.0000000000000000E+020
 30
-1.0000000000000000E+020
  9
$PLIMMIN
 10
0.0
 20
0.0
  9
$PLIMMAX
 10
12.0
 20
9.0
  9
$UNITMODE
 70
     0
  9
$VISRETAIN
 70
     0
  9
$PLINEGEN
 70
     1
  9
$PSLTSCALE
 70
     0
  0
ENDSEC
  0
SECTION
  2
TABLES
  0
TABLE
  2
VPORT
 70
     2
  0
VPORT
  2
*ACTIVE
 70
     0
 10
0.0
 20
0.0
 11
1.0
 21
1.0
 12
2.5329682937143612
 22
25.276817171413601
 13
0.0
 23
0.0
 14
1.0
 24
1.0
 15
0.0
 25
0.0
 16
0.0
 26
0.0
 36
1.0
 17
0.0
 27
0.0
 37
0.0
 40
407.69924064766838
 41
1.4164265129682989
 42
50.0
 43
0.0
 44
0.0
 50
0.0
 51
0.0
 71
     0
 72
   100
 73
     1
 74
     1
 75
     0
 76
     0
 77
     0
 78
     0
  0
ENDTAB
  0
TABLE
  2
LTYPE
 70
    11
  0
LTYPE
  2
CONTINUOUS
 70
     0
  3
Solid line
 72
    65
 73
     0
 40
0.0
  0
LTYPE
  2
DOT
 70
     0
  3
. . . . . . . . 
 72
    65
 73
     2
 40
1.0
 49
0.0
 49
-1.0
  0
LTYPE
  2
DASHED
 70
     0
  3
___  ___  ___  ___  
 72
    65
 73
     2
 40
4.0
 49
3.0
 49
-1.0
  0
LTYPE
  2
HIDDEN
 70
     0
  3
__ __ __ __ 
 72
    65
 73
     2
 40
3.0
 49
2.0
 49
-1.0
  0
LTYPE
  2
STITCH
 70
     0
  3
_ _ _ _ 
 72
    65
 73
     2
 40
2.0
 49
1.0
 49
-1.0
  0
LTYPE
  2
CENTER
 70
     0
  3
______  __  ______  __  
 72
    65
 73
     4
 40
43.0
 49
40.0
 49
-1.0
 49
1.0
 49
-1.0
  0
LTYPE
  2
DASHDOT
 70
     0
  3
____ . ____ . 
 72
    65
 73
     4
 40
32.0
 49
30.0
 49
-1.0
 49
0.0
 49
-1.0
  0
LTYPE
  2
BORDER
 70
     0
  3
__ . __ . 
 72
    65
 73
     4
 40
22.0
 49
20.0
 49
-1.0
 49
0.0
 49
-1.0
  0
LTYPE
  2
CUTTING
 70
     0
  3
________   ___   ___   
 72
    65
 73
     6
 40
45.0
 49
40.0
 49
-1.0
 49
1.0
 49
-1.0
 49
1.0
 49
-1.0
  0
LTYPE
  2
PHANTOM
 70
     0
  3
______  __  __  
 72
    65
 73
     6
 40
35.0
 49
30.0
 49
-1.0
 49
1.0
 49
-1.0
 49
1.0
 49
-1.0
  0
LTYPE
  2
DIVIDE
 70
     0
  3
____ . . ____ . . 
 72
    65
 73
     6
 40
23.0
 49
20.0
 49
-1.0
 49
0.0
 49
-1.0
 49
0.0
 49
-1.0
  0
ENDTAB
  0
TABLE
  2
LAYER
 70
     5
  0
LAYER
  2
0
 70
     0
 62
     7
  6
CONTINUOUS
  0
LAYER
  2
図枠
 70
     0
 62
     7
  6
CONTINUOUS
  0
LAYER
  2
ﾚｲﾔ_1
 70
     0
 62
     7
  6
CONTINUOUS
  0
LAYER
  2
寸法線
 70
     0
 62
     7
  6
CONTINUOUS
  0
LAYER
  2
DEFPOINTS
 70
     0
 62
     7
  6
CONTINUOUS
  0
ENDTAB
  0
TABLE
  2
STYLE
 70
     1
  0
STYLE
  2
STANDARD
 70
     0
 40
0.0
 41
1.0
 50
0.0
 71
     0
 42
0.0
  3
txt
  4
extfont
  0
ENDTAB
  0
TABLE
  2
VIEW
 70
     0
  0
ENDTAB
  0
TABLE
  2
UCS
 70
     0
  0
ENDTAB
  0
TABLE
  2
APPID
 70
     2
  0
APPID
  2
ACAD
 70
     0
  0
APPID
  2
DCO15
 70
     0
  0
ENDTAB
  0
TABLE
  2
DIMSTYLE
 70
     5
  0
DIMSTYLE
  2
STANDARD
 70
     0
  3

  4

  5

  6

  7

 40
1.0
 41
0.18
 42
0.0625
 43
0.38
 44
0.18
 45
0.0
 46
0.0
 47
0.0
 48
0.0
140
0.18
141
0.09
142
0.0
143
25.399999999999999
144
1.0
145
0.0
146
1.0
147
0.09
 71
     0
 72
     0
 73
     1
 74
     1
 75
     0
 76
     0
 77
     0
 78
     0
170
     0
171
     2
172
     0
173
     0
174
     0
175
     0
176
     0
177
     0
178
     0
  0
DIMSTYLE
  2
VELDIM0
 70
     0
  3

  4

  5

  6

  7

 40
1.0
 41
6.0
 42
0.0625
 43
0.38
 44
1.0
 45
0.0
 46
5.0
 47
0.0
 48
0.0
140
5.9972220420999998
141
0.09
142
0.0
143
25.399999999999999
144
1.0
145
0.0
146
1.0
147
0.09
 71
     0
 72
     0
 73
     0
 74
     0
 75
     0
 76
     0
 77
     0
 78
     8
170
     0
171
     2
172
     0
173
     0
174
     0
175
     0
176
     0
177
     0
178
     0
  0
DIMSTYLE
  2
VELDIM1
 70
     0
  3

  4

  5

  6

  7

 40
1.0
 41
1.200000047699999
 42
0.0625
 43
0.38
 44
1.25
 45
0.0
 46
5.0
 47
0.0
 48
0.0
140
1.079499983799999
141
0.09
142
0.0
143
25.399999999999999
144
1.0
145
0.0
146
1.0
147
0.09
 71
     0
 72
     0
 73
     0
 74
     0
 75
     0
 76
     0
 77
     0
 78
     8
170
     0
171
     2
172
     0
173
     0
174
     0
175
     0
176
     0
177
     0
178
     0
  0
DIMSTYLE
  2
VELDIM2
 70
     0
  3

  4

  5

  6

  7

 40
1.0
 41
1.200000047699999
 42
0.0625
 43
0.38
 44
0.8000000119
 45
0.0
 46
2.0
 47
0.0
 48
0.0
140
1.079499983799999
141
0.09
142
0.0
143
25.399999999999999
144
1.0
145
0.0
146
1.0
147
0.09
 71
     0
 72
     0
 73
     0
 74
     0
 75
     0
 76
     0
 77
     0
 78
     8
170
     0
171
     2
172
     0
173
     0
174
     0
175
     0
176
     0
177
     0
178
     0
  0
DIMSTYLE
  2
VELDIM3
 70
     0
  3

  4

  5

  6

  7

 40
1.0
 41
6.0
 42
0.0625
 43
0.38
 44
1.25
 45
0.0
 46
5.0
 47
0.0
 48
0.0
140
5.9972220420999998
141
0.09
142
0.0
143
25.399999999999999
144
1.0
145
0.0
146
1.0
147
0.09
 71
     0
 72
     0
 73
     0
 74
     0
 75
     0
 76
     0
 77
     0
 78
     8
170
     0
171
     2
172
     0
173
     0
174
     0
175
     0
176
     0
177
     0
178
     0
  0
ENDTAB
  0
ENDSEC
  0
SECTION
  2
BLOCKS
  0
BLOCK
  8
0
  2
$MODEL_SPACE
 70
     0
 10
0.0
 20
0.0
 30
0.0
  3
$MODEL_SPACE
  1

  0
ENDBLK
  5
E
  8
0
  0
BLOCK
 67
     1
  8
0
  2
$PAPER_SPACE
 70
     0
 10
0.0
 20
0.0
 30
0.0
  3
$PAPER_SPACE
  1

  0
ENDBLK
  5
10
 67
     1
  8
0
  0
BLOCK
  8
0
  2
*D0
 70
     1
 10
0.0
 20
0.0
 30
0.0
  3
*D0
  1

  0
TEXT
  5
49
  8
0
 62
     0
 10
210.4918622623
 20
149.80775878649999
 30
0.0
 40
5.9972220420999998
  1
19
 50
90.0
  0
LINE
  5
4A
  8
0
 62
     0
 10
194.55019531249999
 20
162.8355364583
 30
0.0
 11
213.5501955638
 21
162.8355364583
 31
0.0
  0
LINE
  5
4B
  8
0
 62
     0
 10
198.65067850450001
 20
143.8355364583
 30
0.0
 11
213.5501955638
 21
143.8355364583
 31
0.0
  0
LINE
  5
4C
  8
0
 62
     0
 10
212.5501955638
 20
162.8355364583
 30
0.0
 11
212.5501955638
 21
160.39109180200001
 31
0.0
  0
LINE
  5
4D
  8
0
 62
     0
 10
212.5501955638
 20
162.8355364583
 30
0.0
 11
212.5501955638
 21
146.27998111470001
 31
0.0
  0
LINE
  5
4E
  8
0
 62
     0
 10
212.5501955638
 20
143.8355364583
 30
0.0
 11
212.5501955638
 21
160.39109180200001
 31
0.0
  0
LINE
  5
4F
  8
0
 62
     0
 10
212.5501955638
 20
143.8355364583
 30
0.0
 11
212.5501955638
 21
146.27998111470001
 31
0.0
  0
LINE
  5
50
  8
0
 62
     0
 10
212.5501955638
 20
143.8355364583
 30
0.0
 11
212.5501955638
 21
138.8355364583
 31
0.0
  0
SOLID
  5
51
  8
0
 62
     0
 10
212.5501955638
 20
143.8355364583
 30
0.0
 11
214.0501955638
 21
137.8355364583
 31
0.0
 12
211.0501955638
 22
137.8355364583
 32
0.0
 13
212.5501955638
 23
139.3355364583
 33
0.0
  0
LINE
  5
52
  8
0
 62
     0
 10
212.5501955638
 20
162.8355364583
 30
0.0
 11
212.5501955638
 21
167.8355364583
 31
0.0
  0
SOLID
  5
53
  8
0
 62
     0
 10
212.5501955638
 20
162.8355364583
 30
0.0
 11
211.0501955638
 21
168.8355364583
 31
0.0
 12
214.0501955638
 22
168.8355364583
 32
0.0
 13
212.5501955638
 23
167.3355364583
 33
0.0
  0
ENDBLK
  5
54
  8
0
  0
BLOCK
  8
0
  2
*D1
 70
     1
 10
0.0
 20
0.0
 30
0.0
  3
*D1
  1

  0
TEXT
  5
59
  8
0
 62
     0
 10
210.4918622623
 20
130.80775878649999
 30
0.0
 40
5.9972220420999998
  1
19
 50
90.0
  0
LINE
  5
5A
  8
0
 62
     0
 10
198.65067850450001
 20
143.8355364583
 30
0.0
 11
213.5501955638
 21
143.8355364583
 31
0.0
  0
LINE
  5
5B
  8
0
 62
     0
 10
194.55019531249999
 20
124.8355364583
 30
0.0
 11
213.5501955638
 21
124.8355364583
 31
0.0
  0
LINE
  5
5C
  8
0
 62
     0
 10
212.5501955638
 20
143.8355364583
 30
0.0
 11
212.5501955638
 21
141.39109180200001
 31
0.0
  0
LINE
  5
5D
  8
0
 62
     0
 10
212.5501955638
 20
143.8355364583
 30
0.0
 11
212.5501955638
 21
127.27998111470001
 31
0.0
  0
LINE
  5
5E
  8
0
 62
     0
 10
212.5501955638
 20
124.8355364583
 30
0.0
 11
212.5501955638
 21
141.39109180200001
 31
0.0
  0
LINE
  5
5F
  8
0
 62
     0
 10
212.5501955638
 20
124.8355364583
 30
0.0
 11
212.5501955638
 21
127.27998111470001
 31
0.0
  0
LINE
  5
60
  8
0
 62
     0
 10
212.5501955638
 20
124.8355364583
 30
0.0
 11
212.5501955638
 21
119.8355364583
 31
0.0
  0
SOLID
  5
61
  8
0
 62
     0
 10
212.5501955638
 20
124.8355364583
 30
0.0
 11
214.0501955638
 21
118.8355364583
 31
0.0
 12
211.0501955638
 22
118.8355364583
 32
0.0
 13
212.5501955638
 23
120.3355364583
 33
0.0
  0
LINE
  5
62
  8
0
 62
     0
 10
212.5501955638
 20
143.8355364583
 30
0.0
 11
212.5501955638
 21
148.8355364583
 31
0.0
  0
SOLID
  5
63
  8
0
 62
     0
 10
212.5501955638
 20
143.8355364583
 30
0.0
 11
211.0501955638
 21
149.8355364583
 31
0.0
 12
214.0501955638
 22
149.8355364583
 32
0.0
 13
212.5501955638
 23
148.3355364583
 33
0.0
  0
ENDBLK
  5
64
  8
0
  0
BLOCK
  8
0
  2
*D2
 70
     1
 10
0.0
 20
0.0
 30
0.0
  3
*D2
  1

  0
TEXT
  5
68
  8
0
 62
     0
 10
171.52241764070001
 20
109.8938697599
 30
0.0
 40
5.9972220420999998
  1
35
  0
LINE
  5
69
  8
0
 62
     0
 10
192.55019531249999
 20
122.8355364583
 30
0.0
 11
192.55019531249999
 21
106.8355364583
 31
0.0
  0
LINE
  5
6A
  8
0
 62
     0
 10
157.55019531249999
 20
134.3355364583
 30
0.0
 11
157.55019531249999
 21
106.8355364583
 31
0.0
  0
LINE
  5
6B
  8
0
 62
     0
 10
192.55019531249999
 20
107.8355364583
 30
0.0
 11
182.10575065610001
 21
107.8355364583
 31
0.0
  0
LINE
  5
6C
  8
0
 62
     0
 10
192.55019531249999
 20
107.8355364583
 30
0.0
 11
167.9946399689
 21
107.8355364583
 31
0.0
  0
LINE
  5
6D
  8
0
 62
     0
 10
157.55019531249999
 20
107.8355364583
 30
0.0
 11
182.10575065610001
 21
107.8355364583
 31
0.0
  0
LINE
  5
6E
  8
0
 62
     0
 10
157.55019531249999
 20
107.8355364583
 30
0.0
 11
167.9946399689
 21
107.8355364583
 31
0.0
  0
LINE
  5
6F
  8
0
 62
     0
 10
157.55019531249999
 20
107.8355364583
 30
0.0
 11
162.55019531249999
 21
107.8355364583
 31
0.0
  0
SOLID
  5
70
  8
0
 62
     0
 10
157.55019531249999
 20
107.8355364583
 30
0.0
 11
163.55019531249999
 21
109.3355364583
 31
0.0
 12
163.55019531249999
 22
106.3355364583
 32
0.0
 13
162.05019531249999
 23
107.8355364583
 33
0.0
  0
LINE
  5
71
  8
0
 62
     0
 10
192.55019531249999
 20
107.8355364583
 30
0.0
 11
187.55019531249999
 21
107.8355364583
 31
0.0
  0
SOLID
  5
72
  8
0
 62
     0
 10
192.55019531249999
 20
107.8355364583
 30
0.0
 11
186.55019531249999
 21
106.3355364583
 31
0.0
 12
186.55019531249999
 22
109.3355364583
 32
0.0
 13
188.05019531249999
 23
107.8355364583
 33
0.0
  0
ENDBLK
  5
73
  8
0
  0
BLOCK
  8
0
  2
*D3
 70
     1
 10
0.0
 20
0.0
 30
0.0
  3
*D3
  1

  0
TEXT
  5
77
  8
0
 62
     0
 10
81.522417640699999
 20
109.8938697599
 30
0.0
 40
5.9972220420999998
  1
25
  0
LINE
  5
78
  8
0
 62
     0
 10
97.550195312499994
 20
134.3355364583
 30
0.0
 11
97.550195312499994
 21
106.8355364583
 31
0.0
  0
LINE
  5
79
  8
0
 62
     0
 10
72.550195312499994
 20
122.8355364583
 30
0.0
 11
72.550195312499994
 21
106.8355364583
 31
0.0
  0
LINE
  5
7A
  8
0
 62
     0
 10
97.550195312499994
 20
107.8355364583
 30
0.0
 11
92.105750656099985
 21
107.8355364583
 31
0.0
  0
LINE
  5
7B
  8
0
 62
     0
 10
97.550195312499994
 20
107.8355364583
 30
0.0
 11
77.994639968900003
 21
107.8355364583
 31
0.0
  0
LINE
  5
7C
  8
0
 62
     0
 10
72.550195312499994
 20
107.8355364583
 30
0.0
 11
92.105750656099985
 21
107.8355364583
 31
0.0
  0
LINE
  5
7D
  8
0
 62
     0
 10
72.550195312499994
 20
107.8355364583
 30
0.0
 11
77.994639968900003
 21
107.8355364583
 31
0.0
  0
LINE
  5
7E
  8
0
 62
     0
 10
72.550195312499994
 20
107.8355364583
 30
0.0
 11
67.550195312499994
 21
107.8355364583
 31
0.0
  0
SOLID
  5
7F
  8
0
 62
     0
 10
72.550195312499994
 20
107.8355364583
 30
0.0
 11
66.550195312499994
 21
106.3355364583
 31
0.0
 12
66.550195312499994
 22
109.3355364583
 32
0.0
 13
68.050195312499994
 23
107.8355364583
 33
0.0
  0
LINE
  5
80
  8
0
 62
     0
 10
97.550195312499994
 20
107.8355364583
 30
0.0
 11
102.55019531249999
 21
107.8355364583
 31
0.0
  0
SOLID
  5
81
  8
0
 62
     0
 10
97.550195312499994
 20
107.8355364583
 30
0.0
 11
103.55019531249999
 21
109.3355364583
 31
0.0
 12
103.55019531249999
 22
106.3355364583
 32
0.0
 13
102.05019531249999
 23
107.8355364583
 33
0.0
  0
ENDBLK
  5
82
  8
0
  0
BLOCK
  8
0
  2
*D4
 70
     1
 10
0.0
 20
0.0
 30
0.0
  3
*D4
  1

  0
TEXT
  5
86
  8
0
 62
     0
 10
139.02241764070001
 20
109.8938697599
 30
0.0
 40
5.9972220420999998
  1
30
  0
LINE
  5
87
  8
0
 62
     0
 10
157.55019531249999
 20
134.3355364583
 30
0.0
 11
157.55019531249999
 21
106.8355364583
 31
0.0
  0
LINE
  5
88
  8
0
 62
     0
 10
127.55019531249999
 20
134.3355364583
 30
0.0
 11
127.55019531249999
 21
106.8355364583
 31
0.0
  0
LINE
  5
89
  8
0
 62
     0
 10
157.55019531249999
 20
107.8355364583
 30
0.0
 11
149.60575065610001
 21
107.8355364583
 31
0.0
  0
LINE
  5
8A
  8
0
 62
     0
 10
157.55019531249999
 20
107.8355364583
 30
0.0
 11
135.4946399689
 21
107.8355364583
 31
0.0
  0
LINE
  5
8B
  8
0
 62
     0
 10
127.55019531249999
 20
107.8355364583
 30
0.0
 11
149.60575065610001
 21
107.8355364583
 31
0.0
  0
LINE
  5
8C
  8
0
 62
     0
 10
127.55019531249999
 20
107.8355364583
 30
0.0
 11
135.4946399689
 21
107.8355364583
 31
0.0
  0
LINE
  5
8D
  8
0
 62
     0
 10
127.55019531249999
 20
107.8355364583
 30
0.0
 11
132.55019531249999
 21
107.8355364583
 31
0.0
  0
SOLID
  5
8E
  8
0
 62
     0
 10
127.55019531249999
 20
107.8355364583
 30
0.0
 11
133.55019531249999
 21
109.3355364583
 31
0.0
 12
133.55019531249999
 22
106.3355364583
 32
0.0
 13
132.05019531249999
 23
107.8355364583
 33
0.0
  0
LINE
  5
8F
  8
0
 62
     0
 10
157.55019531249999
 20
107.8355364583
 30
0.0
 11
152.55019531249999
 21
107.8355364583
 31
0.0
  0
SOLID
  5
90
  8
0
 62
     0
 10
157.55019531249999
 20
107.8355364583
 30
0.0
 11
151.55019531249999
 21
106.3355364583
 31
0.0
 12
151.55019531249999
 22
109.3355364583
 32
0.0
 13
153.05019531249999
 23
107.8355364583
 33
0.0
  0
ENDBLK
  5
91
  8
0
  0
BLOCK
  8
0
  2
*D5
 70
     1
 10
0.0
 20
0.0
 30
0.0
  3
*D5
  1

  0
TEXT
  5
95
  8
0
 62
     0
 10
109.0224176407
 20
109.8938697599
 30
0.0
 40
5.9972220420999998
  1
30
  0
LINE
  5
96
  8
0
 62
     0
 10
127.55019531249999
 20
134.3355364583
 30
0.0
 11
127.55019531249999
 21
106.8355364583
 31
0.0
  0
LINE
  5
97
  8
0
 62
     0
 10
97.550195312499994
 20
134.3355364583
 30
0.0
 11
97.550195312499994
 21
106.8355364583
 31
0.0
  0
LINE
  5
98
  8
0
 62
     0
 10
127.55019531249999
 20
107.8355364583
 30
0.0
 11
119.6057506561
 21
107.8355364583
 31
0.0
  0
LINE
  5
99
  8
0
 62
     0
 10
127.55019531249999
 20
107.8355364583
 30
0.0
 11
105.4946399689
 21
107.8355364583
 31
0.0
  0
LINE
  5
9A
  8
0
 62
     0
 10
97.550195312499994
 20
107.8355364583
 30
0.0
 11
119.6057506561
 21
107.8355364583
 31
0.0
  0
LINE
  5
9B
  8
0
 62
     0
 10
97.550195312499994
 20
107.8355364583
 30
0.0
 11
105.4946399689
 21
107.8355364583
 31
0.0
  0
LINE
  5
9C
  8
0
 62
     0
 10
97.550195312499994
 20
107.8355364583
 30
0.0
 11
102.55019531249999
 21
107.8355364583
 31
0.0
  0
SOLID
  5
9D
  8
0
 62
     0
 10
97.550195312499994
 20
107.8355364583
 30
0.0
 11
103.55019531249999
 21
109.3355364583
 31
0.0
 12
103.55019531249999
 22
106.3355364583
 32
0.0
 13
102.05019531249999
 23
107.8355364583
 33
0.0
  0
LINE
  5
9E
  8
0
 62
     0
 10
127.55019531249999
 20
107.8355364583
 30
0.0
 11
122.55019531249999
 21
107.8355364583
 31
0.0
  0
SOLID
  5
9F
  8
0
 62
     0
 10
127.55019531249999
 20
107.8355364583
 30
0.0
 11
121.55019531249999
 21
106.3355364583
 31
0.0
 12
121.55019531249999
 22
109.3355364583
 32
0.0
 13
123.05019531249999
 23
107.8355364583
 33
0.0
  0
ENDBLK
  5
A0
  8
0
  0
BLOCK
  8
0
  2
*D6
 70
     1
 10
0.0
 20
0.0
 30
0.0
  3
*D6
  1

  0
TEXT
  5
149
  8
0
 62
     0
 10
-181.0583335529
 20
149.80775878649999
 30
0.0
 40
5.9972220420999998
  1
19
 50
90.0
  0
LINE
  5
14A
  8
0
 62
     0
 10
-161.0
 20
162.8355364583
 30
0.0
 11
-180.00000025130001
 21
162.8355364583
 31
0.0
  0
LINE
  5
14B
  8
0
 62
     0
 10
-165.10048319200001
 20
143.8355364583
 30
0.0
 11
-180.00000025130001
 21
143.8355364583
 31
0.0
  0
LINE
  5
14C
  8
0
 62
     0
 10
-179.00000025130001
 20
162.8355364583
 30
0.0
 11
-179.00000025130001
 21
160.39109180200001
 31
0.0
  0
LINE
  5
14D
  8
0
 62
     0
 10
-179.00000025130001
 20
162.8355364583
 30
0.0
 11
-179.00000025130001
 21
146.27998111470001
 31
0.0
  0
LINE
  5
14E
  8
0
 62
     0
 10
-179.00000025130001
 20
143.8355364583
 30
0.0
 11
-179.00000025130001
 21
160.39109180200001
 31
0.0
  0
LINE
  5
14F
  8
0
 62
     0
 10
-179.00000025130001
 20
143.8355364583
 30
0.0
 11
-179.00000025130001
 21
146.27998111470001
 31
0.0
  0
LINE
  5
150
  8
0
 62
     0
 10
-179.00000025130001
 20
143.8355364583
 30
0.0
 11
-179.00000025130001
 21
138.8355364583
 31
0.0
  0
SOLID
  5
151
  8
0
 62
     0
 10
-179.00000025130001
 20
143.8355364583
 30
0.0
 11
-177.50000025130001
 21
137.8355364583
 31
0.0
 12
-180.50000025130001
 22
137.8355364583
 32
0.0
 13
-179.00000025130001
 23
139.3355364583
 33
0.0
  0
LINE
  5
152
  8
0
 62
     0
 10
-179.00000025130001
 20
162.8355364583
 30
0.0
 11
-179.00000025130001
 21
167.8355364583
 31
0.0
  0
SOLID
  5
153
  8
0
 62
     0
 10
-179.00000025130001
 20
162.8355364583
 30
0.0
 11
-180.50000025130001
 21
168.8355364583
 31
0.0
 12
-177.50000025130001
 22
168.8355364583
 32
0.0
 13
-179.00000025130001
 23
167.3355364583
 33
0.0
  0
ENDBLK
  5
154
  8
0
  0
BLOCK
  8
0
  2
*D7
 70
     1
 10
0.0
 20
0.0
 30
0.0
  3
*D7
  1

  0
TEXT
  5
158
  8
0
 62
     0
 10
-82.52777767180001
 20
109.8938697599
 30
0.0
 40
5.9972220420999998
  1
30
  0
LINE
  5
159
  8
0
 62
     0
 10
-94.0
 20
134.3355364583
 30
0.0
 11
-94.0
 21
106.8355364583
 31
0.0
  0
LINE
  5
15A
  8
0
 62
     0
 10
-64.0
 20
134.3355364583
 30
0.0
 11
-64.0
 21
106.8355364583
 31
0.0
  0
LINE
  5
15B
  8
0
 62
     0
 10
-94.0
 20
107.8355364583
 30
0.0
 11
-71.944444656400009
 21
107.8355364583
 31
0.0
  0
LINE
  5
15C
  8
0
 62
     0
 10
-94.0
 20
107.8355364583
 30
0.0
 11
-86.055555343600005
 21
107.8355364583
 31
0.0
  0
LINE
  5
15D
  8
0
 62
     0
 10
-64.0
 20
107.8355364583
 30
0.0
 11
-71.944444656400009
 21
107.8355364583
 31
0.0
  0
LINE
  5
15E
  8
0
 62
     0
 10
-64.0
 20
107.8355364583
 30
0.0
 11
-86.055555343600005
 21
107.8355364583
 31
0.0
  0
LINE
  5
15F
  8
0
 62
     0
 10
-64.0
 20
107.8355364583
 30
0.0
 11
-69.0
 21
107.8355364583
 31
0.0
  0
SOLID
  5
160
  8
0
 62
     0
 10
-64.0
 20
107.8355364583
 30
0.0
 11
-70.0
 21
106.3355364583
 31
0.0
 12
-70.0
 22
109.3355364583
 32
0.0
 13
-68.5
 23
107.8355364583
 33
0.0
  0
LINE
  5
161
  8
0
 62
     0
 10
-94.0
 20
107.8355364583
 30
0.0
 11
-89.0
 21
107.8355364583
 31
0.0
  0
SOLID
  5
162
  8
0
 62
     0
 10
-94.0
 20
107.8355364583
 30
0.0
 11
-88.0
 21
109.3355364583
 31
0.0
 12
-88.0
 22
106.3355364583
 32
0.0
 13
-89.500000000000014
 23
107.8355364583
 33
0.0
  0
ENDBLK
  5
163
  8
0
  0
BLOCK
  8
0
  2
*D8
 70
     1
 10
0.0
 20
0.0
 30
0.0
  3
*D8
  1

  0
TEXT
  5
167
  8
0
 62
     0
 10
-112.5277776718
 20
109.8938697599
 30
0.0
 40
5.9972220420999998
  1
30
  0
LINE
  5
168
  8
0
 62
     0
 10
-124.0
 20
134.3355364583
 30
0.0
 11
-124.0
 21
106.8355364583
 31
0.0
  0
LINE
  5
169
  8
0
 62
     0
 10
-94.0
 20
134.3355364583
 30
0.0
 11
-94.0
 21
106.8355364583
 31
0.0
  0
LINE
  5
16A
  8
0
 62
     0
 10
-124.0
 20
107.8355364583
 30
0.0
 11
-101.94444465639999
 21
107.8355364583
 31
0.0
  0
LINE
  5
16B
  8
0
 62
     0
 10
-124.0
 20
107.8355364583
 30
0.0
 11
-116.05555534360001
 21
107.8355364583
 31
0.0
  0
LINE
  5
16C
  8
0
 62
     0
 10
-94.0
 20
107.8355364583
 30
0.0
 11
-101.94444465639999
 21
107.8355364583
 31
0.0
  0
LINE
  5
16D
  8
0
 62
     0
 10
-94.0
 20
107.8355364583
 30
0.0
 11
-116.05555534360001
 21
107.8355364583
 31
0.0
  0
LINE
  5
16E
  8
0
 62
     0
 10
-94.0
 20
107.8355364583
 30
0.0
 11
-99.0
 21
107.8355364583
 31
0.0
  0
SOLID
  5
16F
  8
0
 62
     0
 10
-94.0
 20
107.8355364583
 30
0.0
 11
-100.0
 21
106.3355364583
 31
0.0
 12
-100.0
 22
109.3355364583
 32
0.0
 13
-98.500000000000014
 23
107.8355364583
 33
0.0
  0
LINE
  5
170
  8
0
 62
     0
 10
-124.0
 20
107.8355364583
 30
0.0
 11
-119.0
 21
107.8355364583
 31
0.0
  0
SOLID
  5
171
  8
0
 62
     0
 10
-124.0
 20
107.8355364583
 30
0.0
 11
-118.0
 21
109.3355364583
 31
0.0
 12
-118.0
 22
106.3355364583
 32
0.0
 13
-119.5
 23
107.8355364583
 33
0.0
  0
ENDBLK
  5
172
  8
0
  0
BLOCK
  8
0
  2
*D9
 70
     1
 10
0.0
 20
0.0
 30
0.0
  3
*D9
  1

  0
TEXT
  5
176
  8
0
 62
     0
 10
-55.027777671800003
 20
109.8938697599
 30
0.0
 40
5.9972220420999998
  1
25
  0
LINE
  5
177
  8
0
 62
     0
 10
-64.0
 20
134.3355364583
 30
0.0
 11
-64.0
 21
106.8355364583
 31
0.0
  0
LINE
  5
178
  8
0
 62
     0
 10
-39.0
 20
122.8355364583
 30
0.0
 11
-39.0
 21
106.8355364583
 31
0.0
  0
LINE
  5
179
  8
0
 62
     0
 10
-64.0
 20
107.8355364583
 30
0.0
 11
-44.444444656400002
 21
107.8355364583
 31
0.0
  0
LINE
  5
17A
  8
0
 62
     0
 10
-64.0
 20
107.8355364583
 30
0.0
 11
-58.555555343599998
 21
107.8355364583
 31
0.0
  0
LINE
  5
17B
  8
0
 62
     0
 10
-39.0
 20
107.8355364583
 30
0.0
 11
-44.444444656400002
 21
107.8355364583
 31
0.0
  0
LINE
  5
17C
  8
0
 62
     0
 10
-39.0
 20
107.8355364583
 30
0.0
 11
-58.555555343599998
 21
107.8355364583
 31
0.0
  0
LINE
  5
17D
  8
0
 62
     0
 10
-39.0
 20
107.8355364583
 30
0.0
 11
-34.0
 21
107.8355364583
 31
0.0
  0
SOLID
  5
17E
  8
0
 62
     0
 10
-39.0
 20
107.8355364583
 30
0.0
 11
-33.0
 21
109.3355364583
 31
0.0
 12
-33.0
 22
106.3355364583
 32
0.0
 13
-34.5
 23
107.8355364583
 33
0.0
  0
LINE
  5
17F
  8
0
 62
     0
 10
-64.0
 20
107.8355364583
 30
0.0
 11
-69.0
 21
107.8355364583
 31
0.0
  0
SOLID
  5
180
  8
0
 62
     0
 10
-64.0
 20
107.8355364583
 30
0.0
 11
-70.0
 21
106.3355364583
 31
0.0
 12
-70.0
 22
109.3355364583
 32
0.0
 13
-68.5
 23
107.8355364583
 33
0.0
  0
ENDBLK
  5
181
  8
0
  0
BLOCK
  8
0
  2
*D10
 70
     1
 10
0.0
 20
0.0
 30
0.0
  3
*D10
  1

  0
TEXT
  5
185
  8
0
 62
     0
 10
-145.02777767180001
 20
109.8938697599
 30
0.0
 40
5.9972220420999998
  1
35
  0
LINE
  5
186
  8
0
 62
     0
 10
-159.0
 20
122.8355364583
 30
0.0
 11
-159.0
 21
106.8355364583
 31
0.0
  0
LINE
  5
187
  8
0
 62
     0
 10
-124.0
 20
134.3355364583
 30
0.0
 11
-124.0
 21
106.8355364583
 31
0.0
  0
LINE
  5
188
  8
0
 62
     0
 10
-159.0
 20
107.8355364583
 30
0.0
 11
-134.4444446563999
 21
107.8355364583
 31
0.0
  0
LINE
  5
189
  8
0
 62
     0
 10
-159.0
 20
107.8355364583
 30
0.0
 11
-148.55555534359999
 21
107.8355364583
 31
0.0
  0
LINE
  5
18A
  8
0
 62
     0
 10
-124.0
 20
107.8355364583
 30
0.0
 11
-134.4444446563999
 21
107.8355364583
 31
0.0
  0
LINE
  5
18B
  8
0
 62
     0
 10
-124.0
 20
107.8355364583
 30
0.0
 11
-148.55555534359999
 21
107.8355364583
 31
0.0
  0
LINE
  5
18C
  8
0
 62
     0
 10
-124.0
 20
107.8355364583
 30
0.0
 11
-129.0
 21
107.8355364583
 31
0.0
  0
SOLID
  5
18D
  8
0
 62
     0
 10
-124.0
 20
107.8355364583
 30
0.0
 11
-130.0
 21
106.3355364583
 31
0.0
 12
-130.0
 22
109.3355364583
 32
0.0
 13
-128.5
 23
107.8355364583
 33
0.0
  0
LINE
  5
18E
  8
0
 62
     0
 10
-159.0
 20
107.8355364583
 30
0.0
 11
-154.0
 21
107.8355364583
 31
0.0
  0
SOLID
  5
18F
  8
0
 62
     0
 10
-159.0
 20
107.8355364583
 30
0.0
 11
-153.0
 21
109.3355364583
 31
0.0
 12
-153.0
 22
106.3355364583
 32
0.0
 13
-154.5
 23
107.8355364583
 33
0.0
  0
ENDBLK
  5
190
  8
0
  0
BLOCK
  8
0
  2
*D11
 70
     1
 10
0.0
 20
0.0
 30
0.0
  3
*D11
  1

  0
TEXT
  5
194
  8
0
 62
     0
 10
-181.0583335529
 20
130.80775878649999
 30
0.0
 40
5.9972220420999998
  1
19
 50
90.0
  0
LINE
  5
195
  8
0
 62
     0
 10
-165.10048319200001
 20
143.8355364583
 30
0.0
 11
-180.00000025130001
 21
143.8355364583
 31
0.0
  0
LINE
  5
196
  8
0
 62
     0
 10
-161.0
 20
124.8355364583
 30
0.0
 11
-180.00000025130001
 21
124.8355364583
 31
0.0
  0
LINE
  5
197
  8
0
 62
     0
 10
-179.00000025130001
 20
143.8355364583
 30
0.0
 11
-179.00000025130001
 21
141.39109180200001
 31
0.0
  0
LINE
  5
198
  8
0
 62
     0
 10
-179.00000025130001
 20
143.8355364583
 30
0.0
 11
-179.00000025130001
 21
127.27998111470001
 31
0.0
  0
LINE
  5
199
  8
0
 62
     0
 10
-179.00000025130001
 20
124.8355364583
 30
0.0
 11
-179.00000025130001
 21
141.39109180200001
 31
0.0
  0
LINE
  5
19A
  8
0
 62
     0
 10
-179.00000025130001
 20
124.8355364583
 30
0.0
 11
-179.00000025130001
 21
127.27998111470001
 31
0.0
  0
LINE
  5
19B
  8
0
 62
     0
 10
-179.00000025130001
 20
124.8355364583
 30
0.0
 11
-179.00000025130001
 21
119.8355364583
 31
0.0
  0
SOLID
  5
19C
  8
0
 62
     0
 10
-179.00000025130001
 20
124.8355364583
 30
0.0
 11
-177.50000025130001
 21
118.8355364583
 31
0.0
 12
-180.50000025130001
 22
118.8355364583
 32
0.0
 13
-179.00000025130001
 23
120.3355364583
 33
0.0
  0
LINE
  5
19D
  8
0
 62
     0
 10
-179.00000025130001
 20
143.8355364583
 30
0.0
 11
-179.00000025130001
 21
148.8355364583
 31
0.0
  0
SOLID
  5
19E
  8
0
 62
     0
 10
-179.00000025130001
 20
143.8355364583
 30
0.0
 11
-180.50000025130001
 21
149.8355364583
 31
0.0
 12
-177.50000025130001
 22
149.8355364583
 32
0.0
 13
-179.00000025130001
 23
148.3355364583
 33
0.0
  0
ENDBLK
  5
19F
  8
0
  0
BLOCK
  8
0
  2
*D12
 70
     1
 10
0.0
 20
0.0
 30
0.0
  3
*D12
  1

  0
TEXT
  5
1A3
  8
0
 62
     0
 10
-198.96507158279999
 20
140.30775878649999
 30
0.0
 40
5.9972220420999998
  1
38
 50
90.0
  0
LINE
  5
1A4
  8
0
 62
     0
 10
-161.0
 20
162.8355364583
 30
0.0
 11
-197.90673828129999
 21
162.8355364583
 31
0.0
  0
LINE
  5
1A5
  8
0
 62
     0
 10
-161.0
 20
124.8355364583
 30
0.0
 11
-197.90673828129999
 21
124.8355364583
 31
0.0
  0
LINE
  5
1A6
  8
0
 62
     0
 10
-196.90673828129999
 20
162.8355364583
 30
0.0
 11
-196.90673828129999
 21
150.89109180200001
 31
0.0
  0
LINE
  5
1A7
  8
0
 62
     0
 10
-196.90673828129999
 20
162.8355364583
 30
0.0
 11
-196.90673828129999
 21
136.77998111470001
 31
0.0
  0
LINE
  5
1A8
  8
0
 62
     0
 10
-196.90673828129999
 20
124.8355364583
 30
0.0
 11
-196.90673828129999
 21
150.89109180200001
 31
0.0
  0
LINE
  5
1A9
  8
0
 62
     0
 10
-196.90673828129999
 20
124.8355364583
 30
0.0
 11
-196.90673828129999
 21
136.77998111470001
 31
0.0
  0
LINE
  5
1AA
  8
0
 62
     0
 10
-196.90673828129999
 20
124.8355364583
 30
0.0
 11
-196.90673828129999
 21
129.8355364583
 31
0.0
  0
SOLID
  5
1AB
  8
0
 62
     0
 10
-196.90673828129999
 20
124.8355364583
 30
0.0
 11
-198.40673828129999
 21
130.8355364583
 31
0.0
 12
-195.40673828129999
 22
130.8355364583
 32
0.0
 13
-196.90673828129999
 23
129.3355364583
 33
0.0
  0
LINE
  5
1AC
  8
0
 62
     0
 10
-196.90673828129999
 20
162.8355364583
 30
0.0
 11
-196.90673828129999
 21
157.8355364583
 31
0.0
  0
SOLID
  5
1AD
  8
0
 62
     0
 10
-196.90673828129999
 20
162.8355364583
 30
0.0
 11
-195.40673828129999
 21
156.8355364583
 31
0.0
 12
-198.40673828129999
 22
156.8355364583
 32
0.0
 13
-196.90673828129999
 23
158.3355364583
 33
0.0
  0
ENDBLK
  5
1AE
  8
0
  0
BLOCK
  8
0
  2
*D13
 70
     1
 10
0.0
 20
0.0
 30
0.0
  3
*D13
  1

  0
TEXT
  5
1E6
  8
0
 62
     0
 10
-20.308333301499999
 20
-30.5556702079
 30
0.0
 40
5.9972220420999998
  1
3.2t
 50
90.0
  0
LINE
  5
1E7
  8
0
 62
     0
 10
-37.0
 20
-44.873046875
 30
0.0
 11
-17.25
 21
-44.873046875
 31
0.0
  0
LINE
  5
1E8
  8
0
 62
     0
 10
-36.25
 20
-41.67304687499999
 30
0.0
 11
-17.25
 21
-41.67304687499999
 31
0.0
  0
LINE
  5
1E9
  8
0
 62
     0
 10
-18.25
 20
-44.873046875
 30
0.0
 11
-18.25
 21
-12.916781848799999
 31
0.0
  0
LINE
  5
1EA
  8
0
 62
     0
 10
-18.25
 20
-44.873046875
 30
0.0
 11
-18.25
 21
-34.083447879700003
 31
0.0
  0
LINE
  5
1EB
  8
0
 62
     0
 10
-18.25
 20
-41.67304687499999
 30
0.0
 11
-18.25
 21
-12.916781848799999
 31
0.0
  0
LINE
  5
1EC
  8
0
 62
     0
 10
-18.25
 20
-41.67304687499999
 30
0.0
 11
-18.25
 21
-34.083447879700003
 31
0.0
  0
LINE
  5
1ED
  8
0
 62
     0
 10
-18.25
 20
-41.67304687499999
 30
0.0
 11
-18.25
 21
-36.673046874999997
 31
0.0
  0
SOLID
  5
1EE
  8
0
 62
     0
 10
-18.25
 20
-41.67304687499999
 30
0.0
 11
-19.75
 21
-35.673046874999997
 31
0.0
 12
-16.75
 22
-35.673046874999997
 32
0.0
 13
-18.25
 23
-37.173046874999997
 33
0.0
  0
LINE
  5
1EF
  8
0
 62
     0
 10
-18.25
 20
-44.873046875
 30
0.0
 11
-18.25
 21
-49.873046875
 31
0.0
  0
SOLID
  5
1F0
  8
0
 62
     0
 10
-18.25
 20
-44.873046875
 30
0.0
 11
-16.75
 21
-50.873046875
 31
0.0
 12
-19.75
 22
-50.873046875
 32
0.0
 13
-18.25
 23
-49.373046875
 33
0.0
  0
ENDBLK
  5
1F1
  8
0
  0
BLOCK
  8
0
  2
*D14
 70
     1
 10
0.0
 20
0.0
 30
0.0
  3
*D14
  1

  0
TEXT
  5
1F5
  8
0
 62
     0
 10
-104.2916665077
 20
-62.814713573500001
 30
0.0
 40
5.9972220420999998
  1
120
  0
LINE
  5
1F6
  8
0
 62
     0
 10
-159.0
 20
-42.873046874999993
 30
0.0
 11
-159.0
 21
-65.873046875
 31
0.0
  0
LINE
  5
1F7
  8
0
 62
     0
 10
-39.0
 20
-46.873046875
 30
0.0
 11
-39.0
 21
-65.873046875
 31
0.0
  0
LINE
  5
1F8
  8
0
 62
     0
 10
-159.0
 20
-64.873046875
 30
0.0
 11
-90.18055582049999
 21
-64.873046875
 31
0.0
  0
LINE
  5
1F9
  8
0
 62
     0
 10
-159.0
 20
-64.873046875
 30
0.0
 11
-107.8194441795
 21
-64.873046875
 31
0.0
  0
LINE
  5
1FA
  8
0
 62
     0
 10
-39.0
 20
-64.873046875
 30
0.0
 11
-90.18055582049999
 21
-64.873046875
 31
0.0
  0
LINE
  5
1FB
  8
0
 62
     0
 10
-39.0
 20
-64.873046875
 30
0.0
 11
-107.8194441795
 21
-64.873046875
 31
0.0
  0
LINE
  5
1FC
  8
0
 62
     0
 10
-39.0
 20
-64.873046875
 30
0.0
 11
-44.0
 21
-64.873046875
 31
0.0
  0
SOLID
  5
1FD
  8
0
 62
     0
 10
-39.0
 20
-64.873046875
 30
0.0
 11
-45.0
 21
-66.373046875
 31
0.0
 12
-45.0
 22
-63.373046875
 32
0.0
 13
-43.5
 23
-64.873046875
 33
0.0
  0
LINE
  5
1FE
  8
0
 62
     0
 10
-159.0
 20
-64.873046875
 30
0.0
 11
-154.0
 21
-64.873046875
 31
0.0
  0
SOLID
  5
1FF
  8
0
 62
     0
 10
-159.0
 20
-64.873046875
 30
0.0
 11
-153.0
 21
-63.373046875
 31
0.0
 12
-153.0
 22
-66.373046875
 32
0.0
 13
-154.5
 23
-64.873046875
 33
0.0
  0
ENDBLK
  5
200
  8
0
  0
BLOCK
  8
0
  2
*D15
 70
     1
 10
0.0
 20
0.0
 30
0.0
  3
*D15
  1

  0
TEXT
  5
205
  8
0
 62
     0
 10
-124.9524999857
 20
-33.553587464499998
 30
0.0
 40
1.079499983799999
  1
90%%d
  0
ARC
  5
206
  8
0
 62
     0
 10
-124.0
 20
-46.17304687499999
 30
0.0
 40
12.0479594191
 50
127.1748319463
 51
133.6110357057
  0
ARC
  5
207
  8
0
 62
     0
 10
-124.0
 20
-46.17304687499999
 30
0.0
 40
12.0479594191
 50
46.388964294300003
 51
52.825168053700011
  0
SOLID
  5
208
  8
0
 62
     0
 10
-115.6898113994
 20
-37.449854134600002
 30
0.0
 11
-114.5991380481
 21
-38.044714041500001
 31
0.0
 12
-115.04279103179999
 22
-38.510415925300002
 32
0.0
 13
-115.03817625480001
 23
-38.070637271199999
 33
0.0
  0
SOLID
  5
209
  8
0
 62
     0
 10
-132.31018860059999
 20
-37.449854134600002
 30
0.0
 11
-132.95720896820001
 21
-38.510415925300002
 31
0.0
 12
-133.4008619519
 22
-38.044714041500001
 32
0.0
 13
-132.96182374520001
 23
-38.070637271199999
 33
0.0
  0
ARC
  5
20A
  8
0
 62
     0
 10
-124.0
 20
-46.17304687499999
 30
0.0
 40
12.0479594191
 50
46.388964294300003
 51
82.333903880600005
  0
ARC
  5
20B
  8
0
 62
     0
 10
-124.0
 20
-46.17304687499999
 30
0.0
 40
12.0479594191
 50
97.666096119400009
 51
133.6110357057
  0
LINE
  5
20C
  8
0
 62
     0
 10
-119.18431456659999
 20
-41.107361441599991
 30
0.0
 11
-115.040120762
 21
-36.963167636900003
 31
0.0
  0
LINE
  5
20D
  8
0
 62
     0
 10
-128.81568543340001
 20
-41.107361441599991
 30
0.0
 11
-132.9598792381
 21
-36.963167636999998
 31
0.0
  0
ENDBLK
  5
20E
  8
0
  0
BLOCK
  8
0
  2
*D16
 70
     1
 10
0.0
 20
0.0
 30
0.0
  3
*D16
  1

  0
TEXT
  5
213
  8
0
 62
     0
 10
-124.9524999857
 20
-52.116692716000003
 30
0.0
 40
1.079499983799999
  1
%%c4
  0
LINE
  5
214
  8
0
 62
     0
 10
-126.25
 20
-46.873046875
 30
0.0
 11
-126.25
 21
-53.507192731000011
 31
0.0
  0
LINE
  5
215
  8
0
 62
     0
 10
-121.75
 20
-46.873046875
 30
0.0
 11
-121.75
 21
-53.507192731000011
 31
0.0
  0
LINE
  5
216
  8
0
 62
     0
 10
-126.25
 20
-52.7071927191
 30
0.0
 11
-122.41250002380001
 21
-52.7071927191
 31
0.0
  0
LINE
  5
217
  8
0
 62
     0
 10
-126.25
 20
-52.7071927191
 30
0.0
 11
-125.58749997619999
 21
-52.7071927191
 31
0.0
  0
LINE
  5
218
  8
0
 62
     0
 10
-121.75
 20
-52.7071927191
 30
0.0
 11
-122.41250002380001
 21
-52.7071927191
 31
0.0
  0
LINE
  5
219
  8
0
 62
     0
 10
-121.75
 20
-52.7071927191
 30
0.0
 11
-125.58749997619999
 21
-52.7071927191
 31
0.0
  0
LINE
  5
21A
  8
0
 62
     0
 10
-121.75
 20
-52.7071927191
 30
0.0
 11
-119.75
 21
-52.7071927191
 31
0.0
  0
SOLID
  5
21B
  8
0
 62
     0
 10
-121.75
 20
-52.7071927191
 30
0.0
 11
-120.5499999523
 21
-52.385592728999988
 31
0.0
 12
-120.5499999523
 22
-53.028792709199998
 32
0.0
 13
-120.84999996419999
 23
-52.7071927191
 33
0.0
  0
LINE
  5
21C
  8
0
 62
     0
 10
-126.25
 20
-52.7071927191
 30
0.0
 11
-128.25
 21
-52.7071927191
 31
0.0
  0
SOLID
  5
21D
  8
0
 62
     0
 10
-126.25
 20
-52.7071927191
 30
0.0
 11
-127.4500000477
 21
-53.028792709199998
 31
0.0
 12
-127.4500000477
 22
-52.385592728999988
 32
0.0
 13
-127.15000003580001
 23
-52.7071927191
 33
0.0
  0
ENDBLK
  5
21E
  8
0
  0
BLOCK
  8
0
  2
*D17
 70
     1
 10
0.0
 20
0.0
 30
0.0
  3
*D17
  1

  0
TEXT
  5
222
  8
0
 62
     0
 10
-124.9524999857
 20
-36.3146090113
 30
0.0
 40
1.079499983799999
  1
%%c8
  0
LINE
  5
223
  8
0
 62
     0
 10
-119.75
 20
-39.673046874999997
 30
0.0
 11
-119.75
 21
-36.105109002399999
 31
0.0
  0
LINE
  5
224
  8
0
 62
     0
 10
-128.25
 20
-39.673046874999997
 30
0.0
 11
-128.25
 21
-36.105109002399999
 31
0.0
  0
LINE
  5
225
  8
0
 62
     0
 10
-119.75
 20
-36.905109014399997
 30
0.0
 11
-122.41250002380001
 21
-36.905109014399997
 31
0.0
  0
LINE
  5
226
  8
0
 62
     0
 10
-119.75
 20
-36.905109014399997
 30
0.0
 11
-125.58749997619999
 21
-36.905109014399997
 31
0.0
  0
LINE
  5
227
  8
0
 62
     0
 10
-128.25
 20
-36.905109014399997
 30
0.0
 11
-122.41250002380001
 21
-36.905109014399997
 31
0.0
  0
LINE
  5
228
  8
0
 62
     0
 10
-128.25
 20
-36.905109014399997
 30
0.0
 11
-125.58749997619999
 21
-36.905109014399997
 31
0.0
  0
LINE
  5
229
  8
0
 62
     0
 10
-128.25
 20
-36.905109014399997
 30
0.0
 11
-126.25
 21
-36.905109014399997
 31
0.0
  0
SOLID
  5
22A
  8
0
 62
     0
 10
-128.25
 20
-36.905109014399997
 30
0.0
 11
-127.0499999523
 21
-36.583509024199998
 31
0.0
 12
-127.0499999523
 22
-37.226709004500002
 32
0.0
 13
-127.34999996419999
 23
-36.905109014399997
 33
0.0
  0
LINE
  5
22B
  8
0
 62
     0
 10
-119.75
 20
-36.905109014399997
 30
0.0
 11
-121.75
 21
-36.905109014399997
 31
0.0
  0
SOLID
  5
22C
  8
0
 62
     0
 10
-119.75
 20
-36.905109014399997
 30
0.0
 11
-120.9500000477
 21
-37.226709004500002
 31
0.0
 12
-120.9500000477
 22
-36.583509024199998
 32
0.0
 13
-120.65000003580001
 23
-36.905109014399997
 33
0.0
  0
ENDBLK
  5
22D
  8
0
  0
BLOCK
  8
0
  2
*D18
 70
     1
 10
0.0
 20
0.0
 30
0.0
  3
*D18
  1

  0
TEXT
  5
23C
  8
0
 62
     0
 10
-107.0315748607
 20
21.2499856636
 30
0.0
 40
5.9972220420999998
  1
90%%d
 50
318.41128777400002
  0
ARC
  5
23D
  8
0
 62
     0
 10
-155.80000000000001
 20
-41.67304687499999
 30
0.0
 40
76.258403522400002
 50
84.433819561600004
 51
90.0
  0
ARC
  5
23E
  8
0
 62
     0
 10
-155.80000000000001
 20
-41.67304687499999
 30
0.0
 40
76.258403522400002
 50
0.0
 51
5.5661804383999991
  0
SOLID
  5
23F
  8
0
 62
     0
 10
-79.541596477599995
 20
-41.67304687499999
 30
0.0
 11
-78.041596477599995
 21
-47.673046874999997
 31
0.0
 12
-81.041596477599995
 22
-47.673046874999997
 32
0.0
 13
-79.541596477599995
 23
-46.17304687499999
 33
0.0
  0
SOLID
  5
240
  8
0
 62
     0
 10
-155.80000000000001
 20
34.585356647399998
 30
0.0
 11
-161.80000000000001
 21
33.085356647399998
 31
0.0
 12
-161.80000000000001
 22
36.085356647399998
 32
0.0
 13
-160.30000000000001
 23
34.585356647399998
 33
0.0
  0
ARC
  5
241
  8
0
 62
     0
 10
-155.80000000000001
 20
-41.67304687499999
 30
0.0
 40
76.258403522400002
 50
0.0
 51
41.690970799699997
  0
ARC
  5
242
  8
0
 62
     0
 10
-155.80000000000001
 20
-41.67304687499999
 30
0.0
 40
76.258403522400002
 50
55.131604748400001
 51
90.0
  0
LINE
  5
243
  8
0
 62
     0
 10
-43.0
 20
-41.67304687499999
 30
0.0
 11
-83.541596477599995
 21
-41.67304687499999
 31
0.0
  0
LINE
  5
244
  8
0
 62
     0
 10
-155.80000000000001
 20
71.126953125
 30
0.0
 11
-155.80000000000001
 21
30.585356647400001
 31
0.0
  0
ENDBLK
  5
245
  8
0
  0
BLOCK
  8
0
  2
*D19
 70
     1
 10
0.0
 20
0.0
 30
0.0
  3
*D19
  1

  0
TEXT
  5
249
  8
0
 62
     0
 10
-181.0583333015
 20
9.8352866172999995
 30
0.0
 40
5.9972220420999998
  1
120
 50
90.0
  0
LINE
  5
24A
  8
0
 62
     0
 10
-161.0
 20
75.126953125
 30
0.0
 11
-180.0
 21
75.126953125
 31
0.0
  0
LINE
  5
24B
  8
0
 62
     0
 10
-157.0
 20
-44.873046875
 30
0.0
 11
-180.0
 21
-44.873046875
 31
0.0
  0
LINE
  5
24C
  8
0
 62
     0
 10
-179.0
 20
75.126953125
 30
0.0
 11
-179.0
 21
23.9463973045
 31
0.0
  0
LINE
  5
24D
  8
0
 62
     0
 10
-179.0
 20
75.126953125
 30
0.0
 11
-179.0
 21
6.3075089454999986
 31
0.0
  0
LINE
  5
24E
  8
0
 62
     0
 10
-179.0
 20
-44.873046875
 30
0.0
 11
-179.0
 21
23.9463973045
 31
0.0
  0
LINE
  5
24F
  8
0
 62
     0
 10
-179.0
 20
-44.873046875
 30
0.0
 11
-179.0
 21
6.3075089454999986
 31
0.0
  0
LINE
  5
250
  8
0
 62
     0
 10
-179.0
 20
-44.873046875
 30
0.0
 11
-179.0
 21
-39.873046875
 31
0.0
  0
SOLID
  5
251
  8
0
 62
     0
 10
-179.0
 20
-44.873046875
 30
0.0
 11
-180.5
 21
-38.873046875
 31
0.0
 12
-177.5
 22
-38.873046875
 32
0.0
 13
-179.0
 23
-40.373046874999993
 33
0.0
  0
LINE
  5
252
  8
0
 62
     0
 10
-179.0
 20
75.126953125
 30
0.0
 11
-179.0
 21
70.126953125
 31
0.0
  0
SOLID
  5
253
  8
0
 62
     0
 10
-179.0
 20
75.126953125
 30
0.0
 11
-177.5
 21
69.126953125
 31
0.0
 12
-180.5
 22
69.126953125
 32
0.0
 13
-179.0
 23
70.626953125
 33
0.0
  0
ENDBLK
  5
254
  8
0
  0
BLOCK
  8
0
  2
*D20
 70
     1
 10
0.0
 20
0.0
 30
0.0
  3
*D20
  1

  0
LINE
  5
271
  8
寸法線
 62
     0
 10
76.145911248542546
 20
-21.028590472131452
 30
0.0
 11
76.145911248542546
 21
-31.815170566196631
 31
0.0
  0
LINE
  5
272
  8
寸法線
 62
     0
 10
85.745911248542484
 20
-21.028590472131452
 30
0.0
 11
85.745911248542484
 21
-31.815170566196631
 31
0.0
  0
LINE
  5
273
  8
寸法線
 62
     0
 10
80.645911248542546
 20
-30.815170566196631
 30
0.0
 11
81.245911248542484
 21
-30.815170566196631
 31
0.0
  0
LINE
  5
274
  8
寸法線
 62
     0
 10
85.745911248542484
 20
-30.815170566196631
 30
0.0
 11
90.245911248542484
 21
-30.815170566196631
 31
0.0
  0
SOLID
  5
275
  8
寸法線
 62
     0
 10
80.645911248542546
 20
-30.065170566196631
 30
0.0
 11
80.645911248542546
 21
-31.565170566196631
 31
0.0
 12
76.145911248542546
 22
-30.815170566196631
 32
0.0
 13
76.145911248542546
 23
-30.815170566196631
 33
0.0
  0
SOLID
  5
276
  8
寸法線
 62
     0
 10
81.245911248542484
 20
-30.065170566196631
 30
0.0
 11
81.245911248542484
 21
-31.565170566196631
 31
0.0
 12
85.745911248542484
 22
-30.815170566196631
 32
0.0
 13
85.745911248542484
 23
-30.815170566196631
 33
0.0
  0
INSERT
  5
277
  8
0
  6
CONTINUOUS
  2
*U63
 10
0.0
 20
0.0
 30
0.0
  0
POINT
  5
278
  8
DEFPOINTS
 62
     0
 10
76.145911248542546
 20
-20.966090472131452
 30
0.0
  0
POINT
  5
279
  8
DEFPOINTS
 62
     0
 10
85.745911248542484
 20
-20.966090472131452
 30
0.0
  0
POINT
  5
27A
  8
DEFPOINTS
 62
     0
 10
85.745911248542484
 20
-30.815170566196631
 30
0.0
  0
ENDBLK
  5
27B
  8
0
  0
BLOCK
  8
0
  2
*D21
 70
     1
 10
0.0
 20
0.0
 30
0.0
  3
*D21
  1

  0
LINE
  5
27E
  8
寸法線
 62
     0
 10
90.050765594166705
 20
-13.4612361265073
 30
0.0
 11
106.84964057954841
 21
3.3376388588744428
 31
0.0
  0
LINE
  5
27F
  8
寸法線
 62
     0
 10
71.841056903118925
 20
-13.46123612650681
 30
0.0
 11
55.04218191782261
 21
3.337638859160367
 31
0.0
  0
ARC
  5
280
  8
寸法線
 62
     0
 10
80.945911248542558
 20
-22.566090472131449
 30
0.0
 40
35.633405335950272
 50
52.240471233183783
 51
79.725567809004772
  0
ARC
  5
281
  8
寸法線
 62
     0
 10
80.945911248542558
 20
-22.566090472131449
 30
0.0
 40
35.633405335950272
 50
102.094781328133
 51
127.75952876618381
  0
SOLID
  5
282
  8
寸法線
 62
     0
 10
103.2617683474969
 20
6.168001571139766
 30
0.0
 11
102.2701979956133
 21
5.0424846955375049
 31
0.0
 12
106.1425337983619
 22
2.6305320776878971
 32
0.0
 13
106.1425337983619
 23
2.6305320776878971
 33
0.0
  0
SOLID
  5
283
  8
寸法線
 62
     0
 10
59.621624501776537
 20
5.0424846957728819
 30
0.0
 11
58.630054149905391
 21
6.1680015713860881
 31
0.0
 12
55.74928869900134
 22
2.6305320779660151
 32
0.0
 13
55.74928869900134
 23
2.6305320779660151
 33
0.0
  0
INSERT
  5
284
  8
0
  6
CONTINUOUS
  2
*U64
 10
0.0
 20
0.0
 30
0.0
  0
POINT
  5
285
  8
DEFPOINTS
 62
     0
 10
80.945911248542558
 20
-22.566090472131449
 30
0.0
  0
POINT
  5
286
  8
DEFPOINTS
 62
     0
 10
90.006571420342539
 20
-13.50543030033146
 30
0.0
  0
POINT
  5
287
  8
DEFPOINTS
 62
     0
 10
71.885251076942595
 20
-13.505430300331451
 30
0.0
  0
POINT
  5
288
  8
DEFPOINTS
 62
     0
 10
90.168515191470917
 20
11.85313602045567
 30
0.0
  0
ENDBLK
  5
289
  8
0
  0
BLOCK
  8
0
  2
*D22
 70
     1
 10
0.0
 20
0.0
 30
0.0
  3
*D22
  1

  0
LINE
  5
28C
  8
寸法線
 62
     0
 10
88.945911248542529
 20
-14.503590472131449
 30
0.0
 11
88.945911248542529
 21
1.8809947427057521
 31
0.0
  0
LINE
  5
28D
  8
寸法線
 62
     0
 10
72.945911248542558
 20
-14.503590472131449
 30
0.0
 11
72.945911248542558
 21
1.8809947427057521
 31
0.0
  0
LINE
  5
28E
  8
寸法線
 62
     0
 10
93.445911248542515
 20
0.8809947427057522
 30
0.0
 11
97.945911248542529
 21
0.8809947427057522
 31
0.0
  0
LINE
  5
28F
  8
寸法線
 62
     0
 10
68.445911248542558
 20
0.8809947427057522
 30
0.0
 11
63.945911248542551
 21
0.8809947427057522
 31
0.0
  0
SOLID
  5
290
  8
寸法線
 62
     0
 10
93.445911248542515
 20
1.6309947427057521
 30
0.0
 11
93.445911248542515
 21
0.1309947427057523
 31
0.0
 12
88.945911248542529
 22
0.8809947427057522
 32
0.0
 13
88.945911248542529
 23
0.8809947427057522
 33
0.0
  0
SOLID
  5
291
  8
寸法線
 62
     0
 10
68.445911248542558
 20
1.6309947427057521
 30
0.0
 11
68.445911248542558
 21
0.1309947427057523
 31
0.0
 12
72.945911248542558
 22
0.8809947427057522
 32
0.0
 13
72.945911248542558
 23
0.8809947427057522
 33
0.0
  0
INSERT
  5
292
  8
0
  6
CONTINUOUS
  2
*U65
 10
0.0
 20
0.0
 30
0.0
  0
POINT
  5
293
  8
DEFPOINTS
 62
     0
 10
88.945911248542529
 20
-14.566090472131449
 30
0.0
  0
POINT
  5
294
  8
DEFPOINTS
 62
     0
 10
72.945911248542558
 20
-14.566090472131449
 30
0.0
  0
POINT
  5
295
  8
DEFPOINTS
 62
     0
 10
72.945911248542558
 20
0.8809947427057522
 30
0.0
  0
ENDBLK
  5
296
  8
0
  0
BLOCK
  8
0
  2
*D24
 70
     1
 10
0.0
 20
0.0
 30
0.0
  3
*D24
  1

  0
LINE
  5
2DA
  8
寸法線
 62
     0
 10
193.22711716981399
 20
-33.20892393120117
 30
0.0
 11
193.22711716981399
 21
-16.824338716363972
 31
0.0
  0
LINE
  5
2DB
  8
寸法線
 62
     0
 10
177.22711716981399
 20
-33.20892393120117
 30
0.0
 11
177.22711716981399
 21
-16.824338716363972
 31
0.0
  0
LINE
  5
2DC
  8
寸法線
 62
     0
 10
199.22711716981399
 20
-17.824338716363972
 30
0.0
 11
205.22711716981399
 21
-17.824338716363972
 31
0.0
  0
LINE
  5
2DD
  8
寸法線
 62
     0
 10
171.22711716981411
 20
-17.824338716363972
 30
0.0
 11
165.22711716981411
 21
-17.824338716363972
 31
0.0
  0
SOLID
  5
2DE
  8
寸法線
 62
     0
 10
199.22711716981399
 20
-16.824338716363972
 30
0.0
 11
199.22711716981399
 21
-18.824338716363972
 31
0.0
 12
193.22711716981399
 22
-17.824338716363972
 32
0.0
 13
193.22711716981399
 23
-17.824338716363972
 33
0.0
  0
SOLID
  5
2DF
  8
寸法線
 62
     0
 10
171.22711716981411
 20
-16.824338716363972
 30
0.0
 11
171.22711716981411
 21
-18.824338716363972
 31
0.0
 12
177.22711716981399
 22
-17.824338716363972
 32
0.0
 13
177.22711716981399
 23
-17.824338716363972
 33
0.0
  0
INSERT
  5
2E0
  8
0
  6
CONTINUOUS
  2
*U66
 10
0.0
 20
0.0
 30
0.0
  0
POINT
  5
2E1
  8
DEFPOINTS
 62
     0
 10
193.22711716981399
 20
-33.27142393120117
 30
0.0
  0
POINT
  5
2E2
  8
DEFPOINTS
 62
     0
 10
177.22711716981399
 20
-33.27142393120117
 30
0.0
  0
POINT
  5
2E3
  8
DEFPOINTS
 62
     0
 10
177.22711716981399
 20
-17.824338716363972
 30
0.0
  0
ENDBLK
  5
2BE
  8
0
  0
BLOCK
  8
0
  2
*D25
 70
     1
 10
0.0
 20
0.0
 30
0.0
  3
*D25
  1

  0
LINE
  5
3C4
  8
寸法線
 62
     0
 10
194.3319715154382
 20
-32.166569585577022
 30
0.0
 11
211.1308465008199
 21
-15.36769460019522
 31
0.0
  0
LINE
  5
3C5
  8
寸法線
 62
     0
 10
176.12226282439039
 20
-32.166569585576532
 30
0.0
 11
159.3233878390941
 21
-15.367694599909409
 31
0.0
  0
ARC
  5
3C6
  8
寸法線
 62
     0
 10
185.22711716981411
 20
-41.271423931201177
 30
0.0
 40
35.633405335950272
 50
54.658972838749143
 51
75.971453317866974
  0
ARC
  5
3C7
  8
寸法線
 62
     0
 10
185.22711716981411
 20
-41.271423931201177
 30
0.0
 40
35.633405335950272
 50
105.84889581927089
 51
125.34102716061869
  0
SOLID
  5
3C8
  8
寸法線
 62
     0
 10
206.48403562970469
 20
-11.44028612260888
 30
0.0
 11
205.1939065776663
 21
-12.96854232792484
 31
0.0
 12
210.4237397196334
 22
-16.074801381381771
 32
0.0
 13
210.4237397196334
 23
-16.074801381381771
 33
0.0
  0
SOLID
  5
3C9
  8
寸法線
 62
     0
 10
165.2603277622741
 20
-12.96854232770453
 30
0.0
 11
163.9701987102527
 21
-11.44028612237434
 31
0.0
 12
160.0304946202728
 22
-16.074801381103761
 32
0.0
 13
160.0304946202728
 23
-16.074801381103761
 33
0.0
  0
TEXT
  8
寸法線
  40
5.99722
  5
3D7
  62
0
  72
0
  71
0
 10
172.667
 20
-16.2576
 30
0.000000
  1
90°
  0
POINT
  5
3CB
  8
DEFPOINTS
 62
     0
 10
185.22711716981411
 20
-41.271423931201177
 30
0.0
  0
POINT
  5
3CC
  8
DEFPOINTS
 62
     0
 10
194.28777734161409
 20
-32.210763759401182
 30
0.0
  0
POINT
  5
3CD
  8
DEFPOINTS
 62
     0
 10
176.1664569982141
 20
-32.210763759401182
 30
0.0
  0
POINT
  5
3CE
  8
DEFPOINTS
 62
     0
 10
194.44972111274231
 20
-6.8521974386140281
 30
0.0
  0
ENDBLK
  5
2CC
  8
0
  0
BLOCK
  8
0
  2
*D26
 70
     1
 10
0.0
 20
0.0
 30
0.0
  3
*D26
  1

  0
LINE
  5
2F9
  8
寸法線
 62
     0
 10
180.42711716981401
 20
-39.733923931201183
 30
0.0
 11
180.42711716981401
 21
-50.520504025266348
 31
0.0
  0
LINE
  5
2FA
  8
寸法線
 62
     0
 10
190.02711716981401
 20
-39.733923931201183
 30
0.0
 11
190.02711716981401
 21
-50.520504025266348
 31
0.0
  0
LINE
  5
2FB
  8
寸法線
 62
     0
 10
174.42711716981401
 20
-49.520504025266341
 30
0.0
 11
168.42711716981401
 21
-49.520504025266341
 31
0.0
  0
LINE
  5
2FC
  8
寸法線
 62
     0
 10
196.02711716981401
 20
-49.520504025266341
 30
0.0
 11
206.02526519788071
 21
-49.520504025266341
 31
0.0
  0
SOLID
  5
2FD
  8
寸法線
 62
     0
 10
174.42711716981401
 20
-48.520504025266348
 30
0.0
 11
174.42711716981401
 21
-50.520504025266348
 31
0.0
 12
180.42711716981401
 22
-49.520504025266341
 32
0.0
 13
180.42711716981401
 23
-49.520504025266341
 33
0.0
  0
SOLID
  5
2FE
  8
寸法線
 62
     0
 10
196.02711716981401
 20
-48.520504025266348
 30
0.0
 11
196.02711716981401
 21
-50.520504025266348
 31
0.0
 12
190.02711716981401
 22
-49.520504025266341
 32
0.0
 13
190.02711716981401
 23
-49.520504025266341
 33
0.0
  0
INSERT
  5
2FF
  8
0
  6
CONTINUOUS
  2
*U67
 10
0.0
 20
0.0
 30
0.0
  0
POINT
  5
300
  8
DEFPOINTS
 62
     0
 10
180.42711716981401
 20
-39.671423931201183
 30
0.0
  0
POINT
  5
301
  8
DEFPOINTS
 62
     0
 10
190.02711716981401
 20
-39.671423931201183
 30
0.0
  0
POINT
  5
302
  8
DEFPOINTS
 62
     0
 10
190.02711716981401
 20
-49.520504025266341
 30
0.0
  0
ENDBLK
  5
2D9
  8
0
  0
BLOCK
  8
0
  2
*U27
 70
     1
 10
0.0
 20
0.0
 30
0.0
  3
*U27
  1

  0
TEXT
  5
314
  8
図枠
  6
CONTINUOUS
 10
257.42483577894723
 20
207.72968595842229
 30
0.0
 40
5.3969601688999989
  1
検認者
  0
ENDBLK
  5
316
  8
0
  0
BLOCK
  8
0
  2
*U28
 70
     1
 10
0.0
 20
0.0
 30
0.0
  3
*U28
  1

  0
TEXT
  5
318
  8
図枠
  6
CONTINUOUS
 10
237.5090229896411
 20
207.7570816953203
 30
0.0
 40
5.3969601688999989
  1
改訂者
  0
ENDBLK
  5
31A
  8
0
  0
BLOCK
  8
0
  2
*U29
 70
     1
 10
0.0
 20
0.0
 30
0.0
  3
*U29
  1

  0
TEXT
  5
31C
  8
図枠
  6
CONTINUOUS
 10
90.770417812050525
 20
207.8666646429121
 30
0.0
 40
5.3969601688999989
  1
副番
  0
ENDBLK
  5
31E
  8
0
  0
BLOCK
  8
0
  2
*U30
 70
     1
 10
0.0
 20
0.0
 30
0.0
  3
*U30
  1

  0
TEXT
  5
320
  8
図枠
  6
CONTINUOUS
 10
111.23396775221239
 20
207.81187316911621
 30
0.0
 40
5.3969601688999989
  1
改訂日
  0
ENDBLK
  5
322
  8
0
  0
BLOCK
  8
0
  2
*U31
 70
     1
 10
0.0
 20
0.0
 30
0.0
  3
*U31
  1

  0
TEXT
  5
324
  8
図枠
  6
CONTINUOUS
 10
163.3788227502888
 20
207.7570816953203
 30
0.0
 40
5.3969601688999989
  1
改　訂　内　容
  0
ENDBLK
  5
326
  8
0
  0
BLOCK
  8
0
  2
*U32
 70
     1
 10
0.0
 20
0.0
 30
0.0
  3
*U32
  1

  0
TEXT
  5
328
  8
図枠
  6
CONTINUOUS
 10
55.667437242932991
 20
-119.8896563402822
 30
0.0
 40
4.6745324999999989
  1
日 　付
  0
ENDBLK
  5
32A
  8
0
  0
BLOCK
  8
0
  2
*U33
 70
     1
 10
0.0
 20
0.0
 30
0.0
  3
*U33
  1

  0
TEXT
  5
32C
  8
図枠
  6
CONTINUOUS
 10
166.0954796287198
 20
-136.57184499776449
 30
0.0
 40
4.6745324999999989
  1
図面名
  0
ENDBLK
  5
32E
  8
0
  0
BLOCK
  8
0
  2
*U34
 70
     1
 10
0.0
 20
0.0
 30
0.0
  3
*U34
  1

  0
TEXT
  5
330
  8
図枠
  6
CONTINUOUS
 10
165.96497237618169
 20
-119.6210021805056
 30
0.0
 40
4.6745324999999989
  1
製品名
  0
ENDBLK
  5
332
  8
0
  0
BLOCK
  8
0
  2
*U35
 70
     1
 10
0.0
 20
0.0
 30
0.0
  3
*U35
  1

  0
TEXT
  5
334
  8
図枠
  6
CONTINUOUS
 10
105.52266695740001
 20
-137.00659929713501
 30
0.0
 40
4.6745324999999989
  1
 照査
  0
ENDBLK
  5
336
  8
0
  0
BLOCK
  8
0
  2
*U36
 70
     1
 10
0.0
 20
0.0
 30
0.0
  3
*U36
  1

  0
TEXT
  5
338
  8
図枠
  6
CONTINUOUS
 10
166.0717510373492
 20
-153.52268781502329
 30
0.0
 40
4.6745324999999989
  1
図　番
  0
ENDBLK
  5
33A
  8
0
  0
BLOCK
  8
0
  2
*U37
 70
     1
 10
0.0
 20
0.0
 30
0.0
  3
*U37
  1

  0
TEXT
  5
33C
  8
図枠
  6
CONTINUOUS
 10
228.1812629198335
 20
-88.871767685699993
 30
0.0
 40
6.4593539188999989
  1
3.2t
  0
ENDBLK
  5
33E
  8
0
  0
BLOCK
  8
0
  2
*U38
 70
     1
 10
0.0
 20
0.0
 30
0.0
  3
*U38
  1

  0
TEXT
  5
340
  8
図枠
  6
CONTINUOUS
 10
163.13594079473751
 20
-88.835020087262933
 30
0.0
 40
5.6094389188999987
  1
板　　厚
  0
ENDBLK
  5
342
  8
0
  0
BLOCK
  8
0
  2
*U39
 70
     1
 10
0.0
 20
0.0
 30
0.0
  3
*U39
  1

  0
TEXT
  5
344
  8
図枠
  6
CONTINUOUS
 10
200.021849567901
 20
-158.6720090867
 30
0.0
 40
5.9966223199000002
  1
ＳＲＫ００１１８
  0
ENDBLK
  5
346
  8
0
  0
BLOCK
  8
0
  2
*U40
 70
     1
 10
0.0
 20
0.0
 30
0.0
  3
*U40
  1

  0
TEXT
  5
348
  8
図枠
  6
CONTINUOUS
 10
205.77495423014011
 20
-141.79546791553051
 30
0.0
 40
5.9966223199000002
  1
LY-610 承認図
  0
ENDBLK
  5
34A
  8
0
  0
BLOCK
  8
0
  2
*U41
 70
     1
 10
0.0
 20
0.0
 30
0.0
  3
*U41
  1

  0
TEXT
  5
34C
  8
図枠
  6
CONTINUOUS
 10
76.311375180750247
 20
-145.4108349316528
 30
0.0
 40
4.6745324999999989
  1
園 原
  0
ENDBLK
  5
34E
  8
0
  0
BLOCK
  8
0
  2
*U42
 70
     1
 10
0.0
 20
0.0
 30
0.0
  3
*U42
  1

  0
TEXT
  5
350
  8
図枠
  6
CONTINUOUS
 10
105.52266695740001
 20
-145.55320647987611
 30
0.0
 40
4.6745324999999989
  1
 検図
  0
ENDBLK
  5
352
  8
0
  0
BLOCK
  8
0
  2
*U43
 70
     1
 10
0.0
 20
0.0
 30
0.0
  3
*U43
  1

  0
TEXT
  5
354
  8
図枠
  6
CONTINUOUS
 10
76.311375180750247
 20
-136.91168493165279
 30
0.0
 40
4.6745324999999989
  1
園 原
  0
ENDBLK
  5
356
  8
0
  0
BLOCK
  8
0
  2
*U44
 70
     1
 10
0.0
 20
0.0
 30
0.0
  3
*U44
  1

  0
TEXT
  5
358
  8
図枠
  6
CONTINUOUS
 10
45.528666957399992
 20
-136.98287070576441
 30
0.0
 40
4.6745324999999989
  1
 設計
  0
ENDBLK
  5
35A
  8
0
  0
BLOCK
  8
0
  2
*U45
 70
     1
 10
0.0
 20
0.0
 30
0.0
  3
*U45
  1

  0
TEXT
  5
35C
  8
図枠
  6
CONTINUOUS
 10
204.32906813777851
 20
-125.2842032308523
 30
0.0
 40
5.9966223199000002
  1
Ｌ型ブラケット
  0
ENDBLK
  5
35E
  8
0
  0
BLOCK
  8
0
  2
*U46
 70
     1
 10
0.0
 20
0.0
 30
0.0
  3
*U46
  1

  0
TEXT
  5
360
  8
図枠
  6
CONTINUOUS
 10
119.925136086432
 20
-110.8328200872629
 30
0.0
 40
5.6094389188999987
  1
指定無き公差はJIS 0408-Bによること
  0
ENDBLK
  5
362
  8
0
  0
BLOCK
  8
0
  2
*U47
 70
     1
 10
0.0
 20
0.0
 30
0.0
  3
*U47
  1

  0
TEXT
  5
364
  8
図枠
  6
CONTINUOUS
 10
156.4292005231315
 20
-99.691548541097973
 30
0.0
 40
5.6094389188999987
  1
ユニクロメッキ
  0
ENDBLK
  5
366
  8
0
  0
BLOCK
  8
0
  2
*U48
 70
     1
 10
0.0
 20
0.0
 30
0.0
  3
*U48
  1

  0
TEXT
  5
368
  8
図枠
  6
CONTINUOUS
 10
48.331305447247708
 20
-145.5294778885056
 30
0.0
 40
4.6745324999999989
  1
製図
  0
ENDBLK
  5
36A
  8
0
  0
BLOCK
  8
0
  2
*U49
 70
     1
 10
0.0
 20
0.0
 30
0.0
  3
*U49
  1

  0
TEXT
  5
36C
  8
図枠
  6
CONTINUOUS
 10
119.925136086432
 20
-110.8328200872629
 30
0.0
 40
5.6094389188999987
  1
指定無き公差はJIS 0408-Bによること
  0
ENDBLK
  5
36E
  8
0
  0
BLOCK
  8
0
  2
*U50
 70
     1
 10
0.0
 20
0.0
 30
0.0
  3
*U50
  1

  0
TEXT
  5
370
  8
図枠
  6
CONTINUOUS
 10
95.165136824151261
 20
-120.0320278885055
 30
0.0
 40
4.6745324999999989
  1
尺 　度
  0
ENDBLK
  5
372
  8
0
  0
BLOCK
  8
0
  2
*U51
 70
     1
 10
0.0
 20
0.0
 30
0.0
  3
*U51
  1

  0
TEXT
  5
374
  8
図枠
  6
CONTINUOUS
 10
57.992839197247712
 20
-128.2938919748
 30
0.0
 40
4.6745324999999989
  1
H12.7
  0
ENDBLK
  5
376
  8
0
  0
BLOCK
  8
0
  2
*U52
 70
     1
 10
0.0
 20
0.0
 30
0.0
  3
*U52
  1

  0
TEXT
  5
378
  8
図枠
  6
CONTINUOUS
 10
136.16300363252691
 20
-145.5294778885056
 30
0.0
 40
4.6745324999999989
  1
柳 原
  0
ENDBLK
  5
37A
  8
0
  0
BLOCK
  8
0
  2
*U53
 70
     1
 10
0.0
 20
0.0
 30
0.0
  3
*U53
  1

  0
TEXT
  5
37C
  8
図枠
  6
CONTINUOUS
 10
51.21832656782005
 20
-88.721122850330957
 30
0.0
 40
5.6094389188999987
  1
材　　質
  0
ENDBLK
  5
37E
  8
0
  0
BLOCK
  8
0
  2
*U54
 70
     1
 10
0.0
 20
0.0
 30
0.0
  3
*U54
  1

  0
TEXT
  5
380
  8
図枠
  6
CONTINUOUS
 10
136.16300363252691
 20
-137.0303278885055
 30
0.0
 40
4.6745324999999989
  1
柳 原
  0
ENDBLK
  5
382
  8
0
  0
BLOCK
  8
0
  2
*U55
 70
     1
 10
0.0
 20
0.0
 30
0.0
  3
*U55
  1

  0
TEXT
  5
384
  8
図枠
  6
CONTINUOUS
 10
53.9689302962
 20
-160.27617351510759
 30
0.0
 40
8.6351362703000003
  1
株式会社
  0
ENDBLK
  5
386
  8
0
  0
BLOCK
  8
0
  2
*U56
 70
     1
 10
0.0
 20
0.0
 30
0.0
  3
*U56
  1

  0
TEXT
  5
388
  8
図枠
  6
CONTINUOUS
 10
99.744754958669034
 20
-128.2938919748
 30
0.0
 40
4.6745324999999989
  1
1：1
  0
ENDBLK
  5
38A
  8
0
  0
BLOCK
  8
0
  2
*U57
 70
     1
 10
0.0
 20
0.0
 30
0.0
  3
*U57
  1

  0
TEXT
  5
38C
  8
図枠
  6
CONTINUOUS
 10
51.303749495519028
 20
-110.8897687057289
 30
0.0
 40
5.6094389188999987
  1
一般公差
  0
ENDBLK
  5
38E
  8
0
  0
BLOCK
  8
0
  2
*U58
 70
     1
 10
0.0
 20
0.0
 30
0.0
  3
*U58
  1

  0
TEXT
  5
390
  8
ﾚｲﾔ_1
  6
CONTINUOUS
 10
168.78649088540001
 20
-77.041809494692885
 30
0.0
 40
5.9972220420999998
  1
皿加工部詳細
  0
ENDBLK
  5
392
  8
0
  0
BLOCK
  8
0
  2
*U59
 70
     1
 10
0.0
 20
0.0
 30
0.0
  3
*U59
  1

  0
TEXT
  5
394
  8
図枠
  6
CONTINUOUS
 10
114.6979622050431
 20
-88.409036086699999
 30
0.0
 40
5.9966223199000002
  1
SPCC
  0
ENDBLK
  5
396
  8
0
  0
BLOCK
  8
0
  2
*U60
 70
     1
 10
0.0
 20
0.0
 30
0.0
  3
*U60
  1

  0
TEXT
  5
398
  8
図枠
  6
CONTINUOUS
 10
51.161377949354062
 20
-99.776971468796958
 30
0.0
 40
5.6094389188999987
  1
表面処理
  0
ENDBLK
  5
39A
  8
0
  0
BLOCK
  8
0
  2
*D61
 70
     1
 10
0.0
 20
0.0
 30
0.0
  3
*D61
  1

  0
LINE
  5
39C
  8
寸法線
 62
     0
 10
-118.9265599757718
 20
-40.847464350300079
 30
0.0
 11
-114.8276126328312
 21
-36.544805358573782
 31
0.0
  0
LINE
  5
39D
  8
寸法線
 62
     0
 10
-129.0734400242282
 20
-40.847464350300079
 30
0.0
 11
-133.17238736716871
 21
-36.544805358573782
 31
0.0
  0
ARC
  5
39E
  8
寸法線
 62
     0
 10
-124.0
 20
-46.17304687499999
 30
0.0
 40
12.047959419099991
 50
52.098096255203991
 51
81.324940584730584
  0
ARC
  5
39F
  8
寸法線
 62
     0
 10
-124.0
 20
-46.17304687499999
 30
0.0
 40
12.047959419099991
 50
98.67505941526943
 51
127.901903744796
  0
SOLID
  5
3A0
  8
寸法線
 62
     0
 10
-116.46823189759979
 20
-36.514941493929008
 30
0.0
 11
-116.7293700243919
 21
-36.817938014462669
 31
0.0
 12
-115.6898113993948
 22
-37.449854134572178
 32
0.0
 13
-115.6898113993948
 23
-37.449854134572178
 33
0.0
  0
SOLID
  5
3A1
  8
寸法線
 62
     0
 10
-131.2706299756081
 20
-36.817938014462669
 30
0.0
 11
-131.53176810240021
 21
-36.514941493929008
 31
0.0
 12
-132.3101886006051
 22
-37.449854134572178
 32
0.0
 13
-132.3101886006051
 23
-37.449854134572178
 33
0.0
  0
TEXT
  8
寸法線
  40
1.0795
  5
3D8
  62
0
  72
0
  71
0
 10
-126.159
 20
-36.0358
 30
0.000000
  1
87°
  0
POINT
  5
3A3
  8
DEFPOINTS
 62
     0
 10
-124.0
 20
-46.17304687499999
 30
0.0
  0
POINT
  5
3A4
  8
DEFPOINTS
 62
     0
 10
-118.9696699141
 20
-40.8927167891
 30
0.0
  0
POINT
  5
3A5
  8
DEFPOINTS
 62
     0
 10
-129.0303300859
 20
-40.8927167891
 30
0.0
  0
POINT
  5
3A6
  8
DEFPOINTS
 62
     0
 10
-120.9758976647872
 20
-34.510794466891149
 30
0.0
  0
ENDBLK
  5
3A8
  8
0
  0
BLOCK
  8
0
  2
*D62
 70
     1
 10
0.0
 20
0.0
 30
0.0
  3
*D62
  1

  0
LINE
  5
3AA
  8
寸法線
 62
     0
 10
-39.062500000000007
 20
-41.67304687499999
 30
0.0
 11
-80.791596477629525
 21
-41.67304687499999
 31
0.0
  0
LINE
  5
3AB
  8
寸法線
 62
     0
 10
-155.80000000000001
 20
75.064453125000028
 30
0.0
 11
-155.80000000000001
 21
33.33535664737051
 31
0.0
  0
ARC
  5
3AC
  8
寸法線
 62
     0
 10
-155.80000000000001
 20
-41.67304687499999
 30
0.0
 40
76.258403522370486
 50
4.5091871277708044
 51
41.492864005158019
  0
ARC
  5
3AD
  8
寸法線
 62
     0
 10
-155.80000000000001
 20
-41.67304687499999
 30
0.0
 40
76.258403522370486
 50
55.329711542947258
 51
85.490812872229213
  0
SOLID
  5
3AE
  8
寸法線
 62
     0
 10
-78.778410151990116
 20
-35.638351635606632
 30
0.0
 11
-80.776861922909035
 21
-35.717031488879982
 31
0.0
 12
-79.541596477629511
 22
-41.673046874999997
 32
0.0
 13
-79.541596477629511
 23
-41.673046874999997
 33
0.0
  0
SOLID
  5
3AF
  8
寸法線
 62
     0
 10
-149.84398461388
 20
33.350091202090987
 30
0.0
 11
-149.7653047606066
 21
35.348542973009899
 31
0.0
 12
-155.80000000000001
 22
34.585356647370489
 32
0.0
 13
-155.80000000000001
 23
34.585356647370489
 33
0.0
  0
TEXT
  8
寸法線
  40
5.99722
  5
3D9
  62
0
  72
0
  71
0
 10
-117.176
 20
4.74773
 30
0.000000
  1
90°
  0
POINT
  5
3B1
  8
DEFPOINTS
 62
     0
 10
-155.80000000000001
 20
-41.67304687499999
 30
0.0
  0
POINT
  5
3B2
  8
DEFPOINTS
 62
     0
 10
-39.0
 20
-41.67304687499999
 30
0.0
  0
POINT
  5
3B3
  8
DEFPOINTS
 62
     0
 10
-155.80000000000001
 20
75.126953125000014
 30
0.0
  0
POINT
  5
3B4
  8
DEFPOINTS
 62
     0
 10
-89.758285297582447
 20
-3.543845113814768
 30
0.0
  0
ENDBLK
  5
3B6
  8
0
  0
BLOCK
  8
0
  2
*U63
 70
     1
 10
0.0
 20
0.0
 30
0.0
  3
*U63
  1

  0
TEXT
  5
3B8
  8
寸法線
  6
CONTINUOUS
 62
     0
 10
90.335911248542487
 20
-33.064128831996634
 30
0.0
 40
4.4979165315999996
  1
\U+2205
  0
TEXT
  5
3B9
  8
寸法線
  6
CONTINUOUS
 62
     0
 10
94.833827780142485
 20
-33.064128831996634
 30
0.0
 40
4.4979165315999996
  1
4.5
  0
ENDBLK
  5
3BB
  8
0
  0
BLOCK
  8
0
  2
*U64
 70
     1
 10
0.0
 20
0.0
 30
0.0
  3
*U64
  1

  0
TEXT
  5
3BD
  8
寸法線
  6
CONTINUOUS
 62
     0
 10
73.594624140257963
 20
10.705780320053069
 30
0.0
 40
4.4979165315999996
  1
90°
 50
0.9101745685689267
  0
ENDBLK
  5
3BF
  8
0
  0
BLOCK
  8
0
  2
*U65
 70
     1
 10
0.0
 20
0.0
 30
0.0
  3
*U65
  1

  0
TEXT
  5
3C1
  8
寸法線
  6
CONTINUOUS
 62
     0
 10
76.936289758292261
 20
-1.3679635230942471
 30
0.0
 40
4.4979165315999996
  1
φ8
  0
ENDBLK
  5
3C3
  8
0
  0
BLOCK
  8
0
  2
*U66
 70
     1
 10
0.0
 20
0.0
 30
0.0
  3
*U66
  1

  0
TEXT
  5
3D0
  8
寸法線
  6
CONTINUOUS
 62
     0
 10
179.96807442081379
 20
-20.822949737413971
 30
0.0
 40
5.9972220420999998
  1
φ8
  0
ENDBLK
  5
3D2
  8
0
  0
BLOCK
  8
0
  2
*U67
 70
     1
 10
0.0
 20
0.0
 30
0.0
  3
*U67
  1

  0
TEXT
  5
3D4
  8
寸法線
  6
CONTINUOUS
 62
     0
 10
206.11526519788069
 20
-52.519115046316351
 30
0.0
 40
5.9972220420999998
  1
φ4
  0
ENDBLK
  5
3D6
  8
0
  0
ENDSEC
  0
SECTION
  2
ENTITIES
  0
LINE
  5
2F
  8
図枠
 62
     5
 10
96.954953042399993
 20
204.69410770920001
 30
0.0
 11
92.005448042400005
 21
196.12131357690001
 31
0.0
  0
LINE
  5
30
  8
図枠
 62
     5
 10
96.954953042399993
 20
204.69410770920001
 30
0.0
 11
101.90445804239999
 21
196.12131357690001
 31
0.0
  0
LINE
  5
31
  8
図枠
 62
     5
 10
105.52266695740001
 20
185.26081623319999
 30
0.0
 11
105.52266695740001
 21
215.2578162332
 31
0.0
  0
INSERT
  5
32
  8
0
  6
CONTINUOUS
  2
*U27
 10
0.0
 20
0.0
 30
0.0
  0
INSERT
  5
33
  8
0
  6
CONTINUOUS
  2
*U28
 10
0.0
 20
0.0
 30
0.0
  0
LINE
  5
34
  8
図枠
 62
     5
 10
257.50746695740003
 20
185.26081623319999
 30
0.0
 11
257.50746695740003
 21
215.2578162332
 31
0.0
  0
INSERT
  5
35
  8
0
  6
CONTINUOUS
  2
*U29
 10
0.0
 20
0.0
 30
0.0
  0
INSERT
  5
36
  8
0
  6
CONTINUOUS
  2
*U30
 10
0.0
 20
0.0
 30
0.0
  0
INSERT
  5
37
  8
0
  6
CONTINUOUS
  2
*U31
 10
0.0
 20
0.0
 30
0.0
  0
LINE
  5
38
  8
図枠
 62
     5
 10
89.524266957399988
 20
195.25981623320001
 30
0.0
 11
277.50546695740002
 21
195.25981623320001
 31
0.0
  0
LINE
  5
39
  8
図枠
 62
     5
 10
89.524266957399988
 20
205.25881623320001
 30
0.0
 11
277.50546695740002
 21
205.25881623320001
 31
0.0
  0
LINE
  5
3B
  8
ﾚｲﾔ_1
  6
BORDER
 62
     3
 10
165.05019531249999
 20
143.8355364583
 30
0.0
 11
150.05019531249999
 21
143.8355364583
 31
0.0
  0
LINE
  5
3C
  8
ﾚｲﾔ_1
  6
BORDER
 62
     3
 10
183.28225745189999
 20
143.8355364583
 30
0.0
 11
196.65067850450001
 21
143.8355364583
 31
0.0
  0
CIRCLE
  5
3D
  8
ﾚｲﾔ_1
 62
     5
 10
97.550195312499994
 20
143.8355364583
 30
0.0
 40
2.25
  0
LINE
  5
3E
  8
ﾚｲﾔ_1
  6
BORDER
 62
     3
 10
97.550195312499994
 20
151.3355364583
 30
0.0
 11
97.550195312499994
 21
136.3355364583
 31
0.0
  0
LINE
  5
3F
  8
ﾚｲﾔ_1
  6
BORDER
 62
     3
 10
105.05019531249999
 20
143.8355364583
 30
0.0
 11
90.050195312499994
 21
143.8355364583
 31
0.0
  0
LINE
  5
40
  8
ﾚｲﾔ_1
  6
STITCH
 10
191.35019531250001
 20
141.5855364583
 30
0.0
 11
189.35019531250001
 21
139.5855364583
 31
0.0
  0
LINE
  5
41
  8
ﾚｲﾔ_1
  6
STITCH
 10
189.35019531250001
 20
148.0855364583
 30
0.0
 11
191.35019531250001
 21
146.0855364583
 31
0.0
  0
LINE
  5
42
  8
ﾚｲﾔ_1
  6
STITCH
 10
191.35019531250001
 20
146.0855364583
 30
0.0
 11
191.35019531250001
 21
141.5855364583
 31
0.0
  0
LINE
  5
43
  8
ﾚｲﾔ_1
  6
STITCH
 10
192.55019531249999
 20
141.5855364583
 30
0.0
 11
191.35019531250001
 21
141.5855364583
 31
0.0
  0
LINE
  5
44
  8
ﾚｲﾔ_1
  6
STITCH
 10
191.35019531250001
 20
146.0855364583
 30
0.0
 11
192.55019531249999
 21
146.0855364583
 31
0.0
  0
CIRCLE
  5
45
  8
ﾚｲﾔ_1
  6
STITCH
 10
97.550195312499994
 20
143.8355364583
 30
0.0
 40
4.25
  0
DIMENSION
  5
56
  8
寸法線
  2
*D0
 10
212.5501955638
 20
162.8355364583
 30
0.0
 11
212.5501955638
 21
153.3355364583
 31
0.0
 70
   128
  1
<>
 13
192.55019531249999
 23
162.8355364583
 33
0.0
 14
196.65067850450001
 24
143.8355364583
 34
0.0
 50
90.0
  0
DIMENSION
  5
65
  8
寸法線
  2
*D1
 10
212.5501955638
 20
143.8355364583
 30
0.0
 11
212.5501955638
 21
134.3355364583
 31
0.0
 70
   128
  1
<>
 13
196.65067850450001
 23
143.8355364583
 33
0.0
 14
192.55019531249999
 24
124.8355364583
 34
0.0
 50
90.0
  0
DIMENSION
  5
74
  8
寸法線
  2
*D2
 10
192.55019531249999
 20
107.8355364583
 30
0.0
 11
175.05019531249999
 21
107.8355364583
 31
0.0
 70
   128
  1
<>
 13
192.55019531249999
 23
124.8355364583
 33
0.0
 14
157.55019531249999
 24
136.3355364583
 34
0.0
 50
180.0
  0
DIMENSION
  5
83
  8
寸法線
  2
*D3
 10
97.550195312499994
 20
107.8355364583
 30
0.0
 11
85.050195312499994
 21
107.8355364583
 31
0.0
 70
   128
  1
<>
 13
97.550195312499994
 23
136.3355364583
 33
0.0
 14
72.550195312499994
 24
124.8355364583
 34
0.0
 50
180.0
  0
DIMENSION
  5
92
  8
寸法線
  2
*D4
 10
157.55019531249999
 20
107.8355364583
 30
0.0
 11
142.55019531249999
 21
107.8355364583
 31
0.0
 70
   128
  1
<>
 13
157.55019531249999
 23
136.3355364583
 33
0.0
 14
127.55019531249999
 24
136.3355364583
 34
0.0
 50
180.0
  0
DIMENSION
  5
A1
  8
寸法線
  2
*D5
 10
127.55019531249999
 20
107.8355364583
 30
0.0
 11
112.55019531249999
 21
107.8355364583
 31
0.0
 70
   128
  1
<>
 13
127.55019531249999
 23
136.3355364583
 33
0.0
 14
97.550195312499994
 24
136.3355364583
 34
0.0
 50
180.0
  0
LINE
  5
A2
  8
図枠
 62
     5
 10
92.005448042400005
 20
186.2223035769
 30
0.0
 11
101.90445804239999
 21
186.2223035769
 31
0.0
  0
LINE
  5
A3
  8
図枠
 62
     5
 10
92.005448042400005
 20
196.12131357690001
 30
0.0
 11
101.90445804239999
 21
196.12131357690001
 31
0.0
  0
LINE
  5
A4
  8
図枠
 62
     5
 10
96.954953042399993
 20
194.79509770920001
 30
0.0
 11
101.90445804239999
 21
186.2223035769
 31
0.0
  0
LINE
  5
A5
  8
図枠
 62
     5
 10
96.954953042399993
 20
194.79509770920001
 30
0.0
 11
92.005448042400005
 21
186.2223035769
 31
0.0
  0
LINE
  5
A6
  8
図枠
 62
     5
 10
89.524266957399988
 20
185.26081623319999
 30
0.0
 11
277.50546695740002
 21
185.26081623319999
 31
0.0
  0
LINE
  5
A7
  8
図枠
 62
     5
 10
137.5194669574
 20
185.26081623319999
 30
0.0
 11
137.5194669574
 21
215.2578162332
 31
0.0
  0
LINE
  5
A8
  8
図枠
 62
     5
 10
237.50946695740001
 20
185.26081623319999
 30
0.0
 11
237.50946695740001
 21
215.2578162332
 31
0.0
  0
LINE
  5
A9
  8
図枠
 62
     5
 10
89.524266957399988
 20
185.26081623319999
 30
0.0
 11
89.524266957399988
 21
215.2578162332
 31
0.0
  0
LINE
  5
AA
  8
図枠
 10
49.5282669574
 20
-122.2084337668
 30
0.0
 11
81.525066957399986
 21
-122.2084337668
 31
0.0
  0
INSERT
  5
AB
  8
0
  6
CONTINUOUS
  2
*U32
 10
0.0
 20
0.0
 30
0.0
  0
LINE
  5
AC
  8
図枠
 10
158.1167516891
 20
-153.16906064739999
 30
0.0
 11
158.1167516891
 21
-156.0487726474
 31
0.0
  0
LINE
  5
AD
  8
図枠
 10
143.7181916891
 20
-153.16906064739999
 30
0.0
 11
143.7181916891
 21
-156.0487726474
 31
0.0
  0
LINE
  5
AE
  8
図枠
 10
165.51666695739999
 20
-113.7092837668
 30
0.0
 11
165.51666695739999
 21
-164.70418376680001
 31
0.0
  0
LINE
  5
AF
  8
図枠
 10
148.1793624837
 20
-124.51220336679999
 30
0.0
 11
157.39444088370001
 21
-126.8159729668
 31
0.0
  0
LINE
  5
B0
  8
図枠
 10
148.1793624837
 20
-124.51220336679999
 30
0.0
 11
157.39444088370001
 21
-126.8159729668
 31
0.0
  0
INSERT
  5
B1
  8
0
  6
CONTINUOUS
  2
*U33
 10
0.0
 20
0.0
 30
0.0
  0
LINE
  5
B2
  8
図枠
 10
148.1793624837
 20
-119.9046641668
 30
0.0
 11
157.39444088370001
 21
-117.60089456679999
 31
0.0
  0
LINE
  5
B3
  8
図枠
 10
152.2468817045
 20
-153.16906064739999
 30
0.0
 11
158.1167516891
 21
-153.16906064739999
 31
0.0
  0
LINE
  5
B4
  8
図枠
 10
147.71565856909999
 20
-153.16906064739999
 30
0.0
 11
146.9178716891
 21
-150.44933264740001
 31
0.0
  0
LINE
  5
B5
  8
図枠
 10
143.7181916891
 20
-156.0487726474
 30
0.0
 11
148.56037408910001
 21
-156.0487726474
 31
0.0
  0
LINE
  5
B6
  8
図枠
 10
195.51366695740001
 20
-91.711483766799986
 30
0.0
 11
195.51366695740001
 21
-80.712583766800009
 31
0.0
  0
CIRCLE
  5
B7
  8
ﾚｲﾔ_1
  6
STITCH
 10
127.55019531249999
 20
143.8355364583
 30
0.0
 40
4.25
  0
CIRCLE
  5
B8
  8
ﾚｲﾔ_1
  6
STITCH
 10
157.55019531249999
 20
143.8355364583
 30
0.0
 40
4.25
  0
LINE
  5
B9
  8
ﾚｲﾔ_1
  6
BORDER
 62
     3
 10
135.05019531249999
 20
143.8355364583
 30
0.0
 11
120.05019531249999
 21
143.8355364583
 31
0.0
  0
LINE
  5
BA
  8
ﾚｲﾔ_1
  6
BORDER
 62
     3
 10
127.55019531249999
 20
151.3355364583
 30
0.0
 11
127.55019531249999
 21
136.3355364583
 31
0.0
  0
CIRCLE
  5
BB
  8
ﾚｲﾔ_1
 62
     5
 10
127.55019531249999
 20
143.8355364583
 30
0.0
 40
2.25
  0
CIRCLE
  5
BC
  8
ﾚｲﾔ_1
 62
     5
 10
157.55019531249999
 20
143.8355364583
 30
0.0
 40
2.25
  0
LINE
  5
BD
  8
ﾚｲﾔ_1
  6
BORDER
 62
     3
 10
157.55019531249999
 20
151.3355364583
 30
0.0
 11
157.55019531249999
 21
136.3355364583
 31
0.0
  0
LINE
  5
BE
  8
ﾚｲﾔ_1
 62
     5
 10
72.550195312499994
 20
162.8355364583
 30
0.0
 11
192.55019531249999
 21
162.8355364583
 31
0.0
  0
LINE
  5
BF
  8
ﾚｲﾔ_1
 62
     5
 10
192.55019531249999
 20
124.8355364583
 30
0.0
 11
72.550195312499994
 21
124.8355364583
 31
0.0
  0
LINE
  5
C0
  8
ﾚｲﾔ_1
 62
     5
 10
192.55019531249999
 20
162.8355364583
 30
0.0
 11
192.55019531249999
 21
124.8355364583
 31
0.0
  0
LINE
  5
C1
  8
ﾚｲﾔ_1
 62
     5
 10
72.550195312499994
 20
124.8355364583
 30
0.0
 11
72.550195312499994
 21
162.8355364583
 31
0.0
  0
LINE
  5
C2
  8
ﾚｲﾔ_1
 62
     5
 10
189.35019531250001
 20
162.8355364583
 30
0.0
 11
189.35019531250001
 21
124.8355364583
 31
0.0
  0
LINE
  5
C3
  8
図枠
 10
153.4438634217
 20
-157.32864464740001
 30
0.0
 11
158.1167516891
 21
-157.32864464740001
 31
0.0
  0
LINE
  5
C4
  8
図枠
 10
143.7181916891
 20
-153.16906064739999
 30
0.0
 11
147.71565856909999
 21
-153.16906064739999
 31
0.0
  0
LINE
  5
C5
  8
図枠
 10
105.52266695740001
 20
-130.70758376680001
 30
0.0
 11
105.52266695740001
 21
-147.70588376680001
 31
0.0
  0
INSERT
  5
C6
  8
0
  6
CONTINUOUS
  2
*U34
 10
0.0
 20
0.0
 30
0.0
  0
LINE
  5
C7
  8
図枠
 10
157.39444088370001
 20
-117.60089456679999
 30
0.0
 11
157.39444088370001
 21
-126.8159729668
 31
0.0
  0
LINE
  5
C8
  8
図枠
 10
107.9168302491
 20
-156.0487726474
 30
0.0
 11
107.6750883272
 21
-156.0487726474
 31
0.0
  0
LINE
  5
C9
  8
図枠
 10
119.1157102491
 20
-153.64901264740001
 30
0.0
 11
119.1157102491
 21
-152.8490926474
 31
0.0
  0
LINE
  5
CA
  8
図枠
 10
148.1793624837
 20
-119.9046641668
 30
0.0
 11
148.1793624837
 21
-124.51220336679999
 31
0.0
  0
LINE
  5
CB
  8
図枠
 10
148.93580320909999
 20
-157.32864464740001
 30
0.0
 11
148.56037408910001
 21
-156.0487726474
 31
0.0
  0
LINE
  5
CC
  8
図枠
 10
125.5206669574
 20
-113.7092837668
 30
0.0
 11
125.5206669574
 21
-130.70758376680001
 31
0.0
  0
INSERT
  5
CD
  8
0
  6
CONTINUOUS
  2
*U35
 10
0.0
 20
0.0
 30
0.0
  0
LINE
  5
CE
  8
図枠
 10
125.7720142491
 20
-150.44933264740001
 30
0.0
 11
125.7720142491
 21
-153.3290446474
 31
0.0
  0
ARC
  5
CF
  8
図枠
 10
112.7163502491
 20
-156.8486926473999
 30
0.0
 40
2.3997599999999988
 50
270.0
 51
0.0
  0
INSERT
  5
D0
  8
0
  6
CONTINUOUS
  2
*U36
 10
0.0
 20
0.0
 30
0.0
  0
LINE
  5
D1
  8
図枠
 10
143.7181916891
 20
-160.2083566474
 30
0.0
 11
149.78051872910001
 21
-160.2083566474
 31
0.0
  0
LINE
  5
D2
  8
図枠
 10
153.0755613549
 20
-156.0487726474
 30
0.0
 11
158.1167516891
 21
-156.0487726474
 31
0.0
  0
LINE
  5
D3
  8
図枠
 10
154.9170716891
 20
-162.4481326474
 30
0.0
 11
154.27254307210001
 21
-160.2083566474
 31
0.0
  0
LINE
  5
D4
  8
図枠
 10
158.1167516891
 20
-157.32864464740001
 30
0.0
 11
158.1167516891
 21
-160.2083566474
 31
0.0
  0
INSERT
  5
D5
  8
0
  6
CONTINUOUS
  2
*U37
 10
0.0
 20
0.0
 30
0.0
  0
LINE
  5
D6
  8
図枠
 10
121.51547024910001
 20
-153.64901264740001
 30
0.0
 11
121.51547024910001
 21
-156.0487726474
 31
0.0
  0
LINE
  5
D7
  8
図枠
 10
121.51547024910001
 20
-153.64901264740001
 30
0.0
 11
119.1157102491
 21
-153.64901264740001
 31
0.0
  0
INSERT
  5
D8
  8
0
  6
CONTINUOUS
  2
*U38
 10
0.0
 20
0.0
 30
0.0
  0
LINE
  5
D9
  8
図枠
 10
107.9168302491
 20
-150.44933264740001
 30
0.0
 11
107.9168302491
 21
-153.64901264740001
 31
0.0
  0
LINE
  5
DA
  8
図枠
 10
107.9168302491
 20
-156.0487726474
 30
0.0
 11
107.9168302491
 21
-158.44853264739999
 31
0.0
  0
ARC
  5
DB
  8
図枠
 10
129.7716142491
 20
-152.8490926474
 30
0.0
 40
8.7991200000000003
 50
270.0
 51
302.54495885400001
  0
LINE
  5
DC
  8
図枠
 10
150.43751968909999
 20
-162.4481326474
 30
0.0
 11
154.9170716891
 21
-162.4481326474
 31
0.0
  0
LINE
  5
DD
  8
図枠
 10
146.9178716891
 20
-150.44933264740001
 30
0.0
 11
153.3172316891
 21
-150.44933264740001
 31
0.0
  0
LINE
  5
DE
  8
図枠
 10
125.7720142491
 20
-161.64821264739999
 30
0.0
 11
125.7720142491
 21
-159.2484526474
 31
0.0
  0
LINE
  5
DF
  8
図枠
 10
115.1161102491
 20
-150.44933264740001
 30
0.0
 11
115.1161102491
 21
-153.64901264740001
 31
0.0
  0
LINE
  5
E0
  8
図枠
 10
119.1157102491
 20
-152.8490926474
 30
0.0
 11
121.51547024910001
 21
-150.44933264740001
 31
0.0
  0
CIRCLE
  5
E1
  8
図枠
 10
137.64745415740001
 20
-122.2084337668
 30
0.0
 40
4.6075391999999988
  0
CIRCLE
  5
E2
  8
図枠
 10
137.64745415740001
 20
-122.2084337668
 30
0.0
 40
2.303769599999999
  0
LINE
  5
E3
  8
図枠
 10
115.1161102491
 20
-156.0487726474
 30
0.0
 11
115.1161102491
 21
-156.8486926473999
 31
0.0
  0
LINE
  5
E4
  8
図枠
 10
112.7163502491
 20
-159.2484526474
 30
0.0
 11
107.9168302491
 21
-159.2484526474
 31
0.0
  0
ARC
  5
E5
  8
図枠
 10
129.7716142491
 20
-152.8490926474
 30
0.0
 40
8.7991200000000003
 50
322.48761197969998
 51
0.0
  0
CIRCLE
  5
E6
  8
図枠
 10
137.64745415740001
 20
-122.2084337668
 30
0.0
 40
2.303769599999999
  0
LINE
  5
E7
  8
図枠
  6
BORDER
 10
137.64745415740001
 20
-115.2971249668
 30
0.0
 11
137.64745415740001
 21
-129.1197425668
 31
0.0
  0
LINE
  5
E8
  8
図枠
  6
BORDER
 10
137.64745415740001
 20
-115.2971249668
 30
0.0
 11
137.64745415740001
 21
-129.1197425668
 31
0.0
  0
LINE
  5
E9
  8
図枠
 10
132.17137424910001
 20
-154.16433753780001
 30
0.0
 11
131.26636807880001
 21
-155.06934370799999
 31
0.0
  0
LINE
  5
EA
  8
図枠
 10
148.1793624837
 20
-119.9046641668
 30
0.0
 11
148.1793624837
 21
-124.51220336679999
 31
0.0
  0
LINE
  5
EB
  8
図枠
 10
143.7181916891
 20
-157.32864464740001
 30
0.0
 11
143.7181916891
 21
-160.2083566474
 31
0.0
  0
INSERT
  5
EC
  8
0
  6
CONTINUOUS
  2
*U39
 10
0.0
 20
0.0
 30
0.0
  0
LINE
  5
ED
  8
図枠
 10
148.1793624837
 20
-119.9046641668
 30
0.0
 11
148.1793624837
 21
-124.51220336679999
 31
0.0
  0
LINE
  5
EE
  8
図枠
 10
45.528666957399992
 20
-113.7092837668
 30
0.0
 11
277.50546695740002
 21
-113.7092837668
 31
0.0
  0
LINE
  5
EF
  8
図枠
 10
115.1161102491
 20
-153.64901264740001
 30
0.0
 11
111.9164302491
 21
-153.64901264740001
 31
0.0
  0
INSERT
  5
F0
  8
0
  6
CONTINUOUS
  2
*U40
 10
0.0
 20
0.0
 30
0.0
  0
LINE
  5
F1
  8
図枠
 10
157.39444088370001
 20
-117.60089456679999
 30
0.0
 11
157.39444088370001
 21
-126.8159729668
 31
0.0
  0
INSERT
  5
F2
  8
0
  6
CONTINUOUS
  2
*U41
 10
0.0
 20
0.0
 30
0.0
  0
LINE
  5
F3
  8
図枠
 10
119.1157102491
 20
-156.0487726474
 30
0.0
 11
121.51547024910001
 21
-156.0487726474
 31
0.0
  0
LINE
  5
F4
  8
図枠
 10
148.1793624837
 20
-119.9046641668
 30
0.0
 11
157.39444088370001
 21
-117.60089456679999
 31
0.0
  0
LINE
  5
F5
  8
図枠
 10
107.9168302491
 20
-153.64901264740001
 30
0.0
 11
106.0752483272
 21
-153.64901264740001
 31
0.0
  0
INSERT
  5
F6
  8
0
  6
CONTINUOUS
  2
*U42
 10
0.0
 20
0.0
 30
0.0
  0
LINE
  5
F7
  8
図枠
 10
138.57073424910001
 20
-152.8490926474
 30
0.0
 11
140.1705742490999
 21
-150.44933264740001
 31
0.0
  0
LINE
  5
F8
  8
図枠
 10
45.528666957399992
 20
-91.711483766799986
 30
0.0
 11
277.50546695740002
 21
-91.711483766799986
 31
0.0
  0
LINE
  5
F9
  8
図枠
  6
BORDER
 10
137.64745415740001
 20
-115.2971249668
 30
0.0
 11
137.64745415740001
 21
-129.1197425668
 31
0.0
  0
LINE
  5
FA
  8
図枠
 10
125.7720142491
 20
-154.67966242809999
 30
0.0
 11
125.7720142491
 21
-154.16433753780001
 31
0.0
  0
LINE
  5
FB
  8
図枠
 10
111.9164302491
 20
-152.8490926474
 30
0.0
 11
114.3161902491
 21
-150.44933264740001
 31
0.0
  0
INSERT
  5
FC
  8
0
  6
CONTINUOUS
  2
*U43
 10
0.0
 20
0.0
 30
0.0
  0
LINE
  5
FD
  8
図枠
 10
106.0752483272
 20
-156.0487726474
 30
0.0
 11
107.6750883272
 21
-156.0487726474
 31
0.0
  0
INSERT
  5
FE
  8
0
  6
CONTINUOUS
  2
*U44
 10
0.0
 20
0.0
 30
0.0
  0
LINE
  5
FF
  8
図枠
 10
49.5282669574
 20
-139.2067337668
 30
0.0
 11
101.5230669574
 21
-139.2067337668
 31
0.0
  0
LINE
  5
100
  8
図枠
 10
125.7720142491
 20
-159.2484526474
 30
0.0
 11
125.7720142491
 21
-161.64821264739999
 31
0.0
  0
LINE
  5
101
  8
図枠
 10
45.528666957399992
 20
-80.712583766800009
 30
0.0
 11
45.528666957399992
 21
-113.7092837668
 31
0.0
  0
LINE
  5
102
  8
図枠
 10
125.7720142491
 20
-154.16433753780001
 30
0.0
 11
132.17137424910001
 21
-154.16433753780001
 31
0.0
  0
LINE
  5
103
  8
図枠
 10
148.1793624837
 20
-119.9046641668
 30
0.0
 11
148.1793624837
 21
-124.51220336679999
 31
0.0
  0
LINE
  5
104
  8
図枠
 10
148.1793624837
 20
-119.9046641668
 30
0.0
 11
157.39444088370001
 21
-117.60089456679999
 31
0.0
  0
LINE
  5
105
  8
図枠
 10
159.51726695740001
 20
-91.711483766799986
 30
0.0
 11
159.51726695740001
 21
-80.712583766800009
 31
0.0
  0
INSERT
  5
106
  8
0
  6
CONTINUOUS
  2
*U45
 10
0.0
 20
0.0
 30
0.0
  0
INSERT
  5
107
  8
0
  6
CONTINUOUS
  2
*U46
 10
0.0
 20
0.0
 30
0.0
  0
INSERT
  5
108
  8
0
  6
CONTINUOUS
  2
*U47
 10
0.0
 20
0.0
 30
0.0
  0
LINE
  5
109
  8
図枠
 10
45.528666957399992
 20
-80.712583766800009
 30
0.0
 11
45.528666957399992
 21
-113.7092837668
 31
0.0
  0
LINE
  5
10A
  8
図枠
 10
107.9168302491
 20
-158.44853264739999
 30
0.0
 11
111.9164302491
 21
-158.44853264739999
 31
0.0
  0
LINE
  5
10B
  8
図枠
 10
85.524666957399987
 20
-113.7092837668
 30
0.0
 11
85.524666957399987
 21
-80.712583766800009
 31
0.0
  0
LINE
  5
10C
  8
図枠
 10
125.7720142491
 20
-159.2484526474
 30
0.0
 11
127.6918222491
 21
-159.2484526474
 31
0.0
  0
LINE
  5
10D
  8
図枠
 10
107.9168302491
 20
-161.64821264739999
 30
0.0
 11
114.3161902491
 21
-161.64821264739999
 31
0.0
  0
INSERT
  5
10E
  8
0
  6
CONTINUOUS
  2
*U48
 10
0.0
 20
0.0
 30
0.0
  0
LINE
  5
10F
  8
図枠
 10
107.9168302491
 20
-159.2484526474
 30
0.0
 11
107.9168302491
 21
-161.64821264739999
 31
0.0
  0
INSERT
  5
110
  8
0
  6
CONTINUOUS
  2
*U49
 10
0.0
 20
0.0
 30
0.0
  0
LINE
  5
111
  8
図枠
 10
133.02938842579999
 20
-156.07928304430001
 30
0.0
 11
132.64447363100001
 21
-156.50442190299989
 31
0.0
  0
ARC
  5
112
  8
図枠
 10
114.3161902491
 20
-156.8486926473999
 30
0.0
 40
4.7995199999999993
 50
270.0
 51
0.0
  0
INSERT
  5
113
  8
0
  6
CONTINUOUS
  2
*U50
 10
0.0
 20
0.0
 30
0.0
  0
LINE
  5
114
  8
図枠
 10
89.524266957399988
 20
-122.2084337668
 30
0.0
 11
117.52146695739999
 21
-122.2084337668
 31
0.0
  0
ARC
  5
115
  8
図枠
 10
127.6918222491
 20
-153.16906064739999
 30
0.0
 40
6.0793919999999986
 50
270.0
 51
298.08590481520002
  0
INSERT
  5
116
  8
0
  6
CONTINUOUS
  2
*U51
 10
0.0
 20
0.0
 30
0.0
  0
INSERT
  5
117
  8
0
  6
CONTINUOUS
  2
*U52
 10
0.0
 20
0.0
 30
0.0
  0
LINE
  5
118
  8
図枠
 10
45.528666957399992
 20
-130.70758376680001
 30
0.0
 11
277.50546695740002
 21
-130.70758376680001
 31
0.0
  0
LINE
  5
119
  8
図枠
 10
125.7720142491
 20
-161.64821264739999
 30
0.0
 11
129.7716142491
 21
-161.64821264739999
 31
0.0
  0
LINE
  5
11A
  8
図枠
 10
111.9164302491
 20
-156.0487726474
 30
0.0
 11
115.1161102491
 21
-156.0487726474
 31
0.0
  0
POLYLINE
  8
図枠
  5
3DA
  66
     1
 10
0.000000
 20
0.000000
 30
0.000000
  70
     8
  0
VERTEX
  8
図枠
  5
3DB
 10
136.466
 20
-158.486
 30
0.000000
  70
    32
  0
VERTEX
  8
図枠
  5
3DC
 10
136.494
 20
-158.494
 30
0.000000
  70
    32
  0
VERTEX
  8
図枠
  5
3DD
 10
136.522
 20
-158.502
 30
0.000000
  70
    32
  0
VERTEX
  8
図枠
  5
3DE
 10
136.550
 20
-158.510
 30
0.000000
  70
    32
  0
VERTEX
  8
図枠
  5
3DF
 10
136.578
 20
-158.518
 30
0.000000
  70
    32
  0
VERTEX
  8
図枠
  5
3E0
 10
136.606
 20
-158.525
 30
0.000000
  70
    32
  0
VERTEX
  8
図枠
  5
3E1
 10
136.635
 20
-158.533
 30
0.000000
  70
    32
  0
VERTEX
  8
図枠
  5
3E2
 10
136.663
 20
-158.541
 30
0.000000
  70
    32
  0
VERTEX
  8
図枠
  5
3E3
 10
136.691
 20
-158.548
 30
0.000000
  70
    32
  0
VERTEX
  8
図枠
  5
3E4
 10
136.719
 20
-158.556
 30
0.000000
  70
    32
  0
VERTEX
  8
図枠
  5
3E5
 10
136.747
 20
-158.563
 30
0.000000
  70
    32
  0
VERTEX
  8
図枠
  5
3E6
 10
136.776
 20
-158.571
 30
0.000000
  70
    32
  0
VERTEX
  8
図枠
  5
3E7
 10
136.804
 20
-158.578
 30
0.000000
  70
    32
  0
VERTEX
  8
図枠
  5
3E8
 10
136.832
 20
-158.586
 30
0.000000
  70
    32
  0
VERTEX
  8
図枠
  5
3E9
 10
136.860
 20
-158.593
 30
0.000000
  70
    32
  0
VERTEX
  8
図枠
  5
3EA
 10
136.889
 20
-158.600
 30
0.000000
  70
    32
  0
VERTEX
  8
図枠
  5
3EB
 10
136.917
 20
-158.608
 30
0.000000
  70
    32
  0
VERTEX
  8
図枠
  5
3EC
 10
136.946
 20
-158.615
 30
0.000000
  70
    32
  0
VERTEX
  8
図枠
  5
3ED
 10
136.974
 20
-158.622
 30
0.000000
  70
    32
  0
VERTEX
  8
図枠
  5
3EE
 10
137.002
 20
-158.629
 30
0.000000
  70
    32
  0
VERTEX
  8
図枠
  5
3EF
 10
137.031
 20
-158.636
 30
0.000000
  70
    32
  0
VERTEX
  8
図枠
  5
3F0
 10
137.059
 20
-158.644
 30
0.000000
  70
    32
  0
VERTEX
  8
図枠
  5
3F1
 10
137.088
 20
-158.651
 30
0.000000
  70
    32
  0
VERTEX
  8
図枠
  5
3F2
 10
137.116
 20
-158.658
 30
0.000000
  70
    32
  0
VERTEX
  8
図枠
  5
3F3
 10
137.145
 20
-158.665
 30
0.000000
  70
    32
  0
VERTEX
  8
図枠
  5
3F4
 10
137.174
 20
-158.671
 30
0.000000
  70
    32
  0
VERTEX
  8
図枠
  5
3F5
 10
137.202
 20
-158.678
 30
0.000000
  70
    32
  0
VERTEX
  8
図枠
  5
3F6
 10
137.231
 20
-158.685
 30
0.000000
  70
    32
  0
VERTEX
  8
図枠
  5
3F7
 10
137.260
 20
-158.692
 30
0.000000
  70
    32
  0
VERTEX
  8
図枠
  5
3F8
 10
137.288
 20
-158.699
 30
0.000000
  70
    32
  0
VERTEX
  8
図枠
  5
3F9
 10
137.317
 20
-158.706
 30
0.000000
  70
    32
  0
VERTEX
  8
図枠
  5
3FA
 10
137.346
 20
-158.712
 30
0.000000
  70
    32
  0
VERTEX
  8
図枠
  5
3FB
 10
137.374
 20
-158.719
 30
0.000000
  70
    32
  0
VERTEX
  8
図枠
  5
3FC
 10
137.403
 20
-158.726
 30
0.000000
  70
    32
  0
VERTEX
  8
図枠
  5
3FD
 10
137.432
 20
-158.732
 30
0.000000
  70
    32
  0
VERTEX
  8
図枠
  5
3FE
 10
137.461
 20
-158.739
 30
0.000000
  70
    32
  0
VERTEX
  8
図枠
  5
3FF
 10
137.490
 20
-158.745
 30
0.000000
  70
    32
  0
VERTEX
  8
図枠
  5
400
 10
137.518
 20
-158.752
 30
0.000000
  70
    32
  0
VERTEX
  8
図枠
  5
401
 10
137.547
 20
-158.758
 30
0.000000
  70
    32
  0
VERTEX
  8
図枠
  5
402
 10
137.576
 20
-158.765
 30
0.000000
  70
    32
  0
VERTEX
  8
図枠
  5
403
 10
137.605
 20
-158.771
 30
0.000000
  70
    32
  0
VERTEX
  8
図枠
  5
404
 10
137.634
 20
-158.778
 30
0.000000
  70
    32
  0
VERTEX
  8
図枠
  5
405
 10
137.663
 20
-158.784
 30
0.000000
  70
    32
  0
VERTEX
  8
図枠
  5
406
 10
137.692
 20
-158.790
 30
0.000000
  70
    32
  0
VERTEX
  8
図枠
  5
407
 10
137.721
 20
-158.797
 30
0.000000
  70
    32
  0
VERTEX
  8
図枠
  5
408
 10
137.750
 20
-158.803
 30
0.000000
  70
    32
  0
VERTEX
  8
図枠
  5
409
 10
137.779
 20
-158.809
 30
0.000000
  70
    32
  0
VERTEX
  8
図枠
  5
40A
 10
137.808
 20
-158.815
 30
0.000000
  70
    32
  0
VERTEX
  8
図枠
  5
40B
 10
137.837
 20
-158.821
 30
0.000000
  70
    32
  0
VERTEX
  8
図枠
  5
40C
 10
137.866
 20
-158.828
 30
0.000000
  70
    32
  0
VERTEX
  8
図枠
  5
40D
 10
137.895
 20
-158.834
 30
0.000000
  70
    32
  0
VERTEX
  8
図枠
  5
40E
 10
137.924
 20
-158.840
 30
0.000000
  70
    32
  0
VERTEX
  8
図枠
  5
40F
 10
137.953
 20
-158.846
 30
0.000000
  70
    32
  0
VERTEX
  8
図枠
  5
410
 10
137.983
 20
-158.852
 30
0.000000
  70
    32
  0
VERTEX
  8
図枠
  5
411
 10
138.012
 20
-158.858
 30
0.000000
  70
    32
  0
VERTEX
  8
図枠
  5
412
 10
138.041
 20
-158.864
 30
0.000000
  70
    32
  0
VERTEX
  8
図枠
  5
413
 10
138.070
 20
-158.870
 30
0.000000
  70
    32
  0
VERTEX
  8
図枠
  5
414
 10
138.099
 20
-158.876
 30
0.000000
  70
    32
  0
VERTEX
  8
図枠
  5
415
 10
138.129
 20
-158.882
 30
0.000000
  70
    32
  0
VERTEX
  8
図枠
  5
416
 10
138.158
 20
-158.888
 30
0.000000
  70
    32
  0
VERTEX
  8
図枠
  5
417
 10
138.187
 20
-158.893
 30
0.000000
  70
    32
  0
VERTEX
  8
図枠
  5
418
 10
138.216
 20
-158.899
 30
0.000000
  70
    32
  0
VERTEX
  8
図枠
  5
419
 10
138.246
 20
-158.905
 30
0.000000
  70
    32
  0
VERTEX
  8
図枠
  5
41A
 10
138.275
 20
-158.911
 30
0.000000
  70
    32
  0
VERTEX
  8
図枠
  5
41B
 10
138.304
 20
-158.917
 30
0.000000
  70
    32
  0
VERTEX
  8
図枠
  5
41C
 10
138.334
 20
-158.922
 30
0.000000
  70
    32
  0
VERTEX
  8
図枠
  5
41D
 10
138.363
 20
-158.928
 30
0.000000
  70
    32
  0
VERTEX
  8
図枠
  5
41E
 10
138.392
 20
-158.934
 30
0.000000
  70
    32
  0
VERTEX
  8
図枠
  5
41F
 10
138.422
 20
-158.939
 30
0.000000
  70
    32
  0
VERTEX
  8
図枠
  5
420
 10
138.451
 20
-158.945
 30
0.000000
  70
    32
  0
VERTEX
  8
図枠
  5
421
 10
138.480
 20
-158.951
 30
0.000000
  70
    32
  0
VERTEX
  8
図枠
  5
422
 10
138.510
 20
-158.956
 30
0.000000
  70
    32
  0
VERTEX
  8
図枠
  5
423
 10
138.539
 20
-158.962
 30
0.000000
  70
    32
  0
VERTEX
  8
図枠
  5
424
 10
138.569
 20
-158.967
 30
0.000000
  70
    32
  0
VERTEX
  8
図枠
  5
425
 10
138.598
 20
-158.973
 30
0.000000
  70
    32
  0
VERTEX
  8
図枠
  5
426
 10
138.628
 20
-158.978
 30
0.000000
  70
    32
  0
VERTEX
  8
図枠
  5
427
 10
138.657
 20
-158.984
 30
0.000000
  70
    32
  0
VERTEX
  8
図枠
  5
428
 10
138.687
 20
-158.989
 30
0.000000
  70
    32
  0
VERTEX
  8
図枠
  5
429
 10
138.716
 20
-158.995
 30
0.000000
  70
    32
  0
VERTEX
  8
図枠
  5
42A
 10
138.746
 20
-159.000
 30
0.000000
  70
    32
  0
VERTEX
  8
図枠
  5
42B
 10
138.775
 20
-159.006
 30
0.000000
  70
    32
  0
VERTEX
  8
図枠
  5
42C
 10
138.805
 20
-159.011
 30
0.000000
  70
    32
  0
VERTEX
  8
図枠
  5
42D
 10
138.834
 20
-159.017
 30
0.000000
  70
    32
  0
VERTEX
  8
図枠
  5
42E
 10
138.864
 20
-159.022
 30
0.000000
  70
    32
  0
VERTEX
  8
図枠
  5
42F
 10
138.893
 20
-159.027
 30
0.000000
  70
    32
  0
VERTEX
  8
図枠
  5
430
 10
138.923
 20
-159.033
 30
0.000000
  70
    32
  0
VERTEX
  8
図枠
  5
431
 10
138.952
 20
-159.038
 30
0.000000
  70
    32
  0
VERTEX
  8
図枠
  5
432
 10
138.982
 20
-159.043
 30
0.000000
  70
    32
  0
VERTEX
  8
図枠
  5
433
 10
139.012
 20
-159.049
 30
0.000000
  70
    32
  0
VERTEX
  8
図枠
  5
434
 10
139.041
 20
-159.054
 30
0.000000
  70
    32
  0
VERTEX
  8
図枠
  5
435
 10
139.071
 20
-159.059
 30
0.000000
  70
    32
  0
VERTEX
  8
図枠
  5
436
 10
139.101
 20
-159.065
 30
0.000000
  70
    32
  0
VERTEX
  8
図枠
  5
437
 10
139.130
 20
-159.070
 30
0.000000
  70
    32
  0
VERTEX
  8
図枠
  5
438
 10
139.160
 20
-159.075
 30
0.000000
  70
    32
  0
VERTEX
  8
図枠
  5
439
 10
139.189
 20
-159.080
 30
0.000000
  70
    32
  0
VERTEX
  8
図枠
  5
43A
 10
139.219
 20
-159.086
 30
0.000000
  70
    32
  0
VERTEX
  8
図枠
  5
43B
 10
139.249
 20
-159.091
 30
0.000000
  70
    32
  0
VERTEX
  8
図枠
  5
43C
 10
139.278
 20
-159.096
 30
0.000000
  70
    32
  0
VERTEX
  8
図枠
  5
43D
 10
139.308
 20
-159.101
 30
0.000000
  70
    32
  0
VERTEX
  8
図枠
  5
43E
 10
139.338
 20
-159.106
 30
0.000000
  70
    32
  0
VERTEX
  8
図枠
  5
43F
 10
139.367
 20
-159.112
 30
0.000000
  70
    32
  0
VERTEX
  8
図枠
  5
440
 10
139.397
 20
-159.117
 30
0.000000
  70
    32
  0
VERTEX
  8
図枠
  5
441
 10
139.427
 20
-159.122
 30
0.000000
  70
    32
  0
VERTEX
  8
図枠
  5
442
 10
139.457
 20
-159.127
 30
0.000000
  70
    32
  0
VERTEX
  8
図枠
  5
443
 10
139.486
 20
-159.132
 30
0.000000
  70
    32
  0
VERTEX
  8
図枠
  5
444
 10
139.516
 20
-159.137
 30
0.000000
  70
    32
  0
VERTEX
  8
図枠
  5
445
 10
139.546
 20
-159.142
 30
0.000000
  70
    32
  0
VERTEX
  8
図枠
  5
446
 10
139.575
 20
-159.147
 30
0.000000
  70
    32
  0
VERTEX
  8
図枠
  5
447
 10
139.605
 20
-159.153
 30
0.000000
  70
    32
  0
VERTEX
  8
図枠
  5
448
 10
139.635
 20
-159.158
 30
0.000000
  70
    32
  0
VERTEX
  8
図枠
  5
449
 10
139.665
 20
-159.163
 30
0.000000
  70
    32
  0
VERTEX
  8
図枠
  5
44A
 10
139.694
 20
-159.168
 30
0.000000
  70
    32
  0
VERTEX
  8
図枠
  5
44B
 10
139.724
 20
-159.173
 30
0.000000
  70
    32
  0
VERTEX
  8
図枠
  5
44C
 10
139.754
 20
-159.178
 30
0.000000
  70
    32
  0
VERTEX
  8
図枠
  5
44D
 10
139.784
 20
-159.183
 30
0.000000
  70
    32
  0
VERTEX
  8
図枠
  5
44E
 10
139.813
 20
-159.188
 30
0.000000
  70
    32
  0
VERTEX
  8
図枠
  5
44F
 10
139.843
 20
-159.193
 30
0.000000
  70
    32
  0
VERTEX
  8
図枠
  5
450
 10
139.873
 20
-159.198
 30
0.000000
  70
    32
  0
VERTEX
  8
図枠
  5
451
 10
139.903
 20
-159.203
 30
0.000000
  70
    32
  0
VERTEX
  8
図枠
  5
452
 10
139.932
 20
-159.208
 30
0.000000
  70
    32
  0
VERTEX
  8
図枠
  5
453
 10
139.962
 20
-159.213
 30
0.000000
  70
    32
  0
VERTEX
  8
図枠
  5
454
 10
139.992
 20
-159.218
 30
0.000000
  70
    32
  0
VERTEX
  8
図枠
  5
455
 10
140.022
 20
-159.223
 30
0.000000
  70
    32
  0
VERTEX
  8
図枠
  5
456
 10
140.051
 20
-159.228
 30
0.000000
  70
    32
  0
VERTEX
  8
図枠
  5
457
 10
140.081
 20
-159.233
 30
0.000000
  70
    32
  0
VERTEX
  8
図枠
  5
458
 10
140.111
 20
-159.238
 30
0.000000
  70
    32
  0
VERTEX
  8
図枠
  5
459
 10
140.141
 20
-159.243
 30
0.000000
  70
    32
  0
VERTEX
  8
図枠
  5
45A
 10
140.171
 20
-159.248
 30
0.000000
  70
    32
  0
SEQEND
  8
図枠
  5
45B
  0
LINE
  5
11C
  8
図枠
 10
154.27254307210001
 20
-160.2083566474
 30
0.0
 11
158.1167516891
 21
-160.2083566474
 31
0.0
  0
LINE
  5
11D
  8
図枠
 10
148.1793624837
 20
-124.51220336679999
 30
0.0
 11
157.39444088370001
 21
-126.8159729668
 31
0.0
  0
LINE
  5
11E
  8
図枠
 10
150.43751968909999
 20
-162.4481326474
 30
0.0
 11
149.78051872910001
 21
-160.2083566474
 31
0.0
  0
LINE
  5
11F
  8
図枠
 10
153.4438634217
 20
-157.32864464740001
 30
0.0
 11
153.0755613549
 21
-156.0487726474
 31
0.0
  0
LINE
  5
120
  8
図枠
 10
148.1793624837
 20
-124.51220336679999
 30
0.0
 11
157.39444088370001
 21
-126.8159729668
 31
0.0
  0
LINE
  5
121
  8
図枠
 10
152.0126743271999
 20
-152.3551758193
 30
0.0
 11
153.3172316891
 21
-150.44933264740001
 31
0.0
  0
LINE
  5
122
  8
図枠
 10
114.3161902491
 20
-150.44933264740001
 30
0.0
 11
107.9168302491
 21
-150.44933264740001
 31
0.0
  0
POLYLINE
  8
図枠
  5
45C
  66
     1
 10
0.000000
 20
0.000000
 30
0.000000
  70
     8
  0
VERTEX
  8
図枠
  5
45D
 10
131.266
 20
-155.069
 30
0.000000
  70
    32
  0
VERTEX
  8
図枠
  5
45E
 10
131.277
 20
-155.081
 30
0.000000
  70
    32
  0
VERTEX
  8
図枠
  5
45F
 10
131.287
 20
-155.093
 30
0.000000
  70
    32
  0
VERTEX
  8
図枠
  5
460
 10
131.298
 20
-155.105
 30
0.000000
  70
    32
  0
VERTEX
  8
図枠
  5
461
 10
131.309
 20
-155.116
 30
0.000000
  70
    32
  0
VERTEX
  8
図枠
  5
462
 10
131.319
 20
-155.128
 30
0.000000
  70
    32
  0
VERTEX
  8
図枠
  5
463
 10
131.330
 20
-155.140
 30
0.000000
  70
    32
  0
VERTEX
  8
図枠
  5
464
 10
131.340
 20
-155.152
 30
0.000000
  70
    32
  0
VERTEX
  8
図枠
  5
465
 10
131.351
 20
-155.164
 30
0.000000
  70
    32
  0
VERTEX
  8
図枠
  5
466
 10
131.361
 20
-155.175
 30
0.000000
  70
    32
  0
VERTEX
  8
図枠
  5
467
 10
131.372
 20
-155.187
 30
0.000000
  70
    32
  0
VERTEX
  8
図枠
  5
468
 10
131.383
 20
-155.199
 30
0.000000
  70
    32
  0
VERTEX
  8
図枠
  5
469
 10
131.393
 20
-155.211
 30
0.000000
  70
    32
  0
VERTEX
  8
図枠
  5
46A
 10
131.404
 20
-155.222
 30
0.000000
  70
    32
  0
VERTEX
  8
図枠
  5
46B
 10
131.414
 20
-155.234
 30
0.000000
  70
    32
  0
VERTEX
  8
図枠
  5
46C
 10
131.425
 20
-155.246
 30
0.000000
  70
    32
  0
VERTEX
  8
図枠
  5
46D
 10
131.435
 20
-155.258
 30
0.000000
  70
    32
  0
VERTEX
  8
図枠
  5
46E
 10
131.446
 20
-155.269
 30
0.000000
  70
    32
  0
VERTEX
  8
図枠
  5
46F
 10
131.457
 20
-155.281
 30
0.000000
  70
    32
  0
VERTEX
  8
図枠
  5
470
 10
131.467
 20
-155.293
 30
0.000000
  70
    32
  0
VERTEX
  8
図枠
  5
471
 10
131.478
 20
-155.305
 30
0.000000
  70
    32
  0
VERTEX
  8
図枠
  5
472
 10
131.488
 20
-155.316
 30
0.000000
  70
    32
  0
VERTEX
  8
図枠
  5
473
 10
131.499
 20
-155.328
 30
0.000000
  70
    32
  0
VERTEX
  8
図枠
  5
474
 10
131.509
 20
-155.340
 30
0.000000
  70
    32
  0
VERTEX
  8
図枠
  5
475
 10
131.520
 20
-155.351
 30
0.000000
  70
    32
  0
VERTEX
  8
図枠
  5
476
 10
131.531
 20
-155.363
 30
0.000000
  70
    32
  0
VERTEX
  8
図枠
  5
477
 10
131.541
 20
-155.375
 30
0.000000
  70
    32
  0
VERTEX
  8
図枠
  5
478
 10
131.552
 20
-155.387
 30
0.000000
  70
    32
  0
VERTEX
  8
図枠
  5
479
 10
131.562
 20
-155.398
 30
0.000000
  70
    32
  0
VERTEX
  8
図枠
  5
47A
 10
131.573
 20
-155.410
 30
0.000000
  70
    32
  0
VERTEX
  8
図枠
  5
47B
 10
131.584
 20
-155.422
 30
0.000000
  70
    32
  0
VERTEX
  8
図枠
  5
47C
 10
131.594
 20
-155.433
 30
0.000000
  70
    32
  0
VERTEX
  8
図枠
  5
47D
 10
131.605
 20
-155.445
 30
0.000000
  70
    32
  0
VERTEX
  8
図枠
  5
47E
 10
131.615
 20
-155.457
 30
0.000000
  70
    32
  0
VERTEX
  8
図枠
  5
47F
 10
131.626
 20
-155.468
 30
0.000000
  70
    32
  0
VERTEX
  8
図枠
  5
480
 10
131.637
 20
-155.480
 30
0.000000
  70
    32
  0
VERTEX
  8
図枠
  5
481
 10
131.647
 20
-155.492
 30
0.000000
  70
    32
  0
VERTEX
  8
図枠
  5
482
 10
131.658
 20
-155.503
 30
0.000000
  70
    32
  0
VERTEX
  8
図枠
  5
483
 10
131.669
 20
-155.515
 30
0.000000
  70
    32
  0
VERTEX
  8
図枠
  5
484
 10
131.679
 20
-155.527
 30
0.000000
  70
    32
  0
VERTEX
  8
図枠
  5
485
 10
131.690
 20
-155.538
 30
0.000000
  70
    32
  0
VERTEX
  8
図枠
  5
486
 10
131.700
 20
-155.550
 30
0.000000
  70
    32
  0
VERTEX
  8
図枠
  5
487
 10
131.711
 20
-155.562
 30
0.000000
  70
    32
  0
VERTEX
  8
図枠
  5
488
 10
131.722
 20
-155.573
 30
0.000000
  70
    32
  0
VERTEX
  8
図枠
  5
489
 10
131.732
 20
-155.585
 30
0.000000
  70
    32
  0
VERTEX
  8
図枠
  5
48A
 10
131.743
 20
-155.596
 30
0.000000
  70
    32
  0
VERTEX
  8
図枠
  5
48B
 10
131.754
 20
-155.608
 30
0.000000
  70
    32
  0
VERTEX
  8
図枠
  5
48C
 10
131.764
 20
-155.620
 30
0.000000
  70
    32
  0
VERTEX
  8
図枠
  5
48D
 10
131.775
 20
-155.631
 30
0.000000
  70
    32
  0
VERTEX
  8
図枠
  5
48E
 10
131.786
 20
-155.643
 30
0.000000
  70
    32
  0
VERTEX
  8
図枠
  5
48F
 10
131.797
 20
-155.654
 30
0.000000
  70
    32
  0
VERTEX
  8
図枠
  5
490
 10
131.807
 20
-155.666
 30
0.000000
  70
    32
  0
VERTEX
  8
図枠
  5
491
 10
131.818
 20
-155.677
 30
0.000000
  70
    32
  0
VERTEX
  8
図枠
  5
492
 10
131.829
 20
-155.689
 30
0.000000
  70
    32
  0
VERTEX
  8
図枠
  5
493
 10
131.839
 20
-155.700
 30
0.000000
  70
    32
  0
VERTEX
  8
図枠
  5
494
 10
131.850
 20
-155.712
 30
0.000000
  70
    32
  0
VERTEX
  8
図枠
  5
495
 10
131.861
 20
-155.723
 30
0.000000
  70
    32
  0
VERTEX
  8
図枠
  5
496
 10
131.872
 20
-155.735
 30
0.000000
  70
    32
  0
VERTEX
  8
図枠
  5
497
 10
131.882
 20
-155.746
 30
0.000000
  70
    32
  0
VERTEX
  8
図枠
  5
498
 10
131.893
 20
-155.758
 30
0.000000
  70
    32
  0
VERTEX
  8
図枠
  5
499
 10
131.904
 20
-155.769
 30
0.000000
  70
    32
  0
VERTEX
  8
図枠
  5
49A
 10
131.915
 20
-155.781
 30
0.000000
  70
    32
  0
VERTEX
  8
図枠
  5
49B
 10
131.925
 20
-155.792
 30
0.000000
  70
    32
  0
VERTEX
  8
図枠
  5
49C
 10
131.936
 20
-155.804
 30
0.000000
  70
    32
  0
VERTEX
  8
図枠
  5
49D
 10
131.947
 20
-155.815
 30
0.000000
  70
    32
  0
VERTEX
  8
図枠
  5
49E
 10
131.958
 20
-155.826
 30
0.000000
  70
    32
  0
VERTEX
  8
図枠
  5
49F
 10
131.968
 20
-155.838
 30
0.000000
  70
    32
  0
VERTEX
  8
図枠
  5
4A0
 10
131.979
 20
-155.849
 30
0.000000
  70
    32
  0
VERTEX
  8
図枠
  5
4A1
 10
131.990
 20
-155.861
 30
0.000000
  70
    32
  0
VERTEX
  8
図枠
  5
4A2
 10
132.001
 20
-155.872
 30
0.000000
  70
    32
  0
VERTEX
  8
図枠
  5
4A3
 10
132.012
 20
-155.883
 30
0.000000
  70
    32
  0
VERTEX
  8
図枠
  5
4A4
 10
132.022
 20
-155.895
 30
0.000000
  70
    32
  0
VERTEX
  8
図枠
  5
4A5
 10
132.033
 20
-155.906
 30
0.000000
  70
    32
  0
VERTEX
  8
図枠
  5
4A6
 10
132.044
 20
-155.917
 30
0.000000
  70
    32
  0
VERTEX
  8
図枠
  5
4A7
 10
132.055
 20
-155.929
 30
0.000000
  70
    32
  0
VERTEX
  8
図枠
  5
4A8
 10
132.066
 20
-155.940
 30
0.000000
  70
    32
  0
VERTEX
  8
図枠
  5
4A9
 10
132.077
 20
-155.951
 30
0.000000
  70
    32
  0
VERTEX
  8
図枠
  5
4AA
 10
132.088
 20
-155.962
 30
0.000000
  70
    32
  0
VERTEX
  8
図枠
  5
4AB
 10
132.099
 20
-155.974
 30
0.000000
  70
    32
  0
VERTEX
  8
図枠
  5
4AC
 10
132.109
 20
-155.985
 30
0.000000
  70
    32
  0
VERTEX
  8
図枠
  5
4AD
 10
132.120
 20
-155.996
 30
0.000000
  70
    32
  0
VERTEX
  8
図枠
  5
4AE
 10
132.131
 20
-156.007
 30
0.000000
  70
    32
  0
VERTEX
  8
図枠
  5
4AF
 10
132.142
 20
-156.019
 30
0.000000
  70
    32
  0
VERTEX
  8
図枠
  5
4B0
 10
132.153
 20
-156.030
 30
0.000000
  70
    32
  0
VERTEX
  8
図枠
  5
4B1
 10
132.164
 20
-156.041
 30
0.000000
  70
    32
  0
VERTEX
  8
図枠
  5
4B2
 10
132.175
 20
-156.052
 30
0.000000
  70
    32
  0
VERTEX
  8
図枠
  5
4B3
 10
132.186
 20
-156.063
 30
0.000000
  70
    32
  0
VERTEX
  8
図枠
  5
4B4
 10
132.197
 20
-156.074
 30
0.000000
  70
    32
  0
VERTEX
  8
図枠
  5
4B5
 10
132.208
 20
-156.085
 30
0.000000
  70
    32
  0
VERTEX
  8
図枠
  5
4B6
 10
132.219
 20
-156.096
 30
0.000000
  70
    32
  0
VERTEX
  8
図枠
  5
4B7
 10
132.230
 20
-156.107
 30
0.000000
  70
    32
  0
VERTEX
  8
図枠
  5
4B8
 10
132.241
 20
-156.119
 30
0.000000
  70
    32
  0
VERTEX
  8
図枠
  5
4B9
 10
132.252
 20
-156.130
 30
0.000000
  70
    32
  0
VERTEX
  8
図枠
  5
4BA
 10
132.263
 20
-156.141
 30
0.000000
  70
    32
  0
VERTEX
  8
図枠
  5
4BB
 10
132.274
 20
-156.152
 30
0.000000
  70
    32
  0
VERTEX
  8
図枠
  5
4BC
 10
132.285
 20
-156.163
 30
0.000000
  70
    32
  0
VERTEX
  8
図枠
  5
4BD
 10
132.296
 20
-156.174
 30
0.000000
  70
    32
  0
VERTEX
  8
図枠
  5
4BE
 10
132.307
 20
-156.185
 30
0.000000
  70
    32
  0
VERTEX
  8
図枠
  5
4BF
 10
132.318
 20
-156.195
 30
0.000000
  70
    32
  0
VERTEX
  8
図枠
  5
4C0
 10
132.329
 20
-156.206
 30
0.000000
  70
    32
  0
VERTEX
  8
図枠
  5
4C1
 10
132.340
 20
-156.217
 30
0.000000
  70
    32
  0
VERTEX
  8
図枠
  5
4C2
 10
132.351
 20
-156.228
 30
0.000000
  70
    32
  0
VERTEX
  8
図枠
  5
4C3
 10
132.363
 20
-156.239
 30
0.000000
  70
    32
  0
VERTEX
  8
図枠
  5
4C4
 10
132.374
 20
-156.250
 30
0.000000
  70
    32
  0
VERTEX
  8
図枠
  5
4C5
 10
132.385
 20
-156.261
 30
0.000000
  70
    32
  0
VERTEX
  8
図枠
  5
4C6
 10
132.396
 20
-156.272
 30
0.000000
  70
    32
  0
VERTEX
  8
図枠
  5
4C7
 10
132.407
 20
-156.282
 30
0.000000
  70
    32
  0
VERTEX
  8
図枠
  5
4C8
 10
132.418
 20
-156.293
 30
0.000000
  70
    32
  0
VERTEX
  8
図枠
  5
4C9
 10
132.430
 20
-156.304
 30
0.000000
  70
    32
  0
VERTEX
  8
図枠
  5
4CA
 10
132.441
 20
-156.315
 30
0.000000
  70
    32
  0
VERTEX
  8
図枠
  5
4CB
 10
132.452
 20
-156.325
 30
0.000000
  70
    32
  0
VERTEX
  8
図枠
  5
4CC
 10
132.463
 20
-156.336
 30
0.000000
  70
    32
  0
VERTEX
  8
図枠
  5
4CD
 10
132.474
 20
-156.347
 30
0.000000
  70
    32
  0
VERTEX
  8
図枠
  5
4CE
 10
132.486
 20
-156.357
 30
0.000000
  70
    32
  0
VERTEX
  8
図枠
  5
4CF
 10
132.497
 20
-156.368
 30
0.000000
  70
    32
  0
VERTEX
  8
図枠
  5
4D0
 10
132.508
 20
-156.379
 30
0.000000
  70
    32
  0
VERTEX
  8
図枠
  5
4D1
 10
132.519
 20
-156.389
 30
0.000000
  70
    32
  0
VERTEX
  8
図枠
  5
4D2
 10
132.531
 20
-156.400
 30
0.000000
  70
    32
  0
VERTEX
  8
図枠
  5
4D3
 10
132.542
 20
-156.410
 30
0.000000
  70
    32
  0
VERTEX
  8
図枠
  5
4D4
 10
132.553
 20
-156.421
 30
0.000000
  70
    32
  0
VERTEX
  8
図枠
  5
4D5
 10
132.565
 20
-156.431
 30
0.000000
  70
    32
  0
VERTEX
  8
図枠
  5
4D6
 10
132.576
 20
-156.442
 30
0.000000
  70
    32
  0
VERTEX
  8
図枠
  5
4D7
 10
132.587
 20
-156.452
 30
0.000000
  70
    32
  0
VERTEX
  8
図枠
  5
4D8
 10
132.599
 20
-156.463
 30
0.000000
  70
    32
  0
VERTEX
  8
図枠
  5
4D9
 10
132.610
 20
-156.473
 30
0.000000
  70
    32
  0
VERTEX
  8
図枠
  5
4DA
 10
132.622
 20
-156.484
 30
0.000000
  70
    32
  0
VERTEX
  8
図枠
  5
4DB
 10
132.633
 20
-156.494
 30
0.000000
  70
    32
  0
VERTEX
  8
図枠
  5
4DC
 10
132.644
 20
-156.504
 30
0.000000
  70
    32
  0
SEQEND
  8
図枠
  5
4DD
  0
LINE
  5
124
  8
図枠
 10
125.7720142491
 20
-153.3290446474
 30
0.0
 11
133.77121424910001
 21
-153.3290446474
 31
0.0
  0
INSERT
  5
125
  8
0
  6
CONTINUOUS
  2
*U53
 10
0.0
 20
0.0
 30
0.0
  0
LINE
  5
126
  8
図枠
 10
106.0752483272
 20
-153.64901264740001
 30
0.0
 11
106.0752483272
 21
-156.0487726474
 31
0.0
  0
LINE
  5
127
  8
図枠
 10
143.7181916891
 20
-157.32864464740001
 30
0.0
 11
148.93580320909999
 21
-157.32864464740001
 31
0.0
  0
LINE
  5
128
  8
図枠
 10
111.9164302491
 20
-158.44853264739999
 30
0.0
 11
111.9164302491
 21
-156.0487726474
 31
0.0
  0
LINE
  5
129
  8
図枠
 10
45.528666957399992
 20
-80.712583766800009
 30
0.0
 11
277.50546695740002
 21
-80.712583766800009
 31
0.0
  0
INSERT
  5
12A
  8
0
  6
CONTINUOUS
  2
*U54
 10
0.0
 20
0.0
 30
0.0
  0
POLYLINE
  8
図枠
  5
4DE
  66
     1
 10
0.000000
 20
0.000000
 30
0.000000
  70
     8
  0
VERTEX
  8
図枠
  5
4DF
 10
134.505
 20
-160.266
 30
0.000000
  70
    32
  0
VERTEX
  8
図枠
  5
4E0
 10
134.548
 20
-160.280
 30
0.000000
  70
    32
  0
VERTEX
  8
図枠
  5
4E1
 10
134.591
 20
-160.294
 30
0.000000
  70
    32
  0
VERTEX
  8
図枠
  5
4E2
 10
134.635
 20
-160.307
 30
0.000000
  70
    32
  0
VERTEX
  8
図枠
  5
4E3
 10
134.678
 20
-160.321
 30
0.000000
  70
    32
  0
VERTEX
  8
図枠
  5
4E4
 10
134.721
 20
-160.334
 30
0.000000
  70
    32
  0
VERTEX
  8
図枠
  5
4E5
 10
134.764
 20
-160.348
 30
0.000000
  70
    32
  0
VERTEX
  8
図枠
  5
4E6
 10
134.807
 20
-160.361
 30
0.000000
  70
    32
  0
VERTEX
  8
図枠
  5
4E7
 10
134.851
 20
-160.374
 30
0.000000
  70
    32
  0
VERTEX
  8
図枠
  5
4E8
 10
134.894
 20
-160.388
 30
0.000000
  70
    32
  0
VERTEX
  8
図枠
  5
4E9
 10
134.937
 20
-160.401
 30
0.000000
  70
    32
  0
VERTEX
  8
図枠
  5
4EA
 10
134.981
 20
-160.414
 30
0.000000
  70
    32
  0
VERTEX
  8
図枠
  5
4EB
 10
135.024
 20
-160.427
 30
0.000000
  70
    32
  0
VERTEX
  8
図枠
  5
4EC
 10
135.068
 20
-160.440
 30
0.000000
  70
    32
  0
VERTEX
  8
図枠
  5
4ED
 10
135.111
 20
-160.453
 30
0.000000
  70
    32
  0
VERTEX
  8
図枠
  5
4EE
 10
135.155
 20
-160.466
 30
0.000000
  70
    32
  0
VERTEX
  8
図枠
  5
4EF
 10
135.198
 20
-160.478
 30
0.000000
  70
    32
  0
VERTEX
  8
図枠
  5
4F0
 10
135.242
 20
-160.491
 30
0.000000
  70
    32
  0
VERTEX
  8
図枠
  5
4F1
 10
135.286
 20
-160.504
 30
0.000000
  70
    32
  0
VERTEX
  8
図枠
  5
4F2
 10
135.329
 20
-160.516
 30
0.000000
  70
    32
  0
VERTEX
  8
図枠
  5
4F3
 10
135.373
 20
-160.529
 30
0.000000
  70
    32
  0
VERTEX
  8
図枠
  5
4F4
 10
135.417
 20
-160.541
 30
0.000000
  70
    32
  0
VERTEX
  8
図枠
  5
4F5
 10
135.461
 20
-160.554
 30
0.000000
  70
    32
  0
VERTEX
  8
図枠
  5
4F6
 10
135.504
 20
-160.566
 30
0.000000
  70
    32
  0
VERTEX
  8
図枠
  5
4F7
 10
135.548
 20
-160.578
 30
0.000000
  70
    32
  0
VERTEX
  8
図枠
  5
4F8
 10
135.592
 20
-160.591
 30
0.000000
  70
    32
  0
VERTEX
  8
図枠
  5
4F9
 10
135.636
 20
-160.603
 30
0.000000
  70
    32
  0
VERTEX
  8
図枠
  5
4FA
 10
135.680
 20
-160.615
 30
0.000000
  70
    32
  0
VERTEX
  8
図枠
  5
4FB
 10
135.724
 20
-160.627
 30
0.000000
  70
    32
  0
VERTEX
  8
図枠
  5
4FC
 10
135.768
 20
-160.639
 30
0.000000
  70
    32
  0
VERTEX
  8
図枠
  5
4FD
 10
135.812
 20
-160.651
 30
0.000000
  70
    32
  0
VERTEX
  8
図枠
  5
4FE
 10
135.856
 20
-160.663
 30
0.000000
  70
    32
  0
VERTEX
  8
図枠
  5
4FF
 10
135.900
 20
-160.675
 30
0.000000
  70
    32
  0
VERTEX
  8
図枠
  5
500
 10
135.944
 20
-160.687
 30
0.000000
  70
    32
  0
VERTEX
  8
図枠
  5
501
 10
135.988
 20
-160.699
 30
0.000000
  70
    32
  0
VERTEX
  8
図枠
  5
502
 10
136.032
 20
-160.710
 30
0.000000
  70
    32
  0
VERTEX
  8
図枠
  5
503
 10
136.077
 20
-160.722
 30
0.000000
  70
    32
  0
VERTEX
  8
図枠
  5
504
 10
136.121
 20
-160.734
 30
0.000000
  70
    32
  0
VERTEX
  8
図枠
  5
505
 10
136.165
 20
-160.745
 30
0.000000
  70
    32
  0
VERTEX
  8
図枠
  5
506
 10
136.209
 20
-160.757
 30
0.000000
  70
    32
  0
VERTEX
  8
図枠
  5
507
 10
136.254
 20
-160.768
 30
0.000000
  70
    32
  0
VERTEX
  8
図枠
  5
508
 10
136.298
 20
-160.780
 30
0.000000
  70
    32
  0
VERTEX
  8
図枠
  5
509
 10
136.342
 20
-160.791
 30
0.000000
  70
    32
  0
VERTEX
  8
図枠
  5
50A
 10
136.387
 20
-160.803
 30
0.000000
  70
    32
  0
VERTEX
  8
図枠
  5
50B
 10
136.431
 20
-160.814
 30
0.000000
  70
    32
  0
VERTEX
  8
図枠
  5
50C
 10
136.475
 20
-160.825
 30
0.000000
  70
    32
  0
VERTEX
  8
図枠
  5
50D
 10
136.520
 20
-160.836
 30
0.000000
  70
    32
  0
VERTEX
  8
図枠
  5
50E
 10
136.564
 20
-160.847
 30
0.000000
  70
    32
  0
VERTEX
  8
図枠
  5
50F
 10
136.609
 20
-160.859
 30
0.000000
  70
    32
  0
VERTEX
  8
図枠
  5
510
 10
136.653
 20
-160.870
 30
0.000000
  70
    32
  0
VERTEX
  8
図枠
  5
511
 10
136.698
 20
-160.881
 30
0.000000
  70
    32
  0
VERTEX
  8
図枠
  5
512
 10
136.742
 20
-160.892
 30
0.000000
  70
    32
  0
VERTEX
  8
図枠
  5
513
 10
136.787
 20
-160.903
 30
0.000000
  70
    32
  0
VERTEX
  8
図枠
  5
514
 10
136.831
 20
-160.914
 30
0.000000
  70
    32
  0
VERTEX
  8
図枠
  5
515
 10
136.876
 20
-160.925
 30
0.000000
  70
    32
  0
VERTEX
  8
図枠
  5
516
 10
136.921
 20
-160.935
 30
0.000000
  70
    32
  0
VERTEX
  8
図枠
  5
517
 10
136.965
 20
-160.946
 30
0.000000
  70
    32
  0
VERTEX
  8
図枠
  5
518
 10
137.010
 20
-160.957
 30
0.000000
  70
    32
  0
VERTEX
  8
図枠
  5
519
 10
137.055
 20
-160.968
 30
0.000000
  70
    32
  0
VERTEX
  8
図枠
  5
51A
 10
137.099
 20
-160.978
 30
0.000000
  70
    32
  0
VERTEX
  8
図枠
  5
51B
 10
137.144
 20
-160.989
 30
0.000000
  70
    32
  0
VERTEX
  8
図枠
  5
51C
 10
137.189
 20
-161.000
 30
0.000000
  70
    32
  0
VERTEX
  8
図枠
  5
51D
 10
137.234
 20
-161.010
 30
0.000000
  70
    32
  0
VERTEX
  8
図枠
  5
51E
 10
137.278
 20
-161.021
 30
0.000000
  70
    32
  0
VERTEX
  8
図枠
  5
51F
 10
137.323
 20
-161.031
 30
0.000000
  70
    32
  0
VERTEX
  8
図枠
  5
520
 10
137.368
 20
-161.042
 30
0.000000
  70
    32
  0
VERTEX
  8
図枠
  5
521
 10
137.413
 20
-161.052
 30
0.000000
  70
    32
  0
VERTEX
  8
図枠
  5
522
 10
137.458
 20
-161.063
 30
0.000000
  70
    32
  0
VERTEX
  8
図枠
  5
523
 10
137.503
 20
-161.073
 30
0.000000
  70
    32
  0
VERTEX
  8
図枠
  5
524
 10
137.547
 20
-161.083
 30
0.000000
  70
    32
  0
VERTEX
  8
図枠
  5
525
 10
137.592
 20
-161.094
 30
0.000000
  70
    32
  0
VERTEX
  8
図枠
  5
526
 10
137.637
 20
-161.104
 30
0.000000
  70
    32
  0
VERTEX
  8
図枠
  5
527
 10
137.682
 20
-161.114
 30
0.000000
  70
    32
  0
VERTEX
  8
図枠
  5
528
 10
137.727
 20
-161.125
 30
0.000000
  70
    32
  0
VERTEX
  8
図枠
  5
529
 10
137.772
 20
-161.135
 30
0.000000
  70
    32
  0
VERTEX
  8
図枠
  5
52A
 10
137.817
 20
-161.145
 30
0.000000
  70
    32
  0
VERTEX
  8
図枠
  5
52B
 10
137.862
 20
-161.155
 30
0.000000
  70
    32
  0
VERTEX
  8
図枠
  5
52C
 10
137.907
 20
-161.165
 30
0.000000
  70
    32
  0
VERTEX
  8
図枠
  5
52D
 10
137.952
 20
-161.175
 30
0.000000
  70
    32
  0
VERTEX
  8
図枠
  5
52E
 10
137.997
 20
-161.185
 30
0.000000
  70
    32
  0
VERTEX
  8
図枠
  5
52F
 10
138.042
 20
-161.195
 30
0.000000
  70
    32
  0
VERTEX
  8
図枠
  5
530
 10
138.087
 20
-161.205
 30
0.000000
  70
    32
  0
VERTEX
  8
図枠
  5
531
 10
138.132
 20
-161.215
 30
0.000000
  70
    32
  0
VERTEX
  8
図枠
  5
532
 10
138.178
 20
-161.225
 30
0.000000
  70
    32
  0
VERTEX
  8
図枠
  5
533
 10
138.223
 20
-161.235
 30
0.000000
  70
    32
  0
VERTEX
  8
図枠
  5
534
 10
138.268
 20
-161.245
 30
0.000000
  70
    32
  0
VERTEX
  8
図枠
  5
535
 10
138.313
 20
-161.255
 30
0.000000
  70
    32
  0
VERTEX
  8
図枠
  5
536
 10
138.358
 20
-161.265
 30
0.000000
  70
    32
  0
VERTEX
  8
図枠
  5
537
 10
138.403
 20
-161.275
 30
0.000000
  70
    32
  0
VERTEX
  8
図枠
  5
538
 10
138.448
 20
-161.285
 30
0.000000
  70
    32
  0
VERTEX
  8
図枠
  5
539
 10
138.494
 20
-161.295
 30
0.000000
  70
    32
  0
VERTEX
  8
図枠
  5
53A
 10
138.539
 20
-161.304
 30
0.000000
  70
    32
  0
VERTEX
  8
図枠
  5
53B
 10
138.584
 20
-161.314
 30
0.000000
  70
    32
  0
VERTEX
  8
図枠
  5
53C
 10
138.629
 20
-161.324
 30
0.000000
  70
    32
  0
VERTEX
  8
図枠
  5
53D
 10
138.674
 20
-161.334
 30
0.000000
  70
    32
  0
VERTEX
  8
図枠
  5
53E
 10
138.720
 20
-161.343
 30
0.000000
  70
    32
  0
VERTEX
  8
図枠
  5
53F
 10
138.765
 20
-161.353
 30
0.000000
  70
    32
  0
VERTEX
  8
図枠
  5
540
 10
138.810
 20
-161.363
 30
0.000000
  70
    32
  0
VERTEX
  8
図枠
  5
541
 10
138.855
 20
-161.372
 30
0.000000
  70
    32
  0
VERTEX
  8
図枠
  5
542
 10
138.901
 20
-161.382
 30
0.000000
  70
    32
  0
VERTEX
  8
図枠
  5
543
 10
138.946
 20
-161.392
 30
0.000000
  70
    32
  0
VERTEX
  8
図枠
  5
544
 10
138.991
 20
-161.401
 30
0.000000
  70
    32
  0
VERTEX
  8
図枠
  5
545
 10
139.037
 20
-161.411
 30
0.000000
  70
    32
  0
VERTEX
  8
図枠
  5
546
 10
139.082
 20
-161.421
 30
0.000000
  70
    32
  0
VERTEX
  8
図枠
  5
547
 10
139.127
 20
-161.430
 30
0.000000
  70
    32
  0
VERTEX
  8
図枠
  5
548
 10
139.173
 20
-161.440
 30
0.000000
  70
    32
  0
VERTEX
  8
図枠
  5
549
 10
139.218
 20
-161.449
 30
0.000000
  70
    32
  0
VERTEX
  8
図枠
  5
54A
 10
139.263
 20
-161.459
 30
0.000000
  70
    32
  0
VERTEX
  8
図枠
  5
54B
 10
139.308
 20
-161.468
 30
0.000000
  70
    32
  0
VERTEX
  8
図枠
  5
54C
 10
139.354
 20
-161.478
 30
0.000000
  70
    32
  0
VERTEX
  8
図枠
  5
54D
 10
139.399
 20
-161.487
 30
0.000000
  70
    32
  0
VERTEX
  8
図枠
  5
54E
 10
139.445
 20
-161.497
 30
0.000000
  70
    32
  0
VERTEX
  8
図枠
  5
54F
 10
139.490
 20
-161.506
 30
0.000000
  70
    32
  0
VERTEX
  8
図枠
  5
550
 10
139.535
 20
-161.516
 30
0.000000
  70
    32
  0
VERTEX
  8
図枠
  5
551
 10
139.581
 20
-161.525
 30
0.000000
  70
    32
  0
VERTEX
  8
図枠
  5
552
 10
139.626
 20
-161.535
 30
0.000000
  70
    32
  0
VERTEX
  8
図枠
  5
553
 10
139.671
 20
-161.544
 30
0.000000
  70
    32
  0
VERTEX
  8
図枠
  5
554
 10
139.717
 20
-161.554
 30
0.000000
  70
    32
  0
VERTEX
  8
図枠
  5
555
 10
139.762
 20
-161.563
 30
0.000000
  70
    32
  0
VERTEX
  8
図枠
  5
556
 10
139.807
 20
-161.573
 30
0.000000
  70
    32
  0
VERTEX
  8
図枠
  5
557
 10
139.853
 20
-161.582
 30
0.000000
  70
    32
  0
VERTEX
  8
図枠
  5
558
 10
139.898
 20
-161.592
 30
0.000000
  70
    32
  0
VERTEX
  8
図枠
  5
559
 10
139.944
 20
-161.601
 30
0.000000
  70
    32
  0
VERTEX
  8
図枠
  5
55A
 10
139.989
 20
-161.610
 30
0.000000
  70
    32
  0
VERTEX
  8
図枠
  5
55B
 10
140.034
 20
-161.620
 30
0.000000
  70
    32
  0
VERTEX
  8
図枠
  5
55C
 10
140.080
 20
-161.629
 30
0.000000
  70
    32
  0
VERTEX
  8
図枠
  5
55D
 10
140.125
 20
-161.639
 30
0.000000
  70
    32
  0
VERTEX
  8
図枠
  5
55E
 10
140.171
 20
-161.648
 30
0.000000
  70
    32
  0
SEQEND
  8
図枠
  5
55F
  0
LINE
  5
12C
  8
図枠
 10
140.1705742490999
 20
-150.44933264740001
 30
0.0
 11
125.7720142491
 21
-150.44933264740001
 31
0.0
  0
LINE
  5
12D
  8
図枠
 10
140.1705742490999
 20
-159.2484526474
 30
0.0
 11
140.1705742490999
 21
-161.64821264739999
 31
0.0
  0
LINE
  5
12E
  8
図枠
 10
138.57073424910001
 20
-152.8490926474
 30
0.0
 11
140.1705742490999
 21
-150.44933264740001
 31
0.0
  0
CIRCLE
  5
12F
  8
図枠
 10
137.64745415740001
 20
-122.2084337668
 30
0.0
 40
4.6075391999999988
  0
LINE
  5
130
  8
図枠
  6
BORDER
 10
137.64745415740001
 20
-115.2971249668
 30
0.0
 11
137.64745415740001
 21
-129.1197425668
 31
0.0
  0
INSERT
  5
131
  8
0
  6
CONTINUOUS
  2
*U55
 10
0.0
 20
0.0
 30
0.0
  0
POLYLINE
  8
図枠
  5
560
  66
     1
 10
0.000000
 20
0.000000
 30
0.000000
  70
     8
  0
VERTEX
  8
図枠
  5
561
 10
125.772
 20
-154.680
 30
0.000000
  70
    32
  0
VERTEX
  8
図枠
  5
562
 10
125.801
 20
-154.706
 30
0.000000
  70
    32
  0
VERTEX
  8
図枠
  5
563
 10
125.830
 20
-154.733
 30
0.000000
  70
    32
  0
VERTEX
  8
図枠
  5
564
 10
125.858
 20
-154.759
 30
0.000000
  70
    32
  0
VERTEX
  8
図枠
  5
565
 10
125.887
 20
-154.786
 30
0.000000
  70
    32
  0
VERTEX
  8
図枠
  5
566
 10
125.916
 20
-154.812
 30
0.000000
  70
    32
  0
VERTEX
  8
図枠
  5
567
 10
125.945
 20
-154.839
 30
0.000000
  70
    32
  0
VERTEX
  8
図枠
  5
568
 10
125.974
 20
-154.866
 30
0.000000
  70
    32
  0
VERTEX
  8
図枠
  5
569
 10
126.003
 20
-154.892
 30
0.000000
  70
    32
  0
VERTEX
  8
図枠
  5
56A
 10
126.031
 20
-154.919
 30
0.000000
  70
    32
  0
VERTEX
  8
図枠
  5
56B
 10
126.060
 20
-154.945
 30
0.000000
  70
    32
  0
VERTEX
  8
図枠
  5
56C
 10
126.089
 20
-154.972
 30
0.000000
  70
    32
  0
VERTEX
  8
図枠
  5
56D
 10
126.118
 20
-154.998
 30
0.000000
  70
    32
  0
VERTEX
  8
図枠
  5
56E
 10
126.147
 20
-155.025
 30
0.000000
  70
    32
  0
VERTEX
  8
図枠
  5
56F
 10
126.176
 20
-155.051
 30
0.000000
  70
    32
  0
VERTEX
  8
図枠
  5
570
 10
126.204
 20
-155.078
 30
0.000000
  70
    32
  0
VERTEX
  8
図枠
  5
571
 10
126.233
 20
-155.104
 30
0.000000
  70
    32
  0
VERTEX
  8
図枠
  5
572
 10
126.262
 20
-155.131
 30
0.000000
  70
    32
  0
VERTEX
  8
図枠
  5
573
 10
126.291
 20
-155.157
 30
0.000000
  70
    32
  0
VERTEX
  8
図枠
  5
574
 10
126.320
 20
-155.184
 30
0.000000
  70
    32
  0
VERTEX
  8
図枠
  5
575
 10
126.349
 20
-155.210
 30
0.000000
  70
    32
  0
VERTEX
  8
図枠
  5
576
 10
126.378
 20
-155.237
 30
0.000000
  70
    32
  0
VERTEX
  8
図枠
  5
577
 10
126.406
 20
-155.263
 30
0.000000
  70
    32
  0
VERTEX
  8
図枠
  5
578
 10
126.435
 20
-155.289
 30
0.000000
  70
    32
  0
VERTEX
  8
図枠
  5
579
 10
126.464
 20
-155.316
 30
0.000000
  70
    32
  0
VERTEX
  8
図枠
  5
57A
 10
126.493
 20
-155.342
 30
0.000000
  70
    32
  0
VERTEX
  8
図枠
  5
57B
 10
126.522
 20
-155.369
 30
0.000000
  70
    32
  0
VERTEX
  8
図枠
  5
57C
 10
126.551
 20
-155.395
 30
0.000000
  70
    32
  0
VERTEX
  8
図枠
  5
57D
 10
126.580
 20
-155.421
 30
0.000000
  70
    32
  0
VERTEX
  8
図枠
  5
57E
 10
126.609
 20
-155.448
 30
0.000000
  70
    32
  0
VERTEX
  8
図枠
  5
57F
 10
126.638
 20
-155.474
 30
0.000000
  70
    32
  0
VERTEX
  8
図枠
  5
580
 10
126.667
 20
-155.500
 30
0.000000
  70
    32
  0
VERTEX
  8
図枠
  5
581
 10
126.696
 20
-155.527
 30
0.000000
  70
    32
  0
VERTEX
  8
図枠
  5
582
 10
126.725
 20
-155.553
 30
0.000000
  70
    32
  0
VERTEX
  8
図枠
  5
583
 10
126.754
 20
-155.579
 30
0.000000
  70
    32
  0
VERTEX
  8
図枠
  5
584
 10
126.783
 20
-155.605
 30
0.000000
  70
    32
  0
VERTEX
  8
図枠
  5
585
 10
126.812
 20
-155.632
 30
0.000000
  70
    32
  0
VERTEX
  8
図枠
  5
586
 10
126.841
 20
-155.658
 30
0.000000
  70
    32
  0
VERTEX
  8
図枠
  5
587
 10
126.870
 20
-155.684
 30
0.000000
  70
    32
  0
VERTEX
  8
図枠
  5
588
 10
126.899
 20
-155.710
 30
0.000000
  70
    32
  0
VERTEX
  8
図枠
  5
589
 10
126.928
 20
-155.736
 30
0.000000
  70
    32
  0
VERTEX
  8
図枠
  5
58A
 10
126.957
 20
-155.762
 30
0.000000
  70
    32
  0
VERTEX
  8
図枠
  5
58B
 10
126.986
 20
-155.788
 30
0.000000
  70
    32
  0
VERTEX
  8
図枠
  5
58C
 10
127.015
 20
-155.814
 30
0.000000
  70
    32
  0
VERTEX
  8
図枠
  5
58D
 10
127.044
 20
-155.841
 30
0.000000
  70
    32
  0
VERTEX
  8
図枠
  5
58E
 10
127.073
 20
-155.867
 30
0.000000
  70
    32
  0
VERTEX
  8
図枠
  5
58F
 10
127.102
 20
-155.893
 30
0.000000
  70
    32
  0
VERTEX
  8
図枠
  5
590
 10
127.132
 20
-155.918
 30
0.000000
  70
    32
  0
VERTEX
  8
図枠
  5
591
 10
127.161
 20
-155.944
 30
0.000000
  70
    32
  0
VERTEX
  8
図枠
  5
592
 10
127.190
 20
-155.970
 30
0.000000
  70
    32
  0
VERTEX
  8
図枠
  5
593
 10
127.219
 20
-155.996
 30
0.000000
  70
    32
  0
VERTEX
  8
図枠
  5
594
 10
127.248
 20
-156.022
 30
0.000000
  70
    32
  0
VERTEX
  8
図枠
  5
595
 10
127.277
 20
-156.048
 30
0.000000
  70
    32
  0
VERTEX
  8
図枠
  5
596
 10
127.307
 20
-156.074
 30
0.000000
  70
    32
  0
VERTEX
  8
図枠
  5
597
 10
127.336
 20
-156.099
 30
0.000000
  70
    32
  0
VERTEX
  8
図枠
  5
598
 10
127.365
 20
-156.125
 30
0.000000
  70
    32
  0
VERTEX
  8
図枠
  5
599
 10
127.394
 20
-156.151
 30
0.000000
  70
    32
  0
VERTEX
  8
図枠
  5
59A
 10
127.424
 20
-156.177
 30
0.000000
  70
    32
  0
VERTEX
  8
図枠
  5
59B
 10
127.453
 20
-156.202
 30
0.000000
  70
    32
  0
VERTEX
  8
図枠
  5
59C
 10
127.482
 20
-156.228
 30
0.000000
  70
    32
  0
VERTEX
  8
図枠
  5
59D
 10
127.512
 20
-156.253
 30
0.000000
  70
    32
  0
VERTEX
  8
図枠
  5
59E
 10
127.541
 20
-156.279
 30
0.000000
  70
    32
  0
VERTEX
  8
図枠
  5
59F
 10
127.570
 20
-156.305
 30
0.000000
  70
    32
  0
VERTEX
  8
図枠
  5
5A0
 10
127.600
 20
-156.330
 30
0.000000
  70
    32
  0
VERTEX
  8
図枠
  5
5A1
 10
127.629
 20
-156.355
 30
0.000000
  70
    32
  0
VERTEX
  8
図枠
  5
5A2
 10
127.659
 20
-156.381
 30
0.000000
  70
    32
  0
VERTEX
  8
図枠
  5
5A3
 10
127.688
 20
-156.406
 30
0.000000
  70
    32
  0
VERTEX
  8
図枠
  5
5A4
 10
127.718
 20
-156.432
 30
0.000000
  70
    32
  0
VERTEX
  8
図枠
  5
5A5
 10
127.747
 20
-156.457
 30
0.000000
  70
    32
  0
VERTEX
  8
図枠
  5
5A6
 10
127.777
 20
-156.482
 30
0.000000
  70
    32
  0
VERTEX
  8
図枠
  5
5A7
 10
127.806
 20
-156.507
 30
0.000000
  70
    32
  0
VERTEX
  8
図枠
  5
5A8
 10
127.836
 20
-156.533
 30
0.000000
  70
    32
  0
VERTEX
  8
図枠
  5
5A9
 10
127.865
 20
-156.558
 30
0.000000
  70
    32
  0
VERTEX
  8
図枠
  5
5AA
 10
127.895
 20
-156.583
 30
0.000000
  70
    32
  0
VERTEX
  8
図枠
  5
5AB
 10
127.925
 20
-156.608
 30
0.000000
  70
    32
  0
VERTEX
  8
図枠
  5
5AC
 10
127.954
 20
-156.633
 30
0.000000
  70
    32
  0
VERTEX
  8
図枠
  5
5AD
 10
127.984
 20
-156.658
 30
0.000000
  70
    32
  0
VERTEX
  8
図枠
  5
5AE
 10
128.014
 20
-156.683
 30
0.000000
  70
    32
  0
VERTEX
  8
図枠
  5
5AF
 10
128.043
 20
-156.708
 30
0.000000
  70
    32
  0
VERTEX
  8
図枠
  5
5B0
 10
128.073
 20
-156.733
 30
0.000000
  70
    32
  0
VERTEX
  8
図枠
  5
5B1
 10
128.103
 20
-156.757
 30
0.000000
  70
    32
  0
VERTEX
  8
図枠
  5
5B2
 10
128.133
 20
-156.782
 30
0.000000
  70
    32
  0
VERTEX
  8
図枠
  5
5B3
 10
128.162
 20
-156.807
 30
0.000000
  70
    32
  0
VERTEX
  8
図枠
  5
5B4
 10
128.192
 20
-156.832
 30
0.000000
  70
    32
  0
VERTEX
  8
図枠
  5
5B5
 10
128.222
 20
-156.856
 30
0.000000
  70
    32
  0
VERTEX
  8
図枠
  5
5B6
 10
128.252
 20
-156.881
 30
0.000000
  70
    32
  0
VERTEX
  8
図枠
  5
5B7
 10
128.282
 20
-156.905
 30
0.000000
  70
    32
  0
VERTEX
  8
図枠
  5
5B8
 10
128.312
 20
-156.930
 30
0.000000
  70
    32
  0
VERTEX
  8
図枠
  5
5B9
 10
128.342
 20
-156.954
 30
0.000000
  70
    32
  0
VERTEX
  8
図枠
  5
5BA
 10
128.372
 20
-156.979
 30
0.000000
  70
    32
  0
VERTEX
  8
図枠
  5
5BB
 10
128.402
 20
-157.003
 30
0.000000
  70
    32
  0
VERTEX
  8
図枠
  5
5BC
 10
128.432
 20
-157.027
 30
0.000000
  70
    32
  0
VERTEX
  8
図枠
  5
5BD
 10
128.462
 20
-157.052
 30
0.000000
  70
    32
  0
VERTEX
  8
図枠
  5
5BE
 10
128.492
 20
-157.076
 30
0.000000
  70
    32
  0
VERTEX
  8
図枠
  5
5BF
 10
128.522
 20
-157.100
 30
0.000000
  70
    32
  0
VERTEX
  8
図枠
  5
5C0
 10
128.552
 20
-157.124
 30
0.000000
  70
    32
  0
VERTEX
  8
図枠
  5
5C1
 10
128.582
 20
-157.148
 30
0.000000
  70
    32
  0
VERTEX
  8
図枠
  5
5C2
 10
128.613
 20
-157.172
 30
0.000000
  70
    32
  0
VERTEX
  8
図枠
  5
5C3
 10
128.643
 20
-157.196
 30
0.000000
  70
    32
  0
VERTEX
  8
図枠
  5
5C4
 10
128.673
 20
-157.220
 30
0.000000
  70
    32
  0
VERTEX
  8
図枠
  5
5C5
 10
128.703
 20
-157.244
 30
0.000000
  70
    32
  0
VERTEX
  8
図枠
  5
5C6
 10
128.734
 20
-157.267
 30
0.000000
  70
    32
  0
VERTEX
  8
図枠
  5
5C7
 10
128.764
 20
-157.291
 30
0.000000
  70
    32
  0
VERTEX
  8
図枠
  5
5C8
 10
128.794
 20
-157.315
 30
0.000000
  70
    32
  0
VERTEX
  8
図枠
  5
5C9
 10
128.825
 20
-157.338
 30
0.000000
  70
    32
  0
VERTEX
  8
図枠
  5
5CA
 10
128.855
 20
-157.362
 30
0.000000
  70
    32
  0
VERTEX
  8
図枠
  5
5CB
 10
128.886
 20
-157.385
 30
0.000000
  70
    32
  0
VERTEX
  8
図枠
  5
5CC
 10
128.916
 20
-157.409
 30
0.000000
  70
    32
  0
VERTEX
  8
図枠
  5
5CD
 10
128.947
 20
-157.432
 30
0.000000
  70
    32
  0
VERTEX
  8
図枠
  5
5CE
 10
128.977
 20
-157.456
 30
0.000000
  70
    32
  0
VERTEX
  8
図枠
  5
5CF
 10
129.008
 20
-157.479
 30
0.000000
  70
    32
  0
VERTEX
  8
図枠
  5
5D0
 10
129.039
 20
-157.502
 30
0.000000
  70
    32
  0
VERTEX
  8
図枠
  5
5D1
 10
129.069
 20
-157.525
 30
0.000000
  70
    32
  0
VERTEX
  8
図枠
  5
5D2
 10
129.100
 20
-157.548
 30
0.000000
  70
    32
  0
VERTEX
  8
図枠
  5
5D3
 10
129.131
 20
-157.571
 30
0.000000
  70
    32
  0
VERTEX
  8
図枠
  5
5D4
 10
129.162
 20
-157.594
 30
0.000000
  70
    32
  0
VERTEX
  8
図枠
  5
5D5
 10
129.192
 20
-157.617
 30
0.000000
  70
    32
  0
VERTEX
  8
図枠
  5
5D6
 10
129.223
 20
-157.640
 30
0.000000
  70
    32
  0
VERTEX
  8
図枠
  5
5D7
 10
129.254
 20
-157.663
 30
0.000000
  70
    32
  0
VERTEX
  8
図枠
  5
5D8
 10
129.285
 20
-157.685
 30
0.000000
  70
    32
  0
VERTEX
  8
図枠
  5
5D9
 10
129.316
 20
-157.708
 30
0.000000
  70
    32
  0
VERTEX
  8
図枠
  5
5DA
 10
129.347
 20
-157.730
 30
0.000000
  70
    32
  0
VERTEX
  8
図枠
  5
5DB
 10
129.378
 20
-157.753
 30
0.000000
  70
    32
  0
VERTEX
  8
図枠
  5
5DC
 10
129.409
 20
-157.775
 30
0.000000
  70
    32
  0
VERTEX
  8
図枠
  5
5DD
 10
129.440
 20
-157.798
 30
0.000000
  70
    32
  0
VERTEX
  8
図枠
  5
5DE
 10
129.471
 20
-157.820
 30
0.000000
  70
    32
  0
VERTEX
  8
図枠
  5
5DF
 10
129.502
 20
-157.842
 30
0.000000
  70
    32
  0
VERTEX
  8
図枠
  5
5E0
 10
129.534
 20
-157.864
 30
0.000000
  70
    32
  0
VERTEX
  8
図枠
  5
5E1
 10
129.565
 20
-157.886
 30
0.000000
  70
    32
  0
VERTEX
  8
図枠
  5
5E2
 10
129.596
 20
-157.908
 30
0.000000
  70
    32
  0
VERTEX
  8
図枠
  5
5E3
 10
129.627
 20
-157.930
 30
0.000000
  70
    32
  0
VERTEX
  8
図枠
  5
5E4
 10
129.659
 20
-157.952
 30
0.000000
  70
    32
  0
VERTEX
  8
図枠
  5
5E5
 10
129.690
 20
-157.974
 30
0.000000
  70
    32
  0
VERTEX
  8
図枠
  5
5E6
 10
129.722
 20
-157.996
 30
0.000000
  70
    32
  0
VERTEX
  8
図枠
  5
5E7
 10
129.753
 20
-158.017
 30
0.000000
  70
    32
  0
VERTEX
  8
図枠
  5
5E8
 10
129.785
 20
-158.039
 30
0.000000
  70
    32
  0
VERTEX
  8
図枠
  5
5E9
 10
129.816
 20
-158.060
 30
0.000000
  70
    32
  0
VERTEX
  8
図枠
  5
5EA
 10
129.848
 20
-158.082
 30
0.000000
  70
    32
  0
VERTEX
  8
図枠
  5
5EB
 10
129.879
 20
-158.103
 30
0.000000
  70
    32
  0
VERTEX
  8
図枠
  5
5EC
 10
129.911
 20
-158.124
 30
0.000000
  70
    32
  0
VERTEX
  8
図枠
  5
5ED
 10
129.943
 20
-158.145
 30
0.000000
  70
    32
  0
VERTEX
  8
図枠
  5
5EE
 10
129.975
 20
-158.167
 30
0.000000
  70
    32
  0
VERTEX
  8
図枠
  5
5EF
 10
130.006
 20
-158.188
 30
0.000000
  70
    32
  0
VERTEX
  8
図枠
  5
5F0
 10
130.038
 20
-158.209
 30
0.000000
  70
    32
  0
VERTEX
  8
図枠
  5
5F1
 10
130.070
 20
-158.229
 30
0.000000
  70
    32
  0
VERTEX
  8
図枠
  5
5F2
 10
130.102
 20
-158.250
 30
0.000000
  70
    32
  0
VERTEX
  8
図枠
  5
5F3
 10
130.134
 20
-158.271
 30
0.000000
  70
    32
  0
VERTEX
  8
図枠
  5
5F4
 10
130.166
 20
-158.292
 30
0.000000
  70
    32
  0
VERTEX
  8
図枠
  5
5F5
 10
130.198
 20
-158.312
 30
0.000000
  70
    32
  0
VERTEX
  8
図枠
  5
5F6
 10
130.230
 20
-158.333
 30
0.000000
  70
    32
  0
VERTEX
  8
図枠
  5
5F7
 10
130.263
 20
-158.353
 30
0.000000
  70
    32
  0
VERTEX
  8
図枠
  5
5F8
 10
130.295
 20
-158.373
 30
0.000000
  70
    32
  0
VERTEX
  8
図枠
  5
5F9
 10
130.327
 20
-158.393
 30
0.000000
  70
    32
  0
VERTEX
  8
図枠
  5
5FA
 10
130.359
 20
-158.414
 30
0.000000
  70
    32
  0
VERTEX
  8
図枠
  5
5FB
 10
130.392
 20
-158.434
 30
0.000000
  70
    32
  0
VERTEX
  8
図枠
  5
5FC
 10
130.424
 20
-158.454
 30
0.000000
  70
    32
  0
VERTEX
  8
図枠
  5
5FD
 10
130.456
 20
-158.473
 30
0.000000
  70
    32
  0
VERTEX
  8
図枠
  5
5FE
 10
130.489
 20
-158.493
 30
0.000000
  70
    32
  0
VERTEX
  8
図枠
  5
5FF
 10
130.521
 20
-158.513
 30
0.000000
  70
    32
  0
VERTEX
  8
図枠
  5
600
 10
130.554
 20
-158.533
 30
0.000000
  70
    32
  0
SEQEND
  8
図枠
  5
601
  0
INSERT
  5
133
  8
0
  6
CONTINUOUS
  2
*U56
 10
0.0
 20
0.0
 30
0.0
  0
LINE
  5
134
  8
図枠
 10
109.52226695740001
 20
-139.2067337668
 30
0.0
 11
161.5170669574
 21
-139.2067337668
 31
0.0
  0
LINE
  5
135
  8
図枠
 10
119.1157102491
 20
-156.8486926473999
 30
0.0
 11
119.1157102491
 21
-156.0487726474
 31
0.0
  0
LINE
  5
136
  8
図枠
 10
85.524666957399987
 20
-113.7092837668
 30
0.0
 11
85.524666957399987
 21
-130.70758376680001
 31
0.0
  0
LINE
  5
137
  8
図枠
 10
152.2468817045
 20
-153.16906064739999
 30
0.0
 11
152.0126743271999
 21
-152.3551758193
 31
0.0
  0
LINE
  5
138
  8
図枠
 10
157.39444088370001
 20
-117.60089456679999
 30
0.0
 11
157.39444088370001
 21
-126.8159729668
 31
0.0
  0
LINE
  5
139
  8
図枠
 10
148.1793624837
 20
-119.9046641668
 30
0.0
 11
157.39444088370001
 21
-117.60089456679999
 31
0.0
  0
LINE
  5
13A
  8
図枠
 10
45.528666957399992
 20
-113.7092837668
 30
0.0
 11
45.528666957399992
 21
-164.70418376680001
 31
0.0
  0
LINE
  5
13B
  8
図枠
 10
136.75126717730001
 20
-158.20716672079999
 30
0.0
 11
136.466332378
 21
-158.48614385100001
 31
0.0
  0
LINE
  5
13C
  8
図枠
  6
BORDER
 10
130.73614535740001
 20
-122.2084337668
 30
0.0
 11
160.3011885574
 21
-122.2084337668
 31
0.0
  0
CIRCLE
  5
13D
  8
図枠
 10
137.64745415740001
 20
-122.2084337668
 30
0.0
 40
4.6075391999999988
  0
LINE
  5
13E
  8
図枠
 10
45.528666957399992
 20
-147.70588376680001
 30
0.0
 11
277.50546695740002
 21
-147.70588376680001
 31
0.0
  0
INSERT
  5
13F
  8
0
  6
CONTINUOUS
  2
*U57
 10
0.0
 20
0.0
 30
0.0
  0
CIRCLE
  5
140
  8
ﾚｲﾔ_1
 62
     5
 10
-64.0
 20
143.8355364583
 30
0.0
 40
4.25
  0
CIRCLE
  5
141
  8
ﾚｲﾔ_1
 62
     5
 10
-94.0
 20
143.8355364583
 30
0.0
 40
4.25
  0
CIRCLE
  5
142
  8
ﾚｲﾔ_1
 62
     5
 10
-124.0
 20
143.8355364583
 30
0.0
 40
4.25
  0
LINE
  5
143
  8
ﾚｲﾔ_1
  6
BORDER
 62
     3
 10
-131.5
 20
143.8355364583
 30
0.0
 11
-116.5
 21
143.8355364583
 31
0.0
  0
LINE
  5
144
  8
ﾚｲﾔ_1
  6
STITCH
 10
-159.0
 20
24.376953125
 30
0.0
 11
-157.0
 21
22.376953125
 31
0.0
  0
LINE
  5
145
  8
ﾚｲﾔ_1
  6
STITCH
 10
-157.0
 20
17.876953125
 30
0.0
 11
-159.0
 21
15.876953125
 31
0.0
  0
LINE
  5
146
  8
ﾚｲﾔ_1
  6
STITCH
 10
-157.0
 20
22.376953125
 30
0.0
 11
-157.0
 21
17.876953125
 31
0.0
  0
DIMENSION
  5
155
  8
寸法線
  2
*D6
 10
-179.00000025130001
 20
162.8355364583
 30
0.0
 11
-179.00000025130001
 21
153.3355364583
 31
0.0
 70
   128
  1
<>
 13
-159.0
 23
162.8355364583
 33
0.0
 14
-163.10048319200001
 24
143.8355364583
 34
0.0
 50
90.0
  0
DIMENSION
  5
164
  8
寸法線
  2
*D7
 10
-94.0
 20
107.8355364583
 30
0.0
 11
-79.0
 21
107.8355364583
 31
0.0
 70
   128
  1
<>
 13
-94.0
 23
136.3355364583
 33
0.0
 14
-64.0
 24
136.3355364583
 34
0.0
 50
180.0
  0
DIMENSION
  5
173
  8
寸法線
  2
*D8
 10
-124.0
 20
107.8355364583
 30
0.0
 11
-109.0
 21
107.8355364583
 31
0.0
 70
   128
  1
<>
 13
-124.0
 23
136.3355364583
 33
0.0
 14
-94.0
 24
136.3355364583
 34
0.0
 50
180.0
  0
DIMENSION
  5
182
  8
寸法線
  2
*D9
 10
-64.0
 20
107.8355364583
 30
0.0
 11
-51.5
 21
107.8355364583
 31
0.0
 70
   128
  1
<>
 13
-64.0
 23
136.3355364583
 33
0.0
 14
-39.0
 24
124.8355364583
 34
0.0
 50
180.0
  0
DIMENSION
  5
191
  8
寸法線
  2
*D10
 10
-159.0
 20
107.8355364583
 30
0.0
 11
-141.5
 21
107.8355364583
 31
0.0
 70
   128
  1
<>
 13
-159.0
 23
124.8355364583
 33
0.0
 14
-124.0
 24
136.3355364583
 34
0.0
 50
180.0
  0
DIMENSION
  5
1A0
  8
寸法線
  2
*D11
 10
-179.00000025130001
 20
143.8355364583
 30
0.0
 11
-179.00000025130001
 21
134.3355364583
 31
0.0
 70
   128
  1
<>
 13
-163.10048319200001
 23
143.8355364583
 33
0.0
 14
-159.0
 24
124.8355364583
 34
0.0
 50
90.0
  0
DIMENSION
  5
1AF
  8
寸法線
  2
*D12
 10
-196.90673828129999
 20
162.8355364583
 30
0.0
 11
-196.90673828129999
 21
143.8355364583
 31
0.0
 70
   128
  1
<>
 13
-159.0
 23
162.8355364583
 33
0.0
 14
-159.0
 24
124.8355364583
 34
0.0
 50
90.0
  0
INSERT
  5
1B0
  8
0
  6
CONTINUOUS
  2
*U58
 10
0.0
 20
0.0
 30
0.0
  0
CIRCLE
  5
1B1
  8
図枠
 10
137.64745415740001
 20
-122.2084337668
 30
0.0
 40
2.303769599999999
  0
CIRCLE
  5
1B2
  8
図枠
 10
137.64745415740001
 20
-122.2084337668
 30
0.0
 40
4.6075391999999988
  0
ARC
  5
1B3
  8
図枠
 10
127.6918222491
 20
-153.16906064739999
 30
0.0
 40
6.0793919999999986
 50
331.39928138329998
 51
358.49204224580001
  0
LINE
  5
1B4
  8
図枠
 10
111.9164302491
 20
-153.64901264740001
 30
0.0
 11
111.9164302491
 21
-152.8490926474
 31
0.0
  0
LINE
  5
1B5
  8
図枠
 10
121.51547024910001
 20
-150.44933264740001
 30
0.0
 11
115.1161102491
 21
-150.44933264740001
 31
0.0
  0
LINE
  5
1B6
  8
図枠
 10
45.528666957399992
 20
-102.71038376680001
 30
0.0
 11
277.50546695740002
 21
-102.71038376680001
 31
0.0
  0
CIRCLE
  5
1B7
  8
図枠
 10
137.64745415740001
 20
-122.2084337668
 30
0.0
 40
2.303769599999999
  0
INSERT
  5
1B8
  8
0
  6
CONTINUOUS
  2
*U59
 10
0.0
 20
0.0
 30
0.0
  0
INSERT
  5
1B9
  8
0
  6
CONTINUOUS
  2
*U60
 10
0.0
 20
0.0
 30
0.0
  0
LINE
  5
1BA
  8
図枠
 10
157.39444088370001
 20
-117.60089456679999
 30
0.0
 11
157.39444088370001
 21
-126.8159729668
 31
0.0
  0
LINE
  5
1BB
  8
ﾚｲﾔ_1
  6
STITCH
 10
-155.80000000000001
 20
141.5855364583
 30
0.0
 11
-157.0
 21
141.5855364583
 31
0.0
  0
LINE
  5
1BC
  8
ﾚｲﾔ_1
  6
STITCH
 10
-157.0
 20
146.0855364583
 30
0.0
 11
-155.80000000000001
 21
146.0855364583
 31
0.0
  0
LINE
  5
1BD
  8
ﾚｲﾔ_1
 62
     5
 10
-155.80000000000001
 20
162.8355364583
 30
0.0
 11
-155.80000000000001
 21
124.8355364583
 31
0.0
  0
LINE
  5
1BE
  8
ﾚｲﾔ_1
 62
     5
 10
-39.0
 20
124.8355364583
 30
0.0
 11
-39.0
 21
162.8355364583
 31
0.0
  0
LINE
  5
1BF
  8
ﾚｲﾔ_1
 62
     5
 10
-159.0
 20
162.8355364583
 30
0.0
 11
-159.0
 21
124.8355364583
 31
0.0
  0
LINE
  5
1C0
  8
ﾚｲﾔ_1
 62
     5
 10
-159.0
 20
124.8355364583
 30
0.0
 11
-39.0
 21
124.8355364583
 31
0.0
  0
LINE
  5
1C1
  8
ﾚｲﾔ_1
 62
     5
 10
-39.0
 20
162.8355364583
 30
0.0
 11
-159.0
 21
162.8355364583
 31
0.0
  0
LINE
  5
1C2
  8
ﾚｲﾔ_1
  6
BORDER
 62
     3
 10
-149.7320621394
 20
20.126953125
 30
0.0
 11
-163.10048319200001
 21
20.126953125
 31
0.0
  0
LINE
  5
1C3
  8
ﾚｲﾔ_1
  6
BORDER
 62
     3
 10
-149.7320621394
 20
50.126953125
 30
0.0
 11
-163.10048319200001
 21
50.126953125
 31
0.0
  0
LINE
  5
1C4
  8
ﾚｲﾔ_1
 62
     5
 10
-159.0
 20
75.126953125
 30
0.0
 11
-155.80000000000001
 21
75.126953125
 31
0.0
  0
LINE
  5
1C5
  8
ﾚｲﾔ_1
  6
BORDER
 62
     3
 10
-124.0
 20
151.3355364583
 30
0.0
 11
-124.0
 21
136.3355364583
 31
0.0
  0
CIRCLE
  5
1C6
  8
ﾚｲﾔ_1
 62
     5
 10
-124.0
 20
143.8355364583
 30
0.0
 40
2.25
  0
CIRCLE
  5
1C7
  8
ﾚｲﾔ_1
 62
     5
 10
-94.0
 20
143.8355364583
 30
0.0
 40
2.25
  0
LINE
  5
1C8
  8
ﾚｲﾔ_1
  6
BORDER
 62
     3
 10
-94.0
 20
151.3355364583
 30
0.0
 11
-94.0
 21
136.3355364583
 31
0.0
  0
LINE
  5
1C9
  8
ﾚｲﾔ_1
  6
BORDER
 62
     3
 10
-101.5
 20
143.8355364583
 30
0.0
 11
-86.5
 21
143.8355364583
 31
0.0
  0
LINE
  5
1CA
  8
ﾚｲﾔ_1
  6
BORDER
 62
     3
 10
-71.5
 20
143.8355364583
 30
0.0
 11
-56.5
 21
143.8355364583
 31
0.0
  0
LINE
  5
1CB
  8
ﾚｲﾔ_1
  6
BORDER
 62
     3
 10
-64.0
 20
151.3355364583
 30
0.0
 11
-64.0
 21
136.3355364583
 31
0.0
  0
CIRCLE
  5
1CC
  8
ﾚｲﾔ_1
 62
     5
 10
-64.0
 20
143.8355364583
 30
0.0
 40
2.25
  0
LINE
  5
1CD
  8
ﾚｲﾔ_1
  6
STITCH
 10
-157.0
 20
141.5855364583
 30
0.0
 11
-159.0
 21
139.5855364583
 31
0.0
  0
LINE
  5
1CE
  8
ﾚｲﾔ_1
  6
STITCH
 10
-155.80000000000001
 20
47.876953125
 30
0.0
 11
-157.0
 21
47.876953125
 31
0.0
  0
LINE
  5
1CF
  8
ﾚｲﾔ_1
  6
STITCH
 10
-157.0
 20
52.376953125
 30
0.0
 11
-155.80000000000001
 21
52.376953125
 31
0.0
  0
LINE
  5
1D0
  8
ﾚｲﾔ_1
  6
STITCH
 10
-157.0
 20
22.376953125
 30
0.0
 11
-155.80000000000001
 21
22.376953125
 31
0.0
  0
LINE
  5
1D1
  8
ﾚｲﾔ_1
  6
STITCH
 10
-159.0
 20
148.0855364583
 30
0.0
 11
-157.0
 21
146.0855364583
 31
0.0
  0
LINE
  5
1D2
  8
ﾚｲﾔ_1
  6
STITCH
 10
-157.0
 20
146.0855364583
 30
0.0
 11
-157.0
 21
141.5855364583
 31
0.0
  0
LINE
  5
1D3
  8
ﾚｲﾔ_1
  6
BORDER
 62
     3
 10
-149.7320621394
 20
143.8355364583
 30
0.0
 11
-163.10048319200001
 21
143.8355364583
 31
0.0
  0
LINE
  5
1D4
  8
ﾚｲﾔ_1
  6
STITCH
 10
-96.25
 20
-43.67304687499999
 30
0.0
 11
-98.250000000000014
 21
-41.67304687499999
 31
0.0
  0
LINE
  5
1D5
  8
ﾚｲﾔ_1
  6
STITCH
 10
-91.75
 20
-43.67304687499999
 30
0.0
 11
-96.25
 21
-43.67304687499999
 31
0.0
  0
LINE
  5
1D6
  8
ﾚｲﾔ_1
  6
STITCH
 10
-61.75
 20
-43.67304687499999
 30
0.0
 11
-66.25
 21
-43.67304687499999
 31
0.0
  0
LINE
  5
1D7
  8
ﾚｲﾔ_1
  6
STITCH
 10
-66.25
 20
-43.67304687499999
 30
0.0
 11
-68.25
 21
-41.67304687499999
 31
0.0
  0
LINE
  5
1D8
  8
ﾚｲﾔ_1
  6
STITCH
 10
-59.75
 20
-41.67304687499999
 30
0.0
 11
-61.75
 21
-43.67304687499999
 31
0.0
  0
LINE
  5
1D9
  8
ﾚｲﾔ_1
 62
     5
 10
-155.0
 20
-41.67304687499999
 30
0.0
 11
-39.0
 21
-41.67304687499999
 31
0.0
  0
ARC
  5
1DA
  8
ﾚｲﾔ_1
 62
     5
 10
-155.0
 20
-40.873046875
 30
0.0
 40
0.8
 50
180.0
 51
270.0
  0
LINE
  5
1DB
  8
ﾚｲﾔ_1
  6
STITCH
 10
-66.25
 20
-44.873046875
 30
0.0
 11
-66.25
 21
-43.67304687499999
 31
0.0
  0
LINE
  5
1DC
  8
ﾚｲﾔ_1
  6
STITCH
 10
-61.75
 20
-43.67304687499999
 30
0.0
 11
-61.75
 21
-44.873046875
 31
0.0
  0
LINE
  5
1DD
  8
ﾚｲﾔ_1
  6
STITCH
 10
-91.75
 20
-43.67304687499999
 30
0.0
 11
-91.75
 21
-44.873046875
 31
0.0
  0
LINE
  5
1DE
  8
ﾚｲﾔ_1
  6
STITCH
 10
-96.25
 20
-44.873046875
 30
0.0
 11
-96.25
 21
-43.67304687499999
 31
0.0
  0
LINE
  5
1DF
  8
ﾚｲﾔ_1
  6
STITCH
 10
-126.25
 20
-44.873046875
 30
0.0
 11
-126.25
 21
-43.67304687499999
 31
0.0
  0
LINE
  5
1E0
  8
ﾚｲﾔ_1
  6
STITCH
 10
-121.75
 20
-43.67304687499999
 30
0.0
 11
-121.75
 21
-44.873046875
 31
0.0
  0
LINE
  5
1E1
  8
ﾚｲﾔ_1
 62
     5
 10
-39.0
 20
-44.873046875
 30
0.0
 11
-39.0
 21
-41.67304687499999
 31
0.0
  0
LINE
  5
1E2
  8
ﾚｲﾔ_1
  6
BORDER
 62
     3
 10
-124.0
 20
-36.905109014399997
 30
0.0
 11
-124.0
 21
-50.273530067000003
 31
0.0
  0
LINE
  5
1E3
  8
ﾚｲﾔ_1
  6
BORDER
 62
     3
 10
-94.0
 20
-36.905109014399997
 30
0.0
 11
-94.0
 21
-50.273530067000003
 31
0.0
  0
DIMENSION
  5
1F2
  8
寸法線
  2
*D13
 10
-18.25
 20
-44.873046875
 30
0.0
 11
-18.25
 21
-23.500114864299999
 31
0.0
 70
   128
  1
<>t
 13
-39.0
 23
-44.873046875
 33
0.0
 14
-38.25
 24
-41.67304687499999
 34
0.0
 50
90.0
  0
DIMENSION
  5
201
  8
寸法線
  2
*D14
 10
-159.0
 20
-64.873046875
 30
0.0
 11
-99.0
 21
-64.873046875
 31
0.0
 70
   128
  1
<>
 13
-159.0
 23
-40.873046875
 33
0.0
 14
-39.0
 24
-44.873046875
 34
0.0
 50
180.0
  0
DIMENSION
  5
20F
  8
寸法線
  2
*D61
 10
-120.9758976647872
 20
-34.510794466891149
 30
0.0
 11
-124.0
 21
-34.125087455900001
 31
0.0
 70
   133
  1
<>
 13
-129.0303300859
 23
-40.8927167891
 33
0.0
 14
-118.9696699141
 24
-40.8927167891
 34
0.0
 15
-124.0
 25
-46.17304687499999
 35
0.0
1001
ACAD
1000
DSTYLE
1002
{
1070
   271
1070
     0
1002
}
  0
DIMENSION
  5
21F
  8
寸法線
  2
*D16
 10
-126.25
 20
-52.7071927191
 30
0.0
 11
-124.0
 21
-52.7071927191
 31
0.0
 70
   128
  1
%%c4
 13
-126.25
 23
-44.873046875
 33
0.0
 14
-121.75
 24
-44.873046875
 34
0.0
 50
180.0
  0
DIMENSION
  5
22E
  8
寸法線
  2
*D17
 10
-119.75
 20
-36.905109014399997
 30
0.0
 11
-124.0
 21
-36.905109014399997
 31
0.0
 70
   128
  1
%%c8
 13
-119.75
 23
-41.67304687499999
 33
0.0
 14
-128.25
 24
-41.67304687499999
 34
0.0
  0
LINE
  5
22F
  8
ﾚｲﾔ_1
  6
STITCH
 10
-155.80000000000001
 20
17.876953125
 30
0.0
 11
-157.0
 21
17.876953125
 31
0.0
  0
LINE
  5
230
  8
ﾚｲﾔ_1
  6
STITCH
 10
-157.0
 20
52.376953125
 30
0.0
 11
-157.0
 21
47.876953125
 31
0.0
  0
LINE
  5
231
  8
ﾚｲﾔ_1
  6
STITCH
 10
-157.0
 20
47.876953125
 30
0.0
 11
-159.0
 21
45.876953125
 31
0.0
  0
LINE
  5
232
  8
ﾚｲﾔ_1
  6
STITCH
 10
-159.0
 20
54.376953125
 30
0.0
 11
-157.0
 21
52.376953125
 31
0.0
  0
LINE
  5
233
  8
図枠
 62
     5
 10
-272.43953304259998
 20
-164.70418376680001
 30
0.0
 11
277.50546695740002
 21
-164.70418376680001
 31
0.0
  0
LINE
  5
234
  8
図枠
  6
DOT
 10
-284.43833304259999
 20
-176.20303376679999
 30
0.0
 11
289.50426695739998
 21
-176.20303376679999
 31
0.0
  0
LINE
  5
235
  8
図枠
 62
     5
 10
-272.43953304259998
 20
215.2578162332
 30
0.0
 11
277.50546695740002
 21
215.2578162332
 31
0.0
  0
LINE
  5
236
  8
図枠
  6
DOT
 10
-284.43833304259999
 20
226.75666623320001
 30
0.0
 11
289.50426695739998
 21
226.75666623320001
 31
0.0
  0
LINE
  5
237
  8
ﾚｲﾔ_1
 62
     5
 10
-159.0
 20
-40.873046875
 30
0.0
 11
-159.0
 21
75.126953125
 31
0.0
  0
LINE
  5
238
  8
ﾚｲﾔ_1
 62
     5
 10
-155.80000000000001
 20
-40.873046875
 30
0.0
 11
-155.80000000000001
 21
75.126953125
 31
0.0
  0
DIMENSION
  5
246
  8
寸法線
  2
*D62
 10
-89.758285297582447
 20
-3.543845113814768
 30
0.0
 11
-105.1812825521
 21
15.36281510420002
 31
0.0
 70
   133
  1
<>
 13
-155.80000000000001
 23
75.126953125
 33
0.0
 14
-39.0
 24
-41.67304687499999
 34
0.0
 15
-155.80000000000001
 25
-41.67304687499999
 35
0.0
1001
ACAD
1000
DSTYLE
1002
{
1070
   271
1070
     0
1002
}
  0
DIMENSION
  5
255
  8
寸法線
  2
*D19
 10
-179.0
 20
75.126953125
 30
0.0
 11
-179.0
 21
15.126953125
 31
0.0
 70
   128
  1
<>
 13
-159.0
 23
75.126953125
 33
0.0
 14
-155.0
 24
-44.873046875
 34
0.0
 50
90.0
  0
LINE
  5
256
  8
図枠
  6
DOT
 10
-284.43233364259999
 20
-176.20303376679999
 30
0.0
 11
-284.43233364259999
 21
226.75666623320001
 31
0.0
  0
LINE
  5
257
  8
図枠
 62
     5
 10
-272.43953304259998
 20
-164.70418376680001
 30
0.0
 11
-272.43953304259998
 21
215.2578162332
 31
0.0
  0
LINE
  5
258
  8
図枠
  6
DOT
 10
289.50426695739998
 20
-176.20303376679999
 30
0.0
 11
289.50426695739998
 21
226.75666623320001
 31
0.0
  0
LINE
  5
259
  8
図枠
 62
     5
 10
277.50546695740002
 20
-164.70418376680001
 30
0.0
 11
277.50546695740002
 21
215.2578162332
 31
0.0
  0
LINE
  5
25A
  8
ﾚｲﾔ_1
  6
BORDER
 62
     3
 10
-64.0
 20
-36.905109014399997
 30
0.0
 11
-64.0
 21
-50.273530067000003
 31
0.0
  0
LINE
  5
25B
  8
ﾚｲﾔ_1
  6
STITCH
 10
-121.75
 20
-43.67304687499999
 30
0.0
 11
-126.25
 21
-43.67304687499999
 31
0.0
  0
LINE
  5
25C
  8
ﾚｲﾔ_1
  6
STITCH
 10
-126.25
 20
-43.67304687499999
 30
0.0
 11
-128.25
 21
-41.67304687499999
 31
0.0
  0
LINE
  5
25D
  8
ﾚｲﾔ_1
  6
STITCH
 10
-119.75
 20
-41.67304687499999
 30
0.0
 11
-121.75
 21
-43.67304687499999
 31
0.0
  0
LINE
  5
25E
  8
ﾚｲﾔ_1
  6
STITCH
 10
-155.80000000000001
 20
-12.123046875
 30
0.0
 11
-157.0
 21
-12.123046875
 31
0.0
  0
LINE
  5
25F
  8
ﾚｲﾔ_1
  6
STITCH
 10
-157.0
 20
-7.623046875
 30
0.0
 11
-155.80000000000001
 21
-7.623046875
 31
0.0
  0
LINE
  5
260
  8
ﾚｲﾔ_1
  6
STITCH
 10
-157.0
 20
-7.623046875
 30
0.0
 11
-157.0
 21
-12.123046875
 31
0.0
  0
LINE
  5
261
  8
ﾚｲﾔ_1
  6
STITCH
 10
-157.0
 20
-12.123046875
 30
0.0
 11
-159.0
 21
-14.123046875
 31
0.0
  0
LINE
  5
262
  8
ﾚｲﾔ_1
  6
STITCH
 10
-159.0
 20
-5.623046875
 30
0.0
 11
-157.0
 21
-7.623046875
 31
0.0
  0
LINE
  5
263
  8
ﾚｲﾔ_1
  6
BORDER
 62
     3
 10
-149.7320621394
 20
-9.873046875
 30
0.0
 11
-163.10048319200001
 21
-9.873046875
 31
0.0
  0
ARC
  5
264
  8
ﾚｲﾔ_1
 62
     5
 10
-155.0
 20
-40.873046875
 30
0.0
 40
4.0
 50
180.0
 51
270.0
  0
LINE
  5
265
  8
ﾚｲﾔ_1
 62
     5
 10
-155.0
 20
-44.873046875
 30
0.0
 11
-39.0
 21
-44.873046875
 31
0.0
  0
LINE
  5
266
  8
ﾚｲﾔ_1
  6
STITCH
 10
-89.749999999999986
 20
-41.67304687499999
 30
0.0
 11
-91.75
 21
-43.67304687499999
 31
0.0
  0
LINE
  5
2A7
  8
ﾚｲﾔ_1
  6
STITCH
 10
193.22711716981399
 20
-33.27142393120117
 30
0.0
 11
190.02711716981401
 21
-36.471423931201173
 31
0.0
  0
LINE
  5
2A8
  8
ﾚｲﾔ_1
 62
     5
 10
158.45907843665819
 20
-33.27142393120117
 30
0.0
 11
210.75651031020951
 21
-33.27142393120117
 31
0.0
  0
LINE
  5
2A9
  8
ﾚｲﾔ_1
 62
     5
 10
158.45907843665819
 20
-39.671423931201169
 30
0.0
 11
210.75651031020951
 21
-39.671423931201161
 31
0.0
  0
LINE
  5
2AA
  8
ﾚｲﾔ_1
  6
BORDER
 62
     3
 10
185.22711716981411
 20
-27.78469244980117
 30
0.0
 11
185.22711716981411
 21
-45.379484116401173
 31
0.0
  0
DIMENSION
  5
2AB
  8
寸法線
  2
*D24
 10
177.22711716981399
 20
-17.824338716363972
 30
0.0
 11
184.96575945589711
 21
-17.824338716363972
 31
0.0
 70
   128
  1
φ8
 13
193.22711716981399
 23
-33.27142393120117
 33
0.0
 14
177.22711716981399
 24
-33.27142393120117
 34
0.0
  0
DIMENSION
  5
2AC
  8
寸法線
  2
*D25
 10
194.44972111274231
 20
-6.8521974386140281
 30
0.0
 11
184.66108498460559
 21
-5.6425145541035171
 31
0.0
 70
   133
 13
176.1664569982141
 23
-32.210763759401182
 33
0.0
 14
194.287777341614
 24
-32.210763759401182
 34
0.0
 15
185.22711716981411
 25
-41.271423931201163
 35
0.0
1001
ACAD
1000
DSTYLE
1002
{
1070
   271
1070
     0
1002
}
  0
DIMENSION
  5
2AD
  8
寸法線
  2
*D26
 10
190.02711716981401
 20
-49.520504025266341
 30
0.0
 11
211.11295023296401
 21
-49.520504025266341
 31
0.0
 70
   128
  1
φ4
 13
180.42711716981401
 23
-39.671423931201183
 33
0.0
 14
190.02711716981401
 24
-39.671423931201183
 34
0.0
 50
180.0
  0
LINE
  5
2AE
  8
ﾚｲﾔ_1
  6
STITCH
 10
180.42711716981401
 20
-36.471423931201173
 30
0.0
 11
180.42711716981401
 21
-39.671423931201183
 31
0.0
  0
LINE
  5
2AF
  8
ﾚｲﾔ_1
  6
STITCH
 10
190.02711716981401
 20
-36.471423931201173
 30
0.0
 11
190.02711716981401
 21
-39.671423931201183
 31
0.0
  0
LINE
  5
2B0
  8
ﾚｲﾔ_1
  6
STITCH
 10
190.02711716981401
 20
-36.471423931201173
 30
0.0
 11
180.42711716981401
 21
-36.471423931201173
 31
0.0
  0
LINE
  5
2B1
  8
ﾚｲﾔ_1
  6
STITCH
 10
180.42711716981401
 20
-36.471423931201173
 30
0.0
 11
177.22711716981399
 21
-33.27142393120117
 31
0.0
  0
ENDSEC
  0
EOF
