  0
SECTION
  2
HEADER
  9
$ACADVER
  1
AC1009
  9
$INSBASE
 10
0.0
 20
0.0
 30
0.0
  9
$EXTMIN
 10
-140.97066636860001
 20
-75.476988639699996
 30
0.0
  9
$EXTMAX
 10
146.00063363140001
 20
126.0028613603
 30
0.0
  9
$LIMMIN
 10
0.0
 20
0.0
  9
$LIMMAX
 10
0.0
 20
0.0
  9
$ORTHOMODE
 70
     0
  9
$REGENMODE
 70
     1
  9
$FILLMODE
 70
     1
  9
$QTEXTMODE
 70
     0
  9
$MIRRTEXT
 70
     1
  9
$DRAGMODE
 70
     2
  9
$LTSCALE
 40
1.0
  9
$OSMODE
 70
    31
  9
$ATTMODE
 70
     1
  9
$TEXTSIZE
 40
0.0
  9
$TRACEWID
 40
0.05
  9
$TEXTSTYLE
  7
STANDARD
  9
$CLAYER
  8
0
  9
$CELTYPE
  6
CONTINUOUS
  9
$CECOLOR
 62
   256
  9
$DIMSCALE
 40
1.0
  9
$DIMASZ
 40
0.18
  9
$DIMEXO
 40
0.0625
  9
$DIMDLI
 40
0.38
  9
$DIMRND
 40
0.0
  9
$DIMDLE
 40
0.0
  9
$DIMEXE
 40
0.18
  9
$DIMTP
 40
0.0
  9
$DIMTM
 40
0.0
  9
$DIMTXT
 40
0.18
  9
$DIMCEN
 40
0.09
  9
$DIMTSZ
 40
0.0
  9
$DIMTOL
 70
     0
  9
$DIMLIM
 70
     0
  9
$DIMTIH
 70
     1
  9
$DIMTOH
 70
     1
  9
$DIMSE1
 70
     0
  9
$DIMSE2
 70
     0
  9
$DIMTAD
 70
     0
  9
$DIMZIN
 70
     0
  9
$DIMBLK
  1

  9
$DIMASO
 70
     1
  9
$DIMSHO
 70
     1
  9
$DIMPOST
  1

  9
$DIMAPOST
  1

  9
$DIMALT
 70
     0
  9
$DIMALTD
 70
     2
  9
$DIMALTF
 40
25.399999999999999
  9
$DIMLFAC
 40
1.0
  9
$DIMTOFL
 70
     0
  9
$DIMTVP
 40
0.0
  9
$DIMTIX
 70
     0
  9
$DIMSOXD
 70
     0
  9
$DIMSAH
 70
     0
  9
$DIMBLK1
  1

  9
$DIMBLK2
  1

  9
$DIMSTYLE
  2
STANDARD
  9
$DIMCLRD
 70
     0
  9
$DIMCLRE
 70
     0
  9
$DIMCLRT
 70
     0
  9
$DIMTFAC
 40
1.0
  9
$DIMGAP
 40
0.09
  9
$LUNITS
 70
     2
  9
$LUPREC
 70
     4
  9
$SKETCHINC
 40
0.1
  9
$FILLETRAD
 40
0.0
  9
$AUNITS
 70
     0
  9
$AUPREC
 70
     0
  9
$MENU
  1
acad
  9
$ELEVATION
 40
0.0
  9
$PELEVATION
 40
0.0
  9
$THICKNESS
 40
0.0
  9
$LIMCHECK
 70
     0
  9
$BLIPMODE
 70
     0
  9
$CHAMFERA
 40
0.0
  9
$CHAMFERB
 40
0.0
  9
$SKPOLY
 70
     0
  9
$TDCREATE
 40
2454863.5332490508
  9
$TDUPDATE
 40
2454863.5334986229
  9
$TDINDWG
 40
0.0002624074
  9
$TDUSRTIMER
 40
0.0002620486
  9
$USRTIMER
 70
     1
  9
$ANGBASE
 50
0.0
  9
$ANGDIR
 70
     0
  9
$PDMODE
 70
     3
  9
$PDSIZE
 40
-1.0
  9
$PLINEWID
 40
0.0
  9
$COORDS
 70
     2
  9
$SPLFRAME
 70
     0
  9
$SPLINETYPE
 70
     6
  9
$SPLINESEGS
 70
     8
  9
$ATTDIA
 70
     0
  9
$ATTREQ
 70
     1
  9
$HANDLING
 70
     1
  9
$HANDSEED
  5
5F8
  9
$SURFTAB1
 70
     6
  9
$SURFTAB2
 70
     6
  9
$SURFTYPE
 70
     6
  9
$SURFU
 70
     6
  9
$SURFV
 70
     6
  9
$UCSNAME
  2

  9
$UCSORG
 10
0.0
 20
0.0
 30
0.0
  9
$UCSXDIR
 10
1.0
 20
0.0
 30
0.0
  9
$UCSYDIR
 10
0.0
 20
1.0
 30
0.0
  9
$PUCSNAME
  2

  9
$PUCSORG
 10
0.0
 20
0.0
 30
0.0
  9
$PUCSXDIR
 10
1.0
 20
0.0
 30
0.0
  9
$PUCSYDIR
 10
0.0
 20
1.0
 30
0.0
  9
$USERI1
 70
     0
  9
$USERI2
 70
     0
  9
$USERI3
 70
     0
  9
$USERI4
 70
     0
  9
$USERI5
 70
     0
  9
$USERR1
 40
0.0
  9
$USERR2
 40
0.0
  9
$USERR3
 40
0.0
  9
$USERR4
 40
0.0
  9
$USERR5
 40
0.0
  9
$WORLDVIEW
 70
     1
  9
$SHADEDGE
 70
     3
  9
$SHADEDIF
 70
    70
  9
$TILEMODE
 70
     1
  9
$MAXACTVP
 70
    16
  9
$PLIMCHECK
 70
     0
  9
$PEXTMIN
 10
1.0000000000000000E+020
 20
1.0000000000000000E+020
 30
1.0000000000000000E+020
  9
$PEXTMAX
 10
-1.0000000000000000E+020
 20
-1.0000000000000000E+020
 30
-1.0000000000000000E+020
  9
$PLIMMIN
 10
0.0
 20
0.0
  9
$PLIMMAX
 10
12.0
 20
9.0
  9
$UNITMODE
 70
     0
  9
$VISRETAIN
 70
     0
  9
$PLINEGEN
 70
     1
  9
$PSLTSCALE
 70
     0
  0
ENDSEC
  0
SECTION
  2
TABLES
  0
TABLE
  2
VPORT
 70
     2
  0
VPORT
  2
*ACTIVE
 70
     0
 10
0.0
 20
0.0
 11
1.0
 21
1.0
 12
2.514983631400014
 22
25.26293636030001
 13
0.0
 23
0.0
 14
1.0
 24
1.0
 15
0.0
 25
0.0
 16
0.0
 26
0.0
 36
1.0
 17
0.0
 27
0.0
 37
0.0
 40
203.8371790897445
 41
1.4164265129682989
 42
50.0
 43
0.0
 44
0.0
 50
0.0
 51
0.0
 71
     0
 72
   100
 73
     1
 74
     1
 75
     0
 76
     0
 77
     0
 78
     0
  0
ENDTAB
  0
TABLE
  2
LTYPE
 70
    11
  0
LTYPE
  2
CONTINUOUS
 70
     0
  3
Solid line
 72
    65
 73
     0
 40
0.0
  0
LTYPE
  2
DOT
 70
     0
  3
. . . . . . . . 
 72
    65
 73
     2
 40
1.0
 49
0.0
 49
-1.0
  0
LTYPE
  2
DASHED
 70
     0
  3
___  ___  ___  ___  
 72
    65
 73
     2
 40
4.0
 49
3.0
 49
-1.0
  0
LTYPE
  2
HIDDEN
 70
     0
  3
__ __ __ __ 
 72
    65
 73
     2
 40
3.0
 49
2.0
 49
-1.0
  0
LTYPE
  2
STITCH
 70
     0
  3
_ _ _ _ 
 72
    65
 73
     2
 40
2.0
 49
1.0
 49
-1.0
  0
LTYPE
  2
CENTER
 70
     0
  3
______  __  ______  __  
 72
    65
 73
     4
 40
43.0
 49
40.0
 49
-1.0
 49
1.0
 49
-1.0
  0
LTYPE
  2
DASHDOT
 70
     0
  3
____ . ____ . 
 72
    65
 73
     4
 40
32.0
 49
30.0
 49
-1.0
 49
0.0
 49
-1.0
  0
LTYPE
  2
BORDER
 70
     0
  3
__ . __ . 
 72
    65
 73
     4
 40
22.0
 49
20.0
 49
-1.0
 49
0.0
 49
-1.0
  0
LTYPE
  2
CUTTING
 70
     0
  3
________   ___   ___   
 72
    65
 73
     6
 40
45.0
 49
40.0
 49
-1.0
 49
1.0
 49
-1.0
 49
1.0
 49
-1.0
  0
LTYPE
  2
PHANTOM
 70
     0
  3
______  __  __  
 72
    65
 73
     6
 40
35.0
 49
30.0
 49
-1.0
 49
1.0
 49
-1.0
 49
1.0
 49
-1.0
  0
LTYPE
  2
DIVIDE
 70
     0
  3
____ . . ____ . . 
 72
    65
 73
     6
 40
23.0
 49
20.0
 49
-1.0
 49
0.0
 49
-1.0
 49
0.0
 49
-1.0
  0
ENDTAB
  0
TABLE
  2
LAYER
 70
     5
  0
LAYER
  2
0
 70
     0
 62
     7
  6
CONTINUOUS
  0
LAYER
  2
図枠
 70
     0
 62
     7
  6
CONTINUOUS
  0
LAYER
  2
ﾚｲﾔ_1
 70
     0
 62
     7
  6
CONTINUOUS
  0
LAYER
  2
寸法線
 70
     0
 62
     7
  6
CONTINUOUS
  0
LAYER
  2
Defpoints
 70
     0
 62
     7
  6
CONTINUOUS
  0
ENDTAB
  0
TABLE
  2
STYLE
 70
     1
  0
STYLE
  2
STANDARD
 70
     0
 40
0.0
 41
1.0
 50
0.0
 71
     0
 42
0.0
  3
txt
  4
extfont
  0
ENDTAB
  0
TABLE
  2
VIEW
 70
     0
  0
ENDTAB
  0
TABLE
  2
UCS
 70
     0
  0
ENDTAB
  0
TABLE
  2
APPID
 70
     2
  0
APPID
  2
ACAD
 70
     0
  0
APPID
  2
DCO15
 70
     0
  0
ENDTAB
  0
TABLE
  2
DIMSTYLE
 70
     3
  0
DIMSTYLE
  2
STANDARD
 70
     0
  3

  4

  5

  6

  7

 40
1.0
 41
0.18
 42
0.0625
 43
0.38
 44
0.18
 45
0.0
 46
0.0
 47
0.0
 48
0.0
140
0.18
141
0.09
142
0.0
143
25.399999999999999
144
1.0
145
0.0
146
1.0
147
0.09
 71
     0
 72
     0
 73
     1
 74
     1
 75
     0
 76
     0
 77
     0
 78
     0
170
     0
171
     2
172
     0
173
     0
174
     0
175
     0
176
     0
177
     0
178
     0
  0
DIMSTYLE
  2
VELDIM0
 70
     0
  3

  4

  5

  6

  7

 40
1.0
 41
3.0
 42
0.0625
 43
0.38
 44
1.0
 45
0.0
 46
5.0
 47
0.0
 48
0.0
140
2.9986110209999999
141
0.09
142
0.0
143
25.399999999999999
144
1.0
145
0.0
146
1.0
147
0.09
 71
     0
 72
     0
 73
     0
 74
     0
 75
     0
 76
     0
 77
     0
 78
     8
170
     0
171
     2
172
     0
173
     0
174
     0
175
     0
176
     0
177
     0
178
     0
  0
DIMSTYLE
  2
VELDIM1
 70
     0
  3

  4

  5

  6

  7

 40
1.0
 41
3.0
 42
0.0625
 43
0.38
 44
1.25
 45
0.0
 46
5.0
 47
0.0
 48
0.0
140
2.9986110209999999
141
0.09
142
0.0
143
25.399999999999999
144
1.0
145
0.0
146
1.0
147
0.09
 71
     0
 72
     0
 73
     0
 74
     0
 75
     0
 76
     0
 77
     0
 78
     8
170
     0
171
     2
172
     0
173
     0
174
     0
175
     0
176
     0
177
     0
178
     0
  0
ENDTAB
  0
ENDSEC
  0
SECTION
  2
BLOCKS
  0
BLOCK
  8
0
  2
$MODEL_SPACE
 70
     0
 10
0.0
 20
0.0
 30
0.0
  3
$MODEL_SPACE
  1

  0
ENDBLK
  5
E
  8
0
  0
BLOCK
 67
     1
  8
0
  2
$PAPER_SPACE
 70
     0
 10
0.0
 20
0.0
 30
0.0
  3
$PAPER_SPACE
  1

  0
ENDBLK
  5
10
 67
     1
  8
0
  0
BLOCK
  8
0
  2
*D0
 70
     1
 10
0.0
 20
0.0
 30
0.0
  3
*D0
  1

  0
TEXT
  5
5B
  8
0
 62
     0
 10
41.041203719599991
 20
59.978038193300002
 30
0.0
 40
2.9986110209999999
  1
15
 50
90.0
  0
LINE
  5
5C
  8
0
 62
     0
 10
50.570370370399999
 20
69.241927029199999
 30
0.0
 11
41.570370370399999
 21
69.241927029199999
 31
0.0
  0
LINE
  5
5D
  8
0
 62
     0
 10
53.570370370399999
 20
54.241927029199999
 30
0.0
 11
41.570370370399999
 21
54.241927029199999
 31
0.0
  0
LINE
  5
5E
  8
0
 62
     0
 10
42.570370370399992
 20
69.241927029199999
 30
0.0
 11
42.570370370399992
 21
65.269704701099997
 31
0.0
  0
LINE
  5
5F
  8
0
 62
     0
 10
42.570370370399992
 20
69.241927029199999
 30
0.0
 11
42.570370370399992
 21
58.214149357399997
 31
0.0
  0
LINE
  5
60
  8
0
 62
     0
 10
42.570370370399992
 20
54.241927029199999
 30
0.0
 11
42.570370370399992
 21
65.269704701099997
 31
0.0
  0
LINE
  5
61
  8
0
 62
     0
 10
42.570370370399992
 20
54.241927029199999
 30
0.0
 11
42.570370370399992
 21
58.214149357399997
 31
0.0
  0
LINE
  5
62
  8
0
 62
     0
 10
42.570370370399992
 20
54.241927029199999
 30
0.0
 11
42.570370370399992
 21
59.241927029199999
 31
0.0
  0
SOLID
  5
63
  8
0
 62
     0
 10
42.570370370399992
 20
54.241927029199999
 30
0.0
 11
41.820370370399992
 21
57.241927029199992
 31
0.0
 12
43.320370370399999
 22
57.241927029199992
 32
0.0
 13
42.570370370399992
 23
56.491927029199999
 33
0.0
  0
LINE
  5
64
  8
0
 62
     0
 10
42.570370370399992
 20
69.241927029199999
 30
0.0
 11
42.570370370399992
 21
64.241927029199999
 31
0.0
  0
SOLID
  5
65
  8
0
 62
     0
 10
42.570370370399992
 20
69.241927029199999
 30
0.0
 11
43.320370370399999
 21
66.241927029199999
 31
0.0
 12
41.820370370399992
 22
66.241927029199999
 32
0.0
 13
42.570370370399992
 23
66.991927029199999
 33
0.0
  0
ENDBLK
  5
66
  8
0
  0
BLOCK
  8
0
  2
*D1
 70
     1
 10
0.0
 20
0.0
 30
0.0
  3
*D1
  1

  0
TEXT
  5
6B
  8
0
 62
     0
 10
41.041203719599991
 20
74.978038193299994
 30
0.0
 40
2.9986110209999999
  1
15
 50
90.0
  0
LINE
  5
6C
  8
0
 62
     0
 10
53.570370370399999
 20
84.241927029199999
 30
0.0
 11
41.570370370399999
 21
84.241927029199999
 31
0.0
  0
LINE
  5
6D
  8
0
 62
     0
 10
50.570370370399999
 20
69.241927029199999
 30
0.0
 11
41.570370370399999
 21
69.241927029199999
 31
0.0
  0
LINE
  5
6E
  8
0
 62
     0
 10
42.570370370399992
 20
84.241927029199999
 30
0.0
 11
42.570370370399992
 21
80.269704701099997
 31
0.0
  0
LINE
  5
6F
  8
0
 62
     0
 10
42.570370370399992
 20
84.241927029199999
 30
0.0
 11
42.570370370399992
 21
73.214149357400004
 31
0.0
  0
LINE
  5
70
  8
0
 62
     0
 10
42.570370370399992
 20
69.241927029199999
 30
0.0
 11
42.570370370399992
 21
80.269704701099997
 31
0.0
  0
LINE
  5
71
  8
0
 62
     0
 10
42.570370370399992
 20
69.241927029199999
 30
0.0
 11
42.570370370399992
 21
73.214149357400004
 31
0.0
  0
LINE
  5
72
  8
0
 62
     0
 10
42.570370370399992
 20
69.241927029199999
 30
0.0
 11
42.570370370399992
 21
74.241927029199999
 31
0.0
  0
SOLID
  5
73
  8
0
 62
     0
 10
42.570370370399992
 20
69.241927029199999
 30
0.0
 11
41.820370370399992
 21
72.241927029199985
 31
0.0
 12
43.320370370399999
 22
72.241927029199985
 32
0.0
 13
42.570370370399992
 23
71.491927029199999
 33
0.0
  0
LINE
  5
74
  8
0
 62
     0
 10
42.570370370399992
 20
84.241927029199999
 30
0.0
 11
42.570370370399992
 21
79.241927029199999
 31
0.0
  0
SOLID
  5
75
  8
0
 62
     0
 10
42.570370370399992
 20
84.241927029199999
 30
0.0
 11
43.320370370399999
 21
81.241927029199999
 31
0.0
 12
41.820370370399992
 22
81.241927029199999
 32
0.0
 13
42.570370370399992
 23
81.991927029199985
 33
0.0
  0
ENDBLK
  5
76
  8
0
  0
BLOCK
  8
0
  2
*D2
 70
     1
 10
0.0
 20
0.0
 30
0.0
  3
*D2
  1

  0
TEXT
  5
7A
  8
0
 62
     0
 10
107.75376992069999
 20
21.861178068200001
 30
0.0
 40
2.9986110209999999
  1
%%c8
  0
LINE
  5
7B
  8
0
 62
     0
 10
126.3996031746
 20
12.3320114174
 30
0.0
 11
126.3996031746
 21
21.3320114174
 31
0.0
  0
LINE
  5
7C
  8
0
 62
     0
 10
94.399603174599974
 20
12.3320114174
 30
0.0
 11
94.399603174599974
 21
21.3320114174
 31
0.0
  0
LINE
  5
7D
  8
0
 62
     0
 10
126.3996031746
 20
20.3320114174
 30
0.0
 11
114.8093252644
 21
20.3320114174
 31
0.0
  0
LINE
  5
7E
  8
0
 62
     0
 10
126.3996031746
 20
20.3320114174
 30
0.0
 11
105.9898810848
 21
20.3320114174
 31
0.0
  0
LINE
  5
7F
  8
0
 62
     0
 10
94.399603174599974
 20
20.3320114174
 30
0.0
 11
114.8093252644
 21
20.3320114174
 31
0.0
  0
LINE
  5
80
  8
0
 62
     0
 10
94.399603174599974
 20
20.3320114174
 30
0.0
 11
105.9898810848
 21
20.3320114174
 31
0.0
  0
LINE
  5
81
  8
0
 62
     0
 10
94.399603174599974
 20
20.3320114174
 30
0.0
 11
99.399603174599974
 21
20.3320114174
 31
0.0
  0
SOLID
  5
82
  8
0
 62
     0
 10
94.399603174599974
 20
20.3320114174
 30
0.0
 11
97.399603174599989
 21
21.0820114174
 31
0.0
 12
97.399603174599989
 22
19.5820114174
 32
0.0
 13
96.649603174600003
 23
20.3320114174
 33
0.0
  0
LINE
  5
83
  8
0
 62
     0
 10
126.3996031746
 20
20.3320114174
 30
0.0
 11
121.3996031746
 21
20.3320114174
 31
0.0
  0
SOLID
  5
84
  8
0
 62
     0
 10
126.3996031746
 20
20.3320114174
 30
0.0
 11
123.3996031746
 21
19.5820114174
 31
0.0
 12
123.3996031746
 22
21.0820114174
 32
0.0
 13
124.1496031746
 23
20.3320114174
 33
0.0
  0
ENDBLK
  5
85
  8
0
  0
BLOCK
  8
0
  2
*D3
 70
     1
 10
0.0
 20
0.0
 30
0.0
  3
*D3
  1

  0
TEXT
  5
89
  8
0
 62
     0
 10
54.688425952399989
 20
92.771093680000007
 30
0.0
 40
2.9986110209999999
  1
6
  0
LINE
  5
8A
  8
0
 62
     0
 10
58.570370370399999
 20
77.241927029199985
 30
0.0
 11
58.570370370399999
 21
92.241927029199985
 31
0.0
  0
LINE
  5
8B
  8
0
 62
     0
 10
52.570370370399992
 20
83.241927029199985
 30
0.0
 11
52.570370370399992
 21
92.241927029199985
 31
0.0
  0
LINE
  5
8C
  8
0
 62
     0
 10
58.570370370399999
 20
91.241927029199999
 30
0.0
 11
58.216203624199999
 21
91.241927029199999
 31
0.0
  0
LINE
  5
8D
  8
0
 62
     0
 10
58.570370370399999
 20
91.241927029199999
 30
0.0
 11
52.924537116499998
 21
91.241927029199999
 31
0.0
  0
LINE
  5
8E
  8
0
 62
     0
 10
52.570370370399992
 20
91.241927029199999
 30
0.0
 11
58.216203624199999
 21
91.241927029199999
 31
0.0
  0
LINE
  5
8F
  8
0
 62
     0
 10
52.570370370399992
 20
91.241927029199999
 30
0.0
 11
52.924537116499998
 21
91.241927029199999
 31
0.0
  0
LINE
  5
90
  8
0
 62
     0
 10
52.570370370399992
 20
91.241927029199999
 30
0.0
 11
47.570370370399992
 21
91.241927029199999
 31
0.0
  0
SOLID
  5
91
  8
0
 62
     0
 10
52.570370370399992
 20
91.241927029199999
 30
0.0
 11
49.570370370399999
 21
90.491927029199999
 31
0.0
 12
49.570370370399999
 22
91.991927029199985
 32
0.0
 13
50.320370370399999
 23
91.241927029199999
 33
0.0
  0
LINE
  5
92
  8
0
 62
     0
 10
58.570370370399999
 20
91.241927029199999
 30
0.0
 11
63.570370370399999
 21
91.241927029199999
 31
0.0
  0
SOLID
  5
93
  8
0
 62
     0
 10
58.570370370399999
 20
91.241927029199999
 30
0.0
 11
61.570370370399999
 21
91.991927029199985
 31
0.0
 12
61.570370370399999
 22
90.491927029199999
 32
0.0
 13
60.820370370399999
 23
91.241927029199999
 33
0.0
  0
ENDBLK
  5
94
  8
0
  0
BLOCK
  8
0
  2
*D4
 70
     1
 10
0.0
 20
0.0
 30
0.0
  3
*D4
  1

  0
TEXT
  5
98
  8
0
 62
     0
 10
65.342592698600001
 20
92.771093680000007
 30
0.0
 40
2.9986110209999999
  1
20.6
  0
LINE
  5
99
  8
0
 62
     0
 10
79.170370370399993
 20
86.241927029199999
 30
0.0
 11
79.170370370399993
 21
92.241927029199985
 31
0.0
  0
LINE
  5
9A
  8
0
 62
     0
 10
58.570370370399999
 20
77.241927029199985
 30
0.0
 11
58.570370370399999
 21
92.241927029199985
 31
0.0
  0
LINE
  5
9B
  8
0
 62
     0
 10
79.170370370399993
 20
91.241927029199999
 30
0.0
 11
74.162036878100011
 21
91.241927029199999
 31
0.0
  0
LINE
  5
9C
  8
0
 62
     0
 10
79.170370370399993
 20
91.241927029199999
 30
0.0
 11
63.578703862600001
 21
91.241927029199999
 31
0.0
  0
LINE
  5
9D
  8
0
 62
     0
 10
58.570370370399999
 20
91.241927029199999
 30
0.0
 11
74.162036878100011
 21
91.241927029199999
 31
0.0
  0
LINE
  5
9E
  8
0
 62
     0
 10
58.570370370399999
 20
91.241927029199999
 30
0.0
 11
63.578703862600001
 21
91.241927029199999
 31
0.0
  0
LINE
  5
9F
  8
0
 62
     0
 10
58.570370370399999
 20
91.241927029199999
 30
0.0
 11
63.570370370399999
 21
91.241927029199999
 31
0.0
  0
SOLID
  5
A0
  8
0
 62
     0
 10
58.570370370399999
 20
91.241927029199999
 30
0.0
 11
61.570370370399999
 21
91.991927029199985
 31
0.0
 12
61.570370370399999
 22
90.491927029199999
 32
0.0
 13
60.820370370399999
 23
91.241927029199999
 33
0.0
  0
LINE
  5
A1
  8
0
 62
     0
 10
79.170370370399993
 20
91.241927029199999
 30
0.0
 11
74.170370370399993
 21
91.241927029199999
 31
0.0
  0
SOLID
  5
A2
  8
0
 62
     0
 10
79.170370370399993
 20
91.241927029199999
 30
0.0
 11
76.170370370399993
 21
90.491927029199999
 31
0.0
 12
76.170370370399993
 22
91.991927029199985
 32
0.0
 13
76.920370370399993
 23
91.241927029199999
 33
0.0
  0
ENDBLK
  5
A3
  8
0
  0
BLOCK
  8
0
  2
*D5
 70
     1
 10
0.0
 20
0.0
 30
0.0
  3
*D5
  1

  0
TEXT
  5
A7
  8
0
 62
     0
 10
41.090277910199987
 20
21.861178068200001
 30
0.0
 40
2.9986110209999999
  1
%%c8.5
  0
LINE
  5
A8
  8
0
 62
     0
 10
62.5
 20
12.3320114174
 30
0.0
 11
62.5
 21
21.3320114174
 31
0.0
  0
LINE
  5
A9
  8
0
 62
     0
 10
28.5
 20
12.3320114174
 30
0.0
 11
28.5
 21
21.3320114174
 31
0.0
  0
LINE
  5
AA
  8
0
 62
     0
 10
62.5
 20
20.3320114174
 30
0.0
 11
51.673610925699997
 21
20.3320114174
 31
0.0
  0
LINE
  5
AB
  8
0
 62
     0
 10
62.5
 20
20.3320114174
 30
0.0
 11
39.326389074300003
 21
20.3320114174
 31
0.0
  0
LINE
  5
AC
  8
0
 62
     0
 10
28.5
 20
20.3320114174
 30
0.0
 11
51.673610925699997
 21
20.3320114174
 31
0.0
  0
LINE
  5
AD
  8
0
 62
     0
 10
28.5
 20
20.3320114174
 30
0.0
 11
39.326389074300003
 21
20.3320114174
 31
0.0
  0
LINE
  5
AE
  8
0
 62
     0
 10
28.5
 20
20.3320114174
 30
0.0
 11
33.5
 21
20.3320114174
 31
0.0
  0
SOLID
  5
AF
  8
0
 62
     0
 10
28.5
 20
20.3320114174
 30
0.0
 11
31.5
 21
21.0820114174
 31
0.0
 12
31.5
 22
19.5820114174
 32
0.0
 13
30.75
 23
20.3320114174
 33
0.0
  0
LINE
  5
B0
  8
0
 62
     0
 10
62.5
 20
20.3320114174
 30
0.0
 11
57.5
 21
20.3320114174
 31
0.0
  0
SOLID
  5
B1
  8
0
 62
     0
 10
62.5
 20
20.3320114174
 30
0.0
 11
59.5
 21
19.5820114174
 31
0.0
 12
59.5
 22
21.0820114174
 32
0.0
 13
60.25
 23
20.3320114174
 33
0.0
  0
ENDBLK
  5
B2
  8
0
  0
BLOCK
  8
0
  2
*D6
 70
     1
 10
0.0
 20
0.0
 30
0.0
  3
*D6
  1

  0
TEXT
  5
154
  8
0
 62
     0
 10
-23.905555449600001
 20
44.699519731599992
 30
0.0
 40
2.9986110209999999
  1
11.5
  0
LINE
  5
155
  8
0
 62
     0
 10
-26.127777777799999
 20
67.241927029199985
 30
0.0
 11
-26.127777777799999
 21
42.170353080799991
 31
0.0
  0
LINE
  5
156
  8
0
 62
     0
 10
-14.6277777778
 20
55.241927029199999
 30
0.0
 11
-14.6277777778
 21
42.170353080799991
 31
0.0
  0
LINE
  5
157
  8
0
 62
     0
 10
-26.127777777799999
 20
43.170353080799998
 30
0.0
 11
-15.0861112701
 21
43.170353080799998
 31
0.0
  0
LINE
  5
158
  8
0
 62
     0
 10
-26.127777777799999
 20
43.170353080799998
 30
0.0
 11
-25.669444285499999
 21
43.170353080799998
 31
0.0
  0
LINE
  5
159
  8
0
 62
     0
 10
-14.6277777778
 20
43.170353080799998
 30
0.0
 11
-15.0861112701
 21
43.170353080799998
 31
0.0
  0
LINE
  5
15A
  8
0
 62
     0
 10
-14.6277777778
 20
43.170353080799998
 30
0.0
 11
-25.669444285499999
 21
43.170353080799998
 31
0.0
  0
LINE
  5
15B
  8
0
 62
     0
 10
-14.6277777778
 20
43.170353080799998
 30
0.0
 11
-9.6277777778000004
 21
43.170353080799998
 31
0.0
  0
SOLID
  5
15C
  8
0
 62
     0
 10
-14.6277777778
 20
43.170353080799998
 30
0.0
 11
-11.6277777778
 21
43.920353080799991
 31
0.0
 12
-11.6277777778
 22
42.420353080799998
 32
0.0
 13
-12.3777777778
 23
43.170353080799998
 33
0.0
  0
LINE
  5
15D
  8
0
 62
     0
 10
-26.127777777799999
 20
43.170353080799998
 30
0.0
 11
-31.127777777799999
 21
43.170353080799998
 31
0.0
  0
SOLID
  5
15E
  8
0
 62
     0
 10
-26.127777777799999
 20
43.170353080799998
 30
0.0
 11
-29.127777777799999
 21
42.420353080799998
 31
0.0
 12
-29.127777777799999
 22
43.920353080799991
 32
0.0
 13
-28.377777777799999
 23
43.170353080799998
 33
0.0
  0
ENDBLK
  5
15F
  8
0
  0
BLOCK
  8
0
  2
*D7
 70
     1
 10
0.0
 20
0.0
 30
0.0
  3
*D7
  1

  0
TEXT
  5
163
  8
0
 62
     0
 10
-89.105092576700002
 20
74.978038193299994
 30
0.0
 40
2.9986110209999999
  1
15
 50
90.0
  0
LINE
  5
164
  8
0
 62
     0
 10
-79.2277777778
 20
84.241927029199999
 30
0.0
 11
-88.575925925899995
 21
84.241927029199999
 31
0.0
  0
LINE
  5
165
  8
0
 62
     0
 10
-82.729814814799994
 20
69.241927029199999
 30
0.0
 11
-88.575925925899995
 21
69.241927029199999
 31
0.0
  0
LINE
  5
166
  8
0
 62
     0
 10
-87.575925925899995
 20
84.241927029199999
 30
0.0
 11
-87.575925925899995
 21
80.269704701099997
 31
0.0
  0
LINE
  5
167
  8
0
 62
     0
 10
-87.575925925899995
 20
84.241927029199999
 30
0.0
 11
-87.575925925899995
 21
73.214149357400004
 31
0.0
  0
LINE
  5
168
  8
0
 62
     0
 10
-87.575925925899995
 20
69.241927029199999
 30
0.0
 11
-87.575925925899995
 21
80.269704701099997
 31
0.0
  0
LINE
  5
169
  8
0
 62
     0
 10
-87.575925925899995
 20
69.241927029199999
 30
0.0
 11
-87.575925925899995
 21
73.214149357400004
 31
0.0
  0
LINE
  5
16A
  8
0
 62
     0
 10
-87.575925925899995
 20
69.241927029199999
 30
0.0
 11
-87.575925925899995
 21
74.241927029199999
 31
0.0
  0
SOLID
  5
16B
  8
0
 62
     0
 10
-87.575925925899995
 20
69.241927029199999
 30
0.0
 11
-88.325925925899995
 21
72.241927029199985
 31
0.0
 12
-86.825925925899995
 22
72.241927029199985
 32
0.0
 13
-87.575925925899995
 23
71.491927029199999
 33
0.0
  0
LINE
  5
16C
  8
0
 62
     0
 10
-87.575925925899995
 20
84.241927029199999
 30
0.0
 11
-87.575925925899995
 21
79.241927029199999
 31
0.0
  0
SOLID
  5
16D
  8
0
 62
     0
 10
-87.575925925899995
 20
84.241927029199999
 30
0.0
 11
-86.825925925899995
 21
81.241927029199999
 31
0.0
 12
-88.325925925899995
 22
81.241927029199999
 32
0.0
 13
-87.575925925899995
 23
81.991927029199985
 33
0.0
  0
ENDBLK
  5
16E
  8
0
  0
BLOCK
  8
0
  2
*D8
 70
     1
 10
0.0
 20
0.0
 30
0.0
  3
*D8
  1

  0
TEXT
  5
172
  8
0
 62
     0
 10
-6.0847222063000004
 20
56.155972666300002
 30
0.0
 40
2.9986110209999999
  1
12
 50
90.0
  0
LINE
  5
173
  8
0
 62
     0
 10
-15.6277777778
 20
54.241927029199999
 30
0.0
 11
-3.5555555555999989
 21
54.241927029199999
 31
0.0
  0
LINE
  5
174
  8
0
 62
     0
 10
-27.127777777799999
 20
66.241927029199999
 30
0.0
 11
-3.5555555555999989
 21
66.241927029199999
 31
0.0
  0
LINE
  5
175
  8
0
 62
     0
 10
-4.5555555555999989
 20
54.241927029199999
 30
0.0
 11
-4.5555555555999989
 21
61.447639173999988
 31
0.0
  0
LINE
  5
176
  8
0
 62
     0
 10
-4.5555555555999989
 20
54.241927029199999
 30
0.0
 11
-4.5555555555999989
 21
54.392083830399997
 31
0.0
  0
LINE
  5
177
  8
0
 62
     0
 10
-4.5555555555999989
 20
66.241927029199999
 30
0.0
 11
-4.5555555555999989
 21
61.447639173999988
 31
0.0
  0
LINE
  5
178
  8
0
 62
     0
 10
-4.5555555555999989
 20
66.241927029199999
 30
0.0
 11
-4.5555555555999989
 21
54.392083830399997
 31
0.0
  0
LINE
  5
179
  8
0
 62
     0
 10
-4.5555555555999989
 20
66.241927029199999
 30
0.0
 11
-4.5555555555999989
 21
71.241927029199999
 31
0.0
  0
SOLID
  5
17A
  8
0
 62
     0
 10
-4.5555555555999989
 20
66.241927029199999
 30
0.0
 11
-5.3055555555999989
 21
69.241927029199999
 31
0.0
 12
-3.8055555555999989
 22
69.241927029199999
 32
0.0
 13
-4.5555555555999989
 23
68.491927029199985
 33
0.0
  0
LINE
  5
17B
  8
0
 62
     0
 10
-4.5555555555999989
 20
54.241927029199999
 30
0.0
 11
-4.5555555555999989
 21
49.241927029199999
 31
0.0
  0
SOLID
  5
17C
  8
0
 62
     0
 10
-4.5555555555999989
 20
54.241927029199999
 30
0.0
 11
-3.8055555555999989
 21
51.241927029199999
 31
0.0
 12
-5.3055555555999989
 22
51.241927029199999
 32
0.0
 13
-4.5555555555999989
 23
51.991927029199999
 33
0.0
  0
ENDBLK
  5
17D
  8
0
  0
BLOCK
  8
0
  2
*D9
 70
     1
 10
0.0
 20
0.0
 30
0.0
  3
*D9
  1

  0
TEXT
  5
181
  8
0
 62
     0
 10
-72.455555449599998
 20
95.771093680000007
 30
0.0
 40
2.9986110209999999
  1
16.6
  0
LINE
  5
182
  8
0
 62
     0
 10
-60.627777777799999
 20
85.241927029199999
 30
0.0
 11
-60.627777777799999
 21
95.241927029199999
 31
0.0
  0
LINE
  5
183
  8
0
 62
     0
 10
-77.2277777778
 20
86.241927029199999
 30
0.0
 11
-77.2277777778
 21
95.241927029199999
 31
0.0
  0
LINE
  5
184
  8
0
 62
     0
 10
-60.627777777799999
 20
94.241927029199999
 30
0.0
 11
-63.636111270100002
 21
94.241927029199999
 31
0.0
  0
LINE
  5
185
  8
0
 62
     0
 10
-60.627777777799999
 20
94.241927029199999
 30
0.0
 11
-74.219444285500003
 21
94.241927029199999
 31
0.0
  0
LINE
  5
186
  8
0
 62
     0
 10
-77.2277777778
 20
94.241927029199999
 30
0.0
 11
-63.636111270100002
 21
94.241927029199999
 31
0.0
  0
LINE
  5
187
  8
0
 62
     0
 10
-77.2277777778
 20
94.241927029199999
 30
0.0
 11
-74.219444285500003
 21
94.241927029199999
 31
0.0
  0
LINE
  5
188
  8
0
 62
     0
 10
-77.2277777778
 20
94.241927029199999
 30
0.0
 11
-72.2277777778
 21
94.241927029199999
 31
0.0
  0
SOLID
  5
189
  8
0
 62
     0
 10
-77.2277777778
 20
94.241927029199999
 30
0.0
 11
-74.2277777778
 21
94.991927029199999
 31
0.0
 12
-74.2277777778
 22
93.491927029199985
 32
0.0
 13
-74.9777777778
 23
94.241927029199999
 33
0.0
  0
LINE
  5
18A
  8
0
 62
     0
 10
-60.627777777799999
 20
94.241927029199999
 30
0.0
 11
-65.627777777799992
 21
94.241927029199999
 31
0.0
  0
SOLID
  5
18B
  8
0
 62
     0
 10
-60.627777777799999
 20
94.241927029199999
 30
0.0
 11
-63.627777777799992
 21
93.491927029199985
 31
0.0
 12
-63.627777777799992
 22
94.991927029199999
 32
0.0
 13
-62.877777777799999
 23
94.241927029199999
 33
0.0
  0
ENDBLK
  5
18C
  8
0
  0
BLOCK
  8
0
  2
*D10
 70
     1
 10
0.0
 20
0.0
 30
0.0
  3
*D10
  1

  0
TEXT
  5
190
  8
0
 62
     0
 10
-42.891666613699989
 20
95.771093680000007
 30
0.0
 40
2.9986110209999999
  1
39
  0
LINE
  5
191
  8
0
 62
     0
 10
-21.627777777799999
 20
69.241927029199999
 30
0.0
 11
-21.627777777799999
 21
95.241927029199999
 31
0.0
  0
LINE
  5
192
  8
0
 62
     0
 10
-60.627777777799999
 20
85.241927029199999
 30
0.0
 11
-60.627777777799999
 21
95.241927029199999
 31
0.0
  0
LINE
  5
193
  8
0
 62
     0
 10
-21.627777777799999
 20
94.241927029199999
 30
0.0
 11
-37.600000106000003
 21
94.241927029199999
 31
0.0
  0
LINE
  5
194
  8
0
 62
     0
 10
-21.627777777799999
 20
94.241927029199999
 30
0.0
 11
-44.655555449599987
 21
94.241927029199999
 31
0.0
  0
LINE
  5
195
  8
0
 62
     0
 10
-60.627777777799999
 20
94.241927029199999
 30
0.0
 11
-37.600000106000003
 21
94.241927029199999
 31
0.0
  0
LINE
  5
196
  8
0
 62
     0
 10
-60.627777777799999
 20
94.241927029199999
 30
0.0
 11
-44.655555449599987
 21
94.241927029199999
 31
0.0
  0
LINE
  5
197
  8
0
 62
     0
 10
-60.627777777799999
 20
94.241927029199999
 30
0.0
 11
-55.627777777799999
 21
94.241927029199999
 31
0.0
  0
SOLID
  5
198
  8
0
 62
     0
 10
-60.627777777799999
 20
94.241927029199999
 30
0.0
 11
-57.627777777799999
 21
94.991927029199999
 31
0.0
 12
-57.627777777799999
 22
93.491927029199985
 32
0.0
 13
-58.377777777799999
 23
94.241927029199999
 33
0.0
  0
LINE
  5
199
  8
0
 62
     0
 10
-21.627777777799999
 20
94.241927029199999
 30
0.0
 11
-26.627777777800009
 21
94.241927029199999
 31
0.0
  0
SOLID
  5
19A
  8
0
 62
     0
 10
-21.627777777799999
 20
94.241927029199999
 30
0.0
 11
-24.627777777799999
 21
93.491927029199985
 31
0.0
 12
-24.627777777799999
 22
94.991927029199999
 32
0.0
 13
-23.877777777799999
 23
94.241927029199999
 33
0.0
  0
ENDBLK
  5
19B
  8
0
  0
BLOCK
  8
0
  2
*D11
 70
     1
 10
0.0
 20
0.0
 30
0.0
  3
*D11
  1

  0
TEXT
  5
19F
  8
0
 62
     0
 10
-99.923611095200002
 20
67.478038193299994
 30
0.0
 40
2.9986110209999999
  1
30
 50
90.0
  0
LINE
  5
1A0
  8
0
 62
     0
 10
-79.2277777778
 20
84.241927029199999
 30
0.0
 11
-99.394444444400008
 21
84.241927029199999
 31
0.0
  0
LINE
  5
1A1
  8
0
 62
     0
 10
-79.2277777778
 20
54.241927029199999
 30
0.0
 11
-99.394444444400008
 21
54.241927029199999
 31
0.0
  0
LINE
  5
1A2
  8
0
 62
     0
 10
-98.394444444400008
 20
84.241927029199999
 30
0.0
 11
-98.394444444400008
 21
72.769704701099997
 31
0.0
  0
LINE
  5
1A3
  8
0
 62
     0
 10
-98.394444444400008
 20
84.241927029199999
 30
0.0
 11
-98.394444444400008
 21
65.714149357400004
 31
0.0
  0
LINE
  5
1A4
  8
0
 62
     0
 10
-98.394444444400008
 20
54.241927029199999
 30
0.0
 11
-98.394444444400008
 21
72.769704701099997
 31
0.0
  0
LINE
  5
1A5
  8
0
 62
     0
 10
-98.394444444400008
 20
54.241927029199999
 30
0.0
 11
-98.394444444400008
 21
65.714149357400004
 31
0.0
  0
LINE
  5
1A6
  8
0
 62
     0
 10
-98.394444444400008
 20
54.241927029199999
 30
0.0
 11
-98.394444444400008
 21
59.241927029199999
 31
0.0
  0
SOLID
  5
1A7
  8
0
 62
     0
 10
-98.394444444400008
 20
54.241927029199999
 30
0.0
 11
-99.144444444399994
 21
57.241927029199992
 31
0.0
 12
-97.644444444400023
 22
57.241927029199992
 32
0.0
 13
-98.394444444400008
 23
56.491927029199999
 33
0.0
  0
LINE
  5
1A8
  8
0
 62
     0
 10
-98.394444444400008
 20
84.241927029199999
 30
0.0
 11
-98.394444444400008
 21
79.241927029199999
 31
0.0
  0
SOLID
  5
1A9
  8
0
 62
     0
 10
-98.394444444400008
 20
84.241927029199999
 30
0.0
 11
-97.644444444400023
 21
81.241927029199999
 31
0.0
 12
-99.144444444399994
 22
81.241927029199999
 32
0.0
 13
-98.394444444400008
 23
81.991927029199985
 33
0.0
  0
ENDBLK
  5
1AA
  8
0
  0
BLOCK
  8
0
  2
*D12
 70
     1
 10
0.0
 20
0.0
 30
0.0
  3
*D12
  1

  0
TEXT
  5
1AE
  8
0
 62
     0
 10
-89.105092576700002
 20
59.978038193300002
 30
0.0
 40
2.9986110209999999
  1
15
 50
90.0
  0
LINE
  5
1AF
  8
0
 62
     0
 10
-82.729814814799994
 20
69.241927029199999
 30
0.0
 11
-88.575925925899995
 21
69.241927029199999
 31
0.0
  0
LINE
  5
1B0
  8
0
 62
     0
 10
-79.2277777778
 20
54.241927029199999
 30
0.0
 11
-88.575925925899995
 21
54.241927029199999
 31
0.0
  0
LINE
  5
1B1
  8
0
 62
     0
 10
-87.575925925899995
 20
69.241927029199999
 30
0.0
 11
-87.575925925899995
 21
65.269704701099997
 31
0.0
  0
LINE
  5
1B2
  8
0
 62
     0
 10
-87.575925925899995
 20
69.241927029199999
 30
0.0
 11
-87.575925925899995
 21
58.214149357399997
 31
0.0
  0
LINE
  5
1B3
  8
0
 62
     0
 10
-87.575925925899995
 20
54.241927029199999
 30
0.0
 11
-87.575925925899995
 21
65.269704701099997
 31
0.0
  0
LINE
  5
1B4
  8
0
 62
     0
 10
-87.575925925899995
 20
54.241927029199999
 30
0.0
 11
-87.575925925899995
 21
58.214149357399997
 31
0.0
  0
LINE
  5
1B5
  8
0
 62
     0
 10
-87.575925925899995
 20
54.241927029199999
 30
0.0
 11
-87.575925925899995
 21
59.241927029199999
 31
0.0
  0
SOLID
  5
1B6
  8
0
 62
     0
 10
-87.575925925899995
 20
54.241927029199999
 30
0.0
 11
-88.325925925899995
 21
57.241927029199992
 31
0.0
 12
-86.825925925899995
 22
57.241927029199992
 32
0.0
 13
-87.575925925899995
 23
56.491927029199999
 33
0.0
  0
LINE
  5
1B7
  8
0
 62
     0
 10
-87.575925925899995
 20
69.241927029199999
 30
0.0
 11
-87.575925925899995
 21
64.241927029199999
 31
0.0
  0
SOLID
  5
1B8
  8
0
 62
     0
 10
-87.575925925899995
 20
69.241927029199999
 30
0.0
 11
-86.825925925899995
 21
66.241927029199999
 31
0.0
 12
-88.325925925899995
 22
66.241927029199999
 32
0.0
 13
-87.575925925899995
 23
66.991927029199999
 33
0.0
  0
ENDBLK
  5
1B9
  8
0
  0
BLOCK
  8
0
  2
*D13
 70
     1
 10
0.0
 20
0.0
 30
0.0
  3
*D13
  1

  0
TEXT
  5
1BD
  8
0
 62
     0
 10
-19.0097221957
 20
95.771093680000007
 30
0.0
 40
2.9986110209999999
  1
7
  0
LINE
  5
1BE
  8
0
 62
     0
 10
-14.6277777778
 20
83.241927029199985
 30
0.0
 11
-14.6277777778
 21
95.241927029199999
 31
0.0
  0
LINE
  5
1BF
  8
0
 62
     0
 10
-21.627777777799999
 20
69.241927029199999
 30
0.0
 11
-21.627777777799999
 21
95.241927029199999
 31
0.0
  0
LINE
  5
1C0
  8
0
 62
     0
 10
-14.6277777778
 20
94.241927029199999
 30
0.0
 11
-15.481944523899999
 21
94.241927029199999
 31
0.0
  0
LINE
  5
1C1
  8
0
 62
     0
 10
-14.6277777778
 20
94.241927029199999
 30
0.0
 11
-20.773611031600002
 21
94.241927029199999
 31
0.0
  0
LINE
  5
1C2
  8
0
 62
     0
 10
-21.627777777799999
 20
94.241927029199999
 30
0.0
 11
-15.481944523899999
 21
94.241927029199999
 31
0.0
  0
LINE
  5
1C3
  8
0
 62
     0
 10
-21.627777777799999
 20
94.241927029199999
 30
0.0
 11
-20.773611031600002
 21
94.241927029199999
 31
0.0
  0
LINE
  5
1C4
  8
0
 62
     0
 10
-21.627777777799999
 20
94.241927029199999
 30
0.0
 11
-26.627777777800009
 21
94.241927029199999
 31
0.0
  0
SOLID
  5
1C5
  8
0
 62
     0
 10
-21.627777777799999
 20
94.241927029199999
 30
0.0
 11
-24.627777777799999
 21
93.491927029199985
 31
0.0
 12
-24.627777777799999
 22
94.991927029199999
 32
0.0
 13
-23.877777777799999
 23
94.241927029199999
 33
0.0
  0
LINE
  5
1C6
  8
0
 62
     0
 10
-14.6277777778
 20
94.241927029199999
 30
0.0
 11
-9.6277777778000004
 21
94.241927029199999
 31
0.0
  0
SOLID
  5
1C7
  8
0
 62
     0
 10
-14.6277777778
 20
94.241927029199999
 30
0.0
 11
-11.6277777778
 21
94.991927029199999
 31
0.0
 12
-11.6277777778
 22
93.491927029199985
 32
0.0
 13
-12.3777777778
 23
94.241927029199999
 33
0.0
  0
ENDBLK
  5
1C8
  8
0
  0
BLOCK
  8
0
  2
*D14
 70
     1
 10
0.0
 20
0.0
 30
0.0
  3
*D14
  1

  0
TEXT
  5
1CC
  8
0
 62
     0
 10
-6.0847222063000004
 20
68.359982611299998
 30
0.0
 40
2.9986110209999999
  1
6
 50
90.0
  0
LINE
  5
1CD
  8
0
 62
     0
 10
-27.127777777799999
 20
66.241927029199999
 30
0.0
 11
-3.5555555555999989
 21
66.241927029199999
 31
0.0
  0
LINE
  5
1CE
  8
0
 62
     0
 10
-27.127777777799999
 20
72.241927029199985
 30
0.0
 11
-3.5555555555999989
 21
72.241927029199985
 31
0.0
  0
LINE
  5
1CF
  8
0
 62
     0
 10
-4.5555555555999989
 20
66.241927029199999
 30
0.0
 11
-4.5555555555999989
 21
71.887760283100008
 31
0.0
  0
LINE
  5
1D0
  8
0
 62
     0
 10
-4.5555555555999989
 20
66.241927029199999
 30
0.0
 11
-4.5555555555999989
 21
66.596093775399993
 31
0.0
  0
LINE
  5
1D1
  8
0
 62
     0
 10
-4.5555555555999989
 20
72.241927029199985
 30
0.0
 11
-4.5555555555999989
 21
71.887760283100008
 31
0.0
  0
LINE
  5
1D2
  8
0
 62
     0
 10
-4.5555555555999989
 20
72.241927029199985
 30
0.0
 11
-4.5555555555999989
 21
66.596093775399993
 31
0.0
  0
LINE
  5
1D3
  8
0
 62
     0
 10
-4.5555555555999989
 20
72.241927029199985
 30
0.0
 11
-4.5555555555999989
 21
77.241927029199985
 31
0.0
  0
SOLID
  5
1D4
  8
0
 62
     0
 10
-4.5555555555999989
 20
72.241927029199985
 30
0.0
 11
-5.3055555555999989
 21
75.241927029199999
 31
0.0
 12
-3.8055555555999989
 22
75.241927029199999
 32
0.0
 13
-4.5555555555999989
 23
74.491927029199999
 33
0.0
  0
LINE
  5
1D5
  8
0
 62
     0
 10
-4.5555555555999989
 20
66.241927029199999
 30
0.0
 11
-4.5555555555999989
 21
61.241927029199999
 31
0.0
  0
SOLID
  5
1D6
  8
0
 62
     0
 10
-4.5555555555999989
 20
66.241927029199999
 30
0.0
 11
-3.8055555555999989
 21
63.241927029199999
 31
0.0
 12
-5.3055555555999989
 22
63.241927029199999
 32
0.0
 13
-4.5555555555999989
 23
63.991927029199999
 33
0.0
  0
ENDBLK
  5
1D7
  8
0
  0
BLOCK
  8
0
  2
*D15
 70
     1
 10
0.0
 20
0.0
 30
0.0
  3
*D15
  1

  0
TEXT
  5
1DB
  8
0
 62
     0
 10
-6.0847222063000004
 20
78.364690615000001
 30
0.0
 40
2.9986110209999999
  1
12
 50
90.0
  0
LINE
  5
1DC
  8
0
 62
     0
 10
-27.127777777799999
 20
72.241927029199985
 30
0.0
 11
-3.5555555555999989
 21
72.241927029199985
 31
0.0
  0
LINE
  5
1DD
  8
0
 62
     0
 10
-15.6277777778
 20
84.241927029199999
 30
0.0
 11
-3.5555555555999989
 21
84.241927029199999
 31
0.0
  0
LINE
  5
1DE
  8
0
 62
     0
 10
-4.5555555555999989
 20
72.241927029199985
 30
0.0
 11
-4.5555555555999989
 21
83.656357122700001
 31
0.0
  0
LINE
  5
1DF
  8
0
 62
     0
 10
-4.5555555555999989
 20
72.241927029199985
 30
0.0
 11
-4.5555555555999989
 21
76.600801779099996
 31
0.0
  0
LINE
  5
1E0
  8
0
 62
     0
 10
-4.5555555555999989
 20
84.241927029199999
 30
0.0
 11
-4.5555555555999989
 21
83.656357122700001
 31
0.0
  0
LINE
  5
1E1
  8
0
 62
     0
 10
-4.5555555555999989
 20
84.241927029199999
 30
0.0
 11
-4.5555555555999989
 21
76.600801779099996
 31
0.0
  0
LINE
  5
1E2
  8
0
 62
     0
 10
-4.5555555555999989
 20
84.241927029199999
 30
0.0
 11
-4.5555555555999989
 21
89.241927029199999
 31
0.0
  0
SOLID
  5
1E3
  8
0
 62
     0
 10
-4.5555555555999989
 20
84.241927029199999
 30
0.0
 11
-5.3055555555999989
 21
87.241927029199985
 31
0.0
 12
-3.8055555555999989
 22
87.241927029199985
 32
0.0
 13
-4.5555555555999989
 23
86.491927029199999
 33
0.0
  0
LINE
  5
1E4
  8
0
 62
     0
 10
-4.5555555555999989
 20
72.241927029199985
 30
0.0
 11
-4.5555555555999989
 21
67.241927029199985
 31
0.0
  0
SOLID
  5
1E5
  8
0
 62
     0
 10
-4.5555555555999989
 20
72.241927029199985
 30
0.0
 11
-3.8055555555999989
 21
69.241927029199999
 31
0.0
 12
-5.3055555555999989
 22
69.241927029199999
 32
0.0
 13
-4.5555555555999989
 23
69.991927029199999
 33
0.0
  0
ENDBLK
  5
1E6
  8
0
  0
BLOCK
  8
0
  2
*D16
 70
     1
 10
0.0
 20
0.0
 30
0.0
  3
*D16
  1

  0
TEXT
  5
1EA
  8
0
 62
     0
 10
-70.205555449599998
 20
44.699519731599992
 30
0.0
 40
2.9986110209999999
  1
21.1
  0
LINE
  5
1EB
  8
0
 62
     0
 10
-77.2277777778
 20
52.241927029199992
 30
0.0
 11
-77.2277777778
 21
42.170353080799991
 31
0.0
  0
LINE
  5
1EC
  8
0
 62
     0
 10
-56.127777777799992
 20
67.241927029199985
 30
0.0
 11
-56.127777777799992
 21
42.170353080799991
 31
0.0
  0
LINE
  5
1ED
  8
0
 62
     0
 10
-77.2277777778
 20
43.170353080799998
 30
0.0
 11
-61.386111270100002
 21
43.170353080799998
 31
0.0
  0
LINE
  5
1EE
  8
0
 62
     0
 10
-77.2277777778
 20
43.170353080799998
 30
0.0
 11
-71.969444285500003
 21
43.170353080799998
 31
0.0
  0
LINE
  5
1EF
  8
0
 62
     0
 10
-56.127777777799992
 20
43.170353080799998
 30
0.0
 11
-61.386111270100002
 21
43.170353080799998
 31
0.0
  0
LINE
  5
1F0
  8
0
 62
     0
 10
-56.127777777799992
 20
43.170353080799998
 30
0.0
 11
-71.969444285500003
 21
43.170353080799998
 31
0.0
  0
LINE
  5
1F1
  8
0
 62
     0
 10
-56.127777777799992
 20
43.170353080799998
 30
0.0
 11
-61.127777777799992
 21
43.170353080799998
 31
0.0
  0
SOLID
  5
1F2
  8
0
 62
     0
 10
-56.127777777799992
 20
43.170353080799998
 30
0.0
 11
-59.127777777799999
 21
42.420353080799998
 31
0.0
 12
-59.127777777799999
 22
43.920353080799991
 32
0.0
 13
-58.377777777799999
 23
43.170353080799998
 33
0.0
  0
LINE
  5
1F3
  8
0
 62
     0
 10
-77.2277777778
 20
43.170353080799998
 30
0.0
 11
-72.2277777778
 21
43.170353080799998
 31
0.0
  0
SOLID
  5
1F4
  8
0
 62
     0
 10
-77.2277777778
 20
43.170353080799998
 30
0.0
 11
-74.2277777778
 21
43.920353080799991
 31
0.0
 12
-74.2277777778
 22
42.420353080799998
 32
0.0
 13
-74.9777777778
 23
43.170353080799998
 33
0.0
  0
ENDBLK
  5
1F5
  8
0
  0
BLOCK
  8
0
  2
*D17
 70
     1
 10
0.0
 20
0.0
 30
0.0
  3
*D17
  1

  0
TEXT
  5
1F9
  8
0
 62
     0
 10
-42.891666613699989
 20
44.699519731599992
 30
0.0
 40
2.9986110209999999
  1
30
  0
LINE
  5
1FA
  8
0
 62
     0
 10
-56.127777777799992
 20
67.241927029199985
 30
0.0
 11
-56.127777777799992
 21
42.170353080799991
 31
0.0
  0
LINE
  5
1FB
  8
0
 62
     0
 10
-26.127777777799999
 20
67.241927029199985
 30
0.0
 11
-26.127777777799999
 21
42.170353080799991
 31
0.0
  0
LINE
  5
1FC
  8
0
 62
     0
 10
-56.127777777799992
 20
43.170353080799998
 30
0.0
 11
-37.600000106000003
 21
43.170353080799998
 31
0.0
  0
LINE
  5
1FD
  8
0
 62
     0
 10
-56.127777777799992
 20
43.170353080799998
 30
0.0
 11
-44.655555449599987
 21
43.170353080799998
 31
0.0
  0
LINE
  5
1FE
  8
0
 62
     0
 10
-26.127777777799999
 20
43.170353080799998
 30
0.0
 11
-37.600000106000003
 21
43.170353080799998
 31
0.0
  0
LINE
  5
1FF
  8
0
 62
     0
 10
-26.127777777799999
 20
43.170353080799998
 30
0.0
 11
-44.655555449599987
 21
43.170353080799998
 31
0.0
  0
LINE
  5
200
  8
0
 62
     0
 10
-26.127777777799999
 20
43.170353080799998
 30
0.0
 11
-31.127777777799999
 21
43.170353080799998
 31
0.0
  0
SOLID
  5
201
  8
0
 62
     0
 10
-26.127777777799999
 20
43.170353080799998
 30
0.0
 11
-29.127777777799999
 21
42.420353080799998
 31
0.0
 12
-29.127777777799999
 22
43.920353080799991
 32
0.0
 13
-28.377777777799999
 23
43.170353080799998
 33
0.0
  0
LINE
  5
202
  8
0
 62
     0
 10
-56.127777777799992
 20
43.170353080799998
 30
0.0
 11
-51.127777777799992
 21
43.170353080799998
 31
0.0
  0
SOLID
  5
203
  8
0
 62
     0
 10
-56.127777777799992
 20
43.170353080799998
 30
0.0
 11
-53.127777777799999
 21
43.920353080799991
 31
0.0
 12
-53.127777777799999
 22
42.420353080799998
 32
0.0
 13
-53.877777777799999
 23
43.170353080799998
 33
0.0
  0
ENDBLK
  5
204
  8
0
  0
BLOCK
  8
0
  2
*D18
 70
     1
 10
0.0
 20
0.0
 30
0.0
  3
*D18
  1

  0
TEXT
  5
20A
  8
0
 62
     0
 10
107.75376992069999
 20
-15.155668818000001
 30
0.0
 40
2.9986110209999999
  1
%%c5
  0
LINE
  5
20B
  8
0
 62
     0
 10
100.3996031746
 20
-2.0679885825999991
 30
0.0
 11
100.3996031746
 21
-17.684835468799999
 31
0.0
  0
LINE
  5
20C
  8
0
 62
     0
 10
120.3996031746
 20
-2.0679885825999991
 30
0.0
 11
120.3996031746
 21
-17.684835468799999
 31
0.0
  0
LINE
  5
20D
  8
0
 62
     0
 10
100.3996031746
 20
-16.684835468799999
 30
0.0
 11
114.8093252644
 21
-16.684835468799999
 31
0.0
  0
LINE
  5
20E
  8
0
 62
     0
 10
100.3996031746
 20
-16.684835468799999
 30
0.0
 11
105.9898810848
 21
-16.684835468799999
 31
0.0
  0
LINE
  5
20F
  8
0
 62
     0
 10
120.3996031746
 20
-16.684835468799999
 30
0.0
 11
114.8093252644
 21
-16.684835468799999
 31
0.0
  0
LINE
  5
210
  8
0
 62
     0
 10
120.3996031746
 20
-16.684835468799999
 30
0.0
 11
105.9898810848
 21
-16.684835468799999
 31
0.0
  0
LINE
  5
211
  8
0
 62
     0
 10
120.3996031746
 20
-16.684835468799999
 30
0.0
 11
115.3996031746
 21
-16.684835468799999
 31
0.0
  0
SOLID
  5
212
  8
0
 62
     0
 10
120.3996031746
 20
-16.684835468799999
 30
0.0
 11
117.3996031746
 21
-17.434835468799999
 31
0.0
 12
117.3996031746
 22
-15.934835468799999
 32
0.0
 13
118.1496031746
 23
-16.684835468799999
 33
0.0
  0
LINE
  5
213
  8
0
 62
     0
 10
100.3996031746
 20
-16.684835468799999
 30
0.0
 11
105.3996031746
 21
-16.684835468799999
 31
0.0
  0
SOLID
  5
214
  8
0
 62
     0
 10
100.3996031746
 20
-16.684835468799999
 30
0.0
 11
103.3996031746
 21
-15.934835468799999
 31
0.0
 12
103.3996031746
 22
-17.434835468799999
 32
0.0
 13
102.6496031746
 23
-16.684835468799999
 33
0.0
  0
ENDBLK
  5
215
  8
0
  0
BLOCK
  8
0
  2
*D19
 70
     1
 10
0.0
 20
0.0
 30
0.0
  3
*D19
  1

  0
TEXT
  5
219
  8
0
 62
     0
 10
41.090277910199987
 20
-15.155668818000001
 30
0.0
 40
2.9986110209999999
  1
%%c5.4
  0
LINE
  5
21A
  8
0
 62
     0
 10
34.70000000000001
 20
-2.0679885825999991
 30
0.0
 11
34.70000000000001
 21
-17.684835468799999
 31
0.0
  0
LINE
  5
21B
  8
0
 62
     0
 10
56.29999999999999
 20
-2.0679885825999991
 30
0.0
 11
56.29999999999999
 21
-17.684835468799999
 31
0.0
  0
LINE
  5
21C
  8
0
 62
     0
 10
34.70000000000001
 20
-16.684835468799999
 30
0.0
 11
51.673610925699997
 21
-16.684835468799999
 31
0.0
  0
LINE
  5
21D
  8
0
 62
     0
 10
34.70000000000001
 20
-16.684835468799999
 30
0.0
 11
39.326389074300003
 21
-16.684835468799999
 31
0.0
  0
LINE
  5
21E
  8
0
 62
     0
 10
56.29999999999999
 20
-16.684835468799999
 30
0.0
 11
51.673610925699997
 21
-16.684835468799999
 31
0.0
  0
LINE
  5
21F
  8
0
 62
     0
 10
56.29999999999999
 20
-16.684835468799999
 30
0.0
 11
39.326389074300003
 21
-16.684835468799999
 31
0.0
  0
LINE
  5
220
  8
0
 62
     0
 10
56.29999999999999
 20
-16.684835468799999
 30
0.0
 11
51.29999999999999
 21
-16.684835468799999
 31
0.0
  0
SOLID
  5
221
  8
0
 62
     0
 10
56.29999999999999
 20
-16.684835468799999
 30
0.0
 11
53.299999999999997
 21
-17.434835468799999
 31
0.0
 12
53.299999999999997
 22
-15.934835468799999
 32
0.0
 13
54.049999999999997
 23
-16.684835468799999
 33
0.0
  0
LINE
  5
222
  8
0
 62
     0
 10
34.70000000000001
 20
-16.684835468799999
 30
0.0
 11
39.700000000000003
 21
-16.684835468799999
 31
0.0
  0
SOLID
  5
223
  8
0
 62
     0
 10
34.70000000000001
 20
-16.684835468799999
 30
0.0
 11
37.700000000000003
 21
-15.934835468799999
 31
0.0
 12
37.700000000000003
 22
-17.434835468799999
 32
0.0
 13
36.950000000000003
 23
-16.684835468799999
 33
0.0
  0
ENDBLK
  5
224
  8
0
  0
BLOCK
  8
0
  2
*D20
 70
     1
 10
0.0
 20
0.0
 30
0.0
  3
*D20
  1

  0
TEXT
  5
248
  8
0
 62
     0
 10
42.854166746099999
 20
31.6345907348
 30
0.0
 40
2.9986110209999999
  1
90%%d
  0
ARC
  5
249
  8
0
 62
     0
 10
45.499999999999993
 20
-6.6679885825999987
 30
0.0
 40
36.715079365100003
 50
129.1969234586
 51
135.0
  0
ARC
  5
24A
  8
0
 62
     0
 10
45.499999999999993
 20
-6.6679885825999987
 30
0.0
 40
36.715079365100003
 50
45.0
 51
50.803076541400003
  0
SOLID
  5
24B
  8
0
 62
     0
 10
71.461481590800005
 20
19.2934930083
 30
0.0
 11
74.1131320203
 21
17.702502750600001
 31
0.0
 12
73.052471848500005
 22
16.641842578799999
 32
0.0
 13
73.052471848500005
 23
17.702502750600001
 33
0.0
  0
SOLID
  5
24C
  8
0
 62
     0
 10
19.538518409200002
 20
19.2934930083
 30
0.0
 11
17.947528151499998
 21
16.641842578799999
 31
0.0
 12
16.8868679797
 22
17.702502750600001
 32
0.0
 13
17.947528151499998
 23
17.702502750600001
 33
0.0
  0
ARC
  5
24D
  8
0
 62
     0
 10
45.499999999999993
 20
-6.6679885825999987
 30
0.0
 40
36.715079365100003
 50
45.0
 51
83.018327080399999
  0
ARC
  5
24E
  8
0
 62
     0
 10
45.499999999999993
 20
-6.6679885825999987
 30
0.0
 40
36.715079365100003
 50
96.981672919599987
 51
135.0
  0
LINE
  5
24F
  8
0
 62
     0
 10
63.914213562400001
 20
11.746224979799999
 30
0.0
 11
72.875695153199999
 21
20.707706570700001
 31
0.0
  0
LINE
  5
250
  8
0
 62
     0
 10
27.08578643760001
 20
11.746224979799999
 30
0.0
 11
18.124304846800001
 21
20.707706570700001
 31
0.0
  0
ENDBLK
  5
251
  8
0
  0
BLOCK
  8
0
  2
*D21
 70
     1
 10
0.0
 20
0.0
 30
0.0
  3
*D21
  1

  0
TEXT
  5
255
  8
0
 62
     0
 10
107.75376992069999
 20
31.6345907348
 30
0.0
 40
2.9986110209999999
  1
90%%d
  0
ARC
  5
256
  8
0
 62
     0
 10
110.3996031746
 20
-5.6679885825999987
 30
0.0
 40
35.71507936510001
 50
129.0162968583
 51
135.0
  0
ARC
  5
257
  8
0
 62
     0
 10
110.3996031746
 20
-5.6679885825999987
 30
0.0
 40
35.71507936510001
 50
45.0
 51
50.983703141699998
  0
SOLID
  5
258
  8
0
 62
     0
 10
135.65397798430001
 20
19.5863862271
 30
0.0
 11
138.30562841369999
 21
17.995395969400001
 31
0.0
 12
137.24496824190001
 22
16.934735797599998
 32
0.0
 13
137.24496824190001
 23
17.995395969400001
 33
0.0
  0
SOLID
  5
259
  8
0
 62
     0
 10
85.145228364900007
 20
19.5863862271
 30
0.0
 11
83.554238107299994
 21
16.934735797599998
 31
0.0
 12
82.493577935499999
 22
17.995395969400001
 32
0.0
 13
83.554238107299994
 23
17.995395969400001
 33
0.0
  0
ARC
  5
25A
  8
0
 62
     0
 10
110.3996031746
 20
-5.6679885825999987
 30
0.0
 40
35.71507936510001
 50
45.0
 51
82.820957237000016
  0
ARC
  5
25B
  8
0
 62
     0
 10
110.3996031746
 20
-5.6679885825999987
 30
0.0
 40
35.71507936510001
 50
97.179042762999998
 51
135.0
  0
LINE
  5
25C
  8
0
 62
     0
 10
127.813816737
 20
11.746224979799999
 30
0.0
 11
137.06819154659999
 21
21.000599789500001
 31
0.0
  0
LINE
  5
25D
  8
0
 62
     0
 10
92.985389612199995
 20
11.746224979799999
 30
0.0
 11
83.731014802600001
 21
21.000599789500001
 31
0.0
  0
ENDBLK
  5
25E
  8
0
  0
BLOCK
  8
0
  2
*D22
 70
     1
 10
0.0
 20
0.0
 30
0.0
  3
*D22
  1

  0
TEXT
  5
277
  8
0
 62
     0
 10
-49.455555449599998
 20
-23.483796312199999
 30
0.0
 40
2.9986110209999999
  1
62.6
  0
LINE
  5
278
  8
0
 62
     0
 10
-77.2277777778
 20
-13.412962963
 30
0.0
 11
-77.2277777778
 21
-26.01296296300001
 31
0.0
  0
LINE
  5
279
  8
0
 62
     0
 10
-14.6277777778
 20
-17.012962963
 30
0.0
 11
-14.6277777778
 21
-26.01296296300001
 31
0.0
  0
LINE
  5
27A
  8
0
 62
     0
 10
-77.2277777778
 20
-25.012962963
 30
0.0
 11
-40.636111270100002
 21
-25.012962963
 31
0.0
  0
LINE
  5
27B
  8
0
 62
     0
 10
-77.2277777778
 20
-25.012962963
 30
0.0
 11
-51.219444285500003
 21
-25.012962963
 31
0.0
  0
LINE
  5
27C
  8
0
 62
     0
 10
-14.6277777778
 20
-25.012962963
 30
0.0
 11
-40.636111270100002
 21
-25.012962963
 31
0.0
  0
LINE
  5
27D
  8
0
 62
     0
 10
-14.6277777778
 20
-25.012962963
 30
0.0
 11
-51.219444285500003
 21
-25.012962963
 31
0.0
  0
LINE
  5
27E
  8
0
 62
     0
 10
-14.6277777778
 20
-25.012962963
 30
0.0
 11
-19.627777777799999
 21
-25.012962963
 31
0.0
  0
SOLID
  5
27F
  8
0
 62
     0
 10
-14.6277777778
 20
-25.012962963
 30
0.0
 11
-17.627777777799999
 21
-25.76296296300001
 31
0.0
 12
-17.627777777799999
 22
-24.262962963
 32
0.0
 13
-16.877777777799999
 23
-25.012962963
 33
0.0
  0
LINE
  5
280
  8
0
 62
     0
 10
-77.2277777778
 20
-25.012962963
 30
0.0
 11
-72.2277777778
 21
-25.012962963
 31
0.0
  0
SOLID
  5
281
  8
0
 62
     0
 10
-77.2277777778
 20
-25.012962963
 30
0.0
 11
-74.2277777778
 21
-24.262962963
 31
0.0
 12
-74.2277777778
 22
-25.76296296300001
 32
0.0
 13
-74.9777777778
 23
-25.012962963
 33
0.0
  0
ENDBLK
  5
282
  8
0
  0
BLOCK
  8
0
  2
*D23
 70
     1
 10
0.0
 20
0.0
 30
0.0
  3
*D23
  1

  0
TEXT
  5
288
  8
0
 62
     0
 10
6.1449074233000003
 20
56.859982611299991
 30
0.0
 40
2.9986110209999999
  1
7
 50
90.0
  0
LINE
  5
289
  8
0
 62
     0
 10
-15.6277777778
 20
54.241927029199999
 30
0.0
 11
8.6740740740999982
 21
54.241927029199999
 31
0.0
  0
LINE
  5
28A
  8
0
 62
     0
 10
-13.6277777778
 20
61.241927029199999
 30
0.0
 11
8.6740740740999982
 21
61.241927029199999
 31
0.0
  0
LINE
  5
28B
  8
0
 62
     0
 10
7.6740740740999991
 20
54.241927029199999
 30
0.0
 11
7.6740740740999991
 21
60.3877602831
 31
0.0
  0
LINE
  5
28C
  8
0
 62
     0
 10
7.6740740740999991
 20
54.241927029199999
 30
0.0
 11
7.6740740740999991
 21
55.0960937754
 31
0.0
  0
LINE
  5
28D
  8
0
 62
     0
 10
7.6740740740999991
 20
61.241927029199999
 30
0.0
 11
7.6740740740999991
 21
60.3877602831
 31
0.0
  0
LINE
  5
28E
  8
0
 62
     0
 10
7.6740740740999991
 20
61.241927029199999
 30
0.0
 11
7.6740740740999991
 21
55.0960937754
 31
0.0
  0
LINE
  5
28F
  8
0
 62
     0
 10
7.6740740740999991
 20
61.241927029199999
 30
0.0
 11
7.6740740740999991
 21
66.241927029199999
 31
0.0
  0
SOLID
  5
290
  8
0
 62
     0
 10
7.6740740740999991
 20
61.241927029199999
 30
0.0
 11
6.9240740740999991
 21
64.241927029199999
 31
0.0
 12
8.4240740740999982
 22
64.241927029199999
 32
0.0
 13
7.6740740740999991
 23
63.491927029199992
 33
0.0
  0
LINE
  5
291
  8
0
 62
     0
 10
7.6740740740999991
 20
54.241927029199999
 30
0.0
 11
7.6740740740999991
 21
49.241927029199999
 31
0.0
  0
SOLID
  5
292
  8
0
 62
     0
 10
7.6740740740999991
 20
54.241927029199999
 30
0.0
 11
8.4240740740999982
 21
51.241927029199999
 31
0.0
 12
6.9240740740999991
 22
51.241927029199999
 32
0.0
 13
7.6740740740999991
 23
51.991927029199999
 33
0.0
  0
ENDBLK
  5
293
  8
0
  0
BLOCK
  8
0
  2
*D24
 70
     1
 10
0.0
 20
0.0
 30
0.0
  3
*D24
  1

  0
TEXT
  5
297
  8
0
 62
     0
 10
6.1449074233000003
 20
67.478038193299994
 30
0.0
 40
2.9986110209999999
  1
16
 50
90.0
  0
LINE
  5
298
  8
0
 62
     0
 10
-13.6277777778
 20
61.241927029199999
 30
0.0
 11
8.6740740740999982
 21
61.241927029199999
 31
0.0
  0
LINE
  5
299
  8
0
 62
     0
 10
-52.627777777799999
 20
77.241927029199985
 30
0.0
 11
8.6740740740999982
 21
77.241927029199985
 31
0.0
  0
LINE
  5
29A
  8
0
 62
     0
 10
7.6740740740999991
 20
61.241927029199999
 30
0.0
 11
7.6740740740999991
 21
72.769704701099997
 31
0.0
  0
LINE
  5
29B
  8
0
 62
     0
 10
7.6740740740999991
 20
61.241927029199999
 30
0.0
 11
7.6740740740999991
 21
65.714149357400004
 31
0.0
  0
LINE
  5
29C
  8
0
 62
     0
 10
7.6740740740999991
 20
77.241927029199985
 30
0.0
 11
7.6740740740999991
 21
72.769704701099997
 31
0.0
  0
LINE
  5
29D
  8
0
 62
     0
 10
7.6740740740999991
 20
77.241927029199985
 30
0.0
 11
7.6740740740999991
 21
65.714149357400004
 31
0.0
  0
LINE
  5
29E
  8
0
 62
     0
 10
7.6740740740999991
 20
77.241927029199985
 30
0.0
 11
7.6740740740999991
 21
72.241927029199985
 31
0.0
  0
SOLID
  5
29F
  8
0
 62
     0
 10
7.6740740740999991
 20
77.241927029199985
 30
0.0
 11
8.4240740740999982
 21
74.241927029199999
 31
0.0
 12
6.9240740740999991
 22
74.241927029199999
 32
0.0
 13
7.6740740740999991
 23
74.991927029199999
 33
0.0
  0
LINE
  5
2A0
  8
0
 62
     0
 10
7.6740740740999991
 20
61.241927029199999
 30
0.0
 11
7.6740740740999991
 21
66.241927029199999
 31
0.0
  0
SOLID
  5
2A1
  8
0
 62
     0
 10
7.6740740740999991
 20
61.241927029199999
 30
0.0
 11
6.9240740740999991
 21
64.241927029199999
 31
0.0
 12
8.4240740740999982
 22
64.241927029199999
 32
0.0
 13
7.6740740740999991
 23
63.491927029199992
 33
0.0
  0
ENDBLK
  5
2A2
  8
0
  0
BLOCK
  8
0
  2
*D25
 70
     1
 10
0.0
 20
0.0
 30
0.0
  3
*D25
  1

  0
TEXT
  5
2A6
  8
0
 62
     0
 10
6.1449074233000003
 20
79.859982611299984
 30
0.0
 40
2.9986110209999999
  1
7
 50
90.0
  0
LINE
  5
2A7
  8
0
 62
     0
 10
-52.627777777799999
 20
77.241927029199985
 30
0.0
 11
8.6740740740999982
 21
77.241927029199985
 31
0.0
  0
LINE
  5
2A8
  8
0
 62
     0
 10
-15.6277777778
 20
84.241927029199999
 30
0.0
 11
8.6740740740999982
 21
84.241927029199999
 31
0.0
  0
LINE
  5
2A9
  8
0
 62
     0
 10
7.6740740740999991
 20
77.241927029199985
 30
0.0
 11
7.6740740740999991
 21
83.387760283099993
 31
0.0
  0
LINE
  5
2AA
  8
0
 62
     0
 10
7.6740740740999991
 20
77.241927029199985
 30
0.0
 11
7.6740740740999991
 21
78.096093775399993
 31
0.0
  0
LINE
  5
2AB
  8
0
 62
     0
 10
7.6740740740999991
 20
84.241927029199999
 30
0.0
 11
7.6740740740999991
 21
83.387760283099993
 31
0.0
  0
LINE
  5
2AC
  8
0
 62
     0
 10
7.6740740740999991
 20
84.241927029199999
 30
0.0
 11
7.6740740740999991
 21
78.096093775399993
 31
0.0
  0
LINE
  5
2AD
  8
0
 62
     0
 10
7.6740740740999991
 20
84.241927029199999
 30
0.0
 11
7.6740740740999991
 21
89.241927029199999
 31
0.0
  0
SOLID
  5
2AE
  8
0
 62
     0
 10
7.6740740740999991
 20
84.241927029199999
 30
0.0
 11
6.9240740740999991
 21
87.241927029199985
 31
0.0
 12
8.4240740740999982
 22
87.241927029199985
 32
0.0
 13
7.6740740740999991
 23
86.491927029199999
 33
0.0
  0
LINE
  5
2AF
  8
0
 62
     0
 10
7.6740740740999991
 20
77.241927029199985
 30
0.0
 11
7.6740740740999991
 21
72.241927029199985
 31
0.0
  0
SOLID
  5
2B0
  8
0
 62
     0
 10
7.6740740740999991
 20
77.241927029199985
 30
0.0
 11
8.4240740740999982
 21
74.241927029199999
 31
0.0
 12
6.9240740740999991
 22
74.241927029199999
 32
0.0
 13
7.6740740740999991
 23
74.991927029199999
 33
0.0
  0
ENDBLK
  5
2B1
  8
0
  0
BLOCK
  8
0
  2
*D26
 70
     1
 10
0.0
 20
0.0
 30
0.0
  3
*D26
  1

  0
TEXT
  5
2B9
  8
0
 62
     0
 10
-0.4449273210000001
 20
42.179389692400001
 30
0.0
 40
2.9986110209999999
  1
4-R 3
  0
LINE
  5
2BA
  8
0
 62
     0
 10
-2.0360737901000001
 20
41.650223041599993
 30
0.0
 11
13.6661833663
 21
41.650223041599993
 31
0.0
  0
LINE
  5
2BB
  8
0
 62
     0
 10
-15.5064574342
 20
55.120606685699997
 30
0.0
 11
-2.0360737901000001
 21
41.650223041599993
 31
0.0
  0
SOLID
  5
2BC
  8
0
 62
     0
 10
-15.5064574342
 20
55.120606685699997
 30
0.0
 11
-12.8548070048
 21
53.529616427999997
 31
0.0
 12
-13.9154671765
 22
52.468956256200002
 32
0.0
 13
-13.9154671765
 23
53.529616427999997
 33
0.0
  0
ENDBLK
  5
2BD
  8
0
  0
BLOCK
  8
0
  2
*D27
 70
     1
 10
0.0
 20
0.0
 30
0.0
  3
*D27
  1

  0
TEXT
  5
2C4
  8
0
 62
     0
 10
-66.869979485900004
 20
0.0332337474
 30
0.0
 40
2.9986110209999999
  1
90%%d
 50
317.67102263160001
  0
ARC
  5
2C5
  8
0
 62
     0
 10
-74.627777777799992
 20
-12.412962963
 30
0.0
 40
12.837853190100001
 50
64.623209353199996
 51
90.0
  0
ARC
  5
2C6
  8
0
 62
     0
 10
-74.627777777799992
 20
-12.412962963
 30
0.0
 40
12.837853190100001
 50
0.0
 51
25.3767906468
  0
SOLID
  5
2C7
  8
0
 62
     0
 10
-61.7899245877
 20
-12.412962963
 30
0.0
 11
-61.039924587700007
 21
-15.412962963
 31
0.0
 12
-62.5399245877
 22
-15.412962963
 32
0.0
 13
-61.7899245877
 23
-14.662962963
 33
0.0
  0
SOLID
  5
2C8
  8
0
 62
     0
 10
-74.627777777799992
 20
0.4248902271000001
 30
0.0
 11
-77.627777777799992
 21
-0.3251097729
 31
0.0
 12
-77.627777777799992
 22
1.174890227099999
 32
0.0
 13
-76.877777777799992
 23
0.4248902271000001
 33
0.0
  0
ARC
  5
2C9
  8
0
 62
     0
 10
-74.627777777799992
 20
-12.412962963
 30
0.0
 40
12.837853190100001
 50
0.0
 51
27.696352541500001
  0
ARC
  5
2CA
  8
0
 62
     0
 10
-74.627777777799992
 20
-12.412962963
 30
0.0
 40
12.837853190100001
 50
67.6456927216
 51
90.0
  0
LINE
  5
2CB
  8
0
 62
     0
 10
-16.627777777799999
 20
-12.412962963
 30
0.0
 11
-63.7899245877
 21
-12.412962963
 31
0.0
  0
LINE
  5
2CC
  8
0
 62
     0
 10
-74.627777777799992
 20
9.5870370369999982
 30
0.0
 11
-74.627777777799992
 21
-1.575109772899999
 31
0.0
  0
ENDBLK
  5
2CD
  8
0
  0
BLOCK
  8
0
  2
*D28
 70
     1
 10
0.0
 20
0.0
 30
0.0
  3
*D28
  1

  0
TEXT
  5
2D1
  8
0
 62
     0
 10
-88.756944428500006
 20
-5.240740634799999
 30
0.0
 40
2.9986110209999999
  1
26.6
 50
90.0
  0
LINE
  5
2D2
  8
0
 62
     0
 10
-79.2277777778
 20
11.587037037
 30
0.0
 11
-88.2277777778
 21
11.587037037
 31
0.0
  0
LINE
  5
2D3
  8
0
 62
     0
 10
-75.627777777799992
 20
-15.012962963
 30
0.0
 11
-88.2277777778
 21
-15.012962963
 31
0.0
  0
LINE
  5
2D4
  8
0
 62
     0
 10
-87.227777777800014
 20
11.587037037
 30
0.0
 11
-87.227777777800014
 21
3.5787035448000002
 31
0.0
  0
LINE
  5
2D5
  8
0
 62
     0
 10
-87.227777777800014
 20
11.587037037
 30
0.0
 11
-87.227777777800014
 21
-7.0046294707000003
 31
0.0
  0
LINE
  5
2D6
  8
0
 62
     0
 10
-87.227777777800014
 20
-15.012962963
 30
0.0
 11
-87.227777777800014
 21
3.5787035448000002
 31
0.0
  0
LINE
  5
2D7
  8
0
 62
     0
 10
-87.227777777800014
 20
-15.012962963
 30
0.0
 11
-87.227777777800014
 21
-7.0046294707000003
 31
0.0
  0
LINE
  5
2D8
  8
0
 62
     0
 10
-87.227777777800014
 20
-15.012962963
 30
0.0
 11
-87.227777777800014
 21
-10.012962963
 31
0.0
  0
SOLID
  5
2D9
  8
0
 62
     0
 10
-87.227777777800014
 20
-15.012962963
 30
0.0
 11
-87.9777777778
 21
-12.012962963
 31
0.0
 12
-86.4777777778
 22
-12.012962963
 32
0.0
 13
-87.227777777800014
 23
-12.762962963
 33
0.0
  0
LINE
  5
2DA
  8
0
 62
     0
 10
-87.227777777800014
 20
11.587037037
 30
0.0
 11
-87.227777777800014
 21
6.587037037
 31
0.0
  0
SOLID
  5
2DB
  8
0
 62
     0
 10
-87.227777777800014
 20
11.587037037
 30
0.0
 11
-86.4777777778
 21
8.5870370369999982
 31
0.0
 12
-87.9777777778
 22
8.5870370369999982
 32
0.0
 13
-87.227777777800014
 23
9.3370370369999982
 33
0.0
  0
ENDBLK
  5
2DC
  8
0
  0
BLOCK
  8
0
  2
*D29
 70
     1
 10
0.0
 20
0.0
 30
0.0
  3
*D29
  1

  0
TEXT
  5
2E0
  8
0
 62
     0
 10
-6.1569444285000001
 20
-7.9180609301000002
 30
0.0
 40
2.9986110209999999
  1
2.6t
 50
90.0
  0
LINE
  5
2E1
  8
0
 62
     0
 10
-12.6277777778
 20
-15.012962963
 30
0.0
 11
-3.6277777777999991
 21
-15.012962963
 31
0.0
  0
LINE
  5
2E2
  8
0
 62
     0
 10
-12.6277777778
 20
-12.412962963
 30
0.0
 11
-3.6277777777999991
 21
-12.412962963
 31
0.0
  0
LINE
  5
2E3
  8
0
 62
     0
 10
-4.6277777777999987
 20
-15.012962963
 30
0.0
 11
-4.6277777777999987
 21
0.9013832495
 31
0.0
  0
LINE
  5
2E4
  8
0
 62
     0
 10
-4.6277777777999987
 20
-15.012962963
 30
0.0
 11
-4.6277777777999987
 21
-9.6819497660000007
 31
0.0
  0
LINE
  5
2E5
  8
0
 62
     0
 10
-4.6277777777999987
 20
-12.412962963
 30
0.0
 11
-4.6277777777999987
 21
0.9013832495
 31
0.0
  0
LINE
  5
2E6
  8
0
 62
     0
 10
-4.6277777777999987
 20
-12.412962963
 30
0.0
 11
-4.6277777777999987
 21
-9.6819497660000007
 31
0.0
  0
LINE
  5
2E7
  8
0
 62
     0
 10
-4.6277777777999987
 20
-12.412962963
 30
0.0
 11
-4.6277777777999987
 21
-7.4129629629999991
 31
0.0
  0
SOLID
  5
2E8
  8
0
 62
     0
 10
-4.6277777777999987
 20
-12.412962963
 30
0.0
 11
-5.3777777777999987
 21
-9.412962963
 31
0.0
 12
-3.8777777777999991
 22
-9.412962963
 32
0.0
 13
-4.6277777777999987
 23
-10.162962963
 33
0.0
  0
LINE
  5
2E9
  8
0
 62
     0
 10
-4.6277777777999987
 20
-15.012962963
 30
0.0
 11
-4.6277777777999987
 21
-20.012962963
 31
0.0
  0
SOLID
  5
2EA
  8
0
 62
     0
 10
-4.6277777777999987
 20
-15.012962963
 30
0.0
 11
-3.8777777777999991
 21
-18.012962963
 31
0.0
 12
-5.3777777777999987
 22
-18.012962963
 32
0.0
 13
-4.6277777777999987
 23
-17.262962963
 33
0.0
  0
ENDBLK
  5
2EB
  8
0
  0
BLOCK
  8
0
  2
*U30
 70
     1
 10
0.0
 20
0.0
 30
0.0
  3
*U30
  1

  0
TEXT
  5
30F
  8
図枠
  6
CONTINUOUS
 10
129.96091804208021
 20
116.4893712228584
 30
0.0
 40
2.698480084499999
  1
検認者
  0
ENDBLK
  5
311
  8
0
  0
BLOCK
  8
0
  2
*U31
 70
     1
 10
0.0
 20
0.0
 30
0.0
  3
*U31
  1

  0
TEXT
  5
313
  8
図枠
  6
CONTINUOUS
 10
120.0030116474279
 20
116.50306909130759
 30
0.0
 40
2.698480084499999
  1
改訂者
  0
ENDBLK
  5
315
  8
0
  0
BLOCK
  8
0
  2
*U32
 70
     1
 10
0.0
 20
0.0
 30
0.0
  3
*U32
  1

  0
TEXT
  5
317
  8
図枠
  6
CONTINUOUS
 10
46.633709058662689
 20
116.55786056510451
 30
0.0
 40
2.698480084499999
  1
副番
  0
ENDBLK
  5
319
  8
0
  0
BLOCK
  8
0
  2
*U33
 70
     1
 10
0.0
 20
0.0
 30
0.0
  3
*U33
  1

  0
TEXT
  5
31B
  8
図枠
  6
CONTINUOUS
 10
56.865484028710917
 20
116.53046482820611
 30
0.0
 40
2.698480084499999
  1
改訂日
  0
ENDBLK
  5
31D
  8
0
  0
BLOCK
  8
0
  2
*U34
 70
     1
 10
0.0
 20
0.0
 30
0.0
  3
*U34
  1

  0
TEXT
  5
31F
  8
図枠
  6
CONTINUOUS
 10
82.937911527620798
 20
116.50306909130759
 30
0.0
 40
2.698480084499999
  1
改　訂　内　容
  0
ENDBLK
  5
321
  8
0
  0
BLOCK
  8
0
  2
*U35
 70
     1
 10
0.0
 20
0.0
 30
0.0
  3
*U35
  1

  0
TEXT
  5
323
  8
ﾚｲﾔ_1
  6
CONTINUOUS
 10
29.540416666700001
 20
95.550297418
 30
0.0
 40
2.9986110209999999
  1
Ｂ
  0
ENDBLK
  5
325
  8
0
  0
BLOCK
  8
0
  2
*U36
 70
     1
 10
0.0
 20
0.0
 30
0.0
  3
*U36
  1

  0
TEXT
  5
327
  8
図枠
  6
CONTINUOUS
 10
29.082218774166499
 20
-47.320299926441109
 30
0.0
 40
2.337266249999999
  1
日 　付
  0
ENDBLK
  5
329
  8
0
  0
BLOCK
  8
0
  2
*U37
 70
     1
 10
0.0
 20
0.0
 30
0.0
  3
*U37
  1

  0
TEXT
  5
32B
  8
図枠
  6
CONTINUOUS
 10
84.296239967059904
 20
-55.66139425518223
 30
0.0
 40
2.337266249999999
  1
図面名
  0
ENDBLK
  5
32D
  8
0
  0
BLOCK
  8
0
  2
*U38
 70
     1
 10
0.0
 20
0.0
 30
0.0
  3
*U38
  1

  0
TEXT
  5
32F
  8
図枠
  6
CONTINUOUS
 10
101.28225471735909
 20
-66.711476299599994
 30
0.0
 40
2.9983111599000001
  1
ＳＲＫ００１１７
  0
ENDBLK
  5
331
  8
0
  0
BLOCK
  8
0
  2
*U39
 70
     1
 10
0.0
 20
0.0
 30
0.0
  3
*U39
  1

  0
TEXT
  5
333
  8
図枠
  6
CONTINUOUS
 10
84.230986340790864
 20
-47.185972846552801
 30
0.0
 40
2.337266249999999
  1
製品名
  0
ENDBLK
  5
335
  8
0
  0
BLOCK
  8
0
  2
*U40
 70
     1
 10
0.0
 20
0.0
 30
0.0
  3
*U40
  1

  0
TEXT
  5
337
  8
図枠
  6
CONTINUOUS
 10
54.009833631399999
 20
-55.8787714048675
 30
0.0
 40
2.337266249999999
  1
 照査
  0
ENDBLK
  5
339
  8
0
  0
BLOCK
  8
0
  2
*U41
 70
     1
 10
0.0
 20
0.0
 30
0.0
  3
*U41
  1

  0
TEXT
  5
33B
  8
図枠
  6
CONTINUOUS
 10
84.284375671374619
 20
-64.136815663811674
 30
0.0
 40
2.337266249999999
  1
図　番
  0
ENDBLK
  5
33D
  8
0
  0
BLOCK
  8
0
  2
*U42
 70
     1
 10
0.0
 20
0.0
 30
0.0
  3
*U42
  1

  0
TEXT
  5
33F
  8
図枠
  6
CONTINUOUS
 10
103.41303422185661
 20
-50.01757337167107
 30
0.0
 40
2.9983111599000001
  1
Ｌ型ブラケット
  0
ENDBLK
  5
341
  8
0
  0
BLOCK
  8
0
  2
*U43
 70
     1
 10
0.0
 20
0.0
 30
0.0
  3
*U43
  1

  0
TEXT
  5
343
  8
図枠
  6
CONTINUOUS
 10
61.211068195366991
 20
-42.79188179998426
 30
0.0
 40
2.8047194594999989
  1
指定無き公差はJIS 0408-Bによること
  0
ENDBLK
  5
345
  8
0
  0
BLOCK
  8
0
  2
*U44
 70
     1
 10
0.0
 20
0.0
 30
0.0
  3
*U44
  1

  0
TEXT
  5
347
  8
図枠
  6
CONTINUOUS
 10
79.463100414042117
 20
-37.221246026900502
 30
0.0
 40
2.8047194594999989
  1
ユニクロメッキ
  0
ENDBLK
  5
349
  8
0
  0
BLOCK
  8
0
  2
*U45
 70
     1
 10
0.0
 20
0.0
 30
0.0
  3
*U45
  1

  0
TEXT
  5
34B
  8
図枠
  6
CONTINUOUS
 10
115.3309344629089
 20
-31.811355599199999
 30
0.0
 40
3.229676959499999
  1
2.6t
  0
ENDBLK
  5
34D
  8
0
  0
BLOCK
  8
0
  2
*U46
 70
     1
 10
0.0
 20
0.0
 30
0.0
  3
*U46
  1

  0
TEXT
  5
34F
  8
図枠
  6
CONTINUOUS
 10
82.816470549940604
 20
-31.792981799984261
 30
0.0
 40
2.8047194594999989
  1
板　　厚
  0
ENDBLK
  5
351
  8
0
  0
BLOCK
  8
0
  2
*U47
 70
     1
 10
0.0
 20
0.0
 30
0.0
  3
*U47
  1

  0
TEXT
  5
353
  8
図枠
  6
CONTINUOUS
 10
104.1359772680254
 20
-58.273205714014217
 30
0.0
 40
2.9983111599000001
  1
LY-607 承認図
  0
ENDBLK
  5
355
  8
0
  0
BLOCK
  8
0
  2
*U48
 70
     1
 10
0.0
 20
0.0
 30
0.0
  3
*U48
  1

  0
TEXT
  5
357
  8
図枠
  6
CONTINUOUS
 10
39.404187743075127
 20
-60.080889222126387
 30
0.0
 40
2.337266249999999
  1
園 原
  0
ENDBLK
  5
359
  8
0
  0
BLOCK
  8
0
  2
*U49
 70
     1
 10
0.0
 20
0.0
 30
0.0
  3
*U49
  1

  0
TEXT
  5
35B
  8
図枠
  6
CONTINUOUS
 10
39.404187743075127
 20
-55.831314222126387
 30
0.0
 40
2.337266249999999
  1
園 原
  0
ENDBLK
  5
35D
  8
0
  0
BLOCK
  8
0
  2
*U50
 70
     1
 10
0.0
 20
0.0
 30
0.0
  3
*U50
  1

  0
TEXT
  5
35F
  8
図枠
  6
CONTINUOUS
 10
24.012833631399999
 20
-55.866907109182222
 30
0.0
 40
2.337266249999999
  1
 設計
  0
ENDBLK
  5
361
  8
0
  0
BLOCK
  8
0
  2
*U51
 70
     1
 10
0.0
 20
0.0
 30
0.0
  3
*U51
  1

  0
TEXT
  5
363
  8
図枠
  6
CONTINUOUS
 10
48.831068564775642
 20
-47.391485700552792
 30
0.0
 40
2.337266249999999
  1
尺 　度
  0
ENDBLK
  5
365
  8
0
  0
BLOCK
  8
0
  2
*U52
 70
     1
 10
0.0
 20
0.0
 30
0.0
  3
*U52
  1

  0
TEXT
  5
367
  8
図枠
  6
CONTINUOUS
 10
30.227123307795939
 20
-51.522417743699997
 30
0.0
 40
2.337266249999999
  1
H12.6
  0
ENDBLK
  5
369
  8
0
  0
BLOCK
  8
0
  2
*U53
 70
     1
 10
0.0
 20
0.0
 30
0.0
  3
*U53
  1

  0
TEXT
  5
36B
  8
図枠
  6
CONTINUOUS
 10
69.330001968963458
 20
-60.140210700552792
 30
0.0
 40
2.337266249999999
  1
柳 原
  0
ENDBLK
  5
36D
  8
0
  0
BLOCK
  8
0
  2
*U54
 70
     1
 10
0.0
 20
0.0
 30
0.0
  3
*U54
  1

  0
TEXT
  5
36F
  8
図枠
  6
CONTINUOUS
 10
58.597481255286809
 20
-31.5799897996
 30
0.0
 40
2.9983111599000001
  1
SPCC
  0
ENDBLK
  5
371
  8
0
  0
BLOCK
  8
0
  2
*U55
 70
     1
 10
0.0
 20
0.0
 30
0.0
  3
*U55
  1

  0
TEXT
  5
373
  8
図枠
  6
CONTINUOUS
 10
26.829189127248991
 20
-37.263957490750762
 30
0.0
 40
2.8047194594999989
  1
表面処理
  0
ENDBLK
  5
375
  8
0
  0
BLOCK
  8
0
  2
*U56
 70
     1
 10
0.0
 20
0.0
 30
0.0
  3
*U56
  1

  0
TEXT
  5
377
  8
図枠
  6
CONTINUOUS
 10
26.85766343648249
 20
-31.736033181517261
 30
0.0
 40
2.8047194594999989
  1
材　　質
  0
ENDBLK
  5
379
  8
0
  0
BLOCK
  8
0
  2
*U57
 70
     1
 10
0.0
 20
0.0
 30
0.0
  3
*U57
  1

  0
TEXT
  5
37B
  8
図枠
  6
CONTINUOUS
 10
54.009833631399999
 20
-60.152074996238071
 30
0.0
 40
2.337266249999999
  1
 検図
  0
ENDBLK
  5
37D
  8
0
  0
BLOCK
  8
0
  2
*U58
 70
     1
 10
0.0
 20
0.0
 30
0.0
  3
*U58
  1

  0
TEXT
  5
37F
  8
図枠
  6
CONTINUOUS
 10
69.330001968963458
 20
-55.890635700552792
 30
0.0
 40
2.337266249999999
  1
柳 原
  0
ENDBLK
  5
381
  8
0
  0
BLOCK
  8
0
  2
*U59
 70
     1
 10
0.0
 20
0.0
 30
0.0
  3
*U59
  1

  0
TEXT
  5
383
  8
図枠
  6
CONTINUOUS
 10
28.232965300899998
 20
-67.513558513906588
 30
0.0
 40
4.3175681352000002
  1
株式会社
  0
ENDBLK
  5
385
  8
0
  0
BLOCK
  8
0
  2
*U60
 70
     1
 10
0.0
 20
0.0
 30
0.0
  3
*U60
  1

  0
TEXT
  5
387
  8
図枠
  6
CONTINUOUS
 10
51.120877632034521
 20
-51.522417743699997
 30
0.0
 40
2.337266249999999
  1
1：1
  0
ENDBLK
  5
389
  8
0
  0
BLOCK
  8
0
  2
*U61
 70
     1
 10
0.0
 20
0.0
 30
0.0
  3
*U61
  1

  0
TEXT
  5
38B
  8
図枠
  6
CONTINUOUS
 10
26.90037490033275
 20
-42.820356109217762
 30
0.0
 40
2.8047194594999989
  1
一般公差
  0
ENDBLK
  5
38D
  8
0
  0
BLOCK
  8
0
  2
*U62
 70
     1
 10
0.0
 20
0.0
 30
0.0
  3
*U62
  1

  0
TEXT
  5
38F
  8
図枠
  6
CONTINUOUS
 10
25.414152876323861
 20
-60.140210700552792
 30
0.0
 40
2.337266249999999
  1
製図
  0
ENDBLK
  5
391
  8
0
  0
BLOCK
  8
0
  2
*U63
 70
     1
 10
0.0
 20
0.0
 30
0.0
  3
*U63
  1

  0
TEXT
  5
393
  8
図枠
  6
CONTINUOUS
 10
61.211068195366991
 20
-42.79188179998426
 30
0.0
 40
2.8047194594999989
  1
指定無き公差はJIS 0408-Bによること
  0
ENDBLK
  5
395
  8
0
  0
BLOCK
  8
0
  2
*U64
 70
     1
 10
0.0
 20
0.0
 30
0.0
  3
*U64
  1

  0
TEXT
  5
397
  8
ﾚｲﾔ_1
  6
CONTINUOUS
 10
37.27307551704061
 20
-25.492118271793402
 30
0.0
 40
2.9986110209999999
  1
Ａ皿詳細
  0
ENDBLK
  5
399
  8
0
  0
BLOCK
  8
0
  2
*U65
 70
     1
 10
0.0
 20
0.0
 30
0.0
  3
*U65
  1

  0
TEXT
  5
39B
  8
ﾚｲﾔ_1
  6
CONTINUOUS
 10
103.01222609955791
 20
-25.492118271793402
 30
0.0
 40
2.9986110209999999
  1
Ｂ皿詳細
  0
ENDBLK
  5
39D
  8
0
  0
BLOCK
  8
0
  2
*D66
 70
     1
 10
0.0
 20
0.0
 30
0.0
  3
*D66
  1

  0
LINE
  5
3A0
  8
寸法線
 62
     0
 10
63.074524259724157
 20
10.906535677124159
 30
0.0
 11
72.345365067347672
 21
20.177376484747668
 31
0.0
  0
LINE
  5
3A1
  8
寸法線
 62
     0
 10
27.925475740275839
 20
10.906535677124159
 30
0.0
 11
18.654634932652321
 21
20.177376484747668
 31
0.0
  0
ARC
  5
3A2
  8
寸法線
 62
     0
 10
45.499999999999993
 20
-6.6679885825999987
 30
0.0
 40
36.715079365100003
 50
49.682958470810732
 51
82.742939404915134
  0
ARC
  5
3A3
  8
寸法線
 62
     0
 10
45.499999999999993
 20
-6.6679885825999987
 30
0.0
 40
36.715079365100003
 50
97.257060595084866
 51
130.3170415291892
  0
SOLID
  5
3A4
  8
寸法線
 62
     0
 10
69.594079249462311
 20
21.694078040152679
 30
0.0
 11
68.916451798114906
 21
20.958672684460709
 31
0.0
 12
71.461481590864494
 22
19.29349300826448
 32
0.0
 13
71.461481590864494
 23
19.29349300826448
 33
0.0
  0
SOLID
  5
3A5
  8
寸法線
 62
     0
 10
22.083548201885101
 20
20.958672684460719
 30
0.0
 11
21.4059207505377
 21
21.694078040152679
 31
0.0
 12
19.538518409135509
 22
19.293493008264491
 32
0.0
 13
19.538518409135509
 23
19.293493008264491
 33
0.0
  0
TEXT
  8
寸法線
  40
2.99861
  5
3CD
  62
0
  72
0
  71
0
 10
39.5028
 20
24.7395
 30
0.000000
  1
90°
  0
POINT
  5
3A7
  8
Defpoints
 62
     0
 10
45.499999999999993
 20
-6.6679885825999987
 30
0.0
  0
POINT
  5
3A8
  8
Defpoints
 62
     0
 10
63.030330085899998
 20
10.8623415033
 30
0.0
  0
POINT
  5
3A9
  8
Defpoints
 62
     0
 10
27.969669914099999
 20
10.8623415033
 30
0.0
  0
POINT
  5
3AA
  8
Defpoints
 62
     0
 10
55.00256178213845
 20
28.79605479040293
 30
0.0
  0
ENDBLK
  5
3AC
  8
0
  0
BLOCK
  8
0
  2
*D67
 70
     1
 10
0.0
 20
0.0
 30
0.0
  3
*D67
  1

  0
LINE
  5
3AE
  8
寸法線
 62
     0
 10
126.9741274343241
 20
10.906535677124159
 30
0.0
 11
136.53786146076109
 21
20.470269703561119
 31
0.0
  0
LINE
  5
3AF
  8
寸法線
 62
     0
 10
93.82507891487586
 20
10.906535677124159
 30
0.0
 11
84.261344888438884
 21
20.470269703561151
 31
0.0
  0
ARC
  5
3B0
  8
寸法線
 62
     0
 10
110.3996031746
 20
-5.6679885825999987
 30
0.0
 40
35.715079365100003
 50
49.814154535858513
 51
82.538605788617915
  0
ARC
  5
3B1
  8
寸法線
 62
     0
 10
110.3996031746
 20
-5.6679885825999987
 30
0.0
 40
35.715079365100003
 50
97.461394211382085
 51
130.18584546414141
  0
SOLID
  5
3B2
  8
寸法線
 62
     0
 10
133.78382843360649
 20
21.984831694067619
 30
0.0
 11
133.1070433929975
 21
21.2486510037423
 31
0.0
 12
135.6539779842779
 22
19.586386227077931
 32
0.0
 13
135.6539779842779
 23
19.586386227077931
 33
0.0
  0
SOLID
  5
3B3
  8
寸法線
 62
     0
 10
87.692162956202523
 20
21.248651003742332
 30
0.0
 11
87.015377915593533
 21
21.984831694067651
 31
0.0
 12
85.145228364922076
 22
19.586386227077959
 32
0.0
 13
85.145228364922076
 23
19.586386227077959
 33
0.0
  0
TEXT
  8
寸法線
  40
2.99861
  5
3CE
  62
0
  72
0
  71
0
 10
104.402
 20
24.7395
 30
0.000000
  1
90°
  0
POINT
  5
3B5
  8
Defpoints
 62
     0
 10
110.3996031746
 20
-5.6679885825999987
 30
0.0
  0
POINT
  5
3B6
  8
Defpoints
 62
     0
 10
126.92993326049999
 20
10.8623415033
 30
0.0
  0
POINT
  5
3B7
  8
Defpoints
 62
     0
 10
93.869273088700012
 20
10.8623415033
 30
0.0
  0
POINT
  5
3B8
  8
Defpoints
 62
     0
 10
119.6433459116359
 20
28.830128964113861
 30
0.0
  0
ENDBLK
  5
3BA
  8
0
  0
BLOCK
  8
0
  2
*U68
 70
     1
 10
0.0
 20
0.0
 30
0.0
  3
*U68
  1

  0
TEXT
  5
3BC
  8
ﾚｲﾔ_1
  6
CONTINUOUS
 10
-2.4447685185000001
 20
95.550297418
 30
0.0
 40
2.9986110209999999
  1
Ａ
  0
ENDBLK
  5
3BE
  8
0
  0
BLOCK
  8
0
  2
*D69
 70
     1
 10
0.0
 20
0.0
 30
0.0
  3
*D69
  1

  0
LINE
  5
3C0
  8
寸法線
 62
     0
 10
-14.6902777778
 20
-12.412962963
 30
0.0
 11
-63.039924587669667
 21
-12.412962963
 31
0.0
  0
LINE
  5
3C1
  8
寸法線
 62
     0
 10
-74.627777777799992
 20
11.524537036999989
 30
0.0
 11
-74.627777777799992
 21
-0.8251097728696734
 31
0.0
  0
ARC
  5
3C2
  8
寸法線
 62
     0
 10
-74.627777777799992
 20
-12.412962963
 30
0.0
 40
12.83785319013033
 50
13.41975645608966
 51
26.492992175448411
  0
ARC
  5
3C3
  8
寸法線
 62
     0
 10
-74.627777777799992
 20
-12.412962963
 30
0.0
 40
12.83785319013033
 50
68.849053088115141
 51
76.580243543910328
  0
SOLID
  5
3C4
  8
寸法線
 62
     0
 10
-61.643875224350417
 20
-9.3750904206648187
 30
0.0
 11
-62.637025744206113
 21
-9.4919323862010181
 31
0.0
 12
-61.789924587669667
 22
-12.412962963
 32
0.0
 13
-61.789924587669667
 23
-12.412962963
 33
0.0
  0
SOLID
  5
3C5
  8
寸法線
 62
     0
 10
-71.706747201001008
 20
-0.422210929406127
 30
0.0
 11
-71.589905235464812
 21
0.5709395904495765
 31
0.0
 12
-74.627777777799992
 22
0.4248902271303266
 32
0.0
 13
-74.627777777799992
 23
0.4248902271303266
 33
0.0
  0
TEXT
  8
寸法線
  40
2.99861
  5
3CF
  62
0
  72
0
  71
0
 10
-71.9802
 20
-8.22960
 30
0.000000
  1
90°
  0
POINT
  5
3C7
  8
Defpoints
 62
     0
 10
-74.627777777799992
 20
-12.412962963
 30
0.0
  0
POINT
  5
3C8
  8
Defpoints
 62
     0
 10
-14.6277777778
 20
-12.412962963
 30
0.0
  0
POINT
  5
3C9
  8
Defpoints
 62
     0
 10
-74.627777777799992
 20
11.587037037
 30
0.0
  0
POINT
  5
3CA
  8
Defpoints
 62
     0
 10
-63.509870785092033
 20
-5.9940363679348421
 30
0.0
  0
ENDBLK
  5
3CC
  8
0
  0
ENDSEC
  0
SECTION
  2
ENTITIES
  0
LINE
  5
2F
  8
図枠
 62
     5
 10
120.00323363139999
 20
105.25493636029999
 30
0.0
 11
120.00323363139999
 21
120.2534363603
 31
0.0
  0
LINE
  5
30
  8
図枠
 62
     5
 10
46.010633631399998
 20
105.25493636029999
 30
0.0
 11
46.010633631399998
 21
120.2534363603
 31
0.0
  0
LINE
  5
31
  8
図枠
 62
     5
 10
49.7259766739
 20
114.9715820983
 30
0.0
 11
47.251224173899999
 21
110.68518503209999
 31
0.0
  0
LINE
  5
32
  8
図枠
 62
     5
 10
49.7259766739
 20
114.9715820983
 30
0.0
 11
52.200729173900001
 21
110.68518503209999
 31
0.0
  0
LINE
  5
33
  8
図枠
 62
     5
 10
54.009833631399999
 20
105.25493636029999
 30
0.0
 11
54.009833631399999
 21
120.2534363603
 31
0.0
  0
INSERT
  5
34
  8
0
  6
CONTINUOUS
  2
*U30
 10
0.0
 20
0.0
 30
0.0
  0
INSERT
  5
35
  8
0
  6
CONTINUOUS
  2
*U31
 10
0.0
 20
0.0
 30
0.0
  0
LINE
  5
36
  8
図枠
 62
     5
 10
130.0022336314
 20
105.25493636029999
 30
0.0
 11
130.0022336314
 21
120.2534363603
 31
0.0
  0
INSERT
  5
37
  8
0
  6
CONTINUOUS
  2
*U32
 10
0.0
 20
0.0
 30
0.0
  0
INSERT
  5
38
  8
0
  6
CONTINUOUS
  2
*U33
 10
0.0
 20
0.0
 30
0.0
  0
LINE
  5
39
  8
図枠
 62
     5
 10
47.251224173899999
 20
105.73568003210001
 30
0.0
 11
52.200729173900001
 21
105.73568003210001
 31
0.0
  0
LINE
  5
3A
  8
図枠
 62
     5
 10
47.251224173899999
 20
110.68518503209999
 30
0.0
 11
52.200729173900001
 21
110.68518503209999
 31
0.0
  0
LINE
  5
3B
  8
図枠
 62
     5
 10
49.7259766739
 20
110.0220770983
 30
0.0
 11
52.200729173900001
 21
105.73568003210001
 31
0.0
  0
LINE
  5
3C
  8
図枠
 62
     5
 10
49.7259766739
 20
110.0220770983
 30
0.0
 11
47.251224173899999
 21
105.73568003210001
 31
0.0
  0
LINE
  5
3D
  8
図枠
 62
     5
 10
46.010633631399998
 20
105.25493636029999
 30
0.0
 11
140.0012336314
 21
105.25493636029999
 31
0.0
  0
LINE
  5
3E
  8
図枠
 62
     5
 10
70.008233631400003
 20
105.25493636029999
 30
0.0
 11
70.008233631400003
 21
120.2534363603
 31
0.0
  0
INSERT
  5
3F
  8
0
  6
CONTINUOUS
  2
*U34
 10
0.0
 20
0.0
 30
0.0
  0
LINE
  5
40
  8
図枠
 62
     5
 10
46.010633631399998
 20
110.25443636030001
 30
0.0
 11
140.0012336314
 21
110.25443636030001
 31
0.0
  0
LINE
  5
41
  8
図枠
 62
     5
 10
46.010633631399998
 20
115.2539363603
 30
0.0
 11
140.0012336314
 21
115.2539363603
 31
0.0
  0
LINE
  5
43
  8
ﾚｲﾔ_1
 62
     5
 10
55.570370370399999
 20
54.241927029199999
 30
0.0
 11
79.170370370399993
 21
54.241927029199999
 31
0.0
  0
ARC
  5
44
  8
ﾚｲﾔ_1
 62
     5
 10
55.570370370399999
 20
57.241927029199992
 30
0.0
 40
3.0
 50
180.0
 51
270.0
  0
CIRCLE
  5
45
  8
ﾚｲﾔ_1
  6
STITCH
 10
58.570370370399999
 20
69.241927029199999
 30
0.0
 40
4.0
  0
LINE
  5
46
  8
ﾚｲﾔ_1
  6
BORDER
 62
     3
 10
58.570370370399999
 20
75.241927029199999
 30
0.0
 11
58.570370370399999
 21
63.241927029199999
 31
0.0
  0
LINE
  5
47
  8
ﾚｲﾔ_1
  6
BORDER
 62
     3
 10
52.570370370399992
 20
69.241927029199999
 30
0.0
 11
64.570370370399999
 21
69.241927029199999
 31
0.0
  0
CIRCLE
  5
48
  8
ﾚｲﾔ_1
 62
     5
 10
58.570370370399999
 20
69.241927029199999
 30
0.0
 40
2.5
  0
LINE
  5
49
  8
ﾚｲﾔ_1
 10
37.307407407399999
 20
93.753038140399994
 30
0.0
 11
55.949240570999997
 21
72.263462826600005
 31
0.0
  0
SOLID
  5
4A
  8
ﾚｲﾔ_1
 10
55.949240570999997
 20
72.263462826600005
 30
0.0
 11
53.376179663800002
 21
74.002867464799991
 31
0.0
 12
54.5101404312
 22
73.922401116999993
 32
0.0
 13
54.5101404312
 23
73.922401116999993
 33
0.0
  0
SOLID
  5
4B
  8
ﾚｲﾔ_1
 10
55.949240570999997
 20
72.263462826600005
 30
0.0
 11
54.590606778999998
 21
75.056361884300003
 31
0.0
 12
54.5101404312
 22
73.922401116999993
 32
0.0
 13
54.5101404312
 23
73.922401116999993
 33
0.0
  0
INSERT
  5
4C
  8
0
  6
CONTINUOUS
  2
*U35
 10
0.0
 20
0.0
 30
0.0
  0
LINE
  5
4D
  8
ﾚｲﾔ_1
 10
26.253703703700001
 20
93.753038140399994
 30
0.0
 11
37.307407407399999
 21
93.753038140399994
 31
0.0
  0
LINE
  5
4E
  8
ﾚｲﾔ_1
 62
     5
 10
56.29999999999999
 20
4.1320114174000002
 30
0.0
 11
62.5
 21
10.3320114174
 31
0.0
  0
LINE
  5
4F
  8
ﾚｲﾔ_1
 62
     5
 10
34.70000000000001
 20
4.1320114174000002
 30
0.0
 11
56.29999999999999
 21
4.1320114174000002
 31
0.0
  0
LINE
  5
50
  8
ﾚｲﾔ_1
 62
     5
 10
28.5
 20
10.3320114174
 30
0.0
 11
34.70000000000001
 21
4.1320114174000002
 31
0.0
  0
LINE
  5
51
  8
ﾚｲﾔ_1
 62
     5
 10
120.3996031746
 20
4.3320114174000004
 30
0.0
 11
126.3996031746
 21
10.3320114174
 31
0.0
  0
LINE
  5
52
  8
ﾚｲﾔ_1
 62
     5
 10
100.3996031746
 20
4.3320114174000004
 30
0.0
 11
120.3996031746
 21
4.3320114174000004
 31
0.0
  0
LINE
  5
53
  8
ﾚｲﾔ_1
 62
     5
 10
94.399603174599974
 20
10.3320114174
 30
0.0
 11
100.3996031746
 21
4.3320114174000004
 31
0.0
  0
LINE
  5
54
  8
ﾚｲﾔ_1
 62
     5
 10
81.908597883599995
 20
10.3320114174
 30
0.0
 11
133.91812169310001
 21
10.3320114174
 31
0.0
  0
LINE
  5
55
  8
ﾚｲﾔ_1
 62
     5
 10
21.5
 20
10.3320114174
 30
0.0
 11
75.25
 21
10.3320114174
 31
0.0
  0
LINE
  5
56
  8
ﾚｲﾔ_1
 62
     5
 10
79.170370370399993
 20
54.241927029199999
 30
0.0
 11
79.170370370399993
 21
84.241927029199999
 31
0.0
  0
LINE
  5
57
  8
ﾚｲﾔ_1
 62
     5
 10
76.570370370399999
 20
54.241927029199999
 30
0.0
 11
76.570370370399999
 21
84.241927029199999
 31
0.0
  0
DIMENSION
  5
68
  8
寸法線
  2
*D0
 10
42.570370370399992
 20
69.241927029199999
 30
0.0
 11
42.570370370399992
 21
61.741927029199999
 31
0.0
 70
   128
  1
<>
 13
52.570370370399992
 23
69.241927029199999
 33
0.0
 14
55.570370370399999
 24
54.241927029199999
 34
0.0
 50
90.0
  0
DIMENSION
  5
77
  8
寸法線
  2
*D1
 10
42.570370370399992
 20
84.241927029199999
 30
0.0
 11
42.570370370399992
 21
76.741927029199999
 31
0.0
 70
   128
  1
<>
 13
55.570370370399999
 23
84.241927029199999
 33
0.0
 14
52.570370370399992
 24
69.241927029199999
 34
0.0
 50
90.0
  0
DIMENSION
  5
86
  8
寸法線
  2
*D2
 10
126.3996031746
 20
20.3320114174
 30
0.0
 11
110.3996031746
 21
20.3320114174
 31
0.0
 70
   128
  1
%%c8
 13
126.3996031746
 23
10.3320114174
 33
0.0
 14
94.399603174599974
 24
10.3320114174
 34
0.0
  0
DIMENSION
  5
95
  8
寸法線
  2
*D3
 10
58.570370370399999
 20
91.241927029199999
 30
0.0
 11
55.570370370399999
 21
91.241927029199999
 31
0.0
 70
   128
  1
<>
 13
58.570370370399999
 23
75.241927029199999
 33
0.0
 14
52.570370370399992
 24
81.241927029199999
 34
0.0
  0
DIMENSION
  5
A4
  8
寸法線
  2
*D4
 10
79.170370370399993
 20
91.241927029199999
 30
0.0
 11
68.870370370399996
 21
91.241927029199999
 31
0.0
 70
   128
  1
<>
 13
79.170370370399993
 23
84.241927029199999
 33
0.0
 14
58.570370370399999
 24
75.241927029199999
 34
0.0
  0
DIMENSION
  5
B3
  8
寸法線
  2
*D5
 10
62.5
 20
20.3320114174
 30
0.0
 11
45.499999999999993
 21
20.3320114174
 31
0.0
 70
   128
  1
%%c8.5
 13
62.5
 23
10.3320114174
 33
0.0
 14
28.5
 24
10.3320114174
 34
0.0
  0
LINE
  5
B4
  8
図枠
 10
55.206915277299998
 20
-62.600138080100002
 30
0.0
 11
55.206915277299998
 21
-64.199978080099996
 31
0.0
  0
LINE
  5
B5
  8
図枠
 10
55.206915277299998
 20
-65.399858080100003
 30
0.0
 11
55.206915277299998
 21
-66.599738080099996
 31
0.0
  0
ARC
  5
B6
  8
図枠
 10
66.134307277299996
 20
-63.800018080100003
 30
0.0
 40
4.3995600000000001
 50
270.0
 51
302.54495885400001
  0
LINE
  5
B7
  8
図枠
 10
26.0126336314
 20
-48.479688639700001
 30
0.0
 11
42.011033631399989
 21
-48.479688639700001
 31
0.0
  0
INSERT
  5
B8
  8
0
  6
CONTINUOUS
  2
*U36
 10
0.0
 20
0.0
 30
0.0
  0
LINE
  5
B9
  8
図枠
 10
80.306875997299997
 20
-63.960002080100011
 30
0.0
 11
80.306875997299997
 21
-65.399858080100003
 31
0.0
  0
LINE
  5
BA
  8
図枠
 10
73.107595997299995
 20
-63.960002080100011
 30
0.0
 11
73.107595997299995
 21
-65.399858080100003
 31
0.0
  0
LINE
  5
BB
  8
図枠
 10
84.006833631399999
 20
-44.230113639700001
 30
0.0
 11
84.006833631399999
 21
-69.727563639700008
 31
0.0
  0
LINE
  5
BC
  8
図枠
 10
75.338181394599999
 20
-49.631573439699999
 30
0.0
 11
79.945720594600004
 21
-50.783458239700003
 31
0.0
  0
LINE
  5
BD
  8
図枠
 10
75.338181394599999
 20
-49.631573439699999
 30
0.0
 11
79.945720594600004
 21
-50.783458239700003
 31
0.0
  0
INSERT
  5
BE
  8
0
  6
CONTINUOUS
  2
*U37
 10
0.0
 20
0.0
 30
0.0
  0
LINE
  5
BF
  8
図枠
 10
75.338181394599999
 20
-47.327803839700003
 30
0.0
 11
75.338181394599999
 21
-49.631573439699999
 31
0.0
  0
LINE
  5
C0
  8
図枠
 10
73.107595997299995
 20
-66.039794080100009
 30
0.0
 11
73.107595997299995
 21
-67.479650080100001
 31
0.0
  0
INSERT
  5
C1
  8
0
  6
CONTINUOUS
  2
*U38
 10
0.0
 20
0.0
 30
0.0
  0
LINE
  5
C2
  8
図枠
 10
75.338181394599999
 20
-47.327803839700003
 30
0.0
 11
75.338181394599999
 21
-49.631573439699999
 31
0.0
  0
LINE
  5
C3
  8
図枠
 10
24.012833631399999
 20
-44.230113639700001
 30
0.0
 11
140.0012336314
 21
-44.230113639700001
 31
0.0
  0
LINE
  5
C4
  8
図枠
 10
58.806555277299992
 20
-64.199978080099996
 30
0.0
 11
57.206715277299999
 21
-64.199978080099996
 31
0.0
  0
LINE
  5
C5
  8
図枠
 10
75.338181394599999
 20
-47.327803839700003
 30
0.0
 11
79.945720594600004
 21
-46.175919039700013
 31
0.0
  0
LINE
  5
C6
  8
図枠
 10
77.371941004999996
 20
-63.960002080100011
 30
0.0
 11
80.306875997299997
 21
-63.960002080100011
 31
0.0
  0
LINE
  5
C7
  8
図枠
 10
75.106329437299991
 20
-63.960002080100011
 30
0.0
 11
74.707435997299996
 21
-62.600138080100002
 31
0.0
  0
LINE
  5
C8
  8
図枠
 10
73.107595997299995
 20
-65.399858080100003
 30
0.0
 11
75.528687197300002
 21
-65.399858080100003
 31
0.0
  0
LINE
  5
C9
  8
図枠
 10
99.005333631399992
 20
-33.231213639699988
 30
0.0
 11
99.005333631399992
 21
-27.731763639699999
 31
0.0
  0
LINE
  5
CA
  8
ﾚｲﾔ_1
 62
     5
 10
79.170370370399993
 20
84.241927029199999
 30
0.0
 11
55.570370370399999
 21
84.241927029199999
 31
0.0
  0
ARC
  5
CB
  8
ﾚｲﾔ_1
 62
     5
 10
55.570370370399999
 20
81.241927029199999
 30
0.0
 40
3.0
 50
90.0
 51
180.0
  0
LINE
  5
CC
  8
ﾚｲﾔ_1
 62
     5
 10
52.570370370399992
 20
81.241927029199999
 30
0.0
 11
52.570370370399992
 21
57.241927029199992
 31
0.0
  0
INSERT
  5
CD
  8
0
  6
CONTINUOUS
  2
*U39
 10
0.0
 20
0.0
 30
0.0
  0
LINE
  5
CE
  8
図枠
 10
79.945720594600004
 20
-46.175919039700013
 30
0.0
 11
79.945720594600004
 21
-50.783458239700003
 31
0.0
  0
LINE
  5
CF
  8
図枠
 10
55.206915277299998
 20
-65.399858080100003
 30
0.0
 11
55.086044316400013
 21
-65.399858080100003
 31
0.0
  0
LINE
  5
D0
  8
図枠
 10
60.806355277299993
 20
-64.199978080099996
 30
0.0
 11
60.806355277299993
 21
-63.800018080100003
 31
0.0
  0
LINE
  5
D1
  8
図枠
 10
75.338181394599999
 20
-47.327803839700003
 30
0.0
 11
75.338181394599999
 21
-49.631573439699999
 31
0.0
  0
LINE
  5
D2
  8
図枠
 10
75.716401757299991
 20
-66.039794080100009
 30
0.0
 11
75.528687197300002
 21
-65.399858080100003
 31
0.0
  0
LINE
  5
D3
  8
図枠
 10
64.008833631400009
 20
-44.230113639700001
 30
0.0
 11
64.008833631400009
 21
-52.729263639700001
 31
0.0
  0
INSERT
  5
D4
  8
0
  6
CONTINUOUS
  2
*U40
 10
0.0
 20
0.0
 30
0.0
  0
LINE
  5
D5
  8
図枠
 10
64.134507277299988
 20
-62.600138080100002
 30
0.0
 11
64.134507277299988
 21
-64.039994080100001
 31
0.0
  0
ARC
  5
D6
  8
図枠
 10
57.606675277299992
 20
-65.799818080099996
 30
0.0
 40
1.1998799999999989
 50
270.0
 51
0.0
  0
INSERT
  5
D7
  8
0
  6
CONTINUOUS
  2
*U41
 10
0.0
 20
0.0
 30
0.0
  0
LINE
  5
D8
  8
図枠
 10
75.338181394599999
 20
-47.327803839700003
 30
0.0
 11
75.338181394599999
 21
-49.631573439699999
 31
0.0
  0
LINE
  5
D9
  8
図枠
 10
75.338181394599999
 20
-47.327803839700003
 30
0.0
 11
79.945720594600004
 21
-46.175919039700013
 31
0.0
  0
LINE
  5
DA
  8
図枠
 10
81.007133631399995
 20
-33.231213639699988
 30
0.0
 11
81.007133631399995
 21
-27.731763639699999
 31
0.0
  0
INSERT
  5
DB
  8
0
  6
CONTINUOUS
  2
*U42
 10
0.0
 20
0.0
 30
0.0
  0
INSERT
  5
DC
  8
0
  6
CONTINUOUS
  2
*U43
 10
0.0
 20
0.0
 30
0.0
  0
INSERT
  5
DD
  8
0
  6
CONTINUOUS
  2
*U44
 10
0.0
 20
0.0
 30
0.0
  0
LINE
  5
DE
  8
図枠
 10
73.107595997299995
 20
-67.479650080100001
 30
0.0
 11
76.138759517300002
 21
-67.479650080100001
 31
0.0
  0
LINE
  5
DF
  8
図枠
 10
77.786280830199999
 20
-65.399858080100003
 30
0.0
 11
80.306875997299997
 21
-65.399858080100003
 31
0.0
  0
LINE
  5
E0
  8
図枠
 10
78.707035997299997
 20
-68.599538080100004
 30
0.0
 11
78.384771688800001
 21
-67.479650080100001
 31
0.0
  0
LINE
  5
E1
  8
図枠
 10
80.306875997299997
 20
-66.039794080100009
 30
0.0
 11
80.306875997299997
 21
-67.479650080100001
 31
0.0
  0
INSERT
  5
E2
  8
0
  6
CONTINUOUS
  2
*U45
 10
0.0
 20
0.0
 30
0.0
  0
LINE
  5
E3
  8
図枠
 10
62.006235277299993
 20
-64.199978080099996
 30
0.0
 11
62.006235277299993
 21
-65.399858080100003
 31
0.0
  0
LINE
  5
E4
  8
図枠
 10
62.006235277299993
 20
-64.199978080099996
 30
0.0
 11
60.806355277299993
 21
-64.199978080099996
 31
0.0
  0
INSERT
  5
E5
  8
0
  6
CONTINUOUS
  2
*U46
 10
0.0
 20
0.0
 30
0.0
  0
LINE
  5
E6
  8
図枠
 10
58.806555277299992
 20
-62.600138080100002
 30
0.0
 11
58.806555277299992
 21
-64.199978080099996
 31
0.0
  0
LINE
  5
E7
  8
図枠
 10
60.806355277299993
 20
-63.800018080100003
 30
0.0
 11
62.006235277299993
 21
-62.600138080100002
 31
0.0
  0
CIRCLE
  5
E8
  8
図枠
 10
70.072227231400007
 20
-48.479688639700001
 30
0.0
 40
2.303769599999999
  0
CIRCLE
  5
E9
  8
図枠
 10
70.072227231400007
 20
-48.479688639700001
 30
0.0
 40
1.151884799999999
  0
LINE
  5
EA
  8
図枠
 10
58.806555277299992
 20
-65.399858080100003
 30
0.0
 11
58.806555277299992
 21
-65.799818080099996
 31
0.0
  0
LINE
  5
EB
  8
図枠
 10
57.606675277299992
 20
-66.999698080100003
 30
0.0
 11
55.206915277299998
 21
-66.999698080100003
 31
0.0
  0
ARC
  5
EC
  8
図枠
 10
66.134307277299996
 20
-63.800018080100003
 30
0.0
 40
4.3995600000000001
 50
322.48761197969998
 51
0.0
  0
CIRCLE
  5
ED
  8
図枠
 10
70.072227231400007
 20
-48.479688639700001
 30
0.0
 40
1.151884799999999
  0
LINE
  5
EE
  8
図枠
  6
BORDER
 10
70.072227231400007
 20
-45.024034239700001
 30
0.0
 11
70.072227231400007
 21
-51.935343039700001
 31
0.0
  0
LINE
  5
EF
  8
図枠
  6
BORDER
 10
70.072227231400007
 20
-45.024034239700001
 30
0.0
 11
70.072227231400007
 21
-51.935343039700001
 31
0.0
  0
LINE
  5
F0
  8
図枠
 10
67.334187277299989
 20
-64.457640525200006
 30
0.0
 11
66.881684192199998
 21
-64.910143610299997
 31
0.0
  0
LINE
  5
F1
  8
図枠
 10
78.384771688800001
 20
-67.479650080100001
 30
0.0
 11
80.306875997299997
 21
-67.479650080100001
 31
0.0
  0
LINE
  5
F2
  8
図枠
 10
75.338181394599999
 20
-49.631573439699999
 30
0.0
 11
79.945720594600004
 21
-50.783458239700003
 31
0.0
  0
LINE
  5
F3
  8
図枠
 10
76.46725999729999
 20
-68.599538080100004
 30
0.0
 11
76.138759517300002
 21
-67.479650080100001
 31
0.0
  0
LINE
  5
F4
  8
図枠
 10
77.970431863599984
 20
-66.039794080100009
 30
0.0
 11
77.786280830199999
 21
-65.399858080100003
 31
0.0
  0
LINE
  5
F5
  8
図枠
 10
75.338181394599999
 20
-49.631573439699999
 30
0.0
 11
79.945720594600004
 21
-50.783458239700003
 31
0.0
  0
LINE
  5
F6
  8
図枠
 10
77.2548373164
 20
-63.553059666000003
 30
0.0
 11
77.907115997299996
 21
-62.600138080100002
 31
0.0
  0
INSERT
  5
F7
  8
0
  6
CONTINUOUS
  2
*U47
 10
0.0
 20
0.0
 30
0.0
  0
LINE
  5
F8
  8
図枠
 10
79.945720594600004
 20
-46.175919039700013
 30
0.0
 11
79.945720594600004
 21
-50.783458239700003
 31
0.0
  0
INSERT
  5
F9
  8
0
  6
CONTINUOUS
  2
*U48
 10
0.0
 20
0.0
 30
0.0
  0
LINE
  5
FA
  8
図枠
 10
60.806355277299993
 20
-65.399858080100003
 30
0.0
 11
62.006235277299993
 21
-65.399858080100003
 31
0.0
  0
LINE
  5
FB
  8
図枠
 10
75.338181394599999
 20
-47.327803839700003
 30
0.0
 11
79.945720594600004
 21
-46.175919039700013
 31
0.0
  0
LINE
  5
FC
  8
図枠
 10
77.970431863599984
 20
-66.039794080100009
 30
0.0
 11
80.306875997299997
 21
-66.039794080100009
 31
0.0
  0
LINE
  5
FD
  8
図枠
 10
73.107595997299995
 20
-63.960002080100011
 30
0.0
 11
75.106329437299991
 21
-63.960002080100011
 31
0.0
  0
LINE
  5
FE
  8
図枠
 10
54.009833631399999
 20
-52.729263639700001
 30
0.0
 11
54.009833631399999
 21
-61.228413639700001
 31
0.0
  0
LINE
  5
FF
  8
図枠
 10
24.012833631399999
 20
-33.231213639699988
 30
0.0
 11
140.0012336314
 21
-33.231213639699988
 31
0.0
  0
LINE
  5
100
  8
図枠
  6
BORDER
 10
70.072227231400007
 20
-45.024034239700001
 30
0.0
 11
70.072227231400007
 21
-51.935343039700001
 31
0.0
  0
LINE
  5
101
  8
図枠
 10
64.134507277299988
 20
-64.715302970400003
 30
0.0
 11
64.134507277299988
 21
-64.457640525200006
 31
0.0
  0
LINE
  5
102
  8
図枠
 10
57.206715277299999
 20
-63.800018080100003
 30
0.0
 11
58.406595277299992
 21
-62.600138080100002
 31
0.0
  0
INSERT
  5
103
  8
0
  6
CONTINUOUS
  2
*U49
 10
0.0
 20
0.0
 30
0.0
  0
LINE
  5
104
  8
図枠
 10
54.286124316400013
 20
-65.399858080100003
 30
0.0
 11
55.086044316400013
 21
-65.399858080100003
 31
0.0
  0
INSERT
  5
105
  8
0
  6
CONTINUOUS
  2
*U50
 10
0.0
 20
0.0
 30
0.0
  0
LINE
  5
106
  8
図枠
 10
26.0126336314
 20
-56.978838639700001
 30
0.0
 11
52.010033631399999
 21
-56.978838639700001
 31
0.0
  0
LINE
  5
107
  8
図枠
 10
64.134507277299988
 20
-66.999698080100003
 30
0.0
 11
64.134507277299988
 21
-68.199578080099997
 31
0.0
  0
LINE
  5
108
  8
図枠
 10
24.012833631399999
 20
-27.731763639699999
 30
0.0
 11
24.012833631399999
 21
-44.230113639700001
 31
0.0
  0
LINE
  5
109
  8
図枠
 10
64.134507277299988
 20
-64.457640525200006
 30
0.0
 11
67.334187277299989
 21
-64.457640525200006
 31
0.0
  0
LINE
  5
10A
  8
図枠
 10
60.806355277299993
 20
-65.799818080099996
 30
0.0
 11
60.806355277299993
 21
-65.399858080100003
 31
0.0
  0
LINE
  5
10B
  8
図枠
 10
44.010833631399997
 20
-44.230113639700001
 30
0.0
 11
44.010833631399997
 21
-52.729263639700001
 31
0.0
  0
LINE
  5
10C
  8
図枠
 10
77.371941004999996
 20
-63.960002080100011
 30
0.0
 11
77.2548373164
 21
-63.553059666000003
 31
0.0
  0
LINE
  5
10D
  8
図枠
 10
79.945720594600004
 20
-46.175919039700013
 30
0.0
 11
79.945720594600004
 21
-50.783458239700003
 31
0.0
  0
LINE
  5
10E
  8
図枠
 10
75.338181394599999
 20
-47.327803839700003
 30
0.0
 11
79.945720594600004
 21
-46.175919039700013
 31
0.0
  0
LINE
  5
10F
  8
図枠
 10
24.012833631399999
 20
-44.230113639700001
 30
0.0
 11
24.012833631399999
 21
-69.727563639700008
 31
0.0
  0
LINE
  5
110
  8
図枠
 10
24.012833631399999
 20
-27.731763639699999
 30
0.0
 11
24.012833631399999
 21
-44.230113639700001
 31
0.0
  0
LINE
  5
111
  8
図枠
 10
55.206915277299998
 20
-66.599738080099996
 30
0.0
 11
57.206715277299999
 21
-66.599738080099996
 31
0.0
  0
LINE
  5
112
  8
図枠
 10
44.010833631399997
 20
-44.230113639700001
 30
0.0
 11
44.010833631399997
 21
-27.731763639699999
 31
0.0
  0
LINE
  5
113
  8
図枠
 10
64.134507277299988
 20
-66.999698080100003
 30
0.0
 11
65.094411277299983
 21
-66.999698080100003
 31
0.0
  0
LINE
  5
114
  8
図枠
 10
55.206915277299998
 20
-68.199578080099997
 30
0.0
 11
58.406595277299992
 21
-68.199578080099997
 31
0.0
  0
LINE
  5
115
  8
図枠
 10
76.46725999729999
 20
-68.599538080100004
 30
0.0
 11
78.707035997299997
 21
-68.599538080100004
 31
0.0
  0
LINE
  5
116
  8
図枠
 10
74.707435997299996
 20
-62.600138080100002
 30
0.0
 11
77.907115997299996
 21
-62.600138080100002
 31
0.0
  0
LINE
  5
117
  8
図枠
 10
64.134507277299988
 20
-68.199578080099997
 30
0.0
 11
64.134507277299988
 21
-66.999698080100003
 31
0.0
  0
LINE
  5
118
  8
図枠
 10
67.763194365700002
 20
-65.415113278500002
 30
0.0
 11
67.570736968299997
 21
-65.627682707799991
 31
0.0
  0
ARC
  5
119
  8
図枠
 10
58.406595277299992
 20
-65.799818080099996
 30
0.0
 40
2.3997599999999988
 50
270.0
 51
0.0
  0
INSERT
  5
11A
  8
0
  6
CONTINUOUS
  2
*U51
 10
0.0
 20
0.0
 30
0.0
  0
LINE
  5
11B
  8
図枠
 10
46.010633631399998
 20
-48.479688639700001
 30
0.0
 11
60.009233631400001
 21
-48.479688639700001
 31
0.0
  0
ARC
  5
11C
  8
図枠
 10
65.094411277299983
 20
-63.960002080100011
 30
0.0
 40
3.0396959999999988
 50
270.0
 51
298.08590481520002
  0
INSERT
  5
11D
  8
0
  6
CONTINUOUS
  2
*U52
 10
0.0
 20
0.0
 30
0.0
  0
INSERT
  5
11E
  8
0
  6
CONTINUOUS
  2
*U53
 10
0.0
 20
0.0
 30
0.0
  0
LINE
  5
11F
  8
図枠
 10
24.012833631399999
 20
-52.729263639700001
 30
0.0
 11
140.0012336314
 21
-52.729263639700001
 31
0.0
  0
LINE
  5
120
  8
図枠
 10
64.134507277299988
 20
-68.199578080099997
 30
0.0
 11
66.134307277299996
 21
-68.199578080099997
 31
0.0
  0
LINE
  5
121
  8
図枠
 10
57.206715277299999
 20
-65.399858080100003
 30
0.0
 11
58.806555277299992
 21
-65.399858080100003
 31
0.0
  0
POLYLINE
  8
図枠
  5
3D0
  66
     1
 10
0.000000
 20
0.000000
 30
0.000000
  70
     8
  0
VERTEX
  8
図枠
  5
3D1
 10
69.4817
 20
-66.6185
 30
0.000000
  70
    32
  0
VERTEX
  8
図枠
  5
3D2
 10
69.4957
 20
-66.6225
 30
0.000000
  70
    32
  0
VERTEX
  8
図枠
  5
3D3
 10
69.5097
 20
-66.6264
 30
0.000000
  70
    32
  0
VERTEX
  8
図枠
  5
3D4
 10
69.5237
 20
-66.6304
 30
0.000000
  70
    32
  0
VERTEX
  8
図枠
  5
3D5
 10
69.5377
 20
-66.6343
 30
0.000000
  70
    32
  0
VERTEX
  8
図枠
  5
3D6
 10
69.5517
 20
-66.6381
 30
0.000000
  70
    32
  0
VERTEX
  8
図枠
  5
3D7
 10
69.5658
 20
-66.6420
 30
0.000000
  70
    32
  0
VERTEX
  8
図枠
  5
3D8
 10
69.5799
 20
-66.6458
 30
0.000000
  70
    32
  0
VERTEX
  8
図枠
  5
3D9
 10
69.5939
 20
-66.6496
 30
0.000000
  70
    32
  0
VERTEX
  8
図枠
  5
3DA
 10
69.6080
 20
-66.6534
 30
0.000000
  70
    32
  0
VERTEX
  8
図枠
  5
3DB
 10
69.6221
 20
-66.6572
 30
0.000000
  70
    32
  0
VERTEX
  8
図枠
  5
3DC
 10
69.6363
 20
-66.6609
 30
0.000000
  70
    32
  0
VERTEX
  8
図枠
  5
3DD
 10
69.6504
 20
-66.6646
 30
0.000000
  70
    32
  0
VERTEX
  8
図枠
  5
3DE
 10
69.6646
 20
-66.6683
 30
0.000000
  70
    32
  0
VERTEX
  8
図枠
  5
3DF
 10
69.6787
 20
-66.6720
 30
0.000000
  70
    32
  0
VERTEX
  8
図枠
  5
3E0
 10
69.6929
 20
-66.6757
 30
0.000000
  70
    32
  0
VERTEX
  8
図枠
  5
3E1
 10
69.7071
 20
-66.6793
 30
0.000000
  70
    32
  0
VERTEX
  8
図枠
  5
3E2
 10
69.7213
 20
-66.6829
 30
0.000000
  70
    32
  0
VERTEX
  8
図枠
  5
3E3
 10
69.7355
 20
-66.6865
 30
0.000000
  70
    32
  0
VERTEX
  8
図枠
  5
3E4
 10
69.7497
 20
-66.6901
 30
0.000000
  70
    32
  0
VERTEX
  8
図枠
  5
3E5
 10
69.7639
 20
-66.6937
 30
0.000000
  70
    32
  0
VERTEX
  8
図枠
  5
3E6
 10
69.7782
 20
-66.6972
 30
0.000000
  70
    32
  0
VERTEX
  8
図枠
  5
3E7
 10
69.7925
 20
-66.7008
 30
0.000000
  70
    32
  0
VERTEX
  8
図枠
  5
3E8
 10
69.8067
 20
-66.7043
 30
0.000000
  70
    32
  0
VERTEX
  8
図枠
  5
3E9
 10
69.8210
 20
-66.7077
 30
0.000000
  70
    32
  0
VERTEX
  8
図枠
  5
3EA
 10
69.8353
 20
-66.7112
 30
0.000000
  70
    32
  0
VERTEX
  8
図枠
  5
3EB
 10
69.8496
 20
-66.7147
 30
0.000000
  70
    32
  0
VERTEX
  8
図枠
  5
3EC
 10
69.8639
 20
-66.7181
 30
0.000000
  70
    32
  0
VERTEX
  8
図枠
  5
3ED
 10
69.8783
 20
-66.7215
 30
0.000000
  70
    32
  0
VERTEX
  8
図枠
  5
3EE
 10
69.8926
 20
-66.7249
 30
0.000000
  70
    32
  0
VERTEX
  8
図枠
  5
3EF
 10
69.9069
 20
-66.7283
 30
0.000000
  70
    32
  0
VERTEX
  8
図枠
  5
3F0
 10
69.9213
 20
-66.7316
 30
0.000000
  70
    32
  0
VERTEX
  8
図枠
  5
3F1
 10
69.9357
 20
-66.7350
 30
0.000000
  70
    32
  0
VERTEX
  8
図枠
  5
3F2
 10
69.9501
 20
-66.7383
 30
0.000000
  70
    32
  0
VERTEX
  8
図枠
  5
3F3
 10
69.9645
 20
-66.7416
 30
0.000000
  70
    32
  0
VERTEX
  8
図枠
  5
3F4
 10
69.9789
 20
-66.7449
 30
0.000000
  70
    32
  0
VERTEX
  8
図枠
  5
3F5
 10
69.9933
 20
-66.7482
 30
0.000000
  70
    32
  0
VERTEX
  8
図枠
  5
3F6
 10
70.0077
 20
-66.7514
 30
0.000000
  70
    32
  0
VERTEX
  8
図枠
  5
3F7
 10
70.0221
 20
-66.7547
 30
0.000000
  70
    32
  0
VERTEX
  8
図枠
  5
3F8
 10
70.0366
 20
-66.7579
 30
0.000000
  70
    32
  0
VERTEX
  8
図枠
  5
3F9
 10
70.0510
 20
-66.7611
 30
0.000000
  70
    32
  0
VERTEX
  8
図枠
  5
3FA
 10
70.0655
 20
-66.7643
 30
0.000000
  70
    32
  0
VERTEX
  8
図枠
  5
3FB
 10
70.0800
 20
-66.7675
 30
0.000000
  70
    32
  0
VERTEX
  8
図枠
  5
3FC
 10
70.0945
 20
-66.7706
 30
0.000000
  70
    32
  0
VERTEX
  8
図枠
  5
3FD
 10
70.1090
 20
-66.7738
 30
0.000000
  70
    32
  0
VERTEX
  8
図枠
  5
3FE
 10
70.1235
 20
-66.7769
 30
0.000000
  70
    32
  0
VERTEX
  8
図枠
  5
3FF
 10
70.1380
 20
-66.7800
 30
0.000000
  70
    32
  0
VERTEX
  8
図枠
  5
400
 10
70.1525
 20
-66.7831
 30
0.000000
  70
    32
  0
VERTEX
  8
図枠
  5
401
 10
70.1670
 20
-66.7862
 30
0.000000
  70
    32
  0
VERTEX
  8
図枠
  5
402
 10
70.1816
 20
-66.7893
 30
0.000000
  70
    32
  0
VERTEX
  8
図枠
  5
403
 10
70.1961
 20
-66.7923
 30
0.000000
  70
    32
  0
VERTEX
  8
図枠
  5
404
 10
70.2107
 20
-66.7954
 30
0.000000
  70
    32
  0
VERTEX
  8
図枠
  5
405
 10
70.2252
 20
-66.7984
 30
0.000000
  70
    32
  0
VERTEX
  8
図枠
  5
406
 10
70.2398
 20
-66.8014
 30
0.000000
  70
    32
  0
VERTEX
  8
図枠
  5
407
 10
70.2544
 20
-66.8044
 30
0.000000
  70
    32
  0
VERTEX
  8
図枠
  5
408
 10
70.2690
 20
-66.8074
 30
0.000000
  70
    32
  0
VERTEX
  8
図枠
  5
409
 10
70.2836
 20
-66.8104
 30
0.000000
  70
    32
  0
VERTEX
  8
図枠
  5
40A
 10
70.2982
 20
-66.8134
 30
0.000000
  70
    32
  0
VERTEX
  8
図枠
  5
40B
 10
70.3128
 20
-66.8163
 30
0.000000
  70
    32
  0
VERTEX
  8
図枠
  5
40C
 10
70.3274
 20
-66.8192
 30
0.000000
  70
    32
  0
VERTEX
  8
図枠
  5
40D
 10
70.3421
 20
-66.8222
 30
0.000000
  70
    32
  0
VERTEX
  8
図枠
  5
40E
 10
70.3567
 20
-66.8251
 30
0.000000
  70
    32
  0
VERTEX
  8
図枠
  5
40F
 10
70.3713
 20
-66.8280
 30
0.000000
  70
    32
  0
VERTEX
  8
図枠
  5
410
 10
70.3860
 20
-66.8309
 30
0.000000
  70
    32
  0
VERTEX
  8
図枠
  5
411
 10
70.4006
 20
-66.8338
 30
0.000000
  70
    32
  0
VERTEX
  8
図枠
  5
412
 10
70.4153
 20
-66.8366
 30
0.000000
  70
    32
  0
VERTEX
  8
図枠
  5
413
 10
70.4300
 20
-66.8395
 30
0.000000
  70
    32
  0
VERTEX
  8
図枠
  5
414
 10
70.4447
 20
-66.8423
 30
0.000000
  70
    32
  0
VERTEX
  8
図枠
  5
415
 10
70.4594
 20
-66.8452
 30
0.000000
  70
    32
  0
VERTEX
  8
図枠
  5
416
 10
70.4740
 20
-66.8480
 30
0.000000
  70
    32
  0
VERTEX
  8
図枠
  5
417
 10
70.4887
 20
-66.8508
 30
0.000000
  70
    32
  0
VERTEX
  8
図枠
  5
418
 10
70.5035
 20
-66.8536
 30
0.000000
  70
    32
  0
VERTEX
  8
図枠
  5
419
 10
70.5182
 20
-66.8564
 30
0.000000
  70
    32
  0
VERTEX
  8
図枠
  5
41A
 10
70.5329
 20
-66.8592
 30
0.000000
  70
    32
  0
VERTEX
  8
図枠
  5
41B
 10
70.5476
 20
-66.8620
 30
0.000000
  70
    32
  0
VERTEX
  8
図枠
  5
41C
 10
70.5623
 20
-66.8647
 30
0.000000
  70
    32
  0
VERTEX
  8
図枠
  5
41D
 10
70.5771
 20
-66.8675
 30
0.000000
  70
    32
  0
VERTEX
  8
図枠
  5
41E
 10
70.5918
 20
-66.8702
 30
0.000000
  70
    32
  0
VERTEX
  8
図枠
  5
41F
 10
70.6066
 20
-66.8730
 30
0.000000
  70
    32
  0
VERTEX
  8
図枠
  5
420
 10
70.6213
 20
-66.8757
 30
0.000000
  70
    32
  0
VERTEX
  8
図枠
  5
421
 10
70.6361
 20
-66.8784
 30
0.000000
  70
    32
  0
VERTEX
  8
図枠
  5
422
 10
70.6508
 20
-66.8811
 30
0.000000
  70
    32
  0
VERTEX
  8
図枠
  5
423
 10
70.6656
 20
-66.8838
 30
0.000000
  70
    32
  0
VERTEX
  8
図枠
  5
424
 10
70.6804
 20
-66.8865
 30
0.000000
  70
    32
  0
VERTEX
  8
図枠
  5
425
 10
70.6952
 20
-66.8892
 30
0.000000
  70
    32
  0
VERTEX
  8
図枠
  5
426
 10
70.7100
 20
-66.8919
 30
0.000000
  70
    32
  0
VERTEX
  8
図枠
  5
427
 10
70.7247
 20
-66.8945
 30
0.000000
  70
    32
  0
VERTEX
  8
図枠
  5
428
 10
70.7395
 20
-66.8972
 30
0.000000
  70
    32
  0
VERTEX
  8
図枠
  5
429
 10
70.7543
 20
-66.8999
 30
0.000000
  70
    32
  0
VERTEX
  8
図枠
  5
42A
 10
70.7691
 20
-66.9025
 30
0.000000
  70
    32
  0
VERTEX
  8
図枠
  5
42B
 10
70.7839
 20
-66.9051
 30
0.000000
  70
    32
  0
VERTEX
  8
図枠
  5
42C
 10
70.7988
 20
-66.9078
 30
0.000000
  70
    32
  0
VERTEX
  8
図枠
  5
42D
 10
70.8136
 20
-66.9104
 30
0.000000
  70
    32
  0
VERTEX
  8
図枠
  5
42E
 10
70.8284
 20
-66.9130
 30
0.000000
  70
    32
  0
VERTEX
  8
図枠
  5
42F
 10
70.8432
 20
-66.9156
 30
0.000000
  70
    32
  0
VERTEX
  8
図枠
  5
430
 10
70.8580
 20
-66.9183
 30
0.000000
  70
    32
  0
VERTEX
  8
図枠
  5
431
 10
70.8729
 20
-66.9209
 30
0.000000
  70
    32
  0
VERTEX
  8
図枠
  5
432
 10
70.8877
 20
-66.9235
 30
0.000000
  70
    32
  0
VERTEX
  8
図枠
  5
433
 10
70.9025
 20
-66.9261
 30
0.000000
  70
    32
  0
VERTEX
  8
図枠
  5
434
 10
70.9174
 20
-66.9286
 30
0.000000
  70
    32
  0
VERTEX
  8
図枠
  5
435
 10
70.9322
 20
-66.9312
 30
0.000000
  70
    32
  0
VERTEX
  8
図枠
  5
436
 10
70.9471
 20
-66.9338
 30
0.000000
  70
    32
  0
VERTEX
  8
図枠
  5
437
 10
70.9619
 20
-66.9364
 30
0.000000
  70
    32
  0
VERTEX
  8
図枠
  5
438
 10
70.9768
 20
-66.9389
 30
0.000000
  70
    32
  0
VERTEX
  8
図枠
  5
439
 10
70.9916
 20
-66.9415
 30
0.000000
  70
    32
  0
VERTEX
  8
図枠
  5
43A
 10
71.0065
 20
-66.9441
 30
0.000000
  70
    32
  0
VERTEX
  8
図枠
  5
43B
 10
71.0214
 20
-66.9466
 30
0.000000
  70
    32
  0
VERTEX
  8
図枠
  5
43C
 10
71.0362
 20
-66.9492
 30
0.000000
  70
    32
  0
VERTEX
  8
図枠
  5
43D
 10
71.0511
 20
-66.9517
 30
0.000000
  70
    32
  0
VERTEX
  8
図枠
  5
43E
 10
71.0659
 20
-66.9543
 30
0.000000
  70
    32
  0
VERTEX
  8
図枠
  5
43F
 10
71.0808
 20
-66.9568
 30
0.000000
  70
    32
  0
VERTEX
  8
図枠
  5
440
 10
71.0957
 20
-66.9593
 30
0.000000
  70
    32
  0
VERTEX
  8
図枠
  5
441
 10
71.1106
 20
-66.9619
 30
0.000000
  70
    32
  0
VERTEX
  8
図枠
  5
442
 10
71.1254
 20
-66.9644
 30
0.000000
  70
    32
  0
VERTEX
  8
図枠
  5
443
 10
71.1403
 20
-66.9669
 30
0.000000
  70
    32
  0
VERTEX
  8
図枠
  5
444
 10
71.1552
 20
-66.9695
 30
0.000000
  70
    32
  0
VERTEX
  8
図枠
  5
445
 10
71.1701
 20
-66.9720
 30
0.000000
  70
    32
  0
VERTEX
  8
図枠
  5
446
 10
71.1849
 20
-66.9745
 30
0.000000
  70
    32
  0
VERTEX
  8
図枠
  5
447
 10
71.1998
 20
-66.9770
 30
0.000000
  70
    32
  0
VERTEX
  8
図枠
  5
448
 10
71.2147
 20
-66.9796
 30
0.000000
  70
    32
  0
VERTEX
  8
図枠
  5
449
 10
71.2296
 20
-66.9821
 30
0.000000
  70
    32
  0
VERTEX
  8
図枠
  5
44A
 10
71.2445
 20
-66.9846
 30
0.000000
  70
    32
  0
VERTEX
  8
図枠
  5
44B
 10
71.2594
 20
-66.9871
 30
0.000000
  70
    32
  0
VERTEX
  8
図枠
  5
44C
 10
71.2742
 20
-66.9896
 30
0.000000
  70
    32
  0
VERTEX
  8
図枠
  5
44D
 10
71.2891
 20
-66.9922
 30
0.000000
  70
    32
  0
VERTEX
  8
図枠
  5
44E
 10
71.3040
 20
-66.9947
 30
0.000000
  70
    32
  0
VERTEX
  8
図枠
  5
44F
 10
71.3189
 20
-66.9972
 30
0.000000
  70
    32
  0
VERTEX
  8
図枠
  5
450
 10
71.3338
 20
-66.9997
 30
0.000000
  70
    32
  0
SEQEND
  8
図枠
  5
451
  0
CIRCLE
  5
123
  8
図枠
 10
70.072227231400007
 20
-48.479688639700001
 30
0.0
 40
1.151884799999999
  0
INSERT
  5
124
  8
0
  6
CONTINUOUS
  2
*U54
 10
0.0
 20
0.0
 30
0.0
  0
INSERT
  5
125
  8
0
  6
CONTINUOUS
  2
*U55
 10
0.0
 20
0.0
 30
0.0
  0
LINE
  5
126
  8
図枠
 10
79.945720594600004
 20
-46.175919039700013
 30
0.0
 11
79.945720594600004
 21
-50.783458239700003
 31
0.0
  0
LINE
  5
127
  8
図枠
 10
73.107595997299995
 20
-66.039794080100009
 30
0.0
 11
75.716401757299991
 21
-66.039794080100009
 31
0.0
  0
LINE
  5
128
  8
図枠
 10
57.206715277299999
 20
-66.599738080099996
 30
0.0
 11
57.206715277299999
 21
-65.399858080100003
 31
0.0
  0
LINE
  5
129
  8
図枠
 10
58.406595277299992
 20
-62.600138080100002
 30
0.0
 11
55.206915277299998
 21
-62.600138080100002
 31
0.0
  0
POLYLINE
  8
図枠
  5
452
  66
     1
 10
0.000000
 20
0.000000
 30
0.000000
  70
     8
  0
VERTEX
  8
図枠
  5
453
 10
66.8817
 20
-64.9101
 30
0.000000
  70
    32
  0
VERTEX
  8
図枠
  5
454
 10
66.8870
 20
-64.9160
 30
0.000000
  70
    32
  0
VERTEX
  8
図枠
  5
455
 10
66.8922
 20
-64.9219
 30
0.000000
  70
    32
  0
VERTEX
  8
図枠
  5
456
 10
66.8975
 20
-64.9278
 30
0.000000
  70
    32
  0
VERTEX
  8
図枠
  5
457
 10
66.9028
 20
-64.9337
 30
0.000000
  70
    32
  0
VERTEX
  8
図枠
  5
458
 10
66.9081
 20
-64.9396
 30
0.000000
  70
    32
  0
VERTEX
  8
図枠
  5
459
 10
66.9134
 20
-64.9455
 30
0.000000
  70
    32
  0
VERTEX
  8
図枠
  5
45A
 10
66.9186
 20
-64.9513
 30
0.000000
  70
    32
  0
VERTEX
  8
図枠
  5
45B
 10
66.9239
 20
-64.9572
 30
0.000000
  70
    32
  0
VERTEX
  8
図枠
  5
45C
 10
66.9292
 20
-64.9631
 30
0.000000
  70
    32
  0
VERTEX
  8
図枠
  5
45D
 10
66.9345
 20
-64.9690
 30
0.000000
  70
    32
  0
VERTEX
  8
図枠
  5
45E
 10
66.9398
 20
-64.9749
 30
0.000000
  70
    32
  0
VERTEX
  8
図枠
  5
45F
 10
66.9450
 20
-64.9808
 30
0.000000
  70
    32
  0
VERTEX
  8
図枠
  5
460
 10
66.9503
 20
-64.9866
 30
0.000000
  70
    32
  0
VERTEX
  8
図枠
  5
461
 10
66.9556
 20
-64.9925
 30
0.000000
  70
    32
  0
VERTEX
  8
図枠
  5
462
 10
66.9609
 20
-64.9984
 30
0.000000
  70
    32
  0
VERTEX
  8
図枠
  5
463
 10
66.9662
 20
-65.0043
 30
0.000000
  70
    32
  0
VERTEX
  8
図枠
  5
464
 10
66.9715
 20
-65.0101
 30
0.000000
  70
    32
  0
VERTEX
  8
図枠
  5
465
 10
66.9768
 20
-65.0160
 30
0.000000
  70
    32
  0
VERTEX
  8
図枠
  5
466
 10
66.9820
 20
-65.0219
 30
0.000000
  70
    32
  0
VERTEX
  8
図枠
  5
467
 10
66.9873
 20
-65.0277
 30
0.000000
  70
    32
  0
VERTEX
  8
図枠
  5
468
 10
66.9926
 20
-65.0336
 30
0.000000
  70
    32
  0
VERTEX
  8
図枠
  5
469
 10
66.9979
 20
-65.0395
 30
0.000000
  70
    32
  0
VERTEX
  8
図枠
  5
46A
 10
67.0032
 20
-65.0453
 30
0.000000
  70
    32
  0
VERTEX
  8
図枠
  5
46B
 10
67.0085
 20
-65.0512
 30
0.000000
  70
    32
  0
VERTEX
  8
図枠
  5
46C
 10
67.0138
 20
-65.0571
 30
0.000000
  70
    32
  0
VERTEX
  8
図枠
  5
46D
 10
67.0191
 20
-65.0629
 30
0.000000
  70
    32
  0
VERTEX
  8
図枠
  5
46E
 10
67.0244
 20
-65.0688
 30
0.000000
  70
    32
  0
VERTEX
  8
図枠
  5
46F
 10
67.0297
 20
-65.0746
 30
0.000000
  70
    32
  0
VERTEX
  8
図枠
  5
470
 10
67.0350
 20
-65.0805
 30
0.000000
  70
    32
  0
VERTEX
  8
図枠
  5
471
 10
67.0403
 20
-65.0863
 30
0.000000
  70
    32
  0
VERTEX
  8
図枠
  5
472
 10
67.0456
 20
-65.0922
 30
0.000000
  70
    32
  0
VERTEX
  8
図枠
  5
473
 10
67.0509
 20
-65.0980
 30
0.000000
  70
    32
  0
VERTEX
  8
図枠
  5
474
 10
67.0562
 20
-65.1039
 30
0.000000
  70
    32
  0
VERTEX
  8
図枠
  5
475
 10
67.0615
 20
-65.1097
 30
0.000000
  70
    32
  0
VERTEX
  8
図枠
  5
476
 10
67.0668
 20
-65.1155
 30
0.000000
  70
    32
  0
VERTEX
  8
図枠
  5
477
 10
67.0722
 20
-65.1214
 30
0.000000
  70
    32
  0
VERTEX
  8
図枠
  5
478
 10
67.0775
 20
-65.1272
 30
0.000000
  70
    32
  0
VERTEX
  8
図枠
  5
479
 10
67.0828
 20
-65.1330
 30
0.000000
  70
    32
  0
VERTEX
  8
図枠
  5
47A
 10
67.0881
 20
-65.1388
 30
0.000000
  70
    32
  0
VERTEX
  8
図枠
  5
47B
 10
67.0934
 20
-65.1446
 30
0.000000
  70
    32
  0
VERTEX
  8
図枠
  5
47C
 10
67.0987
 20
-65.1505
 30
0.000000
  70
    32
  0
VERTEX
  8
図枠
  5
47D
 10
67.1041
 20
-65.1563
 30
0.000000
  70
    32
  0
VERTEX
  8
図枠
  5
47E
 10
67.1094
 20
-65.1621
 30
0.000000
  70
    32
  0
VERTEX
  8
図枠
  5
47F
 10
67.1147
 20
-65.1679
 30
0.000000
  70
    32
  0
VERTEX
  8
図枠
  5
480
 10
67.1201
 20
-65.1737
 30
0.000000
  70
    32
  0
VERTEX
  8
図枠
  5
481
 10
67.1254
 20
-65.1795
 30
0.000000
  70
    32
  0
VERTEX
  8
図枠
  5
482
 10
67.1307
 20
-65.1853
 30
0.000000
  70
    32
  0
VERTEX
  8
図枠
  5
483
 10
67.1361
 20
-65.1911
 30
0.000000
  70
    32
  0
VERTEX
  8
図枠
  5
484
 10
67.1414
 20
-65.1968
 30
0.000000
  70
    32
  0
VERTEX
  8
図枠
  5
485
 10
67.1468
 20
-65.2026
 30
0.000000
  70
    32
  0
VERTEX
  8
図枠
  5
486
 10
67.1521
 20
-65.2084
 30
0.000000
  70
    32
  0
VERTEX
  8
図枠
  5
487
 10
67.1575
 20
-65.2142
 30
0.000000
  70
    32
  0
VERTEX
  8
図枠
  5
488
 10
67.1628
 20
-65.2199
 30
0.000000
  70
    32
  0
VERTEX
  8
図枠
  5
489
 10
67.1682
 20
-65.2257
 30
0.000000
  70
    32
  0
VERTEX
  8
図枠
  5
48A
 10
67.1735
 20
-65.2314
 30
0.000000
  70
    32
  0
VERTEX
  8
図枠
  5
48B
 10
67.1789
 20
-65.2372
 30
0.000000
  70
    32
  0
VERTEX
  8
図枠
  5
48C
 10
67.1843
 20
-65.2429
 30
0.000000
  70
    32
  0
VERTEX
  8
図枠
  5
48D
 10
67.1896
 20
-65.2487
 30
0.000000
  70
    32
  0
VERTEX
  8
図枠
  5
48E
 10
67.1950
 20
-65.2544
 30
0.000000
  70
    32
  0
VERTEX
  8
図枠
  5
48F
 10
67.2004
 20
-65.2601
 30
0.000000
  70
    32
  0
VERTEX
  8
図枠
  5
490
 10
67.2058
 20
-65.2659
 30
0.000000
  70
    32
  0
VERTEX
  8
図枠
  5
491
 10
67.2111
 20
-65.2716
 30
0.000000
  70
    32
  0
VERTEX
  8
図枠
  5
492
 10
67.2165
 20
-65.2773
 30
0.000000
  70
    32
  0
VERTEX
  8
図枠
  5
493
 10
67.2219
 20
-65.2830
 30
0.000000
  70
    32
  0
VERTEX
  8
図枠
  5
494
 10
67.2273
 20
-65.2887
 30
0.000000
  70
    32
  0
VERTEX
  8
図枠
  5
495
 10
67.2327
 20
-65.2944
 30
0.000000
  70
    32
  0
VERTEX
  8
図枠
  5
496
 10
67.2381
 20
-65.3001
 30
0.000000
  70
    32
  0
VERTEX
  8
図枠
  5
497
 10
67.2435
 20
-65.3058
 30
0.000000
  70
    32
  0
VERTEX
  8
図枠
  5
498
 10
67.2489
 20
-65.3115
 30
0.000000
  70
    32
  0
VERTEX
  8
図枠
  5
499
 10
67.2543
 20
-65.3171
 30
0.000000
  70
    32
  0
VERTEX
  8
図枠
  5
49A
 10
67.2597
 20
-65.3228
 30
0.000000
  70
    32
  0
VERTEX
  8
図枠
  5
49B
 10
67.2652
 20
-65.3285
 30
0.000000
  70
    32
  0
VERTEX
  8
図枠
  5
49C
 10
67.2706
 20
-65.3341
 30
0.000000
  70
    32
  0
VERTEX
  8
図枠
  5
49D
 10
67.2760
 20
-65.3398
 30
0.000000
  70
    32
  0
VERTEX
  8
図枠
  5
49E
 10
67.2814
 20
-65.3454
 30
0.000000
  70
    32
  0
VERTEX
  8
図枠
  5
49F
 10
67.2869
 20
-65.3511
 30
0.000000
  70
    32
  0
VERTEX
  8
図枠
  5
4A0
 10
67.2923
 20
-65.3567
 30
0.000000
  70
    32
  0
VERTEX
  8
図枠
  5
4A1
 10
67.2978
 20
-65.3623
 30
0.000000
  70
    32
  0
VERTEX
  8
図枠
  5
4A2
 10
67.3032
 20
-65.3679
 30
0.000000
  70
    32
  0
VERTEX
  8
図枠
  5
4A3
 10
67.3087
 20
-65.3735
 30
0.000000
  70
    32
  0
VERTEX
  8
図枠
  5
4A4
 10
67.3141
 20
-65.3791
 30
0.000000
  70
    32
  0
VERTEX
  8
図枠
  5
4A5
 10
67.3196
 20
-65.3847
 30
0.000000
  70
    32
  0
VERTEX
  8
図枠
  5
4A6
 10
67.3250
 20
-65.3903
 30
0.000000
  70
    32
  0
VERTEX
  8
図枠
  5
4A7
 10
67.3305
 20
-65.3959
 30
0.000000
  70
    32
  0
VERTEX
  8
図枠
  5
4A8
 10
67.3360
 20
-65.4015
 30
0.000000
  70
    32
  0
VERTEX
  8
図枠
  5
4A9
 10
67.3415
 20
-65.4070
 30
0.000000
  70
    32
  0
VERTEX
  8
図枠
  5
4AA
 10
67.3469
 20
-65.4126
 30
0.000000
  70
    32
  0
VERTEX
  8
図枠
  5
4AB
 10
67.3524
 20
-65.4181
 30
0.000000
  70
    32
  0
VERTEX
  8
図枠
  5
4AC
 10
67.3579
 20
-65.4237
 30
0.000000
  70
    32
  0
VERTEX
  8
図枠
  5
4AD
 10
67.3634
 20
-65.4292
 30
0.000000
  70
    32
  0
VERTEX
  8
図枠
  5
4AE
 10
67.3689
 20
-65.4347
 30
0.000000
  70
    32
  0
VERTEX
  8
図枠
  5
4AF
 10
67.3744
 20
-65.4403
 30
0.000000
  70
    32
  0
VERTEX
  8
図枠
  5
4B0
 10
67.3799
 20
-65.4458
 30
0.000000
  70
    32
  0
VERTEX
  8
図枠
  5
4B1
 10
67.3855
 20
-65.4513
 30
0.000000
  70
    32
  0
VERTEX
  8
図枠
  5
4B2
 10
67.3910
 20
-65.4568
 30
0.000000
  70
    32
  0
VERTEX
  8
図枠
  5
4B3
 10
67.3965
 20
-65.4623
 30
0.000000
  70
    32
  0
VERTEX
  8
図枠
  5
4B4
 10
67.4020
 20
-65.4677
 30
0.000000
  70
    32
  0
VERTEX
  8
図枠
  5
4B5
 10
67.4076
 20
-65.4732
 30
0.000000
  70
    32
  0
VERTEX
  8
図枠
  5
4B6
 10
67.4131
 20
-65.4787
 30
0.000000
  70
    32
  0
VERTEX
  8
図枠
  5
4B7
 10
67.4187
 20
-65.4841
 30
0.000000
  70
    32
  0
VERTEX
  8
図枠
  5
4B8
 10
67.4242
 20
-65.4895
 30
0.000000
  70
    32
  0
VERTEX
  8
図枠
  5
4B9
 10
67.4298
 20
-65.4950
 30
0.000000
  70
    32
  0
VERTEX
  8
図枠
  5
4BA
 10
67.4354
 20
-65.5004
 30
0.000000
  70
    32
  0
VERTEX
  8
図枠
  5
4BB
 10
67.4409
 20
-65.5058
 30
0.000000
  70
    32
  0
VERTEX
  8
図枠
  5
4BC
 10
67.4465
 20
-65.5112
 30
0.000000
  70
    32
  0
VERTEX
  8
図枠
  5
4BD
 10
67.4521
 20
-65.5166
 30
0.000000
  70
    32
  0
VERTEX
  8
図枠
  5
4BE
 10
67.4577
 20
-65.5220
 30
0.000000
  70
    32
  0
VERTEX
  8
図枠
  5
4BF
 10
67.4633
 20
-65.5274
 30
0.000000
  70
    32
  0
VERTEX
  8
図枠
  5
4C0
 10
67.4689
 20
-65.5328
 30
0.000000
  70
    32
  0
VERTEX
  8
図枠
  5
4C1
 10
67.4745
 20
-65.5381
 30
0.000000
  70
    32
  0
VERTEX
  8
図枠
  5
4C2
 10
67.4801
 20
-65.5435
 30
0.000000
  70
    32
  0
VERTEX
  8
図枠
  5
4C3
 10
67.4857
 20
-65.5488
 30
0.000000
  70
    32
  0
VERTEX
  8
図枠
  5
4C4
 10
67.4913
 20
-65.5541
 30
0.000000
  70
    32
  0
VERTEX
  8
図枠
  5
4C5
 10
67.4970
 20
-65.5595
 30
0.000000
  70
    32
  0
VERTEX
  8
図枠
  5
4C6
 10
67.5026
 20
-65.5648
 30
0.000000
  70
    32
  0
VERTEX
  8
図枠
  5
4C7
 10
67.5082
 20
-65.5701
 30
0.000000
  70
    32
  0
VERTEX
  8
図枠
  5
4C8
 10
67.5139
 20
-65.5754
 30
0.000000
  70
    32
  0
VERTEX
  8
図枠
  5
4C9
 10
67.5195
 20
-65.5806
 30
0.000000
  70
    32
  0
VERTEX
  8
図枠
  5
4CA
 10
67.5252
 20
-65.5859
 30
0.000000
  70
    32
  0
VERTEX
  8
図枠
  5
4CB
 10
67.5309
 20
-65.5912
 30
0.000000
  70
    32
  0
VERTEX
  8
図枠
  5
4CC
 10
67.5365
 20
-65.5964
 30
0.000000
  70
    32
  0
VERTEX
  8
図枠
  5
4CD
 10
67.5422
 20
-65.6017
 30
0.000000
  70
    32
  0
VERTEX
  8
図枠
  5
4CE
 10
67.5479
 20
-65.6069
 30
0.000000
  70
    32
  0
VERTEX
  8
図枠
  5
4CF
 10
67.5536
 20
-65.6121
 30
0.000000
  70
    32
  0
VERTEX
  8
図枠
  5
4D0
 10
67.5593
 20
-65.6173
 30
0.000000
  70
    32
  0
VERTEX
  8
図枠
  5
4D1
 10
67.5650
 20
-65.6225
 30
0.000000
  70
    32
  0
VERTEX
  8
図枠
  5
4D2
 10
67.5707
 20
-65.6277
 30
0.000000
  70
    32
  0
SEQEND
  8
図枠
  5
4D3
  0
LINE
  5
12B
  8
図枠
 10
64.134507277299988
 20
-64.039994080100001
 30
0.0
 11
68.134107277299989
 21
-64.039994080100001
 31
0.0
  0
INSERT
  5
12C
  8
0
  6
CONTINUOUS
  2
*U56
 10
0.0
 20
0.0
 30
0.0
  0
LINE
  5
12D
  8
図枠
 10
54.286124316400013
 20
-64.199978080099996
 30
0.0
 11
54.286124316400013
 21
-65.399858080100003
 31
0.0
  0
LINE
  5
12E
  8
図枠
 10
55.206915277299998
 20
-64.199978080099996
 30
0.0
 11
54.286124316400013
 21
-64.199978080099996
 31
0.0
  0
INSERT
  5
12F
  8
0
  6
CONTINUOUS
  2
*U57
 10
0.0
 20
0.0
 30
0.0
  0
LINE
  5
130
  8
図枠
 10
70.53386727729999
 20
-63.800018080100003
 30
0.0
 11
71.33378727729999
 21
-62.600138080100002
 31
0.0
  0
INSERT
  5
131
  8
0
  6
CONTINUOUS
  2
*U58
 10
0.0
 20
0.0
 30
0.0
  0
POLYLINE
  8
図枠
  5
4D4
  66
     1
 10
0.000000
 20
0.000000
 30
0.000000
  70
     8
  0
VERTEX
  8
図枠
  5
4D5
 10
68.5011
 20
-67.5087
 30
0.000000
  70
    32
  0
VERTEX
  8
図枠
  5
4D6
 10
68.5226
 20
-67.5156
 30
0.000000
  70
    32
  0
VERTEX
  8
図枠
  5
4D7
 10
68.5442
 20
-67.5224
 30
0.000000
  70
    32
  0
VERTEX
  8
図枠
  5
4D8
 10
68.5658
 20
-67.5292
 30
0.000000
  70
    32
  0
VERTEX
  8
図枠
  5
4D9
 10
68.5873
 20
-67.5360
 30
0.000000
  70
    32
  0
VERTEX
  8
図枠
  5
4DA
 10
68.6089
 20
-67.5427
 30
0.000000
  70
    32
  0
VERTEX
  8
図枠
  5
4DB
 10
68.6306
 20
-67.5494
 30
0.000000
  70
    32
  0
VERTEX
  8
図枠
  5
4DC
 10
68.6522
 20
-67.5561
 30
0.000000
  70
    32
  0
VERTEX
  8
図枠
  5
4DD
 10
68.6739
 20
-67.5627
 30
0.000000
  70
    32
  0
VERTEX
  8
図枠
  5
4DE
 10
68.6955
 20
-67.5693
 30
0.000000
  70
    32
  0
VERTEX
  8
図枠
  5
4DF
 10
68.7172
 20
-67.5759
 30
0.000000
  70
    32
  0
VERTEX
  8
図枠
  5
4E0
 10
68.7389
 20
-67.5824
 30
0.000000
  70
    32
  0
VERTEX
  8
図枠
  5
4E1
 10
68.7607
 20
-67.5889
 30
0.000000
  70
    32
  0
VERTEX
  8
図枠
  5
4E2
 10
68.7824
 20
-67.5954
 30
0.000000
  70
    32
  0
VERTEX
  8
図枠
  5
4E3
 10
68.8042
 20
-67.6019
 30
0.000000
  70
    32
  0
VERTEX
  8
図枠
  5
4E4
 10
68.8260
 20
-67.6083
 30
0.000000
  70
    32
  0
VERTEX
  8
図枠
  5
4E5
 10
68.8477
 20
-67.6147
 30
0.000000
  70
    32
  0
VERTEX
  8
図枠
  5
4E6
 10
68.8696
 20
-67.6210
 30
0.000000
  70
    32
  0
VERTEX
  8
図枠
  5
4E7
 10
68.8914
 20
-67.6274
 30
0.000000
  70
    32
  0
VERTEX
  8
図枠
  5
4E8
 10
68.9132
 20
-67.6337
 30
0.000000
  70
    32
  0
VERTEX
  8
図枠
  5
4E9
 10
68.9351
 20
-67.6399
 30
0.000000
  70
    32
  0
VERTEX
  8
図枠
  5
4EA
 10
68.9569
 20
-67.6462
 30
0.000000
  70
    32
  0
VERTEX
  8
図枠
  5
4EB
 10
68.9788
 20
-67.6524
 30
0.000000
  70
    32
  0
VERTEX
  8
図枠
  5
4EC
 10
69.0007
 20
-67.6586
 30
0.000000
  70
    32
  0
VERTEX
  8
図枠
  5
4ED
 10
69.0227
 20
-67.6647
 30
0.000000
  70
    32
  0
VERTEX
  8
図枠
  5
4EE
 10
69.0446
 20
-67.6708
 30
0.000000
  70
    32
  0
VERTEX
  8
図枠
  5
4EF
 10
69.0665
 20
-67.6769
 30
0.000000
  70
    32
  0
VERTEX
  8
図枠
  5
4F0
 10
69.0885
 20
-67.6830
 30
0.000000
  70
    32
  0
VERTEX
  8
図枠
  5
4F1
 10
69.1105
 20
-67.6891
 30
0.000000
  70
    32
  0
VERTEX
  8
図枠
  5
4F2
 10
69.1325
 20
-67.6951
 30
0.000000
  70
    32
  0
VERTEX
  8
図枠
  5
4F3
 10
69.1545
 20
-67.7011
 30
0.000000
  70
    32
  0
VERTEX
  8
図枠
  5
4F4
 10
69.1765
 20
-67.7070
 30
0.000000
  70
    32
  0
VERTEX
  8
図枠
  5
4F5
 10
69.1985
 20
-67.7130
 30
0.000000
  70
    32
  0
VERTEX
  8
図枠
  5
4F6
 10
69.2206
 20
-67.7189
 30
0.000000
  70
    32
  0
VERTEX
  8
図枠
  5
4F7
 10
69.2426
 20
-67.7248
 30
0.000000
  70
    32
  0
VERTEX
  8
図枠
  5
4F8
 10
69.2647
 20
-67.7307
 30
0.000000
  70
    32
  0
VERTEX
  8
図枠
  5
4F9
 10
69.2868
 20
-67.7365
 30
0.000000
  70
    32
  0
VERTEX
  8
図枠
  5
4FA
 10
69.3089
 20
-67.7423
 30
0.000000
  70
    32
  0
VERTEX
  8
図枠
  5
4FB
 10
69.3310
 20
-67.7481
 30
0.000000
  70
    32
  0
VERTEX
  8
図枠
  5
4FC
 10
69.3531
 20
-67.7539
 30
0.000000
  70
    32
  0
VERTEX
  8
図枠
  5
4FD
 10
69.3753
 20
-67.7596
 30
0.000000
  70
    32
  0
VERTEX
  8
図枠
  5
4FE
 10
69.3974
 20
-67.7654
 30
0.000000
  70
    32
  0
VERTEX
  8
図枠
  5
4FF
 10
69.4196
 20
-67.7711
 30
0.000000
  70
    32
  0
VERTEX
  8
図枠
  5
500
 10
69.4418
 20
-67.7767
 30
0.000000
  70
    32
  0
VERTEX
  8
図枠
  5
501
 10
69.4639
 20
-67.7824
 30
0.000000
  70
    32
  0
VERTEX
  8
図枠
  5
502
 10
69.4861
 20
-67.7880
 30
0.000000
  70
    32
  0
VERTEX
  8
図枠
  5
503
 10
69.5084
 20
-67.7936
 30
0.000000
  70
    32
  0
VERTEX
  8
図枠
  5
504
 10
69.5306
 20
-67.7992
 30
0.000000
  70
    32
  0
VERTEX
  8
図枠
  5
505
 10
69.5528
 20
-67.8048
 30
0.000000
  70
    32
  0
VERTEX
  8
図枠
  5
506
 10
69.5751
 20
-67.8103
 30
0.000000
  70
    32
  0
VERTEX
  8
図枠
  5
507
 10
69.5973
 20
-67.8159
 30
0.000000
  70
    32
  0
VERTEX
  8
図枠
  5
508
 10
69.6196
 20
-67.8214
 30
0.000000
  70
    32
  0
VERTEX
  8
図枠
  5
509
 10
69.6419
 20
-67.8268
 30
0.000000
  70
    32
  0
VERTEX
  8
図枠
  5
50A
 10
69.6642
 20
-67.8323
 30
0.000000
  70
    32
  0
VERTEX
  8
図枠
  5
50B
 10
69.6865
 20
-67.8377
 30
0.000000
  70
    32
  0
VERTEX
  8
図枠
  5
50C
 10
69.7088
 20
-67.8432
 30
0.000000
  70
    32
  0
VERTEX
  8
図枠
  5
50D
 10
69.7311
 20
-67.8486
 30
0.000000
  70
    32
  0
VERTEX
  8
図枠
  5
50E
 10
69.7534
 20
-67.8540
 30
0.000000
  70
    32
  0
VERTEX
  8
図枠
  5
50F
 10
69.7758
 20
-67.8593
 30
0.000000
  70
    32
  0
VERTEX
  8
図枠
  5
510
 10
69.7981
 20
-67.8647
 30
0.000000
  70
    32
  0
VERTEX
  8
図枠
  5
511
 10
69.8205
 20
-67.8700
 30
0.000000
  70
    32
  0
VERTEX
  8
図枠
  5
512
 10
69.8429
 20
-67.8753
 30
0.000000
  70
    32
  0
VERTEX
  8
図枠
  5
513
 10
69.8653
 20
-67.8806
 30
0.000000
  70
    32
  0
VERTEX
  8
図枠
  5
514
 10
69.8877
 20
-67.8859
 30
0.000000
  70
    32
  0
VERTEX
  8
図枠
  5
515
 10
69.9101
 20
-67.8911
 30
0.000000
  70
    32
  0
VERTEX
  8
図枠
  5
516
 10
69.9325
 20
-67.8964
 30
0.000000
  70
    32
  0
VERTEX
  8
図枠
  5
517
 10
69.9549
 20
-67.9016
 30
0.000000
  70
    32
  0
VERTEX
  8
図枠
  5
518
 10
69.9773
 20
-67.9068
 30
0.000000
  70
    32
  0
VERTEX
  8
図枠
  5
519
 10
69.9998
 20
-67.9120
 30
0.000000
  70
    32
  0
VERTEX
  8
図枠
  5
51A
 10
70.0222
 20
-67.9172
 30
0.000000
  70
    32
  0
VERTEX
  8
図枠
  5
51B
 10
70.0447
 20
-67.9224
 30
0.000000
  70
    32
  0
VERTEX
  8
図枠
  5
51C
 10
70.0671
 20
-67.9275
 30
0.000000
  70
    32
  0
VERTEX
  8
図枠
  5
51D
 10
70.0896
 20
-67.9326
 30
0.000000
  70
    32
  0
VERTEX
  8
図枠
  5
51E
 10
70.1121
 20
-67.9378
 30
0.000000
  70
    32
  0
VERTEX
  8
図枠
  5
51F
 10
70.1346
 20
-67.9429
 30
0.000000
  70
    32
  0
VERTEX
  8
図枠
  5
520
 10
70.1571
 20
-67.9479
 30
0.000000
  70
    32
  0
VERTEX
  8
図枠
  5
521
 10
70.1796
 20
-67.9530
 30
0.000000
  70
    32
  0
VERTEX
  8
図枠
  5
522
 10
70.2021
 20
-67.9581
 30
0.000000
  70
    32
  0
VERTEX
  8
図枠
  5
523
 10
70.2246
 20
-67.9631
 30
0.000000
  70
    32
  0
VERTEX
  8
図枠
  5
524
 10
70.2471
 20
-67.9682
 30
0.000000
  70
    32
  0
VERTEX
  8
図枠
  5
525
 10
70.2696
 20
-67.9732
 30
0.000000
  70
    32
  0
VERTEX
  8
図枠
  5
526
 10
70.2922
 20
-67.9782
 30
0.000000
  70
    32
  0
VERTEX
  8
図枠
  5
527
 10
70.3147
 20
-67.9832
 30
0.000000
  70
    32
  0
VERTEX
  8
図枠
  5
528
 10
70.3373
 20
-67.9882
 30
0.000000
  70
    32
  0
VERTEX
  8
図枠
  5
529
 10
70.3598
 20
-67.9931
 30
0.000000
  70
    32
  0
VERTEX
  8
図枠
  5
52A
 10
70.3824
 20
-67.9981
 30
0.000000
  70
    32
  0
VERTEX
  8
図枠
  5
52B
 10
70.4050
 20
-68.0031
 30
0.000000
  70
    32
  0
VERTEX
  8
図枠
  5
52C
 10
70.4275
 20
-68.0080
 30
0.000000
  70
    32
  0
VERTEX
  8
図枠
  5
52D
 10
70.4501
 20
-68.0129
 30
0.000000
  70
    32
  0
VERTEX
  8
図枠
  5
52E
 10
70.4727
 20
-68.0178
 30
0.000000
  70
    32
  0
VERTEX
  8
図枠
  5
52F
 10
70.4953
 20
-68.0227
 30
0.000000
  70
    32
  0
VERTEX
  8
図枠
  5
530
 10
70.5179
 20
-68.0276
 30
0.000000
  70
    32
  0
VERTEX
  8
図枠
  5
531
 10
70.5405
 20
-68.0325
 30
0.000000
  70
    32
  0
VERTEX
  8
図枠
  5
532
 10
70.5631
 20
-68.0374
 30
0.000000
  70
    32
  0
VERTEX
  8
図枠
  5
533
 10
70.5857
 20
-68.0423
 30
0.000000
  70
    32
  0
VERTEX
  8
図枠
  5
534
 10
70.6083
 20
-68.0471
 30
0.000000
  70
    32
  0
VERTEX
  8
図枠
  5
535
 10
70.6310
 20
-68.0520
 30
0.000000
  70
    32
  0
VERTEX
  8
図枠
  5
536
 10
70.6536
 20
-68.0568
 30
0.000000
  70
    32
  0
VERTEX
  8
図枠
  5
537
 10
70.6762
 20
-68.0617
 30
0.000000
  70
    32
  0
VERTEX
  8
図枠
  5
538
 10
70.6989
 20
-68.0665
 30
0.000000
  70
    32
  0
VERTEX
  8
図枠
  5
539
 10
70.7215
 20
-68.0713
 30
0.000000
  70
    32
  0
VERTEX
  8
図枠
  5
53A
 10
70.7441
 20
-68.0761
 30
0.000000
  70
    32
  0
VERTEX
  8
図枠
  5
53B
 10
70.7668
 20
-68.0809
 30
0.000000
  70
    32
  0
VERTEX
  8
図枠
  5
53C
 10
70.7894
 20
-68.0857
 30
0.000000
  70
    32
  0
VERTEX
  8
図枠
  5
53D
 10
70.8121
 20
-68.0905
 30
0.000000
  70
    32
  0
VERTEX
  8
図枠
  5
53E
 10
70.8348
 20
-68.0953
 30
0.000000
  70
    32
  0
VERTEX
  8
図枠
  5
53F
 10
70.8574
 20
-68.1001
 30
0.000000
  70
    32
  0
VERTEX
  8
図枠
  5
540
 10
70.8801
 20
-68.1049
 30
0.000000
  70
    32
  0
VERTEX
  8
図枠
  5
541
 10
70.9027
 20
-68.1096
 30
0.000000
  70
    32
  0
VERTEX
  8
図枠
  5
542
 10
70.9254
 20
-68.1144
 30
0.000000
  70
    32
  0
VERTEX
  8
図枠
  5
543
 10
70.9481
 20
-68.1192
 30
0.000000
  70
    32
  0
VERTEX
  8
図枠
  5
544
 10
70.9708
 20
-68.1239
 30
0.000000
  70
    32
  0
VERTEX
  8
図枠
  5
545
 10
70.9934
 20
-68.1287
 30
0.000000
  70
    32
  0
VERTEX
  8
図枠
  5
546
 10
71.0161
 20
-68.1334
 30
0.000000
  70
    32
  0
VERTEX
  8
図枠
  5
547
 10
71.0388
 20
-68.1381
 30
0.000000
  70
    32
  0
VERTEX
  8
図枠
  5
548
 10
71.0615
 20
-68.1429
 30
0.000000
  70
    32
  0
VERTEX
  8
図枠
  5
549
 10
71.0842
 20
-68.1476
 30
0.000000
  70
    32
  0
VERTEX
  8
図枠
  5
54A
 10
71.1069
 20
-68.1524
 30
0.000000
  70
    32
  0
VERTEX
  8
図枠
  5
54B
 10
71.1295
 20
-68.1571
 30
0.000000
  70
    32
  0
VERTEX
  8
図枠
  5
54C
 10
71.1522
 20
-68.1618
 30
0.000000
  70
    32
  0
VERTEX
  8
図枠
  5
54D
 10
71.1749
 20
-68.1665
 30
0.000000
  70
    32
  0
VERTEX
  8
図枠
  5
54E
 10
71.1976
 20
-68.1713
 30
0.000000
  70
    32
  0
VERTEX
  8
図枠
  5
54F
 10
71.2203
 20
-68.1760
 30
0.000000
  70
    32
  0
VERTEX
  8
図枠
  5
550
 10
71.2430
 20
-68.1807
 30
0.000000
  70
    32
  0
VERTEX
  8
図枠
  5
551
 10
71.2657
 20
-68.1854
 30
0.000000
  70
    32
  0
VERTEX
  8
図枠
  5
552
 10
71.2884
 20
-68.1901
 30
0.000000
  70
    32
  0
VERTEX
  8
図枠
  5
553
 10
71.3111
 20
-68.1949
 30
0.000000
  70
    32
  0
VERTEX
  8
図枠
  5
554
 10
71.3338
 20
-68.1996
 30
0.000000
  70
    32
  0
SEQEND
  8
図枠
  5
555
  0
LINE
  5
133
  8
図枠
 10
71.33378727729999
 20
-62.600138080100002
 30
0.0
 11
64.134507277299988
 21
-62.600138080100002
 31
0.0
  0
LINE
  5
134
  8
図枠
 10
71.33378727729999
 20
-66.999698080100003
 30
0.0
 11
71.33378727729999
 21
-68.199578080099997
 31
0.0
  0
LINE
  5
135
  8
図枠
 10
70.53386727729999
 20
-63.800018080100003
 30
0.0
 11
71.33378727729999
 21
-62.600138080100002
 31
0.0
  0
CIRCLE
  5
136
  8
図枠
 10
70.072227231400007
 20
-48.479688639700001
 30
0.0
 40
2.303769599999999
  0
LINE
  5
137
  8
図枠
  6
BORDER
 10
70.072227231400007
 20
-45.024034239700001
 30
0.0
 11
70.072227231400007
 21
-51.935343039700001
 31
0.0
  0
INSERT
  5
138
  8
0
  6
CONTINUOUS
  2
*U59
 10
0.0
 20
0.0
 30
0.0
  0
POLYLINE
  8
図枠
  5
556
  66
     1
 10
0.000000
 20
0.000000
 30
0.000000
  70
     8
  0
VERTEX
  8
図枠
  5
557
 10
64.1345
 20
-64.7153
 30
0.000000
  70
    32
  0
VERTEX
  8
図枠
  5
558
 10
64.1489
 20
-64.7286
 30
0.000000
  70
    32
  0
VERTEX
  8
図枠
  5
559
 10
64.1633
 20
-64.7419
 30
0.000000
  70
    32
  0
VERTEX
  8
図枠
  5
55A
 10
64.1777
 20
-64.7551
 30
0.000000
  70
    32
  0
VERTEX
  8
図枠
  5
55B
 10
64.1921
 20
-64.7684
 30
0.000000
  70
    32
  0
VERTEX
  8
図枠
  5
55C
 10
64.2065
 20
-64.7817
 30
0.000000
  70
    32
  0
VERTEX
  8
図枠
  5
55D
 10
64.2210
 20
-64.7950
 30
0.000000
  70
    32
  0
VERTEX
  8
図枠
  5
55E
 10
64.2354
 20
-64.8083
 30
0.000000
  70
    32
  0
VERTEX
  8
図枠
  5
55F
 10
64.2498
 20
-64.8215
 30
0.000000
  70
    32
  0
VERTEX
  8
図枠
  5
560
 10
64.2642
 20
-64.8348
 30
0.000000
  70
    32
  0
VERTEX
  8
図枠
  5
561
 10
64.2786
 20
-64.8481
 30
0.000000
  70
    32
  0
VERTEX
  8
図枠
  5
562
 10
64.2930
 20
-64.8613
 30
0.000000
  70
    32
  0
VERTEX
  8
図枠
  5
563
 10
64.3074
 20
-64.8746
 30
0.000000
  70
    32
  0
VERTEX
  8
図枠
  5
564
 10
64.3219
 20
-64.8879
 30
0.000000
  70
    32
  0
VERTEX
  8
図枠
  5
565
 10
64.3363
 20
-64.9011
 30
0.000000
  70
    32
  0
VERTEX
  8
図枠
  5
566
 10
64.3507
 20
-64.9144
 30
0.000000
  70
    32
  0
VERTEX
  8
図枠
  5
567
 10
64.3651
 20
-64.9276
 30
0.000000
  70
    32
  0
VERTEX
  8
図枠
  5
568
 10
64.3796
 20
-64.9408
 30
0.000000
  70
    32
  0
VERTEX
  8
図枠
  5
569
 10
64.3940
 20
-64.9541
 30
0.000000
  70
    32
  0
VERTEX
  8
図枠
  5
56A
 10
64.4084
 20
-64.9673
 30
0.000000
  70
    32
  0
VERTEX
  8
図枠
  5
56B
 10
64.4229
 20
-64.9805
 30
0.000000
  70
    32
  0
VERTEX
  8
図枠
  5
56C
 10
64.4373
 20
-64.9938
 30
0.000000
  70
    32
  0
VERTEX
  8
図枠
  5
56D
 10
64.4517
 20
-65.0070
 30
0.000000
  70
    32
  0
VERTEX
  8
図枠
  5
56E
 10
64.4662
 20
-65.0202
 30
0.000000
  70
    32
  0
VERTEX
  8
図枠
  5
56F
 10
64.4806
 20
-65.0334
 30
0.000000
  70
    32
  0
VERTEX
  8
図枠
  5
570
 10
64.4951
 20
-65.0466
 30
0.000000
  70
    32
  0
VERTEX
  8
図枠
  5
571
 10
64.5095
 20
-65.0598
 30
0.000000
  70
    32
  0
VERTEX
  8
図枠
  5
572
 10
64.5240
 20
-65.0730
 30
0.000000
  70
    32
  0
VERTEX
  8
図枠
  5
573
 10
64.5385
 20
-65.0862
 30
0.000000
  70
    32
  0
VERTEX
  8
図枠
  5
574
 10
64.5529
 20
-65.0993
 30
0.000000
  70
    32
  0
VERTEX
  8
図枠
  5
575
 10
64.5674
 20
-65.1125
 30
0.000000
  70
    32
  0
VERTEX
  8
図枠
  5
576
 10
64.5819
 20
-65.1256
 30
0.000000
  70
    32
  0
VERTEX
  8
図枠
  5
577
 10
64.5964
 20
-65.1388
 30
0.000000
  70
    32
  0
VERTEX
  8
図枠
  5
578
 10
64.6109
 20
-65.1519
 30
0.000000
  70
    32
  0
VERTEX
  8
図枠
  5
579
 10
64.6253
 20
-65.1650
 30
0.000000
  70
    32
  0
VERTEX
  8
図枠
  5
57A
 10
64.6398
 20
-65.1782
 30
0.000000
  70
    32
  0
VERTEX
  8
図枠
  5
57B
 10
64.6543
 20
-65.1913
 30
0.000000
  70
    32
  0
VERTEX
  8
図枠
  5
57C
 10
64.6689
 20
-65.2044
 30
0.000000
  70
    32
  0
VERTEX
  8
図枠
  5
57D
 10
64.6834
 20
-65.2174
 30
0.000000
  70
    32
  0
VERTEX
  8
図枠
  5
57E
 10
64.6979
 20
-65.2305
 30
0.000000
  70
    32
  0
VERTEX
  8
図枠
  5
57F
 10
64.7124
 20
-65.2436
 30
0.000000
  70
    32
  0
VERTEX
  8
図枠
  5
580
 10
64.7269
 20
-65.2566
 30
0.000000
  70
    32
  0
VERTEX
  8
図枠
  5
581
 10
64.7415
 20
-65.2697
 30
0.000000
  70
    32
  0
VERTEX
  8
図枠
  5
582
 10
64.7560
 20
-65.2827
 30
0.000000
  70
    32
  0
VERTEX
  8
図枠
  5
583
 10
64.7706
 20
-65.2957
 30
0.000000
  70
    32
  0
VERTEX
  8
図枠
  5
584
 10
64.7851
 20
-65.3087
 30
0.000000
  70
    32
  0
VERTEX
  8
図枠
  5
585
 10
64.7997
 20
-65.3217
 30
0.000000
  70
    32
  0
VERTEX
  8
図枠
  5
586
 10
64.8143
 20
-65.3347
 30
0.000000
  70
    32
  0
VERTEX
  8
図枠
  5
587
 10
64.8288
 20
-65.3477
 30
0.000000
  70
    32
  0
VERTEX
  8
図枠
  5
588
 10
64.8434
 20
-65.3606
 30
0.000000
  70
    32
  0
VERTEX
  8
図枠
  5
589
 10
64.8580
 20
-65.3736
 30
0.000000
  70
    32
  0
VERTEX
  8
図枠
  5
58A
 10
64.8726
 20
-65.3865
 30
0.000000
  70
    32
  0
VERTEX
  8
図枠
  5
58B
 10
64.8872
 20
-65.3994
 30
0.000000
  70
    32
  0
VERTEX
  8
図枠
  5
58C
 10
64.9018
 20
-65.4123
 30
0.000000
  70
    32
  0
VERTEX
  8
図枠
  5
58D
 10
64.9164
 20
-65.4252
 30
0.000000
  70
    32
  0
VERTEX
  8
図枠
  5
58E
 10
64.9311
 20
-65.4381
 30
0.000000
  70
    32
  0
VERTEX
  8
図枠
  5
58F
 10
64.9457
 20
-65.4509
 30
0.000000
  70
    32
  0
VERTEX
  8
図枠
  5
590
 10
64.9604
 20
-65.4638
 30
0.000000
  70
    32
  0
VERTEX
  8
図枠
  5
591
 10
64.9750
 20
-65.4766
 30
0.000000
  70
    32
  0
VERTEX
  8
図枠
  5
592
 10
64.9897
 20
-65.4894
 30
0.000000
  70
    32
  0
VERTEX
  8
図枠
  5
593
 10
65.0044
 20
-65.5022
 30
0.000000
  70
    32
  0
VERTEX
  8
図枠
  5
594
 10
65.0190
 20
-65.5150
 30
0.000000
  70
    32
  0
VERTEX
  8
図枠
  5
595
 10
65.0337
 20
-65.5277
 30
0.000000
  70
    32
  0
VERTEX
  8
図枠
  5
596
 10
65.0484
 20
-65.5405
 30
0.000000
  70
    32
  0
VERTEX
  8
図枠
  5
597
 10
65.0631
 20
-65.5532
 30
0.000000
  70
    32
  0
VERTEX
  8
図枠
  5
598
 10
65.0778
 20
-65.5659
 30
0.000000
  70
    32
  0
VERTEX
  8
図枠
  5
599
 10
65.0926
 20
-65.5786
 30
0.000000
  70
    32
  0
VERTEX
  8
図枠
  5
59A
 10
65.1073
 20
-65.5913
 30
0.000000
  70
    32
  0
VERTEX
  8
図枠
  5
59B
 10
65.1221
 20
-65.6039
 30
0.000000
  70
    32
  0
VERTEX
  8
図枠
  5
59C
 10
65.1368
 20
-65.6165
 30
0.000000
  70
    32
  0
VERTEX
  8
図枠
  5
59D
 10
65.1516
 20
-65.6292
 30
0.000000
  70
    32
  0
VERTEX
  8
図枠
  5
59E
 10
65.1664
 20
-65.6417
 30
0.000000
  70
    32
  0
VERTEX
  8
図枠
  5
59F
 10
65.1812
 20
-65.6543
 30
0.000000
  70
    32
  0
VERTEX
  8
図枠
  5
5A0
 10
65.1960
 20
-65.6669
 30
0.000000
  70
    32
  0
VERTEX
  8
図枠
  5
5A1
 10
65.2108
 20
-65.6794
 30
0.000000
  70
    32
  0
VERTEX
  8
図枠
  5
5A2
 10
65.2256
 20
-65.6919
 30
0.000000
  70
    32
  0
VERTEX
  8
図枠
  5
5A3
 10
65.2404
 20
-65.7044
 30
0.000000
  70
    32
  0
VERTEX
  8
図枠
  5
5A4
 10
65.2553
 20
-65.7169
 30
0.000000
  70
    32
  0
VERTEX
  8
図枠
  5
5A5
 10
65.2701
 20
-65.7293
 30
0.000000
  70
    32
  0
VERTEX
  8
図枠
  5
5A6
 10
65.2850
 20
-65.7418
 30
0.000000
  70
    32
  0
VERTEX
  8
図枠
  5
5A7
 10
65.2999
 20
-65.7542
 30
0.000000
  70
    32
  0
VERTEX
  8
図枠
  5
5A8
 10
65.3148
 20
-65.7666
 30
0.000000
  70
    32
  0
VERTEX
  8
図枠
  5
5A9
 10
65.3297
 20
-65.7789
 30
0.000000
  70
    32
  0
VERTEX
  8
図枠
  5
5AA
 10
65.3446
 20
-65.7913
 30
0.000000
  70
    32
  0
VERTEX
  8
図枠
  5
5AB
 10
65.3595
 20
-65.8036
 30
0.000000
  70
    32
  0
VERTEX
  8
図枠
  5
5AC
 10
65.3745
 20
-65.8159
 30
0.000000
  70
    32
  0
VERTEX
  8
図枠
  5
5AD
 10
65.3894
 20
-65.8281
 30
0.000000
  70
    32
  0
VERTEX
  8
図枠
  5
5AE
 10
65.4044
 20
-65.8404
 30
0.000000
  70
    32
  0
VERTEX
  8
図枠
  5
5AF
 10
65.4194
 20
-65.8526
 30
0.000000
  70
    32
  0
VERTEX
  8
図枠
  5
5B0
 10
65.4344
 20
-65.8648
 30
0.000000
  70
    32
  0
VERTEX
  8
図枠
  5
5B1
 10
65.4494
 20
-65.8770
 30
0.000000
  70
    32
  0
VERTEX
  8
図枠
  5
5B2
 10
65.4644
 20
-65.8891
 30
0.000000
  70
    32
  0
VERTEX
  8
図枠
  5
5B3
 10
65.4794
 20
-65.9013
 30
0.000000
  70
    32
  0
VERTEX
  8
図枠
  5
5B4
 10
65.4945
 20
-65.9134
 30
0.000000
  70
    32
  0
VERTEX
  8
図枠
  5
5B5
 10
65.5095
 20
-65.9254
 30
0.000000
  70
    32
  0
VERTEX
  8
図枠
  5
5B6
 10
65.5246
 20
-65.9375
 30
0.000000
  70
    32
  0
VERTEX
  8
図枠
  5
5B7
 10
65.5397
 20
-65.9495
 30
0.000000
  70
    32
  0
VERTEX
  8
図枠
  5
5B8
 10
65.5548
 20
-65.9615
 30
0.000000
  70
    32
  0
VERTEX
  8
図枠
  5
5B9
 10
65.5699
 20
-65.9735
 30
0.000000
  70
    32
  0
VERTEX
  8
図枠
  5
5BA
 10
65.5850
 20
-65.9854
 30
0.000000
  70
    32
  0
VERTEX
  8
図枠
  5
5BB
 10
65.6002
 20
-65.9973
 30
0.000000
  70
    32
  0
VERTEX
  8
図枠
  5
5BC
 10
65.6154
 20
-66.0092
 30
0.000000
  70
    32
  0
VERTEX
  8
図枠
  5
5BD
 10
65.6305
 20
-66.0210
 30
0.000000
  70
    32
  0
VERTEX
  8
図枠
  5
5BE
 10
65.6457
 20
-66.0329
 30
0.000000
  70
    32
  0
VERTEX
  8
図枠
  5
5BF
 10
65.6609
 20
-66.0447
 30
0.000000
  70
    32
  0
VERTEX
  8
図枠
  5
5C0
 10
65.6762
 20
-66.0564
 30
0.000000
  70
    32
  0
VERTEX
  8
図枠
  5
5C1
 10
65.6914
 20
-66.0682
 30
0.000000
  70
    32
  0
VERTEX
  8
図枠
  5
5C2
 10
65.7067
 20
-66.0799
 30
0.000000
  70
    32
  0
VERTEX
  8
図枠
  5
5C3
 10
65.7219
 20
-66.0916
 30
0.000000
  70
    32
  0
VERTEX
  8
図枠
  5
5C4
 10
65.7372
 20
-66.1032
 30
0.000000
  70
    32
  0
VERTEX
  8
図枠
  5
5C5
 10
65.7525
 20
-66.1149
 30
0.000000
  70
    32
  0
VERTEX
  8
図枠
  5
5C6
 10
65.7678
 20
-66.1265
 30
0.000000
  70
    32
  0
VERTEX
  8
図枠
  5
5C7
 10
65.7832
 20
-66.1380
 30
0.000000
  70
    32
  0
VERTEX
  8
図枠
  5
5C8
 10
65.7985
 20
-66.1496
 30
0.000000
  70
    32
  0
VERTEX
  8
図枠
  5
5C9
 10
65.8139
 20
-66.1611
 30
0.000000
  70
    32
  0
VERTEX
  8
図枠
  5
5CA
 10
65.8293
 20
-66.1725
 30
0.000000
  70
    32
  0
VERTEX
  8
図枠
  5
5CB
 10
65.8447
 20
-66.1840
 30
0.000000
  70
    32
  0
VERTEX
  8
図枠
  5
5CC
 10
65.8601
 20
-66.1954
 30
0.000000
  70
    32
  0
VERTEX
  8
図枠
  5
5CD
 10
65.8756
 20
-66.2067
 30
0.000000
  70
    32
  0
VERTEX
  8
図枠
  5
5CE
 10
65.8910
 20
-66.2181
 30
0.000000
  70
    32
  0
VERTEX
  8
図枠
  5
5CF
 10
65.9065
 20
-66.2294
 30
0.000000
  70
    32
  0
VERTEX
  8
図枠
  5
5D0
 10
65.9220
 20
-66.2407
 30
0.000000
  70
    32
  0
VERTEX
  8
図枠
  5
5D1
 10
65.9375
 20
-66.2519
 30
0.000000
  70
    32
  0
VERTEX
  8
図枠
  5
5D2
 10
65.9530
 20
-66.2631
 30
0.000000
  70
    32
  0
VERTEX
  8
図枠
  5
5D3
 10
65.9686
 20
-66.2743
 30
0.000000
  70
    32
  0
VERTEX
  8
図枠
  5
5D4
 10
65.9841
 20
-66.2854
 30
0.000000
  70
    32
  0
VERTEX
  8
図枠
  5
5D5
 10
65.9997
 20
-66.2965
 30
0.000000
  70
    32
  0
VERTEX
  8
図枠
  5
5D6
 10
66.0153
 20
-66.3076
 30
0.000000
  70
    32
  0
VERTEX
  8
図枠
  5
5D7
 10
66.0309
 20
-66.3186
 30
0.000000
  70
    32
  0
VERTEX
  8
図枠
  5
5D8
 10
66.0466
 20
-66.3296
 30
0.000000
  70
    32
  0
VERTEX
  8
図枠
  5
5D9
 10
66.0622
 20
-66.3406
 30
0.000000
  70
    32
  0
VERTEX
  8
図枠
  5
5DA
 10
66.0779
 20
-66.3515
 30
0.000000
  70
    32
  0
VERTEX
  8
図枠
  5
5DB
 10
66.0936
 20
-66.3624
 30
0.000000
  70
    32
  0
VERTEX
  8
図枠
  5
5DC
 10
66.1093
 20
-66.3733
 30
0.000000
  70
    32
  0
VERTEX
  8
図枠
  5
5DD
 10
66.1251
 20
-66.3841
 30
0.000000
  70
    32
  0
VERTEX
  8
図枠
  5
5DE
 10
66.1408
 20
-66.3949
 30
0.000000
  70
    32
  0
VERTEX
  8
図枠
  5
5DF
 10
66.1566
 20
-66.4056
 30
0.000000
  70
    32
  0
VERTEX
  8
図枠
  5
5E0
 10
66.1724
 20
-66.4163
 30
0.000000
  70
    32
  0
VERTEX
  8
図枠
  5
5E1
 10
66.1882
 20
-66.4270
 30
0.000000
  70
    32
  0
VERTEX
  8
図枠
  5
5E2
 10
66.2041
 20
-66.4376
 30
0.000000
  70
    32
  0
VERTEX
  8
図枠
  5
5E3
 10
66.2200
 20
-66.4482
 30
0.000000
  70
    32
  0
VERTEX
  8
図枠
  5
5E4
 10
66.2358
 20
-66.4587
 30
0.000000
  70
    32
  0
VERTEX
  8
図枠
  5
5E5
 10
66.2517
 20
-66.4693
 30
0.000000
  70
    32
  0
VERTEX
  8
図枠
  5
5E6
 10
66.2677
 20
-66.4797
 30
0.000000
  70
    32
  0
VERTEX
  8
図枠
  5
5E7
 10
66.2836
 20
-66.4902
 30
0.000000
  70
    32
  0
VERTEX
  8
図枠
  5
5E8
 10
66.2996
 20
-66.5006
 30
0.000000
  70
    32
  0
VERTEX
  8
図枠
  5
5E9
 10
66.3156
 20
-66.5109
 30
0.000000
  70
    32
  0
VERTEX
  8
図枠
  5
5EA
 10
66.3316
 20
-66.5212
 30
0.000000
  70
    32
  0
VERTEX
  8
図枠
  5
5EB
 10
66.3476
 20
-66.5315
 30
0.000000
  70
    32
  0
VERTEX
  8
図枠
  5
5EC
 10
66.3637
 20
-66.5417
 30
0.000000
  70
    32
  0
VERTEX
  8
図枠
  5
5ED
 10
66.3798
 20
-66.5519
 30
0.000000
  70
    32
  0
VERTEX
  8
図枠
  5
5EE
 10
66.3959
 20
-66.5621
 30
0.000000
  70
    32
  0
VERTEX
  8
図枠
  5
5EF
 10
66.4120
 20
-66.5722
 30
0.000000
  70
    32
  0
VERTEX
  8
図枠
  5
5F0
 10
66.4281
 20
-66.5823
 30
0.000000
  70
    32
  0
VERTEX
  8
図枠
  5
5F1
 10
66.4443
 20
-66.5923
 30
0.000000
  70
    32
  0
VERTEX
  8
図枠
  5
5F2
 10
66.4605
 20
-66.6023
 30
0.000000
  70
    32
  0
VERTEX
  8
図枠
  5
5F3
 10
66.4767
 20
-66.6122
 30
0.000000
  70
    32
  0
VERTEX
  8
図枠
  5
5F4
 10
66.4929
 20
-66.6221
 30
0.000000
  70
    32
  0
VERTEX
  8
図枠
  5
5F5
 10
66.5092
 20
-66.6319
 30
0.000000
  70
    32
  0
VERTEX
  8
図枠
  5
5F6
 10
66.5255
 20
-66.6418
 30
0.000000
  70
    32
  0
SEQEND
  8
図枠
  5
5F7
  0
INSERT
  5
13A
  8
0
  6
CONTINUOUS
  2
*U60
 10
0.0
 20
0.0
 30
0.0
  0
LINE
  5
13B
  8
図枠
 10
56.0096336314
 20
-56.978838639700001
 30
0.0
 11
82.007033631400006
 21
-56.978838639700001
 31
0.0
  0
CIRCLE
  5
13C
  8
図枠
 10
70.072227231400007
 20
-48.479688639700001
 30
0.0
 40
1.151884799999999
  0
CIRCLE
  5
13D
  8
図枠
 10
70.072227231400007
 20
-48.479688639700001
 30
0.0
 40
2.303769599999999
  0
ARC
  5
13E
  8
図枠
 10
65.094411277299983
 20
-63.960002080100011
 30
0.0
 40
3.0396959999999988
 50
331.39928138329998
 51
358.49204224580001
  0
LINE
  5
13F
  8
図枠
 10
57.206715277299999
 20
-64.199978080099996
 30
0.0
 11
57.206715277299999
 21
-63.800018080100003
 31
0.0
  0
LINE
  5
140
  8
図枠
 10
62.006235277299993
 20
-62.600138080100002
 30
0.0
 11
58.806555277299992
 21
-62.600138080100002
 31
0.0
  0
LINE
  5
141
  8
図枠
 10
24.012833631399999
 20
-38.730663639699998
 30
0.0
 11
140.0012336314
 21
-38.730663639699998
 31
0.0
  0
LINE
  5
142
  8
図枠
 10
69.624133741400001
 20
-66.479055116699996
 30
0.0
 11
69.481666341800008
 21
-66.618543681800006
 31
0.0
  0
LINE
  5
143
  8
図枠
  6
BORDER
 10
66.616572831400006
 20
-48.479688639700001
 30
0.0
 11
81.399094431400002
 21
-48.479688639700001
 31
0.0
  0
CIRCLE
  5
144
  8
図枠
 10
70.072227231400007
 20
-48.479688639700001
 30
0.0
 40
2.303769599999999
  0
LINE
  5
145
  8
図枠
 10
24.012833631399999
 20
-61.228413639700001
 30
0.0
 11
140.0012336314
 21
-61.228413639700001
 31
0.0
  0
INSERT
  5
146
  8
0
  6
CONTINUOUS
  2
*U61
 10
0.0
 20
0.0
 30
0.0
  0
INSERT
  5
147
  8
0
  6
CONTINUOUS
  2
*U62
 10
0.0
 20
0.0
 30
0.0
  0
LINE
  5
148
  8
図枠
 10
55.206915277299998
 20
-66.999698080100003
 30
0.0
 11
55.206915277299998
 21
-68.199578080099997
 31
0.0
  0
INSERT
  5
149
  8
0
  6
CONTINUOUS
  2
*U63
 10
0.0
 20
0.0
 30
0.0
  0
LINE
  5
14A
  8
ﾚｲﾔ_1
 62
     5
 10
-77.2277777778
 20
54.241927029199999
 30
0.0
 11
-17.627777777799999
 21
54.241927029199999
 31
0.0
  0
CIRCLE
  5
14B
  8
ﾚｲﾔ_1
 62
     5
 10
-60.627777777799999
 20
77.241927029199985
 30
0.0
 40
2.7000000000000002
  0
CIRCLE
  5
14C
  8
ﾚｲﾔ_1
 62
     5
 10
-21.627777777799999
 20
61.241927029199999
 30
0.0
 40
2.7000000000000002
  0
CIRCLE
  5
14D
  8
ﾚｲﾔ_1
 62
     5
 10
-21.627777777799999
 20
61.241927029199999
 30
0.0
 40
4.25
  0
CIRCLE
  5
14E
  8
ﾚｲﾔ_1
 62
     5
 10
-60.627777777799999
 20
77.241927029199985
 30
0.0
 40
4.25
  0
LINE
  5
14F
  8
ﾚｲﾔ_1
  6
BORDER
 62
     3
 10
-60.627777777799999
 20
83.241927029199985
 30
0.0
 11
-60.627777777799999
 21
71.241927029199999
 31
0.0
  0
LINE
  5
150
  8
ﾚｲﾔ_1
  6
BORDER
 62
     3
 10
-66.627777777799992
 20
77.241927029199985
 30
0.0
 11
-54.627777777799999
 21
77.241927029199985
 31
0.0
  0
LINE
  5
151
  8
ﾚｲﾔ_1
  6
BORDER
 62
     3
 10
-27.627777777799999
 20
61.241927029199999
 30
0.0
 11
-15.6277777778
 21
61.241927029199999
 31
0.0
  0
DIMENSION
  5
160
  8
寸法線
  2
*D6
 10
-26.127777777799999
 20
43.170353080799998
 30
0.0
 11
-20.377777777799999
 21
43.170353080799998
 31
0.0
 70
   128
  1
<>
 13
-26.127777777799999
 23
69.241927029199999
 33
0.0
 14
-14.6277777778
 24
57.241927029199992
 34
0.0
 50
180.0
  0
DIMENSION
  5
16F
  8
寸法線
  2
*D7
 10
-87.575925925899995
 20
84.241927029199999
 30
0.0
 11
-87.575925925899995
 21
76.741927029199999
 31
0.0
 70
   128
  1
<>
 13
-77.2277777778
 23
84.241927029199999
 33
0.0
 14
-80.729814814799994
 24
69.241927029199999
 34
0.0
 50
90.0
  0
DIMENSION
  5
17E
  8
寸法線
  2
*D8
 10
-4.5555555555999989
 20
54.241927029199999
 30
0.0
 11
-4.5555555555999989
 21
57.9198615022
 31
0.0
 70
   128
  1
<>
 13
-17.627777777799999
 23
54.241927029199999
 33
0.0
 14
-29.127777777799999
 24
66.241927029199999
 34
0.0
 50
90.0
  0
DIMENSION
  5
18D
  8
寸法線
  2
*D9
 10
-60.627777777799999
 20
94.241927029199999
 30
0.0
 11
-68.927777777800003
 21
94.241927029199999
 31
0.0
 70
   128
  1
<>
 13
-60.627777777799999
 23
83.241927029199985
 33
0.0
 14
-77.2277777778
 24
84.241927029199999
 34
0.0
  0
DIMENSION
  5
19C
  8
寸法線
  2
*D10
 10
-21.627777777799999
 20
94.241927029199999
 30
0.0
 11
-41.127777777799992
 21
94.241927029199999
 31
0.0
 70
   128
  1
<>
 13
-21.627777777799999
 23
67.241927029199985
 33
0.0
 14
-60.627777777799999
 24
83.241927029199985
 34
0.0
  0
DIMENSION
  5
1AB
  8
寸法線
  2
*D11
 10
-98.394444444400008
 20
84.241927029199999
 30
0.0
 11
-98.394444444400008
 21
69.241927029199999
 31
0.0
 70
   128
  1
<>
 13
-77.2277777778
 23
84.241927029199999
 33
0.0
 14
-77.2277777778
 24
54.241927029199999
 34
0.0
 50
90.0
  0
DIMENSION
  5
1BA
  8
寸法線
  2
*D12
 10
-87.575925925899995
 20
69.241927029199999
 30
0.0
 11
-87.575925925899995
 21
61.741927029199999
 31
0.0
 70
   128
  1
<>
 13
-80.729814814799994
 23
69.241927029199999
 33
0.0
 14
-77.2277777778
 24
54.241927029199999
 34
0.0
 50
90.0
  0
DIMENSION
  5
1C9
  8
寸法線
  2
*D13
 10
-14.6277777778
 20
94.241927029199999
 30
0.0
 11
-18.127777777799999
 21
94.241927029199999
 31
0.0
 70
   128
  1
<>
 13
-14.6277777778
 23
81.241927029199999
 33
0.0
 14
-21.627777777799999
 24
67.241927029199985
 34
0.0
  0
DIMENSION
  5
1D8
  8
寸法線
  2
*D14
 10
-4.5555555555999989
 20
66.241927029199999
 30
0.0
 11
-4.5555555555999989
 21
69.241927029199999
 31
0.0
 70
   128
  1
<>
 13
-29.127777777799999
 23
66.241927029199999
 33
0.0
 14
-29.127777777799999
 24
72.241927029199985
 34
0.0
 50
90.0
  0
DIMENSION
  5
1E7
  8
寸法線
  2
*D15
 10
-4.5555555555999989
 20
72.241927029199985
 30
0.0
 11
-4.5555555555999989
 21
80.128579450900006
 31
0.0
 70
   128
  1
<>
 13
-29.127777777799999
 23
72.241927029199985
 33
0.0
 14
-17.627777777799999
 24
84.241927029199999
 34
0.0
 50
90.0
  0
DIMENSION
  5
1F6
  8
寸法線
  2
*D16
 10
-77.2277777778
 20
43.170353080799998
 30
0.0
 11
-66.677777777800003
 21
43.170353080799998
 31
0.0
 70
   128
  1
<>
 13
-77.2277777778
 23
54.241927029199999
 33
0.0
 14
-56.127777777799992
 24
69.241927029199999
 34
0.0
 50
180.0
  0
DIMENSION
  5
205
  8
寸法線
  2
*D17
 10
-56.127777777799992
 20
43.170353080799998
 30
0.0
 11
-41.127777777799992
 21
43.170353080799998
 31
0.0
 70
   128
  1
<>
 13
-56.127777777799992
 23
69.241927029199999
 33
0.0
 14
-26.127777777799999
 24
69.241927029199999
 34
0.0
 50
180.0
  0
INSERT
  5
206
  8
0
  6
CONTINUOUS
  2
*U64
 10
0.0
 20
0.0
 30
0.0
  0
INSERT
  5
207
  8
0
  6
CONTINUOUS
  2
*U65
 10
0.0
 20
0.0
 30
0.0
  0
DIMENSION
  5
216
  8
寸法線
  2
*D18
 10
100.3996031746
 20
-16.684835468799999
 30
0.0
 11
110.3996031746
 21
-16.684835468799999
 31
0.0
 70
   128
  1
%%c5
 13
100.3996031746
 23
-0.0679885826
 33
0.0
 14
120.3996031746
 24
-0.0679885826
 34
0.0
 50
180.0
  0
DIMENSION
  5
225
  8
寸法線
  2
*D19
 10
34.70000000000001
 20
-16.684835468799999
 30
0.0
 11
45.499999999999993
 21
-16.684835468799999
 31
0.0
 70
   128
  1
%%c5.4
 13
34.70000000000001
 23
-0.0679885826
 33
0.0
 14
56.29999999999999
 24
-0.0679885826
 34
0.0
 50
180.0
  0
LINE
  5
226
  8
図枠
 10
24.012833631399999
 20
-27.731763639699999
 30
0.0
 11
140.0012336314
 21
-27.731763639699999
 31
0.0
  0
LINE
  5
227
  8
ﾚｲﾔ_1
  6
BORDER
 62
     3
 10
-21.627777777799999
 20
67.241927029199985
 30
0.0
 11
-21.627777777799999
 21
55.241927029199999
 31
0.0
  0
LINE
  5
228
  8
ﾚｲﾔ_1
  6
STITCH
 10
-77.2277777778
 20
65.241927029199999
 30
0.0
 11
-75.7277777778
 21
66.741927029199999
 31
0.0
  0
LINE
  5
229
  8
ﾚｲﾔ_1
  6
STITCH
 10
-77.2277777778
 20
73.241927029199999
 30
0.0
 11
-75.7277777778
 21
71.741927029199999
 31
0.0
  0
LINE
  5
22A
  8
ﾚｲﾔ_1
  6
STITCH
 10
-75.7277777778
 20
66.741927029199999
 30
0.0
 11
-74.627777777799992
 21
66.741927029199999
 31
0.0
  0
LINE
  5
22B
  8
ﾚｲﾔ_1
  6
STITCH
 10
-75.7277777778
 20
71.741927029199999
 30
0.0
 11
-75.7277777778
 21
66.741927029199999
 31
0.0
  0
LINE
  5
22C
  8
ﾚｲﾔ_1
  6
STITCH
 10
-75.7277777778
 20
71.741927029199999
 30
0.0
 11
-74.627777777799992
 21
71.741927029199999
 31
0.0
  0
LINE
  5
22D
  8
ﾚｲﾔ_1
  6
BORDER
 62
     3
 10
-71.134259259300009
 20
69.241927029199999
 30
0.0
 11
-80.729814814799994
 21
69.241927029199999
 31
0.0
  0
LINE
  5
22E
  8
ﾚｲﾔ_1
 10
-5.7314814814999986
 20
93.753038140399994
 30
0.0
 11
-56.567985936400007
 21
78.4991422871
 31
0.0
  0
SOLID
  5
22F
  8
ﾚｲﾔ_1
 10
-56.567985936400007
 20
78.4991422871
 30
0.0
 11
-53.925577706699997
 21
80.131272697100002
 31
0.0
 12
-54.464486955799991
 22
79.130313818700003
 32
0.0
 13
-54.464486955799991
 23
79.130313818700003
 33
0.0
  0
SOLID
  5
230
  8
ﾚｲﾔ_1
 10
-56.567985936400007
 20
78.4991422871
 30
0.0
 11
-53.463528077299991
 21
78.591404569700003
 31
0.0
 12
-54.464486955799991
 22
79.130313818700003
 32
0.0
 13
-54.464486955799991
 23
79.130313818700003
 33
0.0
  0
LINE
  5
231
  8
ﾚｲﾔ_1
 10
-5.7314814814999986
 20
93.753038140399994
 30
0.0
 11
-19.7833637106
 21
65.070848123900006
 31
0.0
  0
SOLID
  5
232
  8
ﾚｲﾔ_1
 10
-19.7833637106
 20
65.070848123900006
 30
0.0
 11
-19.1853701639
 21
68.118564423899997
 31
0.0
 12
-18.817155727900001
 22
67.043036653900003
 32
0.0
 13
-18.817155727900001
 23
67.043036653900003
 33
0.0
  0
SOLID
  5
233
  8
ﾚｲﾔ_1
 10
-19.7833637106
 20
65.070848123900006
 30
0.0
 11
-17.741627957799999
 21
67.411251089899991
 31
0.0
 12
-18.817155727900001
 22
67.043036653900003
 32
0.0
 13
-18.817155727900001
 23
67.043036653900003
 33
0.0
  0
LINE
  5
234
  8
ﾚｲﾔ_1
 62
     5
 10
-77.2277777778
 20
84.241927029199999
 30
0.0
 11
-77.2277777778
 21
54.241927029199999
 31
0.0
  0
LINE
  5
235
  8
ﾚｲﾔ_1
 62
     5
 10
-74.627777777799992
 20
84.241927029199999
 30
0.0
 11
-74.627777777799992
 21
54.241927029199999
 31
0.0
  0
ARC
  5
236
  8
ﾚｲﾔ_1
 62
     5
 10
-29.127777777799999
 20
69.241927029199999
 30
0.0
 40
3.0
 50
270.0
 51
90.0
  0
ARC
  5
237
  8
ﾚｲﾔ_1
 62
     5
 10
-17.627777777799999
 20
57.241927029199992
 30
0.0
 40
3.0
 50
270.0
 51
0.0
  0
ARC
  5
238
  8
ﾚｲﾔ_1
 62
     5
 10
-53.127777777799999
 20
69.241927029199999
 30
0.0
 40
3.0
 50
90.0
 51
270.0
  0
LINE
  5
239
  8
ﾚｲﾔ_1
 62
     5
 10
-29.127777777799999
 20
72.241927029199985
 30
0.0
 11
-53.127777777799999
 21
72.241927029199985
 31
0.0
  0
LINE
  5
23A
  8
ﾚｲﾔ_1
 62
     5
 10
-53.127777777799999
 20
66.241927029199999
 30
0.0
 11
-29.127777777799999
 21
66.241927029199999
 31
0.0
  0
LINE
  5
23B
  8
ﾚｲﾔ_1
 62
     5
 10
-17.627777777799999
 20
84.241927029199999
 30
0.0
 11
-77.2277777778
 21
84.241927029199999
 31
0.0
  0
ARC
  5
23C
  8
ﾚｲﾔ_1
 62
     5
 10
-17.627777777799999
 20
81.241927029199999
 30
0.0
 40
3.0
 50
0.0
 51
90.0
  0
LINE
  5
23D
  8
ﾚｲﾔ_1
  6
STITCH
 10
-77.2277777778
 20
9.5870370369999982
 30
0.0
 11
-75.7277777778
 21
8.0870370369999982
 31
0.0
  0
LINE
  5
23E
  8
ﾚｲﾔ_1
  6
STITCH
 10
-75.7277777778
 20
3.0870370369999991
 30
0.0
 11
-74.627777777799992
 21
3.0870370369999991
 31
0.0
  0
LINE
  5
23F
  8
ﾚｲﾔ_1
  6
STITCH
 10
-75.7277777778
 20
8.0870370369999982
 30
0.0
 11
-75.7277777778
 21
3.0870370369999991
 31
0.0
  0
LINE
  5
240
  8
ﾚｲﾔ_1
  6
STITCH
 10
-75.7277777778
 20
8.0870370369999982
 30
0.0
 11
-74.627777777799992
 21
8.0870370369999982
 31
0.0
  0
LINE
  5
241
  8
ﾚｲﾔ_1
  6
BORDER
 62
     3
 10
-71.134259259300009
 20
5.587037037
 30
0.0
 11
-80.729814814799994
 21
5.587037037
 31
0.0
  0
LINE
  5
242
  8
ﾚｲﾔ_1
 62
     5
 10
-74.627777777799992
 20
11.587037037
 30
0.0
 11
-77.2277777778
 21
11.587037037
 31
0.0
  0
LINE
  5
243
  8
ﾚｲﾔ_1
 62
     5
 10
-14.6277777778
 20
57.241927029199992
 30
0.0
 11
-14.6277777778
 21
81.241927029199999
 31
0.0
  0
LINE
  5
244
  8
ﾚｲﾔ_1
 62
     5
 10
21.5
 20
-0.0679885826
 30
0.0
 11
75.25
 21
-0.0679885826
 31
0.0
  0
DIMENSION
  5
252
  8
寸法線
  2
*D66
 10
55.00256178213845
 20
28.79605479040293
 30
0.0
 11
45.499999999999993
 21
30.0470907825
 31
0.0
 70
   133
  1
<>
 13
27.969669914099999
 23
10.8623415033
 33
0.0
 14
63.030330085899998
 24
10.8623415033
 34
0.0
 15
45.499999999999993
 25
-6.6679885825999987
 35
0.0
1001
ACAD
1000
DSTYLE
1002
{
1070
   271
1070
     0
1002
}
  0
DIMENSION
  5
25F
  8
寸法線
  2
*D67
 10
119.6433459116359
 20
28.830128964113861
 30
0.0
 11
110.3996031746
 21
30.0470907825
 31
0.0
 70
   133
  1
<>
 13
93.869273088700012
 23
10.8623415033
 33
0.0
 14
126.92993326049999
 24
10.8623415033
 34
0.0
 15
110.3996031746
 25
-5.6679885825999987
 35
0.0
1001
ACAD
1000
DSTYLE
1002
{
1070
   271
1070
     0
1002
}
  0
LINE
  5
260
  8
図枠
  6
DOT
 10
146.00063363140001
 20
-75.476988639699996
 30
0.0
 11
146.00063363140001
 21
126.0028613603
 31
0.0
  0
LINE
  5
261
  8
図枠
 62
     5
 10
140.0012336314
 20
-69.727563639700008
 30
0.0
 11
140.0012336314
 21
120.2534363603
 31
0.0
  0
LINE
  5
262
  8
ﾚｲﾔ_1
 62
     5
 10
-14.6277777778
 20
-15.012962963
 30
0.0
 11
-14.6277777778
 21
-12.412962963
 31
0.0
  0
LINE
  5
263
  8
ﾚｲﾔ_1
  6
STITCH
 10
-26.127777777799999
 20
-12.412962963
 30
0.0
 11
-26.127777777799999
 21
-15.012962963
 31
0.0
  0
LINE
  5
264
  8
ﾚｲﾔ_1
  6
STITCH
 10
-56.127777777799992
 20
-12.412962963
 30
0.0
 11
-56.127777777799992
 21
-15.012962963
 31
0.0
  0
LINE
  5
265
  8
ﾚｲﾔ_1
  6
BORDER
 62
     3
 10
-60.627777777799999
 20
-7.0166666666999991
 30
0.0
 11
-60.627777777799999
 21
-21.833333333300001
 31
0.0
  0
LINE
  5
266
  8
ﾚｲﾔ_1
  6
STITCH
 10
-64.877777777799992
 20
-12.412962963
 30
0.0
 11
-63.327777777799987
 21
-13.962962963000001
 31
0.0
  0
LINE
  5
267
  8
ﾚｲﾔ_1
  6
STITCH
 10
-56.377777777799999
 20
-12.412962963
 30
0.0
 11
-57.927777777799989
 21
-13.962962963000001
 31
0.0
  0
LINE
  5
268
  8
ﾚｲﾔ_1
  6
STITCH
 10
-57.927777777799989
 20
-13.962962963000001
 30
0.0
 11
-63.327777777799987
 21
-13.962962963000001
 31
0.0
  0
LINE
  5
269
  8
ﾚｲﾔ_1
  6
STITCH
 10
-63.327777777799987
 20
-13.962962963000001
 30
0.0
 11
-63.327777777799987
 21
-15.012962963
 31
0.0
  0
LINE
  5
26A
  8
ﾚｲﾔ_1
  6
STITCH
 10
-57.927777777799989
 20
-13.962962963000001
 30
0.0
 11
-57.927777777799989
 21
-15.012962963
 31
0.0
  0
LINE
  5
26B
  8
ﾚｲﾔ_1
  6
STITCH
 10
-18.927777777799999
 20
-13.962962963000001
 30
0.0
 11
-18.927777777799999
 21
-15.012962963
 31
0.0
  0
LINE
  5
26C
  8
ﾚｲﾔ_1
  6
STITCH
 10
-24.327777777800002
 20
-13.962962963000001
 30
0.0
 11
-24.327777777800002
 21
-15.012962963
 31
0.0
  0
LINE
  5
26D
  8
ﾚｲﾔ_1
  6
STITCH
 10
-18.927777777799999
 20
-13.962962963000001
 30
0.0
 11
-24.327777777800002
 21
-13.962962963000001
 31
0.0
  0
LINE
  5
26E
  8
ﾚｲﾔ_1
  6
STITCH
 10
-17.377777777799999
 20
-12.412962963
 30
0.0
 11
-18.927777777799999
 21
-13.962962963000001
 31
0.0
  0
LINE
  5
26F
  8
ﾚｲﾔ_1
  6
STITCH
 10
-25.877777777799999
 20
-12.412962963
 30
0.0
 11
-24.327777777800002
 21
-13.962962963000001
 31
0.0
  0
LINE
  5
270
  8
ﾚｲﾔ_1
  6
BORDER
 62
     3
 10
-21.627777777799999
 20
-7.0166666666999991
 30
0.0
 11
-21.627777777799999
 21
-21.833333333300001
 31
0.0
  0
ARC
  5
271
  8
ﾚｲﾔ_1
 62
     5
 10
-73.627777777799992
 20
-11.412962963
 30
0.0
 40
3.6000000000000001
 50
180.0
 51
270.0
  0
LINE
  5
272
  8
ﾚｲﾔ_1
 62
     5
 10
-73.627777777799992
 20
-15.012962963
 30
0.0
 11
-14.6277777778
 21
-15.012962963
 31
0.0
  0
ARC
  5
273
  8
ﾚｲﾔ_1
 62
     5
 10
-73.627777777799992
 20
-11.412962963
 30
0.0
 40
1.0
 50
180.0
 51
270.0
  0
LINE
  5
274
  8
ﾚｲﾔ_1
 62
     5
 10
-73.627777777799992
 20
-12.412962963
 30
0.0
 11
-14.6277777778
 21
-12.412962963
 31
0.0
  0
DIMENSION
  5
283
  8
寸法線
  2
*D22
 10
-77.2277777778
 20
-25.012962963
 30
0.0
 11
-45.927777777799989
 21
-25.012962963
 31
0.0
 70
   128
  1
<>
 13
-77.2277777778
 23
-11.412962963
 33
0.0
 14
-14.6277777778
 24
-15.012962963
 34
0.0
 50
180.0
  0
LINE
  5
284
  8
ﾚｲﾔ_1
 10
-5.7314814814999986
 20
93.753038140399994
 30
0.0
 11
5.0870370369999991
 21
93.753038140399994
 31
0.0
  0
INSERT
  5
285
  8
0
  6
CONTINUOUS
  2
*U68
 10
0.0
 20
0.0
 30
0.0
  0
DIMENSION
  5
294
  8
寸法線
  2
*D23
 10
7.6740740740999991
 20
54.241927029199999
 30
0.0
 11
7.6740740740999991
 21
57.741927029199999
 31
0.0
 70
   128
  1
<>
 13
-17.627777777799999
 23
54.241927029199999
 33
0.0
 14
-15.6277777778
 24
61.241927029199999
 34
0.0
 50
90.0
  0
DIMENSION
  5
2A3
  8
寸法線
  2
*D24
 10
7.6740740740999991
 20
61.241927029199999
 30
0.0
 11
7.6740740740999991
 21
69.241927029199999
 31
0.0
 70
   128
  1
<>
 13
-15.6277777778
 23
61.241927029199999
 33
0.0
 14
-54.627777777799999
 24
77.241927029199985
 34
0.0
 50
90.0
  0
DIMENSION
  5
2B2
  8
寸法線
  2
*D25
 10
7.6740740740999991
 20
77.241927029199985
 30
0.0
 11
7.6740740740999991
 21
80.741927029199985
 31
0.0
 70
   128
  1
<>
 13
-54.627777777799999
 23
77.241927029199985
 33
0.0
 14
-17.627777777799999
 24
84.241927029199999
 34
0.0
 50
90.0
  0
LINE
  5
2B3
  8
図枠
 62
     5
 10
-134.9712663686
 20
-69.727563639700008
 30
0.0
 11
140.0012336314
 21
-69.727563639700008
 31
0.0
  0
LINE
  5
2B4
  8
図枠
  6
DOT
 10
-140.97066636860001
 20
-75.476988639699996
 30
0.0
 11
146.00063363140001
 21
-75.476988639699996
 31
0.0
  0
LINE
  5
2B5
  8
図枠
 62
     5
 10
-134.9712663686
 20
120.2534363603
 30
0.0
 11
140.0012336314
 21
120.2534363603
 31
0.0
  0
LINE
  5
2B6
  8
図枠
  6
DOT
 10
-140.97066636860001
 20
126.0028613603
 30
0.0
 11
146.00063363140001
 21
126.0028613603
 31
0.0
  0
DIMENSION
  5
2BE
  8
寸法線
  2
*D26
 10
-17.627777777799999
 20
57.241927029199992
 30
0.0
 11
-0.4449273210000001
 21
41.650223041599993
 31
0.0
 70
   132
  1
4-R <>
 15
-15.5064574342
 25
55.120606685699997
 35
0.0
 40
0.0
  0
LINE
  5
2BF
  8
ﾚｲﾔ_1
  6
STITCH
 10
-77.2277777778
 20
1.5870370369999991
 30
0.0
 11
-75.7277777778
 21
3.0870370369999991
 31
0.0
  0
LINE
  5
2C0
  8
ﾚｲﾔ_1
 62
     5
 10
-74.627777777799992
 20
11.587037037
 30
0.0
 11
-74.627777777799992
 21
-11.412962963
 31
0.0
  0
LINE
  5
2C1
  8
ﾚｲﾔ_1
 62
     5
 10
-77.2277777778
 20
11.587037037
 30
0.0
 11
-77.2277777778
 21
-11.412962963
 31
0.0
  0
DIMENSION
  5
2CE
  8
寸法線
  2
*D69
 10
-63.509870785092033
 20
-5.9940363679348421
 30
0.0
 11
-65.982940799299996
 21
-2.9220584673000012
 31
0.0
 70
   133
  1
<>
 13
-74.627777777799992
 23
11.587037037
 33
0.0
 14
-14.6277777778
 24
-12.412962963
 34
0.0
 15
-74.627777777799992
 25
-12.412962963
 35
0.0
1001
ACAD
1000
DSTYLE
1002
{
1070
   271
1070
     0
1002
}
  0
DIMENSION
  5
2DD
  8
寸法線
  2
*D28
 10
-87.227777777800014
 20
11.587037037
 30
0.0
 11
-87.227777777800014
 21
-1.7129629630000001
 31
0.0
 70
   128
  1
<>
 13
-77.2277777778
 23
11.587037037
 33
0.0
 14
-73.627777777799992
 24
-15.012962963
 34
0.0
 50
90.0
  0
DIMENSION
  5
2EC
  8
寸法線
  2
*D29
 10
-4.6277777777999987
 20
-15.012962963
 30
0.0
 11
-4.6277777777999987
 21
-4.3902832583000002
 31
0.0
 70
   128
  1
<>t
 13
-14.6277777778
 23
-15.012962963
 33
0.0
 14
-14.6277777778
 24
-12.412962963
 34
0.0
 50
90.0
  0
LINE
  5
2ED
  8
図枠
  6
DOT
 10
-140.9676666686
 20
-75.476988639699996
 30
0.0
 11
-140.9676666686
 21
126.0028613603
 31
0.0
  0
LINE
  5
2EE
  8
図枠
 62
     5
 10
-134.9712663686
 20
-69.727563639700008
 30
0.0
 11
-134.9712663686
 21
120.2534363603
 31
0.0
  0
LINE
  5
2EF
  8
ﾚｲﾔ_1
 62
     5
 10
34.70000000000001
 20
4.1320114174000002
 30
0.0
 11
34.70000000000001
 21
-0.0679885826
 31
0.0
  0
LINE
  5
2F0
  8
ﾚｲﾔ_1
 62
     5
 10
56.29999999999999
 20
4.1320114174000002
 30
0.0
 11
56.29999999999999
 21
-0.0679885826
 31
0.0
  0
LINE
  5
2F1
  8
ﾚｲﾔ_1
 62
     5
 10
100.3996031746
 20
4.3320114174000004
 30
0.0
 11
100.3996031746
 21
-0.0679885826
 31
0.0
  0
LINE
  5
2F2
  8
ﾚｲﾔ_1
 62
     5
 10
120.3996031746
 20
4.3320114174000004
 30
0.0
 11
120.3996031746
 21
-0.0679885826
 31
0.0
  0
LINE
  5
2F3
  8
ﾚｲﾔ_1
  6
BORDER
 62
     3
 10
110.3996031746
 20
17.8320114174
 30
0.0
 11
110.3996031746
 21
-10.807935672499999
 31
0.0
  0
LINE
  5
2F4
  8
ﾚｲﾔ_1
  6
BORDER
 62
     3
 10
45.499999999999993
 20
17.8320114174
 30
0.0
 11
45.499999999999993
 21
-10.807935672499999
 31
0.0
  0
LINE
  5
2F5
  8
ﾚｲﾔ_1
 62
     5
 10
81.908597883599995
 20
-0.0679885826
 30
0.0
 11
133.91812169310001
 21
-0.0679885826
 31
0.0
  0
ENDSEC
  0
EOF
