  0
SECTION
  2
HEADER
  9
$ACADVER
  1
AC1009
  9
$INSBASE
 10
0.0
 20
0.0
 30
0.0
  9
$EXTMIN
 10
-284.458650909141
 20
-176.21551093472669
 30
-0.0015258207003583
  9
$EXTMAX
 10
289.51897976716941
 20
226.76878377355391
 30
0.0000000349246037
  9
$LIMMIN
 10
0.0
 20
0.0
  9
$LIMMAX
 10
0.0
 20
0.0
  9
$ORTHOMODE
 70
     1
  9
$REGENMODE
 70
     1
  9
$FILLMODE
 70
     1
  9
$QTEXTMODE
 70
     0
  9
$MIRRTEXT
 70
     1
  9
$DRAGMODE
 70
     2
  9
$LTSCALE
 40
1.0
  9
$OSMODE
 70
    31
  9
$ATTMODE
 70
     1
  9
$TEXTSIZE
 40
0.0
  9
$TRACEWID
 40
0.05
  9
$TEXTSTYLE
  7
STANDARD
  9
$CLAYER
  8
0
  9
$CELTYPE
  6
CONTINUOUS
  9
$CECOLOR
 62
   256
  9
$DIMSCALE
 40
0.0
  9
$DIMASZ
 40
2.5
  9
$DIMEXO
 40
2.5
  9
$DIMDLI
 40
14.0
  9
$DIMRND
 40
0.0
  9
$DIMDLE
 40
0.0
  9
$DIMEXE
 40
2.0
  9
$DIMTP
 40
0.0
  9
$DIMTM
 40
0.0
  9
$DIMTXT
 40
5.0
  9
$DIMCEN
 40
2.0
  9
$DIMTSZ
 40
0.0
  9
$DIMTOL
 70
     0
  9
$DIMLIM
 70
     0
  9
$DIMTIH
 70
     0
  9
$DIMTOH
 70
     0
  9
$DIMSE1
 70
     0
  9
$DIMSE2
 70
     0
  9
$DIMTAD
 70
     1
  9
$DIMZIN
 70
     8
  9
$DIMBLK
  1

  9
$DIMASO
 70
     1
  9
$DIMSHO
 70
     1
  9
$DIMPOST
  1

  9
$DIMAPOST
  1

  9
$DIMALT
 70
     0
  9
$DIMALTD
 70
     4
  9
$DIMALTF
 40
0.0394
  9
$DIMLFAC
 40
1.0
  9
$DIMTOFL
 70
     1
  9
$DIMTVP
 40
0.0
  9
$DIMTIX
 70
     0
  9
$DIMSOXD
 70
     0
  9
$DIMSAH
 70
     0
  9
$DIMBLK1
  1

  9
$DIMBLK2
  1

  9
$DIMSTYLE
  2
基本_１_２_
  9
$DIMCLRD
 70
     4
  9
$DIMCLRE
 70
     4
  9
$DIMCLRT
 70
     4
  9
$DIMTFAC
 40
1.0
  9
$DIMGAP
 40
1.0
  9
$LUNITS
 70
     2
  9
$LUPREC
 70
     4
  9
$SKETCHINC
 40
0.1
  9
$FILLETRAD
 40
0.0
  9
$AUNITS
 70
     0
  9
$AUPREC
 70
     0
  9
$MENU
  1
acad
  9
$ELEVATION
 40
0.0
  9
$PELEVATION
 40
0.0
  9
$THICKNESS
 40
0.0
  9
$LIMCHECK
 70
     0
  9
$BLIPMODE
 70
     0
  9
$CHAMFERA
 40
0.0
  9
$CHAMFERB
 40
0.0
  9
$SKPOLY
 70
     0
  9
$TDCREATE
 40
2454863.5322017828
  9
$TDUPDATE
 40
2454863.6238375232
  9
$TDINDWG
 40
0.0654806713
  9
$TDUSRTIMER
 40
0.0654795833
  9
$USRTIMER
 70
     1
  9
$ANGBASE
 50
0.0
  9
$ANGDIR
 70
     0
  9
$PDMODE
 70
     3
  9
$PDSIZE
 40
-1.0
  9
$PLINEWID
 40
0.0
  9
$COORDS
 70
     2
  9
$SPLFRAME
 70
     0
  9
$SPLINETYPE
 70
     6
  9
$SPLINESEGS
 70
     8
  9
$ATTDIA
 70
     0
  9
$ATTREQ
 70
     1
  9
$HANDLING
 70
     1
  9
$HANDSEED
  5
A1A
  9
$SURFTAB1
 70
     6
  9
$SURFTAB2
 70
     6
  9
$SURFTYPE
 70
     6
  9
$SURFU
 70
     6
  9
$SURFV
 70
     6
  9
$UCSNAME
  2

  9
$UCSORG
 10
0.0
 20
0.0
 30
0.0
  9
$UCSXDIR
 10
1.0
 20
0.0
 30
0.0
  9
$UCSYDIR
 10
0.0
 20
1.0
 30
0.0
  9
$PUCSNAME
  2

  9
$PUCSORG
 10
0.0
 20
0.0
 30
0.0
  9
$PUCSXDIR
 10
1.0
 20
0.0
 30
0.0
  9
$PUCSYDIR
 10
0.0
 20
1.0
 30
0.0
  9
$USERI1
 70
     0
  9
$USERI2
 70
     0
  9
$USERI3
 70
     0
  9
$USERI4
 70
     0
  9
$USERI5
 70
     0
  9
$USERR1
 40
0.0
  9
$USERR2
 40
0.0
  9
$USERR3
 40
0.0
  9
$USERR4
 40
0.0
  9
$USERR5
 40
0.0
  9
$WORLDVIEW
 70
     1
  9
$SHADEDGE
 70
     3
  9
$SHADEDIF
 70
    70
  9
$TILEMODE
 70
     1
  9
$MAXACTVP
 70
    16
  9
$PLIMCHECK
 70
     0
  9
$PEXTMIN
 10
1.0000000000000000E+020
 20
1.0000000000000000E+020
 30
1.0000000000000000E+020
  9
$PEXTMAX
 10
-1.0000000000000000E+020
 20
-1.0000000000000000E+020
 30
-1.0000000000000000E+020
  9
$PLIMMIN
 10
0.0
 20
0.0
  9
$PLIMMAX
 10
12.0
 20
9.0
  9
$UNITMODE
 70
     0
  9
$VISRETAIN
 70
     0
  9
$PLINEGEN
 70
     1
  9
$PSLTSCALE
 70
     0
  0
ENDSEC
  0
SECTION
  2
TABLES
  0
TABLE
  2
VPORT
 70
     2
  0
VPORT
  2
*ACTIVE
 70
     0
 10
0.0
 20
0.0
 11
1.0
 21
1.0
 12
2.5301644290141989
 22
25.276636419413592
 13
0.0
 23
0.0
 14
1.0
 24
1.0
 15
0.0
 25
0.0
 16
0.0
 26
0.0
 36
1.0
 17
0.0
 27
0.0
 37
0.0
 40
406.32856271415841
 41
1.6343490304709141
 42
50.0
 43
0.0
 44
0.0
 50
0.0
 51
0.0
 71
     0
 72
   100
 73
     1
 74
     1
 75
     0
 76
     0
 77
     0
 78
     0
  0
ENDTAB
  0
TABLE
  2
LTYPE
 70
    11
  0
LTYPE
  2
CONTINUOUS
 70
     0
  3
Solid line
 72
    65
 73
     0
 40
0.0
  0
LTYPE
  2
DOT
 70
     0
  3
. . . . . . . . 
 72
    65
 73
     2
 40
1.0
 49
0.0
 49
-1.0
  0
LTYPE
  2
DASHED
 70
     0
  3
___  ___  ___  ___  
 72
    65
 73
     2
 40
4.0
 49
3.0
 49
-1.0
  0
LTYPE
  2
HIDDEN
 70
     0
  3
__ __ __ __ 
 72
    65
 73
     2
 40
3.0
 49
2.0
 49
-1.0
  0
LTYPE
  2
STITCH
 70
     0
  3
_ _ _ _ 
 72
    65
 73
     2
 40
2.0
 49
1.0
 49
-1.0
  0
LTYPE
  2
CENTER
 70
     0
  3
______  __  ______  __  
 72
    65
 73
     4
 40
43.0
 49
40.0
 49
-1.0
 49
1.0
 49
-1.0
  0
LTYPE
  2
DASHDOT
 70
     0
  3
____ . ____ . 
 72
    65
 73
     4
 40
32.0
 49
30.0
 49
-1.0
 49
0.0
 49
-1.0
  0
LTYPE
  2
BORDER
 70
     0
  3
__ . __ . 
 72
    65
 73
     4
 40
22.0
 49
20.0
 49
-1.0
 49
0.0
 49
-1.0
  0
LTYPE
  2
CUTTING
 70
     0
  3
________   ___   ___   
 72
    65
 73
     6
 40
45.0
 49
40.0
 49
-1.0
 49
1.0
 49
-1.0
 49
1.0
 49
-1.0
  0
LTYPE
  2
PHANTOM
 70
     0
  3
______  __  __  
 72
    65
 73
     6
 40
35.0
 49
30.0
 49
-1.0
 49
1.0
 49
-1.0
 49
1.0
 49
-1.0
  0
LTYPE
  2
DIVIDE
 70
     0
  3
____ . . ____ . . 
 72
    65
 73
     6
 40
23.0
 49
20.0
 49
-1.0
 49
0.0
 49
-1.0
 49
0.0
 49
-1.0
  0
ENDTAB
  0
TABLE
  2
LAYER
 70
     5
  0
LAYER
  2
0
 70
     0
 62
     7
  6
CONTINUOUS
  0
LAYER
  2
ﾚｲﾔ_1
 70
     0
 62
     7
  6
CONTINUOUS
  0
LAYER
  2
寸法線
 70
     0
 62
     7
  6
CONTINUOUS
  0
LAYER
  2
図枠
 70
     0
 62
     7
  6
CONTINUOUS
  0
LAYER
  2
DEFPOINTS
 70
     0
 62
     7
  6
CONTINUOUS
  0
ENDTAB
  0
TABLE
  2
STYLE
 70
     2
  0
STYLE
  2
STANDARD
 70
     0
 40
0.0
 41
1.0
 50
0.0
 71
     0
 42
0.0
  3
txt
  4
extfont
  0
STYLE
  2
ゴシック
 70
     0
 40
0.0
 41
1.0
 50
0.0
 71
     0
 42
1.7676767676767671
  3
txt
  4

  0
ENDTAB
  0
TABLE
  2
VIEW
 70
     0
  0
ENDTAB
  0
TABLE
  2
UCS
 70
     0
  0
ENDTAB
  0
TABLE
  2
APPID
 70
     2
  0
APPID
  2
ACAD
 70
     0
  0
APPID
  2
DCO15
 70
     0
  0
ENDTAB
  0
TABLE
  2
DIMSTYLE
 70
     9
  0
DIMSTYLE
  2
STANDARD
 70
     0
  3

  4

  5

  6

  7

 40
1.0
 41
0.18
 42
0.0625
 43
0.38
 44
0.18
 45
0.0
 46
0.0
 47
0.0
 48
0.0
140
0.18
141
0.09
142
0.0
143
25.399999999999999
144
1.0
145
0.0
146
1.0
147
0.09
 71
     0
 72
     0
 73
     1
 74
     1
 75
     0
 76
     0
 77
     0
 78
     0
170
     0
171
     2
172
     0
173
     0
174
     0
175
     0
176
     0
177
     0
178
     0
  0
DIMSTYLE
  2
VELDIM0
 70
     0
  3

  4

  5

  6

  7

 40
1.0
 41
6.0
 42
0.0625
 43
0.38
 44
1.0
 45
0.0
 46
5.0
 47
0.0
 48
0.0
140
5.997222042099998
141
0.09
142
0.0
143
25.399999999999999
144
1.0
145
0.0
146
1.0
147
0.09
 71
     0
 72
     0
 73
     0
 74
     0
 75
     0
 76
     0
 77
     0
 78
     8
170
     0
171
     2
172
     0
173
     0
174
     0
175
     0
176
     0
177
     0
178
     0
  0
DIMSTYLE
  2
VELDIM1
 70
     0
  3

  4

  5

  6

  7

 40
1.0
 41
1.200000047699999
 42
0.0625
 43
0.38
 44
0.8000000119
 45
0.0
 46
2.0
 47
0.0
 48
0.0
140
1.079499983799999
141
0.09
142
0.0
143
25.399999999999999
144
1.0
145
0.0
146
1.0
147
0.09
 71
     0
 72
     0
 73
     0
 74
     0
 75
     0
 76
     0
 77
     0
 78
     8
170
     0
171
     2
172
     0
173
     0
174
     0
175
     0
176
     0
177
     0
178
     0
  0
DIMSTYLE
  2
VELDIM2
 70
     0
  3

  4

  5

  6

  7

 40
1.0
 41
1.200000047699999
 42
0.0625
 43
0.38
 44
1.25
 45
0.0
 46
5.0
 47
0.0
 48
0.0
140
1.079499983799999
141
0.09
142
0.0
143
25.399999999999999
144
1.0
145
0.0
146
1.0
147
0.09
 71
     0
 72
     0
 73
     0
 74
     0
 75
     0
 76
     0
 77
     0
 78
     8
170
     0
171
     2
172
     0
173
     0
174
     0
175
     0
176
     0
177
     0
178
     0
  0
DIMSTYLE
  2
VELDIM3
 70
     0
  3

  4

  5

  6

  7

 40
1.0
 41
6.0
 42
0.0625
 43
0.38
 44
1.25
 45
0.0
 46
5.0
 47
0.0
 48
0.0
140
5.997222042099998
141
0.09
142
0.0
143
25.399999999999999
144
1.0
145
0.0
146
1.0
147
0.09
 71
     0
 72
     0
 73
     0
 74
     0
 75
     0
 76
     0
 77
     0
 78
     8
170
     0
171
     2
172
     0
173
     0
174
     0
175
     0
176
     0
177
     0
178
     0
  0
DIMSTYLE
  2
ISO-25
 70
     0
  3

  4

  5

  6

  7

 40
1.0
 41
2.5
 42
0.625
 43
3.75
 44
1.25
 45
0.0
 46
0.0
 47
0.0
 48
0.0
140
2.5
141
2.5
142
0.0
143
0.03937007874016
144
1.0
145
0.0
146
1.0
147
0.625
 71
     0
 72
     0
 73
     0
 74
     0
 75
     0
 76
     0
 77
     1
 78
     8
170
     0
171
     3
172
     1
173
     0
174
     0
175
     0
176
     0
177
     0
178
     0
  0
DIMSTYLE
  2
基本_１_１_
 70
     0
  3

  4

  5

  6

  7

 40
0.0
 41
1.5
 42
2.5
 43
7.0
 44
0.1
 45
0.0
 46
0.0
 47
0.0
 48
0.0
140
2.5
141
1.0
142
0.0
143
0.0394
144
1.0
145
0.0
146
1.0
147
0.5
 71
     0
 72
     0
 73
     0
 74
     0
 75
     0
 76
     0
 77
     1
 78
     8
170
     0
171
     4
172
     1
173
     0
174
     0
175
     0
176
     4
177
     4
178
     4
  0
DIMSTYLE
  2
基本_１_２_
 70
     0
  3

  4

  5

  6

  7

 40
0.0
 41
2.5
 42
2.5
 43
14.0
 44
2.0
 45
0.0
 46
0.0
 47
0.0
 48
0.0
140
5.0
141
2.0
142
0.0
143
0.0394
144
1.0
145
0.0
146
1.0
147
1.0
 71
     0
 72
     0
 73
     0
 74
     0
 75
     0
 76
     0
 77
     1
 78
     8
170
     0
171
     4
172
     1
173
     0
174
     0
175
     0
176
     4
177
     4
178
     4
  0
DIMSTYLE
  2
基本_１_２_0
 70
     0
  3

  4

  5

  6

  7

 40
0.0
 41
2.5
 42
2.5
 43
14.0
 44
2.0
 45
0.0
 46
0.0
 47
0.0
 48
0.0
140
5.0
141
2.0
142
0.0
143
0.0394
144
1.0
145
0.0
146
1.0
147
1.0
 71
     0
 72
     0
 73
     0
 74
     0
 75
     0
 76
     0
 77
     1
 78
     8
170
     0
171
     4
172
     1
173
     0
174
     0
175
     0
176
     4
177
     4
178
     4
  0
ENDTAB
  0
ENDSEC
  0
SECTION
  2
BLOCKS
  0
BLOCK
  8
0
  2
$MODEL_SPACE
 70
     0
 10
0.0
 20
0.0
 30
0.0
  3
$MODEL_SPACE
  1

  0
ENDBLK
  5
881
  8
0
  0
BLOCK
 67
     1
  8
0
  2
$PAPER_SPACE
 70
     0
 10
0.0
 20
0.0
 30
0.0
  3
$PAPER_SPACE
  1

  0
ENDBLK
  5
87D
 67
     1
  8
0
  0
BLOCK
  8
0
  2
*D2
 70
     1
 10
0.0
 20
0.0
 30
0.0
  3
*D2
  1

  0
TEXT
  5
33
  8
0
 62
     0
 10
87.721343421900002
 20
91.245442676500005
 30
0.0
 40
5.997222042099998
  1
30
  0
LINE
  5
34
  8
0
 62
     0
 10
76.249121093799999
 20
115.68710937500001
 30
0.0
 11
76.249121093799999
 21
88.187109375000006
 31
0.0
  0
LINE
  5
35
  8
0
 62
     0
 10
106.2491210938
 20
115.68710937500001
 30
0.0
 11
106.2491210938
 21
88.187109375000006
 31
0.0
  0
LINE
  5
36
  8
0
 62
     0
 10
76.249121093799999
 20
89.187109375000006
 30
0.0
 11
98.304676437400005
 21
89.187109375000006
 31
0.0
  0
LINE
  5
37
  8
0
 62
     0
 10
76.249121093799999
 20
89.187109375000006
 30
0.0
 11
84.193565750100007
 21
89.187109375000006
 31
0.0
  0
LINE
  5
38
  8
0
 62
     0
 10
106.2491210938
 20
89.187109375000006
 30
0.0
 11
98.304676437400005
 21
89.187109375000006
 31
0.0
  0
LINE
  5
39
  8
0
 62
     0
 10
106.2491210938
 20
89.187109375000006
 30
0.0
 11
84.193565750100007
 21
89.187109375000006
 31
0.0
  0
LINE
  5
3A
  8
0
 62
     0
 10
106.2491210938
 20
89.187109375000006
 30
0.0
 11
101.2491210937999
 21
89.187109375000006
 31
0.0
  0
SOLID
  5
3B
  8
0
 62
     0
 10
106.2491210938
 20
89.187109375000006
 30
0.0
 11
100.2491210938
 21
87.687109375000006
 31
0.0
 12
100.2491210938
 22
90.687109375000006
 32
0.0
 13
101.7491210938
 23
89.187109375000006
 33
0.0
  0
LINE
  5
3C
  8
0
 62
     0
 10
76.249121093799999
 20
89.187109375000006
 30
0.0
 11
81.249121093799999
 21
89.187109375000006
 31
0.0
  0
SOLID
  5
3D
  8
0
 62
     0
 10
76.249121093799999
 20
89.187109375000006
 30
0.0
 11
82.249121093799985
 21
90.687109375000006
 31
0.0
 12
82.249121093799985
 22
87.687109375000006
 32
0.0
 13
80.749121093799985
 23
89.187109375000006
 33
0.0
  0
ENDBLK
  5
3E
  8
0
  0
BLOCK
  8
0
  2
*D3
 70
     1
 10
0.0
 20
0.0
 30
0.0
  3
*D3
  1

  0
TEXT
  5
43
  8
0
 62
     0
 10
124.7213434219
 20
91.245442676500005
 30
0.0
 40
5.997222042099998
  1
44
  0
LINE
  5
44
  8
0
 62
     0
 10
106.2491210938
 20
115.68710937500001
 30
0.0
 11
106.2491210938
 21
88.187109375000006
 31
0.0
  0
LINE
  5
45
  8
0
 62
     0
 10
150.2491210938
 20
107.18710937500001
 30
0.0
 11
150.2491210938
 21
88.187109375000006
 31
0.0
  0
LINE
  5
46
  8
0
 62
     0
 10
106.2491210938
 20
89.187109375000006
 30
0.0
 11
135.30467643739999
 21
89.187109375000006
 31
0.0
  0
LINE
  5
47
  8
0
 62
     0
 10
106.2491210938
 20
89.187109375000006
 30
0.0
 11
121.19356575010001
 21
89.187109375000006
 31
0.0
  0
LINE
  5
48
  8
0
 62
     0
 10
150.2491210938
 20
89.187109375000006
 30
0.0
 11
135.30467643739999
 21
89.187109375000006
 31
0.0
  0
LINE
  5
49
  8
0
 62
     0
 10
150.2491210938
 20
89.187109375000006
 30
0.0
 11
121.19356575010001
 21
89.187109375000006
 31
0.0
  0
LINE
  5
4A
  8
0
 62
     0
 10
150.2491210938
 20
89.187109375000006
 30
0.0
 11
145.2491210938
 21
89.187109375000006
 31
0.0
  0
SOLID
  5
4B
  8
0
 62
     0
 10
150.2491210938
 20
89.187109375000006
 30
0.0
 11
144.2491210938
 21
87.687109375000006
 31
0.0
 12
144.2491210938
 22
90.687109375000006
 32
0.0
 13
145.7491210938
 23
89.187109375000006
 33
0.0
  0
LINE
  5
4C
  8
0
 62
     0
 10
106.2491210938
 20
89.187109375000006
 30
0.0
 11
111.2491210938
 21
89.187109375000006
 31
0.0
  0
SOLID
  5
4D
  8
0
 62
     0
 10
106.2491210938
 20
89.187109375000006
 30
0.0
 11
112.2491210938
 21
90.687109375000006
 31
0.0
 12
112.2491210938
 22
87.687109375000006
 32
0.0
 13
110.7491210938
 23
89.187109375000006
 33
0.0
  0
ENDBLK
  5
4E
  8
0
  0
BLOCK
  8
0
  2
*D4
 70
     1
 10
0.0
 20
0.0
 30
0.0
  3
*D4
  1

  0
TEXT
  5
52
  8
0
 62
     0
 10
38.190787792199998
 20
129.6593317032
 30
0.0
 40
5.997222042099998
  1
16
 50
90.0
  0
LINE
  5
53
  8
0
 62
     0
 10
58.249121093799999
 20
141.18710937500001
 30
0.0
 11
39.249121093799999
 21
141.18710937500001
 31
0.0
  0
LINE
  5
54
  8
0
 62
     0
 10
66.749121093799999
 20
125.18710937500001
 30
0.0
 11
39.249121093799999
 21
125.18710937500001
 31
0.0
  0
LINE
  5
55
  8
0
 62
     0
 10
40.249121093799992
 20
141.18710937500001
 30
0.0
 11
40.249121093799992
 21
140.2426647186
 31
0.0
  0
LINE
  5
56
  8
0
 62
     0
 10
40.249121093799992
 20
141.18710937500001
 30
0.0
 11
40.249121093799992
 21
126.1315540314
 31
0.0
  0
LINE
  5
57
  8
0
 62
     0
 10
40.249121093799992
 20
125.18710937500001
 30
0.0
 11
40.249121093799992
 21
140.2426647186
 31
0.0
  0
LINE
  5
58
  8
0
 62
     0
 10
40.249121093799992
 20
125.18710937500001
 30
0.0
 11
40.249121093799992
 21
126.1315540314
 31
0.0
  0
LINE
  5
59
  8
0
 62
     0
 10
40.249121093799992
 20
125.18710937500001
 30
0.0
 11
40.249121093799992
 21
120.18710937500001
 31
0.0
  0
SOLID
  5
5A
  8
0
 62
     0
 10
40.249121093799992
 20
125.18710937500001
 30
0.0
 11
41.749121093799999
 21
119.18710937500001
 31
0.0
 12
38.749121093799999
 22
119.18710937500001
 32
0.0
 13
40.249121093799992
 23
120.68710937500001
 33
0.0
  0
LINE
  5
5B
  8
0
 62
     0
 10
40.249121093799992
 20
141.18710937500001
 30
0.0
 11
40.249121093799992
 21
146.18710937500001
 31
0.0
  0
SOLID
  5
5C
  8
0
 62
     0
 10
40.249121093799992
 20
141.18710937500001
 30
0.0
 11
38.749121093799999
 21
147.18710937500001
 31
0.0
 12
41.749121093799999
 22
147.18710937500001
 32
0.0
 13
40.249121093799992
 23
145.68710937500001
 33
0.0
  0
ENDBLK
  5
5D
  8
0
  0
BLOCK
  8
0
  2
*D5
 70
     1
 10
0.0
 20
0.0
 30
0.0
  3
*D5
  1

  0
TEXT
  5
61
  8
0
 62
     0
 10
38.190787792199998
 20
113.6593317032
 30
0.0
 40
5.997222042099998
  1
16
 50
90.0
  0
LINE
  5
62
  8
0
 62
     0
 10
66.749121093799999
 20
125.18710937500001
 30
0.0
 11
39.249121093799999
 21
125.18710937500001
 31
0.0
  0
LINE
  5
63
  8
0
 62
     0
 10
58.249121093799999
 20
109.18710937500001
 30
0.0
 11
39.249121093799999
 21
109.18710937500001
 31
0.0
  0
LINE
  5
64
  8
0
 62
     0
 10
40.249121093799992
 20
125.18710937500001
 30
0.0
 11
40.249121093799992
 21
124.2426647186
 31
0.0
  0
LINE
  5
65
  8
0
 62
     0
 10
40.249121093799992
 20
125.18710937500001
 30
0.0
 11
40.249121093799992
 21
110.1315540314
 31
0.0
  0
LINE
  5
66
  8
0
 62
     0
 10
40.249121093799992
 20
109.18710937500001
 30
0.0
 11
40.249121093799992
 21
124.2426647186
 31
0.0
  0
LINE
  5
67
  8
0
 62
     0
 10
40.249121093799992
 20
109.18710937500001
 30
0.0
 11
40.249121093799992
 21
110.1315540314
 31
0.0
  0
LINE
  5
68
  8
0
 62
     0
 10
40.249121093799992
 20
109.18710937500001
 30
0.0
 11
40.249121093799992
 21
104.18710937500001
 31
0.0
  0
SOLID
  5
69
  8
0
 62
     0
 10
40.249121093799992
 20
109.18710937500001
 30
0.0
 11
41.749121093799999
 21
103.18710937500001
 31
0.0
 12
38.749121093799999
 22
103.18710937500001
 32
0.0
 13
40.249121093799992
 23
104.68710937500001
 33
0.0
  0
LINE
  5
6A
  8
0
 62
     0
 10
40.249121093799992
 20
125.18710937500001
 30
0.0
 11
40.249121093799992
 21
130.18710937500001
 31
0.0
  0
SOLID
  5
6B
  8
0
 62
     0
 10
40.249121093799992
 20
125.18710937500001
 30
0.0
 11
38.749121093799999
 21
131.18710937500001
 31
0.0
 12
41.749121093799999
 22
131.18710937500001
 32
0.0
 13
40.249121093799992
 23
129.68710937500001
 33
0.0
  0
ENDBLK
  5
6C
  8
0
  0
BLOCK
  8
0
  2
*D6
 70
     1
 10
0.0
 20
0.0
 30
0.0
  3
*D6
  1

  0
TEXT
  5
70
  8
0
 62
     0
 10
64.721343421900002
 20
91.245442676500005
 30
0.0
 40
5.997222042099998
  1
16
  0
LINE
  5
71
  8
0
 62
     0
 10
60.249121093799999
 20
107.18710937500001
 30
0.0
 11
60.249121093799999
 21
88.187109375000006
 31
0.0
  0
LINE
  5
72
  8
0
 62
     0
 10
76.249121093799999
 20
115.68710937500001
 30
0.0
 11
76.249121093799999
 21
88.187109375000006
 31
0.0
  0
LINE
  5
73
  8
0
 62
     0
 10
60.249121093799999
 20
89.187109375000006
 30
0.0
 11
75.304676437399991
 21
89.187109375000006
 31
0.0
  0
LINE
  5
74
  8
0
 62
     0
 10
60.249121093799999
 20
89.187109375000006
 30
0.0
 11
61.193565750099999
 21
89.187109375000006
 31
0.0
  0
LINE
  5
75
  8
0
 62
     0
 10
76.249121093799999
 20
89.187109375000006
 30
0.0
 11
75.304676437399991
 21
89.187109375000006
 31
0.0
  0
LINE
  5
76
  8
0
 62
     0
 10
76.249121093799999
 20
89.187109375000006
 30
0.0
 11
61.193565750099999
 21
89.187109375000006
 31
0.0
  0
LINE
  5
77
  8
0
 62
     0
 10
76.249121093799999
 20
89.187109375000006
 30
0.0
 11
81.249121093799999
 21
89.187109375000006
 31
0.0
  0
SOLID
  5
78
  8
0
 62
     0
 10
76.249121093799999
 20
89.187109375000006
 30
0.0
 11
82.249121093799985
 21
90.687109375000006
 31
0.0
 12
82.249121093799985
 22
87.687109375000006
 32
0.0
 13
80.749121093799985
 23
89.187109375000006
 33
0.0
  0
LINE
  5
79
  8
0
 62
     0
 10
60.249121093799999
 20
89.187109375000006
 30
0.0
 11
55.249121093799999
 21
89.187109375000006
 31
0.0
  0
SOLID
  5
7A
  8
0
 62
     0
 10
60.249121093799999
 20
89.187109375000006
 30
0.0
 11
54.249121093799999
 21
87.687109375000006
 31
0.0
 12
54.249121093799999
 22
90.687109375000006
 32
0.0
 13
55.749121093799999
 23
89.187109375000006
 33
0.0
  0
ENDBLK
  5
7B
  8
0
  0
BLOCK
  8
0
  2
*D7
 70
     1
 10
0.0
 20
0.0
 30
0.0
  3
*D7
  1

  0
TEXT
  5
12A
  8
0
 62
     0
 10
-112.5277776718
 20
91.245442676500005
 30
0.0
 40
5.997222042099998
  1
30
  0
LINE
  5
12B
  8
0
 62
     0
 10
-124.0
 20
115.68710937500001
 30
0.0
 11
-124.0
 21
88.187109375000006
 31
0.0
  0
LINE
  5
12C
  8
0
 62
     0
 10
-94.0
 20
115.68710937500001
 30
0.0
 11
-94.0
 21
88.187109375000006
 31
0.0
  0
LINE
  5
12D
  8
0
 62
     0
 10
-124.0
 20
89.187109375000006
 30
0.0
 11
-101.94444465639999
 21
89.187109375000006
 31
0.0
  0
LINE
  5
12E
  8
0
 62
     0
 10
-124.0
 20
89.187109375000006
 30
0.0
 11
-116.05555534360001
 21
89.187109375000006
 31
0.0
  0
LINE
  5
12F
  8
0
 62
     0
 10
-94.0
 20
89.187109375000006
 30
0.0
 11
-101.94444465639999
 21
89.187109375000006
 31
0.0
  0
LINE
  5
130
  8
0
 62
     0
 10
-94.0
 20
89.187109375000006
 30
0.0
 11
-116.05555534360001
 21
89.187109375000006
 31
0.0
  0
LINE
  5
131
  8
0
 62
     0
 10
-94.0
 20
89.187109375000006
 30
0.0
 11
-99.0
 21
89.187109375000006
 31
0.0
  0
SOLID
  5
132
  8
0
 62
     0
 10
-94.0
 20
89.187109375000006
 30
0.0
 11
-100.0
 21
87.687109375000006
 31
0.0
 12
-100.0
 22
90.687109375000006
 32
0.0
 13
-98.500000000000014
 23
89.187109375000006
 33
0.0
  0
LINE
  5
133
  8
0
 62
     0
 10
-124.0
 20
89.187109375000006
 30
0.0
 11
-119.0
 21
89.187109375000006
 31
0.0
  0
SOLID
  5
134
  8
0
 62
     0
 10
-124.0
 20
89.187109375000006
 30
0.0
 11
-118.0
 21
90.687109375000006
 31
0.0
 12
-118.0
 22
87.687109375000006
 32
0.0
 13
-119.5
 23
89.187109375000006
 33
0.0
  0
ENDBLK
  5
135
  8
0
  0
BLOCK
  8
0
  2
*D8
 70
     1
 10
0.0
 20
0.0
 30
0.0
  3
*D8
  1

  0
TEXT
  5
139
  8
0
 62
     0
 10
-82.52777767180001
 20
91.245442676500005
 30
0.0
 40
5.997222042099998
  1
30
  0
LINE
  5
13A
  8
0
 62
     0
 10
-94.0
 20
115.68710937500001
 30
0.0
 11
-94.0
 21
88.187109375000006
 31
0.0
  0
LINE
  5
13B
  8
0
 62
     0
 10
-64.0
 20
115.68710937500001
 30
0.0
 11
-64.0
 21
88.187109375000006
 31
0.0
  0
LINE
  5
13C
  8
0
 62
     0
 10
-94.0
 20
89.187109375000006
 30
0.0
 11
-71.944444656400009
 21
89.187109375000006
 31
0.0
  0
LINE
  5
13D
  8
0
 62
     0
 10
-94.0
 20
89.187109375000006
 30
0.0
 11
-86.055555343600005
 21
89.187109375000006
 31
0.0
  0
LINE
  5
13E
  8
0
 62
     0
 10
-64.0
 20
89.187109375000006
 30
0.0
 11
-71.944444656400009
 21
89.187109375000006
 31
0.0
  0
LINE
  5
13F
  8
0
 62
     0
 10
-64.0
 20
89.187109375000006
 30
0.0
 11
-86.055555343600005
 21
89.187109375000006
 31
0.0
  0
LINE
  5
140
  8
0
 62
     0
 10
-64.0
 20
89.187109375000006
 30
0.0
 11
-69.0
 21
89.187109375000006
 31
0.0
  0
SOLID
  5
141
  8
0
 62
     0
 10
-64.0
 20
89.187109375000006
 30
0.0
 11
-70.0
 21
87.687109375000006
 31
0.0
 12
-70.0
 22
90.687109375000006
 32
0.0
 13
-68.5
 23
89.187109375000006
 33
0.0
  0
LINE
  5
142
  8
0
 62
     0
 10
-94.0
 20
89.187109375000006
 30
0.0
 11
-89.0
 21
89.187109375000006
 31
0.0
  0
SOLID
  5
143
  8
0
 62
     0
 10
-94.0
 20
89.187109375000006
 30
0.0
 11
-88.0
 21
90.687109375000006
 31
0.0
 12
-88.0
 22
87.687109375000006
 32
0.0
 13
-89.500000000000014
 23
89.187109375000006
 33
0.0
  0
ENDBLK
  5
144
  8
0
  0
BLOCK
  8
0
  2
*D9
 70
     1
 10
0.0
 20
0.0
 30
0.0
  3
*D9
  1

  0
TEXT
  5
148
  8
0
 62
     0
 10
-57.527777671800003
 20
91.245442676500005
 30
0.0
 40
5.997222042099998
  1
20
  0
LINE
  5
149
  8
0
 62
     0
 10
-64.0
 20
115.68710937500001
 30
0.0
 11
-64.0
 21
88.187109375000006
 31
0.0
  0
LINE
  5
14A
  8
0
 62
     0
 10
-44.0
 20
107.18710937500001
 30
0.0
 11
-44.0
 21
88.187109375000006
 31
0.0
  0
LINE
  5
14B
  8
0
 62
     0
 10
-64.0
 20
89.187109375000006
 30
0.0
 11
-46.944444656400002
 21
89.187109375000006
 31
0.0
  0
LINE
  5
14C
  8
0
 62
     0
 10
-64.0
 20
89.187109375000006
 30
0.0
 11
-61.055555343599998
 21
89.187109375000006
 31
0.0
  0
LINE
  5
14D
  8
0
 62
     0
 10
-44.0
 20
89.187109375000006
 30
0.0
 11
-46.944444656400002
 21
89.187109375000006
 31
0.0
  0
LINE
  5
14E
  8
0
 62
     0
 10
-44.0
 20
89.187109375000006
 30
0.0
 11
-61.055555343599998
 21
89.187109375000006
 31
0.0
  0
LINE
  5
14F
  8
0
 62
     0
 10
-44.0
 20
89.187109375000006
 30
0.0
 11
-39.0
 21
89.187109375000006
 31
0.0
  0
SOLID
  5
150
  8
0
 62
     0
 10
-44.0
 20
89.187109375000006
 30
0.0
 11
-38.0
 21
90.687109375000006
 31
0.0
 12
-38.0
 22
87.687109375000006
 32
0.0
 13
-39.5
 23
89.187109375000006
 33
0.0
  0
LINE
  5
151
  8
0
 62
     0
 10
-64.0
 20
89.187109375000006
 30
0.0
 11
-69.0
 21
89.187109375000006
 31
0.0
  0
SOLID
  5
152
  8
0
 62
     0
 10
-64.0
 20
89.187109375000006
 30
0.0
 11
-70.0
 21
87.687109375000006
 31
0.0
 12
-70.0
 22
90.687109375000006
 32
0.0
 13
-68.5
 23
89.187109375000006
 33
0.0
  0
ENDBLK
  5
153
  8
0
  0
BLOCK
  8
0
  2
*D10
 70
     1
 10
0.0
 20
0.0
 30
0.0
  3
*D10
  1

  0
TEXT
  5
157
  8
0
 62
     0
 10
-176.0583333015
 20
113.6593317032
 30
0.0
 40
5.997222042099998
  1
16
 50
90.0
  0
LINE
  5
158
  8
0
 62
     0
 10
-160.10048319200001
 20
125.18710937500001
 30
0.0
 11
-175.0
 21
125.18710937500001
 31
0.0
  0
LINE
  5
159
  8
0
 62
     0
 10
-156.0
 20
109.18710937500001
 30
0.0
 11
-175.0
 21
109.18710937500001
 31
0.0
  0
LINE
  5
15A
  8
0
 62
     0
 10
-174.0
 20
125.18710937500001
 30
0.0
 11
-174.0
 21
124.2426647186
 31
0.0
  0
LINE
  5
15B
  8
0
 62
     0
 10
-174.0
 20
125.18710937500001
 30
0.0
 11
-174.0
 21
110.1315540314
 31
0.0
  0
LINE
  5
15C
  8
0
 62
     0
 10
-174.0
 20
109.18710937500001
 30
0.0
 11
-174.0
 21
124.2426647186
 31
0.0
  0
LINE
  5
15D
  8
0
 62
     0
 10
-174.0
 20
109.18710937500001
 30
0.0
 11
-174.0
 21
110.1315540314
 31
0.0
  0
LINE
  5
15E
  8
0
 62
     0
 10
-174.0
 20
109.18710937500001
 30
0.0
 11
-174.0
 21
104.18710937500001
 31
0.0
  0
SOLID
  5
15F
  8
0
 62
     0
 10
-174.0
 20
109.18710937500001
 30
0.0
 11
-172.5
 21
103.18710937500001
 31
0.0
 12
-175.5
 22
103.18710937500001
 32
0.0
 13
-174.0
 23
104.68710937500001
 33
0.0
  0
LINE
  5
160
  8
0
 62
     0
 10
-174.0
 20
125.18710937500001
 30
0.0
 11
-174.0
 21
130.18710937500001
 31
0.0
  0
SOLID
  5
161
  8
0
 62
     0
 10
-174.0
 20
125.18710937500001
 30
0.0
 11
-175.5
 21
131.18710937500001
 31
0.0
 12
-172.5
 22
131.18710937500001
 32
0.0
 13
-174.0
 23
129.68710937500001
 33
0.0
  0
ENDBLK
  5
162
  8
0
  0
BLOCK
  8
0
  2
*D11
 70
     1
 10
0.0
 20
0.0
 30
0.0
  3
*D11
  1

  0
TEXT
  5
166
  8
0
 62
     0
 10
-176.0583333015
 20
129.6593317032
 30
0.0
 40
5.997222042099998
  1
16
 50
90.0
  0
LINE
  5
167
  8
0
 62
     0
 10
-156.0
 20
141.18710937500001
 30
0.0
 11
-175.0
 21
141.18710937500001
 31
0.0
  0
LINE
  5
168
  8
0
 62
     0
 10
-160.10048319200001
 20
125.18710937500001
 30
0.0
 11
-175.0
 21
125.18710937500001
 31
0.0
  0
LINE
  5
169
  8
0
 62
     0
 10
-174.0
 20
141.18710937500001
 30
0.0
 11
-174.0
 21
140.2426647186
 31
0.0
  0
LINE
  5
16A
  8
0
 62
     0
 10
-174.0
 20
141.18710937500001
 30
0.0
 11
-174.0
 21
126.1315540314
 31
0.0
  0
LINE
  5
16B
  8
0
 62
     0
 10
-174.0
 20
125.18710937500001
 30
0.0
 11
-174.0
 21
140.2426647186
 31
0.0
  0
LINE
  5
16C
  8
0
 62
     0
 10
-174.0
 20
125.18710937500001
 30
0.0
 11
-174.0
 21
126.1315540314
 31
0.0
  0
LINE
  5
16D
  8
0
 62
     0
 10
-174.0
 20
125.18710937500001
 30
0.0
 11
-174.0
 21
120.18710937500001
 31
0.0
  0
SOLID
  5
16E
  8
0
 62
     0
 10
-174.0
 20
125.18710937500001
 30
0.0
 11
-172.5
 21
119.18710937500001
 31
0.0
 12
-175.5
 22
119.18710937500001
 32
0.0
 13
-174.0
 23
120.68710937500001
 33
0.0
  0
LINE
  5
16F
  8
0
 62
     0
 10
-174.0
 20
141.18710937500001
 30
0.0
 11
-174.0
 21
146.18710937500001
 31
0.0
  0
SOLID
  5
170
  8
0
 62
     0
 10
-174.0
 20
141.18710937500001
 30
0.0
 11
-175.5
 21
147.18710937500001
 31
0.0
 12
-172.5
 22
147.18710937500001
 32
0.0
 13
-174.0
 23
145.68710937500001
 33
0.0
  0
ENDBLK
  5
171
  8
0
  0
BLOCK
  8
0
  2
*D12
 70
     1
 10
0.0
 20
0.0
 30
0.0
  3
*D12
  1

  0
TEXT
  5
175
  8
0
 62
     0
 10
-193.96507158279999
 20
121.6593317032
 30
0.0
 40
5.997222042099998
  1
32
 50
90.0
  0
LINE
  5
176
  8
0
 62
     0
 10
-156.0
 20
141.18710937500001
 30
0.0
 11
-192.90673828119981
 21
141.18710937500001
 31
0.0
  0
LINE
  5
177
  8
0
 62
     0
 10
-156.0
 20
109.18710937500001
 30
0.0
 11
-192.90673828119981
 21
109.18710937500001
 31
0.0
  0
LINE
  5
178
  8
0
 62
     0
 10
-191.90673828119981
 20
141.18710937500001
 30
0.0
 11
-191.90673828119981
 21
132.2426647186
 31
0.0
  0
LINE
  5
179
  8
0
 62
     0
 10
-191.90673828119981
 20
141.18710937500001
 30
0.0
 11
-191.90673828119981
 21
118.1315540314
 31
0.0
  0
LINE
  5
17A
  8
0
 62
     0
 10
-191.90673828119981
 20
109.18710937500001
 30
0.0
 11
-191.90673828119981
 21
132.2426647186
 31
0.0
  0
LINE
  5
17B
  8
0
 62
     0
 10
-191.90673828119981
 20
109.18710937500001
 30
0.0
 11
-191.90673828119981
 21
118.1315540314
 31
0.0
  0
LINE
  5
17C
  8
0
 62
     0
 10
-191.90673828119981
 20
109.18710937500001
 30
0.0
 11
-191.90673828119981
 21
114.18710937500001
 31
0.0
  0
SOLID
  5
17D
  8
0
 62
     0
 10
-191.90673828119981
 20
109.18710937500001
 30
0.0
 11
-193.40673828119981
 21
115.18710937500001
 31
0.0
 12
-190.40673828120001
 22
115.18710937500001
 32
0.0
 13
-191.90673828119981
 23
113.68710937500001
 33
0.0
  0
LINE
  5
17E
  8
0
 62
     0
 10
-191.90673828119981
 20
141.18710937500001
 30
0.0
 11
-191.90673828119981
 21
136.18710937500001
 31
0.0
  0
SOLID
  5
17F
  8
0
 62
     0
 10
-191.90673828119981
 20
141.18710937500001
 30
0.0
 11
-190.40673828120001
 21
135.18710937500001
 31
0.0
 12
-193.40673828119981
 22
135.18710937500001
 32
0.0
 13
-191.90673828119981
 23
136.68710937500001
 33
0.0
  0
ENDBLK
  5
180
  8
0
  0
BLOCK
  8
0
  2
*D13
 70
     1
 10
0.0
 20
0.0
 30
0.0
  3
*D13
  1

  0
TEXT
  5
184
  8
0
 62
     0
 10
-142.52777767180001
 20
91.245442676500005
 30
0.0
 40
5.997222042099998
  1
30
  0
LINE
  5
185
  8
0
 62
     0
 10
-154.0
 20
107.18710937500001
 30
0.0
 11
-154.0
 21
88.187109375000006
 31
0.0
  0
LINE
  5
186
  8
0
 62
     0
 10
-124.0
 20
115.68710937500001
 30
0.0
 11
-124.0
 21
88.187109375000006
 31
0.0
  0
LINE
  5
187
  8
0
 62
     0
 10
-154.0
 20
89.187109375000006
 30
0.0
 11
-131.94444465640001
 21
89.187109375000006
 31
0.0
  0
LINE
  5
188
  8
0
 62
     0
 10
-154.0
 20
89.187109375000006
 30
0.0
 11
-146.05555534359999
 21
89.187109375000006
 31
0.0
  0
LINE
  5
189
  8
0
 62
     0
 10
-124.0
 20
89.187109375000006
 30
0.0
 11
-131.94444465640001
 21
89.187109375000006
 31
0.0
  0
LINE
  5
18A
  8
0
 62
     0
 10
-124.0
 20
89.187109375000006
 30
0.0
 11
-146.05555534359999
 21
89.187109375000006
 31
0.0
  0
LINE
  5
18B
  8
0
 62
     0
 10
-124.0
 20
89.187109375000006
 30
0.0
 11
-129.0
 21
89.187109375000006
 31
0.0
  0
SOLID
  5
18C
  8
0
 62
     0
 10
-124.0
 20
89.187109375000006
 30
0.0
 11
-130.0
 21
87.687109375000006
 31
0.0
 12
-130.0
 22
90.687109375000006
 32
0.0
 13
-128.5
 23
89.187109375000006
 33
0.0
  0
LINE
  5
18D
  8
0
 62
     0
 10
-154.0
 20
89.187109375000006
 30
0.0
 11
-149.0
 21
89.187109375000006
 31
0.0
  0
SOLID
  5
18E
  8
0
 62
     0
 10
-154.0
 20
89.187109375000006
 30
0.0
 11
-148.0
 21
90.687109375000006
 31
0.0
 12
-148.0
 22
87.687109375000006
 32
0.0
 13
-149.5
 23
89.187109375000006
 33
0.0
  0
ENDBLK
  5
18F
  8
0
  0
BLOCK
  8
0
  2
*D14
 70
     1
 10
0.0
 20
0.0
 30
0.0
  3
*D14
  1

  0
TEXT
  5
1CD
  8
0
 62
     0
 10
-25.308333301499999
 20
-33.694136969900001
 30
0.0
 40
5.997222042099998
  1
4.5t
 50
90.0
  0
LINE
  5
1CE
  8
0
 62
     0
 10
-42.0
 20
-46.17304687499999
 30
0.0
 11
-22.25
 21
-46.17304687499999
 31
0.0
  0
LINE
  5
1CF
  8
0
 62
     0
 10
-41.25
 20
-41.673046874999983
 30
0.0
 11
-22.25
 21
-41.673046874999983
 31
0.0
  0
LINE
  5
1D0
  8
0
 62
     0
 10
-23.25
 20
-46.17304687499999
 30
0.0
 11
-23.25
 21
-16.0552486108
 31
0.0
  0
LINE
  5
1D1
  8
0
 62
     0
 10
-23.25
 20
-46.17304687499999
 30
0.0
 11
-23.25
 21
-37.22191464170001
 31
0.0
  0
LINE
  5
1D2
  8
0
 62
     0
 10
-23.25
 20
-41.673046874999983
 30
0.0
 11
-23.25
 21
-16.0552486108
 31
0.0
  0
LINE
  5
1D3
  8
0
 62
     0
 10
-23.25
 20
-41.673046874999983
 30
0.0
 11
-23.25
 21
-37.22191464170001
 31
0.0
  0
LINE
  5
1D4
  8
0
 62
     0
 10
-23.25
 20
-41.673046874999983
 30
0.0
 11
-23.25
 21
-36.673046874999997
 31
0.0
  0
SOLID
  5
1D5
  8
0
 62
     0
 10
-23.25
 20
-41.673046874999983
 30
0.0
 11
-24.75
 21
-35.673046874999997
 31
0.0
 12
-21.75
 22
-35.673046874999997
 32
0.0
 13
-23.25
 23
-37.173046874999997
 33
0.0
  0
LINE
  5
1D6
  8
0
 62
     0
 10
-23.25
 20
-46.17304687499999
 30
0.0
 11
-23.25
 21
-51.17304687499999
 31
0.0
  0
SOLID
  5
1D7
  8
0
 62
     0
 10
-23.25
 20
-46.17304687499999
 30
0.0
 11
-21.75
 21
-52.173046874999997
 31
0.0
 12
-24.75
 22
-52.173046874999997
 32
0.0
 13
-23.25
 23
-50.673046874999997
 33
0.0
  0
ENDBLK
  5
1D8
  8
0
  0
BLOCK
  8
0
  2
*D15
 70
     1
 10
0.0
 20
0.0
 30
0.0
  3
*D15
  1

  0
TEXT
  5
1DC
  8
0
 62
     0
 10
-104.2916665077
 20
-64.114713573499969
 30
0.0
 40
5.997222042099998
  1
110
  0
LINE
  5
1DD
  8
0
 62
     0
 10
-154.0
 20
-42.673046874999997
 30
0.0
 11
-154.0
 21
-67.173046874999997
 31
0.0
  0
LINE
  5
1DE
  8
0
 62
     0
 10
-44.0
 20
-48.173046874999997
 30
0.0
 11
-44.0
 21
-67.173046874999997
 31
0.0
  0
LINE
  5
1DF
  8
0
 62
     0
 10
-154.0
 20
-66.173046874999983
 30
0.0
 11
-90.18055582049999
 21
-66.173046874999983
 31
0.0
  0
LINE
  5
1E0
  8
0
 62
     0
 10
-154.0
 20
-66.173046874999983
 30
0.0
 11
-107.8194441795
 21
-66.173046874999983
 31
0.0
  0
LINE
  5
1E1
  8
0
 62
     0
 10
-44.0
 20
-66.173046874999983
 30
0.0
 11
-90.18055582049999
 21
-66.173046874999983
 31
0.0
  0
LINE
  5
1E2
  8
0
 62
     0
 10
-44.0
 20
-66.173046874999983
 30
0.0
 11
-107.8194441795
 21
-66.173046874999983
 31
0.0
  0
LINE
  5
1E3
  8
0
 62
     0
 10
-44.0
 20
-66.173046874999983
 30
0.0
 11
-49.0
 21
-66.173046874999983
 31
0.0
  0
SOLID
  5
1E4
  8
0
 62
     0
 10
-44.0
 20
-66.173046874999983
 30
0.0
 11
-50.0
 21
-67.673046874999997
 31
0.0
 12
-50.0
 22
-64.673046874999997
 32
0.0
 13
-48.5
 23
-66.173046874999983
 33
0.0
  0
LINE
  5
1E5
  8
0
 62
     0
 10
-154.0
 20
-66.173046874999983
 30
0.0
 11
-149.0
 21
-66.173046874999983
 31
0.0
  0
SOLID
  5
1E6
  8
0
 62
     0
 10
-154.0
 20
-66.173046874999983
 30
0.0
 11
-148.0
 21
-64.673046874999997
 31
0.0
 12
-148.0
 22
-67.673046874999997
 32
0.0
 13
-149.5
 23
-66.173046874999983
 33
0.0
  0
ENDBLK
  5
1E7
  8
0
  0
BLOCK
  8
0
  2
*D16
 70
     1
 10
0.0
 20
0.0
 30
0.0
  3
*D16
  1

  0
TEXT
  5
1EC
  8
0
 62
     0
 10
-124.9524999857
 20
-52.3440298939
 30
0.0
 40
1.079499983799999
  1
%%c4
  0
LINE
  5
1ED
  8
0
 62
     0
 10
-126.25
 20
-48.173046874999997
 30
0.0
 11
-126.25
 21
-53.734529908900001
 31
0.0
  0
LINE
  5
1EE
  8
0
 62
     0
 10
-121.75
 20
-48.173046874999997
 30
0.0
 11
-121.75
 21
-53.734529908900001
 31
0.0
  0
LINE
  5
1EF
  8
0
 62
     0
 10
-126.25
 20
-52.934529896999997
 30
0.0
 11
-122.41250002380001
 21
-52.934529896999997
 31
0.0
  0
LINE
  5
1F0
  8
0
 62
     0
 10
-126.25
 20
-52.934529896999997
 30
0.0
 11
-125.58749997619999
 21
-52.934529896999997
 31
0.0
  0
LINE
  5
1F1
  8
0
 62
     0
 10
-121.75
 20
-52.934529896999997
 30
0.0
 11
-122.41250002380001
 21
-52.934529896999997
 31
0.0
  0
LINE
  5
1F2
  8
0
 62
     0
 10
-121.75
 20
-52.934529896999997
 30
0.0
 11
-125.58749997619999
 21
-52.934529896999997
 31
0.0
  0
LINE
  5
1F3
  8
0
 62
     0
 10
-121.75
 20
-52.934529896999997
 30
0.0
 11
-119.75
 21
-52.934529896999997
 31
0.0
  0
SOLID
  5
1F4
  8
0
 62
     0
 10
-121.75
 20
-52.934529896999997
 30
0.0
 11
-120.5499999523
 21
-52.612929906800012
 31
0.0
 12
-120.5499999523
 22
-53.256129887100002
 32
0.0
 13
-120.84999996419999
 23
-52.934529896999997
 33
0.0
  0
LINE
  5
1F5
  8
0
 62
     0
 10
-126.25
 20
-52.934529896999997
 30
0.0
 11
-128.25
 21
-52.934529896999997
 31
0.0
  0
SOLID
  5
1F6
  8
0
 62
     0
 10
-126.25
 20
-52.934529896999997
 30
0.0
 11
-127.4500000477
 21
-53.256129887100002
 31
0.0
 12
-127.4500000477
 22
-52.612929906800012
 32
0.0
 13
-127.15000003580001
 23
-52.934529896999997
 33
0.0
  0
ENDBLK
  5
1F7
  8
0
  0
BLOCK
  8
0
  2
*D17
 70
     1
 10
0.0
 20
0.0
 30
0.0
  3
*D17
  1

  0
TEXT
  5
1FB
  8
0
 62
     0
 10
-124.9524999857
 20
-36.3146090113
 30
0.0
 40
1.079499983799999
  1
%%c8
  0
LINE
  5
1FC
  8
0
 62
     0
 10
-119.75
 20
-39.673046874999997
 30
0.0
 11
-119.75
 21
-36.105109002399999
 31
0.0
  0
LINE
  5
1FD
  8
0
 62
     0
 10
-128.25
 20
-39.673046874999997
 30
0.0
 11
-128.25
 21
-36.105109002399999
 31
0.0
  0
LINE
  5
1FE
  8
0
 62
     0
 10
-119.75
 20
-36.905109014399997
 30
0.0
 11
-122.41250002380001
 21
-36.905109014399997
 31
0.0
  0
LINE
  5
1FF
  8
0
 62
     0
 10
-119.75
 20
-36.905109014399997
 30
0.0
 11
-125.58749997619999
 21
-36.905109014399997
 31
0.0
  0
LINE
  5
200
  8
0
 62
     0
 10
-128.25
 20
-36.905109014399997
 30
0.0
 11
-122.41250002380001
 21
-36.905109014399997
 31
0.0
  0
LINE
  5
201
  8
0
 62
     0
 10
-128.25
 20
-36.905109014399997
 30
0.0
 11
-125.58749997619999
 21
-36.905109014399997
 31
0.0
  0
LINE
  5
202
  8
0
 62
     0
 10
-128.25
 20
-36.905109014399997
 30
0.0
 11
-126.25
 21
-36.905109014399997
 31
0.0
  0
SOLID
  5
203
  8
0
 62
     0
 10
-128.25
 20
-36.905109014399997
 30
0.0
 11
-127.0499999523
 21
-36.583509024199998
 31
0.0
 12
-127.0499999523
 22
-37.226709004500002
 32
0.0
 13
-127.34999996419999
 23
-36.905109014399997
 33
0.0
  0
LINE
  5
204
  8
0
 62
     0
 10
-119.75
 20
-36.905109014399997
 30
0.0
 11
-121.75
 21
-36.905109014399997
 31
0.0
  0
SOLID
  5
205
  8
0
 62
     0
 10
-119.75
 20
-36.905109014399997
 30
0.0
 11
-120.9500000477
 21
-37.226709004500002
 31
0.0
 12
-120.9500000477
 22
-36.583509024199998
 32
0.0
 13
-120.65000003580001
 23
-36.905109014399997
 33
0.0
  0
ENDBLK
  5
206
  8
0
  0
BLOCK
  8
0
  2
*D18
 70
     1
 10
0.0
 20
0.0
 30
0.0
  3
*D18
  1

  0
TEXT
  5
20B
  8
0
 62
     0
 10
-124.9524999857
 20
-33.2759317314
 30
0.0
 40
1.079499983799999
  1
90%%d
  0
ARC
  5
20C
  8
0
 62
     0
 10
-124.0
 20
-46.17304687499999
 30
0.0
 40
12.325615152199999
 50
127.3379087024
 51
133.6110357057
  0
ARC
  5
20D
  8
0
 62
     0
 10
-124.0
 20
-46.17304687499999
 30
0.0
 40
12.325615152199999
 50
46.388964294299988
 51
52.662091297599993
  0
SOLID
  5
20E
  8
0
 62
     0
 10
-115.49829585489999
 20
-37.248820549500003
 30
0.0
 11
-114.4076225036
 21
-37.8436804563
 31
0.0
 12
-114.8512754873
 22
-38.309382340200003
 32
0.0
 13
-114.8466607103
 23
-37.8696036861
 33
0.0
  0
SOLID
  5
20F
  8
0
 62
     0
 10
-132.50170414510001
 20
-37.248820549500003
 30
0.0
 11
-133.1487245127
 21
-38.309382340200003
 31
0.0
 12
-133.59237749639999
 22
-37.8436804563
 32
0.0
 13
-133.1533392897
 23
-37.8696036861
 33
0.0
  0
ARC
  5
210
  8
0
 62
     0
 10
-124.0
 20
-46.17304687499999
 30
0.0
 40
12.325615152199999
 50
46.388964294299988
 51
82.508203473400016
  0
ARC
  5
211
  8
0
 62
     0
 10
-124.0
 20
-46.17304687499999
 30
0.0
 40
12.325615152199999
 50
97.491796526600027
 51
133.6110357057
  0
LINE
  5
212
  8
0
 62
     0
 10
-119.18431456659999
 20
-41.107361441599991
 30
0.0
 11
-114.8437885102
 21
-36.766835385199997
 31
0.0
  0
LINE
  5
213
  8
0
 62
     0
 10
-128.81568543340001
 20
-41.107361441599991
 30
0.0
 11
-133.1562114898
 21
-36.766835385199997
 31
0.0
  0
ENDBLK
  5
214
  8
0
  0
BLOCK
  8
0
  2
*D19
 70
     1
 10
0.0
 20
0.0
 30
0.0
  3
*D19
  1

  0
TEXT
  5
225
  8
0
 62
     0
 10
-176.0583333015
 20
-4.7008245467999981
 30
0.0
 40
5.997222042099998
  1
90
 50
90.0
  0
LINE
  5
226
  8
0
 62
     0
 10
-156.0
 20
43.826953125000003
 30
0.0
 11
-175.0
 21
43.826953125000003
 31
0.0
  0
LINE
  5
227
  8
0
 62
     0
 10
-150.5
 20
-46.17304687499999
 30
0.0
 11
-175.0
 21
-46.17304687499999
 31
0.0
  0
LINE
  5
228
  8
0
 62
     0
 10
-174.0
 20
43.826953125000003
 30
0.0
 11
-174.0
 21
5.8825084686000002
 31
0.0
  0
LINE
  5
229
  8
0
 62
     0
 10
-174.0
 20
43.826953125000003
 30
0.0
 11
-174.0
 21
-8.2286022186000007
 31
0.0
  0
LINE
  5
22A
  8
0
 62
     0
 10
-174.0
 20
-46.17304687499999
 30
0.0
 11
-174.0
 21
5.8825084686000002
 31
0.0
  0
LINE
  5
22B
  8
0
 62
     0
 10
-174.0
 20
-46.17304687499999
 30
0.0
 11
-174.0
 21
-8.2286022186000007
 31
0.0
  0
LINE
  5
22C
  8
0
 62
     0
 10
-174.0
 20
-46.17304687499999
 30
0.0
 11
-174.0
 21
-41.17304687499999
 31
0.0
  0
SOLID
  5
22D
  8
0
 62
     0
 10
-174.0
 20
-46.17304687499999
 30
0.0
 11
-175.5
 21
-40.173046874999997
 31
0.0
 12
-172.5
 22
-40.173046874999997
 32
0.0
 13
-174.0
 23
-41.673046874999983
 33
0.0
  0
LINE
  5
22E
  8
0
 62
     0
 10
-174.0
 20
43.826953125000003
 30
0.0
 11
-174.0
 21
38.826953125000003
 31
0.0
  0
SOLID
  5
22F
  8
0
 62
     0
 10
-174.0
 20
43.826953125000003
 30
0.0
 11
-172.5
 21
37.826953125000003
 31
0.0
 12
-175.5
 22
37.826953125000003
 32
0.0
 13
-174.0
 23
39.326953125000003
 33
0.0
  0
ENDBLK
  5
230
  8
0
  0
BLOCK
  8
0
  2
*D20
 70
     1
 10
0.0
 20
0.0
 30
0.0
  3
*D20
  1

  0
TEXT
  5
235
  8
0
 62
     0
 10
-117.317319856
 20
0.1578798216
 30
0.0
 40
5.997222042099998
  1
90%%d
 50
316.67280287569997
  0
ARC
  5
236
  8
0
 62
     0
 10
-149.5
 20
-41.673046874999983
 30
0.0
 40
49.337375733100011
 50
80.773111565799979
 51
90.0
  0
ARC
  5
237
  8
0
 62
     0
 10
-149.5
 20
-41.673046874999983
 30
0.0
 40
49.337375733100011
 50
0.0
 51
9.2268884341999993
  0
SOLID
  5
238
  8
0
 62
     0
 10
-100.1626242669
 20
-41.673046874999983
 30
0.0
 11
-98.662624266900011
 21
-47.673046874999997
 31
0.0
 12
-101.6626242669
 22
-47.673046874999997
 32
0.0
 13
-100.1626242669
 23
-46.17304687499999
 33
0.0
  0
SOLID
  5
239
  8
0
 62
     0
 10
-149.5
 20
7.6643288580999984
 30
0.0
 11
-155.5
 21
6.1643288580999993
 31
0.0
 12
-155.5
 22
9.1643288580999993
 32
0.0
 13
-154.0
 23
7.6643288580999984
 33
0.0
  0
ARC
  5
23A
  8
0
 62
     0
 10
-149.5
 20
-41.673046874999983
 30
0.0
 40
49.337375733100011
 50
0.0
 51
36.245824728700001
  0
ARC
  5
23B
  8
0
 62
     0
 10
-149.5
 20
-41.673046874999983
 30
0.0
 40
49.337375733100011
 50
57.099781022799988
 51
90.0
  0
LINE
  5
23C
  8
0
 62
     0
 10
-48.0
 20
-41.673046874999983
 30
0.0
 11
-104.1626242669
 21
-41.673046874999983
 31
0.0
  0
LINE
  5
23D
  8
0
 62
     0
 10
-149.5
 20
39.826953125000003
 30
0.0
 11
-149.5
 21
3.6643288581000002
 31
0.0
  0
ENDBLK
  5
23E
  8
0
  0
BLOCK
  8
0
  2
*D21
 70
     1
 10
0.0
 20
0.0
 30
0.0
  3
*D21
  1

  0
LINE
  5
258
  8
寸法線
 62
     0
 10
76.145911248542546
 20
-21.028590472131452
 30
0.0
 11
76.145911248542546
 21
-31.815170566196631
 31
0.0
  0
LINE
  5
259
  8
寸法線
 62
     0
 10
85.745911248542484
 20
-21.028590472131452
 30
0.0
 11
85.745911248542484
 21
-31.815170566196631
 31
0.0
  0
LINE
  5
25A
  8
寸法線
 62
     0
 10
80.645911248542546
 20
-30.815170566196631
 30
0.0
 11
81.245911248542484
 21
-30.815170566196631
 31
0.0
  0
LINE
  5
25B
  8
寸法線
 62
     0
 10
85.745911248542484
 20
-30.815170566196631
 30
0.0
 11
90.245911248542484
 21
-30.815170566196631
 31
0.0
  0
SOLID
  5
25C
  8
寸法線
 62
     0
 10
80.645911248542546
 20
-30.065170566196631
 30
0.0
 11
80.645911248542546
 21
-31.565170566196631
 31
0.0
 12
76.145911248542546
 22
-30.815170566196631
 32
0.0
 13
76.145911248542546
 23
-30.815170566196631
 33
0.0
  0
SOLID
  5
25D
  8
寸法線
 62
     0
 10
81.245911248542484
 20
-30.065170566196631
 30
0.0
 11
81.245911248542484
 21
-31.565170566196631
 31
0.0
 12
85.745911248542484
 22
-30.815170566196631
 32
0.0
 13
85.745911248542484
 23
-30.815170566196631
 33
0.0
  0
INSERT
  5
25E
  8
0
  6
CONTINUOUS
  2
*U22
 10
0.0
 20
0.0
 30
0.0
  0
POINT
  5
25F
  8
DEFPOINTS
 62
     0
 10
76.145911248542546
 20
-20.966090472131452
 30
0.0
  0
POINT
  5
260
  8
DEFPOINTS
 62
     0
 10
85.745911248542484
 20
-20.966090472131452
 30
0.0
  0
POINT
  5
261
  8
DEFPOINTS
 62
     0
 10
85.745911248542484
 20
-30.815170566196631
 30
0.0
  0
ENDBLK
  5
262
  8
0
  0
BLOCK
  8
0
  2
*U22
 70
     1
 10
0.0
 20
0.0
 30
0.0
  3
*U22
  1

  0
TEXT
  5
395
  8
寸法線
  6
CONTINUOUS
 62
     0
 10
90.335911248542487
 20
-33.064128831996634
 30
0.0
 40
4.4979165315999987
  1
\U+2205
  0
TEXT
  5
396
  8
寸法線
  6
CONTINUOUS
 62
     0
 10
94.833827780142485
 20
-33.064128831996634
 30
0.0
 40
4.4979165315999987
  1
4.5
  0
ENDBLK
  5
398
  8
0
  0
BLOCK
  8
0
  2
*D23
 70
     1
 10
0.0
 20
0.0
 30
0.0
  3
*D23
  1

  0
LINE
  5
265
  8
寸法線
 62
     0
 10
90.050765594166705
 20
-13.4612361265073
 30
0.0
 11
106.84964057954841
 21
3.337638858874441
 31
0.0
  0
LINE
  5
266
  8
寸法線
 62
     0
 10
71.84105690311894
 20
-13.46123612650681
 30
0.0
 11
55.04218191782261
 21
3.3376388591603661
 31
0.0
  0
ARC
  5
267
  8
寸法線
 62
     0
 10
80.945911248542572
 20
-22.566090472131449
 30
0.0
 40
35.633405335950272
 50
52.240471233183783
 51
79.72556780900473
  0
ARC
  5
268
  8
寸法線
 62
     0
 10
80.945911248542572
 20
-22.566090472131449
 30
0.0
 40
35.633405335950272
 50
102.094781328133
 51
127.75952876618381
  0
SOLID
  5
269
  8
寸法線
 62
     0
 10
103.2617683474969
 20
6.168001571139766
 30
0.0
 11
102.2701979956133
 21
5.042484695537504
 31
0.0
 12
106.1425337983619
 22
2.6305320776878962
 32
0.0
 13
106.1425337983619
 23
2.6305320776878962
 33
0.0
  0
SOLID
  5
26A
  8
寸法線
 62
     0
 10
59.621624501776537
 20
5.0424846957728811
 30
0.0
 11
58.630054149905391
 21
6.1680015713860881
 31
0.0
 12
55.74928869900134
 22
2.6305320779660151
 32
0.0
 13
55.74928869900134
 23
2.6305320779660151
 33
0.0
  0
INSERT
  5
26B
  8
0
  6
CONTINUOUS
  2
*U24
 10
0.0
 20
0.0
 30
0.0
  0
POINT
  5
26C
  8
DEFPOINTS
 62
     0
 10
80.945911248542572
 20
-22.566090472131449
 30
0.0
  0
POINT
  5
26D
  8
DEFPOINTS
 62
     0
 10
90.006571420342539
 20
-13.50543030033146
 30
0.0
  0
POINT
  5
26E
  8
DEFPOINTS
 62
     0
 10
71.885251076942595
 20
-13.505430300331451
 30
0.0
  0
POINT
  5
26F
  8
DEFPOINTS
 62
     0
 10
90.168515191470945
 20
11.85313602045567
 30
0.0
  0
ENDBLK
  5
270
  8
0
  0
BLOCK
  8
0
  2
*U24
 70
     1
 10
0.0
 20
0.0
 30
0.0
  3
*U24
  1

  0
TEXT
  5
39A
  8
寸法線
  6
CONTINUOUS
 62
     0
 10
73.594624140257949
 20
10.705780320053069
 30
0.0
 40
4.4979165315999987
  1
90°
 50
0.9101745685689268
  0
ENDBLK
  5
39C
  8
0
  0
BLOCK
  8
0
  2
*D25
 70
     1
 10
0.0
 20
0.0
 30
0.0
  3
*D25
  1

  0
LINE
  5
273
  8
寸法線
 62
     0
 10
88.945911248542544
 20
-14.503590472131449
 30
0.0
 11
88.945911248542544
 21
1.8809947427057521
 31
0.0
  0
LINE
  5
274
  8
寸法線
 62
     0
 10
72.945911248542572
 20
-14.503590472131449
 30
0.0
 11
72.945911248542572
 21
1.8809947427057521
 31
0.0
  0
LINE
  5
275
  8
寸法線
 62
     0
 10
93.445911248542515
 20
0.8809947427057521
 30
0.0
 11
97.945911248542544
 21
0.8809947427057521
 31
0.0
  0
LINE
  5
276
  8
寸法線
 62
     0
 10
68.445911248542572
 20
0.8809947427057521
 30
0.0
 11
63.945911248542551
 21
0.8809947427057521
 31
0.0
  0
SOLID
  5
277
  8
寸法線
 62
     0
 10
93.445911248542515
 20
1.6309947427057521
 30
0.0
 11
93.445911248542515
 21
0.1309947427057523
 31
0.0
 12
88.945911248542544
 22
0.8809947427057521
 32
0.0
 13
88.945911248542544
 23
0.8809947427057521
 33
0.0
  0
SOLID
  5
278
  8
寸法線
 62
     0
 10
68.445911248542572
 20
1.6309947427057521
 30
0.0
 11
68.445911248542572
 21
0.1309947427057523
 31
0.0
 12
72.945911248542572
 22
0.8809947427057521
 32
0.0
 13
72.945911248542572
 23
0.8809947427057521
 33
0.0
  0
INSERT
  5
279
  8
0
  6
CONTINUOUS
  2
*U26
 10
0.0
 20
0.0
 30
0.0
  0
POINT
  5
27A
  8
DEFPOINTS
 62
     0
 10
88.945911248542544
 20
-14.566090472131441
 30
0.0
  0
POINT
  5
27B
  8
DEFPOINTS
 62
     0
 10
72.945911248542572
 20
-14.566090472131441
 30
0.0
  0
POINT
  5
27C
  8
DEFPOINTS
 62
     0
 10
72.945911248542572
 20
0.8809947427057521
 30
0.0
  0
ENDBLK
  5
27D
  8
0
  0
BLOCK
  8
0
  2
*U26
 70
     1
 10
0.0
 20
0.0
 30
0.0
  3
*U26
  1

  0
TEXT
  5
39E
  8
寸法線
  6
CONTINUOUS
 62
     0
 10
76.936289758292261
 20
-1.3679635230942471
 30
0.0
 40
4.4979165315999987
  1
φ8
  0
ENDBLK
  5
3A0
  8
0
  0
BLOCK
  8
0
  2
*D27
 70
     1
 10
0.0
 20
0.0
 30
0.0
  3
*D27
  1

  0
LINE
  5
2C1
  8
寸法線
 62
     0
 10
139.11321603808611
 20
-21.8599886866159
 30
0.0
 11
139.11321603808611
 21
-5.4754034717786881
 31
0.0
  0
LINE
  5
2C2
  8
寸法線
 62
     0
 10
123.11321603808599
 20
-21.8599886866159
 30
0.0
 11
123.11321603808599
 21
-5.4754034717786881
 31
0.0
  0
LINE
  5
2C3
  8
寸法線
 62
     0
 10
145.11321603808611
 20
-6.4754034717786881
 30
0.0
 11
151.11321603808599
 21
-6.4754034717786881
 31
0.0
  0
LINE
  5
2C4
  8
寸法線
 62
     0
 10
117.11321603808599
 20
-6.4754034717786881
 30
0.0
 11
111.11321603808599
 21
-6.4754034717786881
 31
0.0
  0
SOLID
  5
2C5
  8
寸法線
 62
     0
 10
145.11321603808611
 20
-5.4754034717786881
 30
0.0
 11
145.11321603808611
 21
-7.4754034717786899
 31
0.0
 12
139.11321603808611
 22
-6.4754034717786881
 32
0.0
 13
139.11321603808611
 23
-6.4754034717786881
 33
0.0
  0
SOLID
  5
2C6
  8
寸法線
 62
     0
 10
117.11321603808599
 20
-5.4754034717786881
 30
0.0
 11
117.11321603808599
 21
-7.4754034717786899
 31
0.0
 12
123.11321603808599
 22
-6.4754034717786881
 32
0.0
 13
123.11321603808599
 23
-6.4754034717786881
 33
0.0
  0
INSERT
  5
2C7
  8
0
  6
CONTINUOUS
  2
*U28
 10
0.0
 20
0.0
 30
0.0
  0
POINT
  5
2C8
  8
DEFPOINTS
 62
     0
 10
139.11321603808611
 20
-21.922488686615889
 30
0.0
  0
POINT
  5
2C9
  8
DEFPOINTS
 62
     0
 10
123.11321603808599
 20
-21.922488686615889
 30
0.0
  0
POINT
  5
2CA
  8
DEFPOINTS
 62
     0
 10
123.11321603808599
 20
-6.4754034717786881
 30
0.0
  0
ENDBLK
  5
2A5
  8
0
  0
BLOCK
  8
0
  2
*U28
 70
     1
 10
0.0
 20
0.0
 30
0.0
  3
*U28
  1

  0
TEXT
  5
3AD
  8
寸法線
  6
CONTINUOUS
 62
     0
 10
125.85417328908579
 20
-9.4740144928286902
 30
0.0
 40
5.997222042099998
  1
φ8
  0
ENDBLK
  5
3AF
  8
0
  0
BLOCK
  8
0
  2
*D29
 70
     1
 10
0.0
 20
0.0
 30
0.0
  3
*D29
  1

  0
LINE
  5
3A1
  8
寸法線
 62
     0
 10
140.2180703837102
 20
-20.817634340991741
 30
0.0
 11
157.01694536909201
 21
-4.018759355609947
 31
0.0
  0
LINE
  5
3A2
  8
寸法線
 62
     0
 10
122.0083616926624
 20
-20.817634340991251
 30
0.0
 11
105.209486707366
 21
-4.0187593553241161
 31
0.0
  0
ARC
  5
3A3
  8
寸法線
 62
     0
 10
131.11321603808611
 20
-29.9224886866159
 30
0.0
 40
35.633405335950272
 50
54.658972838749122
 51
75.971453317866974
  0
ARC
  5
3A4
  8
寸法線
 62
     0
 10
131.11321603808611
 20
-29.9224886866159
 30
0.0
 40
35.633405335950272
 50
105.84889581927089
 51
125.34102716061859
  0
SOLID
  5
3A5
  8
寸法線
 62
     0
 10
152.37013449797669
 20
-0.0913508780236079
 30
0.0
 11
151.0800054459383
 21
-1.619607083339569
 31
0.0
 12
156.3098385879054
 22
-4.7258661367965011
 32
0.0
 13
156.3098385879054
 23
-4.7258661367965011
 33
0.0
  0
SOLID
  5
3A6
  8
寸法線
 62
     0
 10
111.1464266305462
 20
-1.6196070831192471
 30
0.0
 11
109.8562975785247
 21
-0.0913508777890477
 31
0.0
 12
105.91659348854481
 22
-4.7258661365184684
 32
0.0
 13
105.91659348854481
 23
-4.7258661365184684
 33
0.0
  0
TEXT
  5
3B5
  8
寸法線
 62
     0
 10
118.553
 20
-4.9086600000000002
 30
0.0
 40
5.9972199999999987
  1
90°
  0
POINT
  5
3A8
  8
DEFPOINTS
 62
     0
 10
131.11321603808611
 20
-29.9224886866159
 30
0.0
  0
POINT
  5
3A9
  8
DEFPOINTS
 62
     0
 10
140.173876209886
 20
-20.861828514815901
 30
0.0
  0
POINT
  5
3AA
  8
DEFPOINTS
 62
     0
 10
122.0525558664861
 20
-20.861828514815901
 30
0.0
  0
POINT
  5
3AB
  8
DEFPOINTS
 62
     0
 10
140.3358199810144
 20
4.496737805971244
 30
0.0
  0
ENDBLK
  5
2B3
  8
0
  0
BLOCK
  8
0
  2
*D30
 70
     1
 10
0.0
 20
0.0
 30
0.0
  3
*D30
  1

  0
LINE
  5
2D6
  8
寸法線
 62
     0
 10
126.3132160380861
 20
-28.384988686615898
 30
0.0
 11
126.3132160380861
 21
-39.171568780681071
 31
0.0
  0
LINE
  5
2D7
  8
寸法線
 62
     0
 10
135.91321603808601
 20
-28.384988686615898
 30
0.0
 11
135.91321603808601
 21
-39.171568780681071
 31
0.0
  0
LINE
  5
2D8
  8
寸法線
 62
     0
 10
120.3132160380861
 20
-38.171568780681071
 30
0.0
 11
114.3132160380861
 21
-38.171568780681071
 31
0.0
  0
LINE
  5
2D9
  8
寸法線
 62
     0
 10
141.91321603808601
 20
-38.171568780681071
 30
0.0
 11
147.91321603808601
 21
-38.171568780681071
 31
0.0
  0
SOLID
  5
2DA
  8
寸法線
 62
     0
 10
120.3132160380861
 20
-37.171568780681071
 30
0.0
 11
120.3132160380861
 21
-39.171568780681071
 31
0.0
 12
126.3132160380861
 22
-38.171568780681071
 32
0.0
 13
126.3132160380861
 23
-38.171568780681071
 33
0.0
  0
SOLID
  5
2DB
  8
寸法線
 62
     0
 10
141.91321603808601
 20
-37.171568780681071
 30
0.0
 11
141.91321603808601
 21
-39.171568780681071
 31
0.0
 12
135.91321603808601
 22
-38.171568780681071
 32
0.0
 13
135.91321603808601
 23
-38.171568780681071
 33
0.0
  0
INSERT
  5
2DC
  8
0
  6
CONTINUOUS
  2
*U31
 10
0.0
 20
0.0
 30
0.0
  0
POINT
  5
2DD
  8
DEFPOINTS
 62
     0
 10
126.3132160380861
 20
-28.322488686615898
 30
0.0
  0
POINT
  5
2DE
  8
DEFPOINTS
 62
     0
 10
135.91321603808601
 20
-28.322488686615898
 30
0.0
  0
POINT
  5
2DF
  8
DEFPOINTS
 62
     0
 10
135.91321603808601
 20
-38.171568780681071
 30
0.0
  0
ENDBLK
  5
2C0
  8
0
  0
BLOCK
  8
0
  2
*U31
 70
     1
 10
0.0
 20
0.0
 30
0.0
  3
*U31
  1

  0
TEXT
  5
3B1
  8
寸法線
  6
CONTINUOUS
 62
     0
 10
148.00321603808601
 20
-41.170179801731052
 30
0.0
 40
5.997222042099998
  1
\U+2205
  0
TEXT
  5
3B2
  8
寸法線
  6
CONTINUOUS
 62
     0
 10
154.000438080186
 20
-41.170179801731052
 30
0.0
 40
5.997222042099998
  1
4.5
  0
ENDBLK
  5
3B4
  8
0
  0
BLOCK
  8
0
  2
*U32
 70
     1
 10
0.0
 20
0.0
 30
0.0
  3
*U32
  1

  0
TEXT
  5
2F1
  8
図枠
  6
CONTINUOUS
 10
257.4220319142471
 20
207.72950520642229
 30
0.0
 40
5.3969601688999971
  1
検認者
  0
ENDBLK
  5
2F3
  8
0
  0
BLOCK
  8
0
  2
*U33
 70
     1
 10
0.0
 20
0.0
 30
0.0
  3
*U33
  1

  0
TEXT
  5
2F5
  8
図枠
  6
CONTINUOUS
 10
237.5062191249412
 20
207.75690094332029
 30
0.0
 40
5.3969601688999971
  1
改訂者
  0
ENDBLK
  5
2F7
  8
0
  0
BLOCK
  8
0
  2
*U34
 70
     1
 10
0.0
 20
0.0
 30
0.0
  3
*U34
  1

  0
TEXT
  5
2F9
  8
図枠
  6
CONTINUOUS
 10
90.767613947350526
 20
207.86648389091221
 30
0.0
 40
5.3969601688999971
  1
副番
  0
ENDBLK
  5
2FB
  8
0
  0
BLOCK
  8
0
  2
*U35
 70
     1
 10
0.0
 20
0.0
 30
0.0
  3
*U35
  1

  0
TEXT
  5
2FD
  8
図枠
  6
CONTINUOUS
 10
111.23116388751239
 20
207.81169241711621
 30
0.0
 40
5.3969601688999971
  1
改訂日
  0
ENDBLK
  5
2FF
  8
0
  0
BLOCK
  8
0
  2
*U36
 70
     1
 10
0.0
 20
0.0
 30
0.0
  3
*U36
  1

  0
TEXT
  5
301
  8
図枠
  6
CONTINUOUS
 10
163.37601888558879
 20
207.75690094332029
 30
0.0
 40
5.3969601688999971
  1
改　訂　内　容
  0
ENDBLK
  5
303
  8
0
  0
BLOCK
  8
0
  2
*U37
 70
     1
 10
0.0
 20
0.0
 30
0.0
  3
*U37
  1

  0
TEXT
  5
305
  8
図枠
  6
CONTINUOUS
 10
166.09267576401979
 20
-136.57202574976441
 30
0.0
 40
4.6745324999999971
  1
図面名
  0
ENDBLK
  5
307
  8
0
  0
BLOCK
  8
0
  2
*U38
 70
     1
 10
0.0
 20
0.0
 30
0.0
  3
*U38
  1

  0
TEXT
  5
309
  8
図枠
  6
CONTINUOUS
 10
166.06894717264919
 20
-153.5228685670231
 30
0.0
 40
4.6745324999999971
  1
図　番
  0
ENDBLK
  5
30B
  8
0
  0
BLOCK
  8
0
  2
*U39
 70
     1
 10
0.0
 20
0.0
 30
0.0
  3
*U39
  1

  0
TEXT
  5
30D
  8
図枠
  6
CONTINUOUS
 10
204.32626427317851
 20
-125.2843839828523
 30
0.0
 40
5.9966223199000002
  1
Ｌ型ブラケット
  0
ENDBLK
  5
30F
  8
0
  0
BLOCK
  8
0
  2
*U40
 70
     1
 10
0.0
 20
0.0
 30
0.0
  3
*U40
  1

  0
TEXT
  5
311
  8
図枠
  6
CONTINUOUS
 10
119.92233222173201
 20
-110.83300083926279
 30
0.0
 40
5.6094389188999987
  1
指定無き公差はJIS 0408-Bによること
  0
ENDBLK
  5
313
  8
0
  0
BLOCK
  8
0
  2
*U41
 70
     1
 10
0.0
 20
0.0
 30
0.0
  3
*U41
  1

  0
TEXT
  5
315
  8
図枠
  6
CONTINUOUS
 10
156.42639665843151
 20
-99.69172929309795
 30
0.0
 40
5.6094389188999987
  1
ユニクロメッキ
  0
ENDBLK
  5
317
  8
0
  0
BLOCK
  8
0
  2
*U42
 70
     1
 10
0.0
 20
0.0
 30
0.0
  3
*U42
  1

  0
TEXT
  5
319
  8
図枠
  6
CONTINUOUS
 10
200.1255846785277
 20
-158.67218983870001
 30
0.0
 40
5.9966223199000002
  1
ＳＲＫ００１１４
  0
ENDBLK
  5
31B
  8
0
  0
BLOCK
  8
0
  2
*U43
 70
     1
 10
0.0
 20
0.0
 30
0.0
  3
*U43
  1

  0
TEXT
  5
31D
  8
図枠
  6
CONTINUOUS
 10
163.13313693003741
 20
-88.835200839262939
 30
0.0
 40
5.6094389188999987
  1
板　　厚
  0
ENDBLK
  5
31F
  8
0
  0
BLOCK
  8
0
  2
*U44
 70
     1
 10
0.0
 20
0.0
 30
0.0
  3
*U44
  1

  0
TEXT
  5
321
  8
図枠
  6
CONTINUOUS
 10
55.664633378232999
 20
-119.88983709228221
 30
0.0
 40
4.6745324999999971
  1
日 　付
  0
ENDBLK
  5
323
  8
0
  0
BLOCK
  8
0
  2
*U45
 70
     1
 10
0.0
 20
0.0
 30
0.0
  3
*U45
  1

  0
TEXT
  5
325
  8
図枠
  6
CONTINUOUS
 10
114.6951583403431
 20
-88.409216838700004
 30
0.0
 40
5.9966223199000002
  1
SPCC
  0
ENDBLK
  5
327
  8
0
  0
BLOCK
  8
0
  2
*U46
 70
     1
 10
0.0
 20
0.0
 30
0.0
  3
*U46
  1

  0
TEXT
  5
329
  8
図枠
  6
CONTINUOUS
 10
51.15857408465407
 20
-99.777152220796935
 30
0.0
 40
5.6094389188999987
  1
表面処理
  0
ENDBLK
  5
32B
  8
0
  0
BLOCK
  8
0
  2
*U47
 70
     1
 10
0.0
 20
0.0
 30
0.0
  3
*U47
  1

  0
TEXT
  5
32D
  8
図枠
  6
CONTINUOUS
 10
205.77215036554011
 20
-141.7956486675304
 30
0.0
 40
5.9966223199000002
  1
LY-603 承認図
  0
ENDBLK
  5
32F
  8
0
  0
BLOCK
  8
0
  2
*U48
 70
     1
 10
0.0
 20
0.0
 30
0.0
  3
*U48
  1

  0
TEXT
  5
331
  8
図枠
  6
CONTINUOUS
 10
76.308571316050262
 20
-145.41101568365281
 30
0.0
 40
4.6745324999999971
  1
園 原
  0
ENDBLK
  5
333
  8
0
  0
BLOCK
  8
0
  2
*U49
 70
     1
 10
0.0
 20
0.0
 30
0.0
  3
*U49
  1

  0
TEXT
  5
335
  8
図枠
  6
CONTINUOUS
 10
105.51986309270001
 20
-137.00678004913499
 30
0.0
 40
4.6745324999999971
  1
 照査
  0
ENDBLK
  5
337
  8
0
  0
BLOCK
  8
0
  2
*U50
 70
     1
 10
0.0
 20
0.0
 30
0.0
  3
*U50
  1

  0
TEXT
  5
339
  8
図枠
  6
CONTINUOUS
 10
228.2276419529932
 20
-88.871948437700027
 30
0.0
 40
6.4593539188999971
  1
4.5t
  0
ENDBLK
  5
33B
  8
0
  0
BLOCK
  8
0
  2
*U51
 70
     1
 10
0.0
 20
0.0
 30
0.0
  3
*U51
  1

  0
TEXT
  5
33D
  8
図枠
  6
CONTINUOUS
 10
53.966126431600003
 20
-160.27635426710759
 30
0.0
 40
8.6351362703000003
  1
株式会社
  0
ENDBLK
  5
33F
  8
0
  0
BLOCK
  8
0
  2
*U52
 70
     1
 10
0.0
 20
0.0
 30
0.0
  3
*U52
  1

  0
TEXT
  5
341
  8
図枠
  6
CONTINUOUS
 10
51.215522703120051
 20
-88.721303602330934
 30
0.0
 40
5.6094389188999987
  1
材　　質
  0
ENDBLK
  5
343
  8
0
  0
BLOCK
  8
0
  2
*U53
 70
     1
 10
0.0
 20
0.0
 30
0.0
  3
*U53
  1

  0
TEXT
  5
345
  8
図枠
  6
CONTINUOUS
 10
105.51986309270001
 20
-145.55338723187609
 30
0.0
 40
4.6745324999999971
  1
 検図
  0
ENDBLK
  5
347
  8
0
  0
BLOCK
  8
0
  2
*U54
 70
     1
 10
0.0
 20
0.0
 30
0.0
  3
*U54
  1

  0
TEXT
  5
349
  8
図枠
  6
CONTINUOUS
 10
165.96216851148171
 20
-119.6211829325056
 30
0.0
 40
4.6745324999999971
  1
製品名
  0
ENDBLK
  5
34B
  8
0
  0
BLOCK
  8
0
  2
*U55
 70
     1
 10
0.0
 20
0.0
 30
0.0
  3
*U55
  1

  0
TEXT
  5
34D
  8
図枠
  6
CONTINUOUS
 10
76.308571316050262
 20
-136.91186568365279
 30
0.0
 40
4.6745324999999971
  1
園 原
  0
ENDBLK
  5
34F
  8
0
  0
BLOCK
  8
0
  2
*U56
 70
     1
 10
0.0
 20
0.0
 30
0.0
  3
*U56
  1

  0
TEXT
  5
351
  8
図枠
  6
CONTINUOUS
 10
45.5258630927
 20
-136.9830514577645
 30
0.0
 40
4.6745324999999971
  1
 設計
  0
ENDBLK
  5
353
  8
0
  0
BLOCK
  8
0
  2
*U57
 70
     1
 10
0.0
 20
0.0
 30
0.0
  3
*U57
  1

  0
TEXT
  5
355
  8
図枠
  6
CONTINUOUS
 10
51.300945630819037
 20
-110.8899494577289
 30
0.0
 40
5.6094389188999987
  1
一般公差
  0
ENDBLK
  5
357
  8
0
  0
BLOCK
  8
0
  2
*U58
 70
     1
 10
0.0
 20
0.0
 30
0.0
  3
*U58
  1

  0
TEXT
  5
359
  8
図枠
  6
CONTINUOUS
 10
48.328501582547702
 20
-145.5296586405056
 30
0.0
 40
4.6745324999999971
  1
製図
  0
ENDBLK
  5
35B
  8
0
  0
BLOCK
  8
0
  2
*U59
 70
     1
 10
0.0
 20
0.0
 30
0.0
  3
*U59
  1

  0
TEXT
  5
35D
  8
図枠
  6
CONTINUOUS
 10
119.92233222173201
 20
-110.83300083926279
 30
0.0
 40
5.6094389188999987
  1
指定無き公差はJIS 0408-Bによること
  0
ENDBLK
  5
35F
  8
0
  0
BLOCK
  8
0
  2
*U60
 70
     1
 10
0.0
 20
0.0
 30
0.0
  3
*U60
  1

  0
TEXT
  5
361
  8
図枠
  6
CONTINUOUS
 10
95.162332959451277
 20
-120.0322086405056
 30
0.0
 40
4.6745324999999971
  1
尺 　度
  0
ENDBLK
  5
363
  8
0
  0
BLOCK
  8
0
  2
*U61
 70
     1
 10
0.0
 20
0.0
 30
0.0
  3
*U61
  1

  0
TEXT
  5
365
  8
図枠
  6
CONTINUOUS
 10
57.966306741177171
 20
-128.29407272680001
 30
0.0
 40
4.6745324999999971
  1
H12.5
  0
ENDBLK
  5
367
  8
0
  0
BLOCK
  8
0
  2
*U62
 70
     1
 10
0.0
 20
0.0
 30
0.0
  3
*U62
  1

  0
TEXT
  5
369
  8
図枠
  6
CONTINUOUS
 10
136.1601997678269
 20
-145.5296586405056
 30
0.0
 40
4.6745324999999971
  1
柳 原
  0
ENDBLK
  5
36B
  8
0
  0
BLOCK
  8
0
  2
*U63
 70
     1
 10
0.0
 20
0.0
 30
0.0
  3
*U63
  1

  0
TEXT
  5
36D
  8
ﾚｲﾔ_1
  6
CONTINUOUS
 10
114.5259489319
 20
-66.625775672492892
 30
0.0
 40
5.997222042099998
  1
皿加工部詳細
  0
ENDBLK
  5
36F
  8
0
  0
BLOCK
  8
0
  2
*U64
 70
     1
 10
0.0
 20
0.0
 30
0.0
  3
*U64
  1

  0
TEXT
  5
371
  8
図枠
  6
CONTINUOUS
 10
99.314836449298994
 20
-128.29407272680001
 30
0.0
 40
4.6745324999999971
  1
1：2
  0
ENDBLK
  5
373
  8
0
  0
BLOCK
  8
0
  2
*U65
 70
     1
 10
0.0
 20
0.0
 30
0.0
  3
*U65
  1

  0
TEXT
  5
375
  8
図枠
  6
CONTINUOUS
 10
136.1601997678269
 20
-137.03050864050559
 30
0.0
 40
4.6745324999999971
  1
柳 原
  0
ENDBLK
  5
377
  8
0
  0
BLOCK
  8
0
  2
*D66
 70
     1
 10
0.0
 20
0.0
 30
0.0
  3
*D66
  1

  0
LINE
  5
379
  8
寸法線
 62
     0
 10
-118.9265599757718
 20
-40.847464350300079
 30
0.0
 11
-114.6360970883447
 21
-36.343771773460922
 31
0.0
  0
LINE
  5
37A
  8
寸法線
 62
     0
 10
-129.0734400242282
 20
-40.847464350300079
 30
0.0
 11
-133.3639029116552
 21
-36.343771773460922
 31
0.0
  0
ARC
  5
37B
  8
寸法線
 62
     0
 10
-124.0
 20
-46.17304687499999
 30
0.0
 40
12.32561515219999
 50
51.96938527579178
 51
81.521817162340525
  0
ARC
  5
37C
  8
寸法線
 62
     0
 10
-124.0
 20
-46.17304687499999
 30
0.0
 40
12.32561515219999
 50
98.478182837659475
 51
128.03061472420819
  0
SOLID
  5
37D
  8
寸法線
 62
     0
 10
-116.2756657542251
 20
-36.313034165023048
 30
0.0
 11
-116.5371440465116
 21
-36.615737180176403
 31
0.0
 12
-115.49829585490831
 22
-37.248820549459317
 32
0.0
 13
-115.49829585490831
 23
-37.248820549459317
 33
0.0
  0
SOLID
  5
37E
  8
寸法線
 62
     0
 10
-131.46285595348829
 20
-36.615737180176403
 30
0.0
 11
-131.72433424577491
 21
-36.313034165023048
 31
0.0
 12
-132.50170414509159
 22
-37.248820549459317
 32
0.0
 13
-132.50170414509159
 23
-37.248820549459317
 33
0.0
  0
TEXT
  5
3B6
  8
寸法線
 62
     0
 10
-126.15900000000001
 20
-35.758099999999999
 30
0.0
 40
1.079499999999999
  1
87°
  0
POINT
  5
380
  8
DEFPOINTS
 62
     0
 10
-124.0
 20
-46.17304687499999
 30
0.0
  0
POINT
  5
381
  8
DEFPOINTS
 62
     0
 10
-118.9696699141
 20
-40.8927167891
 30
0.0
  0
POINT
  5
382
  8
DEFPOINTS
 62
     0
 10
-129.0303300859
 20
-40.8927167891
 30
0.0
  0
POINT
  5
383
  8
DEFPOINTS
 62
     0
 10
-120.90620458883591
 20
-34.242027688274909
 30
0.0
  0
ENDBLK
  5
385
  8
0
  0
BLOCK
  8
0
  2
*D67
 70
     1
 10
0.0
 20
0.0
 30
0.0
  3
*D67
  1

  0
LINE
  5
387
  8
寸法線
 62
     0
 10
-44.0625
 20
-41.673046874999983
 30
0.0
 11
-101.4126242669127
 21
-41.673046875000011
 31
0.0
  0
LINE
  5
388
  8
寸法線
 62
     0
 10
-149.5
 20
43.764453125000003
 30
0.0
 11
-149.5
 21
6.4143288580872593
 31
0.0
  0
ARC
  5
389
  8
寸法線
 62
     0
 10
-149.5
 20
-41.673046874999983
 30
0.0
 40
49.337375733087292
 50
6.9721355805687679
 51
35.942683933547052
  0
ARC
  5
38A
  8
寸法線
 62
     0
 10
-149.5
 20
-41.673046874999983
 30
0.0
 40
49.337375733087292
 50
57.402921817844877
 51
83.027864419431225
  0
SOLID
  5
38B
  8
寸法線
 62
     0
 10
-99.529309623350144
 20
-35.623343364723723
 30
0.0
 11
-101.5256088506593
 21
-35.744955021421049
 31
0.0
 12
-100.1626242669127
 22
-41.673046874999983
 32
0.0
 13
-100.1626242669127
 23
-41.673046874999983
 33
0.0
  0
SOLID
  5
38C
  8
寸法線
 62
     0
 10
-143.57190814642101
 20
6.30134427434065
 30
0.0
 11
-143.45029648972371
 21
8.2976435016498584
 31
0.0
 12
-149.5
 22
7.6643288580872859
 32
0.0
 13
-149.5
 23
7.6643288580872859
 33
0.0
  0
TEXT
  5
3B7
  8
寸法線
 62
     0
 10
-127.64100000000001
 20
-16.3978
 30
0.0
 40
5.9972199999999987
  1
90°
  0
POINT
  5
38E
  8
DEFPOINTS
 62
     0
 10
-149.5
 20
-41.673046874999983
 30
0.0
  0
POINT
  5
38F
  8
DEFPOINTS
 62
     0
 10
-44.0
 20
-41.673046874999983
 30
0.0
  0
POINT
  5
390
  8
DEFPOINTS
 62
     0
 10
-149.5
 20
43.826953125000003
 30
0.0
  0
POINT
  5
391
  8
DEFPOINTS
 62
     0
 10
-106.7725792590885
 20
-17.004359008456358
 30
0.0
  0
ENDBLK
  5
393
  8
0
  0
BLOCK
  8
0
  2
*D68
 70
     1
 10
0.0
 20
0.0
 30
0.0
  3
*D68
  1

  0
LINE
  5
6AF
  8
寸法線
 62
     0
 10
126.3132160380861
 20
-28.384988686615898
 30
0.0
 11
126.3132160380861
 21
-38.35156878068107
 31
0.0
  0
LINE
  5
6B0
  8
寸法線
 62
     0
 10
135.91321603808601
 20
-28.384988686615898
 30
0.0
 11
135.91321603808601
 21
-38.35156878068107
 31
0.0
  0
LINE
  5
6B1
  8
寸法線
 62
     0
 10
126.4932160380861
 20
-38.171568780681071
 30
0.0
 11
135.733216038086
 21
-38.171568780681071
 31
0.0
  0
INSERT
  5
6B2
  8
0
  6
CONTINUOUS
  2
*U69
 10
0.0
 20
0.0
 30
0.0
  0
SOLID
  5
6B3
  8
寸法線
 62
     0
 10
126.4932160380861
 20
-38.141568780681062
 30
0.0
 11
126.4932160380861
 21
-38.201568780681072
 31
0.0
 12
126.3132160380861
 22
-38.171568780681071
 32
0.0
 13
126.3132160380861
 23
-38.171568780681071
 33
0.0
  0
SOLID
  5
6B4
  8
寸法線
 62
     0
 10
135.733216038086
 20
-38.141568780681062
 30
0.0
 11
135.733216038086
 21
-38.201568780681072
 31
0.0
 12
135.91321603808601
 22
-38.171568780681071
 32
0.0
 13
135.91321603808601
 23
-38.171568780681071
 33
0.0
  0
POINT
  5
6B5
  8
DEFPOINTS
 62
     0
 10
126.3132160380861
 20
-28.322488686615898
 30
0.0
  0
POINT
  5
6B6
  8
DEFPOINTS
 62
     0
 10
135.91321603808601
 20
-28.322488686615898
 30
0.0
  0
POINT
  5
6B7
  8
DEFPOINTS
 62
     0
 10
135.91321603808601
 20
-38.171568780681071
 30
0.0
  0
ENDBLK
  5
6AE
  8
0
  0
BLOCK
  8
0
  2
*U69
 70
     1
 10
0.0
 20
0.0
 30
0.0
  3
*U69
  1

  0
TEXT
  5
82C
  8
寸法線
  6
CONTINUOUS
 62
     0
 10
156.93904910123601
 20
-38.261568780681081
 30
0.0
 40
0.18
  1
4
  0
ENDBLK
  5
82E
  8
0
  0
BLOCK
  8
0
  2
*D70
 70
     1
 10
0.0
 20
0.0
 30
0.0
  3
*D70
  1

  0
LINE
  5
705
  8
寸法線
 62
     0
 10
126.3132160380861
 20
-28.384988686615898
 30
0.0
 11
126.3132160380861
 21
-51.979136628402259
 31
0.0
  0
LINE
  5
706
  8
寸法線
 62
     0
 10
135.91321603808601
 20
-28.384988686615898
 30
0.0
 11
135.91321603808601
 21
-51.979136628402259
 31
0.0
  0
LINE
  5
707
  8
寸法線
 62
     0
 10
126.4932160380861
 20
-51.79913662840228
 30
0.0
 11
130.61821603808599
 21
-51.79913662840228
 31
0.0
  0
LINE
  5
708
  8
寸法線
 62
     0
 10
135.733216038086
 20
-51.79913662840228
 30
0.0
 11
131.608216038086
 21
-51.79913662840228
 31
0.0
  0
SOLID
  5
709
  8
寸法線
 62
     0
 10
126.4932160380861
 20
-51.769136628402272
 30
0.0
 11
126.4932160380861
 21
-51.82913662840226
 31
0.0
 12
126.3132160380861
 22
-51.79913662840228
 32
0.0
 13
126.3132160380861
 23
-51.79913662840228
 33
0.0
  0
SOLID
  5
70A
  8
寸法線
 62
     0
 10
135.733216038086
 20
-51.769136628402272
 30
0.0
 11
135.733216038086
 21
-51.82913662840226
 31
0.0
 12
135.91321603808601
 22
-51.79913662840228
 32
0.0
 13
135.91321603808601
 23
-51.79913662840228
 33
0.0
  0
INSERT
  5
70B
  8
0
  6
CONTINUOUS
  2
*U71
 10
0.0
 20
0.0
 30
0.0
  0
POINT
  5
70C
  8
DEFPOINTS
 62
     0
 10
126.3132160380861
 20
-28.322488686615898
 30
0.0
  0
POINT
  5
70D
  8
DEFPOINTS
 62
     0
 10
135.91321603808601
 20
-28.322488686615898
 30
0.0
  0
POINT
  5
70E
  8
DEFPOINTS
 62
     0
 10
135.91321603808601
 20
-51.79913662840228
 30
0.0
  0
ENDBLK
  5
6C5
  8
0
  0
BLOCK
  8
0
  2
*U71
 70
     1
 10
0.0
 20
0.0
 30
0.0
  3
*U71
  1

  0
TEXT
  5
830
  8
寸法線
  6
CONTINUOUS
 62
     0
 10
130.70821603808599
 20
-51.889136628402262
 30
0.0
 40
0.18
  1
9.6000
  0
ENDBLK
  5
832
  8
0
  0
BLOCK
  8
0
  2
*D72
 70
     1
 10
0.0
 20
0.0
 30
0.0
  3
*D72
  1

  0
LINE
  5
712
  8
0
 62
     4
 10
1621.4379399384179
 20
1083.213075372322
 30
0.0
 11
1621.4379399384179
 21
1096.3246656458739
 31
0.0
  0
LINE
  5
713
  8
0
 62
     4
 10
1608.4379399384179
 20
1073.213075372322
 30
0.0
 11
1608.4379399384179
 21
1096.3246656458739
 31
0.0
  0
LINE
  5
714
  8
0
 62
     4
 10
1618.9379399384179
 20
1094.3246656458739
 30
0.0
 11
1610.9379399384179
 21
1094.3246656458739
 31
0.0
  0
SOLID
  5
715
  8
0
 62
     4
 10
1618.9379399384179
 20
1094.7413323125411
 30
0.0
 11
1618.9379399384179
 21
1093.907998979206
 31
0.0
 12
1621.4379399384179
 22
1094.3246656458739
 32
0.0
 13
1621.4379399384179
 23
1094.3246656458739
 33
0.0
  0
SOLID
  5
716
  8
0
 62
     4
 10
1610.9379399384179
 20
1094.7413323125411
 30
0.0
 11
1610.9379399384179
 21
1093.907998979206
 31
0.0
 12
1608.4379399384179
 22
1094.3246656458739
 32
0.0
 13
1608.4379399384179
 23
1094.3246656458739
 33
0.0
  0
INSERT
  5
717
  8
0
  6
CONTINUOUS
  2
*U73
 10
0.0
 20
0.0
 30
0.0
  0
POINT
  5
718
  8
DEFPOINTS
 62
     0
 10
1621.4379399384179
 20
1080.713075372322
 30
170.0
  0
POINT
  5
719
  8
DEFPOINTS
 62
     0
 10
1608.4379399384179
 20
1070.713075372322
 30
167.0
  0
POINT
  5
71A
  8
DEFPOINTS
 62
     0
 10
1608.4379399384179
 20
1094.3246656458739
 30
0.0
  0
ENDBLK
  5
71B
  8
0
  0
BLOCK
  8
0
  2
*U73
 70
     1
 10
0.0
 20
0.0
 30
0.0
  3
*U73
  1

  0
TEXT
  5
834
  8
0
  6
CONTINUOUS
 62
     4
 10
1611.10271266569
 20
1095.3246656458739
 30
0.0
 40
5.0
  1
13
  7
ゴシック
  0
ENDBLK
  5
836
  8
0
  0
BLOCK
  8
0
  2
*D74
 70
     1
 10
0.0
 20
0.0
 30
0.0
  3
*D74
  1

  0
LINE
  5
71E
  8
0
 62
     4
 10
1621.4379399384179
 20
1092.268870509098
 30
0.0
 11
1621.4379399384179
 21
1096.3246656458739
 31
0.0
  0
LINE
  5
71F
  8
0
 62
     4
 10
1643.4379399384179
 20
1083.213075372322
 30
0.0
 11
1643.4379399384179
 21
1096.3246656458739
 31
0.0
  0
LINE
  5
720
  8
0
 62
     4
 10
1623.9379399384179
 20
1094.3246656458739
 30
0.0
 11
1640.9379399384179
 21
1094.3246656458739
 31
0.0
  0
SOLID
  5
721
  8
0
 62
     4
 10
1623.9379399384179
 20
1094.7413323125411
 30
0.0
 11
1623.9379399384179
 21
1093.9079989792081
 31
0.0
 12
1621.4379399384179
 22
1094.3246656458739
 32
0.0
 13
1621.4379399384179
 23
1094.3246656458739
 33
0.0
  0
SOLID
  5
722
  8
0
 62
     4
 10
1640.9379399384179
 20
1094.7413323125411
 30
0.0
 11
1640.9379399384179
 21
1093.9079989792081
 31
0.0
 12
1643.4379399384179
 22
1094.3246656458739
 32
0.0
 13
1643.4379399384179
 23
1094.3246656458739
 33
0.0
  0
INSERT
  5
723
  8
0
  6
CONTINUOUS
  2
*U75
 10
0.0
 20
0.0
 30
0.0
  0
POINT
  5
724
  8
DEFPOINTS
 62
     0
 10
1621.4379399384179
 20
1089.768870509098
 30
0.0
  0
POINT
  5
725
  8
DEFPOINTS
 62
     0
 10
1643.4379399384179
 20
1080.713075372322
 30
170.0
  0
POINT
  5
726
  8
DEFPOINTS
 62
     0
 10
1643.4379399384179
 20
1094.3246656458739
 30
0.0
  0
ENDBLK
  5
727
  8
0
  0
BLOCK
  8
0
  2
*U75
 70
     1
 10
0.0
 20
0.0
 30
0.0
  3
*U75
  1

  0
TEXT
  5
838
  8
0
  6
CONTINUOUS
 62
     4
 10
1628.8015763020539
 20
1095.3246656458739
 30
0.0
 40
5.0
  1
22
  7
ゴシック
  0
ENDBLK
  5
83A
  8
0
  0
BLOCK
  8
0
  2
*D76
 70
     1
 10
0.0
 20
0.0
 30
0.0
  3
*D76
  1

  0
LINE
  5
72A
  8
0
 62
     4
 10
1643.4379399384179
 20
1092.799200594988
 30
0.0
 11
1643.4379399384179
 21
1096.3246656458739
 31
0.0
  0
LINE
  5
72B
  8
0
 62
     4
 10
1656.4379399384179
 20
1073.213075372322
 30
0.0
 11
1656.4379399384179
 21
1096.3246656458739
 31
0.0
  0
LINE
  5
72C
  8
0
 62
     4
 10
1645.9379399384179
 20
1094.3246656458739
 30
0.0
 11
1653.9379399384179
 21
1094.3246656458739
 31
0.0
  0
SOLID
  5
72D
  8
0
 62
     4
 10
1645.9379399384179
 20
1094.7413323125411
 30
0.0
 11
1645.9379399384179
 21
1093.907998979206
 31
0.0
 12
1643.4379399384179
 22
1094.3246656458739
 32
0.0
 13
1643.4379399384179
 23
1094.3246656458739
 33
0.0
  0
SOLID
  5
72E
  8
0
 62
     4
 10
1653.9379399384179
 20
1094.7413323125411
 30
0.0
 11
1653.9379399384179
 21
1093.907998979206
 31
0.0
 12
1656.4379399384179
 22
1094.3246656458739
 32
0.0
 13
1656.4379399384179
 23
1094.3246656458739
 33
0.0
  0
INSERT
  5
72F
  8
0
  6
CONTINUOUS
  2
*U77
 10
0.0
 20
0.0
 30
0.0
  0
POINT
  5
730
  8
DEFPOINTS
 62
     0
 10
1643.4379399384179
 20
1090.299200594988
 30
0.0
  0
POINT
  5
731
  8
DEFPOINTS
 62
     0
 10
1656.4379399384179
 20
1070.713075372322
 30
167.0
  0
POINT
  5
732
  8
DEFPOINTS
 62
     0
 10
1656.4379399384179
 20
1094.3246656458739
 30
0.0
  0
ENDBLK
  5
733
  8
0
  0
BLOCK
  8
0
  2
*U77
 70
     1
 10
0.0
 20
0.0
 30
0.0
  3
*U77
  1

  0
TEXT
  5
83C
  8
0
  6
CONTINUOUS
 62
     4
 10
1646.1027126656909
 20
1095.3246656458739
 30
0.0
 40
5.0
  1
13
  7
ゴシック
  0
ENDBLK
  5
83E
  8
0
  0
BLOCK
  8
0
  2
*D78
 70
     1
 10
0.0
 20
0.0
 30
0.0
  3
*D78
  1

  0
LINE
  5
769
  8
0
 62
     4
 10
42.643215597529881
 20
34.522976119484163
 30
0.0
 11
42.643215597529881
 21
38.048441170370332
 31
0.0
  0
LINE
  5
76A
  8
0
 62
     4
 10
55.643215597529661
 20
14.93685089681799
 30
0.0
 11
55.643215597529661
 21
38.048441170370332
 31
0.0
  0
LINE
  5
76B
  8
0
 62
     4
 10
45.143215597529881
 20
36.048441170370317
 30
0.0
 11
53.143215597529661
 21
36.048441170370317
 31
0.0
  0
SOLID
  5
76C
  8
0
 62
     4
 10
45.143215597529881
 20
36.465107837036989
 30
0.0
 11
45.143215597529881
 21
35.631774503703653
 31
0.0
 12
42.643215597529881
 22
36.048441170370317
 32
0.0
 13
42.643215597529881
 23
36.048441170370317
 33
0.0
  0
SOLID
  5
76D
  8
0
 62
     4
 10
53.143215597529661
 20
36.465107837036989
 30
0.0
 11
53.143215597529661
 21
35.631774503703653
 31
0.0
 12
55.643215597529661
 22
36.048441170370317
 32
0.0
 13
55.643215597529661
 23
36.048441170370317
 33
0.0
  0
INSERT
  5
76E
  8
0
  6
CONTINUOUS
  2
*U79
 10
0.0
 20
0.0
 30
0.0
  0
POINT
  5
76F
  8
DEFPOINTS
 62
     0
 10
42.643215597529881
 20
32.022976119484163
 30
0.0
  0
POINT
  5
770
  8
DEFPOINTS
 62
     0
 10
55.643215597529661
 20
12.43685089681799
 30
167.0
  0
POINT
  5
771
  8
DEFPOINTS
 62
     0
 10
55.643215597529661
 20
36.048441170370317
 30
0.0
  0
ENDBLK
  5
750
  8
0
  0
BLOCK
  8
0
  2
*U79
 70
     1
 10
0.0
 20
0.0
 30
0.0
  3
*U79
  1

  0
TEXT
  5
840
  8
0
  6
CONTINUOUS
 62
     4
 10
45.307988324802487
 20
37.048441170370317
 30
0.0
 40
5.0
  1
13
  7
ゴシック
  0
ENDBLK
  5
842
  8
0
  0
BLOCK
  8
0
  2
*D80
 70
     1
 10
0.0
 20
0.0
 30
0.0
  3
*D80
  1

  0
LINE
  5
772
  8
0
 62
     4
 10
20.643215597529661
 20
33.992646033594163
 30
0.0
 11
20.643215597529661
 21
38.048441170370552
 31
0.0
  0
LINE
  5
773
  8
0
 62
     4
 10
42.643215597529661
 20
24.93685089681799
 30
0.0
 11
42.643215597529661
 21
38.048441170370552
 31
0.0
  0
LINE
  5
774
  8
0
 62
     4
 10
23.143215597529661
 20
36.048441170370552
 30
0.0
 11
40.143215597529661
 21
36.048441170370552
 31
0.0
  0
SOLID
  5
775
  8
0
 62
     4
 10
23.143215597529661
 20
36.465107837037223
 30
0.0
 11
23.143215597529661
 21
35.631774503703888
 31
0.0
 12
20.643215597529661
 22
36.048441170370552
 32
0.0
 13
20.643215597529661
 23
36.048441170370552
 33
0.0
  0
SOLID
  5
776
  8
0
 62
     4
 10
40.143215597529661
 20
36.465107837037223
 30
0.0
 11
40.143215597529661
 21
35.631774503703888
 31
0.0
 12
42.643215597529661
 22
36.048441170370552
 32
0.0
 13
42.643215597529661
 23
36.048441170370552
 33
0.0
  0
INSERT
  5
777
  8
0
  6
CONTINUOUS
  2
*U81
 10
0.0
 20
0.0
 30
0.0
  0
POINT
  5
778
  8
DEFPOINTS
 62
     0
 10
20.643215597529661
 20
31.492646033594159
 30
0.0
  0
POINT
  5
779
  8
DEFPOINTS
 62
     0
 10
42.643215597529661
 20
22.43685089681799
 30
170.0
  0
POINT
  5
77A
  8
DEFPOINTS
 62
     0
 10
42.643215597529661
 20
36.048441170370552
 30
0.0
  0
ENDBLK
  5
75C
  8
0
  0
BLOCK
  8
0
  2
*U81
 70
     1
 10
0.0
 20
0.0
 30
0.0
  3
*U81
  1

  0
TEXT
  5
844
  8
0
  6
CONTINUOUS
 62
     4
 10
28.006851961166031
 20
37.048441170370552
 30
0.0
 40
5.0
  1
22
  7
ゴシック
  0
ENDBLK
  5
846
  8
0
  0
BLOCK
  8
0
  2
*D82
 70
     1
 10
0.0
 20
0.0
 30
0.0
  3
*D82
  1

  0
LINE
  5
77B
  8
0
 62
     4
 10
20.643215597529661
 20
24.93685089681799
 30
0.0
 11
20.643215597529661
 21
38.048441170370332
 31
0.0
  0
LINE
  5
77C
  8
0
 62
     4
 10
7.6432155975296601
 20
14.93685089681799
 30
0.0
 11
7.6432155975296601
 21
38.048441170370332
 31
0.0
  0
LINE
  5
77D
  8
0
 62
     4
 10
18.143215597529661
 20
36.048441170370317
 30
0.0
 11
10.143215597529659
 21
36.048441170370317
 31
0.0
  0
SOLID
  5
77E
  8
0
 62
     4
 10
18.143215597529661
 20
36.465107837036989
 30
0.0
 11
18.143215597529661
 21
35.631774503703653
 31
0.0
 12
20.643215597529661
 22
36.048441170370317
 32
0.0
 13
20.643215597529661
 23
36.048441170370317
 33
0.0
  0
SOLID
  5
77F
  8
0
 62
     4
 10
10.143215597529659
 20
36.465107837036989
 30
0.0
 11
10.143215597529659
 21
35.631774503703653
 31
0.0
 12
7.6432155975296601
 22
36.048441170370317
 32
0.0
 13
7.6432155975296601
 23
36.048441170370317
 33
0.0
  0
INSERT
  5
780
  8
0
  6
CONTINUOUS
  2
*U83
 10
0.0
 20
0.0
 30
0.0
  0
POINT
  5
781
  8
DEFPOINTS
 62
     0
 10
20.643215597529661
 20
22.43685089681799
 30
170.0
  0
POINT
  5
782
  8
DEFPOINTS
 62
     0
 10
7.6432155975296601
 20
12.43685089681799
 30
167.0
  0
POINT
  5
783
  8
DEFPOINTS
 62
     0
 10
7.6432155975296601
 20
36.048441170370317
 30
0.0
  0
ENDBLK
  5
768
  8
0
  0
BLOCK
  8
0
  2
*U83
 70
     1
 10
0.0
 20
0.0
 30
0.0
  3
*U83
  1

  0
TEXT
  5
848
  8
0
  6
CONTINUOUS
 62
     4
 10
10.307988324802389
 20
37.048441170370317
 30
0.0
 40
5.0
  1
13
  7
ゴシック
  0
ENDBLK
  5
84A
  8
0
  0
BLOCK
  8
0
  2
*D84
 70
     1
 10
0.0
 20
0.0
 30
0.0
  3
*D84
  1

  0
LINE
  5
79F
  8
0
  6
CONTINUOUS
 62
     4
 10
126.3132160380861
 20
-30.822488686615898
 30
0.0
 11
126.3132160380861
 21
-51.826218802956312
 31
0.0
  0
LINE
  5
7A0
  8
0
  6
CONTINUOUS
 62
     4
 10
135.91321603808601
 20
-30.822488686615898
 30
0.0
 11
135.91321603808601
 21
-51.826218802956312
 31
0.0
  0
LINE
  5
7A1
  8
0
  6
CONTINUOUS
 62
     4
 10
128.8132160380861
 20
-49.826218802956312
 30
0.0
 11
133.41321603808601
 21
-49.826218802956312
 31
0.0
  0
LINE
  5
7A2
  8
0
  6
CONTINUOUS
 62
     4
 10
135.91321603808601
 20
-49.826218802956312
 30
0.0
 11
149.6177614926315
 21
-49.826218802956312
 31
0.0
  0
SOLID
  5
7A3
  8
0
  6
CONTINUOUS
 62
     4
 10
128.8132160380861
 20
-49.409552136289641
 30
0.0
 11
128.8132160380861
 21
-50.242885469622962
 31
0.0
 12
126.3132160380861
 22
-49.826218802956312
 32
0.0
 13
126.3132160380861
 23
-49.826218802956312
 33
0.0
  0
SOLID
  5
7A4
  8
0
  6
CONTINUOUS
 62
     4
 10
133.41321603808601
 20
-49.409552136289641
 30
0.0
 11
133.41321603808601
 21
-50.242885469622962
 31
0.0
 12
135.91321603808601
 22
-49.826218802956312
 32
0.0
 13
135.91321603808601
 23
-49.826218802956312
 33
0.0
  0
INSERT
  5
7A5
  8
0
  6
CONTINUOUS
  2
*U85
 10
0.0
 20
0.0
 30
0.0
  0
POINT
  5
7A6
  8
DEFPOINTS
  6
CONTINUOUS
 62
     0
 10
126.3132160380861
 20
-28.322488686615898
 30
0.0
  0
POINT
  5
7A7
  8
DEFPOINTS
  6
CONTINUOUS
 62
     0
 10
135.91321603808601
 20
-28.322488686615898
 30
0.0
  0
POINT
  5
7A8
  8
DEFPOINTS
  6
CONTINUOUS
 62
     0
 10
135.91321603808601
 20
-49.826218802956312
 30
0.0
  0
ENDBLK
  5
791
  8
0
  0
BLOCK
  8
0
  2
*U85
 70
     1
 10
0.0
 20
0.0
 30
0.0
  3
*U85
  1

  0
TEXT
  5
84C
  8
0
  6
CONTINUOUS
 62
     4
 10
139.41321603808601
 20
-47.618832439319931
 30
0.0
 40
5.0
  1
φ4
  7
ゴシック
  0
ENDBLK
  5
84E
  8
0
  0
BLOCK
  8
0
  2
*D86
 70
     1
 10
0.0
 20
0.0
 30
0.0
  3
*D86
  1

  0
LINE
  5
7A9
  8
0
  6
CONTINUOUS
 62
     4
 10
123.11321603808599
 20
-19.422488686615878
 30
0.0
 11
123.11321603808599
 21
-1.992296491435581
 31
0.0
  0
LINE
  5
7AA
  8
0
  6
CONTINUOUS
 62
     4
 10
139.11321603808611
 20
-19.422488686615878
 30
0.0
 11
139.11321603808611
 21
-1.992296491435581
 31
0.0
  0
LINE
  5
7AB
  8
0
  6
CONTINUOUS
 62
     4
 10
125.61321603808599
 20
-3.9922964914355799
 30
0.0
 11
136.61321603808611
 21
-3.9922964914355799
 31
0.0
  0
SOLID
  5
7AC
  8
0
  6
CONTINUOUS
 62
     4
 10
125.61321603808599
 20
-3.5756298247689151
 30
0.0
 11
125.61321603808599
 21
-4.4089631581022468
 31
0.0
 12
123.11321603808599
 22
-3.9922964914355799
 32
0.0
 13
123.11321603808599
 23
-3.9922964914355799
 33
0.0
  0
SOLID
  5
7AD
  8
0
  6
CONTINUOUS
 62
     4
 10
136.61321603808611
 20
-3.5756298247689151
 30
0.0
 11
136.61321603808611
 21
-4.4089631581022468
 31
0.0
 12
139.11321603808611
 22
-3.9922964914355799
 32
0.0
 13
139.11321603808611
 23
-3.9922964914355799
 33
0.0
  0
INSERT
  5
7AE
  8
0
  6
CONTINUOUS
  2
*U87
 10
0.0
 20
0.0
 30
0.0
  0
POINT
  5
7AF
  8
DEFPOINTS
  6
CONTINUOUS
 62
     0
 10
123.11321603808599
 20
-21.922488686615889
 30
0.0
  0
POINT
  5
7B0
  8
DEFPOINTS
  6
CONTINUOUS
 62
     0
 10
139.11321603808611
 20
-21.922488686615889
 30
0.0
  0
POINT
  5
7B1
  8
DEFPOINTS
  6
CONTINUOUS
 62
     0
 10
139.11321603808611
 20
-3.9922964914355799
 30
0.0
  0
ENDBLK
  5
79E
  8
0
  0
BLOCK
  8
0
  2
*U87
 70
     1
 10
0.0
 20
0.0
 30
0.0
  3
*U87
  1

  0
TEXT
  5
850
  8
0
  6
CONTINUOUS
 62
     4
 10
126.5677614926315
 20
-1.7849101277992161
 30
0.0
 40
5.0
  1
φ8
  7
ゴシック
  0
ENDBLK
  5
852
  8
0
  0
BLOCK
  8
0
  2
*D88
 70
     1
 10
0.0
 20
0.0
 30
0.0
  3
*D88
  1

  0
LINE
  5
853
  8
0
  6
CONTINUOUS
 62
     4
 10
140.88098299105241
 20
-20.154721733649549
 30
0.0
 11
165.29461020109881
 21
4.2589054763957641
 31
0.0
  0
LINE
  5
854
  8
0
  6
CONTINUOUS
 62
     4
 10
121.3454490851197
 20
-20.15472173364952
 30
0.0
 11
96.931821875073723
 21
4.2589054763963503
 31
0.0
  0
ARC
  5
855
  8
0
  6
CONTINUOUS
 62
     4
 10
131.11321603808591
 20
-29.92248868661575
 30
0.0
 40
46.339791206152363
 50
48.091443048884308
 51
131.90855695111469
  0
SOLID
  5
856
  8
0
  6
CONTINUOUS
 62
     4
 10
162.3521611675408
 20
4.8665988000398368
 30
0.0
 11
161.77901490565341
 21
4.261662599330311
 31
0.0
 12
163.88039663872561
 22
2.8446919140226949
 32
0.0
 13
163.88039663872561
 23
2.8446919140226949
 33
0.0
  0
SOLID
  5
857
  8
0
  6
CONTINUOUS
 62
     4
 10
100.4474171705191
 20
4.2616625993308368
 30
0.0
 11
99.874270908631686
 21
4.8665988000403742
 31
0.0
 12
98.346035437446801
 22
2.8446919140232581
 32
0.0
 13
98.346035437446801
 23
2.8446919140232581
 33
0.0
  0
TEXT
  5
85E
  8
0
 62
     4
 10
121.113
 20
11.067299999999999
 30
0.0
 40
5.0
  1
90°
  7
ゴシック
  0
POINT
  5
859
  8
DEFPOINTS
  6
CONTINUOUS
 62
     0
 10
143.106836548313
 20
14.838312424249731
 30
0.0
  0
POINT
  5
85A
  8
DEFPOINTS
  6
CONTINUOUS
 62
     0
 10
123.11321603808599
 20
-21.922488686615889
 30
0.0
  0
POINT
  5
85B
  8
DEFPOINTS
  6
CONTINUOUS
 62
     0
 10
135.91321603808601
 20
-25.122488686615899
 30
0.0
  0
POINT
  5
85C
  8
DEFPOINTS
  6
CONTINUOUS
 62
     0
 10
139.11321603808611
 20
-21.922488686615889
 30
0.0
  0
POINT
  5
85D
  8
DEFPOINTS
  6
CONTINUOUS
 62
     0
 10
126.3132160380861
 20
-25.122488686615899
 30
0.0
  0
ENDBLK
  5
7C2
  8
0
  0
BLOCK
  8
0
  2
*D89
 70
     1
 10
0.0
 20
0.0
 30
0.0
  3
*D89
  1

  0
LINE
  5
816
  8
寸法線
 62
     0
 10
-44.062499999999993
 20
-41.673046874999983
 30
0.0
 11
-100.34262426691269
 21
-41.673046874999983
 31
0.0
  0
LINE
  5
817
  8
寸法線
 62
     0
 10
-149.5
 20
43.764453124999982
 30
0.0
 11
-149.5
 21
7.4843288580873084
 31
0.0
  0
ARC
  5
818
  8
寸法線
 62
     0
 10
-149.5
 20
-41.673046874999983
 30
0.0
 40
49.337375733087292
 50
0.2090351559820292
 51
46.369012187787689
  0
ARC
  5
819
  8
寸法線
 62
     0
 10
-149.5
 20
-41.673046874999983
 30
0.0
 40
49.337375733087292
 50
46.978310918945212
 51
89.79096484401795
  0
SOLID
  5
81A
  8
寸法線
 62
     0
 10
-100.13295266830001
 20
-41.492992449239942
 30
0.0
 11
-100.1929525684715
 21
-41.493101899730981
 31
0.0
 12
-100.1626242669127
 22
-41.673046874999969
 32
0.0
 13
-100.1626242669127
 23
-41.673046874999969
 33
0.0
  0
SOLID
  5
81B
  8
寸法線
 62
     0
 10
-149.320055024731
 20
7.6340005565284619
 30
0.0
 11
-149.31994557423991
 21
7.6940004566999658
 31
0.0
 12
-149.5
 22
7.664328858087301
 32
0.0
 13
-149.5
 23
7.664328858087301
 33
0.0
  0
TEXT
  5
85F
  8
寸法線
 62
     0
 10
-116.006
 20
-6.1013099999999989
 30
0.0
 40
0.18
  1
90°
  0
POINT
  5
81D
  8
DEFPOINTS
 62
     0
 10
-149.5
 20
-41.673046874999983
 30
0.0
  0
POINT
  5
81E
  8
DEFPOINTS
 62
     0
 10
-43.999999999999993
 20
-41.673046874999983
 30
0.0
  0
POINT
  5
81F
  8
DEFPOINTS
 62
     0
 10
-149.4999999999998
 20
43.826953124999989
 30
0.0
  0
POINT
  5
820
  8
DEFPOINTS
 62
     0
 10
-106.7725792590885
 20
-17.004359008456351
 30
0.0
  0
ENDBLK
  5
822
  8
0
  0
BLOCK
  8
0
  2
*U90
 70
     1
 10
0.0
 20
0.0
 30
0.0
  3
*U90
  1

  0
TEXT
  5
955
  8
ﾚｲﾔ_1
  6
CONTINUOUS
 10
114.5259489319
 20
-66.625775672492892
 30
0.0
 40
5.9972220420999989
  1
皿加工部詳細
  0
ENDBLK
  5
956
  8
0
  0
BLOCK
  8
0
  2
*D91
 70
     1
 10
0.0
 20
0.0
 30
0.0
  3
*D91
  1

  0
LINE
  5
959
  8
0
  6
CONTINUOUS
 62
     4
 10
126.3132160380861
 20
-30.822488686615898
 30
0.0
 11
126.3132160380861
 21
-51.826218802956312
 31
0.0
  0
LINE
  5
95A
  8
0
  6
CONTINUOUS
 62
     4
 10
135.91321603808601
 20
-30.822488686615898
 30
0.0
 11
135.91321603808601
 21
-51.826218802956312
 31
0.0
  0
LINE
  5
95B
  8
0
  6
CONTINUOUS
 62
     4
 10
128.8132160380861
 20
-49.826218802956312
 30
0.0
 11
133.41321603808601
 21
-49.826218802956312
 31
0.0
  0
LINE
  5
95C
  8
0
  6
CONTINUOUS
 62
     4
 10
135.91321603808601
 20
-49.826218802956312
 30
0.0
 11
149.6177614926315
 21
-49.826218802956312
 31
0.0
  0
SOLID
  5
95D
  8
0
  6
CONTINUOUS
 62
     4
 10
128.8132160380861
 20
-49.409552136289641
 30
0.0
 11
128.8132160380861
 21
-50.242885469622969
 31
0.0
 12
126.3132160380861
 22
-49.826218802956312
 32
0.0
 13
126.3132160380861
 23
-49.826218802956312
 33
0.0
  0
SOLID
  5
95E
  8
0
  6
CONTINUOUS
 62
     4
 10
133.41321603808601
 20
-49.409552136289641
 30
0.0
 11
133.41321603808601
 21
-50.242885469622969
 31
0.0
 12
135.91321603808601
 22
-49.826218802956312
 32
0.0
 13
135.91321603808601
 23
-49.826218802956312
 33
0.0
  0
INSERT
  5
95F
  8
0
  6
CONTINUOUS
  2
*U99
 10
0.0
 20
0.0
 30
0.0
  0
POINT
  5
960
  8
DEFPOINTS
  6
CONTINUOUS
 62
     0
 10
126.3132160380861
 20
-28.322488686615898
 30
0.0
  0
POINT
  5
961
  8
DEFPOINTS
  6
CONTINUOUS
 62
     0
 10
135.91321603808601
 20
-28.322488686615898
 30
0.0
  0
POINT
  5
962
  8
DEFPOINTS
  6
CONTINUOUS
 62
     0
 10
135.91321603808601
 20
-49.826218802956312
 30
0.0
  0
ENDBLK
  5
963
  8
0
  0
BLOCK
  8
0
  2
*D92
 70
     1
 10
0.0
 20
0.0
 30
0.0
  3
*D92
  1

  0
LINE
  5
966
  8
0
  6
CONTINUOUS
 62
     4
 10
123.11321603808599
 20
-19.422488686615878
 30
0.0
 11
123.11321603808599
 21
-1.992296491435581
 31
0.0
  0
LINE
  5
967
  8
0
  6
CONTINUOUS
 62
     4
 10
139.11321603808611
 20
-19.422488686615878
 30
0.0
 11
139.11321603808611
 21
-1.992296491435581
 31
0.0
  0
LINE
  5
968
  8
0
  6
CONTINUOUS
 62
     4
 10
125.61321603808599
 20
-3.9922964914355812
 30
0.0
 11
136.61321603808611
 21
-3.9922964914355812
 31
0.0
  0
SOLID
  5
969
  8
0
  6
CONTINUOUS
 62
     4
 10
125.61321603808599
 20
-3.5756298247689151
 30
0.0
 11
125.61321603808599
 21
-4.4089631581022477
 31
0.0
 12
123.11321603808599
 22
-3.9922964914355812
 32
0.0
 13
123.11321603808599
 23
-3.9922964914355812
 33
0.0
  0
SOLID
  5
96A
  8
0
  6
CONTINUOUS
 62
     4
 10
136.61321603808611
 20
-3.5756298247689151
 30
0.0
 11
136.61321603808611
 21
-4.4089631581022477
 31
0.0
 12
139.11321603808611
 22
-3.9922964914355812
 32
0.0
 13
139.11321603808611
 23
-3.9922964914355812
 33
0.0
  0
INSERT
  5
96B
  8
0
  6
CONTINUOUS
  2
*U100
 10
0.0
 20
0.0
 30
0.0
  0
POINT
  5
96C
  8
DEFPOINTS
  6
CONTINUOUS
 62
     0
 10
123.11321603808599
 20
-21.922488686615889
 30
0.0
  0
POINT
  5
96D
  8
DEFPOINTS
  6
CONTINUOUS
 62
     0
 10
139.11321603808611
 20
-21.922488686615889
 30
0.0
  0
POINT
  5
96E
  8
DEFPOINTS
  6
CONTINUOUS
 62
     0
 10
139.11321603808611
 20
-3.9922964914355812
 30
0.0
  0
ENDBLK
  5
96F
  8
0
  0
BLOCK
  8
0
  2
*D93
 70
     1
 10
0.0
 20
0.0
 30
0.0
  3
*D93
  1

  0
LINE
  5
972
  8
0
  6
CONTINUOUS
 62
     4
 10
140.88098299105249
 20
-20.154721733649549
 30
0.0
 11
165.29461020109881
 21
4.2589054763957641
 31
0.0
  0
LINE
  5
973
  8
0
  6
CONTINUOUS
 62
     4
 10
121.3454490851197
 20
-20.15472173364952
 30
0.0
 11
96.931821875073709
 21
4.2589054763963503
 31
0.0
  0
ARC
  5
974
  8
0
  6
CONTINUOUS
 62
     4
 10
131.11321603808591
 20
-29.92248868661575
 30
0.0
 40
46.339791206152363
 50
48.091443048884308
 51
131.90855695111469
  0
SOLID
  5
975
  8
0
  6
CONTINUOUS
 62
     4
 10
162.3521611675408
 20
4.8665988000398377
 30
0.0
 11
161.77901490565341
 21
4.2616625993303119
 31
0.0
 12
163.8803966387257
 22
2.8446919140226958
 32
0.0
 13
163.8803966387257
 23
2.8446919140226958
 33
0.0
  0
SOLID
  5
976
  8
0
  6
CONTINUOUS
 62
     4
 10
100.4474171705191
 20
4.2616625993308377
 30
0.0
 11
99.874270908631686
 21
4.8665988000403742
 31
0.0
 12
98.346035437446801
 22
2.8446919140232581
 32
0.0
 13
98.346035437446801
 23
2.8446919140232581
 33
0.0
  0
INSERT
  5
977
  8
0
  6
CONTINUOUS
  2
*U101
 10
0.0
 20
0.0
 30
0.0
  0
POINT
  5
978
  8
DEFPOINTS
  6
CONTINUOUS
 62
     0
 10
143.106836548313
 20
14.838312424249731
 30
0.0
  0
POINT
  5
979
  8
DEFPOINTS
  6
CONTINUOUS
 62
     0
 10
123.11321603808599
 20
-21.922488686615889
 30
0.0
  0
POINT
  5
97A
  8
DEFPOINTS
  6
CONTINUOUS
 62
     0
 10
135.91321603808601
 20
-25.122488686615899
 30
0.0
  0
POINT
  5
97B
  8
DEFPOINTS
  6
CONTINUOUS
 62
     0
 10
139.11321603808611
 20
-21.922488686615889
 30
0.0
  0
POINT
  5
97C
  8
DEFPOINTS
  6
CONTINUOUS
 62
     0
 10
126.3132160380861
 20
-25.122488686615899
 30
0.0
  0
ENDBLK
  5
97D
  8
0
  0
BLOCK
  8
0
  2
A$C595E0D13
 70
     0
 10
0.0
 20
0.0
 30
0.0
  3
A$C595E0D13
  1

  0
DIMENSION
  5
982
  8
0
  6
CONTINUOUS
  2
*D93
 10
29.3813944195077
 20
41.503287363473021
 30
0.0
 11
34.181394419507967
 21
86.54307856962555
 31
0.0
 12
-96.931821618578411
 22
66.625776050088916
 32
0.0
 70
     2
  3
基本_１_２_0
 13
38.981394419507609
 23
41.503287363473021
 33
0.0
 14
42.18139441950774
 24
44.703287363473031
 34
0.0
 15
26.181394419507669
 25
44.703287363473031
 35
0.0
 16
46.175014929734658
 26
81.464088474338666
 36
0.0
1001
ACAD
1000
DSTYLE
1002
{
1070
   271
1070
     0
1070
    40
1040
1.0
1002
}
  0
DIMENSION
  5
983
  8
0
  6
CONTINUOUS
  2
*D92
 10
42.18139441950774
 20
62.633479558653328
 30
0.0
 11
34.181394419507711
 21
66.886320467744241
 31
0.0
 12
-96.931821618578411
 22
66.625776050088916
 32
0.0
  1
φ8
  3
基本_１_２_0
 13
26.181394419507669
 23
44.703287363473031
 33
0.0
 14
42.18139441950774
 24
44.703287363473031
 34
0.0
1001
ACAD
1000
DSTYLE
1002
{
1070
    40
1040
1.0
1002
}
  0
DIMENSION
  5
984
  8
0
  6
CONTINUOUS
  2
*D91
 10
38.981394419507609
 20
16.799557247132611
 30
0.0
 11
47.083667146780328
 21
21.052398156223521
 31
0.0
 12
-96.931821618578411
 22
66.625776050088916
 32
0.0
  1
φ4
  3
基本_１_２_0
 13
29.3813944195077
 23
38.303287363473018
 33
0.0
 14
38.981394419507609
 24
38.303287363473018
 34
0.0
1001
ACAD
1000
DSTYLE
1002
{
1070
    40
1040
1.0
1002
}
  0
LINE
  5
985
  8
ﾚｲﾔ_1
  6
STITCH
 10
29.3813944195077
 20
41.503287363473021
 30
0.0
 11
26.181394419507669
 21
44.703287363473031
 31
0.0
  0
LINE
  5
986
  8
ﾚｲﾔ_1
  6
STITCH
 10
38.981394419507609
 20
41.503287363473021
 30
0.0
 11
29.3813944195077
 21
41.503287363473021
 31
0.0
  0
LINE
  5
987
  8
ﾚｲﾔ_1
  6
STITCH
 10
38.981394419507609
 20
41.503287363473021
 30
0.0
 11
38.981394419507609
 21
38.303287363473018
 31
0.0
  0
LINE
  5
988
  8
ﾚｲﾔ_1
  6
STITCH
 10
29.3813944195077
 20
41.503287363473021
 30
0.0
 11
29.3813944195077
 21
38.303287363473018
 31
0.0
  0
LINE
  5
989
  8
ﾚｲﾔ_1
  6
BORDER
 62
     3
 10
34.18139441950774
 20
50.190018844873023
 30
0.0
 11
34.18139441950774
 21
32.595227178273028
 31
0.0
  0
LINE
  5
98A
  8
ﾚｲﾔ_1
 62
     5
 10
7.4133556863519061
 20
38.303287363473032
 30
0.0
 11
59.710787559903139
 21
38.303287363473032
 31
0.0
  0
LINE
  5
98B
  8
ﾚｲﾔ_1
 62
     5
 10
7.4133556863519061
 20
44.703287363473031
 30
0.0
 11
59.710787559903139
 21
44.703287363473031
 31
0.0
  0
LINE
  5
98C
  8
ﾚｲﾔ_1
  6
STITCH
 10
42.18139441950774
 20
44.703287363473031
 30
0.0
 11
38.981394419507609
 21
41.503287363473021
 31
0.0
  0
INSERT
  5
98D
  8
0
  6
CONTINUOUS
  2
*U90
 10
-96.931821618578411
 20
66.625776050088916
 30
0.0
  0
ENDBLK
  5
98F
  8
0
  0
BLOCK
  8
0
  2
*D95
 70
     1
 10
0.0
 20
0.0
 30
0.0
  3
*D95
  1

  0
LINE
  5
99D
  8
0
  6
CONTINUOUS
 62
     4
 10
123.11321603808599
 20
-19.422488686615878
 30
0.0
 11
123.11321603808599
 21
-1.992296491435581
 31
0.0
  0
LINE
  5
99E
  8
0
  6
CONTINUOUS
 62
     4
 10
139.11321603808611
 20
-19.422488686615878
 30
0.0
 11
139.11321603808611
 21
-1.992296491435581
 31
0.0
  0
LINE
  5
99F
  8
0
  6
CONTINUOUS
 62
     4
 10
125.61321603808599
 20
-3.9922964914355799
 30
0.0
 11
136.61321603808611
 21
-3.9922964914355799
 31
0.0
  0
SOLID
  5
9A0
  8
0
  6
CONTINUOUS
 62
     4
 10
125.61321603808599
 20
-3.5756298247689138
 30
0.0
 11
125.61321603808599
 21
-4.4089631581022468
 31
0.0
 12
123.11321603808599
 22
-3.9922964914355799
 32
0.0
 13
123.11321603808599
 23
-3.9922964914355799
 33
0.0
  0
SOLID
  5
9A1
  8
0
  6
CONTINUOUS
 62
     4
 10
136.61321603808611
 20
-3.5756298247689138
 30
0.0
 11
136.61321603808611
 21
-4.4089631581022468
 31
0.0
 12
139.11321603808611
 22
-3.9922964914355799
 32
0.0
 13
139.11321603808611
 23
-3.9922964914355799
 33
0.0
  0
INSERT
  5
9A2
  8
0
  6
CONTINUOUS
  2
*U102
 10
0.0
 20
0.0
 30
0.0
  0
POINT
  5
9A3
  8
DEFPOINTS
  6
CONTINUOUS
 62
     0
 10
123.11321603808599
 20
-21.922488686615889
 30
0.0
  0
POINT
  5
9A4
  8
DEFPOINTS
  6
CONTINUOUS
 62
     0
 10
139.11321603808611
 20
-21.922488686615889
 30
0.0
  0
POINT
  5
9A5
  8
DEFPOINTS
  6
CONTINUOUS
 62
     0
 10
139.11321603808611
 20
-3.9922964914355799
 30
0.0
  0
ENDBLK
  5
99C
  8
0
  0
BLOCK
  8
0
  2
*D96
 70
     1
 10
0.0
 20
0.0
 30
0.0
  3
*D96
  1

  0
LINE
  5
9C5
  8
0
  6
CONTINUOUS
 62
     4
 10
126.3132160380861
 20
-30.822488686615898
 30
0.0
 11
126.3132160380861
 21
-51.826218802956312
 31
0.0
  0
LINE
  5
9C6
  8
0
  6
CONTINUOUS
 62
     4
 10
135.91321603808601
 20
-30.822488686615898
 30
0.0
 11
135.91321603808601
 21
-51.826218802956312
 31
0.0
  0
LINE
  5
9C7
  8
0
  6
CONTINUOUS
 62
     4
 10
128.8132160380861
 20
-49.826218802956312
 30
0.0
 11
133.41321603808601
 21
-49.826218802956312
 31
0.0
  0
INSERT
  5
9C8
  8
0
  6
CONTINUOUS
  2
*U103
 10
0.0
 20
0.0
 30
0.0
  0
SOLID
  5
9C9
  8
0
  6
CONTINUOUS
 62
     4
 10
128.8132160380861
 20
-49.409552136289641
 30
0.0
 11
128.8132160380861
 21
-50.242885469622969
 31
0.0
 12
126.3132160380861
 22
-49.826218802956312
 32
0.0
 13
126.3132160380861
 23
-49.826218802956312
 33
0.0
  0
SOLID
  5
9CA
  8
0
  6
CONTINUOUS
 62
     4
 10
133.41321603808601
 20
-49.409552136289641
 30
0.0
 11
133.41321603808601
 21
-50.242885469622969
 31
0.0
 12
135.91321603808601
 22
-49.826218802956312
 32
0.0
 13
135.91321603808601
 23
-49.826218802956312
 33
0.0
  0
POINT
  5
9CB
  8
DEFPOINTS
  6
CONTINUOUS
 62
     0
 10
126.3132160380861
 20
-28.322488686615898
 30
0.0
  0
POINT
  5
9CC
  8
DEFPOINTS
  6
CONTINUOUS
 62
     0
 10
135.91321603808601
 20
-28.322488686615898
 30
0.0
  0
POINT
  5
9CD
  8
DEFPOINTS
  6
CONTINUOUS
 62
     0
 10
135.91321603808601
 20
-49.826218802956312
 30
0.0
  0
ENDBLK
  5
9B2
  8
0
  0
BLOCK
  8
0
  2
*D97
 70
     1
 10
0.0
 20
0.0
 30
0.0
  3
*D97
  1

  0
ARC
  5
A0F
  8
0
  6
CONTINUOUS
 62
     4
 10
-149.5
 20
-41.673046874999969
 30
0.0
 40
64.962643864725564
 50
2.2050871201041979
 51
87.794912879895733
  0
SOLID
  5
A10
  8
0
  6
CONTINUOUS
 62
     4
 10
-84.168871179977913
 20
-39.165492299555773
 30
0.0
 11
-85.002050229056934
 21
-39.181527155970102
 31
0.0
 12
-84.537356135274422
 22
-41.673046874999983
 32
0.0
 13
-84.537356135274422
 23
-41.673046874999983
 33
0.0
  0
SOLID
  5
A11
  8
0
  6
CONTINUOUS
 62
     4
 10
-147.00848028096999
 20
22.82490289594308
 30
0.0
 11
-146.9924454245556
 21
23.65808194502209
 31
0.0
 12
-149.49999999999989
 22
23.289596989725599
 32
0.0
 13
-149.49999999999989
 23
23.289596989725599
 33
0.0
  0
TEXT
  8
0
  40
5
  5
A18
  62
4
  72
0
  71
0
 10
-111.090
 20
-2.11265
 30
0.000000
  1
90°
  0
POINT
  5
A13
  8
DEFPOINTS
  6
CONTINUOUS
 62
     0
 10
-93.240700116146314
 20
-9.1917249426372223
 30
0.0
  0
POINT
  5
A14
  8
DEFPOINTS
  6
CONTINUOUS
 62
     0
 10
-149.5
 20
43.826953125000003
 30
0.0
  0
POINT
  5
A15
  8
DEFPOINTS
  6
CONTINUOUS
 62
     0
 10
-44.0
 20
-41.673046874999983
 30
0.0
  0
POINT
  5
A16
  8
DEFPOINTS
  6
CONTINUOUS
 62
     0
 10
-205.91085385920519
 20
-41.673046874999983
 30
0.0
  0
POINT
  5
A17
  8
DEFPOINTS
  6
CONTINUOUS
 62
     0
 10
-149.5
 20
-90.062916917444809
 30
0.0
  0
ENDBLK
  5
9DC
  8
0
  0
BLOCK
  8
0
  2
*D98
 70
     1
 10
0.0
 20
0.0
 30
0.0
  3
*D98
  1

  0
LINE
  5
9E5
  8
0
  6
CONTINUOUS
 62
     0
 10
139.1574102119103
 20
-21.878294512791719
 30
0.0
 11
164.0076758593392
 21
2.9719711346363149
 31
0.0
  0
LINE
  5
9E6
  8
0
  6
CONTINUOUS
 62
     0
 10
123.0690218642618
 20
-21.878294512791719
 30
0.0
 11
98.218756216832972
 21
2.971971134636465
 31
0.0
  0
ARC
  5
9E7
  8
0
  6
CONTINUOUS
 62
     0
 10
131.11321603808599
 20
-29.92248868661569
 30
0.0
 40
46.339791206152277
 50
45.222557040667368
 51
89.551172326516294
  0
ARC
  5
9E8
  8
0
  6
CONTINUOUS
 62
     0
 10
131.11321603808599
 20
-29.92248868661569
 30
0.0
 40
46.339791206152277
 50
90.448827673483507
 51
134.7774429593324
  0
SOLID
  5
9E9
  8
0
  6
CONTINUOUS
 62
     0
 10
163.77404242326571
 20
2.992978059208026
 30
0.0
 11
163.73169849593319
 21
2.9504693328326419
 31
0.0
 12
163.88039663872561
 22
2.8446919140227389
 32
0.0
 13
163.88039663872561
 23
2.8446919140227389
 33
0.0
  0
SOLID
  5
9EA
  8
0
  6
CONTINUOUS
 62
     0
 10
98.494733580238957
 20
2.9504693328327911
 30
0.0
 11
98.452389652906433
 21
2.9929780592081752
 31
0.0
 12
98.346035437446545
 22
2.8446919140228881
 32
0.0
 13
98.346035437446545
 23
2.8446919140228881
 33
0.0
  0
TEXT
  8
0
  40
0.18
  5
A19
  62
0
  72
0
  71
0
 10
130.753
 20
16.0987
 30
0.000000
  1
90°
  0
POINT
  5
9EC
  8
DEFPOINTS
  6
CONTINUOUS
 62
     0
 10
143.10683654831291
 20
14.83831242424977
 30
0.0
  0
POINT
  5
9ED
  8
DEFPOINTS
  6
CONTINUOUS
 62
     0
 10
123.11321603808599
 20
-21.922488686615889
 30
0.0
  0
POINT
  5
9EE
  8
DEFPOINTS
  6
CONTINUOUS
 62
     0
 10
135.91321603808601
 20
-25.122488686615899
 30
0.0
  0
POINT
  5
9EF
  8
DEFPOINTS
  6
CONTINUOUS
 62
     0
 10
139.11321603808611
 20
-21.922488686615889
 30
0.0
  0
POINT
  5
9F0
  8
DEFPOINTS
  6
CONTINUOUS
 62
     0
 10
126.3132160380861
 20
-25.122488686615899
 30
0.0
  0
ENDBLK
  5
9F2
  8
0
  0
BLOCK
  8
0
  2
*U99
 70
     1
 10
0.0
 20
0.0
 30
0.0
  3
*U99
  1

  0
TEXT
  5
9FC
  8
0
  6
CONTINUOUS
 62
     4
 10
140.2654887653587
 20
-48.073377893865398
 30
0.0
 40
5.0
  1
φ4
  7
ゴシック
  0
ENDBLK
  5
9FE
  8
0
  0
BLOCK
  8
0
  2
*U100
 70
     1
 10
0.0
 20
0.0
 30
0.0
  3
*U100
  1

  0
TEXT
  5
A00
  8
0
  6
CONTINUOUS
 62
     4
 10
127.36321603808609
 20
-2.239455582344672
 30
0.0
 40
5.0
  1
φ8
  7
ゴシック
  0
ENDBLK
  5
A02
  8
0
  0
BLOCK
  8
0
  2
*U101
 70
     1
 10
0.0
 20
0.0
 30
0.0
  3
*U101
  1

  0
TEXT
  5
A04
  8
0
  6
CONTINUOUS
 62
     4
 10
124.86321603808631
 20
17.41730251953663
 30
0.0
 40
5.0
  1
90°
  7
ゴシック
  0
ENDBLK
  5
A06
  8
0
  0
BLOCK
  8
0
  2
*U102
 70
     1
 10
0.0
 20
0.0
 30
0.0
  3
*U102
  1

  0
TEXT
  5
A08
  8
0
  6
CONTINUOUS
 62
     4
 10
126.94654937141939
 20
-2.9922964914355799
 30
0.0
 40
5.0
  1
φ8
  0
ENDBLK
  5
A0A
  8
0
  0
BLOCK
  8
0
  2
*U103
 70
     1
 10
0.0
 20
0.0
 30
0.0
  3
*U103
  1

  0
TEXT
  5
A0C
  8
0
  6
CONTINUOUS
 62
     4
 10
137.63664687659551
 20
-49.973834891903259
 30
0.0
 40
5.0
  1
φ4
  0
ENDBLK
  5
A0E
  8
0
  0
ENDSEC
  0
SECTION
  2
ENTITIES
  0
LINE
  5
2F
  8
ﾚｲﾔ_1
 62
     5
 10
145.7491210938
 20
109.18710937500001
 30
0.0
 11
145.7491210938
 21
141.18710937500001
 31
0.0
  0
DIMENSION
  5
40
  8
寸法線
  2
*D2
 10
76.249121093799999
 20
89.187109375000006
 30
0.0
 11
91.249121093799985
 21
89.187109375000006
 31
0.0
 70
   128
  1
<>
 13
76.249121093799999
 23
117.68710937500001
 33
0.0
 14
106.2491210938
 24
117.68710937500001
 34
0.0
 50
180.0
  0
DIMENSION
  5
4F
  8
寸法線
  2
*D3
 10
106.2491210938
 20
89.187109375000006
 30
0.0
 11
128.2491210938
 21
89.187109375000006
 31
0.0
 70
   128
  1
<>
 13
106.2491210938
 23
117.68710937500001
 33
0.0
 14
150.2491210938
 24
109.18710937500001
 34
0.0
 50
180.0
  0
DIMENSION
  5
5E
  8
寸法線
  2
*D4
 10
40.249121093799992
 20
141.18710937500001
 30
0.0
 11
40.249121093799992
 21
133.18710937500001
 31
0.0
 70
   128
  1
<>
 13
60.249121093799999
 23
141.18710937500001
 33
0.0
 14
68.749121093799999
 24
125.18710937500001
 34
0.0
 50
90.0
  0
DIMENSION
  5
6D
  8
寸法線
  2
*D5
 10
40.249121093799992
 20
125.18710937500001
 30
0.0
 11
40.249121093799992
 21
117.18710937500001
 31
0.0
 70
   128
  1
<>
 13
68.749121093799999
 23
125.18710937500001
 33
0.0
 14
60.249121093799999
 24
109.18710937500001
 34
0.0
 50
90.0
  0
DIMENSION
  5
7C
  8
寸法線
  2
*D6
 10
60.249121093799999
 20
89.187109375000006
 30
0.0
 11
68.249121093799999
 21
89.187109375000006
 31
0.0
 70
   128
  1
<>
 13
60.249121093799999
 23
109.18710937500001
 33
0.0
 14
76.249121093799999
 24
117.68710937500001
 34
0.0
 50
180.0
  0
LINE
  5
7E
  8
図枠
 62
     5
 10
237.50666309269999
 20
185.26063548120001
 30
0.0
 11
237.50666309269999
 21
215.2576354812
 31
0.0
  0
LINE
  5
7F
  8
図枠
 62
     5
 10
89.521463092700003
 20
185.26063548120001
 30
0.0
 11
89.521463092700003
 21
215.2576354812
 31
0.0
  0
LINE
  5
80
  8
図枠
 62
     5
 10
96.952149177700022
 20
204.69392695720001
 30
0.0
 11
92.002644177700006
 21
196.1211328249
 31
0.0
  0
LINE
  5
81
  8
図枠
 62
     5
 10
96.952149177700022
 20
204.69392695720001
 30
0.0
 11
101.9016541777
 21
196.1211328249
 31
0.0
  0
LINE
  5
82
  8
図枠
 62
     5
 10
105.51986309270001
 20
185.26063548120001
 30
0.0
 11
105.51986309270001
 21
215.2576354812
 31
0.0
  0
INSERT
  5
83
  8
0
  6
CONTINUOUS
  2
*U32
 10
0.0
 20
0.0
 30
0.0
  0
INSERT
  5
84
  8
0
  6
CONTINUOUS
  2
*U33
 10
0.0
 20
0.0
 30
0.0
  0
INSERT
  5
85
  8
0
  6
CONTINUOUS
  2
*U34
 10
0.0
 20
0.0
 30
0.0
  0
INSERT
  5
86
  8
0
  6
CONTINUOUS
  2
*U35
 10
0.0
 20
0.0
 30
0.0
  0
LINE
  5
87
  8
図枠
 62
     5
 10
92.002644177700006
 20
186.2221228249
 30
0.0
 11
101.9016541777
 21
186.2221228249
 31
0.0
  0
LINE
  5
88
  8
図枠
 62
     5
 10
92.002644177700006
 20
196.1211328249
 30
0.0
 11
101.9016541777
 21
196.1211328249
 31
0.0
  0
LINE
  5
89
  8
図枠
 62
     5
 10
96.952149177700022
 20
194.7949169572
 30
0.0
 11
101.9016541777
 21
186.2221228249
 31
0.0
  0
LINE
  5
8A
  8
図枠
 62
     5
 10
96.952149177700022
 20
194.7949169572
 30
0.0
 11
92.002644177700006
 21
186.2221228249
 31
0.0
  0
LINE
  5
8B
  8
図枠
 62
     5
 10
89.521463092700003
 20
185.26063548120001
 30
0.0
 11
277.5026630927
 21
185.26063548120001
 31
0.0
  0
LINE
  5
8C
  8
図枠
 62
     5
 10
137.51666309270001
 20
185.26063548120001
 30
0.0
 11
137.51666309270001
 21
215.2576354812
 31
0.0
  0
INSERT
  5
8D
  8
0
  6
CONTINUOUS
  2
*U36
 10
0.0
 20
0.0
 30
0.0
  0
LINE
  5
8E
  8
図枠
 62
     5
 10
89.521463092700003
 20
195.25963548120001
 30
0.0
 11
277.5026630927
 21
195.25963548120001
 31
0.0
  0
LINE
  5
8F
  8
図枠
 62
     5
 10
89.521463092700003
 20
205.2586354812
 30
0.0
 11
277.5026630927
 21
205.2586354812
 31
0.0
  0
LINE
  5
90
  8
図枠
 62
     5
 10
257.50466309270001
 20
185.26063548120001
 30
0.0
 11
257.50466309270001
 21
215.2576354812
 31
0.0
  0
LINE
  5
91
  8
図枠
 10
45.5258630927
 20
-113.7094645188
 30
0.0
 11
277.5026630927
 21
-113.7094645188
 31
0.0
  0
LINE
  5
92
  8
図枠
 10
115.1133063844
 20
-153.64919339939999
 30
0.0
 11
111.9136263844
 21
-153.64919339939999
 31
0.0
  0
LINE
  5
93
  8
図枠
 10
148.17655861899999
 20
-119.90484491879999
 30
0.0
 11
157.391637019
 21
-117.6010753188
 31
0.0
  0
LINE
  5
94
  8
図枠
 10
152.2440778399
 20
-153.16924139939999
 30
0.0
 11
158.1139478245
 21
-153.16924139939999
 31
0.0
  0
LINE
  5
95
  8
図枠
 10
147.71285470449999
 20
-153.16924139939999
 30
0.0
 11
146.9150678245
 21
-150.44951339939999
 31
0.0
  0
LINE
  5
96
  8
図枠
 10
143.7153878245
 20
-156.04895339940001
 30
0.0
 11
148.55757022450001
 21
-156.04895339940001
 31
0.0
  0
LINE
  5
97
  8
図枠
 10
195.51086309269999
 20
-91.711664518799992
 30
0.0
 11
195.51086309269999
 21
-80.712764518800014
 31
0.0
  0
LINE
  5
98
  8
ﾚｲﾔ_1
 62
     5
 10
60.249121093799999
 20
141.18710937500001
 30
0.0
 11
60.249121093799999
 21
109.18710937500001
 31
0.0
  0
LINE
  5
99
  8
ﾚｲﾔ_1
 62
     5
 10
150.2491210938
 20
141.18710937500001
 30
0.0
 11
60.249121093799999
 21
141.18710937500001
 31
0.0
  0
LINE
  5
9A
  8
ﾚｲﾔ_1
 62
     5
 10
150.2491210938
 20
109.18710937500001
 30
0.0
 11
150.2491210938
 21
141.18710937500001
 31
0.0
  0
LINE
  5
9B
  8
ﾚｲﾔ_1
 62
     5
 10
60.249121093799999
 20
109.18710937500001
 30
0.0
 11
150.2491210938
 21
109.18710937500001
 31
0.0
  0
CIRCLE
  5
9C
  8
ﾚｲﾔ_1
 62
     5
 10
76.249121093799999
 20
125.18710937500001
 30
0.0
 40
2.25
  0
LINE
  5
9D
  8
ﾚｲﾔ_1
  6
BORDER
 62
     3
 10
76.249121093799999
 20
132.68710937500001
 30
0.0
 11
76.249121093799999
 21
117.68710937500001
 31
0.0
  0
LINE
  5
9E
  8
ﾚｲﾔ_1
  6
BORDER
 62
     3
 10
68.749121093799999
 20
125.18710937500001
 30
0.0
 11
83.749121093799999
 21
125.18710937500001
 31
0.0
  0
LINE
  5
9F
  8
ﾚｲﾔ_1
  6
BORDER
 62
     3
 10
98.749121093799985
 20
125.18710937500001
 30
0.0
 11
113.7491210938
 21
125.18710937500001
 31
0.0
  0
LINE
  5
A0
  8
ﾚｲﾔ_1
  6
BORDER
 62
     3
 10
106.2491210938
 20
132.68710937500001
 30
0.0
 11
106.2491210938
 21
117.68710937500001
 31
0.0
  0
CIRCLE
  5
A1
  8
ﾚｲﾔ_1
 62
     5
 10
106.2491210938
 20
125.18710937500001
 30
0.0
 40
2.25
  0
LINE
  5
A2
  8
ﾚｲﾔ_1
  6
BORDER
 62
     3
 10
140.98118323310001
 20
125.18710937500001
 30
0.0
 11
154.34960428580001
 21
125.18710937500001
 31
0.0
  0
CIRCLE
  5
A3
  8
ﾚｲﾔ_1
  6
STITCH
 10
76.249121093799999
 20
125.18710937500001
 30
0.0
 40
4.25
  0
CIRCLE
  5
A4
  8
ﾚｲﾔ_1
  6
STITCH
 10
106.2491210938
 20
125.18710937500001
 30
0.0
 40
4.25
  0
LINE
  5
A5
  8
ﾚｲﾔ_1
  6
STITCH
 10
147.7491210938
 20
122.93710937500001
 30
0.0
 11
145.7491210938
 21
120.93710937500001
 31
0.0
  0
LINE
  5
A6
  8
ﾚｲﾔ_1
  6
STITCH
 10
145.7491210938
 20
129.43710937500001
 30
0.0
 11
147.7491210938
 21
127.43710937500001
 31
0.0
  0
LINE
  5
A7
  8
ﾚｲﾔ_1
  6
STITCH
 10
150.2491210938
 20
122.93710937500001
 30
0.0
 11
147.7491210938
 21
122.93710937500001
 31
0.0
  0
LINE
  5
A8
  8
ﾚｲﾔ_1
  6
STITCH
 10
147.7491210938
 20
127.43710937500001
 30
0.0
 11
150.2491210938
 21
127.43710937500001
 31
0.0
  0
LINE
  5
A9
  8
ﾚｲﾔ_1
  6
STITCH
 10
147.7491210938
 20
127.43710937500001
 30
0.0
 11
147.7491210938
 21
122.93710937500001
 31
0.0
  0
LINE
  5
AA
  8
図枠
 10
153.4410595571
 20
-157.32882539939999
 30
0.0
 11
153.07275749030001
 21
-156.04895339940001
 31
0.0
  0
LINE
  5
AB
  8
図枠
 10
148.17655861899999
 20
-124.5123841188
 30
0.0
 11
157.391637019
 21
-126.8161537188
 31
0.0
  0
LINE
  5
AC
  8
図枠
 10
143.7153878245
 20
-153.16924139939999
 30
0.0
 11
143.7153878245
 21
-156.04895339940001
 31
0.0
  0
LINE
  5
AD
  8
図枠
 10
165.51386309270001
 20
-113.7094645188
 30
0.0
 11
165.51386309270001
 21
-164.70436451879999
 31
0.0
  0
LINE
  5
AE
  8
図枠
 10
148.17655861899999
 20
-124.5123841188
 30
0.0
 11
157.391637019
 21
-126.8161537188
 31
0.0
  0
LINE
  5
AF
  8
図枠
 10
148.17655861899999
 20
-124.5123841188
 30
0.0
 11
157.391637019
 21
-126.8161537188
 31
0.0
  0
INSERT
  5
B0
  8
0
  6
CONTINUOUS
  2
*U37
 10
0.0
 20
0.0
 30
0.0
  0
INSERT
  5
B1
  8
0
  6
CONTINUOUS
  2
*U38
 10
0.0
 20
0.0
 30
0.0
  0
LINE
  5
B2
  8
図枠
 10
119.11290638440001
 20
-156.84887339939999
 30
0.0
 11
119.11290638440001
 21
-156.04895339940001
 31
0.0
  0
LINE
  5
B3
  8
図枠
 10
85.521863092700002
 20
-113.7094645188
 30
0.0
 11
85.521863092700002
 21
-130.70776451879999
 31
0.0
  0
LINE
  5
B4
  8
図枠
 10
152.2440778399
 20
-153.16924139939999
 30
0.0
 11
152.00987046259999
 21
-152.35535657129981
 31
0.0
  0
LINE
  5
B5
  8
図枠
 10
157.391637019
 20
-117.6010753188
 30
0.0
 11
157.391637019
 21
-126.8161537188
 31
0.0
  0
LINE
  5
B6
  8
図枠
 10
148.17655861899999
 20
-119.90484491879999
 30
0.0
 11
157.391637019
 21
-117.6010753188
 31
0.0
  0
LINE
  5
B7
  8
図枠
 10
148.17655861899999
 20
-119.90484491879999
 30
0.0
 11
148.17655861899999
 21
-124.5123841188
 31
0.0
  0
LINE
  5
B8
  8
図枠
 10
148.17655861899999
 20
-119.90484491879999
 30
0.0
 11
157.391637019
 21
-117.6010753188
 31
0.0
  0
LINE
  5
B9
  8
図枠
 10
159.5144630927
 20
-91.711664518799992
 30
0.0
 11
159.5144630927
 21
-80.712764518800014
 31
0.0
  0
INSERT
  5
BA
  8
0
  6
CONTINUOUS
  2
*U39
 10
0.0
 20
0.0
 30
0.0
  0
INSERT
  5
BB
  8
0
  6
CONTINUOUS
  2
*U40
 10
0.0
 20
0.0
 30
0.0
  0
INSERT
  5
BC
  8
0
  6
CONTINUOUS
  2
*U41
 10
0.0
 20
0.0
 30
0.0
  0
LINE
  5
BD
  8
図枠
 10
143.7153878245
 20
-160.2085373994
 30
0.0
 11
149.77771486450001
 21
-160.2085373994
 31
0.0
  0
LINE
  5
BE
  8
図枠
 10
153.07275749030001
 20
-156.04895339940001
 30
0.0
 11
158.1139478245
 21
-156.04895339940001
 31
0.0
  0
LINE
  5
BF
  8
図枠
 10
148.17655861899999
 20
-119.90484491879999
 30
0.0
 11
148.17655861899999
 21
-124.5123841188
 31
0.0
  0
LINE
  5
C0
  8
図枠
 10
143.7153878245
 20
-157.32882539939999
 30
0.0
 11
143.7153878245
 21
-160.2085373994
 31
0.0
  0
INSERT
  5
C1
  8
0
  6
CONTINUOUS
  2
*U42
 10
0.0
 20
0.0
 30
0.0
  0
LINE
  5
C2
  8
図枠
 10
148.17655861899999
 20
-119.90484491879999
 30
0.0
 11
148.17655861899999
 21
-124.5123841188
 31
0.0
  0
LINE
  5
C3
  8
図枠
 10
121.51266638440001
 20
-153.64919339939999
 30
0.0
 11
119.11290638440001
 21
-153.64919339939999
 31
0.0
  0
INSERT
  5
C4
  8
0
  6
CONTINUOUS
  2
*U43
 10
0.0
 20
0.0
 30
0.0
  0
LINE
  5
C5
  8
図枠
 10
107.9140263844
 20
-150.44951339939999
 30
0.0
 11
107.9140263844
 21
-153.64919339939999
 31
0.0
  0
LINE
  5
C6
  8
図枠
 10
107.9140263844
 20
-156.04895339940001
 30
0.0
 11
107.9140263844
 21
-158.44871339939999
 31
0.0
  0
ARC
  5
C7
  8
図枠
 10
129.76881038440001
 20
-152.8492733994
 30
0.0
 40
8.7991200000000003
 50
270.0
 51
302.54495885400001
  0
LINE
  5
C8
  8
図枠
 10
49.525463092700008
 20
-122.2086145188
 30
0.0
 11
81.522263092700001
 21
-122.2086145188
 31
0.0
  0
INSERT
  5
C9
  8
0
  6
CONTINUOUS
  2
*U44
 10
0.0
 20
0.0
 30
0.0
  0
LINE
  5
CA
  8
図枠
 10
132.1685703844
 20
-154.1645182897999
 30
0.0
 11
131.26356421419999
 21
-155.06952446
 31
0.0
  0
CIRCLE
  5
CB
  8
図枠
 10
137.64465029269999
 20
-122.2086145188
 30
0.0
 40
2.3037695999999981
  0
INSERT
  5
CC
  8
0
  6
CONTINUOUS
  2
*U45
 10
0.0
 20
0.0
 30
0.0
  0
INSERT
  5
CD
  8
0
  6
CONTINUOUS
  2
*U46
 10
0.0
 20
0.0
 30
0.0
  0
LINE
  5
CE
  8
図枠
 10
157.391637019
 20
-117.6010753188
 30
0.0
 11
157.391637019
 21
-126.8161537188
 31
0.0
  0
LINE
  5
CF
  8
図枠
 10
143.7153878245
 20
-157.32882539939999
 30
0.0
 11
148.93299934449999
 21
-157.32882539939999
 31
0.0
  0
LINE
  5
D0
  8
図枠
 10
152.00987046259999
 20
-152.35535657129981
 30
0.0
 11
153.3144278245
 21
-150.44951339939999
 31
0.0
  0
INSERT
  5
D1
  8
0
  6
CONTINUOUS
  2
*U47
 10
0.0
 20
0.0
 30
0.0
  0
LINE
  5
D2
  8
図枠
 10
157.391637019
 20
-117.6010753188
 30
0.0
 11
157.391637019
 21
-126.8161537188
 31
0.0
  0
INSERT
  5
D3
  8
0
  6
CONTINUOUS
  2
*U48
 10
0.0
 20
0.0
 30
0.0
  0
LINE
  5
D4
  8
図枠
 10
119.11290638440001
 20
-156.04895339940001
 30
0.0
 11
121.51266638440001
 21
-156.04895339940001
 31
0.0
  0
LINE
  5
D5
  8
図枠
 10
148.17655861899999
 20
-119.90484491879999
 30
0.0
 11
157.391637019
 21
-117.6010753188
 31
0.0
  0
LINE
  5
D6
  8
図枠
 10
153.4410595571
 20
-157.32882539939999
 30
0.0
 11
158.1139478245
 21
-157.32882539939999
 31
0.0
  0
LINE
  5
D7
  8
図枠
 10
143.7153878245
 20
-153.16924139939999
 30
0.0
 11
147.71285470449999
 21
-153.16924139939999
 31
0.0
  0
LINE
  5
D8
  8
図枠
 10
158.1139478245
 20
-153.16924139939999
 30
0.0
 11
158.1139478245
 21
-156.04895339940001
 31
0.0
  0
LINE
  5
D9
  8
図枠
 10
154.26973920750001
 20
-160.2085373994
 30
0.0
 11
158.1139478245
 21
-160.2085373994
 31
0.0
  0
LINE
  5
DA
  8
図枠
 10
148.17655861899999
 20
-124.5123841188
 30
0.0
 11
157.391637019
 21
-126.8161537188
 31
0.0
  0
LINE
  5
DB
  8
図枠
 10
150.43471582449999
 20
-162.44831339940001
 30
0.0
 11
149.77771486450001
 21
-160.2085373994
 31
0.0
  0
LINE
  5
DC
  8
図枠
 10
119.11290638440001
 20
-153.64919339939999
 30
0.0
 11
119.11290638440001
 21
-152.8492733994
 31
0.0
  0
LINE
  5
DD
  8
図枠
 10
148.17655861899999
 20
-119.90484491879999
 30
0.0
 11
148.17655861899999
 21
-124.5123841188
 31
0.0
  0
LINE
  5
DE
  8
図枠
 10
148.93299934449999
 20
-157.32882539939999
 30
0.0
 11
148.55757022450001
 21
-156.04895339940001
 31
0.0
  0
LINE
  5
DF
  8
図枠
 10
125.5178630927
 20
-113.7094645188
 30
0.0
 11
125.5178630927
 21
-130.70776451879999
 31
0.0
  0
INSERT
  5
E0
  8
0
  6
CONTINUOUS
  2
*U49
 10
0.0
 20
0.0
 30
0.0
  0
LINE
  5
E1
  8
図枠
 10
125.7692103844
 20
-150.44951339939999
 30
0.0
 11
125.7692103844
 21
-153.3292253994
 31
0.0
  0
ARC
  5
E2
  8
図枠
 10
112.7135463844
 20
-156.84887339939999
 30
0.0
 40
2.399759999999997
 50
270.0
 51
0.0
  0
LINE
  5
E3
  8
図枠
 10
125.7692103844
 20
-154.1645182897999
 30
0.0
 11
132.1685703844
 21
-154.1645182897999
 31
0.0
  0
CIRCLE
  5
E4
  8
図枠
 10
137.64465029269999
 20
-122.2086145188
 30
0.0
 40
2.3037695999999981
  0
CIRCLE
  5
E5
  8
図枠
 10
137.64465029269999
 20
-122.2086145188
 30
0.0
 40
4.6075391999999971
  0
ARC
  5
E6
  8
図枠
 10
127.6890183844
 20
-153.16924139939999
 30
0.0
 40
6.0793919999999986
 50
331.39928138329998
 51
358.49204224580001
  0
LINE
  5
E7
  8
図枠
 10
111.9136263844
 20
-153.64919339939999
 30
0.0
 11
111.9136263844
 21
-152.8492733994
 31
0.0
  0
LINE
  5
E8
  8
図枠
 10
121.51266638440001
 20
-150.44951339939999
 30
0.0
 11
115.1133063844
 21
-150.44951339939999
 31
0.0
  0
LINE
  5
E9
  8
図枠
 10
45.5258630927
 20
-113.7094645188
 30
0.0
 11
45.5258630927
 21
-164.70436451879999
 31
0.0
  0
LINE
  5
EA
  8
図枠
 10
45.5258630927
 20
-80.712764518800014
 30
0.0
 11
45.5258630927
 21
-113.7094645188
 31
0.0
  0
LINE
  5
EB
  8
図枠
 10
107.9140263844
 20
-158.44871339939999
 30
0.0
 11
111.9136263844
 21
-158.44871339939999
 31
0.0
  0
LINE
  5
EC
  8
図枠
 10
85.521863092700002
 20
-113.7094645188
 30
0.0
 11
85.521863092700002
 21
-80.712764518800014
 31
0.0
  0
LINE
  5
ED
  8
図枠
 10
125.7692103844
 20
-159.24863339940001
 30
0.0
 11
127.6890183844
 21
-159.24863339940001
 31
0.0
  0
LINE
  5
EE
  8
図枠
 10
107.9140263844
 20
-161.64839339939999
 30
0.0
 11
114.3133863844
 21
-161.64839339939999
 31
0.0
  0
LINE
  5
EF
  8
図枠
 10
150.43471582449999
 20
-162.44831339940001
 30
0.0
 11
154.9142678245
 21
-162.44831339940001
 31
0.0
  0
LINE
  5
F0
  8
図枠
 10
146.9150678245
 20
-150.44951339939999
 30
0.0
 11
153.3144278245
 21
-150.44951339939999
 31
0.0
  0
LINE
  5
F1
  8
図枠
 10
154.9142678245
 20
-162.44831339940001
 30
0.0
 11
154.26973920750001
 21
-160.2085373994
 31
0.0
  0
LINE
  5
F2
  8
図枠
 10
158.1139478245
 20
-157.32882539939999
 30
0.0
 11
158.1139478245
 21
-160.2085373994
 31
0.0
  0
INSERT
  5
F3
  8
0
  6
CONTINUOUS
  2
*U50
 10
0.0
 20
0.0
 30
0.0
  0
LINE
  5
F4
  8
図枠
 10
121.51266638440001
 20
-153.64919339939999
 30
0.0
 11
121.51266638440001
 21
-156.04895339940001
 31
0.0
  0
CIRCLE
  5
F5
  8
図枠
 10
137.64465029269999
 20
-122.2086145188
 30
0.0
 40
2.3037695999999981
  0
LINE
  5
F6
  8
図枠
 10
115.1133063844
 20
-156.04895339940001
 30
0.0
 11
115.1133063844
 21
-156.84887339939999
 31
0.0
  0
LINE
  5
F7
  8
図枠
 10
112.7135463844
 20
-159.24863339940001
 30
0.0
 11
107.9140263844
 21
-159.24863339940001
 31
0.0
  0
ARC
  5
F8
  8
図枠
 10
129.76881038440001
 20
-152.8492733994
 30
0.0
 40
8.7991200000000003
 50
322.48761197969998
 51
0.0
  0
CIRCLE
  5
F9
  8
図枠
 10
137.64465029269999
 20
-122.2086145188
 30
0.0
 40
2.3037695999999981
  0
LINE
  5
FA
  8
図枠
  6
BORDER
 10
137.64465029269999
 20
-115.2973057188
 30
0.0
 11
137.64465029269999
 21
-129.11992331880001
 31
0.0
  0
LINE
  5
FB
  8
図枠
  6
BORDER
 10
137.64465029269999
 20
-115.2973057188
 30
0.0
 11
137.64465029269999
 21
-129.11992331880001
 31
0.0
  0
POLYLINE
  5
3B8
  8
図枠
 66
     1
 10
0.0
 20
0.0
 30
0.0
 70
     8
  0
VERTEX
  5
3B9
  8
図枠
 10
136.464
 20
-158.48599999999999
 30
0.0
 70
    32
  0
VERTEX
  5
3BA
  8
図枠
 10
136.49100000000001
 20
-158.494
 30
0.0
 70
    32
  0
VERTEX
  5
3BB
  8
図枠
 10
136.51900000000001
 20
-158.50200000000001
 30
0.0
 70
    32
  0
VERTEX
  5
3BC
  8
図枠
 10
136.548
 20
-158.50999999999999
 30
0.0
 70
    32
  0
VERTEX
  5
3BD
  8
図枠
 10
136.57599999999999
 20
-158.518
 30
0.0
 70
    32
  0
VERTEX
  5
3BE
  8
図枠
 10
136.60400000000001
 20
-158.52600000000001
 30
0.0
 70
    32
  0
VERTEX
  5
3BF
  8
図枠
 10
136.63200000000001
 20
-158.53299999999999
 30
0.0
 70
    32
  0
VERTEX
  5
3C0
  8
図枠
 10
136.66
 20
-158.541
 30
0.0
 70
    32
  0
VERTEX
  5
3C1
  8
図枠
 10
136.68799999999999
 20
-158.548
 30
0.0
 70
    32
  0
VERTEX
  5
3C2
  8
図枠
 10
136.71600000000001
 20
-158.55600000000001
 30
0.0
 70
    32
  0
VERTEX
  5
3C3
  8
図枠
 10
136.744
 20
-158.56399999999999
 30
0.0
 70
    32
  0
VERTEX
  5
3C4
  8
図枠
 10
136.773
 20
-158.571
 30
0.0
 70
    32
  0
VERTEX
  5
3C5
  8
図枠
 10
136.80099999999999
 20
-158.57900000000001
 30
0.0
 70
    32
  0
VERTEX
  5
3C6
  8
図枠
 10
136.82900000000001
 20
-158.58600000000001
 30
0.0
 70
    32
  0
VERTEX
  5
3C7
  8
図枠
 10
136.858
 20
-158.59299999999999
 30
0.0
 70
    32
  0
VERTEX
  5
3C8
  8
図枠
 10
136.886
 20
-158.601
 30
0.0
 70
    32
  0
VERTEX
  5
3C9
  8
図枠
 10
136.91399999999999
 20
-158.608
 30
0.0
 70
    32
  0
VERTEX
  5
3CA
  8
図枠
 10
136.94300000000001
 20
-158.61500000000001
 30
0.0
 70
    32
  0
VERTEX
  5
3CB
  8
図枠
 10
136.971
 20
-158.62200000000001
 30
0.0
 70
    32
  0
VERTEX
  5
3CC
  8
図枠
 10
137.0
 20
-158.62899999999999
 30
0.0
 70
    32
  0
VERTEX
  5
3CD
  8
図枠
 10
137.02799999999999
 20
-158.637
 30
0.0
 70
    32
  0
VERTEX
  5
3CE
  8
図枠
 10
137.05699999999999
 20
-158.64400000000001
 30
0.0
 70
    32
  0
VERTEX
  5
3CF
  8
図枠
 10
137.08500000000001
 20
-158.65100000000001
 30
0.0
 70
    32
  0
VERTEX
  5
3D0
  8
図枠
 10
137.114
 20
-158.65799999999999
 30
0.0
 70
    32
  0
VERTEX
  5
3D1
  8
図枠
 10
137.142
 20
-158.66499999999999
 30
0.0
 70
    32
  0
VERTEX
  5
3D2
  8
図枠
 10
137.17099999999999
 20
-158.672
 30
0.0
 70
    32
  0
VERTEX
  5
3D3
  8
図枠
 10
137.19900000000001
 20
-158.679
 30
0.0
 70
    32
  0
VERTEX
  5
3D4
  8
図枠
 10
137.22799999999981
 20
-158.685
 30
0.0
 70
    32
  0
VERTEX
  5
3D5
  8
図枠
 10
137.25700000000001
 20
-158.69200000000001
 30
0.0
 70
    32
  0
VERTEX
  5
3D6
  8
図枠
 10
137.285
 20
-158.69900000000001
 30
0.0
 70
    32
  0
VERTEX
  5
3D7
  8
図枠
 10
137.31399999999999
 20
-158.70599999999999
 30
0.0
 70
    32
  0
VERTEX
  5
3D8
  8
図枠
 10
137.34299999999999
 20
-158.71199999999999
 30
0.0
 70
    32
  0
VERTEX
  5
3D9
  8
図枠
 10
137.37200000000001
 20
-158.71899999999999
 30
0.0
 70
    32
  0
VERTEX
  5
3DA
  8
図枠
 10
137.40000000000001
 20
-158.726
 30
0.0
 70
    32
  0
VERTEX
  5
3DB
  8
図枠
 10
137.429
 20
-158.732
 30
0.0
 70
    32
  0
VERTEX
  5
3DC
  8
図枠
 10
137.458
 20
-158.739
 30
0.0
 70
    32
  0
VERTEX
  5
3DD
  8
図枠
 10
137.48699999999999
 20
-158.74600000000001
 30
0.0
 70
    32
  0
VERTEX
  5
3DE
  8
図枠
 10
137.51599999999999
 20
-158.75200000000001
 30
0.0
 70
    32
  0
VERTEX
  5
3DF
  8
図枠
 10
137.5439999999999
 20
-158.75899999999999
 30
0.0
 70
    32
  0
VERTEX
  5
3E0
  8
図枠
 10
137.57300000000001
 20
-158.76499999999999
 30
0.0
 70
    32
  0
VERTEX
  5
3E1
  8
図枠
 10
137.602
 20
-158.77099999999999
 30
0.0
 70
    32
  0
VERTEX
  5
3E2
  8
図枠
 10
137.631
 20
-158.77799999999999
 30
0.0
 70
    32
  0
VERTEX
  5
3E3
  8
図枠
 10
137.66
 20
-158.78399999999999
 30
0.0
 70
    32
  0
VERTEX
  5
3E4
  8
図枠
 10
137.68899999999999
 20
-158.78999999999999
 30
0.0
 70
    32
  0
VERTEX
  5
3E5
  8
図枠
 10
137.71799999999999
 20
-158.797
 30
0.0
 70
    32
  0
VERTEX
  5
3E6
  8
図枠
 10
137.74700000000001
 20
-158.803
 30
0.0
 70
    32
  0
VERTEX
  5
3E7
  8
図枠
 10
137.77600000000001
 20
-158.809
 30
0.0
 70
    32
  0
VERTEX
  5
3E8
  8
図枠
 10
137.80500000000001
 20
-158.815
 30
0.0
 70
    32
  0
VERTEX
  5
3E9
  8
図枠
 10
137.834
 20
-158.822
 30
0.0
 70
    32
  0
VERTEX
  5
3EA
  8
図枠
 10
137.863
 20
-158.828
 30
0.0
 70
    32
  0
VERTEX
  5
3EB
  8
図枠
 10
137.892
 20
-158.834
 30
0.0
 70
    32
  0
VERTEX
  5
3EC
  8
図枠
 10
137.922
 20
-158.84
 30
0.0
 70
    32
  0
VERTEX
  5
3ED
  8
図枠
 10
137.95099999999999
 20
-158.846
 30
0.0
 70
    32
  0
VERTEX
  5
3EE
  8
図枠
 10
137.97999999999999
 20
-158.852
 30
0.0
 70
    32
  0
VERTEX
  5
3EF
  8
図枠
 10
138.00899999999999
 20
-158.858
 30
0.0
 70
    32
  0
VERTEX
  5
3F0
  8
図枠
 10
138.03800000000001
 20
-158.864
 30
0.0
 70
    32
  0
VERTEX
  5
3F1
  8
図枠
 10
138.06700000000001
 20
-158.87
 30
0.0
 70
    32
  0
VERTEX
  5
3F2
  8
図枠
 10
138.09700000000001
 20
-158.876
 30
0.0
 70
    32
  0
VERTEX
  5
3F3
  8
図枠
 10
138.126
 20
-158.88200000000001
 30
0.0
 70
    32
  0
VERTEX
  5
3F4
  8
図枠
 10
138.155
 20
-158.88800000000001
 30
0.0
 70
    32
  0
VERTEX
  5
3F5
  8
図枠
 10
138.184
 20
-158.89400000000001
 30
0.0
 70
    32
  0
VERTEX
  5
3F6
  8
図枠
 10
138.214
 20
-158.899
 30
0.0
 70
    32
  0
VERTEX
  5
3F7
  8
図枠
 10
138.24299999999999
 20
-158.905
 30
0.0
 70
    32
  0
VERTEX
  5
3F8
  8
図枠
 10
138.27199999999999
 20
-158.911
 30
0.0
 70
    32
  0
VERTEX
  5
3F9
  8
図枠
 10
138.30099999999999
 20
-158.917
 30
0.0
 70
    32
  0
VERTEX
  5
3FA
  8
図枠
 10
138.33099999999999
 20
-158.922
 30
0.0
 70
    32
  0
VERTEX
  5
3FB
  8
図枠
 10
138.36000000000001
 20
-158.928
 30
0.0
 70
    32
  0
VERTEX
  5
3FC
  8
図枠
 10
138.38999999999999
 20
-158.934
 30
0.0
 70
    32
  0
VERTEX
  5
3FD
  8
図枠
 10
138.41900000000001
 20
-158.94
 30
0.0
 70
    32
  0
VERTEX
  5
3FE
  8
図枠
 10
138.44799999999981
 20
-158.94499999999999
 30
0.0
 70
    32
  0
VERTEX
  5
3FF
  8
図枠
 10
138.47800000000001
 20
-158.95099999999999
 30
0.0
 70
    32
  0
VERTEX
  5
400
  8
図枠
 10
138.50700000000001
 20
-158.95599999999999
 30
0.0
 70
    32
  0
VERTEX
  5
401
  8
図枠
 10
138.53700000000001
 20
-158.96199999999999
 30
0.0
 70
    32
  0
VERTEX
  5
402
  8
図枠
 10
138.566
 20
-158.96799999999999
 30
0.0
 70
    32
  0
VERTEX
  5
403
  8
図枠
 10
138.595
 20
-158.97300000000001
 30
0.0
 70
    32
  0
VERTEX
  5
404
  8
図枠
 10
138.625
 20
-158.9789999999999
 30
0.0
 70
    32
  0
VERTEX
  5
405
  8
図枠
 10
138.654
 20
-158.98400000000001
 30
0.0
 70
    32
  0
VERTEX
  5
406
  8
図枠
 10
138.684
 20
-158.99000000000001
 30
0.0
 70
    32
  0
VERTEX
  5
407
  8
図枠
 10
138.71299999999999
 20
-158.995
 30
0.0
 70
    32
  0
VERTEX
  5
408
  8
図枠
 10
138.74299999999999
 20
-159.001
 30
0.0
 70
    32
  0
VERTEX
  5
409
  8
図枠
 10
138.77199999999999
 20
-159.006
 30
0.0
 70
    32
  0
VERTEX
  5
40A
  8
図枠
 10
138.80199999999999
 20
-159.011
 30
0.0
 70
    32
  0
VERTEX
  5
40B
  8
図枠
 10
138.83099999999999
 20
-159.017
 30
0.0
 70
    32
  0
VERTEX
  5
40C
  8
図枠
 10
138.86099999999999
 20
-159.02199999999999
 30
0.0
 70
    32
  0
VERTEX
  5
40D
  8
図枠
 10
138.89099999999999
 20
-159.02799999999999
 30
0.0
 70
    32
  0
VERTEX
  5
40E
  8
図枠
 10
138.91999999999999
 20
-159.0329999999999
 30
0.0
 70
    32
  0
VERTEX
  5
40F
  8
図枠
 10
138.94999999999999
 20
-159.03800000000001
 30
0.0
 70
    32
  0
VERTEX
  5
410
  8
図枠
 10
138.97900000000001
 20
-159.04400000000001
 30
0.0
 70
    32
  0
VERTEX
  5
411
  8
図枠
 10
139.00899999999999
 20
-159.04900000000001
 30
0.0
 70
    32
  0
VERTEX
  5
412
  8
図枠
 10
139.03800000000001
 20
-159.054
 30
0.0
 70
    32
  0
VERTEX
  5
413
  8
図枠
 10
139.06800000000001
 20
-159.06
 30
0.0
 70
    32
  0
VERTEX
  5
414
  8
図枠
 10
139.09800000000001
 20
-159.065
 30
0.0
 70
    32
  0
VERTEX
  5
415
  8
図枠
 10
139.12700000000001
 20
-159.06999999999999
 30
0.0
 70
    32
  0
VERTEX
  5
416
  8
図枠
 10
139.15700000000001
 20
-159.07499999999999
 30
0.0
 70
    32
  0
VERTEX
  5
417
  8
図枠
 10
139.18700000000001
 20
-159.08099999999999
 30
0.0
 70
    32
  0
VERTEX
  5
418
  8
図枠
 10
139.21600000000001
 20
-159.08600000000001
 30
0.0
 70
    32
  0
VERTEX
  5
419
  8
図枠
 10
139.24600000000001
 20
-159.09100000000001
 30
0.0
 70
    32
  0
VERTEX
  5
41A
  8
図枠
 10
139.27600000000001
 20
-159.096
 30
0.0
 70
    32
  0
VERTEX
  5
41B
  8
図枠
 10
139.30500000000001
 20
-159.101
 30
0.0
 70
    32
  0
VERTEX
  5
41C
  8
図枠
 10
139.33500000000001
 20
-159.107
 30
0.0
 70
    32
  0
VERTEX
  5
41D
  8
図枠
 10
139.36500000000001
 20
-159.11199999999999
 30
0.0
 70
    32
  0
VERTEX
  5
41E
  8
図枠
 10
139.39400000000001
 20
-159.11699999999999
 30
0.0
 70
    32
  0
VERTEX
  5
41F
  8
図枠
 10
139.42400000000001
 20
-159.12200000000001
 30
0.0
 70
    32
  0
VERTEX
  5
420
  8
図枠
 10
139.45400000000001
 20
-159.12700000000001
 30
0.0
 70
    32
  0
VERTEX
  5
421
  8
図枠
 10
139.483
 20
-159.13200000000001
 30
0.0
 70
    32
  0
VERTEX
  5
422
  8
図枠
 10
139.51300000000001
 20
-159.137
 30
0.0
 70
    32
  0
VERTEX
  5
423
  8
図枠
 10
139.54300000000001
 20
-159.142
 30
0.0
 70
    32
  0
VERTEX
  5
424
  8
図枠
 10
139.57300000000001
 20
-159.148
 30
0.0
 70
    32
  0
VERTEX
  5
425
  8
図枠
 10
139.602
 20
-159.15299999999999
 30
0.0
 70
    32
  0
VERTEX
  5
426
  8
図枠
 10
139.63200000000001
 20
-159.15799999999999
 30
0.0
 70
    32
  0
VERTEX
  5
427
  8
図枠
 10
139.66200000000001
 20
-159.16300000000001
 30
0.0
 70
    32
  0
VERTEX
  5
428
  8
図枠
 10
139.69200000000001
 20
-159.16800000000001
 30
0.0
 70
    32
  0
VERTEX
  5
429
  8
図枠
 10
139.721
 20
-159.173
 30
0.0
 70
    32
  0
VERTEX
  5
42A
  8
図枠
 10
139.751
 20
-159.178
 30
0.0
 70
    32
  0
VERTEX
  5
42B
  8
図枠
 10
139.78100000000001
 20
-159.18299999999999
 30
0.0
 70
    32
  0
VERTEX
  5
42C
  8
図枠
 10
139.81100000000001
 20
-159.18799999999999
 30
0.0
 70
    32
  0
VERTEX
  5
42D
  8
図枠
 10
139.84
 20
-159.19300000000001
 30
0.0
 70
    32
  0
VERTEX
  5
42E
  8
図枠
 10
139.87
 20
-159.19799999999981
 30
0.0
 70
    32
  0
VERTEX
  5
42F
  8
図枠
 10
139.90000000000001
 20
-159.203
 30
0.0
 70
    32
  0
VERTEX
  5
430
  8
図枠
 10
139.93000000000001
 20
-159.208
 30
0.0
 70
    32
  0
VERTEX
  5
431
  8
図枠
 10
139.959
 20
-159.21299999999999
 30
0.0
 70
    32
  0
VERTEX
  5
432
  8
図枠
 10
139.989
 20
-159.21799999999999
 30
0.0
 70
    32
  0
VERTEX
  5
433
  8
図枠
 10
140.01900000000001
 20
-159.2229999999999
 30
0.0
 70
    32
  0
VERTEX
  5
434
  8
図枠
 10
140.04900000000001
 20
-159.22900000000001
 30
0.0
 70
    32
  0
VERTEX
  5
435
  8
図枠
 10
140.078
 20
-159.23400000000001
 30
0.0
 70
    32
  0
VERTEX
  5
436
  8
図枠
 10
140.108
 20
-159.239
 30
0.0
 70
    32
  0
VERTEX
  5
437
  8
図枠
 10
140.13800000000001
 20
-159.244
 30
0.0
 70
    32
  0
VERTEX
  5
438
  8
図枠
 10
140.16800000000001
 20
-159.249
 30
0.0
 70
    32
  0
SEQEND
  5
439
  8
図枠
  0
LINE
  5
FD
  8
図枠
 10
138.5679303844
 20
-152.8492733994
 30
0.0
 11
140.1677703844
 21
-150.44951339939999
 31
0.0
  0
CIRCLE
  5
FE
  8
図枠
 10
137.64465029269999
 20
-122.2086145188
 30
0.0
 40
4.6075391999999971
  0
LINE
  5
FF
  8
図枠
  6
BORDER
 10
137.64465029269999
 20
-115.2973057188
 30
0.0
 11
137.64465029269999
 21
-129.11992331880001
 31
0.0
  0
INSERT
  5
100
  8
0
  6
CONTINUOUS
  2
*U51
 10
0.0
 20
0.0
 30
0.0
  0
POLYLINE
  5
43A
  8
図枠
 66
     1
 10
0.0
 20
0.0
 30
0.0
 70
     8
  0
VERTEX
  5
43B
  8
図枠
 10
125.76900000000001
 20
-154.68000000000001
 30
0.0
 70
    32
  0
VERTEX
  5
43C
  8
図枠
 10
125.798
 20
-154.70599999999999
 30
0.0
 70
    32
  0
VERTEX
  5
43D
  8
図枠
 10
125.827
 20
-154.733
 30
0.0
 70
    32
  0
VERTEX
  5
43E
  8
図枠
 10
125.85599999999999
 20
-154.75999999999999
 30
0.0
 70
    32
  0
VERTEX
  5
43F
  8
図枠
 10
125.884
 20
-154.786
 30
0.0
 70
    32
  0
VERTEX
  5
440
  8
図枠
 10
125.913
 20
-154.81299999999999
 30
0.0
 70
    32
  0
VERTEX
  5
441
  8
図枠
 10
125.94199999999999
 20
-154.839
 30
0.0
 70
    32
  0
VERTEX
  5
442
  8
図枠
 10
125.971
 20
-154.86600000000001
 30
0.0
 70
    32
  0
VERTEX
  5
443
  8
図枠
 10
126.0
 20
-154.892
 30
0.0
 70
    32
  0
VERTEX
  5
444
  8
図枠
 10
126.029
 20
-154.91900000000001
 30
0.0
 70
    32
  0
VERTEX
  5
445
  8
図枠
 10
126.057
 20
-154.94499999999999
 30
0.0
 70
    32
  0
VERTEX
  5
446
  8
図枠
 10
126.086
 20
-154.97200000000001
 30
0.0
 70
    32
  0
VERTEX
  5
447
  8
図枠
 10
126.11499999999999
 20
-154.99799999999999
 30
0.0
 70
    32
  0
VERTEX
  5
448
  8
図枠
 10
126.14400000000001
 20
-155.02500000000001
 30
0.0
 70
    32
  0
VERTEX
  5
449
  8
図枠
 10
126.173
 20
-155.05099999999999
 30
0.0
 70
    32
  0
VERTEX
  5
44A
  8
図枠
 10
126.202
 20
-155.078
 30
0.0
 70
    32
  0
VERTEX
  5
44B
  8
図枠
 10
126.23
 20
-155.10400000000001
 30
0.0
 70
    32
  0
VERTEX
  5
44C
  8
図枠
 10
126.259
 20
-155.131
 30
0.0
 70
    32
  0
VERTEX
  5
44D
  8
図枠
 10
126.288
 20
-155.15700000000001
 30
0.0
 70
    32
  0
VERTEX
  5
44E
  8
図枠
 10
126.31699999999999
 20
-155.184
 30
0.0
 70
    32
  0
VERTEX
  5
44F
  8
図枠
 10
126.346
 20
-155.21000000000001
 30
0.0
 70
    32
  0
VERTEX
  5
450
  8
図枠
 10
126.375
 20
-155.23699999999999
 30
0.0
 70
    32
  0
VERTEX
  5
451
  8
図枠
 10
126.404
 20
-155.26300000000001
 30
0.0
 70
    32
  0
VERTEX
  5
452
  8
図枠
 10
126.43300000000001
 20
-155.28999999999999
 30
0.0
 70
    32
  0
VERTEX
  5
453
  8
図枠
 10
126.461
 20
-155.316
 30
0.0
 70
    32
  0
VERTEX
  5
454
  8
図枠
 10
126.48999999999999
 20
-155.34200000000001
 30
0.0
 70
    32
  0
VERTEX
  5
455
  8
図枠
 10
126.51900000000001
 20
-155.369
 30
0.0
 70
    32
  0
VERTEX
  5
456
  8
図枠
 10
126.548
 20
-155.39500000000001
 30
0.0
 70
    32
  0
VERTEX
  5
457
  8
図枠
 10
126.577
 20
-155.422
 30
0.0
 70
    32
  0
VERTEX
  5
458
  8
図枠
 10
126.60599999999999
 20
-155.44800000000001
 30
0.0
 70
    32
  0
VERTEX
  5
459
  8
図枠
 10
126.63500000000001
 20
-155.47399999999999
 30
0.0
 70
    32
  0
VERTEX
  5
45A
  8
図枠
 10
126.664
 20
-155.501
 30
0.0
 70
    32
  0
VERTEX
  5
45B
  8
図枠
 10
126.693
 20
-155.52699999999999
 30
0.0
 70
    32
  0
VERTEX
  5
45C
  8
図枠
 10
126.72199999999999
 20
-155.553
 30
0.0
 70
    32
  0
VERTEX
  5
45D
  8
図枠
 10
126.751
 20
-155.57900000000001
 30
0.0
 70
    32
  0
VERTEX
  5
45E
  8
図枠
 10
126.78
 20
-155.60599999999999
 30
0.0
 70
    32
  0
VERTEX
  5
45F
  8
図枠
 10
126.809
 20
-155.63200000000001
 30
0.0
 70
    32
  0
VERTEX
  5
460
  8
図枠
 10
126.83799999999999
 20
-155.65799999999999
 30
0.0
 70
    32
  0
VERTEX
  5
461
  8
図枠
 10
126.867
 20
-155.684
 30
0.0
 70
    32
  0
VERTEX
  5
462
  8
図枠
 10
126.896
 20
-155.71000000000001
 30
0.0
 70
    32
  0
VERTEX
  5
463
  8
図枠
 10
126.925
 20
-155.73599999999999
 30
0.0
 70
    32
  0
VERTEX
  5
464
  8
図枠
 10
126.95399999999999
 20
-155.76300000000001
 30
0.0
 70
    32
  0
VERTEX
  5
465
  8
図枠
 10
126.983
 20
-155.78899999999999
 30
0.0
 70
    32
  0
VERTEX
  5
466
  8
図枠
 10
127.012
 20
-155.815
 30
0.0
 70
    32
  0
VERTEX
  5
467
  8
図枠
 10
127.041
 20
-155.84100000000001
 30
0.0
 70
    32
  0
VERTEX
  5
468
  8
図枠
 10
127.06999999999999
 20
-155.86699999999999
 30
0.0
 70
    32
  0
VERTEX
  5
469
  8
図枠
 10
127.09999999999999
 20
-155.893
 30
0.0
 70
    32
  0
VERTEX
  5
46A
  8
図枠
 10
127.129
 20
-155.91900000000001
 30
0.0
 70
    32
  0
VERTEX
  5
46B
  8
図枠
 10
127.158
 20
-155.94499999999999
 30
0.0
 70
    32
  0
VERTEX
  5
46C
  8
図枠
 10
127.187
 20
-155.971
 30
0.0
 70
    32
  0
VERTEX
  5
46D
  8
図枠
 10
127.21599999999999
 20
-155.99600000000001
 30
0.0
 70
    32
  0
VERTEX
  5
46E
  8
図枠
 10
127.245
 20
-156.02199999999999
 30
0.0
 70
    32
  0
VERTEX
  5
46F
  8
図枠
 10
127.27500000000001
 20
-156.048
 30
0.0
 70
    32
  0
VERTEX
  5
470
  8
図枠
 10
127.304
 20
-156.07400000000001
 30
0.0
 70
    32
  0
VERTEX
  5
471
  8
図枠
 10
127.333
 20
-156.09999999999999
 30
0.0
 70
    32
  0
VERTEX
  5
472
  8
図枠
 10
127.36199999999999
 20
-156.125
 30
0.0
 70
    32
  0
VERTEX
  5
473
  8
図枠
 10
127.392
 20
-156.15100000000001
 30
0.0
 70
    32
  0
VERTEX
  5
474
  8
図枠
 10
127.42100000000001
 20
-156.17699999999999
 30
0.0
 70
    32
  0
VERTEX
  5
475
  8
図枠
 10
127.45
 20
-156.202
 30
0.0
 70
    32
  0
VERTEX
  5
476
  8
図枠
 10
127.48
 20
-156.22800000000001
 30
0.0
 70
    32
  0
VERTEX
  5
477
  8
図枠
 10
127.509
 20
-156.25399999999999
 30
0.0
 70
    32
  0
VERTEX
  5
478
  8
図枠
 10
127.538
 20
-156.279
 30
0.0
 70
    32
  0
VERTEX
  5
479
  8
図枠
 10
127.568
 20
-156.30500000000001
 30
0.0
 70
    32
  0
VERTEX
  5
47A
  8
図枠
 10
127.59699999999999
 20
-156.33000000000001
 30
0.0
 70
    32
  0
VERTEX
  5
47B
  8
図枠
 10
127.626
 20
-156.35599999999999
 30
0.0
 70
    32
  0
VERTEX
  5
47C
  8
図枠
 10
127.65600000000001
 20
-156.381
 30
0.0
 70
    32
  0
VERTEX
  5
47D
  8
図枠
 10
127.685
 20
-156.40600000000001
 30
0.0
 70
    32
  0
VERTEX
  5
47E
  8
図枠
 10
127.715
 20
-156.43199999999999
 30
0.0
 70
    32
  0
VERTEX
  5
47F
  8
図枠
 10
127.744
 20
-156.45699999999999
 30
0.0
 70
    32
  0
VERTEX
  5
480
  8
図枠
 10
127.774
 20
-156.482
 30
0.0
 70
    32
  0
VERTEX
  5
481
  8
図枠
 10
127.803
 20
-156.50800000000001
 30
0.0
 70
    32
  0
VERTEX
  5
482
  8
図枠
 10
127.833
 20
-156.53299999999999
 30
0.0
 70
    32
  0
VERTEX
  5
483
  8
図枠
 10
127.863
 20
-156.55799999999999
 30
0.0
 70
    32
  0
VERTEX
  5
484
  8
図枠
 10
127.892
 20
-156.583
 30
0.0
 70
    32
  0
VERTEX
  5
485
  8
図枠
 10
127.922
 20
-156.608
 30
0.0
 70
    32
  0
VERTEX
  5
486
  8
図枠
 10
127.95099999999999
 20
-156.6329999999999
 30
0.0
 70
    32
  0
VERTEX
  5
487
  8
図枠
 10
127.98099999999999
 20
-156.65799999999999
 30
0.0
 70
    32
  0
VERTEX
  5
488
  8
図枠
 10
128.011
 20
-156.68299999999999
 30
0.0
 70
    32
  0
VERTEX
  5
489
  8
図枠
 10
128.03999999999999
 20
-156.708
 30
0.0
 70
    32
  0
VERTEX
  5
48A
  8
図枠
 10
128.06999999999999
 20
-156.733
 30
0.0
 70
    32
  0
VERTEX
  5
48B
  8
図枠
 10
128.09999999999999
 20
-156.7579999999999
 30
0.0
 70
    32
  0
VERTEX
  5
48C
  8
図枠
 10
128.13
 20
-156.78200000000001
 30
0.0
 70
    32
  0
VERTEX
  5
48D
  8
図枠
 10
128.16
 20
-156.80699999999999
 30
0.0
 70
    32
  0
VERTEX
  5
48E
  8
図枠
 10
128.18899999999999
 20
-156.83199999999999
 30
0.0
 70
    32
  0
VERTEX
  5
48F
  8
図枠
 10
128.21899999999999
 20
-156.85599999999999
 30
0.0
 70
    32
  0
VERTEX
  5
490
  8
図枠
 10
128.249
 20
-156.881
 30
0.0
 70
    32
  0
VERTEX
  5
491
  8
図枠
 10
128.279
 20
-156.90600000000001
 30
0.0
 70
    32
  0
VERTEX
  5
492
  8
図枠
 10
128.309
 20
-156.93000000000001
 30
0.0
 70
    32
  0
VERTEX
  5
493
  8
図枠
 10
128.339
 20
-156.95400000000001
 30
0.0
 70
    32
  0
VERTEX
  5
494
  8
図枠
 10
128.369
 20
-156.97900000000001
 30
0.0
 70
    32
  0
VERTEX
  5
495
  8
図枠
 10
128.399
 20
-157.00299999999999
 30
0.0
 70
    32
  0
VERTEX
  5
496
  8
図枠
 10
128.429
 20
-157.02799999999999
 30
0.0
 70
    32
  0
VERTEX
  5
497
  8
図枠
 10
128.459
 20
-157.05199999999999
 30
0.0
 70
    32
  0
VERTEX
  5
498
  8
図枠
 10
128.489
 20
-157.07599999999999
 30
0.0
 70
    32
  0
VERTEX
  5
499
  8
図枠
 10
128.51900000000001
 20
-157.09999999999999
 30
0.0
 70
    32
  0
VERTEX
  5
49A
  8
図枠
 10
128.54900000000001
 20
-157.124
 30
0.0
 70
    32
  0
VERTEX
  5
49B
  8
図枠
 10
128.58000000000001
 20
-157.148
 30
0.0
 70
    32
  0
VERTEX
  5
49C
  8
図枠
 10
128.61000000000001
 20
-157.172
 30
0.0
 70
    32
  0
VERTEX
  5
49D
  8
図枠
 10
128.63999999999999
 20
-157.196
 30
0.0
 70
    32
  0
VERTEX
  5
49E
  8
図枠
 10
128.66999999999999
 20
-157.22
 30
0.0
 70
    32
  0
VERTEX
  5
49F
  8
図枠
 10
128.70099999999999
 20
-157.244
 30
0.0
 70
    32
  0
VERTEX
  5
4A0
  8
図枠
 10
128.73099999999999
 20
-157.268
 30
0.0
 70
    32
  0
VERTEX
  5
4A1
  8
図枠
 10
128.761
 20
-157.291
 30
0.0
 70
    32
  0
VERTEX
  5
4A2
  8
図枠
 10
128.792
 20
-157.315
 30
0.0
 70
    32
  0
VERTEX
  5
4A3
  8
図枠
 10
128.822
 20
-157.339
 30
0.0
 70
    32
  0
VERTEX
  5
4A4
  8
図枠
 10
128.85299999999981
 20
-157.36199999999999
 30
0.0
 70
    32
  0
VERTEX
  5
4A5
  8
図枠
 10
128.88300000000001
 20
-157.386
 30
0.0
 70
    32
  0
VERTEX
  5
4A6
  8
図枠
 10
128.91399999999999
 20
-157.40899999999999
 30
0.0
 70
    32
  0
VERTEX
  5
4A7
  8
図枠
 10
128.94399999999999
 20
-157.43199999999999
 30
0.0
 70
    32
  0
VERTEX
  5
4A8
  8
図枠
 10
128.97499999999999
 20
-157.45599999999999
 30
0.0
 70
    32
  0
VERTEX
  5
4A9
  8
図枠
 10
129.005
 20
-157.47900000000001
 30
0.0
 70
    32
  0
VERTEX
  5
4AA
  8
図枠
 10
129.036
 20
-157.50200000000001
 30
0.0
 70
    32
  0
VERTEX
  5
4AB
  8
図枠
 10
129.06700000000001
 20
-157.52500000000001
 30
0.0
 70
    32
  0
VERTEX
  5
4AC
  8
図枠
 10
129.09700000000001
 20
-157.548
 30
0.0
 70
    32
  0
VERTEX
  5
4AD
  8
図枠
 10
129.12799999999999
 20
-157.571
 30
0.0
 70
    32
  0
VERTEX
  5
4AE
  8
図枠
 10
129.15899999999999
 20
-157.59399999999999
 30
0.0
 70
    32
  0
VERTEX
  5
4AF
  8
図枠
 10
129.19
 20
-157.61699999999999
 30
0.0
 70
    32
  0
VERTEX
  5
4B0
  8
図枠
 10
129.22
 20
-157.63999999999999
 30
0.0
 70
    32
  0
VERTEX
  5
4B1
  8
図枠
 10
129.251
 20
-157.6629999999999
 30
0.0
 70
    32
  0
VERTEX
  5
4B2
  8
図枠
 10
129.28200000000001
 20
-157.685
 30
0.0
 70
    32
  0
VERTEX
  5
4B3
  8
図枠
 10
129.31299999999999
 20
-157.708
 30
0.0
 70
    32
  0
VERTEX
  5
4B4
  8
図枠
 10
129.34399999999999
 20
-157.73099999999999
 30
0.0
 70
    32
  0
VERTEX
  5
4B5
  8
図枠
 10
129.375
 20
-157.75299999999999
 30
0.0
 70
    32
  0
VERTEX
  5
4B6
  8
図枠
 10
129.40600000000001
 20
-157.77500000000001
 30
0.0
 70
    32
  0
VERTEX
  5
4B7
  8
図枠
 10
129.43700000000001
 20
-157.798
 30
0.0
 70
    32
  0
VERTEX
  5
4B8
  8
図枠
 10
129.46799999999999
 20
-157.81999999999999
 30
0.0
 70
    32
  0
VERTEX
  5
4B9
  8
図枠
 10
129.5
 20
-157.84200000000001
 30
0.0
 70
    32
  0
VERTEX
  5
4BA
  8
図枠
 10
129.53100000000001
 20
-157.864
 30
0.0
 70
    32
  0
VERTEX
  5
4BB
  8
図枠
 10
129.56200000000001
 20
-157.886
 30
0.0
 70
    32
  0
VERTEX
  5
4BC
  8
図枠
 10
129.59299999999999
 20
-157.90799999999999
 30
0.0
 70
    32
  0
VERTEX
  5
4BD
  8
図枠
 10
129.625
 20
-157.93000000000001
 30
0.0
 70
    32
  0
VERTEX
  5
4BE
  8
図枠
 10
129.65600000000001
 20
-157.952
 30
0.0
 70
    32
  0
VERTEX
  5
4BF
  8
図枠
 10
129.68700000000001
 20
-157.97399999999999
 30
0.0
 70
    32
  0
VERTEX
  5
4C0
  8
図枠
 10
129.71899999999999
 20
-157.99600000000001
 30
0.0
 70
    32
  0
VERTEX
  5
4C1
  8
図枠
 10
129.75
 20
-158.017
 30
0.0
 70
    32
  0
VERTEX
  5
4C2
  8
図枠
 10
129.78200000000001
 20
-158.03899999999999
 30
0.0
 70
    32
  0
VERTEX
  5
4C3
  8
図枠
 10
129.81299999999999
 20
-158.06
 30
0.0
 70
    32
  0
VERTEX
  5
4C4
  8
図枠
 10
129.845
 20
-158.08199999999999
 30
0.0
 70
    32
  0
VERTEX
  5
4C5
  8
図枠
 10
129.87700000000001
 20
-158.10300000000001
 30
0.0
 70
    32
  0
VERTEX
  5
4C6
  8
図枠
 10
129.90799999999999
 20
-158.124
 30
0.0
 70
    32
  0
VERTEX
  5
4C7
  8
図枠
 10
129.94
 20
-158.14599999999999
 30
0.0
 70
    32
  0
VERTEX
  5
4C8
  8
図枠
 10
129.97200000000001
 20
-158.167
 30
0.0
 70
    32
  0
VERTEX
  5
4C9
  8
図枠
 10
130.00399999999999
 20
-158.18799999999999
 30
0.0
 70
    32
  0
VERTEX
  5
4CA
  8
図枠
 10
130.036
 20
-158.209
 30
0.0
 70
    32
  0
VERTEX
  5
4CB
  8
図枠
 10
130.06700000000001
 20
-158.22999999999999
 30
0.0
 70
    32
  0
VERTEX
  5
4CC
  8
図枠
 10
130.09899999999999
 20
-158.25
 30
0.0
 70
    32
  0
VERTEX
  5
4CD
  8
図枠
 10
130.131
 20
-158.27099999999999
 30
0.0
 70
    32
  0
VERTEX
  5
4CE
  8
図枠
 10
130.16300000000001
 20
-158.292
 30
0.0
 70
    32
  0
VERTEX
  5
4CF
  8
図枠
 10
130.19499999999999
 20
-158.31200000000001
 30
0.0
 70
    32
  0
VERTEX
  5
4D0
  8
図枠
 10
130.22800000000001
 20
-158.333
 30
0.0
 70
    32
  0
VERTEX
  5
4D1
  8
図枠
 10
130.25999999999999
 20
-158.35300000000001
 30
0.0
 70
    32
  0
VERTEX
  5
4D2
  8
図枠
 10
130.292
 20
-158.37299999999999
 30
0.0
 70
    32
  0
VERTEX
  5
4D3
  8
図枠
 10
130.32400000000001
 20
-158.39400000000001
 30
0.0
 70
    32
  0
VERTEX
  5
4D4
  8
図枠
 10
130.35599999999999
 20
-158.41399999999999
 30
0.0
 70
    32
  0
VERTEX
  5
4D5
  8
図枠
 10
130.38900000000001
 20
-158.434
 30
0.0
 70
    32
  0
VERTEX
  5
4D6
  8
図枠
 10
130.42099999999999
 20
-158.45400000000001
 30
0.0
 70
    32
  0
VERTEX
  5
4D7
  8
図枠
 10
130.45400000000001
 20
-158.47399999999999
 30
0.0
 70
    32
  0
VERTEX
  5
4D8
  8
図枠
 10
130.48599999999999
 20
-158.49299999999999
 30
0.0
 70
    32
  0
VERTEX
  5
4D9
  8
図枠
 10
130.51900000000001
 20
-158.51300000000001
 30
0.0
 70
    32
  0
VERTEX
  5
4DA
  8
図枠
 10
130.55099999999999
 20
-158.53299999999999
 30
0.0
 70
    32
  0
SEQEND
  5
4DB
  8
図枠
  0
LINE
  5
102
  8
図枠
 10
111.9136263844
 20
-158.44871339939999
 30
0.0
 11
111.9136263844
 21
-156.04895339940001
 31
0.0
  0
LINE
  5
103
  8
図枠
 10
114.3133863844
 20
-150.44951339939999
 30
0.0
 11
107.9140263844
 21
-150.44951339939999
 31
0.0
  0
POLYLINE
  5
4DC
  8
図枠
 66
     1
 10
0.0
 20
0.0
 30
0.0
 70
     8
  0
VERTEX
  5
4DD
  8
図枠
 10
131.26400000000001
 20
-155.06999999999999
 30
0.0
 70
    32
  0
VERTEX
  5
4DE
  8
図枠
 10
131.274
 20
-155.08099999999999
 30
0.0
 70
    32
  0
VERTEX
  5
4DF
  8
図枠
 10
131.285
 20
-155.09299999999999
 30
0.0
 70
    32
  0
VERTEX
  5
4E0
  8
図枠
 10
131.29499999999999
 20
-155.10499999999999
 30
0.0
 70
    32
  0
VERTEX
  5
4E1
  8
図枠
 10
131.30600000000001
 20
-155.11699999999999
 30
0.0
 70
    32
  0
VERTEX
  5
4E2
  8
図枠
 10
131.316
 20
-155.12799999999999
 30
0.0
 70
    32
  0
VERTEX
  5
4E3
  8
図枠
 10
131.327
 20
-155.13999999999999
 30
0.0
 70
    32
  0
VERTEX
  5
4E4
  8
図枠
 10
131.33699999999999
 20
-155.15199999999999
 30
0.0
 70
    32
  0
VERTEX
  5
4E5
  8
図枠
 10
131.34800000000001
 20
-155.16399999999999
 30
0.0
 70
    32
  0
VERTEX
  5
4E6
  8
図枠
 10
131.35900000000001
 20
-155.17500000000001
 30
0.0
 70
    32
  0
VERTEX
  5
4E7
  8
図枠
 10
131.369
 20
-155.18700000000001
 30
0.0
 70
    32
  0
VERTEX
  5
4E8
  8
図枠
 10
131.38
 20
-155.19900000000001
 30
0.0
 70
    32
  0
VERTEX
  5
4E9
  8
図枠
 10
131.38999999999999
 20
-155.21100000000001
 30
0.0
 70
    32
  0
VERTEX
  5
4EA
  8
図枠
 10
131.40100000000001
 20
-155.22200000000001
 30
0.0
 70
    32
  0
VERTEX
  5
4EB
  8
図枠
 10
131.411
 20
-155.23400000000001
 30
0.0
 70
    32
  0
VERTEX
  5
4EC
  8
図枠
 10
131.422
 20
-155.24600000000001
 30
0.0
 70
    32
  0
VERTEX
  5
4ED
  8
図枠
 10
131.43299999999999
 20
-155.25800000000001
 30
0.0
 70
    32
  0
VERTEX
  5
4EE
  8
図枠
 10
131.4429999999999
 20
-155.27000000000001
 30
0.0
 70
    32
  0
VERTEX
  5
4EF
  8
図枠
 10
131.45400000000001
 20
-155.28100000000001
 30
0.0
 70
    32
  0
VERTEX
  5
4F0
  8
図枠
 10
131.464
 20
-155.29300000000001
 30
0.0
 70
    32
  0
VERTEX
  5
4F1
  8
図枠
 10
131.47499999999999
 20
-155.30500000000001
 30
0.0
 70
    32
  0
VERTEX
  5
4F2
  8
図枠
 10
131.48500000000001
 20
-155.316
 30
0.0
 70
    32
  0
VERTEX
  5
4F3
  8
図枠
 10
131.49600000000001
 20
-155.328
 30
0.0
 70
    32
  0
VERTEX
  5
4F4
  8
図枠
 10
131.50700000000001
 20
-155.34
 30
0.0
 70
    32
  0
VERTEX
  5
4F5
  8
図枠
 10
131.517
 20
-155.352
 30
0.0
 70
    32
  0
VERTEX
  5
4F6
  8
図枠
 10
131.52799999999999
 20
-155.363
 30
0.0
 70
    32
  0
VERTEX
  5
4F7
  8
図枠
 10
131.5379999999999
 20
-155.375
 30
0.0
 70
    32
  0
VERTEX
  5
4F8
  8
図枠
 10
131.54900000000001
 20
-155.387
 30
0.0
 70
    32
  0
VERTEX
  5
4F9
  8
図枠
 10
131.56
 20
-155.398
 30
0.0
 70
    32
  0
VERTEX
  5
4FA
  8
図枠
 10
131.56999999999999
 20
-155.41
 30
0.0
 70
    32
  0
VERTEX
  5
4FB
  8
図枠
 10
131.58099999999999
 20
-155.422
 30
0.0
 70
    32
  0
VERTEX
  5
4FC
  8
図枠
 10
131.59100000000001
 20
-155.434
 30
0.0
 70
    32
  0
VERTEX
  5
4FD
  8
図枠
 10
131.602
 20
-155.44499999999999
 30
0.0
 70
    32
  0
VERTEX
  5
4FE
  8
図枠
 10
131.613
 20
-155.45699999999999
 30
0.0
 70
    32
  0
VERTEX
  5
4FF
  8
図枠
 10
131.62299999999999
 20
-155.46899999999999
 30
0.0
 70
    32
  0
VERTEX
  5
500
  8
図枠
 10
131.63399999999999
 20
-155.47999999999999
 30
0.0
 70
    32
  0
VERTEX
  5
501
  8
図枠
 10
131.64400000000001
 20
-155.49199999999999
 30
0.0
 70
    32
  0
VERTEX
  5
502
  8
図枠
 10
131.655
 20
-155.50399999999999
 30
0.0
 70
    32
  0
VERTEX
  5
503
  8
図枠
 10
131.666
 20
-155.51499999999999
 30
0.0
 70
    32
  0
VERTEX
  5
504
  8
図枠
 10
131.67599999999999
 20
-155.52699999999999
 30
0.0
 70
    32
  0
VERTEX
  5
505
  8
図枠
 10
131.68700000000001
 20
-155.53899999999999
 30
0.0
 70
    32
  0
VERTEX
  5
506
  8
図枠
 10
131.69800000000001
 20
-155.55000000000001
 30
0.0
 70
    32
  0
VERTEX
  5
507
  8
図枠
 10
131.708
 20
-155.56200000000001
 30
0.0
 70
    32
  0
VERTEX
  5
508
  8
図枠
 10
131.71899999999999
 20
-155.57300000000001
 30
0.0
 70
    32
  0
VERTEX
  5
509
  8
図枠
 10
131.72999999999999
 20
-155.58500000000001
 30
0.0
 70
    32
  0
VERTEX
  5
50A
  8
図枠
 10
131.74000000000001
 20
-155.59700000000001
 30
0.0
 70
    32
  0
VERTEX
  5
50B
  8
図枠
 10
131.751
 20
-155.608
 30
0.0
 70
    32
  0
VERTEX
  5
50C
  8
図枠
 10
131.762
 20
-155.62
 30
0.0
 70
    32
  0
VERTEX
  5
50D
  8
図枠
 10
131.77199999999999
 20
-155.631
 30
0.0
 70
    32
  0
VERTEX
  5
50E
  8
図枠
 10
131.78299999999999
 20
-155.643
 30
0.0
 70
    32
  0
VERTEX
  5
50F
  8
図枠
 10
131.79400000000001
 20
-155.654
 30
0.0
 70
    32
  0
VERTEX
  5
510
  8
図枠
 10
131.804
 20
-155.666
 30
0.0
 70
    32
  0
VERTEX
  5
511
  8
図枠
 10
131.815
 20
-155.678
 30
0.0
 70
    32
  0
VERTEX
  5
512
  8
図枠
 10
131.82599999999999
 20
-155.68899999999999
 30
0.0
 70
    32
  0
VERTEX
  5
513
  8
図枠
 10
131.83699999999999
 20
-155.70099999999999
 30
0.0
 70
    32
  0
VERTEX
  5
514
  8
図枠
 10
131.84700000000001
 20
-155.71199999999999
 30
0.0
 70
    32
  0
VERTEX
  5
515
  8
図枠
 10
131.858
 20
-155.72399999999999
 30
0.0
 70
    32
  0
VERTEX
  5
516
  8
図枠
 10
131.869
 20
-155.73500000000001
 30
0.0
 70
    32
  0
VERTEX
  5
517
  8
図枠
 10
131.87899999999999
 20
-155.74700000000001
 30
0.0
 70
    32
  0
VERTEX
  5
518
  8
図枠
 10
131.88999999999999
 20
-155.7579999999999
 30
0.0
 70
    32
  0
VERTEX
  5
519
  8
図枠
 10
131.90100000000001
 20
-155.77000000000001
 30
0.0
 70
    32
  0
VERTEX
  5
51A
  8
図枠
 10
131.91200000000001
 20
-155.78100000000001
 30
0.0
 70
    32
  0
VERTEX
  5
51B
  8
図枠
 10
131.922
 20
-155.792
 30
0.0
 70
    32
  0
VERTEX
  5
51C
  8
図枠
 10
131.93299999999999
 20
-155.804
 30
0.0
 70
    32
  0
VERTEX
  5
51D
  8
図枠
 10
131.94399999999999
 20
-155.815
 30
0.0
 70
    32
  0
VERTEX
  5
51E
  8
図枠
 10
131.95500000000001
 20
-155.827
 30
0.0
 70
    32
  0
VERTEX
  5
51F
  8
図枠
 10
131.96600000000001
 20
-155.83799999999999
 30
0.0
 70
    32
  0
VERTEX
  5
520
  8
図枠
 10
131.976
 20
-155.84899999999999
 30
0.0
 70
    32
  0
VERTEX
  5
521
  8
図枠
 10
131.98699999999999
 20
-155.86099999999999
 30
0.0
 70
    32
  0
VERTEX
  5
522
  8
図枠
 10
131.99799999999999
 20
-155.87200000000001
 30
0.0
 70
    32
  0
VERTEX
  5
523
  8
図枠
 10
132.00899999999999
 20
-155.88399999999999
 30
0.0
 70
    32
  0
VERTEX
  5
524
  8
図枠
 10
132.02000000000001
 20
-155.89500000000001
 30
0.0
 70
    32
  0
VERTEX
  5
525
  8
図枠
 10
132.03100000000001
 20
-155.90600000000001
 30
0.0
 70
    32
  0
VERTEX
  5
526
  8
図枠
 10
132.041
 20
-155.917
 30
0.0
 70
    32
  0
VERTEX
  5
527
  8
図枠
 10
132.05199999999999
 20
-155.929
 30
0.0
 70
    32
  0
VERTEX
  5
528
  8
図枠
 10
132.06299999999999
 20
-155.94
 30
0.0
 70
    32
  0
VERTEX
  5
529
  8
図枠
 10
132.07400000000001
 20
-155.95099999999999
 30
0.0
 70
    32
  0
VERTEX
  5
52A
  8
図枠
 10
132.08500000000001
 20
-155.96299999999999
 30
0.0
 70
    32
  0
VERTEX
  5
52B
  8
図枠
 10
132.096
 20
-155.97399999999999
 30
0.0
 70
    32
  0
VERTEX
  5
52C
  8
図枠
 10
132.107
 20
-155.98500000000001
 30
0.0
 70
    32
  0
VERTEX
  5
52D
  8
図枠
 10
132.11799999999999
 20
-155.99600000000001
 30
0.0
 70
    32
  0
VERTEX
  5
52E
  8
図枠
 10
132.12799999999999
 20
-156.00800000000001
 30
0.0
 70
    32
  0
VERTEX
  5
52F
  8
図枠
 10
132.13900000000001
 20
-156.01900000000001
 30
0.0
 70
    32
  0
VERTEX
  5
530
  8
図枠
 10
132.15000000000001
 20
-156.03
 30
0.0
 70
    32
  0
VERTEX
  5
531
  8
図枠
 10
132.161
 20
-156.041
 30
0.0
 70
    32
  0
VERTEX
  5
532
  8
図枠
 10
132.172
 20
-156.05199999999999
 30
0.0
 70
    32
  0
VERTEX
  5
533
  8
図枠
 10
132.18299999999999
 20
-156.06299999999999
 30
0.0
 70
    32
  0
VERTEX
  5
534
  8
図枠
 10
132.19399999999999
 20
-156.07400000000001
 30
0.0
 70
    32
  0
VERTEX
  5
535
  8
図枠
 10
132.20500000000001
 20
-156.08600000000001
 30
0.0
 70
    32
  0
VERTEX
  5
536
  8
図枠
 10
132.21600000000001
 20
-156.09700000000001
 30
0.0
 70
    32
  0
VERTEX
  5
537
  8
図枠
 10
132.227
 20
-156.108
 30
0.0
 70
    32
  0
VERTEX
  5
538
  8
図枠
 10
132.238
 20
-156.119
 30
0.0
 70
    32
  0
VERTEX
  5
539
  8
図枠
 10
132.249
 20
-156.13
 30
0.0
 70
    32
  0
VERTEX
  5
53A
  8
図枠
 10
132.25999999999999
 20
-156.14099999999999
 30
0.0
 70
    32
  0
VERTEX
  5
53B
  8
図枠
 10
132.27099999999999
 20
-156.1519999999999
 30
0.0
 70
    32
  0
VERTEX
  5
53C
  8
図枠
 10
132.28200000000001
 20
-156.16300000000001
 30
0.0
 70
    32
  0
VERTEX
  5
53D
  8
図枠
 10
132.29300000000001
 20
-156.17400000000001
 30
0.0
 70
    32
  0
VERTEX
  5
53E
  8
図枠
 10
132.304
 20
-156.185
 30
0.0
 70
    32
  0
VERTEX
  5
53F
  8
図枠
 10
132.315
 20
-156.196
 30
0.0
 70
    32
  0
VERTEX
  5
540
  8
図枠
 10
132.32599999999999
 20
-156.20699999999999
 30
0.0
 70
    32
  0
VERTEX
  5
541
  8
図枠
 10
132.33799999999999
 20
-156.21700000000001
 30
0.0
 70
    32
  0
VERTEX
  5
542
  8
図枠
 10
132.34899999999999
 20
-156.22800000000001
 30
0.0
 70
    32
  0
VERTEX
  5
543
  8
図枠
 10
132.36000000000001
 20
-156.239
 30
0.0
 70
    32
  0
VERTEX
  5
544
  8
図枠
 10
132.37100000000001
 20
-156.25
 30
0.0
 70
    32
  0
VERTEX
  5
545
  8
図枠
 10
132.38200000000001
 20
-156.261
 30
0.0
 70
    32
  0
VERTEX
  5
546
  8
図枠
 10
132.393
 20
-156.27199999999999
 30
0.0
 70
    32
  0
VERTEX
  5
547
  8
図枠
 10
132.404
 20
-156.28200000000001
 30
0.0
 70
    32
  0
VERTEX
  5
548
  8
図枠
 10
132.416
 20
-156.29300000000001
 30
0.0
 70
    32
  0
VERTEX
  5
549
  8
図枠
 10
132.42699999999999
 20
-156.304
 30
0.0
 70
    32
  0
VERTEX
  5
54A
  8
図枠
 10
132.43799999999999
 20
-156.315
 30
0.0
 70
    32
  0
VERTEX
  5
54B
  8
図枠
 10
132.44900000000001
 20
-156.32499999999999
 30
0.0
 70
    32
  0
VERTEX
  5
54C
  8
図枠
 10
132.46000000000001
 20
-156.33600000000001
 30
0.0
 70
    32
  0
VERTEX
  5
54D
  8
図枠
 10
132.47200000000001
 20
-156.34700000000001
 30
0.0
 70
    32
  0
VERTEX
  5
54E
  8
図枠
 10
132.483
 20
-156.358
 30
0.0
 70
    32
  0
VERTEX
  5
54F
  8
図枠
 10
132.494
 20
-156.36799999999999
 30
0.0
 70
    32
  0
VERTEX
  5
550
  8
図枠
 10
132.505
 20
-156.37899999999999
 30
0.0
 70
    32
  0
VERTEX
  5
551
  8
図枠
 10
132.517
 20
-156.38900000000001
 30
0.0
 70
    32
  0
VERTEX
  5
552
  8
図枠
 10
132.52799999999999
 20
-156.40000000000001
 30
0.0
 70
    32
  0
VERTEX
  5
553
  8
図枠
 10
132.53899999999999
 20
-156.411
 30
0.0
 70
    32
  0
VERTEX
  5
554
  8
図枠
 10
132.55099999999999
 20
-156.42099999999999
 30
0.0
 70
    32
  0
VERTEX
  5
555
  8
図枠
 10
132.56200000000001
 20
-156.43199999999999
 30
0.0
 70
    32
  0
VERTEX
  5
556
  8
図枠
 10
132.57300000000001
 20
-156.44200000000001
 30
0.0
 70
    32
  0
VERTEX
  5
557
  8
図枠
 10
132.58500000000001
 20
-156.453
 30
0.0
 70
    32
  0
VERTEX
  5
558
  8
図枠
 10
132.596
 20
-156.46299999999999
 30
0.0
 70
    32
  0
VERTEX
  5
559
  8
図枠
 10
132.607
 20
-156.47300000000001
 30
0.0
 70
    32
  0
VERTEX
  5
55A
  8
図枠
 10
132.619
 20
-156.48400000000001
 30
0.0
 70
    32
  0
VERTEX
  5
55B
  8
図枠
 10
132.63
 20
-156.494
 30
0.0
 70
    32
  0
VERTEX
  5
55C
  8
図枠
 10
132.642
 20
-156.505
 30
0.0
 70
    32
  0
SEQEND
  5
55D
  8
図枠
  0
LINE
  5
105
  8
図枠
 10
125.7692103844
 20
-153.3292253994
 30
0.0
 11
133.7684103844
 21
-153.3292253994
 31
0.0
  0
INSERT
  5
106
  8
0
  6
CONTINUOUS
  2
*U52
 10
0.0
 20
0.0
 30
0.0
  0
LINE
  5
107
  8
図枠
 10
106.0724444626
 20
-153.64919339939999
 30
0.0
 11
106.0724444626
 21
-156.04895339940001
 31
0.0
  0
LINE
  5
108
  8
図枠
 10
107.9140263844
 20
-153.64919339939999
 30
0.0
 11
106.0724444626
 21
-153.64919339939999
 31
0.0
  0
INSERT
  5
109
  8
0
  6
CONTINUOUS
  2
*U53
 10
0.0
 20
0.0
 30
0.0
  0
LINE
  5
10A
  8
図枠
 10
105.51986309270001
 20
-130.70776451879999
 30
0.0
 11
105.51986309270001
 21
-147.70606451879999
 31
0.0
  0
INSERT
  5
10B
  8
0
  6
CONTINUOUS
  2
*U54
 10
0.0
 20
0.0
 30
0.0
  0
LINE
  5
10C
  8
図枠
 10
157.391637019
 20
-117.6010753188
 30
0.0
 11
157.391637019
 21
-126.8161537188
 31
0.0
  0
LINE
  5
10D
  8
図枠
 10
107.9140263844
 20
-156.04895339940001
 30
0.0
 11
107.6722844626
 21
-156.04895339940001
 31
0.0
  0
LINE
  5
10E
  8
図枠
 10
111.9136263844
 20
-152.8492733994
 30
0.0
 11
114.3133863844
 21
-150.44951339939999
 31
0.0
  0
INSERT
  5
10F
  8
0
  6
CONTINUOUS
  2
*U55
 10
0.0
 20
0.0
 30
0.0
  0
LINE
  5
110
  8
図枠
 10
106.0724444626
 20
-156.04895339940001
 30
0.0
 11
107.6722844626
 21
-156.04895339940001
 31
0.0
  0
INSERT
  5
111
  8
0
  6
CONTINUOUS
  2
*U56
 10
0.0
 20
0.0
 30
0.0
  0
LINE
  5
112
  8
図枠
 10
49.525463092700008
 20
-139.2069145188
 30
0.0
 11
101.52026309270001
 21
-139.2069145188
 31
0.0
  0
LINE
  5
113
  8
図枠
 10
125.7692103844
 20
-159.24863339940001
 30
0.0
 11
125.7692103844
 21
-161.64839339939999
 31
0.0
  0
LINE
  5
114
  8
図枠
 10
45.5258630927
 20
-80.712764518800014
 30
0.0
 11
45.5258630927
 21
-113.7094645188
 31
0.0
  0
INSERT
  5
115
  8
0
  6
CONTINUOUS
  2
*U57
 10
0.0
 20
0.0
 30
0.0
  0
INSERT
  5
116
  8
0
  6
CONTINUOUS
  2
*U58
 10
0.0
 20
0.0
 30
0.0
  0
LINE
  5
117
  8
図枠
 10
107.9140263844
 20
-159.24863339940001
 30
0.0
 11
107.9140263844
 21
-161.64839339939999
 31
0.0
  0
INSERT
  5
118
  8
0
  6
CONTINUOUS
  2
*U59
 10
0.0
 20
0.0
 30
0.0
  0
LINE
  5
119
  8
図枠
 10
133.02658456110001
 20
-156.07946379629999
 30
0.0
 11
132.64166976640001
 21
-156.50460265500001
 31
0.0
  0
ARC
  5
11A
  8
図枠
 10
114.3133863844
 20
-156.84887339939999
 30
0.0
 40
4.7995199999999993
 50
270.0
 51
0.0
  0
INSERT
  5
11B
  8
0
  6
CONTINUOUS
  2
*U60
 10
0.0
 20
0.0
 30
0.0
  0
LINE
  5
11C
  8
図枠
 10
89.521463092700003
 20
-122.2086145188
 30
0.0
 11
117.5186630927
 21
-122.2086145188
 31
0.0
  0
ARC
  5
11D
  8
図枠
 10
127.6890183844
 20
-153.16924139939999
 30
0.0
 40
6.0793919999999986
 50
270.0
 51
298.08590481520002
  0
INSERT
  5
11E
  8
0
  6
CONTINUOUS
  2
*U61
 10
0.0
 20
0.0
 30
0.0
  0
INSERT
  5
11F
  8
0
  6
CONTINUOUS
  2
*U62
 10
0.0
 20
0.0
 30
0.0
  0
LINE
  5
120
  8
図枠
 10
45.5258630927
 20
-130.70776451879999
 30
0.0
 11
277.5026630927
 21
-130.70776451879999
 31
0.0
  0
LINE
  5
121
  8
図枠
 10
125.7692103844
 20
-161.64839339939999
 30
0.0
 11
129.76881038440001
 21
-161.64839339939999
 31
0.0
  0
LINE
  5
122
  8
図枠
 10
111.9136263844
 20
-156.04895339940001
 30
0.0
 11
115.1133063844
 21
-156.04895339940001
 31
0.0
  0
LINE
  5
123
  8
図枠
 10
125.7692103844
 20
-161.64839339939999
 30
0.0
 11
125.7692103844
 21
-159.24863339940001
 31
0.0
  0
LINE
  5
124
  8
図枠
 10
115.1133063844
 20
-150.44951339939999
 30
0.0
 11
115.1133063844
 21
-153.64919339939999
 31
0.0
  0
LINE
  5
125
  8
図枠
 10
119.11290638440001
 20
-152.8492733994
 30
0.0
 11
121.51266638440001
 21
-150.44951339939999
 31
0.0
  0
CIRCLE
  5
126
  8
図枠
 10
137.64465029269999
 20
-122.2086145188
 30
0.0
 40
4.6075391999999971
  0
CIRCLE
  5
127
  8
ﾚｲﾔ_1
 62
     5
 10
-64.0
 20
125.18710937500001
 30
0.0
 40
2.25
  0
DIMENSION
  5
136
  8
寸法線
  2
*D7
 10
-124.0
 20
89.187109375000006
 30
0.0
 11
-109.0
 21
89.187109375000006
 31
0.0
 70
   128
  1
<>
 13
-124.0
 23
117.68710937500001
 33
0.0
 14
-94.0
 24
117.68710937500001
 34
0.0
 50
180.0
  0
DIMENSION
  5
145
  8
寸法線
  2
*D8
 10
-94.0
 20
89.187109375000006
 30
0.0
 11
-79.0
 21
89.187109375000006
 31
0.0
 70
   128
  1
<>
 13
-94.0
 23
117.68710937500001
 33
0.0
 14
-64.0
 24
117.68710937500001
 34
0.0
 50
180.0
  0
DIMENSION
  5
154
  8
寸法線
  2
*D9
 10
-64.0
 20
89.187109375000006
 30
0.0
 11
-54.0
 21
89.187109375000006
 31
0.0
 70
   128
  1
<>
 13
-64.0
 23
117.68710937500001
 33
0.0
 14
-44.0
 24
109.18710937500001
 34
0.0
 50
180.0
  0
DIMENSION
  5
163
  8
寸法線
  2
*D10
 10
-174.0
 20
125.18710937500001
 30
0.0
 11
-174.0
 21
117.18710937500001
 31
0.0
 70
   128
  1
<>
 13
-158.10048319200001
 23
125.18710937500001
 33
0.0
 14
-154.0
 24
109.18710937500001
 34
0.0
 50
90.0
  0
DIMENSION
  5
172
  8
寸法線
  2
*D11
 10
-174.0
 20
141.18710937500001
 30
0.0
 11
-174.0
 21
133.18710937500001
 31
0.0
 70
   128
  1
<>
 13
-154.0
 23
141.18710937500001
 33
0.0
 14
-158.10048319200001
 24
125.18710937500001
 34
0.0
 50
90.0
  0
DIMENSION
  5
181
  8
寸法線
  2
*D12
 10
-191.90673828119981
 20
141.18710937500001
 30
0.0
 11
-191.90673828119981
 21
125.18710937500001
 31
0.0
 70
   128
  1
<>
 13
-154.0
 23
141.18710937500001
 33
0.0
 14
-154.0
 24
109.18710937500001
 34
0.0
 50
90.0
  0
DIMENSION
  5
190
  8
寸法線
  2
*D13
 10
-154.0
 20
89.187109375000006
 30
0.0
 11
-139.0
 21
89.187109375000006
 31
0.0
 70
   128
  1
<>
 13
-154.0
 23
109.18710937500001
 33
0.0
 14
-124.0
 24
117.68710937500001
 34
0.0
 50
180.0
  0
INSERT
  5
191
  8
0
  6
CONTINUOUS
  2
*U63
 10
0.0
 20
0.0
 30
0.0
  0
INSERT
  5
192
  8
0
  6
CONTINUOUS
  2
*U64
 10
0.0
 20
0.0
 30
0.0
  0
LINE
  5
193
  8
図枠
 10
109.51946309269999
 20
-139.2069145188
 30
0.0
 11
161.51426309269999
 21
-139.2069145188
 31
0.0
  0
LINE
  5
194
  8
図枠
 10
45.5258630927
 20
-80.712764518800014
 30
0.0
 11
277.5026630927
 21
-80.712764518800014
 31
0.0
  0
INSERT
  5
195
  8
0
  6
CONTINUOUS
  2
*U65
 10
0.0
 20
0.0
 30
0.0
  0
POLYLINE
  5
55E
  8
図枠
 66
     1
 10
0.0
 20
0.0
 30
0.0
 70
     8
  0
VERTEX
  5
55F
  8
図枠
 10
134.50200000000001
 20
-160.267
 30
0.0
 70
    32
  0
VERTEX
  5
560
  8
図枠
 10
134.54499999999999
 20
-160.28
 30
0.0
 70
    32
  0
VERTEX
  5
561
  8
図枠
 10
134.589
 20
-160.29400000000001
 30
0.0
 70
    32
  0
VERTEX
  5
562
  8
図枠
 10
134.63200000000001
 20
-160.30799999999999
 30
0.0
 70
    32
  0
VERTEX
  5
563
  8
図枠
 10
134.67500000000001
 20
-160.321
 30
0.0
 70
    32
  0
VERTEX
  5
564
  8
図枠
 10
134.71799999999999
 20
-160.33500000000001
 30
0.0
 70
    32
  0
VERTEX
  5
565
  8
図枠
 10
134.761
 20
-160.34800000000001
 30
0.0
 70
    32
  0
VERTEX
  5
566
  8
図枠
 10
134.80500000000001
 20
-160.36099999999999
 30
0.0
 70
    32
  0
VERTEX
  5
567
  8
図枠
 10
134.84800000000001
 20
-160.375
 30
0.0
 70
    32
  0
VERTEX
  5
568
  8
図枠
 10
134.89099999999999
 20
-160.38800000000001
 30
0.0
 70
    32
  0
VERTEX
  5
569
  8
図枠
 10
134.935
 20
-160.40100000000001
 30
0.0
 70
    32
  0
VERTEX
  5
56A
  8
図枠
 10
134.97799999999981
 20
-160.41399999999999
 30
0.0
 70
    32
  0
VERTEX
  5
56B
  8
図枠
 10
135.02199999999999
 20
-160.42699999999999
 30
0.0
 70
    32
  0
VERTEX
  5
56C
  8
図枠
 10
135.065
 20
-160.44
 30
0.0
 70
    32
  0
VERTEX
  5
56D
  8
図枠
 10
135.10900000000001
 20
-160.453
 30
0.0
 70
    32
  0
VERTEX
  5
56E
  8
図枠
 10
135.15199999999999
 20
-160.46600000000001
 30
0.0
 70
    32
  0
VERTEX
  5
56F
  8
図枠
 10
135.196
 20
-160.47900000000001
 30
0.0
 70
    32
  0
VERTEX
  5
570
  8
図枠
 10
135.239
 20
-160.49100000000001
 30
0.0
 70
    32
  0
VERTEX
  5
571
  8
図枠
 10
135.28299999999999
 20
-160.50399999999999
 30
0.0
 70
    32
  0
VERTEX
  5
572
  8
図枠
 10
135.327
 20
-160.517
 30
0.0
 70
    32
  0
VERTEX
  5
573
  8
図枠
 10
135.37
 20
-160.529
 30
0.0
 70
    32
  0
VERTEX
  5
574
  8
図枠
 10
135.41399999999999
 20
-160.542
 30
0.0
 70
    32
  0
VERTEX
  5
575
  8
図枠
 10
135.458
 20
-160.554
 30
0.0
 70
    32
  0
VERTEX
  5
576
  8
図枠
 10
135.50200000000001
 20
-160.566
 30
0.0
 70
    32
  0
VERTEX
  5
577
  8
図枠
 10
135.54499999999999
 20
-160.57900000000001
 30
0.0
 70
    32
  0
VERTEX
  5
578
  8
図枠
 10
135.589
 20
-160.59100000000001
 30
0.0
 70
    32
  0
VERTEX
  5
579
  8
図枠
 10
135.63300000000001
 20
-160.60300000000001
 30
0.0
 70
    32
  0
VERTEX
  5
57A
  8
図枠
 10
135.67699999999999
 20
-160.61500000000001
 30
0.0
 70
    32
  0
VERTEX
  5
57B
  8
図枠
 10
135.721
 20
-160.62700000000001
 30
0.0
 70
    32
  0
VERTEX
  5
57C
  8
図枠
 10
135.76499999999999
 20
-160.63900000000001
 30
0.0
 70
    32
  0
VERTEX
  5
57D
  8
図枠
 10
135.809
 20
-160.65100000000001
 30
0.0
 70
    32
  0
VERTEX
  5
57E
  8
図枠
 10
135.85300000000001
 20
-160.66300000000001
 30
0.0
 70
    32
  0
VERTEX
  5
57F
  8
図枠
 10
135.89699999999999
 20
-160.67500000000001
 30
0.0
 70
    32
  0
VERTEX
  5
580
  8
図枠
 10
135.941
 20
-160.68700000000001
 30
0.0
 70
    32
  0
VERTEX
  5
581
  8
図枠
 10
135.98500000000001
 20
-160.69900000000001
 30
0.0
 70
    32
  0
VERTEX
  5
582
  8
図枠
 10
136.03
 20
-160.71100000000001
 30
0.0
 70
    32
  0
VERTEX
  5
583
  8
図枠
 10
136.07400000000001
 20
-160.72200000000001
 30
0.0
 70
    32
  0
VERTEX
  5
584
  8
図枠
 10
136.11799999999999
 20
-160.73400000000001
 30
0.0
 70
    32
  0
VERTEX
  5
585
  8
図枠
 10
136.16200000000001
 20
-160.745
 30
0.0
 70
    32
  0
VERTEX
  5
586
  8
図枠
 10
136.20599999999999
 20
-160.75700000000001
 30
0.0
 70
    32
  0
VERTEX
  5
587
  8
図枠
 10
136.251
 20
-160.76900000000001
 30
0.0
 70
    32
  0
VERTEX
  5
588
  8
図枠
 10
136.29499999999999
 20
-160.78
 30
0.0
 70
    32
  0
VERTEX
  5
589
  8
図枠
 10
136.339
 20
-160.791
 30
0.0
 70
    32
  0
VERTEX
  5
58A
  8
図枠
 10
136.38399999999999
 20
-160.803
 30
0.0
 70
    32
  0
VERTEX
  5
58B
  8
図枠
 10
136.428
 20
-160.81399999999999
 30
0.0
 70
    32
  0
VERTEX
  5
58C
  8
図枠
 10
136.47200000000001
 20
-160.82499999999999
 30
0.0
 70
    32
  0
VERTEX
  5
58D
  8
図枠
 10
136.517
 20
-160.83600000000001
 30
0.0
 70
    32
  0
VERTEX
  5
58E
  8
図枠
 10
136.56100000000001
 20
-160.84800000000001
 30
0.0
 70
    32
  0
VERTEX
  5
58F
  8
図枠
 10
136.60599999999999
 20
-160.85900000000001
 30
0.0
 70
    32
  0
VERTEX
  5
590
  8
図枠
 10
136.65000000000001
 20
-160.87
 30
0.0
 70
    32
  0
VERTEX
  5
591
  8
図枠
 10
136.69499999999999
 20
-160.881
 30
0.0
 70
    32
  0
VERTEX
  5
592
  8
図枠
 10
136.739
 20
-160.892
 30
0.0
 70
    32
  0
VERTEX
  5
593
  8
図枠
 10
136.78399999999999
 20
-160.90299999999999
 30
0.0
 70
    32
  0
VERTEX
  5
594
  8
図枠
 10
136.82900000000001
 20
-160.91399999999999
 30
0.0
 70
    32
  0
VERTEX
  5
595
  8
図枠
 10
136.87299999999999
 20
-160.92500000000001
 30
0.0
 70
    32
  0
VERTEX
  5
596
  8
図枠
 10
136.91800000000001
 20
-160.93600000000001
 30
0.0
 70
    32
  0
VERTEX
  5
597
  8
図枠
 10
136.96199999999999
 20
-160.946
 30
0.0
 70
    32
  0
VERTEX
  5
598
  8
図枠
 10
137.00700000000001
 20
-160.95699999999999
 30
0.0
 70
    32
  0
VERTEX
  5
599
  8
図枠
 10
137.05199999999999
 20
-160.96799999999999
 30
0.0
 70
    32
  0
VERTEX
  5
59A
  8
図枠
 10
137.096
 20
-160.97900000000001
 30
0.0
 70
    32
  0
VERTEX
  5
59B
  8
図枠
 10
137.14099999999999
 20
-160.989
 30
0.0
 70
    32
  0
VERTEX
  5
59C
  8
図枠
 10
137.18600000000001
 20
-161.0
 30
0.0
 70
    32
  0
VERTEX
  5
59D
  8
図枠
 10
137.23099999999999
 20
-161.00999999999999
 30
0.0
 70
    32
  0
VERTEX
  5
59E
  8
図枠
 10
137.27600000000001
 20
-161.02099999999999
 30
0.0
 70
    32
  0
VERTEX
  5
59F
  8
図枠
 10
137.31999999999999
 20
-161.03200000000001
 30
0.0
 70
    32
  0
VERTEX
  5
5A0
  8
図枠
 10
137.36500000000001
 20
-161.042
 30
0.0
 70
    32
  0
VERTEX
  5
5A1
  8
図枠
 10
137.41
 20
-161.05199999999999
 30
0.0
 70
    32
  0
VERTEX
  5
5A2
  8
図枠
 10
137.45500000000001
 20
-161.06299999999999
 30
0.0
 70
    32
  0
VERTEX
  5
5A3
  8
図枠
 10
137.5
 20
-161.07300000000001
 30
0.0
 70
    32
  0
VERTEX
  5
5A4
  8
図枠
 10
137.54499999999999
 20
-161.084
 30
0.0
 70
    32
  0
VERTEX
  5
5A5
  8
図枠
 10
137.59
 20
-161.09399999999999
 30
0.0
 70
    32
  0
VERTEX
  5
5A6
  8
図枠
 10
137.63399999999999
 20
-161.10400000000001
 30
0.0
 70
    32
  0
VERTEX
  5
5A7
  8
図枠
 10
137.679
 20
-161.11500000000001
 30
0.0
 70
    32
  0
VERTEX
  5
5A8
  8
図枠
 10
137.72399999999999
 20
-161.125
 30
0.0
 70
    32
  0
VERTEX
  5
5A9
  8
図枠
 10
137.76900000000001
 20
-161.13499999999999
 30
0.0
 70
    32
  0
VERTEX
  5
5AA
  8
図枠
 10
137.81399999999999
 20
-161.14500000000001
 30
0.0
 70
    32
  0
VERTEX
  5
5AB
  8
図枠
 10
137.85900000000001
 20
-161.155
 30
0.0
 70
    32
  0
VERTEX
  5
5AC
  8
図枠
 10
137.904
 20
-161.16499999999999
 30
0.0
 70
    32
  0
VERTEX
  5
5AD
  8
図枠
 10
137.94900000000001
 20
-161.17500000000001
 30
0.0
 70
    32
  0
VERTEX
  5
5AE
  8
図枠
 10
137.994
 20
-161.18600000000001
 30
0.0
 70
    32
  0
VERTEX
  5
5AF
  8
図枠
 10
138.03899999999999
 20
-161.196
 30
0.0
 70
    32
  0
VERTEX
  5
5B0
  8
図枠
 10
138.08500000000001
 20
-161.20599999999999
 30
0.0
 70
    32
  0
VERTEX
  5
5B1
  8
図枠
 10
138.13
 20
-161.21600000000001
 30
0.0
 70
    32
  0
VERTEX
  5
5B2
  8
図枠
 10
138.17500000000001
 20
-161.226
 30
0.0
 70
    32
  0
VERTEX
  5
5B3
  8
図枠
 10
138.22
 20
-161.23599999999999
 30
0.0
 70
    32
  0
VERTEX
  5
5B4
  8
図枠
 10
138.26499999999999
 20
-161.245
 30
0.0
 70
    32
  0
VERTEX
  5
5B5
  8
図枠
 10
138.31
 20
-161.255
 30
0.0
 70
    32
  0
VERTEX
  5
5B6
  8
図枠
 10
138.35499999999999
 20
-161.26499999999999
 30
0.0
 70
    32
  0
VERTEX
  5
5B7
  8
図枠
 10
138.40000000000001
 20
-161.27500000000001
 30
0.0
 70
    32
  0
VERTEX
  5
5B8
  8
図枠
 10
138.446
 20
-161.285
 30
0.0
 70
    32
  0
VERTEX
  5
5B9
  8
図枠
 10
138.49100000000001
 20
-161.29499999999999
 30
0.0
 70
    32
  0
VERTEX
  5
5BA
  8
図枠
 10
138.536
 20
-161.30500000000001
 30
0.0
 70
    32
  0
VERTEX
  5
5BB
  8
図枠
 10
138.58099999999999
 20
-161.31399999999999
 30
0.0
 70
    32
  0
VERTEX
  5
5BC
  8
図枠
 10
138.626
 20
-161.32400000000001
 30
0.0
 70
    32
  0
VERTEX
  5
5BD
  8
図枠
 10
138.672
 20
-161.334
 30
0.0
 70
    32
  0
VERTEX
  5
5BE
  8
図枠
 10
138.71700000000001
 20
-161.34399999999999
 30
0.0
 70
    32
  0
VERTEX
  5
5BF
  8
図枠
 10
138.762
 20
-161.35300000000001
 30
0.0
 70
    32
  0
VERTEX
  5
5C0
  8
図枠
 10
138.80699999999999
 20
-161.363
 30
0.0
 70
    32
  0
VERTEX
  5
5C1
  8
図枠
 10
138.85300000000001
 20
-161.37299999999999
 30
0.0
 70
    32
  0
VERTEX
  5
5C2
  8
図枠
 10
138.898
 20
-161.38200000000001
 30
0.0
 70
    32
  0
VERTEX
  5
5C3
  8
図枠
 10
138.94300000000001
 20
-161.392
 30
0.0
 70
    32
  0
VERTEX
  5
5C4
  8
図枠
 10
138.988
 20
-161.40100000000001
 30
0.0
 70
    32
  0
VERTEX
  5
5C5
  8
図枠
 10
139.03399999999999
 20
-161.411
 30
0.0
 70
    32
  0
VERTEX
  5
5C6
  8
図枠
 10
139.07900000000001
 20
-161.42099999999999
 30
0.0
 70
    32
  0
VERTEX
  5
5C7
  8
図枠
 10
139.124
 20
-161.43000000000001
 30
0.0
 70
    32
  0
VERTEX
  5
5C8
  8
図枠
 10
139.16999999999999
 20
-161.44
 30
0.0
 70
    32
  0
VERTEX
  5
5C9
  8
図枠
 10
139.215
 20
-161.44900000000001
 30
0.0
 70
    32
  0
VERTEX
  5
5CA
  8
図枠
 10
139.25999999999999
 20
-161.459
 30
0.0
 70
    32
  0
VERTEX
  5
5CB
  8
図枠
 10
139.30600000000001
 20
-161.46799999999999
 30
0.0
 70
    32
  0
VERTEX
  5
5CC
  8
図枠
 10
139.351
 20
-161.47800000000001
 30
0.0
 70
    32
  0
VERTEX
  5
5CD
  8
図枠
 10
139.39599999999999
 20
-161.488
 30
0.0
 70
    32
  0
VERTEX
  5
5CE
  8
図枠
 10
139.44200000000001
 20
-161.49700000000001
 30
0.0
 70
    32
  0
VERTEX
  5
5CF
  8
図枠
 10
139.48699999999999
 20
-161.50700000000001
 30
0.0
 70
    32
  0
VERTEX
  5
5D0
  8
図枠
 10
139.53200000000001
 20
-161.51599999999999
 30
0.0
 70
    32
  0
VERTEX
  5
5D1
  8
図枠
 10
139.578
 20
-161.52600000000001
 30
0.0
 70
    32
  0
VERTEX
  5
5D2
  8
図枠
 10
139.62299999999999
 20
-161.535
 30
0.0
 70
    32
  0
VERTEX
  5
5D3
  8
図枠
 10
139.6689999999999
 20
-161.5439999999999
 30
0.0
 70
    32
  0
VERTEX
  5
5D4
  8
図枠
 10
139.714
 20
-161.554
 30
0.0
 70
    32
  0
VERTEX
  5
5D5
  8
図枠
 10
139.75899999999999
 20
-161.56299999999999
 30
0.0
 70
    32
  0
VERTEX
  5
5D6
  8
図枠
 10
139.80500000000001
 20
-161.57300000000001
 30
0.0
 70
    32
  0
VERTEX
  5
5D7
  8
図枠
 10
139.84999999999999
 20
-161.58199999999999
 30
0.0
 70
    32
  0
VERTEX
  5
5D8
  8
図枠
 10
139.89500000000001
 20
-161.59200000000001
 30
0.0
 70
    32
  0
VERTEX
  5
5D9
  8
図枠
 10
139.941
 20
-161.601
 30
0.0
 70
    32
  0
VERTEX
  5
5DA
  8
図枠
 10
139.98599999999999
 20
-161.61099999999999
 30
0.0
 70
    32
  0
VERTEX
  5
5DB
  8
図枠
 10
140.03200000000001
 20
-161.62
 30
0.0
 70
    32
  0
VERTEX
  5
5DC
  8
図枠
 10
140.077
 20
-161.63
 30
0.0
 70
    32
  0
VERTEX
  5
5DD
  8
図枠
 10
140.12200000000001
 20
-161.63900000000001
 30
0.0
 70
    32
  0
VERTEX
  5
5DE
  8
図枠
 10
140.16800000000001
 20
-161.648
 30
0.0
 70
    32
  0
SEQEND
  5
5DF
  8
図枠
  0
LINE
  5
197
  8
図枠
 10
140.1677703844
 20
-150.44951339939999
 30
0.0
 11
125.7692103844
 21
-150.44951339939999
 31
0.0
  0
LINE
  5
198
  8
図枠
 10
140.1677703844
 20
-159.24863339940001
 30
0.0
 11
140.1677703844
 21
-161.64839339939999
 31
0.0
  0
LINE
  5
199
  8
図枠
 10
45.5258630927
 20
-102.7105645188
 30
0.0
 11
277.5026630927
 21
-102.7105645188
 31
0.0
  0
LINE
  5
19A
  8
図枠
 10
136.74846331270001
 20
-158.2073474728
 30
0.0
 11
136.46352851340001
 21
-158.48632460300001
 31
0.0
  0
LINE
  5
19B
  8
図枠
  6
BORDER
 10
130.73334149269999
 20
-122.2086145188
 30
0.0
 11
160.29838469270001
 21
-122.2086145188
 31
0.0
  0
CIRCLE
  5
19C
  8
図枠
 10
137.64465029269999
 20
-122.2086145188
 30
0.0
 40
4.6075391999999971
  0
LINE
  5
19D
  8
図枠
 10
45.5258630927
 20
-147.70606451879999
 30
0.0
 11
277.5026630927
 21
-147.70606451879999
 31
0.0
  0
LINE
  5
19E
  8
図枠
 10
138.5679303844
 20
-152.8492733994
 30
0.0
 11
140.1677703844
 21
-150.44951339939999
 31
0.0
  0
LINE
  5
19F
  8
図枠
 10
45.5258630927
 20
-91.711664518799992
 30
0.0
 11
277.5026630927
 21
-91.711664518799992
 31
0.0
  0
LINE
  5
1A0
  8
図枠
  6
BORDER
 10
137.64465029269999
 20
-115.2973057188
 30
0.0
 11
137.64465029269999
 21
-129.11992331880001
 31
0.0
  0
LINE
  5
1A1
  8
図枠
 10
125.7692103844
 20
-154.67984318009999
 30
0.0
 11
125.7692103844
 21
-154.1645182897999
 31
0.0
  0
LINE
  5
1A2
  8
ﾚｲﾔ_1
  6
STITCH
 10
-149.5
 20
122.93710937500001
 30
0.0
 11
-152.0
 21
122.93710937500001
 31
0.0
  0
LINE
  5
1A3
  8
ﾚｲﾔ_1
  6
STITCH
 10
-152.0
 20
127.43710937500001
 30
0.0
 11
-149.5
 21
127.43710937500001
 31
0.0
  0
LINE
  5
1A4
  8
ﾚｲﾔ_1
  6
STITCH
 10
-152.0
 20
127.43710937500001
 30
0.0
 11
-152.0
 21
122.93710937500001
 31
0.0
  0
LINE
  5
1A5
  8
ﾚｲﾔ_1
  6
STITCH
 10
-154.0
 20
129.43710937500001
 30
0.0
 11
-152.0
 21
127.43710937500001
 31
0.0
  0
LINE
  5
1A6
  8
ﾚｲﾔ_1
  6
STITCH
 10
-152.0
 20
122.93710937500001
 30
0.0
 11
-154.0
 21
120.93710937500001
 31
0.0
  0
LINE
  5
1A7
  8
ﾚｲﾔ_1
  6
STITCH
 10
-152.0
 20
25.576953124999999
 30
0.0
 11
-154.0
 21
23.576953124999999
 31
0.0
  0
LINE
  5
1A8
  8
ﾚｲﾔ_1
  6
STITCH
 10
-149.5
 20
25.576953124999999
 30
0.0
 11
-152.0
 21
25.576953124999999
 31
0.0
  0
LINE
  5
1A9
  8
ﾚｲﾔ_1
  6
STITCH
 10
-154.0
 20
32.076953125000003
 30
0.0
 11
-152.0
 21
30.076953124999999
 31
0.0
  0
LINE
  5
1AA
  8
ﾚｲﾔ_1
  6
STITCH
 10
-152.0
 20
30.076953124999999
 30
0.0
 11
-152.0
 21
25.576953124999999
 31
0.0
  0
LINE
  5
1AB
  8
ﾚｲﾔ_1
  6
STITCH
 10
-152.0
 20
30.076953124999999
 30
0.0
 11
-149.5
 21
30.076953124999999
 31
0.0
  0
CIRCLE
  5
1AC
  8
ﾚｲﾔ_1
 62
     5
 10
-64.0
 20
125.18710937500001
 30
0.0
 40
4.25
  0
CIRCLE
  5
1AD
  8
ﾚｲﾔ_1
 62
     5
 10
-94.0
 20
125.18710937500001
 30
0.0
 40
4.25
  0
CIRCLE
  5
1AE
  8
ﾚｲﾔ_1
 62
     5
 10
-124.0
 20
125.18710937500001
 30
0.0
 40
4.25
  0
LINE
  5
1AF
  8
ﾚｲﾔ_1
 62
     5
 10
-154.0
 20
141.18710937500001
 30
0.0
 11
-154.0
 21
109.18710937500001
 31
0.0
  0
LINE
  5
1B0
  8
ﾚｲﾔ_1
 62
     5
 10
-44.0
 20
141.18710937500001
 30
0.0
 11
-154.0
 21
141.18710937500001
 31
0.0
  0
LINE
  5
1B1
  8
ﾚｲﾔ_1
 62
     5
 10
-44.0
 20
109.18710937500001
 30
0.0
 11
-44.0
 21
141.18710937500001
 31
0.0
  0
LINE
  5
1B2
  8
ﾚｲﾔ_1
 62
     5
 10
-154.0
 20
109.18710937500001
 30
0.0
 11
-44.0
 21
109.18710937500001
 31
0.0
  0
LINE
  5
1B3
  8
ﾚｲﾔ_1
 62
     5
 10
-149.5
 20
141.18710937500001
 30
0.0
 11
-149.5
 21
109.18710937500001
 31
0.0
  0
LINE
  5
1B4
  8
ﾚｲﾔ_1
  6
BORDER
 62
     3
 10
-131.5
 20
125.18710937500001
 30
0.0
 11
-116.5
 21
125.18710937500001
 31
0.0
  0
LINE
  5
1B5
  8
ﾚｲﾔ_1
  6
BORDER
 62
     3
 10
-124.0
 20
132.68710937500001
 30
0.0
 11
-124.0
 21
117.68710937500001
 31
0.0
  0
CIRCLE
  5
1B6
  8
ﾚｲﾔ_1
 62
     5
 10
-124.0
 20
125.18710937500001
 30
0.0
 40
2.25
  0
CIRCLE
  5
1B7
  8
ﾚｲﾔ_1
 62
     5
 10
-94.0
 20
125.18710937500001
 30
0.0
 40
2.25
  0
LINE
  5
1B8
  8
ﾚｲﾔ_1
  6
BORDER
 62
     3
 10
-101.5
 20
125.18710937500001
 30
0.0
 11
-86.5
 21
125.18710937500001
 31
0.0
  0
LINE
  5
1B9
  8
ﾚｲﾔ_1
  6
BORDER
 62
     3
 10
-71.5
 20
125.18710937500001
 30
0.0
 11
-56.5
 21
125.18710937500001
 31
0.0
  0
LINE
  5
1BA
  8
ﾚｲﾔ_1
  6
BORDER
 62
     3
 10
-64.0
 20
132.68710937500001
 30
0.0
 11
-64.0
 21
117.68710937500001
 31
0.0
  0
LINE
  5
1BB
  8
ﾚｲﾔ_1
  6
BORDER
 62
     3
 10
-64.0
 20
-36.905109014399997
 30
0.0
 11
-64.0
 21
-50.273530067000003
 31
0.0
  0
LINE
  5
1BC
  8
ﾚｲﾔ_1
  6
BORDER
 62
     3
 10
-94.0
 20
-36.905109014399997
 30
0.0
 11
-94.0
 21
-50.273530067000003
 31
0.0
  0
LINE
  5
1BD
  8
ﾚｲﾔ_1
  6
BORDER
 62
     3
 10
-124.0
 20
-36.905109014399997
 30
0.0
 11
-124.0
 21
-50.273530067000003
 31
0.0
  0
LINE
  5
1BE
  8
ﾚｲﾔ_1
  6
STITCH
 10
-61.75
 20
-43.67304687499999
 30
0.0
 11
-66.25
 21
-43.67304687499999
 31
0.0
  0
LINE
  5
1BF
  8
ﾚｲﾔ_1
  6
STITCH
 10
-66.25
 20
-46.17304687499999
 30
0.0
 11
-66.25
 21
-43.67304687499999
 31
0.0
  0
LINE
  5
1C0
  8
ﾚｲﾔ_1
  6
STITCH
 10
-61.75
 20
-43.67304687499999
 30
0.0
 11
-61.75
 21
-46.17304687499999
 31
0.0
  0
LINE
  5
1C1
  8
ﾚｲﾔ_1
  6
STITCH
 10
-91.75
 20
-43.67304687499999
 30
0.0
 11
-91.75
 21
-46.17304687499999
 31
0.0
  0
LINE
  5
1C2
  8
ﾚｲﾔ_1
  6
STITCH
 10
-96.25
 20
-46.17304687499999
 30
0.0
 11
-96.25
 21
-43.67304687499999
 31
0.0
  0
LINE
  5
1C3
  8
ﾚｲﾔ_1
  6
STITCH
 10
-91.75
 20
-43.67304687499999
 30
0.0
 11
-96.25
 21
-43.67304687499999
 31
0.0
  0
LINE
  5
1C4
  8
ﾚｲﾔ_1
  6
STITCH
 10
-96.25
 20
-43.67304687499999
 30
0.0
 11
-98.250000000000014
 21
-41.673046874999983
 31
0.0
  0
LINE
  5
1C5
  8
ﾚｲﾔ_1
  6
STITCH
 10
-89.749999999999986
 20
-41.673046874999983
 30
0.0
 11
-91.75
 21
-43.67304687499999
 31
0.0
  0
LINE
  5
1C6
  8
ﾚｲﾔ_1
  6
STITCH
 10
-119.75
 20
-41.673046874999983
 30
0.0
 11
-121.75
 21
-43.67304687499999
 31
0.0
  0
LINE
  5
1C7
  8
ﾚｲﾔ_1
  6
STITCH
 10
-126.25
 20
-43.67304687499999
 30
0.0
 11
-128.25
 21
-41.673046874999983
 31
0.0
  0
LINE
  5
1C8
  8
ﾚｲﾔ_1
  6
STITCH
 10
-121.75
 20
-43.67304687499999
 30
0.0
 11
-126.25
 21
-43.67304687499999
 31
0.0
  0
LINE
  5
1C9
  8
ﾚｲﾔ_1
  6
STITCH
 10
-126.25
 20
-46.17304687499999
 30
0.0
 11
-126.25
 21
-43.67304687499999
 31
0.0
  0
LINE
  5
1CA
  8
ﾚｲﾔ_1
  6
STITCH
 10
-121.75
 20
-43.67304687499999
 30
0.0
 11
-121.75
 21
-46.17304687499999
 31
0.0
  0
DIMENSION
  5
1D9
  8
寸法線
  2
*D14
 10
-23.25
 20
-46.17304687499999
 30
0.0
 11
-23.25
 21
-26.638581626299999
 31
0.0
 70
   128
  1
<>t
 13
-44.0
 23
-46.17304687499999
 33
0.0
 14
-43.25
 24
-41.673046874999983
 34
0.0
 50
90.0
  0
DIMENSION
  5
1E8
  8
寸法線
  2
*D15
 10
-154.0
 20
-66.173046874999983
 30
0.0
 11
-99.0
 21
-66.173046874999983
 31
0.0
 70
   128
  1
<>
 13
-154.0
 23
-40.673046874999997
 33
0.0
 14
-44.0
 24
-46.17304687499999
 34
0.0
 50
180.0
  0
LINE
  5
216
  8
ﾚｲﾔ_1
  6
BORDER
 62
     3
 10
-94.0
 20
132.68710937500001
 30
0.0
 11
-94.0
 21
117.68710937500001
 31
0.0
  0
LINE
  5
217
  8
ﾚｲﾔ_1
  6
BORDER
 62
     3
 10
-144.7320621394
 20
125.18710937500001
 30
0.0
 11
-158.10048319200001
 21
125.18710937500001
 31
0.0
  0
LINE
  5
218
  8
ﾚｲﾔ_1
  6
BORDER
 62
     3
 10
-144.7320621394
 20
27.826953124999999
 30
0.0
 11
-158.10048319200001
 21
27.826953124999999
 31
0.0
  0
LINE
  5
219
  8
ﾚｲﾔ_1
 62
     5
 10
-149.5
 20
43.826953125000003
 30
0.0
 11
-154.0
 21
43.826953125000003
 31
0.0
  0
LINE
  5
21A
  8
図枠
 62
     5
 10
-272.44233690729999
 20
-164.70436451879999
 30
0.0
 11
277.5026630927
 21
-164.70436451879999
 31
0.0
  0
LINE
  5
21B
  8
図枠
  6
DOT
 10
-284.44113690730001
 20
-176.2032145188
 30
0.0
 11
289.50146309270002
 21
-176.2032145188
 31
0.0
  0
LINE
  5
21C
  8
図枠
 62
     5
 10
-272.44233690729999
 20
215.2576354812
 30
0.0
 11
277.5026630927
 21
215.2576354812
 31
0.0
  0
LINE
  5
21D
  8
図枠
  6
DOT
 10
-284.44113690730001
 20
226.7564854812
 30
0.0
 11
289.50146309270002
 21
226.7564854812
 31
0.0
  0
LINE
  5
21E
  8
ﾚｲﾔ_1
  6
STITCH
 10
-152.0
 20
0.076953125
 30
0.0
 11
-149.5
 21
0.076953125
 31
0.0
  0
LINE
  5
21F
  8
ﾚｲﾔ_1
  6
STITCH
 10
-152.0
 20
0.076953125
 30
0.0
 11
-152.0
 21
-4.423046874999998
 31
0.0
  0
LINE
  5
220
  8
ﾚｲﾔ_1
  6
STITCH
 10
-154.0
 20
2.0769531250000002
 30
0.0
 11
-152.0
 21
0.076953125
 31
0.0
  0
LINE
  5
221
  8
ﾚｲﾔ_1
 62
     5
 10
-154.0
 20
43.826953125000003
 30
0.0
 11
-154.0
 21
-40.673046874999997
 31
0.0
  0
LINE
  5
222
  8
ﾚｲﾔ_1
 62
     5
 10
-149.5
 20
43.826953125000003
 30
0.0
 11
-149.5
 21
-40.873046875
 31
0.0
  0
DIMENSION
  5
231
  8
寸法線
  2
*D19
 10
-174.0
 20
43.826953125000003
 30
0.0
 11
-174.0
 21
-1.173046875
 31
0.0
 70
   128
  1
<>
 13
-154.0
 23
43.826953125000003
 33
0.0
 14
-148.5
 24
-46.17304687499999
 34
0.0
 50
90.0
  0
LINE
  5
240
  8
図枠
  6
DOT
 10
-284.4351375073
 20
-176.2032145188
 30
0.0
 11
-284.4351375073
 21
226.7564854812
 31
0.0
  0
LINE
  5
241
  8
図枠
 62
     5
 10
-272.44233690729999
 20
-164.70436451879999
 30
0.0
 11
-272.44233690729999
 21
215.2576354812
 31
0.0
  0
LINE
  5
242
  8
図枠
  6
DOT
 10
289.50146309270002
 20
-176.2032145188
 30
0.0
 11
289.50146309270002
 21
226.7564854812
 31
0.0
  0
LINE
  5
243
  8
図枠
 62
     5
 10
277.5026630927
 20
-164.70436451879999
 30
0.0
 11
277.5026630927
 21
215.2576354812
 31
0.0
  0
LINE
  5
244
  8
ﾚｲﾔ_1
 62
     5
 10
-44.0
 20
-46.17304687499999
 30
0.0
 11
-44.0
 21
-41.673046874999983
 31
0.0
  0
LINE
  5
245
  8
ﾚｲﾔ_1
 62
     5
 10
-148.5
 20
-46.17304687499999
 30
0.0
 11
-44.0
 21
-46.17304687499999
 31
0.0
  0
ARC
  5
246
  8
ﾚｲﾔ_1
 62
     5
 10
-148.5
 20
-40.673046874999997
 30
0.0
 40
5.5
 50
180.0
 51
270.0
  0
LINE
  5
247
  8
ﾚｲﾔ_1
 62
     5
 10
-148.69999999999999
 20
-41.673046874999983
 30
0.0
 11
-44.0
 21
-41.673046874999983
 31
0.0
  0
ARC
  5
248
  8
ﾚｲﾔ_1
 62
     5
 10
-148.69999999999999
 20
-40.873046875
 30
0.0
 40
0.8
 50
180.0
 51
270.0
  0
LINE
  5
249
  8
ﾚｲﾔ_1
  6
STITCH
 10
-149.5
 20
-4.423046874999998
 30
0.0
 11
-152.0
 21
-4.423046874999998
 31
0.0
  0
LINE
  5
24A
  8
ﾚｲﾔ_1
  6
STITCH
 10
-152.0
 20
-4.423046874999998
 30
0.0
 11
-154.0
 21
-6.423046874999998
 31
0.0
  0
LINE
  5
24B
  8
ﾚｲﾔ_1
  6
STITCH
 10
-59.75
 20
-41.673046874999983
 30
0.0
 11
-61.75
 21
-43.67304687499999
 31
0.0
  0
LINE
  5
24C
  8
ﾚｲﾔ_1
  6
STITCH
 10
-66.25
 20
-43.67304687499999
 30
0.0
 11
-68.25
 21
-41.673046874999983
 31
0.0
  0
LINE
  5
24D
  8
ﾚｲﾔ_1
  6
BORDER
 62
     3
 10
-144.7320621394
 20
-2.173046874999998
 30
0.0
 11
-158.10048319200001
 21
-2.173046874999998
 31
0.0
  0
LINE
  5
28E
  8
ﾚｲﾔ_1
  6
STITCH
 10
139.11321603808611
 20
-21.922488686615889
 30
0.0
 11
135.91321603808601
 21
-25.122488686615899
 31
0.0
  0
LINE
  5
28F
  8
ﾚｲﾔ_1
 62
     5
 10
104.3451773049303
 20
-21.922488686615889
 30
0.0
 11
156.64260917848151
 21
-21.922488686615889
 31
0.0
  0
LINE
  5
290
  8
ﾚｲﾔ_1
 62
     5
 10
104.3451773049303
 20
-28.322488686615891
 30
0.0
 11
156.64260917848151
 21
-28.322488686615891
 31
0.0
  0
LINE
  5
291
  8
ﾚｲﾔ_1
  6
BORDER
 62
     3
 10
131.11321603808611
 20
-16.4357572052159
 30
0.0
 11
131.11321603808611
 21
-34.030548871815888
 31
0.0
  0
LINE
  5
295
  8
ﾚｲﾔ_1
  6
STITCH
 10
126.3132160380861
 20
-25.122488686615899
 30
0.0
 11
126.3132160380861
 21
-28.322488686615898
 31
0.0
  0
LINE
  5
296
  8
ﾚｲﾔ_1
  6
STITCH
 10
135.91321603808601
 20
-25.122488686615899
 30
0.0
 11
135.91321603808601
 21
-28.322488686615898
 31
0.0
  0
LINE
  5
297
  8
ﾚｲﾔ_1
  6
STITCH
 10
135.91321603808601
 20
-25.122488686615899
 30
0.0
 11
126.3132160380861
 21
-25.122488686615899
 31
0.0
  0
LINE
  5
298
  8
ﾚｲﾔ_1
  6
STITCH
 10
126.3132160380861
 20
-25.122488686615899
 30
0.0
 11
123.11321603808599
 21
-21.922488686615889
 31
0.0
  0
DIMENSION
  5
784
  8
0
  6
CONTINUOUS
  2
*D96
 10
135.91321603808601
 20
-49.826218802956312
 30
0.0
 11
141.80331354326219
 21
-47.473834891903259
 31
0.0
 70
   128
  1
φ4
 13
126.3132160380861
 23
-28.322488686615898
 33
0.0
 14
135.91321603808601
 24
-28.322488686615898
 34
0.0
1001
ACAD
1000
DSTYLE
1002
{
1070
    40
1040
1.0
1002
}
  0
DIMENSION
  5
792
  8
0
  6
CONTINUOUS
  2
*D95
 10
139.11321603808611
 20
-3.9922964914355799
 30
0.0
 11
131.11321603808611
 21
-0.4922964914355808
 31
0.0
 70
     0
  1
φ8
 13
123.11321603808599
 23
-21.922488686615889
 33
0.0
 14
139.11321603808611
 24
-21.922488686615889
 34
0.0
1001
ACAD
1000
DSTYLE
1002
{
1070
    40
1040
1.0
1002
}
  0
DIMENSION
  5
7B4
  8
0
  6
CONTINUOUS
  2
*D98
 10
126.3132160380861
 20
-25.122488686615899
 30
0.0
 11
131.11321603808611
 21
16.417302519536602
 31
0.0
 70
     2
 13
135.91321603808601
 23
-25.122488686615899
 33
0.0
 14
139.11321603808611
 24
-21.922488686615889
 34
0.0
 15
123.11321603808599
 25
-21.922488686615889
 35
0.0
 16
143.10683654831291
 26
14.83831242424977
 36
0.0
1001
ACAD
1000
DSTYLE
1002
{
1070
   271
1070
     0
1070
   271
1070
     0
1070
    40
1040
1.0
1002
}
  0
DIMENSION
  5
9D0
  8
0
  6
CONTINUOUS
  2
*D97
 10
-149.5
 20
-90.062916917444795
 30
0.0
 11
-101.0896002652929
 21
6.7373528597070438
 31
0.0
 70
     2
 13
-44.0
 23
-41.673046874999983
 33
0.0
 14
-205.91085385920519
 24
-41.673046874999983
 34
0.0
 15
-149.5
 25
43.826953125000003
 35
0.0
 16
-93.240700116146314
 26
-9.1917249426372223
 36
0.0
1001
ACAD
1000
DSTYLE
1002
{
1070
   271
1070
     0
1070
    40
1040
1.0
1002
}
  0
ENDSEC
  0
EOF
