  0
SECTION
  2
HEADER
  9
$ACADVER
  1
AC1009
  9
$INSBASE
 10
0.0
 20
0.0
 30
0.0
  9
$EXTMIN
 10
-212.7187874912623
 20
-125.8798736014685
 30
-0.0015258207003583
  9
$EXTMAX
 10
217.8074881435339
 20
176.3885742745295
 30
0.0000000349246037
  9
$LIMMIN
 10
0.0
 20
0.0
  9
$LIMMAX
 10
0.0
 20
0.0
  9
$ORTHOMODE
 70
     1
  9
$REGENMODE
 70
     1
  9
$FILLMODE
 70
     1
  9
$QTEXTMODE
 70
     0
  9
$MIRRTEXT
 70
     1
  9
$DRAGMODE
 70
     2
  9
$LTSCALE
 40
1.0
  9
$OSMODE
 70
    31
  9
$ATTMODE
 70
     1
  9
$TEXTSIZE
 40
0.0
  9
$TRACEWID
 40
0.05
  9
$TEXTSTYLE
  7
STANDARD
  9
$CLAYER
  8
0
  9
$CELTYPE
  6
CONTINUOUS
  9
$CECOLOR
 62
   256
  9
$DIMSCALE
 40
1.0
  9
$DIMASZ
 40
0.18
  9
$DIMEXO
 40
0.0625
  9
$DIMDLI
 40
0.38
  9
$DIMRND
 40
0.0
  9
$DIMDLE
 40
0.0
  9
$DIMEXE
 40
0.18
  9
$DIMTP
 40
0.0
  9
$DIMTM
 40
0.0
  9
$DIMTXT
 40
0.18
  9
$DIMCEN
 40
0.09
  9
$DIMTSZ
 40
0.0
  9
$DIMTOL
 70
     0
  9
$DIMLIM
 70
     0
  9
$DIMTIH
 70
     1
  9
$DIMTOH
 70
     1
  9
$DIMSE1
 70
     0
  9
$DIMSE2
 70
     0
  9
$DIMTAD
 70
     0
  9
$DIMZIN
 70
     0
  9
$DIMBLK
  1

  9
$DIMASO
 70
     1
  9
$DIMSHO
 70
     1
  9
$DIMPOST
  1

  9
$DIMAPOST
  1

  9
$DIMALT
 70
     0
  9
$DIMALTD
 70
     2
  9
$DIMALTF
 40
25.399999999999999
  9
$DIMLFAC
 40
1.0
  9
$DIMTOFL
 70
     0
  9
$DIMTVP
 40
0.0
  9
$DIMTIX
 70
     0
  9
$DIMSOXD
 70
     0
  9
$DIMSAH
 70
     0
  9
$DIMBLK1
  1

  9
$DIMBLK2
  1

  9
$DIMSTYLE
  2
STANDARD
  9
$DIMCLRD
 70
     0
  9
$DIMCLRE
 70
     0
  9
$DIMCLRT
 70
     0
  9
$DIMTFAC
 40
1.0
  9
$DIMGAP
 40
0.09
  9
$LUNITS
 70
     2
  9
$LUPREC
 70
     4
  9
$SKETCHINC
 40
0.1
  9
$FILLETRAD
 40
0.0
  9
$AUNITS
 70
     0
  9
$AUPREC
 70
     0
  9
$MENU
  1
acad
  9
$ELEVATION
 40
0.0
  9
$PELEVATION
 40
0.0
  9
$THICKNESS
 40
0.0
  9
$LIMCHECK
 70
     0
  9
$BLIPMODE
 70
     0
  9
$CHAMFERA
 40
0.0
  9
$CHAMFERB
 40
0.0
  9
$SKPOLY
 70
     0
  9
$TDCREATE
 40
2454863.5283888429
  9
$TDUPDATE
 40
2454863.6203376269
  9
$TDINDWG
 40
0.0236140046
  9
$TDUSRTIMER
 40
0.0236089352
  9
$USRTIMER
 70
     1
  9
$ANGBASE
 50
0.0
  9
$ANGDIR
 70
     0
  9
$PDMODE
 70
     3
  9
$PDSIZE
 40
-1.0
  9
$PLINEWID
 40
0.0
  9
$COORDS
 70
     2
  9
$SPLFRAME
 70
     0
  9
$SPLINETYPE
 70
     6
  9
$SPLINESEGS
 70
     8
  9
$ATTDIA
 70
     0
  9
$ATTREQ
 70
     1
  9
$HANDLING
 70
     1
  9
$HANDSEED
  5
A61
  9
$SURFTAB1
 70
     6
  9
$SURFTAB2
 70
     6
  9
$SURFTYPE
 70
     6
  9
$SURFU
 70
     6
  9
$SURFV
 70
     6
  9
$UCSNAME
  2

  9
$UCSORG
 10
0.0
 20
0.0
 30
0.0
  9
$UCSXDIR
 10
1.0
 20
0.0
 30
0.0
  9
$UCSYDIR
 10
0.0
 20
1.0
 30
0.0
  9
$PUCSNAME
  2

  9
$PUCSORG
 10
0.0
 20
0.0
 30
0.0
  9
$PUCSXDIR
 10
1.0
 20
0.0
 30
0.0
  9
$PUCSYDIR
 10
0.0
 20
1.0
 30
0.0
  9
$USERI1
 70
     0
  9
$USERI2
 70
     0
  9
$USERI3
 70
     0
  9
$USERI4
 70
     0
  9
$USERI5
 70
     0
  9
$USERR1
 40
0.0
  9
$USERR2
 40
0.0
  9
$USERR3
 40
0.0
  9
$USERR4
 40
0.0
  9
$USERR5
 40
0.0
  9
$WORLDVIEW
 70
     1
  9
$SHADEDGE
 70
     3
  9
$SHADEDIF
 70
    70
  9
$TILEMODE
 70
     1
  9
$MAXACTVP
 70
    16
  9
$PLIMCHECK
 70
     0
  9
$PEXTMIN
 10
1.0000000000000000E+020
 20
1.0000000000000000E+020
 30
1.0000000000000000E+020
  9
$PEXTMAX
 10
-1.0000000000000000E+020
 20
-1.0000000000000000E+020
 30
-1.0000000000000000E+020
  9
$PLIMMIN
 10
0.0
 20
0.0
  9
$PLIMMAX
 10
12.0
 20
9.0
  9
$UNITMODE
 70
     0
  9
$VISRETAIN
 70
     0
  9
$PLINEGEN
 70
     1
  9
$PSLTSCALE
 70
     0
  0
ENDSEC
  0
SECTION
  2
TABLES
  0
TABLE
  2
VPORT
 70
     3
  0
VPORT
  2
*ACTIVE
 70
     0
 10
0.0
 20
0.0
 11
1.0
 21
1.0
 12
2.5443503261357492
 22
25.25435033653055
 13
0.0
 23
0.0
 14
1.0
 24
1.0
 15
0.0
 25
0.0
 16
0.0
 26
0.0
 36
1.0
 17
0.0
 27
0.0
 37
0.0
 40
304.77689972559142
 41
1.6343490304709141
 42
50.0
 43
0.0
 44
0.0
 50
0.0
 51
0.0
 71
     0
 72
   100
 73
     1
 74
     1
 75
     0
 76
     0
 77
     0
 78
     0
  0
ENDTAB
  0
TABLE
  2
LTYPE
 70
    11
  0
LTYPE
  2
CONTINUOUS
 70
     0
  3
Solid line
 72
    65
 73
     0
 40
0.0
  0
LTYPE
  2
DOT
 70
     0
  3
. . . . . . . . 
 72
    65
 73
     2
 40
1.0
 49
0.0
 49
-1.0
  0
LTYPE
  2
DASHED
 70
     0
  3
___  ___  ___  ___  
 72
    65
 73
     2
 40
4.0
 49
3.0
 49
-1.0
  0
LTYPE
  2
HIDDEN
 70
     0
  3
__ __ __ __ 
 72
    65
 73
     2
 40
3.0
 49
2.0
 49
-1.0
  0
LTYPE
  2
STITCH
 70
     0
  3
_ _ _ _ 
 72
    65
 73
     2
 40
2.0
 49
1.0
 49
-1.0
  0
LTYPE
  2
CENTER
 70
     0
  3
______  __  ______  __  
 72
    65
 73
     4
 40
43.0
 49
40.0
 49
-1.0
 49
1.0
 49
-1.0
  0
LTYPE
  2
DASHDOT
 70
     0
  3
____ . ____ . 
 72
    65
 73
     4
 40
32.0
 49
30.0
 49
-1.0
 49
0.0
 49
-1.0
  0
LTYPE
  2
BORDER
 70
     0
  3
__ . __ . 
 72
    65
 73
     4
 40
22.0
 49
20.0
 49
-1.0
 49
0.0
 49
-1.0
  0
LTYPE
  2
CUTTING
 70
     0
  3
________   ___   ___   
 72
    65
 73
     6
 40
45.0
 49
40.0
 49
-1.0
 49
1.0
 49
-1.0
 49
1.0
 49
-1.0
  0
LTYPE
  2
PHANTOM
 70
     0
  3
______  __  __  
 72
    65
 73
     6
 40
35.0
 49
30.0
 49
-1.0
 49
1.0
 49
-1.0
 49
1.0
 49
-1.0
  0
LTYPE
  2
DIVIDE
 70
     0
  3
____ . . ____ . . 
 72
    65
 73
     6
 40
23.0
 49
20.0
 49
-1.0
 49
0.0
 49
-1.0
 49
0.0
 49
-1.0
  0
ENDTAB
  0
TABLE
  2
LAYER
 70
     5
  0
LAYER
  2
0
 70
     0
 62
     7
  6
CONTINUOUS
  0
LAYER
  2
図枠
 70
     0
 62
     7
  6
CONTINUOUS
  0
LAYER
  2
ﾚｲﾔ_1
 70
     0
 62
     7
  6
CONTINUOUS
  0
LAYER
  2
寸法線
 70
     0
 62
     7
  6
CONTINUOUS
  0
LAYER
  2
DEFPOINTS
 70
     0
 62
     7
  6
CONTINUOUS
  0
ENDTAB
  0
TABLE
  2
STYLE
 70
     2
  0
STYLE
  2
STANDARD
 70
     0
 40
0.0
 41
1.0
 50
0.0
 71
     0
 42
0.0
  3
txt
  4
extfont
  0
STYLE
  2
ゴシック
 70
     0
 40
0.0
 41
1.0
 50
0.0
 71
     0
 42
1.7676767676767671
  3
txt
  4

  0
ENDTAB
  0
TABLE
  2
VIEW
 70
     0
  0
ENDTAB
  0
TABLE
  2
UCS
 70
     0
  0
ENDTAB
  0
TABLE
  2
APPID
 70
     2
  0
APPID
  2
ACAD
 70
     0
  0
APPID
  2
DCO15
 70
     0
  0
ENDTAB
  0
TABLE
  2
DIMSTYLE
 70
     6
  0
DIMSTYLE
  2
STANDARD
 70
     0
  3

  4

  5

  6

  7

 40
1.0
 41
0.18
 42
0.0625
 43
0.38
 44
0.18
 45
0.0
 46
0.0
 47
0.0
 48
0.0
140
0.18
141
0.09
142
0.0
143
25.399999999999999
144
1.0
145
0.0
146
1.0
147
0.09
 71
     0
 72
     0
 73
     1
 74
     1
 75
     0
 76
     0
 77
     0
 78
     0
170
     0
171
     2
172
     0
173
     0
174
     0
175
     0
176
     0
177
     0
178
     0
  0
DIMSTYLE
  2
VELDIM0
 70
     0
  3

  4

  5

  6

  7

 40
1.0
 41
4.5
 42
0.0625
 43
0.38
 44
1.0
 45
0.0
 46
5.0
 47
0.0
 48
0.0
140
4.4979165315999987
141
0.09
142
0.0
143
25.399999999999999
144
1.0
145
0.0
146
1.0
147
0.09
 71
     0
 72
     0
 73
     0
 74
     0
 75
     0
 76
     0
 77
     0
 78
     8
170
     0
171
     2
172
     0
173
     0
174
     0
175
     0
176
     0
177
     0
178
     0
  0
DIMSTYLE
  2
VELDIM1
 70
     0
  3

  4

  5

  6

  7

 40
1.0
 41
0.6428571343
 42
0.0625
 43
0.38
 44
0.4285714328
 45
0.0
 46
1.0714285373999981
 47
0.0
 48
0.0
140
0.5783035845000001
141
0.09
142
0.0
143
25.399999999999999
144
1.0
145
0.0
146
1.0
147
0.09
 71
     0
 72
     0
 73
     0
 74
     0
 75
     0
 76
     0
 77
     0
 78
     8
170
     0
171
     2
172
     0
173
     0
174
     0
175
     0
176
     0
177
     0
178
     0
  0
DIMSTYLE
  2
VELDIM2
 70
     0
  3

  4

  5

  6

  7

 40
1.0
 41
0.6428571343
 42
0.0625
 43
0.38
 44
1.25
 45
0.0
 46
5.0
 47
0.0
 48
0.0
140
0.5783035845000001
141
0.09
142
0.0
143
25.399999999999999
144
1.0
145
0.0
146
1.0
147
0.09
 71
     0
 72
     0
 73
     0
 74
     0
 75
     0
 76
     0
 77
     0
 78
     8
170
     0
171
     2
172
     0
173
     0
174
     0
175
     0
176
     0
177
     0
178
     0
  0
DIMSTYLE
  2
VELDIM3
 70
     0
  3

  4

  5

  6

  7

 40
1.0
 41
4.5
 42
0.0625
 43
0.38
 44
1.25
 45
0.0
 46
5.0
 47
0.0
 48
0.0
140
4.4979165315999987
141
0.09
142
0.0
143
25.399999999999999
144
1.0
145
0.0
146
1.0
147
0.09
 71
     0
 72
     0
 73
     0
 74
     0
 75
     0
 76
     0
 77
     0
 78
     8
170
     0
171
     2
172
     0
173
     0
174
     0
175
     0
176
     0
177
     0
178
     0
  0
DIMSTYLE
  2
基本_１_２_
 70
     0
  3

  4

  5

  6

  7

 40
0.0
 41
2.5
 42
2.5
 43
14.0
 44
2.0
 45
0.0
 46
0.0
 47
0.0
 48
0.0
140
5.0
141
2.0
142
0.0
143
0.0394
144
1.0
145
0.0
146
1.0
147
1.0
 71
     0
 72
     0
 73
     0
 74
     0
 75
     0
 76
     0
 77
     1
 78
     8
170
     0
171
     4
172
     1
173
     0
174
     0
175
     0
176
     4
177
     4
178
     4
  0
ENDTAB
  0
ENDSEC
  0
SECTION
  2
BLOCKS
  0
BLOCK
  8
0
  2
$MODEL_SPACE
 70
     0
 10
0.0
 20
0.0
 30
0.0
  3
$MODEL_SPACE
  1

  0
ENDBLK
  5
83E
  8
0
  0
BLOCK
 67
     1
  8
0
  2
$PAPER_SPACE
 70
     0
 10
0.0
 20
0.0
 30
0.0
  3
$PAPER_SPACE
  1

  0
ENDBLK
  5
83A
 67
     1
  8
0
  0
BLOCK
  8
0
  2
*D2
 70
     1
 10
0.0
 20
0.0
 30
0.0
  3
*D2
  1

  0
TEXT
  5
39
  8
0
 62
     0
 10
68.958007891999983
 20
74.860611955300001
 30
0.0
 40
4.4979165315999987
  1
60
  0
LINE
  5
3A
  8
0
 62
     0
 10
41.603841145799997
 20
81.066861979199999
 30
0.0
 11
41.603841145799997
 21
72.066861979199984
 31
0.0
  0
LINE
  5
3B
  8
0
 62
     0
 10
101.6038411458
 20
90.066861979199999
 30
0.0
 11
101.6038411458
 21
72.066861979199984
 31
0.0
  0
LINE
  5
3C
  8
0
 62
     0
 10
41.603841145799997
 20
73.066861979199999
 30
0.0
 11
76.895507653599992
 21
73.066861979199999
 31
0.0
  0
LINE
  5
3D
  8
0
 62
     0
 10
41.603841145799997
 20
73.066861979199999
 30
0.0
 11
66.312174638100004
 21
73.066861979199999
 31
0.0
  0
LINE
  5
3E
  8
0
 62
     0
 10
101.6038411458
 20
73.066861979199999
 30
0.0
 11
76.895507653599992
 21
73.066861979199999
 31
0.0
  0
LINE
  5
3F
  8
0
 62
     0
 10
101.6038411458
 20
73.066861979199999
 30
0.0
 11
66.312174638100004
 21
73.066861979199999
 31
0.0
  0
LINE
  5
40
  8
0
 62
     0
 10
101.6038411458
 20
73.066861979199999
 30
0.0
 11
96.603841145800004
 21
73.066861979199999
 31
0.0
  0
SOLID
  5
41
  8
0
 62
     0
 10
101.6038411458
 20
73.066861979199999
 30
0.0
 11
97.103841145800004
 21
71.941861979199999
 31
0.0
 12
97.103841145800004
 22
74.191861979199999
 32
0.0
 13
98.228841145800004
 23
73.066861979199999
 33
0.0
  0
LINE
  5
42
  8
0
 62
     0
 10
41.603841145799997
 20
73.066861979199999
 30
0.0
 11
46.603841145799997
 21
73.066861979199999
 31
0.0
  0
SOLID
  5
43
  8
0
 62
     0
 10
41.603841145799997
 20
73.066861979199999
 30
0.0
 11
46.10384114579999
 21
74.191861979199999
 31
0.0
 12
46.10384114579999
 22
71.941861979199999
 32
0.0
 13
44.978841145799983
 23
73.066861979199999
 33
0.0
  0
ENDBLK
  5
44
  8
0
  0
BLOCK
  8
0
  2
*D3
 70
     1
 10
0.0
 20
0.0
 30
0.0
  3
*D3
  1

  0
TEXT
  5
49
  8
0
 62
     0
 10
107.9121746381
 20
74.860611955300001
 30
0.0
 40
4.4979165315999987
  1
23.2
  0
LINE
  5
4A
  8
0
 62
     0
 10
101.6038411458
 20
90.066861979199999
 30
0.0
 11
101.6038411458
 21
72.066861979199984
 31
0.0
  0
LINE
  5
4B
  8
0
 62
     0
 10
124.80384114580001
 20
81.066861979199999
 30
0.0
 11
124.80384114580001
 21
72.066861979199984
 31
0.0
  0
LINE
  5
4C
  8
0
 62
     0
 10
101.6038411458
 20
73.066861979199999
 30
0.0
 11
121.14134090739999
 21
73.066861979199999
 31
0.0
  0
LINE
  5
4D
  8
0
 62
     0
 10
101.6038411458
 20
73.066861979199999
 30
0.0
 11
105.26634138430001
 21
73.066861979199999
 31
0.0
  0
LINE
  5
4E
  8
0
 62
     0
 10
124.80384114580001
 20
73.066861979199999
 30
0.0
 11
121.14134090739999
 21
73.066861979199999
 31
0.0
  0
LINE
  5
4F
  8
0
 62
     0
 10
124.80384114580001
 20
73.066861979199999
 30
0.0
 11
105.26634138430001
 21
73.066861979199999
 31
0.0
  0
LINE
  5
50
  8
0
 62
     0
 10
124.80384114580001
 20
73.066861979199999
 30
0.0
 11
129.80384114579999
 21
73.066861979199999
 31
0.0
  0
SOLID
  5
51
  8
0
 62
     0
 10
124.80384114580001
 20
73.066861979199999
 30
0.0
 11
129.30384114579999
 21
74.191861979199999
 31
0.0
 12
129.30384114579999
 22
71.941861979199999
 32
0.0
 13
128.17884114579999
 23
73.066861979199999
 33
0.0
  0
LINE
  5
52
  8
0
 62
     0
 10
101.6038411458
 20
73.066861979199999
 30
0.0
 11
96.603841145800004
 21
73.066861979199999
 31
0.0
  0
SOLID
  5
53
  8
0
 62
     0
 10
101.6038411458
 20
73.066861979199999
 30
0.0
 11
97.103841145800004
 21
71.941861979199999
 31
0.0
 12
97.103841145800004
 22
74.191861979199999
 32
0.0
 13
98.228841145800004
 23
73.066861979199999
 33
0.0
  0
ENDBLK
  5
54
  8
0
  0
BLOCK
  8
0
  2
*D4
 70
     1
 10
0.0
 20
0.0
 30
0.0
  3
*D4
  1

  0
TEXT
  5
58
  8
0
 62
     0
 10
29.810091169700002
 20
87.921028725300005
 30
0.0
 40
4.4979165315999987
  1
15
 50
90.0
  0
LINE
  5
59
  8
0
 62
     0
 10
93.603841145800004
 20
98.066861979200013
 30
0.0
 11
30.603841145800001
 21
98.066861979200013
 31
0.0
  0
LINE
  5
5A
  8
0
 62
     0
 10
39.603841145799997
 20
83.066861979199984
 30
0.0
 11
30.603841145800001
 21
83.066861979199984
 31
0.0
  0
LINE
  5
5B
  8
0
 62
     0
 10
31.603841145800001
 20
98.066861979200013
 30
0.0
 11
31.603841145800001
 21
95.858528486900013
 31
0.0
  0
LINE
  5
5C
  8
0
 62
     0
 10
31.603841145800001
 20
98.066861979200013
 30
0.0
 11
31.603841145800001
 21
85.275195471399982
 31
0.0
  0
LINE
  5
5D
  8
0
 62
     0
 10
31.603841145800001
 20
83.066861979199984
 30
0.0
 11
31.603841145800001
 21
95.858528486900013
 31
0.0
  0
LINE
  5
5E
  8
0
 62
     0
 10
31.603841145800001
 20
83.066861979199984
 30
0.0
 11
31.603841145800001
 21
85.275195471399982
 31
0.0
  0
LINE
  5
5F
  8
0
 62
     0
 10
31.603841145800001
 20
83.066861979199984
 30
0.0
 11
31.603841145800001
 21
78.066861979199999
 31
0.0
  0
SOLID
  5
60
  8
0
 62
     0
 10
31.603841145800001
 20
83.066861979199984
 30
0.0
 11
32.728841145799997
 21
78.566861979199999
 31
0.0
 12
30.478841145800001
 22
78.566861979199999
 32
0.0
 13
31.603841145800001
 23
79.691861979199999
 33
0.0
  0
LINE
  5
61
  8
0
 62
     0
 10
31.603841145800001
 20
98.066861979200013
 30
0.0
 11
31.603841145800001
 21
103.0668619792
 31
0.0
  0
SOLID
  5
62
  8
0
 62
     0
 10
31.603841145800001
 20
98.066861979200013
 30
0.0
 11
30.478841145800001
 21
102.5668619792
 31
0.0
 12
32.728841145799997
 22
102.5668619792
 32
0.0
 13
31.603841145800001
 23
101.4418619792
 33
0.0
  0
ENDBLK
  5
63
  8
0
  0
BLOCK
  8
0
  2
*D5
 70
     1
 10
0.0
 20
0.0
 30
0.0
  3
*D5
  1

  0
TEXT
  5
67
  8
0
 62
     0
 10
29.810091169700002
 20
102.9210287253
 30
0.0
 40
4.4979165315999987
  1
15
 50
90.0
  0
LINE
  5
68
  8
0
 62
     0
 10
39.603841145799997
 20
113.0668619792
 30
0.0
 11
30.603841145800001
 21
113.0668619792
 31
0.0
  0
LINE
  5
69
  8
0
 62
     0
 10
93.603841145800004
 20
98.066861979200013
 30
0.0
 11
30.603841145800001
 21
98.066861979200013
 31
0.0
  0
LINE
  5
6A
  8
0
 62
     0
 10
31.603841145800001
 20
113.0668619792
 30
0.0
 11
31.603841145800001
 21
110.8585284869
 31
0.0
  0
LINE
  5
6B
  8
0
 62
     0
 10
31.603841145800001
 20
113.0668619792
 30
0.0
 11
31.603841145800001
 21
100.2751954714
 31
0.0
  0
LINE
  5
6C
  8
0
 62
     0
 10
31.603841145800001
 20
98.066861979200013
 30
0.0
 11
31.603841145800001
 21
110.8585284869
 31
0.0
  0
LINE
  5
6D
  8
0
 62
     0
 10
31.603841145800001
 20
98.066861979200013
 30
0.0
 11
31.603841145800001
 21
100.2751954714
 31
0.0
  0
LINE
  5
6E
  8
0
 62
     0
 10
31.603841145800001
 20
98.066861979200013
 30
0.0
 11
31.603841145800001
 21
93.066861979199984
 31
0.0
  0
SOLID
  5
6F
  8
0
 62
     0
 10
31.603841145800001
 20
98.066861979200013
 30
0.0
 11
32.728841145799997
 21
93.566861979200013
 31
0.0
 12
30.478841145800001
 22
93.566861979200013
 32
0.0
 13
31.603841145800001
 23
94.691861979199999
 33
0.0
  0
LINE
  5
70
  8
0
 62
     0
 10
31.603841145800001
 20
113.0668619792
 30
0.0
 11
31.603841145800001
 21
118.0668619792
 31
0.0
  0
SOLID
  5
71
  8
0
 62
     0
 10
31.603841145800001
 20
113.0668619792
 30
0.0
 11
30.478841145800001
 21
117.5668619792
 31
0.0
 12
32.728841145799997
 22
117.5668619792
 32
0.0
 13
31.603841145800001
 23
116.4418619792
 33
0.0
  0
ENDBLK
  5
72
  8
0
  0
BLOCK
  8
0
  2
*D6
 70
     1
 10
0.0
 20
0.0
 30
0.0
  3
*D6
  1

  0
TEXT
  5
76
  8
0
 62
     0
 10
78.958007891999983
 20
129.86061195529999
 30
0.0
 40
4.4979165315999987
  1
80
  0
LINE
  5
77
  8
0
 62
     0
 10
121.6038411458
 20
115.0668619792
 30
0.0
 11
121.6038411458
 21
129.06686197920001
 31
0.0
  0
LINE
  5
78
  8
0
 62
     0
 10
41.603841145799997
 20
115.0668619792
 30
0.0
 11
41.603841145799997
 21
129.06686197920001
 31
0.0
  0
LINE
  5
79
  8
0
 62
     0
 10
121.6038411458
 20
128.06686197920001
 30
0.0
 11
86.895507653600006
 21
128.06686197920001
 31
0.0
  0
LINE
  5
7A
  8
0
 62
     0
 10
121.6038411458
 20
128.06686197920001
 30
0.0
 11
76.312174638100004
 21
128.06686197920001
 31
0.0
  0
LINE
  5
7B
  8
0
 62
     0
 10
41.603841145799997
 20
128.06686197920001
 30
0.0
 11
86.895507653600006
 21
128.06686197920001
 31
0.0
  0
LINE
  5
7C
  8
0
 62
     0
 10
41.603841145799997
 20
128.06686197920001
 30
0.0
 11
76.312174638100004
 21
128.06686197920001
 31
0.0
  0
LINE
  5
7D
  8
0
 62
     0
 10
41.603841145799997
 20
128.06686197920001
 30
0.0
 11
46.603841145799997
 21
128.06686197920001
 31
0.0
  0
SOLID
  5
7E
  8
0
 62
     0
 10
41.603841145799997
 20
128.06686197920001
 30
0.0
 11
46.10384114579999
 21
129.19186197920001
 31
0.0
 12
46.10384114579999
 22
126.9418619792
 32
0.0
 13
44.978841145799983
 23
128.06686197920001
 33
0.0
  0
LINE
  5
7F
  8
0
 62
     0
 10
121.6038411458
 20
128.06686197920001
 30
0.0
 11
116.6038411458
 21
128.06686197920001
 31
0.0
  0
SOLID
  5
80
  8
0
 62
     0
 10
121.6038411458
 20
128.06686197920001
 30
0.0
 11
117.1038411458
 21
126.9418619792
 31
0.0
 12
117.1038411458
 22
129.19186197920001
 32
0.0
 13
118.2288411458
 23
128.06686197920001
 33
0.0
  0
ENDBLK
  5
81
  8
0
  0
BLOCK
  8
0
  2
*D7
 70
     1
 10
0.0
 20
0.0
 30
0.0
  3
*D7
  1

  0
TEXT
  5
85
  8
0
 62
     0
 10
119.23509126499999
 20
129.86061195529999
 30
0.0
 40
4.4979165315999987
  1
3.2
  0
LINE
  5
86
  8
0
 62
     0
 10
124.80384114580001
 20
115.0668619792
 30
0.0
 11
124.80384114580001
 21
129.06686197920001
 31
0.0
  0
LINE
  5
87
  8
0
 62
     0
 10
121.6038411458
 20
115.0668619792
 30
0.0
 11
121.6038411458
 21
129.06686197920001
 31
0.0
  0
LINE
  5
88
  8
0
 62
     0
 10
124.80384114580001
 20
128.06686197920001
 30
0.0
 11
124.80384114580001
 21
128.06686197920001
 31
0.0
  0
LINE
  5
89
  8
0
 62
     0
 10
124.80384114580001
 20
128.06686197920001
 30
0.0
 11
121.6038411458
 21
128.06686197920001
 31
0.0
  0
LINE
  5
8A
  8
0
 62
     0
 10
121.6038411458
 20
128.06686197920001
 30
0.0
 11
124.80384114580001
 21
128.06686197920001
 31
0.0
  0
LINE
  5
8B
  8
0
 62
     0
 10
121.6038411458
 20
128.06686197920001
 30
0.0
 11
121.6038411458
 21
128.06686197920001
 31
0.0
  0
LINE
  5
8C
  8
0
 62
     0
 10
121.6038411458
 20
128.06686197920001
 30
0.0
 11
116.6038411458
 21
128.06686197920001
 31
0.0
  0
SOLID
  5
8D
  8
0
 62
     0
 10
121.6038411458
 20
128.06686197920001
 30
0.0
 11
117.1038411458
 21
126.9418619792
 31
0.0
 12
117.1038411458
 22
129.19186197920001
 32
0.0
 13
118.2288411458
 23
128.06686197920001
 33
0.0
  0
LINE
  5
8E
  8
0
 62
     0
 10
124.80384114580001
 20
128.06686197920001
 30
0.0
 11
129.80384114579999
 21
128.06686197920001
 31
0.0
  0
SOLID
  5
8F
  8
0
 62
     0
 10
124.80384114580001
 20
128.06686197920001
 30
0.0
 11
129.30384114579999
 21
129.19186197920001
 31
0.0
 12
129.30384114579999
 22
126.9418619792
 32
0.0
 13
128.17884114579999
 23
128.06686197920001
 33
0.0
  0
ENDBLK
  5
90
  8
0
  0
BLOCK
  8
0
  2
*D8
 70
     1
 10
0.0
 20
0.0
 30
0.0
  3
*D8
  1

  0
TEXT
  5
13A
  8
0
 62
     0
 10
-76.101554318699982
 20
73.782427105300002
 30
0.0
 40
4.4979165315999987
  1
13
  0
LINE
  5
13B
  8
0
 62
     0
 10
-79.955721064800002
 20
99.066861979200013
 30
0.0
 11
-79.955721064800002
 21
70.988677129199999
 31
0.0
  0
LINE
  5
13C
  8
0
 62
     0
 10
-66.955721064800002
 20
81.066861979199999
 30
0.0
 11
-66.955721064800002
 21
70.988677129199999
 31
0.0
  0
LINE
  5
13D
  8
0
 62
     0
 10
-79.955721064800002
 20
71.988677129199999
 30
0.0
 11
-68.164054557100002
 21
71.988677129199999
 31
0.0
  0
LINE
  5
13E
  8
0
 62
     0
 10
-79.955721064800002
 20
71.988677129199999
 30
0.0
 11
-78.747387572500003
 21
71.988677129199999
 31
0.0
  0
LINE
  5
13F
  8
0
 62
     0
 10
-66.955721064800002
 20
71.988677129199999
 30
0.0
 11
-68.164054557100002
 21
71.988677129199999
 31
0.0
  0
LINE
  5
140
  8
0
 62
     0
 10
-66.955721064800002
 20
71.988677129199999
 30
0.0
 11
-78.747387572500003
 21
71.988677129199999
 31
0.0
  0
LINE
  5
141
  8
0
 62
     0
 10
-66.955721064800002
 20
71.988677129199999
 30
0.0
 11
-61.955721064800002
 21
71.988677129199999
 31
0.0
  0
SOLID
  5
142
  8
0
 62
     0
 10
-66.955721064800002
 20
71.988677129199999
 30
0.0
 11
-62.455721064800002
 21
73.113677129199999
 31
0.0
 12
-62.455721064800002
 22
70.863677129199999
 32
0.0
 13
-63.580721064799988
 23
71.988677129199999
 33
0.0
  0
LINE
  5
143
  8
0
 62
     0
 10
-79.955721064800002
 20
71.988677129199999
 30
0.0
 11
-84.955721064800002
 21
71.988677129199999
 31
0.0
  0
SOLID
  5
144
  8
0
 62
     0
 10
-79.955721064800002
 20
71.988677129199999
 30
0.0
 11
-84.455721064800002
 21
70.863677129199999
 31
0.0
 12
-84.455721064800002
 22
73.113677129199999
 32
0.0
 13
-83.330721064800017
 23
71.988677129199999
 33
0.0
  0
ENDBLK
  5
145
  8
0
  0
BLOCK
  8
0
  2
*D9
 70
     1
 10
0.0
 20
0.0
 30
0.0
  3
*D9
  1

  0
TEXT
  5
149
  8
0
 62
     0
 10
-23.589440277600001
 20
108.7439453522
 30
0.0
 40
4.4979165315999987
  1
6
 50
90.0
  0
LINE
  5
14A
  8
0
 62
     0
 10
-71.955721064800002
 20
107.0668619792
 30
0.0
 11
-20.795690301499999
 21
107.0668619792
 31
0.0
  0
LINE
  5
14B
  8
0
 62
     0
 10
-47.955721064799988
 20
113.0668619792
 30
0.0
 11
-20.795690301499999
 21
113.0668619792
 31
0.0
  0
LINE
  5
14C
  8
0
 62
     0
 10
-21.795690301499999
 20
107.0668619792
 30
0.0
 11
-21.795690301499999
 21
107.0668619792
 31
0.0
  0
LINE
  5
14D
  8
0
 62
     0
 10
-21.795690301499999
 20
107.0668619792
 30
0.0
 11
-21.795690301499999
 21
113.0668619792
 31
0.0
  0
LINE
  5
14E
  8
0
 62
     0
 10
-21.795690301499999
 20
113.0668619792
 30
0.0
 11
-21.795690301499999
 21
107.0668619792
 31
0.0
  0
LINE
  5
14F
  8
0
 62
     0
 10
-21.795690301499999
 20
113.0668619792
 30
0.0
 11
-21.795690301499999
 21
113.0668619792
 31
0.0
  0
LINE
  5
150
  8
0
 62
     0
 10
-21.795690301499999
 20
113.0668619792
 30
0.0
 11
-21.795690301499999
 21
118.0668619792
 31
0.0
  0
SOLID
  5
151
  8
0
 62
     0
 10
-21.795690301499999
 20
113.0668619792
 30
0.0
 11
-22.920690301499999
 21
117.5668619792
 31
0.0
 12
-20.670690301499999
 22
117.5668619792
 32
0.0
 13
-21.795690301499999
 23
116.4418619792
 33
0.0
  0
LINE
  5
152
  8
0
 62
     0
 10
-21.795690301499999
 20
107.0668619792
 30
0.0
 11
-21.795690301499999
 21
102.0668619792
 31
0.0
  0
SOLID
  5
153
  8
0
 62
     0
 10
-21.795690301499999
 20
107.0668619792
 30
0.0
 11
-20.670690301499999
 21
102.5668619792
 31
0.0
 12
-22.920690301499999
 22
102.5668619792
 32
0.0
 13
-21.795690301499999
 23
103.6918619792
 33
0.0
  0
ENDBLK
  5
154
  8
0
  0
BLOCK
  8
0
  2
*D10
 70
     1
 10
0.0
 20
0.0
 30
0.0
  3
*D10
  1

  0
TEXT
  5
158
  8
0
 62
     0
 10
-33.888771952600003
 20
113.8811574746
 30
0.0
 40
4.4979165315999987
  1
12.75
 50
90.0
  0
LINE
  5
159
  8
0
 62
     0
 10
-63.205721064800002
 20
100.3168619792
 30
0.0
 11
-31.095021976400002
 21
100.3168619792
 31
0.0
  0
LINE
  5
15A
  8
0
 62
     0
 10
-47.955721064799988
 20
113.0668619792
 30
0.0
 11
-31.095021976400002
 21
113.0668619792
 31
0.0
  0
LINE
  5
15B
  8
0
 62
     0
 10
-32.095021976399998
 20
100.3168619792
 30
0.0
 11
-32.095021976399998
 21
129.7561569977
 31
0.0
  0
LINE
  5
15C
  8
0
 62
     0
 10
-32.095021976399998
 20
100.3168619792
 30
0.0
 11
-32.095021976399998
 21
111.23532422069999
 31
0.0
  0
LINE
  5
15D
  8
0
 62
     0
 10
-32.095021976399998
 20
113.0668619792
 30
0.0
 11
-32.095021976399998
 21
129.7561569977
 31
0.0
  0
LINE
  5
15E
  8
0
 62
     0
 10
-32.095021976399998
 20
113.0668619792
 30
0.0
 11
-32.095021976399998
 21
111.23532422069999
 31
0.0
  0
LINE
  5
15F
  8
0
 62
     0
 10
-32.095021976399998
 20
113.0668619792
 30
0.0
 11
-32.095021976399998
 21
108.0668619792
 31
0.0
  0
SOLID
  5
160
  8
0
 62
     0
 10
-32.095021976399998
 20
113.0668619792
 30
0.0
 11
-30.970021976400002
 21
108.5668619792
 31
0.0
 12
-33.220021976399998
 22
108.5668619792
 32
0.0
 13
-32.095021976399998
 23
109.6918619792
 33
0.0
  0
LINE
  5
161
  8
0
 62
     0
 10
-32.095021976399998
 20
100.3168619792
 30
0.0
 11
-32.095021976399998
 21
105.3168619792
 31
0.0
  0
SOLID
  5
162
  8
0
 62
     0
 10
-32.095021976399998
 20
100.3168619792
 30
0.0
 11
-33.220021976399998
 21
104.8168619792
 31
0.0
 12
-30.970021976400002
 22
104.8168619792
 32
0.0
 13
-32.095021976399998
 23
103.6918619792
 33
0.0
  0
ENDBLK
  5
163
  8
0
  0
BLOCK
  8
0
  2
*D11
 70
     1
 10
0.0
 20
0.0
 30
0.0
  3
*D11
  1

  0
TEXT
  5
167
  8
0
 62
     0
 10
-115.5244709456
 20
141.9958627924
 30
0.0
 40
4.4979165315999987
  1
3.2
  0
LINE
  5
168
  8
0
 62
     0
 10
-109.9557210648
 20
115.0668619792
 30
0.0
 11
-109.9557210648
 21
141.20211281620001
 31
0.0
  0
LINE
  5
169
  8
0
 62
     0
 10
-113.15572106480001
 20
115.0668619792
 30
0.0
 11
-113.15572106480001
 21
141.20211281620001
 31
0.0
  0
LINE
  5
16A
  8
0
 62
     0
 10
-109.9557210648
 20
140.20211281620001
 30
0.0
 11
-109.9557210648
 21
140.20211281620001
 31
0.0
  0
LINE
  5
16B
  8
0
 62
     0
 10
-109.9557210648
 20
140.20211281620001
 30
0.0
 11
-113.15572106480001
 21
140.20211281620001
 31
0.0
  0
LINE
  5
16C
  8
0
 62
     0
 10
-113.15572106480001
 20
140.20211281620001
 30
0.0
 11
-109.9557210648
 21
140.20211281620001
 31
0.0
  0
LINE
  5
16D
  8
0
 62
     0
 10
-113.15572106480001
 20
140.20211281620001
 30
0.0
 11
-113.15572106480001
 21
140.20211281620001
 31
0.0
  0
LINE
  5
16E
  8
0
 62
     0
 10
-113.15572106480001
 20
140.20211281620001
 30
0.0
 11
-118.15572106480001
 21
140.20211281620001
 31
0.0
  0
SOLID
  5
16F
  8
0
 62
     0
 10
-113.15572106480001
 20
140.20211281620001
 30
0.0
 11
-117.65572106480001
 21
139.07711281620001
 31
0.0
 12
-117.65572106480001
 22
141.32711281620001
 32
0.0
 13
-116.53072106480001
 23
140.20211281620001
 33
0.0
  0
LINE
  5
170
  8
0
 62
     0
 10
-109.9557210648
 20
140.20211281620001
 30
0.0
 11
-104.9557210648
 21
140.20211281620001
 31
0.0
  0
SOLID
  5
171
  8
0
 62
     0
 10
-109.9557210648
 20
140.20211281620001
 30
0.0
 11
-105.4557210648
 21
141.32711281620001
 31
0.0
 12
-105.4557210648
 22
139.07711281620001
 32
0.0
 13
-106.5807210648
 23
140.20211281620001
 33
0.0
  0
ENDBLK
  5
172
  8
0
  0
BLOCK
  8
0
  2
*D12
 70
     1
 10
0.0
 20
0.0
 30
0.0
  3
*D12
  1

  0
TEXT
  5
176
  8
0
 62
     0
 10
-82.601554318699982
 20
141.9958627924
 30
0.0
 40
4.4979165315999987
  1
60
  0
LINE
  5
177
  8
0
 62
     0
 10
-49.955721064800002
 20
115.0668619792
 30
0.0
 11
-49.955721064800002
 21
141.20211281620001
 31
0.0
  0
LINE
  5
178
  8
0
 62
     0
 10
-109.9557210648
 20
115.0668619792
 30
0.0
 11
-109.9557210648
 21
141.20211281620001
 31
0.0
  0
LINE
  5
179
  8
0
 62
     0
 10
-49.955721064800002
 20
140.20211281620001
 30
0.0
 11
-74.664054557100002
 21
140.20211281620001
 31
0.0
  0
LINE
  5
17A
  8
0
 62
     0
 10
-49.955721064800002
 20
140.20211281620001
 30
0.0
 11
-85.247387572500003
 21
140.20211281620001
 31
0.0
  0
LINE
  5
17B
  8
0
 62
     0
 10
-109.9557210648
 20
140.20211281620001
 30
0.0
 11
-74.664054557100002
 21
140.20211281620001
 31
0.0
  0
LINE
  5
17C
  8
0
 62
     0
 10
-109.9557210648
 20
140.20211281620001
 30
0.0
 11
-85.247387572500003
 21
140.20211281620001
 31
0.0
  0
LINE
  5
17D
  8
0
 62
     0
 10
-109.9557210648
 20
140.20211281620001
 30
0.0
 11
-104.9557210648
 21
140.20211281620001
 31
0.0
  0
SOLID
  5
17E
  8
0
 62
     0
 10
-109.9557210648
 20
140.20211281620001
 30
0.0
 11
-105.4557210648
 21
141.32711281620001
 31
0.0
 12
-105.4557210648
 22
139.07711281620001
 32
0.0
 13
-106.5807210648
 23
140.20211281620001
 33
0.0
  0
LINE
  5
17F
  8
0
 62
     0
 10
-49.955721064800002
 20
140.20211281620001
 30
0.0
 11
-54.955721064800002
 21
140.20211281620001
 31
0.0
  0
SOLID
  5
180
  8
0
 62
     0
 10
-49.955721064800002
 20
140.20211281620001
 30
0.0
 11
-54.455721064800002
 21
139.07711281620001
 31
0.0
 12
-54.455721064800002
 22
141.32711281620001
 32
0.0
 13
-53.330721064799988
 23
140.20211281620001
 33
0.0
  0
ENDBLK
  5
181
  8
0
  0
BLOCK
  8
0
  2
*D13
 70
     1
 10
0.0
 20
0.0
 30
0.0
  3
*D13
  1

  0
TEXT
  5
185
  8
0
 62
     0
 10
-23.589440277600001
 20
95.421028725300005
 30
0.0
 40
4.4979165315999987
  1
18
 50
90.0
  0
LINE
  5
186
  8
0
 62
     0
 10
-58.955721064799988
 20
89.066861979199999
 30
0.0
 11
-20.795690301499999
 21
89.066861979199999
 31
0.0
  0
LINE
  5
187
  8
0
 62
     0
 10
-71.955721064800002
 20
107.0668619792
 30
0.0
 11
-20.795690301499999
 21
107.0668619792
 31
0.0
  0
LINE
  5
188
  8
0
 62
     0
 10
-21.795690301499999
 20
89.066861979199999
 30
0.0
 11
-21.795690301499999
 21
103.3585284869
 31
0.0
  0
LINE
  5
189
  8
0
 62
     0
 10
-21.795690301499999
 20
89.066861979199999
 30
0.0
 11
-21.795690301499999
 21
92.775195471399996
 31
0.0
  0
LINE
  5
18A
  8
0
 62
     0
 10
-21.795690301499999
 20
107.0668619792
 30
0.0
 11
-21.795690301499999
 21
103.3585284869
 31
0.0
  0
LINE
  5
18B
  8
0
 62
     0
 10
-21.795690301499999
 20
107.0668619792
 30
0.0
 11
-21.795690301499999
 21
92.775195471399996
 31
0.0
  0
LINE
  5
18C
  8
0
 62
     0
 10
-21.795690301499999
 20
107.0668619792
 30
0.0
 11
-21.795690301499999
 21
112.0668619792
 31
0.0
  0
SOLID
  5
18D
  8
0
 62
     0
 10
-21.795690301499999
 20
107.0668619792
 30
0.0
 11
-22.920690301499999
 21
111.5668619792
 31
0.0
 12
-20.670690301499999
 22
111.5668619792
 32
0.0
 13
-21.795690301499999
 23
110.4418619792
 33
0.0
  0
LINE
  5
18E
  8
0
 62
     0
 10
-21.795690301499999
 20
89.066861979199999
 30
0.0
 11
-21.795690301499999
 21
84.066861979199999
 31
0.0
  0
SOLID
  5
18F
  8
0
 62
     0
 10
-21.795690301499999
 20
89.066861979199999
 30
0.0
 11
-20.670690301499999
 21
84.566861979199984
 31
0.0
 12
-22.920690301499999
 22
84.566861979199984
 32
0.0
 13
-21.795690301499999
 23
85.691861979199999
 33
0.0
  0
ENDBLK
  5
190
  8
0
  0
BLOCK
  8
0
  2
*D14
 70
     1
 10
0.0
 20
0.0
 30
0.0
  3
*D14
  1

  0
TEXT
  5
1B7
  8
0
 62
     0
 10
-33.888771952600003
 20
68.221904791499995
 30
0.0
 40
4.4979165315999987
  1
12.75
 50
90.0
  0
LINE
  5
1B8
  8
0
 62
     0
 10
-47.955721064799988
 20
83.066861979199984
 30
0.0
 11
-31.095021976400002
 21
83.066861979199984
 31
0.0
  0
LINE
  5
1B9
  8
0
 62
     0
 10
-63.205721064800002
 20
95.816861979199984
 30
0.0
 11
-31.095021976400002
 21
95.816861979199984
 31
0.0
  0
LINE
  5
1BA
  8
0
 62
     0
 10
-32.095021976399998
 20
83.066861979199984
 30
0.0
 11
-32.095021976399998
 21
84.096904314599968
 31
0.0
  0
LINE
  5
1BB
  8
0
 62
     0
 10
-32.095021976399998
 20
83.066861979199984
 30
0.0
 11
-32.095021976399998
 21
65.576071537600001
 31
0.0
  0
LINE
  5
1BC
  8
0
 62
     0
 10
-32.095021976399998
 20
95.816861979199984
 30
0.0
 11
-32.095021976399998
 21
84.096904314599968
 31
0.0
  0
LINE
  5
1BD
  8
0
 62
     0
 10
-32.095021976399998
 20
95.816861979199984
 30
0.0
 11
-32.095021976399998
 21
65.576071537600001
 31
0.0
  0
LINE
  5
1BE
  8
0
 62
     0
 10
-32.095021976399998
 20
95.816861979199984
 30
0.0
 11
-32.095021976399998
 21
90.816861979199984
 31
0.0
  0
SOLID
  5
1BF
  8
0
 62
     0
 10
-32.095021976399998
 20
95.816861979199984
 30
0.0
 11
-30.970021976400002
 21
91.316861979200013
 31
0.0
 12
-33.220021976399998
 22
91.316861979200013
 32
0.0
 13
-32.095021976399998
 23
92.441861979199984
 33
0.0
  0
LINE
  5
1C0
  8
0
 62
     0
 10
-32.095021976399998
 20
83.066861979199984
 30
0.0
 11
-32.095021976399998
 21
88.066861979199984
 31
0.0
  0
SOLID
  5
1C1
  8
0
 62
     0
 10
-32.095021976399998
 20
83.066861979199984
 30
0.0
 11
-33.220021976399998
 21
87.566861979199999
 31
0.0
 12
-30.970021976400002
 22
87.566861979199999
 32
0.0
 13
-32.095021976399998
 23
86.441861979199984
 33
0.0
  0
ENDBLK
  5
1C2
  8
0
  0
BLOCK
  8
0
  2
*D15
 70
     1
 10
0.0
 20
0.0
 30
0.0
  3
*D15
  1

  0
TEXT
  5
1C6
  8
0
 62
     0
 10
-124.949471041
 20
95.421028725300005
 30
0.0
 40
4.4979165315999987
  1
30
 50
90.0
  0
LINE
  5
1C7
  8
0
 62
     0
 10
-115.15572106480001
 20
113.0668619792
 30
0.0
 11
-124.15572106480001
 21
113.0668619792
 31
0.0
  0
LINE
  5
1C8
  8
0
 62
     0
 10
-115.15572106480001
 20
83.066861979199984
 30
0.0
 11
-124.15572106480001
 21
83.066861979199984
 31
0.0
  0
LINE
  5
1C9
  8
0
 62
     0
 10
-123.15572106480001
 20
113.0668619792
 30
0.0
 11
-123.15572106480001
 21
103.3585284869
 31
0.0
  0
LINE
  5
1CA
  8
0
 62
     0
 10
-123.15572106480001
 20
113.0668619792
 30
0.0
 11
-123.15572106480001
 21
92.775195471399996
 31
0.0
  0
LINE
  5
1CB
  8
0
 62
     0
 10
-123.15572106480001
 20
83.066861979199984
 30
0.0
 11
-123.15572106480001
 21
103.3585284869
 31
0.0
  0
LINE
  5
1CC
  8
0
 62
     0
 10
-123.15572106480001
 20
83.066861979199984
 30
0.0
 11
-123.15572106480001
 21
92.775195471399996
 31
0.0
  0
LINE
  5
1CD
  8
0
 62
     0
 10
-123.15572106480001
 20
83.066861979199984
 30
0.0
 11
-123.15572106480001
 21
88.066861979199984
 31
0.0
  0
SOLID
  5
1CE
  8
0
 62
     0
 10
-123.15572106480001
 20
83.066861979199984
 30
0.0
 11
-124.28072106480001
 21
87.566861979199999
 31
0.0
 12
-122.03072106480001
 22
87.566861979199999
 32
0.0
 13
-123.15572106480001
 23
86.441861979199984
 33
0.0
  0
LINE
  5
1CF
  8
0
 62
     0
 10
-123.15572106480001
 20
113.0668619792
 30
0.0
 11
-123.15572106480001
 21
108.0668619792
 31
0.0
  0
SOLID
  5
1D0
  8
0
 62
     0
 10
-123.15572106480001
 20
113.0668619792
 30
0.0
 11
-122.03072106480001
 21
108.5668619792
 31
0.0
 12
-124.28072106480001
 22
108.5668619792
 32
0.0
 13
-123.15572106480001
 23
109.6918619792
 33
0.0
  0
ENDBLK
  5
1D1
  8
0
  0
BLOCK
  8
0
  2
*D16
 70
     1
 10
0.0
 20
0.0
 30
0.0
  3
*D16
  1

  0
TEXT
  5
1D5
  8
0
 62
     0
 10
-82.101554318699968
 20
129.86061195529999
 30
0.0
 40
4.4979165315999987
  1
33
  0
LINE
  5
1D6
  8
0
 62
     0
 10
-62.955721064799988
 20
100.0668619792
 30
0.0
 11
-62.955721064799988
 21
129.06686197920001
 31
0.0
  0
LINE
  5
1D7
  8
0
 62
     0
 10
-95.955721064800002
 20
100.0668619792
 30
0.0
 11
-95.955721064800002
 21
129.06686197920001
 31
0.0
  0
LINE
  5
1D8
  8
0
 62
     0
 10
-62.955721064799988
 20
128.06686197920001
 30
0.0
 11
-74.164054557100002
 21
128.06686197920001
 31
0.0
  0
LINE
  5
1D9
  8
0
 62
     0
 10
-62.955721064799988
 20
128.06686197920001
 30
0.0
 11
-84.747387572499989
 21
128.06686197920001
 31
0.0
  0
LINE
  5
1DA
  8
0
 62
     0
 10
-95.955721064800002
 20
128.06686197920001
 30
0.0
 11
-74.164054557100002
 21
128.06686197920001
 31
0.0
  0
LINE
  5
1DB
  8
0
 62
     0
 10
-95.955721064800002
 20
128.06686197920001
 30
0.0
 11
-84.747387572499989
 21
128.06686197920001
 31
0.0
  0
LINE
  5
1DC
  8
0
 62
     0
 10
-95.955721064800002
 20
128.06686197920001
 30
0.0
 11
-90.955721064800002
 21
128.06686197920001
 31
0.0
  0
SOLID
  5
1DD
  8
0
 62
     0
 10
-95.955721064800002
 20
128.06686197920001
 30
0.0
 11
-91.455721064800017
 21
129.19186197920001
 31
0.0
 12
-91.455721064800017
 22
126.9418619792
 32
0.0
 13
-92.580721064800002
 23
128.06686197920001
 33
0.0
  0
LINE
  5
1DE
  8
0
 62
     0
 10
-62.955721064799988
 20
128.06686197920001
 30
0.0
 11
-67.955721064800002
 21
128.06686197920001
 31
0.0
  0
SOLID
  5
1DF
  8
0
 62
     0
 10
-62.955721064799988
 20
128.06686197920001
 30
0.0
 11
-67.455721064800002
 21
126.9418619792
 31
0.0
 12
-67.455721064800002
 22
129.19186197920001
 32
0.0
 13
-66.330721064800002
 23
128.06686197920001
 33
0.0
  0
ENDBLK
  5
1E0
  8
0
  0
BLOCK
  8
0
  2
*D17
 70
     1
 10
0.0
 20
0.0
 30
0.0
  3
*D17
  1

  0
TEXT
  5
1E4
  8
0
 62
     0
 10
-59.101554318699982
 20
129.86061195529999
 30
0.0
 40
4.4979165315999987
  1
13
  0
LINE
  5
1E5
  8
0
 62
     0
 10
-49.955721064800002
 20
115.0668619792
 30
0.0
 11
-49.955721064800002
 21
129.06686197920001
 31
0.0
  0
LINE
  5
1E6
  8
0
 62
     0
 10
-62.955721064799988
 20
100.0668619792
 30
0.0
 11
-62.955721064799988
 21
129.06686197920001
 31
0.0
  0
LINE
  5
1E7
  8
0
 62
     0
 10
-49.955721064800002
 20
128.06686197920001
 30
0.0
 11
-51.164054557100002
 21
128.06686197920001
 31
0.0
  0
LINE
  5
1E8
  8
0
 62
     0
 10
-49.955721064800002
 20
128.06686197920001
 30
0.0
 11
-61.747387572500003
 21
128.06686197920001
 31
0.0
  0
LINE
  5
1E9
  8
0
 62
     0
 10
-62.955721064799988
 20
128.06686197920001
 30
0.0
 11
-51.164054557100002
 21
128.06686197920001
 31
0.0
  0
LINE
  5
1EA
  8
0
 62
     0
 10
-62.955721064799988
 20
128.06686197920001
 30
0.0
 11
-61.747387572500003
 21
128.06686197920001
 31
0.0
  0
LINE
  5
1EB
  8
0
 62
     0
 10
-62.955721064799988
 20
128.06686197920001
 30
0.0
 11
-67.955721064800002
 21
128.06686197920001
 31
0.0
  0
SOLID
  5
1EC
  8
0
 62
     0
 10
-62.955721064799988
 20
128.06686197920001
 30
0.0
 11
-67.455721064800002
 21
126.9418619792
 31
0.0
 12
-67.455721064800002
 22
129.19186197920001
 32
0.0
 13
-66.330721064800002
 23
128.06686197920001
 33
0.0
  0
LINE
  5
1ED
  8
0
 62
     0
 10
-49.955721064800002
 20
128.06686197920001
 30
0.0
 11
-44.955721064800002
 21
128.06686197920001
 31
0.0
  0
SOLID
  5
1EE
  8
0
 62
     0
 10
-49.955721064800002
 20
128.06686197920001
 30
0.0
 11
-45.455721064799988
 21
129.19186197920001
 31
0.0
 12
-45.455721064799988
 22
126.9418619792
 32
0.0
 13
-46.580721064799988
 23
128.06686197920001
 33
0.0
  0
ENDBLK
  5
1EF
  8
0
  0
BLOCK
  8
0
  2
*D18
 70
     1
 10
0.0
 20
0.0
 30
0.0
  3
*D18
  1

  0
TEXT
  5
1F3
  8
0
 62
     0
 10
-61.101554318699989
 20
73.782427105300002
 30
0.0
 40
4.4979165315999987
  1
17
  0
LINE
  5
1F4
  8
0
 62
     0
 10
-66.955721064800002
 20
81.066861979199999
 30
0.0
 11
-66.955721064800002
 21
70.988677129199999
 31
0.0
  0
LINE
  5
1F5
  8
0
 62
     0
 10
-49.955721064800002
 20
81.066861979199999
 30
0.0
 11
-49.955721064800002
 21
70.988677129199999
 31
0.0
  0
LINE
  5
1F6
  8
0
 62
     0
 10
-66.955721064800002
 20
71.988677129199999
 30
0.0
 11
-53.164054557100002
 21
71.988677129199999
 31
0.0
  0
LINE
  5
1F7
  8
0
 62
     0
 10
-66.955721064800002
 20
71.988677129199999
 30
0.0
 11
-63.747387572500003
 21
71.988677129199999
 31
0.0
  0
LINE
  5
1F8
  8
0
 62
     0
 10
-49.955721064800002
 20
71.988677129199999
 30
0.0
 11
-53.164054557100002
 21
71.988677129199999
 31
0.0
  0
LINE
  5
1F9
  8
0
 62
     0
 10
-49.955721064800002
 20
71.988677129199999
 30
0.0
 11
-63.747387572500003
 21
71.988677129199999
 31
0.0
  0
LINE
  5
1FA
  8
0
 62
     0
 10
-49.955721064800002
 20
71.988677129199999
 30
0.0
 11
-44.955721064800002
 21
71.988677129199999
 31
0.0
  0
SOLID
  5
1FB
  8
0
 62
     0
 10
-49.955721064800002
 20
71.988677129199999
 30
0.0
 11
-45.455721064799988
 21
73.113677129199999
 31
0.0
 12
-45.455721064799988
 22
70.863677129199999
 32
0.0
 13
-46.580721064799988
 23
71.988677129199999
 33
0.0
  0
LINE
  5
1FC
  8
0
 62
     0
 10
-66.955721064800002
 20
71.988677129199999
 30
0.0
 11
-71.955721064800002
 21
71.988677129199999
 31
0.0
  0
SOLID
  5
1FD
  8
0
 62
     0
 10
-66.955721064800002
 20
71.988677129199999
 30
0.0
 11
-71.455721064800002
 21
70.863677129199999
 31
0.0
 12
-71.455721064800002
 22
73.113677129199999
 32
0.0
 13
-70.330721064800002
 23
71.988677129199999
 33
0.0
  0
ENDBLK
  5
1FE
  8
0
  0
BLOCK
  8
0
  2
*D19
 70
     1
 10
0.0
 20
0.0
 30
0.0
  3
*D19
  1

  0
TEXT
  5
202
  8
0
 62
     0
 10
-33.888771952600003
 20
94.098112098399994
 30
0.0
 40
4.4979165315999987
  1
4.5
 50
90.0
  0
LINE
  5
203
  8
0
 62
     0
 10
-63.205721064800002
 20
95.816861979199984
 30
0.0
 11
-31.095021976400002
 21
95.816861979199984
 31
0.0
  0
LINE
  5
204
  8
0
 62
     0
 10
-63.205721064800002
 20
100.3168619792
 30
0.0
 11
-31.095021976400002
 21
100.3168619792
 31
0.0
  0
LINE
  5
205
  8
0
 62
     0
 10
-32.095021976399998
 20
95.816861979199984
 30
0.0
 11
-32.095021976399998
 21
95.816861979199984
 31
0.0
  0
LINE
  5
206
  8
0
 62
     0
 10
-32.095021976399998
 20
95.816861979199984
 30
0.0
 11
-32.095021976399998
 21
100.3168619792
 31
0.0
  0
LINE
  5
207
  8
0
 62
     0
 10
-32.095021976399998
 20
100.3168619792
 30
0.0
 11
-32.095021976399998
 21
95.816861979199984
 31
0.0
  0
LINE
  5
208
  8
0
 62
     0
 10
-32.095021976399998
 20
100.3168619792
 30
0.0
 11
-32.095021976399998
 21
100.3168619792
 31
0.0
  0
LINE
  5
209
  8
0
 62
     0
 10
-32.095021976399998
 20
100.3168619792
 30
0.0
 11
-32.095021976399998
 21
105.3168619792
 31
0.0
  0
SOLID
  5
20A
  8
0
 62
     0
 10
-32.095021976399998
 20
100.3168619792
 30
0.0
 11
-33.220021976399998
 21
104.8168619792
 31
0.0
 12
-30.970021976400002
 22
104.8168619792
 32
0.0
 13
-32.095021976399998
 23
103.6918619792
 33
0.0
  0
LINE
  5
20B
  8
0
 62
     0
 10
-32.095021976399998
 20
95.816861979199984
 30
0.0
 11
-32.095021976399998
 21
90.816861979199984
 31
0.0
  0
SOLID
  5
20C
  8
0
 62
     0
 10
-32.095021976399998
 20
95.816861979199984
 30
0.0
 11
-30.970021976400002
 21
91.316861979200013
 31
0.0
 12
-33.220021976399998
 22
91.316861979200013
 32
0.0
 13
-32.095021976399998
 23
92.441861979199984
 33
0.0
  0
ENDBLK
  5
20D
  8
0
  0
BLOCK
  8
0
  2
*D20
 70
     1
 10
0.0
 20
0.0
 30
0.0
  3
*D20
  1

  0
TEXT
  5
211
  8
0
 62
     0
 10
-23.589440277600001
 20
84.743945352200001
 30
0.0
 40
4.4979165315999987
  1
6
 50
90.0
  0
LINE
  5
212
  8
0
 62
     0
 10
-47.955721064799988
 20
83.066861979199984
 30
0.0
 11
-20.795690301499999
 21
83.066861979199984
 31
0.0
  0
LINE
  5
213
  8
0
 62
     0
 10
-58.955721064799988
 20
89.066861979199999
 30
0.0
 11
-20.795690301499999
 21
89.066861979199999
 31
0.0
  0
LINE
  5
214
  8
0
 62
     0
 10
-21.795690301499999
 20
83.066861979199984
 30
0.0
 11
-21.795690301499999
 21
83.066861979199984
 31
0.0
  0
LINE
  5
215
  8
0
 62
     0
 10
-21.795690301499999
 20
83.066861979199984
 30
0.0
 11
-21.795690301499999
 21
89.066861979199999
 31
0.0
  0
LINE
  5
216
  8
0
 62
     0
 10
-21.795690301499999
 20
89.066861979199999
 30
0.0
 11
-21.795690301499999
 21
83.066861979199984
 31
0.0
  0
LINE
  5
217
  8
0
 62
     0
 10
-21.795690301499999
 20
89.066861979199999
 30
0.0
 11
-21.795690301499999
 21
89.066861979199999
 31
0.0
  0
LINE
  5
218
  8
0
 62
     0
 10
-21.795690301499999
 20
89.066861979199999
 30
0.0
 11
-21.795690301499999
 21
94.066861979199999
 31
0.0
  0
SOLID
  5
219
  8
0
 62
     0
 10
-21.795690301499999
 20
89.066861979199999
 30
0.0
 11
-22.920690301499999
 21
93.566861979200013
 31
0.0
 12
-20.670690301499999
 22
93.566861979200013
 32
0.0
 13
-21.795690301499999
 23
92.441861979199984
 33
0.0
  0
LINE
  5
21A
  8
0
 62
     0
 10
-21.795690301499999
 20
83.066861979199984
 30
0.0
 11
-21.795690301499999
 21
78.066861979199999
 31
0.0
  0
SOLID
  5
21B
  8
0
 62
     0
 10
-21.795690301499999
 20
83.066861979199984
 30
0.0
 11
-20.670690301499999
 21
78.566861979199999
 31
0.0
 12
-22.920690301499999
 22
78.566861979199999
 32
0.0
 13
-21.795690301499999
 23
79.691861979199999
 33
0.0
  0
ENDBLK
  5
21C
  8
0
  0
BLOCK
  8
0
  2
*D21
 70
     1
 10
0.0
 20
0.0
 30
0.0
  3
*D21
  1

  0
TEXT
  5
220
  8
0
 62
     0
 10
-105.6015543187
 20
129.86061195529999
 30
0.0
 40
4.4979165315999987
  1
14
  0
LINE
  5
221
  8
0
 62
     0
 10
-95.955721064800002
 20
100.0668619792
 30
0.0
 11
-95.955721064800002
 21
129.06686197920001
 31
0.0
  0
LINE
  5
222
  8
0
 62
     0
 10
-109.9557210648
 20
115.0668619792
 30
0.0
 11
-109.9557210648
 21
129.06686197920001
 31
0.0
  0
LINE
  5
223
  8
0
 62
     0
 10
-95.955721064800002
 20
128.06686197920001
 30
0.0
 11
-97.664054557100002
 21
128.06686197920001
 31
0.0
  0
LINE
  5
224
  8
0
 62
     0
 10
-95.955721064800002
 20
128.06686197920001
 30
0.0
 11
-108.2473875725
 21
128.06686197920001
 31
0.0
  0
LINE
  5
225
  8
0
 62
     0
 10
-109.9557210648
 20
128.06686197920001
 30
0.0
 11
-97.664054557100002
 21
128.06686197920001
 31
0.0
  0
LINE
  5
226
  8
0
 62
     0
 10
-109.9557210648
 20
128.06686197920001
 30
0.0
 11
-108.2473875725
 21
128.06686197920001
 31
0.0
  0
LINE
  5
227
  8
0
 62
     0
 10
-109.9557210648
 20
128.06686197920001
 30
0.0
 11
-114.9557210648
 21
128.06686197920001
 31
0.0
  0
SOLID
  5
228
  8
0
 62
     0
 10
-109.9557210648
 20
128.06686197920001
 30
0.0
 11
-114.4557210648
 21
126.9418619792
 31
0.0
 12
-114.4557210648
 22
129.19186197920001
 32
0.0
 13
-113.3307210648
 23
128.06686197920001
 33
0.0
  0
LINE
  5
229
  8
0
 62
     0
 10
-95.955721064800002
 20
128.06686197920001
 30
0.0
 11
-90.955721064800002
 21
128.06686197920001
 31
0.0
  0
SOLID
  5
22A
  8
0
 62
     0
 10
-95.955721064800002
 20
128.06686197920001
 30
0.0
 11
-91.455721064800017
 21
129.19186197920001
 31
0.0
 12
-91.455721064800017
 22
126.9418619792
 32
0.0
 13
-92.580721064800002
 23
128.06686197920001
 33
0.0
  0
ENDBLK
  5
22B
  8
0
  0
BLOCK
  8
0
  2
*D22
 70
     1
 10
0.0
 20
0.0
 30
0.0
  3
*D22
  1

  0
TEXT
  5
22F
  8
0
 62
     0
 10
-97.601554318700025
 20
73.782427105300002
 30
0.0
 40
4.4979165315999987
  1
30
  0
LINE
  5
230
  8
0
 62
     0
 10
-109.9557210648
 20
81.066861979199999
 30
0.0
 11
-109.9557210648
 21
70.988677129199999
 31
0.0
  0
LINE
  5
231
  8
0
 62
     0
 10
-79.955721064800002
 20
99.066861979200013
 30
0.0
 11
-79.955721064800002
 21
70.988677129199999
 31
0.0
  0
LINE
  5
232
  8
0
 62
     0
 10
-109.9557210648
 20
71.988677129199999
 30
0.0
 11
-89.664054557099988
 21
71.988677129199999
 31
0.0
  0
LINE
  5
233
  8
0
 62
     0
 10
-109.9557210648
 20
71.988677129199999
 30
0.0
 11
-100.2473875725
 21
71.988677129199999
 31
0.0
  0
LINE
  5
234
  8
0
 62
     0
 10
-79.955721064800002
 20
71.988677129199999
 30
0.0
 11
-89.664054557099988
 21
71.988677129199999
 31
0.0
  0
LINE
  5
235
  8
0
 62
     0
 10
-79.955721064800002
 20
71.988677129199999
 30
0.0
 11
-100.2473875725
 21
71.988677129199999
 31
0.0
  0
LINE
  5
236
  8
0
 62
     0
 10
-79.955721064800002
 20
71.988677129199999
 30
0.0
 11
-84.955721064800002
 21
71.988677129199999
 31
0.0
  0
SOLID
  5
237
  8
0
 62
     0
 10
-79.955721064800002
 20
71.988677129199999
 30
0.0
 11
-84.455721064800002
 21
70.863677129199999
 31
0.0
 12
-84.455721064800002
 22
73.113677129199999
 32
0.0
 13
-83.330721064800017
 23
71.988677129199999
 33
0.0
  0
LINE
  5
238
  8
0
 62
     0
 10
-109.9557210648
 20
71.988677129199999
 30
0.0
 11
-104.9557210648
 21
71.988677129199999
 31
0.0
  0
SOLID
  5
239
  8
0
 62
     0
 10
-109.9557210648
 20
71.988677129199999
 30
0.0
 11
-105.4557210648
 21
73.113677129199999
 31
0.0
 12
-105.4557210648
 22
70.863677129199999
 32
0.0
 13
-106.5807210648
 23
71.988677129199999
 33
0.0
  0
ENDBLK
  5
23A
  8
0
  0
BLOCK
  8
0
  2
*D23
 70
     1
 10
0.0
 20
0.0
 30
0.0
  3
*D23
  1

  0
TEXT
  5
24B
  8
0
 62
     0
 10
-80.806167512499982
 20
-34.58983503120001
 30
0.0
 40
0.5783035845000001
  1
%%c4.5
  0
LINE
  5
24C
  8
0
 62
     0
 10
-82.355721064799965
 20
-32.929231770800001
 30
0.0
 11
-82.355721064799965
 21
-35.334745754099998
 31
0.0
  0
LINE
  5
24D
  8
0
 62
     0
 10
-77.555721064799982
 20
-32.929231770800001
 30
0.0
 11
-77.555721064799982
 21
-35.334745754099998
 31
0.0
  0
LINE
  5
24E
  8
0
 62
     0
 10
-82.355721064799965
 20
-34.9061743213
 30
0.0
 11
-78.765096037999982
 21
-34.9061743213
 31
0.0
  0
LINE
  5
24F
  8
0
 62
     0
 10
-82.355721064799965
 20
-34.9061743213
 30
0.0
 11
-81.146346091599995
 21
-34.9061743213
 31
0.0
  0
LINE
  5
250
  8
0
 62
     0
 10
-77.555721064799982
 20
-34.9061743213
 30
0.0
 11
-78.765096037999982
 21
-34.9061743213
 31
0.0
  0
LINE
  5
251
  8
0
 62
     0
 10
-77.555721064799982
 20
-34.9061743213
 30
0.0
 11
-81.146346091599995
 21
-34.9061743213
 31
0.0
  0
LINE
  5
252
  8
0
 62
     0
 10
-77.555721064799982
 20
-34.9061743213
 30
0.0
 11
-78.627149602200006
 21
-34.9061743213
 31
0.0
  0
SOLID
  5
253
  8
0
 62
     0
 10
-77.555721064799982
 20
-34.9061743213
 30
0.0
 11
-78.1985781992
 21
-35.07846004200001
 31
0.0
 12
-78.1985781992
 22
-34.733888600599997
 32
0.0
 13
-78.037863915599999
 23
-34.9061743213
 33
0.0
  0
LINE
  5
254
  8
0
 62
     0
 10
-82.355721064799965
 20
-34.9061743213
 30
0.0
 11
-81.284292527399998
 21
-34.9061743213
 31
0.0
  0
SOLID
  5
255
  8
0
 62
     0
 10
-82.355721064799965
 20
-34.9061743213
 30
0.0
 11
-81.712863930500006
 21
-34.733888600599997
 31
0.0
 12
-81.712863930500006
 22
-35.07846004200001
 32
0.0
 13
-81.873578214099993
 23
-34.9061743213
 33
0.0
  0
ENDBLK
  5
256
  8
0
  0
BLOCK
  8
0
  2
*D24
 70
     1
 10
0.0
 20
0.0
 30
0.0
  3
*D24
  1

  0
TEXT
  5
25A
  8
0
 62
     0
 10
-80.465988933499986
 20
-24.296147035099999
 30
0.0
 40
0.5783035845000001
  1
%%c8
  0
LINE
  5
25B
  8
0
 62
     0
 10
-75.955721064800002
 20
-25.729231770799998
 30
0.0
 11
-75.955721064800002
 21
-24.183914892400001
 31
0.0
  0
LINE
  5
25C
  8
0
 62
     0
 10
-83.955721064800017
 20
-25.729231770799998
 30
0.0
 11
-83.955721064800017
 21
-24.183914892400001
 31
0.0
  0
LINE
  5
25D
  8
0
 62
     0
 10
-75.955721064800002
 20
-24.612486325300001
 30
0.0
 11
-79.10527461709998
 21
-24.612486325300001
 31
0.0
  0
LINE
  5
25E
  8
0
 62
     0
 10
-75.955721064800002
 20
-24.612486325300001
 30
0.0
 11
-80.806167512499982
 21
-24.612486325300001
 31
0.0
  0
LINE
  5
25F
  8
0
 62
     0
 10
-83.955721064800017
 20
-24.612486325300001
 30
0.0
 11
-79.10527461709998
 21
-24.612486325300001
 31
0.0
  0
LINE
  5
260
  8
0
 62
     0
 10
-83.955721064800017
 20
-24.612486325300001
 30
0.0
 11
-80.806167512499982
 21
-24.612486325300001
 31
0.0
  0
LINE
  5
261
  8
0
 62
     0
 10
-83.955721064800017
 20
-24.612486325300001
 30
0.0
 11
-82.884292527400007
 21
-24.612486325300001
 31
0.0
  0
SOLID
  5
262
  8
0
 62
     0
 10
-83.955721064800017
 20
-24.612486325300001
 30
0.0
 11
-83.312863930500001
 21
-24.440200604600001
 31
0.0
 12
-83.312863930500001
 22
-24.784772046000001
 32
0.0
 13
-83.473578214100002
 23
-24.612486325300001
 33
0.0
  0
LINE
  5
263
  8
0
 62
     0
 10
-75.955721064800002
 20
-24.612486325300001
 30
0.0
 11
-77.027149602199984
 21
-24.612486325300001
 31
0.0
  0
SOLID
  5
264
  8
0
 62
     0
 10
-75.955721064800002
 20
-24.612486325300001
 30
0.0
 11
-76.598578199200006
 21
-24.784772046000001
 31
0.0
 12
-76.598578199200006
 22
-24.440200604600001
 32
0.0
 13
-76.437863915600005
 23
-24.612486325300001
 33
0.0
  0
ENDBLK
  5
265
  8
0
  0
BLOCK
  8
0
  2
*D25
 70
     1
 10
0.0
 20
0.0
 30
0.0
  3
*D25
  1

  0
TEXT
  5
26A
  8
0
 62
     0
 10
-80.465988933499986
 20
-22.52818458090001
 30
0.0
 40
0.5783035845000001
  1
90%%d
  0
ARC
  5
26B
  8
0
 62
     0
 10
-79.955721064800002
 20
-31.729231770799998
 30
0.0
 40
8.8948864686999976
 50
130.46954973620001
 51
135.0
  0
ARC
  5
26C
  8
0
 62
     0
 10
-79.955721064800002
 20
-31.729231770799998
 30
0.0
 40
8.8948864686999976
 50
45.0
 51
49.530450263799992
  0
SOLID
  5
26D
  8
0
 62
     0
 10
-73.666086524899981
 20
-25.439597230899999
 30
0.0
 11
-73.089693484500003
 21
-25.772341468499999
 31
0.0
 12
-73.333342287299999
 22
-26.0159902714
 32
0.0
 13
-73.325160045600001
 23
-25.780523710200001
 33
0.0
  0
SOLID
  5
26E
  8
0
 62
     0
 10
-86.245355604699995
 20
-25.439597230899999
 30
0.0
 11
-86.578099842299963
 21
-26.0159902714
 31
0.0
 12
-86.821748645200003
 22
-25.772341468499999
 32
0.0
 13
-86.586282083999976
 23
-25.780523710200001
 33
0.0
  0
ARC
  5
26F
  8
0
 62
     0
 10
-79.955721064800002
 20
-31.729231770799998
 30
0.0
 40
8.8948864686999976
 50
45.0
 51
84.454189818499998
  0
ARC
  5
270
  8
0
 62
     0
 10
-79.955721064800002
 20
-31.729231770799998
 30
0.0
 40
8.8948864686999976
 50
95.545810181500016
 51
135.0
  0
LINE
  5
271
  8
0
 62
     0
 10
-75.652675298399984
 20
-27.4261860045
 30
0.0
 11
-73.363040758500006
 21
-25.136551464499998
 31
0.0
  0
LINE
  5
272
  8
0
 62
     0
 10
-84.258766831200006
 20
-27.4261860045
 30
0.0
 11
-86.548401371100013
 21
-25.136551464499998
 31
0.0
  0
ENDBLK
  5
273
  8
0
  0
BLOCK
  8
0
  2
*D26
 70
     1
 10
0.0
 20
0.0
 30
0.0
  3
*D26
  1

  0
TEXT
  5
277
  8
0
 62
     0
 10
-82.601554318699982
 20
-44.135481794700013
 30
0.0
 40
4.4979165315999987
  1
60
  0
LINE
  5
278
  8
0
 62
     0
 10
-109.9557210648
 20
-28.429231770800001
 30
0.0
 11
-109.9557210648
 21
-46.929231770799987
 31
0.0
  0
LINE
  5
279
  8
0
 62
     0
 10
-49.955721064800002
 20
-32.929231770800001
 30
0.0
 11
-49.955721064800002
 21
-46.929231770799987
 31
0.0
  0
LINE
  5
27A
  8
0
 62
     0
 10
-109.9557210648
 20
-45.929231770800001
 30
0.0
 11
-74.664054557100002
 21
-45.929231770800001
 31
0.0
  0
LINE
  5
27B
  8
0
 62
     0
 10
-109.9557210648
 20
-45.929231770800001
 30
0.0
 11
-85.247387572500003
 21
-45.929231770800001
 31
0.0
  0
LINE
  5
27C
  8
0
 62
     0
 10
-49.955721064800002
 20
-45.929231770800001
 30
0.0
 11
-74.664054557100002
 21
-45.929231770800001
 31
0.0
  0
LINE
  5
27D
  8
0
 62
     0
 10
-49.955721064800002
 20
-45.929231770800001
 30
0.0
 11
-85.247387572500003
 21
-45.929231770800001
 31
0.0
  0
LINE
  5
27E
  8
0
 62
     0
 10
-49.955721064800002
 20
-45.929231770800001
 30
0.0
 11
-54.955721064800002
 21
-45.929231770800001
 31
0.0
  0
SOLID
  5
27F
  8
0
 62
     0
 10
-49.955721064800002
 20
-45.929231770800001
 30
0.0
 11
-54.455721064800002
 21
-47.054231770800001
 31
0.0
 12
-54.455721064800002
 22
-44.804231770800001
 32
0.0
 13
-53.330721064799988
 23
-45.929231770800001
 33
0.0
  0
LINE
  5
280
  8
0
 62
     0
 10
-109.9557210648
 20
-45.929231770800001
 30
0.0
 11
-104.9557210648
 21
-45.929231770800001
 31
0.0
  0
SOLID
  5
281
  8
0
 62
     0
 10
-109.9557210648
 20
-45.929231770800001
 30
0.0
 11
-105.4557210648
 21
-44.804231770800001
 31
0.0
 12
-105.4557210648
 22
-47.054231770800001
 32
0.0
 13
-106.5807210648
 23
-45.929231770800001
 33
0.0
  0
ENDBLK
  5
282
  8
0
  0
BLOCK
  8
0
  2
*D27
 70
     1
 10
0.0
 20
0.0
 30
0.0
  3
*D27
  1

  0
TEXT
  5
286
  8
0
 62
     0
 10
-38.6005283326
 20
-24.355536256200001
 30
0.0
 40
4.4979165315999987
  1
3.2t
 50
90.0
  0
LINE
  5
287
  8
0
 62
     0
 10
-47.955721064799988
 20
-30.929231770800001
 30
0.0
 11
-35.806778356499997
 21
-30.929231770800001
 31
0.0
  0
LINE
  5
288
  8
0
 62
     0
 10
-47.955721064799988
 20
-27.729231770799998
 30
0.0
 11
-35.806778356499997
 21
-27.729231770799998
 31
0.0
  0
LINE
  5
289
  8
0
 62
     0
 10
-36.806778356499997
 20
-30.929231770800001
 30
0.0
 11
-36.806778356499997
 21
-11.1263699869
 31
0.0
  0
LINE
  5
28A
  8
0
 62
     0
 10
-36.806778356499997
 20
-30.929231770800001
 30
0.0
 11
-36.806778356499997
 21
-27.001369510100002
 31
0.0
  0
LINE
  5
28B
  8
0
 62
     0
 10
-36.806778356499997
 20
-27.729231770799998
 30
0.0
 11
-36.806778356499997
 21
-11.1263699869
 31
0.0
  0
LINE
  5
28C
  8
0
 62
     0
 10
-36.806778356499997
 20
-27.729231770799998
 30
0.0
 11
-36.806778356499997
 21
-27.001369510100002
 31
0.0
  0
LINE
  5
28D
  8
0
 62
     0
 10
-36.806778356499997
 20
-27.729231770799998
 30
0.0
 11
-36.806778356499997
 21
-22.729231770799998
 31
0.0
  0
SOLID
  5
28E
  8
0
 62
     0
 10
-36.806778356499997
 20
-27.729231770799998
 30
0.0
 11
-37.931778356500011
 21
-23.229231770799998
 31
0.0
 12
-35.681778356500011
 22
-23.229231770799998
 32
0.0
 13
-36.806778356499997
 23
-24.354231770799998
 33
0.0
  0
LINE
  5
28F
  8
0
 62
     0
 10
-36.806778356499997
 20
-30.929231770800001
 30
0.0
 11
-36.806778356499997
 21
-35.929231770800001
 31
0.0
  0
SOLID
  5
290
  8
0
 62
     0
 10
-36.806778356499997
 20
-30.929231770800001
 30
0.0
 11
-35.681778356500011
 21
-35.429231770800001
 31
0.0
 12
-37.931778356500011
 22
-35.429231770800001
 32
0.0
 13
-36.806778356499997
 23
-34.304231770800001
 33
0.0
  0
ENDBLK
  5
291
  8
0
  0
BLOCK
  8
0
  2
*D28
 70
     1
 10
0.0
 20
0.0
 30
0.0
  3
*D28
  1

  0
TEXT
  5
2A4
  8
0
 62
     0
 10
-75.48539984289998
 20
14.0369373443
 30
0.0
 40
4.4979165315999987
  1
90%%d
 50
318.815341311
  0
ARC
  5
2A5
  8
0
 62
     0
 10
-106.7557210648
 20
-27.729231770799998
 30
0.0
 40
49.642733927599998
 50
85.751411976699984
 51
92.2693573743
  0
ARC
  5
2A6
  8
0
 62
     0
 10
-106.7557210648
 20
-27.729231770799998
 30
0.0
 40
49.642733927599998
 50
0.0
 51
6.517945397600001
  0
SOLID
  5
2A7
  8
0
 62
     0
 10
-57.112987137200001
 20
-27.729231770799998
 30
0.0
 11
-55.987987137200001
 21
-32.229231770799998
 31
0.0
 12
-58.237987137200001
 22
-32.229231770799998
 32
0.0
 13
-57.112987137200001
 23
-31.104231770799998
 33
0.0
  0
SOLID
  5
2A8
  8
0
 62
     0
 10
-108.7214444041
 20
21.874568119500001
 30
0.0
 11
-113.1733680446
 21
20.5722621265
 31
0.0
 12
-113.26246220119999
 22
22.820497485899999
 32
0.0
 13
-112.0937974432
 23
21.740926884499999
 33
0.0
  0
ARC
  5
2A9
  8
0
 62
     0
 10
-106.7557210648
 20
-27.729231770799998
 30
0.0
 40
49.642733927599998
 50
0.0
 51
41.062404538699987
  0
ARC
  5
2AA
  8
0
 62
     0
 10
-106.7557210648
 20
-27.729231770799998
 30
0.0
 40
49.642733927599998
 50
56.568278083300001
 51
92.2693573743
  0
LINE
  5
2AB
  8
0
 62
     0
 10
-52.955721064799988
 20
-27.729231770799998
 30
0.0
 11
-60.112987137200001
 21
-27.729231770799998
 31
0.0
  0
LINE
  5
2AC
  8
0
 62
     0
 10
-109.9557210648
 20
49.270768229200002
 30
0.0
 11
-109.9557210648
 21
18.9135021568
 31
0.0
  0
ENDBLK
  5
2AD
  8
0
  0
BLOCK
  8
0
  2
*D29
 70
     1
 10
0.0
 20
0.0
 30
0.0
  3
*D29
  1

  0
TEXT
  5
2B1
  8
0
 62
     0
 10
-124.949471041
 20
9.6249349753000004
 30
0.0
 40
4.4979165315999987
  1
80
 50
90.0
  0
LINE
  5
2B2
  8
0
 62
     0
 10
-115.15572106480001
 20
52.270768229200002
 30
0.0
 11
-124.15572106480001
 21
52.270768229200002
 31
0.0
  0
LINE
  5
2B3
  8
0
 62
     0
 10
-110.65572106480001
 20
-27.729231770799998
 30
0.0
 11
-124.15572106480001
 21
-27.729231770799998
 31
0.0
  0
LINE
  5
2B4
  8
0
 62
     0
 10
-123.15572106480001
 20
52.270768229200002
 30
0.0
 11
-123.15572106480001
 21
17.562434736899998
 31
0.0
  0
LINE
  5
2B5
  8
0
 62
     0
 10
-123.15572106480001
 20
52.270768229200002
 30
0.0
 11
-123.15572106480001
 21
6.9791017214000002
 31
0.0
  0
LINE
  5
2B6
  8
0
 62
     0
 10
-123.15572106480001
 20
-27.729231770799998
 30
0.0
 11
-123.15572106480001
 21
17.562434736899998
 31
0.0
  0
LINE
  5
2B7
  8
0
 62
     0
 10
-123.15572106480001
 20
-27.729231770799998
 30
0.0
 11
-123.15572106480001
 21
6.9791017214000002
 31
0.0
  0
LINE
  5
2B8
  8
0
 62
     0
 10
-123.15572106480001
 20
-27.729231770799998
 30
0.0
 11
-123.15572106480001
 21
-22.729231770799998
 31
0.0
  0
SOLID
  5
2B9
  8
0
 62
     0
 10
-123.15572106480001
 20
-27.729231770799998
 30
0.0
 11
-124.28072106480001
 21
-23.229231770799998
 31
0.0
 12
-122.03072106480001
 22
-23.229231770799998
 32
0.0
 13
-123.15572106480001
 23
-24.354231770799998
 33
0.0
  0
LINE
  5
2BA
  8
0
 62
     0
 10
-123.15572106480001
 20
52.270768229200002
 30
0.0
 11
-123.15572106480001
 21
47.270768229199987
 31
0.0
  0
SOLID
  5
2BB
  8
0
 62
     0
 10
-123.15572106480001
 20
52.270768229200002
 30
0.0
 11
-122.03072106480001
 21
47.770768229200002
 31
0.0
 12
-124.28072106480001
 22
47.770768229200002
 32
0.0
 13
-123.15572106480001
 23
48.895768229200002
 33
0.0
  0
ENDBLK
  5
2BC
  8
0
  0
BLOCK
  8
0
  2
*D30
 70
     1
 10
0.0
 20
0.0
 30
0.0
  3
*D30
  1

  0
LINE
  5
2DA
  8
寸法線
 62
     0
 10
55.225539469021989
 20
2.6547287367757719
 30
0.0
 11
63.626160912495912
 21
11.0553501802497
 31
0.0
  0
LINE
  5
2DB
  8
寸法線
 62
     0
 10
37.01583077797423
 20
2.6547287367762591
 30
0.0
 11
28.61520933449302
 21
11.055350180442909
 31
0.0
  0
ARC
  5
2DC
  8
寸法線
 62
     0
 10
46.120685123397848
 20
-6.4501256088483832
 30
0.0
 40
23.756481276736348
 50
52.240203366382673
 51
77.985543488900305
  0
ARC
  5
2DD
  8
寸法線
 62
     0
 10
46.120685123397848
 20
-6.4501256088483832
 30
0.0
 40
23.756481276736348
 50
100.5014478296992
 51
127.7597966329849
  0
SOLID
  5
2DE
  8
寸法線
 62
     0
 10
60.998549343480448
 20
12.70656088403549
 30
0.0
 11
60.337500688236929
 21
11.956217845551929
 31
0.0
 12
62.919054131309373
 22
10.348243399063151
 32
0.0
 13
62.919054131309373
 23
10.348243399063151
 33
0.0
  0
SOLID
  5
2DF
  8
寸法線
 62
     0
 10
31.90386955876194
 20
11.95621784570884
 30
0.0
 11
31.242820903526699
 21
12.7065608841997
 31
0.0
 12
29.322316115671772
 22
10.34824339924856
 32
0.0
 13
29.322316115671772
 23
10.34824339924856
 33
0.0
  0
INSERT
  5
2E0
  8
0
  6
CONTINUOUS
  2
*U31
 10
0.0
 20
0.0
 30
0.0
  0
POINT
  5
2E1
  8
DEFPOINTS
 62
     0
 10
46.120685123397848
 20
-6.4501256088483832
 30
0.0
  0
POINT
  5
2E2
  8
DEFPOINTS
 62
     0
 10
55.181345295197843
 20
2.6105345629516141
 30
0.0
  0
POINT
  5
2E3
  8
DEFPOINTS
 62
     0
 10
37.060024951797878
 20
2.6105345629516141
 30
0.0
  0
POINT
  5
2E4
  8
DEFPOINTS
 62
     0
 10
39.972055324525911
 20
16.496873198149199
 30
0.0
  0
ENDBLK
  5
2E5
  8
0
  0
BLOCK
  8
0
  2
*U31
 70
     1
 10
0.0
 20
0.0
 30
0.0
  3
*U31
  1

  0
TEXT
  5
5B5
  8
寸法線
  6
CONTINUOUS
 62
     0
 10
41.867052051572337
 20
15.865156441622901
 30
0.0
 40
2.998611020999999
  1
90°
 50
359.24349565929992
  0
ENDBLK
  5
5B7
  8
0
  0
BLOCK
  8
0
  2
*D32
 70
     1
 10
0.0
 20
0.0
 30
0.0
  3
*D32
  1

  0
LINE
  5
2E8
  8
寸法線
 62
     0
 10
54.12068512339782
 20
1.6123743911516151
 30
0.0
 11
54.12068512339782
 21
10.99609221493057
 31
0.0
  0
LINE
  5
2E9
  8
寸法線
 62
     0
 10
38.120685123397848
 20
1.6123743911516151
 30
0.0
 11
38.120685123397848
 21
10.99609221493057
 31
0.0
  0
LINE
  5
2EA
  8
寸法線
 62
     0
 10
51.12068512339782
 20
9.9960922149305702
 30
0.0
 11
50.585131199909192
 21
9.9960922149305702
 31
0.0
  0
LINE
  5
2EB
  8
寸法線
 62
     0
 10
41.120685123397841
 20
9.9960922149305702
 30
0.0
 11
43.408372150909202
 21
9.9960922149305702
 31
0.0
  0
SOLID
  5
2EC
  8
寸法線
 62
     0
 10
51.12068512339782
 20
10.49609221493057
 30
0.0
 11
51.12068512339782
 21
9.4960922149305702
 31
0.0
 12
54.12068512339782
 22
9.9960922149305702
 32
0.0
 13
54.12068512339782
 23
9.9960922149305702
 33
0.0
  0
SOLID
  5
2ED
  8
寸法線
 62
     0
 10
41.120685123397841
 20
10.49609221493057
 30
0.0
 11
41.120685123397841
 21
9.4960922149305702
 31
0.0
 12
38.120685123397848
 22
9.9960922149305702
 32
0.0
 13
38.120685123397848
 23
9.9960922149305702
 33
0.0
  0
INSERT
  5
2EE
  8
0
  6
CONTINUOUS
  2
*U33
 10
0.0
 20
0.0
 30
0.0
  0
POINT
  5
2EF
  8
DEFPOINTS
 62
     0
 10
54.12068512339782
 20
1.5498743911516151
 30
0.0
  0
POINT
  5
2F0
  8
DEFPOINTS
 62
     0
 10
38.120685123397848
 20
1.5498743911516151
 30
0.0
  0
POINT
  5
2F1
  8
DEFPOINTS
 62
     0
 10
38.120685123397848
 20
9.9960922149305702
 30
0.0
  0
ENDBLK
  5
2F2
  8
0
  0
BLOCK
  8
0
  2
*U33
 70
     1
 10
0.0
 20
0.0
 30
0.0
  3
*U33
  1

  0
TEXT
  5
5B9
  8
寸法線
  6
CONTINUOUS
 62
     0
 10
43.498372150909212
 20
8.4967867044305692
 30
0.0
 40
2.998611020999999
  1
\U+2205
  0
TEXT
  5
5BA
  8
寸法線
  6
CONTINUOUS
 62
     0
 10
46.4969831719092
 20
8.4967867044305692
 30
0.0
 40
2.998611020999999
  1
16
  0
ENDBLK
  5
5BC
  8
0
  0
BLOCK
  8
0
  2
*D34
 70
     1
 10
0.0
 20
0.0
 30
0.0
  3
*D34
  1

  0
LINE
  5
2F5
  8
寸法線
 62
     0
 10
41.320685123397851
 20
-4.9126256088483826
 30
0.0
 11
41.320685123397851
 21
-16.020411728930299
 31
0.0
  0
LINE
  5
2F6
  8
寸法線
 62
     0
 10
50.920685123397782
 20
-4.9126256088483826
 30
0.0
 11
50.920685123397782
 21
-16.020411728930299
 31
0.0
  0
LINE
  5
2F7
  8
寸法線
 62
     0
 10
38.320685123397851
 20
-15.0204117289303
 30
0.0
 11
35.320685123397851
 21
-15.0204117289303
 31
0.0
  0
LINE
  5
2F8
  8
寸法線
 62
     0
 10
53.920685123397782
 20
-15.0204117289303
 30
0.0
 11
56.920685123397782
 21
-15.0204117289303
 31
0.0
  0
SOLID
  5
2F9
  8
寸法線
 62
     0
 10
38.320685123397851
 20
-14.5204117289303
 30
0.0
 11
38.320685123397851
 21
-15.5204117289303
 31
0.0
 12
41.320685123397851
 22
-15.0204117289303
 32
0.0
 13
41.320685123397851
 23
-15.0204117289303
 33
0.0
  0
SOLID
  5
2FA
  8
寸法線
 62
     0
 10
53.920685123397782
 20
-14.5204117289303
 30
0.0
 11
53.920685123397782
 21
-15.5204117289303
 31
0.0
 12
50.920685123397782
 22
-15.0204117289303
 32
0.0
 13
50.920685123397782
 23
-15.0204117289303
 33
0.0
  0
INSERT
  5
2FB
  8
0
  6
CONTINUOUS
  2
*U35
 10
0.0
 20
0.0
 30
0.0
  0
POINT
  5
2FC
  8
DEFPOINTS
 62
     0
 10
41.320685123397851
 20
-4.8501256088483826
 30
0.0
  0
POINT
  5
2FD
  8
DEFPOINTS
 62
     0
 10
50.920685123397782
 20
-4.8501256088483826
 30
0.0
  0
POINT
  5
2FE
  8
DEFPOINTS
 62
     0
 10
50.920685123397782
 20
-15.0204117289303
 30
0.0
  0
ENDBLK
  5
2FF
  8
0
  0
BLOCK
  8
0
  2
*U35
 70
     1
 10
0.0
 20
0.0
 30
0.0
  3
*U35
  1

  0
TEXT
  5
5BE
  8
寸法線
  6
CONTINUOUS
 62
     0
 10
42.358233016293482
 20
-16.5197172394303
 30
0.0
 40
2.998611020999999
  1
\U+2205
  0
TEXT
  5
5BF
  8
寸法線
  6
CONTINUOUS
 62
     0
 10
45.356844037293513
 20
-16.5197172394303
 30
0.0
 40
2.998611020999999
  1
4.5
  0
ENDBLK
  5
5C1
  8
0
  0
BLOCK
  8
0
  2
*D36
 70
     1
 10
0.0
 20
0.0
 30
0.0
  3
*D36
  1

  0
LINE
  5
342
  8
寸法線
 62
     0
 10
75.351625568468165
 20
-22.095926325889209
 30
0.0
 11
75.351625568468165
 21
-33.203712445971121
 31
0.0
  0
LINE
  5
343
  8
寸法線
 62
     0
 10
84.951625568468089
 20
-22.095926325889209
 30
0.0
 11
84.951625568468089
 21
-33.203712445971121
 31
0.0
  0
LINE
  5
344
  8
寸法線
 62
     0
 10
79.851625568468165
 20
-32.203712445971121
 30
0.0
 11
80.451625568468089
 21
-32.203712445971121
 31
0.0
  0
SOLID
  5
345
  8
寸法線
 62
     0
 10
79.851625568468165
 20
-31.453712445971121
 30
0.0
 11
79.851625568468165
 21
-32.953712445971121
 31
0.0
 12
75.351625568468165
 22
-32.203712445971121
 32
0.0
 13
75.351625568468165
 23
-32.203712445971121
 33
0.0
  0
SOLID
  5
346
  8
寸法線
 62
     0
 10
80.451625568468089
 20
-31.453712445971121
 30
0.0
 11
80.451625568468089
 21
-32.953712445971121
 31
0.0
 12
84.951625568468089
 22
-32.203712445971121
 32
0.0
 13
84.951625568468089
 23
-32.203712445971121
 33
0.0
  0
INSERT
  5
347
  8
0
  6
CONTINUOUS
  2
*U37
 10
0.0
 20
0.0
 30
0.0
  0
POINT
  5
348
  8
DEFPOINTS
 62
     0
 10
75.351625568468165
 20
-22.033426325889199
 30
0.0
  0
POINT
  5
349
  8
DEFPOINTS
 62
     0
 10
84.951625568468089
 20
-22.033426325889199
 30
0.0
  0
POINT
  5
34A
  8
DEFPOINTS
 62
     0
 10
84.951625568468089
 20
-32.203712445971121
 30
0.0
  0
ENDBLK
  5
326
  8
0
  0
BLOCK
  8
0
  2
*U37
 70
     1
 10
0.0
 20
0.0
 30
0.0
  3
*U37
  1

  0
TEXT
  5
5C3
  8
寸法線
  6
CONTINUOUS
 62
     0
 10
73.404750771068123
 20
-34.45267071177112
 30
0.0
 40
4.4979165315999987
  1
\U+2205
  0
TEXT
  5
5C4
  8
寸法線
  6
CONTINUOUS
 62
     0
 10
77.902667302668121
 20
-34.45267071177112
 30
0.0
 40
4.4979165315999987
  1
4.5
  0
ENDBLK
  5
5C6
  8
0
  0
BLOCK
  8
0
  2
*D38
 70
     1
 10
0.0
 20
0.0
 30
0.0
  3
*D38
  1

  0
LINE
  5
34B
  8
寸法線
 62
     0
 10
89.25647991409231
 20
-14.528571980265051
 30
0.0
 11
97.657101357566248
 21
-6.1279505367911113
 31
0.0
  0
LINE
  5
34C
  8
寸法線
 62
     0
 10
71.04677122304453
 20
-14.528571980264561
 30
0.0
 11
62.646149779563302
 21
-6.1279505365979121
 31
0.0
  0
ARC
  5
34D
  8
寸法線
 62
     0
 10
80.151625568468191
 20
-23.633426325889211
 30
0.0
 40
23.756481276736359
 50
55.869372189337803
 51
72.328928607783737
  0
ARC
  5
34E
  8
寸法線
 62
     0
 10
80.151625568468191
 20
-23.633426325889211
 30
0.0
 40
23.756481276736359
 50
106.1580627108158
 51
124.13062781002979
  0
SOLID
  5
34F
  8
寸法線
 62
     0
 10
93.958667184712084
 20
-3.390574710116335
 30
0.0
 11
93.003231062793134
 21
-4.5469231943253581
 31
0.0
 12
96.949994576379694
 22
-6.8350573179776593
 32
0.0
 13
96.949994576379694
 23
-6.8350573179776593
 33
0.0
  0
SOLID
  5
350
  8
寸法線
 62
     0
 10
67.300020074353853
 20
-4.5469231941835213
 30
0.0
 11
66.34458395244765
 21
-3.390574709963956
 31
0.0
 12
63.353256560742068
 22
-6.8350573177922644
 32
0.0
 13
63.353256560742068
 23
-6.8350573177922644
 33
0.0
  0
INSERT
  5
351
  8
0
  6
CONTINUOUS
  2
*U39
 10
0.0
 20
0.0
 30
0.0
  0
POINT
  5
352
  8
DEFPOINTS
 62
     0
 10
80.151625568468191
 20
-23.633426325889211
 30
0.0
  0
POINT
  5
353
  8
DEFPOINTS
 62
     0
 10
89.212285740268115
 20
-14.57276615408921
 30
0.0
  0
POINT
  5
354
  8
DEFPOINTS
 62
     0
 10
71.090965396868199
 20
-14.57276615408921
 30
0.0
  0
POINT
  5
355
  8
DEFPOINTS
 62
     0
 10
74.002995769596211
 20
-0.6864275188916209
 30
0.0
  0
ENDBLK
  5
334
  8
0
  0
BLOCK
  8
0
  2
*U39
 70
     1
 10
0.0
 20
0.0
 30
0.0
  3
*U39
  1

  0
TEXT
  5
5C8
  8
寸法線
  6
CONTINUOUS
 62
     0
 10
73.614346267506576
 20
-2.0377085237932562
 30
0.0
 40
4.4979165315999987
  1
90°
 50
359.24349565929992
  0
ENDBLK
  5
5CA
  8
0
  0
BLOCK
  8
0
  2
*D40
 70
     1
 10
0.0
 20
0.0
 30
0.0
  3
*D40
  1

  0
LINE
  5
356
  8
寸法線
 62
     0
 10
88.151625568468134
 20
-15.5709263258892
 30
0.0
 11
88.151625568468134
 21
-6.1872085021102521
 31
0.0
  0
LINE
  5
357
  8
寸法線
 62
     0
 10
72.151625568468191
 20
-15.5709263258892
 30
0.0
 11
72.151625568468191
 21
-6.1872085021102521
 31
0.0
  0
LINE
  5
358
  8
寸法線
 62
     0
 10
92.651625568468148
 20
-7.1872085021102521
 30
0.0
 11
97.151625568468148
 21
-7.1872085021102521
 31
0.0
  0
LINE
  5
359
  8
寸法線
 62
     0
 10
67.651625568468177
 20
-7.1872085021102521
 30
0.0
 11
63.151625568468177
 21
-7.1872085021102521
 31
0.0
  0
SOLID
  5
35A
  8
寸法線
 62
     0
 10
92.651625568468148
 20
-6.4372085021102521
 30
0.0
 11
92.651625568468148
 21
-7.9372085021102521
 31
0.0
 12
88.151625568468134
 22
-7.1872085021102521
 32
0.0
 13
88.151625568468134
 23
-7.1872085021102521
 33
0.0
  0
SOLID
  5
35B
  8
寸法線
 62
     0
 10
67.651625568468177
 20
-6.4372085021102521
 30
0.0
 11
67.651625568468177
 21
-7.9372085021102521
 31
0.0
 12
72.151625568468191
 22
-7.1872085021102521
 32
0.0
 13
72.151625568468191
 23
-7.1872085021102521
 33
0.0
  0
INSERT
  5
35C
  8
0
  6
CONTINUOUS
  2
*U41
 10
0.0
 20
0.0
 30
0.0
  0
POINT
  5
35D
  8
DEFPOINTS
 62
     0
 10
88.151625568468134
 20
-15.633426325889211
 30
0.0
  0
POINT
  5
35E
  8
DEFPOINTS
 62
     0
 10
72.151625568468191
 20
-15.633426325889211
 30
0.0
  0
POINT
  5
35F
  8
DEFPOINTS
 62
     0
 10
72.151625568468191
 20
-7.1872085021102521
 30
0.0
  0
ENDBLK
  5
341
  8
0
  0
BLOCK
  8
0
  2
*U41
 70
     1
 10
0.0
 20
0.0
 30
0.0
  3
*U41
  1

  0
TEXT
  5
5CC
  8
寸法線
  6
CONTINUOUS
 62
     0
 10
75.780122833612836
 20
-9.4361667679102474
 30
0.0
 40
4.4979165315999987
  1
\U+2205
  0
TEXT
  5
5CD
  8
寸法線
  6
CONTINUOUS
 62
     0
 10
80.278039365212834
 20
-9.4361667679102474
 30
0.0
 40
4.4979165315999987
  1
16
  0
ENDBLK
  5
5CF
  8
0
  0
BLOCK
  8
0
  2
*D42
 70
     1
 10
0.0
 20
0.0
 30
0.0
  3
*D42
  1

  0
LINE
  5
362
  8
寸法線
 62
     0
 10
55.225539469021989
 20
2.654728736775771
 30
0.0
 11
65.940482226109964
 21
13.36967149386377
 31
0.0
  0
LINE
  5
363
  8
寸法線
 62
     0
 10
37.01583077797423
 20
2.6547287367762591
 30
0.0
 11
26.300888020904502
 21
13.369671494082519
 31
0.0
  0
ARC
  5
364
  8
寸法線
 62
     0
 10
46.120685123397848
 20
-6.4501256088483832
 30
0.0
 40
27.029425866138489
 50
51.362535737406809
 51
80.792842464310112
  0
ARC
  5
365
  8
寸法線
 62
     0
 10
46.120685123397848
 20
-6.4501256088483832
 30
0.0
 40
27.029425866138489
 50
100.5530290130779
 51
128.63746426196079
  0
SOLID
  5
366
  8
寸法線
 62
     0
 10
63.330989387791263
 20
15.03552221116494
 30
0.0
 11
62.664213229207782
 21
14.290264165690299
 31
0.0
 12
65.233375444923439
 22
12.662564712677231
 32
0.0
 13
65.233375444923439
 23
12.662564712677231
 33
0.0
  0
SOLID
  5
367
  8
寸法線
 62
     0
 10
29.577157017816852
 20
14.29026416587288
 30
0.0
 11
28.91038085924162
 21
15.035522211354889
 31
0.0
 12
27.007994802083239
 22
12.66256471288817
 32
0.0
 13
27.007994802083239
 23
12.66256471288817
 33
0.0
  0
INSERT
  5
368
  8
0
  6
CONTINUOUS
  2
*U43
 10
0.0
 20
0.0
 30
0.0
  0
POINT
  5
369
  8
DEFPOINTS
 62
     0
 10
46.120685123397848
 20
-6.4501256088483832
 30
0.0
  0
POINT
  5
36A
  8
DEFPOINTS
 62
     0
 10
55.181345295197843
 20
2.6105345629516119
 30
0.0
  0
POINT
  5
36B
  8
DEFPOINTS
 62
     0
 10
37.060024951797878
 20
2.6105345629516119
 30
0.0
  0
POINT
  5
36C
  8
DEFPOINTS
 62
     0
 10
53.116415315837251
 20
19.658294904994811
 30
0.0
  0
ENDBLK
  5
36D
  8
0
  0
BLOCK
  8
0
  2
*U43
 70
     1
 10
0.0
 20
0.0
 30
0.0
  3
*U43
  1

  0
TEXT
  5
5D1
  8
寸法線
  6
CONTINUOUS
 62
     0
 10
41.273262466875579
 20
19.024820380792018
 30
0.0
 40
2.998611020999999
  1
90°
 50
0.6729357386939761
  0
ENDBLK
  5
5D3
  8
0
  0
BLOCK
  8
0
  2
*D44
 70
     1
 10
0.0
 20
0.0
 30
0.0
  3
*D44
  1

  0
LINE
  5
370
  8
寸法線
 62
     0
 10
54.12068512339782
 20
1.6123743911516151
 30
0.0
 11
54.12068512339782
 21
10.99609221493057
 31
0.0
  0
LINE
  5
371
  8
寸法線
 62
     0
 10
38.120685123397848
 20
1.6123743911516151
 30
0.0
 11
38.120685123397848
 21
10.99609221493057
 31
0.0
  0
LINE
  5
372
  8
寸法線
 62
     0
 10
51.12068512339782
 20
9.9960922149305702
 30
0.0
 11
50.585131199909192
 21
9.9960922149305702
 31
0.0
  0
LINE
  5
373
  8
寸法線
 62
     0
 10
41.120685123397841
 20
9.9960922149305702
 30
0.0
 11
43.408372150909202
 21
9.9960922149305702
 31
0.0
  0
SOLID
  5
374
  8
寸法線
 62
     0
 10
51.12068512339782
 20
10.49609221493057
 30
0.0
 11
51.12068512339782
 21
9.4960922149305702
 31
0.0
 12
54.12068512339782
 22
9.9960922149305702
 32
0.0
 13
54.12068512339782
 23
9.9960922149305702
 33
0.0
  0
SOLID
  5
375
  8
寸法線
 62
     0
 10
41.120685123397841
 20
10.49609221493057
 30
0.0
 11
41.120685123397841
 21
9.4960922149305702
 31
0.0
 12
38.120685123397848
 22
9.9960922149305702
 32
0.0
 13
38.120685123397848
 23
9.9960922149305702
 33
0.0
  0
INSERT
  5
376
  8
0
  6
CONTINUOUS
  2
*U45
 10
0.0
 20
0.0
 30
0.0
  0
POINT
  5
377
  8
DEFPOINTS
 62
     0
 10
54.12068512339782
 20
1.5498743911516151
 30
0.0
  0
POINT
  5
378
  8
DEFPOINTS
 62
     0
 10
38.120685123397848
 20
1.5498743911516151
 30
0.0
  0
POINT
  5
379
  8
DEFPOINTS
 62
     0
 10
38.120685123397848
 20
9.9960922149305702
 30
0.0
  0
ENDBLK
  5
37A
  8
0
  0
BLOCK
  8
0
  2
*U45
 70
     1
 10
0.0
 20
0.0
 30
0.0
  3
*U45
  1

  0
TEXT
  5
5D5
  8
寸法線
  6
CONTINUOUS
 62
     0
 10
43.498372150909212
 20
8.4967867044305692
 30
0.0
 40
2.998611020999999
  1
\U+2205
  0
TEXT
  5
5D6
  8
寸法線
  6
CONTINUOUS
 62
     0
 10
46.4969831719092
 20
8.4967867044305692
 30
0.0
 40
2.998611020999999
  1
16
  0
ENDBLK
  5
5D8
  8
0
  0
BLOCK
  8
0
  2
*D46
 70
     1
 10
0.0
 20
0.0
 30
0.0
  3
*D46
  1

  0
LINE
  5
37D
  8
寸法線
 62
     0
 10
41.320685123397851
 20
-4.9126256088483826
 30
0.0
 11
41.320685123397851
 21
-15.699205702913559
 31
0.0
  0
LINE
  5
37E
  8
寸法線
 62
     0
 10
50.920685123397782
 20
-4.9126256088483826
 30
0.0
 11
50.920685123397782
 21
-15.699205702913559
 31
0.0
  0
LINE
  5
37F
  8
寸法線
 62
     0
 10
44.320685123397837
 20
-14.699205702913559
 30
0.0
 11
47.920685123397782
 21
-14.699205702913559
 31
0.0
  0
LINE
  5
380
  8
寸法線
 62
     0
 10
50.920685123397782
 20
-14.699205702913559
 30
0.0
 11
53.920685123397782
 21
-14.699205702913559
 31
0.0
  0
SOLID
  5
381
  8
寸法線
 62
     0
 10
44.320685123397837
 20
-14.199205702913559
 30
0.0
 11
44.320685123397837
 21
-15.199205702913559
 31
0.0
 12
41.320685123397851
 22
-14.699205702913559
 32
0.0
 13
41.320685123397851
 23
-14.699205702913559
 33
0.0
  0
SOLID
  5
382
  8
寸法線
 62
     0
 10
47.920685123397782
 20
-14.199205702913559
 30
0.0
 11
47.920685123397782
 21
-15.199205702913559
 31
0.0
 12
50.920685123397782
 22
-14.699205702913559
 32
0.0
 13
50.920685123397782
 23
-14.699205702913559
 33
0.0
  0
INSERT
  5
383
  8
0
  6
CONTINUOUS
  2
*U47
 10
0.0
 20
0.0
 30
0.0
  0
POINT
  5
384
  8
DEFPOINTS
 62
     0
 10
41.320685123397851
 20
-4.8501256088483826
 30
0.0
  0
POINT
  5
385
  8
DEFPOINTS
 62
     0
 10
50.920685123397782
 20
-4.8501256088483826
 30
0.0
  0
POINT
  5
386
  8
DEFPOINTS
 62
     0
 10
50.920685123397782
 20
-14.699205702913559
 30
0.0
  0
ENDBLK
  5
387
  8
0
  0
BLOCK
  8
0
  2
*U47
 70
     1
 10
0.0
 20
0.0
 30
0.0
  3
*U47
  1

  0
TEXT
  5
5DA
  8
寸法線
  6
CONTINUOUS
 62
     0
 10
54.010685123397792
 20
-16.19851121341356
 30
0.0
 40
2.998611020999999
  1
\U+2205
  0
TEXT
  5
5DB
  8
寸法線
  6
CONTINUOUS
 62
     0
 10
57.00929614439778
 20
-16.19851121341356
 30
0.0
 40
2.998611020999999
  1
4.5
  0
ENDBLK
  5
5DD
  8
0
  0
BLOCK
  8
0
  2
*D48
 70
     1
 10
0.0
 20
0.0
 30
0.0
  3
*D48
  1

  0
LINE
  5
3CA
  8
寸法線
 62
     0
 10
76.145911248542546
 20
-21.028590472131452
 30
0.0
 11
76.145911248542546
 21
-31.815170566196631
 31
0.0
  0
LINE
  5
3CB
  8
寸法線
 62
     0
 10
85.745911248542484
 20
-21.028590472131452
 30
0.0
 11
85.745911248542484
 21
-31.815170566196631
 31
0.0
  0
LINE
  5
3CC
  8
寸法線
 62
     0
 10
80.645911248542546
 20
-30.815170566196631
 30
0.0
 11
81.245911248542484
 21
-30.815170566196631
 31
0.0
  0
LINE
  5
3CD
  8
寸法線
 62
     0
 10
85.745911248542484
 20
-30.815170566196631
 30
0.0
 11
90.245911248542484
 21
-30.815170566196631
 31
0.0
  0
SOLID
  5
3CE
  8
寸法線
 62
     0
 10
80.645911248542546
 20
-30.065170566196631
 30
0.0
 11
80.645911248542546
 21
-31.565170566196631
 31
0.0
 12
76.145911248542546
 22
-30.815170566196631
 32
0.0
 13
76.145911248542546
 23
-30.815170566196631
 33
0.0
  0
SOLID
  5
3CF
  8
寸法線
 62
     0
 10
81.245911248542484
 20
-30.065170566196631
 30
0.0
 11
81.245911248542484
 21
-31.565170566196631
 31
0.0
 12
85.745911248542484
 22
-30.815170566196631
 32
0.0
 13
85.745911248542484
 23
-30.815170566196631
 33
0.0
  0
INSERT
  5
3D0
  8
0
  6
CONTINUOUS
  2
*U49
 10
0.0
 20
0.0
 30
0.0
  0
POINT
  5
3D1
  8
DEFPOINTS
 62
     0
 10
76.145911248542546
 20
-20.966090472131452
 30
0.0
  0
POINT
  5
3D2
  8
DEFPOINTS
 62
     0
 10
85.745911248542484
 20
-20.966090472131452
 30
0.0
  0
POINT
  5
3D3
  8
DEFPOINTS
 62
     0
 10
85.745911248542484
 20
-30.815170566196631
 30
0.0
  0
ENDBLK
  5
3AE
  8
0
  0
BLOCK
  8
0
  2
*U49
 70
     1
 10
0.0
 20
0.0
 30
0.0
  3
*U49
  1

  0
TEXT
  5
5EA
  8
寸法線
  6
CONTINUOUS
 62
     0
 10
90.335911248542487
 20
-33.064128831996634
 30
0.0
 40
4.4979165315999987
  1
\U+2205
  0
TEXT
  5
5EB
  8
寸法線
  6
CONTINUOUS
 62
     0
 10
94.833827780142485
 20
-33.064128831996634
 30
0.0
 40
4.4979165315999987
  1
4.5
  0
ENDBLK
  5
5ED
  8
0
  0
BLOCK
  8
0
  2
*D50
 70
     1
 10
0.0
 20
0.0
 30
0.0
  3
*D50
  1

  0
LINE
  5
5DE
  8
寸法線
 62
     0
 10
90.050765594166705
 20
-13.4612361265073
 30
0.0
 11
106.84964057954841
 21
3.3376388588744512
 31
0.0
  0
LINE
  5
5DF
  8
寸法線
 62
     0
 10
71.84105690311894
 20
-13.46123612650681
 30
0.0
 11
55.042181917822603
 21
3.3376388591603701
 31
0.0
  0
ARC
  5
5E0
  8
寸法線
 62
     0
 10
80.945911248542572
 20
-22.566090472131449
 30
0.0
 40
35.633405335950272
 50
52.240471233183783
 51
79.725567809004787
  0
ARC
  5
5E1
  8
寸法線
 62
     0
 10
80.945911248542572
 20
-22.566090472131449
 30
0.0
 40
35.633405335950272
 50
102.094781328133
 51
127.75952876618381
  0
SOLID
  5
5E2
  8
寸法線
 62
     0
 10
103.2617683474969
 20
6.1680015711397687
 30
0.0
 11
102.2701979956133
 21
5.0424846955375084
 31
0.0
 12
106.1425337983619
 22
2.6305320776879002
 32
0.0
 13
106.1425337983619
 23
2.6305320776879002
 33
0.0
  0
SOLID
  5
5E3
  8
寸法線
 62
     0
 10
59.621624501776537
 20
5.042484695772889
 30
0.0
 11
58.630054149905391
 21
6.1680015713860952
 31
0.0
 12
55.74928869900134
 22
2.6305320779660222
 32
0.0
 13
55.74928869900134
 23
2.6305320779660222
 33
0.0
  0
TEXT
  5
5F2
  8
寸法線
 62
     0
 10
71.384
 20
5.1015100000000002
 30
0.0
 40
4.4979199999999988
  1
90°
  0
POINT
  5
5E5
  8
DEFPOINTS
 62
     0
 10
80.945911248542572
 20
-22.566090472131449
 30
0.0
  0
POINT
  5
5E6
  8
DEFPOINTS
 62
     0
 10
90.006571420342539
 20
-13.50543030033146
 30
0.0
  0
POINT
  5
5E7
  8
DEFPOINTS
 62
     0
 10
71.885251076942595
 20
-13.505430300331451
 30
0.0
  0
POINT
  5
5E8
  8
DEFPOINTS
 62
     0
 10
90.168515191470945
 20
11.85313602045567
 30
0.0
  0
ENDBLK
  5
3BC
  8
0
  0
BLOCK
  8
0
  2
*D51
 70
     1
 10
0.0
 20
0.0
 30
0.0
  3
*D51
  1

  0
LINE
  5
409
  8
寸法線
 62
     0
 10
88.945911248542544
 20
-14.503590472131449
 30
0.0
 11
88.945911248542544
 21
1.8809947427057521
 31
0.0
  0
LINE
  5
40A
  8
寸法線
 62
     0
 10
72.945911248542572
 20
-14.503590472131449
 30
0.0
 11
72.945911248542572
 21
1.8809947427057521
 31
0.0
  0
LINE
  5
40B
  8
寸法線
 62
     0
 10
93.445911248542515
 20
0.8809947427057521
 30
0.0
 11
97.945911248542544
 21
0.8809947427057521
 31
0.0
  0
LINE
  5
40C
  8
寸法線
 62
     0
 10
68.445911248542572
 20
0.8809947427057521
 30
0.0
 11
63.945911248542551
 21
0.8809947427057521
 31
0.0
  0
SOLID
  5
40D
  8
寸法線
 62
     0
 10
93.445911248542515
 20
1.6309947427057521
 30
0.0
 11
93.445911248542515
 21
0.1309947427057523
 31
0.0
 12
88.945911248542544
 22
0.8809947427057521
 32
0.0
 13
88.945911248542544
 23
0.8809947427057521
 33
0.0
  0
SOLID
  5
40E
  8
寸法線
 62
     0
 10
68.445911248542572
 20
1.6309947427057521
 30
0.0
 11
68.445911248542572
 21
0.1309947427057523
 31
0.0
 12
72.945911248542572
 22
0.8809947427057521
 32
0.0
 13
72.945911248542572
 23
0.8809947427057521
 33
0.0
  0
INSERT
  5
40F
  8
0
  6
CONTINUOUS
  2
*U52
 10
0.0
 20
0.0
 30
0.0
  0
POINT
  5
410
  8
DEFPOINTS
 62
     0
 10
88.945911248542544
 20
-14.566090472131441
 30
0.0
  0
POINT
  5
411
  8
DEFPOINTS
 62
     0
 10
72.945911248542572
 20
-14.566090472131441
 30
0.0
  0
POINT
  5
412
  8
DEFPOINTS
 62
     0
 10
72.945911248542572
 20
0.8809947427057521
 30
0.0
  0
ENDBLK
  5
3C9
  8
0
  0
BLOCK
  8
0
  2
*U52
 70
     1
 10
0.0
 20
0.0
 30
0.0
  3
*U52
  1

  0
TEXT
  5
5EF
  8
寸法線
  6
CONTINUOUS
 62
     0
 10
76.936289758292261
 20
-1.3679635230942471
 30
0.0
 40
4.4979165315999987
  1
φ8
  0
ENDBLK
  5
5F1
  8
0
  0
BLOCK
  8
0
  2
*U53
 70
     1
 10
0.0
 20
0.0
 30
0.0
  3
*U53
  1

  0
TEXT
  5
511
  8
図枠
  6
CONTINUOUS
 10
123.1908058139766
 20
162.1282361180061
 30
0.0
 40
4.0481249392
  1
改　訂　内　容
  0
ENDBLK
  5
513
  8
0
  0
BLOCK
  8
0
  2
*U54
 70
     1
 10
0.0
 20
0.0
 30
0.0
  3
*U54
  1

  0
TEXT
  5
515
  8
図枠
  6
CONTINUOUS
 10
193.73236974194421
 20
162.10768726044671
 30
0.0
 40
4.0481249392
  1
検認者
  0
ENDBLK
  5
517
  8
0
  0
BLOCK
  8
0
  2
*U55
 70
     1
 10
0.0
 20
0.0
 30
0.0
  3
*U55
  1

  0
TEXT
  5
519
  8
図枠
  6
CONTINUOUS
 10
178.7940163146223
 20
162.1282361180061
 30
0.0
 40
4.0481249392
  1
改訂者
  0
ENDBLK
  5
51B
  8
0
  0
BLOCK
  8
0
  2
*U56
 70
     1
 10
0.0
 20
0.0
 30
0.0
  3
*U56
  1

  0
TEXT
  5
51D
  8
図枠
  6
CONTINUOUS
 10
68.729055935410159
 20
162.2104315482436
 30
0.0
 40
4.0481249392
  1
副番
  0
ENDBLK
  5
51F
  8
0
  0
BLOCK
  8
0
  2
*U57
 70
     1
 10
0.0
 20
0.0
 30
0.0
  3
*U57
  1

  0
TEXT
  5
521
  8
図枠
  6
CONTINUOUS
 10
84.078253310248726
 20
162.16933383312491
 30
0.0
 40
4.0481249392
  1
改訂日
  0
ENDBLK
  5
523
  8
0
  0
BLOCK
  8
0
  2
*U58
 70
     1
 10
0.0
 20
0.0
 30
0.0
  3
*U58
  1

  0
TEXT
  5
525
  8
図枠
  6
CONTINUOUS
 10
150.71007252455991
 20
-112.7210668988
 30
0.0
 40
4.4979165315999987
  1
ＳＲＫ００１１３
  0
ENDBLK
  5
527
  8
0
  0
BLOCK
  8
0
  2
*U59
 70
     1
 10
0.0
 20
0.0
 30
0.0
  3
*U59
  1

  0
TEXT
  5
529
  8
ﾚｲﾔ_1
  6
CONTINUOUS
 10
66.274567253000001
 20
-48.001605716746198
 30
0.0
 40
4.4979165315999987
  1
皿加工部詳細
  0
ENDBLK
  5
52B
  8
0
  0
BLOCK
  8
0
  2
*U60
 70
     1
 10
0.0
 20
0.0
 30
0.0
  3
*U60
  1

  0
TEXT
  5
52D
  8
図枠
  6
CONTINUOUS
 10
125.2285022425817
 20
-96.144286154002074
 30
0.0
 40
3.5062500000000001
  1
図面名
  0
ENDBLK
  5
52F
  8
0
  0
BLOCK
  8
0
  2
*U61
 70
     1
 10
0.0
 20
0.0
 30
0.0
  3
*U61
  1

  0
TEXT
  5
531
  8
図枠
  6
CONTINUOUS
 10
125.2107040192314
 20
-108.85868970730149
 30
0.0
 40
3.5062500000000001
  1
図　番
  0
ENDBLK
  5
533
  8
0
  0
BLOCK
  8
0
  2
*U62
 70
     1
 10
0.0
 20
0.0
 30
0.0
  3
*U62
  1

  0
TEXT
  5
535
  8
図枠
  6
CONTINUOUS
 10
153.9065614302655
 20
-87.677708171043662
 30
0.0
 40
4.4979165315999987
  1
Ｌ型ブラケット
  0
ENDBLK
  5
537
  8
0
  0
BLOCK
  8
0
  2
*U63
 70
     1
 10
0.0
 20
0.0
 30
0.0
  3
*U63
  1

  0
TEXT
  5
539
  8
図枠
  6
CONTINUOUS
 10
90.597281463446706
 20
-76.838086851228425
 30
0.0
 40
4.2074999391999981
  1
指定無き公差はJIS 0408-Bによること
  0
ENDBLK
  5
53B
  8
0
  0
BLOCK
  8
0
  2
*U64
 70
     1
 10
0.0
 20
0.0
 30
0.0
  3
*U64
  1

  0
TEXT
  5
53D
  8
図枠
  6
CONTINUOUS
 10
117.9780678698142
 20
-68.481297512670054
 30
0.0
 40
4.2074999391999981
  1
ユニクロメッキ
  0
ENDBLK
  5
53F
  8
0
  0
BLOCK
  8
0
  2
*U65
 70
     1
 10
0.0
 20
0.0
 30
0.0
  3
*U65
  1

  0
TEXT
  5
541
  8
図枠
  6
CONTINUOUS
 10
171.79749661031369
 20
-60.365650306400013
 30
0.0
 40
4.8449999392
  1
3.2t
  0
ENDBLK
  5
543
  8
0
  0
BLOCK
  8
0
  2
*U66
 70
     1
 10
0.0
 20
0.0
 30
0.0
  3
*U66
  1

  0
TEXT
  5
545
  8
図枠
  6
CONTINUOUS
 10
123.00862612940401
 20
-60.338086851228418
 30
0.0
 40
4.2074999391999981
  1
板　　厚
  0
ENDBLK
  5
547
  8
0
  0
BLOCK
  8
0
  2
*U67
 70
     1
 10
0.0
 20
0.0
 30
0.0
  3
*U67
  1

  0
TEXT
  5
549
  8
図枠
  6
CONTINUOUS
 10
42.399187521769527
 20
-83.631393371701009
 30
0.0
 40
3.5062500000000001
  1
日 　付
  0
ENDBLK
  5
54B
  8
0
  0
BLOCK
  8
0
  2
*U68
 70
     1
 10
0.0
 20
0.0
 30
0.0
  3
*U68
  1

  0
TEXT
  5
54D
  8
図枠
  6
CONTINUOUS
 10
146.22357202476601
 20
-100.0623951532487
 30
0.0
 40
4.4979165315999987
  1
LY-602 80x60 承認図
  0
ENDBLK
  5
54F
  8
0
  0
BLOCK
  8
0
  2
*U69
 70
     1
 10
0.0
 20
0.0
 30
0.0
  3
*U69
  1

  0
TEXT
  5
551
  8
図枠
  6
CONTINUOUS
 10
57.883689425322849
 20
-102.77419159505121
 30
0.0
 40
3.5062500000000001
  1
園 原
  0
ENDBLK
  5
553
  8
0
  0
BLOCK
  8
0
  2
*U70
 70
     1
 10
0.0
 20
0.0
 30
0.0
  3
*U70
  1

  0
TEXT
  5
555
  8
図枠
  6
CONTINUOUS
 10
125.1306120141553
 20
-83.429882600702555
 30
0.0
 40
3.5062500000000001
  1
製品名
  0
ENDBLK
  5
557
  8
0
  0
BLOCK
  8
0
  2
*U71
 70
     1
 10
0.0
 20
0.0
 30
0.0
  3
*U71
  1

  0
TEXT
  5
559
  8
図枠
  6
CONTINUOUS
 10
79.794349323800006
 20
-96.470384488452297
 30
0.0
 40
3.5062500000000001
  1
 照査
  0
ENDBLK
  5
55B
  8
0
  0
BLOCK
  8
0
  2
*U72
 70
     1
 10
0.0
 20
0.0
 30
0.0
  3
*U72
  1

  0
TEXT
  5
55D
  8
図枠
  6
CONTINUOUS
 10
86.676508975469019
 20
-60.018566898800003
 30
0.0
 40
4.4979165315999987
  1
SPCC
  0
ENDBLK
  5
55F
  8
0
  0
BLOCK
  8
0
  2
*U73
 70
     1
 10
0.0
 20
0.0
 30
0.0
  3
*U73
  1

  0
TEXT
  5
561
  8
図枠
  6
CONTINUOUS
 10
39.0193050632599
 20
-68.545371115805082
 30
0.0
 40
4.2074999391999981
  1
表面処理
  0
ENDBLK
  5
563
  8
0
  0
BLOCK
  8
0
  2
*U74
 70
     1
 10
0.0
 20
0.0
 30
0.0
  3
*U74
  1

  0
TEXT
  5
565
  8
図枠
  6
CONTINUOUS
 10
41.125179910999989
 20
-113.9243105444441
 30
0.0
 40
6.4769999027000003
  1
株式会社
  0
ENDBLK
  5
567
  8
0
  0
BLOCK
  8
0
  2
*U75
 70
     1
 10
0.0
 20
0.0
 30
0.0
  3
*U75
  1

  0
TEXT
  5
569
  8
図枠
  6
CONTINUOUS
 10
39.06202079868325
 20
-60.252655380381732
 30
0.0
 40
4.2074999391999981
  1
材　　質
  0
ENDBLK
  5
56B
  8
0
  0
BLOCK
  8
0
  2
*U76
 70
     1
 10
0.0
 20
0.0
 30
0.0
  3
*U76
  1

  0
TEXT
  5
56D
  8
図枠
  6
CONTINUOUS
 10
79.794349323800006
 20
-102.88098093515281
 30
0.0
 40
3.5062500000000001
  1
 検図
  0
ENDBLK
  5
56F
  8
0
  0
BLOCK
  8
0
  2
*U77
 70
     1
 10
0.0
 20
0.0
 30
0.0
  3
*U77
  1

  0
TEXT
  5
571
  8
図枠
  6
CONTINUOUS
 10
57.883689425322849
 20
-96.399191595051263
 30
0.0
 40
3.5062500000000001
  1
園 原
  0
ENDBLK
  5
573
  8
0
  0
BLOCK
  8
0
  2
*U78
 70
     1
 10
0.0
 20
0.0
 30
0.0
  3
*U78
  1

  0
TEXT
  5
575
  8
図枠
  6
CONTINUOUS
 10
34.794349323799999
 20
-96.452586265102028
 30
0.0
 40
3.5062500000000001
  1
 設計
  0
ENDBLK
  5
577
  8
0
  0
BLOCK
  8
0
  2
*U79
 70
     1
 10
0.0
 20
0.0
 30
0.0
  3
*U79
  1

  0
TEXT
  5
579
  8
図枠
  6
CONTINUOUS
 10
39.126094401818278
 20
-76.880802586651782
 30
0.0
 40
4.2074999391999981
  1
一般公差
  0
ENDBLK
  5
57B
  8
0
  0
BLOCK
  8
0
  2
*U80
 70
     1
 10
0.0
 20
0.0
 30
0.0
  3
*U80
  1

  0
TEXT
  5
57D
  8
図枠
  6
CONTINUOUS
 10
36.896538410094401
 20
-102.86318271180249
 30
0.0
 40
3.5062500000000001
  1
製図
  0
ENDBLK
  5
57F
  8
0
  0
BLOCK
  8
0
  2
*U81
 70
     1
 10
0.0
 20
0.0
 30
0.0
  3
*U81
  1

  0
TEXT
  5
581
  8
図枠
  6
CONTINUOUS
 10
90.597281463446706
 20
-76.838086851228425
 30
0.0
 40
4.2074999391999981
  1
指定無き公差はJIS 0408-Bによること
  0
ENDBLK
  5
583
  8
0
  0
BLOCK
  8
0
  2
*U82
 70
     1
 10
0.0
 20
0.0
 30
0.0
  3
*U82
  1

  0
TEXT
  5
585
  8
図枠
  6
CONTINUOUS
 10
72.025424831414199
 20
-83.738182711802537
 30
0.0
 40
3.5062500000000001
  1
尺 　度
  0
ENDBLK
  5
587
  8
0
  0
BLOCK
  8
0
  2
*U83
 70
     1
 10
0.0
 20
0.0
 30
0.0
  3
*U83
  1

  0
TEXT
  5
589
  8
図枠
  6
CONTINUOUS
 10
44.125615186744149
 20
-89.935200478299976
 30
0.0
 40
3.5062500000000001
  1
H12.5
  0
ENDBLK
  5
58B
  8
0
  0
BLOCK
  8
0
  2
*U84
 70
     1
 10
0.0
 20
0.0
 30
0.0
  3
*U84
  1

  0
TEXT
  5
58D
  8
図枠
  6
CONTINUOUS
 10
102.7769000852213
 20
-102.86318271180249
 30
0.0
 40
3.5062500000000001
  1
柳 原
  0
ENDBLK
  5
58F
  8
0
  0
BLOCK
  8
0
  2
*U85
 70
     1
 10
0.0
 20
0.0
 30
0.0
  3
*U85
  1

  0
TEXT
  5
591
  8
図枠
  6
CONTINUOUS
 10
72.870840440551262
 20
-89.935200478299976
 30
0.0
 40
3.5062500000000001
  1
1：1.5
  0
ENDBLK
  5
593
  8
0
  0
BLOCK
  8
0
  2
*U86
 70
     1
 10
0.0
 20
0.0
 30
0.0
  3
*U86
  1

  0
TEXT
  5
595
  8
図枠
  6
CONTINUOUS
 10
102.7769000852213
 20
-96.488182711802537
 30
0.0
 40
3.5062500000000001
  1
柳 原
  0
ENDBLK
  5
597
  8
0
  0
BLOCK
  8
0
  2
*D87
 70
     1
 10
0.0
 20
0.0
 30
0.0
  3
*D87
  1

  0
LINE
  5
599
  8
寸法線
 62
     0
 10
-75.381196805075845
 20
-27.154707511075841
 30
0.0
 11
-72.782203048414573
 21
-24.55571375441459
 31
0.0
  0
LINE
  5
59A
  8
寸法線
 62
     0
 10
-84.530245324524145
 20
-27.154707511075841
 30
0.0
 11
-87.129239081185403
 21
-24.555713754414569
 31
0.0
  0
ARC
  5
59B
  8
寸法線
 62
     0
 10
-79.955721064800002
 20
-31.729231770799998
 30
0.0
 40
8.8948864686999976
 50
49.141820333448401
 51
83.758195264241806
  0
ARC
  5
59C
  8
寸法線
 62
     0
 10
-79.955721064800002
 20
-31.729231770799998
 30
0.0
 40
8.8948864686999976
 50
96.241804735758208
 51
130.85817966655151
  0
SOLID
  5
59D
  8
寸法線
 62
     0
 10
-74.063810497115455
 20
-24.923302229396771
 30
0.0
 11
-74.209758931536456
 21
-25.080201625872832
 31
0.0
 12
-73.666086524897764
 22
-25.439597230897771
 32
0.0
 13
-73.666086524897764
 23
-25.439597230897771
 33
0.0
  0
SOLID
  5
59E
  8
寸法線
 62
     0
 10
-85.701683198063535
 20
-25.080201625872821
 30
0.0
 11
-85.847631632484536
 21
-24.923302229396761
 31
0.0
 12
-86.245355604702226
 22
-25.43959723089776
 32
0.0
 13
-86.245355604702226
 23
-25.43959723089776
 33
0.0
  0
TEXT
  5
5F3
  8
寸法線
 62
     0
 10
-81.112300000000005
 20
-23.857900000000001
 30
0.0
 40
0.5783040000000002
  1
90°
  0
POINT
  5
5A0
  8
DEFPOINTS
 62
     0
 10
-79.955721064800002
 20
-31.729231770799998
 30
0.0
  0
POINT
  5
5A1
  8
DEFPOINTS
 62
     0
 10
-75.425390978899983
 20
-27.198901684900001
 30
0.0
  0
POINT
  5
5A2
  8
DEFPOINTS
 62
     0
 10
-84.486051150700007
 20
-27.198901684900001
 30
0.0
  0
POINT
  5
5A3
  8
DEFPOINTS
 62
     0
 10
-77.653555042675734
 20
-23.137431208773489
 30
0.0
  0
ENDBLK
  5
5A5
  8
0
  0
BLOCK
  8
0
  2
*D88
 70
     1
 10
0.0
 20
0.0
 30
0.0
  3
*D88
  1

  0
LINE
  5
5A7
  8
寸法線
 62
     0
 10
-50.018221064799967
 20
-27.729231770799991
 30
0.0
 11
-58.36298713726201
 21
-27.729231770799998
 31
0.0
  0
LINE
  5
5A8
  8
寸法線
 62
     0
 10
-109.9532462271151
 20
52.958317246994497
 30
0.0
 11
-108.6719476504062
 21
20.625548475356641
 31
0.0
  0
ARC
  5
5A9
  8
寸法線
 62
     0
 10
-106.7557210648
 20
-27.729231770799991
 30
0.0
 40
49.642733927537961
 50
5.1955108848760867
 51
40.374849007210457
  0
ARC
  5
5AA
  8
寸法線
 62
     0
 10
-106.7557210648
 20
-27.729231770799991
 30
0.0
 40
49.642733927537961
 50
57.255833614755751
 51
87.073846489464984
  0
SOLID
  5
5AB
  8
寸法線
 62
     0
 10
-56.567715218437002
 20
-23.199863323152918
 30
0.0
 11
-58.066173737610391
 21
-23.26784910340681
 31
0.0
 12
-57.11298713726201
 22
-27.729231770799998
 32
0.0
 13
-57.11298713726201
 23
-27.729231770799998
 33
0.0
  0
SOLID
  5
5AC
  8
寸法線
 62
     0
 10
-104.2258170170221
 20
21.098788256030812
 30
0.0
 11
-104.21721962277699
 21
22.598763617432521
 31
0.0
 12
-108.7214444041046
 22
21.8745681194669
 32
0.0
 13
-108.7214444041046
 23
21.8745681194669
 33
0.0
  0
TEXT
  5
5F4
  8
寸法線
 62
     0
 10
-83.062399999999997
 20
1.67014
 30
0.0
 40
4.4979199999999988
  1
92°
  0
POINT
  5
5AE
  8
DEFPOINTS
 62
     0
 10
-106.7557210648
 20
-27.729231770799991
 30
0.0
  0
POINT
  5
5AF
  8
DEFPOINTS
 62
     0
 10
-49.955721064800002
 20
-27.729231770799998
 30
0.0
  0
POINT
  5
5B0
  8
DEFPOINTS
 62
     0
 10
-109.9557210648
 20
53.020768229200002
 30
0.0
  0
POINT
  5
5B1
  8
DEFPOINTS
 62
     0
 10
-64.095295947569625
 20
-2.3424407050211351
 30
0.0
  0
ENDBLK
  5
5B3
  8
0
  0
BLOCK
  8
0
  2
*D89
 70
     1
 10
0.0
 20
0.0
 30
0.0
  3
*D89
  1

  0
ARC
  5
939
  8
寸法線
 62
     0
 10
-109.9557210648
 20
-27.729231770800009
 30
0.0
 40
47.008169498201951
 50
0.2193926443651049
 51
44.690566200236837
  0
ARC
  5
93A
  8
寸法線
 62
     0
 10
-109.9557210648
 20
-27.729231770800009
 30
0.0
 40
47.008169498201951
 50
45.311114059537829
 51
89.780607355634885
  0
SOLID
  5
93B
  8
寸法線
 62
     0
 10
-62.917896242530603
 20
-27.54917466387424
 30
0.0
 11
-62.977896132564211
 21
-27.549289537524029
 31
0.0
 12
-62.947551566598051
 22
-27.729231770799949
 32
0.0
 13
-62.947551566598051
 23
-27.729231770799949
 33
0.0
  0
SOLID
  5
93C
  8
寸法線
 62
     0
 10
-109.77577883152399
 20
19.248593161435771
 30
0.0
 11
-109.7756639578742
 21
19.30859305146938
 31
0.0
 12
-109.9557210647999
 22
19.278937727401939
 32
0.0
 13
-109.9557210647999
 23
19.278937727401939
 33
0.0
  0
INSERT
  5
93D
  8
0
  6
CONTINUOUS
  2
*U100
 10
0.0
 20
0.0
 30
0.0
  0
POINT
  5
93E
  8
DEFPOINTS
 62
     0
 10
-69.245452093952352
 20
-4.2251470216990219
 30
0.0
  0
POINT
  5
93F
  8
DEFPOINTS
 62
     0
 10
-109.9557210648
 20
52.270768229200002
 30
0.0
  0
POINT
  5
940
  8
DEFPOINTS
 62
     0
 10
-49.955721064799988
 20
-27.729231770799998
 30
0.0
  0
POINT
  5
941
  8
DEFPOINTS
 62
     0
 10
-152.1326691508813
 20
-27.729231770799998
 30
0.0
  0
POINT
  5
942
  8
DEFPOINTS
 62
     0
 10
-109.9557210648
 20
-62.267075040106867
 30
0.0
  0
ENDBLK
  5
91A
  8
0
  0
BLOCK
  8
0
  2
*U90
 70
     1
 10
0.0
 20
0.0
 30
0.0
  3
*U90
  1

  0
TEXT
  5
949
  8
ﾚｲﾔ_1
  6
CONTINUOUS
 10
114.5259489319
 20
-66.625775672492892
 30
0.0
 40
5.9972220420999989
  1
皿加工部詳細
  0
ENDBLK
  5
94A
  8
0
  0
BLOCK
  8
0
  2
*D91
 70
     1
 10
0.0
 20
0.0
 30
0.0
  3
*D91
  1

  0
LINE
  5
94D
  8
0
  6
CONTINUOUS
 62
     4
 10
126.3132160380861
 20
-30.822488686615898
 30
0.0
 11
126.3132160380861
 21
-51.826218802956312
 31
0.0
  0
LINE
  5
94E
  8
0
  6
CONTINUOUS
 62
     4
 10
135.91321603808601
 20
-30.822488686615898
 30
0.0
 11
135.91321603808601
 21
-51.826218802956312
 31
0.0
  0
LINE
  5
94F
  8
0
  6
CONTINUOUS
 62
     4
 10
128.8132160380861
 20
-49.826218802956312
 30
0.0
 11
133.41321603808601
 21
-49.826218802956312
 31
0.0
  0
LINE
  5
950
  8
0
  6
CONTINUOUS
 62
     4
 10
135.91321603808601
 20
-49.826218802956312
 30
0.0
 11
149.6177614926315
 21
-49.826218802956312
 31
0.0
  0
SOLID
  5
951
  8
0
  6
CONTINUOUS
 62
     4
 10
128.8132160380861
 20
-49.409552136289641
 30
0.0
 11
128.8132160380861
 21
-50.242885469622969
 31
0.0
 12
126.3132160380861
 22
-49.826218802956312
 32
0.0
 13
126.3132160380861
 23
-49.826218802956312
 33
0.0
  0
SOLID
  5
952
  8
0
  6
CONTINUOUS
 62
     4
 10
133.41321603808601
 20
-49.409552136289641
 30
0.0
 11
133.41321603808601
 21
-50.242885469622969
 31
0.0
 12
135.91321603808601
 22
-49.826218802956312
 32
0.0
 13
135.91321603808601
 23
-49.826218802956312
 33
0.0
  0
INSERT
  5
953
  8
0
  6
CONTINUOUS
  2
*U101
 10
0.0
 20
0.0
 30
0.0
  0
POINT
  5
954
  8
DEFPOINTS
  6
CONTINUOUS
 62
     0
 10
126.3132160380861
 20
-28.322488686615898
 30
0.0
  0
POINT
  5
955
  8
DEFPOINTS
  6
CONTINUOUS
 62
     0
 10
135.91321603808601
 20
-28.322488686615898
 30
0.0
  0
POINT
  5
956
  8
DEFPOINTS
  6
CONTINUOUS
 62
     0
 10
135.91321603808601
 20
-49.826218802956312
 30
0.0
  0
ENDBLK
  5
957
  8
0
  0
BLOCK
  8
0
  2
*D92
 70
     1
 10
0.0
 20
0.0
 30
0.0
  3
*D92
  1

  0
LINE
  5
95A
  8
0
  6
CONTINUOUS
 62
     4
 10
123.11321603808599
 20
-19.422488686615878
 30
0.0
 11
123.11321603808599
 21
-1.992296491435581
 31
0.0
  0
LINE
  5
95B
  8
0
  6
CONTINUOUS
 62
     4
 10
139.11321603808611
 20
-19.422488686615878
 30
0.0
 11
139.11321603808611
 21
-1.992296491435581
 31
0.0
  0
LINE
  5
95C
  8
0
  6
CONTINUOUS
 62
     4
 10
125.61321603808599
 20
-3.9922964914355812
 30
0.0
 11
136.61321603808611
 21
-3.9922964914355812
 31
0.0
  0
SOLID
  5
95D
  8
0
  6
CONTINUOUS
 62
     4
 10
125.61321603808599
 20
-3.5756298247689151
 30
0.0
 11
125.61321603808599
 21
-4.4089631581022477
 31
0.0
 12
123.11321603808599
 22
-3.9922964914355812
 32
0.0
 13
123.11321603808599
 23
-3.9922964914355812
 33
0.0
  0
SOLID
  5
95E
  8
0
  6
CONTINUOUS
 62
     4
 10
136.61321603808611
 20
-3.5756298247689151
 30
0.0
 11
136.61321603808611
 21
-4.4089631581022477
 31
0.0
 12
139.11321603808611
 22
-3.9922964914355812
 32
0.0
 13
139.11321603808611
 23
-3.9922964914355812
 33
0.0
  0
INSERT
  5
95F
  8
0
  6
CONTINUOUS
  2
*U102
 10
0.0
 20
0.0
 30
0.0
  0
POINT
  5
960
  8
DEFPOINTS
  6
CONTINUOUS
 62
     0
 10
123.11321603808599
 20
-21.922488686615889
 30
0.0
  0
POINT
  5
961
  8
DEFPOINTS
  6
CONTINUOUS
 62
     0
 10
139.11321603808611
 20
-21.922488686615889
 30
0.0
  0
POINT
  5
962
  8
DEFPOINTS
  6
CONTINUOUS
 62
     0
 10
139.11321603808611
 20
-3.9922964914355812
 30
0.0
  0
ENDBLK
  5
963
  8
0
  0
BLOCK
  8
0
  2
*D93
 70
     1
 10
0.0
 20
0.0
 30
0.0
  3
*D93
  1

  0
LINE
  5
966
  8
0
  6
CONTINUOUS
 62
     4
 10
140.88098299105249
 20
-20.154721733649549
 30
0.0
 11
165.29461020109881
 21
4.2589054763957641
 31
0.0
  0
LINE
  5
967
  8
0
  6
CONTINUOUS
 62
     4
 10
121.3454490851197
 20
-20.15472173364952
 30
0.0
 11
96.931821875073709
 21
4.2589054763963503
 31
0.0
  0
ARC
  5
968
  8
0
  6
CONTINUOUS
 62
     4
 10
131.11321603808591
 20
-29.92248868661575
 30
0.0
 40
46.339791206152363
 50
48.091443048884308
 51
131.90855695111469
  0
SOLID
  5
969
  8
0
  6
CONTINUOUS
 62
     4
 10
162.3521611675408
 20
4.8665988000398377
 30
0.0
 11
161.77901490565341
 21
4.2616625993303119
 31
0.0
 12
163.8803966387257
 22
2.8446919140226958
 32
0.0
 13
163.8803966387257
 23
2.8446919140226958
 33
0.0
  0
SOLID
  5
96A
  8
0
  6
CONTINUOUS
 62
     4
 10
100.4474171705191
 20
4.2616625993308377
 30
0.0
 11
99.874270908631686
 21
4.8665988000403742
 31
0.0
 12
98.346035437446801
 22
2.8446919140232581
 32
0.0
 13
98.346035437446801
 23
2.8446919140232581
 33
0.0
  0
INSERT
  5
96B
  8
0
  6
CONTINUOUS
  2
*U103
 10
0.0
 20
0.0
 30
0.0
  0
POINT
  5
96C
  8
DEFPOINTS
  6
CONTINUOUS
 62
     0
 10
143.106836548313
 20
14.838312424249731
 30
0.0
  0
POINT
  5
96D
  8
DEFPOINTS
  6
CONTINUOUS
 62
     0
 10
123.11321603808599
 20
-21.922488686615889
 30
0.0
  0
POINT
  5
96E
  8
DEFPOINTS
  6
CONTINUOUS
 62
     0
 10
135.91321603808601
 20
-25.122488686615899
 30
0.0
  0
POINT
  5
96F
  8
DEFPOINTS
  6
CONTINUOUS
 62
     0
 10
139.11321603808611
 20
-21.922488686615889
 30
0.0
  0
POINT
  5
970
  8
DEFPOINTS
  6
CONTINUOUS
 62
     0
 10
126.3132160380861
 20
-25.122488686615899
 30
0.0
  0
ENDBLK
  5
971
  8
0
  0
BLOCK
  8
0
  2
*D95
 70
     1
 10
0.0
 20
0.0
 30
0.0
  3
*D95
  1

  0
LINE
  5
9BA
  8
0
  6
CONTINUOUS
 62
     4
 10
171.79477577227669
 20
18.922472198015189
 30
0.0
 11
196.20840298232289
 21
43.336099408060548
 31
0.0
  0
LINE
  5
9BB
  8
0
  6
CONTINUOUS
 62
     4
 10
152.25924186634381
 20
18.922472198015221
 30
0.0
 11
127.8456146562979
 21
43.336099408061131
 31
0.0
  0
ARC
  5
9BC
  8
0
  6
CONTINUOUS
 62
     4
 10
162.02700881931011
 20
9.1547052450489836
 30
0.0
 40
46.339791206152377
 50
48.0914430488844
 51
131.9085569511146
  0
SOLID
  5
9BD
  8
0
  6
CONTINUOUS
 62
     4
 10
193.265953948765
 20
43.943792731704619
 30
0.0
 11
192.6928076868775
 21
43.338856530995102
 31
0.0
 12
194.79418941994979
 22
41.921885845687477
 32
0.0
 13
194.79418941994979
 23
41.921885845687477
 33
0.0
  0
SOLID
  5
9BE
  8
0
  6
CONTINUOUS
 62
     4
 10
131.36120995174329
 20
43.338856530995614
 30
0.0
 11
130.78806368985579
 21
43.943792731705152
 31
0.0
 12
129.259828218671
 22
41.921885845688031
 32
0.0
 13
129.259828218671
 23
41.921885845688031
 33
0.0
  0
INSERT
  5
9BF
  8
0
  6
CONTINUOUS
  2
*U104
 10
0.0
 20
0.0
 30
0.0
  0
POINT
  5
9C0
  8
DEFPOINTS
  6
CONTINUOUS
 62
     0
 10
174.0206293295372
 20
53.915506355914488
 30
0.0
  0
POINT
  5
9C1
  8
DEFPOINTS
  6
CONTINUOUS
 62
     0
 10
154.0270088193102
 20
17.154705245048849
 30
0.0
  0
POINT
  5
9C2
  8
DEFPOINTS
  6
CONTINUOUS
 62
     0
 10
166.82700881931021
 20
13.95470524504884
 30
0.0
  0
POINT
  5
9C3
  8
DEFPOINTS
  6
CONTINUOUS
 62
     0
 10
170.02700881931031
 20
17.154705245048849
 30
0.0
  0
POINT
  5
9C4
  8
DEFPOINTS
  6
CONTINUOUS
 62
     0
 10
157.22700881931021
 20
13.95470524504884
 30
0.0
  0
ENDBLK
  5
9A0
  8
0
  0
BLOCK
  8
0
  2
*D96
 70
     1
 10
0.0
 20
0.0
 30
0.0
  3
*D96
  1

  0
LINE
  5
9C5
  8
0
  6
CONTINUOUS
 62
     4
 10
154.0270088193102
 20
19.654705245048849
 30
0.0
 11
154.0270088193102
 21
37.084897440229163
 31
0.0
  0
LINE
  5
9C6
  8
0
  6
CONTINUOUS
 62
     4
 10
170.02700881931031
 20
19.654705245048849
 30
0.0
 11
170.02700881931031
 21
37.084897440229163
 31
0.0
  0
LINE
  5
9C7
  8
0
  6
CONTINUOUS
 62
     4
 10
156.5270088193102
 20
35.084897440229163
 30
0.0
 11
167.52700881931031
 21
35.084897440229163
 31
0.0
  0
SOLID
  5
9C8
  8
0
  6
CONTINUOUS
 62
     4
 10
156.5270088193102
 20
35.50156410689582
 30
0.0
 11
156.5270088193102
 21
34.668230773562492
 31
0.0
 12
154.0270088193102
 22
35.084897440229163
 32
0.0
 13
154.0270088193102
 23
35.084897440229163
 33
0.0
  0
SOLID
  5
9C9
  8
0
  6
CONTINUOUS
 62
     4
 10
167.52700881931031
 20
35.50156410689582
 30
0.0
 11
167.52700881931031
 21
34.668230773562492
 31
0.0
 12
170.02700881931031
 22
35.084897440229163
 32
0.0
 13
170.02700881931031
 23
35.084897440229163
 33
0.0
  0
INSERT
  5
9CA
  8
0
  6
CONTINUOUS
  2
*U105
 10
0.0
 20
0.0
 30
0.0
  0
POINT
  5
9CB
  8
DEFPOINTS
  6
CONTINUOUS
 62
     0
 10
154.0270088193102
 20
17.154705245048849
 30
0.0
  0
POINT
  5
9CC
  8
DEFPOINTS
  6
CONTINUOUS
 62
     0
 10
170.02700881931031
 20
17.154705245048849
 30
0.0
  0
POINT
  5
9CD
  8
DEFPOINTS
  6
CONTINUOUS
 62
     0
 10
170.02700881931031
 20
35.084897440229163
 30
0.0
  0
ENDBLK
  5
9AC
  8
0
  0
BLOCK
  8
0
  2
*D97
 70
     1
 10
0.0
 20
0.0
 30
0.0
  3
*D97
  1

  0
LINE
  5
9CE
  8
0
  6
CONTINUOUS
 62
     4
 10
157.22700881931021
 20
8.2547052450488394
 30
0.0
 11
157.22700881931021
 21
-12.74902487129156
 31
0.0
  0
LINE
  5
9CF
  8
0
  6
CONTINUOUS
 62
     4
 10
166.82700881931021
 20
8.2547052450488394
 30
0.0
 11
166.82700881931021
 21
-12.74902487129156
 31
0.0
  0
LINE
  5
9D0
  8
0
  6
CONTINUOUS
 62
     4
 10
159.7270088193103
 20
-10.749024871291571
 30
0.0
 11
164.32700881931021
 21
-10.749024871291571
 31
0.0
  0
LINE
  5
9D1
  8
0
  6
CONTINUOUS
 62
     4
 10
166.82700881931021
 20
-10.749024871291571
 30
0.0
 11
180.53155427385559
 21
-10.749024871291571
 31
0.0
  0
SOLID
  5
9D2
  8
0
  6
CONTINUOUS
 62
     4
 10
159.7270088193103
 20
-10.332358204624899
 30
0.0
 11
159.7270088193103
 21
-11.16569153795823
 31
0.0
 12
157.22700881931021
 22
-10.749024871291571
 32
0.0
 13
157.22700881931021
 23
-10.749024871291571
 33
0.0
  0
SOLID
  5
9D3
  8
0
  6
CONTINUOUS
 62
     4
 10
164.32700881931021
 20
-10.332358204624899
 30
0.0
 11
164.32700881931021
 21
-11.16569153795823
 31
0.0
 12
166.82700881931021
 22
-10.749024871291571
 32
0.0
 13
166.82700881931021
 23
-10.749024871291571
 33
0.0
  0
INSERT
  5
9D4
  8
0
  6
CONTINUOUS
  2
*U106
 10
0.0
 20
0.0
 30
0.0
  0
POINT
  5
9D5
  8
DEFPOINTS
  6
CONTINUOUS
 62
     0
 10
157.22700881931021
 20
10.754705245048839
 30
0.0
  0
POINT
  5
9D6
  8
DEFPOINTS
  6
CONTINUOUS
 62
     0
 10
166.82700881931021
 20
10.754705245048839
 30
0.0
  0
POINT
  5
9D7
  8
DEFPOINTS
  6
CONTINUOUS
 62
     0
 10
166.82700881931021
 20
-10.749024871291571
 30
0.0
  0
ENDBLK
  5
9B9
  8
0
  0
BLOCK
  8
0
  2
*D98
 70
     1
 10
0.0
 20
0.0
 30
0.0
  3
*D98
  1

  0
LINE
  5
A54
  8
0
  6
CONTINUOUS
 62
     4
 10
-96.115250445028636
 20
-27.72923177080002
 30
0.0
 11
-61.589167737860997
 21
-27.729231770800791
 31
0.0
  0
LINE
  5
A55
  8
0
  6
CONTINUOUS
 62
     4
 10
-109.9289589440134
 20
-13.91552327181515
 30
0.0
 11
-109.9289589440134
 21
20.61055943535272
 31
0.0
  0
ARC
  5
A56
  8
0
  6
CONTINUOUS
 62
     4
 10
-109.9289589440134
 20
-27.729231770799711
 30
0.0
 40
46.33979120615242
 50
3.09144304888415
 51
86.908556951114576
  0
SOLID
  5
A57
  8
0
  6
CONTINUOUS
 62
     4
 10
-63.240089332755119
 20
-25.21890203584562
 30
0.0
 11
-64.073119430854405
 21
-25.24138091716021
 31
0.0
 12
-63.58916773786099
 22
-27.729231770800752
 32
0.0
 13
-63.58916773786099
 23
-27.729231770800752
 33
0.0
  0
SOLID
  5
A58
  8
0
  6
CONTINUOUS
 62
     4
 10
-107.44110809037289
 20
18.126607742359269
 30
0.0
 11
-107.4186292090583
 21
18.959637840458541
 31
0.0
 12
-109.9289589440134
 22
18.61055943535272
 32
0.0
 13
-109.9289589440134
 23
18.61055943535272
 33
0.0
  0
TEXT
  8
0
  40
5
  5
A5F
  62
4
  72
0
  71
0
 10
-84.6869
 20
-1.33718
 30
0.000000
  1
90°
  7
ゴシック
  0
POINT
  5
A5A
  8
DEFPOINTS
  6
CONTINUOUS
 62
     0
 10
-69.797522553418332
 20
-4.5593361677240969
 30
0.0
  0
POINT
  5
A5B
  8
DEFPOINTS
  6
CONTINUOUS
 62
     0
 10
-109.9289589440134
 20
-16.415523271815161
 30
0.0
  0
POINT
  5
A5C
  8
DEFPOINTS
  6
CONTINUOUS
 62
     0
 10
-103.1407338446226
 20
-27.729231770799871
 30
0.0
  0
POINT
  5
A5D
  8
DEFPOINTS
  6
CONTINUOUS
 62
     0
 10
-98.615250445028636
 20
-27.729231770799959
 30
0.0
  0
POINT
  5
A5E
  8
DEFPOINTS
  6
CONTINUOUS
 62
     0
 10
-109.9289589440134
 20
-20.94100667140907
 30
0.0
  0
ENDBLK
  5
9E6
  8
0
  0
BLOCK
  8
0
  2
*D99
 70
     1
 10
0.0
 20
0.0
 30
0.0
  3
*D99
  1

  0
LINE
  5
A23
  8
寸法線
 62
     0
 10
90.050765594166705
 20
-13.46123612650729
 30
0.0
 11
106.2698130189754
 21
2.7578112983015002
 31
0.0
  0
LINE
  5
A24
  8
寸法線
 62
     0
 10
71.841056903118925
 20
-13.46123612650681
 30
0.0
 11
55.62200947838916
 21
2.7578112985809828
 31
0.0
  0
ARC
  5
A25
  8
寸法線
 62
     0
 10
80.945911248542572
 20
-22.56609047213146
 30
0.0
 40
35.633405335950272
 50
45.289426485633292
 51
90.326461929545644
  0
ARC
  5
A26
  8
寸法線
 62
     0
 10
80.945911248542572
 20
-22.56609047213146
 30
0.0
 40
35.633405335950272
 50
91.493981701378118
 51
134.71057351373429
  0
SOLID
  5
A27
  8
寸法線
 62
     0
 10
106.03609306922939
 20
2.7787561350529479
 30
0.0
 11
105.993773954902
 21
2.7362227062875548
 31
0.0
 12
106.1425337983619
 22
2.630532077687922
 32
0.0
 13
106.1425337983619
 23
2.630532077687922
 33
0.0
  0
SOLID
  5
A28
  8
寸法線
 62
     0
 10
55.898048542462412
 20
2.7362227065639888
 30
0.0
 11
55.85572942813544
 21
2.7787561353298491
 31
0.0
 12
55.74928869900134
 22
2.6305320779659969
 32
0.0
 13
55.74928869900134
 23
2.6305320779659969
 33
0.0
  0
TEXT
  8
寸法線
  40
0.18
  5
A60
  62
0
  72
0
  71
0
 10
80.0199
 20
12.7442
 30
0.000000
  1
90°
  0
POINT
  5
A2A
  8
DEFPOINTS
 62
     0
 10
80.945911248542572
 20
-22.566090472131449
 30
0.0
  0
POINT
  5
A2B
  8
DEFPOINTS
 62
     0
 10
90.006571420342539
 20
-13.50543030033146
 30
0.0
  0
POINT
  5
A2C
  8
DEFPOINTS
 62
     0
 10
71.885251076942595
 20
-13.505430300331451
 30
0.0
  0
POINT
  5
A2D
  8
DEFPOINTS
 62
     0
 10
90.168515191470902
 20
11.853136020455681
 30
0.0
  0
ENDBLK
  5
A2F
  8
0
  0
BLOCK
  8
0
  2
*U100
 70
     1
 10
0.0
 20
0.0
 30
0.0
  3
*U100
  1

  0
TEXT
  5
A39
  8
寸法線
  6
CONTINUOUS
 62
     0
 10
-76.98892564145477
 20
5.4205636525452006
 30
0.0
 40
0.18
  1
90°
  0
ENDBLK
  5
A3B
  8
0
  0
BLOCK
  8
0
  2
*U101
 70
     1
 10
0.0
 20
0.0
 30
0.0
  3
*U101
  1

  0
TEXT
  5
A3D
  8
0
  6
CONTINUOUS
 62
     4
 10
139.41321603808601
 20
-47.618832439319938
 30
0.0
 40
5.0
  1
φ4
  7
ゴシック
  0
ENDBLK
  5
A3F
  8
0
  0
BLOCK
  8
0
  2
*U102
 70
     1
 10
0.0
 20
0.0
 30
0.0
  3
*U102
  1

  0
TEXT
  5
A41
  8
0
  6
CONTINUOUS
 62
     4
 10
126.5677614926315
 20
-1.784910127799217
 30
0.0
 40
5.0
  1
φ8
  7
ゴシック
  0
ENDBLK
  5
A43
  8
0
  0
BLOCK
  8
0
  2
*U103
 70
     1
 10
0.0
 20
0.0
 30
0.0
  3
*U103
  1

  0
TEXT
  5
A45
  8
0
  6
CONTINUOUS
 62
     4
 10
123.6416251289954
 20
17.41730251953663
 30
0.0
 40
5.0
  1
90°
  7
ゴシック
  0
ENDBLK
  5
A47
  8
0
  0
BLOCK
  8
0
  2
*U104
 70
     1
 10
0.0
 20
0.0
 30
0.0
  3
*U104
  1

  0
TEXT
  5
A49
  8
0
  6
CONTINUOUS
 62
     4
 10
154.5554179102196
 20
56.494496451201371
 30
0.0
 40
5.0
  1
90°
  7
ゴシック
  0
ENDBLK
  5
A4B
  8
0
  0
BLOCK
  8
0
  2
*U105
 70
     1
 10
0.0
 20
0.0
 30
0.0
  3
*U105
  1

  0
TEXT
  5
A4D
  8
0
  6
CONTINUOUS
 62
     4
 10
157.48155427385569
 20
37.292283803865523
 30
0.0
 40
5.0
  1
φ8
  7
ゴシック
  0
ENDBLK
  5
A4F
  8
0
  0
BLOCK
  8
0
  2
*U106
 70
     1
 10
0.0
 20
0.0
 30
0.0
  3
*U106
  1

  0
TEXT
  5
A51
  8
0
  6
CONTINUOUS
 62
     4
 10
170.32700881931009
 20
-8.5416385076552022
 30
0.0
 40
5.0
  1
φ4
  7
ゴシック
  0
ENDBLK
  5
A53
  8
0
  0
ENDSEC
  0
SECTION
  2
ENTITIES
  0
LINE
  5
2F
  8
図枠
 62
     5
 10
103.79434932380001
 20
145.2543496328
 30
0.0
 11
103.79434932380001
 21
167.7543496328
 31
0.0
  0
INSERT
  5
30
  8
0
  6
CONTINUOUS
  2
*U53
 10
0.0
 20
0.0
 30
0.0
  0
LINE
  5
31
  8
図枠
 62
     5
 10
67.794349323800006
 20
152.7543496328
 30
0.0
 11
208.79434932379999
 21
152.7543496328
 31
0.0
  0
LINE
  5
33
  8
ﾚｲﾔ_1
  6
BORDER
 62
     3
 10
95.603841145800004
 20
98.066861979200013
 30
0.0
 11
107.6038411458
 21
98.066861979200013
 31
0.0
  0
CIRCLE
  5
34
  8
ﾚｲﾔ_1
  6
STITCH
 10
101.6038411458
 20
98.066861979200013
 30
0.0
 40
4.0
  0
LINE
  5
35
  8
ﾚｲﾔ_1
 62
     5
 10
124.80384114580001
 20
113.0668619792
 30
0.0
 11
41.603841145799997
 21
113.0668619792
 31
0.0
  0
DIMENSION
  5
46
  8
寸法線
  2
*D2
 10
41.603841145799997
 20
73.066861979199999
 30
0.0
 11
71.603841145800004
 21
73.066861979199999
 31
0.0
 70
   128
  1
<>
 13
41.603841145799997
 23
83.066861979199984
 33
0.0
 14
101.6038411458
 24
92.066861979199984
 34
0.0
 50
180.0
  0
DIMENSION
  5
55
  8
寸法線
  2
*D3
 10
101.6038411458
 20
73.066861979199999
 30
0.0
 11
113.2038411458
 21
73.066861979199999
 31
0.0
 70
   128
  1
<>
 13
101.6038411458
 23
92.066861979199984
 33
0.0
 14
124.80384114580001
 24
83.066861979199984
 34
0.0
 50
180.0
  0
DIMENSION
  5
64
  8
寸法線
  2
*D4
 10
31.603841145800001
 20
98.066861979200013
 30
0.0
 11
31.603841145800001
 21
90.566861979199984
 31
0.0
 70
   128
  1
<>
 13
95.603841145800004
 23
98.066861979200013
 33
0.0
 14
41.603841145799997
 24
83.066861979199984
 34
0.0
 50
90.0
  0
DIMENSION
  5
73
  8
寸法線
  2
*D5
 10
31.603841145800001
 20
113.0668619792
 30
0.0
 11
31.603841145800001
 21
105.5668619792
 31
0.0
 70
   128
  1
<>
 13
41.603841145799997
 23
113.0668619792
 33
0.0
 14
95.603841145800004
 24
98.066861979200013
 34
0.0
 50
90.0
  0
DIMENSION
  5
82
  8
寸法線
  2
*D6
 10
121.6038411458
 20
128.06686197920001
 30
0.0
 11
81.603841145800004
 21
128.06686197920001
 31
0.0
 70
   128
  1
<>
 13
121.6038411458
 23
113.0668619792
 33
0.0
 14
41.603841145799997
 24
113.0668619792
 34
0.0
  0
DIMENSION
  5
91
  8
寸法線
  2
*D7
 10
124.80384114580001
 20
128.06686197920001
 30
0.0
 11
123.2038411458
 21
128.06686197920001
 31
0.0
 70
   128
  1
<>
 13
124.80384114580001
 23
113.0668619792
 33
0.0
 14
121.6038411458
 24
113.0668619792
 34
0.0
  0
LINE
  5
92
  8
図枠
 62
     5
 10
67.794349323800006
 20
160.2543496328
 30
0.0
 11
208.79434932379999
 21
160.2543496328
 31
0.0
  0
LINE
  5
93
  8
図枠
 62
     5
 10
193.79434932379999
 20
145.2543496328
 30
0.0
 11
193.79434932379999
 21
167.7543496328
 31
0.0
  0
LINE
  5
94
  8
図枠
 62
     5
 10
178.79434932379999
 20
145.2543496328
 30
0.0
 11
178.79434932379999
 21
167.7543496328
 31
0.0
  0
LINE
  5
95
  8
図枠
 62
     5
 10
67.794349323800006
 20
145.2543496328
 30
0.0
 11
67.794349323800006
 21
167.7543496328
 31
0.0
  0
LINE
  5
96
  8
図枠
 62
     5
 10
73.367921244800002
 20
159.83077588239999
 30
0.0
 11
69.655421244799996
 21
153.40053725929999
 31
0.0
  0
LINE
  5
97
  8
図枠
 62
     5
 10
73.367921244800002
 20
159.83077588239999
 30
0.0
 11
77.080421244799979
 21
153.40053725929999
 31
0.0
  0
LINE
  5
98
  8
図枠
 62
     5
 10
79.794349323800006
 20
145.2543496328
 30
0.0
 11
79.794349323800006
 21
167.7543496328
 31
0.0
  0
INSERT
  5
99
  8
0
  6
CONTINUOUS
  2
*U54
 10
0.0
 20
0.0
 30
0.0
  0
INSERT
  5
9A
  8
0
  6
CONTINUOUS
  2
*U55
 10
0.0
 20
0.0
 30
0.0
  0
INSERT
  5
9B
  8
0
  6
CONTINUOUS
  2
*U56
 10
0.0
 20
0.0
 30
0.0
  0
INSERT
  5
9C
  8
0
  6
CONTINUOUS
  2
*U57
 10
0.0
 20
0.0
 30
0.0
  0
LINE
  5
9D
  8
図枠
 62
     5
 10
69.655421244799996
 20
145.97553725930001
 30
0.0
 11
77.080421244799979
 21
145.97553725930001
 31
0.0
  0
LINE
  5
9E
  8
図枠
 62
     5
 10
69.655421244799996
 20
153.40053725929999
 30
0.0
 11
77.080421244799979
 21
153.40053725929999
 31
0.0
  0
LINE
  5
9F
  8
図枠
 62
     5
 10
73.367921244800002
 20
152.40577588240001
 30
0.0
 11
77.080421244799979
 21
145.97553725930001
 31
0.0
  0
LINE
  5
A0
  8
図枠
 62
     5
 10
73.367921244800002
 20
152.40577588240001
 30
0.0
 11
69.655421244799996
 21
145.97553725930001
 31
0.0
  0
LINE
  5
A1
  8
図枠
 62
     5
 10
67.794349323800006
 20
145.2543496328
 30
0.0
 11
208.79434932379999
 21
145.2543496328
 31
0.0
  0
LINE
  5
A2
  8
図枠
 10
108.4438578235
 20
-111.71344280700001
 30
0.0
 11
108.4438578235
 21
-113.873442807
 31
0.0
  0
INSERT
  5
A3
  8
0
  6
CONTINUOUS
  2
*U58
 10
0.0
 20
0.0
 30
0.0
  0
LINE
  5
A4
  8
図枠
 10
111.7900705407
 20
-83.642650367200005
 30
0.0
 11
111.7900705407
 21
-87.098650367199994
 31
0.0
  0
INSERT
  5
A5
  8
0
  6
CONTINUOUS
  2
*U59
 10
0.0
 20
0.0
 30
0.0
  0
LINE
  5
A6
  8
図枠
 10
34.794349323799999
 20
-78.9956503672
 30
0.0
 11
208.79434932379999
 21
-78.9956503672
 31
0.0
  0
LINE
  5
A7
  8
ﾚｲﾔ_1
 62
     5
 10
124.80384114580001
 20
83.066861979199984
 30
0.0
 11
124.80384114580001
 21
113.0668619792
 31
0.0
  0
LINE
  5
A8
  8
ﾚｲﾔ_1
 62
     5
 10
41.603841145799997
 20
83.066861979199984
 30
0.0
 11
124.80384114580001
 21
83.066861979199984
 31
0.0
  0
LINE
  5
A9
  8
ﾚｲﾔ_1
  6
BORDER
 62
     3
 10
118.8604754051
 20
107.0668619792
 30
0.0
 11
127.65787123840001
 21
107.0668619792
 31
0.0
  0
LINE
  5
AA
  8
ﾚｲﾔ_1
 62
     5
 10
121.6038411458
 20
83.066861979199984
 30
0.0
 11
121.6038411458
 21
113.0668619792
 31
0.0
  0
LINE
  5
AB
  8
ﾚｲﾔ_1
  6
STITCH
 10
121.6038411458
 20
95.816861979199984
 30
0.0
 11
124.80384114580001
 21
95.816861979199984
 31
0.0
  0
LINE
  5
AC
  8
ﾚｲﾔ_1
  6
STITCH
 10
121.6038411458
 20
100.3168619792
 30
0.0
 11
124.80384114580001
 21
100.3168619792
 31
0.0
  0
LINE
  5
AD
  8
ﾚｲﾔ_1
  6
BORDER
 62
     3
 10
118.8604754051
 20
89.066861979199999
 30
0.0
 11
127.65787123840001
 21
89.066861979199999
 31
0.0
  0
LINE
  5
AE
  8
ﾚｲﾔ_1
  6
STITCH
 10
121.6038411458
 20
93.066861979199984
 30
0.0
 11
123.2038411458
 21
91.466861979200004
 31
0.0
  0
LINE
  5
AF
  8
ﾚｲﾔ_1
  6
STITCH
 10
123.2038411458
 20
91.466861979200004
 30
0.0
 11
123.2038411458
 21
86.666861979199979
 31
0.0
  0
LINE
  5
B0
  8
ﾚｲﾔ_1
  6
STITCH
 10
123.2038411458
 20
86.666861979199979
 30
0.0
 11
121.6038411458
 21
85.066861979199999
 31
0.0
  0
LINE
  5
B1
  8
ﾚｲﾔ_1
  6
STITCH
 10
123.2038411458
 20
91.466861979200004
 30
0.0
 11
124.80384114580001
 21
91.466861979200004
 31
0.0
  0
LINE
  5
B2
  8
ﾚｲﾔ_1
  6
STITCH
 10
123.2038411458
 20
86.666861979199979
 30
0.0
 11
124.80384114580001
 21
86.666861979199979
 31
0.0
  0
LINE
  5
B3
  8
ﾚｲﾔ_1
  6
STITCH
 10
123.2038411458
 20
104.66686197919999
 30
0.0
 11
124.80384114580001
 21
104.66686197919999
 31
0.0
  0
LINE
  5
B4
  8
ﾚｲﾔ_1
  6
STITCH
 10
123.2038411458
 20
109.4668619792
 30
0.0
 11
124.80384114580001
 21
109.4668619792
 31
0.0
  0
LINE
  5
B5
  8
ﾚｲﾔ_1
  6
STITCH
 10
123.2038411458
 20
104.66686197919999
 30
0.0
 11
121.6038411458
 21
103.0668619792
 31
0.0
  0
LINE
  5
B6
  8
ﾚｲﾔ_1
  6
STITCH
 10
123.2038411458
 20
109.4668619792
 30
0.0
 11
123.2038411458
 21
104.66686197919999
 31
0.0
  0
LINE
  5
B7
  8
ﾚｲﾔ_1
  6
STITCH
 10
121.6038411458
 20
111.0668619792
 30
0.0
 11
123.2038411458
 21
109.4668619792
 31
0.0
  0
LINE
  5
B8
  8
ﾚｲﾔ_1
 62
     5
 10
41.603841145799997
 20
83.066861979199984
 30
0.0
 11
41.603841145799997
 21
113.0668619792
 31
0.0
  0
CIRCLE
  5
B9
  8
ﾚｲﾔ_1
 62
     5
 10
101.6038411458
 20
98.066861979200013
 30
0.0
 40
2.399999999999999
  0
LINE
  5
BA
  8
ﾚｲﾔ_1
  6
BORDER
 62
     3
 10
101.6038411458
 20
104.0668619792
 30
0.0
 11
101.6038411458
 21
92.066861979199984
 31
0.0
  0
LINE
  5
BB
  8
図枠
 10
116.3604130163
 20
-113.873442807
 30
0.0
 11
119.24385782349999
 21
-113.873442807
 31
0.0
  0
LINE
  5
BC
  8
図枠
 10
111.7900705407
 20
-87.098650367199994
 30
0.0
 11
118.70207054070001
 21
-88.826650367199974
 31
0.0
  0
LINE
  5
BD
  8
図枠
 10
113.4838578235
 20
-115.553442807
 30
0.0
 11
112.9910578235
 21
-113.873442807
 31
0.0
  0
LINE
  5
BE
  8
図枠
 10
115.7388411213
 20
-111.71344280700001
 30
0.0
 11
115.4625869457
 21
-110.753442807
 31
0.0
  0
LINE
  5
BF
  8
図枠
 10
111.7900705407
 20
-87.098650367199994
 30
0.0
 11
118.70207054070001
 21
-88.826650367199974
 31
0.0
  0
LINE
  5
C0
  8
図枠
 10
108.4438578235
 20
-108.593442807
 30
0.0
 11
108.4438578235
 21
-110.753442807
 31
0.0
  0
LINE
  5
C1
  8
図枠
 10
124.79434932380001
 20
-78.9956503672
 30
0.0
 11
124.79434932380001
 21
-117.2456503672
 31
0.0
  0
LINE
  5
C2
  8
図枠
 10
111.7900705407
 20
-87.098650367199994
 30
0.0
 11
118.70207054070001
 21
-88.826650367199974
 31
0.0
  0
LINE
  5
C3
  8
図枠
 10
111.7900705407
 20
-87.098650367199994
 30
0.0
 11
118.70207054070001
 21
-88.826650367199974
 31
0.0
  0
INSERT
  5
C4
  8
0
  6
CONTINUOUS
  2
*U60
 10
0.0
 20
0.0
 30
0.0
  0
INSERT
  5
C5
  8
0
  6
CONTINUOUS
  2
*U61
 10
0.0
 20
0.0
 30
0.0
  0
LINE
  5
C6
  8
図枠
 10
111.4422578235
 20
-108.593442807
 30
0.0
 11
110.8438578235
 21
-106.553442807
 31
0.0
  0
LINE
  5
C7
  8
図枠
 10
108.4438578235
 20
-110.753442807
 30
0.0
 11
112.0758578235
 21
-110.753442807
 31
0.0
  0
LINE
  5
C8
  8
図枠
 10
147.29434932379999
 20
-62.495650367199993
 30
0.0
 11
147.29434932379999
 21
-54.2456503672
 31
0.0
  0
LINE
  5
C9
  8
図枠
 10
118.70207054070001
 20
-81.914650367199982
 30
0.0
 11
118.70207054070001
 21
-88.826650367199974
 31
0.0
  0
LINE
  5
CA
  8
図枠
 10
111.7900705407
 20
-83.642650367200005
 30
0.0
 11
118.70207054070001
 21
-81.914650367199982
 31
0.0
  0
LINE
  5
CB
  8
図枠
 10
111.7900705407
 20
-83.642650367200005
 30
0.0
 11
111.7900705407
 21
-87.098650367199994
 31
0.0
  0
LINE
  5
CC
  8
図枠
 10
111.7900705407
 20
-83.642650367200005
 30
0.0
 11
118.70207054070001
 21
-81.914650367199982
 31
0.0
  0
LINE
  5
CD
  8
図枠
 10
120.29434932380001
 20
-62.495650367199993
 30
0.0
 11
120.29434932380001
 21
-54.2456503672
 31
0.0
  0
INSERT
  5
CE
  8
0
  6
CONTINUOUS
  2
*U62
 10
0.0
 20
0.0
 30
0.0
  0
INSERT
  5
CF
  8
0
  6
CONTINUOUS
  2
*U63
 10
0.0
 20
0.0
 30
0.0
  0
INSERT
  5
D0
  8
0
  6
CONTINUOUS
  2
*U64
 10
0.0
 20
0.0
 30
0.0
  0
LINE
  5
D1
  8
図枠
 10
108.4438578235
 20
-113.873442807
 30
0.0
 11
112.9910578235
 21
-113.873442807
 31
0.0
  0
LINE
  5
D2
  8
図枠
 10
115.4625869457
 20
-110.753442807
 30
0.0
 11
119.24385782349999
 21
-110.753442807
 31
0.0
  0
LINE
  5
D3
  8
図枠
 10
111.7900705407
 20
-83.642650367200005
 30
0.0
 11
111.7900705407
 21
-87.098650367199994
 31
0.0
  0
LINE
  5
D4
  8
図枠
 10
119.24385782349999
 20
-111.71344280700001
 30
0.0
 11
119.24385782349999
 21
-113.873442807
 31
0.0
  0
INSERT
  5
D5
  8
0
  6
CONTINUOUS
  2
*U65
 10
0.0
 20
0.0
 30
0.0
  0
LINE
  5
D6
  8
図枠
 10
91.790151372800025
 20
-108.953442807
 30
0.0
 11
91.790151372800025
 21
-110.753442807
 31
0.0
  0
LINE
  5
D7
  8
図枠
 10
91.790151372800025
 20
-108.953442807
 30
0.0
 11
89.9901513728
 21
-108.953442807
 31
0.0
  0
INSERT
  5
D8
  8
0
  6
CONTINUOUS
  2
*U66
 10
0.0
 20
0.0
 30
0.0
  0
LINE
  5
D9
  8
図枠
 10
81.590151372799994
 20
-106.553442807
 30
0.0
 11
81.590151372799994
 21
-108.953442807
 31
0.0
  0
LINE
  5
DA
  8
図枠
 10
81.590151372799994
 20
-110.753442807
 30
0.0
 11
81.590151372799994
 21
-112.553442807
 31
0.0
  0
ARC
  5
DB
  8
図枠
 10
97.982878645499994
 20
-108.35344280699999
 30
0.0
 40
6.5999999999999979
 50
270.0
 51
302.54495885400001
  0
LINE
  5
DC
  8
図枠
 10
37.794349323799999
 20
-85.370650367199985
 30
0.0
 11
61.794349323799999
 21
-85.370650367199985
 31
0.0
  0
INSERT
  5
DD
  8
0
  6
CONTINUOUS
  2
*U67
 10
0.0
 20
0.0
 30
0.0
  0
LINE
  5
DE
  8
図枠
 10
99.782878645499991
 20
-109.3399751279
 30
0.0
 11
99.104056135600004
 21
-110.01879763789999
 31
0.0
  0
LINE
  5
DF
  8
図枠
 10
86.990151372799986
 20
-108.953442807
 30
0.0
 11
84.590151372799994
 21
-108.953442807
 31
0.0
  0
LINE
  5
E0
  8
図枠
 10
111.7900705407
 20
-83.642650367200005
 30
0.0
 11
118.70207054070001
 21
-81.914650367199982
 31
0.0
  0
LINE
  5
E1
  8
図枠
 10
114.84101505069999
 20
-108.593442807
 30
0.0
 11
119.24385782349999
 21
-108.593442807
 31
0.0
  0
LINE
  5
E2
  8
図枠
 10
118.70207054070001
 20
-81.914650367199982
 30
0.0
 11
118.70207054070001
 21
-88.826650367199974
 31
0.0
  0
LINE
  5
E3
  8
図枠
 10
108.4438578235
 20
-111.71344280700001
 30
0.0
 11
112.3574578235
 21
-111.71344280700001
 31
0.0
  0
LINE
  5
E4
  8
図枠
 10
114.66534195049999
 20
-107.9829681384
 30
0.0
 11
115.6438578235
 21
-106.553442807
 31
0.0
  0
INSERT
  5
E5
  8
0
  6
CONTINUOUS
  2
*U68
 10
0.0
 20
0.0
 30
0.0
  0
LINE
  5
E6
  8
図枠
 10
118.70207054070001
 20
-81.914650367199982
 30
0.0
 11
118.70207054070001
 21
-88.826650367199974
 31
0.0
  0
INSERT
  5
E7
  8
0
  6
CONTINUOUS
  2
*U69
 10
0.0
 20
0.0
 30
0.0
  0
LINE
  5
E8
  8
図枠
 10
89.9901513728
 20
-110.753442807
 30
0.0
 11
91.790151372800025
 21
-110.753442807
 31
0.0
  0
LINE
  5
E9
  8
図枠
 10
111.7900705407
 20
-83.642650367200005
 30
0.0
 11
118.70207054070001
 21
-81.914650367199982
 31
0.0
  0
LINE
  5
EA
  8
図枠
 10
115.7388411213
 20
-111.71344280700001
 30
0.0
 11
119.24385782349999
 21
-111.71344280700001
 31
0.0
  0
LINE
  5
EB
  8
図枠
 10
108.4438578235
 20
-108.593442807
 30
0.0
 11
111.4422578235
 21
-108.593442807
 31
0.0
  0
LINE
  5
EC
  8
図枠
 10
119.24385782349999
 20
-108.593442807
 30
0.0
 11
119.24385782349999
 21
-110.753442807
 31
0.0
  0
INSERT
  5
ED
  8
0
  6
CONTINUOUS
  2
*U70
 10
0.0
 20
0.0
 30
0.0
  0
LINE
  5
EE
  8
図枠
 10
118.70207054070001
 20
-81.914650367199982
 30
0.0
 11
118.70207054070001
 21
-88.826650367199974
 31
0.0
  0
LINE
  5
EF
  8
図枠
 10
81.590151372799994
 20
-110.753442807
 30
0.0
 11
81.408826798999982
 21
-110.753442807
 31
0.0
  0
LINE
  5
F0
  8
図枠
 10
89.9901513728
 20
-108.953442807
 30
0.0
 11
89.9901513728
 21
-108.35344280699999
 31
0.0
  0
LINE
  5
F1
  8
図枠
 10
111.7900705407
 20
-83.642650367200005
 30
0.0
 11
111.7900705407
 21
-87.098650367199994
 31
0.0
  0
LINE
  5
F2
  8
図枠
 10
112.3574578235
 20
-111.71344280700001
 30
0.0
 11
112.0758578235
 21
-110.753442807
 31
0.0
  0
LINE
  5
F3
  8
図枠
 10
94.794349323800006
 20
-78.9956503672
 30
0.0
 11
94.794349323800006
 21
-91.7456503672
 31
0.0
  0
INSERT
  5
F4
  8
0
  6
CONTINUOUS
  2
*U71
 10
0.0
 20
0.0
 30
0.0
  0
LINE
  5
F5
  8
図枠
 10
94.982878645499994
 20
-106.553442807
 30
0.0
 11
94.982878645499994
 21
-108.71344280700001
 31
0.0
  0
ARC
  5
F6
  8
図枠
 10
85.190151372800003
 20
-111.35344280699999
 30
0.0
 40
1.8
 50
270.0
 51
0.0
  0
LINE
  5
F7
  8
図枠
 10
94.982878645499994
 20
-109.3399751279
 30
0.0
 11
99.782878645499991
 21
-109.3399751279
 31
0.0
  0
LINE
  5
F8
  8
図枠
 10
89.9901513728
 20
-111.35344280699999
 30
0.0
 11
89.9901513728
 21
-110.753442807
 31
0.0
  0
LINE
  5
F9
  8
図枠
 10
64.794349323800006
 20
-78.9956503672
 30
0.0
 11
64.794349323800006
 21
-91.7456503672
 31
0.0
  0
LINE
  5
FA
  8
図枠
 10
114.84101505069999
 20
-108.593442807
 30
0.0
 11
114.66534195049999
 21
-107.9829681384
 31
0.0
  0
LINE
  5
FB
  8
図枠
 10
84.590151372799994
 20
-108.953442807
 30
0.0
 11
84.590151372799994
 21
-108.35344280699999
 31
0.0
  0
LINE
  5
FC
  8
図枠
 10
91.790151372800025
 20
-106.553442807
 30
0.0
 11
86.990151372799986
 21
-106.553442807
 31
0.0
  0
LINE
  5
FD
  8
図枠
 10
34.794349323799999
 20
-78.9956503672
 30
0.0
 11
34.794349323799999
 21
-117.2456503672
 31
0.0
  0
LINE
  5
FE
  8
図枠
 10
34.794349323799999
 20
-54.2456503672
 30
0.0
 11
34.794349323799999
 21
-78.9956503672
 31
0.0
  0
LINE
  5
FF
  8
図枠
 10
81.590151372799994
 20
-112.553442807
 30
0.0
 11
84.590151372799994
 21
-112.553442807
 31
0.0
  0
LINE
  5
100
  8
図枠
 10
64.794349323800006
 20
-78.9956503672
 30
0.0
 11
64.794349323800006
 21
-54.2456503672
 31
0.0
  0
LINE
  5
101
  8
図枠
 10
94.982878645499994
 20
-113.153442807
 30
0.0
 11
96.422878645499992
 21
-113.153442807
 31
0.0
  0
LINE
  5
102
  8
図枠
 10
81.590151372799994
 20
-114.953442807
 30
0.0
 11
86.390151372800005
 21
-114.953442807
 31
0.0
  0
LINE
  5
103
  8
図枠
 10
113.4838578235
 20
-115.553442807
 30
0.0
 11
116.8438578235
 21
-115.553442807
 31
0.0
  0
LINE
  5
104
  8
図枠
 10
110.8438578235
 20
-106.553442807
 30
0.0
 11
115.6438578235
 21
-106.553442807
 31
0.0
  0
LINE
  5
105
  8
図枠
 10
116.8438578235
 20
-115.553442807
 30
0.0
 11
116.3604130163
 21
-113.873442807
 31
0.0
  0
LINE
  5
106
  8
図枠
 10
86.990151372799986
 20
-106.553442807
 30
0.0
 11
86.990151372799986
 21
-108.953442807
 31
0.0
  0
LINE
  5
107
  8
図枠
 10
89.9901513728
 20
-108.35344280699999
 30
0.0
 11
91.790151372800025
 21
-106.553442807
 31
0.0
  0
CIRCLE
  5
108
  8
図枠
 10
103.8903493238
 20
-85.370650367199985
 30
0.0
 40
3.456
  0
CIRCLE
  5
109
  8
図枠
 10
103.8903493238
 20
-85.370650367199985
 30
0.0
 40
1.728
  0
LINE
  5
10A
  8
図枠
 10
86.990151372799986
 20
-110.753442807
 30
0.0
 11
86.990151372799986
 21
-111.35344280699999
 31
0.0
  0
LINE
  5
10B
  8
図枠
 10
85.190151372800003
 20
-113.153442807
 30
0.0
 11
81.590151372799994
 21
-113.153442807
 31
0.0
  0
ARC
  5
10C
  8
図枠
 10
97.982878645499994
 20
-108.35344280699999
 30
0.0
 40
6.5999999999999979
 50
322.48761197969998
 51
0.0
  0
CIRCLE
  5
10D
  8
図枠
 10
103.8903493238
 20
-85.370650367199985
 30
0.0
 40
1.728
  0
LINE
  5
10E
  8
図枠
  6
BORDER
 10
103.8903493238
 20
-80.186650367199988
 30
0.0
 11
103.8903493238
 21
-90.554650367199983
 31
0.0
  0
LINE
  5
10F
  8
図枠
  6
BORDER
 10
103.8903493238
 20
-80.186650367199988
 30
0.0
 11
103.8903493238
 21
-90.554650367199983
 31
0.0
  0
POLYLINE
  5
5F5
  8
図枠
 66
     1
 10
0.0
 20
0.0
 30
0.0
 70
     8
  0
VERTEX
  5
5F6
  8
図枠
 10
103.004
 20
-112.58199999999999
 30
0.0
 70
    32
  0
VERTEX
  5
5F7
  8
図枠
 10
103.02500000000001
 20
-112.58799999999999
 30
0.0
 70
    32
  0
VERTEX
  5
5F8
  8
図枠
 10
103.04600000000001
 20
-112.59399999999999
 30
0.0
 70
    32
  0
VERTEX
  5
5F9
  8
図枠
 10
103.06699999999999
 20
-112.599
 30
0.0
 70
    32
  0
VERTEX
  5
5FA
  8
図枠
 10
103.08799999999999
 20
-112.605
 30
0.0
 70
    32
  0
VERTEX
  5
5FB
  8
図枠
 10
103.11
 20
-112.611
 30
0.0
 70
    32
  0
VERTEX
  5
5FC
  8
図枠
 10
103.131
 20
-112.617
 30
0.0
 70
    32
  0
VERTEX
  5
5FD
  8
図枠
 10
103.152
 20
-112.623
 30
0.0
 70
    32
  0
VERTEX
  5
5FE
  8
図枠
 10
103.173
 20
-112.628
 30
0.0
 70
    32
  0
VERTEX
  5
5FF
  8
図枠
 10
103.194
 20
-112.634
 30
0.0
 70
    32
  0
VERTEX
  5
600
  8
図枠
 10
103.215
 20
-112.64
 30
0.0
 70
    32
  0
VERTEX
  5
601
  8
図枠
 10
103.236
 20
-112.645
 30
0.0
 70
    32
  0
VERTEX
  5
602
  8
図枠
 10
103.258
 20
-112.651
 30
0.0
 70
    32
  0
VERTEX
  5
603
  8
図枠
 10
103.279
 20
-112.65600000000001
 30
0.0
 70
    32
  0
VERTEX
  5
604
  8
図枠
 10
103.3
 20
-112.66200000000001
 30
0.0
 70
    32
  0
VERTEX
  5
605
  8
図枠
 10
103.321
 20
-112.667
 30
0.0
 70
    32
  0
VERTEX
  5
606
  8
図枠
 10
103.343
 20
-112.673
 30
0.0
 70
    32
  0
VERTEX
  5
607
  8
図枠
 10
103.364
 20
-112.678
 30
0.0
 70
    32
  0
VERTEX
  5
608
  8
図枠
 10
103.38500000000001
 20
-112.684
 30
0.0
 70
    32
  0
VERTEX
  5
609
  8
図枠
 10
103.407
 20
-112.68899999999999
 30
0.0
 70
    32
  0
VERTEX
  5
60A
  8
図枠
 10
103.428
 20
-112.694
 30
0.0
 70
    32
  0
VERTEX
  5
60B
  8
図枠
 10
103.449
 20
-112.7
 30
0.0
 70
    32
  0
VERTEX
  5
60C
  8
図枠
 10
103.471
 20
-112.705
 30
0.0
 70
    32
  0
VERTEX
  5
60D
  8
図枠
 10
103.492
 20
-112.70999999999999
 30
0.0
 70
    32
  0
VERTEX
  5
60E
  8
図枠
 10
103.51300000000001
 20
-112.715
 30
0.0
 70
    32
  0
VERTEX
  5
60F
  8
図枠
 10
103.535
 20
-112.721
 30
0.0
 70
    32
  0
VERTEX
  5
610
  8
図枠
 10
103.556
 20
-112.726
 30
0.0
 70
    32
  0
VERTEX
  5
611
  8
図枠
 10
103.578
 20
-112.73099999999999
 30
0.0
 70
    32
  0
VERTEX
  5
612
  8
図枠
 10
103.599
 20
-112.736
 30
0.0
 70
    32
  0
VERTEX
  5
613
  8
図枠
 10
103.621
 20
-112.741
 30
0.0
 70
    32
  0
VERTEX
  5
614
  8
図枠
 10
103.642
 20
-112.746
 30
0.0
 70
    32
  0
VERTEX
  5
615
  8
図枠
 10
103.664
 20
-112.751
 30
0.0
 70
    32
  0
VERTEX
  5
616
  8
図枠
 10
103.68600000000001
 20
-112.756
 30
0.0
 70
    32
  0
VERTEX
  5
617
  8
図枠
 10
103.70699999999999
 20
-112.761
 30
0.0
 70
    32
  0
VERTEX
  5
618
  8
図枠
 10
103.729
 20
-112.76600000000001
 30
0.0
 70
    32
  0
VERTEX
  5
619
  8
図枠
 10
103.75
 20
-112.771
 30
0.0
 70
    32
  0
VERTEX
  5
61A
  8
図枠
 10
103.77200000000001
 20
-112.776
 30
0.0
 70
    32
  0
VERTEX
  5
61B
  8
図枠
 10
103.794
 20
-112.78100000000001
 30
0.0
 70
    32
  0
VERTEX
  5
61C
  8
図枠
 10
103.815
 20
-112.786
 30
0.0
 70
    32
  0
VERTEX
  5
61D
  8
図枠
 10
103.837
 20
-112.791
 30
0.0
 70
    32
  0
VERTEX
  5
61E
  8
図枠
 10
103.85899999999999
 20
-112.795
 30
0.0
 70
    32
  0
VERTEX
  5
61F
  8
図枠
 10
103.88
 20
-112.8
 30
0.0
 70
    32
  0
VERTEX
  5
620
  8
図枠
 10
103.902
 20
-112.80500000000001
 30
0.0
 70
    32
  0
VERTEX
  5
621
  8
図枠
 10
103.92400000000001
 20
-112.81
 30
0.0
 70
    32
  0
VERTEX
  5
622
  8
図枠
 10
103.94499999999999
 20
-112.815
 30
0.0
 70
    32
  0
VERTEX
  5
623
  8
図枠
 10
103.967
 20
-112.819
 30
0.0
 70
    32
  0
VERTEX
  5
624
  8
図枠
 10
103.989
 20
-112.824
 30
0.0
 70
    32
  0
VERTEX
  5
625
  8
図枠
 10
104.011
 20
-112.82899999999999
 30
0.0
 70
    32
  0
VERTEX
  5
626
  8
図枠
 10
104.033
 20
-112.833
 30
0.0
 70
    32
  0
VERTEX
  5
627
  8
図枠
 10
104.054
 20
-112.83799999999999
 30
0.0
 70
    32
  0
VERTEX
  5
628
  8
図枠
 10
104.07599999999999
 20
-112.842
 30
0.0
 70
    32
  0
VERTEX
  5
629
  8
図枠
 10
104.098
 20
-112.84699999999999
 30
0.0
 70
    32
  0
VERTEX
  5
62A
  8
図枠
 10
104.12
 20
-112.851
 30
0.0
 70
    32
  0
VERTEX
  5
62B
  8
図枠
 10
104.142
 20
-112.85599999999999
 30
0.0
 70
    32
  0
VERTEX
  5
62C
  8
図枠
 10
104.164
 20
-112.86
 30
0.0
 70
    32
  0
VERTEX
  5
62D
  8
図枠
 10
104.18600000000001
 20
-112.86499999999999
 30
0.0
 70
    32
  0
VERTEX
  5
62E
  8
図枠
 10
104.20699999999999
 20
-112.869
 30
0.0
 70
    32
  0
VERTEX
  5
62F
  8
図枠
 10
104.229
 20
-112.874
 30
0.0
 70
    32
  0
VERTEX
  5
630
  8
図枠
 10
104.251
 20
-112.878
 30
0.0
 70
    32
  0
VERTEX
  5
631
  8
図枠
 10
104.273
 20
-112.883
 30
0.0
 70
    32
  0
VERTEX
  5
632
  8
図枠
 10
104.295
 20
-112.887
 30
0.0
 70
    32
  0
VERTEX
  5
633
  8
図枠
 10
104.31699999999999
 20
-112.89100000000001
 30
0.0
 70
    32
  0
VERTEX
  5
634
  8
図枠
 10
104.339
 20
-112.896
 30
0.0
 70
    32
  0
VERTEX
  5
635
  8
図枠
 10
104.361
 20
-112.90000000000001
 30
0.0
 70
    32
  0
VERTEX
  5
636
  8
図枠
 10
104.383
 20
-112.905
 30
0.0
 70
    32
  0
VERTEX
  5
637
  8
図枠
 10
104.405
 20
-112.90900000000001
 30
0.0
 70
    32
  0
VERTEX
  5
638
  8
図枠
 10
104.42700000000001
 20
-112.913
 30
0.0
 70
    32
  0
VERTEX
  5
639
  8
図枠
 10
104.449
 20
-112.917
 30
0.0
 70
    32
  0
VERTEX
  5
63A
  8
図枠
 10
104.471
 20
-112.922
 30
0.0
 70
    32
  0
VERTEX
  5
63B
  8
図枠
 10
104.49299999999999
 20
-112.926
 30
0.0
 70
    32
  0
VERTEX
  5
63C
  8
図枠
 10
104.515
 20
-112.93000000000001
 30
0.0
 70
    32
  0
VERTEX
  5
63D
  8
図枠
 10
104.53700000000001
 20
-112.934
 30
0.0
 70
    32
  0
VERTEX
  5
63E
  8
図枠
 10
104.559
 20
-112.938
 30
0.0
 70
    32
  0
VERTEX
  5
63F
  8
図枠
 10
104.581
 20
-112.943
 30
0.0
 70
    32
  0
VERTEX
  5
640
  8
図枠
 10
104.60299999999999
 20
-112.947
 30
0.0
 70
    32
  0
VERTEX
  5
641
  8
図枠
 10
104.626
 20
-112.95099999999999
 30
0.0
 70
    32
  0
VERTEX
  5
642
  8
図枠
 10
104.648
 20
-112.955
 30
0.0
 70
    32
  0
VERTEX
  5
643
  8
図枠
 10
104.67
 20
-112.959
 30
0.0
 70
    32
  0
VERTEX
  5
644
  8
図枠
 10
104.69199999999999
 20
-112.96299999999999
 30
0.0
 70
    32
  0
VERTEX
  5
645
  8
図枠
 10
104.714
 20
-112.967
 30
0.0
 70
    32
  0
VERTEX
  5
646
  8
図枠
 10
104.736
 20
-112.971
 30
0.0
 70
    32
  0
VERTEX
  5
647
  8
図枠
 10
104.758
 20
-112.976
 30
0.0
 70
    32
  0
VERTEX
  5
648
  8
図枠
 10
104.78100000000001
 20
-112.98
 30
0.0
 70
    32
  0
VERTEX
  5
649
  8
図枠
 10
104.803
 20
-112.98399999999999
 30
0.0
 70
    32
  0
VERTEX
  5
64A
  8
図枠
 10
104.825
 20
-112.988
 30
0.0
 70
    32
  0
VERTEX
  5
64B
  8
図枠
 10
104.84699999999999
 20
-112.992
 30
0.0
 70
    32
  0
VERTEX
  5
64C
  8
図枠
 10
104.869
 20
-112.996
 30
0.0
 70
    32
  0
VERTEX
  5
64D
  8
図枠
 10
104.89100000000001
 20
-113.0
 30
0.0
 70
    32
  0
VERTEX
  5
64E
  8
図枠
 10
104.914
 20
-113.004
 30
0.0
 70
    32
  0
VERTEX
  5
64F
  8
図枠
 10
104.93600000000001
 20
-113.008
 30
0.0
 70
    32
  0
VERTEX
  5
650
  8
図枠
 10
104.958
 20
-113.012
 30
0.0
 70
    32
  0
VERTEX
  5
651
  8
図枠
 10
104.98
 20
-113.01600000000001
 30
0.0
 70
    32
  0
VERTEX
  5
652
  8
図枠
 10
105.002
 20
-113.01900000000001
 30
0.0
 70
    32
  0
VERTEX
  5
653
  8
図枠
 10
105.02500000000001
 20
-113.023
 30
0.0
 70
    32
  0
VERTEX
  5
654
  8
図枠
 10
105.047
 20
-113.027
 30
0.0
 70
    32
  0
VERTEX
  5
655
  8
図枠
 10
105.069
 20
-113.03100000000001
 30
0.0
 70
    32
  0
VERTEX
  5
656
  8
図枠
 10
105.09099999999999
 20
-113.035
 30
0.0
 70
    32
  0
VERTEX
  5
657
  8
図枠
 10
105.114
 20
-113.039
 30
0.0
 70
    32
  0
VERTEX
  5
658
  8
図枠
 10
105.136
 20
-113.04300000000001
 30
0.0
 70
    32
  0
VERTEX
  5
659
  8
図枠
 10
105.158
 20
-113.047
 30
0.0
 70
    32
  0
VERTEX
  5
65A
  8
図枠
 10
105.18000000000001
 20
-113.051
 30
0.0
 70
    32
  0
VERTEX
  5
65B
  8
図枠
 10
105.203
 20
-113.05500000000001
 30
0.0
 70
    32
  0
VERTEX
  5
65C
  8
図枠
 10
105.22499999999999
 20
-113.05800000000001
 30
0.0
 70
    32
  0
VERTEX
  5
65D
  8
図枠
 10
105.247
 20
-113.062
 30
0.0
 70
    32
  0
VERTEX
  5
65E
  8
図枠
 10
105.27
 20
-113.066
 30
0.0
 70
    32
  0
VERTEX
  5
65F
  8
図枠
 10
105.292
 20
-113.06999999999999
 30
0.0
 70
    32
  0
VERTEX
  5
660
  8
図枠
 10
105.31399999999999
 20
-113.074
 30
0.0
 70
    32
  0
VERTEX
  5
661
  8
図枠
 10
105.336
 20
-113.078
 30
0.0
 70
    32
  0
VERTEX
  5
662
  8
図枠
 10
105.35899999999999
 20
-113.081
 30
0.0
 70
    32
  0
VERTEX
  5
663
  8
図枠
 10
105.381
 20
-113.08499999999999
 30
0.0
 70
    32
  0
VERTEX
  5
664
  8
図枠
 10
105.40300000000001
 20
-113.089
 30
0.0
 70
    32
  0
VERTEX
  5
665
  8
図枠
 10
105.426
 20
-113.093
 30
0.0
 70
    32
  0
VERTEX
  5
666
  8
図枠
 10
105.44799999999999
 20
-113.09699999999999
 30
0.0
 70
    32
  0
VERTEX
  5
667
  8
図枠
 10
105.47
 20
-113.101
 30
0.0
 70
    32
  0
VERTEX
  5
668
  8
図枠
 10
105.49299999999999
 20
-113.104
 30
0.0
 70
    32
  0
VERTEX
  5
669
  8
図枠
 10
105.515
 20
-113.108
 30
0.0
 70
    32
  0
VERTEX
  5
66A
  8
図枠
 10
105.53700000000001
 20
-113.11199999999999
 30
0.0
 70
    32
  0
VERTEX
  5
66B
  8
図枠
 10
105.56
 20
-113.116
 30
0.0
 70
    32
  0
VERTEX
  5
66C
  8
図枠
 10
105.58199999999999
 20
-113.119
 30
0.0
 70
    32
  0
VERTEX
  5
66D
  8
図枠
 10
105.604
 20
-113.123
 30
0.0
 70
    32
  0
VERTEX
  5
66E
  8
図枠
 10
105.627
 20
-113.127
 30
0.0
 70
    32
  0
VERTEX
  5
66F
  8
図枠
 10
105.649
 20
-113.131
 30
0.0
 70
    32
  0
VERTEX
  5
670
  8
図枠
 10
105.67100000000001
 20
-113.13500000000001
 30
0.0
 70
    32
  0
VERTEX
  5
671
  8
図枠
 10
105.694
 20
-113.13800000000001
 30
0.0
 70
    32
  0
VERTEX
  5
672
  8
図枠
 10
105.71599999999999
 20
-113.142
 30
0.0
 70
    32
  0
VERTEX
  5
673
  8
図枠
 10
105.738
 20
-113.146
 30
0.0
 70
    32
  0
VERTEX
  5
674
  8
図枠
 10
105.761
 20
-113.15000000000001
 30
0.0
 70
    32
  0
VERTEX
  5
675
  8
図枠
 10
105.783
 20
-113.15300000000001
 30
0.0
 70
    32
  0
SEQEND
  5
676
  8
図枠
  0
CIRCLE
  5
111
  8
図枠
 10
103.8903493238
 20
-85.370650367199985
 30
0.0
 40
1.728
  0
INSERT
  5
112
  8
0
  6
CONTINUOUS
  2
*U72
 10
0.0
 20
0.0
 30
0.0
  0
INSERT
  5
113
  8
0
  6
CONTINUOUS
  2
*U73
 10
0.0
 20
0.0
 30
0.0
  0
INSERT
  5
114
  8
0
  6
CONTINUOUS
  2
*U74
 10
0.0
 20
0.0
 30
0.0
  0
POLYLINE
  5
677
  8
図枠
 66
     1
 10
0.0
 20
0.0
 30
0.0
 70
     8
  0
VERTEX
  5
678
  8
図枠
 10
94.982900000000001
 20
-109.727
 30
0.0
 70
    32
  0
VERTEX
  5
679
  8
図枠
 10
95.004499999999979
 20
-109.746
 30
0.0
 70
    32
  0
VERTEX
  5
67A
  8
図枠
 10
95.0261
 20
-109.76600000000001
 30
0.0
 70
    32
  0
VERTEX
  5
67B
  8
図枠
 10
95.047700000000006
 20
-109.786
 30
0.0
 70
    32
  0
VERTEX
  5
67C
  8
図枠
 10
95.069299999999998
 20
-109.806
 30
0.0
 70
    32
  0
VERTEX
  5
67D
  8
図枠
 10
95.090999999999994
 20
-109.82599999999999
 30
0.0
 70
    32
  0
VERTEX
  5
67E
  8
図枠
 10
95.1126
 20
-109.846
 30
0.0
 70
    32
  0
VERTEX
  5
67F
  8
図枠
 10
95.134200000000007
 20
-109.866
 30
0.0
 70
    32
  0
VERTEX
  5
680
  8
図枠
 10
95.155799999999985
 20
-109.886
 30
0.0
 70
    32
  0
VERTEX
  5
681
  8
図枠
 10
95.177400000000006
 20
-109.90600000000001
 30
0.0
 70
    32
  0
VERTEX
  5
682
  8
図枠
 10
95.199100000000016
 20
-109.926
 30
0.0
 70
    32
  0
VERTEX
  5
683
  8
図枠
 10
95.220699999999994
 20
-109.946
 30
0.0
 70
    32
  0
VERTEX
  5
684
  8
図枠
 10
95.242300000000014
 20
-109.965
 30
0.0
 70
    32
  0
VERTEX
  5
685
  8
図枠
 10
95.263900000000007
 20
-109.985
 30
0.0
 70
    32
  0
VERTEX
  5
686
  8
図枠
 10
95.285600000000002
 20
-110.005
 30
0.0
 70
    32
  0
VERTEX
  5
687
  8
図枠
 10
95.307199999999995
 20
-110.02500000000001
 30
0.0
 70
    32
  0
VERTEX
  5
688
  8
図枠
 10
95.328900000000004
 20
-110.045
 30
0.0
 70
    32
  0
VERTEX
  5
689
  8
図枠
 10
95.350499999999997
 20
-110.065
 30
0.0
 70
    32
  0
VERTEX
  5
68A
  8
図枠
 10
95.372099999999989
 20
-110.08499999999999
 30
0.0
 70
    32
  0
VERTEX
  5
68B
  8
図枠
 10
95.393799999999985
 20
-110.105
 30
0.0
 70
    32
  0
VERTEX
  5
68C
  8
図枠
 10
95.415499999999994
 20
-110.124
 30
0.0
 70
    32
  0
VERTEX
  5
68D
  8
図枠
 10
95.437100000000001
 20
-110.14400000000001
 30
0.0
 70
    32
  0
VERTEX
  5
68E
  8
図枠
 10
95.458799999999997
 20
-110.164
 30
0.0
 70
    32
  0
VERTEX
  5
68F
  8
図枠
 10
95.480400000000003
 20
-110.184
 30
0.0
 70
    32
  0
VERTEX
  5
690
  8
図枠
 10
95.502099999999984
 20
-110.20399999999999
 30
0.0
 70
    32
  0
VERTEX
  5
691
  8
図枠
 10
95.523799999999994
 20
-110.224
 30
0.0
 70
    32
  0
VERTEX
  5
692
  8
図枠
 10
95.545500000000004
 20
-110.24299999999999
 30
0.0
 70
    32
  0
VERTEX
  5
693
  8
図枠
 10
95.5672
 20
-110.26300000000001
 30
0.0
 70
    32
  0
VERTEX
  5
694
  8
図枠
 10
95.588899999999995
 20
-110.283
 30
0.0
 70
    32
  0
VERTEX
  5
695
  8
図枠
 10
95.610600000000005
 20
-110.303
 30
0.0
 70
    32
  0
VERTEX
  5
696
  8
図枠
 10
95.632300000000001
 20
-110.322
 30
0.0
 70
    32
  0
VERTEX
  5
697
  8
図枠
 10
95.653999999999996
 20
-110.342
 30
0.0
 70
    32
  0
VERTEX
  5
698
  8
図枠
 10
95.675700000000006
 20
-110.36199999999999
 30
0.0
 70
    32
  0
VERTEX
  5
699
  8
図枠
 10
95.697500000000005
 20
-110.381
 30
0.0
 70
    32
  0
VERTEX
  5
69A
  8
図枠
 10
95.719200000000001
 20
-110.401
 30
0.0
 70
    32
  0
VERTEX
  5
69B
  8
図枠
 10
95.740999999999985
 20
-110.42100000000001
 30
0.0
 70
    32
  0
VERTEX
  5
69C
  8
図枠
 10
95.762699999999995
 20
-110.441
 30
0.0
 70
    32
  0
VERTEX
  5
69D
  8
図枠
 10
95.784499999999994
 20
-110.45999999999999
 30
0.0
 70
    32
  0
VERTEX
  5
69E
  8
図枠
 10
95.806200000000004
 20
-110.48
 30
0.0
 70
    32
  0
VERTEX
  5
69F
  8
図枠
 10
95.828000000000003
 20
-110.499
 30
0.0
 70
    32
  0
VERTEX
  5
6A0
  8
図枠
 10
95.849799999999988
 20
-110.51900000000001
 30
0.0
 70
    32
  0
VERTEX
  5
6A1
  8
図枠
 10
95.871600000000001
 20
-110.539
 30
0.0
 70
    32
  0
VERTEX
  5
6A2
  8
図枠
 10
95.893399999999986
 20
-110.55800000000001
 30
0.0
 70
    32
  0
VERTEX
  5
6A3
  8
図枠
 10
95.915199999999999
 20
-110.578
 30
0.0
 70
    32
  0
VERTEX
  5
6A4
  8
図枠
 10
95.937099999999987
 20
-110.59699999999999
 30
0.0
 70
    32
  0
VERTEX
  5
6A5
  8
図枠
 10
95.9589
 20
-110.617
 30
0.0
 70
    32
  0
VERTEX
  5
6A6
  8
図枠
 10
95.980699999999985
 20
-110.636
 30
0.0
 70
    32
  0
VERTEX
  5
6A7
  8
図枠
 10
96.002600000000001
 20
-110.65600000000001
 30
0.0
 70
    32
  0
VERTEX
  5
6A8
  8
図枠
 10
96.024500000000003
 20
-110.675
 30
0.0
 70
    32
  0
VERTEX
  5
6A9
  8
図枠
 10
96.046300000000002
 20
-110.69499999999999
 30
0.0
 70
    32
  0
VERTEX
  5
6AA
  8
図枠
 10
96.068200000000004
 20
-110.714
 30
0.0
 70
    32
  0
VERTEX
  5
6AB
  8
図枠
 10
96.090100000000007
 20
-110.733
 30
0.0
 70
    32
  0
VERTEX
  5
6AC
  8
図枠
 10
96.111999999999995
 20
-110.753
 30
0.0
 70
    32
  0
VERTEX
  5
6AD
  8
図枠
 10
96.134
 20
-110.77200000000001
 30
0.0
 70
    32
  0
VERTEX
  5
6AE
  8
図枠
 10
96.155900000000003
 20
-110.791
 30
0.0
 70
    32
  0
VERTEX
  5
6AF
  8
図枠
 10
96.177899999999994
 20
-110.81100000000001
 30
0.0
 70
    32
  0
VERTEX
  5
6B0
  8
図枠
 10
96.199799999999996
 20
-110.83
 30
0.0
 70
    32
  0
VERTEX
  5
6B1
  8
図枠
 10
96.221800000000002
 20
-110.849
 30
0.0
 70
    32
  0
VERTEX
  5
6B2
  8
図枠
 10
96.243799999999993
 20
-110.869
 30
0.0
 70
    32
  0
VERTEX
  5
6B3
  8
図枠
 10
96.265799999999999
 20
-110.88800000000001
 30
0.0
 70
    32
  0
VERTEX
  5
6B4
  8
図枠
 10
96.287800000000004
 20
-110.907
 30
0.0
 70
    32
  0
VERTEX
  5
6B5
  8
図枠
 10
96.309799999999996
 20
-110.926
 30
0.0
 70
    32
  0
VERTEX
  5
6B6
  8
図枠
 10
96.331800000000015
 20
-110.94499999999999
 30
0.0
 70
    32
  0
VERTEX
  5
6B7
  8
図枠
 10
96.35390000000001
 20
-110.964
 30
0.0
 70
    32
  0
VERTEX
  5
6B8
  8
図枠
 10
96.376000000000005
 20
-110.983
 30
0.0
 70
    32
  0
VERTEX
  5
6B9
  8
図枠
 10
96.39800000000001
 20
-111.003
 30
0.0
 70
    32
  0
VERTEX
  5
6BA
  8
図枠
 10
96.420100000000005
 20
-111.02200000000001
 30
0.0
 70
    32
  0
VERTEX
  5
6BB
  8
図枠
 10
96.4422
 20
-111.041
 30
0.0
 70
    32
  0
VERTEX
  5
6BC
  8
図枠
 10
96.464399999999998
 20
-111.06
 30
0.0
 70
    32
  0
VERTEX
  5
6BD
  8
図枠
 10
96.486500000000007
 20
-111.078
 30
0.0
 70
    32
  0
VERTEX
  5
6BE
  8
図枠
 10
96.508700000000005
 20
-111.09699999999999
 30
0.0
 70
    32
  0
VERTEX
  5
6BF
  8
図枠
 10
96.530799999999999
 20
-111.116
 30
0.0
 70
    32
  0
VERTEX
  5
6C0
  8
図枠
 10
96.552999999999997
 20
-111.13500000000001
 30
0.0
 70
    32
  0
VERTEX
  5
6C1
  8
図枠
 10
96.575199999999995
 20
-111.154
 30
0.0
 70
    32
  0
VERTEX
  5
6C2
  8
図枠
 10
96.597399999999993
 20
-111.173
 30
0.0
 70
    32
  0
VERTEX
  5
6C3
  8
図枠
 10
96.619699999999995
 20
-111.19199999999999
 30
0.0
 70
    32
  0
VERTEX
  5
6C4
  8
図枠
 10
96.641900000000007
 20
-111.20999999999999
 30
0.0
 70
    32
  0
VERTEX
  5
6C5
  8
図枠
 10
96.664199999999994
 20
-111.229
 30
0.0
 70
    32
  0
VERTEX
  5
6C6
  8
図枠
 10
96.686499999999995
 20
-111.248
 30
0.0
 70
    32
  0
VERTEX
  5
6C7
  8
図枠
 10
96.708799999999997
 20
-111.26600000000001
 30
0.0
 70
    32
  0
VERTEX
  5
6C8
  8
図枠
 10
96.731100000000012
 20
-111.285
 30
0.0
 70
    32
  0
VERTEX
  5
6C9
  8
図枠
 10
96.753500000000017
 20
-111.304
 30
0.0
 70
    32
  0
VERTEX
  5
6CA
  8
図枠
 10
96.775800000000004
 20
-111.322
 30
0.0
 70
    32
  0
VERTEX
  5
6CB
  8
図枠
 10
96.798199999999994
 20
-111.34099999999999
 30
0.0
 70
    32
  0
VERTEX
  5
6CC
  8
図枠
 10
96.820599999999985
 20
-111.35899999999999
 30
0.0
 70
    32
  0
VERTEX
  5
6CD
  8
図枠
 10
96.843000000000004
 20
-111.378
 30
0.0
 70
    32
  0
VERTEX
  5
6CE
  8
図枠
 10
96.865399999999994
 20
-111.396
 30
0.0
 70
    32
  0
VERTEX
  5
6CF
  8
図枠
 10
96.887900000000002
 20
-111.414
 30
0.0
 70
    32
  0
VERTEX
  5
6D0
  8
図枠
 10
96.910399999999996
 20
-111.43300000000001
 30
0.0
 70
    32
  0
VERTEX
  5
6D1
  8
図枠
 10
96.932800000000015
 20
-111.45099999999999
 30
0.0
 70
    32
  0
VERTEX
  5
6D2
  8
図枠
 10
96.955400000000012
 20
-111.46899999999999
 30
0.0
 70
    32
  0
VERTEX
  5
6D3
  8
図枠
 10
96.977900000000005
 20
-111.48699999999999
 30
0.0
 70
    32
  0
VERTEX
  5
6D4
  8
図枠
 10
97.000400000000013
 20
-111.506
 30
0.0
 70
    32
  0
VERTEX
  5
6D5
  8
図枠
 10
97.02300000000001
 20
-111.524
 30
0.0
 70
    32
  0
VERTEX
  5
6D6
  8
図枠
 10
97.045599999999993
 20
-111.542
 30
0.0
 70
    32
  0
VERTEX
  5
6D7
  8
図枠
 10
97.068200000000004
 20
-111.56
 30
0.0
 70
    32
  0
VERTEX
  5
6D8
  8
図枠
 10
97.090900000000005
 20
-111.578
 30
0.0
 70
    32
  0
VERTEX
  5
6D9
  8
図枠
 10
97.113500000000016
 20
-111.596
 30
0.0
 70
    32
  0
VERTEX
  5
6DA
  8
図枠
 10
97.136200000000002
 20
-111.614
 30
0.0
 70
    32
  0
VERTEX
  5
6DB
  8
図枠
 10
97.158900000000017
 20
-111.63200000000001
 30
0.0
 70
    32
  0
VERTEX
  5
6DC
  8
図枠
 10
97.181600000000003
 20
-111.65000000000001
 30
0.0
 70
    32
  0
VERTEX
  5
6DD
  8
図枠
 10
97.204400000000007
 20
-111.66800000000001
 30
0.0
 70
    32
  0
VERTEX
  5
6DE
  8
図枠
 10
97.227099999999993
 20
-111.685
 30
0.0
 70
    32
  0
VERTEX
  5
6DF
  8
図枠
 10
97.249899999999997
 20
-111.703
 30
0.0
 70
    32
  0
VERTEX
  5
6E0
  8
図枠
 10
97.2727
 20
-111.721
 30
0.0
 70
    32
  0
VERTEX
  5
6E1
  8
図枠
 10
97.295599999999993
 20
-111.738
 30
0.0
 70
    32
  0
VERTEX
  5
6E2
  8
図枠
 10
97.318399999999997
 20
-111.756
 30
0.0
 70
    32
  0
VERTEX
  5
6E3
  8
図枠
 10
97.341300000000004
 20
-111.774
 30
0.0
 70
    32
  0
VERTEX
  5
6E4
  8
図枠
 10
97.364199999999997
 20
-111.791
 30
0.0
 70
    32
  0
VERTEX
  5
6E5
  8
図枠
 10
97.387200000000007
 20
-111.809
 30
0.0
 70
    32
  0
VERTEX
  5
6E6
  8
図枠
 10
97.410100000000014
 20
-111.82599999999999
 30
0.0
 70
    32
  0
VERTEX
  5
6E7
  8
図枠
 10
97.43310000000001
 20
-111.843
 30
0.0
 70
    32
  0
VERTEX
  5
6E8
  8
図枠
 10
97.456100000000006
 20
-111.861
 30
0.0
 70
    32
  0
VERTEX
  5
6E9
  8
図枠
 10
97.479200000000006
 20
-111.878
 30
0.0
 70
    32
  0
VERTEX
  5
6EA
  8
図枠
 10
97.502200000000002
 20
-111.895
 30
0.0
 70
    32
  0
VERTEX
  5
6EB
  8
図枠
 10
97.525300000000001
 20
-111.913
 30
0.0
 70
    32
  0
VERTEX
  5
6EC
  8
図枠
 10
97.548400000000015
 20
-111.93000000000001
 30
0.0
 70
    32
  0
VERTEX
  5
6ED
  8
図枠
 10
97.571500000000015
 20
-111.947
 30
0.0
 70
    32
  0
VERTEX
  5
6EE
  8
図枠
 10
97.594700000000003
 20
-111.964
 30
0.0
 70
    32
  0
VERTEX
  5
6EF
  8
図枠
 10
97.617900000000006
 20
-111.98099999999999
 30
0.0
 70
    32
  0
VERTEX
  5
6F0
  8
図枠
 10
97.641099999999994
 20
-111.998
 30
0.0
 70
    32
  0
VERTEX
  5
6F1
  8
図枠
 10
97.664400000000015
 20
-112.015
 30
0.0
 70
    32
  0
VERTEX
  5
6F2
  8
図枠
 10
97.687600000000003
 20
-112.032
 30
0.0
 70
    32
  0
VERTEX
  5
6F3
  8
図枠
 10
97.710899999999995
 20
-112.048
 30
0.0
 70
    32
  0
VERTEX
  5
6F4
  8
図枠
 10
97.734200000000016
 20
-112.065
 30
0.0
 70
    32
  0
VERTEX
  5
6F5
  8
図枠
 10
97.757599999999996
 20
-112.08199999999999
 30
0.0
 70
    32
  0
VERTEX
  5
6F6
  8
図枠
 10
97.78100000000002
 20
-112.099
 30
0.0
 70
    32
  0
VERTEX
  5
6F7
  8
図枠
 10
97.804400000000001
 20
-112.11499999999999
 30
0.0
 70
    32
  0
VERTEX
  5
6F8
  8
図枠
 10
97.827799999999996
 20
-112.13200000000001
 30
0.0
 70
    32
  0
VERTEX
  5
6F9
  8
図枠
 10
97.851299999999995
 20
-112.148
 30
0.0
 70
    32
  0
VERTEX
  5
6FA
  8
図枠
 10
97.874799999999993
 20
-112.16500000000001
 30
0.0
 70
    32
  0
VERTEX
  5
6FB
  8
図枠
 10
97.89830000000002
 20
-112.181
 30
0.0
 70
    32
  0
VERTEX
  5
6FC
  8
図枠
 10
97.921899999999994
 20
-112.197
 30
0.0
 70
    32
  0
VERTEX
  5
6FD
  8
図枠
 10
97.945400000000006
 20
-112.214
 30
0.0
 70
    32
  0
VERTEX
  5
6FE
  8
図枠
 10
97.968999999999994
 20
-112.23
 30
0.0
 70
    32
  0
VERTEX
  5
6FF
  8
図枠
 10
97.992699999999985
 20
-112.246
 30
0.0
 70
    32
  0
VERTEX
  5
700
  8
図枠
 10
98.016400000000004
 20
-112.262
 30
0.0
 70
    32
  0
VERTEX
  5
701
  8
図枠
 10
98.040099999999995
 20
-112.27800000000001
 30
0.0
 70
    32
  0
VERTEX
  5
702
  8
図枠
 10
98.063800000000001
 20
-112.294
 30
0.0
 70
    32
  0
VERTEX
  5
703
  8
図枠
 10
98.087599999999995
 20
-112.31
 30
0.0
 70
    32
  0
VERTEX
  5
704
  8
図枠
 10
98.111400000000003
 20
-112.32599999999999
 30
0.0
 70
    32
  0
VERTEX
  5
705
  8
図枠
 10
98.135199999999998
 20
-112.342
 30
0.0
 70
    32
  0
VERTEX
  5
706
  8
図枠
 10
98.159000000000006
 20
-112.358
 30
0.0
 70
    32
  0
VERTEX
  5
707
  8
図枠
 10
98.182900000000004
 20
-112.373
 30
0.0
 70
    32
  0
VERTEX
  5
708
  8
図枠
 10
98.206900000000005
 20
-112.389
 30
0.0
 70
    32
  0
VERTEX
  5
709
  8
図枠
 10
98.230800000000002
 20
-112.405
 30
0.0
 70
    32
  0
VERTEX
  5
70A
  8
図枠
 10
98.254800000000003
 20
-112.42
 30
0.0
 70
    32
  0
VERTEX
  5
70B
  8
図枠
 10
98.278800000000004
 20
-112.43600000000001
 30
0.0
 70
    32
  0
VERTEX
  5
70C
  8
図枠
 10
98.302899999999994
 20
-112.45099999999999
 30
0.0
 70
    32
  0
VERTEX
  5
70D
  8
図枠
 10
98.326999999999998
 20
-112.46599999999999
 30
0.0
 70
    32
  0
VERTEX
  5
70E
  8
図枠
 10
98.351100000000002
 20
-112.482
 30
0.0
 70
    32
  0
VERTEX
  5
70F
  8
図枠
 10
98.375200000000007
 20
-112.497
 30
0.0
 70
    32
  0
VERTEX
  5
710
  8
図枠
 10
98.3994
 20
-112.512
 30
0.0
 70
    32
  0
VERTEX
  5
711
  8
図枠
 10
98.423599999999993
 20
-112.527
 30
0.0
 70
    32
  0
VERTEX
  5
712
  8
図枠
 10
98.447900000000004
 20
-112.542
 30
0.0
 70
    32
  0
VERTEX
  5
713
  8
図枠
 10
98.472200000000001
 20
-112.557
 30
0.0
 70
    32
  0
VERTEX
  5
714
  8
図枠
 10
98.496499999999997
 20
-112.572
 30
0.0
 70
    32
  0
VERTEX
  5
715
  8
図枠
 10
98.520899999999997
 20
-112.587
 30
0.0
 70
    32
  0
VERTEX
  5
716
  8
図枠
 10
98.545299999999997
 20
-112.602
 30
0.0
 70
    32
  0
VERTEX
  5
717
  8
図枠
 10
98.569699999999997
 20
-112.616
 30
0.0
 70
    32
  0
SEQEND
  5
718
  8
図枠
  0
LINE
  5
116
  8
図枠
 10
84.590151372799994
 20
-112.553442807
 30
0.0
 11
84.590151372799994
 21
-110.753442807
 31
0.0
  0
LINE
  5
117
  8
図枠
 10
86.390151372800005
 20
-106.553442807
 30
0.0
 11
81.590151372799994
 21
-106.553442807
 31
0.0
  0
POLYLINE
  5
719
  8
図枠
 66
     1
 10
0.0
 20
0.0
 30
0.0
 70
     8
  0
VERTEX
  5
71A
  8
図枠
 10
99.104100000000003
 20
-110.01900000000001
 30
0.0
 70
    32
  0
VERTEX
  5
71B
  8
図枠
 10
99.111999999999995
 20
-110.02800000000001
 30
0.0
 70
    32
  0
VERTEX
  5
71C
  8
図枠
 10
99.119900000000015
 20
-110.036
 30
0.0
 70
    32
  0
VERTEX
  5
71D
  8
図枠
 10
99.127799999999993
 20
-110.045
 30
0.0
 70
    32
  0
VERTEX
  5
71E
  8
図枠
 10
99.135699999999986
 20
-110.054
 30
0.0
 70
    32
  0
VERTEX
  5
71F
  8
図枠
 10
99.143699999999995
 20
-110.063
 30
0.0
 70
    32
  0
VERTEX
  5
720
  8
図枠
 10
99.151600000000002
 20
-110.072
 30
0.0
 70
    32
  0
VERTEX
  5
721
  8
図枠
 10
99.159499999999994
 20
-110.081
 30
0.0
 70
    32
  0
VERTEX
  5
722
  8
図枠
 10
99.167400000000001
 20
-110.089
 30
0.0
 70
    32
  0
VERTEX
  5
723
  8
図枠
 10
99.175299999999993
 20
-110.098
 30
0.0
 70
    32
  0
VERTEX
  5
724
  8
図枠
 10
99.183300000000003
 20
-110.107
 30
0.0
 70
    32
  0
VERTEX
  5
725
  8
図枠
 10
99.191199999999995
 20
-110.116
 30
0.0
 70
    32
  0
VERTEX
  5
726
  8
図枠
 10
99.199100000000016
 20
-110.125
 30
0.0
 70
    32
  0
VERTEX
  5
727
  8
図枠
 10
99.206999999999994
 20
-110.134
 30
0.0
 70
    32
  0
VERTEX
  5
728
  8
図枠
 10
99.215000000000003
 20
-110.142
 30
0.0
 70
    32
  0
VERTEX
  5
729
  8
図枠
 10
99.222899999999996
 20
-110.151
 30
0.0
 70
    32
  0
VERTEX
  5
72A
  8
図枠
 10
99.230800000000002
 20
-110.16
 30
0.0
 70
    32
  0
VERTEX
  5
72B
  8
図枠
 10
99.238699999999994
 20
-110.169
 30
0.0
 70
    32
  0
VERTEX
  5
72C
  8
図枠
 10
99.246700000000004
 20
-110.178
 30
0.0
 70
    32
  0
VERTEX
  5
72D
  8
図枠
 10
99.254600000000011
 20
-110.18600000000001
 30
0.0
 70
    32
  0
VERTEX
  5
72E
  8
図枠
 10
99.262500000000017
 20
-110.19499999999999
 30
0.0
 70
    32
  0
VERTEX
  5
72F
  8
図枠
 10
99.270500000000013
 20
-110.20399999999999
 30
0.0
 70
    32
  0
VERTEX
  5
730
  8
図枠
 10
99.278400000000005
 20
-110.21299999999999
 30
0.0
 70
    32
  0
VERTEX
  5
731
  8
図枠
 10
99.286400000000015
 20
-110.22199999999999
 30
0.0
 70
    32
  0
VERTEX
  5
732
  8
図枠
 10
99.294300000000007
 20
-110.23
 30
0.0
 70
    32
  0
VERTEX
  5
733
  8
図枠
 10
99.302199999999999
 20
-110.239
 30
0.0
 70
    32
  0
VERTEX
  5
734
  8
図枠
 10
99.310199999999995
 20
-110.248
 30
0.0
 70
    32
  0
VERTEX
  5
735
  8
図枠
 10
99.318100000000001
 20
-110.25700000000001
 30
0.0
 70
    32
  0
VERTEX
  5
736
  8
図枠
 10
99.326099999999997
 20
-110.26600000000001
 30
0.0
 70
    32
  0
VERTEX
  5
737
  8
図枠
 10
99.334000000000003
 20
-110.274
 30
0.0
 70
    32
  0
VERTEX
  5
738
  8
図枠
 10
99.341999999999999
 20
-110.283
 30
0.0
 70
    32
  0
VERTEX
  5
739
  8
図枠
 10
99.349999999999994
 20
-110.292
 30
0.0
 70
    32
  0
VERTEX
  5
73A
  8
図枠
 10
99.357900000000001
 20
-110.301
 30
0.0
 70
    32
  0
VERTEX
  5
73B
  8
図枠
 10
99.365899999999996
 20
-110.309
 30
0.0
 70
    32
  0
VERTEX
  5
73C
  8
図枠
 10
99.373800000000003
 20
-110.318
 30
0.0
 70
    32
  0
VERTEX
  5
73D
  8
図枠
 10
99.381799999999998
 20
-110.327
 30
0.0
 70
    32
  0
VERTEX
  5
73E
  8
図枠
 10
99.389799999999994
 20
-110.336
 30
0.0
 70
    32
  0
VERTEX
  5
73F
  8
図枠
 10
99.397800000000004
 20
-110.34399999999999
 30
0.0
 70
    32
  0
VERTEX
  5
740
  8
図枠
 10
99.40570000000001
 20
-110.35299999999999
 30
0.0
 70
    32
  0
VERTEX
  5
741
  8
図枠
 10
99.413700000000006
 20
-110.36199999999999
 30
0.0
 70
    32
  0
VERTEX
  5
742
  8
図枠
 10
99.421700000000001
 20
-110.371
 30
0.0
 70
    32
  0
VERTEX
  5
743
  8
図枠
 10
99.429699999999997
 20
-110.379
 30
0.0
 70
    32
  0
VERTEX
  5
744
  8
図枠
 10
99.437700000000007
 20
-110.38800000000001
 30
0.0
 70
    32
  0
VERTEX
  5
745
  8
図枠
 10
99.445700000000002
 20
-110.39700000000001
 30
0.0
 70
    32
  0
VERTEX
  5
746
  8
図枠
 10
99.453699999999998
 20
-110.405
 30
0.0
 70
    32
  0
VERTEX
  5
747
  8
図枠
 10
99.461699999999993
 20
-110.414
 30
0.0
 70
    32
  0
VERTEX
  5
748
  8
図枠
 10
99.469700000000003
 20
-110.423
 30
0.0
 70
    32
  0
VERTEX
  5
749
  8
図枠
 10
99.477699999999999
 20
-110.432
 30
0.0
 70
    32
  0
VERTEX
  5
74A
  8
図枠
 10
99.485699999999994
 20
-110.44
 30
0.0
 70
    32
  0
VERTEX
  5
74B
  8
図枠
 10
99.493700000000004
 20
-110.449
 30
0.0
 70
    32
  0
VERTEX
  5
74C
  8
図枠
 10
99.501699999999985
 20
-110.458
 30
0.0
 70
    32
  0
VERTEX
  5
74D
  8
図枠
 10
99.509699999999995
 20
-110.46599999999999
 30
0.0
 70
    32
  0
VERTEX
  5
74E
  8
図枠
 10
99.517799999999994
 20
-110.47499999999999
 30
0.0
 70
    32
  0
VERTEX
  5
74F
  8
図枠
 10
99.525800000000004
 20
-110.48399999999999
 30
0.0
 70
    32
  0
VERTEX
  5
750
  8
図枠
 10
99.533800000000014
 20
-110.492
 30
0.0
 70
    32
  0
VERTEX
  5
751
  8
図枠
 10
99.541899999999998
 20
-110.501
 30
0.0
 70
    32
  0
VERTEX
  5
752
  8
図枠
 10
99.549899999999994
 20
-110.509
 30
0.0
 70
    32
  0
VERTEX
  5
753
  8
図枠
 10
99.558000000000007
 20
-110.518
 30
0.0
 70
    32
  0
VERTEX
  5
754
  8
図枠
 10
99.566000000000017
 20
-110.527
 30
0.0
 70
    32
  0
VERTEX
  5
755
  8
図枠
 10
99.574100000000016
 20
-110.535
 30
0.0
 70
    32
  0
VERTEX
  5
756
  8
図枠
 10
99.5822
 20
-110.544
 30
0.0
 70
    32
  0
VERTEX
  5
757
  8
図枠
 10
99.590199999999996
 20
-110.55200000000001
 30
0.0
 70
    32
  0
VERTEX
  5
758
  8
図枠
 10
99.598299999999995
 20
-110.56100000000001
 30
0.0
 70
    32
  0
VERTEX
  5
759
  8
図枠
 10
99.606399999999994
 20
-110.56999999999999
 30
0.0
 70
    32
  0
VERTEX
  5
75A
  8
図枠
 10
99.614500000000007
 20
-110.578
 30
0.0
 70
    32
  0
VERTEX
  5
75B
  8
図枠
 10
99.622600000000006
 20
-110.587
 30
0.0
 70
    32
  0
VERTEX
  5
75C
  8
図枠
 10
99.630600000000001
 20
-110.595
 30
0.0
 70
    32
  0
VERTEX
  5
75D
  8
図枠
 10
99.6387
 20
-110.604
 30
0.0
 70
    32
  0
VERTEX
  5
75E
  8
図枠
 10
99.646900000000002
 20
-110.61199999999999
 30
0.0
 70
    32
  0
VERTEX
  5
75F
  8
図枠
 10
99.655000000000001
 20
-110.621
 30
0.0
 70
    32
  0
VERTEX
  5
760
  8
図枠
 10
99.6631
 20
-110.629
 30
0.0
 70
    32
  0
VERTEX
  5
761
  8
図枠
 10
99.671200000000013
 20
-110.63800000000001
 30
0.0
 70
    32
  0
VERTEX
  5
762
  8
図枠
 10
99.679299999999998
 20
-110.646
 30
0.0
 70
    32
  0
VERTEX
  5
763
  8
図枠
 10
99.6875
 20
-110.655
 30
0.0
 70
    32
  0
VERTEX
  5
764
  8
図枠
 10
99.695600000000013
 20
-110.663
 30
0.0
 70
    32
  0
VERTEX
  5
765
  8
図枠
 10
99.703800000000001
 20
-110.672
 30
0.0
 70
    32
  0
VERTEX
  5
766
  8
図枠
 10
99.711899999999986
 20
-110.68000000000001
 30
0.0
 70
    32
  0
VERTEX
  5
767
  8
図枠
 10
99.720100000000002
 20
-110.68899999999999
 30
0.0
 70
    32
  0
VERTEX
  5
768
  8
図枠
 10
99.728200000000001
 20
-110.697
 30
0.0
 70
    32
  0
VERTEX
  5
769
  8
図枠
 10
99.736400000000003
 20
-110.706
 30
0.0
 70
    32
  0
VERTEX
  5
76A
  8
図枠
 10
99.744600000000005
 20
-110.714
 30
0.0
 70
    32
  0
VERTEX
  5
76B
  8
図枠
 10
99.752799999999993
 20
-110.72199999999999
 30
0.0
 70
    32
  0
VERTEX
  5
76C
  8
図枠
 10
99.760999999999996
 20
-110.73099999999999
 30
0.0
 70
    32
  0
VERTEX
  5
76D
  8
図枠
 10
99.769199999999984
 20
-110.739
 30
0.0
 70
    32
  0
VERTEX
  5
76E
  8
図枠
 10
99.7774
 20
-110.747
 30
0.0
 70
    32
  0
VERTEX
  5
76F
  8
図枠
 10
99.785600000000017
 20
-110.756
 30
0.0
 70
    32
  0
VERTEX
  5
770
  8
図枠
 10
99.793800000000005
 20
-110.764
 30
0.0
 70
    32
  0
VERTEX
  5
771
  8
図枠
 10
99.802000000000007
 20
-110.773
 30
0.0
 70
    32
  0
VERTEX
  5
772
  8
図枠
 10
99.810199999999995
 20
-110.78100000000001
 30
0.0
 70
    32
  0
VERTEX
  5
773
  8
図枠
 10
99.818500000000014
 20
-110.789
 30
0.0
 70
    32
  0
VERTEX
  5
774
  8
図枠
 10
99.826700000000002
 20
-110.797
 30
0.0
 70
    32
  0
VERTEX
  5
775
  8
図枠
 10
99.834999999999994
 20
-110.806
 30
0.0
 70
    32
  0
VERTEX
  5
776
  8
図枠
 10
99.843199999999996
 20
-110.81399999999999
 30
0.0
 70
    32
  0
VERTEX
  5
777
  8
図枠
 10
99.851500000000001
 20
-110.822
 30
0.0
 70
    32
  0
VERTEX
  5
778
  8
図枠
 10
99.859800000000007
 20
-110.831
 30
0.0
 70
    32
  0
VERTEX
  5
779
  8
図枠
 10
99.868099999999998
 20
-110.839
 30
0.0
 70
    32
  0
VERTEX
  5
77A
  8
図枠
 10
99.876400000000004
 20
-110.84699999999999
 30
0.0
 70
    32
  0
VERTEX
  5
77B
  8
図枠
 10
99.884699999999995
 20
-110.855
 30
0.0
 70
    32
  0
VERTEX
  5
77C
  8
図枠
 10
99.893000000000001
 20
-110.863
 30
0.0
 70
    32
  0
VERTEX
  5
77D
  8
図枠
 10
99.901300000000006
 20
-110.872
 30
0.0
 70
    32
  0
VERTEX
  5
77E
  8
図枠
 10
99.909600000000012
 20
-110.88
 30
0.0
 70
    32
  0
VERTEX
  5
77F
  8
図枠
 10
99.918000000000006
 20
-110.88800000000001
 30
0.0
 70
    32
  0
VERTEX
  5
780
  8
図枠
 10
99.926299999999998
 20
-110.896
 30
0.0
 70
    32
  0
VERTEX
  5
781
  8
図枠
 10
99.934600000000003
 20
-110.904
 30
0.0
 70
    32
  0
VERTEX
  5
782
  8
図枠
 10
99.942999999999998
 20
-110.91200000000001
 30
0.0
 70
    32
  0
VERTEX
  5
783
  8
図枠
 10
99.951400000000007
 20
-110.92100000000001
 30
0.0
 70
    32
  0
VERTEX
  5
784
  8
図枠
 10
99.959699999999984
 20
-110.929
 30
0.0
 70
    32
  0
VERTEX
  5
785
  8
図枠
 10
99.968100000000007
 20
-110.937
 30
0.0
 70
    32
  0
VERTEX
  5
786
  8
図枠
 10
99.976500000000001
 20
-110.94499999999999
 30
0.0
 70
    32
  0
VERTEX
  5
787
  8
図枠
 10
99.984899999999996
 20
-110.953
 30
0.0
 70
    32
  0
VERTEX
  5
788
  8
図枠
 10
99.993300000000005
 20
-110.961
 30
0.0
 70
    32
  0
VERTEX
  5
789
  8
図枠
 10
100.002
 20
-110.96899999999999
 30
0.0
 70
    32
  0
VERTEX
  5
78A
  8
図枠
 10
100.01000000000001
 20
-110.977
 30
0.0
 70
    32
  0
VERTEX
  5
78B
  8
図枠
 10
100.01900000000001
 20
-110.985
 30
0.0
 70
    32
  0
VERTEX
  5
78C
  8
図枠
 10
100.027
 20
-110.99299999999999
 30
0.0
 70
    32
  0
VERTEX
  5
78D
  8
図枠
 10
100.036
 20
-111.001
 30
0.0
 70
    32
  0
VERTEX
  5
78E
  8
図枠
 10
100.044
 20
-111.009
 30
0.0
 70
    32
  0
VERTEX
  5
78F
  8
図枠
 10
100.05200000000001
 20
-111.017
 30
0.0
 70
    32
  0
VERTEX
  5
790
  8
図枠
 10
100.06100000000001
 20
-111.02500000000001
 30
0.0
 70
    32
  0
VERTEX
  5
791
  8
図枠
 10
100.069
 20
-111.033
 30
0.0
 70
    32
  0
VERTEX
  5
792
  8
図枠
 10
100.078
 20
-111.04000000000001
 30
0.0
 70
    32
  0
VERTEX
  5
793
  8
図枠
 10
100.086
 20
-111.048
 30
0.0
 70
    32
  0
VERTEX
  5
794
  8
図枠
 10
100.095
 20
-111.056
 30
0.0
 70
    32
  0
VERTEX
  5
795
  8
図枠
 10
100.104
 20
-111.06399999999999
 30
0.0
 70
    32
  0
VERTEX
  5
796
  8
図枠
 10
100.11199999999999
 20
-111.072
 30
0.0
 70
    32
  0
VERTEX
  5
797
  8
図枠
 10
100.121
 20
-111.08
 30
0.0
 70
    32
  0
VERTEX
  5
798
  8
図枠
 10
100.129
 20
-111.087
 30
0.0
 70
    32
  0
VERTEX
  5
799
  8
図枠
 10
100.13800000000001
 20
-111.095
 30
0.0
 70
    32
  0
SEQEND
  5
79A
  8
図枠
  0
LINE
  5
119
  8
図枠
 10
94.982878645499994
 20
-108.71344280700001
 30
0.0
 11
100.98287864549999
 21
-108.71344280700001
 31
0.0
  0
INSERT
  5
11A
  8
0
  6
CONTINUOUS
  2
*U75
 10
0.0
 20
0.0
 30
0.0
  0
LINE
  5
11B
  8
図枠
 10
80.208826798999993
 20
-108.953442807
 30
0.0
 11
80.208826798999993
 21
-110.753442807
 31
0.0
  0
LINE
  5
11C
  8
図枠
 10
81.590151372799994
 20
-108.953442807
 30
0.0
 11
80.208826798999993
 21
-108.953442807
 31
0.0
  0
INSERT
  5
11D
  8
0
  6
CONTINUOUS
  2
*U76
 10
0.0
 20
0.0
 30
0.0
  0
LINE
  5
11E
  8
図枠
 10
79.794349323800006
 20
-91.7456503672
 30
0.0
 11
79.794349323800006
 21
-104.4956503672
 31
0.0
  0
LINE
  5
11F
  8
図枠
 10
84.590151372799994
 20
-108.35344280699999
 30
0.0
 11
86.390151372800005
 21
-106.553442807
 31
0.0
  0
INSERT
  5
120
  8
0
  6
CONTINUOUS
  2
*U77
 10
0.0
 20
0.0
 30
0.0
  0
LINE
  5
121
  8
図枠
 10
80.208826798999993
 20
-110.753442807
 30
0.0
 11
81.408826798999982
 21
-110.753442807
 31
0.0
  0
INSERT
  5
122
  8
0
  6
CONTINUOUS
  2
*U78
 10
0.0
 20
0.0
 30
0.0
  0
LINE
  5
123
  8
図枠
 10
37.794349323799999
 20
-98.120650367199985
 30
0.0
 11
76.794349323800006
 21
-98.120650367199985
 31
0.0
  0
LINE
  5
124
  8
図枠
 10
94.982878645499994
 20
-113.153442807
 30
0.0
 11
94.982878645499994
 21
-114.953442807
 31
0.0
  0
LINE
  5
125
  8
図枠
 10
34.794349323799999
 20
-54.2456503672
 30
0.0
 11
34.794349323799999
 21
-78.9956503672
 31
0.0
  0
INSERT
  5
126
  8
0
  6
CONTINUOUS
  2
*U79
 10
0.0
 20
0.0
 30
0.0
  0
INSERT
  5
127
  8
0
  6
CONTINUOUS
  2
*U80
 10
0.0
 20
0.0
 30
0.0
  0
LINE
  5
128
  8
図枠
 10
81.590151372799994
 20
-113.153442807
 30
0.0
 11
81.590151372799994
 21
-114.953442807
 31
0.0
  0
INSERT
  5
129
  8
0
  6
CONTINUOUS
  2
*U81
 10
0.0
 20
0.0
 30
0.0
  0
CIRCLE
  5
12A
  8
図枠
 10
103.8903493238
 20
-85.370650367199985
 30
0.0
 40
1.728
  0
CIRCLE
  5
12B
  8
図枠
 10
103.8903493238
 20
-85.370650367199985
 30
0.0
 40
3.456
  0
ARC
  5
12C
  8
図枠
 10
96.422878645499992
 20
-108.593442807
 30
0.0
 40
4.5599999999999987
 50
331.39928138329998
 51
358.49204224580001
  0
LINE
  5
12D
  8
図枠
 10
100.4264536356
 20
-110.7763278931
 30
0.0
 11
100.137738668
 21
-111.0952139258
 31
0.0
  0
ARC
  5
12E
  8
図枠
 10
86.390151372800005
 20
-111.35344280699999
 30
0.0
 40
3.6000000000000001
 50
270.0
 51
0.0
  0
INSERT
  5
12F
  8
0
  6
CONTINUOUS
  2
*U82
 10
0.0
 20
0.0
 30
0.0
  0
LINE
  5
130
  8
図枠
 10
67.794349323800006
 20
-85.370650367199985
 30
0.0
 11
88.794349323799977
 21
-85.370650367199985
 31
0.0
  0
ARC
  5
131
  8
図枠
 10
96.422878645499992
 20
-108.593442807
 30
0.0
 40
4.5599999999999987
 50
270.0
 51
298.08590481520002
  0
INSERT
  5
132
  8
0
  6
CONTINUOUS
  2
*U83
 10
0.0
 20
0.0
 30
0.0
  0
INSERT
  5
133
  8
0
  6
CONTINUOUS
  2
*U84
 10
0.0
 20
0.0
 30
0.0
  0
LINE
  5
134
  8
図枠
 10
34.794349323799999
 20
-91.7456503672
 30
0.0
 11
208.79434932379999
 21
-91.7456503672
 31
0.0
  0
LINE
  5
135
  8
図枠
 10
94.982878645499994
 20
-114.953442807
 30
0.0
 11
97.982878645499994
 21
-114.953442807
 31
0.0
  0
LINE
  5
136
  8
図枠
 10
84.590151372799994
 20
-110.753442807
 30
0.0
 11
86.990151372799986
 21
-110.753442807
 31
0.0
  0
LINE
  5
137
  8
図枠
 10
94.982878645499994
 20
-114.953442807
 30
0.0
 11
94.982878645499994
 21
-113.153442807
 31
0.0
  0
DIMENSION
  5
146
  8
寸法線
  2
*D8
 10
-79.955721064800002
 20
71.988677129199999
 30
0.0
 11
-73.455721064800002
 21
71.988677129199999
 31
0.0
 70
   128
  1
<>
 13
-79.955721064800002
 23
101.0668619792
 33
0.0
 14
-66.955721064800002
 24
83.066861979199984
 34
0.0
 50
180.0
  0
DIMENSION
  5
155
  8
寸法線
  2
*D9
 10
-21.795690301499999
 20
107.0668619792
 30
0.0
 11
-21.795690301499999
 21
110.0668619792
 31
0.0
 70
   128
  1
<>
 13
-73.955721064800002
 23
107.0668619792
 33
0.0
 14
-49.955721064800002
 24
113.0668619792
 34
0.0
 50
90.0
  0
DIMENSION
  5
164
  8
寸法線
  2
*D10
 10
-32.095021976399998
 20
100.3168619792
 30
0.0
 11
-32.095021976399998
 21
120.4957406092
 31
0.0
 70
   128
  1
<>
 13
-65.205721064800002
 23
100.3168619792
 33
0.0
 14
-49.955721064800002
 24
113.0668619792
 34
0.0
 50
90.0
  0
DIMENSION
  5
173
  8
寸法線
  2
*D11
 10
-109.9557210648
 20
140.20211281620001
 30
0.0
 11
-111.5557210648
 21
140.20211281620001
 31
0.0
 70
   128
  1
<>
 13
-109.9557210648
 23
113.0668619792
 33
0.0
 14
-113.15572106480001
 24
113.0668619792
 34
0.0
  0
DIMENSION
  5
182
  8
寸法線
  2
*D12
 10
-49.955721064800002
 20
140.20211281620001
 30
0.0
 11
-79.955721064800002
 21
140.20211281620001
 31
0.0
 70
   128
  1
<>
 13
-49.955721064800002
 23
113.0668619792
 33
0.0
 14
-109.9557210648
 24
113.0668619792
 34
0.0
  0
DIMENSION
  5
191
  8
寸法線
  2
*D13
 10
-21.795690301499999
 20
89.066861979199999
 30
0.0
 11
-21.795690301499999
 21
98.066861979200013
 31
0.0
 70
   128
  1
<>
 13
-60.955721064799988
 23
89.066861979199999
 33
0.0
 14
-73.955721064800002
 24
107.0668619792
 34
0.0
 50
90.0
  0
INSERT
  5
192
  8
0
  6
CONTINUOUS
  2
*U85
 10
0.0
 20
0.0
 30
0.0
  0
LINE
  5
193
  8
図枠
 10
82.794349323800006
 20
-98.120650367199985
 30
0.0
 11
121.79434932380001
 21
-98.120650367199985
 31
0.0
  0
LINE
  5
194
  8
図枠
 10
34.794349323799999
 20
-54.2456503672
 30
0.0
 11
208.79434932379999
 21
-54.2456503672
 31
0.0
  0
INSERT
  5
195
  8
0
  6
CONTINUOUS
  2
*U86
 10
0.0
 20
0.0
 30
0.0
  0
POLYLINE
  5
79B
  8
図枠
 66
     1
 10
0.0
 20
0.0
 30
0.0
 70
     8
  0
VERTEX
  5
79C
  8
図枠
 10
101.533
 20
-113.917
 30
0.0
 70
    32
  0
VERTEX
  5
79D
  8
図枠
 10
101.566
 20
-113.92700000000001
 30
0.0
 70
    32
  0
VERTEX
  5
79E
  8
図枠
 10
101.598
 20
-113.938
 30
0.0
 70
    32
  0
VERTEX
  5
79F
  8
図枠
 10
101.63
 20
-113.94799999999999
 30
0.0
 70
    32
  0
VERTEX
  5
7A0
  8
図枠
 10
101.663
 20
-113.958
 30
0.0
 70
    32
  0
VERTEX
  5
7A1
  8
図枠
 10
101.69499999999999
 20
-113.968
 30
0.0
 70
    32
  0
VERTEX
  5
7A2
  8
図枠
 10
101.72799999999999
 20
-113.97799999999999
 30
0.0
 70
    32
  0
VERTEX
  5
7A3
  8
図枠
 10
101.76000000000001
 20
-113.988
 30
0.0
 70
    32
  0
VERTEX
  5
7A4
  8
図枠
 10
101.79300000000001
 20
-113.998
 30
0.0
 70
    32
  0
VERTEX
  5
7A5
  8
図枠
 10
101.825
 20
-114.008
 30
0.0
 70
    32
  0
VERTEX
  5
7A6
  8
図枠
 10
101.858
 20
-114.018
 30
0.0
 70
    32
  0
VERTEX
  5
7A7
  8
図枠
 10
101.89
 20
-114.02800000000001
 30
0.0
 70
    32
  0
VERTEX
  5
7A8
  8
図枠
 10
101.923
 20
-114.03700000000001
 30
0.0
 70
    32
  0
VERTEX
  5
7A9
  8
図枠
 10
101.955
 20
-114.047
 30
0.0
 70
    32
  0
VERTEX
  5
7AA
  8
図枠
 10
101.988
 20
-114.057
 30
0.0
 70
    32
  0
VERTEX
  5
7AB
  8
図枠
 10
102.021
 20
-114.066
 30
0.0
 70
    32
  0
VERTEX
  5
7AC
  8
図枠
 10
102.053
 20
-114.07599999999999
 30
0.0
 70
    32
  0
VERTEX
  5
7AD
  8
図枠
 10
102.086
 20
-114.086
 30
0.0
 70
    32
  0
VERTEX
  5
7AE
  8
図枠
 10
102.119
 20
-114.095
 30
0.0
 70
    32
  0
VERTEX
  5
7AF
  8
図枠
 10
102.152
 20
-114.104
 30
0.0
 70
    32
  0
VERTEX
  5
7B0
  8
図枠
 10
102.184
 20
-114.114
 30
0.0
 70
    32
  0
VERTEX
  5
7B1
  8
図枠
 10
102.217
 20
-114.123
 30
0.0
 70
    32
  0
VERTEX
  5
7B2
  8
図枠
 10
102.25
 20
-114.133
 30
0.0
 70
    32
  0
VERTEX
  5
7B3
  8
図枠
 10
102.283
 20
-114.142
 30
0.0
 70
    32
  0
VERTEX
  5
7B4
  8
図枠
 10
102.316
 20
-114.151
 30
0.0
 70
    32
  0
VERTEX
  5
7B5
  8
図枠
 10
102.349
 20
-114.16
 30
0.0
 70
    32
  0
VERTEX
  5
7B6
  8
図枠
 10
102.38200000000001
 20
-114.169
 30
0.0
 70
    32
  0
VERTEX
  5
7B7
  8
図枠
 10
102.41500000000001
 20
-114.179
 30
0.0
 70
    32
  0
VERTEX
  5
7B8
  8
図枠
 10
102.44799999999999
 20
-114.188
 30
0.0
 70
    32
  0
VERTEX
  5
7B9
  8
図枠
 10
102.48099999999999
 20
-114.197
 30
0.0
 70
    32
  0
VERTEX
  5
7BA
  8
図枠
 10
102.514
 20
-114.206
 30
0.0
 70
    32
  0
VERTEX
  5
7BB
  8
図枠
 10
102.547
 20
-114.215
 30
0.0
 70
    32
  0
VERTEX
  5
7BC
  8
図枠
 10
102.58
 20
-114.223
 30
0.0
 70
    32
  0
VERTEX
  5
7BD
  8
図枠
 10
102.613
 20
-114.232
 30
0.0
 70
    32
  0
VERTEX
  5
7BE
  8
図枠
 10
102.646
 20
-114.241
 30
0.0
 70
    32
  0
VERTEX
  5
7BF
  8
図枠
 10
102.679
 20
-114.25
 30
0.0
 70
    32
  0
VERTEX
  5
7C0
  8
図枠
 10
102.712
 20
-114.259
 30
0.0
 70
    32
  0
VERTEX
  5
7C1
  8
図枠
 10
102.745
 20
-114.267
 30
0.0
 70
    32
  0
VERTEX
  5
7C2
  8
図枠
 10
102.77800000000001
 20
-114.276
 30
0.0
 70
    32
  0
VERTEX
  5
7C3
  8
図枠
 10
102.812
 20
-114.285
 30
0.0
 70
    32
  0
VERTEX
  5
7C4
  8
図枠
 10
102.845
 20
-114.29300000000001
 30
0.0
 70
    32
  0
VERTEX
  5
7C5
  8
図枠
 10
102.878
 20
-114.30200000000001
 30
0.0
 70
    32
  0
VERTEX
  5
7C6
  8
図枠
 10
102.911
 20
-114.31100000000001
 30
0.0
 70
    32
  0
VERTEX
  5
7C7
  8
図枠
 10
102.94499999999999
 20
-114.319
 30
0.0
 70
    32
  0
VERTEX
  5
7C8
  8
図枠
 10
102.97799999999999
 20
-114.328
 30
0.0
 70
    32
  0
VERTEX
  5
7C9
  8
図枠
 10
103.011
 20
-114.336
 30
0.0
 70
    32
  0
VERTEX
  5
7CA
  8
図枠
 10
103.044
 20
-114.34399999999999
 30
0.0
 70
    32
  0
VERTEX
  5
7CB
  8
図枠
 10
103.078
 20
-114.35299999999999
 30
0.0
 70
    32
  0
VERTEX
  5
7CC
  8
図枠
 10
103.111
 20
-114.361
 30
0.0
 70
    32
  0
VERTEX
  5
7CD
  8
図枠
 10
103.145
 20
-114.37
 30
0.0
 70
    32
  0
VERTEX
  5
7CE
  8
図枠
 10
103.178
 20
-114.378
 30
0.0
 70
    32
  0
VERTEX
  5
7CF
  8
図枠
 10
103.211
 20
-114.386
 30
0.0
 70
    32
  0
VERTEX
  5
7D0
  8
図枠
 10
103.245
 20
-114.39400000000001
 30
0.0
 70
    32
  0
VERTEX
  5
7D1
  8
図枠
 10
103.27800000000001
 20
-114.402
 30
0.0
 70
    32
  0
VERTEX
  5
7D2
  8
図枠
 10
103.312
 20
-114.411
 30
0.0
 70
    32
  0
VERTEX
  5
7D3
  8
図枠
 10
103.345
 20
-114.419
 30
0.0
 70
    32
  0
VERTEX
  5
7D4
  8
図枠
 10
103.379
 20
-114.42700000000001
 30
0.0
 70
    32
  0
VERTEX
  5
7D5
  8
図枠
 10
103.41200000000001
 20
-114.435
 30
0.0
 70
    32
  0
VERTEX
  5
7D6
  8
図枠
 10
103.446
 20
-114.443
 30
0.0
 70
    32
  0
VERTEX
  5
7D7
  8
図枠
 10
103.479
 20
-114.45099999999999
 30
0.0
 70
    32
  0
VERTEX
  5
7D8
  8
図枠
 10
103.51300000000001
 20
-114.459
 30
0.0
 70
    32
  0
VERTEX
  5
7D9
  8
図枠
 10
103.54600000000001
 20
-114.467
 30
0.0
 70
    32
  0
VERTEX
  5
7DA
  8
図枠
 10
103.58
 20
-114.47499999999999
 30
0.0
 70
    32
  0
VERTEX
  5
7DB
  8
図枠
 10
103.613
 20
-114.483
 30
0.0
 70
    32
  0
VERTEX
  5
7DC
  8
図枠
 10
103.64700000000001
 20
-114.491
 30
0.0
 70
    32
  0
VERTEX
  5
7DD
  8
図枠
 10
103.681
 20
-114.499
 30
0.0
 70
    32
  0
VERTEX
  5
7DE
  8
図枠
 10
103.714
 20
-114.506
 30
0.0
 70
    32
  0
VERTEX
  5
7DF
  8
図枠
 10
103.748
 20
-114.514
 30
0.0
 70
    32
  0
VERTEX
  5
7E0
  8
図枠
 10
103.782
 20
-114.52200000000001
 30
0.0
 70
    32
  0
VERTEX
  5
7E1
  8
図枠
 10
103.815
 20
-114.53
 30
0.0
 70
    32
  0
VERTEX
  5
7E2
  8
図枠
 10
103.849
 20
-114.538
 30
0.0
 70
    32
  0
VERTEX
  5
7E3
  8
図枠
 10
103.883
 20
-114.545
 30
0.0
 70
    32
  0
VERTEX
  5
7E4
  8
図枠
 10
103.916
 20
-114.553
 30
0.0
 70
    32
  0
VERTEX
  5
7E5
  8
図枠
 10
103.95
 20
-114.56100000000001
 30
0.0
 70
    32
  0
VERTEX
  5
7E6
  8
図枠
 10
103.98399999999999
 20
-114.568
 30
0.0
 70
    32
  0
VERTEX
  5
7E7
  8
図枠
 10
104.018
 20
-114.57599999999999
 30
0.0
 70
    32
  0
VERTEX
  5
7E8
  8
図枠
 10
104.051
 20
-114.584
 30
0.0
 70
    32
  0
VERTEX
  5
7E9
  8
図枠
 10
104.08499999999999
 20
-114.59099999999999
 30
0.0
 70
    32
  0
VERTEX
  5
7EA
  8
図枠
 10
104.119
 20
-114.599
 30
0.0
 70
    32
  0
VERTEX
  5
7EB
  8
図枠
 10
104.15300000000001
 20
-114.60599999999999
 30
0.0
 70
    32
  0
VERTEX
  5
7EC
  8
図枠
 10
104.18600000000001
 20
-114.614
 30
0.0
 70
    32
  0
VERTEX
  5
7ED
  8
図枠
 10
104.22
 20
-114.621
 30
0.0
 70
    32
  0
VERTEX
  5
7EE
  8
図枠
 10
104.254
 20
-114.629
 30
0.0
 70
    32
  0
VERTEX
  5
7EF
  8
図枠
 10
104.288
 20
-114.636
 30
0.0
 70
    32
  0
VERTEX
  5
7F0
  8
図枠
 10
104.322
 20
-114.64400000000001
 30
0.0
 70
    32
  0
VERTEX
  5
7F1
  8
図枠
 10
104.35599999999999
 20
-114.651
 30
0.0
 70
    32
  0
VERTEX
  5
7F2
  8
図枠
 10
104.389
 20
-114.65900000000001
 30
0.0
 70
    32
  0
VERTEX
  5
7F3
  8
図枠
 10
104.423
 20
-114.666
 30
0.0
 70
    32
  0
VERTEX
  5
7F4
  8
図枠
 10
104.45699999999999
 20
-114.673
 30
0.0
 70
    32
  0
VERTEX
  5
7F5
  8
図枠
 10
104.491
 20
-114.681
 30
0.0
 70
    32
  0
VERTEX
  5
7F6
  8
図枠
 10
104.52500000000001
 20
-114.688
 30
0.0
 70
    32
  0
VERTEX
  5
7F7
  8
図枠
 10
104.559
 20
-114.696
 30
0.0
 70
    32
  0
VERTEX
  5
7F8
  8
図枠
 10
104.593
 20
-114.703
 30
0.0
 70
    32
  0
VERTEX
  5
7F9
  8
図枠
 10
104.627
 20
-114.70999999999999
 30
0.0
 70
    32
  0
VERTEX
  5
7FA
  8
図枠
 10
104.661
 20
-114.717
 30
0.0
 70
    32
  0
VERTEX
  5
7FB
  8
図枠
 10
104.69499999999999
 20
-114.72499999999999
 30
0.0
 70
    32
  0
VERTEX
  5
7FC
  8
図枠
 10
104.729
 20
-114.732
 30
0.0
 70
    32
  0
VERTEX
  5
7FD
  8
図枠
 10
104.762
 20
-114.739
 30
0.0
 70
    32
  0
VERTEX
  5
7FE
  8
図枠
 10
104.79600000000001
 20
-114.747
 30
0.0
 70
    32
  0
VERTEX
  5
7FF
  8
図枠
 10
104.83
 20
-114.754
 30
0.0
 70
    32
  0
VERTEX
  5
800
  8
図枠
 10
104.864
 20
-114.761
 30
0.0
 70
    32
  0
VERTEX
  5
801
  8
図枠
 10
104.898
 20
-114.768
 30
0.0
 70
    32
  0
VERTEX
  5
802
  8
図枠
 10
104.932
 20
-114.77500000000001
 30
0.0
 70
    32
  0
VERTEX
  5
803
  8
図枠
 10
104.96599999999999
 20
-114.783
 30
0.0
 70
    32
  0
VERTEX
  5
804
  8
図枠
 10
105.0
 20
-114.79000000000001
 30
0.0
 70
    32
  0
VERTEX
  5
805
  8
図枠
 10
105.03400000000001
 20
-114.797
 30
0.0
 70
    32
  0
VERTEX
  5
806
  8
図枠
 10
105.068
 20
-114.804
 30
0.0
 70
    32
  0
VERTEX
  5
807
  8
図枠
 10
105.102
 20
-114.81100000000001
 30
0.0
 70
    32
  0
VERTEX
  5
808
  8
図枠
 10
105.136
 20
-114.819
 30
0.0
 70
    32
  0
VERTEX
  5
809
  8
図枠
 10
105.17
 20
-114.82599999999999
 30
0.0
 70
    32
  0
VERTEX
  5
80A
  8
図枠
 10
105.20399999999999
 20
-114.833
 30
0.0
 70
    32
  0
VERTEX
  5
80B
  8
図枠
 10
105.238
 20
-114.84
 30
0.0
 70
    32
  0
VERTEX
  5
80C
  8
図枠
 10
105.27200000000001
 20
-114.84699999999999
 30
0.0
 70
    32
  0
VERTEX
  5
80D
  8
図枠
 10
105.306
 20
-114.854
 30
0.0
 70
    32
  0
VERTEX
  5
80E
  8
図枠
 10
105.34
 20
-114.861
 30
0.0
 70
    32
  0
VERTEX
  5
80F
  8
図枠
 10
105.374
 20
-114.86799999999999
 30
0.0
 70
    32
  0
VERTEX
  5
810
  8
図枠
 10
105.408
 20
-114.875
 30
0.0
 70
    32
  0
VERTEX
  5
811
  8
図枠
 10
105.44199999999999
 20
-114.883
 30
0.0
 70
    32
  0
VERTEX
  5
812
  8
図枠
 10
105.476
 20
-114.89
 30
0.0
 70
    32
  0
VERTEX
  5
813
  8
図枠
 10
105.511
 20
-114.89700000000001
 30
0.0
 70
    32
  0
VERTEX
  5
814
  8
図枠
 10
105.545
 20
-114.904
 30
0.0
 70
    32
  0
VERTEX
  5
815
  8
図枠
 10
105.57899999999999
 20
-114.911
 30
0.0
 70
    32
  0
VERTEX
  5
816
  8
図枠
 10
105.613
 20
-114.91800000000001
 30
0.0
 70
    32
  0
VERTEX
  5
817
  8
図枠
 10
105.64700000000001
 20
-114.925
 30
0.0
 70
    32
  0
VERTEX
  5
818
  8
図枠
 10
105.681
 20
-114.932
 30
0.0
 70
    32
  0
VERTEX
  5
819
  8
図枠
 10
105.715
 20
-114.93899999999999
 30
0.0
 70
    32
  0
VERTEX
  5
81A
  8
図枠
 10
105.749
 20
-114.946
 30
0.0
 70
    32
  0
VERTEX
  5
81B
  8
図枠
 10
105.783
 20
-114.953
 30
0.0
 70
    32
  0
SEQEND
  5
81C
  8
図枠
  0
LINE
  5
197
  8
図枠
 10
104.5828786455
 20
-108.35344280699999
 30
0.0
 11
105.78287864550001
 21
-106.553442807
 31
0.0
  0
CIRCLE
  5
198
  8
図枠
 10
103.8903493238
 20
-85.370650367199985
 30
0.0
 40
3.456
  0
LINE
  5
199
  8
図枠
  6
BORDER
 10
103.8903493238
 20
-80.186650367199988
 30
0.0
 11
103.8903493238
 21
-90.554650367199983
 31
0.0
  0
LINE
  5
19A
  8
図枠
 10
105.78287864550001
 20
-106.553442807
 30
0.0
 11
94.982878645499994
 21
-106.553442807
 31
0.0
  0
LINE
  5
19B
  8
図枠
 10
105.78287864550001
 20
-113.153442807
 30
0.0
 11
105.78287864550001
 21
-114.953442807
 31
0.0
  0
LINE
  5
19C
  8
図枠
 10
34.794349323799999
 20
-70.7456503672
 30
0.0
 11
208.79434932379999
 21
-70.7456503672
 31
0.0
  0
LINE
  5
19D
  8
図枠
 10
103.21814186810001
 20
-112.37240025769999
 30
0.0
 11
103.00441939629999
 21
-112.5816540308
 31
0.0
  0
LINE
  5
19E
  8
図枠
  6
BORDER
 10
98.706349323799984
 20
-85.370650367199985
 30
0.0
 11
120.8823493238
 21
-85.370650367199985
 31
0.0
  0
CIRCLE
  5
19F
  8
図枠
 10
103.8903493238
 20
-85.370650367199985
 30
0.0
 40
3.456
  0
LINE
  5
1A0
  8
図枠
 10
34.794349323799999
 20
-104.4956503672
 30
0.0
 11
208.79434932379999
 21
-104.4956503672
 31
0.0
  0
LINE
  5
1A1
  8
図枠
 10
104.5828786455
 20
-108.35344280699999
 30
0.0
 11
105.78287864550001
 21
-106.553442807
 31
0.0
  0
LINE
  5
1A2
  8
図枠
 10
34.794349323799999
 20
-62.495650367199993
 30
0.0
 11
208.79434932379999
 21
-62.495650367199993
 31
0.0
  0
LINE
  5
1A3
  8
図枠
  6
BORDER
 10
103.8903493238
 20
-80.186650367199988
 30
0.0
 11
103.8903493238
 21
-90.554650367199983
 31
0.0
  0
LINE
  5
1A4
  8
図枠
 10
94.982878645499994
 20
-109.72650744889999
 30
0.0
 11
94.982878645499994
 21
-109.3399751279
 31
0.0
  0
ARC
  5
1A5
  8
ﾚｲﾔ_1
 62
     5
 10
-65.205721064800002
 20
98.066861979200013
 30
0.0
 40
2.25
 50
270.0
 51
90.0
  0
ARC
  5
1A6
  8
ﾚｲﾔ_1
 62
     5
 10
-93.705721064800002
 20
98.066861979200013
 30
0.0
 40
2.25
 50
90.0
 51
270.0
  0
LINE
  5
1A7
  8
ﾚｲﾔ_1
 62
     5
 10
-49.955721064800002
 20
83.066861979199984
 30
0.0
 11
-49.955721064800002
 21
113.0668619792
 31
0.0
  0
LINE
  5
1A8
  8
ﾚｲﾔ_1
 62
     5
 10
-49.955721064800002
 20
113.0668619792
 30
0.0
 11
-113.15572106480001
 21
113.0668619792
 31
0.0
  0
LINE
  5
1A9
  8
ﾚｲﾔ_1
 62
     5
 10
-113.15572106480001
 20
83.066861979199984
 30
0.0
 11
-49.955721064800002
 21
83.066861979199984
 31
0.0
  0
LINE
  5
1AA
  8
ﾚｲﾔ_1
 62
     5
 10
-113.15572106480001
 20
83.066861979199984
 30
0.0
 11
-113.15572106480001
 21
113.0668619792
 31
0.0
  0
LINE
  5
1AB
  8
ﾚｲﾔ_1
  6
STITCH
 10
-111.5557210648
 20
100.4668619792
 30
0.0
 11
-111.5557210648
 21
95.666861979200007
 31
0.0
  0
LINE
  5
1AC
  8
ﾚｲﾔ_1
  6
BORDER
 62
     3
 10
-85.955721064800002
 20
107.0668619792
 30
0.0
 11
-73.955721064800002
 21
107.0668619792
 31
0.0
  0
LINE
  5
1AD
  8
ﾚｲﾔ_1
  6
BORDER
 62
     3
 10
-79.955721064800002
 20
113.0668619792
 30
0.0
 11
-79.955721064800002
 21
101.0668619792
 31
0.0
  0
CIRCLE
  5
1AE
  8
ﾚｲﾔ_1
 62
     5
 10
-79.955721064800002
 20
107.0668619792
 30
0.0
 40
4.0
  0
CIRCLE
  5
1AF
  8
ﾚｲﾔ_1
 62
     5
 10
-79.955721064800002
 20
107.0668619792
 30
0.0
 40
2.399999999999999
  0
CIRCLE
  5
1B0
  8
ﾚｲﾔ_1
 62
     5
 10
-66.955721064800002
 20
89.066861979199999
 30
0.0
 40
2.399999999999999
  0
LINE
  5
1B1
  8
ﾚｲﾔ_1
 62
     5
 10
-109.9557210648
 20
52.270768229200002
 30
0.0
 11
-113.15572106480001
 21
52.270768229200002
 31
0.0
  0
LINE
  5
1B2
  8
ﾚｲﾔ_1
  6
STITCH
 10
-111.5557210648
 20
95.666861979200007
 30
0.0
 11
-113.15572106480001
 21
94.066861979199999
 31
0.0
  0
LINE
  5
1B3
  8
ﾚｲﾔ_1
  6
STITCH
 10
-111.5557210648
 20
100.4668619792
 30
0.0
 11
-109.9557210648
 21
100.4668619792
 31
0.0
  0
LINE
  5
1B4
  8
ﾚｲﾔ_1
  6
STITCH
 10
-111.5557210648
 20
95.666861979200007
 30
0.0
 11
-109.9557210648
 21
95.666861979200007
 31
0.0
  0
DIMENSION
  5
1C3
  8
寸法線
  2
*D14
 10
-32.095021976399998
 20
83.066861979199984
 30
0.0
 11
-32.095021976399998
 21
74.836487926099991
 31
0.0
 70
   128
  1
<>
 13
-49.955721064800002
 23
83.066861979199984
 33
0.0
 14
-65.205721064800002
 24
95.816861979199984
 34
0.0
 50
90.0
  0
DIMENSION
  5
1D2
  8
寸法線
  2
*D15
 10
-123.15572106480001
 20
113.0668619792
 30
0.0
 11
-123.15572106480001
 21
98.066861979200013
 31
0.0
 70
   128
  1
<>
 13
-113.15572106480001
 23
113.0668619792
 33
0.0
 14
-113.15572106480001
 24
83.066861979199984
 34
0.0
 50
90.0
  0
DIMENSION
  5
1E1
  8
寸法線
  2
*D16
 10
-62.955721064799988
 20
128.06686197920001
 30
0.0
 11
-79.455721064800002
 21
128.06686197920001
 31
0.0
 70
   128
  1
<>
 13
-62.955721064799988
 23
98.066861979200013
 33
0.0
 14
-95.955721064800002
 24
98.066861979200013
 34
0.0
  0
DIMENSION
  5
1F0
  8
寸法線
  2
*D17
 10
-49.955721064800002
 20
128.06686197920001
 30
0.0
 11
-56.455721064799988
 21
128.06686197920001
 31
0.0
 70
   128
  1
<>
 13
-49.955721064800002
 23
113.0668619792
 33
0.0
 14
-62.955721064799988
 24
98.066861979200013
 34
0.0
  0
DIMENSION
  5
1FF
  8
寸法線
  2
*D18
 10
-66.955721064800002
 20
71.988677129199999
 30
0.0
 11
-58.455721064799988
 21
71.988677129199999
 31
0.0
 70
   128
  1
<>
 13
-66.955721064800002
 23
83.066861979199984
 33
0.0
 14
-49.955721064800002
 24
83.066861979199984
 34
0.0
 50
180.0
  0
DIMENSION
  5
20E
  8
寸法線
  2
*D19
 10
-32.095021976399998
 20
95.816861979199984
 30
0.0
 11
-32.095021976399998
 21
98.066861979200013
 31
0.0
 70
   128
  1
<>
 13
-65.205721064800002
 23
95.816861979199984
 33
0.0
 14
-65.205721064800002
 24
100.3168619792
 34
0.0
 50
90.0
  0
DIMENSION
  5
21D
  8
寸法線
  2
*D20
 10
-21.795690301499999
 20
83.066861979199984
 30
0.0
 11
-21.795690301499999
 21
86.066861979199999
 31
0.0
 70
   128
  1
<>
 13
-49.955721064800002
 23
83.066861979199984
 33
0.0
 14
-60.955721064799988
 24
89.066861979199999
 34
0.0
 50
90.0
  0
DIMENSION
  5
22C
  8
寸法線
  2
*D21
 10
-95.955721064800002
 20
128.06686197920001
 30
0.0
 11
-102.9557210648
 21
128.06686197920001
 31
0.0
 70
   128
  1
<>
 13
-95.955721064800002
 23
98.066861979200013
 33
0.0
 14
-109.9557210648
 24
113.0668619792
 34
0.0
  0
DIMENSION
  5
23B
  8
寸法線
  2
*D22
 10
-109.9557210648
 20
71.988677129199999
 30
0.0
 11
-94.955721064800002
 21
71.988677129199999
 31
0.0
 70
   128
  1
<>
 13
-109.9557210648
 23
83.066861979199984
 33
0.0
 14
-79.955721064800002
 24
101.0668619792
 34
0.0
 50
180.0
  0
LINE
  5
23C
  8
ﾚｲﾔ_1
  6
STITCH
 10
-64.555721064799997
 20
-29.3292317708
 30
0.0
 11
-69.355721064799994
 21
-29.3292317708
 31
0.0
  0
LINE
  5
23D
  8
ﾚｲﾔ_1
  6
STITCH
 10
-69.355721064799994
 20
-29.3292317708
 30
0.0
 11
-70.955721064800002
 21
-27.729231770799998
 31
0.0
  0
LINE
  5
23E
  8
ﾚｲﾔ_1
  6
STITCH
 10
-62.955721064799988
 20
-27.729231770799998
 30
0.0
 11
-64.555721064799997
 21
-29.3292317708
 31
0.0
  0
LINE
  5
23F
  8
ﾚｲﾔ_1
 62
     5
 10
-49.955721064800002
 20
-30.929231770800001
 30
0.0
 11
-49.955721064800002
 21
-27.729231770799998
 31
0.0
  0
LINE
  5
240
  8
ﾚｲﾔ_1
  6
BORDER
 62
     3
 10
-79.955721064800002
 20
-24.985866030100009
 30
0.0
 11
-79.955721064800002
 21
-33.7832618634
 31
0.0
  0
LINE
  5
241
  8
ﾚｲﾔ_1
  6
BORDER
 62
     3
 10
-66.955721064800002
 20
-24.985866030100009
 30
0.0
 11
-66.955721064800002
 21
-33.7832618634
 31
0.0
  0
LINE
  5
242
  8
ﾚｲﾔ_1
  6
STITCH
 10
-62.955721064799988
 20
-27.729231770799998
 30
0.0
 11
-62.955721064799988
 21
-30.929231770800001
 31
0.0
  0
LINE
  5
243
  8
ﾚｲﾔ_1
  6
STITCH
 10
-95.955721064800002
 20
-27.729231770799998
 30
0.0
 11
-95.955721064800002
 21
-30.929231770800001
 31
0.0
  0
LINE
  5
244
  8
ﾚｲﾔ_1
  6
STITCH
 10
-111.5557210648
 20
-10.129231770800001
 30
0.0
 11
-109.9557210648
 21
-10.129231770800001
 31
0.0
  0
LINE
  5
245
  8
ﾚｲﾔ_1
  6
BORDER
 62
     3
 10
-115.89908680560001
 20
-7.7292317708000002
 30
0.0
 11
-107.1016909722
 21
-7.7292317708000002
 31
0.0
  0
LINE
  5
246
  8
ﾚｲﾔ_1
  6
STITCH
 10
-111.5557210648
 20
-10.129231770800001
 30
0.0
 11
-113.15572106480001
 21
-11.7292317708
 31
0.0
  0
LINE
  5
247
  8
ﾚｲﾔ_1
 62
     5
 10
-108.15572106480001
 20
-27.729231770799998
 30
0.0
 11
-49.955721064800002
 21
-27.729231770799998
 31
0.0
  0
DIMENSION
  5
283
  8
寸法線
  2
*D26
 10
-109.9557210648
 20
-45.929231770800001
 30
0.0
 11
-79.955721064800002
 21
-45.929231770800001
 31
0.0
 70
   128
  1
<>
 13
-109.9557210648
 23
-26.429231770800001
 33
0.0
 14
-49.955721064800002
 24
-30.929231770800001
 34
0.0
 50
180.0
  0
DIMENSION
  5
292
  8
寸法線
  2
*D27
 10
-36.806778356499997
 20
-30.929231770800001
 30
0.0
 11
-36.806778356499997
 21
-19.0638697485
 31
0.0
 70
   128
  1
<>t
 13
-49.955721064800002
 23
-30.929231770800001
 33
0.0
 14
-49.955721064800002
 24
-27.729231770799998
 34
0.0
 50
90.0
  0
LINE
  5
293
  8
ﾚｲﾔ_1
 62
     5
 10
-109.9557210648
 20
113.0668619792
 30
0.0
 11
-109.9557210648
 21
83.066861979199984
 31
0.0
  0
LINE
  5
294
  8
ﾚｲﾔ_1
  6
BORDER
 62
     3
 10
-115.89908680560001
 20
98.066861979200013
 30
0.0
 11
-107.1016909722
 21
98.066861979200013
 31
0.0
  0
LINE
  5
295
  8
ﾚｲﾔ_1
  6
STITCH
 10
-113.15572106480001
 20
102.0668619792
 30
0.0
 11
-111.5557210648
 21
100.4668619792
 31
0.0
  0
CIRCLE
  5
296
  8
ﾚｲﾔ_1
 62
     5
 10
-66.955721064800002
 20
89.066861979199999
 30
0.0
 40
4.0
  0
LINE
  5
297
  8
ﾚｲﾔ_1
  6
BORDER
 62
     3
 10
-66.955721064800002
 20
95.066861979200013
 30
0.0
 11
-66.955721064800002
 21
83.066861979199984
 31
0.0
  0
LINE
  5
298
  8
ﾚｲﾔ_1
  6
BORDER
 62
     3
 10
-72.955721064800002
 20
89.066861979199999
 30
0.0
 11
-60.955721064799988
 21
89.066861979199999
 31
0.0
  0
LINE
  5
299
  8
ﾚｲﾔ_1
 62
     5
 10
-93.705721064800002
 20
95.816861979199984
 30
0.0
 11
-65.205721064800002
 21
95.816861979199984
 31
0.0
  0
LINE
  5
29A
  8
ﾚｲﾔ_1
 62
     5
 10
-65.205721064800002
 20
100.3168619792
 30
0.0
 11
-93.705721064800002
 21
100.3168619792
 31
0.0
  0
LINE
  5
29B
  8
図枠
 62
     5
 10
-203.70565067620001
 20
-117.2456503672
 30
0.0
 11
208.79434932379999
 21
-117.2456503672
 31
0.0
  0
LINE
  5
29C
  8
図枠
  6
DOT
 10
-212.70565067620001
 20
-125.8706503672
 30
0.0
 11
217.79434932379999
 21
-125.8706503672
 31
0.0
  0
LINE
  5
29D
  8
図枠
 62
     5
 10
-203.70565067620001
 20
167.7543496328
 30
0.0
 11
208.79434932379999
 21
167.7543496328
 31
0.0
  0
LINE
  5
29F
  8
ﾚｲﾔ_1
 62
     5
 10
-109.9557210648
 20
52.270768229200002
 30
0.0
 11
-109.9557210648
 21
-25.929231770800001
 31
0.0
  0
LINE
  5
2A0
  8
ﾚｲﾔ_1
 62
     5
 10
-113.15572106480001
 20
52.270768229200002
 30
0.0
 11
-113.15572106480001
 21
-25.929231770800001
 31
0.0
  0
DIMENSION
  5
2BD
  8
寸法線
  2
*D29
 10
-123.15572106480001
 20
52.270768229200002
 30
0.0
 11
-123.15572106480001
 21
12.2707682292
 31
0.0
 70
   128
  1
<>
 13
-113.15572106480001
 23
52.270768229200002
 33
0.0
 14
-108.65572106480001
 24
-27.729231770799998
 34
0.0
 50
90.0
  0
LINE
  5
2BE
  8
図枠
  6
DOT
 10
-212.7011506762
 20
-125.8706503672
 30
0.0
 11
-212.7011506762
 21
176.3793496328
 31
0.0
  0
LINE
  5
2BF
  8
図枠
 62
     5
 10
-203.70565067620001
 20
-117.2456503672
 30
0.0
 11
-203.70565067620001
 21
167.7543496328
 31
0.0
  0
LINE
  5
2C0
  8
図枠
  6
DOT
 10
217.79434932379999
 20
-125.8706503672
 30
0.0
 11
217.79434932379999
 21
176.3793496328
 31
0.0
  0
LINE
  5
2C1
  8
図枠
 62
     5
 10
208.79434932379999
 20
-117.2456503672
 30
0.0
 11
208.79434932379999
 21
167.7543496328
 31
0.0
  0
LINE
  5
2C2
  8
ﾚｲﾔ_1
  6
STITCH
 10
-111.5557210648
 20
-5.3292317707999981
 30
0.0
 11
-109.9557210648
 21
-5.3292317707999981
 31
0.0
  0
LINE
  5
2C3
  8
ﾚｲﾔ_1
  6
STITCH
 10
-113.15572106480001
 20
-3.7292317707999989
 30
0.0
 11
-111.5557210648
 21
-5.3292317707999981
 31
0.0
  0
LINE
  5
2C4
  8
ﾚｲﾔ_1
  6
STITCH
 10
-111.5557210648
 20
-5.3292317707999981
 30
0.0
 11
-111.5557210648
 21
-10.129231770800001
 31
0.0
  0
ARC
  5
2C5
  8
ﾚｲﾔ_1
 62
     5
 10
-108.15572106480001
 20
-25.929231770800001
 30
0.0
 40
1.8
 50
180.0
 51
270.0
  0
LINE
  5
2C6
  8
ﾚｲﾔ_1
 62
     5
 10
-108.15572106480001
 20
-30.929231770800001
 30
0.0
 11
-49.955721064800002
 21
-30.929231770800001
 31
0.0
  0
ARC
  5
2C7
  8
ﾚｲﾔ_1
 62
     5
 10
-108.15572106480001
 20
-25.929231770800001
 30
0.0
 40
5.0
 50
180.0
 51
270.0
  0
LINE
  5
2C8
  8
ﾚｲﾔ_1
  6
STITCH
 10
-75.955721064800002
 20
-27.729231770799998
 30
0.0
 11
-77.555721064799982
 21
-29.3292317708
 31
0.0
  0
LINE
  5
2C9
  8
ﾚｲﾔ_1
  6
STITCH
 10
-82.355721064799965
 20
-29.3292317708
 30
0.0
 11
-83.955721064800017
 21
-27.729231770799998
 31
0.0
  0
LINE
  5
2CA
  8
ﾚｲﾔ_1
  6
STITCH
 10
-77.555721064799982
 20
-29.3292317708
 30
0.0
 11
-82.355721064799965
 21
-29.3292317708
 31
0.0
  0
LINE
  5
2CB
  8
ﾚｲﾔ_1
  6
STITCH
 10
-77.555721064799982
 20
-29.3292317708
 30
0.0
 11
-77.555721064799982
 21
-30.929231770800001
 31
0.0
  0
LINE
  5
2CC
  8
ﾚｲﾔ_1
  6
STITCH
 10
-82.355721064799965
 20
-29.3292317708
 30
0.0
 11
-82.355721064799965
 21
-30.929231770800001
 31
0.0
  0
LINE
  5
2CD
  8
ﾚｲﾔ_1
  6
STITCH
 10
-69.355721064799994
 20
-29.3292317708
 30
0.0
 11
-69.355721064799994
 21
-30.929231770800001
 31
0.0
  0
LINE
  5
2CE
  8
ﾚｲﾔ_1
  6
STITCH
 10
-64.555721064799997
 20
-29.3292317708
 30
0.0
 11
-64.555721064799997
 21
-30.929231770800001
 31
0.0
  0
LINE
  5
397
  8
ﾚｲﾔ_1
  6
STITCH
 10
76.145911248542546
 20
-17.766090472131449
 30
0.0
 11
72.945911248542572
 21
-14.566090472131441
 31
0.0
  0
LINE
  5
398
  8
ﾚｲﾔ_1
  6
STITCH
 10
85.745911248542484
 20
-17.766090472131449
 30
0.0
 11
76.145911248542546
 21
-17.766090472131449
 31
0.0
  0
LINE
  5
399
  8
ﾚｲﾔ_1
  6
STITCH
 10
85.745911248542484
 20
-17.766090472131449
 30
0.0
 11
85.745911248542484
 21
-20.966090472131452
 31
0.0
  0
LINE
  5
39A
  8
ﾚｲﾔ_1
  6
STITCH
 10
76.145911248542546
 20
-17.766090472131449
 30
0.0
 11
76.145911248542546
 21
-20.966090472131452
 31
0.0
  0
DIMENSION
  5
39B
  8
寸法線
  2
*D48
 10
85.745911248542484
 20
-30.815170566196631
 30
0.0
 11
97.082786045942484
 21
-30.815170566196631
 31
0.0
 70
   128
  1
%%c4.5
 13
76.145911248542546
 23
-20.966090472131452
 33
0.0
 14
85.745911248542484
 24
-20.966090472131452
 34
0.0
 50
180.0
  0
DIMENSION
  5
39C
  8
寸法線
  2
*D99
 10
90.168515191470902
 20
11.853136020455681
 30
0.0
 11
80.379879063334116
 21
13.06281890496621
 31
0.0
 70
   133
 13
71.885251076942581
 23
-13.505430300331451
 33
0.0
 14
90.006571420342539
 24
-13.505430300331451
 34
0.0
 15
80.945911248542572
 25
-22.566090472131449
 35
0.0
1001
ACAD
1000
DSTYLE
1002
{
1070
   271
1070
     0
1070
   271
1070
     0
1002
}
  0
DIMENSION
  5
39D
  8
寸法線
  2
*D51
 10
72.945911248542572
 20
0.8809947427057521
 30
0.0
 11
80.684553534625579
 21
0.8809947427057521
 31
0.0
 70
   128
  1
φ8
 13
88.945911248542544
 23
-14.566090472131441
 33
0.0
 14
72.945911248542572
 24
-14.566090472131441
 34
0.0
  0
LINE
  5
39E
  8
ﾚｲﾔ_1
  6
BORDER
 62
     3
 10
80.945911248542572
 20
-9.0793589907314534
 30
0.0
 11
80.945911248542572
 21
-26.67415065733147
 31
0.0
  0
LINE
  5
39F
  8
ﾚｲﾔ_1
 62
     5
 10
54.177872515386753
 20
-20.966090472131452
 30
0.0
 11
106.4753043889379
 21
-20.966090472131441
 31
0.0
  0
LINE
  5
3A0
  8
ﾚｲﾔ_1
 62
     5
 10
54.177872515386753
 20
-14.566090472131441
 30
0.0
 11
106.4753043889379
 21
-14.566090472131441
 31
0.0
  0
LINE
  5
3A1
  8
ﾚｲﾔ_1
  6
STITCH
 10
88.945911248542544
 20
-14.566090472131441
 30
0.0
 11
85.745911248542484
 21
-17.766090472131449
 31
0.0
  0
DIMENSION
  5
9D8
  8
0
  6
CONTINUOUS
  2
*D98
 10
-109.9289589440134
 20
-20.94100667140907
 30
0.0
 11
-74.686904609220989
 21
7.5128225639919322
 31
0.0
 70
     2
 13
-103.1407338446226
 23
-27.729231770799871
 33
0.0
 14
-98.615250445028636
 24
-27.729231770799959
 34
0.0
 15
-109.9289589440134
 25
-16.41552327181514
 35
0.0
 16
-69.797522553418332
 26
-4.5593361677240969
 36
0.0
1001
ACAD
1000
DSTYLE
1002
{
1070
   271
1070
     0
1070
    40
1040
1.0
1002
}
  0
ENDSEC
  0
EOF
