  0
SECTION
  2
HEADER
  9
$ACADVER
  1
AC1009
  9
$INSBASE
 10
0.0
 20
0.0
 30
0.0
  9
$EXTMIN
 10
-284.44191796579997
 20
-176.2528992746
 30
0.0
  9
$EXTMAX
 10
289.55808203420003
 20
226.7471007254
 30
0.0
  9
$LIMMIN
 10
0.0
 20
0.0
  9
$LIMMAX
 10
0.0
 20
0.0
  9
$ORTHOMODE
 70
     0
  9
$REGENMODE
 70
     1
  9
$FILLMODE
 70
     1
  9
$QTEXTMODE
 70
     0
  9
$MIRRTEXT
 70
     1
  9
$DRAGMODE
 70
     2
  9
$LTSCALE
 40
1.0
  9
$OSMODE
 70
    31
  9
$ATTMODE
 70
     1
  9
$TEXTSIZE
 40
0.0
  9
$TRACEWID
 40
0.05
  9
$TEXTSTYLE
  7
STANDARD
  9
$CLAYER
  8
0
  9
$CELTYPE
  6
CONTINUOUS
  9
$CECOLOR
 62
   256
  9
$DIMSCALE
 40
1.0
  9
$DIMASZ
 40
0.18
  9
$DIMEXO
 40
0.0625
  9
$DIMDLI
 40
0.38
  9
$DIMRND
 40
0.0
  9
$DIMDLE
 40
0.0
  9
$DIMEXE
 40
0.18
  9
$DIMTP
 40
0.0
  9
$DIMTM
 40
0.0
  9
$DIMTXT
 40
0.18
  9
$DIMCEN
 40
0.09
  9
$DIMTSZ
 40
0.0
  9
$DIMTOL
 70
     0
  9
$DIMLIM
 70
     0
  9
$DIMTIH
 70
     1
  9
$DIMTOH
 70
     1
  9
$DIMSE1
 70
     0
  9
$DIMSE2
 70
     0
  9
$DIMTAD
 70
     0
  9
$DIMZIN
 70
     0
  9
$DIMBLK
  1

  9
$DIMASO
 70
     1
  9
$DIMSHO
 70
     1
  9
$DIMPOST
  1

  9
$DIMAPOST
  1

  9
$DIMALT
 70
     0
  9
$DIMALTD
 70
     2
  9
$DIMALTF
 40
25.399999999999999
  9
$DIMLFAC
 40
1.0
  9
$DIMTOFL
 70
     0
  9
$DIMTVP
 40
0.0
  9
$DIMTIX
 70
     0
  9
$DIMSOXD
 70
     0
  9
$DIMSAH
 70
     0
  9
$DIMBLK1
  1

  9
$DIMBLK2
  1

  9
$DIMSTYLE
  2
STANDARD
  9
$DIMCLRD
 70
     0
  9
$DIMCLRE
 70
     0
  9
$DIMCLRT
 70
     0
  9
$DIMTFAC
 40
1.0
  9
$DIMGAP
 40
0.09
  9
$LUNITS
 70
     2
  9
$LUPREC
 70
     4
  9
$SKETCHINC
 40
0.1
  9
$FILLETRAD
 40
0.0
  9
$AUNITS
 70
     0
  9
$AUPREC
 70
     0
  9
$MENU
  1
acad
  9
$ELEVATION
 40
0.0
  9
$PELEVATION
 40
0.0
  9
$THICKNESS
 40
0.0
  9
$LIMCHECK
 70
     0
  9
$BLIPMODE
 70
     0
  9
$CHAMFERA
 40
0.0
  9
$CHAMFERB
 40
0.0
  9
$SKPOLY
 70
     0
  9
$TDCREATE
 40
2454863.487619896
  9
$TDUPDATE
 40
2454863.4878302198
  9
$TDINDWG
 40
0.0002226273
  9
$TDUSRTIMER
 40
0.0002222569
  9
$USRTIMER
 70
     1
  9
$ANGBASE
 50
0.0
  9
$ANGDIR
 70
     0
  9
$PDMODE
 70
     3
  9
$PDSIZE
 40
-1.0
  9
$PLINEWID
 40
0.0
  9
$COORDS
 70
     2
  9
$SPLFRAME
 70
     0
  9
$SPLINETYPE
 70
     6
  9
$SPLINESEGS
 70
     8
  9
$ATTDIA
 70
     0
  9
$ATTREQ
 70
     1
  9
$HANDLING
 70
     1
  9
$HANDSEED
  5
61D
  9
$SURFTAB1
 70
     6
  9
$SURFTAB2
 70
     6
  9
$SURFTYPE
 70
     6
  9
$SURFU
 70
     6
  9
$SURFV
 70
     6
  9
$UCSNAME
  2

  9
$UCSORG
 10
0.0
 20
0.0
 30
0.0
  9
$UCSXDIR
 10
1.0
 20
0.0
 30
0.0
  9
$UCSYDIR
 10
0.0
 20
1.0
 30
0.0
  9
$PUCSNAME
  2

  9
$PUCSORG
 10
0.0
 20
0.0
 30
0.0
  9
$PUCSXDIR
 10
1.0
 20
0.0
 30
0.0
  9
$PUCSYDIR
 10
0.0
 20
1.0
 30
0.0
  9
$USERI1
 70
     0
  9
$USERI2
 70
     0
  9
$USERI3
 70
     0
  9
$USERI4
 70
     0
  9
$USERI5
 70
     0
  9
$USERR1
 40
0.0
  9
$USERR2
 40
0.0
  9
$USERR3
 40
0.0
  9
$USERR4
 40
0.0
  9
$USERR5
 40
0.0
  9
$WORLDVIEW
 70
     1
  9
$SHADEDGE
 70
     3
  9
$SHADEDIF
 70
    70
  9
$TILEMODE
 70
     1
  9
$MAXACTVP
 70
    16
  9
$PLIMCHECK
 70
     0
  9
$PEXTMIN
 10
1.0000000000000000E+020
 20
1.0000000000000000E+020
 30
1.0000000000000000E+020
  9
$PEXTMAX
 10
-1.0000000000000000E+020
 20
-1.0000000000000000E+020
 30
-1.0000000000000000E+020
  9
$PLIMMIN
 10
0.0
 20
0.0
  9
$PLIMMAX
 10
12.0
 20
9.0
  9
$UNITMODE
 70
     0
  9
$VISRETAIN
 70
     0
  9
$PLINEGEN
 70
     1
  9
$PSLTSCALE
 70
     0
  0
ENDSEC
  0
SECTION
  2
TABLES
  0
TABLE
  2
VPORT
 70
     2
  0
VPORT
  2
*ACTIVE
 70
     0
 10
0.0
 20
0.0
 11
1.0
 21
1.0
 12
2.5580820341999688
 22
25.247100725399999
 13
0.0
 23
0.0
 14
1.0
 24
1.0
 15
0.0
 25
0.0
 16
0.0
 26
0.0
 36
1.0
 17
0.0
 27
0.0
 37
0.0
 40
407.71512969245811
 41
1.4164265129682989
 42
50.0
 43
0.0
 44
0.0
 50
0.0
 51
0.0
 71
     0
 72
   100
 73
     1
 74
     1
 75
     0
 76
     0
 77
     0
 78
     0
  0
ENDTAB
  0
TABLE
  2
LTYPE
 70
    11
  0
LTYPE
  2
CONTINUOUS
 70
     0
  3
Solid line
 72
    65
 73
     0
 40
0.0
  0
LTYPE
  2
DOT
 70
     0
  3
. . . . . . . . 
 72
    65
 73
     2
 40
1.0
 49
0.0
 49
-1.0
  0
LTYPE
  2
DASHED
 70
     0
  3
___  ___  ___  ___  
 72
    65
 73
     2
 40
4.0
 49
3.0
 49
-1.0
  0
LTYPE
  2
HIDDEN
 70
     0
  3
__ __ __ __ 
 72
    65
 73
     2
 40
3.0
 49
2.0
 49
-1.0
  0
LTYPE
  2
STITCH
 70
     0
  3
_ _ _ _ 
 72
    65
 73
     2
 40
2.0
 49
1.0
 49
-1.0
  0
LTYPE
  2
CENTER
 70
     0
  3
______  __  ______  __  
 72
    65
 73
     4
 40
43.0
 49
40.0
 49
-1.0
 49
1.0
 49
-1.0
  0
LTYPE
  2
DASHDOT
 70
     0
  3
____ . ____ . 
 72
    65
 73
     4
 40
32.0
 49
30.0
 49
-1.0
 49
0.0
 49
-1.0
  0
LTYPE
  2
BORDER
 70
     0
  3
__ . __ . 
 72
    65
 73
     4
 40
22.0
 49
20.0
 49
-1.0
 49
0.0
 49
-1.0
  0
LTYPE
  2
CUTTING
 70
     0
  3
________   ___   ___   
 72
    65
 73
     6
 40
45.0
 49
40.0
 49
-1.0
 49
1.0
 49
-1.0
 49
1.0
 49
-1.0
  0
LTYPE
  2
PHANTOM
 70
     0
  3
______  __  __  
 72
    65
 73
     6
 40
35.0
 49
30.0
 49
-1.0
 49
1.0
 49
-1.0
 49
1.0
 49
-1.0
  0
LTYPE
  2
DIVIDE
 70
     0
  3
____ . . ____ . . 
 72
    65
 73
     6
 40
23.0
 49
20.0
 49
-1.0
 49
0.0
 49
-1.0
 49
0.0
 49
-1.0
  0
ENDTAB
  0
TABLE
  2
LAYER
 70
     6
  0
LAYER
  2
0
 70
     0
 62
     7
  6
CONTINUOUS
  0
LAYER
  2
ﾚｲﾔ_10
 70
     0
 62
     7
  6
CONTINUOUS
  0
LAYER
  2
図枠
 70
     0
 62
     7
  6
CONTINUOUS
  0
LAYER
  2
寸法線
 70
     0
 62
     7
  6
CONTINUOUS
  0
LAYER
  2
ﾚｲﾔ_1
 70
     0
 62
     7
  6
CONTINUOUS
  0
LAYER
  2
DEFPOINTS
 70
     0
 62
     7
  6
CONTINUOUS
  0
ENDTAB
  0
TABLE
  2
STYLE
 70
     2
  0
STYLE
  2
STANDARD
 70
     0
 40
0.0
 41
1.0
 50
0.0
 71
     0
 42
0.0
  3
txt
  4
extfont
  0
STYLE
  2
ゴシック
 70
     0
 40
0.0
 41
1.0
 50
0.0
 71
     0
 42
1.7676767676767671
  3
txt
  4

  0
ENDTAB
  0
TABLE
  2
VIEW
 70
     0
  0
ENDTAB
  0
TABLE
  2
UCS
 70
     0
  0
ENDTAB
  0
TABLE
  2
APPID
 70
     2
  0
APPID
  2
ACAD
 70
     0
  0
APPID
  2
DCO15
 70
     0
  0
ENDTAB
  0
TABLE
  2
DIMSTYLE
 70
     6
  0
DIMSTYLE
  2
STANDARD
 70
     0
  3

  4

  5

  6

  7

 40
1.0
 41
0.18
 42
0.0625
 43
0.38
 44
0.18
 45
0.0
 46
0.0
 47
0.0
 48
0.0
140
0.18
141
0.09
142
0.0
143
25.399999999999999
144
1.0
145
0.0
146
1.0
147
0.09
 71
     0
 72
     0
 73
     1
 74
     1
 75
     0
 76
     0
 77
     0
 78
     0
170
     0
171
     2
172
     0
173
     0
174
     0
175
     0
176
     0
177
     0
178
     0
  0
DIMSTYLE
  2
VELDIM0
 70
     0
  3

  4

  5

  6

  7

 40
1.0
 41
6.0
 42
0.0625
 43
0.38
 44
1.0
 45
0.0
 46
5.0
 47
0.0
 48
0.0
140
5.9972220420999998
141
0.09
142
0.0
143
25.399999999999999
144
1.0
145
0.0
146
1.0
147
0.09
 71
     0
 72
     0
 73
     0
 74
     0
 75
     0
 76
     0
 77
     0
 78
     8
170
     0
171
     2
172
     0
173
     0
174
     0
175
     0
176
     0
177
     0
178
     0
  0
DIMSTYLE
  2
VELDIM1
 70
     0
  3

  4

  5

  6

  7

 40
1.0
 41
6.0
 42
0.0625
 43
0.38
 44
1.25
 45
0.0
 46
5.0
 47
0.0
 48
0.0
140
5.9972220420999998
141
0.09
142
0.0
143
25.399999999999999
144
1.0
145
0.0
146
1.0
147
0.09
 71
     0
 72
     0
 73
     0
 74
     0
 75
     0
 76
     0
 77
     0
 78
     8
170
     0
171
     2
172
     0
173
     0
174
     0
175
     0
176
     0
177
     0
178
     0
  0
DIMSTYLE
  2
VELDIM2
 70
     0
  3

  4

  5

  6

  7

 40
1.0
 41
1.200000047699999
 42
0.0625
 43
0.38
 44
1.25
 45
0.0
 46
5.0
 47
0.0
 48
0.0
140
1.079499983799999
141
0.09
142
0.0
143
25.399999999999999
144
1.0
145
0.0
146
1.0
147
0.09
 71
     0
 72
     0
 73
     0
 74
     0
 75
     0
 76
     0
 77
     0
 78
     8
170
     0
171
     2
172
     0
173
     0
174
     0
175
     0
176
     0
177
     0
178
     0
  0
DIMSTYLE
  2
VELDIM3
 70
     0
  3

  4

  5

  6

  7

 40
1.0
 41
1.200000047699999
 42
0.0625
 43
0.38
 44
0.8000000119
 45
0.0
 46
2.0
 47
0.0
 48
0.0
140
1.079499983799999
141
0.09
142
0.0
143
25.399999999999999
144
1.0
145
0.0
146
1.0
147
0.09
 71
     0
 72
     0
 73
     0
 74
     0
 75
     0
 76
     0
 77
     0
 78
     8
170
     0
171
     2
172
     0
173
     0
174
     0
175
     0
176
     0
177
     0
178
     0
  0
DIMSTYLE
  2
基本_１_２_
 70
     0
  3

  4

  5

  6

  7

 40
0.0
 41
2.5
 42
2.5
 43
14.0
 44
2.0
 45
0.0
 46
0.0
 47
0.0
 48
0.0
140
5.0
141
2.0
142
0.0
143
0.0394
144
1.0
145
0.0
146
1.0
147
1.0
 71
     0
 72
     0
 73
     0
 74
     0
 75
     0
 76
     0
 77
     1
 78
     8
170
     0
171
     4
172
     1
173
     0
174
     0
175
     0
176
     4
177
     4
178
     4
  0
ENDTAB
  0
ENDSEC
  0
SECTION
  2
BLOCKS
  0
BLOCK
  8
0
  2
$MODEL_SPACE
 70
     0
 10
0.0
 20
0.0
 30
0.0
  3
$MODEL_SPACE
  1

  0
ENDBLK
  5
E
  8
0
  0
BLOCK
 67
     1
  8
0
  2
$PAPER_SPACE
 70
     0
 10
0.0
 20
0.0
 30
0.0
  3
$PAPER_SPACE
  1

  0
ENDBLK
  5
10
 67
     1
  8
0
  0
BLOCK
  8
0
  2
*D0
 70
     1
 10
0.0
 20
0.0
 30
0.0
  3
*D0
  1

  0
TEXT
  5
6C
  8
0
 62
     0
 10
79.399597934599996
 20
107.5087239265
 30
0.0
 40
5.9972220420999998
  1
24
  0
LINE
  5
6D
  8
0
 62
     0
 10
70.927375606400005
 20
118.450390625
 30
0.0
 11
70.927375606400005
 21
104.450390625
 31
0.0
  0
LINE
  5
6E
  8
0
 62
     0
 10
94.927375606400005
 20
128.45039062500001
 30
0.0
 11
94.927375606400005
 21
104.450390625
 31
0.0
  0
LINE
  5
6F
  8
0
 62
     0
 10
70.927375606400005
 20
105.450390625
 30
0.0
 11
89.982930950099998
 21
105.450390625
 31
0.0
  0
LINE
  5
70
  8
0
 62
     0
 10
70.927375606400005
 20
105.450390625
 30
0.0
 11
75.8718202628
 21
105.450390625
 31
0.0
  0
LINE
  5
71
  8
0
 62
     0
 10
94.927375606400005
 20
105.450390625
 30
0.0
 11
89.982930950099998
 21
105.450390625
 31
0.0
  0
LINE
  5
72
  8
0
 62
     0
 10
94.927375606400005
 20
105.450390625
 30
0.0
 11
75.8718202628
 21
105.450390625
 31
0.0
  0
LINE
  5
73
  8
0
 62
     0
 10
94.927375606400005
 20
105.450390625
 30
0.0
 11
99.927375606400005
 21
105.450390625
 31
0.0
  0
SOLID
  5
74
  8
0
 62
     0
 10
94.927375606400005
 20
105.450390625
 30
0.0
 11
100.92737560640001
 21
106.950390625
 31
0.0
 12
100.92737560640001
 22
103.950390625
 32
0.0
 13
99.427375606399991
 23
105.450390625
 33
0.0
  0
LINE
  5
75
  8
0
 62
     0
 10
70.927375606400005
 20
105.450390625
 30
0.0
 11
65.927375606400005
 21
105.450390625
 31
0.0
  0
SOLID
  5
76
  8
0
 62
     0
 10
70.927375606400005
 20
105.450390625
 30
0.0
 11
64.927375606400005
 21
103.950390625
 31
0.0
 12
64.927375606400005
 22
106.950390625
 32
0.0
 13
66.427375606400005
 23
105.450390625
 33
0.0
  0
ENDBLK
  5
77
  8
0
  0
BLOCK
  8
0
  2
*D1
 70
     1
 10
0.0
 20
0.0
 30
0.0
  3
*D1
  1

  0
TEXT
  5
7C
  8
0
 62
     0
 10
62.399597934600003
 20
107.5087239265
 30
0.0
 40
5.9972220420999998
  1
10
  0
LINE
  5
7D
  8
0
 62
     0
 10
60.927375606399998
 20
133.45039062500001
 30
0.0
 11
60.927375606399998
 21
104.450390625
 31
0.0
  0
LINE
  5
7E
  8
0
 62
     0
 10
70.927375606400005
 20
118.450390625
 30
0.0
 11
70.927375606400005
 21
104.450390625
 31
0.0
  0
LINE
  5
7F
  8
0
 62
     0
 10
60.927375606399998
 20
105.450390625
 30
0.0
 11
60.927375606399998
 21
105.450390625
 31
0.0
  0
LINE
  5
80
  8
0
 62
     0
 10
60.927375606399998
 20
105.450390625
 30
0.0
 11
70.927375606400005
 21
105.450390625
 31
0.0
  0
LINE
  5
81
  8
0
 62
     0
 10
70.927375606400005
 20
105.450390625
 30
0.0
 11
60.927375606399998
 21
105.450390625
 31
0.0
  0
LINE
  5
82
  8
0
 62
     0
 10
70.927375606400005
 20
105.450390625
 30
0.0
 11
70.927375606400005
 21
105.450390625
 31
0.0
  0
LINE
  5
83
  8
0
 62
     0
 10
70.927375606400005
 20
105.450390625
 30
0.0
 11
75.927375606400005
 21
105.450390625
 31
0.0
  0
SOLID
  5
84
  8
0
 62
     0
 10
70.927375606400005
 20
105.450390625
 30
0.0
 11
76.927375606400005
 21
106.950390625
 31
0.0
 12
76.927375606400005
 22
103.950390625
 32
0.0
 13
75.427375606400005
 23
105.450390625
 33
0.0
  0
LINE
  5
85
  8
0
 62
     0
 10
60.927375606399998
 20
105.450390625
 30
0.0
 11
55.927375606399998
 21
105.450390625
 31
0.0
  0
SOLID
  5
86
  8
0
 62
     0
 10
60.927375606399998
 20
105.450390625
 30
0.0
 11
54.927375606400012
 21
103.950390625
 31
0.0
 12
54.927375606400012
 22
106.950390625
 32
0.0
 13
56.427375606399998
 23
105.450390625
 33
0.0
  0
ENDBLK
  5
87
  8
0
  0
BLOCK
  8
0
  2
*D2
 70
     1
 10
0.0
 20
0.0
 30
0.0
  3
*D2
  1

  0
TEXT
  5
8C
  8
0
 62
     0
 10
33.929906354699988
 20
154.08322099430001
 30
0.0
 40
5.9972220420999998
  1
R33
 50
345.0
  0
LINE
  5
8D
  8
0
 62
     0
 10
62.0518233389
 20
143.99141911340001
 30
0.0
 11
33.290767120799998
 21
151.69792090050001
 31
0.0
  0
SOLID
  5
8E
  8
0
 62
     0
 10
62.0518233389
 20
143.99141911340001
 30
0.0
 11
55.868039813500012
 21
144.09544464459989
 31
0.0
 12
56.644496948799997
 22
146.99322212339999
 32
0.0
 13
57.705157120599999
 23
145.1561048163
 33
0.0
  0
ENDBLK
  5
8F
  8
0
  0
BLOCK
  8
0
  2
*D3
 70
     1
 10
0.0
 20
0.0
 30
0.0
  3
*D3
  1

  0
TEXT
  5
93
  8
0
 62
     0
 10
104.3995979346
 20
107.5087239265
 30
0.0
 40
5.9972220420999998
  1
26
  0
LINE
  5
94
  8
0
 62
     0
 10
94.927375606400005
 20
128.45039062500001
 30
0.0
 11
94.927375606400005
 21
104.450390625
 31
0.0
  0
LINE
  5
95
  8
0
 62
     0
 10
120.92737560640001
 20
118.450390625
 30
0.0
 11
120.92737560640001
 21
104.450390625
 31
0.0
  0
LINE
  5
96
  8
0
 62
     0
 10
94.927375606400005
 20
105.450390625
 30
0.0
 11
114.9829309501
 21
105.450390625
 31
0.0
  0
LINE
  5
97
  8
0
 62
     0
 10
94.927375606400005
 20
105.450390625
 30
0.0
 11
100.8718202628
 21
105.450390625
 31
0.0
  0
LINE
  5
98
  8
0
 62
     0
 10
120.92737560640001
 20
105.450390625
 30
0.0
 11
114.9829309501
 21
105.450390625
 31
0.0
  0
LINE
  5
99
  8
0
 62
     0
 10
120.92737560640001
 20
105.450390625
 30
0.0
 11
100.8718202628
 21
105.450390625
 31
0.0
  0
LINE
  5
9A
  8
0
 62
     0
 10
120.92737560640001
 20
105.450390625
 30
0.0
 11
125.92737560640001
 21
105.450390625
 31
0.0
  0
SOLID
  5
9B
  8
0
 62
     0
 10
120.92737560640001
 20
105.450390625
 30
0.0
 11
126.92737560640001
 21
106.950390625
 31
0.0
 12
126.92737560640001
 22
103.950390625
 32
0.0
 13
125.42737560640001
 23
105.450390625
 33
0.0
  0
LINE
  5
9C
  8
0
 62
     0
 10
94.927375606400005
 20
105.450390625
 30
0.0
 11
89.927375606400005
 21
105.450390625
 31
0.0
  0
SOLID
  5
9D
  8
0
 62
     0
 10
94.927375606400005
 20
105.450390625
 30
0.0
 11
88.927375606399977
 21
103.950390625
 31
0.0
 12
88.927375606399977
 22
106.950390625
 32
0.0
 13
90.427375606399991
 23
105.450390625
 33
0.0
  0
ENDBLK
  5
9E
  8
0
  0
BLOCK
  8
0
  2
*D4
 70
     1
 10
0.0
 20
0.0
 30
0.0
  3
*D4
  1

  0
TEXT
  5
134
  8
0
 62
     0
 10
-82.840863609300001
 20
103.5087239265
 30
0.0
 40
5.9972220420999998
  1
39
  0
LINE
  5
135
  8
0
 62
     0
 10
-98.813085937500006
 20
128.45039062500001
 30
0.0
 11
-98.813085937500006
 21
100.450390625
 31
0.0
  0
LINE
  5
136
  8
0
 62
     0
 10
-59.813085937499999
 20
119.450390625
 30
0.0
 11
-59.813085937499999
 21
100.450390625
 31
0.0
  0
LINE
  5
137
  8
0
 62
     0
 10
-98.813085937500006
 20
101.450390625
 30
0.0
 11
-72.2575305939
 21
101.450390625
 31
0.0
  0
LINE
  5
138
  8
0
 62
     0
 10
-98.813085937500006
 20
101.450390625
 30
0.0
 11
-86.368641281100011
 21
101.450390625
 31
0.0
  0
LINE
  5
139
  8
0
 62
     0
 10
-59.813085937499999
 20
101.450390625
 30
0.0
 11
-72.2575305939
 21
101.450390625
 31
0.0
  0
LINE
  5
13A
  8
0
 62
     0
 10
-59.813085937499999
 20
101.450390625
 30
0.0
 11
-86.368641281100011
 21
101.450390625
 31
0.0
  0
LINE
  5
13B
  8
0
 62
     0
 10
-59.813085937499999
 20
101.450390625
 30
0.0
 11
-64.813085937500006
 21
101.450390625
 31
0.0
  0
SOLID
  5
13C
  8
0
 62
     0
 10
-59.813085937499999
 20
101.450390625
 30
0.0
 11
-65.813085937500006
 21
99.950390624999997
 31
0.0
 12
-65.813085937500006
 22
102.950390625
 32
0.0
 13
-64.313085937500006
 23
101.450390625
 33
0.0
  0
LINE
  5
13D
  8
0
 62
     0
 10
-98.813085937500006
 20
101.450390625
 30
0.0
 11
-93.813085937500006
 21
101.450390625
 31
0.0
  0
SOLID
  5
13E
  8
0
 62
     0
 10
-98.813085937500006
 20
101.450390625
 30
0.0
 11
-92.813085937500006
 21
102.950390625
 31
0.0
 12
-92.813085937500006
 22
99.950390624999997
 32
0.0
 13
-94.313085937500006
 23
101.450390625
 33
0.0
  0
ENDBLK
  5
13F
  8
0
  0
BLOCK
  8
0
  2
*D5
 70
     1
 10
0.0
 20
0.0
 30
0.0
  3
*D5
  1

  0
TEXT
  5
16A
  8
0
 62
     0
 10
-140.74292286599999
 20
-31.813069694799999
 30
0.0
 40
5.9972220420999998
  1
90%%d
 50
314.70866540899999
  0
ARC
  5
16B
  8
0
 62
     0
 10
-166.81308593750001
 20
-65.065234375000003
 30
0.0
 40
38.745855574099998
 50
77.301579776300002
 51
90.0
  0
ARC
  5
16C
  8
0
 62
     0
 10
-166.81308593750001
 20
-65.065234375000003
 30
0.0
 40
38.745855574099998
 50
0.0
 51
12.698420223699999
  0
SOLID
  5
16D
  8
0
 62
     0
 10
-128.0672303634
 20
-65.065234375000003
 30
0.0
 11
-126.5672303634
 21
-71.065234375000003
 31
0.0
 12
-129.5672303634
 22
-71.065234375000003
 32
0.0
 13
-128.0672303634
 23
-69.565234375000003
 33
0.0
  0
SOLID
  5
16E
  8
0
 62
     0
 10
-166.81308593750001
 20
-26.319378800900001
 30
0.0
 11
-172.81308593750001
 21
-27.819378800900001
 31
0.0
 12
-172.81308593750001
 22
-24.819378800900001
 32
0.0
 13
-171.31308593750001
 23
-26.319378800900001
 33
0.0
  0
ARC
  5
16F
  8
0
 62
     0
 10
-166.81308593750001
 20
-65.065234375000003
 30
0.0
 40
38.745855574099998
 50
0.0
 51
31.41755411150001
  0
ARC
  5
170
  8
0
 62
     0
 10
-166.81308593750001
 20
-65.065234375000003
 30
0.0
 40
38.745855574099998
 50
57.999776706399999
 51
90.0
  0
LINE
  5
171
  8
0
 62
     0
 10
-53.813085937499999
 20
-65.065234375000003
 30
0.0
 11
-132.0672303634
 21
-65.065234375000003
 31
0.0
  0
LINE
  5
172
  8
0
 62
     0
 10
-166.81308593750001
 20
-12.065234374999999
 30
0.0
 11
-166.81308593750001
 21
-30.319378800900001
 31
0.0
  0
ENDBLK
  5
173
  8
0
  0
BLOCK
  8
0
  2
*D6
 70
     1
 10
0.0
 20
0.0
 30
0.0
  3
*D6
  1

  0
TEXT
  5
177
  8
0
 62
     0
 10
-115.10475244520001
 20
-86.006901073500003
 30
0.0
 40
5.9972220420999998
  1
120
  0
LINE
  5
178
  8
0
 62
     0
 10
-169.81308593750001
 20
-65.065234375000003
 30
0.0
 11
-169.81308593750001
 21
-89.065234375000003
 31
0.0
  0
LINE
  5
179
  8
0
 62
     0
 10
-49.813085937499999
 20
-70.065234375000003
 30
0.0
 11
-49.813085937499999
 21
-89.065234375000003
 31
0.0
  0
LINE
  5
17A
  8
0
 62
     0
 10
-169.81308593750001
 20
-88.065234375000003
 30
0.0
 11
-100.993641758
 21
-88.065234375000003
 31
0.0
  0
LINE
  5
17B
  8
0
 62
     0
 10
-169.81308593750001
 20
-88.065234375000003
 30
0.0
 11
-118.632530117
 21
-88.065234375000003
 31
0.0
  0
LINE
  5
17C
  8
0
 62
     0
 10
-49.813085937499999
 20
-88.065234375000003
 30
0.0
 11
-100.993641758
 21
-88.065234375000003
 31
0.0
  0
LINE
  5
17D
  8
0
 62
     0
 10
-49.813085937499999
 20
-88.065234375000003
 30
0.0
 11
-118.632530117
 21
-88.065234375000003
 31
0.0
  0
LINE
  5
17E
  8
0
 62
     0
 10
-49.813085937499999
 20
-88.065234375000003
 30
0.0
 11
-54.813085937499999
 21
-88.065234375000003
 31
0.0
  0
SOLID
  5
17F
  8
0
 62
     0
 10
-49.813085937499999
 20
-88.065234375000003
 30
0.0
 11
-55.813085937499999
 21
-89.565234375000017
 31
0.0
 12
-55.813085937499999
 22
-86.565234375000003
 32
0.0
 13
-54.313085937499991
 23
-88.065234375000003
 33
0.0
  0
LINE
  5
180
  8
0
 62
     0
 10
-169.81308593750001
 20
-88.065234375000003
 30
0.0
 11
-164.81308593750001
 21
-88.065234375000003
 31
0.0
  0
SOLID
  5
181
  8
0
 62
     0
 10
-169.81308593750001
 20
-88.065234375000003
 30
0.0
 11
-163.81308593750001
 21
-86.565234375000003
 31
0.0
 12
-163.81308593750001
 22
-89.565234375000017
 32
0.0
 13
-165.31308593750001
 23
-88.065234375000003
 33
0.0
  0
ENDBLK
  5
182
  8
0
  0
BLOCK
  8
0
  2
*D7
 70
     1
 10
0.0
 20
0.0
 30
0.0
  3
*D7
  1

  0
TEXT
  5
188
  8
0
 62
     0
 10
-58.340863609300001
 20
103.5087239265
 30
0.0
 40
5.9972220420999998
  1
10
  0
LINE
  5
189
  8
0
 62
     0
 10
-59.813085937499999
 20
119.450390625
 30
0.0
 11
-59.813085937499999
 21
100.450390625
 31
0.0
  0
LINE
  5
18A
  8
0
 62
     0
 10
-49.813085937499999
 20
133.45039062500001
 30
0.0
 11
-49.813085937499999
 21
100.450390625
 31
0.0
  0
LINE
  5
18B
  8
0
 62
     0
 10
-59.813085937499999
 20
101.450390625
 30
0.0
 11
-59.813085937499999
 21
101.450390625
 31
0.0
  0
LINE
  5
18C
  8
0
 62
     0
 10
-59.813085937499999
 20
101.450390625
 30
0.0
 11
-49.813085937499999
 21
101.450390625
 31
0.0
  0
LINE
  5
18D
  8
0
 62
     0
 10
-49.813085937499999
 20
101.450390625
 30
0.0
 11
-59.813085937499999
 21
101.450390625
 31
0.0
  0
LINE
  5
18E
  8
0
 62
     0
 10
-49.813085937499999
 20
101.450390625
 30
0.0
 11
-49.813085937499999
 21
101.450390625
 31
0.0
  0
LINE
  5
18F
  8
0
 62
     0
 10
-49.813085937499999
 20
101.450390625
 30
0.0
 11
-44.813085937499991
 21
101.450390625
 31
0.0
  0
SOLID
  5
190
  8
0
 62
     0
 10
-49.813085937499999
 20
101.450390625
 30
0.0
 11
-43.813085937499999
 21
102.950390625
 31
0.0
 12
-43.813085937499999
 22
99.950390624999997
 32
0.0
 13
-45.313085937499999
 23
101.450390625
 33
0.0
  0
LINE
  5
191
  8
0
 62
     0
 10
-59.813085937499999
 20
101.450390625
 30
0.0
 11
-64.813085937500006
 21
101.450390625
 31
0.0
  0
SOLID
  5
192
  8
0
 62
     0
 10
-59.813085937499999
 20
101.450390625
 30
0.0
 11
-65.813085937500006
 21
99.950390624999997
 31
0.0
 12
-65.813085937500006
 22
102.950390625
 32
0.0
 13
-64.313085937500006
 23
101.450390625
 33
0.0
  0
ENDBLK
  5
193
  8
0
  0
BLOCK
  8
0
  2
*D8
 70
     1
 10
0.0
 20
0.0
 30
0.0
  3
*D8
  1

  0
TEXT
  5
197
  8
0
 62
     0
 10
-35.477542325599998
 20
110.2032986641
 30
0.0
 40
5.9972220420999998
  1
6
 50
90.0
  0
LINE
  5
198
  8
0
 62
     0
 10
-51.419209024099992
 20
120.450390625
 30
0.0
 11
-32.419209024099999
 21
120.450390625
 31
0.0
  0
LINE
  5
199
  8
0
 62
     0
 10
-52.813085937499999
 20
126.450390625
 30
0.0
 11
-32.419209024099999
 21
126.450390625
 31
0.0
  0
LINE
  5
19A
  8
0
 62
     0
 10
-33.419209024099999
 20
120.450390625
 30
0.0
 11
-33.419209024099999
 21
117.25885400769999
 31
0.0
  0
LINE
  5
19B
  8
0
 62
     0
 10
-33.419209024099999
 20
120.450390625
 30
0.0
 11
-33.419209024099999
 21
106.67552099229999
 31
0.0
  0
LINE
  5
19C
  8
0
 62
     0
 10
-33.419209024099999
 20
126.450390625
 30
0.0
 11
-33.419209024099999
 21
117.25885400769999
 31
0.0
  0
LINE
  5
19D
  8
0
 62
     0
 10
-33.419209024099999
 20
126.450390625
 30
0.0
 11
-33.419209024099999
 21
106.67552099229999
 31
0.0
  0
LINE
  5
19E
  8
0
 62
     0
 10
-33.419209024099999
 20
126.450390625
 30
0.0
 11
-33.419209024099999
 21
131.45039062500001
 31
0.0
  0
SOLID
  5
19F
  8
0
 62
     0
 10
-33.419209024099999
 20
126.450390625
 30
0.0
 11
-34.919209024099999
 21
132.45039062500001
 31
0.0
 12
-31.919209024099999
 22
132.45039062500001
 32
0.0
 13
-33.419209024099999
 23
130.95039062500001
 33
0.0
  0
LINE
  5
1A0
  8
0
 62
     0
 10
-33.419209024099999
 20
120.450390625
 30
0.0
 11
-33.419209024099999
 21
115.450390625
 31
0.0
  0
SOLID
  5
1A1
  8
0
 62
     0
 10
-33.419209024099999
 20
120.450390625
 30
0.0
 11
-31.919209024099999
 21
114.450390625
 31
0.0
 12
-34.919209024099999
 22
114.450390625
 32
0.0
 13
-33.419209024099999
 23
115.950390625
 33
0.0
  0
ENDBLK
  5
1A2
  8
0
  0
BLOCK
  8
0
  2
*D9
 70
     1
 10
0.0
 20
0.0
 30
0.0
  3
*D9
  1

  0
TEXT
  5
1A6
  8
0
 62
     0
 10
-35.477542325599998
 20
157.3322049141
 30
0.0
 40
5.9972220420999998
  1
6
 50
90.0
  0
LINE
  5
1A7
  8
0
 62
     0
 10
-52.813085937499999
 20
144.45039062500001
 30
0.0
 11
-32.419209024099999
 21
144.45039062500001
 31
0.0
  0
LINE
  5
1A8
  8
0
 62
     0
 10
-51.419209024099992
 20
150.45039062500001
 30
0.0
 11
-32.419209024099999
 21
150.45039062500001
 31
0.0
  0
LINE
  5
1A9
  8
0
 62
     0
 10
-33.419209024099999
 20
144.45039062500001
 30
0.0
 11
-33.419209024099999
 21
164.38776025769999
 31
0.0
  0
LINE
  5
1AA
  8
0
 62
     0
 10
-33.419209024099999
 20
144.45039062500001
 30
0.0
 11
-33.419209024099999
 21
153.80442724229999
 31
0.0
  0
LINE
  5
1AB
  8
0
 62
     0
 10
-33.419209024099999
 20
150.45039062500001
 30
0.0
 11
-33.419209024099999
 21
164.38776025769999
 31
0.0
  0
LINE
  5
1AC
  8
0
 62
     0
 10
-33.419209024099999
 20
150.45039062500001
 30
0.0
 11
-33.419209024099999
 21
153.80442724229999
 31
0.0
  0
LINE
  5
1AD
  8
0
 62
     0
 10
-33.419209024099999
 20
150.45039062500001
 30
0.0
 11
-33.419209024099999
 21
155.45039062500001
 31
0.0
  0
SOLID
  5
1AE
  8
0
 62
     0
 10
-33.419209024099999
 20
150.45039062500001
 30
0.0
 11
-34.919209024099999
 21
156.45039062500001
 31
0.0
 12
-31.919209024099999
 22
156.45039062500001
 32
0.0
 13
-33.419209024099999
 23
154.95039062500001
 33
0.0
  0
LINE
  5
1AF
  8
0
 62
     0
 10
-33.419209024099999
 20
144.45039062500001
 30
0.0
 11
-33.419209024099999
 21
139.45039062500001
 31
0.0
  0
SOLID
  5
1B0
  8
0
 62
     0
 10
-33.419209024099999
 20
144.45039062500001
 30
0.0
 11
-31.919209024099999
 21
138.45039062500001
 31
0.0
 12
-34.919209024099999
 22
138.45039062500001
 32
0.0
 13
-33.419209024099999
 23
139.95039062500001
 33
0.0
  0
ENDBLK
  5
1B1
  8
0
  0
BLOCK
  8
0
  2
*D10
 70
     1
 10
0.0
 20
0.0
 30
0.0
  3
*D10
  1

  0
TEXT
  5
1B5
  8
0
 62
     0
 10
-35.477542325599998
 20
131.9226129532
 30
0.0
 40
5.9972220420999998
  1
18
 50
90.0
  0
LINE
  5
1B6
  8
0
 62
     0
 10
-52.813085937499999
 20
126.450390625
 30
0.0
 11
-32.419209024099999
 21
126.450390625
 31
0.0
  0
LINE
  5
1B7
  8
0
 62
     0
 10
-52.813085937499999
 20
144.45039062500001
 30
0.0
 11
-32.419209024099999
 21
144.45039062500001
 31
0.0
  0
LINE
  5
1B8
  8
0
 62
     0
 10
-33.419209024099999
 20
126.450390625
 30
0.0
 11
-33.419209024099999
 21
142.5059459686
 31
0.0
  0
LINE
  5
1B9
  8
0
 62
     0
 10
-33.419209024099999
 20
126.450390625
 30
0.0
 11
-33.419209024099999
 21
128.39483528139999
 31
0.0
  0
LINE
  5
1BA
  8
0
 62
     0
 10
-33.419209024099999
 20
144.45039062500001
 30
0.0
 11
-33.419209024099999
 21
142.5059459686
 31
0.0
  0
LINE
  5
1BB
  8
0
 62
     0
 10
-33.419209024099999
 20
144.45039062500001
 30
0.0
 11
-33.419209024099999
 21
128.39483528139999
 31
0.0
  0
LINE
  5
1BC
  8
0
 62
     0
 10
-33.419209024099999
 20
144.45039062500001
 30
0.0
 11
-33.419209024099999
 21
149.45039062500001
 31
0.0
  0
SOLID
  5
1BD
  8
0
 62
     0
 10
-33.419209024099999
 20
144.45039062500001
 30
0.0
 11
-34.919209024099999
 21
150.45039062500001
 31
0.0
 12
-31.919209024099999
 22
150.45039062500001
 32
0.0
 13
-33.419209024099999
 23
148.95039062500001
 33
0.0
  0
LINE
  5
1BE
  8
0
 62
     0
 10
-33.419209024099999
 20
126.450390625
 30
0.0
 11
-33.419209024099999
 21
121.450390625
 31
0.0
  0
SOLID
  5
1BF
  8
0
 62
     0
 10
-33.419209024099999
 20
126.450390625
 30
0.0
 11
-31.919209024099999
 21
120.450390625
 31
0.0
 12
-34.919209024099999
 22
120.450390625
 32
0.0
 13
-33.419209024099999
 23
121.950390625
 33
0.0
  0
ENDBLK
  5
1C0
  8
0
  0
BLOCK
  8
0
  2
*D11
 70
     1
 10
0.0
 20
0.0
 30
0.0
  3
*D11
  1

  0
TEXT
  5
1CD
  8
0
 62
     0
 10
-205.51070289590001
 20
131.9226129532
 30
0.0
 40
5.9972220420999998
  1
30
 50
90.0
  0
LINE
  5
1CE
  8
0
 62
     0
 10
-171.81308593750001
 20
150.45039062500001
 30
0.0
 11
-204.45236959440001
 21
150.45039062500001
 31
0.0
  0
LINE
  5
1CF
  8
0
 62
     0
 10
-171.81308593750001
 20
120.450390625
 30
0.0
 11
-204.45236959440001
 21
120.450390625
 31
0.0
  0
LINE
  5
1D0
  8
0
 62
     0
 10
-203.45236959440001
 20
150.45039062500001
 30
0.0
 11
-203.45236959440001
 21
142.5059459686
 31
0.0
  0
LINE
  5
1D1
  8
0
 62
     0
 10
-203.45236959440001
 20
150.45039062500001
 30
0.0
 11
-203.45236959440001
 21
128.39483528139999
 31
0.0
  0
LINE
  5
1D2
  8
0
 62
     0
 10
-203.45236959440001
 20
120.450390625
 30
0.0
 11
-203.45236959440001
 21
142.5059459686
 31
0.0
  0
LINE
  5
1D3
  8
0
 62
     0
 10
-203.45236959440001
 20
120.450390625
 30
0.0
 11
-203.45236959440001
 21
128.39483528139999
 31
0.0
  0
LINE
  5
1D4
  8
0
 62
     0
 10
-203.45236959440001
 20
120.450390625
 30
0.0
 11
-203.45236959440001
 21
125.450390625
 31
0.0
  0
SOLID
  5
1D5
  8
0
 62
     0
 10
-203.45236959440001
 20
120.450390625
 30
0.0
 11
-204.95236959440001
 21
126.450390625
 31
0.0
 12
-201.95236959440001
 22
126.450390625
 32
0.0
 13
-203.45236959440001
 23
124.950390625
 33
0.0
  0
LINE
  5
1D6
  8
0
 62
     0
 10
-203.45236959440001
 20
150.45039062500001
 30
0.0
 11
-203.45236959440001
 21
145.45039062500001
 31
0.0
  0
SOLID
  5
1D7
  8
0
 62
     0
 10
-203.45236959440001
 20
150.45039062500001
 30
0.0
 11
-201.95236959440001
 21
144.45039062500001
 31
0.0
 12
-204.95236959440001
 22
144.45039062500001
 32
0.0
 13
-203.45236959440001
 23
145.95039062500001
 33
0.0
  0
ENDBLK
  5
1D8
  8
0
  0
BLOCK
  8
0
  2
*D12
 70
     1
 10
0.0
 20
0.0
 30
0.0
  3
*D12
  1

  0
TEXT
  5
1DC
  8
0
 62
     0
 10
-191.87141923900001
 20
139.4226129532
 30
0.0
 40
5.9972220420999998
  1
15
 50
90.0
  0
LINE
  5
1DD
  8
0
 62
     0
 10
-171.81308593750001
 20
150.45039062500001
 30
0.0
 11
-190.81308593750001
 21
150.45039062500001
 31
0.0
  0
LINE
  5
1DE
  8
0
 62
     0
 10
-105.81308593750001
 20
135.45039062500001
 30
0.0
 11
-190.81308593750001
 21
135.45039062500001
 31
0.0
  0
LINE
  5
1DF
  8
0
 62
     0
 10
-189.81308593750001
 20
150.45039062500001
 30
0.0
 11
-189.81308593750001
 21
150.0059459686
 31
0.0
  0
LINE
  5
1E0
  8
0
 62
     0
 10
-189.81308593750001
 20
150.45039062500001
 30
0.0
 11
-189.81308593750001
 21
135.89483528139999
 31
0.0
  0
LINE
  5
1E1
  8
0
 62
     0
 10
-189.81308593750001
 20
135.45039062500001
 30
0.0
 11
-189.81308593750001
 21
150.0059459686
 31
0.0
  0
LINE
  5
1E2
  8
0
 62
     0
 10
-189.81308593750001
 20
135.45039062500001
 30
0.0
 11
-189.81308593750001
 21
135.89483528139999
 31
0.0
  0
LINE
  5
1E3
  8
0
 62
     0
 10
-189.81308593750001
 20
135.45039062500001
 30
0.0
 11
-189.81308593750001
 21
130.45039062500001
 31
0.0
  0
SOLID
  5
1E4
  8
0
 62
     0
 10
-189.81308593750001
 20
135.45039062500001
 30
0.0
 11
-188.31308593750001
 21
129.45039062500001
 31
0.0
 12
-191.31308593750001
 22
129.45039062500001
 32
0.0
 13
-189.81308593750001
 23
130.95039062500001
 33
0.0
  0
LINE
  5
1E5
  8
0
 62
     0
 10
-189.81308593750001
 20
150.45039062500001
 30
0.0
 11
-189.81308593750001
 21
155.45039062500001
 31
0.0
  0
SOLID
  5
1E6
  8
0
 62
     0
 10
-189.81308593750001
 20
150.45039062500001
 30
0.0
 11
-191.31308593750001
 21
156.45039062500001
 31
0.0
 12
-188.31308593750001
 22
156.45039062500001
 32
0.0
 13
-189.81308593750001
 23
154.95039062500001
 33
0.0
  0
ENDBLK
  5
1E7
  8
0
  0
BLOCK
  8
0
  2
*D13
 70
     1
 10
0.0
 20
0.0
 30
0.0
  3
*D13
  1

  0
TEXT
  5
1EB
  8
0
 62
     0
 10
-191.87141923900001
 20
124.4226129532
 30
0.0
 40
5.9972220420999998
  1
15
 50
90.0
  0
LINE
  5
1EC
  8
0
 62
     0
 10
-105.81308593750001
 20
135.45039062500001
 30
0.0
 11
-190.81308593750001
 21
135.45039062500001
 31
0.0
  0
LINE
  5
1ED
  8
0
 62
     0
 10
-171.81308593750001
 20
120.450390625
 30
0.0
 11
-190.81308593750001
 21
120.450390625
 31
0.0
  0
LINE
  5
1EE
  8
0
 62
     0
 10
-189.81308593750001
 20
135.45039062500001
 30
0.0
 11
-189.81308593750001
 21
135.0059459686
 31
0.0
  0
LINE
  5
1EF
  8
0
 62
     0
 10
-189.81308593750001
 20
135.45039062500001
 30
0.0
 11
-189.81308593750001
 21
120.89483528140001
 31
0.0
  0
LINE
  5
1F0
  8
0
 62
     0
 10
-189.81308593750001
 20
120.450390625
 30
0.0
 11
-189.81308593750001
 21
135.0059459686
 31
0.0
  0
LINE
  5
1F1
  8
0
 62
     0
 10
-189.81308593750001
 20
120.450390625
 30
0.0
 11
-189.81308593750001
 21
120.89483528140001
 31
0.0
  0
LINE
  5
1F2
  8
0
 62
     0
 10
-189.81308593750001
 20
120.450390625
 30
0.0
 11
-189.81308593750001
 21
115.450390625
 31
0.0
  0
SOLID
  5
1F3
  8
0
 62
     0
 10
-189.81308593750001
 20
120.450390625
 30
0.0
 11
-188.31308593750001
 21
114.450390625
 31
0.0
 12
-191.31308593750001
 22
114.450390625
 32
0.0
 13
-189.81308593750001
 23
115.950390625
 33
0.0
  0
LINE
  5
1F4
  8
0
 62
     0
 10
-189.81308593750001
 20
135.45039062500001
 30
0.0
 11
-189.81308593750001
 21
140.45039062500001
 31
0.0
  0
SOLID
  5
1F5
  8
0
 62
     0
 10
-189.81308593750001
 20
135.45039062500001
 30
0.0
 11
-191.31308593750001
 21
141.45039062500001
 31
0.0
 12
-188.31308593750001
 22
141.45039062500001
 32
0.0
 13
-189.81308593750001
 23
139.95039062500001
 33
0.0
  0
ENDBLK
  5
1F6
  8
0
  0
BLOCK
  8
0
  2
*D14
 70
     1
 10
0.0
 20
0.0
 30
0.0
  3
*D14
  1

  0
TEXT
  5
1FA
  8
0
 62
     0
 10
-121.8408636093
 20
103.5087239265
 30
0.0
 40
5.9972220420999998
  1
39
  0
LINE
  5
1FB
  8
0
 62
     0
 10
-137.81308593750001
 20
119.450390625
 30
0.0
 11
-137.81308593750001
 21
100.450390625
 31
0.0
  0
LINE
  5
1FC
  8
0
 62
     0
 10
-98.813085937500006
 20
128.45039062500001
 30
0.0
 11
-98.813085937500006
 21
100.450390625
 31
0.0
  0
LINE
  5
1FD
  8
0
 62
     0
 10
-137.81308593750001
 20
101.450390625
 30
0.0
 11
-111.2575305939
 21
101.450390625
 31
0.0
  0
LINE
  5
1FE
  8
0
 62
     0
 10
-137.81308593750001
 20
101.450390625
 30
0.0
 11
-125.3686412811
 21
101.450390625
 31
0.0
  0
LINE
  5
1FF
  8
0
 62
     0
 10
-98.813085937500006
 20
101.450390625
 30
0.0
 11
-111.2575305939
 21
101.450390625
 31
0.0
  0
LINE
  5
200
  8
0
 62
     0
 10
-98.813085937500006
 20
101.450390625
 30
0.0
 11
-125.3686412811
 21
101.450390625
 31
0.0
  0
LINE
  5
201
  8
0
 62
     0
 10
-98.813085937500006
 20
101.450390625
 30
0.0
 11
-103.81308593750001
 21
101.450390625
 31
0.0
  0
SOLID
  5
202
  8
0
 62
     0
 10
-98.813085937500006
 20
101.450390625
 30
0.0
 11
-104.81308593750001
 21
99.950390624999997
 31
0.0
 12
-104.81308593750001
 22
102.950390625
 32
0.0
 13
-103.31308593750001
 23
101.450390625
 33
0.0
  0
LINE
  5
203
  8
0
 62
     0
 10
-137.81308593750001
 20
101.450390625
 30
0.0
 11
-132.81308593750001
 21
101.450390625
 31
0.0
  0
SOLID
  5
204
  8
0
 62
     0
 10
-137.81308593750001
 20
101.450390625
 30
0.0
 11
-131.81308593750001
 21
102.950390625
 31
0.0
 12
-131.81308593750001
 22
99.950390624999997
 32
0.0
 13
-133.31308593750001
 23
101.450390625
 33
0.0
  0
ENDBLK
  5
205
  8
0
  0
BLOCK
  8
0
  2
*D15
 70
     1
 10
0.0
 20
0.0
 30
0.0
  3
*D15
  1

  0
TEXT
  5
209
  8
0
 62
     0
 10
-157.34086360929999
 20
103.5087239265
 30
0.0
 40
5.9972220420999998
  1
32
  0
LINE
  5
20A
  8
0
 62
     0
 10
-169.81308593750001
 20
118.450390625
 30
0.0
 11
-169.81308593750001
 21
100.450390625
 31
0.0
  0
LINE
  5
20B
  8
0
 62
     0
 10
-137.81308593750001
 20
119.450390625
 30
0.0
 11
-137.81308593750001
 21
100.450390625
 31
0.0
  0
LINE
  5
20C
  8
0
 62
     0
 10
-169.81308593750001
 20
101.450390625
 30
0.0
 11
-146.75753059389999
 21
101.450390625
 31
0.0
  0
LINE
  5
20D
  8
0
 62
     0
 10
-169.81308593750001
 20
101.450390625
 30
0.0
 11
-160.8686412811
 21
101.450390625
 31
0.0
  0
LINE
  5
20E
  8
0
 62
     0
 10
-137.81308593750001
 20
101.450390625
 30
0.0
 11
-146.75753059389999
 21
101.450390625
 31
0.0
  0
LINE
  5
20F
  8
0
 62
     0
 10
-137.81308593750001
 20
101.450390625
 30
0.0
 11
-160.8686412811
 21
101.450390625
 31
0.0
  0
LINE
  5
210
  8
0
 62
     0
 10
-137.81308593750001
 20
101.450390625
 30
0.0
 11
-142.81308593750001
 21
101.450390625
 31
0.0
  0
SOLID
  5
211
  8
0
 62
     0
 10
-137.81308593750001
 20
101.450390625
 30
0.0
 11
-143.81308593750001
 21
99.950390624999997
 31
0.0
 12
-143.81308593750001
 22
102.950390625
 32
0.0
 13
-142.31308593750001
 23
101.450390625
 33
0.0
  0
LINE
  5
212
  8
0
 62
     0
 10
-169.81308593750001
 20
101.450390625
 30
0.0
 11
-164.81308593750001
 21
101.450390625
 31
0.0
  0
SOLID
  5
213
  8
0
 62
     0
 10
-169.81308593750001
 20
101.450390625
 30
0.0
 11
-163.81308593750001
 21
102.950390625
 31
0.0
 12
-163.81308593750001
 22
99.950390624999997
 32
0.0
 13
-165.31308593750001
 23
101.450390625
 33
0.0
  0
ENDBLK
  5
214
  8
0
  0
BLOCK
  8
0
  2
*D16
 70
     1
 10
0.0
 20
0.0
 30
0.0
  3
*D16
  1

  0
TEXT
  5
21B
  8
0
 62
     0
 10
-138.76558592320001
 20
-57.720272913400002
 30
0.0
 40
1.079499983799999
  1
90%%d
  0
ARC
  5
21C
  8
0
 62
     0
 10
-137.81308593750001
 20
-68.815234375000003
 30
0.0
 40
10.523461470199999
 50
127.4809723186
 51
135.0
  0
ARC
  5
21D
  8
0
 62
     0
 10
-137.81308593750001
 20
-68.815234375000003
 30
0.0
 40
10.523461470199999
 50
45.0
 51
52.519027681399997
  0
SOLID
  5
21E
  8
0
 62
     0
 10
-130.3718749704
 20
-61.374023407899998
 30
0.0
 11
-129.29594126539999
 21
-61.995146045200002
 31
0.0
 12
-129.7507523331
 22
-62.449957112900002
 32
0.0
 13
-129.73547884199999
 23
-62.01041953619999
 33
0.0
  0
SOLID
  5
21F
  8
0
 62
     0
 10
-145.25429690460001
 20
-61.374023407899998
 30
0.0
 11
-145.87541954189999
 21
-62.449957112900002
 31
0.0
 12
-146.33023060959999
 22
-61.995146045200002
 32
0.0
 13
-145.89069303299999
 23
-62.01041953619999
 33
0.0
  0
ARC
  5
220
  8
0
 62
     0
 10
-137.81308593750001
 20
-68.815234375000003
 30
0.0
 40
10.523461470199999
 50
45.0
 51
81.212514112999983
  0
ARC
  5
221
  8
0
 62
     0
 10
-137.81308593750001
 20
-68.815234375000003
 30
0.0
 40
10.523461470199999
 50
98.787485887000003
 51
135.0
  0
LINE
  5
222
  8
0
 62
     0
 10
-133.4974005041
 20
-64.499548941599997
 30
0.0
 11
-129.80618953699999
 21
-60.808337974499999
 31
0.0
  0
LINE
  5
223
  8
0
 62
     0
 10
-142.12877137090001
 20
-64.499548941599997
 30
0.0
 11
-145.81998233799999
 21
-60.808337974499999
 31
0.0
  0
ENDBLK
  5
224
  8
0
  0
BLOCK
  8
0
  2
*D17
 70
     1
 10
0.0
 20
0.0
 30
0.0
  3
*D17
  1

  0
TEXT
  5
229
  8
0
 62
     0
 10
-139.40058591370001
 20
-73.612967326499998
 30
0.0
 40
1.079499983799999
  1
%%c4.2
  0
LINE
  5
22A
  8
0
 62
     0
 10
-139.9130859375
 20
-70.065234375000003
 30
0.0
 11
-139.9130859375
 21
-75.0034673416
 31
0.0
  0
LINE
  5
22B
  8
0
 62
     0
 10
-135.71308593750001
 20
-70.065234375000003
 30
0.0
 11
-135.71308593750001
 21
-75.0034673416
 31
0.0
  0
LINE
  5
22C
  8
0
 62
     0
 10
-139.9130859375
 20
-74.203467329600002
 30
0.0
 11
-139.9130859375
 21
-74.203467329600002
 31
0.0
  0
LINE
  5
22D
  8
0
 62
     0
 10
-139.9130859375
 20
-74.203467329600002
 30
0.0
 11
-135.71308593750001
 21
-74.203467329600002
 31
0.0
  0
LINE
  5
22E
  8
0
 62
     0
 10
-135.71308593750001
 20
-74.203467329600002
 30
0.0
 11
-139.9130859375
 21
-74.203467329600002
 31
0.0
  0
LINE
  5
22F
  8
0
 62
     0
 10
-135.71308593750001
 20
-74.203467329600002
 30
0.0
 11
-135.71308593750001
 21
-74.203467329600002
 31
0.0
  0
LINE
  5
230
  8
0
 62
     0
 10
-135.71308593750001
 20
-74.203467329600002
 30
0.0
 11
-137.71308593750001
 21
-74.203467329600002
 31
0.0
  0
SOLID
  5
231
  8
0
 62
     0
 10
-135.71308593750001
 20
-74.203467329600002
 30
0.0
 11
-136.91308598520001
 21
-74.525067319800002
 31
0.0
 12
-136.91308598520001
 22
-73.881867339500005
 32
0.0
 13
-136.6130859733
 23
-74.203467329600002
 33
0.0
  0
LINE
  5
232
  8
0
 62
     0
 10
-139.9130859375
 20
-74.203467329600002
 30
0.0
 11
-137.9130859375
 21
-74.203467329600002
 31
0.0
  0
SOLID
  5
233
  8
0
 62
     0
 10
-139.9130859375
 20
-74.203467329600002
 30
0.0
 11
-138.7130858898
 21
-73.881867339500005
 31
0.0
 12
-138.7130858898
 22
-74.525067319800002
 32
0.0
 13
-139.01308590170001
 23
-74.203467329600002
 33
0.0
  0
ENDBLK
  5
234
  8
0
  0
BLOCK
  8
0
  2
*D18
 70
     1
 10
0.0
 20
0.0
 30
0.0
  3
*D18
  1

  0
TEXT
  5
238
  8
0
 62
     0
 10
-139.40058591370001
 20
-60.474734371899991
 30
0.0
 40
1.079499983799999
  1
%%c7.5
  0
LINE
  5
239
  8
0
 62
     0
 10
-134.06308593750001
 20
-63.065234375000003
 30
0.0
 11
-134.06308593750001
 21
-60.265234363099999
 31
0.0
  0
LINE
  5
23A
  8
0
 62
     0
 10
-141.56308593750001
 20
-63.065234375000003
 30
0.0
 11
-141.56308593750001
 21
-60.265234363099999
 31
0.0
  0
LINE
  5
23B
  8
0
 62
     0
 10
-134.06308593750001
 20
-61.065234375000003
 30
0.0
 11
-135.59058597090001
 21
-61.065234375000003
 31
0.0
  0
LINE
  5
23C
  8
0
 62
     0
 10
-134.06308593750001
 20
-61.065234375000003
 30
0.0
 11
-140.0355859041
 21
-61.065234375000003
 31
0.0
  0
LINE
  5
23D
  8
0
 62
     0
 10
-141.56308593750001
 20
-61.065234375000003
 30
0.0
 11
-135.59058597090001
 21
-61.065234375000003
 31
0.0
  0
LINE
  5
23E
  8
0
 62
     0
 10
-141.56308593750001
 20
-61.065234375000003
 30
0.0
 11
-140.0355859041
 21
-61.065234375000003
 31
0.0
  0
LINE
  5
23F
  8
0
 62
     0
 10
-141.56308593750001
 20
-61.065234375000003
 30
0.0
 11
-139.56308593750001
 21
-61.065234375000003
 31
0.0
  0
SOLID
  5
240
  8
0
 62
     0
 10
-141.56308593750001
 20
-61.065234375000003
 30
0.0
 11
-140.3630858898
 21
-60.743634384899991
 31
0.0
 12
-140.3630858898
 22
-61.3868343651
 32
0.0
 13
-140.66308590169999
 23
-61.065234375000003
 33
0.0
  0
LINE
  5
241
  8
0
 62
     0
 10
-134.06308593750001
 20
-61.065234375000003
 30
0.0
 11
-136.06308593750001
 21
-61.065234375000003
 31
0.0
  0
SOLID
  5
242
  8
0
 62
     0
 10
-134.06308593750001
 20
-61.065234375000003
 30
0.0
 11
-135.26308598520001
 21
-61.3868343651
 31
0.0
 12
-135.26308598520001
 22
-60.743634384899991
 32
0.0
 13
-134.9630859733
 23
-61.065234375000003
 33
0.0
  0
ENDBLK
  5
243
  8
0
  0
BLOCK
  8
0
  2
*D19
 70
     1
 10
0.0
 20
0.0
 30
0.0
  3
*D19
  1

  0
TEXT
  5
25B
  8
0
 62
     0
 10
-191.87141923900001
 20
-41.593012046799998
 30
0.0
 40
5.9972220420999998
  1
60
 50
90.0
  0
LINE
  5
25C
  8
0
 62
     0
 10
-171.81308593750001
 20
-8.0652343749999993
 30
0.0
 11
-190.81308593750001
 21
-8.0652343749999993
 31
0.0
  0
LINE
  5
25D
  8
0
 62
     0
 10
-166.81308593750001
 20
-68.065234375000003
 30
0.0
 11
-190.81308593750001
 21
-68.065234375000003
 31
0.0
  0
LINE
  5
25E
  8
0
 62
     0
 10
-189.81308593750001
 20
-8.0652343749999993
 30
0.0
 11
-189.81308593750001
 21
-31.009679031400001
 31
0.0
  0
LINE
  5
25F
  8
0
 62
     0
 10
-189.81308593750001
 20
-8.0652343749999993
 30
0.0
 11
-189.81308593750001
 21
-45.120789718599987
 31
0.0
  0
LINE
  5
260
  8
0
 62
     0
 10
-189.81308593750001
 20
-68.065234375000003
 30
0.0
 11
-189.81308593750001
 21
-31.009679031400001
 31
0.0
  0
LINE
  5
261
  8
0
 62
     0
 10
-189.81308593750001
 20
-68.065234375000003
 30
0.0
 11
-189.81308593750001
 21
-45.120789718599987
 31
0.0
  0
LINE
  5
262
  8
0
 62
     0
 10
-189.81308593750001
 20
-68.065234375000003
 30
0.0
 11
-189.81308593750001
 21
-63.065234375000003
 31
0.0
  0
SOLID
  5
263
  8
0
 62
     0
 10
-189.81308593750001
 20
-68.065234375000003
 30
0.0
 11
-191.31308593750001
 21
-62.065234375000003
 31
0.0
 12
-188.31308593750001
 22
-62.065234375000003
 32
0.0
 13
-189.81308593750001
 23
-63.565234375000003
 33
0.0
  0
LINE
  5
264
  8
0
 62
     0
 10
-189.81308593750001
 20
-8.0652343749999993
 30
0.0
 11
-189.81308593750001
 21
-13.065234374999999
 31
0.0
  0
SOLID
  5
265
  8
0
 62
     0
 10
-189.81308593750001
 20
-8.0652343749999993
 30
0.0
 11
-188.31308593750001
 21
-14.065234374999999
 31
0.0
 12
-191.31308593750001
 22
-14.065234374999999
 32
0.0
 13
-189.81308593750001
 23
-12.565234374999999
 33
0.0
  0
ENDBLK
  5
266
  8
0
  0
BLOCK
  8
0
  2
*D20
 70
     1
 10
0.0
 20
0.0
 30
0.0
  3
*D20
  1

  0
TEXT
  5
26A
  8
0
 62
     0
 10
-21.5900414328
 20
154.41161289359999
 30
0.0
 40
5.9972220420999998
  1
R33
 50
15.0
  0
LINE
  5
26B
  8
0
 62
     0
 10
-50.937533670000001
 20
143.99141911340001
 30
0.0
 11
-7.3206159485000004
 21
155.6785369932
 31
0.0
  0
SOLID
  5
26C
  8
0
 62
     0
 10
-50.937533670000001
 20
143.99141911340001
 30
0.0
 11
-45.53020727989999
 21
146.99322212339999
 31
0.0
 12
-44.753750144599991
 22
144.09544464459989
 32
0.0
 13
-46.590867451699992
 23
145.1561048163
 33
0.0
  0
ENDBLK
  5
26D
  8
0
  0
BLOCK
  8
0
  2
*D21
 70
     1
 10
0.0
 20
0.0
 30
0.0
  3
*D21
  1

  0
TEXT
  5
275
  8
0
 62
     0
 10
-164.32022323530001
 20
13.9930989265
 30
0.0
 40
5.9972220420999998
  1
3t
  0
LINE
  5
276
  8
0
 62
     0
 10
-166.81308593750001
 20
-6.0652343750000002
 30
0.0
 11
-166.81308593750001
 21
12.934765625000001
 31
0.0
  0
LINE
  5
277
  8
0
 62
     0
 10
-169.81308593750001
 20
-6.0652343750000002
 30
0.0
 11
-169.81308593750001
 21
12.934765625000001
 31
0.0
  0
LINE
  5
278
  8
0
 62
     0
 10
-166.81308593750001
 20
11.934765625000001
 30
0.0
 11
-153.7368902199
 21
11.934765625000001
 31
0.0
  0
LINE
  5
279
  8
0
 62
     0
 10
-166.81308593750001
 20
11.934765625000001
 30
0.0
 11
-167.84800090709999
 21
11.934765625000001
 31
0.0
  0
LINE
  5
27A
  8
0
 62
     0
 10
-169.81308593750001
 20
11.934765625000001
 30
0.0
 11
-153.7368902199
 21
11.934765625000001
 31
0.0
  0
LINE
  5
27B
  8
0
 62
     0
 10
-169.81308593750001
 20
11.934765625000001
 30
0.0
 11
-167.84800090709999
 21
11.934765625000001
 31
0.0
  0
LINE
  5
27C
  8
0
 62
     0
 10
-169.81308593750001
 20
11.934765625000001
 30
0.0
 11
-174.81308593750001
 21
11.934765625000001
 31
0.0
  0
SOLID
  5
27D
  8
0
 62
     0
 10
-169.81308593750001
 20
11.934765625000001
 30
0.0
 11
-175.81308593750001
 21
10.434765625000001
 31
0.0
 12
-175.81308593750001
 22
13.434765625000001
 32
0.0
 13
-174.31308593750001
 23
11.934765625000001
 33
0.0
  0
LINE
  5
27E
  8
0
 62
     0
 10
-166.81308593750001
 20
11.934765625000001
 30
0.0
 11
-161.81308593750001
 21
11.934765625000001
 31
0.0
  0
SOLID
  5
27F
  8
0
 62
     0
 10
-166.81308593750001
 20
11.934765625000001
 30
0.0
 11
-160.81308593750001
 21
13.434765625000001
 31
0.0
 12
-160.81308593750001
 22
10.434765625000001
 32
0.0
 13
-162.31308593750001
 23
11.934765625000001
 33
0.0
  0
ENDBLK
  5
280
  8
0
  0
BLOCK
  8
0
  2
*D22
 70
     1
 10
0.0
 20
0.0
 30
0.0
  3
*D22
  1

  0
LINE
  5
29F
  8
0
 62
     4
 10
99.654321868384983
 20
-1.622089728898787
 30
0.0
 11
117.25710668575741
 21
15.980695088473629
 31
0.0
  0
LINE
  5
2A0
  8
0
 62
     4
 10
49.549603485052401
 20
-1.6220897288987779
 30
0.0
 11
31.946818667679931
 21
15.98069508847383
 31
0.0
  0
ARC
  5
2A1
  8
0
 62
     4
 10
74.601962676718585
 20
-26.67444892056514
 30
0.0
 40
58.323483162560159
 50
47.456136176855878
 51
132.54386382314379
  0
SOLID
  5
2A2
  8
0
 62
     4
 10
114.32589073202899
 20
16.59682998282743
 30
0.0
 11
113.7493994699205
 21
15.99508064202424
 31
0.0
 12
115.8428931233843
 22
14.56648152610053
 32
0.0
 13
115.8428931233843
 23
14.56648152610053
 33
0.0
  0
SOLID
  5
2A3
  8
0
 62
     4
 10
35.454525883516801
 20
15.99508064202444
 30
0.0
 11
34.878034621408382
 21
16.596829982827629
 31
0.0
 12
33.36103223005302
 22
14.566481526100739
 32
0.0
 13
33.36103223005302
 23
14.566481526100739
 33
0.0
  0
INSERT
  5
2A4
  8
0
  6
CONTINUOUS
  2
*U64
 10
0.0
 20
0.0
 30
0.0
  0
POINT
  5
2A5
  8
DEFPOINTS
 62
     0
 10
74.601962676718585
 20
-26.67444892056514
 30
0.0
  0
POINT
  5
2A6
  8
DEFPOINTS
 62
     0
 10
97.886554915418614
 20
-3.3898566818651541
 30
0.0
  0
POINT
  5
2A7
  8
DEFPOINTS
 62
     0
 10
51.31737043801877
 20
-3.3898566818651541
 30
0.0
  0
POINT
  5
2A8
  8
DEFPOINTS
 62
     0
 10
59.506734457531977
 20
29.6617097452874
 30
0.0
  0
ENDBLK
  5
2A9
  8
0
  0
BLOCK
  8
0
  2
*D23
 70
     1
 10
0.0
 20
0.0
 30
0.0
  3
*D23
  1

  0
LINE
  5
2AC
  8
0
 62
     4
 10
54.601962676718578
 20
-4.1119489205651396
 30
0.0
 11
54.601962676718578
 21
14.29740881552493
 31
0.0
  0
LINE
  5
2AD
  8
0
 62
     4
 10
94.601962676718585
 20
-4.1119489205651396
 30
0.0
 11
94.601962676718585
 21
14.29740881552493
 31
0.0
  0
LINE
  5
2AE
  8
0
 62
     4
 10
57.101962676718578
 20
12.29740881552493
 30
0.0
 11
92.101962676718585
 21
12.29740881552493
 31
0.0
  0
SOLID
  5
2AF
  8
0
 62
     4
 10
57.101962676718578
 20
12.7140754821916
 30
0.0
 11
57.101962676718578
 21
11.880742148858261
 31
0.0
 12
54.601962676718578
 22
12.29740881552493
 32
0.0
 13
54.601962676718578
 23
12.29740881552493
 33
0.0
  0
SOLID
  5
2B0
  8
0
 62
     4
 10
92.101962676718585
 20
12.7140754821916
 30
0.0
 11
92.101962676718585
 21
11.880742148858261
 31
0.0
 12
94.601962676718585
 22
12.29740881552493
 32
0.0
 13
94.601962676718585
 23
12.29740881552493
 33
0.0
  0
INSERT
  5
2B1
  8
0
  6
CONTINUOUS
  2
*U65
 10
0.0
 20
0.0
 30
0.0
  0
POINT
  5
2B2
  8
DEFPOINTS
 62
     0
 10
54.601962676718578
 20
-6.6119489205651396
 30
0.0
  0
POINT
  5
2B3
  8
DEFPOINTS
 62
     0
 10
94.601962676718585
 20
-6.6119489205651396
 30
0.0
  0
POINT
  5
2B4
  8
DEFPOINTS
 62
     0
 10
94.601962676718585
 20
12.29740881552493
 30
0.0
  0
ENDBLK
  5
2B5
  8
0
  0
BLOCK
  8
0
  2
*D24
 70
     1
 10
0.0
 20
0.0
 30
0.0
  3
*D24
  1

  0
LINE
  5
2B8
  8
0
 62
     4
 10
64.601962676718699
 20
-24.23694892056514
 30
0.0
 11
64.601962676718699
 21
-43.888937011566213
 31
0.0
  0
LINE
  5
2B9
  8
0
 62
     4
 10
84.601962676718585
 20
-24.23694892056514
 30
0.0
 11
84.601962676718585
 21
-43.888937011566213
 31
0.0
  0
LINE
  5
2BA
  8
0
 62
     4
 10
67.101962676718699
 20
-41.888937011566213
 30
0.0
 11
82.101962676718585
 21
-41.888937011566213
 31
0.0
  0
SOLID
  5
2BB
  8
0
 62
     4
 10
67.101962676718699
 20
-41.472270344899542
 30
0.0
 11
67.101962676718699
 21
-42.30560367823287
 31
0.0
 12
64.601962676718699
 22
-41.888937011566213
 32
0.0
 13
64.601962676718699
 23
-41.888937011566213
 33
0.0
  0
SOLID
  5
2BC
  8
0
 62
     4
 10
82.101962676718585
 20
-41.472270344899542
 30
0.0
 11
82.101962676718585
 21
-42.30560367823287
 31
0.0
 12
84.601962676718585
 22
-41.888937011566213
 32
0.0
 13
84.601962676718585
 23
-41.888937011566213
 33
0.0
  0
INSERT
  5
2BD
  8
0
  6
CONTINUOUS
  2
*U66
 10
0.0
 20
0.0
 30
0.0
  0
POINT
  5
2BE
  8
DEFPOINTS
 62
     0
 10
64.601962676718699
 20
-21.73694892056514
 30
0.0
  0
POINT
  5
2BF
  8
DEFPOINTS
 62
     0
 10
84.601962676718585
 20
-21.73694892056514
 30
0.0
  0
POINT
  5
2C0
  8
DEFPOINTS
 62
     0
 10
84.601962676718585
 20
-41.888937011566213
 30
0.0
  0
ENDBLK
  5
2C1
  8
0
  0
BLOCK
  8
0
  2
*D26
 70
     1
 10
0.0
 20
0.0
 30
0.0
  3
*D26
  1

  0
LINE
  5
308
  8
0
 62
     4
 10
137.03842243218429
 20
-35.470656497599037
 30
0.0
 11
137.03842243218429
 21
-55.12264458860011
 31
0.0
  0
LINE
  5
309
  8
0
 62
     4
 10
157.03842243218421
 20
-35.470656497599037
 30
0.0
 11
157.03842243218421
 21
-55.12264458860011
 31
0.0
  0
LINE
  5
30A
  8
0
 62
     4
 10
139.53842243218429
 20
-53.12264458860011
 30
0.0
 11
154.53842243218421
 21
-53.12264458860011
 31
0.0
  0
SOLID
  5
30B
  8
0
 62
     4
 10
139.53842243218429
 20
-52.705977921933453
 30
0.0
 11
139.53842243218429
 21
-53.539311255266782
 31
0.0
 12
137.03842243218429
 22
-53.12264458860011
 32
0.0
 13
137.03842243218429
 23
-53.12264458860011
 33
0.0
  0
SOLID
  5
30C
  8
0
 62
     4
 10
154.53842243218421
 20
-52.705977921933453
 30
0.0
 11
154.53842243218421
 21
-53.539311255266782
 31
0.0
 12
157.03842243218421
 22
-53.12264458860011
 32
0.0
 13
157.03842243218421
 23
-53.12264458860011
 33
0.0
  0
INSERT
  5
30D
  8
0
  6
CONTINUOUS
  2
*U67
 10
0.0
 20
0.0
 30
0.0
  0
POINT
  5
30E
  8
DEFPOINTS
 62
     0
 10
137.03842243218429
 20
-32.970656497599037
 30
0.0
  0
POINT
  5
30F
  8
DEFPOINTS
 62
     0
 10
157.03842243218421
 20
-32.970656497599037
 30
0.0
  0
POINT
  5
310
  8
DEFPOINTS
 62
     0
 10
157.03842243218421
 20
-53.12264458860011
 30
0.0
  0
ENDBLK
  5
2EE
  8
0
  0
BLOCK
  8
0
  2
*D27
 70
     1
 10
0.0
 20
0.0
 30
0.0
  3
*D27
  1

  0
LINE
  5
311
  8
0
 62
     4
 10
127.03842243218421
 20
-15.345656497599039
 30
0.0
 11
127.03842243218421
 21
3.063701238491034
 31
0.0
  0
LINE
  5
312
  8
0
 62
     4
 10
167.03842243218421
 20
-15.345656497599039
 30
0.0
 11
167.03842243218421
 21
3.063701238491034
 31
0.0
  0
LINE
  5
313
  8
0
 62
     4
 10
129.53842243218421
 20
1.063701238491034
 30
0.0
 11
164.53842243218421
 21
1.063701238491034
 31
0.0
  0
SOLID
  5
314
  8
0
 62
     4
 10
129.53842243218421
 20
1.480367905157701
 30
0.0
 11
129.53842243218421
 21
0.6470345718243684
 31
0.0
 12
127.03842243218421
 22
1.063701238491034
 32
0.0
 13
127.03842243218421
 23
1.063701238491034
 33
0.0
  0
SOLID
  5
315
  8
0
 62
     4
 10
164.53842243218421
 20
1.480367905157701
 30
0.0
 11
164.53842243218421
 21
0.6470345718243684
 31
0.0
 12
167.03842243218421
 22
1.063701238491034
 32
0.0
 13
167.03842243218421
 23
1.063701238491034
 33
0.0
  0
INSERT
  5
316
  8
0
  6
CONTINUOUS
  2
*U68
 10
0.0
 20
0.0
 30
0.0
  0
POINT
  5
317
  8
DEFPOINTS
 62
     0
 10
127.03842243218421
 20
-17.845656497599041
 30
0.0
  0
POINT
  5
318
  8
DEFPOINTS
 62
     0
 10
167.03842243218421
 20
-17.845656497599041
 30
0.0
  0
POINT
  5
319
  8
DEFPOINTS
 62
     0
 10
167.03842243218421
 20
1.063701238491034
 30
0.0
  0
ENDBLK
  5
2FA
  8
0
  0
BLOCK
  8
0
  2
*D28
 70
     1
 10
0.0
 20
0.0
 30
0.0
  3
*D28
  1

  0
LINE
  5
3E0
  8
0
 62
     4
 10
172.0907816238506
 20
-12.85579730593269
 30
0.0
 11
189.69356644122311
 21
4.7469875114397144
 31
0.0
  0
LINE
  5
3E1
  8
0
 62
     4
 10
121.98606324051801
 20
-12.855797305932681
 30
0.0
 11
104.3832784231455
 21
4.7469875114399613
 31
0.0
  0
ARC
  5
3E2
  8
0
 62
     4
 10
147.03842243218421
 20
-37.908156497599037
 30
0.0
 40
58.32348316256018
 50
47.45613617685585
 51
132.54386382314379
  0
SOLID
  5
3E3
  8
0
 62
     4
 10
186.7623504874947
 20
5.3631224057935167
 30
0.0
 11
186.1858592253862
 21
4.7613730649903321
 31
0.0
 12
188.27935287885001
 22
3.3327739490666191
 32
0.0
 13
188.27935287885001
 23
3.3327739490666191
 33
0.0
  0
SOLID
  5
3E4
  8
0
 62
     4
 10
107.8909856389824
 20
4.761373064990563
 30
0.0
 11
107.31449437687399
 21
5.3631224057937521
 31
0.0
 12
105.7974919855187
 22
3.3327739490668611
 32
0.0
 13
105.7974919855187
 23
3.3327739490668611
 33
0.0
  0
TEXT
  8
0
  40
5
  5
3F2
  62
4
  72
0
  71
0
 10
139.000
 20
15.0342
 30
0.000000
  1
90°
  7
ゴシック
  0
POINT
  5
3E6
  8
DEFPOINTS
 62
     0
 10
147.03842243218421
 20
-37.908156497599037
 30
0.0
  0
POINT
  5
3E7
  8
DEFPOINTS
 62
     0
 10
170.32301467088431
 20
-14.62356425889905
 30
0.0
  0
POINT
  5
3E8
  8
DEFPOINTS
 62
     0
 10
123.7538301934844
 20
-14.62356425889905
 30
0.0
  0
POINT
  5
3E9
  8
DEFPOINTS
 62
     0
 10
131.94319421299761
 20
18.428002168253521
 30
0.0
  0
ENDBLK
  5
307
  8
0
  0
BLOCK
  8
0
  2
*U29
 70
     1
 10
0.0
 20
0.0
 30
0.0
  3
*U29
  1

  0
TEXT
  5
335
  8
図枠
  6
CONTINUOUS
 10
163.42002402125121
 20
207.7456160390432
 30
0.0
 40
5.3974999188999986
  1
改　訂　内　容
  0
ENDBLK
  5
337
  8
0
  0
BLOCK
  8
0
  2
*U30
 70
     1
 10
0.0
 20
0.0
 30
0.0
  3
*U30
  1

  0
TEXT
  5
339
  8
図枠
  6
CONTINUOUS
 10
90.804357516388563
 20
207.85520994602589
 30
0.0
 40
5.3974999188999986
  1
副番
  0
ENDBLK
  5
33B
  8
0
  0
BLOCK
  8
0
  2
*U31
 70
     1
 10
0.0
 20
0.0
 30
0.0
  3
*U31
  1

  0
TEXT
  5
33D
  8
図枠
  6
CONTINUOUS
 10
111.2699540161952
 20
207.80041299253449
 30
0.0
 40
5.3974999188999986
  1
改訂日
  0
ENDBLK
  5
33F
  8
0
  0
BLOCK
  8
0
  2
*U32
 70
     1
 10
0.0
 20
0.0
 30
0.0
  3
*U32
  1

  0
TEXT
  5
341
  8
図枠
  6
CONTINUOUS
 10
237.5576380220248
 20
207.7456160390432
 30
0.0
 40
5.3974999188999986
  1
改訂者
  0
ENDBLK
  5
343
  8
0
  0
BLOCK
  8
0
  2
*U33
 70
     1
 10
0.0
 20
0.0
 30
0.0
  3
*U33
  1

  0
TEXT
  5
345
  8
図枠
  6
CONTINUOUS
 10
257.47544259178778
 20
207.7182175622975
 30
0.0
 40
5.3974999188999986
  1
検認者
  0
ENDBLK
  5
347
  8
0
  0
BLOCK
  8
0
  2
*U34
 70
     1
 10
0.0
 20
0.0
 30
0.0
  3
*U34
  1

  0
TEXT
  5
349
  8
図枠
  6
CONTINUOUS
 10
136.3438688362304
 20
-145.45762091163499
 30
0.0
 40
4.6749999999999989
  1
園 原
  0
ENDBLK
  5
34B
  8
0
  0
BLOCK
  8
0
  2
*U35
 70
     1
 10
0.0
 20
0.0
 30
0.0
  3
*U35
  1

  0
TEXT
  5
34D
  8
ﾚｲﾔ_10
  6
CONTINUOUS
 10
121.8496764763254
 20
-72.168316223627414
 30
0.0
 40
5.9972220420999998
  1
皿モミ部拡大図
  0
ENDBLK
  5
34F
  8
0
  0
BLOCK
  8
0
  2
*U36
 70
     1
 10
0.0
 20
0.0
 30
0.0
  3
*U36
  1

  0
TEXT
  5
351
  8
図枠
  6
CONTINUOUS
 10
136.3438688362304
 20
-136.95762091163499
 30
0.0
 40
4.6749999999999989
  1
園 原
  0
ENDBLK
  5
353
  8
0
  0
BLOCK
  8
0
  2
*U37
 70
     1
 10
0.0
 20
0.0
 30
0.0
  3
*U37
  1

  0
TEXT
  5
355
  8
図枠
  6
CONTINUOUS
 10
105.0382785558825
 20
-88.450121316700006
 30
0.0
 40
5.9972220420999998
  1
SUS304-HL
  0
ENDBLK
  5
357
  8
0
  0
BLOCK
  8
0
  2
*U38
 70
     1
 10
0.0
 20
0.0
 30
0.0
  3
*U38
  1

  0
TEXT
  5
359
  8
図枠
  6
CONTINUOUS
 10
119.96199155409489
 20
-110.876147919936
 30
0.0
 40
5.6099999188999989
  1
指定無き公差はJIS 0408-Bによること
  0
ENDBLK
  5
35B
  8
0
  0
BLOCK
  8
0
  2
*U39
 70
     1
 10
0.0
 20
0.0
 30
0.0
  3
*U39
  1

  0
TEXT
  5
35D
  8
図枠
  6
CONTINUOUS
 10
45.558082034199991
 20
-137.02881380503601
 30
0.0
 40
4.6749999999999989
  1
 設計
  0
ENDBLK
  5
35F
  8
0
  0
BLOCK
  8
0
  2
*U40
 70
     1
 10
0.0
 20
0.0
 30
0.0
  3
*U40
  1

  0
TEXT
  5
361
  8
図枠
  6
CONTINUOUS
 10
74.92001096821015
 20
-137.100006698437
 30
0.0
 40
4.6749999999999989
  1
白須賀
  0
ENDBLK
  5
363
  8
0
  0
BLOCK
  8
0
  2
*U41
 70
     1
 10
0.0
 20
0.0
 30
0.0
  3
*U41
  1

  0
TEXT
  5
365
  8
図枠
  6
CONTINUOUS
 10
51.24831066746269
 20
-88.762239292141103
 30
0.0
 40
5.6099999188999989
  1
材　　質
  0
ENDBLK
  5
367
  8
0
  0
BLOCK
  8
0
  2
*U42
 70
     1
 10
0.0
 20
0.0
 30
0.0
  3
*U42
  1

  0
TEXT
  5
369
  8
図枠
  6
CONTINUOUS
 10
95.199516044352265
 20
-120.07627573396999
 30
0.0
 40
4.6749999999999989
  1
尺 　度
  0
ENDBLK
  5
36B
  8
0
  0
BLOCK
  8
0
  2
*U43
 70
     1
 10
0.0
 20
0.0
 30
0.0
  3
*U43
  1

  0
TEXT
  5
36D
  8
図枠
  6
CONTINUOUS
 10
48.361000815925891
 20
-145.57627573396999
 30
0.0
 40
4.6749999999999989
  1
製図
  0
ENDBLK
  5
36F
  8
0
  0
BLOCK
  8
0
  2
*U44
 70
     1
 10
0.0
 20
0.0
 30
0.0
  3
*U44
  1

  0
TEXT
  5
371
  8
図枠
  6
CONTINUOUS
 10
105.5580820342
 20
-137.05254476950299
 30
0.0
 40
4.6749999999999989
  1
 照査
  0
ENDBLK
  5
373
  8
0
  0
BLOCK
  8
0
  2
*U45
 70
     1
 10
0.0
 20
0.0
 30
0.0
  3
*U45
  1

  0
TEXT
  5
375
  8
図枠
  6
CONTINUOUS
 10
55.69786629815939
 20
-119.933889947168
 30
0.0
 40
4.6749999999999989
  1
日 　付
  0
ENDBLK
  5
377
  8
0
  0
BLOCK
  8
0
  2
*U46
 70
     1
 10
0.0
 20
0.0
 30
0.0
  3
*U46
  1

  0
TEXT
  5
379
  8
図枠
  6
CONTINUOUS
 10
105.5580820342
 20
-145.600006698437
 30
0.0
 40
4.6749999999999989
  1
 検図
  0
ENDBLK
  5
37B
  8
0
  0
BLOCK
  8
0
  2
*U47
 70
     1
 10
0.0
 20
0.0
 30
0.0
  3
*U47
  1

  0
TEXT
  5
37D
  8
図枠
  6
CONTINUOUS
 10
76.32013787176345
 20
-145.62373766290401
 30
0.0
 40
4.6749999999999989
  1
岸 本
  0
ENDBLK
  5
37F
  8
0
  0
BLOCK
  8
0
  2
*U48
 70
     1
 10
0.0
 20
0.0
 30
0.0
  3
*U48
  1

  0
TEXT
  5
381
  8
図枠
  6
CONTINUOUS
 10
53.999189483800002
 20
-160.32444617752739
 30
0.0
 40
8.6359998702999992
  1
株式会社
  0
ENDBLK
  5
383
  8
0
  0
BLOCK
  8
0
  2
*U49
 70
     1
 10
0.0
 20
0.0
 30
0.0
  3
*U49
  1

  0
TEXT
  5
385
  8
図枠
  6
CONTINUOUS
 10
51.191356353565219
 20
-99.819193606038567
 30
0.0
 40
5.6099999188999989
  1
表面処理
  0
ENDBLK
  5
387
  8
0
  0
BLOCK
  8
0
  2
*U50
 70
     1
 10
0.0
 20
0.0
 30
0.0
  3
*U50
  1

  0
TEXT
  5
389
  8
図枠
  6
CONTINUOUS
 10
51.333742138308878
 20
-110.93310223383349
 30
0.0
 40
5.6099999188999989
  1
一般公差
  0
ENDBLK
  5
38B
  8
0
  0
BLOCK
  8
0
  2
*U51
 70
     1
 10
0.0
 20
0.0
 30
0.0
  3
*U51
  1

  0
TEXT
  5
38D
  8
図枠
  6
CONTINUOUS
 10
99.352434826078166
 20
-128.33896608929999
 30
0.0
 40
4.6749999999999989
  1
1：2
  0
ENDBLK
  5
38F
  8
0
  0
BLOCK
  8
0
  2
*U52
 70
     1
 10
0.0
 20
0.0
 30
0.0
  3
*U52
  1

  0
TEXT
  5
391
  8
図枠
  6
CONTINUOUS
 10
166.00643228800709
 20
-119.66520891927
 30
0.0
 40
4.6749999999999989
  1
製品名
  0
ENDBLK
  5
393
  8
0
  0
BLOCK
  8
0
  2
*U53
 70
     1
 10
0.0
 20
0.0
 30
0.0
  3
*U53
  1

  0
TEXT
  5
395
  8
図枠
  6
CONTINUOUS
 10
57.92857695805786
 20
-128.33896608929999
 30
0.0
 40
4.6749999999999989
  1
H16.4
  0
ENDBLK
  5
397
  8
0
  0
BLOCK
  8
0
  2
*U54
 70
     1
 10
0.0
 20
0.0
 30
0.0
  3
*U54
  1

  0
TEXT
  5
399
  8
図枠
  6
CONTINUOUS
 10
166.1369525925756
 20
-136.617746990336
 30
0.0
 40
4.6749999999999989
  1
図面名
  0
ENDBLK
  5
39B
  8
0
  0
BLOCK
  8
0
  2
*U55
 70
     1
 10
0.0
 20
0.0
 30
0.0
  3
*U55
  1

  0
TEXT
  5
39D
  8
図枠
  6
CONTINUOUS
 10
200.14282238693119
 20
-158.72012131669999
 30
0.0
 40
5.9972220420999998
  1
ＳＲＫ００１１１
  0
ENDBLK
  5
39F
  8
0
  0
BLOCK
  8
0
  2
*U56
 70
     1
 10
0.0
 20
0.0
 30
0.0
  3
*U56
  1

  0
TEXT
  5
3A1
  8
図枠
  6
CONTINUOUS
 10
196.7027914693814
 20
-125.32897634635481
 30
0.0
 40
5.9972220420999998
  1
Ｌ型アングルワイド
  0
ENDBLK
  5
3A3
  8
0
  0
BLOCK
  8
0
  2
*U57
 70
     1
 10
0.0
 20
0.0
 30
0.0
  3
*U57
  1

  0
TEXT
  5
3A5
  8
図枠
  6
CONTINUOUS
 10
192.18204287419439
 20
-141.841892322631
 30
0.0
 40
5.9972220420999998
  1
LS-105 60x120 承認図
  0
ENDBLK
  5
3A7
  8
0
  0
BLOCK
  8
0
  2
*U58
 70
     1
 10
0.0
 20
0.0
 30
0.0
  3
*U58
  1

  0
TEXT
  5
3A9
  8
図枠
  6
CONTINUOUS
 10
163.17711777509081
 20
-88.876147919936045
 30
0.0
 40
5.6099999188999989
  1
板　　厚
  0
ENDBLK
  5
3AB
  8
0
  0
BLOCK
  8
0
  2
*U59
 70
     1
 10
0.0
 20
0.0
 30
0.0
  3
*U59
  1

  0
TEXT
  5
3AD
  8
図枠
  6
CONTINUOUS
 10
228.22894508292791
 20
-88.912899193499996
 30
0.0
 40
6.4599999188999986
  1
3.0t
  0
ENDBLK
  5
3AF
  8
0
  0
BLOCK
  8
0
  2
*U60
 70
     1
 10
0.0
 20
0.0
 30
0.0
  3
*U60
  1

  0
TEXT
  5
3B1
  8
ﾚｲﾔ_10
  6
CONTINUOUS
 10
-120.55883254163351
 20
162.31647662469999
 30
0.0
 40
5.3974999188999986
  1
ＨＬ
  0
ENDBLK
  5
3B3
  8
0
  0
BLOCK
  8
0
  2
*U61
 70
     1
 10
0.0
 20
0.0
 30
0.0
  3
*U61
  1

  0
TEXT
  5
3B5
  8
図枠
  6
CONTINUOUS
 10
166.11322162810859
 20
-153.57028506140199
 30
0.0
 40
4.6749999999999989
  1
図　番
  0
ENDBLK
  5
3B7
  8
0
  0
BLOCK
  8
0
  2
*D62
 70
     1
 10
0.0
 20
0.0
 30
0.0
  3
*D62
  1

  0
LINE
  5
3B9
  8
寸法線
 62
     0
 10
-49.875585937500013
 20
-65.065234375000017
 30
0.0
 11
-129.31723036340719
 21
-65.065234375000017
 31
0.0
  0
LINE
  5
3BA
  8
寸法線
 62
     0
 10
-166.81308593750001
 20
-7.3777343750000171
 30
0.0
 11
-166.81308593750001
 21
-27.569378800907192
 31
0.0
  0
ARC
  5
3BB
  8
寸法線
 62
     0
 10
-166.81308593750001
 20
-65.065234375000017
 30
0.0
 40
38.745855574092829
 50
8.8814427344313636
 51
30.994524772091498
  0
ARC
  5
3BC
  8
寸法線
 62
     0
 10
-166.81308593750001
 20
-65.065234375000017
 30
0.0
 40
38.745855574092829
 50
58.422806045750249
 51
81.11855726556864
  0
SOLID
  5
3BD
  8
寸法線
 62
     0
 10
-127.534798204596
 20
-59.005818891946909
 30
0.0
 11
-129.52879415363009
 21
-59.160674163848867
 31
0.0
 12
-128.06723036340719
 22
-65.065234375000017
 32
0.0
 13
-128.06723036340719
 23
-65.065234375000017
 33
0.0
  0
SOLID
  5
3BE
  8
寸法線
 62
     0
 10
-160.9085257263489
 20
-27.780942591130071
 30
0.0
 11
-160.7536704544469
 21
-25.78694664209603
 31
0.0
 12
-166.81308593750001
 22
-26.31937880090717
 32
0.0
 13
-166.81308593750001
 23
-26.31937880090717
 33
0.0
  0
TEXT
  8
寸法線
  40
5.99722
  5
3F3
  62
0
  72
0
  71
0
 10
-151.271
 20
-48.4225
 30
0.000000
  1
90°
  0
POINT
  5
3C0
  8
DEFPOINTS
 62
     0
 10
-166.81308593750001
 20
-65.065234375000017
 30
0.0
  0
POINT
  5
3C1
  8
DEFPOINTS
 62
     0
 10
-49.813085937499999
 20
-65.065234375000003
 30
0.0
  0
POINT
  5
3C2
  8
DEFPOINTS
 62
     0
 10
-166.81308593750001
 20
-7.315234375000002
 30
0.0
  0
POINT
  5
3C3
  8
DEFPOINTS
 62
     0
 10
-147.44015815045361
 20
-31.510339156472721
 30
0.0
  0
ENDBLK
  5
3C5
  8
0
  0
BLOCK
  8
0
  2
*D63
 70
     1
 10
0.0
 20
0.0
 30
0.0
  3
*D63
  1

  0
LINE
  5
3C7
  8
寸法線
 62
     0
 10
-133.48856167777581
 20
-64.490710115275846
 30
0.0
 11
-129.48799149388299
 21
-60.490139931383041
 31
0.0
  0
LINE
  5
3C8
  8
寸法線
 62
     0
 10
-142.13761019722409
 20
-64.490710115275846
 30
0.0
 11
-146.13818038111691
 21
-60.490139931383041
 31
0.0
  0
ARC
  5
3C9
  8
寸法線
 62
     0
 10
-137.81308593750001
 20
-68.815234375000003
 30
0.0
 40
10.523461470199999
 50
51.537035740833119
 51
80.553158847736739
  0
ARC
  5
3CA
  8
寸法線
 62
     0
 10
-137.81308593750001
 20
-68.815234375000003
 30
0.0
 40
10.523461470199999
 50
99.446841152263232
 51
128.4629642591668
  0
SOLID
  5
3CB
  8
寸法線
 62
     0
 10
-131.13427395635381
 20
-60.42600025212316
 30
0.0
 11
-131.4005301697847
 21
-60.72450928302419
 31
0.0
 12
-130.37187497036621
 22
-61.374023407866218
 32
0.0
 13
-130.37187497036621
 23
-61.374023407866218
 33
0.0
  0
SOLID
  5
3CC
  8
寸法線
 62
     0
 10
-144.22564170521531
 20
-60.72450928302419
 30
0.0
 11
-144.49189791864609
 21
-60.42600025212316
 31
0.0
 12
-145.2542969046338
 22
-61.374023407866218
 32
0.0
 13
-145.2542969046338
 23
-61.374023407866218
 33
0.0
  0
TEXT
  8
寸法線
  40
1.0795
  5
3F4
  62
0
  72
0
  71
0
 10
-139.972
 20
-60.2025
 30
0.000000
  1
90°
  0
POINT
  5
3CE
  8
DEFPOINTS
 62
     0
 10
-137.81308593750001
 20
-68.815234375000003
 30
0.0
  0
POINT
  5
3CF
  8
DEFPOINTS
 62
     0
 10
-133.5327558516
 20
-64.534904289099998
 30
0.0
  0
POINT
  5
3D0
  8
DEFPOINTS
 62
     0
 10
-142.09341602340001
 20
-64.534904289099998
 30
0.0
  0
POINT
  5
3D1
  8
DEFPOINTS
 62
     0
 10
-135.08941368860971
 20
-58.650351158975887
 30
0.0
  0
ENDBLK
  5
3D3
  8
0
  0
BLOCK
  8
0
  2
*U64
 70
     1
 10
0.0
 20
0.0
 30
0.0
  3
*U64
  1

  0
TEXT
  5
3D5
  8
0
  6
CONTINUOUS
 62
     4
 10
69.016311943497413
 20
32.856222427386562
 30
0.0
 40
5.0
  1
90°
 50
358.18184992574533
  7
ゴシック
  0
ENDBLK
  5
3D7
  8
0
  0
BLOCK
  8
0
  2
*U65
 70
     1
 10
0.0
 20
0.0
 30
0.0
  3
*U65
  1

  0
TEXT
  5
3D9
  8
0
  6
CONTINUOUS
 62
     4
 10
67.263266140394364
 20
14.504795179161301
 30
0.0
 40
5.0
  1
φ7.5
  7
ゴシック
  0
ENDBLK
  5
3DB
  8
0
  0
BLOCK
  8
0
  2
*U66
 70
     1
 10
0.0
 20
0.0
 30
0.0
  3
*U66
  1

  0
TEXT
  5
3DD
  8
0
  6
CONTINUOUS
 62
     4
 10
66.422834884413817
 20
-39.681550647929861
 30
0.0
 40
5.0
  1
φ4.2
  7
ゴシック
  0
ENDBLK
  5
3DF
  8
0
  0
BLOCK
  8
0
  2
*U67
 70
     1
 10
0.0
 20
0.0
 30
0.0
  3
*U67
  1

  0
TEXT
  5
3EB
  8
0
  6
CONTINUOUS
 62
     4
 10
138.85929463987941
 20
-50.91525822496375
 30
0.0
 40
5.0
  1
φ4.2
  7
ゴシック
  0
ENDBLK
  5
3ED
  8
0
  0
BLOCK
  8
0
  2
*U68
 70
     1
 10
0.0
 20
0.0
 30
0.0
  3
*U68
  1

  0
TEXT
  5
3EF
  8
0
  6
CONTINUOUS
 62
     4
 10
139.69972589586001
 20
3.2710876021273978
 30
0.0
 40
5.0
  1
φ7.5
  7
ゴシック
  0
ENDBLK
  5
3F1
  8
0
  0
ENDSEC
  0
SECTION
  2
ENTITIES
  0
CIRCLE
  5
2F
  8
ﾚｲﾔ_10
 62
     5
 10
94.927375606400005
 20
135.45039062500001
 30
0.0
 40
2.1000000000000001
  0
INSERT
  5
31
  8
0
  6
CONTINUOUS
  2
*U29
 10
0.0
 20
0.0
 30
0.0
  0
LINE
  5
32
  8
図枠
 62
     5
 10
89.558082034199998
 20
205.2471007254
 30
0.0
 11
277.55808203420003
 21
205.2471007254
 31
0.0
  0
INSERT
  5
33
  8
0
  6
CONTINUOUS
  2
*U30
 10
0.0
 20
0.0
 30
0.0
  0
LINE
  5
34
  8
図枠
 62
     5
 10
105.5580820342
 20
185.2471007254
 30
0.0
 11
105.5580820342
 21
215.2471007254
 31
0.0
  0
LINE
  5
35
  8
図枠
 62
     5
 10
89.558082034199998
 20
185.2471007254
 30
0.0
 11
89.558082034199998
 21
215.2471007254
 31
0.0
  0
LINE
  5
36
  8
図枠
 62
     5
 10
137.5580820342
 20
185.2471007254
 30
0.0
 11
137.5580820342
 21
215.2471007254
 31
0.0
  0
INSERT
  5
37
  8
0
  6
CONTINUOUS
  2
*U31
 10
0.0
 20
0.0
 30
0.0
  0
INSERT
  5
38
  8
0
  6
CONTINUOUS
  2
*U32
 10
0.0
 20
0.0
 30
0.0
  0
INSERT
  5
39
  8
0
  6
CONTINUOUS
  2
*U33
 10
0.0
 20
0.0
 30
0.0
  0
LINE
  5
3A
  8
図枠
 62
     5
 10
237.5580820342
 20
185.2471007254
 30
0.0
 11
237.5580820342
 21
215.2471007254
 31
0.0
  0
LINE
  5
3B
  8
図枠
 62
     5
 10
257.55808203420003
 20
185.2471007254
 30
0.0
 11
257.55808203420003
 21
215.2471007254
 31
0.0
  0
LINE
  5
3C
  8
図枠
 62
     5
 10
89.558082034199998
 20
195.2471007254
 30
0.0
 11
277.55808203420003
 21
195.2471007254
 31
0.0
  0
LINE
  5
3D
  8
図枠
 62
     5
 10
89.558082034199998
 20
185.2471007254
 30
0.0
 11
277.55808203420003
 21
185.2471007254
 31
0.0
  0
LINE
  5
3E
  8
図枠
 62
     5
 10
96.989511262199997
 20
204.68233572490001
 30
0.0
 11
92.039511262199994
 21
196.1086842274
 31
0.0
  0
LINE
  5
3F
  8
図枠
 62
     5
 10
96.989511262199997
 20
194.78233572490001
 30
0.0
 11
92.039511262199994
 21
186.2086842274
 31
0.0
  0
LINE
  5
40
  8
図枠
 62
     5
 10
96.989511262199997
 20
194.78233572490001
 30
0.0
 11
101.9395112622
 21
186.2086842274
 31
0.0
  0
LINE
  5
41
  8
図枠
 62
     5
 10
96.989511262199997
 20
204.68233572490001
 30
0.0
 11
101.9395112622
 21
196.1086842274
 31
0.0
  0
LINE
  5
42
  8
図枠
 62
     5
 10
92.039511262199994
 20
186.2086842274
 30
0.0
 11
101.9395112622
 21
186.2086842274
 31
0.0
  0
LINE
  5
43
  8
図枠
 62
     5
 10
92.039511262199994
 20
196.1086842274
 30
0.0
 11
101.9395112622
 21
196.1086842274
 31
0.0
  0
LINE
  5
44
  8
ﾚｲﾔ_10
  6
STITCH
 10
117.92737560640001
 20
140.70039062500001
 30
0.0
 11
119.5773756064
 21
142.35039062499999
 31
0.0
  0
LINE
  5
45
  8
ﾚｲﾔ_10
  6
BORDER
 62
     3
 10
114.49634696059999
 20
126.450390625
 30
0.0
 11
124.7168231511
 21
126.450390625
 31
0.0
  0
LINE
  5
46
  8
ﾚｲﾔ_10
  6
STITCH
 10
117.92737560640001
 20
122.700390625
 30
0.0
 11
119.5773756064
 21
124.350390625
 31
0.0
  0
LINE
  5
47
  8
ﾚｲﾔ_10
  6
BORDER
 62
     3
 10
114.49634696059999
 20
135.45039062500001
 30
0.0
 11
124.7168231511
 21
135.45039062500001
 31
0.0
  0
LINE
  5
48
  8
ﾚｲﾔ_10
  6
STITCH
 10
117.92737560640001
 20
130.20039062500001
 30
0.0
 11
119.5773756064
 21
128.55039062500001
 31
0.0
  0
LINE
  5
49
  8
ﾚｲﾔ_10
  6
BORDER
 62
     3
 10
114.49634696059999
 20
144.45039062500001
 30
0.0
 11
124.7168231511
 21
144.45039062500001
 31
0.0
  0
LINE
  5
4A
  8
ﾚｲﾔ_10
 62
     5
 10
117.92737560640001
 20
150.45039062500001
 30
0.0
 11
117.92737560640001
 21
120.450390625
 31
0.0
  0
LINE
  5
4B
  8
ﾚｲﾔ_10
 62
     5
 10
120.92737560640001
 20
120.450390625
 30
0.0
 11
64.5334986931
 21
120.450390625
 31
0.0
  0
LINE
  5
4C
  8
ﾚｲﾔ_10
 62
     5
 10
64.5334986931
 20
150.45039062500001
 30
0.0
 11
120.92737560640001
 21
150.45039062500001
 31
0.0
  0
LINE
  5
4D
  8
ﾚｲﾔ_10
  6
STITCH
 10
117.92737560640001
 20
148.20039062500001
 30
0.0
 11
119.5773756064
 21
146.55039062500001
 31
0.0
  0
LINE
  5
4E
  8
ﾚｲﾔ_10
  6
STITCH
 10
119.5773756064
 20
142.35039062499999
 30
0.0
 11
120.92737560640001
 21
142.35039062499999
 31
0.0
  0
LINE
  5
4F
  8
ﾚｲﾔ_10
  6
STITCH
 10
119.5773756064
 20
124.350390625
 30
0.0
 11
120.92737560640001
 21
124.350390625
 31
0.0
  0
LINE
  5
50
  8
ﾚｲﾔ_10
  6
STITCH
 10
119.5773756064
 20
128.55039062500001
 30
0.0
 11
120.92737560640001
 21
128.55039062500001
 31
0.0
  0
LINE
  5
51
  8
ﾚｲﾔ_10
  6
STITCH
 10
119.5773756064
 20
133.35039062499999
 30
0.0
 11
119.5773756064
 21
137.55039062500001
 31
0.0
  0
LINE
  5
52
  8
ﾚｲﾔ_10
  6
STITCH
 10
119.5773756064
 20
137.55039062500001
 30
0.0
 11
120.92737560640001
 21
137.55039062500001
 31
0.0
  0
LINE
  5
53
  8
ﾚｲﾔ_10
  6
STITCH
 10
119.5773756064
 20
133.35039062499999
 30
0.0
 11
120.92737560640001
 21
133.35039062499999
 31
0.0
  0
LINE
  5
54
  8
ﾚｲﾔ_10
  6
STITCH
 10
119.5773756064
 20
128.55039062500001
 30
0.0
 11
119.5773756064
 21
124.350390625
 31
0.0
  0
LINE
  5
55
  8
ﾚｲﾔ_10
  6
STITCH
 10
119.5773756064
 20
142.35039062499999
 30
0.0
 11
119.5773756064
 21
146.55039062500001
 31
0.0
  0
LINE
  5
56
  8
ﾚｲﾔ_10
 62
     5
 10
120.92737560640001
 20
150.45039062500001
 30
0.0
 11
120.92737560640001
 21
120.450390625
 31
0.0
  0
LINE
  5
57
  8
ﾚｲﾔ_10
  6
STITCH
 10
119.5773756064
 20
146.55039062500001
 30
0.0
 11
120.92737560640001
 21
146.55039062500001
 31
0.0
  0
CIRCLE
  5
58
  8
ﾚｲﾔ_10
 62
     5
 10
70.927375606400005
 20
126.450390625
 30
0.0
 40
3.75
  0
LINE
  5
59
  8
ﾚｲﾔ_10
  6
BORDER
 62
     3
 10
70.927375606400005
 20
131.45039062500001
 30
0.0
 11
70.927375606400005
 21
121.450390625
 31
0.0
  0
LINE
  5
5A
  8
ﾚｲﾔ_10
  6
BORDER
 62
     3
 10
75.927375606400005
 20
126.450390625
 30
0.0
 11
65.927375606400005
 21
126.450390625
 31
0.0
  0
CIRCLE
  5
5B
  8
ﾚｲﾔ_10
 62
     5
 10
70.927375606400005
 20
126.450390625
 30
0.0
 40
2.1000000000000001
  0
CIRCLE
  5
5C
  8
ﾚｲﾔ_10
 62
     5
 10
94.927375606400005
 20
135.45039062500001
 30
0.0
 40
3.75
  0
LINE
  5
5D
  8
図枠
 10
45.558082034199991
 20
-91.752899274599983
 30
0.0
 11
277.55808203420003
 21
-91.752899274599983
 31
0.0
  0
LINE
  5
5E
  8
図枠
 10
45.558082034199991
 20
-113.7528992746
 30
0.0
 11
277.55808203420003
 21
-113.7528992746
 31
0.0
  0
LINE
  5
5F
  8
図枠
 10
45.558082034199991
 20
-147.7528992746
 30
0.0
 11
277.55808203420003
 21
-147.7528992746
 31
0.0
  0
LINE
  5
60
  8
図枠
 10
45.558082034199991
 20
-130.7528992746
 30
0.0
 11
277.55808203420003
 21
-130.7528992746
 31
0.0
  0
INSERT
  5
61
  8
0
  6
CONTINUOUS
  2
*U34
 10
0.0
 20
0.0
 30
0.0
  0
LINE
  5
62
  8
図枠
  6
BORDER
 10
130.77408203420001
 20
-122.2528992746
 30
0.0
 11
160.34208203419999
 21
-122.2528992746
 31
0.0
  0
LINE
  5
63
  8
図枠
 10
143.75742670049999
 20
-156.0966225276
 30
0.0
 11
148.60009336709999
 21
-156.0966225276
 31
0.0
  0
LINE
  5
64
  8
図枠
 10
143.75742670049999
 20
-157.37662252760001
 30
0.0
 11
148.97556003380001
 21
-157.37662252760001
 31
0.0
  0
LINE
  5
65
  8
図枠
 10
143.75742670049999
 20
-160.2566225276
 30
0.0
 11
149.8203600338
 21
-160.2566225276
 31
0.0
  0
LINE
  5
66
  8
図枠
 10
143.75742670049999
 20
-153.21662252760001
 30
0.0
 11
143.75742670049999
 21
-156.0966225276
 31
0.0
  0
LINE
  5
67
  8
図枠
 10
143.75742670049999
 20
-157.37662252760001
 30
0.0
 11
143.75742670049999
 21
-160.2566225276
 31
0.0
  0
LINE
  5
68
  8
図枠
 10
143.75742670049999
 20
-153.21662252760001
 30
0.0
 11
147.75529336709999
 21
-153.21662252760001
 31
0.0
  0
DIMENSION
  5
79
  8
寸法線
  2
*D0
 10
70.927375606400005
 20
105.450390625
 30
0.0
 11
82.927375606400005
 21
105.450390625
 31
0.0
 70
   128
  1
<>
 13
70.927375606400005
 23
120.450390625
 33
0.0
 14
94.927375606400005
 24
130.45039062500001
 34
0.0
 50
180.0
  0
DIMENSION
  5
88
  8
寸法線
  2
*D1
 10
60.927375606399998
 20
105.450390625
 30
0.0
 11
65.927375606400005
 21
105.450390625
 31
0.0
 70
   128
  1
<>
 13
60.927375606399998
 23
135.45039062500001
 33
0.0
 14
70.927375606400005
 24
120.450390625
 34
0.0
 50
180.0
  0
DIMENSION
  5
90
  8
寸法線
  2
*D2
 10
93.927375606399977
 20
135.45039062500001
 30
0.0
 11
14.0867163748
 21
149.87180880380001
 31
0.0
 70
   132
  1
<>
 15
62.0518233389
 25
143.99141911340001
 35
0.0
 40
0.0
  0
DIMENSION
  5
9F
  8
寸法線
  2
*D3
 10
94.927375606400005
 20
105.450390625
 30
0.0
 11
107.92737560640001
 21
105.450390625
 31
0.0
 70
   128
  1
<>
 13
94.927375606400005
 23
130.45039062500001
 33
0.0
 14
120.92737560640001
 24
120.450390625
 34
0.0
 50
180.0
  0
LINE
  5
A0
  8
ﾚｲﾔ_10
  6
BORDER
 62
     3
 10
89.927375606400005
 20
135.45039062500001
 30
0.0
 11
99.927375606400005
 21
135.45039062500001
 31
0.0
  0
LINE
  5
A1
  8
ﾚｲﾔ_10
  6
BORDER
 62
     3
 10
94.927375606400005
 20
140.45039062500001
 30
0.0
 11
94.927375606400005
 21
130.45039062500001
 31
0.0
  0
ARC
  5
A2
  8
ﾚｲﾔ_10
 62
     5
 10
93.927375606399977
 20
135.45039062500001
 30
0.0
 40
33.0
 50
152.9643082106
 51
207.0356917894
  0
LINE
  5
A3
  8
ﾚｲﾔ_10
  6
BORDER
 62
     3
 10
75.927375606400005
 20
144.45039062500001
 30
0.0
 11
65.927375606400005
 21
144.45039062500001
 31
0.0
  0
CIRCLE
  5
A4
  8
ﾚｲﾔ_10
 62
     5
 10
70.927375606400005
 20
144.45039062500001
 30
0.0
 40
3.75
  0
CIRCLE
  5
A5
  8
ﾚｲﾔ_10
 62
     5
 10
70.927375606400005
 20
144.45039062500001
 30
0.0
 40
2.1000000000000001
  0
LINE
  5
A6
  8
ﾚｲﾔ_10
  6
BORDER
 62
     3
 10
70.927375606400005
 20
149.45039062500001
 30
0.0
 11
70.927375606400005
 21
139.45039062500001
 31
0.0
  0
LINE
  5
A7
  8
ﾚｲﾔ_10
  6
STITCH
 10
117.92737560640001
 20
139.20039062500001
 30
0.0
 11
119.5773756064
 21
137.55039062500001
 31
0.0
  0
LINE
  5
A8
  8
ﾚｲﾔ_10
  6
STITCH
 10
117.92737560640001
 20
131.70039062500001
 30
0.0
 11
119.5773756064
 21
133.35039062499999
 31
0.0
  0
LINE
  5
A9
  8
図枠
  6
BORDER
 10
137.68608203420001
 20
-115.34089927460001
 30
0.0
 11
137.68608203420001
 21
-129.1648992746
 31
0.0
  0
CIRCLE
  5
AA
  8
図枠
 10
137.68608203420001
 20
-122.2528992746
 30
0.0
 40
2.3039999999999998
  0
CIRCLE
  5
AB
  8
図枠
 10
137.68608203420001
 20
-122.2528992746
 30
0.0
 40
2.3039999999999998
  0
LINE
  5
AC
  8
図枠
  6
BORDER
 10
137.68608203420001
 20
-115.34089927460001
 30
0.0
 11
137.68608203420001
 21
-129.1648992746
 31
0.0
  0
LINE
  5
AD
  8
図枠
 10
138.6094544632
 20
-152.89662252759999
 30
0.0
 11
140.20945446319999
 21
-150.49662252760001
 31
0.0
  0
LINE
  5
AE
  8
図枠
 10
136.78980542650001
 20
-158.25523246189999
 30
0.0
 11
136.50484213089999
 21
-158.5342374926
 31
0.0
  0
LINE
  5
AF
  8
図枠
 10
140.20945446319999
 20
-159.29662252759999
 30
0.0
 11
140.20945446319999
 21
-161.6966225276
 31
0.0
  0
LINE
  5
B0
  8
図枠
  6
BORDER
 10
137.68608203420001
 20
-115.34089927460001
 30
0.0
 11
137.68608203420001
 21
-129.1648992746
 31
0.0
  0
CIRCLE
  5
B1
  8
図枠
 10
137.68608203420001
 20
-122.2528992746
 30
0.0
 40
2.3039999999999998
  0
ARC
  5
B2
  8
図枠
 10
129.80945446320001
 20
-152.89662252759999
 30
0.0
 40
8.8000000000000007
 50
322.48761197969998
 51
0.0
  0
LINE
  5
B3
  8
図枠
 10
107.9524847662
 20
-153.6966225276
 30
0.0
 11
106.1107186677
 21
-153.6966225276
 31
0.0
  0
LINE
  5
B4
  8
図枠
 10
119.1524847662
 20
-156.0966225276
 30
0.0
 11
121.5524847662
 21
-156.0966225276
 31
0.0
  0
LINE
  5
B5
  8
図枠
 10
125.8094544632
 20
-159.29662252759999
 30
0.0
 11
127.7294544632
 21
-159.29662252759999
 31
0.0
  0
LINE
  5
B6
  8
図枠
 10
89.558082034199998
 20
-122.2528992746
 30
0.0
 11
117.5580820342
 21
-122.2528992746
 31
0.0
  0
INSERT
  5
B7
  8
0
  6
CONTINUOUS
  2
*U35
 10
0.0
 20
0.0
 30
0.0
  0
CIRCLE
  5
B8
  8
図枠
 10
137.68608203420001
 20
-122.2528992746
 30
0.0
 40
4.6079999999999997
  0
CIRCLE
  5
B9
  8
図枠
 10
137.68608203420001
 20
-122.2528992746
 30
0.0
 40
4.6079999999999997
  0
CIRCLE
  5
BA
  8
図枠
 10
137.68608203420001
 20
-122.2528992746
 30
0.0
 40
4.6079999999999997
  0
CIRCLE
  5
BB
  8
図枠
 10
137.68608203420001
 20
-122.2528992746
 30
0.0
 40
4.6079999999999997
  0
LINE
  5
BC
  8
図枠
 10
45.558082034199991
 20
-102.7528992746
 30
0.0
 11
277.55808203420003
 21
-102.7528992746
 31
0.0
  0
LINE
  5
BD
  8
図枠
 10
109.5580820342
 20
-139.2528992746
 30
0.0
 11
161.5580820342
 21
-139.2528992746
 31
0.0
  0
INSERT
  5
BE
  8
0
  6
CONTINUOUS
  2
*U36
 10
0.0
 20
0.0
 30
0.0
  0
LINE
  5
BF
  8
図枠
 10
45.558082034199991
 20
-80.752899274599997
 30
0.0
 11
277.55808203420003
 21
-80.752899274599997
 31
0.0
  0
INSERT
  5
C0
  8
0
  6
CONTINUOUS
  2
*U37
 10
0.0
 20
0.0
 30
0.0
  0
INSERT
  5
C1
  8
0
  6
CONTINUOUS
  2
*U38
 10
0.0
 20
0.0
 30
0.0
  0
INSERT
  5
C2
  8
0
  6
CONTINUOUS
  2
*U39
 10
0.0
 20
0.0
 30
0.0
  0
LINE
  5
C3
  8
図枠
 10
106.1107186677
 20
-156.0966225276
 30
0.0
 11
107.71071866769999
 21
-156.0966225276
 31
0.0
  0
INSERT
  5
C4
  8
0
  6
CONTINUOUS
  2
*U40
 10
0.0
 20
0.0
 30
0.0
  0
LINE
  5
C5
  8
図枠
 10
111.9524847662
 20
-152.89662252759999
 30
0.0
 11
114.35248476620001
 21
-150.49662252760001
 31
0.0
  0
LINE
  5
C6
  8
図枠
 10
106.1107186677
 20
-153.6966225276
 30
0.0
 11
106.1107186677
 21
-156.0966225276
 31
0.0
  0
LINE
  5
C7
  8
図枠
 10
121.5524847662
 20
-153.6966225276
 30
0.0
 11
121.5524847662
 21
-156.0966225276
 31
0.0
  0
LINE
  5
C8
  8
図枠
 10
85.558082034199984
 20
-113.7528992746
 30
0.0
 11
85.558082034199984
 21
-80.752899274599997
 31
0.0
  0
LINE
  5
C9
  8
図枠
 10
115.1524847662
 20
-156.0966225276
 30
0.0
 11
115.1524847662
 21
-156.89662252759999
 31
0.0
  0
LINE
  5
CA
  8
図枠
 10
119.1524847662
 20
-152.89662252759999
 30
0.0
 11
121.5524847662
 21
-150.49662252760001
 31
0.0
  0
INSERT
  5
CB
  8
0
  6
CONTINUOUS
  2
*U41
 10
0.0
 20
0.0
 30
0.0
  0
LINE
  5
CC
  8
図枠
 10
125.8094544632
 20
-153.37662252760001
 30
0.0
 11
133.80945446320001
 21
-153.37662252760001
 31
0.0
  0
POLYLINE
  8
図枠
  5
3F5
  66
     1
 10
0.000000
 20
0.000000
 30
0.000000
  70
     8
  0
VERTEX
  8
図枠
  5
3F6
 10
131.304
 20
-155.117
 30
0.000000
  70
    32
  0
VERTEX
  8
図枠
  5
3F7
 10
131.315
 20
-155.129
 30
0.000000
  70
    32
  0
VERTEX
  8
図枠
  5
3F8
 10
131.325
 20
-155.141
 30
0.000000
  70
    32
  0
VERTEX
  8
図枠
  5
3F9
 10
131.336
 20
-155.152
 30
0.000000
  70
    32
  0
VERTEX
  8
図枠
  5
3FA
 10
131.347
 20
-155.164
 30
0.000000
  70
    32
  0
VERTEX
  8
図枠
  5
3FB
 10
131.357
 20
-155.176
 30
0.000000
  70
    32
  0
VERTEX
  8
図枠
  5
3FC
 10
131.368
 20
-155.188
 30
0.000000
  70
    32
  0
VERTEX
  8
図枠
  5
3FD
 10
131.378
 20
-155.199
 30
0.000000
  70
    32
  0
VERTEX
  8
図枠
  5
3FE
 10
131.389
 20
-155.211
 30
0.000000
  70
    32
  0
VERTEX
  8
図枠
  5
3FF
 10
131.399
 20
-155.223
 30
0.000000
  70
    32
  0
VERTEX
  8
図枠
  5
400
 10
131.410
 20
-155.235
 30
0.000000
  70
    32
  0
VERTEX
  8
図枠
  5
401
 10
131.421
 20
-155.247
 30
0.000000
  70
    32
  0
VERTEX
  8
図枠
  5
402
 10
131.431
 20
-155.258
 30
0.000000
  70
    32
  0
VERTEX
  8
図枠
  5
403
 10
131.442
 20
-155.270
 30
0.000000
  70
    32
  0
VERTEX
  8
図枠
  5
404
 10
131.452
 20
-155.282
 30
0.000000
  70
    32
  0
VERTEX
  8
図枠
  5
405
 10
131.463
 20
-155.294
 30
0.000000
  70
    32
  0
VERTEX
  8
図枠
  5
406
 10
131.473
 20
-155.305
 30
0.000000
  70
    32
  0
VERTEX
  8
図枠
  5
407
 10
131.484
 20
-155.317
 30
0.000000
  70
    32
  0
VERTEX
  8
図枠
  5
408
 10
131.495
 20
-155.329
 30
0.000000
  70
    32
  0
VERTEX
  8
図枠
  5
409
 10
131.505
 20
-155.341
 30
0.000000
  70
    32
  0
VERTEX
  8
図枠
  5
40A
 10
131.516
 20
-155.352
 30
0.000000
  70
    32
  0
VERTEX
  8
図枠
  5
40B
 10
131.526
 20
-155.364
 30
0.000000
  70
    32
  0
VERTEX
  8
図枠
  5
40C
 10
131.537
 20
-155.376
 30
0.000000
  70
    32
  0
VERTEX
  8
図枠
  5
40D
 10
131.547
 20
-155.388
 30
0.000000
  70
    32
  0
VERTEX
  8
図枠
  5
40E
 10
131.558
 20
-155.399
 30
0.000000
  70
    32
  0
VERTEX
  8
図枠
  5
40F
 10
131.569
 20
-155.411
 30
0.000000
  70
    32
  0
VERTEX
  8
図枠
  5
410
 10
131.579
 20
-155.423
 30
0.000000
  70
    32
  0
VERTEX
  8
図枠
  5
411
 10
131.590
 20
-155.434
 30
0.000000
  70
    32
  0
VERTEX
  8
図枠
  5
412
 10
131.600
 20
-155.446
 30
0.000000
  70
    32
  0
VERTEX
  8
図枠
  5
413
 10
131.611
 20
-155.458
 30
0.000000
  70
    32
  0
VERTEX
  8
図枠
  5
414
 10
131.622
 20
-155.470
 30
0.000000
  70
    32
  0
VERTEX
  8
図枠
  5
415
 10
131.632
 20
-155.481
 30
0.000000
  70
    32
  0
VERTEX
  8
図枠
  5
416
 10
131.643
 20
-155.493
 30
0.000000
  70
    32
  0
VERTEX
  8
図枠
  5
417
 10
131.653
 20
-155.505
 30
0.000000
  70
    32
  0
VERTEX
  8
図枠
  5
418
 10
131.664
 20
-155.516
 30
0.000000
  70
    32
  0
VERTEX
  8
図枠
  5
419
 10
131.675
 20
-155.528
 30
0.000000
  70
    32
  0
VERTEX
  8
図枠
  5
41A
 10
131.685
 20
-155.540
 30
0.000000
  70
    32
  0
VERTEX
  8
図枠
  5
41B
 10
131.696
 20
-155.551
 30
0.000000
  70
    32
  0
VERTEX
  8
図枠
  5
41C
 10
131.707
 20
-155.563
 30
0.000000
  70
    32
  0
VERTEX
  8
図枠
  5
41D
 10
131.717
 20
-155.575
 30
0.000000
  70
    32
  0
VERTEX
  8
図枠
  5
41E
 10
131.728
 20
-155.586
 30
0.000000
  70
    32
  0
VERTEX
  8
図枠
  5
41F
 10
131.739
 20
-155.598
 30
0.000000
  70
    32
  0
VERTEX
  8
図枠
  5
420
 10
131.749
 20
-155.609
 30
0.000000
  70
    32
  0
VERTEX
  8
図枠
  5
421
 10
131.760
 20
-155.621
 30
0.000000
  70
    32
  0
VERTEX
  8
図枠
  5
422
 10
131.771
 20
-155.633
 30
0.000000
  70
    32
  0
VERTEX
  8
図枠
  5
423
 10
131.781
 20
-155.644
 30
0.000000
  70
    32
  0
VERTEX
  8
図枠
  5
424
 10
131.792
 20
-155.656
 30
0.000000
  70
    32
  0
VERTEX
  8
図枠
  5
425
 10
131.803
 20
-155.667
 30
0.000000
  70
    32
  0
VERTEX
  8
図枠
  5
426
 10
131.813
 20
-155.679
 30
0.000000
  70
    32
  0
VERTEX
  8
図枠
  5
427
 10
131.824
 20
-155.691
 30
0.000000
  70
    32
  0
VERTEX
  8
図枠
  5
428
 10
131.835
 20
-155.702
 30
0.000000
  70
    32
  0
VERTEX
  8
図枠
  5
429
 10
131.845
 20
-155.714
 30
0.000000
  70
    32
  0
VERTEX
  8
図枠
  5
42A
 10
131.856
 20
-155.725
 30
0.000000
  70
    32
  0
VERTEX
  8
図枠
  5
42B
 10
131.867
 20
-155.737
 30
0.000000
  70
    32
  0
VERTEX
  8
図枠
  5
42C
 10
131.877
 20
-155.748
 30
0.000000
  70
    32
  0
VERTEX
  8
図枠
  5
42D
 10
131.888
 20
-155.760
 30
0.000000
  70
    32
  0
VERTEX
  8
図枠
  5
42E
 10
131.899
 20
-155.771
 30
0.000000
  70
    32
  0
VERTEX
  8
図枠
  5
42F
 10
131.910
 20
-155.783
 30
0.000000
  70
    32
  0
VERTEX
  8
図枠
  5
430
 10
131.920
 20
-155.794
 30
0.000000
  70
    32
  0
VERTEX
  8
図枠
  5
431
 10
131.931
 20
-155.806
 30
0.000000
  70
    32
  0
VERTEX
  8
図枠
  5
432
 10
131.942
 20
-155.817
 30
0.000000
  70
    32
  0
VERTEX
  8
図枠
  5
433
 10
131.953
 20
-155.829
 30
0.000000
  70
    32
  0
VERTEX
  8
図枠
  5
434
 10
131.963
 20
-155.840
 30
0.000000
  70
    32
  0
VERTEX
  8
図枠
  5
435
 10
131.974
 20
-155.851
 30
0.000000
  70
    32
  0
VERTEX
  8
図枠
  5
436
 10
131.985
 20
-155.863
 30
0.000000
  70
    32
  0
VERTEX
  8
図枠
  5
437
 10
131.996
 20
-155.874
 30
0.000000
  70
    32
  0
VERTEX
  8
図枠
  5
438
 10
132.006
 20
-155.886
 30
0.000000
  70
    32
  0
VERTEX
  8
図枠
  5
439
 10
132.017
 20
-155.897
 30
0.000000
  70
    32
  0
VERTEX
  8
図枠
  5
43A
 10
132.028
 20
-155.908
 30
0.000000
  70
    32
  0
VERTEX
  8
図枠
  5
43B
 10
132.039
 20
-155.920
 30
0.000000
  70
    32
  0
VERTEX
  8
図枠
  5
43C
 10
132.050
 20
-155.931
 30
0.000000
  70
    32
  0
VERTEX
  8
図枠
  5
43D
 10
132.061
 20
-155.943
 30
0.000000
  70
    32
  0
VERTEX
  8
図枠
  5
43E
 10
132.071
 20
-155.954
 30
0.000000
  70
    32
  0
VERTEX
  8
図枠
  5
43F
 10
132.082
 20
-155.965
 30
0.000000
  70
    32
  0
VERTEX
  8
図枠
  5
440
 10
132.093
 20
-155.976
 30
0.000000
  70
    32
  0
VERTEX
  8
図枠
  5
441
 10
132.104
 20
-155.988
 30
0.000000
  70
    32
  0
VERTEX
  8
図枠
  5
442
 10
132.115
 20
-155.999
 30
0.000000
  70
    32
  0
VERTEX
  8
図枠
  5
443
 10
132.126
 20
-156.010
 30
0.000000
  70
    32
  0
VERTEX
  8
図枠
  5
444
 10
132.137
 20
-156.022
 30
0.000000
  70
    32
  0
VERTEX
  8
図枠
  5
445
 10
132.147
 20
-156.033
 30
0.000000
  70
    32
  0
VERTEX
  8
図枠
  5
446
 10
132.158
 20
-156.044
 30
0.000000
  70
    32
  0
VERTEX
  8
図枠
  5
447
 10
132.169
 20
-156.055
 30
0.000000
  70
    32
  0
VERTEX
  8
図枠
  5
448
 10
132.180
 20
-156.066
 30
0.000000
  70
    32
  0
VERTEX
  8
図枠
  5
449
 10
132.191
 20
-156.078
 30
0.000000
  70
    32
  0
VERTEX
  8
図枠
  5
44A
 10
132.202
 20
-156.089
 30
0.000000
  70
    32
  0
VERTEX
  8
図枠
  5
44B
 10
132.213
 20
-156.100
 30
0.000000
  70
    32
  0
VERTEX
  8
図枠
  5
44C
 10
132.224
 20
-156.111
 30
0.000000
  70
    32
  0
VERTEX
  8
図枠
  5
44D
 10
132.235
 20
-156.122
 30
0.000000
  70
    32
  0
VERTEX
  8
図枠
  5
44E
 10
132.246
 20
-156.133
 30
0.000000
  70
    32
  0
VERTEX
  8
図枠
  5
44F
 10
132.257
 20
-156.144
 30
0.000000
  70
    32
  0
VERTEX
  8
図枠
  5
450
 10
132.268
 20
-156.155
 30
0.000000
  70
    32
  0
VERTEX
  8
図枠
  5
451
 10
132.279
 20
-156.166
 30
0.000000
  70
    32
  0
VERTEX
  8
図枠
  5
452
 10
132.290
 20
-156.177
 30
0.000000
  70
    32
  0
VERTEX
  8
図枠
  5
453
 10
132.301
 20
-156.188
 30
0.000000
  70
    32
  0
VERTEX
  8
図枠
  5
454
 10
132.312
 20
-156.199
 30
0.000000
  70
    32
  0
VERTEX
  8
図枠
  5
455
 10
132.323
 20
-156.210
 30
0.000000
  70
    32
  0
VERTEX
  8
図枠
  5
456
 10
132.334
 20
-156.221
 30
0.000000
  70
    32
  0
VERTEX
  8
図枠
  5
457
 10
132.345
 20
-156.232
 30
0.000000
  70
    32
  0
VERTEX
  8
図枠
  5
458
 10
132.356
 20
-156.243
 30
0.000000
  70
    32
  0
VERTEX
  8
図枠
  5
459
 10
132.367
 20
-156.254
 30
0.000000
  70
    32
  0
VERTEX
  8
図枠
  5
45A
 10
132.378
 20
-156.265
 30
0.000000
  70
    32
  0
VERTEX
  8
図枠
  5
45B
 10
132.390
 20
-156.276
 30
0.000000
  70
    32
  0
VERTEX
  8
図枠
  5
45C
 10
132.401
 20
-156.287
 30
0.000000
  70
    32
  0
VERTEX
  8
図枠
  5
45D
 10
132.412
 20
-156.298
 30
0.000000
  70
    32
  0
VERTEX
  8
図枠
  5
45E
 10
132.423
 20
-156.309
 30
0.000000
  70
    32
  0
VERTEX
  8
図枠
  5
45F
 10
132.434
 20
-156.319
 30
0.000000
  70
    32
  0
VERTEX
  8
図枠
  5
460
 10
132.445
 20
-156.330
 30
0.000000
  70
    32
  0
VERTEX
  8
図枠
  5
461
 10
132.456
 20
-156.341
 30
0.000000
  70
    32
  0
VERTEX
  8
図枠
  5
462
 10
132.468
 20
-156.352
 30
0.000000
  70
    32
  0
VERTEX
  8
図枠
  5
463
 10
132.479
 20
-156.362
 30
0.000000
  70
    32
  0
VERTEX
  8
図枠
  5
464
 10
132.490
 20
-156.373
 30
0.000000
  70
    32
  0
VERTEX
  8
図枠
  5
465
 10
132.501
 20
-156.384
 30
0.000000
  70
    32
  0
VERTEX
  8
図枠
  5
466
 10
132.513
 20
-156.395
 30
0.000000
  70
    32
  0
VERTEX
  8
図枠
  5
467
 10
132.524
 20
-156.405
 30
0.000000
  70
    32
  0
VERTEX
  8
図枠
  5
468
 10
132.535
 20
-156.416
 30
0.000000
  70
    32
  0
VERTEX
  8
図枠
  5
469
 10
132.546
 20
-156.426
 30
0.000000
  70
    32
  0
VERTEX
  8
図枠
  5
46A
 10
132.558
 20
-156.437
 30
0.000000
  70
    32
  0
VERTEX
  8
図枠
  5
46B
 10
132.569
 20
-156.448
 30
0.000000
  70
    32
  0
VERTEX
  8
図枠
  5
46C
 10
132.580
 20
-156.458
 30
0.000000
  70
    32
  0
VERTEX
  8
図枠
  5
46D
 10
132.592
 20
-156.469
 30
0.000000
  70
    32
  0
VERTEX
  8
図枠
  5
46E
 10
132.603
 20
-156.479
 30
0.000000
  70
    32
  0
VERTEX
  8
図枠
  5
46F
 10
132.614
 20
-156.490
 30
0.000000
  70
    32
  0
VERTEX
  8
図枠
  5
470
 10
132.626
 20
-156.500
 30
0.000000
  70
    32
  0
VERTEX
  8
図枠
  5
471
 10
132.637
 20
-156.511
 30
0.000000
  70
    32
  0
VERTEX
  8
図枠
  5
472
 10
132.648
 20
-156.521
 30
0.000000
  70
    32
  0
VERTEX
  8
図枠
  5
473
 10
132.660
 20
-156.532
 30
0.000000
  70
    32
  0
VERTEX
  8
図枠
  5
474
 10
132.671
 20
-156.542
 30
0.000000
  70
    32
  0
VERTEX
  8
図枠
  5
475
 10
132.683
 20
-156.552
 30
0.000000
  70
    32
  0
SEQEND
  8
図枠
  5
476
  0
INSERT
  5
CE
  8
0
  6
CONTINUOUS
  2
*U42
 10
0.0
 20
0.0
 30
0.0
  0
ARC
  5
CF
  8
図枠
 10
114.35248476620001
 20
-156.89662252759999
 30
0.0
 40
4.7999999999999989
 50
270.0
 51
0.0
  0
LINE
  5
D0
  8
図枠
 10
107.9524847662
 20
-159.29662252759999
 30
0.0
 11
107.9524847662
 21
-161.6966225276
 31
0.0
  0
LINE
  5
D1
  8
図枠
 10
115.1524847662
 20
-153.6966225276
 30
0.0
 11
111.9524847662
 21
-153.6966225276
 31
0.0
  0
LINE
  5
D2
  8
図枠
 10
125.8094544632
 20
-161.6966225276
 30
0.0
 11
125.8094544632
 21
-159.29662252759999
 31
0.0
  0
LINE
  5
D3
  8
図枠
 10
111.9524847662
 20
-156.0966225276
 30
0.0
 11
115.1524847662
 21
-156.0966225276
 31
0.0
  0
LINE
  5
D4
  8
図枠
 10
107.9524847662
 20
-161.6966225276
 30
0.0
 11
114.35248476620001
 21
-161.6966225276
 31
0.0
  0
INSERT
  5
D5
  8
0
  6
CONTINUOUS
  2
*U43
 10
0.0
 20
0.0
 30
0.0
  0
INSERT
  5
D6
  8
0
  6
CONTINUOUS
  2
*U44
 10
0.0
 20
0.0
 30
0.0
  0
LINE
  5
D7
  8
図枠
 10
138.6094544632
 20
-152.89662252759999
 30
0.0
 11
140.20945446319999
 21
-150.49662252760001
 31
0.0
  0
CIRCLE
  5
D8
  8
図枠
 10
137.68608203420001
 20
-122.2528992746
 30
0.0
 40
2.3039999999999998
  0
POLYLINE
  8
図枠
  5
477
  66
     1
 10
0.000000
 20
0.000000
 30
0.000000
  70
     8
  0
VERTEX
  8
図枠
  5
478
 10
136.505
 20
-158.534
 30
0.000000
  70
    32
  0
VERTEX
  8
図枠
  5
479
 10
136.533
 20
-158.542
 30
0.000000
  70
    32
  0
VERTEX
  8
図枠
  5
47A
 10
136.561
 20
-158.550
 30
0.000000
  70
    32
  0
VERTEX
  8
図枠
  5
47B
 10
136.589
 20
-158.558
 30
0.000000
  70
    32
  0
VERTEX
  8
図枠
  5
47C
 10
136.617
 20
-158.566
 30
0.000000
  70
    32
  0
VERTEX
  8
図枠
  5
47D
 10
136.645
 20
-158.573
 30
0.000000
  70
    32
  0
VERTEX
  8
図枠
  5
47E
 10
136.673
 20
-158.581
 30
0.000000
  70
    32
  0
VERTEX
  8
図枠
  5
47F
 10
136.701
 20
-158.589
 30
0.000000
  70
    32
  0
VERTEX
  8
図枠
  5
480
 10
136.729
 20
-158.596
 30
0.000000
  70
    32
  0
VERTEX
  8
図枠
  5
481
 10
136.758
 20
-158.604
 30
0.000000
  70
    32
  0
VERTEX
  8
図枠
  5
482
 10
136.786
 20
-158.612
 30
0.000000
  70
    32
  0
VERTEX
  8
図枠
  5
483
 10
136.814
 20
-158.619
 30
0.000000
  70
    32
  0
VERTEX
  8
図枠
  5
484
 10
136.842
 20
-158.626
 30
0.000000
  70
    32
  0
VERTEX
  8
図枠
  5
485
 10
136.871
 20
-158.634
 30
0.000000
  70
    32
  0
VERTEX
  8
図枠
  5
486
 10
136.899
 20
-158.641
 30
0.000000
  70
    32
  0
VERTEX
  8
図枠
  5
487
 10
136.927
 20
-158.649
 30
0.000000
  70
    32
  0
VERTEX
  8
図枠
  5
488
 10
136.956
 20
-158.656
 30
0.000000
  70
    32
  0
VERTEX
  8
図枠
  5
489
 10
136.984
 20
-158.663
 30
0.000000
  70
    32
  0
VERTEX
  8
図枠
  5
48A
 10
137.013
 20
-158.670
 30
0.000000
  70
    32
  0
VERTEX
  8
図枠
  5
48B
 10
137.041
 20
-158.677
 30
0.000000
  70
    32
  0
VERTEX
  8
図枠
  5
48C
 10
137.069
 20
-158.685
 30
0.000000
  70
    32
  0
VERTEX
  8
図枠
  5
48D
 10
137.098
 20
-158.692
 30
0.000000
  70
    32
  0
VERTEX
  8
図枠
  5
48E
 10
137.126
 20
-158.699
 30
0.000000
  70
    32
  0
VERTEX
  8
図枠
  5
48F
 10
137.155
 20
-158.706
 30
0.000000
  70
    32
  0
VERTEX
  8
図枠
  5
490
 10
137.184
 20
-158.713
 30
0.000000
  70
    32
  0
VERTEX
  8
図枠
  5
491
 10
137.212
 20
-158.720
 30
0.000000
  70
    32
  0
VERTEX
  8
図枠
  5
492
 10
137.241
 20
-158.726
 30
0.000000
  70
    32
  0
VERTEX
  8
図枠
  5
493
 10
137.269
 20
-158.733
 30
0.000000
  70
    32
  0
VERTEX
  8
図枠
  5
494
 10
137.298
 20
-158.740
 30
0.000000
  70
    32
  0
VERTEX
  8
図枠
  5
495
 10
137.327
 20
-158.747
 30
0.000000
  70
    32
  0
VERTEX
  8
図枠
  5
496
 10
137.355
 20
-158.754
 30
0.000000
  70
    32
  0
VERTEX
  8
図枠
  5
497
 10
137.384
 20
-158.760
 30
0.000000
  70
    32
  0
VERTEX
  8
図枠
  5
498
 10
137.413
 20
-158.767
 30
0.000000
  70
    32
  0
VERTEX
  8
図枠
  5
499
 10
137.442
 20
-158.774
 30
0.000000
  70
    32
  0
VERTEX
  8
図枠
  5
49A
 10
137.471
 20
-158.780
 30
0.000000
  70
    32
  0
VERTEX
  8
図枠
  5
49B
 10
137.499
 20
-158.787
 30
0.000000
  70
    32
  0
VERTEX
  8
図枠
  5
49C
 10
137.528
 20
-158.793
 30
0.000000
  70
    32
  0
VERTEX
  8
図枠
  5
49D
 10
137.557
 20
-158.800
 30
0.000000
  70
    32
  0
VERTEX
  8
図枠
  5
49E
 10
137.586
 20
-158.806
 30
0.000000
  70
    32
  0
VERTEX
  8
図枠
  5
49F
 10
137.615
 20
-158.813
 30
0.000000
  70
    32
  0
VERTEX
  8
図枠
  5
4A0
 10
137.644
 20
-158.819
 30
0.000000
  70
    32
  0
VERTEX
  8
図枠
  5
4A1
 10
137.673
 20
-158.826
 30
0.000000
  70
    32
  0
VERTEX
  8
図枠
  5
4A2
 10
137.702
 20
-158.832
 30
0.000000
  70
    32
  0
VERTEX
  8
図枠
  5
4A3
 10
137.731
 20
-158.838
 30
0.000000
  70
    32
  0
VERTEX
  8
図枠
  5
4A4
 10
137.760
 20
-158.845
 30
0.000000
  70
    32
  0
VERTEX
  8
図枠
  5
4A5
 10
137.789
 20
-158.851
 30
0.000000
  70
    32
  0
VERTEX
  8
図枠
  5
4A6
 10
137.818
 20
-158.857
 30
0.000000
  70
    32
  0
VERTEX
  8
図枠
  5
4A7
 10
137.847
 20
-158.863
 30
0.000000
  70
    32
  0
VERTEX
  8
図枠
  5
4A8
 10
137.876
 20
-158.870
 30
0.000000
  70
    32
  0
VERTEX
  8
図枠
  5
4A9
 10
137.905
 20
-158.876
 30
0.000000
  70
    32
  0
VERTEX
  8
図枠
  5
4AA
 10
137.934
 20
-158.882
 30
0.000000
  70
    32
  0
VERTEX
  8
図枠
  5
4AB
 10
137.963
 20
-158.888
 30
0.000000
  70
    32
  0
VERTEX
  8
図枠
  5
4AC
 10
137.992
 20
-158.894
 30
0.000000
  70
    32
  0
VERTEX
  8
図枠
  5
4AD
 10
138.021
 20
-158.900
 30
0.000000
  70
    32
  0
VERTEX
  8
図枠
  5
4AE
 10
138.050
 20
-158.906
 30
0.000000
  70
    32
  0
VERTEX
  8
図枠
  5
4AF
 10
138.080
 20
-158.912
 30
0.000000
  70
    32
  0
VERTEX
  8
図枠
  5
4B0
 10
138.109
 20
-158.918
 30
0.000000
  70
    32
  0
VERTEX
  8
図枠
  5
4B1
 10
138.138
 20
-158.924
 30
0.000000
  70
    32
  0
VERTEX
  8
図枠
  5
4B2
 10
138.167
 20
-158.930
 30
0.000000
  70
    32
  0
VERTEX
  8
図枠
  5
4B3
 10
138.197
 20
-158.936
 30
0.000000
  70
    32
  0
VERTEX
  8
図枠
  5
4B4
 10
138.226
 20
-158.942
 30
0.000000
  70
    32
  0
VERTEX
  8
図枠
  5
4B5
 10
138.255
 20
-158.947
 30
0.000000
  70
    32
  0
VERTEX
  8
図枠
  5
4B6
 10
138.284
 20
-158.953
 30
0.000000
  70
    32
  0
VERTEX
  8
図枠
  5
4B7
 10
138.314
 20
-158.959
 30
0.000000
  70
    32
  0
VERTEX
  8
図枠
  5
4B8
 10
138.343
 20
-158.965
 30
0.000000
  70
    32
  0
VERTEX
  8
図枠
  5
4B9
 10
138.372
 20
-158.970
 30
0.000000
  70
    32
  0
VERTEX
  8
図枠
  5
4BA
 10
138.402
 20
-158.976
 30
0.000000
  70
    32
  0
VERTEX
  8
図枠
  5
4BB
 10
138.431
 20
-158.982
 30
0.000000
  70
    32
  0
VERTEX
  8
図枠
  5
4BC
 10
138.460
 20
-158.988
 30
0.000000
  70
    32
  0
VERTEX
  8
図枠
  5
4BD
 10
138.490
 20
-158.993
 30
0.000000
  70
    32
  0
VERTEX
  8
図枠
  5
4BE
 10
138.519
 20
-158.999
 30
0.000000
  70
    32
  0
VERTEX
  8
図枠
  5
4BF
 10
138.549
 20
-159.004
 30
0.000000
  70
    32
  0
VERTEX
  8
図枠
  5
4C0
 10
138.578
 20
-159.010
 30
0.000000
  70
    32
  0
VERTEX
  8
図枠
  5
4C1
 10
138.607
 20
-159.016
 30
0.000000
  70
    32
  0
VERTEX
  8
図枠
  5
4C2
 10
138.637
 20
-159.021
 30
0.000000
  70
    32
  0
VERTEX
  8
図枠
  5
4C3
 10
138.666
 20
-159.027
 30
0.000000
  70
    32
  0
VERTEX
  8
図枠
  5
4C4
 10
138.696
 20
-159.032
 30
0.000000
  70
    32
  0
VERTEX
  8
図枠
  5
4C5
 10
138.725
 20
-159.038
 30
0.000000
  70
    32
  0
VERTEX
  8
図枠
  5
4C6
 10
138.755
 20
-159.043
 30
0.000000
  70
    32
  0
VERTEX
  8
図枠
  5
4C7
 10
138.784
 20
-159.049
 30
0.000000
  70
    32
  0
VERTEX
  8
図枠
  5
4C8
 10
138.814
 20
-159.054
 30
0.000000
  70
    32
  0
VERTEX
  8
図枠
  5
4C9
 10
138.843
 20
-159.059
 30
0.000000
  70
    32
  0
VERTEX
  8
図枠
  5
4CA
 10
138.873
 20
-159.065
 30
0.000000
  70
    32
  0
VERTEX
  8
図枠
  5
4CB
 10
138.903
 20
-159.070
 30
0.000000
  70
    32
  0
VERTEX
  8
図枠
  5
4CC
 10
138.932
 20
-159.076
 30
0.000000
  70
    32
  0
VERTEX
  8
図枠
  5
4CD
 10
138.962
 20
-159.081
 30
0.000000
  70
    32
  0
VERTEX
  8
図枠
  5
4CE
 10
138.991
 20
-159.086
 30
0.000000
  70
    32
  0
VERTEX
  8
図枠
  5
4CF
 10
139.021
 20
-159.092
 30
0.000000
  70
    32
  0
VERTEX
  8
図枠
  5
4D0
 10
139.050
 20
-159.097
 30
0.000000
  70
    32
  0
VERTEX
  8
図枠
  5
4D1
 10
139.080
 20
-159.102
 30
0.000000
  70
    32
  0
VERTEX
  8
図枠
  5
4D2
 10
139.110
 20
-159.108
 30
0.000000
  70
    32
  0
VERTEX
  8
図枠
  5
4D3
 10
139.139
 20
-159.113
 30
0.000000
  70
    32
  0
VERTEX
  8
図枠
  5
4D4
 10
139.169
 20
-159.118
 30
0.000000
  70
    32
  0
VERTEX
  8
図枠
  5
4D5
 10
139.199
 20
-159.123
 30
0.000000
  70
    32
  0
VERTEX
  8
図枠
  5
4D6
 10
139.228
 20
-159.129
 30
0.000000
  70
    32
  0
VERTEX
  8
図枠
  5
4D7
 10
139.258
 20
-159.134
 30
0.000000
  70
    32
  0
VERTEX
  8
図枠
  5
4D8
 10
139.288
 20
-159.139
 30
0.000000
  70
    32
  0
VERTEX
  8
図枠
  5
4D9
 10
139.317
 20
-159.144
 30
0.000000
  70
    32
  0
VERTEX
  8
図枠
  5
4DA
 10
139.347
 20
-159.149
 30
0.000000
  70
    32
  0
VERTEX
  8
図枠
  5
4DB
 10
139.377
 20
-159.154
 30
0.000000
  70
    32
  0
VERTEX
  8
図枠
  5
4DC
 10
139.406
 20
-159.160
 30
0.000000
  70
    32
  0
VERTEX
  8
図枠
  5
4DD
 10
139.436
 20
-159.165
 30
0.000000
  70
    32
  0
VERTEX
  8
図枠
  5
4DE
 10
139.466
 20
-159.170
 30
0.000000
  70
    32
  0
VERTEX
  8
図枠
  5
4DF
 10
139.495
 20
-159.175
 30
0.000000
  70
    32
  0
VERTEX
  8
図枠
  5
4E0
 10
139.525
 20
-159.180
 30
0.000000
  70
    32
  0
VERTEX
  8
図枠
  5
4E1
 10
139.555
 20
-159.185
 30
0.000000
  70
    32
  0
VERTEX
  8
図枠
  5
4E2
 10
139.585
 20
-159.190
 30
0.000000
  70
    32
  0
VERTEX
  8
図枠
  5
4E3
 10
139.614
 20
-159.196
 30
0.000000
  70
    32
  0
VERTEX
  8
図枠
  5
4E4
 10
139.644
 20
-159.201
 30
0.000000
  70
    32
  0
VERTEX
  8
図枠
  5
4E5
 10
139.674
 20
-159.206
 30
0.000000
  70
    32
  0
VERTEX
  8
図枠
  5
4E6
 10
139.703
 20
-159.211
 30
0.000000
  70
    32
  0
VERTEX
  8
図枠
  5
4E7
 10
139.733
 20
-159.216
 30
0.000000
  70
    32
  0
VERTEX
  8
図枠
  5
4E8
 10
139.763
 20
-159.221
 30
0.000000
  70
    32
  0
VERTEX
  8
図枠
  5
4E9
 10
139.793
 20
-159.226
 30
0.000000
  70
    32
  0
VERTEX
  8
図枠
  5
4EA
 10
139.822
 20
-159.231
 30
0.000000
  70
    32
  0
VERTEX
  8
図枠
  5
4EB
 10
139.852
 20
-159.236
 30
0.000000
  70
    32
  0
VERTEX
  8
図枠
  5
4EC
 10
139.882
 20
-159.241
 30
0.000000
  70
    32
  0
VERTEX
  8
図枠
  5
4ED
 10
139.912
 20
-159.246
 30
0.000000
  70
    32
  0
VERTEX
  8
図枠
  5
4EE
 10
139.942
 20
-159.251
 30
0.000000
  70
    32
  0
VERTEX
  8
図枠
  5
4EF
 10
139.971
 20
-159.256
 30
0.000000
  70
    32
  0
VERTEX
  8
図枠
  5
4F0
 10
140.001
 20
-159.261
 30
0.000000
  70
    32
  0
VERTEX
  8
図枠
  5
4F1
 10
140.031
 20
-159.266
 30
0.000000
  70
    32
  0
VERTEX
  8
図枠
  5
4F2
 10
140.061
 20
-159.271
 30
0.000000
  70
    32
  0
VERTEX
  8
図枠
  5
4F3
 10
140.090
 20
-159.277
 30
0.000000
  70
    32
  0
VERTEX
  8
図枠
  5
4F4
 10
140.120
 20
-159.282
 30
0.000000
  70
    32
  0
VERTEX
  8
図枠
  5
4F5
 10
140.150
 20
-159.287
 30
0.000000
  70
    32
  0
VERTEX
  8
図枠
  5
4F6
 10
140.180
 20
-159.292
 30
0.000000
  70
    32
  0
VERTEX
  8
図枠
  5
4F7
 10
140.209
 20
-159.297
 30
0.000000
  70
    32
  0
SEQEND
  8
図枠
  5
4F8
  0
LINE
  5
DA
  8
図枠
  6
BORDER
 10
137.68608203420001
 20
-115.34089927460001
 30
0.0
 11
137.68608203420001
 21
-129.1648992746
 31
0.0
  0
LINE
  5
DB
  8
図枠
 10
125.8094544632
 20
-154.7273753835
 30
0.0
 11
125.8094544632
 21
-154.21199895550001
 31
0.0
  0
INSERT
  5
DC
  8
0
  6
CONTINUOUS
  2
*U45
 10
0.0
 20
0.0
 30
0.0
  0
LINE
  5
DD
  8
図枠
 10
49.558082034199998
 20
-122.2528992746
 30
0.0
 11
81.558082034199984
 21
-122.2528992746
 31
0.0
  0
LINE
  5
DE
  8
図枠
 10
121.5524847662
 20
-153.6966225276
 30
0.0
 11
119.1524847662
 21
-153.6966225276
 31
0.0
  0
LINE
  5
DF
  8
図枠
 10
107.9524847662
 20
-158.49662252760001
 30
0.0
 11
111.9524847662
 21
-158.49662252760001
 31
0.0
  0
LINE
  5
E0
  8
図枠
 10
45.558082034199991
 20
-80.752899274599997
 30
0.0
 11
45.558082034199991
 21
-113.7528992746
 31
0.0
  0
ARC
  5
E1
  8
図枠
 10
112.7524847662
 20
-156.89662252759999
 30
0.0
 40
2.399999999999999
 50
270.0
 51
0.0
  0
LINE
  5
E2
  8
図枠
 10
125.8094544632
 20
-150.49662252760001
 30
0.0
 11
125.8094544632
 21
-153.37662252760001
 31
0.0
  0
LINE
  5
E3
  8
図枠
 10
119.1524847662
 20
-153.6966225276
 30
0.0
 11
119.1524847662
 21
-152.89662252759999
 31
0.0
  0
LINE
  5
E4
  8
図枠
 10
107.9524847662
 20
-156.0966225276
 30
0.0
 11
107.71071866769999
 21
-156.0966225276
 31
0.0
  0
LINE
  5
E5
  8
図枠
 10
105.5580820342
 20
-130.7528992746
 30
0.0
 11
105.5580820342
 21
-147.7528992746
 31
0.0
  0
INSERT
  5
E6
  8
0
  6
CONTINUOUS
  2
*U46
 10
0.0
 20
0.0
 30
0.0
  0
INSERT
  5
E7
  8
0
  6
CONTINUOUS
  2
*U47
 10
0.0
 20
0.0
 30
0.0
  0
LINE
  5
E8
  8
図枠
 10
114.35248476620001
 20
-150.49662252760001
 30
0.0
 11
107.9524847662
 21
-150.49662252760001
 31
0.0
  0
LINE
  5
E9
  8
図枠
 10
111.9524847662
 20
-158.49662252760001
 30
0.0
 11
111.9524847662
 21
-156.0966225276
 31
0.0
  0
INSERT
  5
EA
  8
0
  6
CONTINUOUS
  2
*U48
 10
0.0
 20
0.0
 30
0.0
  0
INSERT
  5
EB
  8
0
  6
CONTINUOUS
  2
*U49
 10
0.0
 20
0.0
 30
0.0
  0
LINE
  5
EC
  8
図枠
 10
112.7524847662
 20
-159.29662252759999
 30
0.0
 11
107.9524847662
 21
-159.29662252759999
 31
0.0
  0
LINE
  5
ED
  8
図枠
 10
115.1524847662
 20
-150.49662252760001
 30
0.0
 11
115.1524847662
 21
-153.6966225276
 31
0.0
  0
LINE
  5
EE
  8
図枠
 10
125.5580820342
 20
-113.7528992746
 30
0.0
 11
125.5580820342
 21
-130.7528992746
 31
0.0
  0
LINE
  5
EF
  8
図枠
 10
125.8094544632
 20
-159.29662252759999
 30
0.0
 11
125.8094544632
 21
-161.6966225276
 31
0.0
  0
INSERT
  5
F0
  8
0
  6
CONTINUOUS
  2
*U50
 10
0.0
 20
0.0
 30
0.0
  0
LINE
  5
F1
  8
図枠
 10
45.558082034199991
 20
-80.752899274599997
 30
0.0
 11
45.558082034199991
 21
-113.7528992746
 31
0.0
  0
INSERT
  5
F2
  8
0
  6
CONTINUOUS
  2
*U51
 10
0.0
 20
0.0
 30
0.0
  0
LINE
  5
F3
  8
図枠
 10
49.558082034199998
 20
-139.2528992746
 30
0.0
 11
101.5580820342
 21
-139.2528992746
 31
0.0
  0
LINE
  5
F4
  8
図枠
 10
157.4350436567
 20
-117.64489927459999
 30
0.0
 11
157.4350436567
 21
-126.8608992746
 31
0.0
  0
INSERT
  5
F5
  8
0
  6
CONTINUOUS
  2
*U52
 10
0.0
 20
0.0
 30
0.0
  0
LINE
  5
F6
  8
図枠
 10
153.48407109749999
 20
-157.37662252760001
 30
0.0
 11
158.1574267005
 21
-157.37662252760001
 31
0.0
  0
LINE
  5
F7
  8
図枠
 10
150.47742670049999
 20
-162.49662252760001
 30
0.0
 11
149.8203600338
 21
-160.2566225276
 31
0.0
  0
LINE
  5
F8
  8
図枠
 10
148.21904365669999
 20
-124.5568992746
 30
0.0
 11
157.4350436567
 21
-126.8608992746
 31
0.0
  0
LINE
  5
F9
  8
図枠
 10
154.31283362420001
 20
-160.2566225276
 30
0.0
 11
158.1574267005
 21
-160.2566225276
 31
0.0
  0
LINE
  5
FA
  8
図枠
 10
158.1574267005
 20
-153.21662252760001
 30
0.0
 11
158.1574267005
 21
-156.0966225276
 31
0.0
  0
LINE
  5
FB
  8
図枠
 10
133.0675544499
 20
-156.1271359756999
 30
0.0
 11
132.68260115979999
 21
-156.5523173526
 31
0.0
  0
ARC
  5
FC
  8
図枠
 10
127.7294544632
 20
-153.21662252760001
 30
0.0
 40
6.0800000000000001
 50
331.39928138329998
 51
358.49204224580001
  0
POLYLINE
  8
図枠
  5
4F9
  66
     1
 10
0.000000
 20
0.000000
 30
0.000000
  70
     8
  0
VERTEX
  8
図枠
  5
4FA
 10
134.544
 20
-160.315
 30
0.000000
  70
    32
  0
VERTEX
  8
図枠
  5
4FB
 10
134.587
 20
-160.328
 30
0.000000
  70
    32
  0
VERTEX
  8
図枠
  5
4FC
 10
134.630
 20
-160.342
 30
0.000000
  70
    32
  0
VERTEX
  8
図枠
  5
4FD
 10
134.673
 20
-160.356
 30
0.000000
  70
    32
  0
VERTEX
  8
図枠
  5
4FE
 10
134.716
 20
-160.369
 30
0.000000
  70
    32
  0
VERTEX
  8
図枠
  5
4FF
 10
134.759
 20
-160.383
 30
0.000000
  70
    32
  0
VERTEX
  8
図枠
  5
500
 10
134.802
 20
-160.396
 30
0.000000
  70
    32
  0
VERTEX
  8
図枠
  5
501
 10
134.846
 20
-160.409
 30
0.000000
  70
    32
  0
VERTEX
  8
図枠
  5
502
 10
134.889
 20
-160.423
 30
0.000000
  70
    32
  0
VERTEX
  8
図枠
  5
503
 10
134.932
 20
-160.436
 30
0.000000
  70
    32
  0
VERTEX
  8
図枠
  5
504
 10
134.976
 20
-160.449
 30
0.000000
  70
    32
  0
VERTEX
  8
図枠
  5
505
 10
135.019
 20
-160.462
 30
0.000000
  70
    32
  0
VERTEX
  8
図枠
  5
506
 10
135.063
 20
-160.475
 30
0.000000
  70
    32
  0
VERTEX
  8
図枠
  5
507
 10
135.106
 20
-160.488
 30
0.000000
  70
    32
  0
VERTEX
  8
図枠
  5
508
 10
135.150
 20
-160.501
 30
0.000000
  70
    32
  0
VERTEX
  8
図枠
  5
509
 10
135.193
 20
-160.514
 30
0.000000
  70
    32
  0
VERTEX
  8
図枠
  5
50A
 10
135.237
 20
-160.527
 30
0.000000
  70
    32
  0
VERTEX
  8
図枠
  5
50B
 10
135.280
 20
-160.539
 30
0.000000
  70
    32
  0
VERTEX
  8
図枠
  5
50C
 10
135.324
 20
-160.552
 30
0.000000
  70
    32
  0
VERTEX
  8
図枠
  5
50D
 10
135.368
 20
-160.565
 30
0.000000
  70
    32
  0
VERTEX
  8
図枠
  5
50E
 10
135.412
 20
-160.577
 30
0.000000
  70
    32
  0
VERTEX
  8
図枠
  5
50F
 10
135.455
 20
-160.590
 30
0.000000
  70
    32
  0
VERTEX
  8
図枠
  5
510
 10
135.499
 20
-160.602
 30
0.000000
  70
    32
  0
VERTEX
  8
図枠
  5
511
 10
135.543
 20
-160.614
 30
0.000000
  70
    32
  0
VERTEX
  8
図枠
  5
512
 10
135.587
 20
-160.627
 30
0.000000
  70
    32
  0
VERTEX
  8
図枠
  5
513
 10
135.631
 20
-160.639
 30
0.000000
  70
    32
  0
VERTEX
  8
図枠
  5
514
 10
135.674
 20
-160.651
 30
0.000000
  70
    32
  0
VERTEX
  8
図枠
  5
515
 10
135.718
 20
-160.663
 30
0.000000
  70
    32
  0
VERTEX
  8
図枠
  5
516
 10
135.762
 20
-160.675
 30
0.000000
  70
    32
  0
VERTEX
  8
図枠
  5
517
 10
135.806
 20
-160.688
 30
0.000000
  70
    32
  0
VERTEX
  8
図枠
  5
518
 10
135.850
 20
-160.700
 30
0.000000
  70
    32
  0
VERTEX
  8
図枠
  5
519
 10
135.894
 20
-160.711
 30
0.000000
  70
    32
  0
VERTEX
  8
図枠
  5
51A
 10
135.938
 20
-160.723
 30
0.000000
  70
    32
  0
VERTEX
  8
図枠
  5
51B
 10
135.983
 20
-160.735
 30
0.000000
  70
    32
  0
VERTEX
  8
図枠
  5
51C
 10
136.027
 20
-160.747
 30
0.000000
  70
    32
  0
VERTEX
  8
図枠
  5
51D
 10
136.071
 20
-160.759
 30
0.000000
  70
    32
  0
VERTEX
  8
図枠
  5
51E
 10
136.115
 20
-160.770
 30
0.000000
  70
    32
  0
VERTEX
  8
図枠
  5
51F
 10
136.159
 20
-160.782
 30
0.000000
  70
    32
  0
VERTEX
  8
図枠
  5
520
 10
136.203
 20
-160.794
 30
0.000000
  70
    32
  0
VERTEX
  8
図枠
  5
521
 10
136.248
 20
-160.805
 30
0.000000
  70
    32
  0
VERTEX
  8
図枠
  5
522
 10
136.292
 20
-160.817
 30
0.000000
  70
    32
  0
VERTEX
  8
図枠
  5
523
 10
136.336
 20
-160.828
 30
0.000000
  70
    32
  0
VERTEX
  8
図枠
  5
524
 10
136.381
 20
-160.839
 30
0.000000
  70
    32
  0
VERTEX
  8
図枠
  5
525
 10
136.425
 20
-160.851
 30
0.000000
  70
    32
  0
VERTEX
  8
図枠
  5
526
 10
136.469
 20
-160.862
 30
0.000000
  70
    32
  0
VERTEX
  8
図枠
  5
527
 10
136.514
 20
-160.873
 30
0.000000
  70
    32
  0
VERTEX
  8
図枠
  5
528
 10
136.558
 20
-160.885
 30
0.000000
  70
    32
  0
VERTEX
  8
図枠
  5
529
 10
136.603
 20
-160.896
 30
0.000000
  70
    32
  0
VERTEX
  8
図枠
  5
52A
 10
136.647
 20
-160.907
 30
0.000000
  70
    32
  0
VERTEX
  8
図枠
  5
52B
 10
136.692
 20
-160.918
 30
0.000000
  70
    32
  0
VERTEX
  8
図枠
  5
52C
 10
136.736
 20
-160.929
 30
0.000000
  70
    32
  0
VERTEX
  8
図枠
  5
52D
 10
136.781
 20
-160.940
 30
0.000000
  70
    32
  0
VERTEX
  8
図枠
  5
52E
 10
136.825
 20
-160.951
 30
0.000000
  70
    32
  0
VERTEX
  8
図枠
  5
52F
 10
136.870
 20
-160.962
 30
0.000000
  70
    32
  0
VERTEX
  8
図枠
  5
530
 10
136.914
 20
-160.973
 30
0.000000
  70
    32
  0
VERTEX
  8
図枠
  5
531
 10
136.959
 20
-160.984
 30
0.000000
  70
    32
  0
VERTEX
  8
図枠
  5
532
 10
137.004
 20
-160.995
 30
0.000000
  70
    32
  0
VERTEX
  8
図枠
  5
533
 10
137.048
 20
-161.005
 30
0.000000
  70
    32
  0
VERTEX
  8
図枠
  5
534
 10
137.093
 20
-161.016
 30
0.000000
  70
    32
  0
VERTEX
  8
図枠
  5
535
 10
137.138
 20
-161.027
 30
0.000000
  70
    32
  0
VERTEX
  8
図枠
  5
536
 10
137.183
 20
-161.037
 30
0.000000
  70
    32
  0
VERTEX
  8
図枠
  5
537
 10
137.227
 20
-161.048
 30
0.000000
  70
    32
  0
VERTEX
  8
図枠
  5
538
 10
137.272
 20
-161.059
 30
0.000000
  70
    32
  0
VERTEX
  8
図枠
  5
539
 10
137.317
 20
-161.069
 30
0.000000
  70
    32
  0
VERTEX
  8
図枠
  5
53A
 10
137.362
 20
-161.080
 30
0.000000
  70
    32
  0
VERTEX
  8
図枠
  5
53B
 10
137.407
 20
-161.090
 30
0.000000
  70
    32
  0
VERTEX
  8
図枠
  5
53C
 10
137.451
 20
-161.101
 30
0.000000
  70
    32
  0
VERTEX
  8
図枠
  5
53D
 10
137.496
 20
-161.111
 30
0.000000
  70
    32
  0
VERTEX
  8
図枠
  5
53E
 10
137.541
 20
-161.121
 30
0.000000
  70
    32
  0
VERTEX
  8
図枠
  5
53F
 10
137.586
 20
-161.132
 30
0.000000
  70
    32
  0
VERTEX
  8
図枠
  5
540
 10
137.631
 20
-161.142
 30
0.000000
  70
    32
  0
VERTEX
  8
図枠
  5
541
 10
137.676
 20
-161.152
 30
0.000000
  70
    32
  0
VERTEX
  8
図枠
  5
542
 10
137.721
 20
-161.163
 30
0.000000
  70
    32
  0
VERTEX
  8
図枠
  5
543
 10
137.766
 20
-161.173
 30
0.000000
  70
    32
  0
VERTEX
  8
図枠
  5
544
 10
137.811
 20
-161.183
 30
0.000000
  70
    32
  0
VERTEX
  8
図枠
  5
545
 10
137.856
 20
-161.193
 30
0.000000
  70
    32
  0
VERTEX
  8
図枠
  5
546
 10
137.901
 20
-161.203
 30
0.000000
  70
    32
  0
VERTEX
  8
図枠
  5
547
 10
137.946
 20
-161.214
 30
0.000000
  70
    32
  0
VERTEX
  8
図枠
  5
548
 10
137.991
 20
-161.224
 30
0.000000
  70
    32
  0
VERTEX
  8
図枠
  5
549
 10
138.036
 20
-161.234
 30
0.000000
  70
    32
  0
VERTEX
  8
図枠
  5
54A
 10
138.081
 20
-161.244
 30
0.000000
  70
    32
  0
VERTEX
  8
図枠
  5
54B
 10
138.126
 20
-161.254
 30
0.000000
  70
    32
  0
VERTEX
  8
図枠
  5
54C
 10
138.171
 20
-161.264
 30
0.000000
  70
    32
  0
VERTEX
  8
図枠
  5
54D
 10
138.216
 20
-161.274
 30
0.000000
  70
    32
  0
VERTEX
  8
図枠
  5
54E
 10
138.261
 20
-161.284
 30
0.000000
  70
    32
  0
VERTEX
  8
図枠
  5
54F
 10
138.306
 20
-161.294
 30
0.000000
  70
    32
  0
VERTEX
  8
図枠
  5
550
 10
138.352
 20
-161.304
 30
0.000000
  70
    32
  0
VERTEX
  8
図枠
  5
551
 10
138.397
 20
-161.313
 30
0.000000
  70
    32
  0
VERTEX
  8
図枠
  5
552
 10
138.442
 20
-161.323
 30
0.000000
  70
    32
  0
VERTEX
  8
図枠
  5
553
 10
138.487
 20
-161.333
 30
0.000000
  70
    32
  0
VERTEX
  8
図枠
  5
554
 10
138.532
 20
-161.343
 30
0.000000
  70
    32
  0
VERTEX
  8
図枠
  5
555
 10
138.578
 20
-161.353
 30
0.000000
  70
    32
  0
VERTEX
  8
図枠
  5
556
 10
138.623
 20
-161.362
 30
0.000000
  70
    32
  0
VERTEX
  8
図枠
  5
557
 10
138.668
 20
-161.372
 30
0.000000
  70
    32
  0
VERTEX
  8
図枠
  5
558
 10
138.713
 20
-161.382
 30
0.000000
  70
    32
  0
VERTEX
  8
図枠
  5
559
 10
138.758
 20
-161.392
 30
0.000000
  70
    32
  0
VERTEX
  8
図枠
  5
55A
 10
138.804
 20
-161.401
 30
0.000000
  70
    32
  0
VERTEX
  8
図枠
  5
55B
 10
138.849
 20
-161.411
 30
0.000000
  70
    32
  0
VERTEX
  8
図枠
  5
55C
 10
138.894
 20
-161.421
 30
0.000000
  70
    32
  0
VERTEX
  8
図枠
  5
55D
 10
138.939
 20
-161.430
 30
0.000000
  70
    32
  0
VERTEX
  8
図枠
  5
55E
 10
138.985
 20
-161.440
 30
0.000000
  70
    32
  0
VERTEX
  8
図枠
  5
55F
 10
139.030
 20
-161.450
 30
0.000000
  70
    32
  0
VERTEX
  8
図枠
  5
560
 10
139.075
 20
-161.459
 30
0.000000
  70
    32
  0
VERTEX
  8
図枠
  5
561
 10
139.121
 20
-161.469
 30
0.000000
  70
    32
  0
VERTEX
  8
図枠
  5
562
 10
139.166
 20
-161.478
 30
0.000000
  70
    32
  0
VERTEX
  8
図枠
  5
563
 10
139.211
 20
-161.488
 30
0.000000
  70
    32
  0
VERTEX
  8
図枠
  5
564
 10
139.257
 20
-161.498
 30
0.000000
  70
    32
  0
VERTEX
  8
図枠
  5
565
 10
139.302
 20
-161.507
 30
0.000000
  70
    32
  0
VERTEX
  8
図枠
  5
566
 10
139.347
 20
-161.517
 30
0.000000
  70
    32
  0
VERTEX
  8
図枠
  5
567
 10
139.393
 20
-161.526
 30
0.000000
  70
    32
  0
VERTEX
  8
図枠
  5
568
 10
139.438
 20
-161.536
 30
0.000000
  70
    32
  0
VERTEX
  8
図枠
  5
569
 10
139.483
 20
-161.545
 30
0.000000
  70
    32
  0
VERTEX
  8
図枠
  5
56A
 10
139.529
 20
-161.555
 30
0.000000
  70
    32
  0
VERTEX
  8
図枠
  5
56B
 10
139.574
 20
-161.564
 30
0.000000
  70
    32
  0
VERTEX
  8
図枠
  5
56C
 10
139.619
 20
-161.574
 30
0.000000
  70
    32
  0
VERTEX
  8
図枠
  5
56D
 10
139.665
 20
-161.583
 30
0.000000
  70
    32
  0
VERTEX
  8
図枠
  5
56E
 10
139.710
 20
-161.593
 30
0.000000
  70
    32
  0
VERTEX
  8
図枠
  5
56F
 10
139.756
 20
-161.602
 30
0.000000
  70
    32
  0
VERTEX
  8
図枠
  5
570
 10
139.801
 20
-161.612
 30
0.000000
  70
    32
  0
VERTEX
  8
図枠
  5
571
 10
139.846
 20
-161.621
 30
0.000000
  70
    32
  0
VERTEX
  8
図枠
  5
572
 10
139.892
 20
-161.631
 30
0.000000
  70
    32
  0
VERTEX
  8
図枠
  5
573
 10
139.937
 20
-161.640
 30
0.000000
  70
    32
  0
VERTEX
  8
図枠
  5
574
 10
139.982
 20
-161.649
 30
0.000000
  70
    32
  0
VERTEX
  8
図枠
  5
575
 10
140.028
 20
-161.659
 30
0.000000
  70
    32
  0
VERTEX
  8
図枠
  5
576
 10
140.073
 20
-161.668
 30
0.000000
  70
    32
  0
VERTEX
  8
図枠
  5
577
 10
140.119
 20
-161.678
 30
0.000000
  70
    32
  0
VERTEX
  8
図枠
  5
578
 10
140.164
 20
-161.687
 30
0.000000
  70
    32
  0
VERTEX
  8
図枠
  5
579
 10
140.209
 20
-161.697
 30
0.000000
  70
    32
  0
SEQEND
  8
図枠
  5
57A
  0
LINE
  5
FE
  8
図枠
 10
140.20945446319999
 20
-150.49662252760001
 30
0.0
 11
125.8094544632
 21
-150.49662252760001
 31
0.0
  0
LINE
  5
FF
  8
図枠
 10
132.20945446319999
 20
-154.21199895550001
 30
0.0
 11
131.30435778329999
 21
-155.11709563540001
 31
0.0
  0
ARC
  5
100
  8
図枠
 10
129.80945446320001
 20
-152.89662252759999
 30
0.0
 40
8.8000000000000007
 50
270.0
 51
302.54495885400001
  0
LINE
  5
101
  8
図枠
 10
125.8094544632
 20
-154.21199895550001
 30
0.0
 11
132.20945446319999
 21
-154.21199895550001
 31
0.0
  0
POLYLINE
  8
図枠
  5
57B
  66
     1
 10
0.000000
 20
0.000000
 30
0.000000
  70
     8
  0
VERTEX
  8
図枠
  5
57C
 10
125.809
 20
-154.727
 30
0.000000
  70
    32
  0
VERTEX
  8
図枠
  5
57D
 10
125.838
 20
-154.754
 30
0.000000
  70
    32
  0
VERTEX
  8
図枠
  5
57E
 10
125.867
 20
-154.781
 30
0.000000
  70
    32
  0
VERTEX
  8
図枠
  5
57F
 10
125.896
 20
-154.807
 30
0.000000
  70
    32
  0
VERTEX
  8
図枠
  5
580
 10
125.925
 20
-154.834
 30
0.000000
  70
    32
  0
VERTEX
  8
図枠
  5
581
 10
125.954
 20
-154.860
 30
0.000000
  70
    32
  0
VERTEX
  8
図枠
  5
582
 10
125.982
 20
-154.887
 30
0.000000
  70
    32
  0
VERTEX
  8
図枠
  5
583
 10
126.011
 20
-154.913
 30
0.000000
  70
    32
  0
VERTEX
  8
図枠
  5
584
 10
126.040
 20
-154.940
 30
0.000000
  70
    32
  0
VERTEX
  8
図枠
  5
585
 10
126.069
 20
-154.966
 30
0.000000
  70
    32
  0
VERTEX
  8
図枠
  5
586
 10
126.098
 20
-154.993
 30
0.000000
  70
    32
  0
VERTEX
  8
図枠
  5
587
 10
126.127
 20
-155.019
 30
0.000000
  70
    32
  0
VERTEX
  8
図枠
  5
588
 10
126.155
 20
-155.046
 30
0.000000
  70
    32
  0
VERTEX
  8
図枠
  5
589
 10
126.184
 20
-155.073
 30
0.000000
  70
    32
  0
VERTEX
  8
図枠
  5
58A
 10
126.213
 20
-155.099
 30
0.000000
  70
    32
  0
VERTEX
  8
図枠
  5
58B
 10
126.242
 20
-155.126
 30
0.000000
  70
    32
  0
VERTEX
  8
図枠
  5
58C
 10
126.271
 20
-155.152
 30
0.000000
  70
    32
  0
VERTEX
  8
図枠
  5
58D
 10
126.300
 20
-155.179
 30
0.000000
  70
    32
  0
VERTEX
  8
図枠
  5
58E
 10
126.328
 20
-155.205
 30
0.000000
  70
    32
  0
VERTEX
  8
図枠
  5
58F
 10
126.357
 20
-155.231
 30
0.000000
  70
    32
  0
VERTEX
  8
図枠
  5
590
 10
126.386
 20
-155.258
 30
0.000000
  70
    32
  0
VERTEX
  8
図枠
  5
591
 10
126.415
 20
-155.284
 30
0.000000
  70
    32
  0
VERTEX
  8
図枠
  5
592
 10
126.444
 20
-155.311
 30
0.000000
  70
    32
  0
VERTEX
  8
図枠
  5
593
 10
126.473
 20
-155.337
 30
0.000000
  70
    32
  0
VERTEX
  8
図枠
  5
594
 10
126.502
 20
-155.364
 30
0.000000
  70
    32
  0
VERTEX
  8
図枠
  5
595
 10
126.531
 20
-155.390
 30
0.000000
  70
    32
  0
VERTEX
  8
図枠
  5
596
 10
126.560
 20
-155.416
 30
0.000000
  70
    32
  0
VERTEX
  8
図枠
  5
597
 10
126.589
 20
-155.443
 30
0.000000
  70
    32
  0
VERTEX
  8
図枠
  5
598
 10
126.617
 20
-155.469
 30
0.000000
  70
    32
  0
VERTEX
  8
図枠
  5
599
 10
126.646
 20
-155.495
 30
0.000000
  70
    32
  0
VERTEX
  8
図枠
  5
59A
 10
126.675
 20
-155.522
 30
0.000000
  70
    32
  0
VERTEX
  8
図枠
  5
59B
 10
126.704
 20
-155.548
 30
0.000000
  70
    32
  0
VERTEX
  8
図枠
  5
59C
 10
126.733
 20
-155.574
 30
0.000000
  70
    32
  0
VERTEX
  8
図枠
  5
59D
 10
126.762
 20
-155.601
 30
0.000000
  70
    32
  0
VERTEX
  8
図枠
  5
59E
 10
126.791
 20
-155.627
 30
0.000000
  70
    32
  0
VERTEX
  8
図枠
  5
59F
 10
126.820
 20
-155.653
 30
0.000000
  70
    32
  0
VERTEX
  8
図枠
  5
5A0
 10
126.849
 20
-155.679
 30
0.000000
  70
    32
  0
VERTEX
  8
図枠
  5
5A1
 10
126.878
 20
-155.706
 30
0.000000
  70
    32
  0
VERTEX
  8
図枠
  5
5A2
 10
126.907
 20
-155.732
 30
0.000000
  70
    32
  0
VERTEX
  8
図枠
  5
5A3
 10
126.936
 20
-155.758
 30
0.000000
  70
    32
  0
VERTEX
  8
図枠
  5
5A4
 10
126.965
 20
-155.784
 30
0.000000
  70
    32
  0
VERTEX
  8
図枠
  5
5A5
 10
126.994
 20
-155.810
 30
0.000000
  70
    32
  0
VERTEX
  8
図枠
  5
5A6
 10
127.024
 20
-155.836
 30
0.000000
  70
    32
  0
VERTEX
  8
図枠
  5
5A7
 10
127.053
 20
-155.862
 30
0.000000
  70
    32
  0
VERTEX
  8
図枠
  5
5A8
 10
127.082
 20
-155.888
 30
0.000000
  70
    32
  0
VERTEX
  8
図枠
  5
5A9
 10
127.111
 20
-155.914
 30
0.000000
  70
    32
  0
VERTEX
  8
図枠
  5
5AA
 10
127.140
 20
-155.940
 30
0.000000
  70
    32
  0
VERTEX
  8
図枠
  5
5AB
 10
127.169
 20
-155.966
 30
0.000000
  70
    32
  0
VERTEX
  8
図枠
  5
5AC
 10
127.198
 20
-155.992
 30
0.000000
  70
    32
  0
VERTEX
  8
図枠
  5
5AD
 10
127.227
 20
-156.018
 30
0.000000
  70
    32
  0
VERTEX
  8
図枠
  5
5AE
 10
127.257
 20
-156.044
 30
0.000000
  70
    32
  0
VERTEX
  8
図枠
  5
5AF
 10
127.286
 20
-156.070
 30
0.000000
  70
    32
  0
VERTEX
  8
図枠
  5
5B0
 10
127.315
 20
-156.096
 30
0.000000
  70
    32
  0
VERTEX
  8
図枠
  5
5B1
 10
127.344
 20
-156.122
 30
0.000000
  70
    32
  0
VERTEX
  8
図枠
  5
5B2
 10
127.373
 20
-156.147
 30
0.000000
  70
    32
  0
VERTEX
  8
図枠
  5
5B3
 10
127.403
 20
-156.173
 30
0.000000
  70
    32
  0
VERTEX
  8
図枠
  5
5B4
 10
127.432
 20
-156.199
 30
0.000000
  70
    32
  0
VERTEX
  8
図枠
  5
5B5
 10
127.461
 20
-156.224
 30
0.000000
  70
    32
  0
VERTEX
  8
図枠
  5
5B6
 10
127.491
 20
-156.250
 30
0.000000
  70
    32
  0
VERTEX
  8
図枠
  5
5B7
 10
127.520
 20
-156.276
 30
0.000000
  70
    32
  0
VERTEX
  8
図枠
  5
5B8
 10
127.549
 20
-156.301
 30
0.000000
  70
    32
  0
VERTEX
  8
図枠
  5
5B9
 10
127.579
 20
-156.327
 30
0.000000
  70
    32
  0
VERTEX
  8
図枠
  5
5BA
 10
127.608
 20
-156.352
 30
0.000000
  70
    32
  0
VERTEX
  8
図枠
  5
5BB
 10
127.637
 20
-156.378
 30
0.000000
  70
    32
  0
VERTEX
  8
図枠
  5
5BC
 10
127.667
 20
-156.403
 30
0.000000
  70
    32
  0
VERTEX
  8
図枠
  5
5BD
 10
127.696
 20
-156.429
 30
0.000000
  70
    32
  0
VERTEX
  8
図枠
  5
5BE
 10
127.726
 20
-156.454
 30
0.000000
  70
    32
  0
VERTEX
  8
図枠
  5
5BF
 10
127.755
 20
-156.479
 30
0.000000
  70
    32
  0
VERTEX
  8
図枠
  5
5C0
 10
127.785
 20
-156.505
 30
0.000000
  70
    32
  0
VERTEX
  8
図枠
  5
5C1
 10
127.814
 20
-156.530
 30
0.000000
  70
    32
  0
VERTEX
  8
図枠
  5
5C2
 10
127.844
 20
-156.555
 30
0.000000
  70
    32
  0
VERTEX
  8
図枠
  5
5C3
 10
127.873
 20
-156.580
 30
0.000000
  70
    32
  0
VERTEX
  8
図枠
  5
5C4
 10
127.903
 20
-156.606
 30
0.000000
  70
    32
  0
VERTEX
  8
図枠
  5
5C5
 10
127.933
 20
-156.631
 30
0.000000
  70
    32
  0
VERTEX
  8
図枠
  5
5C6
 10
127.962
 20
-156.656
 30
0.000000
  70
    32
  0
VERTEX
  8
図枠
  5
5C7
 10
127.992
 20
-156.681
 30
0.000000
  70
    32
  0
VERTEX
  8
図枠
  5
5C8
 10
128.022
 20
-156.706
 30
0.000000
  70
    32
  0
VERTEX
  8
図枠
  5
5C9
 10
128.051
 20
-156.731
 30
0.000000
  70
    32
  0
VERTEX
  8
図枠
  5
5CA
 10
128.081
 20
-156.756
 30
0.000000
  70
    32
  0
VERTEX
  8
図枠
  5
5CB
 10
128.111
 20
-156.781
 30
0.000000
  70
    32
  0
VERTEX
  8
図枠
  5
5CC
 10
128.140
 20
-156.805
 30
0.000000
  70
    32
  0
VERTEX
  8
図枠
  5
5CD
 10
128.170
 20
-156.830
 30
0.000000
  70
    32
  0
VERTEX
  8
図枠
  5
5CE
 10
128.200
 20
-156.855
 30
0.000000
  70
    32
  0
VERTEX
  8
図枠
  5
5CF
 10
128.230
 20
-156.880
 30
0.000000
  70
    32
  0
VERTEX
  8
図枠
  5
5D0
 10
128.260
 20
-156.904
 30
0.000000
  70
    32
  0
VERTEX
  8
図枠
  5
5D1
 10
128.290
 20
-156.929
 30
0.000000
  70
    32
  0
VERTEX
  8
図枠
  5
5D2
 10
128.320
 20
-156.953
 30
0.000000
  70
    32
  0
VERTEX
  8
図枠
  5
5D3
 10
128.349
 20
-156.978
 30
0.000000
  70
    32
  0
VERTEX
  8
図枠
  5
5D4
 10
128.379
 20
-157.002
 30
0.000000
  70
    32
  0
VERTEX
  8
図枠
  5
5D5
 10
128.409
 20
-157.027
 30
0.000000
  70
    32
  0
VERTEX
  8
図枠
  5
5D6
 10
128.439
 20
-157.051
 30
0.000000
  70
    32
  0
VERTEX
  8
図枠
  5
5D7
 10
128.469
 20
-157.075
 30
0.000000
  70
    32
  0
VERTEX
  8
図枠
  5
5D8
 10
128.500
 20
-157.100
 30
0.000000
  70
    32
  0
VERTEX
  8
図枠
  5
5D9
 10
128.530
 20
-157.124
 30
0.000000
  70
    32
  0
VERTEX
  8
図枠
  5
5DA
 10
128.560
 20
-157.148
 30
0.000000
  70
    32
  0
VERTEX
  8
図枠
  5
5DB
 10
128.590
 20
-157.172
 30
0.000000
  70
    32
  0
VERTEX
  8
図枠
  5
5DC
 10
128.620
 20
-157.196
 30
0.000000
  70
    32
  0
VERTEX
  8
図枠
  5
5DD
 10
128.650
 20
-157.220
 30
0.000000
  70
    32
  0
VERTEX
  8
図枠
  5
5DE
 10
128.681
 20
-157.244
 30
0.000000
  70
    32
  0
VERTEX
  8
図枠
  5
5DF
 10
128.711
 20
-157.268
 30
0.000000
  70
    32
  0
VERTEX
  8
図枠
  5
5E0
 10
128.741
 20
-157.292
 30
0.000000
  70
    32
  0
VERTEX
  8
図枠
  5
5E1
 10
128.771
 20
-157.315
 30
0.000000
  70
    32
  0
VERTEX
  8
図枠
  5
5E2
 10
128.802
 20
-157.339
 30
0.000000
  70
    32
  0
VERTEX
  8
図枠
  5
5E3
 10
128.832
 20
-157.363
 30
0.000000
  70
    32
  0
VERTEX
  8
図枠
  5
5E4
 10
128.863
 20
-157.386
 30
0.000000
  70
    32
  0
VERTEX
  8
図枠
  5
5E5
 10
128.893
 20
-157.410
 30
0.000000
  70
    32
  0
VERTEX
  8
図枠
  5
5E6
 10
128.924
 20
-157.433
 30
0.000000
  70
    32
  0
VERTEX
  8
図枠
  5
5E7
 10
128.954
 20
-157.457
 30
0.000000
  70
    32
  0
VERTEX
  8
図枠
  5
5E8
 10
128.985
 20
-157.480
 30
0.000000
  70
    32
  0
VERTEX
  8
図枠
  5
5E9
 10
129.015
 20
-157.504
 30
0.000000
  70
    32
  0
VERTEX
  8
図枠
  5
5EA
 10
129.046
 20
-157.527
 30
0.000000
  70
    32
  0
VERTEX
  8
図枠
  5
5EB
 10
129.076
 20
-157.550
 30
0.000000
  70
    32
  0
VERTEX
  8
図枠
  5
5EC
 10
129.107
 20
-157.573
 30
0.000000
  70
    32
  0
VERTEX
  8
図枠
  5
5ED
 10
129.138
 20
-157.596
 30
0.000000
  70
    32
  0
VERTEX
  8
図枠
  5
5EE
 10
129.169
 20
-157.619
 30
0.000000
  70
    32
  0
VERTEX
  8
図枠
  5
5EF
 10
129.199
 20
-157.642
 30
0.000000
  70
    32
  0
VERTEX
  8
図枠
  5
5F0
 10
129.230
 20
-157.665
 30
0.000000
  70
    32
  0
VERTEX
  8
図枠
  5
5F1
 10
129.261
 20
-157.688
 30
0.000000
  70
    32
  0
VERTEX
  8
図枠
  5
5F2
 10
129.292
 20
-157.711
 30
0.000000
  70
    32
  0
VERTEX
  8
図枠
  5
5F3
 10
129.323
 20
-157.733
 30
0.000000
  70
    32
  0
VERTEX
  8
図枠
  5
5F4
 10
129.354
 20
-157.756
 30
0.000000
  70
    32
  0
VERTEX
  8
図枠
  5
5F5
 10
129.385
 20
-157.778
 30
0.000000
  70
    32
  0
VERTEX
  8
図枠
  5
5F6
 10
129.416
 20
-157.801
 30
0.000000
  70
    32
  0
VERTEX
  8
図枠
  5
5F7
 10
129.447
 20
-157.823
 30
0.000000
  70
    32
  0
VERTEX
  8
図枠
  5
5F8
 10
129.478
 20
-157.846
 30
0.000000
  70
    32
  0
VERTEX
  8
図枠
  5
5F9
 10
129.509
 20
-157.868
 30
0.000000
  70
    32
  0
VERTEX
  8
図枠
  5
5FA
 10
129.540
 20
-157.890
 30
0.000000
  70
    32
  0
VERTEX
  8
図枠
  5
5FB
 10
129.571
 20
-157.912
 30
0.000000
  70
    32
  0
VERTEX
  8
図枠
  5
5FC
 10
129.603
 20
-157.934
 30
0.000000
  70
    32
  0
VERTEX
  8
図枠
  5
5FD
 10
129.634
 20
-157.956
 30
0.000000
  70
    32
  0
VERTEX
  8
図枠
  5
5FE
 10
129.665
 20
-157.978
 30
0.000000
  70
    32
  0
VERTEX
  8
図枠
  5
5FF
 10
129.697
 20
-158.000
 30
0.000000
  70
    32
  0
VERTEX
  8
図枠
  5
600
 10
129.728
 20
-158.022
 30
0.000000
  70
    32
  0
VERTEX
  8
図枠
  5
601
 10
129.760
 20
-158.044
 30
0.000000
  70
    32
  0
VERTEX
  8
図枠
  5
602
 10
129.791
 20
-158.065
 30
0.000000
  70
    32
  0
VERTEX
  8
図枠
  5
603
 10
129.823
 20
-158.087
 30
0.000000
  70
    32
  0
VERTEX
  8
図枠
  5
604
 10
129.854
 20
-158.108
 30
0.000000
  70
    32
  0
VERTEX
  8
図枠
  5
605
 10
129.886
 20
-158.130
 30
0.000000
  70
    32
  0
VERTEX
  8
図枠
  5
606
 10
129.917
 20
-158.151
 30
0.000000
  70
    32
  0
VERTEX
  8
図枠
  5
607
 10
129.949
 20
-158.172
 30
0.000000
  70
    32
  0
VERTEX
  8
図枠
  5
608
 10
129.981
 20
-158.193
 30
0.000000
  70
    32
  0
VERTEX
  8
図枠
  5
609
 10
130.013
 20
-158.215
 30
0.000000
  70
    32
  0
VERTEX
  8
図枠
  5
60A
 10
130.044
 20
-158.236
 30
0.000000
  70
    32
  0
VERTEX
  8
図枠
  5
60B
 10
130.076
 20
-158.257
 30
0.000000
  70
    32
  0
VERTEX
  8
図枠
  5
60C
 10
130.108
 20
-158.277
 30
0.000000
  70
    32
  0
VERTEX
  8
図枠
  5
60D
 10
130.140
 20
-158.298
 30
0.000000
  70
    32
  0
VERTEX
  8
図枠
  5
60E
 10
130.172
 20
-158.319
 30
0.000000
  70
    32
  0
VERTEX
  8
図枠
  5
60F
 10
130.204
 20
-158.340
 30
0.000000
  70
    32
  0
VERTEX
  8
図枠
  5
610
 10
130.236
 20
-158.360
 30
0.000000
  70
    32
  0
VERTEX
  8
図枠
  5
611
 10
130.268
 20
-158.381
 30
0.000000
  70
    32
  0
VERTEX
  8
図枠
  5
612
 10
130.300
 20
-158.401
 30
0.000000
  70
    32
  0
VERTEX
  8
図枠
  5
613
 10
130.333
 20
-158.421
 30
0.000000
  70
    32
  0
VERTEX
  8
図枠
  5
614
 10
130.365
 20
-158.442
 30
0.000000
  70
    32
  0
VERTEX
  8
図枠
  5
615
 10
130.397
 20
-158.462
 30
0.000000
  70
    32
  0
VERTEX
  8
図枠
  5
616
 10
130.429
 20
-158.482
 30
0.000000
  70
    32
  0
VERTEX
  8
図枠
  5
617
 10
130.462
 20
-158.502
 30
0.000000
  70
    32
  0
VERTEX
  8
図枠
  5
618
 10
130.494
 20
-158.522
 30
0.000000
  70
    32
  0
VERTEX
  8
図枠
  5
619
 10
130.527
 20
-158.541
 30
0.000000
  70
    32
  0
VERTEX
  8
図枠
  5
61A
 10
130.559
 20
-158.561
 30
0.000000
  70
    32
  0
VERTEX
  8
図枠
  5
61B
 10
130.592
 20
-158.581
 30
0.000000
  70
    32
  0
SEQEND
  8
図枠
  5
61C
  0
LINE
  5
103
  8
図枠
 10
125.8094544632
 20
-161.6966225276
 30
0.0
 11
129.80945446320001
 21
-161.6966225276
 31
0.0
  0
ARC
  5
104
  8
図枠
 10
127.7294544632
 20
-153.21662252760001
 30
0.0
 40
6.0800000000000001
 50
270.0
 51
298.08590481520002
  0
LINE
  5
105
  8
図枠
 10
119.1524847662
 20
-156.89662252759999
 30
0.0
 11
119.1524847662
 21
-156.0966225276
 31
0.0
  0
INSERT
  5
106
  8
0
  6
CONTINUOUS
  2
*U53
 10
0.0
 20
0.0
 30
0.0
  0
LINE
  5
107
  8
図枠
 10
107.9524847662
 20
-156.0966225276
 30
0.0
 11
107.9524847662
 21
-158.49662252760001
 31
0.0
  0
LINE
  5
108
  8
図枠
 10
107.9524847662
 20
-150.49662252760001
 30
0.0
 11
107.9524847662
 21
-153.6966225276
 31
0.0
  0
LINE
  5
109
  8
図枠
 10
45.558082034199991
 20
-113.7528992746
 30
0.0
 11
45.558082034199991
 21
-164.7528992746
 31
0.0
  0
LINE
  5
10A
  8
図枠
 10
121.5524847662
 20
-150.49662252760001
 30
0.0
 11
115.1524847662
 21
-150.49662252760001
 31
0.0
  0
LINE
  5
10B
  8
図枠
 10
111.9524847662
 20
-153.6966225276
 30
0.0
 11
111.9524847662
 21
-152.89662252759999
 31
0.0
  0
LINE
  5
10C
  8
図枠
 10
85.558082034199984
 20
-113.7528992746
 30
0.0
 11
85.558082034199984
 21
-130.7528992746
 31
0.0
  0
INSERT
  5
10D
  8
0
  6
CONTINUOUS
  2
*U54
 10
0.0
 20
0.0
 30
0.0
  0
LINE
  5
10E
  8
図枠
 10
148.21904365669999
 20
-124.5568992746
 30
0.0
 11
157.4350436567
 21
-126.8608992746
 31
0.0
  0
LINE
  5
10F
  8
図枠
 10
148.21904365669999
 20
-124.5568992746
 30
0.0
 11
157.4350436567
 21
-126.8608992746
 31
0.0
  0
LINE
  5
110
  8
図枠
 10
165.5580820342
 20
-113.7528992746
 30
0.0
 11
165.5580820342
 21
-164.7528992746
 31
0.0
  0
LINE
  5
111
  8
図枠
 10
148.21904365669999
 20
-119.9488992746
 30
0.0
 11
148.21904365669999
 21
-124.5568992746
 31
0.0
  0
INSERT
  5
112
  8
0
  6
CONTINUOUS
  2
*U55
 10
0.0
 20
0.0
 30
0.0
  0
LINE
  5
113
  8
図枠
 10
153.48407109749999
 20
-157.37662252760001
 30
0.0
 11
153.1157321968
 21
-156.0966225276
 31
0.0
  0
LINE
  5
114
  8
図枠
 10
148.21904365669999
 20
-119.9488992746
 30
0.0
 11
157.4350436567
 21
-117.64489927459999
 31
0.0
  0
INSERT
  5
115
  8
0
  6
CONTINUOUS
  2
*U56
 10
0.0
 20
0.0
 30
0.0
  0
LINE
  5
116
  8
図枠
 10
159.5580820342
 20
-91.752899274599983
 30
0.0
 11
159.5580820342
 21
-80.752899274599997
 31
0.0
  0
LINE
  5
117
  8
図枠
 10
157.4350436567
 20
-117.64489927459999
 30
0.0
 11
157.4350436567
 21
-126.8608992746
 31
0.0
  0
INSERT
  5
118
  8
0
  6
CONTINUOUS
  2
*U57
 10
0.0
 20
0.0
 30
0.0
  0
LINE
  5
119
  8
図枠
 10
152.05273886980001
 20
-152.40265630280001
 30
0.0
 11
153.35742670050001
 21
-150.49662252760001
 31
0.0
  0
LINE
  5
11A
  8
図枠
 10
157.4350436567
 20
-117.64489927459999
 30
0.0
 11
157.4350436567
 21
-126.8608992746
 31
0.0
  0
LINE
  5
11B
  8
図枠
 10
152.28696967010001
 20
-153.21662252760001
 30
0.0
 11
158.1574267005
 21
-153.21662252760001
 31
0.0
  0
LINE
  5
11C
  8
図枠
 10
148.21904365669999
 20
-119.9488992746
 30
0.0
 11
157.4350436567
 21
-117.64489927459999
 31
0.0
  0
LINE
  5
11D
  8
図枠
 10
148.21904365669999
 20
-119.9488992746
 30
0.0
 11
148.21904365669999
 21
-124.5568992746
 31
0.0
  0
LINE
  5
11E
  8
図枠
 10
153.1157321968
 20
-156.0966225276
 30
0.0
 11
158.1574267005
 21
-156.0966225276
 31
0.0
  0
INSERT
  5
11F
  8
0
  6
CONTINUOUS
  2
*U58
 10
0.0
 20
0.0
 30
0.0
  0
INSERT
  5
120
  8
0
  6
CONTINUOUS
  2
*U59
 10
0.0
 20
0.0
 30
0.0
  0
LINE
  5
121
  8
図枠
 10
158.1574267005
 20
-157.37662252760001
 30
0.0
 11
158.1574267005
 21
-160.2566225276
 31
0.0
  0
LINE
  5
122
  8
図枠
 10
152.28696967010001
 20
-153.21662252760001
 30
0.0
 11
152.05273886980001
 21
-152.40265630280001
 31
0.0
  0
LINE
  5
123
  8
図枠
 10
148.21904365669999
 20
-124.5568992746
 30
0.0
 11
157.4350436567
 21
-126.8608992746
 31
0.0
  0
LINE
  5
124
  8
図枠
 10
148.97556003380001
 20
-157.37662252760001
 30
0.0
 11
148.60009336709999
 21
-156.0966225276
 31
0.0
  0
LINE
  5
125
  8
図枠
 10
148.21904365669999
 20
-119.9488992746
 30
0.0
 11
148.21904365669999
 21
-124.5568992746
 31
0.0
  0
LINE
  5
126
  8
ﾚｲﾔ_10
  6
BORDER
 62
     3
 10
-137.81308593750001
 20
131.45039062500001
 30
0.0
 11
-137.81308593750001
 21
121.450390625
 31
0.0
  0
CIRCLE
  5
127
  8
ﾚｲﾔ_10
 62
     5
 10
-137.81308593750001
 20
126.450390625
 30
0.0
 40
3.75
  0
CIRCLE
  5
128
  8
ﾚｲﾔ_10
 62
     5
 10
-137.81308593750001
 20
126.450390625
 30
0.0
 40
2.1000000000000001
  0
LINE
  5
129
  8
ﾚｲﾔ_10
  6
STITCH
 10
-168.46308593750001
 20
128.55039062500001
 30
0.0
 11
-169.81308593750001
 21
128.55039062500001
 31
0.0
  0
LINE
  5
12A
  8
ﾚｲﾔ_10
  6
STITCH
 10
-168.46308593750001
 20
142.35039062499999
 30
0.0
 11
-169.81308593750001
 21
142.35039062499999
 31
0.0
  0
LINE
  5
12B
  8
ﾚｲﾔ_10
  6
STITCH
 10
-168.46308593750001
 20
146.55039062500001
 30
0.0
 11
-169.81308593750001
 21
146.55039062500001
 31
0.0
  0
INSERT
  5
12C
  8
0
  6
CONTINUOUS
  2
*U60
 10
0.0
 20
0.0
 30
0.0
  0
LINE
  5
12D
  8
ﾚｲﾔ_10
 10
-124.8420865711
 20
156.66397659130001
 30
0.0
 11
-104.0010609301
 21
156.66397659130001
 31
0.0
  0
LINE
  5
12E
  8
ﾚｲﾔ_10
 10
-124.8420865711
 20
157.6639765912999
 30
0.0
 11
-104.0010609301
 21
157.6639765912999
 31
0.0
  0
LINE
  5
12F
  8
ﾚｲﾔ_10
 10
-124.8420865711
 20
158.66397659130001
 30
0.0
 11
-104.0010609301
 21
158.66397659130001
 31
0.0
  0
LINE
  5
130
  8
ﾚｲﾔ_10
 10
-124.8420865711
 20
159.66397659130001
 30
0.0
 11
-104.0010609301
 21
159.66397659130001
 31
0.0
  0
LINE
  5
131
  8
ﾚｲﾔ_10
 10
-124.8420865711
 20
160.66397659130001
 30
0.0
 11
-104.0010609301
 21
160.66397659130001
 31
0.0
  0
DIMENSION
  5
140
  8
寸法線
  2
*D4
 10
-98.813085937500006
 20
101.450390625
 30
0.0
 11
-79.313085937500006
 21
101.450390625
 31
0.0
 70
   128
  1
<>
 13
-98.813085937500006
 23
130.45039062500001
 33
0.0
 14
-59.813085937499999
 24
121.450390625
 34
0.0
 50
180.0
  0
LINE
  5
141
  8
ﾚｲﾔ_10
 62
     5
 10
-53.419209024099999
 20
150.45039062500001
 30
0.0
 11
-169.81308593750001
 21
150.45039062500001
 31
0.0
  0
LINE
  5
142
  8
ﾚｲﾔ_10
 62
     5
 10
-169.81308593750001
 20
120.450390625
 30
0.0
 11
-53.419209024099999
 21
120.450390625
 31
0.0
  0
LINE
  5
143
  8
図枠
 10
154.95742670050001
 20
-162.49662252760001
 30
0.0
 11
154.31283362420001
 21
-160.2566225276
 31
0.0
  0
LINE
  5
144
  8
図枠
 10
146.95742670050001
 20
-150.49662252760001
 30
0.0
 11
153.35742670050001
 21
-150.49662252760001
 31
0.0
  0
LINE
  5
145
  8
図枠
 10
150.47742670049999
 20
-162.49662252760001
 30
0.0
 11
154.95742670050001
 21
-162.49662252760001
 31
0.0
  0
LINE
  5
146
  8
図枠
 10
148.21904365669999
 20
-119.9488992746
 30
0.0
 11
157.4350436567
 21
-117.64489927459999
 31
0.0
  0
LINE
  5
147
  8
図枠
 10
148.21904365669999
 20
-119.9488992746
 30
0.0
 11
148.21904365669999
 21
-124.5568992746
 31
0.0
  0
LINE
  5
148
  8
図枠
 10
148.21904365669999
 20
-119.9488992746
 30
0.0
 11
157.4350436567
 21
-117.64489927459999
 31
0.0
  0
LINE
  5
149
  8
図枠
 10
157.4350436567
 20
-117.64489927459999
 30
0.0
 11
157.4350436567
 21
-126.8608992746
 31
0.0
  0
LINE
  5
14A
  8
図枠
 10
195.55808203419991
 20
-91.752899274599983
 30
0.0
 11
195.55808203419991
 21
-80.752899274599997
 31
0.0
  0
LINE
  5
14B
  8
図枠
 10
147.75529336709999
 20
-153.21662252760001
 30
0.0
 11
146.95742670050001
 21
-150.49662252760001
 31
0.0
  0
INSERT
  5
14C
  8
0
  6
CONTINUOUS
  2
*U61
 10
0.0
 20
0.0
 30
0.0
  0
CIRCLE
  5
14D
  8
ﾚｲﾔ_10
 62
     5
 10
-137.81308593750001
 20
144.45039062500001
 30
0.0
 40
3.75
  0
LINE
  5
14E
  8
ﾚｲﾔ_10
  6
BORDER
 62
     3
 10
-137.81308593750001
 20
149.45039062500001
 30
0.0
 11
-137.81308593750001
 21
139.45039062500001
 31
0.0
  0
LINE
  5
14F
  8
ﾚｲﾔ_10
  6
BORDER
 62
     3
 10
-163.38205729169999
 20
135.45039062500001
 30
0.0
 11
-173.6025334821
 21
135.45039062500001
 31
0.0
  0
LINE
  5
150
  8
ﾚｲﾔ_10
  6
STITCH
 10
-166.81308593750001
 20
139.20039062500001
 30
0.0
 11
-168.46308593750001
 21
137.55039062500001
 31
0.0
  0
LINE
  5
151
  8
ﾚｲﾔ_10
  6
STITCH
 10
-166.81308593750001
 20
131.70039062500001
 30
0.0
 11
-168.46308593750001
 21
133.35039062499999
 31
0.0
  0
LINE
  5
152
  8
ﾚｲﾔ_10
  6
STITCH
 10
-168.46308593750001
 20
133.35039062499999
 30
0.0
 11
-168.46308593750001
 21
137.55039062500001
 31
0.0
  0
LINE
  5
153
  8
ﾚｲﾔ_10
  6
STITCH
 10
-168.46308593750001
 20
137.55039062500001
 30
0.0
 11
-169.81308593750001
 21
137.55039062500001
 31
0.0
  0
LINE
  5
154
  8
ﾚｲﾔ_10
  6
STITCH
 10
-168.46308593750001
 20
133.35039062499999
 30
0.0
 11
-169.81308593750001
 21
133.35039062499999
 31
0.0
  0
LINE
  5
155
  8
ﾚｲﾔ_10
 62
     5
 10
-166.81308593750001
 20
150.45039062500001
 30
0.0
 11
-166.81308593750001
 21
120.450390625
 31
0.0
  0
LINE
  5
156
  8
ﾚｲﾔ_10
 62
     5
 10
-169.81308593750001
 20
150.45039062500001
 30
0.0
 11
-169.81308593750001
 21
120.450390625
 31
0.0
  0
LINE
  5
157
  8
ﾚｲﾔ_10
  6
STITCH
 10
-166.81308593750001
 20
122.700390625
 30
0.0
 11
-168.46308593750001
 21
124.350390625
 31
0.0
  0
LINE
  5
158
  8
ﾚｲﾔ_10
  6
STITCH
 10
-166.81308593750001
 20
130.20039062500001
 30
0.0
 11
-168.46308593750001
 21
128.55039062500001
 31
0.0
  0
LINE
  5
159
  8
ﾚｲﾔ_10
  6
STITCH
 10
-168.46308593750001
 20
128.55039062500001
 30
0.0
 11
-168.46308593750001
 21
124.350390625
 31
0.0
  0
LINE
  5
15A
  8
ﾚｲﾔ_10
  6
STITCH
 10
-168.46308593750001
 20
124.350390625
 30
0.0
 11
-169.81308593750001
 21
124.350390625
 31
0.0
  0
LINE
  5
15B
  8
ﾚｲﾔ_10
  6
BORDER
 62
     3
 10
-142.81308593750001
 20
126.450390625
 30
0.0
 11
-132.81308593750001
 21
126.450390625
 31
0.0
  0
LINE
  5
15C
  8
ﾚｲﾔ_10
  6
BORDER
 62
     3
 10
-142.81308593750001
 20
144.45039062500001
 30
0.0
 11
-132.81308593750001
 21
144.45039062500001
 31
0.0
  0
LINE
  5
15D
  8
ﾚｲﾔ_10
  6
BORDER
 62
     3
 10
-98.813085937500006
 20
140.45039062500001
 30
0.0
 11
-98.813085937500006
 21
130.45039062500001
 31
0.0
  0
CIRCLE
  5
15E
  8
ﾚｲﾔ_10
 62
     5
 10
-98.813085937500006
 20
135.45039062500001
 30
0.0
 40
3.75
  0
CIRCLE
  5
15F
  8
ﾚｲﾔ_10
 62
     5
 10
-98.813085937500006
 20
135.45039062500001
 30
0.0
 40
2.1000000000000001
  0
LINE
  5
160
  8
ﾚｲﾔ_10
  6
BORDER
 62
     3
 10
-103.81308593750001
 20
135.45039062500001
 30
0.0
 11
-93.813085937500006
 21
135.45039062500001
 31
0.0
  0
LINE
  5
161
  8
ﾚｲﾔ_10
  6
STITCH
 10
-168.46308593750001
 20
142.35039062499999
 30
0.0
 11
-168.46308593750001
 21
146.55039062500001
 31
0.0
  0
LINE
  5
162
  8
ﾚｲﾔ_10
  6
STITCH
 10
-166.81308593750001
 20
140.70039062500001
 30
0.0
 11
-168.46308593750001
 21
142.35039062499999
 31
0.0
  0
LINE
  5
163
  8
ﾚｲﾔ_10
  6
STITCH
 10
-166.81308593750001
 20
148.20039062500001
 30
0.0
 11
-168.46308593750001
 21
146.55039062500001
 31
0.0
  0
LINE
  5
164
  8
ﾚｲﾔ_10
  6
BORDER
 62
     3
 10
-163.38205729169999
 20
126.450390625
 30
0.0
 11
-173.6025334821
 21
126.450390625
 31
0.0
  0
LINE
  5
165
  8
ﾚｲﾔ_10
  6
BORDER
 62
     3
 10
-163.38205729169999
 20
144.45039062500001
 30
0.0
 11
-173.6025334821
 21
144.45039062500001
 31
0.0
  0
LINE
  5
166
  8
ﾚｲﾔ_10
 62
     5
 10
-169.81308593750001
 20
-8.0652343749999993
 30
0.0
 11
-169.81308593750001
 21
-63.065234375000003
 31
0.0
  0
LINE
  5
167
  8
ﾚｲﾔ_10
 62
     5
 10
-166.81308593750001
 20
-8.0652343749999993
 30
0.0
 11
-166.81308593750001
 21
-63.065234375000003
 31
0.0
  0
DIMENSION
  5
174
  8
寸法線
  2
*D62
 10
-147.44015815045361
 20
-31.510339156472721
 30
0.0
 11
-139.27667433229999
 21
-37.807439892000012
 31
0.0
 70
   133
  1
<>
 13
-166.81308593750001
 23
-7.3152343750000002
 33
0.0
 14
-49.813085937499999
 24
-65.065234375000003
 34
0.0
 15
-166.81308593750001
 25
-65.065234375000003
 35
0.0
1001
ACAD
1000
DSTYLE
1002
{
1070
   271
1070
     0
1002
}
  0
DIMENSION
  5
183
  8
寸法線
  2
*D6
 10
-169.81308593750001
 20
-88.065234375000003
 30
0.0
 11
-109.81308593750001
 21
-88.065234375000003
 31
0.0
 70
   128
  1
<>
 13
-169.81308593750001
 23
-63.065234375000003
 33
0.0
 14
-49.813085937499999
 24
-68.065234375000003
 34
0.0
 50
180.0
  0
LINE
  5
184
  8
ﾚｲﾔ_10
 62
     5
 10
-164.81308593750001
 20
-65.065234375000003
 30
0.0
 11
-49.813085937499999
 21
-65.065234375000003
 31
0.0
  0
LINE
  5
185
  8
ﾚｲﾔ_10
 62
     5
 10
-164.81308593750001
 20
-68.065234375000003
 30
0.0
 11
-49.813085937499999
 21
-68.065234375000003
 31
0.0
  0
DIMENSION
  5
194
  8
寸法線
  2
*D7
 10
-59.813085937499999
 20
101.450390625
 30
0.0
 11
-54.813085937499999
 21
101.450390625
 31
0.0
 70
   128
  1
<>
 13
-59.813085937499999
 23
121.450390625
 33
0.0
 14
-49.813085937499999
 24
135.45039062500001
 34
0.0
 50
180.0
  0
DIMENSION
  5
1A3
  8
寸法線
  2
*D8
 10
-33.419209024099999
 20
120.450390625
 30
0.0
 11
-33.419209024099999
 21
111.96718749999999
 31
0.0
 70
   128
  1
<>
 13
-53.419209024099999
 23
120.450390625
 33
0.0
 14
-54.813085937499999
 24
126.450390625
 34
0.0
 50
90.0
  0
DIMENSION
  5
1B2
  8
寸法線
  2
*D9
 10
-33.419209024099999
 20
144.45039062500001
 30
0.0
 11
-33.419209024099999
 21
159.09609374999999
 31
0.0
 70
   128
  1
<>
 13
-54.813085937499999
 23
144.45039062500001
 33
0.0
 14
-53.419209024099999
 24
150.45039062500001
 34
0.0
 50
90.0
  0
DIMENSION
  5
1C1
  8
寸法線
  2
*D10
 10
-33.419209024099999
 20
126.450390625
 30
0.0
 11
-33.419209024099999
 21
135.45039062500001
 31
0.0
 70
   128
  1
<>
 13
-54.813085937499999
 23
126.450390625
 33
0.0
 14
-54.813085937499999
 24
144.45039062500001
 34
0.0
 50
90.0
  0
CIRCLE
  5
1C2
  8
ﾚｲﾔ_10
 62
     5
 10
-59.813085937499999
 20
126.450390625
 30
0.0
 40
2.1000000000000001
  0
CIRCLE
  5
1C3
  8
ﾚｲﾔ_10
 62
     5
 10
-59.813085937499999
 20
126.450390625
 30
0.0
 40
3.75
  0
LINE
  5
1C4
  8
ﾚｲﾔ_10
  6
BORDER
 62
     3
 10
-59.813085937499999
 20
131.45039062500001
 30
0.0
 11
-59.813085937499999
 21
121.450390625
 31
0.0
  0
LINE
  5
1C5
  8
ﾚｲﾔ_10
  6
BORDER
 62
     3
 10
-64.813085937500006
 20
126.450390625
 30
0.0
 11
-54.813085937499999
 21
126.450390625
 31
0.0
  0
ARC
  5
1C6
  8
ﾚｲﾔ_10
 62
     5
 10
-82.813085937500006
 20
135.45039062500001
 30
0.0
 40
33.0
 50
332.9643082106
 51
27.035691789400001
  0
LINE
  5
1C7
  8
ﾚｲﾔ_10
  6
BORDER
 62
     3
 10
-64.813085937500006
 20
144.45039062500001
 30
0.0
 11
-54.813085937499999
 21
144.45039062500001
 31
0.0
  0
LINE
  5
1C8
  8
ﾚｲﾔ_10
  6
BORDER
 62
     3
 10
-59.813085937499999
 20
149.45039062500001
 30
0.0
 11
-59.813085937499999
 21
139.45039062500001
 31
0.0
  0
CIRCLE
  5
1C9
  8
ﾚｲﾔ_10
 62
     5
 10
-59.813085937499999
 20
144.45039062500001
 30
0.0
 40
3.75
  0
CIRCLE
  5
1CA
  8
ﾚｲﾔ_10
 62
     5
 10
-59.813085937499999
 20
144.45039062500001
 30
0.0
 40
2.1000000000000001
  0
DIMENSION
  5
1D9
  8
寸法線
  2
*D11
 10
-203.45236959440001
 20
150.45039062500001
 30
0.0
 11
-203.45236959440001
 21
135.45039062500001
 31
0.0
 70
   128
  1
<>
 13
-169.81308593750001
 23
150.45039062500001
 33
0.0
 14
-169.81308593750001
 24
120.450390625
 34
0.0
 50
90.0
  0
DIMENSION
  5
1E8
  8
寸法線
  2
*D12
 10
-189.81308593750001
 20
150.45039062500001
 30
0.0
 11
-189.81308593750001
 21
142.95039062500001
 31
0.0
 70
   128
  1
<>
 13
-169.81308593750001
 23
150.45039062500001
 33
0.0
 14
-103.81308593750001
 24
135.45039062500001
 34
0.0
 50
90.0
  0
DIMENSION
  5
1F7
  8
寸法線
  2
*D13
 10
-189.81308593750001
 20
135.45039062500001
 30
0.0
 11
-189.81308593750001
 21
127.950390625
 31
0.0
 70
   128
  1
<>
 13
-103.81308593750001
 23
135.45039062500001
 33
0.0
 14
-169.81308593750001
 24
120.450390625
 34
0.0
 50
90.0
  0
DIMENSION
  5
206
  8
寸法線
  2
*D14
 10
-137.81308593750001
 20
101.450390625
 30
0.0
 11
-118.31308593750001
 21
101.450390625
 31
0.0
 70
   128
  1
<>
 13
-137.81308593750001
 23
121.450390625
 33
0.0
 14
-98.813085937500006
 24
130.45039062500001
 34
0.0
 50
180.0
  0
DIMENSION
  5
215
  8
寸法線
  2
*D15
 10
-169.81308593750001
 20
101.450390625
 30
0.0
 11
-153.81308593750001
 21
101.450390625
 31
0.0
 70
   128
  1
<>
 13
-169.81308593750001
 23
120.450390625
 33
0.0
 14
-137.81308593750001
 24
121.450390625
 34
0.0
 50
180.0
  0
CIRCLE
  5
216
  8
ﾚｲﾔ_10
 62
     5
 10
-137.81308593750001
 20
144.45039062500001
 30
0.0
 40
2.1000000000000001
  0
LINE
  5
217
  8
ﾚｲﾔ_10
 62
     5
 10
-166.81308593750001
 20
-8.0652343749999993
 30
0.0
 11
-169.81308593750001
 21
-8.0652343749999993
 31
0.0
  0
DIMENSION
  5
225
  8
寸法線
  2
*D63
 10
-135.08941368860971
 20
-58.650351158975887
 30
0.0
 11
-137.81308593750001
 21
-58.291772904799998
 31
0.0
 70
   133
  1
<>
 13
-142.09341602340001
 23
-64.534904289099998
 33
0.0
 14
-133.5327558516
 24
-64.534904289099998
 34
0.0
 15
-137.81308593750001
 25
-68.815234375000003
 35
0.0
1001
ACAD
1000
DSTYLE
1002
{
1070
   271
1070
     0
1002
}
  0
DIMENSION
  5
235
  8
寸法線
  2
*D17
 10
-139.9130859375
 20
-74.203467329600002
 30
0.0
 11
-137.81308593750001
 21
-74.203467329600002
 31
0.0
 70
   128
  1
%%c<>
 13
-139.9130859375
 23
-68.065234375000003
 33
0.0
 14
-135.71308593750001
 24
-68.065234375000003
 34
0.0
 50
180.0
  0
DIMENSION
  5
244
  8
寸法線
  2
*D18
 10
-134.06308593750001
 20
-61.065234375000003
 30
0.0
 11
-137.81308593750001
 21
-61.065234375000003
 31
0.0
 70
   128
  1
%%c<>
 13
-134.06308593750001
 23
-65.065234375000003
 33
0.0
 14
-141.56308593750001
 24
-65.065234375000003
 34
0.0
  0
LINE
  5
245
  8
ﾚｲﾔ_10
  6
STITCH
 10
-134.06308593750001
 20
-65.065234375000003
 30
0.0
 11
-135.71308593750001
 21
-66.715234374999994
 31
0.0
  0
LINE
  5
246
  8
ﾚｲﾔ_10
  6
STITCH
 10
-141.56308593750001
 20
-65.065234375000003
 30
0.0
 11
-139.9130859375
 21
-66.715234374999994
 31
0.0
  0
ARC
  5
247
  8
ﾚｲﾔ_10
 62
     5
 10
-164.81308593750001
 20
-63.065234375000003
 30
0.0
 40
2.0
 50
180.0
 51
270.0
  0
ARC
  5
248
  8
ﾚｲﾔ_10
 62
     5
 10
-164.81308593750001
 20
-63.065234375000003
 30
0.0
 40
5.0
 50
180.0
 51
270.0
  0
LINE
  5
249
  8
ﾚｲﾔ_10
  6
STITCH
 10
-102.56308593750001
 20
-65.065234375000003
 30
0.0
 11
-100.9130859375
 21
-66.715234374999994
 31
0.0
  0
LINE
  5
24A
  8
ﾚｲﾔ_10
  6
STITCH
 10
-95.063085937500006
 20
-65.065234375000003
 30
0.0
 11
-96.713085937499997
 21
-66.715234374999994
 31
0.0
  0
LINE
  5
24B
  8
ﾚｲﾔ_10
  6
STITCH
 10
-96.713085937499997
 20
-66.715234374999994
 30
0.0
 11
-100.9130859375
 21
-66.715234374999994
 31
0.0
  0
LINE
  5
24C
  8
ﾚｲﾔ_10
  6
STITCH
 10
-100.9130859375
 20
-66.715234374999994
 30
0.0
 11
-100.9130859375
 21
-68.065234375000003
 31
0.0
  0
LINE
  5
24D
  8
ﾚｲﾔ_10
  6
STITCH
 10
-96.713085937499997
 20
-66.715234374999994
 30
0.0
 11
-96.713085937499997
 21
-68.065234375000003
 31
0.0
  0
LINE
  5
24E
  8
ﾚｲﾔ_10
  6
BORDER
 62
     3
 10
-163.38205729169999
 20
-42.065234375000003
 30
0.0
 11
-173.6025334821
 21
-42.065234375000003
 31
0.0
  0
LINE
  5
24F
  8
ﾚｲﾔ_10
  6
STITCH
 10
-168.46308593750001
 20
-39.965234375000001
 30
0.0
 11
-169.81308593750001
 21
-39.965234375000001
 31
0.0
  0
LINE
  5
250
  8
ﾚｲﾔ_10
  6
STITCH
 10
-168.46308593750001
 20
-44.16523437499999
 30
0.0
 11
-169.81308593750001
 21
-44.16523437499999
 31
0.0
  0
LINE
  5
251
  8
ﾚｲﾔ_10
  6
STITCH
 10
-168.46308593750001
 20
-39.965234375000001
 30
0.0
 11
-168.46308593750001
 21
-44.16523437499999
 31
0.0
  0
LINE
  5
252
  8
ﾚｲﾔ_10
  6
STITCH
 10
-166.81308593750001
 20
-38.315234375000003
 30
0.0
 11
-168.46308593750001
 21
-39.965234375000001
 31
0.0
  0
LINE
  5
253
  8
ﾚｲﾔ_10
  6
STITCH
 10
-166.81308593750001
 20
-45.815234375000003
 30
0.0
 11
-168.46308593750001
 21
-44.16523437499999
 31
0.0
  0
LINE
  5
254
  8
ﾚｲﾔ_10
  6
BORDER
 62
     3
 10
-98.813085937500006
 20
-61.634205729199991
 30
0.0
 11
-98.813085937500006
 21
-71.854681919599997
 31
0.0
  0
LINE
  5
255
  8
ﾚｲﾔ_10
  6
BORDER
 62
     3
 10
-137.81308593750001
 20
-61.634205729199991
 30
0.0
 11
-137.81308593750001
 21
-71.854681919599997
 31
0.0
  0
LINE
  5
256
  8
ﾚｲﾔ_10
  6
STITCH
 10
-135.71308593750001
 20
-66.715234374999994
 30
0.0
 11
-135.71308593750001
 21
-68.065234375000003
 31
0.0
  0
LINE
  5
257
  8
ﾚｲﾔ_10
  6
STITCH
 10
-139.9130859375
 20
-66.715234374999994
 30
0.0
 11
-139.9130859375
 21
-68.065234375000003
 31
0.0
  0
LINE
  5
258
  8
ﾚｲﾔ_10
  6
STITCH
 10
-135.71308593750001
 20
-66.715234374999994
 30
0.0
 11
-139.9130859375
 21
-66.715234374999994
 31
0.0
  0
DIMENSION
  5
267
  8
寸法線
  2
*D19
 10
-189.81308593750001
 20
-8.0652343749999993
 30
0.0
 11
-189.81308593750001
 21
-38.065234375000003
 31
0.0
 70
   128
  1
<>
 13
-169.81308593750001
 23
-8.0652343749999993
 33
0.0
 14
-164.81308593750001
 24
-68.065234375000003
 34
0.0
 50
90.0
  0
DIMENSION
  5
26E
  8
寸法線
  2
*D20
 10
-82.813085937500006
 20
135.45039062500001
 30
0.0
 11
4.9142386383999987
 21
153.8524248965
 31
0.0
 70
   132
  1
<>
 15
-50.937533670000001
 25
143.99141911340001
 35
0.0
 40
0.0
  0
LINE
  5
26F
  8
図枠
  6
DOT
 10
-284.44191796579997
 20
226.7471007254
 30
0.0
 11
289.55808203420003
 21
226.7471007254
 31
0.0
  0
LINE
  5
270
  8
図枠
 62
     5
 10
-272.44191796579997
 20
215.2471007254
 30
0.0
 11
277.55808203420003
 21
215.2471007254
 31
0.0
  0
LINE
  5
271
  8
図枠
  6
DOT
 10
-284.44191796579997
 20
-176.2528992746
 30
0.0
 11
289.55808203420003
 21
-176.2528992746
 31
0.0
  0
LINE
  5
272
  8
図枠
 62
     5
 10
-272.44191796579997
 20
-164.7528992746
 30
0.0
 11
277.55808203420003
 21
-164.7528992746
 31
0.0
  0
DIMENSION
  5
281
  8
寸法線
  2
*D21
 10
-166.81308593750001
 20
11.934765625000001
 30
0.0
 11
-160.7924455635
 21
11.934765625000001
 31
0.0
 70
   128
  1
<>t
 13
-166.81308593750001
 23
-8.0652343749999993
 33
0.0
 14
-169.81308593750001
 24
-8.0652343749999993
 34
0.0
  0
LINE
  5
282
  8
図枠
 62
     5
 10
-272.44191796579997
 20
-164.7528992746
 30
0.0
 11
-272.44191796579997
 21
215.2471007254
 31
0.0
  0
LINE
  5
283
  8
図枠
  6
DOT
 10
-284.4359179658
 20
-176.2528992746
 30
0.0
 11
-284.4359179658
 21
226.7471007254
 31
0.0
  0
LINE
  5
284
  8
図枠
 62
     5
 10
277.55808203420003
 20
-164.7528992746
 30
0.0
 11
277.55808203420003
 21
215.2471007254
 31
0.0
  0
LINE
  5
285
  8
図枠
  6
DOT
 10
289.55808203420003
 20
-176.2528992746
 30
0.0
 11
289.55808203420003
 21
226.7471007254
 31
0.0
  0
LINE
  5
286
  8
ﾚｲﾔ_10
  6
STITCH
 10
-56.063085937499999
 20
-65.065234375000003
 30
0.0
 11
-57.71308593749999
 21
-66.715234374999994
 31
0.0
  0
LINE
  5
287
  8
ﾚｲﾔ_10
  6
STITCH
 10
-57.71308593749999
 20
-66.715234374999994
 30
0.0
 11
-61.9130859375
 21
-66.715234374999994
 31
0.0
  0
LINE
  5
288
  8
ﾚｲﾔ_10
  6
STITCH
 10
-61.9130859375
 20
-66.715234374999994
 30
0.0
 11
-61.9130859375
 21
-68.065234375000003
 31
0.0
  0
LINE
  5
289
  8
ﾚｲﾔ_10
  6
STITCH
 10
-57.71308593749999
 20
-66.715234374999994
 30
0.0
 11
-57.71308593749999
 21
-68.065234375000003
 31
0.0
  0
LINE
  5
28A
  8
ﾚｲﾔ_10
  6
BORDER
 62
     3
 10
-59.813085937499999
 20
-61.634205729199991
 30
0.0
 11
-59.813085937499999
 21
-71.854681919599997
 31
0.0
  0
LINE
  5
28B
  8
ﾚｲﾔ_10
 62
     5
 10
-53.423085937499998
 20
-68.065234375000003
 30
0.0
 11
-53.423085937499998
 21
-65.065234375000003
 31
0.0
  0
LINE
  5
28C
  8
ﾚｲﾔ_10
 62
     5
 10
-49.813085937499999
 20
-68.065234375000003
 30
0.0
 11
-49.813085937499999
 21
-65.065234375000003
 31
0.0
  0
LINE
  5
28D
  8
ﾚｲﾔ_10
  6
STITCH
 10
-63.563085937499999
 20
-65.065234375000003
 30
0.0
 11
-61.9130859375
 21
-66.715234374999994
 31
0.0
  0
LINE
  5
28E
  8
ﾚｲﾔ_10
 62
     5
 10
-166.81308593750001
 20
-11.675234375
 30
0.0
 11
-169.81308593750001
 21
-11.675234375
 31
0.0
  0
LINE
  5
28F
  8
ﾚｲﾔ_10
  6
STITCH
 10
-166.81308593750001
 20
-21.815234374999999
 30
0.0
 11
-168.46308593750001
 21
-20.165234375000001
 31
0.0
  0
LINE
  5
290
  8
ﾚｲﾔ_10
  6
STITCH
 10
-166.81308593750001
 20
-14.315234374999999
 30
0.0
 11
-168.46308593750001
 21
-15.965234375
 31
0.0
  0
LINE
  5
291
  8
ﾚｲﾔ_10
  6
STITCH
 10
-168.46308593750001
 20
-15.965234375
 30
0.0
 11
-168.46308593750001
 21
-20.165234375000001
 31
0.0
  0
LINE
  5
292
  8
ﾚｲﾔ_10
  6
STITCH
 10
-168.46308593750001
 20
-20.165234375000001
 30
0.0
 11
-169.81308593750001
 21
-20.165234375000001
 31
0.0
  0
LINE
  5
293
  8
ﾚｲﾔ_10
  6
STITCH
 10
-168.46308593750001
 20
-15.965234375
 30
0.0
 11
-169.81308593750001
 21
-15.965234375
 31
0.0
  0
LINE
  5
294
  8
ﾚｲﾔ_10
  6
BORDER
 62
     3
 10
-163.38205729169999
 20
-18.065234374999999
 30
0.0
 11
-173.6025334821
 21
-18.065234374999999
 31
0.0
  0
DIMENSION
  5
2D8
  8
0
  2
*D26
 10
157.03842243218421
 20
-53.12264458860011
 30
0.0
 11
145.9473628216976
 21
-53.12264458860011
 31
0.0
 70
   128
  1
φ4.2
 13
137.03842243218429
 23
-32.970656497599037
 33
0.0
 14
157.03842243218421
 24
-32.970656497599037
 34
0.0
1001
ACAD
1000
DSTYLE
1002
{
1070
    40
1040
1.0
1002
}
  0
DIMENSION
  5
2D9
  8
0
  2
*D27
 10
167.03842243218421
 20
1.063701238491034
 30
0.0
 11
146.7877940776782
 21
1.063701238491034
 31
0.0
 70
   128
  1
φ7.5
 13
127.03842243218421
 23
-17.845656497599041
 33
0.0
 14
167.03842243218421
 24
-17.845656497599041
 34
0.0
1001
ACAD
1000
DSTYLE
1002
{
1070
    40
1040
1.0
1002
}
  0
LINE
  5
2DA
  8
ﾚｲﾔ_1
  6
BORDER
 62
     3
 10
147.03842243218421
 20
-13.658156497599039
 30
0.0
 11
147.03842243218421
 21
-37.408156497599037
 31
0.0
  0
LINE
  5
2DB
  8
ﾚｲﾔ_1
 62
     5
 10
167.03842243218421
 20
-17.908156497599041
 30
0.0
 11
157.03842243218421
 21
-27.908156497599041
 31
0.0
  0
LINE
  5
2DC
  8
ﾚｲﾔ_1
 62
     5
 10
157.03842243218421
 20
-27.908156497599041
 30
0.0
 11
137.03842243218429
 21
-27.908156497599041
 31
0.0
  0
LINE
  5
2DD
  8
ﾚｲﾔ_1
 62
     5
 10
137.03842243218429
 20
-27.908156497599041
 30
0.0
 11
137.03842243218429
 21
-32.908156497599037
 31
0.0
  0
LINE
  5
2DE
  8
ﾚｲﾔ_1
 62
     5
 10
157.03842243218421
 20
-27.908156497599041
 30
0.0
 11
157.03842243218421
 21
-32.908156497599037
 31
0.0
  0
LINE
  5
2DF
  8
ﾚｲﾔ_1
 62
     5
 10
127.03842243218421
 20
-17.908156497599041
 30
0.0
 11
137.03842243218429
 21
-27.908156497599041
 31
0.0
  0
LINE
  5
2E0
  8
ﾚｲﾔ_1
 62
     5
 10
116.5532372469842
 20
-17.908156497599041
 30
0.0
 11
177.52360761738441
 21
-17.908156497599041
 31
0.0
  0
LINE
  5
2E1
  8
ﾚｲﾔ_1
 62
     5
 10
116.5532372469842
 20
-32.908156497599037
 30
0.0
 11
177.52360761738441
 21
-32.908156497599037
 31
0.0
  0
DIMENSION
  5
2E2
  8
0
  2
*D28
 10
131.94319421299761
 20
18.428002168253521
 30
0.0
 11
148.88887373029769
 21
20.385964288349442
 31
0.0
 70
   133
 13
123.7538301934844
 23
-14.62356425889905
 33
0.0
 14
170.32301467088431
 24
-14.62356425889905
 34
0.0
 15
147.03842243218421
 25
-37.908156497599037
 35
0.0
1001
ACAD
1000
DSTYLE
1002
{
1070
   271
1070
     0
1070
    40
1040
1.0
1002
}
  0
ENDSEC
  0
EOF
