  0
SECTION
  2
HEADER
  9
$ACADVER
  1
AC1009
  9
$INSBASE
 10
0.0
 20
0.0
 30
0.0
  9
$EXTMIN
 10
-284.44126356459998
 20
-176.2433415687
 30
0.0
  9
$EXTMAX
 10
289.55873643540002
 20
226.7566584313
 30
0.0
  9
$LIMMIN
 10
0.0
 20
0.0
  9
$LIMMAX
 10
0.0
 20
0.0
  9
$ORTHOMODE
 70
     0
  9
$REGENMODE
 70
     1
  9
$FILLMODE
 70
     1
  9
$QTEXTMODE
 70
     0
  9
$MIRRTEXT
 70
     1
  9
$DRAGMODE
 70
     2
  9
$LTSCALE
 40
1.0
  9
$OSMODE
 70
    31
  9
$ATTMODE
 70
     1
  9
$TEXTSIZE
 40
0.0
  9
$TRACEWID
 40
0.05
  9
$TEXTSTYLE
  7
STANDARD
  9
$CLAYER
  8
0
  9
$CELTYPE
  6
CONTINUOUS
  9
$CECOLOR
 62
   256
  9
$DIMSCALE
 40
1.0
  9
$DIMASZ
 40
0.18
  9
$DIMEXO
 40
0.0625
  9
$DIMDLI
 40
0.38
  9
$DIMRND
 40
0.0
  9
$DIMDLE
 40
0.0
  9
$DIMEXE
 40
0.18
  9
$DIMTP
 40
0.0
  9
$DIMTM
 40
0.0
  9
$DIMTXT
 40
0.18
  9
$DIMCEN
 40
0.09
  9
$DIMTSZ
 40
0.0
  9
$DIMTOL
 70
     0
  9
$DIMLIM
 70
     0
  9
$DIMTIH
 70
     1
  9
$DIMTOH
 70
     1
  9
$DIMSE1
 70
     0
  9
$DIMSE2
 70
     0
  9
$DIMTAD
 70
     0
  9
$DIMZIN
 70
     0
  9
$DIMBLK
  1

  9
$DIMASO
 70
     1
  9
$DIMSHO
 70
     1
  9
$DIMPOST
  1

  9
$DIMAPOST
  1

  9
$DIMALT
 70
     0
  9
$DIMALTD
 70
     2
  9
$DIMALTF
 40
25.399999999999999
  9
$DIMLFAC
 40
1.0
  9
$DIMTOFL
 70
     0
  9
$DIMTVP
 40
0.0
  9
$DIMTIX
 70
     0
  9
$DIMSOXD
 70
     0
  9
$DIMSAH
 70
     0
  9
$DIMBLK1
  1

  9
$DIMBLK2
  1

  9
$DIMSTYLE
  2
STANDARD
  9
$DIMCLRD
 70
     0
  9
$DIMCLRE
 70
     0
  9
$DIMCLRT
 70
     0
  9
$DIMTFAC
 40
1.0
  9
$DIMGAP
 40
0.09
  9
$LUNITS
 70
     2
  9
$LUPREC
 70
     4
  9
$SKETCHINC
 40
0.1
  9
$FILLETRAD
 40
0.0
  9
$AUNITS
 70
     0
  9
$AUPREC
 70
     0
  9
$MENU
  1
acad
  9
$ELEVATION
 40
0.0
  9
$PELEVATION
 40
0.0
  9
$THICKNESS
 40
0.0
  9
$LIMCHECK
 70
     0
  9
$BLIPMODE
 70
     0
  9
$CHAMFERA
 40
0.0
  9
$CHAMFERB
 40
0.0
  9
$SKPOLY
 70
     0
  9
$TDCREATE
 40
2454863.4870547568
  9
$TDUPDATE
 40
2454863.4872520599
  9
$TDINDWG
 40
0.0002096065
  9
$TDUSRTIMER
 40
0.0002092477
  9
$USRTIMER
 70
     1
  9
$ANGBASE
 50
0.0
  9
$ANGDIR
 70
     0
  9
$PDMODE
 70
     3
  9
$PDSIZE
 40
-1.0
  9
$PLINEWID
 40
0.0
  9
$COORDS
 70
     2
  9
$SPLFRAME
 70
     0
  9
$SPLINETYPE
 70
     6
  9
$SPLINESEGS
 70
     8
  9
$ATTDIA
 70
     0
  9
$ATTREQ
 70
     1
  9
$HANDLING
 70
     1
  9
$HANDSEED
  5
61D
  9
$SURFTAB1
 70
     6
  9
$SURFTAB2
 70
     6
  9
$SURFTYPE
 70
     6
  9
$SURFU
 70
     6
  9
$SURFV
 70
     6
  9
$UCSNAME
  2

  9
$UCSORG
 10
0.0
 20
0.0
 30
0.0
  9
$UCSXDIR
 10
1.0
 20
0.0
 30
0.0
  9
$UCSYDIR
 10
0.0
 20
1.0
 30
0.0
  9
$PUCSNAME
  2

  9
$PUCSORG
 10
0.0
 20
0.0
 30
0.0
  9
$PUCSXDIR
 10
1.0
 20
0.0
 30
0.0
  9
$PUCSYDIR
 10
0.0
 20
1.0
 30
0.0
  9
$USERI1
 70
     0
  9
$USERI2
 70
     0
  9
$USERI3
 70
     0
  9
$USERI4
 70
     0
  9
$USERI5
 70
     0
  9
$USERR1
 40
0.0
  9
$USERR2
 40
0.0
  9
$USERR3
 40
0.0
  9
$USERR4
 40
0.0
  9
$USERR5
 40
0.0
  9
$WORLDVIEW
 70
     1
  9
$SHADEDGE
 70
     3
  9
$SHADEDIF
 70
    70
  9
$TILEMODE
 70
     1
  9
$MAXACTVP
 70
    16
  9
$PLIMCHECK
 70
     0
  9
$PEXTMIN
 10
1.0000000000000000E+020
 20
1.0000000000000000E+020
 30
1.0000000000000000E+020
  9
$PEXTMAX
 10
-1.0000000000000000E+020
 20
-1.0000000000000000E+020
 30
-1.0000000000000000E+020
  9
$PLIMMIN
 10
0.0
 20
0.0
  9
$PLIMMAX
 10
12.0
 20
9.0
  9
$UNITMODE
 70
     0
  9
$VISRETAIN
 70
     0
  9
$PLINEGEN
 70
     1
  9
$PSLTSCALE
 70
     0
  0
ENDSEC
  0
SECTION
  2
TABLES
  0
TABLE
  2
VPORT
 70
     2
  0
VPORT
  2
*ACTIVE
 70
     0
 10
0.0
 20
0.0
 11
1.0
 21
1.0
 12
2.558736435400021
 22
25.256658431300028
 13
0.0
 23
0.0
 14
1.0
 24
1.0
 15
0.0
 25
0.0
 16
0.0
 26
0.0
 36
1.0
 17
0.0
 27
0.0
 37
0.0
 40
407.71512969245811
 41
1.4164265129682989
 42
50.0
 43
0.0
 44
0.0
 50
0.0
 51
0.0
 71
     0
 72
   100
 73
     1
 74
     1
 75
     0
 76
     0
 77
     0
 78
     0
  0
ENDTAB
  0
TABLE
  2
LTYPE
 70
    11
  0
LTYPE
  2
CONTINUOUS
 70
     0
  3
Solid line
 72
    65
 73
     0
 40
0.0
  0
LTYPE
  2
DOT
 70
     0
  3
. . . . . . . . 
 72
    65
 73
     2
 40
1.0
 49
0.0
 49
-1.0
  0
LTYPE
  2
DASHED
 70
     0
  3
___  ___  ___  ___  
 72
    65
 73
     2
 40
4.0
 49
3.0
 49
-1.0
  0
LTYPE
  2
HIDDEN
 70
     0
  3
__ __ __ __ 
 72
    65
 73
     2
 40
3.0
 49
2.0
 49
-1.0
  0
LTYPE
  2
STITCH
 70
     0
  3
_ _ _ _ 
 72
    65
 73
     2
 40
2.0
 49
1.0
 49
-1.0
  0
LTYPE
  2
CENTER
 70
     0
  3
______  __  ______  __  
 72
    65
 73
     4
 40
43.0
 49
40.0
 49
-1.0
 49
1.0
 49
-1.0
  0
LTYPE
  2
DASHDOT
 70
     0
  3
____ . ____ . 
 72
    65
 73
     4
 40
32.0
 49
30.0
 49
-1.0
 49
0.0
 49
-1.0
  0
LTYPE
  2
BORDER
 70
     0
  3
__ . __ . 
 72
    65
 73
     4
 40
22.0
 49
20.0
 49
-1.0
 49
0.0
 49
-1.0
  0
LTYPE
  2
CUTTING
 70
     0
  3
________   ___   ___   
 72
    65
 73
     6
 40
45.0
 49
40.0
 49
-1.0
 49
1.0
 49
-1.0
 49
1.0
 49
-1.0
  0
LTYPE
  2
PHANTOM
 70
     0
  3
______  __  __  
 72
    65
 73
     6
 40
35.0
 49
30.0
 49
-1.0
 49
1.0
 49
-1.0
 49
1.0
 49
-1.0
  0
LTYPE
  2
DIVIDE
 70
     0
  3
____ . . ____ . . 
 72
    65
 73
     6
 40
23.0
 49
20.0
 49
-1.0
 49
0.0
 49
-1.0
 49
0.0
 49
-1.0
  0
ENDTAB
  0
TABLE
  2
LAYER
 70
     6
  0
LAYER
  2
0
 70
     0
 62
     7
  6
CONTINUOUS
  0
LAYER
  2
ﾚｲﾔ_10
 70
     0
 62
     7
  6
CONTINUOUS
  0
LAYER
  2
図枠
 70
     0
 62
     7
  6
CONTINUOUS
  0
LAYER
  2
寸法線
 70
     0
 62
     7
  6
CONTINUOUS
  0
LAYER
  2
ﾚｲﾔ_1
 70
     0
 62
     7
  6
CONTINUOUS
  0
LAYER
  2
DEFPOINTS
 70
     0
 62
     7
  6
CONTINUOUS
  0
ENDTAB
  0
TABLE
  2
STYLE
 70
     2
  0
STYLE
  2
STANDARD
 70
     0
 40
0.0
 41
1.0
 50
0.0
 71
     0
 42
0.0
  3
txt
  4
extfont
  0
STYLE
  2
ゴシック
 70
     0
 40
0.0
 41
1.0
 50
0.0
 71
     0
 42
1.7676767676767671
  3
txt
  4

  0
ENDTAB
  0
TABLE
  2
VIEW
 70
     0
  0
ENDTAB
  0
TABLE
  2
UCS
 70
     0
  0
ENDTAB
  0
TABLE
  2
APPID
 70
     2
  0
APPID
  2
ACAD
 70
     0
  0
APPID
  2
DCO15
 70
     0
  0
ENDTAB
  0
TABLE
  2
DIMSTYLE
 70
     6
  0
DIMSTYLE
  2
STANDARD
 70
     0
  3

  4

  5

  6

  7

 40
1.0
 41
0.18
 42
0.0625
 43
0.38
 44
0.18
 45
0.0
 46
0.0
 47
0.0
 48
0.0
140
0.18
141
0.09
142
0.0
143
25.399999999999999
144
1.0
145
0.0
146
1.0
147
0.09
 71
     0
 72
     0
 73
     1
 74
     1
 75
     0
 76
     0
 77
     0
 78
     0
170
     0
171
     2
172
     0
173
     0
174
     0
175
     0
176
     0
177
     0
178
     0
  0
DIMSTYLE
  2
VELDIM0
 70
     0
  3

  4

  5

  6

  7

 40
1.0
 41
6.0
 42
0.0625
 43
0.38
 44
1.0
 45
0.0
 46
5.0
 47
0.0
 48
0.0
140
5.9972220420999998
141
0.09
142
0.0
143
25.399999999999999
144
1.0
145
0.0
146
1.0
147
0.09
 71
     0
 72
     0
 73
     0
 74
     0
 75
     0
 76
     0
 77
     0
 78
     8
170
     0
171
     2
172
     0
173
     0
174
     0
175
     0
176
     0
177
     0
178
     0
  0
DIMSTYLE
  2
VELDIM1
 70
     0
  3

  4

  5

  6

  7

 40
1.0
 41
6.0
 42
0.0625
 43
0.38
 44
1.25
 45
0.0
 46
5.0
 47
0.0
 48
0.0
140
5.9972220420999998
141
0.09
142
0.0
143
25.399999999999999
144
1.0
145
0.0
146
1.0
147
0.09
 71
     0
 72
     0
 73
     0
 74
     0
 75
     0
 76
     0
 77
     0
 78
     8
170
     0
171
     2
172
     0
173
     0
174
     0
175
     0
176
     0
177
     0
178
     0
  0
DIMSTYLE
  2
VELDIM2
 70
     0
  3

  4

  5

  6

  7

 40
1.0
 41
1.200000047699999
 42
0.0625
 43
0.38
 44
0.8000000119
 45
0.0
 46
2.0
 47
0.0
 48
0.0
140
1.079499983799999
141
0.09
142
0.0
143
25.399999999999999
144
1.0
145
0.0
146
1.0
147
0.09
 71
     0
 72
     0
 73
     0
 74
     0
 75
     0
 76
     0
 77
     0
 78
     8
170
     0
171
     2
172
     0
173
     0
174
     0
175
     0
176
     0
177
     0
178
     0
  0
DIMSTYLE
  2
VELDIM3
 70
     0
  3

  4

  5

  6

  7

 40
1.0
 41
1.200000047699999
 42
0.0625
 43
0.38
 44
1.25
 45
0.0
 46
5.0
 47
0.0
 48
0.0
140
1.079499983799999
141
0.09
142
0.0
143
25.399999999999999
144
1.0
145
0.0
146
1.0
147
0.09
 71
     0
 72
     0
 73
     0
 74
     0
 75
     0
 76
     0
 77
     0
 78
     8
170
     0
171
     2
172
     0
173
     0
174
     0
175
     0
176
     0
177
     0
178
     0
  0
DIMSTYLE
  2
基本_１_２_
 70
     0
  3

  4

  5

  6

  7

 40
0.0
 41
2.5
 42
2.5
 43
14.0
 44
2.0
 45
0.0
 46
0.0
 47
0.0
 48
0.0
140
5.0
141
2.0
142
0.0
143
0.0394
144
1.0
145
0.0
146
1.0
147
1.0
 71
     0
 72
     0
 73
     0
 74
     0
 75
     0
 76
     0
 77
     1
 78
     8
170
     0
171
     4
172
     1
173
     0
174
     0
175
     0
176
     4
177
     4
178
     4
  0
ENDTAB
  0
ENDSEC
  0
SECTION
  2
BLOCKS
  0
BLOCK
  8
0
  2
$MODEL_SPACE
 70
     0
 10
0.0
 20
0.0
 30
0.0
  3
$MODEL_SPACE
  1

  0
ENDBLK
  5
E
  8
0
  0
BLOCK
 67
     1
  8
0
  2
$PAPER_SPACE
 70
     0
 10
0.0
 20
0.0
 30
0.0
  3
$PAPER_SPACE
  1

  0
ENDBLK
  5
10
 67
     1
  8
0
  0
BLOCK
  8
0
  2
*D0
 70
     1
 10
0.0
 20
0.0
 30
0.0
  3
*D0
  1

  0
TEXT
  5
6D
  8
0
 62
     0
 10
79.224077796899991
 20
90.542317676500005
 30
0.0
 40
5.9972220420999998
  1
20
  0
LINE
  5
6E
  8
0
 62
     0
 10
72.751855468800002
 20
111.48398437500001
 30
0.0
 11
72.751855468800002
 21
87.483984375000006
 31
0.0
  0
LINE
  5
6F
  8
0
 62
     0
 10
92.751855468799988
 20
101.48398437500001
 30
0.0
 11
92.751855468799988
 21
87.483984375000006
 31
0.0
  0
LINE
  5
70
  8
0
 62
     0
 10
72.751855468800002
 20
88.483984375000006
 30
0.0
 11
89.807410812399993
 21
88.483984375000006
 31
0.0
  0
LINE
  5
71
  8
0
 62
     0
 10
72.751855468800002
 20
88.483984375000006
 30
0.0
 11
75.696300125100009
 21
88.483984375000006
 31
0.0
  0
LINE
  5
72
  8
0
 62
     0
 10
92.751855468799988
 20
88.483984375000006
 30
0.0
 11
89.807410812399993
 21
88.483984375000006
 31
0.0
  0
LINE
  5
73
  8
0
 62
     0
 10
92.751855468799988
 20
88.483984375000006
 30
0.0
 11
75.696300125100009
 21
88.483984375000006
 31
0.0
  0
LINE
  5
74
  8
0
 62
     0
 10
92.751855468799988
 20
88.483984375000006
 30
0.0
 11
97.751855468799988
 21
88.483984375000006
 31
0.0
  0
SOLID
  5
75
  8
0
 62
     0
 10
92.751855468799988
 20
88.483984375000006
 30
0.0
 11
98.751855468799988
 21
89.983984375000006
 31
0.0
 12
98.751855468799988
 22
86.983984375000006
 32
0.0
 13
97.251855468799974
 23
88.483984375000006
 33
0.0
  0
LINE
  5
76
  8
0
 62
     0
 10
72.751855468800002
 20
88.483984375000006
 30
0.0
 11
67.751855468800002
 21
88.483984375000006
 31
0.0
  0
SOLID
  5
77
  8
0
 62
     0
 10
72.751855468800002
 20
88.483984375000006
 30
0.0
 11
66.751855468800002
 21
86.983984375000006
 31
0.0
 12
66.751855468800002
 22
89.983984375000006
 32
0.0
 13
68.251855468800002
 23
88.483984375000006
 33
0.0
  0
ENDBLK
  5
78
  8
0
  0
BLOCK
  8
0
  2
*D1
 70
     1
 10
0.0
 20
0.0
 30
0.0
  3
*D1
  1

  0
TEXT
  5
7D
  8
0
 62
     0
 10
49.224077796899998
 20
90.542317676500005
 30
0.0
 40
5.9972220420999998
  1
10
  0
LINE
  5
7E
  8
0
 62
     0
 10
47.751855468800002
 20
116.48398437500001
 30
0.0
 11
47.751855468800002
 21
87.483984375000006
 31
0.0
  0
LINE
  5
7F
  8
0
 62
     0
 10
57.751855468800002
 20
101.48398437500001
 30
0.0
 11
57.751855468800002
 21
87.483984375000006
 31
0.0
  0
LINE
  5
80
  8
0
 62
     0
 10
47.751855468800002
 20
88.483984375000006
 30
0.0
 11
47.751855468800002
 21
88.483984375000006
 31
0.0
  0
LINE
  5
81
  8
0
 62
     0
 10
47.751855468800002
 20
88.483984375000006
 30
0.0
 11
57.751855468800002
 21
88.483984375000006
 31
0.0
  0
LINE
  5
82
  8
0
 62
     0
 10
57.751855468800002
 20
88.483984375000006
 30
0.0
 11
47.751855468800002
 21
88.483984375000006
 31
0.0
  0
LINE
  5
83
  8
0
 62
     0
 10
57.751855468800002
 20
88.483984375000006
 30
0.0
 11
57.751855468800002
 21
88.483984375000006
 31
0.0
  0
LINE
  5
84
  8
0
 62
     0
 10
57.751855468800002
 20
88.483984375000006
 30
0.0
 11
62.751855468800002
 21
88.483984375000006
 31
0.0
  0
SOLID
  5
85
  8
0
 62
     0
 10
57.751855468800002
 20
88.483984375000006
 30
0.0
 11
63.751855468800002
 21
89.983984375000006
 31
0.0
 12
63.751855468800002
 22
86.983984375000006
 32
0.0
 13
62.251855468800002
 23
88.483984375000006
 33
0.0
  0
LINE
  5
86
  8
0
 62
     0
 10
47.751855468800002
 20
88.483984375000006
 30
0.0
 11
42.751855468800002
 21
88.483984375000006
 31
0.0
  0
SOLID
  5
87
  8
0
 62
     0
 10
47.751855468800002
 20
88.483984375000006
 30
0.0
 11
41.751855468800002
 21
86.983984375000006
 31
0.0
 12
41.751855468800002
 22
89.983984375000006
 32
0.0
 13
43.251855468800002
 23
88.483984375000006
 33
0.0
  0
ENDBLK
  5
88
  8
0
  0
BLOCK
  8
0
  2
*D2
 70
     1
 10
0.0
 20
0.0
 30
0.0
  3
*D2
  1

  0
TEXT
  5
8C
  8
0
 62
     0
 10
61.724077796899998
 20
90.542317676500005
 30
0.0
 40
5.9972220420999998
  1
15
  0
LINE
  5
8D
  8
0
 62
     0
 10
57.751855468800002
 20
101.48398437500001
 30
0.0
 11
57.751855468800002
 21
87.483984375000006
 31
0.0
  0
LINE
  5
8E
  8
0
 62
     0
 10
72.751855468800002
 20
111.48398437500001
 30
0.0
 11
72.751855468800002
 21
87.483984375000006
 31
0.0
  0
LINE
  5
8F
  8
0
 62
     0
 10
57.751855468800002
 20
88.483984375000006
 30
0.0
 11
72.307410812399993
 21
88.483984375000006
 31
0.0
  0
LINE
  5
90
  8
0
 62
     0
 10
57.751855468800002
 20
88.483984375000006
 30
0.0
 11
58.196300125100002
 21
88.483984375000006
 31
0.0
  0
LINE
  5
91
  8
0
 62
     0
 10
72.751855468800002
 20
88.483984375000006
 30
0.0
 11
72.307410812399993
 21
88.483984375000006
 31
0.0
  0
LINE
  5
92
  8
0
 62
     0
 10
72.751855468800002
 20
88.483984375000006
 30
0.0
 11
58.196300125100002
 21
88.483984375000006
 31
0.0
  0
LINE
  5
93
  8
0
 62
     0
 10
72.751855468800002
 20
88.483984375000006
 30
0.0
 11
77.751855468800002
 21
88.483984375000006
 31
0.0
  0
SOLID
  5
94
  8
0
 62
     0
 10
72.751855468800002
 20
88.483984375000006
 30
0.0
 11
78.751855468800002
 21
89.983984375000006
 31
0.0
 12
78.751855468800002
 22
86.983984375000006
 32
0.0
 13
77.251855468800002
 23
88.483984375000006
 33
0.0
  0
LINE
  5
95
  8
0
 62
     0
 10
57.751855468800002
 20
88.483984375000006
 30
0.0
 11
52.751855468800002
 21
88.483984375000006
 31
0.0
  0
SOLID
  5
96
  8
0
 62
     0
 10
57.751855468800002
 20
88.483984375000006
 30
0.0
 11
51.751855468800002
 21
86.983984375000006
 31
0.0
 12
51.751855468800002
 22
89.983984375000006
 32
0.0
 13
53.251855468800002
 23
88.483984375000006
 33
0.0
  0
ENDBLK
  5
97
  8
0
  0
BLOCK
  8
0
  2
*D3
 70
     1
 10
0.0
 20
0.0
 30
0.0
  3
*D3
  1

  0
TEXT
  5
12B
  8
0
 62
     0
 10
-64.477542325599998
 20
140.3657986641
 30
0.0
 40
5.9972220420999998
  1
6
 50
90.0
  0
LINE
  5
12C
  8
0
 62
     0
 10
-81.813085937500006
 20
127.48398437500001
 30
0.0
 11
-61.419209024099992
 21
127.48398437500001
 31
0.0
  0
LINE
  5
12D
  8
0
 62
     0
 10
-80.419209024099999
 20
133.48398437500001
 30
0.0
 11
-61.419209024099992
 21
133.48398437500001
 31
0.0
  0
LINE
  5
12E
  8
0
 62
     0
 10
-62.419209024099999
 20
127.48398437500001
 30
0.0
 11
-62.419209024099999
 21
147.42135400769999
 31
0.0
  0
LINE
  5
12F
  8
0
 62
     0
 10
-62.419209024099999
 20
127.48398437500001
 30
0.0
 11
-62.419209024099999
 21
136.83802099229999
 31
0.0
  0
LINE
  5
130
  8
0
 62
     0
 10
-62.419209024099999
 20
133.48398437500001
 30
0.0
 11
-62.419209024099999
 21
147.42135400769999
 31
0.0
  0
LINE
  5
131
  8
0
 62
     0
 10
-62.419209024099999
 20
133.48398437500001
 30
0.0
 11
-62.419209024099999
 21
136.83802099229999
 31
0.0
  0
LINE
  5
132
  8
0
 62
     0
 10
-62.419209024099999
 20
133.48398437500001
 30
0.0
 11
-62.419209024099999
 21
138.48398437500001
 31
0.0
  0
SOLID
  5
133
  8
0
 62
     0
 10
-62.419209024099999
 20
133.48398437500001
 30
0.0
 11
-63.919209024099992
 21
139.48398437500001
 31
0.0
 12
-60.919209024099999
 22
139.48398437500001
 32
0.0
 13
-62.419209024099999
 23
137.98398437500001
 33
0.0
  0
LINE
  5
134
  8
0
 62
     0
 10
-62.419209024099999
 20
127.48398437500001
 30
0.0
 11
-62.419209024099999
 21
122.48398437500001
 31
0.0
  0
SOLID
  5
135
  8
0
 62
     0
 10
-62.419209024099999
 20
127.48398437500001
 30
0.0
 11
-60.919209024099999
 21
121.48398437500001
 31
0.0
 12
-63.919209024099992
 22
121.48398437500001
 32
0.0
 13
-62.419209024099999
 23
122.98398437500001
 33
0.0
  0
ENDBLK
  5
136
  8
0
  0
BLOCK
  8
0
  2
*D4
 70
     1
 10
0.0
 20
0.0
 30
0.0
  3
*D4
  1

  0
TEXT
  5
13B
  8
0
 62
     0
 10
-50.5900414328
 20
137.44520664359999
 30
0.0
 40
5.9972220420999998
  1
R33
 50
15.0
  0
LINE
  5
13C
  8
0
 62
     0
 10
-79.937533669999993
 20
127.02501286339999
 30
0.0
 11
-36.320615948499999
 21
138.71213074319999
 31
0.0
  0
SOLID
  5
13D
  8
0
 62
     0
 10
-79.937533669999993
 20
127.02501286339999
 30
0.0
 11
-74.530207279899997
 21
130.02681587340001
 31
0.0
 12
-73.753750144600005
 22
127.1290383946
 32
0.0
 13
-75.590867451700007
 23
128.1896985663
 33
0.0
  0
ENDBLK
  5
13E
  8
0
  0
BLOCK
  8
0
  2
*D5
 70
     1
 10
0.0
 20
0.0
 30
0.0
  3
*D5
  1

  0
TEXT
  5
142
  8
0
 62
     0
 10
-87.340863609300001
 20
86.542317676499991
 30
0.0
 40
5.9972220420999998
  1
10
  0
LINE
  5
143
  8
0
 62
     0
 10
-88.813085937500006
 20
102.48398437500001
 30
0.0
 11
-88.813085937500006
 21
83.483984375000006
 31
0.0
  0
LINE
  5
144
  8
0
 62
     0
 10
-78.813085937500006
 20
116.48398437500001
 30
0.0
 11
-78.813085937500006
 21
83.483984375000006
 31
0.0
  0
LINE
  5
145
  8
0
 62
     0
 10
-88.813085937500006
 20
84.483984375000006
 30
0.0
 11
-88.813085937500006
 21
84.483984375000006
 31
0.0
  0
LINE
  5
146
  8
0
 62
     0
 10
-88.813085937500006
 20
84.483984375000006
 30
0.0
 11
-78.813085937500006
 21
84.483984375000006
 31
0.0
  0
LINE
  5
147
  8
0
 62
     0
 10
-78.813085937500006
 20
84.483984375000006
 30
0.0
 11
-88.813085937500006
 21
84.483984375000006
 31
0.0
  0
LINE
  5
148
  8
0
 62
     0
 10
-78.813085937500006
 20
84.483984375000006
 30
0.0
 11
-78.813085937500006
 21
84.483984375000006
 31
0.0
  0
LINE
  5
149
  8
0
 62
     0
 10
-78.813085937500006
 20
84.483984375000006
 30
0.0
 11
-73.813085937500006
 21
84.483984375000006
 31
0.0
  0
SOLID
  5
14A
  8
0
 62
     0
 10
-78.813085937500006
 20
84.483984375000006
 30
0.0
 11
-72.813085937500006
 21
85.983984375000006
 31
0.0
 12
-72.813085937500006
 22
82.983984375000006
 32
0.0
 13
-74.313085937500006
 23
84.483984375000006
 33
0.0
  0
LINE
  5
14B
  8
0
 62
     0
 10
-88.813085937500006
 20
84.483984375000006
 30
0.0
 11
-93.813085937500006
 21
84.483984375000006
 31
0.0
  0
SOLID
  5
14C
  8
0
 62
     0
 10
-88.813085937500006
 20
84.483984375000006
 30
0.0
 11
-94.813085937500006
 21
82.983984375000006
 31
0.0
 12
-94.813085937500006
 22
85.983984375000006
 32
0.0
 13
-93.313085937500006
 23
84.483984375000006
 33
0.0
  0
ENDBLK
  5
14D
  8
0
  0
BLOCK
  8
0
  2
*D6
 70
     1
 10
0.0
 20
0.0
 30
0.0
  3
*D6
  1

  0
TEXT
  5
151
  8
0
 62
     0
 10
-64.477542325599998
 20
114.9562067032
 30
0.0
 40
5.9972220420999998
  1
18
 50
90.0
  0
LINE
  5
152
  8
0
 62
     0
 10
-81.813085937500006
 20
109.48398437500001
 30
0.0
 11
-61.419209024099992
 21
109.48398437500001
 31
0.0
  0
LINE
  5
153
  8
0
 62
     0
 10
-81.813085937500006
 20
127.48398437500001
 30
0.0
 11
-61.419209024099992
 21
127.48398437500001
 31
0.0
  0
LINE
  5
154
  8
0
 62
     0
 10
-62.419209024099999
 20
109.48398437500001
 30
0.0
 11
-62.419209024099999
 21
125.5395397186
 31
0.0
  0
LINE
  5
155
  8
0
 62
     0
 10
-62.419209024099999
 20
109.48398437500001
 30
0.0
 11
-62.419209024099999
 21
111.4284290314
 31
0.0
  0
LINE
  5
156
  8
0
 62
     0
 10
-62.419209024099999
 20
127.48398437500001
 30
0.0
 11
-62.419209024099999
 21
125.5395397186
 31
0.0
  0
LINE
  5
157
  8
0
 62
     0
 10
-62.419209024099999
 20
127.48398437500001
 30
0.0
 11
-62.419209024099999
 21
111.4284290314
 31
0.0
  0
LINE
  5
158
  8
0
 62
     0
 10
-62.419209024099999
 20
127.48398437500001
 30
0.0
 11
-62.419209024099999
 21
132.48398437500001
 31
0.0
  0
SOLID
  5
159
  8
0
 62
     0
 10
-62.419209024099999
 20
127.48398437500001
 30
0.0
 11
-63.919209024099992
 21
133.48398437500001
 31
0.0
 12
-60.919209024099999
 22
133.48398437500001
 32
0.0
 13
-62.419209024099999
 23
131.98398437500001
 33
0.0
  0
LINE
  5
15A
  8
0
 62
     0
 10
-62.419209024099999
 20
109.48398437500001
 30
0.0
 11
-62.419209024099999
 21
104.48398437500001
 31
0.0
  0
SOLID
  5
15B
  8
0
 62
     0
 10
-62.419209024099999
 20
109.48398437500001
 30
0.0
 11
-60.919209024099999
 21
103.48398437500001
 31
0.0
 12
-63.919209024099992
 22
103.48398437500001
 32
0.0
 13
-62.419209024099999
 23
104.98398437500001
 33
0.0
  0
ENDBLK
  5
15C
  8
0
  0
BLOCK
  8
0
  2
*D7
 70
     1
 10
0.0
 20
0.0
 30
0.0
  3
*D7
  1

  0
TEXT
  5
160
  8
0
 62
     0
 10
-64.477542325599998
 20
93.236892414099984
 30
0.0
 40
5.9972220420999998
  1
6
 50
90.0
  0
LINE
  5
161
  8
0
 62
     0
 10
-80.419209024099999
 20
103.48398437500001
 30
0.0
 11
-61.419209024099992
 21
103.48398437500001
 31
0.0
  0
LINE
  5
162
  8
0
 62
     0
 10
-81.813085937500006
 20
109.48398437500001
 30
0.0
 11
-61.419209024099992
 21
109.48398437500001
 31
0.0
  0
LINE
  5
163
  8
0
 62
     0
 10
-62.419209024099999
 20
103.48398437500001
 30
0.0
 11
-62.419209024099999
 21
100.2924477577
 31
0.0
  0
LINE
  5
164
  8
0
 62
     0
 10
-62.419209024099999
 20
103.48398437500001
 30
0.0
 11
-62.419209024099999
 21
89.709114742300002
 31
0.0
  0
LINE
  5
165
  8
0
 62
     0
 10
-62.419209024099999
 20
109.48398437500001
 30
0.0
 11
-62.419209024099999
 21
100.2924477577
 31
0.0
  0
LINE
  5
166
  8
0
 62
     0
 10
-62.419209024099999
 20
109.48398437500001
 30
0.0
 11
-62.419209024099999
 21
89.709114742300002
 31
0.0
  0
LINE
  5
167
  8
0
 62
     0
 10
-62.419209024099999
 20
109.48398437500001
 30
0.0
 11
-62.419209024099999
 21
114.48398437500001
 31
0.0
  0
SOLID
  5
168
  8
0
 62
     0
 10
-62.419209024099999
 20
109.48398437500001
 30
0.0
 11
-63.919209024099992
 21
115.48398437500001
 31
0.0
 12
-60.919209024099999
 22
115.48398437500001
 32
0.0
 13
-62.419209024099999
 23
113.98398437500001
 33
0.0
  0
LINE
  5
169
  8
0
 62
     0
 10
-62.419209024099999
 20
103.48398437500001
 30
0.0
 11
-62.419209024099999
 21
98.483984375000006
 31
0.0
  0
SOLID
  5
16A
  8
0
 62
     0
 10
-62.419209024099999
 20
103.48398437500001
 30
0.0
 11
-60.919209024099999
 21
97.483984375000006
 31
0.0
 12
-63.919209024099992
 22
97.483984375000006
 32
0.0
 13
-62.419209024099999
 23
98.983984375000006
 33
0.0
  0
ENDBLK
  5
16B
  8
0
  0
BLOCK
  8
0
  2
*D8
 70
     1
 10
0.0
 20
0.0
 30
0.0
  3
*D8
  1

  0
TEXT
  5
193
  8
0
 62
     0
 10
-153.1696159162
 20
-42.438171870600002
 30
0.0
 40
5.9972220420999998
  1
90%%d
 50
311.4270382899
  0
ARC
  5
194
  8
0
 62
     0
 10
-170.81308593750001
 20
-65.065234375000003
 30
0.0
 40
25.025607492100001
 50
56.555031557600003
 51
83.329047325700003
  0
ARC
  5
195
  8
0
 62
     0
 10
-170.81308593750001
 20
-65.065234375000003
 30
0.0
 40
25.025607492100001
 50
0.0
 51
26.7740157681
  0
SOLID
  5
196
  8
0
 62
     0
 10
-145.78747844540001
 20
-65.065234375000003
 30
0.0
 11
-144.28747844540001
 21
-71.065234375000003
 31
0.0
 12
-147.28747844540001
 22
-71.065234375000003
 32
0.0
 13
-145.78747844540001
 23
-69.565234375000003
 33
0.0
  0
SOLID
  5
197
  8
0
 62
     0
 10
-167.90593086300001
 20
-40.209058488099998
 30
0.0
 11
-174.0395597063
 21
-41.00189971639999
 31
0.0
 12
-173.69105806740001
 22
-38.022210704499997
 32
0.0
 13
-172.37546438090001
 23
-39.686306029900003
 33
0.0
  0
ARC
  5
198
  8
0
 62
     0
 10
-170.81308593750001
 20
-65.065234375000003
 30
0.0
 40
25.025607492100001
 50
0.0
 51
20.947592264899999
  0
ARC
  5
199
  8
0
 62
     0
 10
-170.81308593750001
 20
-65.065234375000003
 30
0.0
 40
25.025607492100001
 50
61.906484314899998
 51
83.329047325700003
  0
LINE
  5
19A
  8
0
 62
     0
 10
-82.813085937500006
 20
-65.065234375000003
 30
0.0
 11
-149.78747844540001
 21
-65.065234375000003
 31
0.0
  0
LINE
  5
19B
  8
0
 62
     0
 10
-165.81308593750001
 20
-27.065234374999999
 30
0.0
 11
-165.81308593750001
 21
-44.039626882900002
 31
0.0
  0
ENDBLK
  5
19C
  8
0
  0
BLOCK
  8
0
  2
*D9
 70
     1
 10
0.0
 20
0.0
 30
0.0
  3
*D9
  1

  0
TEXT
  5
1A0
  8
0
 62
     0
 10
-127.3408636093
 20
-86.006901073500003
 30
0.0
 40
5.9972220420999998
  1
90
  0
LINE
  5
1A1
  8
0
 62
     0
 10
-168.81308593750001
 20
-65.065234375000003
 30
0.0
 11
-168.81308593750001
 21
-89.065234375000003
 31
0.0
  0
LINE
  5
1A2
  8
0
 62
     0
 10
-78.813085937500006
 20
-70.065234375000003
 30
0.0
 11
-78.813085937500006
 21
-89.065234375000003
 31
0.0
  0
LINE
  5
1A3
  8
0
 62
     0
 10
-168.81308593750001
 20
-88.065234375000003
 30
0.0
 11
-116.7575305939
 21
-88.065234375000003
 31
0.0
  0
LINE
  5
1A4
  8
0
 62
     0
 10
-168.81308593750001
 20
-88.065234375000003
 30
0.0
 11
-130.8686412811
 21
-88.065234375000003
 31
0.0
  0
LINE
  5
1A5
  8
0
 62
     0
 10
-78.813085937500006
 20
-88.065234375000003
 30
0.0
 11
-116.7575305939
 21
-88.065234375000003
 31
0.0
  0
LINE
  5
1A6
  8
0
 62
     0
 10
-78.813085937500006
 20
-88.065234375000003
 30
0.0
 11
-130.8686412811
 21
-88.065234375000003
 31
0.0
  0
LINE
  5
1A7
  8
0
 62
     0
 10
-78.813085937500006
 20
-88.065234375000003
 30
0.0
 11
-83.813085937500006
 21
-88.065234375000003
 31
0.0
  0
SOLID
  5
1A8
  8
0
 62
     0
 10
-78.813085937500006
 20
-88.065234375000003
 30
0.0
 11
-84.813085937500006
 21
-89.565234375000017
 31
0.0
 12
-84.813085937500006
 22
-86.565234375000003
 32
0.0
 13
-83.313085937500006
 23
-88.065234375000003
 33
0.0
  0
LINE
  5
1A9
  8
0
 62
     0
 10
-168.81308593750001
 20
-88.065234375000003
 30
0.0
 11
-163.81308593750001
 21
-88.065234375000003
 31
0.0
  0
SOLID
  5
1AA
  8
0
 62
     0
 10
-168.81308593750001
 20
-88.065234375000003
 30
0.0
 11
-162.81308593750001
 21
-86.565234375000003
 31
0.0
 12
-162.81308593750001
 22
-89.565234375000017
 32
0.0
 13
-164.31308593750001
 23
-88.065234375000003
 33
0.0
  0
ENDBLK
  5
1AB
  8
0
  0
BLOCK
  8
0
  2
*D10
 70
     1
 10
0.0
 20
0.0
 30
0.0
  3
*D10
  1

  0
TEXT
  5
1B2
  8
0
 62
     0
 10
-190.87141923900001
 20
122.4562067032
 30
0.0
 40
5.9972220420999998
  1
15
 50
90.0
  0
LINE
  5
1B3
  8
0
 62
     0
 10
-170.81308593750001
 20
133.48398437500001
 30
0.0
 11
-189.81308593750001
 21
133.48398437500001
 31
0.0
  0
LINE
  5
1B4
  8
0
 62
     0
 10
-120.31308593750001
 20
118.48398437500001
 30
0.0
 11
-189.81308593750001
 21
118.48398437500001
 31
0.0
  0
LINE
  5
1B5
  8
0
 62
     0
 10
-188.81308593750001
 20
133.48398437500001
 30
0.0
 11
-188.81308593750001
 21
133.0395397186
 31
0.0
  0
LINE
  5
1B6
  8
0
 62
     0
 10
-188.81308593750001
 20
133.48398437500001
 30
0.0
 11
-188.81308593750001
 21
118.9284290314
 31
0.0
  0
LINE
  5
1B7
  8
0
 62
     0
 10
-188.81308593750001
 20
118.48398437500001
 30
0.0
 11
-188.81308593750001
 21
133.0395397186
 31
0.0
  0
LINE
  5
1B8
  8
0
 62
     0
 10
-188.81308593750001
 20
118.48398437500001
 30
0.0
 11
-188.81308593750001
 21
118.9284290314
 31
0.0
  0
LINE
  5
1B9
  8
0
 62
     0
 10
-188.81308593750001
 20
118.48398437500001
 30
0.0
 11
-188.81308593750001
 21
113.48398437500001
 31
0.0
  0
SOLID
  5
1BA
  8
0
 62
     0
 10
-188.81308593750001
 20
118.48398437500001
 30
0.0
 11
-187.31308593750001
 21
112.48398437500001
 31
0.0
 12
-190.31308593750001
 22
112.48398437500001
 32
0.0
 13
-188.81308593750001
 23
113.98398437500001
 33
0.0
  0
LINE
  5
1BB
  8
0
 62
     0
 10
-188.81308593750001
 20
133.48398437500001
 30
0.0
 11
-188.81308593750001
 21
138.48398437500001
 31
0.0
  0
SOLID
  5
1BC
  8
0
 62
     0
 10
-188.81308593750001
 20
133.48398437500001
 30
0.0
 11
-190.31308593750001
 21
139.48398437500001
 31
0.0
 12
-187.31308593750001
 22
139.48398437500001
 32
0.0
 13
-188.81308593750001
 23
137.98398437500001
 33
0.0
  0
ENDBLK
  5
1BD
  8
0
  0
BLOCK
  8
0
  2
*D11
 70
     1
 10
0.0
 20
0.0
 30
0.0
  3
*D11
  1

  0
TEXT
  5
1C1
  8
0
 62
     0
 10
-190.87141923900001
 20
107.4562067032
 30
0.0
 40
5.9972220420999998
  1
15
 50
90.0
  0
LINE
  5
1C2
  8
0
 62
     0
 10
-120.31308593750001
 20
118.48398437500001
 30
0.0
 11
-189.81308593750001
 21
118.48398437500001
 31
0.0
  0
LINE
  5
1C3
  8
0
 62
     0
 10
-170.81308593750001
 20
103.48398437500001
 30
0.0
 11
-189.81308593750001
 21
103.48398437500001
 31
0.0
  0
LINE
  5
1C4
  8
0
 62
     0
 10
-188.81308593750001
 20
118.48398437500001
 30
0.0
 11
-188.81308593750001
 21
118.0395397186
 31
0.0
  0
LINE
  5
1C5
  8
0
 62
     0
 10
-188.81308593750001
 20
118.48398437500001
 30
0.0
 11
-188.81308593750001
 21
103.9284290314
 31
0.0
  0
LINE
  5
1C6
  8
0
 62
     0
 10
-188.81308593750001
 20
103.48398437500001
 30
0.0
 11
-188.81308593750001
 21
118.0395397186
 31
0.0
  0
LINE
  5
1C7
  8
0
 62
     0
 10
-188.81308593750001
 20
103.48398437500001
 30
0.0
 11
-188.81308593750001
 21
103.9284290314
 31
0.0
  0
LINE
  5
1C8
  8
0
 62
     0
 10
-188.81308593750001
 20
103.48398437500001
 30
0.0
 11
-188.81308593750001
 21
98.483984375000006
 31
0.0
  0
SOLID
  5
1C9
  8
0
 62
     0
 10
-188.81308593750001
 20
103.48398437500001
 30
0.0
 11
-187.31308593750001
 21
97.483984375000006
 31
0.0
 12
-190.31308593750001
 22
97.483984375000006
 32
0.0
 13
-188.81308593750001
 23
98.983984375000006
 33
0.0
  0
LINE
  5
1CA
  8
0
 62
     0
 10
-188.81308593750001
 20
118.48398437500001
 30
0.0
 11
-188.81308593750001
 21
123.48398437500001
 31
0.0
  0
SOLID
  5
1CB
  8
0
 62
     0
 10
-188.81308593750001
 20
118.48398437500001
 30
0.0
 11
-190.31308593750001
 21
124.48398437500001
 31
0.0
 12
-187.31308593750001
 22
124.48398437500001
 32
0.0
 13
-188.81308593750001
 23
122.98398437500001
 33
0.0
  0
ENDBLK
  5
1CC
  8
0
  0
BLOCK
  8
0
  2
*D12
 70
     1
 10
0.0
 20
0.0
 30
0.0
  3
*D12
  1

  0
TEXT
  5
1D0
  8
0
 62
     0
 10
-207.11442178199999
 20
114.9562067032
 30
0.0
 40
5.9972220420999998
  1
30
 50
90.0
  0
LINE
  5
1D1
  8
0
 62
     0
 10
-170.81308593750001
 20
133.48398437500001
 30
0.0
 11
-206.05608848040001
 21
133.48398437500001
 31
0.0
  0
LINE
  5
1D2
  8
0
 62
     0
 10
-170.81308593750001
 20
103.48398437500001
 30
0.0
 11
-206.05608848040001
 21
103.48398437500001
 31
0.0
  0
LINE
  5
1D3
  8
0
 62
     0
 10
-205.05608848040001
 20
133.48398437500001
 30
0.0
 11
-205.05608848040001
 21
125.5395397186
 31
0.0
  0
LINE
  5
1D4
  8
0
 62
     0
 10
-205.05608848040001
 20
133.48398437500001
 30
0.0
 11
-205.05608848040001
 21
111.4284290314
 31
0.0
  0
LINE
  5
1D5
  8
0
 62
     0
 10
-205.05608848040001
 20
103.48398437500001
 30
0.0
 11
-205.05608848040001
 21
125.5395397186
 31
0.0
  0
LINE
  5
1D6
  8
0
 62
     0
 10
-205.05608848040001
 20
103.48398437500001
 30
0.0
 11
-205.05608848040001
 21
111.4284290314
 31
0.0
  0
LINE
  5
1D7
  8
0
 62
     0
 10
-205.05608848040001
 20
103.48398437500001
 30
0.0
 11
-205.05608848040001
 21
108.48398437500001
 31
0.0
  0
SOLID
  5
1D8
  8
0
 62
     0
 10
-205.05608848040001
 20
103.48398437500001
 30
0.0
 11
-206.55608848040001
 21
109.48398437500001
 31
0.0
 12
-203.55608848040001
 22
109.48398437500001
 32
0.0
 13
-205.05608848040001
 23
107.98398437500001
 33
0.0
  0
LINE
  5
1D9
  8
0
 62
     0
 10
-205.05608848040001
 20
133.48398437500001
 30
0.0
 11
-205.05608848040001
 21
128.48398437500001
 31
0.0
  0
SOLID
  5
1DA
  8
0
 62
     0
 10
-205.05608848040001
 20
133.48398437500001
 30
0.0
 11
-203.55608848040001
 21
127.48398437500001
 31
0.0
 12
-206.55608848040001
 22
127.48398437500001
 32
0.0
 13
-205.05608848040001
 23
128.98398437500001
 33
0.0
  0
ENDBLK
  5
1DB
  8
0
  0
BLOCK
  8
0
  2
*D13
 70
     1
 10
0.0
 20
0.0
 30
0.0
  3
*D13
  1

  0
TEXT
  5
1DF
  8
0
 62
     0
 10
-132.6186412811
 20
86.542317676499991
 30
0.0
 40
5.9972220420999998
  1
24.5
  0
LINE
  5
1E0
  8
0
 62
     0
 10
-137.81308593750001
 20
102.48398437500001
 30
0.0
 11
-137.81308593750001
 21
83.483984375000006
 31
0.0
  0
LINE
  5
1E1
  8
0
 62
     0
 10
-113.31308593750001
 20
111.48398437500001
 30
0.0
 11
-113.31308593750001
 21
83.483984375000006
 31
0.0
  0
LINE
  5
1E2
  8
0
 62
     0
 10
-137.81308593750001
 20
84.483984375000006
 30
0.0
 11
-114.9797529221
 21
84.483984375000006
 31
0.0
  0
LINE
  5
1E3
  8
0
 62
     0
 10
-137.81308593750001
 20
84.483984375000006
 30
0.0
 11
-136.14641895290001
 21
84.483984375000006
 31
0.0
  0
LINE
  5
1E4
  8
0
 62
     0
 10
-113.31308593750001
 20
84.483984375000006
 30
0.0
 11
-114.9797529221
 21
84.483984375000006
 31
0.0
  0
LINE
  5
1E5
  8
0
 62
     0
 10
-113.31308593750001
 20
84.483984375000006
 30
0.0
 11
-136.14641895290001
 21
84.483984375000006
 31
0.0
  0
LINE
  5
1E6
  8
0
 62
     0
 10
-113.31308593750001
 20
84.483984375000006
 30
0.0
 11
-108.31308593750001
 21
84.483984375000006
 31
0.0
  0
SOLID
  5
1E7
  8
0
 62
     0
 10
-113.31308593750001
 20
84.483984375000006
 30
0.0
 11
-107.31308593750001
 21
85.983984375000006
 31
0.0
 12
-107.31308593750001
 22
82.983984375000006
 32
0.0
 13
-108.81308593750001
 23
84.483984375000006
 33
0.0
  0
LINE
  5
1E8
  8
0
 62
     0
 10
-137.81308593750001
 20
84.483984375000006
 30
0.0
 11
-142.81308593750001
 21
84.483984375000006
 31
0.0
  0
SOLID
  5
1E9
  8
0
 62
     0
 10
-137.81308593750001
 20
84.483984375000006
 30
0.0
 11
-143.81308593750001
 21
82.983984375000006
 31
0.0
 12
-143.81308593750001
 22
85.983984375000006
 32
0.0
 13
-142.31308593750001
 23
84.483984375000006
 33
0.0
  0
ENDBLK
  5
1EA
  8
0
  0
BLOCK
  8
0
  2
*D14
 70
     1
 10
0.0
 20
0.0
 30
0.0
  3
*D14
  1

  0
TEXT
  5
1EE
  8
0
 62
     0
 10
-156.84086360929999
 20
86.542317676499991
 30
0.0
 40
5.9972220420999998
  1
31
  0
LINE
  5
1EF
  8
0
 62
     0
 10
-168.81308593750001
 20
101.48398437500001
 30
0.0
 11
-168.81308593750001
 21
83.483984375000006
 31
0.0
  0
LINE
  5
1F0
  8
0
 62
     0
 10
-137.81308593750001
 20
102.48398437500001
 30
0.0
 11
-137.81308593750001
 21
83.483984375000006
 31
0.0
  0
LINE
  5
1F1
  8
0
 62
     0
 10
-168.81308593750001
 20
84.483984375000006
 30
0.0
 11
-146.25753059389999
 21
84.483984375000006
 31
0.0
  0
LINE
  5
1F2
  8
0
 62
     0
 10
-168.81308593750001
 20
84.483984375000006
 30
0.0
 11
-160.3686412811
 21
84.483984375000006
 31
0.0
  0
LINE
  5
1F3
  8
0
 62
     0
 10
-137.81308593750001
 20
84.483984375000006
 30
0.0
 11
-146.25753059389999
 21
84.483984375000006
 31
0.0
  0
LINE
  5
1F4
  8
0
 62
     0
 10
-137.81308593750001
 20
84.483984375000006
 30
0.0
 11
-160.3686412811
 21
84.483984375000006
 31
0.0
  0
LINE
  5
1F5
  8
0
 62
     0
 10
-137.81308593750001
 20
84.483984375000006
 30
0.0
 11
-142.81308593750001
 21
84.483984375000006
 31
0.0
  0
SOLID
  5
1F6
  8
0
 62
     0
 10
-137.81308593750001
 20
84.483984375000006
 30
0.0
 11
-143.81308593750001
 21
82.983984375000006
 31
0.0
 12
-143.81308593750001
 22
85.983984375000006
 32
0.0
 13
-142.31308593750001
 23
84.483984375000006
 33
0.0
  0
LINE
  5
1F7
  8
0
 62
     0
 10
-168.81308593750001
 20
84.483984375000006
 30
0.0
 11
-163.81308593750001
 21
84.483984375000006
 31
0.0
  0
SOLID
  5
1F8
  8
0
 62
     0
 10
-168.81308593750001
 20
84.483984375000006
 30
0.0
 11
-162.81308593750001
 21
85.983984375000006
 31
0.0
 12
-162.81308593750001
 22
82.983984375000006
 32
0.0
 13
-164.31308593750001
 23
84.483984375000006
 33
0.0
  0
ENDBLK
  5
1F9
  8
0
  0
BLOCK
  8
0
  2
*D15
 70
     1
 10
0.0
 20
0.0
 30
0.0
  3
*D15
  1

  0
TEXT
  5
1FD
  8
0
 62
     0
 10
-108.1186412811
 20
86.542317676499991
 30
0.0
 40
5.9972220420999998
  1
24.5
  0
LINE
  5
1FE
  8
0
 62
     0
 10
-113.31308593750001
 20
111.48398437500001
 30
0.0
 11
-113.31308593750001
 21
83.483984375000006
 31
0.0
  0
LINE
  5
1FF
  8
0
 62
     0
 10
-88.813085937500006
 20
102.48398437500001
 30
0.0
 11
-88.813085937500006
 21
83.483984375000006
 31
0.0
  0
LINE
  5
200
  8
0
 62
     0
 10
-113.31308593750001
 20
84.483984375000006
 30
0.0
 11
-90.479752922099991
 21
84.483984375000006
 31
0.0
  0
LINE
  5
201
  8
0
 62
     0
 10
-113.31308593750001
 20
84.483984375000006
 30
0.0
 11
-111.64641895290001
 21
84.483984375000006
 31
0.0
  0
LINE
  5
202
  8
0
 62
     0
 10
-88.813085937500006
 20
84.483984375000006
 30
0.0
 11
-90.479752922099991
 21
84.483984375000006
 31
0.0
  0
LINE
  5
203
  8
0
 62
     0
 10
-88.813085937500006
 20
84.483984375000006
 30
0.0
 11
-111.64641895290001
 21
84.483984375000006
 31
0.0
  0
LINE
  5
204
  8
0
 62
     0
 10
-88.813085937500006
 20
84.483984375000006
 30
0.0
 11
-83.813085937500006
 21
84.483984375000006
 31
0.0
  0
SOLID
  5
205
  8
0
 62
     0
 10
-88.813085937500006
 20
84.483984375000006
 30
0.0
 11
-82.813085937500006
 21
85.983984375000006
 31
0.0
 12
-82.813085937500006
 22
82.983984375000006
 32
0.0
 13
-84.313085937500006
 23
84.483984375000006
 33
0.0
  0
LINE
  5
206
  8
0
 62
     0
 10
-113.31308593750001
 20
84.483984375000006
 30
0.0
 11
-118.31308593750001
 21
84.483984375000006
 31
0.0
  0
SOLID
  5
207
  8
0
 62
     0
 10
-113.31308593750001
 20
84.483984375000006
 30
0.0
 11
-119.31308593750001
 21
82.983984375000006
 31
0.0
 12
-119.31308593750001
 22
85.983984375000006
 32
0.0
 13
-117.81308593750001
 23
84.483984375000006
 33
0.0
  0
ENDBLK
  5
208
  8
0
  0
BLOCK
  8
0
  2
*D16
 70
     1
 10
0.0
 20
0.0
 30
0.0
  3
*D16
  1

  0
TEXT
  5
22F
  8
0
 62
     0
 10
-190.87141923900001
 20
-49.093012046800013
 30
0.0
 40
5.9972220420999998
  1
45
 50
90.0
  0
LINE
  5
230
  8
0
 62
     0
 10
-170.81308593750001
 20
-23.065234374999999
 30
0.0
 11
-189.81308593750001
 21
-23.065234374999999
 31
0.0
  0
LINE
  5
231
  8
0
 62
     0
 10
-165.81308593750001
 20
-68.065234375000003
 30
0.0
 11
-189.81308593750001
 21
-68.065234375000003
 31
0.0
  0
LINE
  5
232
  8
0
 62
     0
 10
-188.81308593750001
 20
-23.065234374999999
 30
0.0
 11
-188.81308593750001
 21
-38.509679031399997
 31
0.0
  0
LINE
  5
233
  8
0
 62
     0
 10
-188.81308593750001
 20
-23.065234374999999
 30
0.0
 11
-188.81308593750001
 21
-52.620789718599987
 31
0.0
  0
LINE
  5
234
  8
0
 62
     0
 10
-188.81308593750001
 20
-68.065234375000003
 30
0.0
 11
-188.81308593750001
 21
-38.509679031399997
 31
0.0
  0
LINE
  5
235
  8
0
 62
     0
 10
-188.81308593750001
 20
-68.065234375000003
 30
0.0
 11
-188.81308593750001
 21
-52.620789718599987
 31
0.0
  0
LINE
  5
236
  8
0
 62
     0
 10
-188.81308593750001
 20
-68.065234375000003
 30
0.0
 11
-188.81308593750001
 21
-63.065234375000003
 31
0.0
  0
SOLID
  5
237
  8
0
 62
     0
 10
-188.81308593750001
 20
-68.065234375000003
 30
0.0
 11
-190.31308593750001
 21
-62.065234375000003
 31
0.0
 12
-187.31308593750001
 22
-62.065234375000003
 32
0.0
 13
-188.81308593750001
 23
-63.565234375000003
 33
0.0
  0
LINE
  5
238
  8
0
 62
     0
 10
-188.81308593750001
 20
-23.065234374999999
 30
0.0
 11
-188.81308593750001
 21
-28.065234374999999
 31
0.0
  0
SOLID
  5
239
  8
0
 62
     0
 10
-188.81308593750001
 20
-23.065234374999999
 30
0.0
 11
-187.31308593750001
 21
-29.065234374999999
 31
0.0
 12
-190.31308593750001
 22
-29.065234374999999
 32
0.0
 13
-188.81308593750001
 23
-27.565234374999999
 33
0.0
  0
ENDBLK
  5
23A
  8
0
  0
BLOCK
  8
0
  2
*D17
 70
     1
 10
0.0
 20
0.0
 30
0.0
  3
*D17
  1

  0
TEXT
  5
240
  8
0
 62
     0
 10
5.8985247135999996
 20
141.09743083699999
 30
0.0
 40
5.9972220420999998
  1
R33
 50
345.0
  0
LINE
  5
241
  8
0
 62
     0
 10
48.876303201199988
 20
127.02501286339999
 30
0.0
 11
5.2593854797999997
 21
138.71213074319999
 31
0.0
  0
SOLID
  5
242
  8
0
 62
     0
 10
48.876303201199988
 20
127.02501286339999
 30
0.0
 11
42.692519675799993
 21
127.1290383946
 31
0.0
 12
43.468976811099992
 22
130.02681587340001
 32
0.0
 13
44.529636982900001
 23
128.1896985663
 33
0.0
  0
ENDBLK
  5
243
  8
0
  0
BLOCK
  8
0
  2
*D18
 70
     1
 10
0.0
 20
0.0
 30
0.0
  3
*D18
  1

  0
TEXT
  5
24B
  8
0
 62
     0
 10
-160.55752458469999
 20
-1.006901073499999
 30
0.0
 40
5.9972220420999998
  1
3t
  0
LINE
  5
24C
  8
0
 62
     0
 10
-165.81308593750001
 20
-21.065234374999999
 30
0.0
 11
-165.81308593750001
 21
-2.0652343750000002
 31
0.0
  0
LINE
  5
24D
  8
0
 62
     0
 10
-168.81308593750001
 20
-21.065234374999999
 30
0.0
 11
-168.81308593750001
 21
-2.0652343750000002
 31
0.0
  0
LINE
  5
24E
  8
0
 62
     0
 10
-165.81308593750001
 20
-3.0652343750000002
 30
0.0
 11
-149.9741915692
 21
-3.0652343750000002
 31
0.0
  0
LINE
  5
24F
  8
0
 62
     0
 10
-165.81308593750001
 20
-3.0652343750000002
 30
0.0
 11
-164.0853022565
 21
-3.0652343750000002
 31
0.0
  0
LINE
  5
250
  8
0
 62
     0
 10
-168.81308593750001
 20
-3.0652343750000002
 30
0.0
 11
-149.9741915692
 21
-3.0652343750000002
 31
0.0
  0
LINE
  5
251
  8
0
 62
     0
 10
-168.81308593750001
 20
-3.0652343750000002
 30
0.0
 11
-164.0853022565
 21
-3.0652343750000002
 31
0.0
  0
LINE
  5
252
  8
0
 62
     0
 10
-168.81308593750001
 20
-3.0652343750000002
 30
0.0
 11
-173.81308593750001
 21
-3.0652343750000002
 31
0.0
  0
SOLID
  5
253
  8
0
 62
     0
 10
-168.81308593750001
 20
-3.0652343750000002
 30
0.0
 11
-174.81308593750001
 21
-4.5652343750000002
 31
0.0
 12
-174.81308593750001
 22
-1.565234375
 32
0.0
 13
-173.31308593750001
 23
-3.0652343750000002
 33
0.0
  0
LINE
  5
254
  8
0
 62
     0
 10
-165.81308593750001
 20
-3.0652343750000002
 30
0.0
 11
-160.81308593750001
 21
-3.0652343750000002
 31
0.0
  0
SOLID
  5
255
  8
0
 62
     0
 10
-165.81308593750001
 20
-3.0652343750000002
 30
0.0
 11
-159.81308593750001
 21
-1.565234375
 31
0.0
 12
-159.81308593750001
 22
-4.5652343750000002
 32
0.0
 13
-161.31308593750001
 23
-3.0652343750000002
 33
0.0
  0
ENDBLK
  5
256
  8
0
  0
BLOCK
  8
0
  2
*D19
 70
     1
 10
0.0
 20
0.0
 30
0.0
  3
*D19
  1

  0
TEXT
  5
266
  8
0
 62
     0
 10
-139.40058591370001
 20
-60.474734371899991
 30
0.0
 40
1.079499983799999
  1
%%c7.5
  0
LINE
  5
267
  8
0
 62
     0
 10
-134.06308593750001
 20
-63.065234375000003
 30
0.0
 11
-134.06308593750001
 21
-60.265234363099999
 31
0.0
  0
LINE
  5
268
  8
0
 62
     0
 10
-141.56308593750001
 20
-63.065234375000003
 30
0.0
 11
-141.56308593750001
 21
-60.265234363099999
 31
0.0
  0
LINE
  5
269
  8
0
 62
     0
 10
-134.06308593750001
 20
-61.065234375000003
 30
0.0
 11
-135.59058597090001
 21
-61.065234375000003
 31
0.0
  0
LINE
  5
26A
  8
0
 62
     0
 10
-134.06308593750001
 20
-61.065234375000003
 30
0.0
 11
-140.0355859041
 21
-61.065234375000003
 31
0.0
  0
LINE
  5
26B
  8
0
 62
     0
 10
-141.56308593750001
 20
-61.065234375000003
 30
0.0
 11
-135.59058597090001
 21
-61.065234375000003
 31
0.0
  0
LINE
  5
26C
  8
0
 62
     0
 10
-141.56308593750001
 20
-61.065234375000003
 30
0.0
 11
-140.0355859041
 21
-61.065234375000003
 31
0.0
  0
LINE
  5
26D
  8
0
 62
     0
 10
-141.56308593750001
 20
-61.065234375000003
 30
0.0
 11
-139.56308593750001
 21
-61.065234375000003
 31
0.0
  0
SOLID
  5
26E
  8
0
 62
     0
 10
-141.56308593750001
 20
-61.065234375000003
 30
0.0
 11
-140.3630858898
 21
-60.743634384899991
 31
0.0
 12
-140.3630858898
 22
-61.3868343651
 32
0.0
 13
-140.66308590169999
 23
-61.065234375000003
 33
0.0
  0
LINE
  5
26F
  8
0
 62
     0
 10
-134.06308593750001
 20
-61.065234375000003
 30
0.0
 11
-136.06308593750001
 21
-61.065234375000003
 31
0.0
  0
SOLID
  5
270
  8
0
 62
     0
 10
-134.06308593750001
 20
-61.065234375000003
 30
0.0
 11
-135.26308598520001
 21
-61.3868343651
 31
0.0
 12
-135.26308598520001
 22
-60.743634384899991
 32
0.0
 13
-134.9630859733
 23
-61.065234375000003
 33
0.0
  0
ENDBLK
  5
271
  8
0
  0
BLOCK
  8
0
  2
*D20
 70
     1
 10
0.0
 20
0.0
 30
0.0
  3
*D20
  1

  0
TEXT
  5
275
  8
0
 62
     0
 10
-139.40058591370001
 20
-73.581177285999985
 30
0.0
 40
1.079499983799999
  1
%%c4.2
  0
LINE
  5
276
  8
0
 62
     0
 10
-139.9130859375
 20
-70.065234375000003
 30
0.0
 11
-139.9130859375
 21
-74.971677301
 31
0.0
  0
LINE
  5
277
  8
0
 62
     0
 10
-135.71308593750001
 20
-70.065234375000003
 30
0.0
 11
-135.71308593750001
 21
-74.971677301
 31
0.0
  0
LINE
  5
278
  8
0
 62
     0
 10
-139.9130859375
 20
-74.171677289100003
 30
0.0
 11
-139.9130859375
 21
-74.171677289100003
 31
0.0
  0
LINE
  5
279
  8
0
 62
     0
 10
-139.9130859375
 20
-74.171677289100003
 30
0.0
 11
-135.71308593750001
 21
-74.171677289100003
 31
0.0
  0
LINE
  5
27A
  8
0
 62
     0
 10
-135.71308593750001
 20
-74.171677289100003
 30
0.0
 11
-139.9130859375
 21
-74.171677289100003
 31
0.0
  0
LINE
  5
27B
  8
0
 62
     0
 10
-135.71308593750001
 20
-74.171677289100003
 30
0.0
 11
-135.71308593750001
 21
-74.171677289100003
 31
0.0
  0
LINE
  5
27C
  8
0
 62
     0
 10
-135.71308593750001
 20
-74.171677289100003
 30
0.0
 11
-137.71308593750001
 21
-74.171677289100003
 31
0.0
  0
SOLID
  5
27D
  8
0
 62
     0
 10
-135.71308593750001
 20
-74.171677289100003
 30
0.0
 11
-136.91308598520001
 21
-74.493277279200001
 31
0.0
 12
-136.91308598520001
 22
-73.850077298900004
 32
0.0
 13
-136.6130859733
 23
-74.171677289100003
 33
0.0
  0
LINE
  5
27E
  8
0
 62
     0
 10
-139.9130859375
 20
-74.171677289100003
 30
0.0
 11
-137.9130859375
 21
-74.171677289100003
 31
0.0
  0
SOLID
  5
27F
  8
0
 62
     0
 10
-139.9130859375
 20
-74.171677289100003
 30
0.0
 11
-138.7130858898
 21
-73.850077298900004
 31
0.0
 12
-138.7130858898
 22
-74.493277279200001
 32
0.0
 13
-139.01308590170001
 23
-74.171677289100003
 33
0.0
  0
ENDBLK
  5
280
  8
0
  0
BLOCK
  8
0
  2
*D21
 70
     1
 10
0.0
 20
0.0
 30
0.0
  3
*D21
  1

  0
TEXT
  5
285
  8
0
 62
     0
 10
-138.76558592320001
 20
-57.720272913400002
 30
0.0
 40
1.079499983799999
  1
90%%d
  0
ARC
  5
286
  8
0
 62
     0
 10
-137.81308593750001
 20
-68.815234375000003
 30
0.0
 40
10.523461470199999
 50
127.4809723186
 51
135.0
  0
ARC
  5
287
  8
0
 62
     0
 10
-137.81308593750001
 20
-68.815234375000003
 30
0.0
 40
10.523461470199999
 50
45.0
 51
52.519027681399997
  0
SOLID
  5
288
  8
0
 62
     0
 10
-130.3718749704
 20
-61.374023407899998
 30
0.0
 11
-129.29594126539999
 21
-61.995146045200002
 31
0.0
 12
-129.7507523331
 22
-62.449957112900002
 32
0.0
 13
-129.73547884199999
 23
-62.01041953619999
 33
0.0
  0
SOLID
  5
289
  8
0
 62
     0
 10
-145.25429690460001
 20
-61.374023407899998
 30
0.0
 11
-145.87541954189999
 21
-62.449957112900002
 31
0.0
 12
-146.33023060959999
 22
-61.995146045200002
 32
0.0
 13
-145.89069303299999
 23
-62.01041953619999
 33
0.0
  0
ARC
  5
28A
  8
0
 62
     0
 10
-137.81308593750001
 20
-68.815234375000003
 30
0.0
 40
10.523461470199999
 50
45.0
 51
81.212514112999983
  0
ARC
  5
28B
  8
0
 62
     0
 10
-137.81308593750001
 20
-68.815234375000003
 30
0.0
 40
10.523461470199999
 50
98.787485887000003
 51
135.0
  0
LINE
  5
28C
  8
0
 62
     0
 10
-133.4974005041
 20
-64.499548941599997
 30
0.0
 11
-129.80618953699999
 21
-60.808337974499999
 31
0.0
  0
LINE
  5
28D
  8
0
 62
     0
 10
-142.12877137090001
 20
-64.499548941599997
 30
0.0
 11
-145.81998233799999
 21
-60.808337974499999
 31
0.0
  0
ENDBLK
  5
28E
  8
0
  0
BLOCK
  8
0
  2
*D22
 70
     1
 10
0.0
 20
0.0
 30
0.0
  3
*D22
  1

  0
LINE
  5
29F
  8
0
 62
     4
 10
99.654321868384983
 20
-1.622089728898787
 30
0.0
 11
117.25710668575741
 21
15.980695088473629
 31
0.0
  0
LINE
  5
2A0
  8
0
 62
     4
 10
49.549603485052401
 20
-1.6220897288987779
 30
0.0
 11
31.946818667679931
 21
15.98069508847383
 31
0.0
  0
ARC
  5
2A1
  8
0
 62
     4
 10
74.601962676718585
 20
-26.67444892056514
 30
0.0
 40
58.323483162560159
 50
47.456136176855878
 51
132.54386382314379
  0
SOLID
  5
2A2
  8
0
 62
     4
 10
114.32589073202899
 20
16.59682998282743
 30
0.0
 11
113.7493994699205
 21
15.99508064202424
 31
0.0
 12
115.8428931233843
 22
14.56648152610053
 32
0.0
 13
115.8428931233843
 23
14.56648152610053
 33
0.0
  0
SOLID
  5
2A3
  8
0
 62
     4
 10
35.454525883516801
 20
15.99508064202444
 30
0.0
 11
34.878034621408382
 21
16.596829982827629
 31
0.0
 12
33.36103223005302
 22
14.566481526100739
 32
0.0
 13
33.36103223005302
 23
14.566481526100739
 33
0.0
  0
INSERT
  5
2A4
  8
0
  6
CONTINUOUS
  2
*U64
 10
0.0
 20
0.0
 30
0.0
  0
POINT
  5
2A5
  8
DEFPOINTS
 62
     0
 10
74.601962676718585
 20
-26.67444892056514
 30
0.0
  0
POINT
  5
2A6
  8
DEFPOINTS
 62
     0
 10
97.886554915418614
 20
-3.3898566818651541
 30
0.0
  0
POINT
  5
2A7
  8
DEFPOINTS
 62
     0
 10
51.31737043801877
 20
-3.3898566818651541
 30
0.0
  0
POINT
  5
2A8
  8
DEFPOINTS
 62
     0
 10
59.506734457531977
 20
29.6617097452874
 30
0.0
  0
ENDBLK
  5
2A9
  8
0
  0
BLOCK
  8
0
  2
*D23
 70
     1
 10
0.0
 20
0.0
 30
0.0
  3
*D23
  1

  0
LINE
  5
2AC
  8
0
 62
     4
 10
54.601962676718578
 20
-4.1119489205651396
 30
0.0
 11
54.601962676718578
 21
14.29740881552493
 31
0.0
  0
LINE
  5
2AD
  8
0
 62
     4
 10
94.601962676718585
 20
-4.1119489205651396
 30
0.0
 11
94.601962676718585
 21
14.29740881552493
 31
0.0
  0
LINE
  5
2AE
  8
0
 62
     4
 10
57.101962676718578
 20
12.29740881552493
 30
0.0
 11
92.101962676718585
 21
12.29740881552493
 31
0.0
  0
SOLID
  5
2AF
  8
0
 62
     4
 10
57.101962676718578
 20
12.7140754821916
 30
0.0
 11
57.101962676718578
 21
11.880742148858261
 31
0.0
 12
54.601962676718578
 22
12.29740881552493
 32
0.0
 13
54.601962676718578
 23
12.29740881552493
 33
0.0
  0
SOLID
  5
2B0
  8
0
 62
     4
 10
92.101962676718585
 20
12.7140754821916
 30
0.0
 11
92.101962676718585
 21
11.880742148858261
 31
0.0
 12
94.601962676718585
 22
12.29740881552493
 32
0.0
 13
94.601962676718585
 23
12.29740881552493
 33
0.0
  0
INSERT
  5
2B1
  8
0
  6
CONTINUOUS
  2
*U65
 10
0.0
 20
0.0
 30
0.0
  0
POINT
  5
2B2
  8
DEFPOINTS
 62
     0
 10
54.601962676718578
 20
-6.6119489205651396
 30
0.0
  0
POINT
  5
2B3
  8
DEFPOINTS
 62
     0
 10
94.601962676718585
 20
-6.6119489205651396
 30
0.0
  0
POINT
  5
2B4
  8
DEFPOINTS
 62
     0
 10
94.601962676718585
 20
12.29740881552493
 30
0.0
  0
ENDBLK
  5
2B5
  8
0
  0
BLOCK
  8
0
  2
*D24
 70
     1
 10
0.0
 20
0.0
 30
0.0
  3
*D24
  1

  0
LINE
  5
2B8
  8
0
 62
     4
 10
64.601962676718699
 20
-24.23694892056514
 30
0.0
 11
64.601962676718699
 21
-43.888937011566213
 31
0.0
  0
LINE
  5
2B9
  8
0
 62
     4
 10
84.601962676718585
 20
-24.23694892056514
 30
0.0
 11
84.601962676718585
 21
-43.888937011566213
 31
0.0
  0
LINE
  5
2BA
  8
0
 62
     4
 10
67.101962676718699
 20
-41.888937011566213
 30
0.0
 11
82.101962676718585
 21
-41.888937011566213
 31
0.0
  0
SOLID
  5
2BB
  8
0
 62
     4
 10
67.101962676718699
 20
-41.472270344899542
 30
0.0
 11
67.101962676718699
 21
-42.30560367823287
 31
0.0
 12
64.601962676718699
 22
-41.888937011566213
 32
0.0
 13
64.601962676718699
 23
-41.888937011566213
 33
0.0
  0
SOLID
  5
2BC
  8
0
 62
     4
 10
82.101962676718585
 20
-41.472270344899542
 30
0.0
 11
82.101962676718585
 21
-42.30560367823287
 31
0.0
 12
84.601962676718585
 22
-41.888937011566213
 32
0.0
 13
84.601962676718585
 23
-41.888937011566213
 33
0.0
  0
INSERT
  5
2BD
  8
0
  6
CONTINUOUS
  2
*U66
 10
0.0
 20
0.0
 30
0.0
  0
POINT
  5
2BE
  8
DEFPOINTS
 62
     0
 10
64.601962676718699
 20
-21.73694892056514
 30
0.0
  0
POINT
  5
2BF
  8
DEFPOINTS
 62
     0
 10
84.601962676718585
 20
-21.73694892056514
 30
0.0
  0
POINT
  5
2C0
  8
DEFPOINTS
 62
     0
 10
84.601962676718585
 20
-41.888937011566213
 30
0.0
  0
ENDBLK
  5
2C1
  8
0
  0
BLOCK
  8
0
  2
*D26
 70
     1
 10
0.0
 20
0.0
 30
0.0
  3
*D26
  1

  0
LINE
  5
308
  8
0
 62
     4
 10
74.241981055036717
 20
-37.221019535170598
 30
0.0
 11
74.241981055036717
 21
-56.87300762617167
 31
0.0
  0
LINE
  5
309
  8
0
 62
     4
 10
94.241981055036604
 20
-37.221019535170598
 30
0.0
 11
94.241981055036604
 21
-56.87300762617167
 31
0.0
  0
LINE
  5
30A
  8
0
 62
     4
 10
76.741981055036717
 20
-54.87300762617167
 30
0.0
 11
91.741981055036604
 21
-54.87300762617167
 31
0.0
  0
SOLID
  5
30B
  8
0
 62
     4
 10
76.741981055036717
 20
-54.456340959504999
 30
0.0
 11
76.741981055036717
 21
-55.289674292838342
 31
0.0
 12
74.241981055036717
 22
-54.87300762617167
 32
0.0
 13
74.241981055036717
 23
-54.87300762617167
 33
0.0
  0
SOLID
  5
30C
  8
0
 62
     4
 10
91.741981055036604
 20
-54.456340959504999
 30
0.0
 11
91.741981055036604
 21
-55.289674292838342
 31
0.0
 12
94.241981055036604
 22
-54.87300762617167
 32
0.0
 13
94.241981055036604
 23
-54.87300762617167
 33
0.0
  0
INSERT
  5
30D
  8
0
  6
CONTINUOUS
  2
*U67
 10
0.0
 20
0.0
 30
0.0
  0
POINT
  5
30E
  8
DEFPOINTS
 62
     0
 10
74.241981055036717
 20
-34.721019535170598
 30
0.0
  0
POINT
  5
30F
  8
DEFPOINTS
 62
     0
 10
94.241981055036604
 20
-34.721019535170598
 30
0.0
  0
POINT
  5
310
  8
DEFPOINTS
 62
     0
 10
94.241981055036604
 20
-54.87300762617167
 30
0.0
  0
ENDBLK
  5
2EE
  8
0
  0
BLOCK
  8
0
  2
*D27
 70
     1
 10
0.0
 20
0.0
 30
0.0
  3
*D27
  1

  0
LINE
  5
311
  8
0
 62
     4
 10
64.241981055036604
 20
-17.096019535170601
 30
0.0
 11
64.241981055036604
 21
1.3133382009194741
 31
0.0
  0
LINE
  5
312
  8
0
 62
     4
 10
104.2419810550366
 20
-17.096019535170601
 30
0.0
 11
104.2419810550366
 21
1.3133382009194741
 31
0.0
  0
LINE
  5
313
  8
0
 62
     4
 10
66.741981055036604
 20
-0.6866617990805253
 30
0.0
 11
101.7419810550366
 21
-0.6866617990805253
 31
0.0
  0
SOLID
  5
314
  8
0
 62
     4
 10
66.741981055036604
 20
-0.2699951324138587
 30
0.0
 11
66.741981055036604
 21
-1.1033284657471909
 31
0.0
 12
64.241981055036604
 22
-0.6866617990805253
 32
0.0
 13
64.241981055036604
 23
-0.6866617990805253
 33
0.0
  0
SOLID
  5
315
  8
0
 62
     4
 10
101.7419810550366
 20
-0.2699951324138587
 30
0.0
 11
101.7419810550366
 21
-1.1033284657471909
 31
0.0
 12
104.2419810550366
 22
-0.6866617990805253
 32
0.0
 13
104.2419810550366
 23
-0.6866617990805253
 33
0.0
  0
INSERT
  5
316
  8
0
  6
CONTINUOUS
  2
*U68
 10
0.0
 20
0.0
 30
0.0
  0
POINT
  5
317
  8
DEFPOINTS
 62
     0
 10
64.241981055036604
 20
-19.596019535170601
 30
0.0
  0
POINT
  5
318
  8
DEFPOINTS
 62
     0
 10
104.2419810550366
 20
-19.596019535170601
 30
0.0
  0
POINT
  5
319
  8
DEFPOINTS
 62
     0
 10
104.2419810550366
 20
-0.6866617990805253
 30
0.0
  0
ENDBLK
  5
2FA
  8
0
  0
BLOCK
  8
0
  2
*D28
 70
     1
 10
0.0
 20
0.0
 30
0.0
  3
*D28
  1

  0
LINE
  5
3E0
  8
0
 62
     4
 10
109.294340246703
 20
-14.606160343504239
 30
0.0
 11
126.8971250640755
 21
2.996624473868164
 31
0.0
  0
LINE
  5
3E1
  8
0
 62
     4
 10
59.189621863370412
 20
-14.60616034350423
 30
0.0
 11
41.586837045997918
 21
2.9966244738683931
 31
0.0
  0
ARC
  5
3E2
  8
0
 62
     4
 10
84.24198105503659
 20
-39.658519535170591
 30
0.0
 40
58.32348316256018
 50
47.456136176855857
 51
132.54386382314379
  0
SOLID
  5
3E3
  8
0
 62
     4
 10
123.965909110347
 20
3.612759368221969
 30
0.0
 11
123.38941784823859
 21
3.011010027418783
 31
0.0
 12
125.4829115017024
 22
1.5824109114950711
 32
0.0
 13
125.4829115017024
 23
1.5824109114950711
 33
0.0
  0
SOLID
  5
3E4
  8
0
 62
     4
 10
45.094544261834798
 20
3.0110100274190001
 30
0.0
 11
44.518052999726358
 21
3.6127593682221879
 31
0.0
 12
43.001050608371017
 22
1.582410911495298
 32
0.0
 13
43.001050608371017
 23
1.582410911495298
 33
0.0
  0
TEXT
  8
0
  40
5
  5
3F2
  62
4
  72
0
  71
0
 10
76.2035
 20
13.2838
 30
0.000000
  1
90°
  7
ゴシック
  0
POINT
  5
3E6
  8
DEFPOINTS
 62
     0
 10
84.24198105503659
 20
-39.658519535170591
 30
0.0
  0
POINT
  5
3E7
  8
DEFPOINTS
 62
     0
 10
107.5265732937366
 20
-16.373927296470612
 30
0.0
  0
POINT
  5
3E8
  8
DEFPOINTS
 62
     0
 10
60.957388816336781
 20
-16.373927296470612
 30
0.0
  0
POINT
  5
3E9
  8
DEFPOINTS
 62
     0
 10
69.146752835849995
 20
16.67763913068196
 30
0.0
  0
ENDBLK
  5
307
  8
0
  0
BLOCK
  8
0
  2
*U29
 70
     1
 10
0.0
 20
0.0
 30
0.0
  3
*U29
  1

  0
TEXT
  5
335
  8
図枠
  6
CONTINUOUS
 10
111.2706084173952
 20
207.8099706984346
 30
0.0
 40
5.3974999188999986
  1
改訂日
  0
ENDBLK
  5
337
  8
0
  0
BLOCK
  8
0
  2
*U30
 70
     1
 10
0.0
 20
0.0
 30
0.0
  3
*U30
  1

  0
TEXT
  5
339
  8
図枠
  6
CONTINUOUS
 10
90.805011917588587
 20
207.86476765192589
 30
0.0
 40
5.3974999188999986
  1
副番
  0
ENDBLK
  5
33B
  8
0
  0
BLOCK
  8
0
  2
*U31
 70
     1
 10
0.0
 20
0.0
 30
0.0
  3
*U31
  1

  0
TEXT
  5
33D
  8
図枠
  6
CONTINUOUS
 10
163.42067842245129
 20
207.75517374494319
 30
0.0
 40
5.3974999188999986
  1
改　訂　内　容
  0
ENDBLK
  5
33F
  8
0
  0
BLOCK
  8
0
  2
*U32
 70
     1
 10
0.0
 20
0.0
 30
0.0
  3
*U32
  1

  0
TEXT
  5
341
  8
図枠
  6
CONTINUOUS
 10
237.55829242322491
 20
207.75517374494319
 30
0.0
 40
5.3974999188999986
  1
改訂者
  0
ENDBLK
  5
343
  8
0
  0
BLOCK
  8
0
  2
*U33
 70
     1
 10
0.0
 20
0.0
 30
0.0
  3
*U33
  1

  0
TEXT
  5
345
  8
図枠
  6
CONTINUOUS
 10
257.47609699298789
 20
207.72777526819749
 30
0.0
 40
5.3974999188999986
  1
検認者
  0
ENDBLK
  5
347
  8
0
  0
BLOCK
  8
0
  2
*U34
 70
     1
 10
0.0
 20
0.0
 30
0.0
  3
*U34
  1

  0
TEXT
  5
349
  8
図枠
  6
CONTINUOUS
 10
119.9626459552949
 20
-110.86659021403599
 30
0.0
 40
5.6099999188999989
  1
指定無き公差はJIS 0408-Bによること
  0
ENDBLK
  5
34B
  8
0
  0
BLOCK
  8
0
  2
*U35
 70
     1
 10
0.0
 20
0.0
 30
0.0
  3
*U35
  1

  0
TEXT
  5
34D
  8
図枠
  6
CONTINUOUS
 10
136.34452323743051
 20
-136.948063205735
 30
0.0
 40
4.6749999999999989
  1
園 原
  0
ENDBLK
  5
34F
  8
0
  0
BLOCK
  8
0
  2
*U36
 70
     1
 10
0.0
 20
0.0
 30
0.0
  3
*U36
  1

  0
TEXT
  5
351
  8
図枠
  6
CONTINUOUS
 10
136.34452323743051
 20
-145.448063205735
 30
0.0
 40
4.6749999999999989
  1
園 原
  0
ENDBLK
  5
353
  8
0
  0
BLOCK
  8
0
  2
*U37
 70
     1
 10
0.0
 20
0.0
 30
0.0
  3
*U37
  1

  0
TEXT
  5
355
  8
図枠
  6
CONTINUOUS
 10
51.33439653950888
 20
-110.9235445279335
 30
0.0
 40
5.6099999188999989
  1
一般公差
  0
ENDBLK
  5
357
  8
0
  0
BLOCK
  8
0
  2
*U38
 70
     1
 10
0.0
 20
0.0
 30
0.0
  3
*U38
  1

  0
TEXT
  5
359
  8
図枠
  6
CONTINUOUS
 10
99.353089227278176
 20
-128.32940838339999
 30
0.0
 40
4.6749999999999989
  1
1：2
  0
ENDBLK
  5
35B
  8
0
  0
BLOCK
  8
0
  2
*U39
 70
     1
 10
0.0
 20
0.0
 30
0.0
  3
*U39
  1

  0
TEXT
  5
35D
  8
図枠
  6
CONTINUOUS
 10
45.5587364354
 20
-137.01925609913599
 30
0.0
 40
4.6749999999999989
  1
 設計
  0
ENDBLK
  5
35F
  8
0
  0
BLOCK
  8
0
  2
*U40
 70
     1
 10
0.0
 20
0.0
 30
0.0
  3
*U40
  1

  0
TEXT
  5
361
  8
図枠
  6
CONTINUOUS
 10
74.920665369410145
 20
-137.09044899253701
 30
0.0
 40
4.6749999999999989
  1
白須賀
  0
ENDBLK
  5
363
  8
0
  0
BLOCK
  8
0
  2
*U41
 70
     1
 10
0.0
 20
0.0
 30
0.0
  3
*U41
  1

  0
TEXT
  5
365
  8
図枠
  6
CONTINUOUS
 10
51.248965068662677
 20
-88.75268158624111
 30
0.0
 40
5.6099999188999989
  1
材　　質
  0
ENDBLK
  5
367
  8
0
  0
BLOCK
  8
0
  2
*U42
 70
     1
 10
0.0
 20
0.0
 30
0.0
  3
*U42
  1

  0
TEXT
  5
369
  8
図枠
  6
CONTINUOUS
 10
105.03893295708249
 20
-88.440563610799984
 30
0.0
 40
5.9972220420999998
  1
SUS304-HL
  0
ENDBLK
  5
36B
  8
0
  0
BLOCK
  8
0
  2
*U43
 70
     1
 10
0.0
 20
0.0
 30
0.0
  3
*U43
  1

  0
TEXT
  5
36D
  8
図枠
  6
CONTINUOUS
 10
105.55873643539999
 20
-145.59044899253701
 30
0.0
 40
4.6749999999999989
  1
 検図
  0
ENDBLK
  5
36F
  8
0
  0
BLOCK
  8
0
  2
*U44
 70
     1
 10
0.0
 20
0.0
 30
0.0
  3
*U44
  1

  0
TEXT
  5
371
  8
図枠
  6
CONTINUOUS
 10
76.320792272963445
 20
-145.61417995700401
 30
0.0
 40
4.6749999999999989
  1
岸 本
  0
ENDBLK
  5
373
  8
0
  0
BLOCK
  8
0
  2
*U45
 70
     1
 10
0.0
 20
0.0
 30
0.0
  3
*U45
  1

  0
TEXT
  5
375
  8
図枠
  6
CONTINUOUS
 10
53.999843884999997
 20
-160.3148884716274
 30
0.0
 40
8.6359998702999992
  1
株式会社
  0
ENDBLK
  5
377
  8
0
  0
BLOCK
  8
0
  2
*U46
 70
     1
 10
0.0
 20
0.0
 30
0.0
  3
*U46
  1

  0
TEXT
  5
379
  8
図枠
  6
CONTINUOUS
 10
51.192010754765221
 20
-99.809635900138588
 30
0.0
 40
5.6099999188999989
  1
表面処理
  0
ENDBLK
  5
37B
  8
0
  0
BLOCK
  8
0
  2
*U47
 70
     1
 10
0.0
 20
0.0
 30
0.0
  3
*U47
  1

  0
TEXT
  5
37D
  8
図枠
  6
CONTINUOUS
 10
57.929231359257862
 20
-128.32940838339999
 30
0.0
 40
4.6749999999999989
  1
H16.4
  0
ENDBLK
  5
37F
  8
0
  0
BLOCK
  8
0
  2
*U48
 70
     1
 10
0.0
 20
0.0
 30
0.0
  3
*U48
  1

  0
TEXT
  5
381
  8
図枠
  6
CONTINUOUS
 10
95.200170445552288
 20
-120.06671802807
 30
0.0
 40
4.6749999999999989
  1
尺 　度
  0
ENDBLK
  5
383
  8
0
  0
BLOCK
  8
0
  2
*U49
 70
     1
 10
0.0
 20
0.0
 30
0.0
  3
*U49
  1

  0
TEXT
  5
385
  8
図枠
  6
CONTINUOUS
 10
48.361655217125879
 20
-145.56671802807
 30
0.0
 40
4.6749999999999989
  1
製図
  0
ENDBLK
  5
387
  8
0
  0
BLOCK
  8
0
  2
*U50
 70
     1
 10
0.0
 20
0.0
 30
0.0
  3
*U50
  1

  0
TEXT
  5
389
  8
図枠
  6
CONTINUOUS
 10
105.55873643539999
 20
-137.04298706360299
 30
0.0
 40
4.6749999999999989
  1
 照査
  0
ENDBLK
  5
38B
  8
0
  0
BLOCK
  8
0
  2
*U51
 70
     1
 10
0.0
 20
0.0
 30
0.0
  3
*U51
  1

  0
TEXT
  5
38D
  8
ﾚｲﾔ_10
  6
CONTINUOUS
 10
59.341863976325378
 20
-72.168316223627414
 30
0.0
 40
5.9972220420999998
  1
皿モミ部拡大図
  0
ENDBLK
  5
38F
  8
0
  0
BLOCK
  8
0
  2
*U52
 70
     1
 10
0.0
 20
0.0
 30
0.0
  3
*U52
  1

  0
TEXT
  5
391
  8
図枠
  6
CONTINUOUS
 10
55.698520699359378
 20
-119.924332241268
 30
0.0
 40
4.6749999999999989
  1
日 　付
  0
ENDBLK
  5
393
  8
0
  0
BLOCK
  8
0
  2
*U53
 70
     1
 10
0.0
 20
0.0
 30
0.0
  3
*U53
  1

  0
TEXT
  5
395
  8
図枠
  6
CONTINUOUS
 10
163.17777217629089
 20
-88.866590214036037
 30
0.0
 40
5.6099999188999989
  1
板　　厚
  0
ENDBLK
  5
397
  8
0
  0
BLOCK
  8
0
  2
*U54
 70
     1
 10
0.0
 20
0.0
 30
0.0
  3
*U54
  1

  0
TEXT
  5
399
  8
図枠
  6
CONTINUOUS
 10
228.2295994841279
 20
-88.903341487599988
 30
0.0
 40
6.4599999188999986
  1
3.0t
  0
ENDBLK
  5
39B
  8
0
  0
BLOCK
  8
0
  2
*U55
 70
     1
 10
0.0
 20
0.0
 30
0.0
  3
*U55
  1

  0
TEXT
  5
39D
  8
図枠
  6
CONTINUOUS
 10
166.00708668920711
 20
-119.65565121337001
 30
0.0
 40
4.6749999999999989
  1
製品名
  0
ENDBLK
  5
39F
  8
0
  0
BLOCK
  8
0
  2
*U56
 70
     1
 10
0.0
 20
0.0
 30
0.0
  3
*U56
  1

  0
TEXT
  5
3A1
  8
図枠
  6
CONTINUOUS
 10
166.11387602930861
 20
-153.560727355502
 30
0.0
 40
4.6749999999999989
  1
図　番
  0
ENDBLK
  5
3A3
  8
0
  0
BLOCK
  8
0
  2
*U57
 70
     1
 10
0.0
 20
0.0
 30
0.0
  3
*U57
  1

  0
TEXT
  5
3A5
  8
図枠
  6
CONTINUOUS
 10
166.13760699377559
 20
-136.60818928443601
 30
0.0
 40
4.6749999999999989
  1
図面名
  0
ENDBLK
  5
3A7
  8
0
  0
BLOCK
  8
0
  2
*U58
 70
     1
 10
0.0
 20
0.0
 30
0.0
  3
*U58
  1

  0
TEXT
  5
3A9
  8
図枠
  6
CONTINUOUS
 10
200.11303403654841
 20
-158.71056361079999
 30
0.0
 40
5.9972220420999998
  1
ＳＲＫ００１０９
  0
ENDBLK
  5
3AB
  8
0
  0
BLOCK
  8
0
  2
*U59
 70
     1
 10
0.0
 20
0.0
 30
0.0
  3
*U59
  1

  0
TEXT
  5
3AD
  8
図枠
  6
CONTINUOUS
 10
196.7034458704814
 20
-125.3194186404548
 30
0.0
 40
5.9972220420999998
  1
Ｌ型アングルワイド
  0
ENDBLK
  5
3AF
  8
0
  0
BLOCK
  8
0
  2
*U60
 70
     1
 10
0.0
 20
0.0
 30
0.0
  3
*U60
  1

  0
TEXT
  5
3B1
  8
図枠
  6
CONTINUOUS
 10
194.13103337018981
 20
-141.83233461673089
 30
0.0
 40
5.9972220420999998
  1
LS-105 45x90 承認図
  0
ENDBLK
  5
3B3
  8
0
  0
BLOCK
  8
0
  2
*U61
 70
     1
 10
0.0
 20
0.0
 30
0.0
  3
*U61
  1

  0
TEXT
  5
3B5
  8
ﾚｲﾔ_10
  6
CONTINUOUS
 10
-128.58906481913399
 20
144.06475185049999
 30
0.0
 40
5.9972220420999998
  1
ＨＬ
  0
ENDBLK
  5
3B7
  8
0
  0
BLOCK
  8
0
  2
*D62
 70
     1
 10
0.0
 20
0.0
 30
0.0
  3
*D62
  1

  0
LINE
  5
3B9
  8
寸法線
 62
     0
 10
-78.125585937500006
 20
-65.065234375000003
 30
0.0
 11
-147.03747844540089
 21
-65.065234375000003
 31
0.0
  0
LINE
  5
3BA
  8
寸法線
 62
     0
 10
-165.82034638830871
 20
-22.377311229414929
 30
0.0
 11
-168.0511398791819
 21
-41.450595576379769
 31
0.0
  0
ARC
  5
3BB
  8
寸法線
 62
     0
 10
-170.81308593750001
 20
-65.065234375000003
 30
0.0
 40
25.02560749209912
 50
13.77003212889578
 51
18.65747739868392
  0
ARC
  5
3BC
  8
寸法線
 62
     0
 10
-170.81308593750001
 20
-65.065234375000003
 30
0.0
 40
25.02560749209912
 50
64.196599181112546
 51
69.559015196850325
  0
SOLID
  5
3BD
  8
寸法線
 62
     0
 10
-145.5139529782243
 20
-58.988624808901008
 30
0.0
 11
-147.49953043031999
 21
-59.228379228524751
 31
0.0
 12
-145.78747844540089
 22
-65.065234375000017
 32
0.0
 13
-145.78747844540089
 23
-65.065234375000017
 33
0.0
  0
SOLID
  5
3BE
  8
寸法線
 62
     0
 10
-162.30747745580209
 20
-42.587570511880969
 30
0.0
 11
-161.83868725387799
 21
-40.643287675825484
 31
0.0
 12
-167.90593086300649
 22
-40.20905848808097
 32
0.0
 13
-167.90593086300649
 23
-40.20905848808097
 33
0.0
  0
TEXT
  8
寸法線
  40
5.99722
  5
3F3
  62
0
  72
0
  71
0
 10
-164.043
 20
-59.1217
 30
0.000000
  1
83°
  0
POINT
  5
3C0
  8
DEFPOINTS
 62
     0
 10
-170.81308593750001
 20
-65.065234375000003
 30
0.0
  0
POINT
  5
3C1
  8
DEFPOINTS
 62
     0
 10
-78.063085937500006
 20
-65.065234375000003
 30
0.0
  0
POINT
  5
3C2
  8
DEFPOINTS
 62
     0
 10
-165.81308593750001
 20
-22.315234374999999
 30
0.0
  0
POINT
  5
3C3
  8
DEFPOINTS
 62
     0
 10
-156.65740107840239
 20
-44.42794733143436
 30
0.0
  0
ENDBLK
  5
3C5
  8
0
  0
BLOCK
  8
0
  2
*D63
 70
     1
 10
0.0
 20
0.0
 30
0.0
  3
*D63
  1

  0
LINE
  5
3C7
  8
寸法線
 62
     0
 10
-133.48856167777581
 20
-64.490710115275846
 30
0.0
 11
-129.48799149388299
 21
-60.490139931383041
 31
0.0
  0
LINE
  5
3C8
  8
寸法線
 62
     0
 10
-142.13761019722409
 20
-64.490710115275846
 30
0.0
 11
-146.13818038111691
 21
-60.490139931383041
 31
0.0
  0
ARC
  5
3C9
  8
寸法線
 62
     0
 10
-137.81308593750001
 20
-68.815234375000003
 30
0.0
 40
10.523461470199999
 50
51.537035740833119
 51
80.553158847736739
  0
ARC
  5
3CA
  8
寸法線
 62
     0
 10
-137.81308593750001
 20
-68.815234375000003
 30
0.0
 40
10.523461470199999
 50
99.446841152263232
 51
128.4629642591668
  0
SOLID
  5
3CB
  8
寸法線
 62
     0
 10
-131.13427395635381
 20
-60.42600025212316
 30
0.0
 11
-131.4005301697847
 21
-60.72450928302419
 31
0.0
 12
-130.37187497036621
 22
-61.374023407866218
 32
0.0
 13
-130.37187497036621
 23
-61.374023407866218
 33
0.0
  0
SOLID
  5
3CC
  8
寸法線
 62
     0
 10
-144.22564170521531
 20
-60.72450928302419
 30
0.0
 11
-144.49189791864609
 21
-60.42600025212316
 31
0.0
 12
-145.2542969046338
 22
-61.374023407866218
 32
0.0
 13
-145.2542969046338
 23
-61.374023407866218
 33
0.0
  0
TEXT
  8
寸法線
  40
1.0795
  5
3F4
  62
0
  72
0
  71
0
 10
-139.972
 20
-60.2025
 30
0.000000
  1
90°
  0
POINT
  5
3CE
  8
DEFPOINTS
 62
     0
 10
-137.81308593750001
 20
-68.815234375000003
 30
0.0
  0
POINT
  5
3CF
  8
DEFPOINTS
 62
     0
 10
-133.5327558516
 20
-64.534904289099998
 30
0.0
  0
POINT
  5
3D0
  8
DEFPOINTS
 62
     0
 10
-142.09341602340001
 20
-64.534904289099998
 30
0.0
  0
POINT
  5
3D1
  8
DEFPOINTS
 62
     0
 10
-135.08941368860971
 20
-58.650351158975887
 30
0.0
  0
ENDBLK
  5
3D3
  8
0
  0
BLOCK
  8
0
  2
*U64
 70
     1
 10
0.0
 20
0.0
 30
0.0
  3
*U64
  1

  0
TEXT
  5
3D5
  8
0
  6
CONTINUOUS
 62
     4
 10
69.016311943497413
 20
32.856222427386562
 30
0.0
 40
5.0
  1
90°
 50
358.18184992574533
  7
ゴシック
  0
ENDBLK
  5
3D7
  8
0
  0
BLOCK
  8
0
  2
*U65
 70
     1
 10
0.0
 20
0.0
 30
0.0
  3
*U65
  1

  0
TEXT
  5
3D9
  8
0
  6
CONTINUOUS
 62
     4
 10
67.263266140394364
 20
14.504795179161301
 30
0.0
 40
5.0
  1
φ7.5
  7
ゴシック
  0
ENDBLK
  5
3DB
  8
0
  0
BLOCK
  8
0
  2
*U66
 70
     1
 10
0.0
 20
0.0
 30
0.0
  3
*U66
  1

  0
TEXT
  5
3DD
  8
0
  6
CONTINUOUS
 62
     4
 10
66.422834884413817
 20
-39.681550647929861
 30
0.0
 40
5.0
  1
φ4.2
  7
ゴシック
  0
ENDBLK
  5
3DF
  8
0
  0
BLOCK
  8
0
  2
*U67
 70
     1
 10
0.0
 20
0.0
 30
0.0
  3
*U67
  1

  0
TEXT
  5
3EB
  8
0
  6
CONTINUOUS
 62
     4
 10
76.062853262731835
 20
-52.665621262535311
 30
0.0
 40
5.0
  1
φ4.2
  7
ゴシック
  0
ENDBLK
  5
3ED
  8
0
  0
BLOCK
  8
0
  2
*U68
 70
     1
 10
0.0
 20
0.0
 30
0.0
  3
*U68
  1

  0
TEXT
  5
3EF
  8
0
  6
CONTINUOUS
 62
     4
 10
76.903284518712383
 20
1.520724564555838
 30
0.0
 40
5.0
  1
φ7.5
  7
ゴシック
  0
ENDBLK
  5
3F1
  8
0
  0
ENDSEC
  0
SECTION
  2
ENTITIES
  0
CIRCLE
  5
2F
  8
ﾚｲﾔ_10
 62
     5
 10
57.751855468800002
 20
109.48398437500001
 30
0.0
 40
3.75
  0
INSERT
  5
31
  8
0
  6
CONTINUOUS
  2
*U29
 10
0.0
 20
0.0
 30
0.0
  0
LINE
  5
32
  8
図枠
 62
     5
 10
89.558736435399993
 20
205.2566584313
 30
0.0
 11
277.55873643540002
 21
205.2566584313
 31
0.0
  0
LINE
  5
33
  8
図枠
 62
     5
 10
96.990165663400006
 20
194.7918934308
 30
0.0
 11
92.040165663399989
 21
186.21824193329999
 31
0.0
  0
LINE
  5
34
  8
図枠
 62
     5
 10
96.990165663400006
 20
194.7918934308
 30
0.0
 11
101.94016566339999
 21
186.21824193329999
 31
0.0
  0
LINE
  5
35
  8
図枠
 62
     5
 10
105.55873643539999
 20
185.2566584313
 30
0.0
 11
105.55873643539999
 21
215.2566584313
 31
0.0
  0
LINE
  5
36
  8
図枠
 62
     5
 10
89.558736435399993
 20
185.2566584313
 30
0.0
 11
89.558736435399993
 21
215.2566584313
 31
0.0
  0
LINE
  5
37
  8
図枠
 62
     5
 10
137.55873643539999
 20
185.2566584313
 30
0.0
 11
137.55873643539999
 21
215.2566584313
 31
0.0
  0
LINE
  5
38
  8
図枠
 62
     5
 10
237.55873643539999
 20
185.2566584313
 30
0.0
 11
237.55873643539999
 21
215.2566584313
 31
0.0
  0
LINE
  5
39
  8
図枠
 62
     5
 10
257.55873643540002
 20
185.2566584313
 30
0.0
 11
257.55873643540002
 21
215.2566584313
 31
0.0
  0
LINE
  5
3A
  8
図枠
 62
     5
 10
89.558736435399993
 20
195.2566584313
 30
0.0
 11
277.55873643540002
 21
195.2566584313
 31
0.0
  0
LINE
  5
3B
  8
図枠
 62
     5
 10
89.558736435399993
 20
185.2566584313
 30
0.0
 11
277.55873643540002
 21
185.2566584313
 31
0.0
  0
LINE
  5
3C
  8
図枠
 62
     5
 10
92.040165663399989
 20
186.21824193329999
 30
0.0
 11
101.94016566339999
 21
186.21824193329999
 31
0.0
  0
LINE
  5
3D
  8
図枠
 62
     5
 10
92.040165663399989
 20
196.1182419333
 30
0.0
 11
101.94016566339999
 21
196.1182419333
 31
0.0
  0
INSERT
  5
3E
  8
0
  6
CONTINUOUS
  2
*U30
 10
0.0
 20
0.0
 30
0.0
  0
LINE
  5
3F
  8
図枠
 62
     5
 10
96.990165663400006
 20
204.69189343080001
 30
0.0
 11
101.94016566339999
 21
196.1182419333
 31
0.0
  0
LINE
  5
40
  8
図枠
 62
     5
 10
96.990165663400006
 20
204.69189343080001
 30
0.0
 11
92.040165663399989
 21
196.1182419333
 31
0.0
  0
INSERT
  5
41
  8
0
  6
CONTINUOUS
  2
*U31
 10
0.0
 20
0.0
 30
0.0
  0
INSERT
  5
42
  8
0
  6
CONTINUOUS
  2
*U32
 10
0.0
 20
0.0
 30
0.0
  0
INSERT
  5
43
  8
0
  6
CONTINUOUS
  2
*U33
 10
0.0
 20
0.0
 30
0.0
  0
CIRCLE
  5
44
  8
ﾚｲﾔ_10
 62
     5
 10
57.751855468800002
 20
127.48398437500001
 30
0.0
 40
3.75
  0
CIRCLE
  5
45
  8
ﾚｲﾔ_10
 62
     5
 10
57.751855468800002
 20
127.48398437500001
 30
0.0
 40
2.1000000000000001
  0
LINE
  5
46
  8
ﾚｲﾔ_10
  6
BORDER
 62
     3
 10
86.320826822900003
 20
127.48398437500001
 30
0.0
 11
96.541303013399997
 21
127.48398437500001
 31
0.0
  0
LINE
  5
47
  8
ﾚｲﾔ_10
  6
STITCH
 10
91.401855468799994
 20
111.583984375
 30
0.0
 11
91.401855468799994
 21
107.383984375
 31
0.0
  0
LINE
  5
48
  8
ﾚｲﾔ_10
  6
STITCH
 10
89.751855468799974
 20
105.73398437500001
 30
0.0
 11
91.401855468799994
 21
107.383984375
 31
0.0
  0
LINE
  5
49
  8
ﾚｲﾔ_10
  6
STITCH
 10
91.401855468799994
 20
125.383984375
 30
0.0
 11
92.751855468799988
 21
125.383984375
 31
0.0
  0
LINE
  5
4A
  8
ﾚｲﾔ_10
  6
BORDER
 62
     3
 10
57.751855468800002
 20
114.48398437500001
 30
0.0
 11
57.751855468800002
 21
104.48398437500001
 31
0.0
  0
CIRCLE
  5
4B
  8
ﾚｲﾔ_10
 62
     5
 10
57.751855468800002
 20
109.48398437500001
 30
0.0
 40
2.1000000000000001
  0
LINE
  5
4C
  8
ﾚｲﾔ_10
 62
     5
 10
92.751855468799988
 20
103.48398437500001
 30
0.0
 11
51.357978555400003
 21
103.48398437500001
 31
0.0
  0
LINE
  5
4D
  8
ﾚｲﾔ_10
  6
STITCH
 10
91.401855468799994
 20
125.383984375
 30
0.0
 11
91.401855468799994
 21
129.583984375
 31
0.0
  0
LINE
  5
4E
  8
ﾚｲﾔ_10
  6
BORDER
 62
     3
 10
62.751855468800002
 20
109.48398437500001
 30
0.0
 11
52.751855468800002
 21
109.48398437500001
 31
0.0
  0
LINE
  5
4F
  8
ﾚｲﾔ_10
  6
BORDER
 62
     3
 10
72.751855468800002
 20
123.48398437500001
 30
0.0
 11
72.751855468800002
 21
113.48398437500001
 31
0.0
  0
LINE
  5
50
  8
ﾚｲﾔ_10
  6
BORDER
 62
     3
 10
67.751855468800002
 20
118.48398437500001
 30
0.0
 11
77.751855468800002
 21
118.48398437500001
 31
0.0
  0
CIRCLE
  5
51
  8
ﾚｲﾔ_10
 62
     5
 10
72.751855468800002
 20
118.48398437500001
 30
0.0
 40
2.1000000000000001
  0
CIRCLE
  5
52
  8
ﾚｲﾔ_10
 62
     5
 10
72.751855468800002
 20
118.48398437500001
 30
0.0
 40
3.75
  0
LINE
  5
53
  8
ﾚｲﾔ_10
  6
BORDER
 62
     3
 10
86.320826822900003
 20
109.48398437500001
 30
0.0
 11
96.541303013399997
 21
109.48398437500001
 31
0.0
  0
LINE
  5
54
  8
ﾚｲﾔ_10
  6
STITCH
 10
89.751855468799974
 20
123.73398437500001
 30
0.0
 11
91.401855468799994
 21
125.383984375
 31
0.0
  0
LINE
  5
55
  8
ﾚｲﾔ_10
  6
STITCH
 10
89.751855468799974
 20
114.73398437500001
 30
0.0
 11
91.401855468799994
 21
116.383984375
 31
0.0
  0
LINE
  5
56
  8
ﾚｲﾔ_10
  6
STITCH
 10
89.751855468799974
 20
122.23398437500001
 30
0.0
 11
91.401855468799994
 21
120.583984375
 31
0.0
  0
LINE
  5
57
  8
ﾚｲﾔ_10
  6
STITCH
 10
89.751855468799974
 20
113.23398437500001
 30
0.0
 11
91.401855468799994
 21
111.583984375
 31
0.0
  0
LINE
  5
58
  8
ﾚｲﾔ_10
  6
BORDER
 62
     3
 10
86.320826822900003
 20
118.48398437500001
 30
0.0
 11
96.541303013399997
 21
118.48398437500001
 31
0.0
  0
LINE
  5
59
  8
ﾚｲﾔ_10
  6
STITCH
 10
91.401855468799994
 20
107.383984375
 30
0.0
 11
92.751855468799988
 21
107.383984375
 31
0.0
  0
ARC
  5
5A
  8
ﾚｲﾔ_10
 62
     5
 10
80.751855468800002
 20
118.48398437500001
 30
0.0
 40
33.0
 50
152.9643082106
 51
207.0356917894
  0
LINE
  5
5B
  8
ﾚｲﾔ_10
 62
     5
 10
89.751855468799974
 20
133.48398437500001
 30
0.0
 11
89.751855468799974
 21
103.48398437500001
 31
0.0
  0
LINE
  5
5C
  8
ﾚｲﾔ_10
 62
     5
 10
92.751855468799988
 20
133.48398437500001
 30
0.0
 11
92.751855468799988
 21
103.48398437500001
 31
0.0
  0
INSERT
  5
5D
  8
0
  6
CONTINUOUS
  2
*U34
 10
0.0
 20
0.0
 30
0.0
  0
LINE
  5
5E
  8
図枠
 10
45.5587364354
 20
-91.743341568700004
 30
0.0
 11
277.55873643540002
 21
-91.743341568700004
 31
0.0
  0
LINE
  5
5F
  8
図枠
 10
45.5587364354
 20
-113.7433415687
 30
0.0
 11
277.55873643540002
 21
-113.7433415687
 31
0.0
  0
LINE
  5
60
  8
図枠
 10
45.5587364354
 20
-147.7433415687
 30
0.0
 11
277.55873643540002
 21
-147.7433415687
 31
0.0
  0
LINE
  5
61
  8
図枠
 10
45.5587364354
 20
-102.7433415687
 30
0.0
 11
277.55873643540002
 21
-102.7433415687
 31
0.0
  0
LINE
  5
62
  8
図枠
 10
140.21010886440001
 20
-150.48706482169999
 30
0.0
 11
125.81010886439999
 21
-150.48706482169999
 31
0.0
  0
LINE
  5
63
  8
図枠
 10
109.55873643539999
 20
-139.2433415687
 30
0.0
 11
161.55873643539999
 21
-139.2433415687
 31
0.0
  0
INSERT
  5
64
  8
0
  6
CONTINUOUS
  2
*U35
 10
0.0
 20
0.0
 30
0.0
  0
LINE
  5
65
  8
図枠
 10
45.5587364354
 20
-80.743341568700004
 30
0.0
 11
277.55873643540002
 21
-80.743341568700004
 31
0.0
  0
LINE
  5
66
  8
図枠
 10
45.5587364354
 20
-130.7433415687
 30
0.0
 11
277.55873643540002
 21
-130.7433415687
 31
0.0
  0
INSERT
  5
67
  8
0
  6
CONTINUOUS
  2
*U36
 10
0.0
 20
0.0
 30
0.0
  0
LINE
  5
68
  8
図枠
  6
BORDER
 10
130.7747364354
 20
-122.2433415687
 30
0.0
 11
160.34273643540001
 21
-122.2433415687
 31
0.0
  0
LINE
  5
69
  8
図枠
 10
125.81010886439999
 20
-159.2870648217
 30
0.0
 11
127.73010886439999
 21
-159.2870648217
 31
0.0
  0
DIMENSION
  5
7A
  8
寸法線
  2
*D0
 10
72.751855468800002
 20
88.483984375000006
 30
0.0
 11
82.751855468800017
 21
88.483984375000006
 31
0.0
 70
   128
  1
<>
 13
72.751855468800002
 23
113.48398437500001
 33
0.0
 14
92.751855468799988
 24
103.48398437500001
 34
0.0
 50
180.0
  0
DIMENSION
  5
89
  8
寸法線
  2
*D1
 10
47.751855468800002
 20
88.483984375000006
 30
0.0
 11
52.751855468800002
 21
88.483984375000006
 31
0.0
 70
   128
  1
<>
 13
47.751855468800002
 23
118.48398437500001
 33
0.0
 14
57.751855468800002
 24
103.48398437500001
 34
0.0
 50
180.0
  0
DIMENSION
  5
98
  8
寸法線
  2
*D2
 10
57.751855468800002
 20
88.483984375000006
 30
0.0
 11
65.251855468800002
 21
88.483984375000006
 31
0.0
 70
   128
  1
<>
 13
57.751855468800002
 23
103.48398437500001
 33
0.0
 14
72.751855468800002
 24
113.48398437500001
 34
0.0
 50
180.0
  0
LINE
  5
99
  8
ﾚｲﾔ_10
  6
STITCH
 10
91.401855468799994
 20
116.383984375
 30
0.0
 11
92.751855468799988
 21
116.383984375
 31
0.0
  0
LINE
  5
9A
  8
ﾚｲﾔ_10
  6
STITCH
 10
91.401855468799994
 20
120.583984375
 30
0.0
 11
92.751855468799988
 21
120.583984375
 31
0.0
  0
LINE
  5
9B
  8
ﾚｲﾔ_10
  6
STITCH
 10
91.401855468799994
 20
116.383984375
 30
0.0
 11
91.401855468799994
 21
120.583984375
 31
0.0
  0
LINE
  5
9C
  8
ﾚｲﾔ_10
  6
STITCH
 10
91.401855468799994
 20
111.583984375
 30
0.0
 11
92.751855468799988
 21
111.583984375
 31
0.0
  0
LINE
  5
9D
  8
ﾚｲﾔ_10
 62
     5
 10
51.357978555400003
 20
133.48398437500001
 30
0.0
 11
92.751855468799988
 21
133.48398437500001
 31
0.0
  0
LINE
  5
9E
  8
ﾚｲﾔ_10
  6
STITCH
 10
91.401855468799994
 20
129.583984375
 30
0.0
 11
92.751855468799988
 21
129.583984375
 31
0.0
  0
LINE
  5
9F
  8
ﾚｲﾔ_10
  6
STITCH
 10
89.751855468799974
 20
131.23398437500001
 30
0.0
 11
91.401855468799994
 21
129.583984375
 31
0.0
  0
LINE
  5
A0
  8
ﾚｲﾔ_10
  6
BORDER
 62
     3
 10
57.751855468800002
 20
132.48398437500001
 30
0.0
 11
57.751855468800002
 21
122.48398437500001
 31
0.0
  0
LINE
  5
A1
  8
ﾚｲﾔ_10
  6
BORDER
 62
     3
 10
62.751855468800002
 20
127.48398437500001
 30
0.0
 11
52.751855468800002
 21
127.48398437500001
 31
0.0
  0
LINE
  5
A2
  8
図枠
 10
125.81010886439999
 20
-159.2870648217
 30
0.0
 11
125.81010886439999
 21
-161.68706482170001
 31
0.0
  0
INSERT
  5
A3
  8
0
  6
CONTINUOUS
  2
*U37
 10
0.0
 20
0.0
 30
0.0
  0
LINE
  5
A4
  8
図枠
 10
45.5587364354
 20
-80.743341568700004
 30
0.0
 11
45.5587364354
 21
-113.7433415687
 31
0.0
  0
INSERT
  5
A5
  8
0
  6
CONTINUOUS
  2
*U38
 10
0.0
 20
0.0
 30
0.0
  0
LINE
  5
A6
  8
図枠
 10
49.5587364354
 20
-139.2433415687
 30
0.0
 11
101.55873643539999
 21
-139.2433415687
 31
0.0
  0
INSERT
  5
A7
  8
0
  6
CONTINUOUS
  2
*U39
 10
0.0
 20
0.0
 30
0.0
  0
LINE
  5
A8
  8
図枠
 10
106.11137306889999
 20
-156.08706482170001
 30
0.0
 11
107.7113730689
 21
-156.08706482170001
 31
0.0
  0
INSERT
  5
A9
  8
0
  6
CONTINUOUS
  2
*U40
 10
0.0
 20
0.0
 30
0.0
  0
LINE
  5
AA
  8
図枠
 10
111.9531391674
 20
-152.88706482169999
 30
0.0
 11
114.3531391674
 21
-150.48706482169999
 31
0.0
  0
LINE
  5
AB
  8
図枠
 10
106.11137306889999
 20
-153.68706482170001
 30
0.0
 11
106.11137306889999
 21
-156.08706482170001
 31
0.0
  0
LINE
  5
AC
  8
図枠
 10
121.5531391674
 20
-153.68706482170001
 30
0.0
 11
121.5531391674
 21
-156.08706482170001
 31
0.0
  0
LINE
  5
AD
  8
図枠
 10
85.558736435399993
 20
-113.7433415687
 30
0.0
 11
85.558736435399993
 21
-80.743341568700004
 31
0.0
  0
LINE
  5
AE
  8
図枠
 10
115.1531391674
 20
-156.08706482170001
 30
0.0
 11
115.1531391674
 21
-156.88706482169999
 31
0.0
  0
LINE
  5
AF
  8
図枠
 10
119.1531391674
 20
-152.88706482169999
 30
0.0
 11
121.5531391674
 21
-150.48706482169999
 31
0.0
  0
INSERT
  5
B0
  8
0
  6
CONTINUOUS
  2
*U41
 10
0.0
 20
0.0
 30
0.0
  0
LINE
  5
B1
  8
図枠
 10
125.81010886439999
 20
-154.71781767760001
 30
0.0
 11
125.81010886439999
 21
-154.20244124960001
 31
0.0
  0
LINE
  5
B2
  8
図枠
 10
132.21010886440001
 20
-154.20244124960001
 30
0.0
 11
131.30501218449999
 21
-155.10753792950001
 31
0.0
  0
ARC
  5
B3
  8
図枠
 10
129.81010886440001
 20
-152.88706482169999
 30
0.0
 40
8.8000000000000007
 50
270.0
 51
302.54495885400001
  0
LINE
  5
B4
  8
図枠
 10
125.81010886439999
 20
-154.20244124960001
 30
0.0
 11
132.21010886440001
 21
-154.20244124960001
 31
0.0
  0
LINE
  5
B5
  8
図枠
 10
125.81010886439999
 20
-153.36706482170001
 30
0.0
 11
133.81010886440001
 21
-153.36706482170001
 31
0.0
  0
POLYLINE
  8
図枠
  5
3F5
  66
     1
 10
0.000000
 20
0.000000
 30
0.000000
  70
     8
  0
VERTEX
  8
図枠
  5
3F6
 10
131.305
 20
-155.108
 30
0.000000
  70
    32
  0
VERTEX
  8
図枠
  5
3F7
 10
131.316
 20
-155.119
 30
0.000000
  70
    32
  0
VERTEX
  8
図枠
  5
3F8
 10
131.326
 20
-155.131
 30
0.000000
  70
    32
  0
VERTEX
  8
図枠
  5
3F9
 10
131.337
 20
-155.143
 30
0.000000
  70
    32
  0
VERTEX
  8
図枠
  5
3FA
 10
131.347
 20
-155.155
 30
0.000000
  70
    32
  0
VERTEX
  8
図枠
  5
3FB
 10
131.358
 20
-155.166
 30
0.000000
  70
    32
  0
VERTEX
  8
図枠
  5
3FC
 10
131.368
 20
-155.178
 30
0.000000
  70
    32
  0
VERTEX
  8
図枠
  5
3FD
 10
131.379
 20
-155.190
 30
0.000000
  70
    32
  0
VERTEX
  8
図枠
  5
3FE
 10
131.389
 20
-155.202
 30
0.000000
  70
    32
  0
VERTEX
  8
図枠
  5
3FF
 10
131.400
 20
-155.213
 30
0.000000
  70
    32
  0
VERTEX
  8
図枠
  5
400
 10
131.411
 20
-155.225
 30
0.000000
  70
    32
  0
VERTEX
  8
図枠
  5
401
 10
131.421
 20
-155.237
 30
0.000000
  70
    32
  0
VERTEX
  8
図枠
  5
402
 10
131.432
 20
-155.249
 30
0.000000
  70
    32
  0
VERTEX
  8
図枠
  5
403
 10
131.442
 20
-155.261
 30
0.000000
  70
    32
  0
VERTEX
  8
図枠
  5
404
 10
131.453
 20
-155.272
 30
0.000000
  70
    32
  0
VERTEX
  8
図枠
  5
405
 10
131.463
 20
-155.284
 30
0.000000
  70
    32
  0
VERTEX
  8
図枠
  5
406
 10
131.474
 20
-155.296
 30
0.000000
  70
    32
  0
VERTEX
  8
図枠
  5
407
 10
131.485
 20
-155.308
 30
0.000000
  70
    32
  0
VERTEX
  8
図枠
  5
408
 10
131.495
 20
-155.319
 30
0.000000
  70
    32
  0
VERTEX
  8
図枠
  5
409
 10
131.506
 20
-155.331
 30
0.000000
  70
    32
  0
VERTEX
  8
図枠
  5
40A
 10
131.516
 20
-155.343
 30
0.000000
  70
    32
  0
VERTEX
  8
図枠
  5
40B
 10
131.527
 20
-155.355
 30
0.000000
  70
    32
  0
VERTEX
  8
図枠
  5
40C
 10
131.538
 20
-155.366
 30
0.000000
  70
    32
  0
VERTEX
  8
図枠
  5
40D
 10
131.548
 20
-155.378
 30
0.000000
  70
    32
  0
VERTEX
  8
図枠
  5
40E
 10
131.559
 20
-155.390
 30
0.000000
  70
    32
  0
VERTEX
  8
図枠
  5
40F
 10
131.569
 20
-155.401
 30
0.000000
  70
    32
  0
VERTEX
  8
図枠
  5
410
 10
131.580
 20
-155.413
 30
0.000000
  70
    32
  0
VERTEX
  8
図枠
  5
411
 10
131.590
 20
-155.425
 30
0.000000
  70
    32
  0
VERTEX
  8
図枠
  5
412
 10
131.601
 20
-155.437
 30
0.000000
  70
    32
  0
VERTEX
  8
図枠
  5
413
 10
131.612
 20
-155.448
 30
0.000000
  70
    32
  0
VERTEX
  8
図枠
  5
414
 10
131.622
 20
-155.460
 30
0.000000
  70
    32
  0
VERTEX
  8
図枠
  5
415
 10
131.633
 20
-155.472
 30
0.000000
  70
    32
  0
VERTEX
  8
図枠
  5
416
 10
131.643
 20
-155.483
 30
0.000000
  70
    32
  0
VERTEX
  8
図枠
  5
417
 10
131.654
 20
-155.495
 30
0.000000
  70
    32
  0
VERTEX
  8
図枠
  5
418
 10
131.665
 20
-155.507
 30
0.000000
  70
    32
  0
VERTEX
  8
図枠
  5
419
 10
131.675
 20
-155.518
 30
0.000000
  70
    32
  0
VERTEX
  8
図枠
  5
41A
 10
131.686
 20
-155.530
 30
0.000000
  70
    32
  0
VERTEX
  8
図枠
  5
41B
 10
131.697
 20
-155.542
 30
0.000000
  70
    32
  0
VERTEX
  8
図枠
  5
41C
 10
131.707
 20
-155.553
 30
0.000000
  70
    32
  0
VERTEX
  8
図枠
  5
41D
 10
131.718
 20
-155.565
 30
0.000000
  70
    32
  0
VERTEX
  8
図枠
  5
41E
 10
131.729
 20
-155.577
 30
0.000000
  70
    32
  0
VERTEX
  8
図枠
  5
41F
 10
131.739
 20
-155.588
 30
0.000000
  70
    32
  0
VERTEX
  8
図枠
  5
420
 10
131.750
 20
-155.600
 30
0.000000
  70
    32
  0
VERTEX
  8
図枠
  5
421
 10
131.760
 20
-155.611
 30
0.000000
  70
    32
  0
VERTEX
  8
図枠
  5
422
 10
131.771
 20
-155.623
 30
0.000000
  70
    32
  0
VERTEX
  8
図枠
  5
423
 10
131.782
 20
-155.635
 30
0.000000
  70
    32
  0
VERTEX
  8
図枠
  5
424
 10
131.792
 20
-155.646
 30
0.000000
  70
    32
  0
VERTEX
  8
図枠
  5
425
 10
131.803
 20
-155.658
 30
0.000000
  70
    32
  0
VERTEX
  8
図枠
  5
426
 10
131.814
 20
-155.669
 30
0.000000
  70
    32
  0
VERTEX
  8
図枠
  5
427
 10
131.825
 20
-155.681
 30
0.000000
  70
    32
  0
VERTEX
  8
図枠
  5
428
 10
131.835
 20
-155.693
 30
0.000000
  70
    32
  0
VERTEX
  8
図枠
  5
429
 10
131.846
 20
-155.704
 30
0.000000
  70
    32
  0
VERTEX
  8
図枠
  5
42A
 10
131.857
 20
-155.716
 30
0.000000
  70
    32
  0
VERTEX
  8
図枠
  5
42B
 10
131.867
 20
-155.727
 30
0.000000
  70
    32
  0
VERTEX
  8
図枠
  5
42C
 10
131.878
 20
-155.739
 30
0.000000
  70
    32
  0
VERTEX
  8
図枠
  5
42D
 10
131.889
 20
-155.750
 30
0.000000
  70
    32
  0
VERTEX
  8
図枠
  5
42E
 10
131.900
 20
-155.762
 30
0.000000
  70
    32
  0
VERTEX
  8
図枠
  5
42F
 10
131.910
 20
-155.773
 30
0.000000
  70
    32
  0
VERTEX
  8
図枠
  5
430
 10
131.921
 20
-155.785
 30
0.000000
  70
    32
  0
VERTEX
  8
図枠
  5
431
 10
131.932
 20
-155.796
 30
0.000000
  70
    32
  0
VERTEX
  8
図枠
  5
432
 10
131.942
 20
-155.808
 30
0.000000
  70
    32
  0
VERTEX
  8
図枠
  5
433
 10
131.953
 20
-155.819
 30
0.000000
  70
    32
  0
VERTEX
  8
図枠
  5
434
 10
131.964
 20
-155.831
 30
0.000000
  70
    32
  0
VERTEX
  8
図枠
  5
435
 10
131.975
 20
-155.842
 30
0.000000
  70
    32
  0
VERTEX
  8
図枠
  5
436
 10
131.986
 20
-155.853
 30
0.000000
  70
    32
  0
VERTEX
  8
図枠
  5
437
 10
131.996
 20
-155.865
 30
0.000000
  70
    32
  0
VERTEX
  8
図枠
  5
438
 10
132.007
 20
-155.876
 30
0.000000
  70
    32
  0
VERTEX
  8
図枠
  5
439
 10
132.018
 20
-155.888
 30
0.000000
  70
    32
  0
VERTEX
  8
図枠
  5
43A
 10
132.029
 20
-155.899
 30
0.000000
  70
    32
  0
VERTEX
  8
図枠
  5
43B
 10
132.040
 20
-155.910
 30
0.000000
  70
    32
  0
VERTEX
  8
図枠
  5
43C
 10
132.050
 20
-155.922
 30
0.000000
  70
    32
  0
VERTEX
  8
図枠
  5
43D
 10
132.061
 20
-155.933
 30
0.000000
  70
    32
  0
VERTEX
  8
図枠
  5
43E
 10
132.072
 20
-155.944
 30
0.000000
  70
    32
  0
VERTEX
  8
図枠
  5
43F
 10
132.083
 20
-155.956
 30
0.000000
  70
    32
  0
VERTEX
  8
図枠
  5
440
 10
132.094
 20
-155.967
 30
0.000000
  70
    32
  0
VERTEX
  8
図枠
  5
441
 10
132.105
 20
-155.978
 30
0.000000
  70
    32
  0
VERTEX
  8
図枠
  5
442
 10
132.115
 20
-155.989
 30
0.000000
  70
    32
  0
VERTEX
  8
図枠
  5
443
 10
132.126
 20
-156.001
 30
0.000000
  70
    32
  0
VERTEX
  8
図枠
  5
444
 10
132.137
 20
-156.012
 30
0.000000
  70
    32
  0
VERTEX
  8
図枠
  5
445
 10
132.148
 20
-156.023
 30
0.000000
  70
    32
  0
VERTEX
  8
図枠
  5
446
 10
132.159
 20
-156.034
 30
0.000000
  70
    32
  0
VERTEX
  8
図枠
  5
447
 10
132.170
 20
-156.046
 30
0.000000
  70
    32
  0
VERTEX
  8
図枠
  5
448
 10
132.181
 20
-156.057
 30
0.000000
  70
    32
  0
VERTEX
  8
図枠
  5
449
 10
132.192
 20
-156.068
 30
0.000000
  70
    32
  0
VERTEX
  8
図枠
  5
44A
 10
132.203
 20
-156.079
 30
0.000000
  70
    32
  0
VERTEX
  8
図枠
  5
44B
 10
132.214
 20
-156.090
 30
0.000000
  70
    32
  0
VERTEX
  8
図枠
  5
44C
 10
132.225
 20
-156.101
 30
0.000000
  70
    32
  0
VERTEX
  8
図枠
  5
44D
 10
132.236
 20
-156.113
 30
0.000000
  70
    32
  0
VERTEX
  8
図枠
  5
44E
 10
132.247
 20
-156.124
 30
0.000000
  70
    32
  0
VERTEX
  8
図枠
  5
44F
 10
132.258
 20
-156.135
 30
0.000000
  70
    32
  0
VERTEX
  8
図枠
  5
450
 10
132.269
 20
-156.146
 30
0.000000
  70
    32
  0
VERTEX
  8
図枠
  5
451
 10
132.280
 20
-156.157
 30
0.000000
  70
    32
  0
VERTEX
  8
図枠
  5
452
 10
132.291
 20
-156.168
 30
0.000000
  70
    32
  0
VERTEX
  8
図枠
  5
453
 10
132.302
 20
-156.179
 30
0.000000
  70
    32
  0
VERTEX
  8
図枠
  5
454
 10
132.313
 20
-156.190
 30
0.000000
  70
    32
  0
VERTEX
  8
図枠
  5
455
 10
132.324
 20
-156.201
 30
0.000000
  70
    32
  0
VERTEX
  8
図枠
  5
456
 10
132.335
 20
-156.212
 30
0.000000
  70
    32
  0
VERTEX
  8
図枠
  5
457
 10
132.346
 20
-156.223
 30
0.000000
  70
    32
  0
VERTEX
  8
図枠
  5
458
 10
132.357
 20
-156.234
 30
0.000000
  70
    32
  0
VERTEX
  8
図枠
  5
459
 10
132.368
 20
-156.245
 30
0.000000
  70
    32
  0
VERTEX
  8
図枠
  5
45A
 10
132.379
 20
-156.256
 30
0.000000
  70
    32
  0
VERTEX
  8
図枠
  5
45B
 10
132.390
 20
-156.266
 30
0.000000
  70
    32
  0
VERTEX
  8
図枠
  5
45C
 10
132.401
 20
-156.277
 30
0.000000
  70
    32
  0
VERTEX
  8
図枠
  5
45D
 10
132.412
 20
-156.288
 30
0.000000
  70
    32
  0
VERTEX
  8
図枠
  5
45E
 10
132.424
 20
-156.299
 30
0.000000
  70
    32
  0
VERTEX
  8
図枠
  5
45F
 10
132.435
 20
-156.310
 30
0.000000
  70
    32
  0
VERTEX
  8
図枠
  5
460
 10
132.446
 20
-156.321
 30
0.000000
  70
    32
  0
VERTEX
  8
図枠
  5
461
 10
132.457
 20
-156.331
 30
0.000000
  70
    32
  0
VERTEX
  8
図枠
  5
462
 10
132.468
 20
-156.342
 30
0.000000
  70
    32
  0
VERTEX
  8
図枠
  5
463
 10
132.479
 20
-156.353
 30
0.000000
  70
    32
  0
VERTEX
  8
図枠
  5
464
 10
132.491
 20
-156.364
 30
0.000000
  70
    32
  0
VERTEX
  8
図枠
  5
465
 10
132.502
 20
-156.374
 30
0.000000
  70
    32
  0
VERTEX
  8
図枠
  5
466
 10
132.513
 20
-156.385
 30
0.000000
  70
    32
  0
VERTEX
  8
図枠
  5
467
 10
132.524
 20
-156.396
 30
0.000000
  70
    32
  0
VERTEX
  8
図枠
  5
468
 10
132.536
 20
-156.406
 30
0.000000
  70
    32
  0
VERTEX
  8
図枠
  5
469
 10
132.547
 20
-156.417
 30
0.000000
  70
    32
  0
VERTEX
  8
図枠
  5
46A
 10
132.558
 20
-156.428
 30
0.000000
  70
    32
  0
VERTEX
  8
図枠
  5
46B
 10
132.570
 20
-156.438
 30
0.000000
  70
    32
  0
VERTEX
  8
図枠
  5
46C
 10
132.581
 20
-156.449
 30
0.000000
  70
    32
  0
VERTEX
  8
図枠
  5
46D
 10
132.592
 20
-156.459
 30
0.000000
  70
    32
  0
VERTEX
  8
図枠
  5
46E
 10
132.604
 20
-156.470
 30
0.000000
  70
    32
  0
VERTEX
  8
図枠
  5
46F
 10
132.615
 20
-156.480
 30
0.000000
  70
    32
  0
VERTEX
  8
図枠
  5
470
 10
132.626
 20
-156.491
 30
0.000000
  70
    32
  0
VERTEX
  8
図枠
  5
471
 10
132.638
 20
-156.501
 30
0.000000
  70
    32
  0
VERTEX
  8
図枠
  5
472
 10
132.649
 20
-156.512
 30
0.000000
  70
    32
  0
VERTEX
  8
図枠
  5
473
 10
132.660
 20
-156.522
 30
0.000000
  70
    32
  0
VERTEX
  8
図枠
  5
474
 10
132.672
 20
-156.532
 30
0.000000
  70
    32
  0
VERTEX
  8
図枠
  5
475
 10
132.683
 20
-156.543
 30
0.000000
  70
    32
  0
SEQEND
  8
図枠
  5
476
  0
POLYLINE
  8
図枠
  5
477
  66
     1
 10
0.000000
 20
0.000000
 30
0.000000
  70
     8
  0
VERTEX
  8
図枠
  5
478
 10
125.810
 20
-154.718
 30
0.000000
  70
    32
  0
VERTEX
  8
図枠
  5
479
 10
125.839
 20
-154.744
 30
0.000000
  70
    32
  0
VERTEX
  8
図枠
  5
47A
 10
125.868
 20
-154.771
 30
0.000000
  70
    32
  0
VERTEX
  8
図枠
  5
47B
 10
125.897
 20
-154.798
 30
0.000000
  70
    32
  0
VERTEX
  8
図枠
  5
47C
 10
125.925
 20
-154.824
 30
0.000000
  70
    32
  0
VERTEX
  8
図枠
  5
47D
 10
125.954
 20
-154.851
 30
0.000000
  70
    32
  0
VERTEX
  8
図枠
  5
47E
 10
125.983
 20
-154.877
 30
0.000000
  70
    32
  0
VERTEX
  8
図枠
  5
47F
 10
126.012
 20
-154.904
 30
0.000000
  70
    32
  0
VERTEX
  8
図枠
  5
480
 10
126.041
 20
-154.930
 30
0.000000
  70
    32
  0
VERTEX
  8
図枠
  5
481
 10
126.070
 20
-154.957
 30
0.000000
  70
    32
  0
VERTEX
  8
図枠
  5
482
 10
126.098
 20
-154.983
 30
0.000000
  70
    32
  0
VERTEX
  8
図枠
  5
483
 10
126.127
 20
-155.010
 30
0.000000
  70
    32
  0
VERTEX
  8
図枠
  5
484
 10
126.156
 20
-155.036
 30
0.000000
  70
    32
  0
VERTEX
  8
図枠
  5
485
 10
126.185
 20
-155.063
 30
0.000000
  70
    32
  0
VERTEX
  8
図枠
  5
486
 10
126.214
 20
-155.089
 30
0.000000
  70
    32
  0
VERTEX
  8
図枠
  5
487
 10
126.243
 20
-155.116
 30
0.000000
  70
    32
  0
VERTEX
  8
図枠
  5
488
 10
126.271
 20
-155.142
 30
0.000000
  70
    32
  0
VERTEX
  8
図枠
  5
489
 10
126.300
 20
-155.169
 30
0.000000
  70
    32
  0
VERTEX
  8
図枠
  5
48A
 10
126.329
 20
-155.195
 30
0.000000
  70
    32
  0
VERTEX
  8
図枠
  5
48B
 10
126.358
 20
-155.222
 30
0.000000
  70
    32
  0
VERTEX
  8
図枠
  5
48C
 10
126.387
 20
-155.248
 30
0.000000
  70
    32
  0
VERTEX
  8
図枠
  5
48D
 10
126.416
 20
-155.275
 30
0.000000
  70
    32
  0
VERTEX
  8
図枠
  5
48E
 10
126.445
 20
-155.301
 30
0.000000
  70
    32
  0
VERTEX
  8
図枠
  5
48F
 10
126.474
 20
-155.328
 30
0.000000
  70
    32
  0
VERTEX
  8
図枠
  5
490
 10
126.502
 20
-155.354
 30
0.000000
  70
    32
  0
VERTEX
  8
図枠
  5
491
 10
126.531
 20
-155.380
 30
0.000000
  70
    32
  0
VERTEX
  8
図枠
  5
492
 10
126.560
 20
-155.407
 30
0.000000
  70
    32
  0
VERTEX
  8
図枠
  5
493
 10
126.589
 20
-155.433
 30
0.000000
  70
    32
  0
VERTEX
  8
図枠
  5
494
 10
126.618
 20
-155.460
 30
0.000000
  70
    32
  0
VERTEX
  8
図枠
  5
495
 10
126.647
 20
-155.486
 30
0.000000
  70
    32
  0
VERTEX
  8
図枠
  5
496
 10
126.676
 20
-155.512
 30
0.000000
  70
    32
  0
VERTEX
  8
図枠
  5
497
 10
126.705
 20
-155.539
 30
0.000000
  70
    32
  0
VERTEX
  8
図枠
  5
498
 10
126.734
 20
-155.565
 30
0.000000
  70
    32
  0
VERTEX
  8
図枠
  5
499
 10
126.763
 20
-155.591
 30
0.000000
  70
    32
  0
VERTEX
  8
図枠
  5
49A
 10
126.792
 20
-155.617
 30
0.000000
  70
    32
  0
VERTEX
  8
図枠
  5
49B
 10
126.821
 20
-155.644
 30
0.000000
  70
    32
  0
VERTEX
  8
図枠
  5
49C
 10
126.850
 20
-155.670
 30
0.000000
  70
    32
  0
VERTEX
  8
図枠
  5
49D
 10
126.879
 20
-155.696
 30
0.000000
  70
    32
  0
VERTEX
  8
図枠
  5
49E
 10
126.908
 20
-155.722
 30
0.000000
  70
    32
  0
VERTEX
  8
図枠
  5
49F
 10
126.937
 20
-155.748
 30
0.000000
  70
    32
  0
VERTEX
  8
図枠
  5
4A0
 10
126.966
 20
-155.774
 30
0.000000
  70
    32
  0
VERTEX
  8
図枠
  5
4A1
 10
126.995
 20
-155.801
 30
0.000000
  70
    32
  0
VERTEX
  8
図枠
  5
4A2
 10
127.024
 20
-155.827
 30
0.000000
  70
    32
  0
VERTEX
  8
図枠
  5
4A3
 10
127.053
 20
-155.853
 30
0.000000
  70
    32
  0
VERTEX
  8
図枠
  5
4A4
 10
127.082
 20
-155.879
 30
0.000000
  70
    32
  0
VERTEX
  8
図枠
  5
4A5
 10
127.111
 20
-155.905
 30
0.000000
  70
    32
  0
VERTEX
  8
図枠
  5
4A6
 10
127.141
 20
-155.931
 30
0.000000
  70
    32
  0
VERTEX
  8
図枠
  5
4A7
 10
127.170
 20
-155.957
 30
0.000000
  70
    32
  0
VERTEX
  8
図枠
  5
4A8
 10
127.199
 20
-155.983
 30
0.000000
  70
    32
  0
VERTEX
  8
図枠
  5
4A9
 10
127.228
 20
-156.009
 30
0.000000
  70
    32
  0
VERTEX
  8
図枠
  5
4AA
 10
127.257
 20
-156.035
 30
0.000000
  70
    32
  0
VERTEX
  8
図枠
  5
4AB
 10
127.286
 20
-156.060
 30
0.000000
  70
    32
  0
VERTEX
  8
図枠
  5
4AC
 10
127.316
 20
-156.086
 30
0.000000
  70
    32
  0
VERTEX
  8
図枠
  5
4AD
 10
127.345
 20
-156.112
 30
0.000000
  70
    32
  0
VERTEX
  8
図枠
  5
4AE
 10
127.374
 20
-156.138
 30
0.000000
  70
    32
  0
VERTEX
  8
図枠
  5
4AF
 10
127.403
 20
-156.164
 30
0.000000
  70
    32
  0
VERTEX
  8
図枠
  5
4B0
 10
127.433
 20
-156.189
 30
0.000000
  70
    32
  0
VERTEX
  8
図枠
  5
4B1
 10
127.462
 20
-156.215
 30
0.000000
  70
    32
  0
VERTEX
  8
図枠
  5
4B2
 10
127.491
 20
-156.241
 30
0.000000
  70
    32
  0
VERTEX
  8
図枠
  5
4B3
 10
127.521
 20
-156.266
 30
0.000000
  70
    32
  0
VERTEX
  8
図枠
  5
4B4
 10
127.550
 20
-156.292
 30
0.000000
  70
    32
  0
VERTEX
  8
図枠
  5
4B5
 10
127.579
 20
-156.317
 30
0.000000
  70
    32
  0
VERTEX
  8
図枠
  5
4B6
 10
127.609
 20
-156.343
 30
0.000000
  70
    32
  0
VERTEX
  8
図枠
  5
4B7
 10
127.638
 20
-156.368
 30
0.000000
  70
    32
  0
VERTEX
  8
図枠
  5
4B8
 10
127.668
 20
-156.394
 30
0.000000
  70
    32
  0
VERTEX
  8
図枠
  5
4B9
 10
127.697
 20
-156.419
 30
0.000000
  70
    32
  0
VERTEX
  8
図枠
  5
4BA
 10
127.726
 20
-156.445
 30
0.000000
  70
    32
  0
VERTEX
  8
図枠
  5
4BB
 10
127.756
 20
-156.470
 30
0.000000
  70
    32
  0
VERTEX
  8
図枠
  5
4BC
 10
127.785
 20
-156.495
 30
0.000000
  70
    32
  0
VERTEX
  8
図枠
  5
4BD
 10
127.815
 20
-156.520
 30
0.000000
  70
    32
  0
VERTEX
  8
図枠
  5
4BE
 10
127.844
 20
-156.546
 30
0.000000
  70
    32
  0
VERTEX
  8
図枠
  5
4BF
 10
127.874
 20
-156.571
 30
0.000000
  70
    32
  0
VERTEX
  8
図枠
  5
4C0
 10
127.904
 20
-156.596
 30
0.000000
  70
    32
  0
VERTEX
  8
図枠
  5
4C1
 10
127.933
 20
-156.621
 30
0.000000
  70
    32
  0
VERTEX
  8
図枠
  5
4C2
 10
127.963
 20
-156.646
 30
0.000000
  70
    32
  0
VERTEX
  8
図枠
  5
4C3
 10
127.993
 20
-156.671
 30
0.000000
  70
    32
  0
VERTEX
  8
図枠
  5
4C4
 10
128.022
 20
-156.696
 30
0.000000
  70
    32
  0
VERTEX
  8
図枠
  5
4C5
 10
128.052
 20
-156.721
 30
0.000000
  70
    32
  0
VERTEX
  8
図枠
  5
4C6
 10
128.082
 20
-156.746
 30
0.000000
  70
    32
  0
VERTEX
  8
図枠
  5
4C7
 10
128.111
 20
-156.771
 30
0.000000
  70
    32
  0
VERTEX
  8
図枠
  5
4C8
 10
128.141
 20
-156.796
 30
0.000000
  70
    32
  0
VERTEX
  8
図枠
  5
4C9
 10
128.171
 20
-156.821
 30
0.000000
  70
    32
  0
VERTEX
  8
図枠
  5
4CA
 10
128.201
 20
-156.845
 30
0.000000
  70
    32
  0
VERTEX
  8
図枠
  5
4CB
 10
128.231
 20
-156.870
 30
0.000000
  70
    32
  0
VERTEX
  8
図枠
  5
4CC
 10
128.260
 20
-156.895
 30
0.000000
  70
    32
  0
VERTEX
  8
図枠
  5
4CD
 10
128.290
 20
-156.919
 30
0.000000
  70
    32
  0
VERTEX
  8
図枠
  5
4CE
 10
128.320
 20
-156.944
 30
0.000000
  70
    32
  0
VERTEX
  8
図枠
  5
4CF
 10
128.350
 20
-156.968
 30
0.000000
  70
    32
  0
VERTEX
  8
図枠
  5
4D0
 10
128.380
 20
-156.993
 30
0.000000
  70
    32
  0
VERTEX
  8
図枠
  5
4D1
 10
128.410
 20
-157.017
 30
0.000000
  70
    32
  0
VERTEX
  8
図枠
  5
4D2
 10
128.440
 20
-157.041
 30
0.000000
  70
    32
  0
VERTEX
  8
図枠
  5
4D3
 10
128.470
 20
-157.066
 30
0.000000
  70
    32
  0
VERTEX
  8
図枠
  5
4D4
 10
128.500
 20
-157.090
 30
0.000000
  70
    32
  0
VERTEX
  8
図枠
  5
4D5
 10
128.530
 20
-157.114
 30
0.000000
  70
    32
  0
VERTEX
  8
図枠
  5
4D6
 10
128.560
 20
-157.138
 30
0.000000
  70
    32
  0
VERTEX
  8
図枠
  5
4D7
 10
128.591
 20
-157.162
 30
0.000000
  70
    32
  0
VERTEX
  8
図枠
  5
4D8
 10
128.621
 20
-157.186
 30
0.000000
  70
    32
  0
VERTEX
  8
図枠
  5
4D9
 10
128.651
 20
-157.210
 30
0.000000
  70
    32
  0
VERTEX
  8
図枠
  5
4DA
 10
128.681
 20
-157.234
 30
0.000000
  70
    32
  0
VERTEX
  8
図枠
  5
4DB
 10
128.711
 20
-157.258
 30
0.000000
  70
    32
  0
VERTEX
  8
図枠
  5
4DC
 10
128.742
 20
-157.282
 30
0.000000
  70
    32
  0
VERTEX
  8
図枠
  5
4DD
 10
128.772
 20
-157.306
 30
0.000000
  70
    32
  0
VERTEX
  8
図枠
  5
4DE
 10
128.802
 20
-157.330
 30
0.000000
  70
    32
  0
VERTEX
  8
図枠
  5
4DF
 10
128.833
 20
-157.353
 30
0.000000
  70
    32
  0
VERTEX
  8
図枠
  5
4E0
 10
128.863
 20
-157.377
 30
0.000000
  70
    32
  0
VERTEX
  8
図枠
  5
4E1
 10
128.894
 20
-157.400
 30
0.000000
  70
    32
  0
VERTEX
  8
図枠
  5
4E2
 10
128.924
 20
-157.424
 30
0.000000
  70
    32
  0
VERTEX
  8
図枠
  5
4E3
 10
128.955
 20
-157.447
 30
0.000000
  70
    32
  0
VERTEX
  8
図枠
  5
4E4
 10
128.985
 20
-157.471
 30
0.000000
  70
    32
  0
VERTEX
  8
図枠
  5
4E5
 10
129.016
 20
-157.494
 30
0.000000
  70
    32
  0
VERTEX
  8
図枠
  5
4E6
 10
129.046
 20
-157.517
 30
0.000000
  70
    32
  0
VERTEX
  8
図枠
  5
4E7
 10
129.077
 20
-157.540
 30
0.000000
  70
    32
  0
VERTEX
  8
図枠
  5
4E8
 10
129.108
 20
-157.564
 30
0.000000
  70
    32
  0
VERTEX
  8
図枠
  5
4E9
 10
129.138
 20
-157.587
 30
0.000000
  70
    32
  0
VERTEX
  8
図枠
  5
4EA
 10
129.169
 20
-157.610
 30
0.000000
  70
    32
  0
VERTEX
  8
図枠
  5
4EB
 10
129.200
 20
-157.633
 30
0.000000
  70
    32
  0
VERTEX
  8
図枠
  5
4EC
 10
129.231
 20
-157.655
 30
0.000000
  70
    32
  0
VERTEX
  8
図枠
  5
4ED
 10
129.262
 20
-157.678
 30
0.000000
  70
    32
  0
VERTEX
  8
図枠
  5
4EE
 10
129.293
 20
-157.701
 30
0.000000
  70
    32
  0
VERTEX
  8
図枠
  5
4EF
 10
129.323
 20
-157.724
 30
0.000000
  70
    32
  0
VERTEX
  8
図枠
  5
4F0
 10
129.354
 20
-157.746
 30
0.000000
  70
    32
  0
VERTEX
  8
図枠
  5
4F1
 10
129.385
 20
-157.769
 30
0.000000
  70
    32
  0
VERTEX
  8
図枠
  5
4F2
 10
129.416
 20
-157.791
 30
0.000000
  70
    32
  0
VERTEX
  8
図枠
  5
4F3
 10
129.447
 20
-157.814
 30
0.000000
  70
    32
  0
VERTEX
  8
図枠
  5
4F4
 10
129.479
 20
-157.836
 30
0.000000
  70
    32
  0
VERTEX
  8
図枠
  5
4F5
 10
129.510
 20
-157.858
 30
0.000000
  70
    32
  0
VERTEX
  8
図枠
  5
4F6
 10
129.541
 20
-157.881
 30
0.000000
  70
    32
  0
VERTEX
  8
図枠
  5
4F7
 10
129.572
 20
-157.903
 30
0.000000
  70
    32
  0
VERTEX
  8
図枠
  5
4F8
 10
129.603
 20
-157.925
 30
0.000000
  70
    32
  0
VERTEX
  8
図枠
  5
4F9
 10
129.635
 20
-157.947
 30
0.000000
  70
    32
  0
VERTEX
  8
図枠
  5
4FA
 10
129.666
 20
-157.969
 30
0.000000
  70
    32
  0
VERTEX
  8
図枠
  5
4FB
 10
129.697
 20
-157.991
 30
0.000000
  70
    32
  0
VERTEX
  8
図枠
  5
4FC
 10
129.729
 20
-158.012
 30
0.000000
  70
    32
  0
VERTEX
  8
図枠
  5
4FD
 10
129.760
 20
-158.034
 30
0.000000
  70
    32
  0
VERTEX
  8
図枠
  5
4FE
 10
129.792
 20
-158.056
 30
0.000000
  70
    32
  0
VERTEX
  8
図枠
  5
4FF
 10
129.823
 20
-158.077
 30
0.000000
  70
    32
  0
VERTEX
  8
図枠
  5
500
 10
129.855
 20
-158.099
 30
0.000000
  70
    32
  0
VERTEX
  8
図枠
  5
501
 10
129.886
 20
-158.120
 30
0.000000
  70
    32
  0
VERTEX
  8
図枠
  5
502
 10
129.918
 20
-158.141
 30
0.000000
  70
    32
  0
VERTEX
  8
図枠
  5
503
 10
129.950
 20
-158.163
 30
0.000000
  70
    32
  0
VERTEX
  8
図枠
  5
504
 10
129.981
 20
-158.184
 30
0.000000
  70
    32
  0
VERTEX
  8
図枠
  5
505
 10
130.013
 20
-158.205
 30
0.000000
  70
    32
  0
VERTEX
  8
図枠
  5
506
 10
130.045
 20
-158.226
 30
0.000000
  70
    32
  0
VERTEX
  8
図枠
  5
507
 10
130.077
 20
-158.247
 30
0.000000
  70
    32
  0
VERTEX
  8
図枠
  5
508
 10
130.109
 20
-158.268
 30
0.000000
  70
    32
  0
VERTEX
  8
図枠
  5
509
 10
130.141
 20
-158.289
 30
0.000000
  70
    32
  0
VERTEX
  8
図枠
  5
50A
 10
130.173
 20
-158.309
 30
0.000000
  70
    32
  0
VERTEX
  8
図枠
  5
50B
 10
130.205
 20
-158.330
 30
0.000000
  70
    32
  0
VERTEX
  8
図枠
  5
50C
 10
130.237
 20
-158.351
 30
0.000000
  70
    32
  0
VERTEX
  8
図枠
  5
50D
 10
130.269
 20
-158.371
 30
0.000000
  70
    32
  0
VERTEX
  8
図枠
  5
50E
 10
130.301
 20
-158.391
 30
0.000000
  70
    32
  0
VERTEX
  8
図枠
  5
50F
 10
130.333
 20
-158.412
 30
0.000000
  70
    32
  0
VERTEX
  8
図枠
  5
510
 10
130.366
 20
-158.432
 30
0.000000
  70
    32
  0
VERTEX
  8
図枠
  5
511
 10
130.398
 20
-158.452
 30
0.000000
  70
    32
  0
VERTEX
  8
図枠
  5
512
 10
130.430
 20
-158.472
 30
0.000000
  70
    32
  0
VERTEX
  8
図枠
  5
513
 10
130.463
 20
-158.492
 30
0.000000
  70
    32
  0
VERTEX
  8
図枠
  5
514
 10
130.495
 20
-158.512
 30
0.000000
  70
    32
  0
VERTEX
  8
図枠
  5
515
 10
130.527
 20
-158.532
 30
0.000000
  70
    32
  0
VERTEX
  8
図枠
  5
516
 10
130.560
 20
-158.551
 30
0.000000
  70
    32
  0
VERTEX
  8
図枠
  5
517
 10
130.593
 20
-158.571
 30
0.000000
  70
    32
  0
SEQEND
  8
図枠
  5
518
  0
INSERT
  5
B8
  8
0
  6
CONTINUOUS
  2
*U42
 10
0.0
 20
0.0
 30
0.0
  0
LINE
  5
B9
  8
図枠
 10
125.81010886439999
 20
-161.68706482170001
 30
0.0
 11
129.81010886440001
 21
-161.68706482170001
 31
0.0
  0
ARC
  5
BA
  8
図枠
 10
127.73010886439999
 20
-153.20706482169999
 30
0.0
 40
6.0800000000000001
 50
270.0
 51
298.08590481520002
  0
LINE
  5
BB
  8
図枠
 10
107.9531391674
 20
-156.08706482170001
 30
0.0
 11
107.7113730689
 21
-156.08706482170001
 31
0.0
  0
LINE
  5
BC
  8
図枠
 10
105.55873643539999
 20
-130.7433415687
 30
0.0
 11
105.55873643539999
 21
-147.7433415687
 31
0.0
  0
INSERT
  5
BD
  8
0
  6
CONTINUOUS
  2
*U43
 10
0.0
 20
0.0
 30
0.0
  0
LINE
  5
BE
  8
図枠
 10
107.9531391674
 20
-153.68706482170001
 30
0.0
 11
106.11137306889999
 21
-153.68706482170001
 31
0.0
  0
LINE
  5
BF
  8
図枠
 10
119.1531391674
 20
-156.08706482170001
 30
0.0
 11
121.5531391674
 21
-156.08706482170001
 31
0.0
  0
INSERT
  5
C0
  8
0
  6
CONTINUOUS
  2
*U44
 10
0.0
 20
0.0
 30
0.0
  0
LINE
  5
C1
  8
図枠
 10
114.3531391674
 20
-150.48706482169999
 30
0.0
 11
107.9531391674
 21
-150.48706482169999
 31
0.0
  0
LINE
  5
C2
  8
図枠
 10
111.9531391674
 20
-158.48706482169999
 30
0.0
 11
111.9531391674
 21
-156.08706482170001
 31
0.0
  0
INSERT
  5
C3
  8
0
  6
CONTINUOUS
  2
*U45
 10
0.0
 20
0.0
 30
0.0
  0
INSERT
  5
C4
  8
0
  6
CONTINUOUS
  2
*U46
 10
0.0
 20
0.0
 30
0.0
  0
LINE
  5
C5
  8
図枠
 10
107.9531391674
 20
-156.08706482170001
 30
0.0
 11
107.9531391674
 21
-158.48706482169999
 31
0.0
  0
LINE
  5
C6
  8
図枠
 10
107.9531391674
 20
-150.48706482169999
 30
0.0
 11
107.9531391674
 21
-153.68706482170001
 31
0.0
  0
LINE
  5
C7
  8
図枠
 10
112.75313916739999
 20
-159.2870648217
 30
0.0
 11
107.9531391674
 21
-159.2870648217
 31
0.0
  0
LINE
  5
C8
  8
図枠
 10
115.1531391674
 20
-150.48706482169999
 30
0.0
 11
115.1531391674
 21
-153.68706482170001
 31
0.0
  0
LINE
  5
C9
  8
図枠
 10
125.81010886439999
 20
-161.68706482170001
 30
0.0
 11
125.81010886439999
 21
-159.2870648217
 31
0.0
  0
LINE
  5
CA
  8
図枠
 10
111.9531391674
 20
-156.08706482170001
 30
0.0
 11
115.1531391674
 21
-156.08706482170001
 31
0.0
  0
LINE
  5
CB
  8
図枠
 10
107.9531391674
 20
-161.68706482170001
 30
0.0
 11
114.3531391674
 21
-161.68706482170001
 31
0.0
  0
INSERT
  5
CC
  8
0
  6
CONTINUOUS
  2
*U47
 10
0.0
 20
0.0
 30
0.0
  0
LINE
  5
CD
  8
図枠
 10
89.558736435399993
 20
-122.2433415687
 30
0.0
 11
117.55873643539999
 21
-122.2433415687
 31
0.0
  0
INSERT
  5
CE
  8
0
  6
CONTINUOUS
  2
*U48
 10
0.0
 20
0.0
 30
0.0
  0
ARC
  5
CF
  8
図枠
 10
114.3531391674
 20
-156.88706482169999
 30
0.0
 40
4.7999999999999989
 50
270.0
 51
0.0
  0
LINE
  5
D0
  8
図枠
 10
107.9531391674
 20
-159.2870648217
 30
0.0
 11
107.9531391674
 21
-161.68706482170001
 31
0.0
  0
INSERT
  5
D1
  8
0
  6
CONTINUOUS
  2
*U49
 10
0.0
 20
0.0
 30
0.0
  0
INSERT
  5
D2
  8
0
  6
CONTINUOUS
  2
*U50
 10
0.0
 20
0.0
 30
0.0
  0
LINE
  5
D3
  8
図枠
 10
125.55873643539999
 20
-113.7433415687
 30
0.0
 11
125.55873643539999
 21
-130.7433415687
 31
0.0
  0
LINE
  5
D4
  8
図枠
 10
138.61010886439999
 20
-152.88706482169999
 30
0.0
 11
140.21010886440001
 21
-150.48706482169999
 31
0.0
  0
LINE
  5
D5
  8
図枠
 10
136.7904598277
 20
-158.245674756
 30
0.0
 11
136.50549653210001
 21
-158.52467978670001
 31
0.0
  0
LINE
  5
D6
  8
図枠
 10
140.21010886440001
 20
-159.2870648217
 30
0.0
 11
140.21010886440001
 21
-161.68706482170001
 31
0.0
  0
LINE
  5
D7
  8
図枠
  6
BORDER
 10
137.68673643540001
 20
-115.3313415687
 30
0.0
 11
137.68673643540001
 21
-129.15534156870001
 31
0.0
  0
CIRCLE
  5
D8
  8
図枠
 10
137.68673643540001
 20
-122.2433415687
 30
0.0
 40
2.3039999999999998
  0
ARC
  5
D9
  8
図枠
 10
129.81010886440001
 20
-152.88706482169999
 30
0.0
 40
8.8000000000000007
 50
322.48761197969998
 51
0.0
  0
LINE
  5
DA
  8
図枠
 10
138.61010886439999
 20
-152.88706482169999
 30
0.0
 11
140.21010886440001
 21
-150.48706482169999
 31
0.0
  0
POLYLINE
  8
図枠
  5
519
  66
     1
 10
0.000000
 20
0.000000
 30
0.000000
  70
     8
  0
VERTEX
  8
図枠
  5
51A
 10
134.544
 20
-160.305
 30
0.000000
  70
    32
  0
VERTEX
  8
図枠
  5
51B
 10
134.587
 20
-160.319
 30
0.000000
  70
    32
  0
VERTEX
  8
図枠
  5
51C
 10
134.630
 20
-160.333
 30
0.000000
  70
    32
  0
VERTEX
  8
図枠
  5
51D
 10
134.673
 20
-160.346
 30
0.000000
  70
    32
  0
VERTEX
  8
図枠
  5
51E
 10
134.717
 20
-160.360
 30
0.000000
  70
    32
  0
VERTEX
  8
図枠
  5
51F
 10
134.760
 20
-160.373
 30
0.000000
  70
    32
  0
VERTEX
  8
図枠
  5
520
 10
134.803
 20
-160.387
 30
0.000000
  70
    32
  0
VERTEX
  8
図枠
  5
521
 10
134.846
 20
-160.400
 30
0.000000
  70
    32
  0
VERTEX
  8
図枠
  5
522
 10
134.890
 20
-160.413
 30
0.000000
  70
    32
  0
VERTEX
  8
図枠
  5
523
 10
134.933
 20
-160.426
 30
0.000000
  70
    32
  0
VERTEX
  8
図枠
  5
524
 10
134.976
 20
-160.440
 30
0.000000
  70
    32
  0
VERTEX
  8
図枠
  5
525
 10
135.020
 20
-160.453
 30
0.000000
  70
    32
  0
VERTEX
  8
図枠
  5
526
 10
135.063
 20
-160.466
 30
0.000000
  70
    32
  0
VERTEX
  8
図枠
  5
527
 10
135.107
 20
-160.479
 30
0.000000
  70
    32
  0
VERTEX
  8
図枠
  5
528
 10
135.150
 20
-160.492
 30
0.000000
  70
    32
  0
VERTEX
  8
図枠
  5
529
 10
135.194
 20
-160.504
 30
0.000000
  70
    32
  0
VERTEX
  8
図枠
  5
52A
 10
135.238
 20
-160.517
 30
0.000000
  70
    32
  0
VERTEX
  8
図枠
  5
52B
 10
135.281
 20
-160.530
 30
0.000000
  70
    32
  0
VERTEX
  8
図枠
  5
52C
 10
135.325
 20
-160.543
 30
0.000000
  70
    32
  0
VERTEX
  8
図枠
  5
52D
 10
135.368
 20
-160.555
 30
0.000000
  70
    32
  0
VERTEX
  8
図枠
  5
52E
 10
135.412
 20
-160.568
 30
0.000000
  70
    32
  0
VERTEX
  8
図枠
  5
52F
 10
135.456
 20
-160.580
 30
0.000000
  70
    32
  0
VERTEX
  8
図枠
  5
530
 10
135.500
 20
-160.593
 30
0.000000
  70
    32
  0
VERTEX
  8
図枠
  5
531
 10
135.544
 20
-160.605
 30
0.000000
  70
    32
  0
VERTEX
  8
図枠
  5
532
 10
135.587
 20
-160.617
 30
0.000000
  70
    32
  0
VERTEX
  8
図枠
  5
533
 10
135.631
 20
-160.629
 30
0.000000
  70
    32
  0
VERTEX
  8
図枠
  5
534
 10
135.675
 20
-160.642
 30
0.000000
  70
    32
  0
VERTEX
  8
図枠
  5
535
 10
135.719
 20
-160.654
 30
0.000000
  70
    32
  0
VERTEX
  8
図枠
  5
536
 10
135.763
 20
-160.666
 30
0.000000
  70
    32
  0
VERTEX
  8
図枠
  5
537
 10
135.807
 20
-160.678
 30
0.000000
  70
    32
  0
VERTEX
  8
図枠
  5
538
 10
135.851
 20
-160.690
 30
0.000000
  70
    32
  0
VERTEX
  8
図枠
  5
539
 10
135.895
 20
-160.702
 30
0.000000
  70
    32
  0
VERTEX
  8
図枠
  5
53A
 10
135.939
 20
-160.714
 30
0.000000
  70
    32
  0
VERTEX
  8
図枠
  5
53B
 10
135.983
 20
-160.726
 30
0.000000
  70
    32
  0
VERTEX
  8
図枠
  5
53C
 10
136.027
 20
-160.737
 30
0.000000
  70
    32
  0
VERTEX
  8
図枠
  5
53D
 10
136.072
 20
-160.749
 30
0.000000
  70
    32
  0
VERTEX
  8
図枠
  5
53E
 10
136.116
 20
-160.761
 30
0.000000
  70
    32
  0
VERTEX
  8
図枠
  5
53F
 10
136.160
 20
-160.772
 30
0.000000
  70
    32
  0
VERTEX
  8
図枠
  5
540
 10
136.204
 20
-160.784
 30
0.000000
  70
    32
  0
VERTEX
  8
図枠
  5
541
 10
136.248
 20
-160.796
 30
0.000000
  70
    32
  0
VERTEX
  8
図枠
  5
542
 10
136.293
 20
-160.807
 30
0.000000
  70
    32
  0
VERTEX
  8
図枠
  5
543
 10
136.337
 20
-160.819
 30
0.000000
  70
    32
  0
VERTEX
  8
図枠
  5
544
 10
136.381
 20
-160.830
 30
0.000000
  70
    32
  0
VERTEX
  8
図枠
  5
545
 10
136.426
 20
-160.841
 30
0.000000
  70
    32
  0
VERTEX
  8
図枠
  5
546
 10
136.470
 20
-160.853
 30
0.000000
  70
    32
  0
VERTEX
  8
図枠
  5
547
 10
136.514
 20
-160.864
 30
0.000000
  70
    32
  0
VERTEX
  8
図枠
  5
548
 10
136.559
 20
-160.875
 30
0.000000
  70
    32
  0
VERTEX
  8
図枠
  5
549
 10
136.603
 20
-160.886
 30
0.000000
  70
    32
  0
VERTEX
  8
図枠
  5
54A
 10
136.648
 20
-160.897
 30
0.000000
  70
    32
  0
VERTEX
  8
図枠
  5
54B
 10
136.692
 20
-160.908
 30
0.000000
  70
    32
  0
VERTEX
  8
図枠
  5
54C
 10
136.737
 20
-160.920
 30
0.000000
  70
    32
  0
VERTEX
  8
図枠
  5
54D
 10
136.781
 20
-160.931
 30
0.000000
  70
    32
  0
VERTEX
  8
図枠
  5
54E
 10
136.826
 20
-160.942
 30
0.000000
  70
    32
  0
VERTEX
  8
図枠
  5
54F
 10
136.871
 20
-160.952
 30
0.000000
  70
    32
  0
VERTEX
  8
図枠
  5
550
 10
136.915
 20
-160.963
 30
0.000000
  70
    32
  0
VERTEX
  8
図枠
  5
551
 10
136.960
 20
-160.974
 30
0.000000
  70
    32
  0
VERTEX
  8
図枠
  5
552
 10
137.004
 20
-160.985
 30
0.000000
  70
    32
  0
VERTEX
  8
図枠
  5
553
 10
137.049
 20
-160.996
 30
0.000000
  70
    32
  0
VERTEX
  8
図枠
  5
554
 10
137.094
 20
-161.007
 30
0.000000
  70
    32
  0
VERTEX
  8
図枠
  5
555
 10
137.139
 20
-161.017
 30
0.000000
  70
    32
  0
VERTEX
  8
図枠
  5
556
 10
137.183
 20
-161.028
 30
0.000000
  70
    32
  0
VERTEX
  8
図枠
  5
557
 10
137.228
 20
-161.038
 30
0.000000
  70
    32
  0
VERTEX
  8
図枠
  5
558
 10
137.273
 20
-161.049
 30
0.000000
  70
    32
  0
VERTEX
  8
図枠
  5
559
 10
137.318
 20
-161.060
 30
0.000000
  70
    32
  0
VERTEX
  8
図枠
  5
55A
 10
137.362
 20
-161.070
 30
0.000000
  70
    32
  0
VERTEX
  8
図枠
  5
55B
 10
137.407
 20
-161.081
 30
0.000000
  70
    32
  0
VERTEX
  8
図枠
  5
55C
 10
137.452
 20
-161.091
 30
0.000000
  70
    32
  0
VERTEX
  8
図枠
  5
55D
 10
137.497
 20
-161.102
 30
0.000000
  70
    32
  0
VERTEX
  8
図枠
  5
55E
 10
137.542
 20
-161.112
 30
0.000000
  70
    32
  0
VERTEX
  8
図枠
  5
55F
 10
137.587
 20
-161.122
 30
0.000000
  70
    32
  0
VERTEX
  8
図枠
  5
560
 10
137.632
 20
-161.133
 30
0.000000
  70
    32
  0
VERTEX
  8
図枠
  5
561
 10
137.677
 20
-161.143
 30
0.000000
  70
    32
  0
VERTEX
  8
図枠
  5
562
 10
137.721
 20
-161.153
 30
0.000000
  70
    32
  0
VERTEX
  8
図枠
  5
563
 10
137.766
 20
-161.163
 30
0.000000
  70
    32
  0
VERTEX
  8
図枠
  5
564
 10
137.811
 20
-161.174
 30
0.000000
  70
    32
  0
VERTEX
  8
図枠
  5
565
 10
137.856
 20
-161.184
 30
0.000000
  70
    32
  0
VERTEX
  8
図枠
  5
566
 10
137.901
 20
-161.194
 30
0.000000
  70
    32
  0
VERTEX
  8
図枠
  5
567
 10
137.946
 20
-161.204
 30
0.000000
  70
    32
  0
VERTEX
  8
図枠
  5
568
 10
137.991
 20
-161.214
 30
0.000000
  70
    32
  0
VERTEX
  8
図枠
  5
569
 10
138.037
 20
-161.224
 30
0.000000
  70
    32
  0
VERTEX
  8
図枠
  5
56A
 10
138.082
 20
-161.234
 30
0.000000
  70
    32
  0
VERTEX
  8
図枠
  5
56B
 10
138.127
 20
-161.244
 30
0.000000
  70
    32
  0
VERTEX
  8
図枠
  5
56C
 10
138.172
 20
-161.254
 30
0.000000
  70
    32
  0
VERTEX
  8
図枠
  5
56D
 10
138.217
 20
-161.264
 30
0.000000
  70
    32
  0
VERTEX
  8
図枠
  5
56E
 10
138.262
 20
-161.274
 30
0.000000
  70
    32
  0
VERTEX
  8
図枠
  5
56F
 10
138.307
 20
-161.284
 30
0.000000
  70
    32
  0
VERTEX
  8
図枠
  5
570
 10
138.352
 20
-161.294
 30
0.000000
  70
    32
  0
VERTEX
  8
図枠
  5
571
 10
138.397
 20
-161.304
 30
0.000000
  70
    32
  0
VERTEX
  8
図枠
  5
572
 10
138.443
 20
-161.314
 30
0.000000
  70
    32
  0
VERTEX
  8
図枠
  5
573
 10
138.488
 20
-161.324
 30
0.000000
  70
    32
  0
VERTEX
  8
図枠
  5
574
 10
138.533
 20
-161.333
 30
0.000000
  70
    32
  0
VERTEX
  8
図枠
  5
575
 10
138.578
 20
-161.343
 30
0.000000
  70
    32
  0
VERTEX
  8
図枠
  5
576
 10
138.623
 20
-161.353
 30
0.000000
  70
    32
  0
VERTEX
  8
図枠
  5
577
 10
138.669
 20
-161.363
 30
0.000000
  70
    32
  0
VERTEX
  8
図枠
  5
578
 10
138.714
 20
-161.372
 30
0.000000
  70
    32
  0
VERTEX
  8
図枠
  5
579
 10
138.759
 20
-161.382
 30
0.000000
  70
    32
  0
VERTEX
  8
図枠
  5
57A
 10
138.804
 20
-161.392
 30
0.000000
  70
    32
  0
VERTEX
  8
図枠
  5
57B
 10
138.850
 20
-161.402
 30
0.000000
  70
    32
  0
VERTEX
  8
図枠
  5
57C
 10
138.895
 20
-161.411
 30
0.000000
  70
    32
  0
VERTEX
  8
図枠
  5
57D
 10
138.940
 20
-161.421
 30
0.000000
  70
    32
  0
VERTEX
  8
図枠
  5
57E
 10
138.985
 20
-161.431
 30
0.000000
  70
    32
  0
VERTEX
  8
図枠
  5
57F
 10
139.031
 20
-161.440
 30
0.000000
  70
    32
  0
VERTEX
  8
図枠
  5
580
 10
139.076
 20
-161.450
 30
0.000000
  70
    32
  0
VERTEX
  8
図枠
  5
581
 10
139.121
 20
-161.459
 30
0.000000
  70
    32
  0
VERTEX
  8
図枠
  5
582
 10
139.167
 20
-161.469
 30
0.000000
  70
    32
  0
VERTEX
  8
図枠
  5
583
 10
139.212
 20
-161.478
 30
0.000000
  70
    32
  0
VERTEX
  8
図枠
  5
584
 10
139.257
 20
-161.488
 30
0.000000
  70
    32
  0
VERTEX
  8
図枠
  5
585
 10
139.303
 20
-161.498
 30
0.000000
  70
    32
  0
VERTEX
  8
図枠
  5
586
 10
139.348
 20
-161.507
 30
0.000000
  70
    32
  0
VERTEX
  8
図枠
  5
587
 10
139.393
 20
-161.517
 30
0.000000
  70
    32
  0
VERTEX
  8
図枠
  5
588
 10
139.439
 20
-161.526
 30
0.000000
  70
    32
  0
VERTEX
  8
図枠
  5
589
 10
139.484
 20
-161.536
 30
0.000000
  70
    32
  0
VERTEX
  8
図枠
  5
58A
 10
139.529
 20
-161.545
 30
0.000000
  70
    32
  0
VERTEX
  8
図枠
  5
58B
 10
139.575
 20
-161.555
 30
0.000000
  70
    32
  0
VERTEX
  8
図枠
  5
58C
 10
139.620
 20
-161.564
 30
0.000000
  70
    32
  0
VERTEX
  8
図枠
  5
58D
 10
139.665
 20
-161.574
 30
0.000000
  70
    32
  0
VERTEX
  8
図枠
  5
58E
 10
139.711
 20
-161.583
 30
0.000000
  70
    32
  0
VERTEX
  8
図枠
  5
58F
 10
139.756
 20
-161.593
 30
0.000000
  70
    32
  0
VERTEX
  8
図枠
  5
590
 10
139.802
 20
-161.602
 30
0.000000
  70
    32
  0
VERTEX
  8
図枠
  5
591
 10
139.847
 20
-161.612
 30
0.000000
  70
    32
  0
VERTEX
  8
図枠
  5
592
 10
139.892
 20
-161.621
 30
0.000000
  70
    32
  0
VERTEX
  8
図枠
  5
593
 10
139.938
 20
-161.630
 30
0.000000
  70
    32
  0
VERTEX
  8
図枠
  5
594
 10
139.983
 20
-161.640
 30
0.000000
  70
    32
  0
VERTEX
  8
図枠
  5
595
 10
140.029
 20
-161.649
 30
0.000000
  70
    32
  0
VERTEX
  8
図枠
  5
596
 10
140.074
 20
-161.659
 30
0.000000
  70
    32
  0
VERTEX
  8
図枠
  5
597
 10
140.119
 20
-161.668
 30
0.000000
  70
    32
  0
VERTEX
  8
図枠
  5
598
 10
140.165
 20
-161.678
 30
0.000000
  70
    32
  0
VERTEX
  8
図枠
  5
599
 10
140.210
 20
-161.687
 30
0.000000
  70
    32
  0
SEQEND
  8
図枠
  5
59A
  0
LINE
  5
DC
  8
図枠
 10
143.7580811016
 20
-153.20706482169999
 30
0.0
 11
147.75594776829999
 21
-153.20706482169999
 31
0.0
  0
LINE
  5
DD
  8
図枠
 10
153.48472549869999
 20
-157.36706482170001
 30
0.0
 11
158.1580811016
 21
-157.36706482170001
 31
0.0
  0
INSERT
  5
DE
  8
0
  6
CONTINUOUS
  2
*U51
 10
0.0
 20
0.0
 30
0.0
  0
LINE
  5
DF
  8
図枠
 10
115.1531391674
 20
-153.68706482170001
 30
0.0
 11
111.9531391674
 21
-153.68706482170001
 31
0.0
  0
INSERT
  5
E0
  8
0
  6
CONTINUOUS
  2
*U52
 10
0.0
 20
0.0
 30
0.0
  0
LINE
  5
E1
  8
図枠
 10
49.5587364354
 20
-122.2433415687
 30
0.0
 11
81.558736435399993
 21
-122.2433415687
 31
0.0
  0
LINE
  5
E2
  8
図枠
 10
121.5531391674
 20
-153.68706482170001
 30
0.0
 11
119.1531391674
 21
-153.68706482170001
 31
0.0
  0
LINE
  5
E3
  8
図枠
 10
107.9531391674
 20
-158.48706482169999
 30
0.0
 11
111.9531391674
 21
-158.48706482169999
 31
0.0
  0
LINE
  5
E4
  8
図枠
 10
45.5587364354
 20
-80.743341568700004
 30
0.0
 11
45.5587364354
 21
-113.7433415687
 31
0.0
  0
LINE
  5
E5
  8
図枠
 10
45.5587364354
 20
-113.7433415687
 30
0.0
 11
45.5587364354
 21
-164.7433415687
 31
0.0
  0
LINE
  5
E6
  8
図枠
 10
121.5531391674
 20
-150.48706482169999
 30
0.0
 11
115.1531391674
 21
-150.48706482169999
 31
0.0
  0
LINE
  5
E7
  8
図枠
 10
111.9531391674
 20
-153.68706482170001
 30
0.0
 11
111.9531391674
 21
-152.88706482169999
 31
0.0
  0
LINE
  5
E8
  8
図枠
 10
85.558736435399993
 20
-113.7433415687
 30
0.0
 11
85.558736435399993
 21
-130.7433415687
 31
0.0
  0
LINE
  5
E9
  8
図枠
 10
119.1531391674
 20
-156.88706482169999
 30
0.0
 11
119.1531391674
 21
-156.08706482170001
 31
0.0
  0
ARC
  5
EA
  8
図枠
 10
112.75313916739999
 20
-156.88706482169999
 30
0.0
 40
2.399999999999999
 50
270.0
 51
0.0
  0
LINE
  5
EB
  8
図枠
 10
125.81010886439999
 20
-150.48706482169999
 30
0.0
 11
125.81010886439999
 21
-153.36706482170001
 31
0.0
  0
LINE
  5
EC
  8
図枠
 10
119.1531391674
 20
-153.68706482170001
 30
0.0
 11
119.1531391674
 21
-152.88706482169999
 31
0.0
  0
LINE
  5
ED
  8
図枠
 10
148.21969805789999
 20
-119.9393415687
 30
0.0
 11
148.21969805789999
 21
-124.54734156870001
 31
0.0
  0
LINE
  5
EE
  8
図枠
 10
153.11638659799999
 20
-156.08706482170001
 30
0.0
 11
158.1580811016
 21
-156.08706482170001
 31
0.0
  0
LINE
  5
EF
  8
図枠
 10
143.7580811016
 20
-160.24706482170001
 30
0.0
 11
149.821014435
 21
-160.24706482170001
 31
0.0
  0
INSERT
  5
F0
  8
0
  6
CONTINUOUS
  2
*U53
 10
0.0
 20
0.0
 30
0.0
  0
INSERT
  5
F1
  8
0
  6
CONTINUOUS
  2
*U54
 10
0.0
 20
0.0
 30
0.0
  0
LINE
  5
F2
  8
図枠
 10
158.1580811016
 20
-157.36706482170001
 30
0.0
 11
158.1580811016
 21
-160.24706482170001
 31
0.0
  0
LINE
  5
F3
  8
図枠
 10
154.95808110159999
 20
-162.48706482169999
 30
0.0
 11
154.31348802540001
 21
-160.24706482170001
 31
0.0
  0
LINE
  5
F4
  8
図枠
 10
146.9580811015999
 20
-150.48706482169999
 30
0.0
 11
153.35808110159999
 21
-150.48706482169999
 31
0.0
  0
LINE
  5
F5
  8
図枠
 10
150.4780811016
 20
-162.48706482169999
 30
0.0
 11
154.95808110159999
 21
-162.48706482169999
 31
0.0
  0
LINE
  5
F6
  8
図枠
 10
148.21969805789999
 20
-119.9393415687
 30
0.0
 11
157.4356980579
 21
-117.6353415687
 31
0.0
  0
LINE
  5
F7
  8
図枠
 10
148.21969805789999
 20
-119.9393415687
 30
0.0
 11
148.21969805789999
 21
-124.54734156870001
 31
0.0
  0
LINE
  5
F8
  8
図枠
 10
152.2876240713
 20
-153.20706482169999
 30
0.0
 11
152.053393271
 21
-152.39309859689999
 31
0.0
  0
LINE
  5
F9
  8
図枠
 10
143.7580811016
 20
-153.20706482169999
 30
0.0
 11
143.7580811016
 21
-156.08706482170001
 31
0.0
  0
LINE
  5
FA
  8
図枠
 10
148.21969805789999
 20
-124.54734156870001
 30
0.0
 11
157.4356980579
 21
-126.85134156869999
 31
0.0
  0
LINE
  5
FB
  8
図枠
 10
148.976214435
 20
-157.36706482170001
 30
0.0
 11
148.60074776830001
 21
-156.08706482170001
 31
0.0
  0
LINE
  5
FC
  8
図枠
 10
148.21969805789999
 20
-119.9393415687
 30
0.0
 11
148.21969805789999
 21
-124.54734156870001
 31
0.0
  0
LINE
  5
FD
  8
図枠
 10
157.4356980579
 20
-117.6353415687
 30
0.0
 11
157.4356980579
 21
-126.85134156869999
 31
0.0
  0
INSERT
  5
FE
  8
0
  6
CONTINUOUS
  2
*U55
 10
0.0
 20
0.0
 30
0.0
  0
CIRCLE
  5
FF
  8
図枠
 10
137.68673643540001
 20
-122.2433415687
 30
0.0
 40
2.3039999999999998
  0
POLYLINE
  8
図枠
  5
59B
  66
     1
 10
0.000000
 20
0.000000
 30
0.000000
  70
     8
  0
VERTEX
  8
図枠
  5
59C
 10
136.505
 20
-158.525
 30
0.000000
  70
    32
  0
VERTEX
  8
図枠
  5
59D
 10
136.533
 20
-158.533
 30
0.000000
  70
    32
  0
VERTEX
  8
図枠
  5
59E
 10
136.561
 20
-158.540
 30
0.000000
  70
    32
  0
VERTEX
  8
図枠
  5
59F
 10
136.590
 20
-158.548
 30
0.000000
  70
    32
  0
VERTEX
  8
図枠
  5
5A0
 10
136.618
 20
-158.556
 30
0.000000
  70
    32
  0
VERTEX
  8
図枠
  5
5A1
 10
136.646
 20
-158.564
 30
0.000000
  70
    32
  0
VERTEX
  8
図枠
  5
5A2
 10
136.674
 20
-158.572
 30
0.000000
  70
    32
  0
VERTEX
  8
図枠
  5
5A3
 10
136.702
 20
-158.579
 30
0.000000
  70
    32
  0
VERTEX
  8
図枠
  5
5A4
 10
136.730
 20
-158.587
 30
0.000000
  70
    32
  0
VERTEX
  8
図枠
  5
5A5
 10
136.758
 20
-158.594
 30
0.000000
  70
    32
  0
VERTEX
  8
図枠
  5
5A6
 10
136.786
 20
-158.602
 30
0.000000
  70
    32
  0
VERTEX
  8
図枠
  5
5A7
 10
136.815
 20
-158.609
 30
0.000000
  70
    32
  0
VERTEX
  8
図枠
  5
5A8
 10
136.843
 20
-158.617
 30
0.000000
  70
    32
  0
VERTEX
  8
図枠
  5
5A9
 10
136.871
 20
-158.624
 30
0.000000
  70
    32
  0
VERTEX
  8
図枠
  5
5AA
 10
136.900
 20
-158.632
 30
0.000000
  70
    32
  0
VERTEX
  8
図枠
  5
5AB
 10
136.928
 20
-158.639
 30
0.000000
  70
    32
  0
VERTEX
  8
図枠
  5
5AC
 10
136.956
 20
-158.646
 30
0.000000
  70
    32
  0
VERTEX
  8
図枠
  5
5AD
 10
136.985
 20
-158.654
 30
0.000000
  70
    32
  0
VERTEX
  8
図枠
  5
5AE
 10
137.013
 20
-158.661
 30
0.000000
  70
    32
  0
VERTEX
  8
図枠
  5
5AF
 10
137.042
 20
-158.668
 30
0.000000
  70
    32
  0
VERTEX
  8
図枠
  5
5B0
 10
137.070
 20
-158.675
 30
0.000000
  70
    32
  0
VERTEX
  8
図枠
  5
5B1
 10
137.099
 20
-158.682
 30
0.000000
  70
    32
  0
VERTEX
  8
図枠
  5
5B2
 10
137.127
 20
-158.689
 30
0.000000
  70
    32
  0
VERTEX
  8
図枠
  5
5B3
 10
137.156
 20
-158.696
 30
0.000000
  70
    32
  0
VERTEX
  8
図枠
  5
5B4
 10
137.184
 20
-158.703
 30
0.000000
  70
    32
  0
VERTEX
  8
図枠
  5
5B5
 10
137.213
 20
-158.710
 30
0.000000
  70
    32
  0
VERTEX
  8
図枠
  5
5B6
 10
137.241
 20
-158.717
 30
0.000000
  70
    32
  0
VERTEX
  8
図枠
  5
5B7
 10
137.270
 20
-158.724
 30
0.000000
  70
    32
  0
VERTEX
  8
図枠
  5
5B8
 10
137.299
 20
-158.731
 30
0.000000
  70
    32
  0
VERTEX
  8
図枠
  5
5B9
 10
137.327
 20
-158.737
 30
0.000000
  70
    32
  0
VERTEX
  8
図枠
  5
5BA
 10
137.356
 20
-158.744
 30
0.000000
  70
    32
  0
VERTEX
  8
図枠
  5
5BB
 10
137.385
 20
-158.751
 30
0.000000
  70
    32
  0
VERTEX
  8
図枠
  5
5BC
 10
137.414
 20
-158.758
 30
0.000000
  70
    32
  0
VERTEX
  8
図枠
  5
5BD
 10
137.442
 20
-158.764
 30
0.000000
  70
    32
  0
VERTEX
  8
図枠
  5
5BE
 10
137.471
 20
-158.771
 30
0.000000
  70
    32
  0
VERTEX
  8
図枠
  5
5BF
 10
137.500
 20
-158.777
 30
0.000000
  70
    32
  0
VERTEX
  8
図枠
  5
5C0
 10
137.529
 20
-158.784
 30
0.000000
  70
    32
  0
VERTEX
  8
図枠
  5
5C1
 10
137.558
 20
-158.790
 30
0.000000
  70
    32
  0
VERTEX
  8
図枠
  5
5C2
 10
137.587
 20
-158.797
 30
0.000000
  70
    32
  0
VERTEX
  8
図枠
  5
5C3
 10
137.615
 20
-158.803
 30
0.000000
  70
    32
  0
VERTEX
  8
図枠
  5
5C4
 10
137.644
 20
-158.810
 30
0.000000
  70
    32
  0
VERTEX
  8
図枠
  5
5C5
 10
137.673
 20
-158.816
 30
0.000000
  70
    32
  0
VERTEX
  8
図枠
  5
5C6
 10
137.702
 20
-158.823
 30
0.000000
  70
    32
  0
VERTEX
  8
図枠
  5
5C7
 10
137.731
 20
-158.829
 30
0.000000
  70
    32
  0
VERTEX
  8
図枠
  5
5C8
 10
137.760
 20
-158.835
 30
0.000000
  70
    32
  0
VERTEX
  8
図枠
  5
5C9
 10
137.789
 20
-158.841
 30
0.000000
  70
    32
  0
VERTEX
  8
図枠
  5
5CA
 10
137.818
 20
-158.848
 30
0.000000
  70
    32
  0
VERTEX
  8
図枠
  5
5CB
 10
137.847
 20
-158.854
 30
0.000000
  70
    32
  0
VERTEX
  8
図枠
  5
5CC
 10
137.876
 20
-158.860
 30
0.000000
  70
    32
  0
VERTEX
  8
図枠
  5
5CD
 10
137.905
 20
-158.866
 30
0.000000
  70
    32
  0
VERTEX
  8
図枠
  5
5CE
 10
137.935
 20
-158.872
 30
0.000000
  70
    32
  0
VERTEX
  8
図枠
  5
5CF
 10
137.964
 20
-158.878
 30
0.000000
  70
    32
  0
VERTEX
  8
図枠
  5
5D0
 10
137.993
 20
-158.884
 30
0.000000
  70
    32
  0
VERTEX
  8
図枠
  5
5D1
 10
138.022
 20
-158.890
 30
0.000000
  70
    32
  0
VERTEX
  8
図枠
  5
5D2
 10
138.051
 20
-158.896
 30
0.000000
  70
    32
  0
VERTEX
  8
図枠
  5
5D3
 10
138.080
 20
-158.902
 30
0.000000
  70
    32
  0
VERTEX
  8
図枠
  5
5D4
 10
138.109
 20
-158.908
 30
0.000000
  70
    32
  0
VERTEX
  8
図枠
  5
5D5
 10
138.139
 20
-158.914
 30
0.000000
  70
    32
  0
VERTEX
  8
図枠
  5
5D6
 10
138.168
 20
-158.920
 30
0.000000
  70
    32
  0
VERTEX
  8
図枠
  5
5D7
 10
138.197
 20
-158.926
 30
0.000000
  70
    32
  0
VERTEX
  8
図枠
  5
5D8
 10
138.226
 20
-158.932
 30
0.000000
  70
    32
  0
VERTEX
  8
図枠
  5
5D9
 10
138.256
 20
-158.938
 30
0.000000
  70
    32
  0
VERTEX
  8
図枠
  5
5DA
 10
138.285
 20
-158.944
 30
0.000000
  70
    32
  0
VERTEX
  8
図枠
  5
5DB
 10
138.314
 20
-158.949
 30
0.000000
  70
    32
  0
VERTEX
  8
図枠
  5
5DC
 10
138.344
 20
-158.955
 30
0.000000
  70
    32
  0
VERTEX
  8
図枠
  5
5DD
 10
138.373
 20
-158.961
 30
0.000000
  70
    32
  0
VERTEX
  8
図枠
  5
5DE
 10
138.402
 20
-158.967
 30
0.000000
  70
    32
  0
VERTEX
  8
図枠
  5
5DF
 10
138.432
 20
-158.972
 30
0.000000
  70
    32
  0
VERTEX
  8
図枠
  5
5E0
 10
138.461
 20
-158.978
 30
0.000000
  70
    32
  0
VERTEX
  8
図枠
  5
5E1
 10
138.490
 20
-158.984
 30
0.000000
  70
    32
  0
VERTEX
  8
図枠
  5
5E2
 10
138.520
 20
-158.989
 30
0.000000
  70
    32
  0
VERTEX
  8
図枠
  5
5E3
 10
138.549
 20
-158.995
 30
0.000000
  70
    32
  0
VERTEX
  8
図枠
  5
5E4
 10
138.579
 20
-159.000
 30
0.000000
  70
    32
  0
VERTEX
  8
図枠
  5
5E5
 10
138.608
 20
-159.006
 30
0.000000
  70
    32
  0
VERTEX
  8
図枠
  5
5E6
 10
138.638
 20
-159.012
 30
0.000000
  70
    32
  0
VERTEX
  8
図枠
  5
5E7
 10
138.667
 20
-159.017
 30
0.000000
  70
    32
  0
VERTEX
  8
図枠
  5
5E8
 10
138.697
 20
-159.023
 30
0.000000
  70
    32
  0
VERTEX
  8
図枠
  5
5E9
 10
138.726
 20
-159.028
 30
0.000000
  70
    32
  0
VERTEX
  8
図枠
  5
5EA
 10
138.756
 20
-159.034
 30
0.000000
  70
    32
  0
VERTEX
  8
図枠
  5
5EB
 10
138.785
 20
-159.039
 30
0.000000
  70
    32
  0
VERTEX
  8
図枠
  5
5EC
 10
138.815
 20
-159.044
 30
0.000000
  70
    32
  0
VERTEX
  8
図枠
  5
5ED
 10
138.844
 20
-159.050
 30
0.000000
  70
    32
  0
VERTEX
  8
図枠
  5
5EE
 10
138.874
 20
-159.055
 30
0.000000
  70
    32
  0
VERTEX
  8
図枠
  5
5EF
 10
138.903
 20
-159.061
 30
0.000000
  70
    32
  0
VERTEX
  8
図枠
  5
5F0
 10
138.933
 20
-159.066
 30
0.000000
  70
    32
  0
VERTEX
  8
図枠
  5
5F1
 10
138.962
 20
-159.071
 30
0.000000
  70
    32
  0
VERTEX
  8
図枠
  5
5F2
 10
138.992
 20
-159.077
 30
0.000000
  70
    32
  0
VERTEX
  8
図枠
  5
5F3
 10
139.021
 20
-159.082
 30
0.000000
  70
    32
  0
VERTEX
  8
図枠
  5
5F4
 10
139.051
 20
-159.087
 30
0.000000
  70
    32
  0
VERTEX
  8
図枠
  5
5F5
 10
139.081
 20
-159.093
 30
0.000000
  70
    32
  0
VERTEX
  8
図枠
  5
5F6
 10
139.110
 20
-159.098
 30
0.000000
  70
    32
  0
VERTEX
  8
図枠
  5
5F7
 10
139.140
 20
-159.103
 30
0.000000
  70
    32
  0
VERTEX
  8
図枠
  5
5F8
 10
139.170
 20
-159.108
 30
0.000000
  70
    32
  0
VERTEX
  8
図枠
  5
5F9
 10
139.199
 20
-159.114
 30
0.000000
  70
    32
  0
VERTEX
  8
図枠
  5
5FA
 10
139.229
 20
-159.119
 30
0.000000
  70
    32
  0
VERTEX
  8
図枠
  5
5FB
 10
139.259
 20
-159.124
 30
0.000000
  70
    32
  0
VERTEX
  8
図枠
  5
5FC
 10
139.288
 20
-159.129
 30
0.000000
  70
    32
  0
VERTEX
  8
図枠
  5
5FD
 10
139.318
 20
-159.135
 30
0.000000
  70
    32
  0
VERTEX
  8
図枠
  5
5FE
 10
139.348
 20
-159.140
 30
0.000000
  70
    32
  0
VERTEX
  8
図枠
  5
5FF
 10
139.377
 20
-159.145
 30
0.000000
  70
    32
  0
VERTEX
  8
図枠
  5
600
 10
139.407
 20
-159.150
 30
0.000000
  70
    32
  0
VERTEX
  8
図枠
  5
601
 10
139.437
 20
-159.155
 30
0.000000
  70
    32
  0
VERTEX
  8
図枠
  5
602
 10
139.466
 20
-159.160
 30
0.000000
  70
    32
  0
VERTEX
  8
図枠
  5
603
 10
139.496
 20
-159.166
 30
0.000000
  70
    32
  0
VERTEX
  8
図枠
  5
604
 10
139.526
 20
-159.171
 30
0.000000
  70
    32
  0
VERTEX
  8
図枠
  5
605
 10
139.555
 20
-159.176
 30
0.000000
  70
    32
  0
VERTEX
  8
図枠
  5
606
 10
139.585
 20
-159.181
 30
0.000000
  70
    32
  0
VERTEX
  8
図枠
  5
607
 10
139.615
 20
-159.186
 30
0.000000
  70
    32
  0
VERTEX
  8
図枠
  5
608
 10
139.645
 20
-159.191
 30
0.000000
  70
    32
  0
VERTEX
  8
図枠
  5
609
 10
139.674
 20
-159.196
 30
0.000000
  70
    32
  0
VERTEX
  8
図枠
  5
60A
 10
139.704
 20
-159.201
 30
0.000000
  70
    32
  0
VERTEX
  8
図枠
  5
60B
 10
139.734
 20
-159.206
 30
0.000000
  70
    32
  0
VERTEX
  8
図枠
  5
60C
 10
139.764
 20
-159.211
 30
0.000000
  70
    32
  0
VERTEX
  8
図枠
  5
60D
 10
139.793
 20
-159.216
 30
0.000000
  70
    32
  0
VERTEX
  8
図枠
  5
60E
 10
139.823
 20
-159.222
 30
0.000000
  70
    32
  0
VERTEX
  8
図枠
  5
60F
 10
139.853
 20
-159.227
 30
0.000000
  70
    32
  0
VERTEX
  8
図枠
  5
610
 10
139.883
 20
-159.232
 30
0.000000
  70
    32
  0
VERTEX
  8
図枠
  5
611
 10
139.912
 20
-159.237
 30
0.000000
  70
    32
  0
VERTEX
  8
図枠
  5
612
 10
139.942
 20
-159.242
 30
0.000000
  70
    32
  0
VERTEX
  8
図枠
  5
613
 10
139.972
 20
-159.247
 30
0.000000
  70
    32
  0
VERTEX
  8
図枠
  5
614
 10
140.002
 20
-159.252
 30
0.000000
  70
    32
  0
VERTEX
  8
図枠
  5
615
 10
140.031
 20
-159.257
 30
0.000000
  70
    32
  0
VERTEX
  8
図枠
  5
616
 10
140.061
 20
-159.262
 30
0.000000
  70
    32
  0
VERTEX
  8
図枠
  5
617
 10
140.091
 20
-159.267
 30
0.000000
  70
    32
  0
VERTEX
  8
図枠
  5
618
 10
140.121
 20
-159.272
 30
0.000000
  70
    32
  0
VERTEX
  8
図枠
  5
619
 10
140.151
 20
-159.277
 30
0.000000
  70
    32
  0
VERTEX
  8
図枠
  5
61A
 10
140.180
 20
-159.282
 30
0.000000
  70
    32
  0
VERTEX
  8
図枠
  5
61B
 10
140.210
 20
-159.287
 30
0.000000
  70
    32
  0
SEQEND
  8
図枠
  5
61C
  0
LINE
  5
101
  8
図枠
  6
BORDER
 10
137.68673643540001
 20
-115.3313415687
 30
0.0
 11
137.68673643540001
 21
-129.15534156870001
 31
0.0
  0
LINE
  5
102
  8
図枠
  6
BORDER
 10
137.68673643540001
 20
-115.3313415687
 30
0.0
 11
137.68673643540001
 21
-129.15534156870001
 31
0.0
  0
CIRCLE
  5
103
  8
図枠
 10
137.68673643540001
 20
-122.2433415687
 30
0.0
 40
2.3039999999999998
  0
CIRCLE
  5
104
  8
図枠
 10
137.68673643540001
 20
-122.2433415687
 30
0.0
 40
2.3039999999999998
  0
LINE
  5
105
  8
図枠
  6
BORDER
 10
137.68673643540001
 20
-115.3313415687
 30
0.0
 11
137.68673643540001
 21
-129.15534156870001
 31
0.0
  0
LINE
  5
106
  8
図枠
 10
143.7580811016
 20
-156.08706482170001
 30
0.0
 11
148.60074776830001
 21
-156.08706482170001
 31
0.0
  0
LINE
  5
107
  8
図枠
 10
147.75594776829999
 20
-153.20706482169999
 30
0.0
 11
146.9580811015999
 21
-150.48706482169999
 31
0.0
  0
INSERT
  5
108
  8
0
  6
CONTINUOUS
  2
*U56
 10
0.0
 20
0.0
 30
0.0
  0
INSERT
  5
109
  8
0
  6
CONTINUOUS
  2
*U57
 10
0.0
 20
0.0
 30
0.0
  0
LINE
  5
10A
  8
図枠
 10
148.21969805789999
 20
-124.54734156870001
 30
0.0
 11
157.4356980579
 21
-126.85134156869999
 31
0.0
  0
LINE
  5
10B
  8
図枠
 10
148.21969805789999
 20
-124.54734156870001
 30
0.0
 11
157.4356980579
 21
-126.85134156869999
 31
0.0
  0
LINE
  5
10C
  8
図枠
 10
165.55873643539999
 20
-113.7433415687
 30
0.0
 11
165.55873643539999
 21
-164.7433415687
 31
0.0
  0
LINE
  5
10D
  8
図枠
 10
148.21969805789999
 20
-119.9393415687
 30
0.0
 11
148.21969805789999
 21
-124.54734156870001
 31
0.0
  0
INSERT
  5
10E
  8
0
  6
CONTINUOUS
  2
*U58
 10
0.0
 20
0.0
 30
0.0
  0
LINE
  5
10F
  8
図枠
 10
143.7580811016
 20
-157.36706482170001
 30
0.0
 11
143.7580811016
 21
-160.24706482170001
 31
0.0
  0
LINE
  5
110
  8
図枠
 10
153.48472549869999
 20
-157.36706482170001
 30
0.0
 11
153.11638659799999
 21
-156.08706482170001
 31
0.0
  0
LINE
  5
111
  8
図枠
 10
150.4780811016
 20
-162.48706482169999
 30
0.0
 11
149.821014435
 21
-160.24706482170001
 31
0.0
  0
LINE
  5
112
  8
図枠
 10
148.21969805789999
 20
-124.54734156870001
 30
0.0
 11
157.4356980579
 21
-126.85134156869999
 31
0.0
  0
LINE
  5
113
  8
図枠
 10
154.31348802540001
 20
-160.24706482170001
 30
0.0
 11
158.1580811016
 21
-160.24706482170001
 31
0.0
  0
LINE
  5
114
  8
図枠
 10
158.1580811016
 20
-153.20706482169999
 30
0.0
 11
158.1580811016
 21
-156.08706482170001
 31
0.0
  0
LINE
  5
115
  8
図枠
 10
148.21969805789999
 20
-119.9393415687
 30
0.0
 11
157.4356980579
 21
-117.6353415687
 31
0.0
  0
INSERT
  5
116
  8
0
  6
CONTINUOUS
  2
*U59
 10
0.0
 20
0.0
 30
0.0
  0
LINE
  5
117
  8
図枠
 10
159.55873643539999
 20
-91.743341568700004
 30
0.0
 11
159.55873643539999
 21
-80.743341568700004
 31
0.0
  0
LINE
  5
118
  8
図枠
 10
157.4356980579
 20
-117.6353415687
 30
0.0
 11
157.4356980579
 21
-126.85134156869999
 31
0.0
  0
INSERT
  5
119
  8
0
  6
CONTINUOUS
  2
*U60
 10
0.0
 20
0.0
 30
0.0
  0
LINE
  5
11A
  8
図枠
 10
152.053393271
 20
-152.39309859689999
 30
0.0
 11
153.35808110159999
 21
-150.48706482169999
 31
0.0
  0
LINE
  5
11B
  8
図枠
 10
143.7580811016
 20
-157.36706482170001
 30
0.0
 11
148.976214435
 21
-157.36706482170001
 31
0.0
  0
LINE
  5
11C
  8
図枠
 10
157.4356980579
 20
-117.6353415687
 30
0.0
 11
157.4356980579
 21
-126.85134156869999
 31
0.0
  0
LINE
  5
11D
  8
図枠
 10
152.2876240713
 20
-153.20706482169999
 30
0.0
 11
158.1580811016
 21
-153.20706482169999
 31
0.0
  0
LINE
  5
11E
  8
図枠
 10
148.21969805789999
 20
-119.9393415687
 30
0.0
 11
157.4356980579
 21
-117.6353415687
 31
0.0
  0
LINE
  5
11F
  8
ﾚｲﾔ_10
  6
BORDER
 62
     3
 10
-88.813085937500006
 20
132.48398437500001
 30
0.0
 11
-88.813085937500006
 21
122.48398437500001
 31
0.0
  0
CIRCLE
  5
120
  8
ﾚｲﾔ_10
 62
     5
 10
-88.813085937500006
 20
127.48398437500001
 30
0.0
 40
3.75
  0
CIRCLE
  5
121
  8
ﾚｲﾔ_10
 62
     5
 10
-88.813085937500006
 20
127.48398437500001
 30
0.0
 40
2.1000000000000001
  0
LINE
  5
122
  8
ﾚｲﾔ_10
  6
BORDER
 62
     3
 10
-93.813085937500006
 20
109.48398437500001
 30
0.0
 11
-83.813085937500006
 21
109.48398437500001
 31
0.0
  0
LINE
  5
123
  8
ﾚｲﾔ_10
 10
-132.5530718892
 20
140.493220888
 30
0.0
 11
-111.7120462482
 21
140.493220888
 31
0.0
  0
INSERT
  5
124
  8
0
  6
CONTINUOUS
  2
*U61
 10
0.0
 20
0.0
 30
0.0
  0
LINE
  5
125
  8
ﾚｲﾔ_10
 10
-132.5530718892
 20
141.493220888
 30
0.0
 11
-111.7120462482
 21
141.493220888
 31
0.0
  0
LINE
  5
126
  8
ﾚｲﾔ_10
 10
-132.5530718892
 20
142.493220888
 30
0.0
 11
-111.7120462482
 21
142.493220888
 31
0.0
  0
LINE
  5
127
  8
ﾚｲﾔ_10
 10
-132.5530718892
 20
138.493220888
 30
0.0
 11
-111.7120462482
 21
138.493220888
 31
0.0
  0
LINE
  5
128
  8
ﾚｲﾔ_10
 10
-132.5530718892
 20
139.493220888
 30
0.0
 11
-111.7120462482
 21
139.493220888
 31
0.0
  0
DIMENSION
  5
137
  8
寸法線
  2
*D3
 10
-62.419209024099999
 20
127.48398437500001
 30
0.0
 11
-62.419209024099999
 21
142.12968749999999
 31
0.0
 70
   128
  1
<>
 13
-83.813085937500006
 23
127.48398437500001
 33
0.0
 14
-82.419209024099985
 24
133.48398437500001
 34
0.0
 50
90.0
  0
DIMENSION
  5
13F
  8
寸法線
  2
*D4
 10
-111.81308593750001
 20
118.48398437500001
 30
0.0
 11
-24.085761361599999
 21
136.88601864649999
 31
0.0
 70
   132
  1
<>
 15
-79.937533669999993
 25
127.02501286339999
 35
0.0
 40
0.0
  0
DIMENSION
  5
14E
  8
寸法線
  2
*D5
 10
-88.813085937500006
 20
84.483984375000006
 30
0.0
 11
-83.813085937500006
 21
84.483984375000006
 31
0.0
 70
   128
  1
<>
 13
-88.813085937500006
 23
104.48398437500001
 33
0.0
 14
-78.813085937500006
 24
118.48398437500001
 34
0.0
 50
180.0
  0
DIMENSION
  5
15D
  8
寸法線
  2
*D6
 10
-62.419209024099999
 20
109.48398437500001
 30
0.0
 11
-62.419209024099999
 21
118.48398437500001
 31
0.0
 70
   128
  1
<>
 13
-83.813085937500006
 23
109.48398437500001
 33
0.0
 14
-83.813085937500006
 24
127.48398437500001
 34
0.0
 50
90.0
  0
DIMENSION
  5
16C
  8
寸法線
  2
*D7
 10
-62.419209024099999
 20
103.48398437500001
 30
0.0
 11
-62.419209024099999
 21
95.000781249999989
 31
0.0
 70
   128
  1
<>
 13
-82.419209024099985
 23
103.48398437500001
 33
0.0
 14
-83.813085937500006
 24
109.48398437500001
 34
0.0
 50
90.0
  0
ARC
  5
16D
  8
ﾚｲﾔ_10
 62
     5
 10
-111.81308593750001
 20
118.48398437500001
 30
0.0
 40
33.0
 50
332.9643082106
 51
27.035691789400001
  0
CIRCLE
  5
16E
  8
図枠
 10
137.68673643540001
 20
-122.2433415687
 30
0.0
 40
4.6079999999999997
  0
LINE
  5
16F
  8
図枠
 10
133.0682088511
 20
-156.11757826979999
 30
0.0
 11
132.68325556100001
 21
-156.54275964670001
 31
0.0
  0
ARC
  5
170
  8
図枠
 10
127.73010886439999
 20
-153.20706482169999
 30
0.0
 40
6.0800000000000001
 50
331.39928138329998
 51
358.49204224580001
  0
CIRCLE
  5
171
  8
図枠
 10
137.68673643540001
 20
-122.2433415687
 30
0.0
 40
4.6079999999999997
  0
CIRCLE
  5
172
  8
図枠
 10
137.68673643540001
 20
-122.2433415687
 30
0.0
 40
4.6079999999999997
  0
CIRCLE
  5
173
  8
図枠
 10
137.68673643540001
 20
-122.2433415687
 30
0.0
 40
4.6079999999999997
  0
LINE
  5
174
  8
図枠
 10
148.21969805789999
 20
-119.9393415687
 30
0.0
 11
157.4356980579
 21
-117.6353415687
 31
0.0
  0
LINE
  5
175
  8
図枠
 10
157.4356980579
 20
-117.6353415687
 30
0.0
 11
157.4356980579
 21
-126.85134156869999
 31
0.0
  0
LINE
  5
176
  8
図枠
 10
195.55873643539999
 20
-91.743341568700004
 30
0.0
 11
195.55873643539999
 21
-80.743341568700004
 31
0.0
  0
LINE
  5
177
  8
ﾚｲﾔ_10
  6
BORDER
 62
     3
 10
-162.38205729169999
 20
127.48398437500001
 30
0.0
 11
-172.6025334821
 21
127.48398437500001
 31
0.0
  0
LINE
  5
178
  8
ﾚｲﾔ_10
  6
BORDER
 62
     3
 10
-162.38205729169999
 20
109.48398437500001
 30
0.0
 11
-172.6025334821
 21
109.48398437500001
 31
0.0
  0
LINE
  5
179
  8
ﾚｲﾔ_10
  6
STITCH
 10
-165.81308593750001
 20
131.23398437500001
 30
0.0
 11
-167.46308593750001
 21
129.583984375
 31
0.0
  0
LINE
  5
17A
  8
ﾚｲﾔ_10
 62
     5
 10
-82.419209024099985
 20
133.48398437500001
 30
0.0
 11
-168.81308593750001
 21
133.48398437500001
 31
0.0
  0
LINE
  5
17B
  8
ﾚｲﾔ_10
 62
     5
 10
-168.81308593750001
 20
103.48398437500001
 30
0.0
 11
-82.419209024099985
 21
103.48398437500001
 31
0.0
  0
CIRCLE
  5
17C
  8
ﾚｲﾔ_10
 62
     5
 10
-137.81308593750001
 20
109.48398437500001
 30
0.0
 40
2.1000000000000001
  0
CIRCLE
  5
17D
  8
ﾚｲﾔ_10
 62
     5
 10
-137.81308593750001
 20
109.48398437500001
 30
0.0
 40
3.75
  0
LINE
  5
17E
  8
ﾚｲﾔ_10
  6
BORDER
 62
     3
 10
-137.81308593750001
 20
114.48398437500001
 30
0.0
 11
-137.81308593750001
 21
104.48398437500001
 31
0.0
  0
LINE
  5
17F
  8
ﾚｲﾔ_10
 62
     5
 10
-165.81308593750001
 20
133.48398437500001
 30
0.0
 11
-165.81308593750001
 21
103.48398437500001
 31
0.0
  0
LINE
  5
180
  8
ﾚｲﾔ_10
  6
STITCH
 10
-165.81308593750001
 20
105.73398437500001
 30
0.0
 11
-167.46308593750001
 21
107.383984375
 31
0.0
  0
LINE
  5
181
  8
ﾚｲﾔ_10
 62
     5
 10
-168.81308593750001
 20
133.48398437500001
 30
0.0
 11
-168.81308593750001
 21
103.48398437500001
 31
0.0
  0
CIRCLE
  5
182
  8
ﾚｲﾔ_10
 62
     5
 10
-88.813085937500006
 20
109.48398437500001
 30
0.0
 40
3.75
  0
LINE
  5
183
  8
ﾚｲﾔ_10
  6
BORDER
 62
     3
 10
-88.813085937500006
 20
114.48398437500001
 30
0.0
 11
-88.813085937500006
 21
104.48398437500001
 31
0.0
  0
CIRCLE
  5
184
  8
ﾚｲﾔ_10
 62
     5
 10
-137.81308593750001
 20
127.48398437500001
 30
0.0
 40
2.1000000000000001
  0
LINE
  5
185
  8
ﾚｲﾔ_10
  6
BORDER
 62
     3
 10
-137.81308593750001
 20
132.48398437500001
 30
0.0
 11
-137.81308593750001
 21
122.48398437500001
 31
0.0
  0
CIRCLE
  5
186
  8
ﾚｲﾔ_10
 62
     5
 10
-137.81308593750001
 20
127.48398437500001
 30
0.0
 40
3.75
  0
LINE
  5
187
  8
ﾚｲﾔ_10
  6
BORDER
 62
     3
 10
-142.81308593750001
 20
109.48398437500001
 30
0.0
 11
-132.81308593750001
 21
109.48398437500001
 31
0.0
  0
LINE
  5
188
  8
ﾚｲﾔ_10
  6
BORDER
 62
     3
 10
-142.81308593750001
 20
127.48398437500001
 30
0.0
 11
-132.81308593750001
 21
127.48398437500001
 31
0.0
  0
LINE
  5
189
  8
ﾚｲﾔ_10
  6
BORDER
 62
     3
 10
-93.813085937500006
 20
127.48398437500001
 30
0.0
 11
-83.813085937500006
 21
127.48398437500001
 31
0.0
  0
LINE
  5
18A
  8
ﾚｲﾔ_10
  6
BORDER
 62
     3
 10
-113.31308593750001
 20
123.48398437500001
 30
0.0
 11
-113.31308593750001
 21
113.48398437500001
 31
0.0
  0
LINE
  5
18B
  8
ﾚｲﾔ_10
  6
BORDER
 62
     3
 10
-118.31308593750001
 20
118.48398437500001
 30
0.0
 11
-108.31308593750001
 21
118.48398437500001
 31
0.0
  0
CIRCLE
  5
18C
  8
ﾚｲﾔ_10
 62
     5
 10
-113.31308593750001
 20
118.48398437500001
 30
0.0
 40
2.1000000000000001
  0
CIRCLE
  5
18D
  8
ﾚｲﾔ_10
 62
     5
 10
-113.31308593750001
 20
118.48398437500001
 30
0.0
 40
3.75
  0
LINE
  5
18E
  8
ﾚｲﾔ_10
  6
STITCH
 10
-167.46308593750001
 20
107.383984375
 30
0.0
 11
-168.81308593750001
 21
107.383984375
 31
0.0
  0
CIRCLE
  5
18F
  8
ﾚｲﾔ_10
 62
     5
 10
-88.813085937500006
 20
109.48398437500001
 30
0.0
 40
2.1000000000000001
  0
LINE
  5
190
  8
ﾚｲﾔ_10
  6
STITCH
 10
-165.81308593750001
 20
-36.815234375000003
 30
0.0
 11
-167.46308593750001
 21
-35.165234374999997
 31
0.0
  0
DIMENSION
  5
19D
  8
寸法線
  2
*D62
 10
-156.65740107840239
 20
-44.42794733143436
 30
0.0
 11
-152.04891276039999
 21
-48.506646412000009
 31
0.0
 70
   133
  1
<>
 13
-165.81308593750001
 23
-22.315234374999999
 33
0.0
 14
-78.063085937500006
 24
-65.065234375000003
 34
0.0
 15
-170.81308593750001
 25
-65.065234375000003
 35
0.0
1001
ACAD
1000
DSTYLE
1002
{
1070
   271
1070
     0
1002
}
  0
DIMENSION
  5
1AC
  8
寸法線
  2
*D9
 10
-168.81308593750001
 20
-88.065234375000003
 30
0.0
 11
-123.81308593750001
 21
-88.065234375000003
 31
0.0
 70
   128
  1
<>
 13
-168.81308593750001
 23
-63.065234375000003
 33
0.0
 14
-78.813085937500006
 24
-68.065234375000003
 34
0.0
 50
180.0
  0
LINE
  5
1AD
  8
ﾚｲﾔ_10
 62
     5
 10
-78.813085937500006
 20
-68.065234375000003
 30
0.0
 11
-78.813085937500006
 21
-65.065234375000003
 31
0.0
  0
LINE
  5
1AE
  8
ﾚｲﾔ_10
 62
     5
 10
-163.81308593750001
 20
-68.065234375000003
 30
0.0
 11
-78.813085937500006
 21
-68.065234375000003
 31
0.0
  0
LINE
  5
1AF
  8
ﾚｲﾔ_10
 62
     5
 10
-163.81308593750001
 20
-65.065234375000003
 30
0.0
 11
-78.813085937500006
 21
-65.065234375000003
 31
0.0
  0
DIMENSION
  5
1BE
  8
寸法線
  2
*D10
 10
-188.81308593750001
 20
133.48398437500001
 30
0.0
 11
-188.81308593750001
 21
125.98398437500001
 31
0.0
 70
   128
  1
<>
 13
-168.81308593750001
 23
133.48398437500001
 33
0.0
 14
-118.31308593750001
 24
118.48398437500001
 34
0.0
 50
90.0
  0
DIMENSION
  5
1CD
  8
寸法線
  2
*D11
 10
-188.81308593750001
 20
118.48398437500001
 30
0.0
 11
-188.81308593750001
 21
110.98398437500001
 31
0.0
 70
   128
  1
<>
 13
-118.31308593750001
 23
118.48398437500001
 33
0.0
 14
-168.81308593750001
 24
103.48398437500001
 34
0.0
 50
90.0
  0
DIMENSION
  5
1DC
  8
寸法線
  2
*D12
 10
-205.05608848040001
 20
133.48398437500001
 30
0.0
 11
-205.05608848040001
 21
118.48398437500001
 31
0.0
 70
   128
  1
<>
 13
-168.81308593750001
 23
133.48398437500001
 33
0.0
 14
-168.81308593750001
 24
103.48398437500001
 34
0.0
 50
90.0
  0
DIMENSION
  5
1EB
  8
寸法線
  2
*D13
 10
-137.81308593750001
 20
84.483984375000006
 30
0.0
 11
-125.56308593750001
 21
84.483984375000006
 31
0.0
 70
   128
  1
<>
 13
-137.81308593750001
 23
104.48398437500001
 33
0.0
 14
-113.31308593750001
 24
113.48398437500001
 34
0.0
 50
180.0
  0
DIMENSION
  5
1FA
  8
寸法線
  2
*D14
 10
-168.81308593750001
 20
84.483984375000006
 30
0.0
 11
-153.31308593750001
 21
84.483984375000006
 31
0.0
 70
   128
  1
<>
 13
-168.81308593750001
 23
103.48398437500001
 33
0.0
 14
-137.81308593750001
 24
104.48398437500001
 34
0.0
 50
180.0
  0
DIMENSION
  5
209
  8
寸法線
  2
*D15
 10
-113.31308593750001
 20
84.483984375000006
 30
0.0
 11
-101.06308593750001
 21
84.483984375000006
 31
0.0
 70
   128
  1
<>
 13
-113.31308593750001
 23
113.48398437500001
 33
0.0
 14
-88.813085937500006
 24
104.48398437500001
 34
0.0
 50
180.0
  0
LINE
  5
20A
  8
ﾚｲﾔ_10
  6
STITCH
 10
-167.46308593750001
 20
111.583984375
 30
0.0
 11
-167.46308593750001
 21
107.383984375
 31
0.0
  0
LINE
  5
20B
  8
ﾚｲﾔ_10
  6
STITCH
 10
-165.81308593750001
 20
123.73398437500001
 30
0.0
 11
-167.46308593750001
 21
125.383984375
 31
0.0
  0
LINE
  5
20C
  8
ﾚｲﾔ_10
  6
STITCH
 10
-167.46308593750001
 20
125.383984375
 30
0.0
 11
-167.46308593750001
 21
129.583984375
 31
0.0
  0
LINE
  5
20D
  8
ﾚｲﾔ_10
  6
STITCH
 10
-167.46308593750001
 20
129.583984375
 30
0.0
 11
-168.81308593750001
 21
129.583984375
 31
0.0
  0
LINE
  5
20E
  8
ﾚｲﾔ_10
  6
STITCH
 10
-167.46308593750001
 20
125.383984375
 30
0.0
 11
-168.81308593750001
 21
125.383984375
 31
0.0
  0
LINE
  5
20F
  8
ﾚｲﾔ_10
  6
STITCH
 10
-167.46308593750001
 20
111.583984375
 30
0.0
 11
-168.81308593750001
 21
111.583984375
 31
0.0
  0
LINE
  5
210
  8
ﾚｲﾔ_10
  6
STITCH
 10
-165.81308593750001
 20
113.23398437500001
 30
0.0
 11
-167.46308593750001
 21
111.583984375
 31
0.0
  0
LINE
  5
211
  8
ﾚｲﾔ_10
  6
STITCH
 10
-167.46308593750001
 20
116.383984375
 30
0.0
 11
-168.81308593750001
 21
116.383984375
 31
0.0
  0
LINE
  5
212
  8
ﾚｲﾔ_10
  6
STITCH
 10
-167.46308593750001
 20
120.583984375
 30
0.0
 11
-168.81308593750001
 21
120.583984375
 31
0.0
  0
LINE
  5
213
  8
ﾚｲﾔ_10
  6
STITCH
 10
-167.46308593750001
 20
116.383984375
 30
0.0
 11
-167.46308593750001
 21
120.583984375
 31
0.0
  0
LINE
  5
214
  8
ﾚｲﾔ_10
  6
STITCH
 10
-165.81308593750001
 20
114.73398437500001
 30
0.0
 11
-167.46308593750001
 21
116.383984375
 31
0.0
  0
LINE
  5
215
  8
ﾚｲﾔ_10
  6
STITCH
 10
-165.81308593750001
 20
122.23398437500001
 30
0.0
 11
-167.46308593750001
 21
120.583984375
 31
0.0
  0
LINE
  5
216
  8
ﾚｲﾔ_10
  6
BORDER
 62
     3
 10
-162.38205729169999
 20
118.48398437500001
 30
0.0
 11
-172.6025334821
 21
118.48398437500001
 31
0.0
  0
LINE
  5
217
  8
ﾚｲﾔ_10
  6
BORDER
 62
     3
 10
-137.81308593750001
 20
-61.634205729199991
 30
0.0
 11
-137.81308593750001
 21
-71.854681919599997
 31
0.0
  0
LINE
  5
218
  8
ﾚｲﾔ_10
  6
STITCH
 10
-135.71308593750001
 20
-66.715234374999994
 30
0.0
 11
-135.71308593750001
 21
-68.065234375000003
 31
0.0
  0
LINE
  5
219
  8
ﾚｲﾔ_10
  6
STITCH
 10
-139.9130859375
 20
-66.715234374999994
 30
0.0
 11
-139.9130859375
 21
-68.065234375000003
 31
0.0
  0
LINE
  5
21A
  8
ﾚｲﾔ_10
  6
STITCH
 10
-135.71308593750001
 20
-66.715234374999994
 30
0.0
 11
-139.9130859375
 21
-66.715234374999994
 31
0.0
  0
LINE
  5
21B
  8
ﾚｲﾔ_10
  6
STITCH
 10
-134.06308593750001
 20
-65.065234375000003
 30
0.0
 11
-135.71308593750001
 21
-66.715234374999994
 31
0.0
  0
LINE
  5
21C
  8
ﾚｲﾔ_10
  6
STITCH
 10
-141.56308593750001
 20
-65.065234375000003
 30
0.0
 11
-139.9130859375
 21
-66.715234374999994
 31
0.0
  0
ARC
  5
21D
  8
ﾚｲﾔ_10
 62
     5
 10
-163.81308593750001
 20
-63.065234375000003
 30
0.0
 40
2.0
 50
180.0
 51
270.0
  0
ARC
  5
21E
  8
ﾚｲﾔ_10
 62
     5
 10
-163.81308593750001
 20
-63.065234375000003
 30
0.0
 40
5.0
 50
180.0
 51
270.0
  0
LINE
  5
21F
  8
ﾚｲﾔ_10
  6
STITCH
 10
-165.81308593750001
 20
-51.815234375000003
 30
0.0
 11
-167.46308593750001
 21
-50.165234374999997
 31
0.0
  0
LINE
  5
220
  8
ﾚｲﾔ_10
  6
STITCH
 10
-165.81308593750001
 20
-44.315234375000003
 30
0.0
 11
-167.46308593750001
 21
-45.965234375000001
 31
0.0
  0
LINE
  5
221
  8
ﾚｲﾔ_10
  6
STITCH
 10
-167.46308593750001
 20
-45.965234375000001
 30
0.0
 11
-168.81308593750001
 21
-45.965234375000001
 31
0.0
  0
LINE
  5
222
  8
ﾚｲﾔ_10
  6
BORDER
 62
     3
 10
-162.38205729169999
 20
-48.065234375000003
 30
0.0
 11
-172.6025334821
 21
-48.065234375000003
 31
0.0
  0
LINE
  5
223
  8
ﾚｲﾔ_10
  6
STITCH
 10
-92.563085937500006
 20
-65.065234375000003
 30
0.0
 11
-90.9130859375
 21
-66.715234374999994
 31
0.0
  0
LINE
  5
224
  8
ﾚｲﾔ_10
 62
     5
 10
-82.423085937500005
 20
-68.065234375000003
 30
0.0
 11
-82.423085937500005
 21
-65.065234375000003
 31
0.0
  0
LINE
  5
225
  8
ﾚｲﾔ_10
  6
STITCH
 10
-167.46308593750001
 20
-45.965234375000001
 30
0.0
 11
-167.46308593750001
 21
-50.165234374999997
 31
0.0
  0
LINE
  5
226
  8
ﾚｲﾔ_10
  6
STITCH
 10
-167.46308593750001
 20
-50.165234374999997
 30
0.0
 11
-168.81308593750001
 21
-50.165234374999997
 31
0.0
  0
LINE
  5
227
  8
ﾚｲﾔ_10
  6
BORDER
 62
     3
 10
-113.31308593750001
 20
-61.634205729199991
 30
0.0
 11
-113.31308593750001
 21
-71.854681919599997
 31
0.0
  0
LINE
  5
228
  8
ﾚｲﾔ_10
  6
STITCH
 10
-111.2130859375
 20
-66.715234374999994
 30
0.0
 11
-111.2130859375
 21
-68.065234375000003
 31
0.0
  0
LINE
  5
229
  8
ﾚｲﾔ_10
  6
STITCH
 10
-117.06308593750001
 20
-65.065234375000003
 30
0.0
 11
-115.4130859375
 21
-66.715234374999994
 31
0.0
  0
LINE
  5
22A
  8
ﾚｲﾔ_10
  6
STITCH
 10
-109.56308593750001
 20
-65.065234375000003
 30
0.0
 11
-111.2130859375
 21
-66.715234374999994
 31
0.0
  0
LINE
  5
22B
  8
ﾚｲﾔ_10
  6
STITCH
 10
-111.2130859375
 20
-66.715234374999994
 30
0.0
 11
-115.4130859375
 21
-66.715234374999994
 31
0.0
  0
LINE
  5
22C
  8
ﾚｲﾔ_10
  6
STITCH
 10
-115.4130859375
 20
-66.715234374999994
 30
0.0
 11
-115.4130859375
 21
-68.065234375000003
 31
0.0
  0
DIMENSION
  5
23B
  8
寸法線
  2
*D16
 10
-188.81308593750001
 20
-23.065234374999999
 30
0.0
 11
-188.81308593750001
 21
-45.565234375000003
 31
0.0
 70
   128
  1
<>
 13
-168.81308593750001
 23
-23.065234374999999
 33
0.0
 14
-163.81308593750001
 24
-68.065234375000003
 34
0.0
 50
90.0
  0
LINE
  5
23C
  8
ﾚｲﾔ_10
 62
     5
 10
-165.81308593750001
 20
-23.065234374999999
 30
0.0
 11
-165.81308593750001
 21
-63.065234375000003
 31
0.0
  0
LINE
  5
23D
  8
ﾚｲﾔ_10
 62
     5
 10
-168.81308593750001
 20
-23.065234374999999
 30
0.0
 11
-168.81308593750001
 21
-63.065234375000003
 31
0.0
  0
DIMENSION
  5
244
  8
寸法線
  2
*D17
 10
80.751855468800002
 20
118.48398437500001
 30
0.0
 11
-6.9754691071000003
 21
136.88601864649999
 31
0.0
 70
   132
  1
<>
 15
48.876303201199988
 25
127.02501286339999
 35
0.0
 40
0.0
  0
LINE
  5
245
  8
図枠
  6
DOT
 10
-284.44126356459998
 20
226.7566584313
 30
0.0
 11
289.55873643540002
 21
226.7566584313
 31
0.0
  0
LINE
  5
246
  8
図枠
 62
     5
 10
-272.44126356459998
 20
215.2566584313
 30
0.0
 11
277.55873643540002
 21
215.2566584313
 31
0.0
  0
LINE
  5
247
  8
図枠
  6
DOT
 10
-284.44126356459998
 20
-176.2433415687
 30
0.0
 11
289.55873643540002
 21
-176.2433415687
 31
0.0
  0
LINE
  5
248
  8
図枠
 62
     5
 10
-272.44126356459998
 20
-164.7433415687
 30
0.0
 11
277.55873643540002
 21
-164.7433415687
 31
0.0
  0
DIMENSION
  5
257
  8
寸法線
  2
*D18
 10
-165.81308593750001
 20
-3.0652343750000002
 30
0.0
 11
-157.02974691279999
 21
-3.0652343750000002
 31
0.0
 70
   128
  1
<>t
 13
-165.81308593750001
 23
-23.065234374999999
 33
0.0
 14
-168.81308593750001
 24
-23.065234374999999
 34
0.0
  0
LINE
  5
258
  8
図枠
 62
     5
 10
-272.44126356459998
 20
-164.7433415687
 30
0.0
 11
-272.44126356459998
 21
215.2566584313
 31
0.0
  0
LINE
  5
259
  8
図枠
  6
DOT
 10
-284.43526356460001
 20
-176.2433415687
 30
0.0
 11
-284.43526356460001
 21
226.7566584313
 31
0.0
  0
LINE
  5
25A
  8
図枠
 62
     5
 10
277.55873643540002
 20
-164.7433415687
 30
0.0
 11
277.55873643540002
 21
215.2566584313
 31
0.0
  0
LINE
  5
25B
  8
図枠
  6
DOT
 10
289.55873643540002
 20
-176.2433415687
 30
0.0
 11
289.55873643540002
 21
226.7566584313
 31
0.0
  0
LINE
  5
25C
  8
ﾚｲﾔ_10
  6
STITCH
 10
-167.46308593750001
 20
-30.965234375000001
 30
0.0
 11
-167.46308593750001
 21
-35.165234374999997
 31
0.0
  0
LINE
  5
25D
  8
ﾚｲﾔ_10
  6
STITCH
 10
-165.81308593750001
 20
-29.315234374999999
 30
0.0
 11
-167.46308593750001
 21
-30.965234375000001
 31
0.0
  0
LINE
  5
25E
  8
ﾚｲﾔ_10
  6
BORDER
 62
     3
 10
-162.38205729169999
 20
-33.065234375000003
 30
0.0
 11
-172.6025334821
 21
-33.065234375000003
 31
0.0
  0
LINE
  5
25F
  8
ﾚｲﾔ_10
  6
STITCH
 10
-167.46308593750001
 20
-35.165234374999997
 30
0.0
 11
-168.81308593750001
 21
-35.165234374999997
 31
0.0
  0
LINE
  5
260
  8
ﾚｲﾔ_10
 62
     5
 10
-165.81308593750001
 20
-26.675234374999999
 30
0.0
 11
-168.81308593750001
 21
-26.675234374999999
 31
0.0
  0
LINE
  5
261
  8
ﾚｲﾔ_10
 62
     5
 10
-165.81308593750001
 20
-23.065234374999999
 30
0.0
 11
-168.81308593750001
 21
-23.065234374999999
 31
0.0
  0
LINE
  5
262
  8
ﾚｲﾔ_10
  6
STITCH
 10
-167.46308593750001
 20
-30.965234375000001
 30
0.0
 11
-168.81308593750001
 21
-30.965234375000001
 31
0.0
  0
DIMENSION
  5
272
  8
寸法線
  2
*D19
 10
-134.06308593750001
 20
-61.065234375000003
 30
0.0
 11
-137.81308593750001
 21
-61.065234375000003
 31
0.0
 70
   128
  1
%%c<>
 13
-134.06308593750001
 23
-65.065234375000003
 33
0.0
 14
-141.56308593750001
 24
-65.065234375000003
 34
0.0
  0
DIMENSION
  5
281
  8
寸法線
  2
*D20
 10
-139.9130859375
 20
-74.171677289100003
 30
0.0
 11
-137.81308593750001
 21
-74.171677289100003
 31
0.0
 70
   128
  1
%%c<>
 13
-139.9130859375
 23
-68.065234375000003
 33
0.0
 14
-135.71308593750001
 24
-68.065234375000003
 34
0.0
 50
180.0
  0
DIMENSION
  5
28F
  8
寸法線
  2
*D63
 10
-135.08941368860971
 20
-58.650351158975887
 30
0.0
 11
-137.81308593750001
 21
-58.291772904799998
 31
0.0
 70
   133
  1
<>
 13
-142.09341602340001
 23
-64.534904289099998
 33
0.0
 14
-133.5327558516
 24
-64.534904289099998
 34
0.0
 15
-137.81308593750001
 25
-68.815234375000003
 35
0.0
1001
ACAD
1000
DSTYLE
1002
{
1070
   271
1070
     0
1002
}
  0
LINE
  5
290
  8
ﾚｲﾔ_10
  6
BORDER
 62
     3
 10
-88.813085937500006
 20
-61.634205729199991
 30
0.0
 11
-88.813085937500006
 21
-71.854681919599997
 31
0.0
  0
LINE
  5
291
  8
ﾚｲﾔ_10
  6
STITCH
 10
-86.713085937499997
 20
-66.715234374999994
 30
0.0
 11
-86.713085937499997
 21
-68.065234375000003
 31
0.0
  0
LINE
  5
292
  8
ﾚｲﾔ_10
  6
STITCH
 10
-90.9130859375
 20
-66.715234374999994
 30
0.0
 11
-90.9130859375
 21
-68.065234375000003
 31
0.0
  0
LINE
  5
293
  8
ﾚｲﾔ_10
  6
STITCH
 10
-86.713085937499997
 20
-66.715234374999994
 30
0.0
 11
-90.9130859375
 21
-66.715234374999994
 31
0.0
  0
LINE
  5
294
  8
ﾚｲﾔ_10
  6
STITCH
 10
-85.063085937500006
 20
-65.065234375000003
 30
0.0
 11
-86.713085937499997
 21
-66.715234374999994
 31
0.0
  0
DIMENSION
  5
2D8
  8
0
  2
*D26
 10
94.241981055036604
 20
-54.87300762617167
 30
0.0
 11
83.150921444550022
 21
-54.87300762617167
 31
0.0
 70
   128
  1
φ4.2
 13
74.241981055036717
 23
-34.721019535170598
 33
0.0
 14
94.241981055036604
 24
-34.721019535170598
 34
0.0
1001
ACAD
1000
DSTYLE
1002
{
1070
    40
1040
1.0
1002
}
  0
DIMENSION
  5
2D9
  8
0
  2
*D27
 10
104.2419810550366
 20
-0.6866617990805253
 30
0.0
 11
83.991352700530555
 21
-0.6866617990805253
 31
0.0
 70
   128
  1
φ7.5
 13
64.241981055036604
 23
-19.596019535170601
 33
0.0
 14
104.2419810550366
 24
-19.596019535170601
 34
0.0
1001
ACAD
1000
DSTYLE
1002
{
1070
    40
1040
1.0
1002
}
  0
LINE
  5
2DA
  8
ﾚｲﾔ_1
  6
BORDER
 62
     3
 10
84.241981055036604
 20
-15.408519535170599
 30
0.0
 11
84.241981055036604
 21
-39.158519535170598
 31
0.0
  0
LINE
  5
2DB
  8
ﾚｲﾔ_1
 62
     5
 10
104.2419810550366
 20
-19.658519535170591
 30
0.0
 11
94.241981055036604
 21
-29.658519535170601
 31
0.0
  0
LINE
  5
2DC
  8
ﾚｲﾔ_1
 62
     5
 10
94.241981055036604
 20
-29.658519535170601
 30
0.0
 11
74.241981055036717
 21
-29.658519535170601
 31
0.0
  0
LINE
  5
2DD
  8
ﾚｲﾔ_1
 62
     5
 10
74.241981055036717
 20
-29.658519535170601
 30
0.0
 11
74.241981055036717
 21
-34.658519535170598
 31
0.0
  0
LINE
  5
2DE
  8
ﾚｲﾔ_1
 62
     5
 10
94.241981055036604
 20
-29.658519535170601
 30
0.0
 11
94.241981055036604
 21
-34.658519535170598
 31
0.0
  0
LINE
  5
2DF
  8
ﾚｲﾔ_1
 62
     5
 10
64.241981055036604
 20
-19.658519535170591
 30
0.0
 11
74.241981055036717
 21
-29.658519535170601
 31
0.0
  0
LINE
  5
2E0
  8
ﾚｲﾔ_1
 62
     5
 10
53.756795869836651
 20
-19.658519535170591
 30
0.0
 11
114.7271662402367
 21
-19.658519535170591
 31
0.0
  0
LINE
  5
2E1
  8
ﾚｲﾔ_1
 62
     5
 10
53.756795869836651
 20
-34.658519535170598
 30
0.0
 11
114.7271662402367
 21
-34.658519535170598
 31
0.0
  0
DIMENSION
  5
2E2
  8
0
  2
*D28
 10
69.146752835849995
 20
16.67763913068196
 30
0.0
 11
86.092432353150116
 21
18.635601250777881
 31
0.0
 70
   133
 13
60.957388816336781
 23
-16.373927296470612
 33
0.0
 14
107.5265732937366
 24
-16.373927296470612
 34
0.0
 15
84.241981055036604
 25
-39.658519535170598
 35
0.0
1001
ACAD
1000
DSTYLE
1002
{
1070
   271
1070
     0
1070
    40
1040
1.0
1002
}
  0
ENDSEC
  0
EOF
