  0
SECTION
  2
HEADER
  9
$ACADVER
  1
AC1009
  9
$INSBASE
 10
0.0
 20
0.0
 30
0.0
  9
$EXTMIN
 10
-212.74594567231449
 20
-125.9136389668256
 30
-0.0015258207003583
  9
$EXTMAX
 10
217.80220456025069
 20
176.52918157919521
 30
0.0000000349246037
  9
$LIMMIN
 10
0.0
 20
0.0
  9
$LIMMAX
 10
0.0
 20
0.0
  9
$ORTHOMODE
 70
     0
  9
$REGENMODE
 70
     1
  9
$FILLMODE
 70
     1
  9
$QTEXTMODE
 70
     0
  9
$MIRRTEXT
 70
     1
  9
$DRAGMODE
 70
     2
  9
$LTSCALE
 40
1.0
  9
$OSMODE
 70
    31
  9
$ATTMODE
 70
     1
  9
$TEXTSIZE
 40
0.0
  9
$TRACEWID
 40
0.05
  9
$TEXTSTYLE
  7
STANDARD
  9
$CLAYER
  8
0
  9
$CELTYPE
  6
CONTINUOUS
  9
$CECOLOR
 62
   256
  9
$DIMSCALE
 40
1.0
  9
$DIMASZ
 40
0.18
  9
$DIMEXO
 40
0.0625
  9
$DIMDLI
 40
0.38
  9
$DIMRND
 40
0.0
  9
$DIMDLE
 40
0.0
  9
$DIMEXE
 40
0.18
  9
$DIMTP
 40
0.0
  9
$DIMTM
 40
0.0
  9
$DIMTXT
 40
0.18
  9
$DIMCEN
 40
0.09
  9
$DIMTSZ
 40
0.0
  9
$DIMTOL
 70
     0
  9
$DIMLIM
 70
     0
  9
$DIMTIH
 70
     1
  9
$DIMTOH
 70
     1
  9
$DIMSE1
 70
     0
  9
$DIMSE2
 70
     0
  9
$DIMTAD
 70
     0
  9
$DIMZIN
 70
     0
  9
$DIMBLK
  1

  9
$DIMASO
 70
     1
  9
$DIMSHO
 70
     1
  9
$DIMPOST
  1

  9
$DIMAPOST
  1

  9
$DIMALT
 70
     0
  9
$DIMALTD
 70
     2
  9
$DIMALTF
 40
25.399999999999999
  9
$DIMLFAC
 40
1.0
  9
$DIMTOFL
 70
     0
  9
$DIMTVP
 40
0.0
  9
$DIMTIX
 70
     0
  9
$DIMSOXD
 70
     0
  9
$DIMSAH
 70
     0
  9
$DIMBLK1
  1

  9
$DIMBLK2
  1

  9
$DIMSTYLE
  2
STANDARD
  9
$DIMCLRD
 70
     0
  9
$DIMCLRE
 70
     0
  9
$DIMCLRT
 70
     0
  9
$DIMTFAC
 40
1.0
  9
$DIMGAP
 40
0.09
  9
$LUNITS
 70
     2
  9
$LUPREC
 70
     4
  9
$SKETCHINC
 40
0.1
  9
$FILLETRAD
 40
0.0
  9
$AUNITS
 70
     0
  9
$AUPREC
 70
     0
  9
$MENU
  1
acad
  9
$ELEVATION
 40
0.0
  9
$PELEVATION
 40
0.0
  9
$THICKNESS
 40
0.0
  9
$LIMCHECK
 70
     0
  9
$BLIPMODE
 70
     0
  9
$CHAMFERA
 40
0.0
  9
$CHAMFERB
 40
0.0
  9
$SKPOLY
 70
     0
  9
$TDCREATE
 40
2454863.4555774308
  9
$TDUPDATE
 40
2454863.4568238189
  9
$TDINDWG
 40
0.0012624769
  9
$TDUSRTIMER
 40
0.0012583218
  9
$USRTIMER
 70
     1
  9
$ANGBASE
 50
0.0
  9
$ANGDIR
 70
     0
  9
$PDMODE
 70
     3
  9
$PDSIZE
 40
-1.0
  9
$PLINEWID
 40
0.0
  9
$COORDS
 70
     2
  9
$SPLFRAME
 70
     0
  9
$SPLINETYPE
 70
     6
  9
$SPLINESEGS
 70
     8
  9
$ATTDIA
 70
     0
  9
$ATTREQ
 70
     1
  9
$HANDLING
 70
     1
  9
$HANDSEED
  5
68C
  9
$SURFTAB1
 70
     6
  9
$SURFTAB2
 70
     6
  9
$SURFTYPE
 70
     6
  9
$SURFU
 70
     6
  9
$SURFV
 70
     6
  9
$UCSNAME
  2

  9
$UCSORG
 10
0.0
 20
0.0
 30
0.0
  9
$UCSXDIR
 10
1.0
 20
0.0
 30
0.0
  9
$UCSYDIR
 10
0.0
 20
1.0
 30
0.0
  9
$PUCSNAME
  2

  9
$PUCSORG
 10
0.0
 20
0.0
 30
0.0
  9
$PUCSXDIR
 10
1.0
 20
0.0
 30
0.0
  9
$PUCSYDIR
 10
0.0
 20
1.0
 30
0.0
  9
$USERI1
 70
     0
  9
$USERI2
 70
     0
  9
$USERI3
 70
     0
  9
$USERI4
 70
     0
  9
$USERI5
 70
     0
  9
$USERR1
 40
0.0
  9
$USERR2
 40
0.0
  9
$USERR3
 40
0.0
  9
$USERR4
 40
0.0
  9
$USERR5
 40
0.0
  9
$WORLDVIEW
 70
     1
  9
$SHADEDGE
 70
     3
  9
$SHADEDIF
 70
    70
  9
$TILEMODE
 70
     1
  9
$MAXACTVP
 70
    16
  9
$PLIMCHECK
 70
     0
  9
$PEXTMIN
 10
1.0000000000000000E+020
 20
1.0000000000000000E+020
 30
1.0000000000000000E+020
  9
$PEXTMAX
 10
-1.0000000000000000E+020
 20
-1.0000000000000000E+020
 30
-1.0000000000000000E+020
  9
$PLIMMIN
 10
0.0
 20
0.0
  9
$PLIMMAX
 10
12.0
 20
9.0
  9
$UNITMODE
 70
     0
  9
$VISRETAIN
 70
     0
  9
$PLINEGEN
 70
     1
  9
$PSLTSCALE
 70
     0
  0
ENDSEC
  0
SECTION
  2
TABLES
  0
TABLE
  2
VPORT
 70
     3
  0
VPORT
  2
*ACTIVE
 70
     0
 10
0.0
 20
0.0
 11
1.0
 21
1.0
 12
2.5281294439680262
 22
25.307771306184819
 13
0.0
 23
0.0
 14
1.0
 24
1.0
 15
0.0
 25
0.0
 16
0.0
 26
0.0
 36
1.0
 17
0.0
 27
0.0
 37
0.0
 40
311.54922555247617
 41
1.3903818953323901
 42
50.0
 43
0.0
 44
0.0
 50
0.0
 51
0.0
 71
     0
 72
   100
 73
     1
 74
     1
 75
     0
 76
     0
 77
     0
 78
     0
  0
ENDTAB
  0
TABLE
  2
LTYPE
 70
    11
  0
LTYPE
  2
CONTINUOUS
 70
     0
  3
Solid line
 72
    65
 73
     0
 40
0.0
  0
LTYPE
  2
DOT
 70
     0
  3
. . . . . . . . 
 72
    65
 73
     2
 40
1.0
 49
0.0
 49
-1.0
  0
LTYPE
  2
DASHED
 70
     0
  3
___  ___  ___  ___  
 72
    65
 73
     2
 40
4.0
 49
3.0
 49
-1.0
  0
LTYPE
  2
HIDDEN
 70
     0
  3
__ __ __ __ 
 72
    65
 73
     2
 40
3.0
 49
2.0
 49
-1.0
  0
LTYPE
  2
STITCH
 70
     0
  3
_ _ _ _ 
 72
    65
 73
     2
 40
2.0
 49
1.0
 49
-1.0
  0
LTYPE
  2
CENTER
 70
     0
  3
______  __  ______  __  
 72
    65
 73
     4
 40
43.0
 49
40.0
 49
-1.0
 49
1.0
 49
-1.0
  0
LTYPE
  2
DASHDOT
 70
     0
  3
____ . ____ . 
 72
    65
 73
     4
 40
32.0
 49
30.0
 49
-1.0
 49
0.0
 49
-1.0
  0
LTYPE
  2
BORDER
 70
     0
  3
__ . __ . 
 72
    65
 73
     4
 40
22.0
 49
20.0
 49
-1.0
 49
0.0
 49
-1.0
  0
LTYPE
  2
CUTTING
 70
     0
  3
________   ___   ___   
 72
    65
 73
     6
 40
45.0
 49
40.0
 49
-1.0
 49
1.0
 49
-1.0
 49
1.0
 49
-1.0
  0
LTYPE
  2
PHANTOM
 70
     0
  3
______  __  __  
 72
    65
 73
     6
 40
35.0
 49
30.0
 49
-1.0
 49
1.0
 49
-1.0
 49
1.0
 49
-1.0
  0
LTYPE
  2
DIVIDE
 70
     0
  3
____ . . ____ . . 
 72
    65
 73
     6
 40
23.0
 49
20.0
 49
-1.0
 49
0.0
 49
-1.0
 49
0.0
 49
-1.0
  0
ENDTAB
  0
TABLE
  2
LAYER
 70
     7
  0
LAYER
  2
0
 70
     0
 62
     7
  6
CONTINUOUS
  0
LAYER
  2
図枠
 70
     0
 62
     7
  6
CONTINUOUS
  0
LAYER
  2
ﾚｲﾔ_10
 70
     0
 62
     7
  6
CONTINUOUS
  0
LAYER
  2
寸法線
 70
     0
 62
     7
  6
CONTINUOUS
  0
LAYER
  2
改訂
 70
     0
 62
     7
  6
CONTINUOUS
  0
LAYER
  2
ﾚｲﾔ_1
 70
     0
 62
     7
  6
CONTINUOUS
  0
LAYER
  2
DEFPOINTS
 70
     0
 62
     7
  6
CONTINUOUS
  0
ENDTAB
  0
TABLE
  2
STYLE
 70
     2
  0
STYLE
  2
STANDARD
 70
     0
 40
0.0
 41
1.0
 50
0.0
 71
     0
 42
0.0
  3
txt
  4
extfont
  0
STYLE
  2
ゴシック
 70
     0
 40
0.0
 41
1.0
 50
0.0
 71
     0
 42
1.7676767676767671
  3
txt
  4

  0
ENDTAB
  0
TABLE
  2
VIEW
 70
     0
  0
ENDTAB
  0
TABLE
  2
UCS
 70
     0
  0
ENDTAB
  0
TABLE
  2
APPID
 70
     2
  0
APPID
  2
ACAD
 70
     0
  0
APPID
  2
DCO15
 70
     0
  0
ENDTAB
  0
TABLE
  2
DIMSTYLE
 70
     4
  0
DIMSTYLE
  2
STANDARD
 70
     0
  3

  4

  5

  6

  7

 40
1.0
 41
0.18
 42
0.0625
 43
0.38
 44
0.18
 45
0.0
 46
0.0
 47
0.0
 48
0.0
140
0.18
141
0.09
142
0.0
143
25.399999999999999
144
1.0
145
0.0
146
1.0
147
0.09
 71
     0
 72
     0
 73
     1
 74
     1
 75
     0
 76
     0
 77
     0
 78
     0
170
     0
171
     2
172
     0
173
     0
174
     0
175
     0
176
     0
177
     0
178
     0
  0
DIMSTYLE
  2
VELDIM0
 70
     0
  3

  4

  5

  6

  7

 40
1.0
 41
4.5
 42
0.0625
 43
0.38
 44
1.0
 45
0.0
 46
5.0
 47
0.0
 48
0.0
140
4.4979165315999996
141
0.09
142
0.0
143
25.399999999999999
144
1.0
145
0.0
146
1.0
147
0.09
 71
     0
 72
     0
 73
     0
 74
     0
 75
     0
 76
     0
 77
     0
 78
     8
170
     0
171
     2
172
     0
173
     0
174
     0
175
     0
176
     0
177
     0
178
     0
  0
DIMSTYLE
  2
VELDIM1
 70
     0
  3

  4

  5

  6

  7

 40
1.0
 41
4.5
 42
0.0625
 43
0.38
 44
1.25
 45
0.0
 46
5.0
 47
0.0
 48
0.0
140
4.4979165315999996
141
0.09
142
0.0
143
25.399999999999999
144
1.0
145
0.0
146
1.0
147
0.09
 71
     0
 72
     0
 73
     0
 74
     0
 75
     0
 76
     0
 77
     0
 78
     8
170
     0
171
     2
172
     0
173
     0
174
     0
175
     0
176
     0
177
     0
178
     0
  0
DIMSTYLE
  2
基本_１_２_
 70
     0
  3

  4

  5

  6

  7

 40
0.0
 41
2.5
 42
2.5
 43
14.0
 44
2.0
 45
0.0
 46
0.0
 47
0.0
 48
0.0
140
5.0
141
2.0
142
0.0
143
0.0394
144
1.0
145
0.0
146
1.0
147
1.0
 71
     0
 72
     0
 73
     0
 74
     0
 75
     0
 76
     0
 77
     1
 78
     8
170
     0
171
     4
172
     1
173
     0
174
     0
175
     0
176
     4
177
     4
178
     4
  0
ENDTAB
  0
ENDSEC
  0
SECTION
  2
BLOCKS
  0
BLOCK
  8
0
  2
$MODEL_SPACE
 70
     0
 10
0.0
 20
0.0
 30
0.0
  3
$MODEL_SPACE
  1

  0
ENDBLK
  5
E
  8
0
  0
BLOCK
 67
     1
  8
0
  2
$PAPER_SPACE
 70
     0
 10
0.0
 20
0.0
 30
0.0
  3
$PAPER_SPACE
  1

  0
ENDBLK
  5
10
 67
     1
  8
0
  0
BLOCK
  8
0
  2
*D0
 70
     1
 10
0.0
 20
0.0
 30
0.0
  3
*D0
  1

  0
TEXT
  5
46
  8
0
 62
     0
 10
65.049576902399991
 20
69.284700497000003
 30
0.0
 40
4.4979165315999996
  1
20
  0
LINE
  5
47
  8
0
 62
     0
 10
57.695410156299999
 20
90.490950520799998
 30
0.0
 11
57.695410156299999
 21
66.490950520799984
 31
0.0
  0
LINE
  5
48
  8
0
 62
     0
 10
77.695410156299999
 20
80.490950520799998
 30
0.0
 11
77.695410156299999
 21
66.490950520799984
 31
0.0
  0
LINE
  5
49
  8
0
 62
     0
 10
57.695410156299999
 20
67.490950520799998
 30
0.0
 11
72.987076664
 21
67.490950520799998
 31
0.0
  0
LINE
  5
4A
  8
0
 62
     0
 10
57.695410156299999
 20
67.490950520799998
 30
0.0
 11
62.403743648499997
 21
67.490950520799998
 31
0.0
  0
LINE
  5
4B
  8
0
 62
     0
 10
77.695410156299999
 20
67.490950520799998
 30
0.0
 11
72.987076664
 21
67.490950520799998
 31
0.0
  0
LINE
  5
4C
  8
0
 62
     0
 10
77.695410156299999
 20
67.490950520799998
 30
0.0
 11
62.403743648499997
 21
67.490950520799998
 31
0.0
  0
LINE
  5
4D
  8
0
 62
     0
 10
77.695410156299999
 20
67.490950520799998
 30
0.0
 11
72.695410156299999
 21
67.490950520799998
 31
0.0
  0
SOLID
  5
4E
  8
0
 62
     0
 10
77.695410156299999
 20
67.490950520799998
 30
0.0
 11
73.195410156299999
 21
66.365950520799998
 31
0.0
 12
73.195410156299999
 22
68.615950520799998
 32
0.0
 13
74.320410156299999
 23
67.490950520799998
 33
0.0
  0
LINE
  5
4F
  8
0
 62
     0
 10
57.695410156299999
 20
67.490950520799998
 30
0.0
 11
62.695410156299999
 21
67.490950520799998
 31
0.0
  0
SOLID
  5
50
  8
0
 62
     0
 10
57.695410156299999
 20
67.490950520799998
 30
0.0
 11
62.195410156299992
 21
68.615950520799998
 31
0.0
 12
62.195410156299992
 22
66.365950520799998
 32
0.0
 13
61.070410156299999
 23
67.490950520799998
 33
0.0
  0
ENDBLK
  5
51
  8
0
  0
BLOCK
  8
0
  2
*D1
 70
     1
 10
0.0
 20
0.0
 30
0.0
  3
*D1
  1

  0
TEXT
  5
79
  8
0
 62
     0
 10
35.049576902399998
 20
69.284700497000003
 30
0.0
 40
4.4979165315999996
  1
10
  0
LINE
  5
7A
  8
0
 62
     0
 10
32.695410156299999
 20
95.490950520799998
 30
0.0
 11
32.695410156299999
 21
66.490950520799984
 31
0.0
  0
LINE
  5
7B
  8
0
 62
     0
 10
42.695410156299992
 20
80.490950520799998
 30
0.0
 11
42.695410156299992
 21
66.490950520799984
 31
0.0
  0
LINE
  5
7C
  8
0
 62
     0
 10
32.695410156299999
 20
67.490950520799998
 30
0.0
 11
32.695410156299999
 21
67.490950520799998
 31
0.0
  0
LINE
  5
7D
  8
0
 62
     0
 10
32.695410156299999
 20
67.490950520799998
 30
0.0
 11
42.695410156299992
 21
67.490950520799998
 31
0.0
  0
LINE
  5
7E
  8
0
 62
     0
 10
42.695410156299992
 20
67.490950520799998
 30
0.0
 11
32.695410156299999
 21
67.490950520799998
 31
0.0
  0
LINE
  5
7F
  8
0
 62
     0
 10
42.695410156299992
 20
67.490950520799998
 30
0.0
 11
42.695410156299992
 21
67.490950520799998
 31
0.0
  0
LINE
  5
80
  8
0
 62
     0
 10
42.695410156299992
 20
67.490950520799998
 30
0.0
 11
37.695410156299999
 21
67.490950520799998
 31
0.0
  0
SOLID
  5
81
  8
0
 62
     0
 10
42.695410156299992
 20
67.490950520799998
 30
0.0
 11
38.195410156299999
 21
66.365950520799998
 31
0.0
 12
38.195410156299999
 22
68.615950520799998
 32
0.0
 13
39.320410156299999
 23
67.490950520799998
 33
0.0
  0
LINE
  5
82
  8
0
 62
     0
 10
32.695410156299999
 20
67.490950520799998
 30
0.0
 11
37.695410156299999
 21
67.490950520799998
 31
0.0
  0
SOLID
  5
83
  8
0
 62
     0
 10
32.695410156299999
 20
67.490950520799998
 30
0.0
 11
37.195410156299999
 21
68.615950520799998
 31
0.0
 12
37.195410156299999
 22
66.365950520799998
 32
0.0
 13
36.070410156299999
 23
67.490950520799998
 33
0.0
  0
ENDBLK
  5
84
  8
0
  0
BLOCK
  8
0
  2
*D2
 70
     1
 10
0.0
 20
0.0
 30
0.0
  3
*D2
  1

  0
TEXT
  5
88
  8
0
 62
     0
 10
47.549576902399998
 20
69.284700497000003
 30
0.0
 40
4.4979165315999996
  1
15
  0
LINE
  5
89
  8
0
 62
     0
 10
42.695410156299992
 20
80.490950520799998
 30
0.0
 11
42.695410156299992
 21
66.490950520799984
 31
0.0
  0
LINE
  5
8A
  8
0
 62
     0
 10
57.695410156299999
 20
90.490950520799998
 30
0.0
 11
57.695410156299999
 21
66.490950520799984
 31
0.0
  0
LINE
  5
8B
  8
0
 62
     0
 10
42.695410156299992
 20
67.490950520799998
 30
0.0
 11
55.487076663999993
 21
67.490950520799998
 31
0.0
  0
LINE
  5
8C
  8
0
 62
     0
 10
42.695410156299992
 20
67.490950520799998
 30
0.0
 11
44.903743648499997
 21
67.490950520799998
 31
0.0
  0
LINE
  5
8D
  8
0
 62
     0
 10
57.695410156299999
 20
67.490950520799998
 30
0.0
 11
55.487076663999993
 21
67.490950520799998
 31
0.0
  0
LINE
  5
8E
  8
0
 62
     0
 10
57.695410156299999
 20
67.490950520799998
 30
0.0
 11
44.903743648499997
 21
67.490950520799998
 31
0.0
  0
LINE
  5
8F
  8
0
 62
     0
 10
57.695410156299999
 20
67.490950520799998
 30
0.0
 11
62.695410156299999
 21
67.490950520799998
 31
0.0
  0
SOLID
  5
90
  8
0
 62
     0
 10
57.695410156299999
 20
67.490950520799998
 30
0.0
 11
62.195410156299992
 21
68.615950520799998
 31
0.0
 12
62.195410156299992
 22
66.365950520799998
 32
0.0
 13
61.070410156299999
 23
67.490950520799998
 33
0.0
  0
LINE
  5
91
  8
0
 62
     0
 10
42.695410156299992
 20
67.490950520799998
 30
0.0
 11
37.695410156299999
 21
67.490950520799998
 31
0.0
  0
SOLID
  5
92
  8
0
 62
     0
 10
42.695410156299992
 20
67.490950520799998
 30
0.0
 11
38.195410156299999
 21
66.365950520799998
 31
0.0
 12
38.195410156299999
 22
68.615950520799998
 32
0.0
 13
39.320410156299999
 23
67.490950520799998
 33
0.0
  0
ENDBLK
  5
93
  8
0
  0
BLOCK
  8
0
  2
*D3
 70
     1
 10
0.0
 20
0.0
 30
0.0
  3
*D3
  1

  0
TEXT
  5
116
  8
0
 62
     0
 10
-50.149224749299997
 20
116.31237579010001
 30
0.0
 40
4.4979165315999996
  1
R33
 50
15.0
  0
LINE
  5
117
  8
0
 62
     0
 10
-81.360287576199994
 20
106.0319790092
 30
0.0
 11
-39.4471556361
 21
117.2625688648
 31
0.0
  0
SOLID
  5
118
  8
0
 62
     0
 10
-81.360287576199994
 20
106.0319790092
 30
0.0
 11
-77.304792783699995
 21
108.2833312668
 31
0.0
 12
-76.722449932200007
 22
106.1099981576
 32
0.0
 13
-78.100287912499994
 23
106.9054932864
 33
0.0
  0
ENDBLK
  5
119
  8
0
  0
BLOCK
  8
0
  2
*D4
 70
     1
 10
0.0
 20
0.0
 30
0.0
  3
*D4
  1

  0
TEXT
  5
11D
  8
0
 62
     0
 10
-100.3816730976
 20
70.284700497000003
 30
0.0
 40
4.4979165315999996
  1
15
  0
LINE
  5
11E
  8
0
 62
     0
 10
-105.23583984379999
 20
90.490950520799998
 30
0.0
 11
-105.23583984379999
 21
67.490950520799998
 31
0.0
  0
LINE
  5
11F
  8
0
 62
     0
 10
-90.235839843799994
 20
81.490950520799984
 30
0.0
 11
-90.235839843799994
 21
67.490950520799998
 31
0.0
  0
LINE
  5
120
  8
0
 62
     0
 10
-105.23583984379999
 20
68.490950520799998
 30
0.0
 11
-92.444173336000006
 21
68.490950520799998
 31
0.0
  0
LINE
  5
121
  8
0
 62
     0
 10
-105.23583984379999
 20
68.490950520799998
 30
0.0
 11
-103.02750635149999
 21
68.490950520799998
 31
0.0
  0
LINE
  5
122
  8
0
 62
     0
 10
-90.235839843799994
 20
68.490950520799998
 30
0.0
 11
-92.444173336000006
 21
68.490950520799998
 31
0.0
  0
LINE
  5
123
  8
0
 62
     0
 10
-90.235839843799994
 20
68.490950520799998
 30
0.0
 11
-103.02750635149999
 21
68.490950520799998
 31
0.0
  0
LINE
  5
124
  8
0
 62
     0
 10
-90.235839843799994
 20
68.490950520799998
 30
0.0
 11
-85.235839843800008
 21
68.490950520799998
 31
0.0
  0
SOLID
  5
125
  8
0
 62
     0
 10
-90.235839843799994
 20
68.490950520799998
 30
0.0
 11
-85.735839843799994
 21
69.615950520799984
 31
0.0
 12
-85.735839843799994
 22
67.365950520799998
 32
0.0
 13
-86.860839843799994
 23
68.490950520799998
 33
0.0
  0
LINE
  5
126
  8
0
 62
     0
 10
-105.23583984379999
 20
68.490950520799998
 30
0.0
 11
-110.23583984379999
 21
68.490950520799998
 31
0.0
  0
SOLID
  5
127
  8
0
 62
     0
 10
-105.23583984379999
 20
68.490950520799998
 30
0.0
 11
-109.73583984379999
 21
67.365950520799998
 31
0.0
 12
-109.73583984379999
 22
69.615950520799984
 32
0.0
 13
-108.61083984379999
 23
68.490950520799998
 33
0.0
  0
ENDBLK
  5
128
  8
0
  0
BLOCK
  8
0
  2
*D5
 70
     1
 10
0.0
 20
0.0
 30
0.0
  3
*D5
  1

  0
TEXT
  5
14F
  8
0
 62
     0
 10
-159.26383668220001
 20
94.845117267000006
 30
0.0
 40
4.4979165315999996
  1
30
 50
90.0
  0
LINE
  5
150
  8
0
 62
     0
 10
-127.23583984379999
 20
112.4909505208
 30
0.0
 11
-158.47008670599999
 21
112.4909505208
 31
0.0
  0
LINE
  5
151
  8
0
 62
     0
 10
-127.23583984379999
 20
82.490950520799984
 30
0.0
 11
-158.47008670599999
 21
82.490950520799984
 31
0.0
  0
LINE
  5
152
  8
0
 62
     0
 10
-157.47008670599999
 20
112.4909505208
 30
0.0
 11
-157.47008670599999
 21
102.7826170286
 31
0.0
  0
LINE
  5
153
  8
0
 62
     0
 10
-157.47008670599999
 20
112.4909505208
 30
0.0
 11
-157.47008670599999
 21
92.199284013099984
 31
0.0
  0
LINE
  5
154
  8
0
 62
     0
 10
-157.47008670599999
 20
82.490950520799984
 30
0.0
 11
-157.47008670599999
 21
102.7826170286
 31
0.0
  0
LINE
  5
155
  8
0
 62
     0
 10
-157.47008670599999
 20
82.490950520799984
 30
0.0
 11
-157.47008670599999
 21
92.199284013099984
 31
0.0
  0
LINE
  5
156
  8
0
 62
     0
 10
-157.47008670599999
 20
82.490950520799984
 30
0.0
 11
-157.47008670599999
 21
87.490950520799984
 31
0.0
  0
SOLID
  5
157
  8
0
 62
     0
 10
-157.47008670599999
 20
82.490950520799984
 30
0.0
 11
-158.59508670599999
 21
86.990950520799998
 31
0.0
 12
-156.34508670599999
 22
86.990950520799998
 32
0.0
 13
-157.47008670599999
 23
85.865950520799984
 33
0.0
  0
LINE
  5
158
  8
0
 62
     0
 10
-157.47008670599999
 20
112.4909505208
 30
0.0
 11
-157.47008670599999
 21
107.4909505208
 31
0.0
  0
SOLID
  5
159
  8
0
 62
     0
 10
-157.47008670599999
 20
112.4909505208
 30
0.0
 11
-156.34508670599999
 21
107.9909505208
 31
0.0
 12
-158.59508670599999
 22
107.9909505208
 32
0.0
 13
-157.47008670599999
 23
109.1159505208
 33
0.0
  0
ENDBLK
  5
15A
  8
0
  0
BLOCK
  8
0
  2
*D6
 70
     1
 10
0.0
 20
0.0
 30
0.0
  3
*D6
  1

  0
TEXT
  5
15E
  8
0
 62
     0
 10
-116.9676431497
 20
37.468815080299997
 30
0.0
 40
4.4979165315999996
  1
3t
  0
LINE
  5
15F
  8
0
 62
     0
 10
-122.23583984379999
 20
22.675065104200002
 30
0.0
 11
-122.23583984379999
 21
36.675065104200002
 31
0.0
  0
LINE
  5
160
  8
0
 62
     0
 10
-125.23583984379999
 20
22.675065104200002
 30
0.0
 11
-125.23583984379999
 21
36.675065104200002
 31
0.0
  0
LINE
  5
161
  8
0
 62
     0
 10
-122.23583984379999
 20
35.675065104200002
 30
0.0
 11
-109.0301433881
 21
35.675065104200002
 31
0.0
  0
LINE
  5
162
  8
0
 62
     0
 10
-122.23583984379999
 20
35.675065104200002
 30
0.0
 11
-119.6134764036
 21
35.675065104200002
 31
0.0
  0
LINE
  5
163
  8
0
 62
     0
 10
-125.23583984379999
 20
35.675065104200002
 30
0.0
 11
-109.0301433881
 21
35.675065104200002
 31
0.0
  0
LINE
  5
164
  8
0
 62
     0
 10
-125.23583984379999
 20
35.675065104200002
 30
0.0
 11
-119.6134764036
 21
35.675065104200002
 31
0.0
  0
LINE
  5
165
  8
0
 62
     0
 10
-125.23583984379999
 20
35.675065104200002
 30
0.0
 11
-130.23583984379999
 21
35.675065104200002
 31
0.0
  0
SOLID
  5
166
  8
0
 62
     0
 10
-125.23583984379999
 20
35.675065104200002
 30
0.0
 11
-129.73583984379999
 21
34.550065104200002
 31
0.0
 12
-129.73583984379999
 22
36.800065104200002
 32
0.0
 13
-128.61083984379999
 23
35.675065104200002
 33
0.0
  0
LINE
  5
167
  8
0
 62
     0
 10
-122.23583984379999
 20
35.675065104200002
 30
0.0
 11
-117.23583984379999
 21
35.675065104200002
 31
0.0
  0
SOLID
  5
168
  8
0
 62
     0
 10
-122.23583984379999
 20
35.675065104200002
 30
0.0
 11
-117.73583984379999
 21
36.800065104200002
 31
0.0
 12
-117.73583984379999
 22
34.550065104200002
 32
0.0
 13
-118.86083984379999
 23
35.675065104200002
 33
0.0
  0
ENDBLK
  5
169
  8
0
  0
BLOCK
  8
0
  2
*D7
 70
     1
 10
0.0
 20
0.0
 30
0.0
  3
*D7
  1

  0
TEXT
  5
16D
  8
0
 62
     0
 10
-145.81903736460001
 20
102.34511726700001
 30
0.0
 40
4.4979165315999996
  1
15
 50
90.0
  0
LINE
  5
16E
  8
0
 62
     0
 10
-127.23583984379999
 20
112.4909505208
 30
0.0
 11
-145.02528738839999
 21
112.4909505208
 31
0.0
  0
LINE
  5
16F
  8
0
 62
     0
 10
-131.02528738839999
 20
97.490950520800013
 30
0.0
 11
-145.02528738839999
 21
97.490950520800013
 31
0.0
  0
LINE
  5
170
  8
0
 62
     0
 10
-144.02528738839999
 20
112.4909505208
 30
0.0
 11
-144.02528738839999
 21
110.2826170286
 31
0.0
  0
LINE
  5
171
  8
0
 62
     0
 10
-144.02528738839999
 20
112.4909505208
 30
0.0
 11
-144.02528738839999
 21
99.699284013099984
 31
0.0
  0
LINE
  5
172
  8
0
 62
     0
 10
-144.02528738839999
 20
97.490950520800013
 30
0.0
 11
-144.02528738839999
 21
110.2826170286
 31
0.0
  0
LINE
  5
173
  8
0
 62
     0
 10
-144.02528738839999
 20
97.490950520800013
 30
0.0
 11
-144.02528738839999
 21
99.699284013099984
 31
0.0
  0
LINE
  5
174
  8
0
 62
     0
 10
-144.02528738839999
 20
97.490950520800013
 30
0.0
 11
-144.02528738839999
 21
92.490950520799984
 31
0.0
  0
SOLID
  5
175
  8
0
 62
     0
 10
-144.02528738839999
 20
97.490950520800013
 30
0.0
 11
-142.90028738839999
 21
92.990950520799998
 31
0.0
 12
-145.15028738839999
 22
92.990950520799998
 32
0.0
 13
-144.02528738839999
 23
94.115950520799998
 33
0.0
  0
LINE
  5
176
  8
0
 62
     0
 10
-144.02528738839999
 20
112.4909505208
 30
0.0
 11
-144.02528738839999
 21
117.4909505208
 31
0.0
  0
SOLID
  5
177
  8
0
 62
     0
 10
-144.02528738839999
 20
112.4909505208
 30
0.0
 11
-145.15028738839999
 21
116.9909505208
 31
0.0
 12
-142.90028738839999
 22
116.9909505208
 32
0.0
 13
-144.02528738839999
 23
115.8659505208
 33
0.0
  0
ENDBLK
  5
178
  8
0
  0
BLOCK
  8
0
  2
*D8
 70
     1
 10
0.0
 20
0.0
 30
0.0
  3
*D8
  1

  0
TEXT
  5
17C
  8
0
 62
     0
 10
-145.81903736460001
 20
87.345117267000006
 30
0.0
 40
4.4979165315999996
  1
15
 50
90.0
  0
LINE
  5
17D
  8
0
 62
     0
 10
-131.02528738839999
 20
97.490950520800013
 30
0.0
 11
-145.02528738839999
 21
97.490950520800013
 31
0.0
  0
LINE
  5
17E
  8
0
 62
     0
 10
-127.23583984379999
 20
82.490950520799984
 30
0.0
 11
-145.02528738839999
 21
82.490950520799984
 31
0.0
  0
LINE
  5
17F
  8
0
 62
     0
 10
-144.02528738839999
 20
97.490950520800013
 30
0.0
 11
-144.02528738839999
 21
95.282617028600001
 31
0.0
  0
LINE
  5
180
  8
0
 62
     0
 10
-144.02528738839999
 20
97.490950520800013
 30
0.0
 11
-144.02528738839999
 21
84.699284013099984
 31
0.0
  0
LINE
  5
181
  8
0
 62
     0
 10
-144.02528738839999
 20
82.490950520799984
 30
0.0
 11
-144.02528738839999
 21
95.282617028600001
 31
0.0
  0
LINE
  5
182
  8
0
 62
     0
 10
-144.02528738839999
 20
82.490950520799984
 30
0.0
 11
-144.02528738839999
 21
84.699284013099984
 31
0.0
  0
LINE
  5
183
  8
0
 62
     0
 10
-144.02528738839999
 20
82.490950520799984
 30
0.0
 11
-144.02528738839999
 21
77.490950520799998
 31
0.0
  0
SOLID
  5
184
  8
0
 62
     0
 10
-144.02528738839999
 20
82.490950520799984
 30
0.0
 11
-142.90028738839999
 21
77.990950520799998
 31
0.0
 12
-145.15028738839999
 22
77.990950520799998
 32
0.0
 13
-144.02528738839999
 23
79.115950520799998
 33
0.0
  0
LINE
  5
185
  8
0
 62
     0
 10
-144.02528738839999
 20
97.490950520800013
 30
0.0
 11
-144.02528738839999
 21
102.4909505208
 31
0.0
  0
SOLID
  5
186
  8
0
 62
     0
 10
-144.02528738839999
 20
97.490950520800013
 30
0.0
 11
-145.15028738839999
 21
101.9909505208
 31
0.0
 12
-142.90028738839999
 22
101.9909505208
 32
0.0
 13
-144.02528738839999
 23
100.8659505208
 33
0.0
  0
ENDBLK
  5
187
  8
0
  0
BLOCK
  8
0
  2
*D9
 70
     1
 10
0.0
 20
0.0
 30
0.0
  3
*D9
  1

  0
TEXT
  5
18B
  8
0
 62
     0
 10
-117.8816730976
 20
70.284700497000003
 30
0.0
 40
4.4979165315999996
  1
20
  0
LINE
  5
18C
  8
0
 62
     0
 10
-125.23583984379999
 20
80.490950520799998
 30
0.0
 11
-125.23583984379999
 21
67.490950520799998
 31
0.0
  0
LINE
  5
18D
  8
0
 62
     0
 10
-105.23583984379999
 20
90.490950520799998
 30
0.0
 11
-105.23583984379999
 21
67.490950520799998
 31
0.0
  0
LINE
  5
18E
  8
0
 62
     0
 10
-125.23583984379999
 20
68.490950520799998
 30
0.0
 11
-109.94417333600001
 21
68.490950520799998
 31
0.0
  0
LINE
  5
18F
  8
0
 62
     0
 10
-125.23583984379999
 20
68.490950520799998
 30
0.0
 11
-120.52750635149999
 21
68.490950520799998
 31
0.0
  0
LINE
  5
190
  8
0
 62
     0
 10
-105.23583984379999
 20
68.490950520799998
 30
0.0
 11
-109.94417333600001
 21
68.490950520799998
 31
0.0
  0
LINE
  5
191
  8
0
 62
     0
 10
-105.23583984379999
 20
68.490950520799998
 30
0.0
 11
-120.52750635149999
 21
68.490950520799998
 31
0.0
  0
LINE
  5
192
  8
0
 62
     0
 10
-105.23583984379999
 20
68.490950520799998
 30
0.0
 11
-110.23583984379999
 21
68.490950520799998
 31
0.0
  0
SOLID
  5
193
  8
0
 62
     0
 10
-105.23583984379999
 20
68.490950520799998
 30
0.0
 11
-109.73583984379999
 21
67.365950520799998
 31
0.0
 12
-109.73583984379999
 22
69.615950520799984
 32
0.0
 13
-108.61083984379999
 23
68.490950520799998
 33
0.0
  0
LINE
  5
194
  8
0
 62
     0
 10
-125.23583984379999
 20
68.490950520799998
 30
0.0
 11
-120.23583984379999
 21
68.490950520799998
 31
0.0
  0
SOLID
  5
195
  8
0
 62
     0
 10
-125.23583984379999
 20
68.490950520799998
 30
0.0
 11
-120.73583984379999
 21
69.615950520799984
 31
0.0
 12
-120.73583984379999
 22
67.365950520799998
 32
0.0
 13
-121.86083984379999
 23
68.490950520799998
 33
0.0
  0
ENDBLK
  5
196
  8
0
  0
BLOCK
  8
0
  2
*D10
 70
     1
 10
0.0
 20
0.0
 30
0.0
  3
*D10
  1

  0
TEXT
  5
1A2
  8
0
 62
     0
 10
-65.63571290649999
 20
72.684830768899985
 30
0.0
 40
4.4979165315999996
  1
6
 50
90.0
  0
LINE
  5
1A3
  8
0
 62
     0
 10
-81.841962930400015
 20
82.490950520799984
 30
0.0
 11
-62.841962930400001
 21
82.490950520799984
 31
0.0
  0
LINE
  5
1A4
  8
0
 62
     0
 10
-83.235839843799994
 20
88.490950520799998
 30
0.0
 11
-62.841962930400001
 21
88.490950520799998
 31
0.0
  0
LINE
  5
1A5
  8
0
 62
     0
 10
-63.841962930400001
 20
82.490950520799984
 30
0.0
 11
-63.841962930400001
 21
77.9764972766
 31
0.0
  0
LINE
  5
1A6
  8
0
 62
     0
 10
-63.841962930400001
 20
82.490950520799984
 30
0.0
 11
-63.841962930400001
 21
70.038997515000005
 31
0.0
  0
LINE
  5
1A7
  8
0
 62
     0
 10
-63.841962930400001
 20
88.490950520799998
 30
0.0
 11
-63.841962930400001
 21
77.9764972766
 31
0.0
  0
LINE
  5
1A8
  8
0
 62
     0
 10
-63.841962930400001
 20
88.490950520799998
 30
0.0
 11
-63.841962930400001
 21
70.038997515000005
 31
0.0
  0
LINE
  5
1A9
  8
0
 62
     0
 10
-63.841962930400001
 20
88.490950520799998
 30
0.0
 11
-63.841962930400001
 21
93.490950520799998
 31
0.0
  0
SOLID
  5
1AA
  8
0
 62
     0
 10
-63.841962930400001
 20
88.490950520799998
 30
0.0
 11
-64.966962930400001
 21
92.990950520799998
 31
0.0
 12
-62.716962930400001
 22
92.990950520799998
 32
0.0
 13
-63.841962930400001
 23
91.865950520799984
 33
0.0
  0
LINE
  5
1AB
  8
0
 62
     0
 10
-63.841962930400001
 20
82.490950520799984
 30
0.0
 11
-63.841962930400001
 21
77.490950520799998
 31
0.0
  0
SOLID
  5
1AC
  8
0
 62
     0
 10
-63.841962930400001
 20
82.490950520799984
 30
0.0
 11
-62.716962930400001
 21
77.990950520799998
 31
0.0
 12
-64.966962930400001
 22
77.990950520799998
 32
0.0
 13
-63.841962930400001
 23
79.115950520799998
 33
0.0
  0
ENDBLK
  5
1AD
  8
0
  0
BLOCK
  8
0
  2
*D11
 70
     1
 10
0.0
 20
0.0
 30
0.0
  3
*D11
  1

  0
TEXT
  5
1B1
  8
0
 62
     0
 10
-65.63571290649999
 20
119.8137370189
 30
0.0
 40
4.4979165315999996
  1
6
 50
90.0
  0
LINE
  5
1B2
  8
0
 62
     0
 10
-83.235839843799994
 20
106.4909505208
 30
0.0
 11
-62.841962930400001
 21
106.4909505208
 31
0.0
  0
LINE
  5
1B3
  8
0
 62
     0
 10
-81.841962930400015
 20
112.4909505208
 30
0.0
 11
-62.841962930400001
 21
112.4909505208
 31
0.0
  0
LINE
  5
1B4
  8
0
 62
     0
 10
-63.841962930400001
 20
106.4909505208
 30
0.0
 11
-63.841962930400001
 21
125.1054035266
 31
0.0
  0
LINE
  5
1B5
  8
0
 62
     0
 10
-63.841962930400001
 20
106.4909505208
 30
0.0
 11
-63.841962930400001
 21
117.16790376500001
 31
0.0
  0
LINE
  5
1B6
  8
0
 62
     0
 10
-63.841962930400001
 20
112.4909505208
 30
0.0
 11
-63.841962930400001
 21
125.1054035266
 31
0.0
  0
LINE
  5
1B7
  8
0
 62
     0
 10
-63.841962930400001
 20
112.4909505208
 30
0.0
 11
-63.841962930400001
 21
117.16790376500001
 31
0.0
  0
LINE
  5
1B8
  8
0
 62
     0
 10
-63.841962930400001
 20
112.4909505208
 30
0.0
 11
-63.841962930400001
 21
117.4909505208
 31
0.0
  0
SOLID
  5
1B9
  8
0
 62
     0
 10
-63.841962930400001
 20
112.4909505208
 30
0.0
 11
-64.966962930400001
 21
116.9909505208
 31
0.0
 12
-62.716962930400001
 22
116.9909505208
 32
0.0
 13
-63.841962930400001
 23
115.8659505208
 33
0.0
  0
LINE
  5
1BA
  8
0
 62
     0
 10
-63.841962930400001
 20
106.4909505208
 30
0.0
 11
-63.841962930400001
 21
101.4909505208
 31
0.0
  0
SOLID
  5
1BB
  8
0
 62
     0
 10
-63.841962930400001
 20
106.4909505208
 30
0.0
 11
-62.716962930400001
 21
101.9909505208
 31
0.0
 12
-64.966962930400001
 22
101.9909505208
 32
0.0
 13
-63.841962930400001
 23
103.1159505208
 33
0.0
  0
ENDBLK
  5
1BC
  8
0
  0
BLOCK
  8
0
  2
*D12
 70
     1
 10
0.0
 20
0.0
 30
0.0
  3
*D12
  1

  0
TEXT
  5
1C0
  8
0
 62
     0
 10
-65.63571290649999
 20
94.845117267000006
 30
0.0
 40
4.4979165315999996
  1
18
 50
90.0
  0
LINE
  5
1C1
  8
0
 62
     0
 10
-83.235839843799994
 20
88.490950520799998
 30
0.0
 11
-62.841962930400001
 21
88.490950520799998
 31
0.0
  0
LINE
  5
1C2
  8
0
 62
     0
 10
-83.235839843799994
 20
106.4909505208
 30
0.0
 11
-62.841962930400001
 21
106.4909505208
 31
0.0
  0
LINE
  5
1C3
  8
0
 62
     0
 10
-63.841962930400001
 20
88.490950520799998
 30
0.0
 11
-63.841962930400001
 21
102.7826170286
 31
0.0
  0
LINE
  5
1C4
  8
0
 62
     0
 10
-63.841962930400001
 20
88.490950520799998
 30
0.0
 11
-63.841962930400001
 21
92.199284013099984
 31
0.0
  0
LINE
  5
1C5
  8
0
 62
     0
 10
-63.841962930400001
 20
106.4909505208
 30
0.0
 11
-63.841962930400001
 21
102.7826170286
 31
0.0
  0
LINE
  5
1C6
  8
0
 62
     0
 10
-63.841962930400001
 20
106.4909505208
 30
0.0
 11
-63.841962930400001
 21
92.199284013099984
 31
0.0
  0
LINE
  5
1C7
  8
0
 62
     0
 10
-63.841962930400001
 20
106.4909505208
 30
0.0
 11
-63.841962930400001
 21
111.4909505208
 31
0.0
  0
SOLID
  5
1C8
  8
0
 62
     0
 10
-63.841962930400001
 20
106.4909505208
 30
0.0
 11
-64.966962930400001
 21
110.9909505208
 31
0.0
 12
-62.716962930400001
 22
110.9909505208
 32
0.0
 13
-63.841962930400001
 23
109.8659505208
 33
0.0
  0
LINE
  5
1C9
  8
0
 62
     0
 10
-63.841962930400001
 20
88.490950520799998
 30
0.0
 11
-63.841962930400001
 21
83.490950520799998
 31
0.0
  0
SOLID
  5
1CA
  8
0
 62
     0
 10
-63.841962930400001
 20
88.490950520799998
 30
0.0
 11
-62.716962930400001
 21
83.990950520799984
 31
0.0
 12
-64.966962930400001
 22
83.990950520799984
 32
0.0
 13
-63.841962930400001
 23
85.115950520799998
 33
0.0
  0
ENDBLK
  5
1CB
  8
0
  0
BLOCK
  8
0
  2
*D13
 70
     1
 10
0.0
 20
0.0
 30
0.0
  3
*D13
  1

  0
TEXT
  5
1CF
  8
0
 62
     0
 10
-87.8816730976
 20
70.284700497000003
 30
0.0
 40
4.4979165315999996
  1
10
  0
LINE
  5
1D0
  8
0
 62
     0
 10
-90.235839843799994
 20
81.490950520799984
 30
0.0
 11
-90.235839843799994
 21
67.490950520799998
 31
0.0
  0
LINE
  5
1D1
  8
0
 62
     0
 10
-80.235839843800008
 20
95.490950520799998
 30
0.0
 11
-80.235839843800008
 21
67.490950520799998
 31
0.0
  0
LINE
  5
1D2
  8
0
 62
     0
 10
-90.235839843799994
 20
68.490950520799998
 30
0.0
 11
-90.235839843799994
 21
68.490950520799998
 31
0.0
  0
LINE
  5
1D3
  8
0
 62
     0
 10
-90.235839843799994
 20
68.490950520799998
 30
0.0
 11
-80.235839843800008
 21
68.490950520799998
 31
0.0
  0
LINE
  5
1D4
  8
0
 62
     0
 10
-80.235839843800008
 20
68.490950520799998
 30
0.0
 11
-90.235839843799994
 21
68.490950520799998
 31
0.0
  0
LINE
  5
1D5
  8
0
 62
     0
 10
-80.235839843800008
 20
68.490950520799998
 30
0.0
 11
-80.235839843800008
 21
68.490950520799998
 31
0.0
  0
LINE
  5
1D6
  8
0
 62
     0
 10
-80.235839843800008
 20
68.490950520799998
 30
0.0
 11
-85.235839843800008
 21
68.490950520799998
 31
0.0
  0
SOLID
  5
1D7
  8
0
 62
     0
 10
-80.235839843800008
 20
68.490950520799998
 30
0.0
 11
-84.735839843800008
 21
67.365950520799998
 31
0.0
 12
-84.735839843800008
 22
69.615950520799984
 32
0.0
 13
-83.610839843799994
 23
68.490950520799998
 33
0.0
  0
LINE
  5
1D8
  8
0
 62
     0
 10
-90.235839843799994
 20
68.490950520799998
 30
0.0
 11
-85.235839843800008
 21
68.490950520799998
 31
0.0
  0
SOLID
  5
1D9
  8
0
 62
     0
 10
-90.235839843799994
 20
68.490950520799998
 30
0.0
 11
-85.735839843799994
 21
69.615950520799984
 31
0.0
 12
-85.735839843799994
 22
67.365950520799998
 32
0.0
 13
-86.860839843799994
 23
68.490950520799998
 33
0.0
  0
ENDBLK
  5
1DA
  8
0
  0
BLOCK
  8
0
  2
*D14
 70
     1
 10
0.0
 20
0.0
 30
0.0
  3
*D14
  1

  0
TEXT
  5
202
  8
0
 62
     0
 10
-105.3816730976
 20
-42.531184919699989
 30
0.0
 40
4.4979165315999996
  1
45
  0
LINE
  5
203
  8
0
 62
     0
 10
-125.23583984379999
 20
-21.324934895799998
 30
0.0
 11
-125.23583984379999
 21
-45.324934895799998
 31
0.0
  0
LINE
  5
204
  8
0
 62
     0
 10
-80.235839843800008
 20
-26.324934895799998
 30
0.0
 11
-80.235839843800008
 21
-45.324934895799998
 31
0.0
  0
LINE
  5
205
  8
0
 62
     0
 10
-125.23583984379999
 20
-44.324934895799991
 30
0.0
 11
-97.444173336000006
 21
-44.324934895799991
 31
0.0
  0
LINE
  5
206
  8
0
 62
     0
 10
-125.23583984379999
 20
-44.324934895799991
 30
0.0
 11
-108.02750635149999
 21
-44.324934895799991
 31
0.0
  0
LINE
  5
207
  8
0
 62
     0
 10
-80.235839843800008
 20
-44.324934895799991
 30
0.0
 11
-97.444173336000006
 21
-44.324934895799991
 31
0.0
  0
LINE
  5
208
  8
0
 62
     0
 10
-80.235839843800008
 20
-44.324934895799991
 30
0.0
 11
-108.02750635149999
 21
-44.324934895799991
 31
0.0
  0
LINE
  5
209
  8
0
 62
     0
 10
-80.235839843800008
 20
-44.324934895799991
 30
0.0
 11
-85.235839843800008
 21
-44.324934895799991
 31
0.0
  0
SOLID
  5
20A
  8
0
 62
     0
 10
-80.235839843800008
 20
-44.324934895799991
 30
0.0
 11
-84.735839843800008
 21
-45.449934895799998
 31
0.0
 12
-84.735839843800008
 22
-43.199934895799991
 32
0.0
 13
-83.610839843799994
 23
-44.324934895799991
 33
0.0
  0
LINE
  5
20B
  8
0
 62
     0
 10
-125.23583984379999
 20
-44.324934895799991
 30
0.0
 11
-120.23583984379999
 21
-44.324934895799991
 31
0.0
  0
SOLID
  5
20C
  8
0
 62
     0
 10
-125.23583984379999
 20
-44.324934895799991
 30
0.0
 11
-120.73583984379999
 21
-43.199934895799991
 31
0.0
 12
-120.73583984379999
 22
-45.449934895799998
 32
0.0
 13
-121.86083984379999
 23
-44.324934895799991
 33
0.0
  0
ENDBLK
  5
20D
  8
0
  0
BLOCK
  8
0
  2
*D15
 70
     1
 10
0.0
 20
0.0
 30
0.0
  3
*D15
  1

  0
TEXT
  5
219
  8
0
 62
     0
 10
9.3896659765999981
 20
114.4954469046
 30
0.0
 40
4.4979165315999996
  1
R33
 50
345.0
  0
LINE
  5
21A
  8
0
 62
     0
 10
33.8198578887
 20
106.0319790092
 30
0.0
 11
8.9103115511999995
 21
112.7064718342
 31
0.0
  0
SOLID
  5
21B
  8
0
 62
     0
 10
33.8198578887
 20
106.0319790092
 30
0.0
 11
29.182020244699999
 21
106.1099981576
 31
0.0
 12
29.7643630962
 22
108.2833312668
 32
0.0
 13
30.559858224999999
 23
106.9054932864
 33
0.0
  0
ENDBLK
  5
21C
  8
0
  0
BLOCK
  8
0
  2
*D16
 70
     1
 10
0.0
 20
0.0
 30
0.0
  3
*D16
  1

  0
TEXT
  5
22C
  8
0
 62
     0
 10
-147.0295898199
 20
-4.4707681496999996
 30
0.0
 40
4.4979165315999996
  1
45
 50
90.0
  0
LINE
  5
22D
  8
0
 62
     0
 10
-127.23583984379999
 20
20.675065104200002
 30
0.0
 11
-146.23583984379999
 21
20.675065104200002
 31
0.0
  0
LINE
  5
22E
  8
0
 62
     0
 10
-122.23583984379999
 20
-24.324934895799998
 30
0.0
 11
-146.23583984379999
 21
-24.324934895799998
 31
0.0
  0
LINE
  5
22F
  8
0
 62
     0
 10
-145.23583984379999
 20
20.675065104200002
 30
0.0
 11
-145.23583984379999
 21
3.4667316118999989
 31
0.0
  0
LINE
  5
230
  8
0
 62
     0
 10
-145.23583984379999
 20
20.675065104200002
 30
0.0
 11
-145.23583984379999
 21
-7.1166014035999989
 31
0.0
  0
LINE
  5
231
  8
0
 62
     0
 10
-145.23583984379999
 20
-24.324934895799998
 30
0.0
 11
-145.23583984379999
 21
3.4667316118999989
 31
0.0
  0
LINE
  5
232
  8
0
 62
     0
 10
-145.23583984379999
 20
-24.324934895799998
 30
0.0
 11
-145.23583984379999
 21
-7.1166014035999989
 31
0.0
  0
LINE
  5
233
  8
0
 62
     0
 10
-145.23583984379999
 20
-24.324934895799998
 30
0.0
 11
-145.23583984379999
 21
-19.324934895799998
 31
0.0
  0
SOLID
  5
234
  8
0
 62
     0
 10
-145.23583984379999
 20
-24.324934895799998
 30
0.0
 11
-146.36083984379999
 21
-19.824934895799998
 31
0.0
 12
-144.11083984379999
 22
-19.824934895799998
 32
0.0
 13
-145.23583984379999
 23
-20.949934895799998
 33
0.0
  0
LINE
  5
235
  8
0
 62
     0
 10
-145.23583984379999
 20
20.675065104200002
 30
0.0
 11
-145.23583984379999
 21
15.6750651042
 31
0.0
  0
SOLID
  5
236
  8
0
 62
     0
 10
-145.23583984379999
 20
20.675065104200002
 30
0.0
 11
-144.11083984379999
 21
16.175065104200002
 31
0.0
 12
-146.36083984379999
 22
16.175065104200002
 32
0.0
 13
-145.23583984379999
 23
17.300065104200002
 33
0.0
  0
ENDBLK
  5
237
  8
0
  0
BLOCK
  8
0
  2
*D17
 70
     1
 10
0.0
 20
0.0
 30
0.0
  3
*D17
  1

  0
TEXT
  5
23B
  8
0
 62
     0
 10
-105.6510826273
 20
0.1886174089
 30
0.0
 40
4.4979165315999996
  1
90%%d
 50
313.9702880607
  0
ARC
  5
23C
  8
0
 62
     0
 10
-122.23583984379999
 20
-21.324934895799998
 30
0.0
 40
24.4913407371
 50
73.578998173100004
 51
90.0
  0
ARC
  5
23D
  8
0
 62
     0
 10
-122.23583984379999
 20
-21.324934895799998
 30
0.0
 40
24.4913407371
 50
0.0
 51
16.4210018269
  0
SOLID
  5
23E
  8
0
 62
     0
 10
-97.744499106700005
 20
-21.324934895799998
 30
0.0
 11
-96.619499106700005
 21
-25.824934895799998
 31
0.0
 12
-98.869499106700005
 22
-25.824934895799998
 32
0.0
 13
-97.744499106700005
 23
-24.699934895799998
 33
0.0
  0
SOLID
  5
23F
  8
0
 62
     0
 10
-122.23583984379999
 20
3.1664058413
 30
0.0
 11
-126.73583984379999
 21
2.0414058413
 31
0.0
 12
-126.73583984379999
 22
4.2914058412999987
 32
0.0
 13
-125.61083984379999
 23
3.1664058413
 33
0.0
  0
ARC
  5
240
  8
0
 62
     0
 10
-122.23583984379999
 20
-21.324934895799998
 30
0.0
 40
24.4913407371
 50
0.0
 51
28.207171455299999
  0
ARC
  5
241
  8
0
 62
     0
 10
-122.23583984379999
 20
-21.324934895799998
 30
0.0
 40
24.4913407371
 50
59.733404666099993
 51
90.0
  0
LINE
  5
242
  8
0
 62
     0
 10
-83.235839843799994
 20
-21.324934895799998
 30
0.0
 11
-100.7444991067
 21
-21.324934895799998
 31
0.0
  0
LINE
  5
243
  8
0
 62
     0
 10
-122.23583984379999
 20
17.675065104200002
 30
0.0
 11
-122.23583984379999
 21
0.1664058413
 31
0.0
  0
ENDBLK
  5
244
  8
0
  0
BLOCK
  8
0
  2
*D18
 70
     1
 10
0.0
 20
0.0
 30
0.0
  3
*D18
  1

  0
LINE
  5
25B
  8
0
 62
     4
 10
99.654321868384983
 20
-1.622089728898787
 30
0.0
 11
117.25710668575741
 21
15.980695088473629
 31
0.0
  0
LINE
  5
25C
  8
0
 62
     4
 10
49.549603485052401
 20
-1.6220897288987779
 30
0.0
 11
31.946818667679931
 21
15.98069508847383
 31
0.0
  0
ARC
  5
25D
  8
0
 62
     4
 10
74.601962676718585
 20
-26.67444892056514
 30
0.0
 40
58.323483162560159
 50
47.456136176855878
 51
132.54386382314379
  0
SOLID
  5
25E
  8
0
 62
     4
 10
114.32589073202899
 20
16.59682998282743
 30
0.0
 11
113.7493994699205
 21
15.99508064202424
 31
0.0
 12
115.8428931233843
 22
14.56648152610053
 32
0.0
 13
115.8428931233843
 23
14.56648152610053
 33
0.0
  0
SOLID
  5
25F
  8
0
 62
     4
 10
35.454525883516801
 20
15.99508064202444
 30
0.0
 11
34.878034621408382
 21
16.596829982827629
 31
0.0
 12
33.36103223005302
 22
14.566481526100739
 32
0.0
 13
33.36103223005302
 23
14.566481526100739
 33
0.0
  0
INSERT
  5
260
  8
0
  6
CONTINUOUS
  2
*U59
 10
0.0
 20
0.0
 30
0.0
  0
POINT
  5
261
  8
DEFPOINTS
 62
     0
 10
74.601962676718585
 20
-26.67444892056514
 30
0.0
  0
POINT
  5
262
  8
DEFPOINTS
 62
     0
 10
97.886554915418614
 20
-3.3898566818651541
 30
0.0
  0
POINT
  5
263
  8
DEFPOINTS
 62
     0
 10
51.31737043801877
 20
-3.3898566818651541
 30
0.0
  0
POINT
  5
264
  8
DEFPOINTS
 62
     0
 10
59.506734457531977
 20
29.6617097452874
 30
0.0
  0
ENDBLK
  5
265
  8
0
  0
BLOCK
  8
0
  2
*D19
 70
     1
 10
0.0
 20
0.0
 30
0.0
  3
*D19
  1

  0
LINE
  5
268
  8
0
 62
     4
 10
54.601962676718578
 20
-4.1119489205651396
 30
0.0
 11
54.601962676718578
 21
14.29740881552493
 31
0.0
  0
LINE
  5
269
  8
0
 62
     4
 10
94.601962676718585
 20
-4.1119489205651396
 30
0.0
 11
94.601962676718585
 21
14.29740881552493
 31
0.0
  0
LINE
  5
26A
  8
0
 62
     4
 10
57.101962676718578
 20
12.29740881552493
 30
0.0
 11
92.101962676718585
 21
12.29740881552493
 31
0.0
  0
SOLID
  5
26B
  8
0
 62
     4
 10
57.101962676718578
 20
12.7140754821916
 30
0.0
 11
57.101962676718578
 21
11.880742148858261
 31
0.0
 12
54.601962676718578
 22
12.29740881552493
 32
0.0
 13
54.601962676718578
 23
12.29740881552493
 33
0.0
  0
SOLID
  5
26C
  8
0
 62
     4
 10
92.101962676718585
 20
12.7140754821916
 30
0.0
 11
92.101962676718585
 21
11.880742148858261
 31
0.0
 12
94.601962676718585
 22
12.29740881552493
 32
0.0
 13
94.601962676718585
 23
12.29740881552493
 33
0.0
  0
INSERT
  5
26D
  8
0
  6
CONTINUOUS
  2
*U60
 10
0.0
 20
0.0
 30
0.0
  0
POINT
  5
26E
  8
DEFPOINTS
 62
     0
 10
54.601962676718578
 20
-6.6119489205651396
 30
0.0
  0
POINT
  5
26F
  8
DEFPOINTS
 62
     0
 10
94.601962676718585
 20
-6.6119489205651396
 30
0.0
  0
POINT
  5
270
  8
DEFPOINTS
 62
     0
 10
94.601962676718585
 20
12.29740881552493
 30
0.0
  0
ENDBLK
  5
271
  8
0
  0
BLOCK
  8
0
  2
*D20
 70
     1
 10
0.0
 20
0.0
 30
0.0
  3
*D20
  1

  0
LINE
  5
274
  8
0
 62
     4
 10
64.601962676718699
 20
-24.23694892056514
 30
0.0
 11
64.601962676718699
 21
-43.888937011566213
 31
0.0
  0
LINE
  5
275
  8
0
 62
     4
 10
84.601962676718585
 20
-24.23694892056514
 30
0.0
 11
84.601962676718585
 21
-43.888937011566213
 31
0.0
  0
LINE
  5
276
  8
0
 62
     4
 10
67.101962676718699
 20
-41.888937011566213
 30
0.0
 11
82.101962676718585
 21
-41.888937011566213
 31
0.0
  0
SOLID
  5
277
  8
0
 62
     4
 10
67.101962676718699
 20
-41.472270344899542
 30
0.0
 11
67.101962676718699
 21
-42.30560367823287
 31
0.0
 12
64.601962676718699
 22
-41.888937011566213
 32
0.0
 13
64.601962676718699
 23
-41.888937011566213
 33
0.0
  0
SOLID
  5
278
  8
0
 62
     4
 10
82.101962676718585
 20
-41.472270344899542
 30
0.0
 11
82.101962676718585
 21
-42.30560367823287
 31
0.0
 12
84.601962676718585
 22
-41.888937011566213
 32
0.0
 13
84.601962676718585
 23
-41.888937011566213
 33
0.0
  0
INSERT
  5
279
  8
0
  6
CONTINUOUS
  2
*U61
 10
0.0
 20
0.0
 30
0.0
  0
POINT
  5
27A
  8
DEFPOINTS
 62
     0
 10
64.601962676718699
 20
-21.73694892056514
 30
0.0
  0
POINT
  5
27B
  8
DEFPOINTS
 62
     0
 10
84.601962676718585
 20
-21.73694892056514
 30
0.0
  0
POINT
  5
27C
  8
DEFPOINTS
 62
     0
 10
84.601962676718585
 20
-41.888937011566213
 30
0.0
  0
ENDBLK
  5
27D
  8
0
  0
BLOCK
  8
0
  2
*D22
 70
     1
 10
0.0
 20
0.0
 30
0.0
  3
*D22
  1

  0
LINE
  5
3A0
  8
0
 62
     4
 10
52.131589532138257
 20
-18.186169144804438
 30
0.0
 11
52.131589532138257
 21
-37.838157235805511
 31
0.0
  0
LINE
  5
3A1
  8
0
 62
     4
 10
72.13158953213815
 20
-18.186169144804438
 30
0.0
 11
72.13158953213815
 21
-37.838157235805511
 31
0.0
  0
LINE
  5
3A2
  8
0
 62
     4
 10
54.631589532138257
 20
-35.838157235805511
 30
0.0
 11
69.63158953213815
 21
-35.838157235805511
 31
0.0
  0
SOLID
  5
3A3
  8
0
 62
     4
 10
54.631589532138257
 20
-35.421490569138847
 30
0.0
 11
54.631589532138257
 21
-36.254823902472168
 31
0.0
 12
52.131589532138257
 22
-35.838157235805511
 32
0.0
 13
52.131589532138257
 23
-35.838157235805511
 33
0.0
  0
SOLID
  5
3A4
  8
0
 62
     4
 10
69.63158953213815
 20
-35.421490569138847
 30
0.0
 11
69.63158953213815
 21
-36.254823902472168
 31
0.0
 12
72.13158953213815
 22
-35.838157235805511
 32
0.0
 13
72.13158953213815
 23
-35.838157235805511
 33
0.0
  0
INSERT
  5
3A5
  8
0
  6
CONTINUOUS
  2
*U63
 10
0.0
 20
0.0
 30
0.0
  0
POINT
  5
3A6
  8
DEFPOINTS
 62
     0
 10
52.131589532138257
 20
-15.68616914480444
 30
0.0
  0
POINT
  5
3A7
  8
DEFPOINTS
 62
     0
 10
72.13158953213815
 20
-15.68616914480444
 30
0.0
  0
POINT
  5
3A8
  8
DEFPOINTS
 62
     0
 10
72.13158953213815
 20
-35.838157235805511
 30
0.0
  0
ENDBLK
  5
2AA
  8
0
  0
BLOCK
  8
0
  2
*D23
 70
     1
 10
0.0
 20
0.0
 30
0.0
  3
*D23
  1

  0
LINE
  5
2CD
  8
0
 62
     4
 10
42.13158953213815
 20
1.9388308551955611
 30
0.0
 11
42.13158953213815
 21
20.348188591285631
 31
0.0
  0
LINE
  5
2CE
  8
0
 62
     4
 10
82.13158953213815
 20
1.9388308551955611
 30
0.0
 11
82.13158953213815
 21
20.348188591285631
 31
0.0
  0
LINE
  5
2CF
  8
0
 62
     4
 10
44.63158953213815
 20
18.348188591285631
 30
0.0
 11
79.63158953213815
 21
18.348188591285631
 31
0.0
  0
SOLID
  5
2D0
  8
0
 62
     4
 10
44.63158953213815
 20
18.764855257952298
 30
0.0
 11
44.63158953213815
 21
17.931521924618959
 31
0.0
 12
42.13158953213815
 22
18.348188591285631
 32
0.0
 13
42.13158953213815
 23
18.348188591285631
 33
0.0
  0
SOLID
  5
2D1
  8
0
 62
     4
 10
79.63158953213815
 20
18.764855257952298
 30
0.0
 11
79.63158953213815
 21
17.931521924618959
 31
0.0
 12
82.13158953213815
 22
18.348188591285631
 32
0.0
 13
82.13158953213815
 23
18.348188591285631
 33
0.0
  0
INSERT
  5
2D2
  8
0
  6
CONTINUOUS
  2
*U62
 10
0.0
 20
0.0
 30
0.0
  0
POINT
  5
2D3
  8
DEFPOINTS
 62
     0
 10
42.13158953213815
 20
-0.5611691448044383
 30
0.0
  0
POINT
  5
2D4
  8
DEFPOINTS
 62
     0
 10
82.13158953213815
 20
-0.5611691448044383
 30
0.0
  0
POINT
  5
2D5
  8
DEFPOINTS
 62
     0
 10
82.13158953213815
 20
18.348188591285631
 30
0.0
  0
ENDBLK
  5
2B6
  8
0
  0
BLOCK
  8
0
  2
*D24
 70
     1
 10
0.0
 20
0.0
 30
0.0
  3
*D24
  1

  0
LINE
  5
450
  8
0
 62
     4
 10
87.183948723804548
 20
4.4286900468619157
 30
0.0
 11
104.786733541177
 21
22.03147486423434
 31
0.0
  0
LINE
  5
451
  8
0
 62
     4
 10
37.079230340471987
 20
4.4286900468619228
 30
0.0
 11
19.4764455230995
 21
22.03147486423455
 31
0.0
  0
ARC
  5
452
  8
0
 62
     4
 10
62.131589532138157
 20
-20.623669144804438
 30
0.0
 40
58.32348316256018
 50
47.4561361768559
 51
132.54386382314379
  0
SOLID
  5
453
  8
0
 62
     4
 10
101.8555175874486
 20
22.647609758588139
 30
0.0
 11
101.2790263253401
 21
22.045860417784962
 31
0.0
 12
103.37251997880389
 22
20.617261301861252
 32
0.0
 13
103.37251997880389
 23
20.617261301861252
 33
0.0
  0
SOLID
  5
454
  8
0
 62
     4
 10
22.98415273893637
 20
22.04586041778516
 30
0.0
 11
22.40766147682794
 21
22.647609758588349
 31
0.0
 12
20.890659085472588
 22
20.617261301861461
 32
0.0
 13
20.890659085472588
 23
20.617261301861461
 33
0.0
  0
TEXT
  8
0
  40
5
  5
462
  62
4
  72
0
  71
0
 10
54.0931
 20
32.3187
 30
0.000000
  1
90°
  7
ゴシック
  0
POINT
  5
456
  8
DEFPOINTS
 62
     0
 10
62.131589532138157
 20
-20.623669144804438
 30
0.0
  0
POINT
  5
457
  8
DEFPOINTS
 62
     0
 10
85.416181770838193
 20
2.6609230938955482
 30
0.0
  0
POINT
  5
458
  8
DEFPOINTS
 62
     0
 10
38.846997293438342
 20
2.6609230938955468
 30
0.0
  0
POINT
  5
459
  8
DEFPOINTS
 62
     0
 10
47.036361312951541
 20
35.71248952104812
 30
0.0
  0
ENDBLK
  5
2C3
  8
0
  0
BLOCK
  8
0
  2
*U25
 70
     1
 10
0.0
 20
0.0
 30
0.0
  3
*U25
  1

  0
TEXT
  5
3B3
  8
図枠
  6
CONTINUOUS
 10
193.73202049424421
 20
162.1083375048467
 30
0.0
 40
4.0481249392
  1
検認者
  0
ENDBLK
  5
3B5
  8
0
  0
BLOCK
  8
0
  2
*U26
 70
     1
 10
0.0
 20
0.0
 30
0.0
  3
*U26
  1

  0
TEXT
  5
3B7
  8
図枠
  6
CONTINUOUS
 10
178.7936670669223
 20
162.12888636240609
 30
0.0
 40
4.0481249392
  1
改訂者
  0
ENDBLK
  5
3B9
  8
0
  0
BLOCK
  8
0
  2
*U27
 70
     1
 10
0.0
 20
0.0
 30
0.0
  3
*U27
  1

  0
TEXT
  5
3BB
  8
図枠
  6
CONTINUOUS
 10
68.728706687710144
 20
162.2110817926436
 30
0.0
 40
4.0481249392
  1
副番
  0
ENDBLK
  5
3BD
  8
0
  0
BLOCK
  8
0
  2
*U28
 70
     1
 10
0.0
 20
0.0
 30
0.0
  3
*U28
  1

  0
TEXT
  5
3BF
  8
図枠
  6
CONTINUOUS
 10
84.077904062548726
 20
162.16998407752479
 30
0.0
 40
4.0481249392
  1
改訂日
  0
ENDBLK
  5
3C1
  8
0
  0
BLOCK
  8
0
  2
*U29
 70
     1
 10
0.0
 20
0.0
 30
0.0
  3
*U29
  1

  0
TEXT
  5
3C3
  8
図枠
  6
CONTINUOUS
 10
123.19045656627659
 20
162.12888636240609
 30
0.0
 40
4.0481249392
  1
改　訂　内　容
  0
ENDBLK
  5
3C5
  8
0
  0
BLOCK
  8
0
  2
*U30
 70
     1
 10
0.0
 20
0.0
 30
0.0
  3
*U30
  1

  0
TEXT
  5
3C7
  8
図枠
  6
CONTINUOUS
 10
34.794000076099998
 20
-96.451936020602034
 30
0.0
 40
3.5062500000000001
  1
 設計
  0
ENDBLK
  5
3C9
  8
0
  0
BLOCK
  8
0
  2
*U31
 70
     1
 10
0.0
 20
0.0
 30
0.0
  3
*U31
  1

  0
TEXT
  5
3CB
  8
図枠
  6
CONTINUOUS
 10
42.39883827406954
 20
-83.630743127201015
 30
0.0
 40
3.5062500000000001
  1
日 　付
  0
ENDBLK
  5
3CD
  8
0
  0
BLOCK
  8
0
  2
*U32
 70
     1
 10
0.0
 20
0.0
 30
0.0
  3
*U32
  1

  0
TEXT
  5
3CF
  8
図枠
  6
CONTINUOUS
 10
39.061671550983249
 20
-60.252005135981719
 30
0.0
 40
4.207499939199999
  1
材　　質
  0
ENDBLK
  5
3D1
  8
0
  0
BLOCK
  8
0
  2
*U33
 70
     1
 10
0.0
 20
0.0
 30
0.0
  3
*U33
  1

  0
TEXT
  5
3D3
  8
図枠
  6
CONTINUOUS
 10
39.018955815559899
 20
-68.544720871405076
 30
0.0
 40
4.207499939199999
  1
表面処理
  0
ENDBLK
  5
3D5
  8
0
  0
BLOCK
  8
0
  2
*U34
 70
     1
 10
0.0
 20
0.0
 30
0.0
  3
*U34
  1

  0
TEXT
  5
3D7
  8
図枠
  6
CONTINUOUS
 10
39.125745154118277
 20
-76.880152342251776
 30
0.0
 40
4.207499939199999
  1
一般公差
  0
ENDBLK
  5
3D9
  8
0
  0
BLOCK
  8
0
  2
*U35
 70
     1
 10
0.0
 20
0.0
 30
0.0
  3
*U35
  1

  0
TEXT
  5
3DB
  8
図枠
  6
CONTINUOUS
 10
36.896189162394407
 20
-102.8625324673025
 30
0.0
 40
3.5062500000000001
  1
製図
  0
ENDBLK
  5
3DD
  8
0
  0
BLOCK
  8
0
  2
*U36
 70
     1
 10
0.0
 20
0.0
 30
0.0
  3
*U36
  1

  0
TEXT
  5
3DF
  8
図枠
  6
CONTINUOUS
 10
44.071871268993398
 20
-89.934550233799996
 30
0.0
 40
3.5062500000000001
  1
H16.4
  0
ENDBLK
  5
3E1
  8
0
  0
BLOCK
  8
0
  2
*U37
 70
     1
 10
0.0
 20
0.0
 30
0.0
  3
*U37
  1

  0
TEXT
  5
3E3
  8
ﾚｲﾔ_10
  6
CONTINUOUS
 10
42.802595292835022
 20
-46.192578853921823
 30
0.0
 40
4.4979165315999996
  1
皿モミ部拡大図
  0
ENDBLK
  5
3E5
  8
0
  0
BLOCK
  8
0
  2
*U38
 70
     1
 10
0.0
 20
0.0
 30
0.0
  3
*U38
  1

  0
TEXT
  5
3E7
  8
図枠
  6
CONTINUOUS
 10
90.596932215746733
 20
-76.837436606828419
 30
0.0
 40
4.207499939199999
  1
指定無き公差はJIS 0408-Bによること
  0
ENDBLK
  5
3E9
  8
0
  0
BLOCK
  8
0
  2
*U39
 70
     1
 10
0.0
 20
0.0
 30
0.0
  3
*U39
  1

  0
TEXT
  5
3EB
  8
図枠
  6
CONTINUOUS
 10
56.815446776607608
 20
-96.505330690652784
 30
0.0
 40
3.5062500000000001
  1
白須賀
  0
ENDBLK
  5
3ED
  8
0
  0
BLOCK
  8
0
  2
*U40
 70
     1
 10
0.0
 20
0.0
 30
0.0
  3
*U40
  1

  0
TEXT
  5
3EF
  8
図枠
  6
CONTINUOUS
 10
72.870491192851262
 20
-89.934550233799996
 30
0.0
 40
3.5062500000000001
  1
1：1.5
  0
ENDBLK
  5
3F1
  8
0
  0
BLOCK
  8
0
  2
*U41
 70
     1
 10
0.0
 20
0.0
 30
0.0
  3
*U41
  1

  0
TEXT
  5
3F3
  8
図枠
  6
CONTINUOUS
 10
57.865541954272587
 20
-102.898128914003
 30
0.0
 40
3.5062500000000001
  1
岸 本
  0
ENDBLK
  5
3F5
  8
0
  0
BLOCK
  8
0
  2
*U42
 70
     1
 10
0.0
 20
0.0
 30
0.0
  3
*U42
  1

  0
TEXT
  5
3F7
  8
図枠
  6
CONTINUOUS
 10
72.025075583714184
 20
-83.737532467302543
 30
0.0
 40
3.5062500000000001
  1
尺 　度
  0
ENDBLK
  5
3F9
  8
0
  0
BLOCK
  8
0
  2
*U43
 70
     1
 10
0.0
 20
0.0
 30
0.0
  3
*U43
  1

  0
TEXT
  5
3FB
  8
図枠
  6
CONTINUOUS
 10
79.404147467288837
 20
-60.01791665439999
 30
0.0
 40
4.4979165315999996
  1
SUS304-HL
  0
ENDBLK
  5
3FD
  8
0
  0
BLOCK
  8
0
  2
*U44
 70
     1
 10
0.0
 20
0.0
 30
0.0
  3
*U44
  1

  0
TEXT
  5
3FF
  8
図枠
  6
CONTINUOUS
 10
41.124830663300003
 20
-113.9236602999441
 30
0.0
 40
6.4769999026999994
  1
株式会社
  0
ENDBLK
  5
401
  8
0
  0
BLOCK
  8
0
  2
*U45
 70
     1
 10
0.0
 20
0.0
 30
0.0
  3
*U45
  1

  0
TEXT
  5
403
  8
図枠
  6
CONTINUOUS
 10
146.22322277706601
 20
-100.06174490884869
 30
0.0
 40
4.4979165315999996
  1
LS-104 45x45 承認図
  0
ENDBLK
  5
405
  8
0
  0
BLOCK
  8
0
  2
*U46
 70
     1
 10
0.0
 20
0.0
 30
0.0
  3
*U46
  1

  0
TEXT
  5
407
  8
図枠
  6
CONTINUOUS
 10
171.79714736261371
 20
-60.365000062
 30
0.0
 40
4.8449999392
  1
3.0t
  0
ENDBLK
  5
409
  8
0
  0
BLOCK
  8
0
  2
*U47
 70
     1
 10
0.0
 20
0.0
 30
0.0
  3
*U47
  1

  0
TEXT
  5
40B
  8
図枠
  6
CONTINUOUS
 10
150.7097232768599
 20
-112.7204166544
 30
0.0
 40
4.4979165315999996
  1
ＳＲＫ０００９７
  0
ENDBLK
  5
40D
  8
0
  0
BLOCK
  8
0
  2
*U48
 70
     1
 10
0.0
 20
0.0
 30
0.0
  3
*U48
  1

  0
TEXT
  5
40F
  8
図枠
  6
CONTINUOUS
 10
148.15253215229541
 20
-87.677057926643656
 30
0.0
 40
4.4979165315999996
  1
Ｌ型アングルワイド
  0
ENDBLK
  5
411
  8
0
  0
BLOCK
  8
0
  2
*U49
 70
     1
 10
0.0
 20
0.0
 30
0.0
  3
*U49
  1

  0
TEXT
  5
413
  8
図枠
  6
CONTINUOUS
 10
125.2103547715315
 20
-108.8580394629015
 30
0.0
 40
3.5062500000000001
  1
図　番
  0
ENDBLK
  5
415
  8
0
  0
BLOCK
  8
0
  2
*U50
 70
     1
 10
0.0
 20
0.0
 30
0.0
  3
*U50
  1

  0
TEXT
  5
417
  8
図枠
  6
CONTINUOUS
 10
125.1302627664553
 20
-83.429232356302535
 30
0.0
 40
3.5062500000000001
  1
製品名
  0
ENDBLK
  5
419
  8
0
  0
BLOCK
  8
0
  2
*U51
 70
     1
 10
0.0
 20
0.0
 30
0.0
  3
*U51
  1

  0
TEXT
  5
41B
  8
図枠
  6
CONTINUOUS
 10
102.8833401776228
 20
-102.7735413505512
 30
0.0
 40
3.5062500000000001
  1
園 原
  0
ENDBLK
  5
41D
  8
0
  0
BLOCK
  8
0
  2
*U52
 70
     1
 10
0.0
 20
0.0
 30
0.0
  3
*U52
  1

  0
TEXT
  5
41F
  8
図枠
  6
CONTINUOUS
 10
102.8833401776228
 20
-96.398541350551255
 30
0.0
 40
3.5062500000000001
  1
園 原
  0
ENDBLK
  5
421
  8
0
  0
BLOCK
  8
0
  2
*U53
 70
     1
 10
0.0
 20
0.0
 30
0.0
  3
*U53
  1

  0
TEXT
  5
423
  8
図枠
  6
CONTINUOUS
 10
125.2281529948817
 20
-96.14363590960204
 30
0.0
 40
3.5062500000000001
  1
図面名
  0
ENDBLK
  5
425
  8
0
  0
BLOCK
  8
0
  2
*U54
 70
     1
 10
0.0
 20
0.0
 30
0.0
  3
*U54
  1

  0
TEXT
  5
427
  8
図枠
  6
CONTINUOUS
 10
79.794000076099991
 20
-96.469734243952274
 30
0.0
 40
3.5062500000000001
  1
 照査
  0
ENDBLK
  5
429
  8
0
  0
BLOCK
  8
0
  2
*U55
 70
     1
 10
0.0
 20
0.0
 30
0.0
  3
*U55
  1

  0
TEXT
  5
42B
  8
図枠
  6
CONTINUOUS
 10
123.00827688170411
 20
-60.337436606828419
 30
0.0
 40
4.207499939199999
  1
板　　厚
  0
ENDBLK
  5
42D
  8
0
  0
BLOCK
  8
0
  2
*U56
 70
     1
 10
0.0
 20
0.0
 30
0.0
  3
*U56
  1

  0
TEXT
  5
42F
  8
図枠
  6
CONTINUOUS
 10
79.794000076099991
 20
-102.8803306906528
 30
0.0
 40
3.5062500000000001
  1
 検図
  0
ENDBLK
  5
431
  8
0
  0
BLOCK
  8
0
  2
*U57
 70
     1
 10
0.0
 20
0.0
 30
0.0
  3
*U57
  1

  0
TEXT
  5
433
  8
ﾚｲﾔ_10
  6
CONTINUOUS
 10
-107.8567353914289
 20
124.4184274712
 30
0.0
 40
4.4979165315999996
  1
ＨＬ
  0
ENDBLK
  5
435
  8
0
  0
BLOCK
  8
0
  2
*D58
 70
     1
 10
0.0
 20
0.0
 30
0.0
  3
*D58
  1

  0
LINE
  5
437
  8
寸法線
 62
     0
 10
-79.548339843800008
 20
-21.324934895799998
 30
0.0
 11
-98.994499106699067
 21
-21.324934895800009
 31
0.0
  0
LINE
  5
438
  8
寸法線
 62
     0
 10
-122.23583984379999
 20
20.612565104200019
 30
0.0
 11
-122.23583984379999
 21
1.9164058413009351
 31
0.0
  0
ARC
  5
439
  8
寸法線
 62
     0
 10
-122.23583984379999
 20
-21.324934895799998
 30
0.0
 40
24.491340737100948
 50
10.542300446596229
 51
27.577800785641809
  0
ARC
  5
43A
  8
寸法線
 62
     0
 10
-122.23583984379999
 20
-21.324934895799998
 30
0.0
 40
24.491340737100948
 50
60.362775335527772
 51
79.457699553403771
  0
SOLID
  5
43B
  8
寸法線
 62
     0
 10
-97.411082216620997
 20
-16.775063119869309
 30
0.0
 11
-98.904738840710834
 21
-16.912866927191601
 31
0.0
 12
-97.744499106699038
 22
-21.324934895799998
 32
0.0
 13
-97.744499106699038
 23
-21.324934895799998
 33
0.0
  0
SOLID
  5
43C
  8
寸法線
 62
     0
 10
-117.8237718751916
 20
2.0061661072891681
 30
0.0
 11
-117.6859680678693
 21
3.4998227313790049
 31
0.0
 12
-122.23583984379999
 22
3.166405841300949
 32
0.0
 13
-122.23583984379999
 23
3.166405841300949
 33
0.0
  0
TEXT
  8
寸法線
  40
4.49792
  5
463
  62
0
  72
0
  71
0
 10
-113.605
 20
-12.2823
 30
0.000000
  1
90°
  0
POINT
  5
43E
  8
DEFPOINTS
 62
     0
 10
-122.23583984379999
 20
-21.324934895799998
 30
0.0
  0
POINT
  5
43F
  8
DEFPOINTS
 62
     0
 10
-79.485839843799994
 20
-21.324934895799998
 30
0.0
  0
POINT
  5
440
  8
DEFPOINTS
 62
     0
 10
-122.23583984379999
 20
20.675065104200019
 30
0.0
  0
POINT
  5
441
  8
DEFPOINTS
 62
     0
 10
-109.9901694752495
 20
-0.1148116447298832
 30
0.0
  0
ENDBLK
  5
443
  8
0
  0
BLOCK
  8
0
  2
*U59
 70
     1
 10
0.0
 20
0.0
 30
0.0
  3
*U59
  1

  0
TEXT
  5
445
  8
0
  6
CONTINUOUS
 62
     4
 10
69.016311943497413
 20
32.856222427386562
 30
0.0
 40
5.0
  1
90°
 50
358.18184992574533
  7
ゴシック
  0
ENDBLK
  5
447
  8
0
  0
BLOCK
  8
0
  2
*U60
 70
     1
 10
0.0
 20
0.0
 30
0.0
  3
*U60
  1

  0
TEXT
  5
449
  8
0
  6
CONTINUOUS
 62
     4
 10
67.263266140394364
 20
14.504795179161301
 30
0.0
 40
5.0
  1
φ7.5
  7
ゴシック
  0
ENDBLK
  5
44B
  8
0
  0
BLOCK
  8
0
  2
*U61
 70
     1
 10
0.0
 20
0.0
 30
0.0
  3
*U61
  1

  0
TEXT
  5
44D
  8
0
  6
CONTINUOUS
 62
     4
 10
66.422834884413817
 20
-39.681550647929861
 30
0.0
 40
5.0
  1
φ4.5
  7
ゴシック
  0
ENDBLK
  5
44F
  8
0
  0
BLOCK
  8
0
  2
*U62
 70
     1
 10
0.0
 20
0.0
 30
0.0
  3
*U62
  1

  0
TEXT
  5
45B
  8
0
  6
CONTINUOUS
 62
     4
 10
54.792892995813929
 20
20.555574954922001
 30
0.0
 40
5.0
  1
φ7.5
  7
ゴシック
  0
ENDBLK
  5
45D
  8
0
  0
BLOCK
  8
0
  2
*U63
 70
     1
 10
0.0
 20
0.0
 30
0.0
  3
*U63
  1

  0
TEXT
  5
45F
  8
0
  6
CONTINUOUS
 62
     4
 10
53.952461739833389
 20
-33.630770872169151
 30
0.0
 40
5.0
  1
φ4.2
  7
ゴシック
  0
ENDBLK
  5
461
  8
0
  0
ENDSEC
  0
SECTION
  2
ENTITIES
  0
LINE
  5
2F
  8
図枠
 62
     5
 10
73.367571997100001
 20
159.83142612680001
 30
0.0
 11
69.655071997099995
 21
153.40118750369999
 31
0.0
  0
LINE
  5
30
  8
図枠
 62
     5
 10
73.367571997100001
 20
159.83142612680001
 30
0.0
 11
77.080071997100006
 21
153.40118750369999
 31
0.0
  0
INSERT
  5
31
  8
0
  6
CONTINUOUS
  2
*U25
 10
0.0
 20
0.0
 30
0.0
  0
INSERT
  5
32
  8
0
  6
CONTINUOUS
  2
*U26
 10
0.0
 20
0.0
 30
0.0
  0
INSERT
  5
33
  8
0
  6
CONTINUOUS
  2
*U27
 10
0.0
 20
0.0
 30
0.0
  0
INSERT
  5
34
  8
0
  6
CONTINUOUS
  2
*U28
 10
0.0
 20
0.0
 30
0.0
  0
INSERT
  5
35
  8
0
  6
CONTINUOUS
  2
*U29
 10
0.0
 20
0.0
 30
0.0
  0
LINE
  5
37
  8
ﾚｲﾔ_10
  6
STITCH
 10
74.695410156299985
 20
92.240950520799998
 30
0.0
 11
76.345410156300005
 21
90.590950520799993
 31
0.0
  0
LINE
  5
38
  8
ﾚｲﾔ_10
  6
BORDER
 62
     3
 10
71.2643815104
 20
97.490950520800013
 30
0.0
 11
81.484857700900008
 21
97.490950520800013
 31
0.0
  0
LINE
  5
39
  8
ﾚｲﾔ_10
  6
STITCH
 10
74.695410156299985
 20
84.740950520799998
 30
0.0
 11
76.345410156300005
 21
86.390950520800004
 31
0.0
  0
LINE
  5
3A
  8
ﾚｲﾔ_10
 62
     5
 10
74.695410156299985
 20
112.4909505208
 30
0.0
 11
74.695410156299985
 21
82.490950520799984
 31
0.0
  0
LINE
  5
3B
  8
ﾚｲﾔ_10
 62
     5
 10
36.3015332429
 20
112.4909505208
 30
0.0
 11
77.695410156299999
 21
112.4909505208
 31
0.0
  0
LINE
  5
3C
  8
ﾚｲﾔ_10
 62
     5
 10
77.695410156299999
 20
82.490950520799984
 30
0.0
 11
36.3015332429
 21
82.490950520799984
 31
0.0
  0
LINE
  5
3D
  8
ﾚｲﾔ_10
  6
BORDER
 62
     3
 10
71.2643815104
 20
106.4909505208
 30
0.0
 11
81.484857700900008
 21
106.4909505208
 31
0.0
  0
LINE
  5
3E
  8
ﾚｲﾔ_10
  6
BORDER
 62
     3
 10
71.2643815104
 20
88.490950520799998
 30
0.0
 11
81.484857700900008
 21
88.490950520799998
 31
0.0
  0
LINE
  5
3F
  8
ﾚｲﾔ_10
  6
STITCH
 10
74.695410156299985
 20
110.2409505208
 30
0.0
 11
76.345410156300005
 21
108.59095052080001
 31
0.0
  0
LINE
  5
40
  8
ﾚｲﾔ_10
  6
STITCH
 10
74.695410156299985
 20
102.7409505208
 30
0.0
 11
76.345410156300005
 21
104.3909505208
 31
0.0
  0
LINE
  5
41
  8
ﾚｲﾔ_10
  6
STITCH
 10
74.695410156299985
 20
93.740950520799984
 30
0.0
 11
76.345410156300005
 21
95.390950520800004
 31
0.0
  0
LINE
  5
42
  8
ﾚｲﾔ_10
  6
STITCH
 10
74.695410156299985
 20
101.2409505208
 30
0.0
 11
76.345410156300005
 21
99.590950520800007
 31
0.0
  0
DIMENSION
  5
53
  8
寸法線
  2
*D0
 10
57.695410156299999
 20
67.490950520799998
 30
0.0
 11
67.695410156299999
 21
67.490950520799998
 31
0.0
 70
   128
  1
<>
 13
57.695410156299999
 23
92.490950520799984
 33
0.0
 14
77.695410156299999
 24
82.490950520799984
 34
0.0
 50
180.0
  0
LINE
  5
54
  8
図枠
 62
     5
 10
69.655071997099995
 20
153.40118750369999
 30
0.0
 11
77.080071997100006
 21
153.40118750369999
 31
0.0
  0
LINE
  5
55
  8
図枠
 62
     5
 10
67.794000076099991
 20
152.75499987719999
 30
0.0
 11
208.79400007609999
 21
152.75499987719999
 31
0.0
  0
LINE
  5
56
  8
図枠
 62
     5
 10
67.794000076099991
 20
160.25499987719999
 30
0.0
 11
208.79400007609999
 21
160.25499987719999
 31
0.0
  0
LINE
  5
57
  8
図枠
 62
     5
 10
193.79400007609999
 20
145.25499987719999
 30
0.0
 11
193.79400007609999
 21
167.75499987719999
 31
0.0
  0
LINE
  5
58
  8
図枠
 62
     5
 10
79.794000076099991
 20
145.25499987719999
 30
0.0
 11
79.794000076099991
 21
167.75499987719999
 31
0.0
  0
LINE
  5
59
  8
図枠
 62
     5
 10
178.79400007609999
 20
145.25499987719999
 30
0.0
 11
178.79400007609999
 21
167.75499987719999
 31
0.0
  0
LINE
  5
5A
  8
図枠
 62
     5
 10
69.655071997099995
 20
145.9761875037
 30
0.0
 11
77.080071997100006
 21
145.9761875037
 31
0.0
  0
LINE
  5
5B
  8
図枠
 62
     5
 10
67.794000076099991
 20
145.25499987719999
 30
0.0
 11
67.794000076099991
 21
167.75499987719999
 31
0.0
  0
LINE
  5
5C
  8
図枠
 62
     5
 10
67.794000076099991
 20
145.25499987719999
 30
0.0
 11
208.79400007609999
 21
145.25499987719999
 31
0.0
  0
LINE
  5
5D
  8
図枠
 62
     5
 10
103.79400007610001
 20
145.25499987719999
 30
0.0
 11
103.79400007610001
 21
167.75499987719999
 31
0.0
  0
LINE
  5
5E
  8
図枠
 62
     5
 10
73.367571997100001
 20
152.4064261268
 30
0.0
 11
77.080071997100006
 21
145.9761875037
 31
0.0
  0
LINE
  5
5F
  8
図枠
 62
     5
 10
73.367571997100001
 20
152.4064261268
 30
0.0
 11
69.655071997099995
 21
145.9761875037
 31
0.0
  0
LINE
  5
60
  8
ﾚｲﾔ_10
  6
STITCH
 10
76.345410156300005
 20
90.590950520799993
 30
0.0
 11
76.345410156300005
 21
86.390950520800004
 31
0.0
  0
LINE
  5
61
  8
ﾚｲﾔ_10
  6
STITCH
 10
76.345410156300005
 20
95.390950520800004
 30
0.0
 11
77.695410156299999
 21
95.390950520800004
 31
0.0
  0
LINE
  5
62
  8
ﾚｲﾔ_10
  6
STITCH
 10
76.345410156300005
 20
99.590950520800007
 30
0.0
 11
77.695410156299999
 21
99.590950520800007
 31
0.0
  0
LINE
  5
63
  8
ﾚｲﾔ_10
  6
STITCH
 10
76.345410156300005
 20
95.390950520800004
 30
0.0
 11
76.345410156300005
 21
99.590950520800007
 31
0.0
  0
LINE
  5
64
  8
ﾚｲﾔ_10
 62
     5
 10
77.695410156299999
 20
112.4909505208
 30
0.0
 11
77.695410156299999
 21
82.490950520799984
 31
0.0
  0
LINE
  5
65
  8
ﾚｲﾔ_10
  6
STITCH
 10
76.345410156300005
 20
90.590950520799993
 30
0.0
 11
77.695410156299999
 21
90.590950520799993
 31
0.0
  0
LINE
  5
66
  8
ﾚｲﾔ_10
  6
STITCH
 10
76.345410156300005
 20
86.390950520800004
 30
0.0
 11
77.695410156299999
 21
86.390950520800004
 31
0.0
  0
LINE
  5
67
  8
ﾚｲﾔ_10
  6
STITCH
 10
76.345410156300005
 20
104.3909505208
 30
0.0
 11
76.345410156300005
 21
108.59095052080001
 31
0.0
  0
LINE
  5
68
  8
ﾚｲﾔ_10
  6
STITCH
 10
76.345410156300005
 20
108.59095052080001
 30
0.0
 11
77.695410156299999
 21
108.59095052080001
 31
0.0
  0
LINE
  5
69
  8
ﾚｲﾔ_10
  6
STITCH
 10
76.345410156300005
 20
104.3909505208
 30
0.0
 11
77.695410156299999
 21
104.3909505208
 31
0.0
  0
LINE
  5
6A
  8
ﾚｲﾔ_10
  6
BORDER
 62
     3
 10
42.695410156299992
 20
111.4909505208
 30
0.0
 11
42.695410156299992
 21
101.4909505208
 31
0.0
  0
CIRCLE
  5
6B
  8
ﾚｲﾔ_10
 62
     5
 10
42.695410156299992
 20
88.490950520799998
 30
0.0
 40
3.75
  0
LINE
  5
6C
  8
ﾚｲﾔ_10
  6
BORDER
 62
     3
 10
42.695410156299992
 20
93.490950520799998
 30
0.0
 11
42.695410156299992
 21
83.490950520799998
 31
0.0
  0
LINE
  5
6D
  8
ﾚｲﾔ_10
  6
BORDER
 62
     3
 10
47.695410156299992
 20
88.490950520799998
 30
0.0
 11
37.695410156299999
 21
88.490950520799998
 31
0.0
  0
ARC
  5
6E
  8
ﾚｲﾔ_10
 62
     5
 10
65.695410156299999
 20
97.490950520800013
 30
0.0
 40
33.0
 50
152.9643082106
 51
207.0356917894
  0
LINE
  5
6F
  8
ﾚｲﾔ_10
  6
BORDER
 62
     3
 10
47.695410156299992
 20
106.4909505208
 30
0.0
 11
37.695410156299999
 21
106.4909505208
 31
0.0
  0
CIRCLE
  5
70
  8
ﾚｲﾔ_10
 62
     5
 10
42.695410156299992
 20
106.4909505208
 30
0.0
 40
3.75
  0
CIRCLE
  5
71
  8
ﾚｲﾔ_10
 62
     5
 10
42.695410156299992
 20
106.4909505208
 30
0.0
 40
2.1000000000000001
  0
CIRCLE
  5
72
  8
ﾚｲﾔ_10
 62
     5
 10
42.695410156299992
 20
88.490950520799998
 30
0.0
 40
2.1000000000000001
  0
LINE
  5
73
  8
ﾚｲﾔ_10
  6
BORDER
 62
     3
 10
57.695410156299999
 20
102.4909505208
 30
0.0
 11
57.695410156299999
 21
92.490950520799984
 31
0.0
  0
LINE
  5
74
  8
ﾚｲﾔ_10
  6
BORDER
 62
     3
 10
52.695410156299999
 20
97.490950520800013
 30
0.0
 11
62.695410156299999
 21
97.490950520800013
 31
0.0
  0
CIRCLE
  5
75
  8
ﾚｲﾔ_10
 62
     5
 10
57.695410156299999
 20
97.490950520800013
 30
0.0
 40
2.1000000000000001
  0
CIRCLE
  5
76
  8
ﾚｲﾔ_10
 62
     5
 10
57.695410156299999
 20
97.490950520800013
 30
0.0
 40
3.75
  0
DIMENSION
  5
85
  8
寸法線
  2
*D1
 10
32.695410156299999
 20
67.490950520799998
 30
0.0
 11
37.695410156299999
 21
67.490950520799998
 31
0.0
 70
   128
  1
<>
 13
32.695410156299999
 23
97.490950520800013
 33
0.0
 14
42.695410156299992
 24
82.490950520799984
 34
0.0
 50
180.0
  0
DIMENSION
  5
94
  8
寸法線
  2
*D2
 10
42.695410156299992
 20
67.490950520799998
 30
0.0
 11
50.195410156299999
 21
67.490950520799998
 31
0.0
 70
   128
  1
<>
 13
42.695410156299992
 23
82.490950520799984
 33
0.0
 14
57.695410156299999
 24
92.490950520799984
 34
0.0
 50
180.0
  0
LINE
  5
95
  8
図枠
 10
64.794000076099991
 20
-78.995000122799993
 30
0.0
 11
64.794000076099991
 21
-54.2450001228
 31
0.0
  0
LINE
  5
96
  8
図枠
 10
34.794000076099998
 20
-54.2450001228
 30
0.0
 11
34.794000076099998
 21
-78.995000122799993
 31
0.0
  0
INSERT
  5
97
  8
0
  6
CONTINUOUS
  2
*U30
 10
0.0
 20
0.0
 30
0.0
  0
INSERT
  5
98
  8
0
  6
CONTINUOUS
  2
*U31
 10
0.0
 20
0.0
 30
0.0
  0
INSERT
  5
99
  8
0
  6
CONTINUOUS
  2
*U32
 10
0.0
 20
0.0
 30
0.0
  0
INSERT
  5
9A
  8
0
  6
CONTINUOUS
  2
*U33
 10
0.0
 20
0.0
 30
0.0
  0
INSERT
  5
9B
  8
0
  6
CONTINUOUS
  2
*U34
 10
0.0
 20
0.0
 30
0.0
  0
INSERT
  5
9C
  8
0
  6
CONTINUOUS
  2
*U35
 10
0.0
 20
0.0
 30
0.0
  0
INSERT
  5
9D
  8
0
  6
CONTINUOUS
  2
*U36
 10
0.0
 20
0.0
 30
0.0
  0
INSERT
  5
9E
  8
0
  6
CONTINUOUS
  2
*U37
 10
0.0
 20
0.0
 30
0.0
  0
LINE
  5
9F
  8
図枠
 10
34.794000076099998
 20
-104.49500012279999
 30
0.0
 11
208.79400007609999
 21
-104.49500012279999
 31
0.0
  0
LINE
  5
A0
  8
図枠
 10
34.794000076099998
 20
-78.995000122799993
 30
0.0
 11
208.79400007609999
 21
-78.995000122799993
 31
0.0
  0
LINE
  5
A1
  8
図枠
 10
37.794000076099998
 20
-98.120000122800022
 30
0.0
 11
76.794000076099991
 21
-98.120000122800022
 31
0.0
  0
LINE
  5
A2
  8
図枠
 10
67.794000076099991
 20
-85.370000122799993
 30
0.0
 11
88.794000076100005
 21
-85.370000122799993
 31
0.0
  0
LINE
  5
A3
  8
図枠
 10
34.794000076099998
 20
-91.745000122800008
 30
0.0
 11
208.79400007609999
 21
-91.745000122800008
 31
0.0
  0
LINE
  5
A4
  8
図枠
 10
34.794000076099998
 20
-54.2450001228
 30
0.0
 11
208.79400007609999
 21
-54.2450001228
 31
0.0
  0
LINE
  5
A5
  8
図枠
 10
34.794000076099998
 20
-70.745000122799993
 30
0.0
 11
208.79400007609999
 21
-70.745000122799993
 31
0.0
  0
LINE
  5
A6
  8
図枠
 10
34.794000076099998
 20
-62.4950001228
 30
0.0
 11
208.79400007609999
 21
-62.4950001228
 31
0.0
  0
INSERT
  5
A7
  8
0
  6
CONTINUOUS
  2
*U38
 10
0.0
 20
0.0
 30
0.0
  0
INSERT
  5
A8
  8
0
  6
CONTINUOUS
  2
*U39
 10
0.0
 20
0.0
 30
0.0
  0
INSERT
  5
A9
  8
0
  6
CONTINUOUS
  2
*U40
 10
0.0
 20
0.0
 30
0.0
  0
INSERT
  5
AA
  8
0
  6
CONTINUOUS
  2
*U41
 10
0.0
 20
0.0
 30
0.0
  0
INSERT
  5
AB
  8
0
  6
CONTINUOUS
  2
*U42
 10
0.0
 20
0.0
 30
0.0
  0
INSERT
  5
AC
  8
0
  6
CONTINUOUS
  2
*U43
 10
0.0
 20
0.0
 30
0.0
  0
INSERT
  5
AD
  8
0
  6
CONTINUOUS
  2
*U44
 10
0.0
 20
0.0
 30
0.0
  0
LINE
  5
AE
  8
図枠
 10
86.989802125099985
 20
-106.5527925625
 30
0.0
 11
86.989802125099985
 21
-108.95279256249999
 31
0.0
  0
LINE
  5
AF
  8
図枠
  6
BORDER
 10
103.89000007609999
 20
-80.186000122799996
 30
0.0
 11
103.89000007609999
 21
-90.554000122800005
 31
0.0
  0
LINE
  5
B0
  8
図枠
 10
111.7897212929999
 20
-83.642000122799985
 30
0.0
 11
111.7897212929999
 21
-87.098000122800002
 31
0.0
  0
LINE
  5
B1
  8
図枠
 10
89.989802125099999
 20
-108.3527925625
 30
0.0
 11
91.789802125099996
 21
-106.5527925625
 31
0.0
  0
LINE
  5
B2
  8
図枠
 10
91.789802125099996
 20
-108.95279256249999
 30
0.0
 11
91.789802125099996
 21
-110.75279256250001
 31
0.0
  0
INSERT
  5
B3
  8
0
  6
CONTINUOUS
  2
*U45
 10
0.0
 20
0.0
 30
0.0
  0
INSERT
  5
B4
  8
0
  6
CONTINUOUS
  2
*U46
 10
0.0
 20
0.0
 30
0.0
  0
INSERT
  5
B5
  8
0
  6
CONTINUOUS
  2
*U47
 10
0.0
 20
0.0
 30
0.0
  0
INSERT
  5
B6
  8
0
  6
CONTINUOUS
  2
*U48
 10
0.0
 20
0.0
 30
0.0
  0
LINE
  5
B7
  8
図枠
 10
81.589802125099993
 20
-112.5527925625
 30
0.0
 11
84.589802125100007
 21
-112.5527925625
 31
0.0
  0
LINE
  5
B8
  8
図枠
 10
115.462237698
 20
-110.75279256250001
 30
0.0
 11
119.24350857580001
 21
-110.75279256250001
 31
0.0
  0
INSERT
  5
B9
  8
0
  6
CONTINUOUS
  2
*U49
 10
0.0
 20
0.0
 30
0.0
  0
INSERT
  5
BA
  8
0
  6
CONTINUOUS
  2
*U50
 10
0.0
 20
0.0
 30
0.0
  0
INSERT
  5
BB
  8
0
  6
CONTINUOUS
  2
*U51
 10
0.0
 20
0.0
 30
0.0
  0
INSERT
  5
BC
  8
0
  6
CONTINUOUS
  2
*U52
 10
0.0
 20
0.0
 30
0.0
  0
INSERT
  5
BD
  8
0
  6
CONTINUOUS
  2
*U53
 10
0.0
 20
0.0
 30
0.0
  0
INSERT
  5
BE
  8
0
  6
CONTINUOUS
  2
*U54
 10
0.0
 20
0.0
 30
0.0
  0
INSERT
  5
BF
  8
0
  6
CONTINUOUS
  2
*U55
 10
0.0
 20
0.0
 30
0.0
  0
INSERT
  5
C0
  8
0
  6
CONTINUOUS
  2
*U56
 10
0.0
 20
0.0
 30
0.0
  0
LINE
  5
C1
  8
図枠
 10
114.66499270280001
 20
-107.9823178939
 30
0.0
 11
115.6435085758
 21
-106.5527925625
 31
0.0
  0
LINE
  5
C2
  8
図枠
 10
86.989802125099985
 20
-108.95279256249999
 30
0.0
 11
84.589802125100007
 21
-108.95279256249999
 31
0.0
  0
LINE
  5
C3
  8
図枠
 10
37.794000076099998
 20
-85.370000122799993
 30
0.0
 11
61.794000076099991
 21
-85.370000122799993
 31
0.0
  0
LINE
  5
C4
  8
図枠
 10
34.794000076099998
 20
-54.2450001228
 30
0.0
 11
34.794000076099998
 21
-78.995000122799993
 31
0.0
  0
LINE
  5
C5
  8
図枠
 10
64.794000076099991
 20
-78.995000122799993
 30
0.0
 11
64.794000076099991
 21
-91.745000122800008
 31
0.0
  0
LINE
  5
C6
  8
図枠
 10
34.794000076099998
 20
-78.995000122799993
 30
0.0
 11
34.794000076099998
 21
-117.24500012279999
 31
0.0
  0
LINE
  5
C7
  8
図枠
 10
85.189802125099988
 20
-113.1527925625
 30
0.0
 11
81.589802125099993
 21
-113.1527925625
 31
0.0
  0
LINE
  5
C8
  8
図枠
 10
111.7897212929999
 20
-83.642000122799985
 30
0.0
 11
118.70172129300001
 21
-81.91400012279999
 31
0.0
  0
LINE
  5
C9
  8
図枠
 10
111.7897212929999
 20
-83.642000122799985
 30
0.0
 11
111.7897212929999
 21
-87.098000122800002
 31
0.0
  0
LINE
  5
CA
  8
図枠
 10
111.4419085758
 20
-108.59279256249999
 30
0.0
 11
110.8435085758
 21
-106.5527925625
 31
0.0
  0
LINE
  5
CB
  8
図枠
 10
114.84066580299999
 20
-108.59279256249999
 30
0.0
 11
119.24350857580001
 21
-108.59279256249999
 31
0.0
  0
LINE
  5
CC
  8
図枠
 10
118.70172129300001
 20
-81.91400012279999
 30
0.0
 11
118.70172129300001
 21
-88.826000122800011
 31
0.0
  0
LINE
  5
CD
  8
図枠
 10
105.7825293978
 20
-113.1527925625
 30
0.0
 11
105.7825293978
 21
-114.95279256249999
 31
0.0
  0
LINE
  5
CE
  8
図枠
 10
84.589802125100007
 20
-108.3527925625
 30
0.0
 11
86.389802125100005
 21
-106.5527925625
 31
0.0
  0
LINE
  5
CF
  8
図枠
 10
81.589802125099993
 20
-108.95279256249999
 30
0.0
 11
80.208477551200005
 21
-108.95279256249999
 31
0.0
  0
LINE
  5
D0
  8
図枠
 10
113.4835085758
 20
-115.5527925625
 30
0.0
 11
116.8435085758
 21
-115.5527925625
 31
0.0
  0
LINE
  5
D1
  8
図枠
 10
79.794000076099991
 20
-91.745000122800008
 30
0.0
 11
79.794000076099991
 21
-104.49500012279999
 31
0.0
  0
LINE
  5
D2
  8
図枠
 10
100.4261043879
 20
-110.77567764859999
 30
0.0
 11
100.1373894203
 21
-111.0945636813
 31
0.0
  0
LINE
  5
D3
  8
図枠
 10
104.5825293978
 20
-108.3527925625
 30
0.0
 11
105.7825293978
 21
-106.5527925625
 31
0.0
  0
LINE
  5
D4
  8
図枠
 10
116.8435085758
 20
-115.5527925625
 30
0.0
 11
116.3600637686
 21
-113.8727925625
 31
0.0
  0
LINE
  5
D5
  8
図枠
 10
82.794000076099977
 20
-98.120000122800022
 30
0.0
 11
121.79400007610001
 21
-98.120000122800022
 31
0.0
  0
ARC
  5
D6
  8
図枠
 10
96.422529397800005
 20
-108.59279256249999
 30
0.0
 40
4.5599999999999987
 50
270.0
 51
298.08590481520002
  0
ARC
  5
D7
  8
図枠
 10
97.982529397800008
 20
-108.3527925625
 30
0.0
 40
6.5999999999999988
 50
322.48761197969998
 51
0.0
  0
CIRCLE
  5
D8
  8
図枠
 10
103.89000007609999
 20
-85.370000122799993
 30
0.0
 40
1.728
  0
LINE
  5
D9
  8
図枠
 10
108.4435085758
 20
-110.75279256250001
 30
0.0
 11
112.0755085758
 21
-110.75279256250001
 31
0.0
  0
LINE
  5
DA
  8
図枠
  6
BORDER
 10
103.89000007609999
 20
-80.186000122799996
 30
0.0
 11
103.89000007609999
 21
-90.554000122800005
 31
0.0
  0
LINE
  5
DB
  8
図枠
 10
147.29400007609999
 20
-62.4950001228
 30
0.0
 11
147.29400007609999
 21
-54.2450001228
 31
0.0
  0
LINE
  5
DC
  8
図枠
 10
108.4435085758
 20
-111.7127925625
 30
0.0
 11
112.3571085758
 21
-111.7127925625
 31
0.0
  0
LINE
  5
DD
  8
図枠
 10
110.8435085758
 20
-106.5527925625
 30
0.0
 11
115.6435085758
 21
-106.5527925625
 31
0.0
  0
LINE
  5
DE
  8
図枠
 10
94.794000076100005
 20
-78.995000122799993
 30
0.0
 11
94.794000076100005
 21
-91.745000122800008
 31
0.0
  0
LINE
  5
DF
  8
図枠
 10
94.982529397799993
 20
-114.95279256249999
 30
0.0
 11
94.982529397799993
 21
-113.1527925625
 31
0.0
  0
CIRCLE
  5
E0
  8
図枠
 10
103.89000007609999
 20
-85.370000122799993
 30
0.0
 40
1.728
  0
LINE
  5
E1
  8
図枠
 10
111.7897212929999
 20
-87.098000122800002
 30
0.0
 11
118.70172129300001
 21
-88.826000122800011
 31
0.0
  0
ARC
  5
E2
  8
図枠
 10
86.389802125100005
 20
-111.3527925625
 30
0.0
 40
3.6000000000000001
 50
270.0
 51
0.0
  0
LINE
  5
E3
  8
図枠
 10
94.982529397799993
 20
-109.7258572045
 30
0.0
 11
94.982529397799993
 21
-109.3393248835
 31
0.0
  0
LINE
  5
E4
  8
図枠
 10
124.79400007610001
 20
-78.995000122799993
 30
0.0
 11
124.79400007610001
 21
-117.24500012279999
 31
0.0
  0
LINE
  5
E5
  8
図枠
 10
81.589802125099993
 20
-113.1527925625
 30
0.0
 11
81.589802125099993
 21
-114.95279256249999
 31
0.0
  0
LINE
  5
E6
  8
図枠
 10
103.2177926203
 20
-112.3717500133
 30
0.0
 11
103.00407014859999
 21
-112.5810037863
 31
0.0
  0
LINE
  5
E7
  8
図枠
 10
119.24350857580001
 20
-111.7127925625
 30
0.0
 11
119.24350857580001
 21
-113.8727925625
 31
0.0
  0
LINE
  5
E8
  8
図枠
 10
94.982529397799993
 20
-113.1527925625
 30
0.0
 11
96.422529397800005
 21
-113.1527925625
 31
0.0
  0
LINE
  5
E9
  8
図枠
 10
81.589802125099993
 20
-114.95279256249999
 30
0.0
 11
86.389802125100005
 21
-114.95279256249999
 31
0.0
  0
LINE
  5
EA
  8
図枠
 10
94.982529397799993
 20
-114.95279256249999
 30
0.0
 11
97.982529397800008
 21
-114.95279256249999
 31
0.0
  0
LINE
  5
EB
  8
図枠
 10
84.589802125100007
 20
-110.75279256250001
 30
0.0
 11
86.989802125099985
 21
-110.75279256250001
 31
0.0
  0
CIRCLE
  5
EC
  8
図枠
 10
103.89000007609999
 20
-85.370000122799993
 30
0.0
 40
3.456
  0
LINE
  5
ED
  8
図枠
 10
118.70172129300001
 20
-81.91400012279999
 30
0.0
 11
118.70172129300001
 21
-88.826000122800011
 31
0.0
  0
LINE
  5
EE
  8
図枠
 10
120.29400007610001
 20
-62.4950001228
 30
0.0
 11
120.29400007610001
 21
-54.2450001228
 31
0.0
  0
LINE
  5
EF
  8
図枠
 10
84.589802125100007
 20
-108.95279256249999
 30
0.0
 11
84.589802125100007
 21
-108.3527925625
 31
0.0
  0
LINE
  5
F0
  8
図枠
 10
91.789802125099996
 20
-106.5527925625
 30
0.0
 11
86.989802125099985
 21
-106.5527925625
 31
0.0
  0
LINE
  5
F1
  8
図枠
 10
108.4435085758
 20
-108.59279256249999
 30
0.0
 11
111.4419085758
 21
-108.59279256249999
 31
0.0
  0
LINE
  5
F2
  8
図枠
 10
119.24350857580001
 20
-108.59279256249999
 30
0.0
 11
119.24350857580001
 21
-110.75279256250001
 31
0.0
  0
LINE
  5
F3
  8
図枠
 10
84.589802125100007
 20
-112.5527925625
 30
0.0
 11
84.589802125100007
 21
-110.75279256250001
 31
0.0
  0
LINE
  5
F4
  8
図枠
 10
116.3600637686
 20
-113.8727925625
 30
0.0
 11
119.24350857580001
 21
-113.8727925625
 31
0.0
  0
LINE
  5
F5
  8
図枠
 10
86.389802125100005
 20
-106.5527925625
 30
0.0
 11
81.589802125099993
 21
-106.5527925625
 31
0.0
  0
LINE
  5
F6
  8
図枠
 10
115.7384918736
 20
-111.7127925625
 30
0.0
 11
115.462237698
 21
-110.75279256250001
 31
0.0
  0
LINE
  5
F7
  8
図枠
 10
108.4435085758
 20
-113.8727925625
 30
0.0
 11
112.9907085758
 21
-113.8727925625
 31
0.0
  0
LINE
  5
F8
  8
図枠
 10
105.7825293978
 20
-106.5527925625
 30
0.0
 11
94.982529397799993
 21
-106.5527925625
 31
0.0
  0
ARC
  5
F9
  8
図枠
 10
96.422529397800005
 20
-108.59279256249999
 30
0.0
 40
4.5599999999999987
 50
331.39928138329998
 51
358.49204224580001
  0
LINE
  5
FA
  8
図枠
 10
91.789802125099996
 20
-108.95279256249999
 30
0.0
 11
89.989802125099999
 21
-108.95279256249999
 31
0.0
  0
LINE
  5
FB
  8
図枠
 10
86.989802125099985
 20
-110.75279256250001
 30
0.0
 11
86.989802125099985
 21
-111.3527925625
 31
0.0
  0
LINE
  5
FC
  8
図枠
 10
111.7897212929999
 20
-87.098000122800002
 30
0.0
 11
118.70172129300001
 21
-88.826000122800011
 31
0.0
  0
CIRCLE
  5
FD
  8
図枠
 10
103.89000007609999
 20
-85.370000122799993
 30
0.0
 40
1.728
  0
LINE
  5
FE
  8
図枠
 10
113.4835085758
 20
-115.5527925625
 30
0.0
 11
112.9907085758
 21
-113.8727925625
 31
0.0
  0
POLYLINE
  8
図枠
  5
464
  66
     1
 10
0.000000
 20
0.000000
 30
0.000000
  70
     8
  0
VERTEX
  8
図枠
  5
465
 10
94.9825
 20
-109.726
 30
0.000000
  70
    32
  0
VERTEX
  8
図枠
  5
466
 10
95.0041
 20
-109.746
 30
0.000000
  70
    32
  0
VERTEX
  8
図枠
  5
467
 10
95.0258
 20
-109.766
 30
0.000000
  70
    32
  0
VERTEX
  8
図枠
  5
468
 10
95.0474
 20
-109.786
 30
0.000000
  70
    32
  0
VERTEX
  8
図枠
  5
469
 10
95.0690
 20
-109.806
 30
0.000000
  70
    32
  0
VERTEX
  8
図枠
  5
46A
 10
95.0906
 20
-109.825
 30
0.000000
  70
    32
  0
VERTEX
  8
図枠
  5
46B
 10
95.1122
 20
-109.845
 30
0.000000
  70
    32
  0
VERTEX
  8
図枠
  5
46C
 10
95.1338
 20
-109.865
 30
0.000000
  70
    32
  0
VERTEX
  8
図枠
  5
46D
 10
95.1555
 20
-109.885
 30
0.000000
  70
    32
  0
VERTEX
  8
図枠
  5
46E
 10
95.1771
 20
-109.905
 30
0.000000
  70
    32
  0
VERTEX
  8
図枠
  5
46F
 10
95.1987
 20
-109.925
 30
0.000000
  70
    32
  0
VERTEX
  8
図枠
  5
470
 10
95.2203
 20
-109.945
 30
0.000000
  70
    32
  0
VERTEX
  8
図枠
  5
471
 10
95.2420
 20
-109.965
 30
0.000000
  70
    32
  0
VERTEX
  8
図枠
  5
472
 10
95.2636
 20
-109.985
 30
0.000000
  70
    32
  0
VERTEX
  8
図枠
  5
473
 10
95.2852
 20
-110.005
 30
0.000000
  70
    32
  0
VERTEX
  8
図枠
  5
474
 10
95.3069
 20
-110.024
 30
0.000000
  70
    32
  0
VERTEX
  8
図枠
  5
475
 10
95.3285
 20
-110.044
 30
0.000000
  70
    32
  0
VERTEX
  8
図枠
  5
476
 10
95.3501
 20
-110.064
 30
0.000000
  70
    32
  0
VERTEX
  8
図枠
  5
477
 10
95.3718
 20
-110.084
 30
0.000000
  70
    32
  0
VERTEX
  8
図枠
  5
478
 10
95.3934
 20
-110.104
 30
0.000000
  70
    32
  0
VERTEX
  8
図枠
  5
479
 10
95.4151
 20
-110.124
 30
0.000000
  70
    32
  0
VERTEX
  8
図枠
  5
47A
 10
95.4368
 20
-110.144
 30
0.000000
  70
    32
  0
VERTEX
  8
図枠
  5
47B
 10
95.4584
 20
-110.163
 30
0.000000
  70
    32
  0
VERTEX
  8
図枠
  5
47C
 10
95.4801
 20
-110.183
 30
0.000000
  70
    32
  0
VERTEX
  8
図枠
  5
47D
 10
95.5018
 20
-110.203
 30
0.000000
  70
    32
  0
VERTEX
  8
図枠
  5
47E
 10
95.5235
 20
-110.223
 30
0.000000
  70
    32
  0
VERTEX
  8
図枠
  5
47F
 10
95.5451
 20
-110.243
 30
0.000000
  70
    32
  0
VERTEX
  8
図枠
  5
480
 10
95.5668
 20
-110.262
 30
0.000000
  70
    32
  0
VERTEX
  8
図枠
  5
481
 10
95.5885
 20
-110.282
 30
0.000000
  70
    32
  0
VERTEX
  8
図枠
  5
482
 10
95.6102
 20
-110.302
 30
0.000000
  70
    32
  0
VERTEX
  8
図枠
  5
483
 10
95.6319
 20
-110.322
 30
0.000000
  70
    32
  0
VERTEX
  8
図枠
  5
484
 10
95.6537
 20
-110.341
 30
0.000000
  70
    32
  0
VERTEX
  8
図枠
  5
485
 10
95.6754
 20
-110.361
 30
0.000000
  70
    32
  0
VERTEX
  8
図枠
  5
486
 10
95.6971
 20
-110.381
 30
0.000000
  70
    32
  0
VERTEX
  8
図枠
  5
487
 10
95.7189
 20
-110.401
 30
0.000000
  70
    32
  0
VERTEX
  8
図枠
  5
488
 10
95.7406
 20
-110.420
 30
0.000000
  70
    32
  0
VERTEX
  8
図枠
  5
489
 10
95.7624
 20
-110.440
 30
0.000000
  70
    32
  0
VERTEX
  8
図枠
  5
48A
 10
95.7841
 20
-110.460
 30
0.000000
  70
    32
  0
VERTEX
  8
図枠
  5
48B
 10
95.8059
 20
-110.479
 30
0.000000
  70
    32
  0
VERTEX
  8
図枠
  5
48C
 10
95.8277
 20
-110.499
 30
0.000000
  70
    32
  0
VERTEX
  8
図枠
  5
48D
 10
95.8495
 20
-110.518
 30
0.000000
  70
    32
  0
VERTEX
  8
図枠
  5
48E
 10
95.8713
 20
-110.538
 30
0.000000
  70
    32
  0
VERTEX
  8
図枠
  5
48F
 10
95.8931
 20
-110.558
 30
0.000000
  70
    32
  0
VERTEX
  8
図枠
  5
490
 10
95.9149
 20
-110.577
 30
0.000000
  70
    32
  0
VERTEX
  8
図枠
  5
491
 10
95.9367
 20
-110.597
 30
0.000000
  70
    32
  0
VERTEX
  8
図枠
  5
492
 10
95.9586
 20
-110.616
 30
0.000000
  70
    32
  0
VERTEX
  8
図枠
  5
493
 10
95.9804
 20
-110.636
 30
0.000000
  70
    32
  0
VERTEX
  8
図枠
  5
494
 10
96.0023
 20
-110.655
 30
0.000000
  70
    32
  0
VERTEX
  8
図枠
  5
495
 10
96.0241
 20
-110.675
 30
0.000000
  70
    32
  0
VERTEX
  8
図枠
  5
496
 10
96.0460
 20
-110.694
 30
0.000000
  70
    32
  0
VERTEX
  8
図枠
  5
497
 10
96.0679
 20
-110.713
 30
0.000000
  70
    32
  0
VERTEX
  8
図枠
  5
498
 10
96.0898
 20
-110.733
 30
0.000000
  70
    32
  0
VERTEX
  8
図枠
  5
499
 10
96.1117
 20
-110.752
 30
0.000000
  70
    32
  0
VERTEX
  8
図枠
  5
49A
 10
96.1336
 20
-110.771
 30
0.000000
  70
    32
  0
VERTEX
  8
図枠
  5
49B
 10
96.1556
 20
-110.791
 30
0.000000
  70
    32
  0
VERTEX
  8
図枠
  5
49C
 10
96.1775
 20
-110.810
 30
0.000000
  70
    32
  0
VERTEX
  8
図枠
  5
49D
 10
96.1995
 20
-110.829
 30
0.000000
  70
    32
  0
VERTEX
  8
図枠
  5
49E
 10
96.2214
 20
-110.849
 30
0.000000
  70
    32
  0
VERTEX
  8
図枠
  5
49F
 10
96.2434
 20
-110.868
 30
0.000000
  70
    32
  0
VERTEX
  8
図枠
  5
4A0
 10
96.2654
 20
-110.887
 30
0.000000
  70
    32
  0
VERTEX
  8
図枠
  5
4A1
 10
96.2874
 20
-110.906
 30
0.000000
  70
    32
  0
VERTEX
  8
図枠
  5
4A2
 10
96.3094
 20
-110.925
 30
0.000000
  70
    32
  0
VERTEX
  8
図枠
  5
4A3
 10
96.3315
 20
-110.945
 30
0.000000
  70
    32
  0
VERTEX
  8
図枠
  5
4A4
 10
96.3535
 20
-110.964
 30
0.000000
  70
    32
  0
VERTEX
  8
図枠
  5
4A5
 10
96.3756
 20
-110.983
 30
0.000000
  70
    32
  0
VERTEX
  8
図枠
  5
4A6
 10
96.3977
 20
-111.002
 30
0.000000
  70
    32
  0
VERTEX
  8
図枠
  5
4A7
 10
96.4198
 20
-111.021
 30
0.000000
  70
    32
  0
VERTEX
  8
図枠
  5
4A8
 10
96.4419
 20
-111.040
 30
0.000000
  70
    32
  0
VERTEX
  8
図枠
  5
4A9
 10
96.4640
 20
-111.059
 30
0.000000
  70
    32
  0
VERTEX
  8
図枠
  5
4AA
 10
96.4862
 20
-111.078
 30
0.000000
  70
    32
  0
VERTEX
  8
図枠
  5
4AB
 10
96.5083
 20
-111.097
 30
0.000000
  70
    32
  0
VERTEX
  8
図枠
  5
4AC
 10
96.5305
 20
-111.116
 30
0.000000
  70
    32
  0
VERTEX
  8
図枠
  5
4AD
 10
96.5527
 20
-111.135
 30
0.000000
  70
    32
  0
VERTEX
  8
図枠
  5
4AE
 10
96.5749
 20
-111.153
 30
0.000000
  70
    32
  0
VERTEX
  8
図枠
  5
4AF
 10
96.5971
 20
-111.172
 30
0.000000
  70
    32
  0
VERTEX
  8
図枠
  5
4B0
 10
96.6193
 20
-111.191
 30
0.000000
  70
    32
  0
VERTEX
  8
図枠
  5
4B1
 10
96.6416
 20
-111.210
 30
0.000000
  70
    32
  0
VERTEX
  8
図枠
  5
4B2
 10
96.6638
 20
-111.228
 30
0.000000
  70
    32
  0
VERTEX
  8
図枠
  5
4B3
 10
96.6861
 20
-111.247
 30
0.000000
  70
    32
  0
VERTEX
  8
図枠
  5
4B4
 10
96.7084
 20
-111.266
 30
0.000000
  70
    32
  0
VERTEX
  8
図枠
  5
4B5
 10
96.7308
 20
-111.284
 30
0.000000
  70
    32
  0
VERTEX
  8
図枠
  5
4B6
 10
96.7531
 20
-111.303
 30
0.000000
  70
    32
  0
VERTEX
  8
図枠
  5
4B7
 10
96.7755
 20
-111.321
 30
0.000000
  70
    32
  0
VERTEX
  8
図枠
  5
4B8
 10
96.7978
 20
-111.340
 30
0.000000
  70
    32
  0
VERTEX
  8
図枠
  5
4B9
 10
96.8202
 20
-111.358
 30
0.000000
  70
    32
  0
VERTEX
  8
図枠
  5
4BA
 10
96.8426
 20
-111.377
 30
0.000000
  70
    32
  0
VERTEX
  8
図枠
  5
4BB
 10
96.8651
 20
-111.395
 30
0.000000
  70
    32
  0
VERTEX
  8
図枠
  5
4BC
 10
96.8875
 20
-111.414
 30
0.000000
  70
    32
  0
VERTEX
  8
図枠
  5
4BD
 10
96.9100
 20
-111.432
 30
0.000000
  70
    32
  0
VERTEX
  8
図枠
  5
4BE
 10
96.9325
 20
-111.450
 30
0.000000
  70
    32
  0
VERTEX
  8
図枠
  5
4BF
 10
96.9550
 20
-111.469
 30
0.000000
  70
    32
  0
VERTEX
  8
図枠
  5
4C0
 10
96.9775
 20
-111.487
 30
0.000000
  70
    32
  0
VERTEX
  8
図枠
  5
4C1
 10
97.0001
 20
-111.505
 30
0.000000
  70
    32
  0
VERTEX
  8
図枠
  5
4C2
 10
97.0227
 20
-111.523
 30
0.000000
  70
    32
  0
VERTEX
  8
図枠
  5
4C3
 10
97.0453
 20
-111.541
 30
0.000000
  70
    32
  0
VERTEX
  8
図枠
  5
4C4
 10
97.0679
 20
-111.559
 30
0.000000
  70
    32
  0
VERTEX
  8
図枠
  5
4C5
 10
97.0905
 20
-111.577
 30
0.000000
  70
    32
  0
VERTEX
  8
図枠
  5
4C6
 10
97.1132
 20
-111.595
 30
0.000000
  70
    32
  0
VERTEX
  8
図枠
  5
4C7
 10
97.1359
 20
-111.613
 30
0.000000
  70
    32
  0
VERTEX
  8
図枠
  5
4C8
 10
97.1586
 20
-111.631
 30
0.000000
  70
    32
  0
VERTEX
  8
図枠
  5
4C9
 10
97.1813
 20
-111.649
 30
0.000000
  70
    32
  0
VERTEX
  8
図枠
  5
4CA
 10
97.2040
 20
-111.667
 30
0.000000
  70
    32
  0
VERTEX
  8
図枠
  5
4CB
 10
97.2268
 20
-111.685
 30
0.000000
  70
    32
  0
VERTEX
  8
図枠
  5
4CC
 10
97.2496
 20
-111.702
 30
0.000000
  70
    32
  0
VERTEX
  8
図枠
  5
4CD
 10
97.2724
 20
-111.720
 30
0.000000
  70
    32
  0
VERTEX
  8
図枠
  5
4CE
 10
97.2952
 20
-111.738
 30
0.000000
  70
    32
  0
VERTEX
  8
図枠
  5
4CF
 10
97.3181
 20
-111.755
 30
0.000000
  70
    32
  0
VERTEX
  8
図枠
  5
4D0
 10
97.3410
 20
-111.773
 30
0.000000
  70
    32
  0
VERTEX
  8
図枠
  5
4D1
 10
97.3639
 20
-111.790
 30
0.000000
  70
    32
  0
VERTEX
  8
図枠
  5
4D2
 10
97.3868
 20
-111.808
 30
0.000000
  70
    32
  0
VERTEX
  8
図枠
  5
4D3
 10
97.4098
 20
-111.825
 30
0.000000
  70
    32
  0
VERTEX
  8
図枠
  5
4D4
 10
97.4328
 20
-111.843
 30
0.000000
  70
    32
  0
VERTEX
  8
図枠
  5
4D5
 10
97.4558
 20
-111.860
 30
0.000000
  70
    32
  0
VERTEX
  8
図枠
  5
4D6
 10
97.4788
 20
-111.877
 30
0.000000
  70
    32
  0
VERTEX
  8
図枠
  5
4D7
 10
97.5019
 20
-111.895
 30
0.000000
  70
    32
  0
VERTEX
  8
図枠
  5
4D8
 10
97.5250
 20
-111.912
 30
0.000000
  70
    32
  0
VERTEX
  8
図枠
  5
4D9
 10
97.5481
 20
-111.929
 30
0.000000
  70
    32
  0
VERTEX
  8
図枠
  5
4DA
 10
97.5712
 20
-111.946
 30
0.000000
  70
    32
  0
VERTEX
  8
図枠
  5
4DB
 10
97.5944
 20
-111.963
 30
0.000000
  70
    32
  0
VERTEX
  8
図枠
  5
4DC
 10
97.6175
 20
-111.980
 30
0.000000
  70
    32
  0
VERTEX
  8
図枠
  5
4DD
 10
97.6408
 20
-111.997
 30
0.000000
  70
    32
  0
VERTEX
  8
図枠
  5
4DE
 10
97.6640
 20
-112.014
 30
0.000000
  70
    32
  0
VERTEX
  8
図枠
  5
4DF
 10
97.6873
 20
-112.031
 30
0.000000
  70
    32
  0
VERTEX
  8
図枠
  5
4E0
 10
97.7106
 20
-112.048
 30
0.000000
  70
    32
  0
VERTEX
  8
図枠
  5
4E1
 10
97.7339
 20
-112.065
 30
0.000000
  70
    32
  0
VERTEX
  8
図枠
  5
4E2
 10
97.7572
 20
-112.081
 30
0.000000
  70
    32
  0
VERTEX
  8
図枠
  5
4E3
 10
97.7806
 20
-112.098
 30
0.000000
  70
    32
  0
VERTEX
  8
図枠
  5
4E4
 10
97.8040
 20
-112.115
 30
0.000000
  70
    32
  0
VERTEX
  8
図枠
  5
4E5
 10
97.8275
 20
-112.131
 30
0.000000
  70
    32
  0
VERTEX
  8
図枠
  5
4E6
 10
97.8509
 20
-112.148
 30
0.000000
  70
    32
  0
VERTEX
  8
図枠
  5
4E7
 10
97.8744
 20
-112.164
 30
0.000000
  70
    32
  0
VERTEX
  8
図枠
  5
4E8
 10
97.8980
 20
-112.180
 30
0.000000
  70
    32
  0
VERTEX
  8
図枠
  5
4E9
 10
97.9215
 20
-112.197
 30
0.000000
  70
    32
  0
VERTEX
  8
図枠
  5
4EA
 10
97.9451
 20
-112.213
 30
0.000000
  70
    32
  0
VERTEX
  8
図枠
  5
4EB
 10
97.9687
 20
-112.229
 30
0.000000
  70
    32
  0
VERTEX
  8
図枠
  5
4EC
 10
97.9923
 20
-112.245
 30
0.000000
  70
    32
  0
VERTEX
  8
図枠
  5
4ED
 10
98.0160
 20
-112.262
 30
0.000000
  70
    32
  0
VERTEX
  8
図枠
  5
4EE
 10
98.0397
 20
-112.278
 30
0.000000
  70
    32
  0
VERTEX
  8
図枠
  5
4EF
 10
98.0635
 20
-112.294
 30
0.000000
  70
    32
  0
VERTEX
  8
図枠
  5
4F0
 10
98.0872
 20
-112.310
 30
0.000000
  70
    32
  0
VERTEX
  8
図枠
  5
4F1
 10
98.1110
 20
-112.325
 30
0.000000
  70
    32
  0
VERTEX
  8
図枠
  5
4F2
 10
98.1348
 20
-112.341
 30
0.000000
  70
    32
  0
VERTEX
  8
図枠
  5
4F3
 10
98.1587
 20
-112.357
 30
0.000000
  70
    32
  0
VERTEX
  8
図枠
  5
4F4
 10
98.1826
 20
-112.373
 30
0.000000
  70
    32
  0
VERTEX
  8
図枠
  5
4F5
 10
98.2065
 20
-112.388
 30
0.000000
  70
    32
  0
VERTEX
  8
図枠
  5
4F6
 10
98.2305
 20
-112.404
 30
0.000000
  70
    32
  0
VERTEX
  8
図枠
  5
4F7
 10
98.2545
 20
-112.420
 30
0.000000
  70
    32
  0
VERTEX
  8
図枠
  5
4F8
 10
98.2785
 20
-112.435
 30
0.000000
  70
    32
  0
VERTEX
  8
図枠
  5
4F9
 10
98.3025
 20
-112.450
 30
0.000000
  70
    32
  0
VERTEX
  8
図枠
  5
4FA
 10
98.3266
 20
-112.466
 30
0.000000
  70
    32
  0
VERTEX
  8
図枠
  5
4FB
 10
98.3507
 20
-112.481
 30
0.000000
  70
    32
  0
VERTEX
  8
図枠
  5
4FC
 10
98.3749
 20
-112.496
 30
0.000000
  70
    32
  0
VERTEX
  8
図枠
  5
4FD
 10
98.3991
 20
-112.511
 30
0.000000
  70
    32
  0
VERTEX
  8
図枠
  5
4FE
 10
98.4233
 20
-112.527
 30
0.000000
  70
    32
  0
VERTEX
  8
図枠
  5
4FF
 10
98.4476
 20
-112.542
 30
0.000000
  70
    32
  0
VERTEX
  8
図枠
  5
500
 10
98.4718
 20
-112.557
 30
0.000000
  70
    32
  0
VERTEX
  8
図枠
  5
501
 10
98.4962
 20
-112.571
 30
0.000000
  70
    32
  0
VERTEX
  8
図枠
  5
502
 10
98.5205
 20
-112.586
 30
0.000000
  70
    32
  0
VERTEX
  8
図枠
  5
503
 10
98.5449
 20
-112.601
 30
0.000000
  70
    32
  0
VERTEX
  8
図枠
  5
504
 10
98.5694
 20
-112.616
 30
0.000000
  70
    32
  0
SEQEND
  8
図枠
  5
505
  0
LINE
  5
100
  8
図枠
 10
115.7384918736
 20
-111.7127925625
 30
0.0
 11
119.24350857580001
 21
-111.7127925625
 31
0.0
  0
LINE
  5
101
  8
図枠
 10
104.5825293978
 20
-108.3527925625
 30
0.0
 11
105.7825293978
 21
-106.5527925625
 31
0.0
  0
LINE
  5
102
  8
図枠
 10
111.7897212929999
 20
-87.098000122800002
 30
0.0
 11
118.70172129300001
 21
-88.826000122800011
 31
0.0
  0
LINE
  5
103
  8
図枠
 10
81.589802125099993
 20
-110.75279256250001
 30
0.0
 11
81.589802125099993
 21
-112.5527925625
 31
0.0
  0
LINE
  5
104
  8
図枠
  6
BORDER
 10
103.89000007609999
 20
-80.186000122799996
 30
0.0
 11
103.89000007609999
 21
-90.554000122800005
 31
0.0
  0
LINE
  5
105
  8
図枠
  6
BORDER
 10
103.89000007609999
 20
-80.186000122799996
 30
0.0
 11
103.89000007609999
 21
-90.554000122800005
 31
0.0
  0
ARC
  5
106
  8
図枠
 10
97.982529397800008
 20
-108.3527925625
 30
0.0
 40
6.5999999999999988
 50
270.0
 51
302.54495885400001
  0
POLYLINE
  8
図枠
  5
506
  66
     1
 10
0.000000
 20
0.000000
 30
0.000000
  70
     8
  0
VERTEX
  8
図枠
  5
507
 10
101.533
 20
-113.916
 30
0.000000
  70
    32
  0
VERTEX
  8
図枠
  5
508
 10
101.565
 20
-113.927
 30
0.000000
  70
    32
  0
VERTEX
  8
図枠
  5
509
 10
101.598
 20
-113.937
 30
0.000000
  70
    32
  0
VERTEX
  8
図枠
  5
50A
 10
101.630
 20
-113.947
 30
0.000000
  70
    32
  0
VERTEX
  8
図枠
  5
50B
 10
101.662
 20
-113.957
 30
0.000000
  70
    32
  0
VERTEX
  8
図枠
  5
50C
 10
101.695
 20
-113.967
 30
0.000000
  70
    32
  0
VERTEX
  8
図枠
  5
50D
 10
101.727
 20
-113.977
 30
0.000000
  70
    32
  0
VERTEX
  8
図枠
  5
50E
 10
101.760
 20
-113.987
 30
0.000000
  70
    32
  0
VERTEX
  8
図枠
  5
50F
 10
101.792
 20
-113.997
 30
0.000000
  70
    32
  0
VERTEX
  8
図枠
  5
510
 10
101.825
 20
-114.007
 30
0.000000
  70
    32
  0
VERTEX
  8
図枠
  5
511
 10
101.857
 20
-114.017
 30
0.000000
  70
    32
  0
VERTEX
  8
図枠
  5
512
 10
101.890
 20
-114.027
 30
0.000000
  70
    32
  0
VERTEX
  8
図枠
  5
513
 10
101.922
 20
-114.037
 30
0.000000
  70
    32
  0
VERTEX
  8
図枠
  5
514
 10
101.955
 20
-114.046
 30
0.000000
  70
    32
  0
VERTEX
  8
図枠
  5
515
 10
101.988
 20
-114.056
 30
0.000000
  70
    32
  0
VERTEX
  8
図枠
  5
516
 10
102.020
 20
-114.066
 30
0.000000
  70
    32
  0
VERTEX
  8
図枠
  5
517
 10
102.053
 20
-114.075
 30
0.000000
  70
    32
  0
VERTEX
  8
図枠
  5
518
 10
102.086
 20
-114.085
 30
0.000000
  70
    32
  0
VERTEX
  8
図枠
  5
519
 10
102.119
 20
-114.094
 30
0.000000
  70
    32
  0
VERTEX
  8
図枠
  5
51A
 10
102.151
 20
-114.104
 30
0.000000
  70
    32
  0
VERTEX
  8
図枠
  5
51B
 10
102.184
 20
-114.113
 30
0.000000
  70
    32
  0
VERTEX
  8
図枠
  5
51C
 10
102.217
 20
-114.123
 30
0.000000
  70
    32
  0
VERTEX
  8
図枠
  5
51D
 10
102.250
 20
-114.132
 30
0.000000
  70
    32
  0
VERTEX
  8
図枠
  5
51E
 10
102.283
 20
-114.141
 30
0.000000
  70
    32
  0
VERTEX
  8
図枠
  5
51F
 10
102.315
 20
-114.150
 30
0.000000
  70
    32
  0
VERTEX
  8
図枠
  5
520
 10
102.348
 20
-114.160
 30
0.000000
  70
    32
  0
VERTEX
  8
図枠
  5
521
 10
102.381
 20
-114.169
 30
0.000000
  70
    32
  0
VERTEX
  8
図枠
  5
522
 10
102.414
 20
-114.178
 30
0.000000
  70
    32
  0
VERTEX
  8
図枠
  5
523
 10
102.447
 20
-114.187
 30
0.000000
  70
    32
  0
VERTEX
  8
図枠
  5
524
 10
102.480
 20
-114.196
 30
0.000000
  70
    32
  0
VERTEX
  8
図枠
  5
525
 10
102.513
 20
-114.205
 30
0.000000
  70
    32
  0
VERTEX
  8
図枠
  5
526
 10
102.546
 20
-114.214
 30
0.000000
  70
    32
  0
VERTEX
  8
図枠
  5
527
 10
102.579
 20
-114.223
 30
0.000000
  70
    32
  0
VERTEX
  8
図枠
  5
528
 10
102.612
 20
-114.232
 30
0.000000
  70
    32
  0
VERTEX
  8
図枠
  5
529
 10
102.645
 20
-114.241
 30
0.000000
  70
    32
  0
VERTEX
  8
図枠
  5
52A
 10
102.679
 20
-114.249
 30
0.000000
  70
    32
  0
VERTEX
  8
図枠
  5
52B
 10
102.712
 20
-114.258
 30
0.000000
  70
    32
  0
VERTEX
  8
図枠
  5
52C
 10
102.745
 20
-114.267
 30
0.000000
  70
    32
  0
VERTEX
  8
図枠
  5
52D
 10
102.778
 20
-114.276
 30
0.000000
  70
    32
  0
VERTEX
  8
図枠
  5
52E
 10
102.811
 20
-114.284
 30
0.000000
  70
    32
  0
VERTEX
  8
図枠
  5
52F
 10
102.844
 20
-114.293
 30
0.000000
  70
    32
  0
VERTEX
  8
図枠
  5
530
 10
102.878
 20
-114.301
 30
0.000000
  70
    32
  0
VERTEX
  8
図枠
  5
531
 10
102.911
 20
-114.310
 30
0.000000
  70
    32
  0
VERTEX
  8
図枠
  5
532
 10
102.944
 20
-114.318
 30
0.000000
  70
    32
  0
VERTEX
  8
図枠
  5
533
 10
102.977
 20
-114.327
 30
0.000000
  70
    32
  0
VERTEX
  8
図枠
  5
534
 10
103.011
 20
-114.335
 30
0.000000
  70
    32
  0
VERTEX
  8
図枠
  5
535
 10
103.044
 20
-114.344
 30
0.000000
  70
    32
  0
VERTEX
  8
図枠
  5
536
 10
103.077
 20
-114.352
 30
0.000000
  70
    32
  0
VERTEX
  8
図枠
  5
537
 10
103.111
 20
-114.361
 30
0.000000
  70
    32
  0
VERTEX
  8
図枠
  5
538
 10
103.144
 20
-114.369
 30
0.000000
  70
    32
  0
VERTEX
  8
図枠
  5
539
 10
103.178
 20
-114.377
 30
0.000000
  70
    32
  0
VERTEX
  8
図枠
  5
53A
 10
103.211
 20
-114.385
 30
0.000000
  70
    32
  0
VERTEX
  8
図枠
  5
53B
 10
103.244
 20
-114.394
 30
0.000000
  70
    32
  0
VERTEX
  8
図枠
  5
53C
 10
103.278
 20
-114.402
 30
0.000000
  70
    32
  0
VERTEX
  8
図枠
  5
53D
 10
103.311
 20
-114.410
 30
0.000000
  70
    32
  0
VERTEX
  8
図枠
  5
53E
 10
103.345
 20
-114.418
 30
0.000000
  70
    32
  0
VERTEX
  8
図枠
  5
53F
 10
103.378
 20
-114.426
 30
0.000000
  70
    32
  0
VERTEX
  8
図枠
  5
540
 10
103.412
 20
-114.434
 30
0.000000
  70
    32
  0
VERTEX
  8
図枠
  5
541
 10
103.445
 20
-114.442
 30
0.000000
  70
    32
  0
VERTEX
  8
図枠
  5
542
 10
103.479
 20
-114.450
 30
0.000000
  70
    32
  0
VERTEX
  8
図枠
  5
543
 10
103.512
 20
-114.458
 30
0.000000
  70
    32
  0
VERTEX
  8
図枠
  5
544
 10
103.546
 20
-114.466
 30
0.000000
  70
    32
  0
VERTEX
  8
図枠
  5
545
 10
103.580
 20
-114.474
 30
0.000000
  70
    32
  0
VERTEX
  8
図枠
  5
546
 10
103.613
 20
-114.482
 30
0.000000
  70
    32
  0
VERTEX
  8
図枠
  5
547
 10
103.647
 20
-114.490
 30
0.000000
  70
    32
  0
VERTEX
  8
図枠
  5
548
 10
103.680
 20
-114.498
 30
0.000000
  70
    32
  0
VERTEX
  8
図枠
  5
549
 10
103.714
 20
-114.506
 30
0.000000
  70
    32
  0
VERTEX
  8
図枠
  5
54A
 10
103.748
 20
-114.514
 30
0.000000
  70
    32
  0
VERTEX
  8
図枠
  5
54B
 10
103.781
 20
-114.521
 30
0.000000
  70
    32
  0
VERTEX
  8
図枠
  5
54C
 10
103.815
 20
-114.529
 30
0.000000
  70
    32
  0
VERTEX
  8
図枠
  5
54D
 10
103.849
 20
-114.537
 30
0.000000
  70
    32
  0
VERTEX
  8
図枠
  5
54E
 10
103.882
 20
-114.545
 30
0.000000
  70
    32
  0
VERTEX
  8
図枠
  5
54F
 10
103.916
 20
-114.552
 30
0.000000
  70
    32
  0
VERTEX
  8
図枠
  5
550
 10
103.950
 20
-114.560
 30
0.000000
  70
    32
  0
VERTEX
  8
図枠
  5
551
 10
103.984
 20
-114.568
 30
0.000000
  70
    32
  0
VERTEX
  8
図枠
  5
552
 10
104.017
 20
-114.575
 30
0.000000
  70
    32
  0
VERTEX
  8
図枠
  5
553
 10
104.051
 20
-114.583
 30
0.000000
  70
    32
  0
VERTEX
  8
図枠
  5
554
 10
104.085
 20
-114.591
 30
0.000000
  70
    32
  0
VERTEX
  8
図枠
  5
555
 10
104.119
 20
-114.598
 30
0.000000
  70
    32
  0
VERTEX
  8
図枠
  5
556
 10
104.152
 20
-114.606
 30
0.000000
  70
    32
  0
VERTEX
  8
図枠
  5
557
 10
104.186
 20
-114.613
 30
0.000000
  70
    32
  0
VERTEX
  8
図枠
  5
558
 10
104.220
 20
-114.621
 30
0.000000
  70
    32
  0
VERTEX
  8
図枠
  5
559
 10
104.254
 20
-114.628
 30
0.000000
  70
    32
  0
VERTEX
  8
図枠
  5
55A
 10
104.288
 20
-114.636
 30
0.000000
  70
    32
  0
VERTEX
  8
図枠
  5
55B
 10
104.321
 20
-114.643
 30
0.000000
  70
    32
  0
VERTEX
  8
図枠
  5
55C
 10
104.355
 20
-114.651
 30
0.000000
  70
    32
  0
VERTEX
  8
図枠
  5
55D
 10
104.389
 20
-114.658
 30
0.000000
  70
    32
  0
VERTEX
  8
図枠
  5
55E
 10
104.423
 20
-114.665
 30
0.000000
  70
    32
  0
VERTEX
  8
図枠
  5
55F
 10
104.457
 20
-114.673
 30
0.000000
  70
    32
  0
VERTEX
  8
図枠
  5
560
 10
104.491
 20
-114.680
 30
0.000000
  70
    32
  0
VERTEX
  8
図枠
  5
561
 10
104.525
 20
-114.688
 30
0.000000
  70
    32
  0
VERTEX
  8
図枠
  5
562
 10
104.559
 20
-114.695
 30
0.000000
  70
    32
  0
VERTEX
  8
図枠
  5
563
 10
104.592
 20
-114.702
 30
0.000000
  70
    32
  0
VERTEX
  8
図枠
  5
564
 10
104.626
 20
-114.710
 30
0.000000
  70
    32
  0
VERTEX
  8
図枠
  5
565
 10
104.660
 20
-114.717
 30
0.000000
  70
    32
  0
VERTEX
  8
図枠
  5
566
 10
104.694
 20
-114.724
 30
0.000000
  70
    32
  0
VERTEX
  8
図枠
  5
567
 10
104.728
 20
-114.731
 30
0.000000
  70
    32
  0
VERTEX
  8
図枠
  5
568
 10
104.762
 20
-114.739
 30
0.000000
  70
    32
  0
VERTEX
  8
図枠
  5
569
 10
104.796
 20
-114.746
 30
0.000000
  70
    32
  0
VERTEX
  8
図枠
  5
56A
 10
104.830
 20
-114.753
 30
0.000000
  70
    32
  0
VERTEX
  8
図枠
  5
56B
 10
104.864
 20
-114.760
 30
0.000000
  70
    32
  0
VERTEX
  8
図枠
  5
56C
 10
104.898
 20
-114.768
 30
0.000000
  70
    32
  0
VERTEX
  8
図枠
  5
56D
 10
104.932
 20
-114.775
 30
0.000000
  70
    32
  0
VERTEX
  8
図枠
  5
56E
 10
104.966
 20
-114.782
 30
0.000000
  70
    32
  0
VERTEX
  8
図枠
  5
56F
 10
105.000
 20
-114.789
 30
0.000000
  70
    32
  0
VERTEX
  8
図枠
  5
570
 10
105.034
 20
-114.796
 30
0.000000
  70
    32
  0
VERTEX
  8
図枠
  5
571
 10
105.068
 20
-114.804
 30
0.000000
  70
    32
  0
VERTEX
  8
図枠
  5
572
 10
105.102
 20
-114.811
 30
0.000000
  70
    32
  0
VERTEX
  8
図枠
  5
573
 10
105.136
 20
-114.818
 30
0.000000
  70
    32
  0
VERTEX
  8
図枠
  5
574
 10
105.170
 20
-114.825
 30
0.000000
  70
    32
  0
VERTEX
  8
図枠
  5
575
 10
105.204
 20
-114.832
 30
0.000000
  70
    32
  0
VERTEX
  8
図枠
  5
576
 10
105.238
 20
-114.839
 30
0.000000
  70
    32
  0
VERTEX
  8
図枠
  5
577
 10
105.272
 20
-114.846
 30
0.000000
  70
    32
  0
VERTEX
  8
図枠
  5
578
 10
105.306
 20
-114.854
 30
0.000000
  70
    32
  0
VERTEX
  8
図枠
  5
579
 10
105.340
 20
-114.861
 30
0.000000
  70
    32
  0
VERTEX
  8
図枠
  5
57A
 10
105.374
 20
-114.868
 30
0.000000
  70
    32
  0
VERTEX
  8
図枠
  5
57B
 10
105.408
 20
-114.875
 30
0.000000
  70
    32
  0
VERTEX
  8
図枠
  5
57C
 10
105.442
 20
-114.882
 30
0.000000
  70
    32
  0
VERTEX
  8
図枠
  5
57D
 10
105.476
 20
-114.889
 30
0.000000
  70
    32
  0
VERTEX
  8
図枠
  5
57E
 10
105.510
 20
-114.896
 30
0.000000
  70
    32
  0
VERTEX
  8
図枠
  5
57F
 10
105.544
 20
-114.903
 30
0.000000
  70
    32
  0
VERTEX
  8
図枠
  5
580
 10
105.578
 20
-114.910
 30
0.000000
  70
    32
  0
VERTEX
  8
図枠
  5
581
 10
105.612
 20
-114.917
 30
0.000000
  70
    32
  0
VERTEX
  8
図枠
  5
582
 10
105.646
 20
-114.924
 30
0.000000
  70
    32
  0
VERTEX
  8
図枠
  5
583
 10
105.680
 20
-114.932
 30
0.000000
  70
    32
  0
VERTEX
  8
図枠
  5
584
 10
105.714
 20
-114.939
 30
0.000000
  70
    32
  0
VERTEX
  8
図枠
  5
585
 10
105.748
 20
-114.946
 30
0.000000
  70
    32
  0
VERTEX
  8
図枠
  5
586
 10
105.783
 20
-114.953
 30
0.000000
  70
    32
  0
SEQEND
  8
図枠
  5
587
  0
POLYLINE
  8
図枠
  5
588
  66
     1
 10
0.000000
 20
0.000000
 30
0.000000
  70
     8
  0
VERTEX
  8
図枠
  5
589
 10
99.1037
 20
-110.018
 30
0.000000
  70
    32
  0
VERTEX
  8
図枠
  5
58A
 10
99.1116
 20
-110.027
 30
0.000000
  70
    32
  0
VERTEX
  8
図枠
  5
58B
 10
99.1195
 20
-110.036
 30
0.000000
  70
    32
  0
VERTEX
  8
図枠
  5
58C
 10
99.1275
 20
-110.045
 30
0.000000
  70
    32
  0
VERTEX
  8
図枠
  5
58D
 10
99.1354
 20
-110.053
 30
0.000000
  70
    32
  0
VERTEX
  8
図枠
  5
58E
 10
99.1433
 20
-110.062
 30
0.000000
  70
    32
  0
VERTEX
  8
図枠
  5
58F
 10
99.1512
 20
-110.071
 30
0.000000
  70
    32
  0
VERTEX
  8
図枠
  5
590
 10
99.1591
 20
-110.080
 30
0.000000
  70
    32
  0
VERTEX
  8
図枠
  5
591
 10
99.1671
 20
-110.089
 30
0.000000
  70
    32
  0
VERTEX
  8
図枠
  5
592
 10
99.1750
 20
-110.098
 30
0.000000
  70
    32
  0
VERTEX
  8
図枠
  5
593
 10
99.1829
 20
-110.106
 30
0.000000
  70
    32
  0
VERTEX
  8
図枠
  5
594
 10
99.1908
 20
-110.115
 30
0.000000
  70
    32
  0
VERTEX
  8
図枠
  5
595
 10
99.1988
 20
-110.124
 30
0.000000
  70
    32
  0
VERTEX
  8
図枠
  5
596
 10
99.2067
 20
-110.133
 30
0.000000
  70
    32
  0
VERTEX
  8
図枠
  5
597
 10
99.2146
 20
-110.142
 30
0.000000
  70
    32
  0
VERTEX
  8
図枠
  5
598
 10
99.2225
 20
-110.151
 30
0.000000
  70
    32
  0
VERTEX
  8
図枠
  5
599
 10
99.2305
 20
-110.159
 30
0.000000
  70
    32
  0
VERTEX
  8
図枠
  5
59A
 10
99.2384
 20
-110.168
 30
0.000000
  70
    32
  0
VERTEX
  8
図枠
  5
59B
 10
99.2463
 20
-110.177
 30
0.000000
  70
    32
  0
VERTEX
  8
図枠
  5
59C
 10
99.2543
 20
-110.186
 30
0.000000
  70
    32
  0
VERTEX
  8
図枠
  5
59D
 10
99.2622
 20
-110.195
 30
0.000000
  70
    32
  0
VERTEX
  8
図枠
  5
59E
 10
99.2701
 20
-110.203
 30
0.000000
  70
    32
  0
VERTEX
  8
図枠
  5
59F
 10
99.2781
 20
-110.212
 30
0.000000
  70
    32
  0
VERTEX
  8
図枠
  5
5A0
 10
99.2860
 20
-110.221
 30
0.000000
  70
    32
  0
VERTEX
  8
図枠
  5
5A1
 10
99.2940
 20
-110.230
 30
0.000000
  70
    32
  0
VERTEX
  8
図枠
  5
5A2
 10
99.3019
 20
-110.239
 30
0.000000
  70
    32
  0
VERTEX
  8
図枠
  5
5A3
 10
99.3098
 20
-110.247
 30
0.000000
  70
    32
  0
VERTEX
  8
図枠
  5
5A4
 10
99.3178
 20
-110.256
 30
0.000000
  70
    32
  0
VERTEX
  8
図枠
  5
5A5
 10
99.3257
 20
-110.265
 30
0.000000
  70
    32
  0
VERTEX
  8
図枠
  5
5A6
 10
99.3337
 20
-110.274
 30
0.000000
  70
    32
  0
VERTEX
  8
図枠
  5
5A7
 10
99.3417
 20
-110.282
 30
0.000000
  70
    32
  0
VERTEX
  8
図枠
  5
5A8
 10
99.3496
 20
-110.291
 30
0.000000
  70
    32
  0
VERTEX
  8
図枠
  5
5A9
 10
99.3576
 20
-110.300
 30
0.000000
  70
    32
  0
VERTEX
  8
図枠
  5
5AA
 10
99.3655
 20
-110.309
 30
0.000000
  70
    32
  0
VERTEX
  8
図枠
  5
5AB
 10
99.3735
 20
-110.318
 30
0.000000
  70
    32
  0
VERTEX
  8
図枠
  5
5AC
 10
99.3815
 20
-110.326
 30
0.000000
  70
    32
  0
VERTEX
  8
図枠
  5
5AD
 10
99.3894
 20
-110.335
 30
0.000000
  70
    32
  0
VERTEX
  8
図枠
  5
5AE
 10
99.3974
 20
-110.344
 30
0.000000
  70
    32
  0
VERTEX
  8
図枠
  5
5AF
 10
99.4054
 20
-110.352
 30
0.000000
  70
    32
  0
VERTEX
  8
図枠
  5
5B0
 10
99.4134
 20
-110.361
 30
0.000000
  70
    32
  0
VERTEX
  8
図枠
  5
5B1
 10
99.4213
 20
-110.370
 30
0.000000
  70
    32
  0
VERTEX
  8
図枠
  5
5B2
 10
99.4293
 20
-110.379
 30
0.000000
  70
    32
  0
VERTEX
  8
図枠
  5
5B3
 10
99.4373
 20
-110.387
 30
0.000000
  70
    32
  0
VERTEX
  8
図枠
  5
5B4
 10
99.4453
 20
-110.396
 30
0.000000
  70
    32
  0
VERTEX
  8
図枠
  5
5B5
 10
99.4533
 20
-110.405
 30
0.000000
  70
    32
  0
VERTEX
  8
図枠
  5
5B6
 10
99.4613
 20
-110.413
 30
0.000000
  70
    32
  0
VERTEX
  8
図枠
  5
5B7
 10
99.4693
 20
-110.422
 30
0.000000
  70
    32
  0
VERTEX
  8
図枠
  5
5B8
 10
99.4773
 20
-110.431
 30
0.000000
  70
    32
  0
VERTEX
  8
図枠
  5
5B9
 10
99.4853
 20
-110.440
 30
0.000000
  70
    32
  0
VERTEX
  8
図枠
  5
5BA
 10
99.4934
 20
-110.448
 30
0.000000
  70
    32
  0
VERTEX
  8
図枠
  5
5BB
 10
99.5014
 20
-110.457
 30
0.000000
  70
    32
  0
VERTEX
  8
図枠
  5
5BC
 10
99.5094
 20
-110.466
 30
0.000000
  70
    32
  0
VERTEX
  8
図枠
  5
5BD
 10
99.5174
 20
-110.474
 30
0.000000
  70
    32
  0
VERTEX
  8
図枠
  5
5BE
 10
99.5255
 20
-110.483
 30
0.000000
  70
    32
  0
VERTEX
  8
図枠
  5
5BF
 10
99.5335
 20
-110.492
 30
0.000000
  70
    32
  0
VERTEX
  8
図枠
  5
5C0
 10
99.5415
 20
-110.500
 30
0.000000
  70
    32
  0
VERTEX
  8
図枠
  5
5C1
 10
99.5496
 20
-110.509
 30
0.000000
  70
    32
  0
VERTEX
  8
図枠
  5
5C2
 10
99.5576
 20
-110.517
 30
0.000000
  70
    32
  0
VERTEX
  8
図枠
  5
5C3
 10
99.5657
 20
-110.526
 30
0.000000
  70
    32
  0
VERTEX
  8
図枠
  5
5C4
 10
99.5737
 20
-110.535
 30
0.000000
  70
    32
  0
VERTEX
  8
図枠
  5
5C5
 10
99.5818
 20
-110.543
 30
0.000000
  70
    32
  0
VERTEX
  8
図枠
  5
5C6
 10
99.5899
 20
-110.552
 30
0.000000
  70
    32
  0
VERTEX
  8
図枠
  5
5C7
 10
99.5979
 20
-110.560
 30
0.000000
  70
    32
  0
VERTEX
  8
図枠
  5
5C8
 10
99.6060
 20
-110.569
 30
0.000000
  70
    32
  0
VERTEX
  8
図枠
  5
5C9
 10
99.6141
 20
-110.578
 30
0.000000
  70
    32
  0
VERTEX
  8
図枠
  5
5CA
 10
99.6222
 20
-110.586
 30
0.000000
  70
    32
  0
VERTEX
  8
図枠
  5
5CB
 10
99.6303
 20
-110.595
 30
0.000000
  70
    32
  0
VERTEX
  8
図枠
  5
5CC
 10
99.6384
 20
-110.603
 30
0.000000
  70
    32
  0
VERTEX
  8
図枠
  5
5CD
 10
99.6465
 20
-110.612
 30
0.000000
  70
    32
  0
VERTEX
  8
図枠
  5
5CE
 10
99.6546
 20
-110.620
 30
0.000000
  70
    32
  0
VERTEX
  8
図枠
  5
5CF
 10
99.6627
 20
-110.629
 30
0.000000
  70
    32
  0
VERTEX
  8
図枠
  5
5D0
 10
99.6709
 20
-110.637
 30
0.000000
  70
    32
  0
VERTEX
  8
図枠
  5
5D1
 10
99.6790
 20
-110.646
 30
0.000000
  70
    32
  0
VERTEX
  8
図枠
  5
5D2
 10
99.6871
 20
-110.654
 30
0.000000
  70
    32
  0
VERTEX
  8
図枠
  5
5D3
 10
99.6953
 20
-110.663
 30
0.000000
  70
    32
  0
VERTEX
  8
図枠
  5
5D4
 10
99.7034
 20
-110.671
 30
0.000000
  70
    32
  0
VERTEX
  8
図枠
  5
5D5
 10
99.7116
 20
-110.680
 30
0.000000
  70
    32
  0
VERTEX
  8
図枠
  5
5D6
 10
99.7197
 20
-110.688
 30
0.000000
  70
    32
  0
VERTEX
  8
図枠
  5
5D7
 10
99.7279
 20
-110.696
 30
0.000000
  70
    32
  0
VERTEX
  8
図枠
  5
5D8
 10
99.7361
 20
-110.705
 30
0.000000
  70
    32
  0
VERTEX
  8
図枠
  5
5D9
 10
99.7442
 20
-110.713
 30
0.000000
  70
    32
  0
VERTEX
  8
図枠
  5
5DA
 10
99.7524
 20
-110.722
 30
0.000000
  70
    32
  0
VERTEX
  8
図枠
  5
5DB
 10
99.7606
 20
-110.730
 30
0.000000
  70
    32
  0
VERTEX
  8
図枠
  5
5DC
 10
99.7688
 20
-110.738
 30
0.000000
  70
    32
  0
VERTEX
  8
図枠
  5
5DD
 10
99.7770
 20
-110.747
 30
0.000000
  70
    32
  0
VERTEX
  8
図枠
  5
5DE
 10
99.7852
 20
-110.755
 30
0.000000
  70
    32
  0
VERTEX
  8
図枠
  5
5DF
 10
99.7934
 20
-110.764
 30
0.000000
  70
    32
  0
VERTEX
  8
図枠
  5
5E0
 10
99.8017
 20
-110.772
 30
0.000000
  70
    32
  0
VERTEX
  8
図枠
  5
5E1
 10
99.8099
 20
-110.780
 30
0.000000
  70
    32
  0
VERTEX
  8
図枠
  5
5E2
 10
99.8181
 20
-110.789
 30
0.000000
  70
    32
  0
VERTEX
  8
図枠
  5
5E3
 10
99.8264
 20
-110.797
 30
0.000000
  70
    32
  0
VERTEX
  8
図枠
  5
5E4
 10
99.8346
 20
-110.805
 30
0.000000
  70
    32
  0
VERTEX
  8
図枠
  5
5E5
 10
99.8429
 20
-110.813
 30
0.000000
  70
    32
  0
VERTEX
  8
図枠
  5
5E6
 10
99.8512
 20
-110.822
 30
0.000000
  70
    32
  0
VERTEX
  8
図枠
  5
5E7
 10
99.8594
 20
-110.830
 30
0.000000
  70
    32
  0
VERTEX
  8
図枠
  5
5E8
 10
99.8677
 20
-110.838
 30
0.000000
  70
    32
  0
VERTEX
  8
図枠
  5
5E9
 10
99.8760
 20
-110.846
 30
0.000000
  70
    32
  0
VERTEX
  8
図枠
  5
5EA
 10
99.8843
 20
-110.855
 30
0.000000
  70
    32
  0
VERTEX
  8
図枠
  5
5EB
 10
99.8926
 20
-110.863
 30
0.000000
  70
    32
  0
VERTEX
  8
図枠
  5
5EC
 10
99.9009
 20
-110.871
 30
0.000000
  70
    32
  0
VERTEX
  8
図枠
  5
5ED
 10
99.9093
 20
-110.879
 30
0.000000
  70
    32
  0
VERTEX
  8
図枠
  5
5EE
 10
99.9176
 20
-110.887
 30
0.000000
  70
    32
  0
VERTEX
  8
図枠
  5
5EF
 10
99.9259
 20
-110.895
 30
0.000000
  70
    32
  0
VERTEX
  8
図枠
  5
5F0
 10
99.9343
 20
-110.904
 30
0.000000
  70
    32
  0
VERTEX
  8
図枠
  5
5F1
 10
99.9426
 20
-110.912
 30
0.000000
  70
    32
  0
VERTEX
  8
図枠
  5
5F2
 10
99.9510
 20
-110.920
 30
0.000000
  70
    32
  0
VERTEX
  8
図枠
  5
5F3
 10
99.9594
 20
-110.928
 30
0.000000
  70
    32
  0
VERTEX
  8
図枠
  5
5F4
 10
99.9678
 20
-110.936
 30
0.000000
  70
    32
  0
VERTEX
  8
図枠
  5
5F5
 10
99.9762
 20
-110.944
 30
0.000000
  70
    32
  0
VERTEX
  8
図枠
  5
5F6
 10
99.9846
 20
-110.952
 30
0.000000
  70
    32
  0
VERTEX
  8
図枠
  5
5F7
 10
99.9930
 20
-110.960
 30
0.000000
  70
    32
  0
VERTEX
  8
図枠
  5
5F8
 10
100.001
 20
-110.968
 30
0.000000
  70
    32
  0
VERTEX
  8
図枠
  5
5F9
 10
100.010
 20
-110.976
 30
0.000000
  70
    32
  0
VERTEX
  8
図枠
  5
5FA
 10
100.018
 20
-110.984
 30
0.000000
  70
    32
  0
VERTEX
  8
図枠
  5
5FB
 10
100.027
 20
-110.992
 30
0.000000
  70
    32
  0
VERTEX
  8
図枠
  5
5FC
 10
100.035
 20
-111.000
 30
0.000000
  70
    32
  0
VERTEX
  8
図枠
  5
5FD
 10
100.044
 20
-111.008
 30
0.000000
  70
    32
  0
VERTEX
  8
図枠
  5
5FE
 10
100.052
 20
-111.016
 30
0.000000
  70
    32
  0
VERTEX
  8
図枠
  5
5FF
 10
100.061
 20
-111.024
 30
0.000000
  70
    32
  0
VERTEX
  8
図枠
  5
600
 10
100.069
 20
-111.032
 30
0.000000
  70
    32
  0
VERTEX
  8
図枠
  5
601
 10
100.078
 20
-111.040
 30
0.000000
  70
    32
  0
VERTEX
  8
図枠
  5
602
 10
100.086
 20
-111.048
 30
0.000000
  70
    32
  0
VERTEX
  8
図枠
  5
603
 10
100.095
 20
-111.056
 30
0.000000
  70
    32
  0
VERTEX
  8
図枠
  5
604
 10
100.103
 20
-111.063
 30
0.000000
  70
    32
  0
VERTEX
  8
図枠
  5
605
 10
100.112
 20
-111.071
 30
0.000000
  70
    32
  0
VERTEX
  8
図枠
  5
606
 10
100.120
 20
-111.079
 30
0.000000
  70
    32
  0
VERTEX
  8
図枠
  5
607
 10
100.129
 20
-111.087
 30
0.000000
  70
    32
  0
VERTEX
  8
図枠
  5
608
 10
100.137
 20
-111.095
 30
0.000000
  70
    32
  0
SEQEND
  8
図枠
  5
609
  0
LINE
  5
109
  8
図枠
 10
94.982529397799993
 20
-108.7127925625
 30
0.0
 11
100.98252939779999
 21
-108.7127925625
 31
0.0
  0
LINE
  5
10A
  8
図枠
 10
108.4435085758
 20
-111.7127925625
 30
0.0
 11
108.4435085758
 21
-113.8727925625
 31
0.0
  0
LINE
  5
10B
  8
図枠
 10
111.7897212929999
 20
-83.642000122799985
 30
0.0
 11
111.7897212929999
 21
-87.098000122800002
 31
0.0
  0
LINE
  5
10C
  8
図枠
 10
111.7897212929999
 20
-83.642000122799985
 30
0.0
 11
118.70172129300001
 21
-81.91400012279999
 31
0.0
  0
LINE
  5
10D
  8
図枠
 10
89.989802125099999
 20
-110.75279256250001
 30
0.0
 11
91.789802125099996
 21
-110.75279256250001
 31
0.0
  0
LINE
  5
10E
  8
図枠
 10
80.208477551200005
 20
-108.95279256249999
 30
0.0
 11
80.208477551200005
 21
-110.75279256250001
 31
0.0
  0
LINE
  5
10F
  8
図枠
 10
94.982529397799993
 20
-113.1527925625
 30
0.0
 11
94.982529397799993
 21
-114.95279256249999
 31
0.0
  0
POLYLINE
  8
図枠
  5
60A
  66
     1
 10
0.000000
 20
0.000000
 30
0.000000
  70
     8
  0
VERTEX
  8
図枠
  5
60B
 10
103.004
 20
-112.581
 30
0.000000
  70
    32
  0
VERTEX
  8
図枠
  5
60C
 10
103.025
 20
-112.587
 30
0.000000
  70
    32
  0
VERTEX
  8
図枠
  5
60D
 10
103.046
 20
-112.593
 30
0.000000
  70
    32
  0
VERTEX
  8
図枠
  5
60E
 10
103.067
 20
-112.599
 30
0.000000
  70
    32
  0
VERTEX
  8
図枠
  5
60F
 10
103.088
 20
-112.605
 30
0.000000
  70
    32
  0
VERTEX
  8
図枠
  5
610
 10
103.109
 20
-112.610
 30
0.000000
  70
    32
  0
VERTEX
  8
図枠
  5
611
 10
103.130
 20
-112.616
 30
0.000000
  70
    32
  0
VERTEX
  8
図枠
  5
612
 10
103.151
 20
-112.622
 30
0.000000
  70
    32
  0
VERTEX
  8
図枠
  5
613
 10
103.173
 20
-112.628
 30
0.000000
  70
    32
  0
VERTEX
  8
図枠
  5
614
 10
103.194
 20
-112.633
 30
0.000000
  70
    32
  0
VERTEX
  8
図枠
  5
615
 10
103.215
 20
-112.639
 30
0.000000
  70
    32
  0
VERTEX
  8
図枠
  5
616
 10
103.236
 20
-112.645
 30
0.000000
  70
    32
  0
VERTEX
  8
図枠
  5
617
 10
103.257
 20
-112.650
 30
0.000000
  70
    32
  0
VERTEX
  8
図枠
  5
618
 10
103.278
 20
-112.656
 30
0.000000
  70
    32
  0
VERTEX
  8
図枠
  5
619
 10
103.300
 20
-112.661
 30
0.000000
  70
    32
  0
VERTEX
  8
図枠
  5
61A
 10
103.321
 20
-112.667
 30
0.000000
  70
    32
  0
VERTEX
  8
図枠
  5
61B
 10
103.342
 20
-112.672
 30
0.000000
  70
    32
  0
VERTEX
  8
図枠
  5
61C
 10
103.364
 20
-112.678
 30
0.000000
  70
    32
  0
VERTEX
  8
図枠
  5
61D
 10
103.385
 20
-112.683
 30
0.000000
  70
    32
  0
VERTEX
  8
図枠
  5
61E
 10
103.406
 20
-112.688
 30
0.000000
  70
    32
  0
VERTEX
  8
図枠
  5
61F
 10
103.428
 20
-112.694
 30
0.000000
  70
    32
  0
VERTEX
  8
図枠
  5
620
 10
103.449
 20
-112.699
 30
0.000000
  70
    32
  0
VERTEX
  8
図枠
  5
621
 10
103.470
 20
-112.704
 30
0.000000
  70
    32
  0
VERTEX
  8
図枠
  5
622
 10
103.492
 20
-112.710
 30
0.000000
  70
    32
  0
VERTEX
  8
図枠
  5
623
 10
103.513
 20
-112.715
 30
0.000000
  70
    32
  0
VERTEX
  8
図枠
  5
624
 10
103.535
 20
-112.720
 30
0.000000
  70
    32
  0
VERTEX
  8
図枠
  5
625
 10
103.556
 20
-112.725
 30
0.000000
  70
    32
  0
VERTEX
  8
図枠
  5
626
 10
103.578
 20
-112.730
 30
0.000000
  70
    32
  0
VERTEX
  8
図枠
  5
627
 10
103.599
 20
-112.735
 30
0.000000
  70
    32
  0
VERTEX
  8
図枠
  5
628
 10
103.621
 20
-112.741
 30
0.000000
  70
    32
  0
VERTEX
  8
図枠
  5
629
 10
103.642
 20
-112.746
 30
0.000000
  70
    32
  0
VERTEX
  8
図枠
  5
62A
 10
103.664
 20
-112.751
 30
0.000000
  70
    32
  0
VERTEX
  8
図枠
  5
62B
 10
103.685
 20
-112.756
 30
0.000000
  70
    32
  0
VERTEX
  8
図枠
  5
62C
 10
103.707
 20
-112.761
 30
0.000000
  70
    32
  0
VERTEX
  8
図枠
  5
62D
 10
103.728
 20
-112.766
 30
0.000000
  70
    32
  0
VERTEX
  8
図枠
  5
62E
 10
103.750
 20
-112.771
 30
0.000000
  70
    32
  0
VERTEX
  8
図枠
  5
62F
 10
103.772
 20
-112.775
 30
0.000000
  70
    32
  0
VERTEX
  8
図枠
  5
630
 10
103.793
 20
-112.780
 30
0.000000
  70
    32
  0
VERTEX
  8
図枠
  5
631
 10
103.815
 20
-112.785
 30
0.000000
  70
    32
  0
VERTEX
  8
図枠
  5
632
 10
103.837
 20
-112.790
 30
0.000000
  70
    32
  0
VERTEX
  8
図枠
  5
633
 10
103.858
 20
-112.795
 30
0.000000
  70
    32
  0
VERTEX
  8
図枠
  5
634
 10
103.880
 20
-112.800
 30
0.000000
  70
    32
  0
VERTEX
  8
図枠
  5
635
 10
103.902
 20
-112.804
 30
0.000000
  70
    32
  0
VERTEX
  8
図枠
  5
636
 10
103.923
 20
-112.809
 30
0.000000
  70
    32
  0
VERTEX
  8
図枠
  5
637
 10
103.945
 20
-112.814
 30
0.000000
  70
    32
  0
VERTEX
  8
図枠
  5
638
 10
103.967
 20
-112.819
 30
0.000000
  70
    32
  0
VERTEX
  8
図枠
  5
639
 10
103.989
 20
-112.823
 30
0.000000
  70
    32
  0
VERTEX
  8
図枠
  5
63A
 10
104.010
 20
-112.828
 30
0.000000
  70
    32
  0
VERTEX
  8
図枠
  5
63B
 10
104.032
 20
-112.833
 30
0.000000
  70
    32
  0
VERTEX
  8
図枠
  5
63C
 10
104.054
 20
-112.837
 30
0.000000
  70
    32
  0
VERTEX
  8
図枠
  5
63D
 10
104.076
 20
-112.842
 30
0.000000
  70
    32
  0
VERTEX
  8
図枠
  5
63E
 10
104.098
 20
-112.846
 30
0.000000
  70
    32
  0
VERTEX
  8
図枠
  5
63F
 10
104.120
 20
-112.851
 30
0.000000
  70
    32
  0
VERTEX
  8
図枠
  5
640
 10
104.141
 20
-112.855
 30
0.000000
  70
    32
  0
VERTEX
  8
図枠
  5
641
 10
104.163
 20
-112.860
 30
0.000000
  70
    32
  0
VERTEX
  8
図枠
  5
642
 10
104.185
 20
-112.864
 30
0.000000
  70
    32
  0
VERTEX
  8
図枠
  5
643
 10
104.207
 20
-112.869
 30
0.000000
  70
    32
  0
VERTEX
  8
図枠
  5
644
 10
104.229
 20
-112.873
 30
0.000000
  70
    32
  0
VERTEX
  8
図枠
  5
645
 10
104.251
 20
-112.878
 30
0.000000
  70
    32
  0
VERTEX
  8
図枠
  5
646
 10
104.273
 20
-112.882
 30
0.000000
  70
    32
  0
VERTEX
  8
図枠
  5
647
 10
104.295
 20
-112.886
 30
0.000000
  70
    32
  0
VERTEX
  8
図枠
  5
648
 10
104.317
 20
-112.891
 30
0.000000
  70
    32
  0
VERTEX
  8
図枠
  5
649
 10
104.339
 20
-112.895
 30
0.000000
  70
    32
  0
VERTEX
  8
図枠
  5
64A
 10
104.361
 20
-112.900
 30
0.000000
  70
    32
  0
VERTEX
  8
図枠
  5
64B
 10
104.383
 20
-112.904
 30
0.000000
  70
    32
  0
VERTEX
  8
図枠
  5
64C
 10
104.405
 20
-112.908
 30
0.000000
  70
    32
  0
VERTEX
  8
図枠
  5
64D
 10
104.427
 20
-112.912
 30
0.000000
  70
    32
  0
VERTEX
  8
図枠
  5
64E
 10
104.449
 20
-112.917
 30
0.000000
  70
    32
  0
VERTEX
  8
図枠
  5
64F
 10
104.471
 20
-112.921
 30
0.000000
  70
    32
  0
VERTEX
  8
図枠
  5
650
 10
104.493
 20
-112.925
 30
0.000000
  70
    32
  0
VERTEX
  8
図枠
  5
651
 10
104.515
 20
-112.929
 30
0.000000
  70
    32
  0
VERTEX
  8
図枠
  5
652
 10
104.537
 20
-112.934
 30
0.000000
  70
    32
  0
VERTEX
  8
図枠
  5
653
 10
104.559
 20
-112.938
 30
0.000000
  70
    32
  0
VERTEX
  8
図枠
  5
654
 10
104.581
 20
-112.942
 30
0.000000
  70
    32
  0
VERTEX
  8
図枠
  5
655
 10
104.603
 20
-112.946
 30
0.000000
  70
    32
  0
VERTEX
  8
図枠
  5
656
 10
104.625
 20
-112.950
 30
0.000000
  70
    32
  0
VERTEX
  8
図枠
  5
657
 10
104.647
 20
-112.954
 30
0.000000
  70
    32
  0
VERTEX
  8
図枠
  5
658
 10
104.669
 20
-112.959
 30
0.000000
  70
    32
  0
VERTEX
  8
図枠
  5
659
 10
104.692
 20
-112.963
 30
0.000000
  70
    32
  0
VERTEX
  8
図枠
  5
65A
 10
104.714
 20
-112.967
 30
0.000000
  70
    32
  0
VERTEX
  8
図枠
  5
65B
 10
104.736
 20
-112.971
 30
0.000000
  70
    32
  0
VERTEX
  8
図枠
  5
65C
 10
104.758
 20
-112.975
 30
0.000000
  70
    32
  0
VERTEX
  8
図枠
  5
65D
 10
104.780
 20
-112.979
 30
0.000000
  70
    32
  0
VERTEX
  8
図枠
  5
65E
 10
104.802
 20
-112.983
 30
0.000000
  70
    32
  0
VERTEX
  8
図枠
  5
65F
 10
104.825
 20
-112.987
 30
0.000000
  70
    32
  0
VERTEX
  8
図枠
  5
660
 10
104.847
 20
-112.991
 30
0.000000
  70
    32
  0
VERTEX
  8
図枠
  5
661
 10
104.869
 20
-112.995
 30
0.000000
  70
    32
  0
VERTEX
  8
図枠
  5
662
 10
104.891
 20
-112.999
 30
0.000000
  70
    32
  0
VERTEX
  8
図枠
  5
663
 10
104.913
 20
-113.003
 30
0.000000
  70
    32
  0
VERTEX
  8
図枠
  5
664
 10
104.935
 20
-113.007
 30
0.000000
  70
    32
  0
VERTEX
  8
図枠
  5
665
 10
104.958
 20
-113.011
 30
0.000000
  70
    32
  0
VERTEX
  8
図枠
  5
666
 10
104.980
 20
-113.015
 30
0.000000
  70
    32
  0
VERTEX
  8
図枠
  5
667
 10
105.002
 20
-113.019
 30
0.000000
  70
    32
  0
VERTEX
  8
図枠
  5
668
 10
105.024
 20
-113.023
 30
0.000000
  70
    32
  0
VERTEX
  8
図枠
  5
669
 10
105.047
 20
-113.027
 30
0.000000
  70
    32
  0
VERTEX
  8
図枠
  5
66A
 10
105.069
 20
-113.031
 30
0.000000
  70
    32
  0
VERTEX
  8
図枠
  5
66B
 10
105.091
 20
-113.035
 30
0.000000
  70
    32
  0
VERTEX
  8
図枠
  5
66C
 10
105.113
 20
-113.038
 30
0.000000
  70
    32
  0
VERTEX
  8
図枠
  5
66D
 10
105.136
 20
-113.042
 30
0.000000
  70
    32
  0
VERTEX
  8
図枠
  5
66E
 10
105.158
 20
-113.046
 30
0.000000
  70
    32
  0
VERTEX
  8
図枠
  5
66F
 10
105.180
 20
-113.050
 30
0.000000
  70
    32
  0
VERTEX
  8
図枠
  5
670
 10
105.202
 20
-113.054
 30
0.000000
  70
    32
  0
VERTEX
  8
図枠
  5
671
 10
105.225
 20
-113.058
 30
0.000000
  70
    32
  0
VERTEX
  8
図枠
  5
672
 10
105.247
 20
-113.062
 30
0.000000
  70
    32
  0
VERTEX
  8
図枠
  5
673
 10
105.269
 20
-113.065
 30
0.000000
  70
    32
  0
VERTEX
  8
図枠
  5
674
 10
105.292
 20
-113.069
 30
0.000000
  70
    32
  0
VERTEX
  8
図枠
  5
675
 10
105.314
 20
-113.073
 30
0.000000
  70
    32
  0
VERTEX
  8
図枠
  5
676
 10
105.336
 20
-113.077
 30
0.000000
  70
    32
  0
VERTEX
  8
図枠
  5
677
 10
105.358
 20
-113.081
 30
0.000000
  70
    32
  0
VERTEX
  8
図枠
  5
678
 10
105.381
 20
-113.085
 30
0.000000
  70
    32
  0
VERTEX
  8
図枠
  5
679
 10
105.403
 20
-113.088
 30
0.000000
  70
    32
  0
VERTEX
  8
図枠
  5
67A
 10
105.425
 20
-113.092
 30
0.000000
  70
    32
  0
VERTEX
  8
図枠
  5
67B
 10
105.448
 20
-113.096
 30
0.000000
  70
    32
  0
VERTEX
  8
図枠
  5
67C
 10
105.470
 20
-113.100
 30
0.000000
  70
    32
  0
VERTEX
  8
図枠
  5
67D
 10
105.492
 20
-113.104
 30
0.000000
  70
    32
  0
VERTEX
  8
図枠
  5
67E
 10
105.515
 20
-113.107
 30
0.000000
  70
    32
  0
VERTEX
  8
図枠
  5
67F
 10
105.537
 20
-113.111
 30
0.000000
  70
    32
  0
VERTEX
  8
図枠
  5
680
 10
105.559
 20
-113.115
 30
0.000000
  70
    32
  0
VERTEX
  8
図枠
  5
681
 10
105.582
 20
-113.119
 30
0.000000
  70
    32
  0
VERTEX
  8
図枠
  5
682
 10
105.604
 20
-113.123
 30
0.000000
  70
    32
  0
VERTEX
  8
図枠
  5
683
 10
105.626
 20
-113.126
 30
0.000000
  70
    32
  0
VERTEX
  8
図枠
  5
684
 10
105.649
 20
-113.130
 30
0.000000
  70
    32
  0
VERTEX
  8
図枠
  5
685
 10
105.671
 20
-113.134
 30
0.000000
  70
    32
  0
VERTEX
  8
図枠
  5
686
 10
105.693
 20
-113.138
 30
0.000000
  70
    32
  0
VERTEX
  8
図枠
  5
687
 10
105.716
 20
-113.141
 30
0.000000
  70
    32
  0
VERTEX
  8
図枠
  5
688
 10
105.738
 20
-113.145
 30
0.000000
  70
    32
  0
VERTEX
  8
図枠
  5
689
 10
105.760
 20
-113.149
 30
0.000000
  70
    32
  0
VERTEX
  8
図枠
  5
68A
 10
105.783
 20
-113.153
 30
0.000000
  70
    32
  0
SEQEND
  8
図枠
  5
68B
  0
LINE
  5
111
  8
図枠
 10
111.7897212929999
 20
-87.098000122800002
 30
0.0
 11
118.70172129300001
 21
-88.826000122800011
 31
0.0
  0
LINE
  5
112
  8
ﾚｲﾔ_10
 10
-113.1628659628
 20
119.8663440505
 30
0.0
 11
-92.321840321799996
 21
119.8663440505
 31
0.0
  0
DIMENSION
  5
11A
  8
寸法線
  2
*D3
 10
-113.23583984379999
 20
97.490950520800013
 30
0.0
 11
-25.508515267899998
 21
115.8929847923
 31
0.0
 70
   132
  1
<>
 15
-81.360287576199994
 25
106.0319790092
 35
0.0
 40
0.0
  0
DIMENSION
  5
129
  8
寸法線
  2
*D4
 10
-105.23583984379999
 20
68.490950520799998
 30
0.0
 11
-97.735839843799994
 21
68.490950520799998
 31
0.0
 70
   128
  1
<>
 13
-105.23583984379999
 23
92.490950520799984
 33
0.0
 14
-90.235839843799994
 24
83.490950520799998
 34
0.0
 50
180.0
  0
LINE
  5
12A
  8
図枠
 10
111.7897212929999
 20
-83.642000122799985
 30
0.0
 11
118.70172129300001
 21
-81.91400012279999
 31
0.0
  0
CIRCLE
  5
12B
  8
図枠
 10
103.89000007609999
 20
-85.370000122799993
 30
0.0
 40
3.456
  0
LINE
  5
12C
  8
図枠
 10
81.589802125099993
 20
-106.5527925625
 30
0.0
 11
81.589802125099993
 21
-108.95279256249999
 31
0.0
  0
LINE
  5
12D
  8
図枠
 10
111.7897212929999
 20
-83.642000122799985
 30
0.0
 11
111.7897212929999
 21
-87.098000122800002
 31
0.0
  0
LINE
  5
12E
  8
図枠
 10
112.3571085758
 20
-111.7127925625
 30
0.0
 11
112.0755085758
 21
-110.75279256250001
 31
0.0
  0
LINE
  5
12F
  8
図枠
 10
118.70172129300001
 20
-81.91400012279999
 30
0.0
 11
118.70172129300001
 21
-88.826000122800011
 31
0.0
  0
LINE
  5
130
  8
図枠
 10
108.4435085758
 20
-108.59279256249999
 30
0.0
 11
108.4435085758
 21
-110.75279256250001
 31
0.0
  0
LINE
  5
131
  8
図枠
 10
99.782529397800005
 20
-109.3393248835
 30
0.0
 11
99.103706887900003
 21
-110.0181473934
 31
0.0
  0
LINE
  5
132
  8
図枠
 10
111.7897212929999
 20
-83.642000122799985
 30
0.0
 11
118.70172129300001
 21
-81.91400012279999
 31
0.0
  0
CIRCLE
  5
133
  8
図枠
 10
103.89000007609999
 20
-85.370000122799993
 30
0.0
 40
1.728
  0
LINE
  5
134
  8
図枠
 10
80.208477551200005
 20
-110.75279256250001
 30
0.0
 11
81.408477551199994
 21
-110.75279256250001
 31
0.0
  0
CIRCLE
  5
135
  8
図枠
 10
103.89000007609999
 20
-85.370000122799993
 30
0.0
 40
3.456
  0
LINE
  5
136
  8
図枠
 10
81.589802125099993
 20
-110.75279256250001
 30
0.0
 11
81.408477551199994
 21
-110.75279256250001
 31
0.0
  0
LINE
  5
137
  8
図枠
 10
89.989802125099999
 20
-108.95279256249999
 30
0.0
 11
89.989802125099999
 21
-108.3527925625
 31
0.0
  0
LINE
  5
138
  8
図枠
 10
114.84066580299999
 20
-108.59279256249999
 30
0.0
 11
114.66499270280001
 21
-107.9823178939
 31
0.0
  0
LINE
  5
139
  8
図枠
 10
118.70172129300001
 20
-81.91400012279999
 30
0.0
 11
118.70172129300001
 21
-88.826000122800011
 31
0.0
  0
CIRCLE
  5
13A
  8
図枠
 10
103.89000007609999
 20
-85.370000122799993
 30
0.0
 40
3.456
  0
LINE
  5
13B
  8
図枠
  6
BORDER
 10
98.706000076100011
 20
-85.370000122799993
 30
0.0
 11
120.8820000761
 21
-85.370000122799993
 31
0.0
  0
LINE
  5
13C
  8
図枠
 10
94.982529397799993
 20
-106.5527925625
 30
0.0
 11
94.982529397799993
 21
-108.7127925625
 31
0.0
  0
ARC
  5
13D
  8
図枠
 10
85.189802125099988
 20
-111.3527925625
 30
0.0
 40
1.8
 50
270.0
 51
0.0
  0
LINE
  5
13E
  8
図枠
 10
94.982529397799993
 20
-109.3393248835
 30
0.0
 11
99.782529397800005
 21
-109.3393248835
 31
0.0
  0
LINE
  5
13F
  8
図枠
 10
89.989802125099999
 20
-111.3527925625
 30
0.0
 11
89.989802125099999
 21
-110.75279256250001
 31
0.0
  0
LINE
  5
140
  8
ﾚｲﾔ_10
  6
STITCH
 10
-123.8858398438
 20
12.775065104199999
 30
0.0
 11
-125.23583984379999
 21
12.775065104199999
 31
0.0
  0
LINE
  5
141
  8
ﾚｲﾔ_10
  6
STITCH
 10
-122.23583984379999
 20
14.4250651042
 30
0.0
 11
-123.8858398438
 21
12.775065104199999
 31
0.0
  0
LINE
  5
142
  8
ﾚｲﾔ_10
 62
     5
 10
-122.23583984379999
 20
17.065065104199999
 30
0.0
 11
-125.23583984379999
 21
17.065065104199999
 31
0.0
  0
LINE
  5
143
  8
ﾚｲﾔ_10
  6
STITCH
 10
-123.8858398438
 20
8.5750651042000001
 30
0.0
 11
-125.23583984379999
 21
8.5750651042000001
 31
0.0
  0
LINE
  5
144
  8
ﾚｲﾔ_10
  6
BORDER
 62
     3
 10
-118.80481119789999
 20
10.6750651042
 30
0.0
 11
-129.02528738839999
 21
10.6750651042
 31
0.0
  0
LINE
  5
145
  8
ﾚｲﾔ_10
  6
STITCH
 10
-122.23583984379999
 20
84.740950520799998
 30
0.0
 11
-123.8858398438
 21
86.390950520800004
 31
0.0
  0
LINE
  5
146
  8
ﾚｲﾔ_10
  6
STITCH
 10
-123.8858398438
 20
95.390950520800004
 30
0.0
 11
-125.23583984379999
 21
95.390950520800004
 31
0.0
  0
LINE
  5
147
  8
ﾚｲﾔ_10
  6
STITCH
 10
-123.8858398438
 20
99.590950520800007
 30
0.0
 11
-125.23583984379999
 21
99.590950520800007
 31
0.0
  0
CIRCLE
  5
148
  8
ﾚｲﾔ_10
 62
     5
 10
-105.23583984379999
 20
97.490950520800013
 30
0.0
 40
2.1000000000000001
  0
LINE
  5
149
  8
ﾚｲﾔ_10
  6
BORDER
 62
     3
 10
-110.23583984379999
 20
97.490950520800013
 30
0.0
 11
-100.23583984379999
 21
97.490950520800013
 31
0.0
  0
LINE
  5
14A
  8
ﾚｲﾔ_10
  6
BORDER
 62
     3
 10
-105.23583984379999
 20
102.4909505208
 30
0.0
 11
-105.23583984379999
 21
92.490950520799984
 31
0.0
  0
CIRCLE
  5
14B
  8
ﾚｲﾔ_10
 62
     5
 10
-105.23583984379999
 20
97.490950520800013
 30
0.0
 40
3.75
  0
LINE
  5
14C
  8
ﾚｲﾔ_10
 62
     5
 10
-125.23583984379999
 20
112.4909505208
 30
0.0
 11
-125.23583984379999
 21
82.490950520799984
 31
0.0
  0
DIMENSION
  5
15B
  8
寸法線
  2
*D5
 10
-157.47008670599999
 20
112.4909505208
 30
0.0
 11
-157.47008670599999
 21
97.490950520800013
 31
0.0
 70
   128
  1
<>
 13
-125.23583984379999
 23
112.4909505208
 33
0.0
 14
-125.23583984379999
 24
82.490950520799984
 34
0.0
 50
90.0
  0
DIMENSION
  5
16A
  8
寸法線
  2
*D6
 10
-122.23583984379999
 20
35.675065104200002
 30
0.0
 11
-114.3218098958
 21
35.675065104200002
 31
0.0
 70
   128
  1
<>t
 13
-122.23583984379999
 23
20.675065104200002
 33
0.0
 14
-125.23583984379999
 24
20.675065104200002
 34
0.0
  0
DIMENSION
  5
179
  8
寸法線
  2
*D7
 10
-144.02528738839999
 20
112.4909505208
 30
0.0
 11
-144.02528738839999
 21
104.9909505208
 31
0.0
 70
   128
  1
<>
 13
-125.23583984379999
 23
112.4909505208
 33
0.0
 14
-129.02528738839999
 24
97.490950520800013
 34
0.0
 50
90.0
  0
DIMENSION
  5
188
  8
寸法線
  2
*D8
 10
-144.02528738839999
 20
97.490950520800013
 30
0.0
 11
-144.02528738839999
 21
89.990950520799984
 31
0.0
 70
   128
  1
<>
 13
-129.02528738839999
 23
97.490950520800013
 33
0.0
 14
-125.23583984379999
 24
82.490950520799984
 34
0.0
 50
90.0
  0
DIMENSION
  5
197
  8
寸法線
  2
*D9
 10
-125.23583984379999
 20
68.490950520799998
 30
0.0
 11
-115.23583984379999
 21
68.490950520799998
 31
0.0
 70
   128
  1
<>
 13
-125.23583984379999
 23
82.490950520799984
 33
0.0
 14
-105.23583984379999
 24
92.490950520799984
 34
0.0
 50
180.0
  0
INSERT
  5
198
  8
0
  6
CONTINUOUS
  2
*U57
 10
0.0
 20
0.0
 30
0.0
  0
LINE
  5
199
  8
ﾚｲﾔ_10
 62
     5
 10
-83.841962930400001
 20
112.4909505208
 30
0.0
 11
-125.23583984379999
 21
112.4909505208
 31
0.0
  0
LINE
  5
19A
  8
ﾚｲﾔ_10
 62
     5
 10
-125.23583984379999
 20
82.490950520799984
 30
0.0
 11
-83.841962930400001
 21
82.490950520799984
 31
0.0
  0
LINE
  5
19B
  8
ﾚｲﾔ_10
 10
-113.1628659628
 20
118.8663440505
 30
0.0
 11
-92.321840321799996
 21
118.8663440505
 31
0.0
  0
LINE
  5
19C
  8
ﾚｲﾔ_10
 10
-113.1628659628
 20
117.8663440505
 30
0.0
 11
-92.321840321799996
 21
117.8663440505
 31
0.0
  0
LINE
  5
19D
  8
ﾚｲﾔ_10
 10
-113.1628659628
 20
121.8663440505
 30
0.0
 11
-92.321840321799996
 21
121.8663440505
 31
0.0
  0
LINE
  5
19E
  8
ﾚｲﾔ_10
 10
-113.1628659628
 20
120.8663440505
 30
0.0
 11
-92.321840321799996
 21
120.8663440505
 31
0.0
  0
CIRCLE
  5
19F
  8
ﾚｲﾔ_10
 62
     5
 10
-90.235839843799994
 20
106.4909505208
 30
0.0
 40
2.1000000000000001
  0
DIMENSION
  5
1AE
  8
寸法線
  2
*D10
 10
-63.841962930400001
 20
82.490950520799984
 30
0.0
 11
-63.841962930400001
 21
74.007747395799996
 31
0.0
 70
   128
  1
<>
 13
-83.841962930400001
 23
82.490950520799984
 33
0.0
 14
-85.235839843800008
 24
88.490950520799998
 34
0.0
 50
90.0
  0
DIMENSION
  5
1BD
  8
寸法線
  2
*D11
 10
-63.841962930400001
 20
106.4909505208
 30
0.0
 11
-63.841962930400001
 21
121.1366536458
 31
0.0
 70
   128
  1
<>
 13
-85.235839843800008
 23
106.4909505208
 33
0.0
 14
-83.841962930400001
 24
112.4909505208
 34
0.0
 50
90.0
  0
DIMENSION
  5
1CC
  8
寸法線
  2
*D12
 10
-63.841962930400001
 20
88.490950520799998
 30
0.0
 11
-63.841962930400001
 21
97.490950520800013
 31
0.0
 70
   128
  1
<>
 13
-85.235839843800008
 23
88.490950520799998
 33
0.0
 14
-85.235839843800008
 24
106.4909505208
 34
0.0
 50
90.0
  0
DIMENSION
  5
1DB
  8
寸法線
  2
*D13
 10
-90.235839843799994
 20
68.490950520799998
 30
0.0
 11
-85.235839843800008
 21
68.490950520799998
 31
0.0
 70
   128
  1
<>
 13
-90.235839843799994
 23
83.490950520799998
 33
0.0
 14
-80.235839843800008
 24
97.490950520800013
 34
0.0
 50
180.0
  0
LINE
  5
1DC
  8
ﾚｲﾔ_10
  6
STITCH
 10
-122.23583984379999
 20
101.2409505208
 30
0.0
 11
-123.8858398438
 21
99.590950520800007
 31
0.0
  0
LINE
  5
1DD
  8
ﾚｲﾔ_10
  6
BORDER
 62
     3
 10
-118.80481119789999
 20
97.490950520800013
 30
0.0
 11
-129.02528738839999
 21
97.490950520800013
 31
0.0
  0
LINE
  5
1DE
  8
ﾚｲﾔ_10
  6
BORDER
 62
     3
 10
-118.80481119789999
 20
106.4909505208
 30
0.0
 11
-129.02528738839999
 21
106.4909505208
 31
0.0
  0
LINE
  5
1DF
  8
ﾚｲﾔ_10
  6
BORDER
 62
     3
 10
-118.80481119789999
 20
88.490950520799998
 30
0.0
 11
-129.02528738839999
 21
88.490950520799998
 31
0.0
  0
LINE
  5
1E0
  8
ﾚｲﾔ_10
  6
STITCH
 10
-122.23583984379999
 20
110.2409505208
 30
0.0
 11
-123.8858398438
 21
108.59095052080001
 31
0.0
  0
LINE
  5
1E1
  8
ﾚｲﾔ_10
 62
     5
 10
-125.23583984379999
 20
112.4909505208
 30
0.0
 11
-125.23583984379999
 21
82.490950520799984
 31
0.0
  0
LINE
  5
1E2
  8
ﾚｲﾔ_10
 62
     5
 10
-122.23583984379999
 20
112.4909505208
 30
0.0
 11
-122.23583984379999
 21
82.490950520799984
 31
0.0
  0
LINE
  5
1E3
  8
ﾚｲﾔ_10
  6
STITCH
 10
-122.23583984379999
 20
102.7409505208
 30
0.0
 11
-123.8858398438
 21
104.3909505208
 31
0.0
  0
LINE
  5
1E4
  8
ﾚｲﾔ_10
  6
STITCH
 10
-123.8858398438
 20
104.3909505208
 30
0.0
 11
-123.8858398438
 21
108.59095052080001
 31
0.0
  0
LINE
  5
1E5
  8
ﾚｲﾔ_10
  6
STITCH
 10
-123.8858398438
 20
108.59095052080001
 30
0.0
 11
-125.23583984379999
 21
108.59095052080001
 31
0.0
  0
LINE
  5
1E6
  8
ﾚｲﾔ_10
  6
STITCH
 10
-123.8858398438
 20
95.390950520800004
 30
0.0
 11
-123.8858398438
 21
99.590950520800007
 31
0.0
  0
LINE
  5
1E7
  8
ﾚｲﾔ_10
  6
STITCH
 10
-122.23583984379999
 20
93.740950520799984
 30
0.0
 11
-123.8858398438
 21
95.390950520800004
 31
0.0
  0
LINE
  5
1E8
  8
ﾚｲﾔ_10
  6
STITCH
 10
-123.8858398438
 20
104.3909505208
 30
0.0
 11
-125.23583984379999
 21
104.3909505208
 31
0.0
  0
LINE
  5
1E9
  8
ﾚｲﾔ_10
  6
STITCH
 10
-123.8858398438
 20
90.590950520799993
 30
0.0
 11
-125.23583984379999
 21
90.590950520799993
 31
0.0
  0
LINE
  5
1EA
  8
ﾚｲﾔ_10
  6
STITCH
 10
-123.8858398438
 20
86.390950520800004
 30
0.0
 11
-125.23583984379999
 21
86.390950520800004
 31
0.0
  0
LINE
  5
1EB
  8
ﾚｲﾔ_10
  6
STITCH
 10
-123.8858398438
 20
90.590950520799993
 30
0.0
 11
-123.8858398438
 21
86.390950520800004
 31
0.0
  0
LINE
  5
1EC
  8
ﾚｲﾔ_10
  6
STITCH
 10
-122.23583984379999
 20
92.240950520799998
 30
0.0
 11
-123.8858398438
 21
90.590950520799993
 31
0.0
  0
LINE
  5
1ED
  8
ﾚｲﾔ_10
 62
     5
 10
-122.23583984379999
 20
20.675065104200002
 30
0.0
 11
-125.23583984379999
 21
20.675065104200002
 31
0.0
  0
LINE
  5
1EE
  8
ﾚｲﾔ_10
  6
STITCH
 10
-122.23583984379999
 20
6.9250651041999989
 30
0.0
 11
-123.8858398438
 21
8.5750651042000001
 31
0.0
  0
LINE
  5
1EF
  8
ﾚｲﾔ_10
  6
STITCH
 10
-123.8858398438
 20
12.775065104199999
 30
0.0
 11
-123.8858398438
 21
8.5750651042000001
 31
0.0
  0
LINE
  5
1F0
  8
ﾚｲﾔ_10
  6
STITCH
 10
-93.985839843799994
 20
-21.324934895799998
 30
0.0
 11
-92.335839843799988
 21
-22.974934895800001
 31
0.0
  0
LINE
  5
1F1
  8
ﾚｲﾔ_10
  6
STITCH
 10
-108.98583984379999
 20
-21.324934895799998
 30
0.0
 11
-107.3358398438
 21
-22.974934895800001
 31
0.0
  0
LINE
  5
1F2
  8
ﾚｲﾔ_10
  6
STITCH
 10
-101.48583984379999
 20
-21.324934895799998
 30
0.0
 11
-103.1358398438
 21
-22.974934895800001
 31
0.0
  0
LINE
  5
1F3
  8
ﾚｲﾔ_10
  6
STITCH
 10
-103.1358398438
 20
-22.974934895800001
 30
0.0
 11
-107.3358398438
 21
-22.974934895800001
 31
0.0
  0
LINE
  5
1F4
  8
ﾚｲﾔ_10
  6
STITCH
 10
-107.3358398438
 20
-22.974934895800001
 30
0.0
 11
-107.3358398438
 21
-24.324934895799998
 31
0.0
  0
LINE
  5
1F5
  8
ﾚｲﾔ_10
  6
STITCH
 10
-103.1358398438
 20
-22.974934895800001
 30
0.0
 11
-103.1358398438
 21
-24.324934895799998
 31
0.0
  0
LINE
  5
1F6
  8
ﾚｲﾔ_10
  6
BORDER
 62
     3
 10
-105.23583984379999
 20
-17.893906250000001
 30
0.0
 11
-105.23583984379999
 21
-28.114382440499998
 31
0.0
  0
ARC
  5
1F7
  8
ﾚｲﾔ_10
 62
     5
 10
-120.23583984379999
 20
-19.324934895799998
 30
0.0
 40
5.0
 50
180.0
 51
270.0
  0
ARC
  5
1F8
  8
ﾚｲﾔ_10
 62
     5
 10
-120.23583984379999
 20
-19.324934895799998
 30
0.0
 40
2.0
 50
180.0
 51
270.0
  0
LINE
  5
1F9
  8
ﾚｲﾔ_10
  6
STITCH
 10
-122.23583984379999
 20
-8.0749348958000002
 30
0.0
 11
-123.8858398438
 21
-6.4249348957999999
 31
0.0
  0
LINE
  5
1FA
  8
ﾚｲﾔ_10
  6
BORDER
 62
     3
 10
-118.80481119789999
 20
-4.3249348958000002
 30
0.0
 11
-129.02528738839999
 21
-4.3249348958000002
 31
0.0
  0
LINE
  5
1FB
  8
ﾚｲﾔ_10
  6
STITCH
 10
-123.8858398438
 20
-2.2249348958000001
 30
0.0
 11
-125.23583984379999
 21
-2.2249348958000001
 31
0.0
  0
LINE
  5
1FC
  8
ﾚｲﾔ_10
  6
STITCH
 10
-123.8858398438
 20
-6.4249348957999999
 30
0.0
 11
-125.23583984379999
 21
-6.4249348957999999
 31
0.0
  0
LINE
  5
1FD
  8
ﾚｲﾔ_10
  6
STITCH
 10
-123.8858398438
 20
-2.2249348958000001
 30
0.0
 11
-123.8858398438
 21
-6.4249348957999999
 31
0.0
  0
LINE
  5
1FE
  8
ﾚｲﾔ_10
 62
     5
 10
-120.23583984379999
 20
-21.324934895799998
 30
0.0
 11
-80.235839843800008
 21
-21.324934895799998
 31
0.0
  0
LINE
  5
1FF
  8
ﾚｲﾔ_10
 62
     5
 10
-120.23583984379999
 20
-24.324934895799998
 30
0.0
 11
-80.235839843800008
 21
-24.324934895799998
 31
0.0
  0
DIMENSION
  5
20E
  8
寸法線
  2
*D14
 10
-125.23583984379999
 20
-44.324934895799991
 30
0.0
 11
-102.73583984379999
 21
-44.324934895799991
 31
0.0
 70
   128
  1
<>
 13
-125.23583984379999
 23
-19.324934895799998
 33
0.0
 14
-80.235839843800008
 24
-24.324934895799998
 34
0.0
 50
180.0
  0
CIRCLE
  5
20F
  8
ﾚｲﾔ_10
 62
     5
 10
-90.235839843799994
 20
106.4909505208
 30
0.0
 40
3.75
  0
LINE
  5
210
  8
ﾚｲﾔ_10
  6
BORDER
 62
     3
 10
-90.235839843799994
 20
111.4909505208
 30
0.0
 11
-90.235839843799994
 21
101.4909505208
 31
0.0
  0
LINE
  5
211
  8
ﾚｲﾔ_10
  6
BORDER
 62
     3
 10
-95.235839843799994
 20
106.4909505208
 30
0.0
 11
-85.235839843800008
 21
106.4909505208
 31
0.0
  0
ARC
  5
212
  8
ﾚｲﾔ_10
 62
     5
 10
-113.23583984379999
 20
97.490950520800013
 30
0.0
 40
33.0
 50
332.9643082106
 51
27.035691789400001
  0
LINE
  5
213
  8
ﾚｲﾔ_10
  6
BORDER
 62
     3
 10
-95.235839843799994
 20
88.490950520799998
 30
0.0
 11
-85.235839843800008
 21
88.490950520799998
 31
0.0
  0
LINE
  5
214
  8
ﾚｲﾔ_10
  6
BORDER
 62
     3
 10
-90.235839843799994
 20
93.490950520799998
 30
0.0
 11
-90.235839843799994
 21
83.490950520799998
 31
0.0
  0
CIRCLE
  5
215
  8
ﾚｲﾔ_10
 62
     5
 10
-90.235839843799994
 20
88.490950520799998
 30
0.0
 40
3.75
  0
CIRCLE
  5
216
  8
ﾚｲﾔ_10
 62
     5
 10
-90.235839843799994
 20
88.490950520799998
 30
0.0
 40
2.1000000000000001
  0
DIMENSION
  5
21D
  8
寸法線
  2
*D15
 10
65.695410156299999
 20
97.490950520800013
 30
0.0
 11
-10.469044394000001
 21
111.3368877617
 31
0.0
 70
   132
  1
<>
 15
33.8198578887
 25
106.0319790092
 35
0.0
 40
0.0
  0
LINE
  5
223
  8
図枠
 62
     5
 10
-203.70599992390001
 20
167.75499987719999
 30
0.0
 11
208.79400007609999
 21
167.75499987719999
 31
0.0
  0
LINE
  5
224
  8
図枠
 62
     5
 10
-203.70599992390001
 20
-117.24500012279999
 30
0.0
 11
208.79400007609999
 21
-117.24500012279999
 31
0.0
  0
LINE
  5
225
  8
図枠
  6
DOT
 10
-212.70599992390001
 20
176.37999987719999
 30
0.0
 11
217.79400007609999
 21
176.37999987719999
 31
0.0
  0
LINE
  5
226
  8
図枠
  6
DOT
 10
-212.70599992390001
 20
-125.87000012279999
 30
0.0
 11
217.79400007609999
 21
-125.87000012279999
 31
0.0
  0
LINE
  5
227
  8
ﾚｲﾔ_10
 62
     5
 10
-125.23583984379999
 20
20.675065104200002
 30
0.0
 11
-125.23583984379999
 21
-19.324934895799998
 31
0.0
  0
LINE
  5
228
  8
ﾚｲﾔ_10
 62
     5
 10
-122.23583984379999
 20
20.675065104200002
 30
0.0
 11
-122.23583984379999
 21
-19.324934895799998
 31
0.0
  0
LINE
  5
229
  8
ﾚｲﾔ_10
  6
STITCH
 10
-122.23583984379999
 20
-0.5749348958000001
 30
0.0
 11
-123.8858398438
 21
-2.2249348958000001
 31
0.0
  0
DIMENSION
  5
238
  8
寸法線
  2
*D16
 10
-145.23583984379999
 20
20.675065104200002
 30
0.0
 11
-145.23583984379999
 21
-1.8249348958
 31
0.0
 70
   128
  1
<>
 13
-125.23583984379999
 23
20.675065104200002
 33
0.0
 14
-120.23583984379999
 24
-24.324934895799998
 34
0.0
 50
90.0
  0
DIMENSION
  5
245
  8
寸法線
  2
*D58
 10
-109.9901694752495
 20
-0.1148116447298832
 30
0.0
 11
-104.60942354629999
 21
-4.320958313599994
 31
0.0
 70
   133
  1
<>
 13
-122.23583984379999
 23
20.675065104200002
 33
0.0
 14
-79.485839843799994
 24
-21.324934895799998
 34
0.0
 15
-122.23583984379999
 25
-21.324934895799998
 35
0.0
1001
ACAD
1000
DSTYLE
1002
{
1070
   271
1070
     0
1002
}
  0
LINE
  5
246
  8
図枠
 62
     5
 10
-203.70599992390001
 20
-117.24500012279999
 30
0.0
 11
-203.70599992390001
 21
167.75499987719999
 31
0.0
  0
LINE
  5
247
  8
図枠
  6
DOT
 10
-212.7014999239
 20
-125.87000012279999
 30
0.0
 11
-212.7014999239
 21
176.37999987719999
 31
0.0
  0
LINE
  5
248
  8
図枠
  6
DOT
 10
217.79400007609999
 20
-125.87000012279999
 30
0.0
 11
217.79400007609999
 21
176.37999987719999
 31
0.0
  0
LINE
  5
249
  8
図枠
 62
     5
 10
208.79400007609999
 20
-117.24500012279999
 30
0.0
 11
208.79400007609999
 21
167.75499987719999
 31
0.0
  0
LINE
  5
24A
  8
ﾚｲﾔ_10
  6
STITCH
 10
-86.485839843799994
 20
-21.324934895799998
 30
0.0
 11
-88.135839843799985
 21
-22.974934895800001
 31
0.0
  0
LINE
  5
24B
  8
ﾚｲﾔ_10
  6
STITCH
 10
-88.135839843799985
 20
-22.974934895800001
 30
0.0
 11
-92.335839843799988
 21
-22.974934895800001
 31
0.0
  0
LINE
  5
24C
  8
ﾚｲﾔ_10
  6
STITCH
 10
-92.335839843799988
 20
-22.974934895800001
 30
0.0
 11
-92.335839843799988
 21
-24.324934895799998
 31
0.0
  0
LINE
  5
24D
  8
ﾚｲﾔ_10
  6
STITCH
 10
-88.135839843799985
 20
-22.974934895800001
 30
0.0
 11
-88.135839843799985
 21
-24.324934895799998
 31
0.0
  0
LINE
  5
24E
  8
ﾚｲﾔ_10
  6
BORDER
 62
     3
 10
-90.235839843799994
 20
-17.893906250000001
 30
0.0
 11
-90.235839843799994
 21
-28.114382440499998
 31
0.0
  0
LINE
  5
24F
  8
ﾚｲﾔ_10
 62
     5
 10
-83.845839843799993
 20
-24.324934895799998
 30
0.0
 11
-83.845839843799993
 21
-21.324934895799998
 31
0.0
  0
LINE
  5
250
  8
ﾚｲﾔ_10
 62
     5
 10
-80.235839843800008
 20
-24.324934895799998
 30
0.0
 11
-80.235839843800008
 21
-21.324934895799998
 31
0.0
  0
DIMENSION
  5
294
  8
0
  2
*D22
 10
72.13158953213815
 20
-35.838157235805511
 30
0.0
 11
61.040529921651569
 21
-35.838157235805511
 31
0.0
 70
   128
  1
φ4.2
 13
52.131589532138257
 23
-15.68616914480444
 33
0.0
 14
72.13158953213815
 24
-15.68616914480444
 34
0.0
1001
ACAD
1000
DSTYLE
1002
{
1070
    40
1040
1.0
1002
}
  0
DIMENSION
  5
295
  8
0
  2
*D23
 10
82.13158953213815
 20
18.348188591285631
 30
0.0
 11
61.880961177632123
 21
18.348188591285631
 31
0.0
 70
   128
  1
φ7.5
 13
42.13158953213815
 23
-0.5611691448044383
 33
0.0
 14
82.13158953213815
 24
-0.5611691448044383
 34
0.0
1001
ACAD
1000
DSTYLE
1002
{
1070
    40
1040
1.0
1002
}
  0
LINE
  5
296
  8
ﾚｲﾔ_1
  6
BORDER
 62
     3
 10
62.13158953213815
 20
3.6263308551955609
 30
0.0
 11
62.13158953213815
 21
-20.123669144804438
 31
0.0
  0
LINE
  5
297
  8
ﾚｲﾔ_1
 62
     5
 10
82.13158953213815
 20
-0.6236691448044383
 30
0.0
 11
72.13158953213815
 21
-10.62366914480444
 31
0.0
  0
LINE
  5
298
  8
ﾚｲﾔ_1
 62
     5
 10
72.13158953213815
 20
-10.62366914480444
 30
0.0
 11
52.131589532138257
 21
-10.62366914480444
 31
0.0
  0
LINE
  5
299
  8
ﾚｲﾔ_1
 62
     5
 10
52.131589532138257
 20
-10.62366914480444
 30
0.0
 11
52.131589532138257
 21
-15.62366914480444
 31
0.0
  0
LINE
  5
29A
  8
ﾚｲﾔ_1
 62
     5
 10
72.13158953213815
 20
-10.62366914480444
 30
0.0
 11
72.13158953213815
 21
-15.62366914480444
 31
0.0
  0
LINE
  5
29B
  8
ﾚｲﾔ_1
 62
     5
 10
42.13158953213815
 20
-0.6236691448044383
 30
0.0
 11
52.131589532138257
 21
-10.62366914480444
 31
0.0
  0
LINE
  5
29C
  8
ﾚｲﾔ_1
 62
     5
 10
31.646404346938201
 20
-0.6236691448044383
 30
0.0
 11
92.61677471733833
 21
-0.6236691448044383
 31
0.0
  0
LINE
  5
29D
  8
ﾚｲﾔ_1
 62
     5
 10
31.646404346938201
 20
-15.62366914480444
 30
0.0
 11
92.61677471733833
 21
-15.62366914480444
 31
0.0
  0
DIMENSION
  5
29E
  8
0
  2
*D24
 10
47.036361312951541
 20
35.71248952104812
 30
0.0
 11
63.982040830251663
 21
37.670451641144041
 31
0.0
 70
   133
 13
38.846997293438342
 23
2.6609230938955468
 33
0.0
 14
85.416181770838193
 24
2.6609230938955468
 34
0.0
 15
62.13158953213815
 25
-20.623669144804438
 35
0.0
1001
ACAD
1000
DSTYLE
1002
{
1070
   271
1070
     0
1070
    40
1040
1.0
1002
}
  0
ENDSEC
  0
EOF
