  0
SECTION
  2
HEADER
  9
$ACADVER
  1
AC1009
  9
$INSBASE
 10
0.0
 20
0.0
 30
0.0
  9
$EXTMIN
 10
562.87005731089994
 20
-412.04618975769989
 30
0.0
  9
$EXTMAX
 10
1112.8700573108999
 20
-32.046189757699999
 30
0.0
  9
$LIMMIN
 10
0.0
 20
0.0
  9
$LIMMAX
 10
0.0
 20
0.0
  9
$ORTHOMODE
 70
     0
  9
$REGENMODE
 70
     1
  9
$FILLMODE
 70
     1
  9
$QTEXTMODE
 70
     0
  9
$MIRRTEXT
 70
     1
  9
$DRAGMODE
 70
     2
  9
$LTSCALE
 40
1.0
  9
$OSMODE
 70
    31
  9
$ATTMODE
 70
     1
  9
$TEXTSIZE
 40
0.0
  9
$TRACEWID
 40
0.05
  9
$TEXTSTYLE
  7
STANDARD
  9
$CLAYER
  8
0
  9
$CELTYPE
  6
CONTINUOUS
  9
$CECOLOR
 62
   256
  9
$DIMSCALE
 40
1.0
  9
$DIMASZ
 40
0.18
  9
$DIMEXO
 40
0.0625
  9
$DIMDLI
 40
0.38
  9
$DIMRND
 40
0.0
  9
$DIMDLE
 40
0.0
  9
$DIMEXE
 40
0.18
  9
$DIMTP
 40
0.0
  9
$DIMTM
 40
0.0
  9
$DIMTXT
 40
0.18
  9
$DIMCEN
 40
0.09
  9
$DIMTSZ
 40
0.0
  9
$DIMTOL
 70
     0
  9
$DIMLIM
 70
     0
  9
$DIMTIH
 70
     1
  9
$DIMTOH
 70
     1
  9
$DIMSE1
 70
     0
  9
$DIMSE2
 70
     0
  9
$DIMTAD
 70
     0
  9
$DIMZIN
 70
     0
  9
$DIMBLK
  1

  9
$DIMASO
 70
     1
  9
$DIMSHO
 70
     1
  9
$DIMPOST
  1

  9
$DIMAPOST
  1

  9
$DIMALT
 70
     0
  9
$DIMALTD
 70
     2
  9
$DIMALTF
 40
25.399999999999999
  9
$DIMLFAC
 40
1.0
  9
$DIMTOFL
 70
     0
  9
$DIMTVP
 40
0.0
  9
$DIMTIX
 70
     0
  9
$DIMSOXD
 70
     0
  9
$DIMSAH
 70
     0
  9
$DIMBLK1
  1

  9
$DIMBLK2
  1

  9
$DIMSTYLE
  2
STANDARD
  9
$DIMCLRD
 70
     0
  9
$DIMCLRE
 70
     0
  9
$DIMCLRT
 70
     0
  9
$DIMTFAC
 40
1.0
  9
$DIMGAP
 40
0.09
  9
$LUNITS
 70
     2
  9
$LUPREC
 70
     4
  9
$SKETCHINC
 40
0.1
  9
$FILLETRAD
 40
0.0
  9
$AUNITS
 70
     0
  9
$AUPREC
 70
     0
  9
$MENU
  1
acad
  9
$ELEVATION
 40
0.0
  9
$PELEVATION
 40
0.0
  9
$THICKNESS
 40
0.0
  9
$LIMCHECK
 70
     0
  9
$BLIPMODE
 70
     0
  9
$CHAMFERA
 40
0.0
  9
$CHAMFERB
 40
0.0
  9
$SKPOLY
 70
     0
  9
$TDCREATE
 40
2454862.773856875
  9
$TDUPDATE
 40
2454862.7741388078
  9
$TDINDWG
 40
0.000289537
  9
$TDUSRTIMER
 40
0.0002891782
  9
$USRTIMER
 70
     1
  9
$ANGBASE
 50
0.0
  9
$ANGDIR
 70
     0
  9
$PDMODE
 70
     3
  9
$PDSIZE
 40
-1.0
  9
$PLINEWID
 40
0.0
  9
$COORDS
 70
     2
  9
$SPLFRAME
 70
     0
  9
$SPLINETYPE
 70
     6
  9
$SPLINESEGS
 70
     8
  9
$ATTDIA
 70
     0
  9
$ATTREQ
 70
     1
  9
$HANDLING
 70
     1
  9
$HANDSEED
  5
4A6
  9
$SURFTAB1
 70
     6
  9
$SURFTAB2
 70
     6
  9
$SURFTYPE
 70
     6
  9
$SURFU
 70
     6
  9
$SURFV
 70
     6
  9
$UCSNAME
  2

  9
$UCSORG
 10
0.0
 20
0.0
 30
0.0
  9
$UCSXDIR
 10
1.0
 20
0.0
 30
0.0
  9
$UCSYDIR
 10
0.0
 20
1.0
 30
0.0
  9
$PUCSNAME
  2

  9
$PUCSORG
 10
0.0
 20
0.0
 30
0.0
  9
$PUCSXDIR
 10
1.0
 20
0.0
 30
0.0
  9
$PUCSYDIR
 10
0.0
 20
1.0
 30
0.0
  9
$USERI1
 70
     0
  9
$USERI2
 70
     0
  9
$USERI3
 70
     0
  9
$USERI4
 70
     0
  9
$USERI5
 70
     0
  9
$USERR1
 40
0.0
  9
$USERR2
 40
0.0
  9
$USERR3
 40
0.0
  9
$USERR4
 40
0.0
  9
$USERR5
 40
0.0
  9
$WORLDVIEW
 70
     1
  9
$SHADEDGE
 70
     3
  9
$SHADEDIF
 70
    70
  9
$TILEMODE
 70
     1
  9
$MAXACTVP
 70
    16
  9
$PLIMCHECK
 70
     0
  9
$PEXTMIN
 10
1.0000000000000000E+020
 20
1.0000000000000000E+020
 30
1.0000000000000000E+020
  9
$PEXTMAX
 10
-1.0000000000000000E+020
 20
-1.0000000000000000E+020
 30
-1.0000000000000000E+020
  9
$PLIMMIN
 10
0.0
 20
0.0
  9
$PLIMMAX
 10
12.0
 20
9.0
  9
$UNITMODE
 70
     0
  9
$VISRETAIN
 70
     0
  9
$PLINEGEN
 70
     1
  9
$PSLTSCALE
 70
     0
  0
ENDSEC
  0
SECTION
  2
TABLES
  0
TABLE
  2
VPORT
 70
     2
  0
VPORT
  2
*ACTIVE
 70
     0
 10
0.0
 20
0.0
 11
1.0
 21
1.0
 12
837.87005731089982
 22
-222.04618975770001
 13
0.0
 23
0.0
 14
1.0
 24
1.0
 15
0.0
 25
0.0
 16
0.0
 26
0.0
 36
1.0
 17
0.0
 27
0.0
 37
0.0
 40
397.98585584749179
 41
1.3903818953323901
 42
50.0
 43
0.0
 44
0.0
 50
0.0
 51
0.0
 71
     0
 72
   100
 73
     1
 74
     1
 75
     0
 76
     0
 77
     0
 78
     0
  0
ENDTAB
  0
TABLE
  2
LTYPE
 70
    11
  0
LTYPE
  2
CONTINUOUS
 70
     0
  3
Solid line
 72
    65
 73
     0
 40
0.0
  0
LTYPE
  2
DOT
 70
     0
  3
. . . . . . . . 
 72
    65
 73
     2
 40
1.0
 49
0.0
 49
-1.0
  0
LTYPE
  2
DASHED
 70
     0
  3
___  ___  ___  ___  
 72
    65
 73
     2
 40
4.0
 49
3.0
 49
-1.0
  0
LTYPE
  2
HIDDEN
 70
     0
  3
__ __ __ __ 
 72
    65
 73
     2
 40
3.0
 49
2.0
 49
-1.0
  0
LTYPE
  2
STITCH
 70
     0
  3
_ _ _ _ 
 72
    65
 73
     2
 40
2.0
 49
1.0
 49
-1.0
  0
LTYPE
  2
CENTER
 70
     0
  3
______  __  ______  __  
 72
    65
 73
     4
 40
43.0
 49
40.0
 49
-1.0
 49
1.0
 49
-1.0
  0
LTYPE
  2
DASHDOT
 70
     0
  3
____ . ____ . 
 72
    65
 73
     4
 40
32.0
 49
30.0
 49
-1.0
 49
0.0
 49
-1.0
  0
LTYPE
  2
BORDER
 70
     0
  3
__ . __ . 
 72
    65
 73
     4
 40
22.0
 49
20.0
 49
-1.0
 49
0.0
 49
-1.0
  0
LTYPE
  2
CUTTING
 70
     0
  3
________   ___   ___   
 72
    65
 73
     6
 40
45.0
 49
40.0
 49
-1.0
 49
1.0
 49
-1.0
 49
1.0
 49
-1.0
  0
LTYPE
  2
PHANTOM
 70
     0
  3
______  __  __  
 72
    65
 73
     6
 40
35.0
 49
30.0
 49
-1.0
 49
1.0
 49
-1.0
 49
1.0
 49
-1.0
  0
LTYPE
  2
DIVIDE
 70
     0
  3
____ . . ____ . . 
 72
    65
 73
     6
 40
23.0
 49
20.0
 49
-1.0
 49
0.0
 49
-1.0
 49
0.0
 49
-1.0
  0
ENDTAB
  0
TABLE
  2
LAYER
 70
     4
  0
LAYER
  2
0
 70
     0
 62
     7
  6
CONTINUOUS
  0
LAYER
  2
Éíû@É³
 70
     0
 62
     7
  6
CONTINUOUS
  0
LAYER
  2
┌▓È_1
 70
     0
 62
     7
  6
CONTINUOUS
  0
LAYER
  2
Defpoints
 70
     0
 62
     7
  6
CONTINUOUS
  0
ENDTAB
  0
TABLE
  2
STYLE
 70
     1
  0
STYLE
  2
STANDARD
 70
     0
 40
0.0
 41
1.0
 50
0.0
 71
     0
 42
0.0
  3
txt
  4
extfont
  0
ENDTAB
  0
TABLE
  2
VIEW
 70
     0
  0
ENDTAB
  0
TABLE
  2
UCS
 70
     0
  0
ENDTAB
  0
TABLE
  2
APPID
 70
     2
  0
APPID
  2
ACAD
 70
     0
  0
APPID
  2
DCO15
 70
     0
  0
ENDTAB
  0
TABLE
  2
DIMSTYLE
 70
     4
  0
DIMSTYLE
  2
STANDARD
 70
     0
  3

  4

  5

  6

  7

 40
1.0
 41
0.18
 42
0.0625
 43
0.38
 44
0.18
 45
0.0
 46
0.0
 47
0.0
 48
0.0
140
0.18
141
0.09
142
0.0
143
25.399999999999999
144
1.0
145
0.0
146
1.0
147
0.09
 71
     0
 72
     0
 73
     1
 74
     1
 75
     0
 76
     0
 77
     0
 78
     0
170
     0
171
     2
172
     0
173
     0
174
     0
175
     0
176
     0
177
     0
178
     0
  0
DIMSTYLE
  2
VELDIM0
 70
     0
  3

  4

  5

  6

  7

 40
1.0
 41
6.0
 42
0.0625
 43
0.38
 44
1.0
 45
0.0
 46
6.0
 47
0.0
 48
0.0
140
5.9972220420999998
141
0.09
142
0.0
143
25.399999999999999
144
1.0
145
0.0
146
1.0
147
0.09
 71
     0
 72
     0
 73
     0
 74
     0
 75
     0
 76
     0
 77
     0
 78
     8
170
     0
171
     2
172
     0
173
     0
174
     0
175
     0
176
     0
177
     0
178
     0
  0
DIMSTYLE
  2
VELDIM1
 70
     0
  3

  4

  5

  6

  7

 40
1.0
 41
6.0
 42
0.0625
 43
0.38
 44
0.5
 45
0.0
 46
3.0
 47
0.0
 48
0.0
140
5.9972220420999998
141
0.09
142
0.0
143
25.399999999999999
144
1.0
145
0.0
146
1.0
147
0.09
 71
     0
 72
     0
 73
     0
 74
     0
 75
     0
 76
     0
 77
     0
 78
     8
170
     0
171
     2
172
     0
173
     0
174
     0
175
     0
176
     0
177
     0
178
     0
  0
DIMSTYLE
  2
VELDIM2
 70
     0
  3

  4

  5

  6

  7

 40
1.0
 41
6.0
 42
0.0625
 43
0.38
 44
1.25
 45
0.0
 46
5.0
 47
0.0
 48
0.0
140
5.9972220420999998
141
0.09
142
0.0
143
25.399999999999999
144
1.0
145
0.0
146
1.0
147
0.09
 71
     0
 72
     0
 73
     0
 74
     0
 75
     0
 76
     0
 77
     0
 78
     8
170
     0
171
     2
172
     0
173
     0
174
     0
175
     0
176
     0
177
     0
178
     0
  0
ENDTAB
  0
ENDSEC
  0
SECTION
  2
BLOCKS
  0
BLOCK
  8
0
  2
$MODEL_SPACE
 70
     0
 10
0.0
 20
0.0
 30
0.0
  3
$MODEL_SPACE
  1

  0
ENDBLK
  5
E
  8
0
  0
BLOCK
 67
     1
  8
0
  2
$PAPER_SPACE
 70
     0
 10
0.0
 20
0.0
 30
0.0
  3
$PAPER_SPACE
  1

  0
ENDBLK
  5
10
 67
     1
  8
0
  0
BLOCK
  8
0
  2
*D0
 70
     1
 10
0.0
 20
0.0
 30
0.0
  3
*D0
  1

  0
TEXT
  5
31
  8
0
 62
     0
 10
818.21822741159997
 20
-278.99598015679999
 30
0.0
 40
5.9972220420999998
  1
8
 50
90.0
  0
LINE
  5
32
  8
0
 62
     0
 10
802.27656071320007
 20
-293.70567708329997
 30
0.0
 11
822.27656071319996
 21
-293.70567708329997
 31
0.0
  0
LINE
  5
33
  8
0
 62
     0
 10
803.27656071320007
 20
-285.70567708330009
 30
0.0
 11
822.27656071319996
 21
-285.70567708330009
 31
0.0
  0
LINE
  5
34
  8
0
 62
     0
 10
821.27656071319996
 20
-293.70567708329997
 30
0.0
 11
821.27656071319996
 21
-271.94042481320002
 31
0.0
  0
LINE
  5
35
  8
0
 62
     0
 10
821.27656071319996
 20
-293.70567708329997
 30
0.0
 11
821.27656071319996
 21
-282.52375782860003
 31
0.0
  0
LINE
  5
36
  8
0
 62
     0
 10
821.27656071319996
 20
-285.70567708330009
 30
0.0
 11
821.27656071319996
 21
-271.94042481320002
 31
0.0
  0
LINE
  5
37
  8
0
 62
     0
 10
821.27656071319996
 20
-285.70567708330009
 30
0.0
 11
821.27656071319996
 21
-282.52375782860003
 31
0.0
  0
LINE
  5
38
  8
0
 62
     0
 10
821.27656071319996
 20
-285.70567708330009
 30
0.0
 11
821.27656071319996
 21
-279.70567708329997
 31
0.0
  0
SOLID
  5
39
  8
0
 62
     0
 10
821.27656071319996
 20
-285.70567708330009
 30
0.0
 11
819.77656071319996
 21
-279.70567708329997
 31
0.0
 12
822.77656071320007
 22
-279.70567708329997
 32
0.0
 13
821.27656071319996
 23
-281.20567708329997
 33
0.0
  0
LINE
  5
3A
  8
0
 62
     0
 10
821.27656071319996
 20
-293.70567708329997
 30
0.0
 11
821.27656071319996
 21
-299.70567708329997
 31
0.0
  0
SOLID
  5
3B
  8
0
 62
     0
 10
821.27656071319996
 20
-293.70567708329997
 30
0.0
 11
822.77656071320007
 21
-299.70567708329997
 31
0.0
 12
819.77656071319996
 22
-299.70567708329997
 32
0.0
 13
821.27656071319996
 23
-298.20567708330009
 33
0.0
  0
ENDBLK
  5
3C
  8
0
  0
BLOCK
  8
0
  2
*D1
 70
     1
 10
0.0
 20
0.0
 30
0.0
  3
*D1
  1

  0
TEXT
  5
41
  8
0
 62
     0
 10
818.21822741159997
 20
-310.48990301679999
 30
0.0
 40
5.9972220420999998
  1
8
 50
90.0
  0
LINE
  5
42
  8
0
 62
     0
 10
803.27656071320007
 20
-301.70567708329997
 30
0.0
 11
822.27656071319996
 21
-301.70567708329997
 31
0.0
  0
LINE
  5
43
  8
0
 62
     0
 10
802.27656071320007
 20
-293.70567708329997
 30
0.0
 11
822.27656071319996
 21
-293.70567708329997
 31
0.0
  0
LINE
  5
44
  8
0
 62
     0
 10
821.27656071319996
 20
-301.70567708329997
 30
0.0
 11
821.27656071319996
 21
-303.43434767309998
 31
0.0
  0
LINE
  5
45
  8
0
 62
     0
 10
821.27656071319996
 20
-301.70567708329997
 30
0.0
 11
821.27656071319996
 21
-314.01768068860002
 31
0.0
  0
LINE
  5
46
  8
0
 62
     0
 10
821.27656071319996
 20
-293.70567708329997
 30
0.0
 11
821.27656071319996
 21
-303.43434767309998
 31
0.0
  0
LINE
  5
47
  8
0
 62
     0
 10
821.27656071319996
 20
-293.70567708329997
 30
0.0
 11
821.27656071319996
 21
-314.01768068860002
 31
0.0
  0
LINE
  5
48
  8
0
 62
     0
 10
821.27656071319996
 20
-293.70567708329997
 30
0.0
 11
821.27656071319996
 21
-287.70567708329997
 31
0.0
  0
SOLID
  5
49
  8
0
 62
     0
 10
821.27656071319996
 20
-293.70567708329997
 30
0.0
 11
819.77656071319996
 21
-287.70567708329997
 31
0.0
 12
822.77656071320007
 22
-287.70567708329997
 32
0.0
 13
821.27656071319996
 23
-289.20567708329997
 33
0.0
  0
LINE
  5
4A
  8
0
 62
     0
 10
821.27656071319996
 20
-301.70567708329997
 30
0.0
 11
821.27656071319996
 21
-307.70567708329997
 31
0.0
  0
SOLID
  5
4B
  8
0
 62
     0
 10
821.27656071319996
 20
-301.70567708329997
 30
0.0
 11
822.77656071320007
 21
-307.70567708329997
 31
0.0
 12
819.77656071319996
 22
-307.70567708329997
 32
0.0
 13
821.27656071319996
 23
-306.20567708329997
 33
0.0
  0
ENDBLK
  5
4C
  8
0
  0
BLOCK
  8
0
  2
*D2
 70
     1
 10
0.0
 20
0.0
 30
0.0
  3
*D2
  1

  0
TEXT
  5
50
  8
0
 62
     0
 10
598.21822741159997
 20
-297.23345475510001
 30
0.0
 40
5.9972220420999998
  1
16
 50
90.0
  0
LINE
  5
51
  8
0
 62
     0
 10
619.27656071319996
 20
-285.70567708330009
 30
0.0
 11
600.27656071319996
 21
-285.70567708330009
 31
0.0
  0
LINE
  5
52
  8
0
 62
     0
 10
619.27656071319996
 20
-301.70567708329997
 30
0.0
 11
600.27656071319996
 21
-301.70567708329997
 31
0.0
  0
LINE
  5
53
  8
0
 62
     0
 10
601.27656071319996
 20
-285.70567708330009
 30
0.0
 11
601.27656071319996
 21
-286.65012173970001
 31
0.0
  0
LINE
  5
54
  8
0
 62
     0
 10
601.27656071319996
 20
-285.70567708330009
 30
0.0
 11
601.27656071319996
 21
-300.76123242699998
 31
0.0
  0
LINE
  5
55
  8
0
 62
     0
 10
601.27656071319996
 20
-301.70567708329997
 30
0.0
 11
601.27656071319996
 21
-286.65012173970001
 31
0.0
  0
LINE
  5
56
  8
0
 62
     0
 10
601.27656071319996
 20
-301.70567708329997
 30
0.0
 11
601.27656071319996
 21
-300.76123242699998
 31
0.0
  0
LINE
  5
57
  8
0
 62
     0
 10
601.27656071319996
 20
-301.70567708329997
 30
0.0
 11
601.27656071319996
 21
-307.70567708329997
 31
0.0
  0
SOLID
  5
58
  8
0
 62
     0
 10
601.27656071319996
 20
-301.70567708329997
 30
0.0
 11
602.77656071319996
 21
-307.70567708329997
 31
0.0
 12
599.77656071319996
 22
-307.70567708329997
 32
0.0
 13
601.27656071319996
 23
-306.20567708329997
 33
0.0
  0
LINE
  5
59
  8
0
 62
     0
 10
601.27656071319996
 20
-285.70567708330009
 30
0.0
 11
601.27656071319996
 21
-279.70567708329997
 31
0.0
  0
SOLID
  5
5A
  8
0
 62
     0
 10
601.27656071319996
 20
-285.70567708330009
 30
0.0
 11
599.77656071319996
 21
-279.70567708329997
 31
0.0
 12
602.77656071319996
 22
-279.70567708329997
 32
0.0
 13
601.27656071319996
 23
-281.20567708329997
 33
0.0
  0
ENDBLK
  5
5B
  8
0
  0
BLOCK
  8
0
  2
*D3
 70
     1
 10
0.0
 20
0.0
 30
0.0
  3
*D3
  1

  0
TEXT
  5
60
  8
0
 62
     0
 10
795.51267187729991
 20
-263.64734378179998
 30
0.0
 40
5.9972220420999998
  1
8
  0
LINE
  5
61
  8
0
 62
     0
 10
801.27656071320007
 20
-284.70567708329997
 30
0.0
 11
801.27656071320007
 21
-265.20567708329997
 31
0.0
  0
LINE
  5
62
  8
0
 62
     0
 10
793.27656071319996
 20
-285.70567708330009
 30
0.0
 11
793.27656071319996
 21
-265.20567708329997
 31
0.0
  0
LINE
  5
63
  8
0
 62
     0
 10
801.27656071320007
 20
-265.70567708329997
 30
0.0
 11
801.27656071320007
 21
-265.70567708329997
 31
0.0
  0
LINE
  5
64
  8
0
 62
     0
 10
801.27656071320007
 20
-265.70567708329997
 30
0.0
 11
793.27656071319996
 21
-265.70567708329997
 31
0.0
  0
LINE
  5
65
  8
0
 62
     0
 10
793.27656071319996
 20
-265.70567708329997
 30
0.0
 11
801.27656071320007
 21
-265.70567708329997
 31
0.0
  0
LINE
  5
66
  8
0
 62
     0
 10
793.27656071319996
 20
-265.70567708329997
 30
0.0
 11
793.27656071319996
 21
-265.70567708329997
 31
0.0
  0
LINE
  5
67
  8
0
 62
     0
 10
793.27656071319996
 20
-265.70567708329997
 30
0.0
 11
790.27656071320007
 21
-265.70567708329997
 31
0.0
  0
SOLID
  5
68
  8
0
 62
     0
 10
793.27656071319996
 20
-265.70567708329997
 30
0.0
 11
787.27656071319996
 21
-267.20567708329997
 31
0.0
 12
787.27656071319996
 22
-264.20567708329997
 32
0.0
 13
788.77656071319996
 23
-265.70567708329997
 33
0.0
  0
LINE
  5
69
  8
0
 62
     0
 10
801.27656071320007
 20
-265.70567708329997
 30
0.0
 11
804.27656071319996
 21
-265.70567708329997
 31
0.0
  0
SOLID
  5
6A
  8
0
 62
     0
 10
801.27656071320007
 20
-265.70567708329997
 30
0.0
 11
807.27656071319996
 21
-264.20567708329997
 31
0.0
 12
807.27656071319996
 22
-267.20567708329997
 32
0.0
 13
805.77656071320007
 23
-265.70567708329997
 33
0.0
  0
ENDBLK
  5
6B
  8
0
  0
BLOCK
  8
0
  2
*D4
 70
     1
 10
0.0
 20
0.0
 30
0.0
  3
*D4
  1

  0
TEXT
  5
6F
  8
0
 62
     0
 10
715.48489420539977
 20
-263.64734378179998
 30
0.0
 40
5.9972220420999998
  1
145
  0
LINE
  5
70
  8
0
 62
     0
 10
793.27656071319996
 20
-285.70567708330009
 30
0.0
 11
793.27656071319996
 21
-265.20567708329997
 31
0.0
  0
LINE
  5
71
  8
0
 62
     0
 10
648.27656071319996
 20
-285.70567708330009
 30
0.0
 11
648.27656071319996
 21
-265.20567708329997
 31
0.0
  0
LINE
  5
72
  8
0
 62
     0
 10
793.27656071319996
 20
-265.70567708329997
 30
0.0
 11
729.59600489270008
 21
-265.70567708329997
 31
0.0
  0
LINE
  5
73
  8
0
 62
     0
 10
793.27656071319996
 20
-265.70567708329997
 30
0.0
 11
711.95711653360001
 21
-265.70567708329997
 31
0.0
  0
LINE
  5
74
  8
0
 62
     0
 10
648.27656071319996
 20
-265.70567708329997
 30
0.0
 11
729.59600489270008
 21
-265.70567708329997
 31
0.0
  0
LINE
  5
75
  8
0
 62
     0
 10
648.27656071319996
 20
-265.70567708329997
 30
0.0
 11
711.95711653360001
 21
-265.70567708329997
 31
0.0
  0
LINE
  5
76
  8
0
 62
     0
 10
648.27656071319996
 20
-265.70567708329997
 30
0.0
 11
651.27656071319996
 21
-265.70567708329997
 31
0.0
  0
SOLID
  5
77
  8
0
 62
     0
 10
648.27656071319996
 20
-265.70567708329997
 30
0.0
 11
654.27656071319996
 21
-264.20567708329997
 31
0.0
 12
654.27656071319996
 22
-267.20567708329997
 32
0.0
 13
652.77656071319996
 23
-265.70567708329997
 33
0.0
  0
LINE
  5
78
  8
0
 62
     0
 10
793.27656071319996
 20
-265.70567708329997
 30
0.0
 11
790.27656071320007
 21
-265.70567708329997
 31
0.0
  0
SOLID
  5
79
  8
0
 62
     0
 10
793.27656071319996
 20
-265.70567708329997
 30
0.0
 11
787.27656071319996
 21
-267.20567708329997
 31
0.0
 12
787.27656071319996
 22
-264.20567708329997
 32
0.0
 13
788.77656071319996
 23
-265.70567708329997
 33
0.0
  0
ENDBLK
  5
7A
  8
0
  0
BLOCK
  8
0
  2
*D5
 70
     1
 10
0.0
 20
0.0
 30
0.0
  3
*D5
  1

  0
TEXT
  5
7E
  8
0
 62
     0
 10
631.24878304129993
 20
-263.64734378179998
 30
0.0
 40
5.9972220420999998
  1
27
  0
LINE
  5
7F
  8
0
 62
     0
 10
648.27656071319996
 20
-285.70567708330009
 30
0.0
 11
648.27656071319996
 21
-265.20567708329997
 31
0.0
  0
LINE
  5
80
  8
0
 62
     0
 10
621.27656071319996
 20
-284.70567708329997
 30
0.0
 11
621.27656071319996
 21
-265.20567708329997
 31
0.0
  0
LINE
  5
81
  8
0
 62
     0
 10
648.27656071319996
 20
-265.70567708329997
 30
0.0
 11
641.83211605680003
 21
-265.70567708329997
 31
0.0
  0
LINE
  5
82
  8
0
 62
     0
 10
648.27656071319996
 20
-265.70567708329997
 30
0.0
 11
627.72100536949995
 21
-265.70567708329997
 31
0.0
  0
LINE
  5
83
  8
0
 62
     0
 10
621.27656071319996
 20
-265.70567708329997
 30
0.0
 11
641.83211605680003
 21
-265.70567708329997
 31
0.0
  0
LINE
  5
84
  8
0
 62
     0
 10
621.27656071319996
 20
-265.70567708329997
 30
0.0
 11
627.72100536949995
 21
-265.70567708329997
 31
0.0
  0
LINE
  5
85
  8
0
 62
     0
 10
621.27656071319996
 20
-265.70567708329997
 30
0.0
 11
624.27656071319996
 21
-265.70567708329997
 31
0.0
  0
SOLID
  5
86
  8
0
 62
     0
 10
621.27656071319996
 20
-265.70567708329997
 30
0.0
 11
627.27656071319996
 21
-264.20567708329997
 31
0.0
 12
627.27656071319996
 22
-267.20567708329997
 32
0.0
 13
625.77656071319996
 23
-265.70567708329997
 33
0.0
  0
LINE
  5
87
  8
0
 62
     0
 10
648.27656071319996
 20
-265.70567708329997
 30
0.0
 11
645.27656071319996
 21
-265.70567708329997
 31
0.0
  0
SOLID
  5
88
  8
0
 62
     0
 10
648.27656071319996
 20
-265.70567708329997
 30
0.0
 11
642.27656071319996
 21
-267.20567708329997
 31
0.0
 12
642.27656071319996
 22
-264.20567708329997
 32
0.0
 13
643.77656071319996
 23
-265.70567708329997
 33
0.0
  0
ENDBLK
  5
89
  8
0
  0
BLOCK
  8
0
  2
*D6
 70
     1
 10
0.0
 20
0.0
 30
0.0
  3
*D6
  1

  0
TEXT
  5
A6
  8
0
 62
     0
 10
659.31445172240001
 20
-135.37599112999999
 30
0.0
 40
5.9972220420999998
  1
90%%d
 50
319.53536152859999
  0
ARC
  5
A7
  8
0
 62
     0
 10
625.77656071319996
 20
-182.8467641444
 30
0.0
 40
54.7064538566
 50
81.865798781699993
 51
90.0
  0
ARC
  5
A8
  8
0
 62
     0
 10
625.77656071319996
 20
-182.8467641444
 30
0.0
 40
54.7064538566
 50
0.0
 51
8.1342012183000012
  0
SOLID
  5
A9
  8
0
 62
     0
 10
680.4830145697
 20
-182.8467641444
 30
0.0
 11
681.98301456969989
 21
-188.8467641444
 31
0.0
 12
678.9830145697
 22
-188.8467641444
 32
0.0
 13
680.4830145697
 23
-187.3467641444
 33
0.0
  0
SOLID
  5
AA
  8
0
 62
     0
 10
625.77656071319996
 20
-128.14031028790001
 30
0.0
 11
619.77656071319996
 21
-129.64031028790001
 31
0.0
 12
619.77656071319996
 22
-126.64031028789999
 32
0.0
 13
621.27656071319996
 23
-128.14031028790001
 33
0.0
  0
ARC
  5
AB
  8
0
 62
     0
 10
625.77656071319996
 20
-182.8467641444
 30
0.0
 40
54.7064538566
 50
0.0
 51
40.139068493499991
  0
ARC
  5
AC
  8
0
 62
     0
 10
625.77656071319996
 20
-182.8467641444
 30
0.0
 40
54.7064538566
 50
58.931654563800009
 51
90.0
  0
LINE
  5
AD
  8
0
 62
     0
 10
797.27656071319996
 20
-182.8467641444
 30
0.0
 11
676.4830145697
 21
-182.8467641444
 31
0.0
  0
LINE
  5
AE
  8
0
 62
     0
 10
625.77656071319996
 20
-101.3467641444
 30
0.0
 11
625.77656071319996
 21
-132.14031028790001
 31
0.0
  0
ENDBLK
  5
AF
  8
0
  0
BLOCK
  8
0
  2
*D7
 70
     1
 10
0.0
 20
0.0
 30
0.0
  3
*D7
  1

  0
TEXT
  5
B3
  8
0
 62
     0
 10
599.21822741159997
 20
-145.87454181620001
 30
0.0
 40
5.9972220420999998
  1
90
 50
90.0
  0
LINE
  5
B4
  8
0
 62
     0
 10
620.27656071319996
 20
-97.346764144400026
 30
0.0
 11
600.77656071319996
 21
-97.346764144400026
 31
0.0
  0
LINE
  5
B5
  8
0
 62
     0
 10
625.27656071319996
 20
-187.3467641444
 30
0.0
 11
600.77656071319996
 21
-187.3467641444
 31
0.0
  0
LINE
  5
B6
  8
0
 62
     0
 10
601.27656071319996
 20
-97.346764144400026
 30
0.0
 11
601.27656071319996
 21
-135.29120880080001
 31
0.0
  0
LINE
  5
B7
  8
0
 62
     0
 10
601.27656071319996
 20
-97.346764144400026
 30
0.0
 11
601.27656071319996
 21
-149.40231948799999
 31
0.0
  0
LINE
  5
B8
  8
0
 62
     0
 10
601.27656071319996
 20
-187.3467641444
 30
0.0
 11
601.27656071319996
 21
-135.29120880080001
 31
0.0
  0
LINE
  5
B9
  8
0
 62
     0
 10
601.27656071319996
 20
-187.3467641444
 30
0.0
 11
601.27656071319996
 21
-149.40231948799999
 31
0.0
  0
LINE
  5
BA
  8
0
 62
     0
 10
601.27656071319996
 20
-187.3467641444
 30
0.0
 11
601.27656071319996
 21
-184.3467641444
 31
0.0
  0
SOLID
  5
BB
  8
0
 62
     0
 10
601.27656071319996
 20
-187.3467641444
 30
0.0
 11
599.77656071319996
 21
-181.3467641444
 31
0.0
 12
602.77656071319996
 22
-181.3467641444
 32
0.0
 13
601.27656071319996
 23
-182.8467641444
 33
0.0
  0
LINE
  5
BC
  8
0
 62
     0
 10
601.27656071319996
 20
-97.346764144400026
 30
0.0
 11
601.27656071319996
 21
-100.3467641444
 31
0.0
  0
SOLID
  5
BD
  8
0
 62
     0
 10
601.27656071319996
 20
-97.346764144400026
 30
0.0
 11
602.77656071319996
 21
-103.3467641444
 31
0.0
 12
599.77656071319996
 22
-103.3467641444
 32
0.0
 13
601.27656071319996
 23
-101.8467641444
 33
0.0
  0
ENDBLK
  5
BE
  8
0
  0
BLOCK
  8
0
  2
*D8
 70
     1
 10
0.0
 20
0.0
 30
0.0
  3
*D8
  1

  0
TEXT
  5
C2
  8
0
 62
     0
 10
705.98489420539977
 20
-205.2884308429
 30
0.0
 40
5.9972220420999998
  1
180
  0
LINE
  5
C3
  8
0
 62
     0
 10
621.27656071319996
 20
-183.3467641444
 30
0.0
 11
621.27656071319996
 21
-207.8467641444
 31
0.0
  0
LINE
  5
C4
  8
0
 62
     0
 10
801.27656071320007
 20
-188.3467641444
 30
0.0
 11
801.27656071320007
 21
-207.8467641444
 31
0.0
  0
LINE
  5
C5
  8
0
 62
     0
 10
621.27656071319996
 20
-207.3467641444
 30
0.0
 11
720.09600489270008
 21
-207.3467641444
 31
0.0
  0
LINE
  5
C6
  8
0
 62
     0
 10
621.27656071319996
 20
-207.3467641444
 30
0.0
 11
702.4571165335999
 21
-207.3467641444
 31
0.0
  0
LINE
  5
C7
  8
0
 62
     0
 10
801.27656071320007
 20
-207.3467641444
 30
0.0
 11
720.09600489270008
 21
-207.3467641444
 31
0.0
  0
LINE
  5
C8
  8
0
 62
     0
 10
801.27656071320007
 20
-207.3467641444
 30
0.0
 11
702.4571165335999
 21
-207.3467641444
 31
0.0
  0
LINE
  5
C9
  8
0
 62
     0
 10
801.27656071320007
 20
-207.3467641444
 30
0.0
 11
798.27656071320007
 21
-207.3467641444
 31
0.0
  0
SOLID
  5
CA
  8
0
 62
     0
 10
801.27656071320007
 20
-207.3467641444
 30
0.0
 11
795.27656071319996
 21
-208.8467641444
 31
0.0
 12
795.27656071319996
 22
-205.8467641444
 32
0.0
 13
796.77656071319996
 23
-207.3467641444
 33
0.0
  0
LINE
  5
CB
  8
0
 62
     0
 10
621.27656071319996
 20
-207.3467641444
 30
0.0
 11
624.27656071319996
 21
-207.3467641444
 31
0.0
  0
SOLID
  5
CC
  8
0
 62
     0
 10
621.27656071319996
 20
-207.3467641444
 30
0.0
 11
627.27656071319996
 21
-205.8467641444
 31
0.0
 12
627.27656071319996
 22
-208.8467641444
 32
0.0
 13
625.77656071319996
 23
-207.3467641444
 33
0.0
  0
ENDBLK
  5
CD
  8
0
  0
BLOCK
  8
0
  2
*D9
 70
     1
 10
0.0
 20
0.0
 30
0.0
  3
*D9
  1

  0
TEXT
  5
D1
  8
0
 62
     0
 10
1000.196836441
 20
-164.88721273620001
 30
0.0
 40
5.9972220420999998
  1
%%c8.5
  0
LINE
  5
D2
  8
0
 62
     0
 10
1030.2662806205999
 20
-208.76858249599999
 30
0.0
 11
1030.2662806205999
 21
-166.44554603770001
 31
0.0
  0
LINE
  5
D3
  8
0
 62
     0
 10
987.76628062060001
 20
-208.76858249599999
 30
0.0
 11
987.76628062060001
 21
-166.44554603770001
 31
0.0
  0
LINE
  5
D4
  8
0
 62
     0
 10
1030.2662806205999
 20
-166.94554603770001
 30
0.0
 11
1021.3635024719
 21
-166.94554603770001
 31
0.0
  0
LINE
  5
D5
  8
0
 62
     0
 10
1030.2662806205999
 20
-166.94554603770001
 30
0.0
 11
996.66905876919986
 21
-166.94554603770001
 31
0.0
  0
LINE
  5
D6
  8
0
 62
     0
 10
987.76628062060001
 20
-166.94554603770001
 30
0.0
 11
1021.3635024719
 21
-166.94554603770001
 31
0.0
  0
LINE
  5
D7
  8
0
 62
     0
 10
987.76628062060001
 20
-166.94554603770001
 30
0.0
 11
996.66905876919986
 21
-166.94554603770001
 31
0.0
  0
LINE
  5
D8
  8
0
 62
     0
 10
987.76628062060001
 20
-166.94554603770001
 30
0.0
 11
990.7662806205999
 21
-166.94554603770001
 31
0.0
  0
SOLID
  5
D9
  8
0
 62
     0
 10
987.76628062060001
 20
-166.94554603770001
 30
0.0
 11
993.76628062060013
 21
-165.44554603770001
 31
0.0
 12
993.76628062060013
 22
-168.44554603770001
 32
0.0
 13
992.26628062060001
 23
-166.94554603770001
 33
0.0
  0
LINE
  5
DA
  8
0
 62
     0
 10
1030.2662806205999
 20
-166.94554603770001
 30
0.0
 11
1027.2662806205999
 21
-166.94554603770001
 31
0.0
  0
SOLID
  5
DB
  8
0
 62
     0
 10
1030.2662806205999
 20
-166.94554603770001
 30
0.0
 11
1024.2662806205999
 21
-168.44554603770001
 31
0.0
 12
1024.2662806205999
 22
-165.44554603770001
 32
0.0
 13
1025.7662806205999
 23
-166.94554603770001
 33
0.0
  0
ENDBLK
  5
DC
  8
0
  0
BLOCK
  8
0
  2
*D10
 70
     1
 10
0.0
 20
0.0
 30
0.0
  3
*D10
  1

  0
TEXT
  5
E0
  8
0
 62
     0
 10
1003.7246141128001
 20
-185.26839763199999
 30
0.0
 40
5.9972220420999998
  1
%%c5
  0
LINE
  5
E1
  8
0
 62
     0
 10
1021.5162806206
 20
-217.51858249599999
 30
0.0
 11
1021.5162806206
 21
-186.82673093349999
 31
0.0
  0
LINE
  5
E2
  8
0
 62
     0
 10
996.51628062060001
 20
-217.51858249599999
 30
0.0
 11
996.51628062060001
 21
-186.82673093349999
 31
0.0
  0
LINE
  5
E3
  8
0
 62
     0
 10
1021.5162806206
 20
-187.32673093349999
 30
0.0
 11
1017.8357248001
 21
-187.32673093349999
 31
0.0
  0
LINE
  5
E4
  8
0
 62
     0
 10
1021.5162806206
 20
-187.32673093349999
 30
0.0
 11
1000.196836441
 21
-187.32673093349999
 31
0.0
  0
LINE
  5
E5
  8
0
 62
     0
 10
996.51628062060001
 20
-187.32673093349999
 30
0.0
 11
1017.8357248001
 21
-187.32673093349999
 31
0.0
  0
LINE
  5
E6
  8
0
 62
     0
 10
996.51628062060001
 20
-187.32673093349999
 30
0.0
 11
1000.196836441
 21
-187.32673093349999
 31
0.0
  0
LINE
  5
E7
  8
0
 62
     0
 10
996.51628062060001
 20
-187.32673093349999
 30
0.0
 11
993.5162806205999
 21
-187.32673093349999
 31
0.0
  0
SOLID
  5
E8
  8
0
 62
     0
 10
996.51628062060001
 20
-187.32673093349999
 30
0.0
 11
990.51628062060001
 21
-188.82673093349999
 31
0.0
 12
990.51628062060001
 22
-185.82673093349999
 32
0.0
 13
992.01628062060001
 23
-187.32673093349999
 33
0.0
  0
LINE
  5
E9
  8
0
 62
     0
 10
1021.5162806206
 20
-187.32673093349999
 30
0.0
 11
1024.5162806205999
 21
-187.32673093349999
 31
0.0
  0
SOLID
  5
EA
  8
0
 62
     0
 10
1021.5162806206
 20
-187.32673093349999
 30
0.0
 11
1027.5162806205999
 21
-185.82673093349999
 31
0.0
 12
1027.5162806205999
 22
-188.82673093349999
 32
0.0
 13
1026.0162806205999
 23
-187.32673093349999
 33
0.0
  0
ENDBLK
  5
EB
  8
0
  0
BLOCK
  8
0
  2
*D11
 70
     1
 10
0.0
 20
0.0
 30
0.0
  3
*D11
  1

  0
TEXT
  5
EF
  8
0
 62
     0
 10
852.06588366159997
 20
-103.1106529803
 30
0.0
 40
5.9972220420999998
  1
8
 50
90.0
  0
LINE
  5
F0
  8
0
 62
     0
 10
873.12421696319996
 20
-97.346764144400026
 30
0.0
 11
853.62421696319996
 21
-97.346764144400026
 31
0.0
  0
LINE
  5
F1
  8
0
 62
     0
 10
874.12421696319996
 20
-105.3467641444
 30
0.0
 11
853.62421696319996
 21
-105.3467641444
 31
0.0
  0
LINE
  5
F2
  8
0
 62
     0
 10
854.12421696320007
 20
-97.346764144400026
 30
0.0
 11
854.12421696320007
 21
-97.346764144400026
 31
0.0
  0
LINE
  5
F3
  8
0
 62
     0
 10
854.12421696320007
 20
-97.346764144400026
 30
0.0
 11
854.12421696320007
 21
-105.3467641444
 31
0.0
  0
LINE
  5
F4
  8
0
 62
     0
 10
854.12421696320007
 20
-105.3467641444
 30
0.0
 11
854.12421696320007
 21
-97.346764144400026
 31
0.0
  0
LINE
  5
F5
  8
0
 62
     0
 10
854.12421696320007
 20
-105.3467641444
 30
0.0
 11
854.12421696320007
 21
-105.3467641444
 31
0.0
  0
LINE
  5
F6
  8
0
 62
     0
 10
854.12421696320007
 20
-105.3467641444
 30
0.0
 11
854.12421696320007
 21
-108.3467641444
 31
0.0
  0
SOLID
  5
F7
  8
0
 62
     0
 10
854.12421696320007
 20
-105.3467641444
 30
0.0
 11
855.62421696319996
 21
-111.3467641444
 31
0.0
 12
852.62421696319996
 22
-111.3467641444
 32
0.0
 13
854.12421696320007
 23
-109.8467641444
 33
0.0
  0
LINE
  5
F8
  8
0
 62
     0
 10
854.12421696320007
 20
-97.346764144400026
 30
0.0
 11
854.12421696320007
 21
-94.346764144400012
 31
0.0
  0
SOLID
  5
F9
  8
0
 62
     0
 10
854.12421696320007
 20
-97.346764144400026
 30
0.0
 11
852.62421696319996
 21
-91.346764144400012
 31
0.0
 12
855.62421696319996
 22
-91.346764144400012
 32
0.0
 13
854.12421696320007
 23
-92.846764144400012
 33
0.0
  0
ENDBLK
  5
FA
  8
0
  0
BLOCK
  8
0
  2
*D12
 70
     1
 10
0.0
 20
0.0
 30
0.0
  3
*D12
  1

  0
TEXT
  5
FE
  8
0
 62
     0
 10
852.06588366159997
 20
-136.37454181620001
 30
0.0
 40
5.9972220420999998
  1
55
 50
90.0
  0
LINE
  5
FF
  8
0
 62
     0
 10
874.12421696319996
 20
-105.3467641444
 30
0.0
 11
853.62421696319996
 21
-105.3467641444
 31
0.0
  0
LINE
  5
100
  8
0
 62
     0
 10
874.12421696319996
 20
-160.3467641444
 30
0.0
 11
853.62421696319996
 21
-160.3467641444
 31
0.0
  0
LINE
  5
101
  8
0
 62
     0
 10
854.12421696320007
 20
-105.3467641444
 30
0.0
 11
854.12421696320007
 21
-125.79120880080001
 31
0.0
  0
LINE
  5
102
  8
0
 62
     0
 10
854.12421696320007
 20
-105.3467641444
 30
0.0
 11
854.12421696320007
 21
-139.90231948799999
 31
0.0
  0
LINE
  5
103
  8
0
 62
     0
 10
854.12421696320007
 20
-160.3467641444
 30
0.0
 11
854.12421696320007
 21
-125.79120880080001
 31
0.0
  0
LINE
  5
104
  8
0
 62
     0
 10
854.12421696320007
 20
-160.3467641444
 30
0.0
 11
854.12421696320007
 21
-139.90231948799999
 31
0.0
  0
LINE
  5
105
  8
0
 62
     0
 10
854.12421696320007
 20
-160.3467641444
 30
0.0
 11
854.12421696320007
 21
-157.3467641444
 31
0.0
  0
SOLID
  5
106
  8
0
 62
     0
 10
854.12421696320007
 20
-160.3467641444
 30
0.0
 11
852.62421696319996
 21
-154.3467641444
 31
0.0
 12
855.62421696319996
 22
-154.3467641444
 32
0.0
 13
854.12421696320007
 23
-155.8467641444
 33
0.0
  0
LINE
  5
107
  8
0
 62
     0
 10
854.12421696320007
 20
-105.3467641444
 30
0.0
 11
854.12421696320007
 21
-108.3467641444
 31
0.0
  0
SOLID
  5
108
  8
0
 62
     0
 10
854.12421696320007
 20
-105.3467641444
 30
0.0
 11
855.62421696319996
 21
-111.3467641444
 31
0.0
 12
852.62421696319996
 22
-111.3467641444
 32
0.0
 13
854.12421696320007
 23
-109.8467641444
 33
0.0
  0
ENDBLK
  5
109
  8
0
  0
BLOCK
  8
0
  2
*D13
 70
     1
 10
0.0
 20
0.0
 30
0.0
  3
*D13
  1

  0
TEXT
  5
10D
  8
0
 62
     0
 10
852.06588366159997
 20
-177.37454181620001
 30
0.0
 40
5.9972220420999998
  1
27
 50
90.0
  0
LINE
  5
10E
  8
0
 62
     0
 10
874.12421696319996
 20
-160.3467641444
 30
0.0
 11
853.62421696319996
 21
-160.3467641444
 31
0.0
  0
LINE
  5
10F
  8
0
 62
     0
 10
873.12421696319996
 20
-187.3467641444
 30
0.0
 11
853.62421696319996
 21
-187.3467641444
 31
0.0
  0
LINE
  5
110
  8
0
 62
     0
 10
854.12421696320007
 20
-160.3467641444
 30
0.0
 11
854.12421696320007
 21
-166.79120880080001
 31
0.0
  0
LINE
  5
111
  8
0
 62
     0
 10
854.12421696320007
 20
-160.3467641444
 30
0.0
 11
854.12421696320007
 21
-180.90231948799999
 31
0.0
  0
LINE
  5
112
  8
0
 62
     0
 10
854.12421696320007
 20
-187.3467641444
 30
0.0
 11
854.12421696320007
 21
-166.79120880080001
 31
0.0
  0
LINE
  5
113
  8
0
 62
     0
 10
854.12421696320007
 20
-187.3467641444
 30
0.0
 11
854.12421696320007
 21
-180.90231948799999
 31
0.0
  0
LINE
  5
114
  8
0
 62
     0
 10
854.12421696320007
 20
-187.3467641444
 30
0.0
 11
854.12421696320007
 21
-184.3467641444
 31
0.0
  0
SOLID
  5
115
  8
0
 62
     0
 10
854.12421696320007
 20
-187.3467641444
 30
0.0
 11
852.62421696319996
 21
-181.3467641444
 31
0.0
 12
855.62421696319996
 22
-181.3467641444
 32
0.0
 13
854.12421696320007
 23
-182.8467641444
 33
0.0
  0
LINE
  5
116
  8
0
 62
     0
 10
854.12421696320007
 20
-160.3467641444
 30
0.0
 11
854.12421696320007
 21
-163.3467641444
 31
0.0
  0
SOLID
  5
117
  8
0
 62
     0
 10
854.12421696320007
 20
-160.3467641444
 30
0.0
 11
855.62421696319996
 21
-166.3467641444
 31
0.0
 12
852.62421696319996
 22
-166.3467641444
 32
0.0
 13
854.12421696320007
 23
-164.8467641444
 33
0.0
  0
ENDBLK
  5
118
  8
0
  0
BLOCK
  8
0
  2
*D14
 70
     1
 10
0.0
 20
0.0
 30
0.0
  3
*D14
  1

  0
TEXT
  5
11C
  8
0
 62
     0
 10
878.59643929129993
 20
-60.413041743800001
 30
0.0
 40
5.9972220420999998
  1
16
  0
LINE
  5
11D
  8
0
 62
     0
 10
890.12421696319996
 20
-96.346764144400012
 30
0.0
 11
890.12421696319996
 21
-61.9713750453
 31
0.0
  0
LINE
  5
11E
  8
0
 62
     0
 10
874.12421696319996
 20
-96.346764144400012
 30
0.0
 11
874.12421696319996
 21
-61.9713750453
 31
0.0
  0
LINE
  5
11F
  8
0
 62
     0
 10
890.12421696319996
 20
-62.4713750453
 30
0.0
 11
889.1797723067998
 21
-62.4713750453
 31
0.0
  0
LINE
  5
120
  8
0
 62
     0
 10
890.12421696319996
 20
-62.4713750453
 30
0.0
 11
875.06866161949984
 21
-62.4713750453
 31
0.0
  0
LINE
  5
121
  8
0
 62
     0
 10
874.12421696319996
 20
-62.4713750453
 30
0.0
 11
889.1797723067998
 21
-62.4713750453
 31
0.0
  0
LINE
  5
122
  8
0
 62
     0
 10
874.12421696319996
 20
-62.4713750453
 30
0.0
 11
875.06866161949984
 21
-62.4713750453
 31
0.0
  0
LINE
  5
123
  8
0
 62
     0
 10
874.12421696319996
 20
-62.4713750453
 30
0.0
 11
871.12421696320007
 21
-62.4713750453
 31
0.0
  0
SOLID
  5
124
  8
0
 62
     0
 10
874.12421696319996
 20
-62.4713750453
 30
0.0
 11
868.12421696319996
 21
-63.9713750453
 31
0.0
 12
868.12421696319996
 22
-60.9713750453
 32
0.0
 13
869.62421696319996
 23
-62.4713750453
 33
0.0
  0
LINE
  5
125
  8
0
 62
     0
 10
890.12421696319996
 20
-62.4713750453
 30
0.0
 11
893.12421696319996
 21
-62.4713750453
 31
0.0
  0
SOLID
  5
126
  8
0
 62
     0
 10
890.12421696319996
 20
-62.4713750453
 30
0.0
 11
896.12421696320007
 21
-60.9713750453
 31
0.0
 12
896.12421696320007
 22
-63.9713750453
 32
0.0
 13
894.62421696319996
 23
-62.4713750453
 33
0.0
  0
ENDBLK
  5
127
  8
0
  0
BLOCK
  8
0
  2
*D15
 70
     1
 10
0.0
 20
0.0
 30
0.0
  3
*D15
  1

  0
TEXT
  5
12B
  8
0
 62
     0
 10
1003.7246141128001
 20
-143.86900281800001
 30
0.0
 40
5.9972220420999998
  1
90%%d
 50
360.0
  0
ARC
  5
12C
  8
0
 62
     0
 10
1009.0162806206
 20
-231.01858249599999
 30
0.0
 40
83.974579773399995
 50
129.98880930510001
 51
135.0
  0
ARC
  5
12D
  8
0
 62
     0
 10
1009.0162806206
 20
-231.01858249599999
 30
0.0
 40
83.974579773399995
 50
45.0
 51
50.011190694899987
  0
SOLID
  5
12E
  8
0
 62
     0
 10
1068.3952754255999
 20
-171.639587691
 30
0.0
 11
1073.6985762844999
 21
-174.82156820629999
 31
0.0
 12
1071.577255941
 22
-176.9428885499
 32
0.0
 13
1071.577255941
 23
-174.82156820629999
 33
0.0
  0
SOLID
  5
12F
  8
0
 62
     0
 10
949.63728581550004
 20
-171.639587691
 30
0.0
 11
946.45530530009989
 21
-176.9428885499
 31
0.0
 12
944.33398495659992
 22
-174.82156820629999
 32
0.0
 13
946.45530530009989
 23
-174.82156820629999
 33
0.0
  0
ARC
  5
130
  8
0
 62
     0
 10
1009.0162806206
 20
-231.01858249599999
 30
0.0
 40
83.974579773399995
 50
45.0
 51
83.902775550499996
  0
ARC
  5
131
  8
0
 62
     0
 10
1009.0162806206
 20
-231.01858249599999
 30
0.0
 40
83.974579773399995
 50
96.097224449500004
 51
135.0
  0
LINE
  5
132
  8
0
 62
     0
 10
1033.2771951699999
 20
-206.75766794660001
 30
0.0
 11
1071.4061899751
 21
-168.6286731415
 31
0.0
  0
LINE
  5
133
  8
0
 62
     0
 10
984.75536607109996
 20
-206.75766794660001
 30
0.0
 11
946.62637126610002
 21
-168.6286731415
 31
0.0
  0
ENDBLK
  5
134
  8
0
  0
BLOCK
  8
0
  2
*D16
 70
     1
 10
0.0
 20
0.0
 30
0.0
  3
*D16
  1

  0
TEXT
  5
13A
  8
0
 62
     0
 10
901.62787943080002
 20
-74.288430842899999
 30
0.0
 40
5.9972220420999998
  1
8
  0
LINE
  5
13B
  8
0
 62
     0
 10
890.12421696319996
 20
-95.346764144400012
 30
0.0
 11
890.12421696319996
 21
-76.346764144399998
 31
0.0
  0
LINE
  5
13C
  8
0
 62
     0
 10
882.12421696319996
 20
-96.346764144400012
 30
0.0
 11
882.12421696319996
 21
-76.346764144399998
 31
0.0
  0
LINE
  5
13D
  8
0
 62
     0
 10
890.12421696319996
 20
-77.346764144399984
 30
0.0
 11
908.68343477439998
 21
-77.346764144399984
 31
0.0
  0
LINE
  5
13E
  8
0
 62
     0
 10
890.12421696319996
 20
-77.346764144399984
 30
0.0
 11
898.10010175889988
 21
-77.346764144399984
 31
0.0
  0
LINE
  5
13F
  8
0
 62
     0
 10
882.12421696319996
 20
-77.346764144399984
 30
0.0
 11
908.68343477439998
 21
-77.346764144399984
 31
0.0
  0
LINE
  5
140
  8
0
 62
     0
 10
882.12421696319996
 20
-77.346764144399984
 30
0.0
 11
898.10010175889988
 21
-77.346764144399984
 31
0.0
  0
LINE
  5
141
  8
0
 62
     0
 10
882.12421696319996
 20
-77.346764144399984
 30
0.0
 11
876.12421696319996
 21
-77.346764144399984
 31
0.0
  0
SOLID
  5
142
  8
0
 62
     0
 10
882.12421696319996
 20
-77.346764144399984
 30
0.0
 11
876.12421696319996
 21
-78.846764144399998
 31
0.0
 12
876.12421696319996
 22
-75.846764144399998
 32
0.0
 13
877.62421696319996
 23
-77.346764144399984
 33
0.0
  0
LINE
  5
143
  8
0
 62
     0
 10
890.12421696319996
 20
-77.346764144399984
 30
0.0
 11
896.12421696320007
 21
-77.346764144399984
 31
0.0
  0
SOLID
  5
144
  8
0
 62
     0
 10
890.12421696319996
 20
-77.346764144399984
 30
0.0
 11
896.12421696320007
 21
-75.846764144399998
 31
0.0
 12
896.12421696320007
 22
-78.846764144399998
 32
0.0
 13
894.62421696319996
 23
-77.346764144399984
 33
0.0
  0
ENDBLK
  5
145
  8
0
  0
BLOCK
  8
0
  2
*D17
 70
     1
 10
0.0
 20
0.0
 30
0.0
  3
*D17
  1

  0
TEXT
  5
149
  8
0
 62
     0
 10
862.3267109274999
 20
-74.288430842899999
 30
0.0
 40
5.9972220420999998
  1
8
  0
LINE
  5
14A
  8
0
 62
     0
 10
882.12421696319996
 20
-96.346764144400012
 30
0.0
 11
882.12421696319996
 21
-76.346764144399998
 31
0.0
  0
LINE
  5
14B
  8
0
 62
     0
 10
874.12421696319996
 20
-95.346764144400012
 30
0.0
 11
874.12421696319996
 21
-76.346764144399998
 31
0.0
  0
LINE
  5
14C
  8
0
 62
     0
 10
882.12421696319996
 20
-77.346764144399984
 30
0.0
 11
869.38226627109987
 21
-77.346764144399984
 31
0.0
  0
LINE
  5
14D
  8
0
 62
     0
 10
882.12421696319996
 20
-77.346764144399984
 30
0.0
 11
858.79893325570004
 21
-77.346764144399984
 31
0.0
  0
LINE
  5
14E
  8
0
 62
     0
 10
874.12421696319996
 20
-77.346764144399984
 30
0.0
 11
869.38226627109987
 21
-77.346764144399984
 31
0.0
  0
LINE
  5
14F
  8
0
 62
     0
 10
874.12421696319996
 20
-77.346764144399984
 30
0.0
 11
858.79893325570004
 21
-77.346764144399984
 31
0.0
  0
LINE
  5
150
  8
0
 62
     0
 10
874.12421696319996
 20
-77.346764144399984
 30
0.0
 11
868.12421696319996
 21
-77.346764144399984
 31
0.0
  0
SOLID
  5
151
  8
0
 62
     0
 10
874.12421696319996
 20
-77.346764144399984
 30
0.0
 11
868.12421696319996
 21
-78.846764144399998
 31
0.0
 12
868.12421696319996
 22
-75.846764144399998
 32
0.0
 13
869.62421696319996
 23
-77.346764144399984
 33
0.0
  0
LINE
  5
152
  8
0
 62
     0
 10
882.12421696319996
 20
-77.346764144399984
 30
0.0
 11
888.12421696320007
 21
-77.346764144399984
 31
0.0
  0
SOLID
  5
153
  8
0
 62
     0
 10
882.12421696319996
 20
-77.346764144399984
 30
0.0
 11
888.12421696320007
 21
-75.846764144399998
 31
0.0
 12
888.12421696320007
 22
-78.846764144399998
 32
0.0
 13
886.62421696319996
 23
-77.346764144399984
 33
0.0
  0
ENDBLK
  5
154
  8
0
  0
BLOCK
  8
0
  2
*D18
 70
     1
 10
0.0
 20
0.0
 30
0.0
  3
*D18
  1

  0
TEXT
  5
158
  8
0
 62
     0
 10
630.97779815390004
 20
-75.288430842899999
 30
0.0
 40
5.9972220420999998
  1
4.5t
  0
LINE
  5
159
  8
0
 62
     0
 10
625.77656071319996
 20
-96.346764144400012
 30
0.0
 11
625.77656071319996
 21
-76.846764144399998
 31
0.0
  0
LINE
  5
15A
  8
0
 62
     0
 10
621.27656071319996
 20
-96.346764144400012
 30
0.0
 11
621.27656071319996
 21
-76.846764144399998
 31
0.0
  0
LINE
  5
15B
  8
0
 62
     0
 10
625.77656071319996
 20
-77.346764144399984
 30
0.0
 11
648.61668651289995
 21
-77.346764144399984
 31
0.0
  0
LINE
  5
15C
  8
0
 62
     0
 10
625.77656071319996
 20
-77.346764144399984
 30
0.0
 11
627.45002048209994
 21
-77.346764144399984
 31
0.0
  0
LINE
  5
15D
  8
0
 62
     0
 10
621.27656071319996
 20
-77.346764144399984
 30
0.0
 11
648.61668651289995
 21
-77.346764144399984
 31
0.0
  0
LINE
  5
15E
  8
0
 62
     0
 10
621.27656071319996
 20
-77.346764144399984
 30
0.0
 11
627.45002048209994
 21
-77.346764144399984
 31
0.0
  0
LINE
  5
15F
  8
0
 62
     0
 10
621.27656071319996
 20
-77.346764144399984
 30
0.0
 11
618.27656071319996
 21
-77.346764144399984
 31
0.0
  0
SOLID
  5
160
  8
0
 62
     0
 10
621.27656071319996
 20
-77.346764144399984
 30
0.0
 11
615.27656071319996
 21
-78.846764144399998
 31
0.0
 12
615.27656071319996
 22
-75.846764144399998
 32
0.0
 13
616.77656071319996
 23
-77.346764144399984
 33
0.0
  0
LINE
  5
161
  8
0
 62
     0
 10
625.77656071319996
 20
-77.346764144399984
 30
0.0
 11
628.77656071319996
 21
-77.346764144399984
 31
0.0
  0
SOLID
  5
162
  8
0
 62
     0
 10
625.77656071319996
 20
-77.346764144399984
 30
0.0
 11
631.77656071319996
 21
-75.846764144399998
 31
0.0
 12
631.77656071319996
 22
-78.846764144399998
 32
0.0
 13
630.27656071319996
 23
-77.346764144399984
 33
0.0
  0
ENDBLK
  5
163
  8
0
  0
BLOCK
  8
0
  2
*U19
 70
     1
 10
0.0
 20
0.0
 30
0.0
  3
*U19
  1

  0
TEXT
  5
214
  8
┌▓È_1
  6
CONTINUOUS
 10
1027.5215155071669
 20
-372.59806667610002
 30
0.0
 40
7.1966662884000003
  1
LY-205  90x180
  0
ENDBLK
  5
216
  8
0
  0
BLOCK
  8
0
  2
*D20
 70
     1
 10
0.0
 20
0.0
 30
0.0
  3
*D20
  1

  0
LINE
  5
219
  8
Éíû@É³
 62
     0
 10
801.21406071319996
 20
-182.84676414439991
 30
0.0
 11
679.23301456968613
 21
-182.8467641444
 31
0.0
  0
LINE
  5
21A
  8
Éíû@É³
 62
     0
 10
625.77656071319984
 20
-97.409264144399998
 30
0.0
 11
625.77656071319984
 21
-129.39031028791379
 31
0.0
  0
ARC
  5
21B
  8
Éíû@É³
 62
     0
 10
625.77656071319984
 20
-182.8467641444
 30
0.0
 40
54.706453856486178
 50
6.2871414157256043
 51
39.8690095881635
  0
ARC
  5
21C
  8
Éíû@É³
 62
     0
 10
625.77656071319984
 20
-182.8467641444
 30
0.0
 40
54.706453856486178
 50
59.201713469121309
 51
83.712858584274414
  0
SOLID
  5
21D
  8
Éíû@É³
 62
     0
 10
681.15248100618396
 20
-176.80095446410041
 30
0.0
 11
679.15549049168146
 21
-176.91063073768501
 31
0.0
 12
680.48301456968613
 22
-182.84676414439991
 32
0.0
 13
680.48301456968613
 23
-182.84676414439991
 33
0.0
  0
SOLID
  5
21E
  8
Éíû@É³
 62
     0
 10
631.71269411991477
 20
-129.46783436591829
 30
0.0
 11
631.82237039349945
 21
-127.47084385141601
 31
0.0
 12
625.77656071319984
 22
-128.14031028791379
 32
0.0
 13
625.77656071319984
 23
-128.14031028791379
 33
0.0
  0
TEXT
  8
Éíû@É³
  40
5.99722
  5
27C
  62
0
  72
0
  71
0
 10
649.285
 20
-151.841
 30
0.000000
  1
90üï
  0
POINT
  5
220
  8
Defpoints
 62
     0
 10
625.77656071319984
 20
-182.8467641444
 30
0.0
  0
POINT
  5
221
  8
Defpoints
 62
     0
 10
801.27656071319996
 20
-182.84676414439991
 30
0.0
  0
POINT
  5
222
  8
Defpoints
 62
     0
 10
625.77656071319984
 20
-97.346764144399955
 30
0.0
  0
POINT
  5
223
  8
Defpoints
 62
     0
 10
673.15373950387811
 20
-155.49353721615691
 30
0.0
  0
ENDBLK
  5
225
  8
0
  0
BLOCK
  8
0
  2
*D21
 70
     1
 10
0.0
 20
0.0
 30
0.0
  3
*D21
  1

  0
LINE
  5
227
  8
Éíû@É³
 62
     0
 10
1030.840804880324
 20
-209.19405823627579
 30
0.0
 11
1069.2791589021449
 21
-170.75570421445479
 31
0.0
  0
LINE
  5
228
  8
Éíû@É³
 62
     0
 10
987.19175636087596
 20
-209.19405823627579
 30
0.0
 11
948.75340233905501
 21
-170.75570421445491
 31
0.0
  0
ARC
  5
229
  8
Éíû@É³
 62
     0
 10
1009.0162806206
 20
-231.01858249599999
 30
0.0
 40
83.974579773399995
 50
49.094665857689648
 51
83.719979200347794
  0
ARC
  5
22A
  8
Éíû@É³
 62
     0
 10
1009.0162806206
 20
-231.01858249599999
 30
0.0
 40
83.974579773399995
 50
96.280020799652206
 51
130.90533414231049
  0
SOLID
  5
22B
  8
Éíû@É³
 62
     0
 10
1064.6851682022159
 20
-166.8193071606641
 30
0.0
 11
1063.3223803125841
 21
-168.28314088341801
 31
0.0
 12
1068.395275425662
 22
-171.63958769093799
 32
0.0
 13
1068.395275425662
 23
-171.63958769093799
 33
0.0
  0
SOLID
  5
22C
  8
Éíû@É³
 62
     0
 10
954.71018092861607
 20
-168.2831408834181
 30
0.0
 11
953.3473930389838
 21
-166.81930716066429
 31
0.0
 12
949.63728581553823
 22
-171.6395876909381
 32
0.0
 13
949.63728581553823
 23
-171.6395876909381
 33
0.0
  0
TEXT
  8
Éíû@É³
  40
5.99722
  5
27D
  62
0
  72
0
  71
0
 10
997.022
 20
-157.659
 30
0.000000
  1
90üï
  0
POINT
  5
22E
  8
Defpoints
 62
     0
 10
1009.0162806206
 20
-231.01858249599999
 30
0.0
  0
POINT
  5
22F
  8
Defpoints
 62
     0
 10
1030.7966107064999
 20
-209.23825241009999
 30
0.0
  0
POINT
  5
230
  8
Defpoints
 62
     0
 10
987.23595053470012
 20
-209.23825241009999
 30
0.0
  0
POINT
  5
231
  8
Defpoints
 62
     0
 10
1030.7505011704361
 20
-149.90536714110129
 30
0.0
  0
ENDBLK
  5
233
  8
0
  0
BLOCK
  8
0
  2
*U22
 70
     1
 10
0.0
 20
0.0
 30
0.0
  3
*U22
  1

  0
TEXT
  5
235
  8
┌▓È_1
  6
CONTINUOUS
 10
984.22067646172525
 20
-255.48107867352741
 30
0.0
 40
5.9972220420999998
  1
ÄMâéâ~òöègæÕÉ}
  0
ENDBLK
  5
237
  8
0
  0
BLOCK
  8
0
  2
*U23
 70
     1
 10
0.0
 20
0.0
 30
0.0
  3
*U23
  1

  0
TEXT
  5
239
  8
┌▓È_1
  6
CONTINUOUS
 10
1031.6803538467
 20
-390.66417457892692
 30
0.0
 40
7.1966662884000003
  1
ékî^âAâôâOâï
  0
ENDBLK
  5
23B
  8
0
  0
BLOCK
  8
0
  2
*U24
 70
     1
 10
0.0
 20
0.0
 30
0.0
  3
*U24
  1

  0
TEXT
  5
23D
  8
┌▓È_1
  6
CONTINUOUS
 10
887.31116476049999
 20
-407.55106948532728
 30
0.0
 40
8.6359998702999992
  1
èöÄ«ë´Äð
  0
ENDBLK
  5
23F
  8
0
  0
BLOCK
  8
0
  2
*U25
 70
     1
 10
0.0
 20
0.0
 30
0.0
  3
*U25
  1

  0
TEXT
  5
241
  8
┌▓È_1
  6
CONTINUOUS
 10
872.87005731090005
 20
-358.20380115205779
 30
0.0
 40
7.1966662884000003
  1
ò\û╩ÅêùØüFâåâjâNâìâüâbâLÄdÅÒé░
  0
ENDBLK
  5
243
  8
0
  0
BLOCK
  8
0
  2
*U26
 70
     1
 10
0.0
 20
0.0
 30
0.0
  3
*U26
  1

  0
TEXT
  5
245
  8
┌▓È_1
  6
CONTINUOUS
 10
969.80082893350004
 20
-367.39329718153709
 30
0.0
 40
4.6749999999999989
  1
ü@îƒ ü@ê¾
  0
ENDBLK
  5
247
  8
0
  0
BLOCK
  8
0
  2
*U27
 70
     1
 10
0.0
 20
0.0
 30
0.0
  3
*U27
  1

  0
TEXT
  5
249
  8
┌▓È_1
  6
CONTINUOUS
 10
937.80082893349993
 20
-384.36956621706997
 30
0.0
 40
4.6749999999999989
  1
ü@Ä┌ ü@ôx
  0
ENDBLK
  5
24B
  8
0
  0
BLOCK
  8
0
  2
*U28
 70
     1
 10
0.0
 20
0.0
 30
0.0
  3
*U28
  1

  0
TEXT
  5
24D
  8
┌▓È_1
  6
CONTINUOUS
 10
937.80082893349993
 20
-367.39329718153709
 30
0.0
 40
4.6749999999999989
  1
ü@ö┬ ü@î·
  0
ENDBLK
  5
24F
  8
0
  0
BLOCK
  8
0
  2
*U29
 70
     1
 10
0.0
 20
0.0
 30
0.0
  3
*U29
  1

  0
TEXT
  5
251
  8
┌▓È_1
  6
CONTINUOUS
 10
905.80082893350016
 20
-367.29837332366901
 30
0.0
 40
4.6749999999999989
  1
ü@ìÌ ü@Ä┐
  0
ENDBLK
  5
253
  8
0
  0
BLOCK
  8
0
  2
*U30
 70
     1
 10
0.0
 20
0.0
 30
0.0
  3
*U30
  1

  0
TEXT
  5
255
  8
┌▓È_1
  6
CONTINUOUS
 62
     5
 10
946.66441010277799
 20
-392.63225657240002
 30
0.0
 40
4.6749999999999989
  1
1üF2
  0
ENDBLK
  5
257
  8
0
  0
BLOCK
  8
0
  2
*U31
 70
     1
 10
0.0
 20
0.0
 30
0.0
  3
*U31
  1

  0
TEXT
  5
259
  8
┌▓È_1
  6
CONTINUOUS
 62
     5
 10
946.87798878298111
 20
-375.63225657240002
 30
0.0
 40
4.6749999999999989
  1
4.5t
  0
ENDBLK
  5
25B
  8
0
  0
BLOCK
  8
0
  2
*U32
 70
     1
 10
0.0
 20
0.0
 30
0.0
  3
*U32
  1

  0
TEXT
  5
25D
  8
┌▓È_1
  6
CONTINUOUS
 62
     5
 10
918.06980350379331
 20
-375.91702814600399
 30
0.0
 40
4.6749999999999989
  1
ôS
  0
ENDBLK
  5
25F
  8
0
  0
BLOCK
  8
0
  2
*U33
 70
     1
 10
0.0
 20
0.0
 30
0.0
  3
*U33
  1

  0
TEXT
  5
261
  8
┌▓È_1
  6
CONTINUOUS
 62
     5
 10
881.24055223475784
 20
-375.63225657240002
 30
0.0
 40
4.6749999999999989
  1
H16.4
  0
ENDBLK
  5
263
  8
0
  0
BLOCK
  8
0
  2
*U34
 70
     1
 10
0.0
 20
0.0
 30
0.0
  3
*U34
  1

  0
TEXT
  5
265
  8
┌▓È_1
  6
CONTINUOUS
 10
1002.6510562184
 20
-401.24057609420203
 30
0.0
 40
4.6749999999999989
  1
É}öÈ
  0
ENDBLK
  5
267
  8
0
  0
BLOCK
  8
0
  2
*U35
 70
     1
 10
0.0
 20
0.0
 30
0.0
  3
*U35
  1

  0
TEXT
  5
269
  8
┌▓È_1
  6
CONTINUOUS
 10
1002.6510562184
 20
-384.2880380231361
 30
0.0
 40
4.6749999999999989
  1
òiû╝
  0
ENDBLK
  5
26B
  8
0
  0
BLOCK
  8
0
  2
*U36
 70
     1
 10
0.0
 20
0.0
 30
0.0
  3
*U36
  1

  0
TEXT
  5
26D
  8
┌▓È_1
  6
CONTINUOUS
 10
1002.6510562184
 20
-367.24057609420203
 30
0.0
 40
4.6749999999999989
  1
î^öÈ
  0
ENDBLK
  5
26F
  8
0
  0
BLOCK
  8
0
  2
*U37
 70
     1
 10
0.0
 20
0.0
 30
0.0
  3
*U37
  1

  0
TEXT
  5
271
  8
┌▓È_1
  6
CONTINUOUS
 10
873.80082893350016
 20
-367.22718043026799
 30
0.0
 40
4.6749999999999989
  1
ü@ô· ü@òt
  0
ENDBLK
  5
273
  8
0
  0
BLOCK
  8
0
  2
*U38
 70
     1
 10
0.0
 20
0.0
 30
0.0
  3
*U38
  1

  0
TEXT
  5
275
  8
┌▓È_1
  6
CONTINUOUS
 10
872.87005731090005
 20
-392.9170281460041
 30
0.0
 40
4.6749999999999989
  1
 É╗É}ü@ü@ è¦û{
  0
ENDBLK
  5
277
  8
0
  0
BLOCK
  8
0
  2
*U39
 70
     1
 10
0.0
 20
0.0
 30
0.0
  3
*U39
  1

  0
TEXT
  5
279
  8
┌▓È_1
  6
CONTINUOUS
 10
872.87005731090005
 20
-384.39329718153698
 30
0.0
 40
4.6749999999999989
  1
 É¦îvü@ü@öÆÉ{ëÛ
  0
ENDBLK
  5
27B
  8
0
  0
ENDSEC
  0
SECTION
  2
ENTITIES
  0
DIMENSION
  5
3E
  8
Éíû@É³
  2
*D0
 10
821.27656071319996
 20
-293.70567708329997
 30
0.0
 11
821.27656071319996
 21
-277.2320913209
 31
0.0
 70
   128
  1
<>
 13
800.27656071320007
 23
-293.70567708329997
 33
0.0
 14
801.27656071320007
 24
-285.70567708330009
 34
0.0
 50
90.0
  0
DIMENSION
  5
4D
  8
Éíû@É³
  2
*D1
 10
821.27656071319996
 20
-301.70567708329997
 30
0.0
 11
821.27656071319996
 21
-308.72601418080001
 31
0.0
 70
   128
  1
<>
 13
801.27656071320007
 23
-301.70567708329997
 33
0.0
 14
800.27656071320007
 24
-293.70567708329997
 34
0.0
 50
90.0
  0
DIMENSION
  5
5C
  8
Éíû@É³
  2
*D2
 10
601.27656071319996
 20
-285.70567708330009
 30
0.0
 11
601.27656071319996
 21
-293.70567708329997
 31
0.0
 70
   128
  1
<>
 13
621.27656071319996
 23
-285.70567708330009
 33
0.0
 14
621.27656071319996
 24
-301.70567708329997
 34
0.0
 50
90.0
  0
DIMENSION
  5
6C
  8
Éíû@É³
  2
*D3
 10
801.27656071320007
 20
-265.70567708329997
 30
0.0
 11
797.27656071319996
 21
-265.70567708329997
 31
0.0
 70
   128
  1
<>
 13
801.27656071320007
 23
-285.70567708330009
 33
0.0
 14
793.27656071319996
 24
-286.70567708329997
 34
0.0
  0
DIMENSION
  5
7B
  8
Éíû@É³
  2
*D4
 10
793.27656071319996
 20
-265.70567708329997
 30
0.0
 11
720.77656071319996
 21
-265.70567708329997
 31
0.0
 70
   128
  1
<>
 13
793.27656071319996
 23
-286.70567708329997
 33
0.0
 14
648.27656071319996
 24
-286.70567708329997
 34
0.0
  0
DIMENSION
  5
8A
  8
Éíû@É³
  2
*D5
 10
648.27656071319996
 20
-265.70567708329997
 30
0.0
 11
634.77656071319996
 21
-265.70567708329997
 31
0.0
 70
   128
  1
<>
 13
648.27656071319996
 23
-286.70567708329997
 33
0.0
 14
621.27656071319996
 24
-285.70567708330009
 34
0.0
  0
LINE
  5
8C
  8
┌▓È_1
  6
STITCH
 10
626.27656071319996
 20
-285.70567708330009
 30
0.0
 11
626.27656071319996
 21
-301.70567708329997
 31
0.0
  0
LINE
  5
8D
  8
┌▓È_1
 62
     5
 10
621.27656071319996
 20
-285.70567708330009
 30
0.0
 11
621.27656071319996
 21
-301.70567708329997
 31
0.0
  0
LINE
  5
8E
  8
┌▓È_1
 62
     5
 10
801.27656071320007
 20
-301.70567708329997
 30
0.0
 11
801.27656071320007
 21
-285.70567708330009
 31
0.0
  0
LINE
  5
8F
  8
┌▓È_1
 62
     5
 10
621.27656071319996
 20
-301.70567708329997
 30
0.0
 11
801.27656071320007
 21
-301.70567708329997
 31
0.0
  0
LINE
  5
90
  8
┌▓È_1
 62
     5
 10
801.27656071320007
 20
-285.70567708330009
 30
0.0
 11
621.27656071319996
 21
-285.70567708330009
 31
0.0
  0
LINE
  5
91
  8
┌▓È_1
  6
BORDER
 62
     3
 10
786.27656071320007
 20
-293.70567708329997
 30
0.0
 11
800.27656071320007
 21
-293.70567708329997
 31
0.0
  0
LINE
  5
92
  8
┌▓È_1
  6
BORDER
 62
     3
 10
793.27656071319996
 20
-286.70567708329997
 30
0.0
 11
793.27656071319996
 21
-300.70567708329997
 31
0.0
  0
CIRCLE
  5
93
  8
┌▓È_1
 62
     5
 10
793.27656071319996
 20
-293.70567708329997
 30
0.0
 40
2.5
  0
LINE
  5
94
  8
┌▓È_1
  6
BORDER
 62
     3
 10
648.27656071319996
 20
-286.70567708329997
 30
0.0
 11
648.27656071319996
 21
-300.70567708329997
 31
0.0
  0
CIRCLE
  5
95
  8
┌▓È_1
 62
     5
 10
648.27656071319996
 20
-293.70567708329997
 30
0.0
 40
2.5
  0
LINE
  5
96
  8
┌▓È_1
  6
BORDER
 62
     3
 10
641.27656071319996
 20
-293.70567708329997
 30
0.0
 11
655.27656071319996
 21
-293.70567708329997
 31
0.0
  0
CIRCLE
  5
97
  8
┌▓È_1
  6
STITCH
 10
648.27656071319996
 20
-293.70567708329997
 30
0.0
 40
5.0
  0
CIRCLE
  5
98
  8
┌▓È_1
  6
STITCH
 10
793.27656071319996
 20
-293.70567708329997
 30
0.0
 40
5.0
  0
ARC
  5
99
  8
┌▓È_1
 62
     5
 10
946.0644600428999
 20
-404.18991301059992
 30
0.0
 40
2.399999999999999
 50
270.0
 51
0.0
  0
LINE
  5
9A
  8
┌▓È_1
 62
     5
 10
966.37952972660003
 20
-403.42042645879991
 30
0.0
 11
965.99457643649998
 21
-403.84560783569998
 31
0.0
  0
LINE
  5
9B
  8
┌▓È_1
 62
     5
 10
959.12142973990001
 20
-401.50528943860002
 30
0.0
 11
965.52142973989999
 21
-401.50528943860002
 31
0.0
  0
LINE
  5
9C
  8
┌▓È_1
 62
     5
 10
952.46446004289987
 20
-404.18991301059992
 30
0.0
 11
952.46446004289987
 21
-403.38991301059991
 31
0.0
  0
LINE
  5
9D
  8
┌▓È_1
 62
     5
 10
977.06940197719985
 20
-400.50991301059997
 30
0.0
 11
977.06940197719985
 21
-403.38991301059991
 31
0.0
  0
LINE
  5
9E
  8
┌▓È_1
 10
968.87005731089994
 20
-361.04618975770001
 30
0.0
 11
968.87005731089994
 21
-395.04618975770001
 31
0.0
  0
LINE
  5
9F
  8
┌▓È_1
 10
904.87005731090005
 20
-361.04618975770001
 30
0.0
 11
904.87005731090005
 21
-378.04618975770001
 31
0.0
  0
LINE
  5
A0
  8
┌▓È_1
 10
1000.8700573109001
 20
-361.04618975770001
 30
0.0
 11
1000.8700573109001
 21
-412.04618975769989
 31
0.0
  0
LINE
  5
A1
  8
┌▓È_1
 10
872.87005731090005
 20
-361.04618975770001
 30
0.0
 11
872.87005731090005
 21
-412.04618975769989
 31
0.0
  0
INSERT
  5
A2
  8
0
  6
CONTINUOUS
  2
*U19
 10
0.0
 20
0.0
 30
0.0
  0
DIMENSION
  5
B0
  8
Éíû@É³
  2
*D20
 10
673.15373950387811
 20
-155.49353721615691
 30
0.0
 11
661.27987969900005
 21
-141.2257305851
 31
0.0
 70
   133
  1
<>
 13
625.77656071319996
 23
-97.346764144400026
 33
0.0
 14
801.27656071320007
 24
-182.8467641444
 34
0.0
 15
625.77656071319996
 25
-182.8467641444
 35
0.0
1001
ACAD
1000
DSTYLE
1002
{
1070
   271
1070
     0
1002
}
  0
DIMENSION
  5
BF
  8
Éíû@É³
  2
*D7
 10
601.27656071319996
 20
-97.346764144400026
 30
0.0
 11
601.27656071319996
 21
-142.3467641444
 31
0.0
 70
   128
  1
<>
 13
621.27656071319996
 23
-97.346764144400026
 33
0.0
 14
626.27656071319996
 24
-187.3467641444
 34
0.0
 50
90.0
  0
DIMENSION
  5
CE
  8
Éíû@É³
  2
*D8
 10
621.27656071319996
 20
-207.3467641444
 30
0.0
 11
711.27656071320007
 21
-207.3467641444
 31
0.0
 70
   128
  1
<>
 13
621.27656071319996
 23
-182.3467641444
 33
0.0
 14
801.27656071320007
 24
-187.3467641444
 34
0.0
 50
180.0
  0
DIMENSION
  5
DD
  8
Éíû@É³
  2
*D9
 10
1030.2662806205999
 20
-166.94554603770001
 30
0.0
 11
1009.0162806206
 21
-166.94554603770001
 31
0.0
 70
   128
  1
%%c8.5
 13
1030.2662806205999
 23
-209.76858249599999
 33
0.0
 14
987.76628062060001
 24
-209.76858249599999
 34
0.0
  0
DIMENSION
  5
EC
  8
Éíû@É³
  2
*D10
 10
1021.5162806206
 20
-187.32673093349999
 30
0.0
 11
1009.0162806206
 21
-187.32673093349999
 31
0.0
 70
   128
  1
%%c5
 13
1021.5162806206
 23
-218.51858249599999
 33
0.0
 14
996.51628062060001
 24
-218.51858249599999
 34
0.0
  0
DIMENSION
  5
FB
  8
Éíû@É³
  2
*D11
 10
854.12421696320007
 20
-97.346764144400026
 30
0.0
 11
854.12421696320007
 21
-101.3467641444
 31
0.0
 70
   128
  1
<>
 13
874.12421696319996
 23
-97.346764144400026
 33
0.0
 14
875.12421696319996
 24
-105.3467641444
 34
0.0
 50
90.0
  0
DIMENSION
  5
10A
  8
Éíû@É³
  2
*D12
 10
854.12421696320007
 20
-105.3467641444
 30
0.0
 11
854.12421696320007
 21
-132.8467641444
 31
0.0
 70
   128
  1
<>
 13
875.12421696319996
 23
-105.3467641444
 33
0.0
 14
875.12421696319996
 24
-160.3467641444
 34
0.0
 50
90.0
  0
DIMENSION
  5
119
  8
Éíû@É³
  2
*D13
 10
854.12421696320007
 20
-160.3467641444
 30
0.0
 11
854.12421696320007
 21
-173.8467641444
 31
0.0
 70
   128
  1
<>
 13
875.12421696319996
 23
-160.3467641444
 33
0.0
 14
874.12421696319996
 24
-187.3467641444
 34
0.0
 50
90.0
  0
DIMENSION
  5
128
  8
Éíû@É³
  2
*D14
 10
890.12421696319996
 20
-62.4713750453
 30
0.0
 11
882.12421696319996
 21
-62.4713750453
 31
0.0
 70
   128
  1
<>
 13
890.12421696319996
 23
-97.346764144400026
 33
0.0
 14
874.12421696319996
 24
-97.346764144400026
 34
0.0
  0
DIMENSION
  5
135
  8
Éíû@É³
  2
*D21
 10
1030.7505011704361
 20
-149.90536714110129
 30
0.0
 11
1009.0162806206
 21
-147.0440027226
 31
0.0
 70
   133
  1
<>
 13
987.23595053470012
 23
-209.23825241009999
 33
0.0
 14
1030.7966107064999
 24
-209.23825241009999
 34
0.0
 15
1009.0162806206
 25
-231.01858249599999
 35
0.0
1001
ACAD
1000
DSTYLE
1002
{
1070
   271
1070
     0
1002
}
  0
LINE
  5
136
  8
┌▓È_1
 10
983.06613276179985
 20
-258.05579180590001
 30
0.0
 11
1037.6758672091
 21
-258.05579180590001
 31
0.0
  0
INSERT
  5
137
  8
0
  6
CONTINUOUS
  2
*U22
 10
0.0
 20
0.0
 30
0.0
  0
DIMENSION
  5
146
  8
Éíû@É³
  2
*D16
 10
890.12421696319996
 20
-77.346764144399984
 30
0.0
 11
903.39176826669996
 21
-77.346764144399984
 31
0.0
 70
   128
  1
<>
 13
890.12421696319996
 23
-97.346764144400026
 33
0.0
 14
882.12421696319996
 24
-98.346764144400026
 34
0.0
  0
DIMENSION
  5
155
  8
Éíû@É³
  2
*D17
 10
882.12421696319996
 20
-77.346764144399984
 30
0.0
 11
864.09059976339995
 21
-77.346764144399984
 31
0.0
 70
   128
  1
<>
 13
882.12421696319996
 23
-98.346764144400026
 33
0.0
 14
874.12421696319996
 24
-97.346764144400026
 34
0.0
  0
DIMENSION
  5
164
  8
Éíû@É³
  2
*D18
 10
625.77656071319996
 20
-77.346764144399984
 30
0.0
 11
638.0333534975
 21
-77.346764144399984
 31
0.0
 70
   128
  1
<>t
 13
625.77656071319996
 23
-97.346764144400026
 33
0.0
 14
621.27656071319996
 24
-97.346764144400026
 34
0.0
  0
LINE
  5
165
  8
┌▓È_1
 62
     5
 10
977.06940197719985
 20
-404.6699130106
 30
0.0
 11
982.28753531050006
 21
-404.6699130106
 31
0.0
  0
LINE
  5
166
  8
┌▓È_1
 62
     5
 10
954.86446004289996
 20
-400.98991301059988
 30
0.0
 11
952.46446004289987
 21
-400.98991301059988
 31
0.0
  0
LINE
  5
167
  8
┌▓È_1
 62
     5
 10
952.46446004289987
 20
-400.98991301059988
 30
0.0
 11
952.46446004289987
 21
-400.18991301059992
 31
0.0
  0
LINE
  5
168
  8
┌▓È_1
 62
     5
 10
977.06940197719985
 20
-400.50991301059997
 30
0.0
 11
981.06726864380005
 21
-400.50991301059997
 31
0.0
  0
LINE
  5
169
  8
┌▓È_1
 62
     5
 10
948.46446004289999
 20
-403.38991301059991
 30
0.0
 11
948.46446004289999
 21
-404.18991301059992
 31
0.0
  0
LINE
  5
16A
  8
┌▓È_1
 62
     5
 10
945.26446004290005
 20
-403.38991301059991
 30
0.0
 11
948.46446004289999
 21
-403.38991301059991
 31
0.0
  0
LINE
  5
16B
  8
┌▓È_1
 62
     5
 10
988.26940197719989
 20
-409.78991301059989
 30
0.0
 11
987.62480890089989
 21
-407.54991301059999
 31
0.0
  0
LINE
  5
16C
  8
┌▓È_1
 62
     5
 10
986.79604637419993
 20
-404.6699130106
 30
0.0
 11
991.46940197719994
 21
-404.6699130106
 31
0.0
  0
ARC
  5
16D
  8
┌▓È_1
 62
     5
 10
963.1214297398999
 20
-400.18991301059992
 30
0.0
 40
8.8000000000000007
 50
322.48761197969998
 51
0.0
  0
LINE
  5
16E
  8
┌▓È_1
 62
     5
 10
977.06940197719985
 20
-407.54991301059999
 30
0.0
 11
983.13233531050003
 21
-407.54991301059999
 31
0.0
  0
LINE
  5
16F
  8
┌▓È_1
 62
     5
 10
985.59894494679986
 20
-400.50991301059997
 30
0.0
 11
985.36471414649998
 21
-399.69594678589999
 31
0.0
  0
LINE
  5
170
  8
┌▓È_1
 62
     5
 10
973.52142973989999
 20
-397.7899130106
 30
0.0
 11
959.12142973990001
 21
-397.7899130106
 31
0.0
  0
LINE
  5
171
  8
┌▓È_1
 62
     5
 10
941.26446004289994
 20
-405.78991301059989
 30
0.0
 11
945.26446004290005
 21
-405.78991301059989
 31
0.0
  0
LINE
  5
172
  8
┌▓È_1
 62
     5
 10
952.46446004289987
 20
-400.18991301059992
 30
0.0
 11
954.86446004289996
 21
-397.7899130106
 31
0.0
  0
LINE
  5
173
  8
┌▓È_1
 10
872.87005731090005
 20
-395.04618975770001
 30
0.0
 11
1112.8700573108999
 21
-395.04618975770001
 31
0.0
  0
LINE
  5
174
  8
┌▓È_1
 10
872.87005731090005
 20
-361.04618975770001
 30
0.0
 11
1112.8700573108999
 21
-361.04618975770001
 31
0.0
  0
INSERT
  5
175
  8
0
  6
CONTINUOUS
  2
*U23
 10
0.0
 20
0.0
 30
0.0
  0
LINE
  5
176
  8
┌▓È_1
 62
     5
 10
1112.8700573108999
 20
-412.04618975769989
 30
0.0
 11
1112.8700573108999
 21
-32.046189757699999
 31
0.0
  0
LINE
  5
177
  8
┌▓È_1
 62
     5
 10
562.87005731089994
 20
-412.04618975769989
 30
0.0
 11
1112.8700573108999
 21
-412.04618975769989
 31
0.0
  0
LINE
  5
178
  8
┌▓È_1
 62
     5
 10
562.87005731089994
 20
-32.046189757699999
 30
0.0
 11
1112.8700573108999
 21
-32.046189757699999
 31
0.0
  0
LINE
  5
179
  8
┌▓È_1
 10
1000.8700573109001
 20
-378.04618975770001
 30
0.0
 11
1112.8700573108999
 21
-378.04618975770001
 31
0.0
  0
LINE
  5
17A
  8
┌▓È_1
 62
     5
 10
562.87005731089994
 20
-412.04618975769989
 30
0.0
 11
562.87005731089994
 21
-32.046189757699999
 31
0.0
  0
LINE
  5
17B
  8
┌▓È_1
 62
     5
 10
971.92142973989996
 20
-400.18991301059992
 30
0.0
 11
973.52142973989999
 21
-397.7899130106
 31
0.0
  0
LINE
  5
17C
  8
┌▓È_1
 62
     5
 10
986.42770747349994
 20
-403.38991301059991
 30
0.0
 11
991.46940197719994
 21
-403.38991301059991
 31
0.0
  0
LINE
  5
17D
  8
┌▓È_1
 62
     5
 10
948.46446004289999
 20
-397.7899130106
 30
0.0
 11
948.46446004289999
 21
-400.98991301059988
 31
0.0
  0
LINE
  5
17E
  8
┌▓È_1
 62
     5
 10
987.62480890089989
 20
-407.54991301059999
 30
0.0
 11
991.46940197719994
 21
-407.54991301059999
 31
0.0
  0
LINE
  5
17F
  8
┌▓È_1
 62
     5
 10
954.86446004289996
 20
-397.7899130106
 30
0.0
 11
948.46446004289999
 21
-397.7899130106
 31
0.0
  0
LINE
  5
180
  8
┌▓È_1
 62
     5
 10
959.12142973990001
 20
-397.7899130106
 30
0.0
 11
959.12142973990001
 21
-400.66991301059988
 31
0.0
  0
ARC
  5
181
  8
┌▓È_1
 62
     5
 10
947.66446004289992
 20
-404.18991301059992
 30
0.0
 40
4.7999999999999989
 50
270.0
 51
0.0
  0
LINE
  5
182
  8
┌▓È_1
 62
     5
 10
985.36471414649998
 20
-399.69594678589999
 30
0.0
 11
986.66940197719987
 21
-397.7899130106
 31
0.0
  0
LINE
  5
183
  8
┌▓È_1
 62
     5
 10
948.46446004289999
 20
-400.98991301059988
 30
0.0
 11
945.26446004290005
 21
-400.98991301059988
 31
0.0
  0
LINE
  5
184
  8
┌▓È_1
 62
     5
 10
947.66446004289992
 20
-397.7899130106
 30
0.0
 11
941.26446004289994
 21
-397.7899130106
 31
0.0
  0
LINE
  5
185
  8
┌▓È_1
 62
     5
 10
945.26446004290005
 20
-400.18991301059992
 30
0.0
 11
947.66446004289992
 21
-397.7899130106
 31
0.0
  0
LINE
  5
186
  8
┌▓È_1
 62
     5
 10
941.26446004289994
 20
-397.7899130106
 30
0.0
 11
941.26446004289994
 21
-400.98991301059988
 31
0.0
  0
LINE
  5
187
  8
┌▓È_1
 62
     5
 10
981.06726864380005
 20
-400.50991301059997
 30
0.0
 11
980.26940197719989
 21
-397.7899130106
 31
0.0
  0
LINE
  5
188
  8
┌▓È_1
 62
     5
 10
985.59894494679986
 20
-400.50991301059997
 30
0.0
 11
991.46940197719994
 21
-400.50991301059997
 31
0.0
  0
INSERT
  5
189
  8
0
  6
CONTINUOUS
  2
*U24
 10
0.0
 20
0.0
 30
0.0
  0
LINE
  5
18A
  8
┌▓È_1
 62
     5
 10
941.26446004289994
 20
-403.38991301059991
 30
0.0
 11
941.26446004289994
 21
-405.78991301059989
 31
0.0
  0
LINE
  5
18B
  8
┌▓È_1
 62
     5
 10
970.10178070320001
 20
-405.548522945
 30
0.0
 11
969.81681740759996
 21
-405.82752797569992
 31
0.0
  0
INSERT
  5
18C
  8
0
  6
CONTINUOUS
  2
*U25
 10
0.0
 20
0.0
 30
0.0
  0
LINE
  5
18D
  8
┌▓È_1
 62
     5
 10
959.12142973990001
 20
-406.5899130105999
 30
0.0
 11
959.12142973990001
 21
-408.98991301059988
 31
0.0
  0
LINE
  5
18E
  8
┌▓È_1
 62
     5
 10
959.12142973990001
 20
-406.5899130105999
 30
0.0
 11
961.04142973990008
 21
-406.5899130105999
 31
0.0
  0
LINE
  5
18F
  8
┌▓È_1
 62
     5
 10
980.26940197719989
 20
-397.7899130106
 30
0.0
 11
986.66940197719987
 21
-397.7899130106
 31
0.0
  0
LINE
  5
190
  8
┌▓È_1
 62
     5
 10
971.92142973989996
 20
-400.18991301059992
 30
0.0
 11
973.52142973989999
 21
-397.7899130106
 31
0.0
  0
LINE
  5
191
  8
┌▓È_1
 62
     5
 10
941.26446004289994
 20
-408.98991301059988
 30
0.0
 11
947.66446004289992
 21
-408.98991301059988
 31
0.0
  0
LINE
  5
192
  8
┌▓È_1
 62
     5
 10
959.12142973990001
 20
-408.98991301059988
 30
0.0
 11
963.1214297398999
 21
-408.98991301059988
 31
0.0
  0
ARC
  5
193
  8
┌▓È_1
 62
     5
 10
961.04142973990008
 20
-400.50991301059997
 30
0.0
 40
6.0800000000000001
 50
331.39928138329998
 51
358.49204224580001
  0
LINE
  5
194
  8
┌▓È_1
 62
     5
 10
952.46446004289987
 20
-403.38991301059991
 30
0.0
 11
954.86446004289996
 21
-403.38991301059991
 31
0.0
  0
ARC
  5
195
  8
┌▓È_1
 62
     5
 10
963.1214297398999
 20
-400.18991301059992
 30
0.0
 40
8.8000000000000007
 50
270.0
 51
302.54495885400001
  0
LINE
  5
196
  8
┌▓È_1
 62
     5
 10
939.42269394440007
 20
-403.38991301059991
 30
0.0
 11
941.02269394439986
 21
-403.38991301059991
 31
0.0
  0
LINE
  5
197
  8
┌▓È_1
 10
940.87005731089994
 20
-369.54618975770001
 30
0.0
 11
964.87005731090005
 21
-369.54618975770001
 31
0.0
  0
LINE
  5
198
  8
┌▓È_1
 10
876.87005731089994
 20
-386.54618975770001
 30
0.0
 11
932.87005731089994
 21
-386.54618975770001
 31
0.0
  0
LINE
  5
199
  8
┌▓È_1
 10
908.87005731089994
 20
-369.54618975770001
 30
0.0
 11
932.87005731089994
 21
-369.54618975770001
 31
0.0
  0
LINE
  5
19A
  8
┌▓È_1
 10
876.87005731089994
 20
-369.54618975770001
 30
0.0
 11
900.87005731089994
 21
-369.54618975770001
 31
0.0
  0
LINE
  5
19B
  8
┌▓È_1
 10
936.87005731089982
 20
-361.04618975770001
 30
0.0
 11
936.87005731089982
 21
-395.04618975770001
 31
0.0
  0
LINE
  5
19C
  8
┌▓È_1
 62
     5
 10
965.52142973989999
 20
-401.50528943860002
 30
0.0
 11
964.61633305999999
 21
-402.4103861184999
 31
0.0
  0
LINE
  5
19D
  8
┌▓È_1
 62
     5
 10
959.12142973990001
 20
-402.02066586659998
 30
0.0
 11
959.12142973990001
 21
-401.50528943860002
 31
0.0
  0
LINE
  5
19E
  8
┌▓È_1
 62
     5
 10
939.42269394440007
 20
-400.98991301059988
 30
0.0
 11
939.42269394440007
 21
-403.38991301059991
 31
0.0
  0
LINE
  5
19F
  8
┌▓È_1
 62
     5
 10
954.86446004289996
 20
-400.98991301059988
 30
0.0
 11
954.86446004289996
 21
-403.38991301059991
 31
0.0
  0
LINE
  5
1A0
  8
┌▓È_1
 62
     5
 10
983.78940197719987
 20
-409.78991301059989
 30
0.0
 11
988.26940197719989
 21
-409.78991301059989
 31
0.0
  0
LINE
  5
1A1
  8
┌▓È_1
 62
     5
 10
945.26446004290005
 20
-400.98991301059988
 30
0.0
 11
945.26446004290005
 21
-400.18991301059992
 31
0.0
  0
LINE
  5
1A2
  8
┌▓È_1
 62
     5
 10
959.12142973990001
 20
-408.98991301059988
 30
0.0
 11
959.12142973990001
 21
-406.5899130105999
 31
0.0
  0
LINE
  5
1A3
  8
┌▓È_1
 62
     5
 10
941.26446004289994
 20
-400.98991301059988
 30
0.0
 11
939.42269394440007
 21
-400.98991301059988
 31
0.0
  0
LINE
  5
1A4
  8
┌▓È_1
 62
     5
 10
991.46940197719994
 20
-404.6699130106
 30
0.0
 11
991.46940197719994
 21
-407.54991301059999
 31
0.0
  0
LINE
  5
1A5
  8
┌▓È_1
 62
     5
 10
982.28753531050006
 20
-404.6699130106
 30
0.0
 11
981.9120686437999
 21
-403.38991301059991
 31
0.0
  0
LINE
  5
1A6
  8
┌▓È_1
 62
     5
 10
941.26446004289994
 20
-403.38991301059991
 30
0.0
 11
941.02269394439986
 21
-403.38991301059991
 31
0.0
  0
LINE
  5
1A7
  8
┌▓È_1
 62
     5
 10
941.26446004289994
 20
-406.5899130105999
 30
0.0
 11
941.26446004289994
 21
-408.98991301059988
 31
0.0
  0
LINE
  5
1A8
  8
┌▓È_1
 62
     5
 10
986.79604637419993
 20
-404.6699130106
 30
0.0
 11
986.42770747349994
 21
-403.38991301059991
 31
0.0
  0
LINE
  5
1A9
  8
┌▓È_1
 62
     5
 10
983.78940197719987
 20
-409.78991301059989
 30
0.0
 11
983.13233531050003
 21
-407.54991301059999
 31
0.0
  0
LINE
  5
1AA
  8
┌▓È_1
 62
     5
 10
946.0644600428999
 20
-406.5899130105999
 30
0.0
 11
941.26446004289994
 21
-406.5899130105999
 31
0.0
  0
LINE
  5
1AB
  8
┌▓È_1
 62
     5
 10
959.12142973990001
 20
-400.66991301059988
 30
0.0
 11
967.12142973990001
 21
-400.66991301059988
 31
0.0
  0
LINE
  5
1AC
  8
┌▓È_1
 62
     5
 10
991.46940197719994
 20
-400.50991301059997
 30
0.0
 11
991.46940197719994
 21
-403.38991301059991
 31
0.0
  0
LINE
  5
1AD
  8
┌▓È_1
 62
     5
 10
977.06940197719985
 20
-403.38991301059991
 30
0.0
 11
981.9120686437999
 21
-403.38991301059991
 31
0.0
  0
LINE
  5
1AE
  8
┌▓È_1
 62
     5
 10
977.06940197719985
 20
-404.6699130106
 30
0.0
 11
977.06940197719985
 21
-407.54991301059999
 31
0.0
  0
LINE
  5
1AF
  8
┌▓È_1
 62
     5
 10
945.26446004290005
 20
-405.78991301059989
 30
0.0
 11
945.26446004290005
 21
-403.38991301059991
 31
0.0
  0
LINE
  5
1B0
  8
┌▓È_1
 62
     5
 10
801.27656071320007
 20
-187.3467641444
 30
0.0
 11
801.27656071320007
 21
-182.8467641444
 31
0.0
  0
LINE
  5
1B1
  8
┌▓È_1
 62
     5
 10
625.77656071319996
 20
-182.8467641444
 30
0.0
 11
801.27656071320007
 21
-182.8467641444
 31
0.0
  0
POLYLINE
  8
┌▓È_1
  5
27E
  62
5
  66
     1
 10
0.000000
 20
0.000000
 30
0.000000
  70
     8
  0
VERTEX
  8
┌▓È_1
  5
27F
 10
969.817
 20
-405.828
 30
0.000000
  70
    32
  0
VERTEX
  8
┌▓È_1
  5
280
 10
969.845
 20
-405.835
 30
0.000000
  70
    32
  0
VERTEX
  8
┌▓È_1
  5
281
 10
969.873
 20
-405.843
 30
0.000000
  70
    32
  0
VERTEX
  8
┌▓È_1
  5
282
 10
969.901
 20
-405.851
 30
0.000000
  70
    32
  0
VERTEX
  8
┌▓È_1
  5
283
 10
969.929
 20
-405.859
 30
0.000000
  70
    32
  0
VERTEX
  8
┌▓È_1
  5
284
 10
969.957
 20
-405.867
 30
0.000000
  70
    32
  0
VERTEX
  8
┌▓È_1
  5
285
 10
969.985
 20
-405.874
 30
0.000000
  70
    32
  0
VERTEX
  8
┌▓È_1
  5
286
 10
970.013
 20
-405.882
 30
0.000000
  70
    32
  0
VERTEX
  8
┌▓È_1
  5
287
 10
970.041
 20
-405.890
 30
0.000000
  70
    32
  0
VERTEX
  8
┌▓È_1
  5
288
 10
970.070
 20
-405.897
 30
0.000000
  70
    32
  0
VERTEX
  8
┌▓È_1
  5
289
 10
970.098
 20
-405.905
 30
0.000000
  70
    32
  0
VERTEX
  8
┌▓È_1
  5
28A
 10
970.126
 20
-405.912
 30
0.000000
  70
    32
  0
VERTEX
  8
┌▓È_1
  5
28B
 10
970.154
 20
-405.920
 30
0.000000
  70
    32
  0
VERTEX
  8
┌▓È_1
  5
28C
 10
970.183
 20
-405.927
 30
0.000000
  70
    32
  0
VERTEX
  8
┌▓È_1
  5
28D
 10
970.211
 20
-405.935
 30
0.000000
  70
    32
  0
VERTEX
  8
┌▓È_1
  5
28E
 10
970.239
 20
-405.942
 30
0.000000
  70
    32
  0
VERTEX
  8
┌▓È_1
  5
28F
 10
970.268
 20
-405.949
 30
0.000000
  70
    32
  0
VERTEX
  8
┌▓È_1
  5
290
 10
970.296
 20
-405.956
 30
0.000000
  70
    32
  0
VERTEX
  8
┌▓È_1
  5
291
 10
970.325
 20
-405.964
 30
0.000000
  70
    32
  0
VERTEX
  8
┌▓È_1
  5
292
 10
970.353
 20
-405.971
 30
0.000000
  70
    32
  0
VERTEX
  8
┌▓È_1
  5
293
 10
970.381
 20
-405.978
 30
0.000000
  70
    32
  0
VERTEX
  8
┌▓È_1
  5
294
 10
970.410
 20
-405.985
 30
0.000000
  70
    32
  0
VERTEX
  8
┌▓È_1
  5
295
 10
970.438
 20
-405.992
 30
0.000000
  70
    32
  0
VERTEX
  8
┌▓È_1
  5
296
 10
970.467
 20
-405.999
 30
0.000000
  70
    32
  0
VERTEX
  8
┌▓È_1
  5
297
 10
970.496
 20
-406.006
 30
0.000000
  70
    32
  0
VERTEX
  8
┌▓È_1
  5
298
 10
970.524
 20
-406.013
 30
0.000000
  70
    32
  0
VERTEX
  8
┌▓È_1
  5
299
 10
970.553
 20
-406.020
 30
0.000000
  70
    32
  0
VERTEX
  8
┌▓È_1
  5
29A
 10
970.581
 20
-406.027
 30
0.000000
  70
    32
  0
VERTEX
  8
┌▓È_1
  5
29B
 10
970.610
 20
-406.033
 30
0.000000
  70
    32
  0
VERTEX
  8
┌▓È_1
  5
29C
 10
970.639
 20
-406.040
 30
0.000000
  70
    32
  0
VERTEX
  8
┌▓È_1
  5
29D
 10
970.667
 20
-406.047
 30
0.000000
  70
    32
  0
VERTEX
  8
┌▓È_1
  5
29E
 10
970.696
 20
-406.054
 30
0.000000
  70
    32
  0
VERTEX
  8
┌▓È_1
  5
29F
 10
970.725
 20
-406.060
 30
0.000000
  70
    32
  0
VERTEX
  8
┌▓È_1
  5
2A0
 10
970.754
 20
-406.067
 30
0.000000
  70
    32
  0
VERTEX
  8
┌▓È_1
  5
2A1
 10
970.783
 20
-406.074
 30
0.000000
  70
    32
  0
VERTEX
  8
┌▓È_1
  5
2A2
 10
970.811
 20
-406.080
 30
0.000000
  70
    32
  0
VERTEX
  8
┌▓È_1
  5
2A3
 10
970.840
 20
-406.087
 30
0.000000
  70
    32
  0
VERTEX
  8
┌▓È_1
  5
2A4
 10
970.869
 20
-406.093
 30
0.000000
  70
    32
  0
VERTEX
  8
┌▓È_1
  5
2A5
 10
970.898
 20
-406.100
 30
0.000000
  70
    32
  0
VERTEX
  8
┌▓È_1
  5
2A6
 10
970.927
 20
-406.106
 30
0.000000
  70
    32
  0
VERTEX
  8
┌▓È_1
  5
2A7
 10
970.956
 20
-406.113
 30
0.000000
  70
    32
  0
VERTEX
  8
┌▓È_1
  5
2A8
 10
970.985
 20
-406.119
 30
0.000000
  70
    32
  0
VERTEX
  8
┌▓È_1
  5
2A9
 10
971.014
 20
-406.125
 30
0.000000
  70
    32
  0
VERTEX
  8
┌▓È_1
  5
2AA
 10
971.043
 20
-406.132
 30
0.000000
  70
    32
  0
VERTEX
  8
┌▓È_1
  5
2AB
 10
971.072
 20
-406.138
 30
0.000000
  70
    32
  0
VERTEX
  8
┌▓È_1
  5
2AC
 10
971.101
 20
-406.144
 30
0.000000
  70
    32
  0
VERTEX
  8
┌▓È_1
  5
2AD
 10
971.130
 20
-406.150
 30
0.000000
  70
    32
  0
VERTEX
  8
┌▓È_1
  5
2AE
 10
971.159
 20
-406.157
 30
0.000000
  70
    32
  0
VERTEX
  8
┌▓È_1
  5
2AF
 10
971.188
 20
-406.163
 30
0.000000
  70
    32
  0
VERTEX
  8
┌▓È_1
  5
2B0
 10
971.217
 20
-406.169
 30
0.000000
  70
    32
  0
VERTEX
  8
┌▓È_1
  5
2B1
 10
971.246
 20
-406.175
 30
0.000000
  70
    32
  0
VERTEX
  8
┌▓È_1
  5
2B2
 10
971.275
 20
-406.181
 30
0.000000
  70
    32
  0
VERTEX
  8
┌▓È_1
  5
2B3
 10
971.304
 20
-406.187
 30
0.000000
  70
    32
  0
VERTEX
  8
┌▓È_1
  5
2B4
 10
971.333
 20
-406.193
 30
0.000000
  70
    32
  0
VERTEX
  8
┌▓È_1
  5
2B5
 10
971.362
 20
-406.199
 30
0.000000
  70
    32
  0
VERTEX
  8
┌▓È_1
  5
2B6
 10
971.392
 20
-406.205
 30
0.000000
  70
    32
  0
VERTEX
  8
┌▓È_1
  5
2B7
 10
971.421
 20
-406.211
 30
0.000000
  70
    32
  0
VERTEX
  8
┌▓È_1
  5
2B8
 10
971.450
 20
-406.217
 30
0.000000
  70
    32
  0
VERTEX
  8
┌▓È_1
  5
2B9
 10
971.479
 20
-406.223
 30
0.000000
  70
    32
  0
VERTEX
  8
┌▓È_1
  5
2BA
 10
971.509
 20
-406.229
 30
0.000000
  70
    32
  0
VERTEX
  8
┌▓È_1
  5
2BB
 10
971.538
 20
-406.235
 30
0.000000
  70
    32
  0
VERTEX
  8
┌▓È_1
  5
2BC
 10
971.567
 20
-406.241
 30
0.000000
  70
    32
  0
VERTEX
  8
┌▓È_1
  5
2BD
 10
971.596
 20
-406.246
 30
0.000000
  70
    32
  0
VERTEX
  8
┌▓È_1
  5
2BE
 10
971.626
 20
-406.252
 30
0.000000
  70
    32
  0
VERTEX
  8
┌▓È_1
  5
2BF
 10
971.655
 20
-406.258
 30
0.000000
  70
    32
  0
VERTEX
  8
┌▓È_1
  5
2C0
 10
971.684
 20
-406.264
 30
0.000000
  70
    32
  0
VERTEX
  8
┌▓È_1
  5
2C1
 10
971.714
 20
-406.269
 30
0.000000
  70
    32
  0
VERTEX
  8
┌▓È_1
  5
2C2
 10
971.743
 20
-406.275
 30
0.000000
  70
    32
  0
VERTEX
  8
┌▓È_1
  5
2C3
 10
971.772
 20
-406.281
 30
0.000000
  70
    32
  0
VERTEX
  8
┌▓È_1
  5
2C4
 10
971.802
 20
-406.286
 30
0.000000
  70
    32
  0
VERTEX
  8
┌▓È_1
  5
2C5
 10
971.831
 20
-406.292
 30
0.000000
  70
    32
  0
VERTEX
  8
┌▓È_1
  5
2C6
 10
971.861
 20
-406.298
 30
0.000000
  70
    32
  0
VERTEX
  8
┌▓È_1
  5
2C7
 10
971.890
 20
-406.303
 30
0.000000
  70
    32
  0
VERTEX
  8
┌▓È_1
  5
2C8
 10
971.919
 20
-406.309
 30
0.000000
  70
    32
  0
VERTEX
  8
┌▓È_1
  5
2C9
 10
971.949
 20
-406.314
 30
0.000000
  70
    32
  0
VERTEX
  8
┌▓È_1
  5
2CA
 10
971.978
 20
-406.320
 30
0.000000
  70
    32
  0
VERTEX
  8
┌▓È_1
  5
2CB
 10
972.008
 20
-406.325
 30
0.000000
  70
    32
  0
VERTEX
  8
┌▓È_1
  5
2CC
 10
972.037
 20
-406.331
 30
0.000000
  70
    32
  0
VERTEX
  8
┌▓È_1
  5
2CD
 10
972.067
 20
-406.336
 30
0.000000
  70
    32
  0
VERTEX
  8
┌▓È_1
  5
2CE
 10
972.096
 20
-406.342
 30
0.000000
  70
    32
  0
VERTEX
  8
┌▓È_1
  5
2CF
 10
972.126
 20
-406.347
 30
0.000000
  70
    32
  0
VERTEX
  8
┌▓È_1
  5
2D0
 10
972.155
 20
-406.353
 30
0.000000
  70
    32
  0
VERTEX
  8
┌▓È_1
  5
2D1
 10
972.185
 20
-406.358
 30
0.000000
  70
    32
  0
VERTEX
  8
┌▓È_1
  5
2D2
 10
972.215
 20
-406.364
 30
0.000000
  70
    32
  0
VERTEX
  8
┌▓È_1
  5
2D3
 10
972.244
 20
-406.369
 30
0.000000
  70
    32
  0
VERTEX
  8
┌▓È_1
  5
2D4
 10
972.274
 20
-406.374
 30
0.000000
  70
    32
  0
VERTEX
  8
┌▓È_1
  5
2D5
 10
972.303
 20
-406.380
 30
0.000000
  70
    32
  0
VERTEX
  8
┌▓È_1
  5
2D6
 10
972.333
 20
-406.385
 30
0.000000
  70
    32
  0
VERTEX
  8
┌▓È_1
  5
2D7
 10
972.362
 20
-406.390
 30
0.000000
  70
    32
  0
VERTEX
  8
┌▓È_1
  5
2D8
 10
972.392
 20
-406.396
 30
0.000000
  70
    32
  0
VERTEX
  8
┌▓È_1
  5
2D9
 10
972.422
 20
-406.401
 30
0.000000
  70
    32
  0
VERTEX
  8
┌▓È_1
  5
2DA
 10
972.451
 20
-406.406
 30
0.000000
  70
    32
  0
VERTEX
  8
┌▓È_1
  5
2DB
 10
972.481
 20
-406.411
 30
0.000000
  70
    32
  0
VERTEX
  8
┌▓È_1
  5
2DC
 10
972.511
 20
-406.417
 30
0.000000
  70
    32
  0
VERTEX
  8
┌▓È_1
  5
2DD
 10
972.540
 20
-406.422
 30
0.000000
  70
    32
  0
VERTEX
  8
┌▓È_1
  5
2DE
 10
972.570
 20
-406.427
 30
0.000000
  70
    32
  0
VERTEX
  8
┌▓È_1
  5
2DF
 10
972.600
 20
-406.432
 30
0.000000
  70
    32
  0
VERTEX
  8
┌▓È_1
  5
2E0
 10
972.629
 20
-406.437
 30
0.000000
  70
    32
  0
VERTEX
  8
┌▓È_1
  5
2E1
 10
972.659
 20
-406.443
 30
0.000000
  70
    32
  0
VERTEX
  8
┌▓È_1
  5
2E2
 10
972.689
 20
-406.448
 30
0.000000
  70
    32
  0
VERTEX
  8
┌▓È_1
  5
2E3
 10
972.718
 20
-406.453
 30
0.000000
  70
    32
  0
VERTEX
  8
┌▓È_1
  5
2E4
 10
972.748
 20
-406.458
 30
0.000000
  70
    32
  0
VERTEX
  8
┌▓È_1
  5
2E5
 10
972.778
 20
-406.463
 30
0.000000
  70
    32
  0
VERTEX
  8
┌▓È_1
  5
2E6
 10
972.807
 20
-406.468
 30
0.000000
  70
    32
  0
VERTEX
  8
┌▓È_1
  5
2E7
 10
972.837
 20
-406.474
 30
0.000000
  70
    32
  0
VERTEX
  8
┌▓È_1
  5
2E8
 10
972.867
 20
-406.479
 30
0.000000
  70
    32
  0
VERTEX
  8
┌▓È_1
  5
2E9
 10
972.896
 20
-406.484
 30
0.000000
  70
    32
  0
VERTEX
  8
┌▓È_1
  5
2EA
 10
972.926
 20
-406.489
 30
0.000000
  70
    32
  0
VERTEX
  8
┌▓È_1
  5
2EB
 10
972.956
 20
-406.494
 30
0.000000
  70
    32
  0
VERTEX
  8
┌▓È_1
  5
2EC
 10
972.986
 20
-406.499
 30
0.000000
  70
    32
  0
VERTEX
  8
┌▓È_1
  5
2ED
 10
973.015
 20
-406.504
 30
0.000000
  70
    32
  0
VERTEX
  8
┌▓È_1
  5
2EE
 10
973.045
 20
-406.509
 30
0.000000
  70
    32
  0
VERTEX
  8
┌▓È_1
  5
2EF
 10
973.075
 20
-406.514
 30
0.000000
  70
    32
  0
VERTEX
  8
┌▓È_1
  5
2F0
 10
973.105
 20
-406.519
 30
0.000000
  70
    32
  0
VERTEX
  8
┌▓È_1
  5
2F1
 10
973.134
 20
-406.524
 30
0.000000
  70
    32
  0
VERTEX
  8
┌▓È_1
  5
2F2
 10
973.164
 20
-406.529
 30
0.000000
  70
    32
  0
VERTEX
  8
┌▓È_1
  5
2F3
 10
973.194
 20
-406.535
 30
0.000000
  70
    32
  0
VERTEX
  8
┌▓È_1
  5
2F4
 10
973.224
 20
-406.540
 30
0.000000
  70
    32
  0
VERTEX
  8
┌▓È_1
  5
2F5
 10
973.253
 20
-406.545
 30
0.000000
  70
    32
  0
VERTEX
  8
┌▓È_1
  5
2F6
 10
973.283
 20
-406.550
 30
0.000000
  70
    32
  0
VERTEX
  8
┌▓È_1
  5
2F7
 10
973.313
 20
-406.555
 30
0.000000
  70
    32
  0
VERTEX
  8
┌▓È_1
  5
2F8
 10
973.343
 20
-406.560
 30
0.000000
  70
    32
  0
VERTEX
  8
┌▓È_1
  5
2F9
 10
973.373
 20
-406.565
 30
0.000000
  70
    32
  0
VERTEX
  8
┌▓È_1
  5
2FA
 10
973.402
 20
-406.570
 30
0.000000
  70
    32
  0
VERTEX
  8
┌▓È_1
  5
2FB
 10
973.432
 20
-406.575
 30
0.000000
  70
    32
  0
VERTEX
  8
┌▓È_1
  5
2FC
 10
973.462
 20
-406.580
 30
0.000000
  70
    32
  0
VERTEX
  8
┌▓È_1
  5
2FD
 10
973.492
 20
-406.585
 30
0.000000
  70
    32
  0
VERTEX
  8
┌▓È_1
  5
2FE
 10
973.521
 20
-406.590
 30
0.000000
  70
    32
  0
SEQEND
  8
┌▓È_1
  5
2FF
  0
POLYLINE
  8
┌▓È_1
  5
300
  62
5
  66
     1
 10
0.000000
 20
0.000000
 30
0.000000
  70
     8
  0
VERTEX
  8
┌▓È_1
  5
301
 10
959.121
 20
-402.021
 30
0.000000
  70
    32
  0
VERTEX
  8
┌▓È_1
  5
302
 10
959.150
 20
-402.047
 30
0.000000
  70
    32
  0
VERTEX
  8
┌▓È_1
  5
303
 10
959.179
 20
-402.074
 30
0.000000
  70
    32
  0
VERTEX
  8
┌▓È_1
  5
304
 10
959.208
 20
-402.100
 30
0.000000
  70
    32
  0
VERTEX
  8
┌▓È_1
  5
305
 10
959.237
 20
-402.127
 30
0.000000
  70
    32
  0
VERTEX
  8
┌▓È_1
  5
306
 10
959.266
 20
-402.153
 30
0.000000
  70
    32
  0
VERTEX
  8
┌▓È_1
  5
307
 10
959.294
 20
-402.180
 30
0.000000
  70
    32
  0
VERTEX
  8
┌▓È_1
  5
308
 10
959.323
 20
-402.207
 30
0.000000
  70
    32
  0
VERTEX
  8
┌▓È_1
  5
309
 10
959.352
 20
-402.233
 30
0.000000
  70
    32
  0
VERTEX
  8
┌▓È_1
  5
30A
 10
959.381
 20
-402.260
 30
0.000000
  70
    32
  0
VERTEX
  8
┌▓È_1
  5
30B
 10
959.410
 20
-402.286
 30
0.000000
  70
    32
  0
VERTEX
  8
┌▓È_1
  5
30C
 10
959.438
 20
-402.313
 30
0.000000
  70
    32
  0
VERTEX
  8
┌▓È_1
  5
30D
 10
959.467
 20
-402.339
 30
0.000000
  70
    32
  0
VERTEX
  8
┌▓È_1
  5
30E
 10
959.496
 20
-402.366
 30
0.000000
  70
    32
  0
VERTEX
  8
┌▓È_1
  5
30F
 10
959.525
 20
-402.392
 30
0.000000
  70
    32
  0
VERTEX
  8
┌▓È_1
  5
310
 10
959.554
 20
-402.419
 30
0.000000
  70
    32
  0
VERTEX
  8
┌▓È_1
  5
311
 10
959.583
 20
-402.445
 30
0.000000
  70
    32
  0
VERTEX
  8
┌▓È_1
  5
312
 10
959.612
 20
-402.472
 30
0.000000
  70
    32
  0
VERTEX
  8
┌▓È_1
  5
313
 10
959.640
 20
-402.498
 30
0.000000
  70
    32
  0
VERTEX
  8
┌▓È_1
  5
314
 10
959.669
 20
-402.525
 30
0.000000
  70
    32
  0
VERTEX
  8
┌▓È_1
  5
315
 10
959.698
 20
-402.551
 30
0.000000
  70
    32
  0
VERTEX
  8
┌▓È_1
  5
316
 10
959.727
 20
-402.578
 30
0.000000
  70
    32
  0
VERTEX
  8
┌▓È_1
  5
317
 10
959.756
 20
-402.604
 30
0.000000
  70
    32
  0
VERTEX
  8
┌▓È_1
  5
318
 10
959.785
 20
-402.631
 30
0.000000
  70
    32
  0
VERTEX
  8
┌▓È_1
  5
319
 10
959.814
 20
-402.657
 30
0.000000
  70
    32
  0
VERTEX
  8
┌▓È_1
  5
31A
 10
959.843
 20
-402.683
 30
0.000000
  70
    32
  0
VERTEX
  8
┌▓È_1
  5
31B
 10
959.872
 20
-402.710
 30
0.000000
  70
    32
  0
VERTEX
  8
┌▓È_1
  5
31C
 10
959.901
 20
-402.736
 30
0.000000
  70
    32
  0
VERTEX
  8
┌▓È_1
  5
31D
 10
959.929
 20
-402.762
 30
0.000000
  70
    32
  0
VERTEX
  8
┌▓È_1
  5
31E
 10
959.958
 20
-402.789
 30
0.000000
  70
    32
  0
VERTEX
  8
┌▓È_1
  5
31F
 10
959.987
 20
-402.815
 30
0.000000
  70
    32
  0
VERTEX
  8
┌▓È_1
  5
320
 10
960.016
 20
-402.841
 30
0.000000
  70
    32
  0
VERTEX
  8
┌▓È_1
  5
321
 10
960.045
 20
-402.868
 30
0.000000
  70
    32
  0
VERTEX
  8
┌▓È_1
  5
322
 10
960.074
 20
-402.894
 30
0.000000
  70
    32
  0
VERTEX
  8
┌▓È_1
  5
323
 10
960.103
 20
-402.920
 30
0.000000
  70
    32
  0
VERTEX
  8
┌▓È_1
  5
324
 10
960.132
 20
-402.946
 30
0.000000
  70
    32
  0
VERTEX
  8
┌▓È_1
  5
325
 10
960.161
 20
-402.973
 30
0.000000
  70
    32
  0
VERTEX
  8
┌▓È_1
  5
326
 10
960.190
 20
-402.999
 30
0.000000
  70
    32
  0
VERTEX
  8
┌▓È_1
  5
327
 10
960.219
 20
-403.025
 30
0.000000
  70
    32
  0
VERTEX
  8
┌▓È_1
  5
328
 10
960.248
 20
-403.051
 30
0.000000
  70
    32
  0
VERTEX
  8
┌▓È_1
  5
329
 10
960.277
 20
-403.077
 30
0.000000
  70
    32
  0
VERTEX
  8
┌▓È_1
  5
32A
 10
960.306
 20
-403.103
 30
0.000000
  70
    32
  0
VERTEX
  8
┌▓È_1
  5
32B
 10
960.335
 20
-403.130
 30
0.000000
  70
    32
  0
VERTEX
  8
┌▓È_1
  5
32C
 10
960.365
 20
-403.156
 30
0.000000
  70
    32
  0
VERTEX
  8
┌▓È_1
  5
32D
 10
960.394
 20
-403.182
 30
0.000000
  70
    32
  0
VERTEX
  8
┌▓È_1
  5
32E
 10
960.423
 20
-403.208
 30
0.000000
  70
    32
  0
VERTEX
  8
┌▓È_1
  5
32F
 10
960.452
 20
-403.234
 30
0.000000
  70
    32
  0
VERTEX
  8
┌▓È_1
  5
330
 10
960.481
 20
-403.260
 30
0.000000
  70
    32
  0
VERTEX
  8
┌▓È_1
  5
331
 10
960.510
 20
-403.286
 30
0.000000
  70
    32
  0
VERTEX
  8
┌▓È_1
  5
332
 10
960.539
 20
-403.311
 30
0.000000
  70
    32
  0
VERTEX
  8
┌▓È_1
  5
333
 10
960.569
 20
-403.337
 30
0.000000
  70
    32
  0
VERTEX
  8
┌▓È_1
  5
334
 10
960.598
 20
-403.363
 30
0.000000
  70
    32
  0
VERTEX
  8
┌▓È_1
  5
335
 10
960.627
 20
-403.389
 30
0.000000
  70
    32
  0
VERTEX
  8
┌▓È_1
  5
336
 10
960.656
 20
-403.415
 30
0.000000
  70
    32
  0
VERTEX
  8
┌▓È_1
  5
337
 10
960.685
 20
-403.441
 30
0.000000
  70
    32
  0
VERTEX
  8
┌▓È_1
  5
338
 10
960.715
 20
-403.466
 30
0.000000
  70
    32
  0
VERTEX
  8
┌▓È_1
  5
339
 10
960.744
 20
-403.492
 30
0.000000
  70
    32
  0
VERTEX
  8
┌▓È_1
  5
33A
 10
960.773
 20
-403.518
 30
0.000000
  70
    32
  0
VERTEX
  8
┌▓È_1
  5
33B
 10
960.803
 20
-403.543
 30
0.000000
  70
    32
  0
VERTEX
  8
┌▓È_1
  5
33C
 10
960.832
 20
-403.569
 30
0.000000
  70
    32
  0
VERTEX
  8
┌▓È_1
  5
33D
 10
960.861
 20
-403.595
 30
0.000000
  70
    32
  0
VERTEX
  8
┌▓È_1
  5
33E
 10
960.891
 20
-403.620
 30
0.000000
  70
    32
  0
VERTEX
  8
┌▓È_1
  5
33F
 10
960.920
 20
-403.646
 30
0.000000
  70
    32
  0
VERTEX
  8
┌▓È_1
  5
340
 10
960.949
 20
-403.671
 30
0.000000
  70
    32
  0
VERTEX
  8
┌▓È_1
  5
341
 10
960.979
 20
-403.697
 30
0.000000
  70
    32
  0
VERTEX
  8
┌▓È_1
  5
342
 10
961.008
 20
-403.722
 30
0.000000
  70
    32
  0
VERTEX
  8
┌▓È_1
  5
343
 10
961.038
 20
-403.747
 30
0.000000
  70
    32
  0
VERTEX
  8
┌▓È_1
  5
344
 10
961.067
 20
-403.773
 30
0.000000
  70
    32
  0
VERTEX
  8
┌▓È_1
  5
345
 10
961.097
 20
-403.798
 30
0.000000
  70
    32
  0
VERTEX
  8
┌▓È_1
  5
346
 10
961.126
 20
-403.823
 30
0.000000
  70
    32
  0
VERTEX
  8
┌▓È_1
  5
347
 10
961.156
 20
-403.849
 30
0.000000
  70
    32
  0
VERTEX
  8
┌▓È_1
  5
348
 10
961.185
 20
-403.874
 30
0.000000
  70
    32
  0
VERTEX
  8
┌▓È_1
  5
349
 10
961.215
 20
-403.899
 30
0.000000
  70
    32
  0
VERTEX
  8
┌▓È_1
  5
34A
 10
961.245
 20
-403.924
 30
0.000000
  70
    32
  0
VERTEX
  8
┌▓È_1
  5
34B
 10
961.274
 20
-403.949
 30
0.000000
  70
    32
  0
VERTEX
  8
┌▓È_1
  5
34C
 10
961.304
 20
-403.974
 30
0.000000
  70
    32
  0
VERTEX
  8
┌▓È_1
  5
34D
 10
961.333
 20
-403.999
 30
0.000000
  70
    32
  0
VERTEX
  8
┌▓È_1
  5
34E
 10
961.363
 20
-404.024
 30
0.000000
  70
    32
  0
VERTEX
  8
┌▓È_1
  5
34F
 10
961.393
 20
-404.049
 30
0.000000
  70
    32
  0
VERTEX
  8
┌▓È_1
  5
350
 10
961.423
 20
-404.074
 30
0.000000
  70
    32
  0
VERTEX
  8
┌▓È_1
  5
351
 10
961.452
 20
-404.099
 30
0.000000
  70
    32
  0
VERTEX
  8
┌▓È_1
  5
352
 10
961.482
 20
-404.123
 30
0.000000
  70
    32
  0
VERTEX
  8
┌▓È_1
  5
353
 10
961.512
 20
-404.148
 30
0.000000
  70
    32
  0
VERTEX
  8
┌▓È_1
  5
354
 10
961.542
 20
-404.173
 30
0.000000
  70
    32
  0
VERTEX
  8
┌▓È_1
  5
355
 10
961.572
 20
-404.197
 30
0.000000
  70
    32
  0
VERTEX
  8
┌▓È_1
  5
356
 10
961.602
 20
-404.222
 30
0.000000
  70
    32
  0
VERTEX
  8
┌▓È_1
  5
357
 10
961.631
 20
-404.247
 30
0.000000
  70
    32
  0
VERTEX
  8
┌▓È_1
  5
358
 10
961.661
 20
-404.271
 30
0.000000
  70
    32
  0
VERTEX
  8
┌▓È_1
  5
359
 10
961.691
 20
-404.296
 30
0.000000
  70
    32
  0
VERTEX
  8
┌▓È_1
  5
35A
 10
961.721
 20
-404.320
 30
0.000000
  70
    32
  0
VERTEX
  8
┌▓È_1
  5
35B
 10
961.751
 20
-404.344
 30
0.000000
  70
    32
  0
VERTEX
  8
┌▓È_1
  5
35C
 10
961.781
 20
-404.369
 30
0.000000
  70
    32
  0
VERTEX
  8
┌▓È_1
  5
35D
 10
961.812
 20
-404.393
 30
0.000000
  70
    32
  0
VERTEX
  8
┌▓È_1
  5
35E
 10
961.842
 20
-404.417
 30
0.000000
  70
    32
  0
VERTEX
  8
┌▓È_1
  5
35F
 10
961.872
 20
-404.441
 30
0.000000
  70
    32
  0
VERTEX
  8
┌▓È_1
  5
360
 10
961.902
 20
-404.465
 30
0.000000
  70
    32
  0
VERTEX
  8
┌▓È_1
  5
361
 10
961.932
 20
-404.489
 30
0.000000
  70
    32
  0
VERTEX
  8
┌▓È_1
  5
362
 10
961.962
 20
-404.513
 30
0.000000
  70
    32
  0
VERTEX
  8
┌▓È_1
  5
363
 10
961.993
 20
-404.537
 30
0.000000
  70
    32
  0
VERTEX
  8
┌▓È_1
  5
364
 10
962.023
 20
-404.561
 30
0.000000
  70
    32
  0
VERTEX
  8
┌▓È_1
  5
365
 10
962.053
 20
-404.585
 30
0.000000
  70
    32
  0
VERTEX
  8
┌▓È_1
  5
366
 10
962.083
 20
-404.609
 30
0.000000
  70
    32
  0
VERTEX
  8
┌▓È_1
  5
367
 10
962.114
 20
-404.632
 30
0.000000
  70
    32
  0
VERTEX
  8
┌▓È_1
  5
368
 10
962.144
 20
-404.656
 30
0.000000
  70
    32
  0
VERTEX
  8
┌▓È_1
  5
369
 10
962.175
 20
-404.680
 30
0.000000
  70
    32
  0
VERTEX
  8
┌▓È_1
  5
36A
 10
962.205
 20
-404.703
 30
0.000000
  70
    32
  0
VERTEX
  8
┌▓È_1
  5
36B
 10
962.236
 20
-404.727
 30
0.000000
  70
    32
  0
VERTEX
  8
┌▓È_1
  5
36C
 10
962.266
 20
-404.750
 30
0.000000
  70
    32
  0
VERTEX
  8
┌▓È_1
  5
36D
 10
962.297
 20
-404.774
 30
0.000000
  70
    32
  0
VERTEX
  8
┌▓È_1
  5
36E
 10
962.327
 20
-404.797
 30
0.000000
  70
    32
  0
VERTEX
  8
┌▓È_1
  5
36F
 10
962.358
 20
-404.820
 30
0.000000
  70
    32
  0
VERTEX
  8
┌▓È_1
  5
370
 10
962.388
 20
-404.843
 30
0.000000
  70
    32
  0
VERTEX
  8
┌▓È_1
  5
371
 10
962.419
 20
-404.866
 30
0.000000
  70
    32
  0
VERTEX
  8
┌▓È_1
  5
372
 10
962.450
 20
-404.889
 30
0.000000
  70
    32
  0
VERTEX
  8
┌▓È_1
  5
373
 10
962.481
 20
-404.912
 30
0.000000
  70
    32
  0
VERTEX
  8
┌▓È_1
  5
374
 10
962.511
 20
-404.935
 30
0.000000
  70
    32
  0
VERTEX
  8
┌▓È_1
  5
375
 10
962.542
 20
-404.958
 30
0.000000
  70
    32
  0
VERTEX
  8
┌▓È_1
  5
376
 10
962.573
 20
-404.981
 30
0.000000
  70
    32
  0
VERTEX
  8
┌▓È_1
  5
377
 10
962.604
 20
-405.004
 30
0.000000
  70
    32
  0
VERTEX
  8
┌▓È_1
  5
378
 10
962.635
 20
-405.027
 30
0.000000
  70
    32
  0
VERTEX
  8
┌▓È_1
  5
379
 10
962.666
 20
-405.049
 30
0.000000
  70
    32
  0
VERTEX
  8
┌▓È_1
  5
37A
 10
962.697
 20
-405.072
 30
0.000000
  70
    32
  0
VERTEX
  8
┌▓È_1
  5
37B
 10
962.728
 20
-405.094
 30
0.000000
  70
    32
  0
VERTEX
  8
┌▓È_1
  5
37C
 10
962.759
 20
-405.117
 30
0.000000
  70
    32
  0
VERTEX
  8
┌▓È_1
  5
37D
 10
962.790
 20
-405.139
 30
0.000000
  70
    32
  0
VERTEX
  8
┌▓È_1
  5
37E
 10
962.821
 20
-405.161
 30
0.000000
  70
    32
  0
VERTEX
  8
┌▓È_1
  5
37F
 10
962.852
 20
-405.183
 30
0.000000
  70
    32
  0
VERTEX
  8
┌▓È_1
  5
380
 10
962.883
 20
-405.206
 30
0.000000
  70
    32
  0
VERTEX
  8
┌▓È_1
  5
381
 10
962.915
 20
-405.228
 30
0.000000
  70
    32
  0
VERTEX
  8
┌▓È_1
  5
382
 10
962.946
 20
-405.250
 30
0.000000
  70
    32
  0
VERTEX
  8
┌▓È_1
  5
383
 10
962.977
 20
-405.272
 30
0.000000
  70
    32
  0
VERTEX
  8
┌▓È_1
  5
384
 10
963.009
 20
-405.293
 30
0.000000
  70
    32
  0
VERTEX
  8
┌▓È_1
  5
385
 10
963.040
 20
-405.315
 30
0.000000
  70
    32
  0
VERTEX
  8
┌▓È_1
  5
386
 10
963.072
 20
-405.337
 30
0.000000
  70
    32
  0
VERTEX
  8
┌▓È_1
  5
387
 10
963.103
 20
-405.359
 30
0.000000
  70
    32
  0
VERTEX
  8
┌▓È_1
  5
388
 10
963.135
 20
-405.380
 30
0.000000
  70
    32
  0
VERTEX
  8
┌▓È_1
  5
389
 10
963.166
 20
-405.402
 30
0.000000
  70
    32
  0
VERTEX
  8
┌▓È_1
  5
38A
 10
963.198
 20
-405.423
 30
0.000000
  70
    32
  0
VERTEX
  8
┌▓È_1
  5
38B
 10
963.229
 20
-405.444
 30
0.000000
  70
    32
  0
VERTEX
  8
┌▓È_1
  5
38C
 10
963.261
 20
-405.466
 30
0.000000
  70
    32
  0
VERTEX
  8
┌▓È_1
  5
38D
 10
963.293
 20
-405.487
 30
0.000000
  70
    32
  0
VERTEX
  8
┌▓È_1
  5
38E
 10
963.325
 20
-405.508
 30
0.000000
  70
    32
  0
VERTEX
  8
┌▓È_1
  5
38F
 10
963.356
 20
-405.529
 30
0.000000
  70
    32
  0
VERTEX
  8
┌▓È_1
  5
390
 10
963.388
 20
-405.550
 30
0.000000
  70
    32
  0
VERTEX
  8
┌▓È_1
  5
391
 10
963.420
 20
-405.571
 30
0.000000
  70
    32
  0
VERTEX
  8
┌▓È_1
  5
392
 10
963.452
 20
-405.592
 30
0.000000
  70
    32
  0
VERTEX
  8
┌▓È_1
  5
393
 10
963.484
 20
-405.612
 30
0.000000
  70
    32
  0
VERTEX
  8
┌▓È_1
  5
394
 10
963.516
 20
-405.633
 30
0.000000
  70
    32
  0
VERTEX
  8
┌▓È_1
  5
395
 10
963.548
 20
-405.653
 30
0.000000
  70
    32
  0
VERTEX
  8
┌▓È_1
  5
396
 10
963.580
 20
-405.674
 30
0.000000
  70
    32
  0
VERTEX
  8
┌▓È_1
  5
397
 10
963.612
 20
-405.694
 30
0.000000
  70
    32
  0
VERTEX
  8
┌▓È_1
  5
398
 10
963.645
 20
-405.715
 30
0.000000
  70
    32
  0
VERTEX
  8
┌▓È_1
  5
399
 10
963.677
 20
-405.735
 30
0.000000
  70
    32
  0
VERTEX
  8
┌▓È_1
  5
39A
 10
963.709
 20
-405.755
 30
0.000000
  70
    32
  0
VERTEX
  8
┌▓È_1
  5
39B
 10
963.741
 20
-405.775
 30
0.000000
  70
    32
  0
VERTEX
  8
┌▓È_1
  5
39C
 10
963.774
 20
-405.795
 30
0.000000
  70
    32
  0
VERTEX
  8
┌▓È_1
  5
39D
 10
963.806
 20
-405.815
 30
0.000000
  70
    32
  0
VERTEX
  8
┌▓È_1
  5
39E
 10
963.839
 20
-405.835
 30
0.000000
  70
    32
  0
VERTEX
  8
┌▓È_1
  5
39F
 10
963.871
 20
-405.854
 30
0.000000
  70
    32
  0
VERTEX
  8
┌▓È_1
  5
3A0
 10
963.904
 20
-405.874
 30
0.000000
  70
    32
  0
SEQEND
  8
┌▓È_1
  5
3A1
  0
POLYLINE
  8
┌▓È_1
  5
3A2
  62
5
  66
     1
 10
0.000000
 20
0.000000
 30
0.000000
  70
     8
  0
VERTEX
  8
┌▓È_1
  5
3A3
 10
967.855
 20
-407.608
 30
0.000000
  70
    32
  0
VERTEX
  8
┌▓È_1
  5
3A4
 10
967.899
 20
-407.622
 30
0.000000
  70
    32
  0
VERTEX
  8
┌▓È_1
  5
3A5
 10
967.942
 20
-407.635
 30
0.000000
  70
    32
  0
VERTEX
  8
┌▓È_1
  5
3A6
 10
967.985
 20
-407.649
 30
0.000000
  70
    32
  0
VERTEX
  8
┌▓È_1
  5
3A7
 10
968.028
 20
-407.663
 30
0.000000
  70
    32
  0
VERTEX
  8
┌▓È_1
  5
3A8
 10
968.071
 20
-407.676
 30
0.000000
  70
    32
  0
VERTEX
  8
┌▓È_1
  5
3A9
 10
968.114
 20
-407.689
 30
0.000000
  70
    32
  0
VERTEX
  8
┌▓È_1
  5
3AA
 10
968.158
 20
-407.703
 30
0.000000
  70
    32
  0
VERTEX
  8
┌▓È_1
  5
3AB
 10
968.201
 20
-407.716
 30
0.000000
  70
    32
  0
VERTEX
  8
┌▓È_1
  5
3AC
 10
968.244
 20
-407.729
 30
0.000000
  70
    32
  0
VERTEX
  8
┌▓È_1
  5
3AD
 10
968.288
 20
-407.742
 30
0.000000
  70
    32
  0
VERTEX
  8
┌▓È_1
  5
3AE
 10
968.331
 20
-407.755
 30
0.000000
  70
    32
  0
VERTEX
  8
┌▓È_1
  5
3AF
 10
968.375
 20
-407.769
 30
0.000000
  70
    32
  0
VERTEX
  8
┌▓È_1
  5
3B0
 10
968.418
 20
-407.781
 30
0.000000
  70
    32
  0
VERTEX
  8
┌▓È_1
  5
3B1
 10
968.462
 20
-407.794
 30
0.000000
  70
    32
  0
VERTEX
  8
┌▓È_1
  5
3B2
 10
968.505
 20
-407.807
 30
0.000000
  70
    32
  0
VERTEX
  8
┌▓È_1
  5
3B3
 10
968.549
 20
-407.820
 30
0.000000
  70
    32
  0
VERTEX
  8
┌▓È_1
  5
3B4
 10
968.592
 20
-407.833
 30
0.000000
  70
    32
  0
VERTEX
  8
┌▓È_1
  5
3B5
 10
968.636
 20
-407.845
 30
0.000000
  70
    32
  0
VERTEX
  8
┌▓È_1
  5
3B6
 10
968.680
 20
-407.858
 30
0.000000
  70
    32
  0
VERTEX
  8
┌▓È_1
  5
3B7
 10
968.724
 20
-407.870
 30
0.000000
  70
    32
  0
VERTEX
  8
┌▓È_1
  5
3B8
 10
968.767
 20
-407.883
 30
0.000000
  70
    32
  0
VERTEX
  8
┌▓È_1
  5
3B9
 10
968.811
 20
-407.895
 30
0.000000
  70
    32
  0
VERTEX
  8
┌▓È_1
  5
3BA
 10
968.855
 20
-407.908
 30
0.000000
  70
    32
  0
VERTEX
  8
┌▓È_1
  5
3BB
 10
968.899
 20
-407.920
 30
0.000000
  70
    32
  0
VERTEX
  8
┌▓È_1
  5
3BC
 10
968.943
 20
-407.932
 30
0.000000
  70
    32
  0
VERTEX
  8
┌▓È_1
  5
3BD
 10
968.986
 20
-407.945
 30
0.000000
  70
    32
  0
VERTEX
  8
┌▓È_1
  5
3BE
 10
969.030
 20
-407.957
 30
0.000000
  70
    32
  0
VERTEX
  8
┌▓È_1
  5
3BF
 10
969.074
 20
-407.969
 30
0.000000
  70
    32
  0
VERTEX
  8
┌▓È_1
  5
3C0
 10
969.118
 20
-407.981
 30
0.000000
  70
    32
  0
VERTEX
  8
┌▓È_1
  5
3C1
 10
969.162
 20
-407.993
 30
0.000000
  70
    32
  0
VERTEX
  8
┌▓È_1
  5
3C2
 10
969.206
 20
-408.005
 30
0.000000
  70
    32
  0
VERTEX
  8
┌▓È_1
  5
3C3
 10
969.250
 20
-408.017
 30
0.000000
  70
    32
  0
VERTEX
  8
┌▓È_1
  5
3C4
 10
969.295
 20
-408.028
 30
0.000000
  70
    32
  0
VERTEX
  8
┌▓È_1
  5
3C5
 10
969.339
 20
-408.040
 30
0.000000
  70
    32
  0
VERTEX
  8
┌▓È_1
  5
3C6
 10
969.383
 20
-408.052
 30
0.000000
  70
    32
  0
VERTEX
  8
┌▓È_1
  5
3C7
 10
969.427
 20
-408.064
 30
0.000000
  70
    32
  0
VERTEX
  8
┌▓È_1
  5
3C8
 10
969.471
 20
-408.075
 30
0.000000
  70
    32
  0
VERTEX
  8
┌▓È_1
  5
3C9
 10
969.515
 20
-408.087
 30
0.000000
  70
    32
  0
VERTEX
  8
┌▓È_1
  5
3CA
 10
969.560
 20
-408.098
 30
0.000000
  70
    32
  0
VERTEX
  8
┌▓È_1
  5
3CB
 10
969.604
 20
-408.110
 30
0.000000
  70
    32
  0
VERTEX
  8
┌▓È_1
  5
3CC
 10
969.648
 20
-408.121
 30
0.000000
  70
    32
  0
VERTEX
  8
┌▓È_1
  5
3CD
 10
969.693
 20
-408.133
 30
0.000000
  70
    32
  0
VERTEX
  8
┌▓È_1
  5
3CE
 10
969.737
 20
-408.144
 30
0.000000
  70
    32
  0
VERTEX
  8
┌▓È_1
  5
3CF
 10
969.781
 20
-408.155
 30
0.000000
  70
    32
  0
VERTEX
  8
┌▓È_1
  5
3D0
 10
969.826
 20
-408.167
 30
0.000000
  70
    32
  0
VERTEX
  8
┌▓È_1
  5
3D1
 10
969.870
 20
-408.178
 30
0.000000
  70
    32
  0
VERTEX
  8
┌▓È_1
  5
3D2
 10
969.915
 20
-408.189
 30
0.000000
  70
    32
  0
VERTEX
  8
┌▓È_1
  5
3D3
 10
969.959
 20
-408.200
 30
0.000000
  70
    32
  0
VERTEX
  8
┌▓È_1
  5
3D4
 10
970.004
 20
-408.211
 30
0.000000
  70
    32
  0
VERTEX
  8
┌▓È_1
  5
3D5
 10
970.048
 20
-408.222
 30
0.000000
  70
    32
  0
VERTEX
  8
┌▓È_1
  5
3D6
 10
970.093
 20
-408.233
 30
0.000000
  70
    32
  0
VERTEX
  8
┌▓È_1
  5
3D7
 10
970.137
 20
-408.244
 30
0.000000
  70
    32
  0
VERTEX
  8
┌▓È_1
  5
3D8
 10
970.182
 20
-408.255
 30
0.000000
  70
    32
  0
VERTEX
  8
┌▓È_1
  5
3D9
 10
970.226
 20
-408.266
 30
0.000000
  70
    32
  0
VERTEX
  8
┌▓È_1
  5
3DA
 10
970.271
 20
-408.277
 30
0.000000
  70
    32
  0
VERTEX
  8
┌▓È_1
  5
3DB
 10
970.316
 20
-408.288
 30
0.000000
  70
    32
  0
VERTEX
  8
┌▓È_1
  5
3DC
 10
970.360
 20
-408.299
 30
0.000000
  70
    32
  0
VERTEX
  8
┌▓È_1
  5
3DD
 10
970.405
 20
-408.309
 30
0.000000
  70
    32
  0
VERTEX
  8
┌▓È_1
  5
3DE
 10
970.450
 20
-408.320
 30
0.000000
  70
    32
  0
VERTEX
  8
┌▓È_1
  5
3DF
 10
970.495
 20
-408.331
 30
0.000000
  70
    32
  0
VERTEX
  8
┌▓È_1
  5
3E0
 10
970.539
 20
-408.341
 30
0.000000
  70
    32
  0
VERTEX
  8
┌▓È_1
  5
3E1
 10
970.584
 20
-408.352
 30
0.000000
  70
    32
  0
VERTEX
  8
┌▓È_1
  5
3E2
 10
970.629
 20
-408.362
 30
0.000000
  70
    32
  0
VERTEX
  8
┌▓È_1
  5
3E3
 10
970.674
 20
-408.373
 30
0.000000
  70
    32
  0
VERTEX
  8
┌▓È_1
  5
3E4
 10
970.719
 20
-408.383
 30
0.000000
  70
    32
  0
VERTEX
  8
┌▓È_1
  5
3E5
 10
970.763
 20
-408.394
 30
0.000000
  70
    32
  0
VERTEX
  8
┌▓È_1
  5
3E6
 10
970.808
 20
-408.404
 30
0.000000
  70
    32
  0
VERTEX
  8
┌▓È_1
  5
3E7
 10
970.853
 20
-408.415
 30
0.000000
  70
    32
  0
VERTEX
  8
┌▓È_1
  5
3E8
 10
970.898
 20
-408.425
 30
0.000000
  70
    32
  0
VERTEX
  8
┌▓È_1
  5
3E9
 10
970.943
 20
-408.435
 30
0.000000
  70
    32
  0
VERTEX
  8
┌▓È_1
  5
3EA
 10
970.988
 20
-408.446
 30
0.000000
  70
    32
  0
VERTEX
  8
┌▓È_1
  5
3EB
 10
971.033
 20
-408.456
 30
0.000000
  70
    32
  0
VERTEX
  8
┌▓È_1
  5
3EC
 10
971.078
 20
-408.466
 30
0.000000
  70
    32
  0
VERTEX
  8
┌▓È_1
  5
3ED
 10
971.123
 20
-408.476
 30
0.000000
  70
    32
  0
VERTEX
  8
┌▓È_1
  5
3EE
 10
971.168
 20
-408.487
 30
0.000000
  70
    32
  0
VERTEX
  8
┌▓È_1
  5
3EF
 10
971.213
 20
-408.497
 30
0.000000
  70
    32
  0
VERTEX
  8
┌▓È_1
  5
3F0
 10
971.258
 20
-408.507
 30
0.000000
  70
    32
  0
VERTEX
  8
┌▓È_1
  5
3F1
 10
971.303
 20
-408.517
 30
0.000000
  70
    32
  0
VERTEX
  8
┌▓È_1
  5
3F2
 10
971.348
 20
-408.527
 30
0.000000
  70
    32
  0
VERTEX
  8
┌▓È_1
  5
3F3
 10
971.393
 20
-408.537
 30
0.000000
  70
    32
  0
VERTEX
  8
┌▓È_1
  5
3F4
 10
971.438
 20
-408.547
 30
0.000000
  70
    32
  0
VERTEX
  8
┌▓È_1
  5
3F5
 10
971.483
 20
-408.557
 30
0.000000
  70
    32
  0
VERTEX
  8
┌▓È_1
  5
3F6
 10
971.528
 20
-408.567
 30
0.000000
  70
    32
  0
VERTEX
  8
┌▓È_1
  5
3F7
 10
971.573
 20
-408.577
 30
0.000000
  70
    32
  0
VERTEX
  8
┌▓È_1
  5
3F8
 10
971.618
 20
-408.587
 30
0.000000
  70
    32
  0
VERTEX
  8
┌▓È_1
  5
3F9
 10
971.664
 20
-408.597
 30
0.000000
  70
    32
  0
VERTEX
  8
┌▓È_1
  5
3FA
 10
971.709
 20
-408.607
 30
0.000000
  70
    32
  0
VERTEX
  8
┌▓È_1
  5
3FB
 10
971.754
 20
-408.617
 30
0.000000
  70
    32
  0
VERTEX
  8
┌▓È_1
  5
3FC
 10
971.799
 20
-408.626
 30
0.000000
  70
    32
  0
VERTEX
  8
┌▓È_1
  5
3FD
 10
971.844
 20
-408.636
 30
0.000000
  70
    32
  0
VERTEX
  8
┌▓È_1
  5
3FE
 10
971.889
 20
-408.646
 30
0.000000
  70
    32
  0
VERTEX
  8
┌▓È_1
  5
3FF
 10
971.935
 20
-408.656
 30
0.000000
  70
    32
  0
VERTEX
  8
┌▓È_1
  5
400
 10
971.980
 20
-408.666
 30
0.000000
  70
    32
  0
VERTEX
  8
┌▓È_1
  5
401
 10
972.025
 20
-408.675
 30
0.000000
  70
    32
  0
VERTEX
  8
┌▓È_1
  5
402
 10
972.070
 20
-408.685
 30
0.000000
  70
    32
  0
VERTEX
  8
┌▓È_1
  5
403
 10
972.116
 20
-408.695
 30
0.000000
  70
    32
  0
VERTEX
  8
┌▓È_1
  5
404
 10
972.161
 20
-408.704
 30
0.000000
  70
    32
  0
VERTEX
  8
┌▓È_1
  5
405
 10
972.206
 20
-408.714
 30
0.000000
  70
    32
  0
VERTEX
  8
┌▓È_1
  5
406
 10
972.251
 20
-408.724
 30
0.000000
  70
    32
  0
VERTEX
  8
┌▓È_1
  5
407
 10
972.297
 20
-408.733
 30
0.000000
  70
    32
  0
VERTEX
  8
┌▓È_1
  5
408
 10
972.342
 20
-408.743
 30
0.000000
  70
    32
  0
VERTEX
  8
┌▓È_1
  5
409
 10
972.387
 20
-408.753
 30
0.000000
  70
    32
  0
VERTEX
  8
┌▓È_1
  5
40A
 10
972.433
 20
-408.762
 30
0.000000
  70
    32
  0
VERTEX
  8
┌▓È_1
  5
40B
 10
972.478
 20
-408.772
 30
0.000000
  70
    32
  0
VERTEX
  8
┌▓È_1
  5
40C
 10
972.523
 20
-408.781
 30
0.000000
  70
    32
  0
VERTEX
  8
┌▓È_1
  5
40D
 10
972.569
 20
-408.791
 30
0.000000
  70
    32
  0
VERTEX
  8
┌▓È_1
  5
40E
 10
972.614
 20
-408.800
 30
0.000000
  70
    32
  0
VERTEX
  8
┌▓È_1
  5
40F
 10
972.659
 20
-408.810
 30
0.000000
  70
    32
  0
VERTEX
  8
┌▓È_1
  5
410
 10
972.705
 20
-408.820
 30
0.000000
  70
    32
  0
VERTEX
  8
┌▓È_1
  5
411
 10
972.750
 20
-408.829
 30
0.000000
  70
    32
  0
VERTEX
  8
┌▓È_1
  5
412
 10
972.795
 20
-408.839
 30
0.000000
  70
    32
  0
VERTEX
  8
┌▓È_1
  5
413
 10
972.841
 20
-408.848
 30
0.000000
  70
    32
  0
VERTEX
  8
┌▓È_1
  5
414
 10
972.886
 20
-408.858
 30
0.000000
  70
    32
  0
VERTEX
  8
┌▓È_1
  5
415
 10
972.931
 20
-408.867
 30
0.000000
  70
    32
  0
VERTEX
  8
┌▓È_1
  5
416
 10
972.977
 20
-408.877
 30
0.000000
  70
    32
  0
VERTEX
  8
┌▓È_1
  5
417
 10
973.022
 20
-408.886
 30
0.000000
  70
    32
  0
VERTEX
  8
┌▓È_1
  5
418
 10
973.068
 20
-408.895
 30
0.000000
  70
    32
  0
VERTEX
  8
┌▓È_1
  5
419
 10
973.113
 20
-408.905
 30
0.000000
  70
    32
  0
VERTEX
  8
┌▓È_1
  5
41A
 10
973.158
 20
-408.914
 30
0.000000
  70
    32
  0
VERTEX
  8
┌▓È_1
  5
41B
 10
973.204
 20
-408.924
 30
0.000000
  70
    32
  0
VERTEX
  8
┌▓È_1
  5
41C
 10
973.249
 20
-408.933
 30
0.000000
  70
    32
  0
VERTEX
  8
┌▓È_1
  5
41D
 10
973.294
 20
-408.943
 30
0.000000
  70
    32
  0
VERTEX
  8
┌▓È_1
  5
41E
 10
973.340
 20
-408.952
 30
0.000000
  70
    32
  0
VERTEX
  8
┌▓È_1
  5
41F
 10
973.385
 20
-408.962
 30
0.000000
  70
    32
  0
VERTEX
  8
┌▓È_1
  5
420
 10
973.431
 20
-408.971
 30
0.000000
  70
    32
  0
VERTEX
  8
┌▓È_1
  5
421
 10
973.476
 20
-408.980
 30
0.000000
  70
    32
  0
VERTEX
  8
┌▓È_1
  5
422
 10
973.521
 20
-408.990
 30
0.000000
  70
    32
  0
SEQEND
  8
┌▓È_1
  5
423
  0
POLYLINE
  8
┌▓È_1
  5
424
  62
5
  66
     1
 10
0.000000
 20
0.000000
 30
0.000000
  70
     8
  0
VERTEX
  8
┌▓È_1
  5
425
 10
964.616
 20
-402.410
 30
0.000000
  70
    32
  0
VERTEX
  8
┌▓È_1
  5
426
 10
964.627
 20
-402.422
 30
0.000000
  70
    32
  0
VERTEX
  8
┌▓È_1
  5
427
 10
964.637
 20
-402.434
 30
0.000000
  70
    32
  0
VERTEX
  8
┌▓È_1
  5
428
 10
964.648
 20
-402.446
 30
0.000000
  70
    32
  0
VERTEX
  8
┌▓È_1
  5
429
 10
964.659
 20
-402.457
 30
0.000000
  70
    32
  0
VERTEX
  8
┌▓È_1
  5
42A
 10
964.669
 20
-402.469
 30
0.000000
  70
    32
  0
VERTEX
  8
┌▓È_1
  5
42B
 10
964.680
 20
-402.481
 30
0.000000
  70
    32
  0
VERTEX
  8
┌▓È_1
  5
42C
 10
964.690
 20
-402.493
 30
0.000000
  70
    32
  0
VERTEX
  8
┌▓È_1
  5
42D
 10
964.701
 20
-402.505
 30
0.000000
  70
    32
  0
VERTEX
  8
┌▓È_1
  5
42E
 10
964.711
 20
-402.516
 30
0.000000
  70
    32
  0
VERTEX
  8
┌▓È_1
  5
42F
 10
964.722
 20
-402.528
 30
0.000000
  70
    32
  0
VERTEX
  8
┌▓È_1
  5
430
 10
964.733
 20
-402.540
 30
0.000000
  70
    32
  0
VERTEX
  8
┌▓È_1
  5
431
 10
964.743
 20
-402.552
 30
0.000000
  70
    32
  0
VERTEX
  8
┌▓È_1
  5
432
 10
964.754
 20
-402.563
 30
0.000000
  70
    32
  0
VERTEX
  8
┌▓È_1
  5
433
 10
964.764
 20
-402.575
 30
0.000000
  70
    32
  0
VERTEX
  8
┌▓È_1
  5
434
 10
964.775
 20
-402.587
 30
0.000000
  70
    32
  0
VERTEX
  8
┌▓È_1
  5
435
 10
964.785
 20
-402.599
 30
0.000000
  70
    32
  0
VERTEX
  8
┌▓È_1
  5
436
 10
964.796
 20
-402.610
 30
0.000000
  70
    32
  0
VERTEX
  8
┌▓È_1
  5
437
 10
964.807
 20
-402.622
 30
0.000000
  70
    32
  0
VERTEX
  8
┌▓È_1
  5
438
 10
964.817
 20
-402.634
 30
0.000000
  70
    32
  0
VERTEX
  8
┌▓È_1
  5
439
 10
964.828
 20
-402.646
 30
0.000000
  70
    32
  0
VERTEX
  8
┌▓È_1
  5
43A
 10
964.838
 20
-402.657
 30
0.000000
  70
    32
  0
VERTEX
  8
┌▓È_1
  5
43B
 10
964.849
 20
-402.669
 30
0.000000
  70
    32
  0
VERTEX
  8
┌▓È_1
  5
43C
 10
964.859
 20
-402.681
 30
0.000000
  70
    32
  0
VERTEX
  8
┌▓È_1
  5
43D
 10
964.870
 20
-402.693
 30
0.000000
  70
    32
  0
VERTEX
  8
┌▓È_1
  5
43E
 10
964.881
 20
-402.704
 30
0.000000
  70
    32
  0
VERTEX
  8
┌▓È_1
  5
43F
 10
964.891
 20
-402.716
 30
0.000000
  70
    32
  0
VERTEX
  8
┌▓È_1
  5
440
 10
964.902
 20
-402.728
 30
0.000000
  70
    32
  0
VERTEX
  8
┌▓È_1
  5
441
 10
964.912
 20
-402.739
 30
0.000000
  70
    32
  0
VERTEX
  8
┌▓È_1
  5
442
 10
964.923
 20
-402.751
 30
0.000000
  70
    32
  0
VERTEX
  8
┌▓È_1
  5
443
 10
964.934
 20
-402.763
 30
0.000000
  70
    32
  0
VERTEX
  8
┌▓È_1
  5
444
 10
964.944
 20
-402.774
 30
0.000000
  70
    32
  0
VERTEX
  8
┌▓È_1
  5
445
 10
964.955
 20
-402.786
 30
0.000000
  70
    32
  0
VERTEX
  8
┌▓È_1
  5
446
 10
964.965
 20
-402.798
 30
0.000000
  70
    32
  0
VERTEX
  8
┌▓È_1
  5
447
 10
964.976
 20
-402.810
 30
0.000000
  70
    32
  0
VERTEX
  8
┌▓È_1
  5
448
 10
964.987
 20
-402.821
 30
0.000000
  70
    32
  0
VERTEX
  8
┌▓È_1
  5
449
 10
964.997
 20
-402.833
 30
0.000000
  70
    32
  0
VERTEX
  8
┌▓È_1
  5
44A
 10
965.008
 20
-402.845
 30
0.000000
  70
    32
  0
VERTEX
  8
┌▓È_1
  5
44B
 10
965.019
 20
-402.856
 30
0.000000
  70
    32
  0
VERTEX
  8
┌▓È_1
  5
44C
 10
965.029
 20
-402.868
 30
0.000000
  70
    32
  0
VERTEX
  8
┌▓È_1
  5
44D
 10
965.040
 20
-402.879
 30
0.000000
  70
    32
  0
VERTEX
  8
┌▓È_1
  5
44E
 10
965.051
 20
-402.891
 30
0.000000
  70
    32
  0
VERTEX
  8
┌▓È_1
  5
44F
 10
965.061
 20
-402.903
 30
0.000000
  70
    32
  0
VERTEX
  8
┌▓È_1
  5
450
 10
965.072
 20
-402.914
 30
0.000000
  70
    32
  0
VERTEX
  8
┌▓È_1
  5
451
 10
965.082
 20
-402.926
 30
0.000000
  70
    32
  0
VERTEX
  8
┌▓È_1
  5
452
 10
965.093
 20
-402.938
 30
0.000000
  70
    32
  0
VERTEX
  8
┌▓È_1
  5
453
 10
965.104
 20
-402.949
 30
0.000000
  70
    32
  0
VERTEX
  8
┌▓È_1
  5
454
 10
965.114
 20
-402.961
 30
0.000000
  70
    32
  0
VERTEX
  8
┌▓È_1
  5
455
 10
965.125
 20
-402.972
 30
0.000000
  70
    32
  0
VERTEX
  8
┌▓È_1
  5
456
 10
965.136
 20
-402.984
 30
0.000000
  70
    32
  0
VERTEX
  8
┌▓È_1
  5
457
 10
965.147
 20
-402.995
 30
0.000000
  70
    32
  0
VERTEX
  8
┌▓È_1
  5
458
 10
965.157
 20
-403.007
 30
0.000000
  70
    32
  0
VERTEX
  8
┌▓È_1
  5
459
 10
965.168
 20
-403.018
 30
0.000000
  70
    32
  0
VERTEX
  8
┌▓È_1
  5
45A
 10
965.179
 20
-403.030
 30
0.000000
  70
    32
  0
VERTEX
  8
┌▓È_1
  5
45B
 10
965.189
 20
-403.042
 30
0.000000
  70
    32
  0
VERTEX
  8
┌▓È_1
  5
45C
 10
965.200
 20
-403.053
 30
0.000000
  70
    32
  0
VERTEX
  8
┌▓È_1
  5
45D
 10
965.211
 20
-403.065
 30
0.000000
  70
    32
  0
VERTEX
  8
┌▓È_1
  5
45E
 10
965.222
 20
-403.076
 30
0.000000
  70
    32
  0
VERTEX
  8
┌▓È_1
  5
45F
 10
965.232
 20
-403.088
 30
0.000000
  70
    32
  0
VERTEX
  8
┌▓È_1
  5
460
 10
965.243
 20
-403.099
 30
0.000000
  70
    32
  0
VERTEX
  8
┌▓È_1
  5
461
 10
965.254
 20
-403.110
 30
0.000000
  70
    32
  0
VERTEX
  8
┌▓È_1
  5
462
 10
965.265
 20
-403.122
 30
0.000000
  70
    32
  0
VERTEX
  8
┌▓È_1
  5
463
 10
965.275
 20
-403.133
 30
0.000000
  70
    32
  0
VERTEX
  8
┌▓È_1
  5
464
 10
965.286
 20
-403.145
 30
0.000000
  70
    32
  0
VERTEX
  8
┌▓È_1
  5
465
 10
965.297
 20
-403.156
 30
0.000000
  70
    32
  0
VERTEX
  8
┌▓È_1
  5
466
 10
965.308
 20
-403.168
 30
0.000000
  70
    32
  0
VERTEX
  8
┌▓È_1
  5
467
 10
965.318
 20
-403.179
 30
0.000000
  70
    32
  0
VERTEX
  8
┌▓È_1
  5
468
 10
965.329
 20
-403.190
 30
0.000000
  70
    32
  0
VERTEX
  8
┌▓È_1
  5
469
 10
965.340
 20
-403.202
 30
0.000000
  70
    32
  0
VERTEX
  8
┌▓È_1
  5
46A
 10
965.351
 20
-403.213
 30
0.000000
  70
    32
  0
VERTEX
  8
┌▓È_1
  5
46B
 10
965.362
 20
-403.224
 30
0.000000
  70
    32
  0
VERTEX
  8
┌▓È_1
  5
46C
 10
965.373
 20
-403.236
 30
0.000000
  70
    32
  0
VERTEX
  8
┌▓È_1
  5
46D
 10
965.383
 20
-403.247
 30
0.000000
  70
    32
  0
VERTEX
  8
┌▓È_1
  5
46E
 10
965.394
 20
-403.258
 30
0.000000
  70
    32
  0
VERTEX
  8
┌▓È_1
  5
46F
 10
965.405
 20
-403.270
 30
0.000000
  70
    32
  0
VERTEX
  8
┌▓È_1
  5
470
 10
965.416
 20
-403.281
 30
0.000000
  70
    32
  0
VERTEX
  8
┌▓È_1
  5
471
 10
965.427
 20
-403.292
 30
0.000000
  70
    32
  0
VERTEX
  8
┌▓È_1
  5
472
 10
965.438
 20
-403.304
 30
0.000000
  70
    32
  0
VERTEX
  8
┌▓È_1
  5
473
 10
965.449
 20
-403.315
 30
0.000000
  70
    32
  0
VERTEX
  8
┌▓È_1
  5
474
 10
965.459
 20
-403.326
 30
0.000000
  70
    32
  0
VERTEX
  8
┌▓È_1
  5
475
 10
965.470
 20
-403.337
 30
0.000000
  70
    32
  0
VERTEX
  8
┌▓È_1
  5
476
 10
965.481
 20
-403.348
 30
0.000000
  70
    32
  0
VERTEX
  8
┌▓È_1
  5
477
 10
965.492
 20
-403.360
 30
0.000000
  70
    32
  0
VERTEX
  8
┌▓È_1
  5
478
 10
965.503
 20
-403.371
 30
0.000000
  70
    32
  0
VERTEX
  8
┌▓È_1
  5
479
 10
965.514
 20
-403.382
 30
0.000000
  70
    32
  0
VERTEX
  8
┌▓È_1
  5
47A
 10
965.525
 20
-403.393
 30
0.000000
  70
    32
  0
VERTEX
  8
┌▓È_1
  5
47B
 10
965.536
 20
-403.404
 30
0.000000
  70
    32
  0
VERTEX
  8
┌▓È_1
  5
47C
 10
965.547
 20
-403.415
 30
0.000000
  70
    32
  0
VERTEX
  8
┌▓È_1
  5
47D
 10
965.558
 20
-403.426
 30
0.000000
  70
    32
  0
VERTEX
  8
┌▓È_1
  5
47E
 10
965.569
 20
-403.438
 30
0.000000
  70
    32
  0
VERTEX
  8
┌▓È_1
  5
47F
 10
965.580
 20
-403.449
 30
0.000000
  70
    32
  0
VERTEX
  8
┌▓È_1
  5
480
 10
965.591
 20
-403.460
 30
0.000000
  70
    32
  0
VERTEX
  8
┌▓È_1
  5
481
 10
965.602
 20
-403.471
 30
0.000000
  70
    32
  0
VERTEX
  8
┌▓È_1
  5
482
 10
965.613
 20
-403.482
 30
0.000000
  70
    32
  0
VERTEX
  8
┌▓È_1
  5
483
 10
965.624
 20
-403.493
 30
0.000000
  70
    32
  0
VERTEX
  8
┌▓È_1
  5
484
 10
965.635
 20
-403.504
 30
0.000000
  70
    32
  0
VERTEX
  8
┌▓È_1
  5
485
 10
965.646
 20
-403.515
 30
0.000000
  70
    32
  0
VERTEX
  8
┌▓È_1
  5
486
 10
965.657
 20
-403.526
 30
0.000000
  70
    32
  0
VERTEX
  8
┌▓È_1
  5
487
 10
965.668
 20
-403.537
 30
0.000000
  70
    32
  0
VERTEX
  8
┌▓È_1
  5
488
 10
965.679
 20
-403.548
 30
0.000000
  70
    32
  0
VERTEX
  8
┌▓È_1
  5
489
 10
965.690
 20
-403.558
 30
0.000000
  70
    32
  0
VERTEX
  8
┌▓È_1
  5
48A
 10
965.702
 20
-403.569
 30
0.000000
  70
    32
  0
VERTEX
  8
┌▓È_1
  5
48B
 10
965.713
 20
-403.580
 30
0.000000
  70
    32
  0
VERTEX
  8
┌▓È_1
  5
48C
 10
965.724
 20
-403.591
 30
0.000000
  70
    32
  0
VERTEX
  8
┌▓È_1
  5
48D
 10
965.735
 20
-403.602
 30
0.000000
  70
    32
  0
VERTEX
  8
┌▓È_1
  5
48E
 10
965.746
 20
-403.613
 30
0.000000
  70
    32
  0
VERTEX
  8
┌▓È_1
  5
48F
 10
965.757
 20
-403.623
 30
0.000000
  70
    32
  0
VERTEX
  8
┌▓È_1
  5
490
 10
965.768
 20
-403.634
 30
0.000000
  70
    32
  0
VERTEX
  8
┌▓È_1
  5
491
 10
965.780
 20
-403.645
 30
0.000000
  70
    32
  0
VERTEX
  8
┌▓È_1
  5
492
 10
965.791
 20
-403.656
 30
0.000000
  70
    32
  0
VERTEX
  8
┌▓È_1
  5
493
 10
965.802
 20
-403.666
 30
0.000000
  70
    32
  0
VERTEX
  8
┌▓È_1
  5
494
 10
965.813
 20
-403.677
 30
0.000000
  70
    32
  0
VERTEX
  8
┌▓È_1
  5
495
 10
965.824
 20
-403.688
 30
0.000000
  70
    32
  0
VERTEX
  8
┌▓È_1
  5
496
 10
965.836
 20
-403.699
 30
0.000000
  70
    32
  0
VERTEX
  8
┌▓È_1
  5
497
 10
965.847
 20
-403.709
 30
0.000000
  70
    32
  0
VERTEX
  8
┌▓È_1
  5
498
 10
965.858
 20
-403.720
 30
0.000000
  70
    32
  0
VERTEX
  8
┌▓È_1
  5
499
 10
965.870
 20
-403.730
 30
0.000000
  70
    32
  0
VERTEX
  8
┌▓È_1
  5
49A
 10
965.881
 20
-403.741
 30
0.000000
  70
    32
  0
VERTEX
  8
┌▓È_1
  5
49B
 10
965.892
 20
-403.752
 30
0.000000
  70
    32
  0
VERTEX
  8
┌▓È_1
  5
49C
 10
965.903
 20
-403.762
 30
0.000000
  70
    32
  0
VERTEX
  8
┌▓È_1
  5
49D
 10
965.915
 20
-403.773
 30
0.000000
  70
    32
  0
VERTEX
  8
┌▓È_1
  5
49E
 10
965.926
 20
-403.783
 30
0.000000
  70
    32
  0
VERTEX
  8
┌▓È_1
  5
49F
 10
965.938
 20
-403.794
 30
0.000000
  70
    32
  0
VERTEX
  8
┌▓È_1
  5
4A0
 10
965.949
 20
-403.804
 30
0.000000
  70
    32
  0
VERTEX
  8
┌▓È_1
  5
4A1
 10
965.960
 20
-403.814
 30
0.000000
  70
    32
  0
VERTEX
  8
┌▓È_1
  5
4A2
 10
965.972
 20
-403.825
 30
0.000000
  70
    32
  0
VERTEX
  8
┌▓È_1
  5
4A3
 10
965.983
 20
-403.835
 30
0.000000
  70
    32
  0
VERTEX
  8
┌▓È_1
  5
4A4
 10
965.995
 20
-403.846
 30
0.000000
  70
    32
  0
SEQEND
  8
┌▓È_1
  5
4A5
  0
LINE
  5
1B6
  8
┌▓È_1
 62
     5
 10
973.52142973989999
 20
-406.5899130105999
 30
0.0
 11
973.52142973989999
 21
-408.98991301059988
 31
0.0
  0
LINE
  5
1B7
  8
┌▓È_1
 10
968.87005731089994
 20
-369.54618975770001
 30
0.0
 11
1000.8700573109001
 21
-369.54618975770001
 31
0.0
  0
LINE
  5
1B8
  8
┌▓È_1
 10
872.87005731090005
 20
-378.04618975770001
 30
0.0
 11
968.87005731089994
 21
-378.04618975770001
 31
0.0
  0
INSERT
  5
1B9
  8
0
  6
CONTINUOUS
  2
*U26
 10
0.0
 20
0.0
 30
0.0
  0
INSERT
  5
1BA
  8
0
  6
CONTINUOUS
  2
*U27
 10
0.0
 20
0.0
 30
0.0
  0
INSERT
  5
1BB
  8
0
  6
CONTINUOUS
  2
*U28
 10
0.0
 20
0.0
 30
0.0
  0
INSERT
  5
1BC
  8
0
  6
CONTINUOUS
  2
*U29
 10
0.0
 20
0.0
 30
0.0
  0
INSERT
  5
1BD
  8
0
  6
CONTINUOUS
  2
*U30
 10
0.0
 20
0.0
 30
0.0
  0
ARC
  5
1BE
  8
┌▓È_1
 62
     5
 10
961.04142973990008
 20
-400.50991301059997
 30
0.0
 40
6.0800000000000001
 50
270.0
 51
298.08590481520002
  0
INSERT
  5
1BF
  8
0
  6
CONTINUOUS
  2
*U31
 10
0.0
 20
0.0
 30
0.0
  0
INSERT
  5
1C0
  8
0
  6
CONTINUOUS
  2
*U32
 10
0.0
 20
0.0
 30
0.0
  0
INSERT
  5
1C1
  8
0
  6
CONTINUOUS
  2
*U33
 10
0.0
 20
0.0
 30
0.0
  0
INSERT
  5
1C2
  8
0
  6
CONTINUOUS
  2
*U34
 10
0.0
 20
0.0
 30
0.0
  0
INSERT
  5
1C3
  8
0
  6
CONTINUOUS
  2
*U35
 10
0.0
 20
0.0
 30
0.0
  0
INSERT
  5
1C4
  8
0
  6
CONTINUOUS
  2
*U36
 10
0.0
 20
0.0
 30
0.0
  0
INSERT
  5
1C5
  8
0
  6
CONTINUOUS
  2
*U37
 10
0.0
 20
0.0
 30
0.0
  0
INSERT
  5
1C6
  8
0
  6
CONTINUOUS
  2
*U38
 10
0.0
 20
0.0
 30
0.0
  0
INSERT
  5
1C7
  8
0
  6
CONTINUOUS
  2
*U39
 10
0.0
 20
0.0
 30
0.0
  0
LINE
  5
1C8
  8
┌▓È_1
 10
940.87005731089994
 20
-386.54618975770001
 30
0.0
 11
964.87005731090005
 21
-386.54618975770001
 31
0.0
  0
LINE
  5
1C9
  8
┌▓È_1
  6
BORDER
 62
     3
 10
648.27656071319996
 20
-178.3467641444
 30
0.0
 11
648.27656071319996
 21
-192.3467641444
 31
0.0
  0
LINE
  5
1CA
  8
┌▓È_1
  6
STITCH
 10
643.27656071319996
 20
-182.8467641444
 30
0.0
 11
645.77656071319996
 21
-185.3467641444
 31
0.0
  0
LINE
  5
1CB
  8
┌▓È_1
  6
STITCH
 10
650.77656071319996
 20
-185.3467641444
 30
0.0
 11
653.27656071319996
 21
-182.8467641444
 31
0.0
  0
LINE
  5
1CC
  8
┌▓È_1
  6
STITCH
 10
650.77656071319996
 20
-185.3467641444
 30
0.0
 11
650.77656071319996
 21
-187.8467641444
 31
0.0
  0
LINE
  5
1CD
  8
┌▓È_1
  6
STITCH
 10
650.77656071319996
 20
-185.3467641444
 30
0.0
 11
645.77656071319996
 21
-185.3467641444
 31
0.0
  0
LINE
  5
1CE
  8
┌▓È_1
  6
STITCH
 10
645.77656071319996
 20
-185.3467641444
 30
0.0
 11
645.77656071319996
 21
-187.8467641444
 31
0.0
  0
LINE
  5
1CF
  8
┌▓È_1
  6
STITCH
 10
788.27656071319996
 20
-182.8467641444
 30
0.0
 11
790.77656071320007
 21
-185.3467641444
 31
0.0
  0
LINE
  5
1D0
  8
┌▓È_1
  6
STITCH
 10
795.77656071319996
 20
-185.3467641444
 30
0.0
 11
798.27656071320007
 21
-182.8467641444
 31
0.0
  0
LINE
  5
1D1
  8
┌▓È_1
  6
STITCH
 10
795.77656071319996
 20
-185.3467641444
 30
0.0
 11
795.77656071319996
 21
-187.8467641444
 31
0.0
  0
LINE
  5
1D2
  8
┌▓È_1
  6
STITCH
 10
795.77656071319996
 20
-185.3467641444
 30
0.0
 11
790.77656071320007
 21
-185.3467641444
 31
0.0
  0
LINE
  5
1D3
  8
┌▓È_1
  6
STITCH
 10
790.77656071320007
 20
-185.3467641444
 30
0.0
 11
790.77656071320007
 21
-187.8467641444
 31
0.0
  0
LINE
  5
1D4
  8
┌▓È_1
  6
BORDER
 62
     3
 10
793.27656071319996
 20
-178.3467641444
 30
0.0
 11
793.27656071319996
 21
-192.3467641444
 31
0.0
  0
LINE
  5
1D5
  8
┌▓È_1
 62
     5
 10
625.77656071319996
 20
-97.346764144400026
 30
0.0
 11
621.27656071319996
 21
-97.346764144400026
 31
0.0
  0
LINE
  5
1D6
  8
┌▓È_1
 62
     5
 10
625.77656071319996
 20
-182.8467641444
 30
0.0
 11
625.77656071319996
 21
-97.346764144400026
 31
0.0
  0
LINE
  5
1D7
  8
┌▓È_1
  6
BORDER
 62
     3
 10
630.27656071319996
 20
-160.3467641444
 30
0.0
 11
616.27656071319996
 21
-160.3467641444
 31
0.0
  0
LINE
  5
1D8
  8
┌▓È_1
  6
STITCH
 10
623.27656071319996
 20
-162.8467641444
 30
0.0
 11
620.77656071319996
 21
-162.8467641444
 31
0.0
  0
LINE
  5
1D9
  8
┌▓È_1
  6
STITCH
 10
623.27656071319996
 20
-157.8467641444
 30
0.0
 11
623.27656071319996
 21
-162.8467641444
 31
0.0
  0
LINE
  5
1DA
  8
┌▓È_1
  6
STITCH
 10
623.27656071319996
 20
-157.8467641444
 30
0.0
 11
620.77656071319996
 21
-157.8467641444
 31
0.0
  0
LINE
  5
1DB
  8
┌▓È_1
  6
STITCH
 10
623.27656071319996
 20
-157.8467641444
 30
0.0
 11
625.77656071319996
 21
-155.3467641444
 31
0.0
  0
LINE
  5
1DC
  8
┌▓È_1
  6
STITCH
 10
625.77656071319996
 20
-165.3467641444
 30
0.0
 11
623.27656071319996
 21
-162.8467641444
 31
0.0
  0
LINE
  5
1DD
  8
┌▓È_1
  6
BORDER
 62
     3
 10
630.27656071319996
 20
-105.3467641444
 30
0.0
 11
616.27656071319996
 21
-105.3467641444
 31
0.0
  0
LINE
  5
1DE
  8
┌▓È_1
  6
STITCH
 10
625.77656071319996
 20
-110.3467641444
 30
0.0
 11
623.27656071319996
 21
-107.8467641444
 31
0.0
  0
LINE
  5
1DF
  8
┌▓È_1
  6
STITCH
 10
623.27656071319996
 20
-102.8467641444
 30
0.0
 11
625.77656071319996
 21
-100.3467641444
 31
0.0
  0
LINE
  5
1E0
  8
┌▓È_1
  6
STITCH
 10
623.27656071319996
 20
-102.8467641444
 30
0.0
 11
620.77656071319996
 21
-102.8467641444
 31
0.0
  0
LINE
  5
1E1
  8
┌▓È_1
  6
STITCH
 10
623.27656071319996
 20
-102.8467641444
 30
0.0
 11
623.27656071319996
 21
-107.8467641444
 31
0.0
  0
LINE
  5
1E2
  8
┌▓È_1
 62
     5
 10
890.12421696319996
 20
-187.3467641444
 30
0.0
 11
890.12421696319996
 21
-97.346764144400026
 31
0.0
  0
LINE
  5
1E3
  8
┌▓È_1
 62
     5
 10
890.12421696319996
 20
-97.346764144400026
 30
0.0
 11
874.12421696319996
 21
-97.346764144400026
 31
0.0
  0
LINE
  5
1E4
  8
┌▓È_1
 62
     5
 10
874.12421696319996
 20
-97.346764144400026
 30
0.0
 11
874.12421696319996
 21
-187.3467641444
 31
0.0
  0
LINE
  5
1E5
  8
┌▓È_1
 62
     5
 10
874.12421696319996
 20
-182.3467641444
 30
0.0
 11
890.12421696319996
 21
-182.3467641444
 31
0.0
  0
LINE
  5
1E6
  8
┌▓È_1
 62
     5
 10
874.12421696319996
 20
-187.3467641444
 30
0.0
 11
890.12421696319996
 21
-187.3467641444
 31
0.0
  0
CIRCLE
  5
1E7
  8
┌▓È_1
 62
     5
 10
882.12421696319996
 20
-105.3467641444
 30
0.0
 40
5.0
  0
CIRCLE
  5
1E8
  8
┌▓È_1
 62
     5
 10
882.12421696319996
 20
-105.3467641444
 30
0.0
 40
2.5
  0
LINE
  5
1E9
  8
┌▓È_1
  6
BORDER
 62
     3
 10
882.12421696319996
 20
-98.346764144400026
 30
0.0
 11
882.12421696319996
 21
-112.3467641444
 31
0.0
  0
LINE
  5
1EA
  8
┌▓È_1
  6
BORDER
 62
     3
 10
875.12421696319996
 20
-105.3467641444
 30
0.0
 11
889.12421696319996
 21
-105.3467641444
 31
0.0
  0
LINE
  5
1EB
  8
┌▓È_1
  6
BORDER
 62
     3
 10
882.12421696319996
 20
-153.3467641444
 30
0.0
 11
882.12421696319996
 21
-167.3467641444
 31
0.0
  0
CIRCLE
  5
1EC
  8
┌▓È_1
 62
     5
 10
882.12421696319996
 20
-160.3467641444
 30
0.0
 40
2.5
  0
CIRCLE
  5
1ED
  8
┌▓È_1
 62
     5
 10
882.12421696319996
 20
-160.3467641444
 30
0.0
 40
5.0
  0
LINE
  5
1EE
  8
┌▓È_1
  6
BORDER
 62
     3
 10
875.12421696319996
 20
-160.3467641444
 30
0.0
 11
889.12421696319996
 21
-160.3467641444
 31
0.0
  0
LINE
  5
1EF
  8
┌▓È_1
 62
     5
 10
1021.5162806206
 20
-218.51858249599999
 30
0.0
 11
1021.5162806206
 21
-232.26858249599999
 31
0.0
  0
LINE
  5
1F0
  8
┌▓È_1
 62
     5
 10
996.51628062060001
 20
-218.51858249599999
 30
0.0
 11
996.51628062060001
 21
-232.26858249599999
 31
0.0
  0
LINE
  5
1F1
  8
┌▓È_1
 62
     5
 10
1021.5162806206
 20
-218.51858249599999
 30
0.0
 11
1030.2662806205999
 21
-209.76858249599999
 31
0.0
  0
LINE
  5
1F2
  8
┌▓È_1
  6
BORDER
 62
     3
 10
1009.0162806206
 20
-203.25186114190001
 30
0.0
 11
1009.0162806206
 21
-236.75186114190001
 31
0.0
  0
LINE
  5
1F3
  8
┌▓È_1
 62
     5
 10
996.51628062060001
 20
-218.51858249599999
 30
0.0
 11
1021.5162806206
 21
-218.51858249599999
 31
0.0
  0
LINE
  5
1F4
  8
┌▓È_1
 62
     5
 10
987.76628062060001
 20
-209.76858249599999
 30
0.0
 11
996.51628062060001
 21
-218.51858249599999
 31
0.0
  0
LINE
  5
1F5
  8
┌▓È_1
 62
     5
 10
973.08615099089991
 20
-209.76858249599999
 30
0.0
 11
1046.084762102
 21
-209.76858249599999
 31
0.0
  0
LINE
  5
1F6
  8
┌▓È_1
 62
     5
 10
973.08615099089991
 20
-232.26858249599999
 30
0.0
 11
1046.084762102
 21
-232.26858249599999
 31
0.0
  0
LINE
  5
1F7
  8
┌▓È_1
  6
STITCH
 10
623.27656071319996
 20
-107.8467641444
 30
0.0
 11
620.77656071319996
 21
-107.8467641444
 31
0.0
  0
ARC
  5
1F8
  8
┌▓È_1
 62
     5
 10
625.77656071319996
 20
-182.8467641444
 30
0.0
 40
4.5
 50
180.0
 51
270.0
  0
LINE
  5
1F9
  8
┌▓È_1
 62
     5
 10
625.77656071319996
 20
-187.3467641444
 30
0.0
 11
801.27656071320007
 21
-187.3467641444
 31
0.0
  0
LINE
  5
1FA
  8
┌▓È_1
 62
     5
 10
621.27656071319996
 20
-182.8467641444
 30
0.0
 11
621.27656071319996
 21
-97.346764144400026
 31
0.0
  0
ENDSEC
  0
EOF
