  0
SECTION
  2
HEADER
  9
$ACADVER
  1
AC1009
  9
$INSBASE
 10
0.0
 20
0.0
 30
0.0
  9
$EXTMIN
 10
562.2991372992999
 20
-410.32522903889992
 30
0.0
  9
$EXTMAX
 10
1112.2991372992999
 20
-30.325229038900002
 30
0.0
  9
$LIMMIN
 10
0.0
 20
0.0
  9
$LIMMAX
 10
0.0
 20
0.0
  9
$ORTHOMODE
 70
     0
  9
$REGENMODE
 70
     1
  9
$FILLMODE
 70
     1
  9
$QTEXTMODE
 70
     0
  9
$MIRRTEXT
 70
     1
  9
$DRAGMODE
 70
     2
  9
$LTSCALE
 40
1.0
  9
$OSMODE
 70
    31
  9
$ATTMODE
 70
     1
  9
$TEXTSIZE
 40
0.0
  9
$TRACEWID
 40
0.05
  9
$TEXTSTYLE
  7
STANDARD
  9
$CLAYER
  8
0
  9
$CELTYPE
  6
CONTINUOUS
  9
$CECOLOR
 62
   256
  9
$DIMSCALE
 40
1.0
  9
$DIMASZ
 40
0.18
  9
$DIMEXO
 40
0.0625
  9
$DIMDLI
 40
0.38
  9
$DIMRND
 40
0.0
  9
$DIMDLE
 40
0.0
  9
$DIMEXE
 40
0.18
  9
$DIMTP
 40
0.0
  9
$DIMTM
 40
0.0
  9
$DIMTXT
 40
0.18
  9
$DIMCEN
 40
0.09
  9
$DIMTSZ
 40
0.0
  9
$DIMTOL
 70
     0
  9
$DIMLIM
 70
     0
  9
$DIMTIH
 70
     1
  9
$DIMTOH
 70
     1
  9
$DIMSE1
 70
     0
  9
$DIMSE2
 70
     0
  9
$DIMTAD
 70
     0
  9
$DIMZIN
 70
     0
  9
$DIMBLK
  1

  9
$DIMASO
 70
     1
  9
$DIMSHO
 70
     1
  9
$DIMPOST
  1

  9
$DIMAPOST
  1

  9
$DIMALT
 70
     0
  9
$DIMALTD
 70
     2
  9
$DIMALTF
 40
25.399999999999999
  9
$DIMLFAC
 40
1.0
  9
$DIMTOFL
 70
     0
  9
$DIMTVP
 40
0.0
  9
$DIMTIX
 70
     0
  9
$DIMSOXD
 70
     0
  9
$DIMSAH
 70
     0
  9
$DIMBLK1
  1

  9
$DIMBLK2
  1

  9
$DIMSTYLE
  2
STANDARD
  9
$DIMCLRD
 70
     0
  9
$DIMCLRE
 70
     0
  9
$DIMCLRT
 70
     0
  9
$DIMTFAC
 40
1.0
  9
$DIMGAP
 40
0.09
  9
$LUNITS
 70
     2
  9
$LUPREC
 70
     4
  9
$SKETCHINC
 40
0.1
  9
$FILLETRAD
 40
0.0
  9
$AUNITS
 70
     0
  9
$AUPREC
 70
     0
  9
$MENU
  1
acad
  9
$ELEVATION
 40
0.0
  9
$PELEVATION
 40
0.0
  9
$THICKNESS
 40
0.0
  9
$LIMCHECK
 70
     0
  9
$BLIPMODE
 70
     0
  9
$CHAMFERA
 40
0.0
  9
$CHAMFERB
 40
0.0
  9
$SKPOLY
 70
     0
  9
$TDCREATE
 40
2454862.772985741
  9
$TDUPDATE
 40
2454862.7736821761
  9
$TDINDWG
 40
0.0007047569
  9
$TDUSRTIMER
 40
0.0007043866
  9
$USRTIMER
 70
     1
  9
$ANGBASE
 50
0.0
  9
$ANGDIR
 70
     0
  9
$PDMODE
 70
     3
  9
$PDSIZE
 40
-1.0
  9
$PLINEWID
 40
0.0
  9
$COORDS
 70
     2
  9
$SPLFRAME
 70
     0
  9
$SPLINETYPE
 70
     6
  9
$SPLINESEGS
 70
     8
  9
$ATTDIA
 70
     0
  9
$ATTREQ
 70
     1
  9
$HANDLING
 70
     1
  9
$HANDSEED
  5
4A6
  9
$SURFTAB1
 70
     6
  9
$SURFTAB2
 70
     6
  9
$SURFTYPE
 70
     6
  9
$SURFU
 70
     6
  9
$SURFV
 70
     6
  9
$UCSNAME
  2

  9
$UCSORG
 10
0.0
 20
0.0
 30
0.0
  9
$UCSXDIR
 10
1.0
 20
0.0
 30
0.0
  9
$UCSYDIR
 10
0.0
 20
1.0
 30
0.0
  9
$PUCSNAME
  2

  9
$PUCSORG
 10
0.0
 20
0.0
 30
0.0
  9
$PUCSXDIR
 10
1.0
 20
0.0
 30
0.0
  9
$PUCSYDIR
 10
0.0
 20
1.0
 30
0.0
  9
$USERI1
 70
     0
  9
$USERI2
 70
     0
  9
$USERI3
 70
     0
  9
$USERI4
 70
     0
  9
$USERI5
 70
     0
  9
$USERR1
 40
0.0
  9
$USERR2
 40
0.0
  9
$USERR3
 40
0.0
  9
$USERR4
 40
0.0
  9
$USERR5
 40
0.0
  9
$WORLDVIEW
 70
     1
  9
$SHADEDGE
 70
     3
  9
$SHADEDIF
 70
    70
  9
$TILEMODE
 70
     1
  9
$MAXACTVP
 70
    16
  9
$PLIMCHECK
 70
     0
  9
$PEXTMIN
 10
1.0000000000000000E+020
 20
1.0000000000000000E+020
 30
1.0000000000000000E+020
  9
$PEXTMAX
 10
-1.0000000000000000E+020
 20
-1.0000000000000000E+020
 30
-1.0000000000000000E+020
  9
$PLIMMIN
 10
0.0
 20
0.0
  9
$PLIMMAX
 10
12.0
 20
9.0
  9
$UNITMODE
 70
     0
  9
$VISRETAIN
 70
     0
  9
$PLINEGEN
 70
     1
  9
$PSLTSCALE
 70
     0
  0
ENDSEC
  0
SECTION
  2
TABLES
  0
TABLE
  2
VPORT
 70
     2
  0
VPORT
  2
*ACTIVE
 70
     0
 10
0.0
 20
0.0
 11
1.0
 21
1.0
 12
837.2991372992999
 22
-220.32522903890001
 13
0.0
 23
0.0
 14
1.0
 24
1.0
 15
0.0
 25
0.0
 16
0.0
 26
0.0
 36
1.0
 17
0.0
 27
0.0
 37
0.0
 40
397.98585584749168
 41
1.3903818953323901
 42
50.0
 43
0.0
 44
0.0
 50
0.0
 51
0.0
 71
     0
 72
   100
 73
     1
 74
     1
 75
     0
 76
     0
 77
     0
 78
     0
  0
ENDTAB
  0
TABLE
  2
LTYPE
 70
    11
  0
LTYPE
  2
CONTINUOUS
 70
     0
  3
Solid line
 72
    65
 73
     0
 40
0.0
  0
LTYPE
  2
DOT
 70
     0
  3
. . . . . . . . 
 72
    65
 73
     2
 40
1.0
 49
0.0
 49
-1.0
  0
LTYPE
  2
DASHED
 70
     0
  3
___  ___  ___  ___  
 72
    65
 73
     2
 40
4.0
 49
3.0
 49
-1.0
  0
LTYPE
  2
HIDDEN
 70
     0
  3
__ __ __ __ 
 72
    65
 73
     2
 40
3.0
 49
2.0
 49
-1.0
  0
LTYPE
  2
STITCH
 70
     0
  3
_ _ _ _ 
 72
    65
 73
     2
 40
2.0
 49
1.0
 49
-1.0
  0
LTYPE
  2
CENTER
 70
     0
  3
______  __  ______  __  
 72
    65
 73
     4
 40
43.0
 49
40.0
 49
-1.0
 49
1.0
 49
-1.0
  0
LTYPE
  2
DASHDOT
 70
     0
  3
____ . ____ . 
 72
    65
 73
     4
 40
32.0
 49
30.0
 49
-1.0
 49
0.0
 49
-1.0
  0
LTYPE
  2
BORDER
 70
     0
  3
__ . __ . 
 72
    65
 73
     4
 40
22.0
 49
20.0
 49
-1.0
 49
0.0
 49
-1.0
  0
LTYPE
  2
CUTTING
 70
     0
  3
________   ___   ___   
 72
    65
 73
     6
 40
45.0
 49
40.0
 49
-1.0
 49
1.0
 49
-1.0
 49
1.0
 49
-1.0
  0
LTYPE
  2
PHANTOM
 70
     0
  3
______  __  __  
 72
    65
 73
     6
 40
35.0
 49
30.0
 49
-1.0
 49
1.0
 49
-1.0
 49
1.0
 49
-1.0
  0
LTYPE
  2
DIVIDE
 70
     0
  3
____ . . ____ . . 
 72
    65
 73
     6
 40
23.0
 49
20.0
 49
-1.0
 49
0.0
 49
-1.0
 49
0.0
 49
-1.0
  0
ENDTAB
  0
TABLE
  2
LAYER
 70
     4
  0
LAYER
  2
0
 70
     0
 62
     7
  6
CONTINUOUS
  0
LAYER
  2
Éíû@É³
 70
     0
 62
     7
  6
CONTINUOUS
  0
LAYER
  2
┌▓È_1
 70
     0
 62
     7
  6
CONTINUOUS
  0
LAYER
  2
Defpoints
 70
     0
 62
     7
  6
CONTINUOUS
  0
ENDTAB
  0
TABLE
  2
STYLE
 70
     1
  0
STYLE
  2
STANDARD
 70
     0
 40
0.0
 41
1.0
 50
0.0
 71
     0
 42
0.0
  3
txt
  4
extfont
  0
ENDTAB
  0
TABLE
  2
VIEW
 70
     0
  0
ENDTAB
  0
TABLE
  2
UCS
 70
     0
  0
ENDTAB
  0
TABLE
  2
APPID
 70
     2
  0
APPID
  2
ACAD
 70
     0
  0
APPID
  2
DCO15
 70
     0
  0
ENDTAB
  0
TABLE
  2
DIMSTYLE
 70
     4
  0
DIMSTYLE
  2
STANDARD
 70
     0
  3

  4

  5

  6

  7

 40
1.0
 41
0.18
 42
0.0625
 43
0.38
 44
0.18
 45
0.0
 46
0.0
 47
0.0
 48
0.0
140
0.18
141
0.09
142
0.0
143
25.399999999999999
144
1.0
145
0.0
146
1.0
147
0.09
 71
     0
 72
     0
 73
     1
 74
     1
 75
     0
 76
     0
 77
     0
 78
     0
170
     0
171
     2
172
     0
173
     0
174
     0
175
     0
176
     0
177
     0
178
     0
  0
DIMSTYLE
  2
VELDIM0
 70
     0
  3

  4

  5

  6

  7

 40
1.0
 41
6.0
 42
0.0625
 43
0.38
 44
0.5
 45
0.0
 46
3.0
 47
0.0
 48
0.0
140
5.9972220420999998
141
0.09
142
0.0
143
25.399999999999999
144
1.0
145
0.0
146
1.0
147
0.09
 71
     0
 72
     0
 73
     0
 74
     0
 75
     0
 76
     0
 77
     0
 78
     8
170
     0
171
     2
172
     0
173
     0
174
     0
175
     0
176
     0
177
     0
178
     0
  0
DIMSTYLE
  2
VELDIM1
 70
     0
  3

  4

  5

  6

  7

 40
1.0
 41
6.0
 42
0.0625
 43
0.38
 44
1.25
 45
0.0
 46
5.0
 47
0.0
 48
0.0
140
5.9972220420999998
141
0.09
142
0.0
143
25.399999999999999
144
1.0
145
0.0
146
1.0
147
0.09
 71
     0
 72
     0
 73
     0
 74
     0
 75
     0
 76
     0
 77
     0
 78
     8
170
     0
171
     2
172
     0
173
     0
174
     0
175
     0
176
     0
177
     0
178
     0
  0
DIMSTYLE
  2
VELDIM2
 70
     0
  3

  4

  5

  6

  7

 40
1.0
 41
6.0
 42
0.0625
 43
0.38
 44
1.0
 45
0.0
 46
6.0
 47
0.0
 48
0.0
140
5.9972220420999998
141
0.09
142
0.0
143
25.399999999999999
144
1.0
145
0.0
146
1.0
147
0.09
 71
     0
 72
     0
 73
     0
 74
     0
 75
     0
 76
     0
 77
     0
 78
     8
170
     0
171
     2
172
     0
173
     0
174
     0
175
     0
176
     0
177
     0
178
     0
  0
ENDTAB
  0
ENDSEC
  0
SECTION
  2
BLOCKS
  0
BLOCK
  8
0
  2
$MODEL_SPACE
 70
     0
 10
0.0
 20
0.0
 30
0.0
  3
$MODEL_SPACE
  1

  0
ENDBLK
  5
E
  8
0
  0
BLOCK
 67
     1
  8
0
  2
$PAPER_SPACE
 70
     0
 10
0.0
 20
0.0
 30
0.0
  3
$PAPER_SPACE
  1

  0
ENDBLK
  5
10
 67
     1
  8
0
  0
BLOCK
  8
0
  2
*D0
 70
     1
 10
0.0
 20
0.0
 30
0.0
  3
*D0
  1

  0
TEXT
  5
31
  8
0
 62
     0
 10
792.05594247380009
 20
-269.81526813319999
 30
0.0
 40
5.9972220420999998
  1
8
  0
LINE
  5
32
  8
0
 62
     0
 10
797.81983130979995
 20
-290.87360143469999
 30
0.0
 11
797.81983130979995
 21
-271.37360143469999
 31
0.0
  0
LINE
  5
33
  8
0
 62
     0
 10
789.81983130979995
 20
-291.87360143469999
 30
0.0
 11
789.81983130979995
 21
-271.37360143469999
 31
0.0
  0
LINE
  5
34
  8
0
 62
     0
 10
797.81983130979995
 20
-271.87360143469999
 30
0.0
 11
797.81983130979995
 21
-271.87360143469999
 31
0.0
  0
LINE
  5
35
  8
0
 62
     0
 10
797.81983130979995
 20
-271.87360143469999
 30
0.0
 11
789.81983130979995
 21
-271.87360143469999
 31
0.0
  0
LINE
  5
36
  8
0
 62
     0
 10
789.81983130979995
 20
-271.87360143469999
 30
0.0
 11
797.81983130979995
 21
-271.87360143469999
 31
0.0
  0
LINE
  5
37
  8
0
 62
     0
 10
789.81983130979995
 20
-271.87360143469999
 30
0.0
 11
789.81983130979995
 21
-271.87360143469999
 31
0.0
  0
LINE
  5
38
  8
0
 62
     0
 10
789.81983130979995
 20
-271.87360143469999
 30
0.0
 11
786.81983130979995
 21
-271.87360143469999
 31
0.0
  0
SOLID
  5
39
  8
0
 62
     0
 10
789.81983130979995
 20
-271.87360143469999
 30
0.0
 11
783.81983130979995
 21
-273.37360143469999
 31
0.0
 12
783.81983130979995
 22
-270.37360143469999
 32
0.0
 13
785.31983130979995
 23
-271.87360143469999
 33
0.0
  0
LINE
  5
3A
  8
0
 62
     0
 10
797.81983130979995
 20
-271.87360143469999
 30
0.0
 11
800.81983130979995
 21
-271.87360143469999
 31
0.0
  0
SOLID
  5
3B
  8
0
 62
     0
 10
797.81983130979995
 20
-271.87360143469999
 30
0.0
 11
803.81983130979995
 21
-270.37360143469999
 31
0.0
 12
803.81983130979995
 22
-273.37360143469999
 32
0.0
 13
802.31983130979995
 23
-271.87360143469999
 33
0.0
  0
ENDBLK
  5
3C
  8
0
  0
BLOCK
  8
0
  2
*D1
 70
     1
 10
0.0
 20
0.0
 30
0.0
  3
*D1
  1

  0
TEXT
  5
41
  8
0
 62
     0
 10
727.02816480199999
 20
-269.81526813319999
 30
0.0
 40
5.9972220420999998
  1
115
  0
LINE
  5
42
  8
0
 62
     0
 10
789.81983130979995
 20
-291.87360143469999
 30
0.0
 11
789.81983130979995
 21
-271.37360143469999
 31
0.0
  0
LINE
  5
43
  8
0
 62
     0
 10
674.81983130980007
 20
-291.87360143469999
 30
0.0
 11
674.81983130980007
 21
-271.37360143469999
 31
0.0
  0
LINE
  5
44
  8
0
 62
     0
 10
789.81983130979995
 20
-271.87360143469999
 30
0.0
 11
741.13927548929985
 21
-271.87360143469999
 31
0.0
  0
LINE
  5
45
  8
0
 62
     0
 10
789.81983130979995
 20
-271.87360143469999
 30
0.0
 11
723.50038713020001
 21
-271.87360143469999
 31
0.0
  0
LINE
  5
46
  8
0
 62
     0
 10
674.81983130980007
 20
-271.87360143469999
 30
0.0
 11
741.13927548929985
 21
-271.87360143469999
 31
0.0
  0
LINE
  5
47
  8
0
 62
     0
 10
674.81983130980007
 20
-271.87360143469999
 30
0.0
 11
723.50038713020001
 21
-271.87360143469999
 31
0.0
  0
LINE
  5
48
  8
0
 62
     0
 10
674.81983130980007
 20
-271.87360143469999
 30
0.0
 11
677.81983130979995
 21
-271.87360143469999
 31
0.0
  0
SOLID
  5
49
  8
0
 62
     0
 10
674.81983130980007
 20
-271.87360143469999
 30
0.0
 11
680.81983130979995
 21
-270.37360143469999
 31
0.0
 12
680.81983130979995
 22
-273.37360143469999
 32
0.0
 13
679.31983130980007
 23
-271.87360143469999
 33
0.0
  0
LINE
  5
4A
  8
0
 62
     0
 10
789.81983130979995
 20
-271.87360143469999
 30
0.0
 11
786.81983130979995
 21
-271.87360143469999
 31
0.0
  0
SOLID
  5
4B
  8
0
 62
     0
 10
789.81983130979995
 20
-271.87360143469999
 30
0.0
 11
783.81983130979995
 21
-273.37360143469999
 31
0.0
 12
783.81983130979995
 22
-270.37360143469999
 32
0.0
 13
785.31983130979995
 23
-271.87360143469999
 33
0.0
  0
ENDBLK
  5
4C
  8
0
  0
BLOCK
  8
0
  2
*D2
 70
     1
 10
0.0
 20
0.0
 30
0.0
  3
*D2
  1

  0
TEXT
  5
50
  8
0
 62
     0
 10
625.76149800819985
 20
-151.77136608570001
 30
0.0
 40
5.9972220420999998
  1
75
 50
90.0
  0
LINE
  5
51
  8
0
 62
     0
 10
646.81983130979995
 20
-110.7435884139
 30
0.0
 11
627.31983130979995
 21
-110.7435884139
 31
0.0
  0
LINE
  5
52
  8
0
 62
     0
 10
651.81983130979995
 20
-185.7435884139
 30
0.0
 11
627.31983130979995
 21
-185.7435884139
 31
0.0
  0
LINE
  5
53
  8
0
 62
     0
 10
627.81983130979995
 20
-110.7435884139
 30
0.0
 11
627.81983130979995
 21
-141.18803307030001
 31
0.0
  0
LINE
  5
54
  8
0
 62
     0
 10
627.81983130979995
 20
-110.7435884139
 30
0.0
 11
627.81983130979995
 21
-155.29914375749999
 31
0.0
  0
LINE
  5
55
  8
0
 62
     0
 10
627.81983130979995
 20
-185.7435884139
 30
0.0
 11
627.81983130979995
 21
-141.18803307030001
 31
0.0
  0
LINE
  5
56
  8
0
 62
     0
 10
627.81983130979995
 20
-185.7435884139
 30
0.0
 11
627.81983130979995
 21
-155.29914375749999
 31
0.0
  0
LINE
  5
57
  8
0
 62
     0
 10
627.81983130979995
 20
-185.7435884139
 30
0.0
 11
627.81983130979995
 21
-182.7435884139
 31
0.0
  0
SOLID
  5
58
  8
0
 62
     0
 10
627.81983130979995
 20
-185.7435884139
 30
0.0
 11
626.31983130979995
 21
-179.7435884139
 31
0.0
 12
629.31983130980007
 22
-179.7435884139
 32
0.0
 13
627.81983130979995
 23
-181.2435884139
 33
0.0
  0
LINE
  5
59
  8
0
 62
     0
 10
627.81983130979995
 20
-110.7435884139
 30
0.0
 11
627.81983130979995
 21
-113.7435884139
 31
0.0
  0
SOLID
  5
5A
  8
0
 62
     0
 10
627.81983130979995
 20
-110.7435884139
 30
0.0
 11
629.31983130980007
 21
-116.7435884139
 31
0.0
 12
626.31983130979995
 22
-116.7435884139
 32
0.0
 13
627.81983130979995
 23
-115.2435884139
 33
0.0
  0
ENDBLK
  5
5B
  8
0
  0
BLOCK
  8
0
  2
*D3
 70
     1
 10
0.0
 20
0.0
 30
0.0
  3
*D3
  1

  0
TEXT
  5
5F
  8
0
 62
     0
 10
717.52816480199999
 20
-203.6852551124
 30
0.0
 40
5.9972220420999998
  1
150
  0
LINE
  5
60
  8
0
 62
     0
 10
647.81983130979995
 20
-181.7435884139
 30
0.0
 11
647.81983130979995
 21
-206.2435884139
 31
0.0
  0
LINE
  5
61
  8
0
 62
     0
 10
797.81983130979995
 20
-186.7435884139
 30
0.0
 11
797.81983130979995
 21
-206.2435884139
 31
0.0
  0
LINE
  5
62
  8
0
 62
     0
 10
647.81983130979995
 20
-205.7435884139
 30
0.0
 11
731.63927548929996
 21
-205.7435884139
 31
0.0
  0
LINE
  5
63
  8
0
 62
     0
 10
647.81983130979995
 20
-205.7435884139
 30
0.0
 11
714.00038713020001
 21
-205.7435884139
 31
0.0
  0
LINE
  5
64
  8
0
 62
     0
 10
797.81983130979995
 20
-205.7435884139
 30
0.0
 11
731.63927548929996
 21
-205.7435884139
 31
0.0
  0
LINE
  5
65
  8
0
 62
     0
 10
797.81983130979995
 20
-205.7435884139
 30
0.0
 11
714.00038713020001
 21
-205.7435884139
 31
0.0
  0
LINE
  5
66
  8
0
 62
     0
 10
797.81983130979995
 20
-205.7435884139
 30
0.0
 11
794.81983130979995
 21
-205.7435884139
 31
0.0
  0
SOLID
  5
67
  8
0
 62
     0
 10
797.81983130979995
 20
-205.7435884139
 30
0.0
 11
791.81983130979995
 21
-207.2435884139
 31
0.0
 12
791.81983130979995
 22
-204.2435884139
 32
0.0
 13
793.31983130979995
 23
-205.7435884139
 33
0.0
  0
LINE
  5
68
  8
0
 62
     0
 10
647.81983130979995
 20
-205.7435884139
 30
0.0
 11
650.81983130980007
 21
-205.7435884139
 31
0.0
  0
SOLID
  5
69
  8
0
 62
     0
 10
647.81983130979995
 20
-205.7435884139
 30
0.0
 11
653.81983130979995
 21
-204.2435884139
 31
0.0
 12
653.81983130979995
 22
-207.2435884139
 32
0.0
 13
652.31983130979995
 23
-205.7435884139
 33
0.0
  0
ENDBLK
  5
6A
  8
0
  0
BLOCK
  8
0
  2
*D4
 70
     1
 10
0.0
 20
0.0
 30
0.0
  3
*D4
  1

  0
TEXT
  5
6E
  8
0
 62
     0
 10
859.34637040399991
 20
-171.27136608570001
 30
0.0
 40
5.9972220420999998
  1
27
 50
90.0
  0
LINE
  5
6F
  8
0
 62
     0
 10
881.4047037055999
 20
-154.2435884139
 30
0.0
 11
860.9047037055999
 21
-154.2435884139
 31
0.0
  0
LINE
  5
70
  8
0
 62
     0
 10
880.4047037055999
 20
-181.2435884139
 30
0.0
 11
860.9047037055999
 21
-181.2435884139
 31
0.0
  0
LINE
  5
71
  8
0
 62
     0
 10
861.40470370560001
 20
-154.2435884139
 30
0.0
 11
861.40470370560001
 21
-160.68803307030001
 31
0.0
  0
LINE
  5
72
  8
0
 62
     0
 10
861.40470370560001
 20
-154.2435884139
 30
0.0
 11
861.40470370560001
 21
-174.79914375749999
 31
0.0
  0
LINE
  5
73
  8
0
 62
     0
 10
861.40470370560001
 20
-181.2435884139
 30
0.0
 11
861.40470370560001
 21
-160.68803307030001
 31
0.0
  0
LINE
  5
74
  8
0
 62
     0
 10
861.40470370560001
 20
-181.2435884139
 30
0.0
 11
861.40470370560001
 21
-174.79914375749999
 31
0.0
  0
LINE
  5
75
  8
0
 62
     0
 10
861.40470370560001
 20
-181.2435884139
 30
0.0
 11
861.40470370560001
 21
-178.2435884139
 31
0.0
  0
SOLID
  5
76
  8
0
 62
     0
 10
861.40470370560001
 20
-181.2435884139
 30
0.0
 11
859.9047037055999
 21
-175.2435884139
 31
0.0
 12
862.90470370560001
 22
-175.2435884139
 32
0.0
 13
861.40470370560001
 23
-176.7435884139
 33
0.0
  0
LINE
  5
77
  8
0
 62
     0
 10
861.40470370560001
 20
-154.2435884139
 30
0.0
 11
861.40470370560001
 21
-157.2435884139
 31
0.0
  0
SOLID
  5
78
  8
0
 62
     0
 10
861.40470370560001
 20
-154.2435884139
 30
0.0
 11
862.90470370560001
 21
-160.2435884139
 31
0.0
 12
859.9047037055999
 22
-160.2435884139
 32
0.0
 13
861.40470370560001
 23
-158.7435884139
 33
0.0
  0
ENDBLK
  5
79
  8
0
  0
BLOCK
  8
0
  2
*D5
 70
     1
 10
0.0
 20
0.0
 30
0.0
  3
*D5
  1

  0
TEXT
  5
7D
  8
0
 62
     0
 10
859.34637040399991
 20
-112.0074772498
 30
0.0
 40
5.9972220420999998
  1
8
 50
90.0
  0
LINE
  5
7E
  8
0
 62
     0
 10
880.4047037055999
 20
-106.2435884139
 30
0.0
 11
860.9047037055999
 21
-106.2435884139
 31
0.0
  0
LINE
  5
7F
  8
0
 62
     0
 10
881.4047037055999
 20
-114.2435884139
 30
0.0
 11
860.9047037055999
 21
-114.2435884139
 31
0.0
  0
LINE
  5
80
  8
0
 62
     0
 10
861.40470370560001
 20
-106.2435884139
 30
0.0
 11
861.40470370560001
 21
-106.2435884139
 31
0.0
  0
LINE
  5
81
  8
0
 62
     0
 10
861.40470370560001
 20
-106.2435884139
 30
0.0
 11
861.40470370560001
 21
-114.2435884139
 31
0.0
  0
LINE
  5
82
  8
0
 62
     0
 10
861.40470370560001
 20
-114.2435884139
 30
0.0
 11
861.40470370560001
 21
-106.2435884139
 31
0.0
  0
LINE
  5
83
  8
0
 62
     0
 10
861.40470370560001
 20
-114.2435884139
 30
0.0
 11
861.40470370560001
 21
-114.2435884139
 31
0.0
  0
LINE
  5
84
  8
0
 62
     0
 10
861.40470370560001
 20
-114.2435884139
 30
0.0
 11
861.40470370560001
 21
-117.2435884139
 31
0.0
  0
SOLID
  5
85
  8
0
 62
     0
 10
861.40470370560001
 20
-114.2435884139
 30
0.0
 11
862.90470370560001
 21
-120.2435884139
 31
0.0
 12
859.9047037055999
 22
-120.2435884139
 32
0.0
 13
861.40470370560001
 23
-118.7435884139
 33
0.0
  0
LINE
  5
86
  8
0
 62
     0
 10
861.40470370560001
 20
-106.2435884139
 30
0.0
 11
861.40470370560001
 21
-103.2435884139
 31
0.0
  0
SOLID
  5
87
  8
0
 62
     0
 10
861.40470370560001
 20
-106.2435884139
 30
0.0
 11
859.9047037055999
 21
-100.2435884139
 31
0.0
 12
862.90470370560001
 22
-100.2435884139
 32
0.0
 13
861.40470370560001
 23
-101.7435884139
 33
0.0
  0
ENDBLK
  5
88
  8
0
  0
BLOCK
  8
0
  2
*D6
 70
     1
 10
0.0
 20
0.0
 30
0.0
  3
*D6
  1

  0
TEXT
  5
8C
  8
0
 62
     0
 10
859.34637040399991
 20
-137.77136608570001
 30
0.0
 40
5.9972220420999998
  1
40
 50
90.0
  0
LINE
  5
8D
  8
0
 62
     0
 10
881.4047037055999
 20
-114.2435884139
 30
0.0
 11
860.9047037055999
 21
-114.2435884139
 31
0.0
  0
LINE
  5
8E
  8
0
 62
     0
 10
881.4047037055999
 20
-154.2435884139
 30
0.0
 11
860.9047037055999
 21
-154.2435884139
 31
0.0
  0
LINE
  5
8F
  8
0
 62
     0
 10
861.40470370560001
 20
-114.2435884139
 30
0.0
 11
861.40470370560001
 21
-127.18803307029999
 31
0.0
  0
LINE
  5
90
  8
0
 62
     0
 10
861.40470370560001
 20
-114.2435884139
 30
0.0
 11
861.40470370560001
 21
-141.29914375749999
 31
0.0
  0
LINE
  5
91
  8
0
 62
     0
 10
861.40470370560001
 20
-154.2435884139
 30
0.0
 11
861.40470370560001
 21
-127.18803307029999
 31
0.0
  0
LINE
  5
92
  8
0
 62
     0
 10
861.40470370560001
 20
-154.2435884139
 30
0.0
 11
861.40470370560001
 21
-141.29914375749999
 31
0.0
  0
LINE
  5
93
  8
0
 62
     0
 10
861.40470370560001
 20
-154.2435884139
 30
0.0
 11
861.40470370560001
 21
-151.2435884139
 31
0.0
  0
SOLID
  5
94
  8
0
 62
     0
 10
861.40470370560001
 20
-154.2435884139
 30
0.0
 11
859.9047037055999
 21
-148.2435884139
 31
0.0
 12
862.90470370560001
 22
-148.2435884139
 32
0.0
 13
861.40470370560001
 23
-149.7435884139
 33
0.0
  0
LINE
  5
95
  8
0
 62
     0
 10
861.40470370560001
 20
-114.2435884139
 30
0.0
 11
861.40470370560001
 21
-117.2435884139
 31
0.0
  0
SOLID
  5
96
  8
0
 62
     0
 10
861.40470370560001
 20
-114.2435884139
 30
0.0
 11
862.90470370560001
 21
-120.2435884139
 31
0.0
 12
859.9047037055999
 22
-120.2435884139
 32
0.0
 13
861.40470370560001
 23
-118.7435884139
 33
0.0
  0
ENDBLK
  5
97
  8
0
  0
BLOCK
  8
0
  2
*D7
 70
     1
 10
0.0
 20
0.0
 30
0.0
  3
*D7
  1

  0
TEXT
  5
9B
  8
0
 62
     0
 10
1008.4237360885
 20
-184.06977073740001
 30
0.0
 40
5.9972220420999998
  1
%%c8.5
  0
LINE
  5
9C
  8
0
 62
     0
 10
1038.4931802681001
 20
-227.95114049719999
 30
0.0
 11
1038.4931802681001
 21
-185.62810403890001
 31
0.0
  0
LINE
  5
9D
  8
0
 62
     0
 10
995.99318026809988
 20
-227.95114049719999
 30
0.0
 11
995.99318026809988
 21
-185.62810403890001
 31
0.0
  0
LINE
  5
9E
  8
0
 62
     0
 10
1038.4931802681001
 20
-186.12810403890001
 30
0.0
 11
1029.5904021194001
 21
-186.12810403890001
 31
0.0
  0
LINE
  5
9F
  8
0
 62
     0
 10
1038.4931802681001
 20
-186.12810403890001
 30
0.0
 11
1004.8959584167
 21
-186.12810403890001
 31
0.0
  0
LINE
  5
A0
  8
0
 62
     0
 10
995.99318026809988
 20
-186.12810403890001
 30
0.0
 11
1029.5904021194001
 21
-186.12810403890001
 31
0.0
  0
LINE
  5
A1
  8
0
 62
     0
 10
995.99318026809988
 20
-186.12810403890001
 30
0.0
 11
1004.8959584167
 21
-186.12810403890001
 31
0.0
  0
LINE
  5
A2
  8
0
 62
     0
 10
995.99318026809988
 20
-186.12810403890001
 30
0.0
 11
998.99318026809988
 21
-186.12810403890001
 31
0.0
  0
SOLID
  5
A3
  8
0
 62
     0
 10
995.99318026809988
 20
-186.12810403890001
 30
0.0
 11
1001.9931802681
 21
-184.62810403890001
 31
0.0
 12
1001.9931802681
 22
-187.62810403890001
 32
0.0
 13
1000.4931802681
 23
-186.12810403890001
 33
0.0
  0
LINE
  5
A4
  8
0
 62
     0
 10
1038.4931802681001
 20
-186.12810403890001
 30
0.0
 11
1035.4931802681001
 21
-186.12810403890001
 31
0.0
  0
SOLID
  5
A5
  8
0
 62
     0
 10
1038.4931802681001
 20
-186.12810403890001
 30
0.0
 11
1032.4931802681001
 21
-187.62810403890001
 31
0.0
 12
1032.4931802681001
 22
-184.62810403890001
 32
0.0
 13
1033.9931802681001
 23
-186.12810403890001
 33
0.0
  0
ENDBLK
  5
A6
  8
0
  0
BLOCK
  8
0
  2
*D8
 70
     1
 10
0.0
 20
0.0
 30
0.0
  3
*D8
  1

  0
TEXT
  5
AA
  8
0
 62
     0
 10
1011.9515137604
 20
-204.45095563320001
 30
0.0
 40
5.9972220420999998
  1
%%c5
  0
LINE
  5
AB
  8
0
 62
     0
 10
1029.7431802681001
 20
-236.70114049719999
 30
0.0
 11
1029.7431802681001
 21
-206.00928893470001
 31
0.0
  0
LINE
  5
AC
  8
0
 62
     0
 10
1004.7431802681
 20
-236.70114049719999
 30
0.0
 11
1004.7431802681
 21
-206.00928893470001
 31
0.0
  0
LINE
  5
AD
  8
0
 62
     0
 10
1029.7431802681001
 20
-206.50928893470001
 30
0.0
 11
1026.0626244476
 21
-206.50928893470001
 31
0.0
  0
LINE
  5
AE
  8
0
 62
     0
 10
1029.7431802681001
 20
-206.50928893470001
 30
0.0
 11
1008.4237360885
 21
-206.50928893470001
 31
0.0
  0
LINE
  5
AF
  8
0
 62
     0
 10
1004.7431802681
 20
-206.50928893470001
 30
0.0
 11
1026.0626244476
 21
-206.50928893470001
 31
0.0
  0
LINE
  5
B0
  8
0
 62
     0
 10
1004.7431802681
 20
-206.50928893470001
 30
0.0
 11
1008.4237360885
 21
-206.50928893470001
 31
0.0
  0
LINE
  5
B1
  8
0
 62
     0
 10
1004.7431802681
 20
-206.50928893470001
 30
0.0
 11
1001.7431802681
 21
-206.50928893470001
 31
0.0
  0
SOLID
  5
B2
  8
0
 62
     0
 10
1004.7431802681
 20
-206.50928893470001
 30
0.0
 11
998.74318026809988
 21
-208.00928893470001
 31
0.0
 12
998.74318026809988
 22
-205.00928893470001
 32
0.0
 13
1000.2431802681
 23
-206.50928893470001
 33
0.0
  0
LINE
  5
B3
  8
0
 62
     0
 10
1029.7431802681001
 20
-206.50928893470001
 30
0.0
 11
1032.7431802681001
 21
-206.50928893470001
 31
0.0
  0
SOLID
  5
B4
  8
0
 62
     0
 10
1029.7431802681001
 20
-206.50928893470001
 30
0.0
 11
1035.7431802681001
 21
-205.00928893470001
 31
0.0
 12
1035.7431802681001
 22
-208.00928893470001
 32
0.0
 13
1034.2431802681001
 23
-206.50928893470001
 33
0.0
  0
ENDBLK
  5
B5
  8
0
  0
BLOCK
  8
0
  2
*D9
 70
     1
 10
0.0
 20
0.0
 30
0.0
  3
*D9
  1

  0
TEXT
  5
BD
  8
0
 62
     0
 10
1011.9515137604
 20
-158.61168563370001
 30
0.0
 40
5.9972220420999998
  1
90%%d
 50
360.0
  0
ARC
  5
BE
  8
0
 62
     0
 10
1017.2431802681
 20
-250.20114049719999
 30
0.0
 40
88.414454958899995
 50
130.2593102953
 51
135.0
  0
ARC
  5
BF
  8
0
 62
     0
 10
1017.2431802681
 20
-250.20114049719999
 30
0.0
 40
88.414454958899995
 50
45.0
 51
49.740689704700003
  0
SOLID
  5
C0
  8
0
 62
     0
 10
1079.7616409243999
 20
-187.68267984089999
 30
0.0
 11
1085.0649417832999
 21
-190.86466035619989
 31
0.0
 12
1082.9436214397999
 22
-192.9859806998
 32
0.0
 13
1082.9436214397999
 23
-190.86466035619989
 33
0.0
  0
SOLID
  5
C1
  8
0
 62
     0
 10
954.72471961170004
 20
-187.68267984089999
 30
0.0
 11
951.54273909639994
 21
-192.9859806998
 31
0.0
 12
949.42141875279992
 22
-190.86466035619989
 32
0.0
 13
951.54273909639994
 23
-190.86466035619989
 33
0.0
  0
ARC
  5
C2
  8
0
 62
     0
 10
1017.2431802681
 20
-250.20114049719999
 30
0.0
 40
88.414454958899995
 50
45.0
 51
84.211754683799995
  0
ARC
  5
C3
  8
0
 62
     0
 10
1017.2431802681
 20
-250.20114049719999
 30
0.0
 40
88.414454958899995
 50
95.788245316200005
 51
135.0
  0
LINE
  5
C4
  8
0
 62
     0
 10
1041.5040948174999
 20
-225.9402259478
 30
0.0
 11
1082.7725554739
 21
-184.67176529139999
 31
0.0
  0
LINE
  5
C5
  8
0
 62
     0
 10
992.98226571869986
 20
-225.9402259478
 30
0.0
 11
951.71380506230003
 21
-184.67176529139999
 31
0.0
  0
ENDBLK
  5
C6
  8
0
  0
BLOCK
  8
0
  2
*D10
 70
     1
 10
0.0
 20
0.0
 30
0.0
  3
*D10
  1

  0
TEXT
  5
CB
  8
0
 62
     0
 10
814.76149800819996
 20
-283.74920078039997
 30
0.0
 40
5.9972220420999998
  1
8
 50
90.0
  0
LINE
  5
CC
  8
0
 62
     0
 10
798.81983130979995
 20
-299.87360143469999
 30
0.0
 11
818.81983130979984
 21
-299.87360143469999
 31
0.0
  0
LINE
  5
CD
  8
0
 62
     0
 10
799.81983130979995
 20
-291.87360143469999
 30
0.0
 11
818.81983130979984
 21
-291.87360143469999
 31
0.0
  0
LINE
  5
CE
  8
0
 62
     0
 10
817.81983130979995
 20
-299.87360143469999
 30
0.0
 11
817.81983130979995
 21
-276.69364543680001
 31
0.0
  0
LINE
  5
CF
  8
0
 62
     0
 10
817.81983130979995
 20
-299.87360143469999
 30
0.0
 11
817.81983130979995
 21
-287.27697845220001
 31
0.0
  0
LINE
  5
D0
  8
0
 62
     0
 10
817.81983130979995
 20
-291.87360143469999
 30
0.0
 11
817.81983130979995
 21
-276.69364543680001
 31
0.0
  0
LINE
  5
D1
  8
0
 62
     0
 10
817.81983130979995
 20
-291.87360143469999
 30
0.0
 11
817.81983130979995
 21
-287.27697845220001
 31
0.0
  0
LINE
  5
D2
  8
0
 62
     0
 10
817.81983130979995
 20
-291.87360143469999
 30
0.0
 11
817.81983130979995
 21
-285.87360143469999
 31
0.0
  0
SOLID
  5
D3
  8
0
 62
     0
 10
817.81983130979995
 20
-291.87360143469999
 30
0.0
 11
816.31983130979995
 21
-285.87360143469999
 31
0.0
 12
819.31983130979995
 22
-285.87360143469999
 32
0.0
 13
817.81983130979995
 23
-287.37360143469999
 33
0.0
  0
LINE
  5
D4
  8
0
 62
     0
 10
817.81983130979995
 20
-299.87360143469999
 30
0.0
 11
817.81983130979995
 21
-305.87360143469999
 31
0.0
  0
SOLID
  5
D5
  8
0
 62
     0
 10
817.81983130979995
 20
-299.87360143469999
 30
0.0
 11
819.31983130979995
 21
-305.87360143469999
 31
0.0
 12
816.31983130979995
 22
-305.87360143469999
 32
0.0
 13
817.81983130979995
 23
-304.37360143469999
 33
0.0
  0
ENDBLK
  5
D6
  8
0
  0
BLOCK
  8
0
  2
*D11
 70
     1
 10
0.0
 20
0.0
 30
0.0
  3
*D11
  1

  0
TEXT
  5
DA
  8
0
 62
     0
 10
814.76149800819996
 20
-318.00390976810002
 30
0.0
 40
5.9972220420999998
  1
8
 50
90.0
  0
LINE
  5
DB
  8
0
 62
     0
 10
799.81983130979995
 20
-307.87360143469999
 30
0.0
 11
818.81983130979984
 21
-307.87360143469999
 31
0.0
  0
LINE
  5
DC
  8
0
 62
     0
 10
798.81983130979995
 20
-299.87360143469999
 30
0.0
 11
818.81983130979984
 21
-299.87360143469999
 31
0.0
  0
LINE
  5
DD
  8
0
 62
     0
 10
817.81983130979995
 20
-307.87360143469999
 30
0.0
 11
817.81983130979995
 21
-310.9483544245
 31
0.0
  0
LINE
  5
DE
  8
0
 62
     0
 10
817.81983130979995
 20
-307.87360143469999
 30
0.0
 11
817.81983130979995
 21
-321.5316874399
 31
0.0
  0
LINE
  5
DF
  8
0
 62
     0
 10
817.81983130979995
 20
-299.87360143469999
 30
0.0
 11
817.81983130979995
 21
-310.9483544245
 31
0.0
  0
LINE
  5
E0
  8
0
 62
     0
 10
817.81983130979995
 20
-299.87360143469999
 30
0.0
 11
817.81983130979995
 21
-321.5316874399
 31
0.0
  0
LINE
  5
E1
  8
0
 62
     0
 10
817.81983130979995
 20
-299.87360143469999
 30
0.0
 11
817.81983130979995
 21
-293.87360143469999
 31
0.0
  0
SOLID
  5
E2
  8
0
 62
     0
 10
817.81983130979995
 20
-299.87360143469999
 30
0.0
 11
816.31983130979995
 21
-293.87360143469999
 31
0.0
 12
819.31983130979995
 22
-293.87360143469999
 32
0.0
 13
817.81983130979995
 23
-295.37360143469999
 33
0.0
  0
LINE
  5
E3
  8
0
 62
     0
 10
817.81983130979995
 20
-307.87360143469999
 30
0.0
 11
817.81983130979995
 21
-313.87360143469999
 31
0.0
  0
SOLID
  5
E4
  8
0
 62
     0
 10
817.81983130979995
 20
-307.87360143469999
 30
0.0
 11
819.31983130979995
 21
-313.87360143469999
 31
0.0
 12
816.31983130979995
 22
-313.87360143469999
 32
0.0
 13
817.81983130979995
 23
-312.37360143469999
 33
0.0
  0
ENDBLK
  5
E5
  8
0
  0
BLOCK
  8
0
  2
*D12
 70
     1
 10
0.0
 20
0.0
 30
0.0
  3
*D12
  1

  0
TEXT
  5
E9
  8
0
 62
     0
 10
624.76149800819996
 20
-303.40137910649997
 30
0.0
 40
5.9972220420999998
  1
16
 50
90.0
  0
LINE
  5
EA
  8
0
 62
     0
 10
645.81983130980007
 20
-291.87360143469999
 30
0.0
 11
626.81983130979995
 21
-291.87360143469999
 31
0.0
  0
LINE
  5
EB
  8
0
 62
     0
 10
645.81983130980007
 20
-307.87360143469999
 30
0.0
 11
626.81983130979995
 21
-307.87360143469999
 31
0.0
  0
LINE
  5
EC
  8
0
 62
     0
 10
627.81983130979995
 20
-291.87360143469999
 30
0.0
 11
627.81983130979995
 21
-292.81804609109997
 31
0.0
  0
LINE
  5
ED
  8
0
 62
     0
 10
627.81983130979995
 20
-291.87360143469999
 30
0.0
 11
627.81983130979995
 21
-306.9291567784
 31
0.0
  0
LINE
  5
EE
  8
0
 62
     0
 10
627.81983130979995
 20
-307.87360143469999
 30
0.0
 11
627.81983130979995
 21
-292.81804609109997
 31
0.0
  0
LINE
  5
EF
  8
0
 62
     0
 10
627.81983130979995
 20
-307.87360143469999
 30
0.0
 11
627.81983130979995
 21
-306.9291567784
 31
0.0
  0
LINE
  5
F0
  8
0
 62
     0
 10
627.81983130979995
 20
-307.87360143469999
 30
0.0
 11
627.81983130979995
 21
-313.87360143469999
 31
0.0
  0
SOLID
  5
F1
  8
0
 62
     0
 10
627.81983130979995
 20
-307.87360143469999
 30
0.0
 11
629.31983130980007
 21
-313.87360143469999
 31
0.0
 12
626.31983130979995
 22
-313.87360143469999
 32
0.0
 13
627.81983130979995
 23
-312.37360143469999
 33
0.0
  0
LINE
  5
F2
  8
0
 62
     0
 10
627.81983130979995
 20
-291.87360143469999
 30
0.0
 11
627.81983130979995
 21
-285.87360143469999
 31
0.0
  0
SOLID
  5
F3
  8
0
 62
     0
 10
627.81983130979995
 20
-291.87360143469999
 30
0.0
 11
626.31983130979995
 21
-285.87360143469999
 31
0.0
 12
629.31983130980007
 22
-285.87360143469999
 32
0.0
 13
627.81983130979995
 23
-287.37360143469999
 33
0.0
  0
ENDBLK
  5
F4
  8
0
  0
BLOCK
  8
0
  2
*D13
 70
     1
 10
0.0
 20
0.0
 30
0.0
  3
*D13
  1

  0
TEXT
  5
F8
  8
0
 62
     0
 10
655.78339853900002
 20
-75.437598862399994
 30
0.0
 40
5.9972220420999998
  1
4.5t
  0
LINE
  5
F9
  8
0
 62
     0
 10
652.31983130979995
 20
-109.7435884139
 30
0.0
 11
652.31983130979995
 21
-76.995932163900008
 31
0.0
  0
LINE
  5
FA
  8
0
 62
     0
 10
647.81983130979995
 20
-109.7435884139
 30
0.0
 11
647.81983130979995
 21
-76.995932163900008
 31
0.0
  0
LINE
  5
FB
  8
0
 62
     0
 10
652.31983130979995
 20
-77.495932163899994
 30
0.0
 11
673.42228689800004
 21
-77.495932163899994
 31
0.0
  0
LINE
  5
FC
  8
0
 62
     0
 10
652.31983130979995
 20
-77.495932163899994
 30
0.0
 11
652.25562086709999
 21
-77.495932163899994
 31
0.0
  0
LINE
  5
FD
  8
0
 62
     0
 10
647.81983130979995
 20
-77.495932163899994
 30
0.0
 11
673.42228689800004
 21
-77.495932163899994
 31
0.0
  0
LINE
  5
FE
  8
0
 62
     0
 10
647.81983130979995
 20
-77.495932163899994
 30
0.0
 11
652.25562086709999
 21
-77.495932163899994
 31
0.0
  0
LINE
  5
FF
  8
0
 62
     0
 10
647.81983130979995
 20
-77.495932163899994
 30
0.0
 11
644.81983130979995
 21
-77.495932163899994
 31
0.0
  0
SOLID
  5
100
  8
0
 62
     0
 10
647.81983130979995
 20
-77.495932163899994
 30
0.0
 11
641.81983130980007
 21
-78.995932163900008
 31
0.0
 12
641.81983130980007
 22
-75.995932163900008
 32
0.0
 13
643.31983130979995
 23
-77.495932163899994
 33
0.0
  0
LINE
  5
101
  8
0
 62
     0
 10
652.31983130979995
 20
-77.495932163899994
 30
0.0
 11
655.31983130979995
 21
-77.495932163899994
 31
0.0
  0
SOLID
  5
102
  8
0
 62
     0
 10
652.31983130979995
 20
-77.495932163899994
 30
0.0
 11
658.31983130980007
 21
-75.995932163900008
 31
0.0
 12
658.31983130980007
 22
-78.995932163900008
 32
0.0
 13
656.81983130979995
 23
-77.495932163899994
 33
0.0
  0
ENDBLK
  5
103
  8
0
  0
BLOCK
  8
0
  2
*D14
 70
     1
 10
0.0
 20
0.0
 30
0.0
  3
*D14
  1

  0
TEXT
  5
107
  8
0
 62
     0
 10
907.46626517000004
 20
-83.1852551124
 30
0.0
 40
5.9972220420999998
  1
8
  0
LINE
  5
108
  8
0
 62
     0
 10
897.4047037055999
 20
-104.2435884139
 30
0.0
 11
897.4047037055999
 21
-85.2435884139
 31
0.0
  0
LINE
  5
109
  8
0
 62
     0
 10
889.4047037055999
 20
-105.2435884139
 30
0.0
 11
889.4047037055999
 21
-85.2435884139
 31
0.0
  0
LINE
  5
10A
  8
0
 62
     0
 10
897.4047037055999
 20
-86.2435884139
 30
0.0
 11
914.52182051369982
 21
-86.2435884139
 31
0.0
  0
LINE
  5
10B
  8
0
 62
     0
 10
897.4047037055999
 20
-86.2435884139
 30
0.0
 11
903.93848749820006
 21
-86.2435884139
 31
0.0
  0
LINE
  5
10C
  8
0
 62
     0
 10
889.4047037055999
 20
-86.2435884139
 30
0.0
 11
914.52182051369982
 21
-86.2435884139
 31
0.0
  0
LINE
  5
10D
  8
0
 62
     0
 10
889.4047037055999
 20
-86.2435884139
 30
0.0
 11
903.93848749820006
 21
-86.2435884139
 31
0.0
  0
LINE
  5
10E
  8
0
 62
     0
 10
889.4047037055999
 20
-86.2435884139
 30
0.0
 11
883.40470370560001
 21
-86.2435884139
 31
0.0
  0
SOLID
  5
10F
  8
0
 62
     0
 10
889.4047037055999
 20
-86.2435884139
 30
0.0
 11
883.40470370560001
 21
-87.7435884139
 31
0.0
 12
883.40470370560001
 22
-84.743588413899985
 32
0.0
 13
884.9047037055999
 23
-86.2435884139
 33
0.0
  0
LINE
  5
110
  8
0
 62
     0
 10
897.4047037055999
 20
-86.2435884139
 30
0.0
 11
903.40470370560001
 21
-86.2435884139
 31
0.0
  0
SOLID
  5
111
  8
0
 62
     0
 10
897.4047037055999
 20
-86.2435884139
 30
0.0
 11
903.40470370560001
 21
-84.743588413899985
 31
0.0
 12
903.40470370560001
 22
-87.7435884139
 32
0.0
 13
901.9047037055999
 23
-86.2435884139
 33
0.0
  0
ENDBLK
  5
112
  8
0
  0
BLOCK
  8
0
  2
*D15
 70
     1
 10
0.0
 20
0.0
 30
0.0
  3
*D15
  1

  0
TEXT
  5
116
  8
0
 62
     0
 10
865.77096602469999
 20
-83.1852551124
 30
0.0
 40
5.9972220420999998
  1
8
  0
LINE
  5
117
  8
0
 62
     0
 10
889.4047037055999
 20
-105.2435884139
 30
0.0
 11
889.4047037055999
 21
-85.2435884139
 31
0.0
  0
LINE
  5
118
  8
0
 62
     0
 10
881.4047037055999
 20
-104.2435884139
 30
0.0
 11
881.4047037055999
 21
-85.2435884139
 31
0.0
  0
LINE
  5
119
  8
0
 62
     0
 10
889.4047037055999
 20
-86.2435884139
 30
0.0
 11
872.82652136839999
 21
-86.2435884139
 31
0.0
  0
LINE
  5
11A
  8
0
 62
     0
 10
889.4047037055999
 20
-86.2435884139
 30
0.0
 11
862.24318835289989
 21
-86.2435884139
 31
0.0
  0
LINE
  5
11B
  8
0
 62
     0
 10
881.4047037055999
 20
-86.2435884139
 30
0.0
 11
872.82652136839999
 21
-86.2435884139
 31
0.0
  0
LINE
  5
11C
  8
0
 62
     0
 10
881.4047037055999
 20
-86.2435884139
 30
0.0
 11
862.24318835289989
 21
-86.2435884139
 31
0.0
  0
LINE
  5
11D
  8
0
 62
     0
 10
881.4047037055999
 20
-86.2435884139
 30
0.0
 11
875.40470370560001
 21
-86.2435884139
 31
0.0
  0
SOLID
  5
11E
  8
0
 62
     0
 10
881.4047037055999
 20
-86.2435884139
 30
0.0
 11
875.40470370560001
 21
-87.7435884139
 31
0.0
 12
875.40470370560001
 22
-84.743588413899985
 32
0.0
 13
876.9047037055999
 23
-86.2435884139
 33
0.0
  0
LINE
  5
11F
  8
0
 62
     0
 10
889.4047037055999
 20
-86.2435884139
 30
0.0
 11
895.40470370560001
 21
-86.2435884139
 31
0.0
  0
SOLID
  5
120
  8
0
 62
     0
 10
889.4047037055999
 20
-86.2435884139
 30
0.0
 11
895.40470370560001
 21
-84.743588413899985
 31
0.0
 12
895.40470370560001
 22
-87.7435884139
 32
0.0
 13
893.9047037055999
 23
-86.2435884139
 33
0.0
  0
ENDBLK
  5
121
  8
0
  0
BLOCK
  8
0
  2
*D16
 70
     1
 10
0.0
 20
0.0
 30
0.0
  3
*D16
  1

  0
TEXT
  5
125
  8
0
 62
     0
 10
885.87692603380003
 20
-70.439882032100002
 30
0.0
 40
5.9972220420999998
  1
16
  0
LINE
  5
126
  8
0
 62
     0
 10
897.4047037055999
 20
-105.2435884139
 30
0.0
 11
897.4047037055999
 21
-71.998215333600001
 31
0.0
  0
LINE
  5
127
  8
0
 62
     0
 10
881.4047037055999
 20
-105.2435884139
 30
0.0
 11
881.4047037055999
 21
-71.998215333600001
 31
0.0
  0
LINE
  5
128
  8
0
 62
     0
 10
897.4047037055999
 20
-72.498215333600001
 30
0.0
 11
896.46025904919986
 21
-72.498215333600001
 31
0.0
  0
LINE
  5
129
  8
0
 62
     0
 10
897.4047037055999
 20
-72.498215333600001
 30
0.0
 11
882.34914836199994
 21
-72.498215333600001
 31
0.0
  0
LINE
  5
12A
  8
0
 62
     0
 10
881.4047037055999
 20
-72.498215333600001
 30
0.0
 11
896.46025904919986
 21
-72.498215333600001
 31
0.0
  0
LINE
  5
12B
  8
0
 62
     0
 10
881.4047037055999
 20
-72.498215333600001
 30
0.0
 11
882.34914836199994
 21
-72.498215333600001
 31
0.0
  0
LINE
  5
12C
  8
0
 62
     0
 10
881.4047037055999
 20
-72.498215333600001
 30
0.0
 11
878.40470370560001
 21
-72.498215333600001
 31
0.0
  0
SOLID
  5
12D
  8
0
 62
     0
 10
881.4047037055999
 20
-72.498215333600001
 30
0.0
 11
875.40470370560001
 21
-73.998215333600001
 31
0.0
 12
875.40470370560001
 22
-70.998215333600001
 32
0.0
 13
876.9047037055999
 23
-72.498215333600001
 33
0.0
  0
LINE
  5
12E
  8
0
 62
     0
 10
897.4047037055999
 20
-72.498215333600001
 30
0.0
 11
900.40470370560001
 21
-72.498215333600001
 31
0.0
  0
SOLID
  5
12F
  8
0
 62
     0
 10
897.4047037055999
 20
-72.498215333600001
 30
0.0
 11
903.40470370560001
 21
-70.998215333600001
 31
0.0
 12
903.40470370560001
 22
-73.998215333600001
 32
0.0
 13
901.9047037055999
 23
-72.498215333600001
 33
0.0
  0
ENDBLK
  5
130
  8
0
  0
BLOCK
  8
0
  2
*D17
 70
     1
 10
0.0
 20
0.0
 30
0.0
  3
*D17
  1

  0
TEXT
  5
14B
  8
0
 62
     0
 10
682.61463523509985
 20
-141.25602345120001
 30
0.0
 40
5.9972220420999998
  1
90%%d
 50
316.7974086836
  0
ARC
  5
14C
  8
0
 62
     0
 10
652.31983130979995
 20
-181.2435884139
 30
0.0
 40
46.712661516799997
 50
80.115154702200002
 51
90.0
  0
ARC
  5
14D
  8
0
 62
     0
 10
652.31983130979995
 20
-181.2435884139
 30
0.0
 40
46.712661516799997
 50
0.0
 51
9.8848452978000001
  0
SOLID
  5
14E
  8
0
 62
     0
 10
699.03249282649995
 20
-181.2435884139
 30
0.0
 11
700.53249282649995
 21
-187.2435884139
 31
0.0
 12
697.53249282649995
 22
-187.2435884139
 32
0.0
 13
699.03249282649995
 23
-185.7435884139
 33
0.0
  0
SOLID
  5
14F
  8
0
 62
     0
 10
652.31983130979995
 20
-134.53092689709999
 30
0.0
 11
646.31983130980007
 21
-136.03092689709999
 31
0.0
 12
646.31983130980007
 22
-133.03092689709999
 32
0.0
 13
647.81983130979995
 23
-134.53092689709999
 33
0.0
  0
ARC
  5
150
  8
0
 62
     0
 10
652.31983130979995
 20
-181.2435884139
 30
0.0
 40
46.712661516799997
 50
0.0
 51
35.780695178800002
  0
ARC
  5
151
  8
0
 62
     0
 10
652.31983130979995
 20
-181.2435884139
 30
0.0
 40
46.712661516799997
 50
57.81412218829999
 51
90.0
  0
LINE
  5
152
  8
0
 62
     0
 10
793.81983130979995
 20
-181.2435884139
 30
0.0
 11
695.03249282649995
 21
-181.2435884139
 31
0.0
  0
LINE
  5
153
  8
0
 62
     0
 10
652.31983130979995
 20
-114.7435884139
 30
0.0
 11
652.31983130979995
 21
-138.53092689709999
 31
0.0
  0
ENDBLK
  5
154
  8
0
  0
BLOCK
  8
0
  2
*D18
 70
     1
 10
0.0
 20
0.0
 30
0.0
  3
*D18
  1

  0
TEXT
  5
158
  8
0
 62
     0
 10
657.79205363790004
 20
-269.81526813319999
 30
0.0
 40
5.9972220420999998
  1
27
  0
LINE
  5
159
  8
0
 62
     0
 10
674.81983130980007
 20
-291.87360143469999
 30
0.0
 11
674.81983130980007
 21
-271.37360143469999
 31
0.0
  0
LINE
  5
15A
  8
0
 62
     0
 10
647.81983130979995
 20
-290.87360143469999
 30
0.0
 11
647.81983130979995
 21
-271.37360143469999
 31
0.0
  0
LINE
  5
15B
  8
0
 62
     0
 10
674.81983130980007
 20
-271.87360143469999
 30
0.0
 11
668.37538665339991
 21
-271.87360143469999
 31
0.0
  0
LINE
  5
15C
  8
0
 62
     0
 10
674.81983130980007
 20
-271.87360143469999
 30
0.0
 11
654.26427596609994
 21
-271.87360143469999
 31
0.0
  0
LINE
  5
15D
  8
0
 62
     0
 10
647.81983130979995
 20
-271.87360143469999
 30
0.0
 11
668.37538665339991
 21
-271.87360143469999
 31
0.0
  0
LINE
  5
15E
  8
0
 62
     0
 10
647.81983130979995
 20
-271.87360143469999
 30
0.0
 11
654.26427596609994
 21
-271.87360143469999
 31
0.0
  0
LINE
  5
15F
  8
0
 62
     0
 10
647.81983130979995
 20
-271.87360143469999
 30
0.0
 11
650.81983130980007
 21
-271.87360143469999
 31
0.0
  0
SOLID
  5
160
  8
0
 62
     0
 10
647.81983130979995
 20
-271.87360143469999
 30
0.0
 11
653.81983130979995
 21
-270.37360143469999
 31
0.0
 12
653.81983130979995
 22
-273.37360143469999
 32
0.0
 13
652.31983130979995
 23
-271.87360143469999
 33
0.0
  0
LINE
  5
161
  8
0
 62
     0
 10
674.81983130980007
 20
-271.87360143469999
 30
0.0
 11
671.81983130979995
 21
-271.87360143469999
 31
0.0
  0
SOLID
  5
162
  8
0
 62
     0
 10
674.81983130980007
 20
-271.87360143469999
 30
0.0
 11
668.81983130979995
 21
-273.37360143469999
 31
0.0
 12
668.81983130979995
 22
-270.37360143469999
 32
0.0
 13
670.31983130979995
 23
-271.87360143469999
 33
0.0
  0
ENDBLK
  5
163
  8
0
  0
BLOCK
  8
0
  2
*U19
 70
     1
 10
0.0
 20
0.0
 30
0.0
  3
*U19
  1

  0
TEXT
  5
214
  8
┌▓È_1
  6
CONTINUOUS
 10
992.44757610932527
 20
-274.6636366747274
 30
0.0
 40
5.9972220420999998
  1
ÄMâéâ~òöègæÕÉ}
  0
ENDBLK
  5
216
  8
0
  0
BLOCK
  8
0
  2
*D20
 70
     1
 10
0.0
 20
0.0
 30
0.0
  3
*D20
  1

  0
LINE
  5
219
  8
Éíû@É³
 62
     0
 10
1039.0677045278239
 20
-228.37661623747579
 30
0.0
 11
1080.645524400933
 21
-186.7987963643659
 31
0.0
  0
LINE
  5
21A
  8
Éíû@É³
 62
     0
 10
995.41865600837582
 20
-228.37661623747579
 30
0.0
 11
953.84083613526604
 21
-186.79879636436601
 31
0.0
  0
ARC
  5
21B
  8
Éíû@É³
 62
     0
 10
1017.2431802681
 20
-250.20114049719999
 30
0.0
 40
88.414454958900023
 50
48.888964504749872
 51
84.036514998196765
  0
ARC
  5
21C
  8
Éíû@É³
 62
     0
 10
1017.2431802681
 20
-250.20114049719999
 30
0.0
 40
88.414454958900023
 50
95.963485001803164
 51
131.11103549525021
  0
SOLID
  5
21D
  8
Éíû@É³
 62
     0
 10
1076.060192477295
 20
-182.85574713020881
 30
0.0
 11
1074.6947790817981
 21
-184.31713217851009
 31
0.0
 12
1079.7616409244499
 22
-187.682679840849
 32
0.0
 13
1079.7616409244499
 23
-187.682679840849
 33
0.0
  0
SOLID
  5
21E
  8
Éíû@É³
 62
     0
 10
959.79158145440135
 20
-184.31713217851021
 30
0.0
 11
958.42616805890486
 21
-182.8557471302089
 31
0.0
 12
954.72471961174915
 22
-187.6826798408492
 32
0.0
 13
954.72471961174915
 23
-187.6826798408492
 33
0.0
  0
TEXT
  8
Éíû@É³
  40
5.99722
  5
27C
  62
0
  72
0
  71
0
 10
1005.25
 20
-172.402
 30
0.000000
  1
90üï
  0
POINT
  5
220
  8
Defpoints
 62
     0
 10
1017.2431802681
 20
-250.20114049719999
 30
0.0
  0
POINT
  5
221
  8
Defpoints
 62
     0
 10
1039.0235103540001
 20
-228.42081041130001
 30
0.0
  0
POINT
  5
222
  8
Defpoints
 62
     0
 10
995.46285018219999
 20
-228.42081041130001
 30
0.0
  0
POINT
  5
223
  8
Defpoints
 62
     0
 10
1040.126525073822
 20
-164.7993350351268
 30
0.0
  0
ENDBLK
  5
225
  8
0
  0
BLOCK
  8
0
  2
*U21
 70
     1
 10
0.0
 20
0.0
 30
0.0
  3
*U21
  1

  0
TEXT
  5
227
  8
┌▓È_1
  6
CONTINUOUS
 10
1031.1094338350999
 20
-388.94321386012689
 30
0.0
 40
7.1966662884000003
  1
ékî^âAâôâOâï
  0
ENDBLK
  5
229
  8
0
  0
BLOCK
  8
0
  2
*U22
 70
     1
 10
0.0
 20
0.0
 30
0.0
  3
*U22
  1

  0
TEXT
  5
22B
  8
┌▓È_1
  6
CONTINUOUS
 10
1027.7603505165671
 20
-370.66071688929998
 30
0.0
 40
7.1966662884000003
  1
LY-205  75x150
  0
ENDBLK
  5
22D
  8
0
  0
BLOCK
  8
0
  2
*D23
 70
     1
 10
0.0
 20
0.0
 30
0.0
  3
*D23
  1

  0
LINE
  5
22F
  8
Éíû@É³
 62
     0
 10
797.75733130979984
 20
-181.24358841389989
 30
0.0
 11
697.78249282652826
 21
-181.2435884139
 31
0.0
  0
LINE
  5
230
  8
Éíû@É³
 62
     0
 10
652.31983130979995
 20
-110.8060884139
 30
0.0
 11
652.31983130979995
 21
-135.7809268971717
 31
0.0
  0
ARC
  5
231
  8
Éíû@É³
 62
     0
 10
652.31983130979995
 20
-181.2435884139
 30
0.0
 40
46.712661516728289
 50
7.3644151953633719
 51
35.456603448678109
  0
ARC
  5
232
  8
Éíû@É³
 62
     0
 10
652.31983130979995
 20
-181.2435884139
 30
0.0
 40
46.712661516728289
 50
58.13821391864829
 51
82.635584804636665
  0
SOLID
  5
233
  8
Éíû@É³
 62
     0
 10
699.64509393777109
 20
-175.1917523389138
 30
0.0
 11
697.64922271824901
 21
-175.32019717175319
 31
0.0
 12
699.03249282652826
 22
-181.2435884139
 32
0.0
 13
699.03249282652826
 23
-181.2435884139
 33
0.0
  0
SOLID
  5
234
  8
Éíû@É³
 62
     0
 10
658.24322255194659
 20
-135.914197005451
 30
0.0
 11
658.37166738478606
 21
-133.9183257859288
 31
0.0
 12
652.31983130979995
 22
-134.5309268971717
 32
0.0
 13
652.31983130979995
 23
-134.5309268971717
 33
0.0
  0
TEXT
  8
Éíû@É³
  40
5.99722
  5
27D
  62
0
  72
0
  71
0
 10
672.304
 20
-157.808
 30
0.000000
  1
90üï
  0
POINT
  5
236
  8
Defpoints
 62
     0
 10
652.31983130979995
 20
-181.2435884139
 30
0.0
  0
POINT
  5
237
  8
Defpoints
 62
     0
 10
797.81983130979984
 20
-181.24358841389989
 30
0.0
  0
POINT
  5
238
  8
Defpoints
 62
     0
 10
652.31983130979995
 20
-110.7435884139
 30
0.0
  0
POINT
  5
239
  8
Defpoints
 62
     0
 10
692.77418286167051
 20
-157.8872576555359
 30
0.0
  0
ENDBLK
  5
23B
  8
0
  0
BLOCK
  8
0
  2
*U24
 70
     1
 10
0.0
 20
0.0
 30
0.0
  3
*U24
  1

  0
TEXT
  5
23D
  8
┌▓È_1
  6
CONTINUOUS
 10
872.29913729929979
 20
-356.48284043335781
 30
0.0
 40
7.1966662884000003
  1
ò\û╩ÅêùØüFâåâjâNâìâüâbâLÄdÅÒé░
  0
ENDBLK
  5
23F
  8
0
  0
BLOCK
  8
0
  2
*U25
 70
     1
 10
0.0
 20
0.0
 30
0.0
  3
*U25
  1

  0
TEXT
  5
241
  8
┌▓È_1
  6
CONTINUOUS
 10
886.74024474889984
 20
-405.8301087666274
 30
0.0
 40
8.6359998702999992
  1
èöÄ«ë´Äð
  0
ENDBLK
  5
243
  8
0
  0
BLOCK
  8
0
  2
*U26
 70
     1
 10
0.0
 20
0.0
 30
0.0
  3
*U26
  1

  0
TEXT
  5
245
  8
┌▓È_1
  6
CONTINUOUS
 10
905.22990892189989
 20
-365.5774126048691
 30
0.0
 40
4.6749999999999989
  1
ü@ìÌ ü@Ä┐
  0
ENDBLK
  5
247
  8
0
  0
BLOCK
  8
0
  2
*U27
 70
     1
 10
0.0
 20
0.0
 30
0.0
  3
*U27
  1

  0
TEXT
  5
249
  8
┌▓È_1
  6
CONTINUOUS
 62
     5
 10
946.09349009117796
 20
-390.9112958536
 30
0.0
 40
4.6749999999999989
  1
1üF2
  0
ENDBLK
  5
24B
  8
0
  0
BLOCK
  8
0
  2
*U28
 70
     1
 10
0.0
 20
0.0
 30
0.0
  3
*U28
  1

  0
TEXT
  5
24D
  8
┌▓È_1
  6
CONTINUOUS
 62
     5
 10
946.30706877138107
 20
-373.9112958536
 30
0.0
 40
4.6749999999999989
  1
4.5t
  0
ENDBLK
  5
24F
  8
0
  0
BLOCK
  8
0
  2
*U29
 70
     1
 10
0.0
 20
0.0
 30
0.0
  3
*U29
  1

  0
TEXT
  5
251
  8
┌▓È_1
  6
CONTINUOUS
 62
     5
 10
917.49888349219327
 20
-374.19606742720413
 30
0.0
 40
4.6749999999999989
  1
ôS
  0
ENDBLK
  5
253
  8
0
  0
BLOCK
  8
0
  2
*U30
 70
     1
 10
0.0
 20
0.0
 30
0.0
  3
*U30
  1

  0
TEXT
  5
255
  8
┌▓È_1
  6
CONTINUOUS
 62
     5
 10
880.66963222315781
 20
-373.9112958536
 30
0.0
 40
4.6749999999999989
  1
H16.4
  0
ENDBLK
  5
257
  8
0
  0
BLOCK
  8
0
  2
*U31
 70
     1
 10
0.0
 20
0.0
 30
0.0
  3
*U31
  1

  0
TEXT
  5
259
  8
┌▓È_1
  6
CONTINUOUS
 10
1002.0801362068
 20
-399.51961537540211
 30
0.0
 40
4.6749999999999989
  1
É}öÈ
  0
ENDBLK
  5
25B
  8
0
  0
BLOCK
  8
0
  2
*U32
 70
     1
 10
0.0
 20
0.0
 30
0.0
  3
*U32
  1

  0
TEXT
  5
25D
  8
┌▓È_1
  6
CONTINUOUS
 10
1002.0801362068
 20
-382.56707730433612
 30
0.0
 40
4.6749999999999989
  1
òiû╝
  0
ENDBLK
  5
25F
  8
0
  0
BLOCK
  8
0
  2
*U33
 70
     1
 10
0.0
 20
0.0
 30
0.0
  3
*U33
  1

  0
TEXT
  5
261
  8
┌▓È_1
  6
CONTINUOUS
 10
1002.0801362068
 20
-365.51961537540211
 30
0.0
 40
4.6749999999999989
  1
î^öÈ
  0
ENDBLK
  5
263
  8
0
  0
BLOCK
  8
0
  2
*U34
 70
     1
 10
0.0
 20
0.0
 30
0.0
  3
*U34
  1

  0
TEXT
  5
265
  8
┌▓È_1
  6
CONTINUOUS
 10
873.22990892189989
 20
-365.50621971146802
 30
0.0
 40
4.6749999999999989
  1
ü@ô· ü@òt
  0
ENDBLK
  5
267
  8
0
  0
BLOCK
  8
0
  2
*U35
 70
     1
 10
0.0
 20
0.0
 30
0.0
  3
*U35
  1

  0
TEXT
  5
269
  8
┌▓È_1
  6
CONTINUOUS
 10
872.29913729929979
 20
-391.19606742720413
 30
0.0
 40
4.6749999999999989
  1
 É╗É}ü@ü@ è¦û{
  0
ENDBLK
  5
26B
  8
0
  0
BLOCK
  8
0
  2
*U36
 70
     1
 10
0.0
 20
0.0
 30
0.0
  3
*U36
  1

  0
TEXT
  5
26D
  8
┌▓È_1
  6
CONTINUOUS
 10
872.29913729929979
 20
-382.67233646273712
 30
0.0
 40
4.6749999999999989
  1
 É¦îvü@ü@öÆÉ{ëÛ
  0
ENDBLK
  5
26F
  8
0
  0
BLOCK
  8
0
  2
*U37
 70
     1
 10
0.0
 20
0.0
 30
0.0
  3
*U37
  1

  0
TEXT
  5
271
  8
┌▓È_1
  6
CONTINUOUS
 10
969.22990892190001
 20
-365.67233646273712
 30
0.0
 40
4.6749999999999989
  1
ü@îƒ ü@ê¾
  0
ENDBLK
  5
273
  8
0
  0
BLOCK
  8
0
  2
*U38
 70
     1
 10
0.0
 20
0.0
 30
0.0
  3
*U38
  1

  0
TEXT
  5
275
  8
┌▓È_1
  6
CONTINUOUS
 10
937.22990892190001
 20
-382.64860549827011
 30
0.0
 40
4.6749999999999989
  1
ü@Ä┌ ü@ôx
  0
ENDBLK
  5
277
  8
0
  0
BLOCK
  8
0
  2
*U39
 70
     1
 10
0.0
 20
0.0
 30
0.0
  3
*U39
  1

  0
TEXT
  5
279
  8
┌▓È_1
  6
CONTINUOUS
 10
937.22990892190001
 20
-365.67233646273712
 30
0.0
 40
4.6749999999999989
  1
ü@ö┬ ü@î·
  0
ENDBLK
  5
27B
  8
0
  0
ENDSEC
  0
SECTION
  2
ENTITIES
  0
DIMENSION
  5
3E
  8
Éíû@É³
  2
*D0
 10
797.81983130979995
 20
-271.87360143469999
 30
0.0
 11
793.81983130979995
 21
-271.87360143469999
 31
0.0
 70
   128
  1
<>
 13
797.81983130979995
 23
-291.87360143469999
 33
0.0
 14
789.81983130979995
 24
-292.87360143469999
 34
0.0
  0
DIMENSION
  5
4D
  8
Éíû@É³
  2
*D1
 10
789.81983130979995
 20
-271.87360143469999
 30
0.0
 11
732.31983130979995
 21
-271.87360143469999
 31
0.0
 70
   128
  1
<>
 13
789.81983130979995
 23
-292.87360143469999
 33
0.0
 14
674.81983130980007
 24
-292.87360143469999
 34
0.0
  0
DIMENSION
  5
5C
  8
Éíû@É³
  2
*D2
 10
627.81983130979995
 20
-110.7435884139
 30
0.0
 11
627.81983130979995
 21
-148.2435884139
 31
0.0
 70
   128
  1
<>
 13
647.81983130979995
 23
-110.7435884139
 33
0.0
 14
652.81983130979995
 24
-185.7435884139
 34
0.0
 50
90.0
  0
DIMENSION
  5
6B
  8
Éíû@É³
  2
*D3
 10
647.81983130979995
 20
-205.7435884139
 30
0.0
 11
722.81983130979995
 21
-205.7435884139
 31
0.0
 70
   128
  1
<>
 13
647.81983130979995
 23
-180.7435884139
 33
0.0
 14
797.81983130979995
 24
-185.7435884139
 34
0.0
 50
180.0
  0
DIMENSION
  5
7A
  8
Éíû@É³
  2
*D4
 10
861.40470370560001
 20
-154.2435884139
 30
0.0
 11
861.40470370560001
 21
-167.7435884139
 31
0.0
 70
   128
  1
<>
 13
882.40470370560013
 23
-154.2435884139
 33
0.0
 14
881.4047037055999
 24
-181.2435884139
 34
0.0
 50
90.0
  0
DIMENSION
  5
89
  8
Éíû@É³
  2
*D5
 10
861.40470370560001
 20
-106.2435884139
 30
0.0
 11
861.40470370560001
 21
-110.2435884139
 31
0.0
 70
   128
  1
<>
 13
881.4047037055999
 23
-106.2435884139
 33
0.0
 14
882.40470370560013
 24
-114.2435884139
 34
0.0
 50
90.0
  0
DIMENSION
  5
98
  8
Éíû@É³
  2
*D6
 10
861.40470370560001
 20
-114.2435884139
 30
0.0
 11
861.40470370560001
 21
-134.2435884139
 31
0.0
 70
   128
  1
<>
 13
882.40470370560013
 23
-114.2435884139
 33
0.0
 14
882.40470370560013
 24
-154.2435884139
 34
0.0
 50
90.0
  0
DIMENSION
  5
A7
  8
Éíû@É³
  2
*D7
 10
1038.4931802681001
 20
-186.12810403890001
 30
0.0
 11
1017.2431802681
 21
-186.12810403890001
 31
0.0
 70
   128
  1
%%c8.5
 13
1038.4931802681001
 23
-228.95114049719999
 33
0.0
 14
995.99318026809988
 24
-228.95114049719999
 34
0.0
  0
DIMENSION
  5
B6
  8
Éíû@É³
  2
*D8
 10
1029.7431802681001
 20
-206.50928893470001
 30
0.0
 11
1017.2431802681
 21
-206.50928893470001
 31
0.0
 70
   128
  1
%%c5
 13
1029.7431802681001
 23
-237.70114049719999
 33
0.0
 14
1004.7431802681
 24
-237.70114049719999
 34
0.0
  0
LINE
  5
B8
  8
┌▓È_1
 10
991.29303240929983
 20
-277.23834980710001
 30
0.0
 11
1045.9027668566
 21
-277.23834980710001
 31
0.0
  0
INSERT
  5
B9
  8
0
  6
CONTINUOUS
  2
*U19
 10
0.0
 20
0.0
 30
0.0
  0
DIMENSION
  5
C7
  8
Éíû@É³
  2
*D20
 10
1040.126525073822
 20
-164.7993350351268
 30
0.0
 11
1017.2431802681
 21
-161.78668553829999
 31
0.0
 70
   133
  1
<>
 13
995.46285018219999
 23
-228.42081041130001
 33
0.0
 14
1039.0235103540001
 24
-228.42081041130001
 34
0.0
 15
1017.2431802681
 25
-250.20114049719999
 35
0.0
1001
ACAD
1000
DSTYLE
1002
{
1070
   271
1070
     0
1002
}
  0
DIMENSION
  5
D7
  8
Éíû@É³
  2
*D10
 10
817.81983130979995
 20
-299.87360143469999
 30
0.0
 11
817.81983130979995
 21
-281.98531194449998
 31
0.0
 70
   128
  1
<>
 13
796.81983130979995
 23
-299.87360143469999
 33
0.0
 14
797.81983130979995
 24
-291.87360143469999
 34
0.0
 50
90.0
  0
DIMENSION
  5
E6
  8
Éíû@É³
  2
*D11
 10
817.81983130979995
 20
-307.87360143469999
 30
0.0
 11
817.81983130979995
 21
-316.24002093220003
 31
0.0
 70
   128
  1
<>
 13
797.81983130979995
 23
-307.87360143469999
 33
0.0
 14
796.81983130979995
 24
-299.87360143469999
 34
0.0
 50
90.0
  0
DIMENSION
  5
F5
  8
Éíû@É³
  2
*D12
 10
627.81983130979995
 20
-291.87360143469999
 30
0.0
 11
627.81983130979995
 21
-299.87360143469999
 31
0.0
 70
   128
  1
<>
 13
647.81983130979995
 23
-291.87360143469999
 33
0.0
 14
647.81983130979995
 24
-307.87360143469999
 34
0.0
 50
90.0
  0
DIMENSION
  5
104
  8
Éíû@É³
  2
*D13
 10
652.31983130979995
 20
-77.495932163899994
 30
0.0
 11
662.83895388259998
 21
-77.495932163899994
 31
0.0
 70
   128
  1
<>t
 13
652.31983130979995
 23
-110.7435884139
 33
0.0
 14
647.81983130979995
 24
-110.7435884139
 34
0.0
  0
DIMENSION
  5
113
  8
Éíû@É³
  2
*D14
 10
897.4047037055999
 20
-86.2435884139
 30
0.0
 11
909.23015400589986
 21
-86.2435884139
 31
0.0
 70
   128
  1
<>
 13
897.4047037055999
 23
-106.2435884139
 33
0.0
 14
889.4047037055999
 24
-107.2435884139
 34
0.0
  0
DIMENSION
  5
122
  8
Éíû@É³
  2
*D15
 10
889.4047037055999
 20
-86.2435884139
 30
0.0
 11
867.53485486059992
 21
-86.2435884139
 31
0.0
 70
   128
  1
<>
 13
889.4047037055999
 23
-107.2435884139
 33
0.0
 14
881.4047037055999
 24
-106.2435884139
 34
0.0
  0
DIMENSION
  5
131
  8
Éíû@É³
  2
*D16
 10
897.4047037055999
 20
-72.498215333600001
 30
0.0
 11
889.4047037055999
 21
-72.498215333600001
 31
0.0
 70
   128
  1
<>
 13
897.4047037055999
 23
-106.2435884139
 33
0.0
 14
881.4047037055999
 24
-106.2435884139
 34
0.0
  0
LINE
  5
132
  8
┌▓È_1
 62
     5
 10
940.69354003130013
 20
-404.06895229190002
 30
0.0
 11
944.69354003130002
 21
-404.06895229190002
 31
0.0
  0
LINE
  5
133
  8
┌▓È_1
 62
     5
 10
951.89354003130006
 20
-398.4689522919
 30
0.0
 11
954.29354003130004
 21
-396.06895229190002
 31
0.0
  0
LINE
  5
134
  8
┌▓È_1
 10
872.29913729929979
 20
-393.32522903889998
 30
0.0
 11
1112.2991372992999
 21
-393.32522903889998
 31
0.0
  0
LINE
  5
135
  8
┌▓È_1
 10
872.29913729929979
 20
-359.32522903889998
 30
0.0
 11
1112.2991372992999
 21
-359.32522903889998
 31
0.0
  0
INSERT
  5
136
  8
0
  6
CONTINUOUS
  2
*U21
 10
0.0
 20
0.0
 30
0.0
  0
LINE
  5
137
  8
┌▓È_1
 62
     5
 10
1112.2991372992999
 20
-410.32522903889992
 30
0.0
 11
1112.2991372992999
 21
-30.325229038900002
 31
0.0
  0
LINE
  5
138
  8
┌▓È_1
 62
     5
 10
562.2991372992999
 20
-410.32522903889992
 30
0.0
 11
1112.2991372992999
 21
-410.32522903889992
 31
0.0
  0
LINE
  5
139
  8
┌▓È_1
 62
     5
 10
562.2991372992999
 20
-30.325229038900002
 30
0.0
 11
1112.2991372992999
 21
-30.325229038900002
 31
0.0
  0
LINE
  5
13A
  8
┌▓È_1
 10
1000.2991372993
 20
-376.32522903889998
 30
0.0
 11
1112.2991372992999
 21
-376.32522903889998
 31
0.0
  0
LINE
  5
13B
  8
┌▓È_1
 62
     5
 10
562.2991372992999
 20
-410.32522903889992
 30
0.0
 11
562.2991372992999
 21
-30.325229038900002
 31
0.0
  0
LINE
  5
13C
  8
┌▓È_1
 62
     5
 10
971.35050972830004
 20
-398.4689522919
 30
0.0
 11
972.95050972829995
 21
-396.06895229190002
 31
0.0
  0
LINE
  5
13D
  8
┌▓È_1
 62
     5
 10
985.85678746190001
 20
-401.66895229189998
 30
0.0
 11
990.89848196550008
 21
-401.66895229189998
 31
0.0
  0
LINE
  5
13E
  8
┌▓È_1
 62
     5
 10
947.89354003129995
 20
-396.06895229190002
 30
0.0
 11
947.89354003129995
 21
-399.26895229190001
 31
0.0
  0
ARC
  5
13F
  8
┌▓È_1
 62
     5
 10
945.49354003130009
 20
-402.4689522919
 30
0.0
 40
2.399999999999999
 50
270.0
 51
0.0
  0
LINE
  5
140
  8
┌▓È_1
 62
     5
 10
965.80860971499999
 20
-401.69946574009998
 30
0.0
 11
965.42365642489995
 21
-402.12464711690001
 31
0.0
  0
LINE
  5
141
  8
┌▓È_1
 62
     5
 10
958.55050972829997
 20
-399.78432871979999
 30
0.0
 11
964.95050972829995
 21
-399.78432871979999
 31
0.0
  0
LINE
  5
142
  8
┌▓È_1
 62
     5
 10
951.89354003130006
 20
-402.4689522919
 30
0.0
 11
951.89354003130006
 21
-401.66895229189998
 31
0.0
  0
LINE
  5
143
  8
┌▓È_1
 62
     5
 10
976.49848196549988
 20
-398.7889522919001
 30
0.0
 11
976.49848196549988
 21
-401.66895229189998
 31
0.0
  0
LINE
  5
144
  8
┌▓È_1
 10
968.2991372992999
 20
-359.32522903889998
 30
0.0
 11
968.2991372992999
 21
-393.32522903889998
 31
0.0
  0
LINE
  5
145
  8
┌▓È_1
 10
904.29913729929979
 20
-359.32522903889998
 30
0.0
 11
904.29913729929979
 21
-376.32522903889998
 31
0.0
  0
LINE
  5
146
  8
┌▓È_1
 10
1000.2991372993
 20
-359.32522903889998
 30
0.0
 11
1000.2991372993
 21
-410.32522903889992
 31
0.0
  0
LINE
  5
147
  8
┌▓È_1
 10
872.29913729929979
 20
-359.32522903889998
 30
0.0
 11
872.29913729929979
 21
-410.32522903889992
 31
0.0
  0
INSERT
  5
148
  8
0
  6
CONTINUOUS
  2
*U22
 10
0.0
 20
0.0
 30
0.0
  0
DIMENSION
  5
155
  8
Éíû@É³
  2
*D23
 10
692.77418286167051
 20
-157.8872576555359
 30
0.0
 11
684.29838860139989
 21
-147.19296992429989
 31
0.0
 70
   133
  1
<>
 13
652.31983130979995
 23
-110.7435884139
 33
0.0
 14
797.81983130979995
 24
-181.2435884139
 34
0.0
 15
652.31983130979995
 25
-181.2435884139
 35
0.0
1001
ACAD
1000
DSTYLE
1002
{
1070
   271
1070
     0
1002
}
  0
DIMENSION
  5
164
  8
Éíû@É³
  2
*D18
 10
674.81983130980007
 20
-271.87360143469999
 30
0.0
 11
661.31983130979995
 21
-271.87360143469999
 31
0.0
 70
   128
  1
<>
 13
674.81983130980007
 23
-292.87360143469999
 33
0.0
 14
647.81983130979995
 24
-291.87360143469999
 34
0.0
  0
LINE
  5
165
  8
┌▓È_1
 62
     5
 10
940.69354003130013
 20
-401.66895229189998
 30
0.0
 11
940.69354003130013
 21
-404.06895229190002
 31
0.0
  0
LINE
  5
166
  8
┌▓È_1
 62
     5
 10
969.53086069159997
 20
-403.82756222619997
 30
0.0
 11
969.24589739600003
 21
-404.10656725690001
 31
0.0
  0
INSERT
  5
167
  8
0
  6
CONTINUOUS
  2
*U24
 10
0.0
 20
0.0
 30
0.0
  0
LINE
  5
168
  8
┌▓È_1
 62
     5
 10
958.55050972829997
 20
-404.86895229189997
 30
0.0
 11
958.55050972829997
 21
-407.26895229190001
 31
0.0
  0
LINE
  5
169
  8
┌▓È_1
 62
     5
 10
958.55050972829997
 20
-404.86895229189997
 30
0.0
 11
960.47050972830004
 21
-404.86895229189997
 31
0.0
  0
LINE
  5
16A
  8
┌▓È_1
 62
     5
 10
979.69848196550004
 20
-396.06895229190002
 30
0.0
 11
986.09848196550001
 21
-396.06895229190002
 31
0.0
  0
LINE
  5
16B
  8
┌▓È_1
 62
     5
 10
971.35050972830004
 20
-398.4689522919
 30
0.0
 11
972.95050972829995
 21
-396.06895229190002
 31
0.0
  0
LINE
  5
16C
  8
┌▓È_1
 62
     5
 10
940.69354003130013
 20
-407.26895229190001
 30
0.0
 11
947.09354003129988
 21
-407.26895229190001
 31
0.0
  0
LINE
  5
16D
  8
┌▓È_1
 62
     5
 10
958.55050972829997
 20
-407.26895229190001
 30
0.0
 11
962.55050972829986
 21
-407.26895229190001
 31
0.0
  0
ARC
  5
16E
  8
┌▓È_1
 62
     5
 10
960.47050972830004
 20
-398.7889522919001
 30
0.0
 40
6.0800000000000001
 50
331.39928138329998
 51
358.49204224580001
  0
LINE
  5
16F
  8
┌▓È_1
 62
     5
 10
951.89354003130006
 20
-401.66895229189998
 30
0.0
 11
954.29354003130004
 21
-401.66895229189998
 31
0.0
  0
ARC
  5
170
  8
┌▓È_1
 62
     5
 10
962.55050972829986
 20
-398.4689522919
 30
0.0
 40
8.8000000000000007
 50
270.0
 51
302.54495885400001
  0
LINE
  5
171
  8
┌▓È_1
 62
     5
 10
938.85177393279992
 20
-401.66895229189998
 30
0.0
 11
940.45177393279994
 21
-401.66895229189998
 31
0.0
  0
LINE
  5
172
  8
┌▓È_1
 62
     5
 10
976.49848196549988
 20
-402.94895229190001
 30
0.0
 11
981.71661529890014
 21
-402.94895229190001
 31
0.0
  0
LINE
  5
173
  8
┌▓È_1
 62
     5
 10
954.29354003130004
 20
-399.26895229190001
 30
0.0
 11
951.89354003130006
 21
-399.26895229190001
 31
0.0
  0
LINE
  5
174
  8
┌▓È_1
 62
     5
 10
951.89354003130006
 20
-399.26895229190001
 30
0.0
 11
951.89354003130006
 21
-398.4689522919
 31
0.0
  0
LINE
  5
175
  8
┌▓È_1
 62
     5
 10
976.49848196549988
 20
-398.7889522919001
 30
0.0
 11
980.49634863220001
 21
-398.7889522919001
 31
0.0
  0
LINE
  5
176
  8
┌▓È_1
 62
     5
 10
947.89354003129995
 20
-401.66895229189998
 30
0.0
 11
947.89354003129995
 21
-402.4689522919
 31
0.0
  0
LINE
  5
177
  8
┌▓È_1
 62
     5
 10
944.69354003130002
 20
-401.66895229189998
 30
0.0
 11
947.89354003129995
 21
-401.66895229189998
 31
0.0
  0
LINE
  5
178
  8
┌▓È_1
 62
     5
 10
987.69848196550004
 20
-408.06895229190002
 30
0.0
 11
987.05388888929986
 21
-405.8289522918999
 31
0.0
  0
LINE
  5
179
  8
┌▓È_1
 62
     5
 10
986.22512636259989
 20
-402.94895229190001
 30
0.0
 11
990.89848196550008
 21
-402.94895229190001
 31
0.0
  0
ARC
  5
17A
  8
┌▓È_1
 62
     5
 10
962.55050972829986
 20
-398.4689522919
 30
0.0
 40
8.8000000000000007
 50
322.48761197969998
 51
0.0
  0
LINE
  5
17B
  8
┌▓È_1
 62
     5
 10
976.49848196549988
 20
-405.8289522918999
 30
0.0
 11
982.56141529889999
 21
-405.8289522918999
 31
0.0
  0
LINE
  5
17C
  8
┌▓È_1
 62
     5
 10
985.02802493520005
 20
-398.7889522919001
 30
0.0
 11
984.79379413490005
 21
-397.97498606710002
 31
0.0
  0
LINE
  5
17D
  8
┌▓È_1
 62
     5
 10
972.95050972829995
 20
-396.06895229190002
 30
0.0
 11
958.55050972829997
 21
-396.06895229190002
 31
0.0
  0
LINE
  5
17E
  8
┌▓È_1
 62
     5
 10
940.69354003130013
 20
-399.26895229190001
 30
0.0
 11
938.85177393279992
 21
-399.26895229190001
 31
0.0
  0
LINE
  5
17F
  8
┌▓È_1
 62
     5
 10
990.89848196550008
 20
-402.94895229190001
 30
0.0
 11
990.89848196550008
 21
-405.8289522918999
 31
0.0
  0
LINE
  5
180
  8
┌▓È_1
 62
     5
 10
981.71661529890014
 20
-402.94895229190001
 30
0.0
 11
981.34114863219986
 21
-401.66895229189998
 31
0.0
  0
LINE
  5
181
  8
┌▓È_1
 62
     5
 10
940.69354003130013
 20
-401.66895229189998
 30
0.0
 11
940.45177393279994
 21
-401.66895229189998
 31
0.0
  0
LINE
  5
182
  8
┌▓È_1
 62
     5
 10
940.69354003130013
 20
-404.86895229189997
 30
0.0
 11
940.69354003130013
 21
-407.26895229190001
 31
0.0
  0
LINE
  5
183
  8
┌▓È_1
 62
     5
 10
986.22512636259989
 20
-402.94895229190001
 30
0.0
 11
985.85678746190001
 21
-401.66895229189998
 31
0.0
  0
LINE
  5
184
  8
┌▓È_1
 62
     5
 10
983.2184819654999
 20
-408.06895229190002
 30
0.0
 11
982.56141529889999
 21
-405.8289522918999
 31
0.0
  0
LINE
  5
185
  8
┌▓È_1
 62
     5
 10
945.49354003130009
 20
-404.86895229189997
 30
0.0
 11
940.69354003130013
 21
-404.86895229189997
 31
0.0
  0
LINE
  5
186
  8
┌▓È_1
 62
     5
 10
958.55050972829997
 20
-398.94895229190001
 30
0.0
 11
966.55050972829997
 21
-398.94895229190001
 31
0.0
  0
LINE
  5
187
  8
┌▓È_1
 62
     5
 10
990.89848196550008
 20
-398.7889522919001
 30
0.0
 11
990.89848196550008
 21
-401.66895229189998
 31
0.0
  0
LINE
  5
188
  8
┌▓È_1
 62
     5
 10
976.49848196549988
 20
-401.66895229189998
 30
0.0
 11
981.34114863219986
 21
-401.66895229189998
 31
0.0
  0
LINE
  5
189
  8
┌▓È_1
 62
     5
 10
976.49848196549988
 20
-402.94895229190001
 30
0.0
 11
976.49848196549988
 21
-405.8289522918999
 31
0.0
  0
LINE
  5
18A
  8
┌▓È_1
 62
     5
 10
944.69354003130002
 20
-404.06895229190002
 30
0.0
 11
944.69354003130002
 21
-401.66895229189998
 31
0.0
  0
LINE
  5
18B
  8
┌▓È_1
 62
     5
 10
987.05388888929986
 20
-405.8289522918999
 30
0.0
 11
990.89848196550008
 21
-405.8289522918999
 31
0.0
  0
LINE
  5
18C
  8
┌▓È_1
 62
     5
 10
954.29354003130004
 20
-396.06895229190002
 30
0.0
 11
947.89354003129995
 21
-396.06895229190002
 31
0.0
  0
LINE
  5
18D
  8
┌▓È_1
 62
     5
 10
958.55050972829997
 20
-396.06895229190002
 30
0.0
 11
958.55050972829997
 21
-398.94895229190001
 31
0.0
  0
ARC
  5
18E
  8
┌▓È_1
 62
     5
 10
947.09354003129988
 20
-402.4689522919
 30
0.0
 40
4.7999999999999989
 50
270.0
 51
0.0
  0
LINE
  5
18F
  8
┌▓È_1
 62
     5
 10
984.79379413490005
 20
-397.97498606710002
 30
0.0
 11
986.09848196550001
 21
-396.06895229190002
 31
0.0
  0
LINE
  5
190
  8
┌▓È_1
 62
     5
 10
947.89354003129995
 20
-399.26895229190001
 30
0.0
 11
944.69354003130002
 21
-399.26895229190001
 31
0.0
  0
LINE
  5
191
  8
┌▓È_1
 62
     5
 10
947.09354003129988
 20
-396.06895229190002
 30
0.0
 11
940.69354003130013
 21
-396.06895229190002
 31
0.0
  0
LINE
  5
192
  8
┌▓È_1
 62
     5
 10
944.69354003130002
 20
-398.4689522919
 30
0.0
 11
947.09354003129988
 21
-396.06895229190002
 31
0.0
  0
LINE
  5
193
  8
┌▓È_1
 62
     5
 10
940.69354003130013
 20
-396.06895229190002
 30
0.0
 11
940.69354003130013
 21
-399.26895229190001
 31
0.0
  0
LINE
  5
194
  8
┌▓È_1
 62
     5
 10
980.49634863220001
 20
-398.7889522919001
 30
0.0
 11
979.69848196550004
 21
-396.06895229190002
 31
0.0
  0
LINE
  5
195
  8
┌▓È_1
 62
     5
 10
985.02802493520005
 20
-398.7889522919001
 30
0.0
 11
990.89848196550008
 21
-398.7889522919001
 31
0.0
  0
INSERT
  5
196
  8
0
  6
CONTINUOUS
  2
*U25
 10
0.0
 20
0.0
 30
0.0
  0
INSERT
  5
197
  8
0
  6
CONTINUOUS
  2
*U26
 10
0.0
 20
0.0
 30
0.0
  0
INSERT
  5
198
  8
0
  6
CONTINUOUS
  2
*U27
 10
0.0
 20
0.0
 30
0.0
  0
ARC
  5
199
  8
┌▓È_1
 62
     5
 10
960.47050972830004
 20
-398.7889522919001
 30
0.0
 40
6.0800000000000001
 50
270.0
 51
298.08590481520002
  0
INSERT
  5
19A
  8
0
  6
CONTINUOUS
  2
*U28
 10
0.0
 20
0.0
 30
0.0
  0
INSERT
  5
19B
  8
0
  6
CONTINUOUS
  2
*U29
 10
0.0
 20
0.0
 30
0.0
  0
INSERT
  5
19C
  8
0
  6
CONTINUOUS
  2
*U30
 10
0.0
 20
0.0
 30
0.0
  0
INSERT
  5
19D
  8
0
  6
CONTINUOUS
  2
*U31
 10
0.0
 20
0.0
 30
0.0
  0
INSERT
  5
19E
  8
0
  6
CONTINUOUS
  2
*U32
 10
0.0
 20
0.0
 30
0.0
  0
INSERT
  5
19F
  8
0
  6
CONTINUOUS
  2
*U33
 10
0.0
 20
0.0
 30
0.0
  0
INSERT
  5
1A0
  8
0
  6
CONTINUOUS
  2
*U34
 10
0.0
 20
0.0
 30
0.0
  0
INSERT
  5
1A1
  8
0
  6
CONTINUOUS
  2
*U35
 10
0.0
 20
0.0
 30
0.0
  0
INSERT
  5
1A2
  8
0
  6
CONTINUOUS
  2
*U36
 10
0.0
 20
0.0
 30
0.0
  0
LINE
  5
1A3
  8
┌▓È_1
 10
940.29913729929979
 20
-384.82522903889998
 30
0.0
 11
964.29913729929979
 21
-384.82522903889998
 31
0.0
  0
LINE
  5
1A4
  8
┌▓È_1
 10
940.29913729929979
 20
-367.82522903889998
 30
0.0
 11
964.29913729929979
 21
-367.82522903889998
 31
0.0
  0
LINE
  5
1A5
  8
┌▓È_1
 10
876.2991372992999
 20
-384.82522903889998
 30
0.0
 11
932.29913729930001
 21
-384.82522903889998
 31
0.0
  0
LINE
  5
1A6
  8
┌▓È_1
 10
908.2991372992999
 20
-367.82522903889998
 30
0.0
 11
932.29913729930001
 21
-367.82522903889998
 31
0.0
  0
LINE
  5
1A7
  8
┌▓È_1
 10
876.2991372992999
 20
-367.82522903889998
 30
0.0
 11
900.2991372992999
 21
-367.82522903889998
 31
0.0
  0
LINE
  5
1A8
  8
┌▓È_1
 10
936.2991372992999
 20
-359.32522903889998
 30
0.0
 11
936.2991372992999
 21
-393.32522903889998
 31
0.0
  0
LINE
  5
1A9
  8
┌▓È_1
 62
     5
 10
964.95050972829995
 20
-399.78432871979999
 30
0.0
 11
964.04541304839995
 21
-400.68942539979997
 31
0.0
  0
LINE
  5
1AA
  8
┌▓È_1
 62
     5
 10
958.55050972829997
 20
-400.29970514780001
 30
0.0
 11
958.55050972829997
 21
-399.78432871979999
 31
0.0
  0
LINE
  5
1AB
  8
┌▓È_1
 62
     5
 10
938.85177393279992
 20
-399.26895229190001
 30
0.0
 11
938.85177393279992
 21
-401.66895229189998
 31
0.0
  0
LINE
  5
1AC
  8
┌▓È_1
 62
     5
 10
954.29354003130004
 20
-399.26895229190001
 30
0.0
 11
954.29354003130004
 21
-401.66895229189998
 31
0.0
  0
LINE
  5
1AD
  8
┌▓È_1
 62
     5
 10
983.2184819654999
 20
-408.06895229190002
 30
0.0
 11
987.69848196550004
 21
-408.06895229190002
 31
0.0
  0
LINE
  5
1AE
  8
┌▓È_1
 62
     5
 10
944.69354003130002
 20
-399.26895229190001
 30
0.0
 11
944.69354003130002
 21
-398.4689522919
 31
0.0
  0
LINE
  5
1AF
  8
┌▓È_1
 62
     5
 10
958.55050972829997
 20
-407.26895229190001
 30
0.0
 11
958.55050972829997
 21
-404.86895229189997
 31
0.0
  0
LINE
  5
1B0
  8
┌▓È_1
  6
STITCH
 10
649.81983130980007
 20
-116.2435884139
 30
0.0
 11
647.31983130979995
 21
-116.2435884139
 31
0.0
  0
LINE
  5
1B1
  8
┌▓È_1
  6
STITCH
 10
649.81983130980007
 20
-116.2435884139
 30
0.0
 11
649.81983130980007
 21
-121.2435884139
 31
0.0
  0
LINE
  5
1B2
  8
┌▓È_1
 62
     5
 10
1029.7431802681001
 20
-237.70114049719999
 30
0.0
 11
1029.7431802681001
 21
-251.45114049719999
 31
0.0
  0
LINE
  5
1B3
  8
┌▓È_1
 62
     5
 10
1004.7431802681
 20
-237.70114049719999
 30
0.0
 11
1004.7431802681
 21
-251.45114049719999
 31
0.0
  0
LINE
  5
1B4
  8
┌▓È_1
  6
BORDER
 62
     3
 10
1017.2431802681
 20
-222.4344191431
 30
0.0
 11
1017.2431802681
 21
-255.9344191431
 31
0.0
  0
LINE
  5
1B5
  8
┌▓È_1
 62
     5
 10
647.81983130979995
 20
-307.87360143469999
 30
0.0
 11
797.81983130979995
 21
-307.87360143469999
 31
0.0
  0
LINE
  5
1B6
  8
┌▓È_1
 62
     5
 10
797.81983130979995
 20
-307.87360143469999
 30
0.0
 11
797.81983130979995
 21
-291.87360143469999
 31
0.0
  0
LINE
  5
1B7
  8
┌▓È_1
  6
BORDER
 62
     3
 10
789.81983130979995
 20
-292.87360143469999
 30
0.0
 11
789.81983130979995
 21
-306.87360143469999
 31
0.0
  0
CIRCLE
  5
1B8
  8
┌▓È_1
 62
     5
 10
789.81983130979995
 20
-299.87360143469999
 30
0.0
 40
2.5
  0
CIRCLE
  5
1B9
  8
┌▓È_1
 62
     5
 10
674.81983130980007
 20
-299.87360143469999
 30
0.0
 40
2.5
  0
LINE
  5
1BA
  8
┌▓È_1
  6
BORDER
 62
     3
 10
674.81983130980007
 20
-292.87360143469999
 30
0.0
 11
674.81983130980007
 21
-306.87360143469999
 31
0.0
  0
LINE
  5
1BB
  8
┌▓È_1
 62
     5
 10
647.81983130979995
 20
-291.87360143469999
 30
0.0
 11
647.81983130979995
 21
-307.87360143469999
 31
0.0
  0
LINE
  5
1BC
  8
┌▓È_1
  6
STITCH
 10
652.81983130979995
 20
-291.87360143469999
 30
0.0
 11
652.81983130979995
 21
-307.87360143469999
 31
0.0
  0
CIRCLE
  5
1BD
  8
┌▓È_1
  6
STITCH
 10
674.81983130980007
 20
-299.87360143469999
 30
0.0
 40
5.0
  0
CIRCLE
  5
1BE
  8
┌▓È_1
  6
STITCH
 10
789.81983130979995
 20
-299.87360143469999
 30
0.0
 40
5.0
  0
POLYLINE
  8
┌▓È_1
  5
27E
  62
5
  66
     1
 10
0.000000
 20
0.000000
 30
0.000000
  70
     8
  0
VERTEX
  8
┌▓È_1
  5
27F
 10
969.246
 20
-404.107
 30
0.000000
  70
    32
  0
VERTEX
  8
┌▓È_1
  5
280
 10
969.274
 20
-404.114
 30
0.000000
  70
    32
  0
VERTEX
  8
┌▓È_1
  5
281
 10
969.302
 20
-404.122
 30
0.000000
  70
    32
  0
VERTEX
  8
┌▓È_1
  5
282
 10
969.330
 20
-404.130
 30
0.000000
  70
    32
  0
VERTEX
  8
┌▓È_1
  5
283
 10
969.358
 20
-404.138
 30
0.000000
  70
    32
  0
VERTEX
  8
┌▓È_1
  5
284
 10
969.386
 20
-404.146
 30
0.000000
  70
    32
  0
VERTEX
  8
┌▓È_1
  5
285
 10
969.414
 20
-404.153
 30
0.000000
  70
    32
  0
VERTEX
  8
┌▓È_1
  5
286
 10
969.442
 20
-404.161
 30
0.000000
  70
    32
  0
VERTEX
  8
┌▓È_1
  5
287
 10
969.470
 20
-404.169
 30
0.000000
  70
    32
  0
VERTEX
  8
┌▓È_1
  5
288
 10
969.499
 20
-404.176
 30
0.000000
  70
    32
  0
VERTEX
  8
┌▓È_1
  5
289
 10
969.527
 20
-404.184
 30
0.000000
  70
    32
  0
VERTEX
  8
┌▓È_1
  5
28A
 10
969.555
 20
-404.191
 30
0.000000
  70
    32
  0
VERTEX
  8
┌▓È_1
  5
28B
 10
969.583
 20
-404.199
 30
0.000000
  70
    32
  0
VERTEX
  8
┌▓È_1
  5
28C
 10
969.612
 20
-404.206
 30
0.000000
  70
    32
  0
VERTEX
  8
┌▓È_1
  5
28D
 10
969.640
 20
-404.214
 30
0.000000
  70
    32
  0
VERTEX
  8
┌▓È_1
  5
28E
 10
969.668
 20
-404.221
 30
0.000000
  70
    32
  0
VERTEX
  8
┌▓È_1
  5
28F
 10
969.697
 20
-404.228
 30
0.000000
  70
    32
  0
VERTEX
  8
┌▓È_1
  5
290
 10
969.725
 20
-404.235
 30
0.000000
  70
    32
  0
VERTEX
  8
┌▓È_1
  5
291
 10
969.754
 20
-404.243
 30
0.000000
  70
    32
  0
VERTEX
  8
┌▓È_1
  5
292
 10
969.782
 20
-404.250
 30
0.000000
  70
    32
  0
VERTEX
  8
┌▓È_1
  5
293
 10
969.811
 20
-404.257
 30
0.000000
  70
    32
  0
VERTEX
  8
┌▓È_1
  5
294
 10
969.839
 20
-404.264
 30
0.000000
  70
    32
  0
VERTEX
  8
┌▓È_1
  5
295
 10
969.868
 20
-404.271
 30
0.000000
  70
    32
  0
VERTEX
  8
┌▓È_1
  5
296
 10
969.896
 20
-404.278
 30
0.000000
  70
    32
  0
VERTEX
  8
┌▓È_1
  5
297
 10
969.925
 20
-404.285
 30
0.000000
  70
    32
  0
VERTEX
  8
┌▓È_1
  5
298
 10
969.953
 20
-404.292
 30
0.000000
  70
    32
  0
VERTEX
  8
┌▓È_1
  5
299
 10
969.982
 20
-404.299
 30
0.000000
  70
    32
  0
VERTEX
  8
┌▓È_1
  5
29A
 10
970.010
 20
-404.306
 30
0.000000
  70
    32
  0
VERTEX
  8
┌▓È_1
  5
29B
 10
970.039
 20
-404.312
 30
0.000000
  70
    32
  0
VERTEX
  8
┌▓È_1
  5
29C
 10
970.068
 20
-404.319
 30
0.000000
  70
    32
  0
VERTEX
  8
┌▓È_1
  5
29D
 10
970.097
 20
-404.326
 30
0.000000
  70
    32
  0
VERTEX
  8
┌▓È_1
  5
29E
 10
970.125
 20
-404.333
 30
0.000000
  70
    32
  0
VERTEX
  8
┌▓È_1
  5
29F
 10
970.154
 20
-404.339
 30
0.000000
  70
    32
  0
VERTEX
  8
┌▓È_1
  5
2A0
 10
970.183
 20
-404.346
 30
0.000000
  70
    32
  0
VERTEX
  8
┌▓È_1
  5
2A1
 10
970.212
 20
-404.353
 30
0.000000
  70
    32
  0
VERTEX
  8
┌▓È_1
  5
2A2
 10
970.240
 20
-404.359
 30
0.000000
  70
    32
  0
VERTEX
  8
┌▓È_1
  5
2A3
 10
970.269
 20
-404.366
 30
0.000000
  70
    32
  0
VERTEX
  8
┌▓È_1
  5
2A4
 10
970.298
 20
-404.372
 30
0.000000
  70
    32
  0
VERTEX
  8
┌▓È_1
  5
2A5
 10
970.327
 20
-404.379
 30
0.000000
  70
    32
  0
VERTEX
  8
┌▓È_1
  5
2A6
 10
970.356
 20
-404.385
 30
0.000000
  70
    32
  0
VERTEX
  8
┌▓È_1
  5
2A7
 10
970.385
 20
-404.392
 30
0.000000
  70
    32
  0
VERTEX
  8
┌▓È_1
  5
2A8
 10
970.414
 20
-404.398
 30
0.000000
  70
    32
  0
VERTEX
  8
┌▓È_1
  5
2A9
 10
970.443
 20
-404.404
 30
0.000000
  70
    32
  0
VERTEX
  8
┌▓È_1
  5
2AA
 10
970.472
 20
-404.411
 30
0.000000
  70
    32
  0
VERTEX
  8
┌▓È_1
  5
2AB
 10
970.501
 20
-404.417
 30
0.000000
  70
    32
  0
VERTEX
  8
┌▓È_1
  5
2AC
 10
970.530
 20
-404.423
 30
0.000000
  70
    32
  0
VERTEX
  8
┌▓È_1
  5
2AD
 10
970.559
 20
-404.430
 30
0.000000
  70
    32
  0
VERTEX
  8
┌▓È_1
  5
2AE
 10
970.588
 20
-404.436
 30
0.000000
  70
    32
  0
VERTEX
  8
┌▓È_1
  5
2AF
 10
970.617
 20
-404.442
 30
0.000000
  70
    32
  0
VERTEX
  8
┌▓È_1
  5
2B0
 10
970.646
 20
-404.448
 30
0.000000
  70
    32
  0
VERTEX
  8
┌▓È_1
  5
2B1
 10
970.675
 20
-404.454
 30
0.000000
  70
    32
  0
VERTEX
  8
┌▓È_1
  5
2B2
 10
970.704
 20
-404.460
 30
0.000000
  70
    32
  0
VERTEX
  8
┌▓È_1
  5
2B3
 10
970.733
 20
-404.466
 30
0.000000
  70
    32
  0
VERTEX
  8
┌▓È_1
  5
2B4
 10
970.762
 20
-404.472
 30
0.000000
  70
    32
  0
VERTEX
  8
┌▓È_1
  5
2B5
 10
970.792
 20
-404.478
 30
0.000000
  70
    32
  0
VERTEX
  8
┌▓È_1
  5
2B6
 10
970.821
 20
-404.484
 30
0.000000
  70
    32
  0
VERTEX
  8
┌▓È_1
  5
2B7
 10
970.850
 20
-404.490
 30
0.000000
  70
    32
  0
VERTEX
  8
┌▓È_1
  5
2B8
 10
970.879
 20
-404.496
 30
0.000000
  70
    32
  0
VERTEX
  8
┌▓È_1
  5
2B9
 10
970.908
 20
-404.502
 30
0.000000
  70
    32
  0
VERTEX
  8
┌▓È_1
  5
2BA
 10
970.938
 20
-404.508
 30
0.000000
  70
    32
  0
VERTEX
  8
┌▓È_1
  5
2BB
 10
970.967
 20
-404.514
 30
0.000000
  70
    32
  0
VERTEX
  8
┌▓È_1
  5
2BC
 10
970.996
 20
-404.520
 30
0.000000
  70
    32
  0
VERTEX
  8
┌▓È_1
  5
2BD
 10
971.025
 20
-404.525
 30
0.000000
  70
    32
  0
VERTEX
  8
┌▓È_1
  5
2BE
 10
971.055
 20
-404.531
 30
0.000000
  70
    32
  0
VERTEX
  8
┌▓È_1
  5
2BF
 10
971.084
 20
-404.537
 30
0.000000
  70
    32
  0
VERTEX
  8
┌▓È_1
  5
2C0
 10
971.113
 20
-404.543
 30
0.000000
  70
    32
  0
VERTEX
  8
┌▓È_1
  5
2C1
 10
971.143
 20
-404.548
 30
0.000000
  70
    32
  0
VERTEX
  8
┌▓È_1
  5
2C2
 10
971.172
 20
-404.554
 30
0.000000
  70
    32
  0
VERTEX
  8
┌▓È_1
  5
2C3
 10
971.201
 20
-404.560
 30
0.000000
  70
    32
  0
VERTEX
  8
┌▓È_1
  5
2C4
 10
971.231
 20
-404.566
 30
0.000000
  70
    32
  0
VERTEX
  8
┌▓È_1
  5
2C5
 10
971.260
 20
-404.571
 30
0.000000
  70
    32
  0
VERTEX
  8
┌▓È_1
  5
2C6
 10
971.290
 20
-404.577
 30
0.000000
  70
    32
  0
VERTEX
  8
┌▓È_1
  5
2C7
 10
971.319
 20
-404.582
 30
0.000000
  70
    32
  0
VERTEX
  8
┌▓È_1
  5
2C8
 10
971.349
 20
-404.588
 30
0.000000
  70
    32
  0
VERTEX
  8
┌▓È_1
  5
2C9
 10
971.378
 20
-404.593
 30
0.000000
  70
    32
  0
VERTEX
  8
┌▓È_1
  5
2CA
 10
971.407
 20
-404.599
 30
0.000000
  70
    32
  0
VERTEX
  8
┌▓È_1
  5
2CB
 10
971.437
 20
-404.604
 30
0.000000
  70
    32
  0
VERTEX
  8
┌▓È_1
  5
2CC
 10
971.466
 20
-404.610
 30
0.000000
  70
    32
  0
VERTEX
  8
┌▓È_1
  5
2CD
 10
971.496
 20
-404.615
 30
0.000000
  70
    32
  0
VERTEX
  8
┌▓È_1
  5
2CE
 10
971.525
 20
-404.621
 30
0.000000
  70
    32
  0
VERTEX
  8
┌▓È_1
  5
2CF
 10
971.555
 20
-404.626
 30
0.000000
  70
    32
  0
VERTEX
  8
┌▓È_1
  5
2D0
 10
971.584
 20
-404.632
 30
0.000000
  70
    32
  0
VERTEX
  8
┌▓È_1
  5
2D1
 10
971.614
 20
-404.637
 30
0.000000
  70
    32
  0
VERTEX
  8
┌▓È_1
  5
2D2
 10
971.644
 20
-404.643
 30
0.000000
  70
    32
  0
VERTEX
  8
┌▓È_1
  5
2D3
 10
971.673
 20
-404.648
 30
0.000000
  70
    32
  0
VERTEX
  8
┌▓È_1
  5
2D4
 10
971.703
 20
-404.653
 30
0.000000
  70
    32
  0
VERTEX
  8
┌▓È_1
  5
2D5
 10
971.732
 20
-404.659
 30
0.000000
  70
    32
  0
VERTEX
  8
┌▓È_1
  5
2D6
 10
971.762
 20
-404.664
 30
0.000000
  70
    32
  0
VERTEX
  8
┌▓È_1
  5
2D7
 10
971.791
 20
-404.669
 30
0.000000
  70
    32
  0
VERTEX
  8
┌▓È_1
  5
2D8
 10
971.821
 20
-404.675
 30
0.000000
  70
    32
  0
VERTEX
  8
┌▓È_1
  5
2D9
 10
971.851
 20
-404.680
 30
0.000000
  70
    32
  0
VERTEX
  8
┌▓È_1
  5
2DA
 10
971.880
 20
-404.685
 30
0.000000
  70
    32
  0
VERTEX
  8
┌▓È_1
  5
2DB
 10
971.910
 20
-404.690
 30
0.000000
  70
    32
  0
VERTEX
  8
┌▓È_1
  5
2DC
 10
971.940
 20
-404.696
 30
0.000000
  70
    32
  0
VERTEX
  8
┌▓È_1
  5
2DD
 10
971.969
 20
-404.701
 30
0.000000
  70
    32
  0
VERTEX
  8
┌▓È_1
  5
2DE
 10
971.999
 20
-404.706
 30
0.000000
  70
    32
  0
VERTEX
  8
┌▓È_1
  5
2DF
 10
972.029
 20
-404.711
 30
0.000000
  70
    32
  0
VERTEX
  8
┌▓È_1
  5
2E0
 10
972.058
 20
-404.716
 30
0.000000
  70
    32
  0
VERTEX
  8
┌▓È_1
  5
2E1
 10
972.088
 20
-404.722
 30
0.000000
  70
    32
  0
VERTEX
  8
┌▓È_1
  5
2E2
 10
972.118
 20
-404.727
 30
0.000000
  70
    32
  0
VERTEX
  8
┌▓È_1
  5
2E3
 10
972.147
 20
-404.732
 30
0.000000
  70
    32
  0
VERTEX
  8
┌▓È_1
  5
2E4
 10
972.177
 20
-404.737
 30
0.000000
  70
    32
  0
VERTEX
  8
┌▓È_1
  5
2E5
 10
972.207
 20
-404.742
 30
0.000000
  70
    32
  0
VERTEX
  8
┌▓È_1
  5
2E6
 10
972.236
 20
-404.747
 30
0.000000
  70
    32
  0
VERTEX
  8
┌▓È_1
  5
2E7
 10
972.266
 20
-404.753
 30
0.000000
  70
    32
  0
VERTEX
  8
┌▓È_1
  5
2E8
 10
972.296
 20
-404.758
 30
0.000000
  70
    32
  0
VERTEX
  8
┌▓È_1
  5
2E9
 10
972.326
 20
-404.763
 30
0.000000
  70
    32
  0
VERTEX
  8
┌▓È_1
  5
2EA
 10
972.355
 20
-404.768
 30
0.000000
  70
    32
  0
VERTEX
  8
┌▓È_1
  5
2EB
 10
972.385
 20
-404.773
 30
0.000000
  70
    32
  0
VERTEX
  8
┌▓È_1
  5
2EC
 10
972.415
 20
-404.778
 30
0.000000
  70
    32
  0
VERTEX
  8
┌▓È_1
  5
2ED
 10
972.445
 20
-404.783
 30
0.000000
  70
    32
  0
VERTEX
  8
┌▓È_1
  5
2EE
 10
972.474
 20
-404.788
 30
0.000000
  70
    32
  0
VERTEX
  8
┌▓È_1
  5
2EF
 10
972.504
 20
-404.793
 30
0.000000
  70
    32
  0
VERTEX
  8
┌▓È_1
  5
2F0
 10
972.534
 20
-404.798
 30
0.000000
  70
    32
  0
VERTEX
  8
┌▓È_1
  5
2F1
 10
972.564
 20
-404.803
 30
0.000000
  70
    32
  0
VERTEX
  8
┌▓È_1
  5
2F2
 10
972.593
 20
-404.809
 30
0.000000
  70
    32
  0
VERTEX
  8
┌▓È_1
  5
2F3
 10
972.623
 20
-404.814
 30
0.000000
  70
    32
  0
VERTEX
  8
┌▓È_1
  5
2F4
 10
972.653
 20
-404.819
 30
0.000000
  70
    32
  0
VERTEX
  8
┌▓È_1
  5
2F5
 10
972.683
 20
-404.824
 30
0.000000
  70
    32
  0
VERTEX
  8
┌▓È_1
  5
2F6
 10
972.712
 20
-404.829
 30
0.000000
  70
    32
  0
VERTEX
  8
┌▓È_1
  5
2F7
 10
972.742
 20
-404.834
 30
0.000000
  70
    32
  0
VERTEX
  8
┌▓È_1
  5
2F8
 10
972.772
 20
-404.839
 30
0.000000
  70
    32
  0
VERTEX
  8
┌▓È_1
  5
2F9
 10
972.802
 20
-404.844
 30
0.000000
  70
    32
  0
VERTEX
  8
┌▓È_1
  5
2FA
 10
972.831
 20
-404.849
 30
0.000000
  70
    32
  0
VERTEX
  8
┌▓È_1
  5
2FB
 10
972.861
 20
-404.854
 30
0.000000
  70
    32
  0
VERTEX
  8
┌▓È_1
  5
2FC
 10
972.891
 20
-404.859
 30
0.000000
  70
    32
  0
VERTEX
  8
┌▓È_1
  5
2FD
 10
972.921
 20
-404.864
 30
0.000000
  70
    32
  0
VERTEX
  8
┌▓È_1
  5
2FE
 10
972.951
 20
-404.869
 30
0.000000
  70
    32
  0
SEQEND
  8
┌▓È_1
  5
2FF
  0
POLYLINE
  8
┌▓È_1
  5
300
  62
5
  66
     1
 10
0.000000
 20
0.000000
 30
0.000000
  70
     8
  0
VERTEX
  8
┌▓È_1
  5
301
 10
958.551
 20
-400.300
 30
0.000000
  70
    32
  0
VERTEX
  8
┌▓È_1
  5
302
 10
958.579
 20
-400.326
 30
0.000000
  70
    32
  0
VERTEX
  8
┌▓È_1
  5
303
 10
958.608
 20
-400.353
 30
0.000000
  70
    32
  0
VERTEX
  8
┌▓È_1
  5
304
 10
958.637
 20
-400.379
 30
0.000000
  70
    32
  0
VERTEX
  8
┌▓È_1
  5
305
 10
958.666
 20
-400.406
 30
0.000000
  70
    32
  0
VERTEX
  8
┌▓È_1
  5
306
 10
958.695
 20
-400.433
 30
0.000000
  70
    32
  0
VERTEX
  8
┌▓È_1
  5
307
 10
958.723
 20
-400.459
 30
0.000000
  70
    32
  0
VERTEX
  8
┌▓È_1
  5
308
 10
958.752
 20
-400.486
 30
0.000000
  70
    32
  0
VERTEX
  8
┌▓È_1
  5
309
 10
958.781
 20
-400.512
 30
0.000000
  70
    32
  0
VERTEX
  8
┌▓È_1
  5
30A
 10
958.810
 20
-400.539
 30
0.000000
  70
    32
  0
VERTEX
  8
┌▓È_1
  5
30B
 10
958.839
 20
-400.565
 30
0.000000
  70
    32
  0
VERTEX
  8
┌▓È_1
  5
30C
 10
958.868
 20
-400.592
 30
0.000000
  70
    32
  0
VERTEX
  8
┌▓È_1
  5
30D
 10
958.896
 20
-400.618
 30
0.000000
  70
    32
  0
VERTEX
  8
┌▓È_1
  5
30E
 10
958.925
 20
-400.645
 30
0.000000
  70
    32
  0
VERTEX
  8
┌▓È_1
  5
30F
 10
958.954
 20
-400.671
 30
0.000000
  70
    32
  0
VERTEX
  8
┌▓È_1
  5
310
 10
958.983
 20
-400.698
 30
0.000000
  70
    32
  0
VERTEX
  8
┌▓È_1
  5
311
 10
959.012
 20
-400.724
 30
0.000000
  70
    32
  0
VERTEX
  8
┌▓È_1
  5
312
 10
959.041
 20
-400.751
 30
0.000000
  70
    32
  0
VERTEX
  8
┌▓È_1
  5
313
 10
959.070
 20
-400.777
 30
0.000000
  70
    32
  0
VERTEX
  8
┌▓È_1
  5
314
 10
959.098
 20
-400.804
 30
0.000000
  70
    32
  0
VERTEX
  8
┌▓È_1
  5
315
 10
959.127
 20
-400.830
 30
0.000000
  70
    32
  0
VERTEX
  8
┌▓È_1
  5
316
 10
959.156
 20
-400.857
 30
0.000000
  70
    32
  0
VERTEX
  8
┌▓È_1
  5
317
 10
959.185
 20
-400.883
 30
0.000000
  70
    32
  0
VERTEX
  8
┌▓È_1
  5
318
 10
959.214
 20
-400.910
 30
0.000000
  70
    32
  0
VERTEX
  8
┌▓È_1
  5
319
 10
959.243
 20
-400.936
 30
0.000000
  70
    32
  0
VERTEX
  8
┌▓È_1
  5
31A
 10
959.272
 20
-400.962
 30
0.000000
  70
    32
  0
VERTEX
  8
┌▓È_1
  5
31B
 10
959.301
 20
-400.989
 30
0.000000
  70
    32
  0
VERTEX
  8
┌▓È_1
  5
31C
 10
959.330
 20
-401.015
 30
0.000000
  70
    32
  0
VERTEX
  8
┌▓È_1
  5
31D
 10
959.359
 20
-401.041
 30
0.000000
  70
    32
  0
VERTEX
  8
┌▓È_1
  5
31E
 10
959.387
 20
-401.068
 30
0.000000
  70
    32
  0
VERTEX
  8
┌▓È_1
  5
31F
 10
959.416
 20
-401.094
 30
0.000000
  70
    32
  0
VERTEX
  8
┌▓È_1
  5
320
 10
959.445
 20
-401.120
 30
0.000000
  70
    32
  0
VERTEX
  8
┌▓È_1
  5
321
 10
959.474
 20
-401.147
 30
0.000000
  70
    32
  0
VERTEX
  8
┌▓È_1
  5
322
 10
959.503
 20
-401.173
 30
0.000000
  70
    32
  0
VERTEX
  8
┌▓È_1
  5
323
 10
959.532
 20
-401.199
 30
0.000000
  70
    32
  0
VERTEX
  8
┌▓È_1
  5
324
 10
959.561
 20
-401.226
 30
0.000000
  70
    32
  0
VERTEX
  8
┌▓È_1
  5
325
 10
959.590
 20
-401.252
 30
0.000000
  70
    32
  0
VERTEX
  8
┌▓È_1
  5
326
 10
959.619
 20
-401.278
 30
0.000000
  70
    32
  0
VERTEX
  8
┌▓È_1
  5
327
 10
959.648
 20
-401.304
 30
0.000000
  70
    32
  0
VERTEX
  8
┌▓È_1
  5
328
 10
959.677
 20
-401.330
 30
0.000000
  70
    32
  0
VERTEX
  8
┌▓È_1
  5
329
 10
959.706
 20
-401.356
 30
0.000000
  70
    32
  0
VERTEX
  8
┌▓È_1
  5
32A
 10
959.735
 20
-401.382
 30
0.000000
  70
    32
  0
VERTEX
  8
┌▓È_1
  5
32B
 10
959.765
 20
-401.409
 30
0.000000
  70
    32
  0
VERTEX
  8
┌▓È_1
  5
32C
 10
959.794
 20
-401.435
 30
0.000000
  70
    32
  0
VERTEX
  8
┌▓È_1
  5
32D
 10
959.823
 20
-401.461
 30
0.000000
  70
    32
  0
VERTEX
  8
┌▓È_1
  5
32E
 10
959.852
 20
-401.487
 30
0.000000
  70
    32
  0
VERTEX
  8
┌▓È_1
  5
32F
 10
959.881
 20
-401.513
 30
0.000000
  70
    32
  0
VERTEX
  8
┌▓È_1
  5
330
 10
959.910
 20
-401.539
 30
0.000000
  70
    32
  0
VERTEX
  8
┌▓È_1
  5
331
 10
959.939
 20
-401.565
 30
0.000000
  70
    32
  0
VERTEX
  8
┌▓È_1
  5
332
 10
959.968
 20
-401.591
 30
0.000000
  70
    32
  0
VERTEX
  8
┌▓È_1
  5
333
 10
959.998
 20
-401.616
 30
0.000000
  70
    32
  0
VERTEX
  8
┌▓È_1
  5
334
 10
960.027
 20
-401.642
 30
0.000000
  70
    32
  0
VERTEX
  8
┌▓È_1
  5
335
 10
960.056
 20
-401.668
 30
0.000000
  70
    32
  0
VERTEX
  8
┌▓È_1
  5
336
 10
960.085
 20
-401.694
 30
0.000000
  70
    32
  0
VERTEX
  8
┌▓È_1
  5
337
 10
960.115
 20
-401.720
 30
0.000000
  70
    32
  0
VERTEX
  8
┌▓È_1
  5
338
 10
960.144
 20
-401.745
 30
0.000000
  70
    32
  0
VERTEX
  8
┌▓È_1
  5
339
 10
960.173
 20
-401.771
 30
0.000000
  70
    32
  0
VERTEX
  8
┌▓È_1
  5
33A
 10
960.202
 20
-401.797
 30
0.000000
  70
    32
  0
VERTEX
  8
┌▓È_1
  5
33B
 10
960.232
 20
-401.822
 30
0.000000
  70
    32
  0
VERTEX
  8
┌▓È_1
  5
33C
 10
960.261
 20
-401.848
 30
0.000000
  70
    32
  0
VERTEX
  8
┌▓È_1
  5
33D
 10
960.290
 20
-401.874
 30
0.000000
  70
    32
  0
VERTEX
  8
┌▓È_1
  5
33E
 10
960.320
 20
-401.899
 30
0.000000
  70
    32
  0
VERTEX
  8
┌▓È_1
  5
33F
 10
960.349
 20
-401.925
 30
0.000000
  70
    32
  0
VERTEX
  8
┌▓È_1
  5
340
 10
960.379
 20
-401.950
 30
0.000000
  70
    32
  0
VERTEX
  8
┌▓È_1
  5
341
 10
960.408
 20
-401.976
 30
0.000000
  70
    32
  0
VERTEX
  8
┌▓È_1
  5
342
 10
960.437
 20
-402.001
 30
0.000000
  70
    32
  0
VERTEX
  8
┌▓È_1
  5
343
 10
960.467
 20
-402.026
 30
0.000000
  70
    32
  0
VERTEX
  8
┌▓È_1
  5
344
 10
960.496
 20
-402.052
 30
0.000000
  70
    32
  0
VERTEX
  8
┌▓È_1
  5
345
 10
960.526
 20
-402.077
 30
0.000000
  70
    32
  0
VERTEX
  8
┌▓È_1
  5
346
 10
960.555
 20
-402.102
 30
0.000000
  70
    32
  0
VERTEX
  8
┌▓È_1
  5
347
 10
960.585
 20
-402.128
 30
0.000000
  70
    32
  0
VERTEX
  8
┌▓È_1
  5
348
 10
960.614
 20
-402.153
 30
0.000000
  70
    32
  0
VERTEX
  8
┌▓È_1
  5
349
 10
960.644
 20
-402.178
 30
0.000000
  70
    32
  0
VERTEX
  8
┌▓È_1
  5
34A
 10
960.674
 20
-402.203
 30
0.000000
  70
    32
  0
VERTEX
  8
┌▓È_1
  5
34B
 10
960.703
 20
-402.228
 30
0.000000
  70
    32
  0
VERTEX
  8
┌▓È_1
  5
34C
 10
960.733
 20
-402.253
 30
0.000000
  70
    32
  0
VERTEX
  8
┌▓È_1
  5
34D
 10
960.763
 20
-402.278
 30
0.000000
  70
    32
  0
VERTEX
  8
┌▓È_1
  5
34E
 10
960.792
 20
-402.303
 30
0.000000
  70
    32
  0
VERTEX
  8
┌▓È_1
  5
34F
 10
960.822
 20
-402.328
 30
0.000000
  70
    32
  0
VERTEX
  8
┌▓È_1
  5
350
 10
960.852
 20
-402.353
 30
0.000000
  70
    32
  0
VERTEX
  8
┌▓È_1
  5
351
 10
960.881
 20
-402.378
 30
0.000000
  70
    32
  0
VERTEX
  8
┌▓È_1
  5
352
 10
960.911
 20
-402.402
 30
0.000000
  70
    32
  0
VERTEX
  8
┌▓È_1
  5
353
 10
960.941
 20
-402.427
 30
0.000000
  70
    32
  0
VERTEX
  8
┌▓È_1
  5
354
 10
960.971
 20
-402.452
 30
0.000000
  70
    32
  0
VERTEX
  8
┌▓È_1
  5
355
 10
961.001
 20
-402.476
 30
0.000000
  70
    32
  0
VERTEX
  8
┌▓È_1
  5
356
 10
961.031
 20
-402.501
 30
0.000000
  70
    32
  0
VERTEX
  8
┌▓È_1
  5
357
 10
961.061
 20
-402.526
 30
0.000000
  70
    32
  0
VERTEX
  8
┌▓È_1
  5
358
 10
961.091
 20
-402.550
 30
0.000000
  70
    32
  0
VERTEX
  8
┌▓È_1
  5
359
 10
961.120
 20
-402.575
 30
0.000000
  70
    32
  0
VERTEX
  8
┌▓È_1
  5
35A
 10
961.150
 20
-402.599
 30
0.000000
  70
    32
  0
VERTEX
  8
┌▓È_1
  5
35B
 10
961.180
 20
-402.623
 30
0.000000
  70
    32
  0
VERTEX
  8
┌▓È_1
  5
35C
 10
961.211
 20
-402.648
 30
0.000000
  70
    32
  0
VERTEX
  8
┌▓È_1
  5
35D
 10
961.241
 20
-402.672
 30
0.000000
  70
    32
  0
VERTEX
  8
┌▓È_1
  5
35E
 10
961.271
 20
-402.696
 30
0.000000
  70
    32
  0
VERTEX
  8
┌▓È_1
  5
35F
 10
961.301
 20
-402.720
 30
0.000000
  70
    32
  0
VERTEX
  8
┌▓È_1
  5
360
 10
961.331
 20
-402.744
 30
0.000000
  70
    32
  0
VERTEX
  8
┌▓È_1
  5
361
 10
961.361
 20
-402.768
 30
0.000000
  70
    32
  0
VERTEX
  8
┌▓È_1
  5
362
 10
961.391
 20
-402.792
 30
0.000000
  70
    32
  0
VERTEX
  8
┌▓È_1
  5
363
 10
961.422
 20
-402.816
 30
0.000000
  70
    32
  0
VERTEX
  8
┌▓È_1
  5
364
 10
961.452
 20
-402.840
 30
0.000000
  70
    32
  0
VERTEX
  8
┌▓È_1
  5
365
 10
961.482
 20
-402.864
 30
0.000000
  70
    32
  0
VERTEX
  8
┌▓È_1
  5
366
 10
961.513
 20
-402.888
 30
0.000000
  70
    32
  0
VERTEX
  8
┌▓È_1
  5
367
 10
961.543
 20
-402.911
 30
0.000000
  70
    32
  0
VERTEX
  8
┌▓È_1
  5
368
 10
961.573
 20
-402.935
 30
0.000000
  70
    32
  0
VERTEX
  8
┌▓È_1
  5
369
 10
961.604
 20
-402.959
 30
0.000000
  70
    32
  0
VERTEX
  8
┌▓È_1
  5
36A
 10
961.634
 20
-402.982
 30
0.000000
  70
    32
  0
VERTEX
  8
┌▓È_1
  5
36B
 10
961.665
 20
-403.006
 30
0.000000
  70
    32
  0
VERTEX
  8
┌▓È_1
  5
36C
 10
961.695
 20
-403.029
 30
0.000000
  70
    32
  0
VERTEX
  8
┌▓È_1
  5
36D
 10
961.726
 20
-403.053
 30
0.000000
  70
    32
  0
VERTEX
  8
┌▓È_1
  5
36E
 10
961.756
 20
-403.076
 30
0.000000
  70
    32
  0
VERTEX
  8
┌▓È_1
  5
36F
 10
961.787
 20
-403.099
 30
0.000000
  70
    32
  0
VERTEX
  8
┌▓È_1
  5
370
 10
961.817
 20
-403.122
 30
0.000000
  70
    32
  0
VERTEX
  8
┌▓È_1
  5
371
 10
961.848
 20
-403.145
 30
0.000000
  70
    32
  0
VERTEX
  8
┌▓È_1
  5
372
 10
961.879
 20
-403.168
 30
0.000000
  70
    32
  0
VERTEX
  8
┌▓È_1
  5
373
 10
961.910
 20
-403.191
 30
0.000000
  70
    32
  0
VERTEX
  8
┌▓È_1
  5
374
 10
961.940
 20
-403.214
 30
0.000000
  70
    32
  0
VERTEX
  8
┌▓È_1
  5
375
 10
961.971
 20
-403.237
 30
0.000000
  70
    32
  0
VERTEX
  8
┌▓È_1
  5
376
 10
962.002
 20
-403.260
 30
0.000000
  70
    32
  0
VERTEX
  8
┌▓È_1
  5
377
 10
962.033
 20
-403.283
 30
0.000000
  70
    32
  0
VERTEX
  8
┌▓È_1
  5
378
 10
962.064
 20
-403.306
 30
0.000000
  70
    32
  0
VERTEX
  8
┌▓È_1
  5
379
 10
962.095
 20
-403.328
 30
0.000000
  70
    32
  0
VERTEX
  8
┌▓È_1
  5
37A
 10
962.126
 20
-403.351
 30
0.000000
  70
    32
  0
VERTEX
  8
┌▓È_1
  5
37B
 10
962.157
 20
-403.373
 30
0.000000
  70
    32
  0
VERTEX
  8
┌▓È_1
  5
37C
 10
962.188
 20
-403.396
 30
0.000000
  70
    32
  0
VERTEX
  8
┌▓È_1
  5
37D
 10
962.219
 20
-403.418
 30
0.000000
  70
    32
  0
VERTEX
  8
┌▓È_1
  5
37E
 10
962.250
 20
-403.440
 30
0.000000
  70
    32
  0
VERTEX
  8
┌▓È_1
  5
37F
 10
962.281
 20
-403.462
 30
0.000000
  70
    32
  0
VERTEX
  8
┌▓È_1
  5
380
 10
962.313
 20
-403.485
 30
0.000000
  70
    32
  0
VERTEX
  8
┌▓È_1
  5
381
 10
962.344
 20
-403.507
 30
0.000000
  70
    32
  0
VERTEX
  8
┌▓È_1
  5
382
 10
962.375
 20
-403.529
 30
0.000000
  70
    32
  0
VERTEX
  8
┌▓È_1
  5
383
 10
962.406
 20
-403.551
 30
0.000000
  70
    32
  0
VERTEX
  8
┌▓È_1
  5
384
 10
962.438
 20
-403.572
 30
0.000000
  70
    32
  0
VERTEX
  8
┌▓È_1
  5
385
 10
962.469
 20
-403.594
 30
0.000000
  70
    32
  0
VERTEX
  8
┌▓È_1
  5
386
 10
962.501
 20
-403.616
 30
0.000000
  70
    32
  0
VERTEX
  8
┌▓È_1
  5
387
 10
962.532
 20
-403.638
 30
0.000000
  70
    32
  0
VERTEX
  8
┌▓È_1
  5
388
 10
962.564
 20
-403.659
 30
0.000000
  70
    32
  0
VERTEX
  8
┌▓È_1
  5
389
 10
962.595
 20
-403.681
 30
0.000000
  70
    32
  0
VERTEX
  8
┌▓È_1
  5
38A
 10
962.627
 20
-403.702
 30
0.000000
  70
    32
  0
VERTEX
  8
┌▓È_1
  5
38B
 10
962.658
 20
-403.723
 30
0.000000
  70
    32
  0
VERTEX
  8
┌▓È_1
  5
38C
 10
962.690
 20
-403.745
 30
0.000000
  70
    32
  0
VERTEX
  8
┌▓È_1
  5
38D
 10
962.722
 20
-403.766
 30
0.000000
  70
    32
  0
VERTEX
  8
┌▓È_1
  5
38E
 10
962.754
 20
-403.787
 30
0.000000
  70
    32
  0
VERTEX
  8
┌▓È_1
  5
38F
 10
962.785
 20
-403.808
 30
0.000000
  70
    32
  0
VERTEX
  8
┌▓È_1
  5
390
 10
962.817
 20
-403.829
 30
0.000000
  70
    32
  0
VERTEX
  8
┌▓È_1
  5
391
 10
962.849
 20
-403.850
 30
0.000000
  70
    32
  0
VERTEX
  8
┌▓È_1
  5
392
 10
962.881
 20
-403.871
 30
0.000000
  70
    32
  0
VERTEX
  8
┌▓È_1
  5
393
 10
962.913
 20
-403.891
 30
0.000000
  70
    32
  0
VERTEX
  8
┌▓È_1
  5
394
 10
962.945
 20
-403.912
 30
0.000000
  70
    32
  0
VERTEX
  8
┌▓È_1
  5
395
 10
962.977
 20
-403.932
 30
0.000000
  70
    32
  0
VERTEX
  8
┌▓È_1
  5
396
 10
963.009
 20
-403.953
 30
0.000000
  70
    32
  0
VERTEX
  8
┌▓È_1
  5
397
 10
963.041
 20
-403.973
 30
0.000000
  70
    32
  0
VERTEX
  8
┌▓È_1
  5
398
 10
963.074
 20
-403.994
 30
0.000000
  70
    32
  0
VERTEX
  8
┌▓È_1
  5
399
 10
963.106
 20
-404.014
 30
0.000000
  70
    32
  0
VERTEX
  8
┌▓È_1
  5
39A
 10
963.138
 20
-404.034
 30
0.000000
  70
    32
  0
VERTEX
  8
┌▓È_1
  5
39B
 10
963.171
 20
-404.054
 30
0.000000
  70
    32
  0
VERTEX
  8
┌▓È_1
  5
39C
 10
963.203
 20
-404.074
 30
0.000000
  70
    32
  0
VERTEX
  8
┌▓È_1
  5
39D
 10
963.235
 20
-404.094
 30
0.000000
  70
    32
  0
VERTEX
  8
┌▓È_1
  5
39E
 10
963.268
 20
-404.114
 30
0.000000
  70
    32
  0
VERTEX
  8
┌▓È_1
  5
39F
 10
963.300
 20
-404.133
 30
0.000000
  70
    32
  0
VERTEX
  8
┌▓È_1
  5
3A0
 10
963.333
 20
-404.153
 30
0.000000
  70
    32
  0
SEQEND
  8
┌▓È_1
  5
3A1
  0
POLYLINE
  8
┌▓È_1
  5
3A2
  62
5
  66
     1
 10
0.000000
 20
0.000000
 30
0.000000
  70
     8
  0
VERTEX
  8
┌▓È_1
  5
3A3
 10
967.285
 20
-405.887
 30
0.000000
  70
    32
  0
VERTEX
  8
┌▓È_1
  5
3A4
 10
967.328
 20
-405.901
 30
0.000000
  70
    32
  0
VERTEX
  8
┌▓È_1
  5
3A5
 10
967.371
 20
-405.914
 30
0.000000
  70
    32
  0
VERTEX
  8
┌▓È_1
  5
3A6
 10
967.414
 20
-405.928
 30
0.000000
  70
    32
  0
VERTEX
  8
┌▓È_1
  5
3A7
 10
967.457
 20
-405.942
 30
0.000000
  70
    32
  0
VERTEX
  8
┌▓È_1
  5
3A8
 10
967.500
 20
-405.955
 30
0.000000
  70
    32
  0
VERTEX
  8
┌▓È_1
  5
3A9
 10
967.544
 20
-405.968
 30
0.000000
  70
    32
  0
VERTEX
  8
┌▓È_1
  5
3AA
 10
967.587
 20
-405.982
 30
0.000000
  70
    32
  0
VERTEX
  8
┌▓È_1
  5
3AB
 10
967.630
 20
-405.995
 30
0.000000
  70
    32
  0
VERTEX
  8
┌▓È_1
  5
3AC
 10
967.673
 20
-406.008
 30
0.000000
  70
    32
  0
VERTEX
  8
┌▓È_1
  5
3AD
 10
967.717
 20
-406.021
 30
0.000000
  70
    32
  0
VERTEX
  8
┌▓È_1
  5
3AE
 10
967.760
 20
-406.035
 30
0.000000
  70
    32
  0
VERTEX
  8
┌▓È_1
  5
3AF
 10
967.804
 20
-406.048
 30
0.000000
  70
    32
  0
VERTEX
  8
┌▓È_1
  5
3B0
 10
967.847
 20
-406.061
 30
0.000000
  70
    32
  0
VERTEX
  8
┌▓È_1
  5
3B1
 10
967.891
 20
-406.073
 30
0.000000
  70
    32
  0
VERTEX
  8
┌▓È_1
  5
3B2
 10
967.934
 20
-406.086
 30
0.000000
  70
    32
  0
VERTEX
  8
┌▓È_1
  5
3B3
 10
967.978
 20
-406.099
 30
0.000000
  70
    32
  0
VERTEX
  8
┌▓È_1
  5
3B4
 10
968.022
 20
-406.112
 30
0.000000
  70
    32
  0
VERTEX
  8
┌▓È_1
  5
3B5
 10
968.065
 20
-406.124
 30
0.000000
  70
    32
  0
VERTEX
  8
┌▓È_1
  5
3B6
 10
968.109
 20
-406.137
 30
0.000000
  70
    32
  0
VERTEX
  8
┌▓È_1
  5
3B7
 10
968.153
 20
-406.150
 30
0.000000
  70
    32
  0
VERTEX
  8
┌▓È_1
  5
3B8
 10
968.196
 20
-406.162
 30
0.000000
  70
    32
  0
VERTEX
  8
┌▓È_1
  5
3B9
 10
968.240
 20
-406.174
 30
0.000000
  70
    32
  0
VERTEX
  8
┌▓È_1
  5
3BA
 10
968.284
 20
-406.187
 30
0.000000
  70
    32
  0
VERTEX
  8
┌▓È_1
  5
3BB
 10
968.328
 20
-406.199
 30
0.000000
  70
    32
  0
VERTEX
  8
┌▓È_1
  5
3BC
 10
968.372
 20
-406.211
 30
0.000000
  70
    32
  0
VERTEX
  8
┌▓È_1
  5
3BD
 10
968.416
 20
-406.224
 30
0.000000
  70
    32
  0
VERTEX
  8
┌▓È_1
  5
3BE
 10
968.459
 20
-406.236
 30
0.000000
  70
    32
  0
VERTEX
  8
┌▓È_1
  5
3BF
 10
968.503
 20
-406.248
 30
0.000000
  70
    32
  0
VERTEX
  8
┌▓È_1
  5
3C0
 10
968.547
 20
-406.260
 30
0.000000
  70
    32
  0
VERTEX
  8
┌▓È_1
  5
3C1
 10
968.591
 20
-406.272
 30
0.000000
  70
    32
  0
VERTEX
  8
┌▓È_1
  5
3C2
 10
968.635
 20
-406.284
 30
0.000000
  70
    32
  0
VERTEX
  8
┌▓È_1
  5
3C3
 10
968.680
 20
-406.296
 30
0.000000
  70
    32
  0
VERTEX
  8
┌▓È_1
  5
3C4
 10
968.724
 20
-406.308
 30
0.000000
  70
    32
  0
VERTEX
  8
┌▓È_1
  5
3C5
 10
968.768
 20
-406.319
 30
0.000000
  70
    32
  0
VERTEX
  8
┌▓È_1
  5
3C6
 10
968.812
 20
-406.331
 30
0.000000
  70
    32
  0
VERTEX
  8
┌▓È_1
  5
3C7
 10
968.856
 20
-406.343
 30
0.000000
  70
    32
  0
VERTEX
  8
┌▓È_1
  5
3C8
 10
968.900
 20
-406.354
 30
0.000000
  70
    32
  0
VERTEX
  8
┌▓È_1
  5
3C9
 10
968.945
 20
-406.366
 30
0.000000
  70
    32
  0
VERTEX
  8
┌▓È_1
  5
3CA
 10
968.989
 20
-406.377
 30
0.000000
  70
    32
  0
VERTEX
  8
┌▓È_1
  5
3CB
 10
969.033
 20
-406.389
 30
0.000000
  70
    32
  0
VERTEX
  8
┌▓È_1
  5
3CC
 10
969.077
 20
-406.400
 30
0.000000
  70
    32
  0
VERTEX
  8
┌▓È_1
  5
3CD
 10
969.122
 20
-406.412
 30
0.000000
  70
    32
  0
VERTEX
  8
┌▓È_1
  5
3CE
 10
969.166
 20
-406.423
 30
0.000000
  70
    32
  0
VERTEX
  8
┌▓È_1
  5
3CF
 10
969.210
 20
-406.434
 30
0.000000
  70
    32
  0
VERTEX
  8
┌▓È_1
  5
3D0
 10
969.255
 20
-406.446
 30
0.000000
  70
    32
  0
VERTEX
  8
┌▓È_1
  5
3D1
 10
969.299
 20
-406.457
 30
0.000000
  70
    32
  0
VERTEX
  8
┌▓È_1
  5
3D2
 10
969.344
 20
-406.468
 30
0.000000
  70
    32
  0
VERTEX
  8
┌▓È_1
  5
3D3
 10
969.388
 20
-406.479
 30
0.000000
  70
    32
  0
VERTEX
  8
┌▓È_1
  5
3D4
 10
969.433
 20
-406.490
 30
0.000000
  70
    32
  0
VERTEX
  8
┌▓È_1
  5
3D5
 10
969.477
 20
-406.501
 30
0.000000
  70
    32
  0
VERTEX
  8
┌▓È_1
  5
3D6
 10
969.522
 20
-406.512
 30
0.000000
  70
    32
  0
VERTEX
  8
┌▓È_1
  5
3D7
 10
969.566
 20
-406.523
 30
0.000000
  70
    32
  0
VERTEX
  8
┌▓È_1
  5
3D8
 10
969.611
 20
-406.534
 30
0.000000
  70
    32
  0
VERTEX
  8
┌▓È_1
  5
3D9
 10
969.656
 20
-406.545
 30
0.000000
  70
    32
  0
VERTEX
  8
┌▓È_1
  5
3DA
 10
969.700
 20
-406.556
 30
0.000000
  70
    32
  0
VERTEX
  8
┌▓È_1
  5
3DB
 10
969.745
 20
-406.567
 30
0.000000
  70
    32
  0
VERTEX
  8
┌▓È_1
  5
3DC
 10
969.789
 20
-406.578
 30
0.000000
  70
    32
  0
VERTEX
  8
┌▓È_1
  5
3DD
 10
969.834
 20
-406.588
 30
0.000000
  70
    32
  0
VERTEX
  8
┌▓È_1
  5
3DE
 10
969.879
 20
-406.599
 30
0.000000
  70
    32
  0
VERTEX
  8
┌▓È_1
  5
3DF
 10
969.924
 20
-406.610
 30
0.000000
  70
    32
  0
VERTEX
  8
┌▓È_1
  5
3E0
 10
969.968
 20
-406.620
 30
0.000000
  70
    32
  0
VERTEX
  8
┌▓È_1
  5
3E1
 10
970.013
 20
-406.631
 30
0.000000
  70
    32
  0
VERTEX
  8
┌▓È_1
  5
3E2
 10
970.058
 20
-406.642
 30
0.000000
  70
    32
  0
VERTEX
  8
┌▓È_1
  5
3E3
 10
970.103
 20
-406.652
 30
0.000000
  70
    32
  0
VERTEX
  8
┌▓È_1
  5
3E4
 10
970.148
 20
-406.663
 30
0.000000
  70
    32
  0
VERTEX
  8
┌▓È_1
  5
3E5
 10
970.192
 20
-406.673
 30
0.000000
  70
    32
  0
VERTEX
  8
┌▓È_1
  5
3E6
 10
970.237
 20
-406.683
 30
0.000000
  70
    32
  0
VERTEX
  8
┌▓È_1
  5
3E7
 10
970.282
 20
-406.694
 30
0.000000
  70
    32
  0
VERTEX
  8
┌▓È_1
  5
3E8
 10
970.327
 20
-406.704
 30
0.000000
  70
    32
  0
VERTEX
  8
┌▓È_1
  5
3E9
 10
970.372
 20
-406.714
 30
0.000000
  70
    32
  0
VERTEX
  8
┌▓È_1
  5
3EA
 10
970.417
 20
-406.725
 30
0.000000
  70
    32
  0
VERTEX
  8
┌▓È_1
  5
3EB
 10
970.462
 20
-406.735
 30
0.000000
  70
    32
  0
VERTEX
  8
┌▓È_1
  5
3EC
 10
970.507
 20
-406.745
 30
0.000000
  70
    32
  0
VERTEX
  8
┌▓È_1
  5
3ED
 10
970.552
 20
-406.755
 30
0.000000
  70
    32
  0
VERTEX
  8
┌▓È_1
  5
3EE
 10
970.597
 20
-406.766
 30
0.000000
  70
    32
  0
VERTEX
  8
┌▓È_1
  5
3EF
 10
970.642
 20
-406.776
 30
0.000000
  70
    32
  0
VERTEX
  8
┌▓È_1
  5
3F0
 10
970.687
 20
-406.786
 30
0.000000
  70
    32
  0
VERTEX
  8
┌▓È_1
  5
3F1
 10
970.732
 20
-406.796
 30
0.000000
  70
    32
  0
VERTEX
  8
┌▓È_1
  5
3F2
 10
970.777
 20
-406.806
 30
0.000000
  70
    32
  0
VERTEX
  8
┌▓È_1
  5
3F3
 10
970.822
 20
-406.816
 30
0.000000
  70
    32
  0
VERTEX
  8
┌▓È_1
  5
3F4
 10
970.867
 20
-406.826
 30
0.000000
  70
    32
  0
VERTEX
  8
┌▓È_1
  5
3F5
 10
970.912
 20
-406.836
 30
0.000000
  70
    32
  0
VERTEX
  8
┌▓È_1
  5
3F6
 10
970.957
 20
-406.846
 30
0.000000
  70
    32
  0
VERTEX
  8
┌▓È_1
  5
3F7
 10
971.002
 20
-406.856
 30
0.000000
  70
    32
  0
VERTEX
  8
┌▓È_1
  5
3F8
 10
971.048
 20
-406.866
 30
0.000000
  70
    32
  0
VERTEX
  8
┌▓È_1
  5
3F9
 10
971.093
 20
-406.876
 30
0.000000
  70
    32
  0
VERTEX
  8
┌▓È_1
  5
3FA
 10
971.138
 20
-406.886
 30
0.000000
  70
    32
  0
VERTEX
  8
┌▓È_1
  5
3FB
 10
971.183
 20
-406.896
 30
0.000000
  70
    32
  0
VERTEX
  8
┌▓È_1
  5
3FC
 10
971.228
 20
-406.905
 30
0.000000
  70
    32
  0
VERTEX
  8
┌▓È_1
  5
3FD
 10
971.273
 20
-406.915
 30
0.000000
  70
    32
  0
VERTEX
  8
┌▓È_1
  5
3FE
 10
971.319
 20
-406.925
 30
0.000000
  70
    32
  0
VERTEX
  8
┌▓È_1
  5
3FF
 10
971.364
 20
-406.935
 30
0.000000
  70
    32
  0
VERTEX
  8
┌▓È_1
  5
400
 10
971.409
 20
-406.945
 30
0.000000
  70
    32
  0
VERTEX
  8
┌▓È_1
  5
401
 10
971.454
 20
-406.954
 30
0.000000
  70
    32
  0
VERTEX
  8
┌▓È_1
  5
402
 10
971.499
 20
-406.964
 30
0.000000
  70
    32
  0
VERTEX
  8
┌▓È_1
  5
403
 10
971.545
 20
-406.974
 30
0.000000
  70
    32
  0
VERTEX
  8
┌▓È_1
  5
404
 10
971.590
 20
-406.983
 30
0.000000
  70
    32
  0
VERTEX
  8
┌▓È_1
  5
405
 10
971.635
 20
-406.993
 30
0.000000
  70
    32
  0
VERTEX
  8
┌▓È_1
  5
406
 10
971.681
 20
-407.003
 30
0.000000
  70
    32
  0
VERTEX
  8
┌▓È_1
  5
407
 10
971.726
 20
-407.012
 30
0.000000
  70
    32
  0
VERTEX
  8
┌▓È_1
  5
408
 10
971.771
 20
-407.022
 30
0.000000
  70
    32
  0
VERTEX
  8
┌▓È_1
  5
409
 10
971.816
 20
-407.032
 30
0.000000
  70
    32
  0
VERTEX
  8
┌▓È_1
  5
40A
 10
971.862
 20
-407.041
 30
0.000000
  70
    32
  0
VERTEX
  8
┌▓È_1
  5
40B
 10
971.907
 20
-407.051
 30
0.000000
  70
    32
  0
VERTEX
  8
┌▓È_1
  5
40C
 10
971.952
 20
-407.060
 30
0.000000
  70
    32
  0
VERTEX
  8
┌▓È_1
  5
40D
 10
971.998
 20
-407.070
 30
0.000000
  70
    32
  0
VERTEX
  8
┌▓È_1
  5
40E
 10
972.043
 20
-407.079
 30
0.000000
  70
    32
  0
VERTEX
  8
┌▓È_1
  5
40F
 10
972.088
 20
-407.089
 30
0.000000
  70
    32
  0
VERTEX
  8
┌▓È_1
  5
410
 10
972.134
 20
-407.099
 30
0.000000
  70
    32
  0
VERTEX
  8
┌▓È_1
  5
411
 10
972.179
 20
-407.108
 30
0.000000
  70
    32
  0
VERTEX
  8
┌▓È_1
  5
412
 10
972.224
 20
-407.118
 30
0.000000
  70
    32
  0
VERTEX
  8
┌▓È_1
  5
413
 10
972.270
 20
-407.127
 30
0.000000
  70
    32
  0
VERTEX
  8
┌▓È_1
  5
414
 10
972.315
 20
-407.137
 30
0.000000
  70
    32
  0
VERTEX
  8
┌▓È_1
  5
415
 10
972.360
 20
-407.146
 30
0.000000
  70
    32
  0
VERTEX
  8
┌▓È_1
  5
416
 10
972.406
 20
-407.156
 30
0.000000
  70
    32
  0
VERTEX
  8
┌▓È_1
  5
417
 10
972.451
 20
-407.165
 30
0.000000
  70
    32
  0
VERTEX
  8
┌▓È_1
  5
418
 10
972.497
 20
-407.174
 30
0.000000
  70
    32
  0
VERTEX
  8
┌▓È_1
  5
419
 10
972.542
 20
-407.184
 30
0.000000
  70
    32
  0
VERTEX
  8
┌▓È_1
  5
41A
 10
972.587
 20
-407.193
 30
0.000000
  70
    32
  0
VERTEX
  8
┌▓È_1
  5
41B
 10
972.633
 20
-407.203
 30
0.000000
  70
    32
  0
VERTEX
  8
┌▓È_1
  5
41C
 10
972.678
 20
-407.212
 30
0.000000
  70
    32
  0
VERTEX
  8
┌▓È_1
  5
41D
 10
972.724
 20
-407.222
 30
0.000000
  70
    32
  0
VERTEX
  8
┌▓È_1
  5
41E
 10
972.769
 20
-407.231
 30
0.000000
  70
    32
  0
VERTEX
  8
┌▓È_1
  5
41F
 10
972.814
 20
-407.241
 30
0.000000
  70
    32
  0
VERTEX
  8
┌▓È_1
  5
420
 10
972.860
 20
-407.250
 30
0.000000
  70
    32
  0
VERTEX
  8
┌▓È_1
  5
421
 10
972.905
 20
-407.260
 30
0.000000
  70
    32
  0
VERTEX
  8
┌▓È_1
  5
422
 10
972.951
 20
-407.269
 30
0.000000
  70
    32
  0
SEQEND
  8
┌▓È_1
  5
423
  0
POLYLINE
  8
┌▓È_1
  5
424
  62
5
  66
     1
 10
0.000000
 20
0.000000
 30
0.000000
  70
     8
  0
VERTEX
  8
┌▓È_1
  5
425
 10
964.045
 20
-400.689
 30
0.000000
  70
    32
  0
VERTEX
  8
┌▓È_1
  5
426
 10
964.056
 20
-400.701
 30
0.000000
  70
    32
  0
VERTEX
  8
┌▓È_1
  5
427
 10
964.067
 20
-400.713
 30
0.000000
  70
    32
  0
VERTEX
  8
┌▓È_1
  5
428
 10
964.077
 20
-400.725
 30
0.000000
  70
    32
  0
VERTEX
  8
┌▓È_1
  5
429
 10
964.088
 20
-400.737
 30
0.000000
  70
    32
  0
VERTEX
  8
┌▓È_1
  5
42A
 10
964.098
 20
-400.748
 30
0.000000
  70
    32
  0
VERTEX
  8
┌▓È_1
  5
42B
 10
964.109
 20
-400.760
 30
0.000000
  70
    32
  0
VERTEX
  8
┌▓È_1
  5
42C
 10
964.119
 20
-400.772
 30
0.000000
  70
    32
  0
VERTEX
  8
┌▓È_1
  5
42D
 10
964.130
 20
-400.784
 30
0.000000
  70
    32
  0
VERTEX
  8
┌▓È_1
  5
42E
 10
964.140
 20
-400.795
 30
0.000000
  70
    32
  0
VERTEX
  8
┌▓È_1
  5
42F
 10
964.151
 20
-400.807
 30
0.000000
  70
    32
  0
VERTEX
  8
┌▓È_1
  5
430
 10
964.162
 20
-400.819
 30
0.000000
  70
    32
  0
VERTEX
  8
┌▓È_1
  5
431
 10
964.172
 20
-400.831
 30
0.000000
  70
    32
  0
VERTEX
  8
┌▓È_1
  5
432
 10
964.183
 20
-400.842
 30
0.000000
  70
    32
  0
VERTEX
  8
┌▓È_1
  5
433
 10
964.193
 20
-400.854
 30
0.000000
  70
    32
  0
VERTEX
  8
┌▓È_1
  5
434
 10
964.204
 20
-400.866
 30
0.000000
  70
    32
  0
VERTEX
  8
┌▓È_1
  5
435
 10
964.214
 20
-400.878
 30
0.000000
  70
    32
  0
VERTEX
  8
┌▓È_1
  5
436
 10
964.225
 20
-400.889
 30
0.000000
  70
    32
  0
VERTEX
  8
┌▓È_1
  5
437
 10
964.236
 20
-400.901
 30
0.000000
  70
    32
  0
VERTEX
  8
┌▓È_1
  5
438
 10
964.246
 20
-400.913
 30
0.000000
  70
    32
  0
VERTEX
  8
┌▓È_1
  5
439
 10
964.257
 20
-400.925
 30
0.000000
  70
    32
  0
VERTEX
  8
┌▓È_1
  5
43A
 10
964.267
 20
-400.936
 30
0.000000
  70
    32
  0
VERTEX
  8
┌▓È_1
  5
43B
 10
964.278
 20
-400.948
 30
0.000000
  70
    32
  0
VERTEX
  8
┌▓È_1
  5
43C
 10
964.288
 20
-400.960
 30
0.000000
  70
    32
  0
VERTEX
  8
┌▓È_1
  5
43D
 10
964.299
 20
-400.972
 30
0.000000
  70
    32
  0
VERTEX
  8
┌▓È_1
  5
43E
 10
964.310
 20
-400.983
 30
0.000000
  70
    32
  0
VERTEX
  8
┌▓È_1
  5
43F
 10
964.320
 20
-400.995
 30
0.000000
  70
    32
  0
VERTEX
  8
┌▓È_1
  5
440
 10
964.331
 20
-401.007
 30
0.000000
  70
    32
  0
VERTEX
  8
┌▓È_1
  5
441
 10
964.341
 20
-401.018
 30
0.000000
  70
    32
  0
VERTEX
  8
┌▓È_1
  5
442
 10
964.352
 20
-401.030
 30
0.000000
  70
    32
  0
VERTEX
  8
┌▓È_1
  5
443
 10
964.363
 20
-401.042
 30
0.000000
  70
    32
  0
VERTEX
  8
┌▓È_1
  5
444
 10
964.373
 20
-401.054
 30
0.000000
  70
    32
  0
VERTEX
  8
┌▓È_1
  5
445
 10
964.384
 20
-401.065
 30
0.000000
  70
    32
  0
VERTEX
  8
┌▓È_1
  5
446
 10
964.395
 20
-401.077
 30
0.000000
  70
    32
  0
VERTEX
  8
┌▓È_1
  5
447
 10
964.405
 20
-401.089
 30
0.000000
  70
    32
  0
VERTEX
  8
┌▓È_1
  5
448
 10
964.416
 20
-401.100
 30
0.000000
  70
    32
  0
VERTEX
  8
┌▓È_1
  5
449
 10
964.426
 20
-401.112
 30
0.000000
  70
    32
  0
VERTEX
  8
┌▓È_1
  5
44A
 10
964.437
 20
-401.124
 30
0.000000
  70
    32
  0
VERTEX
  8
┌▓È_1
  5
44B
 10
964.448
 20
-401.135
 30
0.000000
  70
    32
  0
VERTEX
  8
┌▓È_1
  5
44C
 10
964.458
 20
-401.147
 30
0.000000
  70
    32
  0
VERTEX
  8
┌▓È_1
  5
44D
 10
964.469
 20
-401.158
 30
0.000000
  70
    32
  0
VERTEX
  8
┌▓È_1
  5
44E
 10
964.480
 20
-401.170
 30
0.000000
  70
    32
  0
VERTEX
  8
┌▓È_1
  5
44F
 10
964.490
 20
-401.182
 30
0.000000
  70
    32
  0
VERTEX
  8
┌▓È_1
  5
450
 10
964.501
 20
-401.193
 30
0.000000
  70
    32
  0
VERTEX
  8
┌▓È_1
  5
451
 10
964.512
 20
-401.205
 30
0.000000
  70
    32
  0
VERTEX
  8
┌▓È_1
  5
452
 10
964.522
 20
-401.217
 30
0.000000
  70
    32
  0
VERTEX
  8
┌▓È_1
  5
453
 10
964.533
 20
-401.228
 30
0.000000
  70
    32
  0
VERTEX
  8
┌▓È_1
  5
454
 10
964.544
 20
-401.240
 30
0.000000
  70
    32
  0
VERTEX
  8
┌▓È_1
  5
455
 10
964.554
 20
-401.251
 30
0.000000
  70
    32
  0
VERTEX
  8
┌▓È_1
  5
456
 10
964.565
 20
-401.263
 30
0.000000
  70
    32
  0
VERTEX
  8
┌▓È_1
  5
457
 10
964.576
 20
-401.274
 30
0.000000
  70
    32
  0
VERTEX
  8
┌▓È_1
  5
458
 10
964.586
 20
-401.286
 30
0.000000
  70
    32
  0
VERTEX
  8
┌▓È_1
  5
459
 10
964.597
 20
-401.298
 30
0.000000
  70
    32
  0
VERTEX
  8
┌▓È_1
  5
45A
 10
964.608
 20
-401.309
 30
0.000000
  70
    32
  0
VERTEX
  8
┌▓È_1
  5
45B
 10
964.618
 20
-401.321
 30
0.000000
  70
    32
  0
VERTEX
  8
┌▓È_1
  5
45C
 10
964.629
 20
-401.332
 30
0.000000
  70
    32
  0
VERTEX
  8
┌▓È_1
  5
45D
 10
964.640
 20
-401.344
 30
0.000000
  70
    32
  0
VERTEX
  8
┌▓È_1
  5
45E
 10
964.651
 20
-401.355
 30
0.000000
  70
    32
  0
VERTEX
  8
┌▓È_1
  5
45F
 10
964.661
 20
-401.367
 30
0.000000
  70
    32
  0
VERTEX
  8
┌▓È_1
  5
460
 10
964.672
 20
-401.378
 30
0.000000
  70
    32
  0
VERTEX
  8
┌▓È_1
  5
461
 10
964.683
 20
-401.389
 30
0.000000
  70
    32
  0
VERTEX
  8
┌▓È_1
  5
462
 10
964.694
 20
-401.401
 30
0.000000
  70
    32
  0
VERTEX
  8
┌▓È_1
  5
463
 10
964.704
 20
-401.412
 30
0.000000
  70
    32
  0
VERTEX
  8
┌▓È_1
  5
464
 10
964.715
 20
-401.424
 30
0.000000
  70
    32
  0
VERTEX
  8
┌▓È_1
  5
465
 10
964.726
 20
-401.435
 30
0.000000
  70
    32
  0
VERTEX
  8
┌▓È_1
  5
466
 10
964.737
 20
-401.447
 30
0.000000
  70
    32
  0
VERTEX
  8
┌▓È_1
  5
467
 10
964.748
 20
-401.458
 30
0.000000
  70
    32
  0
VERTEX
  8
┌▓È_1
  5
468
 10
964.758
 20
-401.469
 30
0.000000
  70
    32
  0
VERTEX
  8
┌▓È_1
  5
469
 10
964.769
 20
-401.481
 30
0.000000
  70
    32
  0
VERTEX
  8
┌▓È_1
  5
46A
 10
964.780
 20
-401.492
 30
0.000000
  70
    32
  0
VERTEX
  8
┌▓È_1
  5
46B
 10
964.791
 20
-401.504
 30
0.000000
  70
    32
  0
VERTEX
  8
┌▓È_1
  5
46C
 10
964.802
 20
-401.515
 30
0.000000
  70
    32
  0
VERTEX
  8
┌▓È_1
  5
46D
 10
964.812
 20
-401.526
 30
0.000000
  70
    32
  0
VERTEX
  8
┌▓È_1
  5
46E
 10
964.823
 20
-401.537
 30
0.000000
  70
    32
  0
VERTEX
  8
┌▓È_1
  5
46F
 10
964.834
 20
-401.549
 30
0.000000
  70
    32
  0
VERTEX
  8
┌▓È_1
  5
470
 10
964.845
 20
-401.560
 30
0.000000
  70
    32
  0
VERTEX
  8
┌▓È_1
  5
471
 10
964.856
 20
-401.571
 30
0.000000
  70
    32
  0
VERTEX
  8
┌▓È_1
  5
472
 10
964.867
 20
-401.583
 30
0.000000
  70
    32
  0
VERTEX
  8
┌▓È_1
  5
473
 10
964.878
 20
-401.594
 30
0.000000
  70
    32
  0
VERTEX
  8
┌▓È_1
  5
474
 10
964.889
 20
-401.605
 30
0.000000
  70
    32
  0
VERTEX
  8
┌▓È_1
  5
475
 10
964.899
 20
-401.616
 30
0.000000
  70
    32
  0
VERTEX
  8
┌▓È_1
  5
476
 10
964.910
 20
-401.627
 30
0.000000
  70
    32
  0
VERTEX
  8
┌▓È_1
  5
477
 10
964.921
 20
-401.639
 30
0.000000
  70
    32
  0
VERTEX
  8
┌▓È_1
  5
478
 10
964.932
 20
-401.650
 30
0.000000
  70
    32
  0
VERTEX
  8
┌▓È_1
  5
479
 10
964.943
 20
-401.661
 30
0.000000
  70
    32
  0
VERTEX
  8
┌▓È_1
  5
47A
 10
964.954
 20
-401.672
 30
0.000000
  70
    32
  0
VERTEX
  8
┌▓È_1
  5
47B
 10
964.965
 20
-401.683
 30
0.000000
  70
    32
  0
VERTEX
  8
┌▓È_1
  5
47C
 10
964.976
 20
-401.694
 30
0.000000
  70
    32
  0
VERTEX
  8
┌▓È_1
  5
47D
 10
964.987
 20
-401.706
 30
0.000000
  70
    32
  0
VERTEX
  8
┌▓È_1
  5
47E
 10
964.998
 20
-401.717
 30
0.000000
  70
    32
  0
VERTEX
  8
┌▓È_1
  5
47F
 10
965.009
 20
-401.728
 30
0.000000
  70
    32
  0
VERTEX
  8
┌▓È_1
  5
480
 10
965.020
 20
-401.739
 30
0.000000
  70
    32
  0
VERTEX
  8
┌▓È_1
  5
481
 10
965.031
 20
-401.750
 30
0.000000
  70
    32
  0
VERTEX
  8
┌▓È_1
  5
482
 10
965.042
 20
-401.761
 30
0.000000
  70
    32
  0
VERTEX
  8
┌▓È_1
  5
483
 10
965.053
 20
-401.772
 30
0.000000
  70
    32
  0
VERTEX
  8
┌▓È_1
  5
484
 10
965.064
 20
-401.783
 30
0.000000
  70
    32
  0
VERTEX
  8
┌▓È_1
  5
485
 10
965.075
 20
-401.794
 30
0.000000
  70
    32
  0
VERTEX
  8
┌▓È_1
  5
486
 10
965.086
 20
-401.805
 30
0.000000
  70
    32
  0
VERTEX
  8
┌▓È_1
  5
487
 10
965.097
 20
-401.816
 30
0.000000
  70
    32
  0
VERTEX
  8
┌▓È_1
  5
488
 10
965.108
 20
-401.827
 30
0.000000
  70
    32
  0
VERTEX
  8
┌▓È_1
  5
489
 10
965.119
 20
-401.837
 30
0.000000
  70
    32
  0
VERTEX
  8
┌▓È_1
  5
48A
 10
965.131
 20
-401.848
 30
0.000000
  70
    32
  0
VERTEX
  8
┌▓È_1
  5
48B
 10
965.142
 20
-401.859
 30
0.000000
  70
    32
  0
VERTEX
  8
┌▓È_1
  5
48C
 10
965.153
 20
-401.870
 30
0.000000
  70
    32
  0
VERTEX
  8
┌▓È_1
  5
48D
 10
965.164
 20
-401.881
 30
0.000000
  70
    32
  0
VERTEX
  8
┌▓È_1
  5
48E
 10
965.175
 20
-401.892
 30
0.000000
  70
    32
  0
VERTEX
  8
┌▓È_1
  5
48F
 10
965.186
 20
-401.903
 30
0.000000
  70
    32
  0
VERTEX
  8
┌▓È_1
  5
490
 10
965.198
 20
-401.913
 30
0.000000
  70
    32
  0
VERTEX
  8
┌▓È_1
  5
491
 10
965.209
 20
-401.924
 30
0.000000
  70
    32
  0
VERTEX
  8
┌▓È_1
  5
492
 10
965.220
 20
-401.935
 30
0.000000
  70
    32
  0
VERTEX
  8
┌▓È_1
  5
493
 10
965.231
 20
-401.946
 30
0.000000
  70
    32
  0
VERTEX
  8
┌▓È_1
  5
494
 10
965.242
 20
-401.956
 30
0.000000
  70
    32
  0
VERTEX
  8
┌▓È_1
  5
495
 10
965.254
 20
-401.967
 30
0.000000
  70
    32
  0
VERTEX
  8
┌▓È_1
  5
496
 10
965.265
 20
-401.978
 30
0.000000
  70
    32
  0
VERTEX
  8
┌▓È_1
  5
497
 10
965.276
 20
-401.988
 30
0.000000
  70
    32
  0
VERTEX
  8
┌▓È_1
  5
498
 10
965.287
 20
-401.999
 30
0.000000
  70
    32
  0
VERTEX
  8
┌▓È_1
  5
499
 10
965.299
 20
-402.009
 30
0.000000
  70
    32
  0
VERTEX
  8
┌▓È_1
  5
49A
 10
965.310
 20
-402.020
 30
0.000000
  70
    32
  0
VERTEX
  8
┌▓È_1
  5
49B
 10
965.321
 20
-402.031
 30
0.000000
  70
    32
  0
VERTEX
  8
┌▓È_1
  5
49C
 10
965.333
 20
-402.041
 30
0.000000
  70
    32
  0
VERTEX
  8
┌▓È_1
  5
49D
 10
965.344
 20
-402.052
 30
0.000000
  70
    32
  0
VERTEX
  8
┌▓È_1
  5
49E
 10
965.355
 20
-402.062
 30
0.000000
  70
    32
  0
VERTEX
  8
┌▓È_1
  5
49F
 10
965.367
 20
-402.073
 30
0.000000
  70
    32
  0
VERTEX
  8
┌▓È_1
  5
4A0
 10
965.378
 20
-402.083
 30
0.000000
  70
    32
  0
VERTEX
  8
┌▓È_1
  5
4A1
 10
965.389
 20
-402.093
 30
0.000000
  70
    32
  0
VERTEX
  8
┌▓È_1
  5
4A2
 10
965.401
 20
-402.104
 30
0.000000
  70
    32
  0
VERTEX
  8
┌▓È_1
  5
4A3
 10
965.412
 20
-402.114
 30
0.000000
  70
    32
  0
VERTEX
  8
┌▓È_1
  5
4A4
 10
965.424
 20
-402.125
 30
0.000000
  70
    32
  0
SEQEND
  8
┌▓È_1
  5
4A5
  0
LINE
  5
1C3
  8
┌▓È_1
 62
     5
 10
972.95050972829995
 20
-404.86895229189997
 30
0.0
 11
972.95050972829995
 21
-407.26895229190001
 31
0.0
  0
LINE
  5
1C4
  8
┌▓È_1
 10
968.2991372992999
 20
-367.82522903889998
 30
0.0
 11
1000.2991372993
 21
-367.82522903889998
 31
0.0
  0
LINE
  5
1C5
  8
┌▓È_1
 10
872.29913729929979
 20
-376.32522903889998
 30
0.0
 11
968.2991372992999
 21
-376.32522903889998
 31
0.0
  0
INSERT
  5
1C6
  8
0
  6
CONTINUOUS
  2
*U37
 10
0.0
 20
0.0
 30
0.0
  0
INSERT
  5
1C7
  8
0
  6
CONTINUOUS
  2
*U38
 10
0.0
 20
0.0
 30
0.0
  0
INSERT
  5
1C8
  8
0
  6
CONTINUOUS
  2
*U39
 10
0.0
 20
0.0
 30
0.0
  0
LINE
  5
1C9
  8
┌▓È_1
  6
BORDER
 62
     3
 10
789.81983130979995
 20
-176.7435884139
 30
0.0
 11
789.81983130979995
 21
-190.7435884139
 31
0.0
  0
LINE
  5
1CA
  8
┌▓È_1
  6
STITCH
 10
672.31983130979995
 20
-183.7435884139
 30
0.0
 11
672.31983130979995
 21
-186.2435884139
 31
0.0
  0
LINE
  5
1CB
  8
┌▓È_1
  6
STITCH
 10
677.31983130979995
 20
-183.7435884139
 30
0.0
 11
672.31983130979995
 21
-183.7435884139
 31
0.0
  0
LINE
  5
1CC
  8
┌▓È_1
  6
STITCH
 10
677.31983130979995
 20
-183.7435884139
 30
0.0
 11
677.31983130979995
 21
-186.2435884139
 31
0.0
  0
LINE
  5
1CD
  8
┌▓È_1
  6
STITCH
 10
677.31983130979995
 20
-183.7435884139
 30
0.0
 11
679.81983130980007
 21
-181.2435884139
 31
0.0
  0
LINE
  5
1CE
  8
┌▓È_1
 62
     5
 10
981.31305063850004
 20
-251.45114049719999
 30
0.0
 11
1054.3116617496
 21
-251.45114049719999
 31
0.0
  0
LINE
  5
1CF
  8
┌▓È_1
 62
     5
 10
797.81983130979995
 20
-291.87360143469999
 30
0.0
 11
647.81983130979995
 21
-291.87360143469999
 31
0.0
  0
LINE
  5
1D0
  8
┌▓È_1
  6
BORDER
 62
     3
 10
782.81983130979995
 20
-299.87360143469999
 30
0.0
 11
796.81983130979995
 21
-299.87360143469999
 31
0.0
  0
LINE
  5
1D1
  8
┌▓È_1
  6
BORDER
 62
     3
 10
667.81983130979995
 20
-299.87360143469999
 30
0.0
 11
681.81983130979995
 21
-299.87360143469999
 31
0.0
  0
LINE
  5
1D2
  8
┌▓È_1
  6
STITCH
 10
669.81983130979995
 20
-181.2435884139
 30
0.0
 11
672.31983130979995
 21
-183.7435884139
 31
0.0
  0
LINE
  5
1D3
  8
┌▓È_1
 62
     5
 10
647.81983130979995
 20
-181.2435884139
 30
0.0
 11
647.81983130979995
 21
-110.7435884139
 31
0.0
  0
LINE
  5
1D4
  8
┌▓È_1
 62
     5
 10
652.31983130979995
 20
-185.7435884139
 30
0.0
 11
797.81983130979995
 21
-185.7435884139
 31
0.0
  0
ARC
  5
1D5
  8
┌▓È_1
 62
     5
 10
652.31983130979995
 20
-181.2435884139
 30
0.0
 40
4.5
 50
180.0
 51
270.0
  0
LINE
  5
1D6
  8
┌▓È_1
  6
BORDER
 62
     3
 10
674.81983130980007
 20
-176.7435884139
 30
0.0
 11
674.81983130980007
 21
-190.7435884139
 31
0.0
  0
LINE
  5
1D7
  8
┌▓È_1
 62
     5
 10
652.31983130979995
 20
-181.2435884139
 30
0.0
 11
797.81983130979995
 21
-181.2435884139
 31
0.0
  0
LINE
  5
1D8
  8
┌▓È_1
 62
     5
 10
797.81983130979995
 20
-185.7435884139
 30
0.0
 11
797.81983130979995
 21
-181.2435884139
 31
0.0
  0
LINE
  5
1D9
  8
┌▓È_1
  6
STITCH
 10
652.31983130979995
 20
-163.7435884139
 30
0.0
 11
649.81983130980007
 21
-161.2435884139
 31
0.0
  0
LINE
  5
1DA
  8
┌▓È_1
  6
STITCH
 10
649.81983130980007
 20
-156.2435884139
 30
0.0
 11
652.31983130979995
 21
-153.7435884139
 31
0.0
  0
LINE
  5
1DB
  8
┌▓È_1
  6
STITCH
 10
649.81983130980007
 20
-156.2435884139
 30
0.0
 11
647.31983130979995
 21
-156.2435884139
 31
0.0
  0
LINE
  5
1DC
  8
┌▓È_1
  6
STITCH
 10
649.81983130980007
 20
-156.2435884139
 30
0.0
 11
649.81983130980007
 21
-161.2435884139
 31
0.0
  0
LINE
  5
1DD
  8
┌▓È_1
  6
STITCH
 10
649.81983130980007
 20
-161.2435884139
 30
0.0
 11
647.31983130979995
 21
-161.2435884139
 31
0.0
  0
LINE
  5
1DE
  8
┌▓È_1
  6
BORDER
 62
     3
 10
656.81983130979995
 20
-158.7435884139
 30
0.0
 11
642.81983130979995
 21
-158.7435884139
 31
0.0
  0
LINE
  5
1DF
  8
┌▓È_1
  6
BORDER
 62
     3
 10
656.81983130979995
 20
-118.7435884139
 30
0.0
 11
642.81983130979995
 21
-118.7435884139
 31
0.0
  0
LINE
  5
1E0
  8
┌▓È_1
  6
STITCH
 10
652.31983130979995
 20
-123.7435884139
 30
0.0
 11
649.81983130980007
 21
-121.2435884139
 31
0.0
  0
LINE
  5
1E1
  8
┌▓È_1
  6
STITCH
 10
649.81983130980007
 20
-116.2435884139
 30
0.0
 11
652.31983130979995
 21
-113.7435884139
 31
0.0
  0
LINE
  5
1E2
  8
┌▓È_1
 62
     5
 10
881.4047037055999
 20
-181.2435884139
 30
0.0
 11
897.4047037055999
 21
-181.2435884139
 31
0.0
  0
LINE
  5
1E3
  8
┌▓È_1
 62
     5
 10
881.4047037055999
 20
-176.2435884139
 30
0.0
 11
897.4047037055999
 21
-176.2435884139
 31
0.0
  0
LINE
  5
1E4
  8
┌▓È_1
 62
     5
 10
897.4047037055999
 20
-181.2435884139
 30
0.0
 11
897.4047037055999
 21
-106.2435884139
 31
0.0
  0
LINE
  5
1E5
  8
┌▓È_1
 62
     5
 10
881.4047037055999
 20
-106.2435884139
 30
0.0
 11
881.4047037055999
 21
-181.2435884139
 31
0.0
  0
LINE
  5
1E6
  8
┌▓È_1
 62
     5
 10
897.4047037055999
 20
-106.2435884139
 30
0.0
 11
881.4047037055999
 21
-106.2435884139
 31
0.0
  0
CIRCLE
  5
1E7
  8
┌▓È_1
 62
     5
 10
889.4047037055999
 20
-114.2435884139
 30
0.0
 40
5.0
  0
CIRCLE
  5
1E8
  8
┌▓È_1
 62
     5
 10
889.4047037055999
 20
-114.2435884139
 30
0.0
 40
2.5
  0
LINE
  5
1E9
  8
┌▓È_1
  6
BORDER
 62
     3
 10
889.4047037055999
 20
-107.2435884139
 30
0.0
 11
889.4047037055999
 21
-121.2435884139
 31
0.0
  0
LINE
  5
1EA
  8
┌▓È_1
  6
BORDER
 62
     3
 10
882.40470370560013
 20
-114.2435884139
 30
0.0
 11
896.4047037055999
 21
-114.2435884139
 31
0.0
  0
LINE
  5
1EB
  8
┌▓È_1
  6
BORDER
 62
     3
 10
882.40470370560013
 20
-154.2435884139
 30
0.0
 11
896.4047037055999
 21
-154.2435884139
 31
0.0
  0
CIRCLE
  5
1EC
  8
┌▓È_1
 62
     5
 10
889.4047037055999
 20
-154.2435884139
 30
0.0
 40
5.0
  0
CIRCLE
  5
1ED
  8
┌▓È_1
 62
     5
 10
889.4047037055999
 20
-154.2435884139
 30
0.0
 40
2.5
  0
LINE
  5
1EE
  8
┌▓È_1
  6
BORDER
 62
     3
 10
889.4047037055999
 20
-147.2435884139
 30
0.0
 11
889.4047037055999
 21
-161.2435884139
 31
0.0
  0
LINE
  5
1EF
  8
┌▓È_1
 62
     5
 10
1029.7431802681001
 20
-237.70114049719999
 30
0.0
 11
1038.4931802681001
 21
-228.95114049719999
 31
0.0
  0
LINE
  5
1F0
  8
┌▓È_1
 62
     5
 10
1004.7431802681
 20
-237.70114049719999
 30
0.0
 11
1029.7431802681001
 21
-237.70114049719999
 31
0.0
  0
LINE
  5
1F1
  8
┌▓È_1
 62
     5
 10
995.99318026809988
 20
-228.95114049719999
 30
0.0
 11
1004.7431802681
 21
-237.70114049719999
 31
0.0
  0
LINE
  5
1F2
  8
┌▓È_1
 62
     5
 10
981.31305063850004
 20
-228.95114049719999
 30
0.0
 11
1054.3116617496
 21
-228.95114049719999
 31
0.0
  0
LINE
  5
1F3
  8
┌▓È_1
  6
STITCH
 10
649.81983130980007
 20
-121.2435884139
 30
0.0
 11
647.31983130979995
 21
-121.2435884139
 31
0.0
  0
LINE
  5
1F4
  8
┌▓È_1
 62
     5
 10
652.31983130979995
 20
-181.2435884139
 30
0.0
 11
652.31983130979995
 21
-110.7435884139
 31
0.0
  0
LINE
  5
1F5
  8
┌▓È_1
 62
     5
 10
652.31983130979995
 20
-110.7435884139
 30
0.0
 11
647.81983130979995
 21
-110.7435884139
 31
0.0
  0
LINE
  5
1F6
  8
┌▓È_1
  6
STITCH
 10
784.81983130979995
 20
-181.2435884139
 30
0.0
 11
787.31983130979995
 21
-183.7435884139
 31
0.0
  0
LINE
  5
1F7
  8
┌▓È_1
  6
STITCH
 10
792.31983130979995
 20
-183.7435884139
 30
0.0
 11
794.81983130979995
 21
-181.2435884139
 31
0.0
  0
LINE
  5
1F8
  8
┌▓È_1
  6
STITCH
 10
792.31983130979995
 20
-183.7435884139
 30
0.0
 11
792.31983130979995
 21
-186.2435884139
 31
0.0
  0
LINE
  5
1F9
  8
┌▓È_1
  6
STITCH
 10
792.31983130979995
 20
-183.7435884139
 30
0.0
 11
787.31983130979995
 21
-183.7435884139
 31
0.0
  0
LINE
  5
1FA
  8
┌▓È_1
  6
STITCH
 10
787.31983130979995
 20
-183.7435884139
 30
0.0
 11
787.31983130979995
 21
-186.2435884139
 31
0.0
  0
ENDSEC
  0
EOF
