  0
SECTION
  2
HEADER
  9
$ACADVER
  1
AC1009
  9
$INSBASE
 10
0.0
 20
0.0
 30
0.0
  9
$EXTMIN
 10
562.53752001040004
 20
-411.7763569473999
 30
0.0
  9
$EXTMAX
 10
1112.5375200103999
 20
-31.7763569474
 30
0.0
  9
$LIMMIN
 10
0.0
 20
0.0
  9
$LIMMAX
 10
0.0
 20
0.0
  9
$ORTHOMODE
 70
     0
  9
$REGENMODE
 70
     1
  9
$FILLMODE
 70
     1
  9
$QTEXTMODE
 70
     0
  9
$MIRRTEXT
 70
     1
  9
$DRAGMODE
 70
     2
  9
$LTSCALE
 40
1.0
  9
$OSMODE
 70
    31
  9
$ATTMODE
 70
     1
  9
$TEXTSIZE
 40
0.0
  9
$TRACEWID
 40
0.05
  9
$TEXTSTYLE
  7
STANDARD
  9
$CLAYER
  8
0
  9
$CELTYPE
  6
CONTINUOUS
  9
$CECOLOR
 62
   256
  9
$DIMSCALE
 40
1.0
  9
$DIMASZ
 40
0.18
  9
$DIMEXO
 40
0.0625
  9
$DIMDLI
 40
0.38
  9
$DIMRND
 40
0.0
  9
$DIMDLE
 40
0.0
  9
$DIMEXE
 40
0.18
  9
$DIMTP
 40
0.0
  9
$DIMTM
 40
0.0
  9
$DIMTXT
 40
0.18
  9
$DIMCEN
 40
0.09
  9
$DIMTSZ
 40
0.0
  9
$DIMTOL
 70
     0
  9
$DIMLIM
 70
     0
  9
$DIMTIH
 70
     1
  9
$DIMTOH
 70
     1
  9
$DIMSE1
 70
     0
  9
$DIMSE2
 70
     0
  9
$DIMTAD
 70
     0
  9
$DIMZIN
 70
     0
  9
$DIMBLK
  1

  9
$DIMASO
 70
     1
  9
$DIMSHO
 70
     1
  9
$DIMPOST
  1

  9
$DIMAPOST
  1

  9
$DIMALT
 70
     0
  9
$DIMALTD
 70
     2
  9
$DIMALTF
 40
25.399999999999999
  9
$DIMLFAC
 40
1.0
  9
$DIMTOFL
 70
     0
  9
$DIMTVP
 40
0.0
  9
$DIMTIX
 70
     0
  9
$DIMSOXD
 70
     0
  9
$DIMSAH
 70
     0
  9
$DIMBLK1
  1

  9
$DIMBLK2
  1

  9
$DIMSTYLE
  2
STANDARD
  9
$DIMCLRD
 70
     0
  9
$DIMCLRE
 70
     0
  9
$DIMCLRT
 70
     0
  9
$DIMTFAC
 40
1.0
  9
$DIMGAP
 40
0.09
  9
$LUNITS
 70
     2
  9
$LUPREC
 70
     4
  9
$SKETCHINC
 40
0.1
  9
$FILLETRAD
 40
0.0
  9
$AUNITS
 70
     0
  9
$AUPREC
 70
     0
  9
$MENU
  1
acad
  9
$ELEVATION
 40
0.0
  9
$PELEVATION
 40
0.0
  9
$THICKNESS
 40
0.0
  9
$LIMCHECK
 70
     0
  9
$BLIPMODE
 70
     0
  9
$CHAMFERA
 40
0.0
  9
$CHAMFERB
 40
0.0
  9
$SKPOLY
 70
     0
  9
$TDCREATE
 40
2454862.7659550351
  9
$TDUPDATE
 40
2454862.7661203239
  9
$TDINDWG
 40
0.0001728935
  9
$TDUSRTIMER
 40
0.0001725347
  9
$USRTIMER
 70
     1
  9
$ANGBASE
 50
0.0
  9
$ANGDIR
 70
     0
  9
$PDMODE
 70
     3
  9
$PDSIZE
 40
-1.0
  9
$PLINEWID
 40
0.0
  9
$COORDS
 70
     2
  9
$SPLFRAME
 70
     0
  9
$SPLINETYPE
 70
     6
  9
$SPLINESEGS
 70
     8
  9
$ATTDIA
 70
     0
  9
$ATTREQ
 70
     1
  9
$HANDLING
 70
     1
  9
$HANDSEED
  5
4A6
  9
$SURFTAB1
 70
     6
  9
$SURFTAB2
 70
     6
  9
$SURFTYPE
 70
     6
  9
$SURFU
 70
     6
  9
$SURFV
 70
     6
  9
$UCSNAME
  2

  9
$UCSORG
 10
0.0
 20
0.0
 30
0.0
  9
$UCSXDIR
 10
1.0
 20
0.0
 30
0.0
  9
$UCSYDIR
 10
0.0
 20
1.0
 30
0.0
  9
$PUCSNAME
  2

  9
$PUCSORG
 10
0.0
 20
0.0
 30
0.0
  9
$PUCSXDIR
 10
1.0
 20
0.0
 30
0.0
  9
$PUCSYDIR
 10
0.0
 20
1.0
 30
0.0
  9
$USERI1
 70
     0
  9
$USERI2
 70
     0
  9
$USERI3
 70
     0
  9
$USERI4
 70
     0
  9
$USERI5
 70
     0
  9
$USERR1
 40
0.0
  9
$USERR2
 40
0.0
  9
$USERR3
 40
0.0
  9
$USERR4
 40
0.0
  9
$USERR5
 40
0.0
  9
$WORLDVIEW
 70
     1
  9
$SHADEDGE
 70
     3
  9
$SHADEDIF
 70
    70
  9
$TILEMODE
 70
     1
  9
$MAXACTVP
 70
    16
  9
$PLIMCHECK
 70
     0
  9
$PEXTMIN
 10
1.0000000000000000E+020
 20
1.0000000000000000E+020
 30
1.0000000000000000E+020
  9
$PEXTMAX
 10
-1.0000000000000000E+020
 20
-1.0000000000000000E+020
 30
-1.0000000000000000E+020
  9
$PLIMMIN
 10
0.0
 20
0.0
  9
$PLIMMAX
 10
12.0
 20
9.0
  9
$UNITMODE
 70
     0
  9
$VISRETAIN
 70
     0
  9
$PLINEGEN
 70
     1
  9
$PSLTSCALE
 70
     0
  0
ENDSEC
  0
SECTION
  2
TABLES
  0
TABLE
  2
VPORT
 70
     2
  0
VPORT
  2
*ACTIVE
 70
     0
 10
0.0
 20
0.0
 11
1.0
 21
1.0
 12
837.53752001039993
 22
-221.77635694739999
 13
0.0
 23
0.0
 14
1.0
 24
1.0
 15
0.0
 25
0.0
 16
0.0
 26
0.0
 36
1.0
 17
0.0
 27
0.0
 37
0.0
 40
397.98585584749179
 41
1.3903818953323901
 42
50.0
 43
0.0
 44
0.0
 50
0.0
 51
0.0
 71
     0
 72
   100
 73
     1
 74
     1
 75
     0
 76
     0
 77
     0
 78
     0
  0
ENDTAB
  0
TABLE
  2
LTYPE
 70
    11
  0
LTYPE
  2
CONTINUOUS
 70
     0
  3
Solid line
 72
    65
 73
     0
 40
0.0
  0
LTYPE
  2
DOT
 70
     0
  3
. . . . . . . . 
 72
    65
 73
     2
 40
1.0
 49
0.0
 49
-1.0
  0
LTYPE
  2
DASHED
 70
     0
  3
___  ___  ___  ___  
 72
    65
 73
     2
 40
4.0
 49
3.0
 49
-1.0
  0
LTYPE
  2
HIDDEN
 70
     0
  3
__ __ __ __ 
 72
    65
 73
     2
 40
3.0
 49
2.0
 49
-1.0
  0
LTYPE
  2
STITCH
 70
     0
  3
_ _ _ _ 
 72
    65
 73
     2
 40
2.0
 49
1.0
 49
-1.0
  0
LTYPE
  2
CENTER
 70
     0
  3
______  __  ______  __  
 72
    65
 73
     4
 40
43.0
 49
40.0
 49
-1.0
 49
1.0
 49
-1.0
  0
LTYPE
  2
DASHDOT
 70
     0
  3
____ . ____ . 
 72
    65
 73
     4
 40
32.0
 49
30.0
 49
-1.0
 49
0.0
 49
-1.0
  0
LTYPE
  2
BORDER
 70
     0
  3
__ . __ . 
 72
    65
 73
     4
 40
22.0
 49
20.0
 49
-1.0
 49
0.0
 49
-1.0
  0
LTYPE
  2
CUTTING
 70
     0
  3
________   ___   ___   
 72
    65
 73
     6
 40
45.0
 49
40.0
 49
-1.0
 49
1.0
 49
-1.0
 49
1.0
 49
-1.0
  0
LTYPE
  2
PHANTOM
 70
     0
  3
______  __  __  
 72
    65
 73
     6
 40
35.0
 49
30.0
 49
-1.0
 49
1.0
 49
-1.0
 49
1.0
 49
-1.0
  0
LTYPE
  2
DIVIDE
 70
     0
  3
____ . . ____ . . 
 72
    65
 73
     6
 40
23.0
 49
20.0
 49
-1.0
 49
0.0
 49
-1.0
 49
0.0
 49
-1.0
  0
ENDTAB
  0
TABLE
  2
LAYER
 70
     4
  0
LAYER
  2
0
 70
     0
 62
     7
  6
CONTINUOUS
  0
LAYER
  2
Éíû@É³
 70
     0
 62
     7
  6
CONTINUOUS
  0
LAYER
  2
┌▓È_1
 70
     0
 62
     7
  6
CONTINUOUS
  0
LAYER
  2
Defpoints
 70
     0
 62
     7
  6
CONTINUOUS
  0
ENDTAB
  0
TABLE
  2
STYLE
 70
     1
  0
STYLE
  2
STANDARD
 70
     0
 40
0.0
 41
1.0
 50
0.0
 71
     0
 42
0.0
  3
txt
  4
extfont
  0
ENDTAB
  0
TABLE
  2
VIEW
 70
     0
  0
ENDTAB
  0
TABLE
  2
UCS
 70
     0
  0
ENDTAB
  0
TABLE
  2
APPID
 70
     2
  0
APPID
  2
ACAD
 70
     0
  0
APPID
  2
DCO15
 70
     0
  0
ENDTAB
  0
TABLE
  2
DIMSTYLE
 70
     4
  0
DIMSTYLE
  2
STANDARD
 70
     0
  3

  4

  5

  6

  7

 40
1.0
 41
0.18
 42
0.0625
 43
0.38
 44
0.18
 45
0.0
 46
0.0
 47
0.0
 48
0.0
140
0.18
141
0.09
142
0.0
143
25.399999999999999
144
1.0
145
0.0
146
1.0
147
0.09
 71
     0
 72
     0
 73
     1
 74
     1
 75
     0
 76
     0
 77
     0
 78
     0
170
     0
171
     2
172
     0
173
     0
174
     0
175
     0
176
     0
177
     0
178
     0
  0
DIMSTYLE
  2
VELDIM0
 70
     0
  3

  4

  5

  6

  7

 40
1.0
 41
6.0
 42
0.0625
 43
0.38
 44
0.5
 45
0.0
 46
3.0
 47
0.0
 48
0.0
140
5.9972220420999998
141
0.09
142
0.0
143
25.399999999999999
144
1.0
145
0.0
146
1.0
147
0.09
 71
     0
 72
     0
 73
     0
 74
     0
 75
     0
 76
     0
 77
     0
 78
     8
170
     0
171
     2
172
     0
173
     0
174
     0
175
     0
176
     0
177
     0
178
     0
  0
DIMSTYLE
  2
VELDIM1
 70
     0
  3

  4

  5

  6

  7

 40
1.0
 41
6.0
 42
0.0625
 43
0.38
 44
1.25
 45
0.0
 46
5.0
 47
0.0
 48
0.0
140
5.9972220420999998
141
0.09
142
0.0
143
25.399999999999999
144
1.0
145
0.0
146
1.0
147
0.09
 71
     0
 72
     0
 73
     0
 74
     0
 75
     0
 76
     0
 77
     0
 78
     8
170
     0
171
     2
172
     0
173
     0
174
     0
175
     0
176
     0
177
     0
178
     0
  0
DIMSTYLE
  2
VELDIM2
 70
     0
  3

  4

  5

  6

  7

 40
1.0
 41
6.0
 42
0.0625
 43
0.38
 44
1.0
 45
0.0
 46
6.0
 47
0.0
 48
0.0
140
5.9972220420999998
141
0.09
142
0.0
143
25.399999999999999
144
1.0
145
0.0
146
1.0
147
0.09
 71
     0
 72
     0
 73
     0
 74
     0
 75
     0
 76
     0
 77
     0
 78
     8
170
     0
171
     2
172
     0
173
     0
174
     0
175
     0
176
     0
177
     0
178
     0
  0
ENDTAB
  0
ENDSEC
  0
SECTION
  2
BLOCKS
  0
BLOCK
  8
0
  2
$MODEL_SPACE
 70
     0
 10
0.0
 20
0.0
 30
0.0
  3
$MODEL_SPACE
  1

  0
ENDBLK
  5
E
  8
0
  0
BLOCK
 67
     1
  8
0
  2
$PAPER_SPACE
 70
     0
 10
0.0
 20
0.0
 30
0.0
  3
$PAPER_SPACE
  1

  0
ENDBLK
  5
10
 67
     1
  8
0
  0
BLOCK
  8
0
  2
*D0
 70
     1
 10
0.0
 20
0.0
 30
0.0
  3
*D0
  1

  0
TEXT
  5
31
  8
0
 62
     0
 10
829.15682342759987
 20
-154.6330408693
 30
0.0
 40
5.9972220420999998
  1
85
 50
90.0
  0
LINE
  5
32
  8
0
 62
     0
 10
851.21515672910004
 20
-108.60526319740001
 30
0.0
 11
830.71515672910004
 21
-108.60526319740001
 31
0.0
  0
LINE
  5
33
  8
0
 62
     0
 10
851.21515672910004
 20
-193.60526319740001
 30
0.0
 11
830.71515672910004
 21
-193.60526319740001
 31
0.0
  0
LINE
  5
34
  8
0
 62
     0
 10
831.21515672910004
 20
-108.60526319740001
 30
0.0
 11
831.21515672910004
 21
-144.0497078537999
 31
0.0
  0
LINE
  5
35
  8
0
 62
     0
 10
831.21515672910004
 20
-108.60526319740001
 30
0.0
 11
831.21515672910004
 21
-158.16081854110001
 31
0.0
  0
LINE
  5
36
  8
0
 62
     0
 10
831.21515672910004
 20
-193.60526319740001
 30
0.0
 11
831.21515672910004
 21
-144.0497078537999
 31
0.0
  0
LINE
  5
37
  8
0
 62
     0
 10
831.21515672910004
 20
-193.60526319740001
 30
0.0
 11
831.21515672910004
 21
-158.16081854110001
 31
0.0
  0
LINE
  5
38
  8
0
 62
     0
 10
831.21515672910004
 20
-193.60526319740001
 30
0.0
 11
831.21515672910004
 21
-190.60526319740001
 31
0.0
  0
SOLID
  5
39
  8
0
 62
     0
 10
831.21515672910004
 20
-193.60526319740001
 30
0.0
 11
829.71515672910004
 21
-187.60526319740001
 31
0.0
 12
832.71515672910004
 22
-187.60526319740001
 32
0.0
 13
831.21515672910004
 23
-189.10526319740001
 33
0.0
  0
LINE
  5
3A
  8
0
 62
     0
 10
831.21515672910004
 20
-108.60526319740001
 30
0.0
 11
831.21515672910004
 21
-111.60526319740001
 31
0.0
  0
SOLID
  5
3B
  8
0
 62
     0
 10
831.21515672910004
 20
-108.60526319740001
 30
0.0
 11
832.71515672910004
 21
-114.60526319740001
 31
0.0
 12
829.71515672910004
 22
-114.60526319740001
 32
0.0
 13
831.21515672910004
 23
-113.10526319740001
 33
0.0
  0
ENDBLK
  5
3C
  8
0
  0
BLOCK
  8
0
  2
*D1
 70
     1
 10
0.0
 20
0.0
 30
0.0
  3
*D1
  1

  0
TEXT
  5
41
  8
0
 62
     0
 10
829.15682342759987
 20
-106.6330408693
 30
0.0
 40
5.9972220420999998
  1
11
 50
90.0
  0
LINE
  5
42
  8
0
 62
     0
 10
850.21515672910004
 20
-97.605263197400006
 30
0.0
 11
830.71515672910004
 21
-97.605263197400006
 31
0.0
  0
LINE
  5
43
  8
0
 62
     0
 10
851.21515672910004
 20
-108.60526319740001
 30
0.0
 11
830.71515672910004
 21
-108.60526319740001
 31
0.0
  0
LINE
  5
44
  8
0
 62
     0
 10
831.21515672910004
 20
-97.605263197400006
 30
0.0
 11
831.21515672910004
 21
-97.605263197400006
 31
0.0
  0
LINE
  5
45
  8
0
 62
     0
 10
831.21515672910004
 20
-97.605263197400006
 30
0.0
 11
831.21515672910004
 21
-108.60526319740001
 31
0.0
  0
LINE
  5
46
  8
0
 62
     0
 10
831.21515672910004
 20
-108.60526319740001
 30
0.0
 11
831.21515672910004
 21
-97.605263197400006
 31
0.0
  0
LINE
  5
47
  8
0
 62
     0
 10
831.21515672910004
 20
-108.60526319740001
 30
0.0
 11
831.21515672910004
 21
-108.60526319740001
 31
0.0
  0
LINE
  5
48
  8
0
 62
     0
 10
831.21515672910004
 20
-108.60526319740001
 30
0.0
 11
831.21515672910004
 21
-111.60526319740001
 31
0.0
  0
SOLID
  5
49
  8
0
 62
     0
 10
831.21515672910004
 20
-108.60526319740001
 30
0.0
 11
832.71515672910004
 21
-114.60526319740001
 31
0.0
 12
829.71515672910004
 22
-114.60526319740001
 32
0.0
 13
831.21515672910004
 23
-113.10526319740001
 33
0.0
  0
LINE
  5
4A
  8
0
 62
     0
 10
831.21515672910004
 20
-97.605263197400006
 30
0.0
 11
831.21515672910004
 21
-94.605263197399992
 31
0.0
  0
SOLID
  5
4B
  8
0
 62
     0
 10
831.21515672910004
 20
-97.605263197400006
 30
0.0
 11
829.71515672910004
 21
-91.605263197399978
 31
0.0
 12
832.71515672910004
 22
-91.605263197399978
 32
0.0
 13
831.21515672910004
 23
-93.105263197399992
 33
0.0
  0
ENDBLK
  5
4C
  8
0
  0
BLOCK
  8
0
  2
*D2
 70
     1
 10
0.0
 20
0.0
 30
0.0
  3
*D2
  1

  0
TEXT
  5
50
  8
0
 62
     0
 10
632.35159946919998
 20
-162.89692970519999
 30
0.0
 40
5.9972220420999998
  1
120
 50
90.0
  0
LINE
  5
51
  8
0
 62
     0
 10
653.40993277079986
 20
-97.605263197400006
 30
0.0
 11
633.90993277079986
 21
-97.605263197400006
 31
0.0
  0
LINE
  5
52
  8
0
 62
     0
 10
658.40993277079986
 20
-217.60526319740001
 30
0.0
 11
633.90993277079986
 21
-217.60526319740001
 31
0.0
  0
LINE
  5
53
  8
0
 62
     0
 10
634.40993277079997
 20
-97.605263197400006
 30
0.0
 11
634.40993277079997
 21
-148.7858190179
 31
0.0
  0
LINE
  5
54
  8
0
 62
     0
 10
634.40993277079997
 20
-97.605263197400006
 30
0.0
 11
634.40993277079997
 21
-166.424707377
 31
0.0
  0
LINE
  5
55
  8
0
 62
     0
 10
634.40993277079997
 20
-217.60526319740001
 30
0.0
 11
634.40993277079997
 21
-148.7858190179
 31
0.0
  0
LINE
  5
56
  8
0
 62
     0
 10
634.40993277079997
 20
-217.60526319740001
 30
0.0
 11
634.40993277079997
 21
-166.424707377
 31
0.0
  0
LINE
  5
57
  8
0
 62
     0
 10
634.40993277079997
 20
-217.60526319740001
 30
0.0
 11
634.40993277079997
 21
-214.60526319740001
 31
0.0
  0
SOLID
  5
58
  8
0
 62
     0
 10
634.40993277079997
 20
-217.60526319740001
 30
0.0
 11
632.90993277079986
 21
-211.60526319740001
 31
0.0
 12
635.90993277079986
 22
-211.60526319740001
 32
0.0
 13
634.40993277079997
 23
-213.10526319740001
 33
0.0
  0
LINE
  5
59
  8
0
 62
     0
 10
634.40993277079997
 20
-97.605263197400006
 30
0.0
 11
634.40993277079997
 21
-100.60526319740001
 31
0.0
  0
SOLID
  5
5A
  8
0
 62
     0
 10
634.40993277079997
 20
-97.605263197400006
 30
0.0
 11
635.90993277079986
 21
-103.60526319740001
 31
0.0
 12
632.90993277079986
 22
-103.60526319740001
 32
0.0
 13
634.40993277079997
 23
-102.10526319740001
 33
0.0
  0
ENDBLK
  5
5B
  8
0
  0
BLOCK
  8
0
  2
*D3
 70
     1
 10
0.0
 20
0.0
 30
0.0
  3
*D3
  1

  0
TEXT
  5
5F
  8
0
 62
     0
 10
765.37945978649987
 20
-268.84380489590001
 30
0.0
 40
5.9972220420999998
  1
11
  0
LINE
  5
60
  8
0
 62
     0
 10
774.40723745830007
 20
-289.90213819740001
 30
0.0
 11
774.40723745830007
 21
-270.40213819740001
 31
0.0
  0
LINE
  5
61
  8
0
 62
     0
 10
763.40723745829996
 20
-290.90213819740001
 30
0.0
 11
763.40723745829996
 21
-270.40213819740001
 31
0.0
  0
LINE
  5
62
  8
0
 62
     0
 10
774.40723745830007
 20
-270.90213819740001
 30
0.0
 11
774.40723745830007
 21
-270.90213819740001
 31
0.0
  0
LINE
  5
63
  8
0
 62
     0
 10
774.40723745830007
 20
-270.90213819740001
 30
0.0
 11
763.40723745829996
 21
-270.90213819740001
 31
0.0
  0
LINE
  5
64
  8
0
 62
     0
 10
763.40723745829996
 20
-270.90213819740001
 30
0.0
 11
774.40723745830007
 21
-270.90213819740001
 31
0.0
  0
LINE
  5
65
  8
0
 62
     0
 10
763.40723745829996
 20
-270.90213819740001
 30
0.0
 11
763.40723745829996
 21
-270.90213819740001
 31
0.0
  0
LINE
  5
66
  8
0
 62
     0
 10
763.40723745829996
 20
-270.90213819740001
 30
0.0
 11
760.40723745829996
 21
-270.90213819740001
 31
0.0
  0
SOLID
  5
67
  8
0
 62
     0
 10
763.40723745829996
 20
-270.90213819740001
 30
0.0
 11
757.40723745830007
 21
-272.40213819740001
 31
0.0
 12
757.40723745830007
 22
-269.40213819740001
 32
0.0
 13
758.90723745829996
 23
-270.90213819740001
 33
0.0
  0
LINE
  5
68
  8
0
 62
     0
 10
774.40723745830007
 20
-270.90213819740001
 30
0.0
 11
777.40723745829996
 21
-270.90213819740001
 31
0.0
  0
SOLID
  5
69
  8
0
 62
     0
 10
774.40723745830007
 20
-270.90213819740001
 30
0.0
 11
780.40723745829996
 21
-269.40213819740001
 31
0.0
 12
780.40723745829996
 22
-272.40213819740001
 32
0.0
 13
778.90723745830007
 23
-270.90213819740001
 33
0.0
  0
ENDBLK
  5
6A
  8
0
  0
BLOCK
  8
0
  2
*D4
 70
     1
 10
0.0
 20
0.0
 30
0.0
  3
*D4
  1

  0
TEXT
  5
6E
  8
0
 62
     0
 10
717.37945978649998
 20
-268.84380489590001
 30
0.0
 40
5.9972220420999998
  1
85
  0
LINE
  5
6F
  8
0
 62
     0
 10
763.40723745829996
 20
-290.90213819740001
 30
0.0
 11
763.40723745829996
 21
-270.40213819740001
 31
0.0
  0
LINE
  5
70
  8
0
 62
     0
 10
678.40723745830007
 20
-290.90213819740001
 30
0.0
 11
678.40723745830007
 21
-270.40213819740001
 31
0.0
  0
LINE
  5
71
  8
0
 62
     0
 10
763.40723745829996
 20
-270.90213819740001
 30
0.0
 11
727.96279280190004
 21
-270.90213819740001
 31
0.0
  0
LINE
  5
72
  8
0
 62
     0
 10
763.40723745829996
 20
-270.90213819740001
 30
0.0
 11
713.8516821147
 21
-270.90213819740001
 31
0.0
  0
LINE
  5
73
  8
0
 62
     0
 10
678.40723745830007
 20
-270.90213819740001
 30
0.0
 11
727.96279280190004
 21
-270.90213819740001
 31
0.0
  0
LINE
  5
74
  8
0
 62
     0
 10
678.40723745830007
 20
-270.90213819740001
 30
0.0
 11
713.8516821147
 21
-270.90213819740001
 31
0.0
  0
LINE
  5
75
  8
0
 62
     0
 10
678.40723745830007
 20
-270.90213819740001
 30
0.0
 11
681.40723745829996
 21
-270.90213819740001
 31
0.0
  0
SOLID
  5
76
  8
0
 62
     0
 10
678.40723745830007
 20
-270.90213819740001
 30
0.0
 11
684.40723745829996
 21
-269.40213819740001
 31
0.0
 12
684.40723745829996
 22
-272.40213819740001
 32
0.0
 13
682.90723745830007
 23
-270.90213819740001
 33
0.0
  0
LINE
  5
77
  8
0
 62
     0
 10
763.40723745829996
 20
-270.90213819740001
 30
0.0
 11
760.40723745829996
 21
-270.90213819740001
 31
0.0
  0
SOLID
  5
78
  8
0
 62
     0
 10
763.40723745829996
 20
-270.90213819740001
 30
0.0
 11
757.40723745830007
 21
-272.40213819740001
 31
0.0
 12
757.40723745830007
 22
-269.40213819740001
 32
0.0
 13
758.90723745829996
 23
-270.90213819740001
 33
0.0
  0
ENDBLK
  5
79
  8
0
  0
BLOCK
  8
0
  2
*D5
 70
     1
 10
0.0
 20
0.0
 30
0.0
  3
*D5
  1

  0
TEXT
  5
7D
  8
0
 62
     0
 10
662.87945978649998
 20
-268.84380489590001
 30
0.0
 40
5.9972220420999998
  1
24
  0
LINE
  5
7E
  8
0
 62
     0
 10
678.40723745830007
 20
-290.90213819740001
 30
0.0
 11
678.40723745830007
 21
-270.40213819740001
 31
0.0
  0
LINE
  5
7F
  8
0
 62
     0
 10
654.40723745829996
 20
-289.90213819740001
 30
0.0
 11
654.40723745829996
 21
-270.40213819740001
 31
0.0
  0
LINE
  5
80
  8
0
 62
     0
 10
678.40723745830007
 20
-270.90213819740001
 30
0.0
 11
673.46279280190004
 21
-270.90213819740001
 31
0.0
  0
LINE
  5
81
  8
0
 62
     0
 10
678.40723745830007
 20
-270.90213819740001
 30
0.0
 11
659.3516821147
 21
-270.90213819740001
 31
0.0
  0
LINE
  5
82
  8
0
 62
     0
 10
654.40723745829996
 20
-270.90213819740001
 30
0.0
 11
673.46279280190004
 21
-270.90213819740001
 31
0.0
  0
LINE
  5
83
  8
0
 62
     0
 10
654.40723745829996
 20
-270.90213819740001
 30
0.0
 11
659.3516821147
 21
-270.90213819740001
 31
0.0
  0
LINE
  5
84
  8
0
 62
     0
 10
654.40723745829996
 20
-270.90213819740001
 30
0.0
 11
651.40723745829996
 21
-270.90213819740001
 31
0.0
  0
SOLID
  5
85
  8
0
 62
     0
 10
654.40723745829996
 20
-270.90213819740001
 30
0.0
 11
648.40723745829996
 21
-272.40213819740001
 31
0.0
 12
648.40723745829996
 22
-269.40213819740001
 32
0.0
 13
649.90723745830007
 23
-270.90213819740001
 33
0.0
  0
LINE
  5
86
  8
0
 62
     0
 10
678.40723745830007
 20
-270.90213819740001
 30
0.0
 11
681.40723745829996
 21
-270.90213819740001
 31
0.0
  0
SOLID
  5
87
  8
0
 62
     0
 10
678.40723745830007
 20
-270.90213819740001
 30
0.0
 11
684.40723745829996
 21
-269.40213819740001
 31
0.0
 12
684.40723745829996
 22
-272.40213819740001
 32
0.0
 13
682.90723745830007
 23
-270.90213819740001
 33
0.0
  0
ENDBLK
  5
88
  8
0
  0
BLOCK
  8
0
  2
*D6
 70
     1
 10
0.0
 20
0.0
 30
0.0
  3
*D6
  1

  0
TEXT
  5
8C
  8
0
 62
     0
 10
709.11826626309994
 20
-235.54692989590001
 30
0.0
 40
5.9972220420999998
  1
120
  0
LINE
  5
8D
  8
0
 62
     0
 10
654.40993277079986
 20
-213.60526319740001
 30
0.0
 11
654.40993277079986
 21
-238.10526319740001
 31
0.0
  0
LINE
  5
8E
  8
0
 62
     0
 10
774.40993277079986
 20
-218.60526319740001
 30
0.0
 11
774.40993277079986
 21
-238.10526319740001
 31
0.0
  0
LINE
  5
8F
  8
0
 62
     0
 10
654.40993277079986
 20
-237.60526319740001
 30
0.0
 11
723.22937695029998
 21
-237.60526319740001
 31
0.0
  0
LINE
  5
90
  8
0
 62
     0
 10
654.40993277079986
 20
-237.60526319740001
 30
0.0
 11
705.59048859129996
 21
-237.60526319740001
 31
0.0
  0
LINE
  5
91
  8
0
 62
     0
 10
774.40993277079986
 20
-237.60526319740001
 30
0.0
 11
723.22937695029998
 21
-237.60526319740001
 31
0.0
  0
LINE
  5
92
  8
0
 62
     0
 10
774.40993277079986
 20
-237.60526319740001
 30
0.0
 11
705.59048859129996
 21
-237.60526319740001
 31
0.0
  0
LINE
  5
93
  8
0
 62
     0
 10
774.40993277079986
 20
-237.60526319740001
 30
0.0
 11
771.40993277079986
 21
-237.60526319740001
 31
0.0
  0
SOLID
  5
94
  8
0
 62
     0
 10
774.40993277079986
 20
-237.60526319740001
 30
0.0
 11
768.40993277079997
 21
-239.10526319740001
 31
0.0
 12
768.40993277079997
 22
-236.10526319740001
 32
0.0
 13
769.90993277079986
 23
-237.60526319740001
 33
0.0
  0
LINE
  5
95
  8
0
 62
     0
 10
654.40993277079986
 20
-237.60526319740001
 30
0.0
 11
657.40993277079986
 21
-237.60526319740001
 31
0.0
  0
SOLID
  5
96
  8
0
 62
     0
 10
654.40993277079986
 20
-237.60526319740001
 30
0.0
 11
660.40993277079997
 21
-236.10526319740001
 31
0.0
 12
660.40993277079997
 22
-239.10526319740001
 32
0.0
 13
658.90993277079986
 23
-237.60526319740001
 33
0.0
  0
ENDBLK
  5
97
  8
0
  0
BLOCK
  8
0
  2
*D7
 70
     1
 10
0.0
 20
0.0
 30
0.0
  3
*D7
  1

  0
TEXT
  5
9B
  8
0
 62
     0
 10
1000.9659897487001
 20
-143.7332684376
 30
0.0
 40
5.9972220420999998
  1
%%c8.5
  0
LINE
  5
9C
  8
0
 62
     0
 10
1031.0354339282001
 20
-187.61463819740001
 30
0.0
 11
1031.0354339282001
 21
-145.2916017391
 31
0.0
  0
LINE
  5
9D
  8
0
 62
     0
 10
988.53543392820006
 20
-187.61463819740001
 30
0.0
 11
988.53543392820006
 21
-145.2916017391
 31
0.0
  0
LINE
  5
9E
  8
0
 62
     0
 10
1031.0354339282001
 20
-145.7916017391
 30
0.0
 11
1022.1326557795001
 21
-145.7916017391
 31
0.0
  0
LINE
  5
9F
  8
0
 62
     0
 10
1031.0354339282001
 20
-145.7916017391
 30
0.0
 11
997.4382120767998
 21
-145.7916017391
 31
0.0
  0
LINE
  5
A0
  8
0
 62
     0
 10
988.53543392820006
 20
-145.7916017391
 30
0.0
 11
1022.1326557795001
 21
-145.7916017391
 31
0.0
  0
LINE
  5
A1
  8
0
 62
     0
 10
988.53543392820006
 20
-145.7916017391
 30
0.0
 11
997.4382120767998
 21
-145.7916017391
 31
0.0
  0
LINE
  5
A2
  8
0
 62
     0
 10
988.53543392820006
 20
-145.7916017391
 30
0.0
 11
991.53543392819995
 21
-145.7916017391
 31
0.0
  0
SOLID
  5
A3
  8
0
 62
     0
 10
988.53543392820006
 20
-145.7916017391
 30
0.0
 11
994.53543392820006
 21
-144.2916017391
 31
0.0
 12
994.53543392820006
 22
-147.2916017391
 32
0.0
 13
993.03543392820006
 23
-145.7916017391
 33
0.0
  0
LINE
  5
A4
  8
0
 62
     0
 10
1031.0354339282001
 20
-145.7916017391
 30
0.0
 11
1028.0354339282001
 21
-145.7916017391
 31
0.0
  0
SOLID
  5
A5
  8
0
 62
     0
 10
1031.0354339282001
 20
-145.7916017391
 30
0.0
 11
1025.0354339282001
 21
-147.2916017391
 31
0.0
 12
1025.0354339282001
 22
-144.2916017391
 32
0.0
 13
1026.5354339282001
 23
-145.7916017391
 33
0.0
  0
ENDBLK
  5
A6
  8
0
  0
BLOCK
  8
0
  2
*D8
 70
     1
 10
0.0
 20
0.0
 30
0.0
  3
*D8
  1

  0
TEXT
  5
AA
  8
0
 62
     0
 10
1004.4937674205
 20
-164.11445333340001
 30
0.0
 40
5.9972220420999998
  1
%%c5
  0
LINE
  5
AB
  8
0
 62
     0
 10
1022.2854339282
 20
-196.36463819740001
 30
0.0
 11
1022.2854339282
 21
-165.67278663490001
 31
0.0
  0
LINE
  5
AC
  8
0
 62
     0
 10
997.28543392820006
 20
-196.36463819740001
 30
0.0
 11
997.28543392820006
 21
-165.67278663490001
 31
0.0
  0
LINE
  5
AD
  8
0
 62
     0
 10
1022.2854339282
 20
-166.17278663490001
 30
0.0
 11
1018.6048781077
 21
-166.17278663490001
 31
0.0
  0
LINE
  5
AE
  8
0
 62
     0
 10
1022.2854339282
 20
-166.17278663490001
 30
0.0
 11
1000.9659897487001
 21
-166.17278663490001
 31
0.0
  0
LINE
  5
AF
  8
0
 62
     0
 10
997.28543392820006
 20
-166.17278663490001
 30
0.0
 11
1018.6048781077
 21
-166.17278663490001
 31
0.0
  0
LINE
  5
B0
  8
0
 62
     0
 10
997.28543392820006
 20
-166.17278663490001
 30
0.0
 11
1000.9659897487001
 21
-166.17278663490001
 31
0.0
  0
LINE
  5
B1
  8
0
 62
     0
 10
997.28543392820006
 20
-166.17278663490001
 30
0.0
 11
994.28543392819995
 21
-166.17278663490001
 31
0.0
  0
SOLID
  5
B2
  8
0
 62
     0
 10
997.28543392820006
 20
-166.17278663490001
 30
0.0
 11
991.28543392819995
 21
-167.67278663490001
 31
0.0
 12
991.28543392819995
 22
-164.67278663490001
 32
0.0
 13
992.78543392820006
 23
-166.17278663490001
 33
0.0
  0
LINE
  5
B3
  8
0
 62
     0
 10
1022.2854339282
 20
-166.17278663490001
 30
0.0
 11
1025.2854339282001
 21
-166.17278663490001
 31
0.0
  0
SOLID
  5
B4
  8
0
 62
     0
 10
1022.2854339282
 20
-166.17278663490001
 30
0.0
 11
1028.2854339282001
 21
-164.67278663490001
 31
0.0
 12
1028.2854339282001
 22
-167.67278663490001
 32
0.0
 13
1026.7854339282001
 23
-166.17278663490001
 33
0.0
  0
ENDBLK
  5
B5
  8
0
  0
BLOCK
  8
0
  2
*D9
 70
     1
 10
0.0
 20
0.0
 30
0.0
  3
*D9
  1

  0
TEXT
  5
B9
  8
0
 62
     0
 10
667.05422873400005
 20
-74.223810315999998
 30
0.0
 40
5.9972220420999998
  1
4.5t
  0
LINE
  5
BA
  8
0
 62
     0
 10
658.90993277079986
 20
-96.605263197400006
 30
0.0
 11
658.90993277079986
 21
-75.782143617599999
 31
0.0
  0
LINE
  5
BB
  8
0
 62
     0
 10
654.40993277079986
 20
-96.605263197400006
 30
0.0
 11
654.40993277079986
 21
-75.782143617599999
 31
0.0
  0
LINE
  5
BC
  8
0
 62
     0
 10
658.90993277079986
 20
-76.282143617599999
 30
0.0
 11
684.6931170931
 21
-76.282143617599999
 31
0.0
  0
LINE
  5
BD
  8
0
 62
     0
 10
658.90993277079986
 20
-76.282143617599999
 30
0.0
 11
663.52645106219995
 21
-76.282143617599999
 31
0.0
  0
LINE
  5
BE
  8
0
 62
     0
 10
654.40993277079986
 20
-76.282143617599999
 30
0.0
 11
684.6931170931
 21
-76.282143617599999
 31
0.0
  0
LINE
  5
BF
  8
0
 62
     0
 10
654.40993277079986
 20
-76.282143617599999
 30
0.0
 11
663.52645106219995
 21
-76.282143617599999
 31
0.0
  0
LINE
  5
C0
  8
0
 62
     0
 10
654.40993277079986
 20
-76.282143617599999
 30
0.0
 11
651.40993277079997
 21
-76.282143617599999
 31
0.0
  0
SOLID
  5
C1
  8
0
 62
     0
 10
654.40993277079986
 20
-76.282143617599999
 30
0.0
 11
648.40993277079986
 21
-77.782143617599985
 31
0.0
 12
648.40993277079986
 22
-74.782143617599999
 32
0.0
 13
649.90993277079986
 23
-76.282143617599999
 33
0.0
  0
LINE
  5
C2
  8
0
 62
     0
 10
658.90993277079986
 20
-76.282143617599999
 30
0.0
 11
661.90993277079986
 21
-76.282143617599999
 31
0.0
  0
SOLID
  5
C3
  8
0
 62
     0
 10
658.90993277079986
 20
-76.282143617599999
 30
0.0
 11
664.90993277079986
 21
-74.782143617599999
 31
0.0
 12
664.90993277079986
 22
-77.782143617599985
 32
0.0
 13
663.40993277079997
 23
-76.282143617599999
 33
0.0
  0
ENDBLK
  5
C4
  8
0
  0
BLOCK
  8
0
  2
*D10
 70
     1
 10
0.0
 20
0.0
 30
0.0
  3
*D10
  1

  0
TEXT
  5
C9
  8
0
 62
     0
 10
1004.4937674205
 20
-120.20421467120001
 30
0.0
 40
5.9972220420999998
  1
90%%d
 50
360.0
  0
ARC
  5
CA
  8
0
 62
     0
 10
1009.7854339282
 20
-209.86463819740001
 30
0.0
 40
86.485423621599978
 50
130.14557395349999
 51
135.0
  0
ARC
  5
CB
  8
0
 62
     0
 10
1009.7854339282
 20
-209.86463819740001
 30
0.0
 40
86.485423621599978
 50
45.0
 51
49.854426046500002
  0
SOLID
  5
CC
  8
0
 62
     0
 10
1070.9398634448
 20
-148.71020868080001
 30
0.0
 11
1076.2431643037
 21
-151.89218919620001
 31
0.0
 12
1074.1218439602001
 22
-154.01350953970001
 32
0.0
 13
1074.1218439602001
 23
-151.89218919620001
 33
0.0
  0
SOLID
  5
CD
  8
0
 62
     0
 10
948.63100441160009
 20
-148.71020868080001
 30
0.0
 11
945.44902389619995
 21
-154.01350953970001
 31
0.0
 12
943.32770355269997
 22
-151.89218919620001
 32
0.0
 13
945.44902389619995
 23
-151.89218919620001
 33
0.0
  0
ARC
  5
CE
  8
0
 62
     0
 10
1009.7854339282
 20
-209.86463819740001
 30
0.0
 40
86.485423621599978
 50
45.0
 51
84.081429621200016
  0
ARC
  5
CF
  8
0
 62
     0
 10
1009.7854339282
 20
-209.86463819740001
 30
0.0
 40
86.485423621599978
 50
95.918570378799998
 51
135.0
  0
LINE
  5
D0
  8
0
 62
     0
 10
1034.0463484776001
 20
-185.603723648
 30
0.0
 11
1073.9507779943001
 21
-145.69929413139999
 31
0.0
  0
LINE
  5
D1
  8
0
 62
     0
 10
985.52451937880005
 20
-185.603723648
 30
0.0
 11
945.62008986210003
 21
-145.69929413139999
 31
0.0
  0
ENDBLK
  5
D2
  8
0
  0
BLOCK
  8
0
  2
*D11
 70
     1
 10
0.0
 20
0.0
 30
0.0
  3
*D11
  1

  0
TEXT
  5
DA
  8
0
 62
     0
 10
631.34890415669997
 20
-302.42991586929998
 30
0.0
 40
5.9972220420999998
  1
16
 50
90.0
  0
LINE
  5
DB
  8
0
 62
     0
 10
652.40723745829996
 20
-290.90213819740001
 30
0.0
 11
633.40723745829996
 21
-290.90213819740001
 31
0.0
  0
LINE
  5
DC
  8
0
 62
     0
 10
652.40723745829996
 20
-306.90213819740001
 30
0.0
 11
633.40723745829996
 21
-306.90213819740001
 31
0.0
  0
LINE
  5
DD
  8
0
 62
     0
 10
634.40723745829996
 20
-290.90213819740001
 30
0.0
 11
634.40723745829996
 21
-291.84658285379999
 31
0.0
  0
LINE
  5
DE
  8
0
 62
     0
 10
634.40723745829996
 20
-290.90213819740001
 30
0.0
 11
634.40723745829996
 21
-305.95769354110001
 31
0.0
  0
LINE
  5
DF
  8
0
 62
     0
 10
634.40723745829996
 20
-306.90213819740001
 30
0.0
 11
634.40723745829996
 21
-291.84658285379999
 31
0.0
  0
LINE
  5
E0
  8
0
 62
     0
 10
634.40723745829996
 20
-306.90213819740001
 30
0.0
 11
634.40723745829996
 21
-305.95769354110001
 31
0.0
  0
LINE
  5
E1
  8
0
 62
     0
 10
634.40723745829996
 20
-306.90213819740001
 30
0.0
 11
634.40723745829996
 21
-312.90213819740001
 31
0.0
  0
SOLID
  5
E2
  8
0
 62
     0
 10
634.40723745829996
 20
-306.90213819740001
 30
0.0
 11
635.90723745829996
 21
-312.90213819740001
 31
0.0
 12
632.90723745830007
 22
-312.90213819740001
 32
0.0
 13
634.40723745829996
 23
-311.40213819740001
 33
0.0
  0
LINE
  5
E3
  8
0
 62
     0
 10
634.40723745829996
 20
-290.90213819740001
 30
0.0
 11
634.40723745829996
 21
-284.90213819740001
 31
0.0
  0
SOLID
  5
E4
  8
0
 62
     0
 10
634.40723745829996
 20
-290.90213819740001
 30
0.0
 11
632.90723745830007
 21
-284.90213819740001
 31
0.0
 12
635.90723745829996
 22
-284.90213819740001
 32
0.0
 13
634.40723745829996
 23
-286.40213819740001
 33
0.0
  0
ENDBLK
  5
E5
  8
0
  0
BLOCK
  8
0
  2
*D12
 70
     1
 10
0.0
 20
0.0
 30
0.0
  3
*D12
  1

  0
TEXT
  5
E9
  8
0
 62
     0
 10
791.34890415669986
 20
-316.03334515180001
 30
0.0
 40
5.9972220420999998
  1
8
 50
90.0
  0
LINE
  5
EA
  8
0
 62
     0
 10
776.40723745829996
 20
-306.90213819740001
 30
0.0
 11
795.40723745830007
 21
-306.90213819740001
 31
0.0
  0
LINE
  5
EB
  8
0
 62
     0
 10
772.40723745829996
 20
-298.90213819740001
 30
0.0
 11
795.40723745830007
 21
-298.90213819740001
 31
0.0
  0
LINE
  5
EC
  8
0
 62
     0
 10
794.40723745830007
 20
-306.90213819740001
 30
0.0
 11
794.40723745830007
 21
-308.9777898081
 31
0.0
  0
LINE
  5
ED
  8
0
 62
     0
 10
794.40723745830007
 20
-306.90213819740001
 30
0.0
 11
794.40723745830007
 21
-319.56112282359999
 31
0.0
  0
LINE
  5
EE
  8
0
 62
     0
 10
794.40723745830007
 20
-298.90213819740001
 30
0.0
 11
794.40723745830007
 21
-308.9777898081
 31
0.0
  0
LINE
  5
EF
  8
0
 62
     0
 10
794.40723745830007
 20
-298.90213819740001
 30
0.0
 11
794.40723745830007
 21
-319.56112282359999
 31
0.0
  0
LINE
  5
F0
  8
0
 62
     0
 10
794.40723745830007
 20
-298.90213819740001
 30
0.0
 11
794.40723745830007
 21
-292.90213819740001
 31
0.0
  0
SOLID
  5
F1
  8
0
 62
     0
 10
794.40723745830007
 20
-298.90213819740001
 30
0.0
 11
792.90723745829996
 21
-292.90213819740001
 31
0.0
 12
795.90723745829996
 22
-292.90213819740001
 32
0.0
 13
794.40723745830007
 23
-294.40213819740001
 33
0.0
  0
LINE
  5
F2
  8
0
 62
     0
 10
794.40723745830007
 20
-306.90213819740001
 30
0.0
 11
794.40723745830007
 21
-312.90213819740001
 31
0.0
  0
SOLID
  5
F3
  8
0
 62
     0
 10
794.40723745830007
 20
-306.90213819740001
 30
0.0
 11
795.90723745829996
 21
-312.90213819740001
 31
0.0
 12
792.90723745829996
 22
-312.90213819740001
 32
0.0
 13
794.40723745830007
 23
-311.40213819740001
 33
0.0
  0
ENDBLK
  5
F4
  8
0
  0
BLOCK
  8
0
  2
*D13
 70
     1
 10
0.0
 20
0.0
 30
0.0
  3
*D13
  1

  0
TEXT
  5
F8
  8
0
 62
     0
 10
791.34890415669986
 20
-284.32013760460001
 30
0.0
 40
5.9972220420999998
  1
8
 50
90.0
  0
LINE
  5
F9
  8
0
 62
     0
 10
772.40723745829996
 20
-298.90213819740001
 30
0.0
 11
795.40723745830007
 21
-298.90213819740001
 31
0.0
  0
LINE
  5
FA
  8
0
 62
     0
 10
776.40723745829996
 20
-290.90213819740001
 30
0.0
 11
795.40723745830007
 21
-290.90213819740001
 31
0.0
  0
LINE
  5
FB
  8
0
 62
     0
 10
794.40723745830007
 20
-298.90213819740001
 30
0.0
 11
794.40723745830007
 21
-277.26458226099999
 31
0.0
  0
LINE
  5
FC
  8
0
 62
     0
 10
794.40723745830007
 20
-298.90213819740001
 30
0.0
 11
794.40723745830007
 21
-287.84791527639999
 31
0.0
  0
LINE
  5
FD
  8
0
 62
     0
 10
794.40723745830007
 20
-290.90213819740001
 30
0.0
 11
794.40723745830007
 21
-277.26458226099999
 31
0.0
  0
LINE
  5
FE
  8
0
 62
     0
 10
794.40723745830007
 20
-290.90213819740001
 30
0.0
 11
794.40723745830007
 21
-287.84791527639999
 31
0.0
  0
LINE
  5
FF
  8
0
 62
     0
 10
794.40723745830007
 20
-290.90213819740001
 30
0.0
 11
794.40723745830007
 21
-284.90213819740001
 31
0.0
  0
SOLID
  5
100
  8
0
 62
     0
 10
794.40723745830007
 20
-290.90213819740001
 30
0.0
 11
792.90723745829996
 21
-284.90213819740001
 31
0.0
 12
795.90723745829996
 22
-284.90213819740001
 32
0.0
 13
794.40723745830007
 23
-286.40213819740001
 33
0.0
  0
LINE
  5
101
  8
0
 62
     0
 10
794.40723745830007
 20
-298.90213819740001
 30
0.0
 11
794.40723745830007
 21
-304.90213819740001
 31
0.0
  0
SOLID
  5
102
  8
0
 62
     0
 10
794.40723745830007
 20
-298.90213819740001
 30
0.0
 11
795.90723745829996
 21
-304.90213819740001
 31
0.0
 12
792.90723745829996
 22
-304.90213819740001
 32
0.0
 13
794.40723745830007
 23
-303.40213819740001
 33
0.0
  0
ENDBLK
  5
103
  8
0
  0
BLOCK
  8
0
  2
*D14
 70
     1
 10
0.0
 20
0.0
 30
0.0
  3
*D14
  1

  0
TEXT
  5
107
  8
0
 62
     0
 10
875.24375516159989
 20
-74.546929895900007
 30
0.0
 40
5.9972220420999998
  1
8
  0
LINE
  5
108
  8
0
 62
     0
 10
867.21515672910004
 20
-95.605263197399992
 30
0.0
 11
867.21515672910004
 21
-76.605263197399992
 31
0.0
  0
LINE
  5
109
  8
0
 62
     0
 10
859.21515672910004
 20
-99.605263197399992
 30
0.0
 11
859.21515672910004
 21
-76.605263197399992
 31
0.0
  0
LINE
  5
10A
  8
0
 62
     0
 10
867.21515672910004
 20
-77.605263197399992
 30
0.0
 11
882.2993105052999
 21
-77.605263197399992
 31
0.0
  0
LINE
  5
10B
  8
0
 62
     0
 10
867.21515672910004
 20
-77.605263197399992
 30
0.0
 11
871.7159774897998
 21
-77.605263197399992
 31
0.0
  0
LINE
  5
10C
  8
0
 62
     0
 10
859.21515672910004
 20
-77.605263197399992
 30
0.0
 11
882.2993105052999
 21
-77.605263197399992
 31
0.0
  0
LINE
  5
10D
  8
0
 62
     0
 10
859.21515672910004
 20
-77.605263197399992
 30
0.0
 11
871.7159774897998
 21
-77.605263197399992
 31
0.0
  0
LINE
  5
10E
  8
0
 62
     0
 10
859.21515672910004
 20
-77.605263197399992
 30
0.0
 11
853.21515672910004
 21
-77.605263197399992
 31
0.0
  0
SOLID
  5
10F
  8
0
 62
     0
 10
859.21515672910004
 20
-77.605263197399992
 30
0.0
 11
853.21515672910004
 21
-79.105263197399992
 31
0.0
 12
853.21515672910004
 22
-76.105263197399992
 32
0.0
 13
854.71515672910004
 23
-77.605263197399992
 33
0.0
  0
LINE
  5
110
  8
0
 62
     0
 10
867.21515672910004
 20
-77.605263197399992
 30
0.0
 11
873.21515672909993
 21
-77.605263197399992
 31
0.0
  0
SOLID
  5
111
  8
0
 62
     0
 10
867.21515672910004
 20
-77.605263197399992
 30
0.0
 11
873.21515672909993
 21
-76.105263197399992
 31
0.0
 12
873.21515672909993
 22
-79.105263197399992
 32
0.0
 13
871.71515672910004
 23
-77.605263197399992
 33
0.0
  0
ENDBLK
  5
112
  8
0
  0
BLOCK
  8
0
  2
*D15
 70
     1
 10
0.0
 20
0.0
 30
0.0
  3
*D15
  1

  0
TEXT
  5
116
  8
0
 62
     0
 10
838.85405588829985
 20
-74.546929895900007
 30
0.0
 40
5.9972220420999998
  1
8
  0
LINE
  5
117
  8
0
 62
     0
 10
859.21515672910004
 20
-99.605263197399992
 30
0.0
 11
859.21515672910004
 21
-76.605263197399992
 31
0.0
  0
LINE
  5
118
  8
0
 62
     0
 10
851.21515672910004
 20
-95.605263197399992
 30
0.0
 11
851.21515672910004
 21
-76.605263197399992
 31
0.0
  0
LINE
  5
119
  8
0
 62
     0
 10
859.21515672910004
 20
-77.605263197399992
 30
0.0
 11
845.90961123190004
 21
-77.605263197399992
 31
0.0
  0
LINE
  5
11A
  8
0
 62
     0
 10
859.21515672910004
 20
-77.605263197399992
 30
0.0
 11
835.32627821649999
 21
-77.605263197399992
 31
0.0
  0
LINE
  5
11B
  8
0
 62
     0
 10
851.21515672910004
 20
-77.605263197399992
 30
0.0
 11
845.90961123190004
 21
-77.605263197399992
 31
0.0
  0
LINE
  5
11C
  8
0
 62
     0
 10
851.21515672910004
 20
-77.605263197399992
 30
0.0
 11
835.32627821649999
 21
-77.605263197399992
 31
0.0
  0
LINE
  5
11D
  8
0
 62
     0
 10
851.21515672910004
 20
-77.605263197399992
 30
0.0
 11
845.21515672910004
 21
-77.605263197399992
 31
0.0
  0
SOLID
  5
11E
  8
0
 62
     0
 10
851.21515672910004
 20
-77.605263197399992
 30
0.0
 11
845.21515672910004
 21
-79.105263197399992
 31
0.0
 12
845.21515672910004
 22
-76.105263197399992
 32
0.0
 13
846.71515672910004
 23
-77.605263197399992
 33
0.0
  0
LINE
  5
11F
  8
0
 62
     0
 10
859.21515672910004
 20
-77.605263197399992
 30
0.0
 11
865.21515672909993
 21
-77.605263197399992
 31
0.0
  0
SOLID
  5
120
  8
0
 62
     0
 10
859.21515672910004
 20
-77.605263197399992
 30
0.0
 11
865.21515672909993
 21
-76.105263197399992
 31
0.0
 12
865.21515672909993
 22
-79.105263197399992
 32
0.0
 13
863.71515672910004
 23
-77.605263197399992
 33
0.0
  0
ENDBLK
  5
121
  8
0
  0
BLOCK
  8
0
  2
*D16
 70
     1
 10
0.0
 20
0.0
 30
0.0
  3
*D16
  1

  0
TEXT
  5
125
  8
0
 62
     0
 10
855.68737905729995
 20
-60.96732113289999
 30
0.0
 40
5.9972220420999998
  1
16
  0
LINE
  5
126
  8
0
 62
     0
 10
867.21515672910004
 20
-96.605263197400006
 30
0.0
 11
867.21515672910004
 21
-62.525654434499991
 31
0.0
  0
LINE
  5
127
  8
0
 62
     0
 10
851.21515672910004
 20
-96.605263197400006
 30
0.0
 11
851.21515672910004
 21
-62.525654434499991
 31
0.0
  0
LINE
  5
128
  8
0
 62
     0
 10
867.21515672910004
 20
-63.025654434499991
 30
0.0
 11
866.27071207279994
 21
-63.025654434499991
 31
0.0
  0
LINE
  5
129
  8
0
 62
     0
 10
867.21515672910004
 20
-63.025654434499991
 30
0.0
 11
852.15960138550008
 21
-63.025654434499991
 31
0.0
  0
LINE
  5
12A
  8
0
 62
     0
 10
851.21515672910004
 20
-63.025654434499991
 30
0.0
 11
866.27071207279994
 21
-63.025654434499991
 31
0.0
  0
LINE
  5
12B
  8
0
 62
     0
 10
851.21515672910004
 20
-63.025654434499991
 30
0.0
 11
852.15960138550008
 21
-63.025654434499991
 31
0.0
  0
LINE
  5
12C
  8
0
 62
     0
 10
851.21515672910004
 20
-63.025654434499991
 30
0.0
 11
848.21515672909993
 21
-63.025654434499991
 31
0.0
  0
SOLID
  5
12D
  8
0
 62
     0
 10
851.21515672910004
 20
-63.025654434499991
 30
0.0
 11
845.21515672910004
 21
-64.525654434499998
 31
0.0
 12
845.21515672910004
 22
-61.525654434499998
 32
0.0
 13
846.71515672910004
 23
-63.025654434499991
 33
0.0
  0
LINE
  5
12E
  8
0
 62
     0
 10
867.21515672910004
 20
-63.025654434499991
 30
0.0
 11
870.21515672910004
 21
-63.025654434499991
 31
0.0
  0
SOLID
  5
12F
  8
0
 62
     0
 10
867.21515672910004
 20
-63.025654434499991
 30
0.0
 11
873.21515672909993
 21
-61.525654434499998
 31
0.0
 12
873.21515672909993
 22
-64.525654434499998
 32
0.0
 13
871.71515672910004
 23
-63.025654434499991
 33
0.0
  0
ENDBLK
  5
130
  8
0
  0
BLOCK
  8
0
  2
*D17
 70
     1
 10
0.0
 20
0.0
 30
0.0
  3
*D17
  1

  0
TEXT
  5
14B
  8
0
 62
     0
 10
700.72854117609995
 20
-161.0419318136
 30
0.0
 40
5.9972220420999998
  1
90%%d
 50
316.68268090840002
  0
ARC
  5
14C
  8
0
 62
     0
 10
658.90993277079986
 20
-213.10526319740001
 30
0.0
 40
63.393646989499992
 50
83.153692784699984
 51
90.0
  0
ARC
  5
14D
  8
0
 62
     0
 10
658.90993277079986
 20
-213.10526319740001
 30
0.0
 40
63.393646989499992
 50
0.0
 51
6.8463072152999986
  0
SOLID
  5
14E
  8
0
 62
     0
 10
722.30357976029995
 20
-213.10526319740001
 30
0.0
 11
723.80357976029995
 21
-219.10526319740001
 31
0.0
 12
720.80357976029995
 22
-219.10526319740001
 32
0.0
 13
722.30357976029995
 23
-217.60526319740001
 33
0.0
  0
SOLID
  5
14F
  8
0
 62
     0
 10
658.90993277079986
 20
-149.71161620789999
 30
0.0
 11
652.90993277079986
 21
-151.21161620789999
 31
0.0
 12
652.90993277079986
 22
-148.21161620789999
 32
0.0
 13
654.40993277079986
 23
-149.71161620789999
 33
0.0
  0
ARC
  5
150
  8
0
 62
     0
 10
658.90993277079986
 20
-213.10526319740001
 30
0.0
 40
63.393646989499992
 50
0.0
 51
38.584472152099998
  0
ARC
  5
151
  8
0
 62
     0
 10
658.90993277079986
 20
-213.10526319740001
 30
0.0
 40
63.393646989499992
 50
54.780889664599997
 51
90.0
  0
LINE
  5
152
  8
0
 62
     0
 10
770.40993277079986
 20
-213.10526319740001
 30
0.0
 11
718.30357976029995
 21
-213.10526319740001
 31
0.0
  0
LINE
  5
153
  8
0
 62
     0
 10
658.90993277079986
 20
-101.60526319740001
 30
0.0
 11
658.90993277079986
 21
-153.71161620789999
 31
0.0
  0
ENDBLK
  5
154
  8
0
  0
BLOCK
  8
0
  2
*D18
 70
     1
 10
0.0
 20
0.0
 30
0.0
  3
*D18
  1

  0
TEXT
  5
158
  8
0
 62
     0
 10
829.15682342759987
 20
-209.1330408693
 30
0.0
 40
5.9972220420999998
  1
24
 50
90.0
  0
LINE
  5
159
  8
0
 62
     0
 10
851.21515672910004
 20
-193.60526319740001
 30
0.0
 11
830.71515672910004
 21
-193.60526319740001
 31
0.0
  0
LINE
  5
15A
  8
0
 62
     0
 10
850.21515672910004
 20
-217.60526319740001
 30
0.0
 11
830.71515672910004
 21
-217.60526319740001
 31
0.0
  0
LINE
  5
15B
  8
0
 62
     0
 10
831.21515672910004
 20
-193.60526319740001
 30
0.0
 11
831.21515672910004
 21
-198.54970785379999
 31
0.0
  0
LINE
  5
15C
  8
0
 62
     0
 10
831.21515672910004
 20
-193.60526319740001
 30
0.0
 11
831.21515672910004
 21
-212.66081854110001
 31
0.0
  0
LINE
  5
15D
  8
0
 62
     0
 10
831.21515672910004
 20
-217.60526319740001
 30
0.0
 11
831.21515672910004
 21
-198.54970785379999
 31
0.0
  0
LINE
  5
15E
  8
0
 62
     0
 10
831.21515672910004
 20
-217.60526319740001
 30
0.0
 11
831.21515672910004
 21
-212.66081854110001
 31
0.0
  0
LINE
  5
15F
  8
0
 62
     0
 10
831.21515672910004
 20
-217.60526319740001
 30
0.0
 11
831.21515672910004
 21
-220.60526319740001
 31
0.0
  0
SOLID
  5
160
  8
0
 62
     0
 10
831.21515672910004
 20
-217.60526319740001
 30
0.0
 11
832.71515672910004
 21
-223.60526319740001
 31
0.0
 12
829.71515672910004
 22
-223.60526319740001
 32
0.0
 13
831.21515672910004
 23
-222.10526319740001
 33
0.0
  0
LINE
  5
161
  8
0
 62
     0
 10
831.21515672910004
 20
-193.60526319740001
 30
0.0
 11
831.21515672910004
 21
-190.60526319740001
 31
0.0
  0
SOLID
  5
162
  8
0
 62
     0
 10
831.21515672910004
 20
-193.60526319740001
 30
0.0
 11
829.71515672910004
 21
-187.60526319740001
 31
0.0
 12
832.71515672910004
 22
-187.60526319740001
 32
0.0
 13
831.21515672910004
 23
-189.10526319740001
 33
0.0
  0
ENDBLK
  5
163
  8
0
  0
BLOCK
  8
0
  2
*D19
 70
     1
 10
0.0
 20
0.0
 30
0.0
  3
*D19
  1

  0
LINE
  5
215
  8
Éíû@É³
 62
     0
 10
1031.6099581879239
 20
-188.04011393777591
 30
0.0
 11
1071.82374692145
 21
-147.8263252044346
 31
0.0
  0
LINE
  5
216
  8
Éíû@É³
 62
     0
 10
987.96090966847555
 20
-188.04011393777591
 30
0.0
 11
947.74712093494975
 21
-147.8263252044348
 31
0.0
  0
ARC
  5
217
  8
Éíû@É³
 62
     0
 10
1009.7854339282
 20
-209.86463819740001
 30
0.0
 40
86.485423621600006
 50
48.975741128377663
 51
83.903002480145815
  0
ARC
  5
218
  8
Éíû@É³
 62
     0
 10
1009.7854339282
 20
-209.86463819740001
 30
0.0
 40
86.485423621600006
 50
96.096997519854185
 51
131.02425887162249
  0
SOLID
  5
219
  8
Éíû@É³
 62
     0
 10
1067.2347607734589
 20
-143.88608034580719
 30
0.0
 11
1065.8704544308021
 21
-145.34849896008541
 31
0.0
 12
1070.9398634449651
 22
-148.7102086809158
 32
0.0
 13
1070.9398634449651
 23
-148.7102086809158
 33
0.0
  0
SOLID
  5
21A
  8
Éíû@É³
 62
     0
 10
953.70041342559762
 20
-145.34849896008549
 30
0.0
 11
952.33610708294111
 21
-143.88608034580739
 31
0.0
 12
948.6310044114349
 22
-148.710208680916
 32
0.0
 13
948.6310044114349
 23
-148.710208680916
 33
0.0
  0
TEXT
  8
Éíû@É³
  40
5.99722
  5
27C
  62
0
  72
0
  71
0
 10
997.791
 20
-133.994
 30
0.000000
  1
90üï
  0
POINT
  5
21C
  8
Defpoints
 62
     0
 10
1009.7854339282
 20
-209.86463819740001
 30
0.0
  0
POINT
  5
21D
  8
Defpoints
 62
     0
 10
1031.5657640141001
 20
-188.0843081116
 30
0.0
  0
POINT
  5
21E
  8
Defpoints
 62
     0
 10
988.00510384229995
 20
-188.0843081116
 30
0.0
  0
POINT
  5
21F
  8
Defpoints
 62
     0
 10
1032.1695086852931
 20
-126.326133923763
 30
0.0
  0
ENDBLK
  5
221
  8
0
  0
BLOCK
  8
0
  2
*U20
 70
     1
 10
0.0
 20
0.0
 30
0.0
  3
*U20
  1

  0
TEXT
  5
223
  8
┌▓È_1
  6
CONTINUOUS
 10
984.98982976942523
 20
-234.3271343749274
 30
0.0
 40
5.9972220420999998
  1
ÄMâéâ~òöègæÕÉ}
  0
ENDBLK
  5
225
  8
0
  0
BLOCK
  8
0
  2
*U21
 70
     1
 10
0.0
 20
0.0
 30
0.0
  3
*U21
  1

  0
TEXT
  5
227
  8
┌▓È_1
  6
CONTINUOUS
 10
1031.3478165462
 20
-390.39434176872692
 30
0.0
 40
7.1966662884000003
  1
ékî^âAâôâOâï
  0
ENDBLK
  5
229
  8
0
  0
BLOCK
  8
0
  2
*U22
 70
     1
 10
0.0
 20
0.0
 30
0.0
  3
*U22
  1

  0
TEXT
  5
22B
  8
┌▓È_1
  6
CONTINUOUS
 10
1024.4830512496669
 20
-372.00576435580001
 30
0.0
 40
7.1966662884000003
  1
LY-204  120x120
  0
ENDBLK
  5
22D
  8
0
  0
BLOCK
  8
0
  2
*D23
 70
     1
 10
0.0
 20
0.0
 30
0.0
  3
*D23
  1

  0
LINE
  5
22F
  8
Éíû@É³
 62
     0
 10
774.3474327708002
 20
-213.10526319740009
 30
0.0
 11
721.05357976031644
 21
-213.10526319740009
 31
0.0
  0
LINE
  5
230
  8
Éíû@É³
 62
     0
 10
658.90993277079986
 20
-97.667763197400006
 30
0.0
 11
658.90993277080008
 21
-150.96161620788379
 31
0.0
  0
ARC
  5
231
  8
Éíû@É³
 62
     0
 10
658.90993277080008
 20
-213.10526319740009
 30
0.0
 40
63.39364698951627
 50
5.4248830408575266
 51
38.351149233515862
  0
ARC
  5
232
  8
Éíû@É³
 62
     0
 10
658.90993277080008
 20
-213.10526319740009
 30
0.0
 40
63.39364698951627
 50
55.014212583202379
 51
84.575116959142449
  0
SOLID
  5
233
  8
Éíû@É³
 62
     0
 10
723.01851925856988
 20
-207.06466210861461
 30
0.0
 11
721.02076001365299
 21
-207.1593088166828
 31
0.0
 12
722.30357976031632
 22
-213.10526319740009
 32
0.0
 13
722.30357976031632
 23
-213.10526319740009
 33
0.0
  0
SOLID
  5
234
  8
Éíû@É³
 62
     0
 10
664.85588715151732
 20
-150.9944359545471
 30
0.0
 11
664.95053385958545
 21
-148.99667670963001
 31
0.0
 12
658.90993277079986
 22
-149.71161620788371
 32
0.0
 13
658.90993277079986
 23
-149.71161620788371
 33
0.0
  0
TEXT
  8
Éíû@É³
  40
5.99722
  5
27D
  62
0
  72
0
  71
0
 10
690.406
 20
-177.597
 30
0.000000
  1
90üï
  0
POINT
  5
236
  8
Defpoints
 62
     0
 10
658.90993277080008
 20
-213.10526319740009
 30
0.0
  0
POINT
  5
237
  8
Defpoints
 62
     0
 10
774.40993277079997
 20
-213.10526319740009
 30
0.0
  0
POINT
  5
238
  8
Defpoints
 62
     0
 10
658.90993277080008
 20
-97.605263197400021
 30
0.0
  0
POINT
  5
239
  8
Defpoints
 62
     0
 10
713.8104415022641
 20
-181.40843970264191
 30
0.0
  0
ENDBLK
  5
23B
  8
0
  0
BLOCK
  8
0
  2
*U24
 70
     1
 10
0.0
 20
0.0
 30
0.0
  3
*U24
  1

  0
TEXT
  5
23D
  8
┌▓È_1
  6
CONTINUOUS
 10
872.53752001039982
 20
-357.93396834185791
 30
0.0
 40
7.1966662884000003
  1
ò\û╩ÅêùØüFâåâjâNâìâüâbâLÄdÅÒé░
  0
ENDBLK
  5
23F
  8
0
  0
BLOCK
  8
0
  2
*U25
 70
     1
 10
0.0
 20
0.0
 30
0.0
  3
*U25
  1

  0
TEXT
  5
241
  8
┌▓È_1
  6
CONTINUOUS
 10
886.97862745990005
 20
-407.28123667512739
 30
0.0
 40
8.6359998702999992
  1
èöÄ«ë´Äð
  0
ENDBLK
  5
243
  8
0
  0
BLOCK
  8
0
  2
*U26
 70
     1
 10
0.0
 20
0.0
 30
0.0
  3
*U26
  1

  0
TEXT
  5
245
  8
┌▓È_1
  6
CONTINUOUS
 10
872.53752001039982
 20
-384.12346437133709
 30
0.0
 40
4.6749999999999989
  1
 É¦îvü@ü@öÆÉ{ëÛ
  0
ENDBLK
  5
247
  8
0
  0
BLOCK
  8
0
  2
*U27
 70
     1
 10
0.0
 20
0.0
 30
0.0
  3
*U27
  1

  0
TEXT
  5
249
  8
┌▓È_1
  6
CONTINUOUS
 10
872.53752001039982
 20
-392.6471953358041
 30
0.0
 40
4.6749999999999989
  1
 É╗É}ü@ü@ è¦û{
  0
ENDBLK
  5
24B
  8
0
  0
BLOCK
  8
0
  2
*U28
 70
     1
 10
0.0
 20
0.0
 30
0.0
  3
*U28
  1

  0
TEXT
  5
24D
  8
┌▓È_1
  6
CONTINUOUS
 10
873.46829163289988
 20
-366.95734762006799
 30
0.0
 40
4.6749999999999989
  1
ü@ô· ü@òt
  0
ENDBLK
  5
24F
  8
0
  0
BLOCK
  8
0
  2
*U29
 70
     1
 10
0.0
 20
0.0
 30
0.0
  3
*U29
  1

  0
TEXT
  5
251
  8
┌▓È_1
  6
CONTINUOUS
 10
1002.3185189178
 20
-366.97074328390198
 30
0.0
 40
4.6749999999999989
  1
î^öÈ
  0
ENDBLK
  5
253
  8
0
  0
BLOCK
  8
0
  2
*U30
 70
     1
 10
0.0
 20
0.0
 30
0.0
  3
*U30
  1

  0
TEXT
  5
255
  8
┌▓È_1
  6
CONTINUOUS
 10
1002.3185189178
 20
-384.01820521283611
 30
0.0
 40
4.6749999999999989
  1
òiû╝
  0
ENDBLK
  5
257
  8
0
  0
BLOCK
  8
0
  2
*U31
 70
     1
 10
0.0
 20
0.0
 30
0.0
  3
*U31
  1

  0
TEXT
  5
259
  8
┌▓È_1
  6
CONTINUOUS
 10
1002.3185189178
 20
-400.97074328390198
 30
0.0
 40
4.6749999999999989
  1
É}öÈ
  0
ENDBLK
  5
25B
  8
0
  0
BLOCK
  8
0
  2
*U32
 70
     1
 10
0.0
 20
0.0
 30
0.0
  3
*U32
  1

  0
TEXT
  5
25D
  8
┌▓È_1
  6
CONTINUOUS
 62
     5
 10
880.90801493425784
 20
-375.36242376220002
 30
0.0
 40
4.6749999999999989
  1
H16.4
  0
ENDBLK
  5
25F
  8
0
  0
BLOCK
  8
0
  2
*U33
 70
     1
 10
0.0
 20
0.0
 30
0.0
  3
*U33
  1

  0
TEXT
  5
261
  8
┌▓È_1
  6
CONTINUOUS
 62
     5
 10
917.7372662032933
 20
-375.6471953358041
 30
0.0
 40
4.6749999999999989
  1
ôS
  0
ENDBLK
  5
263
  8
0
  0
BLOCK
  8
0
  2
*U34
 70
     1
 10
0.0
 20
0.0
 30
0.0
  3
*U34
  1

  0
TEXT
  5
265
  8
┌▓È_1
  6
CONTINUOUS
 62
     5
 10
946.5454514824811
 20
-375.36242376220002
 30
0.0
 40
4.6749999999999989
  1
4.5t
  0
ENDBLK
  5
267
  8
0
  0
BLOCK
  8
0
  2
*U35
 70
     1
 10
0.0
 20
0.0
 30
0.0
  3
*U35
  1

  0
TEXT
  5
269
  8
┌▓È_1
  6
CONTINUOUS
 62
     5
 10
946.33187280227799
 20
-392.36242376220002
 30
0.0
 40
4.6749999999999989
  1
1üF2
  0
ENDBLK
  5
26B
  8
0
  0
BLOCK
  8
0
  2
*U36
 70
     1
 10
0.0
 20
0.0
 30
0.0
  3
*U36
  1

  0
TEXT
  5
26D
  8
┌▓È_1
  6
CONTINUOUS
 10
905.46829163289976
 20
-367.02854051346912
 30
0.0
 40
4.6749999999999989
  1
ü@ìÌ ü@Ä┐
  0
ENDBLK
  5
26F
  8
0
  0
BLOCK
  8
0
  2
*U37
 70
     1
 10
0.0
 20
0.0
 30
0.0
  3
*U37
  1

  0
TEXT
  5
271
  8
┌▓È_1
  6
CONTINUOUS
 10
937.46829163289976
 20
-367.12346437133709
 30
0.0
 40
4.6749999999999989
  1
ü@ö┬ ü@î·
  0
ENDBLK
  5
273
  8
0
  0
BLOCK
  8
0
  2
*U38
 70
     1
 10
0.0
 20
0.0
 30
0.0
  3
*U38
  1

  0
TEXT
  5
275
  8
┌▓È_1
  6
CONTINUOUS
 10
937.46829163289976
 20
-384.09973340687009
 30
0.0
 40
4.6749999999999989
  1
ü@Ä┌ ü@ôx
  0
ENDBLK
  5
277
  8
0
  0
BLOCK
  8
0
  2
*U39
 70
     1
 10
0.0
 20
0.0
 30
0.0
  3
*U39
  1

  0
TEXT
  5
279
  8
┌▓È_1
  6
CONTINUOUS
 10
969.46829163289976
 20
-367.12346437133709
 30
0.0
 40
4.6749999999999989
  1
ü@îƒ ü@ê¾
  0
ENDBLK
  5
27B
  8
0
  0
ENDSEC
  0
SECTION
  2
ENTITIES
  0
DIMENSION
  5
3E
  8
Éíû@É³
  2
*D0
 10
831.21515672910004
 20
-108.60526319740001
 30
0.0
 11
831.21515672910004
 21
-151.10526319740001
 31
0.0
 70
   128
  1
<>
 13
852.21515672910004
 23
-108.60526319740001
 33
0.0
 14
852.21515672910004
 24
-193.60526319740001
 34
0.0
 50
90.0
  0
DIMENSION
  5
4D
  8
Éíû@É³
  2
*D1
 10
831.21515672910004
 20
-97.605263197400006
 30
0.0
 11
831.21515672910004
 21
-103.10526319740001
 31
0.0
 70
   128
  1
<>
 13
851.21515672910004
 23
-97.605263197400006
 33
0.0
 14
852.21515672910004
 24
-108.60526319740001
 34
0.0
 50
90.0
  0
DIMENSION
  5
5C
  8
Éíû@É³
  2
*D2
 10
634.40993277079997
 20
-97.605263197400006
 30
0.0
 11
634.40993277079997
 21
-157.60526319740001
 31
0.0
 70
   128
  1
<>
 13
654.40993277079986
 23
-97.605263197400006
 33
0.0
 14
659.40993277079997
 24
-217.60526319740001
 34
0.0
 50
90.0
  0
DIMENSION
  5
6B
  8
Éíû@É³
  2
*D3
 10
774.40723745830007
 20
-270.90213819740001
 30
0.0
 11
768.90723745829996
 21
-270.90213819740001
 31
0.0
 70
   128
  1
<>
 13
774.40723745830007
 23
-290.90213819740001
 33
0.0
 14
763.40723745829996
 24
-291.90213819740001
 34
0.0
  0
DIMENSION
  5
7A
  8
Éíû@É³
  2
*D4
 10
763.40723745829996
 20
-270.90213819740001
 30
0.0
 11
720.90723745829996
 21
-270.90213819740001
 31
0.0
 70
   128
  1
<>
 13
763.40723745829996
 23
-291.90213819740001
 33
0.0
 14
678.40723745830007
 24
-291.90213819740001
 34
0.0
  0
DIMENSION
  5
89
  8
Éíû@É³
  2
*D5
 10
678.40723745830007
 20
-270.90213819740001
 30
0.0
 11
666.40723745830007
 21
-270.90213819740001
 31
0.0
 70
   128
  1
<>
 13
678.40723745830007
 23
-291.90213819740001
 33
0.0
 14
654.40723745829996
 24
-290.90213819740001
 34
0.0
  0
DIMENSION
  5
98
  8
Éíû@É³
  2
*D6
 10
654.40993277079986
 20
-237.60526319740001
 30
0.0
 11
714.40993277079997
 21
-237.60526319740001
 31
0.0
 70
   128
  1
<>
 13
654.40993277079986
 23
-212.60526319740001
 33
0.0
 14
774.40993277079986
 24
-217.60526319740001
 34
0.0
 50
180.0
  0
DIMENSION
  5
A7
  8
Éíû@É³
  2
*D7
 10
1031.0354339282001
 20
-145.7916017391
 30
0.0
 11
1009.7854339282
 21
-145.7916017391
 31
0.0
 70
   128
  1
%%c8.5
 13
1031.0354339282001
 23
-188.61463819740001
 33
0.0
 14
988.53543392820006
 24
-188.61463819740001
 34
0.0
  0
DIMENSION
  5
B6
  8
Éíû@É³
  2
*D8
 10
1022.2854339282
 20
-166.17278663490001
 30
0.0
 11
1009.7854339282
 21
-166.17278663490001
 31
0.0
 70
   128
  1
%%c5
 13
1022.2854339282
 23
-197.36463819740001
 33
0.0
 14
997.28543392820006
 24
-197.36463819740001
 34
0.0
  0
DIMENSION
  5
C5
  8
Éíû@É³
  2
*D9
 10
658.90993277079986
 20
-76.282143617599999
 30
0.0
 11
674.10978407769994
 21
-76.282143617599999
 31
0.0
 70
   128
  1
<>t
 13
658.90993277079986
 23
-97.605263197400006
 33
0.0
 14
654.40993277079986
 24
-97.605263197400006
 34
0.0
  0
DIMENSION
  5
D3
  8
Éíû@É³
  2
*D19
 10
1032.1695086852931
 20
-126.326133923763
 30
0.0
 11
1009.7854339282
 21
-123.37921457580001
 31
0.0
 70
   133
  1
<>
 13
988.00510384229995
 23
-188.0843081116
 33
0.0
 14
1031.5657640141001
 24
-188.0843081116
 34
0.0
 15
1009.7854339282
 25
-209.86463819740001
 35
0.0
1001
ACAD
1000
DSTYLE
1002
{
1070
   271
1070
     0
1002
}
  0
LINE
  5
D5
  8
┌▓È_1
 10
983.83528606940001
 20
-236.9018475073
 30
0.0
 11
1038.4450205167
 21
-236.9018475073
 31
0.0
  0
INSERT
  5
D6
  8
0
  6
CONTINUOUS
  2
*U20
 10
0.0
 20
0.0
 30
0.0
  0
DIMENSION
  5
E6
  8
Éíû@É³
  2
*D11
 10
634.40723745829996
 20
-290.90213819740001
 30
0.0
 11
634.40723745829996
 21
-298.90213819740001
 31
0.0
 70
   128
  1
<>
 13
654.40723745829996
 23
-290.90213819740001
 33
0.0
 14
654.40723745829996
 24
-306.90213819740001
 34
0.0
 50
90.0
  0
DIMENSION
  5
F5
  8
Éíû@É³
  2
*D12
 10
794.40723745830007
 20
-306.90213819740001
 30
0.0
 11
794.40723745830007
 21
-314.26945631590002
 31
0.0
 70
   128
  1
<>
 13
774.40723745830007
 23
-306.90213819740001
 33
0.0
 14
770.40723745830007
 24
-298.90213819740001
 34
0.0
 50
90.0
  0
DIMENSION
  5
104
  8
Éíû@É³
  2
*D13
 10
794.40723745830007
 20
-298.90213819740001
 30
0.0
 11
794.40723745830007
 21
-282.55624876870002
 31
0.0
 70
   128
  1
<>
 13
770.40723745830007
 23
-298.90213819740001
 33
0.0
 14
774.40723745830007
 24
-290.90213819740001
 34
0.0
 50
90.0
  0
DIMENSION
  5
113
  8
Éíû@É³
  2
*D14
 10
867.21515672910004
 20
-77.605263197399992
 30
0.0
 11
877.00764399749994
 21
-77.605263197399992
 31
0.0
 70
   128
  1
<>
 13
867.21515672910004
 23
-97.605263197400006
 33
0.0
 14
859.21515672910004
 24
-101.60526319740001
 34
0.0
  0
DIMENSION
  5
122
  8
Éíû@É³
  2
*D15
 10
859.21515672910004
 20
-77.605263197399992
 30
0.0
 11
840.6179447241999
 21
-77.605263197399992
 31
0.0
 70
   128
  1
<>
 13
859.21515672910004
 23
-101.60526319740001
 33
0.0
 14
851.21515672910004
 24
-97.605263197400006
 34
0.0
  0
DIMENSION
  5
131
  8
Éíû@É³
  2
*D16
 10
867.21515672910004
 20
-63.025654434499991
 30
0.0
 11
859.21515672910004
 21
-63.025654434499991
 31
0.0
 70
   128
  1
<>
 13
867.21515672910004
 23
-97.605263197400006
 33
0.0
 14
851.21515672910004
 24
-97.605263197400006
 34
0.0
  0
LINE
  5
132
  8
┌▓È_1
 10
904.53752001039993
 20
-360.77635694740002
 30
0.0
 11
904.53752001039993
 21
-377.77635694740002
 31
0.0
  0
LINE
  5
133
  8
┌▓È_1
 10
968.53752001039993
 20
-360.77635694740002
 30
0.0
 11
968.53752001039993
 21
-394.77635694740002
 31
0.0
  0
LINE
  5
134
  8
┌▓È_1
 62
     5
 10
976.73686467660002
 20
-400.24008020039997
 30
0.0
 11
976.73686467660002
 21
-403.12008020040003
 31
0.0
  0
LINE
  5
135
  8
┌▓È_1
 62
     5
 10
952.13192274240009
 20
-403.92008020039998
 30
0.0
 11
952.13192274240009
 21
-403.12008020040003
 31
0.0
  0
LINE
  5
136
  8
┌▓È_1
 62
     5
 10
958.78889243929984
 20
-401.2354566283999
 30
0.0
 11
965.18889243929993
 21
-401.2354566283999
 31
0.0
  0
LINE
  5
137
  8
┌▓È_1
 62
     5
 10
966.04699242599997
 20
-403.15059364859991
 30
0.0
 11
965.66203913589982
 21
-403.57577502549998
 31
0.0
  0
ARC
  5
138
  8
┌▓È_1
 62
     5
 10
945.73192274239989
 20
-403.92008020039998
 30
0.0
 40
2.399999999999999
 50
270.0
 51
0.0
  0
LINE
  5
139
  8
┌▓È_1
 62
     5
 10
948.13192274239998
 20
-397.5200802004
 30
0.0
 11
948.13192274239998
 21
-400.72008020039999
 31
0.0
  0
LINE
  5
13A
  8
┌▓È_1
 62
     5
 10
986.09517017289977
 20
-403.12008020040003
 30
0.0
 11
991.1368646766
 21
-403.12008020040003
 31
0.0
  0
LINE
  5
13B
  8
┌▓È_1
 62
     5
 10
971.58889243929991
 20
-399.92008020040009
 30
0.0
 11
973.18889243929993
 21
-397.5200802004
 31
0.0
  0
LINE
  5
13C
  8
┌▓È_1
 62
     5
 10
562.53752001040004
 20
-411.7763569473999
 30
0.0
 11
562.53752001040004
 21
-31.7763569474
 31
0.0
  0
LINE
  5
13D
  8
┌▓È_1
 10
1000.5375200104
 20
-377.77635694740002
 30
0.0
 11
1112.5375200103999
 21
-377.77635694740002
 31
0.0
  0
LINE
  5
13E
  8
┌▓È_1
 62
     5
 10
562.53752001040004
 20
-31.7763569474
 30
0.0
 11
1112.5375200103999
 21
-31.7763569474
 31
0.0
  0
LINE
  5
13F
  8
┌▓È_1
 62
     5
 10
562.53752001040004
 20
-411.7763569473999
 30
0.0
 11
1112.5375200103999
 21
-411.7763569473999
 31
0.0
  0
LINE
  5
140
  8
┌▓È_1
 62
     5
 10
1112.5375200103999
 20
-411.7763569473999
 30
0.0
 11
1112.5375200103999
 21
-31.7763569474
 31
0.0
  0
INSERT
  5
141
  8
0
  6
CONTINUOUS
  2
*U21
 10
0.0
 20
0.0
 30
0.0
  0
LINE
  5
142
  8
┌▓È_1
 10
872.53752001039982
 20
-360.77635694740002
 30
0.0
 11
1112.5375200103999
 21
-360.77635694740002
 31
0.0
  0
LINE
  5
143
  8
┌▓È_1
 10
872.53752001039982
 20
-394.77635694740002
 30
0.0
 11
1112.5375200103999
 21
-394.77635694740002
 31
0.0
  0
LINE
  5
144
  8
┌▓È_1
 62
     5
 10
952.13192274240009
 20
-399.92008020040009
 30
0.0
 11
954.53192274239996
 21
-397.5200802004
 31
0.0
  0
LINE
  5
145
  8
┌▓È_1
 62
     5
 10
940.93192274240005
 20
-405.5200802004
 30
0.0
 11
944.93192274240005
 21
-405.5200802004
 31
0.0
  0
LINE
  5
146
  8
┌▓È_1
 62
     5
 10
973.18889243929993
 20
-397.5200802004
 30
0.0
 11
958.78889243929984
 21
-397.5200802004
 31
0.0
  0
LINE
  5
147
  8
┌▓È_1
 62
     5
 10
985.26640764629997
 20
-400.24008020039997
 30
0.0
 11
985.03217684589981
 21
-399.42611397569999
 31
0.0
  0
INSERT
  5
148
  8
0
  6
CONTINUOUS
  2
*U22
 10
0.0
 20
0.0
 30
0.0
  0
DIMENSION
  5
155
  8
Éíû@É³
  2
*D23
 10
713.8104415022641
 20
-181.40843970264191
 30
0.0
 11
702.40040316730006
 21
-166.982237892
 31
0.0
 70
   133
  1
<>
 13
658.90993277079986
 23
-97.605263197400006
 33
0.0
 14
774.40993277079986
 24
-213.10526319740001
 34
0.0
 15
658.90993277079986
 25
-213.10526319740001
 35
0.0
1001
ACAD
1000
DSTYLE
1002
{
1070
   271
1070
     0
1002
}
  0
DIMENSION
  5
164
  8
Éíû@É³
  2
*D18
 10
831.21515672910004
 20
-193.60526319740001
 30
0.0
 11
831.21515672910004
 21
-205.60526319740001
 31
0.0
 70
   128
  1
<>
 13
852.21515672910004
 23
-193.60526319740001
 33
0.0
 14
851.21515672910004
 24
-217.60526319740001
 34
0.0
 50
90.0
  0
LINE
  5
165
  8
┌▓È_1
 62
     5
 10
986.46350907359988
 20
-404.40008020039988
 30
0.0
 11
991.1368646766
 21
-404.40008020039988
 31
0.0
  0
LINE
  5
166
  8
┌▓È_1
 62
     5
 10
987.93686467659995
 20
-409.5200802004
 30
0.0
 11
987.29227160029996
 21
-407.28008020039999
 31
0.0
  0
LINE
  5
167
  8
┌▓È_1
 62
     5
 10
944.93192274240005
 20
-403.12008020040003
 30
0.0
 11
948.13192274239998
 21
-403.12008020040003
 31
0.0
  0
LINE
  5
168
  8
┌▓È_1
 62
     5
 10
948.13192274239998
 20
-403.12008020040003
 30
0.0
 11
948.13192274239998
 21
-403.92008020039998
 31
0.0
  0
LINE
  5
169
  8
┌▓È_1
 62
     5
 10
976.73686467660002
 20
-400.24008020039997
 30
0.0
 11
980.73473134320022
 21
-400.24008020039997
 31
0.0
  0
LINE
  5
16A
  8
┌▓È_1
 62
     5
 10
952.13192274240009
 20
-400.72008020039999
 30
0.0
 11
952.13192274240009
 21
-399.92008020040009
 31
0.0
  0
LINE
  5
16B
  8
┌▓È_1
 62
     5
 10
954.53192274239996
 20
-400.72008020039999
 30
0.0
 11
952.13192274240009
 21
-400.72008020039999
 31
0.0
  0
LINE
  5
16C
  8
┌▓È_1
 62
     5
 10
976.73686467660002
 20
-404.40008020039988
 30
0.0
 11
981.9549980098999
 21
-404.40008020039988
 31
0.0
  0
LINE
  5
16D
  8
┌▓È_1
 62
     5
 10
939.09015664389995
 20
-403.12008020040003
 30
0.0
 11
940.69015664389997
 21
-403.12008020040003
 31
0.0
  0
ARC
  5
16E
  8
┌▓È_1
 62
     5
 10
962.78889243929984
 20
-399.92008020040009
 30
0.0
 40
8.8000000000000007
 50
270.0
 51
302.54495885400001
  0
LINE
  5
16F
  8
┌▓È_1
 62
     5
 10
952.13192274240009
 20
-403.12008020040003
 30
0.0
 11
954.53192274239996
 21
-403.12008020040003
 31
0.0
  0
ARC
  5
170
  8
┌▓È_1
 62
     5
 10
960.7088924392998
 20
-400.24008020039997
 30
0.0
 40
6.0800000000000001
 50
331.39928138329998
 51
358.49204224580001
  0
LINE
  5
171
  8
┌▓È_1
 62
     5
 10
958.78889243929984
 20
-408.72008020039999
 30
0.0
 11
962.78889243929984
 21
-408.72008020039999
 31
0.0
  0
LINE
  5
172
  8
┌▓È_1
 62
     5
 10
940.93192274240005
 20
-408.72008020039999
 30
0.0
 11
947.33192274239991
 21
-408.72008020039999
 31
0.0
  0
LINE
  5
173
  8
┌▓È_1
 62
     5
 10
971.58889243929991
 20
-399.92008020040009
 30
0.0
 11
973.18889243929993
 21
-397.5200802004
 31
0.0
  0
LINE
  5
174
  8
┌▓È_1
 62
     5
 10
979.93686467659995
 20
-397.5200802004
 30
0.0
 11
986.33686467660004
 21
-397.5200802004
 31
0.0
  0
LINE
  5
175
  8
┌▓È_1
 62
     5
 10
958.78889243929984
 20
-406.32008020040001
 30
0.0
 11
960.7088924392998
 21
-406.32008020040001
 31
0.0
  0
LINE
  5
176
  8
┌▓È_1
 62
     5
 10
958.78889243929984
 20
-406.32008020040001
 30
0.0
 11
958.78889243929984
 21
-408.72008020039999
 31
0.0
  0
INSERT
  5
177
  8
0
  6
CONTINUOUS
  2
*U24
 10
0.0
 20
0.0
 30
0.0
  0
LINE
  5
178
  8
┌▓È_1
 62
     5
 10
969.7692434027
 20
-405.2786901348
 30
0.0
 11
969.48428010700002
 21
-405.55769516549998
 31
0.0
  0
LINE
  5
179
  8
┌▓È_1
 62
     5
 10
940.93192274240005
 20
-403.12008020040003
 30
0.0
 11
940.93192274240005
 21
-405.5200802004
 31
0.0
  0
INSERT
  5
17A
  8
0
  6
CONTINUOUS
  2
*U25
 10
0.0
 20
0.0
 30
0.0
  0
LINE
  5
17B
  8
┌▓È_1
 62
     5
 10
985.26640764629997
 20
-400.24008020039997
 30
0.0
 11
991.1368646766
 21
-400.24008020039997
 31
0.0
  0
LINE
  5
17C
  8
┌▓È_1
 10
872.53752001039982
 20
-360.77635694740002
 30
0.0
 11
872.53752001039982
 21
-411.7763569473999
 31
0.0
  0
LINE
  5
17D
  8
┌▓È_1
 10
1000.5375200104
 20
-360.77635694740002
 30
0.0
 11
1000.5375200104
 21
-411.7763569473999
 31
0.0
  0
LINE
  5
17E
  8
┌▓È_1
 62
     5
 10
944.93192274240005
 20
-399.92008020040009
 30
0.0
 11
947.33192274239991
 21
-397.5200802004
 31
0.0
  0
LINE
  5
17F
  8
┌▓È_1
 62
     5
 10
947.33192274239991
 20
-397.5200802004
 30
0.0
 11
940.93192274240005
 21
-397.5200802004
 31
0.0
  0
LINE
  5
180
  8
┌▓È_1
 62
     5
 10
948.13192274239998
 20
-400.72008020039999
 30
0.0
 11
944.93192274240005
 21
-400.72008020039999
 31
0.0
  0
LINE
  5
181
  8
┌▓È_1
 62
     5
 10
985.03217684589981
 20
-399.42611397569999
 30
0.0
 11
986.33686467660004
 21
-397.5200802004
 31
0.0
  0
ARC
  5
182
  8
┌▓È_1
 62
     5
 10
947.33192274239991
 20
-403.92008020039998
 30
0.0
 40
4.7999999999999989
 50
270.0
 51
0.0
  0
LINE
  5
183
  8
┌▓È_1
 62
     5
 10
958.78889243929984
 20
-397.5200802004
 30
0.0
 11
958.78889243929984
 21
-400.40008020039988
 31
0.0
  0
LINE
  5
184
  8
┌▓È_1
 62
     5
 10
954.53192274239996
 20
-397.5200802004
 30
0.0
 11
948.13192274239998
 21
-397.5200802004
 31
0.0
  0
LINE
  5
185
  8
┌▓È_1
 62
     5
 10
987.29227160029996
 20
-407.28008020039999
 30
0.0
 11
991.1368646766
 21
-407.28008020039999
 31
0.0
  0
LINE
  5
186
  8
┌▓È_1
 62
     5
 10
944.93192274240005
 20
-405.5200802004
 30
0.0
 11
944.93192274240005
 21
-403.12008020040003
 31
0.0
  0
LINE
  5
187
  8
┌▓È_1
 62
     5
 10
976.73686467660002
 20
-404.40008020039988
 30
0.0
 11
976.73686467660002
 21
-407.28008020039999
 31
0.0
  0
LINE
  5
188
  8
┌▓È_1
 62
     5
 10
976.73686467660002
 20
-403.12008020040003
 30
0.0
 11
981.57953134320007
 21
-403.12008020040003
 31
0.0
  0
LINE
  5
189
  8
┌▓È_1
 62
     5
 10
991.1368646766
 20
-400.24008020039997
 30
0.0
 11
991.1368646766
 21
-403.12008020040003
 31
0.0
  0
LINE
  5
18A
  8
┌▓È_1
 62
     5
 10
958.78889243929984
 20
-400.40008020039988
 30
0.0
 11
966.78889243929984
 21
-400.40008020039988
 31
0.0
  0
LINE
  5
18B
  8
┌▓È_1
 62
     5
 10
945.73192274239989
 20
-406.32008020040001
 30
0.0
 11
940.93192274240005
 21
-406.32008020040001
 31
0.0
  0
LINE
  5
18C
  8
┌▓È_1
 62
     5
 10
983.45686467659993
 20
-409.5200802004
 30
0.0
 11
982.79979800989997
 21
-407.28008020039999
 31
0.0
  0
LINE
  5
18D
  8
┌▓È_1
 62
     5
 10
986.46350907359988
 20
-404.40008020039988
 30
0.0
 11
986.09517017289977
 21
-403.12008020040003
 31
0.0
  0
LINE
  5
18E
  8
┌▓È_1
 62
     5
 10
940.93192274240005
 20
-406.32008020040001
 30
0.0
 11
940.93192274240005
 21
-408.72008020039999
 31
0.0
  0
LINE
  5
18F
  8
┌▓È_1
 62
     5
 10
940.93192274240005
 20
-403.12008020040003
 30
0.0
 11
940.69015664389997
 21
-403.12008020040003
 31
0.0
  0
LINE
  5
190
  8
┌▓È_1
 62
     5
 10
981.9549980098999
 20
-404.40008020039988
 30
0.0
 11
981.57953134320007
 21
-403.12008020040003
 31
0.0
  0
LINE
  5
191
  8
┌▓È_1
 62
     5
 10
991.1368646766
 20
-404.40008020039988
 30
0.0
 11
991.1368646766
 21
-407.28008020039999
 31
0.0
  0
LINE
  5
192
  8
┌▓È_1
 62
     5
 10
940.93192274240005
 20
-400.72008020039999
 30
0.0
 11
939.09015664389995
 21
-400.72008020039999
 31
0.0
  0
LINE
  5
193
  8
┌▓È_1
 62
     5
 10
958.78889243929984
 20
-408.72008020039999
 30
0.0
 11
958.78889243929984
 21
-406.32008020040001
 31
0.0
  0
LINE
  5
194
  8
┌▓È_1
 62
     5
 10
944.93192274240005
 20
-400.72008020039999
 30
0.0
 11
944.93192274240005
 21
-399.92008020040009
 31
0.0
  0
LINE
  5
195
  8
┌▓È_1
 62
     5
 10
976.73686467660002
 20
-407.28008020039999
 30
0.0
 11
982.79979800989997
 21
-407.28008020039999
 31
0.0
  0
ARC
  5
196
  8
┌▓È_1
 62
     5
 10
962.78889243929984
 20
-399.92008020040009
 30
0.0
 40
8.8000000000000007
 50
322.48761197969998
 51
0.0
  0
LINE
  5
197
  8
┌▓È_1
 62
     5
 10
939.09015664389995
 20
-400.72008020039999
 30
0.0
 11
939.09015664389995
 21
-403.12008020040003
 31
0.0
  0
LINE
  5
198
  8
┌▓È_1
 62
     5
 10
958.78889243929984
 20
-401.75083305639993
 30
0.0
 11
958.78889243929984
 21
-401.2354566283999
 31
0.0
  0
LINE
  5
199
  8
┌▓È_1
 62
     5
 10
965.18889243929993
 20
-401.2354566283999
 30
0.0
 11
964.28379575940005
 21
-402.14055330830001
 31
0.0
  0
LINE
  5
19A
  8
┌▓È_1
 10
936.53752001039993
 20
-360.77635694740002
 30
0.0
 11
936.53752001039993
 21
-394.77635694740002
 31
0.0
  0
LINE
  5
19B
  8
┌▓È_1
 10
876.53752001039993
 20
-369.27635694740002
 30
0.0
 11
900.53752001039993
 21
-369.27635694740002
 31
0.0
  0
LINE
  5
19C
  8
┌▓È_1
 10
908.53752001040004
 20
-369.27635694740002
 30
0.0
 11
932.53752001040004
 21
-369.27635694740002
 31
0.0
  0
LINE
  5
19D
  8
┌▓È_1
 10
876.53752001039993
 20
-386.27635694740002
 30
0.0
 11
932.53752001040004
 21
-386.27635694740002
 31
0.0
  0
LINE
  5
19E
  8
┌▓È_1
 10
940.53752001040004
 20
-369.27635694740002
 30
0.0
 11
964.53752001039982
 21
-369.27635694740002
 31
0.0
  0
LINE
  5
19F
  8
┌▓È_1
 10
940.53752001040004
 20
-386.27635694740002
 30
0.0
 11
964.53752001039982
 21
-386.27635694740002
 31
0.0
  0
INSERT
  5
1A0
  8
0
  6
CONTINUOUS
  2
*U26
 10
0.0
 20
0.0
 30
0.0
  0
INSERT
  5
1A1
  8
0
  6
CONTINUOUS
  2
*U27
 10
0.0
 20
0.0
 30
0.0
  0
INSERT
  5
1A2
  8
0
  6
CONTINUOUS
  2
*U28
 10
0.0
 20
0.0
 30
0.0
  0
INSERT
  5
1A3
  8
0
  6
CONTINUOUS
  2
*U29
 10
0.0
 20
0.0
 30
0.0
  0
INSERT
  5
1A4
  8
0
  6
CONTINUOUS
  2
*U30
 10
0.0
 20
0.0
 30
0.0
  0
INSERT
  5
1A5
  8
0
  6
CONTINUOUS
  2
*U31
 10
0.0
 20
0.0
 30
0.0
  0
INSERT
  5
1A6
  8
0
  6
CONTINUOUS
  2
*U32
 10
0.0
 20
0.0
 30
0.0
  0
INSERT
  5
1A7
  8
0
  6
CONTINUOUS
  2
*U33
 10
0.0
 20
0.0
 30
0.0
  0
INSERT
  5
1A8
  8
0
  6
CONTINUOUS
  2
*U34
 10
0.0
 20
0.0
 30
0.0
  0
ARC
  5
1A9
  8
┌▓È_1
 62
     5
 10
960.7088924392998
 20
-400.24008020039997
 30
0.0
 40
6.0800000000000001
 50
270.0
 51
298.08590481520002
  0
INSERT
  5
1AA
  8
0
  6
CONTINUOUS
  2
*U35
 10
0.0
 20
0.0
 30
0.0
  0
INSERT
  5
1AB
  8
0
  6
CONTINUOUS
  2
*U36
 10
0.0
 20
0.0
 30
0.0
  0
INSERT
  5
1AC
  8
0
  6
CONTINUOUS
  2
*U37
 10
0.0
 20
0.0
 30
0.0
  0
INSERT
  5
1AD
  8
0
  6
CONTINUOUS
  2
*U38
 10
0.0
 20
0.0
 30
0.0
  0
LINE
  5
1AE
  8
┌▓È_1
 62
     5
 10
980.73473134320022
 20
-400.24008020039997
 30
0.0
 11
979.93686467659995
 21
-397.5200802004
 31
0.0
  0
LINE
  5
1AF
  8
┌▓È_1
 62
     5
 10
940.93192274240005
 20
-397.5200802004
 30
0.0
 11
940.93192274240005
 21
-400.72008020039999
 31
0.0
  0
LINE
  5
1B0
  8
┌▓È_1
  6
STITCH
 10
765.90993277079986
 20
-215.60526319740001
 30
0.0
 11
760.90993277079986
 21
-215.60526319740001
 31
0.0
  0
LINE
  5
1B1
  8
┌▓È_1
  6
STITCH
 10
760.90993277079986
 20
-215.60526319740001
 30
0.0
 11
760.90993277079986
 21
-218.10526319740001
 31
0.0
  0
LINE
  5
1B2
  8
┌▓È_1
 62
     5
 10
654.40993277079986
 20
-213.10526319740001
 30
0.0
 11
654.40993277079986
 21
-97.605263197400006
 31
0.0
  0
LINE
  5
1B3
  8
┌▓È_1
 62
     5
 10
658.90993277079986
 20
-213.10526319740001
 30
0.0
 11
658.90993277079986
 21
-97.605263197400006
 31
0.0
  0
LINE
  5
1B4
  8
┌▓È_1
  6
BORDER
 62
     3
 10
671.40723745829996
 20
-298.90213819740001
 30
0.0
 11
685.40723745829996
 21
-298.90213819740001
 31
0.0
  0
CIRCLE
  5
1B5
  8
┌▓È_1
 62
     5
 10
678.40723745830007
 20
-298.90213819740001
 30
0.0
 40
2.5
  0
LINE
  5
1B6
  8
┌▓È_1
  6
BORDER
 62
     3
 10
678.40723745830007
 20
-291.90213819740001
 30
0.0
 11
678.40723745830007
 21
-305.90213819740001
 31
0.0
  0
CIRCLE
  5
1B7
  8
┌▓È_1
 62
     5
 10
763.40723745829996
 20
-298.90213819740001
 30
0.0
 40
2.5
  0
LINE
  5
1B8
  8
┌▓È_1
 62
     5
 10
654.40723745829996
 20
-306.90213819740001
 30
0.0
 11
774.40723745830007
 21
-306.90213819740001
 31
0.0
  0
LINE
  5
1B9
  8
┌▓È_1
 62
     5
 10
774.40723745830007
 20
-290.90213819740001
 30
0.0
 11
654.40723745829996
 21
-290.90213819740001
 31
0.0
  0
LINE
  5
1BA
  8
┌▓È_1
  6
BORDER
 62
     3
 10
763.40723745829996
 20
-291.90213819740001
 30
0.0
 11
763.40723745829996
 21
-305.90213819740001
 31
0.0
  0
LINE
  5
1BB
  8
┌▓È_1
  6
BORDER
 62
     3
 10
756.40723745829996
 20
-298.90213819740001
 30
0.0
 11
770.40723745830007
 21
-298.90213819740001
 31
0.0
  0
LINE
  5
1BC
  8
┌▓È_1
 62
     5
 10
774.40723745830007
 20
-306.90213819740001
 30
0.0
 11
774.40723745830007
 21
-290.90213819740001
 31
0.0
  0
LINE
  5
1BD
  8
┌▓È_1
  6
STITCH
 10
659.40723745829996
 20
-290.90213819740001
 30
0.0
 11
659.40723745829996
 21
-306.90213819740001
 31
0.0
  0
LINE
  5
1BE
  8
┌▓È_1
 62
     5
 10
654.40723745829996
 20
-290.90213819740001
 30
0.0
 11
654.40723745829996
 21
-306.90213819740001
 31
0.0
  0
POLYLINE
  8
┌▓È_1
  5
27E
  62
5
  66
     1
 10
0.000000
 20
0.000000
 30
0.000000
  70
     8
  0
VERTEX
  8
┌▓È_1
  5
27F
 10
964.284
 20
-402.141
 30
0.000000
  70
    32
  0
VERTEX
  8
┌▓È_1
  5
280
 10
964.294
 20
-402.152
 30
0.000000
  70
    32
  0
VERTEX
  8
┌▓È_1
  5
281
 10
964.305
 20
-402.164
 30
0.000000
  70
    32
  0
VERTEX
  8
┌▓È_1
  5
282
 10
964.315
 20
-402.176
 30
0.000000
  70
    32
  0
VERTEX
  8
┌▓È_1
  5
283
 10
964.326
 20
-402.188
 30
0.000000
  70
    32
  0
VERTEX
  8
┌▓È_1
  5
284
 10
964.337
 20
-402.199
 30
0.000000
  70
    32
  0
VERTEX
  8
┌▓È_1
  5
285
 10
964.347
 20
-402.211
 30
0.000000
  70
    32
  0
VERTEX
  8
┌▓È_1
  5
286
 10
964.358
 20
-402.223
 30
0.000000
  70
    32
  0
VERTEX
  8
┌▓È_1
  5
287
 10
964.368
 20
-402.235
 30
0.000000
  70
    32
  0
VERTEX
  8
┌▓È_1
  5
288
 10
964.379
 20
-402.246
 30
0.000000
  70
    32
  0
VERTEX
  8
┌▓È_1
  5
289
 10
964.389
 20
-402.258
 30
0.000000
  70
    32
  0
VERTEX
  8
┌▓È_1
  5
28A
 10
964.400
 20
-402.270
 30
0.000000
  70
    32
  0
VERTEX
  8
┌▓È_1
  5
28B
 10
964.411
 20
-402.282
 30
0.000000
  70
    32
  0
VERTEX
  8
┌▓È_1
  5
28C
 10
964.421
 20
-402.294
 30
0.000000
  70
    32
  0
VERTEX
  8
┌▓È_1
  5
28D
 10
964.432
 20
-402.305
 30
0.000000
  70
    32
  0
VERTEX
  8
┌▓È_1
  5
28E
 10
964.442
 20
-402.317
 30
0.000000
  70
    32
  0
VERTEX
  8
┌▓È_1
  5
28F
 10
964.453
 20
-402.329
 30
0.000000
  70
    32
  0
VERTEX
  8
┌▓È_1
  5
290
 10
964.463
 20
-402.341
 30
0.000000
  70
    32
  0
VERTEX
  8
┌▓È_1
  5
291
 10
964.474
 20
-402.352
 30
0.000000
  70
    32
  0
VERTEX
  8
┌▓È_1
  5
292
 10
964.485
 20
-402.364
 30
0.000000
  70
    32
  0
VERTEX
  8
┌▓È_1
  5
293
 10
964.495
 20
-402.376
 30
0.000000
  70
    32
  0
VERTEX
  8
┌▓È_1
  5
294
 10
964.506
 20
-402.388
 30
0.000000
  70
    32
  0
VERTEX
  8
┌▓È_1
  5
295
 10
964.516
 20
-402.399
 30
0.000000
  70
    32
  0
VERTEX
  8
┌▓È_1
  5
296
 10
964.527
 20
-402.411
 30
0.000000
  70
    32
  0
VERTEX
  8
┌▓È_1
  5
297
 10
964.537
 20
-402.423
 30
0.000000
  70
    32
  0
VERTEX
  8
┌▓È_1
  5
298
 10
964.548
 20
-402.434
 30
0.000000
  70
    32
  0
VERTEX
  8
┌▓È_1
  5
299
 10
964.559
 20
-402.446
 30
0.000000
  70
    32
  0
VERTEX
  8
┌▓È_1
  5
29A
 10
964.569
 20
-402.458
 30
0.000000
  70
    32
  0
VERTEX
  8
┌▓È_1
  5
29B
 10
964.580
 20
-402.470
 30
0.000000
  70
    32
  0
VERTEX
  8
┌▓È_1
  5
29C
 10
964.590
 20
-402.481
 30
0.000000
  70
    32
  0
VERTEX
  8
┌▓È_1
  5
29D
 10
964.601
 20
-402.493
 30
0.000000
  70
    32
  0
VERTEX
  8
┌▓È_1
  5
29E
 10
964.612
 20
-402.505
 30
0.000000
  70
    32
  0
VERTEX
  8
┌▓È_1
  5
29F
 10
964.622
 20
-402.516
 30
0.000000
  70
    32
  0
VERTEX
  8
┌▓È_1
  5
2A0
 10
964.633
 20
-402.528
 30
0.000000
  70
    32
  0
VERTEX
  8
┌▓È_1
  5
2A1
 10
964.644
 20
-402.540
 30
0.000000
  70
    32
  0
VERTEX
  8
┌▓È_1
  5
2A2
 10
964.654
 20
-402.551
 30
0.000000
  70
    32
  0
VERTEX
  8
┌▓È_1
  5
2A3
 10
964.665
 20
-402.563
 30
0.000000
  70
    32
  0
VERTEX
  8
┌▓È_1
  5
2A4
 10
964.675
 20
-402.575
 30
0.000000
  70
    32
  0
VERTEX
  8
┌▓È_1
  5
2A5
 10
964.686
 20
-402.586
 30
0.000000
  70
    32
  0
VERTEX
  8
┌▓È_1
  5
2A6
 10
964.697
 20
-402.598
 30
0.000000
  70
    32
  0
VERTEX
  8
┌▓È_1
  5
2A7
 10
964.707
 20
-402.610
 30
0.000000
  70
    32
  0
VERTEX
  8
┌▓È_1
  5
2A8
 10
964.718
 20
-402.621
 30
0.000000
  70
    32
  0
VERTEX
  8
┌▓È_1
  5
2A9
 10
964.729
 20
-402.633
 30
0.000000
  70
    32
  0
VERTEX
  8
┌▓È_1
  5
2AA
 10
964.739
 20
-402.644
 30
0.000000
  70
    32
  0
VERTEX
  8
┌▓È_1
  5
2AB
 10
964.750
 20
-402.656
 30
0.000000
  70
    32
  0
VERTEX
  8
┌▓È_1
  5
2AC
 10
964.761
 20
-402.668
 30
0.000000
  70
    32
  0
VERTEX
  8
┌▓È_1
  5
2AD
 10
964.771
 20
-402.679
 30
0.000000
  70
    32
  0
VERTEX
  8
┌▓È_1
  5
2AE
 10
964.782
 20
-402.691
 30
0.000000
  70
    32
  0
VERTEX
  8
┌▓È_1
  5
2AF
 10
964.793
 20
-402.702
 30
0.000000
  70
    32
  0
VERTEX
  8
┌▓È_1
  5
2B0
 10
964.803
 20
-402.714
 30
0.000000
  70
    32
  0
VERTEX
  8
┌▓È_1
  5
2B1
 10
964.814
 20
-402.726
 30
0.000000
  70
    32
  0
VERTEX
  8
┌▓È_1
  5
2B2
 10
964.825
 20
-402.737
 30
0.000000
  70
    32
  0
VERTEX
  8
┌▓È_1
  5
2B3
 10
964.835
 20
-402.749
 30
0.000000
  70
    32
  0
VERTEX
  8
┌▓È_1
  5
2B4
 10
964.846
 20
-402.760
 30
0.000000
  70
    32
  0
VERTEX
  8
┌▓È_1
  5
2B5
 10
964.857
 20
-402.772
 30
0.000000
  70
    32
  0
VERTEX
  8
┌▓È_1
  5
2B6
 10
964.868
 20
-402.783
 30
0.000000
  70
    32
  0
VERTEX
  8
┌▓È_1
  5
2B7
 10
964.878
 20
-402.795
 30
0.000000
  70
    32
  0
VERTEX
  8
┌▓È_1
  5
2B8
 10
964.889
 20
-402.806
 30
0.000000
  70
    32
  0
VERTEX
  8
┌▓È_1
  5
2B9
 10
964.900
 20
-402.818
 30
0.000000
  70
    32
  0
VERTEX
  8
┌▓È_1
  5
2BA
 10
964.911
 20
-402.829
 30
0.000000
  70
    32
  0
VERTEX
  8
┌▓È_1
  5
2BB
 10
964.921
 20
-402.841
 30
0.000000
  70
    32
  0
VERTEX
  8
┌▓È_1
  5
2BC
 10
964.932
 20
-402.852
 30
0.000000
  70
    32
  0
VERTEX
  8
┌▓È_1
  5
2BD
 10
964.943
 20
-402.864
 30
0.000000
  70
    32
  0
VERTEX
  8
┌▓È_1
  5
2BE
 10
964.954
 20
-402.875
 30
0.000000
  70
    32
  0
VERTEX
  8
┌▓È_1
  5
2BF
 10
964.964
 20
-402.886
 30
0.000000
  70
    32
  0
VERTEX
  8
┌▓È_1
  5
2C0
 10
964.975
 20
-402.898
 30
0.000000
  70
    32
  0
VERTEX
  8
┌▓È_1
  5
2C1
 10
964.986
 20
-402.909
 30
0.000000
  70
    32
  0
VERTEX
  8
┌▓È_1
  5
2C2
 10
964.997
 20
-402.921
 30
0.000000
  70
    32
  0
VERTEX
  8
┌▓È_1
  5
2C3
 10
965.008
 20
-402.932
 30
0.000000
  70
    32
  0
VERTEX
  8
┌▓È_1
  5
2C4
 10
965.018
 20
-402.943
 30
0.000000
  70
    32
  0
VERTEX
  8
┌▓È_1
  5
2C5
 10
965.029
 20
-402.955
 30
0.000000
  70
    32
  0
VERTEX
  8
┌▓È_1
  5
2C6
 10
965.040
 20
-402.966
 30
0.000000
  70
    32
  0
VERTEX
  8
┌▓È_1
  5
2C7
 10
965.051
 20
-402.977
 30
0.000000
  70
    32
  0
VERTEX
  8
┌▓È_1
  5
2C8
 10
965.062
 20
-402.989
 30
0.000000
  70
    32
  0
VERTEX
  8
┌▓È_1
  5
2C9
 10
965.073
 20
-403.000
 30
0.000000
  70
    32
  0
VERTEX
  8
┌▓È_1
  5
2CA
 10
965.083
 20
-403.011
 30
0.000000
  70
    32
  0
VERTEX
  8
┌▓È_1
  5
2CB
 10
965.094
 20
-403.022
 30
0.000000
  70
    32
  0
VERTEX
  8
┌▓È_1
  5
2CC
 10
965.105
 20
-403.034
 30
0.000000
  70
    32
  0
VERTEX
  8
┌▓È_1
  5
2CD
 10
965.116
 20
-403.045
 30
0.000000
  70
    32
  0
VERTEX
  8
┌▓È_1
  5
2CE
 10
965.127
 20
-403.056
 30
0.000000
  70
    32
  0
VERTEX
  8
┌▓È_1
  5
2CF
 10
965.138
 20
-403.067
 30
0.000000
  70
    32
  0
VERTEX
  8
┌▓È_1
  5
2D0
 10
965.149
 20
-403.079
 30
0.000000
  70
    32
  0
VERTEX
  8
┌▓È_1
  5
2D1
 10
965.160
 20
-403.090
 30
0.000000
  70
    32
  0
VERTEX
  8
┌▓È_1
  5
2D2
 10
965.171
 20
-403.101
 30
0.000000
  70
    32
  0
VERTEX
  8
┌▓È_1
  5
2D3
 10
965.182
 20
-403.112
 30
0.000000
  70
    32
  0
VERTEX
  8
┌▓È_1
  5
2D4
 10
965.192
 20
-403.123
 30
0.000000
  70
    32
  0
VERTEX
  8
┌▓È_1
  5
2D5
 10
965.203
 20
-403.134
 30
0.000000
  70
    32
  0
VERTEX
  8
┌▓È_1
  5
2D6
 10
965.214
 20
-403.146
 30
0.000000
  70
    32
  0
VERTEX
  8
┌▓È_1
  5
2D7
 10
965.225
 20
-403.157
 30
0.000000
  70
    32
  0
VERTEX
  8
┌▓È_1
  5
2D8
 10
965.236
 20
-403.168
 30
0.000000
  70
    32
  0
VERTEX
  8
┌▓È_1
  5
2D9
 10
965.247
 20
-403.179
 30
0.000000
  70
    32
  0
VERTEX
  8
┌▓È_1
  5
2DA
 10
965.258
 20
-403.190
 30
0.000000
  70
    32
  0
VERTEX
  8
┌▓È_1
  5
2DB
 10
965.269
 20
-403.201
 30
0.000000
  70
    32
  0
VERTEX
  8
┌▓È_1
  5
2DC
 10
965.280
 20
-403.212
 30
0.000000
  70
    32
  0
VERTEX
  8
┌▓È_1
  5
2DD
 10
965.291
 20
-403.223
 30
0.000000
  70
    32
  0
VERTEX
  8
┌▓È_1
  5
2DE
 10
965.302
 20
-403.234
 30
0.000000
  70
    32
  0
VERTEX
  8
┌▓È_1
  5
2DF
 10
965.314
 20
-403.245
 30
0.000000
  70
    32
  0
VERTEX
  8
┌▓È_1
  5
2E0
 10
965.325
 20
-403.256
 30
0.000000
  70
    32
  0
VERTEX
  8
┌▓È_1
  5
2E1
 10
965.336
 20
-403.267
 30
0.000000
  70
    32
  0
VERTEX
  8
┌▓È_1
  5
2E2
 10
965.347
 20
-403.278
 30
0.000000
  70
    32
  0
VERTEX
  8
┌▓È_1
  5
2E3
 10
965.358
 20
-403.289
 30
0.000000
  70
    32
  0
VERTEX
  8
┌▓È_1
  5
2E4
 10
965.369
 20
-403.299
 30
0.000000
  70
    32
  0
VERTEX
  8
┌▓È_1
  5
2E5
 10
965.380
 20
-403.310
 30
0.000000
  70
    32
  0
VERTEX
  8
┌▓È_1
  5
2E6
 10
965.391
 20
-403.321
 30
0.000000
  70
    32
  0
VERTEX
  8
┌▓È_1
  5
2E7
 10
965.402
 20
-403.332
 30
0.000000
  70
    32
  0
VERTEX
  8
┌▓È_1
  5
2E8
 10
965.414
 20
-403.343
 30
0.000000
  70
    32
  0
VERTEX
  8
┌▓È_1
  5
2E9
 10
965.425
 20
-403.354
 30
0.000000
  70
    32
  0
VERTEX
  8
┌▓È_1
  5
2EA
 10
965.436
 20
-403.364
 30
0.000000
  70
    32
  0
VERTEX
  8
┌▓È_1
  5
2EB
 10
965.447
 20
-403.375
 30
0.000000
  70
    32
  0
VERTEX
  8
┌▓È_1
  5
2EC
 10
965.458
 20
-403.386
 30
0.000000
  70
    32
  0
VERTEX
  8
┌▓È_1
  5
2ED
 10
965.469
 20
-403.397
 30
0.000000
  70
    32
  0
VERTEX
  8
┌▓È_1
  5
2EE
 10
965.481
 20
-403.407
 30
0.000000
  70
    32
  0
VERTEX
  8
┌▓È_1
  5
2EF
 10
965.492
 20
-403.418
 30
0.000000
  70
    32
  0
VERTEX
  8
┌▓È_1
  5
2F0
 10
965.503
 20
-403.429
 30
0.000000
  70
    32
  0
VERTEX
  8
┌▓È_1
  5
2F1
 10
965.514
 20
-403.439
 30
0.000000
  70
    32
  0
VERTEX
  8
┌▓È_1
  5
2F2
 10
965.526
 20
-403.450
 30
0.000000
  70
    32
  0
VERTEX
  8
┌▓È_1
  5
2F3
 10
965.537
 20
-403.461
 30
0.000000
  70
    32
  0
VERTEX
  8
┌▓È_1
  5
2F4
 10
965.548
 20
-403.471
 30
0.000000
  70
    32
  0
VERTEX
  8
┌▓È_1
  5
2F5
 10
965.560
 20
-403.482
 30
0.000000
  70
    32
  0
VERTEX
  8
┌▓È_1
  5
2F6
 10
965.571
 20
-403.492
 30
0.000000
  70
    32
  0
VERTEX
  8
┌▓È_1
  5
2F7
 10
965.582
 20
-403.503
 30
0.000000
  70
    32
  0
VERTEX
  8
┌▓È_1
  5
2F8
 10
965.594
 20
-403.513
 30
0.000000
  70
    32
  0
VERTEX
  8
┌▓È_1
  5
2F9
 10
965.605
 20
-403.524
 30
0.000000
  70
    32
  0
VERTEX
  8
┌▓È_1
  5
2FA
 10
965.616
 20
-403.534
 30
0.000000
  70
    32
  0
VERTEX
  8
┌▓È_1
  5
2FB
 10
965.628
 20
-403.545
 30
0.000000
  70
    32
  0
VERTEX
  8
┌▓È_1
  5
2FC
 10
965.639
 20
-403.555
 30
0.000000
  70
    32
  0
VERTEX
  8
┌▓È_1
  5
2FD
 10
965.651
 20
-403.565
 30
0.000000
  70
    32
  0
VERTEX
  8
┌▓È_1
  5
2FE
 10
965.662
 20
-403.576
 30
0.000000
  70
    32
  0
SEQEND
  8
┌▓È_1
  5
2FF
  0
POLYLINE
  8
┌▓È_1
  5
300
  62
5
  66
     1
 10
0.000000
 20
0.000000
 30
0.000000
  70
     8
  0
VERTEX
  8
┌▓È_1
  5
301
 10
967.523
 20
-407.338
 30
0.000000
  70
    32
  0
VERTEX
  8
┌▓È_1
  5
302
 10
967.566
 20
-407.352
 30
0.000000
  70
    32
  0
VERTEX
  8
┌▓È_1
  5
303
 10
967.609
 20
-407.366
 30
0.000000
  70
    32
  0
VERTEX
  8
┌▓È_1
  5
304
 10
967.652
 20
-407.379
 30
0.000000
  70
    32
  0
VERTEX
  8
┌▓È_1
  5
305
 10
967.695
 20
-407.393
 30
0.000000
  70
    32
  0
VERTEX
  8
┌▓È_1
  5
306
 10
967.739
 20
-407.406
 30
0.000000
  70
    32
  0
VERTEX
  8
┌▓È_1
  5
307
 10
967.782
 20
-407.420
 30
0.000000
  70
    32
  0
VERTEX
  8
┌▓È_1
  5
308
 10
967.825
 20
-407.433
 30
0.000000
  70
    32
  0
VERTEX
  8
┌▓È_1
  5
309
 10
967.869
 20
-407.446
 30
0.000000
  70
    32
  0
VERTEX
  8
┌▓È_1
  5
30A
 10
967.912
 20
-407.459
 30
0.000000
  70
    32
  0
VERTEX
  8
┌▓È_1
  5
30B
 10
967.955
 20
-407.473
 30
0.000000
  70
    32
  0
VERTEX
  8
┌▓È_1
  5
30C
 10
967.999
 20
-407.486
 30
0.000000
  70
    32
  0
VERTEX
  8
┌▓È_1
  5
30D
 10
968.042
 20
-407.499
 30
0.000000
  70
    32
  0
VERTEX
  8
┌▓È_1
  5
30E
 10
968.086
 20
-407.512
 30
0.000000
  70
    32
  0
VERTEX
  8
┌▓È_1
  5
30F
 10
968.129
 20
-407.525
 30
0.000000
  70
    32
  0
VERTEX
  8
┌▓È_1
  5
310
 10
968.173
 20
-407.537
 30
0.000000
  70
    32
  0
VERTEX
  8
┌▓È_1
  5
311
 10
968.216
 20
-407.550
 30
0.000000
  70
    32
  0
VERTEX
  8
┌▓È_1
  5
312
 10
968.260
 20
-407.563
 30
0.000000
  70
    32
  0
VERTEX
  8
┌▓È_1
  5
313
 10
968.304
 20
-407.576
 30
0.000000
  70
    32
  0
VERTEX
  8
┌▓È_1
  5
314
 10
968.347
 20
-407.588
 30
0.000000
  70
    32
  0
VERTEX
  8
┌▓È_1
  5
315
 10
968.391
 20
-407.601
 30
0.000000
  70
    32
  0
VERTEX
  8
┌▓È_1
  5
316
 10
968.435
 20
-407.613
 30
0.000000
  70
    32
  0
VERTEX
  8
┌▓È_1
  5
317
 10
968.479
 20
-407.626
 30
0.000000
  70
    32
  0
VERTEX
  8
┌▓È_1
  5
318
 10
968.522
 20
-407.638
 30
0.000000
  70
    32
  0
VERTEX
  8
┌▓È_1
  5
319
 10
968.566
 20
-407.650
 30
0.000000
  70
    32
  0
VERTEX
  8
┌▓È_1
  5
31A
 10
968.610
 20
-407.663
 30
0.000000
  70
    32
  0
VERTEX
  8
┌▓È_1
  5
31B
 10
968.654
 20
-407.675
 30
0.000000
  70
    32
  0
VERTEX
  8
┌▓È_1
  5
31C
 10
968.698
 20
-407.687
 30
0.000000
  70
    32
  0
VERTEX
  8
┌▓È_1
  5
31D
 10
968.742
 20
-407.699
 30
0.000000
  70
    32
  0
VERTEX
  8
┌▓È_1
  5
31E
 10
968.786
 20
-407.711
 30
0.000000
  70
    32
  0
VERTEX
  8
┌▓È_1
  5
31F
 10
968.830
 20
-407.723
 30
0.000000
  70
    32
  0
VERTEX
  8
┌▓È_1
  5
320
 10
968.874
 20
-407.735
 30
0.000000
  70
    32
  0
VERTEX
  8
┌▓È_1
  5
321
 10
968.918
 20
-407.747
 30
0.000000
  70
    32
  0
VERTEX
  8
┌▓È_1
  5
322
 10
968.962
 20
-407.759
 30
0.000000
  70
    32
  0
VERTEX
  8
┌▓È_1
  5
323
 10
969.006
 20
-407.770
 30
0.000000
  70
    32
  0
VERTEX
  8
┌▓È_1
  5
324
 10
969.050
 20
-407.782
 30
0.000000
  70
    32
  0
VERTEX
  8
┌▓È_1
  5
325
 10
969.094
 20
-407.794
 30
0.000000
  70
    32
  0
VERTEX
  8
┌▓È_1
  5
326
 10
969.139
 20
-407.805
 30
0.000000
  70
    32
  0
VERTEX
  8
┌▓È_1
  5
327
 10
969.183
 20
-407.817
 30
0.000000
  70
    32
  0
VERTEX
  8
┌▓È_1
  5
328
 10
969.227
 20
-407.829
 30
0.000000
  70
    32
  0
VERTEX
  8
┌▓È_1
  5
329
 10
969.271
 20
-407.840
 30
0.000000
  70
    32
  0
VERTEX
  8
┌▓È_1
  5
32A
 10
969.316
 20
-407.852
 30
0.000000
  70
    32
  0
VERTEX
  8
┌▓È_1
  5
32B
 10
969.360
 20
-407.863
 30
0.000000
  70
    32
  0
VERTEX
  8
┌▓È_1
  5
32C
 10
969.404
 20
-407.874
 30
0.000000
  70
    32
  0
VERTEX
  8
┌▓È_1
  5
32D
 10
969.449
 20
-407.886
 30
0.000000
  70
    32
  0
VERTEX
  8
┌▓È_1
  5
32E
 10
969.493
 20
-407.897
 30
0.000000
  70
    32
  0
VERTEX
  8
┌▓È_1
  5
32F
 10
969.538
 20
-407.908
 30
0.000000
  70
    32
  0
VERTEX
  8
┌▓È_1
  5
330
 10
969.582
 20
-407.919
 30
0.000000
  70
    32
  0
VERTEX
  8
┌▓È_1
  5
331
 10
969.627
 20
-407.930
 30
0.000000
  70
    32
  0
VERTEX
  8
┌▓È_1
  5
332
 10
969.671
 20
-407.942
 30
0.000000
  70
    32
  0
VERTEX
  8
┌▓È_1
  5
333
 10
969.716
 20
-407.953
 30
0.000000
  70
    32
  0
VERTEX
  8
┌▓È_1
  5
334
 10
969.760
 20
-407.964
 30
0.000000
  70
    32
  0
VERTEX
  8
┌▓È_1
  5
335
 10
969.805
 20
-407.975
 30
0.000000
  70
    32
  0
VERTEX
  8
┌▓È_1
  5
336
 10
969.849
 20
-407.985
 30
0.000000
  70
    32
  0
VERTEX
  8
┌▓È_1
  5
337
 10
969.894
 20
-407.996
 30
0.000000
  70
    32
  0
VERTEX
  8
┌▓È_1
  5
338
 10
969.939
 20
-408.007
 30
0.000000
  70
    32
  0
VERTEX
  8
┌▓È_1
  5
339
 10
969.983
 20
-408.018
 30
0.000000
  70
    32
  0
VERTEX
  8
┌▓È_1
  5
33A
 10
970.028
 20
-408.029
 30
0.000000
  70
    32
  0
VERTEX
  8
┌▓È_1
  5
33B
 10
970.073
 20
-408.040
 30
0.000000
  70
    32
  0
VERTEX
  8
┌▓È_1
  5
33C
 10
970.117
 20
-408.050
 30
0.000000
  70
    32
  0
VERTEX
  8
┌▓È_1
  5
33D
 10
970.162
 20
-408.061
 30
0.000000
  70
    32
  0
VERTEX
  8
┌▓È_1
  5
33E
 10
970.207
 20
-408.071
 30
0.000000
  70
    32
  0
VERTEX
  8
┌▓È_1
  5
33F
 10
970.252
 20
-408.082
 30
0.000000
  70
    32
  0
VERTEX
  8
┌▓È_1
  5
340
 10
970.296
 20
-408.093
 30
0.000000
  70
    32
  0
VERTEX
  8
┌▓È_1
  5
341
 10
970.341
 20
-408.103
 30
0.000000
  70
    32
  0
VERTEX
  8
┌▓È_1
  5
342
 10
970.386
 20
-408.114
 30
0.000000
  70
    32
  0
VERTEX
  8
┌▓È_1
  5
343
 10
970.431
 20
-408.124
 30
0.000000
  70
    32
  0
VERTEX
  8
┌▓È_1
  5
344
 10
970.476
 20
-408.135
 30
0.000000
  70
    32
  0
VERTEX
  8
┌▓È_1
  5
345
 10
970.521
 20
-408.145
 30
0.000000
  70
    32
  0
VERTEX
  8
┌▓È_1
  5
346
 10
970.565
 20
-408.155
 30
0.000000
  70
    32
  0
VERTEX
  8
┌▓È_1
  5
347
 10
970.610
 20
-408.166
 30
0.000000
  70
    32
  0
VERTEX
  8
┌▓È_1
  5
348
 10
970.655
 20
-408.176
 30
0.000000
  70
    32
  0
VERTEX
  8
┌▓È_1
  5
349
 10
970.700
 20
-408.186
 30
0.000000
  70
    32
  0
VERTEX
  8
┌▓È_1
  5
34A
 10
970.745
 20
-408.196
 30
0.000000
  70
    32
  0
VERTEX
  8
┌▓È_1
  5
34B
 10
970.790
 20
-408.207
 30
0.000000
  70
    32
  0
VERTEX
  8
┌▓È_1
  5
34C
 10
970.835
 20
-408.217
 30
0.000000
  70
    32
  0
VERTEX
  8
┌▓È_1
  5
34D
 10
970.880
 20
-408.227
 30
0.000000
  70
    32
  0
VERTEX
  8
┌▓È_1
  5
34E
 10
970.925
 20
-408.237
 30
0.000000
  70
    32
  0
VERTEX
  8
┌▓È_1
  5
34F
 10
970.970
 20
-408.247
 30
0.000000
  70
    32
  0
VERTEX
  8
┌▓È_1
  5
350
 10
971.015
 20
-408.257
 30
0.000000
  70
    32
  0
VERTEX
  8
┌▓È_1
  5
351
 10
971.060
 20
-408.267
 30
0.000000
  70
    32
  0
VERTEX
  8
┌▓È_1
  5
352
 10
971.105
 20
-408.277
 30
0.000000
  70
    32
  0
VERTEX
  8
┌▓È_1
  5
353
 10
971.151
 20
-408.287
 30
0.000000
  70
    32
  0
VERTEX
  8
┌▓È_1
  5
354
 10
971.196
 20
-408.297
 30
0.000000
  70
    32
  0
VERTEX
  8
┌▓È_1
  5
355
 10
971.241
 20
-408.307
 30
0.000000
  70
    32
  0
VERTEX
  8
┌▓È_1
  5
356
 10
971.286
 20
-408.317
 30
0.000000
  70
    32
  0
VERTEX
  8
┌▓È_1
  5
357
 10
971.331
 20
-408.327
 30
0.000000
  70
    32
  0
VERTEX
  8
┌▓È_1
  5
358
 10
971.376
 20
-408.337
 30
0.000000
  70
    32
  0
VERTEX
  8
┌▓È_1
  5
359
 10
971.421
 20
-408.347
 30
0.000000
  70
    32
  0
VERTEX
  8
┌▓È_1
  5
35A
 10
971.467
 20
-408.357
 30
0.000000
  70
    32
  0
VERTEX
  8
┌▓È_1
  5
35B
 10
971.512
 20
-408.366
 30
0.000000
  70
    32
  0
VERTEX
  8
┌▓È_1
  5
35C
 10
971.557
 20
-408.376
 30
0.000000
  70
    32
  0
VERTEX
  8
┌▓È_1
  5
35D
 10
971.602
 20
-408.386
 30
0.000000
  70
    32
  0
VERTEX
  8
┌▓È_1
  5
35E
 10
971.647
 20
-408.396
 30
0.000000
  70
    32
  0
VERTEX
  8
┌▓È_1
  5
35F
 10
971.693
 20
-408.405
 30
0.000000
  70
    32
  0
VERTEX
  8
┌▓È_1
  5
360
 10
971.738
 20
-408.415
 30
0.000000
  70
    32
  0
VERTEX
  8
┌▓È_1
  5
361
 10
971.783
 20
-408.425
 30
0.000000
  70
    32
  0
VERTEX
  8
┌▓È_1
  5
362
 10
971.828
 20
-408.435
 30
0.000000
  70
    32
  0
VERTEX
  8
┌▓È_1
  5
363
 10
971.874
 20
-408.444
 30
0.000000
  70
    32
  0
VERTEX
  8
┌▓È_1
  5
364
 10
971.919
 20
-408.454
 30
0.000000
  70
    32
  0
VERTEX
  8
┌▓È_1
  5
365
 10
971.964
 20
-408.464
 30
0.000000
  70
    32
  0
VERTEX
  8
┌▓È_1
  5
366
 10
972.009
 20
-408.473
 30
0.000000
  70
    32
  0
VERTEX
  8
┌▓È_1
  5
367
 10
972.055
 20
-408.483
 30
0.000000
  70
    32
  0
VERTEX
  8
┌▓È_1
  5
368
 10
972.100
 20
-408.492
 30
0.000000
  70
    32
  0
VERTEX
  8
┌▓È_1
  5
369
 10
972.145
 20
-408.502
 30
0.000000
  70
    32
  0
VERTEX
  8
┌▓È_1
  5
36A
 10
972.191
 20
-408.512
 30
0.000000
  70
    32
  0
VERTEX
  8
┌▓È_1
  5
36B
 10
972.236
 20
-408.521
 30
0.000000
  70
    32
  0
VERTEX
  8
┌▓È_1
  5
36C
 10
972.281
 20
-408.531
 30
0.000000
  70
    32
  0
VERTEX
  8
┌▓È_1
  5
36D
 10
972.327
 20
-408.540
 30
0.000000
  70
    32
  0
VERTEX
  8
┌▓È_1
  5
36E
 10
972.372
 20
-408.550
 30
0.000000
  70
    32
  0
VERTEX
  8
┌▓È_1
  5
36F
 10
972.417
 20
-408.559
 30
0.000000
  70
    32
  0
VERTEX
  8
┌▓È_1
  5
370
 10
972.463
 20
-408.569
 30
0.000000
  70
    32
  0
VERTEX
  8
┌▓È_1
  5
371
 10
972.508
 20
-408.578
 30
0.000000
  70
    32
  0
VERTEX
  8
┌▓È_1
  5
372
 10
972.554
 20
-408.588
 30
0.000000
  70
    32
  0
VERTEX
  8
┌▓È_1
  5
373
 10
972.599
 20
-408.597
 30
0.000000
  70
    32
  0
VERTEX
  8
┌▓È_1
  5
374
 10
972.644
 20
-408.607
 30
0.000000
  70
    32
  0
VERTEX
  8
┌▓È_1
  5
375
 10
972.690
 20
-408.616
 30
0.000000
  70
    32
  0
VERTEX
  8
┌▓È_1
  5
376
 10
972.735
 20
-408.626
 30
0.000000
  70
    32
  0
VERTEX
  8
┌▓È_1
  5
377
 10
972.780
 20
-408.635
 30
0.000000
  70
    32
  0
VERTEX
  8
┌▓È_1
  5
378
 10
972.826
 20
-408.645
 30
0.000000
  70
    32
  0
VERTEX
  8
┌▓È_1
  5
379
 10
972.871
 20
-408.654
 30
0.000000
  70
    32
  0
VERTEX
  8
┌▓È_1
  5
37A
 10
972.917
 20
-408.663
 30
0.000000
  70
    32
  0
VERTEX
  8
┌▓È_1
  5
37B
 10
972.962
 20
-408.673
 30
0.000000
  70
    32
  0
VERTEX
  8
┌▓È_1
  5
37C
 10
973.007
 20
-408.682
 30
0.000000
  70
    32
  0
VERTEX
  8
┌▓È_1
  5
37D
 10
973.053
 20
-408.692
 30
0.000000
  70
    32
  0
VERTEX
  8
┌▓È_1
  5
37E
 10
973.098
 20
-408.701
 30
0.000000
  70
    32
  0
VERTEX
  8
┌▓È_1
  5
37F
 10
973.143
 20
-408.711
 30
0.000000
  70
    32
  0
VERTEX
  8
┌▓È_1
  5
380
 10
973.189
 20
-408.720
 30
0.000000
  70
    32
  0
SEQEND
  8
┌▓È_1
  5
381
  0
POLYLINE
  8
┌▓È_1
  5
382
  62
5
  66
     1
 10
0.000000
 20
0.000000
 30
0.000000
  70
     8
  0
VERTEX
  8
┌▓È_1
  5
383
 10
958.789
 20
-401.751
 30
0.000000
  70
    32
  0
VERTEX
  8
┌▓È_1
  5
384
 10
958.818
 20
-401.777
 30
0.000000
  70
    32
  0
VERTEX
  8
┌▓È_1
  5
385
 10
958.847
 20
-401.804
 30
0.000000
  70
    32
  0
VERTEX
  8
┌▓È_1
  5
386
 10
958.875
 20
-401.831
 30
0.000000
  70
    32
  0
VERTEX
  8
┌▓È_1
  5
387
 10
958.904
 20
-401.857
 30
0.000000
  70
    32
  0
VERTEX
  8
┌▓È_1
  5
388
 10
958.933
 20
-401.884
 30
0.000000
  70
    32
  0
VERTEX
  8
┌▓È_1
  5
389
 10
958.962
 20
-401.910
 30
0.000000
  70
    32
  0
VERTEX
  8
┌▓È_1
  5
38A
 10
958.991
 20
-401.937
 30
0.000000
  70
    32
  0
VERTEX
  8
┌▓È_1
  5
38B
 10
959.019
 20
-401.963
 30
0.000000
  70
    32
  0
VERTEX
  8
┌▓È_1
  5
38C
 10
959.048
 20
-401.990
 30
0.000000
  70
    32
  0
VERTEX
  8
┌▓È_1
  5
38D
 10
959.077
 20
-402.016
 30
0.000000
  70
    32
  0
VERTEX
  8
┌▓È_1
  5
38E
 10
959.106
 20
-402.043
 30
0.000000
  70
    32
  0
VERTEX
  8
┌▓È_1
  5
38F
 10
959.135
 20
-402.069
 30
0.000000
  70
    32
  0
VERTEX
  8
┌▓È_1
  5
390
 10
959.164
 20
-402.096
 30
0.000000
  70
    32
  0
VERTEX
  8
┌▓È_1
  5
391
 10
959.192
 20
-402.122
 30
0.000000
  70
    32
  0
VERTEX
  8
┌▓È_1
  5
392
 10
959.221
 20
-402.149
 30
0.000000
  70
    32
  0
VERTEX
  8
┌▓È_1
  5
393
 10
959.250
 20
-402.175
 30
0.000000
  70
    32
  0
VERTEX
  8
┌▓È_1
  5
394
 10
959.279
 20
-402.202
 30
0.000000
  70
    32
  0
VERTEX
  8
┌▓È_1
  5
395
 10
959.308
 20
-402.228
 30
0.000000
  70
    32
  0
VERTEX
  8
┌▓È_1
  5
396
 10
959.337
 20
-402.255
 30
0.000000
  70
    32
  0
VERTEX
  8
┌▓È_1
  5
397
 10
959.366
 20
-402.281
 30
0.000000
  70
    32
  0
VERTEX
  8
┌▓È_1
  5
398
 10
959.395
 20
-402.308
 30
0.000000
  70
    32
  0
VERTEX
  8
┌▓È_1
  5
399
 10
959.423
 20
-402.334
 30
0.000000
  70
    32
  0
VERTEX
  8
┌▓È_1
  5
39A
 10
959.452
 20
-402.361
 30
0.000000
  70
    32
  0
VERTEX
  8
┌▓È_1
  5
39B
 10
959.481
 20
-402.387
 30
0.000000
  70
    32
  0
VERTEX
  8
┌▓È_1
  5
39C
 10
959.510
 20
-402.413
 30
0.000000
  70
    32
  0
VERTEX
  8
┌▓È_1
  5
39D
 10
959.539
 20
-402.440
 30
0.000000
  70
    32
  0
VERTEX
  8
┌▓È_1
  5
39E
 10
959.568
 20
-402.466
 30
0.000000
  70
    32
  0
VERTEX
  8
┌▓È_1
  5
39F
 10
959.597
 20
-402.493
 30
0.000000
  70
    32
  0
VERTEX
  8
┌▓È_1
  5
3A0
 10
959.626
 20
-402.519
 30
0.000000
  70
    32
  0
VERTEX
  8
┌▓È_1
  5
3A1
 10
959.655
 20
-402.545
 30
0.000000
  70
    32
  0
VERTEX
  8
┌▓È_1
  5
3A2
 10
959.684
 20
-402.572
 30
0.000000
  70
    32
  0
VERTEX
  8
┌▓È_1
  5
3A3
 10
959.713
 20
-402.598
 30
0.000000
  70
    32
  0
VERTEX
  8
┌▓È_1
  5
3A4
 10
959.742
 20
-402.624
 30
0.000000
  70
    32
  0
VERTEX
  8
┌▓È_1
  5
3A5
 10
959.771
 20
-402.650
 30
0.000000
  70
    32
  0
VERTEX
  8
┌▓È_1
  5
3A6
 10
959.800
 20
-402.677
 30
0.000000
  70
    32
  0
VERTEX
  8
┌▓È_1
  5
3A7
 10
959.829
 20
-402.703
 30
0.000000
  70
    32
  0
VERTEX
  8
┌▓È_1
  5
3A8
 10
959.858
 20
-402.729
 30
0.000000
  70
    32
  0
VERTEX
  8
┌▓È_1
  5
3A9
 10
959.887
 20
-402.755
 30
0.000000
  70
    32
  0
VERTEX
  8
┌▓È_1
  5
3AA
 10
959.916
 20
-402.781
 30
0.000000
  70
    32
  0
VERTEX
  8
┌▓È_1
  5
3AB
 10
959.945
 20
-402.808
 30
0.000000
  70
    32
  0
VERTEX
  8
┌▓È_1
  5
3AC
 10
959.974
 20
-402.834
 30
0.000000
  70
    32
  0
VERTEX
  8
┌▓È_1
  5
3AD
 10
960.003
 20
-402.860
 30
0.000000
  70
    32
  0
VERTEX
  8
┌▓È_1
  5
3AE
 10
960.032
 20
-402.886
 30
0.000000
  70
    32
  0
VERTEX
  8
┌▓È_1
  5
3AF
 10
960.061
 20
-402.912
 30
0.000000
  70
    32
  0
VERTEX
  8
┌▓È_1
  5
3B0
 10
960.090
 20
-402.938
 30
0.000000
  70
    32
  0
VERTEX
  8
┌▓È_1
  5
3B1
 10
960.119
 20
-402.964
 30
0.000000
  70
    32
  0
VERTEX
  8
┌▓È_1
  5
3B2
 10
960.149
 20
-402.990
 30
0.000000
  70
    32
  0
VERTEX
  8
┌▓È_1
  5
3B3
 10
960.178
 20
-403.016
 30
0.000000
  70
    32
  0
VERTEX
  8
┌▓È_1
  5
3B4
 10
960.207
 20
-403.042
 30
0.000000
  70
    32
  0
VERTEX
  8
┌▓È_1
  5
3B5
 10
960.236
 20
-403.068
 30
0.000000
  70
    32
  0
VERTEX
  8
┌▓È_1
  5
3B6
 10
960.265
 20
-403.093
 30
0.000000
  70
    32
  0
VERTEX
  8
┌▓È_1
  5
3B7
 10
960.294
 20
-403.119
 30
0.000000
  70
    32
  0
VERTEX
  8
┌▓È_1
  5
3B8
 10
960.324
 20
-403.145
 30
0.000000
  70
    32
  0
VERTEX
  8
┌▓È_1
  5
3B9
 10
960.353
 20
-403.171
 30
0.000000
  70
    32
  0
VERTEX
  8
┌▓È_1
  5
3BA
 10
960.382
 20
-403.197
 30
0.000000
  70
    32
  0
VERTEX
  8
┌▓È_1
  5
3BB
 10
960.411
 20
-403.222
 30
0.000000
  70
    32
  0
VERTEX
  8
┌▓È_1
  5
3BC
 10
960.441
 20
-403.248
 30
0.000000
  70
    32
  0
VERTEX
  8
┌▓È_1
  5
3BD
 10
960.470
 20
-403.274
 30
0.000000
  70
    32
  0
VERTEX
  8
┌▓È_1
  5
3BE
 10
960.499
 20
-403.299
 30
0.000000
  70
    32
  0
VERTEX
  8
┌▓È_1
  5
3BF
 10
960.529
 20
-403.325
 30
0.000000
  70
    32
  0
VERTEX
  8
┌▓È_1
  5
3C0
 10
960.558
 20
-403.350
 30
0.000000
  70
    32
  0
VERTEX
  8
┌▓È_1
  5
3C1
 10
960.588
 20
-403.376
 30
0.000000
  70
    32
  0
VERTEX
  8
┌▓È_1
  5
3C2
 10
960.617
 20
-403.401
 30
0.000000
  70
    32
  0
VERTEX
  8
┌▓È_1
  5
3C3
 10
960.646
 20
-403.427
 30
0.000000
  70
    32
  0
VERTEX
  8
┌▓È_1
  5
3C4
 10
960.676
 20
-403.452
 30
0.000000
  70
    32
  0
VERTEX
  8
┌▓È_1
  5
3C5
 10
960.705
 20
-403.478
 30
0.000000
  70
    32
  0
VERTEX
  8
┌▓È_1
  5
3C6
 10
960.735
 20
-403.503
 30
0.000000
  70
    32
  0
VERTEX
  8
┌▓È_1
  5
3C7
 10
960.764
 20
-403.528
 30
0.000000
  70
    32
  0
VERTEX
  8
┌▓È_1
  5
3C8
 10
960.794
 20
-403.553
 30
0.000000
  70
    32
  0
VERTEX
  8
┌▓È_1
  5
3C9
 10
960.823
 20
-403.579
 30
0.000000
  70
    32
  0
VERTEX
  8
┌▓È_1
  5
3CA
 10
960.853
 20
-403.604
 30
0.000000
  70
    32
  0
VERTEX
  8
┌▓È_1
  5
3CB
 10
960.882
 20
-403.629
 30
0.000000
  70
    32
  0
VERTEX
  8
┌▓È_1
  5
3CC
 10
960.912
 20
-403.654
 30
0.000000
  70
    32
  0
VERTEX
  8
┌▓È_1
  5
3CD
 10
960.942
 20
-403.679
 30
0.000000
  70
    32
  0
VERTEX
  8
┌▓È_1
  5
3CE
 10
960.971
 20
-403.704
 30
0.000000
  70
    32
  0
VERTEX
  8
┌▓È_1
  5
3CF
 10
961.001
 20
-403.729
 30
0.000000
  70
    32
  0
VERTEX
  8
┌▓È_1
  5
3D0
 10
961.031
 20
-403.754
 30
0.000000
  70
    32
  0
VERTEX
  8
┌▓È_1
  5
3D1
 10
961.060
 20
-403.779
 30
0.000000
  70
    32
  0
VERTEX
  8
┌▓È_1
  5
3D2
 10
961.090
 20
-403.804
 30
0.000000
  70
    32
  0
VERTEX
  8
┌▓È_1
  5
3D3
 10
961.120
 20
-403.829
 30
0.000000
  70
    32
  0
VERTEX
  8
┌▓È_1
  5
3D4
 10
961.150
 20
-403.854
 30
0.000000
  70
    32
  0
VERTEX
  8
┌▓È_1
  5
3D5
 10
961.179
 20
-403.878
 30
0.000000
  70
    32
  0
VERTEX
  8
┌▓È_1
  5
3D6
 10
961.209
 20
-403.903
 30
0.000000
  70
    32
  0
VERTEX
  8
┌▓È_1
  5
3D7
 10
961.239
 20
-403.928
 30
0.000000
  70
    32
  0
VERTEX
  8
┌▓È_1
  5
3D8
 10
961.269
 20
-403.952
 30
0.000000
  70
    32
  0
VERTEX
  8
┌▓È_1
  5
3D9
 10
961.299
 20
-403.977
 30
0.000000
  70
    32
  0
VERTEX
  8
┌▓È_1
  5
3DA
 10
961.329
 20
-404.001
 30
0.000000
  70
    32
  0
VERTEX
  8
┌▓È_1
  5
3DB
 10
961.359
 20
-404.026
 30
0.000000
  70
    32
  0
VERTEX
  8
┌▓È_1
  5
3DC
 10
961.389
 20
-404.050
 30
0.000000
  70
    32
  0
VERTEX
  8
┌▓È_1
  5
3DD
 10
961.419
 20
-404.074
 30
0.000000
  70
    32
  0
VERTEX
  8
┌▓È_1
  5
3DE
 10
961.449
 20
-404.099
 30
0.000000
  70
    32
  0
VERTEX
  8
┌▓È_1
  5
3DF
 10
961.479
 20
-404.123
 30
0.000000
  70
    32
  0
VERTEX
  8
┌▓È_1
  5
3E0
 10
961.509
 20
-404.147
 30
0.000000
  70
    32
  0
VERTEX
  8
┌▓È_1
  5
3E1
 10
961.539
 20
-404.171
 30
0.000000
  70
    32
  0
VERTEX
  8
┌▓È_1
  5
3E2
 10
961.569
 20
-404.195
 30
0.000000
  70
    32
  0
VERTEX
  8
┌▓È_1
  5
3E3
 10
961.600
 20
-404.219
 30
0.000000
  70
    32
  0
VERTEX
  8
┌▓È_1
  5
3E4
 10
961.630
 20
-404.243
 30
0.000000
  70
    32
  0
VERTEX
  8
┌▓È_1
  5
3E5
 10
961.660
 20
-404.267
 30
0.000000
  70
    32
  0
VERTEX
  8
┌▓È_1
  5
3E6
 10
961.690
 20
-404.291
 30
0.000000
  70
    32
  0
VERTEX
  8
┌▓È_1
  5
3E7
 10
961.721
 20
-404.315
 30
0.000000
  70
    32
  0
VERTEX
  8
┌▓È_1
  5
3E8
 10
961.751
 20
-404.339
 30
0.000000
  70
    32
  0
VERTEX
  8
┌▓È_1
  5
3E9
 10
961.781
 20
-404.363
 30
0.000000
  70
    32
  0
VERTEX
  8
┌▓È_1
  5
3EA
 10
961.812
 20
-404.386
 30
0.000000
  70
    32
  0
VERTEX
  8
┌▓È_1
  5
3EB
 10
961.842
 20
-404.410
 30
0.000000
  70
    32
  0
VERTEX
  8
┌▓È_1
  5
3EC
 10
961.873
 20
-404.433
 30
0.000000
  70
    32
  0
VERTEX
  8
┌▓È_1
  5
3ED
 10
961.903
 20
-404.457
 30
0.000000
  70
    32
  0
VERTEX
  8
┌▓È_1
  5
3EE
 10
961.933
 20
-404.480
 30
0.000000
  70
    32
  0
VERTEX
  8
┌▓È_1
  5
3EF
 10
961.964
 20
-404.504
 30
0.000000
  70
    32
  0
VERTEX
  8
┌▓È_1
  5
3F0
 10
961.995
 20
-404.527
 30
0.000000
  70
    32
  0
VERTEX
  8
┌▓È_1
  5
3F1
 10
962.025
 20
-404.550
 30
0.000000
  70
    32
  0
VERTEX
  8
┌▓È_1
  5
3F2
 10
962.056
 20
-404.573
 30
0.000000
  70
    32
  0
VERTEX
  8
┌▓È_1
  5
3F3
 10
962.087
 20
-404.597
 30
0.000000
  70
    32
  0
VERTEX
  8
┌▓È_1
  5
3F4
 10
962.117
 20
-404.620
 30
0.000000
  70
    32
  0
VERTEX
  8
┌▓È_1
  5
3F5
 10
962.148
 20
-404.643
 30
0.000000
  70
    32
  0
VERTEX
  8
┌▓È_1
  5
3F6
 10
962.179
 20
-404.666
 30
0.000000
  70
    32
  0
VERTEX
  8
┌▓È_1
  5
3F7
 10
962.210
 20
-404.688
 30
0.000000
  70
    32
  0
VERTEX
  8
┌▓È_1
  5
3F8
 10
962.240
 20
-404.711
 30
0.000000
  70
    32
  0
VERTEX
  8
┌▓È_1
  5
3F9
 10
962.271
 20
-404.734
 30
0.000000
  70
    32
  0
VERTEX
  8
┌▓È_1
  5
3FA
 10
962.302
 20
-404.757
 30
0.000000
  70
    32
  0
VERTEX
  8
┌▓È_1
  5
3FB
 10
962.333
 20
-404.779
 30
0.000000
  70
    32
  0
VERTEX
  8
┌▓È_1
  5
3FC
 10
962.364
 20
-404.802
 30
0.000000
  70
    32
  0
VERTEX
  8
┌▓È_1
  5
3FD
 10
962.395
 20
-404.824
 30
0.000000
  70
    32
  0
VERTEX
  8
┌▓È_1
  5
3FE
 10
962.426
 20
-404.847
 30
0.000000
  70
    32
  0
VERTEX
  8
┌▓È_1
  5
3FF
 10
962.457
 20
-404.869
 30
0.000000
  70
    32
  0
VERTEX
  8
┌▓È_1
  5
400
 10
962.489
 20
-404.891
 30
0.000000
  70
    32
  0
VERTEX
  8
┌▓È_1
  5
401
 10
962.520
 20
-404.914
 30
0.000000
  70
    32
  0
VERTEX
  8
┌▓È_1
  5
402
 10
962.551
 20
-404.936
 30
0.000000
  70
    32
  0
VERTEX
  8
┌▓È_1
  5
403
 10
962.582
 20
-404.958
 30
0.000000
  70
    32
  0
VERTEX
  8
┌▓È_1
  5
404
 10
962.613
 20
-404.980
 30
0.000000
  70
    32
  0
VERTEX
  8
┌▓È_1
  5
405
 10
962.645
 20
-405.002
 30
0.000000
  70
    32
  0
VERTEX
  8
┌▓È_1
  5
406
 10
962.676
 20
-405.024
 30
0.000000
  70
    32
  0
VERTEX
  8
┌▓È_1
  5
407
 10
962.708
 20
-405.045
 30
0.000000
  70
    32
  0
VERTEX
  8
┌▓È_1
  5
408
 10
962.739
 20
-405.067
 30
0.000000
  70
    32
  0
VERTEX
  8
┌▓È_1
  5
409
 10
962.770
 20
-405.089
 30
0.000000
  70
    32
  0
VERTEX
  8
┌▓È_1
  5
40A
 10
962.802
 20
-405.110
 30
0.000000
  70
    32
  0
VERTEX
  8
┌▓È_1
  5
40B
 10
962.834
 20
-405.132
 30
0.000000
  70
    32
  0
VERTEX
  8
┌▓È_1
  5
40C
 10
962.865
 20
-405.153
 30
0.000000
  70
    32
  0
VERTEX
  8
┌▓È_1
  5
40D
 10
962.897
 20
-405.175
 30
0.000000
  70
    32
  0
VERTEX
  8
┌▓È_1
  5
40E
 10
962.928
 20
-405.196
 30
0.000000
  70
    32
  0
VERTEX
  8
┌▓È_1
  5
40F
 10
962.960
 20
-405.217
 30
0.000000
  70
    32
  0
VERTEX
  8
┌▓È_1
  5
410
 10
962.992
 20
-405.238
 30
0.000000
  70
    32
  0
VERTEX
  8
┌▓È_1
  5
411
 10
963.024
 20
-405.259
 30
0.000000
  70
    32
  0
VERTEX
  8
┌▓È_1
  5
412
 10
963.056
 20
-405.280
 30
0.000000
  70
    32
  0
VERTEX
  8
┌▓È_1
  5
413
 10
963.088
 20
-405.301
 30
0.000000
  70
    32
  0
VERTEX
  8
┌▓È_1
  5
414
 10
963.119
 20
-405.322
 30
0.000000
  70
    32
  0
VERTEX
  8
┌▓È_1
  5
415
 10
963.151
 20
-405.342
 30
0.000000
  70
    32
  0
VERTEX
  8
┌▓È_1
  5
416
 10
963.183
 20
-405.363
 30
0.000000
  70
    32
  0
VERTEX
  8
┌▓È_1
  5
417
 10
963.216
 20
-405.384
 30
0.000000
  70
    32
  0
VERTEX
  8
┌▓È_1
  5
418
 10
963.248
 20
-405.404
 30
0.000000
  70
    32
  0
VERTEX
  8
┌▓È_1
  5
419
 10
963.280
 20
-405.424
 30
0.000000
  70
    32
  0
VERTEX
  8
┌▓È_1
  5
41A
 10
963.312
 20
-405.445
 30
0.000000
  70
    32
  0
VERTEX
  8
┌▓È_1
  5
41B
 10
963.344
 20
-405.465
 30
0.000000
  70
    32
  0
VERTEX
  8
┌▓È_1
  5
41C
 10
963.377
 20
-405.485
 30
0.000000
  70
    32
  0
VERTEX
  8
┌▓È_1
  5
41D
 10
963.409
 20
-405.505
 30
0.000000
  70
    32
  0
VERTEX
  8
┌▓È_1
  5
41E
 10
963.441
 20
-405.525
 30
0.000000
  70
    32
  0
VERTEX
  8
┌▓È_1
  5
41F
 10
963.474
 20
-405.545
 30
0.000000
  70
    32
  0
VERTEX
  8
┌▓È_1
  5
420
 10
963.506
 20
-405.565
 30
0.000000
  70
    32
  0
VERTEX
  8
┌▓È_1
  5
421
 10
963.539
 20
-405.584
 30
0.000000
  70
    32
  0
VERTEX
  8
┌▓È_1
  5
422
 10
963.571
 20
-405.604
 30
0.000000
  70
    32
  0
SEQEND
  8
┌▓È_1
  5
423
  0
POLYLINE
  8
┌▓È_1
  5
424
  62
5
  66
     1
 10
0.000000
 20
0.000000
 30
0.000000
  70
     8
  0
VERTEX
  8
┌▓È_1
  5
425
 10
969.484
 20
-405.558
 30
0.000000
  70
    32
  0
VERTEX
  8
┌▓È_1
  5
426
 10
969.512
 20
-405.566
 30
0.000000
  70
    32
  0
VERTEX
  8
┌▓È_1
  5
427
 10
969.540
 20
-405.574
 30
0.000000
  70
    32
  0
VERTEX
  8
┌▓È_1
  5
428
 10
969.568
 20
-405.581
 30
0.000000
  70
    32
  0
VERTEX
  8
┌▓È_1
  5
429
 10
969.596
 20
-405.589
 30
0.000000
  70
    32
  0
VERTEX
  8
┌▓È_1
  5
42A
 10
969.624
 20
-405.597
 30
0.000000
  70
    32
  0
VERTEX
  8
┌▓È_1
  5
42B
 10
969.653
 20
-405.605
 30
0.000000
  70
    32
  0
VERTEX
  8
┌▓È_1
  5
42C
 10
969.681
 20
-405.612
 30
0.000000
  70
    32
  0
VERTEX
  8
┌▓È_1
  5
42D
 10
969.709
 20
-405.620
 30
0.000000
  70
    32
  0
VERTEX
  8
┌▓È_1
  5
42E
 10
969.737
 20
-405.627
 30
0.000000
  70
    32
  0
VERTEX
  8
┌▓È_1
  5
42F
 10
969.765
 20
-405.635
 30
0.000000
  70
    32
  0
VERTEX
  8
┌▓È_1
  5
430
 10
969.794
 20
-405.642
 30
0.000000
  70
    32
  0
VERTEX
  8
┌▓È_1
  5
431
 10
969.822
 20
-405.650
 30
0.000000
  70
    32
  0
VERTEX
  8
┌▓È_1
  5
432
 10
969.850
 20
-405.657
 30
0.000000
  70
    32
  0
VERTEX
  8
┌▓È_1
  5
433
 10
969.878
 20
-405.665
 30
0.000000
  70
    32
  0
VERTEX
  8
┌▓È_1
  5
434
 10
969.907
 20
-405.672
 30
0.000000
  70
    32
  0
VERTEX
  8
┌▓È_1
  5
435
 10
969.935
 20
-405.679
 30
0.000000
  70
    32
  0
VERTEX
  8
┌▓È_1
  5
436
 10
969.964
 20
-405.687
 30
0.000000
  70
    32
  0
VERTEX
  8
┌▓È_1
  5
437
 10
969.992
 20
-405.694
 30
0.000000
  70
    32
  0
VERTEX
  8
┌▓È_1
  5
438
 10
970.020
 20
-405.701
 30
0.000000
  70
    32
  0
VERTEX
  8
┌▓È_1
  5
439
 10
970.049
 20
-405.708
 30
0.000000
  70
    32
  0
VERTEX
  8
┌▓È_1
  5
43A
 10
970.077
 20
-405.715
 30
0.000000
  70
    32
  0
VERTEX
  8
┌▓È_1
  5
43B
 10
970.106
 20
-405.722
 30
0.000000
  70
    32
  0
VERTEX
  8
┌▓È_1
  5
43C
 10
970.134
 20
-405.729
 30
0.000000
  70
    32
  0
VERTEX
  8
┌▓È_1
  5
43D
 10
970.163
 20
-405.736
 30
0.000000
  70
    32
  0
VERTEX
  8
┌▓È_1
  5
43E
 10
970.192
 20
-405.743
 30
0.000000
  70
    32
  0
VERTEX
  8
┌▓È_1
  5
43F
 10
970.220
 20
-405.750
 30
0.000000
  70
    32
  0
VERTEX
  8
┌▓È_1
  5
440
 10
970.249
 20
-405.757
 30
0.000000
  70
    32
  0
VERTEX
  8
┌▓È_1
  5
441
 10
970.278
 20
-405.764
 30
0.000000
  70
    32
  0
VERTEX
  8
┌▓È_1
  5
442
 10
970.306
 20
-405.770
 30
0.000000
  70
    32
  0
VERTEX
  8
┌▓È_1
  5
443
 10
970.335
 20
-405.777
 30
0.000000
  70
    32
  0
VERTEX
  8
┌▓È_1
  5
444
 10
970.364
 20
-405.784
 30
0.000000
  70
    32
  0
VERTEX
  8
┌▓È_1
  5
445
 10
970.392
 20
-405.791
 30
0.000000
  70
    32
  0
VERTEX
  8
┌▓È_1
  5
446
 10
970.421
 20
-405.797
 30
0.000000
  70
    32
  0
VERTEX
  8
┌▓È_1
  5
447
 10
970.450
 20
-405.804
 30
0.000000
  70
    32
  0
VERTEX
  8
┌▓È_1
  5
448
 10
970.479
 20
-405.810
 30
0.000000
  70
    32
  0
VERTEX
  8
┌▓È_1
  5
449
 10
970.508
 20
-405.817
 30
0.000000
  70
    32
  0
VERTEX
  8
┌▓È_1
  5
44A
 10
970.536
 20
-405.823
 30
0.000000
  70
    32
  0
VERTEX
  8
┌▓È_1
  5
44B
 10
970.565
 20
-405.830
 30
0.000000
  70
    32
  0
VERTEX
  8
┌▓È_1
  5
44C
 10
970.594
 20
-405.836
 30
0.000000
  70
    32
  0
VERTEX
  8
┌▓È_1
  5
44D
 10
970.623
 20
-405.843
 30
0.000000
  70
    32
  0
VERTEX
  8
┌▓È_1
  5
44E
 10
970.652
 20
-405.849
 30
0.000000
  70
    32
  0
VERTEX
  8
┌▓È_1
  5
44F
 10
970.681
 20
-405.856
 30
0.000000
  70
    32
  0
VERTEX
  8
┌▓È_1
  5
450
 10
970.710
 20
-405.862
 30
0.000000
  70
    32
  0
VERTEX
  8
┌▓È_1
  5
451
 10
970.739
 20
-405.868
 30
0.000000
  70
    32
  0
VERTEX
  8
┌▓È_1
  5
452
 10
970.768
 20
-405.874
 30
0.000000
  70
    32
  0
VERTEX
  8
┌▓È_1
  5
453
 10
970.797
 20
-405.881
 30
0.000000
  70
    32
  0
VERTEX
  8
┌▓È_1
  5
454
 10
970.826
 20
-405.887
 30
0.000000
  70
    32
  0
VERTEX
  8
┌▓È_1
  5
455
 10
970.855
 20
-405.893
 30
0.000000
  70
    32
  0
VERTEX
  8
┌▓È_1
  5
456
 10
970.884
 20
-405.899
 30
0.000000
  70
    32
  0
VERTEX
  8
┌▓È_1
  5
457
 10
970.913
 20
-405.905
 30
0.000000
  70
    32
  0
VERTEX
  8
┌▓È_1
  5
458
 10
970.942
 20
-405.911
 30
0.000000
  70
    32
  0
VERTEX
  8
┌▓È_1
  5
459
 10
970.972
 20
-405.917
 30
0.000000
  70
    32
  0
VERTEX
  8
┌▓È_1
  5
45A
 10
971.001
 20
-405.923
 30
0.000000
  70
    32
  0
VERTEX
  8
┌▓È_1
  5
45B
 10
971.030
 20
-405.929
 30
0.000000
  70
    32
  0
VERTEX
  8
┌▓È_1
  5
45C
 10
971.059
 20
-405.935
 30
0.000000
  70
    32
  0
VERTEX
  8
┌▓È_1
  5
45D
 10
971.088
 20
-405.941
 30
0.000000
  70
    32
  0
VERTEX
  8
┌▓È_1
  5
45E
 10
971.117
 20
-405.947
 30
0.000000
  70
    32
  0
VERTEX
  8
┌▓È_1
  5
45F
 10
971.147
 20
-405.953
 30
0.000000
  70
    32
  0
VERTEX
  8
┌▓È_1
  5
460
 10
971.176
 20
-405.959
 30
0.000000
  70
    32
  0
VERTEX
  8
┌▓È_1
  5
461
 10
971.205
 20
-405.965
 30
0.000000
  70
    32
  0
VERTEX
  8
┌▓È_1
  5
462
 10
971.235
 20
-405.971
 30
0.000000
  70
    32
  0
VERTEX
  8
┌▓È_1
  5
463
 10
971.264
 20
-405.977
 30
0.000000
  70
    32
  0
VERTEX
  8
┌▓È_1
  5
464
 10
971.293
 20
-405.982
 30
0.000000
  70
    32
  0
VERTEX
  8
┌▓È_1
  5
465
 10
971.322
 20
-405.988
 30
0.000000
  70
    32
  0
VERTEX
  8
┌▓È_1
  5
466
 10
971.352
 20
-405.994
 30
0.000000
  70
    32
  0
VERTEX
  8
┌▓È_1
  5
467
 10
971.381
 20
-406.000
 30
0.000000
  70
    32
  0
VERTEX
  8
┌▓È_1
  5
468
 10
971.410
 20
-406.005
 30
0.000000
  70
    32
  0
VERTEX
  8
┌▓È_1
  5
469
 10
971.440
 20
-406.011
 30
0.000000
  70
    32
  0
VERTEX
  8
┌▓È_1
  5
46A
 10
971.469
 20
-406.017
 30
0.000000
  70
    32
  0
VERTEX
  8
┌▓È_1
  5
46B
 10
971.499
 20
-406.022
 30
0.000000
  70
    32
  0
VERTEX
  8
┌▓È_1
  5
46C
 10
971.528
 20
-406.028
 30
0.000000
  70
    32
  0
VERTEX
  8
┌▓È_1
  5
46D
 10
971.557
 20
-406.033
 30
0.000000
  70
    32
  0
VERTEX
  8
┌▓È_1
  5
46E
 10
971.587
 20
-406.039
 30
0.000000
  70
    32
  0
VERTEX
  8
┌▓È_1
  5
46F
 10
971.616
 20
-406.045
 30
0.000000
  70
    32
  0
VERTEX
  8
┌▓È_1
  5
470
 10
971.646
 20
-406.050
 30
0.000000
  70
    32
  0
VERTEX
  8
┌▓È_1
  5
471
 10
971.675
 20
-406.056
 30
0.000000
  70
    32
  0
VERTEX
  8
┌▓È_1
  5
472
 10
971.705
 20
-406.061
 30
0.000000
  70
    32
  0
VERTEX
  8
┌▓È_1
  5
473
 10
971.734
 20
-406.067
 30
0.000000
  70
    32
  0
VERTEX
  8
┌▓È_1
  5
474
 10
971.764
 20
-406.072
 30
0.000000
  70
    32
  0
VERTEX
  8
┌▓È_1
  5
475
 10
971.793
 20
-406.077
 30
0.000000
  70
    32
  0
VERTEX
  8
┌▓È_1
  5
476
 10
971.823
 20
-406.083
 30
0.000000
  70
    32
  0
VERTEX
  8
┌▓È_1
  5
477
 10
971.852
 20
-406.088
 30
0.000000
  70
    32
  0
VERTEX
  8
┌▓È_1
  5
478
 10
971.882
 20
-406.094
 30
0.000000
  70
    32
  0
VERTEX
  8
┌▓È_1
  5
479
 10
971.912
 20
-406.099
 30
0.000000
  70
    32
  0
VERTEX
  8
┌▓È_1
  5
47A
 10
971.941
 20
-406.104
 30
0.000000
  70
    32
  0
VERTEX
  8
┌▓È_1
  5
47B
 10
971.971
 20
-406.110
 30
0.000000
  70
    32
  0
VERTEX
  8
┌▓È_1
  5
47C
 10
972.000
 20
-406.115
 30
0.000000
  70
    32
  0
VERTEX
  8
┌▓È_1
  5
47D
 10
972.030
 20
-406.120
 30
0.000000
  70
    32
  0
VERTEX
  8
┌▓È_1
  5
47E
 10
972.059
 20
-406.126
 30
0.000000
  70
    32
  0
VERTEX
  8
┌▓È_1
  5
47F
 10
972.089
 20
-406.131
 30
0.000000
  70
    32
  0
VERTEX
  8
┌▓È_1
  5
480
 10
972.119
 20
-406.136
 30
0.000000
  70
    32
  0
VERTEX
  8
┌▓È_1
  5
481
 10
972.148
 20
-406.141
 30
0.000000
  70
    32
  0
VERTEX
  8
┌▓È_1
  5
482
 10
972.178
 20
-406.147
 30
0.000000
  70
    32
  0
VERTEX
  8
┌▓È_1
  5
483
 10
972.208
 20
-406.152
 30
0.000000
  70
    32
  0
VERTEX
  8
┌▓È_1
  5
484
 10
972.237
 20
-406.157
 30
0.000000
  70
    32
  0
VERTEX
  8
┌▓È_1
  5
485
 10
972.267
 20
-406.162
 30
0.000000
  70
    32
  0
VERTEX
  8
┌▓È_1
  5
486
 10
972.297
 20
-406.168
 30
0.000000
  70
    32
  0
VERTEX
  8
┌▓È_1
  5
487
 10
972.326
 20
-406.173
 30
0.000000
  70
    32
  0
VERTEX
  8
┌▓È_1
  5
488
 10
972.356
 20
-406.178
 30
0.000000
  70
    32
  0
VERTEX
  8
┌▓È_1
  5
489
 10
972.386
 20
-406.183
 30
0.000000
  70
    32
  0
VERTEX
  8
┌▓È_1
  5
48A
 10
972.415
 20
-406.188
 30
0.000000
  70
    32
  0
VERTEX
  8
┌▓È_1
  5
48B
 10
972.445
 20
-406.193
 30
0.000000
  70
    32
  0
VERTEX
  8
┌▓È_1
  5
48C
 10
972.475
 20
-406.199
 30
0.000000
  70
    32
  0
VERTEX
  8
┌▓È_1
  5
48D
 10
972.505
 20
-406.204
 30
0.000000
  70
    32
  0
VERTEX
  8
┌▓È_1
  5
48E
 10
972.534
 20
-406.209
 30
0.000000
  70
    32
  0
VERTEX
  8
┌▓È_1
  5
48F
 10
972.564
 20
-406.214
 30
0.000000
  70
    32
  0
VERTEX
  8
┌▓È_1
  5
490
 10
972.594
 20
-406.219
 30
0.000000
  70
    32
  0
VERTEX
  8
┌▓È_1
  5
491
 10
972.623
 20
-406.224
 30
0.000000
  70
    32
  0
VERTEX
  8
┌▓È_1
  5
492
 10
972.653
 20
-406.229
 30
0.000000
  70
    32
  0
VERTEX
  8
┌▓È_1
  5
493
 10
972.683
 20
-406.234
 30
0.000000
  70
    32
  0
VERTEX
  8
┌▓È_1
  5
494
 10
972.713
 20
-406.239
 30
0.000000
  70
    32
  0
VERTEX
  8
┌▓È_1
  5
495
 10
972.742
 20
-406.244
 30
0.000000
  70
    32
  0
VERTEX
  8
┌▓È_1
  5
496
 10
972.772
 20
-406.250
 30
0.000000
  70
    32
  0
VERTEX
  8
┌▓È_1
  5
497
 10
972.802
 20
-406.255
 30
0.000000
  70
    32
  0
VERTEX
  8
┌▓È_1
  5
498
 10
972.832
 20
-406.260
 30
0.000000
  70
    32
  0
VERTEX
  8
┌▓È_1
  5
499
 10
972.861
 20
-406.265
 30
0.000000
  70
    32
  0
VERTEX
  8
┌▓È_1
  5
49A
 10
972.891
 20
-406.270
 30
0.000000
  70
    32
  0
VERTEX
  8
┌▓È_1
  5
49B
 10
972.921
 20
-406.275
 30
0.000000
  70
    32
  0
VERTEX
  8
┌▓È_1
  5
49C
 10
972.951
 20
-406.280
 30
0.000000
  70
    32
  0
VERTEX
  8
┌▓È_1
  5
49D
 10
972.980
 20
-406.285
 30
0.000000
  70
    32
  0
VERTEX
  8
┌▓È_1
  5
49E
 10
973.010
 20
-406.290
 30
0.000000
  70
    32
  0
VERTEX
  8
┌▓È_1
  5
49F
 10
973.040
 20
-406.295
 30
0.000000
  70
    32
  0
VERTEX
  8
┌▓È_1
  5
4A0
 10
973.070
 20
-406.300
 30
0.000000
  70
    32
  0
VERTEX
  8
┌▓È_1
  5
4A1
 10
973.100
 20
-406.305
 30
0.000000
  70
    32
  0
VERTEX
  8
┌▓È_1
  5
4A2
 10
973.129
 20
-406.310
 30
0.000000
  70
    32
  0
VERTEX
  8
┌▓È_1
  5
4A3
 10
973.159
 20
-406.315
 30
0.000000
  70
    32
  0
VERTEX
  8
┌▓È_1
  5
4A4
 10
973.189
 20
-406.320
 30
0.000000
  70
    32
  0
SEQEND
  8
┌▓È_1
  5
4A5
  0
INSERT
  5
1C3
  8
0
  6
CONTINUOUS
  2
*U39
 10
0.0
 20
0.0
 30
0.0
  0
LINE
  5
1C4
  8
┌▓È_1
 10
872.53752001039982
 20
-377.77635694740002
 30
0.0
 11
968.53752001039993
 21
-377.77635694740002
 31
0.0
  0
LINE
  5
1C5
  8
┌▓È_1
 10
968.53752001039993
 20
-369.27635694740002
 30
0.0
 11
1000.5375200104
 21
-369.27635694740002
 31
0.0
  0
LINE
  5
1C6
  8
┌▓È_1
 62
     5
 10
973.18889243929993
 20
-406.32008020040001
 30
0.0
 11
973.18889243929993
 21
-408.72008020039999
 31
0.0
  0
LINE
  5
1C7
  8
┌▓È_1
 62
     5
 10
983.45686467659993
 20
-409.5200802004
 30
0.0
 11
987.93686467659995
 21
-409.5200802004
 31
0.0
  0
LINE
  5
1C8
  8
┌▓È_1
 62
     5
 10
954.53192274239996
 20
-400.72008020039999
 30
0.0
 11
954.53192274239996
 21
-403.12008020040003
 31
0.0
  0
LINE
  5
1C9
  8
┌▓È_1
  6
STITCH
 10
658.90993277079986
 20
-198.60526319740001
 30
0.0
 11
656.40993277079986
 21
-196.10526319740001
 31
0.0
  0
LINE
  5
1CA
  8
┌▓È_1
  6
STITCH
 10
656.40993277079986
 20
-191.10526319740001
 30
0.0
 11
658.90993277079986
 21
-188.60526319740001
 31
0.0
  0
LINE
  5
1CB
  8
┌▓È_1
  6
STITCH
 10
656.40993277079986
 20
-191.10526319740001
 30
0.0
 11
653.90993277079986
 21
-191.10526319740001
 31
0.0
  0
LINE
  5
1CC
  8
┌▓È_1
  6
STITCH
 10
656.40993277079986
 20
-191.10526319740001
 30
0.0
 11
656.40993277079986
 21
-196.10526319740001
 31
0.0
  0
LINE
  5
1CD
  8
┌▓È_1
  6
STITCH
 10
656.40993277079986
 20
-196.10526319740001
 30
0.0
 11
653.90993277079986
 21
-196.10526319740001
 31
0.0
  0
LINE
  5
1CE
  8
┌▓È_1
  6
BORDER
 62
     3
 10
663.40993277079997
 20
-193.60526319740001
 30
0.0
 11
649.40993277079986
 21
-193.60526319740001
 31
0.0
  0
LINE
  5
1CF
  8
┌▓È_1
  6
BORDER
 62
     3
 10
663.40993277079997
 20
-108.60526319740001
 30
0.0
 11
649.40993277079986
 21
-108.60526319740001
 31
0.0
  0
LINE
  5
1D0
  8
┌▓È_1
  6
STITCH
 10
658.90993277079986
 20
-113.60526319740001
 30
0.0
 11
656.40993277079986
 21
-111.10526319740001
 31
0.0
  0
CIRCLE
  5
1D1
  8
┌▓È_1
  6
STITCH
 10
763.40723745829996
 20
-298.90213819740001
 30
0.0
 40
5.0
  0
CIRCLE
  5
1D2
  8
┌▓È_1
  6
STITCH
 10
678.40723745830007
 20
-298.90213819740001
 30
0.0
 40
5.0
  0
LINE
  5
1D3
  8
┌▓È_1
  6
STITCH
 10
656.40993277079986
 20
-106.10526319740001
 30
0.0
 11
658.90993277079986
 21
-103.60526319740001
 31
0.0
  0
LINE
  5
1D4
  8
┌▓È_1
  6
STITCH
 10
656.40993277079986
 20
-106.10526319740001
 30
0.0
 11
653.90993277079986
 21
-106.10526319740001
 31
0.0
  0
LINE
  5
1D5
  8
┌▓È_1
  6
STITCH
 10
656.40993277079986
 20
-106.10526319740001
 30
0.0
 11
656.40993277079986
 21
-111.10526319740001
 31
0.0
  0
LINE
  5
1D6
  8
┌▓È_1
  6
STITCH
 10
656.40993277079986
 20
-111.10526319740001
 30
0.0
 11
653.90993277079986
 21
-111.10526319740001
 31
0.0
  0
LINE
  5
1D7
  8
┌▓È_1
  6
STITCH
 10
673.40993277079986
 20
-213.10526319740001
 30
0.0
 11
675.90993277079997
 21
-215.60526319740001
 31
0.0
  0
LINE
  5
1D8
  8
┌▓È_1
  6
STITCH
 10
680.90993277079997
 20
-215.60526319740001
 30
0.0
 11
683.40993277079986
 21
-213.10526319740001
 31
0.0
  0
LINE
  5
1D9
  8
┌▓È_1
  6
STITCH
 10
680.90993277079997
 20
-215.60526319740001
 30
0.0
 11
680.90993277079997
 21
-218.10526319740001
 31
0.0
  0
LINE
  5
1DA
  8
┌▓È_1
  6
STITCH
 10
680.90993277079997
 20
-215.60526319740001
 30
0.0
 11
675.90993277079997
 21
-215.60526319740001
 31
0.0
  0
LINE
  5
1DB
  8
┌▓È_1
  6
STITCH
 10
675.90993277079997
 20
-215.60526319740001
 30
0.0
 11
675.90993277079997
 21
-218.10526319740001
 31
0.0
  0
LINE
  5
1DC
  8
┌▓È_1
  6
BORDER
 62
     3
 10
678.40993277079986
 20
-208.60526319740001
 30
0.0
 11
678.40993277079986
 21
-222.60526319740001
 31
0.0
  0
LINE
  5
1DD
  8
┌▓È_1
  6
STITCH
 10
758.40993277079986
 20
-213.10526319740001
 30
0.0
 11
760.90993277079986
 21
-215.60526319740001
 31
0.0
  0
LINE
  5
1DE
  8
┌▓È_1
  6
BORDER
 62
     3
 10
763.40993277079997
 20
-208.60526319740001
 30
0.0
 11
763.40993277079997
 21
-222.60526319740001
 31
0.0
  0
LINE
  5
1DF
  8
┌▓È_1
 62
     5
 10
658.90993277079986
 20
-213.10526319740001
 30
0.0
 11
774.40993277079986
 21
-213.10526319740001
 31
0.0
  0
LINE
  5
1E0
  8
┌▓È_1
  6
STITCH
 10
765.90993277079986
 20
-215.60526319740001
 30
0.0
 11
768.40993277079997
 21
-213.10526319740001
 31
0.0
  0
LINE
  5
1E1
  8
┌▓È_1
  6
STITCH
 10
765.90993277079986
 20
-215.60526319740001
 30
0.0
 11
765.90993277079986
 21
-218.10526319740001
 31
0.0
  0
CIRCLE
  5
1E2
  8
┌▓È_1
 62
     5
 10
859.21515672910004
 20
-193.60526319740001
 30
0.0
 40
2.5
  0
LINE
  5
1E3
  8
┌▓È_1
  6
BORDER
 62
     3
 10
859.21515672910004
 20
-186.60526319740001
 30
0.0
 11
859.21515672910004
 21
-200.60526319740001
 31
0.0
  0
LINE
  5
1E4
  8
┌▓È_1
  6
BORDER
 62
     3
 10
852.21515672910004
 20
-193.60526319740001
 30
0.0
 11
866.21515672910004
 21
-193.60526319740001
 31
0.0
  0
LINE
  5
1E5
  8
┌▓È_1
 62
     5
 10
973.8553042986
 20
-211.11463819740001
 30
0.0
 11
1046.8539154097
 21
-211.11463819740001
 31
0.0
  0
LINE
  5
1E6
  8
┌▓È_1
 62
     5
 10
973.8553042986
 20
-188.61463819740001
 30
0.0
 11
1046.8539154097
 21
-188.61463819740001
 31
0.0
  0
LINE
  5
1E7
  8
┌▓È_1
 62
     5
 10
988.53543392820006
 20
-188.61463819740001
 30
0.0
 11
997.28543392820006
 21
-197.36463819740001
 31
0.0
  0
LINE
  5
1E8
  8
┌▓È_1
 62
     5
 10
997.28543392820006
 20
-197.36463819740001
 30
0.0
 11
1022.2854339282
 21
-197.36463819740001
 31
0.0
  0
LINE
  5
1E9
  8
┌▓È_1
  6
BORDER
 62
     3
 10
1009.7854339282
 20
-182.0979168433
 30
0.0
 11
1009.7854339282
 21
-215.5979168433
 31
0.0
  0
LINE
  5
1EA
  8
┌▓È_1
 62
     5
 10
1022.2854339282
 20
-197.36463819740001
 30
0.0
 11
1031.0354339282001
 21
-188.61463819740001
 31
0.0
  0
LINE
  5
1EB
  8
┌▓È_1
 62
     5
 10
997.28543392820006
 20
-197.36463819740001
 30
0.0
 11
997.28543392820006
 21
-211.11463819740001
 31
0.0
  0
LINE
  5
1EC
  8
┌▓È_1
 62
     5
 10
1022.2854339282
 20
-197.36463819740001
 30
0.0
 11
1022.2854339282
 21
-211.11463819740001
 31
0.0
  0
LINE
  5
1ED
  8
┌▓È_1
 62
     5
 10
851.21515672910004
 20
-217.60526319740001
 30
0.0
 11
867.21515672910004
 21
-217.60526319740001
 31
0.0
  0
LINE
  5
1EE
  8
┌▓È_1
 62
     5
 10
851.21515672910004
 20
-212.60526319740001
 30
0.0
 11
867.21515672910004
 21
-212.60526319740001
 31
0.0
  0
LINE
  5
1EF
  8
┌▓È_1
 62
     5
 10
867.21515672910004
 20
-97.605263197400006
 30
0.0
 11
851.21515672910004
 21
-97.605263197400006
 31
0.0
  0
LINE
  5
1F0
  8
┌▓È_1
 62
     5
 10
867.21515672910004
 20
-217.60526319740001
 30
0.0
 11
867.21515672910004
 21
-97.605263197400006
 31
0.0
  0
CIRCLE
  5
1F1
  8
┌▓È_1
 62
     5
 10
859.21515672910004
 20
-108.60526319740001
 30
0.0
 40
5.0
  0
CIRCLE
  5
1F2
  8
┌▓È_1
 62
     5
 10
859.21515672910004
 20
-108.60526319740001
 30
0.0
 40
2.5
  0
LINE
  5
1F3
  8
┌▓È_1
  6
BORDER
 62
     3
 10
859.21515672910004
 20
-101.60526319740001
 30
0.0
 11
859.21515672910004
 21
-115.60526319740001
 31
0.0
  0
LINE
  5
1F4
  8
┌▓È_1
  6
BORDER
 62
     3
 10
852.21515672910004
 20
-108.60526319740001
 30
0.0
 11
866.21515672910004
 21
-108.60526319740001
 31
0.0
  0
LINE
  5
1F5
  8
┌▓È_1
 62
     5
 10
851.21515672910004
 20
-97.605263197400006
 30
0.0
 11
851.21515672910004
 21
-217.60526319740001
 31
0.0
  0
CIRCLE
  5
1F6
  8
┌▓È_1
 62
     5
 10
859.21515672910004
 20
-193.60526319740001
 30
0.0
 40
5.0
  0
LINE
  5
1F7
  8
┌▓È_1
 62
     5
 10
658.90993277079986
 20
-97.605263197400006
 30
0.0
 11
654.40993277079986
 21
-97.605263197400006
 31
0.0
  0
LINE
  5
1F8
  8
┌▓È_1
 62
     5
 10
774.40993277079986
 20
-217.60526319740001
 30
0.0
 11
774.40993277079986
 21
-213.10526319740001
 31
0.0
  0
LINE
  5
1F9
  8
┌▓È_1
 62
     5
 10
658.90993277079986
 20
-217.60526319740001
 30
0.0
 11
774.40993277079986
 21
-217.60526319740001
 31
0.0
  0
ARC
  5
1FA
  8
┌▓È_1
 62
     5
 10
658.90993277079986
 20
-213.10526319740001
 30
0.0
 40
4.5
 50
180.0
 51
270.0
  0
ENDSEC
  0
EOF
