  0
SECTION
  2
HEADER
  9
$ACADVER
  1
AC1009
  9
$INSBASE
 10
0.0
 20
0.0
 30
0.0
  9
$EXTMIN
 10
700.45457020949993
 20
-315.70636614540001
 30
0.0
  9
$EXTMAX
 10
975.45457020949993
 20
-125.7063661454
 30
0.0
  9
$LIMMIN
 10
0.0
 20
0.0
  9
$LIMMAX
 10
0.0
 20
0.0
  9
$ORTHOMODE
 70
     0
  9
$REGENMODE
 70
     1
  9
$FILLMODE
 70
     1
  9
$QTEXTMODE
 70
     0
  9
$MIRRTEXT
 70
     1
  9
$DRAGMODE
 70
     2
  9
$LTSCALE
 40
1.0
  9
$OSMODE
 70
    31
  9
$ATTMODE
 70
     1
  9
$TEXTSIZE
 40
0.0
  9
$TRACEWID
 40
0.05
  9
$TEXTSTYLE
  7
STANDARD
  9
$CLAYER
  8
0
  9
$CELTYPE
  6
CONTINUOUS
  9
$CECOLOR
 62
   256
  9
$DIMSCALE
 40
1.0
  9
$DIMASZ
 40
0.18
  9
$DIMEXO
 40
0.0625
  9
$DIMDLI
 40
0.38
  9
$DIMRND
 40
0.0
  9
$DIMDLE
 40
0.0
  9
$DIMEXE
 40
0.18
  9
$DIMTP
 40
0.0
  9
$DIMTM
 40
0.0
  9
$DIMTXT
 40
0.18
  9
$DIMCEN
 40
0.09
  9
$DIMTSZ
 40
0.0
  9
$DIMTOL
 70
     0
  9
$DIMLIM
 70
     0
  9
$DIMTIH
 70
     1
  9
$DIMTOH
 70
     1
  9
$DIMSE1
 70
     0
  9
$DIMSE2
 70
     0
  9
$DIMTAD
 70
     0
  9
$DIMZIN
 70
     0
  9
$DIMBLK
  1

  9
$DIMASO
 70
     1
  9
$DIMSHO
 70
     1
  9
$DIMPOST
  1

  9
$DIMAPOST
  1

  9
$DIMALT
 70
     0
  9
$DIMALTD
 70
     2
  9
$DIMALTF
 40
25.399999999999999
  9
$DIMLFAC
 40
1.0
  9
$DIMTOFL
 70
     0
  9
$DIMTVP
 40
0.0
  9
$DIMTIX
 70
     0
  9
$DIMSOXD
 70
     0
  9
$DIMSAH
 70
     0
  9
$DIMBLK1
  1

  9
$DIMBLK2
  1

  9
$DIMSTYLE
  2
STANDARD
  9
$DIMCLRD
 70
     0
  9
$DIMCLRE
 70
     0
  9
$DIMCLRT
 70
     0
  9
$DIMTFAC
 40
1.0
  9
$DIMGAP
 40
0.09
  9
$LUNITS
 70
     2
  9
$LUPREC
 70
     4
  9
$SKETCHINC
 40
0.1
  9
$FILLETRAD
 40
0.0
  9
$AUNITS
 70
     0
  9
$AUPREC
 70
     0
  9
$MENU
  1
acad
  9
$ELEVATION
 40
0.0
  9
$PELEVATION
 40
0.0
  9
$THICKNESS
 40
0.0
  9
$LIMCHECK
 70
     0
  9
$BLIPMODE
 70
     0
  9
$CHAMFERA
 40
0.0
  9
$CHAMFERB
 40
0.0
  9
$SKPOLY
 70
     0
  9
$TDCREATE
 40
2454862.7582886568
  9
$TDUPDATE
 40
2454862.7584228469
  9
$TDINDWG
 40
0.0001417824
  9
$TDUSRTIMER
 40
0.0001414236
  9
$USRTIMER
 70
     1
  9
$ANGBASE
 50
0.0
  9
$ANGDIR
 70
     0
  9
$PDMODE
 70
     3
  9
$PDSIZE
 40
-1.0
  9
$PLINEWID
 40
0.0
  9
$COORDS
 70
     2
  9
$SPLFRAME
 70
     0
  9
$SPLINETYPE
 70
     6
  9
$SPLINESEGS
 70
     8
  9
$ATTDIA
 70
     0
  9
$ATTREQ
 70
     1
  9
$HANDLING
 70
     1
  9
$HANDSEED
  5
4A5
  9
$SURFTAB1
 70
     6
  9
$SURFTAB2
 70
     6
  9
$SURFTYPE
 70
     6
  9
$SURFU
 70
     6
  9
$SURFV
 70
     6
  9
$UCSNAME
  2

  9
$UCSORG
 10
0.0
 20
0.0
 30
0.0
  9
$UCSXDIR
 10
1.0
 20
0.0
 30
0.0
  9
$UCSYDIR
 10
0.0
 20
1.0
 30
0.0
  9
$PUCSNAME
  2

  9
$PUCSORG
 10
0.0
 20
0.0
 30
0.0
  9
$PUCSXDIR
 10
1.0
 20
0.0
 30
0.0
  9
$PUCSYDIR
 10
0.0
 20
1.0
 30
0.0
  9
$USERI1
 70
     0
  9
$USERI2
 70
     0
  9
$USERI3
 70
     0
  9
$USERI4
 70
     0
  9
$USERI5
 70
     0
  9
$USERR1
 40
0.0
  9
$USERR2
 40
0.0
  9
$USERR3
 40
0.0
  9
$USERR4
 40
0.0
  9
$USERR5
 40
0.0
  9
$WORLDVIEW
 70
     1
  9
$SHADEDGE
 70
     3
  9
$SHADEDIF
 70
    70
  9
$TILEMODE
 70
     1
  9
$MAXACTVP
 70
    16
  9
$PLIMCHECK
 70
     0
  9
$PEXTMIN
 10
1.0000000000000000E+020
 20
1.0000000000000000E+020
 30
1.0000000000000000E+020
  9
$PEXTMAX
 10
-1.0000000000000000E+020
 20
-1.0000000000000000E+020
 30
-1.0000000000000000E+020
  9
$PLIMMIN
 10
0.0
 20
0.0
  9
$PLIMMAX
 10
12.0
 20
9.0
  9
$UNITMODE
 70
     0
  9
$VISRETAIN
 70
     0
  9
$PLINEGEN
 70
     1
  9
$PSLTSCALE
 70
     0
  0
ENDSEC
  0
SECTION
  2
TABLES
  0
TABLE
  2
VPORT
 70
     2
  0
VPORT
  2
*ACTIVE
 70
     0
 10
0.0
 20
0.0
 11
1.0
 21
1.0
 12
837.95457020949993
 22
-220.70636614540001
 13
0.0
 23
0.0
 14
1.0
 24
1.0
 15
0.0
 25
0.0
 16
0.0
 26
0.0
 36
1.0
 17
0.0
 27
0.0
 37
0.0
 40
198.9929279237459
 41
1.3903818953323901
 42
50.0
 43
0.0
 44
0.0
 50
0.0
 51
0.0
 71
     0
 72
   100
 73
     1
 74
     1
 75
     0
 76
     0
 77
     0
 78
     0
  0
ENDTAB
  0
TABLE
  2
LTYPE
 70
    11
  0
LTYPE
  2
CONTINUOUS
 70
     0
  3
Solid line
 72
    65
 73
     0
 40
0.0
  0
LTYPE
  2
DOT
 70
     0
  3
. . . . . . . . 
 72
    65
 73
     2
 40
1.0
 49
0.0
 49
-1.0
  0
LTYPE
  2
DASHED
 70
     0
  3
___  ___  ___  ___  
 72
    65
 73
     2
 40
4.0
 49
3.0
 49
-1.0
  0
LTYPE
  2
HIDDEN
 70
     0
  3
__ __ __ __ 
 72
    65
 73
     2
 40
3.0
 49
2.0
 49
-1.0
  0
LTYPE
  2
STITCH
 70
     0
  3
_ _ _ _ 
 72
    65
 73
     2
 40
2.0
 49
1.0
 49
-1.0
  0
LTYPE
  2
CENTER
 70
     0
  3
______  __  ______  __  
 72
    65
 73
     4
 40
43.0
 49
40.0
 49
-1.0
 49
1.0
 49
-1.0
  0
LTYPE
  2
DASHDOT
 70
     0
  3
____ . ____ . 
 72
    65
 73
     4
 40
32.0
 49
30.0
 49
-1.0
 49
0.0
 49
-1.0
  0
LTYPE
  2
BORDER
 70
     0
  3
__ . __ . 
 72
    65
 73
     4
 40
22.0
 49
20.0
 49
-1.0
 49
0.0
 49
-1.0
  0
LTYPE
  2
CUTTING
 70
     0
  3
________   ___   ___   
 72
    65
 73
     6
 40
45.0
 49
40.0
 49
-1.0
 49
1.0
 49
-1.0
 49
1.0
 49
-1.0
  0
LTYPE
  2
PHANTOM
 70
     0
  3
______  __  __  
 72
    65
 73
     6
 40
35.0
 49
30.0
 49
-1.0
 49
1.0
 49
-1.0
 49
1.0
 49
-1.0
  0
LTYPE
  2
DIVIDE
 70
     0
  3
____ . . ____ . . 
 72
    65
 73
     6
 40
23.0
 49
20.0
 49
-1.0
 49
0.0
 49
-1.0
 49
0.0
 49
-1.0
  0
ENDTAB
  0
TABLE
  2
LAYER
 70
     4
  0
LAYER
  2
0
 70
     0
 62
     7
  6
CONTINUOUS
  0
LAYER
  2
Éíû@É³
 70
     0
 62
     7
  6
CONTINUOUS
  0
LAYER
  2
┌▓È_1
 70
     0
 62
     7
  6
CONTINUOUS
  0
LAYER
  2
Defpoints
 70
     0
 62
     7
  6
CONTINUOUS
  0
ENDTAB
  0
TABLE
  2
STYLE
 70
     1
  0
STYLE
  2
STANDARD
 70
     0
 40
0.0
 41
1.0
 50
0.0
 71
     0
 42
0.0
  3
txt
  4
extfont
  0
ENDTAB
  0
TABLE
  2
VIEW
 70
     0
  0
ENDTAB
  0
TABLE
  2
UCS
 70
     0
  0
ENDTAB
  0
TABLE
  2
APPID
 70
     2
  0
APPID
  2
ACAD
 70
     0
  0
APPID
  2
DCO15
 70
     0
  0
ENDTAB
  0
TABLE
  2
DIMSTYLE
 70
     3
  0
DIMSTYLE
  2
STANDARD
 70
     0
  3

  4

  5

  6

  7

 40
1.0
 41
0.18
 42
0.0625
 43
0.38
 44
0.18
 45
0.0
 46
0.0
 47
0.0
 48
0.0
140
0.18
141
0.09
142
0.0
143
25.399999999999999
144
1.0
145
0.0
146
1.0
147
0.09
 71
     0
 72
     0
 73
     1
 74
     1
 75
     0
 76
     0
 77
     0
 78
     0
170
     0
171
     2
172
     0
173
     0
174
     0
175
     0
176
     0
177
     0
178
     0
  0
DIMSTYLE
  2
VELDIM0
 70
     0
  3

  4

  5

  6

  7

 40
1.0
 41
3.0
 42
0.0625
 43
0.38
 44
0.5
 45
0.0
 46
3.0
 47
0.0
 48
0.0
140
2.9986110209999999
141
0.09
142
0.0
143
25.399999999999999
144
1.0
145
0.0
146
1.0
147
0.09
 71
     0
 72
     0
 73
     0
 74
     0
 75
     0
 76
     0
 77
     0
 78
     8
170
     0
171
     2
172
     0
173
     0
174
     0
175
     0
176
     0
177
     0
178
     0
  0
DIMSTYLE
  2
VELDIM1
 70
     0
  3

  4

  5

  6

  7

 40
1.0
 41
3.0
 42
0.0625
 43
0.38
 44
1.25
 45
0.0
 46
5.0
 47
0.0
 48
0.0
140
2.9986110209999999
141
0.09
142
0.0
143
25.399999999999999
144
1.0
145
0.0
146
1.0
147
0.09
 71
     0
 72
     0
 73
     0
 74
     0
 75
     0
 76
     0
 77
     0
 78
     8
170
     0
171
     2
172
     0
173
     0
174
     0
175
     0
176
     0
177
     0
178
     0
  0
ENDTAB
  0
ENDSEC
  0
SECTION
  2
BLOCKS
  0
BLOCK
  8
0
  2
$MODEL_SPACE
 70
     0
 10
0.0
 20
0.0
 30
0.0
  3
$MODEL_SPACE
  1

  0
ENDBLK
  5
E
  8
0
  0
BLOCK
 67
     1
  8
0
  2
$PAPER_SPACE
 70
     0
 10
0.0
 20
0.0
 30
0.0
  3
$PAPER_SPACE
  1

  0
ENDBLK
  5
10
 67
     1
  8
0
  0
BLOCK
  8
0
  2
*D0
 70
     1
 10
0.0
 20
0.0
 30
0.0
  3
*D0
  1

  0
TEXT
  5
31
  8
0
 62
     0
 10
768.54843662809992
 20
-240.91109621979999
 30
0.0
 40
2.9986110209999999
  1
28
  0
LINE
  5
32
  8
0
 62
     0
 10
784.31232546399997
 20
-253.44026287060001
 30
0.0
 11
784.31232546399997
 21
-241.94026287060001
 31
0.0
  0
LINE
  5
33
  8
0
 62
     0
 10
756.31232546399985
 20
-253.44026287060001
 30
0.0
 11
756.31232546399985
 21
-241.94026287060001
 31
0.0
  0
LINE
  5
34
  8
0
 62
     0
 10
784.31232546399997
 20
-242.44026287060001
 30
0.0
 11
773.84010313580006
 21
-242.44026287060001
 31
0.0
  0
LINE
  5
35
  8
0
 62
     0
 10
784.31232546399997
 20
-242.44026287060001
 30
0.0
 11
766.78454779219999
 21
-242.44026287060001
 31
0.0
  0
LINE
  5
36
  8
0
 62
     0
 10
756.31232546399985
 20
-242.44026287060001
 30
0.0
 11
773.84010313580006
 21
-242.44026287060001
 31
0.0
  0
LINE
  5
37
  8
0
 62
     0
 10
756.31232546399985
 20
-242.44026287060001
 30
0.0
 11
766.78454779219999
 21
-242.44026287060001
 31
0.0
  0
LINE
  5
38
  8
0
 62
     0
 10
756.31232546399985
 20
-242.44026287060001
 30
0.0
 11
759.31232546399997
 21
-242.44026287060001
 31
0.0
  0
SOLID
  5
39
  8
0
 62
     0
 10
756.31232546399985
 20
-242.44026287060001
 30
0.0
 11
759.31232546399997
 21
-241.69026287060001
 31
0.0
 12
759.31232546399997
 22
-243.19026287060001
 32
0.0
 13
758.56232546399985
 23
-242.44026287060001
 33
0.0
  0
LINE
  5
3A
  8
0
 62
     0
 10
784.31232546399997
 20
-242.44026287060001
 30
0.0
 11
781.31232546399985
 21
-242.44026287060001
 31
0.0
  0
SOLID
  5
3B
  8
0
 62
     0
 10
784.31232546399997
 20
-242.44026287060001
 30
0.0
 11
781.31232546399985
 21
-243.19026287060001
 31
0.0
 12
781.31232546399985
 22
-241.69026287060001
 32
0.0
 13
782.06232546399997
 23
-242.44026287060001
 33
0.0
  0
ENDBLK
  5
3C
  8
0
  0
BLOCK
  8
0
  2
*D1
 70
     1
 10
0.0
 20
0.0
 30
0.0
  3
*D1
  1

  0
TEXT
  5
41
  8
0
 62
     0
 10
799.78315881330002
 20
-248.97593066810001
 30
0.0
 40
2.9986110209999999
  1
8
 50
90.0
  0
LINE
  5
42
  8
0
 62
     0
 10
792.31232546399997
 20
-260.44026287060001
 30
0.0
 11
801.81232546399985
 21
-260.44026287060001
 31
0.0
  0
LINE
  5
43
  8
0
 62
     0
 10
791.31232546399985
 20
-252.44026287060001
 30
0.0
 11
801.81232546399985
 21
-252.44026287060001
 31
0.0
  0
LINE
  5
44
  8
0
 62
     0
 10
801.31232546399985
 20
-260.44026287060001
 30
0.0
 11
801.31232546399985
 21
-245.4481529963
 31
0.0
  0
LINE
  5
45
  8
0
 62
     0
 10
801.31232546399985
 20
-260.44026287060001
 30
0.0
 11
801.31232546399985
 21
-250.73981950410001
 31
0.0
  0
LINE
  5
46
  8
0
 62
     0
 10
801.31232546399985
 20
-252.44026287060001
 30
0.0
 11
801.31232546399985
 21
-245.4481529963
 31
0.0
  0
LINE
  5
47
  8
0
 62
     0
 10
801.31232546399985
 20
-252.44026287060001
 30
0.0
 11
801.31232546399985
 21
-250.73981950410001
 31
0.0
  0
LINE
  5
48
  8
0
 62
     0
 10
801.31232546399985
 20
-252.44026287060001
 30
0.0
 11
801.31232546399985
 21
-255.44026287060001
 31
0.0
  0
SOLID
  5
49
  8
0
 62
     0
 10
801.31232546399985
 20
-252.44026287060001
 30
0.0
 11
802.06232546399997
 21
-255.44026287060001
 31
0.0
 12
800.56232546399985
 22
-255.44026287060001
 32
0.0
 13
801.31232546399985
 23
-254.69026287060001
 33
0.0
  0
LINE
  5
4A
  8
0
 62
     0
 10
801.31232546399985
 20
-260.44026287060001
 30
0.0
 11
801.31232546399985
 21
-257.44026287060001
 31
0.0
  0
SOLID
  5
4B
  8
0
 62
     0
 10
801.31232546399985
 20
-260.44026287060001
 30
0.0
 11
800.56232546399985
 21
-257.44026287060001
 31
0.0
 12
802.06232546399997
 22
-257.44026287060001
 32
0.0
 13
801.31232546399985
 23
-258.19026287060001
 33
0.0
  0
ENDBLK
  5
4C
  8
0
  0
BLOCK
  8
0
  2
*D2
 70
     1
 10
0.0
 20
0.0
 30
0.0
  3
*D2
  1

  0
TEXT
  5
50
  8
0
 62
     0
 10
913.37204776570002
 20
-221.99153060930001
 30
0.0
 40
2.9986110209999999
  1
%%c4
  0
LINE
  5
51
  8
0
 62
     0
 10
906.01788101960005
 20
-209.5869680934
 30
0.0
 11
906.01788101960005
 21
-224.02069725999999
 31
0.0
  0
LINE
  5
52
  8
0
 62
     0
 10
926.01788101960005
 20
-209.5869680934
 30
0.0
 11
926.01788101960005
 21
-224.02069725999999
 31
0.0
  0
LINE
  5
53
  8
0
 62
     0
 10
906.01788101960005
 20
-223.52069725999999
 30
0.0
 11
920.42760310940002
 21
-223.52069725999999
 31
0.0
  0
LINE
  5
54
  8
0
 62
     0
 10
906.01788101960005
 20
-223.52069725999999
 30
0.0
 11
911.60815892979997
 21
-223.52069725999999
 31
0.0
  0
LINE
  5
55
  8
0
 62
     0
 10
926.01788101960005
 20
-223.52069725999999
 30
0.0
 11
920.42760310940002
 21
-223.52069725999999
 31
0.0
  0
LINE
  5
56
  8
0
 62
     0
 10
926.01788101960005
 20
-223.52069725999999
 30
0.0
 11
911.60815892979997
 21
-223.52069725999999
 31
0.0
  0
LINE
  5
57
  8
0
 62
     0
 10
926.01788101960005
 20
-223.52069725999999
 30
0.0
 11
923.01788101960005
 21
-223.52069725999999
 31
0.0
  0
SOLID
  5
58
  8
0
 62
     0
 10
926.01788101960005
 20
-223.52069725999999
 30
0.0
 11
923.01788101960005
 21
-224.27069725999999
 31
0.0
 12
923.01788101960005
 22
-222.77069725999999
 32
0.0
 13
923.76788101959994
 23
-223.52069725999999
 33
0.0
  0
LINE
  5
59
  8
0
 62
     0
 10
906.01788101960005
 20
-223.52069725999999
 30
0.0
 11
909.01788101960005
 21
-223.52069725999999
 31
0.0
  0
SOLID
  5
5A
  8
0
 62
     0
 10
906.01788101960005
 20
-223.52069725999999
 30
0.0
 11
909.01788101960005
 21
-222.77069725999999
 31
0.0
 12
909.01788101960005
 22
-224.27069725999999
 32
0.0
 13
908.26788101960005
 23
-223.52069725999999
 33
0.0
  0
ENDBLK
  5
5B
  8
0
  0
BLOCK
  8
0
  2
*D3
 70
     1
 10
0.0
 20
0.0
 30
0.0
  3
*D3
  1

  0
TEXT
  5
5F
  8
0
 62
     0
 10
913.37204776570002
 20
-182.05780144260001
 30
0.0
 40
2.9986110209999999
  1
%%c8
  0
LINE
  5
60
  8
0
 62
     0
 10
936.01788101960005
 20
-192.5869680934
 30
0.0
 11
936.01788101960005
 21
-183.0869680934
 31
0.0
  0
LINE
  5
61
  8
0
 62
     0
 10
896.01788101960005
 20
-192.5869680934
 30
0.0
 11
896.01788101960005
 21
-183.0869680934
 31
0.0
  0
LINE
  5
62
  8
0
 62
     0
 10
936.01788101960005
 20
-183.5869680934
 30
0.0
 11
920.42760310940002
 21
-183.5869680934
 31
0.0
  0
LINE
  5
63
  8
0
 62
     0
 10
936.01788101960005
 20
-183.5869680934
 30
0.0
 11
911.60815892979997
 21
-183.5869680934
 31
0.0
  0
LINE
  5
64
  8
0
 62
     0
 10
896.01788101960005
 20
-183.5869680934
 30
0.0
 11
920.42760310940002
 21
-183.5869680934
 31
0.0
  0
LINE
  5
65
  8
0
 62
     0
 10
896.01788101960005
 20
-183.5869680934
 30
0.0
 11
911.60815892979997
 21
-183.5869680934
 31
0.0
  0
LINE
  5
66
  8
0
 62
     0
 10
896.01788101960005
 20
-183.5869680934
 30
0.0
 11
899.01788101960005
 21
-183.5869680934
 31
0.0
  0
SOLID
  5
67
  8
0
 62
     0
 10
896.01788101960005
 20
-183.5869680934
 30
0.0
 11
899.01788101960005
 21
-182.8369680934
 31
0.0
 12
899.01788101960005
 22
-184.3369680934
 32
0.0
 13
898.26788101960005
 23
-183.5869680934
 33
0.0
  0
LINE
  5
68
  8
0
 62
     0
 10
936.01788101960005
 20
-183.5869680934
 30
0.0
 11
933.01788101960005
 21
-183.5869680934
 31
0.0
  0
SOLID
  5
69
  8
0
 62
     0
 10
936.01788101960005
 20
-183.5869680934
 30
0.0
 11
933.01788101960005
 21
-184.3369680934
 31
0.0
 12
933.01788101960005
 22
-182.8369680934
 32
0.0
 13
933.76788101960005
 23
-183.5869680934
 33
0.0
  0
ENDBLK
  5
6A
  8
0
  0
BLOCK
  8
0
  2
*D4
 70
     1
 10
0.0
 20
0.0
 30
0.0
  3
*D4
  1

  0
TEXT
  5
6E
  8
0
 62
     0
 10
844.18682551699999
 20
-145.85778834940001
 30
0.0
 40
2.9986110209999999
  1
16
  0
LINE
  5
6F
  8
0
 62
     0
 10
853.95071435289981
 20
-164.34952212979999
 30
0.0
 11
853.95071435289981
 21
-146.8869550002
 31
0.0
  0
LINE
  5
70
  8
0
 62
     0
 10
837.95071435289981
 20
-164.34952212979999
 30
0.0
 11
837.95071435289981
 21
-146.8869550002
 31
0.0
  0
LINE
  5
71
  8
0
 62
     0
 10
853.95071435289981
 20
-147.3869550002
 30
0.0
 11
849.4784920246999
 21
-147.3869550002
 31
0.0
  0
LINE
  5
72
  8
0
 62
     0
 10
853.95071435289981
 20
-147.3869550002
 30
0.0
 11
842.42293668110005
 21
-147.3869550002
 31
0.0
  0
LINE
  5
73
  8
0
 62
     0
 10
837.95071435289981
 20
-147.3869550002
 30
0.0
 11
849.4784920246999
 21
-147.3869550002
 31
0.0
  0
LINE
  5
74
  8
0
 62
     0
 10
837.95071435289981
 20
-147.3869550002
 30
0.0
 11
842.42293668110005
 21
-147.3869550002
 31
0.0
  0
LINE
  5
75
  8
0
 62
     0
 10
837.95071435289981
 20
-147.3869550002
 30
0.0
 11
840.95071435289992
 21
-147.3869550002
 31
0.0
  0
SOLID
  5
76
  8
0
 62
     0
 10
837.95071435289981
 20
-147.3869550002
 30
0.0
 11
840.95071435289992
 21
-146.6369550002
 31
0.0
 12
840.95071435289992
 22
-148.1369550002
 32
0.0
 13
840.20071435289992
 23
-147.3869550002
 33
0.0
  0
LINE
  5
77
  8
0
 62
     0
 10
853.95071435289981
 20
-147.3869550002
 30
0.0
 11
850.95071435289992
 21
-147.3869550002
 31
0.0
  0
SOLID
  5
78
  8
0
 62
     0
 10
853.95071435289981
 20
-147.3869550002
 30
0.0
 11
850.95071435289992
 21
-148.1369550002
 31
0.0
 12
850.95071435289992
 22
-146.6369550002
 32
0.0
 13
851.70071435289992
 23
-147.3869550002
 33
0.0
  0
ENDBLK
  5
79
  8
0
  0
BLOCK
  8
0
  2
*D5
 70
     1
 10
0.0
 20
0.0
 30
0.0
  3
*D5
  1

  0
TEXT
  5
7D
  8
0
 62
     0
 10
858.86686021269998
 20
-153.82035547909999
 30
0.0
 40
2.9986110209999999
  1
8
  0
LINE
  5
7E
  8
0
 62
     0
 10
853.95071435289981
 20
-164.34952212979999
 30
0.0
 11
853.95071435289981
 21
-154.84952212979999
 31
0.0
  0
LINE
  5
7F
  8
0
 62
     0
 10
845.95071435289981
 20
-164.34952212979999
 30
0.0
 11
845.95071435289981
 21
-154.84952212979999
 31
0.0
  0
LINE
  5
80
  8
0
 62
     0
 10
853.95071435289981
 20
-155.34952212979999
 30
0.0
 11
862.39463788460012
 21
-155.34952212979999
 31
0.0
  0
LINE
  5
81
  8
0
 62
     0
 10
853.95071435289981
 20
-155.34952212979999
 30
0.0
 11
857.10297137679981
 21
-155.34952212979999
 31
0.0
  0
LINE
  5
82
  8
0
 62
     0
 10
845.95071435289981
 20
-155.34952212979999
 30
0.0
 11
862.39463788460012
 21
-155.34952212979999
 31
0.0
  0
LINE
  5
83
  8
0
 62
     0
 10
845.95071435289981
 20
-155.34952212979999
 30
0.0
 11
857.10297137679981
 21
-155.34952212979999
 31
0.0
  0
LINE
  5
84
  8
0
 62
     0
 10
845.95071435289981
 20
-155.34952212979999
 30
0.0
 11
848.95071435289992
 21
-155.34952212979999
 31
0.0
  0
SOLID
  5
85
  8
0
 62
     0
 10
845.95071435289981
 20
-155.34952212979999
 30
0.0
 11
848.95071435289992
 21
-154.59952212979999
 31
0.0
 12
848.95071435289992
 22
-156.09952212979999
 32
0.0
 13
848.20071435289992
 23
-155.34952212979999
 33
0.0
  0
LINE
  5
86
  8
0
 62
     0
 10
853.95071435289981
 20
-155.34952212979999
 30
0.0
 11
850.95071435289992
 21
-155.34952212979999
 31
0.0
  0
SOLID
  5
87
  8
0
 62
     0
 10
853.95071435289981
 20
-155.34952212979999
 30
0.0
 11
850.95071435289992
 21
-156.09952212979999
 31
0.0
 12
850.95071435289992
 22
-154.59952212979999
 32
0.0
 13
851.70071435289992
 23
-155.34952212979999
 33
0.0
  0
ENDBLK
  5
88
  8
0
  0
BLOCK
  8
0
  2
*D6
 70
     1
 10
0.0
 20
0.0
 30
0.0
  3
*D6
  1

  0
TEXT
  5
8C
  8
0
 62
     0
 10
727.42760232520004
 20
-189.61341096570001
 30
0.0
 40
2.9986110209999999
  1
45
 50
90.0
  0
LINE
  5
8D
  8
0
 62
     0
 10
744.31232546399985
 20
-165.34952212979999
 30
0.0
 11
728.45676897600003
 21
-165.34952212979999
 31
0.0
  0
LINE
  5
8E
  8
0
 62
     0
 10
744.31232546399985
 20
-210.34952212979999
 30
0.0
 11
728.45676897600003
 21
-210.34952212979999
 31
0.0
  0
LINE
  5
8F
  8
0
 62
     0
 10
728.95676897600003
 20
-165.34952212979999
 30
0.0
 11
728.95676897600003
 21
-184.32174445800001
 31
0.0
  0
LINE
  5
90
  8
0
 62
     0
 10
728.95676897600003
 20
-165.34952212979999
 30
0.0
 11
728.95676897600003
 21
-191.3772998016
 31
0.0
  0
LINE
  5
91
  8
0
 62
     0
 10
728.95676897600003
 20
-210.34952212979999
 30
0.0
 11
728.95676897600003
 21
-184.32174445800001
 31
0.0
  0
LINE
  5
92
  8
0
 62
     0
 10
728.95676897600003
 20
-210.34952212979999
 30
0.0
 11
728.95676897600003
 21
-191.3772998016
 31
0.0
  0
LINE
  5
93
  8
0
 62
     0
 10
728.95676897600003
 20
-210.34952212979999
 30
0.0
 11
728.95676897600003
 21
-207.34952212979999
 31
0.0
  0
SOLID
  5
94
  8
0
 62
     0
 10
728.95676897600003
 20
-210.34952212979999
 30
0.0
 11
728.20676897600003
 21
-207.34952212979999
 31
0.0
 12
729.70676897600003
 22
-207.34952212979999
 32
0.0
 13
728.95676897600003
 23
-208.09952212979999
 33
0.0
  0
LINE
  5
95
  8
0
 62
     0
 10
728.95676897600003
 20
-165.34952212979999
 30
0.0
 11
728.95676897600003
 21
-168.34952212979999
 31
0.0
  0
SOLID
  5
96
  8
0
 62
     0
 10
728.95676897600003
 20
-165.34952212979999
 30
0.0
 11
729.70676897600003
 21
-168.34952212979999
 31
0.0
 12
728.20676897600003
 22
-168.34952212979999
 32
0.0
 13
728.95676897600003
 23
-167.59952212979999
 33
0.0
  0
ENDBLK
  5
97
  8
0
  0
BLOCK
  8
0
  2
*D7
 70
     1
 10
0.0
 20
0.0
 30
0.0
  3
*D7
  1

  0
TEXT
  5
9B
  8
0
 62
     0
 10
766.04843662809992
 20
-218.82035547909999
 30
0.0
 40
2.9986110209999999
  1
45
  0
LINE
  5
9C
  8
0
 62
     0
 10
745.31232546399985
 20
-208.34952212979999
 30
0.0
 11
745.31232546399985
 21
-220.84952212979999
 31
0.0
  0
LINE
  5
9D
  8
0
 62
     0
 10
790.31232546399985
 20
-211.34952212979999
 30
0.0
 11
790.31232546399985
 21
-220.84952212979999
 31
0.0
  0
LINE
  5
9E
  8
0
 62
     0
 10
745.31232546399985
 20
-220.34952212979999
 30
0.0
 11
771.34010313579995
 21
-220.34952212979999
 31
0.0
  0
LINE
  5
9F
  8
0
 62
     0
 10
745.31232546399985
 20
-220.34952212979999
 30
0.0
 11
764.28454779219999
 21
-220.34952212979999
 31
0.0
  0
LINE
  5
A0
  8
0
 62
     0
 10
790.31232546399985
 20
-220.34952212979999
 30
0.0
 11
771.34010313579995
 21
-220.34952212979999
 31
0.0
  0
LINE
  5
A1
  8
0
 62
     0
 10
790.31232546399985
 20
-220.34952212979999
 30
0.0
 11
764.28454779219999
 21
-220.34952212979999
 31
0.0
  0
LINE
  5
A2
  8
0
 62
     0
 10
790.31232546399985
 20
-220.34952212979999
 30
0.0
 11
787.31232546399997
 21
-220.34952212979999
 31
0.0
  0
SOLID
  5
A3
  8
0
 62
     0
 10
790.31232546399985
 20
-220.34952212979999
 30
0.0
 11
787.31232546399997
 21
-221.09952212979999
 31
0.0
 12
787.31232546399997
 22
-219.59952212979999
 32
0.0
 13
788.06232546399985
 23
-220.34952212979999
 33
0.0
  0
LINE
  5
A4
  8
0
 62
     0
 10
745.31232546399985
 20
-220.34952212979999
 30
0.0
 11
748.31232546399985
 21
-220.34952212979999
 31
0.0
  0
SOLID
  5
A5
  8
0
 62
     0
 10
745.31232546399985
 20
-220.34952212979999
 30
0.0
 11
748.31232546399985
 21
-219.59952212979999
 31
0.0
 12
748.31232546399985
 22
-221.09952212979999
 32
0.0
 13
747.56232546399985
 23
-220.34952212979999
 33
0.0
  0
ENDBLK
  5
A6
  8
0
  0
BLOCK
  8
0
  2
*D8
 70
     1
 10
0.0
 20
0.0
 30
0.0
  3
*D8
  1

  0
TEXT
  5
AA
  8
0
 62
     0
 10
826.42154770219997
 20
-169.23146654780001
 30
0.0
 40
2.9986110209999999
  1
6
 50
90.0
  0
LINE
  5
AB
  8
0
 62
     0
 10
836.95071435289981
 20
-165.34952212979999
 30
0.0
 11
827.45071435290004
 21
-165.34952212979999
 31
0.0
  0
LINE
  5
AC
  8
0
 62
     0
 10
838.95071435289981
 20
-171.34952212979999
 30
0.0
 11
827.45071435290004
 21
-171.34952212979999
 31
0.0
  0
LINE
  5
AD
  8
0
 62
     0
 10
827.95071435289992
 20
-165.34952212979999
 30
0.0
 11
827.95071435289992
 21
-165.703688876
 31
0.0
  0
LINE
  5
AE
  8
0
 62
     0
 10
827.95071435289992
 20
-165.34952212979999
 30
0.0
 11
827.95071435289992
 21
-170.9953553837
 31
0.0
  0
LINE
  5
AF
  8
0
 62
     0
 10
827.95071435289992
 20
-171.34952212979999
 30
0.0
 11
827.95071435289992
 21
-165.703688876
 31
0.0
  0
LINE
  5
B0
  8
0
 62
     0
 10
827.95071435289992
 20
-171.34952212979999
 30
0.0
 11
827.95071435289992
 21
-170.9953553837
 31
0.0
  0
LINE
  5
B1
  8
0
 62
     0
 10
827.95071435289992
 20
-171.34952212979999
 30
0.0
 11
827.95071435289992
 21
-174.34952212979999
 31
0.0
  0
SOLID
  5
B2
  8
0
 62
     0
 10
827.95071435289992
 20
-171.34952212979999
 30
0.0
 11
828.70071435289992
 21
-174.34952212979999
 31
0.0
 12
827.20071435289981
 22
-174.34952212979999
 32
0.0
 13
827.95071435289992
 23
-173.59952212979999
 33
0.0
  0
LINE
  5
B3
  8
0
 62
     0
 10
827.95071435289992
 20
-165.34952212979999
 30
0.0
 11
827.95071435289992
 21
-162.34952212979999
 31
0.0
  0
SOLID
  5
B4
  8
0
 62
     0
 10
827.95071435289992
 20
-165.34952212979999
 30
0.0
 11
827.20071435289981
 21
-162.34952212979999
 31
0.0
 12
828.70071435289992
 22
-162.34952212979999
 32
0.0
 13
827.95071435289992
 23
-163.09952212979999
 33
0.0
  0
ENDBLK
  5
B5
  8
0
  0
BLOCK
  8
0
  2
*D9
 70
     1
 10
0.0
 20
0.0
 30
0.0
  3
*D9
  1

  0
TEXT
  5
B9
  8
0
 62
     0
 10
826.42154770219997
 20
-206.61341096570001
 30
0.0
 40
2.9986110209999999
  1
11
 50
90.0
  0
LINE
  5
BA
  8
0
 62
     0
 10
838.95071435289981
 20
-199.34952212979999
 30
0.0
 11
827.45071435290004
 21
-199.34952212979999
 31
0.0
  0
LINE
  5
BB
  8
0
 62
     0
 10
836.95071435289981
 20
-210.34952212979999
 30
0.0
 11
827.45071435290004
 21
-210.34952212979999
 31
0.0
  0
LINE
  5
BC
  8
0
 62
     0
 10
827.95071435289992
 20
-199.34952212979999
 30
0.0
 11
827.95071435289992
 21
-201.32174445800001
 31
0.0
  0
LINE
  5
BD
  8
0
 62
     0
 10
827.95071435289992
 20
-199.34952212979999
 30
0.0
 11
827.95071435289992
 21
-208.3772998016
 31
0.0
  0
LINE
  5
BE
  8
0
 62
     0
 10
827.95071435289992
 20
-210.34952212979999
 30
0.0
 11
827.95071435289992
 21
-201.32174445800001
 31
0.0
  0
LINE
  5
BF
  8
0
 62
     0
 10
827.95071435289992
 20
-210.34952212979999
 30
0.0
 11
827.95071435289992
 21
-208.3772998016
 31
0.0
  0
LINE
  5
C0
  8
0
 62
     0
 10
827.95071435289992
 20
-210.34952212979999
 30
0.0
 11
827.95071435289992
 21
-213.34952212979999
 31
0.0
  0
SOLID
  5
C1
  8
0
 62
     0
 10
827.95071435289992
 20
-210.34952212979999
 30
0.0
 11
828.70071435289992
 21
-213.34952212979999
 31
0.0
 12
827.20071435289981
 22
-213.34952212979999
 32
0.0
 13
827.95071435289992
 23
-212.59952212979999
 33
0.0
  0
LINE
  5
C2
  8
0
 62
     0
 10
827.95071435289992
 20
-199.34952212979999
 30
0.0
 11
827.95071435289992
 21
-196.34952212979999
 31
0.0
  0
SOLID
  5
C3
  8
0
 62
     0
 10
827.95071435289992
 20
-199.34952212979999
 30
0.0
 11
827.20071435289981
 21
-196.34952212979999
 31
0.0
 12
828.70071435289992
 22
-196.34952212979999
 32
0.0
 13
827.95071435289992
 23
-197.09952212979999
 33
0.0
  0
ENDBLK
  5
C4
  8
0
  0
BLOCK
  8
0
  2
*D10
 70
     1
 10
0.0
 20
0.0
 30
0.0
  3
*D10
  1

  0
TEXT
  5
C8
  8
0
 62
     0
 10
826.42154770219997
 20
-187.1134109656999
 30
0.0
 40
2.9986110209999999
  1
28
 50
90.0
  0
LINE
  5
C9
  8
0
 62
     0
 10
838.95071435289981
 20
-171.34952212979999
 30
0.0
 11
827.45071435290004
 21
-171.34952212979999
 31
0.0
  0
LINE
  5
CA
  8
0
 62
     0
 10
838.95071435289981
 20
-199.34952212979999
 30
0.0
 11
827.45071435290004
 21
-199.34952212979999
 31
0.0
  0
LINE
  5
CB
  8
0
 62
     0
 10
827.95071435289992
 20
-171.34952212979999
 30
0.0
 11
827.95071435289992
 21
-181.82174445800001
 31
0.0
  0
LINE
  5
CC
  8
0
 62
     0
 10
827.95071435289992
 20
-171.34952212979999
 30
0.0
 11
827.95071435289992
 21
-188.8772998016
 31
0.0
  0
LINE
  5
CD
  8
0
 62
     0
 10
827.95071435289992
 20
-199.34952212979999
 30
0.0
 11
827.95071435289992
 21
-181.82174445800001
 31
0.0
  0
LINE
  5
CE
  8
0
 62
     0
 10
827.95071435289992
 20
-199.34952212979999
 30
0.0
 11
827.95071435289992
 21
-188.8772998016
 31
0.0
  0
LINE
  5
CF
  8
0
 62
     0
 10
827.95071435289992
 20
-199.34952212979999
 30
0.0
 11
827.95071435289992
 21
-196.34952212979999
 31
0.0
  0
SOLID
  5
D0
  8
0
 62
     0
 10
827.95071435289992
 20
-199.34952212979999
 30
0.0
 11
827.20071435289981
 21
-196.34952212979999
 31
0.0
 12
828.70071435289992
 22
-196.34952212979999
 32
0.0
 13
827.95071435289992
 23
-197.09952212979999
 33
0.0
  0
LINE
  5
D1
  8
0
 62
     0
 10
827.95071435289992
 20
-171.34952212979999
 30
0.0
 11
827.95071435289992
 21
-174.34952212979999
 31
0.0
  0
SOLID
  5
D2
  8
0
 62
     0
 10
827.95071435289992
 20
-171.34952212979999
 30
0.0
 11
828.70071435289992
 21
-174.34952212979999
 31
0.0
 12
827.20071435289981
 22
-174.34952212979999
 32
0.0
 13
827.95071435289992
 23
-173.59952212979999
 33
0.0
  0
ENDBLK
  5
D3
  8
0
  0
BLOCK
  8
0
  2
*D11
 70
     1
 10
0.0
 20
0.0
 30
0.0
  3
*D11
  1

  0
TEXT
  5
D7
  8
0
 62
     0
 10
786.43038104610002
 20
-240.91109621979999
 30
0.0
 40
2.9986110209999999
  1
6
  0
LINE
  5
D8
  8
0
 62
     0
 10
790.31232546399985
 20
-251.44026287060001
 30
0.0
 11
790.31232546399985
 21
-241.94026287060001
 31
0.0
  0
LINE
  5
D9
  8
0
 62
     0
 10
784.31232546399997
 20
-253.44026287060001
 30
0.0
 11
784.31232546399997
 21
-241.94026287060001
 31
0.0
  0
LINE
  5
DA
  8
0
 62
     0
 10
790.31232546399985
 20
-242.44026287060001
 30
0.0
 11
789.95815871789989
 21
-242.44026287060001
 31
0.0
  0
LINE
  5
DB
  8
0
 62
     0
 10
790.31232546399985
 20
-242.44026287060001
 30
0.0
 11
784.66649221020009
 21
-242.44026287060001
 31
0.0
  0
LINE
  5
DC
  8
0
 62
     0
 10
784.31232546399997
 20
-242.44026287060001
 30
0.0
 11
789.95815871789989
 21
-242.44026287060001
 31
0.0
  0
LINE
  5
DD
  8
0
 62
     0
 10
784.31232546399997
 20
-242.44026287060001
 30
0.0
 11
784.66649221020009
 21
-242.44026287060001
 31
0.0
  0
LINE
  5
DE
  8
0
 62
     0
 10
784.31232546399997
 20
-242.44026287060001
 30
0.0
 11
781.31232546399985
 21
-242.44026287060001
 31
0.0
  0
SOLID
  5
DF
  8
0
 62
     0
 10
784.31232546399997
 20
-242.44026287060001
 30
0.0
 11
781.31232546399985
 21
-243.19026287060001
 31
0.0
 12
781.31232546399985
 22
-241.69026287060001
 32
0.0
 13
782.06232546399997
 23
-242.44026287060001
 33
0.0
  0
LINE
  5
E0
  8
0
 62
     0
 10
790.31232546399985
 20
-242.44026287060001
 30
0.0
 11
793.31232546399985
 21
-242.44026287060001
 31
0.0
  0
SOLID
  5
E1
  8
0
 62
     0
 10
790.31232546399985
 20
-242.44026287060001
 30
0.0
 11
793.31232546399985
 21
-241.69026287060001
 31
0.0
 12
793.31232546399985
 22
-243.19026287060001
 32
0.0
 13
792.56232546399985
 23
-242.44026287060001
 33
0.0
  0
ENDBLK
  5
E2
  8
0
  0
BLOCK
  8
0
  2
*D12
 70
     1
 10
0.0
 20
0.0
 30
0.0
  3
*D12
  1

  0
TEXT
  5
E6
  8
0
 62
     0
 10
749.04843662809992
 20
-240.91109621979999
 30
0.0
 40
2.9986110209999999
  1
11
  0
LINE
  5
E7
  8
0
 62
     0
 10
756.31232546399985
 20
-253.44026287060001
 30
0.0
 11
756.31232546399985
 21
-241.94026287060001
 31
0.0
  0
LINE
  5
E8
  8
0
 62
     0
 10
745.31232546399985
 20
-251.44026287060001
 30
0.0
 11
745.31232546399985
 21
-241.94026287060001
 31
0.0
  0
LINE
  5
E9
  8
0
 62
     0
 10
756.31232546399985
 20
-242.44026287060001
 30
0.0
 11
754.34010313579995
 21
-242.44026287060001
 31
0.0
  0
LINE
  5
EA
  8
0
 62
     0
 10
756.31232546399985
 20
-242.44026287060001
 30
0.0
 11
747.28454779219999
 21
-242.44026287060001
 31
0.0
  0
LINE
  5
EB
  8
0
 62
     0
 10
745.31232546399985
 20
-242.44026287060001
 30
0.0
 11
754.34010313579995
 21
-242.44026287060001
 31
0.0
  0
LINE
  5
EC
  8
0
 62
     0
 10
745.31232546399985
 20
-242.44026287060001
 30
0.0
 11
747.28454779219999
 21
-242.44026287060001
 31
0.0
  0
LINE
  5
ED
  8
0
 62
     0
 10
745.31232546399985
 20
-242.44026287060001
 30
0.0
 11
742.31232546399997
 21
-242.44026287060001
 31
0.0
  0
SOLID
  5
EE
  8
0
 62
     0
 10
745.31232546399985
 20
-242.44026287060001
 30
0.0
 11
742.31232546399997
 21
-243.19026287060001
 31
0.0
 12
742.31232546399997
 22
-241.69026287060001
 32
0.0
 13
743.06232546399985
 23
-242.44026287060001
 33
0.0
  0
LINE
  5
EF
  8
0
 62
     0
 10
756.31232546399985
 20
-242.44026287060001
 30
0.0
 11
759.31232546399997
 21
-242.44026287060001
 31
0.0
  0
SOLID
  5
F0
  8
0
 62
     0
 10
756.31232546399985
 20
-242.44026287060001
 30
0.0
 11
759.31232546399997
 21
-241.69026287060001
 31
0.0
 12
759.31232546399997
 22
-243.19026287060001
 32
0.0
 13
758.56232546399985
 23
-242.44026287060001
 33
0.0
  0
ENDBLK
  5
F1
  8
0
  0
BLOCK
  8
0
  2
*D13
 70
     1
 10
0.0
 20
0.0
 30
0.0
  3
*D13
  1

  0
TEXT
  5
F5
  8
0
 62
     0
 10
830.02316258729991
 20
-153.82035547909999
 30
0.0
 40
2.9986110209999999
  1
8
  0
LINE
  5
F6
  8
0
 62
     0
 10
845.95071435289981
 20
-164.34952212979999
 30
0.0
 11
845.95071435289981
 21
-154.84952212979999
 31
0.0
  0
LINE
  5
F7
  8
0
 62
     0
 10
837.95071435289981
 20
-164.34952212979999
 30
0.0
 11
837.95071435289981
 21
-154.84952212979999
 31
0.0
  0
LINE
  5
F8
  8
0
 62
     0
 10
845.95071435289981
 20
-155.34952212979999
 30
0.0
 11
833.5509402591
 21
-155.34952212979999
 31
0.0
  0
LINE
  5
F9
  8
0
 62
     0
 10
845.95071435289981
 20
-155.34952212979999
 30
0.0
 11
828.25927375139986
 21
-155.34952212979999
 31
0.0
  0
LINE
  5
FA
  8
0
 62
     0
 10
837.95071435289981
 20
-155.34952212979999
 30
0.0
 11
833.5509402591
 21
-155.34952212979999
 31
0.0
  0
LINE
  5
FB
  8
0
 62
     0
 10
837.95071435289981
 20
-155.34952212979999
 30
0.0
 11
828.25927375139986
 21
-155.34952212979999
 31
0.0
  0
LINE
  5
FC
  8
0
 62
     0
 10
837.95071435289981
 20
-155.34952212979999
 30
0.0
 11
840.95071435289992
 21
-155.34952212979999
 31
0.0
  0
SOLID
  5
FD
  8
0
 62
     0
 10
837.95071435289981
 20
-155.34952212979999
 30
0.0
 11
840.95071435289992
 21
-154.59952212979999
 31
0.0
 12
840.95071435289992
 22
-156.09952212979999
 32
0.0
 13
840.20071435289992
 23
-155.34952212979999
 33
0.0
  0
LINE
  5
FE
  8
0
 62
     0
 10
845.95071435289981
 20
-155.34952212979999
 30
0.0
 11
842.95071435289992
 21
-155.34952212979999
 31
0.0
  0
SOLID
  5
FF
  8
0
 62
     0
 10
845.95071435289981
 20
-155.34952212979999
 30
0.0
 11
842.95071435289992
 21
-156.09952212979999
 31
0.0
 12
842.95071435289992
 22
-154.59952212979999
 32
0.0
 13
843.70071435289992
 23
-155.34952212979999
 33
0.0
  0
ENDBLK
  5
100
  8
0
  0
BLOCK
  8
0
  2
*D14
 70
     1
 10
0.0
 20
0.0
 30
0.0
  3
*D14
  1

  0
TEXT
  5
104
  8
0
 62
     0
 10
799.78315881330002
 20
-275.54973020490002
 30
0.0
 40
2.9986110209999999
  1
8
 50
90.0
  0
LINE
  5
105
  8
0
 62
     0
 10
791.31232546399985
 20
-268.44026287060001
 30
0.0
 11
801.81232546399985
 21
-268.44026287060001
 31
0.0
  0
LINE
  5
106
  8
0
 62
     0
 10
792.31232546399997
 20
-260.44026287060001
 30
0.0
 11
801.81232546399985
 21
-260.44026287060001
 31
0.0
  0
LINE
  5
107
  8
0
 62
     0
 10
801.31232546399985
 20
-268.44026287060001
 30
0.0
 11
801.31232546399985
 21
-272.02195253309998
 31
0.0
  0
LINE
  5
108
  8
0
 62
     0
 10
801.31232546399985
 20
-268.44026287060001
 30
0.0
 11
801.31232546399985
 21
-277.31361904080001
 31
0.0
  0
LINE
  5
109
  8
0
 62
     0
 10
801.31232546399985
 20
-260.44026287060001
 30
0.0
 11
801.31232546399985
 21
-272.02195253309998
 31
0.0
  0
LINE
  5
10A
  8
0
 62
     0
 10
801.31232546399985
 20
-260.44026287060001
 30
0.0
 11
801.31232546399985
 21
-277.31361904080001
 31
0.0
  0
LINE
  5
10B
  8
0
 62
     0
 10
801.31232546399985
 20
-260.44026287060001
 30
0.0
 11
801.31232546399985
 21
-263.44026287060001
 31
0.0
  0
SOLID
  5
10C
  8
0
 62
     0
 10
801.31232546399985
 20
-260.44026287060001
 30
0.0
 11
802.06232546399997
 21
-263.44026287060001
 31
0.0
 12
800.56232546399985
 22
-263.44026287060001
 32
0.0
 13
801.31232546399985
 23
-262.69026287060001
 33
0.0
  0
LINE
  5
10D
  8
0
 62
     0
 10
801.31232546399985
 20
-268.44026287060001
 30
0.0
 11
801.31232546399985
 21
-265.44026287060001
 31
0.0
  0
SOLID
  5
10E
  8
0
 62
     0
 10
801.31232546399985
 20
-268.44026287060001
 30
0.0
 11
800.56232546399985
 21
-265.44026287060001
 31
0.0
 12
802.06232546399997
 22
-265.44026287060001
 32
0.0
 13
801.31232546399985
 23
-266.19026287060001
 33
0.0
  0
ENDBLK
  5
10F
  8
0
  0
BLOCK
  8
0
  2
*D15
 70
     1
 10
0.0
 20
0.0
 30
0.0
  3
*D15
  1

  0
TEXT
  5
113
  8
0
 62
     0
 10
733.78315881330002
 20
-262.2041517065
 30
0.0
 40
2.9986110209999999
  1
16
 50
90.0
  0
LINE
  5
114
  8
0
 62
     0
 10
744.31232546399985
 20
-252.44026287060001
 30
0.0
 11
734.81232546399985
 21
-252.44026287060001
 31
0.0
  0
LINE
  5
115
  8
0
 62
     0
 10
744.31232546399985
 20
-268.44026287060001
 30
0.0
 11
734.81232546399985
 21
-268.44026287060001
 31
0.0
  0
LINE
  5
116
  8
0
 62
     0
 10
735.31232546399985
 20
-252.44026287060001
 30
0.0
 11
735.31232546399985
 21
-256.91248519869998
 31
0.0
  0
LINE
  5
117
  8
0
 62
     0
 10
735.31232546399985
 20
-252.44026287060001
 30
0.0
 11
735.31232546399985
 21
-263.96804054239999
 31
0.0
  0
LINE
  5
118
  8
0
 62
     0
 10
735.31232546399985
 20
-268.44026287060001
 30
0.0
 11
735.31232546399985
 21
-256.91248519869998
 31
0.0
  0
LINE
  5
119
  8
0
 62
     0
 10
735.31232546399985
 20
-268.44026287060001
 30
0.0
 11
735.31232546399985
 21
-263.96804054239999
 31
0.0
  0
LINE
  5
11A
  8
0
 62
     0
 10
735.31232546399985
 20
-268.44026287060001
 30
0.0
 11
735.31232546399985
 21
-265.44026287060001
 31
0.0
  0
SOLID
  5
11B
  8
0
 62
     0
 10
735.31232546399985
 20
-268.44026287060001
 30
0.0
 11
734.56232546399985
 21
-265.44026287060001
 31
0.0
 12
736.06232546399997
 22
-265.44026287060001
 32
0.0
 13
735.31232546399985
 23
-266.19026287060001
 33
0.0
  0
LINE
  5
11C
  8
0
 62
     0
 10
735.31232546399985
 20
-252.44026287060001
 30
0.0
 11
735.31232546399985
 21
-255.44026287060001
 31
0.0
  0
SOLID
  5
11D
  8
0
 62
     0
 10
735.31232546399985
 20
-252.44026287060001
 30
0.0
 11
736.06232546399997
 21
-255.44026287060001
 31
0.0
 12
734.56232546399985
 22
-255.44026287060001
 32
0.0
 13
735.31232546399985
 23
-254.69026287060001
 33
0.0
  0
ENDBLK
  5
11E
  8
0
  0
BLOCK
  8
0
  2
*D16
 70
     1
 10
0.0
 20
0.0
 30
0.0
  3
*D16
  1

  0
TEXT
  5
122
  8
0
 62
     0
 10
752.8609639755
 20
-149.79565033349999
 30
0.0
 40
2.9986110209999999
  1
3t
  0
LINE
  5
123
  8
0
 62
     0
 10
748.31232546399985
 20
-164.34952212979999
 30
0.0
 11
748.31232546399985
 21
-150.8248169842
 31
0.0
  0
LINE
  5
124
  8
0
 62
     0
 10
745.31232546399985
 20
-164.34952212979999
 30
0.0
 11
745.31232546399985
 21
-150.8248169842
 31
0.0
  0
LINE
  5
125
  8
0
 62
     0
 10
748.31232546399985
 20
-151.3248169842
 30
0.0
 11
758.15263048320003
 21
-151.3248169842
 31
0.0
  0
LINE
  5
126
  8
0
 62
     0
 10
748.31232546399985
 20
-151.3248169842
 30
0.0
 11
751.09707513959995
 21
-151.3248169842
 31
0.0
  0
LINE
  5
127
  8
0
 62
     0
 10
745.31232546399985
 20
-151.3248169842
 30
0.0
 11
758.15263048320003
 21
-151.3248169842
 31
0.0
  0
LINE
  5
128
  8
0
 62
     0
 10
745.31232546399985
 20
-151.3248169842
 30
0.0
 11
751.09707513959995
 21
-151.3248169842
 31
0.0
  0
LINE
  5
129
  8
0
 62
     0
 10
745.31232546399985
 20
-151.3248169842
 30
0.0
 11
742.31232546399997
 21
-151.3248169842
 31
0.0
  0
SOLID
  5
12A
  8
0
 62
     0
 10
745.31232546399985
 20
-151.3248169842
 30
0.0
 11
742.31232546399997
 21
-152.0748169842
 31
0.0
 12
742.31232546399997
 22
-150.5748169842
 32
0.0
 13
743.06232546399985
 23
-151.3248169842
 33
0.0
  0
LINE
  5
12B
  8
0
 62
     0
 10
748.31232546399985
 20
-151.3248169842
 30
0.0
 11
751.31232546399985
 21
-151.3248169842
 31
0.0
  0
SOLID
  5
12C
  8
0
 62
     0
 10
748.31232546399985
 20
-151.3248169842
 30
0.0
 11
751.31232546399985
 21
-150.5748169842
 31
0.0
 12
751.31232546399985
 22
-152.0748169842
 32
0.0
 13
750.56232546399985
 23
-151.3248169842
 33
0.0
  0
ENDBLK
  5
12D
  8
0
  0
BLOCK
  8
0
  2
*D17
 70
     1
 10
0.0
 20
0.0
 30
0.0
  3
*D17
  1

  0
TEXT
  5
14C
  8
0
 62
     0
 10
913.37204776570002
 20
-168.8275994542
 30
0.0
 40
2.9986110209999999
  1
90%%d
  0
ARC
  5
14D
  8
0
 62
     0
 10
916.01788101960005
 20
-213.5869680934
 30
0.0
 40
43.171868686899998
 50
130.1369976529999
 51
135.0
  0
ARC
  5
14E
  8
0
 62
     0
 10
916.01788101960005
 20
-213.5869680934
 30
0.0
 40
43.171868686899998
 50
45.0
 51
49.863002346999991
  0
SOLID
  5
14F
  8
0
 62
     0
 10
946.54500212460005
 20
-183.05984698840001
 30
0.0
 11
949.1966525539998
 21
-184.6508372461
 31
0.0
 12
948.1359923821999
 22
-185.71149741779999
 32
0.0
 13
948.1359923821999
 23
-184.6508372461
 33
0.0
  0
SOLID
  5
150
  8
0
 62
     0
 10
885.49075991460006
 20
-183.05984698840001
 30
0.0
 11
883.89976965690005
 21
-185.71149741779999
 31
0.0
 12
882.83910948520008
 22
-184.6508372461
 32
0.0
 13
883.89976965690005
 23
-184.6508372461
 33
0.0
  0
ARC
  5
151
  8
0
 62
     0
 10
916.01788101960005
 20
-213.5869680934
 30
0.0
 40
43.171868686899998
 50
45.0
 51
84.071626409200007
  0
ARC
  5
152
  8
0
 62
     0
 10
916.01788101960005
 20
-213.5869680934
 30
0.0
 40
43.171868686899998
 50
95.928373590799978
 51
135.0
  0
LINE
  5
153
  8
0
 62
     0
 10
937.43209458199999
 20
-192.17275453100001
 30
0.0
 11
947.95921568690005
 21
-181.64563342599999
 31
0.0
  0
LINE
  5
154
  8
0
 62
     0
 10
894.60366745719989
 20
-192.17275453100001
 30
0.0
 11
884.07654635220001
 21
-181.64563342599999
 31
0.0
  0
ENDBLK
  5
155
  8
0
  0
BLOCK
  8
0
  2
*D18
 70
     1
 10
0.0
 20
0.0
 30
0.0
  3
*D18
  1

  0
TEXT
  5
159
  8
0
 62
     0
 10
761.55702999970003
 20
-187.93406191939999
 30
0.0
 40
2.9986110209999999
  1
90%%d
 50
319.2354596646
  0
ARC
  5
15A
  8
0
 62
     0
 10
748.31232546399985
 20
-207.34952212979999
 30
0.0
 40
21.765912214099998
 50
79.168005715100009
 51
90.0
  0
ARC
  5
15B
  8
0
 62
     0
 10
748.31232546399985
 20
-207.34952212979999
 30
0.0
 40
21.765912214099998
 50
0.0
 51
10.8319942849
  0
SOLID
  5
15C
  8
0
 62
     0
 10
770.07823767809998
 20
-207.34952212979999
 30
0.0
 11
770.82823767809987
 21
-210.34952212979999
 31
0.0
 12
769.32823767809998
 22
-210.34952212979999
 32
0.0
 13
770.07823767809998
 23
-209.59952212979999
 33
0.0
  0
SOLID
  5
15D
  8
0
 62
     0
 10
748.31232546399985
 20
-185.5836099158
 30
0.0
 11
745.31232546399985
 21
-186.3336099158
 31
0.0
 12
745.31232546399985
 22
-184.8336099158
 32
0.0
 13
746.06232546399985
 23
-185.5836099158
 33
0.0
  0
ARC
  5
15E
  8
0
 62
     0
 10
748.31232546399985
 20
-207.34952212979999
 30
0.0
 40
21.765912214099998
 50
0.0
 51
37.409435114000011
  0
ARC
  5
15F
  8
0
 62
     0
 10
748.31232546399985
 20
-207.34952212979999
 30
0.0
 40
21.765912214099998
 50
61.061484215100009
 51
90.0
  0
LINE
  5
160
  8
0
 62
     0
 10
788.31232546399997
 20
-207.34952212979999
 30
0.0
 11
768.07823767809987
 21
-207.34952212979999
 31
0.0
  0
LINE
  5
161
  8
0
 62
     0
 10
748.31232546399985
 20
-167.34952212979999
 30
0.0
 11
748.31232546399985
 21
-187.5836099158
 31
0.0
  0
ENDBLK
  5
162
  8
0
  0
BLOCK
  8
0
  2
*U19
 70
     1
 10
0.0
 20
0.0
 30
0.0
  3
*U19
  1

  0
TEXT
  5
213
  8
┌▓È_1
  6
CONTINUOUS
 10
902.68175745238068
 20
-233.69097481371119
 30
0.0
 40
2.9986110209999999
  1
ÄMâéâ~òöègæÕÉ}
  0
ENDBLK
  5
215
  8
0
  0
BLOCK
  8
0
  2
*U20
 70
     1
 10
0.0
 20
0.0
 30
0.0
  3
*U20
  1

  0
TEXT
  5
217
  8
┌▓È_1
  6
CONTINUOUS
 10
855.45457020949993
 20
-301.87991985736852
 30
0.0
 40
2.337499999999999
  1
 É¦îvü@ü@öÆÉ{ëÛ
  0
ENDBLK
  5
219
  8
0
  0
BLOCK
  8
0
  2
*U21
 70
     1
 10
0.0
 20
0.0
 30
0.0
  3
*U21
  1

  0
TEXT
  5
21B
  8
┌▓È_1
  6
CONTINUOUS
 10
855.45457020949993
 20
-306.141785339602
 30
0.0
 40
2.337499999999999
  1
 É╗É}ü@ü@ è¦û{
  0
ENDBLK
  5
21D
  8
0
  0
BLOCK
  8
0
  2
*U22
 70
     1
 10
0.0
 20
0.0
 30
0.0
  3
*U22
  1

  0
TEXT
  5
21F
  8
┌▓È_1
  6
CONTINUOUS
 10
855.91995602079999
 20
-293.29686148173403
 30
0.0
 40
2.337499999999999
  1
ü@ô· ü@òt
  0
ENDBLK
  5
221
  8
0
  0
BLOCK
  8
0
  2
*U23
 70
     1
 10
0.0
 20
0.0
 30
0.0
  3
*U23
  1

  0
TEXT
  5
223
  8
┌▓È_1
  6
CONTINUOUS
 10
920.34506966320009
 20
-293.30355931370099
 30
0.0
 40
2.337499999999999
  1
î^öÈ
  0
ENDBLK
  5
225
  8
0
  0
BLOCK
  8
0
  2
*U24
 70
     1
 10
0.0
 20
0.0
 30
0.0
  3
*U24
  1

  0
TEXT
  5
227
  8
┌▓È_1
  6
CONTINUOUS
 10
920.34506966320009
 20
-301.82729027816799
 30
0.0
 40
2.337499999999999
  1
òiû╝
  0
ENDBLK
  5
229
  8
0
  0
BLOCK
  8
0
  2
*U25
 70
     1
 10
0.0
 20
0.0
 30
0.0
  3
*U25
  1

  0
TEXT
  5
22B
  8
┌▓È_1
  6
CONTINUOUS
 10
920.34506966320009
 20
-310.30355931370099
 30
0.0
 40
2.337499999999999
  1
É}öÈ
  0
ENDBLK
  5
22D
  8
0
  0
BLOCK
  8
0
  2
*U26
 70
     1
 10
0.0
 20
0.0
 30
0.0
  3
*U26
  1

  0
TEXT
  5
22F
  8
┌▓È_1
  6
CONTINUOUS
 62
     5
 10
859.63981767142877
 20
-297.49939955280001
 30
0.0
 40
2.337499999999999
  1
H16.4
  0
ENDBLK
  5
231
  8
0
  0
BLOCK
  8
0
  2
*U27
 70
     1
 10
0.0
 20
0.0
 30
0.0
  3
*U27
  1

  0
TEXT
  5
233
  8
┌▓È_1
  6
CONTINUOUS
 62
     5
 10
878.05444330594662
 20
-297.641785339602
 30
0.0
 40
2.337499999999999
  1
ôS
  0
ENDBLK
  5
235
  8
0
  0
BLOCK
  8
0
  2
*U28
 70
     1
 10
0.0
 20
0.0
 30
0.0
  3
*U28
  1

  0
TEXT
  5
237
  8
┌▓È_1
  6
CONTINUOUS
 62
     5
 10
892.44073772219031
 20
-297.49939955280001
 30
0.0
 40
2.337499999999999
  1
3.0t
  0
ENDBLK
  5
239
  8
0
  0
BLOCK
  8
0
  2
*U29
 70
     1
 10
0.0
 20
0.0
 30
0.0
  3
*U29
  1

  0
TEXT
  5
23B
  8
┌▓È_1
  6
CONTINUOUS
 62
     5
 10
892.56532528564196
 20
-305.9993995527999
 30
0.0
 40
2.337499999999999
  1
1üF1
  0
ENDBLK
  5
23D
  8
0
  0
BLOCK
  8
0
  2
*U30
 70
     1
 10
0.0
 20
0.0
 30
0.0
  3
*U30
  1

  0
TEXT
  5
23F
  8
┌▓È_1
  6
CONTINUOUS
 10
871.91995602079999
 20
-293.33245792843451
 30
0.0
 40
2.337499999999999
  1
ü@ìÌ ü@Ä┐
  0
ENDBLK
  5
241
  8
0
  0
BLOCK
  8
0
  2
*U31
 70
     1
 10
0.0
 20
0.0
 30
0.0
  3
*U31
  1

  0
TEXT
  5
243
  8
┌▓È_1
  6
CONTINUOUS
 10
887.91995602079999
 20
-293.37991985736852
 30
0.0
 40
2.337499999999999
  1
ü@ö┬ ü@î·
  0
ENDBLK
  5
245
  8
0
  0
BLOCK
  8
0
  2
*U32
 70
     1
 10
0.0
 20
0.0
 30
0.0
  3
*U32
  1

  0
TEXT
  5
247
  8
┌▓È_1
  6
CONTINUOUS
 10
887.91995602079999
 20
-301.86805437513499
 30
0.0
 40
2.337499999999999
  1
ü@Ä┌ ü@ôx
  0
ENDBLK
  5
249
  8
0
  0
BLOCK
  8
0
  2
*U33
 70
     1
 10
0.0
 20
0.0
 30
0.0
  3
*U33
  1

  0
TEXT
  5
24B
  8
┌▓È_1
  6
CONTINUOUS
 10
903.91995602079999
 20
-293.37991985736852
 30
0.0
 40
2.337499999999999
  1
ü@îƒ ü@ê¾
  0
ENDBLK
  5
24D
  8
0
  0
BLOCK
  8
0
  2
*D34
 70
     1
 10
0.0
 20
0.0
 30
0.0
  3
*D34
  1

  0
LINE
  5
250
  8
Éíû@É³
 62
     0
 10
936.59240527932434
 20
-193.0124438336758
 30
0.0
 11
947.42888560108543
 21
-182.1759635119146
 31
0.0
  0
LINE
  5
251
  8
Éíû@É³
 62
     0
 10
895.44335675987566
 20
-193.0124438336758
 30
0.0
 11
884.60687643811445
 21
-182.17596351191469
 31
0.0
  0
ARC
  5
252
  8
Éíû@É³
 62
     0
 10
916.01788101960005
 20
-213.5869680934
 30
0.0
 40
43.171868686900012
 50
48.982267769010832
 51
83.832893309880447
  0
ARC
  5
253
  8
Éíû@É³
 62
     0
 10
916.01788101960005
 20
-213.5869680934
 30
0.0
 40
43.171868686900012
 50
96.167106690119553
 51
131.01773223098931
  0
SOLID
  5
254
  8
Éíû@É³
 62
     0
 10
944.69231341108639
 20
-180.64788833808649
 30
0.0
 11
944.01020188739164
 21
-181.37913649654081
 31
0.0
 12
946.54500212460221
 22
-183.05984698839779
 32
0.0
 13
946.54500212460221
 23
-183.05984698839779
 33
0.0
  0
SOLID
  5
255
  8
Éíû@É³
 62
     0
 10
888.02556015180835
 20
-181.37913649654089
 30
0.0
 11
887.34344862811349
 21
-180.6478883380866
 31
0.0
 12
885.49075991459779
 22
-183.05984698839791
 32
0.0
 13
885.49075991459779
 23
-183.05984698839791
 33
0.0
  0
TEXT
  8
Éíû@É³
  40
2.99861
  5
27B
  62
0
  72
0
  71
0
 10
910.021
 20
-175.723
 30
0.000000
  1
90üï
  0
POINT
  5
257
  8
Defpoints
 62
     0
 10
916.01788101960005
 20
-213.5869680934
 30
0.0
  0
POINT
  5
258
  8
Defpoints
 62
     0
 10
936.54821110549995
 20
-193.0566380075
 30
0.0
  0
POINT
  5
259
  8
Defpoints
 62
     0
 10
895.48755093369982
 20
-193.0566380075
 30
0.0
  0
POINT
  5
25A
  8
Defpoints
 62
     0
 10
927.1915828484349
 20
-171.88614515956289
 30
0.0
  0
ENDBLK
  5
25C
  8
0
  0
BLOCK
  8
0
  2
*D35
 70
     1
 10
0.0
 20
0.0
 30
0.0
  3
*D35
  1

  0
LINE
  5
25E
  8
Éíû@É³
 62
     0
 10
790.24982546399985
 20
-207.34952212979999
 30
0.0
 11
768.82823767805291
 21
-207.34952212979991
 31
0.0
  0
LINE
  5
25F
  8
Éíû@É³
 62
     0
 10
748.31232546399985
 20
-165.41202212979991
 30
0.0
 11
748.31232546399985
 21
-186.83360991574679
 31
0.0
  0
ARC
  5
260
  8
Éíû@É³
 62
     0
 10
748.31232546399974
 20
-207.34952212979991
 30
0.0
 40
21.76591221405312
 50
7.90335298668532
 51
36.932515700872131
  0
ARC
  5
261
  8
Éíû@É³
 62
     0
 10
748.31232546399974
 20
-207.34952212979991
 30
0.0
 40
21.76591221405312
 50
61.538403627998008
 51
82.096647013314467
  0
SOLID
  5
262
  8
Éíû@É³
 62
     0
 10
770.37030364455336
 20
-204.32219699509571
 30
0.0
 11
769.37268111618982
 21
-204.39111209432281
 31
0.0
 12
770.07823767805269
 22
-207.34952212979991
 32
0.0
 13
770.07823767805269
 23
-207.34952212979991
 33
0.0
  0
SOLID
  5
263
  8
Éíû@É³
 62
     0
 10
751.27073549947693
 20
-186.28916647760991
 30
0.0
 11
751.339650598704
 21
-185.29154394924629
 31
0.0
 12
748.31232546399974
 22
-185.58360991574679
 32
0.0
 13
748.31232546399974
 23
-185.58360991574679
 33
0.0
  0
TEXT
  8
Éíû@É³
  40
2.99861
  5
27C
  62
0
  72
0
  71
0
 10
756.527
 20
-196.172
 30
0.000000
  1
90üï
  0
POINT
  5
265
  8
Defpoints
 62
     0
 10
748.31232546399974
 20
-207.34952212979991
 30
0.0
  0
POINT
  5
266
  8
Defpoints
 62
     0
 10
790.31232546399974
 20
-207.34952212979999
 30
0.0
  0
POINT
  5
267
  8
Defpoints
 62
     0
 10
748.31232546399985
 20
-165.34952212979991
 30
0.0
  0
POINT
  5
268
  8
Defpoints
 62
     0
 10
767.16215837791185
 20
-196.46656602277341
 30
0.0
  0
ENDBLK
  5
26A
  8
0
  0
BLOCK
  8
0
  2
*U36
 70
     1
 10
0.0
 20
0.0
 30
0.0
  3
*U36
  1

  0
TEXT
  5
26C
  8
┌▓È_1
  6
CONTINUOUS
 10
862.6751239342999
 20
-313.45880600936653
 30
0.0
 40
4.3179999351999987
  1
èöÄ«ë´Äð
  0
ENDBLK
  5
26E
  8
0
  0
BLOCK
  8
0
  2
*U37
 70
     1
 10
0.0
 20
0.0
 30
0.0
  3
*U37
  1

  0
TEXT
  5
270
  8
┌▓È_1
  6
CONTINUOUS
 10
855.45457020949993
 20
-288.78517184262898
 30
0.0
 40
3.5983331442000002
  1
ò\û╩ÅêùØüFâåâjâNâìâüâbâLÄdÅÒé░
  0
ENDBLK
  5
272
  8
0
  0
BLOCK
  8
0
  2
*U38
 70
     1
 10
0.0
 20
0.0
 30
0.0
  3
*U38
  1

  0
TEXT
  5
274
  8
┌▓È_1
  6
CONTINUOUS
 10
933.33467420698366
 20
-296.25347703030002
 30
0.0
 40
3.5983331442000002
  1
LY-203  45x45
  0
ENDBLK
  5
276
  8
0
  0
BLOCK
  8
0
  2
*U39
 70
     1
 10
0.0
 20
0.0
 30
0.0
  3
*U39
  1

  0
TEXT
  5
278
  8
┌▓È_1
  6
CONTINUOUS
 10
934.85971847739995
 20
-305.0153585560634
 30
0.0
 40
3.5983331442000002
  1
ékî^âAâôâOâï
  0
ENDBLK
  5
27A
  8
0
  0
ENDSEC
  0
SECTION
  2
ENTITIES
  0
DIMENSION
  5
3E
  8
Éíû@É³
  2
*D0
 10
784.31232546399997
 20
-242.44026287060001
 30
0.0
 11
770.31232546399985
 21
-242.44026287060001
 31
0.0
 70
   128
  1
<>
 13
784.31232546399997
 23
-254.44026287060001
 33
0.0
 14
756.31232546399985
 24
-254.44026287060001
 34
0.0
  0
DIMENSION
  5
4D
  8
Éíû@É³
  2
*D1
 10
801.31232546399985
 20
-260.44026287060001
 30
0.0
 11
801.31232546399985
 21
-248.0939862502
 31
0.0
 70
   128
  1
<>
 13
791.31232546399985
 23
-260.44026287060001
 33
0.0
 14
790.31232546399985
 24
-252.44026287060001
 34
0.0
 50
90.0
  0
DIMENSION
  5
5C
  8
Éíû@É³
  2
*D2
 10
906.01788101960005
 20
-223.52069725999999
 30
0.0
 11
916.01788101960005
 21
-223.52069725999999
 31
0.0
 70
   128
  1
%%c4
 13
906.01788101960005
 23
-208.5869680934
 33
0.0
 14
926.01788101960005
 24
-208.5869680934
 34
0.0
 50
180.0
  0
DIMENSION
  5
6B
  8
Éíû@É³
  2
*D3
 10
936.01788101960005
 20
-183.5869680934
 30
0.0
 11
916.01788101960005
 21
-183.5869680934
 31
0.0
 70
   128
  1
%%c8
 13
936.01788101960005
 23
-193.5869680934
 33
0.0
 14
896.01788101960005
 24
-193.5869680934
 34
0.0
  0
DIMENSION
  5
7A
  8
Éíû@É³
  2
*D4
 10
853.95071435289981
 20
-147.3869550002
 30
0.0
 11
845.95071435289981
 21
-147.3869550002
 31
0.0
 70
   128
  1
<>
 13
853.95071435289981
 23
-165.34952212979999
 33
0.0
 14
837.95071435289981
 24
-165.34952212979999
 34
0.0
  0
DIMENSION
  5
89
  8
Éíû@É³
  2
*D5
 10
853.95071435289981
 20
-155.34952212979999
 30
0.0
 11
859.74880463070008
 21
-155.34952212979999
 31
0.0
 70
   128
  1
<>
 13
853.95071435289981
 23
-165.34952212979999
 33
0.0
 14
845.95071435289981
 24
-165.34952212979999
 34
0.0
  0
DIMENSION
  5
98
  8
Éíû@É³
  2
*D6
 10
728.95676897600003
 20
-165.34952212979999
 30
0.0
 11
728.95676897600003
 21
-187.84952212979999
 31
0.0
 70
   128
  1
<>
 13
745.31232546399985
 23
-165.34952212979999
 33
0.0
 14
745.31232546399985
 24
-210.34952212979999
 34
0.0
 50
90.0
  0
DIMENSION
  5
A7
  8
Éíû@É³
  2
*D7
 10
745.31232546399985
 20
-220.34952212979999
 30
0.0
 11
767.81232546399997
 21
-220.34952212979999
 31
0.0
 70
   128
  1
<>
 13
745.31232546399985
 23
-207.34952212979999
 33
0.0
 14
790.31232546399985
 24
-210.34952212979999
 34
0.0
 50
180.0
  0
DIMENSION
  5
B6
  8
Éíû@É³
  2
*D8
 10
827.95071435289992
 20
-165.34952212979999
 30
0.0
 11
827.95071435289992
 21
-168.34952212979999
 31
0.0
 70
   128
  1
<>
 13
837.95071435289981
 23
-165.34952212979999
 33
0.0
 14
839.95071435290004
 24
-171.34952212979999
 34
0.0
 50
90.0
  0
DIMENSION
  5
C5
  8
Éíû@É³
  2
*D9
 10
827.95071435289992
 20
-199.34952212979999
 30
0.0
 11
827.95071435289992
 21
-204.84952212979999
 31
0.0
 70
   128
  1
<>
 13
839.95071435290004
 23
-199.34952212979999
 33
0.0
 14
837.95071435289981
 24
-210.34952212979999
 34
0.0
 50
90.0
  0
DIMENSION
  5
D4
  8
Éíû@É³
  2
*D10
 10
827.95071435289992
 20
-171.34952212979999
 30
0.0
 11
827.95071435289992
 21
-185.34952212979999
 31
0.0
 70
   128
  1
<>
 13
839.95071435290004
 23
-171.34952212979999
 33
0.0
 14
839.95071435290004
 24
-199.34952212979999
 34
0.0
 50
90.0
  0
DIMENSION
  5
E3
  8
Éíû@É³
  2
*D11
 10
790.31232546399985
 20
-242.44026287060001
 30
0.0
 11
787.31232546399997
 21
-242.44026287060001
 31
0.0
 70
   128
  1
<>
 13
790.31232546399985
 23
-252.44026287060001
 33
0.0
 14
784.31232546399997
 24
-254.44026287060001
 34
0.0
  0
DIMENSION
  5
F2
  8
Éíû@É³
  2
*D12
 10
756.31232546399985
 20
-242.44026287060001
 30
0.0
 11
750.81232546399997
 21
-242.44026287060001
 31
0.0
 70
   128
  1
<>
 13
756.31232546399985
 23
-254.44026287060001
 33
0.0
 14
745.31232546399985
 24
-252.44026287060001
 34
0.0
  0
DIMENSION
  5
101
  8
Éíû@É³
  2
*D13
 10
845.95071435289981
 20
-155.34952212979999
 30
0.0
 11
830.90510700520008
 21
-155.34952212979999
 31
0.0
 70
   128
  1
<>
 13
845.95071435289981
 23
-165.34952212979999
 33
0.0
 14
837.95071435289981
 24
-165.34952212979999
 34
0.0
  0
DIMENSION
  5
110
  8
Éíû@É³
  2
*D14
 10
801.31232546399985
 20
-268.44026287060001
 30
0.0
 11
801.31232546399985
 21
-274.66778578700001
 31
0.0
 70
   128
  1
<>
 13
790.31232546399985
 23
-268.44026287060001
 33
0.0
 14
791.31232546399985
 24
-260.44026287060001
 34
0.0
 50
90.0
  0
DIMENSION
  5
11F
  8
Éíû@É³
  2
*D15
 10
735.31232546399985
 20
-252.44026287060001
 30
0.0
 11
735.31232546399985
 21
-260.44026287060001
 31
0.0
 70
   128
  1
<>
 13
745.31232546399985
 23
-252.44026287060001
 33
0.0
 14
745.31232546399985
 24
-268.44026287060001
 34
0.0
 50
90.0
  0
DIMENSION
  5
12E
  8
Éíû@É³
  2
*D16
 10
748.31232546399985
 20
-151.3248169842
 30
0.0
 11
754.62485281140005
 21
-151.3248169842
 31
0.0
 70
   128
  1
<>t
 13
748.31232546399985
 23
-165.34952212979999
 33
0.0
 14
745.31232546399985
 24
-165.34952212979999
 34
0.0
  0
INSERT
  5
130
  8
0
  6
CONTINUOUS
  2
*U19
 10
0.0
 20
0.0
 30
0.0
  0
LINE
  5
131
  8
┌▓È_1
 10
903.03732546399999
 20
-235.3369680934
 30
0.0
 11
928.42287689629995
 21
-235.3369680934
 31
0.0
  0
LINE
  5
132
  8
┌▓È_1
 62
     5
 10
700.45457020949993
 20
-315.70636614540001
 30
0.0
 11
700.45457020949993
 21
-125.7063661454
 31
0.0
  0
LINE
  5
133
  8
┌▓È_1
 62
     5
 10
975.45457020949993
 20
-315.70636614540001
 30
0.0
 11
975.45457020949993
 21
-125.7063661454
 31
0.0
  0
LINE
  5
134
  8
┌▓È_1
 10
873.45457020949993
 20
-294.45636614540001
 30
0.0
 11
885.45457020949982
 21
-294.45636614540001
 31
0.0
  0
LINE
  5
135
  8
┌▓È_1
 10
857.45457020949993
 20
-302.95636614540001
 30
0.0
 11
885.45457020949982
 21
-302.95636614540001
 31
0.0
  0
LINE
  5
136
  8
┌▓È_1
 10
889.45457020949993
 20
-294.45636614540001
 30
0.0
 11
901.45457020949993
 21
-294.45636614540001
 31
0.0
  0
LINE
  5
137
  8
┌▓È_1
 10
889.45457020949993
 20
-302.95636614540001
 30
0.0
 11
901.45457020949993
 21
-302.95636614540001
 31
0.0
  0
INSERT
  5
138
  8
0
  6
CONTINUOUS
  2
*U20
 10
0.0
 20
0.0
 30
0.0
  0
INSERT
  5
139
  8
0
  6
CONTINUOUS
  2
*U21
 10
0.0
 20
0.0
 30
0.0
  0
INSERT
  5
13A
  8
0
  6
CONTINUOUS
  2
*U22
 10
0.0
 20
0.0
 30
0.0
  0
INSERT
  5
13B
  8
0
  6
CONTINUOUS
  2
*U23
 10
0.0
 20
0.0
 30
0.0
  0
INSERT
  5
13C
  8
0
  6
CONTINUOUS
  2
*U24
 10
0.0
 20
0.0
 30
0.0
  0
INSERT
  5
13D
  8
0
  6
CONTINUOUS
  2
*U25
 10
0.0
 20
0.0
 30
0.0
  0
INSERT
  5
13E
  8
0
  6
CONTINUOUS
  2
*U26
 10
0.0
 20
0.0
 30
0.0
  0
INSERT
  5
13F
  8
0
  6
CONTINUOUS
  2
*U27
 10
0.0
 20
0.0
 30
0.0
  0
INSERT
  5
140
  8
0
  6
CONTINUOUS
  2
*U28
 10
0.0
 20
0.0
 30
0.0
  0
INSERT
  5
141
  8
0
  6
CONTINUOUS
  2
*U29
 10
0.0
 20
0.0
 30
0.0
  0
INSERT
  5
142
  8
0
  6
CONTINUOUS
  2
*U30
 10
0.0
 20
0.0
 30
0.0
  0
INSERT
  5
143
  8
0
  6
CONTINUOUS
  2
*U31
 10
0.0
 20
0.0
 30
0.0
  0
INSERT
  5
144
  8
0
  6
CONTINUOUS
  2
*U32
 10
0.0
 20
0.0
 30
0.0
  0
INSERT
  5
145
  8
0
  6
CONTINUOUS
  2
*U33
 10
0.0
 20
0.0
 30
0.0
  0
LINE
  5
146
  8
┌▓È_1
 10
855.45457020949993
 20
-298.70636614540001
 30
0.0
 11
903.45457020950005
 21
-298.70636614540001
 31
0.0
  0
LINE
  5
147
  8
┌▓È_1
 10
919.45457020949982
 20
-298.70636614540001
 30
0.0
 11
975.45457020949993
 21
-298.70636614540001
 31
0.0
  0
LINE
  5
148
  8
┌▓È_1
 10
903.45457020950005
 20
-294.45636614540001
 30
0.0
 11
919.45457020949982
 21
-294.45636614540001
 31
0.0
  0
DIMENSION
  5
156
  8
Éíû@É³
  2
*D34
 10
927.1915828484349
 20
-171.88614515956289
 30
0.0
 11
916.01788101960005
 21
-170.41509940649999
 31
0.0
 70
   133
  1
<>
 13
895.48755093369982
 23
-193.0566380075
 33
0.0
 14
936.54821110549995
 24
-193.0566380075
 34
0.0
 15
916.01788101960005
 25
-213.5869680934
 35
0.0
1001
ACAD
1000
DSTYLE
1002
{
1070
   271
1070
     0
1002
}
  0
DIMENSION
  5
163
  8
Éíû@É³
  2
*D35
 10
767.16215837791185
 20
-196.46656602277341
 30
0.0
 11
762.52442102350005
 21
-190.86403535150001
 31
0.0
 70
   133
  1
<>
 13
748.31232546399985
 23
-165.34952212979999
 33
0.0
 14
790.31232546399985
 24
-207.34952212979999
 34
0.0
 15
748.31232546399985
 25
-207.34952212979999
 35
0.0
1001
ACAD
1000
DSTYLE
1002
{
1070
   271
1070
     0
1002
}
  0
LINE
  5
164
  8
┌▓È_1
 62
     5
 10
912.83194600449997
 20
-313.4582277719
 30
0.0
 11
914.75424254259985
 21
-313.4582277719
 31
0.0
  0
LINE
  5
165
  8
┌▓È_1
 62
     5
 10
891.65177157549999
 20
-312.5782277719
 30
0.0
 11
891.65177157549999
 21
-311.37822777190001
 31
0.0
  0
LINE
  5
166
  8
┌▓È_1
 62
     5
 10
907.55424254259981
 20
-312.0182277719
 30
0.0
 11
907.55424254259981
 21
-313.4582277719
 31
0.0
  0
LINE
  5
167
  8
┌▓È_1
 62
     5
 10
907.55424254259981
 20
-311.37822777190001
 30
0.0
 11
909.97557587589995
 21
-311.37822777190001
 31
0.0
  0
LINE
  5
168
  8
┌▓È_1
 62
     5
 10
914.75424254259985
 20
-309.93822777190002
 30
0.0
 11
914.75424254259985
 21
-311.37822777190001
 31
0.0
  0
LINE
  5
169
  8
┌▓È_1
 62
     5
 10
898.58025642400003
 20
-310.0182277719
 30
0.0
 11
902.58025642399991
 21
-310.0182277719
 31
0.0
  0
LINE
  5
16A
  8
┌▓È_1
 62
     5
 10
892.05177157549997
 20
-312.97822777189998
 30
0.0
 11
889.65177157549988
 21
-312.97822777189998
 31
0.0
  0
LINE
  5
16B
  8
┌▓È_1
 62
     5
 10
910.91424254259982
 20
-314.5782277719
 30
0.0
 11
910.58570920930003
 21
-313.4582277719
 31
0.0
  0
LINE
  5
16C
  8
┌▓È_1
 62
     5
 10
912.41756474110002
 20
-312.0182277719
 30
0.0
 11
912.23339529079999
 21
-311.37822777190001
 31
0.0
  0
LINE
  5
16D
  8
┌▓È_1
 62
     5
 10
889.65177157549988
 20
-312.97822777189998
 30
0.0
 11
889.65177157549988
 21
-314.17822777190003
 31
0.0
  0
LINE
  5
16E
  8
┌▓È_1
 62
     5
 10
889.65177157549988
 20
-311.37822777190001
 30
0.0
 11
889.53088852630003
 21
-311.37822777190001
 31
0.0
  0
LINE
  5
16F
  8
┌▓È_1
 62
     5
 10
905.78025642399984
 20
-312.97822777189998
 30
0.0
 11
905.78025642399984
 21
-314.17822777190003
 31
0.0
  0
LINE
  5
170
  8
┌▓È_1
 62
     5
 10
914.75424254259985
 20
-312.0182277719
 30
0.0
 11
914.75424254259985
 21
-313.4582277719
 31
0.0
  0
LINE
  5
171
  8
┌▓È_1
 62
     5
 10
889.65177157549988
 20
-310.17822777190003
 30
0.0
 11
888.73088852630008
 21
-310.17822777190003
 31
0.0
  0
LINE
  5
172
  8
┌▓È_1
 62
     5
 10
898.58025642400003
 20
-314.17822777190003
 30
0.0
 11
898.58025642400003
 21
-312.97822777189998
 31
0.0
  0
LINE
  5
173
  8
┌▓È_1
 62
     5
 10
891.65177157549999
 20
-310.17822777190003
 30
0.0
 11
891.65177157549999
 21
-309.77822777189999
 31
0.0
  0
LINE
  5
174
  8
┌▓È_1
 62
     5
 10
910.91424254259982
 20
-314.5782277719
 30
0.0
 11
913.15424254259995
 21
-314.5782277719
 31
0.0
  0
LINE
  5
175
  8
┌▓È_1
 62
     5
 10
896.45177157549995
 20
-310.17822777190003
 30
0.0
 11
896.45177157549995
 21
-311.37822777190001
 31
0.0
  0
LINE
  5
176
  8
┌▓È_1
 62
     5
 10
888.73088852630008
 20
-310.17822777190003
 30
0.0
 11
888.73088852630008
 21
-311.37822777190001
 31
0.0
  0
LINE
  5
177
  8
┌▓È_1
 62
     5
 10
898.58025642400003
 20
-310.69360419989999
 30
0.0
 11
898.58025642400003
 21
-310.43591598590001
 31
0.0
  0
LINE
  5
178
  8
┌▓È_1
 62
     5
 10
901.78025642399996
 20
-310.43591598590001
 30
0.0
 11
901.32770808400005
 21
-310.88846432589997
 31
0.0
  0
LINE
  5
179
  8
┌▓È_1
 10
887.45457020950005
 20
-290.20636614540001
 30
0.0
 11
887.45457020950005
 21
-307.20636614540001
 31
0.0
  0
LINE
  5
17A
  8
┌▓È_1
 10
857.45457020949993
 20
-294.45636614540001
 30
0.0
 11
869.45457020949982
 21
-294.45636614540001
 31
0.0
  0
LINE
  5
17B
  8
┌▓È_1
 62
     5
 10
700.45457020949993
 20
-125.7063661454
 30
0.0
 11
975.45457020949993
 21
-125.7063661454
 31
0.0
  0
LINE
  5
17C
  8
┌▓È_1
 62
     5
 10
700.45457020949993
 20
-315.70636614540001
 30
0.0
 11
975.45457020949993
 21
-315.70636614540001
 31
0.0
  0
LINE
  5
17D
  8
┌▓È_1
 62
     5
 10
907.55424254259981
 20
-312.0182277719
 30
0.0
 11
910.16330920929988
 21
-312.0182277719
 31
0.0
  0
LINE
  5
17E
  8
┌▓È_1
 62
     5
 10
888.73088852630008
 20
-311.37822777190001
 30
0.0
 11
889.53088852630003
 21
-311.37822777190001
 31
0.0
  0
ARC
  5
17F
  8
┌▓È_1
 62
     5
 10
900.58025642399991
 20
-309.77822777189999
 30
0.0
 40
4.4000000000000004
 50
270.0
 51
302.54495885400001
  0
LINE
  5
180
  8
┌▓È_1
 62
     5
 10
895.25177157550002
 20
-311.37822777190001
 30
0.0
 11
896.45177157549995
 21
-311.37822777190001
 31
0.0
  0
ARC
  5
181
  8
┌▓È_1
 62
     5
 10
899.54025642399995
 20
-309.93822777190002
 30
0.0
 40
3.04
 50
331.39928138329998
 51
358.49204224580001
  0
LINE
  5
182
  8
┌▓È_1
 62
     5
 10
898.58025642400003
 20
-314.17822777190003
 30
0.0
 11
900.58025642399991
 21
-314.17822777190003
 31
0.0
  0
LINE
  5
183
  8
┌▓È_1
 62
     5
 10
889.65177157549988
 20
-314.17822777190003
 30
0.0
 11
892.85177157550015
 21
-314.17822777190003
 31
0.0
  0
LINE
  5
184
  8
┌▓È_1
 62
     5
 10
904.98025642399978
 20
-309.77822777189999
 30
0.0
 11
905.78025642399984
 21
-308.5782277719
 31
0.0
  0
LINE
  5
185
  8
┌▓È_1
 62
     5
 10
909.15424254259983
 20
-308.5782277719
 30
0.0
 11
912.35424254259999
 21
-308.5782277719
 31
0.0
  0
LINE
  5
186
  8
┌▓È_1
 62
     5
 10
898.58025642400003
 20
-312.97822777189998
 30
0.0
 11
899.54025642399995
 21
-312.97822777189998
 31
0.0
  0
LINE
  5
187
  8
┌▓È_1
 62
     5
 10
898.58025642400003
 20
-312.97822777189998
 30
0.0
 11
898.58025642400003
 21
-314.17822777190003
 31
0.0
  0
ARC
  5
188
  8
┌▓È_1
 62
     5
 10
899.54025642399995
 20
-309.93822777190002
 30
0.0
 40
3.04
 50
270.0
 51
298.08590481520002
  0
LINE
  5
189
  8
┌▓È_1
 62
     5
 10
904.07043190560012
 20
-312.45753273909997
 30
0.0
 11
903.92795025780015
 21
-312.59703525449999
 31
0.0
  0
LINE
  5
18A
  8
┌▓È_1
 62
     5
 10
889.65177157549988
 20
-311.37822777190001
 30
0.0
 11
889.65177157549988
 21
-312.5782277719
 31
0.0
  0
INSERT
  5
18B
  8
0
  6
CONTINUOUS
  2
*U36
 10
0.0
 20
0.0
 30
0.0
  0
LINE
  5
18C
  8
┌▓È_1
 62
     5
 10
911.81901402740004
 20
-309.93822777190002
 30
0.0
 11
914.75424254259985
 21
-309.93822777190002
 31
0.0
  0
LINE
  5
18D
  8
┌▓È_1
 62
     5
 10
909.55317587589991
 20
-309.93822777190002
 30
0.0
 11
909.15424254259983
 21
-308.5782277719
 31
0.0
  0
LINE
  5
18E
  8
┌▓È_1
 62
     5
 10
889.65177157549988
 20
-308.5782277719
 30
0.0
 11
889.65177157549988
 21
-310.17822777190003
 31
0.0
  0
LINE
  5
18F
  8
┌▓È_1
 62
     5
 10
891.65177157549999
 20
-309.77822777189999
 30
0.0
 11
892.85177157550015
 21
-308.5782277719
 31
0.0
  0
LINE
  5
190
  8
┌▓È_1
 62
     5
 10
892.85177157550015
 20
-308.5782277719
 30
0.0
 11
889.65177157549988
 21
-308.5782277719
 31
0.0
  0
LINE
  5
191
  8
┌▓È_1
 62
     5
 10
893.25177157550002
 20
-310.17822777190003
 30
0.0
 11
891.65177157549999
 21
-310.17822777190003
 31
0.0
  0
LINE
  5
192
  8
┌▓È_1
 62
     5
 10
911.70189862730001
 20
-309.53124465949998
 30
0.0
 11
912.35424254259999
 21
-308.5782277719
 31
0.0
  0
ARC
  5
193
  8
┌▓È_1
 62
     5
 10
892.85177157550015
 20
-311.77822777189999
 30
0.0
 40
2.399999999999999
 50
270.0
 51
0.0
  0
LINE
  5
194
  8
┌▓È_1
 62
     5
 10
898.58025642400003
 20
-308.5782277719
 30
0.0
 11
898.58025642400003
 21
-310.0182277719
 31
0.0
  0
LINE
  5
195
  8
┌▓È_1
 62
     5
 10
896.45177157549995
 20
-308.5782277719
 30
0.0
 11
893.25177157550002
 21
-308.5782277719
 31
0.0
  0
LINE
  5
196
  8
┌▓È_1
 10
855.45457020949993
 20
-307.20636614540001
 30
0.0
 11
975.45457020949993
 21
-307.20636614540001
 31
0.0
  0
LINE
  5
197
  8
┌▓È_1
 10
871.45457020950005
 20
-290.20636614540001
 30
0.0
 11
871.45457020950005
 21
-298.70636614540001
 31
0.0
  0
LINE
  5
198
  8
┌▓È_1
 10
903.45457020950005
 20
-290.20636614540001
 30
0.0
 11
903.45457020950005
 21
-307.20636614540001
 31
0.0
  0
LINE
  5
199
  8
┌▓È_1
 62
     5
 10
907.55424254259981
 20
-309.93822777190002
 30
0.0
 11
907.55424254259981
 21
-311.37822777190001
 31
0.0
  0
LINE
  5
19A
  8
┌▓È_1
 62
     5
 10
895.25177157550002
 20
-311.77822777189999
 30
0.0
 11
895.25177157550002
 21
-311.37822777190001
 31
0.0
  0
LINE
  5
19B
  8
┌▓È_1
 62
     5
 10
898.58025642400003
 20
-310.43591598590001
 30
0.0
 11
901.78025642399996
 21
-310.43591598590001
 31
0.0
  0
LINE
  5
19C
  8
┌▓È_1
 62
     5
 10
902.20930641730013
 20
-311.39348449599999
 30
0.0
 11
902.01682977229984
 21
-311.60607518450001
 31
0.0
  0
ARC
  5
19D
  8
┌▓È_1
 62
     5
 10
892.05177157549997
 20
-311.77822777189999
 30
0.0
 40
1.1999999999999991
 50
270.0
 51
0.0
  0
LINE
  5
19E
  8
┌▓È_1
 62
     5
 10
893.25177157550002
 20
-308.5782277719
 30
0.0
 11
893.25177157550002
 21
-310.17822777190003
 31
0.0
  0
LINE
  5
19F
  8
┌▓È_1
 62
     5
 10
912.23339529079999
 20
-311.37822777190001
 30
0.0
 11
914.75424254259985
 21
-311.37822777190001
 31
0.0
  0
LINE
  5
1A0
  8
┌▓È_1
 62
     5
 10
904.98025642399978
 20
-309.77822777189999
 30
0.0
 11
905.78025642399984
 21
-308.5782277719
 31
0.0
  0
LINE
  5
1A1
  8
┌▓È_1
 62
     5
 10
910.16330920929988
 20
-312.0182277719
 30
0.0
 11
909.97557587589995
 21
-311.37822777190001
 31
0.0
  0
LINE
  5
1A2
  8
┌▓È_1
 62
     5
 10
895.25177157550002
 20
-309.77822777189999
 30
0.0
 11
896.45177157549995
 21
-308.5782277719
 31
0.0
  0
LINE
  5
1A3
  8
┌▓È_1
 62
     5
 10
889.65177157549988
 20
-312.5782277719
 30
0.0
 11
891.65177157549999
 21
-312.5782277719
 31
0.0
  0
LINE
  5
1A4
  8
┌▓È_1
 62
     5
 10
905.78025642399984
 20
-308.5782277719
 30
0.0
 11
898.58025642400003
 21
-308.5782277719
 31
0.0
  0
LINE
  5
1A5
  8
┌▓È_1
 62
     5
 10
911.81901402740004
 20
-309.93822777190002
 30
0.0
 11
911.70189862730001
 21
-309.53124465949998
 31
0.0
  0
LINE
  5
1A6
  8
┌▓È_1
 62
     5
 10
907.55424254259981
 20
-313.4582277719
 30
0.0
 11
910.58570920930003
 21
-313.4582277719
 31
0.0
  0
ARC
  5
1A7
  8
┌▓È_1
 62
     5
 10
900.58025642399991
 20
-309.77822777189999
 30
0.0
 40
4.4000000000000004
 50
322.48761197969998
 51
0.0
  0
LINE
  5
1A8
  8
┌▓È_1
 62
     5
 10
912.41756474110002
 20
-312.0182277719
 30
0.0
 11
914.75424254259985
 21
-312.0182277719
 31
0.0
  0
LINE
  5
1A9
  8
┌▓È_1
 62
     5
 10
913.15424254259995
 20
-314.5782277719
 30
0.0
 11
912.83194600449997
 21
-313.4582277719
 31
0.0
  0
LINE
  5
1AA
  8
┌▓È_1
 62
     5
 10
891.65177157549999
 20
-311.37822777190001
 30
0.0
 11
893.25177157550002
 21
-311.37822777190001
 31
0.0
  0
LINE
  5
1AB
  8
┌▓È_1
 62
     5
 10
893.25177157550002
 20
-311.37822777190001
 30
0.0
 11
893.25177157550002
 21
-311.77822777189999
 31
0.0
  0
LINE
  5
1AC
  8
┌▓È_1
 62
     5
 10
907.55424254259981
 20
-309.93822777190002
 30
0.0
 11
909.55317587589991
 21
-309.93822777190002
 31
0.0
  0
LINE
  5
1AD
  8
┌▓È_1
 62
     5
 10
895.25177157550002
 20
-310.17822777190003
 30
0.0
 11
895.25177157550002
 21
-309.77822777189999
 31
0.0
  0
LINE
  5
1AE
  8
┌▓È_1
 62
     5
 10
896.45177157549995
 20
-310.17822777190003
 30
0.0
 11
895.25177157550002
 21
-310.17822777190003
 31
0.0
  0
LINE
  5
1AF
  8
┌▓È_1
  6
BORDER
 62
     3
 10
742.64514658300004
 20
-171.34952212979999
 30
0.0
 11
750.57138771780001
 21
-171.34952212979999
 31
0.0
  0
LINE
  5
1B0
  8
┌▓È_1
  6
STITCH
 10
746.31232546399997
 20
-173.34952212979999
 30
0.0
 11
745.31232546399985
 21
-173.34952212979999
 31
0.0
  0
LINE
  5
1B1
  8
┌▓È_1
  6
BORDER
 62
     3
 10
784.31232546399997
 20
-254.44026287060001
 30
0.0
 11
784.31232546399997
 21
-266.44026287060001
 31
0.0
  0
CIRCLE
  5
1B2
  8
┌▓È_1
  6
STITCH
 10
784.31232546399997
 20
-260.44026287060001
 30
0.0
 40
4.0
  0
LINE
  5
1B3
  8
┌▓È_1
 62
     5
 10
790.31232546399985
 20
-268.44026287060001
 30
0.0
 11
790.31232546399985
 21
-252.44026287060001
 31
0.0
  0
CIRCLE
  5
1B4
  8
┌▓È_1
  6
STITCH
 10
756.31232546399985
 20
-260.44026287060001
 30
0.0
 40
4.0
  0
LINE
  5
1B5
  8
┌▓È_1
  6
BORDER
 62
     3
 10
756.31232546399985
 20
-254.44026287060001
 30
0.0
 11
756.31232546399985
 21
-266.44026287060001
 31
0.0
  0
LINE
  5
1B6
  8
┌▓È_1
 62
     5
 10
790.31232546399985
 20
-252.44026287060001
 30
0.0
 11
745.31232546399985
 21
-252.44026287060001
 31
0.0
  0
LINE
  5
1B7
  8
┌▓È_1
  6
BORDER
 62
     3
 10
778.31232546399985
 20
-260.44026287060001
 30
0.0
 11
791.31232546399985
 21
-260.44026287060001
 31
0.0
  0
CIRCLE
  5
1B8
  8
┌▓È_1
 62
     5
 10
784.31232546399997
 20
-260.44026287060001
 30
0.0
 40
2.0
  0
LINE
  5
1B9
  8
┌▓È_1
 62
     5
 10
745.31232546399985
 20
-268.44026287060001
 30
0.0
 11
790.31232546399985
 21
-268.44026287060001
 31
0.0
  0
LINE
  5
1BA
  8
┌▓È_1
  6
BORDER
 62
     3
 10
750.31232546399997
 20
-260.44026287060001
 30
0.0
 11
762.31232546399985
 21
-260.44026287060001
 31
0.0
  0
CIRCLE
  5
1BB
  8
┌▓È_1
 62
     5
 10
756.31232546399985
 20
-260.44026287060001
 30
0.0
 40
2.0
  0
LINE
  5
1BC
  8
┌▓È_1
  6
STITCH
 10
748.31232546399985
 20
-252.44026287060001
 30
0.0
 11
748.31232546399985
 21
-268.44026287060001
 31
0.0
  0
LINE
  5
1BD
  8
┌▓È_1
 62
     5
 10
745.31232546399985
 20
-252.44026287060001
 30
0.0
 11
745.31232546399985
 21
-268.44026287060001
 31
0.0
  0
POLYLINE
  8
┌▓È_1
  5
27D
  62
5
  66
     1
 10
0.000000
 20
0.000000
 30
0.000000
  70
     8
  0
VERTEX
  8
┌▓È_1
  5
27E
 10
901.328
 20
-310.888
 30
0.000000
  70
    32
  0
VERTEX
  8
┌▓È_1
  5
27F
 10
901.333
 20
-310.894
 30
0.000000
  70
    32
  0
VERTEX
  8
┌▓È_1
  5
280
 10
901.338
 20
-310.900
 30
0.000000
  70
    32
  0
VERTEX
  8
┌▓È_1
  5
281
 10
901.344
 20
-310.906
 30
0.000000
  70
    32
  0
VERTEX
  8
┌▓È_1
  5
282
 10
901.349
 20
-310.912
 30
0.000000
  70
    32
  0
VERTEX
  8
┌▓È_1
  5
283
 10
901.354
 20
-310.918
 30
0.000000
  70
    32
  0
VERTEX
  8
┌▓È_1
  5
284
 10
901.359
 20
-310.924
 30
0.000000
  70
    32
  0
VERTEX
  8
┌▓È_1
  5
285
 10
901.365
 20
-310.930
 30
0.000000
  70
    32
  0
VERTEX
  8
┌▓È_1
  5
286
 10
901.370
 20
-310.936
 30
0.000000
  70
    32
  0
VERTEX
  8
┌▓È_1
  5
287
 10
901.375
 20
-310.941
 30
0.000000
  70
    32
  0
VERTEX
  8
┌▓È_1
  5
288
 10
901.381
 20
-310.947
 30
0.000000
  70
    32
  0
VERTEX
  8
┌▓È_1
  5
289
 10
901.386
 20
-310.953
 30
0.000000
  70
    32
  0
VERTEX
  8
┌▓È_1
  5
28A
 10
901.391
 20
-310.959
 30
0.000000
  70
    32
  0
VERTEX
  8
┌▓È_1
  5
28B
 10
901.396
 20
-310.965
 30
0.000000
  70
    32
  0
VERTEX
  8
┌▓È_1
  5
28C
 10
901.402
 20
-310.971
 30
0.000000
  70
    32
  0
VERTEX
  8
┌▓È_1
  5
28D
 10
901.407
 20
-310.977
 30
0.000000
  70
    32
  0
VERTEX
  8
┌▓È_1
  5
28E
 10
901.412
 20
-310.983
 30
0.000000
  70
    32
  0
VERTEX
  8
┌▓È_1
  5
28F
 10
901.418
 20
-310.988
 30
0.000000
  70
    32
  0
VERTEX
  8
┌▓È_1
  5
290
 10
901.423
 20
-310.994
 30
0.000000
  70
    32
  0
VERTEX
  8
┌▓È_1
  5
291
 10
901.428
 20
-311.000
 30
0.000000
  70
    32
  0
VERTEX
  8
┌▓È_1
  5
292
 10
901.433
 20
-311.006
 30
0.000000
  70
    32
  0
VERTEX
  8
┌▓È_1
  5
293
 10
901.439
 20
-311.012
 30
0.000000
  70
    32
  0
VERTEX
  8
┌▓È_1
  5
294
 10
901.444
 20
-311.018
 30
0.000000
  70
    32
  0
VERTEX
  8
┌▓È_1
  5
295
 10
901.449
 20
-311.024
 30
0.000000
  70
    32
  0
VERTEX
  8
┌▓È_1
  5
296
 10
901.455
 20
-311.030
 30
0.000000
  70
    32
  0
VERTEX
  8
┌▓È_1
  5
297
 10
901.460
 20
-311.035
 30
0.000000
  70
    32
  0
VERTEX
  8
┌▓È_1
  5
298
 10
901.465
 20
-311.041
 30
0.000000
  70
    32
  0
VERTEX
  8
┌▓È_1
  5
299
 10
901.470
 20
-311.047
 30
0.000000
  70
    32
  0
VERTEX
  8
┌▓È_1
  5
29A
 10
901.476
 20
-311.053
 30
0.000000
  70
    32
  0
VERTEX
  8
┌▓È_1
  5
29B
 10
901.481
 20
-311.059
 30
0.000000
  70
    32
  0
VERTEX
  8
┌▓È_1
  5
29C
 10
901.486
 20
-311.065
 30
0.000000
  70
    32
  0
VERTEX
  8
┌▓È_1
  5
29D
 10
901.492
 20
-311.071
 30
0.000000
  70
    32
  0
VERTEX
  8
┌▓È_1
  5
29E
 10
901.497
 20
-311.076
 30
0.000000
  70
    32
  0
VERTEX
  8
┌▓È_1
  5
29F
 10
901.502
 20
-311.082
 30
0.000000
  70
    32
  0
VERTEX
  8
┌▓È_1
  5
2A0
 10
901.508
 20
-311.088
 30
0.000000
  70
    32
  0
VERTEX
  8
┌▓È_1
  5
2A1
 10
901.513
 20
-311.094
 30
0.000000
  70
    32
  0
VERTEX
  8
┌▓È_1
  5
2A2
 10
901.518
 20
-311.100
 30
0.000000
  70
    32
  0
VERTEX
  8
┌▓È_1
  5
2A3
 10
901.524
 20
-311.106
 30
0.000000
  70
    32
  0
VERTEX
  8
┌▓È_1
  5
2A4
 10
901.529
 20
-311.111
 30
0.000000
  70
    32
  0
VERTEX
  8
┌▓È_1
  5
2A5
 10
901.534
 20
-311.117
 30
0.000000
  70
    32
  0
VERTEX
  8
┌▓È_1
  5
2A6
 10
901.539
 20
-311.123
 30
0.000000
  70
    32
  0
VERTEX
  8
┌▓È_1
  5
2A7
 10
901.545
 20
-311.129
 30
0.000000
  70
    32
  0
VERTEX
  8
┌▓È_1
  5
2A8
 10
901.550
 20
-311.135
 30
0.000000
  70
    32
  0
VERTEX
  8
┌▓È_1
  5
2A9
 10
901.555
 20
-311.140
 30
0.000000
  70
    32
  0
VERTEX
  8
┌▓È_1
  5
2AA
 10
901.561
 20
-311.146
 30
0.000000
  70
    32
  0
VERTEX
  8
┌▓È_1
  5
2AB
 10
901.566
 20
-311.152
 30
0.000000
  70
    32
  0
VERTEX
  8
┌▓È_1
  5
2AC
 10
901.571
 20
-311.158
 30
0.000000
  70
    32
  0
VERTEX
  8
┌▓È_1
  5
2AD
 10
901.577
 20
-311.164
 30
0.000000
  70
    32
  0
VERTEX
  8
┌▓È_1
  5
2AE
 10
901.582
 20
-311.169
 30
0.000000
  70
    32
  0
VERTEX
  8
┌▓È_1
  5
2AF
 10
901.587
 20
-311.175
 30
0.000000
  70
    32
  0
VERTEX
  8
┌▓È_1
  5
2B0
 10
901.593
 20
-311.181
 30
0.000000
  70
    32
  0
VERTEX
  8
┌▓È_1
  5
2B1
 10
901.598
 20
-311.187
 30
0.000000
  70
    32
  0
VERTEX
  8
┌▓È_1
  5
2B2
 10
901.604
 20
-311.193
 30
0.000000
  70
    32
  0
VERTEX
  8
┌▓È_1
  5
2B3
 10
901.609
 20
-311.198
 30
0.000000
  70
    32
  0
VERTEX
  8
┌▓È_1
  5
2B4
 10
901.614
 20
-311.204
 30
0.000000
  70
    32
  0
VERTEX
  8
┌▓È_1
  5
2B5
 10
901.620
 20
-311.210
 30
0.000000
  70
    32
  0
VERTEX
  8
┌▓È_1
  5
2B6
 10
901.625
 20
-311.216
 30
0.000000
  70
    32
  0
VERTEX
  8
┌▓È_1
  5
2B7
 10
901.630
 20
-311.221
 30
0.000000
  70
    32
  0
VERTEX
  8
┌▓È_1
  5
2B8
 10
901.636
 20
-311.227
 30
0.000000
  70
    32
  0
VERTEX
  8
┌▓È_1
  5
2B9
 10
901.641
 20
-311.233
 30
0.000000
  70
    32
  0
VERTEX
  8
┌▓È_1
  5
2BA
 10
901.646
 20
-311.238
 30
0.000000
  70
    32
  0
VERTEX
  8
┌▓È_1
  5
2BB
 10
901.652
 20
-311.244
 30
0.000000
  70
    32
  0
VERTEX
  8
┌▓È_1
  5
2BC
 10
901.657
 20
-311.250
 30
0.000000
  70
    32
  0
VERTEX
  8
┌▓È_1
  5
2BD
 10
901.663
 20
-311.256
 30
0.000000
  70
    32
  0
VERTEX
  8
┌▓È_1
  5
2BE
 10
901.668
 20
-311.261
 30
0.000000
  70
    32
  0
VERTEX
  8
┌▓È_1
  5
2BF
 10
901.673
 20
-311.267
 30
0.000000
  70
    32
  0
VERTEX
  8
┌▓È_1
  5
2C0
 10
901.679
 20
-311.273
 30
0.000000
  70
    32
  0
VERTEX
  8
┌▓È_1
  5
2C1
 10
901.684
 20
-311.278
 30
0.000000
  70
    32
  0
VERTEX
  8
┌▓È_1
  5
2C2
 10
901.690
 20
-311.284
 30
0.000000
  70
    32
  0
VERTEX
  8
┌▓È_1
  5
2C3
 10
901.695
 20
-311.290
 30
0.000000
  70
    32
  0
VERTEX
  8
┌▓È_1
  5
2C4
 10
901.700
 20
-311.296
 30
0.000000
  70
    32
  0
VERTEX
  8
┌▓È_1
  5
2C5
 10
901.706
 20
-311.301
 30
0.000000
  70
    32
  0
VERTEX
  8
┌▓È_1
  5
2C6
 10
901.711
 20
-311.307
 30
0.000000
  70
    32
  0
VERTEX
  8
┌▓È_1
  5
2C7
 10
901.717
 20
-311.312
 30
0.000000
  70
    32
  0
VERTEX
  8
┌▓È_1
  5
2C8
 10
901.722
 20
-311.318
 30
0.000000
  70
    32
  0
VERTEX
  8
┌▓È_1
  5
2C9
 10
901.728
 20
-311.324
 30
0.000000
  70
    32
  0
VERTEX
  8
┌▓È_1
  5
2CA
 10
901.733
 20
-311.329
 30
0.000000
  70
    32
  0
VERTEX
  8
┌▓È_1
  5
2CB
 10
901.738
 20
-311.335
 30
0.000000
  70
    32
  0
VERTEX
  8
┌▓È_1
  5
2CC
 10
901.744
 20
-311.341
 30
0.000000
  70
    32
  0
VERTEX
  8
┌▓È_1
  5
2CD
 10
901.749
 20
-311.346
 30
0.000000
  70
    32
  0
VERTEX
  8
┌▓È_1
  5
2CE
 10
901.755
 20
-311.352
 30
0.000000
  70
    32
  0
VERTEX
  8
┌▓È_1
  5
2CF
 10
901.760
 20
-311.357
 30
0.000000
  70
    32
  0
VERTEX
  8
┌▓È_1
  5
2D0
 10
901.766
 20
-311.363
 30
0.000000
  70
    32
  0
VERTEX
  8
┌▓È_1
  5
2D1
 10
901.771
 20
-311.369
 30
0.000000
  70
    32
  0
VERTEX
  8
┌▓È_1
  5
2D2
 10
901.777
 20
-311.374
 30
0.000000
  70
    32
  0
VERTEX
  8
┌▓È_1
  5
2D3
 10
901.782
 20
-311.380
 30
0.000000
  70
    32
  0
VERTEX
  8
┌▓È_1
  5
2D4
 10
901.788
 20
-311.385
 30
0.000000
  70
    32
  0
VERTEX
  8
┌▓È_1
  5
2D5
 10
901.793
 20
-311.391
 30
0.000000
  70
    32
  0
VERTEX
  8
┌▓È_1
  5
2D6
 10
901.798
 20
-311.397
 30
0.000000
  70
    32
  0
VERTEX
  8
┌▓È_1
  5
2D7
 10
901.804
 20
-311.402
 30
0.000000
  70
    32
  0
VERTEX
  8
┌▓È_1
  5
2D8
 10
901.809
 20
-311.408
 30
0.000000
  70
    32
  0
VERTEX
  8
┌▓È_1
  5
2D9
 10
901.815
 20
-311.413
 30
0.000000
  70
    32
  0
VERTEX
  8
┌▓È_1
  5
2DA
 10
901.821
 20
-311.419
 30
0.000000
  70
    32
  0
VERTEX
  8
┌▓È_1
  5
2DB
 10
901.826
 20
-311.424
 30
0.000000
  70
    32
  0
VERTEX
  8
┌▓È_1
  5
2DC
 10
901.832
 20
-311.430
 30
0.000000
  70
    32
  0
VERTEX
  8
┌▓È_1
  5
2DD
 10
901.837
 20
-311.435
 30
0.000000
  70
    32
  0
VERTEX
  8
┌▓È_1
  5
2DE
 10
901.843
 20
-311.441
 30
0.000000
  70
    32
  0
VERTEX
  8
┌▓È_1
  5
2DF
 10
901.848
 20
-311.446
 30
0.000000
  70
    32
  0
VERTEX
  8
┌▓È_1
  5
2E0
 10
901.854
 20
-311.452
 30
0.000000
  70
    32
  0
VERTEX
  8
┌▓È_1
  5
2E1
 10
901.859
 20
-311.457
 30
0.000000
  70
    32
  0
VERTEX
  8
┌▓È_1
  5
2E2
 10
901.865
 20
-311.462
 30
0.000000
  70
    32
  0
VERTEX
  8
┌▓È_1
  5
2E3
 10
901.870
 20
-311.468
 30
0.000000
  70
    32
  0
VERTEX
  8
┌▓È_1
  5
2E4
 10
901.876
 20
-311.473
 30
0.000000
  70
    32
  0
VERTEX
  8
┌▓È_1
  5
2E5
 10
901.881
 20
-311.479
 30
0.000000
  70
    32
  0
VERTEX
  8
┌▓È_1
  5
2E6
 10
901.887
 20
-311.484
 30
0.000000
  70
    32
  0
VERTEX
  8
┌▓È_1
  5
2E7
 10
901.893
 20
-311.490
 30
0.000000
  70
    32
  0
VERTEX
  8
┌▓È_1
  5
2E8
 10
901.898
 20
-311.495
 30
0.000000
  70
    32
  0
VERTEX
  8
┌▓È_1
  5
2E9
 10
901.904
 20
-311.500
 30
0.000000
  70
    32
  0
VERTEX
  8
┌▓È_1
  5
2EA
 10
901.909
 20
-311.506
 30
0.000000
  70
    32
  0
VERTEX
  8
┌▓È_1
  5
2EB
 10
901.915
 20
-311.511
 30
0.000000
  70
    32
  0
VERTEX
  8
┌▓È_1
  5
2EC
 10
901.921
 20
-311.517
 30
0.000000
  70
    32
  0
VERTEX
  8
┌▓È_1
  5
2ED
 10
901.926
 20
-311.522
 30
0.000000
  70
    32
  0
VERTEX
  8
┌▓È_1
  5
2EE
 10
901.932
 20
-311.527
 30
0.000000
  70
    32
  0
VERTEX
  8
┌▓È_1
  5
2EF
 10
901.937
 20
-311.533
 30
0.000000
  70
    32
  0
VERTEX
  8
┌▓È_1
  5
2F0
 10
901.943
 20
-311.538
 30
0.000000
  70
    32
  0
VERTEX
  8
┌▓È_1
  5
2F1
 10
901.949
 20
-311.543
 30
0.000000
  70
    32
  0
VERTEX
  8
┌▓È_1
  5
2F2
 10
901.954
 20
-311.548
 30
0.000000
  70
    32
  0
VERTEX
  8
┌▓È_1
  5
2F3
 10
901.960
 20
-311.554
 30
0.000000
  70
    32
  0
VERTEX
  8
┌▓È_1
  5
2F4
 10
901.966
 20
-311.559
 30
0.000000
  70
    32
  0
VERTEX
  8
┌▓È_1
  5
2F5
 10
901.971
 20
-311.564
 30
0.000000
  70
    32
  0
VERTEX
  8
┌▓È_1
  5
2F6
 10
901.977
 20
-311.570
 30
0.000000
  70
    32
  0
VERTEX
  8
┌▓È_1
  5
2F7
 10
901.983
 20
-311.575
 30
0.000000
  70
    32
  0
VERTEX
  8
┌▓È_1
  5
2F8
 10
901.988
 20
-311.580
 30
0.000000
  70
    32
  0
VERTEX
  8
┌▓È_1
  5
2F9
 10
901.994
 20
-311.585
 30
0.000000
  70
    32
  0
VERTEX
  8
┌▓È_1
  5
2FA
 10
902.000
 20
-311.590
 30
0.000000
  70
    32
  0
VERTEX
  8
┌▓È_1
  5
2FB
 10
902.005
 20
-311.596
 30
0.000000
  70
    32
  0
VERTEX
  8
┌▓È_1
  5
2FC
 10
902.011
 20
-311.601
 30
0.000000
  70
    32
  0
VERTEX
  8
┌▓È_1
  5
2FD
 10
902.017
 20
-311.606
 30
0.000000
  70
    32
  0
SEQEND
  8
┌▓È_1
  5
2FE
  0
POLYLINE
  8
┌▓È_1
  5
2FF
  62
5
  66
     1
 10
0.000000
 20
0.000000
 30
0.000000
  70
     8
  0
VERTEX
  8
┌▓È_1
  5
300
 10
902.947
 20
-313.487
 30
0.000000
  70
    32
  0
VERTEX
  8
┌▓È_1
  5
301
 10
902.969
 20
-313.494
 30
0.000000
  70
    32
  0
VERTEX
  8
┌▓È_1
  5
302
 10
902.990
 20
-313.501
 30
0.000000
  70
    32
  0
VERTEX
  8
┌▓È_1
  5
303
 10
903.012
 20
-313.508
 30
0.000000
  70
    32
  0
VERTEX
  8
┌▓È_1
  5
304
 10
903.034
 20
-313.515
 30
0.000000
  70
    32
  0
VERTEX
  8
┌▓È_1
  5
305
 10
903.055
 20
-313.521
 30
0.000000
  70
    32
  0
VERTEX
  8
┌▓È_1
  5
306
 10
903.077
 20
-313.528
 30
0.000000
  70
    32
  0
VERTEX
  8
┌▓È_1
  5
307
 10
903.098
 20
-313.535
 30
0.000000
  70
    32
  0
VERTEX
  8
┌▓È_1
  5
308
 10
903.120
 20
-313.541
 30
0.000000
  70
    32
  0
VERTEX
  8
┌▓È_1
  5
309
 10
903.142
 20
-313.548
 30
0.000000
  70
    32
  0
VERTEX
  8
┌▓È_1
  5
30A
 10
903.163
 20
-313.554
 30
0.000000
  70
    32
  0
VERTEX
  8
┌▓È_1
  5
30B
 10
903.185
 20
-313.561
 30
0.000000
  70
    32
  0
VERTEX
  8
┌▓È_1
  5
30C
 10
903.207
 20
-313.568
 30
0.000000
  70
    32
  0
VERTEX
  8
┌▓È_1
  5
30D
 10
903.229
 20
-313.574
 30
0.000000
  70
    32
  0
VERTEX
  8
┌▓È_1
  5
30E
 10
903.250
 20
-313.580
 30
0.000000
  70
    32
  0
VERTEX
  8
┌▓È_1
  5
30F
 10
903.272
 20
-313.587
 30
0.000000
  70
    32
  0
VERTEX
  8
┌▓È_1
  5
310
 10
903.294
 20
-313.593
 30
0.000000
  70
    32
  0
VERTEX
  8
┌▓È_1
  5
311
 10
903.316
 20
-313.600
 30
0.000000
  70
    32
  0
VERTEX
  8
┌▓È_1
  5
312
 10
903.338
 20
-313.606
 30
0.000000
  70
    32
  0
VERTEX
  8
┌▓È_1
  5
313
 10
903.359
 20
-313.612
 30
0.000000
  70
    32
  0
VERTEX
  8
┌▓È_1
  5
314
 10
903.381
 20
-313.619
 30
0.000000
  70
    32
  0
VERTEX
  8
┌▓È_1
  5
315
 10
903.403
 20
-313.625
 30
0.000000
  70
    32
  0
VERTEX
  8
┌▓È_1
  5
316
 10
903.425
 20
-313.631
 30
0.000000
  70
    32
  0
VERTEX
  8
┌▓È_1
  5
317
 10
903.447
 20
-313.637
 30
0.000000
  70
    32
  0
VERTEX
  8
┌▓È_1
  5
318
 10
903.469
 20
-313.643
 30
0.000000
  70
    32
  0
VERTEX
  8
┌▓È_1
  5
319
 10
903.491
 20
-313.649
 30
0.000000
  70
    32
  0
VERTEX
  8
┌▓È_1
  5
31A
 10
903.513
 20
-313.656
 30
0.000000
  70
    32
  0
VERTEX
  8
┌▓È_1
  5
31B
 10
903.535
 20
-313.662
 30
0.000000
  70
    32
  0
VERTEX
  8
┌▓È_1
  5
31C
 10
903.557
 20
-313.668
 30
0.000000
  70
    32
  0
VERTEX
  8
┌▓È_1
  5
31D
 10
903.579
 20
-313.674
 30
0.000000
  70
    32
  0
VERTEX
  8
┌▓È_1
  5
31E
 10
903.601
 20
-313.680
 30
0.000000
  70
    32
  0
VERTEX
  8
┌▓È_1
  5
31F
 10
903.623
 20
-313.686
 30
0.000000
  70
    32
  0
VERTEX
  8
┌▓È_1
  5
320
 10
903.645
 20
-313.692
 30
0.000000
  70
    32
  0
VERTEX
  8
┌▓È_1
  5
321
 10
903.667
 20
-313.698
 30
0.000000
  70
    32
  0
VERTEX
  8
┌▓È_1
  5
322
 10
903.689
 20
-313.703
 30
0.000000
  70
    32
  0
VERTEX
  8
┌▓È_1
  5
323
 10
903.711
 20
-313.709
 30
0.000000
  70
    32
  0
VERTEX
  8
┌▓È_1
  5
324
 10
903.733
 20
-313.715
 30
0.000000
  70
    32
  0
VERTEX
  8
┌▓È_1
  5
325
 10
903.755
 20
-313.721
 30
0.000000
  70
    32
  0
VERTEX
  8
┌▓È_1
  5
326
 10
903.777
 20
-313.727
 30
0.000000
  70
    32
  0
VERTEX
  8
┌▓È_1
  5
327
 10
903.799
 20
-313.732
 30
0.000000
  70
    32
  0
VERTEX
  8
┌▓È_1
  5
328
 10
903.822
 20
-313.738
 30
0.000000
  70
    32
  0
VERTEX
  8
┌▓È_1
  5
329
 10
903.844
 20
-313.744
 30
0.000000
  70
    32
  0
VERTEX
  8
┌▓È_1
  5
32A
 10
903.866
 20
-313.750
 30
0.000000
  70
    32
  0
VERTEX
  8
┌▓È_1
  5
32B
 10
903.888
 20
-313.755
 30
0.000000
  70
    32
  0
VERTEX
  8
┌▓È_1
  5
32C
 10
903.910
 20
-313.761
 30
0.000000
  70
    32
  0
VERTEX
  8
┌▓È_1
  5
32D
 10
903.932
 20
-313.767
 30
0.000000
  70
    32
  0
VERTEX
  8
┌▓È_1
  5
32E
 10
903.955
 20
-313.772
 30
0.000000
  70
    32
  0
VERTEX
  8
┌▓È_1
  5
32F
 10
903.977
 20
-313.778
 30
0.000000
  70
    32
  0
VERTEX
  8
┌▓È_1
  5
330
 10
903.999
 20
-313.783
 30
0.000000
  70
    32
  0
VERTEX
  8
┌▓È_1
  5
331
 10
904.021
 20
-313.789
 30
0.000000
  70
    32
  0
VERTEX
  8
┌▓È_1
  5
332
 10
904.044
 20
-313.794
 30
0.000000
  70
    32
  0
VERTEX
  8
┌▓È_1
  5
333
 10
904.066
 20
-313.800
 30
0.000000
  70
    32
  0
VERTEX
  8
┌▓È_1
  5
334
 10
904.088
 20
-313.805
 30
0.000000
  70
    32
  0
VERTEX
  8
┌▓È_1
  5
335
 10
904.110
 20
-313.811
 30
0.000000
  70
    32
  0
VERTEX
  8
┌▓È_1
  5
336
 10
904.133
 20
-313.816
 30
0.000000
  70
    32
  0
VERTEX
  8
┌▓È_1
  5
337
 10
904.155
 20
-313.822
 30
0.000000
  70
    32
  0
VERTEX
  8
┌▓È_1
  5
338
 10
904.177
 20
-313.827
 30
0.000000
  70
    32
  0
VERTEX
  8
┌▓È_1
  5
339
 10
904.200
 20
-313.833
 30
0.000000
  70
    32
  0
VERTEX
  8
┌▓È_1
  5
33A
 10
904.222
 20
-313.838
 30
0.000000
  70
    32
  0
VERTEX
  8
┌▓È_1
  5
33B
 10
904.244
 20
-313.843
 30
0.000000
  70
    32
  0
VERTEX
  8
┌▓È_1
  5
33C
 10
904.267
 20
-313.849
 30
0.000000
  70
    32
  0
VERTEX
  8
┌▓È_1
  5
33D
 10
904.289
 20
-313.854
 30
0.000000
  70
    32
  0
VERTEX
  8
┌▓È_1
  5
33E
 10
904.312
 20
-313.859
 30
0.000000
  70
    32
  0
VERTEX
  8
┌▓È_1
  5
33F
 10
904.334
 20
-313.865
 30
0.000000
  70
    32
  0
VERTEX
  8
┌▓È_1
  5
340
 10
904.356
 20
-313.870
 30
0.000000
  70
    32
  0
VERTEX
  8
┌▓È_1
  5
341
 10
904.379
 20
-313.875
 30
0.000000
  70
    32
  0
VERTEX
  8
┌▓È_1
  5
342
 10
904.401
 20
-313.880
 30
0.000000
  70
    32
  0
VERTEX
  8
┌▓È_1
  5
343
 10
904.424
 20
-313.885
 30
0.000000
  70
    32
  0
VERTEX
  8
┌▓È_1
  5
344
 10
904.446
 20
-313.891
 30
0.000000
  70
    32
  0
VERTEX
  8
┌▓È_1
  5
345
 10
904.469
 20
-313.896
 30
0.000000
  70
    32
  0
VERTEX
  8
┌▓È_1
  5
346
 10
904.491
 20
-313.901
 30
0.000000
  70
    32
  0
VERTEX
  8
┌▓È_1
  5
347
 10
904.513
 20
-313.906
 30
0.000000
  70
    32
  0
VERTEX
  8
┌▓È_1
  5
348
 10
904.536
 20
-313.911
 30
0.000000
  70
    32
  0
VERTEX
  8
┌▓È_1
  5
349
 10
904.558
 20
-313.916
 30
0.000000
  70
    32
  0
VERTEX
  8
┌▓È_1
  5
34A
 10
904.581
 20
-313.921
 30
0.000000
  70
    32
  0
VERTEX
  8
┌▓È_1
  5
34B
 10
904.603
 20
-313.927
 30
0.000000
  70
    32
  0
VERTEX
  8
┌▓È_1
  5
34C
 10
904.626
 20
-313.932
 30
0.000000
  70
    32
  0
VERTEX
  8
┌▓È_1
  5
34D
 10
904.648
 20
-313.937
 30
0.000000
  70
    32
  0
VERTEX
  8
┌▓È_1
  5
34E
 10
904.671
 20
-313.942
 30
0.000000
  70
    32
  0
VERTEX
  8
┌▓È_1
  5
34F
 10
904.693
 20
-313.947
 30
0.000000
  70
    32
  0
VERTEX
  8
┌▓È_1
  5
350
 10
904.716
 20
-313.952
 30
0.000000
  70
    32
  0
VERTEX
  8
┌▓È_1
  5
351
 10
904.739
 20
-313.957
 30
0.000000
  70
    32
  0
VERTEX
  8
┌▓È_1
  5
352
 10
904.761
 20
-313.962
 30
0.000000
  70
    32
  0
VERTEX
  8
┌▓È_1
  5
353
 10
904.784
 20
-313.967
 30
0.000000
  70
    32
  0
VERTEX
  8
┌▓È_1
  5
354
 10
904.806
 20
-313.972
 30
0.000000
  70
    32
  0
VERTEX
  8
┌▓È_1
  5
355
 10
904.829
 20
-313.977
 30
0.000000
  70
    32
  0
VERTEX
  8
┌▓È_1
  5
356
 10
904.851
 20
-313.982
 30
0.000000
  70
    32
  0
VERTEX
  8
┌▓È_1
  5
357
 10
904.874
 20
-313.987
 30
0.000000
  70
    32
  0
VERTEX
  8
┌▓È_1
  5
358
 10
904.896
 20
-313.992
 30
0.000000
  70
    32
  0
VERTEX
  8
┌▓È_1
  5
359
 10
904.919
 20
-313.996
 30
0.000000
  70
    32
  0
VERTEX
  8
┌▓È_1
  5
35A
 10
904.942
 20
-314.001
 30
0.000000
  70
    32
  0
VERTEX
  8
┌▓È_1
  5
35B
 10
904.964
 20
-314.006
 30
0.000000
  70
    32
  0
VERTEX
  8
┌▓È_1
  5
35C
 10
904.987
 20
-314.011
 30
0.000000
  70
    32
  0
VERTEX
  8
┌▓È_1
  5
35D
 10
905.010
 20
-314.016
 30
0.000000
  70
    32
  0
VERTEX
  8
┌▓È_1
  5
35E
 10
905.032
 20
-314.021
 30
0.000000
  70
    32
  0
VERTEX
  8
┌▓È_1
  5
35F
 10
905.055
 20
-314.026
 30
0.000000
  70
    32
  0
VERTEX
  8
┌▓È_1
  5
360
 10
905.077
 20
-314.031
 30
0.000000
  70
    32
  0
VERTEX
  8
┌▓È_1
  5
361
 10
905.100
 20
-314.035
 30
0.000000
  70
    32
  0
VERTEX
  8
┌▓È_1
  5
362
 10
905.123
 20
-314.040
 30
0.000000
  70
    32
  0
VERTEX
  8
┌▓È_1
  5
363
 10
905.145
 20
-314.045
 30
0.000000
  70
    32
  0
VERTEX
  8
┌▓È_1
  5
364
 10
905.168
 20
-314.050
 30
0.000000
  70
    32
  0
VERTEX
  8
┌▓È_1
  5
365
 10
905.191
 20
-314.055
 30
0.000000
  70
    32
  0
VERTEX
  8
┌▓È_1
  5
366
 10
905.213
 20
-314.060
 30
0.000000
  70
    32
  0
VERTEX
  8
┌▓È_1
  5
367
 10
905.236
 20
-314.064
 30
0.000000
  70
    32
  0
VERTEX
  8
┌▓È_1
  5
368
 10
905.259
 20
-314.069
 30
0.000000
  70
    32
  0
VERTEX
  8
┌▓È_1
  5
369
 10
905.281
 20
-314.074
 30
0.000000
  70
    32
  0
VERTEX
  8
┌▓È_1
  5
36A
 10
905.304
 20
-314.079
 30
0.000000
  70
    32
  0
VERTEX
  8
┌▓È_1
  5
36B
 10
905.327
 20
-314.083
 30
0.000000
  70
    32
  0
VERTEX
  8
┌▓È_1
  5
36C
 10
905.349
 20
-314.088
 30
0.000000
  70
    32
  0
VERTEX
  8
┌▓È_1
  5
36D
 10
905.372
 20
-314.093
 30
0.000000
  70
    32
  0
VERTEX
  8
┌▓È_1
  5
36E
 10
905.395
 20
-314.098
 30
0.000000
  70
    32
  0
VERTEX
  8
┌▓È_1
  5
36F
 10
905.417
 20
-314.103
 30
0.000000
  70
    32
  0
VERTEX
  8
┌▓È_1
  5
370
 10
905.440
 20
-314.107
 30
0.000000
  70
    32
  0
VERTEX
  8
┌▓È_1
  5
371
 10
905.463
 20
-314.112
 30
0.000000
  70
    32
  0
VERTEX
  8
┌▓È_1
  5
372
 10
905.485
 20
-314.117
 30
0.000000
  70
    32
  0
VERTEX
  8
┌▓È_1
  5
373
 10
905.508
 20
-314.122
 30
0.000000
  70
    32
  0
VERTEX
  8
┌▓È_1
  5
374
 10
905.531
 20
-314.126
 30
0.000000
  70
    32
  0
VERTEX
  8
┌▓È_1
  5
375
 10
905.553
 20
-314.131
 30
0.000000
  70
    32
  0
VERTEX
  8
┌▓È_1
  5
376
 10
905.576
 20
-314.136
 30
0.000000
  70
    32
  0
VERTEX
  8
┌▓È_1
  5
377
 10
905.599
 20
-314.140
 30
0.000000
  70
    32
  0
VERTEX
  8
┌▓È_1
  5
378
 10
905.621
 20
-314.145
 30
0.000000
  70
    32
  0
VERTEX
  8
┌▓È_1
  5
379
 10
905.644
 20
-314.150
 30
0.000000
  70
    32
  0
VERTEX
  8
┌▓È_1
  5
37A
 10
905.667
 20
-314.155
 30
0.000000
  70
    32
  0
VERTEX
  8
┌▓È_1
  5
37B
 10
905.689
 20
-314.159
 30
0.000000
  70
    32
  0
VERTEX
  8
┌▓È_1
  5
37C
 10
905.712
 20
-314.164
 30
0.000000
  70
    32
  0
VERTEX
  8
┌▓È_1
  5
37D
 10
905.735
 20
-314.169
 30
0.000000
  70
    32
  0
VERTEX
  8
┌▓È_1
  5
37E
 10
905.758
 20
-314.174
 30
0.000000
  70
    32
  0
VERTEX
  8
┌▓È_1
  5
37F
 10
905.780
 20
-314.178
 30
0.000000
  70
    32
  0
SEQEND
  8
┌▓È_1
  5
380
  0
POLYLINE
  8
┌▓È_1
  5
381
  62
5
  66
     1
 10
0.000000
 20
0.000000
 30
0.000000
  70
     8
  0
VERTEX
  8
┌▓È_1
  5
382
 10
898.580
 20
-310.694
 30
0.000000
  70
    32
  0
VERTEX
  8
┌▓È_1
  5
383
 10
898.595
 20
-310.707
 30
0.000000
  70
    32
  0
VERTEX
  8
┌▓È_1
  5
384
 10
898.609
 20
-310.720
 30
0.000000
  70
    32
  0
VERTEX
  8
┌▓È_1
  5
385
 10
898.623
 20
-310.733
 30
0.000000
  70
    32
  0
VERTEX
  8
┌▓È_1
  5
386
 10
898.638
 20
-310.747
 30
0.000000
  70
    32
  0
VERTEX
  8
┌▓È_1
  5
387
 10
898.652
 20
-310.760
 30
0.000000
  70
    32
  0
VERTEX
  8
┌▓È_1
  5
388
 10
898.667
 20
-310.773
 30
0.000000
  70
    32
  0
VERTEX
  8
┌▓È_1
  5
389
 10
898.681
 20
-310.787
 30
0.000000
  70
    32
  0
VERTEX
  8
┌▓È_1
  5
38A
 10
898.696
 20
-310.800
 30
0.000000
  70
    32
  0
VERTEX
  8
┌▓È_1
  5
38B
 10
898.710
 20
-310.813
 30
0.000000
  70
    32
  0
VERTEX
  8
┌▓È_1
  5
38C
 10
898.724
 20
-310.826
 30
0.000000
  70
    32
  0
VERTEX
  8
┌▓È_1
  5
38D
 10
898.739
 20
-310.840
 30
0.000000
  70
    32
  0
VERTEX
  8
┌▓È_1
  5
38E
 10
898.753
 20
-310.853
 30
0.000000
  70
    32
  0
VERTEX
  8
┌▓È_1
  5
38F
 10
898.768
 20
-310.866
 30
0.000000
  70
    32
  0
VERTEX
  8
┌▓È_1
  5
390
 10
898.782
 20
-310.879
 30
0.000000
  70
    32
  0
VERTEX
  8
┌▓È_1
  5
391
 10
898.796
 20
-310.893
 30
0.000000
  70
    32
  0
VERTEX
  8
┌▓È_1
  5
392
 10
898.811
 20
-310.906
 30
0.000000
  70
    32
  0
VERTEX
  8
┌▓È_1
  5
393
 10
898.825
 20
-310.919
 30
0.000000
  70
    32
  0
VERTEX
  8
┌▓È_1
  5
394
 10
898.840
 20
-310.932
 30
0.000000
  70
    32
  0
VERTEX
  8
┌▓È_1
  5
395
 10
898.854
 20
-310.946
 30
0.000000
  70
    32
  0
VERTEX
  8
┌▓È_1
  5
396
 10
898.869
 20
-310.959
 30
0.000000
  70
    32
  0
VERTEX
  8
┌▓È_1
  5
397
 10
898.883
 20
-310.972
 30
0.000000
  70
    32
  0
VERTEX
  8
┌▓È_1
  5
398
 10
898.898
 20
-310.985
 30
0.000000
  70
    32
  0
VERTEX
  8
┌▓È_1
  5
399
 10
898.912
 20
-310.999
 30
0.000000
  70
    32
  0
VERTEX
  8
┌▓È_1
  5
39A
 10
898.926
 20
-311.012
 30
0.000000
  70
    32
  0
VERTEX
  8
┌▓È_1
  5
39B
 10
898.941
 20
-311.025
 30
0.000000
  70
    32
  0
VERTEX
  8
┌▓È_1
  5
39C
 10
898.955
 20
-311.038
 30
0.000000
  70
    32
  0
VERTEX
  8
┌▓È_1
  5
39D
 10
898.970
 20
-311.051
 30
0.000000
  70
    32
  0
VERTEX
  8
┌▓È_1
  5
39E
 10
898.984
 20
-311.064
 30
0.000000
  70
    32
  0
VERTEX
  8
┌▓È_1
  5
39F
 10
898.999
 20
-311.078
 30
0.000000
  70
    32
  0
VERTEX
  8
┌▓È_1
  5
3A0
 10
899.013
 20
-311.091
 30
0.000000
  70
    32
  0
VERTEX
  8
┌▓È_1
  5
3A1
 10
899.028
 20
-311.104
 30
0.000000
  70
    32
  0
VERTEX
  8
┌▓È_1
  5
3A2
 10
899.042
 20
-311.117
 30
0.000000
  70
    32
  0
VERTEX
  8
┌▓È_1
  5
3A3
 10
899.057
 20
-311.130
 30
0.000000
  70
    32
  0
VERTEX
  8
┌▓È_1
  5
3A4
 10
899.071
 20
-311.143
 30
0.000000
  70
    32
  0
VERTEX
  8
┌▓È_1
  5
3A5
 10
899.086
 20
-311.157
 30
0.000000
  70
    32
  0
VERTEX
  8
┌▓È_1
  5
3A6
 10
899.100
 20
-311.170
 30
0.000000
  70
    32
  0
VERTEX
  8
┌▓È_1
  5
3A7
 10
899.115
 20
-311.183
 30
0.000000
  70
    32
  0
VERTEX
  8
┌▓È_1
  5
3A8
 10
899.129
 20
-311.196
 30
0.000000
  70
    32
  0
VERTEX
  8
┌▓È_1
  5
3A9
 10
899.144
 20
-311.209
 30
0.000000
  70
    32
  0
VERTEX
  8
┌▓È_1
  5
3AA
 10
899.158
 20
-311.222
 30
0.000000
  70
    32
  0
VERTEX
  8
┌▓È_1
  5
3AB
 10
899.173
 20
-311.235
 30
0.000000
  70
    32
  0
VERTEX
  8
┌▓È_1
  5
3AC
 10
899.187
 20
-311.248
 30
0.000000
  70
    32
  0
VERTEX
  8
┌▓È_1
  5
3AD
 10
899.202
 20
-311.261
 30
0.000000
  70
    32
  0
VERTEX
  8
┌▓È_1
  5
3AE
 10
899.216
 20
-311.274
 30
0.000000
  70
    32
  0
VERTEX
  8
┌▓È_1
  5
3AF
 10
899.231
 20
-311.287
 30
0.000000
  70
    32
  0
VERTEX
  8
┌▓È_1
  5
3B0
 10
899.246
 20
-311.300
 30
0.000000
  70
    32
  0
VERTEX
  8
┌▓È_1
  5
3B1
 10
899.260
 20
-311.313
 30
0.000000
  70
    32
  0
VERTEX
  8
┌▓È_1
  5
3B2
 10
899.275
 20
-311.326
 30
0.000000
  70
    32
  0
VERTEX
  8
┌▓È_1
  5
3B3
 10
899.289
 20
-311.339
 30
0.000000
  70
    32
  0
VERTEX
  8
┌▓È_1
  5
3B4
 10
899.304
 20
-311.352
 30
0.000000
  70
    32
  0
VERTEX
  8
┌▓È_1
  5
3B5
 10
899.318
 20
-311.365
 30
0.000000
  70
    32
  0
VERTEX
  8
┌▓È_1
  5
3B6
 10
899.333
 20
-311.378
 30
0.000000
  70
    32
  0
VERTEX
  8
┌▓È_1
  5
3B7
 10
899.348
 20
-311.391
 30
0.000000
  70
    32
  0
VERTEX
  8
┌▓È_1
  5
3B8
 10
899.362
 20
-311.404
 30
0.000000
  70
    32
  0
VERTEX
  8
┌▓È_1
  5
3B9
 10
899.377
 20
-311.416
 30
0.000000
  70
    32
  0
VERTEX
  8
┌▓È_1
  5
3BA
 10
899.392
 20
-311.429
 30
0.000000
  70
    32
  0
VERTEX
  8
┌▓È_1
  5
3BB
 10
899.406
 20
-311.442
 30
0.000000
  70
    32
  0
VERTEX
  8
┌▓È_1
  5
3BC
 10
899.421
 20
-311.455
 30
0.000000
  70
    32
  0
VERTEX
  8
┌▓È_1
  5
3BD
 10
899.436
 20
-311.468
 30
0.000000
  70
    32
  0
VERTEX
  8
┌▓È_1
  5
3BE
 10
899.450
 20
-311.481
 30
0.000000
  70
    32
  0
VERTEX
  8
┌▓È_1
  5
3BF
 10
899.465
 20
-311.493
 30
0.000000
  70
    32
  0
VERTEX
  8
┌▓È_1
  5
3C0
 10
899.480
 20
-311.506
 30
0.000000
  70
    32
  0
VERTEX
  8
┌▓È_1
  5
3C1
 10
899.494
 20
-311.519
 30
0.000000
  70
    32
  0
VERTEX
  8
┌▓È_1
  5
3C2
 10
899.509
 20
-311.532
 30
0.000000
  70
    32
  0
VERTEX
  8
┌▓È_1
  5
3C3
 10
899.524
 20
-311.544
 30
0.000000
  70
    32
  0
VERTEX
  8
┌▓È_1
  5
3C4
 10
899.538
 20
-311.557
 30
0.000000
  70
    32
  0
VERTEX
  8
┌▓È_1
  5
3C5
 10
899.553
 20
-311.570
 30
0.000000
  70
    32
  0
VERTEX
  8
┌▓È_1
  5
3C6
 10
899.568
 20
-311.582
 30
0.000000
  70
    32
  0
VERTEX
  8
┌▓È_1
  5
3C7
 10
899.583
 20
-311.595
 30
0.000000
  70
    32
  0
VERTEX
  8
┌▓È_1
  5
3C8
 10
899.597
 20
-311.608
 30
0.000000
  70
    32
  0
VERTEX
  8
┌▓È_1
  5
3C9
 10
899.612
 20
-311.620
 30
0.000000
  70
    32
  0
VERTEX
  8
┌▓È_1
  5
3CA
 10
899.627
 20
-311.633
 30
0.000000
  70
    32
  0
VERTEX
  8
┌▓È_1
  5
3CB
 10
899.642
 20
-311.645
 30
0.000000
  70
    32
  0
VERTEX
  8
┌▓È_1
  5
3CC
 10
899.657
 20
-311.658
 30
0.000000
  70
    32
  0
VERTEX
  8
┌▓È_1
  5
3CD
 10
899.671
 20
-311.670
 30
0.000000
  70
    32
  0
VERTEX
  8
┌▓È_1
  5
3CE
 10
899.686
 20
-311.683
 30
0.000000
  70
    32
  0
VERTEX
  8
┌▓È_1
  5
3CF
 10
899.701
 20
-311.695
 30
0.000000
  70
    32
  0
VERTEX
  8
┌▓È_1
  5
3D0
 10
899.716
 20
-311.708
 30
0.000000
  70
    32
  0
VERTEX
  8
┌▓È_1
  5
3D1
 10
899.731
 20
-311.720
 30
0.000000
  70
    32
  0
VERTEX
  8
┌▓È_1
  5
3D2
 10
899.746
 20
-311.733
 30
0.000000
  70
    32
  0
VERTEX
  8
┌▓È_1
  5
3D3
 10
899.761
 20
-311.745
 30
0.000000
  70
    32
  0
VERTEX
  8
┌▓È_1
  5
3D4
 10
899.776
 20
-311.757
 30
0.000000
  70
    32
  0
VERTEX
  8
┌▓È_1
  5
3D5
 10
899.790
 20
-311.770
 30
0.000000
  70
    32
  0
VERTEX
  8
┌▓È_1
  5
3D6
 10
899.805
 20
-311.782
 30
0.000000
  70
    32
  0
VERTEX
  8
┌▓È_1
  5
3D7
 10
899.820
 20
-311.794
 30
0.000000
  70
    32
  0
VERTEX
  8
┌▓È_1
  5
3D8
 10
899.835
 20
-311.807
 30
0.000000
  70
    32
  0
VERTEX
  8
┌▓È_1
  5
3D9
 10
899.850
 20
-311.819
 30
0.000000
  70
    32
  0
VERTEX
  8
┌▓È_1
  5
3DA
 10
899.865
 20
-311.831
 30
0.000000
  70
    32
  0
VERTEX
  8
┌▓È_1
  5
3DB
 10
899.880
 20
-311.843
 30
0.000000
  70
    32
  0
VERTEX
  8
┌▓È_1
  5
3DC
 10
899.895
 20
-311.855
 30
0.000000
  70
    32
  0
VERTEX
  8
┌▓È_1
  5
3DD
 10
899.910
 20
-311.868
 30
0.000000
  70
    32
  0
VERTEX
  8
┌▓È_1
  5
3DE
 10
899.925
 20
-311.880
 30
0.000000
  70
    32
  0
VERTEX
  8
┌▓È_1
  5
3DF
 10
899.940
 20
-311.892
 30
0.000000
  70
    32
  0
VERTEX
  8
┌▓È_1
  5
3E0
 10
899.955
 20
-311.904
 30
0.000000
  70
    32
  0
VERTEX
  8
┌▓È_1
  5
3E1
 10
899.970
 20
-311.916
 30
0.000000
  70
    32
  0
VERTEX
  8
┌▓È_1
  5
3E2
 10
899.986
 20
-311.928
 30
0.000000
  70
    32
  0
VERTEX
  8
┌▓È_1
  5
3E3
 10
900.001
 20
-311.940
 30
0.000000
  70
    32
  0
VERTEX
  8
┌▓È_1
  5
3E4
 10
900.016
 20
-311.952
 30
0.000000
  70
    32
  0
VERTEX
  8
┌▓È_1
  5
3E5
 10
900.031
 20
-311.964
 30
0.000000
  70
    32
  0
VERTEX
  8
┌▓È_1
  5
3E6
 10
900.046
 20
-311.976
 30
0.000000
  70
    32
  0
VERTEX
  8
┌▓È_1
  5
3E7
 10
900.061
 20
-311.988
 30
0.000000
  70
    32
  0
VERTEX
  8
┌▓È_1
  5
3E8
 10
900.076
 20
-311.999
 30
0.000000
  70
    32
  0
VERTEX
  8
┌▓È_1
  5
3E9
 10
900.092
 20
-312.011
 30
0.000000
  70
    32
  0
VERTEX
  8
┌▓È_1
  5
3EA
 10
900.107
 20
-312.023
 30
0.000000
  70
    32
  0
VERTEX
  8
┌▓È_1
  5
3EB
 10
900.122
 20
-312.035
 30
0.000000
  70
    32
  0
VERTEX
  8
┌▓È_1
  5
3EC
 10
900.137
 20
-312.047
 30
0.000000
  70
    32
  0
VERTEX
  8
┌▓È_1
  5
3ED
 10
900.153
 20
-312.058
 30
0.000000
  70
    32
  0
VERTEX
  8
┌▓È_1
  5
3EE
 10
900.168
 20
-312.070
 30
0.000000
  70
    32
  0
VERTEX
  8
┌▓È_1
  5
3EF
 10
900.183
 20
-312.082
 30
0.000000
  70
    32
  0
VERTEX
  8
┌▓È_1
  5
3F0
 10
900.198
 20
-312.093
 30
0.000000
  70
    32
  0
VERTEX
  8
┌▓È_1
  5
3F1
 10
900.214
 20
-312.105
 30
0.000000
  70
    32
  0
VERTEX
  8
┌▓È_1
  5
3F2
 10
900.229
 20
-312.116
 30
0.000000
  70
    32
  0
VERTEX
  8
┌▓È_1
  5
3F3
 10
900.244
 20
-312.128
 30
0.000000
  70
    32
  0
VERTEX
  8
┌▓È_1
  5
3F4
 10
900.260
 20
-312.139
 30
0.000000
  70
    32
  0
VERTEX
  8
┌▓È_1
  5
3F5
 10
900.275
 20
-312.151
 30
0.000000
  70
    32
  0
VERTEX
  8
┌▓È_1
  5
3F6
 10
900.291
 20
-312.162
 30
0.000000
  70
    32
  0
VERTEX
  8
┌▓È_1
  5
3F7
 10
900.306
 20
-312.174
 30
0.000000
  70
    32
  0
VERTEX
  8
┌▓È_1
  5
3F8
 10
900.321
 20
-312.185
 30
0.000000
  70
    32
  0
VERTEX
  8
┌▓È_1
  5
3F9
 10
900.337
 20
-312.197
 30
0.000000
  70
    32
  0
VERTEX
  8
┌▓È_1
  5
3FA
 10
900.352
 20
-312.208
 30
0.000000
  70
    32
  0
VERTEX
  8
┌▓È_1
  5
3FB
 10
900.368
 20
-312.219
 30
0.000000
  70
    32
  0
VERTEX
  8
┌▓È_1
  5
3FC
 10
900.383
 20
-312.230
 30
0.000000
  70
    32
  0
VERTEX
  8
┌▓È_1
  5
3FD
 10
900.399
 20
-312.242
 30
0.000000
  70
    32
  0
VERTEX
  8
┌▓È_1
  5
3FE
 10
900.414
 20
-312.253
 30
0.000000
  70
    32
  0
VERTEX
  8
┌▓È_1
  5
3FF
 10
900.430
 20
-312.264
 30
0.000000
  70
    32
  0
VERTEX
  8
┌▓È_1
  5
400
 10
900.446
 20
-312.275
 30
0.000000
  70
    32
  0
VERTEX
  8
┌▓È_1
  5
401
 10
900.461
 20
-312.286
 30
0.000000
  70
    32
  0
VERTEX
  8
┌▓È_1
  5
402
 10
900.477
 20
-312.297
 30
0.000000
  70
    32
  0
VERTEX
  8
┌▓È_1
  5
403
 10
900.493
 20
-312.308
 30
0.000000
  70
    32
  0
VERTEX
  8
┌▓È_1
  5
404
 10
900.508
 20
-312.319
 30
0.000000
  70
    32
  0
VERTEX
  8
┌▓È_1
  5
405
 10
900.524
 20
-312.330
 30
0.000000
  70
    32
  0
VERTEX
  8
┌▓È_1
  5
406
 10
900.540
 20
-312.341
 30
0.000000
  70
    32
  0
VERTEX
  8
┌▓È_1
  5
407
 10
900.555
 20
-312.352
 30
0.000000
  70
    32
  0
VERTEX
  8
┌▓È_1
  5
408
 10
900.571
 20
-312.363
 30
0.000000
  70
    32
  0
VERTEX
  8
┌▓È_1
  5
409
 10
900.587
 20
-312.373
 30
0.000000
  70
    32
  0
VERTEX
  8
┌▓È_1
  5
40A
 10
900.603
 20
-312.384
 30
0.000000
  70
    32
  0
VERTEX
  8
┌▓È_1
  5
40B
 10
900.618
 20
-312.395
 30
0.000000
  70
    32
  0
VERTEX
  8
┌▓È_1
  5
40C
 10
900.634
 20
-312.405
 30
0.000000
  70
    32
  0
VERTEX
  8
┌▓È_1
  5
40D
 10
900.650
 20
-312.416
 30
0.000000
  70
    32
  0
VERTEX
  8
┌▓È_1
  5
40E
 10
900.666
 20
-312.427
 30
0.000000
  70
    32
  0
VERTEX
  8
┌▓È_1
  5
40F
 10
900.682
 20
-312.437
 30
0.000000
  70
    32
  0
VERTEX
  8
┌▓È_1
  5
410
 10
900.698
 20
-312.448
 30
0.000000
  70
    32
  0
VERTEX
  8
┌▓È_1
  5
411
 10
900.714
 20
-312.458
 30
0.000000
  70
    32
  0
VERTEX
  8
┌▓È_1
  5
412
 10
900.730
 20
-312.469
 30
0.000000
  70
    32
  0
VERTEX
  8
┌▓È_1
  5
413
 10
900.746
 20
-312.479
 30
0.000000
  70
    32
  0
VERTEX
  8
┌▓È_1
  5
414
 10
900.762
 20
-312.489
 30
0.000000
  70
    32
  0
VERTEX
  8
┌▓È_1
  5
415
 10
900.778
 20
-312.500
 30
0.000000
  70
    32
  0
VERTEX
  8
┌▓È_1
  5
416
 10
900.794
 20
-312.510
 30
0.000000
  70
    32
  0
VERTEX
  8
┌▓È_1
  5
417
 10
900.810
 20
-312.520
 30
0.000000
  70
    32
  0
VERTEX
  8
┌▓È_1
  5
418
 10
900.826
 20
-312.530
 30
0.000000
  70
    32
  0
VERTEX
  8
┌▓È_1
  5
419
 10
900.842
 20
-312.541
 30
0.000000
  70
    32
  0
VERTEX
  8
┌▓È_1
  5
41A
 10
900.858
 20
-312.551
 30
0.000000
  70
    32
  0
VERTEX
  8
┌▓È_1
  5
41B
 10
900.874
 20
-312.561
 30
0.000000
  70
    32
  0
VERTEX
  8
┌▓È_1
  5
41C
 10
900.890
 20
-312.571
 30
0.000000
  70
    32
  0
VERTEX
  8
┌▓È_1
  5
41D
 10
900.906
 20
-312.581
 30
0.000000
  70
    32
  0
VERTEX
  8
┌▓È_1
  5
41E
 10
900.923
 20
-312.591
 30
0.000000
  70
    32
  0
VERTEX
  8
┌▓È_1
  5
41F
 10
900.939
 20
-312.601
 30
0.000000
  70
    32
  0
VERTEX
  8
┌▓È_1
  5
420
 10
900.955
 20
-312.610
 30
0.000000
  70
    32
  0
VERTEX
  8
┌▓È_1
  5
421
 10
900.971
 20
-312.620
 30
0.000000
  70
    32
  0
SEQEND
  8
┌▓È_1
  5
422
  0
POLYLINE
  8
┌▓È_1
  5
423
  62
5
  66
     1
 10
0.000000
 20
0.000000
 30
0.000000
  70
     8
  0
VERTEX
  8
┌▓È_1
  5
424
 10
903.928
 20
-312.597
 30
0.000000
  70
    32
  0
VERTEX
  8
┌▓È_1
  5
425
 10
903.942
 20
-312.601
 30
0.000000
  70
    32
  0
VERTEX
  8
┌▓È_1
  5
426
 10
903.956
 20
-312.605
 30
0.000000
  70
    32
  0
VERTEX
  8
┌▓È_1
  5
427
 10
903.970
 20
-312.609
 30
0.000000
  70
    32
  0
VERTEX
  8
┌▓È_1
  5
428
 10
903.984
 20
-312.613
 30
0.000000
  70
    32
  0
VERTEX
  8
┌▓È_1
  5
429
 10
903.998
 20
-312.617
 30
0.000000
  70
    32
  0
VERTEX
  8
┌▓È_1
  5
42A
 10
904.012
 20
-312.620
 30
0.000000
  70
    32
  0
VERTEX
  8
┌▓È_1
  5
42B
 10
904.026
 20
-312.624
 30
0.000000
  70
    32
  0
VERTEX
  8
┌▓È_1
  5
42C
 10
904.040
 20
-312.628
 30
0.000000
  70
    32
  0
VERTEX
  8
┌▓È_1
  5
42D
 10
904.054
 20
-312.632
 30
0.000000
  70
    32
  0
VERTEX
  8
┌▓È_1
  5
42E
 10
904.068
 20
-312.636
 30
0.000000
  70
    32
  0
VERTEX
  8
┌▓È_1
  5
42F
 10
904.083
 20
-312.639
 30
0.000000
  70
    32
  0
VERTEX
  8
┌▓È_1
  5
430
 10
904.097
 20
-312.643
 30
0.000000
  70
    32
  0
VERTEX
  8
┌▓È_1
  5
431
 10
904.111
 20
-312.647
 30
0.000000
  70
    32
  0
VERTEX
  8
┌▓È_1
  5
432
 10
904.125
 20
-312.651
 30
0.000000
  70
    32
  0
VERTEX
  8
┌▓È_1
  5
433
 10
904.139
 20
-312.654
 30
0.000000
  70
    32
  0
VERTEX
  8
┌▓È_1
  5
434
 10
904.153
 20
-312.658
 30
0.000000
  70
    32
  0
VERTEX
  8
┌▓È_1
  5
435
 10
904.168
 20
-312.661
 30
0.000000
  70
    32
  0
VERTEX
  8
┌▓È_1
  5
436
 10
904.182
 20
-312.665
 30
0.000000
  70
    32
  0
VERTEX
  8
┌▓È_1
  5
437
 10
904.196
 20
-312.669
 30
0.000000
  70
    32
  0
VERTEX
  8
┌▓È_1
  5
438
 10
904.210
 20
-312.672
 30
0.000000
  70
    32
  0
VERTEX
  8
┌▓È_1
  5
439
 10
904.225
 20
-312.676
 30
0.000000
  70
    32
  0
VERTEX
  8
┌▓È_1
  5
43A
 10
904.239
 20
-312.679
 30
0.000000
  70
    32
  0
VERTEX
  8
┌▓È_1
  5
43B
 10
904.253
 20
-312.683
 30
0.000000
  70
    32
  0
VERTEX
  8
┌▓È_1
  5
43C
 10
904.267
 20
-312.686
 30
0.000000
  70
    32
  0
VERTEX
  8
┌▓È_1
  5
43D
 10
904.282
 20
-312.690
 30
0.000000
  70
    32
  0
VERTEX
  8
┌▓È_1
  5
43E
 10
904.296
 20
-312.693
 30
0.000000
  70
    32
  0
VERTEX
  8
┌▓È_1
  5
43F
 10
904.310
 20
-312.697
 30
0.000000
  70
    32
  0
VERTEX
  8
┌▓È_1
  5
440
 10
904.325
 20
-312.700
 30
0.000000
  70
    32
  0
VERTEX
  8
┌▓È_1
  5
441
 10
904.339
 20
-312.703
 30
0.000000
  70
    32
  0
VERTEX
  8
┌▓È_1
  5
442
 10
904.353
 20
-312.707
 30
0.000000
  70
    32
  0
VERTEX
  8
┌▓È_1
  5
443
 10
904.368
 20
-312.710
 30
0.000000
  70
    32
  0
VERTEX
  8
┌▓È_1
  5
444
 10
904.382
 20
-312.713
 30
0.000000
  70
    32
  0
VERTEX
  8
┌▓È_1
  5
445
 10
904.396
 20
-312.717
 30
0.000000
  70
    32
  0
VERTEX
  8
┌▓È_1
  5
446
 10
904.411
 20
-312.720
 30
0.000000
  70
    32
  0
VERTEX
  8
┌▓È_1
  5
447
 10
904.425
 20
-312.723
 30
0.000000
  70
    32
  0
VERTEX
  8
┌▓È_1
  5
448
 10
904.440
 20
-312.727
 30
0.000000
  70
    32
  0
VERTEX
  8
┌▓È_1
  5
449
 10
904.454
 20
-312.730
 30
0.000000
  70
    32
  0
VERTEX
  8
┌▓È_1
  5
44A
 10
904.468
 20
-312.733
 30
0.000000
  70
    32
  0
VERTEX
  8
┌▓È_1
  5
44B
 10
904.483
 20
-312.736
 30
0.000000
  70
    32
  0
VERTEX
  8
┌▓È_1
  5
44C
 10
904.497
 20
-312.740
 30
0.000000
  70
    32
  0
VERTEX
  8
┌▓È_1
  5
44D
 10
904.512
 20
-312.743
 30
0.000000
  70
    32
  0
VERTEX
  8
┌▓È_1
  5
44E
 10
904.526
 20
-312.746
 30
0.000000
  70
    32
  0
VERTEX
  8
┌▓È_1
  5
44F
 10
904.541
 20
-312.749
 30
0.000000
  70
    32
  0
VERTEX
  8
┌▓È_1
  5
450
 10
904.555
 20
-312.752
 30
0.000000
  70
    32
  0
VERTEX
  8
┌▓È_1
  5
451
 10
904.570
 20
-312.755
 30
0.000000
  70
    32
  0
VERTEX
  8
┌▓È_1
  5
452
 10
904.584
 20
-312.759
 30
0.000000
  70
    32
  0
VERTEX
  8
┌▓È_1
  5
453
 10
904.599
 20
-312.762
 30
0.000000
  70
    32
  0
VERTEX
  8
┌▓È_1
  5
454
 10
904.613
 20
-312.765
 30
0.000000
  70
    32
  0
VERTEX
  8
┌▓È_1
  5
455
 10
904.628
 20
-312.768
 30
0.000000
  70
    32
  0
VERTEX
  8
┌▓È_1
  5
456
 10
904.642
 20
-312.771
 30
0.000000
  70
    32
  0
VERTEX
  8
┌▓È_1
  5
457
 10
904.657
 20
-312.774
 30
0.000000
  70
    32
  0
VERTEX
  8
┌▓È_1
  5
458
 10
904.672
 20
-312.777
 30
0.000000
  70
    32
  0
VERTEX
  8
┌▓È_1
  5
459
 10
904.686
 20
-312.780
 30
0.000000
  70
    32
  0
VERTEX
  8
┌▓È_1
  5
45A
 10
904.701
 20
-312.783
 30
0.000000
  70
    32
  0
VERTEX
  8
┌▓È_1
  5
45B
 10
904.715
 20
-312.786
 30
0.000000
  70
    32
  0
VERTEX
  8
┌▓È_1
  5
45C
 10
904.730
 20
-312.789
 30
0.000000
  70
    32
  0
VERTEX
  8
┌▓È_1
  5
45D
 10
904.745
 20
-312.792
 30
0.000000
  70
    32
  0
VERTEX
  8
┌▓È_1
  5
45E
 10
904.759
 20
-312.795
 30
0.000000
  70
    32
  0
VERTEX
  8
┌▓È_1
  5
45F
 10
904.774
 20
-312.798
 30
0.000000
  70
    32
  0
VERTEX
  8
┌▓È_1
  5
460
 10
904.788
 20
-312.801
 30
0.000000
  70
    32
  0
VERTEX
  8
┌▓È_1
  5
461
 10
904.803
 20
-312.804
 30
0.000000
  70
    32
  0
VERTEX
  8
┌▓È_1
  5
462
 10
904.818
 20
-312.807
 30
0.000000
  70
    32
  0
VERTEX
  8
┌▓È_1
  5
463
 10
904.832
 20
-312.809
 30
0.000000
  70
    32
  0
VERTEX
  8
┌▓È_1
  5
464
 10
904.847
 20
-312.812
 30
0.000000
  70
    32
  0
VERTEX
  8
┌▓È_1
  5
465
 10
904.862
 20
-312.815
 30
0.000000
  70
    32
  0
VERTEX
  8
┌▓È_1
  5
466
 10
904.876
 20
-312.818
 30
0.000000
  70
    32
  0
VERTEX
  8
┌▓È_1
  5
467
 10
904.891
 20
-312.821
 30
0.000000
  70
    32
  0
VERTEX
  8
┌▓È_1
  5
468
 10
904.906
 20
-312.824
 30
0.000000
  70
    32
  0
VERTEX
  8
┌▓È_1
  5
469
 10
904.920
 20
-312.827
 30
0.000000
  70
    32
  0
VERTEX
  8
┌▓È_1
  5
46A
 10
904.935
 20
-312.829
 30
0.000000
  70
    32
  0
VERTEX
  8
┌▓È_1
  5
46B
 10
904.950
 20
-312.832
 30
0.000000
  70
    32
  0
VERTEX
  8
┌▓È_1
  5
46C
 10
904.965
 20
-312.835
 30
0.000000
  70
    32
  0
VERTEX
  8
┌▓È_1
  5
46D
 10
904.979
 20
-312.838
 30
0.000000
  70
    32
  0
VERTEX
  8
┌▓È_1
  5
46E
 10
904.994
 20
-312.840
 30
0.000000
  70
    32
  0
VERTEX
  8
┌▓È_1
  5
46F
 10
905.009
 20
-312.843
 30
0.000000
  70
    32
  0
VERTEX
  8
┌▓È_1
  5
470
 10
905.023
 20
-312.846
 30
0.000000
  70
    32
  0
VERTEX
  8
┌▓È_1
  5
471
 10
905.038
 20
-312.849
 30
0.000000
  70
    32
  0
VERTEX
  8
┌▓È_1
  5
472
 10
905.053
 20
-312.851
 30
0.000000
  70
    32
  0
VERTEX
  8
┌▓È_1
  5
473
 10
905.068
 20
-312.854
 30
0.000000
  70
    32
  0
VERTEX
  8
┌▓È_1
  5
474
 10
905.082
 20
-312.857
 30
0.000000
  70
    32
  0
VERTEX
  8
┌▓È_1
  5
475
 10
905.097
 20
-312.860
 30
0.000000
  70
    32
  0
VERTEX
  8
┌▓È_1
  5
476
 10
905.112
 20
-312.862
 30
0.000000
  70
    32
  0
VERTEX
  8
┌▓È_1
  5
477
 10
905.127
 20
-312.865
 30
0.000000
  70
    32
  0
VERTEX
  8
┌▓È_1
  5
478
 10
905.142
 20
-312.868
 30
0.000000
  70
    32
  0
VERTEX
  8
┌▓È_1
  5
479
 10
905.156
 20
-312.870
 30
0.000000
  70
    32
  0
VERTEX
  8
┌▓È_1
  5
47A
 10
905.171
 20
-312.873
 30
0.000000
  70
    32
  0
VERTEX
  8
┌▓È_1
  5
47B
 10
905.186
 20
-312.876
 30
0.000000
  70
    32
  0
VERTEX
  8
┌▓È_1
  5
47C
 10
905.201
 20
-312.878
 30
0.000000
  70
    32
  0
VERTEX
  8
┌▓È_1
  5
47D
 10
905.216
 20
-312.881
 30
0.000000
  70
    32
  0
VERTEX
  8
┌▓È_1
  5
47E
 10
905.230
 20
-312.884
 30
0.000000
  70
    32
  0
VERTEX
  8
┌▓È_1
  5
47F
 10
905.245
 20
-312.886
 30
0.000000
  70
    32
  0
VERTEX
  8
┌▓È_1
  5
480
 10
905.260
 20
-312.889
 30
0.000000
  70
    32
  0
VERTEX
  8
┌▓È_1
  5
481
 10
905.275
 20
-312.892
 30
0.000000
  70
    32
  0
VERTEX
  8
┌▓È_1
  5
482
 10
905.290
 20
-312.894
 30
0.000000
  70
    32
  0
VERTEX
  8
┌▓È_1
  5
483
 10
905.304
 20
-312.897
 30
0.000000
  70
    32
  0
VERTEX
  8
┌▓È_1
  5
484
 10
905.319
 20
-312.899
 30
0.000000
  70
    32
  0
VERTEX
  8
┌▓È_1
  5
485
 10
905.334
 20
-312.902
 30
0.000000
  70
    32
  0
VERTEX
  8
┌▓È_1
  5
486
 10
905.349
 20
-312.905
 30
0.000000
  70
    32
  0
VERTEX
  8
┌▓È_1
  5
487
 10
905.364
 20
-312.907
 30
0.000000
  70
    32
  0
VERTEX
  8
┌▓È_1
  5
488
 10
905.379
 20
-312.910
 30
0.000000
  70
    32
  0
VERTEX
  8
┌▓È_1
  5
489
 10
905.394
 20
-312.912
 30
0.000000
  70
    32
  0
VERTEX
  8
┌▓È_1
  5
48A
 10
905.408
 20
-312.915
 30
0.000000
  70
    32
  0
VERTEX
  8
┌▓È_1
  5
48B
 10
905.423
 20
-312.917
 30
0.000000
  70
    32
  0
VERTEX
  8
┌▓È_1
  5
48C
 10
905.438
 20
-312.920
 30
0.000000
  70
    32
  0
VERTEX
  8
┌▓È_1
  5
48D
 10
905.453
 20
-312.923
 30
0.000000
  70
    32
  0
VERTEX
  8
┌▓È_1
  5
48E
 10
905.468
 20
-312.925
 30
0.000000
  70
    32
  0
VERTEX
  8
┌▓È_1
  5
48F
 10
905.483
 20
-312.928
 30
0.000000
  70
    32
  0
VERTEX
  8
┌▓È_1
  5
490
 10
905.498
 20
-312.930
 30
0.000000
  70
    32
  0
VERTEX
  8
┌▓È_1
  5
491
 10
905.512
 20
-312.933
 30
0.000000
  70
    32
  0
VERTEX
  8
┌▓È_1
  5
492
 10
905.527
 20
-312.935
 30
0.000000
  70
    32
  0
VERTEX
  8
┌▓È_1
  5
493
 10
905.542
 20
-312.938
 30
0.000000
  70
    32
  0
VERTEX
  8
┌▓È_1
  5
494
 10
905.557
 20
-312.940
 30
0.000000
  70
    32
  0
VERTEX
  8
┌▓È_1
  5
495
 10
905.572
 20
-312.943
 30
0.000000
  70
    32
  0
VERTEX
  8
┌▓È_1
  5
496
 10
905.587
 20
-312.945
 30
0.000000
  70
    32
  0
VERTEX
  8
┌▓È_1
  5
497
 10
905.602
 20
-312.948
 30
0.000000
  70
    32
  0
VERTEX
  8
┌▓È_1
  5
498
 10
905.617
 20
-312.951
 30
0.000000
  70
    32
  0
VERTEX
  8
┌▓È_1
  5
499
 10
905.631
 20
-312.953
 30
0.000000
  70
    32
  0
VERTEX
  8
┌▓È_1
  5
49A
 10
905.646
 20
-312.956
 30
0.000000
  70
    32
  0
VERTEX
  8
┌▓È_1
  5
49B
 10
905.661
 20
-312.958
 30
0.000000
  70
    32
  0
VERTEX
  8
┌▓È_1
  5
49C
 10
905.676
 20
-312.961
 30
0.000000
  70
    32
  0
VERTEX
  8
┌▓È_1
  5
49D
 10
905.691
 20
-312.963
 30
0.000000
  70
    32
  0
VERTEX
  8
┌▓È_1
  5
49E
 10
905.706
 20
-312.966
 30
0.000000
  70
    32
  0
VERTEX
  8
┌▓È_1
  5
49F
 10
905.721
 20
-312.968
 30
0.000000
  70
    32
  0
VERTEX
  8
┌▓È_1
  5
4A0
 10
905.736
 20
-312.971
 30
0.000000
  70
    32
  0
VERTEX
  8
┌▓È_1
  5
4A1
 10
905.750
 20
-312.973
 30
0.000000
  70
    32
  0
VERTEX
  8
┌▓È_1
  5
4A2
 10
905.765
 20
-312.976
 30
0.000000
  70
    32
  0
VERTEX
  8
┌▓È_1
  5
4A3
 10
905.780
 20
-312.978
 30
0.000000
  70
    32
  0
SEQEND
  8
┌▓È_1
  5
4A4
  0
INSERT
  5
1C2
  8
0
  6
CONTINUOUS
  2
*U37
 10
0.0
 20
0.0
 30
0.0
  0
INSERT
  5
1C3
  8
0
  6
CONTINUOUS
  2
*U38
 10
0.0
 20
0.0
 30
0.0
  0
INSERT
  5
1C4
  8
0
  6
CONTINUOUS
  2
*U39
 10
0.0
 20
0.0
 30
0.0
  0
LINE
  5
1C5
  8
┌▓È_1
 10
855.45457020949993
 20
-290.20636614540001
 30
0.0
 11
855.45457020949993
 21
-315.70636614540001
 31
0.0
  0
LINE
  5
1C6
  8
┌▓È_1
 10
919.45457020949982
 20
-290.20636614540001
 30
0.0
 11
919.45457020949982
 21
-315.70636614540001
 31
0.0
  0
LINE
  5
1C7
  8
┌▓È_1
 10
855.45457020949993
 20
-290.20636614540001
 30
0.0
 11
975.45457020949993
 21
-290.20636614540001
 31
0.0
  0
LINE
  5
1C8
  8
┌▓È_1
 62
     5
 10
748.31232546399985
 20
-165.34952212979999
 30
0.0
 11
745.31232546399985
 21
-165.34952212979999
 31
0.0
  0
LINE
  5
1C9
  8
┌▓È_1
 62
     5
 10
748.31232546399985
 20
-207.34952212979999
 30
0.0
 11
748.31232546399985
 21
-165.34952212979999
 31
0.0
  0
LINE
  5
1CA
  8
┌▓È_1
 62
     5
 10
745.31232546399985
 20
-207.34952212979999
 30
0.0
 11
745.31232546399985
 21
-165.34952212979999
 31
0.0
  0
LINE
  5
1CB
  8
┌▓È_1
  6
STITCH
 10
746.31232546399997
 20
-197.34952212979999
 30
0.0
 11
745.31232546399985
 21
-197.34952212979999
 31
0.0
  0
LINE
  5
1CC
  8
┌▓È_1
  6
STITCH
 10
746.31232546399997
 20
-197.34952212979999
 30
0.0
 11
746.31232546399997
 21
-201.34952212979999
 31
0.0
  0
LINE
  5
1CD
  8
┌▓È_1
  6
STITCH
 10
748.31232546399985
 20
-203.34952212979999
 30
0.0
 11
746.31232546399997
 21
-201.34952212979999
 31
0.0
  0
LINE
  5
1CE
  8
┌▓È_1
  6
STITCH
 10
748.31232546399985
 20
-195.34952212979999
 30
0.0
 11
746.31232546399997
 21
-197.34952212979999
 31
0.0
  0
LINE
  5
1CF
  8
┌▓È_1
  6
BORDER
 62
     3
 10
742.64514658300004
 20
-199.34952212979999
 30
0.0
 11
750.57138771780001
 21
-199.34952212979999
 31
0.0
  0
LINE
  5
1D0
  8
┌▓È_1
  6
STITCH
 10
746.31232546399997
 20
-201.34952212979999
 30
0.0
 11
745.31232546399985
 21
-201.34952212979999
 31
0.0
  0
LINE
  5
1D1
  8
┌▓È_1
  6
BORDER
 62
     3
 10
756.31232546399985
 20
-213.01670101080001
 30
0.0
 11
756.31232546399985
 21
-205.0904598761
 31
0.0
  0
LINE
  5
1D2
  8
┌▓È_1
  6
STITCH
 10
760.31232546399985
 20
-207.34952212979999
 30
0.0
 11
758.31232546399997
 21
-209.34952212979999
 31
0.0
  0
LINE
  5
1D3
  8
┌▓È_1
  6
STITCH
 10
752.31232546399985
 20
-207.34952212979999
 30
0.0
 11
754.31232546399997
 21
-209.34952212979999
 31
0.0
  0
ARC
  5
1D4
  8
┌▓È_1
 62
     5
 10
748.31232546399985
 20
-207.34952212979999
 30
0.0
 40
3.0
 50
180.0
 51
270.0
  0
LINE
  5
1D5
  8
┌▓È_1
  6
STITCH
 10
780.31232546399997
 20
-207.34952212979999
 30
0.0
 11
782.31232546399985
 21
-209.34952212979999
 31
0.0
  0
LINE
  5
1D6
  8
┌▓È_1
  6
STITCH
 10
786.31232546399985
 20
-209.34952212979999
 30
0.0
 11
782.31232546399985
 21
-209.34952212979999
 31
0.0
  0
LINE
  5
1D7
  8
┌▓È_1
  6
STITCH
 10
786.31232546399985
 20
-209.34952212979999
 30
0.0
 11
786.31232546399985
 21
-210.34952212979999
 31
0.0
  0
LINE
  5
1D8
  8
┌▓È_1
  6
STITCH
 10
782.31232546399985
 20
-209.34952212979999
 30
0.0
 11
782.31232546399985
 21
-210.34952212979999
 31
0.0
  0
LINE
  5
1D9
  8
┌▓È_1
  6
STITCH
 10
758.31232546399997
 20
-209.34952212979999
 30
0.0
 11
754.31232546399997
 21
-209.34952212979999
 31
0.0
  0
LINE
  5
1DA
  8
┌▓È_1
  6
STITCH
 10
758.31232546399997
 20
-209.34952212979999
 30
0.0
 11
758.31232546399997
 21
-210.34952212979999
 31
0.0
  0
LINE
  5
1DB
  8
┌▓È_1
  6
STITCH
 10
754.31232546399997
 20
-209.34952212979999
 30
0.0
 11
754.31232546399997
 21
-210.34952212979999
 31
0.0
  0
LINE
  5
1DC
  8
┌▓È_1
  6
BORDER
 62
     3
 10
784.31232546399997
 20
-213.01670101080001
 30
0.0
 11
784.31232546399997
 21
-205.0904598761
 31
0.0
  0
LINE
  5
1DD
  8
┌▓È_1
 62
     5
 10
790.31232546399985
 20
-210.34952212979999
 30
0.0
 11
790.31232546399985
 21
-207.34952212979999
 31
0.0
  0
LINE
  5
1DE
  8
┌▓È_1
 62
     5
 10
748.31232546399985
 20
-207.34952212979999
 30
0.0
 11
790.31232546399985
 21
-207.34952212979999
 31
0.0
  0
LINE
  5
1DF
  8
┌▓È_1
 62
     5
 10
748.31232546399985
 20
-210.34952212979999
 30
0.0
 11
790.31232546399985
 21
-210.34952212979999
 31
0.0
  0
LINE
  5
1E0
  8
┌▓È_1
  6
STITCH
 10
788.31232546399997
 20
-207.34952212979999
 30
0.0
 11
786.31232546399985
 21
-209.34952212979999
 31
0.0
  0
CIRCLE
  5
1E1
  8
┌▓È_1
 62
     5
 10
845.95071435289981
 20
-171.34952212979999
 30
0.0
 40
2.0
  0
LINE
  5
1E2
  8
┌▓È_1
 62
     5
 10
853.95071435289981
 20
-210.34952212979999
 30
0.0
 11
853.95071435289981
 21
-165.34952212979999
 31
0.0
  0
LINE
  5
1E3
  8
┌▓È_1
  6
BORDER
 62
     3
 10
839.95071435290004
 20
-171.34952212979999
 30
0.0
 11
851.95071435289992
 21
-171.34952212979999
 31
0.0
  0
LINE
  5
1E4
  8
┌▓È_1
  6
BORDER
 62
     3
 10
839.95071435290004
 20
-199.34952212979999
 30
0.0
 11
851.95071435289992
 21
-199.34952212979999
 31
0.0
  0
LINE
  5
1E5
  8
┌▓È_1
  6
BORDER
 62
     3
 10
845.95071435289981
 20
-193.34952212979999
 30
0.0
 11
845.95071435289981
 21
-207.9166425002
 31
0.0
  0
CIRCLE
  5
1E6
  8
┌▓È_1
 62
     5
 10
845.95071435289981
 20
-199.34952212979999
 30
0.0
 40
4.0
  0
CIRCLE
  5
1E7
  8
┌▓È_1
 62
     5
 10
845.95071435289981
 20
-199.34952212979999
 30
0.0
 40
2.0
  0
LINE
  5
1E8
  8
┌▓È_1
 62
     5
 10
936.01788101960005
 20
-193.5869680934
 30
0.0
 11
926.01788101960005
 21
-203.5869680934
 31
0.0
  0
LINE
  5
1E9
  8
┌▓È_1
 62
     5
 10
926.01788101960005
 20
-203.5869680934
 30
0.0
 11
906.01788101960005
 21
-203.5869680934
 31
0.0
  0
LINE
  5
1EA
  8
┌▓È_1
 62
     5
 10
906.01788101960005
 20
-203.5869680934
 30
0.0
 11
906.01788101960005
 21
-208.5869680934
 31
0.0
  0
LINE
  5
1EB
  8
┌▓È_1
 62
     5
 10
926.01788101960005
 20
-203.5869680934
 30
0.0
 11
926.01788101960005
 21
-208.5869680934
 31
0.0
  0
LINE
  5
1EC
  8
┌▓È_1
 62
     5
 10
896.01788101960005
 20
-193.5869680934
 30
0.0
 11
906.01788101960005
 21
-203.5869680934
 31
0.0
  0
LINE
  5
1ED
  8
┌▓È_1
 62
     5
 10
885.53269583439987
 20
-193.5869680934
 30
0.0
 11
946.50306620480001
 21
-193.5869680934
 31
0.0
  0
LINE
  5
1EE
  8
┌▓È_1
 62
     5
 10
885.53269583439987
 20
-208.5869680934
 30
0.0
 11
946.50306620480001
 21
-208.5869680934
 31
0.0
  0
LINE
  5
1EF
  8
┌▓È_1
  6
BORDER
 62
     3
 10
916.01788101960005
 20
-188.5869680934
 30
0.0
 11
916.01788101960005
 21
-213.5869680934
 31
0.0
  0
LINE
  5
1F0
  8
┌▓È_1
 62
     5
 10
837.95071435289981
 20
-207.34952212979999
 30
0.0
 11
853.95071435289981
 21
-207.34952212979999
 31
0.0
  0
LINE
  5
1F1
  8
┌▓È_1
 62
     5
 10
837.95071435289981
 20
-210.34952212979999
 30
0.0
 11
853.95071435289981
 21
-210.34952212979999
 31
0.0
  0
CIRCLE
  5
1F2
  8
┌▓È_1
 62
     5
 10
845.95071435289981
 20
-171.34952212979999
 30
0.0
 40
4.0
  0
LINE
  5
1F3
  8
┌▓È_1
  6
BORDER
 62
     3
 10
845.95071435289981
 20
-165.34952212979999
 30
0.0
 11
845.95071435289981
 21
-177.34952212979999
 31
0.0
  0
LINE
  5
1F4
  8
┌▓È_1
 62
     5
 10
853.95071435289981
 20
-165.34952212979999
 30
0.0
 11
837.95071435289981
 21
-165.34952212979999
 31
0.0
  0
LINE
  5
1F5
  8
┌▓È_1
 62
     5
 10
837.95071435289981
 20
-165.34952212979999
 30
0.0
 11
837.95071435289981
 21
-210.34952212979999
 31
0.0
  0
LINE
  5
1F6
  8
┌▓È_1
  6
STITCH
 10
746.31232546399997
 20
-169.34952212979999
 30
0.0
 11
745.31232546399985
 21
-169.34952212979999
 31
0.0
  0
LINE
  5
1F7
  8
┌▓È_1
  6
STITCH
 10
746.31232546399997
 20
-169.34952212979999
 30
0.0
 11
746.31232546399997
 21
-173.34952212979999
 31
0.0
  0
LINE
  5
1F8
  8
┌▓È_1
  6
STITCH
 10
748.31232546399985
 20
-175.34952212979999
 30
0.0
 11
746.31232546399997
 21
-173.34952212979999
 31
0.0
  0
LINE
  5
1F9
  8
┌▓È_1
  6
STITCH
 10
748.31232546399985
 20
-167.34952212979999
 30
0.0
 11
746.31232546399997
 21
-169.34952212979999
 31
0.0
  0
ENDSEC
  0
EOF
