  0
SECTION
  2
HEADER
  9
$ACADVER
  1
AC1009
  9
$INSBASE
 10
0.0
 20
0.0
 30
0.0
  9
$EXTMIN
 10
562.01909130369995
 20
-409.04719704489997
 30
0.0
  9
$EXTMAX
 10
1112.0190913037
 20
-29.047197044899999
 30
0.0
  9
$LIMMIN
 10
0.0
 20
0.0
  9
$LIMMAX
 10
0.0
 20
0.0
  9
$ORTHOMODE
 70
     0
  9
$REGENMODE
 70
     1
  9
$FILLMODE
 70
     1
  9
$QTEXTMODE
 70
     0
  9
$MIRRTEXT
 70
     1
  9
$DRAGMODE
 70
     2
  9
$LTSCALE
 40
1.0
  9
$OSMODE
 70
    31
  9
$ATTMODE
 70
     1
  9
$TEXTSIZE
 40
0.0
  9
$TRACEWID
 40
0.05
  9
$TEXTSTYLE
  7
STANDARD
  9
$CLAYER
  8
0
  9
$CELTYPE
  6
CONTINUOUS
  9
$CECOLOR
 62
   256
  9
$DIMSCALE
 40
1.0
  9
$DIMASZ
 40
0.18
  9
$DIMEXO
 40
0.0625
  9
$DIMDLI
 40
0.38
  9
$DIMRND
 40
0.0
  9
$DIMDLE
 40
0.0
  9
$DIMEXE
 40
0.18
  9
$DIMTP
 40
0.0
  9
$DIMTM
 40
0.0
  9
$DIMTXT
 40
0.18
  9
$DIMCEN
 40
0.09
  9
$DIMTSZ
 40
0.0
  9
$DIMTOL
 70
     0
  9
$DIMLIM
 70
     0
  9
$DIMTIH
 70
     1
  9
$DIMTOH
 70
     1
  9
$DIMSE1
 70
     0
  9
$DIMSE2
 70
     0
  9
$DIMTAD
 70
     0
  9
$DIMZIN
 70
     0
  9
$DIMBLK
  1

  9
$DIMASO
 70
     1
  9
$DIMSHO
 70
     1
  9
$DIMPOST
  1

  9
$DIMAPOST
  1

  9
$DIMALT
 70
     0
  9
$DIMALTD
 70
     2
  9
$DIMALTF
 40
25.399999999999999
  9
$DIMLFAC
 40
1.0
  9
$DIMTOFL
 70
     0
  9
$DIMTVP
 40
0.0
  9
$DIMTIX
 70
     0
  9
$DIMSOXD
 70
     0
  9
$DIMSAH
 70
     0
  9
$DIMBLK1
  1

  9
$DIMBLK2
  1

  9
$DIMSTYLE
  2
STANDARD
  9
$DIMCLRD
 70
     0
  9
$DIMCLRE
 70
     0
  9
$DIMCLRT
 70
     0
  9
$DIMTFAC
 40
1.0
  9
$DIMGAP
 40
0.09
  9
$LUNITS
 70
     2
  9
$LUPREC
 70
     4
  9
$SKETCHINC
 40
0.1
  9
$FILLETRAD
 40
0.0
  9
$AUNITS
 70
     0
  9
$AUPREC
 70
     0
  9
$MENU
  1
acad
  9
$ELEVATION
 40
0.0
  9
$PELEVATION
 40
0.0
  9
$THICKNESS
 40
0.0
  9
$LIMCHECK
 70
     0
  9
$BLIPMODE
 70
     0
  9
$CHAMFERA
 40
0.0
  9
$CHAMFERB
 40
0.0
  9
$SKPOLY
 70
     0
  9
$TDCREATE
 40
2454862.7446317938
  9
$TDUPDATE
 40
2454862.744749167
  9
$TDINDWG
 40
0.0001256829
  9
$TDUSRTIMER
 40
0.0001251389
  9
$USRTIMER
 70
     1
  9
$ANGBASE
 50
0.0
  9
$ANGDIR
 70
     0
  9
$PDMODE
 70
     3
  9
$PDSIZE
 40
-1.0
  9
$PLINEWID
 40
0.0
  9
$COORDS
 70
     2
  9
$SPLFRAME
 70
     0
  9
$SPLINETYPE
 70
     6
  9
$SPLINESEGS
 70
     8
  9
$ATTDIA
 70
     0
  9
$ATTREQ
 70
     1
  9
$HANDLING
 70
     1
  9
$HANDSEED
  5
599
  9
$SURFTAB1
 70
     6
  9
$SURFTAB2
 70
     6
  9
$SURFTYPE
 70
     6
  9
$SURFU
 70
     6
  9
$SURFV
 70
     6
  9
$UCSNAME
  2

  9
$UCSORG
 10
0.0
 20
0.0
 30
0.0
  9
$UCSXDIR
 10
1.0
 20
0.0
 30
0.0
  9
$UCSYDIR
 10
0.0
 20
1.0
 30
0.0
  9
$PUCSNAME
  2

  9
$PUCSORG
 10
0.0
 20
0.0
 30
0.0
  9
$PUCSXDIR
 10
1.0
 20
0.0
 30
0.0
  9
$PUCSYDIR
 10
0.0
 20
1.0
 30
0.0
  9
$USERI1
 70
     0
  9
$USERI2
 70
     0
  9
$USERI3
 70
     0
  9
$USERI4
 70
     0
  9
$USERI5
 70
     0
  9
$USERR1
 40
0.0
  9
$USERR2
 40
0.0
  9
$USERR3
 40
0.0
  9
$USERR4
 40
0.0
  9
$USERR5
 40
0.0
  9
$WORLDVIEW
 70
     1
  9
$SHADEDGE
 70
     3
  9
$SHADEDIF
 70
    70
  9
$TILEMODE
 70
     1
  9
$MAXACTVP
 70
    16
  9
$PLIMCHECK
 70
     0
  9
$PEXTMIN
 10
1.0000000000000000E+020
 20
1.0000000000000000E+020
 30
1.0000000000000000E+020
  9
$PEXTMAX
 10
-1.0000000000000000E+020
 20
-1.0000000000000000E+020
 30
-1.0000000000000000E+020
  9
$PLIMMIN
 10
0.0
 20
0.0
  9
$PLIMMAX
 10
12.0
 20
9.0
  9
$UNITMODE
 70
     0
  9
$VISRETAIN
 70
     0
  9
$PLINEGEN
 70
     1
  9
$PSLTSCALE
 70
     0
  0
ENDSEC
  0
SECTION
  2
TABLES
  0
TABLE
  2
VPORT
 70
     2
  0
VPORT
  2
*ACTIVE
 70
     0
 10
0.0
 20
0.0
 11
1.0
 21
1.0
 12
837.01909130369995
 22
-219.0471970449
 13
0.0
 23
0.0
 14
1.0
 24
1.0
 15
0.0
 25
0.0
 16
0.0
 26
0.0
 36
1.0
 17
0.0
 27
0.0
 37
0.0
 40
397.98585584749179
 41
1.3903818953323901
 42
50.0
 43
0.0
 44
0.0
 50
0.0
 51
0.0
 71
     0
 72
   100
 73
     1
 74
     1
 75
     0
 76
     0
 77
     0
 78
     0
  0
ENDTAB
  0
TABLE
  2
LTYPE
 70
    11
  0
LTYPE
  2
CONTINUOUS
 70
     0
  3
Solid line
 72
    65
 73
     0
 40
0.0
  0
LTYPE
  2
DOT
 70
     0
  3
. . . . . . . . 
 72
    65
 73
     2
 40
1.0
 49
0.0
 49
-1.0
  0
LTYPE
  2
DASHED
 70
     0
  3
___  ___  ___  ___  
 72
    65
 73
     2
 40
4.0
 49
3.0
 49
-1.0
  0
LTYPE
  2
HIDDEN
 70
     0
  3
__ __ __ __ 
 72
    65
 73
     2
 40
3.0
 49
2.0
 49
-1.0
  0
LTYPE
  2
STITCH
 70
     0
  3
_ _ _ _ 
 72
    65
 73
     2
 40
2.0
 49
1.0
 49
-1.0
  0
LTYPE
  2
CENTER
 70
     0
  3
______  __  ______  __  
 72
    65
 73
     4
 40
43.0
 49
40.0
 49
-1.0
 49
1.0
 49
-1.0
  0
LTYPE
  2
DASHDOT
 70
     0
  3
____ . ____ . 
 72
    65
 73
     4
 40
32.0
 49
30.0
 49
-1.0
 49
0.0
 49
-1.0
  0
LTYPE
  2
BORDER
 70
     0
  3
__ . __ . 
 72
    65
 73
     4
 40
22.0
 49
20.0
 49
-1.0
 49
0.0
 49
-1.0
  0
LTYPE
  2
CUTTING
 70
     0
  3
________   ___   ___   
 72
    65
 73
     6
 40
45.0
 49
40.0
 49
-1.0
 49
1.0
 49
-1.0
 49
1.0
 49
-1.0
  0
LTYPE
  2
PHANTOM
 70
     0
  3
______  __  __  
 72
    65
 73
     6
 40
35.0
 49
30.0
 49
-1.0
 49
1.0
 49
-1.0
 49
1.0
 49
-1.0
  0
LTYPE
  2
DIVIDE
 70
     0
  3
____ . . ____ . . 
 72
    65
 73
     6
 40
23.0
 49
20.0
 49
-1.0
 49
0.0
 49
-1.0
 49
0.0
 49
-1.0
  0
ENDTAB
  0
TABLE
  2
LAYER
 70
     4
  0
LAYER
  2
0
 70
     0
 62
     7
  6
CONTINUOUS
  0
LAYER
  2
Éíû@É³
 70
     0
 62
     7
  6
CONTINUOUS
  0
LAYER
  2
┌▓È_1
 70
     0
 62
     7
  6
CONTINUOUS
  0
LAYER
  2
Defpoints
 70
     0
 62
     7
  6
CONTINUOUS
  0
ENDTAB
  0
TABLE
  2
STYLE
 70
     1
  0
STYLE
  2
STANDARD
 70
     0
 40
0.0
 41
1.0
 50
0.0
 71
     0
 42
0.0
  3
txt
  4
extfont
  0
ENDTAB
  0
TABLE
  2
VIEW
 70
     0
  0
ENDTAB
  0
TABLE
  2
UCS
 70
     0
  0
ENDTAB
  0
TABLE
  2
APPID
 70
     2
  0
APPID
  2
ACAD
 70
     0
  0
APPID
  2
DCO15
 70
     0
  0
ENDTAB
  0
TABLE
  2
DIMSTYLE
 70
     3
  0
DIMSTYLE
  2
STANDARD
 70
     0
  3

  4

  5

  6

  7

 40
1.0
 41
0.18
 42
0.0625
 43
0.38
 44
0.18
 45
0.0
 46
0.0
 47
0.0
 48
0.0
140
0.18
141
0.09
142
0.0
143
25.399999999999999
144
1.0
145
0.0
146
1.0
147
0.09
 71
     0
 72
     0
 73
     1
 74
     1
 75
     0
 76
     0
 77
     0
 78
     0
170
     0
171
     2
172
     0
173
     0
174
     0
175
     0
176
     0
177
     0
178
     0
  0
DIMSTYLE
  2
VELDIM0
 70
     0
  3

  4

  5

  6

  7

 40
1.0
 41
6.0
 42
0.0625
 43
0.38
 44
0.5
 45
0.0
 46
3.0
 47
0.0
 48
0.0
140
5.9972220420999998
141
0.09
142
0.0
143
25.399999999999999
144
1.0
145
0.0
146
1.0
147
0.09
 71
     0
 72
     0
 73
     0
 74
     0
 75
     0
 76
     0
 77
     0
 78
     8
170
     0
171
     2
172
     0
173
     0
174
     0
175
     0
176
     0
177
     0
178
     0
  0
DIMSTYLE
  2
VELDIM1
 70
     0
  3

  4

  5

  6

  7

 40
1.0
 41
6.0
 42
0.0625
 43
0.38
 44
1.25
 45
0.0
 46
5.0
 47
0.0
 48
0.0
140
5.9972220420999998
141
0.09
142
0.0
143
25.399999999999999
144
1.0
145
0.0
146
1.0
147
0.09
 71
     0
 72
     0
 73
     0
 74
     0
 75
     0
 76
     0
 77
     0
 78
     8
170
     0
171
     2
172
     0
173
     0
174
     0
175
     0
176
     0
177
     0
178
     0
  0
ENDTAB
  0
ENDSEC
  0
SECTION
  2
BLOCKS
  0
BLOCK
  8
0
  2
$MODEL_SPACE
 70
     0
 10
0.0
 20
0.0
 30
0.0
  3
$MODEL_SPACE
  1

  0
ENDBLK
  5
E
  8
0
  0
BLOCK
 67
     1
  8
0
  2
$PAPER_SPACE
 70
     0
 10
0.0
 20
0.0
 30
0.0
  3
$PAPER_SPACE
  1

  0
ENDBLK
  5
10
 67
     1
  8
0
  0
BLOCK
  8
0
  2
*D0
 70
     1
 10
0.0
 20
0.0
 30
0.0
  3
*D0
  1

  0
TEXT
  5
31
  8
0
 62
     0
 10
911.71227399460008
 20
-43.441110793100002
 30
0.0
 40
5.9972220420999998
  1
32
  0
LINE
  5
32
  8
0
 62
     0
 10
931.24005166639984
 20
-76.946202680400006
 30
0.0
 11
931.24005166639984
 21
-44.999444094600001
 31
0.0
  0
LINE
  5
33
  8
0
 62
     0
 10
899.24005166639995
 20
-76.946202680400006
 30
0.0
 11
899.24005166639995
 21
-44.999444094600001
 31
0.0
  0
LINE
  5
34
  8
0
 62
     0
 10
931.24005166639984
 20
-45.499444094600001
 30
0.0
 11
922.29560701000003
 21
-45.499444094600001
 31
0.0
  0
LINE
  5
35
  8
0
 62
     0
 10
931.24005166639984
 20
-45.499444094600001
 30
0.0
 11
908.18449632279999
 21
-45.499444094600001
 31
0.0
  0
LINE
  5
36
  8
0
 62
     0
 10
899.24005166639995
 20
-45.499444094600001
 30
0.0
 11
922.29560701000003
 21
-45.499444094600001
 31
0.0
  0
LINE
  5
37
  8
0
 62
     0
 10
899.24005166639995
 20
-45.499444094600001
 30
0.0
 11
908.18449632279999
 21
-45.499444094600001
 31
0.0
  0
LINE
  5
38
  8
0
 62
     0
 10
899.24005166639995
 20
-45.499444094600001
 30
0.0
 11
902.24005166639995
 21
-45.499444094600001
 31
0.0
  0
SOLID
  5
39
  8
0
 62
     0
 10
899.24005166639995
 20
-45.499444094600001
 30
0.0
 11
905.24005166639995
 21
-43.999444094600001
 31
0.0
 12
905.24005166639995
 22
-46.999444094600001
 32
0.0
 13
903.74005166639995
 23
-45.499444094600001
 33
0.0
  0
LINE
  5
3A
  8
0
 62
     0
 10
931.24005166639984
 20
-45.499444094600001
 30
0.0
 11
928.24005166639995
 21
-45.499444094600001
 31
0.0
  0
SOLID
  5
3B
  8
0
 62
     0
 10
931.24005166639984
 20
-45.499444094600001
 30
0.0
 11
925.24005166639995
 21
-46.999444094600001
 31
0.0
 12
925.24005166639995
 22
-43.999444094600001
 32
0.0
 13
926.74005166639984
 23
-45.499444094600001
 33
0.0
  0
ENDBLK
  5
3C
  8
0
  0
BLOCK
  8
0
  2
*D1
 70
     1
 10
0.0
 20
0.0
 30
0.0
  3
*D1
  1

  0
TEXT
  5
41
  8
0
 62
     0
 10
680.54311495310003
 20
-49.964035926299999
 30
0.0
 40
5.9972220420999998
  1
4.5t
  0
LINE
  5
42
  8
0
 62
     0
 10
674.56046500160005
 20
-76.946202680400006
 30
0.0
 11
674.56046500160005
 21
-51.522369227799999
 31
0.0
  0
LINE
  5
43
  8
0
 62
     0
 10
670.06046500160005
 20
-76.946202680400006
 30
0.0
 11
670.06046500160005
 21
-51.522369227799999
 31
0.0
  0
LINE
  5
44
  8
0
 62
     0
 10
674.56046500160005
 20
-52.022369227799999
 30
0.0
 11
698.18200331219998
 21
-52.022369227799999
 31
0.0
  0
LINE
  5
45
  8
0
 62
     0
 10
674.56046500160005
 20
-52.022369227799999
 30
0.0
 11
677.01533728129994
 21
-52.022369227799999
 31
0.0
  0
LINE
  5
46
  8
0
 62
     0
 10
670.06046500160005
 20
-52.022369227799999
 30
0.0
 11
698.18200331219998
 21
-52.022369227799999
 31
0.0
  0
LINE
  5
47
  8
0
 62
     0
 10
670.06046500160005
 20
-52.022369227799999
 30
0.0
 11
677.01533728129994
 21
-52.022369227799999
 31
0.0
  0
LINE
  5
48
  8
0
 62
     0
 10
670.06046500160005
 20
-52.022369227799999
 30
0.0
 11
667.06046500160005
 21
-52.022369227799999
 31
0.0
  0
SOLID
  5
49
  8
0
 62
     0
 10
670.06046500160005
 20
-52.022369227799999
 30
0.0
 11
664.06046500160005
 21
-53.522369227799999
 31
0.0
 12
664.06046500160005
 22
-50.522369227799999
 32
0.0
 13
665.56046500160005
 23
-52.022369227799999
 33
0.0
  0
LINE
  5
4A
  8
0
 62
     0
 10
674.56046500160005
 20
-52.022369227799999
 30
0.0
 11
677.56046500160005
 21
-52.022369227799999
 31
0.0
  0
SOLID
  5
4B
  8
0
 62
     0
 10
674.56046500160005
 20
-52.022369227799999
 30
0.0
 11
680.56046500160005
 21
-50.522369227799999
 31
0.0
 12
680.56046500160005
 22
-53.522369227799999
 32
0.0
 13
679.06046500160005
 23
-52.022369227799999
 33
0.0
  0
ENDBLK
  5
4C
  8
0
  0
BLOCK
  8
0
  2
*D2
 70
     1
 10
0.0
 20
0.0
 30
0.0
  3
*D2
  1

  0
TEXT
  5
50
  8
0
 62
     0
 10
1024.2215395805999
 20
-203.3527401508
 30
0.0
 40
5.9972220420999998
  1
%%c8.5
  0
LINE
  5
51
  8
0
 62
     0
 10
1011.7909837600999
 20
-185.02336876609999
 30
0.0
 11
1011.7909837600999
 21
-205.9110734523
 31
0.0
  0
LINE
  5
52
  8
0
 62
     0
 10
1054.2909837600989
 20
-185.02336876609999
 30
0.0
 11
1054.2909837600989
 21
-205.9110734523
 31
0.0
  0
LINE
  5
53
  8
0
 62
     0
 10
1011.7909837600999
 20
-205.4110734523
 30
0.0
 11
1045.3882056115001
 21
-205.4110734523
 31
0.0
  0
LINE
  5
54
  8
0
 62
     0
 10
1011.7909837600999
 20
-205.4110734523
 30
0.0
 11
1020.6937619088
 21
-205.4110734523
 31
0.0
  0
LINE
  5
55
  8
0
 62
     0
 10
1054.2909837600989
 20
-205.4110734523
 30
0.0
 11
1045.3882056115001
 21
-205.4110734523
 31
0.0
  0
LINE
  5
56
  8
0
 62
     0
 10
1054.2909837600989
 20
-205.4110734523
 30
0.0
 11
1020.6937619088
 21
-205.4110734523
 31
0.0
  0
LINE
  5
57
  8
0
 62
     0
 10
1054.2909837600989
 20
-205.4110734523
 30
0.0
 11
1051.2909837601001
 21
-205.4110734523
 31
0.0
  0
SOLID
  5
58
  8
0
 62
     0
 10
1054.2909837600989
 20
-205.4110734523
 30
0.0
 11
1048.2909837600989
 21
-206.9110734523
 31
0.0
 12
1048.2909837600989
 22
-203.9110734523
 32
0.0
 13
1049.7909837601001
 23
-205.4110734523
 33
0.0
  0
LINE
  5
59
  8
0
 62
     0
 10
1011.7909837600999
 20
-205.4110734523
 30
0.0
 11
1014.7909837600999
 21
-205.4110734523
 31
0.0
  0
SOLID
  5
5A
  8
0
 62
     0
 10
1011.7909837600999
 20
-205.4110734523
 30
0.0
 11
1017.7909837600999
 21
-203.9110734523
 31
0.0
 12
1017.7909837600999
 22
-206.9110734523
 32
0.0
 13
1016.2909837600999
 23
-205.4110734523
 33
0.0
  0
ENDBLK
  5
5B
  8
0
  0
BLOCK
  8
0
  2
*D3
 70
     1
 10
0.0
 20
0.0
 30
0.0
  3
*D3
  1

  0
TEXT
  5
60
  8
0
 62
     0
 10
1027.7493172524
 20
-219.52969056890001
 30
0.0
 40
5.9972220420999998
  1
90%%d
  0
ARC
  5
61
  8
0
 62
     0
 10
1033.0409837601001
 20
-162.77336876609999
 30
0.0
 40
59.931321707400002
 50
307.69542258019999
 51
315.0
  0
ARC
  5
62
  8
0
 62
     0
 10
1033.0409837601001
 20
-162.77336876609999
 30
0.0
 40
59.931321707400002
 50
225.0
 51
232.30457741980001
  0
SOLID
  5
63
  8
0
 62
     0
 10
990.66313977530012
 20
-205.15121275089999
 30
0.0
 11
985.35983891640001
 21
-201.9692322356
 31
0.0
 12
987.48115926000003
 22
-199.84791189200001
 32
0.0
 13
987.48115926000003
 23
-201.9692322356
 33
0.0
  0
SOLID
  5
64
  8
0
 62
     0
 10
1075.4188277449
 20
-205.15121275089999
 30
0.0
 11
1078.6008082603
 21
-199.84791189200001
 31
0.0
 12
1080.7221286038
 22
-201.9692322356
 32
0.0
 13
1078.6008082603
 23
-201.9692322356
 33
0.0
  0
ARC
  5
65
  8
0
 62
     0
 10
1033.0409837601001
 20
-162.77336876609999
 30
0.0
 40
59.931321707400002
 50
225.0
 51
259.42304110190003
  0
ARC
  5
66
  8
0
 62
     0
 10
1033.0409837601001
 20
-162.77336876609999
 30
0.0
 40
59.931321707400002
 50
280.57695889799999
 51
315.0
  0
LINE
  5
67
  8
0
 62
     0
 10
1008.9148332531
 20
-186.89951927320001
 30
0.0
 11
987.78698926829986
 21
-208.02736325800001
 31
0.0
  0
LINE
  5
68
  8
0
 62
     0
 10
1057.1671342672
 20
-186.89951927320001
 30
0.0
 11
1078.294978252
 21
-208.02736325800001
 31
0.0
  0
ENDBLK
  5
69
  8
0
  0
BLOCK
  8
0
  2
*D4
 70
     1
 10
0.0
 20
0.0
 30
0.0
  3
*D4
  1

  0
TEXT
  5
6D
  8
0
 62
     0
 10
1027.7493172524
 20
-133.06021779490001
 30
0.0
 40
5.9972220420999998
  1
%%c5
  0
LINE
  5
6E
  8
0
 62
     0
 10
1045.5409837600989
 20
-169.27336876609999
 30
0.0
 11
1045.5409837600989
 21
-134.6185510965
 31
0.0
  0
LINE
  5
6F
  8
0
 62
     0
 10
1020.5409837600999
 20
-169.27336876609999
 30
0.0
 11
1020.5409837600999
 21
-134.6185510965
 31
0.0
  0
LINE
  5
70
  8
0
 62
     0
 10
1045.5409837600989
 20
-135.1185510965
 30
0.0
 11
1041.8604279397
 21
-135.1185510965
 31
0.0
  0
LINE
  5
71
  8
0
 62
     0
 10
1045.5409837600989
 20
-135.1185510965
 30
0.0
 11
1024.2215395805999
 21
-135.1185510965
 31
0.0
  0
LINE
  5
72
  8
0
 62
     0
 10
1020.5409837600999
 20
-135.1185510965
 30
0.0
 11
1041.8604279397
 21
-135.1185510965
 31
0.0
  0
LINE
  5
73
  8
0
 62
     0
 10
1020.5409837600999
 20
-135.1185510965
 30
0.0
 11
1024.2215395805999
 21
-135.1185510965
 31
0.0
  0
LINE
  5
74
  8
0
 62
     0
 10
1020.5409837600999
 20
-135.1185510965
 30
0.0
 11
1017.5409837600999
 21
-135.1185510965
 31
0.0
  0
SOLID
  5
75
  8
0
 62
     0
 10
1020.5409837600999
 20
-135.1185510965
 30
0.0
 11
1014.5409837600999
 21
-136.6185510965
 31
0.0
 12
1014.5409837600999
 22
-133.6185510965
 32
0.0
 13
1016.0409837600999
 23
-135.1185510965
 33
0.0
  0
LINE
  5
76
  8
0
 62
     0
 10
1045.5409837600989
 20
-135.1185510965
 30
0.0
 11
1048.5409837601001
 21
-135.1185510965
 31
0.0
  0
SOLID
  5
77
  8
0
 62
     0
 10
1045.5409837600989
 20
-135.1185510965
 30
0.0
 11
1051.5409837601001
 21
-133.6185510965
 31
0.0
 12
1051.5409837601001
 22
-136.6185510965
 32
0.0
 13
1050.0409837601001
 23
-135.1185510965
 33
0.0
  0
ENDBLK
  5
78
  8
0
  0
BLOCK
  8
0
  2
*D5
 70
     1
 10
0.0
 20
0.0
 30
0.0
  3
*D5
  1

  0
TEXT
  5
7C
  8
0
 62
     0
 10
1024.2215395805999
 20
-118.2906440857
 30
0.0
 40
5.9972220420999998
  1
%%c8.5
  0
LINE
  5
7D
  8
0
 62
     0
 10
1054.2909837600989
 20
-160.52336876609999
 30
0.0
 11
1054.2909837600989
 21
-119.84897738719999
 31
0.0
  0
LINE
  5
7E
  8
0
 62
     0
 10
1011.7909837600999
 20
-160.52336876609999
 30
0.0
 11
1011.7909837600999
 21
-119.84897738719999
 31
0.0
  0
LINE
  5
7F
  8
0
 62
     0
 10
1054.2909837600989
 20
-120.34897738719999
 30
0.0
 11
1045.3882056115001
 21
-120.34897738719999
 31
0.0
  0
LINE
  5
80
  8
0
 62
     0
 10
1054.2909837600989
 20
-120.34897738719999
 30
0.0
 11
1020.6937619088
 21
-120.34897738719999
 31
0.0
  0
LINE
  5
81
  8
0
 62
     0
 10
1011.7909837600999
 20
-120.34897738719999
 30
0.0
 11
1045.3882056115001
 21
-120.34897738719999
 31
0.0
  0
LINE
  5
82
  8
0
 62
     0
 10
1011.7909837600999
 20
-120.34897738719999
 30
0.0
 11
1020.6937619088
 21
-120.34897738719999
 31
0.0
  0
LINE
  5
83
  8
0
 62
     0
 10
1011.7909837600999
 20
-120.34897738719999
 30
0.0
 11
1014.7909837600999
 21
-120.34897738719999
 31
0.0
  0
SOLID
  5
84
  8
0
 62
     0
 10
1011.7909837600999
 20
-120.34897738719999
 30
0.0
 11
1017.7909837600999
 21
-118.84897738719999
 31
0.0
 12
1017.7909837600999
 22
-121.84897738719999
 32
0.0
 13
1016.2909837600999
 23
-120.34897738719999
 33
0.0
  0
LINE
  5
85
  8
0
 62
     0
 10
1054.2909837600989
 20
-120.34897738719999
 30
0.0
 11
1051.2909837601001
 21
-120.34897738719999
 31
0.0
  0
SOLID
  5
86
  8
0
 62
     0
 10
1054.2909837600989
 20
-120.34897738719999
 30
0.0
 11
1048.2909837600989
 21
-121.84897738719999
 31
0.0
 12
1048.2909837600989
 22
-118.84897738719999
 32
0.0
 13
1049.7909837601001
 23
-120.34897738719999
 33
0.0
  0
ENDBLK
  5
87
  8
0
  0
BLOCK
  8
0
  2
*D6
 70
     1
 10
0.0
 20
0.0
 30
0.0
  3
*D6
  1

  0
TEXT
  5
8B
  8
0
 62
     0
 10
1027.7493172524
 20
-104.0771024826
 30
0.0
 40
5.9972220420999998
  1
90%%d
 50
360.0
  0
ARC
  5
8C
  8
0
 62
     0
 10
1033.0409837601001
 20
-182.77336876609999
 30
0.0
 40
75.521266378900009
 50
129.37403437559999
 51
135.0
  0
ARC
  5
8D
  8
0
 62
     0
 10
1033.0409837601001
 20
-182.77336876609999
 30
0.0
 40
75.521266378900009
 50
45.0
 51
50.625965624399988
  0
SOLID
  5
8E
  8
0
 62
     0
 10
1086.4425833405001
 20
-129.37176918579999
 30
0.0
 11
1091.7458841994001
 21
-132.5537497011
 31
0.0
 12
1089.6245638558
 22
-134.67507004469999
 32
0.0
 13
1089.6245638558
 23
-132.5537497011
 33
0.0
  0
SOLID
  5
8F
  8
0
 62
     0
 10
979.6393841798
 20
-129.37176918579999
 30
0.0
 11
976.45740366439986
 21
-134.67507004469999
 31
0.0
 12
974.33608332089989
 22
-132.5537497011
 32
0.0
 13
976.45740366439986
 23
-132.5537497011
 33
0.0
  0
ARC
  5
90
  8
0
 62
     0
 10
1033.0409837601001
 20
-182.77336876609999
 30
0.0
 40
75.521266378900009
 50
45.0
 51
83.213459774699999
  0
ARC
  5
91
  8
0
 62
     0
 10
1033.0409837601001
 20
-182.77336876609999
 30
0.0
 40
75.521266378900009
 50
96.786540225300001
 51
135.0
  0
LINE
  5
92
  8
0
 62
     0
 10
1057.1671342672
 20
-158.64721825909999
 30
0.0
 11
1089.3187338475
 21
-126.4956186787
 31
0.0
  0
LINE
  5
93
  8
0
 62
     0
 10
1008.9148332531
 20
-158.64721825909999
 30
0.0
 11
976.76323367270004
 21
-126.4956186787
 31
0.0
  0
ENDBLK
  5
94
  8
0
  0
BLOCK
  8
0
  2
*D7
 70
     1
 10
0.0
 20
0.0
 30
0.0
  3
*D7
  1

  0
TEXT
  5
A9
  8
0
 62
     0
 10
901.21227399460008
 20
-133.2195751081
 30
0.0
 40
5.9972220420999998
  1
11
  0
LINE
  5
AA
  8
0
 62
     0
 10
910.24005166639995
 20
-161.94620268040001
 30
0.0
 11
910.24005166639995
 21
-134.7779084096
 31
0.0
  0
LINE
  5
AB
  8
0
 62
     0
 10
899.24005166639995
 20
-155.56829079490001
 30
0.0
 11
899.24005166639995
 21
-134.7779084096
 31
0.0
  0
LINE
  5
AC
  8
0
 62
     0
 10
910.24005166639995
 20
-135.2779084096
 30
0.0
 11
910.24005166639995
 21
-135.2779084096
 31
0.0
  0
LINE
  5
AD
  8
0
 62
     0
 10
910.24005166639995
 20
-135.2779084096
 30
0.0
 11
899.24005166639995
 21
-135.2779084096
 31
0.0
  0
LINE
  5
AE
  8
0
 62
     0
 10
899.24005166639995
 20
-135.2779084096
 30
0.0
 11
910.24005166639995
 21
-135.2779084096
 31
0.0
  0
LINE
  5
AF
  8
0
 62
     0
 10
899.24005166639995
 20
-135.2779084096
 30
0.0
 11
899.24005166639995
 21
-135.2779084096
 31
0.0
  0
LINE
  5
B0
  8
0
 62
     0
 10
899.24005166639995
 20
-135.2779084096
 30
0.0
 11
896.24005166639995
 21
-135.2779084096
 31
0.0
  0
SOLID
  5
B1
  8
0
 62
     0
 10
899.24005166639995
 20
-135.2779084096
 30
0.0
 11
893.24005166639995
 21
-136.7779084096
 31
0.0
 12
893.24005166639995
 22
-133.7779084096
 32
0.0
 13
894.74005166639995
 23
-135.2779084096
 33
0.0
  0
LINE
  5
B2
  8
0
 62
     0
 10
910.24005166639995
 20
-135.2779084096
 30
0.0
 11
913.24005166639995
 21
-135.2779084096
 31
0.0
  0
SOLID
  5
B3
  8
0
 62
     0
 10
910.24005166639995
 20
-135.2779084096
 30
0.0
 11
916.24005166639995
 21
-133.7779084096
 31
0.0
 12
916.24005166639995
 22
-136.7779084096
 32
0.0
 13
914.74005166639995
 23
-135.2779084096
 33
0.0
  0
ENDBLK
  5
B4
  8
0
  0
BLOCK
  8
0
  2
*D8
 70
     1
 10
0.0
 20
0.0
 30
0.0
  3
*D8
  1

  0
TEXT
  5
B8
  8
0
 62
     0
 10
729.76879849390002
 20
-296.22532512840002
 30
0.0
 40
5.9972220420999998
  1
150
  0
LINE
  5
B9
  8
0
 62
     0
 10
670.06046500160005
 20
-274.44620268040001
 30
0.0
 11
670.06046500160005
 21
-298.78365842990002
 31
0.0
  0
LINE
  5
BA
  8
0
 62
     0
 10
800.06046500160005
 20
-278.94620268040001
 30
0.0
 11
800.06046500160005
 21
-298.78365842990002
 31
0.0
  0
LINE
  5
BB
  8
0
 62
     0
 10
670.06046500160005
 20
-298.28365842990002
 30
0.0
 11
743.87990918109995
 21
-298.28365842990002
 31
0.0
  0
LINE
  5
BC
  8
0
 62
     0
 10
670.06046500160005
 20
-298.28365842990002
 30
0.0
 11
726.241020822
 21
-298.28365842990002
 31
0.0
  0
LINE
  5
BD
  8
0
 62
     0
 10
800.06046500160005
 20
-298.28365842990002
 30
0.0
 11
743.87990918109995
 21
-298.28365842990002
 31
0.0
  0
LINE
  5
BE
  8
0
 62
     0
 10
800.06046500160005
 20
-298.28365842990002
 30
0.0
 11
726.241020822
 21
-298.28365842990002
 31
0.0
  0
LINE
  5
BF
  8
0
 62
     0
 10
800.06046500160005
 20
-298.28365842990002
 30
0.0
 11
797.06046500160005
 21
-298.28365842990002
 31
0.0
  0
SOLID
  5
C0
  8
0
 62
     0
 10
800.06046500160005
 20
-298.28365842990002
 30
0.0
 11
794.06046500160005
 21
-299.78365842990002
 31
0.0
 12
794.06046500160005
 22
-296.78365842990002
 32
0.0
 13
795.56046500160005
 23
-298.28365842990002
 33
0.0
  0
LINE
  5
C1
  8
0
 62
     0
 10
670.06046500160005
 20
-298.28365842990002
 30
0.0
 11
673.06046500160005
 21
-298.28365842990002
 31
0.0
  0
SOLID
  5
C2
  8
0
 62
     0
 10
670.06046500160005
 20
-298.28365842990002
 30
0.0
 11
676.06046500160005
 21
-296.78365842990002
 31
0.0
 12
676.06046500160005
 22
-299.78365842990002
 32
0.0
 13
674.56046500160005
 23
-298.28365842990002
 33
0.0
  0
ENDBLK
  5
C3
  8
0
  0
BLOCK
  8
0
  2
*D9
 70
     1
 10
0.0
 20
0.0
 30
0.0
  3
*D9
  1

  0
TEXT
  5
C7
  8
0
 62
     0
 10
911.27490102399986
 20
-202.4138932436
 30
0.0
 40
5.9972220420999998
  1
10
  0
LINE
  5
C8
  8
0
 62
     0
 10
920.24005166639995
 20
-242.69620268040001
 30
0.0
 11
920.24005166639995
 21
-203.97222654519999
 31
0.0
  0
LINE
  5
C9
  8
0
 62
     0
 10
910.24005166639995
 20
-175.94620268040001
 30
0.0
 11
910.24005166639995
 21
-204.97222654519999
 31
0.0
  0
LINE
  5
CA
  8
0
 62
     0
 10
920.24005166639995
 20
-204.47222654519999
 30
0.0
 11
920.24005166639995
 21
-204.47222654519999
 31
0.0
  0
LINE
  5
CB
  8
0
 62
     0
 10
920.24005166639995
 20
-204.47222654519999
 30
0.0
 11
910.24005166639995
 21
-204.47222654519999
 31
0.0
  0
LINE
  5
CC
  8
0
 62
     0
 10
910.24005166639995
 20
-204.47222654519999
 30
0.0
 11
920.24005166639995
 21
-204.47222654519999
 31
0.0
  0
LINE
  5
CD
  8
0
 62
     0
 10
910.24005166639995
 20
-204.47222654519999
 30
0.0
 11
910.24005166639995
 21
-204.47222654519999
 31
0.0
  0
LINE
  5
CE
  8
0
 62
     0
 10
910.24005166639995
 20
-204.47222654519999
 30
0.0
 11
907.24005166639995
 21
-204.47222654519999
 31
0.0
  0
SOLID
  5
CF
  8
0
 62
     0
 10
910.24005166639995
 20
-204.47222654519999
 30
0.0
 11
904.24005166639995
 21
-205.97222654519999
 31
0.0
 12
904.24005166639995
 22
-202.97222654519999
 32
0.0
 13
905.74005166639995
 23
-204.47222654519999
 33
0.0
  0
LINE
  5
D0
  8
0
 62
     0
 10
920.24005166639995
 20
-204.47222654519999
 30
0.0
 11
923.24005166639984
 21
-204.47222654519999
 31
0.0
  0
SOLID
  5
D1
  8
0
 62
     0
 10
920.24005166639995
 20
-204.47222654519999
 30
0.0
 11
926.24005166639995
 21
-202.97222654519999
 31
0.0
 12
926.24005166639995
 22
-205.97222654519999
 32
0.0
 13
924.74005166639995
 23
-204.47222654519999
 33
0.0
  0
ENDBLK
  5
D2
  8
0
  0
BLOCK
  8
0
  2
*D10
 70
     1
 10
0.0
 20
0.0
 30
0.0
  3
*D10
  1

  0
TEXT
  5
D6
  8
0
 62
     0
 10
922.21227399459997
 20
-218.5974869936
 30
0.0
 40
5.9972220420999998
  1
11
  0
LINE
  5
D7
  8
0
 62
     0
 10
931.24005166639984
 20
-240.94620268040001
 30
0.0
 11
931.24005166639984
 21
-220.15582029519999
 31
0.0
  0
LINE
  5
D8
  8
0
 62
     0
 10
920.24005166639995
 20
-240.94620268040001
 30
0.0
 11
920.24005166639995
 21
-220.15582029519999
 31
0.0
  0
LINE
  5
D9
  8
0
 62
     0
 10
931.24005166639984
 20
-220.65582029519999
 30
0.0
 11
931.24005166639984
 21
-220.65582029519999
 31
0.0
  0
LINE
  5
DA
  8
0
 62
     0
 10
931.24005166639984
 20
-220.65582029519999
 30
0.0
 11
920.24005166639995
 21
-220.65582029519999
 31
0.0
  0
LINE
  5
DB
  8
0
 62
     0
 10
920.24005166639995
 20
-220.65582029519999
 30
0.0
 11
931.24005166639984
 21
-220.65582029519999
 31
0.0
  0
LINE
  5
DC
  8
0
 62
     0
 10
920.24005166639995
 20
-220.65582029519999
 30
0.0
 11
920.24005166639995
 21
-220.65582029519999
 31
0.0
  0
LINE
  5
DD
  8
0
 62
     0
 10
920.24005166639995
 20
-220.65582029519999
 30
0.0
 11
917.24005166639995
 21
-220.65582029519999
 31
0.0
  0
SOLID
  5
DE
  8
0
 62
     0
 10
920.24005166639995
 20
-220.65582029519999
 30
0.0
 11
914.24005166639984
 21
-222.15582029519999
 31
0.0
 12
914.24005166639984
 22
-219.15582029519999
 32
0.0
 13
915.74005166639995
 23
-220.65582029519999
 33
0.0
  0
LINE
  5
DF
  8
0
 62
     0
 10
931.24005166639984
 20
-220.65582029519999
 30
0.0
 11
934.24005166639995
 21
-220.65582029519999
 31
0.0
  0
SOLID
  5
E0
  8
0
 62
     0
 10
931.24005166639984
 20
-220.65582029519999
 30
0.0
 11
937.24005166639995
 21
-219.15582029519999
 31
0.0
 12
937.24005166639995
 22
-222.15582029519999
 32
0.0
 13
935.74005166639984
 23
-220.65582029519999
 33
0.0
  0
ENDBLK
  5
E1
  8
0
  0
BLOCK
  8
0
  2
*D11
 70
     1
 10
0.0
 20
0.0
 30
0.0
  3
*D11
  1

  0
TEXT
  5
E5
  8
0
 62
     0
 10
879.60720982500004
 20
-266.47398035219999
 30
0.0
 40
5.9972220420999998
  1
30
 50
90.0
  0
LINE
  5
E6
  8
0
 62
     0
 10
913.24005166639995
 20
-247.94620268040001
 30
0.0
 11
881.16554312660003
 21
-247.94620268040001
 31
0.0
  0
LINE
  5
E7
  8
0
 62
     0
 10
898.24005166639984
 20
-277.94620268040001
 30
0.0
 11
881.16554312660003
 21
-277.94620268040001
 31
0.0
  0
LINE
  5
E8
  8
0
 62
     0
 10
881.66554312659991
 20
-247.94620268040001
 30
0.0
 11
881.66554312659991
 21
-255.89064733679999
 31
0.0
  0
LINE
  5
E9
  8
0
 62
     0
 10
881.66554312659991
 20
-247.94620268040001
 30
0.0
 11
881.66554312659991
 21
-270.00175802410001
 31
0.0
  0
LINE
  5
EA
  8
0
 62
     0
 10
881.66554312659991
 20
-277.94620268040001
 30
0.0
 11
881.66554312659991
 21
-255.89064733679999
 31
0.0
  0
LINE
  5
EB
  8
0
 62
     0
 10
881.66554312659991
 20
-277.94620268040001
 30
0.0
 11
881.66554312659991
 21
-270.00175802410001
 31
0.0
  0
LINE
  5
EC
  8
0
 62
     0
 10
881.66554312659991
 20
-277.94620268040001
 30
0.0
 11
881.66554312659991
 21
-274.94620268040001
 31
0.0
  0
SOLID
  5
ED
  8
0
 62
     0
 10
881.66554312659991
 20
-277.94620268040001
 30
0.0
 11
880.16554312660003
 21
-271.94620268040001
 31
0.0
 12
883.16554312660003
 22
-271.94620268040001
 32
0.0
 13
881.66554312659991
 23
-273.44620268040001
 33
0.0
  0
LINE
  5
EE
  8
0
 62
     0
 10
881.66554312659991
 20
-247.94620268040001
 30
0.0
 11
881.66554312659991
 21
-250.94620268040001
 31
0.0
  0
SOLID
  5
EF
  8
0
 62
     0
 10
881.66554312659991
 20
-247.94620268040001
 30
0.0
 11
883.16554312660003
 21
-253.94620268040001
 31
0.0
 12
880.16554312660003
 22
-253.94620268040001
 32
0.0
 13
881.66554312659991
 23
-252.44620268040001
 33
0.0
  0
ENDBLK
  5
F0
  8
0
  0
BLOCK
  8
0
  2
*D12
 70
     1
 10
0.0
 20
0.0
 30
0.0
  3
*D12
  1

  0
TEXT
  5
F4
  8
0
 62
     0
 10
879.66770316709994
 20
-213.73786918819999
 30
0.0
 40
5.9972220420999998
  1
129
 50
90.0
  0
LINE
  5
F5
  8
0
 62
     0
 10
903.24005166639995
 20
-168.94620268040001
 30
0.0
 11
881.22603646869993
 21
-168.94620268040001
 31
0.0
  0
LINE
  5
F6
  8
0
 62
     0
 10
913.24005166639995
 20
-247.94620268040001
 30
0.0
 11
881.22603646869993
 21
-247.94620268040001
 31
0.0
  0
LINE
  5
F7
  8
0
 62
     0
 10
881.72603646869993
 20
-168.94620268040001
 30
0.0
 11
881.72603646869993
 21
-199.6267585009
 31
0.0
  0
LINE
  5
F8
  8
0
 62
     0
 10
881.72603646869993
 20
-168.94620268040001
 30
0.0
 11
881.72603646869993
 21
-217.26564686
 31
0.0
  0
LINE
  5
F9
  8
0
 62
     0
 10
881.72603646869993
 20
-247.94620268040001
 30
0.0
 11
881.72603646869993
 21
-199.6267585009
 31
0.0
  0
LINE
  5
FA
  8
0
 62
     0
 10
881.72603646869993
 20
-247.94620268040001
 30
0.0
 11
881.72603646869993
 21
-217.26564686
 31
0.0
  0
LINE
  5
FB
  8
0
 62
     0
 10
881.72603646869993
 20
-247.94620268040001
 30
0.0
 11
881.72603646869993
 21
-244.94620268040001
 31
0.0
  0
SOLID
  5
FC
  8
0
 62
     0
 10
881.72603646869993
 20
-247.94620268040001
 30
0.0
 11
880.22603646869993
 21
-241.94620268040001
 31
0.0
 12
883.22603646870004
 22
-241.94620268040001
 32
0.0
 13
881.72603646869993
 23
-243.44620268040001
 33
0.0
  0
LINE
  5
FD
  8
0
 62
     0
 10
881.72603646869993
 20
-168.94620268040001
 30
0.0
 11
881.72603646869993
 21
-171.94620268040001
 31
0.0
  0
SOLID
  5
FE
  8
0
 62
     0
 10
881.72603646869993
 20
-168.94620268040001
 30
0.0
 11
883.22603646870004
 21
-174.94620268040001
 31
0.0
 12
880.22603646869993
 22
-174.94620268040001
 32
0.0
 13
881.72603646869993
 23
-173.44620268040001
 33
0.0
  0
ENDBLK
  5
FF
  8
0
  0
BLOCK
  8
0
  2
*D13
 70
     1
 10
0.0
 20
0.0
 30
0.0
  3
*D13
  1

  0
TEXT
  5
103
  8
0
 62
     0
 10
879.60720982500004
 20
-134.73786918819999
 30
0.0
 40
5.9972220420999998
  1
129
 50
90.0
  0
LINE
  5
104
  8
0
 62
     0
 10
908.24005166639995
 20
-89.946202680400006
 30
0.0
 11
881.16554312660003
 21
-89.946202680400006
 31
0.0
  0
LINE
  5
105
  8
0
 62
     0
 10
903.24005166639995
 20
-168.94620268040001
 30
0.0
 11
881.16554312660003
 21
-168.94620268040001
 31
0.0
  0
LINE
  5
106
  8
0
 62
     0
 10
881.66554312659991
 20
-89.946202680400006
 30
0.0
 11
881.66554312659991
 21
-120.6267585009
 31
0.0
  0
LINE
  5
107
  8
0
 62
     0
 10
881.66554312659991
 20
-89.946202680400006
 30
0.0
 11
881.66554312659991
 21
-138.26564686
 31
0.0
  0
LINE
  5
108
  8
0
 62
     0
 10
881.66554312659991
 20
-168.94620268040001
 30
0.0
 11
881.66554312659991
 21
-120.6267585009
 31
0.0
  0
LINE
  5
109
  8
0
 62
     0
 10
881.66554312659991
 20
-168.94620268040001
 30
0.0
 11
881.66554312659991
 21
-138.26564686
 31
0.0
  0
LINE
  5
10A
  8
0
 62
     0
 10
881.66554312659991
 20
-168.94620268040001
 30
0.0
 11
881.66554312659991
 21
-165.94620268040001
 31
0.0
  0
SOLID
  5
10B
  8
0
 62
     0
 10
881.66554312659991
 20
-168.94620268040001
 30
0.0
 11
880.16554312660003
 21
-162.94620268040001
 31
0.0
 12
883.16554312660003
 22
-162.94620268040001
 32
0.0
 13
881.66554312659991
 23
-164.44620268040001
 33
0.0
  0
LINE
  5
10C
  8
0
 62
     0
 10
881.66554312659991
 20
-89.946202680400006
 30
0.0
 11
881.66554312659991
 21
-92.946202680400006
 31
0.0
  0
SOLID
  5
10D
  8
0
 62
     0
 10
881.66554312659991
 20
-89.946202680400006
 30
0.0
 11
883.16554312660003
 21
-95.946202680400006
 31
0.0
 12
880.16554312660003
 22
-95.946202680400006
 32
0.0
 13
881.66554312659991
 23
-94.446202680400006
 33
0.0
  0
ENDBLK
  5
10E
  8
0
  0
BLOCK
  8
0
  2
*D14
 70
     1
 10
0.0
 20
0.0
 30
0.0
  3
*D14
  1

  0
TEXT
  5
112
  8
0
 62
     0
 10
830.11013951250004
 20
-344.80443435209997
 30
0.0
 40
5.9972220420999998
  1
16
 50
90.0
  0
LINE
  5
113
  8
0
 62
     0
 10
795.06046500160005
 20
-368.60566058649999
 30
0.0
 11
832.66847281410003
 21
-368.60566058649999
 31
0.0
  0
LINE
  5
114
  8
0
 62
     0
 10
801.06046500160005
 20
-352.60566058649999
 30
0.0
 11
832.66847281410003
 21
-352.60566058649999
 31
0.0
  0
LINE
  5
115
  8
0
 62
     0
 10
832.16847281410014
 20
-368.60566058649999
 30
0.0
 11
832.16847281410014
 21
-334.22110133659999
 31
0.0
  0
LINE
  5
116
  8
0
 62
     0
 10
832.16847281410014
 20
-368.60566058649999
 30
0.0
 11
832.16847281410014
 21
-348.33221202390001
 31
0.0
  0
LINE
  5
117
  8
0
 62
     0
 10
832.16847281410014
 20
-352.60566058649999
 30
0.0
 11
832.16847281410014
 21
-334.22110133659999
 31
0.0
  0
LINE
  5
118
  8
0
 62
     0
 10
832.16847281410014
 20
-352.60566058649999
 30
0.0
 11
832.16847281410014
 21
-348.33221202390001
 31
0.0
  0
LINE
  5
119
  8
0
 62
     0
 10
832.16847281410014
 20
-352.60566058649999
 30
0.0
 11
832.16847281410014
 21
-355.60566058649999
 31
0.0
  0
SOLID
  5
11A
  8
0
 62
     0
 10
832.16847281410014
 20
-352.60566058649999
 30
0.0
 11
833.66847281409991
 21
-358.60566058649999
 31
0.0
 12
830.66847281410003
 22
-358.60566058649999
 32
0.0
 13
832.16847281410014
 23
-357.10566058649999
 33
0.0
  0
LINE
  5
11B
  8
0
 62
     0
 10
832.16847281410014
 20
-368.60566058649999
 30
0.0
 11
832.16847281410014
 21
-365.60566058649999
 31
0.0
  0
SOLID
  5
11C
  8
0
 62
     0
 10
832.16847281410014
 20
-368.60566058649999
 30
0.0
 11
830.66847281410003
 21
-362.60566058649999
 31
0.0
 12
833.66847281409991
 22
-362.60566058649999
 32
0.0
 13
832.16847281410014
 23
-364.10566058649999
 33
0.0
  0
ENDBLK
  5
11D
  8
0
  0
BLOCK
  8
0
  2
*D15
 70
     1
 10
0.0
 20
0.0
 30
0.0
  3
*D15
  1

  0
TEXT
  5
121
  8
0
 62
     0
 10
768.33958744949985
 20
-382.63343825829998
 30
0.0
 40
5.9972220420999998
  1
11
 50
90.0
  0
LINE
  5
122
  8
0
 62
     0
 10
751.06046500160005
 20
-384.60566058649999
 30
0.0
 11
770.89792075109995
 21
-384.60566058649999
 31
0.0
  0
LINE
  5
123
  8
0
 62
     0
 10
751.06046500160005
 20
-373.60566058649999
 30
0.0
 11
770.89792075109995
 21
-373.60566058649999
 31
0.0
  0
LINE
  5
124
  8
0
 62
     0
 10
770.39792075109995
 20
-384.60566058649999
 30
0.0
 11
770.39792075109995
 21
-384.60566058649999
 31
0.0
  0
LINE
  5
125
  8
0
 62
     0
 10
770.39792075109995
 20
-384.60566058649999
 30
0.0
 11
770.39792075109995
 21
-373.60566058649999
 31
0.0
  0
LINE
  5
126
  8
0
 62
     0
 10
770.39792075109995
 20
-373.60566058649999
 30
0.0
 11
770.39792075109995
 21
-384.60566058649999
 31
0.0
  0
LINE
  5
127
  8
0
 62
     0
 10
770.39792075109995
 20
-373.60566058649999
 30
0.0
 11
770.39792075109995
 21
-373.60566058649999
 31
0.0
  0
LINE
  5
128
  8
0
 62
     0
 10
770.39792075109995
 20
-373.60566058649999
 30
0.0
 11
770.39792075109995
 21
-370.60566058649999
 31
0.0
  0
SOLID
  5
129
  8
0
 62
     0
 10
770.39792075109995
 20
-373.60566058649999
 30
0.0
 11
768.89792075110006
 21
-367.60566058649999
 31
0.0
 12
771.89792075109995
 22
-367.60566058649999
 32
0.0
 13
770.39792075109995
 23
-369.10566058649999
 33
0.0
  0
LINE
  5
12A
  8
0
 62
     0
 10
770.39792075109995
 20
-384.60566058649999
 30
0.0
 11
770.39792075109995
 21
-387.60566058649999
 31
0.0
  0
SOLID
  5
12B
  8
0
 62
     0
 10
770.39792075109995
 20
-384.60566058649999
 30
0.0
 11
771.89792075109995
 21
-390.60566058649999
 31
0.0
 12
768.89792075110006
 22
-390.60566058649999
 32
0.0
 13
770.39792075109995
 23
-389.10566058649999
 33
0.0
  0
ENDBLK
  5
12C
  8
0
  0
BLOCK
  8
0
  2
*D16
 70
     1
 10
0.0
 20
0.0
 30
0.0
  3
*D16
  1

  0
TEXT
  5
130
  8
0
 62
     0
 10
719.94011998129997
 20
-372.33378005520001
 30
0.0
 40
5.9972220420999998
  1
10
 50
90.0
  0
LINE
  5
131
  8
0
 62
     0
 10
737.06046500160005
 20
-373.60566058649999
 30
0.0
 11
721.49845328280003
 21
-373.60566058649999
 31
0.0
  0
LINE
  5
132
  8
0
 62
     0
 10
707.06046500160005
 20
-363.60566058649999
 30
0.0
 11
722.49845328280003
 21
-363.60566058649999
 31
0.0
  0
LINE
  5
133
  8
0
 62
     0
 10
721.99845328280003
 20
-373.60566058649999
 30
0.0
 11
721.99845328280003
 21
-373.60566058649999
 31
0.0
  0
LINE
  5
134
  8
0
 62
     0
 10
721.99845328280003
 20
-373.60566058649999
 30
0.0
 11
721.99845328280003
 21
-363.60566058649999
 31
0.0
  0
LINE
  5
135
  8
0
 62
     0
 10
721.99845328280003
 20
-363.60566058649999
 30
0.0
 11
721.99845328280003
 21
-373.60566058649999
 31
0.0
  0
LINE
  5
136
  8
0
 62
     0
 10
721.99845328280003
 20
-363.60566058649999
 30
0.0
 11
721.99845328280003
 21
-363.60566058649999
 31
0.0
  0
LINE
  5
137
  8
0
 62
     0
 10
721.99845328280003
 20
-363.60566058649999
 30
0.0
 11
721.99845328280003
 21
-360.60566058649999
 31
0.0
  0
SOLID
  5
138
  8
0
 62
     0
 10
721.99845328280003
 20
-363.60566058649999
 30
0.0
 11
720.49845328279991
 21
-357.60566058649999
 31
0.0
 12
723.49845328280003
 22
-357.60566058649999
 32
0.0
 13
721.99845328280003
 23
-359.10566058649999
 33
0.0
  0
LINE
  5
139
  8
0
 62
     0
 10
721.99845328280003
 20
-373.60566058649999
 30
0.0
 11
721.99845328280003
 21
-376.60566058649999
 31
0.0
  0
SOLID
  5
13A
  8
0
 62
     0
 10
721.99845328280003
 20
-373.60566058649999
 30
0.0
 11
723.49845328280003
 21
-379.60566058649999
 31
0.0
 12
720.49845328279991
 22
-379.60566058649999
 32
0.0
 13
721.99845328280003
 23
-378.10566058649999
 33
0.0
  0
ENDBLK
  5
13B
  8
0
  0
BLOCK
  8
0
  2
*D17
 70
     1
 10
0.0
 20
0.0
 30
0.0
  3
*D17
  1

  0
TEXT
  5
13F
  8
0
 62
     0
 10
790.53268732979996
 20
-332.85592103499999
 30
0.0
 40
5.9972220420999998
  1
12
  0
LINE
  5
140
  8
0
 62
     0
 10
800.06046500160005
 20
-351.60566058649999
 30
0.0
 11
800.06046500160005
 21
-334.41425433649999
 31
0.0
  0
LINE
  5
141
  8
0
 62
     0
 10
788.06046500160005
 20
-361.60566058649999
 30
0.0
 11
788.06046500160005
 21
-334.41425433649999
 31
0.0
  0
LINE
  5
142
  8
0
 62
     0
 10
800.06046500160005
 20
-334.91425433649999
 30
0.0
 11
800.06046500160005
 21
-334.91425433649999
 31
0.0
  0
LINE
  5
143
  8
0
 62
     0
 10
800.06046500160005
 20
-334.91425433649999
 30
0.0
 11
788.06046500160005
 21
-334.91425433649999
 31
0.0
  0
LINE
  5
144
  8
0
 62
     0
 10
788.06046500160005
 20
-334.91425433649999
 30
0.0
 11
800.06046500160005
 21
-334.91425433649999
 31
0.0
  0
LINE
  5
145
  8
0
 62
     0
 10
788.06046500160005
 20
-334.91425433649999
 30
0.0
 11
788.06046500160005
 21
-334.91425433649999
 31
0.0
  0
LINE
  5
146
  8
0
 62
     0
 10
788.06046500160005
 20
-334.91425433649999
 30
0.0
 11
791.06046500160005
 21
-334.91425433649999
 31
0.0
  0
SOLID
  5
147
  8
0
 62
     0
 10
788.06046500160005
 20
-334.91425433649999
 30
0.0
 11
794.06046500160005
 21
-333.41425433649999
 31
0.0
 12
794.06046500160005
 22
-336.41425433649999
 32
0.0
 13
792.56046500160005
 23
-334.91425433649999
 33
0.0
  0
LINE
  5
148
  8
0
 62
     0
 10
800.06046500160005
 20
-334.91425433649999
 30
0.0
 11
797.06046500160005
 21
-334.91425433649999
 31
0.0
  0
SOLID
  5
149
  8
0
 62
     0
 10
800.06046500160005
 20
-334.91425433649999
 30
0.0
 11
794.06046500160005
 21
-336.41425433649999
 31
0.0
 12
794.06046500160005
 22
-333.41425433649999
 32
0.0
 13
795.56046500160005
 23
-334.91425433649999
 33
0.0
  0
ENDBLK
  5
14A
  8
0
  0
BLOCK
  8
0
  2
*D18
 70
     1
 10
0.0
 20
0.0
 30
0.0
  3
*D18
  1

  0
TEXT
  5
14E
  8
0
 62
     0
 10
714.54597833229991
 20
-229.03305844280001
 30
0.0
 40
5.9972220420999998
  1
90%%d
 50
312.92299867190002
  0
ARC
  5
14F
  8
0
 62
     0
 10
674.56046500160005
 20
-273.44620268040001
 30
0.0
 40
56.351186962700012
 50
82.147773065199999
 51
90.0
  0
ARC
  5
150
  8
0
 62
     0
 10
674.56046500160005
 20
-273.44620268040001
 30
0.0
 40
56.351186962700012
 50
0.0
 51
7.8522269348
  0
SOLID
  5
151
  8
0
 62
     0
 10
730.91165196420002
 20
-273.44620268040001
 30
0.0
 11
732.41165196420002
 21
-279.44620268040001
 31
0.0
 12
729.41165196420002
 22
-279.44620268040001
 32
0.0
 13
730.91165196420002
 23
-277.94620268040001
 33
0.0
  0
SOLID
  5
152
  8
0
 62
     0
 10
674.56046500160005
 20
-217.09501571780001
 30
0.0
 11
668.56046500160005
 21
-218.59501571780001
 31
0.0
 12
668.56046500160005
 22
-215.59501571780001
 32
0.0
 13
670.06046500160005
 23
-217.09501571780001
 33
0.0
  0
ARC
  5
153
  8
0
 62
     0
 10
674.56046500160005
 20
-273.44620268040001
 30
0.0
 40
56.351186962700012
 50
0.0
 51
33.8032030647
  0
ARC
  5
154
  8
0
 62
     0
 10
674.56046500160005
 20
-273.44620268040001
 30
0.0
 40
56.351186962700012
 50
52.042794279100001
 51
90.0
  0
LINE
  5
155
  8
0
 62
     0
 10
796.06046500160005
 20
-273.44620268040001
 30
0.0
 11
726.91165196420002
 21
-273.44620268040001
 31
0.0
  0
LINE
  5
156
  8
0
 62
     0
 10
674.56046500160005
 20
-81.946202680400006
 30
0.0
 11
674.56046500160005
 21
-221.09501571780001
 31
0.0
  0
ENDBLK
  5
157
  8
0
  0
BLOCK
  8
0
  2
*D19
 70
     1
 10
0.0
 20
0.0
 30
0.0
  3
*D19
  1

  0
TEXT
  5
15B
  8
0
 62
     0
 10
879.61960746399996
 20
-87.697287643899998
 30
0.0
 40
5.9972220420999998
  1
12
 50
90.0
  0
LINE
  5
15C
  8
0
 62
     0
 10
898.24005166639984
 20
-77.946202680400006
 30
0.0
 11
881.17794076550001
 21
-77.946202680400006
 31
0.0
  0
LINE
  5
15D
  8
0
 62
     0
 10
913.24005166639995
 20
-89.946202680400006
 30
0.0
 11
881.17794076550001
 21
-89.946202680400006
 31
0.0
  0
LINE
  5
15E
  8
0
 62
     0
 10
881.6779407654999
 20
-77.946202680400006
 30
0.0
 11
881.6779407654999
 21
-77.946202680400006
 31
0.0
  0
LINE
  5
15F
  8
0
 62
     0
 10
881.6779407654999
 20
-77.946202680400006
 30
0.0
 11
881.6779407654999
 21
-89.946202680400006
 31
0.0
  0
LINE
  5
160
  8
0
 62
     0
 10
881.6779407654999
 20
-89.946202680400006
 30
0.0
 11
881.6779407654999
 21
-77.946202680400006
 31
0.0
  0
LINE
  5
161
  8
0
 62
     0
 10
881.6779407654999
 20
-89.946202680400006
 30
0.0
 11
881.6779407654999
 21
-89.946202680400006
 31
0.0
  0
LINE
  5
162
  8
0
 62
     0
 10
881.6779407654999
 20
-89.946202680400006
 30
0.0
 11
881.6779407654999
 21
-86.946202680400006
 31
0.0
  0
SOLID
  5
163
  8
0
 62
     0
 10
881.6779407654999
 20
-89.946202680400006
 30
0.0
 11
880.17794076550013
 21
-83.946202680400006
 31
0.0
 12
883.17794076550001
 22
-83.946202680400006
 32
0.0
 13
881.6779407654999
 23
-85.446202680400006
 33
0.0
  0
LINE
  5
164
  8
0
 62
     0
 10
881.6779407654999
 20
-77.946202680400006
 30
0.0
 11
881.6779407654999
 21
-80.946202680400006
 31
0.0
  0
SOLID
  5
165
  8
0
 62
     0
 10
881.6779407654999
 20
-77.946202680400006
 30
0.0
 11
883.17794076550001
 21
-83.946202680400006
 31
0.0
 12
880.17794076550013
 22
-83.946202680400006
 32
0.0
 13
881.6779407654999
 23
-82.446202680400006
 33
0.0
  0
ENDBLK
  5
166
  8
0
  0
BLOCK
  8
0
  2
*D20
 70
     1
 10
0.0
 20
0.0
 30
0.0
  3
*D20
  1

  0
TEXT
  5
16A
  8
0
 62
     0
 10
646.71174931480004
 20
-183.23786918819999
 30
0.0
 40
5.9972220420999998
  1
300
 50
90.0
  0
LINE
  5
16B
  8
0
 62
     0
 10
669.06046500160005
 20
-77.946202680400006
 30
0.0
 11
648.27008261629987
 21
-77.946202680400006
 31
0.0
  0
LINE
  5
16C
  8
0
 62
     0
 10
673.56046500160005
 20
-277.94620268040001
 30
0.0
 11
648.27008261629987
 21
-277.94620268040001
 31
0.0
  0
LINE
  5
16D
  8
0
 62
     0
 10
648.77008261629987
 20
-77.946202680400006
 30
0.0
 11
648.77008261629987
 21
-169.1267585009
 31
0.0
  0
LINE
  5
16E
  8
0
 62
     0
 10
648.77008261629987
 20
-77.946202680400006
 30
0.0
 11
648.77008261629987
 21
-186.76564686
 31
0.0
  0
LINE
  5
16F
  8
0
 62
     0
 10
648.77008261629987
 20
-277.94620268040001
 30
0.0
 11
648.77008261629987
 21
-169.1267585009
 31
0.0
  0
LINE
  5
170
  8
0
 62
     0
 10
648.77008261629987
 20
-277.94620268040001
 30
0.0
 11
648.77008261629987
 21
-186.76564686
 31
0.0
  0
LINE
  5
171
  8
0
 62
     0
 10
648.77008261629987
 20
-277.94620268040001
 30
0.0
 11
648.77008261629987
 21
-274.94620268040001
 31
0.0
  0
SOLID
  5
172
  8
0
 62
     0
 10
648.77008261629987
 20
-277.94620268040001
 30
0.0
 11
647.27008261629987
 21
-271.94620268040001
 31
0.0
 12
650.27008261629999
 22
-271.94620268040001
 32
0.0
 13
648.77008261629987
 23
-273.44620268040001
 33
0.0
  0
LINE
  5
173
  8
0
 62
     0
 10
648.77008261629987
 20
-77.946202680400006
 30
0.0
 11
648.77008261629987
 21
-80.946202680400006
 31
0.0
  0
SOLID
  5
174
  8
0
 62
     0
 10
648.77008261629987
 20
-77.946202680400006
 30
0.0
 11
650.27008261629999
 21
-83.946202680400006
 31
0.0
 12
647.27008261629987
 22
-83.946202680400006
 32
0.0
 13
648.77008261629987
 23
-82.446202680400006
 33
0.0
  0
ENDBLK
  5
175
  8
0
  0
BLOCK
  8
0
  2
*D21
 70
     1
 10
0.0
 20
0.0
 30
0.0
  3
*D21
  1

  0
TEXT
  5
179
  8
0
 62
     0
 10
762.53268732979996
 20
-332.88018403550001
 30
0.0
 40
5.9972220420999998
  1
54
  0
LINE
  5
17A
  8
0
 62
     0
 10
788.06046500160005
 20
-361.60566058649999
 30
0.0
 11
788.06046500160005
 21
-334.43851733700001
 31
0.0
  0
LINE
  5
17B
  8
0
 62
     0
 10
744.06046500160005
 20
-366.60566058649999
 30
0.0
 11
744.06046500160005
 21
-334.43851733700001
 31
0.0
  0
LINE
  5
17C
  8
0
 62
     0
 10
788.06046500160005
 20
-334.93851733700001
 30
0.0
 11
773.11602034520001
 21
-334.93851733700001
 31
0.0
  0
LINE
  5
17D
  8
0
 62
     0
 10
788.06046500160005
 20
-334.93851733700001
 30
0.0
 11
759.00490965799986
 21
-334.93851733700001
 31
0.0
  0
LINE
  5
17E
  8
0
 62
     0
 10
744.06046500160005
 20
-334.93851733700001
 30
0.0
 11
773.11602034520001
 21
-334.93851733700001
 31
0.0
  0
LINE
  5
17F
  8
0
 62
     0
 10
744.06046500160005
 20
-334.93851733700001
 30
0.0
 11
759.00490965799986
 21
-334.93851733700001
 31
0.0
  0
LINE
  5
180
  8
0
 62
     0
 10
744.06046500160005
 20
-334.93851733700001
 30
0.0
 11
747.06046500160005
 21
-334.93851733700001
 31
0.0
  0
SOLID
  5
181
  8
0
 62
     0
 10
744.06046500160005
 20
-334.93851733700001
 30
0.0
 11
750.06046500160005
 21
-333.43851733700001
 31
0.0
 12
750.06046500160005
 22
-336.43851733700001
 32
0.0
 13
748.56046500160005
 23
-334.93851733700001
 33
0.0
  0
LINE
  5
182
  8
0
 62
     0
 10
788.06046500160005
 20
-334.93851733700001
 30
0.0
 11
785.06046500160005
 21
-334.93851733700001
 31
0.0
  0
SOLID
  5
183
  8
0
 62
     0
 10
788.06046500160005
 20
-334.93851733700001
 30
0.0
 11
782.06046500160005
 21
-336.43851733700001
 31
0.0
 12
782.06046500160005
 22
-333.43851733700001
 32
0.0
 13
783.56046500160005
 23
-334.93851733700001
 33
0.0
  0
ENDBLK
  5
184
  8
0
  0
BLOCK
  8
0
  2
*D22
 70
     1
 10
0.0
 20
0.0
 30
0.0
  3
*D22
  1

  0
TEXT
  5
188
  8
0
 62
     0
 10
718.53268732979996
 20
-332.85592103499999
 30
0.0
 40
5.9972220420999998
  1
54
  0
LINE
  5
189
  8
0
 62
     0
 10
744.06046500160005
 20
-368.35566058649999
 30
0.0
 11
744.06046500160005
 21
-334.41425433649999
 31
0.0
  0
LINE
  5
18A
  8
0
 62
     0
 10
700.06046500160005
 20
-356.60566058649999
 30
0.0
 11
700.06046500160005
 21
-334.41425433649999
 31
0.0
  0
LINE
  5
18B
  8
0
 62
     0
 10
744.06046500160005
 20
-334.91425433649999
 30
0.0
 11
729.11602034520001
 21
-334.91425433649999
 31
0.0
  0
LINE
  5
18C
  8
0
 62
     0
 10
744.06046500160005
 20
-334.91425433649999
 30
0.0
 11
715.00490965799997
 21
-334.91425433649999
 31
0.0
  0
LINE
  5
18D
  8
0
 62
     0
 10
700.06046500160005
 20
-334.91425433649999
 30
0.0
 11
729.11602034520001
 21
-334.91425433649999
 31
0.0
  0
LINE
  5
18E
  8
0
 62
     0
 10
700.06046500160005
 20
-334.91425433649999
 30
0.0
 11
715.00490965799997
 21
-334.91425433649999
 31
0.0
  0
LINE
  5
18F
  8
0
 62
     0
 10
700.06046500160005
 20
-334.91425433649999
 30
0.0
 11
703.06046500160005
 21
-334.91425433649999
 31
0.0
  0
SOLID
  5
190
  8
0
 62
     0
 10
700.06046500160005
 20
-334.91425433649999
 30
0.0
 11
706.06046500160005
 21
-333.41425433649999
 31
0.0
 12
706.06046500160005
 22
-336.41425433649999
 32
0.0
 13
704.56046500160005
 23
-334.91425433649999
 33
0.0
  0
LINE
  5
191
  8
0
 62
     0
 10
744.06046500160005
 20
-334.91425433649999
 30
0.0
 11
741.06046500160005
 21
-334.91425433649999
 31
0.0
  0
SOLID
  5
192
  8
0
 62
     0
 10
744.06046500160005
 20
-334.91425433649999
 30
0.0
 11
738.06046500160005
 21
-336.41425433649999
 31
0.0
 12
738.06046500160005
 22
-333.41425433649999
 32
0.0
 13
739.56046500160005
 23
-334.91425433649999
 33
0.0
  0
ENDBLK
  5
193
  8
0
  0
BLOCK
  8
0
  2
*D23
 70
     1
 10
0.0
 20
0.0
 30
0.0
  3
*D23
  1

  0
TEXT
  5
197
  8
0
 62
     0
 10
681.53268732979996
 20
-332.7873810975999
 30
0.0
 40
5.9972220420999998
  1
30
  0
LINE
  5
198
  8
0
 62
     0
 10
700.06046500160005
 20
-356.60566058649999
 30
0.0
 11
700.06046500160005
 21
-334.34571439920001
 31
0.0
  0
LINE
  5
199
  8
0
 62
     0
 10
670.06046500160005
 20
-351.60566058649999
 30
0.0
 11
670.06046500160005
 21
-334.34571439920001
 31
0.0
  0
LINE
  5
19A
  8
0
 62
     0
 10
700.06046500160005
 20
-334.84571439920001
 30
0.0
 11
692.11602034520001
 21
-334.84571439920001
 31
0.0
  0
LINE
  5
19B
  8
0
 62
     0
 10
700.06046500160005
 20
-334.84571439920001
 30
0.0
 11
678.00490965799986
 21
-334.84571439920001
 31
0.0
  0
LINE
  5
19C
  8
0
 62
     0
 10
670.06046500160005
 20
-334.84571439920001
 30
0.0
 11
692.11602034520001
 21
-334.84571439920001
 31
0.0
  0
LINE
  5
19D
  8
0
 62
     0
 10
670.06046500160005
 20
-334.84571439920001
 30
0.0
 11
678.00490965799986
 21
-334.84571439920001
 31
0.0
  0
LINE
  5
19E
  8
0
 62
     0
 10
670.06046500160005
 20
-334.84571439920001
 30
0.0
 11
673.06046500160005
 21
-334.84571439920001
 31
0.0
  0
SOLID
  5
19F
  8
0
 62
     0
 10
670.06046500160005
 20
-334.84571439920001
 30
0.0
 11
676.06046500160005
 21
-333.34571439920001
 31
0.0
 12
676.06046500160005
 22
-336.34571439920001
 32
0.0
 13
674.56046500160005
 23
-334.84571439920001
 33
0.0
  0
LINE
  5
1A0
  8
0
 62
     0
 10
700.06046500160005
 20
-334.84571439920001
 30
0.0
 11
697.06046500160005
 21
-334.84571439920001
 31
0.0
  0
SOLID
  5
1A1
  8
0
 62
     0
 10
700.06046500160005
 20
-334.84571439920001
 30
0.0
 11
694.06046500160005
 21
-336.34571439920001
 31
0.0
 12
694.06046500160005
 22
-333.34571439920001
 32
0.0
 13
695.56046500160005
 23
-334.84571439920001
 33
0.0
  0
ENDBLK
  5
1A2
  8
0
  0
BLOCK
  8
0
  2
*D24
 70
     1
 10
0.0
 20
0.0
 30
0.0
  3
*D24
  1

  0
TEXT
  5
1A6
  8
0
 62
     0
 10
646.67303013749995
 20
-372.13343825829998
 30
0.0
 40
5.9972220420999998
  1
32
 50
90.0
  0
LINE
  5
1A7
  8
0
 62
     0
 10
669.06046500160005
 20
-352.60566058649999
 30
0.0
 11
648.23136343910005
 21
-352.60566058649999
 31
0.0
  0
LINE
  5
1A8
  8
0
 62
     0
 10
669.06046500160005
 20
-384.60566058649999
 30
0.0
 11
648.23136343910005
 21
-384.60566058649999
 31
0.0
  0
LINE
  5
1A9
  8
0
 62
     0
 10
648.73136343910005
 20
-352.60566058649999
 30
0.0
 11
648.73136343910005
 21
-361.55010524289997
 31
0.0
  0
LINE
  5
1AA
  8
0
 62
     0
 10
648.73136343910005
 20
-352.60566058649999
 30
0.0
 11
648.73136343910005
 21
-375.66121593010001
 31
0.0
  0
LINE
  5
1AB
  8
0
 62
     0
 10
648.73136343910005
 20
-384.60566058649999
 30
0.0
 11
648.73136343910005
 21
-361.55010524289997
 31
0.0
  0
LINE
  5
1AC
  8
0
 62
     0
 10
648.73136343910005
 20
-384.60566058649999
 30
0.0
 11
648.73136343910005
 21
-375.66121593010001
 31
0.0
  0
LINE
  5
1AD
  8
0
 62
     0
 10
648.73136343910005
 20
-384.60566058649999
 30
0.0
 11
648.73136343910005
 21
-381.60566058649999
 31
0.0
  0
SOLID
  5
1AE
  8
0
 62
     0
 10
648.73136343910005
 20
-384.60566058649999
 30
0.0
 11
647.23136343910005
 21
-378.60566058649999
 31
0.0
 12
650.23136343910005
 22
-378.60566058649999
 32
0.0
 13
648.73136343910005
 23
-380.10566058649999
 33
0.0
  0
LINE
  5
1AF
  8
0
 62
     0
 10
648.73136343910005
 20
-352.60566058649999
 30
0.0
 11
648.73136343910005
 21
-355.60566058649999
 31
0.0
  0
SOLID
  5
1B0
  8
0
 62
     0
 10
648.73136343910005
 20
-352.60566058649999
 30
0.0
 11
650.23136343910005
 21
-358.60566058649999
 31
0.0
 12
647.23136343910005
 22
-358.60566058649999
 32
0.0
 13
648.73136343910005
 23
-357.10566058649999
 33
0.0
  0
ENDBLK
  5
1B1
  8
0
  0
BLOCK
  8
0
  2
*D25
 70
     1
 10
0.0
 20
0.0
 30
0.0
  3
*D25
  1

  0
TEXT
  5
1B5
  8
0
 62
     0
 10
686.09797673180003
 20
-361.63343825829998
 30
0.0
 40
5.9972220420999998
  1
11
 50
90.0
  0
LINE
  5
1B6
  8
0
 62
     0
 10
693.06046500160005
 20
-352.60566058649999
 30
0.0
 11
687.65631003329986
 21
-352.60566058649999
 31
0.0
  0
LINE
  5
1B7
  8
0
 62
     0
 10
693.06046500160005
 20
-363.60566058649999
 30
0.0
 11
687.65631003329986
 21
-363.60566058649999
 31
0.0
  0
LINE
  5
1B8
  8
0
 62
     0
 10
688.15631003329986
 20
-352.60566058649999
 30
0.0
 11
688.15631003329986
 21
-352.60566058649999
 31
0.0
  0
LINE
  5
1B9
  8
0
 62
     0
 10
688.15631003329986
 20
-352.60566058649999
 30
0.0
 11
688.15631003329986
 21
-363.60566058649999
 31
0.0
  0
LINE
  5
1BA
  8
0
 62
     0
 10
688.15631003329986
 20
-363.60566058649999
 30
0.0
 11
688.15631003329986
 21
-352.60566058649999
 31
0.0
  0
LINE
  5
1BB
  8
0
 62
     0
 10
688.15631003329986
 20
-363.60566058649999
 30
0.0
 11
688.15631003329986
 21
-363.60566058649999
 31
0.0
  0
LINE
  5
1BC
  8
0
 62
     0
 10
688.15631003329986
 20
-363.60566058649999
 30
0.0
 11
688.15631003329986
 21
-366.60566058649999
 31
0.0
  0
SOLID
  5
1BD
  8
0
 62
     0
 10
688.15631003329986
 20
-363.60566058649999
 30
0.0
 11
689.65631003329997
 21
-369.60566058649999
 31
0.0
 12
686.65631003329986
 22
-369.60566058649999
 32
0.0
 13
688.15631003329986
 23
-368.10566058649999
 33
0.0
  0
LINE
  5
1BE
  8
0
 62
     0
 10
688.15631003329986
 20
-352.60566058649999
 30
0.0
 11
688.15631003329986
 21
-349.60566058649999
 31
0.0
  0
SOLID
  5
1BF
  8
0
 62
     0
 10
688.15631003329986
 20
-352.60566058649999
 30
0.0
 11
686.65631003329986
 21
-346.60566058649999
 31
0.0
 12
689.65631003329997
 22
-346.60566058649999
 32
0.0
 13
688.15631003329986
 23
-348.10566058649999
 33
0.0
  0
ENDBLK
  5
1C0
  8
0
  0
BLOCK
  8
0
  2
*D26
 70
     1
 10
0.0
 20
0.0
 30
0.0
  3
*D26
  1

  0
TEXT
  5
1C4
  8
0
 62
     0
 10
830.11019291830007
 20
-399.36556716460001
 30
0.0
 40
5.9972220420999998
  1
16
 50
90.0
  0
LINE
  5
1C5
  8
0
 62
     0
 10
801.06046500160005
 20
-384.60566058649999
 30
0.0
 11
832.6685262197999
 21
-384.60566058649999
 31
0.0
  0
LINE
  5
1C6
  8
0
 62
     0
 10
795.06046500160005
 20
-368.60566058649999
 30
0.0
 11
832.6685262197999
 21
-368.60566058649999
 31
0.0
  0
LINE
  5
1C7
  8
0
 62
     0
 10
832.16852621979979
 20
-384.60566058649999
 30
0.0
 11
832.16852621979979
 21
-388.78223414910002
 31
0.0
  0
LINE
  5
1C8
  8
0
 62
     0
 10
832.16852621979979
 20
-384.60566058649999
 30
0.0
 11
832.16852621979979
 21
-402.89334483639988
 31
0.0
  0
LINE
  5
1C9
  8
0
 62
     0
 10
832.16852621979979
 20
-368.60566058649999
 30
0.0
 11
832.16852621979979
 21
-388.78223414910002
 31
0.0
  0
LINE
  5
1CA
  8
0
 62
     0
 10
832.16852621979979
 20
-368.60566058649999
 30
0.0
 11
832.16852621979979
 21
-402.89334483639988
 31
0.0
  0
LINE
  5
1CB
  8
0
 62
     0
 10
832.16852621979979
 20
-368.60566058649999
 30
0.0
 11
832.16852621979979
 21
-371.60566058649999
 31
0.0
  0
SOLID
  5
1CC
  8
0
 62
     0
 10
832.16852621979979
 20
-368.60566058649999
 30
0.0
 11
833.6685262197999
 21
-374.60566058649999
 31
0.0
 12
830.66852621979979
 22
-374.60566058649999
 32
0.0
 13
832.16852621979979
 23
-373.10566058649999
 33
0.0
  0
LINE
  5
1CD
  8
0
 62
     0
 10
832.16852621979979
 20
-384.60566058649999
 30
0.0
 11
832.16852621979979
 21
-381.60566058649999
 31
0.0
  0
SOLID
  5
1CE
  8
0
 62
     0
 10
832.16852621979979
 20
-384.60566058649999
 30
0.0
 11
830.66852621979979
 21
-378.60566058649999
 31
0.0
 12
833.6685262197999
 22
-378.60566058649999
 32
0.0
 13
832.16852621979979
 23
-380.10566058649999
 33
0.0
  0
ENDBLK
  5
1CF
  8
0
  0
BLOCK
  8
0
  2
*D27
 70
     1
 10
0.0
 20
0.0
 30
0.0
  3
*D27
  1

  0
TEXT
  5
1D3
  8
0
 62
     0
 10
935.1042010778998
 20
-56.771315118599993
 30
0.0
 40
5.9972220420999998
  1
16
  0
LINE
  5
1D4
  8
0
 62
     0
 10
931.24005166639984
 20
-76.946202680400006
 30
0.0
 11
931.24005166639984
 21
-58.329648420200002
 31
0.0
  0
LINE
  5
1D5
  8
0
 62
     0
 10
915.24005166639995
 20
-82.946202680400006
 30
0.0
 11
915.24005166639995
 21
-58.329648420200002
 31
0.0
  0
LINE
  5
1D6
  8
0
 62
     0
 10
931.24005166639984
 20
-58.829648420200002
 30
0.0
 11
945.68753409340013
 21
-58.829648420200002
 31
0.0
  0
LINE
  5
1D7
  8
0
 62
     0
 10
931.24005166639984
 20
-58.829648420200002
 30
0.0
 11
931.57642340610005
 21
-58.829648420200002
 31
0.0
  0
LINE
  5
1D8
  8
0
 62
     0
 10
915.24005166639995
 20
-58.829648420200002
 30
0.0
 11
945.68753409340013
 21
-58.829648420200002
 31
0.0
  0
LINE
  5
1D9
  8
0
 62
     0
 10
915.24005166639995
 20
-58.829648420200002
 30
0.0
 11
931.57642340610005
 21
-58.829648420200002
 31
0.0
  0
LINE
  5
1DA
  8
0
 62
     0
 10
915.24005166639995
 20
-58.829648420200002
 30
0.0
 11
918.24005166639995
 21
-58.829648420200002
 31
0.0
  0
SOLID
  5
1DB
  8
0
 62
     0
 10
915.24005166639995
 20
-58.829648420200002
 30
0.0
 11
921.24005166639995
 21
-57.329648420200002
 31
0.0
 12
921.24005166639995
 22
-60.329648420200002
 32
0.0
 13
919.74005166639995
 23
-58.829648420200002
 33
0.0
  0
LINE
  5
1DC
  8
0
 62
     0
 10
931.24005166639984
 20
-58.829648420200002
 30
0.0
 11
928.24005166639995
 21
-58.829648420200002
 31
0.0
  0
SOLID
  5
1DD
  8
0
 62
     0
 10
931.24005166639984
 20
-58.829648420200002
 30
0.0
 11
925.24005166639995
 21
-60.329648420200002
 31
0.0
 12
925.24005166639995
 22
-57.329648420200002
 32
0.0
 13
926.74005166639984
 23
-58.829648420200002
 33
0.0
  0
ENDBLK
  5
1DE
  8
0
  0
BLOCK
  8
0
  2
*D28
 70
     1
 10
0.0
 20
0.0
 30
0.0
  3
*D28
  1

  0
TEXT
  5
1E2
  8
0
 62
     0
 10
885.34004092170005
 20
-56.771315118599993
 30
0.0
 40
5.9972220420999998
  1
16
  0
LINE
  5
1E3
  8
0
 62
     0
 10
915.24005166639995
 20
-82.946202680400006
 30
0.0
 11
915.24005166639995
 21
-58.329648420200002
 31
0.0
  0
LINE
  5
1E4
  8
0
 62
     0
 10
899.24005166639995
 20
-76.946202680400006
 30
0.0
 11
899.24005166639995
 21
-58.329648420200002
 31
0.0
  0
LINE
  5
1E5
  8
0
 62
     0
 10
915.24005166639995
 20
-58.829648420200002
 30
0.0
 11
895.92337393710011
 21
-58.829648420200002
 31
0.0
  0
LINE
  5
1E6
  8
0
 62
     0
 10
915.24005166639995
 20
-58.829648420200002
 30
0.0
 11
881.81226324990007
 21
-58.829648420200002
 31
0.0
  0
LINE
  5
1E7
  8
0
 62
     0
 10
899.24005166639995
 20
-58.829648420200002
 30
0.0
 11
895.92337393710011
 21
-58.829648420200002
 31
0.0
  0
LINE
  5
1E8
  8
0
 62
     0
 10
899.24005166639995
 20
-58.829648420200002
 30
0.0
 11
881.81226324990007
 21
-58.829648420200002
 31
0.0
  0
LINE
  5
1E9
  8
0
 62
     0
 10
899.24005166639995
 20
-58.829648420200002
 30
0.0
 11
902.24005166639995
 21
-58.829648420200002
 31
0.0
  0
SOLID
  5
1EA
  8
0
 62
     0
 10
899.24005166639995
 20
-58.829648420200002
 30
0.0
 11
905.24005166639995
 21
-57.329648420200002
 31
0.0
 12
905.24005166639995
 22
-60.329648420200002
 32
0.0
 13
903.74005166639995
 23
-58.829648420200002
 33
0.0
  0
LINE
  5
1EB
  8
0
 62
     0
 10
915.24005166639995
 20
-58.829648420200002
 30
0.0
 11
912.24005166639995
 21
-58.829648420200002
 31
0.0
  0
SOLID
  5
1EC
  8
0
 62
     0
 10
915.24005166639995
 20
-58.829648420200002
 30
0.0
 11
909.24005166639995
 21
-60.329648420200002
 31
0.0
 12
909.24005166639995
 22
-57.329648420200002
 32
0.0
 13
910.74005166639984
 23
-58.829648420200002
 33
0.0
  0
ENDBLK
  5
1ED
  8
0
  0
BLOCK
  8
0
  2
CLUMP0
 70
     0
 10
0.0
 20
0.0
 30
0.0
  3
CLUMP0
  1

  0
CIRCLE
  5
1F2
  8
┌▓È_1
 62
     5
 10
910.24005166639995
 20
-168.94620268040001
 30
0.0
 40
2.5
  0
CIRCLE
  5
1F3
  8
┌▓È_1
 62
     5
 10
910.24005166639995
 20
-168.94620268040001
 30
0.0
 40
4.25
  0
LINE
  5
1F4
  8
┌▓È_1
  6
BORDER
 62
     3
 10
910.24005166639995
 20
-162.94620268040001
 30
0.0
 11
910.24005166639995
 21
-174.94620268040001
 31
0.0
  0
LINE
  5
1F5
  8
┌▓È_1
  6
BORDER
 62
     3
 10
904.24005166639995
 20
-168.94620268040001
 30
0.0
 11
916.24005166639995
 21
-168.94620268040001
 31
0.0
  0
ENDBLK
  5
1F6
  8
0
  0
BLOCK
  8
0
  2
CLUMP1
 70
     0
 10
0.0
 20
0.0
 30
0.0
  3
CLUMP1
  1

  0
CIRCLE
  5
1FA
  8
┌▓È_1
 62
     5
 10
920.24005166639995
 20
-247.94620268040001
 30
0.0
 40
4.25
  0
CIRCLE
  5
1FB
  8
┌▓È_1
 62
     5
 10
920.24005166639995
 20
-247.94620268040001
 30
0.0
 40
2.5
  0
LINE
  5
1FC
  8
┌▓È_1
  6
BORDER
 62
     3
 10
926.24005166639995
 20
-247.94620268040001
 30
0.0
 11
914.24005166639984
 21
-247.94620268040001
 31
0.0
  0
LINE
  5
1FD
  8
┌▓È_1
  6
BORDER
 62
     3
 10
920.24005166639995
 20
-241.94620268040001
 30
0.0
 11
920.24005166639995
 21
-253.94620268040001
 31
0.0
  0
ENDBLK
  5
1FE
  8
0
  0
BLOCK
  8
0
  2
CLUMP2
 70
     0
 10
0.0
 20
0.0
 30
0.0
  3
CLUMP2
  1

  0
LINE
  5
202
  8
┌▓È_1
  6
STITCH
 10
741.56046500160005
 20
-276.19620268040001
 30
0.0
 11
746.56046500160005
 21
-276.19620268040001
 31
0.0
  0
LINE
  5
203
  8
┌▓È_1
  6
STITCH
 10
746.56046500160005
 20
-275.19620268040001
 30
0.0
 11
741.56046500160005
 21
-275.19620268040001
 31
0.0
  0
LINE
  5
204
  8
┌▓È_1
  6
STITCH
 10
746.56046500160005
 20
-276.19620268040001
 30
0.0
 11
746.56046500160005
 21
-275.19620268040001
 31
0.0
  0
LINE
  5
205
  8
┌▓È_1
  6
STITCH
 10
741.56046500160005
 20
-275.19620268040001
 30
0.0
 11
741.56046500160005
 21
-276.19620268040001
 31
0.0
  0
LINE
  5
206
  8
┌▓È_1
  6
STITCH
 10
741.56046500160005
 20
-275.19620268040001
 30
0.0
 11
739.81046500160005
 21
-273.44620268040001
 31
0.0
  0
LINE
  5
207
  8
┌▓È_1
  6
STITCH
 10
741.56046500160005
 20
-276.19620268040001
 30
0.0
 11
739.81046500160005
 21
-277.94620268040001
 31
0.0
  0
LINE
  5
208
  8
┌▓È_1
  6
STITCH
 10
746.56046500160005
 20
-275.19620268040001
 30
0.0
 11
748.31046500160005
 21
-273.44620268040001
 31
0.0
  0
LINE
  5
209
  8
┌▓È_1
  6
STITCH
 10
746.56046500160005
 20
-276.19620268040001
 30
0.0
 11
748.31046500160005
 21
-277.94620268040001
 31
0.0
  0
LINE
  5
20A
  8
┌▓È_1
  6
BORDER
 62
     3
 10
744.06046500160005
 20
-267.61842490269999
 30
0.0
 11
744.06046500160005
 21
-284.9878693471
 31
0.0
  0
ENDBLK
  5
20B
  8
0
  0
BLOCK
  8
0
  2
CLUMP3
 70
     0
 10
0.0
 20
0.0
 30
0.0
  3
CLUMP3
  1

  0
CIRCLE
  5
20F
  8
┌▓È_1
 62
     5
 10
744.06046500160005
 20
-373.60566058649999
 30
0.0
 40
4.25
  0
CIRCLE
  5
210
  8
┌▓È_1
 62
     5
 10
744.06046500160005
 20
-373.60566058649999
 30
0.0
 40
2.5
  0
LINE
  5
211
  8
┌▓È_1
  6
BORDER
 62
     3
 10
744.06046500160005
 20
-367.60566058649999
 30
0.0
 11
744.06046500160005
 21
-379.60566058649999
 31
0.0
  0
LINE
  5
212
  8
┌▓È_1
  6
BORDER
 62
     3
 10
738.06046500160005
 20
-373.60566058649999
 30
0.0
 11
750.06046500160005
 21
-373.60566058649999
 31
0.0
  0
ENDBLK
  5
213
  8
0
  0
BLOCK
  8
0
  2
CLUMP4
 70
     0
 10
0.0
 20
0.0
 30
0.0
  3
CLUMP4
  1

  0
LINE
  5
21F
  8
┌▓È_1
  6
STITCH
 10
672.81046500160005
 20
-171.44620268040001
 30
0.0
 11
674.56046500160005
 21
-173.19620268040001
 31
0.0
  0
LINE
  5
220
  8
┌▓È_1
  6
STITCH
 10
671.81046500160005
 20
-171.44620268040001
 30
0.0
 11
670.06046500160005
 21
-173.19620268040001
 31
0.0
  0
LINE
  5
221
  8
┌▓È_1
  6
STITCH
 10
671.81046500160005
 20
-166.44620268040001
 30
0.0
 11
670.06046500160005
 21
-164.69620268040001
 31
0.0
  0
LINE
  5
222
  8
┌▓È_1
  6
STITCH
 10
672.81046500160005
 20
-166.44620268040001
 30
0.0
 11
674.56046500160005
 21
-164.69620268040001
 31
0.0
  0
LINE
  5
223
  8
┌▓È_1
  6
STITCH
 10
671.81046500160005
 20
-171.44620268040001
 30
0.0
 11
671.81046500160005
 21
-166.44620268040001
 31
0.0
  0
LINE
  5
224
  8
┌▓È_1
  6
STITCH
 10
672.81046500160005
 20
-166.44620268040001
 30
0.0
 11
672.81046500160005
 21
-171.44620268040001
 31
0.0
  0
LINE
  5
225
  8
┌▓È_1
  6
STITCH
 10
671.81046500160005
 20
-166.44620268040001
 30
0.0
 11
672.81046500160005
 21
-166.44620268040001
 31
0.0
  0
LINE
  5
226
  8
┌▓È_1
  6
STITCH
 10
672.81046500160005
 20
-171.44620268040001
 30
0.0
 11
671.81046500160005
 21
-171.44620268040001
 31
0.0
  0
LINE
  5
227
  8
┌▓È_1
  6
BORDER
 62
     3
 10
680.38824277939989
 20
-168.94620268040001
 30
0.0
 11
663.01879833489988
 21
-168.94620268040001
 31
0.0
  0
ENDBLK
  5
228
  8
0
  0
BLOCK
  8
0
  2
CLUMP5
 70
     0
 10
0.0
 20
0.0
 30
0.0
  3
CLUMP5
  1

  0
CIRCLE
  5
22F
  8
┌▓È_1
 62
     5
 10
700.06046500160005
 20
-363.60566058649999
 30
0.0
 40
4.25
  0
CIRCLE
  5
230
  8
┌▓È_1
 62
     5
 10
700.06046500160005
 20
-363.60566058649999
 30
0.0
 40
2.5
  0
LINE
  5
231
  8
┌▓È_1
  6
BORDER
 62
     3
 10
694.06046500160005
 20
-363.60566058649999
 30
0.0
 11
706.06046500160005
 21
-363.60566058649999
 31
0.0
  0
LINE
  5
232
  8
┌▓È_1
  6
BORDER
 62
     3
 10
700.06046500160005
 20
-369.60566058649999
 30
0.0
 11
700.06046500160005
 21
-357.60566058649999
 31
0.0
  0
ENDBLK
  5
233
  8
0
  0
BLOCK
  8
0
  2
CLUMP6
 70
     0
 10
0.0
 20
0.0
 30
0.0
  3
CLUMP6
  1

  0
LINE
  5
24B
  8
┌▓È_1
  6
STITCH
 10
785.56046500160005
 20
-276.19620268040001
 30
0.0
 11
790.56046500160005
 21
-276.19620268040001
 31
0.0
  0
LINE
  5
24C
  8
┌▓È_1
  6
STITCH
 10
790.56046500160005
 20
-275.19620268040001
 30
0.0
 11
785.56046500160005
 21
-275.19620268040001
 31
0.0
  0
LINE
  5
24D
  8
┌▓È_1
  6
STITCH
 10
790.56046500160005
 20
-276.19620268040001
 30
0.0
 11
790.56046500160005
 21
-275.19620268040001
 31
0.0
  0
LINE
  5
24E
  8
┌▓È_1
  6
STITCH
 10
785.56046500160005
 20
-275.19620268040001
 30
0.0
 11
785.56046500160005
 21
-276.19620268040001
 31
0.0
  0
LINE
  5
24F
  8
┌▓È_1
  6
STITCH
 10
785.56046500160005
 20
-275.19620268040001
 30
0.0
 11
783.81046500160005
 21
-273.44620268040001
 31
0.0
  0
LINE
  5
250
  8
┌▓È_1
  6
STITCH
 10
785.56046500160005
 20
-276.19620268040001
 30
0.0
 11
783.81046500160005
 21
-277.94620268040001
 31
0.0
  0
LINE
  5
251
  8
┌▓È_1
  6
STITCH
 10
790.56046500160005
 20
-275.19620268040001
 30
0.0
 11
792.31046500160005
 21
-273.44620268040001
 31
0.0
  0
LINE
  5
252
  8
┌▓È_1
  6
STITCH
 10
790.56046500160005
 20
-276.19620268040001
 30
0.0
 11
792.31046500160005
 21
-277.94620268040001
 31
0.0
  0
LINE
  5
253
  8
┌▓È_1
  6
BORDER
 62
     3
 10
788.06046500160005
 20
-267.61842490269999
 30
0.0
 11
788.06046500160005
 21
-284.9878693471
 31
0.0
  0
ENDBLK
  5
254
  8
0
  0
BLOCK
  8
0
  2
CLUMP7
 70
     0
 10
0.0
 20
0.0
 30
0.0
  3
CLUMP7
  1

  0
CIRCLE
  5
258
  8
┌▓È_1
 62
     5
 10
788.06046500160005
 20
-368.60566058649999
 30
0.0
 40
4.25
  0
CIRCLE
  5
259
  8
┌▓È_1
 62
     5
 10
788.06046500160005
 20
-368.60566058649999
 30
0.0
 40
2.5
  0
LINE
  5
25A
  8
┌▓È_1
  6
BORDER
 62
     3
 10
788.06046500160005
 20
-362.60566058649999
 30
0.0
 11
788.06046500160005
 21
-374.60566058649999
 31
0.0
  0
LINE
  5
25B
  8
┌▓È_1
  6
BORDER
 62
     3
 10
782.06046500160005
 20
-368.60566058649999
 30
0.0
 11
794.06046500160005
 21
-368.60566058649999
 31
0.0
  0
ENDBLK
  5
25C
  8
0
  0
BLOCK
  8
0
  2
CLUMP8
 70
     0
 10
0.0
 20
0.0
 30
0.0
  3
CLUMP8
  1

  0
LINE
  5
260
  8
┌▓È_1
  6
STITCH
 10
672.81046500160005
 20
-92.446202680400006
 30
0.0
 11
674.56046500160005
 21
-94.196202680400006
 31
0.0
  0
LINE
  5
261
  8
┌▓È_1
  6
STITCH
 10
671.81046500160005
 20
-92.446202680400006
 30
0.0
 11
670.06046500160005
 21
-94.196202680400006
 31
0.0
  0
LINE
  5
262
  8
┌▓È_1
  6
STITCH
 10
671.81046500160005
 20
-87.446202680400006
 30
0.0
 11
670.06046500160005
 21
-85.696202680400006
 31
0.0
  0
LINE
  5
263
  8
┌▓È_1
  6
STITCH
 10
672.81046500160005
 20
-87.446202680400006
 30
0.0
 11
674.56046500160005
 21
-85.696202680400006
 31
0.0
  0
LINE
  5
264
  8
┌▓È_1
  6
STITCH
 10
671.81046500160005
 20
-92.446202680400006
 30
0.0
 11
671.81046500160005
 21
-87.446202680400006
 31
0.0
  0
LINE
  5
265
  8
┌▓È_1
  6
STITCH
 10
672.81046500160005
 20
-87.446202680400006
 30
0.0
 11
672.81046500160005
 21
-92.446202680400006
 31
0.0
  0
LINE
  5
266
  8
┌▓È_1
  6
STITCH
 10
671.81046500160005
 20
-87.446202680400006
 30
0.0
 11
672.81046500160005
 21
-87.446202680400006
 31
0.0
  0
LINE
  5
267
  8
┌▓È_1
  6
STITCH
 10
672.81046500160005
 20
-92.446202680400006
 30
0.0
 11
671.81046500160005
 21
-92.446202680400006
 31
0.0
  0
LINE
  5
268
  8
┌▓È_1
  6
BORDER
 62
     3
 10
680.38824277939989
 20
-89.946202680400006
 30
0.0
 11
663.01879833489988
 21
-89.946202680400006
 31
0.0
  0
ENDBLK
  5
269
  8
0
  0
BLOCK
  8
0
  2
CLUMP9
 70
     0
 10
0.0
 20
0.0
 30
0.0
  3
CLUMP9
  1

  0
CIRCLE
  5
272
  8
┌▓È_1
 62
     5
 10
915.24005166639995
 20
-89.946202680400006
 30
0.0
 40
2.5
  0
CIRCLE
  5
273
  8
┌▓È_1
 62
     5
 10
915.24005166639995
 20
-89.946202680400006
 30
0.0
 40
4.25
  0
LINE
  5
274
  8
┌▓È_1
  6
BORDER
 62
     3
 10
915.24005166639995
 20
-83.946202680400006
 30
0.0
 11
915.24005166639995
 21
-95.946202680400006
 31
0.0
  0
LINE
  5
275
  8
┌▓È_1
  6
BORDER
 62
     3
 10
909.24005166639995
 20
-89.946202680400006
 30
0.0
 11
921.24005166639995
 21
-89.946202680400006
 31
0.0
  0
ENDBLK
  5
276
  8
0
  0
BLOCK
  8
0
  2
*D39
 70
     1
 10
0.0
 20
0.0
 30
0.0
  3
*D39
  1

  0
LINE
  5
2F9
  8
Éíû@É³
 62
     0
 10
1011.216459500376
 20
-184.59789302582411
 30
0.0
 11
989.77925629877097
 21
-206.03509622742911
 31
0.0
  0
LINE
  5
2FA
  8
Éíû@É³
 62
     0
 10
1054.8655080198239
 20
-184.59789302582411
 30
0.0
 11
1076.302711221429
 21
-206.03509622742871
 31
0.0
  0
ARC
  5
2FB
  8
Éíû@É³
 62
     0
 10
1033.0409837601001
 20
-162.77336876609999
 30
0.0
 40
59.931321707500011
 50
230.7385420066413
 51
261.18341490483488
  0
ARC
  5
2FC
  8
Éíû@É³
 62
     0
 10
1033.0409837601001
 20
-162.77336876609999
 30
0.0
 40
59.931321707500011
 50
278.81658509516512
 51
309.26145799335922
  0
SOLID
  5
2FD
  8
Éíû@É³
 62
     0
 10
994.44201233238596
 20
-209.9177756842297
 30
0.0
 11
995.78366125360606
 21
-208.43454334498239
 31
0.0
 12
990.66313977525419
 22
-205.15121275094589
 32
0.0
 13
990.66313977525419
 23
-205.15121275094589
 33
0.0
  0
SOLID
  5
2FE
  8
Éíû@É³
 62
     0
 10
1070.298306266594
 20
-208.4345433449821
 30
0.0
 11
1071.6399551878139
 21
-209.91777568422941
 31
0.0
 12
1075.4188277449459
 22
-205.1512127509456
 32
0.0
 13
1075.4188277449459
 23
-205.1512127509456
 33
0.0
  0
TEXT
  8
Éíû@É³
  40
5.99722
  5
36E
  62
0
  72
0
  71
0
 10
1021.05
 20
-233.320
 30
0.000000
  1
90üï
  0
POINT
  5
300
  8
Defpoints
 62
     0
 10
1033.0409837601001
 20
-162.77336876609999
 30
0.0
  0
POINT
  5
301
  8
Defpoints
 62
     0
 10
1011.2606536741999
 20
-184.553698852
 30
0.0
  0
POINT
  5
302
  8
Defpoints
 62
     0
 10
1054.8213138460001
 20
-184.553698852
 30
0.0
  0
POINT
  5
303
  8
Defpoints
 62
     0
 10
1017.529616304033
 20
-220.66258020701301
 30
0.0
  0
ENDBLK
  5
305
  8
0
  0
BLOCK
  8
0
  2
*D40
 70
     1
 10
0.0
 20
0.0
 30
0.0
  3
*D40
  1

  0
LINE
  5
307
  8
Éíû@É³
 62
     0
 10
1054.8655080198239
 20
-160.94884450647589
 30
0.0
 11
1087.3264668170241
 21
-128.48788570942591
 31
0.0
  0
LINE
  5
308
  8
Éíû@É³
 62
     0
 10
1011.216459500375
 20
-160.94884450647589
 30
0.0
 11
978.75550070317638
 21
-128.48788570942551
 31
0.0
  0
ARC
  5
309
  8
Éíû@É³
 62
     0
 10
1033.0409837601001
 20
-182.77336876609999
 30
0.0
 40
75.521266378899995
 50
49.553222819607562
 51
83.013712858319579
  0
ARC
  5
30A
  8
Éíû@É³
 62
     0
 10
1033.0409837601001
 20
-182.77336876609999
 30
0.0
 40
75.521266378899995
 50
96.986287141680435
 51
130.44677718039199
  0
SOLID
  5
30B
  8
Éíû@É³
 62
     0
 10
1082.713216729122
 20
-124.5663738142799
 30
0.0
 11
1081.356297506509
 21
-126.0356492218541
 31
0.0
 12
1086.442583340538
 22
-129.371769185907
 32
0.0
 13
1086.442583340538
 23
-129.371769185907
 33
0.0
  0
SOLID
  5
30C
  8
Éíû@É³
 62
     0
 10
984.72567001369077
 20
-126.0356492218537
 30
0.0
 11
983.36875079107745
 21
-124.5663738142795
 31
0.0
 12
979.63938417966142
 22
-129.3717691859066
 32
0.0
 13
979.63938417966142
 23
-129.3717691859066
 33
0.0
  0
TEXT
  8
Éíû@É³
  40
5.99722
  5
36F
  62
0
  72
0
  71
0
 10
1021.05
 20
-117.867
 30
0.000000
  1
90üï
  0
POINT
  5
30E
  8
Defpoints
 62
     0
 10
1033.0409837601001
 20
-182.77336876609999
 30
0.0
  0
POINT
  5
30F
  8
Defpoints
 62
     0
 10
1054.8213138460001
 20
-160.9930386803
 30
0.0
  0
POINT
  5
310
  8
Defpoints
 62
     0
 10
1011.2606536741999
 20
-160.9930386803
 30
0.0
  0
POINT
  5
311
  8
Defpoints
 62
     0
 10
1052.5873258092761
 20
-109.8254271366792
 30
0.0
  0
ENDBLK
  5
313
  8
0
  0
BLOCK
  8
0
  2
*U41
 70
     1
 10
0.0
 20
0.0
 30
0.0
  3
*U41
  1

  0
TEXT
  5
315
  8
┌▓È_1
  6
CONTINUOUS
 10
1008.245379601325
 20
-243.2371100608274
 30
0.0
 40
5.9972220420999998
  1
ÄMâéâ~òöègæÕÉ}
  0
ENDBLK
  5
317
  8
0
  0
BLOCK
  8
0
  2
*D42
 70
     1
 10
0.0
 20
0.0
 30
0.0
  3
*D42
  1

  0
LINE
  5
319
  8
Éíû@É³
 62
     0
 10
901.74796500159994
 20
-273.44620268040012
 30
0.0
 11
729.66165196423515
 21
-273.44620268040001
 31
0.0
  0
LINE
  5
31A
  8
Éíû@É³
 62
     0
 10
674.56046500160005
 20
-78.008702680399949
 30
0.0
 11
674.56046500160005
 21
-218.3450157177648
 31
0.0
  0
ARC
  5
31B
  8
Éíû@É³
 62
     0
 10
674.56046500160005
 20
-273.44620268040001
 30
0.0
 40
56.351186962635232
 50
6.1034610445112101
 51
33.541368726242951
  0
ARC
  5
31C
  8
Éíû@É³
 62
     0
 10
674.56046500160005
 20
-273.44620268040001
 30
0.0
 40
56.351186962635232
 50
52.304628617639437
 51
83.896538955488779
  0
SOLID
  5
31D
  8
Éíû@É³
 62
     0
 10
731.5908084472502
 20
-267.40147386335792
 30
0.0
 11
729.59364469669515
 21
-267.5079489941121
 31
0.0
 12
730.91165196423515
 22
-273.44620268040001
 32
0.0
 13
730.91165196423515
 23
-273.44620268040001
 33
0.0
  0
SOLID
  5
31E
  8
Éíû@É³
 62
     0
 10
680.49871868788796
 20
-218.41302298530491
 30
0.0
 11
680.60519381864208
 21
-216.41585923474989
 31
0.0
 12
674.56046500160005
 22
-217.0950157177648
 32
0.0
 13
674.56046500160005
 23
-217.0950157177648
 33
0.0
  0
TEXT
  8
Éíû@É³
  40
5.99722
  5
370
  62
0
  72
0
  71
0
 10
703.830
 20
-245.685
 30
0.000000
  1
90üï
  0
POINT
  5
320
  8
Defpoints
 62
     0
 10
674.56046500160005
 20
-273.44620268040001
 30
0.0
  0
POINT
  5
321
  8
Defpoints
 62
     0
 10
901.81046500160005
 20
-273.44620268040001
 30
0.0
  0
POINT
  5
322
  8
Defpoints
 62
     0
 10
674.56046500160005
 20
-77.946202680400006
 30
0.0
  0
POINT
  5
323
  8
Defpoints
 62
     0
 10
702.73605848291766
 20
-224.64464323735149
 30
0.0
  0
ENDBLK
  5
325
  8
0
  0
BLOCK
  8
0
  2
*U43
 70
     1
 10
0.0
 20
0.0
 30
0.0
  3
*U43
  1

  0
TEXT
  5
327
  8
┌▓È_1
  6
CONTINUOUS
 10
968.9498629261999
 20
-364.39430446873712
 30
0.0
 40
4.6749999999999989
  1
ü@îƒ ü@ê¾
  0
ENDBLK
  5
329
  8
0
  0
BLOCK
  8
0
  2
*U44
 70
     1
 10
0.0
 20
0.0
 30
0.0
  3
*U44
  1

  0
TEXT
  5
32B
  8
┌▓È_1
  6
CONTINUOUS
 10
936.9498629261999
 20
-381.37057350427011
 30
0.0
 40
4.6749999999999989
  1
ü@Ä┌ ü@ôx
  0
ENDBLK
  5
32D
  8
0
  0
BLOCK
  8
0
  2
*U45
 70
     1
 10
0.0
 20
0.0
 30
0.0
  3
*U45
  1

  0
TEXT
  5
32F
  8
┌▓È_1
  6
CONTINUOUS
 10
936.9498629261999
 20
-364.39430446873712
 30
0.0
 40
4.6749999999999989
  1
ü@ö┬ ü@î·
  0
ENDBLK
  5
331
  8
0
  0
BLOCK
  8
0
  2
*U46
 70
     1
 10
0.0
 20
0.0
 30
0.0
  3
*U46
  1

  0
TEXT
  5
333
  8
┌▓È_1
  6
CONTINUOUS
 10
904.94986292619978
 20
-364.29938061086909
 30
0.0
 40
4.6749999999999989
  1
ü@ìÌ ü@Ä┐
  0
ENDBLK
  5
335
  8
0
  0
BLOCK
  8
0
  2
*U47
 70
     1
 10
0.0
 20
0.0
 30
0.0
  3
*U47
  1

  0
TEXT
  5
337
  8
┌▓È_1
  6
CONTINUOUS
 62
     5
 10
945.81344409557812
 20
-389.63326385959999
 30
0.0
 40
4.6749999999999989
  1
1üF2
  0
ENDBLK
  5
339
  8
0
  0
BLOCK
  8
0
  2
*U48
 70
     1
 10
0.0
 20
0.0
 30
0.0
  3
*U48
  1

  0
TEXT
  5
33B
  8
┌▓È_1
  6
CONTINUOUS
 62
     5
 10
946.02702277578123
 20
-372.63326385959999
 30
0.0
 40
4.6749999999999989
  1
4.5t
  0
ENDBLK
  5
33D
  8
0
  0
BLOCK
  8
0
  2
*U49
 70
     1
 10
0.0
 20
0.0
 30
0.0
  3
*U49
  1

  0
TEXT
  5
33F
  8
┌▓È_1
  6
CONTINUOUS
 62
     5
 10
917.21883749659344
 20
-372.91803543320401
 30
0.0
 40
4.6749999999999989
  1
ôS
  0
ENDBLK
  5
341
  8
0
  0
BLOCK
  8
0
  2
*U50
 70
     1
 10
0.0
 20
0.0
 30
0.0
  3
*U50
  1

  0
TEXT
  5
343
  8
┌▓È_1
  6
CONTINUOUS
 62
     5
 10
880.38958622755786
 20
-372.63326385959999
 30
0.0
 40
4.6749999999999989
  1
H16.4
  0
ENDBLK
  5
345
  8
0
  0
BLOCK
  8
0
  2
*U51
 70
     1
 10
0.0
 20
0.0
 30
0.0
  3
*U51
  1

  0
TEXT
  5
347
  8
┌▓È_1
  6
CONTINUOUS
 10
1001.8000902111
 20
-398.24158338130201
 30
0.0
 40
4.6749999999999989
  1
É}öÈ
  0
ENDBLK
  5
349
  8
0
  0
BLOCK
  8
0
  2
*U52
 70
     1
 10
0.0
 20
0.0
 30
0.0
  3
*U52
  1

  0
TEXT
  5
34B
  8
┌▓È_1
  6
CONTINUOUS
 10
1001.8000902111
 20
-381.28904531023602
 30
0.0
 40
4.6749999999999989
  1
òiû╝
  0
ENDBLK
  5
34D
  8
0
  0
BLOCK
  8
0
  2
*U53
 70
     1
 10
0.0
 20
0.0
 30
0.0
  3
*U53
  1

  0
TEXT
  5
34F
  8
┌▓È_1
  6
CONTINUOUS
 10
1001.8000902111
 20
-364.24158338130201
 30
0.0
 40
4.6749999999999989
  1
î^öÈ
  0
ENDBLK
  5
351
  8
0
  0
BLOCK
  8
0
  2
*U54
 70
     1
 10
0.0
 20
0.0
 30
0.0
  3
*U54
  1

  0
TEXT
  5
353
  8
┌▓È_1
  6
CONTINUOUS
 10
872.94986292619978
 20
-364.22818771746802
 30
0.0
 40
4.6749999999999989
  1
ü@ô· ü@òt
  0
ENDBLK
  5
355
  8
0
  0
BLOCK
  8
0
  2
*U55
 70
     1
 10
0.0
 20
0.0
 30
0.0
  3
*U55
  1

  0
TEXT
  5
357
  8
┌▓È_1
  6
CONTINUOUS
 10
872.01909130369995
 20
-389.91803543320412
 30
0.0
 40
4.6749999999999989
  1
 É╗É}ü@ü@ è¦û{
  0
ENDBLK
  5
359
  8
0
  0
BLOCK
  8
0
  2
*U56
 70
     1
 10
0.0
 20
0.0
 30
0.0
  3
*U56
  1

  0
TEXT
  5
35B
  8
┌▓È_1
  6
CONTINUOUS
 10
872.01909130369995
 20
-381.39430446873712
 30
0.0
 40
4.6749999999999989
  1
 É¦îvü@ü@öÆÉ{ëÛ
  0
ENDBLK
  5
35D
  8
0
  0
BLOCK
  8
0
  2
*U57
 70
     1
 10
0.0
 20
0.0
 30
0.0
  3
*U57
  1

  0
TEXT
  5
35F
  8
┌▓È_1
  6
CONTINUOUS
 10
1023.589755942867
 20
-369.15703107949997
 30
0.0
 40
7.1966662884000003
  1
LY-202  150x300
  0
ENDBLK
  5
361
  8
0
  0
BLOCK
  8
0
  2
*U58
 70
     1
 10
0.0
 20
0.0
 30
0.0
  3
*U58
  1

  0
TEXT
  5
363
  8
┌▓È_1
  6
CONTINUOUS
 10
886.46019875320007
 20
-404.55207677252741
 30
0.0
 40
8.6359998702999992
  1
èöÄ«ë´Äð
  0
ENDBLK
  5
365
  8
0
  0
BLOCK
  8
0
  2
*U59
 70
     1
 10
0.0
 20
0.0
 30
0.0
  3
*U59
  1

  0
TEXT
  5
367
  8
┌▓È_1
  6
CONTINUOUS
 10
872.01909130369995
 20
-355.20480843925782
 30
0.0
 40
7.1966662884000003
  1
ò\û╩ÅêùØüFâåâjâNâìâüâbâLÄdÅÒé░
  0
ENDBLK
  5
369
  8
0
  0
BLOCK
  8
0
  2
*U60
 70
     1
 10
0.0
 20
0.0
 30
0.0
  3
*U60
  1

  0
TEXT
  5
36B
  8
┌▓È_1
  6
CONTINUOUS
 10
1030.8293878393999
 20
-387.66518186612689
 30
0.0
 40
7.1966662884000003
  1
ékî^âAâôâOâï
  0
ENDBLK
  5
36D
  8
0
  0
ENDSEC
  0
SECTION
  2
ENTITIES
  0
DIMENSION
  5
3E
  8
Éíû@É³
  2
*D0
 10
931.24005166639984
 20
-45.499444094600001
 30
0.0
 11
915.24005166639995
 21
-45.499444094600001
 31
0.0
 70
   128
  1
<>
 13
931.24005166639984
 23
-77.946202680400006
 33
0.0
 14
899.24005166639995
 24
-77.946202680400006
 34
0.0
  0
DIMENSION
  5
4D
  8
Éíû@É³
  2
*D1
 10
674.56046500160005
 20
-52.022369227799999
 30
0.0
 11
687.59867029669999
 21
-52.022369227799999
 31
0.0
 70
   128
  1
<>t
 13
674.56046500160005
 23
-77.946202680400006
 33
0.0
 14
670.06046500160005
 24
-77.946202680400006
 34
0.0
  0
DIMENSION
  5
5C
  8
Éíû@É³
  2
*D2
 10
1011.7909837600999
 20
-205.4110734523
 30
0.0
 11
1033.0409837601001
 21
-205.4110734523
 31
0.0
 70
   128
  1
%%c8.5
 13
1011.7909837600999
 23
-184.02336876609999
 33
0.0
 14
1054.2909837600989
 24
-184.02336876609999
 34
0.0
 50
180.0
  0
DIMENSION
  5
6A
  8
Éíû@É³
  2
*D39
 10
1017.529616304033
 20
-220.66258020701301
 30
0.0
 11
1033.0409837601001
 21
-222.70469047360001
 31
0.0
 70
   133
  1
<>
 13
1054.8213138460001
 23
-184.553698852
 33
0.0
 14
1011.2606536741999
 24
-184.553698852
 34
0.0
 15
1033.0409837601001
 25
-162.77336876609999
 35
0.0
1001
ACAD
1000
DSTYLE
1002
{
1070
   271
1070
     0
1002
}
  0
DIMENSION
  5
79
  8
Éíû@É³
  2
*D4
 10
1045.5409837600989
 20
-135.1185510965
 30
0.0
 11
1033.0409837601001
 21
-135.1185510965
 31
0.0
 70
   128
  1
%%c5
 13
1045.5409837600989
 23
-170.27336876609999
 33
0.0
 14
1020.5409837600999
 24
-170.27336876609999
 34
0.0
  0
DIMENSION
  5
88
  8
Éíû@É³
  2
*D5
 10
1054.2909837600989
 20
-120.34897738719999
 30
0.0
 11
1033.0409837601001
 21
-120.34897738719999
 31
0.0
 70
   128
  1
%%c8.5
 13
1054.2909837600989
 23
-161.52336876609999
 33
0.0
 14
1011.7909837600999
 24
-161.52336876609999
 34
0.0
  0
DIMENSION
  5
95
  8
Éíû@É³
  2
*D40
 10
1052.5873258092761
 20
-109.8254271366792
 30
0.0
 11
1033.0409837601001
 21
-107.2521023872
 31
0.0
 70
   133
  1
<>
 13
1011.2606536741999
 23
-160.9930386803
 33
0.0
 14
1054.8213138460001
 24
-160.9930386803
 34
0.0
 15
1033.0409837601001
 25
-182.77336876609999
 35
0.0
1001
ACAD
1000
DSTYLE
1002
{
1070
   271
1070
     0
1002
}
  0
LINE
  5
97
  8
┌▓È_1
 10
1007.0908359013
 20
-245.81182319320001
 30
0.0
 11
1061.7005703487
 21
-245.81182319320001
 31
0.0
  0
INSERT
  5
98
  8
0
  6
CONTINUOUS
  2
*U41
 10
0.0
 20
0.0
 30
0.0
  0
LINE
  5
99
  8
┌▓È_1
 62
     5
 10
1020.5409837600999
 20
-175.27336876609999
 30
0.0
 11
1045.5409837600989
 21
-175.27336876609999
 31
0.0
  0
LINE
  5
9A
  8
┌▓È_1
 62
     5
 10
1020.5409837600999
 20
-170.27336876609999
 30
0.0
 11
1045.5409837600989
 21
-170.27336876609999
 31
0.0
  0
LINE
  5
9B
  8
┌▓È_1
 62
     5
 10
1045.5409837600989
 20
-175.27336876609999
 30
0.0
 11
1054.2909837600989
 21
-184.02336876609999
 31
0.0
  0
LINE
  5
9C
  8
┌▓È_1
 62
     5
 10
1020.5409837600999
 20
-175.27336876609999
 30
0.0
 11
1011.7909837600999
 21
-184.02336876609999
 31
0.0
  0
LINE
  5
9D
  8
┌▓È_1
 62
     5
 10
1020.5409837600999
 20
-170.27336876609999
 30
0.0
 11
1020.5409837600999
 21
-175.27336876609999
 31
0.0
  0
LINE
  5
9E
  8
┌▓È_1
  6
BORDER
 62
     3
 10
1033.0409837601001
 20
-155.00664741200001
 30
0.0
 11
1033.0409837601001
 21
-188.50664741200001
 31
0.0
  0
LINE
  5
9F
  8
┌▓È_1
 62
     5
 10
1045.5409837600989
 20
-170.27336876609999
 30
0.0
 11
1045.5409837600989
 21
-175.27336876609999
 31
0.0
  0
LINE
  5
A0
  8
┌▓È_1
 62
     5
 10
1045.5409837600989
 20
-170.27336876609999
 30
0.0
 11
1054.2909837600989
 21
-161.52336876609999
 31
0.0
  0
LINE
  5
A1
  8
┌▓È_1
 62
     5
 10
1011.7909837600999
 20
-161.52336876609999
 30
0.0
 11
1020.5409837600999
 21
-170.27336876609999
 31
0.0
  0
LINE
  5
A2
  8
┌▓È_1
 62
     5
 10
997.1108541305
 20
-161.52336876609999
 30
0.0
 11
1070.1094652416
 21
-161.52336876609999
 31
0.0
  0
LINE
  5
A3
  8
┌▓È_1
 62
     5
 10
997.1108541305
 20
-184.02336876609999
 30
0.0
 11
1070.1094652416
 21
-184.02336876609999
 31
0.0
  0
LINE
  5
A4
  8
┌▓È_1
  6
STITCH
 10
697.56046500160005
 20
-276.19620268040001
 30
0.0
 11
702.56046500160005
 21
-276.19620268040001
 31
0.0
  0
LINE
  5
A5
  8
┌▓È_1
  6
BORDER
 62
     3
 10
680.38824277939989
 20
-247.94620268040001
 30
0.0
 11
663.01879833489988
 21
-247.94620268040001
 31
0.0
  0
LINE
  5
A6
  8
┌▓È_1
  6
STITCH
 10
671.81046500160005
 20
-245.44620268040001
 30
0.0
 11
672.81046500160005
 21
-245.44620268040001
 31
0.0
  0
DIMENSION
  5
B5
  8
Éíû@É³
  2
*D7
 10
910.24005166639995
 20
-135.2779084096
 30
0.0
 11
904.74005166639995
 21
-135.2779084096
 31
0.0
 70
   128
  1
<>
 13
910.24005166639995
 23
-162.94620268040001
 33
0.0
 14
899.24005166639995
 24
-156.56829079490001
 34
0.0
  0
DIMENSION
  5
C4
  8
Éíû@É³
  2
*D8
 10
670.06046500160005
 20
-298.28365842990002
 30
0.0
 11
735.06046500160005
 21
-298.28365842990002
 31
0.0
 70
   128
  1
150
 13
670.06046500160005
 23
-273.44620268040001
 33
0.0
 14
800.06046500160005
 24
-277.94620268040001
 34
0.0
 50
180.0
  0
DIMENSION
  5
D3
  8
Éíû@É³
  2
*D9
 10
920.24005166639995
 20
-204.47222654519999
 30
0.0
 11
914.80267869579995
 21
-204.47222654519999
 31
0.0
 70
   128
  1
<>
 13
920.24005166639995
 23
-243.69620268040001
 33
0.0
 14
910.24005166639995
 24
-174.94620268040001
 34
0.0
  0
DIMENSION
  5
E2
  8
Éíû@É³
  2
*D10
 10
931.24005166639984
 20
-220.65582029519999
 30
0.0
 11
925.74005166639995
 21
-220.65582029519999
 31
0.0
 70
   128
  1
<>
 13
931.24005166639984
 23
-241.94620268040001
 33
0.0
 14
920.24005166639995
 24
-241.94620268040001
 34
0.0
  0
DIMENSION
  5
F1
  8
Éíû@É³
  2
*D11
 10
881.66554312659991
 20
-247.94620268040001
 30
0.0
 11
881.66554312659991
 21
-262.94620268040001
 31
0.0
 70
   128
  1
<>
 13
914.24005166639984
 23
-247.94620268040001
 33
0.0
 14
899.24005166639995
 24
-277.94620268040001
 34
0.0
 50
90.0
  0
DIMENSION
  5
100
  8
Éíû@É³
  2
*D12
 10
881.72603646869993
 20
-168.94620268040001
 30
0.0
 11
881.72603646869993
 21
-208.44620268040001
 31
0.0
 70
   128
  1
129
 13
904.24005166639995
 23
-168.94620268040001
 33
0.0
 14
914.24005166639984
 24
-247.94620268040001
 34
0.0
 50
90.0
  0
DIMENSION
  5
10F
  8
Éíû@É³
  2
*D13
 10
881.66554312659991
 20
-89.946202680400006
 30
0.0
 11
881.66554312659991
 21
-129.44620268040001
 31
0.0
 70
   128
  1
129
 13
909.24005166639995
 23
-89.946202680400006
 33
0.0
 14
904.24005166639995
 24
-168.94620268040001
 34
0.0
 50
90.0
  0
DIMENSION
  5
11E
  8
Éíû@É³
  2
*D14
 10
832.16847281410014
 20
-368.60566058649999
 30
0.0
 11
832.16847281410014
 21
-341.27665668029999
 31
0.0
 70
   128
  1
<>
 13
794.06046500160005
 23
-368.60566058649999
 33
0.0
 14
800.06046500160005
 24
-352.60566058649999
 34
0.0
 50
90.0
  0
DIMENSION
  5
12D
  8
Éíû@É³
  2
*D15
 10
770.39792075109995
 20
-384.60566058649999
 30
0.0
 11
770.39792075109995
 21
-379.10566058649999
 31
0.0
 70
   128
  1
<>
 13
750.06046500160005
 23
-384.60566058649999
 33
0.0
 14
750.06046500160005
 24
-373.60566058649999
 34
0.0
 50
90.0
  0
DIMENSION
  5
13C
  8
Éíû@É³
  2
*D16
 10
721.99845328280003
 20
-373.60566058649999
 30
0.0
 11
721.99845328280003
 21
-368.80600238340003
 31
0.0
 70
   128
  1
<>
 13
738.06046500160005
 23
-373.60566058649999
 33
0.0
 14
706.06046500160005
 24
-363.60566058649999
 34
0.0
 50
90.0
  0
DIMENSION
  5
14B
  8
Éíû@É³
  2
*D17
 10
800.06046500160005
 20
-334.91425433649999
 30
0.0
 11
794.06046500160005
 21
-334.91425433649999
 31
0.0
 70
   128
  1
<>
 13
800.06046500160005
 23
-352.60566058649999
 33
0.0
 14
788.06046500160005
 24
-362.60566058649999
 34
0.0
  0
DIMENSION
  5
158
  8
Éíû@É³
  2
*D42
 10
702.73605848291766
 20
-224.64464323735149
 30
0.0
 11
715.82472595160004
 21
-235.0702070536
 31
0.0
 70
   133
  1
<>
 13
674.56046500160005
 23
-77.946202680400006
 33
0.0
 14
901.81046500160005
 24
-273.44620268040001
 34
0.0
 15
674.56046500160005
 25
-273.44620268040001
 35
0.0
1001
ACAD
1000
DSTYLE
1002
{
1070
   271
1070
     0
1002
}
  0
DIMENSION
  5
167
  8
Éíû@É³
  2
*D19
 10
881.6779407654999
 20
-77.946202680400006
 30
0.0
 11
881.6779407654999
 21
-84.169509972099988
 31
0.0
 70
   128
  1
<>
 13
899.24005166639995
 23
-77.946202680400006
 33
0.0
 14
914.24005166639984
 24
-89.946202680400006
 34
0.0
 50
90.0
  0
DIMENSION
  5
176
  8
Éíû@É³
  2
*D20
 10
648.77008261629987
 20
-77.946202680400006
 30
0.0
 11
648.77008261629987
 21
-177.94620268040001
 31
0.0
 70
   128
  1
300
 13
670.06046500160005
 23
-77.946202680400006
 33
0.0
 14
674.56046500160005
 24
-277.94620268040001
 34
0.0
 50
90.0
  0
DIMENSION
  5
185
  8
Éíû@É³
  2
*D21
 10
788.06046500160005
 20
-334.93851733700001
 30
0.0
 11
766.06046500160005
 21
-334.93851733700001
 31
0.0
 70
   128
  1
54
 13
788.06046500160005
 23
-362.60566058649999
 33
0.0
 14
744.06046500160005
 24
-367.60566058649999
 34
0.0
  0
DIMENSION
  5
194
  8
Éíû@É³
  2
*D22
 10
744.06046500160005
 20
-334.91425433649999
 30
0.0
 11
722.06046500160005
 21
-334.91425433649999
 31
0.0
 70
   128
  1
54
 13
744.06046500160005
 23
-369.35566058649999
 33
0.0
 14
700.06046500160005
 24
-357.60566058649999
 34
0.0
  0
DIMENSION
  5
1A3
  8
Éíû@É³
  2
*D23
 10
700.06046500160005
 20
-334.84571439920001
 30
0.0
 11
685.06046500160005
 21
-334.84571439920001
 31
0.0
 70
   128
  1
<>
 13
700.06046500160005
 23
-357.60566058649999
 33
0.0
 14
670.06046500160005
 24
-352.60566058649999
 34
0.0
  0
DIMENSION
  5
1B2
  8
Éíû@É³
  2
*D24
 10
648.73136343910005
 20
-352.60566058649999
 30
0.0
 11
648.73136343910005
 21
-368.60566058649999
 31
0.0
 70
   128
  1
<>
 13
670.06046500160005
 23
-352.60566058649999
 33
0.0
 14
670.06046500160005
 24
-384.60566058649999
 34
0.0
 50
90.0
  0
DIMENSION
  5
1C1
  8
Éíû@É³
  2
*D25
 10
688.15631003329986
 20
-352.60566058649999
 30
0.0
 11
688.15631003329986
 21
-358.10566058649999
 31
0.0
 70
   128
  1
<>
 13
694.06046500160005
 23
-352.60566058649999
 33
0.0
 14
694.06046500160005
 24
-363.60566058649999
 34
0.0
 50
90.0
  0
DIMENSION
  5
1D0
  8
Éíû@É³
  2
*D26
 10
832.16852621979979
 20
-384.60566058649999
 30
0.0
 11
832.16852621979979
 21
-395.83778949280003
 31
0.0
 70
   128
  1
<>
 13
800.06046500160005
 23
-384.60566058649999
 33
0.0
 14
794.06046500160005
 24
-368.60566058649999
 34
0.0
 50
90.0
  0
DIMENSION
  5
1DF
  8
Éíû@É³
  2
*D27
 10
931.24005166639984
 20
-58.829648420200002
 30
0.0
 11
938.6319787496999
 21
-58.829648420200002
 31
0.0
 70
   128
  1
<>
 13
931.24005166639984
 23
-77.946202680400006
 33
0.0
 14
915.24005166639995
 24
-83.946202680400006
 34
0.0
  0
DIMENSION
  5
1EE
  8
Éíû@É³
  2
*D28
 10
915.24005166639995
 20
-58.829648420200002
 30
0.0
 11
888.86781859350015
 21
-58.829648420200002
 31
0.0
 70
   128
  1
<>
 13
915.24005166639995
 23
-83.946202680400006
 33
0.0
 14
899.24005166639995
 24
-77.946202680400006
 34
0.0
  0
INSERT
  5
1F0
  8
┌▓È_1
  2
CLUMP0
 10
0.0
 20
0.0
 30
0.0
  0
INSERT
  5
1F8
  8
┌▓È_1
  2
CLUMP1
 10
0.0
 20
0.0
 30
0.0
  0
INSERT
  5
200
  8
┌▓È_1
  2
CLUMP2
 10
0.0
 20
0.0
 30
0.0
  0
INSERT
  5
20D
  8
┌▓È_1
  2
CLUMP3
 10
0.0
 20
0.0
 30
0.0
  0
LINE
  5
214
  8
┌▓È_1
 62
     5
 10
670.06046500160005
 20
-384.60566058649999
 30
0.0
 11
800.06046500160005
 21
-384.60566058649999
 31
0.0
  0
LINE
  5
215
  8
┌▓È_1
 62
     5
 10
670.06046500160005
 20
-352.60566058649999
 30
0.0
 11
800.06046500160005
 21
-352.60566058649999
 31
0.0
  0
LINE
  5
216
  8
┌▓È_1
  6
STITCH
 10
671.81046500160005
 20
-250.44620268040001
 30
0.0
 11
671.81046500160005
 21
-245.44620268040001
 31
0.0
  0
LINE
  5
217
  8
┌▓È_1
  6
STITCH
 10
672.81046500160005
 20
-245.44620268040001
 30
0.0
 11
674.56046500160005
 21
-243.69620268040001
 31
0.0
  0
LINE
  5
218
  8
┌▓È_1
  6
STITCH
 10
671.81046500160005
 20
-245.44620268040001
 30
0.0
 11
670.06046500160005
 21
-243.69620268040001
 31
0.0
  0
LINE
  5
219
  8
┌▓È_1
  6
STITCH
 10
671.81046500160005
 20
-250.44620268040001
 30
0.0
 11
670.06046500160005
 21
-252.19620268040001
 31
0.0
  0
LINE
  5
21A
  8
┌▓È_1
  6
STITCH
 10
672.81046500160005
 20
-250.44620268040001
 30
0.0
 11
674.56046500160005
 21
-252.19620268040001
 31
0.0
  0
LINE
  5
21B
  8
┌▓È_1
  6
STITCH
 10
672.81046500160005
 20
-250.44620268040001
 30
0.0
 11
671.81046500160005
 21
-250.44620268040001
 31
0.0
  0
INSERT
  5
21D
  8
┌▓È_1
  2
CLUMP4
 10
0.0
 20
0.0
 30
0.0
  0
LINE
  5
229
  8
┌▓È_1
  6
STITCH
 10
674.56046500160005
 20
-352.60566058649999
 30
0.0
 11
674.56046500160005
 21
-384.60566058649999
 31
0.0
  0
ARC
  5
22A
  8
┌▓È_1
 62
     5
 10
674.56046500160005
 20
-273.44620268040001
 30
0.0
 40
4.5
 50
180.0
 51
270.0
  0
LINE
  5
22B
  8
┌▓È_1
 62
     5
 10
670.06046500160005
 20
-352.60566058649999
 30
0.0
 11
670.06046500160005
 21
-384.60566058649999
 31
0.0
  0
INSERT
  5
22D
  8
┌▓È_1
  2
CLUMP5
 10
0.0
 20
0.0
 30
0.0
  0
LINE
  5
234
  8
┌▓È_1
  6
BORDER
 62
     3
 10
700.06046500160005
 20
-267.61842490269999
 30
0.0
 11
700.06046500160005
 21
-284.9878693471
 31
0.0
  0
LINE
  5
235
  8
┌▓È_1
  6
STITCH
 10
697.56046500160005
 20
-275.19620268040001
 30
0.0
 11
697.56046500160005
 21
-276.19620268040001
 31
0.0
  0
LINE
  5
236
  8
┌▓È_1
  6
STITCH
 10
697.56046500160005
 20
-275.19620268040001
 30
0.0
 11
695.81046500160005
 21
-273.44620268040001
 31
0.0
  0
LINE
  5
237
  8
┌▓È_1
  6
STITCH
 10
697.56046500160005
 20
-276.19620268040001
 30
0.0
 11
695.81046500160005
 21
-277.94620268040001
 31
0.0
  0
LINE
  5
238
  8
┌▓È_1
  6
STITCH
 10
702.56046500160005
 20
-275.19620268040001
 30
0.0
 11
704.31046500160005
 21
-273.44620268040001
 31
0.0
  0
LINE
  5
239
  8
┌▓È_1
  6
STITCH
 10
702.56046500160005
 20
-276.19620268040001
 30
0.0
 11
704.31046500160005
 21
-277.94620268040001
 31
0.0
  0
LINE
  5
23A
  8
┌▓È_1
  6
STITCH
 10
702.56046500160005
 20
-275.19620268040001
 30
0.0
 11
697.56046500160005
 21
-275.19620268040001
 31
0.0
  0
LINE
  5
23B
  8
┌▓È_1
  6
STITCH
 10
702.56046500160005
 20
-276.19620268040001
 30
0.0
 11
702.56046500160005
 21
-275.19620268040001
 31
0.0
  0
LINE
  5
23C
  8
┌▓È_1
 62
     5
 10
954.01349403570009
 20
-397.99092029780002
 30
0.0
 11
954.01349403570009
 21
-400.39092029779988
 31
0.0
  0
POLYLINE
  8
┌▓È_1
  5
371
  62
5
  66
     1
 10
0.000000
 20
0.000000
 30
0.000000
  70
     8
  0
VERTEX
  8
┌▓È_1
  5
372
 10
968.966
 20
-402.829
 30
0.000000
  70
    32
  0
VERTEX
  8
┌▓È_1
  5
373
 10
968.994
 20
-402.836
 30
0.000000
  70
    32
  0
VERTEX
  8
┌▓È_1
  5
374
 10
969.022
 20
-402.844
 30
0.000000
  70
    32
  0
VERTEX
  8
┌▓È_1
  5
375
 10
969.050
 20
-402.852
 30
0.000000
  70
    32
  0
VERTEX
  8
┌▓È_1
  5
376
 10
969.078
 20
-402.860
 30
0.000000
  70
    32
  0
VERTEX
  8
┌▓È_1
  5
377
 10
969.106
 20
-402.868
 30
0.000000
  70
    32
  0
VERTEX
  8
┌▓È_1
  5
378
 10
969.134
 20
-402.875
 30
0.000000
  70
    32
  0
VERTEX
  8
┌▓È_1
  5
379
 10
969.162
 20
-402.883
 30
0.000000
  70
    32
  0
VERTEX
  8
┌▓È_1
  5
37A
 10
969.190
 20
-402.891
 30
0.000000
  70
    32
  0
VERTEX
  8
┌▓È_1
  5
37B
 10
969.219
 20
-402.898
 30
0.000000
  70
    32
  0
VERTEX
  8
┌▓È_1
  5
37C
 10
969.247
 20
-402.906
 30
0.000000
  70
    32
  0
VERTEX
  8
┌▓È_1
  5
37D
 10
969.275
 20
-402.913
 30
0.000000
  70
    32
  0
VERTEX
  8
┌▓È_1
  5
37E
 10
969.303
 20
-402.921
 30
0.000000
  70
    32
  0
VERTEX
  8
┌▓È_1
  5
37F
 10
969.332
 20
-402.928
 30
0.000000
  70
    32
  0
VERTEX
  8
┌▓È_1
  5
380
 10
969.360
 20
-402.936
 30
0.000000
  70
    32
  0
VERTEX
  8
┌▓È_1
  5
381
 10
969.388
 20
-402.943
 30
0.000000
  70
    32
  0
VERTEX
  8
┌▓È_1
  5
382
 10
969.417
 20
-402.950
 30
0.000000
  70
    32
  0
VERTEX
  8
┌▓È_1
  5
383
 10
969.445
 20
-402.957
 30
0.000000
  70
    32
  0
VERTEX
  8
┌▓È_1
  5
384
 10
969.474
 20
-402.965
 30
0.000000
  70
    32
  0
VERTEX
  8
┌▓È_1
  5
385
 10
969.502
 20
-402.972
 30
0.000000
  70
    32
  0
VERTEX
  8
┌▓È_1
  5
386
 10
969.530
 20
-402.979
 30
0.000000
  70
    32
  0
VERTEX
  8
┌▓È_1
  5
387
 10
969.559
 20
-402.986
 30
0.000000
  70
    32
  0
VERTEX
  8
┌▓È_1
  5
388
 10
969.587
 20
-402.993
 30
0.000000
  70
    32
  0
VERTEX
  8
┌▓È_1
  5
389
 10
969.616
 20
-403.000
 30
0.000000
  70
    32
  0
VERTEX
  8
┌▓È_1
  5
38A
 10
969.645
 20
-403.007
 30
0.000000
  70
    32
  0
VERTEX
  8
┌▓È_1
  5
38B
 10
969.673
 20
-403.014
 30
0.000000
  70
    32
  0
VERTEX
  8
┌▓È_1
  5
38C
 10
969.702
 20
-403.021
 30
0.000000
  70
    32
  0
VERTEX
  8
┌▓È_1
  5
38D
 10
969.730
 20
-403.028
 30
0.000000
  70
    32
  0
VERTEX
  8
┌▓È_1
  5
38E
 10
969.759
 20
-403.034
 30
0.000000
  70
    32
  0
VERTEX
  8
┌▓È_1
  5
38F
 10
969.788
 20
-403.041
 30
0.000000
  70
    32
  0
VERTEX
  8
┌▓È_1
  5
390
 10
969.816
 20
-403.048
 30
0.000000
  70
    32
  0
VERTEX
  8
┌▓È_1
  5
391
 10
969.845
 20
-403.055
 30
0.000000
  70
    32
  0
VERTEX
  8
┌▓È_1
  5
392
 10
969.874
 20
-403.061
 30
0.000000
  70
    32
  0
VERTEX
  8
┌▓È_1
  5
393
 10
969.903
 20
-403.068
 30
0.000000
  70
    32
  0
VERTEX
  8
┌▓È_1
  5
394
 10
969.932
 20
-403.075
 30
0.000000
  70
    32
  0
VERTEX
  8
┌▓È_1
  5
395
 10
969.960
 20
-403.081
 30
0.000000
  70
    32
  0
VERTEX
  8
┌▓È_1
  5
396
 10
969.989
 20
-403.088
 30
0.000000
  70
    32
  0
VERTEX
  8
┌▓È_1
  5
397
 10
970.018
 20
-403.094
 30
0.000000
  70
    32
  0
VERTEX
  8
┌▓È_1
  5
398
 10
970.047
 20
-403.101
 30
0.000000
  70
    32
  0
VERTEX
  8
┌▓È_1
  5
399
 10
970.076
 20
-403.107
 30
0.000000
  70
    32
  0
VERTEX
  8
┌▓È_1
  5
39A
 10
970.105
 20
-403.114
 30
0.000000
  70
    32
  0
VERTEX
  8
┌▓È_1
  5
39B
 10
970.134
 20
-403.120
 30
0.000000
  70
    32
  0
VERTEX
  8
┌▓È_1
  5
39C
 10
970.163
 20
-403.126
 30
0.000000
  70
    32
  0
VERTEX
  8
┌▓È_1
  5
39D
 10
970.192
 20
-403.133
 30
0.000000
  70
    32
  0
VERTEX
  8
┌▓È_1
  5
39E
 10
970.221
 20
-403.139
 30
0.000000
  70
    32
  0
VERTEX
  8
┌▓È_1
  5
39F
 10
970.250
 20
-403.145
 30
0.000000
  70
    32
  0
VERTEX
  8
┌▓È_1
  5
3A0
 10
970.279
 20
-403.151
 30
0.000000
  70
    32
  0
VERTEX
  8
┌▓È_1
  5
3A1
 10
970.308
 20
-403.158
 30
0.000000
  70
    32
  0
VERTEX
  8
┌▓È_1
  5
3A2
 10
970.337
 20
-403.164
 30
0.000000
  70
    32
  0
VERTEX
  8
┌▓È_1
  5
3A3
 10
970.366
 20
-403.170
 30
0.000000
  70
    32
  0
VERTEX
  8
┌▓È_1
  5
3A4
 10
970.395
 20
-403.176
 30
0.000000
  70
    32
  0
VERTEX
  8
┌▓È_1
  5
3A5
 10
970.424
 20
-403.182
 30
0.000000
  70
    32
  0
VERTEX
  8
┌▓È_1
  5
3A6
 10
970.453
 20
-403.188
 30
0.000000
  70
    32
  0
VERTEX
  8
┌▓È_1
  5
3A7
 10
970.482
 20
-403.194
 30
0.000000
  70
    32
  0
VERTEX
  8
┌▓È_1
  5
3A8
 10
970.511
 20
-403.200
 30
0.000000
  70
    32
  0
VERTEX
  8
┌▓È_1
  5
3A9
 10
970.541
 20
-403.206
 30
0.000000
  70
    32
  0
VERTEX
  8
┌▓È_1
  5
3AA
 10
970.570
 20
-403.212
 30
0.000000
  70
    32
  0
VERTEX
  8
┌▓È_1
  5
3AB
 10
970.599
 20
-403.218
 30
0.000000
  70
    32
  0
VERTEX
  8
┌▓È_1
  5
3AC
 10
970.628
 20
-403.224
 30
0.000000
  70
    32
  0
VERTEX
  8
┌▓È_1
  5
3AD
 10
970.658
 20
-403.230
 30
0.000000
  70
    32
  0
VERTEX
  8
┌▓È_1
  5
3AE
 10
970.687
 20
-403.236
 30
0.000000
  70
    32
  0
VERTEX
  8
┌▓È_1
  5
3AF
 10
970.716
 20
-403.242
 30
0.000000
  70
    32
  0
VERTEX
  8
┌▓È_1
  5
3B0
 10
970.745
 20
-403.247
 30
0.000000
  70
    32
  0
VERTEX
  8
┌▓È_1
  5
3B1
 10
970.775
 20
-403.253
 30
0.000000
  70
    32
  0
VERTEX
  8
┌▓È_1
  5
3B2
 10
970.804
 20
-403.259
 30
0.000000
  70
    32
  0
VERTEX
  8
┌▓È_1
  5
3B3
 10
970.833
 20
-403.265
 30
0.000000
  70
    32
  0
VERTEX
  8
┌▓È_1
  5
3B4
 10
970.863
 20
-403.270
 30
0.000000
  70
    32
  0
VERTEX
  8
┌▓È_1
  5
3B5
 10
970.892
 20
-403.276
 30
0.000000
  70
    32
  0
VERTEX
  8
┌▓È_1
  5
3B6
 10
970.921
 20
-403.282
 30
0.000000
  70
    32
  0
VERTEX
  8
┌▓È_1
  5
3B7
 10
970.951
 20
-403.287
 30
0.000000
  70
    32
  0
VERTEX
  8
┌▓È_1
  5
3B8
 10
970.980
 20
-403.293
 30
0.000000
  70
    32
  0
VERTEX
  8
┌▓È_1
  5
3B9
 10
971.010
 20
-403.299
 30
0.000000
  70
    32
  0
VERTEX
  8
┌▓È_1
  5
3BA
 10
971.039
 20
-403.304
 30
0.000000
  70
    32
  0
VERTEX
  8
┌▓È_1
  5
3BB
 10
971.069
 20
-403.310
 30
0.000000
  70
    32
  0
VERTEX
  8
┌▓È_1
  5
3BC
 10
971.098
 20
-403.315
 30
0.000000
  70
    32
  0
VERTEX
  8
┌▓È_1
  5
3BD
 10
971.127
 20
-403.321
 30
0.000000
  70
    32
  0
VERTEX
  8
┌▓È_1
  5
3BE
 10
971.157
 20
-403.326
 30
0.000000
  70
    32
  0
VERTEX
  8
┌▓È_1
  5
3BF
 10
971.186
 20
-403.332
 30
0.000000
  70
    32
  0
VERTEX
  8
┌▓È_1
  5
3C0
 10
971.216
 20
-403.337
 30
0.000000
  70
    32
  0
VERTEX
  8
┌▓È_1
  5
3C1
 10
971.245
 20
-403.343
 30
0.000000
  70
    32
  0
VERTEX
  8
┌▓È_1
  5
3C2
 10
971.275
 20
-403.348
 30
0.000000
  70
    32
  0
VERTEX
  8
┌▓È_1
  5
3C3
 10
971.304
 20
-403.354
 30
0.000000
  70
    32
  0
VERTEX
  8
┌▓È_1
  5
3C4
 10
971.334
 20
-403.359
 30
0.000000
  70
    32
  0
VERTEX
  8
┌▓È_1
  5
3C5
 10
971.364
 20
-403.365
 30
0.000000
  70
    32
  0
VERTEX
  8
┌▓È_1
  5
3C6
 10
971.393
 20
-403.370
 30
0.000000
  70
    32
  0
VERTEX
  8
┌▓È_1
  5
3C7
 10
971.423
 20
-403.375
 30
0.000000
  70
    32
  0
VERTEX
  8
┌▓È_1
  5
3C8
 10
971.452
 20
-403.381
 30
0.000000
  70
    32
  0
VERTEX
  8
┌▓È_1
  5
3C9
 10
971.482
 20
-403.386
 30
0.000000
  70
    32
  0
VERTEX
  8
┌▓È_1
  5
3CA
 10
971.511
 20
-403.391
 30
0.000000
  70
    32
  0
VERTEX
  8
┌▓È_1
  5
3CB
 10
971.541
 20
-403.397
 30
0.000000
  70
    32
  0
VERTEX
  8
┌▓È_1
  5
3CC
 10
971.571
 20
-403.402
 30
0.000000
  70
    32
  0
VERTEX
  8
┌▓È_1
  5
3CD
 10
971.600
 20
-403.407
 30
0.000000
  70
    32
  0
VERTEX
  8
┌▓È_1
  5
3CE
 10
971.630
 20
-403.412
 30
0.000000
  70
    32
  0
VERTEX
  8
┌▓È_1
  5
3CF
 10
971.660
 20
-403.418
 30
0.000000
  70
    32
  0
VERTEX
  8
┌▓È_1
  5
3D0
 10
971.689
 20
-403.423
 30
0.000000
  70
    32
  0
VERTEX
  8
┌▓È_1
  5
3D1
 10
971.719
 20
-403.428
 30
0.000000
  70
    32
  0
VERTEX
  8
┌▓È_1
  5
3D2
 10
971.749
 20
-403.433
 30
0.000000
  70
    32
  0
VERTEX
  8
┌▓È_1
  5
3D3
 10
971.778
 20
-403.438
 30
0.000000
  70
    32
  0
VERTEX
  8
┌▓È_1
  5
3D4
 10
971.808
 20
-403.444
 30
0.000000
  70
    32
  0
VERTEX
  8
┌▓È_1
  5
3D5
 10
971.838
 20
-403.449
 30
0.000000
  70
    32
  0
VERTEX
  8
┌▓È_1
  5
3D6
 10
971.867
 20
-403.454
 30
0.000000
  70
    32
  0
VERTEX
  8
┌▓È_1
  5
3D7
 10
971.897
 20
-403.459
 30
0.000000
  70
    32
  0
VERTEX
  8
┌▓È_1
  5
3D8
 10
971.927
 20
-403.464
 30
0.000000
  70
    32
  0
VERTEX
  8
┌▓È_1
  5
3D9
 10
971.956
 20
-403.469
 30
0.000000
  70
    32
  0
VERTEX
  8
┌▓È_1
  5
3DA
 10
971.986
 20
-403.475
 30
0.000000
  70
    32
  0
VERTEX
  8
┌▓È_1
  5
3DB
 10
972.016
 20
-403.480
 30
0.000000
  70
    32
  0
VERTEX
  8
┌▓È_1
  5
3DC
 10
972.046
 20
-403.485
 30
0.000000
  70
    32
  0
VERTEX
  8
┌▓È_1
  5
3DD
 10
972.075
 20
-403.490
 30
0.000000
  70
    32
  0
VERTEX
  8
┌▓È_1
  5
3DE
 10
972.105
 20
-403.495
 30
0.000000
  70
    32
  0
VERTEX
  8
┌▓È_1
  5
3DF
 10
972.135
 20
-403.500
 30
0.000000
  70
    32
  0
VERTEX
  8
┌▓È_1
  5
3E0
 10
972.164
 20
-403.505
 30
0.000000
  70
    32
  0
VERTEX
  8
┌▓È_1
  5
3E1
 10
972.194
 20
-403.510
 30
0.000000
  70
    32
  0
VERTEX
  8
┌▓È_1
  5
3E2
 10
972.224
 20
-403.515
 30
0.000000
  70
    32
  0
VERTEX
  8
┌▓È_1
  5
3E3
 10
972.254
 20
-403.520
 30
0.000000
  70
    32
  0
VERTEX
  8
┌▓È_1
  5
3E4
 10
972.283
 20
-403.525
 30
0.000000
  70
    32
  0
VERTEX
  8
┌▓È_1
  5
3E5
 10
972.313
 20
-403.530
 30
0.000000
  70
    32
  0
VERTEX
  8
┌▓È_1
  5
3E6
 10
972.343
 20
-403.536
 30
0.000000
  70
    32
  0
VERTEX
  8
┌▓È_1
  5
3E7
 10
972.373
 20
-403.541
 30
0.000000
  70
    32
  0
VERTEX
  8
┌▓È_1
  5
3E8
 10
972.403
 20
-403.546
 30
0.000000
  70
    32
  0
VERTEX
  8
┌▓È_1
  5
3E9
 10
972.432
 20
-403.551
 30
0.000000
  70
    32
  0
VERTEX
  8
┌▓È_1
  5
3EA
 10
972.462
 20
-403.556
 30
0.000000
  70
    32
  0
VERTEX
  8
┌▓È_1
  5
3EB
 10
972.492
 20
-403.561
 30
0.000000
  70
    32
  0
VERTEX
  8
┌▓È_1
  5
3EC
 10
972.522
 20
-403.566
 30
0.000000
  70
    32
  0
VERTEX
  8
┌▓È_1
  5
3ED
 10
972.551
 20
-403.571
 30
0.000000
  70
    32
  0
VERTEX
  8
┌▓È_1
  5
3EE
 10
972.581
 20
-403.576
 30
0.000000
  70
    32
  0
VERTEX
  8
┌▓È_1
  5
3EF
 10
972.611
 20
-403.581
 30
0.000000
  70
    32
  0
VERTEX
  8
┌▓È_1
  5
3F0
 10
972.641
 20
-403.586
 30
0.000000
  70
    32
  0
VERTEX
  8
┌▓È_1
  5
3F1
 10
972.670
 20
-403.591
 30
0.000000
  70
    32
  0
SEQEND
  8
┌▓È_1
  5
3F2
  0
POLYLINE
  8
┌▓È_1
  5
3F3
  62
5
  66
     1
 10
0.000000
 20
0.000000
 30
0.000000
  70
     8
  0
VERTEX
  8
┌▓È_1
  5
3F4
 10
958.270
 20
-399.022
 30
0.000000
  70
    32
  0
VERTEX
  8
┌▓È_1
  5
3F5
 10
958.299
 20
-399.048
 30
0.000000
  70
    32
  0
VERTEX
  8
┌▓È_1
  5
3F6
 10
958.328
 20
-399.075
 30
0.000000
  70
    32
  0
VERTEX
  8
┌▓È_1
  5
3F7
 10
958.357
 20
-399.101
 30
0.000000
  70
    32
  0
VERTEX
  8
┌▓È_1
  5
3F8
 10
958.386
 20
-399.128
 30
0.000000
  70
    32
  0
VERTEX
  8
┌▓È_1
  5
3F9
 10
958.415
 20
-399.154
 30
0.000000
  70
    32
  0
VERTEX
  8
┌▓È_1
  5
3FA
 10
958.443
 20
-399.181
 30
0.000000
  70
    32
  0
VERTEX
  8
┌▓È_1
  5
3FB
 10
958.472
 20
-399.208
 30
0.000000
  70
    32
  0
VERTEX
  8
┌▓È_1
  5
3FC
 10
958.501
 20
-399.234
 30
0.000000
  70
    32
  0
VERTEX
  8
┌▓È_1
  5
3FD
 10
958.530
 20
-399.261
 30
0.000000
  70
    32
  0
VERTEX
  8
┌▓È_1
  5
3FE
 10
958.559
 20
-399.287
 30
0.000000
  70
    32
  0
VERTEX
  8
┌▓È_1
  5
3FF
 10
958.588
 20
-399.314
 30
0.000000
  70
    32
  0
VERTEX
  8
┌▓È_1
  5
400
 10
958.616
 20
-399.340
 30
0.000000
  70
    32
  0
VERTEX
  8
┌▓È_1
  5
401
 10
958.645
 20
-399.367
 30
0.000000
  70
    32
  0
VERTEX
  8
┌▓È_1
  5
402
 10
958.674
 20
-399.393
 30
0.000000
  70
    32
  0
VERTEX
  8
┌▓È_1
  5
403
 10
958.703
 20
-399.420
 30
0.000000
  70
    32
  0
VERTEX
  8
┌▓È_1
  5
404
 10
958.732
 20
-399.446
 30
0.000000
  70
    32
  0
VERTEX
  8
┌▓È_1
  5
405
 10
958.761
 20
-399.473
 30
0.000000
  70
    32
  0
VERTEX
  8
┌▓È_1
  5
406
 10
958.789
 20
-399.499
 30
0.000000
  70
    32
  0
VERTEX
  8
┌▓È_1
  5
407
 10
958.818
 20
-399.526
 30
0.000000
  70
    32
  0
VERTEX
  8
┌▓È_1
  5
408
 10
958.847
 20
-399.552
 30
0.000000
  70
    32
  0
VERTEX
  8
┌▓È_1
  5
409
 10
958.876
 20
-399.579
 30
0.000000
  70
    32
  0
VERTEX
  8
┌▓È_1
  5
40A
 10
958.905
 20
-399.605
 30
0.000000
  70
    32
  0
VERTEX
  8
┌▓È_1
  5
40B
 10
958.934
 20
-399.632
 30
0.000000
  70
    32
  0
VERTEX
  8
┌▓È_1
  5
40C
 10
958.963
 20
-399.658
 30
0.000000
  70
    32
  0
VERTEX
  8
┌▓È_1
  5
40D
 10
958.992
 20
-399.684
 30
0.000000
  70
    32
  0
VERTEX
  8
┌▓È_1
  5
40E
 10
959.021
 20
-399.711
 30
0.000000
  70
    32
  0
VERTEX
  8
┌▓È_1
  5
40F
 10
959.050
 20
-399.737
 30
0.000000
  70
    32
  0
VERTEX
  8
┌▓È_1
  5
410
 10
959.078
 20
-399.763
 30
0.000000
  70
    32
  0
VERTEX
  8
┌▓È_1
  5
411
 10
959.107
 20
-399.790
 30
0.000000
  70
    32
  0
VERTEX
  8
┌▓È_1
  5
412
 10
959.136
 20
-399.816
 30
0.000000
  70
    32
  0
VERTEX
  8
┌▓È_1
  5
413
 10
959.165
 20
-399.842
 30
0.000000
  70
    32
  0
VERTEX
  8
┌▓È_1
  5
414
 10
959.194
 20
-399.869
 30
0.000000
  70
    32
  0
VERTEX
  8
┌▓È_1
  5
415
 10
959.223
 20
-399.895
 30
0.000000
  70
    32
  0
VERTEX
  8
┌▓È_1
  5
416
 10
959.252
 20
-399.921
 30
0.000000
  70
    32
  0
VERTEX
  8
┌▓È_1
  5
417
 10
959.281
 20
-399.947
 30
0.000000
  70
    32
  0
VERTEX
  8
┌▓È_1
  5
418
 10
959.310
 20
-399.974
 30
0.000000
  70
    32
  0
VERTEX
  8
┌▓È_1
  5
419
 10
959.339
 20
-400.000
 30
0.000000
  70
    32
  0
VERTEX
  8
┌▓È_1
  5
41A
 10
959.368
 20
-400.026
 30
0.000000
  70
    32
  0
VERTEX
  8
┌▓È_1
  5
41B
 10
959.397
 20
-400.052
 30
0.000000
  70
    32
  0
VERTEX
  8
┌▓È_1
  5
41C
 10
959.426
 20
-400.078
 30
0.000000
  70
    32
  0
VERTEX
  8
┌▓È_1
  5
41D
 10
959.455
 20
-400.104
 30
0.000000
  70
    32
  0
VERTEX
  8
┌▓È_1
  5
41E
 10
959.485
 20
-400.131
 30
0.000000
  70
    32
  0
VERTEX
  8
┌▓È_1
  5
41F
 10
959.514
 20
-400.157
 30
0.000000
  70
    32
  0
VERTEX
  8
┌▓È_1
  5
420
 10
959.543
 20
-400.183
 30
0.000000
  70
    32
  0
VERTEX
  8
┌▓È_1
  5
421
 10
959.572
 20
-400.209
 30
0.000000
  70
    32
  0
VERTEX
  8
┌▓È_1
  5
422
 10
959.601
 20
-400.235
 30
0.000000
  70
    32
  0
VERTEX
  8
┌▓È_1
  5
423
 10
959.630
 20
-400.261
 30
0.000000
  70
    32
  0
VERTEX
  8
┌▓È_1
  5
424
 10
959.659
 20
-400.287
 30
0.000000
  70
    32
  0
VERTEX
  8
┌▓È_1
  5
425
 10
959.688
 20
-400.312
 30
0.000000
  70
    32
  0
VERTEX
  8
┌▓È_1
  5
426
 10
959.718
 20
-400.338
 30
0.000000
  70
    32
  0
VERTEX
  8
┌▓È_1
  5
427
 10
959.747
 20
-400.364
 30
0.000000
  70
    32
  0
VERTEX
  8
┌▓È_1
  5
428
 10
959.776
 20
-400.390
 30
0.000000
  70
    32
  0
VERTEX
  8
┌▓È_1
  5
429
 10
959.805
 20
-400.416
 30
0.000000
  70
    32
  0
VERTEX
  8
┌▓È_1
  5
42A
 10
959.834
 20
-400.442
 30
0.000000
  70
    32
  0
VERTEX
  8
┌▓È_1
  5
42B
 10
959.864
 20
-400.467
 30
0.000000
  70
    32
  0
VERTEX
  8
┌▓È_1
  5
42C
 10
959.893
 20
-400.493
 30
0.000000
  70
    32
  0
VERTEX
  8
┌▓È_1
  5
42D
 10
959.922
 20
-400.519
 30
0.000000
  70
    32
  0
VERTEX
  8
┌▓È_1
  5
42E
 10
959.952
 20
-400.544
 30
0.000000
  70
    32
  0
VERTEX
  8
┌▓È_1
  5
42F
 10
959.981
 20
-400.570
 30
0.000000
  70
    32
  0
VERTEX
  8
┌▓È_1
  5
430
 10
960.010
 20
-400.596
 30
0.000000
  70
    32
  0
VERTEX
  8
┌▓È_1
  5
431
 10
960.040
 20
-400.621
 30
0.000000
  70
    32
  0
VERTEX
  8
┌▓È_1
  5
432
 10
960.069
 20
-400.647
 30
0.000000
  70
    32
  0
VERTEX
  8
┌▓È_1
  5
433
 10
960.098
 20
-400.672
 30
0.000000
  70
    32
  0
VERTEX
  8
┌▓È_1
  5
434
 10
960.128
 20
-400.698
 30
0.000000
  70
    32
  0
VERTEX
  8
┌▓È_1
  5
435
 10
960.157
 20
-400.723
 30
0.000000
  70
    32
  0
VERTEX
  8
┌▓È_1
  5
436
 10
960.187
 20
-400.748
 30
0.000000
  70
    32
  0
VERTEX
  8
┌▓È_1
  5
437
 10
960.216
 20
-400.774
 30
0.000000
  70
    32
  0
VERTEX
  8
┌▓È_1
  5
438
 10
960.246
 20
-400.799
 30
0.000000
  70
    32
  0
VERTEX
  8
┌▓È_1
  5
439
 10
960.275
 20
-400.824
 30
0.000000
  70
    32
  0
VERTEX
  8
┌▓È_1
  5
43A
 10
960.305
 20
-400.850
 30
0.000000
  70
    32
  0
VERTEX
  8
┌▓È_1
  5
43B
 10
960.334
 20
-400.875
 30
0.000000
  70
    32
  0
VERTEX
  8
┌▓È_1
  5
43C
 10
960.364
 20
-400.900
 30
0.000000
  70
    32
  0
VERTEX
  8
┌▓È_1
  5
43D
 10
960.394
 20
-400.925
 30
0.000000
  70
    32
  0
VERTEX
  8
┌▓È_1
  5
43E
 10
960.423
 20
-400.950
 30
0.000000
  70
    32
  0
VERTEX
  8
┌▓È_1
  5
43F
 10
960.453
 20
-400.975
 30
0.000000
  70
    32
  0
VERTEX
  8
┌▓È_1
  5
440
 10
960.483
 20
-401.000
 30
0.000000
  70
    32
  0
VERTEX
  8
┌▓È_1
  5
441
 10
960.512
 20
-401.025
 30
0.000000
  70
    32
  0
VERTEX
  8
┌▓È_1
  5
442
 10
960.542
 20
-401.050
 30
0.000000
  70
    32
  0
VERTEX
  8
┌▓È_1
  5
443
 10
960.572
 20
-401.075
 30
0.000000
  70
    32
  0
VERTEX
  8
┌▓È_1
  5
444
 10
960.601
 20
-401.100
 30
0.000000
  70
    32
  0
VERTEX
  8
┌▓È_1
  5
445
 10
960.631
 20
-401.124
 30
0.000000
  70
    32
  0
VERTEX
  8
┌▓È_1
  5
446
 10
960.661
 20
-401.149
 30
0.000000
  70
    32
  0
VERTEX
  8
┌▓È_1
  5
447
 10
960.691
 20
-401.174
 30
0.000000
  70
    32
  0
VERTEX
  8
┌▓È_1
  5
448
 10
960.721
 20
-401.198
 30
0.000000
  70
    32
  0
VERTEX
  8
┌▓È_1
  5
449
 10
960.751
 20
-401.223
 30
0.000000
  70
    32
  0
VERTEX
  8
┌▓È_1
  5
44A
 10
960.781
 20
-401.248
 30
0.000000
  70
    32
  0
VERTEX
  8
┌▓È_1
  5
44B
 10
960.810
 20
-401.272
 30
0.000000
  70
    32
  0
VERTEX
  8
┌▓È_1
  5
44C
 10
960.840
 20
-401.297
 30
0.000000
  70
    32
  0
VERTEX
  8
┌▓È_1
  5
44D
 10
960.870
 20
-401.321
 30
0.000000
  70
    32
  0
VERTEX
  8
┌▓È_1
  5
44E
 10
960.900
 20
-401.345
 30
0.000000
  70
    32
  0
VERTEX
  8
┌▓È_1
  5
44F
 10
960.930
 20
-401.370
 30
0.000000
  70
    32
  0
VERTEX
  8
┌▓È_1
  5
450
 10
960.961
 20
-401.394
 30
0.000000
  70
    32
  0
VERTEX
  8
┌▓È_1
  5
451
 10
960.991
 20
-401.418
 30
0.000000
  70
    32
  0
VERTEX
  8
┌▓È_1
  5
452
 10
961.021
 20
-401.442
 30
0.000000
  70
    32
  0
VERTEX
  8
┌▓È_1
  5
453
 10
961.051
 20
-401.466
 30
0.000000
  70
    32
  0
VERTEX
  8
┌▓È_1
  5
454
 10
961.081
 20
-401.490
 30
0.000000
  70
    32
  0
VERTEX
  8
┌▓È_1
  5
455
 10
961.111
 20
-401.514
 30
0.000000
  70
    32
  0
VERTEX
  8
┌▓È_1
  5
456
 10
961.142
 20
-401.538
 30
0.000000
  70
    32
  0
VERTEX
  8
┌▓È_1
  5
457
 10
961.172
 20
-401.562
 30
0.000000
  70
    32
  0
VERTEX
  8
┌▓È_1
  5
458
 10
961.202
 20
-401.586
 30
0.000000
  70
    32
  0
VERTEX
  8
┌▓È_1
  5
459
 10
961.232
 20
-401.610
 30
0.000000
  70
    32
  0
VERTEX
  8
┌▓È_1
  5
45A
 10
961.263
 20
-401.633
 30
0.000000
  70
    32
  0
VERTEX
  8
┌▓È_1
  5
45B
 10
961.293
 20
-401.657
 30
0.000000
  70
    32
  0
VERTEX
  8
┌▓È_1
  5
45C
 10
961.324
 20
-401.681
 30
0.000000
  70
    32
  0
VERTEX
  8
┌▓È_1
  5
45D
 10
961.354
 20
-401.704
 30
0.000000
  70
    32
  0
VERTEX
  8
┌▓È_1
  5
45E
 10
961.385
 20
-401.728
 30
0.000000
  70
    32
  0
VERTEX
  8
┌▓È_1
  5
45F
 10
961.415
 20
-401.751
 30
0.000000
  70
    32
  0
VERTEX
  8
┌▓È_1
  5
460
 10
961.446
 20
-401.775
 30
0.000000
  70
    32
  0
VERTEX
  8
┌▓È_1
  5
461
 10
961.476
 20
-401.798
 30
0.000000
  70
    32
  0
VERTEX
  8
┌▓È_1
  5
462
 10
961.507
 20
-401.821
 30
0.000000
  70
    32
  0
VERTEX
  8
┌▓È_1
  5
463
 10
961.537
 20
-401.844
 30
0.000000
  70
    32
  0
VERTEX
  8
┌▓È_1
  5
464
 10
961.568
 20
-401.867
 30
0.000000
  70
    32
  0
VERTEX
  8
┌▓È_1
  5
465
 10
961.599
 20
-401.890
 30
0.000000
  70
    32
  0
VERTEX
  8
┌▓È_1
  5
466
 10
961.630
 20
-401.913
 30
0.000000
  70
    32
  0
VERTEX
  8
┌▓È_1
  5
467
 10
961.660
 20
-401.936
 30
0.000000
  70
    32
  0
VERTEX
  8
┌▓È_1
  5
468
 10
961.691
 20
-401.959
 30
0.000000
  70
    32
  0
VERTEX
  8
┌▓È_1
  5
469
 10
961.722
 20
-401.982
 30
0.000000
  70
    32
  0
VERTEX
  8
┌▓È_1
  5
46A
 10
961.753
 20
-402.005
 30
0.000000
  70
    32
  0
VERTEX
  8
┌▓È_1
  5
46B
 10
961.784
 20
-402.028
 30
0.000000
  70
    32
  0
VERTEX
  8
┌▓È_1
  5
46C
 10
961.815
 20
-402.050
 30
0.000000
  70
    32
  0
VERTEX
  8
┌▓È_1
  5
46D
 10
961.846
 20
-402.073
 30
0.000000
  70
    32
  0
VERTEX
  8
┌▓È_1
  5
46E
 10
961.877
 20
-402.095
 30
0.000000
  70
    32
  0
VERTEX
  8
┌▓È_1
  5
46F
 10
961.908
 20
-402.118
 30
0.000000
  70
    32
  0
VERTEX
  8
┌▓È_1
  5
470
 10
961.939
 20
-402.140
 30
0.000000
  70
    32
  0
VERTEX
  8
┌▓È_1
  5
471
 10
961.970
 20
-402.162
 30
0.000000
  70
    32
  0
VERTEX
  8
┌▓È_1
  5
472
 10
962.001
 20
-402.184
 30
0.000000
  70
    32
  0
VERTEX
  8
┌▓È_1
  5
473
 10
962.032
 20
-402.207
 30
0.000000
  70
    32
  0
VERTEX
  8
┌▓È_1
  5
474
 10
962.064
 20
-402.229
 30
0.000000
  70
    32
  0
VERTEX
  8
┌▓È_1
  5
475
 10
962.095
 20
-402.251
 30
0.000000
  70
    32
  0
VERTEX
  8
┌▓È_1
  5
476
 10
962.126
 20
-402.273
 30
0.000000
  70
    32
  0
VERTEX
  8
┌▓È_1
  5
477
 10
962.158
 20
-402.294
 30
0.000000
  70
    32
  0
VERTEX
  8
┌▓È_1
  5
478
 10
962.189
 20
-402.316
 30
0.000000
  70
    32
  0
VERTEX
  8
┌▓È_1
  5
479
 10
962.221
 20
-402.338
 30
0.000000
  70
    32
  0
VERTEX
  8
┌▓È_1
  5
47A
 10
962.252
 20
-402.360
 30
0.000000
  70
    32
  0
VERTEX
  8
┌▓È_1
  5
47B
 10
962.284
 20
-402.381
 30
0.000000
  70
    32
  0
VERTEX
  8
┌▓È_1
  5
47C
 10
962.315
 20
-402.403
 30
0.000000
  70
    32
  0
VERTEX
  8
┌▓È_1
  5
47D
 10
962.347
 20
-402.424
 30
0.000000
  70
    32
  0
VERTEX
  8
┌▓È_1
  5
47E
 10
962.378
 20
-402.445
 30
0.000000
  70
    32
  0
VERTEX
  8
┌▓È_1
  5
47F
 10
962.410
 20
-402.467
 30
0.000000
  70
    32
  0
VERTEX
  8
┌▓È_1
  5
480
 10
962.442
 20
-402.488
 30
0.000000
  70
    32
  0
VERTEX
  8
┌▓È_1
  5
481
 10
962.474
 20
-402.509
 30
0.000000
  70
    32
  0
VERTEX
  8
┌▓È_1
  5
482
 10
962.505
 20
-402.530
 30
0.000000
  70
    32
  0
VERTEX
  8
┌▓È_1
  5
483
 10
962.537
 20
-402.551
 30
0.000000
  70
    32
  0
VERTEX
  8
┌▓È_1
  5
484
 10
962.569
 20
-402.572
 30
0.000000
  70
    32
  0
VERTEX
  8
┌▓È_1
  5
485
 10
962.601
 20
-402.593
 30
0.000000
  70
    32
  0
VERTEX
  8
┌▓È_1
  5
486
 10
962.633
 20
-402.613
 30
0.000000
  70
    32
  0
VERTEX
  8
┌▓È_1
  5
487
 10
962.665
 20
-402.634
 30
0.000000
  70
    32
  0
VERTEX
  8
┌▓È_1
  5
488
 10
962.697
 20
-402.654
 30
0.000000
  70
    32
  0
VERTEX
  8
┌▓È_1
  5
489
 10
962.729
 20
-402.675
 30
0.000000
  70
    32
  0
VERTEX
  8
┌▓È_1
  5
48A
 10
962.761
 20
-402.695
 30
0.000000
  70
    32
  0
VERTEX
  8
┌▓È_1
  5
48B
 10
962.794
 20
-402.716
 30
0.000000
  70
    32
  0
VERTEX
  8
┌▓È_1
  5
48C
 10
962.826
 20
-402.736
 30
0.000000
  70
    32
  0
VERTEX
  8
┌▓È_1
  5
48D
 10
962.858
 20
-402.756
 30
0.000000
  70
    32
  0
VERTEX
  8
┌▓È_1
  5
48E
 10
962.890
 20
-402.776
 30
0.000000
  70
    32
  0
VERTEX
  8
┌▓È_1
  5
48F
 10
962.923
 20
-402.796
 30
0.000000
  70
    32
  0
VERTEX
  8
┌▓È_1
  5
490
 10
962.955
 20
-402.816
 30
0.000000
  70
    32
  0
VERTEX
  8
┌▓È_1
  5
491
 10
962.988
 20
-402.836
 30
0.000000
  70
    32
  0
VERTEX
  8
┌▓È_1
  5
492
 10
963.020
 20
-402.855
 30
0.000000
  70
    32
  0
VERTEX
  8
┌▓È_1
  5
493
 10
963.053
 20
-402.875
 30
0.000000
  70
    32
  0
SEQEND
  8
┌▓È_1
  5
494
  0
POLYLINE
  8
┌▓È_1
  5
495
  62
5
  66
     1
 10
0.000000
 20
0.000000
 30
0.000000
  70
     8
  0
VERTEX
  8
┌▓È_1
  5
496
 10
967.005
 20
-404.609
 30
0.000000
  70
    32
  0
VERTEX
  8
┌▓È_1
  5
497
 10
967.048
 20
-404.623
 30
0.000000
  70
    32
  0
VERTEX
  8
┌▓È_1
  5
498
 10
967.091
 20
-404.636
 30
0.000000
  70
    32
  0
VERTEX
  8
┌▓È_1
  5
499
 10
967.134
 20
-404.650
 30
0.000000
  70
    32
  0
VERTEX
  8
┌▓È_1
  5
49A
 10
967.177
 20
-404.664
 30
0.000000
  70
    32
  0
VERTEX
  8
┌▓È_1
  5
49B
 10
967.220
 20
-404.677
 30
0.000000
  70
    32
  0
VERTEX
  8
┌▓È_1
  5
49C
 10
967.263
 20
-404.690
 30
0.000000
  70
    32
  0
VERTEX
  8
┌▓È_1
  5
49D
 10
967.307
 20
-404.704
 30
0.000000
  70
    32
  0
VERTEX
  8
┌▓È_1
  5
49E
 10
967.350
 20
-404.717
 30
0.000000
  70
    32
  0
VERTEX
  8
┌▓È_1
  5
49F
 10
967.393
 20
-404.730
 30
0.000000
  70
    32
  0
VERTEX
  8
┌▓È_1
  5
4A0
 10
967.437
 20
-404.743
 30
0.000000
  70
    32
  0
VERTEX
  8
┌▓È_1
  5
4A1
 10
967.480
 20
-404.756
 30
0.000000
  70
    32
  0
VERTEX
  8
┌▓È_1
  5
4A2
 10
967.524
 20
-404.770
 30
0.000000
  70
    32
  0
VERTEX
  8
┌▓È_1
  5
4A3
 10
967.567
 20
-404.782
 30
0.000000
  70
    32
  0
VERTEX
  8
┌▓È_1
  5
4A4
 10
967.611
 20
-404.795
 30
0.000000
  70
    32
  0
VERTEX
  8
┌▓È_1
  5
4A5
 10
967.654
 20
-404.808
 30
0.000000
  70
    32
  0
VERTEX
  8
┌▓È_1
  5
4A6
 10
967.698
 20
-404.821
 30
0.000000
  70
    32
  0
VERTEX
  8
┌▓È_1
  5
4A7
 10
967.742
 20
-404.834
 30
0.000000
  70
    32
  0
VERTEX
  8
┌▓È_1
  5
4A8
 10
967.785
 20
-404.846
 30
0.000000
  70
    32
  0
VERTEX
  8
┌▓È_1
  5
4A9
 10
967.829
 20
-404.859
 30
0.000000
  70
    32
  0
VERTEX
  8
┌▓È_1
  5
4AA
 10
967.873
 20
-404.871
 30
0.000000
  70
    32
  0
VERTEX
  8
┌▓È_1
  5
4AB
 10
967.916
 20
-404.884
 30
0.000000
  70
    32
  0
VERTEX
  8
┌▓È_1
  5
4AC
 10
967.960
 20
-404.896
 30
0.000000
  70
    32
  0
VERTEX
  8
┌▓È_1
  5
4AD
 10
968.004
 20
-404.909
 30
0.000000
  70
    32
  0
VERTEX
  8
┌▓È_1
  5
4AE
 10
968.048
 20
-404.921
 30
0.000000
  70
    32
  0
VERTEX
  8
┌▓È_1
  5
4AF
 10
968.092
 20
-404.933
 30
0.000000
  70
    32
  0
VERTEX
  8
┌▓È_1
  5
4B0
 10
968.135
 20
-404.946
 30
0.000000
  70
    32
  0
VERTEX
  8
┌▓È_1
  5
4B1
 10
968.179
 20
-404.958
 30
0.000000
  70
    32
  0
VERTEX
  8
┌▓È_1
  5
4B2
 10
968.223
 20
-404.970
 30
0.000000
  70
    32
  0
VERTEX
  8
┌▓È_1
  5
4B3
 10
968.267
 20
-404.982
 30
0.000000
  70
    32
  0
VERTEX
  8
┌▓È_1
  5
4B4
 10
968.311
 20
-404.994
 30
0.000000
  70
    32
  0
VERTEX
  8
┌▓È_1
  5
4B5
 10
968.355
 20
-405.006
 30
0.000000
  70
    32
  0
VERTEX
  8
┌▓È_1
  5
4B6
 10
968.399
 20
-405.018
 30
0.000000
  70
    32
  0
VERTEX
  8
┌▓È_1
  5
4B7
 10
968.444
 20
-405.029
 30
0.000000
  70
    32
  0
VERTEX
  8
┌▓È_1
  5
4B8
 10
968.488
 20
-405.041
 30
0.000000
  70
    32
  0
VERTEX
  8
┌▓È_1
  5
4B9
 10
968.532
 20
-405.053
 30
0.000000
  70
    32
  0
VERTEX
  8
┌▓È_1
  5
4BA
 10
968.576
 20
-405.065
 30
0.000000
  70
    32
  0
VERTEX
  8
┌▓È_1
  5
4BB
 10
968.620
 20
-405.076
 30
0.000000
  70
    32
  0
VERTEX
  8
┌▓È_1
  5
4BC
 10
968.664
 20
-405.088
 30
0.000000
  70
    32
  0
VERTEX
  8
┌▓È_1
  5
4BD
 10
968.709
 20
-405.099
 30
0.000000
  70
    32
  0
VERTEX
  8
┌▓È_1
  5
4BE
 10
968.753
 20
-405.111
 30
0.000000
  70
    32
  0
VERTEX
  8
┌▓È_1
  5
4BF
 10
968.797
 20
-405.122
 30
0.000000
  70
    32
  0
VERTEX
  8
┌▓È_1
  5
4C0
 10
968.842
 20
-405.134
 30
0.000000
  70
    32
  0
VERTEX
  8
┌▓È_1
  5
4C1
 10
968.886
 20
-405.145
 30
0.000000
  70
    32
  0
VERTEX
  8
┌▓È_1
  5
4C2
 10
968.930
 20
-405.156
 30
0.000000
  70
    32
  0
VERTEX
  8
┌▓È_1
  5
4C3
 10
968.975
 20
-405.168
 30
0.000000
  70
    32
  0
VERTEX
  8
┌▓È_1
  5
4C4
 10
969.019
 20
-405.179
 30
0.000000
  70
    32
  0
VERTEX
  8
┌▓È_1
  5
4C5
 10
969.064
 20
-405.190
 30
0.000000
  70
    32
  0
VERTEX
  8
┌▓È_1
  5
4C6
 10
969.108
 20
-405.201
 30
0.000000
  70
    32
  0
VERTEX
  8
┌▓È_1
  5
4C7
 10
969.153
 20
-405.212
 30
0.000000
  70
    32
  0
VERTEX
  8
┌▓È_1
  5
4C8
 10
969.197
 20
-405.223
 30
0.000000
  70
    32
  0
VERTEX
  8
┌▓È_1
  5
4C9
 10
969.242
 20
-405.234
 30
0.000000
  70
    32
  0
VERTEX
  8
┌▓È_1
  5
4CA
 10
969.286
 20
-405.245
 30
0.000000
  70
    32
  0
VERTEX
  8
┌▓È_1
  5
4CB
 10
969.331
 20
-405.256
 30
0.000000
  70
    32
  0
VERTEX
  8
┌▓È_1
  5
4CC
 10
969.375
 20
-405.267
 30
0.000000
  70
    32
  0
VERTEX
  8
┌▓È_1
  5
4CD
 10
969.420
 20
-405.278
 30
0.000000
  70
    32
  0
VERTEX
  8
┌▓È_1
  5
4CE
 10
969.465
 20
-405.289
 30
0.000000
  70
    32
  0
VERTEX
  8
┌▓È_1
  5
4CF
 10
969.509
 20
-405.300
 30
0.000000
  70
    32
  0
VERTEX
  8
┌▓È_1
  5
4D0
 10
969.554
 20
-405.310
 30
0.000000
  70
    32
  0
VERTEX
  8
┌▓È_1
  5
4D1
 10
969.599
 20
-405.321
 30
0.000000
  70
    32
  0
VERTEX
  8
┌▓È_1
  5
4D2
 10
969.644
 20
-405.332
 30
0.000000
  70
    32
  0
VERTEX
  8
┌▓È_1
  5
4D3
 10
969.688
 20
-405.342
 30
0.000000
  70
    32
  0
VERTEX
  8
┌▓È_1
  5
4D4
 10
969.733
 20
-405.353
 30
0.000000
  70
    32
  0
VERTEX
  8
┌▓È_1
  5
4D5
 10
969.778
 20
-405.363
 30
0.000000
  70
    32
  0
VERTEX
  8
┌▓È_1
  5
4D6
 10
969.823
 20
-405.374
 30
0.000000
  70
    32
  0
VERTEX
  8
┌▓È_1
  5
4D7
 10
969.868
 20
-405.384
 30
0.000000
  70
    32
  0
VERTEX
  8
┌▓È_1
  5
4D8
 10
969.912
 20
-405.395
 30
0.000000
  70
    32
  0
VERTEX
  8
┌▓È_1
  5
4D9
 10
969.957
 20
-405.405
 30
0.000000
  70
    32
  0
VERTEX
  8
┌▓È_1
  5
4DA
 10
970.002
 20
-405.416
 30
0.000000
  70
    32
  0
VERTEX
  8
┌▓È_1
  5
4DB
 10
970.047
 20
-405.426
 30
0.000000
  70
    32
  0
VERTEX
  8
┌▓È_1
  5
4DC
 10
970.092
 20
-405.436
 30
0.000000
  70
    32
  0
VERTEX
  8
┌▓È_1
  5
4DD
 10
970.137
 20
-405.447
 30
0.000000
  70
    32
  0
VERTEX
  8
┌▓È_1
  5
4DE
 10
970.182
 20
-405.457
 30
0.000000
  70
    32
  0
VERTEX
  8
┌▓È_1
  5
4DF
 10
970.227
 20
-405.467
 30
0.000000
  70
    32
  0
VERTEX
  8
┌▓È_1
  5
4E0
 10
970.272
 20
-405.477
 30
0.000000
  70
    32
  0
VERTEX
  8
┌▓È_1
  5
4E1
 10
970.317
 20
-405.488
 30
0.000000
  70
    32
  0
VERTEX
  8
┌▓È_1
  5
4E2
 10
970.362
 20
-405.498
 30
0.000000
  70
    32
  0
VERTEX
  8
┌▓È_1
  5
4E3
 10
970.407
 20
-405.508
 30
0.000000
  70
    32
  0
VERTEX
  8
┌▓È_1
  5
4E4
 10
970.452
 20
-405.518
 30
0.000000
  70
    32
  0
VERTEX
  8
┌▓È_1
  5
4E5
 10
970.497
 20
-405.528
 30
0.000000
  70
    32
  0
VERTEX
  8
┌▓È_1
  5
4E6
 10
970.542
 20
-405.538
 30
0.000000
  70
    32
  0
VERTEX
  8
┌▓È_1
  5
4E7
 10
970.587
 20
-405.548
 30
0.000000
  70
    32
  0
VERTEX
  8
┌▓È_1
  5
4E8
 10
970.632
 20
-405.558
 30
0.000000
  70
    32
  0
VERTEX
  8
┌▓È_1
  5
4E9
 10
970.677
 20
-405.568
 30
0.000000
  70
    32
  0
VERTEX
  8
┌▓È_1
  5
4EA
 10
970.722
 20
-405.578
 30
0.000000
  70
    32
  0
VERTEX
  8
┌▓È_1
  5
4EB
 10
970.767
 20
-405.588
 30
0.000000
  70
    32
  0
VERTEX
  8
┌▓È_1
  5
4EC
 10
970.813
 20
-405.598
 30
0.000000
  70
    32
  0
VERTEX
  8
┌▓È_1
  5
4ED
 10
970.858
 20
-405.608
 30
0.000000
  70
    32
  0
VERTEX
  8
┌▓È_1
  5
4EE
 10
970.903
 20
-405.618
 30
0.000000
  70
    32
  0
VERTEX
  8
┌▓È_1
  5
4EF
 10
970.948
 20
-405.627
 30
0.000000
  70
    32
  0
VERTEX
  8
┌▓È_1
  5
4F0
 10
970.993
 20
-405.637
 30
0.000000
  70
    32
  0
VERTEX
  8
┌▓È_1
  5
4F1
 10
971.039
 20
-405.647
 30
0.000000
  70
    32
  0
VERTEX
  8
┌▓È_1
  5
4F2
 10
971.084
 20
-405.657
 30
0.000000
  70
    32
  0
VERTEX
  8
┌▓È_1
  5
4F3
 10
971.129
 20
-405.667
 30
0.000000
  70
    32
  0
VERTEX
  8
┌▓È_1
  5
4F4
 10
971.174
 20
-405.676
 30
0.000000
  70
    32
  0
VERTEX
  8
┌▓È_1
  5
4F5
 10
971.219
 20
-405.686
 30
0.000000
  70
    32
  0
VERTEX
  8
┌▓È_1
  5
4F6
 10
971.265
 20
-405.696
 30
0.000000
  70
    32
  0
VERTEX
  8
┌▓È_1
  5
4F7
 10
971.310
 20
-405.705
 30
0.000000
  70
    32
  0
VERTEX
  8
┌▓È_1
  5
4F8
 10
971.355
 20
-405.715
 30
0.000000
  70
    32
  0
VERTEX
  8
┌▓È_1
  5
4F9
 10
971.400
 20
-405.725
 30
0.000000
  70
    32
  0
VERTEX
  8
┌▓È_1
  5
4FA
 10
971.446
 20
-405.734
 30
0.000000
  70
    32
  0
VERTEX
  8
┌▓È_1
  5
4FB
 10
971.491
 20
-405.744
 30
0.000000
  70
    32
  0
VERTEX
  8
┌▓È_1
  5
4FC
 10
971.536
 20
-405.754
 30
0.000000
  70
    32
  0
VERTEX
  8
┌▓È_1
  5
4FD
 10
971.582
 20
-405.763
 30
0.000000
  70
    32
  0
VERTEX
  8
┌▓È_1
  5
4FE
 10
971.627
 20
-405.773
 30
0.000000
  70
    32
  0
VERTEX
  8
┌▓È_1
  5
4FF
 10
971.672
 20
-405.782
 30
0.000000
  70
    32
  0
VERTEX
  8
┌▓È_1
  5
500
 10
971.718
 20
-405.792
 30
0.000000
  70
    32
  0
VERTEX
  8
┌▓È_1
  5
501
 10
971.763
 20
-405.801
 30
0.000000
  70
    32
  0
VERTEX
  8
┌▓È_1
  5
502
 10
971.808
 20
-405.811
 30
0.000000
  70
    32
  0
VERTEX
  8
┌▓È_1
  5
503
 10
971.854
 20
-405.821
 30
0.000000
  70
    32
  0
VERTEX
  8
┌▓È_1
  5
504
 10
971.899
 20
-405.830
 30
0.000000
  70
    32
  0
VERTEX
  8
┌▓È_1
  5
505
 10
971.944
 20
-405.840
 30
0.000000
  70
    32
  0
VERTEX
  8
┌▓È_1
  5
506
 10
971.990
 20
-405.849
 30
0.000000
  70
    32
  0
VERTEX
  8
┌▓È_1
  5
507
 10
972.035
 20
-405.859
 30
0.000000
  70
    32
  0
VERTEX
  8
┌▓È_1
  5
508
 10
972.080
 20
-405.868
 30
0.000000
  70
    32
  0
VERTEX
  8
┌▓È_1
  5
509
 10
972.126
 20
-405.878
 30
0.000000
  70
    32
  0
VERTEX
  8
┌▓È_1
  5
50A
 10
972.171
 20
-405.887
 30
0.000000
  70
    32
  0
VERTEX
  8
┌▓È_1
  5
50B
 10
972.217
 20
-405.896
 30
0.000000
  70
    32
  0
VERTEX
  8
┌▓È_1
  5
50C
 10
972.262
 20
-405.906
 30
0.000000
  70
    32
  0
VERTEX
  8
┌▓È_1
  5
50D
 10
972.307
 20
-405.915
 30
0.000000
  70
    32
  0
VERTEX
  8
┌▓È_1
  5
50E
 10
972.353
 20
-405.925
 30
0.000000
  70
    32
  0
VERTEX
  8
┌▓È_1
  5
50F
 10
972.398
 20
-405.934
 30
0.000000
  70
    32
  0
VERTEX
  8
┌▓È_1
  5
510
 10
972.443
 20
-405.944
 30
0.000000
  70
    32
  0
VERTEX
  8
┌▓È_1
  5
511
 10
972.489
 20
-405.953
 30
0.000000
  70
    32
  0
VERTEX
  8
┌▓È_1
  5
512
 10
972.534
 20
-405.963
 30
0.000000
  70
    32
  0
VERTEX
  8
┌▓È_1
  5
513
 10
972.580
 20
-405.972
 30
0.000000
  70
    32
  0
VERTEX
  8
┌▓È_1
  5
514
 10
972.625
 20
-405.981
 30
0.000000
  70
    32
  0
VERTEX
  8
┌▓È_1
  5
515
 10
972.670
 20
-405.991
 30
0.000000
  70
    32
  0
SEQEND
  8
┌▓È_1
  5
516
  0
POLYLINE
  8
┌▓È_1
  5
517
  62
5
  66
     1
 10
0.000000
 20
0.000000
 30
0.000000
  70
     8
  0
VERTEX
  8
┌▓È_1
  5
518
 10
963.765
 20
-399.411
 30
0.000000
  70
    32
  0
VERTEX
  8
┌▓È_1
  5
519
 10
963.776
 20
-399.423
 30
0.000000
  70
    32
  0
VERTEX
  8
┌▓È_1
  5
51A
 10
963.786
 20
-399.435
 30
0.000000
  70
    32
  0
VERTEX
  8
┌▓È_1
  5
51B
 10
963.797
 20
-399.447
 30
0.000000
  70
    32
  0
VERTEX
  8
┌▓È_1
  5
51C
 10
963.808
 20
-399.458
 30
0.000000
  70
    32
  0
VERTEX
  8
┌▓È_1
  5
51D
 10
963.818
 20
-399.470
 30
0.000000
  70
    32
  0
VERTEX
  8
┌▓È_1
  5
51E
 10
963.829
 20
-399.482
 30
0.000000
  70
    32
  0
VERTEX
  8
┌▓È_1
  5
51F
 10
963.839
 20
-399.494
 30
0.000000
  70
    32
  0
VERTEX
  8
┌▓È_1
  5
520
 10
963.850
 20
-399.506
 30
0.000000
  70
    32
  0
VERTEX
  8
┌▓È_1
  5
521
 10
963.860
 20
-399.517
 30
0.000000
  70
    32
  0
VERTEX
  8
┌▓È_1
  5
522
 10
963.871
 20
-399.529
 30
0.000000
  70
    32
  0
VERTEX
  8
┌▓È_1
  5
523
 10
963.882
 20
-399.541
 30
0.000000
  70
    32
  0
VERTEX
  8
┌▓È_1
  5
524
 10
963.892
 20
-399.553
 30
0.000000
  70
    32
  0
VERTEX
  8
┌▓È_1
  5
525
 10
963.903
 20
-399.564
 30
0.000000
  70
    32
  0
VERTEX
  8
┌▓È_1
  5
526
 10
963.913
 20
-399.576
 30
0.000000
  70
    32
  0
VERTEX
  8
┌▓È_1
  5
527
 10
963.924
 20
-399.588
 30
0.000000
  70
    32
  0
VERTEX
  8
┌▓È_1
  5
528
 10
963.934
 20
-399.600
 30
0.000000
  70
    32
  0
VERTEX
  8
┌▓È_1
  5
529
 10
963.945
 20
-399.611
 30
0.000000
  70
    32
  0
VERTEX
  8
┌▓È_1
  5
52A
 10
963.956
 20
-399.623
 30
0.000000
  70
    32
  0
VERTEX
  8
┌▓È_1
  5
52B
 10
963.966
 20
-399.635
 30
0.000000
  70
    32
  0
VERTEX
  8
┌▓È_1
  5
52C
 10
963.977
 20
-399.647
 30
0.000000
  70
    32
  0
VERTEX
  8
┌▓È_1
  5
52D
 10
963.987
 20
-399.658
 30
0.000000
  70
    32
  0
VERTEX
  8
┌▓È_1
  5
52E
 10
963.998
 20
-399.670
 30
0.000000
  70
    32
  0
VERTEX
  8
┌▓È_1
  5
52F
 10
964.008
 20
-399.682
 30
0.000000
  70
    32
  0
VERTEX
  8
┌▓È_1
  5
530
 10
964.019
 20
-399.694
 30
0.000000
  70
    32
  0
VERTEX
  8
┌▓È_1
  5
531
 10
964.030
 20
-399.705
 30
0.000000
  70
    32
  0
VERTEX
  8
┌▓È_1
  5
532
 10
964.040
 20
-399.717
 30
0.000000
  70
    32
  0
VERTEX
  8
┌▓È_1
  5
533
 10
964.051
 20
-399.729
 30
0.000000
  70
    32
  0
VERTEX
  8
┌▓È_1
  5
534
 10
964.061
 20
-399.740
 30
0.000000
  70
    32
  0
VERTEX
  8
┌▓È_1
  5
535
 10
964.072
 20
-399.752
 30
0.000000
  70
    32
  0
VERTEX
  8
┌▓È_1
  5
536
 10
964.083
 20
-399.764
 30
0.000000
  70
    32
  0
VERTEX
  8
┌▓È_1
  5
537
 10
964.093
 20
-399.775
 30
0.000000
  70
    32
  0
VERTEX
  8
┌▓È_1
  5
538
 10
964.104
 20
-399.787
 30
0.000000
  70
    32
  0
VERTEX
  8
┌▓È_1
  5
539
 10
964.114
 20
-399.799
 30
0.000000
  70
    32
  0
VERTEX
  8
┌▓È_1
  5
53A
 10
964.125
 20
-399.811
 30
0.000000
  70
    32
  0
VERTEX
  8
┌▓È_1
  5
53B
 10
964.136
 20
-399.822
 30
0.000000
  70
    32
  0
VERTEX
  8
┌▓È_1
  5
53C
 10
964.146
 20
-399.834
 30
0.000000
  70
    32
  0
VERTEX
  8
┌▓È_1
  5
53D
 10
964.157
 20
-399.846
 30
0.000000
  70
    32
  0
VERTEX
  8
┌▓È_1
  5
53E
 10
964.168
 20
-399.857
 30
0.000000
  70
    32
  0
VERTEX
  8
┌▓È_1
  5
53F
 10
964.178
 20
-399.869
 30
0.000000
  70
    32
  0
VERTEX
  8
┌▓È_1
  5
540
 10
964.189
 20
-399.880
 30
0.000000
  70
    32
  0
VERTEX
  8
┌▓È_1
  5
541
 10
964.200
 20
-399.892
 30
0.000000
  70
    32
  0
VERTEX
  8
┌▓È_1
  5
542
 10
964.210
 20
-399.904
 30
0.000000
  70
    32
  0
VERTEX
  8
┌▓È_1
  5
543
 10
964.221
 20
-399.915
 30
0.000000
  70
    32
  0
VERTEX
  8
┌▓È_1
  5
544
 10
964.232
 20
-399.927
 30
0.000000
  70
    32
  0
VERTEX
  8
┌▓È_1
  5
545
 10
964.242
 20
-399.939
 30
0.000000
  70
    32
  0
VERTEX
  8
┌▓È_1
  5
546
 10
964.253
 20
-399.950
 30
0.000000
  70
    32
  0
VERTEX
  8
┌▓È_1
  5
547
 10
964.264
 20
-399.962
 30
0.000000
  70
    32
  0
VERTEX
  8
┌▓È_1
  5
548
 10
964.274
 20
-399.973
 30
0.000000
  70
    32
  0
VERTEX
  8
┌▓È_1
  5
549
 10
964.285
 20
-399.985
 30
0.000000
  70
    32
  0
VERTEX
  8
┌▓È_1
  5
54A
 10
964.296
 20
-399.996
 30
0.000000
  70
    32
  0
VERTEX
  8
┌▓È_1
  5
54B
 10
964.306
 20
-400.008
 30
0.000000
  70
    32
  0
VERTEX
  8
┌▓È_1
  5
54C
 10
964.317
 20
-400.019
 30
0.000000
  70
    32
  0
VERTEX
  8
┌▓È_1
  5
54D
 10
964.328
 20
-400.031
 30
0.000000
  70
    32
  0
VERTEX
  8
┌▓È_1
  5
54E
 10
964.338
 20
-400.043
 30
0.000000
  70
    32
  0
VERTEX
  8
┌▓È_1
  5
54F
 10
964.349
 20
-400.054
 30
0.000000
  70
    32
  0
VERTEX
  8
┌▓È_1
  5
550
 10
964.360
 20
-400.066
 30
0.000000
  70
    32
  0
VERTEX
  8
┌▓È_1
  5
551
 10
964.371
 20
-400.077
 30
0.000000
  70
    32
  0
VERTEX
  8
┌▓È_1
  5
552
 10
964.381
 20
-400.089
 30
0.000000
  70
    32
  0
VERTEX
  8
┌▓È_1
  5
553
 10
964.392
 20
-400.100
 30
0.000000
  70
    32
  0
VERTEX
  8
┌▓È_1
  5
554
 10
964.403
 20
-400.111
 30
0.000000
  70
    32
  0
VERTEX
  8
┌▓È_1
  5
555
 10
964.414
 20
-400.123
 30
0.000000
  70
    32
  0
VERTEX
  8
┌▓È_1
  5
556
 10
964.424
 20
-400.134
 30
0.000000
  70
    32
  0
VERTEX
  8
┌▓È_1
  5
557
 10
964.435
 20
-400.146
 30
0.000000
  70
    32
  0
VERTEX
  8
┌▓È_1
  5
558
 10
964.446
 20
-400.157
 30
0.000000
  70
    32
  0
VERTEX
  8
┌▓È_1
  5
559
 10
964.457
 20
-400.169
 30
0.000000
  70
    32
  0
VERTEX
  8
┌▓È_1
  5
55A
 10
964.467
 20
-400.180
 30
0.000000
  70
    32
  0
VERTEX
  8
┌▓È_1
  5
55B
 10
964.478
 20
-400.191
 30
0.000000
  70
    32
  0
VERTEX
  8
┌▓È_1
  5
55C
 10
964.489
 20
-400.203
 30
0.000000
  70
    32
  0
VERTEX
  8
┌▓È_1
  5
55D
 10
964.500
 20
-400.214
 30
0.000000
  70
    32
  0
VERTEX
  8
┌▓È_1
  5
55E
 10
964.511
 20
-400.225
 30
0.000000
  70
    32
  0
VERTEX
  8
┌▓È_1
  5
55F
 10
964.522
 20
-400.237
 30
0.000000
  70
    32
  0
VERTEX
  8
┌▓È_1
  5
560
 10
964.532
 20
-400.248
 30
0.000000
  70
    32
  0
VERTEX
  8
┌▓È_1
  5
561
 10
964.543
 20
-400.259
 30
0.000000
  70
    32
  0
VERTEX
  8
┌▓È_1
  5
562
 10
964.554
 20
-400.271
 30
0.000000
  70
    32
  0
VERTEX
  8
┌▓È_1
  5
563
 10
964.565
 20
-400.282
 30
0.000000
  70
    32
  0
VERTEX
  8
┌▓È_1
  5
564
 10
964.576
 20
-400.293
 30
0.000000
  70
    32
  0
VERTEX
  8
┌▓È_1
  5
565
 10
964.587
 20
-400.305
 30
0.000000
  70
    32
  0
VERTEX
  8
┌▓È_1
  5
566
 10
964.598
 20
-400.316
 30
0.000000
  70
    32
  0
VERTEX
  8
┌▓È_1
  5
567
 10
964.608
 20
-400.327
 30
0.000000
  70
    32
  0
VERTEX
  8
┌▓È_1
  5
568
 10
964.619
 20
-400.338
 30
0.000000
  70
    32
  0
VERTEX
  8
┌▓È_1
  5
569
 10
964.630
 20
-400.349
 30
0.000000
  70
    32
  0
VERTEX
  8
┌▓È_1
  5
56A
 10
964.641
 20
-400.361
 30
0.000000
  70
    32
  0
VERTEX
  8
┌▓È_1
  5
56B
 10
964.652
 20
-400.372
 30
0.000000
  70
    32
  0
VERTEX
  8
┌▓È_1
  5
56C
 10
964.663
 20
-400.383
 30
0.000000
  70
    32
  0
VERTEX
  8
┌▓È_1
  5
56D
 10
964.674
 20
-400.394
 30
0.000000
  70
    32
  0
VERTEX
  8
┌▓È_1
  5
56E
 10
964.685
 20
-400.405
 30
0.000000
  70
    32
  0
VERTEX
  8
┌▓È_1
  5
56F
 10
964.696
 20
-400.416
 30
0.000000
  70
    32
  0
VERTEX
  8
┌▓È_1
  5
570
 10
964.707
 20
-400.427
 30
0.000000
  70
    32
  0
VERTEX
  8
┌▓È_1
  5
571
 10
964.718
 20
-400.439
 30
0.000000
  70
    32
  0
VERTEX
  8
┌▓È_1
  5
572
 10
964.729
 20
-400.450
 30
0.000000
  70
    32
  0
VERTEX
  8
┌▓È_1
  5
573
 10
964.740
 20
-400.461
 30
0.000000
  70
    32
  0
VERTEX
  8
┌▓È_1
  5
574
 10
964.751
 20
-400.472
 30
0.000000
  70
    32
  0
VERTEX
  8
┌▓È_1
  5
575
 10
964.762
 20
-400.483
 30
0.000000
  70
    32
  0
VERTEX
  8
┌▓È_1
  5
576
 10
964.773
 20
-400.494
 30
0.000000
  70
    32
  0
VERTEX
  8
┌▓È_1
  5
577
 10
964.784
 20
-400.505
 30
0.000000
  70
    32
  0
VERTEX
  8
┌▓È_1
  5
578
 10
964.795
 20
-400.516
 30
0.000000
  70
    32
  0
VERTEX
  8
┌▓È_1
  5
579
 10
964.806
 20
-400.527
 30
0.000000
  70
    32
  0
VERTEX
  8
┌▓È_1
  5
57A
 10
964.817
 20
-400.538
 30
0.000000
  70
    32
  0
VERTEX
  8
┌▓È_1
  5
57B
 10
964.828
 20
-400.549
 30
0.000000
  70
    32
  0
VERTEX
  8
┌▓È_1
  5
57C
 10
964.839
 20
-400.559
 30
0.000000
  70
    32
  0
VERTEX
  8
┌▓È_1
  5
57D
 10
964.851
 20
-400.570
 30
0.000000
  70
    32
  0
VERTEX
  8
┌▓È_1
  5
57E
 10
964.862
 20
-400.581
 30
0.000000
  70
    32
  0
VERTEX
  8
┌▓È_1
  5
57F
 10
964.873
 20
-400.592
 30
0.000000
  70
    32
  0
VERTEX
  8
┌▓È_1
  5
580
 10
964.884
 20
-400.603
 30
0.000000
  70
    32
  0
VERTEX
  8
┌▓È_1
  5
581
 10
964.895
 20
-400.614
 30
0.000000
  70
    32
  0
VERTEX
  8
┌▓È_1
  5
582
 10
964.906
 20
-400.624
 30
0.000000
  70
    32
  0
VERTEX
  8
┌▓È_1
  5
583
 10
964.917
 20
-400.635
 30
0.000000
  70
    32
  0
VERTEX
  8
┌▓È_1
  5
584
 10
964.929
 20
-400.646
 30
0.000000
  70
    32
  0
VERTEX
  8
┌▓È_1
  5
585
 10
964.940
 20
-400.657
 30
0.000000
  70
    32
  0
VERTEX
  8
┌▓È_1
  5
586
 10
964.951
 20
-400.667
 30
0.000000
  70
    32
  0
VERTEX
  8
┌▓È_1
  5
587
 10
964.962
 20
-400.678
 30
0.000000
  70
    32
  0
VERTEX
  8
┌▓È_1
  5
588
 10
964.974
 20
-400.689
 30
0.000000
  70
    32
  0
VERTEX
  8
┌▓È_1
  5
589
 10
964.985
 20
-400.700
 30
0.000000
  70
    32
  0
VERTEX
  8
┌▓È_1
  5
58A
 10
964.996
 20
-400.710
 30
0.000000
  70
    32
  0
VERTEX
  8
┌▓È_1
  5
58B
 10
965.007
 20
-400.721
 30
0.000000
  70
    32
  0
VERTEX
  8
┌▓È_1
  5
58C
 10
965.019
 20
-400.731
 30
0.000000
  70
    32
  0
VERTEX
  8
┌▓È_1
  5
58D
 10
965.030
 20
-400.742
 30
0.000000
  70
    32
  0
VERTEX
  8
┌▓È_1
  5
58E
 10
965.041
 20
-400.753
 30
0.000000
  70
    32
  0
VERTEX
  8
┌▓È_1
  5
58F
 10
965.053
 20
-400.763
 30
0.000000
  70
    32
  0
VERTEX
  8
┌▓È_1
  5
590
 10
965.064
 20
-400.774
 30
0.000000
  70
    32
  0
VERTEX
  8
┌▓È_1
  5
591
 10
965.075
 20
-400.784
 30
0.000000
  70
    32
  0
VERTEX
  8
┌▓È_1
  5
592
 10
965.087
 20
-400.795
 30
0.000000
  70
    32
  0
VERTEX
  8
┌▓È_1
  5
593
 10
965.098
 20
-400.805
 30
0.000000
  70
    32
  0
VERTEX
  8
┌▓È_1
  5
594
 10
965.109
 20
-400.815
 30
0.000000
  70
    32
  0
VERTEX
  8
┌▓È_1
  5
595
 10
965.121
 20
-400.826
 30
0.000000
  70
    32
  0
VERTEX
  8
┌▓È_1
  5
596
 10
965.132
 20
-400.836
 30
0.000000
  70
    32
  0
VERTEX
  8
┌▓È_1
  5
597
 10
965.144
 20
-400.847
 30
0.000000
  70
    32
  0
SEQEND
  8
┌▓È_1
  5
598
  0
LINE
  5
241
  8
┌▓È_1
 62
     5
 10
972.67046373259996
 20
-403.59092029779993
 30
0.0
 11
972.67046373259996
 21
-405.9909202977999
 31
0.0
  0
LINE
  5
242
  8
┌▓È_1
 10
968.01909130369995
 20
-366.54719704489997
 30
0.0
 11
1000.0190913037
 21
-366.54719704489997
 31
0.0
  0
LINE
  5
243
  8
┌▓È_1
 10
872.01909130369995
 20
-375.04719704489997
 30
0.0
 11
968.01909130369995
 21
-375.04719704489997
 31
0.0
  0
LINE
  5
244
  8
┌▓È_1
 62
     5
 10
674.56046500160005
 20
-277.94620268040001
 30
0.0
 11
800.06046500160005
 21
-277.94620268040001
 31
0.0
  0
LINE
  5
245
  8
┌▓È_1
 62
     5
 10
674.56046500160005
 20
-273.44620268040001
 30
0.0
 11
800.06046500160005
 21
-273.44620268040001
 31
0.0
  0
LINE
  5
246
  8
┌▓È_1
 62
     5
 10
800.06046500160005
 20
-277.94620268040001
 30
0.0
 11
800.06046500160005
 21
-273.44620268040001
 31
0.0
  0
LINE
  5
247
  8
┌▓È_1
 62
     5
 10
800.06046500160005
 20
-384.60566058649999
 30
0.0
 11
800.06046500160005
 21
-352.60566058649999
 31
0.0
  0
INSERT
  5
249
  8
┌▓È_1
  2
CLUMP6
 10
0.0
 20
0.0
 30
0.0
  0
INSERT
  5
256
  8
┌▓È_1
  2
CLUMP7
 10
0.0
 20
0.0
 30
0.0
  0
INSERT
  5
25E
  8
┌▓È_1
  2
CLUMP8
 10
0.0
 20
0.0
 30
0.0
  0
LINE
  5
26A
  8
┌▓È_1
 62
     5
 10
674.56046500160005
 20
-77.946202680400006
 30
0.0
 11
670.06046500160005
 21
-77.946202680400006
 31
0.0
  0
LINE
  5
26B
  8
┌▓È_1
 62
     5
 10
674.56046500160005
 20
-273.44620268040001
 30
0.0
 11
674.56046500160005
 21
-77.946202680400006
 31
0.0
  0
LINE
  5
26C
  8
┌▓È_1
 62
     5
 10
670.06046500160005
 20
-273.44620268040001
 30
0.0
 11
670.06046500160005
 21
-77.946202680400006
 31
0.0
  0
LINE
  5
26D
  8
┌▓È_1
  6
STITCH
 10
672.81046500160005
 20
-245.44620268040001
 30
0.0
 11
672.81046500160005
 21
-250.44620268040001
 31
0.0
  0
LINE
  5
26E
  8
┌▓È_1
 62
     5
 10
899.24005166639995
 20
-273.44620268040001
 30
0.0
 11
931.24005166639984
 21
-273.44620268040001
 31
0.0
  0
INSERT
  5
270
  8
┌▓È_1
  2
CLUMP9
 10
0.0
 20
0.0
 30
0.0
  0
LINE
  5
277
  8
┌▓È_1
 62
     5
 10
899.24005166639995
 20
-277.94620268040001
 30
0.0
 11
931.24005166639984
 21
-277.94620268040001
 31
0.0
  0
LINE
  5
278
  8
┌▓È_1
 62
     5
 10
931.24005166639984
 20
-77.946202680400006
 30
0.0
 11
899.24005166639995
 21
-77.946202680400006
 31
0.0
  0
LINE
  5
279
  8
┌▓È_1
 62
     5
 10
899.24005166639995
 20
-77.946202680400006
 30
0.0
 11
899.24005166639995
 21
-277.94620268040001
 31
0.0
  0
LINE
  5
27A
  8
┌▓È_1
 62
     5
 10
931.24005166639984
 20
-77.946202680400006
 30
0.0
 11
931.24005166639984
 21
-277.94620268040001
 31
0.0
  0
LINE
  5
27B
  8
┌▓È_1
 62
     5
 10
940.41349403569996
 20
-394.79092029780003
 30
0.0
 11
940.41349403569996
 21
-397.99092029780002
 31
0.0
  0
INSERT
  5
27C
  8
0
  6
CONTINUOUS
  2
*U43
 10
0.0
 20
0.0
 30
0.0
  0
INSERT
  5
27D
  8
0
  6
CONTINUOUS
  2
*U44
 10
0.0
 20
0.0
 30
0.0
  0
INSERT
  5
27E
  8
0
  6
CONTINUOUS
  2
*U45
 10
0.0
 20
0.0
 30
0.0
  0
INSERT
  5
27F
  8
0
  6
CONTINUOUS
  2
*U46
 10
0.0
 20
0.0
 30
0.0
  0
INSERT
  5
280
  8
0
  6
CONTINUOUS
  2
*U47
 10
0.0
 20
0.0
 30
0.0
  0
ARC
  5
281
  8
┌▓È_1
 62
     5
 10
960.19046373259994
 20
-397.5109202978
 30
0.0
 40
6.0800000000000001
 50
270.0
 51
298.08590481520002
  0
INSERT
  5
282
  8
0
  6
CONTINUOUS
  2
*U48
 10
0.0
 20
0.0
 30
0.0
  0
INSERT
  5
283
  8
0
  6
CONTINUOUS
  2
*U49
 10
0.0
 20
0.0
 30
0.0
  0
INSERT
  5
284
  8
0
  6
CONTINUOUS
  2
*U50
 10
0.0
 20
0.0
 30
0.0
  0
INSERT
  5
285
  8
0
  6
CONTINUOUS
  2
*U51
 10
0.0
 20
0.0
 30
0.0
  0
INSERT
  5
286
  8
0
  6
CONTINUOUS
  2
*U52
 10
0.0
 20
0.0
 30
0.0
  0
INSERT
  5
287
  8
0
  6
CONTINUOUS
  2
*U53
 10
0.0
 20
0.0
 30
0.0
  0
INSERT
  5
288
  8
0
  6
CONTINUOUS
  2
*U54
 10
0.0
 20
0.0
 30
0.0
  0
INSERT
  5
289
  8
0
  6
CONTINUOUS
  2
*U55
 10
0.0
 20
0.0
 30
0.0
  0
INSERT
  5
28A
  8
0
  6
CONTINUOUS
  2
*U56
 10
0.0
 20
0.0
 30
0.0
  0
LINE
  5
28B
  8
┌▓È_1
 10
940.01909130369995
 20
-383.54719704489997
 30
0.0
 11
964.01909130369995
 21
-383.54719704489997
 31
0.0
  0
LINE
  5
28C
  8
┌▓È_1
 10
940.01909130369995
 20
-366.54719704489997
 30
0.0
 11
964.01909130369995
 21
-366.54719704489997
 31
0.0
  0
LINE
  5
28D
  8
┌▓È_1
 10
876.01909130369995
 20
-383.54719704489997
 30
0.0
 11
932.01909130369995
 21
-383.54719704489997
 31
0.0
  0
LINE
  5
28E
  8
┌▓È_1
 10
908.01909130369984
 20
-366.54719704489997
 30
0.0
 11
932.01909130369995
 21
-366.54719704489997
 31
0.0
  0
LINE
  5
28F
  8
┌▓È_1
 10
876.01909130369995
 20
-366.54719704489997
 30
0.0
 11
900.01909130369995
 21
-366.54719704489997
 31
0.0
  0
LINE
  5
290
  8
┌▓È_1
 10
936.01909130369995
 20
-358.04719704489997
 30
0.0
 11
936.01909130369995
 21
-392.04719704489997
 31
0.0
  0
LINE
  5
291
  8
┌▓È_1
 62
     5
 10
964.67046373259996
 20
-398.50629672579998
 30
0.0
 11
963.76536705270007
 21
-399.41139340569998
 31
0.0
  0
LINE
  5
292
  8
┌▓È_1
 62
     5
 10
958.27046373259986
 20
-399.02167315380001
 30
0.0
 11
958.27046373259986
 21
-398.50629672579998
 31
0.0
  0
LINE
  5
293
  8
┌▓È_1
 62
     5
 10
938.57172793719997
 20
-397.99092029780002
 30
0.0
 11
938.57172793719997
 21
-400.39092029779988
 31
0.0
  0
ARC
  5
294
  8
┌▓È_1
 62
     5
 10
962.27046373259998
 20
-397.19092029780001
 30
0.0
 40
8.8000000000000007
 50
322.48761197969998
 51
0.0
  0
LINE
  5
295
  8
┌▓È_1
 62
     5
 10
982.93843596989996
 20
-406.79092029779991
 30
0.0
 11
987.41843596989997
 21
-406.79092029779991
 31
0.0
  0
LINE
  5
296
  8
┌▓È_1
 62
     5
 10
944.41349403570007
 20
-397.99092029780002
 30
0.0
 11
944.41349403570007
 21
-397.19092029780001
 31
0.0
  0
LINE
  5
297
  8
┌▓È_1
 62
     5
 10
958.27046373259986
 20
-405.9909202977999
 30
0.0
 11
958.27046373259986
 21
-403.59092029779993
 31
0.0
  0
LINE
  5
298
  8
┌▓È_1
 62
     5
 10
940.41349403569996
 20
-397.99092029780002
 30
0.0
 11
938.57172793719997
 21
-397.99092029780002
 31
0.0
  0
LINE
  5
299
  8
┌▓È_1
 62
     5
 10
990.61843596990002
 20
-401.67092029779991
 30
0.0
 11
990.61843596990002
 21
-404.55092029779991
 31
0.0
  0
LINE
  5
29A
  8
┌▓È_1
 62
     5
 10
981.43656930320003
 20
-401.67092029779991
 30
0.0
 11
981.06110263649998
 21
-400.39092029779988
 31
0.0
  0
LINE
  5
29B
  8
┌▓È_1
 62
     5
 10
940.41349403569996
 20
-400.39092029779988
 30
0.0
 11
940.17172793719999
 21
-400.39092029779988
 31
0.0
  0
LINE
  5
29C
  8
┌▓È_1
 62
     5
 10
940.41349403569996
 20
-403.59092029779993
 30
0.0
 11
940.41349403569996
 21
-405.9909202977999
 31
0.0
  0
LINE
  5
29D
  8
┌▓È_1
 62
     5
 10
985.94508036690002
 20
-401.67092029779991
 30
0.0
 11
985.57674146619991
 21
-400.39092029779988
 31
0.0
  0
LINE
  5
29E
  8
┌▓È_1
 62
     5
 10
982.93843596989996
 20
-406.79092029779991
 30
0.0
 11
982.28136930320011
 21
-404.55092029779991
 31
0.0
  0
LINE
  5
29F
  8
┌▓È_1
 62
     5
 10
945.21349403570002
 20
-403.59092029779993
 30
0.0
 11
940.41349403569996
 21
-403.59092029779993
 31
0.0
  0
LINE
  5
2A0
  8
┌▓È_1
 62
     5
 10
958.27046373259986
 20
-397.67092029780002
 30
0.0
 11
966.27046373259986
 21
-397.67092029780002
 31
0.0
  0
LINE
  5
2A1
  8
┌▓È_1
 62
     5
 10
990.61843596990002
 20
-397.5109202978
 30
0.0
 11
990.61843596990002
 21
-400.39092029779988
 31
0.0
  0
LINE
  5
2A2
  8
┌▓È_1
 62
     5
 10
976.21843596990004
 20
-400.39092029779988
 30
0.0
 11
981.06110263649998
 21
-400.39092029779988
 31
0.0
  0
LINE
  5
2A3
  8
┌▓È_1
 62
     5
 10
976.21843596990004
 20
-401.67092029779991
 30
0.0
 11
976.21843596990004
 21
-404.55092029779991
 31
0.0
  0
LINE
  5
2A4
  8
┌▓È_1
 62
     5
 10
944.41349403570007
 20
-402.79092029779991
 30
0.0
 11
944.41349403570007
 21
-400.39092029779988
 31
0.0
  0
LINE
  5
2A5
  8
┌▓È_1
 62
     5
 10
986.77384289359998
 20
-404.55092029779991
 30
0.0
 11
990.61843596990002
 21
-404.55092029779991
 31
0.0
  0
LINE
  5
2A6
  8
┌▓È_1
 62
     5
 10
954.01349403570009
 20
-394.79092029780003
 30
0.0
 11
947.61349403570011
 21
-394.79092029780003
 31
0.0
  0
LINE
  5
2A7
  8
┌▓È_1
 62
     5
 10
958.27046373259986
 20
-394.79092029780003
 30
0.0
 11
958.27046373259986
 21
-397.67092029780002
 31
0.0
  0
ARC
  5
2A8
  8
┌▓È_1
 62
     5
 10
946.81349403570005
 20
-401.19092029779989
 30
0.0
 40
4.7999999999999989
 50
270.0
 51
0.0
  0
LINE
  5
2A9
  8
┌▓È_1
 62
     5
 10
984.51374813919995
 20
-396.69695407310002
 30
0.0
 11
985.81843596989995
 21
-394.79092029780003
 31
0.0
  0
LINE
  5
2AA
  8
┌▓È_1
 62
     5
 10
947.61349403570011
 20
-397.99092029780002
 30
0.0
 11
944.41349403570007
 21
-397.99092029780002
 31
0.0
  0
LINE
  5
2AB
  8
┌▓È_1
 62
     5
 10
946.81349403570005
 20
-394.79092029780003
 30
0.0
 11
940.41349403569996
 21
-394.79092029780003
 31
0.0
  0
LINE
  5
2AC
  8
┌▓È_1
 62
     5
 10
944.41349403570007
 20
-397.19092029780001
 30
0.0
 11
946.81349403570005
 21
-394.79092029780003
 31
0.0
  0
INSERT
  5
2AD
  8
0
  6
CONTINUOUS
  2
*U57
 10
0.0
 20
0.0
 30
0.0
  0
LINE
  5
2AE
  8
┌▓È_1
 62
     5
 10
980.2163026364999
 20
-397.5109202978
 30
0.0
 11
979.41843596989997
 21
-394.79092029780003
 31
0.0
  0
LINE
  5
2AF
  8
┌▓È_1
 62
     5
 10
984.74797893949994
 20
-397.5109202978
 30
0.0
 11
990.61843596990002
 21
-397.5109202978
 31
0.0
  0
INSERT
  5
2B0
  8
0
  6
CONTINUOUS
  2
*U58
 10
0.0
 20
0.0
 30
0.0
  0
LINE
  5
2B1
  8
┌▓È_1
 62
     5
 10
940.41349403569996
 20
-400.39092029779988
 30
0.0
 11
940.41349403569996
 21
-402.79092029779991
 31
0.0
  0
LINE
  5
2B2
  8
┌▓È_1
 62
     5
 10
969.25081469599991
 20
-402.54953023220003
 30
0.0
 11
968.96585140029993
 21
-402.8285352629
 31
0.0
  0
INSERT
  5
2B3
  8
0
  6
CONTINUOUS
  2
*U59
 10
0.0
 20
0.0
 30
0.0
  0
LINE
  5
2B4
  8
┌▓È_1
 62
     5
 10
958.27046373259986
 20
-403.59092029779993
 30
0.0
 11
958.27046373259986
 21
-405.9909202977999
 31
0.0
  0
LINE
  5
2B5
  8
┌▓È_1
 62
     5
 10
958.27046373259986
 20
-403.59092029779993
 30
0.0
 11
960.19046373259994
 21
-403.59092029779993
 31
0.0
  0
LINE
  5
2B6
  8
┌▓È_1
 62
     5
 10
979.41843596989997
 20
-394.79092029780003
 30
0.0
 11
985.81843596989995
 21
-394.79092029780003
 31
0.0
  0
LINE
  5
2B7
  8
┌▓È_1
 62
     5
 10
971.07046373259993
 20
-397.19092029780001
 30
0.0
 11
972.67046373259996
 21
-394.79092029780003
 31
0.0
  0
LINE
  5
2B8
  8
┌▓È_1
 62
     5
 10
940.41349403569996
 20
-405.9909202977999
 30
0.0
 11
946.81349403570005
 21
-405.9909202977999
 31
0.0
  0
LINE
  5
2B9
  8
┌▓È_1
 62
     5
 10
958.27046373259986
 20
-405.9909202977999
 30
0.0
 11
962.27046373259998
 21
-405.9909202977999
 31
0.0
  0
ARC
  5
2BA
  8
┌▓È_1
 62
     5
 10
960.19046373259994
 20
-397.5109202978
 30
0.0
 40
6.0800000000000001
 50
331.39928138329998
 51
358.49204224580001
  0
LINE
  5
2BB
  8
┌▓È_1
 62
     5
 10
951.61349403570023
 20
-400.39092029779988
 30
0.0
 11
954.01349403570009
 21
-400.39092029779988
 31
0.0
  0
ARC
  5
2BC
  8
┌▓È_1
 62
     5
 10
962.27046373259998
 20
-397.19092029780001
 30
0.0
 40
8.8000000000000007
 50
270.0
 51
302.54495885400001
  0
LINE
  5
2BD
  8
┌▓È_1
 62
     5
 10
938.57172793719997
 20
-400.39092029779988
 30
0.0
 11
940.17172793719999
 21
-400.39092029779988
 31
0.0
  0
LINE
  5
2BE
  8
┌▓È_1
 62
     5
 10
976.21843596990004
 20
-401.67092029779991
 30
0.0
 11
981.43656930320003
 21
-401.67092029779991
 31
0.0
  0
LINE
  5
2BF
  8
┌▓È_1
 62
     5
 10
954.01349403570009
 20
-397.99092029780002
 30
0.0
 11
951.61349403570023
 21
-397.99092029780002
 31
0.0
  0
LINE
  5
2C0
  8
┌▓È_1
 62
     5
 10
951.61349403570023
 20
-397.99092029780002
 30
0.0
 11
951.61349403570023
 21
-397.19092029780001
 31
0.0
  0
LINE
  5
2C1
  8
┌▓È_1
 62
     5
 10
976.21843596990004
 20
-397.5109202978
 30
0.0
 11
980.2163026364999
 21
-397.5109202978
 31
0.0
  0
LINE
  5
2C2
  8
┌▓È_1
 62
     5
 10
947.61349403570011
 20
-400.39092029779988
 30
0.0
 11
947.61349403570011
 21
-401.19092029779989
 31
0.0
  0
LINE
  5
2C3
  8
┌▓È_1
 62
     5
 10
944.41349403570007
 20
-400.39092029779988
 30
0.0
 11
947.61349403570011
 21
-400.39092029779988
 31
0.0
  0
LINE
  5
2C4
  8
┌▓È_1
 62
     5
 10
987.41843596989997
 20
-406.79092029779991
 30
0.0
 11
986.77384289359998
 21
-404.55092029779991
 31
0.0
  0
LINE
  5
2C5
  8
┌▓È_1
 62
     5
 10
985.94508036690002
 20
-401.67092029779991
 30
0.0
 11
990.61843596990002
 21
-401.67092029779991
 31
0.0
  0
LINE
  5
2C6
  8
┌▓È_1
 62
     5
 10
562.01909130369995
 20
-409.04719704489997
 30
0.0
 11
562.01909130369995
 21
-29.047197044899999
 31
0.0
  0
LINE
  5
2C7
  8
┌▓È_1
 62
     5
 10
976.21843596990004
 20
-404.55092029779991
 30
0.0
 11
982.28136930320011
 21
-404.55092029779991
 31
0.0
  0
LINE
  5
2C8
  8
┌▓È_1
 62
     5
 10
984.74797893949994
 20
-397.5109202978
 30
0.0
 11
984.51374813919995
 21
-396.69695407310002
 31
0.0
  0
LINE
  5
2C9
  8
┌▓È_1
 62
     5
 10
972.67046373259996
 20
-394.79092029780003
 30
0.0
 11
958.27046373259986
 21
-394.79092029780003
 31
0.0
  0
LINE
  5
2CA
  8
┌▓È_1
 62
     5
 10
940.41349403569996
 20
-402.79092029779991
 30
0.0
 11
944.41349403570007
 21
-402.79092029779991
 31
0.0
  0
LINE
  5
2CB
  8
┌▓È_1
 62
     5
 10
951.61349403570023
 20
-397.19092029780001
 30
0.0
 11
954.01349403570009
 21
-394.79092029780003
 31
0.0
  0
LINE
  5
2CC
  8
┌▓È_1
 10
872.01909130369995
 20
-392.04719704489997
 30
0.0
 11
1112.0190913037
 21
-392.04719704489997
 31
0.0
  0
LINE
  5
2CD
  8
┌▓È_1
 10
872.01909130369995
 20
-358.04719704489997
 30
0.0
 11
1112.0190913037
 21
-358.04719704489997
 31
0.0
  0
INSERT
  5
2CE
  8
0
  6
CONTINUOUS
  2
*U60
 10
0.0
 20
0.0
 30
0.0
  0
LINE
  5
2CF
  8
┌▓È_1
 62
     5
 10
1112.0190913037
 20
-409.04719704489997
 30
0.0
 11
1112.0190913037
 21
-29.047197044899999
 31
0.0
  0
LINE
  5
2D0
  8
┌▓È_1
 62
     5
 10
562.01909130369995
 20
-409.04719704489997
 30
0.0
 11
1112.0190913037
 21
-409.04719704489997
 31
0.0
  0
LINE
  5
2D1
  8
┌▓È_1
 62
     5
 10
562.01909130369995
 20
-29.047197044899999
 30
0.0
 11
1112.0190913037
 21
-29.047197044899999
 31
0.0
  0
LINE
  5
2D2
  8
┌▓È_1
 10
1000.0190913037
 20
-375.04719704489997
 30
0.0
 11
1112.0190913037
 21
-375.04719704489997
 31
0.0
  0
LINE
  5
2D3
  8
┌▓È_1
 62
     5
 10
971.07046373259993
 20
-397.19092029780001
 30
0.0
 11
972.67046373259996
 21
-394.79092029780003
 31
0.0
  0
LINE
  5
2D4
  8
┌▓È_1
 62
     5
 10
985.57674146619991
 20
-400.39092029779988
 30
0.0
 11
990.61843596990002
 21
-400.39092029779988
 31
0.0
  0
LINE
  5
2D5
  8
┌▓È_1
 62
     5
 10
947.61349403570011
 20
-394.79092029780003
 30
0.0
 11
947.61349403570011
 21
-397.99092029780002
 31
0.0
  0
ARC
  5
2D6
  8
┌▓È_1
 62
     5
 10
945.21349403570002
 20
-401.19092029779989
 30
0.0
 40
2.399999999999999
 50
270.0
 51
0.0
  0
LINE
  5
2D7
  8
┌▓È_1
 62
     5
 10
965.52856371929988
 20
-400.42143374599988
 30
0.0
 11
965.14361042919995
 21
-400.8466151229
 31
0.0
  0
LINE
  5
2D8
  8
┌▓È_1
 62
     5
 10
958.27046373259986
 20
-398.50629672579998
 30
0.0
 11
964.67046373259996
 21
-398.50629672579998
 31
0.0
  0
LINE
  5
2D9
  8
┌▓È_1
 62
     5
 10
951.61349403570023
 20
-401.19092029779989
 30
0.0
 11
951.61349403570023
 21
-400.39092029779988
 31
0.0
  0
LINE
  5
2DA
  8
┌▓È_1
 62
     5
 10
976.21843596990004
 20
-397.5109202978
 30
0.0
 11
976.21843596990004
 21
-400.39092029779988
 31
0.0
  0
LINE
  5
2DB
  8
┌▓È_1
 10
968.01909130369995
 20
-358.04719704489997
 30
0.0
 11
968.01909130369995
 21
-392.04719704489997
 31
0.0
  0
LINE
  5
2DC
  8
┌▓È_1
 10
904.01909130369995
 20
-358.04719704489997
 30
0.0
 11
904.01909130369995
 21
-375.04719704489997
 31
0.0
  0
LINE
  5
2DD
  8
┌▓È_1
 10
1000.0190913037
 20
-358.04719704489997
 30
0.0
 11
1000.0190913037
 21
-409.04719704489997
 31
0.0
  0
LINE
  5
2DE
  8
┌▓È_1
 10
872.01909130369995
 20
-358.04719704489997
 30
0.0
 11
872.01909130369995
 21
-409.04719704489997
 31
0.0
  0
ENDSEC
  0
EOF
