  0
SECTION
  2
HEADER
  9
$ACADVER
  1
AC1009
  9
$INSBASE
 10
0.0
 20
0.0
 30
0.0
  9
$EXTMIN
 10
562.25613035649985
 20
-410.75292968749989
 30
0.0
  9
$EXTMAX
 10
1112.2561303565001
 20
-30.7529296875
 30
0.0
  9
$LIMMIN
 10
0.0
 20
0.0
  9
$LIMMAX
 10
0.0
 20
0.0
  9
$ORTHOMODE
 70
     0
  9
$REGENMODE
 70
     1
  9
$FILLMODE
 70
     1
  9
$QTEXTMODE
 70
     0
  9
$MIRRTEXT
 70
     1
  9
$DRAGMODE
 70
     2
  9
$LTSCALE
 40
1.0
  9
$OSMODE
 70
    31
  9
$ATTMODE
 70
     1
  9
$TEXTSIZE
 40
0.0
  9
$TRACEWID
 40
0.05
  9
$TEXTSTYLE
  7
STANDARD
  9
$CLAYER
  8
0
  9
$CELTYPE
  6
CONTINUOUS
  9
$CECOLOR
 62
   256
  9
$DIMSCALE
 40
1.0
  9
$DIMASZ
 40
0.18
  9
$DIMEXO
 40
0.0625
  9
$DIMDLI
 40
0.38
  9
$DIMRND
 40
0.0
  9
$DIMDLE
 40
0.0
  9
$DIMEXE
 40
0.18
  9
$DIMTP
 40
0.0
  9
$DIMTM
 40
0.0
  9
$DIMTXT
 40
0.18
  9
$DIMCEN
 40
0.09
  9
$DIMTSZ
 40
0.0
  9
$DIMTOL
 70
     0
  9
$DIMLIM
 70
     0
  9
$DIMTIH
 70
     1
  9
$DIMTOH
 70
     1
  9
$DIMSE1
 70
     0
  9
$DIMSE2
 70
     0
  9
$DIMTAD
 70
     0
  9
$DIMZIN
 70
     0
  9
$DIMBLK
  1

  9
$DIMASO
 70
     1
  9
$DIMSHO
 70
     1
  9
$DIMPOST
  1

  9
$DIMAPOST
  1

  9
$DIMALT
 70
     0
  9
$DIMALTD
 70
     2
  9
$DIMALTF
 40
25.399999999999999
  9
$DIMLFAC
 40
1.0
  9
$DIMTOFL
 70
     0
  9
$DIMTVP
 40
0.0
  9
$DIMTIX
 70
     0
  9
$DIMSOXD
 70
     0
  9
$DIMSAH
 70
     0
  9
$DIMBLK1
  1

  9
$DIMBLK2
  1

  9
$DIMSTYLE
  2
STANDARD
  9
$DIMCLRD
 70
     0
  9
$DIMCLRE
 70
     0
  9
$DIMCLRT
 70
     0
  9
$DIMTFAC
 40
1.0
  9
$DIMGAP
 40
0.09
  9
$LUNITS
 70
     2
  9
$LUPREC
 70
     4
  9
$SKETCHINC
 40
0.1
  9
$FILLETRAD
 40
0.0
  9
$AUNITS
 70
     0
  9
$AUPREC
 70
     0
  9
$MENU
  1
acad
  9
$ELEVATION
 40
0.0
  9
$PELEVATION
 40
0.0
  9
$THICKNESS
 40
0.0
  9
$LIMCHECK
 70
     0
  9
$BLIPMODE
 70
     0
  9
$CHAMFERA
 40
0.0
  9
$CHAMFERB
 40
0.0
  9
$SKPOLY
 70
     0
  9
$TDCREATE
 40
2454862.7443230902
  9
$TDUPDATE
 40
2454862.7444782518
  9
$TDINDWG
 40
0.000163669
  9
$TDUSRTIMER
 40
0.0001629398
  9
$USRTIMER
 70
     1
  9
$ANGBASE
 50
0.0
  9
$ANGDIR
 70
     0
  9
$PDMODE
 70
     3
  9
$PDSIZE
 40
-1.0
  9
$PLINEWID
 40
0.0
  9
$COORDS
 70
     2
  9
$SPLFRAME
 70
     0
  9
$SPLINETYPE
 70
     6
  9
$SPLINESEGS
 70
     8
  9
$ATTDIA
 70
     0
  9
$ATTREQ
 70
     1
  9
$HANDLING
 70
     1
  9
$HANDSEED
  5
557
  9
$SURFTAB1
 70
     6
  9
$SURFTAB2
 70
     6
  9
$SURFTYPE
 70
     6
  9
$SURFU
 70
     6
  9
$SURFV
 70
     6
  9
$UCSNAME
  2

  9
$UCSORG
 10
0.0
 20
0.0
 30
0.0
  9
$UCSXDIR
 10
1.0
 20
0.0
 30
0.0
  9
$UCSYDIR
 10
0.0
 20
1.0
 30
0.0
  9
$PUCSNAME
  2

  9
$PUCSORG
 10
0.0
 20
0.0
 30
0.0
  9
$PUCSXDIR
 10
1.0
 20
0.0
 30
0.0
  9
$PUCSYDIR
 10
0.0
 20
1.0
 30
0.0
  9
$USERI1
 70
     0
  9
$USERI2
 70
     0
  9
$USERI3
 70
     0
  9
$USERI4
 70
     0
  9
$USERI5
 70
     0
  9
$USERR1
 40
0.0
  9
$USERR2
 40
0.0
  9
$USERR3
 40
0.0
  9
$USERR4
 40
0.0
  9
$USERR5
 40
0.0
  9
$WORLDVIEW
 70
     1
  9
$SHADEDGE
 70
     3
  9
$SHADEDIF
 70
    70
  9
$TILEMODE
 70
     1
  9
$MAXACTVP
 70
    16
  9
$PLIMCHECK
 70
     0
  9
$PEXTMIN
 10
1.0000000000000000E+020
 20
1.0000000000000000E+020
 30
1.0000000000000000E+020
  9
$PEXTMAX
 10
-1.0000000000000000E+020
 20
-1.0000000000000000E+020
 30
-1.0000000000000000E+020
  9
$PLIMMIN
 10
0.0
 20
0.0
  9
$PLIMMAX
 10
12.0
 20
9.0
  9
$UNITMODE
 70
     0
  9
$VISRETAIN
 70
     0
  9
$PLINEGEN
 70
     1
  9
$PSLTSCALE
 70
     0
  0
ENDSEC
  0
SECTION
  2
TABLES
  0
TABLE
  2
VPORT
 70
     2
  0
VPORT
  2
*ACTIVE
 70
     0
 10
0.0
 20
0.0
 11
1.0
 21
1.0
 12
837.25613035649985
 22
-220.7529296875
 13
0.0
 23
0.0
 14
1.0
 24
1.0
 15
0.0
 25
0.0
 16
0.0
 26
0.0
 36
1.0
 17
0.0
 27
0.0
 37
0.0
 40
397.98585584749179
 41
1.3903818953323901
 42
50.0
 43
0.0
 44
0.0
 50
0.0
 51
0.0
 71
     0
 72
   100
 73
     1
 74
     1
 75
     0
 76
     0
 77
     0
 78
     0
  0
ENDTAB
  0
TABLE
  2
LTYPE
 70
    11
  0
LTYPE
  2
CONTINUOUS
 70
     0
  3
Solid line
 72
    65
 73
     0
 40
0.0
  0
LTYPE
  2
DOT
 70
     0
  3
. . . . . . . . 
 72
    65
 73
     2
 40
1.0
 49
0.0
 49
-1.0
  0
LTYPE
  2
DASHED
 70
     0
  3
___  ___  ___  ___  
 72
    65
 73
     2
 40
4.0
 49
3.0
 49
-1.0
  0
LTYPE
  2
HIDDEN
 70
     0
  3
__ __ __ __ 
 72
    65
 73
     2
 40
3.0
 49
2.0
 49
-1.0
  0
LTYPE
  2
STITCH
 70
     0
  3
_ _ _ _ 
 72
    65
 73
     2
 40
2.0
 49
1.0
 49
-1.0
  0
LTYPE
  2
CENTER
 70
     0
  3
______  __  ______  __  
 72
    65
 73
     4
 40
43.0
 49
40.0
 49
-1.0
 49
1.0
 49
-1.0
  0
LTYPE
  2
DASHDOT
 70
     0
  3
____ . ____ . 
 72
    65
 73
     4
 40
32.0
 49
30.0
 49
-1.0
 49
0.0
 49
-1.0
  0
LTYPE
  2
BORDER
 70
     0
  3
__ . __ . 
 72
    65
 73
     4
 40
22.0
 49
20.0
 49
-1.0
 49
0.0
 49
-1.0
  0
LTYPE
  2
CUTTING
 70
     0
  3
________   ___   ___   
 72
    65
 73
     6
 40
45.0
 49
40.0
 49
-1.0
 49
1.0
 49
-1.0
 49
1.0
 49
-1.0
  0
LTYPE
  2
PHANTOM
 70
     0
  3
______  __  __  
 72
    65
 73
     6
 40
35.0
 49
30.0
 49
-1.0
 49
1.0
 49
-1.0
 49
1.0
 49
-1.0
  0
LTYPE
  2
DIVIDE
 70
     0
  3
____ . . ____ . . 
 72
    65
 73
     6
 40
23.0
 49
20.0
 49
-1.0
 49
0.0
 49
-1.0
 49
0.0
 49
-1.0
  0
ENDTAB
  0
TABLE
  2
LAYER
 70
     4
  0
LAYER
  2
0
 70
     0
 62
     7
  6
CONTINUOUS
  0
LAYER
  2
┌▓È_1
 70
     0
 62
     7
  6
CONTINUOUS
  0
LAYER
  2
Éíû@É³
 70
     0
 62
     7
  6
CONTINUOUS
  0
LAYER
  2
Defpoints
 70
     0
 62
     7
  6
CONTINUOUS
  0
ENDTAB
  0
TABLE
  2
STYLE
 70
     1
  0
STYLE
  2
STANDARD
 70
     0
 40
0.0
 41
1.0
 50
0.0
 71
     0
 42
0.0
  3
txt
  4
extfont
  0
ENDTAB
  0
TABLE
  2
VIEW
 70
     0
  0
ENDTAB
  0
TABLE
  2
UCS
 70
     0
  0
ENDTAB
  0
TABLE
  2
APPID
 70
     2
  0
APPID
  2
ACAD
 70
     0
  0
APPID
  2
DCO15
 70
     0
  0
ENDTAB
  0
TABLE
  2
DIMSTYLE
 70
     3
  0
DIMSTYLE
  2
STANDARD
 70
     0
  3

  4

  5

  6

  7

 40
1.0
 41
0.18
 42
0.0625
 43
0.38
 44
0.18
 45
0.0
 46
0.0
 47
0.0
 48
0.0
140
0.18
141
0.09
142
0.0
143
25.399999999999999
144
1.0
145
0.0
146
1.0
147
0.09
 71
     0
 72
     0
 73
     1
 74
     1
 75
     0
 76
     0
 77
     0
 78
     0
170
     0
171
     2
172
     0
173
     0
174
     0
175
     0
176
     0
177
     0
178
     0
  0
DIMSTYLE
  2
VELDIM0
 70
     0
  3

  4

  5

  6

  7

 40
1.0
 41
6.0
 42
0.0625
 43
0.38
 44
0.5
 45
0.0
 46
3.0
 47
0.0
 48
0.0
140
5.9972220420999998
141
0.09
142
0.0
143
25.399999999999999
144
1.0
145
0.0
146
1.0
147
0.09
 71
     0
 72
     0
 73
     0
 74
     0
 75
     0
 76
     0
 77
     0
 78
     8
170
     0
171
     2
172
     0
173
     0
174
     0
175
     0
176
     0
177
     0
178
     0
  0
DIMSTYLE
  2
VELDIM1
 70
     0
  3

  4

  5

  6

  7

 40
1.0
 41
6.0
 42
0.0625
 43
0.38
 44
1.25
 45
0.0
 46
5.0
 47
0.0
 48
0.0
140
5.9972220420999998
141
0.09
142
0.0
143
25.399999999999999
144
1.0
145
0.0
146
1.0
147
0.09
 71
     0
 72
     0
 73
     0
 74
     0
 75
     0
 76
     0
 77
     0
 78
     8
170
     0
171
     2
172
     0
173
     0
174
     0
175
     0
176
     0
177
     0
178
     0
  0
ENDTAB
  0
ENDSEC
  0
SECTION
  2
BLOCKS
  0
BLOCK
  8
0
  2
$MODEL_SPACE
 70
     0
 10
0.0
 20
0.0
 30
0.0
  3
$MODEL_SPACE
  1

  0
ENDBLK
  5
E
  8
0
  0
BLOCK
 67
     1
  8
0
  2
$PAPER_SPACE
 70
     0
 10
0.0
 20
0.0
 30
0.0
  3
$PAPER_SPACE
  1

  0
ENDBLK
  5
10
 67
     1
  8
0
  0
BLOCK
  8
0
  2
*D0
 70
     1
 10
0.0
 20
0.0
 30
0.0
  3
*D0
  1

  0
TEXT
  5
38
  8
0
 62
     0
 10
870.83703034719986
 20
-43.663349347100002
 30
0.0
 40
5.9972220420999998
  1
32
  0
LINE
  5
39
  8
0
 62
     0
 10
890.36480801899995
 20
-77.758966573100011
 30
0.0
 11
890.36480801899995
 21
-45.221682648699989
 31
0.0
  0
LINE
  5
3A
  8
0
 62
     0
 10
858.36480801899995
 20
-77.758966573100011
 30
0.0
 11
858.36480801899995
 21
-45.221682648699989
 31
0.0
  0
LINE
  5
3B
  8
0
 62
     0
 10
890.36480801899995
 20
-45.721682648700003
 30
0.0
 11
881.4203633625998
 21
-45.721682648700003
 31
0.0
  0
LINE
  5
3C
  8
0
 62
     0
 10
890.36480801899995
 20
-45.721682648700003
 30
0.0
 11
867.30925267539999
 21
-45.721682648700003
 31
0.0
  0
LINE
  5
3D
  8
0
 62
     0
 10
858.36480801899995
 20
-45.721682648700003
 30
0.0
 11
881.4203633625998
 21
-45.721682648700003
 31
0.0
  0
LINE
  5
3E
  8
0
 62
     0
 10
858.36480801899995
 20
-45.721682648700003
 30
0.0
 11
867.30925267539999
 21
-45.721682648700003
 31
0.0
  0
LINE
  5
3F
  8
0
 62
     0
 10
858.36480801899995
 20
-45.721682648700003
 30
0.0
 11
861.36480801899995
 21
-45.721682648700003
 31
0.0
  0
SOLID
  5
40
  8
0
 62
     0
 10
858.36480801899995
 20
-45.721682648700003
 30
0.0
 11
864.36480801899995
 21
-44.221682648699989
 31
0.0
 12
864.36480801899995
 22
-47.221682648699989
 32
0.0
 13
862.86480801899995
 23
-45.721682648700003
 33
0.0
  0
LINE
  5
41
  8
0
 62
     0
 10
890.36480801899995
 20
-45.721682648700003
 30
0.0
 11
887.36480801899995
 21
-45.721682648700003
 31
0.0
  0
SOLID
  5
42
  8
0
 62
     0
 10
890.36480801899995
 20
-45.721682648700003
 30
0.0
 11
884.36480801899995
 21
-47.221682648699989
 31
0.0
 12
884.36480801899995
 22
-44.221682648699989
 32
0.0
 13
885.86480801899995
 23
-45.721682648700003
 33
0.0
  0
ENDBLK
  5
43
  8
0
  0
BLOCK
  8
0
  2
*D1
 70
     1
 10
0.0
 20
0.0
 30
0.0
  3
*D1
  1

  0
TEXT
  5
48
  8
0
 62
     0
 10
646.00035828480009
 20
-49.361955444499998
 30
0.0
 40
5.9972220420999998
  1
4.5t
  0
LINE
  5
49
  8
0
 62
     0
 10
640.01770833329999
 20
-77.758966573100011
 30
0.0
 11
640.01770833329999
 21
-50.920288745999997
 31
0.0
  0
LINE
  5
4A
  8
0
 62
     0
 10
635.51770833329999
 20
-77.758966573100011
 30
0.0
 11
635.51770833329999
 21
-50.920288745999997
 31
0.0
  0
LINE
  5
4B
  8
0
 62
     0
 10
640.01770833329999
 20
-51.420288746000011
 30
0.0
 11
663.63924664390004
 21
-51.420288746000011
 31
0.0
  0
LINE
  5
4C
  8
0
 62
     0
 10
640.01770833329999
 20
-51.420288746000011
 30
0.0
 11
642.47258061299988
 21
-51.420288746000011
 31
0.0
  0
LINE
  5
4D
  8
0
 62
     0
 10
635.51770833329999
 20
-51.420288746000011
 30
0.0
 11
663.63924664390004
 21
-51.420288746000011
 31
0.0
  0
LINE
  5
4E
  8
0
 62
     0
 10
635.51770833329999
 20
-51.420288746000011
 30
0.0
 11
642.47258061299988
 21
-51.420288746000011
 31
0.0
  0
LINE
  5
4F
  8
0
 62
     0
 10
635.51770833329999
 20
-51.420288746000011
 30
0.0
 11
632.51770833329999
 21
-51.420288746000011
 31
0.0
  0
SOLID
  5
50
  8
0
 62
     0
 10
635.51770833329999
 20
-51.420288746000011
 30
0.0
 11
629.51770833329988
 21
-52.920288745999997
 31
0.0
 12
629.51770833329988
 22
-49.920288745999997
 32
0.0
 13
631.01770833329999
 23
-51.420288746000011
 33
0.0
  0
LINE
  5
51
  8
0
 62
     0
 10
640.01770833329999
 20
-51.420288746000011
 30
0.0
 11
643.01770833329988
 21
-51.420288746000011
 31
0.0
  0
SOLID
  5
52
  8
0
 62
     0
 10
640.01770833329999
 20
-51.420288746000011
 30
0.0
 11
646.01770833329988
 21
-49.920288745999997
 31
0.0
 12
646.01770833329988
 22
-52.920288745999997
 32
0.0
 13
644.51770833329999
 23
-51.420288746000011
 33
0.0
  0
ENDBLK
  5
53
  8
0
  0
BLOCK
  8
0
  2
*D2
 70
     1
 10
0.0
 20
0.0
 30
0.0
  3
*D2
  1

  0
TEXT
  5
57
  8
0
 62
     0
 10
778.79683078130006
 20
-341.99790583639998
 30
0.0
 40
5.9972220420999998
  1
16
 50
90.0
  0
LINE
  5
58
  8
0
 62
     0
 10
755.51770833329988
 20
-369.41842447919998
 30
0.0
 11
781.35516408279989
 21
-369.41842447919998
 31
0.0
  0
LINE
  5
59
  8
0
 62
     0
 10
761.51770833329999
 20
-353.41842447919998
 30
0.0
 11
781.35516408279989
 21
-353.41842447919998
 31
0.0
  0
LINE
  5
5A
  8
0
 62
     0
 10
780.8551640828
 20
-369.41842447919998
 30
0.0
 11
780.8551640828
 21
-331.41457282089999
 31
0.0
  0
LINE
  5
5B
  8
0
 62
     0
 10
780.8551640828
 20
-369.41842447919998
 30
0.0
 11
780.8551640828
 21
-345.52568350820002
 31
0.0
  0
LINE
  5
5C
  8
0
 62
     0
 10
780.8551640828
 20
-353.41842447919998
 30
0.0
 11
780.8551640828
 21
-331.41457282089999
 31
0.0
  0
LINE
  5
5D
  8
0
 62
     0
 10
780.8551640828
 20
-353.41842447919998
 30
0.0
 11
780.8551640828
 21
-345.52568350820002
 31
0.0
  0
LINE
  5
5E
  8
0
 62
     0
 10
780.8551640828
 20
-353.41842447919998
 30
0.0
 11
780.8551640828
 21
-356.41842447919998
 31
0.0
  0
SOLID
  5
5F
  8
0
 62
     0
 10
780.8551640828
 20
-353.41842447919998
 30
0.0
 11
782.3551640828
 21
-359.41842447919998
 31
0.0
 12
779.3551640828
 22
-359.41842447919998
 32
0.0
 13
780.8551640828
 23
-357.91842447919998
 33
0.0
  0
LINE
  5
60
  8
0
 62
     0
 10
780.8551640828
 20
-369.41842447919998
 30
0.0
 11
780.8551640828
 21
-366.41842447919998
 31
0.0
  0
SOLID
  5
61
  8
0
 62
     0
 10
780.8551640828
 20
-369.41842447919998
 30
0.0
 11
779.3551640828
 21
-363.41842447919998
 31
0.0
 12
782.3551640828
 22
-363.41842447919998
 32
0.0
 13
780.8551640828
 23
-364.91842447919998
 33
0.0
  0
ENDBLK
  5
62
  8
0
  0
BLOCK
  8
0
  2
*D3
 70
     1
 10
0.0
 20
0.0
 30
0.0
  3
*D3
  1

  0
TEXT
  5
66
  8
0
 62
     0
 10
693.3437240917998
 20
-345.43552134229998
 30
0.0
 40
5.9972220420999998
  1
11
 50
90.0
  0
LINE
  5
67
  8
0
 62
     0
 10
672.51770833329999
 20
-364.41842447919998
 30
0.0
 11
695.90205739340001
 21
-364.41842447919998
 31
0.0
  0
LINE
  5
68
  8
0
 62
     0
 10
676.06460164389989
 20
-353.41842447919998
 30
0.0
 11
695.90205739340001
 21
-353.41842447919998
 31
0.0
  0
LINE
  5
69
  8
0
 62
     0
 10
695.40205739340001
 20
-364.41842447919998
 30
0.0
 11
695.40205739340001
 21
-334.85218832689998
 31
0.0
  0
LINE
  5
6A
  8
0
 62
     0
 10
695.40205739340001
 20
-364.41842447919998
 30
0.0
 11
695.40205739340001
 21
-348.9632990142
 31
0.0
  0
LINE
  5
6B
  8
0
 62
     0
 10
695.40205739340001
 20
-353.41842447919998
 30
0.0
 11
695.40205739340001
 21
-334.85218832689998
 31
0.0
  0
LINE
  5
6C
  8
0
 62
     0
 10
695.40205739340001
 20
-353.41842447919998
 30
0.0
 11
695.40205739340001
 21
-348.9632990142
 31
0.0
  0
LINE
  5
6D
  8
0
 62
     0
 10
695.40205739340001
 20
-353.41842447919998
 30
0.0
 11
695.40205739340001
 21
-350.41842447919998
 31
0.0
  0
SOLID
  5
6E
  8
0
 62
     0
 10
695.40205739340001
 20
-353.41842447919998
 30
0.0
 11
693.90205739340001
 21
-347.41842447919998
 31
0.0
 12
696.90205739340001
 22
-347.41842447919998
 32
0.0
 13
695.40205739340001
 23
-348.91842447919998
 33
0.0
  0
LINE
  5
6F
  8
0
 62
     0
 10
695.40205739340001
 20
-364.41842447919998
 30
0.0
 11
695.40205739340001
 21
-367.41842447919998
 31
0.0
  0
SOLID
  5
70
  8
0
 62
     0
 10
695.40205739340001
 20
-364.41842447919998
 30
0.0
 11
696.90205739340001
 21
-370.41842447919998
 31
0.0
 12
693.90205739340001
 22
-370.41842447919998
 32
0.0
 13
695.40205739340001
 23
-368.91842447919998
 33
0.0
  0
ENDBLK
  5
71
  8
0
  0
BLOCK
  8
0
  2
*D4
 70
     1
 10
0.0
 20
0.0
 30
0.0
  3
*D4
  1

  0
TEXT
  5
75
  8
0
 62
     0
 10
750.9899306614999
 20
-328.379654996
 30
0.0
 40
5.9972220420999998
  1
12
  0
LINE
  5
76
  8
0
 62
     0
 10
760.51770833329999
 20
-352.41842447919998
 30
0.0
 11
760.51770833329999
 21
-329.93798829759999
 31
0.0
  0
LINE
  5
77
  8
0
 62
     0
 10
748.51770833329999
 20
-362.41842447919998
 30
0.0
 11
748.51770833329999
 21
-329.93798829759999
 31
0.0
  0
LINE
  5
78
  8
0
 62
     0
 10
760.51770833329999
 20
-330.43798829759999
 30
0.0
 11
760.51770833329999
 21
-330.43798829759999
 31
0.0
  0
LINE
  5
79
  8
0
 62
     0
 10
760.51770833329999
 20
-330.43798829759999
 30
0.0
 11
748.51770833329999
 21
-330.43798829759999
 31
0.0
  0
LINE
  5
7A
  8
0
 62
     0
 10
748.51770833329999
 20
-330.43798829759999
 30
0.0
 11
760.51770833329999
 21
-330.43798829759999
 31
0.0
  0
LINE
  5
7B
  8
0
 62
     0
 10
748.51770833329999
 20
-330.43798829759999
 30
0.0
 11
748.51770833329999
 21
-330.43798829759999
 31
0.0
  0
LINE
  5
7C
  8
0
 62
     0
 10
748.51770833329999
 20
-330.43798829759999
 30
0.0
 11
751.51770833329999
 21
-330.43798829759999
 31
0.0
  0
SOLID
  5
7D
  8
0
 62
     0
 10
748.51770833329999
 20
-330.43798829759999
 30
0.0
 11
754.51770833329988
 21
-328.93798829759999
 31
0.0
 12
754.51770833329988
 22
-331.93798829759999
 32
0.0
 13
753.01770833329999
 23
-330.43798829759999
 33
0.0
  0
LINE
  5
7E
  8
0
 62
     0
 10
760.51770833329999
 20
-330.43798829759999
 30
0.0
 11
757.51770833329999
 21
-330.43798829759999
 31
0.0
  0
SOLID
  5
7F
  8
0
 62
     0
 10
760.51770833329999
 20
-330.43798829759999
 30
0.0
 11
754.51770833329988
 21
-331.93798829759999
 31
0.0
 12
754.51770833329988
 22
-328.93798829759999
 32
0.0
 13
756.01770833329999
 23
-330.43798829759999
 33
0.0
  0
ENDBLK
  5
80
  8
0
  0
BLOCK
  8
0
  2
*D5
 70
     1
 10
0.0
 20
0.0
 30
0.0
  3
*D5
  1

  0
TEXT
  5
84
  8
0
 62
     0
 10
646.9899306614999
 20
-328.37536117280001
 30
0.0
 40
5.9972220420999998
  1
30
  0
LINE
  5
85
  8
0
 62
     0
 10
665.51770833329999
 20
-357.41842447919998
 30
0.0
 11
665.51770833329999
 21
-329.93369447430001
 31
0.0
  0
LINE
  5
86
  8
0
 62
     0
 10
635.51770833329999
 20
-352.41842447919998
 30
0.0
 11
635.51770833329999
 21
-329.93369447430001
 31
0.0
  0
LINE
  5
87
  8
0
 62
     0
 10
665.51770833329999
 20
-330.43369447430001
 30
0.0
 11
657.57326367699989
 21
-330.43369447430001
 31
0.0
  0
LINE
  5
88
  8
0
 62
     0
 10
665.51770833329999
 20
-330.43369447430001
 30
0.0
 11
643.46215298970003
 21
-330.43369447430001
 31
0.0
  0
LINE
  5
89
  8
0
 62
     0
 10
635.51770833329999
 20
-330.43369447430001
 30
0.0
 11
657.57326367699989
 21
-330.43369447430001
 31
0.0
  0
LINE
  5
8A
  8
0
 62
     0
 10
635.51770833329999
 20
-330.43369447430001
 30
0.0
 11
643.46215298970003
 21
-330.43369447430001
 31
0.0
  0
LINE
  5
8B
  8
0
 62
     0
 10
635.51770833329999
 20
-330.43369447430001
 30
0.0
 11
638.51770833329988
 21
-330.43369447430001
 31
0.0
  0
SOLID
  5
8C
  8
0
 62
     0
 10
635.51770833329999
 20
-330.43369447430001
 30
0.0
 11
641.51770833329988
 21
-328.93369447430001
 31
0.0
 12
641.51770833329988
 22
-331.93369447430001
 32
0.0
 13
640.01770833329999
 23
-330.43369447430001
 33
0.0
  0
LINE
  5
8D
  8
0
 62
     0
 10
665.51770833329999
 20
-330.43369447430001
 30
0.0
 11
662.51770833329988
 21
-330.43369447430001
 31
0.0
  0
SOLID
  5
8E
  8
0
 62
     0
 10
665.51770833329999
 20
-330.43369447430001
 30
0.0
 11
659.51770833329988
 21
-331.93369447430001
 31
0.0
 12
659.51770833329988
 22
-328.93369447430001
 32
0.0
 13
661.01770833329999
 23
-330.43369447430001
 33
0.0
  0
ENDBLK
  5
8F
  8
0
  0
BLOCK
  8
0
  2
*D6
 70
     1
 10
0.0
 20
0.0
 30
0.0
  3
*D6
  1

  0
TEXT
  5
93
  8
0
 62
     0
 10
702.52821191149985
 20
-328.36588546479999
 30
0.0
 40
5.9972220420999998
  1
83
  0
LINE
  5
94
  8
0
 62
     0
 10
748.51770833329999
 20
-362.41842447919998
 30
0.0
 11
748.51770833329999
 21
-329.92421876629999
 31
0.0
  0
LINE
  5
95
  8
0
 62
     0
 10
665.51770833329999
 20
-357.41842447919998
 30
0.0
 11
665.51770833329999
 21
-329.92421876629999
 31
0.0
  0
LINE
  5
96
  8
0
 62
     0
 10
748.51770833329999
 20
-330.42421876629999
 30
0.0
 11
713.11154492699995
 21
-330.42421876629999
 31
0.0
  0
LINE
  5
97
  8
0
 62
     0
 10
748.51770833329999
 20
-330.42421876629999
 30
0.0
 11
699.00043423969998
 21
-330.42421876629999
 31
0.0
  0
LINE
  5
98
  8
0
 62
     0
 10
665.51770833329999
 20
-330.42421876629999
 30
0.0
 11
713.11154492699995
 21
-330.42421876629999
 31
0.0
  0
LINE
  5
99
  8
0
 62
     0
 10
665.51770833329999
 20
-330.42421876629999
 30
0.0
 11
699.00043423969998
 21
-330.42421876629999
 31
0.0
  0
LINE
  5
9A
  8
0
 62
     0
 10
665.51770833329999
 20
-330.42421876629999
 30
0.0
 11
668.51770833329999
 21
-330.42421876629999
 31
0.0
  0
SOLID
  5
9B
  8
0
 62
     0
 10
665.51770833329999
 20
-330.42421876629999
 30
0.0
 11
671.51770833329988
 21
-328.92421876629999
 31
0.0
 12
671.51770833329988
 22
-331.92421876629999
 32
0.0
 13
670.01770833329999
 23
-330.42421876629999
 33
0.0
  0
LINE
  5
9C
  8
0
 62
     0
 10
748.51770833329999
 20
-330.42421876629999
 30
0.0
 11
745.51770833329988
 21
-330.42421876629999
 31
0.0
  0
SOLID
  5
9D
  8
0
 62
     0
 10
748.51770833329999
 20
-330.42421876629999
 30
0.0
 11
742.51770833329988
 21
-331.92421876629999
 31
0.0
 12
742.51770833329988
 22
-328.92421876629999
 32
0.0
 13
744.01770833329999
 23
-330.42421876629999
 33
0.0
  0
ENDBLK
  5
9E
  8
0
  0
BLOCK
  8
0
  2
*D7
 70
     1
 10
0.0
 20
0.0
 30
0.0
  3
*D7
  1

  0
TEXT
  5
A5
  8
0
 62
     0
 10
692.72604182559996
 20
-297.03808902100002
 30
0.0
 40
5.9972220420999998
  1
125
  0
LINE
  5
A6
  8
0
 62
     0
 10
635.51770833329999
 20
-275.2589665731
 30
0.0
 11
635.51770833329999
 21
-299.59642232260001
 31
0.0
  0
LINE
  5
A7
  8
0
 62
     0
 10
760.51770833329999
 20
-279.7589665731
 30
0.0
 11
760.51770833329999
 21
-299.59642232260001
 31
0.0
  0
LINE
  5
A8
  8
0
 62
     0
 10
635.51770833329999
 20
-299.09642232260001
 30
0.0
 11
706.83715251289993
 21
-299.09642232260001
 31
0.0
  0
LINE
  5
A9
  8
0
 62
     0
 10
635.51770833329999
 20
-299.09642232260001
 30
0.0
 11
689.19826415379998
 21
-299.09642232260001
 31
0.0
  0
LINE
  5
AA
  8
0
 62
     0
 10
760.51770833329999
 20
-299.09642232260001
 30
0.0
 11
706.83715251289993
 21
-299.09642232260001
 31
0.0
  0
LINE
  5
AB
  8
0
 62
     0
 10
760.51770833329999
 20
-299.09642232260001
 30
0.0
 11
689.19826415379998
 21
-299.09642232260001
 31
0.0
  0
LINE
  5
AC
  8
0
 62
     0
 10
760.51770833329999
 20
-299.09642232260001
 30
0.0
 11
757.51770833329999
 21
-299.09642232260001
 31
0.0
  0
SOLID
  5
AD
  8
0
 62
     0
 10
760.51770833329999
 20
-299.09642232260001
 30
0.0
 11
754.51770833329988
 21
-300.59642232260001
 31
0.0
 12
754.51770833329988
 22
-297.59642232260001
 32
0.0
 13
756.01770833329999
 23
-299.09642232260001
 33
0.0
  0
LINE
  5
AE
  8
0
 62
     0
 10
635.51770833329999
 20
-299.09642232260001
 30
0.0
 11
638.51770833329988
 21
-299.09642232260001
 31
0.0
  0
SOLID
  5
AF
  8
0
 62
     0
 10
635.51770833329999
 20
-299.09642232260001
 30
0.0
 11
641.51770833329988
 21
-297.59642232260001
 31
0.0
 12
641.51770833329988
 22
-300.59642232260001
 32
0.0
 13
640.01770833329999
 23
-299.09642232260001
 33
0.0
  0
ENDBLK
  5
B0
  8
0
  0
BLOCK
  8
0
  2
*D8
 70
     1
 10
0.0
 20
0.0
 30
0.0
  3
*D8
  1

  0
TEXT
  5
B4
  8
0
 62
     0
 10
778.79683078130006
 20
-398.86045996349998
 30
0.0
 40
5.9972220420999998
  1
16
 50
90.0
  0
LINE
  5
B5
  8
0
 62
     0
 10
761.51770833329999
 20
-385.41842447919998
 30
0.0
 11
781.35516408279989
 21
-385.41842447919998
 31
0.0
  0
LINE
  5
B6
  8
0
 62
     0
 10
755.51770833329988
 20
-369.41842447919998
 30
0.0
 11
781.35516408279989
 21
-369.41842447919998
 31
0.0
  0
LINE
  5
B7
  8
0
 62
     0
 10
780.8551640828
 20
-385.41842447919998
 30
0.0
 11
780.8551640828
 21
-388.27712694799999
 31
0.0
  0
LINE
  5
B8
  8
0
 62
     0
 10
780.8551640828
 20
-385.41842447919998
 30
0.0
 11
780.8551640828
 21
-402.3882376352999
 31
0.0
  0
LINE
  5
B9
  8
0
 62
     0
 10
780.8551640828
 20
-369.41842447919998
 30
0.0
 11
780.8551640828
 21
-388.27712694799999
 31
0.0
  0
LINE
  5
BA
  8
0
 62
     0
 10
780.8551640828
 20
-369.41842447919998
 30
0.0
 11
780.8551640828
 21
-402.3882376352999
 31
0.0
  0
LINE
  5
BB
  8
0
 62
     0
 10
780.8551640828
 20
-369.41842447919998
 30
0.0
 11
780.8551640828
 21
-372.41842447919998
 31
0.0
  0
SOLID
  5
BC
  8
0
 62
     0
 10
780.8551640828
 20
-369.41842447919998
 30
0.0
 11
782.3551640828
 21
-375.41842447919998
 31
0.0
 12
779.3551640828
 22
-375.41842447919998
 32
0.0
 13
780.8551640828
 23
-373.91842447919998
 33
0.0
  0
LINE
  5
BD
  8
0
 62
     0
 10
780.8551640828
 20
-385.41842447919998
 30
0.0
 11
780.8551640828
 21
-382.41842447919998
 31
0.0
  0
SOLID
  5
BE
  8
0
 62
     0
 10
780.8551640828
 20
-385.41842447919998
 30
0.0
 11
779.3551640828
 21
-379.41842447919998
 31
0.0
 12
782.3551640828
 22
-379.41842447919998
 32
0.0
 13
780.8551640828
 23
-380.91842447919998
 33
0.0
  0
ENDBLK
  5
BF
  8
0
  0
BLOCK
  8
0
  2
*D9
 70
     1
 10
0.0
 20
0.0
 30
0.0
  3
*D9
  1

  0
TEXT
  5
C3
  8
0
 62
     0
 10
838.73196617759993
 20
-267.28674424489998
 30
0.0
 40
5.9972220420999998
  1
30
 50
90.0
  0
LINE
  5
C4
  8
0
 62
     0
 10
872.36480801899995
 20
-248.7589665731
 30
0.0
 11
840.29029947920003
 21
-248.7589665731
 31
0.0
  0
LINE
  5
C5
  8
0
 62
     0
 10
857.36480801899995
 20
-278.7589665731
 30
0.0
 11
840.29029947920003
 21
-278.7589665731
 31
0.0
  0
LINE
  5
C6
  8
0
 62
     0
 10
840.79029947919992
 20
-248.7589665731
 30
0.0
 11
840.79029947919992
 21
-256.70341122949998
 31
0.0
  0
LINE
  5
C7
  8
0
 62
     0
 10
840.79029947919992
 20
-248.7589665731
 30
0.0
 11
840.79029947919992
 21
-270.81452191670002
 31
0.0
  0
LINE
  5
C8
  8
0
 62
     0
 10
840.79029947919992
 20
-278.7589665731
 30
0.0
 11
840.79029947919992
 21
-256.70341122949998
 31
0.0
  0
LINE
  5
C9
  8
0
 62
     0
 10
840.79029947919992
 20
-278.7589665731
 30
0.0
 11
840.79029947919992
 21
-270.81452191670002
 31
0.0
  0
LINE
  5
CA
  8
0
 62
     0
 10
840.79029947919992
 20
-278.7589665731
 30
0.0
 11
840.79029947919992
 21
-275.7589665731
 31
0.0
  0
SOLID
  5
CB
  8
0
 62
     0
 10
840.79029947919992
 20
-278.7589665731
 30
0.0
 11
839.29029947920014
 21
-272.7589665731
 31
0.0
 12
842.29029947920003
 22
-272.7589665731
 32
0.0
 13
840.79029947919992
 23
-274.2589665731
 33
0.0
  0
LINE
  5
CC
  8
0
 62
     0
 10
840.79029947919992
 20
-248.7589665731
 30
0.0
 11
840.79029947919992
 21
-251.7589665731
 31
0.0
  0
SOLID
  5
CD
  8
0
 62
     0
 10
840.79029947919992
 20
-248.7589665731
 30
0.0
 11
842.29029947920003
 21
-254.7589665731
 31
0.0
 12
839.29029947920014
 22
-254.7589665731
 32
0.0
 13
840.79029947919992
 23
-253.2589665731
 33
0.0
  0
ENDBLK
  5
CE
  8
0
  0
BLOCK
  8
0
  2
*D10
 70
     1
 10
0.0
 20
0.0
 30
0.0
  3
*D10
  1

  0
TEXT
  5
D2
  8
0
 62
     0
 10
613.12191928230004
 20
-184.0506330808
 30
0.0
 40
5.9972220420999998
  1
250
 50
90.0
  0
LINE
  5
D3
  8
0
 62
     0
 10
634.51770833329988
 20
-78.758966573100011
 30
0.0
 11
614.68025258379987
 21
-78.758966573100011
 31
0.0
  0
LINE
  5
D4
  8
0
 62
     0
 10
639.01770833329999
 20
-278.7589665731
 30
0.0
 11
614.68025258379987
 21
-278.7589665731
 31
0.0
  0
LINE
  5
D5
  8
0
 62
     0
 10
615.18025258379987
 20
-78.758966573100011
 30
0.0
 11
615.18025258379987
 21
-169.9395223935
 31
0.0
  0
LINE
  5
D6
  8
0
 62
     0
 10
615.18025258379987
 20
-78.758966573100011
 30
0.0
 11
615.18025258379987
 21
-187.57841075259989
 31
0.0
  0
LINE
  5
D7
  8
0
 62
     0
 10
615.18025258379987
 20
-278.7589665731
 30
0.0
 11
615.18025258379987
 21
-169.9395223935
 31
0.0
  0
LINE
  5
D8
  8
0
 62
     0
 10
615.18025258379987
 20
-278.7589665731
 30
0.0
 11
615.18025258379987
 21
-187.57841075259989
 31
0.0
  0
LINE
  5
D9
  8
0
 62
     0
 10
615.18025258379987
 20
-278.7589665731
 30
0.0
 11
615.18025258379987
 21
-275.7589665731
 31
0.0
  0
SOLID
  5
DA
  8
0
 62
     0
 10
615.18025258379987
 20
-278.7589665731
 30
0.0
 11
613.68025258379998
 21
-272.7589665731
 31
0.0
 12
616.68025258379998
 22
-272.7589665731
 32
0.0
 13
615.18025258379987
 23
-274.2589665731
 33
0.0
  0
LINE
  5
DB
  8
0
 62
     0
 10
615.18025258379987
 20
-78.758966573100011
 30
0.0
 11
615.18025258379987
 21
-81.758966573100011
 31
0.0
  0
SOLID
  5
DC
  8
0
 62
     0
 10
615.18025258379987
 20
-78.758966573100011
 30
0.0
 11
616.68025258379998
 21
-84.758966573099997
 31
0.0
 12
613.68025258379998
 22
-84.758966573099997
 32
0.0
 13
615.18025258379987
 23
-83.258966573100025
 33
0.0
  0
ENDBLK
  5
DD
  8
0
  0
BLOCK
  8
0
  2
*D11
 70
     1
 10
0.0
 20
0.0
 30
0.0
  3
*D11
  1

  0
TEXT
  5
E1
  8
0
 62
     0
 10
838.7946614901
 20
-214.5506330808
 30
0.0
 40
5.9972220420999998
  1
104
 50
90.0
  0
LINE
  5
E2
  8
0
 62
     0
 10
862.36480801899995
 20
-169.7589665731
 30
0.0
 11
840.35299479169998
 21
-169.7589665731
 31
0.0
  0
LINE
  5
E3
  8
0
 62
     0
 10
872.36480801899995
 20
-248.7589665731
 30
0.0
 11
840.35299479169998
 21
-248.7589665731
 31
0.0
  0
LINE
  5
E4
  8
0
 62
     0
 10
840.85299479169987
 20
-169.7589665731
 30
0.0
 11
840.85299479169987
 21
-200.4395223935
 31
0.0
  0
LINE
  5
E5
  8
0
 62
     0
 10
840.85299479169987
 20
-169.7589665731
 30
0.0
 11
840.85299479169987
 21
-218.07841075260001
 31
0.0
  0
LINE
  5
E6
  8
0
 62
     0
 10
840.85299479169987
 20
-248.7589665731
 30
0.0
 11
840.85299479169987
 21
-200.4395223935
 31
0.0
  0
LINE
  5
E7
  8
0
 62
     0
 10
840.85299479169987
 20
-248.7589665731
 30
0.0
 11
840.85299479169987
 21
-218.07841075260001
 31
0.0
  0
LINE
  5
E8
  8
0
 62
     0
 10
840.85299479169987
 20
-248.7589665731
 30
0.0
 11
840.85299479169987
 21
-245.7589665731
 31
0.0
  0
SOLID
  5
E9
  8
0
 62
     0
 10
840.85299479169987
 20
-248.7589665731
 30
0.0
 11
839.35299479169987
 21
-242.7589665731
 31
0.0
 12
842.35299479169998
 22
-242.7589665731
 32
0.0
 13
840.85299479169987
 23
-244.2589665731
 33
0.0
  0
LINE
  5
EA
  8
0
 62
     0
 10
840.85299479169987
 20
-169.7589665731
 30
0.0
 11
840.85299479169987
 21
-172.7589665731
 31
0.0
  0
SOLID
  5
EB
  8
0
 62
     0
 10
840.85299479169987
 20
-169.7589665731
 30
0.0
 11
842.35299479169998
 21
-175.7589665731
 31
0.0
 12
839.35299479169987
 22
-175.7589665731
 32
0.0
 13
840.85299479169987
 23
-174.2589665731
 33
0.0
  0
ENDBLK
  5
EC
  8
0
  0
BLOCK
  8
0
  2
*D12
 70
     1
 10
0.0
 20
0.0
 30
0.0
  3
*D12
  1

  0
TEXT
  5
F0
  8
0
 62
     0
 10
838.7856205303998
 20
-135.5506330808
 30
0.0
 40
5.9972220420999998
  1
104
 50
90.0
  0
LINE
  5
F1
  8
0
 62
     0
 10
867.36480801899995
 20
-90.758966573099997
 30
0.0
 11
840.34395383200001
 21
-90.758966573099997
 31
0.0
  0
LINE
  5
F2
  8
0
 62
     0
 10
862.36480801899995
 20
-169.7589665731
 30
0.0
 11
840.34395383200001
 21
-169.7589665731
 31
0.0
  0
LINE
  5
F3
  8
0
 62
     0
 10
840.8439538319999
 20
-90.758966573099997
 30
0.0
 11
840.8439538319999
 21
-121.4395223935
 31
0.0
  0
LINE
  5
F4
  8
0
 62
     0
 10
840.8439538319999
 20
-90.758966573099997
 30
0.0
 11
840.8439538319999
 21
-139.07841075260001
 31
0.0
  0
LINE
  5
F5
  8
0
 62
     0
 10
840.8439538319999
 20
-169.7589665731
 30
0.0
 11
840.8439538319999
 21
-121.4395223935
 31
0.0
  0
LINE
  5
F6
  8
0
 62
     0
 10
840.8439538319999
 20
-169.7589665731
 30
0.0
 11
840.8439538319999
 21
-139.07841075260001
 31
0.0
  0
LINE
  5
F7
  8
0
 62
     0
 10
840.8439538319999
 20
-169.7589665731
 30
0.0
 11
840.8439538319999
 21
-166.7589665731
 31
0.0
  0
SOLID
  5
F8
  8
0
 62
     0
 10
840.8439538319999
 20
-169.7589665731
 30
0.0
 11
839.34395383200001
 21
-163.7589665731
 31
0.0
 12
842.34395383200001
 22
-163.7589665731
 32
0.0
 13
840.8439538319999
 23
-165.2589665731
 33
0.0
  0
LINE
  5
F9
  8
0
 62
     0
 10
840.8439538319999
 20
-90.758966573099997
 30
0.0
 11
840.8439538319999
 21
-93.758966573099997
 31
0.0
  0
SOLID
  5
FA
  8
0
 62
     0
 10
840.8439538319999
 20
-90.758966573099997
 30
0.0
 11
842.34395383200001
 21
-96.758966573099997
 31
0.0
 12
839.34395383200001
 22
-96.758966573099997
 32
0.0
 13
840.8439538319999
 23
-95.258966573099997
 33
0.0
  0
ENDBLK
  5
FB
  8
0
  0
BLOCK
  8
0
  2
*D13
 70
     1
 10
0.0
 20
0.0
 30
0.0
  3
*D13
  1

  0
TEXT
  5
FF
  8
0
 62
     0
 10
881.33703034719997
 20
-219.41025088629999
 30
0.0
 40
5.9972220420999998
  1
11
  0
LINE
  5
100
  8
0
 62
     0
 10
890.36480801899995
 20
-241.7589665731
 30
0.0
 11
890.36480801899995
 21
-220.96858418779999
 31
0.0
  0
LINE
  5
101
  8
0
 62
     0
 10
879.36480801899995
 20
-241.7589665731
 30
0.0
 11
879.36480801899995
 21
-220.96858418779999
 31
0.0
  0
LINE
  5
102
  8
0
 62
     0
 10
890.36480801899995
 20
-221.46858418779999
 30
0.0
 11
890.36480801899995
 21
-221.46858418779999
 31
0.0
  0
LINE
  5
103
  8
0
 62
     0
 10
890.36480801899995
 20
-221.46858418779999
 30
0.0
 11
879.36480801899995
 21
-221.46858418779999
 31
0.0
  0
LINE
  5
104
  8
0
 62
     0
 10
879.36480801899995
 20
-221.46858418779999
 30
0.0
 11
890.36480801899995
 21
-221.46858418779999
 31
0.0
  0
LINE
  5
105
  8
0
 62
     0
 10
879.36480801899995
 20
-221.46858418779999
 30
0.0
 11
879.36480801899995
 21
-221.46858418779999
 31
0.0
  0
LINE
  5
106
  8
0
 62
     0
 10
879.36480801899995
 20
-221.46858418779999
 30
0.0
 11
876.36480801899995
 21
-221.46858418779999
 31
0.0
  0
SOLID
  5
107
  8
0
 62
     0
 10
879.36480801899995
 20
-221.46858418779999
 30
0.0
 11
873.36480801899995
 21
-222.96858418779999
 31
0.0
 12
873.36480801899995
 22
-219.96858418779999
 32
0.0
 13
874.86480801899995
 23
-221.46858418779999
 33
0.0
  0
LINE
  5
108
  8
0
 62
     0
 10
890.36480801899995
 20
-221.46858418779999
 30
0.0
 11
893.36480801899995
 21
-221.46858418779999
 31
0.0
  0
SOLID
  5
109
  8
0
 62
     0
 10
890.36480801899995
 20
-221.46858418779999
 30
0.0
 11
896.36480801899995
 21
-219.96858418779999
 31
0.0
 12
896.36480801899995
 22
-222.96858418779999
 32
0.0
 13
894.86480801899995
 23
-221.46858418779999
 33
0.0
  0
ENDBLK
  5
10A
  8
0
  0
BLOCK
  8
0
  2
*D14
 70
     1
 10
0.0
 20
0.0
 30
0.0
  3
*D14
  1

  0
TEXT
  5
10E
  8
0
 62
     0
 10
870.39965737660009
 20
-203.22665713629999
 30
0.0
 40
5.9972220420999998
  1
10
  0
LINE
  5
10F
  8
0
 62
     0
 10
879.36480801899995
 20
-243.5089665731
 30
0.0
 11
879.36480801899995
 21
-204.78499043779999
 31
0.0
  0
LINE
  5
110
  8
0
 62
     0
 10
869.36480801899995
 20
-176.7589665731
 30
0.0
 11
869.36480801899995
 21
-205.78499043779999
 31
0.0
  0
LINE
  5
111
  8
0
 62
     0
 10
879.36480801899995
 20
-205.28499043779999
 30
0.0
 11
879.36480801899995
 21
-205.28499043779999
 31
0.0
  0
LINE
  5
112
  8
0
 62
     0
 10
879.36480801899995
 20
-205.28499043779999
 30
0.0
 11
869.36480801899995
 21
-205.28499043779999
 31
0.0
  0
LINE
  5
113
  8
0
 62
     0
 10
869.36480801899995
 20
-205.28499043779999
 30
0.0
 11
879.36480801899995
 21
-205.28499043779999
 31
0.0
  0
LINE
  5
114
  8
0
 62
     0
 10
869.36480801899995
 20
-205.28499043779999
 30
0.0
 11
869.36480801899995
 21
-205.28499043779999
 31
0.0
  0
LINE
  5
115
  8
0
 62
     0
 10
869.36480801899995
 20
-205.28499043779999
 30
0.0
 11
866.36480801899984
 21
-205.28499043779999
 31
0.0
  0
SOLID
  5
116
  8
0
 62
     0
 10
869.36480801899995
 20
-205.28499043779999
 30
0.0
 11
863.36480801899995
 21
-206.78499043779999
 31
0.0
 12
863.36480801899995
 22
-203.78499043779999
 32
0.0
 13
864.86480801899995
 23
-205.28499043779999
 33
0.0
  0
LINE
  5
117
  8
0
 62
     0
 10
879.36480801899995
 20
-205.28499043779999
 30
0.0
 11
882.36480801899995
 21
-205.28499043779999
 31
0.0
  0
SOLID
  5
118
  8
0
 62
     0
 10
879.36480801899995
 20
-205.28499043779999
 30
0.0
 11
885.36480801899995
 21
-203.78499043779999
 31
0.0
 12
885.36480801899995
 22
-206.78499043779999
 32
0.0
 13
883.86480801899995
 23
-205.28499043779999
 33
0.0
  0
ENDBLK
  5
119
  8
0
  0
BLOCK
  8
0
  2
*D15
 70
     1
 10
0.0
 20
0.0
 30
0.0
  3
*D15
  1

  0
TEXT
  5
11D
  8
0
 62
     0
 10
860.33703034719986
 20
-134.03233900070001
 30
0.0
 40
5.9972220420999998
  1
11
  0
LINE
  5
11E
  8
0
 62
     0
 10
869.36480801899995
 20
-162.7589665731
 30
0.0
 11
869.36480801899995
 21
-135.59067230220001
 31
0.0
  0
LINE
  5
11F
  8
0
 62
     0
 10
858.36480801899995
 20
-156.38105468750001
 30
0.0
 11
858.36480801899995
 21
-135.59067230220001
 31
0.0
  0
LINE
  5
120
  8
0
 62
     0
 10
869.36480801899995
 20
-136.09067230220001
 30
0.0
 11
869.36480801899995
 21
-136.09067230220001
 31
0.0
  0
LINE
  5
121
  8
0
 62
     0
 10
869.36480801899995
 20
-136.09067230220001
 30
0.0
 11
858.36480801899995
 21
-136.09067230220001
 31
0.0
  0
LINE
  5
122
  8
0
 62
     0
 10
858.36480801899995
 20
-136.09067230220001
 30
0.0
 11
869.36480801899995
 21
-136.09067230220001
 31
0.0
  0
LINE
  5
123
  8
0
 62
     0
 10
858.36480801899995
 20
-136.09067230220001
 30
0.0
 11
858.36480801899995
 21
-136.09067230220001
 31
0.0
  0
LINE
  5
124
  8
0
 62
     0
 10
858.36480801899995
 20
-136.09067230220001
 30
0.0
 11
855.36480801899995
 21
-136.09067230220001
 31
0.0
  0
SOLID
  5
125
  8
0
 62
     0
 10
858.36480801899995
 20
-136.09067230220001
 30
0.0
 11
852.36480801899995
 21
-137.59067230220001
 31
0.0
 12
852.36480801899995
 22
-134.59067230220001
 32
0.0
 13
853.86480801899984
 23
-136.09067230220001
 33
0.0
  0
LINE
  5
126
  8
0
 62
     0
 10
869.36480801899995
 20
-136.09067230220001
 30
0.0
 11
872.36480801899995
 21
-136.09067230220001
 31
0.0
  0
SOLID
  5
127
  8
0
 62
     0
 10
869.36480801899995
 20
-136.09067230220001
 30
0.0
 11
875.36480801899995
 21
-134.59067230220001
 31
0.0
 12
875.36480801899995
 22
-137.59067230220001
 32
0.0
 13
873.86480801899995
 23
-136.09067230220001
 33
0.0
  0
ENDBLK
  5
128
  8
0
  0
BLOCK
  8
0
  2
*D16
 70
     1
 10
0.0
 20
0.0
 30
0.0
  3
*D16
  1

  0
TEXT
  5
12C
  8
0
 62
     0
 10
838.74436381660007
 20
-88.510051536600002
 30
0.0
 40
5.9972220420999998
  1
12
 50
90.0
  0
LINE
  5
12D
  8
0
 62
     0
 10
857.36480801899995
 20
-78.758966573100011
 30
0.0
 11
840.30269711810013
 21
-78.758966573100011
 31
0.0
  0
LINE
  5
12E
  8
0
 62
     0
 10
872.36480801899995
 20
-90.758966573099997
 30
0.0
 11
840.30269711810013
 21
-90.758966573099997
 31
0.0
  0
LINE
  5
12F
  8
0
 62
     0
 10
840.80269711810001
 20
-78.758966573100011
 30
0.0
 11
840.80269711810001
 21
-78.758966573100011
 31
0.0
  0
LINE
  5
130
  8
0
 62
     0
 10
840.80269711810001
 20
-78.758966573100011
 30
0.0
 11
840.80269711810001
 21
-90.758966573099997
 31
0.0
  0
LINE
  5
131
  8
0
 62
     0
 10
840.80269711810001
 20
-90.758966573099997
 30
0.0
 11
840.80269711810001
 21
-78.758966573100011
 31
0.0
  0
LINE
  5
132
  8
0
 62
     0
 10
840.80269711810001
 20
-90.758966573099997
 30
0.0
 11
840.80269711810001
 21
-90.758966573099997
 31
0.0
  0
LINE
  5
133
  8
0
 62
     0
 10
840.80269711810001
 20
-90.758966573099997
 30
0.0
 11
840.80269711810001
 21
-87.758966573099997
 31
0.0
  0
SOLID
  5
134
  8
0
 62
     0
 10
840.80269711810001
 20
-90.758966573099997
 30
0.0
 11
839.3026971180999
 21
-84.758966573099997
 31
0.0
 12
842.30269711810001
 22
-84.758966573099997
 32
0.0
 13
840.80269711810001
 23
-86.258966573099997
 33
0.0
  0
LINE
  5
135
  8
0
 62
     0
 10
840.80269711810001
 20
-78.758966573100011
 30
0.0
 11
840.80269711810001
 21
-81.758966573100011
 31
0.0
  0
SOLID
  5
136
  8
0
 62
     0
 10
840.80269711810001
 20
-78.758966573100011
 30
0.0
 11
842.30269711810001
 21
-84.758966573099997
 31
0.0
 12
839.3026971180999
 22
-84.758966573099997
 32
0.0
 13
840.80269711810001
 23
-83.258966573100025
 33
0.0
  0
ENDBLK
  5
137
  8
0
  0
BLOCK
  8
0
  2
*D17
 70
     1
 10
0.0
 20
0.0
 30
0.0
  3
*D17
  1

  0
TEXT
  5
13B
  8
0
 62
     0
 10
894.22895743050003
 20
-57.584079011299998
 30
0.0
 40
5.9972220420999998
  1
16
  0
LINE
  5
13C
  8
0
 62
     0
 10
890.36480801899995
 20
-77.758966573100011
 30
0.0
 11
890.36480801899995
 21
-59.142412312799998
 31
0.0
  0
LINE
  5
13D
  8
0
 62
     0
 10
874.36480801899984
 20
-83.758966573100011
 30
0.0
 11
874.36480801899984
 21
-59.142412312799998
 31
0.0
  0
LINE
  5
13E
  8
0
 62
     0
 10
890.36480801899995
 20
-59.642412312799991
 30
0.0
 11
904.81229044599991
 21
-59.642412312799991
 31
0.0
  0
LINE
  5
13F
  8
0
 62
     0
 10
890.36480801899995
 20
-59.642412312799991
 30
0.0
 11
890.70117975869994
 21
-59.642412312799991
 31
0.0
  0
LINE
  5
140
  8
0
 62
     0
 10
874.36480801899984
 20
-59.642412312799991
 30
0.0
 11
904.81229044599991
 21
-59.642412312799991
 31
0.0
  0
LINE
  5
141
  8
0
 62
     0
 10
874.36480801899984
 20
-59.642412312799991
 30
0.0
 11
890.70117975869994
 21
-59.642412312799991
 31
0.0
  0
LINE
  5
142
  8
0
 62
     0
 10
874.36480801899984
 20
-59.642412312799991
 30
0.0
 11
877.36480801899995
 21
-59.642412312799991
 31
0.0
  0
SOLID
  5
143
  8
0
 62
     0
 10
874.36480801899984
 20
-59.642412312799991
 30
0.0
 11
880.36480801899995
 21
-58.142412312799998
 31
0.0
 12
880.36480801899995
 22
-61.142412312799998
 32
0.0
 13
878.86480801899984
 23
-59.642412312799991
 33
0.0
  0
LINE
  5
144
  8
0
 62
     0
 10
890.36480801899995
 20
-59.642412312799991
 30
0.0
 11
887.36480801899995
 21
-59.642412312799991
 31
0.0
  0
SOLID
  5
145
  8
0
 62
     0
 10
890.36480801899995
 20
-59.642412312799991
 30
0.0
 11
884.36480801899995
 21
-61.142412312799998
 31
0.0
 12
884.36480801899995
 22
-58.142412312799998
 32
0.0
 13
885.86480801899995
 23
-59.642412312799991
 33
0.0
  0
ENDBLK
  5
146
  8
0
  0
BLOCK
  8
0
  2
*D18
 70
     1
 10
0.0
 20
0.0
 30
0.0
  3
*D18
  1

  0
TEXT
  5
14A
  8
0
 62
     0
 10
844.46479727429983
 20
-57.584079011299998
 30
0.0
 40
5.9972220420999998
  1
16
  0
LINE
  5
14B
  8
0
 62
     0
 10
874.36480801899984
 20
-83.758966573100011
 30
0.0
 11
874.36480801899984
 21
-59.142412312799998
 31
0.0
  0
LINE
  5
14C
  8
0
 62
     0
 10
858.36480801899995
 20
-77.758966573100011
 30
0.0
 11
858.36480801899995
 21
-59.142412312799998
 31
0.0
  0
LINE
  5
14D
  8
0
 62
     0
 10
874.36480801899984
 20
-59.642412312799991
 30
0.0
 11
855.04813028969988
 21
-59.642412312799991
 31
0.0
  0
LINE
  5
14E
  8
0
 62
     0
 10
874.36480801899984
 20
-59.642412312799991
 30
0.0
 11
840.93701960249984
 21
-59.642412312799991
 31
0.0
  0
LINE
  5
14F
  8
0
 62
     0
 10
858.36480801899995
 20
-59.642412312799991
 30
0.0
 11
855.04813028969988
 21
-59.642412312799991
 31
0.0
  0
LINE
  5
150
  8
0
 62
     0
 10
858.36480801899995
 20
-59.642412312799991
 30
0.0
 11
840.93701960249984
 21
-59.642412312799991
 31
0.0
  0
LINE
  5
151
  8
0
 62
     0
 10
858.36480801899995
 20
-59.642412312799991
 30
0.0
 11
861.36480801899995
 21
-59.642412312799991
 31
0.0
  0
SOLID
  5
152
  8
0
 62
     0
 10
858.36480801899995
 20
-59.642412312799991
 30
0.0
 11
864.36480801899995
 21
-58.142412312799998
 31
0.0
 12
864.36480801899995
 22
-61.142412312799998
 32
0.0
 13
862.86480801899995
 23
-59.642412312799991
 33
0.0
  0
LINE
  5
153
  8
0
 62
     0
 10
874.36480801899984
 20
-59.642412312799991
 30
0.0
 11
871.36480801899995
 21
-59.642412312799991
 31
0.0
  0
SOLID
  5
154
  8
0
 62
     0
 10
874.36480801899984
 20
-59.642412312799991
 30
0.0
 11
868.36480801899995
 21
-61.142412312799998
 31
0.0
 12
868.36480801899995
 22
-58.142412312799998
 32
0.0
 13
869.86480801899995
 23
-59.642412312799991
 33
0.0
  0
ENDBLK
  5
155
  8
0
  0
BLOCK
  8
0
  2
*D19
 70
     1
 10
0.0
 20
0.0
 30
0.0
  3
*D19
  1

  0
TEXT
  5
159
  8
0
 62
     0
 10
612.13027346930005
 20
-372.94620215100002
 30
0.0
 40
5.9972220420999998
  1
32
 50
90.0
  0
LINE
  5
15A
  8
0
 62
     0
 10
634.51770833329988
 20
-353.41842447919998
 30
0.0
 11
613.68860677079988
 21
-353.41842447919998
 31
0.0
  0
LINE
  5
15B
  8
0
 62
     0
 10
634.51770833329988
 20
-385.41842447919998
 30
0.0
 11
613.68860677079988
 21
-385.41842447919998
 31
0.0
  0
LINE
  5
15C
  8
0
 62
     0
 10
614.18860677079999
 20
-353.41842447919998
 30
0.0
 11
614.18860677079999
 21
-362.36286913549998
 31
0.0
  0
LINE
  5
15D
  8
0
 62
     0
 10
614.18860677079999
 20
-353.41842447919998
 30
0.0
 11
614.18860677079999
 21
-376.4739798228
 31
0.0
  0
LINE
  5
15E
  8
0
 62
     0
 10
614.18860677079999
 20
-385.41842447919998
 30
0.0
 11
614.18860677079999
 21
-362.36286913549998
 31
0.0
  0
LINE
  5
15F
  8
0
 62
     0
 10
614.18860677079999
 20
-385.41842447919998
 30
0.0
 11
614.18860677079999
 21
-376.4739798228
 31
0.0
  0
LINE
  5
160
  8
0
 62
     0
 10
614.18860677079999
 20
-385.41842447919998
 30
0.0
 11
614.18860677079999
 21
-382.41842447919998
 31
0.0
  0
SOLID
  5
161
  8
0
 62
     0
 10
614.18860677079999
 20
-385.41842447919998
 30
0.0
 11
612.68860677079988
 21
-379.41842447919998
 31
0.0
 12
615.68860677079999
 22
-379.41842447919998
 32
0.0
 13
614.18860677079999
 23
-380.91842447919998
 33
0.0
  0
LINE
  5
162
  8
0
 62
     0
 10
614.18860677079999
 20
-353.41842447919998
 30
0.0
 11
614.18860677079999
 21
-356.41842447919998
 31
0.0
  0
SOLID
  5
163
  8
0
 62
     0
 10
614.18860677079999
 20
-353.41842447919998
 30
0.0
 11
615.68860677079999
 21
-359.41842447919998
 31
0.0
 12
612.68860677079988
 22
-359.41842447919998
 32
0.0
 13
614.18860677079999
 23
-357.91842447919998
 33
0.0
  0
ENDBLK
  5
164
  8
0
  0
BLOCK
  8
0
  2
*D20
 70
     1
 10
0.0
 20
0.0
 30
0.0
  3
*D20
  1

  0
TEXT
  5
169
  8
0
 62
     0
 10
696.15424934809994
 20
-210.73236935150001
 30
0.0
 40
5.9972220420999998
  1
90%%d
 50
314.95523490750003
  0
ARC
  5
16A
  8
0
 62
     0
 10
640.01770833329999
 20
-274.2589665731
 30
0.0
 40
81.435508055299991
 50
84.819257531600002
 51
90.0
  0
ARC
  5
16B
  8
0
 62
     0
 10
640.01770833329999
 20
-274.2589665731
 30
0.0
 40
81.435508055299991
 50
0.0
 51
5.1807424684000001
  0
SOLID
  5
16C
  8
0
 62
     0
 10
721.45321638860003
 20
-274.2589665731
 30
0.0
 11
722.95321638860003
 21
-280.2589665731
 31
0.0
 12
719.95321638860003
 22
-280.2589665731
 32
0.0
 13
721.45321638860003
 23
-278.7589665731
 33
0.0
  0
SOLID
  5
16D
  8
0
 62
     0
 10
640.01770833329999
 20
-192.82345851779999
 30
0.0
 11
634.01770833329988
 21
-194.32345851779999
 31
0.0
 12
634.01770833329988
 22
-191.32345851779999
 32
0.0
 13
635.51770833329999
 23
-192.82345851779999
 33
0.0
  0
ARC
  5
16E
  8
0
 62
     0
 10
640.01770833329999
 20
-274.2589665731
 30
0.0
 40
81.435508055299991
 50
0.0
 51
38.666079981899998
  0
ARC
  5
16F
  8
0
 62
     0
 10
640.01770833329999
 20
-274.2589665731
 30
0.0
 40
81.435508055299991
 50
51.244389833100001
 51
90.0
  0
LINE
  5
170
  8
0
 62
     0
 10
756.51770833329999
 20
-274.2589665731
 30
0.0
 11
717.45321638860003
 21
-274.2589665731
 31
0.0
  0
LINE
  5
171
  8
0
 62
     0
 10
640.01770833329999
 20
-82.758966573100011
 30
0.0
 11
640.01770833329999
 21
-196.82345851779999
 31
0.0
  0
ENDBLK
  5
172
  8
0
  0
BLOCK
  8
0
  2
*D21
 70
     1
 10
0.0
 20
0.0
 30
0.0
  3
*D21
  1

  0
TEXT
  5
176
  8
0
 62
     0
 10
1002.7113818779
 20
-189.80627551599991
 30
0.0
 40
5.9972220420999998
  1
%%c8.5
  0
LINE
  5
177
  8
0
 62
     0
 10
990.28082605740008
 20
-171.27481893340001
 30
0.0
 11
990.28082605740008
 21
-192.3646088175
 31
0.0
  0
LINE
  5
178
  8
0
 62
     0
 10
1032.7808260574
 20
-171.27481893340001
 30
0.0
 11
1032.7808260574
 21
-192.3646088175
 31
0.0
  0
LINE
  5
179
  8
0
 62
     0
 10
990.28082605740008
 20
-191.8646088175
 30
0.0
 11
1023.8780479088
 21
-191.8646088175
 31
0.0
  0
LINE
  5
17A
  8
0
 62
     0
 10
990.28082605740008
 20
-191.8646088175
 30
0.0
 11
999.18360420609986
 21
-191.8646088175
 31
0.0
  0
LINE
  5
17B
  8
0
 62
     0
 10
1032.7808260574
 20
-191.8646088175
 30
0.0
 11
1023.8780479088
 21
-191.8646088175
 31
0.0
  0
LINE
  5
17C
  8
0
 62
     0
 10
1032.7808260574
 20
-191.8646088175
 30
0.0
 11
999.18360420609986
 21
-191.8646088175
 31
0.0
  0
LINE
  5
17D
  8
0
 62
     0
 10
1032.7808260574
 20
-191.8646088175
 30
0.0
 11
1029.7808260574
 21
-191.8646088175
 31
0.0
  0
SOLID
  5
17E
  8
0
 62
     0
 10
1032.7808260574
 20
-191.8646088175
 30
0.0
 11
1026.7808260574
 21
-193.3646088175
 31
0.0
 12
1026.7808260574
 22
-190.3646088175
 32
0.0
 13
1028.2808260574
 23
-191.8646088175
 33
0.0
  0
LINE
  5
17F
  8
0
 62
     0
 10
990.28082605740008
 20
-191.8646088175
 30
0.0
 11
993.28082605740008
 21
-191.8646088175
 31
0.0
  0
SOLID
  5
180
  8
0
 62
     0
 10
990.28082605740008
 20
-191.8646088175
 30
0.0
 11
996.28082605739996
 21
-190.3646088175
 31
0.0
 12
996.28082605739996
 22
-193.3646088175
 32
0.0
 13
994.78082605740008
 23
-191.8646088175
 33
0.0
  0
ENDBLK
  5
181
  8
0
  0
BLOCK
  8
0
  2
*D22
 70
     1
 10
0.0
 20
0.0
 30
0.0
  3
*D22
  1

  0
TEXT
  5
185
  8
0
 62
     0
 10
1006.2391595497
 20
-206.5769328566
 30
0.0
 40
5.9972220420999998
  1
90%%d
  0
ARC
  5
186
  8
0
 62
     0
 10
1011.5308260574
 20
-149.02481893340001
 30
0.0
 40
60.72711382779999
 50
307.80639578839998
 51
315.0
  0
ARC
  5
187
  8
0
 62
     0
 10
1011.5308260574
 20
-149.02481893340001
 30
0.0
 40
60.72711382779999
 50
225.0
 51
232.19360421159999
  0
SOLID
  5
188
  8
0
 62
     0
 10
968.59027206789995
 20
-191.9653729229
 30
0.0
 11
963.28697120899983
 21
-188.78339240759999
 31
0.0
 12
965.40829155259996
 22
-186.662072064
 32
0.0
 13
965.40829155259996
 23
-188.78339240759999
 33
0.0
  0
SOLID
  5
189
  8
0
 62
     0
 10
1054.4713800469001
 20
-191.9653729229
 30
0.0
 11
1057.6533605622999
 21
-186.662072064
 31
0.0
 12
1059.7746809058001
 22
-188.78339240759999
 32
0.0
 13
1057.6533605622999
 23
-188.78339240759999
 33
0.0
  0
ARC
  5
18A
  8
0
 62
     0
 10
1011.5308260574
 20
-149.02481893340001
 30
0.0
 40
60.72711382779999
 50
225.0
 51
259.59443814359997
  0
ARC
  5
18B
  8
0
 62
     0
 10
1011.5308260574
 20
-149.02481893340001
 30
0.0
 40
60.72711382779999
 50
280.40556185639991
 51
315.0
  0
LINE
  5
18C
  8
0
 62
     0
 10
987.4046755503
 20
-173.15096944050001
 30
0.0
 11
965.71412156079998
 21
-194.84152343
 31
0.0
  0
LINE
  5
18D
  8
0
 62
     0
 10
1035.6569765644999
 20
-173.15096944050001
 30
0.0
 11
1057.3475305540001
 21
-194.84152343
 31
0.0
  0
ENDBLK
  5
18E
  8
0
  0
BLOCK
  8
0
  2
*D23
 70
     1
 10
0.0
 20
0.0
 30
0.0
  3
*D23
  1

  0
TEXT
  5
192
  8
0
 62
     0
 10
1002.7113818779
 20
-109.218644486
 30
0.0
 40
5.9972220420999998
  1
%%c8.5
  0
LINE
  5
193
  8
0
 62
     0
 10
1032.7808260574
 20
-146.77481893340001
 30
0.0
 11
1032.7808260574
 21
-110.7769777876
 31
0.0
  0
LINE
  5
194
  8
0
 62
     0
 10
990.28082605740008
 20
-146.77481893340001
 30
0.0
 11
990.28082605740008
 21
-110.7769777876
 31
0.0
  0
LINE
  5
195
  8
0
 62
     0
 10
1032.7808260574
 20
-111.2769777876
 30
0.0
 11
1023.8780479088
 21
-111.2769777876
 31
0.0
  0
LINE
  5
196
  8
0
 62
     0
 10
1032.7808260574
 20
-111.2769777876
 30
0.0
 11
999.18360420609986
 21
-111.2769777876
 31
0.0
  0
LINE
  5
197
  8
0
 62
     0
 10
990.28082605740008
 20
-111.2769777876
 30
0.0
 11
1023.8780479088
 21
-111.2769777876
 31
0.0
  0
LINE
  5
198
  8
0
 62
     0
 10
990.28082605740008
 20
-111.2769777876
 30
0.0
 11
999.18360420609986
 21
-111.2769777876
 31
0.0
  0
LINE
  5
199
  8
0
 62
     0
 10
990.28082605740008
 20
-111.2769777876
 30
0.0
 11
993.28082605740008
 21
-111.2769777876
 31
0.0
  0
SOLID
  5
19A
  8
0
 62
     0
 10
990.28082605740008
 20
-111.2769777876
 30
0.0
 11
996.28082605739996
 21
-109.7769777876
 31
0.0
 12
996.28082605739996
 22
-112.7769777876
 32
0.0
 13
994.78082605740008
 23
-111.2769777876
 33
0.0
  0
LINE
  5
19B
  8
0
 62
     0
 10
1032.7808260574
 20
-111.2769777876
 30
0.0
 11
1029.7808260574
 21
-111.2769777876
 31
0.0
  0
SOLID
  5
19C
  8
0
 62
     0
 10
1032.7808260574
 20
-111.2769777876
 30
0.0
 11
1026.7808260574
 21
-112.7769777876
 31
0.0
 12
1026.7808260574
 22
-109.7769777876
 32
0.0
 13
1028.2808260574
 23
-111.2769777876
 33
0.0
  0
ENDBLK
  5
19D
  8
0
  0
BLOCK
  8
0
  2
*D24
 70
     1
 10
0.0
 20
0.0
 30
0.0
  3
*D24
  1

  0
TEXT
  5
1A1
  8
0
 62
     0
 10
1006.2391595497
 20
-123.27463406939999
 30
0.0
 40
5.9972220420999998
  1
%%c5
  0
LINE
  5
1A2
  8
0
 62
     0
 10
1024.0308260574
 20
-155.52481893340001
 30
0.0
 11
1024.0308260574
 21
-124.83296737089999
 31
0.0
  0
LINE
  5
1A3
  8
0
 62
     0
 10
999.03082605739996
 20
-155.52481893340001
 30
0.0
 11
999.03082605739996
 21
-124.83296737089999
 31
0.0
  0
LINE
  5
1A4
  8
0
 62
     0
 10
1024.0308260574
 20
-125.33296737089999
 30
0.0
 11
1020.3502702369
 21
-125.33296737089999
 31
0.0
  0
LINE
  5
1A5
  8
0
 62
     0
 10
1024.0308260574
 20
-125.33296737089999
 30
0.0
 11
1002.7113818779
 21
-125.33296737089999
 31
0.0
  0
LINE
  5
1A6
  8
0
 62
     0
 10
999.03082605739996
 20
-125.33296737089999
 30
0.0
 11
1020.3502702369
 21
-125.33296737089999
 31
0.0
  0
LINE
  5
1A7
  8
0
 62
     0
 10
999.03082605739996
 20
-125.33296737089999
 30
0.0
 11
1002.7113818779
 21
-125.33296737089999
 31
0.0
  0
LINE
  5
1A8
  8
0
 62
     0
 10
999.03082605739996
 20
-125.33296737089999
 30
0.0
 11
996.03082605739996
 21
-125.33296737089999
 31
0.0
  0
SOLID
  5
1A9
  8
0
 62
     0
 10
999.03082605739996
 20
-125.33296737089999
 30
0.0
 11
993.03082605740008
 21
-126.83296737089999
 31
0.0
 12
993.03082605740008
 22
-123.83296737089999
 32
0.0
 13
994.53082605739996
 23
-125.33296737089999
 33
0.0
  0
LINE
  5
1AA
  8
0
 62
     0
 10
1024.0308260574
 20
-125.33296737089999
 30
0.0
 11
1027.0308260574
 21
-125.33296737089999
 31
0.0
  0
SOLID
  5
1AB
  8
0
 62
     0
 10
1024.0308260574
 20
-125.33296737089999
 30
0.0
 11
1030.0308260574
 21
-123.83296737089999
 31
0.0
 12
1030.0308260574
 22
-126.83296737089999
 32
0.0
 13
1028.5308260574
 23
-125.33296737089999
 33
0.0
  0
ENDBLK
  5
1AC
  8
0
  0
BLOCK
  8
0
  2
*D25
 70
     1
 10
0.0
 20
0.0
 30
0.0
  3
*D25
  1

  0
TEXT
  5
1B0
  8
0
 62
     0
 10
1006.2391595497
 20
-94.748787778799979
 30
0.0
 40
5.9972220420999998
  1
90%%d
  0
ARC
  5
1B1
  8
0
 62
     0
 10
1011.5308260574
 20
-169.02481893340001
 30
0.0
 40
71.101031250000005
 50
128.98544162269999
 51
135.0
  0
ARC
  5
1B2
  8
0
 62
     0
 10
1011.5308260574
 20
-169.02481893340001
 30
0.0
 40
71.101031250000005
 50
45.0
 51
51.014558377299998
  0
SOLID
  5
1B3
  8
0
 62
     0
 10
1061.8068474035999
 20
-118.7487975872
 30
0.0
 11
1067.1101482624999
 21
-121.9307781025
 31
0.0
 12
1064.988827919
 22
-124.0520984461
 32
0.0
 13
1064.988827919
 23
-121.9307781025
 33
0.0
  0
SOLID
  5
1B4
  8
0
 62
     0
 10
961.25480471119988
 20
-118.7487975872
 30
0.0
 11
958.07282419579985
 21
-124.0520984461
 31
0.0
 12
955.95150385229999
 22
-121.9307781025
 32
0.0
 13
958.07282419579985
 23
-121.9307781025
 33
0.0
  0
ARC
  5
1B5
  8
0
 62
     0
 10
1011.5308260574
 20
-169.02481893340001
 30
0.0
 40
71.101031250000005
 50
45.0
 51
82.787408699499991
  0
ARC
  5
1B6
  8
0
 62
     0
 10
1011.5308260574
 20
-169.02481893340001
 30
0.0
 40
71.101031250000005
 50
97.212591300499994
 51
135.0
  0
LINE
  5
1B7
  8
0
 62
     0
 10
1035.6569765644999
 20
-144.89866842629999
 30
0.0
 11
1064.6829979106999
 21
-115.87264708009999
 31
0.0
  0
LINE
  5
1B8
  8
0
 62
     0
 10
987.4046755503
 20
-144.89866842629999
 30
0.0
 11
958.37865420410003
 21
-115.87264708009999
 31
0.0
  0
ENDBLK
  5
1B9
  8
0
  0
BLOCK
  8
0
  2
CLUMP0
 70
     0
 10
0.0
 20
0.0
 30
0.0
  3
CLUMP0
  1

  0
CIRCLE
  5
22A
  8
┌▓È_1
 62
     5
 10
869.36480801899995
 20
-169.7589665731
 30
0.0
 40
2.5
  0
CIRCLE
  5
22B
  8
┌▓È_1
 62
     5
 10
869.36480801899995
 20
-169.7589665731
 30
0.0
 40
4.25
  0
LINE
  5
22C
  8
┌▓È_1
  6
BORDER
 62
     3
 10
869.36480801899995
 20
-163.7589665731
 30
0.0
 11
869.36480801899995
 21
-175.7589665731
 31
0.0
  0
LINE
  5
22D
  8
┌▓È_1
  6
BORDER
 62
     3
 10
863.36480801899995
 20
-169.7589665731
 30
0.0
 11
875.36480801899995
 21
-169.7589665731
 31
0.0
  0
ENDBLK
  5
22E
  8
0
  0
BLOCK
  8
0
  2
CLUMP1
 70
     0
 10
0.0
 20
0.0
 30
0.0
  3
CLUMP1
  1

  0
LINE
  5
235
  8
┌▓È_1
  6
STITCH
 10
638.26770833329999
 20
-93.258966573099997
 30
0.0
 11
640.01770833329999
 21
-95.008966573099997
 31
0.0
  0
LINE
  5
236
  8
┌▓È_1
  6
STITCH
 10
637.26770833329999
 20
-93.258966573099997
 30
0.0
 11
635.51770833329999
 21
-95.008966573099997
 31
0.0
  0
LINE
  5
237
  8
┌▓È_1
  6
STITCH
 10
637.26770833329999
 20
-88.258966573099997
 30
0.0
 11
635.51770833329999
 21
-86.508966573099997
 31
0.0
  0
LINE
  5
238
  8
┌▓È_1
  6
STITCH
 10
638.26770833329999
 20
-88.258966573099997
 30
0.0
 11
640.01770833329999
 21
-86.508966573099997
 31
0.0
  0
LINE
  5
239
  8
┌▓È_1
  6
STITCH
 10
637.26770833329999
 20
-93.258966573099997
 30
0.0
 11
637.26770833329999
 21
-88.258966573099997
 31
0.0
  0
LINE
  5
23A
  8
┌▓È_1
  6
STITCH
 10
638.26770833329999
 20
-88.258966573099997
 30
0.0
 11
638.26770833329999
 21
-93.258966573099997
 31
0.0
  0
LINE
  5
23B
  8
┌▓È_1
  6
STITCH
 10
637.26770833329999
 20
-88.258966573099997
 30
0.0
 11
638.26770833329999
 21
-88.258966573099997
 31
0.0
  0
LINE
  5
23C
  8
┌▓È_1
  6
STITCH
 10
638.26770833329999
 20
-93.258966573099997
 30
0.0
 11
637.26770833329999
 21
-93.258966573099997
 31
0.0
  0
LINE
  5
23D
  8
┌▓È_1
  6
BORDER
 62
     3
 10
645.84548611109994
 20
-90.758966573099997
 30
0.0
 11
628.47604166669987
 21
-90.758966573099997
 31
0.0
  0
ENDBLK
  5
23E
  8
0
  0
BLOCK
  8
0
  2
CLUMP2
 70
     0
 10
0.0
 20
0.0
 30
0.0
  3
CLUMP2
  1

  0
LINE
  5
249
  8
┌▓È_1
  6
STITCH
 10
746.01770833329988
 20
-277.0089665731
 30
0.0
 11
751.01770833329988
 21
-277.0089665731
 31
0.0
  0
LINE
  5
24A
  8
┌▓È_1
  6
STITCH
 10
751.01770833329988
 20
-276.0089665731
 30
0.0
 11
746.01770833329988
 21
-276.0089665731
 31
0.0
  0
LINE
  5
24B
  8
┌▓È_1
  6
STITCH
 10
751.01770833329988
 20
-277.0089665731
 30
0.0
 11
751.01770833329988
 21
-276.0089665731
 31
0.0
  0
LINE
  5
24C
  8
┌▓È_1
  6
STITCH
 10
746.01770833329988
 20
-276.0089665731
 30
0.0
 11
746.01770833329988
 21
-277.0089665731
 31
0.0
  0
LINE
  5
24D
  8
┌▓È_1
  6
STITCH
 10
746.01770833329988
 20
-276.0089665731
 30
0.0
 11
744.26770833329988
 21
-274.2589665731
 31
0.0
  0
LINE
  5
24E
  8
┌▓È_1
  6
STITCH
 10
746.01770833329988
 20
-277.0089665731
 30
0.0
 11
744.26770833329988
 21
-278.7589665731
 31
0.0
  0
LINE
  5
24F
  8
┌▓È_1
  6
STITCH
 10
751.01770833329988
 20
-276.0089665731
 30
0.0
 11
752.76770833329988
 21
-274.2589665731
 31
0.0
  0
LINE
  5
250
  8
┌▓È_1
  6
STITCH
 10
751.01770833329988
 20
-277.0089665731
 30
0.0
 11
752.76770833329988
 21
-278.7589665731
 31
0.0
  0
LINE
  5
251
  8
┌▓È_1
  6
BORDER
 62
     3
 10
748.51770833329999
 20
-268.43118879529999
 30
0.0
 11
748.51770833329999
 21
-285.80063323970001
 31
0.0
  0
ENDBLK
  5
252
  8
0
  0
BLOCK
  8
0
  2
CLUMP3
 70
     0
 10
0.0
 20
0.0
 30
0.0
  3
CLUMP3
  1

  0
CIRCLE
  5
256
  8
┌▓È_1
 62
     5
 10
874.36480801899984
 20
-90.758966573099997
 30
0.0
 40
2.5
  0
CIRCLE
  5
257
  8
┌▓È_1
 62
     5
 10
874.36480801899984
 20
-90.758966573099997
 30
0.0
 40
4.25
  0
LINE
  5
258
  8
┌▓È_1
  6
BORDER
 62
     3
 10
874.36480801899984
 20
-84.758966573099997
 30
0.0
 11
874.36480801899984
 21
-96.758966573099997
 31
0.0
  0
LINE
  5
259
  8
┌▓È_1
  6
BORDER
 62
     3
 10
868.36480801899995
 20
-90.758966573099997
 30
0.0
 11
880.36480801899995
 21
-90.758966573099997
 31
0.0
  0
ENDBLK
  5
25A
  8
0
  0
BLOCK
  8
0
  2
CLUMP4
 70
     0
 10
0.0
 20
0.0
 30
0.0
  3
CLUMP4
  1

  0
CIRCLE
  5
267
  8
┌▓È_1
 62
     5
 10
665.51770833329999
 20
-364.41842447919998
 30
0.0
 40
4.25
  0
CIRCLE
  5
268
  8
┌▓È_1
 62
     5
 10
665.51770833329999
 20
-364.41842447919998
 30
0.0
 40
2.5
  0
LINE
  5
269
  8
┌▓È_1
  6
BORDER
 62
     3
 10
659.51770833329988
 20
-364.41842447919998
 30
0.0
 11
671.51770833329988
 21
-364.41842447919998
 31
0.0
  0
LINE
  5
26A
  8
┌▓È_1
  6
BORDER
 62
     3
 10
665.51770833329999
 20
-370.41842447919998
 30
0.0
 11
665.51770833329999
 21
-358.41842447919998
 31
0.0
  0
ENDBLK
  5
26B
  8
0
  0
BLOCK
  8
0
  2
CLUMP5
 70
     0
 10
0.0
 20
0.0
 30
0.0
  3
CLUMP5
  1

  0
LINE
  5
272
  8
┌▓È_1
  6
STITCH
 10
638.26770833329999
 20
-172.2589665731
 30
0.0
 11
640.01770833329999
 21
-174.0089665731
 31
0.0
  0
LINE
  5
273
  8
┌▓È_1
  6
STITCH
 10
637.26770833329999
 20
-172.2589665731
 30
0.0
 11
635.51770833329999
 21
-174.0089665731
 31
0.0
  0
LINE
  5
274
  8
┌▓È_1
  6
STITCH
 10
637.26770833329999
 20
-167.2589665731
 30
0.0
 11
635.51770833329999
 21
-165.5089665731
 31
0.0
  0
LINE
  5
275
  8
┌▓È_1
  6
STITCH
 10
638.26770833329999
 20
-167.2589665731
 30
0.0
 11
640.01770833329999
 21
-165.5089665731
 31
0.0
  0
LINE
  5
276
  8
┌▓È_1
  6
STITCH
 10
637.26770833329999
 20
-172.2589665731
 30
0.0
 11
637.26770833329999
 21
-167.2589665731
 31
0.0
  0
LINE
  5
277
  8
┌▓È_1
  6
STITCH
 10
638.26770833329999
 20
-167.2589665731
 30
0.0
 11
638.26770833329999
 21
-172.2589665731
 31
0.0
  0
LINE
  5
278
  8
┌▓È_1
  6
STITCH
 10
637.26770833329999
 20
-167.2589665731
 30
0.0
 11
638.26770833329999
 21
-167.2589665731
 31
0.0
  0
LINE
  5
279
  8
┌▓È_1
  6
STITCH
 10
638.26770833329999
 20
-172.2589665731
 30
0.0
 11
637.26770833329999
 21
-172.2589665731
 31
0.0
  0
LINE
  5
27A
  8
┌▓È_1
  6
BORDER
 62
     3
 10
645.84548611109994
 20
-169.7589665731
 30
0.0
 11
628.47604166669987
 21
-169.7589665731
 31
0.0
  0
ENDBLK
  5
27B
  8
0
  0
BLOCK
  8
0
  2
CLUMP6
 70
     0
 10
0.0
 20
0.0
 30
0.0
  3
CLUMP6
  1

  0
CIRCLE
  5
28B
  8
┌▓È_1
 62
     5
 10
748.51770833329999
 20
-369.41842447919998
 30
0.0
 40
4.25
  0
CIRCLE
  5
28C
  8
┌▓È_1
 62
     5
 10
748.51770833329999
 20
-369.41842447919998
 30
0.0
 40
2.5
  0
LINE
  5
28D
  8
┌▓È_1
  6
BORDER
 62
     3
 10
748.51770833329999
 20
-363.41842447919998
 30
0.0
 11
748.51770833329999
 21
-375.41842447919998
 31
0.0
  0
LINE
  5
28E
  8
┌▓È_1
  6
BORDER
 62
     3
 10
742.51770833329988
 20
-369.41842447919998
 30
0.0
 11
754.51770833329988
 21
-369.41842447919998
 31
0.0
  0
ENDBLK
  5
28F
  8
0
  0
BLOCK
  8
0
  2
CLUMP7
 70
     0
 10
0.0
 20
0.0
 30
0.0
  3
CLUMP7
  1

  0
CIRCLE
  5
297
  8
┌▓È_1
 62
     5
 10
879.36480801899995
 20
-248.7589665731
 30
0.0
 40
4.25
  0
CIRCLE
  5
298
  8
┌▓È_1
 62
     5
 10
879.36480801899995
 20
-248.7589665731
 30
0.0
 40
2.5
  0
LINE
  5
299
  8
┌▓È_1
  6
BORDER
 62
     3
 10
885.36480801899995
 20
-248.7589665731
 30
0.0
 11
873.36480801899995
 21
-248.7589665731
 31
0.0
  0
LINE
  5
29A
  8
┌▓È_1
  6
BORDER
 62
     3
 10
879.36480801899995
 20
-242.7589665731
 30
0.0
 11
879.36480801899995
 21
-254.7589665731
 31
0.0
  0
ENDBLK
  5
29B
  8
0
  0
BLOCK
  8
0
  2
*U34
 70
     1
 10
0.0
 20
0.0
 30
0.0
  3
*U34
  1

  0
TEXT
  5
2B6
  8
┌▓È_1
  6
CONTINUOUS
 10
986.73522189862535
 20
-238.66143922932741
 30
0.0
 40
5.9972220420999998
  1
ÄMâéâ~òöègæÕÉ}
  0
ENDBLK
  5
2B8
  8
0
  0
BLOCK
  8
0
  2
*U35
 70
     1
 10
0.0
 20
0.0
 30
0.0
  3
*U35
  1

  0
TEXT
  5
2BA
  8
┌▓È_1
  6
CONTINUOUS
 10
1025.4198013872669
 20
-371.34158838590002
 30
0.0
 40
7.1966662884000003
  1
LY-202  125x250
  0
ENDBLK
  5
2BC
  8
0
  0
BLOCK
  8
0
  2
*D36
 70
     1
 10
0.0
 20
0.0
 30
0.0
  3
*D36
  1

  0
LINE
  5
2BF
  8
Éíû@É³
 62
     0
 10
760.45520833329999
 20
-274.25896657309988
 30
0.0
 11
720.2032163886222
 21
-274.2589665731
 31
0.0
  0
LINE
  5
2C0
  8
Éíû@É³
 62
     0
 10
640.01770833329977
 20
-78.821466573100054
 30
0.0
 11
640.01770833329999
 21
-194.0734585177776
 31
0.0
  0
ARC
  5
2C1
  8
Éíû@É³
 62
     0
 10
640.01770833329999
 20
-274.2589665731
 30
0.0
 40
81.435508055322416
 50
4.222390078485601
 51
38.478584386758207
  0
ARC
  5
2C2
  8
Éíû@É³
 62
     0
 10
640.01770833329999
 20
-274.2589665731
 30
0.0
 40
81.435508055322416
 50
51.431885428136923
 51
85.777609921514411
  0
SOLID
  5
2C3
  8
Éíû@É³
 62
     0
 10
722.23150380104914
 20
-268.22620031675791
 30
0.0
 11
720.23286137129355
 21
-268.29987825090842
 31
0.0
 12
721.45321638862242
 22
-274.2589665731
 32
0.0
 13
721.45321638862242
 23
-274.2589665731
 33
0.0
  0
SOLID
  5
2C4
  8
Éíû@É³
 62
     0
 10
645.97679665549163
 20
-194.04381353510641
 30
0.0
 11
646.05047458964202
 21
-192.04517110535079
 31
0.0
 12
640.01770833330011
 22
-192.8234585177776
 32
0.0
 13
640.01770833330011
 23
-192.8234585177776
 33
0.0
  0
TEXT
  8
Éíû@É³
  40
5.99722
  5
32C
  62
0
  72
0
  71
0
 10
685.652
 20
-227.335
 30
0.000000
  1
90üï
  0
POINT
  5
2C6
  8
Defpoints
 62
     0
 10
640.01770833329999
 20
-274.2589665731
 30
0.0
  0
POINT
  5
2C7
  8
Defpoints
 62
     0
 10
760.51770833329999
 20
-274.25896657309988
 30
0.0
  0
POINT
  5
2C8
  8
Defpoints
 62
     0
 10
640.01770833329999
 20
-78.758966573099997
 30
0.0
  0
POINT
  5
2C9
  8
Defpoints
 62
     0
 10
680.73546236096115
 20
-203.73374782709851
 30
0.0
  0
ENDBLK
  5
2CB
  8
0
  0
BLOCK
  8
0
  2
*D37
 70
     1
 10
0.0
 20
0.0
 30
0.0
  3
*D37
  1

  0
LINE
  5
2CD
  8
Éíû@É³
 62
     0
 10
989.70630179767579
 20
-170.8493431931241
 30
0.0
 11
967.70638859139206
 21
-192.84925639940781
 31
0.0
  0
LINE
  5
2CE
  8
Éíû@É³
 62
     0
 10
1033.355350317124
 20
-170.8493431931241
 30
0.0
 11
1055.355263523408
 21
-192.84925639940801
 31
0.0
  0
ARC
  5
2CF
  8
Éíû@É³
 62
     0
 10
1011.5308260574
 20
-149.02481893340001
 30
0.0
 40
60.727113827799968
 50
230.66328018948801
 51
261.29985328234631
  0
ARC
  5
2D0
  8
Éíû@É³
 62
     0
 10
1011.5308260574
 20
-149.02481893340001
 30
0.0
 40
60.727113827799968
 50
278.70014671765369
 51
309.33671981051168
  0
SOLID
  5
2D1
  8
Éíû@É³
 62
     0
 10
972.36601321147759
 20
-196.7344167281866
 30
0.0
 11
973.70863600542202
 21
-195.25206588132841
 31
0.0
 12
968.59027206787516
 22
-191.96537292292459
 32
0.0
 13
968.59027206787516
 23
-191.96537292292459
 33
0.0
  0
SOLID
  5
2D2
  8
Éíû@É³
 62
     0
 10
1049.3530161093779
 20
-195.2520658813286
 30
0.0
 11
1050.6956389033221
 21
-196.7344167281868
 31
0.0
 12
1054.471380046924
 22
-191.96537292292479
 32
0.0
 13
1054.471380046924
 23
-191.96537292292479
 33
0.0
  0
TEXT
  8
Éíû@É³
  40
5.99722
  5
32D
  62
0
  72
0
  71
0
 10
999.536
 20
-220.367
 30
0.000000
  1
90üï
  0
POINT
  5
2D4
  8
Defpoints
 62
     0
 10
1011.5308260574
 20
-149.02481893340001
 30
0.0
  0
POINT
  5
2D5
  8
Defpoints
 62
     0
 10
989.75049597149996
 20
-170.80514901929999
 30
0.0
  0
POINT
  5
2D6
  8
Defpoints
 62
     0
 10
1033.3111561433
 20
-170.80514901929999
 30
0.0
  0
POINT
  5
2D7
  8
Defpoints
 62
     0
 10
995.81349244465662
 20
-207.68270653566799
 30
0.0
  0
ENDBLK
  5
2D9
  8
0
  0
BLOCK
  8
0
  2
*D38
 70
     1
 10
0.0
 20
0.0
 30
0.0
  3
*D38
  1

  0
LINE
  5
2DB
  8
Éíû@É³
 62
     0
 10
1033.355350317124
 20
-147.20029467367581
 30
0.0
 11
1062.6907308801151
 21
-117.86491411068501
 31
0.0
  0
LINE
  5
2DC
  8
Éíû@É³
 62
     0
 10
989.70630179767579
 20
-147.20029467367581
 30
0.0
 11
960.37092123468506
 21
-117.86491411068531
 31
0.0
  0
ARC
  5
2DD
  8
Éíû@É³
 62
     0
 10
1011.5308260574
 20
-169.02481893340001
 30
0.0
 40
71.101031250000005
 50
49.836452522990783
 51
82.577013244538989
  0
ARC
  5
2DE
  8
Éíû@É³
 62
     0
 10
1011.5308260574
 20
-169.02481893340001
 30
0.0
 40
71.101031250000005
 50
97.422986755461025
 51
130.1635474770095
  0
SOLID
  5
2DF
  8
Éíû@É³
 62
     0
 10
1058.0656149621871
 20
-113.9526345562561
 30
0.0
 11
1056.7123314084561
 21
-115.4252592956926
 31
0.0
 12
1061.8068474036311
 22
-118.7487975871682
 32
0.0
 13
1061.8068474036311
 23
-118.7487975871682
 33
0.0
  0
SOLID
  5
2E0
  8
Éíû@É³
 62
     0
 10
966.34932070634329
 20
-115.4252592956929
 30
0.0
 11
964.99603715261196
 21
-113.9526345562564
 31
0.0
 12
961.25480471116828
 22
-118.7487975871685
 32
0.0
 13
961.25480471116828
 23
-118.7487975871685
 33
0.0
  0
TEXT
  8
Éíû@É³
  40
5.99722
  5
32E
  62
0
  72
0
  71
0
 10
999.536
 20
-108.539
 30
0.000000
  1
90üï
  0
POINT
  5
2E2
  8
Defpoints
 62
     0
 10
1011.5308260574
 20
-169.02481893340001
 30
0.0
  0
POINT
  5
2E3
  8
Defpoints
 62
     0
 10
1033.3111561433
 20
-147.24448884750001
 30
0.0
  0
POINT
  5
2E4
  8
Defpoints
 62
     0
 10
989.75049597149996
 20
-147.24448884750001
 30
0.0
  0
POINT
  5
2E5
  8
Defpoints
 62
     0
 10
1029.933127071329
 20
-100.3464965732388
 30
0.0
  0
ENDBLK
  5
2E7
  8
0
  0
BLOCK
  8
0
  2
*U39
 70
     1
 10
0.0
 20
0.0
 30
0.0
  3
*U39
  1

  0
TEXT
  5
2E9
  8
┌▓È_1
  6
CONTINUOUS
 10
1031.0664268922999
 20
-389.37091450872691
 30
0.0
 40
7.1966662884000003
  1
ékî^âAâôâOâï
  0
ENDBLK
  5
2EB
  8
0
  0
BLOCK
  8
0
  2
*U40
 70
     1
 10
0.0
 20
0.0
 30
0.0
  3
*U40
  1

  0
TEXT
  5
2ED
  8
┌▓È_1
  6
CONTINUOUS
 10
872.25613035649985
 20
-356.91054108195789
 30
0.0
 40
7.1966662884000003
  1
ò\û╩ÅêùØüFâåâjâNâìâüâbâLÄdÅÒé░
  0
ENDBLK
  5
2EF
  8
0
  0
BLOCK
  8
0
  2
*U41
 70
     1
 10
0.0
 20
0.0
 30
0.0
  3
*U41
  1

  0
TEXT
  5
2F1
  8
┌▓È_1
  6
CONTINUOUS
 10
886.69723780600009
 20
-406.25780941522731
 30
0.0
 40
8.6359998702999992
  1
èöÄ«ë´Äð
  0
ENDBLK
  5
2F3
  8
0
  0
BLOCK
  8
0
  2
*U42
 70
     1
 10
0.0
 20
0.0
 30
0.0
  3
*U42
  1

  0
TEXT
  5
2F5
  8
┌▓È_1
  6
CONTINUOUS
 10
937.18690197899991
 20
-383.07630614687008
 30
0.0
 40
4.6749999999999989
  1
ü@Ä┌ ü@ôx
  0
ENDBLK
  5
2F7
  8
0
  0
BLOCK
  8
0
  2
*U43
 70
     1
 10
0.0
 20
0.0
 30
0.0
  3
*U43
  1

  0
TEXT
  5
2F9
  8
┌▓È_1
  6
CONTINUOUS
 10
872.25613035649985
 20
-383.10003711133709
 30
0.0
 40
4.6749999999999989
  1
 É¦îvü@ü@öÆÉ{ëÛ
  0
ENDBLK
  5
2FB
  8
0
  0
BLOCK
  8
0
  2
*U44
 70
     1
 10
0.0
 20
0.0
 30
0.0
  3
*U44
  1

  0
TEXT
  5
2FD
  8
┌▓È_1
  6
CONTINUOUS
 10
872.25613035649985
 20
-391.62376807580409
 30
0.0
 40
4.6749999999999989
  1
 É╗É}ü@ü@ è¦û{
  0
ENDBLK
  5
2FF
  8
0
  0
BLOCK
  8
0
  2
*U45
 70
     1
 10
0.0
 20
0.0
 30
0.0
  3
*U45
  1

  0
TEXT
  5
301
  8
┌▓È_1
  6
CONTINUOUS
 10
873.1869019789998
 20
-365.93392036006799
 30
0.0
 40
4.6749999999999989
  1
ü@ô· ü@òt
  0
ENDBLK
  5
303
  8
0
  0
BLOCK
  8
0
  2
*U46
 70
     1
 10
0.0
 20
0.0
 30
0.0
  3
*U46
  1

  0
TEXT
  5
305
  8
┌▓È_1
  6
CONTINUOUS
 10
1002.0371292639001
 20
-365.94731602400208
 30
0.0
 40
4.6749999999999989
  1
î^öÈ
  0
ENDBLK
  5
307
  8
0
  0
BLOCK
  8
0
  2
*U47
 70
     1
 10
0.0
 20
0.0
 30
0.0
  3
*U47
  1

  0
TEXT
  5
309
  8
┌▓È_1
  6
CONTINUOUS
 10
1002.0371292639001
 20
-382.99477795293609
 30
0.0
 40
4.6749999999999989
  1
òiû╝
  0
ENDBLK
  5
30B
  8
0
  0
BLOCK
  8
0
  2
*U48
 70
     1
 10
0.0
 20
0.0
 30
0.0
  3
*U48
  1

  0
TEXT
  5
30D
  8
┌▓È_1
  6
CONTINUOUS
 10
1002.0371292639001
 20
-399.94731602400208
 30
0.0
 40
4.6749999999999989
  1
É}öÈ
  0
ENDBLK
  5
30F
  8
0
  0
BLOCK
  8
0
  2
*U49
 70
     1
 10
0.0
 20
0.0
 30
0.0
  3
*U49
  1

  0
TEXT
  5
311
  8
┌▓È_1
  6
CONTINUOUS
 62
     5
 10
880.62662528035787
 20
-374.33899650220002
 30
0.0
 40
4.6749999999999989
  1
H16.4
  0
ENDBLK
  5
313
  8
0
  0
BLOCK
  8
0
  2
*U50
 70
     1
 10
0.0
 20
0.0
 30
0.0
  3
*U50
  1

  0
TEXT
  5
315
  8
┌▓È_1
  6
CONTINUOUS
 62
     5
 10
917.45587654939345
 20
-374.62376807580409
 30
0.0
 40
4.6749999999999989
  1
ôS
  0
ENDBLK
  5
317
  8
0
  0
BLOCK
  8
0
  2
*U51
 70
     1
 10
0.0
 20
0.0
 30
0.0
  3
*U51
  1

  0
TEXT
  5
319
  8
┌▓È_1
  6
CONTINUOUS
 62
     5
 10
946.26406182858125
 20
-374.33899650220002
 30
0.0
 40
4.6749999999999989
  1
4.5t
  0
ENDBLK
  5
31B
  8
0
  0
BLOCK
  8
0
  2
*U52
 70
     1
 10
0.0
 20
0.0
 30
0.0
  3
*U52
  1

  0
TEXT
  5
31D
  8
┌▓È_1
  6
CONTINUOUS
 62
     5
 10
946.05048314837813
 20
-391.33899650220002
 30
0.0
 40
4.6749999999999989
  1
1üF2
  0
ENDBLK
  5
31F
  8
0
  0
BLOCK
  8
0
  2
*U53
 70
     1
 10
0.0
 20
0.0
 30
0.0
  3
*U53
  1

  0
TEXT
  5
321
  8
┌▓È_1
  6
CONTINUOUS
 10
905.1869019789998
 20
-366.00511325346901
 30
0.0
 40
4.6749999999999989
  1
ü@ìÌ ü@Ä┐
  0
ENDBLK
  5
323
  8
0
  0
BLOCK
  8
0
  2
*U54
 70
     1
 10
0.0
 20
0.0
 30
0.0
  3
*U54
  1

  0
TEXT
  5
325
  8
┌▓È_1
  6
CONTINUOUS
 10
937.18690197899991
 20
-366.10003711133709
 30
0.0
 40
4.6749999999999989
  1
ü@ö┬ ü@î·
  0
ENDBLK
  5
327
  8
0
  0
BLOCK
  8
0
  2
*U55
 70
     1
 10
0.0
 20
0.0
 30
0.0
  3
*U55
  1

  0
TEXT
  5
329
  8
┌▓È_1
  6
CONTINUOUS
 10
969.18690197899991
 20
-366.10003711133709
 30
0.0
 40
4.6749999999999989
  1
ü@îƒ ü@ê¾
  0
ENDBLK
  5
32B
  8
0
  0
ENDSEC
  0
SECTION
  2
ENTITIES
  0
LINE
  5
2F
  8
┌▓È_1
 62
     5
 10
999.03082605739996
 20
-161.52481893340001
 30
0.0
 11
1024.0308260574
 21
-161.52481893340001
 31
0.0
  0
LINE
  5
30
  8
┌▓È_1
 62
     5
 10
999.03082605739996
 20
-156.52481893340001
 30
0.0
 11
1024.0308260574
 21
-156.52481893340001
 31
0.0
  0
LINE
  5
31
  8
┌▓È_1
 62
     5
 10
1024.0308260574
 20
-161.52481893340001
 30
0.0
 11
1032.7808260574
 21
-170.27481893340001
 31
0.0
  0
LINE
  5
32
  8
┌▓È_1
 62
     5
 10
999.03082605739996
 20
-161.52481893340001
 30
0.0
 11
990.28082605740008
 21
-170.27481893340001
 31
0.0
  0
LINE
  5
33
  8
┌▓È_1
 62
     5
 10
999.03082605739996
 20
-156.52481893340001
 30
0.0
 11
999.03082605739996
 21
-161.52481893340001
 31
0.0
  0
LINE
  5
34
  8
┌▓È_1
  6
BORDER
 62
     3
 10
1011.5308260574
 20
-141.25809757920001
 30
0.0
 11
1011.5308260574
 21
-174.75809757920001
 31
0.0
  0
DIMENSION
  5
45
  8
Éíû@É³
  2
*D0
 10
890.36480801899995
 20
-45.721682648700003
 30
0.0
 11
874.36480801899984
 21
-45.721682648700003
 31
0.0
 70
   128
  1
<>
 13
890.36480801899995
 23
-78.758966573100011
 33
0.0
 14
858.36480801899995
 24
-78.758966573100011
 34
0.0
  0
DIMENSION
  5
54
  8
Éíû@É³
  2
*D1
 10
640.01770833329999
 20
-51.420288746000011
 30
0.0
 11
653.05591362849987
 21
-51.420288746000011
 31
0.0
 70
   128
  1
<>t
 13
640.01770833329999
 23
-78.758966573100011
 33
0.0
 14
635.51770833329999
 24
-78.758966573100011
 34
0.0
  0
DIMENSION
  5
63
  8
Éíû@É³
  2
*D2
 10
780.8551640828
 20
-369.41842447919998
 30
0.0
 11
780.8551640828
 21
-338.4701281646
 31
0.0
 70
   128
  1
<>
 13
754.51770833329988
 23
-369.41842447919998
 33
0.0
 14
760.51770833329999
 24
-353.41842447919998
 34
0.0
 50
90.0
  0
DIMENSION
  5
72
  8
Éíû@É³
  2
*D3
 10
695.40205739340001
 20
-364.41842447919998
 30
0.0
 11
695.40205739340001
 21
-341.9077436705
 31
0.0
 70
   128
  1
<>
 13
671.51770833329988
 23
-364.41842447919998
 33
0.0
 14
675.06460164390001
 24
-353.41842447919998
 34
0.0
 50
90.0
  0
DIMENSION
  5
81
  8
Éíû@É³
  2
*D4
 10
760.51770833329999
 20
-330.43798829759999
 30
0.0
 11
754.51770833329988
 21
-330.43798829759999
 31
0.0
 70
   128
  1
<>
 13
760.51770833329999
 23
-353.41842447919998
 33
0.0
 14
748.51770833329999
 24
-363.41842447919998
 34
0.0
  0
DIMENSION
  5
90
  8
Éíû@É³
  2
*D5
 10
665.51770833329999
 20
-330.43369447430001
 30
0.0
 11
650.51770833329988
 21
-330.43369447430001
 31
0.0
 70
   128
  1
<>
 13
665.51770833329999
 23
-358.41842447919998
 33
0.0
 14
635.51770833329999
 24
-353.41842447919998
 34
0.0
  0
DIMENSION
  5
9F
  8
Éíû@É³
  2
*D6
 10
748.51770833329999
 20
-330.42421876629999
 30
0.0
 11
706.05598958330006
 21
-330.42421876629999
 31
0.0
 70
   128
  1
<>
 13
748.51770833329999
 23
-363.41842447919998
 33
0.0
 14
665.51770833329999
 24
-358.41842447919998
 34
0.0
  0
LINE
  5
A0
  8
┌▓È_1
 10
985.58067819860003
 20
-241.23615236180001
 30
0.0
 11
1040.1904126459001
 21
-241.23615236180001
 31
0.0
  0
INSERT
  5
A1
  8
0
  6
CONTINUOUS
  2
*U34
 10
0.0
 20
0.0
 30
0.0
  0
INSERT
  5
A2
  8
0
  6
CONTINUOUS
  2
*U35
 10
0.0
 20
0.0
 30
0.0
  0
DIMENSION
  5
B1
  8
Éíû@É³
  2
*D7
 10
635.51770833329999
 20
-299.09642232260001
 30
0.0
 11
698.01770833329999
 21
-299.09642232260001
 31
0.0
 70
   128
  1
<>
 13
635.51770833329999
 23
-274.2589665731
 33
0.0
 14
760.51770833329999
 24
-278.7589665731
 34
0.0
 50
180.0
  0
DIMENSION
  5
C0
  8
Éíû@É³
  2
*D8
 10
780.8551640828
 20
-385.41842447919998
 30
0.0
 11
780.8551640828
 21
-395.3326822917
 31
0.0
 70
   128
  1
<>
 13
760.51770833329999
 23
-385.41842447919998
 33
0.0
 14
754.51770833329988
 24
-369.41842447919998
 34
0.0
 50
90.0
  0
DIMENSION
  5
CF
  8
Éíû@É³
  2
*D9
 10
840.79029947919992
 20
-248.7589665731
 30
0.0
 11
840.79029947919992
 21
-263.7589665731
 31
0.0
 70
   128
  1
<>
 13
873.36480801899995
 23
-248.7589665731
 33
0.0
 14
858.36480801899995
 24
-278.7589665731
 34
0.0
 50
90.0
  0
DIMENSION
  5
DE
  8
Éíû@É³
  2
*D10
 10
615.18025258379987
 20
-78.758966573100011
 30
0.0
 11
615.18025258379987
 21
-178.7589665731
 31
0.0
 70
   128
  1
250
 13
635.51770833329999
 23
-78.758966573100011
 33
0.0
 14
640.01770833329999
 24
-278.7589665731
 34
0.0
 50
90.0
  0
DIMENSION
  5
ED
  8
Éíû@É³
  2
*D11
 10
840.85299479169987
 20
-169.7589665731
 30
0.0
 11
840.85299479169987
 21
-209.2589665731
 31
0.0
 70
   128
  1
104
 13
863.36480801899995
 23
-169.7589665731
 33
0.0
 14
873.36480801899995
 24
-248.7589665731
 34
0.0
 50
90.0
  0
DIMENSION
  5
FC
  8
Éíû@É³
  2
*D12
 10
840.8439538319999
 20
-90.758966573099997
 30
0.0
 11
840.8439538319999
 21
-130.2589665731
 31
0.0
 70
   128
  1
104
 13
868.36480801899995
 23
-90.758966573099997
 33
0.0
 14
863.36480801899995
 24
-169.7589665731
 34
0.0
 50
90.0
  0
DIMENSION
  5
10B
  8
Éíû@É³
  2
*D13
 10
890.36480801899995
 20
-221.46858418779999
 30
0.0
 11
884.86480801899995
 21
-221.46858418779999
 31
0.0
 70
   128
  1
<>
 13
890.36480801899995
 23
-242.7589665731
 33
0.0
 14
879.36480801899995
 24
-242.7589665731
 34
0.0
  0
DIMENSION
  5
11A
  8
Éíû@É³
  2
*D14
 10
879.36480801899995
 20
-205.28499043779999
 30
0.0
 11
873.92743504839984
 21
-205.28499043779999
 31
0.0
 70
   128
  1
<>
 13
879.36480801899995
 23
-244.5089665731
 33
0.0
 14
869.36480801899995
 24
-175.7589665731
 34
0.0
  0
DIMENSION
  5
129
  8
Éíû@É³
  2
*D15
 10
869.36480801899995
 20
-136.09067230220001
 30
0.0
 11
863.86480801899995
 21
-136.09067230220001
 31
0.0
 70
   128
  1
<>
 13
869.36480801899995
 23
-163.7589665731
 33
0.0
 14
858.36480801899995
 24
-157.38105468750001
 34
0.0
  0
DIMENSION
  5
138
  8
Éíû@É³
  2
*D16
 10
840.80269711810001
 20
-78.758966573100011
 30
0.0
 11
840.80269711810001
 21
-84.982273864700005
 31
0.0
 70
   128
  1
<>
 13
858.36480801899995
 23
-78.758966573100011
 33
0.0
 14
873.36480801899995
 24
-90.758966573099997
 34
0.0
 50
90.0
  0
DIMENSION
  5
147
  8
Éíû@É³
  2
*D17
 10
890.36480801899995
 20
-59.642412312799991
 30
0.0
 11
897.7567351022999
 21
-59.642412312799991
 31
0.0
 70
   128
  1
<>
 13
890.36480801899995
 23
-78.758966573100011
 33
0.0
 14
874.36480801899984
 24
-84.758966573099997
 34
0.0
  0
DIMENSION
  5
156
  8
Éíû@É³
  2
*D18
 10
874.36480801899984
 20
-59.642412312799991
 30
0.0
 11
847.99257494609992
 21
-59.642412312799991
 31
0.0
 70
   128
  1
<>
 13
874.36480801899984
 23
-84.758966573099997
 33
0.0
 14
858.36480801899995
 24
-78.758966573100011
 34
0.0
  0
DIMENSION
  5
165
  8
Éíû@É³
  2
*D19
 10
614.18860677079999
 20
-353.41842447919998
 30
0.0
 11
614.18860677079999
 21
-369.41842447919998
 31
0.0
 70
   128
  1
<>
 13
635.51770833329999
 23
-353.41842447919998
 33
0.0
 14
635.51770833329999
 24
-385.41842447919998
 34
0.0
 50
90.0
  0
DIMENSION
  5
173
  8
Éíû@É³
  2
*D36
 10
680.73546236096115
 20
-203.73374782709851
 30
0.0
 11
697.64628069490016
 21
-216.72037413469999
 31
0.0
 70
   133
  1
<>
 13
640.01770833329999
 23
-78.758966573100011
 33
0.0
 14
760.51770833329999
 24
-274.2589665731
 34
0.0
 15
640.01770833329999
 25
-274.2589665731
 35
0.0
1001
ACAD
1000
DSTYLE
1002
{
1070
   271
1070
     0
1002
}
  0
DIMENSION
  5
182
  8
Éíû@É³
  2
*D21
 10
990.28082605740008
 20
-191.8646088175
 30
0.0
 11
1011.5308260574
 21
-191.8646088175
 31
0.0
 70
   128
  1
%%c8.5
 13
990.28082605740008
 23
-170.27481893340001
 33
0.0
 14
1032.7808260574
 24
-170.27481893340001
 34
0.0
 50
180.0
  0
DIMENSION
  5
18F
  8
Éíû@É³
  2
*D37
 10
995.81349244465662
 20
-207.68270653566799
 30
0.0
 11
1011.5308260574
 21
-209.75193276120001
 31
0.0
 70
   133
  1
<>
 13
1033.3111561433
 23
-170.80514901929999
 33
0.0
 14
989.75049597149996
 24
-170.80514901929999
 34
0.0
 15
1011.5308260574
 25
-149.02481893340001
 35
0.0
1001
ACAD
1000
DSTYLE
1002
{
1070
   271
1070
     0
1002
}
  0
DIMENSION
  5
19E
  8
Éíû@É³
  2
*D23
 10
1032.7808260574
 20
-111.2769777876
 30
0.0
 11
1011.5308260574
 21
-111.2769777876
 31
0.0
 70
   128
  1
%%c8.5
 13
1032.7808260574
 23
-147.77481893340001
 33
0.0
 14
990.28082605740008
 24
-147.77481893340001
 34
0.0
  0
DIMENSION
  5
1AD
  8
Éíû@É³
  2
*D24
 10
1024.0308260574
 20
-125.33296737089999
 30
0.0
 11
1011.5308260574
 21
-125.33296737089999
 31
0.0
 70
   128
  1
%%c5
 13
1024.0308260574
 23
-156.52481893340001
 33
0.0
 14
999.03082605739996
 24
-156.52481893340001
 34
0.0
  0
DIMENSION
  5
1BA
  8
Éíû@É³
  2
*D38
 10
1029.933127071329
 20
-100.3464965732388
 30
0.0
 11
1011.5308260574
 21
-97.923787683399993
 31
0.0
 70
   133
  1
<>
 13
989.75049597149996
 23
-147.24448884750001
 33
0.0
 14
1033.3111561433
 24
-147.24448884750001
 34
0.0
 15
1011.5308260574
 25
-169.02481893340001
 35
0.0
1001
ACAD
1000
DSTYLE
1002
{
1070
   271
1070
     0
1002
}
  0
LINE
  5
1BB
  8
┌▓È_1
 62
     5
 10
1024.0308260574
 20
-156.52481893340001
 30
0.0
 11
1024.0308260574
 21
-161.52481893340001
 31
0.0
  0
LINE
  5
1BC
  8
┌▓È_1
 62
     5
 10
1024.0308260574
 20
-156.52481893340001
 30
0.0
 11
1032.7808260574
 21
-147.77481893340001
 31
0.0
  0
LINE
  5
1BD
  8
┌▓È_1
 62
     5
 10
990.28082605740008
 20
-147.77481893340001
 30
0.0
 11
999.03082605739996
 21
-156.52481893340001
 31
0.0
  0
LINE
  5
1BE
  8
┌▓È_1
 62
     5
 10
975.60069642780002
 20
-147.77481893340001
 30
0.0
 11
1048.5993075388999
 21
-147.77481893340001
 31
0.0
  0
LINE
  5
1BF
  8
┌▓È_1
 62
     5
 10
975.60069642780002
 20
-170.27481893340001
 30
0.0
 11
1048.5993075388999
 21
-170.27481893340001
 31
0.0
  0
LINE
  5
1C0
  8
┌▓È_1
 62
     5
 10
984.98501799229984
 20
-399.21665294050001
 30
0.0
 11
990.85547502270015
 21
-399.21665294050001
 31
0.0
  0
LINE
  5
1C1
  8
┌▓È_1
 10
872.25613035649985
 20
-359.7529296875
 30
0.0
 11
872.25613035649985
 21
-410.75292968749989
 31
0.0
  0
LINE
  5
1C2
  8
┌▓È_1
 10
1000.2561303565
 20
-359.7529296875
 30
0.0
 11
1000.2561303565
 21
-410.75292968749989
 31
0.0
  0
LINE
  5
1C3
  8
┌▓È_1
 10
904.25613035649985
 20
-359.7529296875
 30
0.0
 11
904.25613035649985
 21
-376.7529296875
 31
0.0
  0
LINE
  5
1C4
  8
┌▓È_1
 10
968.25613035649997
 20
-359.7529296875
 30
0.0
 11
968.25613035649997
 21
-393.7529296875
 31
0.0
  0
LINE
  5
1C5
  8
┌▓È_1
 62
     5
 10
976.45547502270006
 20
-399.21665294050001
 30
0.0
 11
976.45547502270006
 21
-402.09665294050001
 31
0.0
  0
LINE
  5
1C6
  8
┌▓È_1
 62
     5
 10
951.85053308850001
 20
-402.89665294050002
 30
0.0
 11
951.85053308850001
 21
-402.09665294050001
 31
0.0
  0
LINE
  5
1C7
  8
┌▓È_1
 62
     5
 10
958.50750278539988
 20
-400.2120293683999
 30
0.0
 11
964.90750278539986
 21
-400.2120293683999
 31
0.0
  0
LINE
  5
1C8
  8
┌▓È_1
 62
     5
 10
965.76560277210012
 20
-402.1271663887
 30
0.0
 11
965.38064948199985
 21
-402.55234776549997
 31
0.0
  0
ARC
  5
1C9
  8
┌▓È_1
 62
     5
 10
945.45053308850004
 20
-402.89665294050002
 30
0.0
 40
2.399999999999999
 50
270.0
 51
0.0
  0
LINE
  5
1CA
  8
┌▓È_1
 62
     5
 10
947.8505330884999
 20
-396.4966529405001
 30
0.0
 11
947.8505330884999
 21
-399.69665294049997
 31
0.0
  0
LINE
  5
1CB
  8
┌▓È_1
 62
     5
 10
985.81378051899992
 20
-402.09665294050001
 30
0.0
 11
990.85547502270015
 21
-402.09665294050001
 31
0.0
  0
LINE
  5
1CC
  8
┌▓È_1
 62
     5
 10
971.30750278539995
 20
-398.89665294050002
 30
0.0
 11
972.90750278539986
 21
-396.4966529405001
 31
0.0
  0
LINE
  5
1CD
  8
┌▓È_1
 62
     5
 10
562.25613035649985
 20
-410.75292968749989
 30
0.0
 11
562.25613035649985
 21
-30.7529296875
 31
0.0
  0
LINE
  5
1CE
  8
┌▓È_1
 10
1000.2561303565
 20
-376.7529296875
 30
0.0
 11
1112.2561303565001
 21
-376.7529296875
 31
0.0
  0
LINE
  5
1CF
  8
┌▓È_1
 62
     5
 10
562.25613035649985
 20
-30.7529296875
 30
0.0
 11
1112.2561303565001
 21
-30.7529296875
 31
0.0
  0
LINE
  5
1D0
  8
┌▓È_1
 62
     5
 10
562.25613035649985
 20
-410.75292968749989
 30
0.0
 11
1112.2561303565001
 21
-410.75292968749989
 31
0.0
  0
LINE
  5
1D1
  8
┌▓È_1
 62
     5
 10
1112.2561303565001
 20
-410.75292968749989
 30
0.0
 11
1112.2561303565001
 21
-30.7529296875
 31
0.0
  0
INSERT
  5
1D2
  8
0
  6
CONTINUOUS
  2
*U39
 10
0.0
 20
0.0
 30
0.0
  0
LINE
  5
1D3
  8
┌▓È_1
 10
872.25613035649985
 20
-359.7529296875
 30
0.0
 11
1112.2561303565001
 21
-359.7529296875
 31
0.0
  0
LINE
  5
1D4
  8
┌▓È_1
 10
872.25613035649985
 20
-393.7529296875
 30
0.0
 11
1112.2561303565001
 21
-393.7529296875
 31
0.0
  0
LINE
  5
1D5
  8
┌▓È_1
 62
     5
 10
951.85053308850001
 20
-398.89665294050002
 30
0.0
 11
954.25053308850011
 21
-396.4966529405001
 31
0.0
  0
LINE
  5
1D6
  8
┌▓È_1
 62
     5
 10
940.65053308849997
 20
-404.49665294049998
 30
0.0
 11
944.65053308850008
 21
-404.49665294049998
 31
0.0
  0
LINE
  5
1D7
  8
┌▓È_1
 62
     5
 10
972.90750278539986
 20
-396.4966529405001
 30
0.0
 11
958.50750278539988
 21
-396.4966529405001
 31
0.0
  0
LINE
  5
1D8
  8
┌▓È_1
 62
     5
 10
984.98501799229984
 20
-399.21665294050001
 30
0.0
 11
984.75078719199985
 21
-398.40268671569999
 31
0.0
  0
LINE
  5
1D9
  8
┌▓È_1
 62
     5
 10
944.65053308850008
 20
-399.69665294049997
 30
0.0
 11
944.65053308850008
 21
-398.89665294050002
 31
0.0
  0
LINE
  5
1DA
  8
┌▓È_1
 62
     5
 10
976.45547502270006
 20
-406.25665294049998
 30
0.0
 11
982.5184083559999
 21
-406.25665294049998
 31
0.0
  0
ARC
  5
1DB
  8
┌▓È_1
 62
     5
 10
962.50750278539977
 20
-398.89665294050002
 30
0.0
 40
8.8000000000000007
 50
322.48761197969998
 51
0.0
  0
LINE
  5
1DC
  8
┌▓È_1
 62
     5
 10
986.18211941970003
 20
-403.37665294049998
 30
0.0
 11
990.85547502270015
 21
-403.37665294049998
 31
0.0
  0
LINE
  5
1DD
  8
┌▓È_1
 62
     5
 10
987.65547502269987
 20
-408.49665294049998
 30
0.0
 11
987.01088194639999
 21
-406.25665294049998
 31
0.0
  0
LINE
  5
1DE
  8
┌▓È_1
 62
     5
 10
944.65053308850008
 20
-402.09665294050001
 30
0.0
 11
947.8505330884999
 21
-402.09665294050001
 31
0.0
  0
LINE
  5
1DF
  8
┌▓È_1
 62
     5
 10
947.8505330884999
 20
-402.09665294050001
 30
0.0
 11
947.8505330884999
 21
-402.89665294050002
 31
0.0
  0
LINE
  5
1E0
  8
┌▓È_1
 62
     5
 10
976.45547502270006
 20
-399.21665294050001
 30
0.0
 11
980.45334168929992
 21
-399.21665294050001
 31
0.0
  0
LINE
  5
1E1
  8
┌▓È_1
 62
     5
 10
951.85053308850001
 20
-399.69665294049997
 30
0.0
 11
951.85053308850001
 21
-398.89665294050002
 31
0.0
  0
LINE
  5
1E2
  8
┌▓È_1
 62
     5
 10
954.25053308850011
 20
-399.69665294049997
 30
0.0
 11
951.85053308850001
 21
-399.69665294049997
 31
0.0
  0
LINE
  5
1E3
  8
┌▓È_1
 62
     5
 10
976.45547502270006
 20
-403.37665294049998
 30
0.0
 11
981.67360835600005
 21
-403.37665294049998
 31
0.0
  0
LINE
  5
1E4
  8
┌▓È_1
 62
     5
 10
938.80876698999998
 20
-402.09665294050001
 30
0.0
 11
940.40876699
 21
-402.09665294050001
 31
0.0
  0
ARC
  5
1E5
  8
┌▓È_1
 62
     5
 10
962.50750278539977
 20
-398.89665294050002
 30
0.0
 40
8.8000000000000007
 50
270.0
 51
302.54495885400001
  0
LINE
  5
1E6
  8
┌▓È_1
 62
     5
 10
951.85053308850001
 20
-402.09665294050001
 30
0.0
 11
954.25053308850011
 21
-402.09665294050001
 31
0.0
  0
ARC
  5
1E7
  8
┌▓È_1
 62
     5
 10
960.42750278539995
 20
-399.21665294050001
 30
0.0
 40
6.0800000000000001
 50
331.39928138329998
 51
358.49204224580001
  0
LINE
  5
1E8
  8
┌▓È_1
 62
     5
 10
958.50750278539988
 20
-407.69665294049997
 30
0.0
 11
962.50750278539977
 21
-407.69665294049997
 31
0.0
  0
LINE
  5
1E9
  8
┌▓È_1
 62
     5
 10
940.65053308849997
 20
-407.69665294049997
 30
0.0
 11
947.05053308849995
 21
-407.69665294049997
 31
0.0
  0
LINE
  5
1EA
  8
┌▓È_1
 62
     5
 10
971.30750278539995
 20
-398.89665294050002
 30
0.0
 11
972.90750278539986
 21
-396.4966529405001
 31
0.0
  0
LINE
  5
1EB
  8
┌▓È_1
 62
     5
 10
979.65547502269999
 20
-396.4966529405001
 30
0.0
 11
986.05547502270008
 21
-396.4966529405001
 31
0.0
  0
LINE
  5
1EC
  8
┌▓È_1
 62
     5
 10
958.50750278539988
 20
-405.2966529405
 30
0.0
 11
960.42750278539995
 21
-405.2966529405
 31
0.0
  0
LINE
  5
1ED
  8
┌▓È_1
 62
     5
 10
958.50750278539988
 20
-405.2966529405
 30
0.0
 11
958.50750278539988
 21
-407.69665294049997
 31
0.0
  0
INSERT
  5
1EE
  8
0
  6
CONTINUOUS
  2
*U40
 10
0.0
 20
0.0
 30
0.0
  0
LINE
  5
1EF
  8
┌▓È_1
 62
     5
 10
969.48785374879992
 20
-404.2552628748
 30
0.0
 11
969.20289045309994
 21
-404.53426790549997
 31
0.0
  0
LINE
  5
1F0
  8
┌▓È_1
 62
     5
 10
940.65053308849997
 20
-402.09665294050001
 30
0.0
 11
940.65053308849997
 21
-404.49665294049998
 31
0.0
  0
INSERT
  5
1F1
  8
0
  6
CONTINUOUS
  2
*U41
 10
0.0
 20
0.0
 30
0.0
  0
INSERT
  5
1F2
  8
0
  6
CONTINUOUS
  2
*U42
 10
0.0
 20
0.0
 30
0.0
  0
LINE
  5
1F3
  8
┌▓È_1
 62
     5
 10
980.45334168929992
 20
-399.21665294050001
 30
0.0
 11
979.65547502269999
 21
-396.4966529405001
 31
0.0
  0
LINE
  5
1F4
  8
┌▓È_1
 62
     5
 10
940.65053308849997
 20
-396.4966529405001
 30
0.0
 11
940.65053308849997
 21
-399.69665294049997
 31
0.0
  0
LINE
  5
1F5
  8
┌▓È_1
 62
     5
 10
944.65053308850008
 20
-398.89665294050002
 30
0.0
 11
947.05053308849995
 21
-396.4966529405001
 31
0.0
  0
LINE
  5
1F6
  8
┌▓È_1
 62
     5
 10
947.05053308849995
 20
-396.4966529405001
 30
0.0
 11
940.65053308849997
 21
-396.4966529405001
 31
0.0
  0
LINE
  5
1F7
  8
┌▓È_1
 62
     5
 10
947.8505330884999
 20
-399.69665294049997
 30
0.0
 11
944.65053308850008
 21
-399.69665294049997
 31
0.0
  0
LINE
  5
1F8
  8
┌▓È_1
 62
     5
 10
984.75078719199985
 20
-398.40268671569999
 30
0.0
 11
986.05547502270008
 21
-396.4966529405001
 31
0.0
  0
ARC
  5
1F9
  8
┌▓È_1
 62
     5
 10
947.05053308849995
 20
-402.89665294050002
 30
0.0
 40
4.7999999999999989
 50
270.0
 51
0.0
  0
LINE
  5
1FA
  8
┌▓È_1
 62
     5
 10
958.50750278539988
 20
-396.4966529405001
 30
0.0
 11
958.50750278539988
 21
-399.37665294050009
 31
0.0
  0
LINE
  5
1FB
  8
┌▓È_1
 62
     5
 10
954.25053308850011
 20
-396.4966529405001
 30
0.0
 11
947.8505330884999
 21
-396.4966529405001
 31
0.0
  0
LINE
  5
1FC
  8
┌▓È_1
 62
     5
 10
987.01088194639999
 20
-406.25665294049998
 30
0.0
 11
990.85547502270015
 21
-406.25665294049998
 31
0.0
  0
LINE
  5
1FD
  8
┌▓È_1
 62
     5
 10
944.65053308850008
 20
-404.49665294049998
 30
0.0
 11
944.65053308850008
 21
-402.09665294050001
 31
0.0
  0
LINE
  5
1FE
  8
┌▓È_1
 62
     5
 10
976.45547502270006
 20
-403.37665294049998
 30
0.0
 11
976.45547502270006
 21
-406.25665294049998
 31
0.0
  0
LINE
  5
1FF
  8
┌▓È_1
 62
     5
 10
976.45547502270006
 20
-402.09665294050001
 30
0.0
 11
981.29814168929977
 21
-402.09665294050001
 31
0.0
  0
LINE
  5
200
  8
┌▓È_1
 62
     5
 10
990.85547502270015
 20
-399.21665294050001
 30
0.0
 11
990.85547502270015
 21
-402.09665294050001
 31
0.0
  0
LINE
  5
201
  8
┌▓È_1
 62
     5
 10
958.50750278539988
 20
-399.37665294050009
 30
0.0
 11
966.50750278539988
 21
-399.37665294050009
 31
0.0
  0
LINE
  5
202
  8
┌▓È_1
 62
     5
 10
945.45053308850004
 20
-405.2966529405
 30
0.0
 11
940.65053308849997
 21
-405.2966529405
 31
0.0
  0
LINE
  5
203
  8
┌▓È_1
 62
     5
 10
983.17547502269997
 20
-408.49665294049998
 30
0.0
 11
982.5184083559999
 21
-406.25665294049998
 31
0.0
  0
LINE
  5
204
  8
┌▓È_1
 62
     5
 10
986.18211941970003
 20
-403.37665294049998
 30
0.0
 11
985.81378051899992
 21
-402.09665294050001
 31
0.0
  0
LINE
  5
205
  8
┌▓È_1
 62
     5
 10
940.65053308849997
 20
-405.2966529405
 30
0.0
 11
940.65053308849997
 21
-407.69665294049997
 31
0.0
  0
LINE
  5
206
  8
┌▓È_1
 62
     5
 10
940.65053308849997
 20
-402.09665294050001
 30
0.0
 11
940.40876699
 21
-402.09665294050001
 31
0.0
  0
LINE
  5
207
  8
┌▓È_1
 62
     5
 10
981.67360835600005
 20
-403.37665294049998
 30
0.0
 11
981.29814168929977
 21
-402.09665294050001
 31
0.0
  0
LINE
  5
208
  8
┌▓È_1
 62
     5
 10
990.85547502270015
 20
-403.37665294049998
 30
0.0
 11
990.85547502270015
 21
-406.25665294049998
 31
0.0
  0
LINE
  5
209
  8
┌▓È_1
 62
     5
 10
940.65053308849997
 20
-399.69665294049997
 30
0.0
 11
938.80876698999998
 21
-399.69665294049997
 31
0.0
  0
LINE
  5
20A
  8
┌▓È_1
 62
     5
 10
958.50750278539988
 20
-407.69665294049997
 30
0.0
 11
958.50750278539988
 21
-405.2966529405
 31
0.0
  0
LINE
  5
20B
  8
┌▓È_1
 62
     5
 10
972.90750278539986
 20
-405.2966529405
 30
0.0
 11
972.90750278539986
 21
-407.69665294049997
 31
0.0
  0
LINE
  5
20C
  8
┌▓È_1
 62
     5
 10
983.17547502269997
 20
-408.49665294049998
 30
0.0
 11
987.65547502269987
 21
-408.49665294049998
 31
0.0
  0
LINE
  5
20D
  8
┌▓È_1
 62
     5
 10
954.25053308850011
 20
-399.69665294049997
 30
0.0
 11
954.25053308850011
 21
-402.09665294050001
 31
0.0
  0
LINE
  5
20E
  8
┌▓È_1
 62
     5
 10
938.80876698999998
 20
-399.69665294049997
 30
0.0
 11
938.80876698999998
 21
-402.09665294050001
 31
0.0
  0
LINE
  5
20F
  8
┌▓È_1
 62
     5
 10
958.50750278539988
 20
-400.72740579639992
 30
0.0
 11
958.50750278539988
 21
-400.2120293683999
 31
0.0
  0
LINE
  5
210
  8
┌▓È_1
 62
     5
 10
964.90750278539986
 20
-400.2120293683999
 30
0.0
 11
964.00240610550009
 21
-401.11712604839988
 31
0.0
  0
LINE
  5
211
  8
┌▓È_1
 10
936.25613035649997
 20
-359.7529296875
 30
0.0
 11
936.25613035649997
 21
-393.7529296875
 31
0.0
  0
LINE
  5
212
  8
┌▓È_1
 10
876.25613035649997
 20
-368.2529296875
 30
0.0
 11
900.25613035649997
 21
-368.2529296875
 31
0.0
  0
LINE
  5
213
  8
┌▓È_1
 10
908.25613035649985
 20
-368.2529296875
 30
0.0
 11
932.25613035649985
 21
-368.2529296875
 31
0.0
  0
LINE
  5
214
  8
┌▓È_1
 10
876.25613035649997
 20
-385.2529296875
 30
0.0
 11
932.25613035649985
 21
-385.2529296875
 31
0.0
  0
LINE
  5
215
  8
┌▓È_1
 10
940.25613035649985
 20
-368.2529296875
 30
0.0
 11
964.25613035649985
 21
-368.2529296875
 31
0.0
  0
LINE
  5
216
  8
┌▓È_1
 10
940.25613035649985
 20
-385.2529296875
 30
0.0
 11
964.25613035649985
 21
-385.2529296875
 31
0.0
  0
INSERT
  5
217
  8
0
  6
CONTINUOUS
  2
*U43
 10
0.0
 20
0.0
 30
0.0
  0
INSERT
  5
218
  8
0
  6
CONTINUOUS
  2
*U44
 10
0.0
 20
0.0
 30
0.0
  0
INSERT
  5
219
  8
0
  6
CONTINUOUS
  2
*U45
 10
0.0
 20
0.0
 30
0.0
  0
INSERT
  5
21A
  8
0
  6
CONTINUOUS
  2
*U46
 10
0.0
 20
0.0
 30
0.0
  0
INSERT
  5
21B
  8
0
  6
CONTINUOUS
  2
*U47
 10
0.0
 20
0.0
 30
0.0
  0
INSERT
  5
21C
  8
0
  6
CONTINUOUS
  2
*U48
 10
0.0
 20
0.0
 30
0.0
  0
INSERT
  5
21D
  8
0
  6
CONTINUOUS
  2
*U49
 10
0.0
 20
0.0
 30
0.0
  0
INSERT
  5
21E
  8
0
  6
CONTINUOUS
  2
*U50
 10
0.0
 20
0.0
 30
0.0
  0
INSERT
  5
21F
  8
0
  6
CONTINUOUS
  2
*U51
 10
0.0
 20
0.0
 30
0.0
  0
ARC
  5
220
  8
┌▓È_1
 62
     5
 10
960.42750278539995
 20
-399.21665294050001
 30
0.0
 40
6.0800000000000001
 50
270.0
 51
298.08590481520002
  0
INSERT
  5
221
  8
0
  6
CONTINUOUS
  2
*U52
 10
0.0
 20
0.0
 30
0.0
  0
INSERT
  5
222
  8
0
  6
CONTINUOUS
  2
*U53
 10
0.0
 20
0.0
 30
0.0
  0
INSERT
  5
223
  8
0
  6
CONTINUOUS
  2
*U54
 10
0.0
 20
0.0
 30
0.0
  0
LINE
  5
224
  8
┌▓È_1
 62
     5
 10
858.36480801899995
 20
-78.758966573100011
 30
0.0
 11
858.36480801899995
 21
-278.7589665731
 31
0.0
  0
LINE
  5
225
  8
┌▓È_1
 62
     5
 10
890.36480801899995
 20
-78.758966573100011
 30
0.0
 11
858.36480801899995
 21
-78.758966573100011
 31
0.0
  0
LINE
  5
226
  8
┌▓È_1
 62
     5
 10
858.36480801899995
 20
-278.7589665731
 30
0.0
 11
890.36480801899995
 21
-278.7589665731
 31
0.0
  0
INSERT
  5
228
  8
┌▓È_1
  2
CLUMP0
 10
0.0
 20
0.0
 30
0.0
  0
LINE
  5
22F
  8
┌▓È_1
 62
     5
 10
635.51770833329999
 20
-274.2589665731
 30
0.0
 11
635.51770833329999
 21
-78.758966573100011
 31
0.0
  0
LINE
  5
230
  8
┌▓È_1
 62
     5
 10
640.01770833329999
 20
-274.2589665731
 30
0.0
 11
640.01770833329999
 21
-78.758966573100011
 31
0.0
  0
LINE
  5
231
  8
┌▓È_1
 62
     5
 10
640.01770833329999
 20
-78.758966573100011
 30
0.0
 11
635.51770833329999
 21
-78.758966573100011
 31
0.0
  0
INSERT
  5
233
  8
┌▓È_1
  2
CLUMP1
 10
0.0
 20
0.0
 30
0.0
  0
LINE
  5
23F
  8
┌▓È_1
 62
     5
 10
760.51770833329999
 20
-278.7589665731
 30
0.0
 11
760.51770833329999
 21
-274.2589665731
 31
0.0
  0
LINE
  5
240
  8
┌▓È_1
 62
     5
 10
760.51770833329999
 20
-385.41842447919998
 30
0.0
 11
760.51770833329999
 21
-353.41842447919998
 31
0.0
  0
LINE
  5
241
  8
┌▓È_1
  6
STITCH
 10
668.01770833329988
 20
-277.0089665731
 30
0.0
 11
669.76770833329988
 21
-278.7589665731
 31
0.0
  0
LINE
  5
242
  8
┌▓È_1
  6
STITCH
 10
668.01770833329988
 20
-276.0089665731
 30
0.0
 11
669.76770833329988
 21
-274.2589665731
 31
0.0
  0
LINE
  5
243
  8
┌▓È_1
  6
STITCH
 10
663.01770833329988
 20
-277.0089665731
 30
0.0
 11
661.26770833329988
 21
-278.7589665731
 31
0.0
  0
LINE
  5
244
  8
┌▓È_1
  6
STITCH
 10
663.01770833329988
 20
-276.0089665731
 30
0.0
 11
661.26770833329988
 21
-274.2589665731
 31
0.0
  0
LINE
  5
245
  8
┌▓È_1
  6
STITCH
 10
663.01770833329988
 20
-276.0089665731
 30
0.0
 11
663.01770833329988
 21
-277.0089665731
 31
0.0
  0
INSERT
  5
247
  8
┌▓È_1
  2
CLUMP2
 10
0.0
 20
0.0
 30
0.0
  0
INSERT
  5
254
  8
┌▓È_1
  2
CLUMP3
 10
0.0
 20
0.0
 30
0.0
  0
LINE
  5
25B
  8
┌▓È_1
 62
     5
 10
858.36480801899995
 20
-274.2589665731
 30
0.0
 11
890.36480801899995
 21
-274.2589665731
 31
0.0
  0
POLYLINE
  8
┌▓È_1
  5
32F
  62
5
  66
     1
 10
0.000000
 20
0.000000
 30
0.000000
  70
     8
  0
VERTEX
  8
┌▓È_1
  5
330
 10
964.002
 20
-401.117
 30
0.000000
  70
    32
  0
VERTEX
  8
┌▓È_1
  5
331
 10
964.013
 20
-401.129
 30
0.000000
  70
    32
  0
VERTEX
  8
┌▓È_1
  5
332
 10
964.024
 20
-401.141
 30
0.000000
  70
    32
  0
VERTEX
  8
┌▓È_1
  5
333
 10
964.034
 20
-401.152
 30
0.000000
  70
    32
  0
VERTEX
  8
┌▓È_1
  5
334
 10
964.045
 20
-401.164
 30
0.000000
  70
    32
  0
VERTEX
  8
┌▓È_1
  5
335
 10
964.055
 20
-401.176
 30
0.000000
  70
    32
  0
VERTEX
  8
┌▓È_1
  5
336
 10
964.066
 20
-401.188
 30
0.000000
  70
    32
  0
VERTEX
  8
┌▓È_1
  5
337
 10
964.076
 20
-401.200
 30
0.000000
  70
    32
  0
VERTEX
  8
┌▓È_1
  5
338
 10
964.087
 20
-401.211
 30
0.000000
  70
    32
  0
VERTEX
  8
┌▓È_1
  5
339
 10
964.097
 20
-401.223
 30
0.000000
  70
    32
  0
VERTEX
  8
┌▓È_1
  5
33A
 10
964.108
 20
-401.235
 30
0.000000
  70
    32
  0
VERTEX
  8
┌▓È_1
  5
33B
 10
964.119
 20
-401.247
 30
0.000000
  70
    32
  0
VERTEX
  8
┌▓È_1
  5
33C
 10
964.129
 20
-401.258
 30
0.000000
  70
    32
  0
VERTEX
  8
┌▓È_1
  5
33D
 10
964.140
 20
-401.270
 30
0.000000
  70
    32
  0
VERTEX
  8
┌▓È_1
  5
33E
 10
964.150
 20
-401.282
 30
0.000000
  70
    32
  0
VERTEX
  8
┌▓È_1
  5
33F
 10
964.161
 20
-401.294
 30
0.000000
  70
    32
  0
VERTEX
  8
┌▓È_1
  5
340
 10
964.171
 20
-401.305
 30
0.000000
  70
    32
  0
VERTEX
  8
┌▓È_1
  5
341
 10
964.182
 20
-401.317
 30
0.000000
  70
    32
  0
VERTEX
  8
┌▓È_1
  5
342
 10
964.193
 20
-401.329
 30
0.000000
  70
    32
  0
VERTEX
  8
┌▓È_1
  5
343
 10
964.203
 20
-401.341
 30
0.000000
  70
    32
  0
VERTEX
  8
┌▓È_1
  5
344
 10
964.214
 20
-401.352
 30
0.000000
  70
    32
  0
VERTEX
  8
┌▓È_1
  5
345
 10
964.224
 20
-401.364
 30
0.000000
  70
    32
  0
VERTEX
  8
┌▓È_1
  5
346
 10
964.235
 20
-401.376
 30
0.000000
  70
    32
  0
VERTEX
  8
┌▓È_1
  5
347
 10
964.245
 20
-401.388
 30
0.000000
  70
    32
  0
VERTEX
  8
┌▓È_1
  5
348
 10
964.256
 20
-401.399
 30
0.000000
  70
    32
  0
VERTEX
  8
┌▓È_1
  5
349
 10
964.267
 20
-401.411
 30
0.000000
  70
    32
  0
VERTEX
  8
┌▓È_1
  5
34A
 10
964.277
 20
-401.423
 30
0.000000
  70
    32
  0
VERTEX
  8
┌▓È_1
  5
34B
 10
964.288
 20
-401.434
 30
0.000000
  70
    32
  0
VERTEX
  8
┌▓È_1
  5
34C
 10
964.298
 20
-401.446
 30
0.000000
  70
    32
  0
VERTEX
  8
┌▓È_1
  5
34D
 10
964.309
 20
-401.458
 30
0.000000
  70
    32
  0
VERTEX
  8
┌▓È_1
  5
34E
 10
964.320
 20
-401.470
 30
0.000000
  70
    32
  0
VERTEX
  8
┌▓È_1
  5
34F
 10
964.330
 20
-401.481
 30
0.000000
  70
    32
  0
VERTEX
  8
┌▓È_1
  5
350
 10
964.341
 20
-401.493
 30
0.000000
  70
    32
  0
VERTEX
  8
┌▓È_1
  5
351
 10
964.352
 20
-401.505
 30
0.000000
  70
    32
  0
VERTEX
  8
┌▓È_1
  5
352
 10
964.362
 20
-401.516
 30
0.000000
  70
    32
  0
VERTEX
  8
┌▓È_1
  5
353
 10
964.373
 20
-401.528
 30
0.000000
  70
    32
  0
VERTEX
  8
┌▓È_1
  5
354
 10
964.383
 20
-401.540
 30
0.000000
  70
    32
  0
VERTEX
  8
┌▓È_1
  5
355
 10
964.394
 20
-401.551
 30
0.000000
  70
    32
  0
VERTEX
  8
┌▓È_1
  5
356
 10
964.405
 20
-401.563
 30
0.000000
  70
    32
  0
VERTEX
  8
┌▓È_1
  5
357
 10
964.415
 20
-401.575
 30
0.000000
  70
    32
  0
VERTEX
  8
┌▓È_1
  5
358
 10
964.426
 20
-401.586
 30
0.000000
  70
    32
  0
VERTEX
  8
┌▓È_1
  5
359
 10
964.437
 20
-401.598
 30
0.000000
  70
    32
  0
VERTEX
  8
┌▓È_1
  5
35A
 10
964.447
 20
-401.609
 30
0.000000
  70
    32
  0
VERTEX
  8
┌▓È_1
  5
35B
 10
964.458
 20
-401.621
 30
0.000000
  70
    32
  0
VERTEX
  8
┌▓È_1
  5
35C
 10
964.469
 20
-401.633
 30
0.000000
  70
    32
  0
VERTEX
  8
┌▓È_1
  5
35D
 10
964.479
 20
-401.644
 30
0.000000
  70
    32
  0
VERTEX
  8
┌▓È_1
  5
35E
 10
964.490
 20
-401.656
 30
0.000000
  70
    32
  0
VERTEX
  8
┌▓È_1
  5
35F
 10
964.501
 20
-401.667
 30
0.000000
  70
    32
  0
VERTEX
  8
┌▓È_1
  5
360
 10
964.511
 20
-401.679
 30
0.000000
  70
    32
  0
VERTEX
  8
┌▓È_1
  5
361
 10
964.522
 20
-401.691
 30
0.000000
  70
    32
  0
VERTEX
  8
┌▓È_1
  5
362
 10
964.533
 20
-401.702
 30
0.000000
  70
    32
  0
VERTEX
  8
┌▓È_1
  5
363
 10
964.543
 20
-401.714
 30
0.000000
  70
    32
  0
VERTEX
  8
┌▓È_1
  5
364
 10
964.554
 20
-401.725
 30
0.000000
  70
    32
  0
VERTEX
  8
┌▓È_1
  5
365
 10
964.565
 20
-401.737
 30
0.000000
  70
    32
  0
VERTEX
  8
┌▓È_1
  5
366
 10
964.575
 20
-401.748
 30
0.000000
  70
    32
  0
VERTEX
  8
┌▓È_1
  5
367
 10
964.586
 20
-401.760
 30
0.000000
  70
    32
  0
VERTEX
  8
┌▓È_1
  5
368
 10
964.597
 20
-401.771
 30
0.000000
  70
    32
  0
VERTEX
  8
┌▓È_1
  5
369
 10
964.608
 20
-401.783
 30
0.000000
  70
    32
  0
VERTEX
  8
┌▓È_1
  5
36A
 10
964.618
 20
-401.794
 30
0.000000
  70
    32
  0
VERTEX
  8
┌▓È_1
  5
36B
 10
964.629
 20
-401.806
 30
0.000000
  70
    32
  0
VERTEX
  8
┌▓È_1
  5
36C
 10
964.640
 20
-401.817
 30
0.000000
  70
    32
  0
VERTEX
  8
┌▓È_1
  5
36D
 10
964.651
 20
-401.829
 30
0.000000
  70
    32
  0
VERTEX
  8
┌▓È_1
  5
36E
 10
964.661
 20
-401.840
 30
0.000000
  70
    32
  0
VERTEX
  8
┌▓È_1
  5
36F
 10
964.672
 20
-401.852
 30
0.000000
  70
    32
  0
VERTEX
  8
┌▓È_1
  5
370
 10
964.683
 20
-401.863
 30
0.000000
  70
    32
  0
VERTEX
  8
┌▓È_1
  5
371
 10
964.694
 20
-401.874
 30
0.000000
  70
    32
  0
VERTEX
  8
┌▓È_1
  5
372
 10
964.705
 20
-401.886
 30
0.000000
  70
    32
  0
VERTEX
  8
┌▓È_1
  5
373
 10
964.715
 20
-401.897
 30
0.000000
  70
    32
  0
VERTEX
  8
┌▓È_1
  5
374
 10
964.726
 20
-401.908
 30
0.000000
  70
    32
  0
VERTEX
  8
┌▓È_1
  5
375
 10
964.737
 20
-401.920
 30
0.000000
  70
    32
  0
VERTEX
  8
┌▓È_1
  5
376
 10
964.748
 20
-401.931
 30
0.000000
  70
    32
  0
VERTEX
  8
┌▓È_1
  5
377
 10
964.759
 20
-401.943
 30
0.000000
  70
    32
  0
VERTEX
  8
┌▓È_1
  5
378
 10
964.769
 20
-401.954
 30
0.000000
  70
    32
  0
VERTEX
  8
┌▓È_1
  5
379
 10
964.780
 20
-401.965
 30
0.000000
  70
    32
  0
VERTEX
  8
┌▓È_1
  5
37A
 10
964.791
 20
-401.976
 30
0.000000
  70
    32
  0
VERTEX
  8
┌▓È_1
  5
37B
 10
964.802
 20
-401.988
 30
0.000000
  70
    32
  0
VERTEX
  8
┌▓È_1
  5
37C
 10
964.813
 20
-401.999
 30
0.000000
  70
    32
  0
VERTEX
  8
┌▓È_1
  5
37D
 10
964.824
 20
-402.010
 30
0.000000
  70
    32
  0
VERTEX
  8
┌▓È_1
  5
37E
 10
964.835
 20
-402.022
 30
0.000000
  70
    32
  0
VERTEX
  8
┌▓È_1
  5
37F
 10
964.846
 20
-402.033
 30
0.000000
  70
    32
  0
VERTEX
  8
┌▓È_1
  5
380
 10
964.856
 20
-402.044
 30
0.000000
  70
    32
  0
VERTEX
  8
┌▓È_1
  5
381
 10
964.867
 20
-402.055
 30
0.000000
  70
    32
  0
VERTEX
  8
┌▓È_1
  5
382
 10
964.878
 20
-402.066
 30
0.000000
  70
    32
  0
VERTEX
  8
┌▓È_1
  5
383
 10
964.889
 20
-402.078
 30
0.000000
  70
    32
  0
VERTEX
  8
┌▓È_1
  5
384
 10
964.900
 20
-402.089
 30
0.000000
  70
    32
  0
VERTEX
  8
┌▓È_1
  5
385
 10
964.911
 20
-402.100
 30
0.000000
  70
    32
  0
VERTEX
  8
┌▓È_1
  5
386
 10
964.922
 20
-402.111
 30
0.000000
  70
    32
  0
VERTEX
  8
┌▓È_1
  5
387
 10
964.933
 20
-402.122
 30
0.000000
  70
    32
  0
VERTEX
  8
┌▓È_1
  5
388
 10
964.944
 20
-402.133
 30
0.000000
  70
    32
  0
VERTEX
  8
┌▓È_1
  5
389
 10
964.955
 20
-402.144
 30
0.000000
  70
    32
  0
VERTEX
  8
┌▓È_1
  5
38A
 10
964.966
 20
-402.155
 30
0.000000
  70
    32
  0
VERTEX
  8
┌▓È_1
  5
38B
 10
964.977
 20
-402.166
 30
0.000000
  70
    32
  0
VERTEX
  8
┌▓È_1
  5
38C
 10
964.988
 20
-402.177
 30
0.000000
  70
    32
  0
VERTEX
  8
┌▓È_1
  5
38D
 10
964.999
 20
-402.188
 30
0.000000
  70
    32
  0
VERTEX
  8
┌▓È_1
  5
38E
 10
965.010
 20
-402.199
 30
0.000000
  70
    32
  0
VERTEX
  8
┌▓È_1
  5
38F
 10
965.021
 20
-402.210
 30
0.000000
  70
    32
  0
VERTEX
  8
┌▓È_1
  5
390
 10
965.032
 20
-402.221
 30
0.000000
  70
    32
  0
VERTEX
  8
┌▓È_1
  5
391
 10
965.043
 20
-402.232
 30
0.000000
  70
    32
  0
VERTEX
  8
┌▓È_1
  5
392
 10
965.054
 20
-402.243
 30
0.000000
  70
    32
  0
VERTEX
  8
┌▓È_1
  5
393
 10
965.065
 20
-402.254
 30
0.000000
  70
    32
  0
VERTEX
  8
┌▓È_1
  5
394
 10
965.076
 20
-402.265
 30
0.000000
  70
    32
  0
VERTEX
  8
┌▓È_1
  5
395
 10
965.088
 20
-402.276
 30
0.000000
  70
    32
  0
VERTEX
  8
┌▓È_1
  5
396
 10
965.099
 20
-402.287
 30
0.000000
  70
    32
  0
VERTEX
  8
┌▓È_1
  5
397
 10
965.110
 20
-402.298
 30
0.000000
  70
    32
  0
VERTEX
  8
┌▓È_1
  5
398
 10
965.121
 20
-402.309
 30
0.000000
  70
    32
  0
VERTEX
  8
┌▓È_1
  5
399
 10
965.132
 20
-402.319
 30
0.000000
  70
    32
  0
VERTEX
  8
┌▓È_1
  5
39A
 10
965.143
 20
-402.330
 30
0.000000
  70
    32
  0
VERTEX
  8
┌▓È_1
  5
39B
 10
965.154
 20
-402.341
 30
0.000000
  70
    32
  0
VERTEX
  8
┌▓È_1
  5
39C
 10
965.166
 20
-402.352
 30
0.000000
  70
    32
  0
VERTEX
  8
┌▓È_1
  5
39D
 10
965.177
 20
-402.362
 30
0.000000
  70
    32
  0
VERTEX
  8
┌▓È_1
  5
39E
 10
965.188
 20
-402.373
 30
0.000000
  70
    32
  0
VERTEX
  8
┌▓È_1
  5
39F
 10
965.199
 20
-402.384
 30
0.000000
  70
    32
  0
VERTEX
  8
┌▓È_1
  5
3A0
 10
965.211
 20
-402.395
 30
0.000000
  70
    32
  0
VERTEX
  8
┌▓È_1
  5
3A1
 10
965.222
 20
-402.405
 30
0.000000
  70
    32
  0
VERTEX
  8
┌▓È_1
  5
3A2
 10
965.233
 20
-402.416
 30
0.000000
  70
    32
  0
VERTEX
  8
┌▓È_1
  5
3A3
 10
965.244
 20
-402.427
 30
0.000000
  70
    32
  0
VERTEX
  8
┌▓È_1
  5
3A4
 10
965.256
 20
-402.437
 30
0.000000
  70
    32
  0
VERTEX
  8
┌▓È_1
  5
3A5
 10
965.267
 20
-402.448
 30
0.000000
  70
    32
  0
VERTEX
  8
┌▓È_1
  5
3A6
 10
965.278
 20
-402.458
 30
0.000000
  70
    32
  0
VERTEX
  8
┌▓È_1
  5
3A7
 10
965.290
 20
-402.469
 30
0.000000
  70
    32
  0
VERTEX
  8
┌▓È_1
  5
3A8
 10
965.301
 20
-402.479
 30
0.000000
  70
    32
  0
VERTEX
  8
┌▓È_1
  5
3A9
 10
965.312
 20
-402.490
 30
0.000000
  70
    32
  0
VERTEX
  8
┌▓È_1
  5
3AA
 10
965.324
 20
-402.500
 30
0.000000
  70
    32
  0
VERTEX
  8
┌▓È_1
  5
3AB
 10
965.335
 20
-402.511
 30
0.000000
  70
    32
  0
VERTEX
  8
┌▓È_1
  5
3AC
 10
965.346
 20
-402.521
 30
0.000000
  70
    32
  0
VERTEX
  8
┌▓È_1
  5
3AD
 10
965.358
 20
-402.532
 30
0.000000
  70
    32
  0
VERTEX
  8
┌▓È_1
  5
3AE
 10
965.369
 20
-402.542
 30
0.000000
  70
    32
  0
VERTEX
  8
┌▓È_1
  5
3AF
 10
965.381
 20
-402.552
 30
0.000000
  70
    32
  0
SEQEND
  8
┌▓È_1
  5
3B0
  0
POLYLINE
  8
┌▓È_1
  5
3B1
  62
5
  66
     1
 10
0.000000
 20
0.000000
 30
0.000000
  70
     8
  0
VERTEX
  8
┌▓È_1
  5
3B2
 10
967.242
 20
-406.315
 30
0.000000
  70
    32
  0
VERTEX
  8
┌▓È_1
  5
3B3
 10
967.285
 20
-406.329
 30
0.000000
  70
    32
  0
VERTEX
  8
┌▓È_1
  5
3B4
 10
967.328
 20
-406.342
 30
0.000000
  70
    32
  0
VERTEX
  8
┌▓È_1
  5
3B5
 10
967.371
 20
-406.356
 30
0.000000
  70
    32
  0
VERTEX
  8
┌▓È_1
  5
3B6
 10
967.414
 20
-406.369
 30
0.000000
  70
    32
  0
VERTEX
  8
┌▓È_1
  5
3B7
 10
967.457
 20
-406.383
 30
0.000000
  70
    32
  0
VERTEX
  8
┌▓È_1
  5
3B8
 10
967.501
 20
-406.396
 30
0.000000
  70
    32
  0
VERTEX
  8
┌▓È_1
  5
3B9
 10
967.544
 20
-406.410
 30
0.000000
  70
    32
  0
VERTEX
  8
┌▓È_1
  5
3BA
 10
967.587
 20
-406.423
 30
0.000000
  70
    32
  0
VERTEX
  8
┌▓È_1
  5
3BB
 10
967.630
 20
-406.436
 30
0.000000
  70
    32
  0
VERTEX
  8
┌▓È_1
  5
3BC
 10
967.674
 20
-406.449
 30
0.000000
  70
    32
  0
VERTEX
  8
┌▓È_1
  5
3BD
 10
967.717
 20
-406.462
 30
0.000000
  70
    32
  0
VERTEX
  8
┌▓È_1
  5
3BE
 10
967.761
 20
-406.475
 30
0.000000
  70
    32
  0
VERTEX
  8
┌▓È_1
  5
3BF
 10
967.804
 20
-406.488
 30
0.000000
  70
    32
  0
VERTEX
  8
┌▓È_1
  5
3C0
 10
967.848
 20
-406.501
 30
0.000000
  70
    32
  0
VERTEX
  8
┌▓È_1
  5
3C1
 10
967.891
 20
-406.514
 30
0.000000
  70
    32
  0
VERTEX
  8
┌▓È_1
  5
3C2
 10
967.935
 20
-406.527
 30
0.000000
  70
    32
  0
VERTEX
  8
┌▓È_1
  5
3C3
 10
967.979
 20
-406.539
 30
0.000000
  70
    32
  0
VERTEX
  8
┌▓È_1
  5
3C4
 10
968.022
 20
-406.552
 30
0.000000
  70
    32
  0
VERTEX
  8
┌▓È_1
  5
3C5
 10
968.066
 20
-406.565
 30
0.000000
  70
    32
  0
VERTEX
  8
┌▓È_1
  5
3C6
 10
968.110
 20
-406.577
 30
0.000000
  70
    32
  0
VERTEX
  8
┌▓È_1
  5
3C7
 10
968.153
 20
-406.590
 30
0.000000
  70
    32
  0
VERTEX
  8
┌▓È_1
  5
3C8
 10
968.197
 20
-406.602
 30
0.000000
  70
    32
  0
VERTEX
  8
┌▓È_1
  5
3C9
 10
968.241
 20
-406.615
 30
0.000000
  70
    32
  0
VERTEX
  8
┌▓È_1
  5
3CA
 10
968.285
 20
-406.627
 30
0.000000
  70
    32
  0
VERTEX
  8
┌▓È_1
  5
3CB
 10
968.329
 20
-406.639
 30
0.000000
  70
    32
  0
VERTEX
  8
┌▓È_1
  5
3CC
 10
968.373
 20
-406.651
 30
0.000000
  70
    32
  0
VERTEX
  8
┌▓È_1
  5
3CD
 10
968.416
 20
-406.663
 30
0.000000
  70
    32
  0
VERTEX
  8
┌▓È_1
  5
3CE
 10
968.460
 20
-406.676
 30
0.000000
  70
    32
  0
VERTEX
  8
┌▓È_1
  5
3CF
 10
968.504
 20
-406.688
 30
0.000000
  70
    32
  0
VERTEX
  8
┌▓È_1
  5
3D0
 10
968.548
 20
-406.700
 30
0.000000
  70
    32
  0
VERTEX
  8
┌▓È_1
  5
3D1
 10
968.592
 20
-406.711
 30
0.000000
  70
    32
  0
VERTEX
  8
┌▓È_1
  5
3D2
 10
968.637
 20
-406.723
 30
0.000000
  70
    32
  0
VERTEX
  8
┌▓È_1
  5
3D3
 10
968.681
 20
-406.735
 30
0.000000
  70
    32
  0
VERTEX
  8
┌▓È_1
  5
3D4
 10
968.725
 20
-406.747
 30
0.000000
  70
    32
  0
VERTEX
  8
┌▓È_1
  5
3D5
 10
968.769
 20
-406.759
 30
0.000000
  70
    32
  0
VERTEX
  8
┌▓È_1
  5
3D6
 10
968.813
 20
-406.770
 30
0.000000
  70
    32
  0
VERTEX
  8
┌▓È_1
  5
3D7
 10
968.857
 20
-406.782
 30
0.000000
  70
    32
  0
VERTEX
  8
┌▓È_1
  5
3D8
 10
968.902
 20
-406.794
 30
0.000000
  70
    32
  0
VERTEX
  8
┌▓È_1
  5
3D9
 10
968.946
 20
-406.805
 30
0.000000
  70
    32
  0
VERTEX
  8
┌▓È_1
  5
3DA
 10
968.990
 20
-406.817
 30
0.000000
  70
    32
  0
VERTEX
  8
┌▓È_1
  5
3DB
 10
969.034
 20
-406.828
 30
0.000000
  70
    32
  0
VERTEX
  8
┌▓È_1
  5
3DC
 10
969.079
 20
-406.840
 30
0.000000
  70
    32
  0
VERTEX
  8
┌▓È_1
  5
3DD
 10
969.123
 20
-406.851
 30
0.000000
  70
    32
  0
VERTEX
  8
┌▓È_1
  5
3DE
 10
969.167
 20
-406.862
 30
0.000000
  70
    32
  0
VERTEX
  8
┌▓È_1
  5
3DF
 10
969.212
 20
-406.873
 30
0.000000
  70
    32
  0
VERTEX
  8
┌▓È_1
  5
3E0
 10
969.256
 20
-406.885
 30
0.000000
  70
    32
  0
VERTEX
  8
┌▓È_1
  5
3E1
 10
969.301
 20
-406.896
 30
0.000000
  70
    32
  0
VERTEX
  8
┌▓È_1
  5
3E2
 10
969.345
 20
-406.907
 30
0.000000
  70
    32
  0
VERTEX
  8
┌▓È_1
  5
3E3
 10
969.390
 20
-406.918
 30
0.000000
  70
    32
  0
VERTEX
  8
┌▓È_1
  5
3E4
 10
969.434
 20
-406.929
 30
0.000000
  70
    32
  0
VERTEX
  8
┌▓È_1
  5
3E5
 10
969.479
 20
-406.940
 30
0.000000
  70
    32
  0
VERTEX
  8
┌▓È_1
  5
3E6
 10
969.523
 20
-406.951
 30
0.000000
  70
    32
  0
VERTEX
  8
┌▓È_1
  5
3E7
 10
969.568
 20
-406.962
 30
0.000000
  70
    32
  0
VERTEX
  8
┌▓È_1
  5
3E8
 10
969.613
 20
-406.973
 30
0.000000
  70
    32
  0
VERTEX
  8
┌▓È_1
  5
3E9
 10
969.657
 20
-406.984
 30
0.000000
  70
    32
  0
VERTEX
  8
┌▓È_1
  5
3EA
 10
969.702
 20
-406.995
 30
0.000000
  70
    32
  0
VERTEX
  8
┌▓È_1
  5
3EB
 10
969.746
 20
-407.005
 30
0.000000
  70
    32
  0
VERTEX
  8
┌▓È_1
  5
3EC
 10
969.791
 20
-407.016
 30
0.000000
  70
    32
  0
VERTEX
  8
┌▓È_1
  5
3ED
 10
969.836
 20
-407.027
 30
0.000000
  70
    32
  0
VERTEX
  8
┌▓È_1
  5
3EE
 10
969.881
 20
-407.037
 30
0.000000
  70
    32
  0
VERTEX
  8
┌▓È_1
  5
3EF
 10
969.925
 20
-407.048
 30
0.000000
  70
    32
  0
VERTEX
  8
┌▓È_1
  5
3F0
 10
969.970
 20
-407.059
 30
0.000000
  70
    32
  0
VERTEX
  8
┌▓È_1
  5
3F1
 10
970.015
 20
-407.069
 30
0.000000
  70
    32
  0
VERTEX
  8
┌▓È_1
  5
3F2
 10
970.060
 20
-407.080
 30
0.000000
  70
    32
  0
VERTEX
  8
┌▓È_1
  5
3F3
 10
970.105
 20
-407.090
 30
0.000000
  70
    32
  0
VERTEX
  8
┌▓È_1
  5
3F4
 10
970.149
 20
-407.101
 30
0.000000
  70
    32
  0
VERTEX
  8
┌▓È_1
  5
3F5
 10
970.194
 20
-407.111
 30
0.000000
  70
    32
  0
VERTEX
  8
┌▓È_1
  5
3F6
 10
970.239
 20
-407.121
 30
0.000000
  70
    32
  0
VERTEX
  8
┌▓È_1
  5
3F7
 10
970.284
 20
-407.132
 30
0.000000
  70
    32
  0
VERTEX
  8
┌▓È_1
  5
3F8
 10
970.329
 20
-407.142
 30
0.000000
  70
    32
  0
VERTEX
  8
┌▓È_1
  5
3F9
 10
970.374
 20
-407.152
 30
0.000000
  70
    32
  0
VERTEX
  8
┌▓È_1
  5
3FA
 10
970.419
 20
-407.163
 30
0.000000
  70
    32
  0
VERTEX
  8
┌▓È_1
  5
3FB
 10
970.464
 20
-407.173
 30
0.000000
  70
    32
  0
VERTEX
  8
┌▓È_1
  5
3FC
 10
970.509
 20
-407.183
 30
0.000000
  70
    32
  0
VERTEX
  8
┌▓È_1
  5
3FD
 10
970.554
 20
-407.193
 30
0.000000
  70
    32
  0
VERTEX
  8
┌▓È_1
  5
3FE
 10
970.599
 20
-407.203
 30
0.000000
  70
    32
  0
VERTEX
  8
┌▓È_1
  5
3FF
 10
970.644
 20
-407.214
 30
0.000000
  70
    32
  0
VERTEX
  8
┌▓È_1
  5
400
 10
970.689
 20
-407.224
 30
0.000000
  70
    32
  0
VERTEX
  8
┌▓È_1
  5
401
 10
970.734
 20
-407.234
 30
0.000000
  70
    32
  0
VERTEX
  8
┌▓È_1
  5
402
 10
970.779
 20
-407.244
 30
0.000000
  70
    32
  0
VERTEX
  8
┌▓È_1
  5
403
 10
970.824
 20
-407.254
 30
0.000000
  70
    32
  0
VERTEX
  8
┌▓È_1
  5
404
 10
970.869
 20
-407.264
 30
0.000000
  70
    32
  0
VERTEX
  8
┌▓È_1
  5
405
 10
970.914
 20
-407.274
 30
0.000000
  70
    32
  0
VERTEX
  8
┌▓È_1
  5
406
 10
970.959
 20
-407.284
 30
0.000000
  70
    32
  0
VERTEX
  8
┌▓È_1
  5
407
 10
971.005
 20
-407.294
 30
0.000000
  70
    32
  0
VERTEX
  8
┌▓È_1
  5
408
 10
971.050
 20
-407.304
 30
0.000000
  70
    32
  0
VERTEX
  8
┌▓È_1
  5
409
 10
971.095
 20
-407.313
 30
0.000000
  70
    32
  0
VERTEX
  8
┌▓È_1
  5
40A
 10
971.140
 20
-407.323
 30
0.000000
  70
    32
  0
VERTEX
  8
┌▓È_1
  5
40B
 10
971.185
 20
-407.333
 30
0.000000
  70
    32
  0
VERTEX
  8
┌▓È_1
  5
40C
 10
971.230
 20
-407.343
 30
0.000000
  70
    32
  0
VERTEX
  8
┌▓È_1
  5
40D
 10
971.276
 20
-407.353
 30
0.000000
  70
    32
  0
VERTEX
  8
┌▓È_1
  5
40E
 10
971.321
 20
-407.363
 30
0.000000
  70
    32
  0
VERTEX
  8
┌▓È_1
  5
40F
 10
971.366
 20
-407.372
 30
0.000000
  70
    32
  0
VERTEX
  8
┌▓È_1
  5
410
 10
971.411
 20
-407.382
 30
0.000000
  70
    32
  0
VERTEX
  8
┌▓È_1
  5
411
 10
971.456
 20
-407.392
 30
0.000000
  70
    32
  0
VERTEX
  8
┌▓È_1
  5
412
 10
971.502
 20
-407.401
 30
0.000000
  70
    32
  0
VERTEX
  8
┌▓È_1
  5
413
 10
971.547
 20
-407.411
 30
0.000000
  70
    32
  0
VERTEX
  8
┌▓È_1
  5
414
 10
971.592
 20
-407.421
 30
0.000000
  70
    32
  0
VERTEX
  8
┌▓È_1
  5
415
 10
971.638
 20
-407.430
 30
0.000000
  70
    32
  0
VERTEX
  8
┌▓È_1
  5
416
 10
971.683
 20
-407.440
 30
0.000000
  70
    32
  0
VERTEX
  8
┌▓È_1
  5
417
 10
971.728
 20
-407.450
 30
0.000000
  70
    32
  0
VERTEX
  8
┌▓È_1
  5
418
 10
971.773
 20
-407.459
 30
0.000000
  70
    32
  0
VERTEX
  8
┌▓È_1
  5
419
 10
971.819
 20
-407.469
 30
0.000000
  70
    32
  0
VERTEX
  8
┌▓È_1
  5
41A
 10
971.864
 20
-407.479
 30
0.000000
  70
    32
  0
VERTEX
  8
┌▓È_1
  5
41B
 10
971.909
 20
-407.488
 30
0.000000
  70
    32
  0
VERTEX
  8
┌▓È_1
  5
41C
 10
971.955
 20
-407.498
 30
0.000000
  70
    32
  0
VERTEX
  8
┌▓È_1
  5
41D
 10
972.000
 20
-407.507
 30
0.000000
  70
    32
  0
VERTEX
  8
┌▓È_1
  5
41E
 10
972.045
 20
-407.517
 30
0.000000
  70
    32
  0
VERTEX
  8
┌▓È_1
  5
41F
 10
972.091
 20
-407.526
 30
0.000000
  70
    32
  0
VERTEX
  8
┌▓È_1
  5
420
 10
972.136
 20
-407.536
 30
0.000000
  70
    32
  0
VERTEX
  8
┌▓È_1
  5
421
 10
972.181
 20
-407.545
 30
0.000000
  70
    32
  0
VERTEX
  8
┌▓È_1
  5
422
 10
972.227
 20
-407.555
 30
0.000000
  70
    32
  0
VERTEX
  8
┌▓È_1
  5
423
 10
972.272
 20
-407.564
 30
0.000000
  70
    32
  0
VERTEX
  8
┌▓È_1
  5
424
 10
972.317
 20
-407.574
 30
0.000000
  70
    32
  0
VERTEX
  8
┌▓È_1
  5
425
 10
972.363
 20
-407.583
 30
0.000000
  70
    32
  0
VERTEX
  8
┌▓È_1
  5
426
 10
972.408
 20
-407.593
 30
0.000000
  70
    32
  0
VERTEX
  8
┌▓È_1
  5
427
 10
972.454
 20
-407.602
 30
0.000000
  70
    32
  0
VERTEX
  8
┌▓È_1
  5
428
 10
972.499
 20
-407.612
 30
0.000000
  70
    32
  0
VERTEX
  8
┌▓È_1
  5
429
 10
972.544
 20
-407.621
 30
0.000000
  70
    32
  0
VERTEX
  8
┌▓È_1
  5
42A
 10
972.590
 20
-407.631
 30
0.000000
  70
    32
  0
VERTEX
  8
┌▓È_1
  5
42B
 10
972.635
 20
-407.640
 30
0.000000
  70
    32
  0
VERTEX
  8
┌▓È_1
  5
42C
 10
972.681
 20
-407.649
 30
0.000000
  70
    32
  0
VERTEX
  8
┌▓È_1
  5
42D
 10
972.726
 20
-407.659
 30
0.000000
  70
    32
  0
VERTEX
  8
┌▓È_1
  5
42E
 10
972.771
 20
-407.668
 30
0.000000
  70
    32
  0
VERTEX
  8
┌▓È_1
  5
42F
 10
972.817
 20
-407.678
 30
0.000000
  70
    32
  0
VERTEX
  8
┌▓È_1
  5
430
 10
972.862
 20
-407.687
 30
0.000000
  70
    32
  0
VERTEX
  8
┌▓È_1
  5
431
 10
972.908
 20
-407.697
 30
0.000000
  70
    32
  0
SEQEND
  8
┌▓È_1
  5
432
  0
POLYLINE
  8
┌▓È_1
  5
433
  62
5
  66
     1
 10
0.000000
 20
0.000000
 30
0.000000
  70
     8
  0
VERTEX
  8
┌▓È_1
  5
434
 10
958.508
 20
-400.727
 30
0.000000
  70
    32
  0
VERTEX
  8
┌▓È_1
  5
435
 10
958.536
 20
-400.754
 30
0.000000
  70
    32
  0
VERTEX
  8
┌▓È_1
  5
436
 10
958.565
 20
-400.781
 30
0.000000
  70
    32
  0
VERTEX
  8
┌▓È_1
  5
437
 10
958.594
 20
-400.807
 30
0.000000
  70
    32
  0
VERTEX
  8
┌▓È_1
  5
438
 10
958.623
 20
-400.834
 30
0.000000
  70
    32
  0
VERTEX
  8
┌▓È_1
  5
439
 10
958.652
 20
-400.860
 30
0.000000
  70
    32
  0
VERTEX
  8
┌▓È_1
  5
43A
 10
958.680
 20
-400.887
 30
0.000000
  70
    32
  0
VERTEX
  8
┌▓È_1
  5
43B
 10
958.709
 20
-400.913
 30
0.000000
  70
    32
  0
VERTEX
  8
┌▓È_1
  5
43C
 10
958.738
 20
-400.940
 30
0.000000
  70
    32
  0
VERTEX
  8
┌▓È_1
  5
43D
 10
958.767
 20
-400.966
 30
0.000000
  70
    32
  0
VERTEX
  8
┌▓È_1
  5
43E
 10
958.796
 20
-400.993
 30
0.000000
  70
    32
  0
VERTEX
  8
┌▓È_1
  5
43F
 10
958.825
 20
-401.019
 30
0.000000
  70
    32
  0
VERTEX
  8
┌▓È_1
  5
440
 10
958.853
 20
-401.046
 30
0.000000
  70
    32
  0
VERTEX
  8
┌▓È_1
  5
441
 10
958.882
 20
-401.073
 30
0.000000
  70
    32
  0
VERTEX
  8
┌▓È_1
  5
442
 10
958.911
 20
-401.099
 30
0.000000
  70
    32
  0
VERTEX
  8
┌▓È_1
  5
443
 10
958.940
 20
-401.126
 30
0.000000
  70
    32
  0
VERTEX
  8
┌▓È_1
  5
444
 10
958.969
 20
-401.152
 30
0.000000
  70
    32
  0
VERTEX
  8
┌▓È_1
  5
445
 10
958.998
 20
-401.179
 30
0.000000
  70
    32
  0
VERTEX
  8
┌▓È_1
  5
446
 10
959.027
 20
-401.205
 30
0.000000
  70
    32
  0
VERTEX
  8
┌▓È_1
  5
447
 10
959.055
 20
-401.231
 30
0.000000
  70
    32
  0
VERTEX
  8
┌▓È_1
  5
448
 10
959.084
 20
-401.258
 30
0.000000
  70
    32
  0
VERTEX
  8
┌▓È_1
  5
449
 10
959.113
 20
-401.284
 30
0.000000
  70
    32
  0
VERTEX
  8
┌▓È_1
  5
44A
 10
959.142
 20
-401.311
 30
0.000000
  70
    32
  0
VERTEX
  8
┌▓È_1
  5
44B
 10
959.171
 20
-401.337
 30
0.000000
  70
    32
  0
VERTEX
  8
┌▓È_1
  5
44C
 10
959.200
 20
-401.364
 30
0.000000
  70
    32
  0
VERTEX
  8
┌▓È_1
  5
44D
 10
959.229
 20
-401.390
 30
0.000000
  70
    32
  0
VERTEX
  8
┌▓È_1
  5
44E
 10
959.258
 20
-401.416
 30
0.000000
  70
    32
  0
VERTEX
  8
┌▓È_1
  5
44F
 10
959.287
 20
-401.443
 30
0.000000
  70
    32
  0
VERTEX
  8
┌▓È_1
  5
450
 10
959.316
 20
-401.469
 30
0.000000
  70
    32
  0
VERTEX
  8
┌▓È_1
  5
451
 10
959.344
 20
-401.496
 30
0.000000
  70
    32
  0
VERTEX
  8
┌▓È_1
  5
452
 10
959.373
 20
-401.522
 30
0.000000
  70
    32
  0
VERTEX
  8
┌▓È_1
  5
453
 10
959.402
 20
-401.548
 30
0.000000
  70
    32
  0
VERTEX
  8
┌▓È_1
  5
454
 10
959.431
 20
-401.574
 30
0.000000
  70
    32
  0
VERTEX
  8
┌▓È_1
  5
455
 10
959.460
 20
-401.601
 30
0.000000
  70
    32
  0
VERTEX
  8
┌▓È_1
  5
456
 10
959.489
 20
-401.627
 30
0.000000
  70
    32
  0
VERTEX
  8
┌▓È_1
  5
457
 10
959.518
 20
-401.653
 30
0.000000
  70
    32
  0
VERTEX
  8
┌▓È_1
  5
458
 10
959.547
 20
-401.679
 30
0.000000
  70
    32
  0
VERTEX
  8
┌▓È_1
  5
459
 10
959.576
 20
-401.706
 30
0.000000
  70
    32
  0
VERTEX
  8
┌▓È_1
  5
45A
 10
959.605
 20
-401.732
 30
0.000000
  70
    32
  0
VERTEX
  8
┌▓È_1
  5
45B
 10
959.634
 20
-401.758
 30
0.000000
  70
    32
  0
VERTEX
  8
┌▓È_1
  5
45C
 10
959.663
 20
-401.784
 30
0.000000
  70
    32
  0
VERTEX
  8
┌▓È_1
  5
45D
 10
959.692
 20
-401.810
 30
0.000000
  70
    32
  0
VERTEX
  8
┌▓È_1
  5
45E
 10
959.722
 20
-401.836
 30
0.000000
  70
    32
  0
VERTEX
  8
┌▓È_1
  5
45F
 10
959.751
 20
-401.862
 30
0.000000
  70
    32
  0
VERTEX
  8
┌▓È_1
  5
460
 10
959.780
 20
-401.888
 30
0.000000
  70
    32
  0
VERTEX
  8
┌▓È_1
  5
461
 10
959.809
 20
-401.914
 30
0.000000
  70
    32
  0
VERTEX
  8
┌▓È_1
  5
462
 10
959.838
 20
-401.940
 30
0.000000
  70
    32
  0
VERTEX
  8
┌▓È_1
  5
463
 10
959.867
 20
-401.966
 30
0.000000
  70
    32
  0
VERTEX
  8
┌▓È_1
  5
464
 10
959.896
 20
-401.992
 30
0.000000
  70
    32
  0
VERTEX
  8
┌▓È_1
  5
465
 10
959.925
 20
-402.018
 30
0.000000
  70
    32
  0
VERTEX
  8
┌▓È_1
  5
466
 10
959.955
 20
-402.044
 30
0.000000
  70
    32
  0
VERTEX
  8
┌▓È_1
  5
467
 10
959.984
 20
-402.070
 30
0.000000
  70
    32
  0
VERTEX
  8
┌▓È_1
  5
468
 10
960.013
 20
-402.096
 30
0.000000
  70
    32
  0
VERTEX
  8
┌▓È_1
  5
469
 10
960.042
 20
-402.122
 30
0.000000
  70
    32
  0
VERTEX
  8
┌▓È_1
  5
46A
 10
960.072
 20
-402.147
 30
0.000000
  70
    32
  0
VERTEX
  8
┌▓È_1
  5
46B
 10
960.101
 20
-402.173
 30
0.000000
  70
    32
  0
VERTEX
  8
┌▓È_1
  5
46C
 10
960.130
 20
-402.199
 30
0.000000
  70
    32
  0
VERTEX
  8
┌▓È_1
  5
46D
 10
960.159
 20
-402.224
 30
0.000000
  70
    32
  0
VERTEX
  8
┌▓È_1
  5
46E
 10
960.189
 20
-402.250
 30
0.000000
  70
    32
  0
VERTEX
  8
┌▓È_1
  5
46F
 10
960.218
 20
-402.276
 30
0.000000
  70
    32
  0
VERTEX
  8
┌▓È_1
  5
470
 10
960.247
 20
-402.301
 30
0.000000
  70
    32
  0
VERTEX
  8
┌▓È_1
  5
471
 10
960.277
 20
-402.327
 30
0.000000
  70
    32
  0
VERTEX
  8
┌▓È_1
  5
472
 10
960.306
 20
-402.352
 30
0.000000
  70
    32
  0
VERTEX
  8
┌▓È_1
  5
473
 10
960.336
 20
-402.378
 30
0.000000
  70
    32
  0
VERTEX
  8
┌▓È_1
  5
474
 10
960.365
 20
-402.403
 30
0.000000
  70
    32
  0
VERTEX
  8
┌▓È_1
  5
475
 10
960.394
 20
-402.429
 30
0.000000
  70
    32
  0
VERTEX
  8
┌▓È_1
  5
476
 10
960.424
 20
-402.454
 30
0.000000
  70
    32
  0
VERTEX
  8
┌▓È_1
  5
477
 10
960.453
 20
-402.479
 30
0.000000
  70
    32
  0
VERTEX
  8
┌▓È_1
  5
478
 10
960.483
 20
-402.505
 30
0.000000
  70
    32
  0
VERTEX
  8
┌▓È_1
  5
479
 10
960.512
 20
-402.530
 30
0.000000
  70
    32
  0
VERTEX
  8
┌▓È_1
  5
47A
 10
960.542
 20
-402.555
 30
0.000000
  70
    32
  0
VERTEX
  8
┌▓È_1
  5
47B
 10
960.571
 20
-402.580
 30
0.000000
  70
    32
  0
VERTEX
  8
┌▓È_1
  5
47C
 10
960.601
 20
-402.606
 30
0.000000
  70
    32
  0
VERTEX
  8
┌▓È_1
  5
47D
 10
960.631
 20
-402.631
 30
0.000000
  70
    32
  0
VERTEX
  8
┌▓È_1
  5
47E
 10
960.660
 20
-402.656
 30
0.000000
  70
    32
  0
VERTEX
  8
┌▓È_1
  5
47F
 10
960.690
 20
-402.681
 30
0.000000
  70
    32
  0
VERTEX
  8
┌▓È_1
  5
480
 10
960.720
 20
-402.706
 30
0.000000
  70
    32
  0
VERTEX
  8
┌▓È_1
  5
481
 10
960.749
 20
-402.731
 30
0.000000
  70
    32
  0
VERTEX
  8
┌▓È_1
  5
482
 10
960.779
 20
-402.756
 30
0.000000
  70
    32
  0
VERTEX
  8
┌▓È_1
  5
483
 10
960.809
 20
-402.781
 30
0.000000
  70
    32
  0
VERTEX
  8
┌▓È_1
  5
484
 10
960.838
 20
-402.805
 30
0.000000
  70
    32
  0
VERTEX
  8
┌▓È_1
  5
485
 10
960.868
 20
-402.830
 30
0.000000
  70
    32
  0
VERTEX
  8
┌▓È_1
  5
486
 10
960.898
 20
-402.855
 30
0.000000
  70
    32
  0
VERTEX
  8
┌▓È_1
  5
487
 10
960.928
 20
-402.880
 30
0.000000
  70
    32
  0
VERTEX
  8
┌▓È_1
  5
488
 10
960.958
 20
-402.904
 30
0.000000
  70
    32
  0
VERTEX
  8
┌▓È_1
  5
489
 10
960.988
 20
-402.929
 30
0.000000
  70
    32
  0
VERTEX
  8
┌▓È_1
  5
48A
 10
961.018
 20
-402.953
 30
0.000000
  70
    32
  0
VERTEX
  8
┌▓È_1
  5
48B
 10
961.048
 20
-402.978
 30
0.000000
  70
    32
  0
VERTEX
  8
┌▓È_1
  5
48C
 10
961.077
 20
-403.002
 30
0.000000
  70
    32
  0
VERTEX
  8
┌▓È_1
  5
48D
 10
961.107
 20
-403.027
 30
0.000000
  70
    32
  0
VERTEX
  8
┌▓È_1
  5
48E
 10
961.137
 20
-403.051
 30
0.000000
  70
    32
  0
VERTEX
  8
┌▓È_1
  5
48F
 10
961.168
 20
-403.075
 30
0.000000
  70
    32
  0
VERTEX
  8
┌▓È_1
  5
490
 10
961.198
 20
-403.100
 30
0.000000
  70
    32
  0
VERTEX
  8
┌▓È_1
  5
491
 10
961.228
 20
-403.124
 30
0.000000
  70
    32
  0
VERTEX
  8
┌▓È_1
  5
492
 10
961.258
 20
-403.148
 30
0.000000
  70
    32
  0
VERTEX
  8
┌▓È_1
  5
493
 10
961.288
 20
-403.172
 30
0.000000
  70
    32
  0
VERTEX
  8
┌▓È_1
  5
494
 10
961.318
 20
-403.196
 30
0.000000
  70
    32
  0
VERTEX
  8
┌▓È_1
  5
495
 10
961.348
 20
-403.220
 30
0.000000
  70
    32
  0
VERTEX
  8
┌▓È_1
  5
496
 10
961.379
 20
-403.244
 30
0.000000
  70
    32
  0
VERTEX
  8
┌▓È_1
  5
497
 10
961.409
 20
-403.268
 30
0.000000
  70
    32
  0
VERTEX
  8
┌▓È_1
  5
498
 10
961.439
 20
-403.292
 30
0.000000
  70
    32
  0
VERTEX
  8
┌▓È_1
  5
499
 10
961.469
 20
-403.315
 30
0.000000
  70
    32
  0
VERTEX
  8
┌▓È_1
  5
49A
 10
961.500
 20
-403.339
 30
0.000000
  70
    32
  0
VERTEX
  8
┌▓È_1
  5
49B
 10
961.530
 20
-403.363
 30
0.000000
  70
    32
  0
VERTEX
  8
┌▓È_1
  5
49C
 10
961.561
 20
-403.386
 30
0.000000
  70
    32
  0
VERTEX
  8
┌▓È_1
  5
49D
 10
961.591
 20
-403.410
 30
0.000000
  70
    32
  0
VERTEX
  8
┌▓È_1
  5
49E
 10
961.622
 20
-403.433
 30
0.000000
  70
    32
  0
VERTEX
  8
┌▓È_1
  5
49F
 10
961.652
 20
-403.457
 30
0.000000
  70
    32
  0
VERTEX
  8
┌▓È_1
  5
4A0
 10
961.683
 20
-403.480
 30
0.000000
  70
    32
  0
VERTEX
  8
┌▓È_1
  5
4A1
 10
961.713
 20
-403.504
 30
0.000000
  70
    32
  0
VERTEX
  8
┌▓È_1
  5
4A2
 10
961.744
 20
-403.527
 30
0.000000
  70
    32
  0
VERTEX
  8
┌▓È_1
  5
4A3
 10
961.774
 20
-403.550
 30
0.000000
  70
    32
  0
VERTEX
  8
┌▓È_1
  5
4A4
 10
961.805
 20
-403.573
 30
0.000000
  70
    32
  0
VERTEX
  8
┌▓È_1
  5
4A5
 10
961.836
 20
-403.596
 30
0.000000
  70
    32
  0
VERTEX
  8
┌▓È_1
  5
4A6
 10
961.867
 20
-403.619
 30
0.000000
  70
    32
  0
VERTEX
  8
┌▓È_1
  5
4A7
 10
961.897
 20
-403.642
 30
0.000000
  70
    32
  0
VERTEX
  8
┌▓È_1
  5
4A8
 10
961.928
 20
-403.665
 30
0.000000
  70
    32
  0
VERTEX
  8
┌▓È_1
  5
4A9
 10
961.959
 20
-403.688
 30
0.000000
  70
    32
  0
VERTEX
  8
┌▓È_1
  5
4AA
 10
961.990
 20
-403.711
 30
0.000000
  70
    32
  0
VERTEX
  8
┌▓È_1
  5
4AB
 10
962.021
 20
-403.733
 30
0.000000
  70
    32
  0
VERTEX
  8
┌▓È_1
  5
4AC
 10
962.052
 20
-403.756
 30
0.000000
  70
    32
  0
VERTEX
  8
┌▓È_1
  5
4AD
 10
962.083
 20
-403.778
 30
0.000000
  70
    32
  0
VERTEX
  8
┌▓È_1
  5
4AE
 10
962.114
 20
-403.801
 30
0.000000
  70
    32
  0
VERTEX
  8
┌▓È_1
  5
4AF
 10
962.145
 20
-403.823
 30
0.000000
  70
    32
  0
VERTEX
  8
┌▓È_1
  5
4B0
 10
962.176
 20
-403.846
 30
0.000000
  70
    32
  0
VERTEX
  8
┌▓È_1
  5
4B1
 10
962.207
 20
-403.868
 30
0.000000
  70
    32
  0
VERTEX
  8
┌▓È_1
  5
4B2
 10
962.238
 20
-403.890
 30
0.000000
  70
    32
  0
VERTEX
  8
┌▓È_1
  5
4B3
 10
962.270
 20
-403.912
 30
0.000000
  70
    32
  0
VERTEX
  8
┌▓È_1
  5
4B4
 10
962.301
 20
-403.934
 30
0.000000
  70
    32
  0
VERTEX
  8
┌▓È_1
  5
4B5
 10
962.332
 20
-403.956
 30
0.000000
  70
    32
  0
VERTEX
  8
┌▓È_1
  5
4B6
 10
962.363
 20
-403.978
 30
0.000000
  70
    32
  0
VERTEX
  8
┌▓È_1
  5
4B7
 10
962.395
 20
-404.000
 30
0.000000
  70
    32
  0
VERTEX
  8
┌▓È_1
  5
4B8
 10
962.426
 20
-404.022
 30
0.000000
  70
    32
  0
VERTEX
  8
┌▓È_1
  5
4B9
 10
962.458
 20
-404.044
 30
0.000000
  70
    32
  0
VERTEX
  8
┌▓È_1
  5
4BA
 10
962.489
 20
-404.065
 30
0.000000
  70
    32
  0
VERTEX
  8
┌▓È_1
  5
4BB
 10
962.521
 20
-404.087
 30
0.000000
  70
    32
  0
VERTEX
  8
┌▓È_1
  5
4BC
 10
962.552
 20
-404.108
 30
0.000000
  70
    32
  0
VERTEX
  8
┌▓È_1
  5
4BD
 10
962.584
 20
-404.130
 30
0.000000
  70
    32
  0
VERTEX
  8
┌▓È_1
  5
4BE
 10
962.615
 20
-404.151
 30
0.000000
  70
    32
  0
VERTEX
  8
┌▓È_1
  5
4BF
 10
962.647
 20
-404.172
 30
0.000000
  70
    32
  0
VERTEX
  8
┌▓È_1
  5
4C0
 10
962.679
 20
-404.194
 30
0.000000
  70
    32
  0
VERTEX
  8
┌▓È_1
  5
4C1
 10
962.711
 20
-404.215
 30
0.000000
  70
    32
  0
VERTEX
  8
┌▓È_1
  5
4C2
 10
962.742
 20
-404.236
 30
0.000000
  70
    32
  0
VERTEX
  8
┌▓È_1
  5
4C3
 10
962.774
 20
-404.257
 30
0.000000
  70
    32
  0
VERTEX
  8
┌▓È_1
  5
4C4
 10
962.806
 20
-404.277
 30
0.000000
  70
    32
  0
VERTEX
  8
┌▓È_1
  5
4C5
 10
962.838
 20
-404.298
 30
0.000000
  70
    32
  0
VERTEX
  8
┌▓È_1
  5
4C6
 10
962.870
 20
-404.319
 30
0.000000
  70
    32
  0
VERTEX
  8
┌▓È_1
  5
4C7
 10
962.902
 20
-404.340
 30
0.000000
  70
    32
  0
VERTEX
  8
┌▓È_1
  5
4C8
 10
962.934
 20
-404.360
 30
0.000000
  70
    32
  0
VERTEX
  8
┌▓È_1
  5
4C9
 10
962.966
 20
-404.381
 30
0.000000
  70
    32
  0
VERTEX
  8
┌▓È_1
  5
4CA
 10
962.998
 20
-404.401
 30
0.000000
  70
    32
  0
VERTEX
  8
┌▓È_1
  5
4CB
 10
963.031
 20
-404.421
 30
0.000000
  70
    32
  0
VERTEX
  8
┌▓È_1
  5
4CC
 10
963.063
 20
-404.442
 30
0.000000
  70
    32
  0
VERTEX
  8
┌▓È_1
  5
4CD
 10
963.095
 20
-404.462
 30
0.000000
  70
    32
  0
VERTEX
  8
┌▓È_1
  5
4CE
 10
963.128
 20
-404.482
 30
0.000000
  70
    32
  0
VERTEX
  8
┌▓È_1
  5
4CF
 10
963.160
 20
-404.502
 30
0.000000
  70
    32
  0
VERTEX
  8
┌▓È_1
  5
4D0
 10
963.192
 20
-404.522
 30
0.000000
  70
    32
  0
VERTEX
  8
┌▓È_1
  5
4D1
 10
963.225
 20
-404.541
 30
0.000000
  70
    32
  0
VERTEX
  8
┌▓È_1
  5
4D2
 10
963.257
 20
-404.561
 30
0.000000
  70
    32
  0
VERTEX
  8
┌▓È_1
  5
4D3
 10
963.290
 20
-404.581
 30
0.000000
  70
    32
  0
SEQEND
  8
┌▓È_1
  5
4D4
  0
POLYLINE
  8
┌▓È_1
  5
4D5
  62
5
  66
     1
 10
0.000000
 20
0.000000
 30
0.000000
  70
     8
  0
VERTEX
  8
┌▓È_1
  5
4D6
 10
969.203
 20
-404.534
 30
0.000000
  70
    32
  0
VERTEX
  8
┌▓È_1
  5
4D7
 10
969.231
 20
-404.542
 30
0.000000
  70
    32
  0
VERTEX
  8
┌▓È_1
  5
4D8
 10
969.259
 20
-404.550
 30
0.000000
  70
    32
  0
VERTEX
  8
┌▓È_1
  5
4D9
 10
969.287
 20
-404.558
 30
0.000000
  70
    32
  0
VERTEX
  8
┌▓È_1
  5
4DA
 10
969.315
 20
-404.566
 30
0.000000
  70
    32
  0
VERTEX
  8
┌▓È_1
  5
4DB
 10
969.343
 20
-404.573
 30
0.000000
  70
    32
  0
VERTEX
  8
┌▓È_1
  5
4DC
 10
969.371
 20
-404.581
 30
0.000000
  70
    32
  0
VERTEX
  8
┌▓È_1
  5
4DD
 10
969.399
 20
-404.589
 30
0.000000
  70
    32
  0
VERTEX
  8
┌▓È_1
  5
4DE
 10
969.427
 20
-404.596
 30
0.000000
  70
    32
  0
VERTEX
  8
┌▓È_1
  5
4DF
 10
969.456
 20
-404.604
 30
0.000000
  70
    32
  0
VERTEX
  8
┌▓È_1
  5
4E0
 10
969.484
 20
-404.612
 30
0.000000
  70
    32
  0
VERTEX
  8
┌▓È_1
  5
4E1
 10
969.512
 20
-404.619
 30
0.000000
  70
    32
  0
VERTEX
  8
┌▓È_1
  5
4E2
 10
969.540
 20
-404.626
 30
0.000000
  70
    32
  0
VERTEX
  8
┌▓È_1
  5
4E3
 10
969.569
 20
-404.634
 30
0.000000
  70
    32
  0
VERTEX
  8
┌▓È_1
  5
4E4
 10
969.597
 20
-404.641
 30
0.000000
  70
    32
  0
VERTEX
  8
┌▓È_1
  5
4E5
 10
969.625
 20
-404.649
 30
0.000000
  70
    32
  0
VERTEX
  8
┌▓È_1
  5
4E6
 10
969.654
 20
-404.656
 30
0.000000
  70
    32
  0
VERTEX
  8
┌▓È_1
  5
4E7
 10
969.682
 20
-404.663
 30
0.000000
  70
    32
  0
VERTEX
  8
┌▓È_1
  5
4E8
 10
969.711
 20
-404.670
 30
0.000000
  70
    32
  0
VERTEX
  8
┌▓È_1
  5
4E9
 10
969.739
 20
-404.677
 30
0.000000
  70
    32
  0
VERTEX
  8
┌▓È_1
  5
4EA
 10
969.768
 20
-404.685
 30
0.000000
  70
    32
  0
VERTEX
  8
┌▓È_1
  5
4EB
 10
969.796
 20
-404.692
 30
0.000000
  70
    32
  0
VERTEX
  8
┌▓È_1
  5
4EC
 10
969.825
 20
-404.699
 30
0.000000
  70
    32
  0
VERTEX
  8
┌▓È_1
  5
4ED
 10
969.853
 20
-404.706
 30
0.000000
  70
    32
  0
VERTEX
  8
┌▓È_1
  5
4EE
 10
969.882
 20
-404.713
 30
0.000000
  70
    32
  0
VERTEX
  8
┌▓È_1
  5
4EF
 10
969.910
 20
-404.720
 30
0.000000
  70
    32
  0
VERTEX
  8
┌▓È_1
  5
4F0
 10
969.939
 20
-404.727
 30
0.000000
  70
    32
  0
VERTEX
  8
┌▓È_1
  5
4F1
 10
969.967
 20
-404.733
 30
0.000000
  70
    32
  0
VERTEX
  8
┌▓È_1
  5
4F2
 10
969.996
 20
-404.740
 30
0.000000
  70
    32
  0
VERTEX
  8
┌▓È_1
  5
4F3
 10
970.025
 20
-404.747
 30
0.000000
  70
    32
  0
VERTEX
  8
┌▓È_1
  5
4F4
 10
970.054
 20
-404.754
 30
0.000000
  70
    32
  0
VERTEX
  8
┌▓È_1
  5
4F5
 10
970.082
 20
-404.760
 30
0.000000
  70
    32
  0
VERTEX
  8
┌▓È_1
  5
4F6
 10
970.111
 20
-404.767
 30
0.000000
  70
    32
  0
VERTEX
  8
┌▓È_1
  5
4F7
 10
970.140
 20
-404.774
 30
0.000000
  70
    32
  0
VERTEX
  8
┌▓È_1
  5
4F8
 10
970.169
 20
-404.780
 30
0.000000
  70
    32
  0
VERTEX
  8
┌▓È_1
  5
4F9
 10
970.197
 20
-404.787
 30
0.000000
  70
    32
  0
VERTEX
  8
┌▓È_1
  5
4FA
 10
970.226
 20
-404.794
 30
0.000000
  70
    32
  0
VERTEX
  8
┌▓È_1
  5
4FB
 10
970.255
 20
-404.800
 30
0.000000
  70
    32
  0
VERTEX
  8
┌▓È_1
  5
4FC
 10
970.284
 20
-404.807
 30
0.000000
  70
    32
  0
VERTEX
  8
┌▓È_1
  5
4FD
 10
970.313
 20
-404.813
 30
0.000000
  70
    32
  0
VERTEX
  8
┌▓È_1
  5
4FE
 10
970.342
 20
-404.819
 30
0.000000
  70
    32
  0
VERTEX
  8
┌▓È_1
  5
4FF
 10
970.371
 20
-404.826
 30
0.000000
  70
    32
  0
VERTEX
  8
┌▓È_1
  5
500
 10
970.400
 20
-404.832
 30
0.000000
  70
    32
  0
VERTEX
  8
┌▓È_1
  5
501
 10
970.429
 20
-404.838
 30
0.000000
  70
    32
  0
VERTEX
  8
┌▓È_1
  5
502
 10
970.458
 20
-404.845
 30
0.000000
  70
    32
  0
VERTEX
  8
┌▓È_1
  5
503
 10
970.487
 20
-404.851
 30
0.000000
  70
    32
  0
VERTEX
  8
┌▓È_1
  5
504
 10
970.516
 20
-404.857
 30
0.000000
  70
    32
  0
VERTEX
  8
┌▓È_1
  5
505
 10
970.545
 20
-404.863
 30
0.000000
  70
    32
  0
VERTEX
  8
┌▓È_1
  5
506
 10
970.574
 20
-404.870
 30
0.000000
  70
    32
  0
VERTEX
  8
┌▓È_1
  5
507
 10
970.603
 20
-404.876
 30
0.000000
  70
    32
  0
VERTEX
  8
┌▓È_1
  5
508
 10
970.632
 20
-404.882
 30
0.000000
  70
    32
  0
VERTEX
  8
┌▓È_1
  5
509
 10
970.661
 20
-404.888
 30
0.000000
  70
    32
  0
VERTEX
  8
┌▓È_1
  5
50A
 10
970.690
 20
-404.894
 30
0.000000
  70
    32
  0
VERTEX
  8
┌▓È_1
  5
50B
 10
970.719
 20
-404.900
 30
0.000000
  70
    32
  0
VERTEX
  8
┌▓È_1
  5
50C
 10
970.748
 20
-404.906
 30
0.000000
  70
    32
  0
VERTEX
  8
┌▓È_1
  5
50D
 10
970.778
 20
-404.912
 30
0.000000
  70
    32
  0
VERTEX
  8
┌▓È_1
  5
50E
 10
970.807
 20
-404.918
 30
0.000000
  70
    32
  0
VERTEX
  8
┌▓È_1
  5
50F
 10
970.836
 20
-404.924
 30
0.000000
  70
    32
  0
VERTEX
  8
┌▓È_1
  5
510
 10
970.865
 20
-404.930
 30
0.000000
  70
    32
  0
VERTEX
  8
┌▓È_1
  5
511
 10
970.895
 20
-404.936
 30
0.000000
  70
    32
  0
VERTEX
  8
┌▓È_1
  5
512
 10
970.924
 20
-404.942
 30
0.000000
  70
    32
  0
VERTEX
  8
┌▓È_1
  5
513
 10
970.953
 20
-404.947
 30
0.000000
  70
    32
  0
VERTEX
  8
┌▓È_1
  5
514
 10
970.982
 20
-404.953
 30
0.000000
  70
    32
  0
VERTEX
  8
┌▓È_1
  5
515
 10
971.012
 20
-404.959
 30
0.000000
  70
    32
  0
VERTEX
  8
┌▓È_1
  5
516
 10
971.041
 20
-404.965
 30
0.000000
  70
    32
  0
VERTEX
  8
┌▓È_1
  5
517
 10
971.070
 20
-404.970
 30
0.000000
  70
    32
  0
VERTEX
  8
┌▓È_1
  5
518
 10
971.100
 20
-404.976
 30
0.000000
  70
    32
  0
VERTEX
  8
┌▓È_1
  5
519
 10
971.129
 20
-404.982
 30
0.000000
  70
    32
  0
VERTEX
  8
┌▓È_1
  5
51A
 10
971.158
 20
-404.988
 30
0.000000
  70
    32
  0
VERTEX
  8
┌▓È_1
  5
51B
 10
971.188
 20
-404.993
 30
0.000000
  70
    32
  0
VERTEX
  8
┌▓È_1
  5
51C
 10
971.217
 20
-404.999
 30
0.000000
  70
    32
  0
VERTEX
  8
┌▓È_1
  5
51D
 10
971.247
 20
-405.004
 30
0.000000
  70
    32
  0
VERTEX
  8
┌▓È_1
  5
51E
 10
971.276
 20
-405.010
 30
0.000000
  70
    32
  0
VERTEX
  8
┌▓È_1
  5
51F
 10
971.306
 20
-405.016
 30
0.000000
  70
    32
  0
VERTEX
  8
┌▓È_1
  5
520
 10
971.335
 20
-405.021
 30
0.000000
  70
    32
  0
VERTEX
  8
┌▓È_1
  5
521
 10
971.364
 20
-405.027
 30
0.000000
  70
    32
  0
VERTEX
  8
┌▓È_1
  5
522
 10
971.394
 20
-405.032
 30
0.000000
  70
    32
  0
VERTEX
  8
┌▓È_1
  5
523
 10
971.423
 20
-405.038
 30
0.000000
  70
    32
  0
VERTEX
  8
┌▓È_1
  5
524
 10
971.453
 20
-405.043
 30
0.000000
  70
    32
  0
VERTEX
  8
┌▓È_1
  5
525
 10
971.482
 20
-405.049
 30
0.000000
  70
    32
  0
VERTEX
  8
┌▓È_1
  5
526
 10
971.512
 20
-405.054
 30
0.000000
  70
    32
  0
VERTEX
  8
┌▓È_1
  5
527
 10
971.541
 20
-405.059
 30
0.000000
  70
    32
  0
VERTEX
  8
┌▓È_1
  5
528
 10
971.571
 20
-405.065
 30
0.000000
  70
    32
  0
VERTEX
  8
┌▓È_1
  5
529
 10
971.601
 20
-405.070
 30
0.000000
  70
    32
  0
VERTEX
  8
┌▓È_1
  5
52A
 10
971.630
 20
-405.076
 30
0.000000
  70
    32
  0
VERTEX
  8
┌▓È_1
  5
52B
 10
971.660
 20
-405.081
 30
0.000000
  70
    32
  0
VERTEX
  8
┌▓È_1
  5
52C
 10
971.689
 20
-405.086
 30
0.000000
  70
    32
  0
VERTEX
  8
┌▓È_1
  5
52D
 10
971.719
 20
-405.092
 30
0.000000
  70
    32
  0
VERTEX
  8
┌▓È_1
  5
52E
 10
971.748
 20
-405.097
 30
0.000000
  70
    32
  0
VERTEX
  8
┌▓È_1
  5
52F
 10
971.778
 20
-405.102
 30
0.000000
  70
    32
  0
VERTEX
  8
┌▓È_1
  5
530
 10
971.808
 20
-405.108
 30
0.000000
  70
    32
  0
VERTEX
  8
┌▓È_1
  5
531
 10
971.837
 20
-405.113
 30
0.000000
  70
    32
  0
VERTEX
  8
┌▓È_1
  5
532
 10
971.867
 20
-405.118
 30
0.000000
  70
    32
  0
VERTEX
  8
┌▓È_1
  5
533
 10
971.897
 20
-405.123
 30
0.000000
  70
    32
  0
VERTEX
  8
┌▓È_1
  5
534
 10
971.926
 20
-405.129
 30
0.000000
  70
    32
  0
VERTEX
  8
┌▓È_1
  5
535
 10
971.956
 20
-405.134
 30
0.000000
  70
    32
  0
VERTEX
  8
┌▓È_1
  5
536
 10
971.986
 20
-405.139
 30
0.000000
  70
    32
  0
VERTEX
  8
┌▓È_1
  5
537
 10
972.015
 20
-405.144
 30
0.000000
  70
    32
  0
VERTEX
  8
┌▓È_1
  5
538
 10
972.045
 20
-405.149
 30
0.000000
  70
    32
  0
VERTEX
  8
┌▓È_1
  5
539
 10
972.075
 20
-405.155
 30
0.000000
  70
    32
  0
VERTEX
  8
┌▓È_1
  5
53A
 10
972.104
 20
-405.160
 30
0.000000
  70
    32
  0
VERTEX
  8
┌▓È_1
  5
53B
 10
972.134
 20
-405.165
 30
0.000000
  70
    32
  0
VERTEX
  8
┌▓È_1
  5
53C
 10
972.164
 20
-405.170
 30
0.000000
  70
    32
  0
VERTEX
  8
┌▓È_1
  5
53D
 10
972.193
 20
-405.175
 30
0.000000
  70
    32
  0
VERTEX
  8
┌▓È_1
  5
53E
 10
972.223
 20
-405.180
 30
0.000000
  70
    32
  0
VERTEX
  8
┌▓È_1
  5
53F
 10
972.253
 20
-405.185
 30
0.000000
  70
    32
  0
VERTEX
  8
┌▓È_1
  5
540
 10
972.283
 20
-405.190
 30
0.000000
  70
    32
  0
VERTEX
  8
┌▓È_1
  5
541
 10
972.312
 20
-405.196
 30
0.000000
  70
    32
  0
VERTEX
  8
┌▓È_1
  5
542
 10
972.342
 20
-405.201
 30
0.000000
  70
    32
  0
VERTEX
  8
┌▓È_1
  5
543
 10
972.372
 20
-405.206
 30
0.000000
  70
    32
  0
VERTEX
  8
┌▓È_1
  5
544
 10
972.402
 20
-405.211
 30
0.000000
  70
    32
  0
VERTEX
  8
┌▓È_1
  5
545
 10
972.431
 20
-405.216
 30
0.000000
  70
    32
  0
VERTEX
  8
┌▓È_1
  5
546
 10
972.461
 20
-405.221
 30
0.000000
  70
    32
  0
VERTEX
  8
┌▓È_1
  5
547
 10
972.491
 20
-405.226
 30
0.000000
  70
    32
  0
VERTEX
  8
┌▓È_1
  5
548
 10
972.521
 20
-405.231
 30
0.000000
  70
    32
  0
VERTEX
  8
┌▓È_1
  5
549
 10
972.550
 20
-405.236
 30
0.000000
  70
    32
  0
VERTEX
  8
┌▓È_1
  5
54A
 10
972.580
 20
-405.241
 30
0.000000
  70
    32
  0
VERTEX
  8
┌▓È_1
  5
54B
 10
972.610
 20
-405.246
 30
0.000000
  70
    32
  0
VERTEX
  8
┌▓È_1
  5
54C
 10
972.640
 20
-405.251
 30
0.000000
  70
    32
  0
VERTEX
  8
┌▓È_1
  5
54D
 10
972.669
 20
-405.256
 30
0.000000
  70
    32
  0
VERTEX
  8
┌▓È_1
  5
54E
 10
972.699
 20
-405.261
 30
0.000000
  70
    32
  0
VERTEX
  8
┌▓È_1
  5
54F
 10
972.729
 20
-405.266
 30
0.000000
  70
    32
  0
VERTEX
  8
┌▓È_1
  5
550
 10
972.759
 20
-405.272
 30
0.000000
  70
    32
  0
VERTEX
  8
┌▓È_1
  5
551
 10
972.788
 20
-405.277
 30
0.000000
  70
    32
  0
VERTEX
  8
┌▓È_1
  5
552
 10
972.818
 20
-405.282
 30
0.000000
  70
    32
  0
VERTEX
  8
┌▓È_1
  5
553
 10
972.848
 20
-405.287
 30
0.000000
  70
    32
  0
VERTEX
  8
┌▓È_1
  5
554
 10
972.878
 20
-405.292
 30
0.000000
  70
    32
  0
VERTEX
  8
┌▓È_1
  5
555
 10
972.908
 20
-405.297
 30
0.000000
  70
    32
  0
SEQEND
  8
┌▓È_1
  5
556
  0
INSERT
  5
260
  8
0
  6
CONTINUOUS
  2
*U55
 10
0.0
 20
0.0
 30
0.0
  0
LINE
  5
261
  8
┌▓È_1
 10
872.25613035649985
 20
-376.7529296875
 30
0.0
 11
968.25613035649997
 21
-376.7529296875
 31
0.0
  0
LINE
  5
262
  8
┌▓È_1
 10
968.25613035649997
 20
-368.2529296875
 30
0.0
 11
1000.2561303565
 21
-368.2529296875
 31
0.0
  0
LINE
  5
263
  8
┌▓È_1
  6
BORDER
 62
     3
 10
665.51770833329999
 20
-268.43118879529999
 30
0.0
 11
665.51770833329999
 21
-285.80063323970001
 31
0.0
  0
INSERT
  5
265
  8
┌▓È_1
  2
CLUMP4
 10
0.0
 20
0.0
 30
0.0
  0
LINE
  5
26C
  8
┌▓È_1
 62
     5
 10
635.51770833329999
 20
-353.41842447919998
 30
0.0
 11
635.51770833329999
 21
-385.41842447919998
 31
0.0
  0
ARC
  5
26D
  8
┌▓È_1
 62
     5
 10
640.01770833329999
 20
-274.2589665731
 30
0.0
 40
4.5
 50
180.0
 51
270.0
  0
LINE
  5
26E
  8
┌▓È_1
  6
STITCH
 10
640.01770833329999
 20
-353.41842447919998
 30
0.0
 11
640.01770833329999
 21
-385.41842447919998
 31
0.0
  0
INSERT
  5
270
  8
┌▓È_1
  2
CLUMP5
 10
0.0
 20
0.0
 30
0.0
  0
LINE
  5
27C
  8
┌▓È_1
  6
STITCH
 10
638.26770833329999
 20
-251.2589665731
 30
0.0
 11
637.26770833329999
 21
-251.2589665731
 31
0.0
  0
LINE
  5
27D
  8
┌▓È_1
  6
STITCH
 10
638.26770833329999
 20
-251.2589665731
 30
0.0
 11
640.01770833329999
 21
-253.0089665731
 31
0.0
  0
LINE
  5
27E
  8
┌▓È_1
  6
STITCH
 10
637.26770833329999
 20
-251.2589665731
 30
0.0
 11
635.51770833329999
 21
-253.0089665731
 31
0.0
  0
LINE
  5
27F
  8
┌▓È_1
  6
STITCH
 10
637.26770833329999
 20
-246.2589665731
 30
0.0
 11
635.51770833329999
 21
-244.5089665731
 31
0.0
  0
LINE
  5
280
  8
┌▓È_1
  6
STITCH
 10
638.26770833329999
 20
-246.2589665731
 30
0.0
 11
640.01770833329999
 21
-244.5089665731
 31
0.0
  0
LINE
  5
281
  8
┌▓È_1
  6
STITCH
 10
637.26770833329999
 20
-251.2589665731
 30
0.0
 11
637.26770833329999
 21
-246.2589665731
 31
0.0
  0
LINE
  5
282
  8
┌▓È_1
  6
STITCH
 10
638.26770833329999
 20
-246.2589665731
 30
0.0
 11
638.26770833329999
 21
-251.2589665731
 31
0.0
  0
LINE
  5
283
  8
┌▓È_1
  6
STITCH
 10
637.26770833329999
 20
-246.2589665731
 30
0.0
 11
638.26770833329999
 21
-246.2589665731
 31
0.0
  0
LINE
  5
284
  8
┌▓È_1
  6
BORDER
 62
     3
 10
645.84548611109994
 20
-248.7589665731
 30
0.0
 11
628.47604166669987
 21
-248.7589665731
 31
0.0
  0
LINE
  5
285
  8
┌▓È_1
  6
STITCH
 10
663.01770833329988
 20
-277.0089665731
 30
0.0
 11
668.01770833329988
 21
-277.0089665731
 31
0.0
  0
LINE
  5
286
  8
┌▓È_1
  6
STITCH
 10
668.01770833329988
 20
-277.0089665731
 30
0.0
 11
668.01770833329988
 21
-276.0089665731
 31
0.0
  0
LINE
  5
287
  8
┌▓È_1
  6
STITCH
 10
668.01770833329988
 20
-276.0089665731
 30
0.0
 11
663.01770833329988
 21
-276.0089665731
 31
0.0
  0
INSERT
  5
289
  8
┌▓È_1
  2
CLUMP6
 10
0.0
 20
0.0
 30
0.0
  0
LINE
  5
290
  8
┌▓È_1
 62
     5
 10
640.01770833329999
 20
-274.2589665731
 30
0.0
 11
760.51770833329999
 21
-274.2589665731
 31
0.0
  0
LINE
  5
291
  8
┌▓È_1
 62
     5
 10
640.01770833329999
 20
-278.7589665731
 30
0.0
 11
760.51770833329999
 21
-278.7589665731
 31
0.0
  0
LINE
  5
292
  8
┌▓È_1
 62
     5
 10
635.51770833329999
 20
-353.41842447919998
 30
0.0
 11
760.51770833329999
 21
-353.41842447919998
 31
0.0
  0
LINE
  5
293
  8
┌▓È_1
 62
     5
 10
635.51770833329999
 20
-385.41842447919998
 30
0.0
 11
760.51770833329999
 21
-385.41842447919998
 31
0.0
  0
INSERT
  5
295
  8
┌▓È_1
  2
CLUMP7
 10
0.0
 20
0.0
 30
0.0
  0
LINE
  5
29C
  8
┌▓È_1
 62
     5
 10
890.36480801899995
 20
-78.758966573100011
 30
0.0
 11
890.36480801899995
 21
-278.7589665731
 31
0.0
  0
ENDSEC
  0
EOF
