  0
SECTION
  2
HEADER
  9
$ACADVER
  1
AC1009
  9
$INSBASE
 10
0.0
 20
0.0
 30
0.0
  9
$EXTMIN
 10
560.7805750023
 20
-409.38071808109987
 30
0.0
  9
$EXTMAX
 10
1110.7805750023001
 20
-29.38071808110001
 30
0.0
  9
$LIMMIN
 10
0.0
 20
0.0
  9
$LIMMAX
 10
0.0
 20
0.0
  9
$ORTHOMODE
 70
     0
  9
$REGENMODE
 70
     1
  9
$FILLMODE
 70
     1
  9
$QTEXTMODE
 70
     0
  9
$MIRRTEXT
 70
     1
  9
$DRAGMODE
 70
     2
  9
$LTSCALE
 40
1.0
  9
$OSMODE
 70
    31
  9
$ATTMODE
 70
     1
  9
$TEXTSIZE
 40
0.0
  9
$TRACEWID
 40
0.05
  9
$TEXTSTYLE
  7
STANDARD
  9
$CLAYER
  8
0
  9
$CELTYPE
  6
CONTINUOUS
  9
$CECOLOR
 62
   256
  9
$DIMSCALE
 40
1.0
  9
$DIMASZ
 40
0.18
  9
$DIMEXO
 40
0.0625
  9
$DIMDLI
 40
0.38
  9
$DIMRND
 40
0.0
  9
$DIMDLE
 40
0.0
  9
$DIMEXE
 40
0.18
  9
$DIMTP
 40
0.0
  9
$DIMTM
 40
0.0
  9
$DIMTXT
 40
0.18
  9
$DIMCEN
 40
0.09
  9
$DIMTSZ
 40
0.0
  9
$DIMTOL
 70
     0
  9
$DIMLIM
 70
     0
  9
$DIMTIH
 70
     1
  9
$DIMTOH
 70
     1
  9
$DIMSE1
 70
     0
  9
$DIMSE2
 70
     0
  9
$DIMTAD
 70
     0
  9
$DIMZIN
 70
     0
  9
$DIMBLK
  1

  9
$DIMASO
 70
     1
  9
$DIMSHO
 70
     1
  9
$DIMPOST
  1

  9
$DIMAPOST
  1

  9
$DIMALT
 70
     0
  9
$DIMALTD
 70
     2
  9
$DIMALTF
 40
25.399999999999999
  9
$DIMLFAC
 40
1.0
  9
$DIMTOFL
 70
     0
  9
$DIMTVP
 40
0.0
  9
$DIMTIX
 70
     0
  9
$DIMSOXD
 70
     0
  9
$DIMSAH
 70
     0
  9
$DIMBLK1
  1

  9
$DIMBLK2
  1

  9
$DIMSTYLE
  2
STANDARD
  9
$DIMCLRD
 70
     0
  9
$DIMCLRE
 70
     0
  9
$DIMCLRT
 70
     0
  9
$DIMTFAC
 40
1.0
  9
$DIMGAP
 40
0.09
  9
$LUNITS
 70
     2
  9
$LUPREC
 70
     4
  9
$SKETCHINC
 40
0.1
  9
$FILLETRAD
 40
0.0
  9
$AUNITS
 70
     0
  9
$AUPREC
 70
     0
  9
$MENU
  1
acad
  9
$ELEVATION
 40
0.0
  9
$PELEVATION
 40
0.0
  9
$THICKNESS
 40
0.0
  9
$LIMCHECK
 70
     0
  9
$BLIPMODE
 70
     0
  9
$CHAMFERA
 40
0.0
  9
$CHAMFERB
 40
0.0
  9
$SKPOLY
 70
     0
  9
$TDCREATE
 40
2454862.7439494678
  9
$TDUPDATE
 40
2454862.7441044562
  9
$TDINDWG
 40
0.000163125
  9
$TDUSRTIMER
 40
0.0001627546
  9
$USRTIMER
 70
     1
  9
$ANGBASE
 50
0.0
  9
$ANGDIR
 70
     0
  9
$PDMODE
 70
     3
  9
$PDSIZE
 40
-1.0
  9
$PLINEWID
 40
0.0
  9
$COORDS
 70
     2
  9
$SPLFRAME
 70
     0
  9
$SPLINETYPE
 70
     6
  9
$SPLINESEGS
 70
     8
  9
$ATTDIA
 70
     0
  9
$ATTREQ
 70
     1
  9
$HANDLING
 70
     1
  9
$HANDSEED
  5
563
  9
$SURFTAB1
 70
     6
  9
$SURFTAB2
 70
     6
  9
$SURFTYPE
 70
     6
  9
$SURFU
 70
     6
  9
$SURFV
 70
     6
  9
$UCSNAME
  2

  9
$UCSORG
 10
0.0
 20
0.0
 30
0.0
  9
$UCSXDIR
 10
1.0
 20
0.0
 30
0.0
  9
$UCSYDIR
 10
0.0
 20
1.0
 30
0.0
  9
$PUCSNAME
  2

  9
$PUCSORG
 10
0.0
 20
0.0
 30
0.0
  9
$PUCSXDIR
 10
1.0
 20
0.0
 30
0.0
  9
$PUCSYDIR
 10
0.0
 20
1.0
 30
0.0
  9
$USERI1
 70
     0
  9
$USERI2
 70
     0
  9
$USERI3
 70
     0
  9
$USERI4
 70
     0
  9
$USERI5
 70
     0
  9
$USERR1
 40
0.0
  9
$USERR2
 40
0.0
  9
$USERR3
 40
0.0
  9
$USERR4
 40
0.0
  9
$USERR5
 40
0.0
  9
$WORLDVIEW
 70
     1
  9
$SHADEDGE
 70
     3
  9
$SHADEDIF
 70
    70
  9
$TILEMODE
 70
     1
  9
$MAXACTVP
 70
    16
  9
$PLIMCHECK
 70
     0
  9
$PEXTMIN
 10
1.0000000000000000E+020
 20
1.0000000000000000E+020
 30
1.0000000000000000E+020
  9
$PEXTMAX
 10
-1.0000000000000000E+020
 20
-1.0000000000000000E+020
 30
-1.0000000000000000E+020
  9
$PLIMMIN
 10
0.0
 20
0.0
  9
$PLIMMAX
 10
12.0
 20
9.0
  9
$UNITMODE
 70
     0
  9
$VISRETAIN
 70
     0
  9
$PLINEGEN
 70
     1
  9
$PSLTSCALE
 70
     0
  0
ENDSEC
  0
SECTION
  2
TABLES
  0
TABLE
  2
VPORT
 70
     2
  0
VPORT
  2
*ACTIVE
 70
     0
 10
0.0
 20
0.0
 11
1.0
 21
1.0
 12
835.78057500229988
 22
-219.38071808110001
 13
0.0
 23
0.0
 14
1.0
 24
1.0
 15
0.0
 25
0.0
 16
0.0
 26
0.0
 36
1.0
 17
0.0
 27
0.0
 37
0.0
 40
397.98585584749179
 41
1.3903818953323901
 42
50.0
 43
0.0
 44
0.0
 50
0.0
 51
0.0
 71
     0
 72
   100
 73
     1
 74
     1
 75
     0
 76
     0
 77
     0
 78
     0
  0
ENDTAB
  0
TABLE
  2
LTYPE
 70
    11
  0
LTYPE
  2
CONTINUOUS
 70
     0
  3
Solid line
 72
    65
 73
     0
 40
0.0
  0
LTYPE
  2
DOT
 70
     0
  3
. . . . . . . . 
 72
    65
 73
     2
 40
1.0
 49
0.0
 49
-1.0
  0
LTYPE
  2
DASHED
 70
     0
  3
___  ___  ___  ___  
 72
    65
 73
     2
 40
4.0
 49
3.0
 49
-1.0
  0
LTYPE
  2
HIDDEN
 70
     0
  3
__ __ __ __ 
 72
    65
 73
     2
 40
3.0
 49
2.0
 49
-1.0
  0
LTYPE
  2
STITCH
 70
     0
  3
_ _ _ _ 
 72
    65
 73
     2
 40
2.0
 49
1.0
 49
-1.0
  0
LTYPE
  2
CENTER
 70
     0
  3
______  __  ______  __  
 72
    65
 73
     4
 40
43.0
 49
40.0
 49
-1.0
 49
1.0
 49
-1.0
  0
LTYPE
  2
DASHDOT
 70
     0
  3
____ . ____ . 
 72
    65
 73
     4
 40
32.0
 49
30.0
 49
-1.0
 49
0.0
 49
-1.0
  0
LTYPE
  2
BORDER
 70
     0
  3
__ . __ . 
 72
    65
 73
     4
 40
22.0
 49
20.0
 49
-1.0
 49
0.0
 49
-1.0
  0
LTYPE
  2
CUTTING
 70
     0
  3
________   ___   ___   
 72
    65
 73
     6
 40
45.0
 49
40.0
 49
-1.0
 49
1.0
 49
-1.0
 49
1.0
 49
-1.0
  0
LTYPE
  2
PHANTOM
 70
     0
  3
______  __  __  
 72
    65
 73
     6
 40
35.0
 49
30.0
 49
-1.0
 49
1.0
 49
-1.0
 49
1.0
 49
-1.0
  0
LTYPE
  2
DIVIDE
 70
     0
  3
____ . . ____ . . 
 72
    65
 73
     6
 40
23.0
 49
20.0
 49
-1.0
 49
0.0
 49
-1.0
 49
0.0
 49
-1.0
  0
ENDTAB
  0
TABLE
  2
LAYER
 70
     4
  0
LAYER
  2
0
 70
     0
 62
     7
  6
CONTINUOUS
  0
LAYER
  2
┌▓È_1
 70
     0
 62
     7
  6
CONTINUOUS
  0
LAYER
  2
Éíû@É³
 70
     0
 62
     7
  6
CONTINUOUS
  0
LAYER
  2
Defpoints
 70
     0
 62
     7
  6
CONTINUOUS
  0
ENDTAB
  0
TABLE
  2
STYLE
 70
     1
  0
STYLE
  2
STANDARD
 70
     0
 40
0.0
 41
1.0
 50
0.0
 71
     0
 42
0.0
  3
txt
  4
extfont
  0
ENDTAB
  0
TABLE
  2
VIEW
 70
     0
  0
ENDTAB
  0
TABLE
  2
UCS
 70
     0
  0
ENDTAB
  0
TABLE
  2
APPID
 70
     2
  0
APPID
  2
ACAD
 70
     0
  0
APPID
  2
DCO15
 70
     0
  0
ENDTAB
  0
TABLE
  2
DIMSTYLE
 70
     3
  0
DIMSTYLE
  2
STANDARD
 70
     0
  3

  4

  5

  6

  7

 40
1.0
 41
0.18
 42
0.0625
 43
0.38
 44
0.18
 45
0.0
 46
0.0
 47
0.0
 48
0.0
140
0.18
141
0.09
142
0.0
143
25.399999999999999
144
1.0
145
0.0
146
1.0
147
0.09
 71
     0
 72
     0
 73
     1
 74
     1
 75
     0
 76
     0
 77
     0
 78
     0
170
     0
171
     2
172
     0
173
     0
174
     0
175
     0
176
     0
177
     0
178
     0
  0
DIMSTYLE
  2
VELDIM0
 70
     0
  3

  4

  5

  6

  7

 40
1.0
 41
6.0
 42
0.0625
 43
0.38
 44
0.5
 45
0.0
 46
3.0
 47
0.0
 48
0.0
140
5.9972220420999998
141
0.09
142
0.0
143
25.399999999999999
144
1.0
145
0.0
146
1.0
147
0.09
 71
     0
 72
     0
 73
     0
 74
     0
 75
     0
 76
     0
 77
     0
 78
     8
170
     0
171
     2
172
     0
173
     0
174
     0
175
     0
176
     0
177
     0
178
     0
  0
DIMSTYLE
  2
VELDIM1
 70
     0
  3

  4

  5

  6

  7

 40
1.0
 41
6.0
 42
0.0625
 43
0.38
 44
1.25
 45
0.0
 46
5.0
 47
0.0
 48
0.0
140
5.9972220420999998
141
0.09
142
0.0
143
25.399999999999999
144
1.0
145
0.0
146
1.0
147
0.09
 71
     0
 72
     0
 73
     0
 74
     0
 75
     0
 76
     0
 77
     0
 78
     8
170
     0
171
     2
172
     0
173
     0
174
     0
175
     0
176
     0
177
     0
178
     0
  0
ENDTAB
  0
ENDSEC
  0
SECTION
  2
BLOCKS
  0
BLOCK
  8
0
  2
$MODEL_SPACE
 70
     0
 10
0.0
 20
0.0
 30
0.0
  3
$MODEL_SPACE
  1

  0
ENDBLK
  5
E
  8
0
  0
BLOCK
 67
     1
  8
0
  2
$PAPER_SPACE
 70
     0
 10
0.0
 20
0.0
 30
0.0
  3
$PAPER_SPACE
  1

  0
ENDBLK
  5
10
 67
     1
  8
0
  0
BLOCK
  8
0
  2
CLUMP0
 70
     0
 10
0.0
 20
0.0
 30
0.0
  3
CLUMP0
  1

  0
LINE
  5
33
  8
┌▓È_1
  6
BORDER
 62
     3
 10
735.19639531479993
 20
-344.29360275200003
 30
0.0
 11
735.19639531479993
 21
-356.29360275200003
 31
0.0
  0
LINE
  5
34
  8
┌▓È_1
  6
BORDER
 62
     3
 10
729.19639531479993
 20
-350.29360275200003
 30
0.0
 11
741.19639531479993
 21
-350.29360275200003
 31
0.0
  0
CIRCLE
  5
35
  8
┌▓È_1
 62
     5
 10
735.19639531479993
 20
-350.29360275200003
 30
0.0
 40
4.25
  0
CIRCLE
  5
36
  8
┌▓È_1
 62
     5
 10
735.19639531479993
 20
-350.29360275200003
 30
0.0
 40
2.5
  0
ENDBLK
  5
37
  8
0
  0
BLOCK
  8
0
  2
CLUMP1
 70
     0
 10
0.0
 20
0.0
 30
0.0
  3
CLUMP1
  1

  0
LINE
  5
3C
  8
┌▓È_1
  6
BORDER
 62
     3
 10
692.19639531479993
 20
-351.29360275200003
 30
0.0
 11
692.19639531479993
 21
-339.29360275200003
 31
0.0
  0
LINE
  5
3D
  8
┌▓È_1
  6
BORDER
 62
     3
 10
686.19639531480004
 20
-345.29360275200003
 30
0.0
 11
698.19639531479993
 21
-345.29360275200003
 31
0.0
  0
CIRCLE
  5
3E
  8
┌▓È_1
 62
     5
 10
692.19639531479993
 20
-345.29360275200003
 30
0.0
 40
4.25
  0
CIRCLE
  5
3F
  8
┌▓È_1
 62
     5
 10
692.19639531479993
 20
-345.29360275200003
 30
0.0
 40
2.5
  0
ENDBLK
  5
40
  8
0
  0
BLOCK
  8
0
  2
*D2
 70
     1
 10
0.0
 20
0.0
 30
0.0
  3
*D2
  1

  0
TEXT
  5
47
  8
0
 62
     0
 10
981.52779635009995
 20
-123.4803784428
 30
0.0
 40
5.9972220420999998
  1
%%c5
  0
LINE
  5
48
  8
0
 62
     0
 10
999.31946285779986
 20
-150.9757580406
 30
0.0
 11
999.31946285779986
 21
-125.0387117444
 31
0.0
  0
LINE
  5
49
  8
0
 62
     0
 10
974.31946285779986
 20
-150.9757580406
 30
0.0
 11
974.31946285779986
 21
-125.0387117444
 31
0.0
  0
LINE
  5
4A
  8
0
 62
     0
 10
999.31946285779986
 20
-125.5387117444
 30
0.0
 11
995.63890703729987
 21
-125.5387117444
 31
0.0
  0
LINE
  5
4B
  8
0
 62
     0
 10
999.31946285779986
 20
-125.5387117444
 30
0.0
 11
978.00001867829985
 21
-125.5387117444
 31
0.0
  0
LINE
  5
4C
  8
0
 62
     0
 10
974.31946285779986
 20
-125.5387117444
 30
0.0
 11
995.63890703729987
 21
-125.5387117444
 31
0.0
  0
LINE
  5
4D
  8
0
 62
     0
 10
974.31946285779986
 20
-125.5387117444
 30
0.0
 11
978.00001867829985
 21
-125.5387117444
 31
0.0
  0
LINE
  5
4E
  8
0
 62
     0
 10
974.31946285779986
 20
-125.5387117444
 30
0.0
 11
971.31946285779986
 21
-125.5387117444
 31
0.0
  0
SOLID
  5
4F
  8
0
 62
     0
 10
974.31946285779986
 20
-125.5387117444
 30
0.0
 11
968.31946285779998
 21
-127.0387117444
 31
0.0
 12
968.31946285779998
 22
-124.0387117444
 32
0.0
 13
969.81946285779986
 23
-125.5387117444
 33
0.0
  0
LINE
  5
50
  8
0
 62
     0
 10
999.31946285779986
 20
-125.5387117444
 30
0.0
 11
1002.3194628578
 21
-125.5387117444
 31
0.0
  0
SOLID
  5
51
  8
0
 62
     0
 10
999.31946285779986
 20
-125.5387117444
 30
0.0
 11
1005.3194628578
 21
-124.0387117444
 31
0.0
 12
1005.3194628578
 22
-127.0387117444
 32
0.0
 13
1003.8194628578
 23
-125.5387117444
 33
0.0
  0
ENDBLK
  5
52
  8
0
  0
BLOCK
  8
0
  2
*D3
 70
     1
 10
0.0
 20
0.0
 30
0.0
  3
*D3
  1

  0
TEXT
  5
57
  8
0
 62
     0
 10
978.00001867829985
 20
-182.0741284428
 30
0.0
 40
5.9972220420999998
  1
%%c8.5
  0
LINE
  5
58
  8
0
 62
     0
 10
965.56946285779998
 20
-166.7257580406
 30
0.0
 11
965.56946285779998
 21
-184.63246174439999
 31
0.0
  0
LINE
  5
59
  8
0
 62
     0
 10
1008.0694628578
 20
-166.7257580406
 30
0.0
 11
1008.0694628578
 21
-184.63246174439999
 31
0.0
  0
LINE
  5
5A
  8
0
 62
     0
 10
965.56946285779998
 20
-184.13246174439999
 30
0.0
 11
999.16668470920001
 21
-184.13246174439999
 31
0.0
  0
LINE
  5
5B
  8
0
 62
     0
 10
965.56946285779998
 20
-184.13246174439999
 30
0.0
 11
974.47224100649998
 21
-184.13246174439999
 31
0.0
  0
LINE
  5
5C
  8
0
 62
     0
 10
1008.0694628578
 20
-184.13246174439999
 30
0.0
 11
999.16668470920001
 21
-184.13246174439999
 31
0.0
  0
LINE
  5
5D
  8
0
 62
     0
 10
1008.0694628578
 20
-184.13246174439999
 30
0.0
 11
974.47224100649998
 21
-184.13246174439999
 31
0.0
  0
LINE
  5
5E
  8
0
 62
     0
 10
1008.0694628578
 20
-184.13246174439999
 30
0.0
 11
1005.0694628578
 21
-184.13246174439999
 31
0.0
  0
SOLID
  5
5F
  8
0
 62
     0
 10
1008.0694628578
 20
-184.13246174439999
 30
0.0
 11
1002.0694628578
 21
-185.63246174439999
 31
0.0
 12
1002.0694628578
 22
-182.63246174439999
 32
0.0
 13
1003.5694628578
 23
-184.13246174439999
 33
0.0
  0
LINE
  5
60
  8
0
 62
     0
 10
965.56946285779998
 20
-184.13246174439999
 30
0.0
 11
968.56946285779998
 21
-184.13246174439999
 31
0.0
  0
SOLID
  5
61
  8
0
 62
     0
 10
965.56946285779998
 20
-184.13246174439999
 30
0.0
 11
971.56946285779986
 21
-182.63246174439999
 31
0.0
 12
971.56946285779986
 22
-185.63246174439999
 32
0.0
 13
970.06946285779998
 23
-184.13246174439999
 33
0.0
  0
ENDBLK
  5
62
  8
0
  0
BLOCK
  8
0
  2
*D4
 70
     1
 10
0.0
 20
0.0
 30
0.0
  3
*D4
  1

  0
TEXT
  5
74
  8
0
 62
     0
 10
981.52779635009995
 20
-198.66177943610001
 30
0.0
 40
5.9972220420999998
  1
90%%d
  0
ARC
  5
75
  8
0
 62
     0
 10
986.81946285779986
 20
-144.4757580406
 30
0.0
 40
57.361021300099992
 50
307.31087277300003
 51
315.0
  0
ARC
  5
76
  8
0
 62
     0
 10
986.81946285779986
 20
-144.4757580406
 30
0.0
 40
57.361021300099992
 50
225.0
 51
232.689127227
  0
SOLID
  5
77
  8
0
 62
     0
 10
946.25909572069997
 20
-185.0361251777
 30
0.0
 11
940.95579486179986
 21
-181.85414466239999
 31
0.0
 12
943.07711520539988
 22
-179.7328243188
 32
0.0
 13
943.07711520539988
 23
-181.85414466239999
 33
0.0
  0
SOLID
  5
78
  8
0
 62
     0
 10
1027.3798299949001
 20
-185.0361251777
 30
0.0
 11
1030.5618105102001
 21
-179.7328243188
 31
0.0
 12
1032.6831308538001
 22
-181.85414466239999
 32
0.0
 13
1030.5618105102001
 23
-181.85414466239999
 33
0.0
  0
ARC
  5
79
  8
0
 62
     0
 10
986.81946285779986
 20
-144.4757580406
 30
0.0
 40
57.361021300099992
 50
225.0
 51
258.82923135639999
  0
ARC
  5
7A
  8
0
 62
     0
 10
986.81946285779986
 20
-144.4757580406
 30
0.0
 40
57.361021300099992
 50
281.17076864360001
 51
315.0
  0
LINE
  5
7B
  8
0
 62
     0
 10
963.04972801810004
 20
-168.24549288040001
 30
0.0
 11
943.73936088099993
 21
-187.55586001739999
 31
0.0
  0
LINE
  5
7C
  8
0
 62
     0
 10
1010.5891976975
 20
-168.24549288040001
 30
0.0
 11
1029.8995648345999
 21
-187.55586001739999
 31
0.0
  0
ENDBLK
  5
7D
  8
0
  0
BLOCK
  8
0
  2
*D5
 70
     1
 10
0.0
 20
0.0
 30
0.0
  3
*D5
  1

  0
TEXT
  5
81
  8
0
 62
     0
 10
981.52779635009995
 20
-94.49172962290001
 30
0.0
 40
5.9972220420999998
  1
90%%d
  0
ARC
  5
82
  8
0
 62
     0
 10
986.81946285779986
 20
-164.4757580406
 30
0.0
 40
66.809028513100003
 50
128.55029165900001
 51
135.0
  0
ARC
  5
83
  8
0
 62
     0
 10
986.81946285779986
 20
-164.4757580406
 30
0.0
 40
66.809028513100003
 50
45.0
 51
51.449708340999997
  0
SOLID
  5
84
  8
0
 62
     0
 10
1034.0605799639
 20
-117.23464093450001
 30
0.0
 11
1039.3638808228
 21
-120.41662144990001
 31
0.0
 12
1037.2425604793
 22
-122.53794179339999
 32
0.0
 13
1037.2425604793
 23
-120.41662144990001
 33
0.0
  0
SOLID
  5
85
  8
0
 62
     0
 10
939.5783457517
 20
-117.23464093450001
 30
0.0
 11
936.39636523640013
 21
-122.53794179339999
 31
0.0
 12
934.27504489279988
 22
-120.41662144990001
 32
0.0
 13
936.39636523640013
 23
-120.41662144990001
 33
0.0
  0
ARC
  5
86
  8
0
 62
     0
 10
986.81946285779986
 20
-164.4757580406
 30
0.0
 40
66.809028513100003
 50
45.0
 51
82.319532578299984
  0
ARC
  5
87
  8
0
 62
     0
 10
986.81946285779986
 20
-164.4757580406
 30
0.0
 40
66.809028513100003
 50
97.680467421700001
 51
135.0
  0
LINE
  5
88
  8
0
 62
     0
 10
1010.5891976975
 20
-140.70602320090001
 30
0.0
 11
1036.5803148036
 21
-114.7149060948
 31
0.0
  0
LINE
  5
89
  8
0
 62
     0
 10
963.04972801810004
 20
-140.70602320090001
 30
0.0
 11
937.05861091199995
 21
-114.7149060948
 31
0.0
  0
ENDBLK
  5
8A
  8
0
  0
BLOCK
  8
0
  2
*D6
 70
     1
 10
0.0
 20
0.0
 30
0.0
  3
*D6
  1

  0
TEXT
  5
8E
  8
0
 62
     0
 10
978.00001867829985
 20
-111.3871841048
 30
0.0
 40
5.9972220420999998
  1
%%c8.5
  0
LINE
  5
8F
  8
0
 62
     0
 10
1008.0694628578
 20
-142.2257580406
 30
0.0
 11
1008.0694628578
 21
-112.9455174063
 31
0.0
  0
LINE
  5
90
  8
0
 62
     0
 10
965.56946285779998
 20
-142.2257580406
 30
0.0
 11
965.56946285779998
 21
-112.9455174063
 31
0.0
  0
LINE
  5
91
  8
0
 62
     0
 10
1008.0694628578
 20
-113.4455174063
 30
0.0
 11
999.16668470920001
 21
-113.4455174063
 31
0.0
  0
LINE
  5
92
  8
0
 62
     0
 10
1008.0694628578
 20
-113.4455174063
 30
0.0
 11
974.47224100649998
 21
-113.4455174063
 31
0.0
  0
LINE
  5
93
  8
0
 62
     0
 10
965.56946285779998
 20
-113.4455174063
 30
0.0
 11
999.16668470920001
 21
-113.4455174063
 31
0.0
  0
LINE
  5
94
  8
0
 62
     0
 10
965.56946285779998
 20
-113.4455174063
 30
0.0
 11
974.47224100649998
 21
-113.4455174063
 31
0.0
  0
LINE
  5
95
  8
0
 62
     0
 10
965.56946285779998
 20
-113.4455174063
 30
0.0
 11
968.56946285779998
 21
-113.4455174063
 31
0.0
  0
SOLID
  5
96
  8
0
 62
     0
 10
965.56946285779998
 20
-113.4455174063
 30
0.0
 11
971.56946285779986
 21
-111.9455174063
 31
0.0
 12
971.56946285779986
 22
-114.9455174063
 32
0.0
 13
970.06946285779998
 23
-113.4455174063
 33
0.0
  0
LINE
  5
97
  8
0
 62
     0
 10
1008.0694628578
 20
-113.4455174063
 30
0.0
 11
1005.0694628578
 21
-113.4455174063
 31
0.0
  0
SOLID
  5
98
  8
0
 62
     0
 10
1008.0694628578
 20
-113.4455174063
 30
0.0
 11
1002.0694628578
 21
-114.9455174063
 31
0.0
 12
1002.0694628578
 22
-111.9455174063
 32
0.0
 13
1003.5694628578
 23
-113.4455174063
 33
0.0
  0
ENDBLK
  5
99
  8
0
  0
BLOCK
  8
0
  2
*D7
 70
     1
 10
0.0
 20
0.0
 30
0.0
  3
*D7
  1

  0
TEXT
  5
9D
  8
0
 62
     0
 10
762.95527888640004
 20
-326.40261805260002
 30
0.0
 40
5.9972220420999998
  1
16
 50
90.0
  0
LINE
  5
9E
  8
0
 62
     0
 10
742.19639531479993
 20
-350.29360275200003
 30
0.0
 11
765.51361218789987
 21
-350.29360275200003
 31
0.0
  0
LINE
  5
9F
  8
0
 62
     0
 10
748.19639531479993
 20
-334.29360275200003
 30
0.0
 11
765.51361218789987
 21
-334.29360275200003
 31
0.0
  0
LINE
  5
A0
  8
0
 62
     0
 10
765.01361218789998
 20
-350.29360275200003
 30
0.0
 11
765.01361218789998
 21
-315.81928503720002
 31
0.0
  0
LINE
  5
A1
  8
0
 62
     0
 10
765.01361218789998
 20
-350.29360275200003
 30
0.0
 11
765.01361218789998
 21
-329.93039572449999
 31
0.0
  0
LINE
  5
A2
  8
0
 62
     0
 10
765.01361218789998
 20
-334.29360275200003
 30
0.0
 11
765.01361218789998
 21
-315.81928503720002
 31
0.0
  0
LINE
  5
A3
  8
0
 62
     0
 10
765.01361218789998
 20
-334.29360275200003
 30
0.0
 11
765.01361218789998
 21
-329.93039572449999
 31
0.0
  0
LINE
  5
A4
  8
0
 62
     0
 10
765.01361218789998
 20
-334.29360275200003
 30
0.0
 11
765.01361218789998
 21
-337.29360275200003
 31
0.0
  0
SOLID
  5
A5
  8
0
 62
     0
 10
765.01361218789998
 20
-334.29360275200003
 30
0.0
 11
766.51361218789987
 21
-340.29360275200003
 31
0.0
 12
763.51361218789998
 22
-340.29360275200003
 32
0.0
 13
765.01361218789998
 23
-338.79360275200003
 33
0.0
  0
LINE
  5
A6
  8
0
 62
     0
 10
765.01361218789998
 20
-350.29360275200003
 30
0.0
 11
765.01361218789998
 21
-347.29360275200003
 31
0.0
  0
SOLID
  5
A7
  8
0
 62
     0
 10
765.01361218789998
 20
-350.29360275200003
 30
0.0
 11
763.51361218789998
 21
-344.29360275200003
 31
0.0
 12
766.51361218789987
 22
-344.29360275200003
 32
0.0
 13
765.01361218789998
 23
-345.79360275200003
 33
0.0
  0
ENDBLK
  5
A8
  8
0
  0
BLOCK
  8
0
  2
*D8
 70
     1
 10
0.0
 20
0.0
 30
0.0
  3
*D8
  1

  0
TEXT
  5
AC
  8
0
 62
     0
 10
710.1686176428999
 20
-310.9141377254
 30
0.0
 40
5.9972220420999998
  1
68
  0
LINE
  5
AD
  8
0
 62
     0
 10
735.19639531479993
 20
-348.29360275200003
 30
0.0
 11
735.19639531479993
 21
-312.4724710269
 31
0.0
  0
LINE
  5
AE
  8
0
 62
     0
 10
692.19639531479993
 20
-338.29360275200003
 30
0.0
 11
692.19639531479993
 21
-312.4724710269
 31
0.0
  0
LINE
  5
AF
  8
0
 62
     0
 10
735.19639531479993
 20
-312.9724710269
 30
0.0
 11
720.75195065840001
 21
-312.9724710269
 31
0.0
  0
LINE
  5
B0
  8
0
 62
     0
 10
735.19639531479993
 20
-312.9724710269
 30
0.0
 11
706.64083997110004
 21
-312.9724710269
 31
0.0
  0
LINE
  5
B1
  8
0
 62
     0
 10
692.19639531479993
 20
-312.9724710269
 30
0.0
 11
720.75195065840001
 21
-312.9724710269
 31
0.0
  0
LINE
  5
B2
  8
0
 62
     0
 10
692.19639531479993
 20
-312.9724710269
 30
0.0
 11
706.64083997110004
 21
-312.9724710269
 31
0.0
  0
LINE
  5
B3
  8
0
 62
     0
 10
692.19639531479993
 20
-312.9724710269
 30
0.0
 11
695.19639531479993
 21
-312.9724710269
 31
0.0
  0
SOLID
  5
B4
  8
0
 62
     0
 10
692.19639531479993
 20
-312.9724710269
 30
0.0
 11
698.19639531479993
 21
-311.4724710269
 31
0.0
 12
698.19639531479993
 22
-314.4724710269
 32
0.0
 13
696.69639531479993
 23
-312.9724710269
 33
0.0
  0
LINE
  5
B5
  8
0
 62
     0
 10
735.19639531479993
 20
-312.9724710269
 30
0.0
 11
732.19639531479993
 21
-312.9724710269
 31
0.0
  0
SOLID
  5
B6
  8
0
 62
     0
 10
735.19639531479993
 20
-312.9724710269
 30
0.0
 11
729.19639531479993
 21
-314.4724710269
 31
0.0
 12
729.19639531479993
 22
-311.4724710269
 32
0.0
 13
730.69639531479993
 23
-312.9724710269
 33
0.0
  0
ENDBLK
  5
B7
  8
0
  0
BLOCK
  8
0
  2
*D9
 70
     1
 10
0.0
 20
0.0
 30
0.0
  3
*D9
  1

  0
TEXT
  5
BB
  8
0
 62
     0
 10
737.66861764289979
 20
-310.87068069409997
 30
0.0
 40
5.9972220420999998
  1
12
  0
LINE
  5
BC
  8
0
 62
     0
 10
747.19639531479993
 20
-333.29360275200003
 30
0.0
 11
747.19639531479993
 21
-312.42901399570002
 31
0.0
  0
LINE
  5
BD
  8
0
 62
     0
 10
735.19639531479993
 20
-348.29360275200003
 30
0.0
 11
735.19639531479993
 21
-312.42901399570002
 31
0.0
  0
LINE
  5
BE
  8
0
 62
     0
 10
747.19639531479993
 20
-312.92901399570002
 30
0.0
 11
747.19639531479993
 21
-312.92901399570002
 31
0.0
  0
LINE
  5
BF
  8
0
 62
     0
 10
747.19639531479993
 20
-312.92901399570002
 30
0.0
 11
735.19639531479993
 21
-312.92901399570002
 31
0.0
  0
LINE
  5
C0
  8
0
 62
     0
 10
735.19639531479993
 20
-312.92901399570002
 30
0.0
 11
747.19639531479993
 21
-312.92901399570002
 31
0.0
  0
LINE
  5
C1
  8
0
 62
     0
 10
735.19639531479993
 20
-312.92901399570002
 30
0.0
 11
735.19639531479993
 21
-312.92901399570002
 31
0.0
  0
LINE
  5
C2
  8
0
 62
     0
 10
735.19639531479993
 20
-312.92901399570002
 30
0.0
 11
732.19639531479993
 21
-312.92901399570002
 31
0.0
  0
SOLID
  5
C3
  8
0
 62
     0
 10
735.19639531479993
 20
-312.92901399570002
 30
0.0
 11
729.19639531479993
 21
-314.42901399570002
 31
0.0
 12
729.19639531479993
 22
-311.42901399570002
 32
0.0
 13
730.69639531479993
 23
-312.92901399570002
 33
0.0
  0
LINE
  5
C4
  8
0
 62
     0
 10
747.19639531479993
 20
-312.92901399570002
 30
0.0
 11
750.19639531479993
 21
-312.92901399570002
 31
0.0
  0
SOLID
  5
C5
  8
0
 62
     0
 10
747.19639531479993
 20
-312.92901399570002
 30
0.0
 11
753.19639531479993
 21
-311.42901399570002
 31
0.0
 12
753.19639531479993
 22
-314.42901399570002
 32
0.0
 13
751.69639531479993
 23
-312.92901399570002
 33
0.0
  0
ENDBLK
  5
C6
  8
0
  0
BLOCK
  8
0
  2
*D10
 70
     1
 10
0.0
 20
0.0
 30
0.0
  3
*D10
  1

  0
TEXT
  5
CA
  8
0
 62
     0
 10
678.66861764290002
 20
-310.87068069409997
 30
0.0
 40
5.9972220420999998
  1
20
  0
LINE
  5
CB
  8
0
 62
     0
 10
692.19639531479993
 20
-338.29360275200003
 30
0.0
 11
692.19639531479993
 21
-312.42901399570002
 31
0.0
  0
LINE
  5
CC
  8
0
 62
     0
 10
672.19639531480004
 20
-333.29360275200003
 30
0.0
 11
672.19639531480004
 21
-312.42901399570002
 31
0.0
  0
LINE
  5
CD
  8
0
 62
     0
 10
692.19639531479993
 20
-312.92901399570002
 30
0.0
 11
689.25195065840001
 21
-312.92901399570002
 31
0.0
  0
LINE
  5
CE
  8
0
 62
     0
 10
692.19639531479993
 20
-312.92901399570002
 30
0.0
 11
675.14083997110004
 21
-312.92901399570002
 31
0.0
  0
LINE
  5
CF
  8
0
 62
     0
 10
672.19639531480004
 20
-312.92901399570002
 30
0.0
 11
689.25195065840001
 21
-312.92901399570002
 31
0.0
  0
LINE
  5
D0
  8
0
 62
     0
 10
672.19639531480004
 20
-312.92901399570002
 30
0.0
 11
675.14083997110004
 21
-312.92901399570002
 31
0.0
  0
LINE
  5
D1
  8
0
 62
     0
 10
672.19639531480004
 20
-312.92901399570002
 30
0.0
 11
669.19639531480004
 21
-312.92901399570002
 31
0.0
  0
SOLID
  5
D2
  8
0
 62
     0
 10
672.19639531480004
 20
-312.92901399570002
 30
0.0
 11
666.19639531480004
 21
-314.42901399570002
 31
0.0
 12
666.19639531480004
 22
-311.42901399570002
 32
0.0
 13
667.69639531480004
 23
-312.92901399570002
 33
0.0
  0
LINE
  5
D3
  8
0
 62
     0
 10
692.19639531479993
 20
-312.92901399570002
 30
0.0
 11
695.19639531479993
 21
-312.92901399570002
 31
0.0
  0
SOLID
  5
D4
  8
0
 62
     0
 10
692.19639531479993
 20
-312.92901399570002
 30
0.0
 11
698.19639531479993
 21
-311.42901399570002
 31
0.0
 12
698.19639531479993
 22
-314.42901399570002
 32
0.0
 13
696.69639531479993
 23
-312.92901399570002
 33
0.0
  0
ENDBLK
  5
D5
  8
0
  0
BLOCK
  8
0
  2
*D11
 70
     1
 10
0.0
 20
0.0
 30
0.0
  3
*D11
  1

  0
TEXT
  5
D9
  8
0
 62
     0
 10
762.95527888640004
 20
-378.65279318419999
 30
0.0
 40
5.9972220420999998
  1
16
 50
90.0
  0
LINE
  5
DA
  8
0
 62
     0
 10
748.19639531479993
 20
-366.29360275200003
 30
0.0
 11
765.51361218789987
 21
-366.29360275200003
 31
0.0
  0
LINE
  5
DB
  8
0
 62
     0
 10
742.19639531479993
 20
-350.29360275200003
 30
0.0
 11
765.51361218789987
 21
-350.29360275200003
 31
0.0
  0
LINE
  5
DC
  8
0
 62
     0
 10
765.01361218789998
 20
-366.29360275200003
 30
0.0
 11
765.01361218789998
 21
-368.0694601687
 31
0.0
  0
LINE
  5
DD
  8
0
 62
     0
 10
765.01361218789998
 20
-366.29360275200003
 30
0.0
 11
765.01361218789998
 21
-382.18057085599997
 31
0.0
  0
LINE
  5
DE
  8
0
 62
     0
 10
765.01361218789998
 20
-350.29360275200003
 30
0.0
 11
765.01361218789998
 21
-368.0694601687
 31
0.0
  0
LINE
  5
DF
  8
0
 62
     0
 10
765.01361218789998
 20
-350.29360275200003
 30
0.0
 11
765.01361218789998
 21
-382.18057085599997
 31
0.0
  0
LINE
  5
E0
  8
0
 62
     0
 10
765.01361218789998
 20
-350.29360275200003
 30
0.0
 11
765.01361218789998
 21
-353.29360275200003
 31
0.0
  0
SOLID
  5
E1
  8
0
 62
     0
 10
765.01361218789998
 20
-350.29360275200003
 30
0.0
 11
766.51361218789987
 21
-356.29360275200003
 31
0.0
 12
763.51361218789998
 22
-356.29360275200003
 32
0.0
 13
765.01361218789998
 23
-354.79360275200003
 33
0.0
  0
LINE
  5
E2
  8
0
 62
     0
 10
765.01361218789998
 20
-366.29360275200003
 30
0.0
 11
765.01361218789998
 21
-363.29360275199991
 31
0.0
  0
SOLID
  5
E3
  8
0
 62
     0
 10
765.01361218789998
 20
-366.29360275200003
 30
0.0
 11
763.51361218789998
 21
-360.29360275200003
 31
0.0
 12
766.51361218789987
 22
-360.29360275200003
 32
0.0
 13
765.01361218789998
 23
-361.79360275200003
 33
0.0
  0
ENDBLK
  5
E4
  8
0
  0
BLOCK
  8
0
  2
*D12
 70
     1
 10
0.0
 20
0.0
 30
0.0
  3
*D12
  1

  0
TEXT
  5
E8
  8
0
 62
     0
 10
706.87390185699985
 20
-331.07037130920003
 30
0.0
 40
5.9972220420999998
  1
11
 50
90.0
  0
LINE
  5
E9
  8
0
 62
     0
 10
699.19639531479993
 20
-345.29360275200003
 30
0.0
 11
709.43223515850002
 21
-345.29360275200003
 31
0.0
  0
LINE
  5
EA
  8
0
 62
     0
 10
746.19639531479993
 20
-334.29360275200003
 30
0.0
 11
708.43223515850002
 21
-334.29360275200003
 31
0.0
  0
LINE
  5
EB
  8
0
 62
     0
 10
708.93223515850002
 20
-345.29360275200003
 30
0.0
 11
708.93223515850002
 21
-320.48703829369998
 31
0.0
  0
LINE
  5
EC
  8
0
 62
     0
 10
708.93223515850002
 20
-345.29360275200003
 30
0.0
 11
708.93223515850002
 21
-334.59814898100001
 31
0.0
  0
LINE
  5
ED
  8
0
 62
     0
 10
708.93223515850002
 20
-334.29360275200003
 30
0.0
 11
708.93223515850002
 21
-320.48703829369998
 31
0.0
  0
LINE
  5
EE
  8
0
 62
     0
 10
708.93223515850002
 20
-334.29360275200003
 30
0.0
 11
708.93223515850002
 21
-334.59814898100001
 31
0.0
  0
LINE
  5
EF
  8
0
 62
     0
 10
708.93223515850002
 20
-334.29360275200003
 30
0.0
 11
708.93223515850002
 21
-331.29360275200003
 31
0.0
  0
SOLID
  5
F0
  8
0
 62
     0
 10
708.93223515850002
 20
-334.29360275200003
 30
0.0
 11
707.43223515850002
 21
-328.29360275200003
 31
0.0
 12
710.43223515850002
 22
-328.29360275200003
 32
0.0
 13
708.93223515850002
 23
-329.79360275200003
 33
0.0
  0
LINE
  5
F1
  8
0
 62
     0
 10
708.93223515850002
 20
-345.29360275200003
 30
0.0
 11
708.93223515850002
 21
-348.29360275200003
 31
0.0
  0
SOLID
  5
F2
  8
0
 62
     0
 10
708.93223515850002
 20
-345.29360275200003
 30
0.0
 11
710.43223515850002
 21
-351.29360275200003
 31
0.0
 12
707.43223515850002
 22
-351.29360275200003
 32
0.0
 13
708.93223515850002
 23
-349.79360275200003
 33
0.0
  0
ENDBLK
  5
F3
  8
0
  0
BLOCK
  8
0
  2
*D13
 70
     1
 10
0.0
 20
0.0
 30
0.0
  3
*D13
  1

  0
TEXT
  5
F7
  8
0
 62
     0
 10
651.36283414859997
 20
-353.82138042380001
 30
0.0
 40
5.9972220420999998
  1
32
 50
90.0
  0
LINE
  5
F8
  8
0
 62
     0
 10
671.19639531480004
 20
-334.29360275200003
 30
0.0
 11
652.92116745019996
 21
-334.29360275200003
 31
0.0
  0
LINE
  5
F9
  8
0
 62
     0
 10
671.19639531480004
 20
-366.29360275200003
 30
0.0
 11
652.92116745019996
 21
-366.29360275200003
 31
0.0
  0
LINE
  5
FA
  8
0
 62
     0
 10
653.42116745019996
 20
-334.29360275200003
 30
0.0
 11
653.42116745019996
 21
-343.23804740830002
 31
0.0
  0
LINE
  5
FB
  8
0
 62
     0
 10
653.42116745019996
 20
-334.29360275200003
 30
0.0
 11
653.42116745019996
 21
-357.34915809559999
 31
0.0
  0
LINE
  5
FC
  8
0
 62
     0
 10
653.42116745019996
 20
-366.29360275200003
 30
0.0
 11
653.42116745019996
 21
-343.23804740830002
 31
0.0
  0
LINE
  5
FD
  8
0
 62
     0
 10
653.42116745019996
 20
-366.29360275200003
 30
0.0
 11
653.42116745019996
 21
-357.34915809559999
 31
0.0
  0
LINE
  5
FE
  8
0
 62
     0
 10
653.42116745019996
 20
-366.29360275200003
 30
0.0
 11
653.42116745019996
 21
-363.29360275199991
 31
0.0
  0
SOLID
  5
FF
  8
0
 62
     0
 10
653.42116745019996
 20
-366.29360275200003
 30
0.0
 11
651.92116745019985
 21
-360.29360275200003
 31
0.0
 12
654.92116745019985
 22
-360.29360275200003
 32
0.0
 13
653.42116745019996
 23
-361.79360275200003
 33
0.0
  0
LINE
  5
100
  8
0
 62
     0
 10
653.42116745019996
 20
-334.29360275200003
 30
0.0
 11
653.42116745019996
 21
-337.29360275200003
 31
0.0
  0
SOLID
  5
101
  8
0
 62
     0
 10
653.42116745019996
 20
-334.29360275200003
 30
0.0
 11
654.92116745019985
 21
-340.29360275200003
 31
0.0
 12
651.92116745019985
 22
-340.29360275200003
 32
0.0
 13
653.42116745019996
 23
-338.79360275200003
 33
0.0
  0
ENDBLK
  5
102
  8
0
  0
BLOCK
  8
0
  2
*D14
 70
     1
 10
0.0
 20
0.0
 30
0.0
  3
*D14
  1

  0
TEXT
  5
111
  8
0
 62
     0
 10
703.88107239999999
 20
-214.38958808609999
 30
0.0
 40
5.9972220420999998
  1
90%%d
 50
317.8977894203
  0
ARC
  5
112
  8
0
 62
     0
 10
676.69639531480004
 20
-252.36577985380001
 30
0.0
 40
43.227543937
 50
79.067009051799999
 51
90.0
  0
ARC
  5
113
  8
0
 62
     0
 10
676.69639531480004
 20
-252.36577985380001
 30
0.0
 40
43.227543937
 50
0.0
 51
10.932990948200001
  0
SOLID
  5
114
  8
0
 62
     0
 10
719.92393925169995
 20
-252.36577985380001
 30
0.0
 11
721.42393925169995
 21
-258.36577985380001
 31
0.0
 12
718.42393925169995
 22
-258.36577985380001
 32
0.0
 13
719.92393925169995
 23
-256.86577985380001
 33
0.0
  0
SOLID
  5
115
  8
0
 62
     0
 10
676.69639531480004
 20
-209.1382359168
 30
0.0
 11
670.69639531480004
 21
-210.6382359168
 31
0.0
 12
670.69639531480004
 22
-207.6382359168
 32
0.0
 13
672.19639531480004
 23
-209.1382359168
 33
0.0
  0
ARC
  5
116
  8
0
 62
     0
 10
676.69639531480004
 20
-252.36577985380001
 30
0.0
 40
43.227543937
 50
0.0
 51
35.988160794999999
  0
ARC
  5
117
  8
0
 62
     0
 10
676.69639531480004
 20
-252.36577985380001
 30
0.0
 40
43.227543937
 50
59.807418045600002
 51
90.0
  0
LINE
  5
118
  8
0
 62
     0
 10
743.19639531479993
 20
-252.36577985380001
 30
0.0
 11
715.92393925169995
 21
-252.36577985380001
 31
0.0
  0
LINE
  5
119
  8
0
 62
     0
 10
676.69639531480004
 20
-110.86577985380001
 30
0.0
 11
676.69639531480004
 21
-213.1382359168
 31
0.0
  0
ENDBLK
  5
11A
  8
0
  0
BLOCK
  8
0
  2
*D15
 70
     1
 10
0.0
 20
0.0
 30
0.0
  3
*D15
  1

  0
TEXT
  5
11E
  8
0
 62
     0
 10
864.17324003880015
 20
-204.62629420850001
 30
0.0
 40
5.9972220420999998
  1
11
  0
LINE
  5
11F
  8
0
 62
     0
 10
873.2010177105999
 20
-219.86577985380001
 30
0.0
 11
873.2010177105999
 21
-206.18462751000001
 31
0.0
  0
LINE
  5
120
  8
0
 62
     0
 10
862.20101771060001
 20
-219.86577985380001
 30
0.0
 11
862.20101771060001
 21
-206.18462751000001
 31
0.0
  0
LINE
  5
121
  8
0
 62
     0
 10
873.2010177105999
 20
-206.68462751000001
 30
0.0
 11
873.2010177105999
 21
-206.68462751000001
 31
0.0
  0
LINE
  5
122
  8
0
 62
     0
 10
873.2010177105999
 20
-206.68462751000001
 30
0.0
 11
862.20101771060001
 21
-206.68462751000001
 31
0.0
  0
LINE
  5
123
  8
0
 62
     0
 10
862.20101771060001
 20
-206.68462751000001
 30
0.0
 11
873.2010177105999
 21
-206.68462751000001
 31
0.0
  0
LINE
  5
124
  8
0
 62
     0
 10
862.20101771060001
 20
-206.68462751000001
 30
0.0
 11
862.20101771060001
 21
-206.68462751000001
 31
0.0
  0
LINE
  5
125
  8
0
 62
     0
 10
862.20101771060001
 20
-206.68462751000001
 30
0.0
 11
859.20101771060013
 21
-206.68462751000001
 31
0.0
  0
SOLID
  5
126
  8
0
 62
     0
 10
862.20101771060001
 20
-206.68462751000001
 30
0.0
 11
856.2010177105999
 21
-208.18462751000001
 31
0.0
 12
856.2010177105999
 22
-205.18462751000001
 32
0.0
 13
857.70101771060001
 23
-206.68462751000001
 33
0.0
  0
LINE
  5
127
  8
0
 62
     0
 10
873.2010177105999
 20
-206.68462751000001
 30
0.0
 11
876.20101771060013
 21
-206.68462751000001
 31
0.0
  0
SOLID
  5
128
  8
0
 62
     0
 10
873.2010177105999
 20
-206.68462751000001
 30
0.0
 11
879.20101771060001
 21
-205.18462751000001
 31
0.0
 12
879.20101771060001
 22
-208.18462751000001
 32
0.0
 13
877.7010177105999
 23
-206.68462751000001
 33
0.0
  0
ENDBLK
  5
129
  8
0
  0
BLOCK
  8
0
  2
*D16
 70
     1
 10
0.0
 20
0.0
 30
0.0
  3
*D16
  1

  0
TEXT
  5
12D
  8
0
 62
     0
 10
854.67324003880003
 20
-190.6015220731
 30
0.0
 40
5.9972220420999998
  1
10
  0
LINE
  5
12E
  8
0
 62
     0
 10
862.20101771060001
 20
-221.61577985380001
 30
0.0
 11
862.20101771060001
 21
-192.1598553746
 31
0.0
  0
LINE
  5
12F
  8
0
 62
     0
 10
852.20101771060001
 20
-179.86577985380001
 30
0.0
 11
852.20101771060001
 21
-193.1598553746
 31
0.0
  0
LINE
  5
130
  8
0
 62
     0
 10
862.20101771060001
 20
-192.6598553746
 30
0.0
 11
862.20101771060001
 21
-192.6598553746
 31
0.0
  0
LINE
  5
131
  8
0
 62
     0
 10
862.20101771060001
 20
-192.6598553746
 30
0.0
 11
852.20101771060001
 21
-192.6598553746
 31
0.0
  0
LINE
  5
132
  8
0
 62
     0
 10
852.20101771060001
 20
-192.6598553746
 30
0.0
 11
862.20101771060001
 21
-192.6598553746
 31
0.0
  0
LINE
  5
133
  8
0
 62
     0
 10
852.20101771060001
 20
-192.6598553746
 30
0.0
 11
852.20101771060001
 21
-192.6598553746
 31
0.0
  0
LINE
  5
134
  8
0
 62
     0
 10
852.20101771060001
 20
-192.6598553746
 30
0.0
 11
849.2010177105999
 21
-192.6598553746
 31
0.0
  0
SOLID
  5
135
  8
0
 62
     0
 10
852.20101771060001
 20
-192.6598553746
 30
0.0
 11
846.20101771060001
 21
-194.1598553746
 31
0.0
 12
846.20101771060001
 22
-191.1598553746
 32
0.0
 13
847.70101771060001
 23
-192.6598553746
 33
0.0
  0
LINE
  5
136
  8
0
 62
     0
 10
862.20101771060001
 20
-192.6598553746
 30
0.0
 11
865.2010177105999
 21
-192.6598553746
 31
0.0
  0
SOLID
  5
137
  8
0
 62
     0
 10
862.20101771060001
 20
-192.6598553746
 30
0.0
 11
868.20101771060001
 21
-191.1598553746
 31
0.0
 12
868.20101771060001
 22
-194.1598553746
 32
0.0
 13
866.70101771060001
 23
-192.6598553746
 33
0.0
  0
ENDBLK
  5
138
  8
0
  0
BLOCK
  8
0
  2
*D17
 70
     1
 10
0.0
 20
0.0
 30
0.0
  3
*D17
  1

  0
TEXT
  5
13C
  8
0
 62
     0
 10
704.40472880699986
 20
-272.6246634254
 30
0.0
 40
5.9972220420999998
  1
100
  0
LINE
  5
13D
  8
0
 62
     0
 10
672.19639531480004
 20
-253.36577985380001
 30
0.0
 11
672.19639531480004
 21
-275.1829967269
 31
0.0
  0
LINE
  5
13E
  8
0
 62
     0
 10
747.19639531479993
 20
-257.86577985380001
 30
0.0
 11
747.19639531479993
 21
-275.1829967269
 31
0.0
  0
LINE
  5
13F
  8
0
 62
     0
 10
672.19639531480004
 20
-274.6829967269
 30
0.0
 11
718.51583949429994
 21
-274.6829967269
 31
0.0
  0
LINE
  5
140
  8
0
 62
     0
 10
672.19639531480004
 20
-274.6829967269
 30
0.0
 11
700.87695113519987
 21
-274.6829967269
 31
0.0
  0
LINE
  5
141
  8
0
 62
     0
 10
747.19639531479993
 20
-274.6829967269
 30
0.0
 11
718.51583949429994
 21
-274.6829967269
 31
0.0
  0
LINE
  5
142
  8
0
 62
     0
 10
747.19639531479993
 20
-274.6829967269
 30
0.0
 11
700.87695113519987
 21
-274.6829967269
 31
0.0
  0
LINE
  5
143
  8
0
 62
     0
 10
747.19639531479993
 20
-274.6829967269
 30
0.0
 11
744.19639531479993
 21
-274.6829967269
 31
0.0
  0
SOLID
  5
144
  8
0
 62
     0
 10
747.19639531479993
 20
-274.6829967269
 30
0.0
 11
741.19639531479993
 21
-276.1829967269
 31
0.0
 12
741.19639531479993
 22
-273.1829967269
 32
0.0
 13
742.69639531479993
 23
-274.6829967269
 33
0.0
  0
LINE
  5
145
  8
0
 62
     0
 10
672.19639531480004
 20
-274.6829967269
 30
0.0
 11
675.19639531480004
 21
-274.6829967269
 31
0.0
  0
SOLID
  5
146
  8
0
 62
     0
 10
672.19639531480004
 20
-274.6829967269
 30
0.0
 11
678.19639531480004
 21
-273.1829967269
 31
0.0
 12
678.19639531480004
 22
-276.1829967269
 32
0.0
 13
676.69639531480004
 23
-274.6829967269
 33
0.0
  0
ENDBLK
  5
147
  8
0
  0
BLOCK
  8
0
  2
*D18
 70
     1
 10
0.0
 20
0.0
 30
0.0
  3
*D18
  1

  0
TEXT
  5
14B
  8
0
 62
     0
 10
652.32084513999985
 20
-187.15744636150001
 30
0.0
 40
5.9972220420999998
  1
200
 50
90.0
  0
LINE
  5
14C
  8
0
 62
     0
 10
671.19639531480004
 20
-106.86577985380001
 30
0.0
 11
653.87917844159995
 21
-106.86577985380001
 31
0.0
  0
LINE
  5
14D
  8
0
 62
     0
 10
675.69639531480004
 20
-256.86577985380001
 30
0.0
 11
653.87917844159995
 21
-256.86577985380001
 31
0.0
  0
LINE
  5
14E
  8
0
 62
     0
 10
654.37917844160006
 20
-106.86577985380001
 30
0.0
 11
654.37917844160006
 21
-173.0463356741999
 31
0.0
  0
LINE
  5
14F
  8
0
 62
     0
 10
654.37917844160006
 20
-106.86577985380001
 30
0.0
 11
654.37917844160006
 21
-190.68522403329999
 31
0.0
  0
LINE
  5
150
  8
0
 62
     0
 10
654.37917844160006
 20
-256.86577985380001
 30
0.0
 11
654.37917844160006
 21
-173.0463356741999
 31
0.0
  0
LINE
  5
151
  8
0
 62
     0
 10
654.37917844160006
 20
-256.86577985380001
 30
0.0
 11
654.37917844160006
 21
-190.68522403329999
 31
0.0
  0
LINE
  5
152
  8
0
 62
     0
 10
654.37917844160006
 20
-256.86577985380001
 30
0.0
 11
654.37917844160006
 21
-253.86577985380001
 31
0.0
  0
SOLID
  5
153
  8
0
 62
     0
 10
654.37917844160006
 20
-256.86577985380001
 30
0.0
 11
652.87917844159995
 21
-250.86577985380001
 31
0.0
 12
655.87917844159995
 22
-250.86577985380001
 32
0.0
 13
654.37917844160006
 23
-252.36577985380001
 33
0.0
  0
LINE
  5
154
  8
0
 62
     0
 10
654.37917844160006
 20
-106.86577985380001
 30
0.0
 11
654.37917844160006
 21
-109.86577985380001
 31
0.0
  0
SOLID
  5
155
  8
0
 62
     0
 10
654.37917844160006
 20
-106.86577985380001
 30
0.0
 11
655.87917844159995
 21
-112.86577985380001
 31
0.0
 12
652.87917844159995
 22
-112.86577985380001
 32
0.0
 13
654.37917844160006
 23
-111.36577985380001
 33
0.0
  0
ENDBLK
  5
156
  8
0
  0
BLOCK
  8
0
  2
*D19
 70
     1
 10
0.0
 20
0.0
 30
0.0
  3
*D19
  1

  0
TEXT
  5
15A
  8
0
 62
     0
 10
878.08818144499992
 20
-86.990229679099997
 30
0.0
 40
5.9972220420999998
  1
16
  0
LINE
  5
15B
  8
0
 62
     0
 10
873.2010177105999
 20
-105.86577985380001
 30
0.0
 11
873.2010177105999
 21
-88.548562980599996
 31
0.0
  0
LINE
  5
15C
  8
0
 62
     0
 10
857.2010177105999
 20
-111.86577985380001
 30
0.0
 11
857.2010177105999
 21
-88.548562980599996
 31
0.0
  0
LINE
  5
15D
  8
0
 62
     0
 10
873.2010177105999
 20
-89.048562980599996
 30
0.0
 11
888.67151446050002
 21
-89.048562980599996
 31
0.0
  0
LINE
  5
15E
  8
0
 62
     0
 10
873.2010177105999
 20
-89.048562980599996
 30
0.0
 11
874.56040377320005
 21
-89.048562980599996
 31
0.0
  0
LINE
  5
15F
  8
0
 62
     0
 10
857.2010177105999
 20
-89.048562980599996
 30
0.0
 11
888.67151446050002
 21
-89.048562980599996
 31
0.0
  0
LINE
  5
160
  8
0
 62
     0
 10
857.2010177105999
 20
-89.048562980599996
 30
0.0
 11
874.56040377320005
 21
-89.048562980599996
 31
0.0
  0
LINE
  5
161
  8
0
 62
     0
 10
857.2010177105999
 20
-89.048562980599996
 30
0.0
 11
860.20101771060001
 21
-89.048562980599996
 31
0.0
  0
SOLID
  5
162
  8
0
 62
     0
 10
857.2010177105999
 20
-89.048562980599996
 30
0.0
 11
863.20101771060001
 21
-87.548562980599996
 31
0.0
 12
863.20101771060001
 22
-90.548562980599996
 32
0.0
 13
861.7010177105999
 23
-89.048562980599996
 33
0.0
  0
LINE
  5
163
  8
0
 62
     0
 10
873.2010177105999
 20
-89.048562980599996
 30
0.0
 11
870.20101771060001
 21
-89.048562980599996
 31
0.0
  0
SOLID
  5
164
  8
0
 62
     0
 10
873.2010177105999
 20
-89.048562980599996
 30
0.0
 11
867.20101771060013
 21
-90.548562980599996
 31
0.0
 12
867.20101771060013
 22
-87.548562980599996
 32
0.0
 13
868.7010177105999
 23
-89.048562980599996
 33
0.0
  0
ENDBLK
  5
165
  8
0
  0
BLOCK
  8
0
  2
*D20
 70
     1
 10
0.0
 20
0.0
 30
0.0
  3
*D20
  1

  0
TEXT
  5
169
  8
0
 62
     0
 10
826.52545358039993
 20
-86.990229679099997
 30
0.0
 40
5.9972220420999998
  1
16
  0
LINE
  5
16A
  8
0
 62
     0
 10
857.2010177105999
 20
-111.86577985380001
 30
0.0
 11
857.2010177105999
 21
-88.548562980599996
 31
0.0
  0
LINE
  5
16B
  8
0
 62
     0
 10
841.2010177105999
 20
-105.86577985380001
 30
0.0
 11
841.2010177105999
 21
-88.548562980599996
 31
0.0
  0
LINE
  5
16C
  8
0
 62
     0
 10
857.2010177105999
 20
-89.048562980599996
 30
0.0
 11
837.10878659589991
 21
-89.048562980599996
 31
0.0
  0
LINE
  5
16D
  8
0
 62
     0
 10
857.2010177105999
 20
-89.048562980599996
 30
0.0
 11
822.99767590859994
 21
-89.048562980599996
 31
0.0
  0
LINE
  5
16E
  8
0
 62
     0
 10
841.2010177105999
 20
-89.048562980599996
 30
0.0
 11
837.10878659589991
 21
-89.048562980599996
 31
0.0
  0
LINE
  5
16F
  8
0
 62
     0
 10
841.2010177105999
 20
-89.048562980599996
 30
0.0
 11
822.99767590859994
 21
-89.048562980599996
 31
0.0
  0
LINE
  5
170
  8
0
 62
     0
 10
841.2010177105999
 20
-89.048562980599996
 30
0.0
 11
844.20101771060001
 21
-89.048562980599996
 31
0.0
  0
SOLID
  5
171
  8
0
 62
     0
 10
841.2010177105999
 20
-89.048562980599996
 30
0.0
 11
847.20101771060001
 21
-87.548562980599996
 31
0.0
 12
847.20101771060001
 22
-90.548562980599996
 32
0.0
 13
845.7010177105999
 23
-89.048562980599996
 33
0.0
  0
LINE
  5
172
  8
0
 62
     0
 10
857.2010177105999
 20
-89.048562980599996
 30
0.0
 11
854.20101771060001
 21
-89.048562980599996
 31
0.0
  0
SOLID
  5
173
  8
0
 62
     0
 10
857.2010177105999
 20
-89.048562980599996
 30
0.0
 11
851.20101771060013
 21
-90.548562980599996
 31
0.0
 12
851.20101771060013
 22
-87.548562980599996
 32
0.0
 13
852.7010177105999
 23
-89.048562980599996
 33
0.0
  0
ENDBLK
  5
174
  8
0
  0
BLOCK
  8
0
  2
*D21
 70
     1
 10
0.0
 20
0.0
 30
0.0
  3
*D21
  1

  0
TEXT
  5
178
  8
0
 62
     0
 10
821.32546753589986
 20
-116.3935575256
 30
0.0
 40
5.9972220420999998
  1
12
 50
90.0
  0
LINE
  5
179
  8
0
 62
     0
 10
840.2010177105999
 20
-106.86577985380001
 30
0.0
 11
822.88380083739992
 21
-106.86577985380001
 31
0.0
  0
LINE
  5
17A
  8
0
 62
     0
 10
850.2010177105999
 20
-118.86577985380001
 30
0.0
 11
822.88380083739992
 21
-118.86577985380001
 31
0.0
  0
LINE
  5
17B
  8
0
 62
     0
 10
823.38380083740003
 20
-106.86577985380001
 30
0.0
 11
823.38380083740003
 21
-106.86577985380001
 31
0.0
  0
LINE
  5
17C
  8
0
 62
     0
 10
823.38380083740003
 20
-106.86577985380001
 30
0.0
 11
823.38380083740003
 21
-118.86577985380001
 31
0.0
  0
LINE
  5
17D
  8
0
 62
     0
 10
823.38380083740003
 20
-118.86577985380001
 30
0.0
 11
823.38380083740003
 21
-106.86577985380001
 31
0.0
  0
LINE
  5
17E
  8
0
 62
     0
 10
823.38380083740003
 20
-118.86577985380001
 30
0.0
 11
823.38380083740003
 21
-118.86577985380001
 31
0.0
  0
LINE
  5
17F
  8
0
 62
     0
 10
823.38380083740003
 20
-118.86577985380001
 30
0.0
 11
823.38380083740003
 21
-115.86577985380001
 31
0.0
  0
SOLID
  5
180
  8
0
 62
     0
 10
823.38380083740003
 20
-118.86577985380001
 30
0.0
 11
821.88380083740003
 21
-112.86577985380001
 31
0.0
 12
824.88380083740014
 22
-112.86577985380001
 32
0.0
 13
823.38380083740003
 23
-114.36577985380001
 33
0.0
  0
LINE
  5
181
  8
0
 62
     0
 10
823.38380083740003
 20
-106.86577985380001
 30
0.0
 11
823.38380083740003
 21
-109.86577985380001
 31
0.0
  0
SOLID
  5
182
  8
0
 62
     0
 10
823.38380083740003
 20
-106.86577985380001
 30
0.0
 11
824.88380083740014
 21
-112.86577985380001
 31
0.0
 12
821.88380083740003
 22
-112.86577985380001
 32
0.0
 13
823.38380083740003
 23
-111.36577985380001
 33
0.0
  0
ENDBLK
  5
183
  8
0
  0
BLOCK
  8
0
  2
*D22
 70
     1
 10
0.0
 20
0.0
 30
0.0
  3
*D22
  1

  0
TEXT
  5
187
  8
0
 62
     0
 10
821.32546753589986
 20
-245.39355752559999
 30
0.0
 40
5.9972220420999998
  1
30
 50
90.0
  0
LINE
  5
188
  8
0
 62
     0
 10
855.20101771060001
 20
-226.86577985380001
 30
0.0
 11
822.88380083739992
 21
-226.86577985380001
 31
0.0
  0
LINE
  5
189
  8
0
 62
     0
 10
840.2010177105999
 20
-256.86577985380001
 30
0.0
 11
822.88380083739992
 21
-256.86577985380001
 31
0.0
  0
LINE
  5
18A
  8
0
 62
     0
 10
823.38380083740003
 20
-226.86577985380001
 30
0.0
 11
823.38380083740003
 21
-234.8102245101
 31
0.0
  0
LINE
  5
18B
  8
0
 62
     0
 10
823.38380083740003
 20
-226.86577985380001
 30
0.0
 11
823.38380083740003
 21
-248.9213351974
 31
0.0
  0
LINE
  5
18C
  8
0
 62
     0
 10
823.38380083740003
 20
-256.86577985380001
 30
0.0
 11
823.38380083740003
 21
-234.8102245101
 31
0.0
  0
LINE
  5
18D
  8
0
 62
     0
 10
823.38380083740003
 20
-256.86577985380001
 30
0.0
 11
823.38380083740003
 21
-248.9213351974
 31
0.0
  0
LINE
  5
18E
  8
0
 62
     0
 10
823.38380083740003
 20
-256.86577985380001
 30
0.0
 11
823.38380083740003
 21
-253.86577985380001
 31
0.0
  0
SOLID
  5
18F
  8
0
 62
     0
 10
823.38380083740003
 20
-256.86577985380001
 30
0.0
 11
821.88380083740003
 21
-250.86577985380001
 31
0.0
 12
824.88380083740014
 22
-250.86577985380001
 32
0.0
 13
823.38380083740003
 23
-252.36577985380001
 33
0.0
  0
LINE
  5
190
  8
0
 62
     0
 10
823.38380083740003
 20
-226.86577985380001
 30
0.0
 11
823.38380083740003
 21
-229.86577985380001
 31
0.0
  0
SOLID
  5
191
  8
0
 62
     0
 10
823.38380083740003
 20
-226.86577985380001
 30
0.0
 11
824.88380083740014
 21
-232.86577985380001
 31
0.0
 12
821.88380083740003
 22
-232.86577985380001
 32
0.0
 13
823.38380083740003
 23
-231.36577985380001
 33
0.0
  0
ENDBLK
  5
192
  8
0
  0
BLOCK
  8
0
  2
*D23
 70
     1
 10
0.0
 20
0.0
 30
0.0
  3
*D23
  1

  0
TEXT
  5
196
  8
0
 62
     0
 10
682.57194891209997
 20
-73.421899677200003
 30
0.0
 40
5.9972220420999998
  1
4.5t
  0
LINE
  5
197
  8
0
 62
     0
 10
676.69639531480004
 20
-105.86577985380001
 30
0.0
 11
676.69639531480004
 21
-74.980232978800004
 31
0.0
  0
LINE
  5
198
  8
0
 62
     0
 10
672.19639531480004
 20
-105.86577985380001
 30
0.0
 11
672.19639531480004
 21
-74.980232978800004
 31
0.0
  0
LINE
  5
199
  8
0
 62
     0
 10
676.69639531480004
 20
-75.480232978800004
 30
0.0
 11
700.21083727119992
 21
-75.480232978800004
 31
0.0
  0
LINE
  5
19A
  8
0
 62
     0
 10
676.69639531480004
 20
-75.480232978800004
 30
0.0
 11
679.04417124029999
 21
-75.480232978800004
 31
0.0
  0
LINE
  5
19B
  8
0
 62
     0
 10
672.19639531480004
 20
-75.480232978800004
 30
0.0
 11
700.21083727119992
 21
-75.480232978800004
 31
0.0
  0
LINE
  5
19C
  8
0
 62
     0
 10
672.19639531480004
 20
-75.480232978800004
 30
0.0
 11
679.04417124029999
 21
-75.480232978800004
 31
0.0
  0
LINE
  5
19D
  8
0
 62
     0
 10
672.19639531480004
 20
-75.480232978800004
 30
0.0
 11
669.19639531480004
 21
-75.480232978800004
 31
0.0
  0
SOLID
  5
19E
  8
0
 62
     0
 10
672.19639531480004
 20
-75.480232978800004
 30
0.0
 11
666.19639531480004
 21
-76.980232978800004
 31
0.0
 12
666.19639531480004
 22
-73.980232978800004
 32
0.0
 13
667.69639531480004
 23
-75.480232978800004
 33
0.0
  0
LINE
  5
19F
  8
0
 62
     0
 10
676.69639531480004
 20
-75.480232978800004
 30
0.0
 11
679.69639531480004
 21
-75.480232978800004
 31
0.0
  0
SOLID
  5
1A0
  8
0
 62
     0
 10
676.69639531480004
 20
-75.480232978800004
 30
0.0
 11
682.69639531480004
 21
-73.980232978800004
 31
0.0
 12
682.69639531480004
 22
-76.980232978800004
 32
0.0
 13
681.19639531480004
 23
-75.480232978800004
 33
0.0
  0
ENDBLK
  5
1A1
  8
0
  0
BLOCK
  8
0
  2
*D24
 70
     1
 10
0.0
 20
0.0
 30
0.0
  3
*D24
  1

  0
TEXT
  5
1A5
  8
0
 62
     0
 10
821.36999878589995
 20
-149.39355752559999
 30
0.0
 40
5.9972220420999998
  1
79
 50
90.0
  0
LINE
  5
1A6
  8
0
 62
     0
 10
850.2010177105999
 20
-118.86577985380001
 30
0.0
 11
822.92833208739989
 21
-118.86577985380001
 31
0.0
  0
LINE
  5
1A7
  8
0
 62
     0
 10
845.20101771060001
 20
-172.86577985380001
 30
0.0
 11
822.92833208739989
 21
-172.86577985380001
 31
0.0
  0
LINE
  5
1A8
  8
0
 62
     0
 10
823.42833208740001
 20
-118.86577985380001
 30
0.0
 11
823.42833208740001
 21
-138.8102245101
 31
0.0
  0
LINE
  5
1A9
  8
0
 62
     0
 10
823.42833208740001
 20
-118.86577985380001
 30
0.0
 11
823.42833208740001
 21
-152.9213351974
 31
0.0
  0
LINE
  5
1AA
  8
0
 62
     0
 10
823.42833208740001
 20
-172.86577985380001
 30
0.0
 11
823.42833208740001
 21
-138.8102245101
 31
0.0
  0
LINE
  5
1AB
  8
0
 62
     0
 10
823.42833208740001
 20
-172.86577985380001
 30
0.0
 11
823.42833208740001
 21
-152.9213351974
 31
0.0
  0
LINE
  5
1AC
  8
0
 62
     0
 10
823.42833208740001
 20
-172.86577985380001
 30
0.0
 11
823.42833208740001
 21
-169.86577985380001
 31
0.0
  0
SOLID
  5
1AD
  8
0
 62
     0
 10
823.42833208740001
 20
-172.86577985380001
 30
0.0
 11
821.92833208740001
 21
-166.86577985379989
 31
0.0
 12
824.92833208739989
 22
-166.86577985379989
 32
0.0
 13
823.42833208740001
 23
-168.36577985380001
 33
0.0
  0
LINE
  5
1AE
  8
0
 62
     0
 10
823.42833208740001
 20
-118.86577985380001
 30
0.0
 11
823.42833208740001
 21
-121.86577985380001
 31
0.0
  0
SOLID
  5
1AF
  8
0
 62
     0
 10
823.42833208740001
 20
-118.86577985380001
 30
0.0
 11
824.92833208739989
 21
-124.86577985380001
 31
0.0
 12
821.92833208740001
 22
-124.86577985380001
 32
0.0
 13
823.42833208740001
 23
-123.36577985380001
 33
0.0
  0
ENDBLK
  5
1B0
  8
0
  0
BLOCK
  8
0
  2
*D25
 70
     1
 10
0.0
 20
0.0
 30
0.0
  3
*D25
  1

  0
TEXT
  5
1B4
  8
0
 62
     0
 10
821.36999878589995
 20
-203.39355752559999
 30
0.0
 40
5.9972220420999998
  1
79
 50
90.0
  0
LINE
  5
1B5
  8
0
 62
     0
 10
845.20101771060001
 20
-172.86577985380001
 30
0.0
 11
822.92833208739989
 21
-172.86577985380001
 31
0.0
  0
LINE
  5
1B6
  8
0
 62
     0
 10
855.20101771060001
 20
-226.86577985380001
 30
0.0
 11
822.92833208739989
 21
-226.86577985380001
 31
0.0
  0
LINE
  5
1B7
  8
0
 62
     0
 10
823.42833208740001
 20
-172.86577985380001
 30
0.0
 11
823.42833208740001
 21
-192.81022451009991
 31
0.0
  0
LINE
  5
1B8
  8
0
 62
     0
 10
823.42833208740001
 20
-172.86577985380001
 30
0.0
 11
823.42833208740001
 21
-206.9213351974
 31
0.0
  0
LINE
  5
1B9
  8
0
 62
     0
 10
823.42833208740001
 20
-226.86577985380001
 30
0.0
 11
823.42833208740001
 21
-192.81022451009991
 31
0.0
  0
LINE
  5
1BA
  8
0
 62
     0
 10
823.42833208740001
 20
-226.86577985380001
 30
0.0
 11
823.42833208740001
 21
-206.9213351974
 31
0.0
  0
LINE
  5
1BB
  8
0
 62
     0
 10
823.42833208740001
 20
-226.86577985380001
 30
0.0
 11
823.42833208740001
 21
-223.86577985380001
 31
0.0
  0
SOLID
  5
1BC
  8
0
 62
     0
 10
823.42833208740001
 20
-226.86577985380001
 30
0.0
 11
821.92833208740001
 21
-220.86577985380001
 31
0.0
 12
824.92833208739989
 22
-220.86577985380001
 32
0.0
 13
823.42833208740001
 23
-222.36577985380001
 33
0.0
  0
LINE
  5
1BD
  8
0
 62
     0
 10
823.42833208740001
 20
-172.86577985380001
 30
0.0
 11
823.42833208740001
 21
-175.86577985380001
 31
0.0
  0
SOLID
  5
1BE
  8
0
 62
     0
 10
823.42833208740001
 20
-172.86577985380001
 30
0.0
 11
824.92833208739989
 21
-178.86577985380001
 31
0.0
 12
821.92833208740001
 22
-178.86577985380001
 32
0.0
 13
823.42833208740001
 23
-177.36577985380001
 33
0.0
  0
ENDBLK
  5
1BF
  8
0
  0
BLOCK
  8
0
  2
*D26
 70
     1
 10
0.0
 20
0.0
 30
0.0
  3
*D26
  1

  0
TEXT
  5
1C3
  8
0
 62
     0
 10
853.67324003880003
 20
-73.580887231099993
 30
0.0
 40
5.9972220420999998
  1
32
  0
LINE
  5
1C4
  8
0
 62
     0
 10
873.2010177105999
 20
-105.86577985380001
 30
0.0
 11
873.2010177105999
 21
-75.139220532699994
 31
0.0
  0
LINE
  5
1C5
  8
0
 62
     0
 10
841.2010177105999
 20
-105.86577985380001
 30
0.0
 11
841.2010177105999
 21
-75.139220532699994
 31
0.0
  0
LINE
  5
1C6
  8
0
 62
     0
 10
873.2010177105999
 20
-75.639220532700008
 30
0.0
 11
864.25657305419986
 21
-75.639220532700008
 31
0.0
  0
LINE
  5
1C7
  8
0
 62
     0
 10
873.2010177105999
 20
-75.639220532700008
 30
0.0
 11
850.14546236699994
 21
-75.639220532700008
 31
0.0
  0
LINE
  5
1C8
  8
0
 62
     0
 10
841.2010177105999
 20
-75.639220532700008
 30
0.0
 11
864.25657305419986
 21
-75.639220532700008
 31
0.0
  0
LINE
  5
1C9
  8
0
 62
     0
 10
841.2010177105999
 20
-75.639220532700008
 30
0.0
 11
850.14546236699994
 21
-75.639220532700008
 31
0.0
  0
LINE
  5
1CA
  8
0
 62
     0
 10
841.2010177105999
 20
-75.639220532700008
 30
0.0
 11
844.20101771060001
 21
-75.639220532700008
 31
0.0
  0
SOLID
  5
1CB
  8
0
 62
     0
 10
841.2010177105999
 20
-75.639220532700008
 30
0.0
 11
847.20101771060001
 21
-74.139220532700008
 31
0.0
 12
847.20101771060001
 22
-77.139220532700008
 32
0.0
 13
845.7010177105999
 23
-75.639220532700008
 33
0.0
  0
LINE
  5
1CC
  8
0
 62
     0
 10
873.2010177105999
 20
-75.639220532700008
 30
0.0
 11
870.20101771060001
 21
-75.639220532700008
 31
0.0
  0
SOLID
  5
1CD
  8
0
 62
     0
 10
873.2010177105999
 20
-75.639220532700008
 30
0.0
 11
867.20101771060013
 21
-77.139220532700008
 31
0.0
 12
867.20101771060013
 22
-74.139220532700008
 32
0.0
 13
868.7010177105999
 23
-75.639220532700008
 33
0.0
  0
ENDBLK
  5
1CE
  8
0
  0
BLOCK
  8
0
  2
*D27
 70
     1
 10
0.0
 20
0.0
 30
0.0
  3
*D27
  1

  0
TEXT
  5
1D2
  8
0
 62
     0
 10
843.17324003880003
 20
-151.23170103320001
 30
0.0
 40
5.9972220420999998
  1
11
  0
LINE
  5
1D3
  8
0
 62
     0
 10
852.20101771060001
 20
-165.86577985379989
 30
0.0
 11
852.20101771060001
 21
-152.7900343348
 31
0.0
  0
LINE
  5
1D4
  8
0
 62
     0
 10
841.2010177105999
 20
-163.12391787460001
 30
0.0
 11
841.2010177105999
 21
-152.7900343348
 31
0.0
  0
LINE
  5
1D5
  8
0
 62
     0
 10
852.20101771060001
 20
-153.2900343348
 30
0.0
 11
852.20101771060001
 21
-153.2900343348
 31
0.0
  0
LINE
  5
1D6
  8
0
 62
     0
 10
852.20101771060001
 20
-153.2900343348
 30
0.0
 11
841.2010177105999
 21
-153.2900343348
 31
0.0
  0
LINE
  5
1D7
  8
0
 62
     0
 10
841.2010177105999
 20
-153.2900343348
 30
0.0
 11
852.20101771060001
 21
-153.2900343348
 31
0.0
  0
LINE
  5
1D8
  8
0
 62
     0
 10
841.2010177105999
 20
-153.2900343348
 30
0.0
 11
841.2010177105999
 21
-153.2900343348
 31
0.0
  0
LINE
  5
1D9
  8
0
 62
     0
 10
841.2010177105999
 20
-153.2900343348
 30
0.0
 11
838.20101771060001
 21
-153.2900343348
 31
0.0
  0
SOLID
  5
1DA
  8
0
 62
     0
 10
841.2010177105999
 20
-153.2900343348
 30
0.0
 11
835.20101771060001
 21
-154.7900343348
 31
0.0
 12
835.20101771060001
 22
-151.7900343348
 32
0.0
 13
836.7010177105999
 23
-153.2900343348
 33
0.0
  0
LINE
  5
1DB
  8
0
 62
     0
 10
852.20101771060001
 20
-153.2900343348
 30
0.0
 11
855.20101771060001
 21
-153.2900343348
 31
0.0
  0
SOLID
  5
1DC
  8
0
 62
     0
 10
852.20101771060001
 20
-153.2900343348
 30
0.0
 11
858.2010177105999
 21
-151.7900343348
 31
0.0
 12
858.2010177105999
 22
-154.7900343348
 32
0.0
 13
856.70101771060001
 23
-153.2900343348
 33
0.0
  0
ENDBLK
  5
1DD
  8
0
  0
BLOCK
  8
0
  2
CLUMP2
 70
     0
 10
0.0
 20
0.0
 30
0.0
  3
CLUMP2
  1

  0
LINE
  5
246
  8
┌▓È_1
  6
BORDER
 62
     3
 10
682.52417309249995
 20
-172.86577985380001
 30
0.0
 11
665.15472864809988
 21
-172.86577985380001
 31
0.0
  0
LINE
  5
247
  8
┌▓È_1
  6
STITCH
 10
674.94639531480004
 20
-170.36577985380001
 30
0.0
 11
676.69639531480004
 21
-168.61577985380001
 31
0.0
  0
LINE
  5
248
  8
┌▓È_1
  6
STITCH
 10
673.94639531480004
 20
-170.36577985380001
 30
0.0
 11
672.19639531480004
 21
-168.61577985380001
 31
0.0
  0
LINE
  5
249
  8
┌▓È_1
  6
STITCH
 10
673.94639531480004
 20
-175.36577985380001
 30
0.0
 11
672.19639531480004
 21
-177.11577985380001
 31
0.0
  0
LINE
  5
24A
  8
┌▓È_1
  6
STITCH
 10
674.94639531480004
 20
-175.36577985380001
 30
0.0
 11
676.69639531480004
 21
-177.11577985380001
 31
0.0
  0
LINE
  5
24B
  8
┌▓È_1
  6
STITCH
 10
674.94639531480004
 20
-175.36577985380001
 30
0.0
 11
673.94639531480004
 21
-175.36577985380001
 31
0.0
  0
LINE
  5
24C
  8
┌▓È_1
  6
STITCH
 10
673.94639531480004
 20
-170.36577985380001
 30
0.0
 11
674.94639531480004
 21
-170.36577985380001
 31
0.0
  0
LINE
  5
24D
  8
┌▓È_1
  6
STITCH
 10
674.94639531480004
 20
-170.36577985380001
 30
0.0
 11
674.94639531480004
 21
-175.36577985380001
 31
0.0
  0
LINE
  5
24E
  8
┌▓È_1
  6
STITCH
 10
673.94639531480004
 20
-175.36577985380001
 30
0.0
 11
673.94639531480004
 21
-170.36577985380001
 31
0.0
  0
ENDBLK
  5
24F
  8
0
  0
BLOCK
  8
0
  2
CLUMP3
 70
     0
 10
0.0
 20
0.0
 30
0.0
  3
CLUMP3
  1

  0
LINE
  5
254
  8
┌▓È_1
  6
BORDER
 62
     3
 10
682.52417309249995
 20
-226.86577985380001
 30
0.0
 11
665.15472864809988
 21
-226.86577985380001
 31
0.0
  0
LINE
  5
255
  8
┌▓È_1
  6
STITCH
 10
674.94639531480004
 20
-224.36577985380001
 30
0.0
 11
676.69639531480004
 21
-222.61577985380001
 31
0.0
  0
LINE
  5
256
  8
┌▓È_1
  6
STITCH
 10
673.94639531480004
 20
-224.36577985380001
 30
0.0
 11
672.19639531480004
 21
-222.61577985380001
 31
0.0
  0
LINE
  5
257
  8
┌▓È_1
  6
STITCH
 10
673.94639531480004
 20
-229.36577985380001
 30
0.0
 11
672.19639531480004
 21
-231.11577985380001
 31
0.0
  0
LINE
  5
258
  8
┌▓È_1
  6
STITCH
 10
674.94639531480004
 20
-229.36577985380001
 30
0.0
 11
676.69639531480004
 21
-231.11577985380001
 31
0.0
  0
LINE
  5
259
  8
┌▓È_1
  6
STITCH
 10
674.94639531480004
 20
-229.36577985380001
 30
0.0
 11
673.94639531480004
 21
-229.36577985380001
 31
0.0
  0
LINE
  5
25A
  8
┌▓È_1
  6
STITCH
 10
673.94639531480004
 20
-224.36577985380001
 30
0.0
 11
674.94639531480004
 21
-224.36577985380001
 31
0.0
  0
LINE
  5
25B
  8
┌▓È_1
  6
STITCH
 10
674.94639531480004
 20
-224.36577985380001
 30
0.0
 11
674.94639531480004
 21
-229.36577985380001
 31
0.0
  0
LINE
  5
25C
  8
┌▓È_1
  6
STITCH
 10
673.94639531480004
 20
-229.36577985380001
 30
0.0
 11
673.94639531480004
 21
-224.36577985380001
 31
0.0
  0
ENDBLK
  5
25D
  8
0
  0
BLOCK
  8
0
  2
CLUMP4
 70
     0
 10
0.0
 20
0.0
 30
0.0
  3
CLUMP4
  1

  0
INSERT
  5
262
  8
┌▓È_1
  6
BORDER
  2
CLUMP5
 10
0.0
 20
0.0
 30
0.0
  0
ENDBLK
  5
26E
  8
0
  0
BLOCK
  8
0
  2
CLUMP5
 70
     0
 10
0.0
 20
0.0
 30
0.0
  3
CLUMP5
  1

  0
LINE
  5
264
  8
┌▓È_1
  6
BORDER
 62
     3
 10
692.19639531479993
 20
-246.538002076
 30
0.0
 11
692.19639531479993
 21
-263.90744652040001
 31
0.0
  0
LINE
  5
265
  8
┌▓È_1
  6
STITCH
 10
694.69639531479993
 20
-254.11577985380001
 30
0.0
 11
689.69639531479993
 21
-254.11577985380001
 31
0.0
  0
LINE
  5
266
  8
┌▓È_1
  6
STITCH
 10
694.69639531479993
 20
-254.11577985380001
 30
0.0
 11
696.44639531479993
 21
-252.36577985380001
 31
0.0
  0
LINE
  5
267
  8
┌▓È_1
  6
STITCH
 10
694.69639531479993
 20
-255.11577985380001
 30
0.0
 11
696.44639531479993
 21
-256.86577985380001
 31
0.0
  0
LINE
  5
268
  8
┌▓È_1
  6
STITCH
 10
694.69639531479993
 20
-255.11577985380001
 30
0.0
 11
694.69639531479993
 21
-254.11577985380001
 31
0.0
  0
LINE
  5
269
  8
┌▓È_1
  6
STITCH
 10
689.69639531479993
 20
-255.11577985380001
 30
0.0
 11
694.69639531479993
 21
-255.11577985380001
 31
0.0
  0
LINE
  5
26A
  8
┌▓È_1
  6
STITCH
 10
689.69639531479993
 20
-254.11577985380001
 30
0.0
 11
689.69639531479993
 21
-255.11577985380001
 31
0.0
  0
LINE
  5
26B
  8
┌▓È_1
  6
STITCH
 10
689.69639531479993
 20
-254.11577985380001
 30
0.0
 11
687.94639531479993
 21
-252.36577985380001
 31
0.0
  0
LINE
  5
26C
  8
┌▓È_1
  6
STITCH
 10
689.69639531479993
 20
-255.11577985380001
 30
0.0
 11
687.94639531479993
 21
-256.86577985380001
 31
0.0
  0
ENDBLK
  5
26D
  8
0
  0
BLOCK
  8
0
  2
CLUMP6
 70
     0
 10
0.0
 20
0.0
 30
0.0
  3
CLUMP6
  1

  0
INSERT
  5
279
  8
┌▓È_1
  6
BORDER
  2
CLUMP7
 10
0.0
 20
0.0
 30
0.0
  0
ENDBLK
  5
285
  8
0
  0
BLOCK
  8
0
  2
CLUMP7
 70
     0
 10
0.0
 20
0.0
 30
0.0
  3
CLUMP7
  1

  0
LINE
  5
27B
  8
┌▓È_1
  6
BORDER
 62
     3
 10
735.19639531479993
 20
-246.538002076
 30
0.0
 11
735.19639531479993
 21
-263.90744652040001
 31
0.0
  0
LINE
  5
27C
  8
┌▓È_1
  6
STITCH
 10
737.69639531479993
 20
-254.11577985380001
 30
0.0
 11
732.69639531479993
 21
-254.11577985380001
 31
0.0
  0
LINE
  5
27D
  8
┌▓È_1
  6
STITCH
 10
737.69639531479993
 20
-254.11577985380001
 30
0.0
 11
739.44639531479993
 21
-252.36577985380001
 31
0.0
  0
LINE
  5
27E
  8
┌▓È_1
  6
STITCH
 10
737.69639531479993
 20
-255.11577985380001
 30
0.0
 11
739.44639531479993
 21
-256.86577985380001
 31
0.0
  0
LINE
  5
27F
  8
┌▓È_1
  6
STITCH
 10
737.69639531479993
 20
-255.11577985380001
 30
0.0
 11
737.69639531479993
 21
-254.11577985380001
 31
0.0
  0
LINE
  5
280
  8
┌▓È_1
  6
STITCH
 10
732.69639531479993
 20
-255.11577985380001
 30
0.0
 11
737.69639531479993
 21
-255.11577985380001
 31
0.0
  0
LINE
  5
281
  8
┌▓È_1
  6
STITCH
 10
732.69639531479993
 20
-254.11577985380001
 30
0.0
 11
732.69639531479993
 21
-255.11577985380001
 31
0.0
  0
LINE
  5
282
  8
┌▓È_1
  6
STITCH
 10
732.69639531479993
 20
-254.11577985380001
 30
0.0
 11
730.94639531479993
 21
-252.36577985380001
 31
0.0
  0
LINE
  5
283
  8
┌▓È_1
  6
STITCH
 10
732.69639531479993
 20
-255.11577985380001
 30
0.0
 11
730.94639531479993
 21
-256.86577985380001
 31
0.0
  0
ENDBLK
  5
284
  8
0
  0
BLOCK
  8
0
  2
CLUMP8
 70
     0
 10
0.0
 20
0.0
 30
0.0
  3
CLUMP8
  1

  0
LINE
  5
28D
  8
┌▓È_1
  6
BORDER
 62
     3
 10
857.2010177105999
 20
-112.86577985380001
 30
0.0
 11
857.2010177105999
 21
-124.86577985380001
 31
0.0
  0
LINE
  5
28E
  8
┌▓È_1
  6
BORDER
 62
     3
 10
851.20101771060013
 20
-118.86577985380001
 30
0.0
 11
863.20101771060001
 21
-118.86577985380001
 31
0.0
  0
CIRCLE
  5
28F
  8
┌▓È_1
 62
     5
 10
857.2010177105999
 20
-118.86577985380001
 30
0.0
 40
4.25
  0
CIRCLE
  5
290
  8
┌▓È_1
 62
     5
 10
857.2010177105999
 20
-118.86577985380001
 30
0.0
 40
2.5
  0
ENDBLK
  5
291
  8
0
  0
BLOCK
  8
0
  2
CLUMP9
 70
     0
 10
0.0
 20
0.0
 30
0.0
  3
CLUMP9
  1

  0
LINE
  5
295
  8
┌▓È_1
  6
BORDER
 62
     3
 10
852.20101771060001
 20
-166.86577985379989
 30
0.0
 11
852.20101771060001
 21
-178.86577985380001
 31
0.0
  0
LINE
  5
296
  8
┌▓È_1
  6
BORDER
 62
     3
 10
846.20101771060001
 20
-172.86577985380001
 30
0.0
 11
858.2010177105999
 21
-172.86577985380001
 31
0.0
  0
CIRCLE
  5
297
  8
┌▓È_1
 62
     5
 10
852.20101771060001
 20
-172.86577985380001
 30
0.0
 40
4.25
  0
CIRCLE
  5
298
  8
┌▓È_1
 62
     5
 10
852.20101771060001
 20
-172.86577985380001
 30
0.0
 40
2.5
  0
ENDBLK
  5
299
  8
0
  0
BLOCK
  8
0
  2
CLUMP10
 70
     0
 10
0.0
 20
0.0
 30
0.0
  3
CLUMP10
  1

  0
LINE
  5
29D
  8
┌▓È_1
  6
BORDER
 62
     3
 10
862.20101771060001
 20
-220.86577985380001
 30
0.0
 11
862.20101771060001
 21
-232.86577985380001
 31
0.0
  0
LINE
  5
29E
  8
┌▓È_1
  6
BORDER
 62
     3
 10
868.20101771060001
 20
-226.86577985380001
 30
0.0
 11
856.2010177105999
 21
-226.86577985380001
 31
0.0
  0
CIRCLE
  5
29F
  8
┌▓È_1
 62
     5
 10
862.20101771060001
 20
-226.86577985380001
 30
0.0
 40
4.25
  0
CIRCLE
  5
2A0
  8
┌▓È_1
 62
     5
 10
862.20101771060001
 20
-226.86577985380001
 30
0.0
 40
2.5
  0
ENDBLK
  5
2A1
  8
0
  0
BLOCK
  8
0
  2
*U37
 70
     1
 10
0.0
 20
0.0
 30
0.0
  3
*U37
  1

  0
TEXT
  5
2C2
  8
┌▓È_1
  6
CONTINUOUS
 10
960.13061581522527
 20
-218.13855944192741
 30
0.0
 40
5.9972220420999998
  1
ÄMâéâ~òöègæÕÉ}
  0
ENDBLK
  5
2C4
  8
0
  0
BLOCK
  8
0
  2
*D38
 70
     1
 10
0.0
 20
0.0
 30
0.0
  3
*D38
  1

  0
LINE
  5
2C7
  8
Éíû@É³
 62
     0
 10
964.99493859807569
 20
-166.30028230032411
 30
0.0
 11
945.37521224423006
 21
-185.92000865416981
 31
0.0
  0
LINE
  5
2C8
  8
Éíû@É³
 62
     0
 10
1008.643987117524
 20
-166.30028230032411
 30
0.0
 11
1028.2637134713691
 21
-185.92000865416989
 31
0.0
  0
ARC
  5
2C9
  8
Éíû@É³
 62
     0
 10
986.81946285779986
 20
-144.4757580406
 30
0.0
 40
57.361021300099992
 50
230.99591124811931
 51
260.7849848605241
  0
ARC
  5
2CA
  8
Éíû@É³
 62
     0
 10
986.81946285779986
 20
-144.4757580406
 30
0.0
 40
57.361021300099992
 50
279.21501513947578
 51
309.00408875188072
  0
SOLID
  5
2CB
  8
Éíû@É³
 62
     0
 10
950.04866429672632
 20
-189.79418886028839
 30
0.0
 11
951.38697854102895
 21
-188.3079469609003
 31
0.0
 12
946.25909572071328
 22
-185.0361251776867
 32
0.0
 13
946.25909572071328
 23
-185.0361251776867
 33
0.0
  0
SOLID
  5
2CC
  8
Éíû@É³
 62
     0
 10
1022.251947174571
 20
-188.3079469609003
 30
0.0
 11
1023.590261418873
 21
-189.79418886028839
 31
0.0
 12
1027.379829994886
 22
-185.0361251776867
 32
0.0
 13
1027.379829994886
 23
-185.0361251776867
 33
0.0
  0
TEXT
  8
Éíû@É³
  40
5.99722
  5
338
  62
0
  72
0
  71
0
 10
974.825
 20
-212.452
 30
0.000000
  1
90üï
  0
POINT
  5
2CE
  8
Defpoints
 62
     0
 10
986.81946285779986
 20
-144.4757580406
 30
0.0
  0
POINT
  5
2CF
  8
Defpoints
 62
     0
 10
965.03913277189986
 20
-166.2560881265
 30
0.0
  0
POINT
  5
2D0
  8
Defpoints
 62
     0
 10
1008.5997929437
 20
-166.2560881265
 30
0.0
  0
POINT
  5
2D1
  8
Defpoints
 62
     0
 10
971.97333809880286
 20
-199.88224993668391
 30
0.0
  0
ENDBLK
  5
2D3
  8
0
  0
BLOCK
  8
0
  2
*D39
 70
     1
 10
0.0
 20
0.0
 30
0.0
  3
*D39
  1

  0
LINE
  5
2D5
  8
Éíû@É³
 62
     0
 10
1008.643987117524
 20
-142.6512337809759
 30
0.0
 11
1034.944463440492
 21
-116.3507574581288
 31
0.0
  0
LINE
  5
2D6
  8
Éíû@É³
 62
     0
 10
964.99493859807569
 20
-142.6512337809759
 30
0.0
 11
938.69446227510775
 21
-116.3507574581288
 31
0.0
  0
ARC
  5
2D7
  8
Éíû@É³
 62
     0
 10
986.81946285779986
 20
-164.4757580406
 30
0.0
 40
66.809028513100003
 50
50.147362859370318
 51
82.097185921367867
  0
ARC
  5
2D8
  8
Éíû@É³
 62
     0
 10
986.81946285779986
 20
-164.4757580406
 30
0.0
 40
66.809028513100003
 50
97.902814078632147
 51
129.8526371406297
  0
SOLID
  5
2D9
  8
Éíû@É³
 62
     0
 10
1030.306348337793
 20
-112.4486462734409
 30
0.0
 11
1028.9570652923439
 21
-113.92493732308689
 31
0.0
 12
1034.060579964007
 22
-117.23464093461
 32
0.0
 13
1034.060579964007
 23
-117.23464093461
 33
0.0
  0
SOLID
  5
2DA
  8
Éíû@É³
 62
     0
 10
944.68186042325544
 20
-113.92493732308689
 30
0.0
 11
943.3325773778065
 21
-112.4486462734409
 31
0.0
 12
939.57834575159302
 22
-117.23464093461
 32
0.0
 13
939.57834575159302
 23
-117.23464093461
 33
0.0
  0
TEXT
  8
Éíû@É³
  40
5.99722
  5
339
  62
0
  72
0
  71
0
 10
974.825
 20
-108.282
 30
0.000000
  1
90üï
  0
POINT
  5
2DC
  8
Defpoints
 62
     0
 10
986.81946285779986
 20
-164.4757580406
 30
0.0
  0
POINT
  5
2DD
  8
Defpoints
 62
     0
 10
1008.5997929437
 20
-142.69542795480001
 30
0.0
  0
POINT
  5
2DE
  8
Defpoints
 62
     0
 10
965.03913277189986
 20
-142.69542795480001
 30
0.0
  0
POINT
  5
2DF
  8
Defpoints
 62
     0
 10
1004.110911821837
 20
-99.943191970527181
 30
0.0
  0
ENDBLK
  5
2E1
  8
0
  0
BLOCK
  8
0
  2
*U40
 70
     1
 10
0.0
 20
0.0
 30
0.0
  3
*U40
  1

  0
TEXT
  5
2E3
  8
┌▓È_1
  6
CONTINUOUS
 10
1022.259347692067
 20
-370.18121297969998
 30
0.0
 40
7.1966662884000003
  1
LY-202  100x200
  0
ENDBLK
  5
2E5
  8
0
  0
BLOCK
  8
0
  2
*D41
 70
     1
 10
0.0
 20
0.0
 30
0.0
  3
*D41
  1

  0
LINE
  5
2E7
  8
Éíû@É³
 62
     0
 10
747.13389531480016
 20
-252.36577985380009
 30
0.0
 11
718.67393925171075
 21
-252.36577985380001
 31
0.0
  0
LINE
  5
2E8
  8
Éíû@É³
 62
     0
 10
676.69639531480004
 20
-106.92827985380001
 30
0.0
 11
676.69639531480004
 21
-210.3882359168891
 31
0.0
  0
ARC
  5
2E9
  8
Éíû@É³
 62
     0
 10
676.69639531480016
 20
-252.36577985380001
 30
0.0
 40
43.22754393691087
 50
7.9590743360753358
 51
35.62898038625621
  0
ARC
  5
2EA
  8
Éíû@É³
 62
     0
 10
676.69639531480016
 20
-252.36577985380001
 30
0.0
 40
43.22754393691087
 50
60.166598454495301
 51
82.040925663924611
  0
SOLID
  5
2EB
  8
Éíû@É³
 62
     0
 10
720.50512697847012
 20
-246.3108462599227
 30
0.0
 11
718.50994917900925
 21
-246.44964665091319
 31
0.0
 12
719.92393925171086
 22
-252.36577985380009
 32
0.0
 13
719.92393925171086
 23
-252.36577985380009
 33
0.0
  0
SOLID
  5
2EC
  8
Éíû@É³
 62
     0
 10
682.61252851768688
 20
-210.5522259895908
 30
0.0
 11
682.75132890867735
 21
-208.5570481901301
 31
0.0
 12
676.69639531480016
 22
-209.1382359168891
 32
0.0
 13
676.69639531480016
 23
-209.1382359168891
 33
0.0
  0
TEXT
  8
Éíû@É³
  40
5.99722
  5
33A
  62
0
  72
0
  71
0
 10
693.684
 20
-230.908
 30
0.000000
  1
90üï
  0
POINT
  5
2EE
  8
Defpoints
 62
     0
 10
676.69639531480016
 20
-252.36577985380001
 30
0.0
  0
POINT
  5
2EF
  8
Defpoints
 62
     0
 10
747.19639531480016
 20
-252.36577985380009
 30
0.0
  0
POINT
  5
2F0
  8
Defpoints
 62
     0
 10
676.69639531480016
 20
-106.86577985380001
 30
0.0
  0
POINT
  5
2F1
  8
Defpoints
 62
     0
 10
714.13254650737292
 20
-230.7520078853446
 30
0.0
  0
ENDBLK
  5
2F3
  8
0
  0
BLOCK
  8
0
  2
*U42
 70
     1
 10
0.0
 20
0.0
 30
0.0
  3
*U42
  1

  0
TEXT
  5
2F5
  8
┌▓È_1
  6
CONTINUOUS
 10
1029.5908715380001
 20
-387.9987029023269
 30
0.0
 40
7.1966662884000003
  1
ékî^âAâôâOâï
  0
ENDBLK
  5
2F7
  8
0
  0
BLOCK
  8
0
  2
*U43
 70
     1
 10
0.0
 20
0.0
 30
0.0
  3
*U43
  1

  0
TEXT
  5
2F9
  8
┌▓È_1
  6
CONTINUOUS
 10
885.22168245179989
 20
-404.88559780882741
 30
0.0
 40
8.6359998702999992
  1
èöÄ«ë´Äð
  0
ENDBLK
  5
2FB
  8
0
  0
BLOCK
  8
0
  2
*U44
 70
     1
 10
0.0
 20
0.0
 30
0.0
  3
*U44
  1

  0
TEXT
  5
2FD
  8
┌▓È_1
  6
CONTINUOUS
 10
870.7805750023
 20
-355.53832947555782
 30
0.0
 40
7.1966662884000003
  1
ò\û╩ÅêùØüFâåâjâNâìâüâbâLÄdÅÒé░
  0
ENDBLK
  5
2FF
  8
0
  0
BLOCK
  8
0
  2
*U45
 70
     1
 10
0.0
 20
0.0
 30
0.0
  3
*U45
  1

  0
TEXT
  5
301
  8
┌▓È_1
  6
CONTINUOUS
 10
967.71134662479994
 20
-364.72782550493707
 30
0.0
 40
4.6749999999999989
  1
ü@îƒ ü@ê¾
  0
ENDBLK
  5
303
  8
0
  0
BLOCK
  8
0
  2
*U46
 70
     1
 10
0.0
 20
0.0
 30
0.0
  3
*U46
  1

  0
TEXT
  5
305
  8
┌▓È_1
  6
CONTINUOUS
 10
935.71134662479994
 20
-381.70409454047012
 30
0.0
 40
4.6749999999999989
  1
ü@Ä┌ ü@ôx
  0
ENDBLK
  5
307
  8
0
  0
BLOCK
  8
0
  2
*U47
 70
     1
 10
0.0
 20
0.0
 30
0.0
  3
*U47
  1

  0
TEXT
  5
309
  8
┌▓È_1
  6
CONTINUOUS
 10
935.71134662479994
 20
-364.72782550493707
 30
0.0
 40
4.6749999999999989
  1
ü@ö┬ ü@î·
  0
ENDBLK
  5
30B
  8
0
  0
BLOCK
  8
0
  2
*U48
 70
     1
 10
0.0
 20
0.0
 30
0.0
  3
*U48
  1

  0
TEXT
  5
30D
  8
┌▓È_1
  6
CONTINUOUS
 10
903.71134662479994
 20
-364.6329016470691
 30
0.0
 40
4.6749999999999989
  1
ü@ìÌ ü@Ä┐
  0
ENDBLK
  5
30F
  8
0
  0
BLOCK
  8
0
  2
*U49
 70
     1
 10
0.0
 20
0.0
 30
0.0
  3
*U49
  1

  0
TEXT
  5
311
  8
┌▓È_1
  6
CONTINUOUS
 62
     5
 10
944.57492779417817
 20
-389.9667848958
 30
0.0
 40
4.6749999999999989
  1
1üF2
  0
ENDBLK
  5
313
  8
0
  0
BLOCK
  8
0
  2
*U50
 70
     1
 10
0.0
 20
0.0
 30
0.0
  3
*U50
  1

  0
TEXT
  5
315
  8
┌▓È_1
  6
CONTINUOUS
 62
     5
 10
944.78850647438105
 20
-372.9667848958
 30
0.0
 40
4.6749999999999989
  1
4.5t
  0
ENDBLK
  5
317
  8
0
  0
BLOCK
  8
0
  2
*U51
 70
     1
 10
0.0
 20
0.0
 30
0.0
  3
*U51
  1

  0
TEXT
  5
319
  8
┌▓È_1
  6
CONTINUOUS
 62
     5
 10
915.98032119519326
 20
-373.25155646940408
 30
0.0
 40
4.6749999999999989
  1
ôS
  0
ENDBLK
  5
31B
  8
0
  0
BLOCK
  8
0
  2
*U52
 70
     1
 10
0.0
 20
0.0
 30
0.0
  3
*U52
  1

  0
TEXT
  5
31D
  8
┌▓È_1
  6
CONTINUOUS
 62
     5
 10
879.1510699261579
 20
-372.9667848958
 30
0.0
 40
4.6749999999999989
  1
H16.4
  0
ENDBLK
  5
31F
  8
0
  0
BLOCK
  8
0
  2
*U53
 70
     1
 10
0.0
 20
0.0
 30
0.0
  3
*U53
  1

  0
TEXT
  5
321
  8
┌▓È_1
  6
CONTINUOUS
 10
1000.5615739097
 20
-398.57510441760212
 30
0.0
 40
4.6749999999999989
  1
É}öÈ
  0
ENDBLK
  5
323
  8
0
  0
BLOCK
  8
0
  2
*U54
 70
     1
 10
0.0
 20
0.0
 30
0.0
  3
*U54
  1

  0
TEXT
  5
325
  8
┌▓È_1
  6
CONTINUOUS
 10
1000.5615739097
 20
-381.62256634653608
 30
0.0
 40
4.6749999999999989
  1
òiû╝
  0
ENDBLK
  5
327
  8
0
  0
BLOCK
  8
0
  2
*U55
 70
     1
 10
0.0
 20
0.0
 30
0.0
  3
*U55
  1

  0
TEXT
  5
329
  8
┌▓È_1
  6
CONTINUOUS
 10
1000.5615739097
 20
-364.57510441760212
 30
0.0
 40
4.6749999999999989
  1
î^öÈ
  0
ENDBLK
  5
32B
  8
0
  0
BLOCK
  8
0
  2
*U56
 70
     1
 10
0.0
 20
0.0
 30
0.0
  3
*U56
  1

  0
TEXT
  5
32D
  8
┌▓È_1
  6
CONTINUOUS
 10
871.71134662479994
 20
-364.56170875366797
 30
0.0
 40
4.6749999999999989
  1
ü@ô· ü@òt
  0
ENDBLK
  5
32F
  8
0
  0
BLOCK
  8
0
  2
*U57
 70
     1
 10
0.0
 20
0.0
 30
0.0
  3
*U57
  1

  0
TEXT
  5
331
  8
┌▓È_1
  6
CONTINUOUS
 10
870.7805750023
 20
-390.25155646940408
 30
0.0
 40
4.6749999999999989
  1
 É╗É}ü@ü@ è¦û{
  0
ENDBLK
  5
333
  8
0
  0
BLOCK
  8
0
  2
*U58
 70
     1
 10
0.0
 20
0.0
 30
0.0
  3
*U58
  1

  0
TEXT
  5
335
  8
┌▓È_1
  6
CONTINUOUS
 10
870.7805750023
 20
-381.72782550493707
 30
0.0
 40
4.6749999999999989
  1
 É¦îvü@ü@öÆÉ{ëÛ
  0
ENDBLK
  5
337
  8
0
  0
ENDSEC
  0
SECTION
  2
ENTITIES
  0
LINE
  5
2F
  8
┌▓È_1
 62
     5
 10
747.19639531479993
 20
-334.29360275200003
 30
0.0
 11
747.19639531479993
 21
-366.29360275200003
 31
0.0
  0
INSERT
  5
31
  8
┌▓È_1
  6
BORDER
  2
CLUMP0
 10
0.0
 20
0.0
 30
0.0
  0
LINE
  5
38
  8
┌▓È_1
 62
     5
 10
672.19639531480004
 20
-366.29360275200003
 30
0.0
 11
747.19639531479993
 21
-366.29360275200003
 31
0.0
  0
INSERT
  5
3A
  8
┌▓È_1
  6
BORDER
  2
CLUMP1
 10
0.0
 20
0.0
 30
0.0
  0
LINE
  5
41
  8
┌▓È_1
  6
STITCH
 10
676.69639531480004
 20
-334.29360275200003
 30
0.0
 11
676.69639531480004
 21
-366.29360275200003
 31
0.0
  0
LINE
  5
42
  8
┌▓È_1
 62
     5
 10
672.19639531480004
 20
-334.29360275200003
 30
0.0
 11
672.19639531480004
 21
-366.29360275200003
 31
0.0
  0
LINE
  5
43
  8
┌▓È_1
 62
     5
 10
672.19639531480004
 20
-334.29360275200003
 30
0.0
 11
747.19639531479993
 21
-334.29360275200003
 31
0.0
  0
DIMENSION
  5
54
  8
Éíû@É³
  2
*D2
 10
999.31946285779986
 20
-125.5387117444
 30
0.0
 11
986.81946285779986
 21
-125.5387117444
 31
0.0
 70
   128
  1
%%c5
 13
999.31946285779986
 23
-151.9757580406
 33
0.0
 14
974.31946285779986
 24
-151.9757580406
 34
0.0
  0
DIMENSION
  5
63
  8
Éíû@É³
  2
*D3
 10
965.56946285779998
 20
-184.13246174439999
 30
0.0
 11
986.81946285779986
 21
-184.13246174439999
 31
0.0
 70
   128
  1
%%c8.5
 13
965.56946285779998
 23
-165.7257580406
 33
0.0
 14
1008.0694628578
 24
-165.7257580406
 34
0.0
 50
180.0
  0
LINE
  5
64
  8
┌▓È_1
 62
     5
 10
974.31946285779986
 20
-151.9757580406
 30
0.0
 11
974.31946285779986
 21
-156.9757580406
 31
0.0
  0
LINE
  5
65
  8
┌▓È_1
 62
     5
 10
999.31946285779986
 20
-151.9757580406
 30
0.0
 11
999.31946285779986
 21
-156.9757580406
 31
0.0
  0
LINE
  5
66
  8
┌▓È_1
 62
     5
 10
999.31946285779986
 20
-151.9757580406
 30
0.0
 11
1008.0694628578
 21
-143.2257580406
 31
0.0
  0
LINE
  5
67
  8
┌▓È_1
 62
     5
 10
965.56946285779998
 20
-143.2257580406
 30
0.0
 11
974.31946285779986
 21
-151.9757580406
 31
0.0
  0
LINE
  5
68
  8
┌▓È_1
  6
BORDER
 62
     3
 10
986.81946285779986
 20
-137.70903668650001
 30
0.0
 11
986.81946285779986
 21
-173.20903668650001
 31
0.0
  0
LINE
  5
69
  8
┌▓È_1
 62
     5
 10
950.88933322819992
 20
-143.2257580406
 30
0.0
 11
1023.8879443393
 21
-143.2257580406
 31
0.0
  0
LINE
  5
6A
  8
┌▓È_1
 62
     5
 10
950.88933322819992
 20
-165.7257580406
 30
0.0
 11
1023.8879443393
 21
-165.7257580406
 31
0.0
  0
LINE
  5
6B
  8
┌▓È_1
 62
     5
 10
974.31946285779986
 20
-156.9757580406
 30
0.0
 11
999.31946285779986
 21
-156.9757580406
 31
0.0
  0
LINE
  5
6C
  8
┌▓È_1
 62
     5
 10
974.31946285779986
 20
-151.9757580406
 30
0.0
 11
999.31946285779986
 21
-151.9757580406
 31
0.0
  0
LINE
  5
6D
  8
┌▓È_1
 62
     5
 10
999.31946285779986
 20
-156.9757580406
 30
0.0
 11
1008.0694628578
 21
-165.7257580406
 31
0.0
  0
LINE
  5
6E
  8
┌▓È_1
 62
     5
 10
974.31946285779986
 20
-156.9757580406
 30
0.0
 11
965.56946285779998
 21
-165.7257580406
 31
0.0
  0
LINE
  5
6F
  8
┌▓È_1
 10
959.76225564800006
 20
-220.7093272859
 30
0.0
 11
1012.9514070366
 21
-220.7093272859
 31
0.0
  0
INSERT
  5
70
  8
0
  6
CONTINUOUS
  2
*U37
 10
0.0
 20
0.0
 30
0.0
  0
DIMENSION
  5
7E
  8
Éíû@É³
  2
*D38
 10
971.97333809880286
 20
-199.88224993668391
 30
0.0
 11
986.81946285779986
 21
-201.83677934069999
 31
0.0
 70
   133
  1
<>
 13
1008.5997929437
 23
-166.2560881265
 33
0.0
 14
965.03913277189986
 24
-166.2560881265
 34
0.0
 15
986.81946285779986
 25
-144.4757580406
 35
0.0
1001
ACAD
1000
DSTYLE
1002
{
1070
   271
1070
     0
1002
}
  0
DIMENSION
  5
8B
  8
Éíû@É³
  2
*D39
 10
1004.110911821837
 20
-99.943191970527181
 30
0.0
 11
986.81946285779986
 21
-97.666729527499996
 31
0.0
 70
   133
  1
<>
 13
965.03913277189986
 23
-142.69542795480001
 33
0.0
 14
1008.5997929437
 24
-142.69542795480001
 34
0.0
 15
986.81946285779986
 25
-164.4757580406
 35
0.0
1001
ACAD
1000
DSTYLE
1002
{
1070
   271
1070
     0
1002
}
  0
DIMENSION
  5
9A
  8
Éíû@É³
  2
*D6
 10
1008.0694628578
 20
-113.4455174063
 30
0.0
 11
986.81946285779986
 21
-113.4455174063
 31
0.0
 70
   128
  1
%%c8.5
 13
1008.0694628578
 23
-143.2257580406
 33
0.0
 14
965.56946285779998
 24
-143.2257580406
 34
0.0
  0
DIMENSION
  5
A9
  8
Éíû@É³
  2
*D7
 10
765.01361218789998
 20
-350.29360275200003
 30
0.0
 11
765.01361218789998
 21
-322.87484038079998
 31
0.0
 70
   128
  1
<>
 13
741.19639531479993
 23
-350.29360275200003
 33
0.0
 14
747.19639531479993
 24
-334.29360275200003
 34
0.0
 50
90.0
  0
DIMENSION
  5
B8
  8
Éíû@É³
  2
*D8
 10
735.19639531479993
 20
-312.9724710269
 30
0.0
 11
713.69639531479993
 21
-312.9724710269
 31
0.0
 70
   128
  1
68
 13
735.19639531479993
 23
-349.29360275200003
 33
0.0
 14
692.19639531479993
 24
-339.29360275200003
 34
0.0
  0
DIMENSION
  5
C7
  8
Éíû@É³
  2
*D9
 10
747.19639531479993
 20
-312.92901399570002
 30
0.0
 11
741.19639531479993
 21
-312.92901399570002
 31
0.0
 70
   128
  1
<>
 13
747.19639531479993
 23
-334.29360275200003
 33
0.0
 14
735.19639531479993
 24
-349.29360275200003
 34
0.0
  0
DIMENSION
  5
D6
  8
Éíû@É³
  2
*D10
 10
692.19639531479993
 20
-312.92901399570002
 30
0.0
 11
682.19639531480004
 21
-312.92901399570002
 31
0.0
 70
   128
  1
<>
 13
692.19639531479993
 23
-339.29360275200003
 33
0.0
 14
672.19639531480004
 24
-334.29360275200003
 34
0.0
  0
DIMENSION
  5
E5
  8
Éíû@É³
  2
*D11
 10
765.01361218789998
 20
-366.29360275200003
 30
0.0
 11
765.01361218789998
 21
-375.12501551240001
 31
0.0
 70
   128
  1
<>
 13
747.19639531479993
 23
-366.29360275200003
 33
0.0
 14
741.19639531479993
 24
-350.29360275200003
 34
0.0
 50
90.0
  0
DIMENSION
  5
F4
  8
Éíû@É³
  2
*D12
 10
708.93223515850002
 20
-345.29360275200003
 30
0.0
 11
708.93223515850002
 21
-327.54259363739999
 31
0.0
 70
   128
  1
<>
 13
698.19639531479993
 23
-345.29360275200003
 33
0.0
 14
747.19639531479993
 24
-334.29360275200003
 34
0.0
 50
90.0
  0
DIMENSION
  5
103
  8
Éíû@É³
  2
*D13
 10
653.42116745019996
 20
-334.29360275200003
 30
0.0
 11
653.42116745019996
 21
-350.29360275200003
 31
0.0
 70
   128
  1
<>
 13
672.19639531480004
 23
-334.29360275200003
 33
0.0
 14
672.19639531480004
 24
-366.29360275200003
 34
0.0
 50
90.0
  0
LINE
  5
104
  8
┌▓È_1
 62
     5
 10
946.3749777342
 20
-395.12444133410008
 30
0.0
 11
946.3749777342
 21
-398.32444133410002
 31
0.0
  0
ARC
  5
105
  8
┌▓È_1
 62
     5
 10
943.97497773419991
 20
-401.5244413341
 30
0.0
 40
2.399999999999999
 50
270.0
 51
0.0
  0
LINE
  5
106
  8
┌▓È_1
 62
     5
 10
964.29004741789993
 20
-400.75495478229999
 30
0.0
 11
963.9050941278
 21
-401.1801361590999
 31
0.0
  0
LINE
  5
107
  8
┌▓È_1
 62
     5
 10
957.03194743119991
 20
-398.83981776209998
 30
0.0
 11
963.4319474312
 21
-398.83981776209998
 31
0.0
  0
LINE
  5
108
  8
┌▓È_1
 62
     5
 10
950.37497773419989
 20
-401.5244413341
 30
0.0
 11
950.37497773419989
 21
-400.72444133409999
 31
0.0
  0
LINE
  5
109
  8
┌▓È_1
 62
     5
 10
974.97991966850009
 20
-397.84444133410011
 30
0.0
 11
974.97991966850009
 21
-400.72444133409999
 31
0.0
  0
LINE
  5
10A
  8
┌▓È_1
 10
966.78057500229988
 20
-358.38071808109999
 30
0.0
 11
966.78057500229988
 21
-392.38071808109999
 31
0.0
  0
LINE
  5
10B
  8
┌▓È_1
 10
902.7805750023
 20
-358.38071808109999
 30
0.0
 11
902.7805750023
 21
-375.38071808109999
 31
0.0
  0
LINE
  5
10C
  8
┌▓È_1
 10
998.78057500229988
 20
-358.38071808109999
 30
0.0
 11
998.78057500229988
 21
-409.38071808109987
 31
0.0
  0
LINE
  5
10D
  8
┌▓È_1
 10
870.7805750023
 20
-358.38071808109999
 30
0.0
 11
870.7805750023
 21
-409.38071808109987
 31
0.0
  0
INSERT
  5
10E
  8
0
  6
CONTINUOUS
  2
*U40
 10
0.0
 20
0.0
 30
0.0
  0
DIMENSION
  5
11B
  8
Éíû@É³
  2
*D41
 10
714.13254650737292
 20
-230.7520078853446
 30
0.0
 11
705.67852888840002
 21
-220.29310474959999
 31
0.0
 70
   133
  1
<>
 13
676.69639531480004
 23
-106.86577985380001
 33
0.0
 14
747.19639531479993
 24
-252.36577985380001
 34
0.0
 15
676.69639531480004
 25
-252.36577985380001
 35
0.0
1001
ACAD
1000
DSTYLE
1002
{
1070
   271
1070
     0
1002
}
  0
DIMENSION
  5
12A
  8
Éíû@É³
  2
*D15
 10
873.2010177105999
 20
-206.68462751000001
 30
0.0
 11
867.70101771060001
 21
-206.68462751000001
 31
0.0
 70
   128
  1
<>
 13
873.2010177105999
 23
-220.86577985380001
 33
0.0
 14
862.20101771060001
 24
-220.86577985380001
 34
0.0
  0
DIMENSION
  5
139
  8
Éíû@É³
  2
*D16
 10
862.20101771060001
 20
-192.6598553746
 30
0.0
 11
858.2010177105999
 21
-192.6598553746
 31
0.0
 70
   128
  1
<>
 13
862.20101771060001
 23
-222.61577985380001
 33
0.0
 14
852.20101771060001
 24
-178.86577985380001
 34
0.0
  0
DIMENSION
  5
148
  8
Éíû@É³
  2
*D17
 10
672.19639531480004
 20
-274.6829967269
 30
0.0
 11
709.69639531479993
 21
-274.6829967269
 31
0.0
 70
   128
  1
100
 13
672.19639531480004
 23
-252.36577985380001
 33
0.0
 14
747.19639531479993
 24
-256.86577985380001
 34
0.0
 50
180.0
  0
DIMENSION
  5
157
  8
Éíû@É³
  2
*D18
 10
654.37917844160006
 20
-106.86577985380001
 30
0.0
 11
654.37917844160006
 21
-181.86577985380001
 31
0.0
 70
   128
  1
200
 13
672.19639531480004
 23
-106.86577985380001
 33
0.0
 14
676.69639531480004
 24
-256.86577985380001
 34
0.0
 50
90.0
  0
DIMENSION
  5
166
  8
Éíû@É³
  2
*D19
 10
873.2010177105999
 20
-89.048562980599996
 30
0.0
 11
881.61595911679979
 21
-89.048562980599996
 31
0.0
 70
   128
  1
<>
 13
873.2010177105999
 23
-106.86577985380001
 33
0.0
 14
857.2010177105999
 24
-112.86577985380001
 34
0.0
  0
DIMENSION
  5
175
  8
Éíû@É³
  2
*D20
 10
857.2010177105999
 20
-89.048562980599996
 30
0.0
 11
830.05323125229995
 21
-89.048562980599996
 31
0.0
 70
   128
  1
<>
 13
857.2010177105999
 23
-112.86577985380001
 33
0.0
 14
841.2010177105999
 24
-106.86577985380001
 34
0.0
  0
DIMENSION
  5
184
  8
Éíû@É³
  2
*D21
 10
823.38380083740003
 20
-106.86577985380001
 30
0.0
 11
823.38380083740003
 21
-112.86577985380001
 31
0.0
 70
   128
  1
<>
 13
841.2010177105999
 23
-106.86577985380001
 33
0.0
 14
851.20101771060013
 24
-118.86577985380001
 34
0.0
 50
90.0
  0
DIMENSION
  5
193
  8
Éíû@É³
  2
*D22
 10
823.38380083740003
 20
-226.86577985380001
 30
0.0
 11
823.38380083740003
 21
-241.86577985380001
 31
0.0
 70
   128
  1
<>
 13
856.2010177105999
 23
-226.86577985380001
 33
0.0
 14
841.2010177105999
 24
-256.86577985380001
 34
0.0
 50
90.0
  0
DIMENSION
  5
1A2
  8
Éíû@É³
  2
*D23
 10
676.69639531480004
 20
-75.480232978800004
 30
0.0
 11
689.62750425570005
 21
-75.480232978800004
 31
0.0
 70
   128
  1
<>t
 13
676.69639531480004
 23
-106.86577985380001
 33
0.0
 14
672.19639531480004
 24
-106.86577985380001
 34
0.0
  0
DIMENSION
  5
1B1
  8
Éíû@É³
  2
*D24
 10
823.42833208740001
 20
-118.86577985380001
 30
0.0
 11
823.42833208740001
 21
-145.86577985379989
 31
0.0
 70
   128
  1
79
 13
851.20101771060013
 23
-118.86577985380001
 33
0.0
 14
846.20101771060001
 24
-172.86577985380001
 34
0.0
 50
90.0
  0
DIMENSION
  5
1C0
  8
Éíû@É³
  2
*D25
 10
823.42833208740001
 20
-172.86577985380001
 30
0.0
 11
823.42833208740001
 21
-199.86577985380001
 31
0.0
 70
   128
  1
79
 13
846.20101771060001
 23
-172.86577985380001
 33
0.0
 14
856.2010177105999
 24
-226.86577985380001
 34
0.0
 50
90.0
  0
DIMENSION
  5
1CF
  8
Éíû@É³
  2
*D26
 10
873.2010177105999
 20
-75.639220532700008
 30
0.0
 11
857.2010177105999
 21
-75.639220532700008
 31
0.0
 70
   128
  1
<>
 13
873.2010177105999
 23
-106.86577985380001
 33
0.0
 14
841.2010177105999
 24
-106.86577985380001
 34
0.0
  0
DIMENSION
  5
1DE
  8
Éíû@É³
  2
*D27
 10
852.20101771060001
 20
-153.2900343348
 30
0.0
 11
846.70101771060013
 21
-153.2900343348
 31
0.0
 70
   128
  1
<>
 13
852.20101771060001
 23
-166.86577985379989
 33
0.0
 14
841.2010177105999
 24
-164.12391787460001
 34
0.0
  0
LINE
  5
1DF
  8
┌▓È_1
 62
     5
 10
937.33321163580001
 20
-400.72444133409999
 30
0.0
 11
938.93321163580003
 21
-400.72444133409999
 31
0.0
  0
LINE
  5
1E0
  8
┌▓È_1
 62
     5
 10
974.97991966850009
 20
-402.00444133410002
 30
0.0
 11
980.19805300179985
 21
-402.00444133410002
 31
0.0
  0
LINE
  5
1E1
  8
┌▓È_1
 62
     5
 10
952.77497773419998
 20
-398.32444133410002
 30
0.0
 11
950.37497773419989
 21
-398.32444133410002
 31
0.0
  0
LINE
  5
1E2
  8
┌▓È_1
 62
     5
 10
950.37497773419989
 20
-398.32444133410002
 30
0.0
 11
950.37497773419989
 21
-397.5244413341
 31
0.0
  0
LINE
  5
1E3
  8
┌▓È_1
 62
     5
 10
974.97991966850009
 20
-397.84444133410011
 30
0.0
 11
978.97778633509995
 21
-397.84444133410011
 31
0.0
  0
LINE
  5
1E4
  8
┌▓È_1
 62
     5
 10
946.3749777342
 20
-400.72444133409999
 30
0.0
 11
946.3749777342
 21
-401.5244413341
 31
0.0
  0
LINE
  5
1E5
  8
┌▓È_1
 62
     5
 10
943.17497773419996
 20
-400.72444133409999
 30
0.0
 11
946.3749777342
 21
-400.72444133409999
 31
0.0
  0
LINE
  5
1E6
  8
┌▓È_1
 62
     5
 10
986.17991966850002
 20
-407.12444133410003
 30
0.0
 11
985.53532659220002
 21
-404.88444133410002
 31
0.0
  0
LINE
  5
1E7
  8
┌▓È_1
 62
     5
 10
984.70656406550006
 20
-402.00444133410002
 30
0.0
 11
989.37991966849995
 21
-402.00444133410002
 31
0.0
  0
ARC
  5
1E8
  8
┌▓È_1
 62
     5
 10
961.03194743119991
 20
-397.5244413341
 30
0.0
 40
8.8000000000000007
 50
322.48761197969998
 51
0.0
  0
LINE
  5
1E9
  8
┌▓È_1
 62
     5
 10
974.97991966850009
 20
-404.88444133410002
 30
0.0
 11
981.04285300179993
 21
-404.88444133410002
 31
0.0
  0
LINE
  5
1EA
  8
┌▓È_1
 62
     5
 10
983.50946263809999
 20
-397.84444133410011
 30
0.0
 11
983.27523183779999
 21
-397.03047510930003
 31
0.0
  0
LINE
  5
1EB
  8
┌▓È_1
 62
     5
 10
971.4319474312
 20
-395.12444133410008
 30
0.0
 11
957.03194743119991
 21
-395.12444133410008
 31
0.0
  0
LINE
  5
1EC
  8
┌▓È_1
 62
     5
 10
939.17497773419996
 20
-403.12444133410003
 30
0.0
 11
943.17497773419996
 21
-403.12444133410003
 31
0.0
  0
LINE
  5
1ED
  8
┌▓È_1
 62
     5
 10
950.37497773419989
 20
-397.5244413341
 30
0.0
 11
952.77497773419998
 21
-395.12444133410008
 31
0.0
  0
LINE
  5
1EE
  8
┌▓È_1
 10
870.7805750023
 20
-392.38071808109999
 30
0.0
 11
1110.7805750023001
 21
-392.38071808109999
 31
0.0
  0
LINE
  5
1EF
  8
┌▓È_1
 10
870.7805750023
 20
-358.38071808109999
 30
0.0
 11
1110.7805750023001
 21
-358.38071808109999
 31
0.0
  0
INSERT
  5
1F0
  8
0
  6
CONTINUOUS
  2
*U42
 10
0.0
 20
0.0
 30
0.0
  0
LINE
  5
1F1
  8
┌▓È_1
 62
     5
 10
1110.7805750023001
 20
-409.38071808109987
 30
0.0
 11
1110.7805750023001
 21
-29.38071808110001
 31
0.0
  0
LINE
  5
1F2
  8
┌▓È_1
 62
     5
 10
560.7805750023
 20
-409.38071808109987
 30
0.0
 11
1110.7805750023001
 21
-409.38071808109987
 31
0.0
  0
LINE
  5
1F3
  8
┌▓È_1
 62
     5
 10
560.7805750023
 20
-29.38071808110001
 30
0.0
 11
1110.7805750023001
 21
-29.38071808110001
 31
0.0
  0
LINE
  5
1F4
  8
┌▓È_1
 10
998.78057500229988
 20
-375.38071808109999
 30
0.0
 11
1110.7805750023001
 21
-375.38071808109999
 31
0.0
  0
LINE
  5
1F5
  8
┌▓È_1
 62
     5
 10
560.7805750023
 20
-409.38071808109987
 30
0.0
 11
560.7805750023
 21
-29.38071808110001
 31
0.0
  0
LINE
  5
1F6
  8
┌▓È_1
 62
     5
 10
969.83194743119986
 20
-397.5244413341
 30
0.0
 11
971.4319474312
 21
-395.12444133410008
 31
0.0
  0
LINE
  5
1F7
  8
┌▓È_1
 62
     5
 10
984.33822516479995
 20
-400.72444133409999
 30
0.0
 11
989.37991966849995
 21
-400.72444133409999
 31
0.0
  0
LINE
  5
1F8
  8
┌▓È_1
 62
     5
 10
943.17497773419996
 20
-403.12444133410003
 30
0.0
 11
943.17497773419996
 21
-400.72444133409999
 31
0.0
  0
LINE
  5
1F9
  8
┌▓È_1
 62
     5
 10
985.53532659220002
 20
-404.88444133410002
 30
0.0
 11
989.37991966849995
 21
-404.88444133410002
 31
0.0
  0
LINE
  5
1FA
  8
┌▓È_1
 62
     5
 10
952.77497773419998
 20
-395.12444133410008
 30
0.0
 11
946.3749777342
 21
-395.12444133410008
 31
0.0
  0
LINE
  5
1FB
  8
┌▓È_1
 62
     5
 10
957.03194743119991
 20
-395.12444133410008
 30
0.0
 11
957.03194743119991
 21
-398.00444133410002
 31
0.0
  0
ARC
  5
1FC
  8
┌▓È_1
 62
     5
 10
945.57497773419993
 20
-401.5244413341
 30
0.0
 40
4.7999999999999989
 50
270.0
 51
0.0
  0
LINE
  5
1FD
  8
┌▓È_1
 62
     5
 10
983.27523183779999
 20
-397.03047510930003
 30
0.0
 11
984.57991966850022
 21
-395.12444133410008
 31
0.0
  0
LINE
  5
1FE
  8
┌▓È_1
 62
     5
 10
946.3749777342
 20
-398.32444133410002
 30
0.0
 11
943.17497773419996
 21
-398.32444133410002
 31
0.0
  0
LINE
  5
1FF
  8
┌▓È_1
 62
     5
 10
945.57497773419993
 20
-395.12444133410008
 30
0.0
 11
939.17497773419996
 21
-395.12444133410008
 31
0.0
  0
LINE
  5
200
  8
┌▓È_1
 62
     5
 10
943.17497773419996
 20
-397.5244413341
 30
0.0
 11
945.57497773419993
 21
-395.12444133410008
 31
0.0
  0
LINE
  5
201
  8
┌▓È_1
 62
     5
 10
939.17497773419996
 20
-395.12444133410008
 30
0.0
 11
939.17497773419996
 21
-398.32444133410002
 31
0.0
  0
LINE
  5
202
  8
┌▓È_1
 62
     5
 10
978.97778633509995
 20
-397.84444133410011
 30
0.0
 11
978.17991966850002
 21
-395.12444133410008
 31
0.0
  0
LINE
  5
203
  8
┌▓È_1
 62
     5
 10
983.50946263809999
 20
-397.84444133410011
 30
0.0
 11
989.37991966849995
 21
-397.84444133410011
 31
0.0
  0
INSERT
  5
204
  8
0
  6
CONTINUOUS
  2
*U43
 10
0.0
 20
0.0
 30
0.0
  0
LINE
  5
205
  8
┌▓È_1
 62
     5
 10
939.17497773419996
 20
-400.72444133409999
 30
0.0
 11
939.17497773419996
 21
-403.12444133410003
 31
0.0
  0
LINE
  5
206
  8
┌▓È_1
 62
     5
 10
968.01229839460007
 20
-402.88305126839998
 30
0.0
 11
967.72733509889986
 21
-403.1620562990999
 31
0.0
  0
INSERT
  5
207
  8
0
  6
CONTINUOUS
  2
*U44
 10
0.0
 20
0.0
 30
0.0
  0
LINE
  5
208
  8
┌▓È_1
 62
     5
 10
957.03194743119991
 20
-403.92444133409998
 30
0.0
 11
957.03194743119991
 21
-406.32444133410002
 31
0.0
  0
LINE
  5
209
  8
┌▓È_1
 62
     5
 10
957.03194743119991
 20
-403.92444133409998
 30
0.0
 11
958.95194743119998
 21
-403.92444133409998
 31
0.0
  0
LINE
  5
20A
  8
┌▓È_1
 62
     5
 10
978.17991966850002
 20
-395.12444133410008
 30
0.0
 11
984.57991966850022
 21
-395.12444133410008
 31
0.0
  0
LINE
  5
20B
  8
┌▓È_1
 62
     5
 10
969.83194743119986
 20
-397.5244413341
 30
0.0
 11
971.4319474312
 21
-395.12444133410008
 31
0.0
  0
LINE
  5
20C
  8
┌▓È_1
 62
     5
 10
939.17497773419996
 20
-406.32444133410002
 30
0.0
 11
945.57497773419993
 21
-406.32444133410002
 31
0.0
  0
LINE
  5
20D
  8
┌▓È_1
 62
     5
 10
957.03194743119991
 20
-406.32444133410002
 30
0.0
 11
961.03194743119991
 21
-406.32444133410002
 31
0.0
  0
ARC
  5
20E
  8
┌▓È_1
 62
     5
 10
958.95194743119998
 20
-397.84444133410011
 30
0.0
 40
6.0800000000000001
 50
331.39928138329998
 51
358.49204224580001
  0
LINE
  5
20F
  8
┌▓È_1
 62
     5
 10
950.37497773419989
 20
-400.72444133409999
 30
0.0
 11
952.77497773419998
 21
-400.72444133409999
 31
0.0
  0
ARC
  5
210
  8
┌▓È_1
 62
     5
 10
961.03194743119991
 20
-397.5244413341
 30
0.0
 40
8.8000000000000007
 50
270.0
 51
302.54495885400001
  0
LINE
  5
211
  8
┌▓È_1
 10
938.7805750023
 20
-383.88071808109999
 30
0.0
 11
962.7805750023
 21
-383.88071808109999
 31
0.0
  0
LINE
  5
212
  8
┌▓È_1
 10
938.7805750023
 20
-366.88071808109999
 30
0.0
 11
962.7805750023
 21
-366.88071808109999
 31
0.0
  0
LINE
  5
213
  8
┌▓È_1
 10
874.78057500229988
 20
-383.88071808109999
 30
0.0
 11
930.7805750023
 21
-383.88071808109999
 31
0.0
  0
LINE
  5
214
  8
┌▓È_1
 10
906.7805750023
 20
-366.88071808109999
 30
0.0
 11
930.7805750023
 21
-366.88071808109999
 31
0.0
  0
LINE
  5
215
  8
┌▓È_1
 10
874.78057500229988
 20
-366.88071808109999
 30
0.0
 11
898.78057500229988
 21
-366.88071808109999
 31
0.0
  0
LINE
  5
216
  8
┌▓È_1
 10
934.78057500229988
 20
-358.38071808109999
 30
0.0
 11
934.78057500229988
 21
-392.38071808109999
 31
0.0
  0
LINE
  5
217
  8
┌▓È_1
 62
     5
 10
963.4319474312
 20
-398.83981776209998
 30
0.0
 11
962.5268507513
 21
-399.74491444199998
 31
0.0
  0
LINE
  5
218
  8
┌▓È_1
 62
     5
 10
957.03194743119991
 20
-399.35519419000002
 30
0.0
 11
957.03194743119991
 21
-398.83981776209998
 31
0.0
  0
LINE
  5
219
  8
┌▓È_1
 62
     5
 10
937.33321163580001
 20
-398.32444133410002
 30
0.0
 11
937.33321163580001
 21
-400.72444133409999
 31
0.0
  0
LINE
  5
21A
  8
┌▓È_1
 62
     5
 10
952.77497773419998
 20
-398.32444133410002
 30
0.0
 11
952.77497773419998
 21
-400.72444133409999
 31
0.0
  0
LINE
  5
21B
  8
┌▓È_1
 62
     5
 10
981.69991966850012
 20
-407.12444133410003
 30
0.0
 11
986.17991966850002
 21
-407.12444133410003
 31
0.0
  0
LINE
  5
21C
  8
┌▓È_1
 62
     5
 10
943.17497773419996
 20
-398.32444133410002
 30
0.0
 11
943.17497773419996
 21
-397.5244413341
 31
0.0
  0
LINE
  5
21D
  8
┌▓È_1
 62
     5
 10
957.03194743119991
 20
-406.32444133410002
 30
0.0
 11
957.03194743119991
 21
-403.92444133409998
 31
0.0
  0
LINE
  5
21E
  8
┌▓È_1
 62
     5
 10
939.17497773419996
 20
-398.32444133410002
 30
0.0
 11
937.33321163580001
 21
-398.32444133410002
 31
0.0
  0
LINE
  5
21F
  8
┌▓È_1
 62
     5
 10
989.37991966849995
 20
-402.00444133410002
 30
0.0
 11
989.37991966849995
 21
-404.88444133410002
 31
0.0
  0
LINE
  5
220
  8
┌▓È_1
 62
     5
 10
980.19805300179985
 20
-402.00444133410002
 30
0.0
 11
979.82258633509991
 21
-400.72444133409999
 31
0.0
  0
LINE
  5
221
  8
┌▓È_1
 62
     5
 10
939.17497773419996
 20
-400.72444133409999
 30
0.0
 11
938.93321163580003
 21
-400.72444133409999
 31
0.0
  0
LINE
  5
222
  8
┌▓È_1
 62
     5
 10
939.17497773419996
 20
-403.92444133409998
 30
0.0
 11
939.17497773419996
 21
-406.32444133410002
 31
0.0
  0
LINE
  5
223
  8
┌▓È_1
 62
     5
 10
984.70656406550006
 20
-402.00444133410002
 30
0.0
 11
984.33822516479995
 21
-400.72444133409999
 31
0.0
  0
LINE
  5
224
  8
┌▓È_1
 62
     5
 10
981.69991966850012
 20
-407.12444133410003
 30
0.0
 11
981.04285300179993
 21
-404.88444133410002
 31
0.0
  0
LINE
  5
225
  8
┌▓È_1
 62
     5
 10
943.97497773419991
 20
-403.92444133409998
 30
0.0
 11
939.17497773419996
 21
-403.92444133409998
 31
0.0
  0
LINE
  5
226
  8
┌▓È_1
 62
     5
 10
957.03194743119991
 20
-398.00444133410002
 30
0.0
 11
965.03194743119991
 21
-398.00444133410002
 31
0.0
  0
LINE
  5
227
  8
┌▓È_1
 62
     5
 10
989.37991966849995
 20
-397.84444133410011
 30
0.0
 11
989.37991966849995
 21
-400.72444133409999
 31
0.0
  0
LINE
  5
228
  8
┌▓È_1
 62
     5
 10
974.97991966850009
 20
-400.72444133409999
 30
0.0
 11
979.82258633509991
 21
-400.72444133409999
 31
0.0
  0
LINE
  5
229
  8
┌▓È_1
 62
     5
 10
974.97991966850009
 20
-402.00444133410002
 30
0.0
 11
974.97991966850009
 21
-404.88444133410002
 31
0.0
  0
LINE
  5
22A
  8
┌▓È_1
  6
STITCH
 10
673.94639531480004
 20
-116.36577985380001
 30
0.0
 11
674.94639531480004
 21
-116.36577985380001
 31
0.0
  0
LINE
  5
22B
  8
┌▓È_1
  6
STITCH
 10
674.94639531480004
 20
-121.36577985380001
 30
0.0
 11
673.94639531480004
 21
-121.36577985380001
 31
0.0
  0
LINE
  5
22C
  8
┌▓È_1
 62
     5
 10
676.69639531480004
 20
-252.36577985380001
 30
0.0
 11
676.69639531480004
 21
-106.86577985380001
 31
0.0
  0
POLYLINE
  8
┌▓È_1
  5
33B
  62
5
  66
     1
 10
0.000000
 20
0.000000
 30
0.000000
  70
     8
  0
VERTEX
  8
┌▓È_1
  5
33C
 10
967.727
 20
-403.162
 30
0.000000
  70
    32
  0
VERTEX
  8
┌▓È_1
  5
33D
 10
967.755
 20
-403.170
 30
0.000000
  70
    32
  0
VERTEX
  8
┌▓È_1
  5
33E
 10
967.783
 20
-403.178
 30
0.000000
  70
    32
  0
VERTEX
  8
┌▓È_1
  5
33F
 10
967.811
 20
-403.186
 30
0.000000
  70
    32
  0
VERTEX
  8
┌▓È_1
  5
340
 10
967.839
 20
-403.193
 30
0.000000
  70
    32
  0
VERTEX
  8
┌▓È_1
  5
341
 10
967.867
 20
-403.201
 30
0.000000
  70
    32
  0
VERTEX
  8
┌▓È_1
  5
342
 10
967.896
 20
-403.209
 30
0.000000
  70
    32
  0
VERTEX
  8
┌▓È_1
  5
343
 10
967.924
 20
-403.217
 30
0.000000
  70
    32
  0
VERTEX
  8
┌▓È_1
  5
344
 10
967.952
 20
-403.224
 30
0.000000
  70
    32
  0
VERTEX
  8
┌▓È_1
  5
345
 10
967.980
 20
-403.232
 30
0.000000
  70
    32
  0
VERTEX
  8
┌▓È_1
  5
346
 10
968.008
 20
-403.239
 30
0.000000
  70
    32
  0
VERTEX
  8
┌▓È_1
  5
347
 10
968.037
 20
-403.247
 30
0.000000
  70
    32
  0
VERTEX
  8
┌▓È_1
  5
348
 10
968.065
 20
-403.254
 30
0.000000
  70
    32
  0
VERTEX
  8
┌▓È_1
  5
349
 10
968.093
 20
-403.262
 30
0.000000
  70
    32
  0
VERTEX
  8
┌▓È_1
  5
34A
 10
968.121
 20
-403.269
 30
0.000000
  70
    32
  0
VERTEX
  8
┌▓È_1
  5
34B
 10
968.150
 20
-403.276
 30
0.000000
  70
    32
  0
VERTEX
  8
┌▓È_1
  5
34C
 10
968.178
 20
-403.284
 30
0.000000
  70
    32
  0
VERTEX
  8
┌▓È_1
  5
34D
 10
968.207
 20
-403.291
 30
0.000000
  70
    32
  0
VERTEX
  8
┌▓È_1
  5
34E
 10
968.235
 20
-403.298
 30
0.000000
  70
    32
  0
VERTEX
  8
┌▓È_1
  5
34F
 10
968.263
 20
-403.305
 30
0.000000
  70
    32
  0
VERTEX
  8
┌▓È_1
  5
350
 10
968.292
 20
-403.312
 30
0.000000
  70
    32
  0
VERTEX
  8
┌▓È_1
  5
351
 10
968.320
 20
-403.319
 30
0.000000
  70
    32
  0
VERTEX
  8
┌▓È_1
  5
352
 10
968.349
 20
-403.326
 30
0.000000
  70
    32
  0
VERTEX
  8
┌▓È_1
  5
353
 10
968.378
 20
-403.334
 30
0.000000
  70
    32
  0
VERTEX
  8
┌▓È_1
  5
354
 10
968.406
 20
-403.340
 30
0.000000
  70
    32
  0
VERTEX
  8
┌▓È_1
  5
355
 10
968.435
 20
-403.347
 30
0.000000
  70
    32
  0
VERTEX
  8
┌▓È_1
  5
356
 10
968.463
 20
-403.354
 30
0.000000
  70
    32
  0
VERTEX
  8
┌▓È_1
  5
357
 10
968.492
 20
-403.361
 30
0.000000
  70
    32
  0
VERTEX
  8
┌▓È_1
  5
358
 10
968.521
 20
-403.368
 30
0.000000
  70
    32
  0
VERTEX
  8
┌▓È_1
  5
359
 10
968.549
 20
-403.375
 30
0.000000
  70
    32
  0
VERTEX
  8
┌▓È_1
  5
35A
 10
968.578
 20
-403.382
 30
0.000000
  70
    32
  0
VERTEX
  8
┌▓È_1
  5
35B
 10
968.607
 20
-403.388
 30
0.000000
  70
    32
  0
VERTEX
  8
┌▓È_1
  5
35C
 10
968.635
 20
-403.395
 30
0.000000
  70
    32
  0
VERTEX
  8
┌▓È_1
  5
35D
 10
968.664
 20
-403.402
 30
0.000000
  70
    32
  0
VERTEX
  8
┌▓È_1
  5
35E
 10
968.693
 20
-403.408
 30
0.000000
  70
    32
  0
VERTEX
  8
┌▓È_1
  5
35F
 10
968.722
 20
-403.415
 30
0.000000
  70
    32
  0
VERTEX
  8
┌▓È_1
  5
360
 10
968.751
 20
-403.421
 30
0.000000
  70
    32
  0
VERTEX
  8
┌▓È_1
  5
361
 10
968.780
 20
-403.428
 30
0.000000
  70
    32
  0
VERTEX
  8
┌▓È_1
  5
362
 10
968.808
 20
-403.434
 30
0.000000
  70
    32
  0
VERTEX
  8
┌▓È_1
  5
363
 10
968.837
 20
-403.441
 30
0.000000
  70
    32
  0
VERTEX
  8
┌▓È_1
  5
364
 10
968.866
 20
-403.447
 30
0.000000
  70
    32
  0
VERTEX
  8
┌▓È_1
  5
365
 10
968.895
 20
-403.454
 30
0.000000
  70
    32
  0
VERTEX
  8
┌▓È_1
  5
366
 10
968.924
 20
-403.460
 30
0.000000
  70
    32
  0
VERTEX
  8
┌▓È_1
  5
367
 10
968.953
 20
-403.466
 30
0.000000
  70
    32
  0
VERTEX
  8
┌▓È_1
  5
368
 10
968.982
 20
-403.473
 30
0.000000
  70
    32
  0
VERTEX
  8
┌▓È_1
  5
369
 10
969.011
 20
-403.479
 30
0.000000
  70
    32
  0
VERTEX
  8
┌▓È_1
  5
36A
 10
969.040
 20
-403.485
 30
0.000000
  70
    32
  0
VERTEX
  8
┌▓È_1
  5
36B
 10
969.069
 20
-403.491
 30
0.000000
  70
    32
  0
VERTEX
  8
┌▓È_1
  5
36C
 10
969.098
 20
-403.497
 30
0.000000
  70
    32
  0
VERTEX
  8
┌▓È_1
  5
36D
 10
969.127
 20
-403.504
 30
0.000000
  70
    32
  0
VERTEX
  8
┌▓È_1
  5
36E
 10
969.156
 20
-403.510
 30
0.000000
  70
    32
  0
VERTEX
  8
┌▓È_1
  5
36F
 10
969.185
 20
-403.516
 30
0.000000
  70
    32
  0
VERTEX
  8
┌▓È_1
  5
370
 10
969.215
 20
-403.522
 30
0.000000
  70
    32
  0
VERTEX
  8
┌▓È_1
  5
371
 10
969.244
 20
-403.528
 30
0.000000
  70
    32
  0
VERTEX
  8
┌▓È_1
  5
372
 10
969.273
 20
-403.534
 30
0.000000
  70
    32
  0
VERTEX
  8
┌▓È_1
  5
373
 10
969.302
 20
-403.540
 30
0.000000
  70
    32
  0
VERTEX
  8
┌▓È_1
  5
374
 10
969.331
 20
-403.546
 30
0.000000
  70
    32
  0
VERTEX
  8
┌▓È_1
  5
375
 10
969.361
 20
-403.552
 30
0.000000
  70
    32
  0
VERTEX
  8
┌▓È_1
  5
376
 10
969.390
 20
-403.558
 30
0.000000
  70
    32
  0
VERTEX
  8
┌▓È_1
  5
377
 10
969.419
 20
-403.563
 30
0.000000
  70
    32
  0
VERTEX
  8
┌▓È_1
  5
378
 10
969.448
 20
-403.569
 30
0.000000
  70
    32
  0
VERTEX
  8
┌▓È_1
  5
379
 10
969.478
 20
-403.575
 30
0.000000
  70
    32
  0
VERTEX
  8
┌▓È_1
  5
37A
 10
969.507
 20
-403.581
 30
0.000000
  70
    32
  0
VERTEX
  8
┌▓È_1
  5
37B
 10
969.536
 20
-403.587
 30
0.000000
  70
    32
  0
VERTEX
  8
┌▓È_1
  5
37C
 10
969.565
 20
-403.593
 30
0.000000
  70
    32
  0
VERTEX
  8
┌▓È_1
  5
37D
 10
969.595
 20
-403.598
 30
0.000000
  70
    32
  0
VERTEX
  8
┌▓È_1
  5
37E
 10
969.624
 20
-403.604
 30
0.000000
  70
    32
  0
VERTEX
  8
┌▓È_1
  5
37F
 10
969.654
 20
-403.610
 30
0.000000
  70
    32
  0
VERTEX
  8
┌▓È_1
  5
380
 10
969.683
 20
-403.615
 30
0.000000
  70
    32
  0
VERTEX
  8
┌▓È_1
  5
381
 10
969.712
 20
-403.621
 30
0.000000
  70
    32
  0
VERTEX
  8
┌▓È_1
  5
382
 10
969.742
 20
-403.627
 30
0.000000
  70
    32
  0
VERTEX
  8
┌▓È_1
  5
383
 10
969.771
 20
-403.632
 30
0.000000
  70
    32
  0
VERTEX
  8
┌▓È_1
  5
384
 10
969.801
 20
-403.638
 30
0.000000
  70
    32
  0
VERTEX
  8
┌▓È_1
  5
385
 10
969.830
 20
-403.643
 30
0.000000
  70
    32
  0
VERTEX
  8
┌▓È_1
  5
386
 10
969.859
 20
-403.649
 30
0.000000
  70
    32
  0
VERTEX
  8
┌▓È_1
  5
387
 10
969.889
 20
-403.654
 30
0.000000
  70
    32
  0
VERTEX
  8
┌▓È_1
  5
388
 10
969.918
 20
-403.660
 30
0.000000
  70
    32
  0
VERTEX
  8
┌▓È_1
  5
389
 10
969.948
 20
-403.665
 30
0.000000
  70
    32
  0
VERTEX
  8
┌▓È_1
  5
38A
 10
969.977
 20
-403.671
 30
0.000000
  70
    32
  0
VERTEX
  8
┌▓È_1
  5
38B
 10
970.007
 20
-403.676
 30
0.000000
  70
    32
  0
VERTEX
  8
┌▓È_1
  5
38C
 10
970.036
 20
-403.682
 30
0.000000
  70
    32
  0
VERTEX
  8
┌▓È_1
  5
38D
 10
970.066
 20
-403.687
 30
0.000000
  70
    32
  0
VERTEX
  8
┌▓È_1
  5
38E
 10
970.095
 20
-403.693
 30
0.000000
  70
    32
  0
VERTEX
  8
┌▓È_1
  5
38F
 10
970.125
 20
-403.698
 30
0.000000
  70
    32
  0
VERTEX
  8
┌▓È_1
  5
390
 10
970.155
 20
-403.703
 30
0.000000
  70
    32
  0
VERTEX
  8
┌▓È_1
  5
391
 10
970.184
 20
-403.709
 30
0.000000
  70
    32
  0
VERTEX
  8
┌▓È_1
  5
392
 10
970.214
 20
-403.714
 30
0.000000
  70
    32
  0
VERTEX
  8
┌▓È_1
  5
393
 10
970.243
 20
-403.719
 30
0.000000
  70
    32
  0
VERTEX
  8
┌▓È_1
  5
394
 10
970.273
 20
-403.725
 30
0.000000
  70
    32
  0
VERTEX
  8
┌▓È_1
  5
395
 10
970.303
 20
-403.730
 30
0.000000
  70
    32
  0
VERTEX
  8
┌▓È_1
  5
396
 10
970.332
 20
-403.735
 30
0.000000
  70
    32
  0
VERTEX
  8
┌▓È_1
  5
397
 10
970.362
 20
-403.741
 30
0.000000
  70
    32
  0
VERTEX
  8
┌▓È_1
  5
398
 10
970.391
 20
-403.746
 30
0.000000
  70
    32
  0
VERTEX
  8
┌▓È_1
  5
399
 10
970.421
 20
-403.751
 30
0.000000
  70
    32
  0
VERTEX
  8
┌▓È_1
  5
39A
 10
970.451
 20
-403.756
 30
0.000000
  70
    32
  0
VERTEX
  8
┌▓È_1
  5
39B
 10
970.480
 20
-403.762
 30
0.000000
  70
    32
  0
VERTEX
  8
┌▓È_1
  5
39C
 10
970.510
 20
-403.767
 30
0.000000
  70
    32
  0
VERTEX
  8
┌▓È_1
  5
39D
 10
970.540
 20
-403.772
 30
0.000000
  70
    32
  0
VERTEX
  8
┌▓È_1
  5
39E
 10
970.569
 20
-403.777
 30
0.000000
  70
    32
  0
VERTEX
  8
┌▓È_1
  5
39F
 10
970.599
 20
-403.782
 30
0.000000
  70
    32
  0
VERTEX
  8
┌▓È_1
  5
3A0
 10
970.629
 20
-403.787
 30
0.000000
  70
    32
  0
VERTEX
  8
┌▓È_1
  5
3A1
 10
970.658
 20
-403.793
 30
0.000000
  70
    32
  0
VERTEX
  8
┌▓È_1
  5
3A2
 10
970.688
 20
-403.798
 30
0.000000
  70
    32
  0
VERTEX
  8
┌▓È_1
  5
3A3
 10
970.718
 20
-403.803
 30
0.000000
  70
    32
  0
VERTEX
  8
┌▓È_1
  5
3A4
 10
970.748
 20
-403.808
 30
0.000000
  70
    32
  0
VERTEX
  8
┌▓È_1
  5
3A5
 10
970.777
 20
-403.813
 30
0.000000
  70
    32
  0
VERTEX
  8
┌▓È_1
  5
3A6
 10
970.807
 20
-403.818
 30
0.000000
  70
    32
  0
VERTEX
  8
┌▓È_1
  5
3A7
 10
970.837
 20
-403.823
 30
0.000000
  70
    32
  0
VERTEX
  8
┌▓È_1
  5
3A8
 10
970.866
 20
-403.828
 30
0.000000
  70
    32
  0
VERTEX
  8
┌▓È_1
  5
3A9
 10
970.896
 20
-403.834
 30
0.000000
  70
    32
  0
VERTEX
  8
┌▓È_1
  5
3AA
 10
970.926
 20
-403.839
 30
0.000000
  70
    32
  0
VERTEX
  8
┌▓È_1
  5
3AB
 10
970.956
 20
-403.844
 30
0.000000
  70
    32
  0
VERTEX
  8
┌▓È_1
  5
3AC
 10
970.985
 20
-403.849
 30
0.000000
  70
    32
  0
VERTEX
  8
┌▓È_1
  5
3AD
 10
971.015
 20
-403.854
 30
0.000000
  70
    32
  0
VERTEX
  8
┌▓È_1
  5
3AE
 10
971.045
 20
-403.859
 30
0.000000
  70
    32
  0
VERTEX
  8
┌▓È_1
  5
3AF
 10
971.075
 20
-403.864
 30
0.000000
  70
    32
  0
VERTEX
  8
┌▓È_1
  5
3B0
 10
971.104
 20
-403.869
 30
0.000000
  70
    32
  0
VERTEX
  8
┌▓È_1
  5
3B1
 10
971.134
 20
-403.874
 30
0.000000
  70
    32
  0
VERTEX
  8
┌▓È_1
  5
3B2
 10
971.164
 20
-403.879
 30
0.000000
  70
    32
  0
VERTEX
  8
┌▓È_1
  5
3B3
 10
971.194
 20
-403.884
 30
0.000000
  70
    32
  0
VERTEX
  8
┌▓È_1
  5
3B4
 10
971.224
 20
-403.889
 30
0.000000
  70
    32
  0
VERTEX
  8
┌▓È_1
  5
3B5
 10
971.253
 20
-403.894
 30
0.000000
  70
    32
  0
VERTEX
  8
┌▓È_1
  5
3B6
 10
971.283
 20
-403.899
 30
0.000000
  70
    32
  0
VERTEX
  8
┌▓È_1
  5
3B7
 10
971.313
 20
-403.904
 30
0.000000
  70
    32
  0
VERTEX
  8
┌▓È_1
  5
3B8
 10
971.343
 20
-403.909
 30
0.000000
  70
    32
  0
VERTEX
  8
┌▓È_1
  5
3B9
 10
971.372
 20
-403.914
 30
0.000000
  70
    32
  0
VERTEX
  8
┌▓È_1
  5
3BA
 10
971.402
 20
-403.919
 30
0.000000
  70
    32
  0
VERTEX
  8
┌▓È_1
  5
3BB
 10
971.432
 20
-403.924
 30
0.000000
  70
    32
  0
SEQEND
  8
┌▓È_1
  5
3BC
  0
POLYLINE
  8
┌▓È_1
  5
3BD
  62
5
  66
     1
 10
0.000000
 20
0.000000
 30
0.000000
  70
     8
  0
VERTEX
  8
┌▓È_1
  5
3BE
 10
957.032
 20
-399.355
 30
0.000000
  70
    32
  0
VERTEX
  8
┌▓È_1
  5
3BF
 10
957.061
 20
-399.382
 30
0.000000
  70
    32
  0
VERTEX
  8
┌▓È_1
  5
3C0
 10
957.090
 20
-399.408
 30
0.000000
  70
    32
  0
VERTEX
  8
┌▓È_1
  5
3C1
 10
957.118
 20
-399.435
 30
0.000000
  70
    32
  0
VERTEX
  8
┌▓È_1
  5
3C2
 10
957.147
 20
-399.461
 30
0.000000
  70
    32
  0
VERTEX
  8
┌▓È_1
  5
3C3
 10
957.176
 20
-399.488
 30
0.000000
  70
    32
  0
VERTEX
  8
┌▓È_1
  5
3C4
 10
957.205
 20
-399.515
 30
0.000000
  70
    32
  0
VERTEX
  8
┌▓È_1
  5
3C5
 10
957.234
 20
-399.541
 30
0.000000
  70
    32
  0
VERTEX
  8
┌▓È_1
  5
3C6
 10
957.263
 20
-399.568
 30
0.000000
  70
    32
  0
VERTEX
  8
┌▓È_1
  5
3C7
 10
957.291
 20
-399.594
 30
0.000000
  70
    32
  0
VERTEX
  8
┌▓È_1
  5
3C8
 10
957.320
 20
-399.621
 30
0.000000
  70
    32
  0
VERTEX
  8
┌▓È_1
  5
3C9
 10
957.349
 20
-399.647
 30
0.000000
  70
    32
  0
VERTEX
  8
┌▓È_1
  5
3CA
 10
957.378
 20
-399.674
 30
0.000000
  70
    32
  0
VERTEX
  8
┌▓È_1
  5
3CB
 10
957.407
 20
-399.700
 30
0.000000
  70
    32
  0
VERTEX
  8
┌▓È_1
  5
3CC
 10
957.436
 20
-399.727
 30
0.000000
  70
    32
  0
VERTEX
  8
┌▓È_1
  5
3CD
 10
957.464
 20
-399.753
 30
0.000000
  70
    32
  0
VERTEX
  8
┌▓È_1
  5
3CE
 10
957.493
 20
-399.780
 30
0.000000
  70
    32
  0
VERTEX
  8
┌▓È_1
  5
3CF
 10
957.522
 20
-399.806
 30
0.000000
  70
    32
  0
VERTEX
  8
┌▓È_1
  5
3D0
 10
957.551
 20
-399.833
 30
0.000000
  70
    32
  0
VERTEX
  8
┌▓È_1
  5
3D1
 10
957.580
 20
-399.859
 30
0.000000
  70
    32
  0
VERTEX
  8
┌▓È_1
  5
3D2
 10
957.609
 20
-399.886
 30
0.000000
  70
    32
  0
VERTEX
  8
┌▓È_1
  5
3D3
 10
957.638
 20
-399.912
 30
0.000000
  70
    32
  0
VERTEX
  8
┌▓È_1
  5
3D4
 10
957.666
 20
-399.939
 30
0.000000
  70
    32
  0
VERTEX
  8
┌▓È_1
  5
3D5
 10
957.695
 20
-399.965
 30
0.000000
  70
    32
  0
VERTEX
  8
┌▓È_1
  5
3D6
 10
957.724
 20
-399.991
 30
0.000000
  70
    32
  0
VERTEX
  8
┌▓È_1
  5
3D7
 10
957.753
 20
-400.018
 30
0.000000
  70
    32
  0
VERTEX
  8
┌▓È_1
  5
3D8
 10
957.782
 20
-400.044
 30
0.000000
  70
    32
  0
VERTEX
  8
┌▓È_1
  5
3D9
 10
957.811
 20
-400.071
 30
0.000000
  70
    32
  0
VERTEX
  8
┌▓È_1
  5
3DA
 10
957.840
 20
-400.097
 30
0.000000
  70
    32
  0
VERTEX
  8
┌▓È_1
  5
3DB
 10
957.869
 20
-400.123
 30
0.000000
  70
    32
  0
VERTEX
  8
┌▓È_1
  5
3DC
 10
957.898
 20
-400.150
 30
0.000000
  70
    32
  0
VERTEX
  8
┌▓È_1
  5
3DD
 10
957.927
 20
-400.176
 30
0.000000
  70
    32
  0
VERTEX
  8
┌▓È_1
  5
3DE
 10
957.956
 20
-400.202
 30
0.000000
  70
    32
  0
VERTEX
  8
┌▓È_1
  5
3DF
 10
957.985
 20
-400.229
 30
0.000000
  70
    32
  0
VERTEX
  8
┌▓È_1
  5
3E0
 10
958.014
 20
-400.255
 30
0.000000
  70
    32
  0
VERTEX
  8
┌▓È_1
  5
3E1
 10
958.043
 20
-400.281
 30
0.000000
  70
    32
  0
VERTEX
  8
┌▓È_1
  5
3E2
 10
958.072
 20
-400.307
 30
0.000000
  70
    32
  0
VERTEX
  8
┌▓È_1
  5
3E3
 10
958.101
 20
-400.333
 30
0.000000
  70
    32
  0
VERTEX
  8
┌▓È_1
  5
3E4
 10
958.130
 20
-400.360
 30
0.000000
  70
    32
  0
VERTEX
  8
┌▓È_1
  5
3E5
 10
958.159
 20
-400.386
 30
0.000000
  70
    32
  0
VERTEX
  8
┌▓È_1
  5
3E6
 10
958.188
 20
-400.412
 30
0.000000
  70
    32
  0
VERTEX
  8
┌▓È_1
  5
3E7
 10
958.217
 20
-400.438
 30
0.000000
  70
    32
  0
VERTEX
  8
┌▓È_1
  5
3E8
 10
958.246
 20
-400.464
 30
0.000000
  70
    32
  0
VERTEX
  8
┌▓È_1
  5
3E9
 10
958.275
 20
-400.490
 30
0.000000
  70
    32
  0
VERTEX
  8
┌▓È_1
  5
3EA
 10
958.304
 20
-400.516
 30
0.000000
  70
    32
  0
VERTEX
  8
┌▓È_1
  5
3EB
 10
958.333
 20
-400.542
 30
0.000000
  70
    32
  0
VERTEX
  8
┌▓È_1
  5
3EC
 10
958.362
 20
-400.568
 30
0.000000
  70
    32
  0
VERTEX
  8
┌▓È_1
  5
3ED
 10
958.392
 20
-400.594
 30
0.000000
  70
    32
  0
VERTEX
  8
┌▓È_1
  5
3EE
 10
958.421
 20
-400.620
 30
0.000000
  70
    32
  0
VERTEX
  8
┌▓È_1
  5
3EF
 10
958.450
 20
-400.646
 30
0.000000
  70
    32
  0
VERTEX
  8
┌▓È_1
  5
3F0
 10
958.479
 20
-400.672
 30
0.000000
  70
    32
  0
VERTEX
  8
┌▓È_1
  5
3F1
 10
958.508
 20
-400.698
 30
0.000000
  70
    32
  0
VERTEX
  8
┌▓È_1
  5
3F2
 10
958.538
 20
-400.724
 30
0.000000
  70
    32
  0
VERTEX
  8
┌▓È_1
  5
3F3
 10
958.567
 20
-400.749
 30
0.000000
  70
    32
  0
VERTEX
  8
┌▓È_1
  5
3F4
 10
958.596
 20
-400.775
 30
0.000000
  70
    32
  0
VERTEX
  8
┌▓È_1
  5
3F5
 10
958.625
 20
-400.801
 30
0.000000
  70
    32
  0
VERTEX
  8
┌▓È_1
  5
3F6
 10
958.655
 20
-400.827
 30
0.000000
  70
    32
  0
VERTEX
  8
┌▓È_1
  5
3F7
 10
958.684
 20
-400.852
 30
0.000000
  70
    32
  0
VERTEX
  8
┌▓È_1
  5
3F8
 10
958.713
 20
-400.878
 30
0.000000
  70
    32
  0
VERTEX
  8
┌▓È_1
  5
3F9
 10
958.742
 20
-400.904
 30
0.000000
  70
    32
  0
VERTEX
  8
┌▓È_1
  5
3FA
 10
958.772
 20
-400.929
 30
0.000000
  70
    32
  0
VERTEX
  8
┌▓È_1
  5
3FB
 10
958.801
 20
-400.955
 30
0.000000
  70
    32
  0
VERTEX
  8
┌▓È_1
  5
3FC
 10
958.831
 20
-400.980
 30
0.000000
  70
    32
  0
VERTEX
  8
┌▓È_1
  5
3FD
 10
958.860
 20
-401.006
 30
0.000000
  70
    32
  0
VERTEX
  8
┌▓È_1
  5
3FE
 10
958.889
 20
-401.031
 30
0.000000
  70
    32
  0
VERTEX
  8
┌▓È_1
  5
3FF
 10
958.919
 20
-401.057
 30
0.000000
  70
    32
  0
VERTEX
  8
┌▓È_1
  5
400
 10
958.948
 20
-401.082
 30
0.000000
  70
    32
  0
VERTEX
  8
┌▓È_1
  5
401
 10
958.978
 20
-401.107
 30
0.000000
  70
    32
  0
VERTEX
  8
┌▓È_1
  5
402
 10
959.007
 20
-401.133
 30
0.000000
  70
    32
  0
VERTEX
  8
┌▓È_1
  5
403
 10
959.037
 20
-401.158
 30
0.000000
  70
    32
  0
VERTEX
  8
┌▓È_1
  5
404
 10
959.066
 20
-401.183
 30
0.000000
  70
    32
  0
VERTEX
  8
┌▓È_1
  5
405
 10
959.096
 20
-401.208
 30
0.000000
  70
    32
  0
VERTEX
  8
┌▓È_1
  5
406
 10
959.125
 20
-401.233
 30
0.000000
  70
    32
  0
VERTEX
  8
┌▓È_1
  5
407
 10
959.155
 20
-401.259
 30
0.000000
  70
    32
  0
VERTEX
  8
┌▓È_1
  5
408
 10
959.185
 20
-401.284
 30
0.000000
  70
    32
  0
VERTEX
  8
┌▓È_1
  5
409
 10
959.214
 20
-401.309
 30
0.000000
  70
    32
  0
VERTEX
  8
┌▓È_1
  5
40A
 10
959.244
 20
-401.334
 30
0.000000
  70
    32
  0
VERTEX
  8
┌▓È_1
  5
40B
 10
959.274
 20
-401.359
 30
0.000000
  70
    32
  0
VERTEX
  8
┌▓È_1
  5
40C
 10
959.303
 20
-401.383
 30
0.000000
  70
    32
  0
VERTEX
  8
┌▓È_1
  5
40D
 10
959.333
 20
-401.408
 30
0.000000
  70
    32
  0
VERTEX
  8
┌▓È_1
  5
40E
 10
959.363
 20
-401.433
 30
0.000000
  70
    32
  0
VERTEX
  8
┌▓È_1
  5
40F
 10
959.393
 20
-401.458
 30
0.000000
  70
    32
  0
VERTEX
  8
┌▓È_1
  5
410
 10
959.423
 20
-401.483
 30
0.000000
  70
    32
  0
VERTEX
  8
┌▓È_1
  5
411
 10
959.452
 20
-401.507
 30
0.000000
  70
    32
  0
VERTEX
  8
┌▓È_1
  5
412
 10
959.482
 20
-401.532
 30
0.000000
  70
    32
  0
VERTEX
  8
┌▓È_1
  5
413
 10
959.512
 20
-401.557
 30
0.000000
  70
    32
  0
VERTEX
  8
┌▓È_1
  5
414
 10
959.542
 20
-401.581
 30
0.000000
  70
    32
  0
VERTEX
  8
┌▓È_1
  5
415
 10
959.572
 20
-401.606
 30
0.000000
  70
    32
  0
VERTEX
  8
┌▓È_1
  5
416
 10
959.602
 20
-401.630
 30
0.000000
  70
    32
  0
VERTEX
  8
┌▓È_1
  5
417
 10
959.632
 20
-401.654
 30
0.000000
  70
    32
  0
VERTEX
  8
┌▓È_1
  5
418
 10
959.662
 20
-401.679
 30
0.000000
  70
    32
  0
VERTEX
  8
┌▓È_1
  5
419
 10
959.692
 20
-401.703
 30
0.000000
  70
    32
  0
VERTEX
  8
┌▓È_1
  5
41A
 10
959.722
 20
-401.727
 30
0.000000
  70
    32
  0
VERTEX
  8
┌▓È_1
  5
41B
 10
959.752
 20
-401.752
 30
0.000000
  70
    32
  0
VERTEX
  8
┌▓È_1
  5
41C
 10
959.782
 20
-401.776
 30
0.000000
  70
    32
  0
VERTEX
  8
┌▓È_1
  5
41D
 10
959.812
 20
-401.800
 30
0.000000
  70
    32
  0
VERTEX
  8
┌▓È_1
  5
41E
 10
959.843
 20
-401.824
 30
0.000000
  70
    32
  0
VERTEX
  8
┌▓È_1
  5
41F
 10
959.873
 20
-401.848
 30
0.000000
  70
    32
  0
VERTEX
  8
┌▓È_1
  5
420
 10
959.903
 20
-401.872
 30
0.000000
  70
    32
  0
VERTEX
  8
┌▓È_1
  5
421
 10
959.933
 20
-401.896
 30
0.000000
  70
    32
  0
VERTEX
  8
┌▓È_1
  5
422
 10
959.964
 20
-401.919
 30
0.000000
  70
    32
  0
VERTEX
  8
┌▓È_1
  5
423
 10
959.994
 20
-401.943
 30
0.000000
  70
    32
  0
VERTEX
  8
┌▓È_1
  5
424
 10
960.024
 20
-401.967
 30
0.000000
  70
    32
  0
VERTEX
  8
┌▓È_1
  5
425
 10
960.055
 20
-401.991
 30
0.000000
  70
    32
  0
VERTEX
  8
┌▓È_1
  5
426
 10
960.085
 20
-402.014
 30
0.000000
  70
    32
  0
VERTEX
  8
┌▓È_1
  5
427
 10
960.116
 20
-402.038
 30
0.000000
  70
    32
  0
VERTEX
  8
┌▓È_1
  5
428
 10
960.146
 20
-402.061
 30
0.000000
  70
    32
  0
VERTEX
  8
┌▓È_1
  5
429
 10
960.177
 20
-402.085
 30
0.000000
  70
    32
  0
VERTEX
  8
┌▓È_1
  5
42A
 10
960.207
 20
-402.108
 30
0.000000
  70
    32
  0
VERTEX
  8
┌▓È_1
  5
42B
 10
960.238
 20
-402.131
 30
0.000000
  70
    32
  0
VERTEX
  8
┌▓È_1
  5
42C
 10
960.268
 20
-402.155
 30
0.000000
  70
    32
  0
VERTEX
  8
┌▓È_1
  5
42D
 10
960.299
 20
-402.178
 30
0.000000
  70
    32
  0
VERTEX
  8
┌▓È_1
  5
42E
 10
960.330
 20
-402.201
 30
0.000000
  70
    32
  0
VERTEX
  8
┌▓È_1
  5
42F
 10
960.360
 20
-402.224
 30
0.000000
  70
    32
  0
VERTEX
  8
┌▓È_1
  5
430
 10
960.391
 20
-402.247
 30
0.000000
  70
    32
  0
VERTEX
  8
┌▓È_1
  5
431
 10
960.422
 20
-402.270
 30
0.000000
  70
    32
  0
VERTEX
  8
┌▓È_1
  5
432
 10
960.453
 20
-402.293
 30
0.000000
  70
    32
  0
VERTEX
  8
┌▓È_1
  5
433
 10
960.484
 20
-402.316
 30
0.000000
  70
    32
  0
VERTEX
  8
┌▓È_1
  5
434
 10
960.514
 20
-402.338
 30
0.000000
  70
    32
  0
VERTEX
  8
┌▓È_1
  5
435
 10
960.545
 20
-402.361
 30
0.000000
  70
    32
  0
VERTEX
  8
┌▓È_1
  5
436
 10
960.576
 20
-402.384
 30
0.000000
  70
    32
  0
VERTEX
  8
┌▓È_1
  5
437
 10
960.607
 20
-402.406
 30
0.000000
  70
    32
  0
VERTEX
  8
┌▓È_1
  5
438
 10
960.638
 20
-402.429
 30
0.000000
  70
    32
  0
VERTEX
  8
┌▓È_1
  5
439
 10
960.669
 20
-402.451
 30
0.000000
  70
    32
  0
VERTEX
  8
┌▓È_1
  5
43A
 10
960.700
 20
-402.473
 30
0.000000
  70
    32
  0
VERTEX
  8
┌▓È_1
  5
43B
 10
960.732
 20
-402.496
 30
0.000000
  70
    32
  0
VERTEX
  8
┌▓È_1
  5
43C
 10
960.763
 20
-402.518
 30
0.000000
  70
    32
  0
VERTEX
  8
┌▓È_1
  5
43D
 10
960.794
 20
-402.540
 30
0.000000
  70
    32
  0
VERTEX
  8
┌▓È_1
  5
43E
 10
960.825
 20
-402.562
 30
0.000000
  70
    32
  0
VERTEX
  8
┌▓È_1
  5
43F
 10
960.856
 20
-402.584
 30
0.000000
  70
    32
  0
VERTEX
  8
┌▓È_1
  5
440
 10
960.888
 20
-402.606
 30
0.000000
  70
    32
  0
VERTEX
  8
┌▓È_1
  5
441
 10
960.919
 20
-402.628
 30
0.000000
  70
    32
  0
VERTEX
  8
┌▓È_1
  5
442
 10
960.951
 20
-402.650
 30
0.000000
  70
    32
  0
VERTEX
  8
┌▓È_1
  5
443
 10
960.982
 20
-402.671
 30
0.000000
  70
    32
  0
VERTEX
  8
┌▓È_1
  5
444
 10
961.014
 20
-402.693
 30
0.000000
  70
    32
  0
VERTEX
  8
┌▓È_1
  5
445
 10
961.045
 20
-402.715
 30
0.000000
  70
    32
  0
VERTEX
  8
┌▓È_1
  5
446
 10
961.077
 20
-402.736
 30
0.000000
  70
    32
  0
VERTEX
  8
┌▓È_1
  5
447
 10
961.108
 20
-402.758
 30
0.000000
  70
    32
  0
VERTEX
  8
┌▓È_1
  5
448
 10
961.140
 20
-402.779
 30
0.000000
  70
    32
  0
VERTEX
  8
┌▓È_1
  5
449
 10
961.172
 20
-402.800
 30
0.000000
  70
    32
  0
VERTEX
  8
┌▓È_1
  5
44A
 10
961.203
 20
-402.821
 30
0.000000
  70
    32
  0
VERTEX
  8
┌▓È_1
  5
44B
 10
961.235
 20
-402.842
 30
0.000000
  70
    32
  0
VERTEX
  8
┌▓È_1
  5
44C
 10
961.267
 20
-402.863
 30
0.000000
  70
    32
  0
VERTEX
  8
┌▓È_1
  5
44D
 10
961.299
 20
-402.884
 30
0.000000
  70
    32
  0
VERTEX
  8
┌▓È_1
  5
44E
 10
961.331
 20
-402.905
 30
0.000000
  70
    32
  0
VERTEX
  8
┌▓È_1
  5
44F
 10
961.363
 20
-402.926
 30
0.000000
  70
    32
  0
VERTEX
  8
┌▓È_1
  5
450
 10
961.395
 20
-402.947
 30
0.000000
  70
    32
  0
VERTEX
  8
┌▓È_1
  5
451
 10
961.427
 20
-402.967
 30
0.000000
  70
    32
  0
VERTEX
  8
┌▓È_1
  5
452
 10
961.459
 20
-402.988
 30
0.000000
  70
    32
  0
VERTEX
  8
┌▓È_1
  5
453
 10
961.491
 20
-403.008
 30
0.000000
  70
    32
  0
VERTEX
  8
┌▓È_1
  5
454
 10
961.523
 20
-403.029
 30
0.000000
  70
    32
  0
VERTEX
  8
┌▓È_1
  5
455
 10
961.555
 20
-403.049
 30
0.000000
  70
    32
  0
VERTEX
  8
┌▓È_1
  5
456
 10
961.587
 20
-403.069
 30
0.000000
  70
    32
  0
VERTEX
  8
┌▓È_1
  5
457
 10
961.620
 20
-403.089
 30
0.000000
  70
    32
  0
VERTEX
  8
┌▓È_1
  5
458
 10
961.652
 20
-403.110
 30
0.000000
  70
    32
  0
VERTEX
  8
┌▓È_1
  5
459
 10
961.684
 20
-403.129
 30
0.000000
  70
    32
  0
VERTEX
  8
┌▓È_1
  5
45A
 10
961.717
 20
-403.149
 30
0.000000
  70
    32
  0
VERTEX
  8
┌▓È_1
  5
45B
 10
961.749
 20
-403.169
 30
0.000000
  70
    32
  0
VERTEX
  8
┌▓È_1
  5
45C
 10
961.782
 20
-403.189
 30
0.000000
  70
    32
  0
VERTEX
  8
┌▓È_1
  5
45D
 10
961.814
 20
-403.208
 30
0.000000
  70
    32
  0
SEQEND
  8
┌▓È_1
  5
45E
  0
POLYLINE
  8
┌▓È_1
  5
45F
  62
5
  66
     1
 10
0.000000
 20
0.000000
 30
0.000000
  70
     8
  0
VERTEX
  8
┌▓È_1
  5
460
 10
965.766
 20
-404.943
 30
0.000000
  70
    32
  0
VERTEX
  8
┌▓È_1
  5
461
 10
965.809
 20
-404.956
 30
0.000000
  70
    32
  0
VERTEX
  8
┌▓È_1
  5
462
 10
965.852
 20
-404.970
 30
0.000000
  70
    32
  0
VERTEX
  8
┌▓È_1
  5
463
 10
965.895
 20
-404.984
 30
0.000000
  70
    32
  0
VERTEX
  8
┌▓È_1
  5
464
 10
965.939
 20
-404.997
 30
0.000000
  70
    32
  0
VERTEX
  8
┌▓È_1
  5
465
 10
965.982
 20
-405.011
 30
0.000000
  70
    32
  0
VERTEX
  8
┌▓È_1
  5
466
 10
966.025
 20
-405.024
 30
0.000000
  70
    32
  0
VERTEX
  8
┌▓È_1
  5
467
 10
966.068
 20
-405.037
 30
0.000000
  70
    32
  0
VERTEX
  8
┌▓È_1
  5
468
 10
966.112
 20
-405.051
 30
0.000000
  70
    32
  0
VERTEX
  8
┌▓È_1
  5
469
 10
966.155
 20
-405.064
 30
0.000000
  70
    32
  0
VERTEX
  8
┌▓È_1
  5
46A
 10
966.198
 20
-405.077
 30
0.000000
  70
    32
  0
VERTEX
  8
┌▓È_1
  5
46B
 10
966.242
 20
-405.090
 30
0.000000
  70
    32
  0
VERTEX
  8
┌▓È_1
  5
46C
 10
966.285
 20
-405.103
 30
0.000000
  70
    32
  0
VERTEX
  8
┌▓È_1
  5
46D
 10
966.329
 20
-405.116
 30
0.000000
  70
    32
  0
VERTEX
  8
┌▓È_1
  5
46E
 10
966.372
 20
-405.129
 30
0.000000
  70
    32
  0
VERTEX
  8
┌▓È_1
  5
46F
 10
966.416
 20
-405.142
 30
0.000000
  70
    32
  0
VERTEX
  8
┌▓È_1
  5
470
 10
966.459
 20
-405.155
 30
0.000000
  70
    32
  0
VERTEX
  8
┌▓È_1
  5
471
 10
966.503
 20
-405.167
 30
0.000000
  70
    32
  0
VERTEX
  8
┌▓È_1
  5
472
 10
966.547
 20
-405.180
 30
0.000000
  70
    32
  0
VERTEX
  8
┌▓È_1
  5
473
 10
966.590
 20
-405.192
 30
0.000000
  70
    32
  0
VERTEX
  8
┌▓È_1
  5
474
 10
966.634
 20
-405.205
 30
0.000000
  70
    32
  0
VERTEX
  8
┌▓È_1
  5
475
 10
966.678
 20
-405.217
 30
0.000000
  70
    32
  0
VERTEX
  8
┌▓È_1
  5
476
 10
966.722
 20
-405.230
 30
0.000000
  70
    32
  0
VERTEX
  8
┌▓È_1
  5
477
 10
966.765
 20
-405.242
 30
0.000000
  70
    32
  0
VERTEX
  8
┌▓È_1
  5
478
 10
966.809
 20
-405.255
 30
0.000000
  70
    32
  0
VERTEX
  8
┌▓È_1
  5
479
 10
966.853
 20
-405.267
 30
0.000000
  70
    32
  0
VERTEX
  8
┌▓È_1
  5
47A
 10
966.897
 20
-405.279
 30
0.000000
  70
    32
  0
VERTEX
  8
┌▓È_1
  5
47B
 10
966.941
 20
-405.291
 30
0.000000
  70
    32
  0
VERTEX
  8
┌▓È_1
  5
47C
 10
966.985
 20
-405.303
 30
0.000000
  70
    32
  0
VERTEX
  8
┌▓È_1
  5
47D
 10
967.029
 20
-405.315
 30
0.000000
  70
    32
  0
VERTEX
  8
┌▓È_1
  5
47E
 10
967.073
 20
-405.327
 30
0.000000
  70
    32
  0
VERTEX
  8
┌▓È_1
  5
47F
 10
967.117
 20
-405.339
 30
0.000000
  70
    32
  0
VERTEX
  8
┌▓È_1
  5
480
 10
967.161
 20
-405.351
 30
0.000000
  70
    32
  0
VERTEX
  8
┌▓È_1
  5
481
 10
967.205
 20
-405.363
 30
0.000000
  70
    32
  0
VERTEX
  8
┌▓È_1
  5
482
 10
967.249
 20
-405.375
 30
0.000000
  70
    32
  0
VERTEX
  8
┌▓È_1
  5
483
 10
967.293
 20
-405.387
 30
0.000000
  70
    32
  0
VERTEX
  8
┌▓È_1
  5
484
 10
967.338
 20
-405.398
 30
0.000000
  70
    32
  0
VERTEX
  8
┌▓È_1
  5
485
 10
967.382
 20
-405.410
 30
0.000000
  70
    32
  0
VERTEX
  8
┌▓È_1
  5
486
 10
967.426
 20
-405.421
 30
0.000000
  70
    32
  0
VERTEX
  8
┌▓È_1
  5
487
 10
967.470
 20
-405.433
 30
0.000000
  70
    32
  0
VERTEX
  8
┌▓È_1
  5
488
 10
967.515
 20
-405.444
 30
0.000000
  70
    32
  0
VERTEX
  8
┌▓È_1
  5
489
 10
967.559
 20
-405.456
 30
0.000000
  70
    32
  0
VERTEX
  8
┌▓È_1
  5
48A
 10
967.603
 20
-405.467
 30
0.000000
  70
    32
  0
VERTEX
  8
┌▓È_1
  5
48B
 10
967.648
 20
-405.479
 30
0.000000
  70
    32
  0
VERTEX
  8
┌▓È_1
  5
48C
 10
967.692
 20
-405.490
 30
0.000000
  70
    32
  0
VERTEX
  8
┌▓È_1
  5
48D
 10
967.736
 20
-405.501
 30
0.000000
  70
    32
  0
VERTEX
  8
┌▓È_1
  5
48E
 10
967.781
 20
-405.512
 30
0.000000
  70
    32
  0
VERTEX
  8
┌▓È_1
  5
48F
 10
967.825
 20
-405.524
 30
0.000000
  70
    32
  0
VERTEX
  8
┌▓È_1
  5
490
 10
967.870
 20
-405.535
 30
0.000000
  70
    32
  0
VERTEX
  8
┌▓È_1
  5
491
 10
967.914
 20
-405.546
 30
0.000000
  70
    32
  0
VERTEX
  8
┌▓È_1
  5
492
 10
967.959
 20
-405.557
 30
0.000000
  70
    32
  0
VERTEX
  8
┌▓È_1
  5
493
 10
968.003
 20
-405.568
 30
0.000000
  70
    32
  0
VERTEX
  8
┌▓È_1
  5
494
 10
968.048
 20
-405.579
 30
0.000000
  70
    32
  0
VERTEX
  8
┌▓È_1
  5
495
 10
968.092
 20
-405.590
 30
0.000000
  70
    32
  0
VERTEX
  8
┌▓È_1
  5
496
 10
968.137
 20
-405.601
 30
0.000000
  70
    32
  0
VERTEX
  8
┌▓È_1
  5
497
 10
968.182
 20
-405.612
 30
0.000000
  70
    32
  0
VERTEX
  8
┌▓È_1
  5
498
 10
968.226
 20
-405.622
 30
0.000000
  70
    32
  0
VERTEX
  8
┌▓È_1
  5
499
 10
968.271
 20
-405.633
 30
0.000000
  70
    32
  0
VERTEX
  8
┌▓È_1
  5
49A
 10
968.316
 20
-405.644
 30
0.000000
  70
    32
  0
VERTEX
  8
┌▓È_1
  5
49B
 10
968.360
 20
-405.655
 30
0.000000
  70
    32
  0
VERTEX
  8
┌▓È_1
  5
49C
 10
968.405
 20
-405.665
 30
0.000000
  70
    32
  0
VERTEX
  8
┌▓È_1
  5
49D
 10
968.450
 20
-405.676
 30
0.000000
  70
    32
  0
VERTEX
  8
┌▓È_1
  5
49E
 10
968.495
 20
-405.686
 30
0.000000
  70
    32
  0
VERTEX
  8
┌▓È_1
  5
49F
 10
968.539
 20
-405.697
 30
0.000000
  70
    32
  0
VERTEX
  8
┌▓È_1
  5
4A0
 10
968.584
 20
-405.708
 30
0.000000
  70
    32
  0
VERTEX
  8
┌▓È_1
  5
4A1
 10
968.629
 20
-405.718
 30
0.000000
  70
    32
  0
VERTEX
  8
┌▓È_1
  5
4A2
 10
968.674
 20
-405.728
 30
0.000000
  70
    32
  0
VERTEX
  8
┌▓È_1
  5
4A3
 10
968.719
 20
-405.739
 30
0.000000
  70
    32
  0
VERTEX
  8
┌▓È_1
  5
4A4
 10
968.764
 20
-405.749
 30
0.000000
  70
    32
  0
VERTEX
  8
┌▓È_1
  5
4A5
 10
968.809
 20
-405.760
 30
0.000000
  70
    32
  0
VERTEX
  8
┌▓È_1
  5
4A6
 10
968.853
 20
-405.770
 30
0.000000
  70
    32
  0
VERTEX
  8
┌▓È_1
  5
4A7
 10
968.898
 20
-405.780
 30
0.000000
  70
    32
  0
VERTEX
  8
┌▓È_1
  5
4A8
 10
968.943
 20
-405.791
 30
0.000000
  70
    32
  0
VERTEX
  8
┌▓È_1
  5
4A9
 10
968.988
 20
-405.801
 30
0.000000
  70
    32
  0
VERTEX
  8
┌▓È_1
  5
4AA
 10
969.033
 20
-405.811
 30
0.000000
  70
    32
  0
VERTEX
  8
┌▓È_1
  5
4AB
 10
969.078
 20
-405.821
 30
0.000000
  70
    32
  0
VERTEX
  8
┌▓È_1
  5
4AC
 10
969.123
 20
-405.831
 30
0.000000
  70
    32
  0
VERTEX
  8
┌▓È_1
  5
4AD
 10
969.168
 20
-405.841
 30
0.000000
  70
    32
  0
VERTEX
  8
┌▓È_1
  5
4AE
 10
969.213
 20
-405.851
 30
0.000000
  70
    32
  0
VERTEX
  8
┌▓È_1
  5
4AF
 10
969.258
 20
-405.862
 30
0.000000
  70
    32
  0
VERTEX
  8
┌▓È_1
  5
4B0
 10
969.303
 20
-405.872
 30
0.000000
  70
    32
  0
VERTEX
  8
┌▓È_1
  5
4B1
 10
969.349
 20
-405.882
 30
0.000000
  70
    32
  0
VERTEX
  8
┌▓È_1
  5
4B2
 10
969.394
 20
-405.892
 30
0.000000
  70
    32
  0
VERTEX
  8
┌▓È_1
  5
4B3
 10
969.439
 20
-405.902
 30
0.000000
  70
    32
  0
VERTEX
  8
┌▓È_1
  5
4B4
 10
969.484
 20
-405.912
 30
0.000000
  70
    32
  0
VERTEX
  8
┌▓È_1
  5
4B5
 10
969.529
 20
-405.921
 30
0.000000
  70
    32
  0
VERTEX
  8
┌▓È_1
  5
4B6
 10
969.574
 20
-405.931
 30
0.000000
  70
    32
  0
VERTEX
  8
┌▓È_1
  5
4B7
 10
969.619
 20
-405.941
 30
0.000000
  70
    32
  0
VERTEX
  8
┌▓È_1
  5
4B8
 10
969.664
 20
-405.951
 30
0.000000
  70
    32
  0
VERTEX
  8
┌▓È_1
  5
4B9
 10
969.710
 20
-405.961
 30
0.000000
  70
    32
  0
VERTEX
  8
┌▓È_1
  5
4BA
 10
969.755
 20
-405.971
 30
0.000000
  70
    32
  0
VERTEX
  8
┌▓È_1
  5
4BB
 10
969.800
 20
-405.981
 30
0.000000
  70
    32
  0
VERTEX
  8
┌▓È_1
  5
4BC
 10
969.845
 20
-405.990
 30
0.000000
  70
    32
  0
VERTEX
  8
┌▓È_1
  5
4BD
 10
969.890
 20
-406.000
 30
0.000000
  70
    32
  0
VERTEX
  8
┌▓È_1
  5
4BE
 10
969.936
 20
-406.010
 30
0.000000
  70
    32
  0
VERTEX
  8
┌▓È_1
  5
4BF
 10
969.981
 20
-406.020
 30
0.000000
  70
    32
  0
VERTEX
  8
┌▓È_1
  5
4C0
 10
970.026
 20
-406.029
 30
0.000000
  70
    32
  0
VERTEX
  8
┌▓È_1
  5
4C1
 10
970.071
 20
-406.039
 30
0.000000
  70
    32
  0
VERTEX
  8
┌▓È_1
  5
4C2
 10
970.117
 20
-406.049
 30
0.000000
  70
    32
  0
VERTEX
  8
┌▓È_1
  5
4C3
 10
970.162
 20
-406.058
 30
0.000000
  70
    32
  0
VERTEX
  8
┌▓È_1
  5
4C4
 10
970.207
 20
-406.068
 30
0.000000
  70
    32
  0
VERTEX
  8
┌▓È_1
  5
4C5
 10
970.253
 20
-406.078
 30
0.000000
  70
    32
  0
VERTEX
  8
┌▓È_1
  5
4C6
 10
970.298
 20
-406.087
 30
0.000000
  70
    32
  0
VERTEX
  8
┌▓È_1
  5
4C7
 10
970.343
 20
-406.097
 30
0.000000
  70
    32
  0
VERTEX
  8
┌▓È_1
  5
4C8
 10
970.388
 20
-406.106
 30
0.000000
  70
    32
  0
VERTEX
  8
┌▓È_1
  5
4C9
 10
970.434
 20
-406.116
 30
0.000000
  70
    32
  0
VERTEX
  8
┌▓È_1
  5
4CA
 10
970.479
 20
-406.125
 30
0.000000
  70
    32
  0
VERTEX
  8
┌▓È_1
  5
4CB
 10
970.524
 20
-406.135
 30
0.000000
  70
    32
  0
VERTEX
  8
┌▓È_1
  5
4CC
 10
970.570
 20
-406.145
 30
0.000000
  70
    32
  0
VERTEX
  8
┌▓È_1
  5
4CD
 10
970.615
 20
-406.154
 30
0.000000
  70
    32
  0
VERTEX
  8
┌▓È_1
  5
4CE
 10
970.660
 20
-406.164
 30
0.000000
  70
    32
  0
VERTEX
  8
┌▓È_1
  5
4CF
 10
970.706
 20
-406.173
 30
0.000000
  70
    32
  0
VERTEX
  8
┌▓È_1
  5
4D0
 10
970.751
 20
-406.183
 30
0.000000
  70
    32
  0
VERTEX
  8
┌▓È_1
  5
4D1
 10
970.797
 20
-406.192
 30
0.000000
  70
    32
  0
VERTEX
  8
┌▓È_1
  5
4D2
 10
970.842
 20
-406.202
 30
0.000000
  70
    32
  0
VERTEX
  8
┌▓È_1
  5
4D3
 10
970.887
 20
-406.211
 30
0.000000
  70
    32
  0
VERTEX
  8
┌▓È_1
  5
4D4
 10
970.933
 20
-406.221
 30
0.000000
  70
    32
  0
VERTEX
  8
┌▓È_1
  5
4D5
 10
970.978
 20
-406.230
 30
0.000000
  70
    32
  0
VERTEX
  8
┌▓È_1
  5
4D6
 10
971.023
 20
-406.239
 30
0.000000
  70
    32
  0
VERTEX
  8
┌▓È_1
  5
4D7
 10
971.069
 20
-406.249
 30
0.000000
  70
    32
  0
VERTEX
  8
┌▓È_1
  5
4D8
 10
971.114
 20
-406.258
 30
0.000000
  70
    32
  0
VERTEX
  8
┌▓È_1
  5
4D9
 10
971.160
 20
-406.268
 30
0.000000
  70
    32
  0
VERTEX
  8
┌▓È_1
  5
4DA
 10
971.205
 20
-406.277
 30
0.000000
  70
    32
  0
VERTEX
  8
┌▓È_1
  5
4DB
 10
971.250
 20
-406.287
 30
0.000000
  70
    32
  0
VERTEX
  8
┌▓È_1
  5
4DC
 10
971.296
 20
-406.296
 30
0.000000
  70
    32
  0
VERTEX
  8
┌▓È_1
  5
4DD
 10
971.341
 20
-406.306
 30
0.000000
  70
    32
  0
VERTEX
  8
┌▓È_1
  5
4DE
 10
971.387
 20
-406.315
 30
0.000000
  70
    32
  0
VERTEX
  8
┌▓È_1
  5
4DF
 10
971.432
 20
-406.324
 30
0.000000
  70
    32
  0
SEQEND
  8
┌▓È_1
  5
4E0
  0
POLYLINE
  8
┌▓È_1
  5
4E1
  62
5
  66
     1
 10
0.000000
 20
0.000000
 30
0.000000
  70
     8
  0
VERTEX
  8
┌▓È_1
  5
4E2
 10
962.527
 20
-399.745
 30
0.000000
  70
    32
  0
VERTEX
  8
┌▓È_1
  5
4E3
 10
962.537
 20
-399.757
 30
0.000000
  70
    32
  0
VERTEX
  8
┌▓È_1
  5
4E4
 10
962.548
 20
-399.768
 30
0.000000
  70
    32
  0
VERTEX
  8
┌▓È_1
  5
4E5
 10
962.559
 20
-399.780
 30
0.000000
  70
    32
  0
VERTEX
  8
┌▓È_1
  5
4E6
 10
962.569
 20
-399.792
 30
0.000000
  70
    32
  0
VERTEX
  8
┌▓È_1
  5
4E7
 10
962.580
 20
-399.804
 30
0.000000
  70
    32
  0
VERTEX
  8
┌▓È_1
  5
4E8
 10
962.590
 20
-399.816
 30
0.000000
  70
    32
  0
VERTEX
  8
┌▓È_1
  5
4E9
 10
962.601
 20
-399.827
 30
0.000000
  70
    32
  0
VERTEX
  8
┌▓È_1
  5
4EA
 10
962.611
 20
-399.839
 30
0.000000
  70
    32
  0
VERTEX
  8
┌▓È_1
  5
4EB
 10
962.622
 20
-399.851
 30
0.000000
  70
    32
  0
VERTEX
  8
┌▓È_1
  5
4EC
 10
962.632
 20
-399.863
 30
0.000000
  70
    32
  0
VERTEX
  8
┌▓È_1
  5
4ED
 10
962.643
 20
-399.874
 30
0.000000
  70
    32
  0
VERTEX
  8
┌▓È_1
  5
4EE
 10
962.654
 20
-399.886
 30
0.000000
  70
    32
  0
VERTEX
  8
┌▓È_1
  5
4EF
 10
962.664
 20
-399.898
 30
0.000000
  70
    32
  0
VERTEX
  8
┌▓È_1
  5
4F0
 10
962.675
 20
-399.910
 30
0.000000
  70
    32
  0
VERTEX
  8
┌▓È_1
  5
4F1
 10
962.685
 20
-399.921
 30
0.000000
  70
    32
  0
VERTEX
  8
┌▓È_1
  5
4F2
 10
962.696
 20
-399.933
 30
0.000000
  70
    32
  0
VERTEX
  8
┌▓È_1
  5
4F3
 10
962.706
 20
-399.945
 30
0.000000
  70
    32
  0
VERTEX
  8
┌▓È_1
  5
4F4
 10
962.717
 20
-399.957
 30
0.000000
  70
    32
  0
VERTEX
  8
┌▓È_1
  5
4F5
 10
962.728
 20
-399.968
 30
0.000000
  70
    32
  0
VERTEX
  8
┌▓È_1
  5
4F6
 10
962.738
 20
-399.980
 30
0.000000
  70
    32
  0
VERTEX
  8
┌▓È_1
  5
4F7
 10
962.749
 20
-399.992
 30
0.000000
  70
    32
  0
VERTEX
  8
┌▓È_1
  5
4F8
 10
962.759
 20
-400.004
 30
0.000000
  70
    32
  0
VERTEX
  8
┌▓È_1
  5
4F9
 10
962.770
 20
-400.015
 30
0.000000
  70
    32
  0
VERTEX
  8
┌▓È_1
  5
4FA
 10
962.781
 20
-400.027
 30
0.000000
  70
    32
  0
VERTEX
  8
┌▓È_1
  5
4FB
 10
962.791
 20
-400.039
 30
0.000000
  70
    32
  0
VERTEX
  8
┌▓È_1
  5
4FC
 10
962.802
 20
-400.051
 30
0.000000
  70
    32
  0
VERTEX
  8
┌▓È_1
  5
4FD
 10
962.812
 20
-400.062
 30
0.000000
  70
    32
  0
VERTEX
  8
┌▓È_1
  5
4FE
 10
962.823
 20
-400.074
 30
0.000000
  70
    32
  0
VERTEX
  8
┌▓È_1
  5
4FF
 10
962.834
 20
-400.086
 30
0.000000
  70
    32
  0
VERTEX
  8
┌▓È_1
  5
500
 10
962.844
 20
-400.097
 30
0.000000
  70
    32
  0
VERTEX
  8
┌▓È_1
  5
501
 10
962.855
 20
-400.109
 30
0.000000
  70
    32
  0
VERTEX
  8
┌▓È_1
  5
502
 10
962.865
 20
-400.121
 30
0.000000
  70
    32
  0
VERTEX
  8
┌▓È_1
  5
503
 10
962.876
 20
-400.132
 30
0.000000
  70
    32
  0
VERTEX
  8
┌▓È_1
  5
504
 10
962.887
 20
-400.144
 30
0.000000
  70
    32
  0
VERTEX
  8
┌▓È_1
  5
505
 10
962.897
 20
-400.156
 30
0.000000
  70
    32
  0
VERTEX
  8
┌▓È_1
  5
506
 10
962.908
 20
-400.167
 30
0.000000
  70
    32
  0
VERTEX
  8
┌▓È_1
  5
507
 10
962.918
 20
-400.179
 30
0.000000
  70
    32
  0
VERTEX
  8
┌▓È_1
  5
508
 10
962.929
 20
-400.191
 30
0.000000
  70
    32
  0
VERTEX
  8
┌▓È_1
  5
509
 10
962.940
 20
-400.202
 30
0.000000
  70
    32
  0
VERTEX
  8
┌▓È_1
  5
50A
 10
962.950
 20
-400.214
 30
0.000000
  70
    32
  0
VERTEX
  8
┌▓È_1
  5
50B
 10
962.961
 20
-400.226
 30
0.000000
  70
    32
  0
VERTEX
  8
┌▓È_1
  5
50C
 10
962.972
 20
-400.237
 30
0.000000
  70
    32
  0
VERTEX
  8
┌▓È_1
  5
50D
 10
962.982
 20
-400.249
 30
0.000000
  70
    32
  0
VERTEX
  8
┌▓È_1
  5
50E
 10
962.993
 20
-400.260
 30
0.000000
  70
    32
  0
VERTEX
  8
┌▓È_1
  5
50F
 10
963.004
 20
-400.272
 30
0.000000
  70
    32
  0
VERTEX
  8
┌▓È_1
  5
510
 10
963.014
 20
-400.284
 30
0.000000
  70
    32
  0
VERTEX
  8
┌▓È_1
  5
511
 10
963.025
 20
-400.295
 30
0.000000
  70
    32
  0
VERTEX
  8
┌▓È_1
  5
512
 10
963.036
 20
-400.307
 30
0.000000
  70
    32
  0
VERTEX
  8
┌▓È_1
  5
513
 10
963.046
 20
-400.318
 30
0.000000
  70
    32
  0
VERTEX
  8
┌▓È_1
  5
514
 10
963.057
 20
-400.330
 30
0.000000
  70
    32
  0
VERTEX
  8
┌▓È_1
  5
515
 10
963.068
 20
-400.341
 30
0.000000
  70
    32
  0
VERTEX
  8
┌▓È_1
  5
516
 10
963.078
 20
-400.353
 30
0.000000
  70
    32
  0
VERTEX
  8
┌▓È_1
  5
517
 10
963.089
 20
-400.365
 30
0.000000
  70
    32
  0
VERTEX
  8
┌▓È_1
  5
518
 10
963.100
 20
-400.376
 30
0.000000
  70
    32
  0
VERTEX
  8
┌▓È_1
  5
519
 10
963.111
 20
-400.388
 30
0.000000
  70
    32
  0
VERTEX
  8
┌▓È_1
  5
51A
 10
963.121
 20
-400.399
 30
0.000000
  70
    32
  0
VERTEX
  8
┌▓È_1
  5
51B
 10
963.132
 20
-400.411
 30
0.000000
  70
    32
  0
VERTEX
  8
┌▓È_1
  5
51C
 10
963.143
 20
-400.422
 30
0.000000
  70
    32
  0
VERTEX
  8
┌▓È_1
  5
51D
 10
963.154
 20
-400.434
 30
0.000000
  70
    32
  0
VERTEX
  8
┌▓È_1
  5
51E
 10
963.164
 20
-400.445
 30
0.000000
  70
    32
  0
VERTEX
  8
┌▓È_1
  5
51F
 10
963.175
 20
-400.456
 30
0.000000
  70
    32
  0
VERTEX
  8
┌▓È_1
  5
520
 10
963.186
 20
-400.468
 30
0.000000
  70
    32
  0
VERTEX
  8
┌▓È_1
  5
521
 10
963.197
 20
-400.479
 30
0.000000
  70
    32
  0
VERTEX
  8
┌▓È_1
  5
522
 10
963.207
 20
-400.491
 30
0.000000
  70
    32
  0
VERTEX
  8
┌▓È_1
  5
523
 10
963.218
 20
-400.502
 30
0.000000
  70
    32
  0
VERTEX
  8
┌▓È_1
  5
524
 10
963.229
 20
-400.514
 30
0.000000
  70
    32
  0
VERTEX
  8
┌▓È_1
  5
525
 10
963.240
 20
-400.525
 30
0.000000
  70
    32
  0
VERTEX
  8
┌▓È_1
  5
526
 10
963.251
 20
-400.536
 30
0.000000
  70
    32
  0
VERTEX
  8
┌▓È_1
  5
527
 10
963.261
 20
-400.548
 30
0.000000
  70
    32
  0
VERTEX
  8
┌▓È_1
  5
528
 10
963.272
 20
-400.559
 30
0.000000
  70
    32
  0
VERTEX
  8
┌▓È_1
  5
529
 10
963.283
 20
-400.570
 30
0.000000
  70
    32
  0
VERTEX
  8
┌▓È_1
  5
52A
 10
963.294
 20
-400.582
 30
0.000000
  70
    32
  0
VERTEX
  8
┌▓È_1
  5
52B
 10
963.305
 20
-400.593
 30
0.000000
  70
    32
  0
VERTEX
  8
┌▓È_1
  5
52C
 10
963.316
 20
-400.604
 30
0.000000
  70
    32
  0
VERTEX
  8
┌▓È_1
  5
52D
 10
963.326
 20
-400.616
 30
0.000000
  70
    32
  0
VERTEX
  8
┌▓È_1
  5
52E
 10
963.337
 20
-400.627
 30
0.000000
  70
    32
  0
VERTEX
  8
┌▓È_1
  5
52F
 10
963.348
 20
-400.638
 30
0.000000
  70
    32
  0
VERTEX
  8
┌▓È_1
  5
530
 10
963.359
 20
-400.649
 30
0.000000
  70
    32
  0
VERTEX
  8
┌▓È_1
  5
531
 10
963.370
 20
-400.661
 30
0.000000
  70
    32
  0
VERTEX
  8
┌▓È_1
  5
532
 10
963.381
 20
-400.672
 30
0.000000
  70
    32
  0
VERTEX
  8
┌▓È_1
  5
533
 10
963.392
 20
-400.683
 30
0.000000
  70
    32
  0
VERTEX
  8
┌▓È_1
  5
534
 10
963.403
 20
-400.694
 30
0.000000
  70
    32
  0
VERTEX
  8
┌▓È_1
  5
535
 10
963.414
 20
-400.705
 30
0.000000
  70
    32
  0
VERTEX
  8
┌▓È_1
  5
536
 10
963.425
 20
-400.717
 30
0.000000
  70
    32
  0
VERTEX
  8
┌▓È_1
  5
537
 10
963.436
 20
-400.728
 30
0.000000
  70
    32
  0
VERTEX
  8
┌▓È_1
  5
538
 10
963.446
 20
-400.739
 30
0.000000
  70
    32
  0
VERTEX
  8
┌▓È_1
  5
539
 10
963.457
 20
-400.750
 30
0.000000
  70
    32
  0
VERTEX
  8
┌▓È_1
  5
53A
 10
963.468
 20
-400.761
 30
0.000000
  70
    32
  0
VERTEX
  8
┌▓È_1
  5
53B
 10
963.479
 20
-400.772
 30
0.000000
  70
    32
  0
VERTEX
  8
┌▓È_1
  5
53C
 10
963.490
 20
-400.783
 30
0.000000
  70
    32
  0
VERTEX
  8
┌▓È_1
  5
53D
 10
963.501
 20
-400.794
 30
0.000000
  70
    32
  0
VERTEX
  8
┌▓È_1
  5
53E
 10
963.512
 20
-400.805
 30
0.000000
  70
    32
  0
VERTEX
  8
┌▓È_1
  5
53F
 10
963.523
 20
-400.816
 30
0.000000
  70
    32
  0
VERTEX
  8
┌▓È_1
  5
540
 10
963.534
 20
-400.827
 30
0.000000
  70
    32
  0
VERTEX
  8
┌▓È_1
  5
541
 10
963.546
 20
-400.838
 30
0.000000
  70
    32
  0
VERTEX
  8
┌▓È_1
  5
542
 10
963.557
 20
-400.849
 30
0.000000
  70
    32
  0
VERTEX
  8
┌▓È_1
  5
543
 10
963.568
 20
-400.860
 30
0.000000
  70
    32
  0
VERTEX
  8
┌▓È_1
  5
544
 10
963.579
 20
-400.871
 30
0.000000
  70
    32
  0
VERTEX
  8
┌▓È_1
  5
545
 10
963.590
 20
-400.882
 30
0.000000
  70
    32
  0
VERTEX
  8
┌▓È_1
  5
546
 10
963.601
 20
-400.893
 30
0.000000
  70
    32
  0
VERTEX
  8
┌▓È_1
  5
547
 10
963.612
 20
-400.904
 30
0.000000
  70
    32
  0
VERTEX
  8
┌▓È_1
  5
548
 10
963.623
 20
-400.915
 30
0.000000
  70
    32
  0
VERTEX
  8
┌▓È_1
  5
549
 10
963.634
 20
-400.926
 30
0.000000
  70
    32
  0
VERTEX
  8
┌▓È_1
  5
54A
 10
963.645
 20
-400.936
 30
0.000000
  70
    32
  0
VERTEX
  8
┌▓È_1
  5
54B
 10
963.657
 20
-400.947
 30
0.000000
  70
    32
  0
VERTEX
  8
┌▓È_1
  5
54C
 10
963.668
 20
-400.958
 30
0.000000
  70
    32
  0
VERTEX
  8
┌▓È_1
  5
54D
 10
963.679
 20
-400.969
 30
0.000000
  70
    32
  0
VERTEX
  8
┌▓È_1
  5
54E
 10
963.690
 20
-400.980
 30
0.000000
  70
    32
  0
VERTEX
  8
┌▓È_1
  5
54F
 10
963.701
 20
-400.990
 30
0.000000
  70
    32
  0
VERTEX
  8
┌▓È_1
  5
550
 10
963.713
 20
-401.001
 30
0.000000
  70
    32
  0
VERTEX
  8
┌▓È_1
  5
551
 10
963.724
 20
-401.012
 30
0.000000
  70
    32
  0
VERTEX
  8
┌▓È_1
  5
552
 10
963.735
 20
-401.022
 30
0.000000
  70
    32
  0
VERTEX
  8
┌▓È_1
  5
553
 10
963.746
 20
-401.033
 30
0.000000
  70
    32
  0
VERTEX
  8
┌▓È_1
  5
554
 10
963.758
 20
-401.044
 30
0.000000
  70
    32
  0
VERTEX
  8
┌▓È_1
  5
555
 10
963.769
 20
-401.054
 30
0.000000
  70
    32
  0
VERTEX
  8
┌▓È_1
  5
556
 10
963.780
 20
-401.065
 30
0.000000
  70
    32
  0
VERTEX
  8
┌▓È_1
  5
557
 10
963.791
 20
-401.075
 30
0.000000
  70
    32
  0
VERTEX
  8
┌▓È_1
  5
558
 10
963.803
 20
-401.086
 30
0.000000
  70
    32
  0
VERTEX
  8
┌▓È_1
  5
559
 10
963.814
 20
-401.097
 30
0.000000
  70
    32
  0
VERTEX
  8
┌▓È_1
  5
55A
 10
963.825
 20
-401.107
 30
0.000000
  70
    32
  0
VERTEX
  8
┌▓È_1
  5
55B
 10
963.837
 20
-401.118
 30
0.000000
  70
    32
  0
VERTEX
  8
┌▓È_1
  5
55C
 10
963.848
 20
-401.128
 30
0.000000
  70
    32
  0
VERTEX
  8
┌▓È_1
  5
55D
 10
963.859
 20
-401.139
 30
0.000000
  70
    32
  0
VERTEX
  8
┌▓È_1
  5
55E
 10
963.871
 20
-401.149
 30
0.000000
  70
    32
  0
VERTEX
  8
┌▓È_1
  5
55F
 10
963.882
 20
-401.159
 30
0.000000
  70
    32
  0
VERTEX
  8
┌▓È_1
  5
560
 10
963.894
 20
-401.170
 30
0.000000
  70
    32
  0
VERTEX
  8
┌▓È_1
  5
561
 10
963.905
 20
-401.180
 30
0.000000
  70
    32
  0
SEQEND
  8
┌▓È_1
  5
562
  0
LINE
  5
231
  8
┌▓È_1
 62
     5
 10
971.4319474312
 20
-403.92444133409998
 30
0.0
 11
971.4319474312
 21
-406.32444133410002
 31
0.0
  0
LINE
  5
232
  8
┌▓È_1
 10
966.78057500229988
 20
-366.88071808109999
 30
0.0
 11
998.78057500229988
 21
-366.88071808109999
 31
0.0
  0
LINE
  5
233
  8
┌▓È_1
 10
870.7805750023
 20
-375.38071808109999
 30
0.0
 11
966.78057500229988
 21
-375.38071808109999
 31
0.0
  0
INSERT
  5
234
  8
0
  6
CONTINUOUS
  2
*U45
 10
0.0
 20
0.0
 30
0.0
  0
INSERT
  5
235
  8
0
  6
CONTINUOUS
  2
*U46
 10
0.0
 20
0.0
 30
0.0
  0
INSERT
  5
236
  8
0
  6
CONTINUOUS
  2
*U47
 10
0.0
 20
0.0
 30
0.0
  0
INSERT
  5
237
  8
0
  6
CONTINUOUS
  2
*U48
 10
0.0
 20
0.0
 30
0.0
  0
INSERT
  5
238
  8
0
  6
CONTINUOUS
  2
*U49
 10
0.0
 20
0.0
 30
0.0
  0
ARC
  5
239
  8
┌▓È_1
 62
     5
 10
958.95194743119998
 20
-397.84444133410011
 30
0.0
 40
6.0800000000000001
 50
270.0
 51
298.08590481520002
  0
INSERT
  5
23A
  8
0
  6
CONTINUOUS
  2
*U50
 10
0.0
 20
0.0
 30
0.0
  0
INSERT
  5
23B
  8
0
  6
CONTINUOUS
  2
*U51
 10
0.0
 20
0.0
 30
0.0
  0
INSERT
  5
23C
  8
0
  6
CONTINUOUS
  2
*U52
 10
0.0
 20
0.0
 30
0.0
  0
INSERT
  5
23D
  8
0
  6
CONTINUOUS
  2
*U53
 10
0.0
 20
0.0
 30
0.0
  0
INSERT
  5
23E
  8
0
  6
CONTINUOUS
  2
*U54
 10
0.0
 20
0.0
 30
0.0
  0
INSERT
  5
23F
  8
0
  6
CONTINUOUS
  2
*U55
 10
0.0
 20
0.0
 30
0.0
  0
INSERT
  5
240
  8
0
  6
CONTINUOUS
  2
*U56
 10
0.0
 20
0.0
 30
0.0
  0
INSERT
  5
241
  8
0
  6
CONTINUOUS
  2
*U57
 10
0.0
 20
0.0
 30
0.0
  0
INSERT
  5
242
  8
0
  6
CONTINUOUS
  2
*U58
 10
0.0
 20
0.0
 30
0.0
  0
INSERT
  5
244
  8
┌▓È_1
  6
BORDER
  2
CLUMP2
 10
0.0
 20
0.0
 30
0.0
  0
ARC
  5
250
  8
┌▓È_1
 62
     5
 10
676.69639531480004
 20
-252.36577985380001
 30
0.0
 40
4.5
 50
180.0
 51
270.0
  0
INSERT
  5
252
  8
┌▓È_1
  6
BORDER
  2
CLUMP3
 10
0.0
 20
0.0
 30
0.0
  0
INSERT
  5
25F
  8
┌▓È_1
  6
BORDER
  2
CLUMP4
 10
0.0
 20
0.0
 30
0.0
  0
LINE
  5
26F
  8
┌▓È_1
 62
     5
 10
672.19639531480004
 20
-252.36577985380001
 30
0.0
 11
672.19639531480004
 21
-106.86577985380001
 31
0.0
  0
LINE
  5
270
  8
┌▓È_1
 62
     5
 10
676.69639531480004
 20
-106.86577985380001
 30
0.0
 11
672.19639531480004
 21
-106.86577985380001
 31
0.0
  0
LINE
  5
271
  8
┌▓È_1
  6
BORDER
 62
     3
 10
682.52417309249995
 20
-118.86577985380001
 30
0.0
 11
665.15472864809988
 21
-118.86577985380001
 31
0.0
  0
LINE
  5
272
  8
┌▓È_1
 62
     5
 10
747.19639531479993
 20
-256.86577985380001
 30
0.0
 11
747.19639531479993
 21
-252.36577985380001
 31
0.0
  0
LINE
  5
273
  8
┌▓È_1
 62
     5
 10
676.69639531480004
 20
-252.36577985380001
 30
0.0
 11
747.19639531479993
 21
-252.36577985380001
 31
0.0
  0
LINE
  5
274
  8
┌▓È_1
 62
     5
 10
676.69639531480004
 20
-256.86577985380001
 30
0.0
 11
747.19639531479993
 21
-256.86577985380001
 31
0.0
  0
INSERT
  5
276
  8
┌▓È_1
  6
BORDER
  2
CLUMP6
 10
0.0
 20
0.0
 30
0.0
  0
LINE
  5
286
  8
┌▓È_1
  6
STITCH
 10
674.94639531480004
 20
-121.36577985380001
 30
0.0
 11
676.69639531480004
 21
-123.11577985380001
 31
0.0
  0
LINE
  5
287
  8
┌▓È_1
  6
STITCH
 10
673.94639531480004
 20
-121.36577985380001
 30
0.0
 11
672.19639531480004
 21
-123.11577985380001
 31
0.0
  0
LINE
  5
288
  8
┌▓È_1
  6
STITCH
 10
673.94639531480004
 20
-116.36577985380001
 30
0.0
 11
672.19639531480004
 21
-114.61577985380001
 31
0.0
  0
LINE
  5
289
  8
┌▓È_1
  6
STITCH
 10
674.94639531480004
 20
-116.36577985380001
 30
0.0
 11
676.69639531480004
 21
-114.61577985380001
 31
0.0
  0
INSERT
  5
28B
  8
┌▓È_1
  6
BORDER
  2
CLUMP8
 10
0.0
 20
0.0
 30
0.0
  0
INSERT
  5
293
  8
┌▓È_1
  6
BORDER
  2
CLUMP9
 10
0.0
 20
0.0
 30
0.0
  0
INSERT
  5
29B
  8
┌▓È_1
  6
BORDER
  2
CLUMP10
 10
0.0
 20
0.0
 30
0.0
  0
LINE
  5
2A2
  8
┌▓È_1
 62
     5
 10
873.2010177105999
 20
-106.86577985380001
 30
0.0
 11
841.2010177105999
 21
-106.86577985380001
 31
0.0
  0
LINE
  5
2A3
  8
┌▓È_1
 62
     5
 10
841.2010177105999
 20
-256.86577985380001
 30
0.0
 11
873.2010177105999
 21
-256.86577985380001
 31
0.0
  0
LINE
  5
2A4
  8
┌▓È_1
 62
     5
 10
841.2010177105999
 20
-252.36577985380001
 30
0.0
 11
873.2010177105999
 21
-252.36577985380001
 31
0.0
  0
LINE
  5
2A5
  8
┌▓È_1
 62
     5
 10
841.2010177105999
 20
-256.86577985380001
 30
0.0
 11
841.2010177105999
 21
-106.86577985380001
 31
0.0
  0
LINE
  5
2A6
  8
┌▓È_1
 62
     5
 10
873.2010177105999
 20
-256.86577985380001
 30
0.0
 11
873.2010177105999
 21
-106.86577985380001
 31
0.0
  0
LINE
  5
2A7
  8
┌▓È_1
  6
STITCH
 10
673.94639531480004
 20
-121.36577985380001
 30
0.0
 11
673.94639531480004
 21
-116.36577985380001
 31
0.0
  0
LINE
  5
2A8
  8
┌▓È_1
  6
STITCH
 10
674.94639531480004
 20
-116.36577985380001
 30
0.0
 11
674.94639531480004
 21
-121.36577985380001
 31
0.0
  0
ENDSEC
  0
EOF
