  0
SECTION
  2
HEADER
  9
$ACADVER
  1
AC1009
  9
$INSBASE
 10
0.0
 20
0.0
 30
0.0
  9
$EXTMIN
 10
494.5167382530999
 20
-458.18281325160001
 30
0.0
  9
$EXTMAX
 10
1182.0167382530999
 20
16.817186748400001
 30
0.0
  9
$LIMMIN
 10
0.0
 20
0.0
  9
$LIMMAX
 10
0.0
 20
0.0
  9
$ORTHOMODE
 70
     0
  9
$REGENMODE
 70
     1
  9
$FILLMODE
 70
     1
  9
$QTEXTMODE
 70
     0
  9
$MIRRTEXT
 70
     1
  9
$DRAGMODE
 70
     2
  9
$LTSCALE
 40
1.0
  9
$OSMODE
 70
    31
  9
$ATTMODE
 70
     1
  9
$TEXTSIZE
 40
0.0
  9
$TRACEWID
 40
0.05
  9
$TEXTSTYLE
  7
STANDARD
  9
$CLAYER
  8
0
  9
$CELTYPE
  6
CONTINUOUS
  9
$CECOLOR
 62
   256
  9
$DIMSCALE
 40
1.0
  9
$DIMASZ
 40
0.18
  9
$DIMEXO
 40
0.0625
  9
$DIMDLI
 40
0.38
  9
$DIMRND
 40
0.0
  9
$DIMDLE
 40
0.0
  9
$DIMEXE
 40
0.18
  9
$DIMTP
 40
0.0
  9
$DIMTM
 40
0.0
  9
$DIMTXT
 40
0.18
  9
$DIMCEN
 40
0.09
  9
$DIMTSZ
 40
0.0
  9
$DIMTOL
 70
     0
  9
$DIMLIM
 70
     0
  9
$DIMTIH
 70
     1
  9
$DIMTOH
 70
     1
  9
$DIMSE1
 70
     0
  9
$DIMSE2
 70
     0
  9
$DIMTAD
 70
     0
  9
$DIMZIN
 70
     0
  9
$DIMBLK
  1

  9
$DIMASO
 70
     1
  9
$DIMSHO
 70
     1
  9
$DIMPOST
  1

  9
$DIMAPOST
  1

  9
$DIMALT
 70
     0
  9
$DIMALTD
 70
     2
  9
$DIMALTF
 40
25.399999999999999
  9
$DIMLFAC
 40
1.0
  9
$DIMTOFL
 70
     0
  9
$DIMTVP
 40
0.0
  9
$DIMTIX
 70
     0
  9
$DIMSOXD
 70
     0
  9
$DIMSAH
 70
     0
  9
$DIMBLK1
  1

  9
$DIMBLK2
  1

  9
$DIMSTYLE
  2
STANDARD
  9
$DIMCLRD
 70
     0
  9
$DIMCLRE
 70
     0
  9
$DIMCLRT
 70
     0
  9
$DIMTFAC
 40
1.0
  9
$DIMGAP
 40
0.09
  9
$LUNITS
 70
     2
  9
$LUPREC
 70
     4
  9
$SKETCHINC
 40
0.1
  9
$FILLETRAD
 40
0.0
  9
$AUNITS
 70
     0
  9
$AUPREC
 70
     0
  9
$MENU
  1
acad
  9
$ELEVATION
 40
0.0
  9
$PELEVATION
 40
0.0
  9
$THICKNESS
 40
0.0
  9
$LIMCHECK
 70
     0
  9
$BLIPMODE
 70
     0
  9
$CHAMFERA
 40
0.0
  9
$CHAMFERB
 40
0.0
  9
$SKPOLY
 70
     0
  9
$TDCREATE
 40
2454862.7432998731
  9
$TDUPDATE
 40
2454862.743420498
  9
$TDINDWG
 40
0.0001291204
  9
$TDUSRTIMER
 40
0.0001287616
  9
$USRTIMER
 70
     1
  9
$ANGBASE
 50
0.0
  9
$ANGDIR
 70
     0
  9
$PDMODE
 70
     3
  9
$PDSIZE
 40
-1.0
  9
$PLINEWID
 40
0.0
  9
$COORDS
 70
     2
  9
$SPLFRAME
 70
     0
  9
$SPLINETYPE
 70
     6
  9
$SPLINESEGS
 70
     8
  9
$ATTDIA
 70
     0
  9
$ATTREQ
 70
     1
  9
$HANDLING
 70
     1
  9
$HANDSEED
  5
59D
  9
$SURFTAB1
 70
     6
  9
$SURFTAB2
 70
     6
  9
$SURFTYPE
 70
     6
  9
$SURFU
 70
     6
  9
$SURFV
 70
     6
  9
$UCSNAME
  2

  9
$UCSORG
 10
0.0
 20
0.0
 30
0.0
  9
$UCSXDIR
 10
1.0
 20
0.0
 30
0.0
  9
$UCSYDIR
 10
0.0
 20
1.0
 30
0.0
  9
$PUCSNAME
  2

  9
$PUCSORG
 10
0.0
 20
0.0
 30
0.0
  9
$PUCSXDIR
 10
1.0
 20
0.0
 30
0.0
  9
$PUCSYDIR
 10
0.0
 20
1.0
 30
0.0
  9
$USERI1
 70
     0
  9
$USERI2
 70
     0
  9
$USERI3
 70
     0
  9
$USERI4
 70
     0
  9
$USERI5
 70
     0
  9
$USERR1
 40
0.0
  9
$USERR2
 40
0.0
  9
$USERR3
 40
0.0
  9
$USERR4
 40
0.0
  9
$USERR5
 40
0.0
  9
$WORLDVIEW
 70
     1
  9
$SHADEDGE
 70
     3
  9
$SHADEDIF
 70
    70
  9
$TILEMODE
 70
     1
  9
$MAXACTVP
 70
    16
  9
$PLIMCHECK
 70
     0
  9
$PEXTMIN
 10
1.0000000000000000E+020
 20
1.0000000000000000E+020
 30
1.0000000000000000E+020
  9
$PEXTMAX
 10
-1.0000000000000000E+020
 20
-1.0000000000000000E+020
 30
-1.0000000000000000E+020
  9
$PLIMMIN
 10
0.0
 20
0.0
  9
$PLIMMAX
 10
12.0
 20
9.0
  9
$UNITMODE
 70
     0
  9
$VISRETAIN
 70
     0
  9
$PLINEGEN
 70
     1
  9
$PSLTSCALE
 70
     0
  0
ENDSEC
  0
SECTION
  2
TABLES
  0
TABLE
  2
VPORT
 70
     2
  0
VPORT
  2
*ACTIVE
 70
     0
 10
0.0
 20
0.0
 11
1.0
 21
1.0
 12
838.26673825309979
 22
-220.68281325160001
 13
0.0
 23
0.0
 14
1.0
 24
1.0
 15
0.0
 25
0.0
 16
0.0
 26
0.0
 36
1.0
 17
0.0
 27
0.0
 37
0.0
 40
497.4823198093647
 41
1.3903818953323901
 42
50.0
 43
0.0
 44
0.0
 50
0.0
 51
0.0
 71
     0
 72
   100
 73
     1
 74
     1
 75
     0
 76
     0
 77
     0
 78
     0
  0
ENDTAB
  0
TABLE
  2
LTYPE
 70
    11
  0
LTYPE
  2
CONTINUOUS
 70
     0
  3
Solid line
 72
    65
 73
     0
 40
0.0
  0
LTYPE
  2
DOT
 70
     0
  3
. . . . . . . . 
 72
    65
 73
     2
 40
1.0
 49
0.0
 49
-1.0
  0
LTYPE
  2
DASHED
 70
     0
  3
___  ___  ___  ___  
 72
    65
 73
     2
 40
4.0
 49
3.0
 49
-1.0
  0
LTYPE
  2
HIDDEN
 70
     0
  3
__ __ __ __ 
 72
    65
 73
     2
 40
3.0
 49
2.0
 49
-1.0
  0
LTYPE
  2
STITCH
 70
     0
  3
_ _ _ _ 
 72
    65
 73
     2
 40
2.0
 49
1.0
 49
-1.0
  0
LTYPE
  2
CENTER
 70
     0
  3
______  __  ______  __  
 72
    65
 73
     4
 40
43.0
 49
40.0
 49
-1.0
 49
1.0
 49
-1.0
  0
LTYPE
  2
DASHDOT
 70
     0
  3
____ . ____ . 
 72
    65
 73
     4
 40
32.0
 49
30.0
 49
-1.0
 49
0.0
 49
-1.0
  0
LTYPE
  2
BORDER
 70
     0
  3
__ . __ . 
 72
    65
 73
     4
 40
22.0
 49
20.0
 49
-1.0
 49
0.0
 49
-1.0
  0
LTYPE
  2
CUTTING
 70
     0
  3
________   ___   ___   
 72
    65
 73
     6
 40
45.0
 49
40.0
 49
-1.0
 49
1.0
 49
-1.0
 49
1.0
 49
-1.0
  0
LTYPE
  2
PHANTOM
 70
     0
  3
______  __  __  
 72
    65
 73
     6
 40
35.0
 49
30.0
 49
-1.0
 49
1.0
 49
-1.0
 49
1.0
 49
-1.0
  0
LTYPE
  2
DIVIDE
 70
     0
  3
____ . . ____ . . 
 72
    65
 73
     6
 40
23.0
 49
20.0
 49
-1.0
 49
0.0
 49
-1.0
 49
0.0
 49
-1.0
  0
ENDTAB
  0
TABLE
  2
LAYER
 70
     4
  0
LAYER
  2
0
 70
     0
 62
     7
  6
CONTINUOUS
  0
LAYER
  2
Éíû@É³
 70
     0
 62
     7
  6
CONTINUOUS
  0
LAYER
  2
┌▓È_1
 70
     0
 62
     7
  6
CONTINUOUS
  0
LAYER
  2
Defpoints
 70
     0
 62
     7
  6
CONTINUOUS
  0
ENDTAB
  0
TABLE
  2
STYLE
 70
     1
  0
STYLE
  2
STANDARD
 70
     0
 40
0.0
 41
1.0
 50
0.0
 71
     0
 42
0.0
  3
txt
  4
extfont
  0
ENDTAB
  0
TABLE
  2
VIEW
 70
     0
  0
ENDTAB
  0
TABLE
  2
UCS
 70
     0
  0
ENDTAB
  0
TABLE
  2
APPID
 70
     2
  0
APPID
  2
ACAD
 70
     0
  0
APPID
  2
DCO15
 70
     0
  0
ENDTAB
  0
TABLE
  2
DIMSTYLE
 70
     3
  0
DIMSTYLE
  2
STANDARD
 70
     0
  3

  4

  5

  6

  7

 40
1.0
 41
0.18
 42
0.0625
 43
0.38
 44
0.18
 45
0.0
 46
0.0
 47
0.0
 48
0.0
140
0.18
141
0.09
142
0.0
143
25.399999999999999
144
1.0
145
0.0
146
1.0
147
0.09
 71
     0
 72
     0
 73
     1
 74
     1
 75
     0
 76
     0
 77
     0
 78
     0
170
     0
171
     2
172
     0
173
     0
174
     0
175
     0
176
     0
177
     0
178
     0
  0
DIMSTYLE
  2
VELDIM0
 70
     0
  3

  4

  5

  6

  7

 40
1.0
 41
7.5
 42
0.0625
 43
0.38
 44
0.5
 45
0.0
 46
3.0
 47
0.0
 48
0.0
140
7.4965279578999988
141
0.09
142
0.0
143
25.399999999999999
144
1.0
145
0.0
146
1.0
147
0.09
 71
     0
 72
     0
 73
     0
 74
     0
 75
     0
 76
     0
 77
     0
 78
     8
170
     0
171
     2
172
     0
173
     0
174
     0
175
     0
176
     0
177
     0
178
     0
  0
DIMSTYLE
  2
VELDIM1
 70
     0
  3

  4

  5

  6

  7

 40
1.0
 41
7.5
 42
0.0625
 43
0.38
 44
1.25
 45
0.0
 46
5.0
 47
0.0
 48
0.0
140
7.4965279578999988
141
0.09
142
0.0
143
25.399999999999999
144
1.0
145
0.0
146
1.0
147
0.09
 71
     0
 72
     0
 73
     0
 74
     0
 75
     0
 76
     0
 77
     0
 78
     8
170
     0
171
     2
172
     0
173
     0
174
     0
175
     0
176
     0
177
     0
178
     0
  0
ENDTAB
  0
ENDSEC
  0
SECTION
  2
BLOCKS
  0
BLOCK
  8
0
  2
$MODEL_SPACE
 70
     0
 10
0.0
 20
0.0
 30
0.0
  3
$MODEL_SPACE
  1

  0
ENDBLK
  5
E
  8
0
  0
BLOCK
 67
     1
  8
0
  2
$PAPER_SPACE
 70
     0
 10
0.0
 20
0.0
 30
0.0
  3
$PAPER_SPACE
  1

  0
ENDBLK
  5
10
 67
     1
  8
0
  0
BLOCK
  8
0
  2
*D0
 70
     1
 10
0.0
 20
0.0
 30
0.0
  3
*D0
  1

  0
TEXT
  5
31
  8
0
 62
     0
 10
624.67306399599988
 20
-32.957775545600001
 30
0.0
 40
7.4965279578999988
  1
4.5t
  0
LINE
  5
32
  8
0
 62
     0
 10
620.45430335720005
 20
-68.809320275499999
 30
0.0
 11
620.45430335720005
 21
-34.780692244099988
 31
0.0
  0
LINE
  5
33
  8
0
 62
     0
 10
615.95430335720005
 20
-68.809320275499999
 30
0.0
 11
615.95430335720005
 21
-34.780692244099988
 31
0.0
  0
LINE
  5
34
  8
0
 62
     0
 10
620.45430335720005
 20
-35.280692244100003
 30
0.0
 11
646.72167563690004
 21
-35.280692244100003
 31
0.0
  0
LINE
  5
35
  8
0
 62
     0
 10
620.45430335720005
 20
-35.280692244100003
 30
0.0
 11
620.26334166779998
 21
-35.280692244100003
 31
0.0
  0
LINE
  5
36
  8
0
 62
     0
 10
615.95430335720005
 20
-35.280692244100003
 30
0.0
 11
646.72167563690004
 21
-35.280692244100003
 31
0.0
  0
LINE
  5
37
  8
0
 62
     0
 10
615.95430335720005
 20
-35.280692244100003
 30
0.0
 11
620.26334166779998
 21
-35.280692244100003
 31
0.0
  0
LINE
  5
38
  8
0
 62
     0
 10
615.95430335720005
 20
-35.280692244100003
 30
0.0
 11
612.95430335720005
 21
-35.280692244100003
 31
0.0
  0
SOLID
  5
39
  8
0
 62
     0
 10
615.95430335720005
 20
-35.280692244100003
 30
0.0
 11
608.45430335720005
 21
-37.155692244100003
 31
0.0
 12
608.45430335720005
 22
-33.405692244100003
 32
0.0
 13
610.32930335720005
 23
-35.280692244100003
 33
0.0
  0
LINE
  5
3A
  8
0
 62
     0
 10
620.45430335720005
 20
-35.280692244100003
 30
0.0
 11
623.45430335720005
 21
-35.280692244100003
 31
0.0
  0
SOLID
  5
3B
  8
0
 62
     0
 10
620.45430335720005
 20
-35.280692244100003
 30
0.0
 11
627.95430335720005
 21
-33.405692244100003
 31
0.0
 12
627.95430335720005
 22
-37.155692244100003
 32
0.0
 13
626.07930335720005
 23
-35.280692244100003
 33
0.0
  0
ENDBLK
  5
3C
  8
0
  0
BLOCK
  8
0
  2
*D1
 70
     1
 10
0.0
 20
0.0
 30
0.0
  3
*D1
  1

  0
TEXT
  5
41
  8
0
 62
     0
 10
906.58080514000005
 20
-189.2276145145
 30
0.0
 40
7.4965279578999988
  1
10
  0
LINE
  5
42
  8
0
 62
     0
 10
916.42790043869991
 20
-234.5593202755
 30
0.0
 11
916.42790043869991
 21
-191.050531213
 31
0.0
  0
LINE
  5
43
  8
0
 62
     0
 10
906.42790043870002
 20
-167.8093202755
 30
0.0
 11
906.42790043870002
 21
-192.050531213
 31
0.0
  0
LINE
  5
44
  8
0
 62
     0
 10
916.42790043869991
 20
-191.550531213
 30
0.0
 11
916.42790043869991
 21
-191.550531213
 31
0.0
  0
LINE
  5
45
  8
0
 62
     0
 10
916.42790043869991
 20
-191.550531213
 30
0.0
 11
906.42790043870002
 21
-191.550531213
 31
0.0
  0
LINE
  5
46
  8
0
 62
     0
 10
906.42790043870002
 20
-191.550531213
 30
0.0
 11
916.42790043869991
 21
-191.550531213
 31
0.0
  0
LINE
  5
47
  8
0
 62
     0
 10
906.42790043870002
 20
-191.550531213
 30
0.0
 11
906.42790043870002
 21
-191.550531213
 31
0.0
  0
LINE
  5
48
  8
0
 62
     0
 10
906.42790043870002
 20
-191.550531213
 30
0.0
 11
903.42790043869979
 21
-191.550531213
 31
0.0
  0
SOLID
  5
49
  8
0
 62
     0
 10
906.42790043870002
 20
-191.550531213
 30
0.0
 11
898.92790043869991
 21
-193.425531213
 31
0.0
 12
898.92790043869991
 22
-189.675531213
 32
0.0
 13
900.80290043869991
 23
-191.550531213
 33
0.0
  0
LINE
  5
4A
  8
0
 62
     0
 10
916.42790043869991
 20
-191.550531213
 30
0.0
 11
919.42790043869991
 21
-191.550531213
 31
0.0
  0
SOLID
  5
4B
  8
0
 62
     0
 10
916.42790043869991
 20
-191.550531213
 30
0.0
 11
923.92790043869991
 21
-189.675531213
 31
0.0
 12
923.92790043869991
 22
-193.425531213
 32
0.0
 13
922.05290043870002
 23
-191.550531213
 33
0.0
  0
ENDBLK
  5
4C
  8
0
  0
BLOCK
  8
0
  2
*D2
 70
     1
 10
0.0
 20
0.0
 30
0.0
  3
*D2
  1

  0
TEXT
  5
53
  8
0
 62
     0
 10
1053.5867692739
 20
-103.2377234623
 30
0.0
 40
7.4965279578999988
  1
%%c5
  0
LINE
  5
54
  8
0
 62
     0
 10
1072.7013527662
 20
-135.7524917232
 30
0.0
 11
1072.7013527662
 21
-105.0606401607
 31
0.0
  0
LINE
  5
55
  8
0
 62
     0
 10
1047.7013527662
 20
-135.7524917232
 30
0.0
 11
1047.7013527662
 21
-105.0606401607
 31
0.0
  0
LINE
  5
56
  8
0
 62
     0
 10
1072.7013527662
 20
-105.5606401607
 30
0.0
 11
1071.2256585867001
 21
-105.5606401607
 31
0.0
  0
LINE
  5
57
  8
0
 62
     0
 10
1072.7013527662
 20
-105.5606401607
 30
0.0
 11
1049.1770469457999
 21
-105.5606401607
 31
0.0
  0
LINE
  5
58
  8
0
 62
     0
 10
1047.7013527662
 20
-105.5606401607
 30
0.0
 11
1071.2256585867001
 21
-105.5606401607
 31
0.0
  0
LINE
  5
59
  8
0
 62
     0
 10
1047.7013527662
 20
-105.5606401607
 30
0.0
 11
1049.1770469457999
 21
-105.5606401607
 31
0.0
  0
LINE
  5
5A
  8
0
 62
     0
 10
1047.7013527662
 20
-105.5606401607
 30
0.0
 11
1044.7013527662
 21
-105.5606401607
 31
0.0
  0
SOLID
  5
5B
  8
0
 62
     0
 10
1047.7013527662
 20
-105.5606401607
 30
0.0
 11
1040.2013527662
 21
-107.4356401607
 31
0.0
 12
1040.2013527662
 22
-103.6856401607
 32
0.0
 13
1042.0763527662
 23
-105.5606401607
 33
0.0
  0
LINE
  5
5C
  8
0
 62
     0
 10
1072.7013527662
 20
-105.5606401607
 30
0.0
 11
1075.7013527662
 21
-105.5606401607
 31
0.0
  0
SOLID
  5
5D
  8
0
 62
     0
 10
1072.7013527662
 20
-105.5606401607
 30
0.0
 11
1080.2013527662
 21
-103.6856401607
 31
0.0
 12
1080.2013527662
 22
-107.4356401607
 32
0.0
 13
1078.3263527662
 23
-105.5606401607
 33
0.0
  0
ENDBLK
  5
5E
  8
0
  0
BLOCK
  8
0
  2
*D3
 70
     1
 10
0.0
 20
0.0
 30
0.0
  3
*D3
  1

  0
TEXT
  5
62
  8
0
 62
     0
 10
1049.1770469457999
 20
-166.58627872849999
 30
0.0
 40
7.4965279578999988
  1
%%c8.5
  0
LINE
  5
63
  8
0
 62
     0
 10
1038.9513527662
 20
-151.5024917232
 30
0.0
 11
1038.9513527662
 21
-169.4091954269
 31
0.0
  0
LINE
  5
64
  8
0
 62
     0
 10
1081.4513527662
 20
-151.5024917232
 30
0.0
 11
1081.4513527662
 21
-169.4091954269
 31
0.0
  0
LINE
  5
65
  8
0
 62
     0
 10
1038.9513527662
 20
-168.9091954269
 30
0.0
 11
1075.6353809149
 21
-168.9091954269
 31
0.0
  0
LINE
  5
66
  8
0
 62
     0
 10
1038.9513527662
 20
-168.9091954269
 30
0.0
 11
1044.7673246176
 21
-168.9091954269
 31
0.0
  0
LINE
  5
67
  8
0
 62
     0
 10
1081.4513527662
 20
-168.9091954269
 30
0.0
 11
1075.6353809149
 21
-168.9091954269
 31
0.0
  0
LINE
  5
68
  8
0
 62
     0
 10
1081.4513527662
 20
-168.9091954269
 30
0.0
 11
1044.7673246176
 21
-168.9091954269
 31
0.0
  0
LINE
  5
69
  8
0
 62
     0
 10
1081.4513527662
 20
-168.9091954269
 30
0.0
 11
1084.4513527662
 21
-168.9091954269
 31
0.0
  0
SOLID
  5
6A
  8
0
 62
     0
 10
1081.4513527662
 20
-168.9091954269
 30
0.0
 11
1088.9513527662
 21
-167.0341954269
 31
0.0
 12
1088.9513527662
 22
-170.7841954269
 32
0.0
 13
1087.0763527662
 23
-168.9091954269
 33
0.0
  0
LINE
  5
6B
  8
0
 62
     0
 10
1038.9513527662
 20
-168.9091954269
 30
0.0
 11
1035.9513527662
 21
-168.9091954269
 31
0.0
  0
SOLID
  5
6C
  8
0
 62
     0
 10
1038.9513527662
 20
-168.9091954269
 30
0.0
 11
1031.4513527662
 21
-170.7841954269
 31
0.0
 12
1031.4513527662
 22
-167.0341954269
 32
0.0
 13
1033.3263527662
 23
-168.9091954269
 33
0.0
  0
ENDBLK
  5
6D
  8
0
  0
BLOCK
  8
0
  2
*D4
 70
     1
 10
0.0
 20
0.0
 30
0.0
  3
*D4
  1

  0
TEXT
  5
71
  8
0
 62
     0
 10
1049.1770469457999
 20
-83.910737785199998
 30
0.0
 40
7.4965279578999988
  1
%%c8.5
  0
LINE
  5
72
  8
0
 62
     0
 10
1081.4513527662
 20
-127.0024917232
 30
0.0
 11
1081.4513527662
 21
-85.733654483599977
 31
0.0
  0
LINE
  5
73
  8
0
 62
     0
 10
1038.9513527662
 20
-127.0024917232
 30
0.0
 11
1038.9513527662
 21
-85.733654483599977
 31
0.0
  0
LINE
  5
74
  8
0
 62
     0
 10
1081.4513527662
 20
-86.233654483600006
 30
0.0
 11
1075.6353809149
 21
-86.233654483600006
 31
0.0
  0
LINE
  5
75
  8
0
 62
     0
 10
1081.4513527662
 20
-86.233654483600006
 30
0.0
 11
1044.7673246176
 21
-86.233654483600006
 31
0.0
  0
LINE
  5
76
  8
0
 62
     0
 10
1038.9513527662
 20
-86.233654483600006
 30
0.0
 11
1075.6353809149
 21
-86.233654483600006
 31
0.0
  0
LINE
  5
77
  8
0
 62
     0
 10
1038.9513527662
 20
-86.233654483600006
 30
0.0
 11
1044.7673246176
 21
-86.233654483600006
 31
0.0
  0
LINE
  5
78
  8
0
 62
     0
 10
1038.9513527662
 20
-86.233654483600006
 30
0.0
 11
1035.9513527662
 21
-86.233654483600006
 31
0.0
  0
SOLID
  5
79
  8
0
 62
     0
 10
1038.9513527662
 20
-86.233654483600006
 30
0.0
 11
1031.4513527662
 21
-88.108654483600006
 31
0.0
 12
1031.4513527662
 22
-84.358654483599992
 32
0.0
 13
1033.3263527662
 23
-86.233654483600006
 33
0.0
  0
LINE
  5
7A
  8
0
 62
     0
 10
1081.4513527662
 20
-86.233654483600006
 30
0.0
 11
1084.4513527662
 21
-86.233654483600006
 31
0.0
  0
SOLID
  5
7B
  8
0
 62
     0
 10
1081.4513527662
 20
-86.233654483600006
 30
0.0
 11
1088.9513527662
 21
-84.358654483599992
 31
0.0
 12
1088.9513527662
 22
-88.108654483600006
 32
0.0
 13
1087.0763527662
 23
-86.233654483600006
 33
0.0
  0
ENDBLK
  5
7C
  8
0
  0
BLOCK
  8
0
  2
*D5
 70
     1
 10
0.0
 20
0.0
 30
0.0
  3
*D5
  1

  0
TEXT
  5
81
  8
0
 62
     0
 10
1053.5867692739
 20
-66.4410111591
 30
0.0
 40
7.4965279578999988
  1
90%%d
  0
ARC
  5
82
  8
0
 62
     0
 10
1060.2013527662
 20
-149.2524917232
 30
0.0
 40
78.842730468799999
 50
128.1139541956
 51
135.0
  0
ARC
  5
83
  8
0
 62
     0
 10
1060.2013527662
 20
-149.2524917232
 30
0.0
 40
78.842730468799999
 50
45.0
 51
51.886045804399991
  0
SOLID
  5
84
  8
0
 62
     0
 10
1115.9515821279001
 20
-93.502262361500001
 30
0.0
 11
1122.5807082015999
 21
-97.479738005700014
 31
0.0
 12
1119.9290577720999
 22
-100.13138843510001
 32
0.0
 13
1119.9290577720999
 23
-97.479738005700014
 33
0.0
  0
SOLID
  5
85
  8
0
 62
     0
 10
1004.4511234045
 20
-93.502262361500001
 30
0.0
 11
1000.4736477603
 21
-100.13138843510001
 31
0.0
 12
997.82199733089999
 22
-97.479738005700014
 32
0.0
 13
1000.4736477603
 23
-97.479738005700014
 33
0.0
  0
ARC
  5
86
  8
0
 62
     0
 10
1060.2013527662
 20
-149.2524917232
 30
0.0
 40
78.842730468799999
 50
45.0
 51
81.860396582899995
  0
ARC
  5
87
  8
0
 62
     0
 10
1060.2013527662
 20
-149.2524917232
 30
0.0
 40
78.842730468799999
 50
98.139603417100005
 51
135.0
  0
LINE
  5
88
  8
0
 62
     0
 10
1084.4622673156
 20
-124.9915771738
 30
0.0
 11
1118.9624966772999
 21
-90.491347812099974
 31
0.0
  0
LINE
  5
89
  8
0
 62
     0
 10
1035.9404382168
 20
-124.9915771738
 30
0.0
 11
1001.4402088551
 21
-90.491347812099974
 31
0.0
  0
ENDBLK
  5
8A
  8
0
  0
BLOCK
  8
0
  2
*D6
 70
     1
 10
0.0
 20
0.0
 30
0.0
  3
*D6
  1

  0
TEXT
  5
8E
  8
0
 62
     0
 10
1053.5867692739
 20
-185.92782756540001
 30
0.0
 40
7.4965279578999988
  1
90%%d
  0
ARC
  5
8F
  8
0
 62
     0
 10
1060.2013527662
 20
-129.2524917232
 30
0.0
 40
60.644085937500002
 50
305.57732192179998
 51
315.0
  0
ARC
  5
90
  8
0
 62
     0
 10
1060.2013527662
 20
-129.2524917232
 30
0.0
 40
60.644085937500002
 50
225.0
 51
234.42267807819999
  0
SOLID
  5
91
  8
0
 62
     0
 10
1017.3195083609
 20
-172.1343361285
 30
0.0
 11
1010.6903822873001
 21
-168.15686048430001
 31
0.0
 12
1013.3420327168
 22
-165.5052100549
 32
0.0
 13
1013.3420327168
 23
-168.15686048430001
 33
0.0
  0
SOLID
  5
92
  8
0
 62
     0
 10
1103.0831971714999
 20
-172.1343361285
 30
0.0
 11
1107.0606728156999
 21
-165.5052100549
 31
0.0
 12
1109.7123232450999
 22
-168.15686048430001
 32
0.0
 13
1107.0606728156999
 23
-168.15686048430001
 33
0.0
  0
ARC
  5
93
  8
0
 62
     0
 10
1060.2013527662
 20
-129.2524917232
 30
0.0
 40
60.644085937500002
 50
225.0
 51
256.16625301400001
  0
ARC
  5
94
  8
0
 62
     0
 10
1060.2013527662
 20
-129.2524917232
 30
0.0
 40
60.644085937500002
 50
283.83374698599999
 51
315.0
  0
LINE
  5
95
  8
0
 62
     0
 10
1035.9404382168
 20
-153.5134062727
 30
0.0
 11
1014.3085938115
 21
-175.14525067790001
 31
0.0
  0
LINE
  5
96
  8
0
 62
     0
 10
1084.4622673156
 20
-153.5134062727
 30
0.0
 11
1106.0941117208999
 21
-175.14525067790001
 31
0.0
  0
ENDBLK
  5
97
  8
0
  0
BLOCK
  8
0
  2
CLUMP0
 70
     0
 10
0.0
 20
0.0
 30
0.0
  3
CLUMP0
  1

  0
CIRCLE
  5
A8
  8
┌▓È_1
 62
     5
 10
916.42790043869991
 20
-239.8093202755
 30
0.0
 40
4.25
  0
CIRCLE
  5
A9
  8
┌▓È_1
 62
     5
 10
916.42790043869991
 20
-239.8093202755
 30
0.0
 40
2.5
  0
LINE
  5
AA
  8
┌▓È_1
  6
BORDER
 62
     3
 10
922.42790043869979
 20
-239.8093202755
 30
0.0
 11
910.42790043869991
 21
-239.8093202755
 31
0.0
  0
LINE
  5
AB
  8
┌▓È_1
  6
BORDER
 62
     3
 10
916.42790043869991
 20
-233.8093202755
 30
0.0
 11
916.42790043869991
 21
-245.8093202755
 31
0.0
  0
ENDBLK
  5
AC
  8
0
  0
BLOCK
  8
0
  2
CLUMP1
 70
     0
 10
0.0
 20
0.0
 30
0.0
  3
CLUMP1
  1

  0
CIRCLE
  5
B0
  8
┌▓È_1
 62
     5
 10
906.42790043870002
 20
-160.8093202755
 30
0.0
 40
2.5
  0
CIRCLE
  5
B1
  8
┌▓È_1
 62
     5
 10
906.42790043870002
 20
-160.8093202755
 30
0.0
 40
4.25
  0
LINE
  5
B2
  8
┌▓È_1
  6
BORDER
 62
     3
 10
906.42790043870002
 20
-154.8093202755
 30
0.0
 11
906.42790043870002
 21
-166.8093202755
 31
0.0
  0
LINE
  5
B3
  8
┌▓È_1
  6
BORDER
 62
     3
 10
900.42790043869991
 20
-160.8093202755
 30
0.0
 11
912.42790043869979
 21
-160.8093202755
 31
0.0
  0
ENDBLK
  5
B4
  8
0
  0
BLOCK
  8
0
  2
*D9
 70
     1
 10
0.0
 20
0.0
 30
0.0
  3
*D9
  1

  0
TEXT
  5
B7
  8
0
 62
     0
 10
896.51817811059982
 20
-124.8181093062
 30
0.0
 40
7.4965279578999988
  1
11
  0
LINE
  5
B8
  8
0
 62
     0
 10
906.42790043870002
 20
-153.8093202755
 30
0.0
 11
906.42790043870002
 21
-126.64102600459999
 31
0.0
  0
LINE
  5
B9
  8
0
 62
     0
 10
895.42790043869979
 20
-147.43140838990001
 30
0.0
 11
895.42790043869979
 21
-126.64102600459999
 31
0.0
  0
LINE
  5
BA
  8
0
 62
     0
 10
906.42790043870002
 20
-127.14102600459999
 30
0.0
 11
906.42790043870002
 21
-127.14102600459999
 31
0.0
  0
LINE
  5
BB
  8
0
 62
     0
 10
906.42790043870002
 20
-127.14102600459999
 30
0.0
 11
895.42790043869979
 21
-127.14102600459999
 31
0.0
  0
LINE
  5
BC
  8
0
 62
     0
 10
895.42790043869979
 20
-127.14102600459999
 30
0.0
 11
906.42790043870002
 21
-127.14102600459999
 31
0.0
  0
LINE
  5
BD
  8
0
 62
     0
 10
895.42790043869979
 20
-127.14102600459999
 30
0.0
 11
895.42790043869979
 21
-127.14102600459999
 31
0.0
  0
LINE
  5
BE
  8
0
 62
     0
 10
895.42790043869979
 20
-127.14102600459999
 30
0.0
 11
892.42790043869991
 21
-127.14102600459999
 31
0.0
  0
SOLID
  5
BF
  8
0
 62
     0
 10
895.42790043869979
 20
-127.14102600459999
 30
0.0
 11
887.92790043869991
 21
-129.01602600460001
 31
0.0
 12
887.92790043869991
 22
-125.26602600459999
 32
0.0
 13
889.80290043869979
 23
-127.14102600459999
 33
0.0
  0
LINE
  5
C0
  8
0
 62
     0
 10
906.42790043870002
 20
-127.14102600459999
 30
0.0
 11
909.42790043869991
 21
-127.14102600459999
 31
0.0
  0
SOLID
  5
C1
  8
0
 62
     0
 10
906.42790043870002
 20
-127.14102600459999
 30
0.0
 11
913.92790043869991
 21
-125.26602600459999
 31
0.0
 12
913.92790043869991
 22
-129.01602600460001
 32
0.0
 13
912.05290043869979
 23
-127.14102600459999
 33
0.0
  0
ENDBLK
  5
C2
  8
0
  0
BLOCK
  8
0
  2
*D10
 70
     1
 10
0.0
 20
0.0
 30
0.0
  3
*D10
  1

  0
TEXT
  5
C6
  8
0
 62
     0
 10
907.01817811059993
 20
-29.4437781498
 30
0.0
 40
7.4965279578999988
  1
32
  0
LINE
  5
C7
  8
0
 62
     0
 10
927.42790043869991
 20
-68.809320275499999
 30
0.0
 11
927.42790043869991
 21
-31.2666948482
 31
0.0
  0
LINE
  5
C8
  8
0
 62
     0
 10
895.42790043869979
 20
-68.809320275499999
 30
0.0
 11
895.42790043869979
 21
-31.2666948482
 31
0.0
  0
LINE
  5
C9
  8
0
 62
     0
 10
927.42790043869991
 20
-31.7666948482
 30
0.0
 11
920.24734509509994
 21
-31.7666948482
 31
0.0
  0
LINE
  5
CA
  8
0
 62
     0
 10
927.42790043869991
 20
-31.7666948482
 30
0.0
 11
902.60845578240014
 21
-31.7666948482
 31
0.0
  0
LINE
  5
CB
  8
0
 62
     0
 10
895.42790043869979
 20
-31.7666948482
 30
0.0
 11
920.24734509509994
 21
-31.7666948482
 31
0.0
  0
LINE
  5
CC
  8
0
 62
     0
 10
895.42790043869979
 20
-31.7666948482
 30
0.0
 11
902.60845578240014
 21
-31.7666948482
 31
0.0
  0
LINE
  5
CD
  8
0
 62
     0
 10
895.42790043869979
 20
-31.7666948482
 30
0.0
 11
892.42790043869991
 21
-31.7666948482
 31
0.0
  0
SOLID
  5
CE
  8
0
 62
     0
 10
895.42790043869979
 20
-31.7666948482
 30
0.0
 11
887.92790043869991
 21
-33.641694848199997
 31
0.0
 12
887.92790043869991
 22
-29.8916948482
 32
0.0
 13
889.80290043869979
 23
-31.7666948482
 33
0.0
  0
LINE
  5
CF
  8
0
 62
     0
 10
927.42790043869991
 20
-31.7666948482
 30
0.0
 11
930.42790043869979
 21
-31.7666948482
 31
0.0
  0
SOLID
  5
D0
  8
0
 62
     0
 10
927.42790043869991
 20
-31.7666948482
 30
0.0
 11
934.92790043869979
 21
-29.8916948482
 31
0.0
 12
934.92790043869979
 22
-33.641694848199997
 32
0.0
 13
933.05290043869991
 23
-31.7666948482
 33
0.0
  0
ENDBLK
  5
D1
  8
0
  0
BLOCK
  8
0
  2
*D11
 70
     1
 10
0.0
 20
0.0
 30
0.0
  3
*D11
  1

  0
TEXT
  5
D5
  8
0
 62
     0
 10
592.30228509630001
 20
-388.87163714219997
 30
0.0
 40
7.4965279578999988
  1
32
 50
90.0
  0
LINE
  5
D6
  8
0
 62
     0
 10
614.95430335720005
 20
-368.4619148141
 30
0.0
 11
594.12520179470005
 21
-368.4619148141
 31
0.0
  0
LINE
  5
D7
  8
0
 62
     0
 10
614.95430335720005
 20
-400.4619148141
 30
0.0
 11
594.12520179470005
 21
-400.4619148141
 31
0.0
  0
LINE
  5
D8
  8
0
 62
     0
 10
594.62520179470005
 20
-368.4619148141
 30
0.0
 11
594.62520179470005
 21
-375.64247015770002
 31
0.0
  0
LINE
  5
D9
  8
0
 62
     0
 10
594.62520179470005
 20
-368.4619148141
 30
0.0
 11
594.62520179470005
 21
-393.28135947039999
 31
0.0
  0
LINE
  5
DA
  8
0
 62
     0
 10
594.62520179470005
 20
-400.4619148141
 30
0.0
 11
594.62520179470005
 21
-375.64247015770002
 31
0.0
  0
LINE
  5
DB
  8
0
 62
     0
 10
594.62520179470005
 20
-400.4619148141
 30
0.0
 11
594.62520179470005
 21
-393.28135947039999
 31
0.0
  0
LINE
  5
DC
  8
0
 62
     0
 10
594.62520179470005
 20
-400.4619148141
 30
0.0
 11
594.62520179470005
 21
-403.4619148141
 31
0.0
  0
SOLID
  5
DD
  8
0
 62
     0
 10
594.62520179470005
 20
-400.4619148141
 30
0.0
 11
596.50020179470005
 21
-407.9619148141
 31
0.0
 12
592.75020179470005
 22
-407.9619148141
 32
0.0
 13
594.62520179470005
 23
-406.0869148141
 33
0.0
  0
LINE
  5
DE
  8
0
 62
     0
 10
594.62520179470005
 20
-368.4619148141
 30
0.0
 11
594.62520179470005
 21
-365.46191481410011
 31
0.0
  0
SOLID
  5
DF
  8
0
 62
     0
 10
594.62520179470005
 20
-368.4619148141
 30
0.0
 11
592.75020179470005
 21
-360.96191481410011
 31
0.0
 12
596.50020179470005
 22
-360.96191481410011
 32
0.0
 13
594.62520179470005
 23
-362.8369148141
 33
0.0
  0
ENDBLK
  5
E0
  8
0
  0
BLOCK
  8
0
  2
*D12
 70
     1
 10
0.0
 20
0.0
 30
0.0
  3
*D12
  1

  0
TEXT
  5
E4
  8
0
 62
     0
 10
674.56052229919999
 20
-378.37163714219997
 30
0.0
 40
7.4965279578999988
  1
11
 50
90.0
  0
LINE
  5
E5
  8
0
 62
     0
 10
652.95430335720005
 20
-379.46191481410011
 30
0.0
 11
677.38343899769995
 21
-379.46191481410011
 31
0.0
  0
LINE
  5
E6
  8
0
 62
     0
 10
656.59305661239989
 20
-368.4619148141
 30
0.0
 11
677.38343899769995
 21
-368.4619148141
 31
0.0
  0
LINE
  5
E7
  8
0
 62
     0
 10
676.88343899769995
 20
-379.46191481410011
 30
0.0
 11
676.88343899769995
 21
-379.46191481410011
 31
0.0
  0
LINE
  5
E8
  8
0
 62
     0
 10
676.88343899769995
 20
-379.46191481410011
 30
0.0
 11
676.88343899769995
 21
-368.4619148141
 31
0.0
  0
LINE
  5
E9
  8
0
 62
     0
 10
676.88343899769995
 20
-368.4619148141
 30
0.0
 11
676.88343899769995
 21
-379.46191481410011
 31
0.0
  0
LINE
  5
EA
  8
0
 62
     0
 10
676.88343899769995
 20
-368.4619148141
 30
0.0
 11
676.88343899769995
 21
-368.4619148141
 31
0.0
  0
LINE
  5
EB
  8
0
 62
     0
 10
676.88343899769995
 20
-368.4619148141
 30
0.0
 11
676.88343899769995
 21
-365.46191481410011
 31
0.0
  0
SOLID
  5
EC
  8
0
 62
     0
 10
676.88343899769995
 20
-368.4619148141
 30
0.0
 11
675.00843899769995
 21
-360.96191481410011
 31
0.0
 12
678.75843899769995
 22
-360.96191481410011
 32
0.0
 13
676.88343899769995
 23
-362.8369148141
 33
0.0
  0
LINE
  5
ED
  8
0
 62
     0
 10
676.88343899769995
 20
-379.46191481410011
 30
0.0
 11
676.88343899769995
 21
-382.46191481410011
 31
0.0
  0
SOLID
  5
EE
  8
0
 62
     0
 10
676.88343899769995
 20
-379.46191481410011
 30
0.0
 11
678.75843899769995
 21
-386.9619148141
 31
0.0
 12
675.00843899769995
 22
-386.9619148141
 32
0.0
 13
676.88343899769995
 23
-385.08691481410011
 33
0.0
  0
ENDBLK
  5
EF
  8
0
  0
BLOCK
  8
0
  2
*D13
 70
     1
 10
0.0
 20
0.0
 30
0.0
  3
*D13
  1

  0
TEXT
  5
F3
  8
0
 62
     0
 10
626.54458102900003
 20
-348.37905192829999
 30
0.0
 40
7.4965279578999988
  1
30
  0
LINE
  5
F4
  8
0
 62
     0
 10
645.95430335720005
 20
-372.4619148141
 30
0.0
 11
645.95430335720005
 21
-350.20196862670002
 31
0.0
  0
LINE
  5
F5
  8
0
 62
     0
 10
615.95430335720005
 20
-367.46191481410011
 30
0.0
 11
615.95430335720005
 21
-350.20196862670002
 31
0.0
  0
LINE
  5
F6
  8
0
 62
     0
 10
645.95430335720005
 20
-350.70196862670002
 30
0.0
 11
639.77374801359986
 21
-350.70196862670002
 31
0.0
  0
LINE
  5
F7
  8
0
 62
     0
 10
645.95430335720005
 20
-350.70196862670002
 30
0.0
 11
622.13485870089994
 21
-350.70196862670002
 31
0.0
  0
LINE
  5
F8
  8
0
 62
     0
 10
615.95430335720005
 20
-350.70196862670002
 30
0.0
 11
639.77374801359986
 21
-350.70196862670002
 31
0.0
  0
LINE
  5
F9
  8
0
 62
     0
 10
615.95430335720005
 20
-350.70196862670002
 30
0.0
 11
622.13485870089994
 21
-350.70196862670002
 31
0.0
  0
LINE
  5
FA
  8
0
 62
     0
 10
615.95430335720005
 20
-350.70196862670002
 30
0.0
 11
612.95430335720005
 21
-350.70196862670002
 31
0.0
  0
SOLID
  5
FB
  8
0
 62
     0
 10
615.95430335720005
 20
-350.70196862670002
 30
0.0
 11
608.45430335720005
 21
-352.57696862670002
 31
0.0
 12
608.45430335720005
 22
-348.82696862669991
 32
0.0
 13
610.32930335720005
 23
-350.70196862670002
 33
0.0
  0
LINE
  5
FC
  8
0
 62
     0
 10
645.95430335720005
 20
-350.70196862670002
 30
0.0
 11
648.95430335720005
 21
-350.70196862670002
 31
0.0
  0
SOLID
  5
FD
  8
0
 62
     0
 10
645.95430335720005
 20
-350.70196862670002
 30
0.0
 11
653.45430335720005
 21
-348.82696862669991
 31
0.0
 12
653.45430335720005
 22
-352.57696862670002
 32
0.0
 13
651.57930335720005
 23
-350.70196862670002
 33
0.0
  0
ENDBLK
  5
FE
  8
0
  0
BLOCK
  8
0
  2
*D14
 70
     1
 10
0.0
 20
0.0
 30
0.0
  3
*D14
  1

  0
TEXT
  5
102
  8
0
 62
     0
 10
756.26096175240002
 20
-399.37163714219997
 30
0.0
 40
7.4965279578999988
  1
11
 50
90.0
  0
LINE
  5
103
  8
0
 62
     0
 10
738.29349606559992
 20
-400.4619148141
 30
0.0
 11
759.08387845079994
 21
-400.4619148141
 31
0.0
  0
LINE
  5
104
  8
0
 62
     0
 10
731.95430335720005
 20
-389.46191481410011
 30
0.0
 11
759.08387845079994
 21
-389.46191481410011
 31
0.0
  0
LINE
  5
105
  8
0
 62
     0
 10
758.58387845079994
 20
-400.4619148141
 30
0.0
 11
758.58387845079994
 21
-400.4619148141
 31
0.0
  0
LINE
  5
106
  8
0
 62
     0
 10
758.58387845079994
 20
-400.4619148141
 30
0.0
 11
758.58387845079994
 21
-389.46191481410011
 31
0.0
  0
LINE
  5
107
  8
0
 62
     0
 10
758.58387845079994
 20
-389.46191481410011
 30
0.0
 11
758.58387845079994
 21
-400.4619148141
 31
0.0
  0
LINE
  5
108
  8
0
 62
     0
 10
758.58387845079994
 20
-389.46191481410011
 30
0.0
 11
758.58387845079994
 21
-389.46191481410011
 31
0.0
  0
LINE
  5
109
  8
0
 62
     0
 10
758.58387845079994
 20
-389.46191481410011
 30
0.0
 11
758.58387845079994
 21
-386.46191481410011
 31
0.0
  0
SOLID
  5
10A
  8
0
 62
     0
 10
758.58387845079994
 20
-389.46191481410011
 30
0.0
 11
756.70887845079994
 21
-381.96191481410011
 31
0.0
 12
760.45887845079994
 22
-381.96191481410011
 32
0.0
 13
758.58387845079994
 23
-383.8369148141
 33
0.0
  0
LINE
  5
10B
  8
0
 62
     0
 10
758.58387845079994
 20
-400.4619148141
 30
0.0
 11
758.58387845079994
 21
-403.4619148141
 31
0.0
  0
SOLID
  5
10C
  8
0
 62
     0
 10
758.58387845079994
 20
-400.4619148141
 30
0.0
 11
760.45887845079994
 21
-407.9619148141
 31
0.0
 12
756.70887845079994
 22
-407.9619148141
 32
0.0
 13
758.58387845079994
 23
-406.0869148141
 33
0.0
  0
ENDBLK
  5
10D
  8
0
  0
BLOCK
  8
0
  2
*D15
 70
     1
 10
0.0
 20
0.0
 30
0.0
  3
*D15
  1

  0
TEXT
  5
111
  8
0
 62
     0
 10
703.8959715179999
 20
-388.87163714219997
 30
0.0
 40
7.4965279578999988
  1
10
 50
90.0
  0
LINE
  5
112
  8
0
 62
     0
 10
717.95430335720005
 20
-389.46191481410011
 30
0.0
 11
705.71888821640005
 21
-389.46191481410011
 31
0.0
  0
LINE
  5
113
  8
0
 62
     0
 10
652.95430335720005
 20
-379.46191481410011
 30
0.0
 11
706.71888821640005
 21
-379.46191481410011
 31
0.0
  0
LINE
  5
114
  8
0
 62
     0
 10
706.21888821640005
 20
-389.46191481410011
 30
0.0
 11
706.21888821640005
 21
-389.46191481410011
 31
0.0
  0
LINE
  5
115
  8
0
 62
     0
 10
706.21888821640005
 20
-389.46191481410011
 30
0.0
 11
706.21888821640005
 21
-379.46191481410011
 31
0.0
  0
LINE
  5
116
  8
0
 62
     0
 10
706.21888821640005
 20
-379.46191481410011
 30
0.0
 11
706.21888821640005
 21
-389.46191481410011
 31
0.0
  0
LINE
  5
117
  8
0
 62
     0
 10
706.21888821640005
 20
-379.46191481410011
 30
0.0
 11
706.21888821640005
 21
-379.46191481410011
 31
0.0
  0
LINE
  5
118
  8
0
 62
     0
 10
706.21888821640005
 20
-379.46191481410011
 30
0.0
 11
706.21888821640005
 21
-376.4619148141
 31
0.0
  0
SOLID
  5
119
  8
0
 62
     0
 10
706.21888821640005
 20
-379.46191481410011
 30
0.0
 11
704.34388821640005
 21
-371.96191481410011
 31
0.0
 12
708.09388821640005
 22
-371.96191481410011
 32
0.0
 13
706.21888821640005
 23
-373.8369148141
 33
0.0
  0
LINE
  5
11A
  8
0
 62
     0
 10
706.21888821640005
 20
-389.46191481410011
 30
0.0
 11
706.21888821640005
 21
-392.46191481410011
 31
0.0
  0
SOLID
  5
11B
  8
0
 62
     0
 10
706.21888821640005
 20
-389.46191481410011
 30
0.0
 11
708.09388821640005
 21
-396.96191481410011
 31
0.0
 12
704.34388821640005
 22
-396.96191481410011
 32
0.0
 13
706.21888821640005
 23
-395.08691481410011
 33
0.0
  0
ENDBLK
  5
11C
  8
0
  0
BLOCK
  8
0
  2
*D16
 70
     1
 10
0.0
 20
0.0
 30
0.0
  3
*D16
  1

  0
TEXT
  5
120
  8
0
 62
     0
 10
678.83971986500001
 20
-348.35284750120002
 30
0.0
 40
7.4965279578999988
  1
129
  0
LINE
  5
121
  8
0
 62
     0
 10
724.95430335720005
 20
-382.46191481410011
 30
0.0
 11
724.95430335720005
 21
-350.1757641996
 31
0.0
  0
LINE
  5
122
  8
0
 62
     0
 10
645.95430335720005
 20
-372.4619148141
 30
0.0
 11
645.95430335720005
 21
-350.1757641996
 31
0.0
  0
LINE
  5
123
  8
0
 62
     0
 10
724.95430335720005
 20
-350.6757641996
 30
0.0
 11
696.47860917770004
 21
-350.6757641996
 31
0.0
  0
LINE
  5
124
  8
0
 62
     0
 10
724.95430335720005
 20
-350.6757641996
 30
0.0
 11
674.42999753679999
 21
-350.6757641996
 31
0.0
  0
LINE
  5
125
  8
0
 62
     0
 10
645.95430335720005
 20
-350.6757641996
 30
0.0
 11
696.47860917770004
 21
-350.6757641996
 31
0.0
  0
LINE
  5
126
  8
0
 62
     0
 10
645.95430335720005
 20
-350.6757641996
 30
0.0
 11
674.42999753679999
 21
-350.6757641996
 31
0.0
  0
LINE
  5
127
  8
0
 62
     0
 10
645.95430335720005
 20
-350.6757641996
 30
0.0
 11
648.95430335720005
 21
-350.6757641996
 31
0.0
  0
SOLID
  5
128
  8
0
 62
     0
 10
645.95430335720005
 20
-350.6757641996
 30
0.0
 11
653.45430335720005
 21
-348.8007641996
 31
0.0
 12
653.45430335720005
 22
-352.5507641996
 32
0.0
 13
651.57930335720005
 23
-350.6757641996
 33
0.0
  0
LINE
  5
129
  8
0
 62
     0
 10
724.95430335720005
 20
-350.6757641996
 30
0.0
 11
721.95430335720005
 21
-350.6757641996
 31
0.0
  0
SOLID
  5
12A
  8
0
 62
     0
 10
724.95430335720005
 20
-350.6757641996
 30
0.0
 11
717.45430335720005
 21
-352.5507641996
 31
0.0
 12
717.45430335720005
 22
-348.8007641996
 32
0.0
 13
719.32930335720005
 23
-350.6757641996
 33
0.0
  0
ENDBLK
  5
12B
  8
0
  0
BLOCK
  8
0
  2
*D17
 70
     1
 10
0.0
 20
0.0
 30
0.0
  3
*D17
  1

  0
TEXT
  5
12F
  8
0
 62
     0
 10
757.83971986500001
 20
-348.4350415116001
 30
0.0
 40
7.4965279578999988
  1
129
  0
LINE
  5
130
  8
0
 62
     0
 10
803.95430335720005
 20
-377.46191481410011
 30
0.0
 11
803.95430335720005
 21
-350.25795821010001
 31
0.0
  0
LINE
  5
131
  8
0
 62
     0
 10
724.95430335720005
 20
-382.46191481410011
 30
0.0
 11
724.95430335720005
 21
-350.25795821010001
 31
0.0
  0
LINE
  5
132
  8
0
 62
     0
 10
803.95430335720005
 20
-350.75795821010001
 30
0.0
 11
775.47860917770004
 21
-350.75795821010001
 31
0.0
  0
LINE
  5
133
  8
0
 62
     0
 10
803.95430335720005
 20
-350.75795821010001
 30
0.0
 11
753.42999753679976
 21
-350.75795821010001
 31
0.0
  0
LINE
  5
134
  8
0
 62
     0
 10
724.95430335720005
 20
-350.75795821010001
 30
0.0
 11
775.47860917770004
 21
-350.75795821010001
 31
0.0
  0
LINE
  5
135
  8
0
 62
     0
 10
724.95430335720005
 20
-350.75795821010001
 30
0.0
 11
753.42999753679976
 21
-350.75795821010001
 31
0.0
  0
LINE
  5
136
  8
0
 62
     0
 10
724.95430335720005
 20
-350.75795821010001
 30
0.0
 11
727.95430335720005
 21
-350.75795821010001
 31
0.0
  0
SOLID
  5
137
  8
0
 62
     0
 10
724.95430335720005
 20
-350.75795821010001
 30
0.0
 11
732.45430335720005
 21
-348.88295821010001
 31
0.0
 12
732.45430335720005
 22
-352.63295821010001
 32
0.0
 13
730.57930335720005
 23
-350.75795821010001
 33
0.0
  0
LINE
  5
138
  8
0
 62
     0
 10
803.95430335720005
 20
-350.75795821010001
 30
0.0
 11
800.95430335720005
 21
-350.75795821010001
 31
0.0
  0
SOLID
  5
139
  8
0
 62
     0
 10
803.95430335720005
 20
-350.75795821010001
 30
0.0
 11
796.45430335720005
 21
-352.63295821010001
 31
0.0
 12
796.45430335720005
 22
-348.88295821010001
 32
0.0
 13
798.32930335720005
 23
-350.75795821010001
 33
0.0
  0
ENDBLK
  5
13A
  8
0
  0
BLOCK
  8
0
  2
*D18
 70
     1
 10
0.0
 20
0.0
 30
0.0
  3
*D18
  1

  0
TEXT
  5
13E
  8
0
 62
     0
 10
805.54458102899991
 20
-348.32178124239999
 30
0.0
 40
7.4965279578999988
  1
12
  0
LINE
  5
13F
  8
0
 62
     0
 10
815.95430335720005
 20
-367.46191481410011
 30
0.0
 11
815.95430335720005
 21
-350.14469794090002
 31
0.0
  0
LINE
  5
140
  8
0
 62
     0
 10
803.95430335720005
 20
-372.4619148141
 30
0.0
 11
803.95430335720005
 21
-350.14469794090002
 31
0.0
  0
LINE
  5
141
  8
0
 62
     0
 10
815.95430335720005
 20
-350.64469794090002
 30
0.0
 11
815.95430335720005
 21
-350.64469794090002
 31
0.0
  0
LINE
  5
142
  8
0
 62
     0
 10
815.95430335720005
 20
-350.64469794090002
 30
0.0
 11
803.95430335720005
 21
-350.64469794090002
 31
0.0
  0
LINE
  5
143
  8
0
 62
     0
 10
803.95430335720005
 20
-350.64469794090002
 30
0.0
 11
815.95430335720005
 21
-350.64469794090002
 31
0.0
  0
LINE
  5
144
  8
0
 62
     0
 10
803.95430335720005
 20
-350.64469794090002
 30
0.0
 11
803.95430335720005
 21
-350.64469794090002
 31
0.0
  0
LINE
  5
145
  8
0
 62
     0
 10
803.95430335720005
 20
-350.64469794090002
 30
0.0
 11
800.95430335720005
 21
-350.64469794090002
 31
0.0
  0
SOLID
  5
146
  8
0
 62
     0
 10
803.95430335720005
 20
-350.64469794090002
 30
0.0
 11
796.45430335720005
 21
-352.5196979408999
 31
0.0
 12
796.45430335720005
 22
-348.76969794090002
 32
0.0
 13
798.32930335720005
 23
-350.64469794090002
 33
0.0
  0
LINE
  5
147
  8
0
 62
     0
 10
815.95430335720005
 20
-350.64469794090002
 30
0.0
 11
818.95430335720005
 21
-350.64469794090002
 31
0.0
  0
SOLID
  5
148
  8
0
 62
     0
 10
815.95430335720005
 20
-350.64469794090002
 30
0.0
 11
823.45430335720005
 21
-348.76969794090002
 31
0.0
 12
823.45430335720005
 22
-352.5196979408999
 32
0.0
 13
821.57930335719993
 23
-350.64469794090002
 33
0.0
  0
ENDBLK
  5
149
  8
0
  0
BLOCK
  8
0
  2
*D19
 70
     1
 10
0.0
 20
0.0
 30
0.0
  3
*D19
  1

  0
TEXT
  5
14D
  8
0
 62
     0
 10
842.19455550240002
 20
-412.79888323599988
 30
0.0
 40
7.4965279578999988
  1
16
 50
90.0
  0
LINE
  5
14E
  8
0
 62
     0
 10
816.95430335720005
 20
-400.4619148141
 30
0.0
 11
845.01747220079994
 21
-400.4619148141
 31
0.0
  0
LINE
  5
14F
  8
0
 62
     0
 10
810.95430335720005
 20
-384.46191481410011
 30
0.0
 11
845.01747220079994
 21
-384.46191481410011
 31
0.0
  0
LINE
  5
150
  8
0
 62
     0
 10
844.51747220080006
 20
-400.4619148141
 30
0.0
 11
844.51747220080006
 21
-399.5697162514
 31
0.0
  0
LINE
  5
151
  8
0
 62
     0
 10
844.51747220080006
 20
-400.4619148141
 30
0.0
 11
844.51747220080006
 21
-417.2086055641999
 31
0.0
  0
LINE
  5
152
  8
0
 62
     0
 10
844.51747220080006
 20
-384.46191481410011
 30
0.0
 11
844.51747220080006
 21
-399.5697162514
 31
0.0
  0
LINE
  5
153
  8
0
 62
     0
 10
844.51747220080006
 20
-384.46191481410011
 30
0.0
 11
844.51747220080006
 21
-417.2086055641999
 31
0.0
  0
LINE
  5
154
  8
0
 62
     0
 10
844.51747220080006
 20
-384.46191481410011
 30
0.0
 11
844.51747220080006
 21
-387.46191481410011
 31
0.0
  0
SOLID
  5
155
  8
0
 62
     0
 10
844.51747220080006
 20
-384.46191481410011
 30
0.0
 11
846.39247220079994
 21
-391.96191481410011
 31
0.0
 12
842.64247220079994
 22
-391.96191481410011
 32
0.0
 13
844.51747220080006
 23
-390.0869148141
 33
0.0
  0
LINE
  5
156
  8
0
 62
     0
 10
844.51747220080006
 20
-400.4619148141
 30
0.0
 11
844.51747220080006
 21
-397.4619148141
 31
0.0
  0
SOLID
  5
157
  8
0
 62
     0
 10
844.51747220080006
 20
-400.4619148141
 30
0.0
 11
842.64247220079994
 21
-392.9619148141
 31
0.0
 12
846.39247220079994
 22
-392.9619148141
 32
0.0
 13
844.51747220080006
 23
-394.83691481410011
 33
0.0
  0
ENDBLK
  5
158
  8
0
  0
BLOCK
  8
0
  2
*D20
 70
     1
 10
0.0
 20
0.0
 30
0.0
  3
*D20
  1

  0
TEXT
  5
15C
  8
0
 62
     0
 10
842.19455550240002
 20
-365.28983375680002
 30
0.0
 40
7.4965279578999988
  1
16
 50
90.0
  0
LINE
  5
15D
  8
0
 62
     0
 10
810.95430335720005
 20
-384.46191481410011
 30
0.0
 11
845.01747220079994
 21
-384.46191481410011
 31
0.0
  0
LINE
  5
15E
  8
0
 62
     0
 10
816.95430335720005
 20
-368.4619148141
 30
0.0
 11
845.01747220079994
 21
-368.4619148141
 31
0.0
  0
LINE
  5
15F
  8
0
 62
     0
 10
844.51747220080006
 20
-384.46191481410011
 30
0.0
 11
844.51747220080006
 21
-352.06066677230001
 31
0.0
  0
LINE
  5
160
  8
0
 62
     0
 10
844.51747220080006
 20
-384.46191481410011
 30
0.0
 11
844.51747220080006
 21
-369.69955608499998
 31
0.0
  0
LINE
  5
161
  8
0
 62
     0
 10
844.51747220080006
 20
-368.4619148141
 30
0.0
 11
844.51747220080006
 21
-352.06066677230001
 31
0.0
  0
LINE
  5
162
  8
0
 62
     0
 10
844.51747220080006
 20
-368.4619148141
 30
0.0
 11
844.51747220080006
 21
-369.69955608499998
 31
0.0
  0
LINE
  5
163
  8
0
 62
     0
 10
844.51747220080006
 20
-368.4619148141
 30
0.0
 11
844.51747220080006
 21
-371.46191481410011
 31
0.0
  0
SOLID
  5
164
  8
0
 62
     0
 10
844.51747220080006
 20
-368.4619148141
 30
0.0
 11
846.39247220079994
 21
-375.96191481410011
 31
0.0
 12
842.64247220079994
 22
-375.96191481410011
 32
0.0
 13
844.51747220080006
 23
-374.08691481410011
 33
0.0
  0
LINE
  5
165
  8
0
 62
     0
 10
844.51747220080006
 20
-384.46191481410011
 30
0.0
 11
844.51747220080006
 21
-381.46191481410011
 31
0.0
  0
SOLID
  5
166
  8
0
 62
     0
 10
844.51747220080006
 20
-384.46191481410011
 30
0.0
 11
842.64247220079994
 21
-376.9619148141
 31
0.0
 12
846.39247220079994
 22
-376.9619148141
 32
0.0
 13
844.51747220080006
 23
-378.83691481410011
 33
0.0
  0
ENDBLK
  5
167
  8
0
  0
BLOCK
  8
0
  2
*D21
 70
     1
 10
0.0
 20
0.0
 30
0.0
  3
*D21
  1

  0
TEXT
  5
16B
  8
0
 62
     0
 10
875.54287283940005
 20
-80.442349895299998
 30
0.0
 40
7.4965279578999988
  1
12
 50
90.0
  0
LINE
  5
16C
  8
0
 62
     0
 10
894.42790043869991
 20
-69.809320275499999
 30
0.0
 11
877.3657895378999
 21
-69.809320275499999
 31
0.0
  0
LINE
  5
16D
  8
0
 62
     0
 10
909.42790043869991
 20
-81.809320275499985
 30
0.0
 11
877.3657895378999
 21
-81.809320275499985
 31
0.0
  0
LINE
  5
16E
  8
0
 62
     0
 10
877.86578953789979
 20
-69.809320275499999
 30
0.0
 11
877.86578953789979
 21
-69.809320275499999
 31
0.0
  0
LINE
  5
16F
  8
0
 62
     0
 10
877.86578953789979
 20
-69.809320275499999
 30
0.0
 11
877.86578953789979
 21
-81.809320275499985
 31
0.0
  0
LINE
  5
170
  8
0
 62
     0
 10
877.86578953789979
 20
-81.809320275499985
 30
0.0
 11
877.86578953789979
 21
-69.809320275499999
 31
0.0
  0
LINE
  5
171
  8
0
 62
     0
 10
877.86578953789979
 20
-81.809320275499985
 30
0.0
 11
877.86578953789979
 21
-81.809320275499985
 31
0.0
  0
LINE
  5
172
  8
0
 62
     0
 10
877.86578953789979
 20
-81.809320275499985
 30
0.0
 11
877.86578953789979
 21
-84.809320275499999
 31
0.0
  0
SOLID
  5
173
  8
0
 62
     0
 10
877.86578953789979
 20
-81.809320275499985
 30
0.0
 11
879.7407895378999
 21
-89.309320275499985
 31
0.0
 12
875.9907895378999
 22
-89.309320275499985
 32
0.0
 13
877.86578953789979
 23
-87.434320275499985
 33
0.0
  0
LINE
  5
174
  8
0
 62
     0
 10
877.86578953789979
 20
-69.809320275499999
 30
0.0
 11
877.86578953789979
 21
-66.809320275499985
 31
0.0
  0
SOLID
  5
175
  8
0
 62
     0
 10
877.86578953789979
 20
-69.809320275499999
 30
0.0
 11
875.9907895378999
 21
-62.309320275499999
 31
0.0
 12
879.7407895378999
 22
-62.309320275499999
 32
0.0
 13
877.86578953789979
 23
-64.184320275499999
 33
0.0
  0
ENDBLK
  5
176
  8
0
  0
BLOCK
  8
0
  2
*D22
 70
     1
 10
0.0
 20
0.0
 30
0.0
  3
*D22
  1

  0
TEXT
  5
17A
  8
0
 62
     0
 10
709.33971986499989
 20
-288.77678596229998
 30
0.0
 40
7.4965279578999988
  1
300
  0
LINE
  5
17B
  8
0
 62
     0
 10
615.95430335720005
 20
-266.3093202755
 30
0.0
 11
615.95430335720005
 21
-291.59970266070002
 31
0.0
  0
LINE
  5
17C
  8
0
 62
     0
 10
815.95430335720005
 20
-270.8093202755
 30
0.0
 11
815.95430335720005
 21
-291.59970266070002
 31
0.0
  0
LINE
  5
17D
  8
0
 62
     0
 10
615.95430335720005
 20
-291.09970266070002
 30
0.0
 11
726.97860917770004
 21
-291.09970266070002
 31
0.0
  0
LINE
  5
17E
  8
0
 62
     0
 10
615.95430335720005
 20
-291.09970266070002
 30
0.0
 11
704.92999753679987
 21
-291.09970266070002
 31
0.0
  0
LINE
  5
17F
  8
0
 62
     0
 10
815.95430335720005
 20
-291.09970266070002
 30
0.0
 11
726.97860917770004
 21
-291.09970266070002
 31
0.0
  0
LINE
  5
180
  8
0
 62
     0
 10
815.95430335720005
 20
-291.09970266070002
 30
0.0
 11
704.92999753679987
 21
-291.09970266070002
 31
0.0
  0
LINE
  5
181
  8
0
 62
     0
 10
815.95430335720005
 20
-291.09970266070002
 30
0.0
 11
812.95430335720005
 21
-291.09970266070002
 31
0.0
  0
SOLID
  5
182
  8
0
 62
     0
 10
815.95430335720005
 20
-291.09970266070002
 30
0.0
 11
808.45430335720005
 21
-292.97470266070002
 31
0.0
 12
808.45430335720005
 22
-289.22470266070002
 32
0.0
 13
810.32930335720005
 23
-291.09970266070002
 33
0.0
  0
LINE
  5
183
  8
0
 62
     0
 10
615.95430335720005
 20
-291.09970266070002
 30
0.0
 11
618.95430335720005
 21
-291.09970266070002
 31
0.0
  0
SOLID
  5
184
  8
0
 62
     0
 10
615.95430335720005
 20
-291.09970266070002
 30
0.0
 11
623.45430335720005
 21
-289.22470266070002
 31
0.0
 12
623.45430335720005
 22
-292.97470266070002
 32
0.0
 13
621.57930335720005
 23
-291.09970266070002
 33
0.0
  0
ENDBLK
  5
185
  8
0
  0
BLOCK
  8
0
  2
*D23
 70
     1
 10
0.0
 20
0.0
 30
0.0
  3
*D23
  1

  0
TEXT
  5
189
  8
0
 62
     0
 10
592.34100427349995
 20
-176.4239037678
 30
0.0
 40
7.4965279578999988
  1
300
 50
90.0
  0
LINE
  5
18A
  8
0
 62
     0
 10
614.95430335720005
 20
-69.809320275499999
 30
0.0
 11
594.16392097199991
 21
-69.809320275499999
 31
0.0
  0
LINE
  5
18B
  8
0
 62
     0
 10
619.45430335720005
 20
-269.8093202755
 30
0.0
 11
594.16392097199991
 21
-269.8093202755
 31
0.0
  0
LINE
  5
18C
  8
0
 62
     0
 10
594.6639209719998
 20
-69.809320275499999
 30
0.0
 11
594.6639209719998
 21
-158.78501445500001
 31
0.0
  0
LINE
  5
18D
  8
0
 62
     0
 10
594.6639209719998
 20
-69.809320275499999
 30
0.0
 11
594.6639209719998
 21
-180.8336260959
 31
0.0
  0
LINE
  5
18E
  8
0
 62
     0
 10
594.6639209719998
 20
-269.8093202755
 30
0.0
 11
594.6639209719998
 21
-158.78501445500001
 31
0.0
  0
LINE
  5
18F
  8
0
 62
     0
 10
594.6639209719998
 20
-269.8093202755
 30
0.0
 11
594.6639209719998
 21
-180.8336260959
 31
0.0
  0
LINE
  5
190
  8
0
 62
     0
 10
594.6639209719998
 20
-269.8093202755
 30
0.0
 11
594.6639209719998
 21
-266.8093202755
 31
0.0
  0
SOLID
  5
191
  8
0
 62
     0
 10
594.6639209719998
 20
-269.8093202755
 30
0.0
 11
592.78892097199991
 21
-262.3093202755
 31
0.0
 12
596.53892097199991
 22
-262.3093202755
 32
0.0
 13
594.6639209719998
 23
-264.1843202755
 33
0.0
  0
LINE
  5
192
  8
0
 62
     0
 10
594.6639209719998
 20
-69.809320275499999
 30
0.0
 11
594.6639209719998
 21
-72.809320275499999
 31
0.0
  0
SOLID
  5
193
  8
0
 62
     0
 10
594.6639209719998
 20
-69.809320275499999
 30
0.0
 11
596.53892097199991
 21
-77.309320275499999
 31
0.0
 12
592.78892097199991
 22
-77.309320275499999
 32
0.0
 13
594.6639209719998
 23
-75.434320275499999
 33
0.0
  0
ENDBLK
  5
194
  8
0
  0
BLOCK
  8
0
  2
*D24
 70
     1
 10
0.0
 20
0.0
 30
0.0
  3
*D24
  1

  0
TEXT
  5
198
  8
0
 62
     0
 10
880.64594503759986
 20
-48.369849316799993
 30
0.0
 40
7.4965279578999988
  1
16
  0
LINE
  5
199
  8
0
 62
     0
 10
911.42790043869991
 20
-74.809320275499999
 30
0.0
 11
911.42790043869991
 21
-50.192766015200007
 31
0.0
  0
LINE
  5
19A
  8
0
 62
     0
 10
895.42790043869979
 20
-68.809320275499999
 30
0.0
 11
895.42790043869979
 21
-50.192766015200007
 31
0.0
  0
LINE
  5
19B
  8
0
 62
     0
 10
911.42790043869991
 20
-50.692766015200007
 30
0.0
 11
893.87511202220014
 21
-50.692766015200007
 31
0.0
  0
LINE
  5
19C
  8
0
 62
     0
 10
911.42790043869991
 20
-50.692766015200007
 30
0.0
 11
876.23622270939995
 21
-50.692766015200007
 31
0.0
  0
LINE
  5
19D
  8
0
 62
     0
 10
895.42790043869979
 20
-50.692766015200007
 30
0.0
 11
893.87511202220014
 21
-50.692766015200007
 31
0.0
  0
LINE
  5
19E
  8
0
 62
     0
 10
895.42790043869979
 20
-50.692766015200007
 30
0.0
 11
876.23622270939995
 21
-50.692766015200007
 31
0.0
  0
LINE
  5
19F
  8
0
 62
     0
 10
895.42790043869979
 20
-50.692766015200007
 30
0.0
 11
898.42790043870002
 21
-50.692766015200007
 31
0.0
  0
SOLID
  5
1A0
  8
0
 62
     0
 10
895.42790043869979
 20
-50.692766015200007
 30
0.0
 11
902.92790043869991
 21
-48.817766015200007
 31
0.0
 12
902.92790043869991
 22
-52.567766015200007
 32
0.0
 13
901.05290043869991
 23
-50.692766015200007
 33
0.0
  0
LINE
  5
1A1
  8
0
 62
     0
 10
911.42790043869991
 20
-50.692766015200007
 30
0.0
 11
908.42790043869991
 21
-50.692766015200007
 31
0.0
  0
SOLID
  5
1A2
  8
0
 62
     0
 10
911.42790043869991
 20
-50.692766015200007
 30
0.0
 11
903.92790043869991
 21
-52.567766015200007
 31
0.0
 12
903.92790043869991
 22
-48.817766015200007
 32
0.0
 13
905.80290043869979
 23
-50.692766015200007
 33
0.0
  0
ENDBLK
  5
1A3
  8
0
  0
BLOCK
  8
0
  2
*D25
 70
     1
 10
0.0
 20
0.0
 30
0.0
  3
*D25
  1

  0
TEXT
  5
1A7
  8
0
 62
     0
 10
930.41010519389988
 20
-48.369849316799993
 30
0.0
 40
7.4965279578999988
  1
16
  0
LINE
  5
1A8
  8
0
 62
     0
 10
927.42790043869991
 20
-68.809320275499999
 30
0.0
 11
927.42790043869991
 21
-50.192766015200007
 31
0.0
  0
LINE
  5
1A9
  8
0
 62
     0
 10
911.42790043869991
 20
-74.809320275499999
 30
0.0
 11
911.42790043869991
 21
-50.192766015200007
 31
0.0
  0
LINE
  5
1AA
  8
0
 62
     0
 10
927.42790043869991
 20
-50.692766015200007
 30
0.0
 11
943.63927217840012
 21
-50.692766015200007
 31
0.0
  0
LINE
  5
1AB
  8
0
 62
     0
 10
927.42790043869991
 20
-50.692766015200007
 30
0.0
 11
926.00038286570009
 21
-50.692766015200007
 31
0.0
  0
LINE
  5
1AC
  8
0
 62
     0
 10
911.42790043869991
 20
-50.692766015200007
 30
0.0
 11
943.63927217840012
 21
-50.692766015200007
 31
0.0
  0
LINE
  5
1AD
  8
0
 62
     0
 10
911.42790043869991
 20
-50.692766015200007
 30
0.0
 11
926.00038286570009
 21
-50.692766015200007
 31
0.0
  0
LINE
  5
1AE
  8
0
 62
     0
 10
911.42790043869991
 20
-50.692766015200007
 30
0.0
 11
914.42790043870002
 21
-50.692766015200007
 31
0.0
  0
SOLID
  5
1AF
  8
0
 62
     0
 10
911.42790043869991
 20
-50.692766015200007
 30
0.0
 11
918.92790043870002
 21
-48.817766015200007
 31
0.0
 12
918.92790043870002
 22
-52.567766015200007
 32
0.0
 13
917.05290043869991
 23
-50.692766015200007
 33
0.0
  0
LINE
  5
1B0
  8
0
 62
     0
 10
927.42790043869991
 20
-50.692766015200007
 30
0.0
 11
924.42790043869991
 21
-50.692766015200007
 31
0.0
  0
SOLID
  5
1B1
  8
0
 62
     0
 10
927.42790043869991
 20
-50.692766015200007
 30
0.0
 11
919.92790043869991
 21
-52.567766015200007
 31
0.0
 12
919.92790043869991
 22
-48.817766015200007
 32
0.0
 13
921.80290043869979
 23
-50.692766015200007
 33
0.0
  0
ENDBLK
  5
1B2
  8
0
  0
BLOCK
  8
0
  2
*D26
 70
     1
 10
0.0
 20
0.0
 30
0.0
  3
*D26
  1

  0
TEXT
  5
1B6
  8
0
 62
     0
 10
875.53047520039991
 20
-127.9239037678
 30
0.0
 40
7.4965279578999988
  1
129
 50
90.0
  0
LINE
  5
1B7
  8
0
 62
     0
 10
904.42790043869979
 20
-81.809320275499985
 30
0.0
 11
877.35339189889999
 21
-81.809320275499985
 31
0.0
  0
LINE
  5
1B8
  8
0
 62
     0
 10
899.42790043869991
 20
-160.8093202755
 30
0.0
 11
877.35339189889999
 21
-160.8093202755
 31
0.0
  0
LINE
  5
1B9
  8
0
 62
     0
 10
877.85339189889987
 20
-81.809320275499985
 30
0.0
 11
877.85339189889987
 21
-110.285014455
 31
0.0
  0
LINE
  5
1BA
  8
0
 62
     0
 10
877.85339189889987
 20
-81.809320275499985
 30
0.0
 11
877.85339189889987
 21
-132.3336260959
 31
0.0
  0
LINE
  5
1BB
  8
0
 62
     0
 10
877.85339189889987
 20
-160.8093202755
 30
0.0
 11
877.85339189889987
 21
-110.285014455
 31
0.0
  0
LINE
  5
1BC
  8
0
 62
     0
 10
877.85339189889987
 20
-160.8093202755
 30
0.0
 11
877.85339189889987
 21
-132.3336260959
 31
0.0
  0
LINE
  5
1BD
  8
0
 62
     0
 10
877.85339189889987
 20
-160.8093202755
 30
0.0
 11
877.85339189889987
 21
-157.8093202755
 31
0.0
  0
SOLID
  5
1BE
  8
0
 62
     0
 10
877.85339189889987
 20
-160.8093202755
 30
0.0
 11
875.97839189889987
 21
-153.3093202755
 31
0.0
 12
879.72839189889999
 22
-153.3093202755
 32
0.0
 13
877.85339189889987
 23
-155.1843202755
 33
0.0
  0
LINE
  5
1BF
  8
0
 62
     0
 10
877.85339189889987
 20
-81.809320275499985
 30
0.0
 11
877.85339189889987
 21
-84.809320275499999
 31
0.0
  0
SOLID
  5
1C0
  8
0
 62
     0
 10
877.85339189889987
 20
-81.809320275499985
 30
0.0
 11
879.72839189889999
 21
-89.309320275499985
 31
0.0
 12
875.97839189889987
 22
-89.309320275499985
 32
0.0
 13
877.85339189889987
 23
-87.434320275499985
 33
0.0
  0
ENDBLK
  5
1C1
  8
0
  0
BLOCK
  8
0
  2
*D27
 70
     1
 10
0.0
 20
0.0
 30
0.0
  3
*D27
  1

  0
TEXT
  5
1C5
  8
0
 62
     0
 10
875.59096854250015
 20
-206.9239037678
 30
0.0
 40
7.4965279578999988
  1
129
 50
90.0
  0
LINE
  5
1C6
  8
0
 62
     0
 10
899.42790043869991
 20
-160.8093202755
 30
0.0
 11
877.41388524100012
 21
-160.8093202755
 31
0.0
  0
LINE
  5
1C7
  8
0
 62
     0
 10
909.42790043869991
 20
-239.8093202755
 30
0.0
 11
877.41388524100012
 21
-239.8093202755
 31
0.0
  0
LINE
  5
1C8
  8
0
 62
     0
 10
877.91388524100012
 20
-160.8093202755
 30
0.0
 11
877.91388524100012
 21
-189.28501445500001
 31
0.0
  0
LINE
  5
1C9
  8
0
 62
     0
 10
877.91388524100012
 20
-160.8093202755
 30
0.0
 11
877.91388524100012
 21
-211.3336260959
 31
0.0
  0
LINE
  5
1CA
  8
0
 62
     0
 10
877.91388524100012
 20
-239.8093202755
 30
0.0
 11
877.91388524100012
 21
-189.28501445500001
 31
0.0
  0
LINE
  5
1CB
  8
0
 62
     0
 10
877.91388524100012
 20
-239.8093202755
 30
0.0
 11
877.91388524100012
 21
-211.3336260959
 31
0.0
  0
LINE
  5
1CC
  8
0
 62
     0
 10
877.91388524100012
 20
-239.8093202755
 30
0.0
 11
877.91388524100012
 21
-236.8093202755
 31
0.0
  0
SOLID
  5
1CD
  8
0
 62
     0
 10
877.91388524100012
 20
-239.8093202755
 30
0.0
 11
876.03888524100012
 21
-232.3093202755
 31
0.0
 12
879.788885241
 22
-232.3093202755
 32
0.0
 13
877.91388524100012
 23
-234.1843202755
 33
0.0
  0
LINE
  5
1CE
  8
0
 62
     0
 10
877.91388524100012
 20
-160.8093202755
 30
0.0
 11
877.91388524100012
 21
-163.8093202755
 31
0.0
  0
SOLID
  5
1CF
  8
0
 62
     0
 10
877.91388524100012
 20
-160.8093202755
 30
0.0
 11
879.788885241
 21
-168.3093202755
 31
0.0
 12
876.03888524100012
 22
-168.3093202755
 32
0.0
 13
877.91388524100012
 23
-166.4343202755
 33
0.0
  0
ENDBLK
  5
1D0
  8
0
  0
BLOCK
  8
0
  2
*D28
 70
     1
 10
0.0
 20
0.0
 30
0.0
  3
*D28
  1

  0
TEXT
  5
1D4
  8
0
 62
     0
 10
875.53047520039991
 20
-259.2190426036999
 30
0.0
 40
7.4965279578999988
  1
30
 50
90.0
  0
LINE
  5
1D5
  8
0
 62
     0
 10
909.42790043869991
 20
-239.8093202755
 30
0.0
 11
877.35339189889999
 21
-239.8093202755
 31
0.0
  0
LINE
  5
1D6
  8
0
 62
     0
 10
894.42790043869991
 20
-269.8093202755
 30
0.0
 11
877.35339189889999
 21
-269.8093202755
 31
0.0
  0
LINE
  5
1D7
  8
0
 62
     0
 10
877.85339189889987
 20
-239.8093202755
 30
0.0
 11
877.85339189889987
 21
-245.98987561909999
 31
0.0
  0
LINE
  5
1D8
  8
0
 62
     0
 10
877.85339189889987
 20
-239.8093202755
 30
0.0
 11
877.85339189889987
 21
-263.62876493179999
 31
0.0
  0
LINE
  5
1D9
  8
0
 62
     0
 10
877.85339189889987
 20
-269.8093202755
 30
0.0
 11
877.85339189889987
 21
-245.98987561909999
 31
0.0
  0
LINE
  5
1DA
  8
0
 62
     0
 10
877.85339189889987
 20
-269.8093202755
 30
0.0
 11
877.85339189889987
 21
-263.62876493179999
 31
0.0
  0
LINE
  5
1DB
  8
0
 62
     0
 10
877.85339189889987
 20
-269.8093202755
 30
0.0
 11
877.85339189889987
 21
-272.8093202755
 31
0.0
  0
SOLID
  5
1DC
  8
0
 62
     0
 10
877.85339189889987
 20
-269.8093202755
 30
0.0
 11
879.72839189889999
 21
-277.3093202755
 31
0.0
 12
875.97839189889987
 22
-277.3093202755
 32
0.0
 13
877.85339189889987
 23
-275.4343202755
 33
0.0
  0
LINE
  5
1DD
  8
0
 62
     0
 10
877.85339189889987
 20
-239.8093202755
 30
0.0
 11
877.85339189889987
 21
-236.8093202755
 31
0.0
  0
SOLID
  5
1DE
  8
0
 62
     0
 10
877.85339189889987
 20
-239.8093202755
 30
0.0
 11
875.97839189889987
 21
-232.3093202755
 31
0.0
 12
879.72839189889999
 22
-232.3093202755
 32
0.0
 13
877.85339189889987
 23
-234.1843202755
 33
0.0
  0
ENDBLK
  5
1DF
  8
0
  0
BLOCK
  8
0
  2
*D29
 70
     1
 10
0.0
 20
0.0
 30
0.0
  3
*D29
  1

  0
TEXT
  5
1E3
  8
0
 62
     0
 10
917.51817811059993
 20
-210.19602119180001
 30
0.0
 40
7.4965279578999988
  1
11
  0
LINE
  5
1E4
  8
0
 62
     0
 10
927.42790043869991
 20
-232.8093202755
 30
0.0
 11
927.42790043869991
 21
-212.01893789019999
 31
0.0
  0
LINE
  5
1E5
  8
0
 62
     0
 10
916.42790043869991
 20
-232.8093202755
 30
0.0
 11
916.42790043869991
 21
-212.01893789019999
 31
0.0
  0
LINE
  5
1E6
  8
0
 62
     0
 10
927.42790043869991
 20
-212.51893789019999
 30
0.0
 11
927.42790043869991
 21
-212.51893789019999
 31
0.0
  0
LINE
  5
1E7
  8
0
 62
     0
 10
927.42790043869991
 20
-212.51893789019999
 30
0.0
 11
916.42790043869991
 21
-212.51893789019999
 31
0.0
  0
LINE
  5
1E8
  8
0
 62
     0
 10
916.42790043869991
 20
-212.51893789019999
 30
0.0
 11
927.42790043869991
 21
-212.51893789019999
 31
0.0
  0
LINE
  5
1E9
  8
0
 62
     0
 10
916.42790043869991
 20
-212.51893789019999
 30
0.0
 11
916.42790043869991
 21
-212.51893789019999
 31
0.0
  0
LINE
  5
1EA
  8
0
 62
     0
 10
916.42790043869991
 20
-212.51893789019999
 30
0.0
 11
913.42790043869979
 21
-212.51893789019999
 31
0.0
  0
SOLID
  5
1EB
  8
0
 62
     0
 10
916.42790043869991
 20
-212.51893789019999
 30
0.0
 11
908.92790043869979
 21
-214.39393789019999
 31
0.0
 12
908.92790043869979
 22
-210.64393789019999
 32
0.0
 13
910.80290043869991
 23
-212.51893789019999
 33
0.0
  0
LINE
  5
1EC
  8
0
 62
     0
 10
927.42790043869991
 20
-212.51893789019999
 30
0.0
 11
930.42790043869979
 21
-212.51893789019999
 31
0.0
  0
SOLID
  5
1ED
  8
0
 62
     0
 10
927.42790043869991
 20
-212.51893789019999
 30
0.0
 11
934.92790043869979
 21
-210.64393789019999
 31
0.0
 12
934.92790043869979
 22
-214.39393789019999
 32
0.0
 13
933.05290043869991
 23
-212.51893789019999
 33
0.0
  0
ENDBLK
  5
1EE
  8
0
  0
BLOCK
  8
0
  2
*D30
 70
     1
 10
0.0
 20
0.0
 30
0.0
  3
*D30
  1

  0
TEXT
  5
1F2
  8
0
 62
     0
 10
671.07339652199994
 20
-203.503666751
 30
0.0
 40
7.4965279578999988
  1
90%%d
 50
315.93300441150001
  0
ARC
  5
1F3
  8
0
 62
     0
 10
620.45430335720005
 20
-265.3093202755
 30
0.0
 40
75.645813180700003
 50
82.777393540899993
 51
90.0
  0
ARC
  5
1F4
  8
0
 62
     0
 10
620.45430335720005
 20
-265.3093202755
 30
0.0
 40
75.645813180700003
 50
0.0
 51
7.2226064590999988
  0
SOLID
  5
1F5
  8
0
 62
     0
 10
696.10011653789979
 20
-265.3093202755
 30
0.0
 11
697.97511653789991
 21
-272.8093202755
 31
0.0
 12
694.22511653789991
 22
-272.8093202755
 32
0.0
 13
696.10011653789979
 23
-270.9343202755
 33
0.0
  0
SOLID
  5
1F6
  8
0
 62
     0
 10
620.45430335720005
 20
-189.6635070948
 30
0.0
 11
612.95430335720005
 21
-191.5385070948
 31
0.0
 12
612.95430335720005
 22
-187.7885070948
 32
0.0
 13
614.82930335720005
 23
-189.6635070948
 33
0.0
  0
ARC
  5
1F7
  8
0
 62
     0
 10
620.45430335720005
 20
-265.3093202755
 30
0.0
 40
75.645813180700003
 50
0.0
 51
37.44622033280001
  0
ARC
  5
1F8
  8
0
 62
     0
 10
620.45430335720005
 20
-265.3093202755
 30
0.0
 40
75.645813180700003
 50
54.419788490099997
 51
90.0
  0
LINE
  5
1F9
  8
0
 62
     0
 10
810.95430335720005
 20
-265.3093202755
 30
0.0
 11
691.10011653789991
 21
-265.3093202755
 31
0.0
  0
LINE
  5
1FA
  8
0
 62
     0
 10
620.45430335720005
 20
-74.809320275499999
 30
0.0
 11
620.45430335720005
 21
-194.6635070948
 31
0.0
  0
ENDBLK
  5
1FB
  8
0
  0
BLOCK
  8
0
  2
CLUMP2
 70
     0
 10
0.0
 20
0.0
 30
0.0
  3
CLUMP2
  1

  0
LINE
  5
204
  8
┌▓È_1
  6
STITCH
 10
618.70430335720005
 20
-163.3093202755
 30
0.0
 11
620.45430335720005
 21
-165.0593202755
 31
0.0
  0
LINE
  5
205
  8
┌▓È_1
  6
STITCH
 10
617.70430335720005
 20
-163.3093202755
 30
0.0
 11
615.95430335720005
 21
-165.0593202755
 31
0.0
  0
LINE
  5
206
  8
┌▓È_1
  6
STITCH
 10
617.70430335720005
 20
-158.3093202755
 30
0.0
 11
615.95430335720005
 21
-156.5593202755
 31
0.0
  0
LINE
  5
207
  8
┌▓È_1
  6
STITCH
 10
618.70430335720005
 20
-158.3093202755
 30
0.0
 11
620.45430335720005
 21
-156.5593202755
 31
0.0
  0
LINE
  5
208
  8
┌▓È_1
  6
STITCH
 10
617.70430335720005
 20
-163.3093202755
 30
0.0
 11
617.70430335720005
 21
-158.3093202755
 31
0.0
  0
LINE
  5
209
  8
┌▓È_1
  6
STITCH
 10
618.70430335720005
 20
-158.3093202755
 30
0.0
 11
618.70430335720005
 21
-163.3093202755
 31
0.0
  0
LINE
  5
20A
  8
┌▓È_1
  6
STITCH
 10
617.70430335720005
 20
-158.3093202755
 30
0.0
 11
618.70430335720005
 21
-158.3093202755
 31
0.0
  0
LINE
  5
20B
  8
┌▓È_1
  6
STITCH
 10
618.70430335720005
 20
-163.3093202755
 30
0.0
 11
617.70430335720005
 21
-163.3093202755
 31
0.0
  0
LINE
  5
20C
  8
┌▓È_1
  6
BORDER
 62
     3
 10
626.282081135
 20
-160.8093202755
 30
0.0
 11
608.91263669059992
 21
-160.8093202755
 31
0.0
  0
ENDBLK
  5
20D
  8
0
  0
BLOCK
  8
0
  2
CLUMP3
 70
     0
 10
0.0
 20
0.0
 30
0.0
  3
CLUMP3
  1

  0
LINE
  5
21B
  8
┌▓È_1
  6
STITCH
 10
618.70430335720005
 20
-84.309320275499985
 30
0.0
 11
620.45430335720005
 21
-86.059320275499999
 31
0.0
  0
LINE
  5
21C
  8
┌▓È_1
  6
STITCH
 10
617.70430335720005
 20
-84.309320275499985
 30
0.0
 11
615.95430335720005
 21
-86.059320275499999
 31
0.0
  0
LINE
  5
21D
  8
┌▓È_1
  6
STITCH
 10
617.70430335720005
 20
-79.309320275499985
 30
0.0
 11
615.95430335720005
 21
-77.559320275499999
 31
0.0
  0
LINE
  5
21E
  8
┌▓È_1
  6
STITCH
 10
618.70430335720005
 20
-79.309320275499985
 30
0.0
 11
620.45430335720005
 21
-77.559320275499999
 31
0.0
  0
LINE
  5
21F
  8
┌▓È_1
  6
STITCH
 10
617.70430335720005
 20
-84.309320275499985
 30
0.0
 11
617.70430335720005
 21
-79.309320275499985
 31
0.0
  0
LINE
  5
220
  8
┌▓È_1
  6
STITCH
 10
618.70430335720005
 20
-79.309320275499985
 30
0.0
 11
618.70430335720005
 21
-84.309320275499985
 31
0.0
  0
LINE
  5
221
  8
┌▓È_1
  6
STITCH
 10
617.70430335720005
 20
-79.309320275499985
 30
0.0
 11
618.70430335720005
 21
-79.309320275499985
 31
0.0
  0
LINE
  5
222
  8
┌▓È_1
  6
STITCH
 10
618.70430335720005
 20
-84.309320275499985
 30
0.0
 11
617.70430335720005
 21
-84.309320275499985
 31
0.0
  0
LINE
  5
223
  8
┌▓È_1
  6
BORDER
 62
     3
 10
626.282081135
 20
-81.809320275499985
 30
0.0
 11
608.91263669059992
 21
-81.809320275499985
 31
0.0
  0
ENDBLK
  5
224
  8
0
  0
BLOCK
  8
0
  2
CLUMP4
 70
     0
 10
0.0
 20
0.0
 30
0.0
  3
CLUMP4
  1

  0
CIRCLE
  5
228
  8
┌▓È_1
 62
     5
 10
911.42790043869991
 20
-81.809320275499985
 30
0.0
 40
2.5
  0
CIRCLE
  5
229
  8
┌▓È_1
 62
     5
 10
911.42790043869991
 20
-81.809320275499985
 30
0.0
 40
4.25
  0
LINE
  5
22A
  8
┌▓È_1
  6
BORDER
 62
     3
 10
911.42790043869991
 20
-75.809320275499999
 30
0.0
 11
911.42790043869991
 21
-87.809320275499985
 31
0.0
  0
LINE
  5
22B
  8
┌▓È_1
  6
BORDER
 62
     3
 10
905.42790043869979
 20
-81.809320275499985
 30
0.0
 11
917.42790043869991
 21
-81.809320275499985
 31
0.0
  0
ENDBLK
  5
22C
  8
0
  0
BLOCK
  8
0
  2
CLUMP5
 70
     0
 10
0.0
 20
0.0
 30
0.0
  3
CLUMP5
  1

  0
LINE
  5
230
  8
┌▓È_1
  6
STITCH
 10
801.45430335720005
 20
-268.0593202755
 30
0.0
 11
806.45430335720005
 21
-268.0593202755
 31
0.0
  0
LINE
  5
231
  8
┌▓È_1
  6
STITCH
 10
806.45430335720005
 20
-267.0593202755
 30
0.0
 11
801.45430335720005
 21
-267.0593202755
 31
0.0
  0
LINE
  5
232
  8
┌▓È_1
  6
STITCH
 10
806.45430335720005
 20
-268.0593202755
 30
0.0
 11
806.45430335720005
 21
-267.0593202755
 31
0.0
  0
LINE
  5
233
  8
┌▓È_1
  6
STITCH
 10
801.45430335720005
 20
-267.0593202755
 30
0.0
 11
801.45430335720005
 21
-268.0593202755
 31
0.0
  0
LINE
  5
234
  8
┌▓È_1
  6
STITCH
 10
801.45430335720005
 20
-267.0593202755
 30
0.0
 11
799.70430335720005
 21
-265.3093202755
 31
0.0
  0
LINE
  5
235
  8
┌▓È_1
  6
STITCH
 10
801.45430335720005
 20
-268.0593202755
 30
0.0
 11
799.70430335720005
 21
-269.8093202755
 31
0.0
  0
LINE
  5
236
  8
┌▓È_1
  6
STITCH
 10
806.45430335720005
 20
-267.0593202755
 30
0.0
 11
808.20430335720005
 21
-265.3093202755
 31
0.0
  0
LINE
  5
237
  8
┌▓È_1
  6
STITCH
 10
806.45430335720005
 20
-268.0593202755
 30
0.0
 11
808.20430335720005
 21
-269.8093202755
 31
0.0
  0
LINE
  5
238
  8
┌▓È_1
  6
BORDER
 62
     3
 10
803.95430335720005
 20
-259.48154249769999
 30
0.0
 11
803.95430335720005
 21
-276.85098694210001
 31
0.0
  0
ENDBLK
  5
239
  8
0
  0
BLOCK
  8
0
  2
CLUMP6
 70
     0
 10
0.0
 20
0.0
 30
0.0
  3
CLUMP6
  1

  0
LINE
  5
243
  8
┌▓È_1
  6
STITCH
 10
722.45430335720005
 20
-268.0593202755
 30
0.0
 11
727.45430335720005
 21
-268.0593202755
 31
0.0
  0
LINE
  5
244
  8
┌▓È_1
  6
STITCH
 10
727.45430335720005
 20
-267.0593202755
 30
0.0
 11
722.45430335720005
 21
-267.0593202755
 31
0.0
  0
LINE
  5
245
  8
┌▓È_1
  6
STITCH
 10
727.45430335720005
 20
-268.0593202755
 30
0.0
 11
727.45430335720005
 21
-267.0593202755
 31
0.0
  0
LINE
  5
246
  8
┌▓È_1
  6
STITCH
 10
722.45430335720005
 20
-267.0593202755
 30
0.0
 11
722.45430335720005
 21
-268.0593202755
 31
0.0
  0
LINE
  5
247
  8
┌▓È_1
  6
STITCH
 10
722.45430335720005
 20
-267.0593202755
 30
0.0
 11
720.70430335720005
 21
-265.3093202755
 31
0.0
  0
LINE
  5
248
  8
┌▓È_1
  6
STITCH
 10
722.45430335720005
 20
-268.0593202755
 30
0.0
 11
720.70430335720005
 21
-269.8093202755
 31
0.0
  0
LINE
  5
249
  8
┌▓È_1
  6
STITCH
 10
727.45430335720005
 20
-267.0593202755
 30
0.0
 11
729.20430335720005
 21
-265.3093202755
 31
0.0
  0
LINE
  5
24A
  8
┌▓È_1
  6
STITCH
 10
727.45430335720005
 20
-268.0593202755
 30
0.0
 11
729.20430335720005
 21
-269.8093202755
 31
0.0
  0
LINE
  5
24B
  8
┌▓È_1
  6
BORDER
 62
     3
 10
724.95430335720005
 20
-259.48154249769999
 30
0.0
 11
724.95430335720005
 21
-276.85098694210001
 31
0.0
  0
ENDBLK
  5
24C
  8
0
  0
BLOCK
  8
0
  2
CLUMP7
 70
     0
 10
0.0
 20
0.0
 30
0.0
  3
CLUMP7
  1

  0
CIRCLE
  5
2B8
  8
┌▓È_1
 62
     5
 10
645.95430335720005
 20
-379.46191481410011
 30
0.0
 40
4.25
  0
CIRCLE
  5
2B9
  8
┌▓È_1
 62
     5
 10
645.95430335720005
 20
-379.46191481410011
 30
0.0
 40
2.5
  0
LINE
  5
2BA
  8
┌▓È_1
  6
BORDER
 62
     3
 10
639.95430335720005
 20
-379.46191481410011
 30
0.0
 11
651.95430335720005
 21
-379.46191481410011
 31
0.0
  0
LINE
  5
2BB
  8
┌▓È_1
  6
BORDER
 62
     3
 10
645.95430335720005
 20
-385.46191481410011
 30
0.0
 11
645.95430335720005
 21
-373.46191481410011
 31
0.0
  0
ENDBLK
  5
2BC
  8
0
  0
BLOCK
  8
0
  2
CLUMP8
 70
     0
 10
0.0
 20
0.0
 30
0.0
  3
CLUMP8
  1

  0
INSERT
  5
2C3
  8
┌▓È_1
  2
CLUMP9
 10
0.0
 20
0.0
 30
0.0
  0
ENDBLK
  5
2CA
  8
0
  0
BLOCK
  8
0
  2
CLUMP9
 70
     0
 10
0.0
 20
0.0
 30
0.0
  3
CLUMP9
  1

  0
CIRCLE
  5
2C5
  8
┌▓È_1
 62
     5
 10
724.95430335720005
 20
-389.46191481410011
 30
0.0
 40
4.25
  0
CIRCLE
  5
2C6
  8
┌▓È_1
 62
     5
 10
724.95430335720005
 20
-389.46191481410011
 30
0.0
 40
2.5
  0
LINE
  5
2C7
  8
┌▓È_1
  6
BORDER
 62
     3
 10
724.95430335720005
 20
-395.4619148141
 30
0.0
 11
724.95430335720005
 21
-383.46191481410011
 31
0.0
  0
LINE
  5
2C8
  8
┌▓È_1
  6
BORDER
 62
     3
 10
718.95430335720005
 20
-389.46191481410011
 30
0.0
 11
730.95430335720005
 21
-389.46191481410011
 31
0.0
  0
ENDBLK
  5
2C9
  8
0
  0
BLOCK
  8
0
  2
CLUMP10
 70
     0
 10
0.0
 20
0.0
 30
0.0
  3
CLUMP10
  1

  0
CIRCLE
  5
2CE
  8
┌▓È_1
 62
     5
 10
803.95430335720005
 20
-384.46191481410011
 30
0.0
 40
4.25
  0
CIRCLE
  5
2CF
  8
┌▓È_1
 62
     5
 10
803.95430335720005
 20
-384.46191481410011
 30
0.0
 40
2.5
  0
LINE
  5
2D0
  8
┌▓È_1
  6
BORDER
 62
     3
 10
803.95430335720005
 20
-378.4619148141
 30
0.0
 11
803.95430335720005
 21
-390.46191481410011
 31
0.0
  0
LINE
  5
2D1
  8
┌▓È_1
  6
BORDER
 62
     3
 10
797.95430335720005
 20
-384.46191481410011
 30
0.0
 11
809.95430335720005
 21
-384.46191481410011
 31
0.0
  0
ENDBLK
  5
2D2
  8
0
  0
BLOCK
  8
0
  2
*U40
 70
     1
 10
0.0
 20
0.0
 30
0.0
  3
*U40
  1

  0
TEXT
  5
2FC
  8
┌▓È_1
  6
CONTINUOUS
 10
1028.2653490365431
 20
-216.51830641810659
 30
0.0
 40
7.4965279578999988
  1
ÄMâéâ~òöègæÕÉ}
  0
ENDBLK
  5
2FE
  8
0
  0
BLOCK
  8
0
  2
*D41
 70
     1
 10
0.0
 20
0.0
 30
0.0
  3
*D41
  1

  0
LINE
  5
301
  8
Éíû@É³
 62
     0
 10
1082.025877025924
 20
-127.4279674634758
 30
0.0
 11
1116.8354656043639
 21
-92.61837888503581
 31
0.0
  0
LINE
  5
302
  8
Éíû@É³
 62
     0
 10
1038.3768285064759
 20
-127.4279674634758
 30
0.0
 11
1003.567239928035
 21
-92.61837888503581
 31
0.0
  0
ARC
  5
303
  8
Éíû@É³
 62
     0
 10
1060.2013527662
 20
-149.2524917232
 30
0.0
 40
78.842730468699983
 50
50.452380075664998
 51
81.642494289439455
  0
ARC
  5
304
  8
Éíû@É³
 62
     0
 10
1060.2013527662
 20
-149.2524917232
 30
0.0
 40
78.842730468699983
 50
98.357505710560531
 51
129.54761992433501
  0
SOLID
  5
305
  8
Éíû@É³
 62
     0
 10
1111.242885173014
 20
-87.532281374344279
 30
0.0
 11
1109.5611992828419
 21
-89.38212800766189
 31
0.0
 12
1115.951582127881
 22
-93.502262361519001
 32
0.0
 13
1115.951582127881
 23
-93.502262361519001
 33
0.0
  0
SOLID
  5
306
  8
Éíû@É³
 62
     0
 10
1010.8415062495581
 20
-89.38212800766189
 30
0.0
 11
1009.159820359386
 21
-87.532281374344279
 31
0.0
 12
1004.451123404519
 22
-93.502262361519001
 32
0.0
 13
1004.451123404519
 23
-93.502262361519001
 33
0.0
  0
TEXT
  8
Éíû@É³
  40
7.49653
  5
372
  62
0
  72
0
  71
0
 10
1045.21
 20
-83.6786
 30
0.000000
  1
90üï
  0
POINT
  5
308
  8
Defpoints
 62
     0
 10
1060.2013527662
 20
-149.2524917232
 30
0.0
  0
POINT
  5
309
  8
Defpoints
 62
     0
 10
1081.9816828521
 20
-127.4721616373
 30
0.0
  0
POINT
  5
30A
  8
Defpoints
 62
     0
 10
1038.4210226803
 20
-127.4721616373
 30
0.0
  0
POINT
  5
30B
  8
Defpoints
 62
     0
 10
1080.6073529793839
 20
-73.09626214833466
 30
0.0
  0
ENDBLK
  5
30D
  8
0
  0
BLOCK
  8
0
  2
*D42
 70
     1
 10
0.0
 20
0.0
 30
0.0
  3
*D42
  1

  0
LINE
  5
30F
  8
Éíû@É³
 62
     0
 10
1038.3768285064759
 20
-151.07701598292419
 30
0.0
 11
1016.435624884451
 21
-173.01821960494911
 31
0.0
  0
LINE
  5
310
  8
Éíû@É³
 62
     0
 10
1082.025877025924
 20
-151.07701598292419
 30
0.0
 11
1103.9670806479489
 21
-173.01821960494911
 31
0.0
  0
ARC
  5
311
  8
Éíû@É³
 62
     0
 10
1060.2013527662
 20
-129.2524917232
 30
0.0
 40
60.644085937499987
 50
232.09043042653039
 51
259.10749139102029
  0
ARC
  5
312
  8
Éíû@É³
 62
     0
 10
1060.2013527662
 20
-129.2524917232
 30
0.0
 40
60.644085937499987
 50
280.89250860897971
 51
307.9095695734697
  0
SOLID
  5
313
  8
Éíû@É³
 62
     0
 10
1022.113060338165
 20
-178.03640012689749
 30
0.0
 11
1023.768132338887
 21
-176.16270413436669
 31
0.0
 12
1017.319508360934
 22
-172.134336128466
 32
0.0
 13
1017.319508360934
 23
-172.134336128466
 33
0.0
  0
SOLID
  5
314
  8
Éíû@É³
 62
     0
 10
1096.6345731935121
 20
-176.16270413436681
 30
0.0
 11
1098.2896451942349
 21
-178.03640012689749
 31
0.0
 12
1103.0831971714661
 22
-172.134336128466
 32
0.0
 13
1103.0831971714661
 23
-172.134336128466
 33
0.0
  0
TEXT
  8
Éíû@É³
  40
7.49653
  5
373
  62
0
  72
0
  71
0
 10
1045.21
 20
-203.165
 30
0.000000
  1
90üï
  0
POINT
  5
316
  8
Defpoints
 62
     0
 10
1060.2013527662
 20
-129.2524917232
 30
0.0
  0
POINT
  5
317
  8
Defpoints
 62
     0
 10
1038.4210226803
 20
-151.0328218091
 30
0.0
  0
POINT
  5
318
  8
Defpoints
 62
     0
 10
1081.9816828521
 20
-151.0328218091
 30
0.0
  0
POINT
  5
319
  8
Defpoints
 62
     0
 10
1044.5055083527409
 20
-187.8301805419249
 30
0.0
  0
ENDBLK
  5
31B
  8
0
  0
BLOCK
  8
0
  2
*D43
 70
     1
 10
0.0
 20
0.0
 30
0.0
  3
*D43
  1

  0
LINE
  5
31D
  8
Éíû@É³
 62
     0
 10
815.89180335720005
 20
-265.3093202755
 30
0.0
 11
694.85011653792469
 21
-265.3093202755
 31
0.0
  0
LINE
  5
31E
  8
Éíû@É³
 62
     0
 10
620.45430335720005
 20
-69.871820275499942
 30
0.0
 11
620.45430335720005
 21
-190.9135070947753
 31
0.0
  0
ARC
  5
31F
  8
Éíû@É³
 62
     0
 10
620.45430335720005
 20
-265.3093202755
 30
0.0
 40
75.645813180724659
 50
5.6829919377174889
 51
37.219605487205641
  0
ARC
  5
320
  8
Éíû@É³
 62
     0
 10
620.45430335720005
 20
-265.3093202755
 30
0.0
 40
75.645813180724659
 50
54.646403335750747
 51
84.317008062282511
  0
SOLID
  5
321
  8
Éíû@É³
 62
     0
 10
696.97678115669964
 20
-257.75657513573867
 30
0.0
 11
694.47985491576219
 21
-257.8805079696366
 31
0.0
 12
696.10011653792458
 22
-265.3093202755
 32
0.0
 13
696.10011653792458
 23
-265.3093202755
 33
0.0
  0
SOLID
  5
322
  8
Éíû@É³
 62
     0
 10
627.88311566306345
 20
-191.2837687169378
 30
0.0
 11
628.00704849696137
 21
-188.78684247600029
 31
0.0
 12
620.45430335720005
 22
-189.66350709477541
 32
0.0
 13
620.45430335720005
 23
-189.66350709477541
 33
0.0
  0
TEXT
  8
Éíû@É³
  40
7.49653
  5
374
  62
0
  72
0
  71
0
 10
658.073
 20
-224.225
 30
0.000000
  1
90üï
  0
POINT
  5
324
  8
Defpoints
 62
     0
 10
620.45430335720005
 20
-265.3093202755
 30
0.0
  0
POINT
  5
325
  8
Defpoints
 62
     0
 10
815.95430335720005
 20
-265.3093202755
 30
0.0
  0
POINT
  5
326
  8
Defpoints
 62
     0
 10
620.45430335720005
 20
-69.809320275499999
 30
0.0
  0
POINT
  5
327
  8
Defpoints
 62
     0
 10
685.96549926163925
 20
-227.48641368513771
 30
0.0
  0
ENDBLK
  5
329
  8
0
  0
BLOCK
  8
0
  2
*U44
 70
     1
 10
0.0
 20
0.0
 30
0.0
  3
*U44
  1

  0
TEXT
  5
32B
  8
┌▓È_1
  6
CONTINUOUS
 10
1080.5296089228
 20
-431.45529427810862
 30
0.0
 40
8.9958328605000002
  1
ékî^âAâôâOâï
  0
ENDBLK
  5
32D
  8
0
  0
BLOCK
  8
0
  2
*U45
 70
     1
 10
0.0
 20
0.0
 30
0.0
  3
*U45
  1

  0
TEXT
  5
32F
  8
┌▓È_1
  6
CONTINUOUS
 10
882.01673825310002
 20
-390.8798274946223
 30
0.0
 40
8.9958328605000002
  1
ò\û╩ÅêùØüFâåâjâNâìâüâbâLÄdÅÒé░
  0
ENDBLK
  5
331
  8
0
  0
BLOCK
  8
0
  2
*U46
 70
     1
 10
0.0
 20
0.0
 30
0.0
  3
*U46
  1

  0
TEXT
  5
333
  8
┌▓È_1
  6
CONTINUOUS
 10
900.06812256499995
 20
-452.56391291121059
 30
0.0
 40
10.794999837900001
  1
èöÄ«ë´Äð
  0
ENDBLK
  5
335
  8
0
  0
BLOCK
  8
0
  2
*U47
 70
     1
 10
0.0
 20
0.0
 30
0.0
  3
*U47
  1

  0
TEXT
  5
337
  8
┌▓È_1
  6
CONTINUOUS
 10
1070.4897781839591
 20
-408.71693896429991
 30
0.0
 40
8.9958328605000002
  1
LY-201  300x300
  0
ENDBLK
  5
339
  8
0
  0
BLOCK
  8
0
  2
*U48
 70
     1
 10
0.0
 20
0.0
 30
0.0
  3
*U48
  1

  0
TEXT
  5
33B
  8
┌▓È_1
  6
CONTINUOUS
 10
882.01673825310002
 20
-423.61669753142121
 30
0.0
 40
5.84375
  1
 É¦îvü@ü@öÆÉ{ëÛ
  0
ENDBLK
  5
33D
  8
0
  0
BLOCK
  8
0
  2
*U49
 70
     1
 10
0.0
 20
0.0
 30
0.0
  3
*U49
  1

  0
TEXT
  5
33F
  8
┌▓È_1
  6
CONTINUOUS
 10
882.01673825310002
 20
-434.27136123700501
 30
0.0
 40
5.84375
  1
 É╗É}ü@ü@ è¦û{
  0
ENDBLK
  5
341
  8
0
  0
BLOCK
  8
0
  2
*U50
 70
     1
 10
0.0
 20
0.0
 30
0.0
  3
*U50
  1

  0
TEXT
  5
343
  8
┌▓È_1
  6
CONTINUOUS
 10
883.18020278130007
 20
-402.159051592335
 30
0.0
 40
5.84375
  1
ü@ô· ü@òt
  0
ENDBLK
  5
345
  8
0
  0
BLOCK
  8
0
  2
*U51
 70
     1
 10
0.0
 20
0.0
 30
0.0
  3
*U51
  1

  0
TEXT
  5
347
  8
┌▓È_1
  6
CONTINUOUS
 10
1044.2429868873
 20
-402.17579617220252
 30
0.0
 40
5.84375
  1
î^öÈ
  0
ENDBLK
  5
349
  8
0
  0
BLOCK
  8
0
  2
*U52
 70
     1
 10
0.0
 20
0.0
 30
0.0
  3
*U52
  1

  0
TEXT
  5
34B
  8
┌▓È_1
  6
CONTINUOUS
 10
1044.2429868873
 20
-423.48512358337001
 30
0.0
 40
5.84375
  1
òiû╝
  0
ENDBLK
  5
34D
  8
0
  0
BLOCK
  8
0
  2
*U53
 70
     1
 10
0.0
 20
0.0
 30
0.0
  3
*U53
  1

  0
TEXT
  5
34F
  8
┌▓È_1
  6
CONTINUOUS
 10
1044.2429868873
 20
-444.67579617220252
 30
0.0
 40
5.84375
  1
É}öÈ
  0
ENDBLK
  5
351
  8
0
  0
BLOCK
  8
0
  2
*U54
 70
     1
 10
0.0
 20
0.0
 30
0.0
  3
*U54
  1

  0
TEXT
  5
353
  8
┌▓È_1
  6
CONTINUOUS
 62
     5
 10
892.47985690792234
 20
-412.66539676999992
 30
0.0
 40
5.84375
  1
H16.4
  0
ENDBLK
  5
355
  8
0
  0
BLOCK
  8
0
  2
*U55
 70
     1
 10
0.0
 20
0.0
 30
0.0
  3
*U55
  1

  0
TEXT
  5
357
  8
┌▓È_1
  6
CONTINUOUS
 62
     5
 10
938.51642099421679
 20
-413.02136123700512
 30
0.0
 40
5.84375
  1
ôS
  0
ENDBLK
  5
359
  8
0
  0
BLOCK
  8
0
  2
*U56
 70
     1
 10
0.0
 20
0.0
 30
0.0
  3
*U56
  1

  0
TEXT
  5
35B
  8
┌▓È_1
  6
CONTINUOUS
 62
     5
 10
974.52665259320145
 20
-412.66539676999992
 30
0.0
 40
5.84375
  1
4.5t
  0
ENDBLK
  5
35D
  8
0
  0
BLOCK
  8
0
  2
*U57
 70
     1
 10
0.0
 20
0.0
 30
0.0
  3
*U57
  1

  0
TEXT
  5
35F
  8
┌▓È_1
  6
CONTINUOUS
 62
     5
 10
970.47755678101873
 20
-433.91539676999992
 30
0.0
 40
5.84375
  1
1üF2.5
  0
ENDBLK
  5
361
  8
0
  0
BLOCK
  8
0
  2
*U58
 70
     1
 10
0.0
 20
0.0
 30
0.0
  3
*U58
  1

  0
TEXT
  5
363
  8
┌▓È_1
  6
CONTINUOUS
 10
923.18020278130007
 20
-402.24804270908618
 30
0.0
 40
5.84375
  1
ü@ìÌ ü@Ä┐
  0
ENDBLK
  5
365
  8
0
  0
BLOCK
  8
0
  2
*U59
 70
     1
 10
0.0
 20
0.0
 30
0.0
  3
*U59
  1

  0
TEXT
  5
367
  8
┌▓È_1
  6
CONTINUOUS
 10
963.18020278129995
 20
-402.36669753142121
 30
0.0
 40
5.84375
  1
ü@ö┬ ü@î·
  0
ENDBLK
  5
369
  8
0
  0
BLOCK
  8
0
  2
*U60
 70
     1
 10
0.0
 20
0.0
 30
0.0
  3
*U60
  1

  0
TEXT
  5
36B
  8
┌▓È_1
  6
CONTINUOUS
 10
963.18020278129995
 20
-423.58703382583752
 30
0.0
 40
5.84375
  1
ü@Ä┌ ü@ôx
  0
ENDBLK
  5
36D
  8
0
  0
BLOCK
  8
0
  2
*U61
 70
     1
 10
0.0
 20
0.0
 30
0.0
  3
*U61
  1

  0
TEXT
  5
36F
  8
┌▓È_1
  6
CONTINUOUS
 10
1003.1802027813
 20
-402.36669753142121
 30
0.0
 40
5.84375
  1
ü@îƒ ü@ê¾
  0
ENDBLK
  5
371
  8
0
  0
ENDSEC
  0
SECTION
  2
ENTITIES
  0
DIMENSION
  5
3E
  8
Éíû@É³
  2
*D0
 10
620.45430335720005
 20
-35.280692244100003
 30
0.0
 11
633.49250865240003
 21
-35.280692244100003
 31
0.0
 70
   128
  1
<>t
 13
620.45430335720005
 23
-69.809320275499999
 33
0.0
 14
615.95430335720005
 24
-69.809320275499999
 34
0.0
  0
DIMENSION
  5
4D
  8
Éíû@É³
  2
*D1
 10
916.42790043869991
 20
-191.550531213
 30
0.0
 11
910.99052746820007
 21
-191.550531213
 31
0.0
 70
   128
  1
<>
 13
916.42790043869991
 23
-235.5593202755
 33
0.0
 14
906.42790043870002
 24
-166.8093202755
 34
0.0
  0
INSERT
  5
4F
  8
0
  6
CONTINUOUS
  2
*U40
 10
0.0
 20
0.0
 30
0.0
  0
LINE
  5
50
  8
┌▓È_1
 10
1026.382360524
 20
-219.01878631209999
 30
0.0
 11
1095.5241498926
 21
-219.01878631209999
 31
0.0
  0
DIMENSION
  5
5F
  8
Éíû@É³
  2
*D2
 10
1072.7013527662
 20
-105.5606401607
 30
0.0
 11
1060.2013527662
 21
-105.5606401607
 31
0.0
 70
   128
  1
%%c5
 13
1072.7013527662
 23
-136.7524917232
 33
0.0
 14
1047.7013527662
 24
-136.7524917232
 34
0.0
  0
DIMENSION
  5
6E
  8
Éíû@É³
  2
*D3
 10
1038.9513527662
 20
-168.9091954269
 30
0.0
 11
1060.2013527662
 21
-168.9091954269
 31
0.0
 70
   128
  1
%%c8.5
 13
1038.9513527662
 23
-150.5024917232
 33
0.0
 14
1081.4513527662
 24
-150.5024917232
 34
0.0
 50
180.0
  0
DIMENSION
  5
7D
  8
Éíû@É³
  2
*D4
 10
1081.4513527662
 20
-86.233654483600006
 30
0.0
 11
1060.2013527662
 21
-86.233654483600006
 31
0.0
 70
   128
  1
%%c8.5
 13
1081.4513527662
 23
-128.0024917232
 33
0.0
 14
1038.9513527662
 24
-128.0024917232
 34
0.0
  0
DIMENSION
  5
8B
  8
Éíû@É³
  2
*D41
 10
1080.6073529793839
 20
-73.09626214833466
 30
0.0
 11
1060.2013527662
 21
-70.409761254499998
 31
0.0
 70
   133
  1
<>
 13
1038.4210226803
 23
-127.4721616373
 33
0.0
 14
1081.9816828521
 24
-127.4721616373
 34
0.0
 15
1060.2013527662
 25
-149.2524917232
 35
0.0
1001
ACAD
1000
DSTYLE
1002
{
1070
   271
1070
     0
1002
}
  0
DIMENSION
  5
98
  8
Éíû@É³
  2
*D42
 10
1044.5055083527409
 20
-187.8301805419249
 30
0.0
 11
1060.2013527662
 21
-189.8965776606999
 31
0.0
 70
   133
  1
<>
 13
1081.9816828521
 23
-151.0328218091
 33
0.0
 14
1038.4210226803
 24
-151.0328218091
 34
0.0
 15
1060.2013527662
 25
-129.2524917232
 35
0.0
1001
ACAD
1000
DSTYLE
1002
{
1070
   271
1070
     0
1002
}
  0
LINE
  5
99
  8
┌▓È_1
  6
BORDER
 62
     3
 10
1060.2013527662
 20
-121.4857703691
 30
0.0
 11
1060.2013527662
 21
-154.98577036910001
 31
0.0
  0
LINE
  5
9A
  8
┌▓È_1
 62
     5
 10
1047.7013527662
 20
-136.7524917232
 30
0.0
 11
1047.7013527662
 21
-141.7524917232
 31
0.0
  0
LINE
  5
9B
  8
┌▓È_1
 62
     5
 10
1047.7013527662
 20
-141.7524917232
 30
0.0
 11
1038.9513527662
 21
-150.5024917232
 31
0.0
  0
LINE
  5
9C
  8
┌▓È_1
 62
     5
 10
1072.7013527662
 20
-141.7524917232
 30
0.0
 11
1081.4513527662
 21
-150.5024917232
 31
0.0
  0
LINE
  5
9D
  8
┌▓È_1
 62
     5
 10
1047.7013527662
 20
-136.7524917232
 30
0.0
 11
1072.7013527662
 21
-136.7524917232
 31
0.0
  0
LINE
  5
9E
  8
┌▓È_1
 62
     5
 10
1047.7013527662
 20
-141.7524917232
 30
0.0
 11
1072.7013527662
 21
-141.7524917232
 31
0.0
  0
LINE
  5
9F
  8
┌▓È_1
 62
     5
 10
1024.2712231365999
 20
-150.5024917232
 30
0.0
 11
1097.2698342476999
 21
-150.5024917232
 31
0.0
  0
LINE
  5
A0
  8
┌▓È_1
 62
     5
 10
1024.2712231365999
 20
-128.0024917232
 30
0.0
 11
1097.2698342476999
 21
-128.0024917232
 31
0.0
  0
LINE
  5
A1
  8
┌▓È_1
 62
     5
 10
1038.9513527662
 20
-128.0024917232
 30
0.0
 11
1047.7013527662
 21
-136.7524917232
 31
0.0
  0
LINE
  5
A2
  8
┌▓È_1
 62
     5
 10
1072.7013527662
 20
-136.7524917232
 30
0.0
 11
1081.4513527662
 21
-128.0024917232
 31
0.0
  0
LINE
  5
A3
  8
┌▓È_1
 62
     5
 10
1072.7013527662
 20
-136.7524917232
 30
0.0
 11
1072.7013527662
 21
-141.7524917232
 31
0.0
  0
LINE
  5
A4
  8
┌▓È_1
  6
STITCH
 10
648.45430335720005
 20
-267.0593202755
 30
0.0
 11
650.20430335720005
 21
-265.3093202755
 31
0.0
  0
INSERT
  5
A6
  8
┌▓È_1
  2
CLUMP0
 10
0.0
 20
0.0
 30
0.0
  0
INSERT
  5
AE
  8
┌▓È_1
  2
CLUMP1
 10
0.0
 20
0.0
 30
0.0
  0
DIMENSION
  5
C3
  8
Éíû@É³
  2
*D9
 10
906.42790043870002
 20
-127.14102600459999
 30
0.0
 11
900.92790043869979
 21
-127.14102600459999
 31
0.0
 70
   128
  1
<>
 13
906.42790043870002
 23
-154.8093202755
 33
0.0
 14
895.42790043869979
 24
-148.43140838990001
 34
0.0
  0
DIMENSION
  5
D2
  8
Éíû@É³
  2
*D10
 10
927.42790043869991
 20
-31.7666948482
 30
0.0
 11
911.42790043869991
 21
-31.7666948482
 31
0.0
 70
   128
  1
<>
 13
927.42790043869991
 23
-69.809320275499999
 33
0.0
 14
895.42790043869979
 24
-69.809320275499999
 34
0.0
  0
DIMENSION
  5
E1
  8
Éíû@É³
  2
*D11
 10
594.62520179470005
 20
-368.4619148141
 30
0.0
 11
594.62520179470005
 21
-384.46191481410011
 31
0.0
 70
   128
  1
<>
 13
615.95430335720005
 23
-368.4619148141
 33
0.0
 14
615.95430335720005
 24
-400.4619148141
 34
0.0
 50
90.0
  0
DIMENSION
  5
F0
  8
Éíû@É³
  2
*D12
 10
676.88343899769995
 20
-379.46191481410011
 30
0.0
 11
676.88343899769995
 21
-373.96191481410011
 31
0.0
 70
   128
  1
<>
 13
651.95430335720005
 23
-379.46191481410011
 33
0.0
 14
655.59305661240001
 24
-368.4619148141
 34
0.0
 50
90.0
  0
DIMENSION
  5
FF
  8
Éíû@É³
  2
*D13
 10
645.95430335720005
 20
-350.70196862670002
 30
0.0
 11
630.95430335720005
 21
-350.70196862670002
 31
0.0
 70
   128
  1
<>
 13
645.95430335720005
 23
-373.46191481410011
 33
0.0
 14
615.95430335720005
 24
-368.4619148141
 34
0.0
  0
DIMENSION
  5
10E
  8
Éíû@É³
  2
*D14
 10
758.58387845079994
 20
-400.4619148141
 30
0.0
 11
758.58387845079994
 21
-394.96191481410011
 31
0.0
 70
   128
  1
<>
 13
737.29349606559992
 23
-400.4619148141
 33
0.0
 14
730.95430335720005
 24
-389.46191481410011
 34
0.0
 50
90.0
  0
DIMENSION
  5
11D
  8
Éíû@É³
  2
*D15
 10
706.21888821640005
 20
-389.46191481410011
 30
0.0
 11
706.21888821640005
 21
-384.46191481410011
 31
0.0
 70
   128
  1
<>
 13
718.95430335720005
 23
-389.46191481410011
 33
0.0
 14
651.95430335720005
 24
-379.46191481410011
 34
0.0
 50
90.0
  0
DIMENSION
  5
12C
  8
Éíû@É³
  2
*D16
 10
724.95430335720005
 20
-350.6757641996
 30
0.0
 11
685.45430335720005
 21
-350.6757641996
 31
0.0
 70
   128
  1
129
 13
724.95430335720005
 23
-383.46191481410011
 33
0.0
 14
645.95430335720005
 24
-373.46191481410011
 34
0.0
  0
DIMENSION
  5
13B
  8
Éíû@É³
  2
*D17
 10
803.95430335720005
 20
-350.75795821010001
 30
0.0
 11
764.45430335720005
 21
-350.75795821010001
 31
0.0
 70
   128
  1
129
 13
803.95430335720005
 23
-378.4619148141
 33
0.0
 14
724.95430335720005
 24
-383.46191481410011
 34
0.0
  0
DIMENSION
  5
14A
  8
Éíû@É³
  2
*D18
 10
815.95430335720005
 20
-350.64469794090002
 30
0.0
 11
809.95430335720005
 21
-350.64469794090002
 31
0.0
 70
   128
  1
<>
 13
815.95430335720005
 23
-368.4619148141
 33
0.0
 14
803.95430335720005
 24
-373.46191481410011
 34
0.0
  0
DIMENSION
  5
159
  8
Éíû@É³
  2
*D19
 10
844.51747220080006
 20
-400.4619148141
 30
0.0
 11
844.51747220080006
 21
-408.38916090779992
 31
0.0
 70
   128
  1
<>
 13
815.95430335720005
 23
-400.4619148141
 33
0.0
 14
809.95430335720005
 24
-384.46191481410011
 34
0.0
 50
90.0
  0
DIMENSION
  5
168
  8
Éíû@É³
  2
*D20
 10
844.51747220080006
 20
-384.46191481410011
 30
0.0
 11
844.51747220080006
 21
-360.8801114286
 31
0.0
 70
   128
  1
<>
 13
809.95430335720005
 23
-384.46191481410011
 33
0.0
 14
815.95430335720005
 24
-368.4619148141
 34
0.0
 50
90.0
  0
DIMENSION
  5
177
  8
Éíû@É³
  2
*D21
 10
877.86578953789979
 20
-69.809320275499999
 30
0.0
 11
877.86578953789979
 21
-76.032627567099993
 31
0.0
 70
   128
  1
<>
 13
895.42790043869979
 23
-69.809320275499999
 33
0.0
 14
910.42790043869991
 24
-81.809320275499985
 34
0.0
 50
90.0
  0
DIMENSION
  5
186
  8
Éíû@É³
  2
*D22
 10
615.95430335720005
 20
-291.09970266070002
 30
0.0
 11
715.95430335720005
 21
-291.09970266070002
 31
0.0
 70
   128
  1
300
 13
615.95430335720005
 23
-265.3093202755
 33
0.0
 14
815.95430335720005
 24
-269.8093202755
 34
0.0
 50
180.0
  0
DIMENSION
  5
195
  8
Éíû@É³
  2
*D23
 10
594.6639209719998
 20
-69.809320275499999
 30
0.0
 11
594.6639209719998
 21
-169.8093202755
 31
0.0
 70
   128
  1
300
 13
615.95430335720005
 23
-69.809320275499999
 33
0.0
 14
620.45430335720005
 24
-269.8093202755
 34
0.0
 50
90.0
  0
DIMENSION
  5
1A4
  8
Éíû@É³
  2
*D24
 10
911.42790043869991
 20
-50.692766015200007
 30
0.0
 11
885.05566736579988
 21
-50.692766015200007
 31
0.0
 70
   128
  1
<>
 13
911.42790043869991
 23
-75.809320275499999
 33
0.0
 14
895.42790043869979
 24
-69.809320275499999
 34
0.0
  0
DIMENSION
  5
1B3
  8
Éíû@É³
  2
*D25
 10
927.42790043869991
 20
-50.692766015200007
 30
0.0
 11
934.8198275220999
 21
-50.692766015200007
 31
0.0
 70
   128
  1
<>
 13
927.42790043869991
 23
-69.809320275499999
 33
0.0
 14
911.42790043869991
 24
-75.809320275499999
 34
0.0
  0
DIMENSION
  5
1C2
  8
Éíû@É³
  2
*D26
 10
877.85339189889987
 20
-81.809320275499985
 30
0.0
 11
877.85339189889987
 21
-121.3093202755
 31
0.0
 70
   128
  1
129
 13
905.42790043869979
 23
-81.809320275499985
 33
0.0
 14
900.42790043869991
 24
-160.8093202755
 34
0.0
 50
90.0
  0
DIMENSION
  5
1D1
  8
Éíû@É³
  2
*D27
 10
877.91388524100012
 20
-160.8093202755
 30
0.0
 11
877.91388524100012
 21
-200.3093202755
 31
0.0
 70
   128
  1
129
 13
900.42790043869991
 23
-160.8093202755
 33
0.0
 14
910.42790043869991
 24
-239.8093202755
 34
0.0
 50
90.0
  0
DIMENSION
  5
1E0
  8
Éíû@É³
  2
*D28
 10
877.85339189889987
 20
-239.8093202755
 30
0.0
 11
877.85339189889987
 21
-254.8093202755
 31
0.0
 70
   128
  1
<>
 13
910.42790043869991
 23
-239.8093202755
 33
0.0
 14
895.42790043869979
 24
-269.8093202755
 34
0.0
 50
90.0
  0
DIMENSION
  5
1EF
  8
Éíû@É³
  2
*D29
 10
927.42790043869991
 20
-212.51893789019999
 30
0.0
 11
921.92790043869991
 21
-212.51893789019999
 31
0.0
 70
   128
  1
<>
 13
927.42790043869991
 23
-233.8093202755
 33
0.0
 14
916.42790043869991
 24
-233.8093202755
 34
0.0
  0
DIMENSION
  5
1FC
  8
Éíû@É³
  2
*D43
 10
685.96549926163925
 20
-227.48641368513771
 30
0.0
 11
673.06589189889985
 21
-210.9557573482
 31
0.0
 70
   133
  1
<>
 13
620.45430335720005
 23
-69.809320275499999
 33
0.0
 14
815.95430335720005
 24
-265.3093202755
 34
0.0
 15
620.45430335720005
 25
-265.3093202755
 35
0.0
1001
ACAD
1000
DSTYLE
1002
{
1070
   271
1070
     0
1002
}
  0
LINE
  5
1FD
  8
┌▓È_1
  6
STITCH
 10
617.70430335720005
 20
-237.3093202755
 30
0.0
 11
615.95430335720005
 21
-235.5593202755
 31
0.0
  0
LINE
  5
1FE
  8
┌▓È_1
  6
STITCH
 10
617.70430335720005
 20
-242.3093202755
 30
0.0
 11
615.95430335720005
 21
-244.0593202755
 31
0.0
  0
LINE
  5
1FF
  8
┌▓È_1
  6
STITCH
 10
618.70430335720005
 20
-242.3093202755
 30
0.0
 11
620.45430335720005
 21
-244.0593202755
 31
0.0
  0
LINE
  5
200
  8
┌▓È_1
  6
STITCH
 10
618.70430335720005
 20
-242.3093202755
 30
0.0
 11
617.70430335720005
 21
-242.3093202755
 31
0.0
  0
INSERT
  5
202
  8
┌▓È_1
  2
CLUMP2
 10
0.0
 20
0.0
 30
0.0
  0
ARC
  5
20E
  8
┌▓È_1
 62
     5
 10
620.45430335720005
 20
-265.3093202755
 30
0.0
 40
4.5
 50
180.0
 51
270.0
  0
LINE
  5
20F
  8
┌▓È_1
  6
BORDER
 62
     3
 10
645.95430335720005
 20
-259.48154249769999
 30
0.0
 11
645.95430335720005
 21
-276.85098694210001
 31
0.0
  0
LINE
  5
210
  8
┌▓È_1
  6
STITCH
 10
643.45430335720005
 20
-267.0593202755
 30
0.0
 11
643.45430335720005
 21
-268.0593202755
 31
0.0
  0
LINE
  5
211
  8
┌▓È_1
  6
STITCH
 10
643.45430335720005
 20
-267.0593202755
 30
0.0
 11
641.70430335720005
 21
-265.3093202755
 31
0.0
  0
LINE
  5
212
  8
┌▓È_1
 62
     5
 10
927.42790043869991
 20
-69.809320275499999
 30
0.0
 11
927.42790043869991
 21
-269.8093202755
 31
0.0
  0
LINE
  5
213
  8
┌▓È_1
 62
     5
 10
895.42790043869979
 20
-69.809320275499999
 30
0.0
 11
895.42790043869979
 21
-269.8093202755
 31
0.0
  0
LINE
  5
214
  8
┌▓È_1
 62
     5
 10
927.42790043869991
 20
-69.809320275499999
 30
0.0
 11
895.42790043869979
 21
-69.809320275499999
 31
0.0
  0
LINE
  5
215
  8
┌▓È_1
  6
STITCH
 10
643.45430335720005
 20
-268.0593202755
 30
0.0
 11
641.70430335720005
 21
-269.8093202755
 31
0.0
  0
LINE
  5
216
  8
┌▓È_1
 62
     5
 10
895.42790043869979
 20
-269.8093202755
 30
0.0
 11
927.42790043869991
 21
-269.8093202755
 31
0.0
  0
LINE
  5
217
  8
┌▓È_1
 62
     5
 10
895.42790043869979
 20
-265.3093202755
 30
0.0
 11
927.42790043869991
 21
-265.3093202755
 31
0.0
  0
INSERT
  5
219
  8
┌▓È_1
  2
CLUMP3
 10
0.0
 20
0.0
 30
0.0
  0
INSERT
  5
226
  8
┌▓È_1
  2
CLUMP4
 10
0.0
 20
0.0
 30
0.0
  0
INSERT
  5
22E
  8
┌▓È_1
  2
CLUMP5
 10
0.0
 20
0.0
 30
0.0
  0
LINE
  5
23A
  8
┌▓È_1
 62
     5
 10
815.95430335720005
 20
-269.8093202755
 30
0.0
 11
815.95430335720005
 21
-265.3093202755
 31
0.0
  0
LINE
  5
23B
  8
┌▓È_1
 62
     5
 10
620.45430335720005
 20
-69.809320275499999
 30
0.0
 11
615.95430335720005
 21
-69.809320275499999
 31
0.0
  0
LINE
  5
23C
  8
┌▓È_1
 62
     5
 10
620.45430335720005
 20
-269.8093202755
 30
0.0
 11
815.95430335720005
 21
-269.8093202755
 31
0.0
  0
LINE
  5
23D
  8
┌▓È_1
 62
     5
 10
620.45430335720005
 20
-265.3093202755
 30
0.0
 11
815.95430335720005
 21
-265.3093202755
 31
0.0
  0
LINE
  5
23E
  8
┌▓È_1
 62
     5
 10
620.45430335720005
 20
-265.3093202755
 30
0.0
 11
620.45430335720005
 21
-69.809320275499999
 31
0.0
  0
LINE
  5
23F
  8
┌▓È_1
 62
     5
 10
615.95430335720005
 20
-265.3093202755
 30
0.0
 11
615.95430335720005
 21
-69.809320275499999
 31
0.0
  0
INSERT
  5
241
  8
┌▓È_1
  2
CLUMP6
 10
0.0
 20
0.0
 30
0.0
  0
ARC
  5
24D
  8
┌▓È_1
 62
     5
 10
973.50974166809999
 20
-448.3624673178
 30
0.0
 40
3.0
 50
270.0
 51
0.0
  0
LINE
  5
24E
  8
┌▓È_1
 62
     5
 10
976.50974166809988
 20
-440.3624673178
 30
0.0
 11
976.50974166809988
 21
-444.3624673178
 31
0.0
  0
LINE
  5
24F
  8
┌▓È_1
 62
     5
 10
1023.9638009562
 20
-447.3624673178
 30
0.0
 11
1030.2659190858001
 21
-447.3624673178
 31
0.0
  0
LINE
  5
250
  8
┌▓È_1
 62
     5
 10
1005.8309537893
 20
-443.3624673178
 30
0.0
 11
1007.8309537893
 21
-440.3624673178
 31
0.0
  0
LINE
  5
251
  8
┌▓È_1
 62
     5
 10
494.5167382530999
 20
-458.18281325160001
 30
0.0
 11
494.5167382530999
 21
16.817186748400001
 31
0.0
  0
LINE
  5
252
  8
┌▓È_1
 10
1042.0167382530999
 20
-415.6828132515999
 30
0.0
 11
1182.0167382530999
 21
-415.6828132515999
 31
0.0
  0
LINE
  5
253
  8
┌▓È_1
 62
     5
 10
494.5167382530999
 20
16.817186748400001
 30
0.0
 11
1182.0167382530999
 21
16.817186748400001
 31
0.0
  0
LINE
  5
254
  8
┌▓È_1
 62
     5
 10
494.5167382530999
 20
-458.18281325160001
 30
0.0
 11
1182.0167382530999
 21
-458.18281325160001
 31
0.0
  0
LINE
  5
255
  8
┌▓È_1
 62
     5
 10
1182.0167382530999
 20
-458.18281325160001
 30
0.0
 11
1182.0167382530999
 21
16.817186748400001
 31
0.0
  0
INSERT
  5
256
  8
0
  6
CONTINUOUS
  2
*U44
 10
0.0
 20
0.0
 30
0.0
  0
LINE
  5
257
  8
┌▓È_1
 10
882.01673825310002
 20
-394.43281325160001
 30
0.0
 11
1182.0167382530999
 21
-394.43281325160001
 31
0.0
  0
LINE
  5
258
  8
┌▓È_1
 10
882.01673825310002
 20
-436.93281325160001
 30
0.0
 11
1182.0167382530999
 21
-436.93281325160001
 31
0.0
  0
LINE
  5
259
  8
┌▓È_1
 62
     5
 10
981.50974166809999
 20
-443.3624673178
 30
0.0
 11
984.50974166809988
 21
-440.3624673178
 31
0.0
  0
LINE
  5
25A
  8
┌▓È_1
 62
     5
 10
967.50974166809988
 20
-450.36246731779988
 30
0.0
 11
972.50974166809999
 21
-450.36246731779988
 31
0.0
  0
LINE
  5
25B
  8
┌▓È_1
 62
     5
 10
1007.8309537893
 20
-440.3624673178
 30
0.0
 11
989.83095378929977
 21
-440.3624673178
 31
0.0
  0
LINE
  5
25C
  8
┌▓È_1
 62
     5
 10
1022.9278477979
 20
-443.76246731779997
 30
0.0
 11
1022.6350592975
 21
-442.7450095369
 31
0.0
  0
LINE
  5
25D
  8
┌▓È_1
  6
STITCH
 10
648.45430335720005
 20
-268.0593202755
 30
0.0
 11
650.20430335720005
 21
-269.8093202755
 31
0.0
  0
LINE
  5
25E
  8
┌▓È_1
  6
STITCH
 10
648.45430335720005
 20
-267.0593202755
 30
0.0
 11
643.45430335720005
 21
-267.0593202755
 31
0.0
  0
LINE
  5
25F
  8
┌▓È_1
  6
STITCH
 10
648.45430335720005
 20
-268.0593202755
 30
0.0
 11
648.45430335720005
 21
-267.0593202755
 31
0.0
  0
LINE
  5
260
  8
┌▓È_1
  6
STITCH
 10
643.45430335720005
 20
-268.0593202755
 30
0.0
 11
648.45430335720005
 21
-268.0593202755
 31
0.0
  0
LINE
  5
261
  8
┌▓È_1
  6
BORDER
 62
     3
 10
626.282081135
 20
-239.8093202755
 30
0.0
 11
608.91263669059992
 21
-239.8093202755
 31
0.0
  0
LINE
  5
262
  8
┌▓È_1
  6
STITCH
 10
617.70430335720005
 20
-237.3093202755
 30
0.0
 11
618.70430335720005
 21
-237.3093202755
 31
0.0
  0
LINE
  5
263
  8
┌▓È_1
  6
STITCH
 10
618.70430335720005
 20
-237.3093202755
 30
0.0
 11
618.70430335720005
 21
-242.3093202755
 31
0.0
  0
LINE
  5
264
  8
┌▓È_1
  6
STITCH
 10
617.70430335720005
 20
-242.3093202755
 30
0.0
 11
617.70430335720005
 21
-237.3093202755
 31
0.0
  0
LINE
  5
265
  8
┌▓È_1
  6
STITCH
 10
618.70430335720005
 20
-237.3093202755
 30
0.0
 11
620.45430335720005
 21
-235.5593202755
 31
0.0
  0
LINE
  5
266
  8
┌▓È_1
 62
     5
 10
1012.2659190858
 20
-448.96246731779991
 30
0.0
 11
1018.7885857525
 21
-448.96246731779991
 31
0.0
  0
LINE
  5
267
  8
┌▓È_1
 62
     5
 10
965.20753404489994
 20
-447.3624673178
 30
0.0
 11
967.20753404489994
 21
-447.3624673178
 31
0.0
  0
ARC
  5
268
  8
┌▓È_1
 62
     5
 10
994.83095378929988
 20
-443.3624673178
 30
0.0
 40
11.0
 50
270.0
 51
302.54495885400001
  0
LINE
  5
269
  8
┌▓È_1
 62
     5
 10
981.50974166809999
 20
-447.3624673178
 30
0.0
 11
984.50974166809988
 21
-447.3624673178
 31
0.0
  0
ARC
  5
26A
  8
┌▓È_1
 62
     5
 10
992.23095378929986
 20
-443.76246731779997
 30
0.0
 40
7.5999999999999988
 50
331.39928138329998
 51
358.49204224580001
  0
LINE
  5
26B
  8
┌▓È_1
 62
     5
 10
989.83095378929977
 20
-454.36246731779988
 30
0.0
 11
994.83095378929988
 21
-454.36246731779988
 31
0.0
  0
LINE
  5
26C
  8
┌▓È_1
 62
     5
 10
967.50974166809988
 20
-454.36246731779988
 30
0.0
 11
975.50974166809999
 21
-454.36246731779988
 31
0.0
  0
LINE
  5
26D
  8
┌▓È_1
 62
     5
 10
1005.8309537893
 20
-443.3624673178
 30
0.0
 11
1007.8309537893
 21
-440.3624673178
 31
0.0
  0
LINE
  5
26E
  8
┌▓È_1
 62
     5
 10
1016.2659190858
 20
-440.3624673178
 30
0.0
 11
1024.2659190858001
 21
-440.3624673178
 31
0.0
  0
LINE
  5
26F
  8
┌▓È_1
 62
     5
 10
989.83095378929977
 20
-451.36246731779988
 30
0.0
 11
992.23095378929986
 21
-451.36246731779988
 31
0.0
  0
LINE
  5
270
  8
┌▓È_1
 62
     5
 10
989.83095378929977
 20
-451.36246731779988
 30
0.0
 11
989.83095378929977
 21
-454.36246731779988
 31
0.0
  0
INSERT
  5
271
  8
0
  6
CONTINUOUS
  2
*U45
 10
0.0
 20
0.0
 30
0.0
  0
LINE
  5
272
  8
┌▓È_1
 62
     5
 10
1003.5563924934
 20
-450.06072973569991
 30
0.0
 11
1003.2001883739
 21
-450.40948602409998
 31
0.0
  0
LINE
  5
273
  8
┌▓È_1
 62
     5
 10
967.50974166809988
 20
-447.3624673178
 30
0.0
 11
967.50974166809988
 21
-450.36246731779988
 31
0.0
  0
INSERT
  5
274
  8
0
  6
CONTINUOUS
  2
*U46
 10
0.0
 20
0.0
 30
0.0
  0
LINE
  5
275
  8
┌▓È_1
 62
     5
 10
1022.9278477979
 20
-443.76246731779997
 30
0.0
 11
1030.2659190858001
 21
-443.76246731779997
 31
0.0
  0
INSERT
  5
276
  8
0
  6
CONTINUOUS
  2
*U47
 10
0.0
 20
0.0
 30
0.0
  0
LINE
  5
277
  8
┌▓È_1
 10
882.01673825310002
 20
-394.43281325160001
 30
0.0
 11
882.01673825310002
 21
-458.18281325160001
 31
0.0
  0
LINE
  5
278
  8
┌▓È_1
 10
1042.0167382530999
 20
-394.43281325160001
 30
0.0
 11
1042.0167382530999
 21
-458.18281325160001
 31
0.0
  0
LINE
  5
279
  8
┌▓È_1
 10
922.01673825310002
 20
-394.43281325160001
 30
0.0
 11
922.01673825310002
 21
-415.6828132515999
 31
0.0
  0
LINE
  5
27A
  8
┌▓È_1
 10
1002.0167382531
 20
-394.43281325160001
 30
0.0
 11
1002.0167382531
 21
-436.93281325160001
 31
0.0
  0
LINE
  5
27B
  8
┌▓È_1
 62
     5
 10
1012.2659190858
 20
-443.76246731779997
 30
0.0
 11
1012.2659190858
 21
-447.3624673178
 31
0.0
  0
LINE
  5
27C
  8
┌▓È_1
 62
     5
 10
981.50974166809999
 20
-448.3624673178
 30
0.0
 11
981.50974166809999
 21
-447.3624673178
 31
0.0
  0
LINE
  5
27D
  8
┌▓È_1
 62
     5
 10
989.83095378929977
 20
-445.00668785269988
 30
0.0
 11
997.83095378929977
 21
-445.00668785269988
 31
0.0
  0
LINE
  5
27E
  8
┌▓È_1
 62
     5
 10
998.90357877259987
 20
-447.40060912799999
 30
0.0
 11
998.42238715999986
 21
-447.93208584910002
 31
0.0
  0
LINE
  5
27F
  8
┌▓È_1
 62
     5
 10
1025.4601777405001
 20
-452.56246731779999
 30
0.0
 11
1030.2659190858001
 21
-452.56246731779999
 31
0.0
  0
LINE
  5
280
  8
┌▓È_1
 62
     5
 10
972.50974166809999
 20
-450.36246731779988
 30
0.0
 11
972.50974166809999
 21
-447.3624673178
 31
0.0
  0
LINE
  5
281
  8
┌▓È_1
 62
     5
 10
1012.2659190858
 20
-448.96246731779991
 30
0.0
 11
1012.2659190858
 21
-452.56246731779999
 31
0.0
  0
LINE
  5
282
  8
┌▓È_1
 62
     5
 10
1012.2659190858
 20
-447.3624673178
 30
0.0
 11
1018.3192524192
 21
-447.3624673178
 31
0.0
  0
LINE
  5
283
  8
┌▓È_1
 62
     5
 10
1030.2659190858001
 20
-443.76246731779997
 30
0.0
 11
1030.2659190858001
 21
-447.3624673178
 31
0.0
  0
LINE
  5
284
  8
┌▓È_1
 62
     5
 10
989.83095378929977
 20
-443.96246731779991
 30
0.0
 11
999.83095378929977
 21
-443.96246731779991
 31
0.0
  0
LINE
  5
285
  8
┌▓È_1
 62
     5
 10
973.50974166809999
 20
-451.36246731779988
 30
0.0
 11
967.50974166809988
 21
-451.36246731779988
 31
0.0
  0
LINE
  5
286
  8
┌▓È_1
 62
     5
 10
1020.6659190858001
 20
-455.36246731779988
 30
0.0
 11
1019.8445857525001
 21
-452.56246731779999
 31
0.0
  0
LINE
  5
287
  8
┌▓È_1
 62
     5
 10
1024.4242245821999
 20
-448.96246731779991
 30
0.0
 11
1023.9638009562
 21
-447.3624673178
 31
0.0
  0
LINE
  5
288
  8
┌▓È_1
 62
     5
 10
967.50974166809988
 20
-451.36246731779988
 30
0.0
 11
967.50974166809988
 21
-454.36246731779988
 31
0.0
  0
LINE
  5
289
  8
┌▓È_1
 62
     5
 10
967.50974166809988
 20
-447.3624673178
 30
0.0
 11
967.20753404489994
 21
-447.3624673178
 31
0.0
  0
LINE
  5
28A
  8
┌▓È_1
 62
     5
 10
1018.7885857525
 20
-448.96246731779991
 30
0.0
 11
1018.3192524192
 21
-447.3624673178
 31
0.0
  0
LINE
  5
28B
  8
┌▓È_1
 62
     5
 10
1030.2659190858001
 20
-448.96246731779991
 30
0.0
 11
1030.2659190858001
 21
-452.56246731779999
 31
0.0
  0
LINE
  5
28C
  8
┌▓È_1
 62
     5
 10
967.50974166809988
 20
-444.3624673178
 30
0.0
 11
965.20753404489994
 21
-444.3624673178
 31
0.0
  0
LINE
  5
28D
  8
┌▓È_1
 62
     5
 10
989.83095378929977
 20
-454.36246731779988
 30
0.0
 11
989.83095378929977
 21
-451.36246731779988
 31
0.0
  0
LINE
  5
28E
  8
┌▓È_1
 62
     5
 10
972.50974166809999
 20
-444.3624673178
 30
0.0
 11
972.50974166809999
 21
-443.3624673178
 31
0.0
  0
LINE
  5
28F
  8
┌▓È_1
 62
     5
 10
1012.2659190858
 20
-452.56246731779999
 30
0.0
 11
1019.8445857525001
 21
-452.56246731779999
 31
0.0
  0
ARC
  5
290
  8
┌▓È_1
 62
     5
 10
994.83095378929988
 20
-443.3624673178
 30
0.0
 40
11.0
 50
322.48761197969998
 51
0.0
  0
LINE
  5
291
  8
┌▓È_1
 62
     5
 10
1024.4242245821999
 20
-448.96246731779991
 30
0.0
 11
1030.2659190858001
 21
-448.96246731779991
 31
0.0
  0
LINE
  5
292
  8
┌▓È_1
 62
     5
 10
1026.2659190858001
 20
-455.36246731779988
 30
0.0
 11
1025.4601777405001
 21
-452.56246731779999
 31
0.0
  0
LINE
  5
293
  8
┌▓È_1
 62
     5
 10
972.50974166809999
 20
-447.3624673178
 30
0.0
 11
976.50974166809988
 21
-447.3624673178
 31
0.0
  0
LINE
  5
294
  8
┌▓È_1
 62
     5
 10
976.50974166809988
 20
-447.3624673178
 30
0.0
 11
976.50974166809988
 21
-448.3624673178
 31
0.0
  0
LINE
  5
295
  8
┌▓È_1
 62
     5
 10
1012.2659190858
 20
-443.76246731779997
 30
0.0
 11
1017.2632524191999
 21
-443.76246731779997
 31
0.0
  0
LINE
  5
296
  8
┌▓È_1
 62
     5
 10
981.50974166809999
 20
-444.3624673178
 30
0.0
 11
981.50974166809999
 21
-443.3624673178
 31
0.0
  0
LINE
  5
297
  8
┌▓È_1
 62
     5
 10
984.50974166809988
 20
-444.3624673178
 30
0.0
 11
981.50974166809999
 21
-444.3624673178
 31
0.0
  0
LINE
  5
298
  8
┌▓È_1
 10
967.0167382530999
 20
-405.0578132515999
 30
0.0
 11
997.01673825310002
 21
-405.0578132515999
 31
0.0
  0
LINE
  5
299
  8
┌▓È_1
 10
967.0167382530999
 20
-426.30781325160001
 30
0.0
 11
997.01673825310002
 21
-426.30781325160001
 31
0.0
  0
INSERT
  5
29A
  8
0
  6
CONTINUOUS
  2
*U48
 10
0.0
 20
0.0
 30
0.0
  0
INSERT
  5
29B
  8
0
  6
CONTINUOUS
  2
*U49
 10
0.0
 20
0.0
 30
0.0
  0
INSERT
  5
29C
  8
0
  6
CONTINUOUS
  2
*U50
 10
0.0
 20
0.0
 30
0.0
  0
INSERT
  5
29D
  8
0
  6
CONTINUOUS
  2
*U51
 10
0.0
 20
0.0
 30
0.0
  0
INSERT
  5
29E
  8
0
  6
CONTINUOUS
  2
*U52
 10
0.0
 20
0.0
 30
0.0
  0
INSERT
  5
29F
  8
0
  6
CONTINUOUS
  2
*U53
 10
0.0
 20
0.0
 30
0.0
  0
INSERT
  5
2A0
  8
0
  6
CONTINUOUS
  2
*U54
 10
0.0
 20
0.0
 30
0.0
  0
INSERT
  5
2A1
  8
0
  6
CONTINUOUS
  2
*U55
 10
0.0
 20
0.0
 30
0.0
  0
INSERT
  5
2A2
  8
0
  6
CONTINUOUS
  2
*U56
 10
0.0
 20
0.0
 30
0.0
  0
ARC
  5
2A3
  8
┌▓È_1
 62
     5
 10
992.23095378929986
 20
-443.76246731779997
 30
0.0
 40
7.5999999999999988
 50
270.0
 51
298.08590481520002
  0
INSERT
  5
2A4
  8
0
  6
CONTINUOUS
  2
*U57
 10
0.0
 20
0.0
 30
0.0
  0
INSERT
  5
2A5
  8
0
  6
CONTINUOUS
  2
*U58
 10
0.0
 20
0.0
 30
0.0
  0
INSERT
  5
2A6
  8
0
  6
CONTINUOUS
  2
*U59
 10
0.0
 20
0.0
 30
0.0
  0
INSERT
  5
2A7
  8
0
  6
CONTINUOUS
  2
*U60
 10
0.0
 20
0.0
 30
0.0
  0
LINE
  5
2A8
  8
┌▓È_1
 62
     5
 10
1017.2632524191999
 20
-443.76246731779997
 30
0.0
 11
1016.2659190858
 21
-440.3624673178
 31
0.0
  0
LINE
  5
2A9
  8
┌▓È_1
 62
     5
 10
967.50974166809988
 20
-440.3624673178
 30
0.0
 11
967.50974166809988
 21
-444.3624673178
 31
0.0
  0
LINE
  5
2AA
  8
┌▓È_1
 62
     5
 10
972.50974166809999
 20
-443.3624673178
 30
0.0
 11
975.50974166809999
 21
-440.3624673178
 31
0.0
  0
LINE
  5
2AB
  8
┌▓È_1
 62
     5
 10
975.50974166809999
 20
-440.3624673178
 30
0.0
 11
967.50974166809988
 21
-440.3624673178
 31
0.0
  0
LINE
  5
2AC
  8
┌▓È_1
 62
     5
 10
976.50974166809988
 20
-444.3624673178
 30
0.0
 11
972.50974166809999
 21
-444.3624673178
 31
0.0
  0
LINE
  5
2AD
  8
┌▓È_1
 62
     5
 10
1022.6350592975
 20
-442.7450095369
 30
0.0
 11
1024.2659190858001
 21
-440.3624673178
 31
0.0
  0
ARC
  5
2AE
  8
┌▓È_1
 62
     5
 10
975.50974166809999
 20
-448.3624673178
 30
0.0
 40
6.0
 50
270.0
 51
0.0
  0
LINE
  5
2AF
  8
┌▓È_1
 62
     5
 10
989.83095378929977
 20
-440.3624673178
 30
0.0
 11
989.83095378929977
 21
-443.96246731779991
 31
0.0
  0
LINE
  5
2B0
  8
┌▓È_1
 62
     5
 10
984.50974166809988
 20
-440.3624673178
 30
0.0
 11
976.50974166809988
 21
-440.3624673178
 31
0.0
  0
POLYLINE
  8
┌▓È_1
  5
375
  62
5
  66
     1
 10
0.000000
 20
0.000000
 30
0.000000
  70
     8
  0
VERTEX
  8
┌▓È_1
  5
376
 10
996.700
 20
-446.138
 30
0.000000
  70
    32
  0
VERTEX
  8
┌▓È_1
  5
377
 10
996.713
 20
-446.153
 30
0.000000
  70
    32
  0
VERTEX
  8
┌▓È_1
  5
378
 10
996.726
 20
-446.167
 30
0.000000
  70
    32
  0
VERTEX
  8
┌▓È_1
  5
379
 10
996.739
 20
-446.182
 30
0.000000
  70
    32
  0
VERTEX
  8
┌▓È_1
  5
37A
 10
996.752
 20
-446.197
 30
0.000000
  70
    32
  0
VERTEX
  8
┌▓È_1
  5
37B
 10
996.766
 20
-446.212
 30
0.000000
  70
    32
  0
VERTEX
  8
┌▓È_1
  5
37C
 10
996.779
 20
-446.226
 30
0.000000
  70
    32
  0
VERTEX
  8
┌▓È_1
  5
37D
 10
996.792
 20
-446.241
 30
0.000000
  70
    32
  0
VERTEX
  8
┌▓È_1
  5
37E
 10
996.805
 20
-446.256
 30
0.000000
  70
    32
  0
VERTEX
  8
┌▓È_1
  5
37F
 10
996.818
 20
-446.270
 30
0.000000
  70
    32
  0
VERTEX
  8
┌▓È_1
  5
380
 10
996.832
 20
-446.285
 30
0.000000
  70
    32
  0
VERTEX
  8
┌▓È_1
  5
381
 10
996.845
 20
-446.300
 30
0.000000
  70
    32
  0
VERTEX
  8
┌▓È_1
  5
382
 10
996.858
 20
-446.315
 30
0.000000
  70
    32
  0
VERTEX
  8
┌▓È_1
  5
383
 10
996.871
 20
-446.329
 30
0.000000
  70
    32
  0
VERTEX
  8
┌▓È_1
  5
384
 10
996.884
 20
-446.344
 30
0.000000
  70
    32
  0
VERTEX
  8
┌▓È_1
  5
385
 10
996.898
 20
-446.359
 30
0.000000
  70
    32
  0
VERTEX
  8
┌▓È_1
  5
386
 10
996.911
 20
-446.373
 30
0.000000
  70
    32
  0
VERTEX
  8
┌▓È_1
  5
387
 10
996.924
 20
-446.388
 30
0.000000
  70
    32
  0
VERTEX
  8
┌▓È_1
  5
388
 10
996.937
 20
-446.403
 30
0.000000
  70
    32
  0
VERTEX
  8
┌▓È_1
  5
389
 10
996.951
 20
-446.417
 30
0.000000
  70
    32
  0
VERTEX
  8
┌▓È_1
  5
38A
 10
996.964
 20
-446.432
 30
0.000000
  70
    32
  0
VERTEX
  8
┌▓È_1
  5
38B
 10
996.977
 20
-446.447
 30
0.000000
  70
    32
  0
VERTEX
  8
┌▓È_1
  5
38C
 10
996.990
 20
-446.461
 30
0.000000
  70
    32
  0
VERTEX
  8
┌▓È_1
  5
38D
 10
997.003
 20
-446.476
 30
0.000000
  70
    32
  0
VERTEX
  8
┌▓È_1
  5
38E
 10
997.017
 20
-446.491
 30
0.000000
  70
    32
  0
VERTEX
  8
┌▓È_1
  5
38F
 10
997.030
 20
-446.505
 30
0.000000
  70
    32
  0
VERTEX
  8
┌▓È_1
  5
390
 10
997.043
 20
-446.520
 30
0.000000
  70
    32
  0
VERTEX
  8
┌▓È_1
  5
391
 10
997.056
 20
-446.535
 30
0.000000
  70
    32
  0
VERTEX
  8
┌▓È_1
  5
392
 10
997.070
 20
-446.549
 30
0.000000
  70
    32
  0
VERTEX
  8
┌▓È_1
  5
393
 10
997.083
 20
-446.564
 30
0.000000
  70
    32
  0
VERTEX
  8
┌▓È_1
  5
394
 10
997.096
 20
-446.579
 30
0.000000
  70
    32
  0
VERTEX
  8
┌▓È_1
  5
395
 10
997.109
 20
-446.593
 30
0.000000
  70
    32
  0
VERTEX
  8
┌▓È_1
  5
396
 10
997.123
 20
-446.608
 30
0.000000
  70
    32
  0
VERTEX
  8
┌▓È_1
  5
397
 10
997.136
 20
-446.622
 30
0.000000
  70
    32
  0
VERTEX
  8
┌▓È_1
  5
398
 10
997.149
 20
-446.637
 30
0.000000
  70
    32
  0
VERTEX
  8
┌▓È_1
  5
399
 10
997.163
 20
-446.652
 30
0.000000
  70
    32
  0
VERTEX
  8
┌▓È_1
  5
39A
 10
997.176
 20
-446.666
 30
0.000000
  70
    32
  0
VERTEX
  8
┌▓È_1
  5
39B
 10
997.189
 20
-446.681
 30
0.000000
  70
    32
  0
VERTEX
  8
┌▓È_1
  5
39C
 10
997.202
 20
-446.695
 30
0.000000
  70
    32
  0
VERTEX
  8
┌▓È_1
  5
39D
 10
997.216
 20
-446.710
 30
0.000000
  70
    32
  0
VERTEX
  8
┌▓È_1
  5
39E
 10
997.229
 20
-446.724
 30
0.000000
  70
    32
  0
VERTEX
  8
┌▓È_1
  5
39F
 10
997.242
 20
-446.739
 30
0.000000
  70
    32
  0
VERTEX
  8
┌▓È_1
  5
3A0
 10
997.256
 20
-446.753
 30
0.000000
  70
    32
  0
VERTEX
  8
┌▓È_1
  5
3A1
 10
997.269
 20
-446.768
 30
0.000000
  70
    32
  0
VERTEX
  8
┌▓È_1
  5
3A2
 10
997.282
 20
-446.782
 30
0.000000
  70
    32
  0
VERTEX
  8
┌▓È_1
  5
3A3
 10
997.296
 20
-446.797
 30
0.000000
  70
    32
  0
VERTEX
  8
┌▓È_1
  5
3A4
 10
997.309
 20
-446.811
 30
0.000000
  70
    32
  0
VERTEX
  8
┌▓È_1
  5
3A5
 10
997.322
 20
-446.826
 30
0.000000
  70
    32
  0
VERTEX
  8
┌▓È_1
  5
3A6
 10
997.336
 20
-446.840
 30
0.000000
  70
    32
  0
VERTEX
  8
┌▓È_1
  5
3A7
 10
997.349
 20
-446.855
 30
0.000000
  70
    32
  0
VERTEX
  8
┌▓È_1
  5
3A8
 10
997.362
 20
-446.869
 30
0.000000
  70
    32
  0
VERTEX
  8
┌▓È_1
  5
3A9
 10
997.376
 20
-446.884
 30
0.000000
  70
    32
  0
VERTEX
  8
┌▓È_1
  5
3AA
 10
997.389
 20
-446.898
 30
0.000000
  70
    32
  0
VERTEX
  8
┌▓È_1
  5
3AB
 10
997.402
 20
-446.913
 30
0.000000
  70
    32
  0
VERTEX
  8
┌▓È_1
  5
3AC
 10
997.416
 20
-446.927
 30
0.000000
  70
    32
  0
VERTEX
  8
┌▓È_1
  5
3AD
 10
997.429
 20
-446.941
 30
0.000000
  70
    32
  0
VERTEX
  8
┌▓È_1
  5
3AE
 10
997.443
 20
-446.956
 30
0.000000
  70
    32
  0
VERTEX
  8
┌▓È_1
  5
3AF
 10
997.456
 20
-446.970
 30
0.000000
  70
    32
  0
VERTEX
  8
┌▓È_1
  5
3B0
 10
997.470
 20
-446.984
 30
0.000000
  70
    32
  0
VERTEX
  8
┌▓È_1
  5
3B1
 10
997.483
 20
-446.999
 30
0.000000
  70
    32
  0
VERTEX
  8
┌▓È_1
  5
3B2
 10
997.496
 20
-447.013
 30
0.000000
  70
    32
  0
VERTEX
  8
┌▓È_1
  5
3B3
 10
997.510
 20
-447.027
 30
0.000000
  70
    32
  0
VERTEX
  8
┌▓È_1
  5
3B4
 10
997.523
 20
-447.042
 30
0.000000
  70
    32
  0
VERTEX
  8
┌▓È_1
  5
3B5
 10
997.537
 20
-447.056
 30
0.000000
  70
    32
  0
VERTEX
  8
┌▓È_1
  5
3B6
 10
997.550
 20
-447.070
 30
0.000000
  70
    32
  0
VERTEX
  8
┌▓È_1
  5
3B7
 10
997.564
 20
-447.085
 30
0.000000
  70
    32
  0
VERTEX
  8
┌▓È_1
  5
3B8
 10
997.577
 20
-447.099
 30
0.000000
  70
    32
  0
VERTEX
  8
┌▓È_1
  5
3B9
 10
997.591
 20
-447.113
 30
0.000000
  70
    32
  0
VERTEX
  8
┌▓È_1
  5
3BA
 10
997.604
 20
-447.127
 30
0.000000
  70
    32
  0
VERTEX
  8
┌▓È_1
  5
3BB
 10
997.618
 20
-447.141
 30
0.000000
  70
    32
  0
VERTEX
  8
┌▓È_1
  5
3BC
 10
997.631
 20
-447.156
 30
0.000000
  70
    32
  0
VERTEX
  8
┌▓È_1
  5
3BD
 10
997.645
 20
-447.170
 30
0.000000
  70
    32
  0
VERTEX
  8
┌▓È_1
  5
3BE
 10
997.658
 20
-447.184
 30
0.000000
  70
    32
  0
VERTEX
  8
┌▓È_1
  5
3BF
 10
997.672
 20
-447.198
 30
0.000000
  70
    32
  0
VERTEX
  8
┌▓È_1
  5
3C0
 10
997.685
 20
-447.212
 30
0.000000
  70
    32
  0
VERTEX
  8
┌▓È_1
  5
3C1
 10
997.699
 20
-447.226
 30
0.000000
  70
    32
  0
VERTEX
  8
┌▓È_1
  5
3C2
 10
997.713
 20
-447.240
 30
0.000000
  70
    32
  0
VERTEX
  8
┌▓È_1
  5
3C3
 10
997.726
 20
-447.255
 30
0.000000
  70
    32
  0
VERTEX
  8
┌▓È_1
  5
3C4
 10
997.740
 20
-447.269
 30
0.000000
  70
    32
  0
VERTEX
  8
┌▓È_1
  5
3C5
 10
997.753
 20
-447.283
 30
0.000000
  70
    32
  0
VERTEX
  8
┌▓È_1
  5
3C6
 10
997.767
 20
-447.297
 30
0.000000
  70
    32
  0
VERTEX
  8
┌▓È_1
  5
3C7
 10
997.781
 20
-447.311
 30
0.000000
  70
    32
  0
VERTEX
  8
┌▓È_1
  5
3C8
 10
997.794
 20
-447.325
 30
0.000000
  70
    32
  0
VERTEX
  8
┌▓È_1
  5
3C9
 10
997.808
 20
-447.339
 30
0.000000
  70
    32
  0
VERTEX
  8
┌▓È_1
  5
3CA
 10
997.822
 20
-447.353
 30
0.000000
  70
    32
  0
VERTEX
  8
┌▓È_1
  5
3CB
 10
997.835
 20
-447.366
 30
0.000000
  70
    32
  0
VERTEX
  8
┌▓È_1
  5
3CC
 10
997.849
 20
-447.380
 30
0.000000
  70
    32
  0
VERTEX
  8
┌▓È_1
  5
3CD
 10
997.863
 20
-447.394
 30
0.000000
  70
    32
  0
VERTEX
  8
┌▓È_1
  5
3CE
 10
997.877
 20
-447.408
 30
0.000000
  70
    32
  0
VERTEX
  8
┌▓È_1
  5
3CF
 10
997.890
 20
-447.422
 30
0.000000
  70
    32
  0
VERTEX
  8
┌▓È_1
  5
3D0
 10
997.904
 20
-447.436
 30
0.000000
  70
    32
  0
VERTEX
  8
┌▓È_1
  5
3D1
 10
997.918
 20
-447.450
 30
0.000000
  70
    32
  0
VERTEX
  8
┌▓È_1
  5
3D2
 10
997.932
 20
-447.463
 30
0.000000
  70
    32
  0
VERTEX
  8
┌▓È_1
  5
3D3
 10
997.945
 20
-447.477
 30
0.000000
  70
    32
  0
VERTEX
  8
┌▓È_1
  5
3D4
 10
997.959
 20
-447.491
 30
0.000000
  70
    32
  0
VERTEX
  8
┌▓È_1
  5
3D5
 10
997.973
 20
-447.505
 30
0.000000
  70
    32
  0
VERTEX
  8
┌▓È_1
  5
3D6
 10
997.987
 20
-447.518
 30
0.000000
  70
    32
  0
VERTEX
  8
┌▓È_1
  5
3D7
 10
998.001
 20
-447.532
 30
0.000000
  70
    32
  0
VERTEX
  8
┌▓È_1
  5
3D8
 10
998.014
 20
-447.546
 30
0.000000
  70
    32
  0
VERTEX
  8
┌▓È_1
  5
3D9
 10
998.028
 20
-447.559
 30
0.000000
  70
    32
  0
VERTEX
  8
┌▓È_1
  5
3DA
 10
998.042
 20
-447.573
 30
0.000000
  70
    32
  0
VERTEX
  8
┌▓È_1
  5
3DB
 10
998.056
 20
-447.587
 30
0.000000
  70
    32
  0
VERTEX
  8
┌▓È_1
  5
3DC
 10
998.070
 20
-447.600
 30
0.000000
  70
    32
  0
VERTEX
  8
┌▓È_1
  5
3DD
 10
998.084
 20
-447.614
 30
0.000000
  70
    32
  0
VERTEX
  8
┌▓È_1
  5
3DE
 10
998.098
 20
-447.627
 30
0.000000
  70
    32
  0
VERTEX
  8
┌▓È_1
  5
3DF
 10
998.112
 20
-447.641
 30
0.000000
  70
    32
  0
VERTEX
  8
┌▓È_1
  5
3E0
 10
998.126
 20
-447.654
 30
0.000000
  70
    32
  0
VERTEX
  8
┌▓È_1
  5
3E1
 10
998.140
 20
-447.668
 30
0.000000
  70
    32
  0
VERTEX
  8
┌▓È_1
  5
3E2
 10
998.154
 20
-447.681
 30
0.000000
  70
    32
  0
VERTEX
  8
┌▓È_1
  5
3E3
 10
998.168
 20
-447.695
 30
0.000000
  70
    32
  0
VERTEX
  8
┌▓È_1
  5
3E4
 10
998.182
 20
-447.708
 30
0.000000
  70
    32
  0
VERTEX
  8
┌▓È_1
  5
3E5
 10
998.196
 20
-447.722
 30
0.000000
  70
    32
  0
VERTEX
  8
┌▓È_1
  5
3E6
 10
998.210
 20
-447.735
 30
0.000000
  70
    32
  0
VERTEX
  8
┌▓È_1
  5
3E7
 10
998.224
 20
-447.748
 30
0.000000
  70
    32
  0
VERTEX
  8
┌▓È_1
  5
3E8
 10
998.238
 20
-447.762
 30
0.000000
  70
    32
  0
VERTEX
  8
┌▓È_1
  5
3E9
 10
998.252
 20
-447.775
 30
0.000000
  70
    32
  0
VERTEX
  8
┌▓È_1
  5
3EA
 10
998.266
 20
-447.788
 30
0.000000
  70
    32
  0
VERTEX
  8
┌▓È_1
  5
3EB
 10
998.280
 20
-447.801
 30
0.000000
  70
    32
  0
VERTEX
  8
┌▓È_1
  5
3EC
 10
998.294
 20
-447.814
 30
0.000000
  70
    32
  0
VERTEX
  8
┌▓È_1
  5
3ED
 10
998.309
 20
-447.828
 30
0.000000
  70
    32
  0
VERTEX
  8
┌▓È_1
  5
3EE
 10
998.323
 20
-447.841
 30
0.000000
  70
    32
  0
VERTEX
  8
┌▓È_1
  5
3EF
 10
998.337
 20
-447.854
 30
0.000000
  70
    32
  0
VERTEX
  8
┌▓È_1
  5
3F0
 10
998.351
 20
-447.867
 30
0.000000
  70
    32
  0
VERTEX
  8
┌▓È_1
  5
3F1
 10
998.365
 20
-447.880
 30
0.000000
  70
    32
  0
VERTEX
  8
┌▓È_1
  5
3F2
 10
998.380
 20
-447.893
 30
0.000000
  70
    32
  0
VERTEX
  8
┌▓È_1
  5
3F3
 10
998.394
 20
-447.906
 30
0.000000
  70
    32
  0
VERTEX
  8
┌▓È_1
  5
3F4
 10
998.408
 20
-447.919
 30
0.000000
  70
    32
  0
VERTEX
  8
┌▓È_1
  5
3F5
 10
998.422
 20
-447.932
 30
0.000000
  70
    32
  0
SEQEND
  8
┌▓È_1
  5
3F6
  0
POLYLINE
  8
┌▓È_1
  5
3F7
  62
5
  66
     1
 10
0.000000
 20
0.000000
 30
0.000000
  70
     8
  0
VERTEX
  8
┌▓È_1
  5
3F8
 10
1000.75
 20
-452.635
 30
0.000000
  70
    32
  0
VERTEX
  8
┌▓È_1
  5
3F9
 10
1000.80
 20
-452.652
 30
0.000000
  70
    32
  0
VERTEX
  8
┌▓È_1
  5
3FA
 10
1000.86
 20
-452.669
 30
0.000000
  70
    32
  0
VERTEX
  8
┌▓È_1
  5
3FB
 10
1000.91
 20
-452.686
 30
0.000000
  70
    32
  0
VERTEX
  8
┌▓È_1
  5
3FC
 10
1000.96
 20
-452.703
 30
0.000000
  70
    32
  0
VERTEX
  8
┌▓È_1
  5
3FD
 10
1001.02
 20
-452.720
 30
0.000000
  70
    32
  0
VERTEX
  8
┌▓È_1
  5
3FE
 10
1001.07
 20
-452.737
 30
0.000000
  70
    32
  0
VERTEX
  8
┌▓È_1
  5
3FF
 10
1001.13
 20
-452.754
 30
0.000000
  70
    32
  0
VERTEX
  8
┌▓È_1
  5
400
 10
1001.18
 20
-452.770
 30
0.000000
  70
    32
  0
VERTEX
  8
┌▓È_1
  5
401
 10
1001.23
 20
-452.787
 30
0.000000
  70
    32
  0
VERTEX
  8
┌▓È_1
  5
402
 10
1001.29
 20
-452.803
 30
0.000000
  70
    32
  0
VERTEX
  8
┌▓È_1
  5
403
 10
1001.34
 20
-452.819
 30
0.000000
  70
    32
  0
VERTEX
  8
┌▓È_1
  5
404
 10
1001.40
 20
-452.836
 30
0.000000
  70
    32
  0
VERTEX
  8
┌▓È_1
  5
405
 10
1001.45
 20
-452.852
 30
0.000000
  70
    32
  0
VERTEX
  8
┌▓È_1
  5
406
 10
1001.51
 20
-452.868
 30
0.000000
  70
    32
  0
VERTEX
  8
┌▓È_1
  5
407
 10
1001.56
 20
-452.884
 30
0.000000
  70
    32
  0
VERTEX
  8
┌▓È_1
  5
408
 10
1001.62
 20
-452.900
 30
0.000000
  70
    32
  0
VERTEX
  8
┌▓È_1
  5
409
 10
1001.67
 20
-452.916
 30
0.000000
  70
    32
  0
VERTEX
  8
┌▓È_1
  5
40A
 10
1001.72
 20
-452.932
 30
0.000000
  70
    32
  0
VERTEX
  8
┌▓È_1
  5
40B
 10
1001.78
 20
-452.948
 30
0.000000
  70
    32
  0
VERTEX
  8
┌▓È_1
  5
40C
 10
1001.83
 20
-452.963
 30
0.000000
  70
    32
  0
VERTEX
  8
┌▓È_1
  5
40D
 10
1001.89
 20
-452.979
 30
0.000000
  70
    32
  0
VERTEX
  8
┌▓È_1
  5
40E
 10
1001.94
 20
-452.994
 30
0.000000
  70
    32
  0
VERTEX
  8
┌▓È_1
  5
40F
 10
1002.00
 20
-453.010
 30
0.000000
  70
    32
  0
VERTEX
  8
┌▓È_1
  5
410
 10
1002.05
 20
-453.025
 30
0.000000
  70
    32
  0
VERTEX
  8
┌▓È_1
  5
411
 10
1002.11
 20
-453.040
 30
0.000000
  70
    32
  0
VERTEX
  8
┌▓È_1
  5
412
 10
1002.16
 20
-453.056
 30
0.000000
  70
    32
  0
VERTEX
  8
┌▓È_1
  5
413
 10
1002.22
 20
-453.071
 30
0.000000
  70
    32
  0
VERTEX
  8
┌▓È_1
  5
414
 10
1002.27
 20
-453.086
 30
0.000000
  70
    32
  0
VERTEX
  8
┌▓È_1
  5
415
 10
1002.33
 20
-453.101
 30
0.000000
  70
    32
  0
VERTEX
  8
┌▓È_1
  5
416
 10
1002.38
 20
-453.116
 30
0.000000
  70
    32
  0
VERTEX
  8
┌▓È_1
  5
417
 10
1002.44
 20
-453.131
 30
0.000000
  70
    32
  0
VERTEX
  8
┌▓È_1
  5
418
 10
1002.49
 20
-453.146
 30
0.000000
  70
    32
  0
VERTEX
  8
┌▓È_1
  5
419
 10
1002.55
 20
-453.161
 30
0.000000
  70
    32
  0
VERTEX
  8
┌▓È_1
  5
41A
 10
1002.60
 20
-453.175
 30
0.000000
  70
    32
  0
VERTEX
  8
┌▓È_1
  5
41B
 10
1002.66
 20
-453.190
 30
0.000000
  70
    32
  0
VERTEX
  8
┌▓È_1
  5
41C
 10
1002.71
 20
-453.205
 30
0.000000
  70
    32
  0
VERTEX
  8
┌▓È_1
  5
41D
 10
1002.77
 20
-453.219
 30
0.000000
  70
    32
  0
VERTEX
  8
┌▓È_1
  5
41E
 10
1002.82
 20
-453.234
 30
0.000000
  70
    32
  0
VERTEX
  8
┌▓È_1
  5
41F
 10
1002.88
 20
-453.248
 30
0.000000
  70
    32
  0
VERTEX
  8
┌▓È_1
  5
420
 10
1002.93
 20
-453.263
 30
0.000000
  70
    32
  0
VERTEX
  8
┌▓È_1
  5
421
 10
1002.99
 20
-453.277
 30
0.000000
  70
    32
  0
VERTEX
  8
┌▓È_1
  5
422
 10
1003.04
 20
-453.291
 30
0.000000
  70
    32
  0
VERTEX
  8
┌▓È_1
  5
423
 10
1003.10
 20
-453.305
 30
0.000000
  70
    32
  0
VERTEX
  8
┌▓È_1
  5
424
 10
1003.16
 20
-453.319
 30
0.000000
  70
    32
  0
VERTEX
  8
┌▓È_1
  5
425
 10
1003.21
 20
-453.333
 30
0.000000
  70
    32
  0
VERTEX
  8
┌▓È_1
  5
426
 10
1003.27
 20
-453.347
 30
0.000000
  70
    32
  0
VERTEX
  8
┌▓È_1
  5
427
 10
1003.32
 20
-453.361
 30
0.000000
  70
    32
  0
VERTEX
  8
┌▓È_1
  5
428
 10
1003.38
 20
-453.375
 30
0.000000
  70
    32
  0
VERTEX
  8
┌▓È_1
  5
429
 10
1003.43
 20
-453.389
 30
0.000000
  70
    32
  0
VERTEX
  8
┌▓È_1
  5
42A
 10
1003.49
 20
-453.403
 30
0.000000
  70
    32
  0
VERTEX
  8
┌▓È_1
  5
42B
 10
1003.55
 20
-453.417
 30
0.000000
  70
    32
  0
VERTEX
  8
┌▓È_1
  5
42C
 10
1003.60
 20
-453.431
 30
0.000000
  70
    32
  0
VERTEX
  8
┌▓È_1
  5
42D
 10
1003.66
 20
-453.444
 30
0.000000
  70
    32
  0
VERTEX
  8
┌▓È_1
  5
42E
 10
1003.71
 20
-453.458
 30
0.000000
  70
    32
  0
VERTEX
  8
┌▓È_1
  5
42F
 10
1003.77
 20
-453.471
 30
0.000000
  70
    32
  0
VERTEX
  8
┌▓È_1
  5
430
 10
1003.82
 20
-453.485
 30
0.000000
  70
    32
  0
VERTEX
  8
┌▓È_1
  5
431
 10
1003.88
 20
-453.498
 30
0.000000
  70
    32
  0
VERTEX
  8
┌▓È_1
  5
432
 10
1003.94
 20
-453.512
 30
0.000000
  70
    32
  0
VERTEX
  8
┌▓È_1
  5
433
 10
1003.99
 20
-453.525
 30
0.000000
  70
    32
  0
VERTEX
  8
┌▓È_1
  5
434
 10
1004.05
 20
-453.538
 30
0.000000
  70
    32
  0
VERTEX
  8
┌▓È_1
  5
435
 10
1004.10
 20
-453.552
 30
0.000000
  70
    32
  0
VERTEX
  8
┌▓È_1
  5
436
 10
1004.16
 20
-453.565
 30
0.000000
  70
    32
  0
VERTEX
  8
┌▓È_1
  5
437
 10
1004.22
 20
-453.578
 30
0.000000
  70
    32
  0
VERTEX
  8
┌▓È_1
  5
438
 10
1004.27
 20
-453.591
 30
0.000000
  70
    32
  0
VERTEX
  8
┌▓È_1
  5
439
 10
1004.33
 20
-453.604
 30
0.000000
  70
    32
  0
VERTEX
  8
┌▓È_1
  5
43A
 10
1004.38
 20
-453.617
 30
0.000000
  70
    32
  0
VERTEX
  8
┌▓È_1
  5
43B
 10
1004.44
 20
-453.631
 30
0.000000
  70
    32
  0
VERTEX
  8
┌▓È_1
  5
43C
 10
1004.50
 20
-453.644
 30
0.000000
  70
    32
  0
VERTEX
  8
┌▓È_1
  5
43D
 10
1004.55
 20
-453.656
 30
0.000000
  70
    32
  0
VERTEX
  8
┌▓È_1
  5
43E
 10
1004.61
 20
-453.669
 30
0.000000
  70
    32
  0
VERTEX
  8
┌▓È_1
  5
43F
 10
1004.66
 20
-453.682
 30
0.000000
  70
    32
  0
VERTEX
  8
┌▓È_1
  5
440
 10
1004.72
 20
-453.695
 30
0.000000
  70
    32
  0
VERTEX
  8
┌▓È_1
  5
441
 10
1004.78
 20
-453.708
 30
0.000000
  70
    32
  0
VERTEX
  8
┌▓È_1
  5
442
 10
1004.83
 20
-453.721
 30
0.000000
  70
    32
  0
VERTEX
  8
┌▓È_1
  5
443
 10
1004.89
 20
-453.733
 30
0.000000
  70
    32
  0
VERTEX
  8
┌▓È_1
  5
444
 10
1004.95
 20
-453.746
 30
0.000000
  70
    32
  0
VERTEX
  8
┌▓È_1
  5
445
 10
1005.00
 20
-453.759
 30
0.000000
  70
    32
  0
VERTEX
  8
┌▓È_1
  5
446
 10
1005.06
 20
-453.771
 30
0.000000
  70
    32
  0
VERTEX
  8
┌▓È_1
  5
447
 10
1005.11
 20
-453.784
 30
0.000000
  70
    32
  0
VERTEX
  8
┌▓È_1
  5
448
 10
1005.17
 20
-453.796
 30
0.000000
  70
    32
  0
VERTEX
  8
┌▓È_1
  5
449
 10
1005.23
 20
-453.809
 30
0.000000
  70
    32
  0
VERTEX
  8
┌▓È_1
  5
44A
 10
1005.28
 20
-453.821
 30
0.000000
  70
    32
  0
VERTEX
  8
┌▓È_1
  5
44B
 10
1005.34
 20
-453.834
 30
0.000000
  70
    32
  0
VERTEX
  8
┌▓È_1
  5
44C
 10
1005.40
 20
-453.846
 30
0.000000
  70
    32
  0
VERTEX
  8
┌▓È_1
  5
44D
 10
1005.45
 20
-453.859
 30
0.000000
  70
    32
  0
VERTEX
  8
┌▓È_1
  5
44E
 10
1005.51
 20
-453.871
 30
0.000000
  70
    32
  0
VERTEX
  8
┌▓È_1
  5
44F
 10
1005.57
 20
-453.883
 30
0.000000
  70
    32
  0
VERTEX
  8
┌▓È_1
  5
450
 10
1005.62
 20
-453.896
 30
0.000000
  70
    32
  0
VERTEX
  8
┌▓È_1
  5
451
 10
1005.68
 20
-453.908
 30
0.000000
  70
    32
  0
VERTEX
  8
┌▓È_1
  5
452
 10
1005.73
 20
-453.920
 30
0.000000
  70
    32
  0
VERTEX
  8
┌▓È_1
  5
453
 10
1005.79
 20
-453.933
 30
0.000000
  70
    32
  0
VERTEX
  8
┌▓È_1
  5
454
 10
1005.85
 20
-453.945
 30
0.000000
  70
    32
  0
VERTEX
  8
┌▓È_1
  5
455
 10
1005.90
 20
-453.957
 30
0.000000
  70
    32
  0
VERTEX
  8
┌▓È_1
  5
456
 10
1005.96
 20
-453.969
 30
0.000000
  70
    32
  0
VERTEX
  8
┌▓È_1
  5
457
 10
1006.02
 20
-453.981
 30
0.000000
  70
    32
  0
VERTEX
  8
┌▓È_1
  5
458
 10
1006.07
 20
-453.993
 30
0.000000
  70
    32
  0
VERTEX
  8
┌▓È_1
  5
459
 10
1006.13
 20
-454.006
 30
0.000000
  70
    32
  0
VERTEX
  8
┌▓È_1
  5
45A
 10
1006.19
 20
-454.018
 30
0.000000
  70
    32
  0
VERTEX
  8
┌▓È_1
  5
45B
 10
1006.24
 20
-454.030
 30
0.000000
  70
    32
  0
VERTEX
  8
┌▓È_1
  5
45C
 10
1006.30
 20
-454.042
 30
0.000000
  70
    32
  0
VERTEX
  8
┌▓È_1
  5
45D
 10
1006.36
 20
-454.054
 30
0.000000
  70
    32
  0
VERTEX
  8
┌▓È_1
  5
45E
 10
1006.41
 20
-454.066
 30
0.000000
  70
    32
  0
VERTEX
  8
┌▓È_1
  5
45F
 10
1006.47
 20
-454.078
 30
0.000000
  70
    32
  0
VERTEX
  8
┌▓È_1
  5
460
 10
1006.53
 20
-454.090
 30
0.000000
  70
    32
  0
VERTEX
  8
┌▓È_1
  5
461
 10
1006.58
 20
-454.102
 30
0.000000
  70
    32
  0
VERTEX
  8
┌▓È_1
  5
462
 10
1006.64
 20
-454.114
 30
0.000000
  70
    32
  0
VERTEX
  8
┌▓È_1
  5
463
 10
1006.70
 20
-454.126
 30
0.000000
  70
    32
  0
VERTEX
  8
┌▓È_1
  5
464
 10
1006.75
 20
-454.138
 30
0.000000
  70
    32
  0
VERTEX
  8
┌▓È_1
  5
465
 10
1006.81
 20
-454.149
 30
0.000000
  70
    32
  0
VERTEX
  8
┌▓È_1
  5
466
 10
1006.87
 20
-454.161
 30
0.000000
  70
    32
  0
VERTEX
  8
┌▓È_1
  5
467
 10
1006.92
 20
-454.173
 30
0.000000
  70
    32
  0
VERTEX
  8
┌▓È_1
  5
468
 10
1006.98
 20
-454.185
 30
0.000000
  70
    32
  0
VERTEX
  8
┌▓È_1
  5
469
 10
1007.04
 20
-454.197
 30
0.000000
  70
    32
  0
VERTEX
  8
┌▓È_1
  5
46A
 10
1007.09
 20
-454.209
 30
0.000000
  70
    32
  0
VERTEX
  8
┌▓È_1
  5
46B
 10
1007.15
 20
-454.221
 30
0.000000
  70
    32
  0
VERTEX
  8
┌▓È_1
  5
46C
 10
1007.21
 20
-454.233
 30
0.000000
  70
    32
  0
VERTEX
  8
┌▓È_1
  5
46D
 10
1007.26
 20
-454.244
 30
0.000000
  70
    32
  0
VERTEX
  8
┌▓È_1
  5
46E
 10
1007.32
 20
-454.256
 30
0.000000
  70
    32
  0
VERTEX
  8
┌▓È_1
  5
46F
 10
1007.38
 20
-454.268
 30
0.000000
  70
    32
  0
VERTEX
  8
┌▓È_1
  5
470
 10
1007.43
 20
-454.280
 30
0.000000
  70
    32
  0
VERTEX
  8
┌▓È_1
  5
471
 10
1007.49
 20
-454.292
 30
0.000000
  70
    32
  0
VERTEX
  8
┌▓È_1
  5
472
 10
1007.55
 20
-454.303
 30
0.000000
  70
    32
  0
VERTEX
  8
┌▓È_1
  5
473
 10
1007.60
 20
-454.315
 30
0.000000
  70
    32
  0
VERTEX
  8
┌▓È_1
  5
474
 10
1007.66
 20
-454.327
 30
0.000000
  70
    32
  0
VERTEX
  8
┌▓È_1
  5
475
 10
1007.72
 20
-454.339
 30
0.000000
  70
    32
  0
VERTEX
  8
┌▓È_1
  5
476
 10
1007.77
 20
-454.351
 30
0.000000
  70
    32
  0
VERTEX
  8
┌▓È_1
  5
477
 10
1007.83
 20
-454.362
 30
0.000000
  70
    32
  0
SEQEND
  8
┌▓È_1
  5
478
  0
POLYLINE
  8
┌▓È_1
  5
479
  62
5
  66
     1
 10
0.000000
 20
0.000000
 30
0.000000
  70
     8
  0
VERTEX
  8
┌▓È_1
  5
47A
 10
989.831
 20
-445.651
 30
0.000000
  70
    32
  0
VERTEX
  8
┌▓È_1
  5
47B
 10
989.867
 20
-445.684
 30
0.000000
  70
    32
  0
VERTEX
  8
┌▓È_1
  5
47C
 10
989.903
 20
-445.717
 30
0.000000
  70
    32
  0
VERTEX
  8
┌▓È_1
  5
47D
 10
989.939
 20
-445.751
 30
0.000000
  70
    32
  0
VERTEX
  8
┌▓È_1
  5
47E
 10
989.975
 20
-445.784
 30
0.000000
  70
    32
  0
VERTEX
  8
┌▓È_1
  5
47F
 10
990.011
 20
-445.817
 30
0.000000
  70
    32
  0
VERTEX
  8
┌▓È_1
  5
480
 10
990.047
 20
-445.850
 30
0.000000
  70
    32
  0
VERTEX
  8
┌▓È_1
  5
481
 10
990.083
 20
-445.883
 30
0.000000
  70
    32
  0
VERTEX
  8
┌▓È_1
  5
482
 10
990.119
 20
-445.916
 30
0.000000
  70
    32
  0
VERTEX
  8
┌▓È_1
  5
483
 10
990.155
 20
-445.950
 30
0.000000
  70
    32
  0
VERTEX
  8
┌▓È_1
  5
484
 10
990.191
 20
-445.983
 30
0.000000
  70
    32
  0
VERTEX
  8
┌▓È_1
  5
485
 10
990.227
 20
-446.016
 30
0.000000
  70
    32
  0
VERTEX
  8
┌▓È_1
  5
486
 10
990.263
 20
-446.049
 30
0.000000
  70
    32
  0
VERTEX
  8
┌▓È_1
  5
487
 10
990.299
 20
-446.082
 30
0.000000
  70
    32
  0
VERTEX
  8
┌▓È_1
  5
488
 10
990.335
 20
-446.115
 30
0.000000
  70
    32
  0
VERTEX
  8
┌▓È_1
  5
489
 10
990.372
 20
-446.149
 30
0.000000
  70
    32
  0
VERTEX
  8
┌▓È_1
  5
48A
 10
990.408
 20
-446.182
 30
0.000000
  70
    32
  0
VERTEX
  8
┌▓È_1
  5
48B
 10
990.444
 20
-446.215
 30
0.000000
  70
    32
  0
VERTEX
  8
┌▓È_1
  5
48C
 10
990.480
 20
-446.248
 30
0.000000
  70
    32
  0
VERTEX
  8
┌▓È_1
  5
48D
 10
990.516
 20
-446.281
 30
0.000000
  70
    32
  0
VERTEX
  8
┌▓È_1
  5
48E
 10
990.552
 20
-446.314
 30
0.000000
  70
    32
  0
VERTEX
  8
┌▓È_1
  5
48F
 10
990.588
 20
-446.347
 30
0.000000
  70
    32
  0
VERTEX
  8
┌▓È_1
  5
490
 10
990.624
 20
-446.380
 30
0.000000
  70
    32
  0
VERTEX
  8
┌▓È_1
  5
491
 10
990.660
 20
-446.413
 30
0.000000
  70
    32
  0
VERTEX
  8
┌▓È_1
  5
492
 10
990.696
 20
-446.446
 30
0.000000
  70
    32
  0
VERTEX
  8
┌▓È_1
  5
493
 10
990.732
 20
-446.479
 30
0.000000
  70
    32
  0
VERTEX
  8
┌▓È_1
  5
494
 10
990.769
 20
-446.512
 30
0.000000
  70
    32
  0
VERTEX
  8
┌▓È_1
  5
495
 10
990.805
 20
-446.545
 30
0.000000
  70
    32
  0
VERTEX
  8
┌▓È_1
  5
496
 10
990.841
 20
-446.578
 30
0.000000
  70
    32
  0
VERTEX
  8
┌▓È_1
  5
497
 10
990.877
 20
-446.611
 30
0.000000
  70
    32
  0
VERTEX
  8
┌▓È_1
  5
498
 10
990.913
 20
-446.644
 30
0.000000
  70
    32
  0
VERTEX
  8
┌▓È_1
  5
499
 10
990.950
 20
-446.677
 30
0.000000
  70
    32
  0
VERTEX
  8
┌▓È_1
  5
49A
 10
990.986
 20
-446.710
 30
0.000000
  70
    32
  0
VERTEX
  8
┌▓È_1
  5
49B
 10
991.022
 20
-446.743
 30
0.000000
  70
    32
  0
VERTEX
  8
┌▓È_1
  5
49C
 10
991.058
 20
-446.775
 30
0.000000
  70
    32
  0
VERTEX
  8
┌▓È_1
  5
49D
 10
991.094
 20
-446.808
 30
0.000000
  70
    32
  0
VERTEX
  8
┌▓È_1
  5
49E
 10
991.131
 20
-446.841
 30
0.000000
  70
    32
  0
VERTEX
  8
┌▓È_1
  5
49F
 10
991.167
 20
-446.874
 30
0.000000
  70
    32
  0
VERTEX
  8
┌▓È_1
  5
4A0
 10
991.203
 20
-446.906
 30
0.000000
  70
    32
  0
VERTEX
  8
┌▓È_1
  5
4A1
 10
991.240
 20
-446.939
 30
0.000000
  70
    32
  0
VERTEX
  8
┌▓È_1
  5
4A2
 10
991.276
 20
-446.972
 30
0.000000
  70
    32
  0
VERTEX
  8
┌▓È_1
  5
4A3
 10
991.312
 20
-447.004
 30
0.000000
  70
    32
  0
VERTEX
  8
┌▓È_1
  5
4A4
 10
991.349
 20
-447.037
 30
0.000000
  70
    32
  0
VERTEX
  8
┌▓È_1
  5
4A5
 10
991.385
 20
-447.070
 30
0.000000
  70
    32
  0
VERTEX
  8
┌▓È_1
  5
4A6
 10
991.421
 20
-447.102
 30
0.000000
  70
    32
  0
VERTEX
  8
┌▓È_1
  5
4A7
 10
991.458
 20
-447.135
 30
0.000000
  70
    32
  0
VERTEX
  8
┌▓È_1
  5
4A8
 10
991.494
 20
-447.167
 30
0.000000
  70
    32
  0
VERTEX
  8
┌▓È_1
  5
4A9
 10
991.530
 20
-447.200
 30
0.000000
  70
    32
  0
VERTEX
  8
┌▓È_1
  5
4AA
 10
991.567
 20
-447.232
 30
0.000000
  70
    32
  0
VERTEX
  8
┌▓È_1
  5
4AB
 10
991.603
 20
-447.264
 30
0.000000
  70
    32
  0
VERTEX
  8
┌▓È_1
  5
4AC
 10
991.640
 20
-447.297
 30
0.000000
  70
    32
  0
VERTEX
  8
┌▓È_1
  5
4AD
 10
991.676
 20
-447.329
 30
0.000000
  70
    32
  0
VERTEX
  8
┌▓È_1
  5
4AE
 10
991.713
 20
-447.361
 30
0.000000
  70
    32
  0
VERTEX
  8
┌▓È_1
  5
4AF
 10
991.749
 20
-447.394
 30
0.000000
  70
    32
  0
VERTEX
  8
┌▓È_1
  5
4B0
 10
991.786
 20
-447.426
 30
0.000000
  70
    32
  0
VERTEX
  8
┌▓È_1
  5
4B1
 10
991.823
 20
-447.458
 30
0.000000
  70
    32
  0
VERTEX
  8
┌▓È_1
  5
4B2
 10
991.859
 20
-447.490
 30
0.000000
  70
    32
  0
VERTEX
  8
┌▓È_1
  5
4B3
 10
991.896
 20
-447.522
 30
0.000000
  70
    32
  0
VERTEX
  8
┌▓È_1
  5
4B4
 10
991.932
 20
-447.554
 30
0.000000
  70
    32
  0
VERTEX
  8
┌▓È_1
  5
4B5
 10
991.969
 20
-447.586
 30
0.000000
  70
    32
  0
VERTEX
  8
┌▓È_1
  5
4B6
 10
992.006
 20
-447.618
 30
0.000000
  70
    32
  0
VERTEX
  8
┌▓È_1
  5
4B7
 10
992.042
 20
-447.650
 30
0.000000
  70
    32
  0
VERTEX
  8
┌▓È_1
  5
4B8
 10
992.079
 20
-447.682
 30
0.000000
  70
    32
  0
VERTEX
  8
┌▓È_1
  5
4B9
 10
992.116
 20
-447.714
 30
0.000000
  70
    32
  0
VERTEX
  8
┌▓È_1
  5
4BA
 10
992.153
 20
-447.746
 30
0.000000
  70
    32
  0
VERTEX
  8
┌▓È_1
  5
4BB
 10
992.190
 20
-447.778
 30
0.000000
  70
    32
  0
VERTEX
  8
┌▓È_1
  5
4BC
 10
992.226
 20
-447.809
 30
0.000000
  70
    32
  0
VERTEX
  8
┌▓È_1
  5
4BD
 10
992.263
 20
-447.841
 30
0.000000
  70
    32
  0
VERTEX
  8
┌▓È_1
  5
4BE
 10
992.300
 20
-447.873
 30
0.000000
  70
    32
  0
VERTEX
  8
┌▓È_1
  5
4BF
 10
992.337
 20
-447.904
 30
0.000000
  70
    32
  0
VERTEX
  8
┌▓È_1
  5
4C0
 10
992.374
 20
-447.936
 30
0.000000
  70
    32
  0
VERTEX
  8
┌▓È_1
  5
4C1
 10
992.411
 20
-447.967
 30
0.000000
  70
    32
  0
VERTEX
  8
┌▓È_1
  5
4C2
 10
992.448
 20
-447.999
 30
0.000000
  70
    32
  0
VERTEX
  8
┌▓È_1
  5
4C3
 10
992.485
 20
-448.030
 30
0.000000
  70
    32
  0
VERTEX
  8
┌▓È_1
  5
4C4
 10
992.522
 20
-448.061
 30
0.000000
  70
    32
  0
VERTEX
  8
┌▓È_1
  5
4C5
 10
992.559
 20
-448.093
 30
0.000000
  70
    32
  0
VERTEX
  8
┌▓È_1
  5
4C6
 10
992.596
 20
-448.124
 30
0.000000
  70
    32
  0
VERTEX
  8
┌▓È_1
  5
4C7
 10
992.633
 20
-448.155
 30
0.000000
  70
    32
  0
VERTEX
  8
┌▓È_1
  5
4C8
 10
992.670
 20
-448.186
 30
0.000000
  70
    32
  0
VERTEX
  8
┌▓È_1
  5
4C9
 10
992.707
 20
-448.217
 30
0.000000
  70
    32
  0
VERTEX
  8
┌▓È_1
  5
4CA
 10
992.745
 20
-448.248
 30
0.000000
  70
    32
  0
VERTEX
  8
┌▓È_1
  5
4CB
 10
992.782
 20
-448.279
 30
0.000000
  70
    32
  0
VERTEX
  8
┌▓È_1
  5
4CC
 10
992.819
 20
-448.310
 30
0.000000
  70
    32
  0
VERTEX
  8
┌▓È_1
  5
4CD
 10
992.856
 20
-448.341
 30
0.000000
  70
    32
  0
VERTEX
  8
┌▓È_1
  5
4CE
 10
992.894
 20
-448.372
 30
0.000000
  70
    32
  0
VERTEX
  8
┌▓È_1
  5
4CF
 10
992.931
 20
-448.403
 30
0.000000
  70
    32
  0
VERTEX
  8
┌▓È_1
  5
4D0
 10
992.969
 20
-448.433
 30
0.000000
  70
    32
  0
VERTEX
  8
┌▓È_1
  5
4D1
 10
993.006
 20
-448.464
 30
0.000000
  70
    32
  0
VERTEX
  8
┌▓È_1
  5
4D2
 10
993.043
 20
-448.494
 30
0.000000
  70
    32
  0
VERTEX
  8
┌▓È_1
  5
4D3
 10
993.081
 20
-448.525
 30
0.000000
  70
    32
  0
VERTEX
  8
┌▓È_1
  5
4D4
 10
993.118
 20
-448.555
 30
0.000000
  70
    32
  0
VERTEX
  8
┌▓È_1
  5
4D5
 10
993.156
 20
-448.586
 30
0.000000
  70
    32
  0
VERTEX
  8
┌▓È_1
  5
4D6
 10
993.194
 20
-448.616
 30
0.000000
  70
    32
  0
VERTEX
  8
┌▓È_1
  5
4D7
 10
993.231
 20
-448.646
 30
0.000000
  70
    32
  0
VERTEX
  8
┌▓È_1
  5
4D8
 10
993.269
 20
-448.677
 30
0.000000
  70
    32
  0
VERTEX
  8
┌▓È_1
  5
4D9
 10
993.307
 20
-448.707
 30
0.000000
  70
    32
  0
VERTEX
  8
┌▓È_1
  5
4DA
 10
993.344
 20
-448.737
 30
0.000000
  70
    32
  0
VERTEX
  8
┌▓È_1
  5
4DB
 10
993.382
 20
-448.767
 30
0.000000
  70
    32
  0
VERTEX
  8
┌▓È_1
  5
4DC
 10
993.420
 20
-448.797
 30
0.000000
  70
    32
  0
VERTEX
  8
┌▓È_1
  5
4DD
 10
993.458
 20
-448.826
 30
0.000000
  70
    32
  0
VERTEX
  8
┌▓È_1
  5
4DE
 10
993.496
 20
-448.856
 30
0.000000
  70
    32
  0
VERTEX
  8
┌▓È_1
  5
4DF
 10
993.533
 20
-448.886
 30
0.000000
  70
    32
  0
VERTEX
  8
┌▓È_1
  5
4E0
 10
993.571
 20
-448.916
 30
0.000000
  70
    32
  0
VERTEX
  8
┌▓È_1
  5
4E1
 10
993.609
 20
-448.945
 30
0.000000
  70
    32
  0
VERTEX
  8
┌▓È_1
  5
4E2
 10
993.647
 20
-448.975
 30
0.000000
  70
    32
  0
VERTEX
  8
┌▓È_1
  5
4E3
 10
993.685
 20
-449.004
 30
0.000000
  70
    32
  0
VERTEX
  8
┌▓È_1
  5
4E4
 10
993.724
 20
-449.033
 30
0.000000
  70
    32
  0
VERTEX
  8
┌▓È_1
  5
4E5
 10
993.762
 20
-449.063
 30
0.000000
  70
    32
  0
VERTEX
  8
┌▓È_1
  5
4E6
 10
993.800
 20
-449.092
 30
0.000000
  70
    32
  0
VERTEX
  8
┌▓È_1
  5
4E7
 10
993.838
 20
-449.121
 30
0.000000
  70
    32
  0
VERTEX
  8
┌▓È_1
  5
4E8
 10
993.876
 20
-449.150
 30
0.000000
  70
    32
  0
VERTEX
  8
┌▓È_1
  5
4E9
 10
993.915
 20
-449.179
 30
0.000000
  70
    32
  0
VERTEX
  8
┌▓È_1
  5
4EA
 10
993.953
 20
-449.208
 30
0.000000
  70
    32
  0
VERTEX
  8
┌▓È_1
  5
4EB
 10
993.991
 20
-449.237
 30
0.000000
  70
    32
  0
VERTEX
  8
┌▓È_1
  5
4EC
 10
994.030
 20
-449.266
 30
0.000000
  70
    32
  0
VERTEX
  8
┌▓È_1
  5
4ED
 10
994.068
 20
-449.294
 30
0.000000
  70
    32
  0
VERTEX
  8
┌▓È_1
  5
4EE
 10
994.107
 20
-449.323
 30
0.000000
  70
    32
  0
VERTEX
  8
┌▓È_1
  5
4EF
 10
994.145
 20
-449.351
 30
0.000000
  70
    32
  0
VERTEX
  8
┌▓È_1
  5
4F0
 10
994.184
 20
-449.380
 30
0.000000
  70
    32
  0
VERTEX
  8
┌▓È_1
  5
4F1
 10
994.223
 20
-449.408
 30
0.000000
  70
    32
  0
VERTEX
  8
┌▓È_1
  5
4F2
 10
994.261
 20
-449.436
 30
0.000000
  70
    32
  0
VERTEX
  8
┌▓È_1
  5
4F3
 10
994.300
 20
-449.465
 30
0.000000
  70
    32
  0
VERTEX
  8
┌▓È_1
  5
4F4
 10
994.339
 20
-449.493
 30
0.000000
  70
    32
  0
VERTEX
  8
┌▓È_1
  5
4F5
 10
994.378
 20
-449.521
 30
0.000000
  70
    32
  0
VERTEX
  8
┌▓È_1
  5
4F6
 10
994.417
 20
-449.549
 30
0.000000
  70
    32
  0
VERTEX
  8
┌▓È_1
  5
4F7
 10
994.455
 20
-449.577
 30
0.000000
  70
    32
  0
VERTEX
  8
┌▓È_1
  5
4F8
 10
994.494
 20
-449.604
 30
0.000000
  70
    32
  0
VERTEX
  8
┌▓È_1
  5
4F9
 10
994.533
 20
-449.632
 30
0.000000
  70
    32
  0
VERTEX
  8
┌▓È_1
  5
4FA
 10
994.573
 20
-449.660
 30
0.000000
  70
    32
  0
VERTEX
  8
┌▓È_1
  5
4FB
 10
994.612
 20
-449.687
 30
0.000000
  70
    32
  0
VERTEX
  8
┌▓È_1
  5
4FC
 10
994.651
 20
-449.715
 30
0.000000
  70
    32
  0
VERTEX
  8
┌▓È_1
  5
4FD
 10
994.690
 20
-449.742
 30
0.000000
  70
    32
  0
VERTEX
  8
┌▓È_1
  5
4FE
 10
994.729
 20
-449.769
 30
0.000000
  70
    32
  0
VERTEX
  8
┌▓È_1
  5
4FF
 10
994.769
 20
-449.796
 30
0.000000
  70
    32
  0
VERTEX
  8
┌▓È_1
  5
500
 10
994.808
 20
-449.823
 30
0.000000
  70
    32
  0
VERTEX
  8
┌▓È_1
  5
501
 10
994.847
 20
-449.850
 30
0.000000
  70
    32
  0
VERTEX
  8
┌▓È_1
  5
502
 10
994.887
 20
-449.877
 30
0.000000
  70
    32
  0
VERTEX
  8
┌▓È_1
  5
503
 10
994.926
 20
-449.904
 30
0.000000
  70
    32
  0
VERTEX
  8
┌▓È_1
  5
504
 10
994.966
 20
-449.931
 30
0.000000
  70
    32
  0
VERTEX
  8
┌▓È_1
  5
505
 10
995.005
 20
-449.957
 30
0.000000
  70
    32
  0
VERTEX
  8
┌▓È_1
  5
506
 10
995.045
 20
-449.984
 30
0.000000
  70
    32
  0
VERTEX
  8
┌▓È_1
  5
507
 10
995.085
 20
-450.010
 30
0.000000
  70
    32
  0
VERTEX
  8
┌▓È_1
  5
508
 10
995.125
 20
-450.036
 30
0.000000
  70
    32
  0
VERTEX
  8
┌▓È_1
  5
509
 10
995.164
 20
-450.062
 30
0.000000
  70
    32
  0
VERTEX
  8
┌▓È_1
  5
50A
 10
995.204
 20
-450.089
 30
0.000000
  70
    32
  0
VERTEX
  8
┌▓È_1
  5
50B
 10
995.244
 20
-450.114
 30
0.000000
  70
    32
  0
VERTEX
  8
┌▓È_1
  5
50C
 10
995.284
 20
-450.140
 30
0.000000
  70
    32
  0
VERTEX
  8
┌▓È_1
  5
50D
 10
995.324
 20
-450.166
 30
0.000000
  70
    32
  0
VERTEX
  8
┌▓È_1
  5
50E
 10
995.364
 20
-450.192
 30
0.000000
  70
    32
  0
VERTEX
  8
┌▓È_1
  5
50F
 10
995.404
 20
-450.217
 30
0.000000
  70
    32
  0
VERTEX
  8
┌▓È_1
  5
510
 10
995.445
 20
-450.243
 30
0.000000
  70
    32
  0
VERTEX
  8
┌▓È_1
  5
511
 10
995.485
 20
-450.268
 30
0.000000
  70
    32
  0
VERTEX
  8
┌▓È_1
  5
512
 10
995.525
 20
-450.294
 30
0.000000
  70
    32
  0
VERTEX
  8
┌▓È_1
  5
513
 10
995.566
 20
-450.319
 30
0.000000
  70
    32
  0
VERTEX
  8
┌▓È_1
  5
514
 10
995.606
 20
-450.344
 30
0.000000
  70
    32
  0
VERTEX
  8
┌▓È_1
  5
515
 10
995.646
 20
-450.369
 30
0.000000
  70
    32
  0
VERTEX
  8
┌▓È_1
  5
516
 10
995.687
 20
-450.394
 30
0.000000
  70
    32
  0
VERTEX
  8
┌▓È_1
  5
517
 10
995.728
 20
-450.418
 30
0.000000
  70
    32
  0
VERTEX
  8
┌▓È_1
  5
518
 10
995.768
 20
-450.443
 30
0.000000
  70
    32
  0
VERTEX
  8
┌▓È_1
  5
519
 10
995.809
 20
-450.468
 30
0.000000
  70
    32
  0
SEQEND
  8
┌▓È_1
  5
51A
  0
POLYLINE
  8
┌▓È_1
  5
51B
  62
5
  66
     1
 10
0.000000
 20
0.000000
 30
0.000000
  70
     8
  0
VERTEX
  8
┌▓È_1
  5
51C
 10
1003.20
 20
-450.409
 30
0.000000
  70
    32
  0
VERTEX
  8
┌▓È_1
  5
51D
 10
1003.24
 20
-450.419
 30
0.000000
  70
    32
  0
VERTEX
  8
┌▓È_1
  5
51E
 10
1003.27
 20
-450.429
 30
0.000000
  70
    32
  0
VERTEX
  8
┌▓È_1
  5
51F
 10
1003.31
 20
-450.439
 30
0.000000
  70
    32
  0
VERTEX
  8
┌▓È_1
  5
520
 10
1003.34
 20
-450.449
 30
0.000000
  70
    32
  0
VERTEX
  8
┌▓È_1
  5
521
 10
1003.38
 20
-450.458
 30
0.000000
  70
    32
  0
VERTEX
  8
┌▓È_1
  5
522
 10
1003.41
 20
-450.468
 30
0.000000
  70
    32
  0
VERTEX
  8
┌▓È_1
  5
523
 10
1003.45
 20
-450.478
 30
0.000000
  70
    32
  0
VERTEX
  8
┌▓È_1
  5
524
 10
1003.48
 20
-450.487
 30
0.000000
  70
    32
  0
VERTEX
  8
┌▓È_1
  5
525
 10
1003.52
 20
-450.497
 30
0.000000
  70
    32
  0
VERTEX
  8
┌▓È_1
  5
526
 10
1003.55
 20
-450.506
 30
0.000000
  70
    32
  0
VERTEX
  8
┌▓È_1
  5
527
 10
1003.59
 20
-450.515
 30
0.000000
  70
    32
  0
VERTEX
  8
┌▓È_1
  5
528
 10
1003.62
 20
-450.525
 30
0.000000
  70
    32
  0
VERTEX
  8
┌▓È_1
  5
529
 10
1003.66
 20
-450.534
 30
0.000000
  70
    32
  0
VERTEX
  8
┌▓È_1
  5
52A
 10
1003.69
 20
-450.543
 30
0.000000
  70
    32
  0
VERTEX
  8
┌▓È_1
  5
52B
 10
1003.73
 20
-450.552
 30
0.000000
  70
    32
  0
VERTEX
  8
┌▓È_1
  5
52C
 10
1003.76
 20
-450.561
 30
0.000000
  70
    32
  0
VERTEX
  8
┌▓È_1
  5
52D
 10
1003.80
 20
-450.571
 30
0.000000
  70
    32
  0
VERTEX
  8
┌▓È_1
  5
52E
 10
1003.83
 20
-450.580
 30
0.000000
  70
    32
  0
VERTEX
  8
┌▓È_1
  5
52F
 10
1003.87
 20
-450.588
 30
0.000000
  70
    32
  0
VERTEX
  8
┌▓È_1
  5
530
 10
1003.91
 20
-450.597
 30
0.000000
  70
    32
  0
VERTEX
  8
┌▓È_1
  5
531
 10
1003.94
 20
-450.606
 30
0.000000
  70
    32
  0
VERTEX
  8
┌▓È_1
  5
532
 10
1003.98
 20
-450.615
 30
0.000000
  70
    32
  0
VERTEX
  8
┌▓È_1
  5
533
 10
1004.01
 20
-450.624
 30
0.000000
  70
    32
  0
VERTEX
  8
┌▓È_1
  5
534
 10
1004.05
 20
-450.633
 30
0.000000
  70
    32
  0
VERTEX
  8
┌▓È_1
  5
535
 10
1004.08
 20
-450.641
 30
0.000000
  70
    32
  0
VERTEX
  8
┌▓È_1
  5
536
 10
1004.12
 20
-450.650
 30
0.000000
  70
    32
  0
VERTEX
  8
┌▓È_1
  5
537
 10
1004.16
 20
-450.658
 30
0.000000
  70
    32
  0
VERTEX
  8
┌▓È_1
  5
538
 10
1004.19
 20
-450.667
 30
0.000000
  70
    32
  0
VERTEX
  8
┌▓È_1
  5
539
 10
1004.23
 20
-450.675
 30
0.000000
  70
    32
  0
VERTEX
  8
┌▓È_1
  5
53A
 10
1004.26
 20
-450.684
 30
0.000000
  70
    32
  0
VERTEX
  8
┌▓È_1
  5
53B
 10
1004.30
 20
-450.692
 30
0.000000
  70
    32
  0
VERTEX
  8
┌▓È_1
  5
53C
 10
1004.34
 20
-450.701
 30
0.000000
  70
    32
  0
VERTEX
  8
┌▓È_1
  5
53D
 10
1004.37
 20
-450.709
 30
0.000000
  70
    32
  0
VERTEX
  8
┌▓È_1
  5
53E
 10
1004.41
 20
-450.717
 30
0.000000
  70
    32
  0
VERTEX
  8
┌▓È_1
  5
53F
 10
1004.44
 20
-450.725
 30
0.000000
  70
    32
  0
VERTEX
  8
┌▓È_1
  5
540
 10
1004.48
 20
-450.734
 30
0.000000
  70
    32
  0
VERTEX
  8
┌▓È_1
  5
541
 10
1004.52
 20
-450.742
 30
0.000000
  70
    32
  0
VERTEX
  8
┌▓È_1
  5
542
 10
1004.55
 20
-450.750
 30
0.000000
  70
    32
  0
VERTEX
  8
┌▓È_1
  5
543
 10
1004.59
 20
-450.758
 30
0.000000
  70
    32
  0
VERTEX
  8
┌▓È_1
  5
544
 10
1004.62
 20
-450.766
 30
0.000000
  70
    32
  0
VERTEX
  8
┌▓È_1
  5
545
 10
1004.66
 20
-450.774
 30
0.000000
  70
    32
  0
VERTEX
  8
┌▓È_1
  5
546
 10
1004.70
 20
-450.782
 30
0.000000
  70
    32
  0
VERTEX
  8
┌▓È_1
  5
547
 10
1004.73
 20
-450.790
 30
0.000000
  70
    32
  0
VERTEX
  8
┌▓È_1
  5
548
 10
1004.77
 20
-450.798
 30
0.000000
  70
    32
  0
VERTEX
  8
┌▓È_1
  5
549
 10
1004.80
 20
-450.805
 30
0.000000
  70
    32
  0
VERTEX
  8
┌▓È_1
  5
54A
 10
1004.84
 20
-450.813
 30
0.000000
  70
    32
  0
VERTEX
  8
┌▓È_1
  5
54B
 10
1004.88
 20
-450.821
 30
0.000000
  70
    32
  0
VERTEX
  8
┌▓È_1
  5
54C
 10
1004.91
 20
-450.829
 30
0.000000
  70
    32
  0
VERTEX
  8
┌▓È_1
  5
54D
 10
1004.95
 20
-450.836
 30
0.000000
  70
    32
  0
VERTEX
  8
┌▓È_1
  5
54E
 10
1004.99
 20
-450.844
 30
0.000000
  70
    32
  0
VERTEX
  8
┌▓È_1
  5
54F
 10
1005.02
 20
-450.852
 30
0.000000
  70
    32
  0
VERTEX
  8
┌▓È_1
  5
550
 10
1005.06
 20
-450.859
 30
0.000000
  70
    32
  0
VERTEX
  8
┌▓È_1
  5
551
 10
1005.10
 20
-450.867
 30
0.000000
  70
    32
  0
VERTEX
  8
┌▓È_1
  5
552
 10
1005.13
 20
-450.874
 30
0.000000
  70
    32
  0
VERTEX
  8
┌▓È_1
  5
553
 10
1005.17
 20
-450.882
 30
0.000000
  70
    32
  0
VERTEX
  8
┌▓È_1
  5
554
 10
1005.21
 20
-450.889
 30
0.000000
  70
    32
  0
VERTEX
  8
┌▓È_1
  5
555
 10
1005.24
 20
-450.897
 30
0.000000
  70
    32
  0
VERTEX
  8
┌▓È_1
  5
556
 10
1005.28
 20
-450.904
 30
0.000000
  70
    32
  0
VERTEX
  8
┌▓È_1
  5
557
 10
1005.31
 20
-450.911
 30
0.000000
  70
    32
  0
VERTEX
  8
┌▓È_1
  5
558
 10
1005.35
 20
-450.919
 30
0.000000
  70
    32
  0
VERTEX
  8
┌▓È_1
  5
559
 10
1005.39
 20
-450.926
 30
0.000000
  70
    32
  0
VERTEX
  8
┌▓È_1
  5
55A
 10
1005.42
 20
-450.933
 30
0.000000
  70
    32
  0
VERTEX
  8
┌▓È_1
  5
55B
 10
1005.46
 20
-450.940
 30
0.000000
  70
    32
  0
VERTEX
  8
┌▓È_1
  5
55C
 10
1005.50
 20
-450.948
 30
0.000000
  70
    32
  0
VERTEX
  8
┌▓È_1
  5
55D
 10
1005.53
 20
-450.955
 30
0.000000
  70
    32
  0
VERTEX
  8
┌▓È_1
  5
55E
 10
1005.57
 20
-450.962
 30
0.000000
  70
    32
  0
VERTEX
  8
┌▓È_1
  5
55F
 10
1005.61
 20
-450.969
 30
0.000000
  70
    32
  0
VERTEX
  8
┌▓È_1
  5
560
 10
1005.64
 20
-450.976
 30
0.000000
  70
    32
  0
VERTEX
  8
┌▓È_1
  5
561
 10
1005.68
 20
-450.983
 30
0.000000
  70
    32
  0
VERTEX
  8
┌▓È_1
  5
562
 10
1005.72
 20
-450.990
 30
0.000000
  70
    32
  0
VERTEX
  8
┌▓È_1
  5
563
 10
1005.75
 20
-450.997
 30
0.000000
  70
    32
  0
VERTEX
  8
┌▓È_1
  5
564
 10
1005.79
 20
-451.004
 30
0.000000
  70
    32
  0
VERTEX
  8
┌▓È_1
  5
565
 10
1005.83
 20
-451.011
 30
0.000000
  70
    32
  0
VERTEX
  8
┌▓È_1
  5
566
 10
1005.87
 20
-451.018
 30
0.000000
  70
    32
  0
VERTEX
  8
┌▓È_1
  5
567
 10
1005.90
 20
-451.025
 30
0.000000
  70
    32
  0
VERTEX
  8
┌▓È_1
  5
568
 10
1005.94
 20
-451.032
 30
0.000000
  70
    32
  0
VERTEX
  8
┌▓È_1
  5
569
 10
1005.98
 20
-451.039
 30
0.000000
  70
    32
  0
VERTEX
  8
┌▓È_1
  5
56A
 10
1006.01
 20
-451.046
 30
0.000000
  70
    32
  0
VERTEX
  8
┌▓È_1
  5
56B
 10
1006.05
 20
-451.052
 30
0.000000
  70
    32
  0
VERTEX
  8
┌▓È_1
  5
56C
 10
1006.09
 20
-451.059
 30
0.000000
  70
    32
  0
VERTEX
  8
┌▓È_1
  5
56D
 10
1006.12
 20
-451.066
 30
0.000000
  70
    32
  0
VERTEX
  8
┌▓È_1
  5
56E
 10
1006.16
 20
-451.073
 30
0.000000
  70
    32
  0
VERTEX
  8
┌▓È_1
  5
56F
 10
1006.20
 20
-451.079
 30
0.000000
  70
    32
  0
VERTEX
  8
┌▓È_1
  5
570
 10
1006.23
 20
-451.086
 30
0.000000
  70
    32
  0
VERTEX
  8
┌▓È_1
  5
571
 10
1006.27
 20
-451.093
 30
0.000000
  70
    32
  0
VERTEX
  8
┌▓È_1
  5
572
 10
1006.31
 20
-451.100
 30
0.000000
  70
    32
  0
VERTEX
  8
┌▓È_1
  5
573
 10
1006.35
 20
-451.106
 30
0.000000
  70
    32
  0
VERTEX
  8
┌▓È_1
  5
574
 10
1006.38
 20
-451.113
 30
0.000000
  70
    32
  0
VERTEX
  8
┌▓È_1
  5
575
 10
1006.42
 20
-451.119
 30
0.000000
  70
    32
  0
VERTEX
  8
┌▓È_1
  5
576
 10
1006.46
 20
-451.126
 30
0.000000
  70
    32
  0
VERTEX
  8
┌▓È_1
  5
577
 10
1006.49
 20
-451.133
 30
0.000000
  70
    32
  0
VERTEX
  8
┌▓È_1
  5
578
 10
1006.53
 20
-451.139
 30
0.000000
  70
    32
  0
VERTEX
  8
┌▓È_1
  5
579
 10
1006.57
 20
-451.146
 30
0.000000
  70
    32
  0
VERTEX
  8
┌▓È_1
  5
57A
 10
1006.60
 20
-451.152
 30
0.000000
  70
    32
  0
VERTEX
  8
┌▓È_1
  5
57B
 10
1006.64
 20
-451.159
 30
0.000000
  70
    32
  0
VERTEX
  8
┌▓È_1
  5
57C
 10
1006.68
 20
-451.165
 30
0.000000
  70
    32
  0
VERTEX
  8
┌▓È_1
  5
57D
 10
1006.72
 20
-451.172
 30
0.000000
  70
    32
  0
VERTEX
  8
┌▓È_1
  5
57E
 10
1006.75
 20
-451.178
 30
0.000000
  70
    32
  0
VERTEX
  8
┌▓È_1
  5
57F
 10
1006.79
 20
-451.185
 30
0.000000
  70
    32
  0
VERTEX
  8
┌▓È_1
  5
580
 10
1006.83
 20
-451.191
 30
0.000000
  70
    32
  0
VERTEX
  8
┌▓È_1
  5
581
 10
1006.86
 20
-451.198
 30
0.000000
  70
    32
  0
VERTEX
  8
┌▓È_1
  5
582
 10
1006.90
 20
-451.204
 30
0.000000
  70
    32
  0
VERTEX
  8
┌▓È_1
  5
583
 10
1006.94
 20
-451.211
 30
0.000000
  70
    32
  0
VERTEX
  8
┌▓È_1
  5
584
 10
1006.98
 20
-451.217
 30
0.000000
  70
    32
  0
VERTEX
  8
┌▓È_1
  5
585
 10
1007.01
 20
-451.223
 30
0.000000
  70
    32
  0
VERTEX
  8
┌▓È_1
  5
586
 10
1007.05
 20
-451.230
 30
0.000000
  70
    32
  0
VERTEX
  8
┌▓È_1
  5
587
 10
1007.09
 20
-451.236
 30
0.000000
  70
    32
  0
VERTEX
  8
┌▓È_1
  5
588
 10
1007.12
 20
-451.243
 30
0.000000
  70
    32
  0
VERTEX
  8
┌▓È_1
  5
589
 10
1007.16
 20
-451.249
 30
0.000000
  70
    32
  0
VERTEX
  8
┌▓È_1
  5
58A
 10
1007.20
 20
-451.255
 30
0.000000
  70
    32
  0
VERTEX
  8
┌▓È_1
  5
58B
 10
1007.24
 20
-451.262
 30
0.000000
  70
    32
  0
VERTEX
  8
┌▓È_1
  5
58C
 10
1007.27
 20
-451.268
 30
0.000000
  70
    32
  0
VERTEX
  8
┌▓È_1
  5
58D
 10
1007.31
 20
-451.274
 30
0.000000
  70
    32
  0
VERTEX
  8
┌▓È_1
  5
58E
 10
1007.35
 20
-451.281
 30
0.000000
  70
    32
  0
VERTEX
  8
┌▓È_1
  5
58F
 10
1007.38
 20
-451.287
 30
0.000000
  70
    32
  0
VERTEX
  8
┌▓È_1
  5
590
 10
1007.42
 20
-451.293
 30
0.000000
  70
    32
  0
VERTEX
  8
┌▓È_1
  5
591
 10
1007.46
 20
-451.300
 30
0.000000
  70
    32
  0
VERTEX
  8
┌▓È_1
  5
592
 10
1007.50
 20
-451.306
 30
0.000000
  70
    32
  0
VERTEX
  8
┌▓È_1
  5
593
 10
1007.53
 20
-451.312
 30
0.000000
  70
    32
  0
VERTEX
  8
┌▓È_1
  5
594
 10
1007.57
 20
-451.318
 30
0.000000
  70
    32
  0
VERTEX
  8
┌▓È_1
  5
595
 10
1007.61
 20
-451.325
 30
0.000000
  70
    32
  0
VERTEX
  8
┌▓È_1
  5
596
 10
1007.64
 20
-451.331
 30
0.000000
  70
    32
  0
VERTEX
  8
┌▓È_1
  5
597
 10
1007.68
 20
-451.337
 30
0.000000
  70
    32
  0
VERTEX
  8
┌▓È_1
  5
598
 10
1007.72
 20
-451.344
 30
0.000000
  70
    32
  0
VERTEX
  8
┌▓È_1
  5
599
 10
1007.76
 20
-451.350
 30
0.000000
  70
    32
  0
VERTEX
  8
┌▓È_1
  5
59A
 10
1007.79
 20
-451.356
 30
0.000000
  70
    32
  0
VERTEX
  8
┌▓È_1
  5
59B
 10
1007.83
 20
-451.362
 30
0.000000
  70
    32
  0
SEQEND
  8
┌▓È_1
  5
59C
  0
INSERT
  5
2B6
  8
┌▓È_1
  2
CLUMP7
 10
0.0
 20
0.0
 30
0.0
  0
LINE
  5
2BD
  8
┌▓È_1
 62
     5
 10
615.95430335720005
 20
-368.4619148141
 30
0.0
 11
615.95430335720005
 21
-400.4619148141
 31
0.0
  0
LINE
  5
2BE
  8
┌▓È_1
  6
STITCH
 10
620.45430335720005
 20
-368.4619148141
 30
0.0
 11
620.45430335720005
 21
-400.4619148141
 31
0.0
  0
INSERT
  5
2C0
  8
┌▓È_1
  2
CLUMP8
 10
0.0
 20
0.0
 30
0.0
  0
INSERT
  5
2CC
  8
┌▓È_1
  2
CLUMP10
 10
0.0
 20
0.0
 30
0.0
  0
LINE
  5
2D3
  8
┌▓È_1
 62
     5
 10
815.95430335720005
 20
-400.4619148141
 30
0.0
 11
815.95430335720005
 21
-368.4619148141
 31
0.0
  0
LINE
  5
2D4
  8
┌▓È_1
 62
     5
 10
615.95430335720005
 20
-368.4619148141
 30
0.0
 11
815.95430335720005
 21
-368.4619148141
 31
0.0
  0
LINE
  5
2D5
  8
┌▓È_1
 62
     5
 10
615.95430335720005
 20
-400.4619148141
 30
0.0
 11
815.95430335720005
 21
-400.4619148141
 31
0.0
  0
INSERT
  5
2D6
  8
0
  6
CONTINUOUS
  2
*U61
 10
0.0
 20
0.0
 30
0.0
  0
LINE
  5
2D7
  8
┌▓È_1
 10
882.01673825310002
 20
-415.6828132515999
 30
0.0
 11
1002.0167382531
 21
-415.6828132515999
 31
0.0
  0
LINE
  5
2D8
  8
┌▓È_1
 10
1002.0167382531
 20
-405.0578132515999
 30
0.0
 11
1042.0167382530999
 21
-405.0578132515999
 31
0.0
  0
LINE
  5
2D9
  8
┌▓È_1
 62
     5
 10
1007.8309537893
 20
-451.36246731779988
 30
0.0
 11
1007.8309537893
 21
-454.36246731779988
 31
0.0
  0
LINE
  5
2DA
  8
┌▓È_1
 62
     5
 10
1020.6659190858001
 20
-455.36246731779988
 30
0.0
 11
1026.2659190858001
 21
-455.36246731779988
 31
0.0
  0
LINE
  5
2DB
  8
┌▓È_1
 62
     5
 10
984.50974166809988
 20
-444.3624673178
 30
0.0
 11
984.50974166809988
 21
-447.3624673178
 31
0.0
  0
LINE
  5
2DC
  8
┌▓È_1
 62
     5
 10
965.20753404489994
 20
-444.3624673178
 30
0.0
 11
965.20753404489994
 21
-447.3624673178
 31
0.0
  0
LINE
  5
2DD
  8
┌▓È_1
 62
     5
 10
989.83095378929977
 20
-445.65090838769999
 30
0.0
 11
989.83095378929977
 21
-445.00668785269988
 31
0.0
  0
LINE
  5
2DE
  8
┌▓È_1
 62
     5
 10
997.83095378929977
 20
-445.00668785269988
 30
0.0
 11
996.69958293939987
 21
-446.13805870260001
 31
0.0
  0
LINE
  5
2DF
  8
┌▓È_1
 10
962.01673825310013
 20
-394.43281325160001
 30
0.0
 11
962.01673825310013
 21
-436.93281325160001
 31
0.0
  0
LINE
  5
2E0
  8
┌▓È_1
 10
887.01673825310013
 20
-405.0578132515999
 30
0.0
 11
917.0167382530999
 21
-405.0578132515999
 31
0.0
  0
LINE
  5
2E1
  8
┌▓È_1
 10
927.0167382530999
 20
-405.0578132515999
 30
0.0
 11
957.01673825310002
 21
-405.0578132515999
 31
0.0
  0
LINE
  5
2E2
  8
┌▓È_1
 10
887.01673825310013
 20
-426.30781325160001
 30
0.0
 11
957.01673825310002
 21
-426.30781325160001
 31
0.0
  0
ENDSEC
  0
EOF
