  0
SECTION
  2
HEADER
  9
$ACADVER
  1
AC1009
  9
$INSBASE
 10
0.0
 20
0.0
 30
0.0
  9
$EXTMIN
 10
562.60645771329996
 20
-411.31763129809991
 30
0.0
  9
$EXTMAX
 10
1112.6064577133
 20
-31.3176312981
 30
0.0
  9
$LIMMIN
 10
0.0
 20
0.0
  9
$LIMMAX
 10
0.0
 20
0.0
  9
$ORTHOMODE
 70
     0
  9
$REGENMODE
 70
     1
  9
$FILLMODE
 70
     1
  9
$QTEXTMODE
 70
     0
  9
$MIRRTEXT
 70
     1
  9
$DRAGMODE
 70
     2
  9
$LTSCALE
 40
1.0
  9
$OSMODE
 70
    31
  9
$ATTMODE
 70
     1
  9
$TEXTSIZE
 40
0.0
  9
$TRACEWID
 40
0.05
  9
$TEXTSTYLE
  7
STANDARD
  9
$CLAYER
  8
0
  9
$CELTYPE
  6
CONTINUOUS
  9
$CECOLOR
 62
   256
  9
$DIMSCALE
 40
1.0
  9
$DIMASZ
 40
0.18
  9
$DIMEXO
 40
0.0625
  9
$DIMDLI
 40
0.38
  9
$DIMRND
 40
0.0
  9
$DIMDLE
 40
0.0
  9
$DIMEXE
 40
0.18
  9
$DIMTP
 40
0.0
  9
$DIMTM
 40
0.0
  9
$DIMTXT
 40
0.18
  9
$DIMCEN
 40
0.09
  9
$DIMTSZ
 40
0.0
  9
$DIMTOL
 70
     0
  9
$DIMLIM
 70
     0
  9
$DIMTIH
 70
     1
  9
$DIMTOH
 70
     1
  9
$DIMSE1
 70
     0
  9
$DIMSE2
 70
     0
  9
$DIMTAD
 70
     0
  9
$DIMZIN
 70
     0
  9
$DIMBLK
  1

  9
$DIMASO
 70
     1
  9
$DIMSHO
 70
     1
  9
$DIMPOST
  1

  9
$DIMAPOST
  1

  9
$DIMALT
 70
     0
  9
$DIMALTD
 70
     2
  9
$DIMALTF
 40
25.399999999999999
  9
$DIMLFAC
 40
1.0
  9
$DIMTOFL
 70
     0
  9
$DIMTVP
 40
0.0
  9
$DIMTIX
 70
     0
  9
$DIMSOXD
 70
     0
  9
$DIMSAH
 70
     0
  9
$DIMBLK1
  1

  9
$DIMBLK2
  1

  9
$DIMSTYLE
  2
STANDARD
  9
$DIMCLRD
 70
     0
  9
$DIMCLRE
 70
     0
  9
$DIMCLRT
 70
     0
  9
$DIMTFAC
 40
1.0
  9
$DIMGAP
 40
0.09
  9
$LUNITS
 70
     2
  9
$LUPREC
 70
     4
  9
$SKETCHINC
 40
0.1
  9
$FILLETRAD
 40
0.0
  9
$AUNITS
 70
     0
  9
$AUPREC
 70
     0
  9
$MENU
  1
acad
  9
$ELEVATION
 40
0.0
  9
$PELEVATION
 40
0.0
  9
$THICKNESS
 40
0.0
  9
$LIMCHECK
 70
     0
  9
$BLIPMODE
 70
     0
  9
$CHAMFERA
 40
0.0
  9
$CHAMFERB
 40
0.0
  9
$SKPOLY
 70
     0
  9
$TDCREATE
 40
2454862.7423187848
  9
$TDUPDATE
 40
2454862.7424913188
  9
$TDINDWG
 40
0.0001806597
  9
$TDUSRTIMER
 40
0.0001803009
  9
$USRTIMER
 70
     1
  9
$ANGBASE
 50
0.0
  9
$ANGDIR
 70
     0
  9
$PDMODE
 70
     3
  9
$PDSIZE
 40
-1.0
  9
$PLINEWID
 40
0.0
  9
$COORDS
 70
     2
  9
$SPLFRAME
 70
     0
  9
$SPLINETYPE
 70
     6
  9
$SPLINESEGS
 70
     8
  9
$ATTDIA
 70
     0
  9
$ATTREQ
 70
     1
  9
$HANDLING
 70
     1
  9
$HANDSEED
  5
5AA
  9
$SURFTAB1
 70
     6
  9
$SURFTAB2
 70
     6
  9
$SURFTYPE
 70
     6
  9
$SURFU
 70
     6
  9
$SURFV
 70
     6
  9
$UCSNAME
  2

  9
$UCSORG
 10
0.0
 20
0.0
 30
0.0
  9
$UCSXDIR
 10
1.0
 20
0.0
 30
0.0
  9
$UCSYDIR
 10
0.0
 20
1.0
 30
0.0
  9
$PUCSNAME
  2

  9
$PUCSORG
 10
0.0
 20
0.0
 30
0.0
  9
$PUCSXDIR
 10
1.0
 20
0.0
 30
0.0
  9
$PUCSYDIR
 10
0.0
 20
1.0
 30
0.0
  9
$USERI1
 70
     0
  9
$USERI2
 70
     0
  9
$USERI3
 70
     0
  9
$USERI4
 70
     0
  9
$USERI5
 70
     0
  9
$USERR1
 40
0.0
  9
$USERR2
 40
0.0
  9
$USERR3
 40
0.0
  9
$USERR4
 40
0.0
  9
$USERR5
 40
0.0
  9
$WORLDVIEW
 70
     1
  9
$SHADEDGE
 70
     3
  9
$SHADEDIF
 70
    70
  9
$TILEMODE
 70
     1
  9
$MAXACTVP
 70
    16
  9
$PLIMCHECK
 70
     0
  9
$PEXTMIN
 10
1.0000000000000000E+020
 20
1.0000000000000000E+020
 30
1.0000000000000000E+020
  9
$PEXTMAX
 10
-1.0000000000000000E+020
 20
-1.0000000000000000E+020
 30
-1.0000000000000000E+020
  9
$PLIMMIN
 10
0.0
 20
0.0
  9
$PLIMMAX
 10
12.0
 20
9.0
  9
$UNITMODE
 70
     0
  9
$VISRETAIN
 70
     0
  9
$PLINEGEN
 70
     1
  9
$PSLTSCALE
 70
     0
  0
ENDSEC
  0
SECTION
  2
TABLES
  0
TABLE
  2
VPORT
 70
     2
  0
VPORT
  2
*ACTIVE
 70
     0
 10
0.0
 20
0.0
 11
1.0
 21
1.0
 12
837.60645771329996
 22
-221.3176312981
 13
0.0
 23
0.0
 14
1.0
 24
1.0
 15
0.0
 25
0.0
 16
0.0
 26
0.0
 36
1.0
 17
0.0
 27
0.0
 37
0.0
 40
397.98585584749168
 41
1.3903818953323901
 42
50.0
 43
0.0
 44
0.0
 50
0.0
 51
0.0
 71
     0
 72
   100
 73
     1
 74
     1
 75
     0
 76
     0
 77
     0
 78
     0
  0
ENDTAB
  0
TABLE
  2
LTYPE
 70
    11
  0
LTYPE
  2
CONTINUOUS
 70
     0
  3
Solid line
 72
    65
 73
     0
 40
0.0
  0
LTYPE
  2
DOT
 70
     0
  3
. . . . . . . . 
 72
    65
 73
     2
 40
1.0
 49
0.0
 49
-1.0
  0
LTYPE
  2
DASHED
 70
     0
  3
___  ___  ___  ___  
 72
    65
 73
     2
 40
4.0
 49
3.0
 49
-1.0
  0
LTYPE
  2
HIDDEN
 70
     0
  3
__ __ __ __ 
 72
    65
 73
     2
 40
3.0
 49
2.0
 49
-1.0
  0
LTYPE
  2
STITCH
 70
     0
  3
_ _ _ _ 
 72
    65
 73
     2
 40
2.0
 49
1.0
 49
-1.0
  0
LTYPE
  2
CENTER
 70
     0
  3
______  __  ______  __  
 72
    65
 73
     4
 40
43.0
 49
40.0
 49
-1.0
 49
1.0
 49
-1.0
  0
LTYPE
  2
DASHDOT
 70
     0
  3
____ . ____ . 
 72
    65
 73
     4
 40
32.0
 49
30.0
 49
-1.0
 49
0.0
 49
-1.0
  0
LTYPE
  2
BORDER
 70
     0
  3
__ . __ . 
 72
    65
 73
     4
 40
22.0
 49
20.0
 49
-1.0
 49
0.0
 49
-1.0
  0
LTYPE
  2
CUTTING
 70
     0
  3
________   ___   ___   
 72
    65
 73
     6
 40
45.0
 49
40.0
 49
-1.0
 49
1.0
 49
-1.0
 49
1.0
 49
-1.0
  0
LTYPE
  2
PHANTOM
 70
     0
  3
______  __  __  
 72
    65
 73
     6
 40
35.0
 49
30.0
 49
-1.0
 49
1.0
 49
-1.0
 49
1.0
 49
-1.0
  0
LTYPE
  2
DIVIDE
 70
     0
  3
____ . . ____ . . 
 72
    65
 73
     6
 40
23.0
 49
20.0
 49
-1.0
 49
0.0
 49
-1.0
 49
0.0
 49
-1.0
  0
ENDTAB
  0
TABLE
  2
LAYER
 70
     4
  0
LAYER
  2
0
 70
     0
 62
     7
  6
CONTINUOUS
  0
LAYER
  2
┌▓È_1
 70
     0
 62
     7
  6
CONTINUOUS
  0
LAYER
  2
Éíû@É³
 70
     0
 62
     7
  6
CONTINUOUS
  0
LAYER
  2
Defpoints
 70
     0
 62
     7
  6
CONTINUOUS
  0
ENDTAB
  0
TABLE
  2
STYLE
 70
     1
  0
STYLE
  2
STANDARD
 70
     0
 40
0.0
 41
1.0
 50
0.0
 71
     0
 42
0.0
  3
txt
  4
extfont
  0
ENDTAB
  0
TABLE
  2
VIEW
 70
     0
  0
ENDTAB
  0
TABLE
  2
UCS
 70
     0
  0
ENDTAB
  0
TABLE
  2
APPID
 70
     2
  0
APPID
  2
ACAD
 70
     0
  0
APPID
  2
DCO15
 70
     0
  0
ENDTAB
  0
TABLE
  2
DIMSTYLE
 70
     4
  0
DIMSTYLE
  2
STANDARD
 70
     0
  3

  4

  5

  6

  7

 40
1.0
 41
0.18
 42
0.0625
 43
0.38
 44
0.18
 45
0.0
 46
0.0
 47
0.0
 48
0.0
140
0.18
141
0.09
142
0.0
143
25.399999999999999
144
1.0
145
0.0
146
1.0
147
0.09
 71
     0
 72
     0
 73
     1
 74
     1
 75
     0
 76
     0
 77
     0
 78
     0
170
     0
171
     2
172
     0
173
     0
174
     0
175
     0
176
     0
177
     0
178
     0
  0
DIMSTYLE
  2
VELDIM0
 70
     0
  3

  4

  5

  6

  7

 40
1.0
 41
6.0
 42
0.0625
 43
0.38
 44
1.0
 45
0.0
 46
6.0
 47
0.0
 48
0.0
140
5.9972220420999998
141
0.09
142
0.0
143
25.399999999999999
144
1.0
145
0.0
146
1.0
147
0.09
 71
     0
 72
     0
 73
     0
 74
     0
 75
     0
 76
     0
 77
     0
 78
     8
170
     0
171
     2
172
     0
173
     0
174
     0
175
     0
176
     0
177
     0
178
     0
  0
DIMSTYLE
  2
VELDIM1
 70
     0
  3

  4

  5

  6

  7

 40
1.0
 41
6.0
 42
0.0625
 43
0.38
 44
0.5
 45
0.0
 46
3.0
 47
0.0
 48
0.0
140
5.9972220420999998
141
0.09
142
0.0
143
25.399999999999999
144
1.0
145
0.0
146
1.0
147
0.09
 71
     0
 72
     0
 73
     0
 74
     0
 75
     0
 76
     0
 77
     0
 78
     8
170
     0
171
     2
172
     0
173
     0
174
     0
175
     0
176
     0
177
     0
178
     0
  0
DIMSTYLE
  2
VELDIM2
 70
     0
  3

  4

  5

  6

  7

 40
1.0
 41
6.0
 42
0.0625
 43
0.38
 44
1.25
 45
0.0
 46
5.0
 47
0.0
 48
0.0
140
5.9972220420999998
141
0.09
142
0.0
143
25.399999999999999
144
1.0
145
0.0
146
1.0
147
0.09
 71
     0
 72
     0
 73
     0
 74
     0
 75
     0
 76
     0
 77
     0
 78
     8
170
     0
171
     2
172
     0
173
     0
174
     0
175
     0
176
     0
177
     0
178
     0
  0
ENDTAB
  0
ENDSEC
  0
SECTION
  2
BLOCKS
  0
BLOCK
  8
0
  2
$MODEL_SPACE
 70
     0
 10
0.0
 20
0.0
 30
0.0
  3
$MODEL_SPACE
  1

  0
ENDBLK
  5
E
  8
0
  0
BLOCK
 67
     1
  8
0
  2
$PAPER_SPACE
 70
     0
 10
0.0
 20
0.0
 30
0.0
  3
$PAPER_SPACE
  1

  0
ENDBLK
  5
10
 67
     1
  8
0
  0
BLOCK
  8
0
  2
CLUMP0
 70
     0
 10
0.0
 20
0.0
 30
0.0
  3
CLUMP0
  1

  0
LINE
  5
32
  8
┌▓È_1
  6
BORDER
 62
     3
 10
640.73050087930005
 20
-163.4712735482
 30
0.0
 11
623.36105643489998
 21
-163.4712735482
 31
0.0
  0
LINE
  5
33
  8
┌▓È_1
  6
STITCH
 10
633.15272310160003
 20
-160.9712735482
 30
0.0
 11
634.90272310160003
 21
-159.2212735482
 31
0.0
  0
LINE
  5
34
  8
┌▓È_1
  6
STITCH
 10
632.15272310160003
 20
-160.9712735482
 30
0.0
 11
630.40272310160003
 21
-159.2212735482
 31
0.0
  0
LINE
  5
35
  8
┌▓È_1
  6
STITCH
 10
632.15272310160003
 20
-165.9712735482
 30
0.0
 11
630.40272310160003
 21
-167.7212735482
 31
0.0
  0
LINE
  5
36
  8
┌▓È_1
  6
STITCH
 10
633.15272310160003
 20
-165.9712735482
 30
0.0
 11
634.90272310160003
 21
-167.7212735482
 31
0.0
  0
LINE
  5
37
  8
┌▓È_1
  6
STITCH
 10
633.15272310160003
 20
-165.9712735482
 30
0.0
 11
632.15272310160003
 21
-165.9712735482
 31
0.0
  0
LINE
  5
38
  8
┌▓È_1
  6
STITCH
 10
632.15272310160003
 20
-160.9712735482
 30
0.0
 11
633.15272310160003
 21
-160.9712735482
 31
0.0
  0
LINE
  5
39
  8
┌▓È_1
  6
STITCH
 10
633.15272310160003
 20
-160.9712735482
 30
0.0
 11
633.15272310160003
 21
-165.9712735482
 31
0.0
  0
LINE
  5
3A
  8
┌▓È_1
  6
STITCH
 10
632.15272310160003
 20
-165.9712735482
 30
0.0
 11
632.15272310160003
 21
-160.9712735482
 31
0.0
  0
ENDBLK
  5
3B
  8
0
  0
BLOCK
  8
0
  2
CLUMP1
 70
     0
 10
0.0
 20
0.0
 30
0.0
  3
CLUMP1
  1

  0
LINE
  5
3F
  8
┌▓È_1
  6
BORDER
 62
     3
 10
882.35835143309998
 20
-157.4712735482
 30
0.0
 11
882.35835143309998
 21
-169.4712735482
 31
0.0
  0
LINE
  5
40
  8
┌▓È_1
  6
BORDER
 62
     3
 10
876.35835143309987
 20
-163.4712735482
 30
0.0
 11
888.35835143309998
 21
-163.4712735482
 31
0.0
  0
CIRCLE
  5
41
  8
┌▓È_1
 62
     5
 10
882.35835143309998
 20
-163.4712735482
 30
0.0
 40
4.25
  0
CIRCLE
  5
42
  8
┌▓È_1
 62
     5
 10
882.35835143309998
 20
-163.4712735482
 30
0.0
 40
2.5
  0
ENDBLK
  5
43
  8
0
  0
BLOCK
  8
0
  2
CLUMP2
 70
     0
 10
0.0
 20
0.0
 30
0.0
  3
CLUMP2
  1

  0
LINE
  5
4A
  8
┌▓È_1
  6
BORDER
 62
     3
 10
660.40272310160003
 20
-347.82749099609998
 30
0.0
 11
660.40272310160003
 21
-335.82749099609998
 31
0.0
  0
LINE
  5
4B
  8
┌▓È_1
  6
BORDER
 62
     3
 10
654.40272310160003
 20
-341.82749099609998
 30
0.0
 11
666.40272310160003
 21
-341.82749099609998
 31
0.0
  0
CIRCLE
  5
4C
  8
┌▓È_1
 62
     5
 10
660.40272310160003
 20
-341.82749099609998
 30
0.0
 40
4.25
  0
CIRCLE
  5
4D
  8
┌▓È_1
 62
     5
 10
660.40272310160003
 20
-341.82749099609998
 30
0.0
 40
2.5
  0
ENDBLK
  5
4E
  8
0
  0
BLOCK
  8
0
  2
CLUMP3
 70
     0
 10
0.0
 20
0.0
 30
0.0
  3
CLUMP3
  1

  0
LINE
  5
54
  8
┌▓È_1
  6
BORDER
 62
     3
 10
640.73050087930005
 20
-232.4712735482
 30
0.0
 11
623.36105643489998
 21
-232.4712735482
 31
0.0
  0
LINE
  5
55
  8
┌▓È_1
  6
STITCH
 10
633.15272310160003
 20
-229.9712735482
 30
0.0
 11
634.90272310160003
 21
-228.2212735482
 31
0.0
  0
LINE
  5
56
  8
┌▓È_1
  6
STITCH
 10
632.15272310160003
 20
-229.9712735482
 30
0.0
 11
630.40272310160003
 21
-228.2212735482
 31
0.0
  0
LINE
  5
57
  8
┌▓È_1
  6
STITCH
 10
632.15272310160003
 20
-234.9712735482
 30
0.0
 11
630.40272310160003
 21
-236.7212735482
 31
0.0
  0
LINE
  5
58
  8
┌▓È_1
  6
STITCH
 10
633.15272310160003
 20
-234.9712735482
 30
0.0
 11
634.90272310160003
 21
-236.7212735482
 31
0.0
  0
LINE
  5
59
  8
┌▓È_1
  6
STITCH
 10
633.15272310160003
 20
-234.9712735482
 30
0.0
 11
632.15272310160003
 21
-234.9712735482
 31
0.0
  0
LINE
  5
5A
  8
┌▓È_1
  6
STITCH
 10
632.15272310160003
 20
-229.9712735482
 30
0.0
 11
633.15272310160003
 21
-229.9712735482
 31
0.0
  0
LINE
  5
5B
  8
┌▓È_1
  6
STITCH
 10
633.15272310160003
 20
-229.9712735482
 30
0.0
 11
633.15272310160003
 21
-234.9712735482
 31
0.0
  0
LINE
  5
5C
  8
┌▓È_1
  6
STITCH
 10
632.15272310160003
 20
-234.9712735482
 30
0.0
 11
632.15272310160003
 21
-229.9712735482
 31
0.0
  0
ENDBLK
  5
5D
  8
0
  0
BLOCK
  8
0
  2
CLUMP4
 70
     0
 10
0.0
 20
0.0
 30
0.0
  3
CLUMP4
  1

  0
INSERT
  5
63
  8
┌▓È_1
  6
BORDER
  2
CLUMP5
 10
0.0
 20
0.0
 30
0.0
  0
ENDBLK
  5
6F
  8
0
  0
BLOCK
  8
0
  2
CLUMP5
 70
     0
 10
0.0
 20
0.0
 30
0.0
  3
CLUMP5
  1

  0
LINE
  5
65
  8
┌▓È_1
  6
BORDER
 62
     3
 10
660.40272310160003
 20
-252.14349577039999
 30
0.0
 11
660.40272310160003
 21
-269.51294021490003
 31
0.0
  0
LINE
  5
66
  8
┌▓È_1
  6
STITCH
 10
662.90272310160003
 20
-259.72127354819997
 30
0.0
 11
657.90272310160003
 21
-259.72127354819997
 31
0.0
  0
LINE
  5
67
  8
┌▓È_1
  6
STITCH
 10
662.90272310160003
 20
-259.72127354819997
 30
0.0
 11
664.65272310160003
 21
-257.97127354819997
 31
0.0
  0
LINE
  5
68
  8
┌▓È_1
  6
STITCH
 10
662.90272310160003
 20
-260.72127354819997
 30
0.0
 11
664.65272310160003
 21
-262.47127354819997
 31
0.0
  0
LINE
  5
69
  8
┌▓È_1
  6
STITCH
 10
662.90272310160003
 20
-260.72127354819997
 30
0.0
 11
662.90272310160003
 21
-259.72127354819997
 31
0.0
  0
LINE
  5
6A
  8
┌▓È_1
  6
STITCH
 10
657.90272310160003
 20
-260.72127354819997
 30
0.0
 11
662.90272310160003
 21
-260.72127354819997
 31
0.0
  0
LINE
  5
6B
  8
┌▓È_1
  6
STITCH
 10
657.90272310160003
 20
-259.72127354819997
 30
0.0
 11
657.90272310160003
 21
-260.72127354819997
 31
0.0
  0
LINE
  5
6C
  8
┌▓È_1
  6
STITCH
 10
657.90272310160003
 20
-259.72127354819997
 30
0.0
 11
656.15272310160003
 21
-257.97127354819997
 31
0.0
  0
LINE
  5
6D
  8
┌▓È_1
  6
STITCH
 10
657.90272310160003
 20
-260.72127354819997
 30
0.0
 11
656.15272310160003
 21
-262.47127354819997
 31
0.0
  0
ENDBLK
  5
6E
  8
0
  0
BLOCK
  8
0
  2
*D6
 70
     1
 10
0.0
 20
0.0
 30
0.0
  3
*D6
  1

  0
TEXT
  5
73
  8
0
 62
     0
 10
883.63848688090002
 20
-46.417839321800002
 30
0.0
 40
5.9972220420999998
  1
32
  0
LINE
  5
74
  8
0
 62
     0
 10
903.35835143309987
 20
-80.471273548200003
 30
0.0
 11
903.35835143309987
 21
-48.476172623300002
 31
0.0
  0
LINE
  5
75
  8
0
 62
     0
 10
871.35835143309998
 20
-80.471273548200003
 30
0.0
 11
871.35835143309998
 21
-48.476172623300002
 31
0.0
  0
LINE
  5
76
  8
0
 62
     0
 10
903.35835143309987
 20
-49.476172623300002
 30
0.0
 11
894.22181989630008
 21
-49.476172623300002
 31
0.0
  0
LINE
  5
77
  8
0
 62
     0
 10
903.35835143309987
 20
-49.476172623300002
 30
0.0
 11
880.11070920909992
 21
-49.476172623300002
 31
0.0
  0
LINE
  5
78
  8
0
 62
     0
 10
871.35835143309998
 20
-49.476172623300002
 30
0.0
 11
894.22181989630008
 21
-49.476172623300002
 31
0.0
  0
LINE
  5
79
  8
0
 62
     0
 10
871.35835143309998
 20
-49.476172623300002
 30
0.0
 11
880.11070920909992
 21
-49.476172623300002
 31
0.0
  0
LINE
  5
7A
  8
0
 62
     0
 10
871.35835143309998
 20
-49.476172623300002
 30
0.0
 11
877.35835143309987
 21
-49.476172623300002
 31
0.0
  0
SOLID
  5
7B
  8
0
 62
     0
 10
871.35835143309998
 20
-49.476172623300002
 30
0.0
 11
877.35835143309987
 21
-47.976172623300002
 31
0.0
 12
877.35835143309987
 22
-50.976172623300002
 32
0.0
 13
875.85835143309998
 23
-49.476172623300002
 33
0.0
  0
LINE
  5
7C
  8
0
 62
     0
 10
903.35835143309987
 20
-49.476172623300002
 30
0.0
 11
897.35835143309998
 21
-49.476172623300002
 31
0.0
  0
SOLID
  5
7D
  8
0
 62
     0
 10
903.35835143309987
 20
-49.476172623300002
 30
0.0
 11
897.35835143309998
 21
-50.976172623300002
 31
0.0
 12
897.35835143309998
 22
-47.976172623300002
 32
0.0
 13
898.85835143309987
 23
-49.476172623300002
 33
0.0
  0
ENDBLK
  5
7E
  8
0
  0
BLOCK
  8
0
  2
CLUMP6
 70
     0
 10
0.0
 20
0.0
 30
0.0
  3
CLUMP6
  1

  0
LINE
  5
85
  8
┌▓È_1
  6
BORDER
 62
     3
 10
729.40272310160003
 20
-345.82749099609998
 30
0.0
 11
729.40272310160003
 21
-357.82749099609998
 31
0.0
  0
LINE
  5
86
  8
┌▓È_1
  6
BORDER
 62
     3
 10
723.40272310160003
 20
-351.82749099609998
 30
0.0
 11
735.40272310160003
 21
-351.82749099609998
 31
0.0
  0
CIRCLE
  5
87
  8
┌▓È_1
 62
     5
 10
729.40272310160003
 20
-351.82749099609998
 30
0.0
 40
4.25
  0
CIRCLE
  5
88
  8
┌▓È_1
 62
     5
 10
729.40272310160003
 20
-351.82749099609998
 30
0.0
 40
2.5
  0
ENDBLK
  5
89
  8
0
  0
BLOCK
  8
0
  2
CLUMP7
 70
     0
 10
0.0
 20
0.0
 30
0.0
  3
CLUMP7
  1

  0
LINE
  5
96
  8
┌▓È_1
  6
BORDER
 62
     3
 10
892.35835143309987
 20
-226.4712735482
 30
0.0
 11
892.35835143309987
 21
-238.4712735482
 31
0.0
  0
LINE
  5
97
  8
┌▓È_1
  6
BORDER
 62
     3
 10
898.35835143309998
 20
-232.4712735482
 30
0.0
 11
886.35835143309987
 21
-232.4712735482
 31
0.0
  0
CIRCLE
  5
98
  8
┌▓È_1
 62
     5
 10
892.35835143309987
 20
-232.4712735482
 30
0.0
 40
4.25
  0
CIRCLE
  5
99
  8
┌▓È_1
 62
     5
 10
892.35835143309987
 20
-232.4712735482
 30
0.0
 40
2.5
  0
ENDBLK
  5
9A
  8
0
  0
BLOCK
  8
0
  2
CLUMP8
 70
     0
 10
0.0
 20
0.0
 30
0.0
  3
CLUMP8
  1

  0
INSERT
  5
AA
  8
┌▓È_1
  6
BORDER
  2
CLUMP9
 10
0.0
 20
0.0
 30
0.0
  0
ENDBLK
  5
B6
  8
0
  0
BLOCK
  8
0
  2
CLUMP9
 70
     0
 10
0.0
 20
0.0
 30
0.0
  3
CLUMP9
  1

  0
LINE
  5
AC
  8
┌▓È_1
  6
BORDER
 62
     3
 10
729.40272310160003
 20
-252.14349577039999
 30
0.0
 11
729.40272310160003
 21
-269.51294021490003
 31
0.0
  0
LINE
  5
AD
  8
┌▓È_1
  6
STITCH
 10
731.90272310160003
 20
-259.72127354819997
 30
0.0
 11
726.90272310160003
 21
-259.72127354819997
 31
0.0
  0
LINE
  5
AE
  8
┌▓È_1
  6
STITCH
 10
731.90272310160003
 20
-259.72127354819997
 30
0.0
 11
733.65272310160003
 21
-257.97127354819997
 31
0.0
  0
LINE
  5
AF
  8
┌▓È_1
  6
STITCH
 10
731.90272310160003
 20
-260.72127354819997
 30
0.0
 11
733.65272310160003
 21
-262.47127354819997
 31
0.0
  0
LINE
  5
B0
  8
┌▓È_1
  6
STITCH
 10
731.90272310160003
 20
-260.72127354819997
 30
0.0
 11
731.90272310160003
 21
-259.72127354819997
 31
0.0
  0
LINE
  5
B1
  8
┌▓È_1
  6
STITCH
 10
726.90272310160003
 20
-260.72127354819997
 30
0.0
 11
731.90272310160003
 21
-260.72127354819997
 31
0.0
  0
LINE
  5
B2
  8
┌▓È_1
  6
STITCH
 10
726.90272310160003
 20
-259.72127354819997
 30
0.0
 11
726.90272310160003
 21
-260.72127354819997
 31
0.0
  0
LINE
  5
B3
  8
┌▓È_1
  6
STITCH
 10
726.90272310160003
 20
-259.72127354819997
 30
0.0
 11
725.15272310160003
 21
-257.97127354819997
 31
0.0
  0
LINE
  5
B4
  8
┌▓È_1
  6
STITCH
 10
726.90272310160003
 20
-260.72127354819997
 30
0.0
 11
725.15272310160003
 21
-262.47127354819997
 31
0.0
  0
ENDBLK
  5
B5
  8
0
  0
BLOCK
  8
0
  2
CLUMP10
 70
     0
 10
0.0
 20
0.0
 30
0.0
  3
CLUMP10
  1

  0
INSERT
  5
BB
  8
┌▓È_1
  6
BORDER
  2
CLUMP11
 10
0.0
 20
0.0
 30
0.0
  0
ENDBLK
  5
C7
  8
0
  0
BLOCK
  8
0
  2
CLUMP11
 70
     0
 10
0.0
 20
0.0
 30
0.0
  3
CLUMP11
  1

  0
LINE
  5
BD
  8
┌▓È_1
  6
BORDER
 62
     3
 10
798.40272310160003
 20
-252.14349577039999
 30
0.0
 11
798.40272310160003
 21
-269.51294021490003
 31
0.0
  0
LINE
  5
BE
  8
┌▓È_1
  6
STITCH
 10
800.90272310160003
 20
-259.72127354819997
 30
0.0
 11
795.90272310160003
 21
-259.72127354819997
 31
0.0
  0
LINE
  5
BF
  8
┌▓È_1
  6
STITCH
 10
800.90272310160003
 20
-259.72127354819997
 30
0.0
 11
802.65272310160003
 21
-257.97127354819997
 31
0.0
  0
LINE
  5
C0
  8
┌▓È_1
  6
STITCH
 10
800.90272310160003
 20
-260.72127354819997
 30
0.0
 11
802.65272310160003
 21
-262.47127354819997
 31
0.0
  0
LINE
  5
C1
  8
┌▓È_1
  6
STITCH
 10
800.90272310160003
 20
-260.72127354819997
 30
0.0
 11
800.90272310160003
 21
-259.72127354819997
 31
0.0
  0
LINE
  5
C2
  8
┌▓È_1
  6
STITCH
 10
795.90272310160003
 20
-260.72127354819997
 30
0.0
 11
800.90272310160003
 21
-260.72127354819997
 31
0.0
  0
LINE
  5
C3
  8
┌▓È_1
  6
STITCH
 10
795.90272310160003
 20
-259.72127354819997
 30
0.0
 11
795.90272310160003
 21
-260.72127354819997
 31
0.0
  0
LINE
  5
C4
  8
┌▓È_1
  6
STITCH
 10
795.90272310160003
 20
-259.72127354819997
 30
0.0
 11
794.15272310160003
 21
-257.97127354819997
 31
0.0
  0
LINE
  5
C5
  8
┌▓È_1
  6
STITCH
 10
795.90272310160003
 20
-260.72127354819997
 30
0.0
 11
794.15272310160003
 21
-262.47127354819997
 31
0.0
  0
ENDBLK
  5
C6
  8
0
  0
BLOCK
  8
0
  2
CLUMP12
 70
     0
 10
0.0
 20
0.0
 30
0.0
  3
CLUMP12
  1

  0
LINE
  5
D8
  8
┌▓È_1
  6
BORDER
 62
     3
 10
792.40272310160003
 20
-346.82749099609998
 30
0.0
 11
804.40272310160003
 21
-346.82749099609998
 31
0.0
  0
LINE
  5
D9
  8
┌▓È_1
  6
BORDER
 62
     3
 10
798.40272310160003
 20
-340.82749099609998
 30
0.0
 11
798.40272310160003
 21
-352.82749099609998
 31
0.0
  0
CIRCLE
  5
DA
  8
┌▓È_1
 62
     5
 10
798.40272310160003
 20
-346.82749099609998
 30
0.0
 40
2.5
  0
CIRCLE
  5
DB
  8
┌▓È_1
 62
     5
 10
798.40272310160003
 20
-346.82749099609998
 30
0.0
 40
4.25
  0
ENDBLK
  5
DC
  8
0
  0
BLOCK
  8
0
  2
CLUMP13
 70
     0
 10
0.0
 20
0.0
 30
0.0
  3
CLUMP13
  1

  0
LINE
  5
E6
  8
┌▓È_1
  6
BORDER
 62
     3
 10
887.35835143309998
 20
-88.471273548200017
 30
0.0
 11
887.35835143309998
 21
-100.4712735482
 31
0.0
  0
LINE
  5
E7
  8
┌▓È_1
  6
BORDER
 62
     3
 10
881.35835143309998
 20
-94.471273548200003
 30
0.0
 11
893.35835143309987
 21
-94.471273548200003
 31
0.0
  0
CIRCLE
  5
E8
  8
┌▓È_1
 62
     5
 10
887.35835143309998
 20
-94.471273548200003
 30
0.0
 40
4.25
  0
CIRCLE
  5
E9
  8
┌▓È_1
 62
     5
 10
887.35835143309998
 20
-94.471273548200003
 30
0.0
 40
2.5
  0
ENDBLK
  5
EA
  8
0
  0
BLOCK
  8
0
  2
*D15
 70
     1
 10
0.0
 20
0.0
 30
0.0
  3
*D15
  1

  0
TEXT
  5
13D
  8
0
 62
     0
 10
751.16160667320003
 20
-360.85526866790002
 30
0.0
 40
5.9972220420999998
  1
11
 50
90.0
  0
LINE
  5
13E
  8
0
 62
     0
 10
736.40272310160003
 20
-362.82749099609998
 30
0.0
 11
753.71993997469997
 21
-362.82749099609998
 31
0.0
  0
LINE
  5
13F
  8
0
 62
     0
 10
736.40272310160003
 20
-351.82749099609998
 30
0.0
 11
753.71993997469997
 21
-351.82749099609998
 31
0.0
  0
LINE
  5
140
  8
0
 62
     0
 10
753.21993997469997
 20
-362.82749099609998
 30
0.0
 11
753.21993997469997
 21
-362.82749099609998
 31
0.0
  0
LINE
  5
141
  8
0
 62
     0
 10
753.21993997469997
 20
-362.82749099609998
 30
0.0
 11
753.21993997469997
 21
-351.82749099609998
 31
0.0
  0
LINE
  5
142
  8
0
 62
     0
 10
753.21993997469997
 20
-351.82749099609998
 30
0.0
 11
753.21993997469997
 21
-362.82749099609998
 31
0.0
  0
LINE
  5
143
  8
0
 62
     0
 10
753.21993997469997
 20
-351.82749099609998
 30
0.0
 11
753.21993997469997
 21
-351.82749099609998
 31
0.0
  0
LINE
  5
144
  8
0
 62
     0
 10
753.21993997469997
 20
-351.82749099609998
 30
0.0
 11
753.21993997469997
 21
-348.82749099609998
 31
0.0
  0
SOLID
  5
145
  8
0
 62
     0
 10
753.21993997469997
 20
-351.82749099609998
 30
0.0
 11
751.71993997469986
 21
-345.82749099609998
 31
0.0
 12
754.71993997469986
 22
-345.82749099609998
 32
0.0
 13
753.21993997469997
 23
-347.32749099609998
 33
0.0
  0
LINE
  5
146
  8
0
 62
     0
 10
753.21993997469997
 20
-362.82749099609998
 30
0.0
 11
753.21993997469997
 21
-365.82749099609998
 31
0.0
  0
SOLID
  5
147
  8
0
 62
     0
 10
753.21993997469997
 20
-362.82749099609998
 30
0.0
 11
754.71993997469986
 21
-368.82749099609998
 31
0.0
 12
751.71993997469986
 22
-368.82749099609998
 32
0.0
 13
753.21993997469997
 23
-367.32749099609998
 33
0.0
  0
ENDBLK
  5
148
  8
0
  0
BLOCK
  8
0
  2
*D16
 70
     1
 10
0.0
 20
0.0
 30
0.0
  3
*D16
  1

  0
TEXT
  5
14C
  8
0
 62
     0
 10
691.37494542970001
 20
-311.07199315899999
 30
0.0
 40
5.9972220420999998
  1
69
  0
LINE
  5
14D
  8
0
 62
     0
 10
729.40272310160003
 20
-344.82749099609998
 30
0.0
 11
729.40272310160003
 21
-312.63032646059997
 31
0.0
  0
LINE
  5
14E
  8
0
 62
     0
 10
660.40272310160003
 20
-334.82749099609998
 30
0.0
 11
660.40272310160003
 21
-312.63032646059997
 31
0.0
  0
LINE
  5
14F
  8
0
 62
     0
 10
729.40272310160003
 20
-313.13032646059997
 30
0.0
 11
701.95827844519999
 21
-313.13032646059997
 31
0.0
  0
LINE
  5
150
  8
0
 62
     0
 10
729.40272310160003
 20
-313.13032646059997
 30
0.0
 11
687.84716775789991
 21
-313.13032646059997
 31
0.0
  0
LINE
  5
151
  8
0
 62
     0
 10
660.40272310160003
 20
-313.13032646059997
 30
0.0
 11
701.95827844519999
 21
-313.13032646059997
 31
0.0
  0
LINE
  5
152
  8
0
 62
     0
 10
660.40272310160003
 20
-313.13032646059997
 30
0.0
 11
687.84716775789991
 21
-313.13032646059997
 31
0.0
  0
LINE
  5
153
  8
0
 62
     0
 10
660.40272310160003
 20
-313.13032646059997
 30
0.0
 11
663.40272310160003
 21
-313.13032646059997
 31
0.0
  0
SOLID
  5
154
  8
0
 62
     0
 10
660.40272310160003
 20
-313.13032646059997
 30
0.0
 11
666.40272310160003
 21
-311.63032646059997
 31
0.0
 12
666.40272310160003
 22
-314.63032646059997
 32
0.0
 13
664.90272310160003
 23
-313.13032646059997
 33
0.0
  0
LINE
  5
155
  8
0
 62
     0
 10
729.40272310160003
 20
-313.13032646059997
 30
0.0
 11
726.40272310160003
 21
-313.13032646059997
 31
0.0
  0
SOLID
  5
156
  8
0
 62
     0
 10
729.40272310160003
 20
-313.13032646059997
 30
0.0
 11
723.40272310160003
 21
-314.63032646059997
 31
0.0
 12
723.40272310160003
 22
-311.63032646059997
 32
0.0
 13
724.90272310160003
 23
-313.13032646059997
 33
0.0
  0
ENDBLK
  5
157
  8
0
  0
BLOCK
  8
0
  2
*D17
 70
     1
 10
0.0
 20
0.0
 30
0.0
  3
*D17
  1

  0
TEXT
  5
15B
  8
0
 62
     0
 10
700.99191584170001
 20
-350.35526866790002
 30
0.0
 40
5.9972220420999998
  1
10
 50
90.0
  0
LINE
  5
15C
  8
0
 62
     0
 10
667.40272310160003
 20
-341.82749099609998
 30
0.0
 11
703.55024914320006
 21
-341.82749099609998
 31
0.0
  0
LINE
  5
15D
  8
0
 62
     0
 10
724.15272310160003
 20
-351.82749099609998
 30
0.0
 11
702.55024914319995
 21
-351.82749099609998
 31
0.0
  0
LINE
  5
15E
  8
0
 62
     0
 10
703.05024914320006
 20
-341.82749099609998
 30
0.0
 11
703.05024914320006
 21
-341.82749099609998
 31
0.0
  0
LINE
  5
15F
  8
0
 62
     0
 10
703.05024914320006
 20
-341.82749099609998
 30
0.0
 11
703.05024914320006
 21
-351.82749099609998
 31
0.0
  0
LINE
  5
160
  8
0
 62
     0
 10
703.05024914320006
 20
-351.82749099609998
 30
0.0
 11
703.05024914320006
 21
-341.82749099609998
 31
0.0
  0
LINE
  5
161
  8
0
 62
     0
 10
703.05024914320006
 20
-351.82749099609998
 30
0.0
 11
703.05024914320006
 21
-351.82749099609998
 31
0.0
  0
LINE
  5
162
  8
0
 62
     0
 10
703.05024914320006
 20
-351.82749099609998
 30
0.0
 11
703.05024914320006
 21
-354.82749099609998
 31
0.0
  0
SOLID
  5
163
  8
0
 62
     0
 10
703.05024914320006
 20
-351.82749099609998
 30
0.0
 11
704.55024914319995
 21
-357.82749099609998
 31
0.0
 12
701.55024914319995
 22
-357.82749099609998
 32
0.0
 13
703.05024914320006
 23
-356.32749099609998
 33
0.0
  0
LINE
  5
164
  8
0
 62
     0
 10
703.05024914320006
 20
-341.82749099609998
 30
0.0
 11
703.05024914320006
 21
-338.82749099609998
 31
0.0
  0
SOLID
  5
165
  8
0
 62
     0
 10
703.05024914320006
 20
-341.82749099609998
 30
0.0
 11
701.55024914319995
 21
-335.82749099609998
 31
0.0
 12
704.55024914319995
 22
-335.82749099609998
 32
0.0
 13
703.05024914320006
 23
-337.32749099609998
 33
0.0
  0
ENDBLK
  5
166
  8
0
  0
BLOCK
  8
0
  2
*D18
 70
     1
 10
0.0
 20
0.0
 30
0.0
  3
*D18
  1

  0
TEXT
  5
16A
  8
0
 62
     0
 10
856.68278730289978
 20
-62.5957233735
 30
0.0
 40
5.9972220420999998
  1
16
  0
LINE
  5
16B
  8
0
 62
     0
 10
887.35835143309998
 20
-87.471273548199989
 30
0.0
 11
887.35835143309998
 21
-64.154056675000007
 31
0.0
  0
LINE
  5
16C
  8
0
 62
     0
 10
871.35835143309998
 20
-81.471273548200003
 30
0.0
 11
871.35835143309998
 21
-64.154056675000007
 31
0.0
  0
LINE
  5
16D
  8
0
 62
     0
 10
887.35835143309998
 20
-64.654056675000007
 30
0.0
 11
867.26612031829995
 21
-64.654056675000007
 31
0.0
  0
LINE
  5
16E
  8
0
 62
     0
 10
887.35835143309998
 20
-64.654056675000007
 30
0.0
 11
853.15500963110014
 21
-64.654056675000007
 31
0.0
  0
LINE
  5
16F
  8
0
 62
     0
 10
871.35835143309998
 20
-64.654056675000007
 30
0.0
 11
867.26612031829995
 21
-64.654056675000007
 31
0.0
  0
LINE
  5
170
  8
0
 62
     0
 10
871.35835143309998
 20
-64.654056675000007
 30
0.0
 11
853.15500963110014
 21
-64.654056675000007
 31
0.0
  0
LINE
  5
171
  8
0
 62
     0
 10
871.35835143309998
 20
-64.654056675000007
 30
0.0
 11
874.35835143309998
 21
-64.654056675000007
 31
0.0
  0
SOLID
  5
172
  8
0
 62
     0
 10
871.35835143309998
 20
-64.654056675000007
 30
0.0
 11
877.35835143309987
 21
-63.154056675
 31
0.0
 12
877.35835143309987
 22
-66.154056675000007
 32
0.0
 13
875.85835143309998
 23
-64.654056675000007
 33
0.0
  0
LINE
  5
173
  8
0
 62
     0
 10
887.35835143309998
 20
-64.654056675000007
 30
0.0
 11
884.35835143309987
 21
-64.654056675000007
 31
0.0
  0
SOLID
  5
174
  8
0
 62
     0
 10
887.35835143309998
 20
-64.654056675000007
 30
0.0
 11
881.35835143309998
 21
-66.154056675000007
 31
0.0
 12
881.35835143309998
 22
-63.154056675
 32
0.0
 13
882.85835143309987
 23
-64.654056675000007
 33
0.0
  0
ENDBLK
  5
175
  8
0
  0
BLOCK
  8
0
  2
*D19
 70
     1
 10
0.0
 20
0.0
 30
0.0
  3
*D19
  1

  0
TEXT
  5
179
  8
0
 62
     0
 10
908.2455151675
 20
-62.5957233735
 30
0.0
 40
5.9972220420999998
  1
16
  0
LINE
  5
17A
  8
0
 62
     0
 10
903.35835143309987
 20
-81.471273548200003
 30
0.0
 11
903.35835143309987
 21
-64.154056675000007
 31
0.0
  0
LINE
  5
17B
  8
0
 62
     0
 10
887.35835143309998
 20
-87.471273548199989
 30
0.0
 11
887.35835143309998
 21
-64.154056675000007
 31
0.0
  0
LINE
  5
17C
  8
0
 62
     0
 10
903.35835143309987
 20
-64.654056675000007
 30
0.0
 11
918.82884818289995
 21
-64.654056675000007
 31
0.0
  0
LINE
  5
17D
  8
0
 62
     0
 10
903.35835143309987
 20
-64.654056675000007
 30
0.0
 11
904.71773749570002
 21
-64.654056675000007
 31
0.0
  0
LINE
  5
17E
  8
0
 62
     0
 10
887.35835143309998
 20
-64.654056675000007
 30
0.0
 11
918.82884818289995
 21
-64.654056675000007
 31
0.0
  0
LINE
  5
17F
  8
0
 62
     0
 10
887.35835143309998
 20
-64.654056675000007
 30
0.0
 11
904.71773749570002
 21
-64.654056675000007
 31
0.0
  0
LINE
  5
180
  8
0
 62
     0
 10
887.35835143309998
 20
-64.654056675000007
 30
0.0
 11
890.35835143309998
 21
-64.654056675000007
 31
0.0
  0
SOLID
  5
181
  8
0
 62
     0
 10
887.35835143309998
 20
-64.654056675000007
 30
0.0
 11
893.35835143309987
 21
-63.154056675
 31
0.0
 12
893.35835143309987
 22
-66.154056675000007
 32
0.0
 13
891.85835143309998
 23
-64.654056675000007
 33
0.0
  0
LINE
  5
182
  8
0
 62
     0
 10
903.35835143309987
 20
-64.654056675000007
 30
0.0
 11
900.35835143309987
 21
-64.654056675000007
 31
0.0
  0
SOLID
  5
183
  8
0
 62
     0
 10
903.35835143309987
 20
-64.654056675000007
 30
0.0
 11
897.35835143309998
 21
-66.154056675000007
 31
0.0
 12
897.35835143309998
 22
-63.154056675
 32
0.0
 13
898.85835143309987
 23
-64.654056675000007
 33
0.0
  0
ENDBLK
  5
184
  8
0
  0
BLOCK
  8
0
  2
*D20
 70
     1
 10
0.0
 20
0.0
 30
0.0
  3
*D20
  1

  0
TEXT
  5
19C
  8
0
 62
     0
 10
830.73529877009992
 20
-321.3085567462
 30
0.0
 40
5.9972220420999998
  1
16
 50
90.0
  0
LINE
  5
19D
  8
0
 62
     0
 10
805.40272310160003
 20
-346.82749099609998
 30
0.0
 11
833.2936320716999
 21
-346.82749099609998
 31
0.0
  0
LINE
  5
19E
  8
0
 62
     0
 10
811.40272310160015
 20
-330.82749099609998
 30
0.0
 11
833.2936320716999
 21
-330.82749099609998
 31
0.0
  0
LINE
  5
19F
  8
0
 62
     0
 10
832.79363207170002
 20
-346.82749099609998
 30
0.0
 11
832.79363207170002
 21
-310.7252237308
 31
0.0
  0
LINE
  5
1A0
  8
0
 62
     0
 10
832.79363207170002
 20
-346.82749099609998
 30
0.0
 11
832.79363207170002
 21
-324.83633441799998
 31
0.0
  0
LINE
  5
1A1
  8
0
 62
     0
 10
832.79363207170002
 20
-330.82749099609998
 30
0.0
 11
832.79363207170002
 21
-310.7252237308
 31
0.0
  0
LINE
  5
1A2
  8
0
 62
     0
 10
832.79363207170002
 20
-330.82749099609998
 30
0.0
 11
832.79363207170002
 21
-324.83633441799998
 31
0.0
  0
LINE
  5
1A3
  8
0
 62
     0
 10
832.79363207170002
 20
-330.82749099609998
 30
0.0
 11
832.79363207170002
 21
-333.82749099609998
 31
0.0
  0
SOLID
  5
1A4
  8
0
 62
     0
 10
832.79363207170002
 20
-330.82749099609998
 30
0.0
 11
834.2936320716999
 21
-336.82749099609998
 31
0.0
 12
831.29363207170002
 22
-336.82749099609998
 32
0.0
 13
832.79363207170002
 23
-335.32749099609998
 33
0.0
  0
LINE
  5
1A5
  8
0
 62
     0
 10
832.79363207170002
 20
-346.82749099609998
 30
0.0
 11
832.79363207170002
 21
-343.82749099609998
 31
0.0
  0
SOLID
  5
1A6
  8
0
 62
     0
 10
832.79363207170002
 20
-346.82749099609998
 30
0.0
 11
831.29363207170002
 21
-340.82749099609998
 31
0.0
 12
834.2936320716999
 22
-340.82749099609998
 32
0.0
 13
832.79363207170002
 23
-342.32749099609998
 33
0.0
  0
ENDBLK
  5
1A7
  8
0
  0
BLOCK
  8
0
  2
*D21
 70
     1
 10
0.0
 20
0.0
 30
0.0
  3
*D21
  1

  0
TEXT
  5
1AB
  8
0
 62
     0
 10
830.73529877009992
 20
-377.50230617400001
 30
0.0
 40
5.9972220420999998
  1
16
 50
90.0
  0
LINE
  5
1AC
  8
0
 62
     0
 10
811.40272310160015
 20
-362.82749099609998
 30
0.0
 11
833.2936320716999
 21
-362.82749099609998
 31
0.0
  0
LINE
  5
1AD
  8
0
 62
     0
 10
805.40272310160003
 20
-346.82749099609998
 30
0.0
 11
833.2936320716999
 21
-346.82749099609998
 31
0.0
  0
LINE
  5
1AE
  8
0
 62
     0
 10
832.79363207170002
 20
-362.82749099609998
 30
0.0
 11
832.79363207170002
 21
-366.91897315860001
 31
0.0
  0
LINE
  5
1AF
  8
0
 62
     0
 10
832.79363207170002
 20
-362.82749099609998
 30
0.0
 11
832.79363207170002
 21
-381.03008384579999
 31
0.0
  0
LINE
  5
1B0
  8
0
 62
     0
 10
832.79363207170002
 20
-346.82749099609998
 30
0.0
 11
832.79363207170002
 21
-366.91897315860001
 31
0.0
  0
LINE
  5
1B1
  8
0
 62
     0
 10
832.79363207170002
 20
-346.82749099609998
 30
0.0
 11
832.79363207170002
 21
-381.03008384579999
 31
0.0
  0
LINE
  5
1B2
  8
0
 62
     0
 10
832.79363207170002
 20
-346.82749099609998
 30
0.0
 11
832.79363207170002
 21
-349.82749099609998
 31
0.0
  0
SOLID
  5
1B3
  8
0
 62
     0
 10
832.79363207170002
 20
-346.82749099609998
 30
0.0
 11
834.2936320716999
 21
-352.82749099609998
 31
0.0
 12
831.29363207170002
 22
-352.82749099609998
 32
0.0
 13
832.79363207170002
 23
-351.32749099609998
 33
0.0
  0
LINE
  5
1B4
  8
0
 62
     0
 10
832.79363207170002
 20
-362.82749099609998
 30
0.0
 11
832.79363207170002
 21
-359.82749099609998
 31
0.0
  0
SOLID
  5
1B5
  8
0
 62
     0
 10
832.79363207170002
 20
-362.82749099609998
 30
0.0
 11
831.29363207170002
 21
-356.82749099609998
 31
0.0
 12
834.2936320716999
 22
-356.82749099609998
 32
0.0
 13
832.79363207170002
 23
-358.32749099609998
 33
0.0
  0
ENDBLK
  5
1B6
  8
0
  0
BLOCK
  8
0
  2
*D22
 70
     1
 10
0.0
 20
0.0
 30
0.0
  3
*D22
  1

  0
TEXT
  5
1BC
  8
0
 62
     0
 10
640.77827623270002
 20
-55.979346496600002
 30
0.0
 40
5.9972220420999998
  1
4.5t
  0
LINE
  5
1BD
  8
0
 62
     0
 10
634.90272310160003
 20
-81.471273548200003
 30
0.0
 11
634.90272310160003
 21
-57.537679798200003
 31
0.0
  0
LINE
  5
1BE
  8
0
 62
     0
 10
630.40272310160003
 20
-81.471273548200003
 30
0.0
 11
630.40272310160003
 21
-57.537679798200003
 31
0.0
  0
LINE
  5
1BF
  8
0
 62
     0
 10
634.90272310160003
 20
-58.037679798199989
 30
0.0
 11
658.41716459169993
 21
-58.037679798199989
 31
0.0
  0
LINE
  5
1C0
  8
0
 62
     0
 10
634.90272310160003
 20
-58.037679798199989
 30
0.0
 11
637.25049856079988
 21
-58.037679798199989
 31
0.0
  0
LINE
  5
1C1
  8
0
 62
     0
 10
630.40272310160003
 20
-58.037679798199989
 30
0.0
 11
658.41716459169993
 21
-58.037679798199989
 31
0.0
  0
LINE
  5
1C2
  8
0
 62
     0
 10
630.40272310160003
 20
-58.037679798199989
 30
0.0
 11
637.25049856079988
 21
-58.037679798199989
 31
0.0
  0
LINE
  5
1C3
  8
0
 62
     0
 10
630.40272310160003
 20
-58.037679798199989
 30
0.0
 11
627.40272310160003
 21
-58.037679798199989
 31
0.0
  0
SOLID
  5
1C4
  8
0
 62
     0
 10
630.40272310160003
 20
-58.037679798199989
 30
0.0
 11
624.40272310160003
 21
-59.537679798200003
 31
0.0
 12
624.40272310160003
 22
-56.537679798199989
 32
0.0
 13
625.90272310160003
 23
-58.037679798199989
 33
0.0
  0
LINE
  5
1C5
  8
0
 62
     0
 10
634.90272310160003
 20
-58.037679798199989
 30
0.0
 11
637.90272310160003
 21
-58.037679798199989
 31
0.0
  0
SOLID
  5
1C6
  8
0
 62
     0
 10
634.90272310160003
 20
-58.037679798199989
 30
0.0
 11
640.90272310160003
 21
-56.537679798199989
 31
0.0
 12
640.90272310160003
 22
-59.537679798200003
 32
0.0
 13
639.40272310160003
 23
-58.037679798199989
 33
0.0
  0
ENDBLK
  5
1C7
  8
0
  0
BLOCK
  8
0
  2
*D23
 70
     1
 10
0.0
 20
0.0
 30
0.0
  3
*D23
  1

  0
TEXT
  5
1CB
  8
0
 62
     0
 10
851.60428563329992
 20
-250.99905122000001
 30
0.0
 40
5.9972220420999998
  1
30
 50
90.0
  0
LINE
  5
1CC
  8
0
 62
     0
 10
885.35835143309987
 20
-232.4712735482
 30
0.0
 11
853.16261893489991
 21
-232.4712735482
 31
0.0
  0
LINE
  5
1CD
  8
0
 62
     0
 10
870.35835143309987
 20
-262.47127354819997
 30
0.0
 11
853.16261893489991
 21
-262.47127354819997
 31
0.0
  0
LINE
  5
1CE
  8
0
 62
     0
 10
853.66261893490002
 20
-232.4712735482
 30
0.0
 11
853.66261893490002
 21
-240.41571820460001
 31
0.0
  0
LINE
  5
1CF
  8
0
 62
     0
 10
853.66261893490002
 20
-232.4712735482
 30
0.0
 11
853.66261893490002
 21
-254.52682889179999
 31
0.0
  0
LINE
  5
1D0
  8
0
 62
     0
 10
853.66261893490002
 20
-262.47127354819997
 30
0.0
 11
853.66261893490002
 21
-240.41571820460001
 31
0.0
  0
LINE
  5
1D1
  8
0
 62
     0
 10
853.66261893490002
 20
-262.47127354819997
 30
0.0
 11
853.66261893490002
 21
-254.52682889179999
 31
0.0
  0
LINE
  5
1D2
  8
0
 62
     0
 10
853.66261893490002
 20
-262.47127354819997
 30
0.0
 11
853.66261893490002
 21
-259.47127354819997
 31
0.0
  0
SOLID
  5
1D3
  8
0
 62
     0
 10
853.66261893490002
 20
-262.47127354819997
 30
0.0
 11
852.16261893489991
 21
-256.47127354819997
 31
0.0
 12
855.16261893490014
 22
-256.47127354819997
 32
0.0
 13
853.66261893490002
 23
-257.97127354819997
 33
0.0
  0
LINE
  5
1D4
  8
0
 62
     0
 10
853.66261893490002
 20
-232.4712735482
 30
0.0
 11
853.66261893490002
 21
-235.4712735482
 31
0.0
  0
SOLID
  5
1D5
  8
0
 62
     0
 10
853.66261893490002
 20
-232.4712735482
 30
0.0
 11
855.16261893490014
 21
-238.4712735482
 31
0.0
 12
852.16261893489991
 22
-238.4712735482
 32
0.0
 13
853.66261893490002
 23
-236.9712735482
 33
0.0
  0
ENDBLK
  5
1D6
  8
0
  0
BLOCK
  8
0
  2
*D24
 70
     1
 10
0.0
 20
0.0
 30
0.0
  3
*D24
  1

  0
TEXT
  5
1DA
  8
0
 62
     0
 10
851.60428601479987
 20
-91.999051219999998
 30
0.0
 40
5.9972220420999998
  1
12
 50
90.0
  0
LINE
  5
1DB
  8
0
 62
     0
 10
870.35835143309987
 20
-82.471273548199989
 30
0.0
 11
853.16261931639986
 21
-82.471273548199989
 31
0.0
  0
LINE
  5
1DC
  8
0
 62
     0
 10
880.35835143309998
 20
-94.471273548200003
 30
0.0
 11
853.16261931639986
 21
-94.471273548200003
 31
0.0
  0
LINE
  5
1DD
  8
0
 62
     0
 10
853.66261931639997
 20
-82.471273548199989
 30
0.0
 11
853.66261931639997
 21
-82.471273548199989
 31
0.0
  0
LINE
  5
1DE
  8
0
 62
     0
 10
853.66261931639997
 20
-82.471273548199989
 30
0.0
 11
853.66261931639997
 21
-94.471273548200003
 31
0.0
  0
LINE
  5
1DF
  8
0
 62
     0
 10
853.66261931639997
 20
-94.471273548200003
 30
0.0
 11
853.66261931639997
 21
-82.471273548199989
 31
0.0
  0
LINE
  5
1E0
  8
0
 62
     0
 10
853.66261931639997
 20
-94.471273548200003
 30
0.0
 11
853.66261931639997
 21
-94.471273548200003
 31
0.0
  0
LINE
  5
1E1
  8
0
 62
     0
 10
853.66261931639997
 20
-94.471273548200003
 30
0.0
 11
853.66261931639997
 21
-91.471273548200003
 31
0.0
  0
SOLID
  5
1E2
  8
0
 62
     0
 10
853.66261931639997
 20
-94.471273548200003
 30
0.0
 11
852.16261931639986
 21
-88.471273548200017
 31
0.0
 12
855.16261931639986
 22
-88.471273548200017
 32
0.0
 13
853.66261931639997
 23
-89.971273548199989
 33
0.0
  0
LINE
  5
1E3
  8
0
 62
     0
 10
853.66261931639997
 20
-82.471273548199989
 30
0.0
 11
853.66261931639997
 21
-85.471273548200003
 31
0.0
  0
SOLID
  5
1E4
  8
0
 62
     0
 10
853.66261931639997
 20
-82.471273548199989
 30
0.0
 11
855.16261931639986
 21
-88.471273548200017
 31
0.0
 12
852.16261931639986
 22
-88.471273548200017
 32
0.0
 13
853.66261931639997
 23
-86.971273548200003
 33
0.0
  0
ENDBLK
  5
1E5
  8
0
  0
BLOCK
  8
0
  2
*D25
 70
     1
 10
0.0
 20
0.0
 30
0.0
  3
*D25
  1

  0
TEXT
  5
1E9
  8
0
 62
     0
 10
980.44106961470004
 20
-136.41158618349999
 30
0.0
 40
5.9972220420999998
  1
%%c5
  0
LINE
  5
1EA
  8
0
 62
     0
 10
998.23273612240007
 20
-163.90696578129999
 30
0.0
 11
998.23273612240007
 21
-137.96991948499999
 31
0.0
  0
LINE
  5
1EB
  8
0
 62
     0
 10
973.23273612240007
 20
-163.90696578129999
 30
0.0
 11
973.23273612240007
 21
-137.96991948499999
 31
0.0
  0
LINE
  5
1EC
  8
0
 62
     0
 10
998.23273612240007
 20
-138.46991948499999
 30
0.0
 11
994.55218030190008
 21
-138.46991948499999
 31
0.0
  0
LINE
  5
1ED
  8
0
 62
     0
 10
998.23273612240007
 20
-138.46991948499999
 30
0.0
 11
976.91329194289995
 21
-138.46991948499999
 31
0.0
  0
LINE
  5
1EE
  8
0
 62
     0
 10
973.23273612240007
 20
-138.46991948499999
 30
0.0
 11
994.55218030190008
 21
-138.46991948499999
 31
0.0
  0
LINE
  5
1EF
  8
0
 62
     0
 10
973.23273612240007
 20
-138.46991948499999
 30
0.0
 11
976.91329194289995
 21
-138.46991948499999
 31
0.0
  0
LINE
  5
1F0
  8
0
 62
     0
 10
973.23273612240007
 20
-138.46991948499999
 30
0.0
 11
970.23273612239996
 21
-138.46991948499999
 31
0.0
  0
SOLID
  5
1F1
  8
0
 62
     0
 10
973.23273612240007
 20
-138.46991948499999
 30
0.0
 11
967.23273612240007
 21
-139.96991948499999
 31
0.0
 12
967.23273612240007
 22
-136.96991948499999
 32
0.0
 13
968.73273612240007
 23
-138.46991948499999
 33
0.0
  0
LINE
  5
1F2
  8
0
 62
     0
 10
998.23273612240007
 20
-138.46991948499999
 30
0.0
 11
1001.2327361224
 21
-138.46991948499999
 31
0.0
  0
SOLID
  5
1F3
  8
0
 62
     0
 10
998.23273612240007
 20
-138.46991948499999
 30
0.0
 11
1004.2327361224
 21
-136.96991948499999
 31
0.0
 12
1004.2327361224
 22
-139.96991948499999
 32
0.0
 13
1002.7327361224
 23
-138.46991948499999
 33
0.0
  0
ENDBLK
  5
1F4
  8
0
  0
BLOCK
  8
0
  2
*D26
 70
     1
 10
0.0
 20
0.0
 30
0.0
  3
*D26
  1

  0
TEXT
  5
1F8
  8
0
 62
     0
 10
976.91329194289995
 20
-195.00533618349999
 30
0.0
 40
5.9972220420999998
  1
%%c8.5
  0
LINE
  5
1F9
  8
0
 62
     0
 10
964.48273612240007
 20
-179.65696578129999
 30
0.0
 11
964.48273612240007
 21
-197.56366948499999
 31
0.0
  0
LINE
  5
1FA
  8
0
 62
     0
 10
1006.9827361224
 20
-179.65696578129999
 30
0.0
 11
1006.9827361224
 21
-197.56366948499999
 31
0.0
  0
LINE
  5
1FB
  8
0
 62
     0
 10
964.48273612240007
 20
-197.06366948499999
 30
0.0
 11
998.07995797369995
 21
-197.06366948499999
 31
0.0
  0
LINE
  5
1FC
  8
0
 62
     0
 10
964.48273612240007
 20
-197.06366948499999
 30
0.0
 11
973.38551427100003
 21
-197.06366948499999
 31
0.0
  0
LINE
  5
1FD
  8
0
 62
     0
 10
1006.9827361224
 20
-197.06366948499999
 30
0.0
 11
998.07995797369995
 21
-197.06366948499999
 31
0.0
  0
LINE
  5
1FE
  8
0
 62
     0
 10
1006.9827361224
 20
-197.06366948499999
 30
0.0
 11
973.38551427100003
 21
-197.06366948499999
 31
0.0
  0
LINE
  5
1FF
  8
0
 62
     0
 10
1006.9827361224
 20
-197.06366948499999
 30
0.0
 11
1003.9827361224
 21
-197.06366948499999
 31
0.0
  0
SOLID
  5
200
  8
0
 62
     0
 10
1006.9827361224
 20
-197.06366948499999
 30
0.0
 11
1000.9827361224
 21
-198.56366948499999
 31
0.0
 12
1000.9827361224
 22
-195.56366948499999
 32
0.0
 13
1002.4827361224
 23
-197.06366948499999
 33
0.0
  0
LINE
  5
201
  8
0
 62
     0
 10
964.48273612240007
 20
-197.06366948499999
 30
0.0
 11
967.48273612239996
 21
-197.06366948499999
 31
0.0
  0
SOLID
  5
202
  8
0
 62
     0
 10
964.48273612240007
 20
-197.06366948499999
 30
0.0
 11
970.48273612240007
 21
-195.56366948499999
 31
0.0
 12
970.48273612240007
 22
-198.56366948499999
 32
0.0
 13
968.98273612240007
 23
-197.06366948499999
 33
0.0
  0
ENDBLK
  5
203
  8
0
  0
BLOCK
  8
0
  2
*D27
 70
     1
 10
0.0
 20
0.0
 30
0.0
  3
*D27
  1

  0
TEXT
  5
207
  8
0
 62
     0
 10
976.91329194289995
 20
-120.93165070889999
 30
0.0
 40
5.9972220420999998
  1
%%c8.5
  0
LINE
  5
208
  8
0
 62
     0
 10
1006.9827361224
 20
-155.15696578129999
 30
0.0
 11
1006.9827361224
 21
-122.4899840105
 31
0.0
  0
LINE
  5
209
  8
0
 62
     0
 10
964.48273612240007
 20
-155.15696578129999
 30
0.0
 11
964.48273612240007
 21
-122.4899840105
 31
0.0
  0
LINE
  5
20A
  8
0
 62
     0
 10
1006.9827361224
 20
-122.9899840105
 30
0.0
 11
998.07995797369995
 21
-122.9899840105
 31
0.0
  0
LINE
  5
20B
  8
0
 62
     0
 10
1006.9827361224
 20
-122.9899840105
 30
0.0
 11
973.38551427100003
 21
-122.9899840105
 31
0.0
  0
LINE
  5
20C
  8
0
 62
     0
 10
964.48273612240007
 20
-122.9899840105
 30
0.0
 11
998.07995797369995
 21
-122.9899840105
 31
0.0
  0
LINE
  5
20D
  8
0
 62
     0
 10
964.48273612240007
 20
-122.9899840105
 30
0.0
 11
973.38551427100003
 21
-122.9899840105
 31
0.0
  0
LINE
  5
20E
  8
0
 62
     0
 10
964.48273612240007
 20
-122.9899840105
 30
0.0
 11
967.48273612239996
 21
-122.9899840105
 31
0.0
  0
SOLID
  5
20F
  8
0
 62
     0
 10
964.48273612240007
 20
-122.9899840105
 30
0.0
 11
970.48273612240007
 21
-121.4899840105
 31
0.0
 12
970.48273612240007
 22
-124.4899840105
 32
0.0
 13
968.98273612240007
 23
-122.9899840105
 33
0.0
  0
LINE
  5
210
  8
0
 62
     0
 10
1006.9827361224
 20
-122.9899840105
 30
0.0
 11
1003.9827361224
 21
-122.9899840105
 31
0.0
  0
SOLID
  5
211
  8
0
 62
     0
 10
1006.9827361224
 20
-122.9899840105
 30
0.0
 11
1000.9827361224
 21
-124.4899840105
 31
0.0
 12
1000.9827361224
 22
-121.4899840105
 32
0.0
 13
1002.4827361224
 23
-122.9899840105
 33
0.0
  0
ENDBLK
  5
212
  8
0
  0
BLOCK
  8
0
  2
*D28
 70
     1
 10
0.0
 20
0.0
 30
0.0
  3
*D28
  1

  0
TEXT
  5
216
  8
0
 62
     0
 10
894.33057376119996
 20
-210.23178790290001
 30
0.0
 40
5.9972220420999998
  1
11
  0
LINE
  5
217
  8
0
 62
     0
 10
903.35835143309987
 20
-225.4712735482
 30
0.0
 11
903.35835143309987
 21
-211.79012120440001
 31
0.0
  0
LINE
  5
218
  8
0
 62
     0
 10
892.35835143309987
 20
-225.4712735482
 30
0.0
 11
892.35835143309987
 21
-211.79012120440001
 31
0.0
  0
LINE
  5
219
  8
0
 62
     0
 10
903.35835143309987
 20
-212.29012120440001
 30
0.0
 11
903.35835143309987
 21
-212.29012120440001
 31
0.0
  0
LINE
  5
21A
  8
0
 62
     0
 10
903.35835143309987
 20
-212.29012120440001
 30
0.0
 11
892.35835143309987
 21
-212.29012120440001
 31
0.0
  0
LINE
  5
21B
  8
0
 62
     0
 10
892.35835143309987
 20
-212.29012120440001
 30
0.0
 11
903.35835143309987
 21
-212.29012120440001
 31
0.0
  0
LINE
  5
21C
  8
0
 62
     0
 10
892.35835143309987
 20
-212.29012120440001
 30
0.0
 11
892.35835143309987
 21
-212.29012120440001
 31
0.0
  0
LINE
  5
21D
  8
0
 62
     0
 10
892.35835143309987
 20
-212.29012120440001
 30
0.0
 11
889.35835143309998
 21
-212.29012120440001
 31
0.0
  0
SOLID
  5
21E
  8
0
 62
     0
 10
892.35835143309987
 20
-212.29012120440001
 30
0.0
 11
886.35835143309987
 21
-213.79012120440001
 31
0.0
 12
886.35835143309987
 22
-210.79012120440001
 32
0.0
 13
887.85835143309987
 23
-212.29012120440001
 33
0.0
  0
LINE
  5
21F
  8
0
 62
     0
 10
903.35835143309987
 20
-212.29012120440001
 30
0.0
 11
906.35835143309998
 21
-212.29012120440001
 31
0.0
  0
SOLID
  5
220
  8
0
 62
     0
 10
903.35835143309987
 20
-212.29012120440001
 30
0.0
 11
909.35835143309987
 21
-210.79012120440001
 31
0.0
 12
909.35835143309987
 22
-213.79012120440001
 32
0.0
 13
907.85835143309987
 23
-212.29012120440001
 33
0.0
  0
ENDBLK
  5
221
  8
0
  0
BLOCK
  8
0
  2
*D29
 70
     1
 10
0.0
 20
0.0
 30
0.0
  3
*D29
  1

  0
TEXT
  5
225
  8
0
 62
     0
 10
610.52717292679995
 20
-177.7629400559
 30
0.0
 40
5.9972220420999998
  1
180
 50
90.0
  0
LINE
  5
226
  8
0
 62
     0
 10
629.40272310160003
 20
-82.471273548199989
 30
0.0
 11
612.08550622839994
 21
-82.471273548199989
 31
0.0
  0
LINE
  5
227
  8
0
 62
     0
 10
633.90272310160003
 20
-262.47127354819997
 30
0.0
 11
612.08550622839994
 21
-262.47127354819997
 31
0.0
  0
LINE
  5
228
  8
0
 62
     0
 10
612.58550622839994
 20
-82.471273548199989
 30
0.0
 11
612.58550622839994
 21
-163.65182936869999
 31
0.0
  0
LINE
  5
229
  8
0
 62
     0
 10
612.58550622839994
 20
-82.471273548199989
 30
0.0
 11
612.58550622839994
 21
-181.29071772770001
 31
0.0
  0
LINE
  5
22A
  8
0
 62
     0
 10
612.58550622839994
 20
-262.47127354819997
 30
0.0
 11
612.58550622839994
 21
-163.65182936869999
 31
0.0
  0
LINE
  5
22B
  8
0
 62
     0
 10
612.58550622839994
 20
-262.47127354819997
 30
0.0
 11
612.58550622839994
 21
-181.29071772770001
 31
0.0
  0
LINE
  5
22C
  8
0
 62
     0
 10
612.58550622839994
 20
-262.47127354819997
 30
0.0
 11
612.58550622839994
 21
-259.47127354819997
 31
0.0
  0
SOLID
  5
22D
  8
0
 62
     0
 10
612.58550622839994
 20
-262.47127354819997
 30
0.0
 11
611.08550622839994
 21
-256.47127354819997
 31
0.0
 12
614.08550622839994
 22
-256.47127354819997
 32
0.0
 13
612.58550622839994
 23
-257.97127354819997
 33
0.0
  0
LINE
  5
22E
  8
0
 62
     0
 10
612.58550622839994
 20
-82.471273548199989
 30
0.0
 11
612.58550622839994
 21
-85.471273548200003
 31
0.0
  0
SOLID
  5
22F
  8
0
 62
     0
 10
612.58550622839994
 20
-82.471273548199989
 30
0.0
 11
614.08550622839994
 21
-88.471273548200017
 31
0.0
 12
611.08550622839994
 22
-88.471273548200017
 32
0.0
 13
612.58550622839994
 23
-86.971273548200003
 33
0.0
  0
ENDBLK
  5
230
  8
0
  0
BLOCK
  8
0
  2
*D30
 70
     1
 10
0.0
 20
0.0
 30
0.0
  3
*D30
  1

  0
TEXT
  5
234
  8
0
 62
     0
 10
715.11105659379996
 20
-278.23015711980003
 30
0.0
 40
5.9972220420999998
  1
180
  0
LINE
  5
235
  8
0
 62
     0
 10
630.40272310160003
 20
-258.97127354819997
 30
0.0
 11
630.40272310160003
 21
-280.78849042140001
 31
0.0
  0
LINE
  5
236
  8
0
 62
     0
 10
810.40272310160015
 20
-263.47127354819997
 30
0.0
 11
810.40272310160015
 21
-280.78849042140001
 31
0.0
  0
LINE
  5
237
  8
0
 62
     0
 10
630.40272310160003
 20
-280.28849042140001
 30
0.0
 11
729.22216728110004
 21
-280.28849042140001
 31
0.0
  0
LINE
  5
238
  8
0
 62
     0
 10
630.40272310160003
 20
-280.28849042140001
 30
0.0
 11
711.58327892199986
 21
-280.28849042140001
 31
0.0
  0
LINE
  5
239
  8
0
 62
     0
 10
810.40272310160015
 20
-280.28849042140001
 30
0.0
 11
729.22216728110004
 21
-280.28849042140001
 31
0.0
  0
LINE
  5
23A
  8
0
 62
     0
 10
810.40272310160015
 20
-280.28849042140001
 30
0.0
 11
711.58327892199986
 21
-280.28849042140001
 31
0.0
  0
LINE
  5
23B
  8
0
 62
     0
 10
810.40272310160015
 20
-280.28849042140001
 30
0.0
 11
807.40272310160003
 21
-280.28849042140001
 31
0.0
  0
SOLID
  5
23C
  8
0
 62
     0
 10
810.40272310160015
 20
-280.28849042140001
 30
0.0
 11
804.40272310160003
 21
-281.78849042140001
 31
0.0
 12
804.40272310160003
 22
-278.78849042140001
 32
0.0
 13
805.90272310159992
 23
-280.28849042140001
 33
0.0
  0
LINE
  5
23D
  8
0
 62
     0
 10
630.40272310160003
 20
-280.28849042140001
 30
0.0
 11
633.40272310160003
 21
-280.28849042140001
 31
0.0
  0
SOLID
  5
23E
  8
0
 62
     0
 10
630.40272310160003
 20
-280.28849042140001
 30
0.0
 11
636.40272310160003
 21
-278.78849042140001
 31
0.0
 12
636.40272310160003
 22
-281.78849042140001
 32
0.0
 13
634.90272310160003
 23
-280.28849042140001
 33
0.0
  0
ENDBLK
  5
23F
  8
0
  0
BLOCK
  8
0
  2
*D31
 70
     1
 10
0.0
 20
0.0
 30
0.0
  3
*D31
  1

  0
TEXT
  5
243
  8
0
 62
     0
 10
851.60428601479987
 20
-132.49905122000001
 30
0.0
 40
5.9972220420999998
  1
69
 50
90.0
  0
LINE
  5
244
  8
0
 62
     0
 10
880.35835143309998
 20
-94.471273548200003
 30
0.0
 11
853.16261931639986
 21
-94.471273548200003
 31
0.0
  0
LINE
  5
245
  8
0
 62
     0
 10
875.35835143309987
 20
-163.4712735482
 30
0.0
 11
853.16261931639986
 21
-163.4712735482
 31
0.0
  0
LINE
  5
246
  8
0
 62
     0
 10
853.66261931639997
 20
-94.471273548200003
 30
0.0
 11
853.66261931639997
 21
-121.9157182046
 31
0.0
  0
LINE
  5
247
  8
0
 62
     0
 10
853.66261931639997
 20
-94.471273548200003
 30
0.0
 11
853.66261931639997
 21
-136.02682889179999
 31
0.0
  0
LINE
  5
248
  8
0
 62
     0
 10
853.66261931639997
 20
-163.4712735482
 30
0.0
 11
853.66261931639997
 21
-121.9157182046
 31
0.0
  0
LINE
  5
249
  8
0
 62
     0
 10
853.66261931639997
 20
-163.4712735482
 30
0.0
 11
853.66261931639997
 21
-136.02682889179999
 31
0.0
  0
LINE
  5
24A
  8
0
 62
     0
 10
853.66261931639997
 20
-163.4712735482
 30
0.0
 11
853.66261931639997
 21
-160.4712735482
 31
0.0
  0
SOLID
  5
24B
  8
0
 62
     0
 10
853.66261931639997
 20
-163.4712735482
 30
0.0
 11
852.16261931639986
 21
-157.4712735482
 31
0.0
 12
855.16261931639986
 22
-157.4712735482
 32
0.0
 13
853.66261931639997
 23
-158.9712735482
 33
0.0
  0
LINE
  5
24C
  8
0
 62
     0
 10
853.66261931639997
 20
-94.471273548200003
 30
0.0
 11
853.66261931639997
 21
-97.471273548200017
 31
0.0
  0
SOLID
  5
24D
  8
0
 62
     0
 10
853.66261931639997
 20
-94.471273548200003
 30
0.0
 11
855.16261931639986
 21
-100.4712735482
 31
0.0
 12
852.16261931639986
 22
-100.4712735482
 32
0.0
 13
853.66261931639997
 23
-98.971273548200003
 33
0.0
  0
ENDBLK
  5
24E
  8
0
  0
BLOCK
  8
0
  2
*D32
 70
     1
 10
0.0
 20
0.0
 30
0.0
  3
*D32
  1

  0
TEXT
  5
252
  8
0
 62
     0
 10
851.60428601479987
 20
-201.49905122000001
 30
0.0
 40
5.9972220420999998
  1
69
 50
90.0
  0
LINE
  5
253
  8
0
 62
     0
 10
875.35835143309987
 20
-163.4712735482
 30
0.0
 11
853.16261931639986
 21
-163.4712735482
 31
0.0
  0
LINE
  5
254
  8
0
 62
     0
 10
885.35835143309987
 20
-232.4712735482
 30
0.0
 11
853.16261931639986
 21
-232.4712735482
 31
0.0
  0
LINE
  5
255
  8
0
 62
     0
 10
853.66261931639997
 20
-163.4712735482
 30
0.0
 11
853.66261931639997
 21
-190.91571820460001
 31
0.0
  0
LINE
  5
256
  8
0
 62
     0
 10
853.66261931639997
 20
-163.4712735482
 30
0.0
 11
853.66261931639997
 21
-205.02682889179999
 31
0.0
  0
LINE
  5
257
  8
0
 62
     0
 10
853.66261931639997
 20
-232.4712735482
 30
0.0
 11
853.66261931639997
 21
-190.91571820460001
 31
0.0
  0
LINE
  5
258
  8
0
 62
     0
 10
853.66261931639997
 20
-232.4712735482
 30
0.0
 11
853.66261931639997
 21
-205.02682889179999
 31
0.0
  0
LINE
  5
259
  8
0
 62
     0
 10
853.66261931639997
 20
-232.4712735482
 30
0.0
 11
853.66261931639997
 21
-229.4712735482
 31
0.0
  0
SOLID
  5
25A
  8
0
 62
     0
 10
853.66261931639997
 20
-232.4712735482
 30
0.0
 11
852.16261931639986
 21
-226.4712735482
 31
0.0
 12
855.16261931639986
 22
-226.4712735482
 32
0.0
 13
853.66261931639997
 23
-227.9712735482
 33
0.0
  0
LINE
  5
25B
  8
0
 62
     0
 10
853.66261931639997
 20
-163.4712735482
 30
0.0
 11
853.66261931639997
 21
-166.4712735482
 31
0.0
  0
SOLID
  5
25C
  8
0
 62
     0
 10
853.66261931639997
 20
-163.4712735482
 30
0.0
 11
855.16261931639986
 21
-169.4712735482
 31
0.0
 12
852.16261931639986
 22
-169.4712735482
 32
0.0
 13
853.66261931639997
 23
-167.9712735482
 33
0.0
  0
ENDBLK
  5
25D
  8
0
  0
BLOCK
  8
0
  2
*D33
 70
     1
 10
0.0
 20
0.0
 30
0.0
  3
*D33
  1

  0
TEXT
  5
261
  8
0
 62
     0
 10
873.33057376119984
 20
-141.83719472760001
 30
0.0
 40
5.9972220420999998
  1
11
  0
LINE
  5
262
  8
0
 62
     0
 10
882.35835143309998
 20
-156.4712735482
 30
0.0
 11
882.35835143309998
 21
-143.39552802919999
 31
0.0
  0
LINE
  5
263
  8
0
 62
     0
 10
871.35835143309998
 20
-153.72941156900001
 30
0.0
 11
871.35835143309998
 21
-143.39552802919999
 31
0.0
  0
LINE
  5
264
  8
0
 62
     0
 10
882.35835143309998
 20
-143.89552802919999
 30
0.0
 11
882.35835143309998
 21
-143.89552802919999
 31
0.0
  0
LINE
  5
265
  8
0
 62
     0
 10
882.35835143309998
 20
-143.89552802919999
 30
0.0
 11
871.35835143309998
 21
-143.89552802919999
 31
0.0
  0
LINE
  5
266
  8
0
 62
     0
 10
871.35835143309998
 20
-143.89552802919999
 30
0.0
 11
882.35835143309998
 21
-143.89552802919999
 31
0.0
  0
LINE
  5
267
  8
0
 62
     0
 10
871.35835143309998
 20
-143.89552802919999
 30
0.0
 11
871.35835143309998
 21
-143.89552802919999
 31
0.0
  0
LINE
  5
268
  8
0
 62
     0
 10
871.35835143309998
 20
-143.89552802919999
 30
0.0
 11
868.35835143309987
 21
-143.89552802919999
 31
0.0
  0
SOLID
  5
269
  8
0
 62
     0
 10
871.35835143309998
 20
-143.89552802919999
 30
0.0
 11
865.35835143309998
 21
-145.39552802919999
 31
0.0
 12
865.35835143309998
 22
-142.39552802919999
 32
0.0
 13
866.85835143309998
 23
-143.89552802919999
 33
0.0
  0
LINE
  5
26A
  8
0
 62
     0
 10
882.35835143309998
 20
-143.89552802919999
 30
0.0
 11
885.35835143309987
 21
-143.89552802919999
 31
0.0
  0
SOLID
  5
26B
  8
0
 62
     0
 10
882.35835143309998
 20
-143.89552802919999
 30
0.0
 11
888.35835143309998
 21
-142.39552802919999
 31
0.0
 12
888.35835143309998
 22
-145.39552802919999
 32
0.0
 13
886.85835143309998
 23
-143.89552802919999
 33
0.0
  0
ENDBLK
  5
26C
  8
0
  0
BLOCK
  8
0
  2
*D34
 70
     1
 10
0.0
 20
0.0
 30
0.0
  3
*D34
  1

  0
TEXT
  5
270
  8
0
 62
     0
 10
884.83057399970005
 20
-185.32023191330001
 30
0.0
 40
5.9972220420999998
  1
10
  0
LINE
  5
271
  8
0
 62
     0
 10
892.35835143309987
 20
-227.2212735482
 30
0.0
 11
892.35835143309987
 21
-186.87856521489999
 31
0.0
  0
LINE
  5
272
  8
0
 62
     0
 10
882.35835143309998
 20
-170.4712735482
 30
0.0
 11
882.35835143309998
 21
-187.87856521489999
 31
0.0
  0
LINE
  5
273
  8
0
 62
     0
 10
892.35835143309987
 20
-187.37856521489999
 30
0.0
 11
892.35835143309987
 21
-187.37856521489999
 31
0.0
  0
LINE
  5
274
  8
0
 62
     0
 10
892.35835143309987
 20
-187.37856521489999
 30
0.0
 11
882.35835143309998
 21
-187.37856521489999
 31
0.0
  0
LINE
  5
275
  8
0
 62
     0
 10
882.35835143309998
 20
-187.37856521489999
 30
0.0
 11
892.35835143309987
 21
-187.37856521489999
 31
0.0
  0
LINE
  5
276
  8
0
 62
     0
 10
882.35835143309998
 20
-187.37856521489999
 30
0.0
 11
882.35835143309998
 21
-187.37856521489999
 31
0.0
  0
LINE
  5
277
  8
0
 62
     0
 10
882.35835143309998
 20
-187.37856521489999
 30
0.0
 11
879.35835143309998
 21
-187.37856521489999
 31
0.0
  0
SOLID
  5
278
  8
0
 62
     0
 10
882.35835143309998
 20
-187.37856521489999
 30
0.0
 11
876.35835143309987
 21
-188.87856521489999
 31
0.0
 12
876.35835143309987
 22
-185.87856521489999
 32
0.0
 13
877.85835143309998
 23
-187.37856521489999
 33
0.0
  0
LINE
  5
279
  8
0
 62
     0
 10
892.35835143309987
 20
-187.37856521489999
 30
0.0
 11
895.35835143309987
 21
-187.37856521489999
 31
0.0
  0
SOLID
  5
27A
  8
0
 62
     0
 10
892.35835143309987
 20
-187.37856521489999
 30
0.0
 11
898.35835143309998
 21
-185.87856521489999
 31
0.0
 12
898.35835143309998
 22
-188.87856521489999
 32
0.0
 13
896.85835143309987
 23
-187.37856521489999
 33
0.0
  0
ENDBLK
  5
27B
  8
0
  0
BLOCK
  8
0
  2
*D35
 70
     1
 10
0.0
 20
0.0
 30
0.0
  3
*D35
  1

  0
TEXT
  5
27F
  8
0
 62
     0
 10
800.87494542969989
 20
-310.9519408214
 30
0.0
 40
5.9972220420999998
  1
12
  0
LINE
  5
280
  8
0
 62
     0
 10
810.40272310160015
 20
-329.82749099609998
 30
0.0
 11
810.40272310160015
 21
-312.5102741229
 31
0.0
  0
LINE
  5
281
  8
0
 62
     0
 10
798.40272310160003
 20
-339.82749099609998
 30
0.0
 11
798.40272310160003
 21
-312.5102741229
 31
0.0
  0
LINE
  5
282
  8
0
 62
     0
 10
810.40272310160015
 20
-313.0102741229
 30
0.0
 11
810.40272310160015
 21
-313.0102741229
 31
0.0
  0
LINE
  5
283
  8
0
 62
     0
 10
810.40272310160015
 20
-313.0102741229
 30
0.0
 11
798.40272310160003
 21
-313.0102741229
 31
0.0
  0
LINE
  5
284
  8
0
 62
     0
 10
798.40272310160003
 20
-313.0102741229
 30
0.0
 11
810.40272310160015
 21
-313.0102741229
 31
0.0
  0
LINE
  5
285
  8
0
 62
     0
 10
798.40272310160003
 20
-313.0102741229
 30
0.0
 11
798.40272310160003
 21
-313.0102741229
 31
0.0
  0
LINE
  5
286
  8
0
 62
     0
 10
798.40272310160003
 20
-313.0102741229
 30
0.0
 11
801.40272310159992
 21
-313.0102741229
 31
0.0
  0
SOLID
  5
287
  8
0
 62
     0
 10
798.40272310160003
 20
-313.0102741229
 30
0.0
 11
804.40272310160003
 21
-311.5102741229
 31
0.0
 12
804.40272310160003
 22
-314.5102741229
 32
0.0
 13
802.90272310160003
 23
-313.0102741229
 33
0.0
  0
LINE
  5
288
  8
0
 62
     0
 10
810.40272310160015
 20
-313.0102741229
 30
0.0
 11
807.40272310160003
 21
-313.0102741229
 31
0.0
  0
SOLID
  5
289
  8
0
 62
     0
 10
810.40272310160015
 20
-313.0102741229
 30
0.0
 11
804.40272310160003
 21
-314.5102741229
 31
0.0
 12
804.40272310160003
 22
-311.5102741229
 32
0.0
 13
805.90272310159992
 23
-313.0102741229
 33
0.0
  0
ENDBLK
  5
28A
  8
0
  0
BLOCK
  8
0
  2
*D36
 70
     1
 10
0.0
 20
0.0
 30
0.0
  3
*D36
  1

  0
TEXT
  5
28F
  8
0
 62
     0
 10
980.44106961470004
 20
-209.9262796788
 30
0.0
 40
5.9972220420999998
  1
90%%d
  0
ARC
  5
290
  8
0
 62
     0
 10
985.73273612240007
 20
-157.40696578129999
 30
0.0
 40
55.694313802099998
 50
307.0376805203
 51
315.0
  0
ARC
  5
291
  8
0
 62
     0
 10
985.73273612240007
 20
-157.40696578129999
 30
0.0
 40
55.694313802099998
 50
225.0
 51
232.9623194797
  0
SOLID
  5
292
  8
0
 62
     0
 10
946.35090915939998
 20
-196.7887927443
 30
0.0
 11
941.04760830050009
 21
-193.60681222900001
 31
0.0
 12
943.16892864409988
 22
-191.48549188539999
 32
0.0
 13
943.16892864409988
 23
-193.60681222900001
 33
0.0
  0
SOLID
  5
293
  8
0
 62
     0
 10
1025.1145630853989
 20
-196.7887927443
 30
0.0
 11
1028.2965436007
 21
-191.48549188539999
 31
0.0
 12
1030.4178639443001
 22
-193.60681222900001
 32
0.0
 13
1028.2965436007
 23
-193.60681222900001
 33
0.0
  0
ARC
  5
294
  8
0
 62
     0
 10
985.73273612240007
 20
-157.40696578129999
 30
0.0
 40
55.694313802099998
 50
225.0
 51
258.40769967360001
  0
ARC
  5
295
  8
0
 62
     0
 10
985.73273612240007
 20
-157.40696578129999
 30
0.0
 40
55.694313802099998
 50
281.59230032639999
 51
315.0
  0
LINE
  5
296
  8
0
 62
     0
 10
961.96300128270002
 20
-181.17670062100001
 30
0.0
 11
943.83117431970015
 21
-199.30852758399999
 31
0.0
  0
LINE
  5
297
  8
0
 62
     0
 10
1009.5024709621
 20
-181.17670062100001
 30
0.0
 11
1027.6342979251001
 21
-199.30852758399999
 31
0.0
  0
ENDBLK
  5
298
  8
0
  0
BLOCK
  8
0
  2
*D37
 70
     1
 10
0.0
 20
0.0
 30
0.0
  3
*D37
  1

  0
TEXT
  5
29C
  8
0
 62
     0
 10
980.44106961470004
 20
-105.9373674971
 30
0.0
 40
5.9972220420999998
  1
90%%d
 50
360.0
  0
ARC
  5
29D
  8
0
 62
     0
 10
985.73273612240007
 20
-177.40696578129999
 30
0.0
 40
68.294598379600004
 50
128.70818245140001
 51
135.0
  0
ARC
  5
29E
  8
0
 62
     0
 10
985.73273612240007
 20
-177.40696578129999
 30
0.0
 40
68.294598379600004
 50
45.0
 51
51.291817548599987
  0
SOLID
  5
29F
  8
0
 62
     0
 10
1034.0243097550001
 20
-129.11539214870001
 30
0.0
 11
1039.3276106139001
 21
-132.29737266399999
 31
0.0
 12
1037.2062902703999
 22
-134.41869300760001
 32
0.0
 13
1037.2062902703999
 23
-132.29737266399999
 33
0.0
  0
SOLID
  5
2A0
  8
0
 62
     0
 10
937.44116248969999
 20
-129.11539214870001
 30
0.0
 11
934.25918197439989
 21
-134.41869300760001
 31
0.0
 12
932.13786163079988
 22
-132.29737266399999
 32
0.0
 13
934.25918197439989
 23
-132.29737266399999
 33
0.0
  0
ARC
  5
2A1
  8
0
 62
     0
 10
985.73273612240007
 20
-177.40696578129999
 30
0.0
 40
68.294598379600004
 50
45.0
 51
82.488155942700004
  0
ARC
  5
2A2
  8
0
 62
     0
 10
985.73273612240007
 20
-177.40696578129999
 30
0.0
 40
68.294598379600004
 50
97.51184405730001
 51
135.0
  0
LINE
  5
2A3
  8
0
 62
     0
 10
1009.5024709621
 20
-153.6372309416
 30
0.0
 11
1036.5440445946999
 21
-126.595657309
 31
0.0
  0
LINE
  5
2A4
  8
0
 62
     0
 10
961.96300128270002
 20
-153.6372309416
 30
0.0
 11
934.92142765000006
 21
-126.595657309
 31
0.0
  0
ENDBLK
  5
2A5
  8
0
  0
BLOCK
  8
0
  2
*D38
 70
     1
 10
0.0
 20
0.0
 30
0.0
  3
*D38
  1

  0
TEXT
  5
2A9
  8
0
 62
     0
 10
679.05716653579987
 20
-204.29280455489999
 30
0.0
 40
5.9972220420999998
  1
90%%d
 50
316.19388071269998
  0
ARC
  5
2AA
  8
0
 62
     0
 10
634.90272310160003
 20
-257.97127354819997
 30
0.0
 40
66.128615975200006
 50
83.475167169499997
 51
90.0
  0
ARC
  5
2AB
  8
0
 62
     0
 10
634.90272310160003
 20
-257.97127354819997
 30
0.0
 40
66.128615975200006
 50
0.0
 51
6.5248328304999994
  0
SOLID
  5
2AC
  8
0
 62
     0
 10
701.03133907669996
 20
-257.97127354819997
 30
0.0
 11
702.53133907669985
 21
-263.97127354819997
 31
0.0
 12
699.53133907669985
 22
-263.97127354819997
 32
0.0
 13
701.03133907669996
 23
-262.47127354819997
 33
0.0
  0
SOLID
  5
2AD
  8
0
 62
     0
 10
634.90272310160003
 20
-191.842657573
 30
0.0
 11
628.90272310160003
 21
-193.342657573
 31
0.0
 12
628.90272310160003
 22
-190.342657573
 32
0.0
 13
630.40272310160003
 23
-191.842657573
 33
0.0
  0
ARC
  5
2AE
  8
0
 62
     0
 10
634.90272310160003
 20
-257.97127354819997
 30
0.0
 40
66.128615975200006
 50
0.0
 51
38.43364299400001
  0
ARC
  5
2AF
  8
0
 62
     0
 10
634.90272310160003
 20
-257.97127354819997
 30
0.0
 40
66.128615975200006
 50
53.954118431600008
 51
90.0
  0
LINE
  5
2B0
  8
0
 62
     0
 10
806.83927991770008
 20
-257.97127354819997
 30
0.0
 11
697.46789589280002
 21
-257.97127354819997
 31
0.0
  0
LINE
  5
2B1
  8
0
 62
     0
 10
634.90272310160003
 20
-86.034716732099994
 30
0.0
 11
634.90272310160003
 21
-195.40610075689989
 31
0.0
  0
ENDBLK
  5
2B2
  8
0
  0
BLOCK
  8
0
  2
*D39
 70
     1
 10
0.0
 20
0.0
 30
0.0
  3
*D39
  1

  0
TEXT
  5
2B6
  8
0
 62
     0
 10
681.07502537940002
 20
-339.85526866790002
 30
0.0
 40
5.9972220420999998
  1
11
 50
90.0
  0
LINE
  5
2B7
  8
0
 62
     0
 10
667.40272310160003
 20
-341.82749099609998
 30
0.0
 11
683.633358681
 21
-341.82749099609998
 31
0.0
  0
LINE
  5
2B8
  8
0
 62
     0
 10
672.0989511288999
 20
-330.82749099609998
 30
0.0
 11
683.633358681
 21
-330.82749099609998
 31
0.0
  0
LINE
  5
2B9
  8
0
 62
     0
 10
683.133358681
 20
-341.82749099609998
 30
0.0
 11
683.133358681
 21
-341.82749099609998
 31
0.0
  0
LINE
  5
2BA
  8
0
 62
     0
 10
683.133358681
 20
-341.82749099609998
 30
0.0
 11
683.133358681
 21
-330.82749099609998
 31
0.0
  0
LINE
  5
2BB
  8
0
 62
     0
 10
683.133358681
 20
-330.82749099609998
 30
0.0
 11
683.133358681
 21
-341.82749099609998
 31
0.0
  0
LINE
  5
2BC
  8
0
 62
     0
 10
683.133358681
 20
-330.82749099609998
 30
0.0
 11
683.133358681
 21
-330.82749099609998
 31
0.0
  0
LINE
  5
2BD
  8
0
 62
     0
 10
683.133358681
 20
-330.82749099609998
 30
0.0
 11
683.133358681
 21
-327.82749099609998
 31
0.0
  0
SOLID
  5
2BE
  8
0
 62
     0
 10
683.133358681
 20
-330.82749099609998
 30
0.0
 11
681.63335868099989
 21
-324.82749099609998
 31
0.0
 12
684.633358681
 22
-324.82749099609998
 32
0.0
 13
683.133358681
 23
-326.32749099609998
 33
0.0
  0
LINE
  5
2BF
  8
0
 62
     0
 10
683.133358681
 20
-341.82749099609998
 30
0.0
 11
683.133358681
 21
-344.82749099609998
 31
0.0
  0
SOLID
  5
2C0
  8
0
 62
     0
 10
683.133358681
 20
-341.82749099609998
 30
0.0
 11
684.633358681
 21
-347.82749099609998
 31
0.0
 12
681.63335868099989
 22
-347.82749099609998
 32
0.0
 13
683.133358681
 23
-346.32749099609998
 33
0.0
  0
ENDBLK
  5
2C1
  8
0
  0
BLOCK
  8
0
  2
*D40
 70
     1
 10
0.0
 20
0.0
 30
0.0
  3
*D40
  1

  0
TEXT
  5
2C5
  8
0
 62
     0
 10
609.56916193539985
 20
-350.35526866790002
 30
0.0
 40
5.9972220420999998
  1
32
 50
90.0
  0
LINE
  5
2C6
  8
0
 62
     0
 10
629.40272310160003
 20
-330.82749099609998
 30
0.0
 11
611.12749523699995
 21
-330.82749099609998
 31
0.0
  0
LINE
  5
2C7
  8
0
 62
     0
 10
629.40272310160003
 20
-362.82749099609998
 30
0.0
 11
611.12749523699995
 21
-362.82749099609998
 31
0.0
  0
LINE
  5
2C8
  8
0
 62
     0
 10
611.62749523699995
 20
-330.82749099609998
 30
0.0
 11
611.62749523699995
 21
-339.77193565250002
 31
0.0
  0
LINE
  5
2C9
  8
0
 62
     0
 10
611.62749523699995
 20
-330.82749099609998
 30
0.0
 11
611.62749523699995
 21
-353.8830463397
 31
0.0
  0
LINE
  5
2CA
  8
0
 62
     0
 10
611.62749523699995
 20
-362.82749099609998
 30
0.0
 11
611.62749523699995
 21
-339.77193565250002
 31
0.0
  0
LINE
  5
2CB
  8
0
 62
     0
 10
611.62749523699995
 20
-362.82749099609998
 30
0.0
 11
611.62749523699995
 21
-353.8830463397
 31
0.0
  0
LINE
  5
2CC
  8
0
 62
     0
 10
611.62749523699995
 20
-362.82749099609998
 30
0.0
 11
611.62749523699995
 21
-359.82749099609998
 31
0.0
  0
SOLID
  5
2CD
  8
0
 62
     0
 10
611.62749523699995
 20
-362.82749099609998
 30
0.0
 11
610.12749523699995
 21
-356.82749099609998
 31
0.0
 12
613.12749523699995
 22
-356.82749099609998
 32
0.0
 13
611.62749523699995
 23
-358.32749099609998
 33
0.0
  0
LINE
  5
2CE
  8
0
 62
     0
 10
611.62749523699995
 20
-330.82749099609998
 30
0.0
 11
611.62749523699995
 21
-333.82749099609998
 31
0.0
  0
SOLID
  5
2CF
  8
0
 62
     0
 10
611.62749523699995
 20
-330.82749099609998
 30
0.0
 11
613.12749523699995
 21
-336.82749099609998
 31
0.0
 12
610.12749523699995
 22
-336.82749099609998
 32
0.0
 13
611.62749523699995
 23
-335.32749099609998
 33
0.0
  0
ENDBLK
  5
2D0
  8
0
  0
BLOCK
  8
0
  2
*D41
 70
     1
 10
0.0
 20
0.0
 30
0.0
  3
*D41
  1

  0
TEXT
  5
2D4
  8
0
 62
     0
 10
641.87494542970001
 20
-310.9519408214
 30
0.0
 40
5.9972220420999998
  1
30
  0
LINE
  5
2D5
  8
0
 62
     0
 10
660.40272310160003
 20
-334.82749099609998
 30
0.0
 11
660.40272310160003
 21
-312.5102741229
 31
0.0
  0
LINE
  5
2D6
  8
0
 62
     0
 10
630.40272310160003
 20
-329.82749099609998
 30
0.0
 11
630.40272310160003
 21
-312.5102741229
 31
0.0
  0
LINE
  5
2D7
  8
0
 62
     0
 10
660.40272310160003
 20
-313.0102741229
 30
0.0
 11
652.45827844519988
 21
-313.0102741229
 31
0.0
  0
LINE
  5
2D8
  8
0
 62
     0
 10
660.40272310160003
 20
-313.0102741229
 30
0.0
 11
638.34716775790002
 21
-313.0102741229
 31
0.0
  0
LINE
  5
2D9
  8
0
 62
     0
 10
630.40272310160003
 20
-313.0102741229
 30
0.0
 11
652.45827844519988
 21
-313.0102741229
 31
0.0
  0
LINE
  5
2DA
  8
0
 62
     0
 10
630.40272310160003
 20
-313.0102741229
 30
0.0
 11
638.34716775790002
 21
-313.0102741229
 31
0.0
  0
LINE
  5
2DB
  8
0
 62
     0
 10
630.40272310160003
 20
-313.0102741229
 30
0.0
 11
633.40272310160003
 21
-313.0102741229
 31
0.0
  0
SOLID
  5
2DC
  8
0
 62
     0
 10
630.40272310160003
 20
-313.0102741229
 30
0.0
 11
636.40272310160003
 21
-311.5102741229
 31
0.0
 12
636.40272310160003
 22
-314.5102741229
 32
0.0
 13
634.90272310160003
 23
-313.0102741229
 33
0.0
  0
LINE
  5
2DD
  8
0
 62
     0
 10
660.40272310160003
 20
-313.0102741229
 30
0.0
 11
657.40272310160003
 21
-313.0102741229
 31
0.0
  0
SOLID
  5
2DE
  8
0
 62
     0
 10
660.40272310160003
 20
-313.0102741229
 30
0.0
 11
654.40272310160003
 21
-314.5102741229
 31
0.0
 12
654.40272310160003
 22
-311.5102741229
 32
0.0
 13
655.90272310160003
 23
-313.0102741229
 33
0.0
  0
ENDBLK
  5
2DF
  8
0
  0
BLOCK
  8
0
  2
*D42
 70
     1
 10
0.0
 20
0.0
 30
0.0
  3
*D42
  1

  0
TEXT
  5
2E3
  8
0
 62
     0
 10
760.37494542970001
 20
-311.143541621
 30
0.0
 40
5.9972220420999998
  1
69
  0
LINE
  5
2E4
  8
0
 62
     0
 10
798.40272310160003
 20
-339.82749099609998
 30
0.0
 11
798.40272310160003
 21
-312.7018749225
 31
0.0
  0
LINE
  5
2E5
  8
0
 62
     0
 10
729.40272310160003
 20
-344.82749099609998
 30
0.0
 11
729.40272310160003
 21
-312.7018749225
 31
0.0
  0
LINE
  5
2E6
  8
0
 62
     0
 10
798.40272310160003
 20
-313.2018749225
 30
0.0
 11
770.95827844519999
 21
-313.2018749225
 31
0.0
  0
LINE
  5
2E7
  8
0
 62
     0
 10
798.40272310160003
 20
-313.2018749225
 30
0.0
 11
756.8471677578998
 21
-313.2018749225
 31
0.0
  0
LINE
  5
2E8
  8
0
 62
     0
 10
729.40272310160003
 20
-313.2018749225
 30
0.0
 11
770.95827844519999
 21
-313.2018749225
 31
0.0
  0
LINE
  5
2E9
  8
0
 62
     0
 10
729.40272310160003
 20
-313.2018749225
 30
0.0
 11
756.8471677578998
 21
-313.2018749225
 31
0.0
  0
LINE
  5
2EA
  8
0
 62
     0
 10
729.40272310160003
 20
-313.2018749225
 30
0.0
 11
732.40272310160003
 21
-313.2018749225
 31
0.0
  0
SOLID
  5
2EB
  8
0
 62
     0
 10
729.40272310160003
 20
-313.2018749225
 30
0.0
 11
735.40272310160003
 21
-311.7018749225
 31
0.0
 12
735.40272310160003
 22
-314.7018749225
 32
0.0
 13
733.90272310160003
 23
-313.2018749225
 33
0.0
  0
LINE
  5
2EC
  8
0
 62
     0
 10
798.40272310160003
 20
-313.2018749225
 30
0.0
 11
795.40272310160003
 21
-313.2018749225
 31
0.0
  0
SOLID
  5
2ED
  8
0
 62
     0
 10
798.40272310160003
 20
-313.2018749225
 30
0.0
 11
792.40272310160003
 21
-314.7018749225
 31
0.0
 12
792.40272310160003
 22
-311.7018749225
 32
0.0
 13
793.90272310160003
 23
-313.2018749225
 33
0.0
  0
ENDBLK
  5
2EE
  8
0
  0
BLOCK
  8
0
  2
*U43
 70
     1
 10
0.0
 20
0.0
 30
0.0
  3
*U43
  1

  0
TEXT
  5
309
  8
┌▓È_1
  6
CONTINUOUS
 10
969.53722933579991
 20
-366.66473872193711
 30
0.0
 40
4.6749999999999989
  1
ü@îƒ ü@ê¾
  0
ENDBLK
  5
30B
  8
0
  0
BLOCK
  8
0
  2
*U44
 70
     1
 10
0.0
 20
0.0
 30
0.0
  3
*U44
  1

  0
TEXT
  5
30D
  8
┌▓È_1
  6
CONTINUOUS
 10
937.53722933579991
 20
-383.64100775747011
 30
0.0
 40
4.6749999999999989
  1
ü@Ä┌ ü@ôx
  0
ENDBLK
  5
30F
  8
0
  0
BLOCK
  8
0
  2
*U45
 70
     1
 10
0.0
 20
0.0
 30
0.0
  3
*U45
  1

  0
TEXT
  5
311
  8
┌▓È_1
  6
CONTINUOUS
 10
937.53722933579991
 20
-366.66473872193711
 30
0.0
 40
4.6749999999999989
  1
ü@ö┬ ü@î·
  0
ENDBLK
  5
313
  8
0
  0
BLOCK
  8
0
  2
*U46
 70
     1
 10
0.0
 20
0.0
 30
0.0
  3
*U46
  1

  0
TEXT
  5
315
  8
┌▓È_1
  6
CONTINUOUS
 10
905.53722933580013
 20
-366.56981486406897
 30
0.0
 40
4.6749999999999989
  1
ü@ìÌ ü@Ä┐
  0
ENDBLK
  5
317
  8
0
  0
BLOCK
  8
0
  2
*U47
 70
     1
 10
0.0
 20
0.0
 30
0.0
  3
*U47
  1

  0
TEXT
  5
319
  8
┌▓È_1
  6
CONTINUOUS
 62
     5
 10
946.40081050517824
 20
-391.90369811279999
 30
0.0
 40
4.6749999999999989
  1
1üF2
  0
ENDBLK
  5
31B
  8
0
  0
BLOCK
  8
0
  2
*U48
 70
     1
 10
0.0
 20
0.0
 30
0.0
  3
*U48
  1

  0
TEXT
  5
31D
  8
┌▓È_1
  6
CONTINUOUS
 62
     5
 10
946.61438918538124
 20
-374.90369811279999
 30
0.0
 40
4.6749999999999989
  1
4.5t
  0
ENDBLK
  5
31F
  8
0
  0
BLOCK
  8
0
  2
*U49
 70
     1
 10
0.0
 20
0.0
 30
0.0
  3
*U49
  1

  0
TEXT
  5
321
  8
┌▓È_1
  6
CONTINUOUS
 62
     5
 10
917.80620390619345
 20
-375.18846968640412
 30
0.0
 40
4.6749999999999989
  1
ôS
  0
ENDBLK
  5
323
  8
0
  0
BLOCK
  8
0
  2
*U50
 70
     1
 10
0.0
 20
0.0
 30
0.0
  3
*U50
  1

  0
TEXT
  5
325
  8
┌▓È_1
  6
CONTINUOUS
 62
     5
 10
880.97695263715798
 20
-374.90369811279999
 30
0.0
 40
4.6749999999999989
  1
H16.4
  0
ENDBLK
  5
327
  8
0
  0
BLOCK
  8
0
  2
*U51
 70
     1
 10
0.0
 20
0.0
 30
0.0
  3
*U51
  1

  0
TEXT
  5
329
  8
┌▓È_1
  6
CONTINUOUS
 10
1002.3874566207
 20
-400.51201763460199
 30
0.0
 40
4.6749999999999989
  1
É}öÈ
  0
ENDBLK
  5
32B
  8
0
  0
BLOCK
  8
0
  2
*U52
 70
     1
 10
0.0
 20
0.0
 30
0.0
  3
*U52
  1

  0
TEXT
  5
32D
  8
┌▓È_1
  6
CONTINUOUS
 10
1002.3874566207
 20
-383.55947956353612
 30
0.0
 40
4.6749999999999989
  1
òiû╝
  0
ENDBLK
  5
32F
  8
0
  0
BLOCK
  8
0
  2
*U53
 70
     1
 10
0.0
 20
0.0
 30
0.0
  3
*U53
  1

  0
TEXT
  5
331
  8
┌▓È_1
  6
CONTINUOUS
 10
1002.3874566207
 20
-366.51201763460199
 30
0.0
 40
4.6749999999999989
  1
î^öÈ
  0
ENDBLK
  5
333
  8
0
  0
BLOCK
  8
0
  2
*U54
 70
     1
 10
0.0
 20
0.0
 30
0.0
  3
*U54
  1

  0
TEXT
  5
335
  8
┌▓È_1
  6
CONTINUOUS
 10
873.53722933580002
 20
-366.49862197066801
 30
0.0
 40
4.6749999999999989
  1
ü@ô· ü@òt
  0
ENDBLK
  5
337
  8
0
  0
BLOCK
  8
0
  2
*U55
 70
     1
 10
0.0
 20
0.0
 30
0.0
  3
*U55
  1

  0
TEXT
  5
339
  8
┌▓È_1
  6
CONTINUOUS
 10
872.60645771329996
 20
-392.18846968640401
 30
0.0
 40
4.6749999999999989
  1
 É╗É}ü@ü@ è¦û{
  0
ENDBLK
  5
33B
  8
0
  0
BLOCK
  8
0
  2
*U56
 70
     1
 10
0.0
 20
0.0
 30
0.0
  3
*U56
  1

  0
TEXT
  5
33D
  8
┌▓È_1
  6
CONTINUOUS
 10
872.60645771329996
 20
-383.664738721937
 30
0.0
 40
4.6749999999999989
  1
 É¦îvü@ü@öÆÉ{ëÛ
  0
ENDBLK
  5
33F
  8
0
  0
BLOCK
  8
0
  2
*U57
 70
     1
 10
0.0
 20
0.0
 30
0.0
  3
*U57
  1

  0
TEXT
  5
341
  8
┌▓È_1
  6
CONTINUOUS
 10
887.04756516289979
 20
-406.8225110258274
 30
0.0
 40
8.6359998702999992
  1
èöÄ«ë´Äð
  0
ENDBLK
  5
343
  8
0
  0
BLOCK
  8
0
  2
*U58
 70
     1
 10
0.0
 20
0.0
 30
0.0
  3
*U58
  1

  0
TEXT
  5
345
  8
┌▓È_1
  6
CONTINUOUS
 10
872.60645771329996
 20
-357.47524269255791
 30
0.0
 40
7.1966662884000003
  1
ò\û╩ÅêùØüFâåâjâNâìâüâbâLÄdÅÒé░
  0
ENDBLK
  5
347
  8
0
  0
BLOCK
  8
0
  2
*U59
 70
     1
 10
0.0
 20
0.0
 30
0.0
  3
*U59
  1

  0
TEXT
  5
349
  8
┌▓È_1
  6
CONTINUOUS
 10
1026.315175662367
 20
-371.93925059930001
 30
0.0
 40
7.1966662884000003
  1
LY-201  180x180
  0
ENDBLK
  5
34B
  8
0
  0
BLOCK
  8
0
  2
*U60
 70
     1
 10
0.0
 20
0.0
 30
0.0
  3
*U60
  1

  0
TEXT
  5
34D
  8
┌▓È_1
  6
CONTINUOUS
 10
1031.4167542491
 20
-389.93561611932688
 30
0.0
 40
7.1966662884000003
  1
ékî^âAâôâOâï
  0
ENDBLK
  5
34F
  8
0
  0
BLOCK
  8
0
  2
*U61
 70
     1
 10
0.0
 20
0.0
 30
0.0
  3
*U61
  1

  0
TEXT
  5
351
  8
┌▓È_1
  6
CONTINUOUS
 10
962.84928782422526
 20
-233.64482359212741
 30
0.0
 40
5.9972220420999998
  1
ÄMâéâ~òöègæÕÉ}
  0
ENDBLK
  5
353
  8
0
  0
BLOCK
  8
0
  2
*D62
 70
     1
 10
0.0
 20
0.0
 30
0.0
  3
*D62
  1

  0
LINE
  5
356
  8
Éíû@É³
 62
     0
 10
963.90821186267578
 20
-179.23149004102419
 30
0.0
 11
945.46702568292028
 21
-197.67267622077949
 31
0.0
  0
LINE
  5
357
  8
Éíû@É³
 62
     0
 10
1007.557260382124
 20
-179.23149004102419
 30
0.0
 11
1025.99844656188
 21
-197.67267622077961
 31
0.0
  0
ARC
  5
358
  8
Éíû@É³
 62
     0
 10
985.73273612240007
 20
-157.40696578129999
 30
0.0
 40
55.694313802100019
 50
231.1755162072281
 51
260.50670304073122
  0
ARC
  5
359
  8
Éíû@É³
 62
     0
 10
985.73273612240007
 20
-157.40696578129999
 30
0.0
 40
55.694313802100019
 50
279.49329695926878
 51
308.82448379277167
  0
SOLID
  5
35A
  8
Éíû@É³
 62
     0
 10
950.14793062376157
 20
-201.54091100873421
 30
0.0
 11
951.48391376550569
 21
-200.05257333032409
 31
0.0
 12
946.3509091594035
 22
-196.78879274429639
 32
0.0
 13
946.3509091594035
 23
-196.78879274429639
 33
0.0
  0
SOLID
  5
35B
  8
Éíû@É³
 62
     0
 10
1019.981558479294
 20
-200.05257333032429
 30
0.0
 11
1021.317541621038
 21
-201.5409110087343
 31
0.0
 12
1025.114563085396
 22
-196.7887927442965
 32
0.0
 13
1025.114563085396
 23
-196.7887927442965
 33
0.0
  0
TEXT
  8
Éíû@É³
  40
5.99722
  5
37F
  62
0
  72
0
  71
0
 10
973.738
 20
-223.716
 30
0.000000
  1
90üï
  0
POINT
  5
35D
  8
Defpoints
 62
     0
 10
985.73273612240007
 20
-157.40696578129999
 30
0.0
  0
POINT
  5
35E
  8
Defpoints
 62
     0
 10
963.95240603649995
 20
-179.18729586719999
 30
0.0
  0
POINT
  5
35F
  8
Defpoints
 62
     0
 10
1007.5130662083
 20
-179.18729586719999
 30
0.0
  0
POINT
  5
360
  8
Defpoints
 62
     0
 10
971.31798700650029
 20
-211.20354186019611
 30
0.0
  0
ENDBLK
  5
362
  8
0
  0
BLOCK
  8
0
  2
*D63
 70
     1
 10
0.0
 20
0.0
 30
0.0
  3
*D63
  1

  0
LINE
  5
364
  8
Éíû@É³
 62
     0
 10
1007.557260382124
 20
-155.58244152157579
 30
0.0
 11
1034.90819323151
 21
-128.2315086721899
 31
0.0
  0
LINE
  5
365
  8
Éíû@É³
 62
     0
 10
963.90821186267578
 20
-155.58244152157579
 30
0.0
 11
936.55727901328976
 21
-128.23150867218999
 31
0.0
  0
ARC
  5
366
  8
Éíû@É³
 62
     0
 10
985.73273612240007
 20
-177.40696578129999
 30
0.0
 40
68.294598379600004
 50
50.035322557326111
 51
82.270153444333957
  0
ARC
  5
367
  8
Éíû@É³
 62
     0
 10
985.73273612240007
 20
-177.40696578129999
 30
0.0
 40
68.294598379600004
 50
97.729846555666015
 51
129.964677442674
  0
SOLID
  5
368
  8
Éíû@É³
 62
     0
 10
1030.2747593621971
 20
-124.32572912799731
 30
0.0
 11
1028.924033538887
 21
-125.80070022949219
 31
0.0
 12
1034.0243097550269
 22
-129.11539214867301
 32
0.0
 13
1034.0243097550269
 23
-129.11539214867301
 33
0.0
  0
SOLID
  5
369
  8
Éíû@É³
 62
     0
 10
942.54143870591236
 20
-125.80070022949231
 30
0.0
 11
941.19071288260295
 21
-124.32572912799741
 31
0.0
 12
937.44116248977298
 22
-129.1153921486731
 32
0.0
 13
937.44116248977298
 23
-129.1153921486731
 33
0.0
  0
TEXT
  8
Éíû@É³
  40
5.99722
  5
380
  62
0
  72
0
  71
0
 10
973.738
 20
-119.727
 30
0.000000
  1
90üï
  0
POINT
  5
36B
  8
Defpoints
 62
     0
 10
985.73273612240007
 20
-177.40696578129999
 30
0.0
  0
POINT
  5
36C
  8
Defpoints
 62
     0
 10
1007.5130662083
 20
-155.62663569540001
 30
0.0
  0
POINT
  5
36D
  8
Defpoints
 62
     0
 10
963.95240603649995
 20
-155.62663569540001
 30
0.0
  0
POINT
  5
36E
  8
Defpoints
 62
     0
 10
1003.408678860668
 20
-111.43944941040481
 30
0.0
  0
ENDBLK
  5
370
  8
0
  0
BLOCK
  8
0
  2
*D64
 70
     1
 10
0.0
 20
0.0
 30
0.0
  3
*D64
  1

  0
LINE
  5
372
  8
Éíû@É³
 62
     0
 10
810.3402231015998
 20
-257.97127354819997
 30
0.0
 11
699.78133907677784
 21
-257.97127354819997
 31
0.0
  0
LINE
  5
373
  8
Éíû@É³
 62
     0
 10
634.90272310160003
 20
-82.533773548200031
 30
0.0
 11
634.90272310160003
 21
-193.09265757302211
 31
0.0
  0
ARC
  5
374
  8
Éíû@É³
 62
     0
 10
634.90272310160003
 20
-257.97127354819997
 30
0.0
 40
66.128615975177851
 50
5.2003614626836834
 51
38.209225008625033
  0
ARC
  5
375
  8
Éíû@É³
 62
     0
 10
634.90272310160003
 20
-257.97127354819997
 30
0.0
 40
66.128615975177851
 50
54.178536416942542
 51
84.799638537316326
  0
SOLID
  5
376
  8
Éíû@É³
 62
     0
 10
701.75811266803964
 20
-251.9320848487931
 30
0.0
 11
699.76017181465022
 21
-252.0228171272706
 31
0.0
 12
701.03133907677784
 22
-257.97127354819997
 32
0.0
 13
701.03133907677784
 23
-257.97127354819997
 33
0.0
  0
SOLID
  5
377
  8
Éíû@É³
 62
     0
 10
640.85117952252915
 20
-193.1138248351497
 30
0.0
 11
640.94191180100688
 21
-191.11588398176031
 31
0.0
 12
634.90272310160003
 22
-191.84265757302211
 32
0.0
 13
634.90272310160003
 23
-191.84265757302211
 33
0.0
  0
TEXT
  8
Éíû@É³
  40
5.99722
  5
381
  62
0
  72
0
  71
0
 10
668.684
 20
-220.862
 30
0.000000
  1
90üï
  0
POINT
  5
379
  8
Defpoints
 62
     0
 10
634.90272310160003
 20
-257.97127354819997
 30
0.0
  0
POINT
  5
37A
  8
Defpoints
 62
     0
 10
810.40272310159992
 20
-257.97127354819997
 30
0.0
  0
POINT
  5
37B
  8
Defpoints
 62
     0
 10
634.90272310160003
 20
-82.471273548200031
 30
0.0
  0
POINT
  5
37C
  8
Defpoints
 62
     0
 10
692.17178445320951
 20
-224.9069655606111
 30
0.0
  0
ENDBLK
  5
37E
  8
0
  0
ENDSEC
  0
SECTION
  2
ENTITIES
  0
INSERT
  5
30
  8
┌▓È_1
  6
BORDER
  2
CLUMP0
 10
0.0
 20
0.0
 30
0.0
  0
INSERT
  5
3D
  8
┌▓È_1
  6
BORDER
  2
CLUMP1
 10
0.0
 20
0.0
 30
0.0
  0
LINE
  5
44
  8
┌▓È_1
 62
     5
 10
634.90272310160003
 20
-82.471273548199989
 30
0.0
 11
630.40272310160003
 21
-82.471273548199989
 31
0.0
  0
LINE
  5
45
  8
┌▓È_1
  6
BORDER
 62
     3
 10
640.73050087930005
 20
-94.471273548200003
 30
0.0
 11
623.36105643489998
 21
-94.471273548200003
 31
0.0
  0
LINE
  5
46
  8
┌▓È_1
 62
     5
 10
871.35835143309998
 20
-257.97127354819997
 30
0.0
 11
903.35835143309987
 21
-257.97127354819997
 31
0.0
  0
INSERT
  5
48
  8
┌▓È_1
  6
BORDER
  2
CLUMP2
 10
0.0
 20
0.0
 30
0.0
  0
LINE
  5
4F
  8
┌▓È_1
  6
STITCH
 10
634.90272310160003
 20
-330.82749099609998
 30
0.0
 11
634.90272310160003
 21
-362.82749099609998
 31
0.0
  0
LINE
  5
50
  8
┌▓È_1
 62
     5
 10
630.40272310160003
 20
-330.82749099609998
 30
0.0
 11
630.40272310160003
 21
-362.82749099609998
 31
0.0
  0
INSERT
  5
52
  8
┌▓È_1
  6
BORDER
  2
CLUMP3
 10
0.0
 20
0.0
 30
0.0
  0
ARC
  5
5E
  8
┌▓È_1
 62
     5
 10
634.90272310160003
 20
-257.97127354819997
 30
0.0
 40
4.5
 50
180.0
 51
270.0
  0
INSERT
  5
60
  8
┌▓È_1
  6
BORDER
  2
CLUMP4
 10
0.0
 20
0.0
 30
0.0
  0
DIMENSION
  5
80
  8
Éíû@É³
  2
*D6
 10
903.35835143309987
 20
-49.476172623300002
 30
0.0
 11
887.16626455269989
 21
-49.476172623300002
 31
0.0
 70
   128
  1
<>
 13
903.35835143309987
 23
-82.471273548199989
 33
0.0
 14
871.35835143309998
 24
-82.471273548199989
 34
0.0
  0
LINE
  5
81
  8
┌▓È_1
  6
STITCH
 10
632.15272310160003
 20
-96.971273548200003
 30
0.0
 11
630.40272310160003
 21
-98.721273548200017
 31
0.0
  0
INSERT
  5
83
  8
┌▓È_1
  6
BORDER
  2
CLUMP6
 10
0.0
 20
0.0
 30
0.0
  0
LINE
  5
8A
  8
┌▓È_1
  6
STITCH
 10
632.15272310160003
 20
-91.971273548200003
 30
0.0
 11
630.40272310160003
 21
-90.221273548200003
 31
0.0
  0
LINE
  5
8B
  8
┌▓È_1
  6
STITCH
 10
633.15272310160003
 20
-91.971273548200003
 30
0.0
 11
634.90272310160003
 21
-90.221273548200003
 31
0.0
  0
LINE
  5
8C
  8
┌▓È_1
  6
STITCH
 10
632.15272310160003
 20
-96.971273548200003
 30
0.0
 11
632.15272310160003
 21
-91.971273548200003
 31
0.0
  0
LINE
  5
8D
  8
┌▓È_1
  6
STITCH
 10
633.15272310160003
 20
-91.971273548200003
 30
0.0
 11
633.15272310160003
 21
-96.971273548200003
 31
0.0
  0
LINE
  5
8E
  8
┌▓È_1
  6
STITCH
 10
632.15272310160003
 20
-91.971273548200003
 30
0.0
 11
633.15272310160003
 21
-91.971273548200003
 31
0.0
  0
LINE
  5
8F
  8
┌▓È_1
  6
STITCH
 10
633.15272310160003
 20
-96.971273548200003
 30
0.0
 11
632.15272310160003
 21
-96.971273548200003
 31
0.0
  0
LINE
  5
90
  8
┌▓È_1
 62
     5
 10
634.90272310160003
 20
-257.97127354819997
 30
0.0
 11
634.90272310160003
 21
-82.471273548199989
 31
0.0
  0
LINE
  5
91
  8
┌▓È_1
 62
     5
 10
630.40272310160003
 20
-257.97127354819997
 30
0.0
 11
630.40272310160003
 21
-82.471273548199989
 31
0.0
  0
LINE
  5
92
  8
┌▓È_1
 62
     5
 10
871.35835143309998
 20
-262.47127354819997
 30
0.0
 11
903.35835143309987
 21
-262.47127354819997
 31
0.0
  0
INSERT
  5
94
  8
┌▓È_1
  6
BORDER
  2
CLUMP7
 10
0.0
 20
0.0
 30
0.0
  0
LINE
  5
9B
  8
┌▓È_1
  6
BORDER
 62
     3
 10
985.73273612240007
 20
-150.6402444272
 30
0.0
 11
985.73273612240007
 21
-186.1402444272
 31
0.0
  0
LINE
  5
9C
  8
┌▓È_1
 62
     5
 10
964.48273612240007
 20
-156.15696578129999
 30
0.0
 11
973.23273612240007
 21
-164.90696578129999
 31
0.0
  0
LINE
  5
9D
  8
┌▓È_1
 62
     5
 10
998.23273612240007
 20
-164.90696578129999
 30
0.0
 11
1006.9827361224
 21
-156.15696578129999
 31
0.0
  0
LINE
  5
9E
  8
┌▓È_1
 62
     5
 10
998.23273612240007
 20
-164.90696578129999
 30
0.0
 11
998.23273612240007
 21
-169.90696578129999
 31
0.0
  0
LINE
  5
9F
  8
┌▓È_1
 62
     5
 10
973.23273612240007
 20
-164.90696578129999
 30
0.0
 11
973.23273612240007
 21
-169.90696578129999
 31
0.0
  0
LINE
  5
A0
  8
┌▓È_1
 62
     5
 10
973.23273612240007
 20
-169.90696578129999
 30
0.0
 11
964.48273612240007
 21
-178.65696578129999
 31
0.0
  0
LINE
  5
A1
  8
┌▓È_1
 62
     5
 10
998.23273612240007
 20
-169.90696578129999
 30
0.0
 11
1006.9827361224
 21
-178.65696578129999
 31
0.0
  0
LINE
  5
A2
  8
┌▓È_1
 62
     5
 10
973.23273612240007
 20
-164.90696578129999
 30
0.0
 11
998.23273612240007
 21
-164.90696578129999
 31
0.0
  0
LINE
  5
A3
  8
┌▓È_1
 62
     5
 10
973.23273612240007
 20
-169.90696578129999
 30
0.0
 11
998.23273612240007
 21
-169.90696578129999
 31
0.0
  0
LINE
  5
A4
  8
┌▓È_1
 62
     5
 10
949.80260649280001
 20
-178.65696578129999
 30
0.0
 11
1022.8012176039
 21
-178.65696578129999
 31
0.0
  0
LINE
  5
A5
  8
┌▓È_1
 62
     5
 10
949.80260649280001
 20
-156.15696578129999
 30
0.0
 11
1022.8012176039
 21
-156.15696578129999
 31
0.0
  0
INSERT
  5
A7
  8
┌▓È_1
  6
BORDER
  2
CLUMP8
 10
0.0
 20
0.0
 30
0.0
  0
INSERT
  5
B8
  8
┌▓È_1
  6
BORDER
  2
CLUMP10
 10
0.0
 20
0.0
 30
0.0
  0
LINE
  5
C8
  8
┌▓È_1
 62
     5
 10
965.25783014230001
 20
-400.77673097899998
 30
0.0
 11
964.35273346229997
 21
-401.68182765900002
 31
0.0
  0
LINE
  5
C9
  8
┌▓È_1
 62
     5
 10
958.8578301422998
 20
-401.29210740699989
 30
0.0
 11
958.8578301422998
 21
-400.77673097899998
 31
0.0
  0
LINE
  5
CA
  8
┌▓È_1
 62
     5
 10
939.15909434679986
 20
-400.2613545511
 30
0.0
 11
939.15909434679986
 21
-402.66135455109998
 31
0.0
  0
LINE
  5
CB
  8
┌▓È_1
 62
     5
 10
954.60086044529999
 20
-400.2613545511
 30
0.0
 11
954.60086044529999
 21
-402.66135455109998
 31
0.0
  0
LINE
  5
CC
  8
┌▓È_1
 62
     5
 10
983.52580237949985
 20
-409.06135455110001
 30
0.0
 11
988.00580237949987
 21
-409.06135455110001
 31
0.0
  0
LINE
  5
CD
  8
┌▓È_1
 62
     5
 10
973.25783014230001
 20
-405.86135455110002
 30
0.0
 11
973.25783014230001
 21
-408.2613545511
 31
0.0
  0
LINE
  5
CE
  8
┌▓È_1
 10
968.60645771329996
 20
-368.81763129810003
 30
0.0
 11
1000.6064577133
 21
-368.81763129810003
 31
0.0
  0
LINE
  5
CF
  8
┌▓È_1
 10
872.60645771329996
 20
-377.31763129810003
 30
0.0
 11
968.60645771329996
 21
-377.31763129810003
 31
0.0
  0
INSERT
  5
D0
  8
0
  6
CONTINUOUS
  2
*U43
 10
0.0
 20
0.0
 30
0.0
  0
POLYLINE
  8
┌▓È_1
  5
382
  62
5
  66
     1
 10
0.000000
 20
0.000000
 30
0.000000
  70
     8
  0
VERTEX
  8
┌▓È_1
  5
383
 10
969.553
 20
-405.099
 30
0.000000
  70
    32
  0
VERTEX
  8
┌▓È_1
  5
384
 10
969.581
 20
-405.107
 30
0.000000
  70
    32
  0
VERTEX
  8
┌▓È_1
  5
385
 10
969.609
 20
-405.115
 30
0.000000
  70
    32
  0
VERTEX
  8
┌▓È_1
  5
386
 10
969.637
 20
-405.123
 30
0.000000
  70
    32
  0
VERTEX
  8
┌▓È_1
  5
387
 10
969.665
 20
-405.130
 30
0.000000
  70
    32
  0
VERTEX
  8
┌▓È_1
  5
388
 10
969.693
 20
-405.138
 30
0.000000
  70
    32
  0
VERTEX
  8
┌▓È_1
  5
389
 10
969.721
 20
-405.146
 30
0.000000
  70
    32
  0
VERTEX
  8
┌▓È_1
  5
38A
 10
969.750
 20
-405.154
 30
0.000000
  70
    32
  0
VERTEX
  8
┌▓È_1
  5
38B
 10
969.778
 20
-405.161
 30
0.000000
  70
    32
  0
VERTEX
  8
┌▓È_1
  5
38C
 10
969.806
 20
-405.169
 30
0.000000
  70
    32
  0
VERTEX
  8
┌▓È_1
  5
38D
 10
969.834
 20
-405.176
 30
0.000000
  70
    32
  0
VERTEX
  8
┌▓È_1
  5
38E
 10
969.862
 20
-405.184
 30
0.000000
  70
    32
  0
VERTEX
  8
┌▓È_1
  5
38F
 10
969.891
 20
-405.191
 30
0.000000
  70
    32
  0
VERTEX
  8
┌▓È_1
  5
390
 10
969.919
 20
-405.199
 30
0.000000
  70
    32
  0
VERTEX
  8
┌▓È_1
  5
391
 10
969.947
 20
-405.206
 30
0.000000
  70
    32
  0
VERTEX
  8
┌▓È_1
  5
392
 10
969.976
 20
-405.213
 30
0.000000
  70
    32
  0
VERTEX
  8
┌▓È_1
  5
393
 10
970.004
 20
-405.221
 30
0.000000
  70
    32
  0
VERTEX
  8
┌▓È_1
  5
394
 10
970.032
 20
-405.228
 30
0.000000
  70
    32
  0
VERTEX
  8
┌▓È_1
  5
395
 10
970.061
 20
-405.235
 30
0.000000
  70
    32
  0
VERTEX
  8
┌▓È_1
  5
396
 10
970.089
 20
-405.242
 30
0.000000
  70
    32
  0
VERTEX
  8
┌▓È_1
  5
397
 10
970.118
 20
-405.249
 30
0.000000
  70
    32
  0
VERTEX
  8
┌▓È_1
  5
398
 10
970.146
 20
-405.256
 30
0.000000
  70
    32
  0
VERTEX
  8
┌▓È_1
  5
399
 10
970.175
 20
-405.263
 30
0.000000
  70
    32
  0
VERTEX
  8
┌▓È_1
  5
39A
 10
970.203
 20
-405.270
 30
0.000000
  70
    32
  0
VERTEX
  8
┌▓È_1
  5
39B
 10
970.232
 20
-405.277
 30
0.000000
  70
    32
  0
VERTEX
  8
┌▓È_1
  5
39C
 10
970.261
 20
-405.284
 30
0.000000
  70
    32
  0
VERTEX
  8
┌▓È_1
  5
39D
 10
970.289
 20
-405.291
 30
0.000000
  70
    32
  0
VERTEX
  8
┌▓È_1
  5
39E
 10
970.318
 20
-405.298
 30
0.000000
  70
    32
  0
VERTEX
  8
┌▓È_1
  5
39F
 10
970.346
 20
-405.305
 30
0.000000
  70
    32
  0
VERTEX
  8
┌▓È_1
  5
3A0
 10
970.375
 20
-405.312
 30
0.000000
  70
    32
  0
VERTEX
  8
┌▓È_1
  5
3A1
 10
970.404
 20
-405.318
 30
0.000000
  70
    32
  0
VERTEX
  8
┌▓È_1
  5
3A2
 10
970.433
 20
-405.325
 30
0.000000
  70
    32
  0
VERTEX
  8
┌▓È_1
  5
3A3
 10
970.461
 20
-405.332
 30
0.000000
  70
    32
  0
VERTEX
  8
┌▓È_1
  5
3A4
 10
970.490
 20
-405.338
 30
0.000000
  70
    32
  0
VERTEX
  8
┌▓È_1
  5
3A5
 10
970.519
 20
-405.345
 30
0.000000
  70
    32
  0
VERTEX
  8
┌▓È_1
  5
3A6
 10
970.548
 20
-405.352
 30
0.000000
  70
    32
  0
VERTEX
  8
┌▓È_1
  5
3A7
 10
970.577
 20
-405.358
 30
0.000000
  70
    32
  0
VERTEX
  8
┌▓È_1
  5
3A8
 10
970.605
 20
-405.365
 30
0.000000
  70
    32
  0
VERTEX
  8
┌▓È_1
  5
3A9
 10
970.634
 20
-405.371
 30
0.000000
  70
    32
  0
VERTEX
  8
┌▓È_1
  5
3AA
 10
970.663
 20
-405.378
 30
0.000000
  70
    32
  0
VERTEX
  8
┌▓È_1
  5
3AB
 10
970.692
 20
-405.384
 30
0.000000
  70
    32
  0
VERTEX
  8
┌▓È_1
  5
3AC
 10
970.721
 20
-405.390
 30
0.000000
  70
    32
  0
VERTEX
  8
┌▓È_1
  5
3AD
 10
970.750
 20
-405.397
 30
0.000000
  70
    32
  0
VERTEX
  8
┌▓È_1
  5
3AE
 10
970.779
 20
-405.403
 30
0.000000
  70
    32
  0
VERTEX
  8
┌▓È_1
  5
3AF
 10
970.808
 20
-405.409
 30
0.000000
  70
    32
  0
VERTEX
  8
┌▓È_1
  5
3B0
 10
970.837
 20
-405.416
 30
0.000000
  70
    32
  0
VERTEX
  8
┌▓È_1
  5
3B1
 10
970.866
 20
-405.422
 30
0.000000
  70
    32
  0
VERTEX
  8
┌▓È_1
  5
3B2
 10
970.895
 20
-405.428
 30
0.000000
  70
    32
  0
VERTEX
  8
┌▓È_1
  5
3B3
 10
970.924
 20
-405.434
 30
0.000000
  70
    32
  0
VERTEX
  8
┌▓È_1
  5
3B4
 10
970.953
 20
-405.440
 30
0.000000
  70
    32
  0
VERTEX
  8
┌▓È_1
  5
3B5
 10
970.982
 20
-405.447
 30
0.000000
  70
    32
  0
VERTEX
  8
┌▓È_1
  5
3B6
 10
971.011
 20
-405.453
 30
0.000000
  70
    32
  0
VERTEX
  8
┌▓È_1
  5
3B7
 10
971.041
 20
-405.459
 30
0.000000
  70
    32
  0
VERTEX
  8
┌▓È_1
  5
3B8
 10
971.070
 20
-405.465
 30
0.000000
  70
    32
  0
VERTEX
  8
┌▓È_1
  5
3B9
 10
971.099
 20
-405.471
 30
0.000000
  70
    32
  0
VERTEX
  8
┌▓È_1
  5
3BA
 10
971.128
 20
-405.477
 30
0.000000
  70
    32
  0
VERTEX
  8
┌▓È_1
  5
3BB
 10
971.157
 20
-405.483
 30
0.000000
  70
    32
  0
VERTEX
  8
┌▓È_1
  5
3BC
 10
971.186
 20
-405.489
 30
0.000000
  70
    32
  0
VERTEX
  8
┌▓È_1
  5
3BD
 10
971.216
 20
-405.495
 30
0.000000
  70
    32
  0
VERTEX
  8
┌▓È_1
  5
3BE
 10
971.245
 20
-405.500
 30
0.000000
  70
    32
  0
VERTEX
  8
┌▓È_1
  5
3BF
 10
971.274
 20
-405.506
 30
0.000000
  70
    32
  0
VERTEX
  8
┌▓È_1
  5
3C0
 10
971.303
 20
-405.512
 30
0.000000
  70
    32
  0
VERTEX
  8
┌▓È_1
  5
3C1
 10
971.333
 20
-405.518
 30
0.000000
  70
    32
  0
VERTEX
  8
┌▓È_1
  5
3C2
 10
971.362
 20
-405.524
 30
0.000000
  70
    32
  0
VERTEX
  8
┌▓È_1
  5
3C3
 10
971.391
 20
-405.529
 30
0.000000
  70
    32
  0
VERTEX
  8
┌▓È_1
  5
3C4
 10
971.421
 20
-405.535
 30
0.000000
  70
    32
  0
VERTEX
  8
┌▓È_1
  5
3C5
 10
971.450
 20
-405.541
 30
0.000000
  70
    32
  0
VERTEX
  8
┌▓È_1
  5
3C6
 10
971.479
 20
-405.547
 30
0.000000
  70
    32
  0
VERTEX
  8
┌▓È_1
  5
3C7
 10
971.509
 20
-405.552
 30
0.000000
  70
    32
  0
VERTEX
  8
┌▓È_1
  5
3C8
 10
971.538
 20
-405.558
 30
0.000000
  70
    32
  0
VERTEX
  8
┌▓È_1
  5
3C9
 10
971.568
 20
-405.564
 30
0.000000
  70
    32
  0
VERTEX
  8
┌▓È_1
  5
3CA
 10
971.597
 20
-405.569
 30
0.000000
  70
    32
  0
VERTEX
  8
┌▓È_1
  5
3CB
 10
971.626
 20
-405.575
 30
0.000000
  70
    32
  0
VERTEX
  8
┌▓È_1
  5
3CC
 10
971.656
 20
-405.580
 30
0.000000
  70
    32
  0
VERTEX
  8
┌▓È_1
  5
3CD
 10
971.685
 20
-405.586
 30
0.000000
  70
    32
  0
VERTEX
  8
┌▓È_1
  5
3CE
 10
971.715
 20
-405.591
 30
0.000000
  70
    32
  0
VERTEX
  8
┌▓È_1
  5
3CF
 10
971.744
 20
-405.597
 30
0.000000
  70
    32
  0
VERTEX
  8
┌▓È_1
  5
3D0
 10
971.774
 20
-405.602
 30
0.000000
  70
    32
  0
VERTEX
  8
┌▓È_1
  5
3D1
 10
971.803
 20
-405.608
 30
0.000000
  70
    32
  0
VERTEX
  8
┌▓È_1
  5
3D2
 10
971.833
 20
-405.613
 30
0.000000
  70
    32
  0
VERTEX
  8
┌▓È_1
  5
3D3
 10
971.862
 20
-405.619
 30
0.000000
  70
    32
  0
VERTEX
  8
┌▓È_1
  5
3D4
 10
971.892
 20
-405.624
 30
0.000000
  70
    32
  0
VERTEX
  8
┌▓È_1
  5
3D5
 10
971.921
 20
-405.630
 30
0.000000
  70
    32
  0
VERTEX
  8
┌▓È_1
  5
3D6
 10
971.951
 20
-405.635
 30
0.000000
  70
    32
  0
VERTEX
  8
┌▓È_1
  5
3D7
 10
971.980
 20
-405.640
 30
0.000000
  70
    32
  0
VERTEX
  8
┌▓È_1
  5
3D8
 10
972.010
 20
-405.646
 30
0.000000
  70
    32
  0
VERTEX
  8
┌▓È_1
  5
3D9
 10
972.040
 20
-405.651
 30
0.000000
  70
    32
  0
VERTEX
  8
┌▓È_1
  5
3DA
 10
972.069
 20
-405.656
 30
0.000000
  70
    32
  0
VERTEX
  8
┌▓È_1
  5
3DB
 10
972.099
 20
-405.662
 30
0.000000
  70
    32
  0
VERTEX
  8
┌▓È_1
  5
3DC
 10
972.128
 20
-405.667
 30
0.000000
  70
    32
  0
VERTEX
  8
┌▓È_1
  5
3DD
 10
972.158
 20
-405.672
 30
0.000000
  70
    32
  0
VERTEX
  8
┌▓È_1
  5
3DE
 10
972.188
 20
-405.678
 30
0.000000
  70
    32
  0
VERTEX
  8
┌▓È_1
  5
3DF
 10
972.217
 20
-405.683
 30
0.000000
  70
    32
  0
VERTEX
  8
┌▓È_1
  5
3E0
 10
972.247
 20
-405.688
 30
0.000000
  70
    32
  0
VERTEX
  8
┌▓È_1
  5
3E1
 10
972.277
 20
-405.693
 30
0.000000
  70
    32
  0
VERTEX
  8
┌▓È_1
  5
3E2
 10
972.306
 20
-405.698
 30
0.000000
  70
    32
  0
VERTEX
  8
┌▓È_1
  5
3E3
 10
972.336
 20
-405.704
 30
0.000000
  70
    32
  0
VERTEX
  8
┌▓È_1
  5
3E4
 10
972.366
 20
-405.709
 30
0.000000
  70
    32
  0
VERTEX
  8
┌▓È_1
  5
3E5
 10
972.395
 20
-405.714
 30
0.000000
  70
    32
  0
VERTEX
  8
┌▓È_1
  5
3E6
 10
972.425
 20
-405.719
 30
0.000000
  70
    32
  0
VERTEX
  8
┌▓È_1
  5
3E7
 10
972.455
 20
-405.724
 30
0.000000
  70
    32
  0
VERTEX
  8
┌▓È_1
  5
3E8
 10
972.484
 20
-405.730
 30
0.000000
  70
    32
  0
VERTEX
  8
┌▓È_1
  5
3E9
 10
972.514
 20
-405.735
 30
0.000000
  70
    32
  0
VERTEX
  8
┌▓È_1
  5
3EA
 10
972.544
 20
-405.740
 30
0.000000
  70
    32
  0
VERTEX
  8
┌▓È_1
  5
3EB
 10
972.573
 20
-405.745
 30
0.000000
  70
    32
  0
VERTEX
  8
┌▓È_1
  5
3EC
 10
972.603
 20
-405.750
 30
0.000000
  70
    32
  0
VERTEX
  8
┌▓È_1
  5
3ED
 10
972.633
 20
-405.755
 30
0.000000
  70
    32
  0
VERTEX
  8
┌▓È_1
  5
3EE
 10
972.663
 20
-405.760
 30
0.000000
  70
    32
  0
VERTEX
  8
┌▓È_1
  5
3EF
 10
972.692
 20
-405.765
 30
0.000000
  70
    32
  0
VERTEX
  8
┌▓È_1
  5
3F0
 10
972.722
 20
-405.770
 30
0.000000
  70
    32
  0
VERTEX
  8
┌▓È_1
  5
3F1
 10
972.752
 20
-405.776
 30
0.000000
  70
    32
  0
VERTEX
  8
┌▓È_1
  5
3F2
 10
972.782
 20
-405.781
 30
0.000000
  70
    32
  0
VERTEX
  8
┌▓È_1
  5
3F3
 10
972.811
 20
-405.786
 30
0.000000
  70
    32
  0
VERTEX
  8
┌▓È_1
  5
3F4
 10
972.841
 20
-405.791
 30
0.000000
  70
    32
  0
VERTEX
  8
┌▓È_1
  5
3F5
 10
972.871
 20
-405.796
 30
0.000000
  70
    32
  0
VERTEX
  8
┌▓È_1
  5
3F6
 10
972.901
 20
-405.801
 30
0.000000
  70
    32
  0
VERTEX
  8
┌▓È_1
  5
3F7
 10
972.930
 20
-405.806
 30
0.000000
  70
    32
  0
VERTEX
  8
┌▓È_1
  5
3F8
 10
972.960
 20
-405.811
 30
0.000000
  70
    32
  0
VERTEX
  8
┌▓È_1
  5
3F9
 10
972.990
 20
-405.816
 30
0.000000
  70
    32
  0
VERTEX
  8
┌▓È_1
  5
3FA
 10
973.020
 20
-405.821
 30
0.000000
  70
    32
  0
VERTEX
  8
┌▓È_1
  5
3FB
 10
973.049
 20
-405.826
 30
0.000000
  70
    32
  0
VERTEX
  8
┌▓È_1
  5
3FC
 10
973.079
 20
-405.831
 30
0.000000
  70
    32
  0
VERTEX
  8
┌▓È_1
  5
3FD
 10
973.109
 20
-405.836
 30
0.000000
  70
    32
  0
VERTEX
  8
┌▓È_1
  5
3FE
 10
973.139
 20
-405.841
 30
0.000000
  70
    32
  0
VERTEX
  8
┌▓È_1
  5
3FF
 10
973.169
 20
-405.846
 30
0.000000
  70
    32
  0
VERTEX
  8
┌▓È_1
  5
400
 10
973.198
 20
-405.851
 30
0.000000
  70
    32
  0
VERTEX
  8
┌▓È_1
  5
401
 10
973.228
 20
-405.856
 30
0.000000
  70
    32
  0
VERTEX
  8
┌▓È_1
  5
402
 10
973.258
 20
-405.861
 30
0.000000
  70
    32
  0
SEQEND
  8
┌▓È_1
  5
403
  0
POLYLINE
  8
┌▓È_1
  5
404
  62
5
  66
     1
 10
0.000000
 20
0.000000
 30
0.000000
  70
     8
  0
VERTEX
  8
┌▓È_1
  5
405
 10
958.858
 20
-401.292
 30
0.000000
  70
    32
  0
VERTEX
  8
┌▓È_1
  5
406
 10
958.887
 20
-401.319
 30
0.000000
  70
    32
  0
VERTEX
  8
┌▓È_1
  5
407
 10
958.915
 20
-401.345
 30
0.000000
  70
    32
  0
VERTEX
  8
┌▓È_1
  5
408
 10
958.944
 20
-401.372
 30
0.000000
  70
    32
  0
VERTEX
  8
┌▓È_1
  5
409
 10
958.973
 20
-401.398
 30
0.000000
  70
    32
  0
VERTEX
  8
┌▓È_1
  5
40A
 10
959.002
 20
-401.425
 30
0.000000
  70
    32
  0
VERTEX
  8
┌▓È_1
  5
40B
 10
959.031
 20
-401.451
 30
0.000000
  70
    32
  0
VERTEX
  8
┌▓È_1
  5
40C
 10
959.060
 20
-401.478
 30
0.000000
  70
    32
  0
VERTEX
  8
┌▓È_1
  5
40D
 10
959.088
 20
-401.505
 30
0.000000
  70
    32
  0
VERTEX
  8
┌▓È_1
  5
40E
 10
959.117
 20
-401.531
 30
0.000000
  70
    32
  0
VERTEX
  8
┌▓È_1
  5
40F
 10
959.146
 20
-401.558
 30
0.000000
  70
    32
  0
VERTEX
  8
┌▓È_1
  5
410
 10
959.175
 20
-401.584
 30
0.000000
  70
    32
  0
VERTEX
  8
┌▓È_1
  5
411
 10
959.204
 20
-401.611
 30
0.000000
  70
    32
  0
VERTEX
  8
┌▓È_1
  5
412
 10
959.233
 20
-401.637
 30
0.000000
  70
    32
  0
VERTEX
  8
┌▓È_1
  5
413
 10
959.261
 20
-401.664
 30
0.000000
  70
    32
  0
VERTEX
  8
┌▓È_1
  5
414
 10
959.290
 20
-401.690
 30
0.000000
  70
    32
  0
VERTEX
  8
┌▓È_1
  5
415
 10
959.319
 20
-401.717
 30
0.000000
  70
    32
  0
VERTEX
  8
┌▓È_1
  5
416
 10
959.348
 20
-401.743
 30
0.000000
  70
    32
  0
VERTEX
  8
┌▓È_1
  5
417
 10
959.377
 20
-401.770
 30
0.000000
  70
    32
  0
VERTEX
  8
┌▓È_1
  5
418
 10
959.406
 20
-401.796
 30
0.000000
  70
    32
  0
VERTEX
  8
┌▓È_1
  5
419
 10
959.435
 20
-401.823
 30
0.000000
  70
    32
  0
VERTEX
  8
┌▓È_1
  5
41A
 10
959.463
 20
-401.849
 30
0.000000
  70
    32
  0
VERTEX
  8
┌▓È_1
  5
41B
 10
959.492
 20
-401.876
 30
0.000000
  70
    32
  0
VERTEX
  8
┌▓È_1
  5
41C
 10
959.521
 20
-401.902
 30
0.000000
  70
    32
  0
VERTEX
  8
┌▓È_1
  5
41D
 10
959.550
 20
-401.928
 30
0.000000
  70
    32
  0
VERTEX
  8
┌▓È_1
  5
41E
 10
959.579
 20
-401.955
 30
0.000000
  70
    32
  0
VERTEX
  8
┌▓È_1
  5
41F
 10
959.608
 20
-401.981
 30
0.000000
  70
    32
  0
VERTEX
  8
┌▓È_1
  5
420
 10
959.637
 20
-402.008
 30
0.000000
  70
    32
  0
VERTEX
  8
┌▓È_1
  5
421
 10
959.666
 20
-402.034
 30
0.000000
  70
    32
  0
VERTEX
  8
┌▓È_1
  5
422
 10
959.695
 20
-402.060
 30
0.000000
  70
    32
  0
VERTEX
  8
┌▓È_1
  5
423
 10
959.724
 20
-402.087
 30
0.000000
  70
    32
  0
VERTEX
  8
┌▓È_1
  5
424
 10
959.753
 20
-402.113
 30
0.000000
  70
    32
  0
VERTEX
  8
┌▓È_1
  5
425
 10
959.782
 20
-402.139
 30
0.000000
  70
    32
  0
VERTEX
  8
┌▓È_1
  5
426
 10
959.811
 20
-402.165
 30
0.000000
  70
    32
  0
VERTEX
  8
┌▓È_1
  5
427
 10
959.840
 20
-402.192
 30
0.000000
  70
    32
  0
VERTEX
  8
┌▓È_1
  5
428
 10
959.869
 20
-402.218
 30
0.000000
  70
    32
  0
VERTEX
  8
┌▓È_1
  5
429
 10
959.898
 20
-402.244
 30
0.000000
  70
    32
  0
VERTEX
  8
┌▓È_1
  5
42A
 10
959.927
 20
-402.270
 30
0.000000
  70
    32
  0
VERTEX
  8
┌▓È_1
  5
42B
 10
959.956
 20
-402.296
 30
0.000000
  70
    32
  0
VERTEX
  8
┌▓È_1
  5
42C
 10
959.985
 20
-402.323
 30
0.000000
  70
    32
  0
VERTEX
  8
┌▓È_1
  5
42D
 10
960.014
 20
-402.349
 30
0.000000
  70
    32
  0
VERTEX
  8
┌▓È_1
  5
42E
 10
960.043
 20
-402.375
 30
0.000000
  70
    32
  0
VERTEX
  8
┌▓È_1
  5
42F
 10
960.072
 20
-402.401
 30
0.000000
  70
    32
  0
VERTEX
  8
┌▓È_1
  5
430
 10
960.101
 20
-402.427
 30
0.000000
  70
    32
  0
VERTEX
  8
┌▓È_1
  5
431
 10
960.130
 20
-402.453
 30
0.000000
  70
    32
  0
VERTEX
  8
┌▓È_1
  5
432
 10
960.159
 20
-402.479
 30
0.000000
  70
    32
  0
VERTEX
  8
┌▓È_1
  5
433
 10
960.188
 20
-402.505
 30
0.000000
  70
    32
  0
VERTEX
  8
┌▓È_1
  5
434
 10
960.217
 20
-402.531
 30
0.000000
  70
    32
  0
VERTEX
  8
┌▓È_1
  5
435
 10
960.247
 20
-402.557
 30
0.000000
  70
    32
  0
VERTEX
  8
┌▓È_1
  5
436
 10
960.276
 20
-402.583
 30
0.000000
  70
    32
  0
VERTEX
  8
┌▓È_1
  5
437
 10
960.305
 20
-402.609
 30
0.000000
  70
    32
  0
VERTEX
  8
┌▓È_1
  5
438
 10
960.334
 20
-402.635
 30
0.000000
  70
    32
  0
VERTEX
  8
┌▓È_1
  5
439
 10
960.363
 20
-402.660
 30
0.000000
  70
    32
  0
VERTEX
  8
┌▓È_1
  5
43A
 10
960.393
 20
-402.686
 30
0.000000
  70
    32
  0
VERTEX
  8
┌▓È_1
  5
43B
 10
960.422
 20
-402.712
 30
0.000000
  70
    32
  0
VERTEX
  8
┌▓È_1
  5
43C
 10
960.451
 20
-402.738
 30
0.000000
  70
    32
  0
VERTEX
  8
┌▓È_1
  5
43D
 10
960.480
 20
-402.764
 30
0.000000
  70
    32
  0
VERTEX
  8
┌▓È_1
  5
43E
 10
960.510
 20
-402.789
 30
0.000000
  70
    32
  0
VERTEX
  8
┌▓È_1
  5
43F
 10
960.539
 20
-402.815
 30
0.000000
  70
    32
  0
VERTEX
  8
┌▓È_1
  5
440
 10
960.568
 20
-402.840
 30
0.000000
  70
    32
  0
VERTEX
  8
┌▓È_1
  5
441
 10
960.598
 20
-402.866
 30
0.000000
  70
    32
  0
VERTEX
  8
┌▓È_1
  5
442
 10
960.627
 20
-402.892
 30
0.000000
  70
    32
  0
VERTEX
  8
┌▓È_1
  5
443
 10
960.656
 20
-402.917
 30
0.000000
  70
    32
  0
VERTEX
  8
┌▓È_1
  5
444
 10
960.686
 20
-402.943
 30
0.000000
  70
    32
  0
VERTEX
  8
┌▓È_1
  5
445
 10
960.715
 20
-402.968
 30
0.000000
  70
    32
  0
VERTEX
  8
┌▓È_1
  5
446
 10
960.745
 20
-402.993
 30
0.000000
  70
    32
  0
VERTEX
  8
┌▓È_1
  5
447
 10
960.774
 20
-403.019
 30
0.000000
  70
    32
  0
VERTEX
  8
┌▓È_1
  5
448
 10
960.804
 20
-403.044
 30
0.000000
  70
    32
  0
VERTEX
  8
┌▓È_1
  5
449
 10
960.833
 20
-403.069
 30
0.000000
  70
    32
  0
VERTEX
  8
┌▓È_1
  5
44A
 10
960.863
 20
-403.095
 30
0.000000
  70
    32
  0
VERTEX
  8
┌▓È_1
  5
44B
 10
960.892
 20
-403.120
 30
0.000000
  70
    32
  0
VERTEX
  8
┌▓È_1
  5
44C
 10
960.922
 20
-403.145
 30
0.000000
  70
    32
  0
VERTEX
  8
┌▓È_1
  5
44D
 10
960.951
 20
-403.170
 30
0.000000
  70
    32
  0
VERTEX
  8
┌▓È_1
  5
44E
 10
960.981
 20
-403.195
 30
0.000000
  70
    32
  0
VERTEX
  8
┌▓È_1
  5
44F
 10
961.011
 20
-403.221
 30
0.000000
  70
    32
  0
VERTEX
  8
┌▓È_1
  5
450
 10
961.040
 20
-403.246
 30
0.000000
  70
    32
  0
VERTEX
  8
┌▓È_1
  5
451
 10
961.070
 20
-403.271
 30
0.000000
  70
    32
  0
VERTEX
  8
┌▓È_1
  5
452
 10
961.100
 20
-403.295
 30
0.000000
  70
    32
  0
VERTEX
  8
┌▓È_1
  5
453
 10
961.129
 20
-403.320
 30
0.000000
  70
    32
  0
VERTEX
  8
┌▓È_1
  5
454
 10
961.159
 20
-403.345
 30
0.000000
  70
    32
  0
VERTEX
  8
┌▓È_1
  5
455
 10
961.189
 20
-403.370
 30
0.000000
  70
    32
  0
VERTEX
  8
┌▓È_1
  5
456
 10
961.219
 20
-403.395
 30
0.000000
  70
    32
  0
VERTEX
  8
┌▓È_1
  5
457
 10
961.248
 20
-403.420
 30
0.000000
  70
    32
  0
VERTEX
  8
┌▓È_1
  5
458
 10
961.278
 20
-403.444
 30
0.000000
  70
    32
  0
VERTEX
  8
┌▓È_1
  5
459
 10
961.308
 20
-403.469
 30
0.000000
  70
    32
  0
VERTEX
  8
┌▓È_1
  5
45A
 10
961.338
 20
-403.493
 30
0.000000
  70
    32
  0
VERTEX
  8
┌▓È_1
  5
45B
 10
961.368
 20
-403.518
 30
0.000000
  70
    32
  0
VERTEX
  8
┌▓È_1
  5
45C
 10
961.398
 20
-403.543
 30
0.000000
  70
    32
  0
VERTEX
  8
┌▓È_1
  5
45D
 10
961.428
 20
-403.567
 30
0.000000
  70
    32
  0
VERTEX
  8
┌▓È_1
  5
45E
 10
961.458
 20
-403.591
 30
0.000000
  70
    32
  0
VERTEX
  8
┌▓È_1
  5
45F
 10
961.488
 20
-403.616
 30
0.000000
  70
    32
  0
VERTEX
  8
┌▓È_1
  5
460
 10
961.518
 20
-403.640
 30
0.000000
  70
    32
  0
VERTEX
  8
┌▓È_1
  5
461
 10
961.548
 20
-403.664
 30
0.000000
  70
    32
  0
VERTEX
  8
┌▓È_1
  5
462
 10
961.578
 20
-403.688
 30
0.000000
  70
    32
  0
VERTEX
  8
┌▓È_1
  5
463
 10
961.608
 20
-403.713
 30
0.000000
  70
    32
  0
VERTEX
  8
┌▓È_1
  5
464
 10
961.638
 20
-403.737
 30
0.000000
  70
    32
  0
VERTEX
  8
┌▓È_1
  5
465
 10
961.668
 20
-403.761
 30
0.000000
  70
    32
  0
VERTEX
  8
┌▓È_1
  5
466
 10
961.699
 20
-403.785
 30
0.000000
  70
    32
  0
VERTEX
  8
┌▓È_1
  5
467
 10
961.729
 20
-403.809
 30
0.000000
  70
    32
  0
VERTEX
  8
┌▓È_1
  5
468
 10
961.759
 20
-403.833
 30
0.000000
  70
    32
  0
VERTEX
  8
┌▓È_1
  5
469
 10
961.789
 20
-403.856
 30
0.000000
  70
    32
  0
VERTEX
  8
┌▓È_1
  5
46A
 10
961.820
 20
-403.880
 30
0.000000
  70
    32
  0
VERTEX
  8
┌▓È_1
  5
46B
 10
961.850
 20
-403.904
 30
0.000000
  70
    32
  0
VERTEX
  8
┌▓È_1
  5
46C
 10
961.881
 20
-403.928
 30
0.000000
  70
    32
  0
VERTEX
  8
┌▓È_1
  5
46D
 10
961.911
 20
-403.951
 30
0.000000
  70
    32
  0
VERTEX
  8
┌▓È_1
  5
46E
 10
961.941
 20
-403.975
 30
0.000000
  70
    32
  0
VERTEX
  8
┌▓È_1
  5
46F
 10
961.972
 20
-403.998
 30
0.000000
  70
    32
  0
VERTEX
  8
┌▓È_1
  5
470
 10
962.002
 20
-404.022
 30
0.000000
  70
    32
  0
VERTEX
  8
┌▓È_1
  5
471
 10
962.033
 20
-404.045
 30
0.000000
  70
    32
  0
VERTEX
  8
┌▓È_1
  5
472
 10
962.064
 20
-404.068
 30
0.000000
  70
    32
  0
VERTEX
  8
┌▓È_1
  5
473
 10
962.094
 20
-404.092
 30
0.000000
  70
    32
  0
VERTEX
  8
┌▓È_1
  5
474
 10
962.125
 20
-404.115
 30
0.000000
  70
    32
  0
VERTEX
  8
┌▓È_1
  5
475
 10
962.155
 20
-404.138
 30
0.000000
  70
    32
  0
VERTEX
  8
┌▓È_1
  5
476
 10
962.186
 20
-404.161
 30
0.000000
  70
    32
  0
VERTEX
  8
┌▓È_1
  5
477
 10
962.217
 20
-404.184
 30
0.000000
  70
    32
  0
VERTEX
  8
┌▓È_1
  5
478
 10
962.248
 20
-404.207
 30
0.000000
  70
    32
  0
VERTEX
  8
┌▓È_1
  5
479
 10
962.279
 20
-404.230
 30
0.000000
  70
    32
  0
VERTEX
  8
┌▓È_1
  5
47A
 10
962.309
 20
-404.253
 30
0.000000
  70
    32
  0
VERTEX
  8
┌▓È_1
  5
47B
 10
962.340
 20
-404.275
 30
0.000000
  70
    32
  0
VERTEX
  8
┌▓È_1
  5
47C
 10
962.371
 20
-404.298
 30
0.000000
  70
    32
  0
VERTEX
  8
┌▓È_1
  5
47D
 10
962.402
 20
-404.321
 30
0.000000
  70
    32
  0
VERTEX
  8
┌▓È_1
  5
47E
 10
962.433
 20
-404.343
 30
0.000000
  70
    32
  0
VERTEX
  8
┌▓È_1
  5
47F
 10
962.464
 20
-404.366
 30
0.000000
  70
    32
  0
VERTEX
  8
┌▓È_1
  5
480
 10
962.495
 20
-404.388
 30
0.000000
  70
    32
  0
VERTEX
  8
┌▓È_1
  5
481
 10
962.526
 20
-404.410
 30
0.000000
  70
    32
  0
VERTEX
  8
┌▓È_1
  5
482
 10
962.557
 20
-404.433
 30
0.000000
  70
    32
  0
VERTEX
  8
┌▓È_1
  5
483
 10
962.589
 20
-404.455
 30
0.000000
  70
    32
  0
VERTEX
  8
┌▓È_1
  5
484
 10
962.620
 20
-404.477
 30
0.000000
  70
    32
  0
VERTEX
  8
┌▓È_1
  5
485
 10
962.651
 20
-404.499
 30
0.000000
  70
    32
  0
VERTEX
  8
┌▓È_1
  5
486
 10
962.682
 20
-404.521
 30
0.000000
  70
    32
  0
VERTEX
  8
┌▓È_1
  5
487
 10
962.714
 20
-404.543
 30
0.000000
  70
    32
  0
VERTEX
  8
┌▓È_1
  5
488
 10
962.745
 20
-404.565
 30
0.000000
  70
    32
  0
VERTEX
  8
┌▓È_1
  5
489
 10
962.776
 20
-404.587
 30
0.000000
  70
    32
  0
VERTEX
  8
┌▓È_1
  5
48A
 10
962.808
 20
-404.608
 30
0.000000
  70
    32
  0
VERTEX
  8
┌▓È_1
  5
48B
 10
962.839
 20
-404.630
 30
0.000000
  70
    32
  0
VERTEX
  8
┌▓È_1
  5
48C
 10
962.871
 20
-404.652
 30
0.000000
  70
    32
  0
VERTEX
  8
┌▓È_1
  5
48D
 10
962.902
 20
-404.673
 30
0.000000
  70
    32
  0
VERTEX
  8
┌▓È_1
  5
48E
 10
962.934
 20
-404.694
 30
0.000000
  70
    32
  0
VERTEX
  8
┌▓È_1
  5
48F
 10
962.966
 20
-404.716
 30
0.000000
  70
    32
  0
VERTEX
  8
┌▓È_1
  5
490
 10
962.997
 20
-404.737
 30
0.000000
  70
    32
  0
VERTEX
  8
┌▓È_1
  5
491
 10
963.029
 20
-404.758
 30
0.000000
  70
    32
  0
VERTEX
  8
┌▓È_1
  5
492
 10
963.061
 20
-404.779
 30
0.000000
  70
    32
  0
VERTEX
  8
┌▓È_1
  5
493
 10
963.093
 20
-404.800
 30
0.000000
  70
    32
  0
VERTEX
  8
┌▓È_1
  5
494
 10
963.125
 20
-404.821
 30
0.000000
  70
    32
  0
VERTEX
  8
┌▓È_1
  5
495
 10
963.156
 20
-404.842
 30
0.000000
  70
    32
  0
VERTEX
  8
┌▓È_1
  5
496
 10
963.188
 20
-404.863
 30
0.000000
  70
    32
  0
VERTEX
  8
┌▓È_1
  5
497
 10
963.220
 20
-404.884
 30
0.000000
  70
    32
  0
VERTEX
  8
┌▓È_1
  5
498
 10
963.252
 20
-404.904
 30
0.000000
  70
    32
  0
VERTEX
  8
┌▓È_1
  5
499
 10
963.284
 20
-404.925
 30
0.000000
  70
    32
  0
VERTEX
  8
┌▓È_1
  5
49A
 10
963.317
 20
-404.945
 30
0.000000
  70
    32
  0
VERTEX
  8
┌▓È_1
  5
49B
 10
963.349
 20
-404.966
 30
0.000000
  70
    32
  0
VERTEX
  8
┌▓È_1
  5
49C
 10
963.381
 20
-404.986
 30
0.000000
  70
    32
  0
VERTEX
  8
┌▓È_1
  5
49D
 10
963.413
 20
-405.006
 30
0.000000
  70
    32
  0
VERTEX
  8
┌▓È_1
  5
49E
 10
963.446
 20
-405.026
 30
0.000000
  70
    32
  0
VERTEX
  8
┌▓È_1
  5
49F
 10
963.478
 20
-405.046
 30
0.000000
  70
    32
  0
VERTEX
  8
┌▓È_1
  5
4A0
 10
963.510
 20
-405.066
 30
0.000000
  70
    32
  0
VERTEX
  8
┌▓È_1
  5
4A1
 10
963.543
 20
-405.086
 30
0.000000
  70
    32
  0
VERTEX
  8
┌▓È_1
  5
4A2
 10
963.575
 20
-405.106
 30
0.000000
  70
    32
  0
VERTEX
  8
┌▓È_1
  5
4A3
 10
963.608
 20
-405.126
 30
0.000000
  70
    32
  0
VERTEX
  8
┌▓È_1
  5
4A4
 10
963.640
 20
-405.145
 30
0.000000
  70
    32
  0
SEQEND
  8
┌▓È_1
  5
4A5
  0
POLYLINE
  8
┌▓È_1
  5
4A6
  62
5
  66
     1
 10
0.000000
 20
0.000000
 30
0.000000
  70
     8
  0
VERTEX
  8
┌▓È_1
  5
4A7
 10
967.592
 20
-406.879
 30
0.000000
  70
    32
  0
VERTEX
  8
┌▓È_1
  5
4A8
 10
967.635
 20
-406.893
 30
0.000000
  70
    32
  0
VERTEX
  8
┌▓È_1
  5
4A9
 10
967.678
 20
-406.907
 30
0.000000
  70
    32
  0
VERTEX
  8
┌▓È_1
  5
4AA
 10
967.721
 20
-406.920
 30
0.000000
  70
    32
  0
VERTEX
  8
┌▓È_1
  5
4AB
 10
967.764
 20
-406.934
 30
0.000000
  70
    32
  0
VERTEX
  8
┌▓È_1
  5
4AC
 10
967.808
 20
-406.947
 30
0.000000
  70
    32
  0
VERTEX
  8
┌▓È_1
  5
4AD
 10
967.851
 20
-406.961
 30
0.000000
  70
    32
  0
VERTEX
  8
┌▓È_1
  5
4AE
 10
967.894
 20
-406.974
 30
0.000000
  70
    32
  0
VERTEX
  8
┌▓È_1
  5
4AF
 10
967.937
 20
-406.987
 30
0.000000
  70
    32
  0
VERTEX
  8
┌▓È_1
  5
4B0
 10
967.981
 20
-407.001
 30
0.000000
  70
    32
  0
VERTEX
  8
┌▓È_1
  5
4B1
 10
968.024
 20
-407.014
 30
0.000000
  70
    32
  0
VERTEX
  8
┌▓È_1
  5
4B2
 10
968.068
 20
-407.027
 30
0.000000
  70
    32
  0
VERTEX
  8
┌▓È_1
  5
4B3
 10
968.111
 20
-407.040
 30
0.000000
  70
    32
  0
VERTEX
  8
┌▓È_1
  5
4B4
 10
968.155
 20
-407.053
 30
0.000000
  70
    32
  0
VERTEX
  8
┌▓È_1
  5
4B5
 10
968.198
 20
-407.066
 30
0.000000
  70
    32
  0
VERTEX
  8
┌▓È_1
  5
4B6
 10
968.242
 20
-407.079
 30
0.000000
  70
    32
  0
VERTEX
  8
┌▓È_1
  5
4B7
 10
968.285
 20
-407.091
 30
0.000000
  70
    32
  0
VERTEX
  8
┌▓È_1
  5
4B8
 10
968.329
 20
-407.104
 30
0.000000
  70
    32
  0
VERTEX
  8
┌▓È_1
  5
4B9
 10
968.373
 20
-407.117
 30
0.000000
  70
    32
  0
VERTEX
  8
┌▓È_1
  5
4BA
 10
968.416
 20
-407.129
 30
0.000000
  70
    32
  0
VERTEX
  8
┌▓È_1
  5
4BB
 10
968.460
 20
-407.142
 30
0.000000
  70
    32
  0
VERTEX
  8
┌▓È_1
  5
4BC
 10
968.504
 20
-407.154
 30
0.000000
  70
    32
  0
VERTEX
  8
┌▓È_1
  5
4BD
 10
968.547
 20
-407.167
 30
0.000000
  70
    32
  0
VERTEX
  8
┌▓È_1
  5
4BE
 10
968.591
 20
-407.179
 30
0.000000
  70
    32
  0
VERTEX
  8
┌▓È_1
  5
4BF
 10
968.635
 20
-407.192
 30
0.000000
  70
    32
  0
VERTEX
  8
┌▓È_1
  5
4C0
 10
968.679
 20
-407.204
 30
0.000000
  70
    32
  0
VERTEX
  8
┌▓È_1
  5
4C1
 10
968.723
 20
-407.216
 30
0.000000
  70
    32
  0
VERTEX
  8
┌▓È_1
  5
4C2
 10
968.767
 20
-407.228
 30
0.000000
  70
    32
  0
VERTEX
  8
┌▓È_1
  5
4C3
 10
968.811
 20
-407.240
 30
0.000000
  70
    32
  0
VERTEX
  8
┌▓È_1
  5
4C4
 10
968.855
 20
-407.252
 30
0.000000
  70
    32
  0
VERTEX
  8
┌▓È_1
  5
4C5
 10
968.899
 20
-407.264
 30
0.000000
  70
    32
  0
VERTEX
  8
┌▓È_1
  5
4C6
 10
968.943
 20
-407.276
 30
0.000000
  70
    32
  0
VERTEX
  8
┌▓È_1
  5
4C7
 10
968.987
 20
-407.288
 30
0.000000
  70
    32
  0
VERTEX
  8
┌▓È_1
  5
4C8
 10
969.031
 20
-407.300
 30
0.000000
  70
    32
  0
VERTEX
  8
┌▓È_1
  5
4C9
 10
969.075
 20
-407.312
 30
0.000000
  70
    32
  0
VERTEX
  8
┌▓È_1
  5
4CA
 10
969.119
 20
-407.323
 30
0.000000
  70
    32
  0
VERTEX
  8
┌▓È_1
  5
4CB
 10
969.163
 20
-407.335
 30
0.000000
  70
    32
  0
VERTEX
  8
┌▓È_1
  5
4CC
 10
969.208
 20
-407.347
 30
0.000000
  70
    32
  0
VERTEX
  8
┌▓È_1
  5
4CD
 10
969.252
 20
-407.358
 30
0.000000
  70
    32
  0
VERTEX
  8
┌▓È_1
  5
4CE
 10
969.296
 20
-407.370
 30
0.000000
  70
    32
  0
VERTEX
  8
┌▓È_1
  5
4CF
 10
969.340
 20
-407.381
 30
0.000000
  70
    32
  0
VERTEX
  8
┌▓È_1
  5
4D0
 10
969.385
 20
-407.393
 30
0.000000
  70
    32
  0
VERTEX
  8
┌▓È_1
  5
4D1
 10
969.429
 20
-407.404
 30
0.000000
  70
    32
  0
VERTEX
  8
┌▓È_1
  5
4D2
 10
969.473
 20
-407.416
 30
0.000000
  70
    32
  0
VERTEX
  8
┌▓È_1
  5
4D3
 10
969.518
 20
-407.427
 30
0.000000
  70
    32
  0
VERTEX
  8
┌▓È_1
  5
4D4
 10
969.562
 20
-407.438
 30
0.000000
  70
    32
  0
VERTEX
  8
┌▓È_1
  5
4D5
 10
969.607
 20
-407.449
 30
0.000000
  70
    32
  0
VERTEX
  8
┌▓È_1
  5
4D6
 10
969.651
 20
-407.461
 30
0.000000
  70
    32
  0
VERTEX
  8
┌▓È_1
  5
4D7
 10
969.696
 20
-407.472
 30
0.000000
  70
    32
  0
VERTEX
  8
┌▓È_1
  5
4D8
 10
969.740
 20
-407.483
 30
0.000000
  70
    32
  0
VERTEX
  8
┌▓È_1
  5
4D9
 10
969.785
 20
-407.494
 30
0.000000
  70
    32
  0
VERTEX
  8
┌▓È_1
  5
4DA
 10
969.829
 20
-407.505
 30
0.000000
  70
    32
  0
VERTEX
  8
┌▓È_1
  5
4DB
 10
969.874
 20
-407.516
 30
0.000000
  70
    32
  0
VERTEX
  8
┌▓È_1
  5
4DC
 10
969.918
 20
-407.527
 30
0.000000
  70
    32
  0
VERTEX
  8
┌▓È_1
  5
4DD
 10
969.963
 20
-407.538
 30
0.000000
  70
    32
  0
VERTEX
  8
┌▓È_1
  5
4DE
 10
970.007
 20
-407.548
 30
0.000000
  70
    32
  0
VERTEX
  8
┌▓È_1
  5
4DF
 10
970.052
 20
-407.559
 30
0.000000
  70
    32
  0
VERTEX
  8
┌▓È_1
  5
4E0
 10
970.097
 20
-407.570
 30
0.000000
  70
    32
  0
VERTEX
  8
┌▓È_1
  5
4E1
 10
970.142
 20
-407.581
 30
0.000000
  70
    32
  0
VERTEX
  8
┌▓È_1
  5
4E2
 10
970.186
 20
-407.591
 30
0.000000
  70
    32
  0
VERTEX
  8
┌▓È_1
  5
4E3
 10
970.231
 20
-407.602
 30
0.000000
  70
    32
  0
VERTEX
  8
┌▓È_1
  5
4E4
 10
970.276
 20
-407.613
 30
0.000000
  70
    32
  0
VERTEX
  8
┌▓È_1
  5
4E5
 10
970.320
 20
-407.623
 30
0.000000
  70
    32
  0
VERTEX
  8
┌▓È_1
  5
4E6
 10
970.365
 20
-407.634
 30
0.000000
  70
    32
  0
VERTEX
  8
┌▓È_1
  5
4E7
 10
970.410
 20
-407.644
 30
0.000000
  70
    32
  0
VERTEX
  8
┌▓È_1
  5
4E8
 10
970.455
 20
-407.655
 30
0.000000
  70
    32
  0
VERTEX
  8
┌▓È_1
  5
4E9
 10
970.500
 20
-407.665
 30
0.000000
  70
    32
  0
VERTEX
  8
┌▓È_1
  5
4EA
 10
970.545
 20
-407.676
 30
0.000000
  70
    32
  0
VERTEX
  8
┌▓È_1
  5
4EB
 10
970.589
 20
-407.686
 30
0.000000
  70
    32
  0
VERTEX
  8
┌▓È_1
  5
4EC
 10
970.634
 20
-407.697
 30
0.000000
  70
    32
  0
VERTEX
  8
┌▓È_1
  5
4ED
 10
970.679
 20
-407.707
 30
0.000000
  70
    32
  0
VERTEX
  8
┌▓È_1
  5
4EE
 10
970.724
 20
-407.717
 30
0.000000
  70
    32
  0
VERTEX
  8
┌▓È_1
  5
4EF
 10
970.769
 20
-407.727
 30
0.000000
  70
    32
  0
VERTEX
  8
┌▓È_1
  5
4F0
 10
970.814
 20
-407.738
 30
0.000000
  70
    32
  0
VERTEX
  8
┌▓È_1
  5
4F1
 10
970.859
 20
-407.748
 30
0.000000
  70
    32
  0
VERTEX
  8
┌▓È_1
  5
4F2
 10
970.904
 20
-407.758
 30
0.000000
  70
    32
  0
VERTEX
  8
┌▓È_1
  5
4F3
 10
970.949
 20
-407.768
 30
0.000000
  70
    32
  0
VERTEX
  8
┌▓È_1
  5
4F4
 10
970.994
 20
-407.778
 30
0.000000
  70
    32
  0
VERTEX
  8
┌▓È_1
  5
4F5
 10
971.039
 20
-407.788
 30
0.000000
  70
    32
  0
VERTEX
  8
┌▓È_1
  5
4F6
 10
971.084
 20
-407.798
 30
0.000000
  70
    32
  0
VERTEX
  8
┌▓È_1
  5
4F7
 10
971.129
 20
-407.809
 30
0.000000
  70
    32
  0
VERTEX
  8
┌▓È_1
  5
4F8
 10
971.174
 20
-407.819
 30
0.000000
  70
    32
  0
VERTEX
  8
┌▓È_1
  5
4F9
 10
971.219
 20
-407.829
 30
0.000000
  70
    32
  0
VERTEX
  8
┌▓È_1
  5
4FA
 10
971.265
 20
-407.838
 30
0.000000
  70
    32
  0
VERTEX
  8
┌▓È_1
  5
4FB
 10
971.310
 20
-407.848
 30
0.000000
  70
    32
  0
VERTEX
  8
┌▓È_1
  5
4FC
 10
971.355
 20
-407.858
 30
0.000000
  70
    32
  0
VERTEX
  8
┌▓È_1
  5
4FD
 10
971.400
 20
-407.868
 30
0.000000
  70
    32
  0
VERTEX
  8
┌▓È_1
  5
4FE
 10
971.445
 20
-407.878
 30
0.000000
  70
    32
  0
VERTEX
  8
┌▓È_1
  5
4FF
 10
971.490
 20
-407.888
 30
0.000000
  70
    32
  0
VERTEX
  8
┌▓È_1
  5
500
 10
971.535
 20
-407.898
 30
0.000000
  70
    32
  0
VERTEX
  8
┌▓È_1
  5
501
 10
971.581
 20
-407.908
 30
0.000000
  70
    32
  0
VERTEX
  8
┌▓È_1
  5
502
 10
971.626
 20
-407.917
 30
0.000000
  70
    32
  0
VERTEX
  8
┌▓È_1
  5
503
 10
971.671
 20
-407.927
 30
0.000000
  70
    32
  0
VERTEX
  8
┌▓È_1
  5
504
 10
971.716
 20
-407.937
 30
0.000000
  70
    32
  0
VERTEX
  8
┌▓È_1
  5
505
 10
971.762
 20
-407.947
 30
0.000000
  70
    32
  0
VERTEX
  8
┌▓È_1
  5
506
 10
971.807
 20
-407.956
 30
0.000000
  70
    32
  0
VERTEX
  8
┌▓È_1
  5
507
 10
971.852
 20
-407.966
 30
0.000000
  70
    32
  0
VERTEX
  8
┌▓È_1
  5
508
 10
971.897
 20
-407.976
 30
0.000000
  70
    32
  0
VERTEX
  8
┌▓È_1
  5
509
 10
971.943
 20
-407.985
 30
0.000000
  70
    32
  0
VERTEX
  8
┌▓È_1
  5
50A
 10
971.988
 20
-407.995
 30
0.000000
  70
    32
  0
VERTEX
  8
┌▓È_1
  5
50B
 10
972.033
 20
-408.005
 30
0.000000
  70
    32
  0
VERTEX
  8
┌▓È_1
  5
50C
 10
972.078
 20
-408.014
 30
0.000000
  70
    32
  0
VERTEX
  8
┌▓È_1
  5
50D
 10
972.124
 20
-408.024
 30
0.000000
  70
    32
  0
VERTEX
  8
┌▓È_1
  5
50E
 10
972.169
 20
-408.034
 30
0.000000
  70
    32
  0
VERTEX
  8
┌▓È_1
  5
50F
 10
972.214
 20
-408.043
 30
0.000000
  70
    32
  0
VERTEX
  8
┌▓È_1
  5
510
 10
972.260
 20
-408.053
 30
0.000000
  70
    32
  0
VERTEX
  8
┌▓È_1
  5
511
 10
972.305
 20
-408.062
 30
0.000000
  70
    32
  0
VERTEX
  8
┌▓È_1
  5
512
 10
972.350
 20
-408.072
 30
0.000000
  70
    32
  0
VERTEX
  8
┌▓È_1
  5
513
 10
972.396
 20
-408.081
 30
0.000000
  70
    32
  0
VERTEX
  8
┌▓È_1
  5
514
 10
972.441
 20
-408.091
 30
0.000000
  70
    32
  0
VERTEX
  8
┌▓È_1
  5
515
 10
972.486
 20
-408.100
 30
0.000000
  70
    32
  0
VERTEX
  8
┌▓È_1
  5
516
 10
972.532
 20
-408.110
 30
0.000000
  70
    32
  0
VERTEX
  8
┌▓È_1
  5
517
 10
972.577
 20
-408.119
 30
0.000000
  70
    32
  0
VERTEX
  8
┌▓È_1
  5
518
 10
972.622
 20
-408.129
 30
0.000000
  70
    32
  0
VERTEX
  8
┌▓È_1
  5
519
 10
972.668
 20
-408.138
 30
0.000000
  70
    32
  0
VERTEX
  8
┌▓È_1
  5
51A
 10
972.713
 20
-408.148
 30
0.000000
  70
    32
  0
VERTEX
  8
┌▓È_1
  5
51B
 10
972.759
 20
-408.157
 30
0.000000
  70
    32
  0
VERTEX
  8
┌▓È_1
  5
51C
 10
972.804
 20
-408.167
 30
0.000000
  70
    32
  0
VERTEX
  8
┌▓È_1
  5
51D
 10
972.849
 20
-408.176
 30
0.000000
  70
    32
  0
VERTEX
  8
┌▓È_1
  5
51E
 10
972.895
 20
-408.186
 30
0.000000
  70
    32
  0
VERTEX
  8
┌▓È_1
  5
51F
 10
972.940
 20
-408.195
 30
0.000000
  70
    32
  0
VERTEX
  8
┌▓È_1
  5
520
 10
972.985
 20
-408.205
 30
0.000000
  70
    32
  0
VERTEX
  8
┌▓È_1
  5
521
 10
973.031
 20
-408.214
 30
0.000000
  70
    32
  0
VERTEX
  8
┌▓È_1
  5
522
 10
973.076
 20
-408.224
 30
0.000000
  70
    32
  0
VERTEX
  8
┌▓È_1
  5
523
 10
973.122
 20
-408.233
 30
0.000000
  70
    32
  0
VERTEX
  8
┌▓È_1
  5
524
 10
973.167
 20
-408.242
 30
0.000000
  70
    32
  0
VERTEX
  8
┌▓È_1
  5
525
 10
973.212
 20
-408.252
 30
0.000000
  70
    32
  0
VERTEX
  8
┌▓È_1
  5
526
 10
973.258
 20
-408.261
 30
0.000000
  70
    32
  0
SEQEND
  8
┌▓È_1
  5
527
  0
POLYLINE
  8
┌▓È_1
  5
528
  62
5
  66
     1
 10
0.000000
 20
0.000000
 30
0.000000
  70
     8
  0
VERTEX
  8
┌▓È_1
  5
529
 10
964.353
 20
-401.682
 30
0.000000
  70
    32
  0
VERTEX
  8
┌▓È_1
  5
52A
 10
964.363
 20
-401.694
 30
0.000000
  70
    32
  0
VERTEX
  8
┌▓È_1
  5
52B
 10
964.374
 20
-401.705
 30
0.000000
  70
    32
  0
VERTEX
  8
┌▓È_1
  5
52C
 10
964.384
 20
-401.717
 30
0.000000
  70
    32
  0
VERTEX
  8
┌▓È_1
  5
52D
 10
964.395
 20
-401.729
 30
0.000000
  70
    32
  0
VERTEX
  8
┌▓È_1
  5
52E
 10
964.406
 20
-401.741
 30
0.000000
  70
    32
  0
VERTEX
  8
┌▓È_1
  5
52F
 10
964.416
 20
-401.752
 30
0.000000
  70
    32
  0
VERTEX
  8
┌▓È_1
  5
530
 10
964.427
 20
-401.764
 30
0.000000
  70
    32
  0
VERTEX
  8
┌▓È_1
  5
531
 10
964.437
 20
-401.776
 30
0.000000
  70
    32
  0
VERTEX
  8
┌▓È_1
  5
532
 10
964.448
 20
-401.788
 30
0.000000
  70
    32
  0
VERTEX
  8
┌▓È_1
  5
533
 10
964.458
 20
-401.800
 30
0.000000
  70
    32
  0
VERTEX
  8
┌▓È_1
  5
534
 10
964.469
 20
-401.811
 30
0.000000
  70
    32
  0
VERTEX
  8
┌▓È_1
  5
535
 10
964.479
 20
-401.823
 30
0.000000
  70
    32
  0
VERTEX
  8
┌▓È_1
  5
536
 10
964.490
 20
-401.835
 30
0.000000
  70
    32
  0
VERTEX
  8
┌▓È_1
  5
537
 10
964.501
 20
-401.847
 30
0.000000
  70
    32
  0
VERTEX
  8
┌▓È_1
  5
538
 10
964.511
 20
-401.858
 30
0.000000
  70
    32
  0
VERTEX
  8
┌▓È_1
  5
539
 10
964.522
 20
-401.870
 30
0.000000
  70
    32
  0
VERTEX
  8
┌▓È_1
  5
53A
 10
964.532
 20
-401.882
 30
0.000000
  70
    32
  0
VERTEX
  8
┌▓È_1
  5
53B
 10
964.543
 20
-401.894
 30
0.000000
  70
    32
  0
VERTEX
  8
┌▓È_1
  5
53C
 10
964.553
 20
-401.905
 30
0.000000
  70
    32
  0
VERTEX
  8
┌▓È_1
  5
53D
 10
964.564
 20
-401.917
 30
0.000000
  70
    32
  0
VERTEX
  8
┌▓È_1
  5
53E
 10
964.575
 20
-401.929
 30
0.000000
  70
    32
  0
VERTEX
  8
┌▓È_1
  5
53F
 10
964.585
 20
-401.941
 30
0.000000
  70
    32
  0
VERTEX
  8
┌▓È_1
  5
540
 10
964.596
 20
-401.952
 30
0.000000
  70
    32
  0
VERTEX
  8
┌▓È_1
  5
541
 10
964.606
 20
-401.964
 30
0.000000
  70
    32
  0
VERTEX
  8
┌▓È_1
  5
542
 10
964.617
 20
-401.976
 30
0.000000
  70
    32
  0
VERTEX
  8
┌▓È_1
  5
543
 10
964.628
 20
-401.987
 30
0.000000
  70
    32
  0
VERTEX
  8
┌▓È_1
  5
544
 10
964.638
 20
-401.999
 30
0.000000
  70
    32
  0
VERTEX
  8
┌▓È_1
  5
545
 10
964.649
 20
-402.011
 30
0.000000
  70
    32
  0
VERTEX
  8
┌▓È_1
  5
546
 10
964.659
 20
-402.023
 30
0.000000
  70
    32
  0
VERTEX
  8
┌▓È_1
  5
547
 10
964.670
 20
-402.034
 30
0.000000
  70
    32
  0
VERTEX
  8
┌▓È_1
  5
548
 10
964.681
 20
-402.046
 30
0.000000
  70
    32
  0
VERTEX
  8
┌▓È_1
  5
549
 10
964.691
 20
-402.058
 30
0.000000
  70
    32
  0
VERTEX
  8
┌▓È_1
  5
54A
 10
964.702
 20
-402.069
 30
0.000000
  70
    32
  0
VERTEX
  8
┌▓È_1
  5
54B
 10
964.712
 20
-402.081
 30
0.000000
  70
    32
  0
VERTEX
  8
┌▓È_1
  5
54C
 10
964.723
 20
-402.093
 30
0.000000
  70
    32
  0
VERTEX
  8
┌▓È_1
  5
54D
 10
964.734
 20
-402.104
 30
0.000000
  70
    32
  0
VERTEX
  8
┌▓È_1
  5
54E
 10
964.744
 20
-402.116
 30
0.000000
  70
    32
  0
VERTEX
  8
┌▓È_1
  5
54F
 10
964.755
 20
-402.128
 30
0.000000
  70
    32
  0
VERTEX
  8
┌▓È_1
  5
550
 10
964.766
 20
-402.139
 30
0.000000
  70
    32
  0
VERTEX
  8
┌▓È_1
  5
551
 10
964.776
 20
-402.151
 30
0.000000
  70
    32
  0
VERTEX
  8
┌▓È_1
  5
552
 10
964.787
 20
-402.163
 30
0.000000
  70
    32
  0
VERTEX
  8
┌▓È_1
  5
553
 10
964.798
 20
-402.174
 30
0.000000
  70
    32
  0
VERTEX
  8
┌▓È_1
  5
554
 10
964.808
 20
-402.186
 30
0.000000
  70
    32
  0
VERTEX
  8
┌▓È_1
  5
555
 10
964.819
 20
-402.197
 30
0.000000
  70
    32
  0
VERTEX
  8
┌▓È_1
  5
556
 10
964.830
 20
-402.209
 30
0.000000
  70
    32
  0
VERTEX
  8
┌▓È_1
  5
557
 10
964.840
 20
-402.221
 30
0.000000
  70
    32
  0
VERTEX
  8
┌▓È_1
  5
558
 10
964.851
 20
-402.232
 30
0.000000
  70
    32
  0
VERTEX
  8
┌▓È_1
  5
559
 10
964.862
 20
-402.244
 30
0.000000
  70
    32
  0
VERTEX
  8
┌▓È_1
  5
55A
 10
964.872
 20
-402.255
 30
0.000000
  70
    32
  0
VERTEX
  8
┌▓È_1
  5
55B
 10
964.883
 20
-402.267
 30
0.000000
  70
    32
  0
VERTEX
  8
┌▓È_1
  5
55C
 10
964.894
 20
-402.278
 30
0.000000
  70
    32
  0
VERTEX
  8
┌▓È_1
  5
55D
 10
964.904
 20
-402.290
 30
0.000000
  70
    32
  0
VERTEX
  8
┌▓È_1
  5
55E
 10
964.915
 20
-402.301
 30
0.000000
  70
    32
  0
VERTEX
  8
┌▓È_1
  5
55F
 10
964.926
 20
-402.313
 30
0.000000
  70
    32
  0
VERTEX
  8
┌▓È_1
  5
560
 10
964.937
 20
-402.324
 30
0.000000
  70
    32
  0
VERTEX
  8
┌▓È_1
  5
561
 10
964.947
 20
-402.336
 30
0.000000
  70
    32
  0
VERTEX
  8
┌▓È_1
  5
562
 10
964.958
 20
-402.347
 30
0.000000
  70
    32
  0
VERTEX
  8
┌▓È_1
  5
563
 10
964.969
 20
-402.359
 30
0.000000
  70
    32
  0
VERTEX
  8
┌▓È_1
  5
564
 10
964.979
 20
-402.370
 30
0.000000
  70
    32
  0
VERTEX
  8
┌▓È_1
  5
565
 10
964.990
 20
-402.382
 30
0.000000
  70
    32
  0
VERTEX
  8
┌▓È_1
  5
566
 10
965.001
 20
-402.393
 30
0.000000
  70
    32
  0
VERTEX
  8
┌▓È_1
  5
567
 10
965.012
 20
-402.405
 30
0.000000
  70
    32
  0
VERTEX
  8
┌▓È_1
  5
568
 10
965.022
 20
-402.416
 30
0.000000
  70
    32
  0
VERTEX
  8
┌▓È_1
  5
569
 10
965.033
 20
-402.428
 30
0.000000
  70
    32
  0
VERTEX
  8
┌▓È_1
  5
56A
 10
965.044
 20
-402.439
 30
0.000000
  70
    32
  0
VERTEX
  8
┌▓È_1
  5
56B
 10
965.055
 20
-402.450
 30
0.000000
  70
    32
  0
VERTEX
  8
┌▓È_1
  5
56C
 10
965.066
 20
-402.462
 30
0.000000
  70
    32
  0
VERTEX
  8
┌▓È_1
  5
56D
 10
965.076
 20
-402.473
 30
0.000000
  70
    32
  0
VERTEX
  8
┌▓È_1
  5
56E
 10
965.087
 20
-402.485
 30
0.000000
  70
    32
  0
VERTEX
  8
┌▓È_1
  5
56F
 10
965.098
 20
-402.496
 30
0.000000
  70
    32
  0
VERTEX
  8
┌▓È_1
  5
570
 10
965.109
 20
-402.507
 30
0.000000
  70
    32
  0
VERTEX
  8
┌▓È_1
  5
571
 10
965.120
 20
-402.519
 30
0.000000
  70
    32
  0
VERTEX
  8
┌▓È_1
  5
572
 10
965.131
 20
-402.530
 30
0.000000
  70
    32
  0
VERTEX
  8
┌▓È_1
  5
573
 10
965.141
 20
-402.541
 30
0.000000
  70
    32
  0
VERTEX
  8
┌▓È_1
  5
574
 10
965.152
 20
-402.552
 30
0.000000
  70
    32
  0
VERTEX
  8
┌▓È_1
  5
575
 10
965.163
 20
-402.564
 30
0.000000
  70
    32
  0
VERTEX
  8
┌▓È_1
  5
576
 10
965.174
 20
-402.575
 30
0.000000
  70
    32
  0
VERTEX
  8
┌▓È_1
  5
577
 10
965.185
 20
-402.586
 30
0.000000
  70
    32
  0
VERTEX
  8
┌▓È_1
  5
578
 10
965.196
 20
-402.597
 30
0.000000
  70
    32
  0
VERTEX
  8
┌▓È_1
  5
579
 10
965.207
 20
-402.609
 30
0.000000
  70
    32
  0
VERTEX
  8
┌▓È_1
  5
57A
 10
965.218
 20
-402.620
 30
0.000000
  70
    32
  0
VERTEX
  8
┌▓È_1
  5
57B
 10
965.229
 20
-402.631
 30
0.000000
  70
    32
  0
VERTEX
  8
┌▓È_1
  5
57C
 10
965.240
 20
-402.642
 30
0.000000
  70
    32
  0
VERTEX
  8
┌▓È_1
  5
57D
 10
965.250
 20
-402.653
 30
0.000000
  70
    32
  0
VERTEX
  8
┌▓È_1
  5
57E
 10
965.261
 20
-402.665
 30
0.000000
  70
    32
  0
VERTEX
  8
┌▓È_1
  5
57F
 10
965.272
 20
-402.676
 30
0.000000
  70
    32
  0
VERTEX
  8
┌▓È_1
  5
580
 10
965.283
 20
-402.687
 30
0.000000
  70
    32
  0
VERTEX
  8
┌▓È_1
  5
581
 10
965.294
 20
-402.698
 30
0.000000
  70
    32
  0
VERTEX
  8
┌▓È_1
  5
582
 10
965.305
 20
-402.709
 30
0.000000
  70
    32
  0
VERTEX
  8
┌▓È_1
  5
583
 10
965.316
 20
-402.720
 30
0.000000
  70
    32
  0
VERTEX
  8
┌▓È_1
  5
584
 10
965.327
 20
-402.731
 30
0.000000
  70
    32
  0
VERTEX
  8
┌▓È_1
  5
585
 10
965.338
 20
-402.742
 30
0.000000
  70
    32
  0
VERTEX
  8
┌▓È_1
  5
586
 10
965.349
 20
-402.753
 30
0.000000
  70
    32
  0
VERTEX
  8
┌▓È_1
  5
587
 10
965.360
 20
-402.764
 30
0.000000
  70
    32
  0
VERTEX
  8
┌▓È_1
  5
588
 10
965.371
 20
-402.775
 30
0.000000
  70
    32
  0
VERTEX
  8
┌▓È_1
  5
589
 10
965.382
 20
-402.786
 30
0.000000
  70
    32
  0
VERTEX
  8
┌▓È_1
  5
58A
 10
965.394
 20
-402.797
 30
0.000000
  70
    32
  0
VERTEX
  8
┌▓È_1
  5
58B
 10
965.405
 20
-402.808
 30
0.000000
  70
    32
  0
VERTEX
  8
┌▓È_1
  5
58C
 10
965.416
 20
-402.819
 30
0.000000
  70
    32
  0
VERTEX
  8
┌▓È_1
  5
58D
 10
965.427
 20
-402.830
 30
0.000000
  70
    32
  0
VERTEX
  8
┌▓È_1
  5
58E
 10
965.438
 20
-402.841
 30
0.000000
  70
    32
  0
VERTEX
  8
┌▓È_1
  5
58F
 10
965.449
 20
-402.852
 30
0.000000
  70
    32
  0
VERTEX
  8
┌▓È_1
  5
590
 10
965.460
 20
-402.862
 30
0.000000
  70
    32
  0
VERTEX
  8
┌▓È_1
  5
591
 10
965.471
 20
-402.873
 30
0.000000
  70
    32
  0
VERTEX
  8
┌▓È_1
  5
592
 10
965.482
 20
-402.884
 30
0.000000
  70
    32
  0
VERTEX
  8
┌▓È_1
  5
593
 10
965.494
 20
-402.895
 30
0.000000
  70
    32
  0
VERTEX
  8
┌▓È_1
  5
594
 10
965.505
 20
-402.906
 30
0.000000
  70
    32
  0
VERTEX
  8
┌▓È_1
  5
595
 10
965.516
 20
-402.916
 30
0.000000
  70
    32
  0
VERTEX
  8
┌▓È_1
  5
596
 10
965.527
 20
-402.927
 30
0.000000
  70
    32
  0
VERTEX
  8
┌▓È_1
  5
597
 10
965.538
 20
-402.938
 30
0.000000
  70
    32
  0
VERTEX
  8
┌▓È_1
  5
598
 10
965.550
 20
-402.949
 30
0.000000
  70
    32
  0
VERTEX
  8
┌▓È_1
  5
599
 10
965.561
 20
-402.959
 30
0.000000
  70
    32
  0
VERTEX
  8
┌▓È_1
  5
59A
 10
965.572
 20
-402.970
 30
0.000000
  70
    32
  0
VERTEX
  8
┌▓È_1
  5
59B
 10
965.583
 20
-402.981
 30
0.000000
  70
    32
  0
VERTEX
  8
┌▓È_1
  5
59C
 10
965.595
 20
-402.991
 30
0.000000
  70
    32
  0
VERTEX
  8
┌▓È_1
  5
59D
 10
965.606
 20
-403.002
 30
0.000000
  70
    32
  0
VERTEX
  8
┌▓È_1
  5
59E
 10
965.617
 20
-403.012
 30
0.000000
  70
    32
  0
VERTEX
  8
┌▓È_1
  5
59F
 10
965.629
 20
-403.023
 30
0.000000
  70
    32
  0
VERTEX
  8
┌▓È_1
  5
5A0
 10
965.640
 20
-403.033
 30
0.000000
  70
    32
  0
VERTEX
  8
┌▓È_1
  5
5A1
 10
965.651
 20
-403.044
 30
0.000000
  70
    32
  0
VERTEX
  8
┌▓È_1
  5
5A2
 10
965.663
 20
-403.055
 30
0.000000
  70
    32
  0
VERTEX
  8
┌▓È_1
  5
5A3
 10
965.674
 20
-403.065
 30
0.000000
  70
    32
  0
VERTEX
  8
┌▓È_1
  5
5A4
 10
965.685
 20
-403.075
 30
0.000000
  70
    32
  0
VERTEX
  8
┌▓È_1
  5
5A5
 10
965.697
 20
-403.086
 30
0.000000
  70
    32
  0
VERTEX
  8
┌▓È_1
  5
5A6
 10
965.708
 20
-403.096
 30
0.000000
  70
    32
  0
VERTEX
  8
┌▓È_1
  5
5A7
 10
965.720
 20
-403.107
 30
0.000000
  70
    32
  0
VERTEX
  8
┌▓È_1
  5
5A8
 10
965.731
 20
-403.117
 30
0.000000
  70
    32
  0
SEQEND
  8
┌▓È_1
  5
5A9
  0
INSERT
  5
D6
  8
┌▓È_1
  6
BORDER
  2
CLUMP12
 10
0.0
 20
0.0
 30
0.0
  0
LINE
  5
DD
  8
┌▓È_1
 62
     5
 10
630.40272310160003
 20
-362.82749099609998
 30
0.0
 11
810.40272310160015
 21
-362.82749099609998
 31
0.0
  0
LINE
  5
DE
  8
┌▓È_1
 62
     5
 10
630.40272310160003
 20
-330.82749099609998
 30
0.0
 11
810.40272310160015
 21
-330.82749099609998
 31
0.0
  0
LINE
  5
DF
  8
┌▓È_1
 62
     5
 10
810.40272310160015
 20
-362.82749099609998
 30
0.0
 11
810.40272310160015
 21
-330.82749099609998
 31
0.0
  0
LINE
  5
E0
  8
┌▓È_1
 62
     5
 10
634.90272310160003
 20
-262.47127354819997
 30
0.0
 11
810.40272310160015
 21
-262.47127354819997
 31
0.0
  0
LINE
  5
E1
  8
┌▓È_1
 62
     5
 10
634.90272310160003
 20
-257.97127354819997
 30
0.0
 11
810.40272310160015
 21
-257.97127354819997
 31
0.0
  0
LINE
  5
E2
  8
┌▓È_1
 62
     5
 10
810.40272310160015
 20
-262.47127354819997
 30
0.0
 11
810.40272310160015
 21
-257.97127354819997
 31
0.0
  0
INSERT
  5
E4
  8
┌▓È_1
  6
BORDER
  2
CLUMP13
 10
0.0
 20
0.0
 30
0.0
  0
LINE
  5
EB
  8
┌▓È_1
 62
     5
 10
903.35835143309987
 20
-82.471273548199989
 30
0.0
 11
871.35835143309998
 21
-82.471273548199989
 31
0.0
  0
LINE
  5
EC
  8
┌▓È_1
 62
     5
 10
871.35835143309998
 20
-262.47127354819997
 30
0.0
 11
871.35835143309998
 21
-82.471273548199989
 31
0.0
  0
LINE
  5
ED
  8
┌▓È_1
 62
     5
 10
903.35835143309987
 20
-262.47127354819997
 30
0.0
 11
903.35835143309987
 21
-82.471273548199989
 31
0.0
  0
LINE
  5
EE
  8
┌▓È_1
  6
STITCH
 10
633.15272310160003
 20
-96.971273548200003
 30
0.0
 11
634.90272310160003
 21
-98.721273548200017
 31
0.0
  0
LINE
  5
EF
  8
┌▓È_1
 62
     5
 10
948.20086044530001
 20
-400.2613545511
 30
0.0
 11
945.00086044529996
 21
-400.2613545511
 31
0.0
  0
LINE
  5
F0
  8
┌▓È_1
 62
     5
 10
947.40086044529994
 20
-397.06135455110001
 30
0.0
 11
941.00086044529985
 21
-397.06135455110001
 31
0.0
  0
LINE
  5
F1
  8
┌▓È_1
 62
     5
 10
945.00086044529996
 20
-399.46135455109999
 30
0.0
 11
947.40086044529994
 21
-397.06135455110001
 31
0.0
  0
LINE
  5
F2
  8
┌▓È_1
 62
     5
 10
941.00086044529985
 20
-397.06135455110001
 30
0.0
 11
941.00086044529985
 21
-400.2613545511
 31
0.0
  0
LINE
  5
F3
  8
┌▓È_1
 62
     5
 10
980.80366904619984
 20
-399.78135455109998
 30
0.0
 11
980.00580237949987
 21
-397.06135455110001
 31
0.0
  0
INSERT
  5
F4
  8
0
  6
CONTINUOUS
  2
*U44
 10
0.0
 20
0.0
 30
0.0
  0
INSERT
  5
F5
  8
0
  6
CONTINUOUS
  2
*U45
 10
0.0
 20
0.0
 30
0.0
  0
INSERT
  5
F6
  8
0
  6
CONTINUOUS
  2
*U46
 10
0.0
 20
0.0
 30
0.0
  0
INSERT
  5
F7
  8
0
  6
CONTINUOUS
  2
*U47
 10
0.0
 20
0.0
 30
0.0
  0
ARC
  5
F8
  8
┌▓È_1
 62
     5
 10
960.77783014229999
 20
-399.78135455109998
 30
0.0
 40
6.0800000000000001
 50
270.0
 51
298.08590481520002
  0
INSERT
  5
F9
  8
0
  6
CONTINUOUS
  2
*U48
 10
0.0
 20
0.0
 30
0.0
  0
INSERT
  5
FA
  8
0
  6
CONTINUOUS
  2
*U49
 10
0.0
 20
0.0
 30
0.0
  0
INSERT
  5
FB
  8
0
  6
CONTINUOUS
  2
*U50
 10
0.0
 20
0.0
 30
0.0
  0
INSERT
  5
FC
  8
0
  6
CONTINUOUS
  2
*U51
 10
0.0
 20
0.0
 30
0.0
  0
INSERT
  5
FD
  8
0
  6
CONTINUOUS
  2
*U52
 10
0.0
 20
0.0
 30
0.0
  0
INSERT
  5
FE
  8
0
  6
CONTINUOUS
  2
*U53
 10
0.0
 20
0.0
 30
0.0
  0
INSERT
  5
FF
  8
0
  6
CONTINUOUS
  2
*U54
 10
0.0
 20
0.0
 30
0.0
  0
INSERT
  5
100
  8
0
  6
CONTINUOUS
  2
*U55
 10
0.0
 20
0.0
 30
0.0
  0
INSERT
  5
101
  8
0
  6
CONTINUOUS
  2
*U56
 10
0.0
 20
0.0
 30
0.0
  0
LINE
  5
102
  8
┌▓È_1
 10
940.60645771330007
 20
-385.81763129809991
 30
0.0
 11
964.60645771330007
 21
-385.81763129809991
 31
0.0
  0
LINE
  5
103
  8
┌▓È_1
 10
940.60645771330007
 20
-368.81763129810003
 30
0.0
 11
964.60645771330007
 21
-368.81763129810003
 31
0.0
  0
LINE
  5
104
  8
┌▓È_1
 10
876.60645771330007
 20
-385.81763129809991
 30
0.0
 11
932.60645771330007
 21
-385.81763129809991
 31
0.0
  0
LINE
  5
105
  8
┌▓È_1
 10
908.60645771330007
 20
-368.81763129810003
 30
0.0
 11
932.60645771330007
 21
-368.81763129810003
 31
0.0
  0
LINE
  5
106
  8
┌▓È_1
 10
876.60645771330007
 20
-368.81763129810003
 30
0.0
 11
900.60645771330007
 21
-368.81763129810003
 31
0.0
  0
LINE
  5
107
  8
┌▓È_1
 10
936.60645771329996
 20
-360.31763129810003
 30
0.0
 11
936.60645771329996
 21
-394.31763129810003
 31
0.0
  0
LINE
  5
108
  8
┌▓È_1
 62
     5
 10
945.00086044529996
 20
-402.66135455109998
 30
0.0
 11
948.20086044530001
 21
-402.66135455109998
 31
0.0
  0
LINE
  5
109
  8
┌▓È_1
 62
     5
 10
988.00580237949987
 20
-409.06135455110001
 30
0.0
 11
987.3612093032001
 21
-406.8213545511
 31
0.0
  0
LINE
  5
10A
  8
┌▓È_1
 62
     5
 10
986.53244677660007
 20
-403.94135455110001
 30
0.0
 11
991.20580237949991
 21
-403.94135455110001
 31
0.0
  0
ARC
  5
10B
  8
┌▓È_1
 62
     5
 10
962.85783014229992
 20
-399.46135455109999
 30
0.0
 40
8.8000000000000007
 50
322.48761197969998
 51
0.0
  0
LINE
  5
10C
  8
┌▓È_1
 62
     5
 10
976.80580237949994
 20
-406.8213545511
 30
0.0
 11
982.8687357128
 21
-406.8213545511
 31
0.0
  0
LINE
  5
10D
  8
┌▓È_1
 62
     5
 10
945.00086044529996
 20
-400.2613545511
 30
0.0
 11
945.00086044529996
 21
-399.46135455109999
 31
0.0
  0
LINE
  5
10E
  8
┌▓È_1
 62
     5
 10
958.8578301422998
 20
-408.2613545511
 30
0.0
 11
958.8578301422998
 21
-405.86135455110002
 31
0.0
  0
LINE
  5
10F
  8
┌▓È_1
 62
     5
 10
941.00086044529985
 20
-400.2613545511
 30
0.0
 11
939.15909434679986
 21
-400.2613545511
 31
0.0
  0
LINE
  5
110
  8
┌▓È_1
 62
     5
 10
991.20580237949991
 20
-403.94135455110001
 30
0.0
 11
991.20580237949991
 21
-406.8213545511
 31
0.0
  0
LINE
  5
111
  8
┌▓È_1
 62
     5
 10
982.02393571280004
 20
-403.94135455110001
 30
0.0
 11
981.64846904619992
 21
-402.66135455109998
 31
0.0
  0
LINE
  5
112
  8
┌▓È_1
 62
     5
 10
941.00086044529985
 20
-402.66135455109998
 30
0.0
 11
940.75909434679988
 21
-402.66135455109998
 31
0.0
  0
LINE
  5
113
  8
┌▓È_1
 62
     5
 10
941.00086044529985
 20
-405.86135455110002
 30
0.0
 11
941.00086044529985
 21
-408.2613545511
 31
0.0
  0
LINE
  5
114
  8
┌▓È_1
 62
     5
 10
986.53244677660007
 20
-403.94135455110001
 30
0.0
 11
986.16410787579991
 21
-402.66135455109998
 31
0.0
  0
LINE
  5
115
  8
┌▓È_1
 62
     5
 10
983.52580237949985
 20
-409.06135455110001
 30
0.0
 11
982.8687357128
 21
-406.8213545511
 31
0.0
  0
LINE
  5
116
  8
┌▓È_1
 62
     5
 10
945.80086044530003
 20
-405.86135455110002
 30
0.0
 11
941.00086044529985
 21
-405.86135455110002
 31
0.0
  0
LINE
  5
117
  8
┌▓È_1
 62
     5
 10
958.8578301422998
 20
-399.94135455110001
 30
0.0
 11
966.8578301422998
 21
-399.94135455110001
 31
0.0
  0
LINE
  5
118
  8
┌▓È_1
 62
     5
 10
991.20580237949991
 20
-399.78135455109998
 30
0.0
 11
991.20580237949991
 21
-402.66135455109998
 31
0.0
  0
LINE
  5
119
  8
┌▓È_1
 62
     5
 10
976.80580237949994
 20
-402.66135455109998
 30
0.0
 11
981.64846904619992
 21
-402.66135455109998
 31
0.0
  0
LINE
  5
11A
  8
┌▓È_1
 62
     5
 10
976.80580237949994
 20
-403.94135455110001
 30
0.0
 11
976.80580237949994
 21
-406.8213545511
 31
0.0
  0
LINE
  5
11B
  8
┌▓È_1
 62
     5
 10
945.00086044529996
 20
-405.06135455110001
 30
0.0
 11
945.00086044529996
 21
-402.66135455109998
 31
0.0
  0
LINE
  5
11C
  8
┌▓È_1
 62
     5
 10
987.3612093032001
 20
-406.8213545511
 30
0.0
 11
991.20580237949991
 21
-406.8213545511
 31
0.0
  0
LINE
  5
11D
  8
┌▓È_1
 62
     5
 10
954.60086044529999
 20
-397.06135455110001
 30
0.0
 11
948.20086044530001
 21
-397.06135455110001
 31
0.0
  0
LINE
  5
11E
  8
┌▓È_1
 62
     5
 10
958.8578301422998
 20
-397.06135455110001
 30
0.0
 11
958.8578301422998
 21
-399.94135455110001
 31
0.0
  0
ARC
  5
11F
  8
┌▓È_1
 62
     5
 10
947.40086044529994
 20
-403.46135455109999
 30
0.0
 40
4.7999999999999989
 50
270.0
 51
0.0
  0
LINE
  5
120
  8
┌▓È_1
 62
     5
 10
985.10111454879996
 20
-398.9673883262999
 30
0.0
 11
986.40580237949985
 21
-397.06135455110001
 31
0.0
  0
LINE
  5
121
  8
┌▓È_1
 62
     5
 10
976.80580237949994
 20
-399.78135455109998
 30
0.0
 11
976.80580237949994
 21
-402.66135455109998
 31
0.0
  0
LINE
  5
122
  8
┌▓È_1
 10
968.60645771329996
 20
-360.31763129810003
 30
0.0
 11
968.60645771329996
 21
-394.31763129810003
 31
0.0
  0
LINE
  5
123
  8
┌▓È_1
 10
904.60645771329996
 20
-360.31763129810003
 30
0.0
 11
904.60645771329996
 21
-377.31763129810003
 31
0.0
  0
LINE
  5
124
  8
┌▓È_1
 10
1000.6064577133
 20
-360.31763129810003
 30
0.0
 11
1000.6064577133
 21
-411.31763129809991
 31
0.0
  0
LINE
  5
125
  8
┌▓È_1
 10
872.60645771329996
 20
-360.31763129810003
 30
0.0
 11
872.60645771329996
 21
-411.31763129809991
 31
0.0
  0
LINE
  5
126
  8
┌▓È_1
 62
     5
 10
985.33534534919988
 20
-399.78135455109998
 30
0.0
 11
991.20580237949991
 21
-399.78135455109998
 31
0.0
  0
INSERT
  5
127
  8
0
  6
CONTINUOUS
  2
*U57
 10
0.0
 20
0.0
 30
0.0
  0
LINE
  5
128
  8
┌▓È_1
 62
     5
 10
941.00086044529985
 20
-402.66135455109998
 30
0.0
 11
941.00086044529985
 21
-405.06135455110001
 31
0.0
  0
LINE
  5
129
  8
┌▓È_1
 62
     5
 10
969.83818110560003
 20
-404.81996448539991
 30
0.0
 11
969.55321780990005
 21
-405.0989695161
 31
0.0
  0
INSERT
  5
12A
  8
0
  6
CONTINUOUS
  2
*U58
 10
0.0
 20
0.0
 30
0.0
  0
LINE
  5
12B
  8
┌▓È_1
 62
     5
 10
958.8578301422998
 20
-405.86135455110002
 30
0.0
 11
958.8578301422998
 21
-408.2613545511
 31
0.0
  0
LINE
  5
12C
  8
┌▓È_1
 62
     5
 10
958.8578301422998
 20
-405.86135455110002
 30
0.0
 11
960.77783014229999
 21
-405.86135455110002
 31
0.0
  0
LINE
  5
12D
  8
┌▓È_1
 62
     5
 10
980.00580237949987
 20
-397.06135455110001
 30
0.0
 11
986.40580237949985
 21
-397.06135455110001
 31
0.0
  0
LINE
  5
12E
  8
┌▓È_1
 62
     5
 10
971.65783014229999
 20
-399.46135455109999
 30
0.0
 11
973.25783014230001
 21
-397.06135455110001
 31
0.0
  0
LINE
  5
12F
  8
┌▓È_1
 62
     5
 10
941.00086044529985
 20
-408.2613545511
 30
0.0
 11
947.40086044529994
 21
-408.2613545511
 31
0.0
  0
LINE
  5
130
  8
┌▓È_1
 62
     5
 10
958.8578301422998
 20
-408.2613545511
 30
0.0
 11
962.85783014229992
 21
-408.2613545511
 31
0.0
  0
ARC
  5
131
  8
┌▓È_1
 62
     5
 10
960.77783014229999
 20
-399.78135455109998
 30
0.0
 40
6.0800000000000001
 50
331.39928138329998
 51
358.49204224580001
  0
LINE
  5
132
  8
┌▓È_1
 62
     5
 10
952.20086044530012
 20
-402.66135455109998
 30
0.0
 11
954.60086044529999
 21
-402.66135455109998
 31
0.0
  0
ARC
  5
133
  8
┌▓È_1
 62
     5
 10
962.85783014229992
 20
-399.46135455109999
 30
0.0
 40
8.8000000000000007
 50
270.0
 51
302.54495885400001
  0
LINE
  5
134
  8
┌▓È_1
 62
     5
 10
939.15909434679986
 20
-402.66135455109998
 30
0.0
 11
940.75909434679988
 21
-402.66135455109998
 31
0.0
  0
LINE
  5
135
  8
┌▓È_1
 62
     5
 10
976.80580237949994
 20
-403.94135455110001
 30
0.0
 11
982.02393571280004
 21
-403.94135455110001
 31
0.0
  0
LINE
  5
136
  8
┌▓È_1
 62
     5
 10
954.60086044529999
 20
-400.2613545511
 30
0.0
 11
952.20086044530012
 21
-400.2613545511
 31
0.0
  0
LINE
  5
137
  8
┌▓È_1
 62
     5
 10
952.20086044530012
 20
-400.2613545511
 30
0.0
 11
952.20086044530012
 21
-399.46135455109999
 31
0.0
  0
LINE
  5
138
  8
┌▓È_1
 62
     5
 10
976.80580237949994
 20
-399.78135455109998
 30
0.0
 11
980.80366904619984
 21
-399.78135455109998
 31
0.0
  0
LINE
  5
139
  8
┌▓È_1
 62
     5
 10
948.20086044530001
 20
-402.66135455109998
 30
0.0
 11
948.20086044530001
 21
-403.46135455109999
 31
0.0
  0
DIMENSION
  5
149
  8
Éíû@É³
  2
*D15
 10
753.21993997469997
 20
-362.82749099609998
 30
0.0
 11
753.21993997469997
 21
-357.32749099609998
 31
0.0
 70
   128
  1
<>
 13
735.40272310160003
 23
-362.82749099609998
 33
0.0
 14
735.40272310160003
 24
-351.82749099609998
 34
0.0
 50
90.0
  0
DIMENSION
  5
158
  8
Éíû@É³
  2
*D16
 10
729.40272310160003
 20
-313.13032646059997
 30
0.0
 11
694.90272310160003
 21
-313.13032646059997
 31
0.0
 70
   128
  1
<>
 13
729.40272310160003
 23
-345.82749099609998
 33
0.0
 14
660.40272310160003
 24
-335.82749099609998
 34
0.0
  0
DIMENSION
  5
167
  8
Éíû@É³
  2
*D17
 10
703.05024914320006
 20
-341.82749099609998
 30
0.0
 11
703.05024914320006
 21
-346.82749099609998
 31
0.0
 70
   128
  1
<>
 13
666.40272310160003
 23
-341.82749099609998
 33
0.0
 14
725.15272310160003
 24
-351.82749099609998
 34
0.0
 50
90.0
  0
DIMENSION
  5
176
  8
Éíû@É³
  2
*D18
 10
887.35835143309998
 20
-64.654056675000007
 30
0.0
 11
860.21056497469999
 21
-64.654056675000007
 31
0.0
 70
   128
  1
<>
 13
887.35835143309998
 23
-88.471273548200017
 33
0.0
 14
871.35835143309998
 24
-82.471273548199989
 34
0.0
  0
DIMENSION
  5
185
  8
Éíû@É³
  2
*D19
 10
903.35835143309987
 20
-64.654056675000007
 30
0.0
 11
911.77329283929976
 21
-64.654056675000007
 31
0.0
 70
   128
  1
<>
 13
903.35835143309987
 23
-82.471273548199989
 33
0.0
 14
887.35835143309998
 24
-88.471273548200017
 34
0.0
  0
INSERT
  5
186
  8
0
  6
CONTINUOUS
  2
*U59
 10
0.0
 20
0.0
 30
0.0
  0
LINE
  5
187
  8
┌▓È_1
 62
     5
 10
985.33534534919988
 20
-399.78135455109998
 30
0.0
 11
985.10111454879996
 21
-398.9673883262999
 31
0.0
  0
LINE
  5
188
  8
┌▓È_1
 62
     5
 10
973.25783014230001
 20
-397.06135455110001
 30
0.0
 11
958.8578301422998
 21
-397.06135455110001
 31
0.0
  0
LINE
  5
189
  8
┌▓È_1
 62
     5
 10
941.00086044529985
 20
-405.06135455110001
 30
0.0
 11
945.00086044529996
 21
-405.06135455110001
 31
0.0
  0
LINE
  5
18A
  8
┌▓È_1
 62
     5
 10
952.20086044530012
 20
-399.46135455109999
 30
0.0
 11
954.60086044529999
 21
-397.06135455110001
 31
0.0
  0
LINE
  5
18B
  8
┌▓È_1
 10
872.60645771329996
 20
-394.31763129810003
 30
0.0
 11
1112.6064577133
 21
-394.31763129810003
 31
0.0
  0
LINE
  5
18C
  8
┌▓È_1
 10
872.60645771329996
 20
-360.31763129810003
 30
0.0
 11
1112.6064577133
 21
-360.31763129810003
 31
0.0
  0
INSERT
  5
18D
  8
0
  6
CONTINUOUS
  2
*U60
 10
0.0
 20
0.0
 30
0.0
  0
LINE
  5
18E
  8
┌▓È_1
 62
     5
 10
1112.6064577133
 20
-411.31763129809991
 30
0.0
 11
1112.6064577133
 21
-31.3176312981
 31
0.0
  0
LINE
  5
18F
  8
┌▓È_1
 62
     5
 10
562.60645771329996
 20
-411.31763129809991
 30
0.0
 11
1112.6064577133
 21
-411.31763129809991
 31
0.0
  0
LINE
  5
190
  8
┌▓È_1
 62
     5
 10
562.60645771329996
 20
-31.3176312981
 30
0.0
 11
1112.6064577133
 21
-31.3176312981
 31
0.0
  0
LINE
  5
191
  8
┌▓È_1
 10
1000.6064577133
 20
-377.31763129810003
 30
0.0
 11
1112.6064577133
 21
-377.31763129810003
 31
0.0
  0
LINE
  5
192
  8
┌▓È_1
 62
     5
 10
562.60645771329996
 20
-411.31763129809991
 30
0.0
 11
562.60645771329996
 21
-31.3176312981
 31
0.0
  0
LINE
  5
193
  8
┌▓È_1
 62
     5
 10
971.65783014229999
 20
-399.46135455109999
 30
0.0
 11
973.25783014230001
 21
-397.06135455110001
 31
0.0
  0
LINE
  5
194
  8
┌▓È_1
 62
     5
 10
986.16410787579991
 20
-402.66135455109998
 30
0.0
 11
991.20580237949991
 21
-402.66135455109998
 31
0.0
  0
LINE
  5
195
  8
┌▓È_1
 62
     5
 10
948.20086044530001
 20
-397.06135455110001
 30
0.0
 11
948.20086044530001
 21
-400.2613545511
 31
0.0
  0
ARC
  5
196
  8
┌▓È_1
 62
     5
 10
945.80086044530003
 20
-403.46135455109999
 30
0.0
 40
2.399999999999999
 50
270.0
 51
0.0
  0
LINE
  5
197
  8
┌▓È_1
 62
     5
 10
966.11593012899982
 20
-402.69186799929997
 30
0.0
 11
965.73097683880007
 21
-403.1170493761
 31
0.0
  0
LINE
  5
198
  8
┌▓È_1
 62
     5
 10
958.8578301422998
 20
-400.77673097899998
 30
0.0
 11
965.25783014230001
 21
-400.77673097899998
 31
0.0
  0
LINE
  5
199
  8
┌▓È_1
 62
     5
 10
952.20086044530012
 20
-403.46135455109999
 30
0.0
 11
952.20086044530012
 21
-402.66135455109998
 31
0.0
  0
DIMENSION
  5
1A8
  8
Éíû@É³
  2
*D20
 10
832.79363207170002
 20
-346.82749099609998
 30
0.0
 11
832.79363207170002
 21
-317.78077907440002
 31
0.0
 70
   128
  1
<>
 13
804.40272310160003
 23
-346.82749099609998
 33
0.0
 14
810.40272310160015
 24
-330.82749099609998
 34
0.0
 50
90.0
  0
DIMENSION
  5
1B7
  8
Éíû@É³
  2
*D21
 10
832.79363207170002
 20
-362.82749099609998
 30
0.0
 11
832.79363207170002
 21
-373.97452850219997
 31
0.0
 70
   128
  1
<>
 13
810.40272310160015
 23
-362.82749099609998
 33
0.0
 14
804.40272310160003
 24
-346.82749099609998
 34
0.0
 50
90.0
  0
LINE
  5
1B8
  8
┌▓È_1
 10
960.81528820569997
 20
-235.1168069272
 30
0.0
 11
1015.6129058442
 21
-235.1168069272
 31
0.0
  0
INSERT
  5
1B9
  8
0
  6
CONTINUOUS
  2
*U61
 10
0.0
 20
0.0
 30
0.0
  0
DIMENSION
  5
1C8
  8
Éíû@É³
  2
*D22
 10
634.90272310160003
 20
-58.037679798199989
 30
0.0
 11
647.83383157629987
 21
-58.037679798199989
 31
0.0
 70
   128
  1
<>t
 13
634.90272310160003
 23
-82.471273548199989
 33
0.0
 14
630.40272310160003
 24
-82.471273548199989
 34
0.0
  0
DIMENSION
  5
1D7
  8
Éíû@É³
  2
*D23
 10
853.66261893490002
 20
-232.4712735482
 30
0.0
 11
853.66261893490002
 21
-247.4712735482
 31
0.0
 70
   128
  1
<>
 13
886.35835143309987
 23
-232.4712735482
 33
0.0
 14
871.35835143309998
 24
-262.47127354819997
 34
0.0
 50
90.0
  0
DIMENSION
  5
1E6
  8
Éíû@É³
  2
*D24
 10
853.66261931639997
 20
-82.471273548199989
 30
0.0
 11
853.66261931639997
 21
-88.471273548200017
 31
0.0
 70
   128
  1
<>
 13
871.35835143309998
 23
-82.471273548199989
 33
0.0
 14
881.35835143309998
 24
-94.471273548200003
 34
0.0
 50
90.0
  0
DIMENSION
  5
1F5
  8
Éíû@É³
  2
*D25
 10
998.23273612240007
 20
-138.46991948499999
 30
0.0
 11
985.73273612240007
 21
-138.46991948499999
 31
0.0
 70
   128
  1
%%c5
 13
998.23273612240007
 23
-164.90696578129999
 33
0.0
 14
973.23273612240007
 24
-164.90696578129999
 34
0.0
  0
DIMENSION
  5
204
  8
Éíû@É³
  2
*D26
 10
964.48273612240007
 20
-197.06366948499999
 30
0.0
 11
985.73273612240007
 21
-197.06366948499999
 31
0.0
 70
   128
  1
%%c8.5
 13
964.48273612240007
 23
-178.65696578129999
 33
0.0
 14
1006.9827361224
 24
-178.65696578129999
 34
0.0
 50
180.0
  0
DIMENSION
  5
213
  8
Éíû@É³
  2
*D27
 10
1006.9827361224
 20
-122.9899840105
 30
0.0
 11
985.73273612240007
 21
-122.9899840105
 31
0.0
 70
   128
  1
%%c8.5
 13
1006.9827361224
 23
-156.15696578129999
 33
0.0
 14
964.48273612240007
 24
-156.15696578129999
 34
0.0
  0
DIMENSION
  5
222
  8
Éíû@É³
  2
*D28
 10
903.35835143309987
 20
-212.29012120440001
 30
0.0
 11
897.85835143309987
 21
-212.29012120440001
 31
0.0
 70
   128
  1
<>
 13
903.35835143309987
 23
-226.4712735482
 33
0.0
 14
892.35835143309987
 24
-226.4712735482
 34
0.0
  0
DIMENSION
  5
231
  8
Éíû@É³
  2
*D29
 10
612.58550622839994
 20
-82.471273548199989
 30
0.0
 11
612.58550622839994
 21
-172.4712735482
 31
0.0
 70
   128
  1
<>
 13
630.40272310160003
 23
-82.471273548199989
 33
0.0
 14
634.90272310160003
 24
-262.47127354819997
 34
0.0
 50
90.0
  0
DIMENSION
  5
240
  8
Éíû@É³
  2
*D30
 10
630.40272310160003
 20
-280.28849042140001
 30
0.0
 11
720.40272310160003
 21
-280.28849042140001
 31
0.0
 70
   128
  1
<>
 13
630.40272310160003
 23
-257.97127354819997
 33
0.0
 14
810.40272310160015
 24
-262.47127354819997
 34
0.0
 50
180.0
  0
DIMENSION
  5
24F
  8
Éíû@É³
  2
*D31
 10
853.66261931639997
 20
-94.471273548200003
 30
0.0
 11
853.66261931639997
 21
-128.9712735482
 31
0.0
 70
   128
  1
<>
 13
881.35835143309998
 23
-94.471273548200003
 33
0.0
 14
876.35835143309987
 24
-163.4712735482
 34
0.0
 50
90.0
  0
DIMENSION
  5
25E
  8
Éíû@É³
  2
*D32
 10
853.66261931639997
 20
-163.4712735482
 30
0.0
 11
853.66261931639997
 21
-197.9712735482
 31
0.0
 70
   128
  1
<>
 13
876.35835143309987
 23
-163.4712735482
 33
0.0
 14
886.35835143309987
 24
-232.4712735482
 34
0.0
 50
90.0
  0
DIMENSION
  5
26D
  8
Éíû@É³
  2
*D33
 10
882.35835143309998
 20
-143.89552802919999
 30
0.0
 11
876.85835143309998
 21
-143.89552802919999
 31
0.0
 70
   128
  1
<>
 13
882.35835143309998
 23
-157.4712735482
 33
0.0
 14
871.35835143309998
 24
-154.72941156900001
 34
0.0
  0
DIMENSION
  5
27C
  8
Éíû@É³
  2
*D34
 10
892.35835143309987
 20
-187.37856521489999
 30
0.0
 11
888.35835167149992
 21
-187.37856521489999
 31
0.0
 70
   128
  1
<>
 13
892.35835143309987
 23
-228.2212735482
 33
0.0
 14
882.35835143309998
 24
-169.4712735482
 34
0.0
  0
DIMENSION
  5
28B
  8
Éíû@É³
  2
*D35
 10
810.40272310160015
 20
-313.0102741229
 30
0.0
 11
804.40272310160003
 21
-313.0102741229
 31
0.0
 70
   128
  1
<>
 13
810.40272310160015
 23
-330.82749099609998
 33
0.0
 14
798.40272310160003
 24
-340.82749099609998
 34
0.0
  0
DIMENSION
  5
299
  8
Éíû@É³
  2
*D62
 10
971.31798700650029
 20
-211.20354186019611
 30
0.0
 11
985.73273612240007
 21
-213.10127958339999
 31
0.0
 70
   133
  1
<>
 13
1007.5130662083
 23
-179.18729586719999
 33
0.0
 14
963.95240603649995
 24
-179.18729586719999
 34
0.0
 15
985.73273612240007
 25
-157.40696578129999
 35
0.0
1001
ACAD
1000
DSTYLE
1002
{
1070
   271
1070
     0
1002
}
  0
DIMENSION
  5
2A6
  8
Éíû@É³
  2
*D63
 10
1003.408678860668
 20
-111.43944941040481
 30
0.0
 11
985.73273612240007
 21
-109.1123674017
 31
0.0
 70
   133
  1
<>
 13
963.95240603649995
 23
-155.62663569540001
 33
0.0
 14
1007.5130662083
 24
-155.62663569540001
 34
0.0
 15
985.73273612240007
 25
-177.40696578129999
 35
0.0
1001
ACAD
1000
DSTYLE
1002
{
1070
   271
1070
     0
1002
}
  0
DIMENSION
  5
2B3
  8
Éíû@É³
  2
*D64
 10
692.17178445320951
 20
-224.9069655606111
 30
0.0
 11
680.67829052460002
 21
-210.2471572348
 31
0.0
 70
   133
  1
<>
 13
634.90272310160003
 23
-82.471273548199989
 33
0.0
 14
810.40272310160015
 24
-257.97127354819997
 34
0.0
 15
634.90272310160003
 25
-257.97127354819997
 35
0.0
1001
ACAD
1000
DSTYLE
1002
{
1070
   271
1070
     0
1002
}
  0
DIMENSION
  5
2C2
  8
Éíû@É³
  2
*D39
 10
683.133358681
 20
-341.82749099609998
 30
0.0
 11
683.133358681
 21
-336.32749099609998
 31
0.0
 70
   128
  1
<>
 13
666.40272310160003
 23
-341.82749099609998
 33
0.0
 14
671.09895112890001
 24
-330.82749099609998
 34
0.0
 50
90.0
  0
DIMENSION
  5
2D1
  8
Éíû@É³
  2
*D40
 10
611.62749523699995
 20
-330.82749099609998
 30
0.0
 11
611.62749523699995
 21
-346.82749099609998
 31
0.0
 70
   128
  1
<>
 13
630.40272310160003
 23
-330.82749099609998
 33
0.0
 14
630.40272310160003
 24
-362.82749099609998
 34
0.0
 50
90.0
  0
DIMENSION
  5
2E0
  8
Éíû@É³
  2
*D41
 10
660.40272310160003
 20
-313.0102741229
 30
0.0
 11
645.40272310160003
 21
-313.0102741229
 31
0.0
 70
   128
  1
<>
 13
660.40272310160003
 23
-335.82749099609998
 33
0.0
 14
630.40272310160003
 24
-330.82749099609998
 34
0.0
  0
DIMENSION
  5
2EF
  8
Éíû@É³
  2
*D42
 10
798.40272310160003
 20
-313.2018749225
 30
0.0
 11
763.90272310160003
 21
-313.2018749225
 31
0.0
 70
   128
  1
<>
 13
798.40272310160003
 23
-340.82749099609998
 33
0.0
 14
729.40272310160003
 24
-345.82749099609998
 34
0.0
  0
ENDSEC
  0
EOF
