  0
SECTION
  2
HEADER
  9
$ACADVER
  1
AC1009
  9
$INSBASE
 10
0.0
 20
0.0
 30
0.0
  9
$EXTMIN
 10
768.47974034239996
 20
-268.8595057485
 30
0.0
  9
$EXTMAX
 10
905.97974034240008
 20
-173.8595057485
 30
0.0
  9
$LIMMIN
 10
0.0
 20
0.0
  9
$LIMMAX
 10
0.0
 20
0.0
  9
$ORTHOMODE
 70
     0
  9
$REGENMODE
 70
     1
  9
$FILLMODE
 70
     1
  9
$QTEXTMODE
 70
     0
  9
$MIRRTEXT
 70
     1
  9
$DRAGMODE
 70
     2
  9
$LTSCALE
 40
1.0
  9
$OSMODE
 70
    31
  9
$ATTMODE
 70
     1
  9
$TEXTSIZE
 40
0.0
  9
$TRACEWID
 40
0.05
  9
$TEXTSTYLE
  7
STANDARD
  9
$CLAYER
  8
0
  9
$CELTYPE
  6
CONTINUOUS
  9
$CECOLOR
 62
   256
  9
$DIMSCALE
 40
1.0
  9
$DIMASZ
 40
0.18
  9
$DIMEXO
 40
0.0625
  9
$DIMDLI
 40
0.38
  9
$DIMRND
 40
0.0
  9
$DIMDLE
 40
0.0
  9
$DIMEXE
 40
0.18
  9
$DIMTP
 40
0.0
  9
$DIMTM
 40
0.0
  9
$DIMTXT
 40
0.18
  9
$DIMCEN
 40
0.09
  9
$DIMTSZ
 40
0.0
  9
$DIMTOL
 70
     0
  9
$DIMLIM
 70
     0
  9
$DIMTIH
 70
     1
  9
$DIMTOH
 70
     1
  9
$DIMSE1
 70
     0
  9
$DIMSE2
 70
     0
  9
$DIMTAD
 70
     0
  9
$DIMZIN
 70
     0
  9
$DIMBLK
  1

  9
$DIMASO
 70
     1
  9
$DIMSHO
 70
     1
  9
$DIMPOST
  1

  9
$DIMAPOST
  1

  9
$DIMALT
 70
     0
  9
$DIMALTD
 70
     2
  9
$DIMALTF
 40
25.399999999999999
  9
$DIMLFAC
 40
1.0
  9
$DIMTOFL
 70
     0
  9
$DIMTVP
 40
0.0
  9
$DIMTIX
 70
     0
  9
$DIMSOXD
 70
     0
  9
$DIMSAH
 70
     0
  9
$DIMBLK1
  1

  9
$DIMBLK2
  1

  9
$DIMSTYLE
  2
STANDARD
  9
$DIMCLRD
 70
     0
  9
$DIMCLRE
 70
     0
  9
$DIMCLRT
 70
     0
  9
$DIMTFAC
 40
1.0
  9
$DIMGAP
 40
0.09
  9
$LUNITS
 70
     2
  9
$LUPREC
 70
     4
  9
$SKETCHINC
 40
0.1
  9
$FILLETRAD
 40
0.0
  9
$AUNITS
 70
     0
  9
$AUPREC
 70
     0
  9
$MENU
  1
acad
  9
$ELEVATION
 40
0.0
  9
$PELEVATION
 40
0.0
  9
$THICKNESS
 40
0.0
  9
$LIMCHECK
 70
     0
  9
$BLIPMODE
 70
     0
  9
$CHAMFERA
 40
0.0
  9
$CHAMFERB
 40
0.0
  9
$SKPOLY
 70
     0
  9
$TDCREATE
 40
2454862.4650987382
  9
$TDUPDATE
 40
2454862.4652638431
  9
$TDINDWG
 40
0.0001725231
  9
$TDUSRTIMER
 40
0.0001721644
  9
$USRTIMER
 70
     1
  9
$ANGBASE
 50
0.0
  9
$ANGDIR
 70
     0
  9
$PDMODE
 70
     3
  9
$PDSIZE
 40
-1.0
  9
$PLINEWID
 40
0.0
  9
$COORDS
 70
     2
  9
$SPLFRAME
 70
     0
  9
$SPLINETYPE
 70
     6
  9
$SPLINESEGS
 70
     8
  9
$ATTDIA
 70
     0
  9
$ATTREQ
 70
     1
  9
$HANDLING
 70
     1
  9
$HANDSEED
  5
38F
  9
$SURFTAB1
 70
     6
  9
$SURFTAB2
 70
     6
  9
$SURFTYPE
 70
     6
  9
$SURFU
 70
     6
  9
$SURFV
 70
     6
  9
$UCSNAME
  2

  9
$UCSORG
 10
0.0
 20
0.0
 30
0.0
  9
$UCSXDIR
 10
1.0
 20
0.0
 30
0.0
  9
$UCSYDIR
 10
0.0
 20
1.0
 30
0.0
  9
$PUCSNAME
  2

  9
$PUCSORG
 10
0.0
 20
0.0
 30
0.0
  9
$PUCSXDIR
 10
1.0
 20
0.0
 30
0.0
  9
$PUCSYDIR
 10
0.0
 20
1.0
 30
0.0
  9
$USERI1
 70
     0
  9
$USERI2
 70
     0
  9
$USERI3
 70
     0
  9
$USERI4
 70
     0
  9
$USERI5
 70
     0
  9
$USERR1
 40
0.0
  9
$USERR2
 40
0.0
  9
$USERR3
 40
0.0
  9
$USERR4
 40
0.0
  9
$USERR5
 40
0.0
  9
$WORLDVIEW
 70
     1
  9
$SHADEDGE
 70
     3
  9
$SHADEDIF
 70
    70
  9
$TILEMODE
 70
     1
  9
$MAXACTVP
 70
    16
  9
$PLIMCHECK
 70
     0
  9
$PEXTMIN
 10
1.0000000000000000E+020
 20
1.0000000000000000E+020
 30
1.0000000000000000E+020
  9
$PEXTMAX
 10
-1.0000000000000000E+020
 20
-1.0000000000000000E+020
 30
-1.0000000000000000E+020
  9
$PLIMMIN
 10
0.0
 20
0.0
  9
$PLIMMAX
 10
12.0
 20
9.0
  9
$UNITMODE
 70
     0
  9
$VISRETAIN
 70
     0
  9
$PLINEGEN
 70
     1
  9
$PSLTSCALE
 70
     0
  0
ENDSEC
  0
SECTION
  2
TABLES
  0
TABLE
  2
VPORT
 70
     2
  0
VPORT
  2
*ACTIVE
 70
     0
 10
0.0
 20
0.0
 11
1.0
 21
1.0
 12
837.22974034240008
 22
-221.3595057485
 13
0.0
 23
0.0
 14
1.0
 24
1.0
 15
0.0
 25
0.0
 16
0.0
 26
0.0
 36
1.0
 17
0.0
 27
0.0
 37
0.0
 40
95.788381742738579
 41
1.6343490304709141
 42
50.0
 43
0.0
 44
0.0
 50
0.0
 51
0.0
 71
     0
 72
   100
 73
     1
 74
     1
 75
     0
 76
     0
 77
     0
 78
     0
  0
ENDTAB
  0
TABLE
  2
LTYPE
 70
    11
  0
LTYPE
  2
CONTINUOUS
 70
     0
  3
Solid line
 72
    65
 73
     0
 40
0.0
  0
LTYPE
  2
DOT
 70
     0
  3
. . . . . . . . 
 72
    65
 73
     2
 40
1.0
 49
0.0
 49
-1.0
  0
LTYPE
  2
DASHED
 70
     0
  3
___  ___  ___  ___  
 72
    65
 73
     2
 40
4.0
 49
3.0
 49
-1.0
  0
LTYPE
  2
HIDDEN
 70
     0
  3
__ __ __ __ 
 72
    65
 73
     2
 40
3.0
 49
2.0
 49
-1.0
  0
LTYPE
  2
STITCH
 70
     0
  3
_ _ _ _ 
 72
    65
 73
     2
 40
2.0
 49
1.0
 49
-1.0
  0
LTYPE
  2
CENTER
 70
     0
  3
______  __  ______  __  
 72
    65
 73
     4
 40
43.0
 49
40.0
 49
-1.0
 49
1.0
 49
-1.0
  0
LTYPE
  2
DASHDOT
 70
     0
  3
____ . ____ . 
 72
    65
 73
     4
 40
32.0
 49
30.0
 49
-1.0
 49
0.0
 49
-1.0
  0
LTYPE
  2
BORDER
 70
     0
  3
__ . __ . 
 72
    65
 73
     4
 40
22.0
 49
20.0
 49
-1.0
 49
0.0
 49
-1.0
  0
LTYPE
  2
CUTTING
 70
     0
  3
________   ___   ___   
 72
    65
 73
     6
 40
45.0
 49
40.0
 49
-1.0
 49
1.0
 49
-1.0
 49
1.0
 49
-1.0
  0
LTYPE
  2
PHANTOM
 70
     0
  3
______  __  __  
 72
    65
 73
     6
 40
35.0
 49
30.0
 49
-1.0
 49
1.0
 49
-1.0
 49
1.0
 49
-1.0
  0
LTYPE
  2
DIVIDE
 70
     0
  3
____ . . ____ . . 
 72
    65
 73
     6
 40
23.0
 49
20.0
 49
-1.0
 49
0.0
 49
-1.0
 49
0.0
 49
-1.0
  0
ENDTAB
  0
TABLE
  2
LAYER
 70
     3
  0
LAYER
  2
0
 70
     0
 62
     7
  6
CONTINUOUS
  0
LAYER
  2
┌▓È_1
 70
     0
 62
     7
  6
CONTINUOUS
  0
LAYER
  2
Éíû@É³
 70
     0
 62
     7
  6
CONTINUOUS
  0
ENDTAB
  0
TABLE
  2
STYLE
 70
     1
  0
STYLE
  2
STANDARD
 70
     0
 40
0.0
 41
1.0
 50
0.0
 71
     0
 42
0.0
  3
txt
  4
extfont
  0
ENDTAB
  0
TABLE
  2
VIEW
 70
     0
  0
ENDTAB
  0
TABLE
  2
UCS
 70
     0
  0
ENDTAB
  0
TABLE
  2
APPID
 70
     2
  0
APPID
  2
ACAD
 70
     0
  0
APPID
  2
DCO15
 70
     0
  0
ENDTAB
  0
TABLE
  2
DIMSTYLE
 70
     3
  0
DIMSTYLE
  2
STANDARD
 70
     0
  3

  4

  5

  6

  7

 40
1.0
 41
0.18
 42
0.0625
 43
0.38
 44
0.18
 45
0.0
 46
0.0
 47
0.0
 48
0.0
140
0.18
141
0.09
142
0.0
143
25.399999999999999
144
1.0
145
0.0
146
1.0
147
0.09
 71
     0
 72
     0
 73
     1
 74
     1
 75
     0
 76
     0
 77
     0
 78
     0
170
     0
171
     2
172
     0
173
     0
174
     0
175
     0
176
     0
177
     0
178
     0
  0
DIMSTYLE
  2
VELDIM0
 70
     0
  3

  4

  5

  6

  7

 40
1.0
 41
1.5
 42
0.0625
 43
0.38
 44
0.5
 45
0.0
 46
3.0
 47
0.0
 48
0.0
140
1.4993055104999999
141
0.09
142
0.0
143
25.399999999999999
144
1.0
145
0.0
146
1.0
147
0.09
 71
     0
 72
     0
 73
     0
 74
     0
 75
     0
 76
     0
 77
     0
 78
     8
170
     0
171
     2
172
     0
173
     0
174
     0
175
     0
176
     0
177
     0
178
     0
  0
DIMSTYLE
  2
VELDIM1
 70
     0
  3

  4

  5

  6

  7

 40
1.0
 41
1.5
 42
0.0625
 43
0.38
 44
1.25
 45
0.0
 46
5.0
 47
0.0
 48
0.0
140
1.4993055104999999
141
0.09
142
0.0
143
25.399999999999999
144
1.0
145
0.0
146
1.0
147
0.09
 71
     0
 72
     0
 73
     0
 74
     0
 75
     0
 76
     0
 77
     0
 78
     8
170
     0
171
     2
172
     0
173
     0
174
     0
175
     0
176
     0
177
     0
178
     0
  0
ENDTAB
  0
ENDSEC
  0
SECTION
  2
BLOCKS
  0
BLOCK
  8
0
  2
$MODEL_SPACE
 70
     0
 10
0.0
 20
0.0
 30
0.0
  3
$MODEL_SPACE
  1

  0
ENDBLK
  5
E
  8
0
  0
BLOCK
 67
     1
  8
0
  2
$PAPER_SPACE
 70
     0
 10
0.0
 20
0.0
 30
0.0
  3
$PAPER_SPACE
  1

  0
ENDBLK
  5
10
 67
     1
  8
0
  0
BLOCK
  8
0
  2
*D0
 70
     1
 10
0.0
 20
0.0
 30
0.0
  3
*D0
  1

  0
TEXT
  5
B5
  8
0
 62
     0
 10
844.51145839179981
 20
-195.30400137149999
 30
0.0
 40
1.4993055104999999
  1
1.5t
  0
LINE
  5
B6
  8
0
 62
     0
 10
851.83192681459991
 20
-200.56858469689999
 30
0.0
 11
851.83192681459991
 21
-196.0685846968999
 31
0.0
  0
LINE
  5
B7
  8
0
 62
     0
 10
850.33192681460002
 20
-200.8685846969
 30
0.0
 11
850.33192681460002
 21
-196.0685846968999
 31
0.0
  0
LINE
  5
B8
  8
0
 62
     0
 10
851.83192681459991
 20
-196.56858469689999
 30
0.0
 11
848.92118048159989
 21
-196.56858469689999
 31
0.0
  0
LINE
  5
B9
  8
0
 62
     0
 10
851.83192681459991
 20
-196.56858469689999
 30
0.0
 11
843.62951397389998
 21
-196.56858469689999
 31
0.0
  0
LINE
  5
BA
  8
0
 62
     0
 10
850.33192681460002
 20
-196.56858469689999
 30
0.0
 11
848.92118048159989
 21
-196.56858469689999
 31
0.0
  0
LINE
  5
BB
  8
0
 62
     0
 10
850.33192681460002
 20
-196.56858469689999
 30
0.0
 11
843.62951397389998
 21
-196.56858469689999
 31
0.0
  0
LINE
  5
BC
  8
0
 62
     0
 10
850.33192681460002
 20
-196.56858469689999
 30
0.0
 11
847.33192681459991
 21
-196.56858469689999
 31
0.0
  0
SOLID
  5
BD
  8
0
 62
     0
 10
850.33192681460002
 20
-196.56858469689999
 30
0.0
 11
848.83192681460002
 21
-196.94358469689999
 31
0.0
 12
848.83192681460002
 22
-196.19358469689999
 32
0.0
 13
849.20692681460002
 23
-196.56858469689999
 33
0.0
  0
LINE
  5
BE
  8
0
 62
     0
 10
851.83192681459991
 20
-196.56858469689999
 30
0.0
 11
854.83192681460002
 21
-196.56858469689999
 31
0.0
  0
SOLID
  5
BF
  8
0
 62
     0
 10
851.83192681459991
 20
-196.56858469689999
 30
0.0
 11
853.33192681460002
 21
-196.19358469689999
 31
0.0
 12
853.33192681460002
 22
-196.94358469689999
 32
0.0
 13
852.95692681460002
 23
-196.56858469689999
 33
0.0
  0
ENDBLK
  5
C0
  8
0
  0
BLOCK
  8
0
  2
*D1
 70
     1
 10
0.0
 20
0.0
 30
0.0
  3
*D1
  1

  0
TEXT
  5
C5
  8
0
 62
     0
 10
849.01109356079985
 20
-190.99648536769999
 30
0.0
 40
1.4993055104999999
  1
(2.5t)
  0
LINE
  5
C6
  8
0
 62
     0
 10
852.98192681460011
 20
-201.06858469689999
 30
0.0
 11
852.98192681460011
 21
-191.76106869309999
 31
0.0
  0
LINE
  5
C7
  8
0
 62
     0
 10
850.33192681460002
 20
-200.8685846969
 30
0.0
 11
850.33192681460002
 21
-191.76106869309999
 31
0.0
  0
LINE
  5
C8
  8
0
 62
     0
 10
852.98192681460011
 20
-192.26106869309999
 30
0.0
 11
852.98192681460011
 21
-192.26106869309999
 31
0.0
  0
LINE
  5
C9
  8
0
 62
     0
 10
852.98192681460011
 20
-192.26106869309999
 30
0.0
 11
850.33192681460002
 21
-192.26106869309999
 31
0.0
  0
LINE
  5
CA
  8
0
 62
     0
 10
850.33192681460002
 20
-192.26106869309999
 30
0.0
 11
852.98192681460011
 21
-192.26106869309999
 31
0.0
  0
LINE
  5
CB
  8
0
 62
     0
 10
850.33192681460002
 20
-192.26106869309999
 30
0.0
 11
850.33192681460002
 21
-192.26106869309999
 31
0.0
  0
LINE
  5
CC
  8
0
 62
     0
 10
850.33192681460002
 20
-192.26106869309999
 30
0.0
 11
847.33192681459991
 21
-192.26106869309999
 31
0.0
  0
SOLID
  5
CD
  8
0
 62
     0
 10
850.33192681460002
 20
-192.26106869309999
 30
0.0
 11
848.83192681460002
 21
-192.63606869309999
 31
0.0
 12
848.83192681460002
 22
-191.88606869309999
 32
0.0
 13
849.20692681460002
 23
-192.26106869309999
 33
0.0
  0
LINE
  5
CE
  8
0
 62
     0
 10
852.98192681460011
 20
-192.26106869309999
 30
0.0
 11
855.9819268146
 21
-192.26106869309999
 31
0.0
  0
SOLID
  5
CF
  8
0
 62
     0
 10
852.98192681460011
 20
-192.26106869309999
 30
0.0
 11
854.48192681460011
 21
-191.88606869309999
 31
0.0
 12
854.48192681460011
 22
-192.63606869309999
 32
0.0
 13
854.10692681460011
 23
-192.26106869309999
 33
0.0
  0
ENDBLK
  5
D0
  8
0
  0
BLOCK
  8
0
  2
*D2
 70
     1
 10
0.0
 20
0.0
 30
0.0
  3
*D2
  1

  0
TEXT
  5
D5
  8
0
 62
     0
 10
786.74018220979985
 20
-202.91675568849999
 30
0.0
 40
1.4993055104999999
  1
%%c 30
 50
330.0
  0
LINE
  5
D6
  8
0
 62
     0
 10
796.16074042669993
 20
-209.06858469689999
 30
0.0
 11
786.43150166349994
 21
-203.45140607799999
 31
0.0
  0
LINE
  5
D7
  8
0
 62
     0
 10
796.16074042669993
 20
-209.06858469689999
 30
0.0
 11
822.14150254020001
 21
-224.06858469689999
 31
0.0
  0
SOLID
  5
D8
  8
0
 62
     0
 10
796.16074042669993
 20
-209.06858469689999
 30
0.0
 11
797.64727853229988
 21
-209.4938251705
 31
0.0
 12
797.27227853229999
 22
-210.14334422330001
 32
0.0
 13
797.13501900589995
 23
-209.63108469689999
 33
0.0
  0
SOLID
  5
D9
  8
0
 62
     0
 10
822.14150254020001
 20
-224.06858469689999
 30
0.0
 11
820.6549644344999
 21
-223.64334422330001
 31
0.0
 12
821.0299644344999
 22
-222.9938251705
 32
0.0
 13
821.16722396089995
 23
-223.50608469689999
 33
0.0
  0
ENDBLK
  5
DA
  8
0
  0
BLOCK
  8
0
  2
*X3
 70
     1
 10
0.0
 20
0.0
 30
0.0
  3
*X3
  1

  0
LINE
  5
E9
  8
┌▓È_1
 10
851.83192681459991
 20
-203.9477272252
 30
0.0
 11
852.98192681460011
 21
-202.79772722519999
 31
0.0
  0
LINE
  5
EA
  8
┌▓È_1
 10
851.83192681459991
 20
-207.48326113109999
 30
0.0
 11
852.98192681460011
 21
-206.33326113109999
 31
0.0
  0
LINE
  5
EB
  8
┌▓È_1
 10
851.83192681459991
 20
-211.01879503710001
 30
0.0
 11
852.98192681460011
 21
-209.8687950371
 31
0.0
  0
LINE
  5
EC
  8
┌▓È_1
 10
851.83192681459991
 20
-214.554328943
 30
0.0
 11
852.98192681460011
 21
-213.404328943
 31
0.0
  0
LINE
  5
ED
  8
┌▓È_1
 10
851.83192681459991
 20
-218.0898628489
 30
0.0
 11
852.98192681460011
 21
-216.93986284889999
 31
0.0
  0
LINE
  5
EE
  8
┌▓È_1
 10
851.83192681459991
 20
-221.62539675490001
 30
0.0
 11
852.98192681460011
 21
-220.4753967549
 31
0.0
  0
LINE
  5
EF
  8
┌▓È_1
 10
851.83192681459991
 20
-225.16093066080001
 30
0.0
 11
852.98192681460011
 21
-224.0109306608
 31
0.0
  0
LINE
  5
F0
  8
┌▓È_1
 10
851.83192681459991
 20
-228.6964645667
 30
0.0
 11
852.98192681460011
 21
-227.5464645667
 31
0.0
  0
ENDBLK
  5
F1
  8
0
  0
BLOCK
  8
0
  2
*U4
 70
     1
 10
0.0
 20
0.0
 30
0.0
  3
*U4
  1

  0
TEXT
  5
118
  8
┌▓È_1
  6
CONTINUOUS
 10
890.34165190490012
 20
-267.48666657209998
 30
0.0
 40
1.7991665721000001
  1
égék
  0
ENDBLK
  5
11A
  8
0
  0
BLOCK
  8
0
  2
*U5
 70
     1
 10
0.0
 20
0.0
 30
0.0
  3
*U5
  1

  0
TEXT
  5
11C
  8
┌▓È_1
  6
CONTINUOUS
 10
849.59001720479989
 20
-267.73572568048331
 30
0.0
 40
2.1589999675999989
  1
èöÄ«ë´Äð
  0
ENDBLK
  5
11E
  8
0
  0
BLOCK
  8
0
  2
*U6
 70
     1
 10
0.0
 20
0.0
 30
0.0
  3
*U6
  1

  0
TEXT
  5
120
  8
┌▓È_1
  6
CONTINUOUS
 10
845.97974034240008
 20
-261.92848438113401
 30
0.0
 40
1.1687499999999991
  1
 É¦îvü@ü@ ëÇî┤
  0
ENDBLK
  5
122
  8
0
  0
BLOCK
  8
0
  2
*U7
 70
     1
 10
0.0
 20
0.0
 30
0.0
  3
*U7
  1

  0
TEXT
  5
124
  8
┌▓È_1
  6
CONTINUOUS
 10
845.97974034240008
 20
-264.0653498633676
 30
0.0
 40
1.1687499999999991
  1
 É╗É}ü@ü@ ëÇî┤
  0
ENDBLK
  5
126
  8
0
  0
BLOCK
  8
0
  2
*U8
 70
     1
 10
0.0
 20
0.0
 30
0.0
  3
*U8
  1

  0
TEXT
  5
128
  8
┌▓È_1
  6
CONTINUOUS
 10
846.21243324800002
 20
-257.65475341666701
 30
0.0
 40
1.1687499999999991
  1
ü@ô· ü@òt
  0
ENDBLK
  5
12A
  8
0
  0
BLOCK
  8
0
  2
*U9
 70
     1
 10
0.0
 20
0.0
 30
0.0
  3
*U9
  1

  0
TEXT
  5
12C
  8
┌▓È_1
  6
CONTINUOUS
 10
878.42499006920002
 20
-257.65810233260061
 30
0.0
 40
1.1687499999999991
  1
î^öÈ
  0
ENDBLK
  5
12E
  8
0
  0
BLOCK
  8
0
  2
*U10
 70
     1
 10
0.0
 20
0.0
 30
0.0
  3
*U10
  1

  0
TEXT
  5
130
  8
┌▓È_1
  6
CONTINUOUS
 10
878.42499006920002
 20
-261.91996781483402
 30
0.0
 40
1.1687499999999991
  1
òiû╝
  0
ENDBLK
  5
132
  8
0
  0
BLOCK
  8
0
  2
*U11
 70
     1
 10
0.0
 20
0.0
 30
0.0
  3
*U11
  1

  0
TEXT
  5
134
  8
┌▓È_1
  6
CONTINUOUS
 10
878.42499006920002
 20
-266.15810233260049
 30
0.0
 40
1.1687499999999991
  1
É}öÈ
  0
ENDBLK
  5
136
  8
0
  0
BLOCK
  8
0
  2
*U12
 70
     1
 10
0.0
 20
0.0
 30
0.0
  3
*U12
  1

  0
TEXT
  5
138
  8
┌▓È_1
  6
CONTINUOUS
 62
     5
 10
848.08719592615637
 20
-259.7560224522
 30
0.0
 40
1.1687499999999991
  1
H13.2
  0
ENDBLK
  5
13A
  8
0
  0
BLOCK
  8
0
  2
*U13
 70
     1
 10
0.0
 20
0.0
 30
0.0
  3
*U13
  1

  0
TEXT
  5
13C
  8
┌▓È_1
  6
CONTINUOUS
 62
     5
 10
854.5654478297098
 20
-259.7560224522
 30
0.0
 40
1.1687499999999991
  1
SUS304 HL
  0
ENDBLK
  5
13E
  8
0
  0
BLOCK
  8
0
  2
*U14
 70
     1
 10
0.0
 20
0.0
 30
0.0
  3
*U14
  1

  0
TEXT
  5
140
  8
┌▓È_1
  6
CONTINUOUS
 62
     5
 10
864.43129491092793
 20
-259.7560224522
 30
0.0
 40
1.1687499999999991
  1
1.5t
  0
ENDBLK
  5
142
  8
0
  0
BLOCK
  8
0
  2
*U15
 70
     1
 10
0.0
 20
0.0
 30
0.0
  3
*U15
  1

  0
TEXT
  5
144
  8
┌▓È_1
  6
CONTINUOUS
 62
     5
 10
864.57368069772997
 20
-264.0060224522
 30
0.0
 40
1.1687499999999991
  1
2üF1
  0
ENDBLK
  5
146
  8
0
  0
BLOCK
  8
0
  2
*U16
 70
     1
 10
0.0
 20
0.0
 30
0.0
  3
*U16
  1

  0
TEXT
  5
148
  8
┌▓È_1
  6
CONTINUOUS
 10
854.21243324800002
 20
-257.67255164001728
 30
0.0
 40
1.1687499999999991
  1
ü@ìÌ ü@Ä┐
  0
ENDBLK
  5
14A
  8
0
  0
BLOCK
  8
0
  2
*U17
 70
     1
 10
0.0
 20
0.0
 30
0.0
  3
*U17
  1

  0
TEXT
  5
14C
  8
┌▓È_1
  6
CONTINUOUS
 10
862.21243324800002
 20
-257.69628260448428
 30
0.0
 40
1.1687499999999991
  1
ü@ö┬ ü@î·
  0
ENDBLK
  5
14E
  8
0
  0
BLOCK
  8
0
  2
*U18
 70
     1
 10
0.0
 20
0.0
 30
0.0
  3
*U18
  1

  0
TEXT
  5
150
  8
┌▓È_1
  6
CONTINUOUS
 10
862.21243324800002
 20
-261.94034986336749
 30
0.0
 40
1.1687499999999991
  1
ü@Ä┌ ü@ôx
  0
ENDBLK
  5
152
  8
0
  0
BLOCK
  8
0
  2
*U19
 70
     1
 10
0.0
 20
0.0
 30
0.0
  3
*U19
  1

  0
TEXT
  5
154
  8
┌▓È_1
  6
CONTINUOUS
 10
870.21243324800002
 20
-257.69628260448428
 30
0.0
 40
1.1687499999999991
  1
ü@îƒ ü@ê¾
  0
ENDBLK
  5
156
  8
0
  0
BLOCK
  8
0
  2
*U20
 70
     1
 10
0.0
 20
0.0
 30
0.0
  3
*U20
  1

  0
TEXT
  5
158
  8
┌▓È_1
  6
CONTINUOUS
 10
864.11493938520005
 20
-230.87730323738171
 30
0.0
 40
1.4993055104999999
  1
ù╝û╩âeü[âvô\éÞòté»
  0
ENDBLK
  5
15A
  8
0
  0
BLOCK
  8
0
  2
*U21
 70
     1
 10
0.0
 20
0.0
 30
0.0
  3
*U21
  1

  0
TEXT
  5
15C
  8
┌▓È_1
  6
CONTINUOUS
 10
815.06439372692682
 20
-211.78772372270001
 30
0.0
 40
2.099027836299999
  1
égék
  0
ENDBLK
  5
15E
  8
0
  0
BLOCK
  8
0
  2
*U22
 70
     1
 10
0.0
 20
0.0
 30
0.0
  3
*U22
  1

  0
TEXT
  5
160
  8
┌▓È_1
  6
CONTINUOUS
 10
885.89751085979992
 20
-258.98666657209998
 30
0.0
 40
1.7991665721000001
  1
ékér-éVéPéW
  0
ENDBLK
  5
162
  8
0
  0
BLOCK
  8
0
  2
*U23
 70
     1
 10
0.0
 20
0.0
 30
0.0
  3
*U23
  1

  0
TEXT
  5
164
  8
┌▓È_1
  6
CONTINUOUS
 10
883.11776322000014
 20
-263.07656504781733
 30
0.0
 40
1.7991665721000001
  1
âZü[âtâeâBü[â}ü[âN
  0
ENDBLK
  5
166
  8
0
  0
ENDSEC
  0
SECTION
  2
ENTITIES
  0
LINE
  5
2F
  8
┌▓È_1
 62
     5
 10
872.02957650890005
 20
-265.9754365618
 30
0.0
 11
872.02957650890005
 21
-266.69543656180002
 31
0.0
  0
POLYLINE
  8
┌▓È_1
  5
167
  62
5
  66
     1
 10
0.000000
 20
0.000000
 30
0.000000
  70
     8
  0
VERTEX
  8
┌▓È_1
  5
168
 10
868.916
 20
-266.451
 30
0.000000
  70
    32
  0
VERTEX
  8
┌▓È_1
  5
169
 10
868.919
 20
-266.453
 30
0.000000
  70
    32
  0
VERTEX
  8
┌▓È_1
  5
16A
 10
868.922
 20
-266.456
 30
0.000000
  70
    32
  0
VERTEX
  8
┌▓È_1
  5
16B
 10
868.924
 20
-266.459
 30
0.000000
  70
    32
  0
VERTEX
  8
┌▓È_1
  5
16C
 10
868.927
 20
-266.462
 30
0.000000
  70
    32
  0
VERTEX
  8
┌▓È_1
  5
16D
 10
868.930
 20
-266.465
 30
0.000000
  70
    32
  0
VERTEX
  8
┌▓È_1
  5
16E
 10
868.932
 20
-266.468
 30
0.000000
  70
    32
  0
VERTEX
  8
┌▓È_1
  5
16F
 10
868.935
 20
-266.471
 30
0.000000
  70
    32
  0
VERTEX
  8
┌▓È_1
  5
170
 10
868.937
 20
-266.474
 30
0.000000
  70
    32
  0
VERTEX
  8
┌▓È_1
  5
171
 10
868.940
 20
-266.477
 30
0.000000
  70
    32
  0
VERTEX
  8
┌▓È_1
  5
172
 10
868.943
 20
-266.480
 30
0.000000
  70
    32
  0
VERTEX
  8
┌▓È_1
  5
173
 10
868.945
 20
-266.483
 30
0.000000
  70
    32
  0
VERTEX
  8
┌▓È_1
  5
174
 10
868.948
 20
-266.486
 30
0.000000
  70
    32
  0
VERTEX
  8
┌▓È_1
  5
175
 10
868.951
 20
-266.489
 30
0.000000
  70
    32
  0
VERTEX
  8
┌▓È_1
  5
176
 10
868.953
 20
-266.492
 30
0.000000
  70
    32
  0
VERTEX
  8
┌▓È_1
  5
177
 10
868.956
 20
-266.495
 30
0.000000
  70
    32
  0
VERTEX
  8
┌▓È_1
  5
178
 10
868.959
 20
-266.498
 30
0.000000
  70
    32
  0
VERTEX
  8
┌▓È_1
  5
179
 10
868.961
 20
-266.501
 30
0.000000
  70
    32
  0
VERTEX
  8
┌▓È_1
  5
17A
 10
868.964
 20
-266.503
 30
0.000000
  70
    32
  0
VERTEX
  8
┌▓È_1
  5
17B
 10
868.966
 20
-266.506
 30
0.000000
  70
    32
  0
VERTEX
  8
┌▓È_1
  5
17C
 10
868.969
 20
-266.509
 30
0.000000
  70
    32
  0
VERTEX
  8
┌▓È_1
  5
17D
 10
868.972
 20
-266.512
 30
0.000000
  70
    32
  0
VERTEX
  8
┌▓È_1
  5
17E
 10
868.974
 20
-266.515
 30
0.000000
  70
    32
  0
VERTEX
  8
┌▓È_1
  5
17F
 10
868.977
 20
-266.518
 30
0.000000
  70
    32
  0
VERTEX
  8
┌▓È_1
  5
180
 10
868.980
 20
-266.521
 30
0.000000
  70
    32
  0
VERTEX
  8
┌▓È_1
  5
181
 10
868.982
 20
-266.524
 30
0.000000
  70
    32
  0
VERTEX
  8
┌▓È_1
  5
182
 10
868.985
 20
-266.527
 30
0.000000
  70
    32
  0
VERTEX
  8
┌▓È_1
  5
183
 10
868.988
 20
-266.530
 30
0.000000
  70
    32
  0
VERTEX
  8
┌▓È_1
  5
184
 10
868.990
 20
-266.533
 30
0.000000
  70
    32
  0
VERTEX
  8
┌▓È_1
  5
185
 10
868.993
 20
-266.536
 30
0.000000
  70
    32
  0
VERTEX
  8
┌▓È_1
  5
186
 10
868.996
 20
-266.539
 30
0.000000
  70
    32
  0
VERTEX
  8
┌▓È_1
  5
187
 10
868.998
 20
-266.542
 30
0.000000
  70
    32
  0
VERTEX
  8
┌▓È_1
  5
188
 10
869.001
 20
-266.545
 30
0.000000
  70
    32
  0
VERTEX
  8
┌▓È_1
  5
189
 10
869.004
 20
-266.547
 30
0.000000
  70
    32
  0
VERTEX
  8
┌▓È_1
  5
18A
 10
869.006
 20
-266.550
 30
0.000000
  70
    32
  0
VERTEX
  8
┌▓È_1
  5
18B
 10
869.009
 20
-266.553
 30
0.000000
  70
    32
  0
VERTEX
  8
┌▓È_1
  5
18C
 10
869.012
 20
-266.556
 30
0.000000
  70
    32
  0
VERTEX
  8
┌▓È_1
  5
18D
 10
869.014
 20
-266.559
 30
0.000000
  70
    32
  0
VERTEX
  8
┌▓È_1
  5
18E
 10
869.017
 20
-266.562
 30
0.000000
  70
    32
  0
VERTEX
  8
┌▓È_1
  5
18F
 10
869.020
 20
-266.565
 30
0.000000
  70
    32
  0
VERTEX
  8
┌▓È_1
  5
190
 10
869.022
 20
-266.568
 30
0.000000
  70
    32
  0
VERTEX
  8
┌▓È_1
  5
191
 10
869.025
 20
-266.571
 30
0.000000
  70
    32
  0
VERTEX
  8
┌▓È_1
  5
192
 10
869.028
 20
-266.574
 30
0.000000
  70
    32
  0
VERTEX
  8
┌▓È_1
  5
193
 10
869.030
 20
-266.577
 30
0.000000
  70
    32
  0
VERTEX
  8
┌▓È_1
  5
194
 10
869.033
 20
-266.579
 30
0.000000
  70
    32
  0
VERTEX
  8
┌▓È_1
  5
195
 10
869.036
 20
-266.582
 30
0.000000
  70
    32
  0
VERTEX
  8
┌▓È_1
  5
196
 10
869.038
 20
-266.585
 30
0.000000
  70
    32
  0
VERTEX
  8
┌▓È_1
  5
197
 10
869.041
 20
-266.588
 30
0.000000
  70
    32
  0
VERTEX
  8
┌▓È_1
  5
198
 10
869.044
 20
-266.591
 30
0.000000
  70
    32
  0
VERTEX
  8
┌▓È_1
  5
199
 10
869.046
 20
-266.594
 30
0.000000
  70
    32
  0
VERTEX
  8
┌▓È_1
  5
19A
 10
869.049
 20
-266.597
 30
0.000000
  70
    32
  0
VERTEX
  8
┌▓È_1
  5
19B
 10
869.052
 20
-266.600
 30
0.000000
  70
    32
  0
VERTEX
  8
┌▓È_1
  5
19C
 10
869.054
 20
-266.603
 30
0.000000
  70
    32
  0
VERTEX
  8
┌▓È_1
  5
19D
 10
869.057
 20
-266.605
 30
0.000000
  70
    32
  0
VERTEX
  8
┌▓È_1
  5
19E
 10
869.060
 20
-266.608
 30
0.000000
  70
    32
  0
VERTEX
  8
┌▓È_1
  5
19F
 10
869.062
 20
-266.611
 30
0.000000
  70
    32
  0
VERTEX
  8
┌▓È_1
  5
1A0
 10
869.065
 20
-266.614
 30
0.000000
  70
    32
  0
VERTEX
  8
┌▓È_1
  5
1A1
 10
869.068
 20
-266.617
 30
0.000000
  70
    32
  0
VERTEX
  8
┌▓È_1
  5
1A2
 10
869.070
 20
-266.620
 30
0.000000
  70
    32
  0
VERTEX
  8
┌▓È_1
  5
1A3
 10
869.073
 20
-266.623
 30
0.000000
  70
    32
  0
VERTEX
  8
┌▓È_1
  5
1A4
 10
869.076
 20
-266.626
 30
0.000000
  70
    32
  0
VERTEX
  8
┌▓È_1
  5
1A5
 10
869.078
 20
-266.628
 30
0.000000
  70
    32
  0
VERTEX
  8
┌▓È_1
  5
1A6
 10
869.081
 20
-266.631
 30
0.000000
  70
    32
  0
VERTEX
  8
┌▓È_1
  5
1A7
 10
869.084
 20
-266.634
 30
0.000000
  70
    32
  0
VERTEX
  8
┌▓È_1
  5
1A8
 10
869.086
 20
-266.637
 30
0.000000
  70
    32
  0
VERTEX
  8
┌▓È_1
  5
1A9
 10
869.089
 20
-266.640
 30
0.000000
  70
    32
  0
VERTEX
  8
┌▓È_1
  5
1AA
 10
869.092
 20
-266.643
 30
0.000000
  70
    32
  0
VERTEX
  8
┌▓È_1
  5
1AB
 10
869.095
 20
-266.646
 30
0.000000
  70
    32
  0
VERTEX
  8
┌▓È_1
  5
1AC
 10
869.097
 20
-266.648
 30
0.000000
  70
    32
  0
VERTEX
  8
┌▓È_1
  5
1AD
 10
869.100
 20
-266.651
 30
0.000000
  70
    32
  0
VERTEX
  8
┌▓È_1
  5
1AE
 10
869.103
 20
-266.654
 30
0.000000
  70
    32
  0
VERTEX
  8
┌▓È_1
  5
1AF
 10
869.105
 20
-266.657
 30
0.000000
  70
    32
  0
VERTEX
  8
┌▓È_1
  5
1B0
 10
869.108
 20
-266.660
 30
0.000000
  70
    32
  0
VERTEX
  8
┌▓È_1
  5
1B1
 10
869.111
 20
-266.663
 30
0.000000
  70
    32
  0
VERTEX
  8
┌▓È_1
  5
1B2
 10
869.113
 20
-266.665
 30
0.000000
  70
    32
  0
VERTEX
  8
┌▓È_1
  5
1B3
 10
869.116
 20
-266.668
 30
0.000000
  70
    32
  0
VERTEX
  8
┌▓È_1
  5
1B4
 10
869.119
 20
-266.671
 30
0.000000
  70
    32
  0
VERTEX
  8
┌▓È_1
  5
1B5
 10
869.122
 20
-266.674
 30
0.000000
  70
    32
  0
VERTEX
  8
┌▓È_1
  5
1B6
 10
869.124
 20
-266.677
 30
0.000000
  70
    32
  0
VERTEX
  8
┌▓È_1
  5
1B7
 10
869.127
 20
-266.679
 30
0.000000
  70
    32
  0
VERTEX
  8
┌▓È_1
  5
1B8
 10
869.130
 20
-266.682
 30
0.000000
  70
    32
  0
VERTEX
  8
┌▓È_1
  5
1B9
 10
869.133
 20
-266.685
 30
0.000000
  70
    32
  0
VERTEX
  8
┌▓È_1
  5
1BA
 10
869.135
 20
-266.688
 30
0.000000
  70
    32
  0
VERTEX
  8
┌▓È_1
  5
1BB
 10
869.138
 20
-266.691
 30
0.000000
  70
    32
  0
VERTEX
  8
┌▓È_1
  5
1BC
 10
869.141
 20
-266.693
 30
0.000000
  70
    32
  0
VERTEX
  8
┌▓È_1
  5
1BD
 10
869.143
 20
-266.696
 30
0.000000
  70
    32
  0
VERTEX
  8
┌▓È_1
  5
1BE
 10
869.146
 20
-266.699
 30
0.000000
  70
    32
  0
VERTEX
  8
┌▓È_1
  5
1BF
 10
869.149
 20
-266.702
 30
0.000000
  70
    32
  0
VERTEX
  8
┌▓È_1
  5
1C0
 10
869.152
 20
-266.705
 30
0.000000
  70
    32
  0
VERTEX
  8
┌▓È_1
  5
1C1
 10
869.154
 20
-266.707
 30
0.000000
  70
    32
  0
VERTEX
  8
┌▓È_1
  5
1C2
 10
869.157
 20
-266.710
 30
0.000000
  70
    32
  0
VERTEX
  8
┌▓È_1
  5
1C3
 10
869.160
 20
-266.713
 30
0.000000
  70
    32
  0
VERTEX
  8
┌▓È_1
  5
1C4
 10
869.163
 20
-266.716
 30
0.000000
  70
    32
  0
VERTEX
  8
┌▓È_1
  5
1C5
 10
869.165
 20
-266.718
 30
0.000000
  70
    32
  0
VERTEX
  8
┌▓È_1
  5
1C6
 10
869.168
 20
-266.721
 30
0.000000
  70
    32
  0
VERTEX
  8
┌▓È_1
  5
1C7
 10
869.171
 20
-266.724
 30
0.000000
  70
    32
  0
VERTEX
  8
┌▓È_1
  5
1C8
 10
869.174
 20
-266.727
 30
0.000000
  70
    32
  0
VERTEX
  8
┌▓È_1
  5
1C9
 10
869.177
 20
-266.729
 30
0.000000
  70
    32
  0
VERTEX
  8
┌▓È_1
  5
1CA
 10
869.179
 20
-266.732
 30
0.000000
  70
    32
  0
VERTEX
  8
┌▓È_1
  5
1CB
 10
869.182
 20
-266.735
 30
0.000000
  70
    32
  0
VERTEX
  8
┌▓È_1
  5
1CC
 10
869.185
 20
-266.738
 30
0.000000
  70
    32
  0
VERTEX
  8
┌▓È_1
  5
1CD
 10
869.188
 20
-266.740
 30
0.000000
  70
    32
  0
VERTEX
  8
┌▓È_1
  5
1CE
 10
869.190
 20
-266.743
 30
0.000000
  70
    32
  0
VERTEX
  8
┌▓È_1
  5
1CF
 10
869.193
 20
-266.746
 30
0.000000
  70
    32
  0
VERTEX
  8
┌▓È_1
  5
1D0
 10
869.196
 20
-266.748
 30
0.000000
  70
    32
  0
VERTEX
  8
┌▓È_1
  5
1D1
 10
869.199
 20
-266.751
 30
0.000000
  70
    32
  0
VERTEX
  8
┌▓È_1
  5
1D2
 10
869.202
 20
-266.754
 30
0.000000
  70
    32
  0
VERTEX
  8
┌▓È_1
  5
1D3
 10
869.204
 20
-266.757
 30
0.000000
  70
    32
  0
VERTEX
  8
┌▓È_1
  5
1D4
 10
869.207
 20
-266.759
 30
0.000000
  70
    32
  0
VERTEX
  8
┌▓È_1
  5
1D5
 10
869.210
 20
-266.762
 30
0.000000
  70
    32
  0
VERTEX
  8
┌▓È_1
  5
1D6
 10
869.213
 20
-266.765
 30
0.000000
  70
    32
  0
VERTEX
  8
┌▓È_1
  5
1D7
 10
869.216
 20
-266.767
 30
0.000000
  70
    32
  0
VERTEX
  8
┌▓È_1
  5
1D8
 10
869.218
 20
-266.770
 30
0.000000
  70
    32
  0
VERTEX
  8
┌▓È_1
  5
1D9
 10
869.221
 20
-266.773
 30
0.000000
  70
    32
  0
VERTEX
  8
┌▓È_1
  5
1DA
 10
869.224
 20
-266.775
 30
0.000000
  70
    32
  0
VERTEX
  8
┌▓È_1
  5
1DB
 10
869.227
 20
-266.778
 30
0.000000
  70
    32
  0
VERTEX
  8
┌▓È_1
  5
1DC
 10
869.230
 20
-266.781
 30
0.000000
  70
    32
  0
VERTEX
  8
┌▓È_1
  5
1DD
 10
869.232
 20
-266.783
 30
0.000000
  70
    32
  0
VERTEX
  8
┌▓È_1
  5
1DE
 10
869.235
 20
-266.786
 30
0.000000
  70
    32
  0
VERTEX
  8
┌▓È_1
  5
1DF
 10
869.238
 20
-266.788
 30
0.000000
  70
    32
  0
VERTEX
  8
┌▓È_1
  5
1E0
 10
869.241
 20
-266.791
 30
0.000000
  70
    32
  0
VERTEX
  8
┌▓È_1
  5
1E1
 10
869.244
 20
-266.794
 30
0.000000
  70
    32
  0
VERTEX
  8
┌▓È_1
  5
1E2
 10
869.247
 20
-266.796
 30
0.000000
  70
    32
  0
VERTEX
  8
┌▓È_1
  5
1E3
 10
869.249
 20
-266.799
 30
0.000000
  70
    32
  0
VERTEX
  8
┌▓È_1
  5
1E4
 10
869.252
 20
-266.802
 30
0.000000
  70
    32
  0
VERTEX
  8
┌▓È_1
  5
1E5
 10
869.255
 20
-266.804
 30
0.000000
  70
    32
  0
VERTEX
  8
┌▓È_1
  5
1E6
 10
869.258
 20
-266.807
 30
0.000000
  70
    32
  0
VERTEX
  8
┌▓È_1
  5
1E7
 10
869.261
 20
-266.809
 30
0.000000
  70
    32
  0
SEQEND
  8
┌▓È_1
  5
1E8
  0
POLYLINE
  8
┌▓È_1
  5
1E9
  62
5
  66
     1
 10
0.000000
 20
0.000000
 30
0.000000
  70
     8
  0
VERTEX
  8
┌▓È_1
  5
1EA
 10
869.726
 20
-267.750
 30
0.000000
  70
    32
  0
VERTEX
  8
┌▓È_1
  5
1EB
 10
869.737
 20
-267.753
 30
0.000000
  70
    32
  0
VERTEX
  8
┌▓È_1
  5
1EC
 10
869.748
 20
-267.757
 30
0.000000
  70
    32
  0
VERTEX
  8
┌▓È_1
  5
1ED
 10
869.758
 20
-267.760
 30
0.000000
  70
    32
  0
VERTEX
  8
┌▓È_1
  5
1EE
 10
869.769
 20
-267.764
 30
0.000000
  70
    32
  0
VERTEX
  8
┌▓È_1
  5
1EF
 10
869.780
 20
-267.767
 30
0.000000
  70
    32
  0
VERTEX
  8
┌▓È_1
  5
1F0
 10
869.791
 20
-267.770
 30
0.000000
  70
    32
  0
VERTEX
  8
┌▓È_1
  5
1F1
 10
869.802
 20
-267.774
 30
0.000000
  70
    32
  0
VERTEX
  8
┌▓È_1
  5
1F2
 10
869.812
 20
-267.777
 30
0.000000
  70
    32
  0
VERTEX
  8
┌▓È_1
  5
1F3
 10
869.823
 20
-267.780
 30
0.000000
  70
    32
  0
VERTEX
  8
┌▓È_1
  5
1F4
 10
869.834
 20
-267.784
 30
0.000000
  70
    32
  0
VERTEX
  8
┌▓È_1
  5
1F5
 10
869.845
 20
-267.787
 30
0.000000
  70
    32
  0
VERTEX
  8
┌▓È_1
  5
1F6
 10
869.856
 20
-267.790
 30
0.000000
  70
    32
  0
VERTEX
  8
┌▓È_1
  5
1F7
 10
869.867
 20
-267.793
 30
0.000000
  70
    32
  0
VERTEX
  8
┌▓È_1
  5
1F8
 10
869.878
 20
-267.797
 30
0.000000
  70
    32
  0
VERTEX
  8
┌▓È_1
  5
1F9
 10
869.889
 20
-267.800
 30
0.000000
  70
    32
  0
VERTEX
  8
┌▓È_1
  5
1FA
 10
869.899
 20
-267.803
 30
0.000000
  70
    32
  0
VERTEX
  8
┌▓È_1
  5
1FB
 10
869.910
 20
-267.806
 30
0.000000
  70
    32
  0
VERTEX
  8
┌▓È_1
  5
1FC
 10
869.921
 20
-267.809
 30
0.000000
  70
    32
  0
VERTEX
  8
┌▓È_1
  5
1FD
 10
869.932
 20
-267.812
 30
0.000000
  70
    32
  0
VERTEX
  8
┌▓È_1
  5
1FE
 10
869.943
 20
-267.816
 30
0.000000
  70
    32
  0
VERTEX
  8
┌▓È_1
  5
1FF
 10
869.954
 20
-267.819
 30
0.000000
  70
    32
  0
VERTEX
  8
┌▓È_1
  5
200
 10
869.965
 20
-267.822
 30
0.000000
  70
    32
  0
VERTEX
  8
┌▓È_1
  5
201
 10
869.976
 20
-267.825
 30
0.000000
  70
    32
  0
VERTEX
  8
┌▓È_1
  5
202
 10
869.987
 20
-267.828
 30
0.000000
  70
    32
  0
VERTEX
  8
┌▓È_1
  5
203
 10
869.998
 20
-267.831
 30
0.000000
  70
    32
  0
VERTEX
  8
┌▓È_1
  5
204
 10
870.009
 20
-267.834
 30
0.000000
  70
    32
  0
VERTEX
  8
┌▓È_1
  5
205
 10
870.020
 20
-267.837
 30
0.000000
  70
    32
  0
VERTEX
  8
┌▓È_1
  5
206
 10
870.031
 20
-267.840
 30
0.000000
  70
    32
  0
VERTEX
  8
┌▓È_1
  5
207
 10
870.042
 20
-267.843
 30
0.000000
  70
    32
  0
VERTEX
  8
┌▓È_1
  5
208
 10
870.053
 20
-267.846
 30
0.000000
  70
    32
  0
VERTEX
  8
┌▓È_1
  5
209
 10
870.064
 20
-267.849
 30
0.000000
  70
    32
  0
VERTEX
  8
┌▓È_1
  5
20A
 10
870.075
 20
-267.852
 30
0.000000
  70
    32
  0
VERTEX
  8
┌▓È_1
  5
20B
 10
870.086
 20
-267.855
 30
0.000000
  70
    32
  0
VERTEX
  8
┌▓È_1
  5
20C
 10
870.097
 20
-267.858
 30
0.000000
  70
    32
  0
VERTEX
  8
┌▓È_1
  5
20D
 10
870.108
 20
-267.861
 30
0.000000
  70
    32
  0
VERTEX
  8
┌▓È_1
  5
20E
 10
870.119
 20
-267.864
 30
0.000000
  70
    32
  0
VERTEX
  8
┌▓È_1
  5
20F
 10
870.130
 20
-267.867
 30
0.000000
  70
    32
  0
VERTEX
  8
┌▓È_1
  5
210
 10
870.141
 20
-267.870
 30
0.000000
  70
    32
  0
VERTEX
  8
┌▓È_1
  5
211
 10
870.152
 20
-267.873
 30
0.000000
  70
    32
  0
VERTEX
  8
┌▓È_1
  5
212
 10
870.163
 20
-267.875
 30
0.000000
  70
    32
  0
VERTEX
  8
┌▓È_1
  5
213
 10
870.174
 20
-267.878
 30
0.000000
  70
    32
  0
VERTEX
  8
┌▓È_1
  5
214
 10
870.185
 20
-267.881
 30
0.000000
  70
    32
  0
VERTEX
  8
┌▓È_1
  5
215
 10
870.196
 20
-267.884
 30
0.000000
  70
    32
  0
VERTEX
  8
┌▓È_1
  5
216
 10
870.208
 20
-267.887
 30
0.000000
  70
    32
  0
VERTEX
  8
┌▓È_1
  5
217
 10
870.219
 20
-267.890
 30
0.000000
  70
    32
  0
VERTEX
  8
┌▓È_1
  5
218
 10
870.230
 20
-267.892
 30
0.000000
  70
    32
  0
VERTEX
  8
┌▓È_1
  5
219
 10
870.241
 20
-267.895
 30
0.000000
  70
    32
  0
VERTEX
  8
┌▓È_1
  5
21A
 10
870.252
 20
-267.898
 30
0.000000
  70
    32
  0
VERTEX
  8
┌▓È_1
  5
21B
 10
870.263
 20
-267.901
 30
0.000000
  70
    32
  0
VERTEX
  8
┌▓È_1
  5
21C
 10
870.274
 20
-267.904
 30
0.000000
  70
    32
  0
VERTEX
  8
┌▓È_1
  5
21D
 10
870.285
 20
-267.906
 30
0.000000
  70
    32
  0
VERTEX
  8
┌▓È_1
  5
21E
 10
870.297
 20
-267.909
 30
0.000000
  70
    32
  0
VERTEX
  8
┌▓È_1
  5
21F
 10
870.308
 20
-267.912
 30
0.000000
  70
    32
  0
VERTEX
  8
┌▓È_1
  5
220
 10
870.319
 20
-267.915
 30
0.000000
  70
    32
  0
VERTEX
  8
┌▓È_1
  5
221
 10
870.330
 20
-267.917
 30
0.000000
  70
    32
  0
VERTEX
  8
┌▓È_1
  5
222
 10
870.341
 20
-267.920
 30
0.000000
  70
    32
  0
VERTEX
  8
┌▓È_1
  5
223
 10
870.352
 20
-267.923
 30
0.000000
  70
    32
  0
VERTEX
  8
┌▓È_1
  5
224
 10
870.364
 20
-267.925
 30
0.000000
  70
    32
  0
VERTEX
  8
┌▓È_1
  5
225
 10
870.375
 20
-267.928
 30
0.000000
  70
    32
  0
VERTEX
  8
┌▓È_1
  5
226
 10
870.386
 20
-267.931
 30
0.000000
  70
    32
  0
VERTEX
  8
┌▓È_1
  5
227
 10
870.397
 20
-267.933
 30
0.000000
  70
    32
  0
VERTEX
  8
┌▓È_1
  5
228
 10
870.408
 20
-267.936
 30
0.000000
  70
    32
  0
VERTEX
  8
┌▓È_1
  5
229
 10
870.419
 20
-267.939
 30
0.000000
  70
    32
  0
VERTEX
  8
┌▓È_1
  5
22A
 10
870.431
 20
-267.941
 30
0.000000
  70
    32
  0
VERTEX
  8
┌▓È_1
  5
22B
 10
870.442
 20
-267.944
 30
0.000000
  70
    32
  0
VERTEX
  8
┌▓È_1
  5
22C
 10
870.453
 20
-267.946
 30
0.000000
  70
    32
  0
VERTEX
  8
┌▓È_1
  5
22D
 10
870.464
 20
-267.949
 30
0.000000
  70
    32
  0
VERTEX
  8
┌▓È_1
  5
22E
 10
870.475
 20
-267.952
 30
0.000000
  70
    32
  0
VERTEX
  8
┌▓È_1
  5
22F
 10
870.487
 20
-267.954
 30
0.000000
  70
    32
  0
VERTEX
  8
┌▓È_1
  5
230
 10
870.498
 20
-267.957
 30
0.000000
  70
    32
  0
VERTEX
  8
┌▓È_1
  5
231
 10
870.509
 20
-267.959
 30
0.000000
  70
    32
  0
VERTEX
  8
┌▓È_1
  5
232
 10
870.520
 20
-267.962
 30
0.000000
  70
    32
  0
VERTEX
  8
┌▓È_1
  5
233
 10
870.532
 20
-267.965
 30
0.000000
  70
    32
  0
VERTEX
  8
┌▓È_1
  5
234
 10
870.543
 20
-267.967
 30
0.000000
  70
    32
  0
VERTEX
  8
┌▓È_1
  5
235
 10
870.554
 20
-267.970
 30
0.000000
  70
    32
  0
VERTEX
  8
┌▓È_1
  5
236
 10
870.565
 20
-267.972
 30
0.000000
  70
    32
  0
VERTEX
  8
┌▓È_1
  5
237
 10
870.577
 20
-267.975
 30
0.000000
  70
    32
  0
VERTEX
  8
┌▓È_1
  5
238
 10
870.588
 20
-267.977
 30
0.000000
  70
    32
  0
VERTEX
  8
┌▓È_1
  5
239
 10
870.599
 20
-267.980
 30
0.000000
  70
    32
  0
VERTEX
  8
┌▓È_1
  5
23A
 10
870.610
 20
-267.982
 30
0.000000
  70
    32
  0
VERTEX
  8
┌▓È_1
  5
23B
 10
870.622
 20
-267.985
 30
0.000000
  70
    32
  0
VERTEX
  8
┌▓È_1
  5
23C
 10
870.633
 20
-267.987
 30
0.000000
  70
    32
  0
VERTEX
  8
┌▓È_1
  5
23D
 10
870.644
 20
-267.990
 30
0.000000
  70
    32
  0
VERTEX
  8
┌▓È_1
  5
23E
 10
870.656
 20
-267.992
 30
0.000000
  70
    32
  0
VERTEX
  8
┌▓È_1
  5
23F
 10
870.667
 20
-267.995
 30
0.000000
  70
    32
  0
VERTEX
  8
┌▓È_1
  5
240
 10
870.678
 20
-267.997
 30
0.000000
  70
    32
  0
VERTEX
  8
┌▓È_1
  5
241
 10
870.689
 20
-268.000
 30
0.000000
  70
    32
  0
VERTEX
  8
┌▓È_1
  5
242
 10
870.701
 20
-268.002
 30
0.000000
  70
    32
  0
VERTEX
  8
┌▓È_1
  5
243
 10
870.712
 20
-268.005
 30
0.000000
  70
    32
  0
VERTEX
  8
┌▓È_1
  5
244
 10
870.723
 20
-268.007
 30
0.000000
  70
    32
  0
VERTEX
  8
┌▓È_1
  5
245
 10
870.735
 20
-268.009
 30
0.000000
  70
    32
  0
VERTEX
  8
┌▓È_1
  5
246
 10
870.746
 20
-268.012
 30
0.000000
  70
    32
  0
VERTEX
  8
┌▓È_1
  5
247
 10
870.757
 20
-268.014
 30
0.000000
  70
    32
  0
VERTEX
  8
┌▓È_1
  5
248
 10
870.769
 20
-268.017
 30
0.000000
  70
    32
  0
VERTEX
  8
┌▓È_1
  5
249
 10
870.780
 20
-268.019
 30
0.000000
  70
    32
  0
VERTEX
  8
┌▓È_1
  5
24A
 10
870.791
 20
-268.022
 30
0.000000
  70
    32
  0
VERTEX
  8
┌▓È_1
  5
24B
 10
870.802
 20
-268.024
 30
0.000000
  70
    32
  0
VERTEX
  8
┌▓È_1
  5
24C
 10
870.814
 20
-268.026
 30
0.000000
  70
    32
  0
VERTEX
  8
┌▓È_1
  5
24D
 10
870.825
 20
-268.029
 30
0.000000
  70
    32
  0
VERTEX
  8
┌▓È_1
  5
24E
 10
870.836
 20
-268.031
 30
0.000000
  70
    32
  0
VERTEX
  8
┌▓È_1
  5
24F
 10
870.848
 20
-268.034
 30
0.000000
  70
    32
  0
VERTEX
  8
┌▓È_1
  5
250
 10
870.859
 20
-268.036
 30
0.000000
  70
    32
  0
VERTEX
  8
┌▓È_1
  5
251
 10
870.870
 20
-268.039
 30
0.000000
  70
    32
  0
VERTEX
  8
┌▓È_1
  5
252
 10
870.882
 20
-268.041
 30
0.000000
  70
    32
  0
VERTEX
  8
┌▓È_1
  5
253
 10
870.893
 20
-268.043
 30
0.000000
  70
    32
  0
VERTEX
  8
┌▓È_1
  5
254
 10
870.904
 20
-268.046
 30
0.000000
  70
    32
  0
VERTEX
  8
┌▓È_1
  5
255
 10
870.916
 20
-268.048
 30
0.000000
  70
    32
  0
VERTEX
  8
┌▓È_1
  5
256
 10
870.927
 20
-268.050
 30
0.000000
  70
    32
  0
VERTEX
  8
┌▓È_1
  5
257
 10
870.938
 20
-268.053
 30
0.000000
  70
    32
  0
VERTEX
  8
┌▓È_1
  5
258
 10
870.950
 20
-268.055
 30
0.000000
  70
    32
  0
VERTEX
  8
┌▓È_1
  5
259
 10
870.961
 20
-268.058
 30
0.000000
  70
    32
  0
VERTEX
  8
┌▓È_1
  5
25A
 10
870.972
 20
-268.060
 30
0.000000
  70
    32
  0
VERTEX
  8
┌▓È_1
  5
25B
 10
870.984
 20
-268.062
 30
0.000000
  70
    32
  0
VERTEX
  8
┌▓È_1
  5
25C
 10
870.995
 20
-268.065
 30
0.000000
  70
    32
  0
VERTEX
  8
┌▓È_1
  5
25D
 10
871.006
 20
-268.067
 30
0.000000
  70
    32
  0
VERTEX
  8
┌▓È_1
  5
25E
 10
871.018
 20
-268.069
 30
0.000000
  70
    32
  0
VERTEX
  8
┌▓È_1
  5
25F
 10
871.029
 20
-268.072
 30
0.000000
  70
    32
  0
VERTEX
  8
┌▓È_1
  5
260
 10
871.040
 20
-268.074
 30
0.000000
  70
    32
  0
VERTEX
  8
┌▓È_1
  5
261
 10
871.052
 20
-268.077
 30
0.000000
  70
    32
  0
VERTEX
  8
┌▓È_1
  5
262
 10
871.063
 20
-268.079
 30
0.000000
  70
    32
  0
VERTEX
  8
┌▓È_1
  5
263
 10
871.074
 20
-268.081
 30
0.000000
  70
    32
  0
VERTEX
  8
┌▓È_1
  5
264
 10
871.086
 20
-268.084
 30
0.000000
  70
    32
  0
VERTEX
  8
┌▓È_1
  5
265
 10
871.097
 20
-268.086
 30
0.000000
  70
    32
  0
VERTEX
  8
┌▓È_1
  5
266
 10
871.109
 20
-268.088
 30
0.000000
  70
    32
  0
VERTEX
  8
┌▓È_1
  5
267
 10
871.120
 20
-268.091
 30
0.000000
  70
    32
  0
VERTEX
  8
┌▓È_1
  5
268
 10
871.131
 20
-268.093
 30
0.000000
  70
    32
  0
VERTEX
  8
┌▓È_1
  5
269
 10
871.143
 20
-268.095
 30
0.000000
  70
    32
  0
SEQEND
  8
┌▓È_1
  5
26A
  0
POLYLINE
  8
┌▓È_1
  5
26B
  62
5
  66
     1
 10
0.000000
 20
0.000000
 30
0.000000
  70
     8
  0
VERTEX
  8
┌▓È_1
  5
26C
 10
867.543
 20
-266.353
 30
0.000000
  70
    32
  0
VERTEX
  8
┌▓È_1
  5
26D
 10
867.550
 20
-266.360
 30
0.000000
  70
    32
  0
VERTEX
  8
┌▓È_1
  5
26E
 10
867.557
 20
-266.366
 30
0.000000
  70
    32
  0
VERTEX
  8
┌▓È_1
  5
26F
 10
867.564
 20
-266.373
 30
0.000000
  70
    32
  0
VERTEX
  8
┌▓È_1
  5
270
 10
867.571
 20
-266.380
 30
0.000000
  70
    32
  0
VERTEX
  8
┌▓È_1
  5
271
 10
867.579
 20
-266.386
 30
0.000000
  70
    32
  0
VERTEX
  8
┌▓È_1
  5
272
 10
867.586
 20
-266.393
 30
0.000000
  70
    32
  0
VERTEX
  8
┌▓È_1
  5
273
 10
867.593
 20
-266.400
 30
0.000000
  70
    32
  0
VERTEX
  8
┌▓È_1
  5
274
 10
867.600
 20
-266.406
 30
0.000000
  70
    32
  0
VERTEX
  8
┌▓È_1
  5
275
 10
867.607
 20
-266.413
 30
0.000000
  70
    32
  0
VERTEX
  8
┌▓È_1
  5
276
 10
867.615
 20
-266.420
 30
0.000000
  70
    32
  0
VERTEX
  8
┌▓È_1
  5
277
 10
867.622
 20
-266.426
 30
0.000000
  70
    32
  0
VERTEX
  8
┌▓È_1
  5
278
 10
867.629
 20
-266.433
 30
0.000000
  70
    32
  0
VERTEX
  8
┌▓È_1
  5
279
 10
867.636
 20
-266.439
 30
0.000000
  70
    32
  0
VERTEX
  8
┌▓È_1
  5
27A
 10
867.643
 20
-266.446
 30
0.000000
  70
    32
  0
VERTEX
  8
┌▓È_1
  5
27B
 10
867.651
 20
-266.453
 30
0.000000
  70
    32
  0
VERTEX
  8
┌▓È_1
  5
27C
 10
867.658
 20
-266.459
 30
0.000000
  70
    32
  0
VERTEX
  8
┌▓È_1
  5
27D
 10
867.665
 20
-266.466
 30
0.000000
  70
    32
  0
VERTEX
  8
┌▓È_1
  5
27E
 10
867.672
 20
-266.473
 30
0.000000
  70
    32
  0
VERTEX
  8
┌▓È_1
  5
27F
 10
867.680
 20
-266.479
 30
0.000000
  70
    32
  0
VERTEX
  8
┌▓È_1
  5
280
 10
867.687
 20
-266.486
 30
0.000000
  70
    32
  0
VERTEX
  8
┌▓È_1
  5
281
 10
867.694
 20
-266.492
 30
0.000000
  70
    32
  0
VERTEX
  8
┌▓È_1
  5
282
 10
867.701
 20
-266.499
 30
0.000000
  70
    32
  0
VERTEX
  8
┌▓È_1
  5
283
 10
867.708
 20
-266.506
 30
0.000000
  70
    32
  0
VERTEX
  8
┌▓È_1
  5
284
 10
867.716
 20
-266.512
 30
0.000000
  70
    32
  0
VERTEX
  8
┌▓È_1
  5
285
 10
867.723
 20
-266.519
 30
0.000000
  70
    32
  0
VERTEX
  8
┌▓È_1
  5
286
 10
867.730
 20
-266.525
 30
0.000000
  70
    32
  0
VERTEX
  8
┌▓È_1
  5
287
 10
867.737
 20
-266.532
 30
0.000000
  70
    32
  0
VERTEX
  8
┌▓È_1
  5
288
 10
867.745
 20
-266.539
 30
0.000000
  70
    32
  0
VERTEX
  8
┌▓È_1
  5
289
 10
867.752
 20
-266.545
 30
0.000000
  70
    32
  0
VERTEX
  8
┌▓È_1
  5
28A
 10
867.759
 20
-266.552
 30
0.000000
  70
    32
  0
VERTEX
  8
┌▓È_1
  5
28B
 10
867.766
 20
-266.558
 30
0.000000
  70
    32
  0
VERTEX
  8
┌▓È_1
  5
28C
 10
867.774
 20
-266.565
 30
0.000000
  70
    32
  0
VERTEX
  8
┌▓È_1
  5
28D
 10
867.781
 20
-266.571
 30
0.000000
  70
    32
  0
VERTEX
  8
┌▓È_1
  5
28E
 10
867.788
 20
-266.578
 30
0.000000
  70
    32
  0
VERTEX
  8
┌▓È_1
  5
28F
 10
867.795
 20
-266.585
 30
0.000000
  70
    32
  0
VERTEX
  8
┌▓È_1
  5
290
 10
867.803
 20
-266.591
 30
0.000000
  70
    32
  0
VERTEX
  8
┌▓È_1
  5
291
 10
867.810
 20
-266.598
 30
0.000000
  70
    32
  0
VERTEX
  8
┌▓È_1
  5
292
 10
867.817
 20
-266.604
 30
0.000000
  70
    32
  0
VERTEX
  8
┌▓È_1
  5
293
 10
867.824
 20
-266.611
 30
0.000000
  70
    32
  0
VERTEX
  8
┌▓È_1
  5
294
 10
867.832
 20
-266.617
 30
0.000000
  70
    32
  0
VERTEX
  8
┌▓È_1
  5
295
 10
867.839
 20
-266.624
 30
0.000000
  70
    32
  0
VERTEX
  8
┌▓È_1
  5
296
 10
867.846
 20
-266.630
 30
0.000000
  70
    32
  0
VERTEX
  8
┌▓È_1
  5
297
 10
867.853
 20
-266.637
 30
0.000000
  70
    32
  0
VERTEX
  8
┌▓È_1
  5
298
 10
867.861
 20
-266.643
 30
0.000000
  70
    32
  0
VERTEX
  8
┌▓È_1
  5
299
 10
867.868
 20
-266.650
 30
0.000000
  70
    32
  0
VERTEX
  8
┌▓È_1
  5
29A
 10
867.875
 20
-266.656
 30
0.000000
  70
    32
  0
VERTEX
  8
┌▓È_1
  5
29B
 10
867.882
 20
-266.663
 30
0.000000
  70
    32
  0
VERTEX
  8
┌▓È_1
  5
29C
 10
867.890
 20
-266.669
 30
0.000000
  70
    32
  0
VERTEX
  8
┌▓È_1
  5
29D
 10
867.897
 20
-266.676
 30
0.000000
  70
    32
  0
VERTEX
  8
┌▓È_1
  5
29E
 10
867.904
 20
-266.682
 30
0.000000
  70
    32
  0
VERTEX
  8
┌▓È_1
  5
29F
 10
867.912
 20
-266.689
 30
0.000000
  70
    32
  0
VERTEX
  8
┌▓È_1
  5
2A0
 10
867.919
 20
-266.695
 30
0.000000
  70
    32
  0
VERTEX
  8
┌▓È_1
  5
2A1
 10
867.926
 20
-266.702
 30
0.000000
  70
    32
  0
VERTEX
  8
┌▓È_1
  5
2A2
 10
867.934
 20
-266.708
 30
0.000000
  70
    32
  0
VERTEX
  8
┌▓È_1
  5
2A3
 10
867.941
 20
-266.715
 30
0.000000
  70
    32
  0
VERTEX
  8
┌▓È_1
  5
2A4
 10
867.948
 20
-266.721
 30
0.000000
  70
    32
  0
VERTEX
  8
┌▓È_1
  5
2A5
 10
867.956
 20
-266.727
 30
0.000000
  70
    32
  0
VERTEX
  8
┌▓È_1
  5
2A6
 10
867.963
 20
-266.734
 30
0.000000
  70
    32
  0
VERTEX
  8
┌▓È_1
  5
2A7
 10
867.970
 20
-266.740
 30
0.000000
  70
    32
  0
VERTEX
  8
┌▓È_1
  5
2A8
 10
867.978
 20
-266.747
 30
0.000000
  70
    32
  0
VERTEX
  8
┌▓È_1
  5
2A9
 10
867.985
 20
-266.753
 30
0.000000
  70
    32
  0
VERTEX
  8
┌▓È_1
  5
2AA
 10
867.992
 20
-266.759
 30
0.000000
  70
    32
  0
VERTEX
  8
┌▓È_1
  5
2AB
 10
868.000
 20
-266.766
 30
0.000000
  70
    32
  0
VERTEX
  8
┌▓È_1
  5
2AC
 10
868.007
 20
-266.772
 30
0.000000
  70
    32
  0
VERTEX
  8
┌▓È_1
  5
2AD
 10
868.014
 20
-266.778
 30
0.000000
  70
    32
  0
VERTEX
  8
┌▓È_1
  5
2AE
 10
868.022
 20
-266.785
 30
0.000000
  70
    32
  0
VERTEX
  8
┌▓È_1
  5
2AF
 10
868.029
 20
-266.791
 30
0.000000
  70
    32
  0
VERTEX
  8
┌▓È_1
  5
2B0
 10
868.036
 20
-266.797
 30
0.000000
  70
    32
  0
VERTEX
  8
┌▓È_1
  5
2B1
 10
868.044
 20
-266.804
 30
0.000000
  70
    32
  0
VERTEX
  8
┌▓È_1
  5
2B2
 10
868.051
 20
-266.810
 30
0.000000
  70
    32
  0
VERTEX
  8
┌▓È_1
  5
2B3
 10
868.059
 20
-266.816
 30
0.000000
  70
    32
  0
VERTEX
  8
┌▓È_1
  5
2B4
 10
868.066
 20
-266.823
 30
0.000000
  70
    32
  0
VERTEX
  8
┌▓È_1
  5
2B5
 10
868.073
 20
-266.829
 30
0.000000
  70
    32
  0
VERTEX
  8
┌▓È_1
  5
2B6
 10
868.081
 20
-266.835
 30
0.000000
  70
    32
  0
VERTEX
  8
┌▓È_1
  5
2B7
 10
868.088
 20
-266.841
 30
0.000000
  70
    32
  0
VERTEX
  8
┌▓È_1
  5
2B8
 10
868.096
 20
-266.848
 30
0.000000
  70
    32
  0
VERTEX
  8
┌▓È_1
  5
2B9
 10
868.103
 20
-266.854
 30
0.000000
  70
    32
  0
VERTEX
  8
┌▓È_1
  5
2BA
 10
868.110
 20
-266.860
 30
0.000000
  70
    32
  0
VERTEX
  8
┌▓È_1
  5
2BB
 10
868.118
 20
-266.866
 30
0.000000
  70
    32
  0
VERTEX
  8
┌▓È_1
  5
2BC
 10
868.125
 20
-266.873
 30
0.000000
  70
    32
  0
VERTEX
  8
┌▓È_1
  5
2BD
 10
868.133
 20
-266.879
 30
0.000000
  70
    32
  0
VERTEX
  8
┌▓È_1
  5
2BE
 10
868.140
 20
-266.885
 30
0.000000
  70
    32
  0
VERTEX
  8
┌▓È_1
  5
2BF
 10
868.148
 20
-266.891
 30
0.000000
  70
    32
  0
VERTEX
  8
┌▓È_1
  5
2C0
 10
868.155
 20
-266.897
 30
0.000000
  70
    32
  0
VERTEX
  8
┌▓È_1
  5
2C1
 10
868.163
 20
-266.903
 30
0.000000
  70
    32
  0
VERTEX
  8
┌▓È_1
  5
2C2
 10
868.170
 20
-266.910
 30
0.000000
  70
    32
  0
VERTEX
  8
┌▓È_1
  5
2C3
 10
868.178
 20
-266.916
 30
0.000000
  70
    32
  0
VERTEX
  8
┌▓È_1
  5
2C4
 10
868.185
 20
-266.922
 30
0.000000
  70
    32
  0
VERTEX
  8
┌▓È_1
  5
2C5
 10
868.193
 20
-266.928
 30
0.000000
  70
    32
  0
VERTEX
  8
┌▓È_1
  5
2C6
 10
868.200
 20
-266.934
 30
0.000000
  70
    32
  0
VERTEX
  8
┌▓È_1
  5
2C7
 10
868.208
 20
-266.940
 30
0.000000
  70
    32
  0
VERTEX
  8
┌▓È_1
  5
2C8
 10
868.215
 20
-266.946
 30
0.000000
  70
    32
  0
VERTEX
  8
┌▓È_1
  5
2C9
 10
868.223
 20
-266.952
 30
0.000000
  70
    32
  0
VERTEX
  8
┌▓È_1
  5
2CA
 10
868.230
 20
-266.958
 30
0.000000
  70
    32
  0
VERTEX
  8
┌▓È_1
  5
2CB
 10
868.238
 20
-266.964
 30
0.000000
  70
    32
  0
VERTEX
  8
┌▓È_1
  5
2CC
 10
868.245
 20
-266.970
 30
0.000000
  70
    32
  0
VERTEX
  8
┌▓È_1
  5
2CD
 10
868.253
 20
-266.976
 30
0.000000
  70
    32
  0
VERTEX
  8
┌▓È_1
  5
2CE
 10
868.260
 20
-266.982
 30
0.000000
  70
    32
  0
VERTEX
  8
┌▓È_1
  5
2CF
 10
868.268
 20
-266.988
 30
0.000000
  70
    32
  0
VERTEX
  8
┌▓È_1
  5
2D0
 10
868.275
 20
-266.994
 30
0.000000
  70
    32
  0
VERTEX
  8
┌▓È_1
  5
2D1
 10
868.283
 20
-267.000
 30
0.000000
  70
    32
  0
VERTEX
  8
┌▓È_1
  5
2D2
 10
868.291
 20
-267.006
 30
0.000000
  70
    32
  0
VERTEX
  8
┌▓È_1
  5
2D3
 10
868.298
 20
-267.012
 30
0.000000
  70
    32
  0
VERTEX
  8
┌▓È_1
  5
2D4
 10
868.306
 20
-267.018
 30
0.000000
  70
    32
  0
VERTEX
  8
┌▓È_1
  5
2D5
 10
868.313
 20
-267.024
 30
0.000000
  70
    32
  0
VERTEX
  8
┌▓È_1
  5
2D6
 10
868.321
 20
-267.030
 30
0.000000
  70
    32
  0
VERTEX
  8
┌▓È_1
  5
2D7
 10
868.329
 20
-267.035
 30
0.000000
  70
    32
  0
VERTEX
  8
┌▓È_1
  5
2D8
 10
868.336
 20
-267.041
 30
0.000000
  70
    32
  0
VERTEX
  8
┌▓È_1
  5
2D9
 10
868.344
 20
-267.047
 30
0.000000
  70
    32
  0
VERTEX
  8
┌▓È_1
  5
2DA
 10
868.352
 20
-267.053
 30
0.000000
  70
    32
  0
VERTEX
  8
┌▓È_1
  5
2DB
 10
868.359
 20
-267.059
 30
0.000000
  70
    32
  0
VERTEX
  8
┌▓È_1
  5
2DC
 10
868.367
 20
-267.065
 30
0.000000
  70
    32
  0
VERTEX
  8
┌▓È_1
  5
2DD
 10
868.375
 20
-267.070
 30
0.000000
  70
    32
  0
VERTEX
  8
┌▓È_1
  5
2DE
 10
868.382
 20
-267.076
 30
0.000000
  70
    32
  0
VERTEX
  8
┌▓È_1
  5
2DF
 10
868.390
 20
-267.082
 30
0.000000
  70
    32
  0
VERTEX
  8
┌▓È_1
  5
2E0
 10
868.398
 20
-267.088
 30
0.000000
  70
    32
  0
VERTEX
  8
┌▓È_1
  5
2E1
 10
868.405
 20
-267.093
 30
0.000000
  70
    32
  0
VERTEX
  8
┌▓È_1
  5
2E2
 10
868.413
 20
-267.099
 30
0.000000
  70
    32
  0
VERTEX
  8
┌▓È_1
  5
2E3
 10
868.421
 20
-267.105
 30
0.000000
  70
    32
  0
VERTEX
  8
┌▓È_1
  5
2E4
 10
868.429
 20
-267.110
 30
0.000000
  70
    32
  0
VERTEX
  8
┌▓È_1
  5
2E5
 10
868.436
 20
-267.116
 30
0.000000
  70
    32
  0
VERTEX
  8
┌▓È_1
  5
2E6
 10
868.444
 20
-267.121
 30
0.000000
  70
    32
  0
VERTEX
  8
┌▓È_1
  5
2E7
 10
868.452
 20
-267.127
 30
0.000000
  70
    32
  0
VERTEX
  8
┌▓È_1
  5
2E8
 10
868.460
 20
-267.133
 30
0.000000
  70
    32
  0
VERTEX
  8
┌▓È_1
  5
2E9
 10
868.467
 20
-267.138
 30
0.000000
  70
    32
  0
VERTEX
  8
┌▓È_1
  5
2EA
 10
868.475
 20
-267.144
 30
0.000000
  70
    32
  0
VERTEX
  8
┌▓È_1
  5
2EB
 10
868.483
 20
-267.149
 30
0.000000
  70
    32
  0
VERTEX
  8
┌▓È_1
  5
2EC
 10
868.491
 20
-267.155
 30
0.000000
  70
    32
  0
VERTEX
  8
┌▓È_1
  5
2ED
 10
868.499
 20
-267.160
 30
0.000000
  70
    32
  0
VERTEX
  8
┌▓È_1
  5
2EE
 10
868.507
 20
-267.166
 30
0.000000
  70
    32
  0
VERTEX
  8
┌▓È_1
  5
2EF
 10
868.514
 20
-267.171
 30
0.000000
  70
    32
  0
VERTEX
  8
┌▓È_1
  5
2F0
 10
868.522
 20
-267.177
 30
0.000000
  70
    32
  0
VERTEX
  8
┌▓È_1
  5
2F1
 10
868.530
 20
-267.182
 30
0.000000
  70
    32
  0
VERTEX
  8
┌▓È_1
  5
2F2
 10
868.538
 20
-267.188
 30
0.000000
  70
    32
  0
VERTEX
  8
┌▓È_1
  5
2F3
 10
868.546
 20
-267.193
 30
0.000000
  70
    32
  0
VERTEX
  8
┌▓È_1
  5
2F4
 10
868.554
 20
-267.198
 30
0.000000
  70
    32
  0
VERTEX
  8
┌▓È_1
  5
2F5
 10
868.562
 20
-267.204
 30
0.000000
  70
    32
  0
VERTEX
  8
┌▓È_1
  5
2F6
 10
868.570
 20
-267.209
 30
0.000000
  70
    32
  0
VERTEX
  8
┌▓È_1
  5
2F7
 10
868.577
 20
-267.214
 30
0.000000
  70
    32
  0
VERTEX
  8
┌▓È_1
  5
2F8
 10
868.585
 20
-267.220
 30
0.000000
  70
    32
  0
VERTEX
  8
┌▓È_1
  5
2F9
 10
868.593
 20
-267.225
 30
0.000000
  70
    32
  0
VERTEX
  8
┌▓È_1
  5
2FA
 10
868.601
 20
-267.230
 30
0.000000
  70
    32
  0
VERTEX
  8
┌▓È_1
  5
2FB
 10
868.609
 20
-267.235
 30
0.000000
  70
    32
  0
VERTEX
  8
┌▓È_1
  5
2FC
 10
868.617
 20
-267.241
 30
0.000000
  70
    32
  0
VERTEX
  8
┌▓È_1
  5
2FD
 10
868.625
 20
-267.246
 30
0.000000
  70
    32
  0
VERTEX
  8
┌▓È_1
  5
2FE
 10
868.633
 20
-267.251
 30
0.000000
  70
    32
  0
VERTEX
  8
┌▓È_1
  5
2FF
 10
868.641
 20
-267.256
 30
0.000000
  70
    32
  0
VERTEX
  8
┌▓È_1
  5
300
 10
868.649
 20
-267.261
 30
0.000000
  70
    32
  0
VERTEX
  8
┌▓È_1
  5
301
 10
868.657
 20
-267.266
 30
0.000000
  70
    32
  0
VERTEX
  8
┌▓È_1
  5
302
 10
868.665
 20
-267.272
 30
0.000000
  70
    32
  0
VERTEX
  8
┌▓È_1
  5
303
 10
868.673
 20
-267.277
 30
0.000000
  70
    32
  0
VERTEX
  8
┌▓È_1
  5
304
 10
868.681
 20
-267.282
 30
0.000000
  70
    32
  0
VERTEX
  8
┌▓È_1
  5
305
 10
868.690
 20
-267.287
 30
0.000000
  70
    32
  0
VERTEX
  8
┌▓È_1
  5
306
 10
868.698
 20
-267.292
 30
0.000000
  70
    32
  0
VERTEX
  8
┌▓È_1
  5
307
 10
868.706
 20
-267.297
 30
0.000000
  70
    32
  0
VERTEX
  8
┌▓È_1
  5
308
 10
868.714
 20
-267.302
 30
0.000000
  70
    32
  0
VERTEX
  8
┌▓È_1
  5
309
 10
868.722
 20
-267.307
 30
0.000000
  70
    32
  0
VERTEX
  8
┌▓È_1
  5
30A
 10
868.730
 20
-267.312
 30
0.000000
  70
    32
  0
VERTEX
  8
┌▓È_1
  5
30B
 10
868.738
 20
-267.316
 30
0.000000
  70
    32
  0
SEQEND
  8
┌▓È_1
  5
30C
  0
POLYLINE
  8
┌▓È_1
  5
30D
  62
5
  66
     1
 10
0.000000
 20
0.000000
 30
0.000000
  70
     8
  0
VERTEX
  8
┌▓È_1
  5
30E
 10
870.216
 20
-267.305
 30
0.000000
  70
    32
  0
VERTEX
  8
┌▓È_1
  5
30F
 10
870.223
 20
-267.307
 30
0.000000
  70
    32
  0
VERTEX
  8
┌▓È_1
  5
310
 10
870.230
 20
-267.309
 30
0.000000
  70
    32
  0
VERTEX
  8
┌▓È_1
  5
311
 10
870.237
 20
-267.311
 30
0.000000
  70
    32
  0
VERTEX
  8
┌▓È_1
  5
312
 10
870.244
 20
-267.313
 30
0.000000
  70
    32
  0
VERTEX
  8
┌▓È_1
  5
313
 10
870.251
 20
-267.315
 30
0.000000
  70
    32
  0
VERTEX
  8
┌▓È_1
  5
314
 10
870.258
 20
-267.317
 30
0.000000
  70
    32
  0
VERTEX
  8
┌▓È_1
  5
315
 10
870.266
 20
-267.318
 30
0.000000
  70
    32
  0
VERTEX
  8
┌▓È_1
  5
316
 10
870.273
 20
-267.320
 30
0.000000
  70
    32
  0
VERTEX
  8
┌▓È_1
  5
317
 10
870.280
 20
-267.322
 30
0.000000
  70
    32
  0
VERTEX
  8
┌▓È_1
  5
318
 10
870.287
 20
-267.324
 30
0.000000
  70
    32
  0
VERTEX
  8
┌▓È_1
  5
319
 10
870.294
 20
-267.326
 30
0.000000
  70
    32
  0
VERTEX
  8
┌▓È_1
  5
31A
 10
870.301
 20
-267.328
 30
0.000000
  70
    32
  0
VERTEX
  8
┌▓È_1
  5
31B
 10
870.308
 20
-267.330
 30
0.000000
  70
    32
  0
VERTEX
  8
┌▓È_1
  5
31C
 10
870.315
 20
-267.332
 30
0.000000
  70
    32
  0
VERTEX
  8
┌▓È_1
  5
31D
 10
870.322
 20
-267.333
 30
0.000000
  70
    32
  0
VERTEX
  8
┌▓È_1
  5
31E
 10
870.329
 20
-267.335
 30
0.000000
  70
    32
  0
VERTEX
  8
┌▓È_1
  5
31F
 10
870.336
 20
-267.337
 30
0.000000
  70
    32
  0
VERTEX
  8
┌▓È_1
  5
320
 10
870.343
 20
-267.339
 30
0.000000
  70
    32
  0
VERTEX
  8
┌▓È_1
  5
321
 10
870.350
 20
-267.341
 30
0.000000
  70
    32
  0
VERTEX
  8
┌▓È_1
  5
322
 10
870.358
 20
-267.342
 30
0.000000
  70
    32
  0
VERTEX
  8
┌▓È_1
  5
323
 10
870.365
 20
-267.344
 30
0.000000
  70
    32
  0
VERTEX
  8
┌▓È_1
  5
324
 10
870.372
 20
-267.346
 30
0.000000
  70
    32
  0
VERTEX
  8
┌▓È_1
  5
325
 10
870.379
 20
-267.348
 30
0.000000
  70
    32
  0
VERTEX
  8
┌▓È_1
  5
326
 10
870.386
 20
-267.349
 30
0.000000
  70
    32
  0
VERTEX
  8
┌▓È_1
  5
327
 10
870.393
 20
-267.351
 30
0.000000
  70
    32
  0
VERTEX
  8
┌▓È_1
  5
328
 10
870.400
 20
-267.353
 30
0.000000
  70
    32
  0
VERTEX
  8
┌▓È_1
  5
329
 10
870.408
 20
-267.355
 30
0.000000
  70
    32
  0
VERTEX
  8
┌▓È_1
  5
32A
 10
870.415
 20
-267.356
 30
0.000000
  70
    32
  0
VERTEX
  8
┌▓È_1
  5
32B
 10
870.422
 20
-267.358
 30
0.000000
  70
    32
  0
VERTEX
  8
┌▓È_1
  5
32C
 10
870.429
 20
-267.360
 30
0.000000
  70
    32
  0
VERTEX
  8
┌▓È_1
  5
32D
 10
870.436
 20
-267.361
 30
0.000000
  70
    32
  0
VERTEX
  8
┌▓È_1
  5
32E
 10
870.443
 20
-267.363
 30
0.000000
  70
    32
  0
VERTEX
  8
┌▓È_1
  5
32F
 10
870.451
 20
-267.365
 30
0.000000
  70
    32
  0
VERTEX
  8
┌▓È_1
  5
330
 10
870.458
 20
-267.366
 30
0.000000
  70
    32
  0
VERTEX
  8
┌▓È_1
  5
331
 10
870.465
 20
-267.368
 30
0.000000
  70
    32
  0
VERTEX
  8
┌▓È_1
  5
332
 10
870.472
 20
-267.370
 30
0.000000
  70
    32
  0
VERTEX
  8
┌▓È_1
  5
333
 10
870.479
 20
-267.371
 30
0.000000
  70
    32
  0
VERTEX
  8
┌▓È_1
  5
334
 10
870.487
 20
-267.373
 30
0.000000
  70
    32
  0
VERTEX
  8
┌▓È_1
  5
335
 10
870.494
 20
-267.375
 30
0.000000
  70
    32
  0
VERTEX
  8
┌▓È_1
  5
336
 10
870.501
 20
-267.376
 30
0.000000
  70
    32
  0
VERTEX
  8
┌▓È_1
  5
337
 10
870.508
 20
-267.378
 30
0.000000
  70
    32
  0
VERTEX
  8
┌▓È_1
  5
338
 10
870.516
 20
-267.379
 30
0.000000
  70
    32
  0
VERTEX
  8
┌▓È_1
  5
339
 10
870.523
 20
-267.381
 30
0.000000
  70
    32
  0
VERTEX
  8
┌▓È_1
  5
33A
 10
870.530
 20
-267.382
 30
0.000000
  70
    32
  0
VERTEX
  8
┌▓È_1
  5
33B
 10
870.537
 20
-267.384
 30
0.000000
  70
    32
  0
VERTEX
  8
┌▓È_1
  5
33C
 10
870.545
 20
-267.386
 30
0.000000
  70
    32
  0
VERTEX
  8
┌▓È_1
  5
33D
 10
870.552
 20
-267.387
 30
0.000000
  70
    32
  0
VERTEX
  8
┌▓È_1
  5
33E
 10
870.559
 20
-267.389
 30
0.000000
  70
    32
  0
VERTEX
  8
┌▓È_1
  5
33F
 10
870.566
 20
-267.390
 30
0.000000
  70
    32
  0
VERTEX
  8
┌▓È_1
  5
340
 10
870.574
 20
-267.392
 30
0.000000
  70
    32
  0
VERTEX
  8
┌▓È_1
  5
341
 10
870.581
 20
-267.393
 30
0.000000
  70
    32
  0
VERTEX
  8
┌▓È_1
  5
342
 10
870.588
 20
-267.395
 30
0.000000
  70
    32
  0
VERTEX
  8
┌▓È_1
  5
343
 10
870.596
 20
-267.396
 30
0.000000
  70
    32
  0
VERTEX
  8
┌▓È_1
  5
344
 10
870.603
 20
-267.398
 30
0.000000
  70
    32
  0
VERTEX
  8
┌▓È_1
  5
345
 10
870.610
 20
-267.399
 30
0.000000
  70
    32
  0
VERTEX
  8
┌▓È_1
  5
346
 10
870.617
 20
-267.401
 30
0.000000
  70
    32
  0
VERTEX
  8
┌▓È_1
  5
347
 10
870.625
 20
-267.402
 30
0.000000
  70
    32
  0
VERTEX
  8
┌▓È_1
  5
348
 10
870.632
 20
-267.404
 30
0.000000
  70
    32
  0
VERTEX
  8
┌▓È_1
  5
349
 10
870.639
 20
-267.405
 30
0.000000
  70
    32
  0
VERTEX
  8
┌▓È_1
  5
34A
 10
870.647
 20
-267.407
 30
0.000000
  70
    32
  0
VERTEX
  8
┌▓È_1
  5
34B
 10
870.654
 20
-267.408
 30
0.000000
  70
    32
  0
VERTEX
  8
┌▓È_1
  5
34C
 10
870.661
 20
-267.410
 30
0.000000
  70
    32
  0
VERTEX
  8
┌▓È_1
  5
34D
 10
870.669
 20
-267.411
 30
0.000000
  70
    32
  0
VERTEX
  8
┌▓È_1
  5
34E
 10
870.676
 20
-267.412
 30
0.000000
  70
    32
  0
VERTEX
  8
┌▓È_1
  5
34F
 10
870.683
 20
-267.414
 30
0.000000
  70
    32
  0
VERTEX
  8
┌▓È_1
  5
350
 10
870.691
 20
-267.415
 30
0.000000
  70
    32
  0
VERTEX
  8
┌▓È_1
  5
351
 10
870.698
 20
-267.417
 30
0.000000
  70
    32
  0
VERTEX
  8
┌▓È_1
  5
352
 10
870.705
 20
-267.418
 30
0.000000
  70
    32
  0
VERTEX
  8
┌▓È_1
  5
353
 10
870.713
 20
-267.420
 30
0.000000
  70
    32
  0
VERTEX
  8
┌▓È_1
  5
354
 10
870.720
 20
-267.421
 30
0.000000
  70
    32
  0
VERTEX
  8
┌▓È_1
  5
355
 10
870.727
 20
-267.422
 30
0.000000
  70
    32
  0
VERTEX
  8
┌▓È_1
  5
356
 10
870.735
 20
-267.424
 30
0.000000
  70
    32
  0
VERTEX
  8
┌▓È_1
  5
357
 10
870.742
 20
-267.425
 30
0.000000
  70
    32
  0
VERTEX
  8
┌▓È_1
  5
358
 10
870.749
 20
-267.427
 30
0.000000
  70
    32
  0
VERTEX
  8
┌▓È_1
  5
359
 10
870.757
 20
-267.428
 30
0.000000
  70
    32
  0
VERTEX
  8
┌▓È_1
  5
35A
 10
870.764
 20
-267.429
 30
0.000000
  70
    32
  0
VERTEX
  8
┌▓È_1
  5
35B
 10
870.772
 20
-267.431
 30
0.000000
  70
    32
  0
VERTEX
  8
┌▓È_1
  5
35C
 10
870.779
 20
-267.432
 30
0.000000
  70
    32
  0
VERTEX
  8
┌▓È_1
  5
35D
 10
870.786
 20
-267.433
 30
0.000000
  70
    32
  0
VERTEX
  8
┌▓È_1
  5
35E
 10
870.794
 20
-267.435
 30
0.000000
  70
    32
  0
VERTEX
  8
┌▓È_1
  5
35F
 10
870.801
 20
-267.436
 30
0.000000
  70
    32
  0
VERTEX
  8
┌▓È_1
  5
360
 10
870.808
 20
-267.437
 30
0.000000
  70
    32
  0
VERTEX
  8
┌▓È_1
  5
361
 10
870.816
 20
-267.439
 30
0.000000
  70
    32
  0
VERTEX
  8
┌▓È_1
  5
362
 10
870.823
 20
-267.440
 30
0.000000
  70
    32
  0
VERTEX
  8
┌▓È_1
  5
363
 10
870.831
 20
-267.442
 30
0.000000
  70
    32
  0
VERTEX
  8
┌▓È_1
  5
364
 10
870.838
 20
-267.443
 30
0.000000
  70
    32
  0
VERTEX
  8
┌▓È_1
  5
365
 10
870.845
 20
-267.444
 30
0.000000
  70
    32
  0
VERTEX
  8
┌▓È_1
  5
366
 10
870.853
 20
-267.446
 30
0.000000
  70
    32
  0
VERTEX
  8
┌▓È_1
  5
367
 10
870.860
 20
-267.447
 30
0.000000
  70
    32
  0
VERTEX
  8
┌▓È_1
  5
368
 10
870.868
 20
-267.448
 30
0.000000
  70
    32
  0
VERTEX
  8
┌▓È_1
  5
369
 10
870.875
 20
-267.449
 30
0.000000
  70
    32
  0
VERTEX
  8
┌▓È_1
  5
36A
 10
870.882
 20
-267.451
 30
0.000000
  70
    32
  0
VERTEX
  8
┌▓È_1
  5
36B
 10
870.890
 20
-267.452
 30
0.000000
  70
    32
  0
VERTEX
  8
┌▓È_1
  5
36C
 10
870.897
 20
-267.453
 30
0.000000
  70
    32
  0
VERTEX
  8
┌▓È_1
  5
36D
 10
870.905
 20
-267.455
 30
0.000000
  70
    32
  0
VERTEX
  8
┌▓È_1
  5
36E
 10
870.912
 20
-267.456
 30
0.000000
  70
    32
  0
VERTEX
  8
┌▓È_1
  5
36F
 10
870.920
 20
-267.457
 30
0.000000
  70
    32
  0
VERTEX
  8
┌▓È_1
  5
370
 10
870.927
 20
-267.459
 30
0.000000
  70
    32
  0
VERTEX
  8
┌▓È_1
  5
371
 10
870.934
 20
-267.460
 30
0.000000
  70
    32
  0
VERTEX
  8
┌▓È_1
  5
372
 10
870.942
 20
-267.461
 30
0.000000
  70
    32
  0
VERTEX
  8
┌▓È_1
  5
373
 10
870.949
 20
-267.462
 30
0.000000
  70
    32
  0
VERTEX
  8
┌▓È_1
  5
374
 10
870.957
 20
-267.464
 30
0.000000
  70
    32
  0
VERTEX
  8
┌▓È_1
  5
375
 10
870.964
 20
-267.465
 30
0.000000
  70
    32
  0
VERTEX
  8
┌▓È_1
  5
376
 10
870.971
 20
-267.466
 30
0.000000
  70
    32
  0
VERTEX
  8
┌▓È_1
  5
377
 10
870.979
 20
-267.468
 30
0.000000
  70
    32
  0
VERTEX
  8
┌▓È_1
  5
378
 10
870.986
 20
-267.469
 30
0.000000
  70
    32
  0
VERTEX
  8
┌▓È_1
  5
379
 10
870.994
 20
-267.470
 30
0.000000
  70
    32
  0
VERTEX
  8
┌▓È_1
  5
37A
 10
871.001
 20
-267.471
 30
0.000000
  70
    32
  0
VERTEX
  8
┌▓È_1
  5
37B
 10
871.009
 20
-267.473
 30
0.000000
  70
    32
  0
VERTEX
  8
┌▓È_1
  5
37C
 10
871.016
 20
-267.474
 30
0.000000
  70
    32
  0
VERTEX
  8
┌▓È_1
  5
37D
 10
871.024
 20
-267.475
 30
0.000000
  70
    32
  0
VERTEX
  8
┌▓È_1
  5
37E
 10
871.031
 20
-267.477
 30
0.000000
  70
    32
  0
VERTEX
  8
┌▓È_1
  5
37F
 10
871.038
 20
-267.478
 30
0.000000
  70
    32
  0
VERTEX
  8
┌▓È_1
  5
380
 10
871.046
 20
-267.479
 30
0.000000
  70
    32
  0
VERTEX
  8
┌▓È_1
  5
381
 10
871.053
 20
-267.480
 30
0.000000
  70
    32
  0
VERTEX
  8
┌▓È_1
  5
382
 10
871.061
 20
-267.482
 30
0.000000
  70
    32
  0
VERTEX
  8
┌▓È_1
  5
383
 10
871.068
 20
-267.483
 30
0.000000
  70
    32
  0
VERTEX
  8
┌▓È_1
  5
384
 10
871.076
 20
-267.484
 30
0.000000
  70
    32
  0
VERTEX
  8
┌▓È_1
  5
385
 10
871.083
 20
-267.485
 30
0.000000
  70
    32
  0
VERTEX
  8
┌▓È_1
  5
386
 10
871.090
 20
-267.487
 30
0.000000
  70
    32
  0
VERTEX
  8
┌▓È_1
  5
387
 10
871.098
 20
-267.488
 30
0.000000
  70
    32
  0
VERTEX
  8
┌▓È_1
  5
388
 10
871.105
 20
-267.489
 30
0.000000
  70
    32
  0
VERTEX
  8
┌▓È_1
  5
389
 10
871.113
 20
-267.490
 30
0.000000
  70
    32
  0
VERTEX
  8
┌▓È_1
  5
38A
 10
871.120
 20
-267.492
 30
0.000000
  70
    32
  0
VERTEX
  8
┌▓È_1
  5
38B
 10
871.128
 20
-267.493
 30
0.000000
  70
    32
  0
VERTEX
  8
┌▓È_1
  5
38C
 10
871.135
 20
-267.494
 30
0.000000
  70
    32
  0
VERTEX
  8
┌▓È_1
  5
38D
 10
871.143
 20
-267.495
 30
0.000000
  70
    32
  0
SEQEND
  8
┌▓È_1
  5
38E
  0
INSERT
  5
34
  8
0
  6
CONTINUOUS
  2
*U4
 10
0.0
 20
0.0
 30
0.0
  0
LINE
  5
35
  8
┌▓È_1
 62
     5
 10
870.74258344960003
 20
-265.89543656180001
 30
0.0
 11
871.1425834495999
 21
-265.29543656179999
 31
0.0
  0
LINE
  5
36
  8
┌▓È_1
 62
     5
 10
873.33410984229999
 20
-267.01543656180002
 30
0.0
 11
873.24024317559997
 21
-266.69543656180002
 31
0.0
  0
LINE
  5
37
  8
┌▓È_1
 62
     5
 10
865.87834102539989
 20
-265.89543656180001
 30
0.0
 11
866.47834102539991
 21
-265.29543656179999
 31
0.0
  0
LINE
  5
38
  8
┌▓È_1
 62
     5
 10
863.07834102539982
 20
-267.29543656179999
 30
0.0
 11
864.07834102540005
 21
-267.29543656179999
 31
0.0
  0
LINE
  5
39
  8
┌▓È_1
 62
     5
 10
871.1425834495999
 20
-265.29543656179999
 30
0.0
 11
867.5425834496001
 21
-265.29543656179999
 31
0.0
  0
LINE
  5
3A
  8
┌▓È_1
 62
     5
 10
874.16196225140015
 20
-265.9754365618
 30
0.0
 11
874.10340455129995
 21
-265.7719450056
 31
0.0
  0
LINE
  5
3B
  8
┌▓È_1
 62
     5
 10
872.02957650890005
 20
-267.73543656179999
 30
0.0
 11
873.54530984229984
 21
-267.73543656179999
 31
0.0
  0
ARC
  5
3C
  8
┌▓È_1
 62
     5
 10
868.5425834496001
 20
-265.89543656180001
 30
0.0
 40
2.2000000000000002
 50
322.48761197969998
 51
0.0
  0
LINE
  5
3D
  8
┌▓È_1
 62
     5
 10
874.46123760820012
 20
-267.01543656180002
 30
0.0
 11
875.62957650889985
 21
-267.01543656180002
 31
0.0
  0
LINE
  5
3E
  8
┌▓È_1
 62
     5
 10
874.8295765089
 20
-268.29543656179999
 30
0.0
 11
874.66842823989998
 21
-267.73543656179999
 31
0.0
  0
LINE
  5
3F
  8
┌▓È_1
 62
     5
 10
864.07834102540005
 20
-266.69543656180002
 30
0.0
 11
864.87834102539989
 21
-266.69543656180002
 31
0.0
  0
LINE
  5
40
  8
┌▓È_1
 62
     5
 10
864.87834102539989
 20
-266.69543656180002
 30
0.0
 11
864.87834102539989
 21
-266.89543656180001
 31
0.0
  0
LINE
  5
41
  8
┌▓È_1
 62
     5
 10
872.02957650890005
 20
-265.9754365618
 30
0.0
 11
873.0290431755999
 21
-265.9754365618
 31
0.0
  0
LINE
  5
42
  8
┌▓È_1
 62
     5
 10
865.87834102539989
 20
-266.0954365618
 30
0.0
 11
865.87834102539989
 21
-265.89543656180001
 31
0.0
  0
LINE
  5
43
  8
┌▓È_1
 62
     5
 10
866.47834102539991
 20
-266.0954365618
 30
0.0
 11
865.87834102539989
 21
-266.0954365618
 31
0.0
  0
LINE
  5
44
  8
┌▓È_1
 62
     5
 10
872.02957650890005
 20
-267.01543656180002
 30
0.0
 11
873.33410984229999
 21
-267.01543656180002
 31
0.0
  0
LINE
  5
45
  8
┌▓È_1
 62
     5
 10
862.61789950080004
 20
-266.69543656180002
 30
0.0
 11
863.01789950080001
 21
-266.69543656180002
 31
0.0
  0
ARC
  5
46
  8
┌▓È_1
 62
     5
 10
868.5425834496001
 20
-265.89543656180001
 30
0.0
 40
2.2000000000000002
 50
270.0
 51
302.54495885400001
  0
LINE
  5
47
  8
┌▓È_1
 62
     5
 10
865.87834102539989
 20
-266.69543656180002
 30
0.0
 11
866.47834102539991
 21
-266.69543656180002
 31
0.0
  0
LINE
  5
48
  8
┌▓È_1
 10
845.97974034240008
 20
-256.1095057485
 30
0.0
 11
845.97974034240008
 21
-268.8595057485
 31
0.0
  0
LINE
  5
49
  8
┌▓È_1
 10
877.97974034239996
 20
-256.1095057485
 30
0.0
 11
877.97974034239996
 21
-268.8595057485
 31
0.0
  0
LINE
  5
4A
  8
┌▓È_1
 10
845.97974034240008
 20
-256.1095057485
 30
0.0
 11
905.97974034240008
 21
-256.1095057485
 31
0.0
  0
LINE
  5
4B
  8
┌▓È_1
 10
845.97974034240008
 20
-264.6095057485
 30
0.0
 11
905.97974034240008
 21
-264.6095057485
 31
0.0
  0
LINE
  5
4C
  8
┌▓È_1
 10
853.97974034240008
 20
-256.1095057485
 30
0.0
 11
853.97974034240008
 21
-260.3595057485
 31
0.0
  0
LINE
  5
4D
  8
┌▓È_1
 10
869.97974034239996
 20
-256.1095057485
 30
0.0
 11
869.97974034239996
 21
-264.6095057485
 31
0.0
  0
LINE
  5
4E
  8
┌▓È_1
 62
     5
 10
867.5425834496001
 20
-267.49543656179998
 30
0.0
 11
867.5425834496001
 21
-268.0954365618
 31
0.0
  0
ARC
  5
4F
  8
┌▓È_1
 62
     5
 10
868.02258344960012
 20
-265.9754365618
 30
0.0
 40
1.52
 50
270.0
 51
298.08590481520002
  0
LINE
  5
50
  8
┌▓È_1
 62
     5
 10
870.28767119049996
 20
-267.2350890454
 30
0.0
 11
870.21643036649982
 21
-267.30484030299999
 31
0.0
  0
LINE
  5
51
  8
┌▓È_1
 62
     5
 10
863.07834102539982
 20
-266.69543656180002
 30
0.0
 11
863.07834102539982
 21
-267.29543656179999
 31
0.0
  0
INSERT
  5
52
  8
0
  6
CONTINUOUS
  2
*U5
 10
0.0
 20
0.0
 30
0.0
  0
LINE
  5
53
  8
┌▓È_1
 62
     5
 10
874.16196225140015
 20
-265.9754365618
 30
0.0
 11
875.62957650889985
 21
-265.9754365618
 31
0.0
  0
LINE
  5
54
  8
┌▓È_1
 62
     5
 10
873.0290431755999
 20
-265.9754365618
 30
0.0
 11
872.82957650889989
 21
-265.29543656179999
 31
0.0
  0
LINE
  5
55
  8
┌▓È_1
 62
     5
 10
863.07834102539982
 20
-265.29543656179999
 30
0.0
 11
863.07834102539982
 21
-266.0954365618
 31
0.0
  0
LINE
  5
56
  8
┌▓È_1
 62
     5
 10
864.07834102540005
 20
-265.89543656180001
 30
0.0
 11
864.67834102539996
 21
-265.29543656179999
 31
0.0
  0
LINE
  5
57
  8
┌▓È_1
 62
     5
 10
864.67834102539996
 20
-265.29543656179999
 30
0.0
 11
863.07834102539982
 21
-265.29543656179999
 31
0.0
  0
LINE
  5
58
  8
┌▓È_1
 62
     5
 10
864.87834102539989
 20
-266.0954365618
 30
0.0
 11
864.07834102540005
 21
-266.0954365618
 31
0.0
  0
LINE
  5
59
  8
┌▓È_1
 62
     5
 10
874.10340455129995
 20
-265.7719450056
 30
0.0
 11
874.42957650890014
 21
-265.29543656179999
 31
0.0
  0
ARC
  5
5A
  8
┌▓È_1
 62
     5
 10
864.67834102539996
 20
-266.89543656180001
 30
0.0
 40
1.1999999999999991
 50
270.0
 51
0.0
  0
LINE
  5
5B
  8
┌▓È_1
 62
     5
 10
867.5425834496001
 20
-265.29543656179999
 30
0.0
 11
867.5425834496001
 21
-266.01543656180002
 31
0.0
  0
LINE
  5
5C
  8
┌▓È_1
 62
     5
 10
866.47834102539991
 20
-265.29543656179999
 30
0.0
 11
864.87834102539989
 21
-265.29543656179999
 31
0.0
  0
LINE
  5
5D
  8
┌▓È_1
 62
     5
 10
874.66842823989998
 20
-267.73543656179999
 30
0.0
 11
875.62957650889985
 21
-267.73543656179999
 31
0.0
  0
LINE
  5
5E
  8
┌▓È_1
 62
     5
 10
864.07834102540005
 20
-267.29543656179999
 30
0.0
 11
864.07834102540005
 21
-266.69543656180002
 31
0.0
  0
LINE
  5
5F
  8
┌▓È_1
 62
     5
 10
872.02957650890005
 20
-267.01543656180002
 30
0.0
 11
872.02957650890005
 21
-267.73543656179999
 31
0.0
  0
LINE
  5
60
  8
┌▓È_1
 62
     5
 10
872.02957650890005
 20
-266.69543656180002
 30
0.0
 11
873.24024317559997
 21
-266.69543656180002
 31
0.0
  0
LINE
  5
61
  8
┌▓È_1
 62
     5
 10
865.87834102539989
 20
-266.89543656180001
 30
0.0
 11
865.87834102539989
 21
-266.69543656180002
 31
0.0
  0
LINE
  5
62
  8
┌▓È_1
 62
     5
 10
867.5425834496001
 20
-266.22428066880002
 30
0.0
 11
869.14258344960001
 21
-266.22428066880002
 31
0.0
  0
LINE
  5
63
  8
┌▓È_1
 62
     5
 10
869.3571084463
 20
-266.70306492380001
 30
0.0
 11
869.26087012380003
 21
-266.80936026799998
 31
0.0
  0
ARC
  5
64
  8
┌▓È_1
 62
     5
 10
864.27834102539987
 20
-266.89543656180001
 30
0.0
 40
0.6
 50
270.0
 51
0.0
  0
LINE
  5
65
  8
┌▓È_1
 62
     5
 10
864.87834102539989
 20
-265.29543656179999
 30
0.0
 11
864.87834102539989
 21
-266.0954365618
 31
0.0
  0
LINE
  5
66
  8
┌▓È_1
 62
     5
 10
874.36915288299997
 20
-266.69543656180002
 30
0.0
 11
875.62957650889985
 21
-266.69543656180002
 31
0.0
  0
LINE
  5
67
  8
┌▓È_1
 62
     5
 10
863.07834102539982
 20
-266.69543656180002
 30
0.0
 11
863.01789950080001
 21
-266.69543656180002
 31
0.0
  0
LINE
  5
68
  8
┌▓È_1
 62
     5
 10
871.1425834495999
 20
-267.49543656179998
 30
0.0
 11
871.1425834495999
 21
-268.0954365618
 31
0.0
  0
LINE
  5
69
  8
┌▓È_1
 62
     5
 10
875.62957650889985
 20
-267.01543656180002
 30
0.0
 11
875.62957650889985
 21
-267.73543656179999
 31
0.0
  0
LINE
  5
6A
  8
┌▓È_1
 62
     5
 10
863.07834102539982
 20
-266.0954365618
 30
0.0
 11
862.61789950080004
 21
-266.0954365618
 31
0.0
  0
LINE
  5
6B
  8
┌▓È_1
 62
     5
 10
867.5425834496001
 20
-268.0954365618
 30
0.0
 11
867.5425834496001
 21
-267.49543656179998
 31
0.0
  0
LINE
  5
6C
  8
┌▓È_1
 62
     5
 10
864.07834102540005
 20
-266.0954365618
 30
0.0
 11
864.07834102540005
 21
-265.89543656180001
 31
0.0
  0
LINE
  5
6D
  8
┌▓È_1
 62
     5
 10
873.7095765089
 20
-268.29543656179999
 30
0.0
 11
874.8295765089
 21
-268.29543656179999
 31
0.0
  0
LINE
  5
6E
  8
┌▓È_1
 62
     5
 10
866.47834102539991
 20
-266.0954365618
 30
0.0
 11
866.47834102539991
 21
-266.69543656180002
 31
0.0
  0
LINE
  5
6F
  8
┌▓È_1
 62
     5
 10
862.61789950080004
 20
-266.0954365618
 30
0.0
 11
862.61789950080004
 21
-266.69543656180002
 31
0.0
  0
LINE
  5
70
  8
┌▓È_1
 62
     5
 10
867.5425834496001
 20
-266.3531247757
 30
0.0
 11
867.5425834496001
 21
-266.22428066880002
 31
0.0
  0
LINE
  5
71
  8
┌▓È_1
 62
     5
 10
869.14258344960001
 20
-266.22428066880002
 30
0.0
 11
868.9163092796
 21
-266.45055483869999
 31
0.0
  0
LINE
  5
72
  8
┌▓È_1
 10
861.97974034239996
 20
-256.1095057485
 30
0.0
 11
861.97974034239996
 21
-264.6095057485
 31
0.0
  0
LINE
  5
73
  8
┌▓È_1
 10
846.97974034240008
 20
-258.2345057485
 30
0.0
 11
852.97974034239996
 21
-258.2345057485
 31
0.0
  0
LINE
  5
74
  8
┌▓È_1
 10
854.97974034240008
 20
-258.2345057485
 30
0.0
 11
860.97974034239996
 21
-258.2345057485
 31
0.0
  0
LINE
  5
75
  8
┌▓È_1
 10
846.97974034240008
 20
-262.4845057485
 30
0.0
 11
860.97974034239996
 21
-262.4845057485
 31
0.0
  0
LINE
  5
76
  8
┌▓È_1
 10
862.97974034240008
 20
-258.2345057485
 30
0.0
 11
868.97974034239996
 21
-258.2345057485
 31
0.0
  0
LINE
  5
77
  8
┌▓È_1
 10
862.97974034240008
 20
-262.4845057485
 30
0.0
 11
868.97974034239996
 21
-262.4845057485
 31
0.0
  0
INSERT
  5
78
  8
0
  6
CONTINUOUS
  2
*U6
 10
0.0
 20
0.0
 30
0.0
  0
INSERT
  5
79
  8
0
  6
CONTINUOUS
  2
*U7
 10
0.0
 20
0.0
 30
0.0
  0
ARC
  5
7A
  8
┌▓È_1
 62
     5
 10
868.02258344960012
 20
-265.9754365618
 30
0.0
 40
1.52
 50
331.39928138329998
 51
358.49204224580001
  0
LINE
  5
7B
  8
┌▓È_1
 62
     5
 10
867.5425834496001
 20
-268.0954365618
 30
0.0
 11
868.5425834496001
 21
-268.0954365618
 31
0.0
  0
LINE
  5
7C
  8
┌▓È_1
 62
     5
 10
863.07834102539982
 20
-268.0954365618
 30
0.0
 11
864.67834102539996
 21
-268.0954365618
 31
0.0
  0
LINE
  5
7D
  8
┌▓È_1
 62
     5
 10
870.74258344960003
 20
-265.89543656180001
 30
0.0
 11
871.1425834495999
 21
-265.29543656179999
 31
0.0
  0
LINE
  5
7E
  8
┌▓È_1
 62
     5
 10
872.82957650889989
 20
-265.29543656179999
 30
0.0
 11
874.42957650890014
 21
-265.29543656179999
 31
0.0
  0
LINE
  5
7F
  8
┌▓È_1
 62
     5
 10
867.5425834496001
 20
-267.49543656179998
 30
0.0
 11
868.02258344960012
 21
-267.49543656179998
 31
0.0
  0
LINE
  5
80
  8
┌▓È_1
 62
     5
 10
768.47974034239996
 20
-173.8595057485
 30
0.0
 11
905.97974034240008
 21
-173.8595057485
 31
0.0
  0
LINE
  5
81
  8
┌▓È_1
 62
     5
 10
768.47974034239996
 20
-268.8595057485
 30
0.0
 11
905.97974034240008
 21
-268.8595057485
 31
0.0
  0
LINE
  5
82
  8
┌▓È_1
 62
     5
 10
768.47974034239996
 20
-268.8595057485
 30
0.0
 11
768.47974034239996
 21
-173.8595057485
 31
0.0
  0
LINE
  5
83
  8
┌▓È_1
 62
     5
 10
905.97974034240008
 20
-268.8595057485
 30
0.0
 11
905.97974034240008
 21
-173.8595057485
 31
0.0
  0
INSERT
  5
84
  8
0
  6
CONTINUOUS
  2
*U8
 10
0.0
 20
0.0
 30
0.0
  0
INSERT
  5
85
  8
0
  6
CONTINUOUS
  2
*U9
 10
0.0
 20
0.0
 30
0.0
  0
INSERT
  5
86
  8
0
  6
CONTINUOUS
  2
*U10
 10
0.0
 20
0.0
 30
0.0
  0
INSERT
  5
87
  8
0
  6
CONTINUOUS
  2
*U11
 10
0.0
 20
0.0
 30
0.0
  0
INSERT
  5
88
  8
0
  6
CONTINUOUS
  2
*U12
 10
0.0
 20
0.0
 30
0.0
  0
INSERT
  5
89
  8
0
  6
CONTINUOUS
  2
*U13
 10
0.0
 20
0.0
 30
0.0
  0
INSERT
  5
8A
  8
0
  6
CONTINUOUS
  2
*U14
 10
0.0
 20
0.0
 30
0.0
  0
INSERT
  5
8B
  8
0
  6
CONTINUOUS
  2
*U15
 10
0.0
 20
0.0
 30
0.0
  0
INSERT
  5
8C
  8
0
  6
CONTINUOUS
  2
*U16
 10
0.0
 20
0.0
 30
0.0
  0
INSERT
  5
8D
  8
0
  6
CONTINUOUS
  2
*U17
 10
0.0
 20
0.0
 30
0.0
  0
INSERT
  5
8E
  8
0
  6
CONTINUOUS
  2
*U18
 10
0.0
 20
0.0
 30
0.0
  0
INSERT
  5
8F
  8
0
  6
CONTINUOUS
  2
*U19
 10
0.0
 20
0.0
 30
0.0
  0
LINE
  5
90
  8
┌▓È_1
 10
845.97974034240008
 20
-260.3595057485
 30
0.0
 11
869.97974034239996
 21
-260.3595057485
 31
0.0
  0
LINE
  5
91
  8
┌▓È_1
 10
877.97974034239996
 20
-260.3595057485
 30
0.0
 11
905.97974034240008
 21
-260.3595057485
 31
0.0
  0
LINE
  5
92
  8
┌▓È_1
 10
869.97974034239996
 20
-258.2345057485
 30
0.0
 11
877.97974034239996
 21
-258.2345057485
 31
0.0
  0
LINE
  5
93
  8
┌▓È_1
 62
     5
 10
875.62957650889985
 20
-265.9754365618
 30
0.0
 11
875.62957650889985
 21
-266.69543656180002
 31
0.0
  0
LINE
  5
94
  8
┌▓È_1
 62
     5
 10
867.5425834496001
 20
-266.01543656180002
 30
0.0
 11
869.5425834496001
 21
-266.01543656180002
 31
0.0
  0
LINE
  5
95
  8
┌▓È_1
 62
     5
 10
864.27834102539987
 20
-267.49543656179998
 30
0.0
 11
863.07834102539982
 21
-267.49543656179998
 31
0.0
  0
LINE
  5
96
  8
┌▓È_1
 62
     5
 10
873.7095765089
 20
-268.29543656179999
 30
0.0
 11
873.54530984229984
 21
-267.73543656179999
 31
0.0
  0
LINE
  5
97
  8
┌▓È_1
 62
     5
 10
874.46123760820012
 20
-267.01543656180002
 30
0.0
 11
874.36915288299997
 21
-266.69543656180002
 31
0.0
  0
LINE
  5
98
  8
┌▓È_1
 62
     5
 10
863.07834102539982
 20
-267.49543656179998
 30
0.0
 11
863.07834102539982
 21
-268.0954365618
 31
0.0
  0
ARC
  5
99
  8
┌▓È_1
 10
809.15112148339995
 20
-216.56858469689999
 30
0.0
 40
4.0
 50
60.0
 51
120.0
  0
ARC
  5
9A
  8
┌▓È_1
 10
809.15112148339995
 20
-216.56858469689999
 30
0.0
 40
12.0
 50
60.0
 51
120.0
  0
ARC
  5
9B
  8
┌▓È_1
 10
809.15112148339995
 20
-216.56858469689999
 30
0.0
 40
12.0
 50
240.0
 51
300.0
  0
ARC
  5
9C
  8
┌▓È_1
 10
809.15112148339995
 20
-216.56858469689999
 30
0.0
 40
11.0
 50
60.0
 51
120.0
  0
ARC
  5
9D
  8
┌▓È_1
 10
809.15112148339995
 20
-216.56858469689999
 30
0.0
 40
11.0
 50
240.0
 51
300.0
  0
ARC
  5
9E
  8
┌▓È_1
 10
809.15112148339995
 20
-216.56858469689999
 30
0.0
 40
10.0
 50
60.0
 51
120.0
  0
ARC
  5
9F
  8
┌▓È_1
 10
809.15112148339995
 20
-216.56858469689999
 30
0.0
 40
10.0
 50
240.0
 51
300.0
  0
ARC
  5
A0
  8
┌▓È_1
 10
809.15112148339995
 20
-216.56858469689999
 30
0.0
 40
9.0
 50
60.0
 51
120.0
  0
ARC
  5
A1
  8
┌▓È_1
 10
809.15112148339995
 20
-216.56858469689999
 30
0.0
 40
9.0
 50
240.0
 51
300.0
  0
ARC
  5
A2
  8
┌▓È_1
 10
809.15112148339995
 20
-216.56858469689999
 30
0.0
 40
8.0
 50
60.0
 51
120.0
  0
ARC
  5
A3
  8
┌▓È_1
 10
809.15112148339995
 20
-216.56858469689999
 30
0.0
 40
8.0
 50
240.0
 51
300.0
  0
ARC
  5
A4
  8
┌▓È_1
 10
809.15112148339995
 20
-216.56858469689999
 30
0.0
 40
7.0
 50
60.0
 51
120.0
  0
ARC
  5
A5
  8
┌▓È_1
 10
809.15112148339995
 20
-216.56858469689999
 30
0.0
 40
7.0
 50
240.0
 51
300.0
  0
ARC
  5
A6
  8
┌▓È_1
 10
809.15112148339995
 20
-216.56858469689999
 30
0.0
 40
6.0
 50
60.0
 51
120.0
  0
ARC
  5
A7
  8
┌▓È_1
 10
809.15112148339995
 20
-216.56858469689999
 30
0.0
 40
6.0
 50
240.0
 51
300.0
  0
ARC
  5
A8
  8
┌▓È_1
 10
809.15112148339995
 20
-216.56858469689999
 30
0.0
 40
5.0
 50
240.0
 51
300.0
  0
ARC
  5
A9
  8
┌▓È_1
 10
809.15112148339995
 20
-216.56858469689999
 30
0.0
 40
1.0
 50
240.0
 51
300.0
  0
CIRCLE
  5
AA
  8
┌▓È_1
 62
     5
 10
809.15112148339995
 20
-216.56858469689999
 30
0.0
 40
15.0
  0
ARC
  5
AB
  8
┌▓È_1
 10
809.15112148339995
 20
-216.56858469689999
 30
0.0
 40
2.0
 50
240.0
 51
300.0
  0
ARC
  5
AC
  8
┌▓È_1
 10
809.15112148339995
 20
-216.56858469689999
 30
0.0
 40
3.0
 50
240.0
 51
300.0
  0
ARC
  5
AD
  8
┌▓È_1
 10
809.15112148339995
 20
-216.56858469689999
 30
0.0
 40
4.0
 50
240.0
 51
300.0
  0
ARC
  5
AE
  8
┌▓È_1
 10
809.15112148339995
 20
-216.56858469689999
 30
0.0
 40
13.0
 50
240.0
 51
300.0
  0
ARC
  5
AF
  8
┌▓È_1
 10
809.15112148339995
 20
-216.56858469689999
 30
0.0
 40
13.0
 50
60.0
 51
120.0
  0
ARC
  5
B0
  8
┌▓È_1
 10
809.15112148339995
 20
-216.56858469689999
 30
0.0
 40
1.0
 50
60.0
 51
120.0
  0
ARC
  5
B1
  8
┌▓È_1
 10
809.15112148339995
 20
-216.56858469689999
 30
0.0
 40
2.0
 50
60.0
 51
120.0
  0
DIMENSION
  5
C2
  8
Éíû@É³
  2
*D0
 10
851.83192681459991
 20
-196.56858469689999
 30
0.0
 11
846.27534722769997
 21
-196.56858469689999
 31
0.0
 70
   128
  1
<>t
 13
851.83192681459991
 23
-201.56858469689999
 33
0.0
 14
850.33192681460002
 24
-201.8685846969
 34
0.0
  0
DIMENSION
  5
D1
  8
Éíû@É³
  2
*D1
 10
852.98192681460011
 20
-192.26106869309999
 30
0.0
 11
851.65692681459996
 21
-192.26106869309999
 31
0.0
 70
   128
  1
(2.5t)
 13
852.98192681460011
 23
-202.06858469689999
 33
0.0
 14
850.33192681460002
 24
-201.8685846969
 34
0.0
  0
DIMENSION
  5
DB
  8
Éíû@É³
  2
*D2
 10
822.14150254020001
 20
-224.06858469689999
 30
0.0
 11
783.34314113009998
 21
-204.55383660039999
 31
0.0
 70
   131
  1
%%c <>
 15
796.16074042669993
 25
-209.06858469689999
 35
0.0
 40
0.0
  0
LINE
  5
DC
  8
┌▓È_1
 10
860.20970459240004
 20
-232.05659824369999
 30
0.0
 11
852.98192681460011
 21
-222.5065029955
 31
0.0
  0
SOLID
  5
DD
  8
┌▓È_1
 10
852.98192681460011
 20
-222.5065029955
 30
0.0
 11
854.42326351429995
 21
-223.6277674193
 31
0.0
 12
853.76117245650005
 22
-223.53612376289999
 32
0.0
 13
853.76117245650005
 23
-223.53612376289999
 33
0.0
  0
SOLID
  5
DE
  8
┌▓È_1
 10
852.98192681460011
 20
-222.5065029955
 30
0.0
 11
853.66952880009978
 21
-224.1982148207
 31
0.0
 12
853.76117245650005
 22
-223.53612376289999
 32
0.0
 13
853.76117245650005
 23
-223.53612376289999
 33
0.0
  0
INSERT
  5
DF
  8
0
  6
CONTINUOUS
  2
*U20
 10
0.0
 20
0.0
 30
0.0
  0
LINE
  5
E0
  8
┌▓È_1
 10
860.20970459240004
 20
-232.05659824369999
 30
0.0
 11
881.88229465899997
 21
-232.05659824369999
 31
0.0
  0
LINE
  5
E1
  8
┌▓È_1
 62
     5
 10
851.83192681459991
 20
-231.56858469689999
 30
0.0
 11
851.83192681459991
 21
-201.56858469689999
 31
0.0
  0
LINE
  5
E2
  8
┌▓È_1
 10
852.98192681460011
 20
-202.06858469689999
 30
0.0
 11
851.83192681459991
 21
-202.06858469689999
 31
0.0
  0
LINE
  5
E3
  8
┌▓È_1
 10
851.83192681459991
 20
-231.06858469689999
 30
0.0
 11
852.98192681460011
 21
-231.06858469689999
 31
0.0
  0
LINE
  5
E4
  8
┌▓È_1
 10
851.83192681459991
 20
-202.06858469689999
 30
0.0
 11
851.83192681459991
 21
-231.06858469689999
 31
0.0
  0
LINE
  5
E5
  8
┌▓È_1
 10
852.98192681460011
 20
-231.06858469689999
 30
0.0
 11
852.98192681460011
 21
-202.06858469689999
 31
0.0
  0
INSERT
  5
E7
  8
┌▓È_1
  2
*X3
 10
0.0
 20
0.0
 30
0.0
  0
ARC
  5
F2
  8
┌▓È_1
 62
     5
 10
850.63192681459998
 20
-231.26858469690001
 30
0.0
 40
0.3
 50
180.0
 51
270.0
  0
LINE
  5
F3
  8
┌▓È_1
 62
     5
 10
850.63192681459998
 20
-231.56858469689999
 30
0.0
 11
851.83192681459991
 21
-231.56858469689999
 31
0.0
  0
LINE
  5
F4
  8
┌▓È_1
 62
     5
 10
850.33192681460002
 20
-201.8685846969
 30
0.0
 11
850.33192681460002
 21
-231.26858469690001
 31
0.0
  0
ARC
  5
F5
  8
┌▓È_1
 62
     5
 10
850.63192681459998
 20
-201.8685846969
 30
0.0
 40
0.3
 50
90.0
 51
180.0
  0
LINE
  5
F6
  8
┌▓È_1
 62
     5
 10
851.83192681459991
 20
-201.56858469689999
 30
0.0
 11
850.63192681459998
 21
-201.56858469689999
 31
0.0
  0
LINE
  5
F7
  8
┌▓È_1
  6
BORDER
 62
     3
 10
847.33192681459991
 20
-216.56858469689999
 30
0.0
 11
855.9819268146
 21
-216.56858469689999
 31
0.0
  0
LINE
  5
F8
  8
┌▓È_1
  6
BORDER
 62
     3
 10
809.15112148339995
 20
-196.56858469689999
 30
0.0
 11
809.15112148339995
 21
-236.56858469689999
 31
0.0
  0
LINE
  5
F9
  8
┌▓È_1
  6
BORDER
 62
     3
 10
789.15112148339995
 20
-216.56858469689999
 30
0.0
 11
829.15112148339995
 21
-216.56858469689999
 31
0.0
  0
INSERT
  5
FA
  8
0
  6
CONTINUOUS
  2
*U21
 10
0.0
 20
0.0
 30
0.0
  0
INSERT
  5
FB
  8
0
  6
CONTINUOUS
  2
*U22
 10
0.0
 20
0.0
 30
0.0
  0
INSERT
  5
FC
  8
0
  6
CONTINUOUS
  2
*U23
 10
0.0
 20
0.0
 30
0.0
  0
ARC
  5
FD
  8
┌▓È_1
 10
809.15112148339995
 20
-216.56858469689999
 30
0.0
 40
3.0
 50
60.0
 51
120.0
  0
ARC
  5
FE
  8
┌▓È_1
 10
809.15112148339995
 20
-216.56858469689999
 30
0.0
 40
5.0
 50
60.0
 51
120.0
  0
ENDSEC
  0
EOF
