  0
SECTION
  2
HEADER
  9
$ACADVER
  1
AC1009
  9
$INSBASE
 10
0.0
 20
0.0
 30
0.0
  9
$EXTMIN
 10
334.0859375
 20
-568.35364583329999
 30
0.0
  9
$EXTMAX
 10
1334.0859375
 20
131.64635416670001
 30
0.0
  9
$LIMMIN
 10
0.0
 20
0.0
  9
$LIMMAX
 10
0.0
 20
0.0
  9
$ORTHOMODE
 70
     0
  9
$REGENMODE
 70
     1
  9
$FILLMODE
 70
     1
  9
$QTEXTMODE
 70
     0
  9
$MIRRTEXT
 70
     1
  9
$DRAGMODE
 70
     2
  9
$LTSCALE
 40
1.0
  9
$OSMODE
 70
    31
  9
$ATTMODE
 70
     1
  9
$TEXTSIZE
 40
0.0
  9
$TRACEWID
 40
0.05
  9
$TEXTSTYLE
  7
STANDARD
  9
$CLAYER
  8
0
  9
$CELTYPE
  6
CONTINUOUS
  9
$CECOLOR
 62
   256
  9
$DIMSCALE
 40
1.0
  9
$DIMASZ
 40
0.18
  9
$DIMEXO
 40
0.0625
  9
$DIMDLI
 40
0.38
  9
$DIMRND
 40
0.0
  9
$DIMDLE
 40
0.0
  9
$DIMEXE
 40
0.18
  9
$DIMTP
 40
0.0
  9
$DIMTM
 40
0.0
  9
$DIMTXT
 40
0.18
  9
$DIMCEN
 40
0.09
  9
$DIMTSZ
 40
0.0
  9
$DIMTOL
 70
     0
  9
$DIMLIM
 70
     0
  9
$DIMTIH
 70
     1
  9
$DIMTOH
 70
     1
  9
$DIMSE1
 70
     0
  9
$DIMSE2
 70
     0
  9
$DIMTAD
 70
     0
  9
$DIMZIN
 70
     0
  9
$DIMBLK
  1

  9
$DIMASO
 70
     1
  9
$DIMSHO
 70
     1
  9
$DIMPOST
  1

  9
$DIMAPOST
  1

  9
$DIMALT
 70
     0
  9
$DIMALTD
 70
     2
  9
$DIMALTF
 40
25.399999999999999
  9
$DIMLFAC
 40
1.0
  9
$DIMTOFL
 70
     0
  9
$DIMTVP
 40
0.0
  9
$DIMTIX
 70
     0
  9
$DIMSOXD
 70
     0
  9
$DIMSAH
 70
     0
  9
$DIMBLK1
  1

  9
$DIMBLK2
  1

  9
$DIMSTYLE
  2
STANDARD
  9
$DIMCLRD
 70
     0
  9
$DIMCLRE
 70
     0
  9
$DIMCLRT
 70
     0
  9
$DIMTFAC
 40
1.0
  9
$DIMGAP
 40
0.09
  9
$LUNITS
 70
     2
  9
$LUPREC
 70
     4
  9
$SKETCHINC
 40
0.1
  9
$FILLETRAD
 40
0.0
  9
$AUNITS
 70
     0
  9
$AUPREC
 70
     0
  9
$MENU
  1
acad
  9
$ELEVATION
 40
0.0
  9
$PELEVATION
 40
0.0
  9
$THICKNESS
 40
0.0
  9
$LIMCHECK
 70
     0
  9
$BLIPMODE
 70
     0
  9
$CHAMFERA
 40
0.0
  9
$CHAMFERB
 40
0.0
  9
$SKPOLY
 70
     0
  9
$TDCREATE
 40
2454862.4551962158
  9
$TDUPDATE
 40
2454862.4553582519
  9
$TDINDWG
 40
0.0001714352
  9
$TDUSRTIMER
 40
0.0001710764
  9
$USRTIMER
 70
     1
  9
$ANGBASE
 50
0.0
  9
$ANGDIR
 70
     0
  9
$PDMODE
 70
     3
  9
$PDSIZE
 40
-1.0
  9
$PLINEWID
 40
0.0
  9
$COORDS
 70
     2
  9
$SPLFRAME
 70
     0
  9
$SPLINETYPE
 70
     6
  9
$SPLINESEGS
 70
     8
  9
$ATTDIA
 70
     0
  9
$ATTREQ
 70
     1
  9
$HANDLING
 70
     1
  9
$HANDSEED
  5
5FB
  9
$SURFTAB1
 70
     6
  9
$SURFTAB2
 70
     6
  9
$SURFTYPE
 70
     6
  9
$SURFU
 70
     6
  9
$SURFV
 70
     6
  9
$UCSNAME
  2

  9
$UCSORG
 10
0.0
 20
0.0
 30
0.0
  9
$UCSXDIR
 10
1.0
 20
0.0
 30
0.0
  9
$UCSYDIR
 10
0.0
 20
1.0
 30
0.0
  9
$PUCSNAME
  2

  9
$PUCSORG
 10
0.0
 20
0.0
 30
0.0
  9
$PUCSXDIR
 10
1.0
 20
0.0
 30
0.0
  9
$PUCSYDIR
 10
0.0
 20
1.0
 30
0.0
  9
$USERI1
 70
     0
  9
$USERI2
 70
     0
  9
$USERI3
 70
     0
  9
$USERI4
 70
     0
  9
$USERI5
 70
     0
  9
$USERR1
 40
0.0
  9
$USERR2
 40
0.0
  9
$USERR3
 40
0.0
  9
$USERR4
 40
0.0
  9
$USERR5
 40
0.0
  9
$WORLDVIEW
 70
     1
  9
$SHADEDGE
 70
     3
  9
$SHADEDIF
 70
    70
  9
$TILEMODE
 70
     1
  9
$MAXACTVP
 70
    16
  9
$PLIMCHECK
 70
     0
  9
$PEXTMIN
 10
1.0000000000000000E+020
 20
1.0000000000000000E+020
 30
1.0000000000000000E+020
  9
$PEXTMAX
 10
-1.0000000000000000E+020
 20
-1.0000000000000000E+020
 30
-1.0000000000000000E+020
  9
$PLIMMIN
 10
0.0
 20
0.0
  9
$PLIMMAX
 10
12.0
 20
9.0
  9
$UNITMODE
 70
     0
  9
$VISRETAIN
 70
     0
  9
$PLINEGEN
 70
     1
  9
$PSLTSCALE
 70
     0
  0
ENDSEC
  0
SECTION
  2
TABLES
  0
TABLE
  2
VPORT
 70
     2
  0
VPORT
  2
*ACTIVE
 70
     0
 10
0.0
 20
0.0
 11
1.0
 21
1.0
 12
834.0859375
 22
-218.35364583329999
 13
0.0
 23
0.0
 14
1.0
 24
1.0
 15
0.0
 25
0.0
 16
0.0
 26
0.0
 36
1.0
 17
0.0
 27
0.0
 37
0.0
 40
705.80912863070535
 41
1.6343490304709141
 42
50.0
 43
0.0
 44
0.0
 50
0.0
 51
0.0
 71
     0
 72
   100
 73
     1
 74
     1
 75
     0
 76
     0
 77
     0
 78
     0
  0
ENDTAB
  0
TABLE
  2
LTYPE
 70
    11
  0
LTYPE
  2
CONTINUOUS
 70
     0
  3
Solid line
 72
    65
 73
     0
 40
0.0
  0
LTYPE
  2
DOT
 70
     0
  3
. . . . . . . . 
 72
    65
 73
     2
 40
1.0
 49
0.0
 49
-1.0
  0
LTYPE
  2
DASHED
 70
     0
  3
___  ___  ___  ___  
 72
    65
 73
     2
 40
4.0
 49
3.0
 49
-1.0
  0
LTYPE
  2
HIDDEN
 70
     0
  3
__ __ __ __ 
 72
    65
 73
     2
 40
3.0
 49
2.0
 49
-1.0
  0
LTYPE
  2
STITCH
 70
     0
  3
_ _ _ _ 
 72
    65
 73
     2
 40
2.0
 49
1.0
 49
-1.0
  0
LTYPE
  2
CENTER
 70
     0
  3
______  __  ______  __  
 72
    65
 73
     4
 40
43.0
 49
40.0
 49
-1.0
 49
1.0
 49
-1.0
  0
LTYPE
  2
DASHDOT
 70
     0
  3
____ . ____ . 
 72
    65
 73
     4
 40
32.0
 49
30.0
 49
-1.0
 49
0.0
 49
-1.0
  0
LTYPE
  2
BORDER
 70
     0
  3
__ . __ . 
 72
    65
 73
     4
 40
22.0
 49
20.0
 49
-1.0
 49
0.0
 49
-1.0
  0
LTYPE
  2
CUTTING
 70
     0
  3
________   ___   ___   
 72
    65
 73
     6
 40
45.0
 49
40.0
 49
-1.0
 49
1.0
 49
-1.0
 49
1.0
 49
-1.0
  0
LTYPE
  2
PHANTOM
 70
     0
  3
______  __  __  
 72
    65
 73
     6
 40
35.0
 49
30.0
 49
-1.0
 49
1.0
 49
-1.0
 49
1.0
 49
-1.0
  0
LTYPE
  2
DIVIDE
 70
     0
  3
____ . . ____ . . 
 72
    65
 73
     6
 40
23.0
 49
20.0
 49
-1.0
 49
0.0
 49
-1.0
 49
0.0
 49
-1.0
  0
ENDTAB
  0
TABLE
  2
LAYER
 70
     3
  0
LAYER
  2
0
 70
     0
 62
     7
  6
CONTINUOUS
  0
LAYER
  2
┌▓È_1
 70
     0
 62
     7
  6
CONTINUOUS
  0
LAYER
  2
Éíû@É³
 70
     0
 62
     7
  6
CONTINUOUS
  0
ENDTAB
  0
TABLE
  2
STYLE
 70
     1
  0
STYLE
  2
STANDARD
 70
     0
 40
0.0
 41
1.0
 50
0.0
 71
     0
 42
0.0
  3
txt
  4
extfont
  0
ENDTAB
  0
TABLE
  2
VIEW
 70
     0
  0
ENDTAB
  0
TABLE
  2
UCS
 70
     0
  0
ENDTAB
  0
TABLE
  2
APPID
 70
     2
  0
APPID
  2
ACAD
 70
     0
  0
APPID
  2
DCO15
 70
     0
  0
ENDTAB
  0
TABLE
  2
DIMSTYLE
 70
     3
  0
DIMSTYLE
  2
STANDARD
 70
     0
  3

  4

  5

  6

  7

 40
1.0
 41
0.18
 42
0.0625
 43
0.38
 44
0.18
 45
0.0
 46
0.0
 47
0.0
 48
0.0
140
0.18
141
0.09
142
0.0
143
25.399999999999999
144
1.0
145
0.0
146
1.0
147
0.09
 71
     0
 72
     0
 73
     1
 74
     1
 75
     0
 76
     0
 77
     0
 78
     0
170
     0
171
     2
172
     0
173
     0
174
     0
175
     0
176
     0
177
     0
178
     0
  0
DIMSTYLE
  2
VELDIM0
 70
     0
  3

  4

  5

  6

  7

 40
1.0
 41
7.5
 42
0.0625
 43
0.38
 44
0.5
 45
0.0
 46
3.0
 47
0.0
 48
0.0
140
7.4965279578999988
141
0.09
142
0.0
143
25.399999999999999
144
1.0
145
0.0
146
1.0
147
0.09
 71
     0
 72
     0
 73
     0
 74
     0
 75
     0
 76
     0
 77
     0
 78
     8
170
     0
171
     2
172
     0
173
     0
174
     0
175
     0
176
     0
177
     0
178
     0
  0
DIMSTYLE
  2
VELDIM1
 70
     0
  3

  4

  5

  6

  7

 40
1.0
 41
7.5
 42
0.0625
 43
0.38
 44
1.25
 45
0.0
 46
5.0
 47
0.0
 48
0.0
140
7.4965279578999988
141
0.09
142
0.0
143
25.399999999999999
144
1.0
145
0.0
146
1.0
147
0.09
 71
     0
 72
     0
 73
     0
 74
     0
 75
     0
 76
     0
 77
     0
 78
     8
170
     0
171
     2
172
     0
173
     0
174
     0
175
     0
176
     0
177
     0
178
     0
  0
ENDTAB
  0
ENDSEC
  0
SECTION
  2
BLOCKS
  0
BLOCK
  8
0
  2
$MODEL_SPACE
 70
     0
 10
0.0
 20
0.0
 30
0.0
  3
$MODEL_SPACE
  1

  0
ENDBLK
  5
E
  8
0
  0
BLOCK
 67
     1
  8
0
  2
$PAPER_SPACE
 70
     0
 10
0.0
 20
0.0
 30
0.0
  3
$PAPER_SPACE
  1

  0
ENDBLK
  5
10
 67
     1
  8
0
  0
BLOCK
  8
0
  2
*D0
 70
     1
 10
0.0
 20
0.0
 30
0.0
  3
*D0
  1

  0
TEXT
  5
3C
  8
0
 62
     0
 10
436.49564494309999
 20
-197.84064685909999
 30
0.0
 40
7.4965279578999988
  1
373
 50
90.0
  0
LINE
  5
3D
  8
0
 62
     0
 10
495.35355004479999
 20
-4.7260633668000001
 30
0.0
 11
438.31856164150003
 21
-4.7260633668000001
 31
0.0
  0
LINE
  5
3E
  8
0
 62
     0
 10
495.35355004479999
 20
-377.72606336680002
 30
0.0
 11
438.31856164150003
 21
-377.72606336680002
 31
0.0
  0
LINE
  5
3F
  8
0
 62
     0
 10
438.81856164149991
 20
-4.7260633668000001
 30
0.0
 11
438.81856164149991
 21
-180.2017575463
 31
0.0
  0
LINE
  5
40
  8
0
 62
     0
 10
438.81856164149991
 20
-4.7260633668000001
 30
0.0
 11
438.81856164149991
 21
-202.25036918730001
 31
0.0
  0
LINE
  5
41
  8
0
 62
     0
 10
438.81856164149991
 20
-377.72606336680002
 30
0.0
 11
438.81856164149991
 21
-180.2017575463
 31
0.0
  0
LINE
  5
42
  8
0
 62
     0
 10
438.81856164149991
 20
-377.72606336680002
 30
0.0
 11
438.81856164149991
 21
-202.25036918730001
 31
0.0
  0
LINE
  5
43
  8
0
 62
     0
 10
438.81856164149991
 20
-377.72606336680002
 30
0.0
 11
438.81856164149991
 21
-374.72606336680002
 31
0.0
  0
SOLID
  5
44
  8
0
 62
     0
 10
438.81856164149991
 20
-377.72606336680002
 30
0.0
 11
436.94356164150003
 21
-370.22606336680002
 31
0.0
 12
440.69356164150003
 22
-370.22606336680002
 32
0.0
 13
438.81856164149991
 23
-372.10106336680002
 33
0.0
  0
LINE
  5
45
  8
0
 62
     0
 10
438.81856164149991
 20
-4.7260633668000001
 30
0.0
 11
438.81856164149991
 21
-7.7260633667999992
 31
0.0
  0
SOLID
  5
46
  8
0
 62
     0
 10
438.81856164149991
 20
-4.7260633668000001
 30
0.0
 11
440.69356164150003
 21
-12.2260633668
 31
0.0
 12
436.94356164150003
 22
-12.2260633668
 32
0.0
 13
438.81856164149991
 23
-10.3510633668
 33
0.0
  0
ENDBLK
  5
47
  8
0
  0
BLOCK
  8
0
  2
*D1
 70
     1
 10
0.0
 20
0.0
 30
0.0
  3
*D1
  1

  0
TEXT
  5
4C
  8
0
 62
     0
 10
469.03063334640001
 20
-200.84064685909999
 30
0.0
 40
7.4965279578999988
  1
105
 50
90.0
  0
LINE
  5
4D
  8
0
 62
     0
 10
501.35355004479999
 20
-141.72606336679999
 30
0.0
 11
470.85355004479999
 21
-141.72606336679999
 31
0.0
  0
LINE
  5
4E
  8
0
 62
     0
 10
501.35355004479999
 20
-246.72606336679999
 30
0.0
 11
470.85355004479999
 21
-246.72606336679999
 31
0.0
  0
LINE
  5
4F
  8
0
 62
     0
 10
471.35355004479999
 20
-141.72606336679999
 30
0.0
 11
471.35355004479999
 21
-183.2017575463
 31
0.0
  0
LINE
  5
50
  8
0
 62
     0
 10
471.35355004479999
 20
-141.72606336679999
 30
0.0
 11
471.35355004479999
 21
-205.25036918730001
 31
0.0
  0
LINE
  5
51
  8
0
 62
     0
 10
471.35355004479999
 20
-246.72606336679999
 30
0.0
 11
471.35355004479999
 21
-183.2017575463
 31
0.0
  0
LINE
  5
52
  8
0
 62
     0
 10
471.35355004479999
 20
-246.72606336679999
 30
0.0
 11
471.35355004479999
 21
-205.25036918730001
 31
0.0
  0
LINE
  5
53
  8
0
 62
     0
 10
471.35355004479999
 20
-246.72606336679999
 30
0.0
 11
471.35355004479999
 21
-243.72606336679999
 31
0.0
  0
SOLID
  5
54
  8
0
 62
     0
 10
471.35355004479999
 20
-246.72606336679999
 30
0.0
 11
469.47855004479999
 21
-239.22606336679999
 31
0.0
 12
473.22855004479999
 22
-239.22606336679999
 32
0.0
 13
471.35355004479999
 23
-241.10106336679999
 33
0.0
  0
LINE
  5
55
  8
0
 62
     0
 10
471.35355004479999
 20
-141.72606336679999
 30
0.0
 11
471.35355004479999
 21
-144.72606336679999
 31
0.0
  0
SOLID
  5
56
  8
0
 62
     0
 10
471.35355004479999
 20
-141.72606336679999
 30
0.0
 11
473.22855004479999
 21
-149.22606336679999
 31
0.0
 12
469.47855004479999
 22
-149.22606336679999
 32
0.0
 13
471.35355004479999
 23
-147.35106336679999
 33
0.0
  0
ENDBLK
  5
57
  8
0
  0
BLOCK
  8
0
  2
*D2
 70
     1
 10
0.0
 20
0.0
 30
0.0
  3
*D2
  1

  0
TEXT
  5
64
  8
0
 62
     0
 10
789.73896655249985
 20
38.223164623099997
 30
0.0
 40
7.4965279578999988
  1
100
  0
LINE
  5
65
  8
0
 62
     0
 10
846.35355004479993
 20
-6.7253490795999991
 30
0.0
 11
846.35355004479993
 21
36.400247924600002
 31
0.0
  0
LINE
  5
66
  8
0
 62
     0
 10
746.35355004479993
 20
-6.7253490795999991
 30
0.0
 11
746.35355004479993
 21
36.400247924600002
 31
0.0
  0
LINE
  5
67
  8
0
 62
     0
 10
846.35355004479993
 20
35.900247924600002
 30
0.0
 11
807.37785586530003
 21
35.900247924600002
 31
0.0
  0
LINE
  5
68
  8
0
 62
     0
 10
846.35355004479993
 20
35.900247924600002
 30
0.0
 11
785.32924422439999
 21
35.900247924600002
 31
0.0
  0
LINE
  5
69
  8
0
 62
     0
 10
746.35355004479993
 20
35.900247924600002
 30
0.0
 11
807.37785586530003
 21
35.900247924600002
 31
0.0
  0
LINE
  5
6A
  8
0
 62
     0
 10
746.35355004479993
 20
35.900247924600002
 30
0.0
 11
785.32924422439999
 21
35.900247924600002
 31
0.0
  0
LINE
  5
6B
  8
0
 62
     0
 10
746.35355004479993
 20
35.900247924600002
 30
0.0
 11
749.35355004479993
 21
35.900247924600002
 31
0.0
  0
SOLID
  5
6C
  8
0
 62
     0
 10
746.35355004479993
 20
35.900247924600002
 30
0.0
 11
753.85355004479993
 21
37.775247924600002
 31
0.0
 12
753.85355004479993
 22
34.025247924600002
 32
0.0
 13
751.97855004479993
 23
35.900247924600002
 33
0.0
  0
LINE
  5
6D
  8
0
 62
     0
 10
846.35355004479993
 20
35.900247924600002
 30
0.0
 11
843.35355004479982
 21
35.900247924600002
 31
0.0
  0
SOLID
  5
6E
  8
0
 62
     0
 10
846.35355004479993
 20
35.900247924600002
 30
0.0
 11
838.85355004479982
 21
34.025247924600002
 31
0.0
 12
838.85355004479982
 22
37.775247924600002
 32
0.0
 13
840.72855004479993
 23
35.900247924600002
 33
0.0
  0
ENDBLK
  5
6F
  8
0
  0
BLOCK
  8
0
  2
*D3
 70
     1
 10
0.0
 20
0.0
 30
0.0
  3
*D3
  1

  0
TEXT
  5
73
  8
0
 62
     0
 10
684.73896655249996
 20
65.694555358000002
 30
0.0
 40
7.4965279578999988
  1
390
  0
LINE
  5
74
  8
0
 62
     0
 10
886.35355004480004
 20
-3.7260633668000001
 30
0.0
 11
886.35355004480004
 21
63.871638659600002
 31
0.0
  0
LINE
  5
75
  8
0
 62
     0
 10
496.35355004479999
 20
-3.7260633668000001
 30
0.0
 11
496.35355004479999
 21
63.871638659600002
 31
0.0
  0
LINE
  5
76
  8
0
 62
     0
 10
886.35355004480004
 20
63.371638659600002
 30
0.0
 11
702.37785586530003
 21
63.371638659600002
 31
0.0
  0
LINE
  5
77
  8
0
 62
     0
 10
886.35355004480004
 20
63.371638659600002
 30
0.0
 11
680.32924422439999
 21
63.371638659600002
 31
0.0
  0
LINE
  5
78
  8
0
 62
     0
 10
496.35355004479999
 20
63.371638659600002
 30
0.0
 11
702.37785586530003
 21
63.371638659600002
 31
0.0
  0
LINE
  5
79
  8
0
 62
     0
 10
496.35355004479999
 20
63.371638659600002
 30
0.0
 11
680.32924422439999
 21
63.371638659600002
 31
0.0
  0
LINE
  5
7A
  8
0
 62
     0
 10
496.35355004479999
 20
63.371638659600002
 30
0.0
 11
499.35355004479999
 21
63.371638659600002
 31
0.0
  0
SOLID
  5
7B
  8
0
 62
     0
 10
496.35355004479999
 20
63.371638659600002
 30
0.0
 11
503.85355004479999
 21
65.246638659599995
 31
0.0
 12
503.85355004479999
 22
61.496638659600002
 32
0.0
 13
501.97855004479999
 23
63.371638659600002
 33
0.0
  0
LINE
  5
7C
  8
0
 62
     0
 10
886.35355004480004
 20
63.371638659600002
 30
0.0
 11
883.35355004479982
 21
63.371638659600002
 31
0.0
  0
SOLID
  5
7D
  8
0
 62
     0
 10
886.35355004480004
 20
63.371638659600002
 30
0.0
 11
878.85355004479993
 21
61.496638659600002
 31
0.0
 12
878.85355004479993
 22
65.246638659599995
 32
0.0
 13
880.72855004479993
 23
63.371638659600002
 33
0.0
  0
ENDBLK
  5
7E
  8
0
  0
BLOCK
  8
0
  2
*D4
 70
     1
 10
0.0
 20
0.0
 30
0.0
  3
*D4
  1

  0
TEXT
  5
86
  8
0
 62
     0
 10
1105.7792927736
 20
-401.92935842179992
 30
0.0
 40
7.4965279578999988
  1
180
  0
LINE
  5
87
  8
0
 62
     0
 10
1022.3690025316999
 20
-328.17581083509998
 30
0.0
 11
1022.3690025316999
 21
-404.7522751203
 31
0.0
  0
LINE
  5
88
  8
0
 62
     0
 10
1202.41875
 20
-379.72534907959999
 30
0.0
 11
1202.41875
 21
-404.7522751203
 31
0.0
  0
LINE
  5
89
  8
0
 62
     0
 10
1022.3690025316999
 20
-404.2522751203
 30
0.0
 11
1123.4181820863
 21
-404.2522751203
 31
0.0
  0
LINE
  5
8A
  8
0
 62
     0
 10
1022.3690025316999
 20
-404.2522751203
 30
0.0
 11
1101.3695704454001
 21
-404.2522751203
 31
0.0
  0
LINE
  5
8B
  8
0
 62
     0
 10
1202.41875
 20
-404.2522751203
 30
0.0
 11
1123.4181820863
 21
-404.2522751203
 31
0.0
  0
LINE
  5
8C
  8
0
 62
     0
 10
1202.41875
 20
-404.2522751203
 30
0.0
 11
1101.3695704454001
 21
-404.2522751203
 31
0.0
  0
LINE
  5
8D
  8
0
 62
     0
 10
1202.41875
 20
-404.2522751203
 30
0.0
 11
1199.41875
 21
-404.2522751203
 31
0.0
  0
SOLID
  5
8E
  8
0
 62
     0
 10
1202.41875
 20
-404.2522751203
 30
0.0
 11
1194.91875
 21
-406.1272751203
 31
0.0
 12
1194.91875
 22
-402.3772751203
 32
0.0
 13
1196.79375
 23
-404.2522751203
 33
0.0
  0
LINE
  5
8F
  8
0
 62
     0
 10
1022.3690025316999
 20
-404.2522751203
 30
0.0
 11
1025.3690025317001
 21
-404.2522751203
 31
0.0
  0
SOLID
  5
90
  8
0
 62
     0
 10
1022.3690025316999
 20
-404.2522751203
 30
0.0
 11
1029.8690025317001
 21
-402.3772751203
 31
0.0
 12
1029.8690025317001
 22
-406.1272751203
 32
0.0
 13
1027.9940025317001
 23
-404.2522751203
 33
0.0
  0
ENDBLK
  5
91
  8
0
  0
BLOCK
  8
0
  2
*D5
 70
     1
 10
0.0
 20
0.0
 30
0.0
  3
*D5
  1

  0
TEXT
  5
95
  8
0
 62
     0
 10
582.23896655249985
 20
38.223164623099997
 30
0.0
 40
7.4965279578999988
  1
105
  0
LINE
  5
96
  8
0
 62
     0
 10
641.35355004480004
 20
-6.7253490795999991
 30
0.0
 11
641.35355004480004
 21
36.400247924600002
 31
0.0
  0
LINE
  5
97
  8
0
 62
     0
 10
536.35355004480004
 20
-6.7253490795999991
 30
0.0
 11
536.35355004480004
 21
36.400247924600002
 31
0.0
  0
LINE
  5
98
  8
0
 62
     0
 10
641.35355004480004
 20
35.900247924600002
 30
0.0
 11
599.87785586530003
 21
35.900247924600002
 31
0.0
  0
LINE
  5
99
  8
0
 62
     0
 10
641.35355004480004
 20
35.900247924600002
 30
0.0
 11
577.82924422439999
 21
35.900247924600002
 31
0.0
  0
LINE
  5
9A
  8
0
 62
     0
 10
536.35355004480004
 20
35.900247924600002
 30
0.0
 11
599.87785586530003
 21
35.900247924600002
 31
0.0
  0
LINE
  5
9B
  8
0
 62
     0
 10
536.35355004480004
 20
35.900247924600002
 30
0.0
 11
577.82924422439999
 21
35.900247924600002
 31
0.0
  0
LINE
  5
9C
  8
0
 62
     0
 10
536.35355004480004
 20
35.900247924600002
 30
0.0
 11
539.35355004480004
 21
35.900247924600002
 31
0.0
  0
SOLID
  5
9D
  8
0
 62
     0
 10
536.35355004480004
 20
35.900247924600002
 30
0.0
 11
543.85355004480004
 21
37.775247924600002
 31
0.0
 12
543.85355004480004
 22
34.025247924600002
 32
0.0
 13
541.97855004480004
 23
35.900247924600002
 33
0.0
  0
LINE
  5
9E
  8
0
 62
     0
 10
641.35355004480004
 20
35.900247924600002
 30
0.0
 11
638.35355004480004
 21
35.900247924600002
 31
0.0
  0
SOLID
  5
9F
  8
0
 62
     0
 10
641.35355004480004
 20
35.900247924600002
 30
0.0
 11
633.85355004480004
 21
34.025247924600002
 31
0.0
 12
633.85355004480004
 22
37.775247924600002
 32
0.0
 13
635.72855004480004
 23
35.900247924600002
 33
0.0
  0
ENDBLK
  5
A0
  8
0
  0
BLOCK
  8
0
  2
*D6
 70
     1
 10
0.0
 20
0.0
 30
0.0
  3
*D6
  1

  0
TEXT
  5
B4
  8
0
 62
     0
 10
1239.7753561734
 20
-197.33993257189999
 30
0.0
 40
7.4965279578999988
  1
376
 50
90.0
  0
LINE
  5
B5
  8
0
 62
     0
 10
1203.91875
 20
-378.72534907959999
 30
0.0
 11
1242.5982728718
 21
-378.72534907959999
 31
0.0
  0
LINE
  5
B6
  8
0
 62
     0
 10
1203.3187499999999
 20
-2.7253490795999991
 30
0.0
 11
1242.5982728718
 21
-2.7253490795999991
 31
0.0
  0
LINE
  5
B7
  8
0
 62
     0
 10
1242.0982728718
 20
-378.72534907959999
 30
0.0
 11
1242.0982728718
 21
-179.70104325919999
 31
0.0
  0
LINE
  5
B8
  8
0
 62
     0
 10
1242.0982728718
 20
-378.72534907959999
 30
0.0
 11
1242.0982728718
 21
-201.74965490010001
 31
0.0
  0
LINE
  5
B9
  8
0
 62
     0
 10
1242.0982728718
 20
-2.7253490795999991
 30
0.0
 11
1242.0982728718
 21
-179.70104325919999
 31
0.0
  0
LINE
  5
BA
  8
0
 62
     0
 10
1242.0982728718
 20
-2.7253490795999991
 30
0.0
 11
1242.0982728718
 21
-201.74965490010001
 31
0.0
  0
LINE
  5
BB
  8
0
 62
     0
 10
1242.0982728718
 20
-2.7253490795999991
 30
0.0
 11
1242.0982728718
 21
-5.7253490795999991
 31
0.0
  0
SOLID
  5
BC
  8
0
 62
     0
 10
1242.0982728718
 20
-2.7253490795999991
 30
0.0
 11
1243.9732728718
 21
-10.225349079600001
 31
0.0
 12
1240.2232728718
 22
-10.225349079600001
 32
0.0
 13
1242.0982728718
 23
-8.3503490796000008
 33
0.0
  0
LINE
  5
BD
  8
0
 62
     0
 10
1242.0982728718
 20
-378.72534907959999
 30
0.0
 11
1242.0982728718
 21
-375.72534907959999
 31
0.0
  0
SOLID
  5
BE
  8
0
 62
     0
 10
1242.0982728718
 20
-378.72534907959999
 30
0.0
 11
1240.2232728718
 21
-371.22534907959999
 31
0.0
 12
1243.9732728718
 22
-371.22534907959999
 32
0.0
 13
1242.0982728718
 23
-373.10034907959999
 33
0.0
  0
ENDBLK
  5
BF
  8
0
  0
BLOCK
  8
0
  2
*D7
 70
     1
 10
0.0
 20
0.0
 30
0.0
  3
*D7
  1

  0
TEXT
  5
C3
  8
0
 62
     0
 10
982.76512753169982
 20
-271.50001266060002
 30
0.0
 40
7.4965279578999988
  1
123.5
 50
90.0
  0
LINE
  5
C4
  8
0
 62
     0
 10
1026.3187499999999
 20
-198.72535031340001
 30
0.0
 11
984.58804423009997
 21
-198.72535031340001
 31
0.0
  0
LINE
  5
C5
  8
0
 62
     0
 10
1026.3187499999999
 20
-322.22606336680002
 30
0.0
 11
984.58804423009997
 21
-322.22606336680002
 31
0.0
  0
LINE
  5
C6
  8
0
 62
     0
 10
985.08804423009985
 20
-198.72535031340001
 30
0.0
 11
985.08804423009985
 21
-245.04167869139999
 31
0.0
  0
LINE
  5
C7
  8
0
 62
     0
 10
985.08804423009985
 20
-198.72535031340001
 30
0.0
 11
985.08804423009985
 21
-275.9097349887
 31
0.0
  0
LINE
  5
C8
  8
0
 62
     0
 10
985.08804423009985
 20
-322.22606336680002
 30
0.0
 11
985.08804423009985
 21
-245.04167869139999
 31
0.0
  0
LINE
  5
C9
  8
0
 62
     0
 10
985.08804423009985
 20
-322.22606336680002
 30
0.0
 11
985.08804423009985
 21
-275.9097349887
 31
0.0
  0
LINE
  5
CA
  8
0
 62
     0
 10
985.08804423009985
 20
-322.22606336680002
 30
0.0
 11
985.08804423009985
 21
-319.22606336680002
 31
0.0
  0
SOLID
  5
CB
  8
0
 62
     0
 10
985.08804423009985
 20
-322.22606336680002
 30
0.0
 11
983.21304423009997
 21
-314.72606336680002
 31
0.0
 12
986.96304423009997
 22
-314.72606336680002
 32
0.0
 13
985.08804423009985
 23
-316.60106336680002
 33
0.0
  0
LINE
  5
CC
  8
0
 62
     0
 10
985.08804423009985
 20
-198.72535031340001
 30
0.0
 11
985.08804423009985
 21
-201.72535031340001
 31
0.0
  0
SOLID
  5
CD
  8
0
 62
     0
 10
985.08804423009985
 20
-198.72535031340001
 30
0.0
 11
986.96304423009997
 21
-206.22535031340001
 31
0.0
 12
983.21304423009997
 22
-206.22535031340001
 32
0.0
 13
985.08804423009985
 23
-204.35035031340001
 33
0.0
  0
ENDBLK
  5
CE
  8
0
  0
BLOCK
  8
0
  2
*D8
 70
     1
 10
0.0
 20
0.0
 30
0.0
  3
*D8
  1

  0
TEXT
  5
D2
  8
0
 62
     0
 10
958.88242184319995
 20
-184.00036918730001
 30
0.0
 40
7.4965279578999988
  1
298.5
 50
90.0
  0
LINE
  5
D3
  8
0
 62
     0
 10
1200.8187499999999
 20
-23.726063366799998
 30
0.0
 11
960.70533854170003
 21
-23.726063366799998
 31
0.0
  0
LINE
  5
D4
  8
0
 62
     0
 10
1026.3187499999999
 20
-322.22606336680002
 30
0.0
 11
960.70533854170003
 21
-322.22606336680002
 31
0.0
  0
LINE
  5
D5
  8
0
 62
     0
 10
961.20533854170003
 20
-23.726063366799998
 30
0.0
 11
961.20533854170003
 21
-157.5420352182
 31
0.0
  0
LINE
  5
D6
  8
0
 62
     0
 10
961.20533854170003
 20
-23.726063366799998
 30
0.0
 11
961.20533854170003
 21
-188.4100915155
 31
0.0
  0
LINE
  5
D7
  8
0
 62
     0
 10
961.20533854170003
 20
-322.22606336680002
 30
0.0
 11
961.20533854170003
 21
-157.5420352182
 31
0.0
  0
LINE
  5
D8
  8
0
 62
     0
 10
961.20533854170003
 20
-322.22606336680002
 30
0.0
 11
961.20533854170003
 21
-188.4100915155
 31
0.0
  0
LINE
  5
D9
  8
0
 62
     0
 10
961.20533854170003
 20
-322.22606336680002
 30
0.0
 11
961.20533854170003
 21
-319.22606336680002
 31
0.0
  0
SOLID
  5
DA
  8
0
 62
     0
 10
961.20533854170003
 20
-322.22606336680002
 30
0.0
 11
959.33033854170003
 21
-314.72606336680002
 31
0.0
 12
963.08033854169992
 22
-314.72606336680002
 32
0.0
 13
961.20533854170003
 23
-316.60106336680002
 33
0.0
  0
LINE
  5
DB
  8
0
 62
     0
 10
961.20533854170003
 20
-23.726063366799998
 30
0.0
 11
961.20533854170003
 21
-26.726063366799998
 31
0.0
  0
SOLID
  5
DC
  8
0
 62
     0
 10
961.20533854170003
 20
-23.726063366799998
 30
0.0
 11
963.08033854169992
 21
-31.226063366799998
 31
0.0
 12
959.33033854170003
 22
-31.226063366799998
 32
0.0
 13
961.20533854170003
 23
-29.351063366799998
 33
0.0
  0
ENDBLK
  5
DD
  8
0
  0
BLOCK
  8
0
  2
*D9
 70
     1
 10
0.0
 20
0.0
 30
0.0
  3
*D9
  1

  0
TEXT
  5
E3
  8
0
 62
     0
 10
958.88241516669984
 20
-17.6354285514
 30
0.0
 40
7.4965279578999988
  1
22
 50
90.0
  0
LINE
  5
E4
  8
0
 62
     0
 10
1201.3187499999999
 20
-2.7253490795999991
 30
0.0
 11
960.70533186509988
 21
-2.7253490795999991
 31
0.0
  0
LINE
  5
E5
  8
0
 62
     0
 10
1200.8187499999999
 20
-23.726063366799998
 30
0.0
 11
960.70533186509988
 21
-23.726063366799998
 31
0.0
  0
LINE
  5
E6
  8
0
 62
     0
 10
961.20533186509999
 20
-2.7253490795999991
 30
0.0
 11
961.20533186509999
 21
-4.4062615668999987
 31
0.0
  0
LINE
  5
E7
  8
0
 62
     0
 10
961.20533186509999
 20
-2.7253490795999991
 30
0.0
 11
961.20533186509999
 21
-22.045150879600001
 31
0.0
  0
LINE
  5
E8
  8
0
 62
     0
 10
961.20533186509999
 20
-23.726063366799998
 30
0.0
 11
961.20533186509999
 21
-4.4062615668999987
 31
0.0
  0
LINE
  5
E9
  8
0
 62
     0
 10
961.20533186509999
 20
-23.726063366799998
 30
0.0
 11
961.20533186509999
 21
-22.045150879600001
 31
0.0
  0
LINE
  5
EA
  8
0
 62
     0
 10
961.20533186509999
 20
-23.726063366799998
 30
0.0
 11
961.20533186509999
 21
-26.726063366799998
 31
0.0
  0
SOLID
  5
EB
  8
0
 62
     0
 10
961.20533186509999
 20
-23.726063366799998
 30
0.0
 11
963.08033186509999
 21
-31.226063366799998
 31
0.0
 12
959.33033186509988
 22
-31.226063366799998
 32
0.0
 13
961.20533186509999
 23
-29.351063366799998
 33
0.0
  0
LINE
  5
EC
  8
0
 62
     0
 10
961.20533186509999
 20
-2.7253490795999991
 30
0.0
 11
961.20533186509999
 21
0.2746509204
 31
0.0
  0
SOLID
  5
ED
  8
0
 62
     0
 10
961.20533186509999
 20
-2.7253490795999991
 30
0.0
 11
959.33033186509988
 21
4.7746509204000001
 31
0.0
 12
963.08033186509999
 22
4.7746509204000001
 32
0.0
 13
961.20533186509999
 23
2.8996509204000001
 33
0.0
  0
ENDBLK
  5
EE
  8
0
  0
BLOCK
  8
0
  2
*D10
 70
     1
 10
0.0
 20
0.0
 30
0.0
  3
*D10
  1

  0
TEXT
  5
F2
  8
0
 62
     0
 10
1108.2041665076999
 20
23.374493659500001
 30
0.0
 40
7.4965279578999988
  1
175
  0
LINE
  5
F3
  8
0
 62
     0
 10
1202.3187499999999
 20
-3.4753490795999991
 30
0.0
 11
1202.3187499999999
 21
21.551576960999999
 31
0.0
  0
LINE
  5
F4
  8
0
 62
     0
 10
1027.3187499999999
 20
-197.72535031340001
 30
0.0
 11
1027.3187499999999
 21
21.551576960999999
 31
0.0
  0
LINE
  5
F5
  8
0
 62
     0
 10
1202.3187499999999
 20
21.051576960999999
 30
0.0
 11
1125.8430558205
 21
21.051576960999999
 31
0.0
  0
LINE
  5
F6
  8
0
 62
     0
 10
1202.3187499999999
 20
21.051576960999999
 30
0.0
 11
1103.7944441795
 21
21.051576960999999
 31
0.0
  0
LINE
  5
F7
  8
0
 62
     0
 10
1027.3187499999999
 20
21.051576960999999
 30
0.0
 11
1125.8430558205
 21
21.051576960999999
 31
0.0
  0
LINE
  5
F8
  8
0
 62
     0
 10
1027.3187499999999
 20
21.051576960999999
 30
0.0
 11
1103.7944441795
 21
21.051576960999999
 31
0.0
  0
LINE
  5
F9
  8
0
 62
     0
 10
1027.3187499999999
 20
21.051576960999999
 30
0.0
 11
1030.3187499999999
 21
21.051576960999999
 31
0.0
  0
SOLID
  5
FA
  8
0
 62
     0
 10
1027.3187499999999
 20
21.051576960999999
 30
0.0
 11
1034.8187499999999
 21
22.926576960999999
 31
0.0
 12
1034.8187499999999
 22
19.176576960999999
 32
0.0
 13
1032.9437499999999
 23
21.051576960999999
 33
0.0
  0
LINE
  5
FB
  8
0
 62
     0
 10
1202.3187499999999
 20
21.051576960999999
 30
0.0
 11
1199.3187499999999
 21
21.051576960999999
 31
0.0
  0
SOLID
  5
FC
  8
0
 62
     0
 10
1202.3187499999999
 20
21.051576960999999
 30
0.0
 11
1194.8187499999999
 21
19.176576960999999
 31
0.0
 12
1194.8187499999999
 22
22.926576960999999
 32
0.0
 13
1196.6937499999999
 23
21.051576960999999
 33
0.0
  0
ENDBLK
  5
FD
  8
0
  0
BLOCK
  8
0
  2
*D11
 70
     1
 10
0.0
 20
0.0
 30
0.0
  3
*D11
  1

  0
TEXT
  5
102
  8
0
 62
     0
 10
1039.9022758235001
 20
-31.9434725172
 30
0.0
 40
7.4965279578999988
  1
R175
 50
315.0
  0
LINE
  5
103
  8
0
 62
     0
 10
1078.5750632924
 20
-74.981662372000002
 30
0.0
 11
1037.7195746304999
 21
-34.1261737102
 31
0.0
  0
SOLID
  5
104
  8
0
 62
     0
 10
1078.5750632924
 20
-74.981662372000002
 30
0.0
 11
1071.9459372187
 21
-71.004186727800004
 31
0.0
 12
1074.5975876482
 22
-68.352536298399997
 32
0.0
 13
1074.5975876482
 23
-71.004186727800004
 33
0.0
  0
ENDBLK
  5
105
  8
0
  0
BLOCK
  8
0
  2
*D12
 70
     1
 10
0.0
 20
0.0
 30
0.0
  3
*D12
  1

  0
TEXT
  5
120
  8
0
 62
     0
 10
511.94382771660003
 20
38.223164623099997
 30
0.0
 40
7.4965279578999988
  1
40
  0
LINE
  5
121
  8
0
 62
     0
 10
536.35355004480004
 20
-6.7253490795999991
 30
0.0
 11
536.35355004480004
 21
36.400247924600002
 31
0.0
  0
LINE
  5
122
  8
0
 62
     0
 10
496.35355004479999
 20
-3.7260633668000001
 30
0.0
 11
496.35355004479999
 21
36.400247924600002
 31
0.0
  0
LINE
  5
123
  8
0
 62
     0
 10
536.35355004480004
 20
35.900247924600002
 30
0.0
 11
525.17299470120008
 21
35.900247924600002
 31
0.0
  0
LINE
  5
124
  8
0
 62
     0
 10
536.35355004480004
 20
35.900247924600002
 30
0.0
 11
507.5341053885
 21
35.900247924600002
 31
0.0
  0
LINE
  5
125
  8
0
 62
     0
 10
496.35355004479999
 20
35.900247924600002
 30
0.0
 11
525.17299470120008
 21
35.900247924600002
 31
0.0
  0
LINE
  5
126
  8
0
 62
     0
 10
496.35355004479999
 20
35.900247924600002
 30
0.0
 11
507.5341053885
 21
35.900247924600002
 31
0.0
  0
LINE
  5
127
  8
0
 62
     0
 10
496.35355004479999
 20
35.900247924600002
 30
0.0
 11
499.35355004479999
 21
35.900247924600002
 31
0.0
  0
SOLID
  5
128
  8
0
 62
     0
 10
496.35355004479999
 20
35.900247924600002
 30
0.0
 11
503.85355004479999
 21
37.775247924600002
 31
0.0
 12
503.85355004479999
 22
34.025247924600002
 32
0.0
 13
501.97855004479999
 23
35.900247924600002
 33
0.0
  0
LINE
  5
129
  8
0
 62
     0
 10
536.35355004480004
 20
35.900247924600002
 30
0.0
 11
533.35355004480004
 21
35.900247924600002
 31
0.0
  0
SOLID
  5
12A
  8
0
 62
     0
 10
536.35355004480004
 20
35.900247924600002
 30
0.0
 11
528.85355004480004
 21
34.025247924600002
 31
0.0
 12
528.85355004480004
 22
37.775247924600002
 32
0.0
 13
530.72855004480004
 23
35.900247924600002
 33
0.0
  0
ENDBLK
  5
12B
  8
0
  0
BLOCK
  8
0
  2
*D13
 70
     1
 10
0.0
 20
0.0
 30
0.0
  3
*D13
  1

  0
TEXT
  5
12F
  8
0
 62
     0
 10
469.03063334640001
 20
-95.840646859100005
 30
0.0
 40
7.4965279578999988
  1
105
 50
90.0
  0
LINE
  5
130
  8
0
 62
     0
 10
501.35355004479999
 20
-36.726063366799998
 30
0.0
 11
470.85355004479999
 21
-36.726063366799998
 31
0.0
  0
LINE
  5
131
  8
0
 62
     0
 10
501.35355004479999
 20
-141.72606336679999
 30
0.0
 11
470.85355004479999
 21
-141.72606336679999
 31
0.0
  0
LINE
  5
132
  8
0
 62
     0
 10
471.35355004479999
 20
-36.726063366799998
 30
0.0
 11
471.35355004479999
 21
-78.201757546300001
 31
0.0
  0
LINE
  5
133
  8
0
 62
     0
 10
471.35355004479999
 20
-36.726063366799998
 30
0.0
 11
471.35355004479999
 21
-100.2503691873
 31
0.0
  0
LINE
  5
134
  8
0
 62
     0
 10
471.35355004479999
 20
-141.72606336679999
 30
0.0
 11
471.35355004479999
 21
-78.201757546300001
 31
0.0
  0
LINE
  5
135
  8
0
 62
     0
 10
471.35355004479999
 20
-141.72606336679999
 30
0.0
 11
471.35355004479999
 21
-100.2503691873
 31
0.0
  0
LINE
  5
136
  8
0
 62
     0
 10
471.35355004479999
 20
-141.72606336679999
 30
0.0
 11
471.35355004479999
 21
-138.72606336679999
 31
0.0
  0
SOLID
  5
137
  8
0
 62
     0
 10
471.35355004479999
 20
-141.72606336679999
 30
0.0
 11
469.47855004479999
 21
-134.22606336679999
 31
0.0
 12
473.22855004479999
 22
-134.22606336679999
 32
0.0
 13
471.35355004479999
 23
-136.10106336679999
 33
0.0
  0
LINE
  5
138
  8
0
 62
     0
 10
471.35355004479999
 20
-36.726063366799998
 30
0.0
 11
471.35355004479999
 21
-39.726063366799998
 31
0.0
  0
SOLID
  5
139
  8
0
 62
     0
 10
471.35355004479999
 20
-36.726063366799998
 30
0.0
 11
473.22855004479999
 21
-44.226063366799998
 31
0.0
 12
469.47855004479999
 22
-44.226063366799998
 32
0.0
 13
471.35355004479999
 23
-42.351063366799998
 33
0.0
  0
ENDBLK
  5
13A
  8
0
  0
BLOCK
  8
0
  2
*D14
 70
     1
 10
0.0
 20
0.0
 30
0.0
  3
*D14
  1

  0
TEXT
  5
13E
  8
0
 62
     0
 10
469.03063334640001
 20
-25.135785694999999
 30
0.0
 40
7.4965279578999988
  1
32
 50
90.0
  0
LINE
  5
13F
  8
0
 62
     0
 10
495.35355004479999
 20
-4.7260633668000001
 30
0.0
 11
470.85355004479999
 21
-4.7260633668000001
 31
0.0
  0
LINE
  5
140
  8
0
 62
     0
 10
501.35355004479999
 20
-36.726063366799998
 30
0.0
 11
470.85355004479999
 21
-36.726063366799998
 31
0.0
  0
LINE
  5
141
  8
0
 62
     0
 10
471.35355004479999
 20
-4.7260633668000001
 30
0.0
 11
471.35355004479999
 21
-11.9066187104
 31
0.0
  0
LINE
  5
142
  8
0
 62
     0
 10
471.35355004479999
 20
-4.7260633668000001
 30
0.0
 11
471.35355004479999
 21
-29.5455080232
 31
0.0
  0
LINE
  5
143
  8
0
 62
     0
 10
471.35355004479999
 20
-36.726063366799998
 30
0.0
 11
471.35355004479999
 21
-11.9066187104
 31
0.0
  0
LINE
  5
144
  8
0
 62
     0
 10
471.35355004479999
 20
-36.726063366799998
 30
0.0
 11
471.35355004479999
 21
-29.5455080232
 31
0.0
  0
LINE
  5
145
  8
0
 62
     0
 10
471.35355004479999
 20
-36.726063366799998
 30
0.0
 11
471.35355004479999
 21
-39.726063366799998
 31
0.0
  0
SOLID
  5
146
  8
0
 62
     0
 10
471.35355004479999
 20
-36.726063366799998
 30
0.0
 11
473.22855004479999
 21
-44.226063366799998
 31
0.0
 12
469.47855004479999
 22
-44.226063366799998
 32
0.0
 13
471.35355004479999
 23
-42.351063366799998
 33
0.0
  0
LINE
  5
147
  8
0
 62
     0
 10
471.35355004479999
 20
-4.7260633668000001
 30
0.0
 11
471.35355004479999
 21
-1.7260633668000001
 31
0.0
  0
SOLID
  5
148
  8
0
 62
     0
 10
471.35355004479999
 20
-4.7260633668000001
 30
0.0
 11
469.47855004479999
 21
2.7739366331999991
 31
0.0
 12
473.22855004479999
 22
2.7739366331999991
 32
0.0
 13
471.35355004479999
 23
0.8989366332
 33
0.0
  0
ENDBLK
  5
149
  8
0
  0
BLOCK
  8
0
  2
*D15
 70
     1
 10
0.0
 20
0.0
 30
0.0
  3
*D15
  1

  0
TEXT
  5
14D
  8
0
 62
     0
 10
469.03063334640001
 20
11.331739214700001
 30
0.0
 40
7.4965279578999988
  1
3
 50
90.0
  0
LINE
  5
14E
  8
0
 62
     0
 10
511.35355004479999
 20
-1.7260633668000001
 30
0.0
 11
470.85355004479999
 21
-1.7260633668000001
 31
0.0
  0
LINE
  5
14F
  8
0
 62
     0
 10
495.35355004479999
 20
-4.7260633668000001
 30
0.0
 11
470.85355004479999
 21
-4.7260633668000001
 31
0.0
  0
LINE
  5
150
  8
0
 62
     0
 10
471.35355004479999
 20
-1.7260633668000001
 30
0.0
 11
471.35355004479999
 21
20.151183871099999
 31
0.0
  0
LINE
  5
151
  8
0
 62
     0
 10
471.35355004479999
 20
-1.7260633668000001
 30
0.0
 11
471.35355004479999
 21
6.9220168864999989
 31
0.0
  0
LINE
  5
152
  8
0
 62
     0
 10
471.35355004479999
 20
-4.7260633668000001
 30
0.0
 11
471.35355004479999
 21
20.151183871099999
 31
0.0
  0
LINE
  5
153
  8
0
 62
     0
 10
471.35355004479999
 20
-4.7260633668000001
 30
0.0
 11
471.35355004479999
 21
6.9220168864999989
 31
0.0
  0
LINE
  5
154
  8
0
 62
     0
 10
471.35355004479999
 20
-4.7260633668000001
 30
0.0
 11
471.35355004479999
 21
-7.7260633667999992
 31
0.0
  0
SOLID
  5
155
  8
0
 62
     0
 10
471.35355004479999
 20
-4.7260633668000001
 30
0.0
 11
473.22855004479999
 21
-12.2260633668
 31
0.0
 12
469.47855004479999
 22
-12.2260633668
 32
0.0
 13
471.35355004479999
 23
-10.3510633668
 33
0.0
  0
LINE
  5
156
  8
0
 62
     0
 10
471.35355004479999
 20
-1.7260633668000001
 30
0.0
 11
471.35355004479999
 21
1.2739366331999991
 31
0.0
  0
SOLID
  5
157
  8
0
 62
     0
 10
471.35355004479999
 20
-1.7260633668000001
 30
0.0
 11
469.47855004479999
 21
5.7739366331999999
 31
0.0
 12
473.22855004479999
 22
5.7739366331999999
 32
0.0
 13
471.35355004479999
 23
3.8989366331999991
 33
0.0
  0
ENDBLK
  5
158
  8
0
  0
BLOCK
  8
0
  2
*D16
 70
     1
 10
0.0
 20
0.0
 30
0.0
  3
*D16
  1

  0
TEXT
  5
169
  8
0
 62
     0
 10
469.03063334640001
 20
-366.63578569499998
 30
0.0
 40
7.4965279578999988
  1
31
 50
90.0
  0
LINE
  5
16A
  8
0
 62
     0
 10
501.35355004479999
 20
-346.72606336680002
 30
0.0
 11
470.85355004479999
 21
-346.72606336680002
 31
0.0
  0
LINE
  5
16B
  8
0
 62
     0
 10
495.35355004479999
 20
-377.72606336680002
 30
0.0
 11
470.85355004479999
 21
-377.72606336680002
 31
0.0
  0
LINE
  5
16C
  8
0
 62
     0
 10
471.35355004479999
 20
-346.72606336680002
 30
0.0
 11
471.35355004479999
 21
-353.40661871039998
 31
0.0
  0
LINE
  5
16D
  8
0
 62
     0
 10
471.35355004479999
 20
-346.72606336680002
 30
0.0
 11
471.35355004479999
 21
-371.0455080232
 31
0.0
  0
LINE
  5
16E
  8
0
 62
     0
 10
471.35355004479999
 20
-377.72606336680002
 30
0.0
 11
471.35355004479999
 21
-353.40661871039998
 31
0.0
  0
LINE
  5
16F
  8
0
 62
     0
 10
471.35355004479999
 20
-377.72606336680002
 30
0.0
 11
471.35355004479999
 21
-371.0455080232
 31
0.0
  0
LINE
  5
170
  8
0
 62
     0
 10
471.35355004479999
 20
-377.72606336680002
 30
0.0
 11
471.35355004479999
 21
-380.72606336680002
 31
0.0
  0
SOLID
  5
171
  8
0
 62
     0
 10
471.35355004479999
 20
-377.72606336680002
 30
0.0
 11
473.22855004479999
 21
-385.22606336680002
 31
0.0
 12
469.47855004479999
 22
-385.22606336680002
 32
0.0
 13
471.35355004479999
 23
-383.35106336680002
 33
0.0
  0
LINE
  5
172
  8
0
 62
     0
 10
471.35355004479999
 20
-346.72606336680002
 30
0.0
 11
471.35355004479999
 21
-343.72606336680002
 31
0.0
  0
SOLID
  5
173
  8
0
 62
     0
 10
471.35355004479999
 20
-346.72606336680002
 30
0.0
 11
469.47855004479999
 21
-339.22606336680002
 31
0.0
 12
473.22855004479999
 22
-339.22606336680002
 32
0.0
 13
471.35355004479999
 23
-341.10106336680002
 33
0.0
  0
ENDBLK
  5
174
  8
0
  0
BLOCK
  8
0
  2
*D17
 70
     1
 10
0.0
 20
0.0
 30
0.0
  3
*D17
  1

  0
TEXT
  5
178
  8
0
 62
     0
 10
469.03063334640001
 20
-303.34064685909999
 30
0.0
 40
7.4965279578999988
  1
100
 50
90.0
  0
LINE
  5
179
  8
0
 62
     0
 10
501.35355004479999
 20
-246.72606336679999
 30
0.0
 11
470.85355004479999
 21
-246.72606336679999
 31
0.0
  0
LINE
  5
17A
  8
0
 62
     0
 10
501.35355004479999
 20
-346.72606336680002
 30
0.0
 11
470.85355004479999
 21
-346.72606336680002
 31
0.0
  0
LINE
  5
17B
  8
0
 62
     0
 10
471.35355004479999
 20
-246.72606336679999
 30
0.0
 11
471.35355004479999
 21
-285.70175754629997
 31
0.0
  0
LINE
  5
17C
  8
0
 62
     0
 10
471.35355004479999
 20
-246.72606336679999
 30
0.0
 11
471.35355004479999
 21
-307.75036918730001
 31
0.0
  0
LINE
  5
17D
  8
0
 62
     0
 10
471.35355004479999
 20
-346.72606336680002
 30
0.0
 11
471.35355004479999
 21
-285.70175754629997
 31
0.0
  0
LINE
  5
17E
  8
0
 62
     0
 10
471.35355004479999
 20
-346.72606336680002
 30
0.0
 11
471.35355004479999
 21
-307.75036918730001
 31
0.0
  0
LINE
  5
17F
  8
0
 62
     0
 10
471.35355004479999
 20
-346.72606336680002
 30
0.0
 11
471.35355004479999
 21
-343.72606336680002
 31
0.0
  0
SOLID
  5
180
  8
0
 62
     0
 10
471.35355004479999
 20
-346.72606336680002
 30
0.0
 11
469.47855004479999
 21
-339.22606336680002
 31
0.0
 12
473.22855004479999
 22
-339.22606336680002
 32
0.0
 13
471.35355004479999
 23
-341.10106336680002
 33
0.0
  0
LINE
  5
181
  8
0
 62
     0
 10
471.35355004479999
 20
-246.72606336679999
 30
0.0
 11
471.35355004479999
 21
-249.72606336679999
 31
0.0
  0
SOLID
  5
182
  8
0
 62
     0
 10
471.35355004479999
 20
-246.72606336679999
 30
0.0
 11
473.22855004479999
 21
-254.22606336679999
 31
0.0
 12
469.47855004479999
 22
-254.22606336679999
 32
0.0
 13
471.35355004479999
 23
-252.35106336679999
 33
0.0
  0
ENDBLK
  5
183
  8
0
  0
BLOCK
  8
0
  2
*D18
 70
     1
 10
0.0
 20
0.0
 30
0.0
  3
*D18
  1

  0
TEXT
  5
187
  8
0
 62
     0
 10
497.44382771660003
 20
-400.930072709
 30
0.0
 40
7.4965279578999988
  1
11
  0
LINE
  5
188
  8
0
 62
     0
 10
496.35355004479999
 20
-378.72606336680002
 30
0.0
 11
496.35355004479999
 21
-403.75298940749991
 31
0.0
  0
LINE
  5
189
  8
0
 62
     0
 10
507.35355004479999
 20
-353.3569267721
 30
0.0
 11
507.35355004479999
 21
-403.75298940749991
 31
0.0
  0
LINE
  5
18A
  8
0
 62
     0
 10
496.35355004479999
 20
-403.25298940750002
 30
0.0
 11
496.35355004479999
 21
-403.25298940750002
 31
0.0
  0
LINE
  5
18B
  8
0
 62
     0
 10
496.35355004479999
 20
-403.25298940750002
 30
0.0
 11
507.35355004479999
 21
-403.25298940750002
 31
0.0
  0
LINE
  5
18C
  8
0
 62
     0
 10
507.35355004479999
 20
-403.25298940750002
 30
0.0
 11
496.35355004479999
 21
-403.25298940750002
 31
0.0
  0
LINE
  5
18D
  8
0
 62
     0
 10
507.35355004479999
 20
-403.25298940750002
 30
0.0
 11
507.35355004479999
 21
-403.25298940750002
 31
0.0
  0
LINE
  5
18E
  8
0
 62
     0
 10
507.35355004479999
 20
-403.25298940750002
 30
0.0
 11
510.35355004479999
 21
-403.25298940750002
 31
0.0
  0
SOLID
  5
18F
  8
0
 62
     0
 10
507.35355004479999
 20
-403.25298940750002
 30
0.0
 11
514.85355004480004
 21
-401.37798940750002
 31
0.0
 12
514.85355004480004
 22
-405.12798940749991
 32
0.0
 13
512.97855004480004
 23
-403.25298940750002
 33
0.0
  0
LINE
  5
190
  8
0
 62
     0
 10
496.35355004479999
 20
-403.25298940750002
 30
0.0
 11
493.35355004479999
 21
-403.25298940750002
 31
0.0
  0
SOLID
  5
191
  8
0
 62
     0
 10
496.35355004479999
 20
-403.25298940750002
 30
0.0
 11
488.85355004479999
 21
-405.12798940749991
 31
0.0
 12
488.85355004479999
 22
-401.37798940750002
 32
0.0
 13
490.72855004479999
 23
-403.25298940750002
 33
0.0
  0
ENDBLK
  5
192
  8
0
  0
BLOCK
  8
0
  2
*D19
 70
     1
 10
0.0
 20
0.0
 30
0.0
  3
*D19
  1

  0
TEXT
  5
19A
  8
0
 62
     0
 10
687.23896655249985
 20
38.223164623099997
 30
0.0
 40
7.4965279578999988
  1
105
  0
LINE
  5
19B
  8
0
 62
     0
 10
746.35355004479993
 20
-6.7253490795999991
 30
0.0
 11
746.35355004479993
 21
36.400247924600002
 31
0.0
  0
LINE
  5
19C
  8
0
 62
     0
 10
641.35355004480004
 20
-6.7253490795999991
 30
0.0
 11
641.35355004480004
 21
36.400247924600002
 31
0.0
  0
LINE
  5
19D
  8
0
 62
     0
 10
746.35355004479993
 20
35.900247924600002
 30
0.0
 11
704.87785586530003
 21
35.900247924600002
 31
0.0
  0
LINE
  5
19E
  8
0
 62
     0
 10
746.35355004479993
 20
35.900247924600002
 30
0.0
 11
682.82924422439987
 21
35.900247924600002
 31
0.0
  0
LINE
  5
19F
  8
0
 62
     0
 10
641.35355004480004
 20
35.900247924600002
 30
0.0
 11
704.87785586530003
 21
35.900247924600002
 31
0.0
  0
LINE
  5
1A0
  8
0
 62
     0
 10
641.35355004480004
 20
35.900247924600002
 30
0.0
 11
682.82924422439987
 21
35.900247924600002
 31
0.0
  0
LINE
  5
1A1
  8
0
 62
     0
 10
641.35355004480004
 20
35.900247924600002
 30
0.0
 11
644.35355004480004
 21
35.900247924600002
 31
0.0
  0
SOLID
  5
1A2
  8
0
 62
     0
 10
641.35355004480004
 20
35.900247924600002
 30
0.0
 11
648.85355004480004
 21
37.775247924600002
 31
0.0
 12
648.85355004480004
 22
34.025247924600002
 32
0.0
 13
646.97855004480004
 23
35.900247924600002
 33
0.0
  0
LINE
  5
1A3
  8
0
 62
     0
 10
746.35355004479993
 20
35.900247924600002
 30
0.0
 11
743.35355004479993
 21
35.900247924600002
 31
0.0
  0
SOLID
  5
1A4
  8
0
 62
     0
 10
746.35355004479993
 20
35.900247924600002
 30
0.0
 11
738.85355004479993
 21
34.025247924600002
 31
0.0
 12
738.85355004479993
 22
37.775247924600002
 32
0.0
 13
740.72855004479993
 23
35.900247924600002
 33
0.0
  0
ENDBLK
  5
1A5
  8
0
  0
BLOCK
  8
0
  2
*D20
 70
     1
 10
0.0
 20
0.0
 30
0.0
  3
*D20
  1

  0
TEXT
  5
1A9
  8
0
 62
     0
 10
622.6320371917999
 20
3.7714850941999991
 30
0.0
 40
7.4965279578999988
  1
11
 50
90.0
  0
LINE
  5
1AA
  8
0
 62
     0
 10
634.25716743190003
 20
-1.7260633668000001
 30
0.0
 11
624.45495389019993
 21
-1.7260633668000001
 31
0.0
  0
LINE
  5
1AB
  8
0
 62
     0
 10
634.25716743190003
 20
-12.725349079600001
 30
0.0
 11
624.45495389019993
 21
-12.725349079600001
 31
0.0
  0
LINE
  5
1AC
  8
0
 62
     0
 10
624.95495389019993
 20
-1.7260633668000001
 30
0.0
 11
624.95495389019993
 21
17.0006520787
 31
0.0
  0
LINE
  5
1AD
  8
0
 62
     0
 10
624.95495389019993
 20
-1.7260633668000001
 30
0.0
 11
624.95495389019993
 21
-0.638237234
 31
0.0
  0
LINE
  5
1AE
  8
0
 62
     0
 10
624.95495389019993
 20
-12.725349079600001
 30
0.0
 11
624.95495389019993
 21
17.0006520787
 31
0.0
  0
LINE
  5
1AF
  8
0
 62
     0
 10
624.95495389019993
 20
-12.725349079600001
 30
0.0
 11
624.95495389019993
 21
-0.638237234
 31
0.0
  0
LINE
  5
1B0
  8
0
 62
     0
 10
624.95495389019993
 20
-12.725349079600001
 30
0.0
 11
624.95495389019993
 21
-15.725349079600001
 31
0.0
  0
SOLID
  5
1B1
  8
0
 62
     0
 10
624.95495389019993
 20
-12.725349079600001
 30
0.0
 11
626.82995389019993
 21
-20.225349079600001
 31
0.0
 12
623.07995389019993
 22
-20.225349079600001
 32
0.0
 13
624.95495389019993
 23
-18.350349079600001
 33
0.0
  0
LINE
  5
1B2
  8
0
 62
     0
 10
624.95495389019993
 20
-1.7260633668000001
 30
0.0
 11
624.95495389019993
 21
1.2739366331999991
 31
0.0
  0
SOLID
  5
1B3
  8
0
 62
     0
 10
624.95495389019993
 20
-1.7260633668000001
 30
0.0
 11
623.07995389019993
 21
5.7739366331999999
 31
0.0
 12
626.82995389019993
 22
5.7739366331999999
 32
0.0
 13
624.95495389019993
 23
3.8989366331999991
 33
0.0
  0
ENDBLK
  5
1B4
  8
0
  0
BLOCK
  8
0
  2
*D21
 70
     1
 10
0.0
 20
0.0
 30
0.0
  3
*D21
  1

  0
TEXT
  5
1B8
  8
0
 62
     0
 10
784.88462271469984
 20
-46.891019363500007
 30
0.0
 40
7.4965279578999988
  1
12-%%c4
 50
315.0
  0
LINE
  5
1B9
  8
0
 62
     0
 10
747.76776360719998
 20
-14.139562642
 30
0.0
 11
804.52893345149994
 21
-70.900732486300001
 31
0.0
  0
SOLID
  5
1BA
  8
0
 62
     0
 10
747.76776360719998
 20
-14.139562642
 30
0.0
 11
754.39688968079986
 21
-18.1170382862
 31
0.0
 12
751.74523925139999
 22
-20.7686887156
 32
0.0
 13
751.74523925139999
 23
-18.1170382862
 33
0.0
  0
ENDBLK
  5
1BB
  8
0
  0
BLOCK
  8
0
  2
*D22
 70
     1
 10
0.0
 20
0.0
 30
0.0
  3
*D22
  1

  0
TEXT
  5
23F
  8
0
 62
     0
 10
861.94382771660003
 20
38.223164623099997
 30
0.0
 40
7.4965279578999988
  1
40
  0
LINE
  5
240
  8
0
 62
     0
 10
886.35355004480004
 20
-3.7260633668000001
 30
0.0
 11
886.35355004480004
 21
36.400247924600002
 31
0.0
  0
LINE
  5
241
  8
0
 62
     0
 10
846.35355004479993
 20
-6.7253490795999991
 30
0.0
 11
846.35355004479993
 21
36.400247924600002
 31
0.0
  0
LINE
  5
242
  8
0
 62
     0
 10
886.35355004480004
 20
35.900247924600002
 30
0.0
 11
875.17299470119997
 21
35.900247924600002
 31
0.0
  0
LINE
  5
243
  8
0
 62
     0
 10
886.35355004480004
 20
35.900247924600002
 30
0.0
 11
857.53410538850005
 21
35.900247924600002
 31
0.0
  0
LINE
  5
244
  8
0
 62
     0
 10
846.35355004479993
 20
35.900247924600002
 30
0.0
 11
875.17299470119997
 21
35.900247924600002
 31
0.0
  0
LINE
  5
245
  8
0
 62
     0
 10
846.35355004479993
 20
35.900247924600002
 30
0.0
 11
857.53410538850005
 21
35.900247924600002
 31
0.0
  0
LINE
  5
246
  8
0
 62
     0
 10
846.35355004479993
 20
35.900247924600002
 30
0.0
 11
849.35355004479993
 21
35.900247924600002
 31
0.0
  0
SOLID
  5
247
  8
0
 62
     0
 10
846.35355004479993
 20
35.900247924600002
 30
0.0
 11
853.85355004479993
 21
37.775247924600002
 31
0.0
 12
853.85355004479993
 22
34.025247924600002
 32
0.0
 13
851.97855004480004
 23
35.900247924600002
 33
0.0
  0
LINE
  5
248
  8
0
 62
     0
 10
886.35355004480004
 20
35.900247924600002
 30
0.0
 11
883.35355004479982
 21
35.900247924600002
 31
0.0
  0
SOLID
  5
249
  8
0
 62
     0
 10
886.35355004480004
 20
35.900247924600002
 30
0.0
 11
878.85355004479993
 21
34.025247924600002
 31
0.0
 12
878.85355004479993
 22
37.775247924600002
 32
0.0
 13
880.72855004479993
 23
35.900247924600002
 33
0.0
  0
ENDBLK
  5
24A
  8
0
  0
BLOCK
  8
0
  2
*U23
 70
     1
 10
0.0
 20
0.0
 30
0.0
  3
*U23
  1

  0
TEXT
  5
28E
  8
┌▓È_1
  6
CONTINUOUS
 10
958.83534559949987
 20
-467.56771326199993
 30
0.0
 40
8.9958330630999992
  1
éjérü|éUéTéRéOéTüFérétéréRéOéSü@éO.éSéöü@éQéa
  0
TEXT
  5
28F
  8
┌▓È_1
  6
CONTINUOUS
 10
958.83534559949987
 20
-482.56076836716659
 30
0.0
 40
8.9958330630999992
  1
éjéeü|éUéTéRéOéUüFérétéréSéRéOü@éO.éSéöü@éaé`
  0
ENDBLK
  5
291
  8
0
  0
BLOCK
  8
0
  2
*U24
 70
     1
 10
0.0
 20
0.0
 30
0.0
  3
*U24
  1

  0
TEXT
  5
293
  8
┌▓È_1
  6
CONTINUOUS
 10
1061.7238915216001
 20
-496.29285319308622
 30
0.0
 40
7.496527552599999
  1
 ö┬ü@ü@î·
  0
ENDBLK
  5
295
  8
0
  0
BLOCK
  8
0
  2
*U25
 70
     1
 10
0.0
 20
0.0
 30
0.0
  3
*U25
  1

  0
TEXT
  5
297
  8
┌▓È_1
  6
CONTINUOUS
 62
     5
 10
1069.2831495915659
 20
-537.14218371940001
 30
0.0
 40
7.496527552599999
  1
1üF2.5
  0
ENDBLK
  5
299
  8
0
  0
BLOCK
  8
0
  2
*U26
 70
     1
 10
0.0
 20
0.0
 30
0.0
  3
*U26
  1

  0
TEXT
  5
29B
  8
┌▓È_1
  6
CONTINUOUS
 10
1061.7238915216001
 20
-523.7547997537331
 30
0.0
 40
7.496527552599999
  1
 Ä┌ü@ü@ôx
  0
ENDBLK
  5
29D
  8
0
  0
BLOCK
  8
0
  2
*U27
 70
     1
 10
0.0
 20
0.0
 30
0.0
  3
*U27
  1

  0
TEXT
  5
29F
  8
┌▓È_1
  6
CONTINUOUS
 10
961.72389152160008
 20
-496.02647911761318
 30
0.0
 40
7.496527552599999
  1
 ô·ü@ü@òt
  0
ENDBLK
  5
2A1
  8
0
  0
BLOCK
  8
0
  2
*U28
 70
     1
 10
0.0
 20
0.0
 30
0.0
  3
*U28
  1

  0
TEXT
  5
2A3
  8
┌▓È_1
  6
CONTINUOUS
 10
959.0859375
 20
-537.5047997537331
 30
0.0
 40
7.496527552599999
  1
 É╗É}ü@ü@ ëÇî┤
  0
ENDBLK
  5
2A5
  8
0
  0
BLOCK
  8
0
  2
*U29
 70
     1
 10
0.0
 20
0.0
 30
0.0
  3
*U29
  1

  0
TEXT
  5
2A7
  8
┌▓È_1
  6
CONTINUOUS
 10
959.0859375
 20
-523.67869287502629
 30
0.0
 40
7.496527552599999
  1
 É¦îvü@ü@ ëÇî┤
  0
ENDBLK
  5
2A9
  8
0
  0
BLOCK
  8
0
  2
*U30
 70
     1
 10
0.0
 20
0.0
 30
0.0
  3
*U30
  1

  0
TEXT
  5
2AB
  8
┌▓È_1
  6
CONTINUOUS
 62
     5
 10
971.92786362662082
 20
-509.6421837193999
 30
0.0
 40
7.496527552599999
  1
H10.8
  0
ENDBLK
  5
2AD
  8
0
  0
BLOCK
  8
0
  2
*U31
 70
     1
 10
0.0
 20
0.0
 30
0.0
  3
*U31
  1

  0
TEXT
  5
2AF
  8
┌▓È_1
  6
CONTINUOUS
 10
1011.7238915216
 20
-496.14063943567311
 30
0.0
 40
7.496527552599999
  1
 ìÌü@ü@Ä┐
  0
ENDBLK
  5
2B1
  8
0
  0
BLOCK
  8
0
  2
*U32
 70
     1
 10
0.0
 20
0.0
 30
0.0
  3
*U32
  1

  0
TEXT
  5
2B3
  8
┌▓È_1
  6
CONTINUOUS
 10
972.68552984190001
 20
-560.39252040780923
 30
0.0
 40
13.4937497973
  1
èöÄ«ë´Äð
  0
ENDBLK
  5
2B5
  8
0
  0
BLOCK
  8
0
  2
*U33
 70
     1
 10
0.0
 20
0.0
 30
0.0
  3
*U33
  1

  0
TEXT
  5
2B7
  8
┌▓È_1
  6
CONTINUOUS
 10
1111.7238915216001
 20
-496.29285319308622
 30
0.0
 40
7.496527552599999
  1
 îƒü@ü@ê¾
  0
ENDBLK
  5
2B9
  8
0
  0
BLOCK
  8
0
  2
*U34
 70
     1
 10
0.0
 20
0.0
 30
0.0
  3
*U34
  1

  0
TEXT
  5
2BB
  8
┌▓È_1
  6
CONTINUOUS
 10
1216.2422392407
 20
-531.51551054618631
 30
0.0
 40
8.9958330630999992
  1
èÀïCÉ¯âJâoü[
  0
ENDBLK
  5
2BD
  8
0
  0
BLOCK
  8
0
  2
*U35
 70
     1
 10
0.0
 20
0.0
 30
0.0
  3
*U35
  1

  0
TEXT
  5
2BF
  8
┌▓È_1
  6
CONTINUOUS
 10
1205.4867266232
 20
-497.7187036782999
 30
0.0
 40
8.9958330630999992
  1
éjérü|éUéTéRéOéT
  0
TEXT
  5
2C0
  8
┌▓È_1
  6
CONTINUOUS
 10
1205.4867266232
 20
-512.71175878346662
 30
0.0
 40
8.9958330630999992
  1
éjéeü|éUéTéRéOéU
  0
ENDBLK
  5
2C2
  8
0
  0
BLOCK
  8
0
  2
*U36
 70
     1
 10
0.0
 20
0.0
 30
0.0
  3
*U36
  1

  0
TEXT
  5
2C4
  8
┌▓È_1
  6
CONTINUOUS
 10
1161.877617092
 20
-551.10402618771968
 30
0.0
 40
7.496527552599999
  1
É}öÈ
  0
ENDBLK
  5
2C6
  8
0
  0
BLOCK
  8
0
  2
*U37
 70
     1
 10
0.0
 20
0.0
 30
0.0
  3
*U37
  1

  0
TEXT
  5
2C8
  8
┌▓È_1
  6
CONTINUOUS
 10
1161.877617092
 20
-523.68013306642627
 30
0.0
 40
7.496527552599999
  1
òiû╝
  0
ENDBLK
  5
2CA
  8
0
  0
BLOCK
  8
0
  2
*U38
 70
     1
 10
0.0
 20
0.0
 30
0.0
  3
*U38
  1

  0
TEXT
  5
2CC
  8
┌▓È_1
  6
CONTINUOUS
 10
1161.877617092
 20
-496.1040261877198
 30
0.0
 40
7.496527552599999
  1
î^öÈ
  0
ENDBLK
  5
2CE
  8
0
  0
ENDSEC
  0
SECTION
  2
ENTITIES
  0
LINE
  5
2F
  8
┌▓È_1
  6
BORDER
 62
     3
 10
507.35355004479999
 20
-31.726063366799998
 30
0.0
 11
507.35355004479999
 21
-351.72606336680002
 31
0.0
  0
LINE
  5
30
  8
┌▓È_1
  6
BORDER
 62
     3
 10
691.35355004479993
 20
8.2739366331999982
 30
0.0
 11
691.35355004479993
 21
-337.67581083509998
 31
0.0
  0
LINE
  5
31
  8
┌▓È_1
  6
STITCH
 10
516.75355004480002
 20
-26.726063366799998
 30
0.0
 11
516.75355004480002
 21
-376.93687495239999
 31
0.0
  0
LINE
  5
32
  8
┌▓È_1
 62
     5
 10
516.35355004480004
 20
-24.103103114300001
 30
0.0
 11
516.35355004480004
 21
-320.22606336680002
 31
0.0
  0
LINE
  5
33
  8
┌▓È_1
  6
STITCH
 10
518.6535500448
 20
-24.739100459100001
 30
0.0
 11
518.6535500448
 21
-320.22606336680002
 31
0.0
  0
LINE
  5
34
  8
┌▓È_1
 62
     5
 10
516.35355004480004
 20
-26.726063366799998
 30
0.0
 11
516.35355004480004
 21
-377.72606336680002
 31
0.0
  0
LINE
  5
35
  8
┌▓È_1
  6
STITCH
 10
500.35355004479999
 20
-4.7260633668000001
 30
0.0
 11
500.35355004479999
 21
-377.72606336680002
 31
0.0
  0
LINE
  5
36
  8
┌▓È_1
 62
     5
 10
496.35355004479999
 20
-4.7260633668000001
 30
0.0
 11
496.35355004479999
 21
-377.72606336680002
 31
0.0
  0
LINE
  5
37
  8
┌▓È_1
 62
     5
 10
522.35355004480004
 20
-23.726063366799998
 30
0.0
 11
522.35355004480004
 21
-322.17581083509998
 31
0.0
  0
LINE
  5
38
  8
┌▓È_1
 62
     5
 10
334.0859375
 20
-568.35364583329999
 30
0.0
 11
334.0859375
 21
131.64635416670001
 31
0.0
  0
DIMENSION
  5
49
  8
Éíû@É³
  2
*D0
 10
438.81856164149991
 20
-4.7260633668000001
 30
0.0
 11
438.81856164149991
 21
-191.22606336679999
 31
0.0
 70
   128
  1
<>
 13
496.35355004479999
 23
-4.7260633668000001
 33
0.0
 14
496.35355004479999
 24
-377.72606336680002
 34
0.0
 50
90.0
  0
DIMENSION
  5
58
  8
Éíû@É³
  2
*D1
 10
471.35355004479999
 20
-141.72606336679999
 30
0.0
 11
471.35355004479999
 21
-194.22606336679999
 31
0.0
 70
   128
  1
<>
 13
502.35355004479999
 23
-141.72606336679999
 33
0.0
 14
502.35355004479999
 24
-246.72606336679999
 34
0.0
 50
90.0
  0
LINE
  5
59
  8
┌▓È_1
  6
BORDER
 62
     3
 10
531.35355004480004
 20
-12.725349079600001
 30
0.0
 11
851.35355004479982
 21
-12.725349079600001
 31
0.0
  0
LINE
  5
5A
  8
┌▓È_1
 62
     5
 10
517.35355004480004
 20
-327.67581083509998
 30
0.0
 11
865.35355004479993
 21
-327.67581083509998
 31
0.0
  0
LINE
  5
5B
  8
┌▓È_1
 62
     5
 10
522.35355004480004
 20
-322.17581083509998
 30
0.0
 11
860.35355004480004
 21
-322.17581083509998
 31
0.0
  0
LINE
  5
5C
  8
┌▓È_1
  6
STITCH
 10
517.35355004480004
 20
-325.12520116970001
 30
0.0
 11
865.35355004479993
 21
-325.12520116970001
 31
0.0
  0
LINE
  5
5D
  8
┌▓È_1
  6
STITCH
 10
870.35355004479993
 20
-5.7260633667999992
 30
0.0
 11
512.35355004480004
 21
-5.7260633667999992
 31
0.0
  0
LINE
  5
5E
  8
┌▓È_1
 62
     5
 10
870.35355004479993
 20
-1.7260633668000001
 30
0.0
 11
512.35355004480004
 21
-1.7260633668000001
 31
0.0
  0
LINE
  5
5F
  8
┌▓È_1
 62
     5
 10
860.35355004480004
 20
-23.726063366799998
 30
0.0
 11
522.35355004480004
 21
-23.726063366799998
 31
0.0
  0
LINE
  5
60
  8
┌▓È_1
 62
     5
 10
1334.0859375
 20
131.64635416670001
 30
0.0
 11
334.0859375
 21
131.64635416670001
 31
0.0
  0
LINE
  5
61
  8
┌▓È_1
 62
     5
 10
959.0859375
 20
-568.35364583329999
 30
0.0
 11
334.0859375
 21
-568.35364583329999
 31
0.0
  0
DIMENSION
  5
70
  8
Éíû@É³
  2
*D2
 10
846.35355004479993
 20
35.900247924600002
 30
0.0
 11
796.35355004479993
 21
35.900247924600002
 31
0.0
 70
   128
  1
<>
 13
846.35355004479993
 23
-7.7253490795999991
 33
0.0
 14
746.35355004479993
 24
-7.7253490795999991
 34
0.0
  0
DIMENSION
  5
7F
  8
Éíû@É³
  2
*D3
 10
886.35355004480004
 20
63.371638659600002
 30
0.0
 11
691.35355004479993
 21
63.371638659600002
 31
0.0
 70
   128
  1
<>
 13
886.35355004480004
 23
-4.7260633668000001
 33
0.0
 14
496.35355004479999
 24
-4.7260633668000001
 34
0.0
  0
LINE
  5
80
  8
┌▓È_1
 10
1065.3359375
 20
-527.10364583329988
 30
0.0
 11
1102.8359375
 21
-527.10364583329988
 31
0.0
  0
LINE
  5
81
  8
┌▓È_1
 10
1065.3359375
 20
-499.60364583329999
 30
0.0
 11
1102.8359375
 21
-499.60364583329999
 31
0.0
  0
LINE
  5
82
  8
┌▓È_1
 62
     5
 10
1084.8890688721999
 20
-549.64071341609997
 30
0.0
 11
1097.3890688721999
 21
-549.64071341609997
 31
0.0
  0
INSERT
  5
83
  8
0
  6
CONTINUOUS
  2
*U23
 10
0.0
 20
0.0
 30
0.0
  0
DIMENSION
  5
92
  8
Éíû@É³
  2
*D4
 10
1022.3690025316999
 20
-404.2522751203
 30
0.0
 11
1112.3938762657999
 21
-404.2522751203
 31
0.0
 70
   128
  1
<>
 13
1022.3690025316999
 23
-327.17581083509998
 33
0.0
 14
1202.41875
 24
-378.72534907959999
 34
0.0
 50
180.0
  0
DIMENSION
  5
A1
  8
Éíû@É³
  2
*D5
 10
641.35355004480004
 20
35.900247924600002
 30
0.0
 11
588.85355004480004
 21
35.900247924600002
 31
0.0
 70
   128
  1
<>
 13
641.35355004480004
 23
-7.7253490795999991
 33
0.0
 14
536.35355004480004
 24
-7.7253490795999991
 34
0.0
  0
LINE
  5
A2
  8
┌▓È_1
  6
BORDER
 62
     3
 10
875.35355004479982
 20
-31.726063366799998
 30
0.0
 11
875.35355004479982
 21
-351.72606336680002
 31
0.0
  0
LINE
  5
A3
  8
┌▓È_1
  6
STITCH
 10
865.95355004479995
 20
-26.726063366799998
 30
0.0
 11
865.95355004479995
 21
-376.93687495239999
 31
0.0
  0
LINE
  5
A4
  8
┌▓È_1
 62
     5
 10
886.35355004480004
 20
-4.7260633668000001
 30
0.0
 11
886.35355004480004
 21
-377.72606336680002
 31
0.0
  0
LINE
  5
A5
  8
┌▓È_1
 62
     5
 10
860.35355004480004
 20
-23.726063366799998
 30
0.0
 11
860.35355004480004
 21
-322.17581083509998
 31
0.0
  0
LINE
  5
A6
  8
┌▓È_1
  6
STITCH
 10
882.35355004479993
 20
-4.7260633668000001
 30
0.0
 11
882.35355004479993
 21
-377.72606336680002
 31
0.0
  0
LINE
  5
A7
  8
┌▓È_1
 62
     5
 10
866.35355004479993
 20
-26.726063366799998
 30
0.0
 11
866.35355004479993
 21
-377.72606336680002
 31
0.0
  0
LINE
  5
A8
  8
┌▓È_1
 62
     5
 10
866.35355004479993
 20
-24.103103114300001
 30
0.0
 11
866.35355004479993
 21
-320.22606336680002
 31
0.0
  0
LINE
  5
A9
  8
┌▓È_1
  6
STITCH
 10
864.05355004479986
 20
-24.628558910500001
 30
0.0
 11
864.05355004479986
 21
-320.22606336680002
 31
0.0
  0
LINE
  5
AA
  8
┌▓È_1
  6
STITCH
 10
1027.8187499999999
 20
-198.7253533116
 30
0.0
 11
1027.8187499999999
 21
-320.22606336680002
 31
0.0
  0
LINE
  5
AB
  8
┌▓È_1
 62
     5
 10
1029.3187499999999
 20
-198.72534907959999
 30
0.0
 11
1029.3187499999999
 21
-320.9366671587
 31
0.0
  0
LINE
  5
AC
  8
┌▓È_1
  6
STITCH
 10
1028.91875
 20
-320.22606336680002
 30
0.0
 11
1028.91875
 21
-198.72534907959999
 31
0.0
  0
LINE
  5
AD
  8
┌▓È_1
 62
     5
 10
1027.3187499999999
 20
-322.22606336680002
 30
0.0
 11
1027.3187499999999
 21
-198.72534907959999
 31
0.0
  0
LINE
  5
AE
  8
┌▓È_1
 62
     5
 10
1201.91875
 20
-5.7253490795999991
 30
0.0
 11
1201.91875
 21
-378.72534907959999
 31
0.0
  0
LINE
  5
AF
  8
┌▓È_1
  6
STITCH
 10
1202.3187499999999
 20
-5.7253490795999991
 30
0.0
 11
1202.3187499999999
 21
-378.72534907959999
 31
0.0
  0
LINE
  5
B0
  8
┌▓È_1
 62
     5
 10
1202.91875
 20
-5.7253490795999991
 30
0.0
 11
1202.91875
 21
-378.72534907959999
 31
0.0
  0
LINE
  5
B1
  8
┌▓È_1
 62
     5
 10
1334.0859375
 20
-485.85364583329988
 30
0.0
 11
1334.0859375
 21
131.64635416670001
 31
0.0
  0
DIMENSION
  5
C0
  8
Éíû@É³
  2
*D6
 10
1242.0982728718
 20
-378.72534907959999
 30
0.0
 11
1242.0982728718
 21
-190.72534907959999
 31
0.0
 70
   128
  1
<>
 13
1202.91875
 23
-378.72534907959999
 33
0.0
 14
1202.3187499999999
 24
-2.7253490795999991
 34
0.0
 50
90.0
  0
DIMENSION
  5
CF
  8
Éíû@É³
  2
*D7
 10
985.08804423009985
 20
-198.72535031340001
 30
0.0
 11
985.08804423009985
 21
-260.47570684009997
 31
0.0
 70
   128
  1
<>
 13
1027.3187499999999
 23
-198.72535031340001
 33
0.0
 14
1027.3187499999999
 24
-322.22606336680002
 34
0.0
 50
90.0
  0
DIMENSION
  5
DE
  8
Éíû@É³
  2
*D8
 10
961.20533854170003
 20
-23.726063366799998
 30
0.0
 11
961.20533854170003
 21
-172.97606336679999
 31
0.0
 70
   128
  1
<>
 13
1201.8187499999999
 23
-23.726063366799998
 33
0.0
 14
1027.3187499999999
 24
-322.22606336680002
 34
0.0
 50
90.0
  0
ARC
  5
DF
  8
┌▓È_1
  6
STITCH
 10
1202.3187499999999
 20
-198.72534907959999
 30
0.0
 40
174.5
 50
90.163702449900001
 51
180.0000013895
  0
ARC
  5
E0
  8
┌▓È_1
  6
STITCH
 10
1202.3187499999999
 20
-198.72534907959999
 30
0.0
 40
173.40000000000001
 50
90.432986922999973
 51
180.00000216359999
  0
DIMENSION
  5
EF
  8
Éíû@É³
  2
*D9
 10
961.20533186509999
 20
-2.7253490795999991
 30
0.0
 11
961.20533186509999
 21
-13.2257062232
 31
0.0
 70
   128
  1
22
 13
1202.3187499999999
 23
-2.7253490795999991
 33
0.0
 14
1201.8187499999999
 24
-23.726063366799998
 34
0.0
 50
90.0
  0
DIMENSION
  5
FE
  8
Éíû@É³
  2
*D10
 10
1202.3187499999999
 20
21.051576960999999
 30
0.0
 11
1114.8187499999999
 21
21.051576960999999
 31
0.0
 70
   128
  1
<>
 13
1202.3187499999999
 23
-4.4753490795999991
 33
0.0
 14
1027.3187499999999
 24
-198.72535031340001
 34
0.0
  0
DIMENSION
  5
106
  8
Éíû@É³
  2
*D11
 10
1202.3187499999999
 20
-198.72534907959999
 30
0.0
 11
1011.6059470814
 21
-41.921535113699989
 31
0.0
 70
   132
  1
<>
 15
1078.5750632924
 25
-74.981662372000002
 35
0.0
 40
0.0
  0
LINE
  5
107
  8
┌▓È_1
 62
     5
 10
1196.6741801697999
 20
-377.93616066519991
 30
0.0
 11
1030.5256026536999
 21
-322.34362428639997
 31
0.0
  0
LINE
  5
108
  8
┌▓È_1
  6
STITCH
 10
1196.6741801697999
 20
-374.35088681769997
 30
0.0
 11
1031.6044384853999
 21
-319.1193238587
 31
0.0
  0
POLYLINE
  8
┌▓È_1
  5
2CF
  62
5
  66
     1
 10
0.000000
 20
0.000000
 30
0.000000
  70
     8
  0
VERTEX
  8
┌▓È_1
  5
2D0
 10
1084.89
 20
-551.751
 30
0.000000
  70
    32
  0
VERTEX
  8
┌▓È_1
  5
2D1
 10
1084.93
 20
-551.793
 30
0.000000
  70
    32
  0
VERTEX
  8
┌▓È_1
  5
2D2
 10
1084.98
 20
-551.834
 30
0.000000
  70
    32
  0
VERTEX
  8
┌▓È_1
  5
2D3
 10
1085.02
 20
-551.876
 30
0.000000
  70
    32
  0
VERTEX
  8
┌▓È_1
  5
2D4
 10
1085.07
 20
-551.917
 30
0.000000
  70
    32
  0
VERTEX
  8
┌▓È_1
  5
2D5
 10
1085.11
 20
-551.959
 30
0.000000
  70
    32
  0
VERTEX
  8
┌▓È_1
  5
2D6
 10
1085.16
 20
-552.000
 30
0.000000
  70
    32
  0
VERTEX
  8
┌▓È_1
  5
2D7
 10
1085.20
 20
-552.042
 30
0.000000
  70
    32
  0
VERTEX
  8
┌▓È_1
  5
2D8
 10
1085.25
 20
-552.083
 30
0.000000
  70
    32
  0
VERTEX
  8
┌▓È_1
  5
2D9
 10
1085.29
 20
-552.125
 30
0.000000
  70
    32
  0
VERTEX
  8
┌▓È_1
  5
2DA
 10
1085.34
 20
-552.166
 30
0.000000
  70
    32
  0
VERTEX
  8
┌▓È_1
  5
2DB
 10
1085.38
 20
-552.208
 30
0.000000
  70
    32
  0
VERTEX
  8
┌▓È_1
  5
2DC
 10
1085.43
 20
-552.249
 30
0.000000
  70
    32
  0
VERTEX
  8
┌▓È_1
  5
2DD
 10
1085.47
 20
-552.291
 30
0.000000
  70
    32
  0
VERTEX
  8
┌▓È_1
  5
2DE
 10
1085.52
 20
-552.332
 30
0.000000
  70
    32
  0
VERTEX
  8
┌▓È_1
  5
2DF
 10
1085.56
 20
-552.373
 30
0.000000
  70
    32
  0
VERTEX
  8
┌▓È_1
  5
2E0
 10
1085.61
 20
-552.415
 30
0.000000
  70
    32
  0
VERTEX
  8
┌▓È_1
  5
2E1
 10
1085.65
 20
-552.456
 30
0.000000
  70
    32
  0
VERTEX
  8
┌▓È_1
  5
2E2
 10
1085.70
 20
-552.498
 30
0.000000
  70
    32
  0
VERTEX
  8
┌▓È_1
  5
2E3
 10
1085.75
 20
-552.539
 30
0.000000
  70
    32
  0
VERTEX
  8
┌▓È_1
  5
2E4
 10
1085.79
 20
-552.580
 30
0.000000
  70
    32
  0
VERTEX
  8
┌▓È_1
  5
2E5
 10
1085.84
 20
-552.622
 30
0.000000
  70
    32
  0
VERTEX
  8
┌▓È_1
  5
2E6
 10
1085.88
 20
-552.663
 30
0.000000
  70
    32
  0
VERTEX
  8
┌▓È_1
  5
2E7
 10
1085.93
 20
-552.704
 30
0.000000
  70
    32
  0
VERTEX
  8
┌▓È_1
  5
2E8
 10
1085.97
 20
-552.745
 30
0.000000
  70
    32
  0
VERTEX
  8
┌▓È_1
  5
2E9
 10
1086.02
 20
-552.787
 30
0.000000
  70
    32
  0
VERTEX
  8
┌▓È_1
  5
2EA
 10
1086.06
 20
-552.828
 30
0.000000
  70
    32
  0
VERTEX
  8
┌▓È_1
  5
2EB
 10
1086.11
 20
-552.869
 30
0.000000
  70
    32
  0
VERTEX
  8
┌▓È_1
  5
2EC
 10
1086.15
 20
-552.910
 30
0.000000
  70
    32
  0
VERTEX
  8
┌▓È_1
  5
2ED
 10
1086.20
 20
-552.951
 30
0.000000
  70
    32
  0
VERTEX
  8
┌▓È_1
  5
2EE
 10
1086.24
 20
-552.993
 30
0.000000
  70
    32
  0
VERTEX
  8
┌▓È_1
  5
2EF
 10
1086.29
 20
-553.034
 30
0.000000
  70
    32
  0
VERTEX
  8
┌▓È_1
  5
2F0
 10
1086.33
 20
-553.075
 30
0.000000
  70
    32
  0
VERTEX
  8
┌▓È_1
  5
2F1
 10
1086.38
 20
-553.116
 30
0.000000
  70
    32
  0
VERTEX
  8
┌▓È_1
  5
2F2
 10
1086.42
 20
-553.157
 30
0.000000
  70
    32
  0
VERTEX
  8
┌▓È_1
  5
2F3
 10
1086.47
 20
-553.198
 30
0.000000
  70
    32
  0
VERTEX
  8
┌▓È_1
  5
2F4
 10
1086.51
 20
-553.239
 30
0.000000
  70
    32
  0
VERTEX
  8
┌▓È_1
  5
2F5
 10
1086.56
 20
-553.280
 30
0.000000
  70
    32
  0
VERTEX
  8
┌▓È_1
  5
2F6
 10
1086.60
 20
-553.321
 30
0.000000
  70
    32
  0
VERTEX
  8
┌▓È_1
  5
2F7
 10
1086.65
 20
-553.361
 30
0.000000
  70
    32
  0
VERTEX
  8
┌▓È_1
  5
2F8
 10
1086.70
 20
-553.402
 30
0.000000
  70
    32
  0
VERTEX
  8
┌▓È_1
  5
2F9
 10
1086.74
 20
-553.443
 30
0.000000
  70
    32
  0
VERTEX
  8
┌▓È_1
  5
2FA
 10
1086.79
 20
-553.484
 30
0.000000
  70
    32
  0
VERTEX
  8
┌▓È_1
  5
2FB
 10
1086.83
 20
-553.525
 30
0.000000
  70
    32
  0
VERTEX
  8
┌▓È_1
  5
2FC
 10
1086.88
 20
-553.565
 30
0.000000
  70
    32
  0
VERTEX
  8
┌▓È_1
  5
2FD
 10
1086.92
 20
-553.606
 30
0.000000
  70
    32
  0
VERTEX
  8
┌▓È_1
  5
2FE
 10
1086.97
 20
-553.647
 30
0.000000
  70
    32
  0
VERTEX
  8
┌▓È_1
  5
2FF
 10
1087.01
 20
-553.687
 30
0.000000
  70
    32
  0
VERTEX
  8
┌▓È_1
  5
300
 10
1087.06
 20
-553.728
 30
0.000000
  70
    32
  0
VERTEX
  8
┌▓È_1
  5
301
 10
1087.10
 20
-553.768
 30
0.000000
  70
    32
  0
VERTEX
  8
┌▓È_1
  5
302
 10
1087.15
 20
-553.809
 30
0.000000
  70
    32
  0
VERTEX
  8
┌▓È_1
  5
303
 10
1087.20
 20
-553.849
 30
0.000000
  70
    32
  0
VERTEX
  8
┌▓È_1
  5
304
 10
1087.24
 20
-553.889
 30
0.000000
  70
    32
  0
VERTEX
  8
┌▓È_1
  5
305
 10
1087.29
 20
-553.930
 30
0.000000
  70
    32
  0
VERTEX
  8
┌▓È_1
  5
306
 10
1087.33
 20
-553.970
 30
0.000000
  70
    32
  0
VERTEX
  8
┌▓È_1
  5
307
 10
1087.38
 20
-554.010
 30
0.000000
  70
    32
  0
VERTEX
  8
┌▓È_1
  5
308
 10
1087.42
 20
-554.050
 30
0.000000
  70
    32
  0
VERTEX
  8
┌▓È_1
  5
309
 10
1087.47
 20
-554.090
 30
0.000000
  70
    32
  0
VERTEX
  8
┌▓È_1
  5
30A
 10
1087.52
 20
-554.131
 30
0.000000
  70
    32
  0
VERTEX
  8
┌▓È_1
  5
30B
 10
1087.56
 20
-554.171
 30
0.000000
  70
    32
  0
VERTEX
  8
┌▓È_1
  5
30C
 10
1087.61
 20
-554.211
 30
0.000000
  70
    32
  0
VERTEX
  8
┌▓È_1
  5
30D
 10
1087.65
 20
-554.250
 30
0.000000
  70
    32
  0
VERTEX
  8
┌▓È_1
  5
30E
 10
1087.70
 20
-554.290
 30
0.000000
  70
    32
  0
VERTEX
  8
┌▓È_1
  5
30F
 10
1087.75
 20
-554.330
 30
0.000000
  70
    32
  0
VERTEX
  8
┌▓È_1
  5
310
 10
1087.79
 20
-554.370
 30
0.000000
  70
    32
  0
VERTEX
  8
┌▓È_1
  5
311
 10
1087.84
 20
-554.410
 30
0.000000
  70
    32
  0
VERTEX
  8
┌▓È_1
  5
312
 10
1087.88
 20
-554.449
 30
0.000000
  70
    32
  0
VERTEX
  8
┌▓È_1
  5
313
 10
1087.93
 20
-554.489
 30
0.000000
  70
    32
  0
VERTEX
  8
┌▓È_1
  5
314
 10
1087.98
 20
-554.528
 30
0.000000
  70
    32
  0
VERTEX
  8
┌▓È_1
  5
315
 10
1088.02
 20
-554.568
 30
0.000000
  70
    32
  0
VERTEX
  8
┌▓È_1
  5
316
 10
1088.07
 20
-554.607
 30
0.000000
  70
    32
  0
VERTEX
  8
┌▓È_1
  5
317
 10
1088.11
 20
-554.647
 30
0.000000
  70
    32
  0
VERTEX
  8
┌▓È_1
  5
318
 10
1088.16
 20
-554.686
 30
0.000000
  70
    32
  0
VERTEX
  8
┌▓È_1
  5
319
 10
1088.21
 20
-554.725
 30
0.000000
  70
    32
  0
VERTEX
  8
┌▓È_1
  5
31A
 10
1088.25
 20
-554.764
 30
0.000000
  70
    32
  0
VERTEX
  8
┌▓È_1
  5
31B
 10
1088.30
 20
-554.804
 30
0.000000
  70
    32
  0
VERTEX
  8
┌▓È_1
  5
31C
 10
1088.35
 20
-554.843
 30
0.000000
  70
    32
  0
VERTEX
  8
┌▓È_1
  5
31D
 10
1088.39
 20
-554.882
 30
0.000000
  70
    32
  0
VERTEX
  8
┌▓È_1
  5
31E
 10
1088.44
 20
-554.920
 30
0.000000
  70
    32
  0
VERTEX
  8
┌▓È_1
  5
31F
 10
1088.48
 20
-554.959
 30
0.000000
  70
    32
  0
VERTEX
  8
┌▓È_1
  5
320
 10
1088.53
 20
-554.998
 30
0.000000
  70
    32
  0
VERTEX
  8
┌▓È_1
  5
321
 10
1088.58
 20
-555.037
 30
0.000000
  70
    32
  0
VERTEX
  8
┌▓È_1
  5
322
 10
1088.62
 20
-555.075
 30
0.000000
  70
    32
  0
VERTEX
  8
┌▓È_1
  5
323
 10
1088.67
 20
-555.114
 30
0.000000
  70
    32
  0
VERTEX
  8
┌▓È_1
  5
324
 10
1088.72
 20
-555.152
 30
0.000000
  70
    32
  0
VERTEX
  8
┌▓È_1
  5
325
 10
1088.76
 20
-555.191
 30
0.000000
  70
    32
  0
VERTEX
  8
┌▓È_1
  5
326
 10
1088.81
 20
-555.229
 30
0.000000
  70
    32
  0
VERTEX
  8
┌▓È_1
  5
327
 10
1088.86
 20
-555.268
 30
0.000000
  70
    32
  0
VERTEX
  8
┌▓È_1
  5
328
 10
1088.90
 20
-555.306
 30
0.000000
  70
    32
  0
VERTEX
  8
┌▓È_1
  5
329
 10
1088.95
 20
-555.344
 30
0.000000
  70
    32
  0
VERTEX
  8
┌▓È_1
  5
32A
 10
1089.00
 20
-555.382
 30
0.000000
  70
    32
  0
VERTEX
  8
┌▓È_1
  5
32B
 10
1089.05
 20
-555.420
 30
0.000000
  70
    32
  0
VERTEX
  8
┌▓È_1
  5
32C
 10
1089.09
 20
-555.458
 30
0.000000
  70
    32
  0
VERTEX
  8
┌▓È_1
  5
32D
 10
1089.14
 20
-555.496
 30
0.000000
  70
    32
  0
VERTEX
  8
┌▓È_1
  5
32E
 10
1089.19
 20
-555.533
 30
0.000000
  70
    32
  0
VERTEX
  8
┌▓È_1
  5
32F
 10
1089.23
 20
-555.571
 30
0.000000
  70
    32
  0
VERTEX
  8
┌▓È_1
  5
330
 10
1089.28
 20
-555.609
 30
0.000000
  70
    32
  0
VERTEX
  8
┌▓È_1
  5
331
 10
1089.33
 20
-555.646
 30
0.000000
  70
    32
  0
VERTEX
  8
┌▓È_1
  5
332
 10
1089.38
 20
-555.683
 30
0.000000
  70
    32
  0
VERTEX
  8
┌▓È_1
  5
333
 10
1089.42
 20
-555.721
 30
0.000000
  70
    32
  0
VERTEX
  8
┌▓È_1
  5
334
 10
1089.47
 20
-555.758
 30
0.000000
  70
    32
  0
VERTEX
  8
┌▓È_1
  5
335
 10
1089.52
 20
-555.795
 30
0.000000
  70
    32
  0
VERTEX
  8
┌▓È_1
  5
336
 10
1089.56
 20
-555.832
 30
0.000000
  70
    32
  0
VERTEX
  8
┌▓È_1
  5
337
 10
1089.61
 20
-555.869
 30
0.000000
  70
    32
  0
VERTEX
  8
┌▓È_1
  5
338
 10
1089.66
 20
-555.906
 30
0.000000
  70
    32
  0
VERTEX
  8
┌▓È_1
  5
339
 10
1089.71
 20
-555.943
 30
0.000000
  70
    32
  0
VERTEX
  8
┌▓È_1
  5
33A
 10
1089.75
 20
-555.979
 30
0.000000
  70
    32
  0
VERTEX
  8
┌▓È_1
  5
33B
 10
1089.80
 20
-556.016
 30
0.000000
  70
    32
  0
VERTEX
  8
┌▓È_1
  5
33C
 10
1089.85
 20
-556.053
 30
0.000000
  70
    32
  0
VERTEX
  8
┌▓È_1
  5
33D
 10
1089.90
 20
-556.089
 30
0.000000
  70
    32
  0
VERTEX
  8
┌▓È_1
  5
33E
 10
1089.95
 20
-556.125
 30
0.000000
  70
    32
  0
VERTEX
  8
┌▓È_1
  5
33F
 10
1089.99
 20
-556.162
 30
0.000000
  70
    32
  0
VERTEX
  8
┌▓È_1
  5
340
 10
1090.04
 20
-556.198
 30
0.000000
  70
    32
  0
VERTEX
  8
┌▓È_1
  5
341
 10
1090.09
 20
-556.234
 30
0.000000
  70
    32
  0
VERTEX
  8
┌▓È_1
  5
342
 10
1090.14
 20
-556.270
 30
0.000000
  70
    32
  0
VERTEX
  8
┌▓È_1
  5
343
 10
1090.19
 20
-556.306
 30
0.000000
  70
    32
  0
VERTEX
  8
┌▓È_1
  5
344
 10
1090.23
 20
-556.341
 30
0.000000
  70
    32
  0
VERTEX
  8
┌▓È_1
  5
345
 10
1090.28
 20
-556.377
 30
0.000000
  70
    32
  0
VERTEX
  8
┌▓È_1
  5
346
 10
1090.33
 20
-556.412
 30
0.000000
  70
    32
  0
VERTEX
  8
┌▓È_1
  5
347
 10
1090.38
 20
-556.448
 30
0.000000
  70
    32
  0
VERTEX
  8
┌▓È_1
  5
348
 10
1090.43
 20
-556.483
 30
0.000000
  70
    32
  0
VERTEX
  8
┌▓È_1
  5
349
 10
1090.48
 20
-556.518
 30
0.000000
  70
    32
  0
VERTEX
  8
┌▓È_1
  5
34A
 10
1090.52
 20
-556.554
 30
0.000000
  70
    32
  0
VERTEX
  8
┌▓È_1
  5
34B
 10
1090.57
 20
-556.589
 30
0.000000
  70
    32
  0
VERTEX
  8
┌▓È_1
  5
34C
 10
1090.62
 20
-556.624
 30
0.000000
  70
    32
  0
VERTEX
  8
┌▓È_1
  5
34D
 10
1090.67
 20
-556.658
 30
0.000000
  70
    32
  0
VERTEX
  8
┌▓È_1
  5
34E
 10
1090.72
 20
-556.693
 30
0.000000
  70
    32
  0
VERTEX
  8
┌▓È_1
  5
34F
 10
1090.77
 20
-556.728
 30
0.000000
  70
    32
  0
VERTEX
  8
┌▓È_1
  5
350
 10
1090.82
 20
-556.762
 30
0.000000
  70
    32
  0
VERTEX
  8
┌▓È_1
  5
351
 10
1090.86
 20
-556.797
 30
0.000000
  70
    32
  0
VERTEX
  8
┌▓È_1
  5
352
 10
1090.91
 20
-556.831
 30
0.000000
  70
    32
  0
VERTEX
  8
┌▓È_1
  5
353
 10
1090.96
 20
-556.865
 30
0.000000
  70
    32
  0
VERTEX
  8
┌▓È_1
  5
354
 10
1091.01
 20
-556.899
 30
0.000000
  70
    32
  0
VERTEX
  8
┌▓È_1
  5
355
 10
1091.06
 20
-556.933
 30
0.000000
  70
    32
  0
VERTEX
  8
┌▓È_1
  5
356
 10
1091.11
 20
-556.967
 30
0.000000
  70
    32
  0
VERTEX
  8
┌▓È_1
  5
357
 10
1091.16
 20
-557.000
 30
0.000000
  70
    32
  0
VERTEX
  8
┌▓È_1
  5
358
 10
1091.21
 20
-557.034
 30
0.000000
  70
    32
  0
VERTEX
  8
┌▓È_1
  5
359
 10
1091.26
 20
-557.067
 30
0.000000
  70
    32
  0
VERTEX
  8
┌▓È_1
  5
35A
 10
1091.31
 20
-557.101
 30
0.000000
  70
    32
  0
VERTEX
  8
┌▓È_1
  5
35B
 10
1091.36
 20
-557.134
 30
0.000000
  70
    32
  0
VERTEX
  8
┌▓È_1
  5
35C
 10
1091.41
 20
-557.167
 30
0.000000
  70
    32
  0
VERTEX
  8
┌▓È_1
  5
35D
 10
1091.46
 20
-557.200
 30
0.000000
  70
    32
  0
VERTEX
  8
┌▓È_1
  5
35E
 10
1091.51
 20
-557.233
 30
0.000000
  70
    32
  0
VERTEX
  8
┌▓È_1
  5
35F
 10
1091.56
 20
-557.266
 30
0.000000
  70
    32
  0
VERTEX
  8
┌▓È_1
  5
360
 10
1091.61
 20
-557.298
 30
0.000000
  70
    32
  0
VERTEX
  8
┌▓È_1
  5
361
 10
1091.66
 20
-557.331
 30
0.000000
  70
    32
  0
VERTEX
  8
┌▓È_1
  5
362
 10
1091.71
 20
-557.363
 30
0.000000
  70
    32
  0
VERTEX
  8
┌▓È_1
  5
363
 10
1091.76
 20
-557.395
 30
0.000000
  70
    32
  0
VERTEX
  8
┌▓È_1
  5
364
 10
1091.81
 20
-557.427
 30
0.000000
  70
    32
  0
VERTEX
  8
┌▓È_1
  5
365
 10
1091.86
 20
-557.459
 30
0.000000
  70
    32
  0
VERTEX
  8
┌▓È_1
  5
366
 10
1091.91
 20
-557.491
 30
0.000000
  70
    32
  0
VERTEX
  8
┌▓È_1
  5
367
 10
1091.96
 20
-557.523
 30
0.000000
  70
    32
  0
VERTEX
  8
┌▓È_1
  5
368
 10
1092.01
 20
-557.555
 30
0.000000
  70
    32
  0
VERTEX
  8
┌▓È_1
  5
369
 10
1092.06
 20
-557.586
 30
0.000000
  70
    32
  0
VERTEX
  8
┌▓È_1
  5
36A
 10
1092.11
 20
-557.617
 30
0.000000
  70
    32
  0
VERTEX
  8
┌▓È_1
  5
36B
 10
1092.16
 20
-557.649
 30
0.000000
  70
    32
  0
VERTEX
  8
┌▓È_1
  5
36C
 10
1092.21
 20
-557.680
 30
0.000000
  70
    32
  0
VERTEX
  8
┌▓È_1
  5
36D
 10
1092.26
 20
-557.711
 30
0.000000
  70
    32
  0
VERTEX
  8
┌▓È_1
  5
36E
 10
1092.31
 20
-557.741
 30
0.000000
  70
    32
  0
VERTEX
  8
┌▓È_1
  5
36F
 10
1092.36
 20
-557.772
 30
0.000000
  70
    32
  0
SEQEND
  8
┌▓È_1
  5
370
  0
LINE
  5
10A
  8
┌▓È_1
 62
     5
 10
1084.8890688721999
 20
-562.64071341609997
 30
0.0
 11
1084.8890688721999
 21
-558.89071341609986
 31
0.0
  0
LINE
  5
10B
  8
┌▓È_1
 62
     5
 10
1084.8890688721999
 20
-545.14071341609997
 30
0.0
 11
1084.8890688721999
 21
-549.64071341609997
 31
0.0
  0
LINE
  5
10C
  8
┌▓È_1
 62
     5
 10
1084.8890688721999
 20
-551.75126475349987
 30
0.0
 11
1084.8890688721999
 21
-550.94598908480009
 31
0.0
  0
INSERT
  5
10D
  8
0
  6
CONTINUOUS
  2
*U24
 10
0.0
 20
0.0
 30
0.0
  0
INSERT
  5
10E
  8
0
  6
CONTINUOUS
  2
*U25
 10
0.0
 20
0.0
 30
0.0
  0
INSERT
  5
10F
  8
0
  6
CONTINUOUS
  2
*U26
 10
0.0
 20
0.0
 30
0.0
  0
LINE
  5
110
  8
┌▓È_1
 10
959.0859375
 20
-513.35364583329999
 30
0.0
 11
1109.0859375
 21
-513.35364583329999
 31
0.0
  0
LINE
  5
111
  8
┌▓È_1
 62
     5
 10
1107.3890688721999
 20
-545.14071341609997
 30
0.0
 11
1084.8890688721999
 21
-545.14071341609997
 31
0.0
  0
LINE
  5
112
  8
┌▓È_1
 10
959.0859375
 20
-540.85364583329988
 30
0.0
 11
1334.0859375
 21
-540.85364583329988
 31
0.0
  0
LINE
  5
113
  8
┌▓È_1
 10
1334.0859375
 20
-485.85364583329988
 30
0.0
 11
959.0859375
 21
-485.85364583329988
 31
0.0
  0
ARC
  5
114
  8
┌▓È_1
 62
     5
 10
1091.1390688721999
 20
-548.89071341609986
 30
0.0
 40
13.75
 50
270.0
 51
302.54495885400001
  0
LINE
  5
115
  8
┌▓È_1
 62
     5
 10
1084.8890688721999
 20
-558.89071341609986
 30
0.0
 11
1087.8890688721999
 21
-558.89071341609986
 31
0.0
  0
LINE
  5
116
  8
┌▓È_1
 62
     5
 10
1084.8890688721999
 20
-558.89071341609986
 30
0.0
 11
1084.8890688721999
 21
-562.64071341609997
 31
0.0
  0
ARC
  5
117
  8
┌▓È_1
 62
     5
 10
1087.8890688721999
 20
-549.39071341609986
 30
0.0
 40
9.5
 50
270.0
 51
298.08590481520002
  0
LINE
  5
118
  8
┌▓È_1
 62
     5
 10
1084.8890688721999
 20
-550.94598908480009
 30
0.0
 11
1094.8890688721999
 21
-550.94598908480009
 31
0.0
  0
LINE
  5
119
  8
┌▓È_1
 62
     5
 10
959.0859375
 20
-568.35364583329999
 30
0.0
 11
1334.0859375
 21
-568.35364583329999
 31
0.0
  0
LINE
  5
11A
  8
┌▓È_1
 62
     5
 10
1084.8890688721999
 20
-562.64071341609997
 30
0.0
 11
1091.1390688721999
 21
-562.64071341609997
 31
0.0
  0
LINE
  5
11B
  8
┌▓È_1
 62
     5
 10
516.64690961489998
 20
-22.726063366799998
 30
0.0
 11
516.35355004480004
 21
-23.067091510099999
 31
0.0
  0
CIRCLE
  5
11C
  8
┌▓È_1
 62
     5
 10
507.35355004479999
 20
-36.726063366799998
 30
0.0
 40
2.0
  0
LINE
  5
11D
  8
┌▓È_1
 62
     5
 10
516.35355004480004
 20
-23.067091510099999
 30
0.0
 11
516.35355004480004
 21
-26.726063366799998
 31
0.0
  0
DIMENSION
  5
12C
  8
Éíû@É³
  2
*D12
 10
536.35355004480004
 20
35.900247924600002
 30
0.0
 11
516.35355004480004
 21
35.900247924600002
 31
0.0
 70
   128
  1
<>
 13
536.35355004480004
 23
-7.7253490795999991
 33
0.0
 14
496.35355004479999
 24
-4.7260633668000001
 34
0.0
  0
DIMENSION
  5
13B
  8
Éíû@É³
  2
*D13
 10
471.35355004479999
 20
-36.726063366799998
 30
0.0
 11
471.35355004479999
 21
-89.226063366800005
 31
0.0
 70
   128
  1
<>
 13
502.35355004479999
 23
-36.726063366799998
 33
0.0
 14
502.35355004479999
 24
-141.72606336679999
 34
0.0
 50
90.0
  0
DIMENSION
  5
14A
  8
Éíû@É³
  2
*D14
 10
471.35355004479999
 20
-4.7260633668000001
 30
0.0
 11
471.35355004479999
 21
-20.726063366799998
 31
0.0
 70
   128
  1
<>
 13
496.35355004479999
 23
-4.7260633668000001
 33
0.0
 14
502.35355004479999
 24
-36.726063366799998
 34
0.0
 50
90.0
  0
DIMENSION
  5
159
  8
Éíû@É³
  2
*D15
 10
471.35355004479999
 20
-1.7260633668000001
 30
0.0
 11
471.35355004479999
 21
13.536600378799999
 31
0.0
 70
   128
  1
<>
 13
512.35355004480004
 23
-1.7260633668000001
 33
0.0
 14
496.35355004479999
 24
-4.7260633668000001
 34
0.0
 50
90.0
  0
LINE
  5
15A
  8
┌▓È_1
  6
BORDER
 62
     3
 10
502.35355004479999
 20
-246.72606336679999
 30
0.0
 11
512.35355004480004
 21
-246.72606336679999
 31
0.0
  0
LINE
  5
15B
  8
┌▓È_1
  6
BORDER
 62
     3
 10
502.35355004479999
 20
-346.72606336680002
 30
0.0
 11
512.35355004480004
 21
-346.72606336680002
 31
0.0
  0
LINE
  5
15C
  8
┌▓È_1
 62
     5
 10
517.35355004480004
 20
-327.67581083509998
 30
0.0
 11
517.35355004480004
 21
-320.22606336680002
 31
0.0
  0
LINE
  5
15D
  8
┌▓È_1
 62
     5
 10
516.35355004480004
 20
-320.22606336680002
 30
0.0
 11
517.35355004480004
 21
-320.22606336680002
 31
0.0
  0
CIRCLE
  5
15E
  8
┌▓È_1
 62
     5
 10
507.35355004479999
 20
-246.72606336679999
 30
0.0
 40
2.0
  0
LINE
  5
15F
  8
┌▓È_1
 62
     5
 10
516.75355004480002
 20
-318.12003814579998
 30
0.0
 11
517.15355004479989
 21
-318.12003814579998
 31
0.0
  0
LINE
  5
160
  8
┌▓È_1
 62
     5
 10
496.35355004479999
 20
-377.72606336680002
 30
0.0
 11
516.75355004480002
 21
-377.72606336680002
 31
0.0
  0
LINE
  5
161
  8
┌▓È_1
 62
     5
 10
516.75355004480002
 20
-376.93687495239999
 30
0.0
 11
516.75355004480002
 21
-377.72606336680002
 31
0.0
  0
CIRCLE
  5
162
  8
┌▓È_1
 62
     5
 10
507.35355004479999
 20
-346.72606336680002
 30
0.0
 40
2.0
  0
LINE
  5
163
  8
┌▓È_1
 62
     5
 10
517.15355004479989
 20
-318.12003814579998
 30
0.0
 11
517.15355004479989
 21
-376.93687495239999
 31
0.0
  0
LINE
  5
164
  8
┌▓È_1
 62
     5
 10
517.15355004479989
 20
-376.93687495239999
 30
0.0
 11
516.75355004480002
 21
-376.93687495239999
 31
0.0
  0
POLYLINE
  5
165
  8
┌▓È_1
 62
     5
 10
522.35355004480004
 20
-322.17581083510004
 30
0.0
 66
     1
 70
     8
  0
VERTEX
  8
┌▓È_1
  5
371
 10
522.354
 20
-322.176
 30
0.000000
  70
    32
  0
VERTEX
  8
┌▓È_1
  5
372
 10
522.353
 20
-322.200
 30
0.000000
  70
    32
  0
VERTEX
  8
┌▓È_1
  5
373
 10
522.352
 20
-322.224
 30
0.000000
  70
    32
  0
VERTEX
  8
┌▓È_1
  5
374
 10
522.350
 20
-322.248
 30
0.000000
  70
    32
  0
VERTEX
  8
┌▓È_1
  5
375
 10
522.348
 20
-322.271
 30
0.000000
  70
    32
  0
VERTEX
  8
┌▓È_1
  5
376
 10
522.344
 20
-322.295
 30
0.000000
  70
    32
  0
VERTEX
  8
┌▓È_1
  5
377
 10
522.340
 20
-322.319
 30
0.000000
  70
    32
  0
VERTEX
  8
┌▓È_1
  5
378
 10
522.335
 20
-322.343
 30
0.000000
  70
    32
  0
VERTEX
  8
┌▓È_1
  5
379
 10
522.329
 20
-322.367
 30
0.000000
  70
    32
  0
VERTEX
  8
┌▓È_1
  5
37A
 10
522.323
 20
-322.391
 30
0.000000
  70
    32
  0
VERTEX
  8
┌▓È_1
  5
37B
 10
522.316
 20
-322.414
 30
0.000000
  70
    32
  0
VERTEX
  8
┌▓È_1
  5
37C
 10
522.308
 20
-322.438
 30
0.000000
  70
    32
  0
VERTEX
  8
┌▓È_1
  5
37D
 10
522.299
 20
-322.462
 30
0.000000
  70
    32
  0
VERTEX
  8
┌▓È_1
  5
37E
 10
522.290
 20
-322.486
 30
0.000000
  70
    32
  0
VERTEX
  8
┌▓È_1
  5
37F
 10
522.280
 20
-322.509
 30
0.000000
  70
    32
  0
VERTEX
  8
┌▓È_1
  5
380
 10
522.269
 20
-322.533
 30
0.000000
  70
    32
  0
VERTEX
  8
┌▓È_1
  5
381
 10
522.257
 20
-322.556
 30
0.000000
  70
    32
  0
VERTEX
  8
┌▓È_1
  5
382
 10
522.245
 20
-322.580
 30
0.000000
  70
    32
  0
VERTEX
  8
┌▓È_1
  5
383
 10
522.232
 20
-322.603
 30
0.000000
  70
    32
  0
VERTEX
  8
┌▓È_1
  5
384
 10
522.218
 20
-322.626
 30
0.000000
  70
    32
  0
VERTEX
  8
┌▓È_1
  5
385
 10
522.204
 20
-322.650
 30
0.000000
  70
    32
  0
VERTEX
  8
┌▓È_1
  5
386
 10
522.188
 20
-322.673
 30
0.000000
  70
    32
  0
VERTEX
  8
┌▓È_1
  5
387
 10
522.172
 20
-322.696
 30
0.000000
  70
    32
  0
VERTEX
  8
┌▓È_1
  5
388
 10
522.156
 20
-322.719
 30
0.000000
  70
    32
  0
VERTEX
  8
┌▓È_1
  5
389
 10
522.138
 20
-322.742
 30
0.000000
  70
    32
  0
VERTEX
  8
┌▓È_1
  5
38A
 10
522.120
 20
-322.765
 30
0.000000
  70
    32
  0
VERTEX
  8
┌▓È_1
  5
38B
 10
522.101
 20
-322.787
 30
0.000000
  70
    32
  0
VERTEX
  8
┌▓È_1
  5
38C
 10
522.082
 20
-322.810
 30
0.000000
  70
    32
  0
VERTEX
  8
┌▓È_1
  5
38D
 10
522.061
 20
-322.833
 30
0.000000
  70
    32
  0
VERTEX
  8
┌▓È_1
  5
38E
 10
522.040
 20
-322.855
 30
0.000000
  70
    32
  0
VERTEX
  8
┌▓È_1
  5
38F
 10
522.019
 20
-322.878
 30
0.000000
  70
    32
  0
VERTEX
  8
┌▓È_1
  5
390
 10
521.996
 20
-322.900
 30
0.000000
  70
    32
  0
VERTEX
  8
┌▓È_1
  5
391
 10
521.973
 20
-322.922
 30
0.000000
  70
    32
  0
VERTEX
  8
┌▓È_1
  5
392
 10
521.949
 20
-322.944
 30
0.000000
  70
    32
  0
VERTEX
  8
┌▓È_1
  5
393
 10
521.925
 20
-322.966
 30
0.000000
  70
    32
  0
VERTEX
  8
┌▓È_1
  5
394
 10
521.899
 20
-322.988
 30
0.000000
  70
    32
  0
VERTEX
  8
┌▓È_1
  5
395
 10
521.873
 20
-323.009
 30
0.000000
  70
    32
  0
VERTEX
  8
┌▓È_1
  5
396
 10
521.847
 20
-323.031
 30
0.000000
  70
    32
  0
VERTEX
  8
┌▓È_1
  5
397
 10
521.820
 20
-323.052
 30
0.000000
  70
    32
  0
VERTEX
  8
┌▓È_1
  5
398
 10
521.792
 20
-323.074
 30
0.000000
  70
    32
  0
VERTEX
  8
┌▓È_1
  5
399
 10
521.763
 20
-323.095
 30
0.000000
  70
    32
  0
VERTEX
  8
┌▓È_1
  5
39A
 10
521.734
 20
-323.116
 30
0.000000
  70
    32
  0
VERTEX
  8
┌▓È_1
  5
39B
 10
521.704
 20
-323.137
 30
0.000000
  70
    32
  0
VERTEX
  8
┌▓È_1
  5
39C
 10
521.673
 20
-323.158
 30
0.000000
  70
    32
  0
VERTEX
  8
┌▓È_1
  5
39D
 10
521.642
 20
-323.178
 30
0.000000
  70
    32
  0
VERTEX
  8
┌▓È_1
  5
39E
 10
521.610
 20
-323.199
 30
0.000000
  70
    32
  0
VERTEX
  8
┌▓È_1
  5
39F
 10
521.578
 20
-323.219
 30
0.000000
  70
    32
  0
VERTEX
  8
┌▓È_1
  5
3A0
 10
521.545
 20
-323.239
 30
0.000000
  70
    32
  0
VERTEX
  8
┌▓È_1
  5
3A1
 10
521.511
 20
-323.259
 30
0.000000
  70
    32
  0
VERTEX
  8
┌▓È_1
  5
3A2
 10
521.476
 20
-323.279
 30
0.000000
  70
    32
  0
VERTEX
  8
┌▓È_1
  5
3A3
 10
521.441
 20
-323.298
 30
0.000000
  70
    32
  0
VERTEX
  8
┌▓È_1
  5
3A4
 10
521.406
 20
-323.318
 30
0.000000
  70
    32
  0
VERTEX
  8
┌▓È_1
  5
3A5
 10
521.370
 20
-323.337
 30
0.000000
  70
    32
  0
VERTEX
  8
┌▓È_1
  5
3A6
 10
521.333
 20
-323.356
 30
0.000000
  70
    32
  0
VERTEX
  8
┌▓È_1
  5
3A7
 10
521.295
 20
-323.375
 30
0.000000
  70
    32
  0
VERTEX
  8
┌▓È_1
  5
3A8
 10
521.257
 20
-323.394
 30
0.000000
  70
    32
  0
VERTEX
  8
┌▓È_1
  5
3A9
 10
521.219
 20
-323.413
 30
0.000000
  70
    32
  0
VERTEX
  8
┌▓È_1
  5
3AA
 10
521.179
 20
-323.431
 30
0.000000
  70
    32
  0
VERTEX
  8
┌▓È_1
  5
3AB
 10
521.140
 20
-323.449
 30
0.000000
  70
    32
  0
VERTEX
  8
┌▓È_1
  5
3AC
 10
521.099
 20
-323.467
 30
0.000000
  70
    32
  0
VERTEX
  8
┌▓È_1
  5
3AD
 10
521.058
 20
-323.485
 30
0.000000
  70
    32
  0
VERTEX
  8
┌▓È_1
  5
3AE
 10
521.017
 20
-323.503
 30
0.000000
  70
    32
  0
VERTEX
  8
┌▓È_1
  5
3AF
 10
520.975
 20
-323.520
 30
0.000000
  70
    32
  0
VERTEX
  8
┌▓È_1
  5
3B0
 10
520.932
 20
-323.537
 30
0.000000
  70
    32
  0
VERTEX
  8
┌▓È_1
  5
3B1
 10
520.889
 20
-323.554
 30
0.000000
  70
    32
  0
VERTEX
  8
┌▓È_1
  5
3B2
 10
520.845
 20
-323.571
 30
0.000000
  70
    32
  0
VERTEX
  8
┌▓È_1
  5
3B3
 10
520.801
 20
-323.588
 30
0.000000
  70
    32
  0
VERTEX
  8
┌▓È_1
  5
3B4
 10
520.757
 20
-323.604
 30
0.000000
  70
    32
  0
VERTEX
  8
┌▓È_1
  5
3B5
 10
520.711
 20
-323.620
 30
0.000000
  70
    32
  0
VERTEX
  8
┌▓È_1
  5
3B6
 10
520.666
 20
-323.636
 30
0.000000
  70
    32
  0
VERTEX
  8
┌▓È_1
  5
3B7
 10
520.619
 20
-323.652
 30
0.000000
  70
    32
  0
VERTEX
  8
┌▓È_1
  5
3B8
 10
520.573
 20
-323.668
 30
0.000000
  70
    32
  0
VERTEX
  8
┌▓È_1
  5
3B9
 10
520.526
 20
-323.683
 30
0.000000
  70
    32
  0
VERTEX
  8
┌▓È_1
  5
3BA
 10
520.478
 20
-323.698
 30
0.000000
  70
    32
  0
VERTEX
  8
┌▓È_1
  5
3BB
 10
520.430
 20
-323.713
 30
0.000000
  70
    32
  0
VERTEX
  8
┌▓È_1
  5
3BC
 10
520.381
 20
-323.727
 30
0.000000
  70
    32
  0
VERTEX
  8
┌▓È_1
  5
3BD
 10
520.332
 20
-323.742
 30
0.000000
  70
    32
  0
VERTEX
  8
┌▓È_1
  5
3BE
 10
520.283
 20
-323.756
 30
0.000000
  70
    32
  0
VERTEX
  8
┌▓È_1
  5
3BF
 10
520.233
 20
-323.770
 30
0.000000
  70
    32
  0
VERTEX
  8
┌▓È_1
  5
3C0
 10
520.182
 20
-323.784
 30
0.000000
  70
    32
  0
VERTEX
  8
┌▓È_1
  5
3C1
 10
520.131
 20
-323.797
 30
0.000000
  70
    32
  0
VERTEX
  8
┌▓È_1
  5
3C2
 10
520.080
 20
-323.810
 30
0.000000
  70
    32
  0
VERTEX
  8
┌▓È_1
  5
3C3
 10
520.029
 20
-323.823
 30
0.000000
  70
    32
  0
VERTEX
  8
┌▓È_1
  5
3C4
 10
519.976
 20
-323.836
 30
0.000000
  70
    32
  0
VERTEX
  8
┌▓È_1
  5
3C5
 10
519.924
 20
-323.848
 30
0.000000
  70
    32
  0
VERTEX
  8
┌▓È_1
  5
3C6
 10
519.871
 20
-323.860
 30
0.000000
  70
    32
  0
VERTEX
  8
┌▓È_1
  5
3C7
 10
519.818
 20
-323.872
 30
0.000000
  70
    32
  0
VERTEX
  8
┌▓È_1
  5
3C8
 10
519.764
 20
-323.884
 30
0.000000
  70
    32
  0
VERTEX
  8
┌▓È_1
  5
3C9
 10
519.711
 20
-323.895
 30
0.000000
  70
    32
  0
VERTEX
  8
┌▓È_1
  5
3CA
 10
519.656
 20
-323.906
 30
0.000000
  70
    32
  0
VERTEX
  8
┌▓È_1
  5
3CB
 10
519.602
 20
-323.917
 30
0.000000
  70
    32
  0
VERTEX
  8
┌▓È_1
  5
3CC
 10
519.547
 20
-323.928
 30
0.000000
  70
    32
  0
VERTEX
  8
┌▓È_1
  5
3CD
 10
519.491
 20
-323.938
 30
0.000000
  70
    32
  0
VERTEX
  8
┌▓È_1
  5
3CE
 10
519.436
 20
-323.948
 30
0.000000
  70
    32
  0
VERTEX
  8
┌▓È_1
  5
3CF
 10
519.380
 20
-323.958
 30
0.000000
  70
    32
  0
VERTEX
  8
┌▓È_1
  5
3D0
 10
519.324
 20
-323.968
 30
0.000000
  70
    32
  0
VERTEX
  8
┌▓È_1
  5
3D1
 10
519.267
 20
-323.977
 30
0.000000
  70
    32
  0
VERTEX
  8
┌▓È_1
  5
3D2
 10
519.210
 20
-323.986
 30
0.000000
  70
    32
  0
VERTEX
  8
┌▓È_1
  5
3D3
 10
519.153
 20
-323.995
 30
0.000000
  70
    32
  0
VERTEX
  8
┌▓È_1
  5
3D4
 10
519.096
 20
-324.003
 30
0.000000
  70
    32
  0
VERTEX
  8
┌▓È_1
  5
3D5
 10
519.038
 20
-324.012
 30
0.000000
  70
    32
  0
VERTEX
  8
┌▓È_1
  5
3D6
 10
518.980
 20
-324.020
 30
0.000000
  70
    32
  0
VERTEX
  8
┌▓È_1
  5
3D7
 10
518.922
 20
-324.027
 30
0.000000
  70
    32
  0
VERTEX
  8
┌▓È_1
  5
3D8
 10
518.864
 20
-324.035
 30
0.000000
  70
    32
  0
VERTEX
  8
┌▓È_1
  5
3D9
 10
518.805
 20
-324.042
 30
0.000000
  70
    32
  0
VERTEX
  8
┌▓È_1
  5
3DA
 10
518.746
 20
-324.048
 30
0.000000
  70
    32
  0
VERTEX
  8
┌▓È_1
  5
3DB
 10
518.687
 20
-324.055
 30
0.000000
  70
    32
  0
VERTEX
  8
┌▓È_1
  5
3DC
 10
518.628
 20
-324.061
 30
0.000000
  70
    32
  0
VERTEX
  8
┌▓È_1
  5
3DD
 10
518.568
 20
-324.067
 30
0.000000
  70
    32
  0
VERTEX
  8
┌▓È_1
  5
3DE
 10
518.509
 20
-324.073
 30
0.000000
  70
    32
  0
VERTEX
  8
┌▓È_1
  5
3DF
 10
518.449
 20
-324.078
 30
0.000000
  70
    32
  0
VERTEX
  8
┌▓È_1
  5
3E0
 10
518.389
 20
-324.083
 30
0.000000
  70
    32
  0
VERTEX
  8
┌▓È_1
  5
3E1
 10
518.329
 20
-324.088
 30
0.000000
  70
    32
  0
VERTEX
  8
┌▓È_1
  5
3E2
 10
518.269
 20
-324.093
 30
0.000000
  70
    32
  0
VERTEX
  8
┌▓È_1
  5
3E3
 10
518.208
 20
-324.097
 30
0.000000
  70
    32
  0
VERTEX
  8
┌▓È_1
  5
3E4
 10
518.148
 20
-324.101
 30
0.000000
  70
    32
  0
VERTEX
  8
┌▓È_1
  5
3E5
 10
518.087
 20
-324.104
 30
0.000000
  70
    32
  0
VERTEX
  8
┌▓È_1
  5
3E6
 10
518.026
 20
-324.108
 30
0.000000
  70
    32
  0
VERTEX
  8
┌▓È_1
  5
3E7
 10
517.966
 20
-324.111
 30
0.000000
  70
    32
  0
VERTEX
  8
┌▓È_1
  5
3E8
 10
517.905
 20
-324.114
 30
0.000000
  70
    32
  0
VERTEX
  8
┌▓È_1
  5
3E9
 10
517.844
 20
-324.116
 30
0.000000
  70
    32
  0
VERTEX
  8
┌▓È_1
  5
3EA
 10
517.783
 20
-324.118
 30
0.000000
  70
    32
  0
VERTEX
  8
┌▓È_1
  5
3EB
 10
517.721
 20
-324.120
 30
0.000000
  70
    32
  0
VERTEX
  8
┌▓È_1
  5
3EC
 10
517.660
 20
-324.122
 30
0.000000
  70
    32
  0
VERTEX
  8
┌▓È_1
  5
3ED
 10
517.599
 20
-324.123
 30
0.000000
  70
    32
  0
VERTEX
  8
┌▓È_1
  5
3EE
 10
517.538
 20
-324.124
 30
0.000000
  70
    32
  0
VERTEX
  8
┌▓È_1
  5
3EF
 10
517.476
 20
-324.125
 30
0.000000
  70
    32
  0
VERTEX
  8
┌▓È_1
  5
3F0
 10
517.415
 20
-324.125
 30
0.000000
  70
    32
  0
VERTEX
  8
┌▓È_1
  5
3F1
 10
517.354
 20
-324.126
 30
0.000000
  70
    32
  0
SEQEND
  8
┌▓È_1
  5
3F2
  0
LINE
  5
166
  8
┌▓È_1
  6
STITCH
 10
517.35355004480004
 20
-320.22606336680002
 30
0.0
 11
518.6535500448
 21
-320.22606336680002
 31
0.0
  0
DIMENSION
  5
175
  8
Éíû@É³
  2
*D16
 10
471.35355004479999
 20
-346.72606336680002
 30
0.0
 11
471.35355004479999
 21
-362.22606336680002
 31
0.0
 70
   128
  1
<>
 13
502.35355004479999
 23
-346.72606336680002
 33
0.0
 14
496.35355004479999
 24
-377.72606336680002
 34
0.0
 50
90.0
  0
DIMENSION
  5
184
  8
Éíû@É³
  2
*D17
 10
471.35355004479999
 20
-246.72606336679999
 30
0.0
 11
471.35355004479999
 21
-296.72606336680002
 31
0.0
 70
   128
  1
<>
 13
502.35355004479999
 23
-246.72606336679999
 33
0.0
 14
502.35355004479999
 24
-346.72606336680002
 34
0.0
 50
90.0
  0
DIMENSION
  5
193
  8
Éíû@É³
  2
*D18
 10
496.35355004479999
 20
-403.25298940750002
 30
0.0
 11
501.85355004479999
 21
-403.25298940750002
 31
0.0
 70
   128
  1
<>
 13
496.35355004479999
 23
-377.72606336680002
 33
0.0
 14
507.35355004479999
 24
-352.3569267721
 34
0.0
 50
180.0
  0
ARC
  5
194
  8
┌▓È_1
 62
     5
 10
1202.3187499999999
 20
-198.72534907959999
 30
0.0
 40
173.0
 50
90.520931294400015
 51
180.00000112679999
  0
ARC
  5
195
  8
┌▓È_1
 62
     5
 10
1202.3187499999999
 20
-198.72534907959999
 30
0.0
 40
175.0
 50
90.163702449900001
 51
180.0000004039
  0
CIRCLE
  5
196
  8
┌▓È_1
 62
     5
 10
641.35355004480004
 20
-12.725349079600001
 30
0.0
 40
2.0
  0
CIRCLE
  5
197
  8
┌▓È_1
 62
     5
 10
746.35355004479993
 20
-12.725349079600001
 30
0.0
 40
2.0
  0
DIMENSION
  5
1A6
  8
Éíû@É³
  2
*D19
 10
746.35355004479993
 20
35.900247924600002
 30
0.0
 11
693.85355004479993
 21
35.900247924600002
 31
0.0
 70
   128
  1
<>
 13
746.35355004479993
 23
-7.7253490795999991
 33
0.0
 14
641.35355004480004
 24
-7.7253490795999991
 34
0.0
  0
DIMENSION
  5
1B5
  8
Éíû@É³
  2
*D20
 10
624.95495389019993
 20
-1.7260633668000001
 30
0.0
 11
624.95495389019993
 21
8.1812074223999982
 31
0.0
 70
   128
  1
<>
 13
635.25716743190003
 23
-1.7260633668000001
 33
0.0
 14
635.25716743190003
 24
-12.725349079600001
 34
0.0
 50
90.0
  0
DIMENSION
  5
1BC
  8
Éíû@É³
  2
*D21
 10
744.93933648250004
 20
-11.3111355173
 30
0.0
 11
826.03462456909995
 21
-59.987226521399997
 31
0.0
 70
   131
  1
12-%%c<>
 15
747.76776360719998
 25
-14.139562642
 35
0.0
 40
0.0
  0
LINE
  5
1BD
  8
┌▓È_1
  6
BORDER
 62
     3
 10
536.35355004480004
 20
-7.7253490795999991
 30
0.0
 11
536.35355004480004
 21
-17.725349079600001
 31
0.0
  0
LINE
  5
1BE
  8
┌▓È_1
  6
BORDER
 62
     3
 10
502.35355004479999
 20
-36.726063366799998
 30
0.0
 11
512.35355004480004
 21
-36.726063366799998
 31
0.0
  0
LINE
  5
1BF
  8
┌▓È_1
  6
BORDER
 62
     3
 10
502.35355004479999
 20
-141.72606336679999
 30
0.0
 11
512.35355004480004
 21
-141.72606336679999
 31
0.0
  0
LINE
  5
1C0
  8
┌▓È_1
  6
STITCH
 10
516.35355004480004
 20
-24.103103114300001
 30
0.0
 11
518.6535500448
 21
-24.739100459100001
 31
0.0
  0
ARC
  5
1C1
  8
┌▓È_1
 62
     5
 10
516.1535500448
 20
-23.644845544799999
 30
0.0
 40
0.5
 50
293.57817847820002
 51
0.0
  0
ARC
  5
1C2
  8
┌▓È_1
 62
     5
 10
516.1535500448
 20
-23.525349079600002
 30
0.0
 40
0.5
 50
0.0
 51
90.0
  0
LINE
  5
1C3
  8
┌▓È_1
 62
     5
 10
516.6535500448
 20
-23.525349079600002
 30
0.0
 11
516.6535500448
 21
-23.644845544799999
 31
0.0
  0
LINE
  5
1C4
  8
┌▓È_1
 62
     5
 10
512.35355004480004
 20
-23.025349079600002
 30
0.0
 11
516.1535500448
 21
-23.025349079600002
 31
0.0
  0
ARC
  5
1C5
  8
┌▓È_1
 62
     5
 10
519.64534611229999
 20
-25.726063366799998
 30
0.0
 40
3.0
 50
63.43494882289999
 51
90.0
  0
LINE
  5
1C6
  8
┌▓È_1
 62
     5
 10
519.64534611229999
 20
-22.726063366799998
 30
0.0
 11
516.64690961489998
 21
-22.726063366799998
 31
0.0
  0
LINE
  5
1C7
  8
┌▓È_1
 62
     5
 10
516.35355004480004
 20
-26.726063366799998
 30
0.0
 11
516.75355004480002
 21
-26.726063366799998
 31
0.0
  0
LINE
  5
1C8
  8
┌▓È_1
 62
     5
 10
516.35355004480004
 20
-25.756784121300001
 30
0.0
 11
516.35355004480004
 21
-26.726063366799998
 31
0.0
  0
LINE
  5
1C9
  8
┌▓È_1
 62
     5
 10
516.75355004480002
 20
-25.756784121300001
 30
0.0
 11
516.75355004480002
 21
-26.726063366799998
 31
0.0
  0
CIRCLE
  5
1CA
  8
┌▓È_1
 62
     5
 10
507.35355004479999
 20
-141.72606336679999
 30
0.0
 40
2.0
  0
LINE
  5
1CB
  8
┌▓È_1
 62
     5
 10
512.35355004480004
 20
-1.7260633668000001
 30
0.0
 11
512.35355004480004
 21
-23.025349079600002
 31
0.0
  0
LINE
  5
1CC
  8
┌▓È_1
  6
STITCH
 10
516.35355004480004
 20
-4.7260633668000001
 30
0.0
 11
516.35355004480004
 21
-23.067091510099999
 31
0.0
  0
LINE
  5
1CD
  8
┌▓È_1
  6
STITCH
 10
512.35355004480004
 20
-4.7260633668000001
 30
0.0
 11
516.35355004480004
 21
-4.7260633668000001
 31
0.0
  0
LINE
  5
1CE
  8
┌▓È_1
 62
     5
 10
496.35355004479999
 20
-4.7260633668000001
 30
0.0
 11
512.35355004480004
 21
-4.7260633668000001
 31
0.0
  0
CIRCLE
  5
1CF
  8
┌▓È_1
 62
     5
 10
536.35355004480004
 20
-12.725349079600001
 30
0.0
 40
2.0
  0
LINE
  5
1D0
  8
┌▓È_1
 62
     5
 10
522.35355004480004
 20
-23.726063366799998
 30
0.0
 11
520.98698689879996
 21
-23.0427817938
 31
0.0
  0
LINE
  5
1D1
  8
┌▓È_1
 62
     5
 10
1056.9875537206999
 20
-553.89071341609986
 30
0.0
 11
1056.6097941917999
 21
-553.89071341609986
 31
0.0
  0
LINE
  5
1D2
  8
┌▓È_1
 62
     5
 10
1056.9875537206999
 20
-550.14071341609997
 30
0.0
 11
1054.1097941917999
 21
-550.14071341609997
 31
0.0
  0
LINE
  5
1D3
  8
┌▓È_1
 62
     5
 10
1068.2375537206999
 20
-545.14071341609997
 30
0.0
 11
1068.2375537206999
 21
-550.14071341609997
 31
0.0
  0
LINE
  5
1D4
  8
┌▓È_1
 62
     5
 10
1063.2375537206999
 20
-550.14071341609997
 30
0.0
 11
1063.2375537206999
 21
-548.89071341609986
 31
0.0
  0
LINE
  5
1D5
  8
┌▓È_1
 62
     5
 10
1074.4875537206999
 20
-548.89071341609986
 30
0.0
 11
1078.2375537206999
 21
-545.14071341609997
 31
0.0
  0
LINE
  5
1D6
  8
┌▓È_1
 10
965.3359375
 20
-527.10364583329988
 30
0.0
 11
1052.8359375
 21
-527.10364583329988
 31
0.0
  0
LINE
  5
1D7
  8
┌▓È_1
 10
1015.3359375
 20
-499.60364583329999
 30
0.0
 11
1052.8359375
 21
-499.60364583329999
 31
0.0
  0
LINE
  5
1D8
  8
┌▓È_1
 10
965.3359375
 20
-499.60364583329999
 30
0.0
 11
1002.8359375
 21
-499.60364583329999
 31
0.0
  0
LINE
  5
1D9
  8
┌▓È_1
 62
     5
 10
1056.9875537206999
 20
-553.89071341609986
 30
0.0
 11
1056.9875537206999
 21
-557.64071341609997
 31
0.0
  0
LINE
  5
1DA
  8
┌▓È_1
 62
     5
 10
1074.4875537206999
 20
-550.14071341609997
 30
0.0
 11
1074.4875537206999
 21
-548.89071341609986
 31
0.0
  0
LINE
  5
1DB
  8
┌▓È_1
 62
     5
 10
1078.2375537206999
 20
-550.14071341609997
 30
0.0
 11
1074.4875537206999
 21
-550.14071341609997
 31
0.0
  0
LINE
  5
1DC
  8
┌▓È_1
 62
     5
 10
1063.2375537206999
 20
-557.64071341609997
 30
0.0
 11
1063.2375537206999
 21
-553.89071341609986
 31
0.0
  0
LINE
  5
1DD
  8
┌▓È_1
 62
     5
 10
1064.4875537206999
 20
-558.89071341609986
 30
0.0
 11
1056.9875537206999
 21
-558.89071341609986
 31
0.0
  0
INSERT
  5
1DE
  8
0
  6
CONTINUOUS
  2
*U27
 10
0.0
 20
0.0
 30
0.0
  0
INSERT
  5
1DF
  8
0
  6
CONTINUOUS
  2
*U28
 10
0.0
 20
0.0
 30
0.0
  0
INSERT
  5
1E0
  8
0
  6
CONTINUOUS
  2
*U29
 10
0.0
 20
0.0
 30
0.0
  0
LINE
  5
1E1
  8
┌▓È_1
 62
     5
 10
1063.2375537206999
 20
-553.89071341609986
 30
0.0
 11
1068.2375537206999
 21
-553.89071341609986
 31
0.0
  0
ARC
  5
1E2
  8
┌▓È_1
 62
     5
 10
1066.9875537206999
 20
-555.14071341609986
 30
0.0
 40
7.5
 50
270.0
 51
0.0
  0
LINE
  5
1E3
  8
┌▓È_1
 62
     5
 10
1078.2375537206999
 20
-545.14071341609997
 30
0.0
 11
1068.2375537206999
 21
-545.14071341609997
 31
0.0
  0
LINE
  5
1E4
  8
┌▓È_1
 62
     5
 10
1078.2375537206999
 20
-550.14071341609997
 30
0.0
 11
1078.2375537206999
 21
-553.89071341609986
 31
0.0
  0
LINE
  5
1E5
  8
┌▓È_1
 62
     5
 10
1054.1097941917999
 20
-550.14071341609997
 30
0.0
 11
1054.1097941917999
 21
-553.89071341609986
 31
0.0
  0
LINE
  5
1E6
  8
┌▓È_1
 62
     5
 10
1068.2375537206999
 20
-553.89071341609986
 30
0.0
 11
1068.2375537206999
 21
-555.14071341609986
 31
0.0
  0
INSERT
  5
1E7
  8
0
  6
CONTINUOUS
  2
*U30
 10
0.0
 20
0.0
 30
0.0
  0
LINE
  5
1E8
  8
┌▓È_1
  6
BORDER
 62
     3
 10
746.35355004479993
 20
-7.7253490795999991
 30
0.0
 11
746.35355004479993
 21
-17.725349079600001
 31
0.0
  0
LINE
  5
1E9
  8
┌▓È_1
  6
BORDER
 62
     3
 10
641.35355004480004
 20
-7.7253490795999991
 30
0.0
 11
641.35355004480004
 21
-17.725349079600001
 31
0.0
  0
LINE
  5
1EA
  8
┌▓È_1
 62
     5
 10
865.35355004479993
 20
-327.67581083509998
 30
0.0
 11
865.35355004479993
 21
-320.22606336680002
 31
0.0
  0
POLYLINE
  5
1EB
  8
┌▓È_1
 62
     5
 10
860.35355004479993
 20
-322.17581083510004
 30
0.0
 66
     1
 70
     8
  0
VERTEX
  8
┌▓È_1
  5
3F3
 10
860.354
 20
-322.176
 30
0.000000
  70
    32
  0
VERTEX
  8
┌▓È_1
  5
3F4
 10
860.354
 20
-322.200
 30
0.000000
  70
    32
  0
VERTEX
  8
┌▓È_1
  5
3F5
 10
860.355
 20
-322.224
 30
0.000000
  70
    32
  0
VERTEX
  8
┌▓È_1
  5
3F6
 10
860.357
 20
-322.248
 30
0.000000
  70
    32
  0
VERTEX
  8
┌▓È_1
  5
3F7
 10
860.360
 20
-322.271
 30
0.000000
  70
    32
  0
VERTEX
  8
┌▓È_1
  5
3F8
 10
860.363
 20
-322.295
 30
0.000000
  70
    32
  0
VERTEX
  8
┌▓È_1
  5
3F9
 10
860.367
 20
-322.319
 30
0.000000
  70
    32
  0
VERTEX
  8
┌▓È_1
  5
3FA
 10
860.372
 20
-322.343
 30
0.000000
  70
    32
  0
VERTEX
  8
┌▓È_1
  5
3FB
 10
860.378
 20
-322.367
 30
0.000000
  70
    32
  0
VERTEX
  8
┌▓È_1
  5
3FC
 10
860.384
 20
-322.391
 30
0.000000
  70
    32
  0
VERTEX
  8
┌▓È_1
  5
3FD
 10
860.391
 20
-322.414
 30
0.000000
  70
    32
  0
VERTEX
  8
┌▓È_1
  5
3FE
 10
860.399
 20
-322.438
 30
0.000000
  70
    32
  0
VERTEX
  8
┌▓È_1
  5
3FF
 10
860.408
 20
-322.462
 30
0.000000
  70
    32
  0
VERTEX
  8
┌▓È_1
  5
400
 10
860.417
 20
-322.486
 30
0.000000
  70
    32
  0
VERTEX
  8
┌▓È_1
  5
401
 10
860.427
 20
-322.509
 30
0.000000
  70
    32
  0
VERTEX
  8
┌▓È_1
  5
402
 10
860.438
 20
-322.533
 30
0.000000
  70
    32
  0
VERTEX
  8
┌▓È_1
  5
403
 10
860.450
 20
-322.556
 30
0.000000
  70
    32
  0
VERTEX
  8
┌▓È_1
  5
404
 10
860.462
 20
-322.580
 30
0.000000
  70
    32
  0
VERTEX
  8
┌▓È_1
  5
405
 10
860.475
 20
-322.603
 30
0.000000
  70
    32
  0
VERTEX
  8
┌▓È_1
  5
406
 10
860.489
 20
-322.626
 30
0.000000
  70
    32
  0
VERTEX
  8
┌▓È_1
  5
407
 10
860.503
 20
-322.650
 30
0.000000
  70
    32
  0
VERTEX
  8
┌▓È_1
  5
408
 10
860.519
 20
-322.673
 30
0.000000
  70
    32
  0
VERTEX
  8
┌▓È_1
  5
409
 10
860.535
 20
-322.696
 30
0.000000
  70
    32
  0
VERTEX
  8
┌▓È_1
  5
40A
 10
860.551
 20
-322.719
 30
0.000000
  70
    32
  0
VERTEX
  8
┌▓È_1
  5
40B
 10
860.569
 20
-322.742
 30
0.000000
  70
    32
  0
VERTEX
  8
┌▓È_1
  5
40C
 10
860.587
 20
-322.765
 30
0.000000
  70
    32
  0
VERTEX
  8
┌▓È_1
  5
40D
 10
860.606
 20
-322.787
 30
0.000000
  70
    32
  0
VERTEX
  8
┌▓È_1
  5
40E
 10
860.626
 20
-322.810
 30
0.000000
  70
    32
  0
VERTEX
  8
┌▓È_1
  5
40F
 10
860.646
 20
-322.833
 30
0.000000
  70
    32
  0
VERTEX
  8
┌▓È_1
  5
410
 10
860.667
 20
-322.855
 30
0.000000
  70
    32
  0
VERTEX
  8
┌▓È_1
  5
411
 10
860.689
 20
-322.878
 30
0.000000
  70
    32
  0
VERTEX
  8
┌▓È_1
  5
412
 10
860.711
 20
-322.900
 30
0.000000
  70
    32
  0
VERTEX
  8
┌▓È_1
  5
413
 10
860.734
 20
-322.922
 30
0.000000
  70
    32
  0
VERTEX
  8
┌▓È_1
  5
414
 10
860.758
 20
-322.944
 30
0.000000
  70
    32
  0
VERTEX
  8
┌▓È_1
  5
415
 10
860.783
 20
-322.966
 30
0.000000
  70
    32
  0
VERTEX
  8
┌▓È_1
  5
416
 10
860.808
 20
-322.988
 30
0.000000
  70
    32
  0
VERTEX
  8
┌▓È_1
  5
417
 10
860.834
 20
-323.009
 30
0.000000
  70
    32
  0
VERTEX
  8
┌▓È_1
  5
418
 10
860.860
 20
-323.031
 30
0.000000
  70
    32
  0
VERTEX
  8
┌▓È_1
  5
419
 10
860.887
 20
-323.052
 30
0.000000
  70
    32
  0
VERTEX
  8
┌▓È_1
  5
41A
 10
860.915
 20
-323.074
 30
0.000000
  70
    32
  0
VERTEX
  8
┌▓È_1
  5
41B
 10
860.944
 20
-323.095
 30
0.000000
  70
    32
  0
VERTEX
  8
┌▓È_1
  5
41C
 10
860.973
 20
-323.116
 30
0.000000
  70
    32
  0
VERTEX
  8
┌▓È_1
  5
41D
 10
861.003
 20
-323.137
 30
0.000000
  70
    32
  0
VERTEX
  8
┌▓È_1
  5
41E
 10
861.034
 20
-323.158
 30
0.000000
  70
    32
  0
VERTEX
  8
┌▓È_1
  5
41F
 10
861.065
 20
-323.178
 30
0.000000
  70
    32
  0
VERTEX
  8
┌▓È_1
  5
420
 10
861.097
 20
-323.199
 30
0.000000
  70
    32
  0
VERTEX
  8
┌▓È_1
  5
421
 10
861.129
 20
-323.219
 30
0.000000
  70
    32
  0
VERTEX
  8
┌▓È_1
  5
422
 10
861.162
 20
-323.239
 30
0.000000
  70
    32
  0
VERTEX
  8
┌▓È_1
  5
423
 10
861.196
 20
-323.259
 30
0.000000
  70
    32
  0
VERTEX
  8
┌▓È_1
  5
424
 10
861.231
 20
-323.279
 30
0.000000
  70
    32
  0
VERTEX
  8
┌▓È_1
  5
425
 10
861.266
 20
-323.298
 30
0.000000
  70
    32
  0
VERTEX
  8
┌▓È_1
  5
426
 10
861.301
 20
-323.318
 30
0.000000
  70
    32
  0
VERTEX
  8
┌▓È_1
  5
427
 10
861.338
 20
-323.337
 30
0.000000
  70
    32
  0
VERTEX
  8
┌▓È_1
  5
428
 10
861.374
 20
-323.356
 30
0.000000
  70
    32
  0
VERTEX
  8
┌▓È_1
  5
429
 10
861.412
 20
-323.375
 30
0.000000
  70
    32
  0
VERTEX
  8
┌▓È_1
  5
42A
 10
861.450
 20
-323.394
 30
0.000000
  70
    32
  0
VERTEX
  8
┌▓È_1
  5
42B
 10
861.488
 20
-323.413
 30
0.000000
  70
    32
  0
VERTEX
  8
┌▓È_1
  5
42C
 10
861.528
 20
-323.431
 30
0.000000
  70
    32
  0
VERTEX
  8
┌▓È_1
  5
42D
 10
861.568
 20
-323.449
 30
0.000000
  70
    32
  0
VERTEX
  8
┌▓È_1
  5
42E
 10
861.608
 20
-323.467
 30
0.000000
  70
    32
  0
VERTEX
  8
┌▓È_1
  5
42F
 10
861.649
 20
-323.485
 30
0.000000
  70
    32
  0
VERTEX
  8
┌▓È_1
  5
430
 10
861.690
 20
-323.503
 30
0.000000
  70
    32
  0
VERTEX
  8
┌▓È_1
  5
431
 10
861.732
 20
-323.520
 30
0.000000
  70
    32
  0
VERTEX
  8
┌▓È_1
  5
432
 10
861.775
 20
-323.537
 30
0.000000
  70
    32
  0
VERTEX
  8
┌▓È_1
  5
433
 10
861.818
 20
-323.554
 30
0.000000
  70
    32
  0
VERTEX
  8
┌▓È_1
  5
434
 10
861.862
 20
-323.571
 30
0.000000
  70
    32
  0
VERTEX
  8
┌▓È_1
  5
435
 10
861.906
 20
-323.588
 30
0.000000
  70
    32
  0
VERTEX
  8
┌▓È_1
  5
436
 10
861.951
 20
-323.604
 30
0.000000
  70
    32
  0
VERTEX
  8
┌▓È_1
  5
437
 10
861.996
 20
-323.620
 30
0.000000
  70
    32
  0
VERTEX
  8
┌▓È_1
  5
438
 10
862.041
 20
-323.636
 30
0.000000
  70
    32
  0
VERTEX
  8
┌▓È_1
  5
439
 10
862.088
 20
-323.652
 30
0.000000
  70
    32
  0
VERTEX
  8
┌▓È_1
  5
43A
 10
862.134
 20
-323.668
 30
0.000000
  70
    32
  0
VERTEX
  8
┌▓È_1
  5
43B
 10
862.182
 20
-323.683
 30
0.000000
  70
    32
  0
VERTEX
  8
┌▓È_1
  5
43C
 10
862.229
 20
-323.698
 30
0.000000
  70
    32
  0
VERTEX
  8
┌▓È_1
  5
43D
 10
862.277
 20
-323.713
 30
0.000000
  70
    32
  0
VERTEX
  8
┌▓È_1
  5
43E
 10
862.326
 20
-323.727
 30
0.000000
  70
    32
  0
VERTEX
  8
┌▓È_1
  5
43F
 10
862.375
 20
-323.742
 30
0.000000
  70
    32
  0
VERTEX
  8
┌▓È_1
  5
440
 10
862.425
 20
-323.756
 30
0.000000
  70
    32
  0
VERTEX
  8
┌▓È_1
  5
441
 10
862.475
 20
-323.770
 30
0.000000
  70
    32
  0
VERTEX
  8
┌▓È_1
  5
442
 10
862.525
 20
-323.784
 30
0.000000
  70
    32
  0
VERTEX
  8
┌▓È_1
  5
443
 10
862.576
 20
-323.797
 30
0.000000
  70
    32
  0
VERTEX
  8
┌▓È_1
  5
444
 10
862.627
 20
-323.810
 30
0.000000
  70
    32
  0
VERTEX
  8
┌▓È_1
  5
445
 10
862.679
 20
-323.823
 30
0.000000
  70
    32
  0
VERTEX
  8
┌▓È_1
  5
446
 10
862.731
 20
-323.836
 30
0.000000
  70
    32
  0
VERTEX
  8
┌▓È_1
  5
447
 10
862.783
 20
-323.848
 30
0.000000
  70
    32
  0
VERTEX
  8
┌▓È_1
  5
448
 10
862.836
 20
-323.860
 30
0.000000
  70
    32
  0
VERTEX
  8
┌▓È_1
  5
449
 10
862.889
 20
-323.872
 30
0.000000
  70
    32
  0
VERTEX
  8
┌▓È_1
  5
44A
 10
862.943
 20
-323.884
 30
0.000000
  70
    32
  0
VERTEX
  8
┌▓È_1
  5
44B
 10
862.997
 20
-323.895
 30
0.000000
  70
    32
  0
VERTEX
  8
┌▓È_1
  5
44C
 10
863.051
 20
-323.906
 30
0.000000
  70
    32
  0
VERTEX
  8
┌▓È_1
  5
44D
 10
863.105
 20
-323.917
 30
0.000000
  70
    32
  0
VERTEX
  8
┌▓È_1
  5
44E
 10
863.160
 20
-323.928
 30
0.000000
  70
    32
  0
VERTEX
  8
┌▓È_1
  5
44F
 10
863.216
 20
-323.938
 30
0.000000
  70
    32
  0
VERTEX
  8
┌▓È_1
  5
450
 10
863.271
 20
-323.948
 30
0.000000
  70
    32
  0
VERTEX
  8
┌▓È_1
  5
451
 10
863.327
 20
-323.958
 30
0.000000
  70
    32
  0
VERTEX
  8
┌▓È_1
  5
452
 10
863.384
 20
-323.968
 30
0.000000
  70
    32
  0
VERTEX
  8
┌▓È_1
  5
453
 10
863.440
 20
-323.977
 30
0.000000
  70
    32
  0
VERTEX
  8
┌▓È_1
  5
454
 10
863.497
 20
-323.986
 30
0.000000
  70
    32
  0
VERTEX
  8
┌▓È_1
  5
455
 10
863.554
 20
-323.995
 30
0.000000
  70
    32
  0
VERTEX
  8
┌▓È_1
  5
456
 10
863.611
 20
-324.003
 30
0.000000
  70
    32
  0
VERTEX
  8
┌▓È_1
  5
457
 10
863.669
 20
-324.012
 30
0.000000
  70
    32
  0
VERTEX
  8
┌▓È_1
  5
458
 10
863.727
 20
-324.020
 30
0.000000
  70
    32
  0
VERTEX
  8
┌▓È_1
  5
459
 10
863.785
 20
-324.027
 30
0.000000
  70
    32
  0
VERTEX
  8
┌▓È_1
  5
45A
 10
863.844
 20
-324.035
 30
0.000000
  70
    32
  0
VERTEX
  8
┌▓È_1
  5
45B
 10
863.902
 20
-324.042
 30
0.000000
  70
    32
  0
VERTEX
  8
┌▓È_1
  5
45C
 10
863.961
 20
-324.048
 30
0.000000
  70
    32
  0
VERTEX
  8
┌▓È_1
  5
45D
 10
864.020
 20
-324.055
 30
0.000000
  70
    32
  0
VERTEX
  8
┌▓È_1
  5
45E
 10
864.079
 20
-324.061
 30
0.000000
  70
    32
  0
VERTEX
  8
┌▓È_1
  5
45F
 10
864.139
 20
-324.067
 30
0.000000
  70
    32
  0
VERTEX
  8
┌▓È_1
  5
460
 10
864.198
 20
-324.073
 30
0.000000
  70
    32
  0
VERTEX
  8
┌▓È_1
  5
461
 10
864.258
 20
-324.078
 30
0.000000
  70
    32
  0
VERTEX
  8
┌▓È_1
  5
462
 10
864.318
 20
-324.083
 30
0.000000
  70
    32
  0
VERTEX
  8
┌▓È_1
  5
463
 10
864.378
 20
-324.088
 30
0.000000
  70
    32
  0
VERTEX
  8
┌▓È_1
  5
464
 10
864.438
 20
-324.093
 30
0.000000
  70
    32
  0
VERTEX
  8
┌▓È_1
  5
465
 10
864.499
 20
-324.097
 30
0.000000
  70
    32
  0
VERTEX
  8
┌▓È_1
  5
466
 10
864.559
 20
-324.101
 30
0.000000
  70
    32
  0
VERTEX
  8
┌▓È_1
  5
467
 10
864.620
 20
-324.104
 30
0.000000
  70
    32
  0
VERTEX
  8
┌▓È_1
  5
468
 10
864.681
 20
-324.108
 30
0.000000
  70
    32
  0
VERTEX
  8
┌▓È_1
  5
469
 10
864.741
 20
-324.111
 30
0.000000
  70
    32
  0
VERTEX
  8
┌▓È_1
  5
46A
 10
864.802
 20
-324.114
 30
0.000000
  70
    32
  0
VERTEX
  8
┌▓È_1
  5
46B
 10
864.863
 20
-324.116
 30
0.000000
  70
    32
  0
VERTEX
  8
┌▓È_1
  5
46C
 10
864.925
 20
-324.118
 30
0.000000
  70
    32
  0
VERTEX
  8
┌▓È_1
  5
46D
 10
864.986
 20
-324.120
 30
0.000000
  70
    32
  0
VERTEX
  8
┌▓È_1
  5
46E
 10
865.047
 20
-324.122
 30
0.000000
  70
    32
  0
VERTEX
  8
┌▓È_1
  5
46F
 10
865.108
 20
-324.123
 30
0.000000
  70
    32
  0
VERTEX
  8
┌▓È_1
  5
470
 10
865.170
 20
-324.124
 30
0.000000
  70
    32
  0
VERTEX
  8
┌▓È_1
  5
471
 10
865.231
 20
-324.125
 30
0.000000
  70
    32
  0
VERTEX
  8
┌▓È_1
  5
472
 10
865.292
 20
-324.125
 30
0.000000
  70
    32
  0
VERTEX
  8
┌▓È_1
  5
473
 10
865.354
 20
-324.126
 30
0.000000
  70
    32
  0
SEQEND
  8
┌▓È_1
  5
474
  0
LINE
  5
1EC
  8
┌▓È_1
 62
     5
 10
1027.3187499999999
 20
-322.22606336680002
 30
0.0
 11
1022.7225559223
 21
-326.8222574445
 31
0.0
  0
LINE
  5
1ED
  8
┌▓È_1
  6
STITCH
 10
864.05355004479986
 20
-320.22606336680002
 30
0.0
 11
865.35355004479993
 21
-320.22606336680002
 31
0.0
  0
LINE
  5
1EE
  8
┌▓È_1
 62
     5
 10
865.95355004479995
 20
-318.12003814579998
 30
0.0
 11
865.55355004479986
 21
-318.12003814579998
 31
0.0
  0
LINE
  5
1EF
  8
┌▓È_1
 62
     5
 10
886.35355004480004
 20
-377.72606336680002
 30
0.0
 11
865.95355004479995
 21
-377.72606336680002
 31
0.0
  0
LINE
  5
1F0
  8
┌▓È_1
 62
     5
 10
886.35355004480004
 20
-377.72606336680002
 30
0.0
 11
865.95355004479995
 21
-377.72606336680002
 31
0.0
  0
LINE
  5
1F1
  8
┌▓È_1
 62
     5
 10
866.35355004479993
 20
-320.22606336680002
 30
0.0
 11
865.35355004479993
 21
-320.22606336680002
 31
0.0
  0
INSERT
  5
1F2
  8
0
  6
CONTINUOUS
  2
*U31
 10
0.0
 20
0.0
 30
0.0
  0
LINE
  5
1F3
  8
┌▓È_1
 62
     5
 10
1056.9875537206999
 20
-557.64071341609997
 30
0.0
 11
1063.2375537206999
 21
-557.64071341609997
 31
0.0
  0
LINE
  5
1F4
  8
┌▓È_1
 10
1009.0859375
 20
-485.85364583329988
 30
0.0
 11
1009.0859375
 21
-513.35364583329999
 31
0.0
  0
LINE
  5
1F5
  8
┌▓È_1
 10
959.0859375
 20
-485.85364583329988
 30
0.0
 11
959.0859375
 21
-568.35364583329999
 31
0.0
  0
LINE
  5
1F6
  8
┌▓È_1
 10
1059.0859375
 20
-513.35364583329999
 30
0.0
 11
1059.0859375
 21
-540.85364583329988
 31
0.0
  0
LINE
  5
1F7
  8
┌▓È_1
 62
     5
 10
1056.9875537206999
 20
-545.14071341609997
 30
0.0
 11
1056.9875537206999
 21
-550.14071341609997
 31
0.0
  0
LINE
  5
1F8
  8
┌▓È_1
 62
     5
 10
1063.2375537206999
 20
-548.89071341609986
 30
0.0
 11
1066.9875537206999
 21
-545.14071341609997
 31
0.0
  0
LINE
  5
1F9
  8
┌▓È_1
 62
     5
 10
1066.9875537206999
 20
-545.14071341609997
 30
0.0
 11
1056.9875537206999
 21
-545.14071341609997
 31
0.0
  0
LINE
  5
1FA
  8
┌▓È_1
 62
     5
 10
1068.2375537206999
 20
-550.14071341609997
 30
0.0
 11
1063.2375537206999
 21
-550.14071341609997
 31
0.0
  0
INSERT
  5
1FB
  8
0
  6
CONTINUOUS
  2
*U32
 10
0.0
 20
0.0
 30
0.0
  0
LINE
  5
1FC
  8
┌▓È_1
 10
1059.0859375
 20
-485.85364583329988
 30
0.0
 11
1059.0859375
 21
-513.35364583329999
 31
0.0
  0
LINE
  5
1FD
  8
┌▓È_1
 62
     5
 10
1074.4875537206999
 20
-555.14071341609986
 30
0.0
 11
1074.4875537206999
 21
-553.89071341609986
 31
0.0
  0
ARC
  5
1FE
  8
┌▓È_1
 62
     5
 10
1064.4875537206999
 20
-555.14071341609986
 30
0.0
 40
3.75
 50
270.0
 51
0.0
  0
LINE
  5
1FF
  8
┌▓È_1
 62
     5
 10
1056.9875537206999
 20
-562.64071341609997
 30
0.0
 11
1066.9875537206999
 21
-562.64071341609997
 31
0.0
  0
LINE
  5
200
  8
┌▓È_1
 62
     5
 10
1054.1097941917999
 20
-553.89071341609986
 30
0.0
 11
1056.6097941917999
 21
-553.89071341609986
 31
0.0
  0
LINE
  5
201
  8
┌▓È_1
 62
     5
 10
1074.4875537206999
 20
-553.89071341609986
 30
0.0
 11
1078.2375537206999
 21
-553.89071341609986
 31
0.0
  0
LINE
  5
202
  8
┌▓È_1
 62
     5
 10
1056.9875537206999
 20
-558.89071341609986
 30
0.0
 11
1056.9875537206999
 21
-562.64071341609997
 31
0.0
  0
LINE
  5
203
  8
┌▓È_1
 10
1109.0859375
 20
-499.60364583329999
 30
0.0
 11
1159.0859375
 21
-499.60364583329999
 31
0.0
  0
INSERT
  5
204
  8
0
  6
CONTINUOUS
  2
*U33
 10
0.0
 20
0.0
 30
0.0
  0
LINE
  5
205
  8
┌▓È_1
 62
     5
 10
1126.2601863831001
 20
-549.39071341609986
 30
0.0
 11
1125.8942007574999
 21
-548.11889118989995
 31
0.0
  0
LINE
  5
206
  8
┌▓È_1
 62
     5
 10
1126.2601863831001
 20
-549.39071341609986
 30
0.0
 11
1135.4327754929
 21
-549.39071341609986
 31
0.0
  0
LINE
  5
207
  8
┌▓È_1
 62
     5
 10
1094.8890688721999
 20
-550.94598908480009
 30
0.0
 11
1093.4748553099
 21
-552.36020264720003
 31
0.0
  0
INSERT
  5
208
  8
0
  6
CONTINUOUS
  2
*U34
 10
0.0
 20
0.0
 30
0.0
  0
INSERT
  5
209
  8
0
  6
CONTINUOUS
  2
*U35
 10
0.0
 20
0.0
 30
0.0
  0
LINE
  5
20A
  8
┌▓È_1
  6
BORDER
 62
     3
 10
880.35355004479993
 20
-246.72606336679999
 30
0.0
 11
870.35355004479993
 21
-246.72606336679999
 31
0.0
  0
LINE
  5
20B
  8
┌▓È_1
  6
BORDER
 62
     3
 10
880.35355004479993
 20
-346.72606336680002
 30
0.0
 11
870.35355004479993
 21
-346.72606336680002
 31
0.0
  0
LINE
  5
20C
  8
┌▓È_1
 62
     5
 10
1023.4296627035
 20
-327.52936422570002
 30
0.0
 11
1025.9045364376
 21
-325.05449049160001
 31
0.0
  0
LINE
  5
20D
  8
┌▓È_1
  6
STITCH
 10
1022.7225559223
 20
-327.52936422570002
 30
0.0
 11
1022.3690025316999
 21
-327.17581083509998
 31
0.0
  0
LINE
  5
20E
  8
┌▓È_1
  6
STITCH
 10
1030.8274579873
 20
-321.4414737898
 30
0.0
 11
1031.6044384853999
 21
-319.1193238587
 31
0.0
  0
LINE
  5
20F
  8
┌▓È_1
 62
     5
 10
1030.5256026536999
 20
-322.34362428639997
 30
0.0
 11
1030.8274579873
 21
-321.4414737898
 31
0.0
  0
LINE
  5
210
  8
┌▓È_1
 62
     5
 10
1025.9045364376
 20
-325.05449049160001
 30
0.0
 11
1025.550983047
 21
-324.70093710100002
 31
0.0
  0
ARC
  5
211
  8
┌▓È_1
 62
     5
 10
1023.0761093129
 20
-327.17581083509998
 30
0.0
 40
0.5
 50
135.0
 51
315.0
  0
LINE
  5
212
  8
┌▓È_1
 62
     5
 10
1023.0761093129
 20
-327.17581083509998
 30
0.0
 11
1027.6723033906001
 21
-322.5796167574
 31
0.0
  0
ARC
  5
213
  8
┌▓È_1
 62
     5
 10
1027.3187499999999
 20
-322.22606336680002
 30
0.0
 40
0.5
 50
315.0
 51
0.0
  0
LINE
  5
214
  8
┌▓È_1
 62
     5
 10
1027.8187499999999
 20
-320.22606336680002
 30
0.0
 11
1027.8187499999999
 21
-322.22606336680002
 31
0.0
  0
LINE
  5
215
  8
┌▓È_1
 62
     5
 10
1029.3187499999999
 20
-320.22606336680002
 30
0.0
 11
1027.3187499999999
 21
-320.22606336680002
 31
0.0
  0
LINE
  5
216
  8
┌▓È_1
 62
     5
 10
1030.8274579873
 20
-321.4414737898
 30
0.0
 11
1029.3187499999999
 21
-320.9366671587
 31
0.0
  0
LINE
  5
217
  8
┌▓È_1
 62
     5
 10
865.95355004479995
 20
-376.93687495239999
 30
0.0
 11
865.95355004479995
 21
-377.72606336680002
 31
0.0
  0
CIRCLE
  5
218
  8
┌▓È_1
 62
     5
 10
875.35355004479982
 20
-346.72606336680002
 30
0.0
 40
2.0
  0
LINE
  5
219
  8
┌▓È_1
 62
     5
 10
865.55355004479986
 20
-376.93687495239999
 30
0.0
 11
865.95355004479995
 21
-376.93687495239999
 31
0.0
  0
LINE
  5
21A
  8
┌▓È_1
 62
     5
 10
865.55355004479986
 20
-318.12003814579998
 30
0.0
 11
865.55355004479986
 21
-376.93687495239999
 31
0.0
  0
CIRCLE
  5
21B
  8
┌▓È_1
 62
     5
 10
875.35355004479982
 20
-246.72606336679999
 30
0.0
 40
2.0
  0
LINE
  5
21C
  8
┌▓È_1
 62
     5
 10
1130.4327754929
 20
-563.89071341609997
 30
0.0
 11
1123.4327754929
 21
-563.89071341609997
 31
0.0
  0
LINE
  5
21D
  8
┌▓È_1
 62
     5
 10
1119.1794421596001
 20
-549.39071341609986
 30
0.0
 11
1117.9327754929
 21
-545.14071341609997
 31
0.0
  0
LINE
  5
21E
  8
┌▓È_1
 62
     5
 10
1129.4255988112
 20
-560.39071341609997
 30
0.0
 11
1135.4327754929
 21
-560.39071341609997
 31
0.0
  0
LINE
  5
21F
  8
┌▓È_1
 62
     5
 10
1135.4327754929
 20
-555.89071341609997
 30
0.0
 11
1135.4327754929
 21
-560.39071341609997
 31
0.0
  0
LINE
  5
220
  8
┌▓È_1
 62
     5
 10
1117.9327754929
 20
-545.14071341609997
 30
0.0
 11
1127.9327754929
 21
-545.14071341609997
 31
0.0
  0
LINE
  5
221
  8
┌▓È_1
 62
     5
 10
1104.8890688721999
 20
-548.89071341609986
 30
0.0
 11
1107.3890688721999
 21
-545.14071341609997
 31
0.0
  0
LINE
  5
222
  8
┌▓È_1
 62
     5
 10
1096.2298501014
 20
-553.93839067889985
 30
0.0
 11
1095.6283605857
 21
-554.60273658029985
 31
0.0
  0
LINE
  5
223
  8
┌▓È_1
 62
     5
 10
1127.5551278308999
 20
-553.89071341609986
 30
0.0
 11
1135.4327754929
 21
-553.89071341609986
 31
0.0
  0
LINE
  5
224
  8
┌▓È_1
 62
     5
 10
1104.8890688721999
 20
-548.89071341609986
 30
0.0
 11
1107.3890688721999
 21
-545.14071341609997
 31
0.0
  0
LINE
  5
225
  8
┌▓È_1
 62
     5
 10
1102.0458672525001
 20
-557.26354143849994
 30
0.0
 11
1101.600612103
 21
-557.69948679900006
 31
0.0
  0
LINE
  5
226
  8
┌▓È_1
 62
     5
 10
1112.9327754929
 20
-549.39071341609986
 30
0.0
 11
1112.9327754929
 21
-553.89071341609986
 31
0.0
  0
LINE
  5
227
  8
┌▓È_1
 10
1109.0859375
 20
-485.85364583329988
 30
0.0
 11
1109.0859375
 21
-540.85364583329988
 31
0.0
  0
LINE
  5
228
  8
┌▓È_1
 10
1159.0859375
 20
-485.85364583329988
 30
0.0
 11
1159.0859375
 21
-568.35364583329999
 31
0.0
  0
LINE
  5
229
  8
┌▓È_1
 62
     5
 10
1112.9327754929
 20
-560.39071341609997
 30
0.0
 11
1122.4061088262999
 21
-560.39071341609997
 31
0.0
  0
ARC
  5
22A
  8
┌▓È_1
 62
     5
 10
1091.1390688721999
 20
-548.89071341609986
 30
0.0
 40
13.75
 50
322.48761197969998
 51
0.0
  0
ARC
  5
22B
  8
┌▓È_1
 62
     5
 10
1087.8890688721999
 20
-549.39071341609986
 30
0.0
 40
9.5
 50
331.39928138329998
 51
358.49204224580001
  0
LINE
  5
22C
  8
┌▓È_1
 62
     5
 10
1107.3890688721999
 20
-558.89071341609986
 30
0.0
 11
1107.3890688721999
 21
-562.64071341609997
 31
0.0
  0
LINE
  5
22D
  8
┌▓È_1
 62
     5
 10
1121.0861088263
 20
-555.89071341609997
 30
0.0
 11
1120.4994421596
 21
-553.89071341609986
 31
0.0
  0
LINE
  5
22E
  8
┌▓È_1
 62
     5
 10
1125.8942007574999
 20
-548.11889118989995
 30
0.0
 11
1127.9327754929
 21
-545.14071341609997
 31
0.0
  0
LINE
  5
22F
  8
┌▓È_1
 62
     5
 10
1112.9327754929
 20
-549.39071341609986
 30
0.0
 11
1119.1794421596001
 21
-549.39071341609986
 31
0.0
  0
LINE
  5
230
  8
┌▓È_1
 62
     5
 10
1112.9327754929
 20
-555.89071341609997
 30
0.0
 11
1112.9327754929
 21
-560.39071341609997
 31
0.0
  0
LINE
  5
231
  8
┌▓È_1
 62
     5
 10
1112.9327754929
 20
-553.89071341609986
 30
0.0
 11
1120.4994421596
 21
-553.89071341609986
 31
0.0
  0
LINE
  5
232
  8
┌▓È_1
 62
     5
 10
1135.4327754929
 20
-549.39071341609986
 30
0.0
 11
1135.4327754929
 21
-553.89071341609986
 31
0.0
  0
LINE
  5
233
  8
┌▓È_1
 62
     5
 10
1123.4327754929
 20
-563.89071341609997
 30
0.0
 11
1122.4061088262999
 21
-560.39071341609997
 31
0.0
  0
LINE
  5
234
  8
┌▓È_1
 10
1159.0859375
 20
-513.35364583329999
 30
0.0
 11
1334.0859375
 21
-513.35364583329999
 31
0.0
  0
LINE
  5
235
  8
┌▓È_1
 62
     5
 10
866.05355004479998
 20
-23.525349079600002
 30
0.0
 11
866.05355004479998
 21
-23.644845544799999
 31
0.0
  0
LINE
  5
236
  8
┌▓È_1
 62
     5
 10
866.35355004479993
 20
-26.726063366799998
 30
0.0
 11
865.95355004479995
 21
-26.726063366799998
 31
0.0
  0
LINE
  5
237
  8
┌▓È_1
 62
     5
 10
865.95355004479995
 20
-25.756784121300001
 30
0.0
 11
865.95355004479995
 21
-26.726063366799998
 31
0.0
  0
LINE
  5
238
  8
┌▓È_1
 62
     5
 10
866.35355004479993
 20
-25.756784121300001
 30
0.0
 11
866.35355004479993
 21
-26.726063366799998
 31
0.0
  0
LINE
  5
239
  8
┌▓È_1
 62
     5
 10
866.35355004479993
 20
-23.067091510099999
 30
0.0
 11
866.35355004479993
 21
-26.726063366799998
 31
0.0
  0
LINE
  5
23A
  8
┌▓È_1
 62
     5
 10
860.35355004480004
 20
-23.726063366799998
 30
0.0
 11
861.72011319080002
 21
-23.0427817938
 31
0.0
  0
CIRCLE
  5
23B
  8
┌▓È_1
 62
     5
 10
875.35355004479982
 20
-36.726063366799998
 30
0.0
 40
2.0
  0
CIRCLE
  5
23C
  8
┌▓È_1
 62
     5
 10
846.35355004479993
 20
-12.725349079600001
 30
0.0
 40
2.0
  0
DIMENSION
  5
24B
  8
Éíû@É³
  2
*D22
 10
886.35355004480004
 20
35.900247924600002
 30
0.0
 11
866.35355004479993
 21
35.900247924600002
 31
0.0
 70
   128
  1
<>
 13
886.35355004480004
 23
-4.7260633668000001
 33
0.0
 14
846.35355004479993
 24
-7.7253490795999991
 34
0.0
  0
LINE
  5
24C
  8
┌▓È_1
 62
     5
 10
1201.91875
 20
-378.72534907959999
 30
0.0
 11
1201.3187499999999
 21
-378.72534907959999
 31
0.0
  0
LINE
  5
24D
  8
┌▓È_1
 62
     5
 10
1202.91875
 20
-378.72534907959999
 30
0.0
 11
1201.91875
 21
-378.72534907959999
 31
0.0
  0
LINE
  5
24E
  8
┌▓È_1
 62
     5
 10
1201.3187499999999
 20
-378.72534907959999
 30
0.0
 11
1197.5218599512
 21
-377.46692706890002
 31
0.0
  0
LINE
  5
24F
  8
┌▓È_1
  6
STITCH
 10
1196.6741801697999
 20
-377.93616066519991
 30
0.0
 11
1196.6741801697999
 21
-374.35088681769997
 31
0.0
  0
LINE
  5
250
  8
┌▓È_1
 62
     5
 10
1197.5218599512
 20
-377.46692706890002
 30
0.0
 11
1196.6741801697999
 21
-377.93616066519991
 31
0.0
  0
POLYLINE
  8
┌▓È_1
  5
475
  62
5
  66
     1
 10
0.000000
 20
0.000000
 30
0.000000
  70
     8
  0
VERTEX
  8
┌▓È_1
  5
476
 10
1093.47
 20
-552.360
 30
0.000000
  70
    32
  0
VERTEX
  8
┌▓È_1
  5
477
 10
1093.49
 20
-552.379
 30
0.000000
  70
    32
  0
VERTEX
  8
┌▓È_1
  5
478
 10
1093.51
 20
-552.397
 30
0.000000
  70
    32
  0
VERTEX
  8
┌▓È_1
  5
479
 10
1093.52
 20
-552.415
 30
0.000000
  70
    32
  0
VERTEX
  8
┌▓È_1
  5
47A
 10
1093.54
 20
-552.434
 30
0.000000
  70
    32
  0
VERTEX
  8
┌▓È_1
  5
47B
 10
1093.56
 20
-552.452
 30
0.000000
  70
    32
  0
VERTEX
  8
┌▓È_1
  5
47C
 10
1093.57
 20
-552.471
 30
0.000000
  70
    32
  0
VERTEX
  8
┌▓È_1
  5
47D
 10
1093.59
 20
-552.489
 30
0.000000
  70
    32
  0
VERTEX
  8
┌▓È_1
  5
47E
 10
1093.61
 20
-552.507
 30
0.000000
  70
    32
  0
VERTEX
  8
┌▓È_1
  5
47F
 10
1093.62
 20
-552.526
 30
0.000000
  70
    32
  0
VERTEX
  8
┌▓È_1
  5
480
 10
1093.64
 20
-552.544
 30
0.000000
  70
    32
  0
VERTEX
  8
┌▓È_1
  5
481
 10
1093.66
 20
-552.562
 30
0.000000
  70
    32
  0
VERTEX
  8
┌▓È_1
  5
482
 10
1093.67
 20
-552.581
 30
0.000000
  70
    32
  0
VERTEX
  8
┌▓È_1
  5
483
 10
1093.69
 20
-552.599
 30
0.000000
  70
    32
  0
VERTEX
  8
┌▓È_1
  5
484
 10
1093.71
 20
-552.618
 30
0.000000
  70
    32
  0
VERTEX
  8
┌▓È_1
  5
485
 10
1093.72
 20
-552.636
 30
0.000000
  70
    32
  0
VERTEX
  8
┌▓È_1
  5
486
 10
1093.74
 20
-552.654
 30
0.000000
  70
    32
  0
VERTEX
  8
┌▓È_1
  5
487
 10
1093.76
 20
-552.673
 30
0.000000
  70
    32
  0
VERTEX
  8
┌▓È_1
  5
488
 10
1093.77
 20
-552.691
 30
0.000000
  70
    32
  0
VERTEX
  8
┌▓È_1
  5
489
 10
1093.79
 20
-552.709
 30
0.000000
  70
    32
  0
VERTEX
  8
┌▓È_1
  5
48A
 10
1093.81
 20
-552.728
 30
0.000000
  70
    32
  0
VERTEX
  8
┌▓È_1
  5
48B
 10
1093.82
 20
-552.746
 30
0.000000
  70
    32
  0
VERTEX
  8
┌▓È_1
  5
48C
 10
1093.84
 20
-552.764
 30
0.000000
  70
    32
  0
VERTEX
  8
┌▓È_1
  5
48D
 10
1093.85
 20
-552.783
 30
0.000000
  70
    32
  0
VERTEX
  8
┌▓È_1
  5
48E
 10
1093.87
 20
-552.801
 30
0.000000
  70
    32
  0
VERTEX
  8
┌▓È_1
  5
48F
 10
1093.89
 20
-552.819
 30
0.000000
  70
    32
  0
VERTEX
  8
┌▓È_1
  5
490
 10
1093.90
 20
-552.838
 30
0.000000
  70
    32
  0
VERTEX
  8
┌▓È_1
  5
491
 10
1093.92
 20
-552.856
 30
0.000000
  70
    32
  0
VERTEX
  8
┌▓È_1
  5
492
 10
1093.94
 20
-552.874
 30
0.000000
  70
    32
  0
VERTEX
  8
┌▓È_1
  5
493
 10
1093.95
 20
-552.893
 30
0.000000
  70
    32
  0
VERTEX
  8
┌▓È_1
  5
494
 10
1093.97
 20
-552.911
 30
0.000000
  70
    32
  0
VERTEX
  8
┌▓È_1
  5
495
 10
1093.99
 20
-552.929
 30
0.000000
  70
    32
  0
VERTEX
  8
┌▓È_1
  5
496
 10
1094.00
 20
-552.947
 30
0.000000
  70
    32
  0
VERTEX
  8
┌▓È_1
  5
497
 10
1094.02
 20
-552.966
 30
0.000000
  70
    32
  0
VERTEX
  8
┌▓È_1
  5
498
 10
1094.04
 20
-552.984
 30
0.000000
  70
    32
  0
VERTEX
  8
┌▓È_1
  5
499
 10
1094.05
 20
-553.002
 30
0.000000
  70
    32
  0
VERTEX
  8
┌▓È_1
  5
49A
 10
1094.07
 20
-553.020
 30
0.000000
  70
    32
  0
VERTEX
  8
┌▓È_1
  5
49B
 10
1094.09
 20
-553.039
 30
0.000000
  70
    32
  0
VERTEX
  8
┌▓È_1
  5
49C
 10
1094.10
 20
-553.057
 30
0.000000
  70
    32
  0
VERTEX
  8
┌▓È_1
  5
49D
 10
1094.12
 20
-553.075
 30
0.000000
  70
    32
  0
VERTEX
  8
┌▓È_1
  5
49E
 10
1094.14
 20
-553.093
 30
0.000000
  70
    32
  0
VERTEX
  8
┌▓È_1
  5
49F
 10
1094.15
 20
-553.111
 30
0.000000
  70
    32
  0
VERTEX
  8
┌▓È_1
  5
4A0
 10
1094.17
 20
-553.129
 30
0.000000
  70
    32
  0
VERTEX
  8
┌▓È_1
  5
4A1
 10
1094.19
 20
-553.148
 30
0.000000
  70
    32
  0
VERTEX
  8
┌▓È_1
  5
4A2
 10
1094.20
 20
-553.166
 30
0.000000
  70
    32
  0
VERTEX
  8
┌▓È_1
  5
4A3
 10
1094.22
 20
-553.184
 30
0.000000
  70
    32
  0
VERTEX
  8
┌▓È_1
  5
4A4
 10
1094.24
 20
-553.202
 30
0.000000
  70
    32
  0
VERTEX
  8
┌▓È_1
  5
4A5
 10
1094.25
 20
-553.220
 30
0.000000
  70
    32
  0
VERTEX
  8
┌▓È_1
  5
4A6
 10
1094.27
 20
-553.238
 30
0.000000
  70
    32
  0
VERTEX
  8
┌▓È_1
  5
4A7
 10
1094.29
 20
-553.256
 30
0.000000
  70
    32
  0
VERTEX
  8
┌▓È_1
  5
4A8
 10
1094.30
 20
-553.274
 30
0.000000
  70
    32
  0
VERTEX
  8
┌▓È_1
  5
4A9
 10
1094.32
 20
-553.292
 30
0.000000
  70
    32
  0
VERTEX
  8
┌▓È_1
  5
4AA
 10
1094.34
 20
-553.310
 30
0.000000
  70
    32
  0
VERTEX
  8
┌▓È_1
  5
4AB
 10
1094.35
 20
-553.328
 30
0.000000
  70
    32
  0
VERTEX
  8
┌▓È_1
  5
4AC
 10
1094.37
 20
-553.346
 30
0.000000
  70
    32
  0
VERTEX
  8
┌▓È_1
  5
4AD
 10
1094.39
 20
-553.364
 30
0.000000
  70
    32
  0
VERTEX
  8
┌▓È_1
  5
4AE
 10
1094.40
 20
-553.382
 30
0.000000
  70
    32
  0
VERTEX
  8
┌▓È_1
  5
4AF
 10
1094.42
 20
-553.400
 30
0.000000
  70
    32
  0
VERTEX
  8
┌▓È_1
  5
4B0
 10
1094.44
 20
-553.418
 30
0.000000
  70
    32
  0
VERTEX
  8
┌▓È_1
  5
4B1
 10
1094.45
 20
-553.436
 30
0.000000
  70
    32
  0
VERTEX
  8
┌▓È_1
  5
4B2
 10
1094.47
 20
-553.454
 30
0.000000
  70
    32
  0
VERTEX
  8
┌▓È_1
  5
4B3
 10
1094.49
 20
-553.472
 30
0.000000
  70
    32
  0
VERTEX
  8
┌▓È_1
  5
4B4
 10
1094.50
 20
-553.490
 30
0.000000
  70
    32
  0
VERTEX
  8
┌▓È_1
  5
4B5
 10
1094.52
 20
-553.508
 30
0.000000
  70
    32
  0
VERTEX
  8
┌▓È_1
  5
4B6
 10
1094.54
 20
-553.526
 30
0.000000
  70
    32
  0
VERTEX
  8
┌▓È_1
  5
4B7
 10
1094.56
 20
-553.543
 30
0.000000
  70
    32
  0
VERTEX
  8
┌▓È_1
  5
4B8
 10
1094.57
 20
-553.561
 30
0.000000
  70
    32
  0
VERTEX
  8
┌▓È_1
  5
4B9
 10
1094.59
 20
-553.579
 30
0.000000
  70
    32
  0
VERTEX
  8
┌▓È_1
  5
4BA
 10
1094.61
 20
-553.597
 30
0.000000
  70
    32
  0
VERTEX
  8
┌▓È_1
  5
4BB
 10
1094.62
 20
-553.614
 30
0.000000
  70
    32
  0
VERTEX
  8
┌▓È_1
  5
4BC
 10
1094.64
 20
-553.632
 30
0.000000
  70
    32
  0
VERTEX
  8
┌▓È_1
  5
4BD
 10
1094.66
 20
-553.650
 30
0.000000
  70
    32
  0
VERTEX
  8
┌▓È_1
  5
4BE
 10
1094.67
 20
-553.668
 30
0.000000
  70
    32
  0
VERTEX
  8
┌▓È_1
  5
4BF
 10
1094.69
 20
-553.685
 30
0.000000
  70
    32
  0
VERTEX
  8
┌▓È_1
  5
4C0
 10
1094.71
 20
-553.703
 30
0.000000
  70
    32
  0
VERTEX
  8
┌▓È_1
  5
4C1
 10
1094.72
 20
-553.721
 30
0.000000
  70
    32
  0
VERTEX
  8
┌▓È_1
  5
4C2
 10
1094.74
 20
-553.738
 30
0.000000
  70
    32
  0
VERTEX
  8
┌▓È_1
  5
4C3
 10
1094.76
 20
-553.756
 30
0.000000
  70
    32
  0
VERTEX
  8
┌▓È_1
  5
4C4
 10
1094.78
 20
-553.773
 30
0.000000
  70
    32
  0
VERTEX
  8
┌▓È_1
  5
4C5
 10
1094.79
 20
-553.791
 30
0.000000
  70
    32
  0
VERTEX
  8
┌▓È_1
  5
4C6
 10
1094.81
 20
-553.808
 30
0.000000
  70
    32
  0
VERTEX
  8
┌▓È_1
  5
4C7
 10
1094.83
 20
-553.826
 30
0.000000
  70
    32
  0
VERTEX
  8
┌▓È_1
  5
4C8
 10
1094.84
 20
-553.843
 30
0.000000
  70
    32
  0
VERTEX
  8
┌▓È_1
  5
4C9
 10
1094.86
 20
-553.861
 30
0.000000
  70
    32
  0
VERTEX
  8
┌▓È_1
  5
4CA
 10
1094.88
 20
-553.878
 30
0.000000
  70
    32
  0
VERTEX
  8
┌▓È_1
  5
4CB
 10
1094.89
 20
-553.896
 30
0.000000
  70
    32
  0
VERTEX
  8
┌▓È_1
  5
4CC
 10
1094.91
 20
-553.913
 30
0.000000
  70
    32
  0
VERTEX
  8
┌▓È_1
  5
4CD
 10
1094.93
 20
-553.930
 30
0.000000
  70
    32
  0
VERTEX
  8
┌▓È_1
  5
4CE
 10
1094.95
 20
-553.948
 30
0.000000
  70
    32
  0
VERTEX
  8
┌▓È_1
  5
4CF
 10
1094.96
 20
-553.965
 30
0.000000
  70
    32
  0
VERTEX
  8
┌▓È_1
  5
4D0
 10
1094.98
 20
-553.982
 30
0.000000
  70
    32
  0
VERTEX
  8
┌▓È_1
  5
4D1
 10
1095.00
 20
-554.000
 30
0.000000
  70
    32
  0
VERTEX
  8
┌▓È_1
  5
4D2
 10
1095.01
 20
-554.017
 30
0.000000
  70
    32
  0
VERTEX
  8
┌▓È_1
  5
4D3
 10
1095.03
 20
-554.034
 30
0.000000
  70
    32
  0
VERTEX
  8
┌▓È_1
  5
4D4
 10
1095.05
 20
-554.051
 30
0.000000
  70
    32
  0
VERTEX
  8
┌▓È_1
  5
4D5
 10
1095.07
 20
-554.069
 30
0.000000
  70
    32
  0
VERTEX
  8
┌▓È_1
  5
4D6
 10
1095.08
 20
-554.086
 30
0.000000
  70
    32
  0
VERTEX
  8
┌▓È_1
  5
4D7
 10
1095.10
 20
-554.103
 30
0.000000
  70
    32
  0
VERTEX
  8
┌▓È_1
  5
4D8
 10
1095.12
 20
-554.120
 30
0.000000
  70
    32
  0
VERTEX
  8
┌▓È_1
  5
4D9
 10
1095.14
 20
-554.137
 30
0.000000
  70
    32
  0
VERTEX
  8
┌▓È_1
  5
4DA
 10
1095.15
 20
-554.154
 30
0.000000
  70
    32
  0
VERTEX
  8
┌▓È_1
  5
4DB
 10
1095.17
 20
-554.171
 30
0.000000
  70
    32
  0
VERTEX
  8
┌▓È_1
  5
4DC
 10
1095.19
 20
-554.188
 30
0.000000
  70
    32
  0
VERTEX
  8
┌▓È_1
  5
4DD
 10
1095.21
 20
-554.205
 30
0.000000
  70
    32
  0
VERTEX
  8
┌▓È_1
  5
4DE
 10
1095.22
 20
-554.222
 30
0.000000
  70
    32
  0
VERTEX
  8
┌▓È_1
  5
4DF
 10
1095.24
 20
-554.239
 30
0.000000
  70
    32
  0
VERTEX
  8
┌▓È_1
  5
4E0
 10
1095.26
 20
-554.256
 30
0.000000
  70
    32
  0
VERTEX
  8
┌▓È_1
  5
4E1
 10
1095.27
 20
-554.272
 30
0.000000
  70
    32
  0
VERTEX
  8
┌▓È_1
  5
4E2
 10
1095.29
 20
-554.289
 30
0.000000
  70
    32
  0
VERTEX
  8
┌▓È_1
  5
4E3
 10
1095.31
 20
-554.306
 30
0.000000
  70
    32
  0
VERTEX
  8
┌▓È_1
  5
4E4
 10
1095.33
 20
-554.323
 30
0.000000
  70
    32
  0
VERTEX
  8
┌▓È_1
  5
4E5
 10
1095.35
 20
-554.340
 30
0.000000
  70
    32
  0
VERTEX
  8
┌▓È_1
  5
4E6
 10
1095.36
 20
-554.356
 30
0.000000
  70
    32
  0
VERTEX
  8
┌▓È_1
  5
4E7
 10
1095.38
 20
-554.373
 30
0.000000
  70
    32
  0
VERTEX
  8
┌▓È_1
  5
4E8
 10
1095.40
 20
-554.390
 30
0.000000
  70
    32
  0
VERTEX
  8
┌▓È_1
  5
4E9
 10
1095.42
 20
-554.406
 30
0.000000
  70
    32
  0
VERTEX
  8
┌▓È_1
  5
4EA
 10
1095.43
 20
-554.423
 30
0.000000
  70
    32
  0
VERTEX
  8
┌▓È_1
  5
4EB
 10
1095.45
 20
-554.439
 30
0.000000
  70
    32
  0
VERTEX
  8
┌▓È_1
  5
4EC
 10
1095.47
 20
-554.456
 30
0.000000
  70
    32
  0
VERTEX
  8
┌▓È_1
  5
4ED
 10
1095.49
 20
-554.472
 30
0.000000
  70
    32
  0
VERTEX
  8
┌▓È_1
  5
4EE
 10
1095.50
 20
-554.489
 30
0.000000
  70
    32
  0
VERTEX
  8
┌▓È_1
  5
4EF
 10
1095.52
 20
-554.505
 30
0.000000
  70
    32
  0
VERTEX
  8
┌▓È_1
  5
4F0
 10
1095.54
 20
-554.521
 30
0.000000
  70
    32
  0
VERTEX
  8
┌▓È_1
  5
4F1
 10
1095.56
 20
-554.538
 30
0.000000
  70
    32
  0
VERTEX
  8
┌▓È_1
  5
4F2
 10
1095.57
 20
-554.554
 30
0.000000
  70
    32
  0
VERTEX
  8
┌▓È_1
  5
4F3
 10
1095.59
 20
-554.570
 30
0.000000
  70
    32
  0
VERTEX
  8
┌▓È_1
  5
4F4
 10
1095.61
 20
-554.587
 30
0.000000
  70
    32
  0
VERTEX
  8
┌▓È_1
  5
4F5
 10
1095.63
 20
-554.603
 30
0.000000
  70
    32
  0
SEQEND
  8
┌▓È_1
  5
4F6
  0
POLYLINE
  8
┌▓È_1
  5
4F7
  62
5
  66
     1
 10
0.000000
 20
0.000000
 30
0.000000
  70
     8
  0
VERTEX
  8
┌▓È_1
  5
4F8
 10
1098.54
 20
-560.482
 30
0.000000
  70
    32
  0
VERTEX
  8
┌▓È_1
  5
4F9
 10
1098.60
 20
-560.503
 30
0.000000
  70
    32
  0
VERTEX
  8
┌▓È_1
  5
4FA
 10
1098.67
 20
-560.524
 30
0.000000
  70
    32
  0
VERTEX
  8
┌▓È_1
  5
4FB
 10
1098.74
 20
-560.546
 30
0.000000
  70
    32
  0
VERTEX
  8
┌▓È_1
  5
4FC
 10
1098.81
 20
-560.567
 30
0.000000
  70
    32
  0
VERTEX
  8
┌▓È_1
  5
4FD
 10
1098.87
 20
-560.588
 30
0.000000
  70
    32
  0
VERTEX
  8
┌▓È_1
  5
4FE
 10
1098.94
 20
-560.609
 30
0.000000
  70
    32
  0
VERTEX
  8
┌▓È_1
  5
4FF
 10
1099.01
 20
-560.630
 30
0.000000
  70
    32
  0
VERTEX
  8
┌▓È_1
  5
500
 10
1099.08
 20
-560.650
 30
0.000000
  70
    32
  0
VERTEX
  8
┌▓È_1
  5
501
 10
1099.14
 20
-560.671
 30
0.000000
  70
    32
  0
VERTEX
  8
┌▓È_1
  5
502
 10
1099.21
 20
-560.691
 30
0.000000
  70
    32
  0
VERTEX
  8
┌▓È_1
  5
503
 10
1099.28
 20
-560.712
 30
0.000000
  70
    32
  0
VERTEX
  8
┌▓È_1
  5
504
 10
1099.35
 20
-560.732
 30
0.000000
  70
    32
  0
VERTEX
  8
┌▓È_1
  5
505
 10
1099.42
 20
-560.753
 30
0.000000
  70
    32
  0
VERTEX
  8
┌▓È_1
  5
506
 10
1099.48
 20
-560.773
 30
0.000000
  70
    32
  0
VERTEX
  8
┌▓È_1
  5
507
 10
1099.55
 20
-560.793
 30
0.000000
  70
    32
  0
VERTEX
  8
┌▓È_1
  5
508
 10
1099.62
 20
-560.813
 30
0.000000
  70
    32
  0
VERTEX
  8
┌▓È_1
  5
509
 10
1099.69
 20
-560.833
 30
0.000000
  70
    32
  0
VERTEX
  8
┌▓È_1
  5
50A
 10
1099.76
 20
-560.852
 30
0.000000
  70
    32
  0
VERTEX
  8
┌▓È_1
  5
50B
 10
1099.82
 20
-560.872
 30
0.000000
  70
    32
  0
VERTEX
  8
┌▓È_1
  5
50C
 10
1099.89
 20
-560.892
 30
0.000000
  70
    32
  0
VERTEX
  8
┌▓È_1
  5
50D
 10
1099.96
 20
-560.911
 30
0.000000
  70
    32
  0
VERTEX
  8
┌▓È_1
  5
50E
 10
1100.03
 20
-560.931
 30
0.000000
  70
    32
  0
VERTEX
  8
┌▓È_1
  5
50F
 10
1100.10
 20
-560.950
 30
0.000000
  70
    32
  0
VERTEX
  8
┌▓È_1
  5
510
 10
1100.17
 20
-560.969
 30
0.000000
  70
    32
  0
VERTEX
  8
┌▓È_1
  5
511
 10
1100.23
 20
-560.988
 30
0.000000
  70
    32
  0
VERTEX
  8
┌▓È_1
  5
512
 10
1100.30
 20
-561.007
 30
0.000000
  70
    32
  0
VERTEX
  8
┌▓È_1
  5
513
 10
1100.37
 20
-561.026
 30
0.000000
  70
    32
  0
VERTEX
  8
┌▓È_1
  5
514
 10
1100.44
 20
-561.045
 30
0.000000
  70
    32
  0
VERTEX
  8
┌▓È_1
  5
515
 10
1100.51
 20
-561.064
 30
0.000000
  70
    32
  0
VERTEX
  8
┌▓È_1
  5
516
 10
1100.58
 20
-561.083
 30
0.000000
  70
    32
  0
VERTEX
  8
┌▓È_1
  5
517
 10
1100.65
 20
-561.101
 30
0.000000
  70
    32
  0
VERTEX
  8
┌▓È_1
  5
518
 10
1100.72
 20
-561.120
 30
0.000000
  70
    32
  0
VERTEX
  8
┌▓È_1
  5
519
 10
1100.78
 20
-561.138
 30
0.000000
  70
    32
  0
VERTEX
  8
┌▓È_1
  5
51A
 10
1100.85
 20
-561.157
 30
0.000000
  70
    32
  0
VERTEX
  8
┌▓È_1
  5
51B
 10
1100.92
 20
-561.175
 30
0.000000
  70
    32
  0
VERTEX
  8
┌▓È_1
  5
51C
 10
1100.99
 20
-561.193
 30
0.000000
  70
    32
  0
VERTEX
  8
┌▓È_1
  5
51D
 10
1101.06
 20
-561.212
 30
0.000000
  70
    32
  0
VERTEX
  8
┌▓È_1
  5
51E
 10
1101.13
 20
-561.230
 30
0.000000
  70
    32
  0
VERTEX
  8
┌▓È_1
  5
51F
 10
1101.20
 20
-561.248
 30
0.000000
  70
    32
  0
VERTEX
  8
┌▓È_1
  5
520
 10
1101.27
 20
-561.266
 30
0.000000
  70
    32
  0
VERTEX
  8
┌▓È_1
  5
521
 10
1101.34
 20
-561.284
 30
0.000000
  70
    32
  0
VERTEX
  8
┌▓È_1
  5
522
 10
1101.41
 20
-561.301
 30
0.000000
  70
    32
  0
VERTEX
  8
┌▓È_1
  5
523
 10
1101.48
 20
-561.319
 30
0.000000
  70
    32
  0
VERTEX
  8
┌▓È_1
  5
524
 10
1101.55
 20
-561.337
 30
0.000000
  70
    32
  0
VERTEX
  8
┌▓È_1
  5
525
 10
1101.61
 20
-561.354
 30
0.000000
  70
    32
  0
VERTEX
  8
┌▓È_1
  5
526
 10
1101.68
 20
-561.372
 30
0.000000
  70
    32
  0
VERTEX
  8
┌▓È_1
  5
527
 10
1101.75
 20
-561.389
 30
0.000000
  70
    32
  0
VERTEX
  8
┌▓È_1
  5
528
 10
1101.82
 20
-561.407
 30
0.000000
  70
    32
  0
VERTEX
  8
┌▓È_1
  5
529
 10
1101.89
 20
-561.424
 30
0.000000
  70
    32
  0
VERTEX
  8
┌▓È_1
  5
52A
 10
1101.96
 20
-561.441
 30
0.000000
  70
    32
  0
VERTEX
  8
┌▓È_1
  5
52B
 10
1102.03
 20
-561.459
 30
0.000000
  70
    32
  0
VERTEX
  8
┌▓È_1
  5
52C
 10
1102.10
 20
-561.476
 30
0.000000
  70
    32
  0
VERTEX
  8
┌▓È_1
  5
52D
 10
1102.17
 20
-561.493
 30
0.000000
  70
    32
  0
VERTEX
  8
┌▓È_1
  5
52E
 10
1102.24
 20
-561.510
 30
0.000000
  70
    32
  0
VERTEX
  8
┌▓È_1
  5
52F
 10
1102.31
 20
-561.527
 30
0.000000
  70
    32
  0
VERTEX
  8
┌▓È_1
  5
530
 10
1102.38
 20
-561.544
 30
0.000000
  70
    32
  0
VERTEX
  8
┌▓È_1
  5
531
 10
1102.45
 20
-561.561
 30
0.000000
  70
    32
  0
VERTEX
  8
┌▓È_1
  5
532
 10
1102.52
 20
-561.577
 30
0.000000
  70
    32
  0
VERTEX
  8
┌▓È_1
  5
533
 10
1102.59
 20
-561.594
 30
0.000000
  70
    32
  0
VERTEX
  8
┌▓È_1
  5
534
 10
1102.66
 20
-561.611
 30
0.000000
  70
    32
  0
VERTEX
  8
┌▓È_1
  5
535
 10
1102.73
 20
-561.627
 30
0.000000
  70
    32
  0
VERTEX
  8
┌▓È_1
  5
536
 10
1102.80
 20
-561.644
 30
0.000000
  70
    32
  0
VERTEX
  8
┌▓È_1
  5
537
 10
1102.87
 20
-561.660
 30
0.000000
  70
    32
  0
VERTEX
  8
┌▓È_1
  5
538
 10
1102.94
 20
-561.677
 30
0.000000
  70
    32
  0
VERTEX
  8
┌▓È_1
  5
539
 10
1103.01
 20
-561.693
 30
0.000000
  70
    32
  0
VERTEX
  8
┌▓È_1
  5
53A
 10
1103.08
 20
-561.709
 30
0.000000
  70
    32
  0
VERTEX
  8
┌▓È_1
  5
53B
 10
1103.15
 20
-561.726
 30
0.000000
  70
    32
  0
VERTEX
  8
┌▓È_1
  5
53C
 10
1103.22
 20
-561.742
 30
0.000000
  70
    32
  0
VERTEX
  8
┌▓È_1
  5
53D
 10
1103.29
 20
-561.758
 30
0.000000
  70
    32
  0
VERTEX
  8
┌▓È_1
  5
53E
 10
1103.36
 20
-561.774
 30
0.000000
  70
    32
  0
VERTEX
  8
┌▓È_1
  5
53F
 10
1103.43
 20
-561.790
 30
0.000000
  70
    32
  0
VERTEX
  8
┌▓È_1
  5
540
 10
1103.50
 20
-561.806
 30
0.000000
  70
    32
  0
VERTEX
  8
┌▓È_1
  5
541
 10
1103.57
 20
-561.822
 30
0.000000
  70
    32
  0
VERTEX
  8
┌▓È_1
  5
542
 10
1103.64
 20
-561.838
 30
0.000000
  70
    32
  0
VERTEX
  8
┌▓È_1
  5
543
 10
1103.71
 20
-561.854
 30
0.000000
  70
    32
  0
VERTEX
  8
┌▓È_1
  5
544
 10
1103.78
 20
-561.870
 30
0.000000
  70
    32
  0
VERTEX
  8
┌▓È_1
  5
545
 10
1103.85
 20
-561.886
 30
0.000000
  70
    32
  0
VERTEX
  8
┌▓È_1
  5
546
 10
1103.92
 20
-561.902
 30
0.000000
  70
    32
  0
VERTEX
  8
┌▓È_1
  5
547
 10
1103.99
 20
-561.917
 30
0.000000
  70
    32
  0
VERTEX
  8
┌▓È_1
  5
548
 10
1104.06
 20
-561.933
 30
0.000000
  70
    32
  0
VERTEX
  8
┌▓È_1
  5
549
 10
1104.13
 20
-561.949
 30
0.000000
  70
    32
  0
VERTEX
  8
┌▓È_1
  5
54A
 10
1104.20
 20
-561.964
 30
0.000000
  70
    32
  0
VERTEX
  8
┌▓È_1
  5
54B
 10
1104.27
 20
-561.980
 30
0.000000
  70
    32
  0
VERTEX
  8
┌▓È_1
  5
54C
 10
1104.35
 20
-561.996
 30
0.000000
  70
    32
  0
VERTEX
  8
┌▓È_1
  5
54D
 10
1104.42
 20
-562.011
 30
0.000000
  70
    32
  0
VERTEX
  8
┌▓È_1
  5
54E
 10
1104.49
 20
-562.027
 30
0.000000
  70
    32
  0
VERTEX
  8
┌▓È_1
  5
54F
 10
1104.56
 20
-562.042
 30
0.000000
  70
    32
  0
VERTEX
  8
┌▓È_1
  5
550
 10
1104.63
 20
-562.057
 30
0.000000
  70
    32
  0
VERTEX
  8
┌▓È_1
  5
551
 10
1104.70
 20
-562.073
 30
0.000000
  70
    32
  0
VERTEX
  8
┌▓È_1
  5
552
 10
1104.77
 20
-562.088
 30
0.000000
  70
    32
  0
VERTEX
  8
┌▓È_1
  5
553
 10
1104.84
 20
-562.103
 30
0.000000
  70
    32
  0
VERTEX
  8
┌▓È_1
  5
554
 10
1104.91
 20
-562.119
 30
0.000000
  70
    32
  0
VERTEX
  8
┌▓È_1
  5
555
 10
1104.98
 20
-562.134
 30
0.000000
  70
    32
  0
VERTEX
  8
┌▓È_1
  5
556
 10
1105.05
 20
-562.149
 30
0.000000
  70
    32
  0
VERTEX
  8
┌▓È_1
  5
557
 10
1105.12
 20
-562.164
 30
0.000000
  70
    32
  0
VERTEX
  8
┌▓È_1
  5
558
 10
1105.19
 20
-562.179
 30
0.000000
  70
    32
  0
VERTEX
  8
┌▓È_1
  5
559
 10
1105.26
 20
-562.195
 30
0.000000
  70
    32
  0
VERTEX
  8
┌▓È_1
  5
55A
 10
1105.33
 20
-562.210
 30
0.000000
  70
    32
  0
VERTEX
  8
┌▓È_1
  5
55B
 10
1105.40
 20
-562.225
 30
0.000000
  70
    32
  0
VERTEX
  8
┌▓È_1
  5
55C
 10
1105.48
 20
-562.240
 30
0.000000
  70
    32
  0
VERTEX
  8
┌▓È_1
  5
55D
 10
1105.55
 20
-562.255
 30
0.000000
  70
    32
  0
VERTEX
  8
┌▓È_1
  5
55E
 10
1105.62
 20
-562.270
 30
0.000000
  70
    32
  0
VERTEX
  8
┌▓È_1
  5
55F
 10
1105.69
 20
-562.285
 30
0.000000
  70
    32
  0
VERTEX
  8
┌▓È_1
  5
560
 10
1105.76
 20
-562.300
 30
0.000000
  70
    32
  0
VERTEX
  8
┌▓È_1
  5
561
 10
1105.83
 20
-562.315
 30
0.000000
  70
    32
  0
VERTEX
  8
┌▓È_1
  5
562
 10
1105.90
 20
-562.330
 30
0.000000
  70
    32
  0
VERTEX
  8
┌▓È_1
  5
563
 10
1105.97
 20
-562.345
 30
0.000000
  70
    32
  0
VERTEX
  8
┌▓È_1
  5
564
 10
1106.04
 20
-562.360
 30
0.000000
  70
    32
  0
VERTEX
  8
┌▓È_1
  5
565
 10
1106.11
 20
-562.374
 30
0.000000
  70
    32
  0
VERTEX
  8
┌▓È_1
  5
566
 10
1106.18
 20
-562.389
 30
0.000000
  70
    32
  0
VERTEX
  8
┌▓È_1
  5
567
 10
1106.25
 20
-562.404
 30
0.000000
  70
    32
  0
VERTEX
  8
┌▓È_1
  5
568
 10
1106.33
 20
-562.419
 30
0.000000
  70
    32
  0
VERTEX
  8
┌▓È_1
  5
569
 10
1106.40
 20
-562.434
 30
0.000000
  70
    32
  0
VERTEX
  8
┌▓È_1
  5
56A
 10
1106.47
 20
-562.449
 30
0.000000
  70
    32
  0
VERTEX
  8
┌▓È_1
  5
56B
 10
1106.54
 20
-562.464
 30
0.000000
  70
    32
  0
VERTEX
  8
┌▓È_1
  5
56C
 10
1106.61
 20
-562.478
 30
0.000000
  70
    32
  0
VERTEX
  8
┌▓È_1
  5
56D
 10
1106.68
 20
-562.493
 30
0.000000
  70
    32
  0
VERTEX
  8
┌▓È_1
  5
56E
 10
1106.75
 20
-562.508
 30
0.000000
  70
    32
  0
VERTEX
  8
┌▓È_1
  5
56F
 10
1106.82
 20
-562.523
 30
0.000000
  70
    32
  0
VERTEX
  8
┌▓È_1
  5
570
 10
1106.89
 20
-562.537
 30
0.000000
  70
    32
  0
VERTEX
  8
┌▓È_1
  5
571
 10
1106.96
 20
-562.552
 30
0.000000
  70
    32
  0
VERTEX
  8
┌▓È_1
  5
572
 10
1107.03
 20
-562.567
 30
0.000000
  70
    32
  0
VERTEX
  8
┌▓È_1
  5
573
 10
1107.11
 20
-562.582
 30
0.000000
  70
    32
  0
VERTEX
  8
┌▓È_1
  5
574
 10
1107.18
 20
-562.596
 30
0.000000
  70
    32
  0
VERTEX
  8
┌▓È_1
  5
575
 10
1107.25
 20
-562.611
 30
0.000000
  70
    32
  0
VERTEX
  8
┌▓È_1
  5
576
 10
1107.32
 20
-562.626
 30
0.000000
  70
    32
  0
VERTEX
  8
┌▓È_1
  5
577
 10
1107.39
 20
-562.641
 30
0.000000
  70
    32
  0
SEQEND
  8
┌▓È_1
  5
578
  0
POLYLINE
  8
┌▓È_1
  5
579
  62
5
  66
     1
 10
0.000000
 20
0.000000
 30
0.000000
  70
     8
  0
VERTEX
  8
┌▓È_1
  5
57A
 10
1101.60
 20
-557.699
 30
0.000000
  70
    32
  0
VERTEX
  8
┌▓È_1
  5
57B
 10
1101.64
 20
-557.712
 30
0.000000
  70
    32
  0
VERTEX
  8
┌▓È_1
  5
57C
 10
1101.69
 20
-557.724
 30
0.000000
  70
    32
  0
VERTEX
  8
┌▓È_1
  5
57D
 10
1101.73
 20
-557.736
 30
0.000000
  70
    32
  0
VERTEX
  8
┌▓È_1
  5
57E
 10
1101.78
 20
-557.749
 30
0.000000
  70
    32
  0
VERTEX
  8
┌▓È_1
  5
57F
 10
1101.82
 20
-557.761
 30
0.000000
  70
    32
  0
VERTEX
  8
┌▓È_1
  5
580
 10
1101.86
 20
-557.773
 30
0.000000
  70
    32
  0
VERTEX
  8
┌▓È_1
  5
581
 10
1101.91
 20
-557.785
 30
0.000000
  70
    32
  0
VERTEX
  8
┌▓È_1
  5
582
 10
1101.95
 20
-557.797
 30
0.000000
  70
    32
  0
VERTEX
  8
┌▓È_1
  5
583
 10
1102.00
 20
-557.808
 30
0.000000
  70
    32
  0
VERTEX
  8
┌▓È_1
  5
584
 10
1102.04
 20
-557.820
 30
0.000000
  70
    32
  0
VERTEX
  8
┌▓È_1
  5
585
 10
1102.08
 20
-557.832
 30
0.000000
  70
    32
  0
VERTEX
  8
┌▓È_1
  5
586
 10
1102.13
 20
-557.844
 30
0.000000
  70
    32
  0
VERTEX
  8
┌▓È_1
  5
587
 10
1102.17
 20
-557.855
 30
0.000000
  70
    32
  0
VERTEX
  8
┌▓È_1
  5
588
 10
1102.22
 20
-557.867
 30
0.000000
  70
    32
  0
VERTEX
  8
┌▓È_1
  5
589
 10
1102.26
 20
-557.878
 30
0.000000
  70
    32
  0
VERTEX
  8
┌▓È_1
  5
58A
 10
1102.31
 20
-557.889
 30
0.000000
  70
    32
  0
VERTEX
  8
┌▓È_1
  5
58B
 10
1102.35
 20
-557.901
 30
0.000000
  70
    32
  0
VERTEX
  8
┌▓È_1
  5
58C
 10
1102.39
 20
-557.912
 30
0.000000
  70
    32
  0
VERTEX
  8
┌▓È_1
  5
58D
 10
1102.44
 20
-557.923
 30
0.000000
  70
    32
  0
VERTEX
  8
┌▓È_1
  5
58E
 10
1102.48
 20
-557.934
 30
0.000000
  70
    32
  0
VERTEX
  8
┌▓È_1
  5
58F
 10
1102.53
 20
-557.945
 30
0.000000
  70
    32
  0
VERTEX
  8
┌▓È_1
  5
590
 10
1102.57
 20
-557.956
 30
0.000000
  70
    32
  0
VERTEX
  8
┌▓È_1
  5
591
 10
1102.62
 20
-557.967
 30
0.000000
  70
    32
  0
VERTEX
  8
┌▓È_1
  5
592
 10
1102.66
 20
-557.978
 30
0.000000
  70
    32
  0
VERTEX
  8
┌▓È_1
  5
593
 10
1102.71
 20
-557.989
 30
0.000000
  70
    32
  0
VERTEX
  8
┌▓È_1
  5
594
 10
1102.75
 20
-558.000
 30
0.000000
  70
    32
  0
VERTEX
  8
┌▓È_1
  5
595
 10
1102.80
 20
-558.011
 30
0.000000
  70
    32
  0
VERTEX
  8
┌▓È_1
  5
596
 10
1102.84
 20
-558.021
 30
0.000000
  70
    32
  0
VERTEX
  8
┌▓È_1
  5
597
 10
1102.88
 20
-558.032
 30
0.000000
  70
    32
  0
VERTEX
  8
┌▓È_1
  5
598
 10
1102.93
 20
-558.042
 30
0.000000
  70
    32
  0
VERTEX
  8
┌▓È_1
  5
599
 10
1102.97
 20
-558.053
 30
0.000000
  70
    32
  0
VERTEX
  8
┌▓È_1
  5
59A
 10
1103.02
 20
-558.063
 30
0.000000
  70
    32
  0
VERTEX
  8
┌▓È_1
  5
59B
 10
1103.06
 20
-558.074
 30
0.000000
  70
    32
  0
VERTEX
  8
┌▓È_1
  5
59C
 10
1103.11
 20
-558.084
 30
0.000000
  70
    32
  0
VERTEX
  8
┌▓È_1
  5
59D
 10
1103.15
 20
-558.094
 30
0.000000
  70
    32
  0
VERTEX
  8
┌▓È_1
  5
59E
 10
1103.20
 20
-558.105
 30
0.000000
  70
    32
  0
VERTEX
  8
┌▓È_1
  5
59F
 10
1103.24
 20
-558.115
 30
0.000000
  70
    32
  0
VERTEX
  8
┌▓È_1
  5
5A0
 10
1103.29
 20
-558.125
 30
0.000000
  70
    32
  0
VERTEX
  8
┌▓È_1
  5
5A1
 10
1103.33
 20
-558.135
 30
0.000000
  70
    32
  0
VERTEX
  8
┌▓È_1
  5
5A2
 10
1103.38
 20
-558.145
 30
0.000000
  70
    32
  0
VERTEX
  8
┌▓È_1
  5
5A3
 10
1103.43
 20
-558.155
 30
0.000000
  70
    32
  0
VERTEX
  8
┌▓È_1
  5
5A4
 10
1103.47
 20
-558.165
 30
0.000000
  70
    32
  0
VERTEX
  8
┌▓È_1
  5
5A5
 10
1103.52
 20
-558.175
 30
0.000000
  70
    32
  0
VERTEX
  8
┌▓È_1
  5
5A6
 10
1103.56
 20
-558.185
 30
0.000000
  70
    32
  0
VERTEX
  8
┌▓È_1
  5
5A7
 10
1103.61
 20
-558.194
 30
0.000000
  70
    32
  0
VERTEX
  8
┌▓È_1
  5
5A8
 10
1103.65
 20
-558.204
 30
0.000000
  70
    32
  0
VERTEX
  8
┌▓È_1
  5
5A9
 10
1103.70
 20
-558.214
 30
0.000000
  70
    32
  0
VERTEX
  8
┌▓È_1
  5
5AA
 10
1103.74
 20
-558.223
 30
0.000000
  70
    32
  0
VERTEX
  8
┌▓È_1
  5
5AB
 10
1103.79
 20
-558.233
 30
0.000000
  70
    32
  0
VERTEX
  8
┌▓È_1
  5
5AC
 10
1103.83
 20
-558.243
 30
0.000000
  70
    32
  0
VERTEX
  8
┌▓È_1
  5
5AD
 10
1103.88
 20
-558.252
 30
0.000000
  70
    32
  0
VERTEX
  8
┌▓È_1
  5
5AE
 10
1103.92
 20
-558.262
 30
0.000000
  70
    32
  0
VERTEX
  8
┌▓È_1
  5
5AF
 10
1103.97
 20
-558.271
 30
0.000000
  70
    32
  0
VERTEX
  8
┌▓È_1
  5
5B0
 10
1104.02
 20
-558.280
 30
0.000000
  70
    32
  0
VERTEX
  8
┌▓È_1
  5
5B1
 10
1104.06
 20
-558.290
 30
0.000000
  70
    32
  0
VERTEX
  8
┌▓È_1
  5
5B2
 10
1104.11
 20
-558.299
 30
0.000000
  70
    32
  0
VERTEX
  8
┌▓È_1
  5
5B3
 10
1104.15
 20
-558.308
 30
0.000000
  70
    32
  0
VERTEX
  8
┌▓È_1
  5
5B4
 10
1104.20
 20
-558.318
 30
0.000000
  70
    32
  0
VERTEX
  8
┌▓È_1
  5
5B5
 10
1104.24
 20
-558.327
 30
0.000000
  70
    32
  0
VERTEX
  8
┌▓È_1
  5
5B6
 10
1104.29
 20
-558.336
 30
0.000000
  70
    32
  0
VERTEX
  8
┌▓È_1
  5
5B7
 10
1104.34
 20
-558.345
 30
0.000000
  70
    32
  0
VERTEX
  8
┌▓È_1
  5
5B8
 10
1104.38
 20
-558.354
 30
0.000000
  70
    32
  0
VERTEX
  8
┌▓È_1
  5
5B9
 10
1104.43
 20
-558.363
 30
0.000000
  70
    32
  0
VERTEX
  8
┌▓È_1
  5
5BA
 10
1104.47
 20
-558.372
 30
0.000000
  70
    32
  0
VERTEX
  8
┌▓È_1
  5
5BB
 10
1104.52
 20
-558.381
 30
0.000000
  70
    32
  0
VERTEX
  8
┌▓È_1
  5
5BC
 10
1104.56
 20
-558.390
 30
0.000000
  70
    32
  0
VERTEX
  8
┌▓È_1
  5
5BD
 10
1104.61
 20
-558.399
 30
0.000000
  70
    32
  0
VERTEX
  8
┌▓È_1
  5
5BE
 10
1104.66
 20
-558.408
 30
0.000000
  70
    32
  0
VERTEX
  8
┌▓È_1
  5
5BF
 10
1104.70
 20
-558.417
 30
0.000000
  70
    32
  0
VERTEX
  8
┌▓È_1
  5
5C0
 10
1104.75
 20
-558.425
 30
0.000000
  70
    32
  0
VERTEX
  8
┌▓È_1
  5
5C1
 10
1104.79
 20
-558.434
 30
0.000000
  70
    32
  0
VERTEX
  8
┌▓È_1
  5
5C2
 10
1104.84
 20
-558.443
 30
0.000000
  70
    32
  0
VERTEX
  8
┌▓È_1
  5
5C3
 10
1104.89
 20
-558.452
 30
0.000000
  70
    32
  0
VERTEX
  8
┌▓È_1
  5
5C4
 10
1104.93
 20
-558.460
 30
0.000000
  70
    32
  0
VERTEX
  8
┌▓È_1
  5
5C5
 10
1104.98
 20
-558.469
 30
0.000000
  70
    32
  0
VERTEX
  8
┌▓È_1
  5
5C6
 10
1105.02
 20
-558.477
 30
0.000000
  70
    32
  0
VERTEX
  8
┌▓È_1
  5
5C7
 10
1105.07
 20
-558.486
 30
0.000000
  70
    32
  0
VERTEX
  8
┌▓È_1
  5
5C8
 10
1105.12
 20
-558.495
 30
0.000000
  70
    32
  0
VERTEX
  8
┌▓È_1
  5
5C9
 10
1105.16
 20
-558.503
 30
0.000000
  70
    32
  0
VERTEX
  8
┌▓È_1
  5
5CA
 10
1105.21
 20
-558.512
 30
0.000000
  70
    32
  0
VERTEX
  8
┌▓È_1
  5
5CB
 10
1105.25
 20
-558.520
 30
0.000000
  70
    32
  0
VERTEX
  8
┌▓È_1
  5
5CC
 10
1105.30
 20
-558.529
 30
0.000000
  70
    32
  0
VERTEX
  8
┌▓È_1
  5
5CD
 10
1105.35
 20
-558.537
 30
0.000000
  70
    32
  0
VERTEX
  8
┌▓È_1
  5
5CE
 10
1105.39
 20
-558.545
 30
0.000000
  70
    32
  0
VERTEX
  8
┌▓È_1
  5
5CF
 10
1105.44
 20
-558.554
 30
0.000000
  70
    32
  0
VERTEX
  8
┌▓È_1
  5
5D0
 10
1105.49
 20
-558.562
 30
0.000000
  70
    32
  0
VERTEX
  8
┌▓È_1
  5
5D1
 10
1105.53
 20
-558.570
 30
0.000000
  70
    32
  0
VERTEX
  8
┌▓È_1
  5
5D2
 10
1105.58
 20
-558.579
 30
0.000000
  70
    32
  0
VERTEX
  8
┌▓È_1
  5
5D3
 10
1105.62
 20
-558.587
 30
0.000000
  70
    32
  0
VERTEX
  8
┌▓È_1
  5
5D4
 10
1105.67
 20
-558.595
 30
0.000000
  70
    32
  0
VERTEX
  8
┌▓È_1
  5
5D5
 10
1105.72
 20
-558.603
 30
0.000000
  70
    32
  0
VERTEX
  8
┌▓È_1
  5
5D6
 10
1105.76
 20
-558.612
 30
0.000000
  70
    32
  0
VERTEX
  8
┌▓È_1
  5
5D7
 10
1105.81
 20
-558.620
 30
0.000000
  70
    32
  0
VERTEX
  8
┌▓È_1
  5
5D8
 10
1105.86
 20
-558.628
 30
0.000000
  70
    32
  0
VERTEX
  8
┌▓È_1
  5
5D9
 10
1105.90
 20
-558.636
 30
0.000000
  70
    32
  0
VERTEX
  8
┌▓È_1
  5
5DA
 10
1105.95
 20
-558.644
 30
0.000000
  70
    32
  0
VERTEX
  8
┌▓È_1
  5
5DB
 10
1105.99
 20
-558.652
 30
0.000000
  70
    32
  0
VERTEX
  8
┌▓È_1
  5
5DC
 10
1106.04
 20
-558.661
 30
0.000000
  70
    32
  0
VERTEX
  8
┌▓È_1
  5
5DD
 10
1106.09
 20
-558.669
 30
0.000000
  70
    32
  0
VERTEX
  8
┌▓È_1
  5
5DE
 10
1106.13
 20
-558.677
 30
0.000000
  70
    32
  0
VERTEX
  8
┌▓È_1
  5
5DF
 10
1106.18
 20
-558.685
 30
0.000000
  70
    32
  0
VERTEX
  8
┌▓È_1
  5
5E0
 10
1106.23
 20
-558.693
 30
0.000000
  70
    32
  0
VERTEX
  8
┌▓È_1
  5
5E1
 10
1106.27
 20
-558.701
 30
0.000000
  70
    32
  0
VERTEX
  8
┌▓È_1
  5
5E2
 10
1106.32
 20
-558.709
 30
0.000000
  70
    32
  0
VERTEX
  8
┌▓È_1
  5
5E3
 10
1106.37
 20
-558.717
 30
0.000000
  70
    32
  0
VERTEX
  8
┌▓È_1
  5
5E4
 10
1106.41
 20
-558.725
 30
0.000000
  70
    32
  0
VERTEX
  8
┌▓È_1
  5
5E5
 10
1106.46
 20
-558.733
 30
0.000000
  70
    32
  0
VERTEX
  8
┌▓È_1
  5
5E6
 10
1106.51
 20
-558.741
 30
0.000000
  70
    32
  0
VERTEX
  8
┌▓È_1
  5
5E7
 10
1106.55
 20
-558.749
 30
0.000000
  70
    32
  0
VERTEX
  8
┌▓È_1
  5
5E8
 10
1106.60
 20
-558.757
 30
0.000000
  70
    32
  0
VERTEX
  8
┌▓È_1
  5
5E9
 10
1106.64
 20
-558.765
 30
0.000000
  70
    32
  0
VERTEX
  8
┌▓È_1
  5
5EA
 10
1106.69
 20
-558.773
 30
0.000000
  70
    32
  0
VERTEX
  8
┌▓È_1
  5
5EB
 10
1106.74
 20
-558.780
 30
0.000000
  70
    32
  0
VERTEX
  8
┌▓È_1
  5
5EC
 10
1106.78
 20
-558.788
 30
0.000000
  70
    32
  0
VERTEX
  8
┌▓È_1
  5
5ED
 10
1106.83
 20
-558.796
 30
0.000000
  70
    32
  0
VERTEX
  8
┌▓È_1
  5
5EE
 10
1106.88
 20
-558.804
 30
0.000000
  70
    32
  0
VERTEX
  8
┌▓È_1
  5
5EF
 10
1106.92
 20
-558.812
 30
0.000000
  70
    32
  0
VERTEX
  8
┌▓È_1
  5
5F0
 10
1106.97
 20
-558.820
 30
0.000000
  70
    32
  0
VERTEX
  8
┌▓È_1
  5
5F1
 10
1107.02
 20
-558.828
 30
0.000000
  70
    32
  0
VERTEX
  8
┌▓È_1
  5
5F2
 10
1107.06
 20
-558.836
 30
0.000000
  70
    32
  0
VERTEX
  8
┌▓È_1
  5
5F3
 10
1107.11
 20
-558.844
 30
0.000000
  70
    32
  0
VERTEX
  8
┌▓È_1
  5
5F4
 10
1107.16
 20
-558.851
 30
0.000000
  70
    32
  0
VERTEX
  8
┌▓È_1
  5
5F5
 10
1107.20
 20
-558.859
 30
0.000000
  70
    32
  0
VERTEX
  8
┌▓È_1
  5
5F6
 10
1107.25
 20
-558.867
 30
0.000000
  70
    32
  0
VERTEX
  8
┌▓È_1
  5
5F7
 10
1107.30
 20
-558.875
 30
0.000000
  70
    32
  0
VERTEX
  8
┌▓È_1
  5
5F8
 10
1107.34
 20
-558.883
 30
0.000000
  70
    32
  0
VERTEX
  8
┌▓È_1
  5
5F9
 10
1107.39
 20
-558.891
 30
0.000000
  70
    32
  0
SEQEND
  8
┌▓È_1
  5
5FA
  0
LINE
  5
254
  8
┌▓È_1
 62
     5
 10
1128.1306573633001
 20
-555.89071341609997
 30
0.0
 11
1127.5551278308999
 21
-553.89071341609986
 31
0.0
  0
LINE
  5
255
  8
┌▓È_1
 62
     5
 10
1112.9327754929
 20
-555.89071341609997
 30
0.0
 11
1121.0861088263
 21
-555.89071341609997
 31
0.0
  0
INSERT
  5
256
  8
0
  6
CONTINUOUS
  2
*U36
 10
0.0
 20
0.0
 30
0.0
  0
INSERT
  5
257
  8
0
  6
CONTINUOUS
  2
*U37
 10
0.0
 20
0.0
 30
0.0
  0
INSERT
  5
258
  8
0
  6
CONTINUOUS
  2
*U38
 10
0.0
 20
0.0
 30
0.0
  0
LINE
  5
259
  8
┌▓È_1
 62
     5
 10
1128.1306573633001
 20
-555.89071341609997
 30
0.0
 11
1135.4327754929
 21
-555.89071341609997
 31
0.0
  0
LINE
  5
25A
  8
┌▓È_1
 62
     5
 10
1130.4327754929
 20
-563.89071341609997
 30
0.0
 11
1129.4255988112
 21
-560.39071341609997
 31
0.0
  0
LINE
  5
25B
  8
┌▓È_1
 62
     5
 10
1334.0859375
 20
-568.35364583329999
 30
0.0
 11
1334.0859375
 21
-485.85364583329988
 31
0.0
  0
LINE
  5
25C
  8
┌▓È_1
 62
     5
 10
1202.91875
 20
-5.7253490795999991
 30
0.0
 11
1201.91875
 21
-5.7253490795999991
 31
0.0
  0
LINE
  5
25D
  8
┌▓È_1
 62
     5
 10
1202.8187499999999
 20
-5.7260633667999992
 30
0.0
 11
1202.3187499999999
 21
-5.7260633667999992
 31
0.0
  0
LINE
  5
25E
  8
┌▓È_1
 62
     5
 10
1201.8187499999999
 20
-3.2253490795999991
 30
0.0
 11
1201.8187499999999
 21
-23.726063366799998
 31
0.0
  0
LINE
  5
25F
  8
┌▓È_1
 62
     5
 10
1201.8187499999999
 20
-23.726063366799998
 30
0.0
 11
1200.7673826201001
 21
-25.807362787700001
 31
0.0
  0
ARC
  5
260
  8
┌▓È_1
 62
     5
 10
1201.8187499999999
 20
-23.726063366799998
 30
0.0
 40
0.5
 50
270.16370244989997
 51
0.0
  0
LINE
  5
261
  8
┌▓È_1
 62
     5
 10
1201.91875
 20
-27.725349079600001
 30
0.0
 11
1201.3187499999999
 21
-27.725349079600001
 31
0.0
  0
LINE
  5
262
  8
┌▓È_1
 62
     5
 10
1201.3187499999999
 20
-27.725349079600001
 30
0.0
 11
1200.7458615067001
 21
-25.732499453500001
 31
0.0
  0
ARC
  5
263
  8
┌▓È_1
 62
     5
 10
1202.3187499999999
 20
-3.2253490795999991
 30
0.0
 40
0.5
 50
0.0
 51
180.0
  0
LINE
  5
264
  8
┌▓È_1
 62
     5
 10
1202.8187499999999
 20
-3.2253490795999991
 30
0.0
 11
1202.8187499999999
 21
-5.7260633667999992
 31
0.0
  0
LINE
  5
265
  8
┌▓È_1
 62
     5
 10
1202.3187499999999
 20
-3.2253490795999991
 30
0.0
 11
1202.3187499999999
 21
-5.7253490795999991
 31
0.0
  0
LINE
  5
266
  8
┌▓È_1
  6
BORDER
 62
     3
 10
880.35355004479993
 20
-36.726063366799998
 30
0.0
 11
870.35355004479993
 21
-36.726063366799998
 31
0.0
  0
LINE
  5
267
  8
┌▓È_1
  6
BORDER
 62
     3
 10
880.35355004479993
 20
-141.72606336679999
 30
0.0
 11
870.35355004479993
 21
-141.72606336679999
 31
0.0
  0
LINE
  5
268
  8
┌▓È_1
  6
BORDER
 62
     3
 10
846.35355004479993
 20
-7.7253490795999991
 30
0.0
 11
846.35355004479993
 21
-17.725349079600001
 31
0.0
  0
LINE
  5
269
  8
┌▓È_1
 62
     5
 10
863.06175397729999
 20
-22.726063366799998
 30
0.0
 11
866.06019047479981
 21
-22.726063366799998
 31
0.0
  0
LINE
  5
26A
  8
┌▓È_1
 62
     5
 10
866.06019047479981
 20
-22.726063366799998
 30
0.0
 11
866.35355004479993
 21
-23.067091510099999
 31
0.0
  0
ARC
  5
26B
  8
┌▓È_1
 62
     5
 10
863.06175397729999
 20
-25.726063366799998
 30
0.0
 40
3.0
 50
90.0
 51
116.5650511771
  0
ARC
  5
26C
  8
┌▓È_1
 62
     5
 10
866.55355004479986
 20
-23.644845544799999
 30
0.0
 40
0.5
 50
180.0
 51
246.42182152180001
  0
LINE
  5
26D
  8
┌▓È_1
  6
STITCH
 10
866.35355004479993
 20
-24.103103114300001
 30
0.0
 11
864.05355004479986
 21
-24.628558910500001
 31
0.0
  0
LINE
  5
26E
  8
┌▓È_1
 62
     5
 10
870.35355004479993
 20
-23.025349079600002
 30
0.0
 11
866.55355004479986
 21
-23.025349079600002
 31
0.0
  0
ARC
  5
26F
  8
┌▓È_1
 62
     5
 10
866.55355004479986
 20
-23.525349079600002
 30
0.0
 40
0.5
 50
90.0
 51
180.0
  0
CIRCLE
  5
270
  8
┌▓È_1
 62
     5
 10
875.35355004479982
 20
-141.72606336679999
 30
0.0
 40
2.0
  0
LINE
  5
271
  8
┌▓È_1
  6
STITCH
 10
866.35355004479993
 20
-4.7260633668000001
 30
0.0
 11
866.35355004479993
 21
-23.067091510099999
 31
0.0
  0
LINE
  5
272
  8
┌▓È_1
 62
     5
 10
870.35355004479993
 20
-23.025349079600002
 30
0.0
 11
870.35355004479993
 21
-1.7260633668000001
 31
0.0
  0
LINE
  5
273
  8
┌▓È_1
 62
     5
 10
886.35355004480004
 20
-4.7260633668000001
 30
0.0
 11
870.35355004479993
 21
-4.7260633668000001
 31
0.0
  0
LINE
  5
274
  8
┌▓È_1
  6
STITCH
 10
870.35355004479993
 20
-4.7260633668000001
 30
0.0
 11
866.35355004479993
 21
-4.7260633668000001
 31
0.0
  0
ENDSEC
  0
EOF
