  0
SECTION
  2
HEADER
  9
$ACADVER
  1
AC1009
  9
$INSBASE
 10
0.0
 20
0.0
 30
0.0
  9
$EXTMIN
 10
-508.3675130208
 20
-493.34333767359988
 30
0.0
  9
$EXTMAX
 10
587.85084635420003
 20
305.96291232639999
 30
0.0
  9
$LIMMIN
 10
0.0
 20
0.0
  9
$LIMMAX
 10
0.0
 20
0.0
  9
$ORTHOMODE
 70
     0
  9
$REGENMODE
 70
     1
  9
$FILLMODE
 70
     1
  9
$QTEXTMODE
 70
     0
  9
$MIRRTEXT
 70
     1
  9
$DRAGMODE
 70
     2
  9
$LTSCALE
 40
1.0
  9
$OSMODE
 70
    31
  9
$ATTMODE
 70
     1
  9
$TEXTSIZE
 40
0.0
  9
$TRACEWID
 40
0.05
  9
$TEXTSTYLE
  7
STANDARD
  9
$CLAYER
  8
0
  9
$CELTYPE
  6
CONTINUOUS
  9
$CECOLOR
 62
   256
  9
$DIMSCALE
 40
1.0
  9
$DIMASZ
 40
0.18
  9
$DIMEXO
 40
0.0625
  9
$DIMDLI
 40
0.38
  9
$DIMRND
 40
0.0
  9
$DIMDLE
 40
0.0
  9
$DIMEXE
 40
0.18
  9
$DIMTP
 40
0.0
  9
$DIMTM
 40
0.0
  9
$DIMTXT
 40
0.18
  9
$DIMCEN
 40
0.09
  9
$DIMTSZ
 40
0.0
  9
$DIMTOL
 70
     0
  9
$DIMLIM
 70
     0
  9
$DIMTIH
 70
     1
  9
$DIMTOH
 70
     1
  9
$DIMSE1
 70
     0
  9
$DIMSE2
 70
     0
  9
$DIMTAD
 70
     0
  9
$DIMZIN
 70
     0
  9
$DIMBLK
  1

  9
$DIMASO
 70
     1
  9
$DIMSHO
 70
     1
  9
$DIMPOST
  1

  9
$DIMAPOST
  1

  9
$DIMALT
 70
     0
  9
$DIMALTD
 70
     2
  9
$DIMALTF
 40
25.399999999999999
  9
$DIMLFAC
 40
1.0
  9
$DIMTOFL
 70
     0
  9
$DIMTVP
 40
0.0
  9
$DIMTIX
 70
     0
  9
$DIMSOXD
 70
     0
  9
$DIMSAH
 70
     0
  9
$DIMBLK1
  1

  9
$DIMBLK2
  1

  9
$DIMSTYLE
  2
STANDARD
  9
$DIMCLRD
 70
     0
  9
$DIMCLRE
 70
     0
  9
$DIMCLRT
 70
     0
  9
$DIMTFAC
 40
1.0
  9
$DIMGAP
 40
0.09
  9
$LUNITS
 70
     2
  9
$LUPREC
 70
     4
  9
$SKETCHINC
 40
0.1
  9
$FILLETRAD
 40
0.0
  9
$AUNITS
 70
     0
  9
$AUPREC
 70
     0
  9
$MENU
  1
acad
  9
$ELEVATION
 40
0.0
  9
$PELEVATION
 40
0.0
  9
$THICKNESS
 40
0.0
  9
$LIMCHECK
 70
     0
  9
$BLIPMODE
 70
     0
  9
$CHAMFERA
 40
0.0
  9
$CHAMFERB
 40
0.0
  9
$SKPOLY
 70
     0
  9
$TDCREATE
 40
2454861.6137850811
  9
$TDUPDATE
 40
2454861.6141952309
  9
$TDINDWG
 40
0.0004504861
  9
$TDUSRTIMER
 40
0.0004466782
  9
$USRTIMER
 70
     1
  9
$ANGBASE
 50
0.0
  9
$ANGDIR
 70
     0
  9
$PDMODE
 70
     3
  9
$PDSIZE
 40
-1.0
  9
$PLINEWID
 40
0.0
  9
$COORDS
 70
     2
  9
$SPLFRAME
 70
     0
  9
$SPLINETYPE
 70
     6
  9
$SPLINESEGS
 70
     8
  9
$ATTDIA
 70
     0
  9
$ATTREQ
 70
     1
  9
$HANDLING
 70
     1
  9
$HANDSEED
  5
9E2
  9
$SURFTAB1
 70
     6
  9
$SURFTAB2
 70
     6
  9
$SURFTYPE
 70
     6
  9
$SURFU
 70
     6
  9
$SURFV
 70
     6
  9
$UCSNAME
  2

  9
$UCSORG
 10
0.0
 20
0.0
 30
0.0
  9
$UCSXDIR
 10
1.0
 20
0.0
 30
0.0
  9
$UCSYDIR
 10
0.0
 20
1.0
 30
0.0
  9
$PUCSNAME
  2

  9
$PUCSORG
 10
0.0
 20
0.0
 30
0.0
  9
$PUCSXDIR
 10
1.0
 20
0.0
 30
0.0
  9
$PUCSYDIR
 10
0.0
 20
1.0
 30
0.0
  9
$USERI1
 70
     0
  9
$USERI2
 70
     0
  9
$USERI3
 70
     0
  9
$USERI4
 70
     0
  9
$USERI5
 70
     0
  9
$USERR1
 40
0.0
  9
$USERR2
 40
0.0
  9
$USERR3
 40
0.0
  9
$USERR4
 40
0.0
  9
$USERR5
 40
0.0
  9
$WORLDVIEW
 70
     1
  9
$SHADEDGE
 70
     3
  9
$SHADEDIF
 70
    70
  9
$TILEMODE
 70
     1
  9
$MAXACTVP
 70
    16
  9
$PLIMCHECK
 70
     0
  9
$PEXTMIN
 10
1.0000000000000000E+020
 20
1.0000000000000000E+020
 30
1.0000000000000000E+020
  9
$PEXTMAX
 10
-1.0000000000000000E+020
 20
-1.0000000000000000E+020
 30
-1.0000000000000000E+020
  9
$PLIMMIN
 10
0.0
 20
0.0
  9
$PLIMMAX
 10
12.0
 20
9.0
  9
$UNITMODE
 70
     0
  9
$VISRETAIN
 70
     0
  9
$PLINEGEN
 70
     1
  9
$PSLTSCALE
 70
     0
  0
ENDSEC
  0
SECTION
  2
TABLES
  0
TABLE
  2
VPORT
 70
     2
  0
VPORT
  2
*ACTIVE
 70
     0
 10
0.0
 20
0.0
 11
1.0
 21
1.0
 12
330.07279237831261
 22
-353.9352586886024
 13
0.0
 23
0.0
 14
1.0
 24
1.0
 15
0.0
 25
0.0
 16
0.0
 26
0.0
 36
1.0
 17
0.0
 27
0.0
 37
0.0
 40
274.12940547223002
 41
1.6343490304709141
 42
50.0
 43
0.0
 44
0.0
 50
0.0
 51
0.0
 71
     0
 72
   100
 73
     1
 74
     1
 75
     0
 76
     0
 77
     0
 78
     0
  0
ENDTAB
  0
TABLE
  2
LTYPE
 70
    11
  0
LTYPE
  2
CONTINUOUS
 70
     0
  3
Solid line
 72
    65
 73
     0
 40
0.0
  0
LTYPE
  2
DOT
 70
     0
  3
. . . . . . . . 
 72
    65
 73
     2
 40
1.0
 49
0.0
 49
-1.0
  0
LTYPE
  2
DASHED
 70
     0
  3
___  ___  ___  ___  
 72
    65
 73
     2
 40
4.0
 49
3.0
 49
-1.0
  0
LTYPE
  2
HIDDEN
 70
     0
  3
__ __ __ __ 
 72
    65
 73
     2
 40
3.0
 49
2.0
 49
-1.0
  0
LTYPE
  2
STITCH
 70
     0
  3
_ _ _ _ 
 72
    65
 73
     2
 40
2.0
 49
1.0
 49
-1.0
  0
LTYPE
  2
CENTER
 70
     0
  3
______  __  ______  __  
 72
    65
 73
     4
 40
43.0
 49
40.0
 49
-1.0
 49
1.0
 49
-1.0
  0
LTYPE
  2
DASHDOT
 70
     0
  3
____ . ____ . 
 72
    65
 73
     4
 40
32.0
 49
30.0
 49
-1.0
 49
0.0
 49
-1.0
  0
LTYPE
  2
BORDER
 70
     0
  3
__ . __ . 
 72
    65
 73
     4
 40
22.0
 49
20.0
 49
-1.0
 49
0.0
 49
-1.0
  0
LTYPE
  2
CUTTING
 70
     0
  3
________   ___   ___   
 72
    65
 73
     6
 40
45.0
 49
40.0
 49
-1.0
 49
1.0
 49
-1.0
 49
1.0
 49
-1.0
  0
LTYPE
  2
PHANTOM
 70
     0
  3
______  __  __  
 72
    65
 73
     6
 40
35.0
 49
30.0
 49
-1.0
 49
1.0
 49
-1.0
 49
1.0
 49
-1.0
  0
LTYPE
  2
DIVIDE
 70
     0
  3
____ . . ____ . . 
 72
    65
 73
     6
 40
23.0
 49
20.0
 49
-1.0
 49
0.0
 49
-1.0
 49
0.0
 49
-1.0
  0
ENDTAB
  0
TABLE
  2
LAYER
 70
     3
  0
LAYER
  2
0
 70
     0
 62
     7
  6
CONTINUOUS
  0
LAYER
  2
┌▓È_1
 70
     0
 62
     7
  6
CONTINUOUS
  0
LAYER
  2
Éíû@É³
 70
     0
 62
     7
  6
CONTINUOUS
  0
ENDTAB
  0
TABLE
  2
STYLE
 70
     1
  0
STYLE
  2
STANDARD
 70
     0
 40
0.0
 41
1.0
 50
0.0
 71
     0
 42
0.0
  3
txt
  4
extfont
  0
ENDTAB
  0
TABLE
  2
VIEW
 70
     0
  0
ENDTAB
  0
TABLE
  2
UCS
 70
     0
  0
ENDTAB
  0
TABLE
  2
APPID
 70
     2
  0
APPID
  2
ACAD
 70
     0
  0
APPID
  2
DCO15
 70
     0
  0
ENDTAB
  0
TABLE
  2
DIMSTYLE
 70
     3
  0
DIMSTYLE
  2
STANDARD
 70
     0
  3

  4

  5

  6

  7

 40
1.0
 41
0.18
 42
0.0625
 43
0.38
 44
0.18
 45
0.0
 46
0.0
 47
0.0
 48
0.0
140
0.18
141
0.09
142
0.0
143
25.399999999999999
144
1.0
145
0.0
146
1.0
147
0.09
 71
     0
 72
     0
 73
     1
 74
     1
 75
     0
 76
     0
 77
     0
 78
     0
170
     0
171
     2
172
     0
173
     0
174
     0
175
     0
176
     0
177
     0
178
     0
  0
DIMSTYLE
  2
VELDIM0
 70
     0
  3

  4

  5

  6

  7

 40
1.0
 41
5.7955551146999991
 42
0.0625
 43
0.38
 44
3.0
 45
0.0
 46
15.0
 47
0.0
 48
0.0
140
10.794999837900001
141
0.09
142
0.0
143
25.399999999999999
144
1.0
145
0.0
146
1.0
147
0.09
 71
     0
 72
     0
 73
     0
 74
     0
 75
     0
 76
     0
 77
     0
 78
     8
170
     0
171
     2
172
     0
173
     0
174
     0
175
     0
176
     0
177
     0
178
     0
  0
DIMSTYLE
  2
VELDIM1
 70
     0
  3

  4

  5

  6

  7

 40
1.0
 41
5.7955551146999991
 42
0.0625
 43
0.38
 44
2.0
 45
0.0
 46
10.0
 47
0.0
 48
0.0
140
10.794999837900001
141
0.09
142
0.0
143
25.399999999999999
144
1.0
145
0.0
146
1.0
147
0.09
 71
     0
 72
     0
 73
     0
 74
     0
 75
     0
 76
     0
 77
     0
 78
     8
170
     0
171
     2
172
     0
173
     0
174
     0
175
     0
176
     0
177
     0
178
     0
  0
ENDTAB
  0
ENDSEC
  0
SECTION
  2
BLOCKS
  0
BLOCK
  8
0
  2
$MODEL_SPACE
 70
     0
 10
0.0
 20
0.0
 30
0.0
  3
$MODEL_SPACE
  1

  0
ENDBLK
  5
E
  8
0
  0
BLOCK
 67
     1
  8
0
  2
$PAPER_SPACE
 70
     0
 10
0.0
 20
0.0
 30
0.0
  3
$PAPER_SPACE
  1

  0
ENDBLK
  5
10
 67
     1
  8
0
  0
BLOCK
  8
0
  2
*D0
 70
     1
 10
0.0
 20
0.0
 30
0.0
  3
*D0
  1

  0
TEXT
  5
3A
  8
0
 62
     0
 10
392.40112325519999
 20
-73.201507067199984
 30
0.0
 40
10.794999837900001
  1
20
  0
LINE
  5
3B
  8
0
 62
     0
 10
388.74723329890003
 20
-39.1065070386
 30
0.0
 11
388.74723329890003
 21
-81.106507038600014
 31
0.0
  0
LINE
  5
3C
  8
0
 62
     0
 10
388.74723329890003
 20
-78.1065070386
 30
0.0
 11
388.74723329890003
 21
-78.1065070386
 31
0.0
  0
LINE
  5
3D
  8
0
 62
     0
 10
388.74723329890003
 20
-78.1065070386
 30
0.0
 11
408.75501302079999
 21
-78.1065070386
 31
0.0
  0
LINE
  5
3E
  8
0
 62
     0
 10
408.75501302079999
 20
-78.1065070386
 30
0.0
 11
388.74723329890003
 21
-78.1065070386
 31
0.0
  0
LINE
  5
3F
  8
0
 62
     0
 10
408.75501302079999
 20
-78.1065070386
 30
0.0
 11
408.75501302079999
 21
-78.1065070386
 31
0.0
  0
LINE
  5
40
  8
0
 62
     0
 10
408.75501302079999
 20
-78.1065070386
 30
0.0
 11
393.75501302079999
 21
-78.1065070386
 31
0.0
  0
SOLID
  5
41
  8
0
 62
     0
 10
408.75501302079999
 20
-78.1065070386
 30
0.0
 11
402.9594579061
 21
-79.659421300399998
 31
0.0
 12
402.9594579061
 22
-76.5535927767
 32
0.0
 13
404.40834668479999
 23
-78.1065070386
 33
0.0
  0
LINE
  5
42
  8
0
 62
     0
 10
388.74723329890003
 20
-78.1065070386
 30
0.0
 11
403.74723329890003
 21
-78.1065070386
 31
0.0
  0
SOLID
  5
43
  8
0
 62
     0
 10
388.74723329890003
 20
-78.1065070386
 30
0.0
 11
394.54278841360002
 21
-76.5535927767
 31
0.0
 12
394.54278841360002
 22
-79.659421300399998
 32
0.0
 13
393.09389963500001
 23
-78.1065070386
 33
0.0
  0
ENDBLK
  5
44
  8
0
  0
BLOCK
  8
0
  2
*D1
 70
     1
 10
0.0
 20
0.0
 30
0.0
  3
*D1
  1

  0
TEXT
  5
5A
  8
0
 62
     0
 10
246.06511721609999
 20
71.077563241099995
 30
0.0
 40
10.794999837900001
  1
232
 50
90.0
  0
LINE
  5
5B
  8
0
 62
     0
 10
363.3033470972
 20
-34.930273206199999
 30
0.0
 11
247.97011718749999
 21
-34.930273206199999
 31
0.0
  0
LINE
  5
5C
  8
0
 62
     0
 10
280.75501302079999
 20
197.06972679379999
 30
0.0
 11
247.97011718749999
 21
197.06972679379999
 31
0.0
  0
LINE
  5
5D
  8
0
 62
     0
 10
250.97011718749999
 20
-34.930273206199999
 30
0.0
 11
250.97011718749999
 21
96.477562859599985
 31
0.0
  0
LINE
  5
5E
  8
0
 62
     0
 10
250.97011718749999
 20
-34.930273206199999
 30
0.0
 11
250.97011718749999
 21
64.727563336499998
 31
0.0
  0
LINE
  5
5F
  8
0
 62
     0
 10
250.97011718749999
 20
197.06972679379999
 30
0.0
 11
250.97011718749999
 21
96.477562859599985
 31
0.0
  0
LINE
  5
60
  8
0
 62
     0
 10
250.97011718749999
 20
197.06972679379999
 30
0.0
 11
250.97011718749999
 21
64.727563336499998
 31
0.0
  0
LINE
  5
61
  8
0
 62
     0
 10
250.97011718749999
 20
197.06972679379999
 30
0.0
 11
250.97011718749999
 21
182.06972679379999
 31
0.0
  0
SOLID
  5
62
  8
0
 62
     0
 10
250.97011718749999
 20
197.06972679379999
 30
0.0
 11
252.52303144929999
 21
191.27417167909999
 31
0.0
 12
249.4172029257
 22
191.27417167909999
 32
0.0
 13
250.97011718749999
 23
192.72306045779999
 33
0.0
  0
LINE
  5
63
  8
0
 62
     0
 10
250.97011718749999
 20
-34.930273206199999
 30
0.0
 11
250.97011718749999
 21
-19.930273206199999
 31
0.0
  0
SOLID
  5
64
  8
0
 62
     0
 10
250.97011718749999
 20
-34.930273206199999
 30
0.0
 11
249.4172029257
 21
-29.1347180914
 31
0.0
 12
252.52303144929999
 22
-29.1347180914
 32
0.0
 13
250.97011718749999
 23
-30.583606870099999
 33
0.0
  0
ENDBLK
  5
65
  8
0
  0
BLOCK
  8
0
  2
*D2
 70
     1
 10
0.0
 20
0.0
 30
0.0
  3
*D2
  1

  0
TEXT
  5
69
  8
0
 62
     0
 10
331.9050131162
 20
-73.201507067199984
 30
0.0
 40
10.794999837900001
  1
59
  0
LINE
  5
6A
  8
0
 62
     0
 10
308.75501302079999
 20
187.06972679379999
 30
0.0
 11
308.75501302079999
 21
-81.106507038600014
 31
0.0
  0
LINE
  5
6B
  8
0
 62
     0
 10
308.75501302079999
 20
-78.1065070386
 30
0.0
 11
350.95501283009997
 21
-78.1065070386
 31
0.0
  0
LINE
  5
6C
  8
0
 62
     0
 10
308.75501302079999
 20
-78.1065070386
 30
0.0
 11
325.5550132116
 21
-78.1065070386
 31
0.0
  0
LINE
  5
6D
  8
0
 62
     0
 10
367.75501302079999
 20
-78.1065070386
 30
0.0
 11
350.95501283009997
 21
-78.1065070386
 31
0.0
  0
LINE
  5
6E
  8
0
 62
     0
 10
367.75501302079999
 20
-78.1065070386
 30
0.0
 11
325.5550132116
 21
-78.1065070386
 31
0.0
  0
LINE
  5
6F
  8
0
 62
     0
 10
367.75501302079999
 20
-78.1065070386
 30
0.0
 11
352.75501302079999
 21
-78.1065070386
 31
0.0
  0
SOLID
  5
70
  8
0
 62
     0
 10
367.75501302079999
 20
-78.1065070386
 30
0.0
 11
361.9594579061
 21
-79.659421300399998
 31
0.0
 12
361.9594579061
 22
-76.5535927767
 32
0.0
 13
363.40834668480011
 23
-78.1065070386
 33
0.0
  0
LINE
  5
71
  8
0
 62
     0
 10
308.75501302079999
 20
-78.1065070386
 30
0.0
 11
323.75501302079999
 21
-78.1065070386
 31
0.0
  0
SOLID
  5
72
  8
0
 62
     0
 10
308.75501302079999
 20
-78.1065070386
 30
0.0
 11
314.55056813559997
 21
-76.5535927767
 31
0.0
 12
314.55056813559997
 22
-79.659421300399998
 32
0.0
 13
313.10167935689998
 23
-78.1065070386
 33
0.0
  0
ENDBLK
  5
73
  8
0
  0
BLOCK
  8
0
  2
*D3
 70
     1
 10
0.0
 20
0.0
 30
0.0
  3
*D3
  1

  0
TEXT
  5
77
  8
0
 62
     0
 10
291.4050131162
 20
-73.201507067199984
 30
0.0
 40
10.794999837900001
  1
22
  0
LINE
  5
78
  8
0
 62
     0
 10
286.75501302079999
 20
187.06972679379999
 30
0.0
 11
286.75501302079999
 21
-81.106507038600014
 31
0.0
  0
LINE
  5
79
  8
0
 62
     0
 10
286.75501302079999
 20
-78.1065070386
 30
0.0
 11
286.75501302079999
 21
-78.1065070386
 31
0.0
  0
LINE
  5
7A
  8
0
 62
     0
 10
286.75501302079999
 20
-78.1065070386
 30
0.0
 11
308.75501302079999
 21
-78.1065070386
 31
0.0
  0
LINE
  5
7B
  8
0
 62
     0
 10
308.75501302079999
 20
-78.1065070386
 30
0.0
 11
286.75501302079999
 21
-78.1065070386
 31
0.0
  0
LINE
  5
7C
  8
0
 62
     0
 10
308.75501302079999
 20
-78.1065070386
 30
0.0
 11
308.75501302079999
 21
-78.1065070386
 31
0.0
  0
LINE
  5
7D
  8
0
 62
     0
 10
308.75501302079999
 20
-78.1065070386
 30
0.0
 11
293.75501302079999
 21
-78.1065070386
 31
0.0
  0
SOLID
  5
7E
  8
0
 62
     0
 10
308.75501302079999
 20
-78.1065070386
 30
0.0
 11
302.9594579061
 21
-79.659421300399998
 31
0.0
 12
302.9594579061
 22
-76.5535927767
 32
0.0
 13
304.40834668479999
 23
-78.1065070386
 33
0.0
  0
LINE
  5
7F
  8
0
 62
     0
 10
286.75501302079999
 20
-78.1065070386
 30
0.0
 11
301.75501302079999
 21
-78.1065070386
 31
0.0
  0
SOLID
  5
80
  8
0
 62
     0
 10
286.75501302079999
 20
-78.1065070386
 30
0.0
 11
292.55056813559997
 21
-76.5535927767
 31
0.0
 12
292.55056813559997
 22
-79.659421300399998
 32
0.0
 13
291.10167935689998
 23
-78.1065070386
 33
0.0
  0
ENDBLK
  5
81
  8
0
  0
BLOCK
  8
0
  2
*D4
 70
     1
 10
0.0
 20
0.0
 30
0.0
  3
*D4
  1

  0
TEXT
  5
137
  8
0
 62
     0
 10
178.84641914369999
 20
-167.98835940359999
 30
0.0
 40
10.794999837900001
  1
20
  0
LINE
  5
138
  8
0
 62
     0
 10
195.19641904829999
 20
-197.89335937499999
 30
0.0
 11
195.19641904829999
 21
-169.89335937499999
 31
0.0
  0
LINE
  5
139
  8
0
 62
     0
 10
195.19641904829999
 20
-171.89335937499999
 30
0.0
 11
195.19641904829999
 21
-171.89335937499999
 31
0.0
  0
LINE
  5
13A
  8
0
 62
     0
 10
195.19641904829999
 20
-171.89335937499999
 30
0.0
 11
175.19641904829999
 21
-171.89335937499999
 31
0.0
  0
LINE
  5
13B
  8
0
 62
     0
 10
175.19641904829999
 20
-171.89335937499999
 30
0.0
 11
195.19641904829999
 21
-171.89335937499999
 31
0.0
  0
LINE
  5
13C
  8
0
 62
     0
 10
175.19641904829999
 20
-171.89335937499999
 30
0.0
 11
175.19641904829999
 21
-171.89335937499999
 31
0.0
  0
LINE
  5
13D
  8
0
 62
     0
 10
175.19641904829999
 20
-171.89335937499999
 30
0.0
 11
185.19641904829999
 21
-171.89335937499999
 31
0.0
  0
SOLID
  5
13E
  8
0
 62
     0
 10
175.19641904829999
 20
-171.89335937499999
 30
0.0
 11
180.9919741631
 21
-170.34044511319999
 31
0.0
 12
180.9919741631
 22
-173.44627363679999
 32
0.0
 13
179.5430853844
 23
-171.89335937499999
 33
0.0
  0
LINE
  5
13F
  8
0
 62
     0
 10
195.19641904829999
 20
-171.89335937499999
 30
0.0
 11
185.19641904829999
 21
-171.89335937499999
 31
0.0
  0
SOLID
  5
140
  8
0
 62
     0
 10
195.19641904829999
 20
-171.89335937499999
 30
0.0
 11
189.40086393359999
 21
-173.44627363679999
 31
0.0
 12
189.40086393359999
 22
-170.34044511319999
 32
0.0
 13
190.8497527122
 23
-171.89335937499999
 33
0.0
  0
ENDBLK
  5
141
  8
0
  0
BLOCK
  8
0
  2
*D5
 70
     1
 10
0.0
 20
0.0
 30
0.0
  3
*D5
  1

  0
TEXT
  5
1D2
  8
0
 62
     0
 10
-46.578697888100002
 20
197.8687785681
 30
0.0
 40
10.794999837900001
  1
P=40
 50
90.0
  0
LINE
  5
1D3
  8
0
 62
     0
 10
-73.752734375000003
 20
140.58447282329999
 30
0.0
 11
-38.6736979167
 21
140.58447282329999
 31
0.0
  0
LINE
  5
1D4
  8
0
 62
     0
 10
-73.752734375000003
 20
180.60256309810001
 30
0.0
 11
-38.6736979167
 21
180.60256309810001
 31
0.0
  0
LINE
  5
1D5
  8
0
 62
     0
 10
-41.6736979167
 20
140.58447282329999
 30
0.0
 11
-41.6736979167
 21
229.6187780912
 31
0.0
  0
LINE
  5
1D6
  8
0
 62
     0
 10
-41.6736979167
 20
140.58447282329999
 30
0.0
 11
-41.6736979167
 21
191.51877866340001
 31
0.0
  0
LINE
  5
1D7
  8
0
 62
     0
 10
-41.6736979167
 20
180.60256309810001
 30
0.0
 11
-41.6736979167
 21
229.6187780912
 31
0.0
  0
LINE
  5
1D8
  8
0
 62
     0
 10
-41.6736979167
 20
180.60256309810001
 30
0.0
 11
-41.6736979167
 21
191.51877866340001
 31
0.0
  0
LINE
  5
1D9
  8
0
 62
     0
 10
-41.6736979167
 20
180.60256309810001
 30
0.0
 11
-41.6736979167
 21
165.60256309810001
 31
0.0
  0
SOLID
  5
1DA
  8
0
 62
     0
 10
-41.6736979167
 20
180.60256309810001
 30
0.0
 11
-40.120783654799993
 21
174.8070079833
 31
0.0
 12
-43.226612178499998
 22
174.8070079833
 32
0.0
 13
-41.6736979167
 23
176.25589676199999
 33
0.0
  0
LINE
  5
1DB
  8
0
 62
     0
 10
-41.6736979167
 20
140.58447282329999
 30
0.0
 11
-41.6736979167
 21
155.58447282329999
 31
0.0
  0
SOLID
  5
1DC
  8
0
 62
     0
 10
-41.6736979167
 20
140.58447282329999
 30
0.0
 11
-43.226612178499998
 21
146.38002793800001
 31
0.0
 12
-40.120783654799993
 22
146.38002793800001
 32
0.0
 13
-41.6736979167
 23
144.93113915929999
 33
0.0
  0
ENDBLK
  5
1DD
  8
0
  0
BLOCK
  8
0
  2
*D6
 70
     1
 10
0.0
 20
0.0
 30
0.0
  3
*D6
  1

  0
TEXT
  5
214
  8
0
 62
     0
 10
-440.45858092309999
 20
71.544726936899991
 30
0.0
 40
10.794999837900001
  1
232
 50
90.0
  0
LINE
  5
215
  8
0
 62
     0
 10
-408.80358095169993
 20
197.06972679379999
 30
0.0
 11
-438.55358095169998
 21
197.06972679379999
 31
0.0
  0
LINE
  5
216
  8
0
 62
     0
 10
-410.55358095169993
 20
-34.930273206199999
 30
0.0
 11
-438.55358095169998
 21
-34.930273206199999
 31
0.0
  0
LINE
  5
217
  8
0
 62
     0
 10
-436.55358095169993
 20
197.06972679379999
 30
0.0
 11
-436.55358095169993
 21
96.944726555400024
 31
0.0
  0
LINE
  5
218
  8
0
 62
     0
 10
-436.55358095169993
 20
197.06972679379999
 30
0.0
 11
-436.55358095169993
 21
65.194727032200007
 31
0.0
  0
LINE
  5
219
  8
0
 62
     0
 10
-436.55358095169993
 20
-34.930273206199999
 30
0.0
 11
-436.55358095169993
 21
96.944726555400024
 31
0.0
  0
LINE
  5
21A
  8
0
 62
     0
 10
-436.55358095169993
 20
-34.930273206199999
 30
0.0
 11
-436.55358095169993
 21
65.194727032200007
 31
0.0
  0
LINE
  5
21B
  8
0
 62
     0
 10
-436.55358095169993
 20
-34.930273206199999
 30
0.0
 11
-436.55358095169993
 21
-24.930273206199999
 31
0.0
  0
SOLID
  5
21C
  8
0
 62
     0
 10
-436.55358095169993
 20
-34.930273206199999
 30
0.0
 11
-438.10649521350001
 21
-29.1347180914
 31
0.0
 12
-435.0006666898999
 22
-29.1347180914
 32
0.0
 13
-436.55358095169993
 23
-30.583606870099999
 33
0.0
  0
LINE
  5
21D
  8
0
 62
     0
 10
-436.55358095169993
 20
197.06972679379999
 30
0.0
 11
-436.55358095169993
 21
187.06972679379999
 31
0.0
  0
SOLID
  5
21E
  8
0
 62
     0
 10
-436.55358095169993
 20
197.06972679379999
 30
0.0
 11
-435.0006666898999
 21
191.27417167909999
 31
0.0
 12
-438.10649521350001
 22
191.27417167909999
 32
0.0
 13
-436.55358095169993
 23
192.72306045779999
 33
0.0
  0
ENDBLK
  5
21F
  8
0
  0
BLOCK
  8
0
  2
*D7
 70
     1
 10
0.0
 20
0.0
 30
0.0
  3
*D7
  1

  0
TEXT
  5
23E
  8
0
 62
     0
 10
-438.70858092309999
 20
-325.24335927959999
 30
0.0
 40
10.794999837900001
  1
10
 50
90.0
  0
LINE
  5
23F
  8
0
 62
     0
 10
-404.3548658261999
 20
-313.89335937499999
 30
0.0
 11
-436.80358095169993
 21
-313.89335937499999
 31
0.0
  0
LINE
  5
240
  8
0
 62
     0
 10
-434.80358095169993
 20
-313.89335937499999
 30
0.0
 11
-434.80358095169993
 21
-313.89335937499999
 31
0.0
  0
LINE
  5
241
  8
0
 62
     0
 10
-434.80358095169993
 20
-313.89335937499999
 30
0.0
 11
-434.80358095169993
 21
-323.89335937499999
 31
0.0
  0
LINE
  5
242
  8
0
 62
     0
 10
-434.80358095169993
 20
-323.89335937499999
 30
0.0
 11
-434.80358095169993
 21
-313.89335937499999
 31
0.0
  0
LINE
  5
243
  8
0
 62
     0
 10
-434.80358095169993
 20
-323.89335937499999
 30
0.0
 11
-434.80358095169993
 21
-323.89335937499999
 31
0.0
  0
LINE
  5
244
  8
0
 62
     0
 10
-434.80358095169993
 20
-323.89335937499999
 30
0.0
 11
-434.80358095169993
 21
-333.89335937499999
 31
0.0
  0
SOLID
  5
245
  8
0
 62
     0
 10
-434.80358095169993
 20
-323.89335937499999
 30
0.0
 11
-433.2506666898999
 21
-329.68891448969998
 31
0.0
 12
-436.35649521350001
 22
-329.68891448969998
 32
0.0
 13
-434.80358095169993
 23
-328.24002571109997
 33
0.0
  0
LINE
  5
246
  8
0
 62
     0
 10
-434.80358095169993
 20
-313.89335937499999
 30
0.0
 11
-434.80358095169993
 21
-303.89335937499999
 31
0.0
  0
SOLID
  5
247
  8
0
 62
     0
 10
-434.80358095169993
 20
-313.89335937499999
 30
0.0
 11
-436.35649521350001
 21
-308.09780426029999
 31
0.0
 12
-433.2506666898999
 22
-308.09780426029999
 32
0.0
 13
-434.80358095169993
 23
-309.5466930389
 33
0.0
  0
ENDBLK
  5
248
  8
0
  0
BLOCK
  8
0
  2
*D8
 70
     1
 10
0.0
 20
0.0
 30
0.0
  3
*D8
  1

  0
TEXT
  5
24C
  8
0
 62
     0
 10
-438.70858100759989
 20
-272.41835923190001
 30
0.0
 40
10.794999837900001
  1
102
 50
90.0
  0
LINE
  5
24D
  8
0
 62
     0
 10
-403.76071377940002
 20
-211.89335937499999
 30
0.0
 11
-436.8035810362
 21
-211.89335937499999
 31
0.0
  0
LINE
  5
24E
  8
0
 62
     0
 10
-434.8035810362
 20
-211.89335937499999
 30
0.0
 11
-434.8035810362
 21
-247.01835961340001
 31
0.0
  0
LINE
  5
24F
  8
0
 62
     0
 10
-434.8035810362
 20
-211.89335937499999
 30
0.0
 11
-434.8035810362
 21
-278.7683591366
 31
0.0
  0
LINE
  5
250
  8
0
 62
     0
 10
-434.8035810362
 20
-313.89335937499999
 30
0.0
 11
-434.8035810362
 21
-247.01835961340001
 31
0.0
  0
LINE
  5
251
  8
0
 62
     0
 10
-434.8035810362
 20
-313.89335937499999
 30
0.0
 11
-434.8035810362
 21
-278.7683591366
 31
0.0
  0
LINE
  5
252
  8
0
 62
     0
 10
-434.8035810362
 20
-313.89335937499999
 30
0.0
 11
-434.8035810362
 21
-303.89335937499999
 31
0.0
  0
SOLID
  5
253
  8
0
 62
     0
 10
-434.8035810362
 20
-313.89335937499999
 30
0.0
 11
-436.35649529800003
 21
-308.09780426029999
 31
0.0
 12
-433.25066677429987
 22
-308.09780426029999
 32
0.0
 13
-434.8035810362
 23
-309.5466930389
 33
0.0
  0
LINE
  5
254
  8
0
 62
     0
 10
-434.8035810362
 20
-211.89335937499999
 30
0.0
 11
-434.8035810362
 21
-221.89335937499999
 31
0.0
  0
SOLID
  5
255
  8
0
 62
     0
 10
-434.8035810362
 20
-211.89335937499999
 30
0.0
 11
-433.25066677429987
 21
-217.68891448970001
 31
0.0
 12
-436.35649529800003
 22
-217.68891448970001
 32
0.0
 13
-434.8035810362
 23
-216.2400257111
 33
0.0
  0
ENDBLK
  5
256
  8
0
  0
BLOCK
  8
0
  2
*D9
 70
     1
 10
0.0
 20
0.0
 30
0.0
  3
*D9
  1

  0
TEXT
  5
25A
  8
0
 62
     0
 10
-438.70858092309999
 20
-213.24335927960001
 30
0.0
 40
10.794999837900001
  1
10
 50
90.0
  0
LINE
  5
25B
  8
0
 62
     0
 10
-408.80358095169993
 20
-201.89335937499999
 30
0.0
 11
-436.80358095169993
 21
-201.89335937499999
 31
0.0
  0
LINE
  5
25C
  8
0
 62
     0
 10
-434.80358095169993
 20
-201.89335937499999
 30
0.0
 11
-434.80358095169993
 21
-201.89335937499999
 31
0.0
  0
LINE
  5
25D
  8
0
 62
     0
 10
-434.80358095169993
 20
-201.89335937499999
 30
0.0
 11
-434.80358095169993
 21
-211.89335937499999
 31
0.0
  0
LINE
  5
25E
  8
0
 62
     0
 10
-434.80358095169993
 20
-211.89335937499999
 30
0.0
 11
-434.80358095169993
 21
-201.89335937499999
 31
0.0
  0
LINE
  5
25F
  8
0
 62
     0
 10
-434.80358095169993
 20
-211.89335937499999
 30
0.0
 11
-434.80358095169993
 21
-211.89335937499999
 31
0.0
  0
LINE
  5
260
  8
0
 62
     0
 10
-434.80358095169993
 20
-211.89335937499999
 30
0.0
 11
-434.80358095169993
 21
-221.89335937499999
 31
0.0
  0
SOLID
  5
261
  8
0
 62
     0
 10
-434.80358095169993
 20
-211.89335937499999
 30
0.0
 11
-433.2506666898999
 21
-217.68891448970001
 31
0.0
 12
-436.35649521350001
 22
-217.68891448970001
 32
0.0
 13
-434.80358095169993
 23
-216.2400257111
 33
0.0
  0
LINE
  5
262
  8
0
 62
     0
 10
-434.80358095169993
 20
-201.89335937499999
 30
0.0
 11
-434.80358095169993
 21
-191.89335937499999
 31
0.0
  0
SOLID
  5
263
  8
0
 62
     0
 10
-434.80358095169993
 20
-201.89335937499999
 30
0.0
 11
-436.35649521350001
 21
-196.09780426029999
 31
0.0
 12
-433.2506666898999
 22
-196.09780426029999
 32
0.0
 13
-434.80358095169993
 23
-197.5466930389
 33
0.0
  0
ENDBLK
  5
264
  8
0
  0
BLOCK
  8
0
  2
*D10
 70
     1
 10
0.0
 20
0.0
 30
0.0
  3
*D10
  1

  0
TEXT
  5
268
  8
0
 62
     0
 10
-401.15358085629993
 20
-167.98835940359999
 30
0.0
 40
10.794999837900001
  1
20
  0
LINE
  5
269
  8
0
 62
     0
 10
-384.80358095169998
 20
-197.89335937499999
 30
0.0
 11
-384.80358095169998
 21
-169.89335937499999
 31
0.0
  0
LINE
  5
26A
  8
0
 62
     0
 10
-384.80358095169998
 20
-171.89335937499999
 30
0.0
 11
-384.80358095169998
 21
-171.89335937499999
 31
0.0
  0
LINE
  5
26B
  8
0
 62
     0
 10
-384.80358095169998
 20
-171.89335937499999
 30
0.0
 11
-404.80358095169993
 21
-171.89335937499999
 31
0.0
  0
LINE
  5
26C
  8
0
 62
     0
 10
-404.80358095169993
 20
-171.89335937499999
 30
0.0
 11
-384.80358095169998
 21
-171.89335937499999
 31
0.0
  0
LINE
  5
26D
  8
0
 62
     0
 10
-404.80358095169993
 20
-171.89335937499999
 30
0.0
 11
-404.80358095169993
 21
-171.89335937499999
 31
0.0
  0
LINE
  5
26E
  8
0
 62
     0
 10
-404.80358095169993
 20
-171.89335937499999
 30
0.0
 11
-394.80358095169998
 21
-171.89335937499999
 31
0.0
  0
SOLID
  5
26F
  8
0
 62
     0
 10
-404.80358095169993
 20
-171.89335937499999
 30
0.0
 11
-399.0080258369
 21
-170.34044511319999
 31
0.0
 12
-399.0080258369
 22
-173.44627363679999
 32
0.0
 13
-400.4569146156
 23
-171.89335937499999
 33
0.0
  0
LINE
  5
270
  8
0
 62
     0
 10
-384.80358095169998
 20
-171.89335937499999
 30
0.0
 11
-394.80358095169998
 21
-171.89335937499999
 31
0.0
  0
SOLID
  5
271
  8
0
 62
     0
 10
-384.80358095169998
 20
-171.89335937499999
 30
0.0
 11
-390.59913606639998
 21
-173.44627363679999
 31
0.0
 12
-390.59913606639998
 22
-170.34044511319999
 32
0.0
 13
-389.15024728780003
 23
-171.89335937499999
 33
0.0
  0
ENDBLK
  5
272
  8
0
  0
BLOCK
  8
0
  2
*D11
 70
     1
 10
0.0
 20
0.0
 30
0.0
  3
*D11
  1

  0
TEXT
  5
293
  8
0
 62
     0
 10
371.90112325519999
 20
-73.201507067199984
 30
0.0
 40
10.794999837900001
  1
21
  0
LINE
  5
294
  8
0
 62
     0
 10
367.75501302079999
 20
-40.930273206199999
 30
0.0
 11
367.75501302079999
 21
-81.106507038600014
 31
0.0
  0
LINE
  5
295
  8
0
 62
     0
 10
367.75501302079999
 20
-78.1065070386
 30
0.0
 11
367.75501302079999
 21
-78.1065070386
 31
0.0
  0
LINE
  5
296
  8
0
 62
     0
 10
367.75501302079999
 20
-78.1065070386
 30
0.0
 11
388.74723329890003
 21
-78.1065070386
 31
0.0
  0
LINE
  5
297
  8
0
 62
     0
 10
388.74723329890003
 20
-78.1065070386
 30
0.0
 11
367.75501302079999
 21
-78.1065070386
 31
0.0
  0
LINE
  5
298
  8
0
 62
     0
 10
388.74723329890003
 20
-78.1065070386
 30
0.0
 11
388.74723329890003
 21
-78.1065070386
 31
0.0
  0
LINE
  5
299
  8
0
 62
     0
 10
388.74723329890003
 20
-78.1065070386
 30
0.0
 11
373.74723329890003
 21
-78.1065070386
 31
0.0
  0
SOLID
  5
29A
  8
0
 62
     0
 10
388.74723329890003
 20
-78.1065070386
 30
0.0
 11
382.95167818419998
 21
-79.659421300399998
 31
0.0
 12
382.95167818419998
 22
-76.5535927767
 32
0.0
 13
384.40056696279999
 23
-78.1065070386
 33
0.0
  0
LINE
  5
29B
  8
0
 62
     0
 10
367.75501302079999
 20
-78.1065070386
 30
0.0
 11
382.75501302079999
 21
-78.1065070386
 31
0.0
  0
SOLID
  5
29C
  8
0
 62
     0
 10
367.75501302079999
 20
-78.1065070386
 30
0.0
 11
373.55056813559997
 21
-76.5535927767
 31
0.0
 12
373.55056813559997
 22
-79.659421300399998
 32
0.0
 13
372.10167935689998
 23
-78.1065070386
 33
0.0
  0
ENDBLK
  5
29D
  8
0
  0
BLOCK
  8
0
  2
*D12
 70
     1
 10
0.0
 20
0.0
 30
0.0
  3
*D12
  1

  0
TEXT
  5
2A1
  8
0
 62
     0
 10
338.23001316390003
 20
246.97472676519999
 30
0.0
 40
10.794999837900001
  1
122
  0
LINE
  5
2A2
  8
0
 62
     0
 10
408.75501302079999
 20
203.06972679379999
 30
0.0
 11
408.75501302079999
 21
245.06972679379999
 31
0.0
  0
LINE
  5
2A3
  8
0
 62
     0
 10
286.75501302079999
 20
203.06972679379999
 30
0.0
 11
286.75501302079999
 21
245.06972679379999
 31
0.0
  0
LINE
  5
2A4
  8
0
 62
     0
 10
408.75501302079999
 20
242.06972679379999
 30
0.0
 11
363.6300127824
 21
242.06972679379999
 31
0.0
  0
LINE
  5
2A5
  8
0
 62
     0
 10
408.75501302079999
 20
242.06972679379999
 30
0.0
 11
331.88001325929997
 21
242.06972679379999
 31
0.0
  0
LINE
  5
2A6
  8
0
 62
     0
 10
286.75501302079999
 20
242.06972679379999
 30
0.0
 11
363.6300127824
 21
242.06972679379999
 31
0.0
  0
LINE
  5
2A7
  8
0
 62
     0
 10
286.75501302079999
 20
242.06972679379999
 30
0.0
 11
331.88001325929997
 21
242.06972679379999
 31
0.0
  0
LINE
  5
2A8
  8
0
 62
     0
 10
286.75501302079999
 20
242.06972679379999
 30
0.0
 11
301.75501302079999
 21
242.06972679379999
 31
0.0
  0
SOLID
  5
2A9
  8
0
 62
     0
 10
286.75501302079999
 20
242.06972679379999
 30
0.0
 11
292.55056813559997
 21
243.62264105560001
 31
0.0
 12
292.55056813559997
 22
240.51681253199999
 32
0.0
 13
291.10167935689998
 23
242.06972679379999
 33
0.0
  0
LINE
  5
2AA
  8
0
 62
     0
 10
408.75501302079999
 20
242.06972679379999
 30
0.0
 11
393.75501302079999
 21
242.06972679379999
 31
0.0
  0
SOLID
  5
2AB
  8
0
 62
     0
 10
408.75501302079999
 20
242.06972679379999
 30
0.0
 11
402.9594579061
 21
240.51681253199999
 31
0.0
 12
402.9594579061
 22
243.62264105560001
 32
0.0
 13
404.40834668479999
 23
242.06972679379999
 33
0.0
  0
ENDBLK
  5
2AC
  8
0
  0
BLOCK
  8
0
  2
*D13
 70
     1
 10
0.0
 20
0.0
 30
0.0
  3
*D13
  1

  0
TEXT
  5
2E4
  8
0
 62
     0
 10
-104.8035809517
 20
-147.33808061729999
 30
0.0
 40
10.794999837900001
  1

  0
LINE
  5
2E5
  8
0
 62
     0
 10
-404.80358095169993
 20
-197.89335937499999
 30
0.0
 11
-404.80358095169993
 21
-149.2430805887
 31
0.0
  0
LINE
  5
2E6
  8
0
 62
     0
 10
-404.80358095169993
 20
-151.2430805887
 30
0.0
 11
-98.453581047099988
 21
-151.2430805887
 31
0.0
  0
LINE
  5
2E7
  8
0
 62
     0
 10
-404.80358095169993
 20
-151.2430805887
 30
0.0
 11
-111.1535808563
 21
-151.2430805887
 31
0.0
  0
LINE
  5
2E8
  8
0
 62
     0
 10
195.19641904829999
 20
-151.2430805887
 30
0.0
 11
-98.453581047099988
 21
-151.2430805887
 31
0.0
  0
LINE
  5
2E9
  8
0
 62
     0
 10
195.19641904829999
 20
-151.2430805887
 30
0.0
 11
-111.1535808563
 21
-151.2430805887
 31
0.0
  0
LINE
  5
2EA
  8
0
 62
     0
 10
195.19641904829999
 20
-151.2430805887
 30
0.0
 11
185.19641904829999
 21
-151.2430805887
 31
0.0
  0
SOLID
  5
2EB
  8
0
 62
     0
 10
195.19641904829999
 20
-151.2430805887
 30
0.0
 11
189.40086393359999
 21
-152.79599485049999
 31
0.0
 12
189.40086393359999
 22
-149.6901663269
 32
0.0
 13
190.8497527122
 23
-151.2430805887
 33
0.0
  0
LINE
  5
2EC
  8
0
 62
     0
 10
-404.80358095169993
 20
-151.2430805887
 30
0.0
 11
-394.80358095169998
 21
-151.2430805887
 31
0.0
  0
SOLID
  5
2ED
  8
0
 62
     0
 10
-404.80358095169993
 20
-151.2430805887
 30
0.0
 11
-399.0080258369
 21
-149.6901663269
 31
0.0
 12
-399.0080258369
 22
-152.79599485049999
 32
0.0
 13
-400.4569146156
 23
-151.2430805887
 33
0.0
  0
ENDBLK
  5
2EE
  8
0
  0
BLOCK
  8
0
  2
*D14
 70
     1
 10
0.0
 20
0.0
 30
0.0
  3
*D14
  1

  0
TEXT
  5
2F2
  8
0
 62
     0
 10
-104.8035809517
 20
-167.98835940359999
 30
0.0
 40
10.794999837900001
  1

  0
LINE
  5
2F3
  8
0
 62
     0
 10
175.19641904829999
 20
-197.89335937499999
 30
0.0
 11
175.19641904829999
 21
-169.89335937499999
 31
0.0
  0
LINE
  5
2F4
  8
0
 62
     0
 10
175.19641904829999
 20
-171.89335937499999
 30
0.0
 11
-98.453581047099988
 21
-171.89335937499999
 31
0.0
  0
LINE
  5
2F5
  8
0
 62
     0
 10
175.19641904829999
 20
-171.89335937499999
 30
0.0
 11
-111.1535808563
 21
-171.89335937499999
 31
0.0
  0
LINE
  5
2F6
  8
0
 62
     0
 10
-384.80358095169998
 20
-171.89335937499999
 30
0.0
 11
-98.453581047099988
 21
-171.89335937499999
 31
0.0
  0
LINE
  5
2F7
  8
0
 62
     0
 10
-384.80358095169998
 20
-171.89335937499999
 30
0.0
 11
-111.1535808563
 21
-171.89335937499999
 31
0.0
  0
LINE
  5
2F8
  8
0
 62
     0
 10
-384.80358095169998
 20
-171.89335937499999
 30
0.0
 11
-374.80358095169998
 21
-171.89335937499999
 31
0.0
  0
SOLID
  5
2F9
  8
0
 62
     0
 10
-384.80358095169998
 20
-171.89335937499999
 30
0.0
 11
-379.0080258369
 21
-170.34044511319999
 31
0.0
 12
-379.0080258369
 22
-173.44627363679999
 32
0.0
 13
-380.4569146156
 23
-171.89335937499999
 33
0.0
  0
LINE
  5
2FA
  8
0
 62
     0
 10
175.19641904829999
 20
-171.89335937499999
 30
0.0
 11
165.19641904829999
 21
-171.89335937499999
 31
0.0
  0
SOLID
  5
2FB
  8
0
 62
     0
 10
175.19641904829999
 20
-171.89335937499999
 30
0.0
 11
169.40086393359999
 21
-173.44627363679999
 31
0.0
 12
169.40086393359999
 22
-170.34044511319999
 32
0.0
 13
170.8497527122
 23
-171.89335937499999
 33
0.0
  0
ENDBLK
  5
2FC
  8
0
  0
BLOCK
  8
0
  2
*D15
 70
     1
 10
0.0
 20
0.0
 30
0.0
  3
*D15
  1

  0
TEXT
  5
300
  8
0
 62
     0
 10
-104.8035809517
 20
-356.52214846610002
 30
0.0
 40
10.794999837900001
  1

  0
LINE
  5
301
  8
0
 62
     0
 10
-394.80358095169998
 20
-334.42714843750002
 30
0.0
 11
-394.80358095169998
 21
-362.42714843750002
 31
0.0
  0
LINE
  5
302
  8
0
 62
     0
 10
185.19641904829999
 20
-334.42714843750002
 30
0.0
 11
185.19641904829999
 21
-362.42714843750002
 31
0.0
  0
LINE
  5
303
  8
0
 62
     0
 10
-394.80358095169998
 20
-360.42714843750002
 30
0.0
 11
-98.453581047099988
 21
-360.42714843750002
 31
0.0
  0
LINE
  5
304
  8
0
 62
     0
 10
-394.80358095169998
 20
-360.42714843750002
 30
0.0
 11
-111.1535808563
 21
-360.42714843750002
 31
0.0
  0
LINE
  5
305
  8
0
 62
     0
 10
185.19641904829999
 20
-360.42714843750002
 30
0.0
 11
-98.453581047099988
 21
-360.42714843750002
 31
0.0
  0
LINE
  5
306
  8
0
 62
     0
 10
185.19641904829999
 20
-360.42714843750002
 30
0.0
 11
-111.1535808563
 21
-360.42714843750002
 31
0.0
  0
LINE
  5
307
  8
0
 62
     0
 10
185.19641904829999
 20
-360.42714843750002
 30
0.0
 11
175.19641904829999
 21
-360.42714843750002
 31
0.0
  0
SOLID
  5
308
  8
0
 62
     0
 10
185.19641904829999
 20
-360.42714843750002
 30
0.0
 11
179.40086393359999
 21
-361.98006269929999
 31
0.0
 12
179.40086393359999
 22
-358.8742341757
 32
0.0
 13
180.8497527122
 23
-360.42714843750002
 33
0.0
  0
LINE
  5
309
  8
0
 62
     0
 10
-394.80358095169998
 20
-360.42714843750002
 30
0.0
 11
-384.80358095169998
 21
-360.42714843750002
 31
0.0
  0
SOLID
  5
30A
  8
0
 62
     0
 10
-394.80358095169998
 20
-360.42714843750002
 30
0.0
 11
-389.0080258369
 21
-358.8742341757
 31
0.0
 12
-389.0080258369
 22
-361.98006269929999
 32
0.0
 13
-390.4569146156
 23
-360.42714843750002
 33
0.0
  0
ENDBLK
  5
30B
  8
0
  0
BLOCK
  8
0
  2
BALLON0
 70
     0
 10
0.0
 20
0.0
 30
0.0
  3
BALLON0
  1

  0
INSERT
  5
313
  8
0
  6
CONTINUOUS
  2
*U40
 10
0.0
 20
0.0
 30
0.0
  0
CIRCLE
  5
314
  8
┌▓È_1
 62
     5
 10
-182.61367187499999
 20
-78.5
 30
0.0
 40
12.0
  0
LINE
  5
315
  8
Éíû@É³
 62
     5
 10
-202.61367187499999
 20
-78.5
 30
0.0
 11
-194.61367187499999
 21
-78.5
 31
0.0
  0
LINE
  5
316
  8
Éíû@É³
 62
     5
 10
-250.833984375
 20
-8.8974369019000008
 30
0.0
 11
-202.61367187499999
 21
-78.5
 31
0.0
  0
SOLID
  5
317
  8
Éíû@É³
 62
     5
 10
-250.833984375
 20
-8.8974369019000008
 30
0.0
 11
-242.02740395270001
 21
-17.394738901099998
 31
0.0
 12
-245.3669689731
 22
-16.788681581700001
 32
0.0
 13
-245.3669689731
 23
-16.788681581700001
 33
0.0
  0
SOLID
  5
318
  8
Éíû@É³
 62
     5
 10
-245.3669689731
 20
-16.788681581700001
 30
0.0
 11
-245.97302629250001
 21
-20.128246602099999
 31
0.0
 12
-250.833984375
 22
-8.8974369019000008
 32
0.0
 13
-250.833984375
 23
-8.8974369019000008
 33
0.0
  0
ENDBLK
  5
319
  8
0
  0
BLOCK
  8
0
  2
BALLON1
 70
     0
 10
0.0
 20
0.0
 30
0.0
  3
BALLON1
  1

  0
INSERT
  5
31E
  8
0
  6
CONTINUOUS
  2
*U41
 10
0.0
 20
0.0
 30
0.0
  0
CIRCLE
  5
31F
  8
┌▓È_1
 62
     5
 10
-37.952734374999999
 20
-78.5
 30
0.0
 40
12.0
  0
LINE
  5
320
  8
Éíû@É³
 62
     5
 10
-57.952734374999999
 20
-78.5
 30
0.0
 11
-49.952734374999991
 21
-78.5
 31
0.0
  0
LINE
  5
321
  8
Éíû@É³
 62
     5
 10
-130.56408257140001
 20
16.122490602900001
 30
0.0
 11
-57.952734374999999
 21
-78.5
 31
0.0
  0
SOLID
  5
322
  8
Éíû@É³
 62
     5
 10
-130.56408257140001
 20
16.122490602900001
 30
0.0
 11
-121.3546316561
 21
8.0635816295999998
 31
0.0
 12
-124.71972170940001
 22
8.5064912517999982
 32
0.0
 13
-124.71972170940001
 23
8.5064912517999982
 33
0.0
  0
SOLID
  5
323
  8
Éíû@É³
 62
     5
 10
-124.71972170940001
 20
8.5064912517999982
 30
0.0
 11
-125.1626313317
 21
5.1414011985999997
 31
0.0
 12
-130.56408257140001
 22
16.122490602900001
 32
0.0
 13
-130.56408257140001
 23
16.122490602900001
 33
0.0
  0
ENDBLK
  5
324
  8
0
  0
BLOCK
  8
0
  2
BALLON2
 70
     0
 10
0.0
 20
0.0
 30
0.0
  3
BALLON2
  1

  0
INSERT
  5
328
  8
0
  6
CONTINUOUS
  2
*U42
 10
0.0
 20
0.0
 30
0.0
  0
CIRCLE
  5
329
  8
┌▓È_1
 62
     5
 10
-335.25
 20
-78.5
 30
0.0
 40
12.0
  0
LINE
  5
32A
  8
Éíû@É³
 62
     5
 10
-355.25
 20
-78.5
 30
0.0
 11
-347.25
 21
-78.5
 31
0.0
  0
LINE
  5
32B
  8
Éíû@É³
 62
     5
 10
-424.05358095169993
 20
17.007421874999999
 30
0.0
 11
-355.25
 21
-78.5
 31
0.0
  0
SOLID
  5
32C
  8
Éíû@É³
 62
     5
 10
-424.05358095169993
 20
17.007421874999999
 30
0.0
 11
-415.09204456579999
 21
8.6737032809999999
 31
0.0
 12
-418.44220197699991
 22
9.2181712049000009
 32
0.0
 13
-418.44220197699991
 23
9.2181712049000009
 33
0.0
  0
SOLID
  5
32D
  8
Éíû@É³
 62
     5
 10
-418.44220197699991
 20
9.2181712049000009
 30
0.0
 11
-418.98666990089998
 21
5.8680137936000003
 31
0.0
 12
-424.05358095169993
 22
17.007421874999999
 32
0.0
 13
-424.05358095169993
 23
17.007421874999999
 33
0.0
  0
ENDBLK
  5
32E
  8
0
  0
BLOCK
  8
0
  2
*U19
 70
     1
 10
0.0
 20
0.0
 30
0.0
  3
*U19
  1

  0
TEXT
  5
34A
  8
┌▓È_1
  6
CONTINUOUS
 62
     5
 10
424.57187499999992
 20
-478.45611952140001
 30
0.0
 40
8.9958330630999992
  1
éoéXéSü|éUü|é`
  0
ENDBLK
  5
34C
  8
0
  0
BLOCK
  8
0
  2
*U20
 70
     1
 10
0.0
 20
0.0
 30
0.0
  3
*U20
  1

  0
TEXT
  5
34E
  8
┌▓È_1
  6
CONTINUOUS
 62
     5
 10
414.45156250000002
 20
-448.81435004730099
 30
0.0
 40
8.9958330630999992
  1
âpâCâvÆI   âoâbâNòté»
  0
ENDBLK
  5
350
  8
0
  0
BLOCK
  8
0
  2
*U21
 70
     1
 10
0.0
 20
0.0
 30
0.0
  3
*U21
  1

  0
TEXT
  5
352
  8
┌▓È_1
  6
CONTINUOUS
 62
     5
 10
424.57187499999992
 20
-416.30384087559992
 30
0.0
 40
8.9958330630999992
  1
éoéXéSü|éU
  0
ENDBLK
  5
354
  8
0
  0
BLOCK
  8
0
  2
*U22
 70
     1
 10
0.0
 20
0.0
 30
0.0
  3
*U22
  1

  0
TEXT
  5
356
  8
┌▓È_1
  6
CONTINUOUS
 62
     5
 10
269.2753910733
 20
-406.25792802426702
 30
0.0
 40
8.9958330630999992
  1
ìÌ   Ä┐
  0
ENDBLK
  5
358
  8
0
  0
BLOCK
  8
0
  2
*U23
 70
     1
 10
0.0
 20
0.0
 30
0.0
  3
*U23
  1

  0
TEXT
  5
35A
  8
┌▓È_1
  6
CONTINUOUS
 62
     5
 10
154.17035716449999
 20
-483.78998716301322
 30
0.0
 40
16.1924997568
  1
èöÄ«ë´Äð
  0
ENDBLK
  5
35C
  8
0
  0
BLOCK
  8
0
  2
*U24
 70
     1
 10
0.0
 20
0.0
 30
0.0
  3
*U24
  1

  0
TEXT
  5
35E
  8
┌▓È_1
  6
CONTINUOUS
 62
     5
 10
148.8652658753137
 20
-422.62826602379988
 30
0.0
 40
8.9958330630999992
  1
H8.5.29
  0
ENDBLK
  5
360
  8
0
  0
BLOCK
  8
0
  2
*U25
 70
     1
 10
0.0
 20
0.0
 30
0.0
  3
*U25
  1

  0
TEXT
  5
362
  8
┌▓È_1
  6
CONTINUOUS
 62
     5
 10
207.20414107330001
 20
-406.8683925144386
 30
0.0
 40
8.9958330630999992
  1
ê§   Éö
  0
ENDBLK
  5
364
  8
0
  0
BLOCK
  8
0
  2
*U26
 70
     1
 10
0.0
 20
0.0
 30
0.0
  3
*U26
  1

  0
TEXT
  5
366
  8
┌▓È_1
  6
CONTINUOUS
 62
     5
 10
144.2008463542
 20
-456.2796801141385
 30
0.0
 40
8.9958330630999992
  1
É╗É}
  0
ENDBLK
  5
368
  8
0
  0
BLOCK
  8
0
  2
*U27
 70
     1
 10
0.0
 20
0.0
 30
0.0
  3
*U27
  1

  0
TEXT
  5
36A
  8
┌▓È_1
  6
CONTINUOUS
 62
     5
 10
144.2008463542
 20
-439.77091989809082
 30
0.0
 40
8.9958330630999992
  1
É¦îv
  0
ENDBLK
  5
36C
  8
0
  0
BLOCK
  8
0
  2
*U28
 70
     1
 10
0.0
 20
0.0
 30
0.0
  3
*U28
  1

  0
TEXT
  5
36E
  8
┌▓È_1
  6
CONTINUOUS
 62
     5
 10
146.87914107329999
 20
-406.2159054579954
 30
0.0
 40
8.9958330630999992
  1
ô·   òt
  0
ENDBLK
  5
370
  8
0
  0
BLOCK
  8
0
  2
*U29
 70
     1
 10
0.0
 20
0.0
 30
0.0
  3
*U29
  1

  0
TEXT
  5
372
  8
┌▓È_1
  6
CONTINUOUS
 62
     5
 10
234.3860677083
 20
-389.24404993783861
 30
0.0
 40
8.9958330630999992
  1
É}öÈ       òi     û╝            ìÌ     Ä┐       Éöù╩
  0
ENDBLK
  5
374
  8
0
  0
BLOCK
  8
0
  2
*U30
 70
     1
 10
0.0
 20
0.0
 30
0.0
  3
*U30
  1

  0
TEXT
  5
376
  8
┌▓È_1
  6
CONTINUOUS
 62
     5
 10
264.7513020833
 20
-272.64506794157609
 30
0.0
 40
7.1966662884000003
  1
òÔï^Râxâïâgé═üAéUéOéPê╚ÅÒé╔üAéãéÞé┬é»éÚ               
  0
TEXT
  5
377
  8
┌▓È_1
  6
CONTINUOUS
 62
     5
 10
264.7513020833
 20
-285.00482476513957
 30
0.0
 40
7.1966662884000003
  1
                       üiò╩Æìòié═Å£é^Rüj
  0
ENDBLK
  5
379
  8
0
  0
BLOCK
  8
0
  2
*U31
 70
     1
 10
0.0
 20
0.0
 30
0.0
  3
*U31
  1

  0
TEXT
  5
37B
  8
┌▓È_1
  6
CONTINUOUS
 62
     5
 10
235.678291038765
 20
-165.4048390860269
 30
0.0
 40
10.794999837900001
  1
4ü|âË4.5îè
  0
ENDBLK
  5
37D
  8
0
  0
BLOCK
  8
0
  2
*U32
 70
     1
 10
0.0
 20
0.0
 30
0.0
  3
*U32
  1

  0
TEXT
  5
37F
  8
┌▓È_1
  6
CONTINUOUS
 62
     5
 10
381.09898526489991
 20
-471.8540008822431
 30
0.0
 40
8.9958330630999992
  1
É}öÈ
  0
ENDBLK
  5
381
  8
0
  0
BLOCK
  8
0
  2
*U33
 70
     1
 10
0.0
 20
0.0
 30
0.0
  3
*U33
  1

  0
TEXT
  5
383
  8
┌▓È_1
  6
CONTINUOUS
 62
     5
 10
382.25351607329998
 20
-406.2122638970431
 30
0.0
 40
8.9958330630999992
  1
òiöÈ
  0
ENDBLK
  5
385
  8
0
  0
BLOCK
  8
0
  2
*U34
 70
     1
 10
0.0
 20
0.0
 30
0.0
  3
*U34
  1

  0
TEXT
  5
387
  8
┌▓È_1
  6
CONTINUOUS
 62
     5
 10
381.09898526489991
 20
-438.93424141739081
 30
0.0
 40
8.9958330630999992
  1
òiû╝
  0
ENDBLK
  5
389
  8
0
  0
BLOCK
  8
0
  2
*U35
 70
     1
 10
0.0
 20
0.0
 30
0.0
  3
*U35
  1

  0
TEXT
  5
38B
  8
┌▓È_1
  6
CONTINUOUS
 62
     5
 10
326.42539107329998
 20
-407.35231621496251
 30
0.0
 40
8.9958330630999992
  1
ö┬   î·
  0
ENDBLK
  5
38D
  8
0
  0
BLOCK
  8
0
  2
*U36
 70
     1
 10
0.0
 20
0.0
 30
0.0
  3
*U36
  1

  0
TEXT
  5
38F
  8
┌▓È_1
  6
CONTINUOUS
 62
     5
 10
324.2008463542
 20
-440.98150853963858
 30
0.0
 40
8.9958330630999992
  1
Ä┌   ôx
  0
ENDBLK
  5
391
  8
0
  0
BLOCK
  8
0
  2
*U37
 70
     1
 10
0.0
 20
0.0
 30
0.0
  3
*U37
  1

  0
TEXT
  5
393
  8
┌▓È_1
  6
CONTINUOUS
 62
     5
 10
230.15273437499999
 20
-365.44591991973863
 30
0.0
 40
8.9958330630999992
  1
  1            ÿg              SUS430  2.0t       2
  0
ENDBLK
  5
395
  8
0
  0
BLOCK
  8
0
  2
*U38
 70
     1
 10
0.0
 20
0.0
 30
0.0
  3
*U38
  1

  0
TEXT
  5
397
  8
┌▓È_1
  6
CONTINUOUS
 62
     5
 10
230.15273437499999
 20
-347.11719161250102
 30
0.0
 40
8.9958330630999992
  1
  2          âpâCâv            SUS304 âË10        6
  0
ENDBLK
  5
399
  8
0
  0
BLOCK
  8
0
  2
*U39
 70
     1
 10
0.0
 20
0.0
 30
0.0
  3
*U39
  1

  0
TEXT
  5
39B
  8
┌▓È_1
  6
CONTINUOUS
 62
     5
 10
230.15273437499999
 20
-327.96650901523401
 30
0.0
 40
8.9958330630999992
  1
  3       òÔï^Râxâïâg           SUS430  0.7t      1/0
  0
ENDBLK
  5
39D
  8
0
  0
BLOCK
  8
0
  2
*U40
 70
     1
 10
0.0
 20
0.0
 30
0.0
  3
*U40
  1

  0
TEXT
  5
39F
  8
┌▓È_1
  6
CONTINUOUS
 62
     5
 10
-185.24125804240001
 20
-82.944999933299997
 30
0.0
 40
10.794999837900001
  1
2
 41
0.8
  0
ENDBLK
  5
3A1
  8
0
  0
BLOCK
  8
0
  2
*U41
 70
     1
 10
0.0
 20
0.0
 30
0.0
  3
*U41
  1

  0
TEXT
  5
3A3
  8
┌▓È_1
  6
CONTINUOUS
 62
     5
 10
-40.580320542399988
 20
-82.944999933299997
 30
0.0
 40
10.794999837900001
  1
3
 41
0.8
  0
ENDBLK
  5
3A5
  8
0
  0
BLOCK
  8
0
  2
*U42
 70
     1
 10
0.0
 20
0.0
 30
0.0
  3
*U42
  1

  0
TEXT
  5
3A7
  8
┌▓È_1
  6
CONTINUOUS
 62
     5
 10
-337.00172411160003
 20
-82.944999933299997
 30
0.0
 40
10.794999837900001
  1
1
 41
0.8
  0
ENDBLK
  5
3A9
  8
0
  0
ENDSEC
  0
SECTION
  2
ENTITIES
  0
LINE
  5
2F
  8
┌▓È_1
 62
     5
 10
308.75501302079999
 20
193.06972679379999
 30
0.0
 11
367.36712427869998
 21
-33.431313321499999
 31
0.0
  0
LINE
  5
30
  8
┌▓È_1
 62
     5
 10
372.95501302079998
 20
90.602563098099978
 30
0.0
 11
372.95501302079998
 21
192.10256309810001
 31
0.0
  0
ARC
  5
31
  8
┌▓È_1
 62
     5
 10
310.75501302079999
 20
195.06972679379999
 30
0.0
 40
2.0
 50
0.0
 51
90.0
  0
LINE
  5
32
  8
┌▓È_1
 62
     5
 10
310.75501302079999
 20
195.06972679379999
 30
0.0
 11
310.3033470972
 21
195.06972679379999
 31
0.0
  0
LINE
  5
33
  8
┌▓È_1
 62
     5
 10
308.75501302079999
 20
193.06972679379999
 30
0.0
 11
286.75501302079999
 21
193.06972679379999
 31
0.0
  0
LINE
  5
34
  8
┌▓È_1
 62
     5
 10
367.36712427869998
 20
-33.431313321499999
 30
0.0
 11
368.40980441340002
 21
-37.460653503000003
 31
0.0
  0
LINE
  5
35
  8
┌▓È_1
 62
     5
 10
369.3033470972
 20
-34.930273206199999
 30
0.0
 11
366.2795498512001
 21
-34.930273206199999
 31
0.0
  0
ARC
  5
36
  8
┌▓È_1
 62
     5
 10
386.75501302079999
 20
195.06972679379999
 30
0.0
 40
2.0
 50
90.0
 51
153.19417335240001
  0
DIMENSION
  5
46
  8
Éíû@É³
 62
     5
  2
*D0
 10
388.74723329890003
 20
-78.1065070386
 30
0.0
 11
398.75112315989998
 21
-78.1065070386
 31
0.0
 70
   128
  1
<>
 13
388.74723329890003
 23
-33.1065070386
 33
0.0
 14
408.75501302079999
 24
193.06972679379999
 34
0.0
 50
180.0
  0
ARC
  5
47
  8
┌▓È_1
 62
     5
 10
386.75501302079999
 20
-32.930273206199999
 30
0.0
 40
2.0
 50
270.0
 51
0.0
  0
LINE
  5
48
  8
┌▓È_1
 62
     5
 10
387.95501302079998
 20
192.10256309810001
 30
0.0
 11
387.95501302079998
 21
90.602563098099978
 31
0.0
  0
LINE
  5
49
  8
┌▓È_1
 62
     5
 10
388.75501302079999
 20
193.06972679379999
 30
0.0
 11
388.75501302079999
 21
90.602563098099978
 31
0.0
  0
LINE
  5
4A
  8
┌▓È_1
 62
     5
 10
388.75501302079999
 20
70.602563098100006
 30
0.0
 11
388.75501302079999
 21
-32.930273206199999
 31
0.0
  0
LINE
  5
4B
  8
┌▓È_1
 62
     5
 10
408.75501302079999
 20
195.06972679379999
 30
0.0
 11
408.75501302079999
 21
197.06972679379999
 31
0.0
  0
LINE
  5
4C
  8
┌▓È_1
 62
     5
 10
398.75501302079999
 20
200.77245660010001
 30
0.0
 11
398.75501302079999
 21
190.7461408106
 31
0.0
  0
LINE
  5
4D
  8
┌▓È_1
 62
     5
 10
408.75501302079999
 20
195.06972679379999
 30
0.0
 11
388.75501302079999
 21
195.06972679379999
 31
0.0
  0
LINE
  5
4E
  8
┌▓È_1
 62
     5
 10
408.75501302079999
 20
197.06972679379999
 30
0.0
 11
386.75501302079999
 21
197.06972679379999
 31
0.0
  0
ARC
  5
4F
  8
┌▓È_1
 62
     5
 10
388.75501302079999
 20
193.06972679379999
 30
0.0
 40
2.0
 50
90.0
 51
139.0851560868
  0
LINE
  5
50
  8
┌▓È_1
 62
     5
 10
408.75501302079999
 20
181.09335937500001
 30
0.0
 11
408.75501302079999
 21
-80.348046874999994
 31
0.0
  0
LINE
  5
51
  8
┌▓È_1
 62
     5
 10
408.75501302079999
 20
193.06972679379999
 30
0.0
 11
408.75501302079999
 21
195.06972679379999
 31
0.0
  0
LINE
  5
52
  8
┌▓È_1
 62
     5
 10
408.75501302079999
 20
193.06972679379999
 30
0.0
 11
388.75501302079999
 21
193.06972679379999
 31
0.0
  0
LINE
  5
53
  8
┌▓È_1
 62
     5
 10
389.35501302080002
 20
70.602563098100006
 30
0.0
 11
389.35501302080002
 21
90.602563098099978
 31
0.0
  0
LINE
  5
54
  8
┌▓È_1
 62
     5
 10
387.95501302079998
 20
70.602563098100006
 30
0.0
 11
387.95501302079998
 21
-30.897436901900001
 31
0.0
  0
LINE
  5
55
  8
┌▓È_1
 62
     5
 10
386.75501302079999
 20
194.95913446949999
 30
0.0
 11
386.75501302079999
 21
195.06972679379999
 31
0.0
  0
LINE
  5
56
  8
┌▓È_1
 62
     5
 10
386.75501302079999
 20
195.06972679379999
 30
0.0
 11
388.75501302079999
 21
195.06972679379999
 31
0.0
  0
LINE
  5
57
  8
┌▓È_1
 62
     5
 10
196.94641904829999
 20
70.569726793800001
 30
0.0
 11
196.94641904829999
 21
-34.930273206199999
 31
0.0
  0
DIMENSION
  5
66
  8
Éíû@É³
 62
     5
  2
*D1
 10
250.97011718749999
 20
-34.930273206199999
 30
0.0
 11
250.97011718749999
 21
80.602563098100006
 31
0.0
 70
   128
  1
<>
 13
369.3033470972
 23
-34.930273206199999
 33
0.0
 14
286.75501302079999
 24
197.06972679379999
 34
0.0
 50
90.0
  0
DIMENSION
  5
74
  8
Éíû@É³
 62
     5
  2
*D2
 10
308.75501302079999
 20
-78.1065070386
 30
0.0
 11
338.25501302079999
 21
-78.1065070386
 31
0.0
 70
   128
  1
<>
 13
308.75501302079999
 23
193.06972679379999
 33
0.0
 14
367.75501302079999
 24
-34.930273206199999
 34
0.0
 50
180.0
  0
DIMENSION
  5
82
  8
Éíû@É³
 62
     5
  2
*D3
 10
286.75501302079999
 20
-78.1065070386
 30
0.0
 11
297.75501302079999
 21
-78.1065070386
 31
0.0
 70
   128
  1
<>
 13
286.75501302079999
 23
193.06972679379999
 33
0.0
 14
308.75501302079999
 24
193.06972679379999
 34
0.0
 50
180.0
  0
LINE
  5
83
  8
┌▓È_1
 62
     5
 10
310.3033470972
 20
195.06972679379999
 30
0.0
 11
308.75501302079999
 21
195.06972679379999
 31
0.0
  0
LINE
  5
84
  8
┌▓È_1
 62
     5
 10
286.75501302079999
 20
197.06972679379999
 30
0.0
 11
310.75501302079999
 21
197.06972679379999
 31
0.0
  0
LINE
  5
85
  8
┌▓È_1
 62
     5
 10
312.75501302079999
 20
195.06972679379999
 30
0.0
 11
312.75501302079999
 21
194.56972679379999
 31
0.0
  0
LINE
  5
86
  8
┌▓È_1
 62
     5
 10
372.95501302079998
 20
192.10256309810001
 30
0.0
 11
374.15501302080003
 21
192.10256309810001
 31
0.0
  0
LINE
  5
87
  8
┌▓È_1
 62
     5
 10
372.35501302080002
 20
90.602563098099978
 30
0.0
 11
372.35501302080002
 21
70.602563098100006
 31
0.0
  0
LINE
  5
88
  8
┌▓È_1
 62
     5
 10
372.95501302079998
 20
-30.897436901900001
 30
0.0
 11
372.95501302079998
 21
70.602563098100006
 31
0.0
  0
LINE
  5
89
  8
┌▓È_1
 62
     5
 10
374.53825344270001
 20
194.56972679379999
 30
0.0
 11
312.75501302079999
 21
194.56972679379999
 31
0.0
  0
LINE
  5
8A
  8
┌▓È_1
 62
     5
 10
312.75501302079999
 20
192.56972679379999
 30
0.0
 11
374.15501302080003
 21
192.56972679379999
 31
0.0
  0
ARC
  5
8B
  8
┌▓È_1
 62
     5
 10
377.15501302080003
 20
193.10256309810001
 30
0.0
 40
3.0
 50
90.0
 51
180.0
  0
LINE
  5
8C
  8
┌▓È_1
 62
     5
 10
310.75501302079999
 20
195.06972679379999
 30
0.0
 11
310.75501302079999
 21
194.56972679379999
 31
0.0
  0
ARC
  5
8D
  8
┌▓È_1
 62
     5
 10
377.15501302080003
 20
-31.897436901900001
 30
0.0
 40
3.0
 50
180.0
 51
270.0
  0
LINE
  5
8E
  8
┌▓È_1
 62
     5
 10
374.15501302080003
 20
-30.897436901900001
 30
0.0
 11
374.15501302080003
 21
-31.897436901900001
 31
0.0
  0
LINE
  5
8F
  8
┌▓È_1
 62
     5
 10
369.3033470972
 20
-32.930273206199999
 30
0.0
 11
374.33841060499998
 21
-32.930273206199999
 31
0.0
  0
LINE
  5
90
  8
┌▓È_1
 62
     5
 10
372.95501302079998
 20
-30.897436901900001
 30
0.0
 11
374.15501302080003
 21
-30.897436901900001
 31
0.0
  0
ARC
  5
91
  8
┌▓È_1
 62
     5
 10
369.3033470972
 20
-32.930273206199999
 30
0.0
 40
2.0
 50
194.50828864319999
 51
270.0
  0
LINE
  5
92
  8
┌▓È_1
 62
     5
 10
352.8733897608999
 20
30.561765313799999
 30
0.0
 11
369.3033470972
 21
-32.930273206199999
 31
0.0
  0
ARC
  5
93
  8
┌▓È_1
 62
     5
 10
308.75501302079999
 20
193.06972679379999
 30
0.0
 40
2.0
 50
14.5082886432
 51
90.0
  0
LINE
  5
94
  8
┌▓È_1
 62
     5
 10
374.15501302080003
 20
192.10256309810001
 30
0.0
 11
374.15501302080003
 21
193.10256309810001
 31
0.0
  0
LINE
  5
95
  8
┌▓È_1
 62
     5
 10
308.75501302079999
 20
195.06972679379999
 30
0.0
 11
286.75501302079999
 21
195.06972679379999
 31
0.0
  0
ARC
  5
96
  8
┌▓È_1
 62
     5
 10
312.75501302079999
 20
194.56972679379999
 30
0.0
 40
2.0
 50
180.0
 51
270.0
  0
LINE
  5
97
  8
┌▓È_1
 62
     5
 10
352.8733897608999
 20
30.561765313799999
 30
0.0
 11
310.69123583930002
 21
193.5707669091
 31
0.0
  0
LINE
  5
98
  8
┌▓È_1
 62
     5
 10
286.75501302079999
 20
193.06972679379999
 30
0.0
 11
286.75501302079999
 21
195.06972679379999
 31
0.0
  0
LINE
  5
99
  8
┌▓È_1
 62
     5
 10
195.19641904829999
 20
195.06972679379999
 30
0.0
 11
175.19641904829999
 21
195.06972679379999
 31
0.0
  0
LINE
  5
9A
  8
┌▓È_1
 62
     5
 10
195.19641904829999
 20
193.06972679379999
 30
0.0
 11
175.19641904829999
 21
193.06972679379999
 31
0.0
  0
LINE
  5
9B
  8
┌▓È_1
 62
     5
 10
173.44641904829999
 20
196.06972679379999
 30
0.0
 11
174.6464190483
 21
196.06972679379999
 31
0.0
  0
LINE
  5
9C
  8
┌▓È_1
 62
     5
 10
174.6464190483
 20
196.06972679379999
 30
0.0
 11
174.6464190483
 21
192.06972679379999
 31
0.0
  0
LINE
  5
9D
  8
┌▓È_1
 62
     5
 10
195.7464190483
 20
196.06972679379999
 30
0.0
 11
195.7464190483
 21
192.06972679379999
 31
0.0
  0
LINE
  5
9E
  8
┌▓È_1
 62
     5
 10
173.44641904829999
 20
192.06972679379999
 30
0.0
 11
175.19641904829999
 21
192.06972679379999
 31
0.0
  0
LINE
  5
9F
  8
┌▓È_1
 62
     5
 10
197.54641904830001
 20
90.569726793799987
 30
0.0
 11
197.54641904830001
 21
70.569726793800001
 31
0.0
  0
LINE
  5
A0
  8
┌▓È_1
 62
     5
 10
195.19641904829999
 20
192.06972679379999
 30
0.0
 11
196.94641904829999
 21
192.06972679379999
 31
0.0
  0
LINE
  5
A1
  8
┌▓È_1
 62
     5
 10
196.94641904829999
 20
196.06972679379999
 30
0.0
 11
195.7464190483
 21
196.06972679379999
 31
0.0
  0
LINE
  5
A2
  8
┌▓È_1
  6
BORDER
 62
     5
 10
185.19641904829999
 20
201.29233964100001
 30
0.0
 11
185.19641904829999
 21
189.26076069370001
 31
0.0
  0
LINE
  5
A3
  8
┌▓È_1
 62
     5
 10
195.19641904829999
 20
197.06972679379999
 30
0.0
 11
175.19641904829999
 21
197.06972679379999
 31
0.0
  0
LINE
  5
A4
  8
┌▓È_1
 62
     5
 10
195.19641904829999
 20
90.569726793799987
 30
0.0
 11
197.54641904830001
 21
90.569726793799987
 31
0.0
  0
LINE
  5
A5
  8
┌▓È_1
 62
     5
 10
197.54641904830001
 20
70.569726793800001
 30
0.0
 11
195.19641904829999
 21
70.569726793800001
 31
0.0
  0
LINE
  5
A6
  8
┌▓È_1
  6
BORDER
 62
     5
 10
296.75501302079999
 20
201.3666086469
 30
0.0
 11
296.75501302079999
 21
189.26076069370001
 31
0.0
  0
LINE
  5
A7
  8
┌▓È_1
 62
     5
 10
175.19641904829999
 20
-34.930273206199999
 30
0.0
 11
195.19641904829999
 21
-34.930273206199999
 31
0.0
  0
LINE
  5
A8
  8
┌▓È_1
 62
     5
 10
174.6464190483
 20
-34.930273206199999
 30
0.0
 11
174.6464190483
 21
-30.930273206199999
 31
0.0
  0
LINE
  5
A9
  8
┌▓È_1
 62
     5
 10
196.94641904829999
 20
-34.930273206199999
 30
0.0
 11
195.7464190483
 21
-34.930273206199999
 31
0.0
  0
LINE
  5
AA
  8
┌▓È_1
 62
     5
 10
195.7464190483
 20
-34.930273206199999
 30
0.0
 11
195.7464190483
 21
-30.930273206199999
 31
0.0
  0
LINE
  5
AB
  8
┌▓È_1
 62
     5
 10
173.44641904829999
 20
-34.930273206199999
 30
0.0
 11
174.6464190483
 21
-34.930273206199999
 31
0.0
  0
LINE
  5
AC
  8
┌▓È_1
 62
     5
 10
173.44641904829999
 20
-30.930273206199999
 30
0.0
 11
175.19641904829999
 21
-30.930273206199999
 31
0.0
  0
LINE
  5
AD
  8
┌▓È_1
 62
     5
 10
195.19641904829999
 20
-30.930273206199999
 30
0.0
 11
196.94641904829999
 21
-30.930273206199999
 31
0.0
  0
LINE
  5
AE
  8
┌▓È_1
 62
     5
 10
175.19641904829999
 20
197.06972679379999
 30
0.0
 11
175.19641904829999
 21
-34.930273206199999
 31
0.0
  0
LINE
  5
AF
  8
┌▓È_1
 62
     5
 10
195.19641904829999
 20
-34.930273206199999
 30
0.0
 11
195.19641904829999
 21
197.06972679379999
 31
0.0
  0
LINE
  5
B0
  8
┌▓È_1
 62
     5
 10
173.44641904829999
 20
-34.930273206199999
 30
0.0
 11
173.44641904829999
 21
196.06972679379999
 31
0.0
  0
LINE
  5
B1
  8
┌▓È_1
 10
312.8146040008001
 20
-469.98781877290003
 30
0.0
 11
315.81460400079999
 21
-465.48781877290003
 31
0.0
  0
LINE
  5
B2
  8
┌▓È_1
 10
288.81460400079999
 20
-481.98781877290003
 30
0.0
 11
288.81460400079999
 21
-486.48781877290003
 31
0.0
  0
LINE
  5
B3
  8
┌▓È_1
 10
267.33278581899998
 20
-465.48781877290003
 30
0.0
 11
255.33278581900001
 21
-465.48781877290003
 31
0.0
  0
LINE
  5
B4
  8
┌▓È_1
 10
315.81460400079999
 20
-465.48781877290003
 30
0.0
 11
288.81460400079999
 21
-465.48781877290003
 31
0.0
  0
LINE
  5
B5
  8
┌▓È_1
 10
288.81460400079999
 20
-465.48781877290003
 30
0.0
 11
288.81460400079999
 21
-470.88781877289989
 31
0.0
  0
LINE
  5
B6
  8
┌▓È_1
 10
288.81460400079999
 20
-486.48781877290003
 30
0.0
 11
288.81460400079999
 21
-481.98781877290003
 31
0.0
  0
LINE
  5
B7
  8
┌▓È_1
 10
322.46705194570001
 20
-478.38781877289989
 30
0.0
 11
322.46705194570001
 21
-483.78781877289998
 31
0.0
  0
LINE
  5
B8
  8
┌▓È_1
 10
262.83278581899998
 20
-480.48781877290003
 30
0.0
 11
262.83278581899998
 21
-475.98781877289991
 31
0.0
  0
LINE
  5
B9
  8
┌▓È_1
 10
262.83278581899998
 20
-475.98781877289991
 30
0.0
 11
268.83278581899998
 21
-475.98781877289991
 31
0.0
  0
LINE
  5
BA
  8
┌▓È_1
 10
280.83278581900009
 20
-471.48781877290003
 30
0.0
 11
276.33278581899998
 21
-471.48781877290003
 31
0.0
  0
LINE
  5
BB
  8
┌▓È_1
 10
276.33278581899998
 20
-471.48781877290003
 30
0.0
 11
276.33278581899998
 21
-469.98781877290003
 31
0.0
  0
LINE
  5
BC
  8
┌▓È_1
 10
276.33278581899998
 20
-469.98781877290003
 30
0.0
 11
280.83278581900009
 21
-465.48781877290003
 31
0.0
  0
INSERT
  5
BD
  8
0
  6
CONTINUOUS
  2
*U19
 10
0.0
 20
0.0
 30
0.0
  0
INSERT
  5
BE
  8
0
  6
CONTINUOUS
  2
*U20
 10
0.0
 20
0.0
 30
0.0
  0
INSERT
  5
BF
  8
0
  6
CONTINUOUS
  2
*U21
 10
0.0
 20
0.0
 30
0.0
  0
LINE
  5
C0
  8
┌▓È_1
 62
     5
 10
442.68346354170001
 20
-262.89335937499999
 30
0.0
 11
442.68346354170001
 21
-290.48301239009999
 31
0.0
  0
LINE
  5
C1
  8
┌▓È_1
 62
     5
 10
514.22096011510007
 20
-394.34333767359999
 30
0.0
 11
514.22096011510007
 21
-334.16978535959998
 31
0.0
  0
LINE
  5
C2
  8
┌▓È_1
 62
     5
 10
477.90351607330001
 20
-394.34333767359999
 30
0.0
 11
477.90351607330001
 21
-334.16978535959998
 31
0.0
  0
LINE
  5
C3
  8
┌▓È_1
 10
587.85084635420003
 20
-493.34333767359988
 30
0.0
 11
587.85084635420003
 21
-394.34333767359999
 31
0.0
  0
LINE
  5
C4
  8
┌▓È_1
 62
     5
 10
385.45416155200002
 20
-394.34333767359999
 30
0.0
 11
385.45416155200002
 21
-334.16978535959998
 31
0.0
  0
LINE
  5
C5
  8
┌▓È_1
 62
     5
 10
385.45416155200002
 20
-334.16978535959998
 30
0.0
 11
385.45416155200002
 21
-316.21471150439999
 31
0.0
  0
LINE
  5
C6
  8
┌▓È_1
 62
     5
 10
477.90351607330001
 20
-334.16978535959998
 30
0.0
 11
477.90351607330001
 21
-316.21471150439999
 31
0.0
  0
LINE
  5
C7
  8
┌▓È_1
 62
     5
 10
514.22096011510007
 20
-334.16978535959998
 30
0.0
 11
514.22096011510007
 21
-316.21471150439999
 31
0.0
  0
LINE
  5
C8
  8
┌▓È_1
 62
     5
 10
196.94641904829999
 20
196.06972679379999
 30
0.0
 11
196.94641904829999
 21
90.569726793799987
 31
0.0
  0
LINE
  5
C9
  8
┌▓È_1
 62
     5
 10
286.75501302079999
 20
195.06972679379999
 30
0.0
 11
286.75501302079999
 21
197.06972679379999
 31
0.0
  0
LINE
  5
CA
  8
┌▓È_1
 10
312.8146040008001
 20
-469.98781877290003
 30
0.0
 11
315.81460400079999
 21
-465.48781877290003
 31
0.0
  0
LINE
  5
CB
  8
┌▓È_1
 10
288.81460400079999
 20
-481.98781877290003
 30
0.0
 11
292.41460400080001
 21
-481.98781877290003
 31
0.0
  0
LINE
  5
CC
  8
┌▓È_1
 10
288.81460400079999
 20
-486.48781877290003
 30
0.0
 11
296.31460400079999
 21
-486.48781877290003
 31
0.0
  0
ARC
  5
CD
  8
┌▓È_1
 10
292.41460400080001
 20
-470.58781877289988
 30
0.0
 40
11.4
 50
270.0
 51
298.08590481520002
  0
LINE
  5
CE
  8
┌▓È_1
 10
328.46705194570001
 20
-465.48781877290003
 30
0.0
 11
340.46705194570001
 21
-465.48781877290003
 31
0.0
  0
LINE
  5
CF
  8
┌▓È_1
 10
349.46705194570001
 20
-470.58781877289988
 30
0.0
 11
349.46705194570001
 21
-475.98781877289991
 31
0.0
  0
LINE
  5
D0
  8
┌▓È_1
 10
262.83278581899998
 20
-469.98781877290003
 30
0.0
 11
267.33278581899998
 21
-465.48781877290003
 31
0.0
  0
LINE
  5
D1
  8
┌▓È_1
 10
255.33278581900001
 20
-465.48781877290003
 30
0.0
 11
255.33278581900001
 21
-471.48781877290003
 31
0.0
  0
LINE
  5
D2
  8
┌▓È_1
 10
255.33278581900001
 20
-471.48781877290003
 30
0.0
 11
251.8794743844
 21
-471.48781877290003
 31
0.0
  0
LINE
  5
D3
  8
┌▓È_1
 10
268.83278581899998
 20
-475.98781877289991
 30
0.0
 11
268.83278581899998
 21
-477.48781877290003
 31
0.0
  0
LINE
  5
D4
  8
┌▓È_1
 10
251.8794743844
 20
-471.48781877290003
 30
0.0
 11
251.8794743844
 21
-475.98781877289991
 31
0.0
  0
LINE
  5
D5
  8
┌▓È_1
 10
349.46705194570001
 20
-478.38781877289989
 30
0.0
 11
349.46705194570001
 21
-483.78781877289998
 31
0.0
  0
LINE
  5
D6
  8
┌▓È_1
 62
     5
 10
260.83776041670001
 20
-334.16978535959998
 30
0.0
 11
260.83776041670001
 21
-316.21471150439999
 31
0.0
  0
LINE
  5
D7
  8
┌▓È_1
 10
322.46705194570001
 20
-475.98781877289991
 30
0.0
 11
331.54705194569999
 21
-475.98781877289991
 31
0.0
  0
LINE
  5
D8
  8
┌▓È_1
 10
340.01387475130002
 20
-475.98781877289991
 30
0.0
 11
349.46705194570001
 21
-475.98781877289991
 31
0.0
  0
LINE
  5
D9
  8
┌▓È_1
 10
322.46705194570001
 20
-478.38781877289989
 30
0.0
 11
332.2510519457
 21
-478.38781877289989
 31
0.0
  0
LINE
  5
DA
  8
┌▓È_1
 10
340.70451019019998
 20
-478.38781877289989
 30
0.0
 11
349.46705194570001
 21
-478.38781877289989
 31
0.0
  0
LINE
  5
DB
  8
┌▓È_1
 10
322.46705194570001
 20
-483.78781877289998
 30
0.0
 11
333.8350519457
 21
-483.78781877289998
 31
0.0
  0
LINE
  5
DC
  8
┌▓È_1
 10
342.25843992770001
 20
-483.78781877289998
 30
0.0
 11
349.46705194570001
 21
-483.78781877289998
 31
0.0
  0
LINE
  5
DD
  8
┌▓È_1
 10
340.70451019019998
 20
-478.38781877289989
 30
0.0
 11
340.01387475130002
 21
-475.98781877289991
 31
0.0
  0
LINE
  5
DE
  8
┌▓È_1
 10
335.06705194569997
 20
-487.98781877290003
 30
0.0
 11
333.8350519457
 21
-483.78781877289998
 31
0.0
  0
LINE
  5
DF
  8
┌▓È_1
 10
332.2510519457
 20
-478.38781877289989
 30
0.0
 11
331.54705194569999
 21
-475.98781877289991
 31
0.0
  0
ARC
  5
E0
  8
┌▓È_1
 10
296.31460400079999
 20
-469.98781877290003
 30
0.0
 40
16.5
 50
322.48761197969998
 51
0.0
  0
LINE
  5
E1
  8
┌▓È_1
 10
302.42354147589998
 20
-476.04503148830003
 30
0.0
 11
301.70175405700002
 21
-476.8422465699
 31
0.0
  0
LINE
  5
E2
  8
┌▓È_1
 10
309.40276205710001
 20
-480.03521239989988
 30
0.0
 11
308.8684558777
 21
-480.55834683239999
 31
0.0
  0
LINE
  5
E3
  8
┌▓È_1
 62
     5
 10
180.0529670807
 20
-313.89335937499999
 30
0.0
 11
190.74770392280001
 21
-313.89335937499999
 31
0.0
  0
LINE
  5
E4
  8
┌▓È_1
 62
     5
 10
195.19641904829999
 20
-323.89335937499999
 30
0.0
 11
175.19641904829999
 21
-323.89335937499999
 31
0.0
  0
LINE
  5
E5
  8
┌▓È_1
 62
     5
 10
195.19641904829999
 20
-323.89335937499999
 30
0.0
 11
175.19641904829999
 21
-323.89335937499999
 31
0.0
  0
LINE
  5
E6
  8
┌▓È_1
 62
     5
 10
176.94641904829999
 20
-304.49335937500001
 30
0.0
 11
176.94641904829999
 21
-303.89335937499999
 31
0.0
  0
LINE
  5
E7
  8
┌▓È_1
 10
329.96305194569999
 20
-470.58781877289988
 30
0.0
 11
328.46705194570001
 21
-465.48781877290003
 31
0.0
  0
LINE
  5
E8
  8
┌▓È_1
 10
338.4599450138
 20
-470.58781877289988
 30
0.0
 11
338.02076226320003
 21
-469.06163210149998
 31
0.0
  0
LINE
  5
E9
  8
┌▓È_1
 10
343.46705194570001
 20
-487.98781877290003
 30
0.0
 11
342.25843992770001
 21
-483.78781877289998
 31
0.0
  0
LINE
  5
EA
  8
┌▓È_1
 10
255.33278581900001
 20
-486.48781877290003
 30
0.0
 11
267.33278581899998
 21
-486.48781877290003
 31
0.0
  0
ARC
  5
EB
  8
┌▓È_1
 10
267.33278581899998
 20
-477.48781877290003
 30
0.0
 40
9.0
 50
270.0
 51
0.0
  0
ARC
  5
EC
  8
┌▓È_1
 10
292.41460400080001
 20
-470.58781877289988
 30
0.0
 40
11.4
 50
331.39928138329998
 51
358.49204224580001
  0
LINE
  5
ED
  8
┌▓È_1
 10
257.85084635419997
 20
-394.34333767359999
 30
0.0
 11
257.85084635419997
 21
-427.34333767359999
 31
0.0
  0
LINE
  5
EE
  8
┌▓È_1
 10
137.8508463542
 20
-394.34333767359999
 30
0.0
 11
137.8508463542
 21
-493.34333767359988
 31
0.0
  0
LINE
  5
EF
  8
┌▓È_1
 10
197.8508463542
 20
-394.34333767359999
 30
0.0
 11
197.8508463542
 21
-427.34333767359999
 31
0.0
  0
LINE
  5
F0
  8
┌▓È_1
 62
     5
 10
207.0848391346
 20
-411.93128331619999
 30
0.0
 11
249.41817246799999
 21
-411.93128331619999
 31
0.0
  0
LINE
  5
F1
  8
┌▓È_1
 62
     5
 10
147.29656873530001
 20
-443.84333767359988
 30
0.0
 11
308.6848391346
 21
-443.84333767359988
 31
0.0
  0
LINE
  5
F2
  8
┌▓È_1
 62
     5
 10
147.29656873530001
 20
-411.93128331619999
 30
0.0
 11
188.74039469019999
 21
-411.93128331619999
 31
0.0
  0
LINE
  5
F3
  8
┌▓È_1
 10
264.33278581900009
 20
-481.98781877290003
 30
0.0
 11
255.33278581900001
 21
-481.98781877290003
 31
0.0
  0
LINE
  5
F4
  8
┌▓È_1
 10
288.81460400079999
 20
-473.42048037779989
 30
0.0
 11
288.81460400079999
 21
-472.45414957539992
 31
0.0
  0
LINE
  5
F5
  8
┌▓È_1
 10
288.81460400079999
 20
-472.45414957539992
 30
0.0
 11
300.81460400079999
 21
-472.45414957539992
 31
0.0
  0
LINE
  5
F6
  8
┌▓È_1
 10
288.81460400079999
 20
-470.88781877289989
 30
0.0
 11
303.8146040008001
 21
-470.88781877289989
 31
0.0
  0
ARC
  5
F7
  8
┌▓È_1
 10
296.31460400079999
 20
-469.98781877290003
 30
0.0
 40
16.5
 50
270.0
 51
302.54495885400001
  0
LINE
  5
F8
  8
┌▓È_1
 10
251.8794743844
 20
-475.98781877289991
 30
0.0
 11
254.8794743844
 21
-475.98781877289991
 31
0.0
  0
LINE
  5
F9
  8
┌▓È_1
 10
255.33278581900001
 20
-475.98781877289991
 30
0.0
 11
255.33278581900001
 21
-480.48781877290003
 31
0.0
  0
LINE
  5
FA
  8
┌▓È_1
 10
255.33278581900001
 20
-480.48781877290003
 30
0.0
 11
262.83278581899998
 21
-480.48781877290003
 31
0.0
  0
LINE
  5
FB
  8
┌▓È_1
 10
315.81460400079999
 20
-481.98781877290003
 30
0.0
 11
315.81460400079999
 21
-486.48781877290003
 31
0.0
  0
LINE
  5
FC
  8
┌▓È_1
 62
     5
 10
324.29656873530001
 20
-446.43128331619999
 30
0.0
 11
365.59965394940002
 21
-446.43128331619999
 31
0.0
  0
ARC
  5
FD
  8
┌▓È_1
 10
264.33278581900009
 20
-477.48781877290003
 30
0.0
 40
4.5
 50
270.0
 51
0.0
  0
LINE
  5
FE
  8
┌▓È_1
 10
276.33278581899998
 20
-477.48781877290003
 30
0.0
 11
276.33278581899998
 21
-475.98781877289991
 31
0.0
  0
LINE
  5
FF
  8
┌▓È_1
 10
300.81460400079999
 20
-472.45414957539992
 30
0.0
 11
299.117547726
 21
-474.15120585019991
 31
0.0
  0
LINE
  5
100
  8
┌▓È_1
 10
255.33278581900001
 20
-475.98781877289991
 30
0.0
 11
254.8794743844
 21
-475.98781877289991
 31
0.0
  0
LINE
  5
101
  8
┌▓È_1
 10
343.46705194570001
 20
-487.98781877290003
 30
0.0
 11
335.06705194569997
 21
-487.98781877290003
 31
0.0
  0
LINE
  5
102
  8
┌▓È_1
 10
338.02076226320003
 20
-469.06163210149998
 30
0.0
 11
340.46705194570001
 21
-465.48781877290003
 31
0.0
  0
LINE
  5
103
  8
┌▓È_1
 10
322.46705194570001
 20
-470.58781877289988
 30
0.0
 11
322.46705194570001
 21
-475.98781877289991
 31
0.0
  0
LINE
  5
104
  8
┌▓È_1
 10
268.83278581899998
 20
-471.48781877290003
 30
0.0
 11
262.83278581899998
 21
-471.48781877290003
 31
0.0
  0
LINE
  5
105
  8
┌▓È_1
 10
262.83278581899998
 20
-471.48781877290003
 30
0.0
 11
262.83278581899998
 21
-469.98781877290003
 31
0.0
  0
LINE
  5
106
  8
┌▓È_1
 62
     5
 10
175.19641904829999
 20
-303.89335937499999
 30
0.0
 11
195.19641904829999
 21
-303.89335937499999
 31
0.0
  0
ARC
  5
107
  8
┌▓È_1
 62
     5
 10
196.44641904829999
 20
-303.49335937500001
 30
0.0
 40
1.0
 50
270.0
 51
0.0
  0
ARC
  5
108
  8
┌▓È_1
 62
     5
 10
196.44641904829999
 20
-303.49335937500001
 30
0.0
 40
0.4
 50
270.0
 51
0.0
  0
LINE
  5
109
  8
┌▓È_1
 62
     5
 10
175.19641904829999
 20
-323.89335937499999
 30
0.0
 11
175.19641904829999
 21
-201.89335937499999
 31
0.0
  0
LINE
  5
10A
  8
┌▓È_1
 62
     5
 10
197.44641904829999
 20
-289.943359375
 30
0.0
 11
197.44641904829999
 21
-303.49335937500001
 31
0.0
  0
LINE
  5
10B
  8
┌▓È_1
 62
     5
 10
174.7464190483
 20
-303.09335937499998
 30
0.0
 11
174.7464190483
 21
-290.09335937499998
 31
0.0
  0
LINE
  5
10C
  8
┌▓È_1
 10
322.46705194570001
 20
-470.58781877289988
 30
0.0
 11
329.96305194569999
 21
-470.58781877289988
 31
0.0
  0
LINE
  5
10D
  8
┌▓È_1
 62
     5
 10
260.83776041670001
 20
-394.34333767359999
 30
0.0
 11
260.83776041670001
 21
-334.16978535959998
 31
0.0
  0
LINE
  5
10E
  8
┌▓È_1
 62
     5
 10
228.03606770830001
 20
-394.34333767359999
 30
0.0
 11
228.03606770830001
 21
-334.16978535959998
 31
0.0
  0
LINE
  5
10F
  8
┌▓È_1
 62
     5
 10
228.03606770830001
 20
-353.87677891769999
 30
0.0
 11
228.03606770830001
 21
-316.21471150439999
 31
0.0
  0
LINE
  5
110
  8
┌▓È_1
 10
280.83278581900009
 20
-471.48781877290003
 30
0.0
 11
280.83278581900009
 21
-475.98781877289991
 31
0.0
  0
LINE
  5
111
  8
┌▓È_1
 10
280.83278581900009
 20
-465.48781877290003
 30
0.0
 11
268.83278581899998
 21
-465.48781877290003
 31
0.0
  0
LINE
  5
112
  8
┌▓È_1
 10
268.83278581899998
 20
-465.48781877290003
 30
0.0
 11
268.83278581899998
 21
-471.48781877290003
 31
0.0
  0
LINE
  5
113
  8
┌▓È_1
 62
     5
 10
173.54641904830001
 20
-303.09335937499998
 30
0.0
 11
174.7464190483
 21
-303.09335937499998
 31
0.0
  0
CIRCLE
  5
114
  8
┌▓È_1
 62
     5
 10
185.19641904829999
 20
-313.89335937499999
 30
0.0
 40
2.25
  0
INSERT
  5
115
  8
0
  6
CONTINUOUS
  2
*U22
 10
0.0
 20
0.0
 30
0.0
  0
INSERT
  5
116
  8
0
  6
CONTINUOUS
  2
*U23
 10
0.0
 20
0.0
 30
0.0
  0
INSERT
  5
117
  8
0
  6
CONTINUOUS
  2
*U24
 10
0.0
 20
0.0
 30
0.0
  0
LINE
  5
118
  8
┌▓È_1
 62
     5
 10
195.19641904829999
 20
-201.89335937499999
 30
0.0
 11
195.19641904829999
 21
-323.89335937499999
 31
0.0
  0
LINE
  5
119
  8
┌▓È_1
  6
BORDER
 62
     5
 10
185.19641904829999
 20
-195.84518229170001
 30
0.0
 11
185.19641904829999
 21
-330.42714843750002
 31
0.0
  0
LINE
  5
11A
  8
┌▓È_1
 62
     5
 10
195.6464190483
 20
-303.09335937499998
 30
0.0
 11
195.6464190483
 21
-290.09335937499998
 31
0.0
  0
LINE
  5
11B
  8
┌▓È_1
 62
     5
 10
326.0885428383001
 20
-411.93128331619999
 30
0.0
 11
368.89224654200001
 21
-411.93128331619999
 31
0.0
  0
LINE
  5
11C
  8
┌▓È_1
 62
     5
 10
269.1737280234999
 20
-411.93128331619999
 30
0.0
 11
308.6848391346
 21
-411.93128331619999
 31
0.0
  0
LINE
  5
11D
  8
Éíû@É³
 62
     5
 10
234.0
 20
-173.75057411189999
 30
0.0
 11
311.14973784720002
 21
-173.75057411189999
 31
0.0
  0
LINE
  5
11E
  8
┌▓È_1
 62
     5
 10
196.44641904829999
 20
-304.49335937500001
 30
0.0
 11
176.94641904829999
 21
-304.49335937500001
 31
0.0
  0
LINE
  5
11F
  8
┌▓È_1
 62
     5
 10
196.84641904829999
 20
-303.09335937499998
 30
0.0
 11
195.6464190483
 21
-303.09335937499998
 31
0.0
  0
LINE
  5
120
  8
┌▓È_1
 62
     5
 10
195.19641904829999
 20
-303.89335937499999
 30
0.0
 11
196.44641904829999
 21
-303.89335937499999
 31
0.0
  0
LINE
  5
121
  8
┌▓È_1
 62
     5
 10
196.84641904829999
 20
-303.49335937500001
 30
0.0
 11
196.84641904829999
 21
-289.943359375
 31
0.0
  0
LINE
  5
122
  8
┌▓È_1
 10
338.4599450138
 20
-470.58781877289988
 30
0.0
 11
349.46705194570001
 21
-470.58781877289988
 31
0.0
  0
LINE
  5
123
  8
┌▓È_1
 10
255.33278581900001
 20
-481.98781877290003
 30
0.0
 11
255.33278581900001
 21
-486.48781877290003
 31
0.0
  0
LINE
  5
124
  8
┌▓È_1
 10
276.33278581899998
 20
-475.98781877289991
 30
0.0
 11
280.83278581900009
 21
-475.98781877289991
 31
0.0
  0
LINE
  5
125
  8
┌▓È_1
 62
     5
 10
173.54641904830001
 20
-290.09335937499998
 30
0.0
 11
173.54641904830001
 21
-303.09335937499998
 31
0.0
  0
LINE
  5
126
  8
┌▓È_1
 62
     5
 10
195.19641904829999
 20
-201.89335937499999
 30
0.0
 11
195.19641904829999
 21
-323.89335937499999
 31
0.0
  0
LINE
  5
127
  8
┌▓È_1
 62
     5
 10
175.19641904829999
 20
-323.89335937499999
 30
0.0
 11
175.19641904829999
 21
-201.89335937499999
 31
0.0
  0
POLYLINE
  8
┌▓È_1
  5
3AA
  66
     1
 10
0.000000
 20
0.000000
 30
0.000000
  70
     8
  0
VERTEX
  8
┌▓È_1
  5
3AB
 10
305.191
 20
-483.897
 30
0.000000
  70
    32
  0
VERTEX
  8
┌▓È_1
  5
3AC
 10
305.272
 20
-483.923
 30
0.000000
  70
    32
  0
VERTEX
  8
┌▓È_1
  5
3AD
 10
305.353
 20
-483.948
 30
0.000000
  70
    32
  0
VERTEX
  8
┌▓È_1
  5
3AE
 10
305.433
 20
-483.974
 30
0.000000
  70
    32
  0
VERTEX
  8
┌▓È_1
  5
3AF
 10
305.514
 20
-483.999
 30
0.000000
  70
    32
  0
VERTEX
  8
┌▓È_1
  5
3B0
 10
305.595
 20
-484.024
 30
0.000000
  70
    32
  0
VERTEX
  8
┌▓È_1
  5
3B1
 10
305.677
 20
-484.049
 30
0.000000
  70
    32
  0
VERTEX
  8
┌▓È_1
  5
3B2
 10
305.758
 20
-484.074
 30
0.000000
  70
    32
  0
VERTEX
  8
┌▓È_1
  5
3B3
 10
305.839
 20
-484.099
 30
0.000000
  70
    32
  0
VERTEX
  8
┌▓È_1
  5
3B4
 10
305.920
 20
-484.124
 30
0.000000
  70
    32
  0
VERTEX
  8
┌▓È_1
  5
3B5
 10
306.002
 20
-484.149
 30
0.000000
  70
    32
  0
VERTEX
  8
┌▓È_1
  5
3B6
 10
306.083
 20
-484.173
 30
0.000000
  70
    32
  0
VERTEX
  8
┌▓È_1
  5
3B7
 10
306.164
 20
-484.198
 30
0.000000
  70
    32
  0
VERTEX
  8
┌▓È_1
  5
3B8
 10
306.246
 20
-484.222
 30
0.000000
  70
    32
  0
VERTEX
  8
┌▓È_1
  5
3B9
 10
306.328
 20
-484.246
 30
0.000000
  70
    32
  0
VERTEX
  8
┌▓È_1
  5
3BA
 10
306.409
 20
-484.270
 30
0.000000
  70
    32
  0
VERTEX
  8
┌▓È_1
  5
3BB
 10
306.491
 20
-484.294
 30
0.000000
  70
    32
  0
VERTEX
  8
┌▓È_1
  5
3BC
 10
306.573
 20
-484.318
 30
0.000000
  70
    32
  0
VERTEX
  8
┌▓È_1
  5
3BD
 10
306.655
 20
-484.342
 30
0.000000
  70
    32
  0
VERTEX
  8
┌▓È_1
  5
3BE
 10
306.737
 20
-484.365
 30
0.000000
  70
    32
  0
VERTEX
  8
┌▓È_1
  5
3BF
 10
306.819
 20
-484.389
 30
0.000000
  70
    32
  0
VERTEX
  8
┌▓È_1
  5
3C0
 10
306.901
 20
-484.412
 30
0.000000
  70
    32
  0
VERTEX
  8
┌▓È_1
  5
3C1
 10
306.983
 20
-484.436
 30
0.000000
  70
    32
  0
VERTEX
  8
┌▓È_1
  5
3C2
 10
307.065
 20
-484.459
 30
0.000000
  70
    32
  0
VERTEX
  8
┌▓È_1
  5
3C3
 10
307.147
 20
-484.482
 30
0.000000
  70
    32
  0
VERTEX
  8
┌▓È_1
  5
3C4
 10
307.229
 20
-484.505
 30
0.000000
  70
    32
  0
VERTEX
  8
┌▓È_1
  5
3C5
 10
307.312
 20
-484.528
 30
0.000000
  70
    32
  0
VERTEX
  8
┌▓È_1
  5
3C6
 10
307.394
 20
-484.551
 30
0.000000
  70
    32
  0
VERTEX
  8
┌▓È_1
  5
3C7
 10
307.476
 20
-484.573
 30
0.000000
  70
    32
  0
VERTEX
  8
┌▓È_1
  5
3C8
 10
307.559
 20
-484.596
 30
0.000000
  70
    32
  0
VERTEX
  8
┌▓È_1
  5
3C9
 10
307.641
 20
-484.618
 30
0.000000
  70
    32
  0
VERTEX
  8
┌▓È_1
  5
3CA
 10
307.724
 20
-484.641
 30
0.000000
  70
    32
  0
VERTEX
  8
┌▓È_1
  5
3CB
 10
307.807
 20
-484.663
 30
0.000000
  70
    32
  0
VERTEX
  8
┌▓È_1
  5
3CC
 10
307.889
 20
-484.685
 30
0.000000
  70
    32
  0
VERTEX
  8
┌▓È_1
  5
3CD
 10
307.972
 20
-484.707
 30
0.000000
  70
    32
  0
VERTEX
  8
┌▓È_1
  5
3CE
 10
308.055
 20
-484.729
 30
0.000000
  70
    32
  0
VERTEX
  8
┌▓È_1
  5
3CF
 10
308.138
 20
-484.751
 30
0.000000
  70
    32
  0
VERTEX
  8
┌▓È_1
  5
3D0
 10
308.220
 20
-484.773
 30
0.000000
  70
    32
  0
VERTEX
  8
┌▓È_1
  5
3D1
 10
308.303
 20
-484.795
 30
0.000000
  70
    32
  0
VERTEX
  8
┌▓È_1
  5
3D2
 10
308.386
 20
-484.816
 30
0.000000
  70
    32
  0
VERTEX
  8
┌▓È_1
  5
3D3
 10
308.469
 20
-484.838
 30
0.000000
  70
    32
  0
VERTEX
  8
┌▓È_1
  5
3D4
 10
308.552
 20
-484.859
 30
0.000000
  70
    32
  0
VERTEX
  8
┌▓È_1
  5
3D5
 10
308.636
 20
-484.881
 30
0.000000
  70
    32
  0
VERTEX
  8
┌▓È_1
  5
3D6
 10
308.719
 20
-484.902
 30
0.000000
  70
    32
  0
VERTEX
  8
┌▓È_1
  5
3D7
 10
308.802
 20
-484.923
 30
0.000000
  70
    32
  0
VERTEX
  8
┌▓È_1
  5
3D8
 10
308.885
 20
-484.944
 30
0.000000
  70
    32
  0
VERTEX
  8
┌▓È_1
  5
3D9
 10
308.969
 20
-484.965
 30
0.000000
  70
    32
  0
VERTEX
  8
┌▓È_1
  5
3DA
 10
309.052
 20
-484.986
 30
0.000000
  70
    32
  0
VERTEX
  8
┌▓È_1
  5
3DB
 10
309.135
 20
-485.007
 30
0.000000
  70
    32
  0
VERTEX
  8
┌▓È_1
  5
3DC
 10
309.219
 20
-485.028
 30
0.000000
  70
    32
  0
VERTEX
  8
┌▓È_1
  5
3DD
 10
309.302
 20
-485.049
 30
0.000000
  70
    32
  0
VERTEX
  8
┌▓È_1
  5
3DE
 10
309.386
 20
-485.069
 30
0.000000
  70
    32
  0
VERTEX
  8
┌▓È_1
  5
3DF
 10
309.469
 20
-485.090
 30
0.000000
  70
    32
  0
VERTEX
  8
┌▓È_1
  5
3E0
 10
309.553
 20
-485.110
 30
0.000000
  70
    32
  0
VERTEX
  8
┌▓È_1
  5
3E1
 10
309.637
 20
-485.131
 30
0.000000
  70
    32
  0
VERTEX
  8
┌▓È_1
  5
3E2
 10
309.720
 20
-485.151
 30
0.000000
  70
    32
  0
VERTEX
  8
┌▓È_1
  5
3E3
 10
309.804
 20
-485.171
 30
0.000000
  70
    32
  0
VERTEX
  8
┌▓È_1
  5
3E4
 10
309.888
 20
-485.192
 30
0.000000
  70
    32
  0
VERTEX
  8
┌▓È_1
  5
3E5
 10
309.972
 20
-485.212
 30
0.000000
  70
    32
  0
VERTEX
  8
┌▓È_1
  5
3E6
 10
310.055
 20
-485.232
 30
0.000000
  70
    32
  0
VERTEX
  8
┌▓È_1
  5
3E7
 10
310.139
 20
-485.252
 30
0.000000
  70
    32
  0
VERTEX
  8
┌▓È_1
  5
3E8
 10
310.223
 20
-485.272
 30
0.000000
  70
    32
  0
VERTEX
  8
┌▓È_1
  5
3E9
 10
310.307
 20
-485.292
 30
0.000000
  70
    32
  0
VERTEX
  8
┌▓È_1
  5
3EA
 10
310.391
 20
-485.311
 30
0.000000
  70
    32
  0
VERTEX
  8
┌▓È_1
  5
3EB
 10
310.475
 20
-485.331
 30
0.000000
  70
    32
  0
VERTEX
  8
┌▓È_1
  5
3EC
 10
310.559
 20
-485.351
 30
0.000000
  70
    32
  0
VERTEX
  8
┌▓È_1
  5
3ED
 10
310.643
 20
-485.370
 30
0.000000
  70
    32
  0
VERTEX
  8
┌▓È_1
  5
3EE
 10
310.727
 20
-485.390
 30
0.000000
  70
    32
  0
VERTEX
  8
┌▓È_1
  5
3EF
 10
310.811
 20
-485.409
 30
0.000000
  70
    32
  0
VERTEX
  8
┌▓È_1
  5
3F0
 10
310.896
 20
-485.429
 30
0.000000
  70
    32
  0
VERTEX
  8
┌▓È_1
  5
3F1
 10
310.980
 20
-485.448
 30
0.000000
  70
    32
  0
VERTEX
  8
┌▓È_1
  5
3F2
 10
311.064
 20
-485.467
 30
0.000000
  70
    32
  0
VERTEX
  8
┌▓È_1
  5
3F3
 10
311.148
 20
-485.487
 30
0.000000
  70
    32
  0
VERTEX
  8
┌▓È_1
  5
3F4
 10
311.233
 20
-485.506
 30
0.000000
  70
    32
  0
VERTEX
  8
┌▓È_1
  5
3F5
 10
311.317
 20
-485.525
 30
0.000000
  70
    32
  0
VERTEX
  8
┌▓È_1
  5
3F6
 10
311.401
 20
-485.544
 30
0.000000
  70
    32
  0
VERTEX
  8
┌▓È_1
  5
3F7
 10
311.486
 20
-485.563
 30
0.000000
  70
    32
  0
VERTEX
  8
┌▓È_1
  5
3F8
 10
311.570
 20
-485.582
 30
0.000000
  70
    32
  0
VERTEX
  8
┌▓È_1
  5
3F9
 10
311.655
 20
-485.601
 30
0.000000
  70
    32
  0
VERTEX
  8
┌▓È_1
  5
3FA
 10
311.739
 20
-485.620
 30
0.000000
  70
    32
  0
VERTEX
  8
┌▓È_1
  5
3FB
 10
311.824
 20
-485.639
 30
0.000000
  70
    32
  0
VERTEX
  8
┌▓È_1
  5
3FC
 10
311.908
 20
-485.658
 30
0.000000
  70
    32
  0
VERTEX
  8
┌▓È_1
  5
3FD
 10
311.993
 20
-485.676
 30
0.000000
  70
    32
  0
VERTEX
  8
┌▓È_1
  5
3FE
 10
312.077
 20
-485.695
 30
0.000000
  70
    32
  0
VERTEX
  8
┌▓È_1
  5
3FF
 10
312.162
 20
-485.714
 30
0.000000
  70
    32
  0
VERTEX
  8
┌▓È_1
  5
400
 10
312.247
 20
-485.732
 30
0.000000
  70
    32
  0
VERTEX
  8
┌▓È_1
  5
401
 10
312.331
 20
-485.751
 30
0.000000
  70
    32
  0
VERTEX
  8
┌▓È_1
  5
402
 10
312.416
 20
-485.769
 30
0.000000
  70
    32
  0
VERTEX
  8
┌▓È_1
  5
403
 10
312.501
 20
-485.788
 30
0.000000
  70
    32
  0
VERTEX
  8
┌▓È_1
  5
404
 10
312.585
 20
-485.806
 30
0.000000
  70
    32
  0
VERTEX
  8
┌▓È_1
  5
405
 10
312.670
 20
-485.825
 30
0.000000
  70
    32
  0
VERTEX
  8
┌▓È_1
  5
406
 10
312.755
 20
-485.843
 30
0.000000
  70
    32
  0
VERTEX
  8
┌▓È_1
  5
407
 10
312.839
 20
-485.861
 30
0.000000
  70
    32
  0
VERTEX
  8
┌▓È_1
  5
408
 10
312.924
 20
-485.880
 30
0.000000
  70
    32
  0
VERTEX
  8
┌▓È_1
  5
409
 10
313.009
 20
-485.898
 30
0.000000
  70
    32
  0
VERTEX
  8
┌▓È_1
  5
40A
 10
313.094
 20
-485.916
 30
0.000000
  70
    32
  0
VERTEX
  8
┌▓È_1
  5
40B
 10
313.179
 20
-485.934
 30
0.000000
  70
    32
  0
VERTEX
  8
┌▓È_1
  5
40C
 10
313.264
 20
-485.952
 30
0.000000
  70
    32
  0
VERTEX
  8
┌▓È_1
  5
40D
 10
313.348
 20
-485.971
 30
0.000000
  70
    32
  0
VERTEX
  8
┌▓È_1
  5
40E
 10
313.433
 20
-485.989
 30
0.000000
  70
    32
  0
VERTEX
  8
┌▓È_1
  5
40F
 10
313.518
 20
-486.007
 30
0.000000
  70
    32
  0
VERTEX
  8
┌▓È_1
  5
410
 10
313.603
 20
-486.025
 30
0.000000
  70
    32
  0
VERTEX
  8
┌▓È_1
  5
411
 10
313.688
 20
-486.043
 30
0.000000
  70
    32
  0
VERTEX
  8
┌▓È_1
  5
412
 10
313.773
 20
-486.061
 30
0.000000
  70
    32
  0
VERTEX
  8
┌▓È_1
  5
413
 10
313.858
 20
-486.079
 30
0.000000
  70
    32
  0
VERTEX
  8
┌▓È_1
  5
414
 10
313.943
 20
-486.097
 30
0.000000
  70
    32
  0
VERTEX
  8
┌▓È_1
  5
415
 10
314.028
 20
-486.115
 30
0.000000
  70
    32
  0
VERTEX
  8
┌▓È_1
  5
416
 10
314.113
 20
-486.133
 30
0.000000
  70
    32
  0
VERTEX
  8
┌▓È_1
  5
417
 10
314.198
 20
-486.150
 30
0.000000
  70
    32
  0
VERTEX
  8
┌▓È_1
  5
418
 10
314.283
 20
-486.168
 30
0.000000
  70
    32
  0
VERTEX
  8
┌▓È_1
  5
419
 10
314.368
 20
-486.186
 30
0.000000
  70
    32
  0
VERTEX
  8
┌▓È_1
  5
41A
 10
314.453
 20
-486.204
 30
0.000000
  70
    32
  0
VERTEX
  8
┌▓È_1
  5
41B
 10
314.538
 20
-486.222
 30
0.000000
  70
    32
  0
VERTEX
  8
┌▓È_1
  5
41C
 10
314.623
 20
-486.240
 30
0.000000
  70
    32
  0
VERTEX
  8
┌▓È_1
  5
41D
 10
314.708
 20
-486.257
 30
0.000000
  70
    32
  0
VERTEX
  8
┌▓È_1
  5
41E
 10
314.793
 20
-486.275
 30
0.000000
  70
    32
  0
VERTEX
  8
┌▓È_1
  5
41F
 10
314.878
 20
-486.293
 30
0.000000
  70
    32
  0
VERTEX
  8
┌▓È_1
  5
420
 10
314.964
 20
-486.311
 30
0.000000
  70
    32
  0
VERTEX
  8
┌▓È_1
  5
421
 10
315.049
 20
-486.328
 30
0.000000
  70
    32
  0
VERTEX
  8
┌▓È_1
  5
422
 10
315.134
 20
-486.346
 30
0.000000
  70
    32
  0
VERTEX
  8
┌▓È_1
  5
423
 10
315.219
 20
-486.364
 30
0.000000
  70
    32
  0
VERTEX
  8
┌▓È_1
  5
424
 10
315.304
 20
-486.382
 30
0.000000
  70
    32
  0
VERTEX
  8
┌▓È_1
  5
425
 10
315.389
 20
-486.399
 30
0.000000
  70
    32
  0
VERTEX
  8
┌▓È_1
  5
426
 10
315.474
 20
-486.417
 30
0.000000
  70
    32
  0
VERTEX
  8
┌▓È_1
  5
427
 10
315.559
 20
-486.435
 30
0.000000
  70
    32
  0
VERTEX
  8
┌▓È_1
  5
428
 10
315.644
 20
-486.452
 30
0.000000
  70
    32
  0
VERTEX
  8
┌▓È_1
  5
429
 10
315.729
 20
-486.470
 30
0.000000
  70
    32
  0
VERTEX
  8
┌▓È_1
  5
42A
 10
315.815
 20
-486.488
 30
0.000000
  70
    32
  0
SEQEND
  8
┌▓È_1
  5
42B
  0
POLYLINE
  8
┌▓È_1
  5
42C
  66
     1
 10
0.000000
 20
0.000000
 30
0.000000
  70
     8
  0
VERTEX
  8
┌▓È_1
  5
42D
 10
288.815
 20
-473.420
 30
0.000000
  70
    32
  0
VERTEX
  8
┌▓È_1
  5
42E
 10
288.869
 20
-473.470
 30
0.000000
  70
    32
  0
VERTEX
  8
┌▓È_1
  5
42F
 10
288.923
 20
-473.520
 30
0.000000
  70
    32
  0
VERTEX
  8
┌▓È_1
  5
430
 10
288.977
 20
-473.570
 30
0.000000
  70
    32
  0
VERTEX
  8
┌▓È_1
  5
431
 10
289.031
 20
-473.620
 30
0.000000
  70
    32
  0
VERTEX
  8
┌▓È_1
  5
432
 10
289.085
 20
-473.669
 30
0.000000
  70
    32
  0
VERTEX
  8
┌▓È_1
  5
433
 10
289.139
 20
-473.719
 30
0.000000
  70
    32
  0
VERTEX
  8
┌▓È_1
  5
434
 10
289.193
 20
-473.769
 30
0.000000
  70
    32
  0
VERTEX
  8
┌▓È_1
  5
435
 10
289.247
 20
-473.819
 30
0.000000
  70
    32
  0
VERTEX
  8
┌▓È_1
  5
436
 10
289.301
 20
-473.869
 30
0.000000
  70
    32
  0
VERTEX
  8
┌▓È_1
  5
437
 10
289.355
 20
-473.918
 30
0.000000
  70
    32
  0
VERTEX
  8
┌▓È_1
  5
438
 10
289.409
 20
-473.968
 30
0.000000
  70
    32
  0
VERTEX
  8
┌▓È_1
  5
439
 10
289.463
 20
-474.018
 30
0.000000
  70
    32
  0
VERTEX
  8
┌▓È_1
  5
43A
 10
289.517
 20
-474.068
 30
0.000000
  70
    32
  0
VERTEX
  8
┌▓È_1
  5
43B
 10
289.571
 20
-474.117
 30
0.000000
  70
    32
  0
VERTEX
  8
┌▓È_1
  5
43C
 10
289.625
 20
-474.167
 30
0.000000
  70
    32
  0
VERTEX
  8
┌▓È_1
  5
43D
 10
289.680
 20
-474.217
 30
0.000000
  70
    32
  0
VERTEX
  8
┌▓È_1
  5
43E
 10
289.734
 20
-474.266
 30
0.000000
  70
    32
  0
VERTEX
  8
┌▓È_1
  5
43F
 10
289.788
 20
-474.316
 30
0.000000
  70
    32
  0
VERTEX
  8
┌▓È_1
  5
440
 10
289.842
 20
-474.366
 30
0.000000
  70
    32
  0
VERTEX
  8
┌▓È_1
  5
441
 10
289.896
 20
-474.415
 30
0.000000
  70
    32
  0
VERTEX
  8
┌▓È_1
  5
442
 10
289.950
 20
-474.465
 30
0.000000
  70
    32
  0
VERTEX
  8
┌▓È_1
  5
443
 10
290.004
 20
-474.514
 30
0.000000
  70
    32
  0
VERTEX
  8
┌▓È_1
  5
444
 10
290.059
 20
-474.564
 30
0.000000
  70
    32
  0
VERTEX
  8
┌▓È_1
  5
445
 10
290.113
 20
-474.613
 30
0.000000
  70
    32
  0
VERTEX
  8
┌▓È_1
  5
446
 10
290.167
 20
-474.663
 30
0.000000
  70
    32
  0
VERTEX
  8
┌▓È_1
  5
447
 10
290.221
 20
-474.712
 30
0.000000
  70
    32
  0
VERTEX
  8
┌▓È_1
  5
448
 10
290.275
 20
-474.762
 30
0.000000
  70
    32
  0
VERTEX
  8
┌▓È_1
  5
449
 10
290.330
 20
-474.811
 30
0.000000
  70
    32
  0
VERTEX
  8
┌▓È_1
  5
44A
 10
290.384
 20
-474.861
 30
0.000000
  70
    32
  0
VERTEX
  8
┌▓È_1
  5
44B
 10
290.438
 20
-474.910
 30
0.000000
  70
    32
  0
VERTEX
  8
┌▓È_1
  5
44C
 10
290.492
 20
-474.959
 30
0.000000
  70
    32
  0
VERTEX
  8
┌▓È_1
  5
44D
 10
290.547
 20
-475.009
 30
0.000000
  70
    32
  0
VERTEX
  8
┌▓È_1
  5
44E
 10
290.601
 20
-475.058
 30
0.000000
  70
    32
  0
VERTEX
  8
┌▓È_1
  5
44F
 10
290.655
 20
-475.107
 30
0.000000
  70
    32
  0
VERTEX
  8
┌▓È_1
  5
450
 10
290.710
 20
-475.156
 30
0.000000
  70
    32
  0
VERTEX
  8
┌▓È_1
  5
451
 10
290.764
 20
-475.206
 30
0.000000
  70
    32
  0
VERTEX
  8
┌▓È_1
  5
452
 10
290.819
 20
-475.255
 30
0.000000
  70
    32
  0
VERTEX
  8
┌▓È_1
  5
453
 10
290.873
 20
-475.304
 30
0.000000
  70
    32
  0
VERTEX
  8
┌▓È_1
  5
454
 10
290.927
 20
-475.353
 30
0.000000
  70
    32
  0
VERTEX
  8
┌▓È_1
  5
455
 10
290.982
 20
-475.402
 30
0.000000
  70
    32
  0
VERTEX
  8
┌▓È_1
  5
456
 10
291.036
 20
-475.451
 30
0.000000
  70
    32
  0
VERTEX
  8
┌▓È_1
  5
457
 10
291.091
 20
-475.500
 30
0.000000
  70
    32
  0
VERTEX
  8
┌▓È_1
  5
458
 10
291.146
 20
-475.548
 30
0.000000
  70
    32
  0
VERTEX
  8
┌▓È_1
  5
459
 10
291.200
 20
-475.597
 30
0.000000
  70
    32
  0
VERTEX
  8
┌▓È_1
  5
45A
 10
291.255
 20
-475.646
 30
0.000000
  70
    32
  0
VERTEX
  8
┌▓È_1
  5
45B
 10
291.309
 20
-475.695
 30
0.000000
  70
    32
  0
VERTEX
  8
┌▓È_1
  5
45C
 10
291.364
 20
-475.744
 30
0.000000
  70
    32
  0
VERTEX
  8
┌▓È_1
  5
45D
 10
291.419
 20
-475.792
 30
0.000000
  70
    32
  0
VERTEX
  8
┌▓È_1
  5
45E
 10
291.473
 20
-475.841
 30
0.000000
  70
    32
  0
VERTEX
  8
┌▓È_1
  5
45F
 10
291.528
 20
-475.889
 30
0.000000
  70
    32
  0
VERTEX
  8
┌▓È_1
  5
460
 10
291.583
 20
-475.938
 30
0.000000
  70
    32
  0
VERTEX
  8
┌▓È_1
  5
461
 10
291.638
 20
-475.986
 30
0.000000
  70
    32
  0
VERTEX
  8
┌▓È_1
  5
462
 10
291.692
 20
-476.035
 30
0.000000
  70
    32
  0
VERTEX
  8
┌▓È_1
  5
463
 10
291.747
 20
-476.083
 30
0.000000
  70
    32
  0
VERTEX
  8
┌▓È_1
  5
464
 10
291.802
 20
-476.131
 30
0.000000
  70
    32
  0
VERTEX
  8
┌▓È_1
  5
465
 10
291.857
 20
-476.179
 30
0.000000
  70
    32
  0
VERTEX
  8
┌▓È_1
  5
466
 10
291.912
 20
-476.228
 30
0.000000
  70
    32
  0
VERTEX
  8
┌▓È_1
  5
467
 10
291.967
 20
-476.276
 30
0.000000
  70
    32
  0
VERTEX
  8
┌▓È_1
  5
468
 10
292.022
 20
-476.324
 30
0.000000
  70
    32
  0
VERTEX
  8
┌▓È_1
  5
469
 10
292.077
 20
-476.372
 30
0.000000
  70
    32
  0
VERTEX
  8
┌▓È_1
  5
46A
 10
292.132
 20
-476.420
 30
0.000000
  70
    32
  0
VERTEX
  8
┌▓È_1
  5
46B
 10
292.187
 20
-476.467
 30
0.000000
  70
    32
  0
VERTEX
  8
┌▓È_1
  5
46C
 10
292.242
 20
-476.515
 30
0.000000
  70
    32
  0
VERTEX
  8
┌▓È_1
  5
46D
 10
292.297
 20
-476.563
 30
0.000000
  70
    32
  0
VERTEX
  8
┌▓È_1
  5
46E
 10
292.352
 20
-476.611
 30
0.000000
  70
    32
  0
VERTEX
  8
┌▓È_1
  5
46F
 10
292.408
 20
-476.658
 30
0.000000
  70
    32
  0
VERTEX
  8
┌▓È_1
  5
470
 10
292.463
 20
-476.706
 30
0.000000
  70
    32
  0
VERTEX
  8
┌▓È_1
  5
471
 10
292.518
 20
-476.753
 30
0.000000
  70
    32
  0
VERTEX
  8
┌▓È_1
  5
472
 10
292.574
 20
-476.800
 30
0.000000
  70
    32
  0
VERTEX
  8
┌▓È_1
  5
473
 10
292.629
 20
-476.848
 30
0.000000
  70
    32
  0
VERTEX
  8
┌▓È_1
  5
474
 10
292.684
 20
-476.895
 30
0.000000
  70
    32
  0
VERTEX
  8
┌▓È_1
  5
475
 10
292.740
 20
-476.942
 30
0.000000
  70
    32
  0
VERTEX
  8
┌▓È_1
  5
476
 10
292.795
 20
-476.989
 30
0.000000
  70
    32
  0
VERTEX
  8
┌▓È_1
  5
477
 10
292.851
 20
-477.036
 30
0.000000
  70
    32
  0
VERTEX
  8
┌▓È_1
  5
478
 10
292.907
 20
-477.083
 30
0.000000
  70
    32
  0
VERTEX
  8
┌▓È_1
  5
479
 10
292.962
 20
-477.130
 30
0.000000
  70
    32
  0
VERTEX
  8
┌▓È_1
  5
47A
 10
293.018
 20
-477.177
 30
0.000000
  70
    32
  0
VERTEX
  8
┌▓È_1
  5
47B
 10
293.074
 20
-477.223
 30
0.000000
  70
    32
  0
VERTEX
  8
┌▓È_1
  5
47C
 10
293.129
 20
-477.270
 30
0.000000
  70
    32
  0
VERTEX
  8
┌▓È_1
  5
47D
 10
293.185
 20
-477.317
 30
0.000000
  70
    32
  0
VERTEX
  8
┌▓È_1
  5
47E
 10
293.241
 20
-477.363
 30
0.000000
  70
    32
  0
VERTEX
  8
┌▓È_1
  5
47F
 10
293.297
 20
-477.409
 30
0.000000
  70
    32
  0
VERTEX
  8
┌▓È_1
  5
480
 10
293.353
 20
-477.456
 30
0.000000
  70
    32
  0
VERTEX
  8
┌▓È_1
  5
481
 10
293.409
 20
-477.502
 30
0.000000
  70
    32
  0
VERTEX
  8
┌▓È_1
  5
482
 10
293.465
 20
-477.548
 30
0.000000
  70
    32
  0
VERTEX
  8
┌▓È_1
  5
483
 10
293.521
 20
-477.594
 30
0.000000
  70
    32
  0
VERTEX
  8
┌▓È_1
  5
484
 10
293.577
 20
-477.640
 30
0.000000
  70
    32
  0
VERTEX
  8
┌▓È_1
  5
485
 10
293.633
 20
-477.686
 30
0.000000
  70
    32
  0
VERTEX
  8
┌▓È_1
  5
486
 10
293.690
 20
-477.732
 30
0.000000
  70
    32
  0
VERTEX
  8
┌▓È_1
  5
487
 10
293.746
 20
-477.777
 30
0.000000
  70
    32
  0
VERTEX
  8
┌▓È_1
  5
488
 10
293.802
 20
-477.823
 30
0.000000
  70
    32
  0
VERTEX
  8
┌▓È_1
  5
489
 10
293.859
 20
-477.868
 30
0.000000
  70
    32
  0
VERTEX
  8
┌▓È_1
  5
48A
 10
293.915
 20
-477.914
 30
0.000000
  70
    32
  0
VERTEX
  8
┌▓È_1
  5
48B
 10
293.971
 20
-477.959
 30
0.000000
  70
    32
  0
VERTEX
  8
┌▓È_1
  5
48C
 10
294.028
 20
-478.004
 30
0.000000
  70
    32
  0
VERTEX
  8
┌▓È_1
  5
48D
 10
294.085
 20
-478.049
 30
0.000000
  70
    32
  0
VERTEX
  8
┌▓È_1
  5
48E
 10
294.141
 20
-478.094
 30
0.000000
  70
    32
  0
VERTEX
  8
┌▓È_1
  5
48F
 10
294.198
 20
-478.139
 30
0.000000
  70
    32
  0
VERTEX
  8
┌▓È_1
  5
490
 10
294.255
 20
-478.184
 30
0.000000
  70
    32
  0
VERTEX
  8
┌▓È_1
  5
491
 10
294.311
 20
-478.228
 30
0.000000
  70
    32
  0
VERTEX
  8
┌▓È_1
  5
492
 10
294.368
 20
-478.273
 30
0.000000
  70
    32
  0
VERTEX
  8
┌▓È_1
  5
493
 10
294.425
 20
-478.318
 30
0.000000
  70
    32
  0
VERTEX
  8
┌▓È_1
  5
494
 10
294.482
 20
-478.362
 30
0.000000
  70
    32
  0
VERTEX
  8
┌▓È_1
  5
495
 10
294.539
 20
-478.406
 30
0.000000
  70
    32
  0
VERTEX
  8
┌▓È_1
  5
496
 10
294.596
 20
-478.450
 30
0.000000
  70
    32
  0
VERTEX
  8
┌▓È_1
  5
497
 10
294.654
 20
-478.494
 30
0.000000
  70
    32
  0
VERTEX
  8
┌▓È_1
  5
498
 10
294.711
 20
-478.538
 30
0.000000
  70
    32
  0
VERTEX
  8
┌▓È_1
  5
499
 10
294.768
 20
-478.582
 30
0.000000
  70
    32
  0
VERTEX
  8
┌▓È_1
  5
49A
 10
294.825
 20
-478.626
 30
0.000000
  70
    32
  0
VERTEX
  8
┌▓È_1
  5
49B
 10
294.883
 20
-478.669
 30
0.000000
  70
    32
  0
VERTEX
  8
┌▓È_1
  5
49C
 10
294.940
 20
-478.713
 30
0.000000
  70
    32
  0
VERTEX
  8
┌▓È_1
  5
49D
 10
294.998
 20
-478.756
 30
0.000000
  70
    32
  0
VERTEX
  8
┌▓È_1
  5
49E
 10
295.055
 20
-478.799
 30
0.000000
  70
    32
  0
VERTEX
  8
┌▓È_1
  5
49F
 10
295.113
 20
-478.843
 30
0.000000
  70
    32
  0
VERTEX
  8
┌▓È_1
  5
4A0
 10
295.171
 20
-478.886
 30
0.000000
  70
    32
  0
VERTEX
  8
┌▓È_1
  5
4A1
 10
295.228
 20
-478.928
 30
0.000000
  70
    32
  0
VERTEX
  8
┌▓È_1
  5
4A2
 10
295.286
 20
-478.971
 30
0.000000
  70
    32
  0
VERTEX
  8
┌▓È_1
  5
4A3
 10
295.344
 20
-479.014
 30
0.000000
  70
    32
  0
VERTEX
  8
┌▓È_1
  5
4A4
 10
295.402
 20
-479.056
 30
0.000000
  70
    32
  0
VERTEX
  8
┌▓È_1
  5
4A5
 10
295.460
 20
-479.099
 30
0.000000
  70
    32
  0
VERTEX
  8
┌▓È_1
  5
4A6
 10
295.518
 20
-479.141
 30
0.000000
  70
    32
  0
VERTEX
  8
┌▓È_1
  5
4A7
 10
295.576
 20
-479.183
 30
0.000000
  70
    32
  0
VERTEX
  8
┌▓È_1
  5
4A8
 10
295.635
 20
-479.225
 30
0.000000
  70
    32
  0
VERTEX
  8
┌▓È_1
  5
4A9
 10
295.693
 20
-479.267
 30
0.000000
  70
    32
  0
VERTEX
  8
┌▓È_1
  5
4AA
 10
295.751
 20
-479.309
 30
0.000000
  70
    32
  0
VERTEX
  8
┌▓È_1
  5
4AB
 10
295.810
 20
-479.351
 30
0.000000
  70
    32
  0
VERTEX
  8
┌▓È_1
  5
4AC
 10
295.868
 20
-479.392
 30
0.000000
  70
    32
  0
VERTEX
  8
┌▓È_1
  5
4AD
 10
295.927
 20
-479.434
 30
0.000000
  70
    32
  0
VERTEX
  8
┌▓È_1
  5
4AE
 10
295.986
 20
-479.475
 30
0.000000
  70
    32
  0
VERTEX
  8
┌▓È_1
  5
4AF
 10
296.044
 20
-479.516
 30
0.000000
  70
    32
  0
VERTEX
  8
┌▓È_1
  5
4B0
 10
296.103
 20
-479.557
 30
0.000000
  70
    32
  0
VERTEX
  8
┌▓È_1
  5
4B1
 10
296.162
 20
-479.598
 30
0.000000
  70
    32
  0
VERTEX
  8
┌▓È_1
  5
4B2
 10
296.221
 20
-479.638
 30
0.000000
  70
    32
  0
VERTEX
  8
┌▓È_1
  5
4B3
 10
296.280
 20
-479.679
 30
0.000000
  70
    32
  0
VERTEX
  8
┌▓È_1
  5
4B4
 10
296.339
 20
-479.719
 30
0.000000
  70
    32
  0
VERTEX
  8
┌▓È_1
  5
4B5
 10
296.398
 20
-479.760
 30
0.000000
  70
    32
  0
VERTEX
  8
┌▓È_1
  5
4B6
 10
296.458
 20
-479.800
 30
0.000000
  70
    32
  0
VERTEX
  8
┌▓È_1
  5
4B7
 10
296.517
 20
-479.840
 30
0.000000
  70
    32
  0
VERTEX
  8
┌▓È_1
  5
4B8
 10
296.576
 20
-479.880
 30
0.000000
  70
    32
  0
VERTEX
  8
┌▓È_1
  5
4B9
 10
296.636
 20
-479.919
 30
0.000000
  70
    32
  0
VERTEX
  8
┌▓È_1
  5
4BA
 10
296.695
 20
-479.959
 30
0.000000
  70
    32
  0
VERTEX
  8
┌▓È_1
  5
4BB
 10
296.755
 20
-479.998
 30
0.000000
  70
    32
  0
VERTEX
  8
┌▓È_1
  5
4BC
 10
296.815
 20
-480.038
 30
0.000000
  70
    32
  0
VERTEX
  8
┌▓È_1
  5
4BD
 10
296.875
 20
-480.077
 30
0.000000
  70
    32
  0
VERTEX
  8
┌▓È_1
  5
4BE
 10
296.934
 20
-480.116
 30
0.000000
  70
    32
  0
VERTEX
  8
┌▓È_1
  5
4BF
 10
296.994
 20
-480.155
 30
0.000000
  70
    32
  0
VERTEX
  8
┌▓È_1
  5
4C0
 10
297.054
 20
-480.193
 30
0.000000
  70
    32
  0
VERTEX
  8
┌▓È_1
  5
4C1
 10
297.115
 20
-480.232
 30
0.000000
  70
    32
  0
VERTEX
  8
┌▓È_1
  5
4C2
 10
297.175
 20
-480.270
 30
0.000000
  70
    32
  0
VERTEX
  8
┌▓È_1
  5
4C3
 10
297.235
 20
-480.309
 30
0.000000
  70
    32
  0
VERTEX
  8
┌▓È_1
  5
4C4
 10
297.295
 20
-480.347
 30
0.000000
  70
    32
  0
VERTEX
  8
┌▓È_1
  5
4C5
 10
297.356
 20
-480.384
 30
0.000000
  70
    32
  0
VERTEX
  8
┌▓È_1
  5
4C6
 10
297.417
 20
-480.422
 30
0.000000
  70
    32
  0
VERTEX
  8
┌▓È_1
  5
4C7
 10
297.477
 20
-480.460
 30
0.000000
  70
    32
  0
VERTEX
  8
┌▓È_1
  5
4C8
 10
297.538
 20
-480.497
 30
0.000000
  70
    32
  0
VERTEX
  8
┌▓È_1
  5
4C9
 10
297.599
 20
-480.535
 30
0.000000
  70
    32
  0
VERTEX
  8
┌▓È_1
  5
4CA
 10
297.660
 20
-480.572
 30
0.000000
  70
    32
  0
VERTEX
  8
┌▓È_1
  5
4CB
 10
297.721
 20
-480.609
 30
0.000000
  70
    32
  0
VERTEX
  8
┌▓È_1
  5
4CC
 10
297.782
 20
-480.645
 30
0.000000
  70
    32
  0
SEQEND
  8
┌▓È_1
  5
4CD
  0
POLYLINE
  8
┌▓È_1
  5
4CE
  66
     1
 10
0.000000
 20
0.000000
 30
0.000000
  70
     8
  0
VERTEX
  8
┌▓È_1
  5
4CF
 10
308.868
 20
-480.558
 30
0.000000
  70
    32
  0
VERTEX
  8
┌▓È_1
  5
4D0
 10
308.921
 20
-480.573
 30
0.000000
  70
    32
  0
VERTEX
  8
┌▓È_1
  5
4D1
 10
308.973
 20
-480.588
 30
0.000000
  70
    32
  0
VERTEX
  8
┌▓È_1
  5
4D2
 10
309.026
 20
-480.603
 30
0.000000
  70
    32
  0
VERTEX
  8
┌▓È_1
  5
4D3
 10
309.079
 20
-480.617
 30
0.000000
  70
    32
  0
VERTEX
  8
┌▓È_1
  5
4D4
 10
309.131
 20
-480.632
 30
0.000000
  70
    32
  0
VERTEX
  8
┌▓È_1
  5
4D5
 10
309.184
 20
-480.646
 30
0.000000
  70
    32
  0
VERTEX
  8
┌▓È_1
  5
4D6
 10
309.237
 20
-480.661
 30
0.000000
  70
    32
  0
VERTEX
  8
┌▓È_1
  5
4D7
 10
309.290
 20
-480.675
 30
0.000000
  70
    32
  0
VERTEX
  8
┌▓È_1
  5
4D8
 10
309.342
 20
-480.689
 30
0.000000
  70
    32
  0
VERTEX
  8
┌▓È_1
  5
4D9
 10
309.395
 20
-480.703
 30
0.000000
  70
    32
  0
VERTEX
  8
┌▓È_1
  5
4DA
 10
309.448
 20
-480.717
 30
0.000000
  70
    32
  0
VERTEX
  8
┌▓È_1
  5
4DB
 10
309.501
 20
-480.731
 30
0.000000
  70
    32
  0
VERTEX
  8
┌▓È_1
  5
4DC
 10
309.554
 20
-480.745
 30
0.000000
  70
    32
  0
VERTEX
  8
┌▓È_1
  5
4DD
 10
309.607
 20
-480.759
 30
0.000000
  70
    32
  0
VERTEX
  8
┌▓È_1
  5
4DE
 10
309.661
 20
-480.773
 30
0.000000
  70
    32
  0
VERTEX
  8
┌▓È_1
  5
4DF
 10
309.714
 20
-480.786
 30
0.000000
  70
    32
  0
VERTEX
  8
┌▓È_1
  5
4E0
 10
309.767
 20
-480.800
 30
0.000000
  70
    32
  0
VERTEX
  8
┌▓È_1
  5
4E1
 10
309.820
 20
-480.813
 30
0.000000
  70
    32
  0
VERTEX
  8
┌▓È_1
  5
4E2
 10
309.874
 20
-480.827
 30
0.000000
  70
    32
  0
VERTEX
  8
┌▓È_1
  5
4E3
 10
309.927
 20
-480.840
 30
0.000000
  70
    32
  0
VERTEX
  8
┌▓È_1
  5
4E4
 10
309.981
 20
-480.853
 30
0.000000
  70
    32
  0
VERTEX
  8
┌▓È_1
  5
4E5
 10
310.034
 20
-480.867
 30
0.000000
  70
    32
  0
VERTEX
  8
┌▓È_1
  5
4E6
 10
310.088
 20
-480.880
 30
0.000000
  70
    32
  0
VERTEX
  8
┌▓È_1
  5
4E7
 10
310.141
 20
-480.893
 30
0.000000
  70
    32
  0
VERTEX
  8
┌▓È_1
  5
4E8
 10
310.195
 20
-480.906
 30
0.000000
  70
    32
  0
VERTEX
  8
┌▓È_1
  5
4E9
 10
310.248
 20
-480.919
 30
0.000000
  70
    32
  0
VERTEX
  8
┌▓È_1
  5
4EA
 10
310.302
 20
-480.932
 30
0.000000
  70
    32
  0
VERTEX
  8
┌▓È_1
  5
4EB
 10
310.356
 20
-480.944
 30
0.000000
  70
    32
  0
VERTEX
  8
┌▓È_1
  5
4EC
 10
310.410
 20
-480.957
 30
0.000000
  70
    32
  0
VERTEX
  8
┌▓È_1
  5
4ED
 10
310.463
 20
-480.970
 30
0.000000
  70
    32
  0
VERTEX
  8
┌▓È_1
  5
4EE
 10
310.517
 20
-480.982
 30
0.000000
  70
    32
  0
VERTEX
  8
┌▓È_1
  5
4EF
 10
310.571
 20
-480.995
 30
0.000000
  70
    32
  0
VERTEX
  8
┌▓È_1
  5
4F0
 10
310.625
 20
-481.007
 30
0.000000
  70
    32
  0
VERTEX
  8
┌▓È_1
  5
4F1
 10
310.679
 20
-481.020
 30
0.000000
  70
    32
  0
VERTEX
  8
┌▓È_1
  5
4F2
 10
310.733
 20
-481.032
 30
0.000000
  70
    32
  0
VERTEX
  8
┌▓È_1
  5
4F3
 10
310.787
 20
-481.044
 30
0.000000
  70
    32
  0
VERTEX
  8
┌▓È_1
  5
4F4
 10
310.841
 20
-481.057
 30
0.000000
  70
    32
  0
VERTEX
  8
┌▓È_1
  5
4F5
 10
310.895
 20
-481.069
 30
0.000000
  70
    32
  0
VERTEX
  8
┌▓È_1
  5
4F6
 10
310.950
 20
-481.081
 30
0.000000
  70
    32
  0
VERTEX
  8
┌▓È_1
  5
4F7
 10
311.004
 20
-481.093
 30
0.000000
  70
    32
  0
VERTEX
  8
┌▓È_1
  5
4F8
 10
311.058
 20
-481.105
 30
0.000000
  70
    32
  0
VERTEX
  8
┌▓È_1
  5
4F9
 10
311.112
 20
-481.117
 30
0.000000
  70
    32
  0
VERTEX
  8
┌▓È_1
  5
4FA
 10
311.167
 20
-481.129
 30
0.000000
  70
    32
  0
VERTEX
  8
┌▓È_1
  5
4FB
 10
311.221
 20
-481.140
 30
0.000000
  70
    32
  0
VERTEX
  8
┌▓È_1
  5
4FC
 10
311.275
 20
-481.152
 30
0.000000
  70
    32
  0
VERTEX
  8
┌▓È_1
  5
4FD
 10
311.330
 20
-481.164
 30
0.000000
  70
    32
  0
VERTEX
  8
┌▓È_1
  5
4FE
 10
311.384
 20
-481.176
 30
0.000000
  70
    32
  0
VERTEX
  8
┌▓È_1
  5
4FF
 10
311.439
 20
-481.187
 30
0.000000
  70
    32
  0
VERTEX
  8
┌▓È_1
  5
500
 10
311.493
 20
-481.199
 30
0.000000
  70
    32
  0
VERTEX
  8
┌▓È_1
  5
501
 10
311.548
 20
-481.210
 30
0.000000
  70
    32
  0
VERTEX
  8
┌▓È_1
  5
502
 10
311.602
 20
-481.222
 30
0.000000
  70
    32
  0
VERTEX
  8
┌▓È_1
  5
503
 10
311.657
 20
-481.233
 30
0.000000
  70
    32
  0
VERTEX
  8
┌▓È_1
  5
504
 10
311.712
 20
-481.244
 30
0.000000
  70
    32
  0
VERTEX
  8
┌▓È_1
  5
505
 10
311.766
 20
-481.255
 30
0.000000
  70
    32
  0
VERTEX
  8
┌▓È_1
  5
506
 10
311.821
 20
-481.267
 30
0.000000
  70
    32
  0
VERTEX
  8
┌▓È_1
  5
507
 10
311.876
 20
-481.278
 30
0.000000
  70
    32
  0
VERTEX
  8
┌▓È_1
  5
508
 10
311.931
 20
-481.289
 30
0.000000
  70
    32
  0
VERTEX
  8
┌▓È_1
  5
509
 10
311.986
 20
-481.300
 30
0.000000
  70
    32
  0
VERTEX
  8
┌▓È_1
  5
50A
 10
312.040
 20
-481.311
 30
0.000000
  70
    32
  0
VERTEX
  8
┌▓È_1
  5
50B
 10
312.095
 20
-481.322
 30
0.000000
  70
    32
  0
VERTEX
  8
┌▓È_1
  5
50C
 10
312.150
 20
-481.333
 30
0.000000
  70
    32
  0
VERTEX
  8
┌▓È_1
  5
50D
 10
312.205
 20
-481.344
 30
0.000000
  70
    32
  0
VERTEX
  8
┌▓È_1
  5
50E
 10
312.260
 20
-481.355
 30
0.000000
  70
    32
  0
VERTEX
  8
┌▓È_1
  5
50F
 10
312.315
 20
-481.365
 30
0.000000
  70
    32
  0
VERTEX
  8
┌▓È_1
  5
510
 10
312.370
 20
-481.376
 30
0.000000
  70
    32
  0
VERTEX
  8
┌▓È_1
  5
511
 10
312.425
 20
-481.387
 30
0.000000
  70
    32
  0
VERTEX
  8
┌▓È_1
  5
512
 10
312.480
 20
-481.398
 30
0.000000
  70
    32
  0
VERTEX
  8
┌▓È_1
  5
513
 10
312.535
 20
-481.408
 30
0.000000
  70
    32
  0
VERTEX
  8
┌▓È_1
  5
514
 10
312.590
 20
-481.419
 30
0.000000
  70
    32
  0
VERTEX
  8
┌▓È_1
  5
515
 10
312.645
 20
-481.429
 30
0.000000
  70
    32
  0
VERTEX
  8
┌▓È_1
  5
516
 10
312.701
 20
-481.440
 30
0.000000
  70
    32
  0
VERTEX
  8
┌▓È_1
  5
517
 10
312.756
 20
-481.450
 30
0.000000
  70
    32
  0
VERTEX
  8
┌▓È_1
  5
518
 10
312.811
 20
-481.461
 30
0.000000
  70
    32
  0
VERTEX
  8
┌▓È_1
  5
519
 10
312.866
 20
-481.471
 30
0.000000
  70
    32
  0
VERTEX
  8
┌▓È_1
  5
51A
 10
312.921
 20
-481.482
 30
0.000000
  70
    32
  0
VERTEX
  8
┌▓È_1
  5
51B
 10
312.977
 20
-481.492
 30
0.000000
  70
    32
  0
VERTEX
  8
┌▓È_1
  5
51C
 10
313.032
 20
-481.502
 30
0.000000
  70
    32
  0
VERTEX
  8
┌▓È_1
  5
51D
 10
313.087
 20
-481.512
 30
0.000000
  70
    32
  0
VERTEX
  8
┌▓È_1
  5
51E
 10
313.143
 20
-481.523
 30
0.000000
  70
    32
  0
VERTEX
  8
┌▓È_1
  5
51F
 10
313.198
 20
-481.533
 30
0.000000
  70
    32
  0
VERTEX
  8
┌▓È_1
  5
520
 10
313.253
 20
-481.543
 30
0.000000
  70
    32
  0
VERTEX
  8
┌▓È_1
  5
521
 10
313.309
 20
-481.553
 30
0.000000
  70
    32
  0
VERTEX
  8
┌▓È_1
  5
522
 10
313.364
 20
-481.563
 30
0.000000
  70
    32
  0
VERTEX
  8
┌▓È_1
  5
523
 10
313.420
 20
-481.573
 30
0.000000
  70
    32
  0
VERTEX
  8
┌▓È_1
  5
524
 10
313.475
 20
-481.583
 30
0.000000
  70
    32
  0
VERTEX
  8
┌▓È_1
  5
525
 10
313.530
 20
-481.593
 30
0.000000
  70
    32
  0
VERTEX
  8
┌▓È_1
  5
526
 10
313.586
 20
-481.603
 30
0.000000
  70
    32
  0
VERTEX
  8
┌▓È_1
  5
527
 10
313.641
 20
-481.613
 30
0.000000
  70
    32
  0
VERTEX
  8
┌▓È_1
  5
528
 10
313.697
 20
-481.623
 30
0.000000
  70
    32
  0
VERTEX
  8
┌▓È_1
  5
529
 10
313.753
 20
-481.633
 30
0.000000
  70
    32
  0
VERTEX
  8
┌▓È_1
  5
52A
 10
313.808
 20
-481.643
 30
0.000000
  70
    32
  0
VERTEX
  8
┌▓È_1
  5
52B
 10
313.864
 20
-481.653
 30
0.000000
  70
    32
  0
VERTEX
  8
┌▓È_1
  5
52C
 10
313.919
 20
-481.663
 30
0.000000
  70
    32
  0
VERTEX
  8
┌▓È_1
  5
52D
 10
313.975
 20
-481.673
 30
0.000000
  70
    32
  0
VERTEX
  8
┌▓È_1
  5
52E
 10
314.030
 20
-481.682
 30
0.000000
  70
    32
  0
VERTEX
  8
┌▓È_1
  5
52F
 10
314.086
 20
-481.692
 30
0.000000
  70
    32
  0
VERTEX
  8
┌▓È_1
  5
530
 10
314.142
 20
-481.702
 30
0.000000
  70
    32
  0
VERTEX
  8
┌▓È_1
  5
531
 10
314.197
 20
-481.712
 30
0.000000
  70
    32
  0
VERTEX
  8
┌▓È_1
  5
532
 10
314.253
 20
-481.721
 30
0.000000
  70
    32
  0
VERTEX
  8
┌▓È_1
  5
533
 10
314.309
 20
-481.731
 30
0.000000
  70
    32
  0
VERTEX
  8
┌▓È_1
  5
534
 10
314.364
 20
-481.741
 30
0.000000
  70
    32
  0
VERTEX
  8
┌▓È_1
  5
535
 10
314.420
 20
-481.750
 30
0.000000
  70
    32
  0
VERTEX
  8
┌▓È_1
  5
536
 10
314.476
 20
-481.760
 30
0.000000
  70
    32
  0
VERTEX
  8
┌▓È_1
  5
537
 10
314.531
 20
-481.770
 30
0.000000
  70
    32
  0
VERTEX
  8
┌▓È_1
  5
538
 10
314.587
 20
-481.779
 30
0.000000
  70
    32
  0
VERTEX
  8
┌▓È_1
  5
539
 10
314.643
 20
-481.789
 30
0.000000
  70
    32
  0
VERTEX
  8
┌▓È_1
  5
53A
 10
314.699
 20
-481.798
 30
0.000000
  70
    32
  0
VERTEX
  8
┌▓È_1
  5
53B
 10
314.754
 20
-481.808
 30
0.000000
  70
    32
  0
VERTEX
  8
┌▓È_1
  5
53C
 10
314.810
 20
-481.817
 30
0.000000
  70
    32
  0
VERTEX
  8
┌▓È_1
  5
53D
 10
314.866
 20
-481.827
 30
0.000000
  70
    32
  0
VERTEX
  8
┌▓È_1
  5
53E
 10
314.922
 20
-481.836
 30
0.000000
  70
    32
  0
VERTEX
  8
┌▓È_1
  5
53F
 10
314.977
 20
-481.846
 30
0.000000
  70
    32
  0
VERTEX
  8
┌▓È_1
  5
540
 10
315.033
 20
-481.856
 30
0.000000
  70
    32
  0
VERTEX
  8
┌▓È_1
  5
541
 10
315.089
 20
-481.865
 30
0.000000
  70
    32
  0
VERTEX
  8
┌▓È_1
  5
542
 10
315.145
 20
-481.874
 30
0.000000
  70
    32
  0
VERTEX
  8
┌▓È_1
  5
543
 10
315.201
 20
-481.884
 30
0.000000
  70
    32
  0
VERTEX
  8
┌▓È_1
  5
544
 10
315.256
 20
-481.893
 30
0.000000
  70
    32
  0
VERTEX
  8
┌▓È_1
  5
545
 10
315.312
 20
-481.903
 30
0.000000
  70
    32
  0
VERTEX
  8
┌▓È_1
  5
546
 10
315.368
 20
-481.912
 30
0.000000
  70
    32
  0
VERTEX
  8
┌▓È_1
  5
547
 10
315.424
 20
-481.922
 30
0.000000
  70
    32
  0
VERTEX
  8
┌▓È_1
  5
548
 10
315.480
 20
-481.931
 30
0.000000
  70
    32
  0
VERTEX
  8
┌▓È_1
  5
549
 10
315.535
 20
-481.941
 30
0.000000
  70
    32
  0
VERTEX
  8
┌▓È_1
  5
54A
 10
315.591
 20
-481.950
 30
0.000000
  70
    32
  0
VERTEX
  8
┌▓È_1
  5
54B
 10
315.647
 20
-481.960
 30
0.000000
  70
    32
  0
VERTEX
  8
┌▓È_1
  5
54C
 10
315.703
 20
-481.969
 30
0.000000
  70
    32
  0
VERTEX
  8
┌▓È_1
  5
54D
 10
315.759
 20
-481.978
 30
0.000000
  70
    32
  0
VERTEX
  8
┌▓È_1
  5
54E
 10
315.815
 20
-481.988
 30
0.000000
  70
    32
  0
SEQEND
  8
┌▓È_1
  5
54F
  0
POLYLINE
  8
┌▓È_1
  5
550
  66
     1
 10
0.000000
 20
0.000000
 30
0.000000
  70
     8
  0
VERTEX
  8
┌▓È_1
  5
551
 10
299.118
 20
-474.151
 30
0.000000
  70
    32
  0
VERTEX
  8
┌▓È_1
  5
552
 10
299.137
 20
-474.173
 30
0.000000
  70
    32
  0
VERTEX
  8
┌▓È_1
  5
553
 10
299.157
 20
-474.195
 30
0.000000
  70
    32
  0
VERTEX
  8
┌▓È_1
  5
554
 10
299.177
 20
-474.217
 30
0.000000
  70
    32
  0
VERTEX
  8
┌▓È_1
  5
555
 10
299.197
 20
-474.240
 30
0.000000
  70
    32
  0
VERTEX
  8
┌▓È_1
  5
556
 10
299.217
 20
-474.262
 30
0.000000
  70
    32
  0
VERTEX
  8
┌▓È_1
  5
557
 10
299.236
 20
-474.284
 30
0.000000
  70
    32
  0
VERTEX
  8
┌▓È_1
  5
558
 10
299.256
 20
-474.306
 30
0.000000
  70
    32
  0
VERTEX
  8
┌▓È_1
  5
559
 10
299.276
 20
-474.328
 30
0.000000
  70
    32
  0
VERTEX
  8
┌▓È_1
  5
55A
 10
299.296
 20
-474.350
 30
0.000000
  70
    32
  0
VERTEX
  8
┌▓È_1
  5
55B
 10
299.316
 20
-474.372
 30
0.000000
  70
    32
  0
VERTEX
  8
┌▓È_1
  5
55C
 10
299.335
 20
-474.394
 30
0.000000
  70
    32
  0
VERTEX
  8
┌▓È_1
  5
55D
 10
299.355
 20
-474.416
 30
0.000000
  70
    32
  0
VERTEX
  8
┌▓È_1
  5
55E
 10
299.375
 20
-474.438
 30
0.000000
  70
    32
  0
VERTEX
  8
┌▓È_1
  5
55F
 10
299.395
 20
-474.460
 30
0.000000
  70
    32
  0
VERTEX
  8
┌▓È_1
  5
560
 10
299.415
 20
-474.482
 30
0.000000
  70
    32
  0
VERTEX
  8
┌▓È_1
  5
561
 10
299.434
 20
-474.504
 30
0.000000
  70
    32
  0
VERTEX
  8
┌▓È_1
  5
562
 10
299.454
 20
-474.526
 30
0.000000
  70
    32
  0
VERTEX
  8
┌▓È_1
  5
563
 10
299.474
 20
-474.548
 30
0.000000
  70
    32
  0
VERTEX
  8
┌▓È_1
  5
564
 10
299.494
 20
-474.570
 30
0.000000
  70
    32
  0
VERTEX
  8
┌▓È_1
  5
565
 10
299.514
 20
-474.592
 30
0.000000
  70
    32
  0
VERTEX
  8
┌▓È_1
  5
566
 10
299.534
 20
-474.614
 30
0.000000
  70
    32
  0
VERTEX
  8
┌▓È_1
  5
567
 10
299.553
 20
-474.636
 30
0.000000
  70
    32
  0
VERTEX
  8
┌▓È_1
  5
568
 10
299.573
 20
-474.658
 30
0.000000
  70
    32
  0
VERTEX
  8
┌▓È_1
  5
569
 10
299.593
 20
-474.680
 30
0.000000
  70
    32
  0
VERTEX
  8
┌▓È_1
  5
56A
 10
299.613
 20
-474.702
 30
0.000000
  70
    32
  0
VERTEX
  8
┌▓È_1
  5
56B
 10
299.633
 20
-474.724
 30
0.000000
  70
    32
  0
VERTEX
  8
┌▓È_1
  5
56C
 10
299.653
 20
-474.746
 30
0.000000
  70
    32
  0
VERTEX
  8
┌▓È_1
  5
56D
 10
299.673
 20
-474.768
 30
0.000000
  70
    32
  0
VERTEX
  8
┌▓È_1
  5
56E
 10
299.693
 20
-474.790
 30
0.000000
  70
    32
  0
VERTEX
  8
┌▓È_1
  5
56F
 10
299.712
 20
-474.812
 30
0.000000
  70
    32
  0
VERTEX
  8
┌▓È_1
  5
570
 10
299.732
 20
-474.834
 30
0.000000
  70
    32
  0
VERTEX
  8
┌▓È_1
  5
571
 10
299.752
 20
-474.856
 30
0.000000
  70
    32
  0
VERTEX
  8
┌▓È_1
  5
572
 10
299.772
 20
-474.878
 30
0.000000
  70
    32
  0
VERTEX
  8
┌▓È_1
  5
573
 10
299.792
 20
-474.900
 30
0.000000
  70
    32
  0
VERTEX
  8
┌▓È_1
  5
574
 10
299.812
 20
-474.921
 30
0.000000
  70
    32
  0
VERTEX
  8
┌▓È_1
  5
575
 10
299.832
 20
-474.943
 30
0.000000
  70
    32
  0
VERTEX
  8
┌▓È_1
  5
576
 10
299.852
 20
-474.965
 30
0.000000
  70
    32
  0
VERTEX
  8
┌▓È_1
  5
577
 10
299.872
 20
-474.987
 30
0.000000
  70
    32
  0
VERTEX
  8
┌▓È_1
  5
578
 10
299.892
 20
-475.009
 30
0.000000
  70
    32
  0
VERTEX
  8
┌▓È_1
  5
579
 10
299.912
 20
-475.031
 30
0.000000
  70
    32
  0
VERTEX
  8
┌▓È_1
  5
57A
 10
299.932
 20
-475.052
 30
0.000000
  70
    32
  0
VERTEX
  8
┌▓È_1
  5
57B
 10
299.952
 20
-475.074
 30
0.000000
  70
    32
  0
VERTEX
  8
┌▓È_1
  5
57C
 10
299.972
 20
-475.096
 30
0.000000
  70
    32
  0
VERTEX
  8
┌▓È_1
  5
57D
 10
299.992
 20
-475.118
 30
0.000000
  70
    32
  0
VERTEX
  8
┌▓È_1
  5
57E
 10
300.012
 20
-475.140
 30
0.000000
  70
    32
  0
VERTEX
  8
┌▓È_1
  5
57F
 10
300.032
 20
-475.161
 30
0.000000
  70
    32
  0
VERTEX
  8
┌▓È_1
  5
580
 10
300.052
 20
-475.183
 30
0.000000
  70
    32
  0
VERTEX
  8
┌▓È_1
  5
581
 10
300.072
 20
-475.205
 30
0.000000
  70
    32
  0
VERTEX
  8
┌▓È_1
  5
582
 10
300.092
 20
-475.226
 30
0.000000
  70
    32
  0
VERTEX
  8
┌▓È_1
  5
583
 10
300.112
 20
-475.248
 30
0.000000
  70
    32
  0
VERTEX
  8
┌▓È_1
  5
584
 10
300.132
 20
-475.270
 30
0.000000
  70
    32
  0
VERTEX
  8
┌▓È_1
  5
585
 10
300.152
 20
-475.291
 30
0.000000
  70
    32
  0
VERTEX
  8
┌▓È_1
  5
586
 10
300.172
 20
-475.313
 30
0.000000
  70
    32
  0
VERTEX
  8
┌▓È_1
  5
587
 10
300.192
 20
-475.335
 30
0.000000
  70
    32
  0
VERTEX
  8
┌▓È_1
  5
588
 10
300.212
 20
-475.356
 30
0.000000
  70
    32
  0
VERTEX
  8
┌▓È_1
  5
589
 10
300.232
 20
-475.378
 30
0.000000
  70
    32
  0
VERTEX
  8
┌▓È_1
  5
58A
 10
300.252
 20
-475.399
 30
0.000000
  70
    32
  0
VERTEX
  8
┌▓È_1
  5
58B
 10
300.272
 20
-475.421
 30
0.000000
  70
    32
  0
VERTEX
  8
┌▓È_1
  5
58C
 10
300.293
 20
-475.442
 30
0.000000
  70
    32
  0
VERTEX
  8
┌▓È_1
  5
58D
 10
300.313
 20
-475.464
 30
0.000000
  70
    32
  0
VERTEX
  8
┌▓È_1
  5
58E
 10
300.333
 20
-475.485
 30
0.000000
  70
    32
  0
VERTEX
  8
┌▓È_1
  5
58F
 10
300.353
 20
-475.507
 30
0.000000
  70
    32
  0
VERTEX
  8
┌▓È_1
  5
590
 10
300.373
 20
-475.528
 30
0.000000
  70
    32
  0
VERTEX
  8
┌▓È_1
  5
591
 10
300.394
 20
-475.550
 30
0.000000
  70
    32
  0
VERTEX
  8
┌▓È_1
  5
592
 10
300.414
 20
-475.571
 30
0.000000
  70
    32
  0
VERTEX
  8
┌▓È_1
  5
593
 10
300.434
 20
-475.592
 30
0.000000
  70
    32
  0
VERTEX
  8
┌▓È_1
  5
594
 10
300.454
 20
-475.614
 30
0.000000
  70
    32
  0
VERTEX
  8
┌▓È_1
  5
595
 10
300.475
 20
-475.635
 30
0.000000
  70
    32
  0
VERTEX
  8
┌▓È_1
  5
596
 10
300.495
 20
-475.656
 30
0.000000
  70
    32
  0
VERTEX
  8
┌▓È_1
  5
597
 10
300.515
 20
-475.678
 30
0.000000
  70
    32
  0
VERTEX
  8
┌▓È_1
  5
598
 10
300.535
 20
-475.699
 30
0.000000
  70
    32
  0
VERTEX
  8
┌▓È_1
  5
599
 10
300.556
 20
-475.720
 30
0.000000
  70
    32
  0
VERTEX
  8
┌▓È_1
  5
59A
 10
300.576
 20
-475.741
 30
0.000000
  70
    32
  0
VERTEX
  8
┌▓È_1
  5
59B
 10
300.596
 20
-475.762
 30
0.000000
  70
    32
  0
VERTEX
  8
┌▓È_1
  5
59C
 10
300.617
 20
-475.784
 30
0.000000
  70
    32
  0
VERTEX
  8
┌▓È_1
  5
59D
 10
300.637
 20
-475.805
 30
0.000000
  70
    32
  0
VERTEX
  8
┌▓È_1
  5
59E
 10
300.658
 20
-475.826
 30
0.000000
  70
    32
  0
VERTEX
  8
┌▓È_1
  5
59F
 10
300.678
 20
-475.847
 30
0.000000
  70
    32
  0
VERTEX
  8
┌▓È_1
  5
5A0
 10
300.698
 20
-475.868
 30
0.000000
  70
    32
  0
VERTEX
  8
┌▓È_1
  5
5A1
 10
300.719
 20
-475.889
 30
0.000000
  70
    32
  0
VERTEX
  8
┌▓È_1
  5
5A2
 10
300.739
 20
-475.910
 30
0.000000
  70
    32
  0
VERTEX
  8
┌▓È_1
  5
5A3
 10
300.760
 20
-475.931
 30
0.000000
  70
    32
  0
VERTEX
  8
┌▓È_1
  5
5A4
 10
300.780
 20
-475.952
 30
0.000000
  70
    32
  0
VERTEX
  8
┌▓È_1
  5
5A5
 10
300.801
 20
-475.973
 30
0.000000
  70
    32
  0
VERTEX
  8
┌▓È_1
  5
5A6
 10
300.821
 20
-475.994
 30
0.000000
  70
    32
  0
VERTEX
  8
┌▓È_1
  5
5A7
 10
300.842
 20
-476.015
 30
0.000000
  70
    32
  0
VERTEX
  8
┌▓È_1
  5
5A8
 10
300.862
 20
-476.036
 30
0.000000
  70
    32
  0
VERTEX
  8
┌▓È_1
  5
5A9
 10
300.883
 20
-476.056
 30
0.000000
  70
    32
  0
VERTEX
  8
┌▓È_1
  5
5AA
 10
300.904
 20
-476.077
 30
0.000000
  70
    32
  0
VERTEX
  8
┌▓È_1
  5
5AB
 10
300.924
 20
-476.098
 30
0.000000
  70
    32
  0
VERTEX
  8
┌▓È_1
  5
5AC
 10
300.945
 20
-476.119
 30
0.000000
  70
    32
  0
VERTEX
  8
┌▓È_1
  5
5AD
 10
300.966
 20
-476.139
 30
0.000000
  70
    32
  0
VERTEX
  8
┌▓È_1
  5
5AE
 10
300.986
 20
-476.160
 30
0.000000
  70
    32
  0
VERTEX
  8
┌▓È_1
  5
5AF
 10
301.007
 20
-476.181
 30
0.000000
  70
    32
  0
VERTEX
  8
┌▓È_1
  5
5B0
 10
301.028
 20
-476.201
 30
0.000000
  70
    32
  0
VERTEX
  8
┌▓È_1
  5
5B1
 10
301.048
 20
-476.222
 30
0.000000
  70
    32
  0
VERTEX
  8
┌▓È_1
  5
5B2
 10
301.069
 20
-476.242
 30
0.000000
  70
    32
  0
VERTEX
  8
┌▓È_1
  5
5B3
 10
301.090
 20
-476.263
 30
0.000000
  70
    32
  0
VERTEX
  8
┌▓È_1
  5
5B4
 10
301.111
 20
-476.283
 30
0.000000
  70
    32
  0
VERTEX
  8
┌▓È_1
  5
5B5
 10
301.131
 20
-476.304
 30
0.000000
  70
    32
  0
VERTEX
  8
┌▓È_1
  5
5B6
 10
301.152
 20
-476.324
 30
0.000000
  70
    32
  0
VERTEX
  8
┌▓È_1
  5
5B7
 10
301.173
 20
-476.345
 30
0.000000
  70
    32
  0
VERTEX
  8
┌▓È_1
  5
5B8
 10
301.194
 20
-476.365
 30
0.000000
  70
    32
  0
VERTEX
  8
┌▓È_1
  5
5B9
 10
301.215
 20
-476.385
 30
0.000000
  70
    32
  0
VERTEX
  8
┌▓È_1
  5
5BA
 10
301.236
 20
-476.406
 30
0.000000
  70
    32
  0
VERTEX
  8
┌▓È_1
  5
5BB
 10
301.257
 20
-476.426
 30
0.000000
  70
    32
  0
VERTEX
  8
┌▓È_1
  5
5BC
 10
301.278
 20
-476.446
 30
0.000000
  70
    32
  0
VERTEX
  8
┌▓È_1
  5
5BD
 10
301.299
 20
-476.466
 30
0.000000
  70
    32
  0
VERTEX
  8
┌▓È_1
  5
5BE
 10
301.320
 20
-476.486
 30
0.000000
  70
    32
  0
VERTEX
  8
┌▓È_1
  5
5BF
 10
301.341
 20
-476.506
 30
0.000000
  70
    32
  0
VERTEX
  8
┌▓È_1
  5
5C0
 10
301.362
 20
-476.526
 30
0.000000
  70
    32
  0
VERTEX
  8
┌▓È_1
  5
5C1
 10
301.383
 20
-476.546
 30
0.000000
  70
    32
  0
VERTEX
  8
┌▓È_1
  5
5C2
 10
301.404
 20
-476.566
 30
0.000000
  70
    32
  0
VERTEX
  8
┌▓È_1
  5
5C3
 10
301.425
 20
-476.586
 30
0.000000
  70
    32
  0
VERTEX
  8
┌▓È_1
  5
5C4
 10
301.446
 20
-476.606
 30
0.000000
  70
    32
  0
VERTEX
  8
┌▓È_1
  5
5C5
 10
301.467
 20
-476.626
 30
0.000000
  70
    32
  0
VERTEX
  8
┌▓È_1
  5
5C6
 10
301.489
 20
-476.646
 30
0.000000
  70
    32
  0
VERTEX
  8
┌▓È_1
  5
5C7
 10
301.510
 20
-476.666
 30
0.000000
  70
    32
  0
VERTEX
  8
┌▓È_1
  5
5C8
 10
301.531
 20
-476.686
 30
0.000000
  70
    32
  0
VERTEX
  8
┌▓È_1
  5
5C9
 10
301.552
 20
-476.705
 30
0.000000
  70
    32
  0
VERTEX
  8
┌▓È_1
  5
5CA
 10
301.574
 20
-476.725
 30
0.000000
  70
    32
  0
VERTEX
  8
┌▓È_1
  5
5CB
 10
301.595
 20
-476.745
 30
0.000000
  70
    32
  0
VERTEX
  8
┌▓È_1
  5
5CC
 10
301.616
 20
-476.764
 30
0.000000
  70
    32
  0
VERTEX
  8
┌▓È_1
  5
5CD
 10
301.638
 20
-476.784
 30
0.000000
  70
    32
  0
VERTEX
  8
┌▓È_1
  5
5CE
 10
301.659
 20
-476.803
 30
0.000000
  70
    32
  0
VERTEX
  8
┌▓È_1
  5
5CF
 10
301.680
 20
-476.823
 30
0.000000
  70
    32
  0
VERTEX
  8
┌▓È_1
  5
5D0
 10
301.702
 20
-476.842
 30
0.000000
  70
    32
  0
SEQEND
  8
┌▓È_1
  5
5D1
  0
LINE
  5
12C
  8
┌▓È_1
 10
377.85084635419997
 20
-394.34333767359999
 30
0.0
 11
377.85084635419997
 21
-493.34333767359988
 31
0.0
  0
LINE
  5
12D
  8
┌▓È_1
 10
317.85084635419997
 20
-394.34333767359999
 30
0.0
 11
317.85084635419997
 21
-460.34333767359988
 31
0.0
  0
LINE
  5
12E
  8
┌▓È_1
 62
     5
 10
35.196419048300001
 20
185.60256309810001
 30
0.0
 11
-100.268700731
 21
185.60256309810001
 31
0.0
  0
LINE
  5
12F
  8
┌▓È_1
 62
     5
 10
35.196419048300001
 20
175.60256309810001
 30
0.0
 11
-100.0535809517
 21
175.60256309810001
 31
0.0
  0
LINE
  5
130
  8
┌▓È_1
 62
     5
 10
35.196419048300001
 20
145.58447282329999
 30
0.0
 11
-100.0535809517
 21
145.58447282329999
 31
0.0
  0
LINE
  5
131
  8
┌▓È_1
 62
     5
 10
-100.0535809517
 20
135.58447282329999
 30
0.0
 11
35.196419048300001
 21
135.58447282329999
 31
0.0
  0
LINE
  5
132
  8
┌▓È_1
 62
     5
 10
35.196419048300001
 20
-14.397436901900001
 30
0.0
 11
-100.0535809517
 21
-14.397436901900001
 31
0.0
  0
LINE
  5
133
  8
┌▓È_1
 62
     5
 10
35.196419048300001
 20
-24.397436901900001
 30
0.0
 11
-100.268700731
 21
-24.397436901900001
 31
0.0
  0
DIMENSION
  5
142
  8
Éíû@É³
 62
     5
  2
*D4
 10
195.19641904829999
 20
-171.89335937499999
 30
0.0
 11
185.19641904829999
 21
-171.89335937499999
 31
0.0
 70
   128
  1
<>
 13
195.19641904829999
 23
-201.89335937499999
 33
0.0
 14
175.19641904829999
 24
-201.89335937499999
 34
0.0
  0
ARC
  5
143
  8
┌▓È_1
 62
     5
 10
175.54641904830001
 20
-290.09335937499998
 30
0.0
 40
2.0
 50
100.0786581078
 51
180.0
  0
ARC
  5
144
  8
┌▓È_1
 62
     5
 10
175.54641904830001
 20
-290.09335937499998
 30
0.0
 40
0.8
 50
115.9444797724
 51
180.0
  0
ARC
  5
145
  8
┌▓È_1
 62
     5
 10
194.94641904829999
 20
-289.943359375
 30
0.0
 40
2.5
 50
0.0
 51
84.260829522700007
  0
ARC
  5
146
  8
┌▓È_1
 62
     5
 10
194.84641904829999
 20
-290.09335937499998
 30
0.0
 40
0.8
 50
0.0
 51
64.055520227599999
  0
LINE
  5
147
  8
┌▓È_1
 62
     5
 10
175.19641904829999
 20
-284.4416934514
 30
0.0
 11
195.19641904829999
 21
-284.4416934514
 31
0.0
  0
CIRCLE
  5
148
  8
┌▓È_1
 62
     5
 10
185.19641904829999
 20
-211.89335937499999
 30
0.0
 40
2.25
  0
LINE
  5
149
  8
┌▓È_1
 62
     5
 10
262.63463541670001
 20
-290.48301239009999
 30
0.0
 11
262.63463541670001
 21
-262.89335937499999
 31
0.0
  0
LINE
  5
14A
  8
Éíû@É³
 62
     5
 10
187.44641904829999
 20
-209.64335937499999
 30
0.0
 11
234.0
 21
-173.75057411189999
 31
0.0
  0
LINE
  5
14B
  8
Éíû@É³
 62
     5
 10
187.44641904829999
 20
-209.64335937499999
 30
0.0
 11
189.44139656109999
 21
-207.030995367
 31
0.0
  0
LINE
  5
14C
  8
Éíû@É³
 62
     5
 10
187.44641904829999
 20
-209.64335937499999
 30
0.0
 11
190.4803022584
 21
-208.37847453649999
 31
0.0
  0
LINE
  5
14D
  8
┌▓È_1
 62
     5
 10
175.19641904829999
 20
-201.89335937499999
 30
0.0
 11
195.19641904829999
 21
-201.89335937499999
 31
0.0
  0
LINE
  5
14E
  8
┌▓È_1
 62
     5
 10
175.19641904829999
 20
-223.89335937499999
 30
0.0
 11
195.19641904829999
 21
-223.89335937499999
 31
0.0
  0
LINE
  5
14F
  8
┌▓È_1
 62
     5
 10
175.19641904829999
 20
-201.89335937499999
 30
0.0
 11
195.19641904829999
 21
-201.89335937499999
 31
0.0
  0
ARC
  5
150
  8
┌▓È_1
 62
     5
 10
194.84641904829999
 20
-290.09335937499998
 30
0.0
 40
2.0
 50
0.0
 51
79.921341892200005
  0
LINE
  5
151
  8
┌▓È_1
 62
     5
 10
180.0529670807
 20
-211.89335937499999
 30
0.0
 11
190.15355187599999
 21
-211.89335937499999
 31
0.0
  0
LINE
  5
152
  8
┌▓È_1
 62
     5
 10
195.19641904829999
 20
-169.98206719149999
 30
0.0
 11
195.19641904829999
 21
-149.0223942648
 31
0.0
  0
INSERT
  5
153
  8
0
  6
CONTINUOUS
  2
*U25
 10
0.0
 20
0.0
 30
0.0
  0
INSERT
  5
154
  8
0
  6
CONTINUOUS
  2
*U26
 10
0.0
 20
0.0
 30
0.0
  0
INSERT
  5
155
  8
0
  6
CONTINUOUS
  2
*U27
 10
0.0
 20
0.0
 30
0.0
  0
INSERT
  5
156
  8
0
  6
CONTINUOUS
  2
*U28
 10
0.0
 20
0.0
 30
0.0
  0
LINE
  5
157
  8
┌▓È_1
 62
     5
 10
-101.0535809517
 20
-24.777789389900001
 30
0.0
 11
-108.5535809517
 21
-24.777789389900001
 31
0.0
  0
LINE
  5
158
  8
┌▓È_1
 62
     5
 10
35.196419048300001
 20
75.508868680299997
 30
0.0
 11
35.196419048300001
 21
-41.355078124999999
 31
0.0
  0
LINE
  5
159
  8
┌▓È_1
 62
     5
 10
45.196419048300001
 20
75.508868680299997
 30
0.0
 11
45.196419048300001
 21
-41.355078124999999
 31
0.0
  0
LINE
  5
15A
  8
┌▓È_1
 62
     5
 10
-105.2035809517
 20
2.1224906029000001
 30
0.0
 11
-105.2035809517
 21
1.0224906029
 31
0.0
  0
LINE
  5
15B
  8
┌▓È_1
 62
     5
 10
-105.2035809517
 20
0.2224906029
 30
0.0
 11
-105.2035809517
 21
-0.8775093971
 31
0.0
  0
LINE
  5
15C
  8
┌▓È_1
 62
     5
 10
-104.40358095169999
 20
-0.8775093971
 30
0.0
 11
-104.40358095169999
 21
0.2224906029
 31
0.0
  0
LINE
  5
15D
  8
┌▓È_1
 62
     5
 10
-104.40358095169999
 20
1.0224906029
 30
0.0
 11
-104.40358095169999
 21
2.1224906029000001
 31
0.0
  0
LINE
  5
15E
  8
┌▓È_1
 62
     5
 10
-103.3035809517
 20
0.2224906029
 30
0.0
 11
-104.40358095169999
 21
0.2224906029
 31
0.0
  0
LINE
  5
15F
  8
┌▓È_1
 62
     5
 10
-105.2035809517
 20
-0.8775093971
 30
0.0
 11
-104.40358095169999
 21
-0.8775093971
 31
0.0
  0
LINE
  5
160
  8
┌▓È_1
  6
BORDER
 62
     5
 10
-108.64497688030001
 20
0.6224906029000001
 30
0.0
 11
-101.31408257139999
 21
0.6224906029000001
 31
0.0
  0
LINE
  5
161
  8
┌▓È_1
 62
     5
 10
-109.5535809517
 20
-23.777789389900001
 30
0.0
 11
-109.5535809517
 21
184.98291558599999
 31
0.0
  0
LINE
  5
162
  8
┌▓È_1
 62
     5
 10
-100.0535809517
 20
184.98291558599999
 30
0.0
 11
-100.0535809517
 21
-23.777789389900001
 31
0.0
  0
LINE
  5
163
  8
┌▓È_1
  6
BORDER
 62
     5
 10
-104.8035809517
 20
-30.180120416899999
 30
0.0
 11
-104.8035809517
 21
190.7056217706
 31
0.0
  0
LINE
  5
164
  8
┌▓È_1
 62
     5
 10
-105.2035809517
 20
0.2224906029
 30
0.0
 11
-106.3035809517
 21
0.2224906029
 31
0.0
  0
LINE
  5
165
  8
┌▓È_1
 62
     5
 10
-106.3035809517
 20
1.0224906029
 30
0.0
 11
-105.2035809517
 21
1.0224906029
 31
0.0
  0
LINE
  5
166
  8
┌▓È_1
 62
     5
 10
-104.40358095169999
 20
1.0224906029
 30
0.0
 11
-103.3035809517
 21
1.0224906029
 31
0.0
  0
CIRCLE
  5
167
  8
┌▓È_1
 62
     5
 10
-104.8035809517
 20
0.6224906029000001
 30
0.0
 40
3.3500000000000001
  0
LINE
  5
168
  8
┌▓È_1
 62
     5
 10
-103.3035809517
 20
1.0224906029
 30
0.0
 11
-103.3035809517
 21
0.2224906029
 31
0.0
  0
LINE
  5
169
  8
┌▓È_1
 62
     5
 10
-106.3035809517
 20
0.2224906029
 30
0.0
 11
-106.3035809517
 21
1.0224906029
 31
0.0
  0
LINE
  5
16A
  8
┌▓È_1
 62
     5
 10
35.196419048300001
 20
95.620653372899994
 30
0.0
 11
-100.0535809517
 21
95.620653372899994
 31
0.0
  0
LINE
  5
16B
  8
┌▓È_1
 62
     5
 10
35.196419048300001
 20
65.602563098100006
 30
0.0
 11
-100.0535809517
 21
65.602563098100006
 31
0.0
  0
LINE
  5
16C
  8
┌▓È_1
 62
     5
 10
35.196419048300001
 20
55.620653372900001
 30
0.0
 11
-100.0535809517
 21
55.620653372900001
 31
0.0
  0
LINE
  5
16D
  8
┌▓È_1
 62
     5
 10
35.196419048300001
 20
105.60256309810001
 30
0.0
 11
-100.0535809517
 21
105.60256309810001
 31
0.0
  0
LINE
  5
16E
  8
┌▓È_1
 62
     5
 10
35.196419048300001
 20
25.602563098099999
 30
0.0
 11
-100.0535809517
 21
25.602563098099999
 31
0.0
  0
LINE
  5
16F
  8
┌▓È_1
 62
     5
 10
35.196419048300001
 20
15.6753226899
 30
0.0
 11
-100.0535809517
 21
15.6753226899
 31
0.0
  0
LINE
  5
170
  8
┌▓È_1
 62
     5
 10
-104.40358095169999
 20
161.02249060290001
 30
0.0
 11
-103.3035809517
 21
161.02249060290001
 31
0.0
  0
LINE
  5
171
  8
┌▓È_1
 62
     5
 10
-106.3035809517
 20
161.02249060290001
 30
0.0
 11
-105.2035809517
 21
161.02249060290001
 31
0.0
  0
LINE
  5
172
  8
┌▓È_1
 62
     5
 10
-104.40358095169999
 20
162.1224906029
 30
0.0
 11
-105.2035809517
 21
162.1224906029
 31
0.0
  0
LINE
  5
173
  8
┌▓È_1
 62
     5
 10
-104.40358095169999
 20
41.0224906029
 30
0.0
 11
-104.40358095169999
 21
42.122490602900001
 31
0.0
  0
LINE
  5
174
  8
┌▓È_1
 62
     5
 10
-104.40358095169999
 20
121.02249060290001
 30
0.0
 11
-103.3035809517
 21
121.02249060290001
 31
0.0
  0
LINE
  5
175
  8
┌▓È_1
 62
     5
 10
-100.0535809517
 20
66.108893581000004
 30
0.0
 11
-109.5535809517
 21
66.108893581000004
 31
0.0
  0
LINE
  5
176
  8
┌▓È_1
 62
     5
 10
-100.0535809517
 20
94.868361650499978
 30
0.0
 11
-109.5535809517
 21
94.868361650499978
 31
0.0
  0
LINE
  5
177
  8
┌▓È_1
  6
BORDER
 62
     5
 10
-108.64497688030001
 20
80.622490602900001
 30
0.0
 11
-101.31408257139999
 21
80.622490602900001
 31
0.0
  0
CIRCLE
  5
178
  8
┌▓È_1
 62
     5
 10
-104.8035809517
 20
40.622490602900001
 30
0.0
 40
3.3500000000000001
  0
LINE
  5
179
  8
┌▓È_1
 62
     5
 10
-103.3035809517
 20
40.222490602900002
 30
0.0
 11
-104.40358095169999
 21
40.222490602900002
 31
0.0
  0
LINE
  5
17A
  8
┌▓È_1
 62
     5
 10
-105.2035809517
 20
80.222490602899995
 30
0.0
 11
-105.2035809517
 21
79.122490602900001
 31
0.0
  0
LINE
  5
17B
  8
┌▓È_1
 62
     5
 10
-104.40358095169999
 20
79.122490602900001
 30
0.0
 11
-104.40358095169999
 21
80.222490602899995
 31
0.0
  0
LINE
  5
17C
  8
┌▓È_1
 62
     5
 10
-104.40358095169999
 20
81.022490602900007
 30
0.0
 11
-104.40358095169999
 21
82.122490602900001
 31
0.0
  0
LINE
  5
17D
  8
┌▓È_1
 62
     5
 10
-103.3035809517
 20
80.222490602899995
 30
0.0
 11
-104.40358095169999
 21
80.222490602899995
 31
0.0
  0
LINE
  5
17E
  8
┌▓È_1
 62
     5
 10
-105.2035809517
 20
79.122490602900001
 30
0.0
 11
-104.40358095169999
 21
79.122490602900001
 31
0.0
  0
LINE
  5
17F
  8
┌▓È_1
 62
     5
 10
-104.40358095169999
 20
122.1224906029
 30
0.0
 11
-105.2035809517
 21
122.1224906029
 31
0.0
  0
LINE
  5
180
  8
┌▓È_1
 62
     5
 10
-105.2035809517
 20
122.1224906029
 30
0.0
 11
-105.2035809517
 21
121.02249060290001
 31
0.0
  0
ARC
  5
181
  8
┌▓È_1
 62
     5
 10
-108.5535809517
 20
184.98291558599999
 30
0.0
 40
1.0
 50
90.0
 51
180.0
  0
LINE
  5
182
  8
┌▓È_1
  6
BORDER
 62
     5
 10
-96.184049701700005
 20
140.6224906029
 30
0.0
 11
-113.9194012642
 21
140.6224906029
 31
0.0
  0
LINE
  5
183
  8
┌▓È_1
 62
     5
 10
-106.3035809517
 20
120.2224906029
 30
0.0
 11
-106.3035809517
 21
121.02249060290001
 31
0.0
  0
LINE
  5
184
  8
┌▓È_1
 62
     5
 10
-104.40358095169999
 20
2.1224906029000001
 30
0.0
 11
-105.2035809517
 21
2.1224906029000001
 31
0.0
  0
LINE
  5
185
  8
┌▓È_1
 62
     5
 10
-100.0535809517
 20
-13.891106432200001
 30
0.0
 11
-109.5535809517
 21
-13.891106432200001
 31
0.0
  0
ARC
  5
186
  8
┌▓È_1
 62
     5
 10
-101.0535809517
 20
-23.777789389900001
 30
0.0
 40
1.0
 50
270.0
 51
0.0
  0
ARC
  5
187
  8
┌▓È_1
 62
     5
 10
-108.5535809517
 20
-23.777789389900001
 30
0.0
 40
1.0
 50
180.0
 51
270.0
  0
LINE
  5
188
  8
┌▓È_1
  6
BORDER
 62
     5
 10
-96.184049701700005
 20
-19.377509397099999
 30
0.0
 11
-113.9194012642
 21
-19.377509397099999
 31
0.0
  0
LINE
  5
189
  8
┌▓È_1
 62
     5
 10
-104.40358095169999
 20
121.02249060290001
 30
0.0
 11
-104.40358095169999
 21
122.1224906029
 31
0.0
  0
LINE
  5
18A
  8
┌▓È_1
  6
BORDER
 62
     5
 10
-108.64497688030001
 20
120.6224906029
 30
0.0
 11
-101.31408257139999
 21
120.6224906029
 31
0.0
  0
LINE
  5
18B
  8
┌▓È_1
 62
     5
 10
-104.40358095169999
 20
119.1224906029
 30
0.0
 11
-104.40358095169999
 21
120.2224906029
 31
0.0
  0
LINE
  5
18C
  8
┌▓È_1
 62
     5
 10
-103.3035809517
 20
41.0224906029
 30
0.0
 11
-103.3035809517
 21
40.222490602900002
 31
0.0
  0
LINE
  5
18D
  8
┌▓È_1
 62
     5
 10
-106.3035809517
 20
40.222490602900002
 30
0.0
 11
-106.3035809517
 21
41.0224906029
 31
0.0
  0
LINE
  5
18E
  8
┌▓È_1
 62
     5
 10
-105.2035809517
 20
39.122490602900001
 30
0.0
 11
-104.40358095169999
 21
39.122490602900001
 31
0.0
  0
LINE
  5
18F
  8
┌▓È_1
 62
     5
 10
-104.40358095169999
 20
82.122490602900001
 30
0.0
 11
-105.2035809517
 21
82.122490602900001
 31
0.0
  0
LINE
  5
190
  8
┌▓È_1
 62
     5
 10
-105.2035809517
 20
80.222490602899995
 30
0.0
 11
-106.3035809517
 21
80.222490602899995
 31
0.0
  0
LINE
  5
191
  8
┌▓È_1
 62
     5
 10
-106.3035809517
 20
81.022490602900007
 30
0.0
 11
-105.2035809517
 21
81.022490602900007
 31
0.0
  0
LINE
  5
192
  8
┌▓È_1
 62
     5
 10
-104.40358095169999
 20
81.022490602900007
 30
0.0
 11
-103.3035809517
 21
81.022490602900007
 31
0.0
  0
CIRCLE
  5
193
  8
┌▓È_1
 62
     5
 10
-104.8035809517
 20
80.622490602900001
 30
0.0
 40
3.3500000000000001
  0
LINE
  5
194
  8
┌▓È_1
 62
     5
 10
-103.3035809517
 20
81.022490602900007
 30
0.0
 11
-103.3035809517
 21
80.222490602899995
 31
0.0
  0
LINE
  5
195
  8
┌▓È_1
 62
     5
 10
-106.3035809517
 20
80.222490602899995
 30
0.0
 11
-106.3035809517
 21
81.022490602900007
 31
0.0
  0
LINE
  5
196
  8
┌▓È_1
 62
     5
 10
-100.0535809517
 20
26.108893581
 30
0.0
 11
-109.5535809517
 21
26.108893581
 31
0.0
  0
LINE
  5
197
  8
┌▓È_1
  6
BORDER
 62
     5
 10
-96.184049701700005
 20
20.622490602900001
 30
0.0
 11
-113.9194012642
 21
20.622490602900001
 31
0.0
  0
LINE
  5
198
  8
┌▓È_1
 62
     5
 10
-100.0535809517
 20
174.86836165049999
 30
0.0
 11
-109.5535809517
 21
174.86836165049999
 31
0.0
  0
LINE
  5
199
  8
┌▓È_1
  6
BORDER
 62
     5
 10
-96.184049701700005
 20
180.6224906029
 30
0.0
 11
-113.9194012642
 21
180.6224906029
 31
0.0
  0
LINE
  5
19A
  8
┌▓È_1
  6
BORDER
 62
     5
 10
-108.64497688030001
 20
160.6224906029
 30
0.0
 11
-101.31408257139999
 21
160.6224906029
 31
0.0
  0
LINE
  5
19B
  8
┌▓È_1
  6
BORDER
 62
     5
 10
-96.184049701700005
 20
100.6224906029
 30
0.0
 11
-113.9194012642
 21
100.6224906029
 31
0.0
  0
LINE
  5
19C
  8
┌▓È_1
 62
     5
 10
-105.2035809517
 20
119.1224906029
 30
0.0
 11
-104.40358095169999
 21
119.1224906029
 31
0.0
  0
LINE
  5
19D
  8
┌▓È_1
 62
     5
 10
-105.2035809517
 20
40.222490602900002
 30
0.0
 11
-105.2035809517
 21
39.122490602900001
 31
0.0
  0
LINE
  5
19E
  8
┌▓È_1
 62
     5
 10
-103.3035809517
 20
120.2224906029
 30
0.0
 11
-104.40358095169999
 21
120.2224906029
 31
0.0
  0
LINE
  5
19F
  8
┌▓È_1
 62
     5
 10
-100.0535809517
 20
55.075584806400002
 30
0.0
 11
-109.5535809517
 21
55.075584806400002
 31
0.0
  0
LINE
  5
1A0
  8
┌▓È_1
 62
     5
 10
-103.3035809517
 20
161.02249060290001
 30
0.0
 11
-103.3035809517
 21
160.2224906029
 31
0.0
  0
CIRCLE
  5
1A1
  8
┌▓È_1
 62
     5
 10
-104.8035809517
 20
160.6224906029
 30
0.0
 40
3.3500000000000001
  0
LINE
  5
1A2
  8
┌▓È_1
 62
     5
 10
-105.2035809517
 20
120.2224906029
 30
0.0
 11
-105.2035809517
 21
119.1224906029
 31
0.0
  0
LINE
  5
1A3
  8
┌▓È_1
 62
     5
 10
-105.2035809517
 20
40.222490602900002
 30
0.0
 11
-106.3035809517
 21
40.222490602900002
 31
0.0
  0
LINE
  5
1A4
  8
┌▓È_1
 62
     5
 10
-106.3035809517
 20
41.0224906029
 30
0.0
 11
-105.2035809517
 21
41.0224906029
 31
0.0
  0
LINE
  5
1A5
  8
┌▓È_1
 62
     5
 10
-104.40358095169999
 20
41.0224906029
 30
0.0
 11
-103.3035809517
 21
41.0224906029
 31
0.0
  0
LINE
  5
1A6
  8
┌▓È_1
 62
     5
 10
-105.2035809517
 20
82.122490602900001
 30
0.0
 11
-105.2035809517
 21
81.022490602900007
 31
0.0
  0
LINE
  5
1A7
  8
┌▓È_1
 62
     5
 10
-100.0535809517
 20
106.37661955519999
 30
0.0
 11
-109.5535809517
 21
106.37661955519999
 31
0.0
  0
LINE
  5
1A8
  8
┌▓È_1
 62
     5
 10
-100.0535809517
 20
134.86836165049999
 30
0.0
 11
-109.5535809517
 21
134.86836165049999
 31
0.0
  0
LINE
  5
1A9
  8
┌▓È_1
 62
     5
 10
-100.0535809517
 20
146.30139894870001
 30
0.0
 11
-109.5535809517
 21
146.30139894870001
 31
0.0
  0
LINE
  5
1AA
  8
┌▓È_1
  6
BORDER
 62
     5
 10
-96.184049701700005
 20
60.622490602900001
 30
0.0
 11
-113.9194012642
 21
60.622490602900001
 31
0.0
  0
LINE
  5
1AB
  8
┌▓È_1
  6
BORDER
 62
     5
 10
-108.64497688030001
 20
40.622490602900001
 30
0.0
 11
-101.31408257139999
 21
40.622490602900001
 31
0.0
  0
LINE
  5
1AC
  8
┌▓È_1
 62
     5
 10
-100.0535809517
 20
14.868361650500001
 30
0.0
 11
-109.5535809517
 21
14.868361650500001
 31
0.0
  0
LINE
  5
1AD
  8
┌▓È_1
 62
     5
 10
-105.2035809517
 20
120.2224906029
 30
0.0
 11
-106.3035809517
 21
120.2224906029
 31
0.0
  0
LINE
  5
1AE
  8
┌▓È_1
 62
     5
 10
-105.2035809517
 20
159.1224906029
 30
0.0
 11
-104.40358095169999
 21
159.1224906029
 31
0.0
  0
LINE
  5
1AF
  8
┌▓È_1
 62
     5
 10
-106.3035809517
 20
160.2224906029
 30
0.0
 11
-106.3035809517
 21
161.02249060290001
 31
0.0
  0
LINE
  5
1B0
  8
┌▓È_1
 62
     5
 10
-104.40358095169999
 20
42.122490602900001
 30
0.0
 11
-105.2035809517
 21
42.122490602900001
 31
0.0
  0
LINE
  5
1B1
  8
┌▓È_1
 62
     5
 10
-105.2035809517
 20
42.122490602900001
 30
0.0
 11
-105.2035809517
 21
41.0224906029
 31
0.0
  0
LINE
  5
1B2
  8
┌▓È_1
 62
     5
 10
-108.5535809517
 20
185.98291558599999
 30
0.0
 11
-101.0535809517
 21
185.98291558599999
 31
0.0
  0
ARC
  5
1B3
  8
┌▓È_1
 62
     5
 10
-101.0535809517
 20
184.98291558599999
 30
0.0
 40
1.0
 50
0.0
 51
90.0
  0
LINE
  5
1B4
  8
┌▓È_1
 62
     5
 10
-105.2035809517
 20
160.2224906029
 30
0.0
 11
-106.3035809517
 21
160.2224906029
 31
0.0
  0
LINE
  5
1B5
  8
┌▓È_1
 62
     5
 10
-103.3035809517
 20
160.2224906029
 30
0.0
 11
-104.40358095169999
 21
160.2224906029
 31
0.0
  0
LINE
  5
1B6
  8
┌▓È_1
 62
     5
 10
-104.40358095169999
 20
161.02249060290001
 30
0.0
 11
-104.40358095169999
 21
162.1224906029
 31
0.0
  0
LINE
  5
1B7
  8
┌▓È_1
 62
     5
 10
-104.40358095169999
 20
159.1224906029
 30
0.0
 11
-104.40358095169999
 21
160.2224906029
 31
0.0
  0
LINE
  5
1B8
  8
┌▓È_1
 62
     5
 10
-105.2035809517
 20
160.2224906029
 30
0.0
 11
-105.2035809517
 21
159.1224906029
 31
0.0
  0
LINE
  5
1B9
  8
┌▓È_1
 62
     5
 10
-105.2035809517
 20
162.1224906029
 30
0.0
 11
-105.2035809517
 21
161.02249060290001
 31
0.0
  0
LINE
  5
1BA
  8
┌▓È_1
 62
     5
 10
-104.40358095169999
 20
39.122490602900001
 30
0.0
 11
-104.40358095169999
 21
40.222490602900002
 31
0.0
  0
LINE
  5
1BB
  8
┌▓È_1
 62
     5
 10
-404.80358095169993
 20
-30.930273206199999
 30
0.0
 11
-406.55358095169993
 21
-30.930273206199999
 31
0.0
  0
LINE
  5
1BC
  8
┌▓È_1
 62
     5
 10
-406.55358095169993
 20
-34.930273206199999
 30
0.0
 11
-405.3535809517
 21
-34.930273206199999
 31
0.0
  0
LINE
  5
1BD
  8
┌▓È_1
 62
     5
 10
-384.80358095169998
 20
-34.930273206199999
 30
0.0
 11
-404.80358095169993
 21
-34.930273206199999
 31
0.0
  0
LINE
  5
1BE
  8
┌▓È_1
 62
     5
 10
-383.05358095169998
 20
-30.930273206199999
 30
0.0
 11
-384.80358095169998
 21
-30.930273206199999
 31
0.0
  0
LINE
  5
1BF
  8
┌▓È_1
 62
     5
 10
-383.05358095169998
 20
-34.930273206199999
 30
0.0
 11
-384.25358095169997
 21
-34.930273206199999
 31
0.0
  0
LINE
  5
1C0
  8
┌▓È_1
 62
     5
 10
-254.80358095170001
 20
185.60256309810001
 30
0.0
 11
-383.05358095169998
 21
185.60256309810001
 31
0.0
  0
LINE
  5
1C1
  8
┌▓È_1
 62
     5
 10
-254.80358095170001
 20
175.60256309810001
 30
0.0
 11
-383.05358095169998
 21
175.60256309810001
 31
0.0
  0
LINE
  5
1C2
  8
┌▓È_1
 62
     5
 10
-254.80358095170001
 20
145.58447282329999
 30
0.0
 11
-383.05358095169998
 21
145.58447282329999
 31
0.0
  0
LINE
  5
1C3
  8
┌▓È_1
 62
     5
 10
-383.05358095169998
 20
135.58447282329999
 30
0.0
 11
-254.80358095170001
 21
135.58447282329999
 31
0.0
  0
LINE
  5
1C4
  8
┌▓È_1
 62
     5
 10
-254.80358095170001
 20
105.60256309810001
 30
0.0
 11
-383.05358095169998
 21
105.60256309810001
 31
0.0
  0
LINE
  5
1C5
  8
┌▓È_1
 62
     5
 10
-254.80358095170001
 20
95.620653372899994
 30
0.0
 11
-383.05358095169998
 21
95.620653372899994
 31
0.0
  0
LINE
  5
1C6
  8
┌▓È_1
 62
     5
 10
45.196419048300001
 20
75.508868680299997
 30
0.0
 11
40.1701314787
 21
75.508868680299997
 31
0.0
  0
LINE
  5
1C7
  8
┌▓È_1
 62
     5
 10
45.196419048300001
 20
80.535156250000014
 30
0.0
 11
40.1701314787
 21
75.508868680299997
 31
0.0
  0
LINE
  5
1C8
  8
┌▓È_1
 62
     5
 10
35.196419048300001
 20
85.508868680299997
 30
0.0
 11
40.1701314787
 21
85.508868680299997
 31
0.0
  0
LINE
  5
1C9
  8
┌▓È_1
 62
     5
 10
35.196419048300001
 20
80.535156250000014
 30
0.0
 11
40.1701314787
 21
85.508868680299997
 31
0.0
  0
LINE
  5
1CA
  8
┌▓È_1
 62
     5
 10
45.196419048300001
 20
202.42539062500001
 30
0.0
 11
45.196419048300001
 21
85.508868680299997
 31
0.0
  0
LINE
  5
1CB
  8
┌▓È_1
 62
     5
 10
35.196419048300001
 20
202.42539062500001
 30
0.0
 11
35.196419048300001
 21
85.508868680299997
 31
0.0
  0
LINE
  5
1CC
  8
┌▓È_1
 62
     5
 10
50.1701314787
 20
85.508868680299997
 30
0.0
 11
45.196419048300001
 21
85.508868680299997
 31
0.0
  0
LINE
  5
1CD
  8
┌▓È_1
 62
     5
 10
45.196419048300001
 20
80.535156250000014
 30
0.0
 11
50.1701314787
 21
85.508868680299997
 31
0.0
  0
LINE
  5
1CE
  8
┌▓È_1
 62
     5
 10
30.1701314787
 20
75.508868680299997
 30
0.0
 11
35.196419048300001
 21
75.508868680299997
 31
0.0
  0
LINE
  5
1CF
  8
┌▓È_1
 62
     5
 10
35.196419048300001
 20
80.535156250000014
 30
0.0
 11
30.1701314787
 21
75.508868680299997
 31
0.0
  0
DIMENSION
  5
1DE
  8
Éíû@É³
 62
     5
  2
*D5
 10
-41.6736979167
 20
140.58447282329999
 30
0.0
 11
-41.6736979167
 21
210.56877837729999
 31
0.0
 70
   128
  1
P=40
 13
-79.752734375000003
 23
140.58447282329999
 33
0.0
 14
-79.752734375000003
 24
180.60256309810001
 34
0.0
 50
90.0
  0
LINE
  5
1DF
  8
┌▓È_1
 62
     5
 10
-106.3035809517
 20
121.02249060290001
 30
0.0
 11
-105.2035809517
 21
121.02249060290001
 31
0.0
  0
CIRCLE
  5
1E0
  8
┌▓È_1
 62
     5
 10
-104.8035809517
 20
120.6224906029
 30
0.0
 40
3.3500000000000001
  0
LINE
  5
1E1
  8
┌▓È_1
 62
     5
 10
-103.3035809517
 20
121.02249060290001
 30
0.0
 11
-103.3035809517
 21
120.2224906029
 31
0.0
  0
LINE
  5
1E2
  8
┌▓È_1
 62
     5
 10
-406.55358095169993
 20
70.569726793800001
 30
0.0
 11
-406.55358095169993
 21
-34.930273206199999
 31
0.0
  0
LINE
  5
1E3
  8
┌▓È_1
 62
     5
 10
-407.15358095170001
 20
90.569726793799987
 30
0.0
 11
-407.15358095170001
 21
70.569726793800001
 31
0.0
  0
LINE
  5
1E4
  8
┌▓È_1
 62
     5
 10
-407.15358095170001
 20
70.569726793800001
 30
0.0
 11
-404.80358095169993
 21
70.569726793800001
 31
0.0
  0
LINE
  5
1E5
  8
┌▓È_1
 62
     5
 10
-254.80358095170001
 20
55.620653372900001
 30
0.0
 11
-383.05358095169998
 21
55.620653372900001
 31
0.0
  0
LINE
  5
1E6
  8
┌▓È_1
 62
     5
 10
-254.80358095170001
 20
25.602563098099999
 30
0.0
 11
-383.05358095169998
 21
25.602563098099999
 31
0.0
  0
LINE
  5
1E7
  8
┌▓È_1
 62
     5
 10
-254.80358095170001
 20
15.6753226899
 30
0.0
 11
-383.05358095169998
 21
15.6753226899
 31
0.0
  0
LINE
  5
1E8
  8
┌▓È_1
 62
     5
 10
-254.80358095170001
 20
-14.397436901900001
 30
0.0
 11
-383.05358095169998
 21
-14.397436901900001
 31
0.0
  0
LINE
  5
1E9
  8
┌▓È_1
 62
     5
 10
-254.80358095170001
 20
-24.397436901900001
 30
0.0
 11
-383.05358095169998
 21
-24.397436901900001
 31
0.0
  0
LINE
  5
1EA
  8
┌▓È_1
 62
     5
 10
-405.3535809517
 20
196.06972679379999
 30
0.0
 11
-405.3535809517
 21
192.06972679379999
 31
0.0
  0
LINE
  5
1EB
  8
┌▓È_1
 62
     5
 10
-406.55358095169993
 20
196.06972679379999
 30
0.0
 11
-405.3535809517
 21
196.06972679379999
 31
0.0
  0
LINE
  5
1EC
  8
┌▓È_1
 62
     5
 10
-404.80358095169993
 20
197.06972679379999
 30
0.0
 11
-384.80358095169998
 21
197.06972679379999
 31
0.0
  0
LINE
  5
1ED
  8
┌▓È_1
 62
     5
 10
-384.25358095169997
 20
-34.930273206199999
 30
0.0
 11
-384.25358095169997
 21
-30.930273206199999
 31
0.0
  0
LINE
  5
1EE
  8
┌▓È_1
 62
     5
 10
-405.3535809517
 20
-34.930273206199999
 30
0.0
 11
-405.3535809517
 21
-30.930273206199999
 31
0.0
  0
LINE
  5
1EF
  8
┌▓È_1
 62
     5
 10
-383.05358095169998
 20
-34.930273206199999
 30
0.0
 11
-383.05358095169998
 21
196.06972679379999
 31
0.0
  0
LINE
  5
1F0
  8
┌▓È_1
 62
     5
 10
-404.80358095169993
 20
-34.930273206199999
 30
0.0
 11
-404.80358095169993
 21
197.06972679379999
 31
0.0
  0
LINE
  5
1F1
  8
┌▓È_1
 62
     5
 10
-384.80358095169998
 20
197.06972679379999
 30
0.0
 11
-384.80358095169998
 21
-34.930273206199999
 31
0.0
  0
LINE
  5
1F2
  8
┌▓È_1
 62
     5
 10
-406.55358095169993
 20
196.06972679379999
 30
0.0
 11
-406.55358095169993
 21
90.569726793799987
 31
0.0
  0
LINE
  5
1F3
  8
┌▓È_1
 62
     5
 10
-254.80358095170001
 20
65.602563098100006
 30
0.0
 11
-383.05358095169998
 21
65.602563098100006
 31
0.0
  0
LINE
  5
1F4
  8
┌▓È_1
 62
     5
 10
-383.05358095169998
 20
196.06972679379999
 30
0.0
 11
-384.25358095169997
 21
196.06972679379999
 31
0.0
  0
LINE
  5
1F5
  8
┌▓È_1
 62
     5
 10
-404.80358095169993
 20
193.06972679379999
 30
0.0
 11
-384.80358095169998
 21
193.06972679379999
 31
0.0
  0
LINE
  5
1F6
  8
┌▓È_1
 62
     5
 10
-404.80358095169993
 20
195.06972679379999
 30
0.0
 11
-384.80358095169998
 21
195.06972679379999
 31
0.0
  0
LINE
  5
1F7
  8
┌▓È_1
 62
     5
 10
-384.25358095169997
 20
196.06972679379999
 30
0.0
 11
-384.25358095169997
 21
192.06972679379999
 31
0.0
  0
LINE
  5
1F8
  8
┌▓È_1
 62
     5
 10
-404.80358095169993
 20
192.06972679379999
 30
0.0
 11
-406.55358095169993
 21
192.06972679379999
 31
0.0
  0
LINE
  5
1F9
  8
┌▓È_1
 62
     5
 10
-383.05358095169998
 20
192.06972679379999
 30
0.0
 11
-384.80358095169998
 21
192.06972679379999
 31
0.0
  0
LINE
  5
1FA
  8
┌▓È_1
 62
     5
 10
-404.80358095169993
 20
90.569726793799987
 30
0.0
 11
-407.15358095170001
 21
90.569726793799987
 31
0.0
  0
LINE
  5
1FB
  8
┌▓È_1
 62
     5
 10
-108.5535809517
 20
-294.49335937500001
 30
0.0
 11
-101.0535809517
 21
-294.49335937500001
 31
0.0
  0
LINE
  5
1FC
  8
┌▓È_1
 62
     5
 10
-101.0535809517
 20
-297.89335937499999
 30
0.0
 11
-108.5535809517
 21
-297.89335937499999
 31
0.0
  0
POLYLINE
  5
1FD
  8
┌▓È_1
 62
     5
 10
45.196419048300015
 20
-301.193359375
 30
0.0
 66
     1
 70
     8
  0
VERTEX
  8
┌▓È_1
  5
5D2
 10
45.1964
 20
-301.193
 30
0.000000
  70
    32
  0
VERTEX
  8
┌▓È_1
  5
5D3
 10
45.1473
 20
-301.193
 30
0.000000
  70
    32
  0
VERTEX
  8
┌▓È_1
  5
5D4
 10
45.0983
 20
-301.190
 30
0.000000
  70
    32
  0
VERTEX
  8
┌▓È_1
  5
5D5
 10
45.0493
 20
-301.187
 30
0.000000
  70
    32
  0
VERTEX
  8
┌▓È_1
  5
5D6
 10
45.0004
 20
-301.181
 30
0.000000
  70
    32
  0
VERTEX
  8
┌▓È_1
  5
5D7
 10
44.9516
 20
-301.175
 30
0.000000
  70
    32
  0
VERTEX
  8
┌▓È_1
  5
5D8
 10
44.9030
 20
-301.166
 30
0.000000
  70
    32
  0
VERTEX
  8
┌▓È_1
  5
5D9
 10
44.8545
 20
-301.157
 30
0.000000
  70
    32
  0
VERTEX
  8
┌▓È_1
  5
5DA
 10
44.8062
 20
-301.145
 30
0.000000
  70
    32
  0
VERTEX
  8
┌▓È_1
  5
5DB
 10
44.7582
 20
-301.133
 30
0.000000
  70
    32
  0
VERTEX
  8
┌▓È_1
  5
5DC
 10
44.7105
 20
-301.118
 30
0.000000
  70
    32
  0
VERTEX
  8
┌▓È_1
  5
5DD
 10
44.6630
 20
-301.103
 30
0.000000
  70
    32
  0
VERTEX
  8
┌▓È_1
  5
5DE
 10
44.6158
 20
-301.086
 30
0.000000
  70
    32
  0
VERTEX
  8
┌▓È_1
  5
5DF
 10
44.5691
 20
-301.067
 30
0.000000
  70
    32
  0
VERTEX
  8
┌▓È_1
  5
5E0
 10
44.5226
 20
-301.047
 30
0.000000
  70
    32
  0
VERTEX
  8
┌▓È_1
  5
5E1
 10
44.4766
 20
-301.026
 30
0.000000
  70
    32
  0
VERTEX
  8
┌▓È_1
  5
5E2
 10
44.4311
 20
-301.003
 30
0.000000
  70
    32
  0
VERTEX
  8
┌▓È_1
  5
5E3
 10
44.3859
 20
-300.979
 30
0.000000
  70
    32
  0
VERTEX
  8
┌▓È_1
  5
5E4
 10
44.3413
 20
-300.953
 30
0.000000
  70
    32
  0
VERTEX
  8
┌▓È_1
  5
5E5
 10
44.2972
 20
-300.926
 30
0.000000
  70
    32
  0
VERTEX
  8
┌▓È_1
  5
5E6
 10
44.2536
 20
-300.898
 30
0.000000
  70
    32
  0
VERTEX
  8
┌▓È_1
  5
5E7
 10
44.2106
 20
-300.869
 30
0.000000
  70
    32
  0
VERTEX
  8
┌▓È_1
  5
5E8
 10
44.1682
 20
-300.838
 30
0.000000
  70
    32
  0
VERTEX
  8
┌▓È_1
  5
5E9
 10
44.1264
 20
-300.805
 30
0.000000
  70
    32
  0
VERTEX
  8
┌▓È_1
  5
5EA
 10
44.0853
 20
-300.772
 30
0.000000
  70
    32
  0
VERTEX
  8
┌▓È_1
  5
5EB
 10
44.0448
 20
-300.737
 30
0.000000
  70
    32
  0
VERTEX
  8
┌▓È_1
  5
5EC
 10
44.0050
 20
-300.701
 30
0.000000
  70
    32
  0
VERTEX
  8
┌▓È_1
  5
5ED
 10
43.9660
 20
-300.664
 30
0.000000
  70
    32
  0
VERTEX
  8
┌▓È_1
  5
5EE
 10
43.9276
 20
-300.626
 30
0.000000
  70
    32
  0
VERTEX
  8
┌▓È_1
  5
5EF
 10
43.8901
 20
-300.586
 30
0.000000
  70
    32
  0
VERTEX
  8
┌▓È_1
  5
5F0
 10
43.8533
 20
-300.546
 30
0.000000
  70
    32
  0
VERTEX
  8
┌▓È_1
  5
5F1
 10
43.8173
 20
-300.504
 30
0.000000
  70
    32
  0
VERTEX
  8
┌▓È_1
  5
5F2
 10
43.7822
 20
-300.461
 30
0.000000
  70
    32
  0
VERTEX
  8
┌▓È_1
  5
5F3
 10
43.7479
 20
-300.417
 30
0.000000
  70
    32
  0
VERTEX
  8
┌▓È_1
  5
5F4
 10
43.7145
 20
-300.372
 30
0.000000
  70
    32
  0
VERTEX
  8
┌▓È_1
  5
5F5
 10
43.6820
 20
-300.326
 30
0.000000
  70
    32
  0
VERTEX
  8
┌▓È_1
  5
5F6
 10
43.6504
 20
-300.279
 30
0.000000
  70
    32
  0
VERTEX
  8
┌▓È_1
  5
5F7
 10
43.6197
 20
-300.231
 30
0.000000
  70
    32
  0
VERTEX
  8
┌▓È_1
  5
5F8
 10
43.5900
 20
-300.183
 30
0.000000
  70
    32
  0
VERTEX
  8
┌▓È_1
  5
5F9
 10
43.5612
 20
-300.133
 30
0.000000
  70
    32
  0
VERTEX
  8
┌▓È_1
  5
5FA
 10
43.5335
 20
-300.082
 30
0.000000
  70
    32
  0
VERTEX
  8
┌▓È_1
  5
5FB
 10
43.5067
 20
-300.031
 30
0.000000
  70
    32
  0
VERTEX
  8
┌▓È_1
  5
5FC
 10
43.4810
 20
-299.979
 30
0.000000
  70
    32
  0
VERTEX
  8
┌▓È_1
  5
5FD
 10
43.4562
 20
-299.926
 30
0.000000
  70
    32
  0
VERTEX
  8
┌▓È_1
  5
5FE
 10
43.4326
 20
-299.872
 30
0.000000
  70
    32
  0
VERTEX
  8
┌▓È_1
  5
5FF
 10
43.4100
 20
-299.817
 30
0.000000
  70
    32
  0
VERTEX
  8
┌▓È_1
  5
600
 10
43.3884
 20
-299.762
 30
0.000000
  70
    32
  0
VERTEX
  8
┌▓È_1
  5
601
 10
43.3680
 20
-299.706
 30
0.000000
  70
    32
  0
VERTEX
  8
┌▓È_1
  5
602
 10
43.3487
 20
-299.650
 30
0.000000
  70
    32
  0
VERTEX
  8
┌▓È_1
  5
603
 10
43.3304
 20
-299.593
 30
0.000000
  70
    32
  0
VERTEX
  8
┌▓È_1
  5
604
 10
43.3133
 20
-299.536
 30
0.000000
  70
    32
  0
VERTEX
  8
┌▓È_1
  5
605
 10
43.2974
 20
-299.478
 30
0.000000
  70
    32
  0
VERTEX
  8
┌▓È_1
  5
606
 10
43.2825
 20
-299.419
 30
0.000000
  70
    32
  0
VERTEX
  8
┌▓È_1
  5
607
 10
43.2689
 20
-299.360
 30
0.000000
  70
    32
  0
VERTEX
  8
┌▓È_1
  5
608
 10
43.2564
 20
-299.301
 30
0.000000
  70
    32
  0
VERTEX
  8
┌▓È_1
  5
609
 10
43.2450
 20
-299.241
 30
0.000000
  70
    32
  0
VERTEX
  8
┌▓È_1
  5
60A
 10
43.2348
 20
-299.181
 30
0.000000
  70
    32
  0
VERTEX
  8
┌▓È_1
  5
60B
 10
43.2259
 20
-299.121
 30
0.000000
  70
    32
  0
VERTEX
  8
┌▓È_1
  5
60C
 10
43.2181
 20
-299.060
 30
0.000000
  70
    32
  0
VERTEX
  8
┌▓È_1
  5
60D
 10
43.2115
 20
-298.999
 30
0.000000
  70
    32
  0
VERTEX
  8
┌▓È_1
  5
60E
 10
43.2060
 20
-298.938
 30
0.000000
  70
    32
  0
VERTEX
  8
┌▓È_1
  5
60F
 10
43.2018
 20
-298.877
 30
0.000000
  70
    32
  0
VERTEX
  8
┌▓È_1
  5
610
 10
43.1988
 20
-298.816
 30
0.000000
  70
    32
  0
VERTEX
  8
┌▓È_1
  5
611
 10
43.1970
 20
-298.755
 30
0.000000
  70
    32
  0
VERTEX
  8
┌▓È_1
  5
612
 10
43.1964
 20
-298.693
 30
0.000000
  70
    32
  0
VERTEX
  8
┌▓È_1
  5
613
 10
43.1970
 20
-298.632
 30
0.000000
  70
    32
  0
VERTEX
  8
┌▓È_1
  5
614
 10
43.1988
 20
-298.571
 30
0.000000
  70
    32
  0
VERTEX
  8
┌▓È_1
  5
615
 10
43.2018
 20
-298.509
 30
0.000000
  70
    32
  0
VERTEX
  8
┌▓È_1
  5
616
 10
43.2060
 20
-298.448
 30
0.000000
  70
    32
  0
VERTEX
  8
┌▓È_1
  5
617
 10
43.2115
 20
-298.387
 30
0.000000
  70
    32
  0
VERTEX
  8
┌▓È_1
  5
618
 10
43.2181
 20
-298.327
 30
0.000000
  70
    32
  0
VERTEX
  8
┌▓È_1
  5
619
 10
43.2259
 20
-298.266
 30
0.000000
  70
    32
  0
VERTEX
  8
┌▓È_1
  5
61A
 10
43.2348
 20
-298.206
 30
0.000000
  70
    32
  0
VERTEX
  8
┌▓È_1
  5
61B
 10
43.2450
 20
-298.146
 30
0.000000
  70
    32
  0
VERTEX
  8
┌▓È_1
  5
61C
 10
43.2564
 20
-298.086
 30
0.000000
  70
    32
  0
VERTEX
  8
┌▓È_1
  5
61D
 10
43.2689
 20
-298.027
 30
0.000000
  70
    32
  0
VERTEX
  8
┌▓È_1
  5
61E
 10
43.2825
 20
-297.968
 30
0.000000
  70
    32
  0
VERTEX
  8
┌▓È_1
  5
61F
 10
43.2974
 20
-297.909
 30
0.000000
  70
    32
  0
VERTEX
  8
┌▓È_1
  5
620
 10
43.3133
 20
-297.851
 30
0.000000
  70
    32
  0
VERTEX
  8
┌▓È_1
  5
621
 10
43.3304
 20
-297.794
 30
0.000000
  70
    32
  0
VERTEX
  8
┌▓È_1
  5
622
 10
43.3487
 20
-297.737
 30
0.000000
  70
    32
  0
VERTEX
  8
┌▓È_1
  5
623
 10
43.3680
 20
-297.680
 30
0.000000
  70
    32
  0
VERTEX
  8
┌▓È_1
  5
624
 10
43.3884
 20
-297.624
 30
0.000000
  70
    32
  0
VERTEX
  8
┌▓È_1
  5
625
 10
43.4100
 20
-297.569
 30
0.000000
  70
    32
  0
VERTEX
  8
┌▓È_1
  5
626
 10
43.4326
 20
-297.515
 30
0.000000
  70
    32
  0
VERTEX
  8
┌▓È_1
  5
627
 10
43.4562
 20
-297.461
 30
0.000000
  70
    32
  0
VERTEX
  8
┌▓È_1
  5
628
 10
43.4810
 20
-297.408
 30
0.000000
  70
    32
  0
VERTEX
  8
┌▓È_1
  5
629
 10
43.5067
 20
-297.356
 30
0.000000
  70
    32
  0
VERTEX
  8
┌▓È_1
  5
62A
 10
43.5335
 20
-297.304
 30
0.000000
  70
    32
  0
VERTEX
  8
┌▓È_1
  5
62B
 10
43.5612
 20
-297.254
 30
0.000000
  70
    32
  0
VERTEX
  8
┌▓È_1
  5
62C
 10
43.5900
 20
-297.204
 30
0.000000
  70
    32
  0
VERTEX
  8
┌▓È_1
  5
62D
 10
43.6197
 20
-297.155
 30
0.000000
  70
    32
  0
VERTEX
  8
┌▓È_1
  5
62E
 10
43.6504
 20
-297.107
 30
0.000000
  70
    32
  0
VERTEX
  8
┌▓È_1
  5
62F
 10
43.6820
 20
-297.060
 30
0.000000
  70
    32
  0
VERTEX
  8
┌▓È_1
  5
630
 10
43.7145
 20
-297.014
 30
0.000000
  70
    32
  0
VERTEX
  8
┌▓È_1
  5
631
 10
43.7479
 20
-296.970
 30
0.000000
  70
    32
  0
VERTEX
  8
┌▓È_1
  5
632
 10
43.7822
 20
-296.926
 30
0.000000
  70
    32
  0
VERTEX
  8
┌▓È_1
  5
633
 10
43.8173
 20
-296.883
 30
0.000000
  70
    32
  0
VERTEX
  8
┌▓È_1
  5
634
 10
43.8533
 20
-296.841
 30
0.000000
  70
    32
  0
VERTEX
  8
┌▓È_1
  5
635
 10
43.8901
 20
-296.800
 30
0.000000
  70
    32
  0
VERTEX
  8
┌▓È_1
  5
636
 10
43.9276
 20
-296.761
 30
0.000000
  70
    32
  0
VERTEX
  8
┌▓È_1
  5
637
 10
43.9660
 20
-296.722
 30
0.000000
  70
    32
  0
VERTEX
  8
┌▓È_1
  5
638
 10
44.0050
 20
-296.685
 30
0.000000
  70
    32
  0
VERTEX
  8
┌▓È_1
  5
639
 10
44.0448
 20
-296.649
 30
0.000000
  70
    32
  0
VERTEX
  8
┌▓È_1
  5
63A
 10
44.0853
 20
-296.615
 30
0.000000
  70
    32
  0
VERTEX
  8
┌▓È_1
  5
63B
 10
44.1264
 20
-296.581
 30
0.000000
  70
    32
  0
VERTEX
  8
┌▓È_1
  5
63C
 10
44.1682
 20
-296.549
 30
0.000000
  70
    32
  0
VERTEX
  8
┌▓È_1
  5
63D
 10
44.2106
 20
-296.518
 30
0.000000
  70
    32
  0
VERTEX
  8
┌▓È_1
  5
63E
 10
44.2536
 20
-296.489
 30
0.000000
  70
    32
  0
VERTEX
  8
┌▓È_1
  5
63F
 10
44.2972
 20
-296.460
 30
0.000000
  70
    32
  0
VERTEX
  8
┌▓È_1
  5
640
 10
44.3413
 20
-296.433
 30
0.000000
  70
    32
  0
VERTEX
  8
┌▓È_1
  5
641
 10
44.3859
 20
-296.408
 30
0.000000
  70
    32
  0
VERTEX
  8
┌▓È_1
  5
642
 10
44.4311
 20
-296.384
 30
0.000000
  70
    32
  0
VERTEX
  8
┌▓È_1
  5
643
 10
44.4766
 20
-296.361
 30
0.000000
  70
    32
  0
VERTEX
  8
┌▓È_1
  5
644
 10
44.5226
 20
-296.339
 30
0.000000
  70
    32
  0
VERTEX
  8
┌▓È_1
  5
645
 10
44.5691
 20
-296.320
 30
0.000000
  70
    32
  0
VERTEX
  8
┌▓È_1
  5
646
 10
44.6158
 20
-296.301
 30
0.000000
  70
    32
  0
VERTEX
  8
┌▓È_1
  5
647
 10
44.6630
 20
-296.284
 30
0.000000
  70
    32
  0
VERTEX
  8
┌▓È_1
  5
648
 10
44.7105
 20
-296.268
 30
0.000000
  70
    32
  0
VERTEX
  8
┌▓È_1
  5
649
 10
44.7582
 20
-296.254
 30
0.000000
  70
    32
  0
VERTEX
  8
┌▓È_1
  5
64A
 10
44.8062
 20
-296.241
 30
0.000000
  70
    32
  0
VERTEX
  8
┌▓È_1
  5
64B
 10
44.8545
 20
-296.230
 30
0.000000
  70
    32
  0
VERTEX
  8
┌▓È_1
  5
64C
 10
44.9030
 20
-296.220
 30
0.000000
  70
    32
  0
VERTEX
  8
┌▓È_1
  5
64D
 10
44.9516
 20
-296.212
 30
0.000000
  70
    32
  0
VERTEX
  8
┌▓È_1
  5
64E
 10
45.0004
 20
-296.205
 30
0.000000
  70
    32
  0
VERTEX
  8
┌▓È_1
  5
64F
 10
45.0493
 20
-296.200
 30
0.000000
  70
    32
  0
VERTEX
  8
┌▓È_1
  5
650
 10
45.0983
 20
-296.196
 30
0.000000
  70
    32
  0
VERTEX
  8
┌▓È_1
  5
651
 10
45.1473
 20
-296.194
 30
0.000000
  70
    32
  0
VERTEX
  8
┌▓È_1
  5
652
 10
45.1964
 20
-296.193
 30
0.000000
  70
    32
  0
SEQEND
  8
┌▓È_1
  5
653
  0
LINE
  5
1FE
  8
┌▓È_1
 62
     5
 10
35.196419048300001
 20
-291.193359375
 30
0.0
 11
-100.0535809517
 21
-291.193359375
 31
0.0
  0
LINE
  5
1FF
  8
┌▓È_1
 62
     5
 10
35.196419048300001
 20
-301.193359375
 30
0.0
 11
-100.0535809517
 21
-301.193359375
 31
0.0
  0
POLYLINE
  5
200
  8
┌▓È_1
 62
     5
 10
37.196419048300001
 20
-298.693359375
 30
0.0
 66
     1
 70
     8
  0
VERTEX
  8
┌▓È_1
  5
654
 10
37.1964
 20
-298.693
 30
0.000000
  70
    32
  0
VERTEX
  8
┌▓È_1
  5
655
 10
37.1940
 20
-298.816
 30
0.000000
  70
    32
  0
VERTEX
  8
┌▓È_1
  5
656
 10
37.1868
 20
-298.938
 30
0.000000
  70
    32
  0
VERTEX
  8
┌▓È_1
  5
657
 10
37.1748
 20
-299.060
 30
0.000000
  70
    32
  0
VERTEX
  8
┌▓È_1
  5
658
 10
37.1580
 20
-299.181
 30
0.000000
  70
    32
  0
VERTEX
  8
┌▓È_1
  5
659
 10
37.1365
 20
-299.301
 30
0.000000
  70
    32
  0
VERTEX
  8
┌▓È_1
  5
65A
 10
37.1103
 20
-299.419
 30
0.000000
  70
    32
  0
VERTEX
  8
┌▓È_1
  5
65B
 10
37.0795
 20
-299.536
 30
0.000000
  70
    32
  0
VERTEX
  8
┌▓È_1
  5
65C
 10
37.0442
 20
-299.650
 30
0.000000
  70
    32
  0
VERTEX
  8
┌▓È_1
  5
65D
 10
37.0044
 20
-299.762
 30
0.000000
  70
    32
  0
VERTEX
  8
┌▓È_1
  5
65E
 10
36.9603
 20
-299.872
 30
0.000000
  70
    32
  0
VERTEX
  8
┌▓È_1
  5
65F
 10
36.9119
 20
-299.979
 30
0.000000
  70
    32
  0
VERTEX
  8
┌▓È_1
  5
660
 10
36.8594
 20
-300.082
 30
0.000000
  70
    32
  0
VERTEX
  8
┌▓È_1
  5
661
 10
36.8028
 20
-300.183
 30
0.000000
  70
    32
  0
VERTEX
  8
┌▓È_1
  5
662
 10
36.7424
 20
-300.279
 30
0.000000
  70
    32
  0
VERTEX
  8
┌▓È_1
  5
663
 10
36.6783
 20
-300.372
 30
0.000000
  70
    32
  0
VERTEX
  8
┌▓È_1
  5
664
 10
36.6106
 20
-300.461
 30
0.000000
  70
    32
  0
VERTEX
  8
┌▓È_1
  5
665
 10
36.5395
 20
-300.546
 30
0.000000
  70
    32
  0
VERTEX
  8
┌▓È_1
  5
666
 10
36.4652
 20
-300.626
 30
0.000000
  70
    32
  0
VERTEX
  8
┌▓È_1
  5
667
 10
36.3878
 20
-300.701
 30
0.000000
  70
    32
  0
VERTEX
  8
┌▓È_1
  5
668
 10
36.3076
 20
-300.772
 30
0.000000
  70
    32
  0
VERTEX
  8
┌▓È_1
  5
669
 10
36.2246
 20
-300.838
 30
0.000000
  70
    32
  0
VERTEX
  8
┌▓È_1
  5
66A
 10
36.1392
 20
-300.898
 30
0.000000
  70
    32
  0
VERTEX
  8
┌▓È_1
  5
66B
 10
36.0515
 20
-300.953
 30
0.000000
  70
    32
  0
VERTEX
  8
┌▓È_1
  5
66C
 10
35.9618
 20
-301.003
 30
0.000000
  70
    32
  0
VERTEX
  8
┌▓È_1
  5
66D
 10
35.8702
 20
-301.047
 30
0.000000
  70
    32
  0
VERTEX
  8
┌▓È_1
  5
66E
 10
35.7770
 20
-301.086
 30
0.000000
  70
    32
  0
VERTEX
  8
┌▓È_1
  5
66F
 10
35.6824
 20
-301.118
 30
0.000000
  70
    32
  0
VERTEX
  8
┌▓È_1
  5
670
 10
35.5866
 20
-301.145
 30
0.000000
  70
    32
  0
VERTEX
  8
┌▓È_1
  5
671
 10
35.4899
 20
-301.166
 30
0.000000
  70
    32
  0
VERTEX
  8
┌▓È_1
  5
672
 10
35.3925
 20
-301.181
 30
0.000000
  70
    32
  0
VERTEX
  8
┌▓È_1
  5
673
 10
35.2946
 20
-301.190
 30
0.000000
  70
    32
  0
VERTEX
  8
┌▓È_1
  5
674
 10
35.1964
 20
-301.193
 30
0.000000
  70
    32
  0
VERTEX
  8
┌▓È_1
  5
675
 10
35.0983
 20
-301.190
 30
0.000000
  70
    32
  0
VERTEX
  8
┌▓È_1
  5
676
 10
35.0004
 20
-301.181
 30
0.000000
  70
    32
  0
VERTEX
  8
┌▓È_1
  5
677
 10
34.9030
 20
-301.166
 30
0.000000
  70
    32
  0
VERTEX
  8
┌▓È_1
  5
678
 10
34.8062
 20
-301.145
 30
0.000000
  70
    32
  0
VERTEX
  8
┌▓È_1
  5
679
 10
34.7105
 20
-301.118
 30
0.000000
  70
    32
  0
VERTEX
  8
┌▓È_1
  5
67A
 10
34.6158
 20
-301.086
 30
0.000000
  70
    32
  0
VERTEX
  8
┌▓È_1
  5
67B
 10
34.5226
 20
-301.047
 30
0.000000
  70
    32
  0
VERTEX
  8
┌▓È_1
  5
67C
 10
34.4311
 20
-301.003
 30
0.000000
  70
    32
  0
VERTEX
  8
┌▓È_1
  5
67D
 10
34.3413
 20
-300.953
 30
0.000000
  70
    32
  0
VERTEX
  8
┌▓È_1
  5
67E
 10
34.2536
 20
-300.898
 30
0.000000
  70
    32
  0
VERTEX
  8
┌▓È_1
  5
67F
 10
34.1682
 20
-300.838
 30
0.000000
  70
    32
  0
VERTEX
  8
┌▓È_1
  5
680
 10
34.0853
 20
-300.772
 30
0.000000
  70
    32
  0
VERTEX
  8
┌▓È_1
  5
681
 10
34.0050
 20
-300.701
 30
0.000000
  70
    32
  0
VERTEX
  8
┌▓È_1
  5
682
 10
33.9276
 20
-300.626
 30
0.000000
  70
    32
  0
VERTEX
  8
┌▓È_1
  5
683
 10
33.8533
 20
-300.546
 30
0.000000
  70
    32
  0
VERTEX
  8
┌▓È_1
  5
684
 10
33.7822
 20
-300.461
 30
0.000000
  70
    32
  0
VERTEX
  8
┌▓È_1
  5
685
 10
33.7145
 20
-300.372
 30
0.000000
  70
    32
  0
VERTEX
  8
┌▓È_1
  5
686
 10
33.6504
 20
-300.279
 30
0.000000
  70
    32
  0
VERTEX
  8
┌▓È_1
  5
687
 10
33.5900
 20
-300.183
 30
0.000000
  70
    32
  0
VERTEX
  8
┌▓È_1
  5
688
 10
33.5335
 20
-300.082
 30
0.000000
  70
    32
  0
VERTEX
  8
┌▓È_1
  5
689
 10
33.4810
 20
-299.979
 30
0.000000
  70
    32
  0
VERTEX
  8
┌▓È_1
  5
68A
 10
33.4326
 20
-299.872
 30
0.000000
  70
    32
  0
VERTEX
  8
┌▓È_1
  5
68B
 10
33.3884
 20
-299.762
 30
0.000000
  70
    32
  0
VERTEX
  8
┌▓È_1
  5
68C
 10
33.3487
 20
-299.650
 30
0.000000
  70
    32
  0
VERTEX
  8
┌▓È_1
  5
68D
 10
33.3133
 20
-299.536
 30
0.000000
  70
    32
  0
VERTEX
  8
┌▓È_1
  5
68E
 10
33.2825
 20
-299.419
 30
0.000000
  70
    32
  0
VERTEX
  8
┌▓È_1
  5
68F
 10
33.2564
 20
-299.301
 30
0.000000
  70
    32
  0
VERTEX
  8
┌▓È_1
  5
690
 10
33.2348
 20
-299.181
 30
0.000000
  70
    32
  0
VERTEX
  8
┌▓È_1
  5
691
 10
33.2181
 20
-299.060
 30
0.000000
  70
    32
  0
VERTEX
  8
┌▓È_1
  5
692
 10
33.2060
 20
-298.938
 30
0.000000
  70
    32
  0
VERTEX
  8
┌▓È_1
  5
693
 10
33.1988
 20
-298.816
 30
0.000000
  70
    32
  0
VERTEX
  8
┌▓È_1
  5
694
 10
33.1964
 20
-298.693
 30
0.000000
  70
    32
  0
VERTEX
  8
┌▓È_1
  5
695
 10
33.1988
 20
-298.571
 30
0.000000
  70
    32
  0
VERTEX
  8
┌▓È_1
  5
696
 10
33.2060
 20
-298.448
 30
0.000000
  70
    32
  0
VERTEX
  8
┌▓È_1
  5
697
 10
33.2181
 20
-298.327
 30
0.000000
  70
    32
  0
VERTEX
  8
┌▓È_1
  5
698
 10
33.2348
 20
-298.206
 30
0.000000
  70
    32
  0
VERTEX
  8
┌▓È_1
  5
699
 10
33.2564
 20
-298.086
 30
0.000000
  70
    32
  0
VERTEX
  8
┌▓È_1
  5
69A
 10
33.2825
 20
-297.968
 30
0.000000
  70
    32
  0
VERTEX
  8
┌▓È_1
  5
69B
 10
33.3133
 20
-297.851
 30
0.000000
  70
    32
  0
VERTEX
  8
┌▓È_1
  5
69C
 10
33.3487
 20
-297.737
 30
0.000000
  70
    32
  0
VERTEX
  8
┌▓È_1
  5
69D
 10
33.3884
 20
-297.624
 30
0.000000
  70
    32
  0
VERTEX
  8
┌▓È_1
  5
69E
 10
33.4326
 20
-297.515
 30
0.000000
  70
    32
  0
VERTEX
  8
┌▓È_1
  5
69F
 10
33.4810
 20
-297.408
 30
0.000000
  70
    32
  0
VERTEX
  8
┌▓È_1
  5
6A0
 10
33.5335
 20
-297.304
 30
0.000000
  70
    32
  0
VERTEX
  8
┌▓È_1
  5
6A1
 10
33.5900
 20
-297.204
 30
0.000000
  70
    32
  0
VERTEX
  8
┌▓È_1
  5
6A2
 10
33.6504
 20
-297.107
 30
0.000000
  70
    32
  0
VERTEX
  8
┌▓È_1
  5
6A3
 10
33.7145
 20
-297.014
 30
0.000000
  70
    32
  0
VERTEX
  8
┌▓È_1
  5
6A4
 10
33.7822
 20
-296.926
 30
0.000000
  70
    32
  0
VERTEX
  8
┌▓È_1
  5
6A5
 10
33.8533
 20
-296.841
 30
0.000000
  70
    32
  0
VERTEX
  8
┌▓È_1
  5
6A6
 10
33.9276
 20
-296.761
 30
0.000000
  70
    32
  0
VERTEX
  8
┌▓È_1
  5
6A7
 10
34.0050
 20
-296.685
 30
0.000000
  70
    32
  0
VERTEX
  8
┌▓È_1
  5
6A8
 10
34.0853
 20
-296.615
 30
0.000000
  70
    32
  0
VERTEX
  8
┌▓È_1
  5
6A9
 10
34.1682
 20
-296.549
 30
0.000000
  70
    32
  0
VERTEX
  8
┌▓È_1
  5
6AA
 10
34.2536
 20
-296.489
 30
0.000000
  70
    32
  0
VERTEX
  8
┌▓È_1
  5
6AB
 10
34.3413
 20
-296.433
 30
0.000000
  70
    32
  0
VERTEX
  8
┌▓È_1
  5
6AC
 10
34.4311
 20
-296.384
 30
0.000000
  70
    32
  0
VERTEX
  8
┌▓È_1
  5
6AD
 10
34.5226
 20
-296.339
 30
0.000000
  70
    32
  0
VERTEX
  8
┌▓È_1
  5
6AE
 10
34.6158
 20
-296.301
 30
0.000000
  70
    32
  0
VERTEX
  8
┌▓È_1
  5
6AF
 10
34.7105
 20
-296.268
 30
0.000000
  70
    32
  0
VERTEX
  8
┌▓È_1
  5
6B0
 10
34.8062
 20
-296.241
 30
0.000000
  70
    32
  0
VERTEX
  8
┌▓È_1
  5
6B1
 10
34.9030
 20
-296.220
 30
0.000000
  70
    32
  0
VERTEX
  8
┌▓È_1
  5
6B2
 10
35.0004
 20
-296.205
 30
0.000000
  70
    32
  0
VERTEX
  8
┌▓È_1
  5
6B3
 10
35.0983
 20
-296.196
 30
0.000000
  70
    32
  0
VERTEX
  8
┌▓È_1
  5
6B4
 10
35.1964
 20
-296.193
 30
0.000000
  70
    32
  0
VERTEX
  8
┌▓È_1
  5
6B5
 10
35.2946
 20
-296.196
 30
0.000000
  70
    32
  0
VERTEX
  8
┌▓È_1
  5
6B6
 10
35.3925
 20
-296.205
 30
0.000000
  70
    32
  0
VERTEX
  8
┌▓È_1
  5
6B7
 10
35.4899
 20
-296.220
 30
0.000000
  70
    32
  0
VERTEX
  8
┌▓È_1
  5
6B8
 10
35.5866
 20
-296.241
 30
0.000000
  70
    32
  0
VERTEX
  8
┌▓È_1
  5
6B9
 10
35.6824
 20
-296.268
 30
0.000000
  70
    32
  0
VERTEX
  8
┌▓È_1
  5
6BA
 10
35.7770
 20
-296.301
 30
0.000000
  70
    32
  0
VERTEX
  8
┌▓È_1
  5
6BB
 10
35.8702
 20
-296.339
 30
0.000000
  70
    32
  0
VERTEX
  8
┌▓È_1
  5
6BC
 10
35.9618
 20
-296.384
 30
0.000000
  70
    32
  0
VERTEX
  8
┌▓È_1
  5
6BD
 10
36.0515
 20
-296.433
 30
0.000000
  70
    32
  0
VERTEX
  8
┌▓È_1
  5
6BE
 10
36.1392
 20
-296.489
 30
0.000000
  70
    32
  0
VERTEX
  8
┌▓È_1
  5
6BF
 10
36.2246
 20
-296.549
 30
0.000000
  70
    32
  0
VERTEX
  8
┌▓È_1
  5
6C0
 10
36.3076
 20
-296.615
 30
0.000000
  70
    32
  0
VERTEX
  8
┌▓È_1
  5
6C1
 10
36.3878
 20
-296.685
 30
0.000000
  70
    32
  0
VERTEX
  8
┌▓È_1
  5
6C2
 10
36.4652
 20
-296.761
 30
0.000000
  70
    32
  0
VERTEX
  8
┌▓È_1
  5
6C3
 10
36.5395
 20
-296.841
 30
0.000000
  70
    32
  0
VERTEX
  8
┌▓È_1
  5
6C4
 10
36.6106
 20
-296.926
 30
0.000000
  70
    32
  0
VERTEX
  8
┌▓È_1
  5
6C5
 10
36.6783
 20
-297.014
 30
0.000000
  70
    32
  0
VERTEX
  8
┌▓È_1
  5
6C6
 10
36.7424
 20
-297.107
 30
0.000000
  70
    32
  0
VERTEX
  8
┌▓È_1
  5
6C7
 10
36.8028
 20
-297.204
 30
0.000000
  70
    32
  0
VERTEX
  8
┌▓È_1
  5
6C8
 10
36.8594
 20
-297.304
 30
0.000000
  70
    32
  0
VERTEX
  8
┌▓È_1
  5
6C9
 10
36.9119
 20
-297.408
 30
0.000000
  70
    32
  0
VERTEX
  8
┌▓È_1
  5
6CA
 10
36.9603
 20
-297.515
 30
0.000000
  70
    32
  0
VERTEX
  8
┌▓È_1
  5
6CB
 10
37.0044
 20
-297.624
 30
0.000000
  70
    32
  0
VERTEX
  8
┌▓È_1
  5
6CC
 10
37.0442
 20
-297.737
 30
0.000000
  70
    32
  0
VERTEX
  8
┌▓È_1
  5
6CD
 10
37.0795
 20
-297.851
 30
0.000000
  70
    32
  0
VERTEX
  8
┌▓È_1
  5
6CE
 10
37.1103
 20
-297.968
 30
0.000000
  70
    32
  0
VERTEX
  8
┌▓È_1
  5
6CF
 10
37.1365
 20
-298.086
 30
0.000000
  70
    32
  0
VERTEX
  8
┌▓È_1
  5
6D0
 10
37.1580
 20
-298.206
 30
0.000000
  70
    32
  0
VERTEX
  8
┌▓È_1
  5
6D1
 10
37.1748
 20
-298.327
 30
0.000000
  70
    32
  0
VERTEX
  8
┌▓È_1
  5
6D2
 10
37.1868
 20
-298.448
 30
0.000000
  70
    32
  0
VERTEX
  8
┌▓È_1
  5
6D3
 10
37.1940
 20
-298.571
 30
0.000000
  70
    32
  0
VERTEX
  8
┌▓È_1
  5
6D4
 10
37.1964
 20
-298.693
 30
0.000000
  70
    32
  0
SEQEND
  8
┌▓È_1
  5
6D5
  0
LINE
  5
201
  8
┌▓È_1
 62
     5
 10
-100.0535809517
 20
-301.89335937499999
 30
0.0
 11
-100.0535809517
 21
-298.89335937499999
 31
0.0
  0
ARC
  5
202
  8
┌▓È_1
 62
     5
 10
-108.5535809517
 20
-298.89335937499999
 30
0.0
 40
1.0
 50
90.0
 51
180.0
  0
LINE
  5
203
  8
┌▓È_1
 62
     5
 10
-109.5535809517
 20
-298.89335937499999
 30
0.0
 11
-109.5535809517
 21
-301.89335937499999
 31
0.0
  0
LINE
  5
204
  8
┌▓È_1
 62
     5
 10
-109.5535809517
 20
-301.89335937499999
 30
0.0
 11
-100.0535809517
 21
-301.89335937499999
 31
0.0
  0
ARC
  5
205
  8
┌▓È_1
 62
     5
 10
-101.0535809517
 20
-298.89335937499999
 30
0.0
 40
1.0
 50
0.0
 51
90.0
  0
LINE
  5
206
  8
┌▓È_1
 62
     5
 10
-254.80358095170001
 20
80.535156250000014
 30
0.0
 11
-259.8298685213
 21
75.508868680299997
 31
0.0
  0
LINE
  5
207
  8
┌▓È_1
 62
     5
 10
-259.8298685213
 20
75.508868680299997
 30
0.0
 11
-254.80358095170001
 21
75.508868680299997
 31
0.0
  0
LINE
  5
208
  8
┌▓È_1
 62
     5
 10
-244.80358095170001
 20
80.535156250000014
 30
0.0
 11
-239.8298685213
 21
85.508868680299997
 31
0.0
  0
LINE
  5
209
  8
┌▓È_1
 62
     5
 10
-239.8298685213
 20
85.508868680299997
 30
0.0
 11
-244.80358095170001
 21
85.508868680299997
 31
0.0
  0
LINE
  5
20A
  8
┌▓È_1
 62
     5
 10
-254.80358095170001
 20
202.42539062500001
 30
0.0
 11
-254.80358095170001
 21
85.508868680299997
 31
0.0
  0
LINE
  5
20B
  8
┌▓È_1
 62
     5
 10
-244.80358095170001
 20
202.42539062500001
 30
0.0
 11
-244.80358095170001
 21
85.508868680299997
 31
0.0
  0
LINE
  5
20C
  8
┌▓È_1
 62
     5
 10
-254.80358095170001
 20
80.535156250000014
 30
0.0
 11
-249.8298685213
 21
85.508868680299997
 31
0.0
  0
LINE
  5
20D
  8
┌▓È_1
 62
     5
 10
-254.80358095170001
 20
85.508868680299997
 30
0.0
 11
-249.8298685213
 21
85.508868680299997
 31
0.0
  0
LINE
  5
20E
  8
┌▓È_1
 62
     5
 10
-244.80358095170001
 20
80.535156250000014
 30
0.0
 11
-249.8298685213
 21
75.508868680299997
 31
0.0
  0
LINE
  5
20F
  8
┌▓È_1
 62
     5
 10
-244.80358095170001
 20
75.508868680299997
 30
0.0
 11
-249.8298685213
 21
75.508868680299997
 31
0.0
  0
LINE
  5
210
  8
┌▓È_1
 62
     5
 10
-244.80358095170001
 20
75.508868680299997
 30
0.0
 11
-244.80358095170001
 21
-41.355078124999999
 31
0.0
  0
LINE
  5
211
  8
┌▓È_1
 62
     5
 10
-254.80358095170001
 20
75.508868680299997
 30
0.0
 11
-254.80358095170001
 21
-41.355078124999999
 31
0.0
  0
DIMENSION
  5
220
  8
Éíû@É³
 62
     5
  2
*D6
 10
-436.55358095169993
 20
197.06972679379999
 30
0.0
 11
-436.55358095169993
 21
81.069726793800001
 31
0.0
 70
   128
  1
<>
 13
-404.80358095169993
 23
197.06972679379999
 33
0.0
 14
-406.55358095169993
 24
-34.930273206199999
 34
0.0
 50
90.0
  0
LINE
  5
221
  8
┌▓È_1
  6
BORDER
 62
     5
 10
-394.80358095169998
 20
201.29233964100001
 30
0.0
 11
-394.80358095169998
 21
189.26076069370001
 31
0.0
  0
LINE
  5
222
  8
┌▓È_1
 62
     5
 10
-383.15358095170001
 20
-290.09335937499998
 30
0.0
 11
-383.15358095170001
 21
-303.09335937499998
 31
0.0
  0
LINE
  5
223
  8
┌▓È_1
  6
BORDER
 62
     5
 10
-394.80358095169998
 20
-195.84518229170001
 30
0.0
 11
-394.80358095169998
 21
-330.42714843750002
 31
0.0
  0
LINE
  5
224
  8
┌▓È_1
 62
     5
 10
-405.25358095169992
 20
-303.09335937499998
 30
0.0
 11
-405.25358095169992
 21
-290.09335937499998
 31
0.0
  0
LINE
  5
225
  8
┌▓È_1
 62
     5
 10
-406.45358095169991
 20
-303.09335937499998
 30
0.0
 11
-405.25358095169992
 21
-303.09335937499998
 31
0.0
  0
ARC
  5
226
  8
┌▓È_1
 62
     5
 10
-404.45358095169991
 20
-290.09335937499998
 30
0.0
 40
0.8
 50
115.9444797724
 51
180.0
  0
ARC
  5
227
  8
┌▓È_1
 62
     5
 10
-404.55358095169998
 20
-289.943359375
 30
0.0
 40
2.5
 50
95.739170477300007
 51
180.0
  0
ARC
  5
228
  8
┌▓È_1
 62
     5
 10
-385.15358095170001
 20
-290.09335937499998
 30
0.0
 40
0.8
 50
0.0
 51
64.055520227599999
  0
CIRCLE
  5
229
  8
┌▓È_1
 62
     5
 10
-394.80358095169998
 20
-211.89335937499999
 30
0.0
 40
2.25
  0
ARC
  5
22A
  8
┌▓È_1
 62
     5
 10
-404.45358095169991
 20
-290.09335937499998
 30
0.0
 40
2.0
 50
100.0786581078
 51
180.0
  0
ARC
  5
22B
  8
┌▓È_1
 62
     5
 10
-385.15358095170001
 20
-290.09335937499998
 30
0.0
 40
2.0
 50
0.0
 51
79.921341892200005
  0
LINE
  5
22C
  8
┌▓È_1
 62
     5
 10
-407.05358095169993
 20
-289.943359375
 30
0.0
 11
-407.05358095169993
 21
-303.49335937500001
 31
0.0
  0
LINE
  5
22D
  8
┌▓È_1
 62
     5
 10
-406.45358095169991
 20
-303.49335937500001
 30
0.0
 11
-406.45358095169991
 21
-289.943359375
 31
0.0
  0
LINE
  5
22E
  8
┌▓È_1
 62
     5
 10
-384.3535809517
 20
-303.09335937499998
 30
0.0
 11
-384.3535809517
 21
-290.09335937499998
 31
0.0
  0
LINE
  5
22F
  8
┌▓È_1
 62
     5
 10
-389.66012898410008
 20
-313.89335937499999
 30
0.0
 11
-400.3548658261999
 21
-313.89335937499999
 31
0.0
  0
LINE
  5
230
  8
┌▓È_1
 62
     5
 10
-384.80358095169998
 20
-323.89335937499999
 30
0.0
 11
-384.80358095169998
 21
-201.89335937499999
 31
0.0
  0
LINE
  5
231
  8
┌▓È_1
 62
     5
 10
-383.15358095170001
 20
-303.09335937499998
 30
0.0
 11
-384.3535809517
 21
-303.09335937499998
 31
0.0
  0
ARC
  5
232
  8
┌▓È_1
 62
     5
 10
-406.05358095169993
 20
-303.49335937500001
 30
0.0
 40
0.4
 50
180.0
 51
270.0
  0
ARC
  5
233
  8
┌▓È_1
 62
     5
 10
-406.05358095169993
 20
-303.49335937500001
 30
0.0
 40
1.0
 50
180.0
 51
270.0
  0
POLYLINE
  5
234
  8
┌▓È_1
 62
     5
 10
43.196419048300001
 20
-293.693359375
 30
0.0
 66
     1
 70
     8
  0
VERTEX
  8
┌▓È_1
  5
6D6
 10
43.1964
 20
-293.693
 30
0.000000
  70
    32
  0
VERTEX
  8
┌▓È_1
  5
6D7
 10
43.1988
 20
-293.816
 30
0.000000
  70
    32
  0
VERTEX
  8
┌▓È_1
  5
6D8
 10
43.2060
 20
-293.938
 30
0.000000
  70
    32
  0
VERTEX
  8
┌▓È_1
  5
6D9
 10
43.2181
 20
-294.060
 30
0.000000
  70
    32
  0
VERTEX
  8
┌▓È_1
  5
6DA
 10
43.2348
 20
-294.181
 30
0.000000
  70
    32
  0
VERTEX
  8
┌▓È_1
  5
6DB
 10
43.2564
 20
-294.301
 30
0.000000
  70
    32
  0
VERTEX
  8
┌▓È_1
  5
6DC
 10
43.2825
 20
-294.419
 30
0.000000
  70
    32
  0
VERTEX
  8
┌▓È_1
  5
6DD
 10
43.3133
 20
-294.536
 30
0.000000
  70
    32
  0
VERTEX
  8
┌▓È_1
  5
6DE
 10
43.3487
 20
-294.650
 30
0.000000
  70
    32
  0
VERTEX
  8
┌▓È_1
  5
6DF
 10
43.3884
 20
-294.762
 30
0.000000
  70
    32
  0
VERTEX
  8
┌▓È_1
  5
6E0
 10
43.4326
 20
-294.872
 30
0.000000
  70
    32
  0
VERTEX
  8
┌▓È_1
  5
6E1
 10
43.4810
 20
-294.979
 30
0.000000
  70
    32
  0
VERTEX
  8
┌▓È_1
  5
6E2
 10
43.5335
 20
-295.082
 30
0.000000
  70
    32
  0
VERTEX
  8
┌▓È_1
  5
6E3
 10
43.5900
 20
-295.183
 30
0.000000
  70
    32
  0
VERTEX
  8
┌▓È_1
  5
6E4
 10
43.6504
 20
-295.279
 30
0.000000
  70
    32
  0
VERTEX
  8
┌▓È_1
  5
6E5
 10
43.7145
 20
-295.372
 30
0.000000
  70
    32
  0
VERTEX
  8
┌▓È_1
  5
6E6
 10
43.7822
 20
-295.461
 30
0.000000
  70
    32
  0
VERTEX
  8
┌▓È_1
  5
6E7
 10
43.8533
 20
-295.546
 30
0.000000
  70
    32
  0
VERTEX
  8
┌▓È_1
  5
6E8
 10
43.9276
 20
-295.626
 30
0.000000
  70
    32
  0
VERTEX
  8
┌▓È_1
  5
6E9
 10
44.0050
 20
-295.701
 30
0.000000
  70
    32
  0
VERTEX
  8
┌▓È_1
  5
6EA
 10
44.0853
 20
-295.772
 30
0.000000
  70
    32
  0
VERTEX
  8
┌▓È_1
  5
6EB
 10
44.1682
 20
-295.838
 30
0.000000
  70
    32
  0
VERTEX
  8
┌▓È_1
  5
6EC
 10
44.2536
 20
-295.898
 30
0.000000
  70
    32
  0
VERTEX
  8
┌▓È_1
  5
6ED
 10
44.3413
 20
-295.953
 30
0.000000
  70
    32
  0
VERTEX
  8
┌▓È_1
  5
6EE
 10
44.4311
 20
-296.003
 30
0.000000
  70
    32
  0
VERTEX
  8
┌▓È_1
  5
6EF
 10
44.5226
 20
-296.047
 30
0.000000
  70
    32
  0
VERTEX
  8
┌▓È_1
  5
6F0
 10
44.6158
 20
-296.086
 30
0.000000
  70
    32
  0
VERTEX
  8
┌▓È_1
  5
6F1
 10
44.7105
 20
-296.118
 30
0.000000
  70
    32
  0
VERTEX
  8
┌▓È_1
  5
6F2
 10
44.8062
 20
-296.145
 30
0.000000
  70
    32
  0
VERTEX
  8
┌▓È_1
  5
6F3
 10
44.9030
 20
-296.166
 30
0.000000
  70
    32
  0
VERTEX
  8
┌▓È_1
  5
6F4
 10
45.0004
 20
-296.181
 30
0.000000
  70
    32
  0
VERTEX
  8
┌▓È_1
  5
6F5
 10
45.0983
 20
-296.190
 30
0.000000
  70
    32
  0
VERTEX
  8
┌▓È_1
  5
6F6
 10
45.1964
 20
-296.193
 30
0.000000
  70
    32
  0
VERTEX
  8
┌▓È_1
  5
6F7
 10
45.2946
 20
-296.190
 30
0.000000
  70
    32
  0
VERTEX
  8
┌▓È_1
  5
6F8
 10
45.3925
 20
-296.181
 30
0.000000
  70
    32
  0
VERTEX
  8
┌▓È_1
  5
6F9
 10
45.4899
 20
-296.166
 30
0.000000
  70
    32
  0
VERTEX
  8
┌▓È_1
  5
6FA
 10
45.5866
 20
-296.145
 30
0.000000
  70
    32
  0
VERTEX
  8
┌▓È_1
  5
6FB
 10
45.6824
 20
-296.118
 30
0.000000
  70
    32
  0
VERTEX
  8
┌▓È_1
  5
6FC
 10
45.7770
 20
-296.086
 30
0.000000
  70
    32
  0
VERTEX
  8
┌▓È_1
  5
6FD
 10
45.8702
 20
-296.047
 30
0.000000
  70
    32
  0
VERTEX
  8
┌▓È_1
  5
6FE
 10
45.9618
 20
-296.003
 30
0.000000
  70
    32
  0
VERTEX
  8
┌▓È_1
  5
6FF
 10
46.0515
 20
-295.953
 30
0.000000
  70
    32
  0
VERTEX
  8
┌▓È_1
  5
700
 10
46.1392
 20
-295.898
 30
0.000000
  70
    32
  0
VERTEX
  8
┌▓È_1
  5
701
 10
46.2246
 20
-295.838
 30
0.000000
  70
    32
  0
VERTEX
  8
┌▓È_1
  5
702
 10
46.3076
 20
-295.772
 30
0.000000
  70
    32
  0
VERTEX
  8
┌▓È_1
  5
703
 10
46.3878
 20
-295.701
 30
0.000000
  70
    32
  0
VERTEX
  8
┌▓È_1
  5
704
 10
46.4652
 20
-295.626
 30
0.000000
  70
    32
  0
VERTEX
  8
┌▓È_1
  5
705
 10
46.5395
 20
-295.546
 30
0.000000
  70
    32
  0
VERTEX
  8
┌▓È_1
  5
706
 10
46.6106
 20
-295.461
 30
0.000000
  70
    32
  0
VERTEX
  8
┌▓È_1
  5
707
 10
46.6783
 20
-295.372
 30
0.000000
  70
    32
  0
VERTEX
  8
┌▓È_1
  5
708
 10
46.7424
 20
-295.279
 30
0.000000
  70
    32
  0
VERTEX
  8
┌▓È_1
  5
709
 10
46.8028
 20
-295.183
 30
0.000000
  70
    32
  0
VERTEX
  8
┌▓È_1
  5
70A
 10
46.8594
 20
-295.082
 30
0.000000
  70
    32
  0
VERTEX
  8
┌▓È_1
  5
70B
 10
46.9119
 20
-294.979
 30
0.000000
  70
    32
  0
VERTEX
  8
┌▓È_1
  5
70C
 10
46.9603
 20
-294.872
 30
0.000000
  70
    32
  0
VERTEX
  8
┌▓È_1
  5
70D
 10
47.0044
 20
-294.762
 30
0.000000
  70
    32
  0
VERTEX
  8
┌▓È_1
  5
70E
 10
47.0442
 20
-294.650
 30
0.000000
  70
    32
  0
VERTEX
  8
┌▓È_1
  5
70F
 10
47.0795
 20
-294.536
 30
0.000000
  70
    32
  0
VERTEX
  8
┌▓È_1
  5
710
 10
47.1103
 20
-294.419
 30
0.000000
  70
    32
  0
VERTEX
  8
┌▓È_1
  5
711
 10
47.1365
 20
-294.301
 30
0.000000
  70
    32
  0
VERTEX
  8
┌▓È_1
  5
712
 10
47.1580
 20
-294.181
 30
0.000000
  70
    32
  0
VERTEX
  8
┌▓È_1
  5
713
 10
47.1748
 20
-294.060
 30
0.000000
  70
    32
  0
VERTEX
  8
┌▓È_1
  5
714
 10
47.1868
 20
-293.938
 30
0.000000
  70
    32
  0
VERTEX
  8
┌▓È_1
  5
715
 10
47.1940
 20
-293.816
 30
0.000000
  70
    32
  0
VERTEX
  8
┌▓È_1
  5
716
 10
47.1964
 20
-293.693
 30
0.000000
  70
    32
  0
VERTEX
  8
┌▓È_1
  5
717
 10
47.1940
 20
-293.571
 30
0.000000
  70
    32
  0
VERTEX
  8
┌▓È_1
  5
718
 10
47.1868
 20
-293.448
 30
0.000000
  70
    32
  0
VERTEX
  8
┌▓È_1
  5
719
 10
47.1748
 20
-293.327
 30
0.000000
  70
    32
  0
VERTEX
  8
┌▓È_1
  5
71A
 10
47.1580
 20
-293.206
 30
0.000000
  70
    32
  0
VERTEX
  8
┌▓È_1
  5
71B
 10
47.1365
 20
-293.086
 30
0.000000
  70
    32
  0
VERTEX
  8
┌▓È_1
  5
71C
 10
47.1103
 20
-292.968
 30
0.000000
  70
    32
  0
VERTEX
  8
┌▓È_1
  5
71D
 10
47.0795
 20
-292.851
 30
0.000000
  70
    32
  0
VERTEX
  8
┌▓È_1
  5
71E
 10
47.0442
 20
-292.737
 30
0.000000
  70
    32
  0
VERTEX
  8
┌▓È_1
  5
71F
 10
47.0044
 20
-292.624
 30
0.000000
  70
    32
  0
VERTEX
  8
┌▓È_1
  5
720
 10
46.9603
 20
-292.515
 30
0.000000
  70
    32
  0
VERTEX
  8
┌▓È_1
  5
721
 10
46.9119
 20
-292.408
 30
0.000000
  70
    32
  0
VERTEX
  8
┌▓È_1
  5
722
 10
46.8594
 20
-292.304
 30
0.000000
  70
    32
  0
VERTEX
  8
┌▓È_1
  5
723
 10
46.8028
 20
-292.204
 30
0.000000
  70
    32
  0
VERTEX
  8
┌▓È_1
  5
724
 10
46.7424
 20
-292.107
 30
0.000000
  70
    32
  0
VERTEX
  8
┌▓È_1
  5
725
 10
46.6783
 20
-292.014
 30
0.000000
  70
    32
  0
VERTEX
  8
┌▓È_1
  5
726
 10
46.6106
 20
-291.926
 30
0.000000
  70
    32
  0
VERTEX
  8
┌▓È_1
  5
727
 10
46.5395
 20
-291.841
 30
0.000000
  70
    32
  0
VERTEX
  8
┌▓È_1
  5
728
 10
46.4652
 20
-291.761
 30
0.000000
  70
    32
  0
VERTEX
  8
┌▓È_1
  5
729
 10
46.3878
 20
-291.685
 30
0.000000
  70
    32
  0
VERTEX
  8
┌▓È_1
  5
72A
 10
46.3076
 20
-291.615
 30
0.000000
  70
    32
  0
VERTEX
  8
┌▓È_1
  5
72B
 10
46.2246
 20
-291.549
 30
0.000000
  70
    32
  0
VERTEX
  8
┌▓È_1
  5
72C
 10
46.1392
 20
-291.489
 30
0.000000
  70
    32
  0
VERTEX
  8
┌▓È_1
  5
72D
 10
46.0515
 20
-291.433
 30
0.000000
  70
    32
  0
VERTEX
  8
┌▓È_1
  5
72E
 10
45.9618
 20
-291.384
 30
0.000000
  70
    32
  0
VERTEX
  8
┌▓È_1
  5
72F
 10
45.8702
 20
-291.339
 30
0.000000
  70
    32
  0
VERTEX
  8
┌▓È_1
  5
730
 10
45.7770
 20
-291.301
 30
0.000000
  70
    32
  0
VERTEX
  8
┌▓È_1
  5
731
 10
45.6824
 20
-291.268
 30
0.000000
  70
    32
  0
VERTEX
  8
┌▓È_1
  5
732
 10
45.5866
 20
-291.241
 30
0.000000
  70
    32
  0
VERTEX
  8
┌▓È_1
  5
733
 10
45.4899
 20
-291.220
 30
0.000000
  70
    32
  0
VERTEX
  8
┌▓È_1
  5
734
 10
45.3925
 20
-291.205
 30
0.000000
  70
    32
  0
VERTEX
  8
┌▓È_1
  5
735
 10
45.2946
 20
-291.196
 30
0.000000
  70
    32
  0
VERTEX
  8
┌▓È_1
  5
736
 10
45.1964
 20
-291.193
 30
0.000000
  70
    32
  0
VERTEX
  8
┌▓È_1
  5
737
 10
45.0983
 20
-291.196
 30
0.000000
  70
    32
  0
VERTEX
  8
┌▓È_1
  5
738
 10
45.0004
 20
-291.205
 30
0.000000
  70
    32
  0
VERTEX
  8
┌▓È_1
  5
739
 10
44.9030
 20
-291.220
 30
0.000000
  70
    32
  0
VERTEX
  8
┌▓È_1
  5
73A
 10
44.8062
 20
-291.241
 30
0.000000
  70
    32
  0
VERTEX
  8
┌▓È_1
  5
73B
 10
44.7105
 20
-291.268
 30
0.000000
  70
    32
  0
VERTEX
  8
┌▓È_1
  5
73C
 10
44.6158
 20
-291.301
 30
0.000000
  70
    32
  0
VERTEX
  8
┌▓È_1
  5
73D
 10
44.5226
 20
-291.339
 30
0.000000
  70
    32
  0
VERTEX
  8
┌▓È_1
  5
73E
 10
44.4311
 20
-291.384
 30
0.000000
  70
    32
  0
VERTEX
  8
┌▓È_1
  5
73F
 10
44.3413
 20
-291.433
 30
0.000000
  70
    32
  0
VERTEX
  8
┌▓È_1
  5
740
 10
44.2536
 20
-291.489
 30
0.000000
  70
    32
  0
VERTEX
  8
┌▓È_1
  5
741
 10
44.1682
 20
-291.549
 30
0.000000
  70
    32
  0
VERTEX
  8
┌▓È_1
  5
742
 10
44.0853
 20
-291.615
 30
0.000000
  70
    32
  0
VERTEX
  8
┌▓È_1
  5
743
 10
44.0050
 20
-291.685
 30
0.000000
  70
    32
  0
VERTEX
  8
┌▓È_1
  5
744
 10
43.9276
 20
-291.761
 30
0.000000
  70
    32
  0
VERTEX
  8
┌▓È_1
  5
745
 10
43.8533
 20
-291.841
 30
0.000000
  70
    32
  0
VERTEX
  8
┌▓È_1
  5
746
 10
43.7822
 20
-291.926
 30
0.000000
  70
    32
  0
VERTEX
  8
┌▓È_1
  5
747
 10
43.7145
 20
-292.014
 30
0.000000
  70
    32
  0
VERTEX
  8
┌▓È_1
  5
748
 10
43.6504
 20
-292.107
 30
0.000000
  70
    32
  0
VERTEX
  8
┌▓È_1
  5
749
 10
43.5900
 20
-292.204
 30
0.000000
  70
    32
  0
VERTEX
  8
┌▓È_1
  5
74A
 10
43.5335
 20
-292.304
 30
0.000000
  70
    32
  0
VERTEX
  8
┌▓È_1
  5
74B
 10
43.4810
 20
-292.408
 30
0.000000
  70
    32
  0
VERTEX
  8
┌▓È_1
  5
74C
 10
43.4326
 20
-292.515
 30
0.000000
  70
    32
  0
VERTEX
  8
┌▓È_1
  5
74D
 10
43.3884
 20
-292.624
 30
0.000000
  70
    32
  0
VERTEX
  8
┌▓È_1
  5
74E
 10
43.3487
 20
-292.737
 30
0.000000
  70
    32
  0
VERTEX
  8
┌▓È_1
  5
74F
 10
43.3133
 20
-292.851
 30
0.000000
  70
    32
  0
VERTEX
  8
┌▓È_1
  5
750
 10
43.2825
 20
-292.968
 30
0.000000
  70
    32
  0
VERTEX
  8
┌▓È_1
  5
751
 10
43.2564
 20
-293.086
 30
0.000000
  70
    32
  0
VERTEX
  8
┌▓È_1
  5
752
 10
43.2348
 20
-293.206
 30
0.000000
  70
    32
  0
VERTEX
  8
┌▓È_1
  5
753
 10
43.2181
 20
-293.327
 30
0.000000
  70
    32
  0
VERTEX
  8
┌▓È_1
  5
754
 10
43.2060
 20
-293.448
 30
0.000000
  70
    32
  0
VERTEX
  8
┌▓È_1
  5
755
 10
43.1988
 20
-293.571
 30
0.000000
  70
    32
  0
VERTEX
  8
┌▓È_1
  5
756
 10
43.1964
 20
-293.693
 30
0.000000
  70
    32
  0
SEQEND
  8
┌▓È_1
  5
757
  0
POLYLINE
  5
235
  8
┌▓È_1
 62
     5
 10
35.196419048300008
 20
-296.193359375
 30
0.0
 66
     1
 70
     8
  0
VERTEX
  8
┌▓È_1
  5
758
 10
35.1964
 20
-296.193
 30
0.000000
  70
    32
  0
VERTEX
  8
┌▓È_1
  5
759
 10
35.2455
 20
-296.193
 30
0.000000
  70
    32
  0
VERTEX
  8
┌▓È_1
  5
75A
 10
35.2946
 20
-296.190
 30
0.000000
  70
    32
  0
VERTEX
  8
┌▓È_1
  5
75B
 10
35.3435
 20
-296.187
 30
0.000000
  70
    32
  0
VERTEX
  8
┌▓È_1
  5
75C
 10
35.3925
 20
-296.181
 30
0.000000
  70
    32
  0
VERTEX
  8
┌▓È_1
  5
75D
 10
35.4412
 20
-296.175
 30
0.000000
  70
    32
  0
VERTEX
  8
┌▓È_1
  5
75E
 10
35.4899
 20
-296.166
 30
0.000000
  70
    32
  0
VERTEX
  8
┌▓È_1
  5
75F
 10
35.5383
 20
-296.157
 30
0.000000
  70
    32
  0
VERTEX
  8
┌▓È_1
  5
760
 10
35.5866
 20
-296.145
 30
0.000000
  70
    32
  0
VERTEX
  8
┌▓È_1
  5
761
 10
35.6346
 20
-296.133
 30
0.000000
  70
    32
  0
VERTEX
  8
┌▓È_1
  5
762
 10
35.6824
 20
-296.118
 30
0.000000
  70
    32
  0
VERTEX
  8
┌▓È_1
  5
763
 10
35.7298
 20
-296.103
 30
0.000000
  70
    32
  0
VERTEX
  8
┌▓È_1
  5
764
 10
35.7770
 20
-296.086
 30
0.000000
  70
    32
  0
VERTEX
  8
┌▓È_1
  5
765
 10
35.8238
 20
-296.067
 30
0.000000
  70
    32
  0
VERTEX
  8
┌▓È_1
  5
766
 10
35.8702
 20
-296.047
 30
0.000000
  70
    32
  0
VERTEX
  8
┌▓È_1
  5
767
 10
35.9162
 20
-296.026
 30
0.000000
  70
    32
  0
VERTEX
  8
┌▓È_1
  5
768
 10
35.9618
 20
-296.003
 30
0.000000
  70
    32
  0
VERTEX
  8
┌▓È_1
  5
769
 10
36.0069
 20
-295.979
 30
0.000000
  70
    32
  0
VERTEX
  8
┌▓È_1
  5
76A
 10
36.0515
 20
-295.953
 30
0.000000
  70
    32
  0
VERTEX
  8
┌▓È_1
  5
76B
 10
36.0956
 20
-295.926
 30
0.000000
  70
    32
  0
VERTEX
  8
┌▓È_1
  5
76C
 10
36.1392
 20
-295.898
 30
0.000000
  70
    32
  0
VERTEX
  8
┌▓È_1
  5
76D
 10
36.1822
 20
-295.869
 30
0.000000
  70
    32
  0
VERTEX
  8
┌▓È_1
  5
76E
 10
36.2246
 20
-295.838
 30
0.000000
  70
    32
  0
VERTEX
  8
┌▓È_1
  5
76F
 10
36.2664
 20
-295.805
 30
0.000000
  70
    32
  0
VERTEX
  8
┌▓È_1
  5
770
 10
36.3076
 20
-295.772
 30
0.000000
  70
    32
  0
VERTEX
  8
┌▓È_1
  5
771
 10
36.3480
 20
-295.737
 30
0.000000
  70
    32
  0
VERTEX
  8
┌▓È_1
  5
772
 10
36.3878
 20
-295.701
 30
0.000000
  70
    32
  0
VERTEX
  8
┌▓È_1
  5
773
 10
36.4269
 20
-295.664
 30
0.000000
  70
    32
  0
VERTEX
  8
┌▓È_1
  5
774
 10
36.4652
 20
-295.626
 30
0.000000
  70
    32
  0
VERTEX
  8
┌▓È_1
  5
775
 10
36.5028
 20
-295.586
 30
0.000000
  70
    32
  0
VERTEX
  8
┌▓È_1
  5
776
 10
36.5395
 20
-295.546
 30
0.000000
  70
    32
  0
VERTEX
  8
┌▓È_1
  5
777
 10
36.5755
 20
-295.504
 30
0.000000
  70
    32
  0
VERTEX
  8
┌▓È_1
  5
778
 10
36.6106
 20
-295.461
 30
0.000000
  70
    32
  0
VERTEX
  8
┌▓È_1
  5
779
 10
36.6449
 20
-295.417
 30
0.000000
  70
    32
  0
VERTEX
  8
┌▓È_1
  5
77A
 10
36.6783
 20
-295.372
 30
0.000000
  70
    32
  0
VERTEX
  8
┌▓È_1
  5
77B
 10
36.7108
 20
-295.326
 30
0.000000
  70
    32
  0
VERTEX
  8
┌▓È_1
  5
77C
 10
36.7424
 20
-295.279
 30
0.000000
  70
    32
  0
VERTEX
  8
┌▓È_1
  5
77D
 10
36.7731
 20
-295.231
 30
0.000000
  70
    32
  0
VERTEX
  8
┌▓È_1
  5
77E
 10
36.8028
 20
-295.183
 30
0.000000
  70
    32
  0
VERTEX
  8
┌▓È_1
  5
77F
 10
36.8316
 20
-295.133
 30
0.000000
  70
    32
  0
VERTEX
  8
┌▓È_1
  5
780
 10
36.8594
 20
-295.082
 30
0.000000
  70
    32
  0
VERTEX
  8
┌▓È_1
  5
781
 10
36.8861
 20
-295.031
 30
0.000000
  70
    32
  0
VERTEX
  8
┌▓È_1
  5
782
 10
36.9119
 20
-294.979
 30
0.000000
  70
    32
  0
VERTEX
  8
┌▓È_1
  5
783
 10
36.9366
 20
-294.926
 30
0.000000
  70
    32
  0
VERTEX
  8
┌▓È_1
  5
784
 10
36.9603
 20
-294.872
 30
0.000000
  70
    32
  0
VERTEX
  8
┌▓È_1
  5
785
 10
36.9829
 20
-294.817
 30
0.000000
  70
    32
  0
VERTEX
  8
┌▓È_1
  5
786
 10
37.0044
 20
-294.762
 30
0.000000
  70
    32
  0
VERTEX
  8
┌▓È_1
  5
787
 10
37.0248
 20
-294.706
 30
0.000000
  70
    32
  0
VERTEX
  8
┌▓È_1
  5
788
 10
37.0442
 20
-294.650
 30
0.000000
  70
    32
  0
VERTEX
  8
┌▓È_1
  5
789
 10
37.0624
 20
-294.593
 30
0.000000
  70
    32
  0
VERTEX
  8
┌▓È_1
  5
78A
 10
37.0795
 20
-294.536
 30
0.000000
  70
    32
  0
VERTEX
  8
┌▓È_1
  5
78B
 10
37.0955
 20
-294.478
 30
0.000000
  70
    32
  0
VERTEX
  8
┌▓È_1
  5
78C
 10
37.1103
 20
-294.419
 30
0.000000
  70
    32
  0
VERTEX
  8
┌▓È_1
  5
78D
 10
37.1240
 20
-294.360
 30
0.000000
  70
    32
  0
VERTEX
  8
┌▓È_1
  5
78E
 10
37.1365
 20
-294.301
 30
0.000000
  70
    32
  0
VERTEX
  8
┌▓È_1
  5
78F
 10
37.1478
 20
-294.241
 30
0.000000
  70
    32
  0
VERTEX
  8
┌▓È_1
  5
790
 10
37.1580
 20
-294.181
 30
0.000000
  70
    32
  0
VERTEX
  8
┌▓È_1
  5
791
 10
37.1670
 20
-294.121
 30
0.000000
  70
    32
  0
VERTEX
  8
┌▓È_1
  5
792
 10
37.1748
 20
-294.060
 30
0.000000
  70
    32
  0
VERTEX
  8
┌▓È_1
  5
793
 10
37.1814
 20
-293.999
 30
0.000000
  70
    32
  0
VERTEX
  8
┌▓È_1
  5
794
 10
37.1868
 20
-293.938
 30
0.000000
  70
    32
  0
VERTEX
  8
┌▓È_1
  5
795
 10
37.1910
 20
-293.877
 30
0.000000
  70
    32
  0
VERTEX
  8
┌▓È_1
  5
796
 10
37.1940
 20
-293.816
 30
0.000000
  70
    32
  0
VERTEX
  8
┌▓È_1
  5
797
 10
37.1958
 20
-293.755
 30
0.000000
  70
    32
  0
VERTEX
  8
┌▓È_1
  5
798
 10
37.1964
 20
-293.693
 30
0.000000
  70
    32
  0
VERTEX
  8
┌▓È_1
  5
799
 10
37.1958
 20
-293.632
 30
0.000000
  70
    32
  0
VERTEX
  8
┌▓È_1
  5
79A
 10
37.1940
 20
-293.571
 30
0.000000
  70
    32
  0
VERTEX
  8
┌▓È_1
  5
79B
 10
37.1910
 20
-293.509
 30
0.000000
  70
    32
  0
VERTEX
  8
┌▓È_1
  5
79C
 10
37.1868
 20
-293.448
 30
0.000000
  70
    32
  0
VERTEX
  8
┌▓È_1
  5
79D
 10
37.1814
 20
-293.387
 30
0.000000
  70
    32
  0
VERTEX
  8
┌▓È_1
  5
79E
 10
37.1748
 20
-293.327
 30
0.000000
  70
    32
  0
VERTEX
  8
┌▓È_1
  5
79F
 10
37.1670
 20
-293.266
 30
0.000000
  70
    32
  0
VERTEX
  8
┌▓È_1
  5
7A0
 10
37.1580
 20
-293.206
 30
0.000000
  70
    32
  0
VERTEX
  8
┌▓È_1
  5
7A1
 10
37.1478
 20
-293.146
 30
0.000000
  70
    32
  0
VERTEX
  8
┌▓È_1
  5
7A2
 10
37.1365
 20
-293.086
 30
0.000000
  70
    32
  0
VERTEX
  8
┌▓È_1
  5
7A3
 10
37.1240
 20
-293.027
 30
0.000000
  70
    32
  0
VERTEX
  8
┌▓È_1
  5
7A4
 10
37.1103
 20
-292.968
 30
0.000000
  70
    32
  0
VERTEX
  8
┌▓È_1
  5
7A5
 10
37.0955
 20
-292.909
 30
0.000000
  70
    32
  0
VERTEX
  8
┌▓È_1
  5
7A6
 10
37.0795
 20
-292.851
 30
0.000000
  70
    32
  0
VERTEX
  8
┌▓È_1
  5
7A7
 10
37.0624
 20
-292.794
 30
0.000000
  70
    32
  0
VERTEX
  8
┌▓È_1
  5
7A8
 10
37.0442
 20
-292.737
 30
0.000000
  70
    32
  0
VERTEX
  8
┌▓È_1
  5
7A9
 10
37.0248
 20
-292.680
 30
0.000000
  70
    32
  0
VERTEX
  8
┌▓È_1
  5
7AA
 10
37.0044
 20
-292.624
 30
0.000000
  70
    32
  0
VERTEX
  8
┌▓È_1
  5
7AB
 10
36.9829
 20
-292.569
 30
0.000000
  70
    32
  0
VERTEX
  8
┌▓È_1
  5
7AC
 10
36.9603
 20
-292.515
 30
0.000000
  70
    32
  0
VERTEX
  8
┌▓È_1
  5
7AD
 10
36.9366
 20
-292.461
 30
0.000000
  70
    32
  0
VERTEX
  8
┌▓È_1
  5
7AE
 10
36.9119
 20
-292.408
 30
0.000000
  70
    32
  0
VERTEX
  8
┌▓È_1
  5
7AF
 10
36.8861
 20
-292.356
 30
0.000000
  70
    32
  0
VERTEX
  8
┌▓È_1
  5
7B0
 10
36.8594
 20
-292.304
 30
0.000000
  70
    32
  0
VERTEX
  8
┌▓È_1
  5
7B1
 10
36.8316
 20
-292.254
 30
0.000000
  70
    32
  0
VERTEX
  8
┌▓È_1
  5
7B2
 10
36.8028
 20
-292.204
 30
0.000000
  70
    32
  0
VERTEX
  8
┌▓È_1
  5
7B3
 10
36.7731
 20
-292.155
 30
0.000000
  70
    32
  0
VERTEX
  8
┌▓È_1
  5
7B4
 10
36.7424
 20
-292.107
 30
0.000000
  70
    32
  0
VERTEX
  8
┌▓È_1
  5
7B5
 10
36.7108
 20
-292.060
 30
0.000000
  70
    32
  0
VERTEX
  8
┌▓È_1
  5
7B6
 10
36.6783
 20
-292.014
 30
0.000000
  70
    32
  0
VERTEX
  8
┌▓È_1
  5
7B7
 10
36.6449
 20
-291.970
 30
0.000000
  70
    32
  0
VERTEX
  8
┌▓È_1
  5
7B8
 10
36.6106
 20
-291.926
 30
0.000000
  70
    32
  0
VERTEX
  8
┌▓È_1
  5
7B9
 10
36.5755
 20
-291.883
 30
0.000000
  70
    32
  0
VERTEX
  8
┌▓È_1
  5
7BA
 10
36.5395
 20
-291.841
 30
0.000000
  70
    32
  0
VERTEX
  8
┌▓È_1
  5
7BB
 10
36.5028
 20
-291.800
 30
0.000000
  70
    32
  0
VERTEX
  8
┌▓È_1
  5
7BC
 10
36.4652
 20
-291.761
 30
0.000000
  70
    32
  0
VERTEX
  8
┌▓È_1
  5
7BD
 10
36.4269
 20
-291.722
 30
0.000000
  70
    32
  0
VERTEX
  8
┌▓È_1
  5
7BE
 10
36.3878
 20
-291.685
 30
0.000000
  70
    32
  0
VERTEX
  8
┌▓È_1
  5
7BF
 10
36.3480
 20
-291.649
 30
0.000000
  70
    32
  0
VERTEX
  8
┌▓È_1
  5
7C0
 10
36.3076
 20
-291.615
 30
0.000000
  70
    32
  0
VERTEX
  8
┌▓È_1
  5
7C1
 10
36.2664
 20
-291.581
 30
0.000000
  70
    32
  0
VERTEX
  8
┌▓È_1
  5
7C2
 10
36.2246
 20
-291.549
 30
0.000000
  70
    32
  0
VERTEX
  8
┌▓È_1
  5
7C3
 10
36.1822
 20
-291.518
 30
0.000000
  70
    32
  0
VERTEX
  8
┌▓È_1
  5
7C4
 10
36.1392
 20
-291.489
 30
0.000000
  70
    32
  0
VERTEX
  8
┌▓È_1
  5
7C5
 10
36.0956
 20
-291.460
 30
0.000000
  70
    32
  0
VERTEX
  8
┌▓È_1
  5
7C6
 10
36.0515
 20
-291.433
 30
0.000000
  70
    32
  0
VERTEX
  8
┌▓È_1
  5
7C7
 10
36.0069
 20
-291.408
 30
0.000000
  70
    32
  0
VERTEX
  8
┌▓È_1
  5
7C8
 10
35.9618
 20
-291.384
 30
0.000000
  70
    32
  0
VERTEX
  8
┌▓È_1
  5
7C9
 10
35.9162
 20
-291.361
 30
0.000000
  70
    32
  0
VERTEX
  8
┌▓È_1
  5
7CA
 10
35.8702
 20
-291.339
 30
0.000000
  70
    32
  0
VERTEX
  8
┌▓È_1
  5
7CB
 10
35.8238
 20
-291.320
 30
0.000000
  70
    32
  0
VERTEX
  8
┌▓È_1
  5
7CC
 10
35.7770
 20
-291.301
 30
0.000000
  70
    32
  0
VERTEX
  8
┌▓È_1
  5
7CD
 10
35.7298
 20
-291.284
 30
0.000000
  70
    32
  0
VERTEX
  8
┌▓È_1
  5
7CE
 10
35.6824
 20
-291.268
 30
0.000000
  70
    32
  0
VERTEX
  8
┌▓È_1
  5
7CF
 10
35.6346
 20
-291.254
 30
0.000000
  70
    32
  0
VERTEX
  8
┌▓È_1
  5
7D0
 10
35.5866
 20
-291.241
 30
0.000000
  70
    32
  0
VERTEX
  8
┌▓È_1
  5
7D1
 10
35.5383
 20
-291.230
 30
0.000000
  70
    32
  0
VERTEX
  8
┌▓È_1
  5
7D2
 10
35.4899
 20
-291.220
 30
0.000000
  70
    32
  0
VERTEX
  8
┌▓È_1
  5
7D3
 10
35.4412
 20
-291.212
 30
0.000000
  70
    32
  0
VERTEX
  8
┌▓È_1
  5
7D4
 10
35.3925
 20
-291.205
 30
0.000000
  70
    32
  0
VERTEX
  8
┌▓È_1
  5
7D5
 10
35.3435
 20
-291.200
 30
0.000000
  70
    32
  0
VERTEX
  8
┌▓È_1
  5
7D6
 10
35.2946
 20
-291.196
 30
0.000000
  70
    32
  0
VERTEX
  8
┌▓È_1
  5
7D7
 10
35.2455
 20
-291.194
 30
0.000000
  70
    32
  0
VERTEX
  8
┌▓È_1
  5
7D8
 10
35.1964
 20
-291.193
 30
0.000000
  70
    32
  0
SEQEND
  8
┌▓È_1
  5
7D9
  0
ARC
  5
236
  8
┌▓È_1
 62
     5
 10
-108.5535809517
 20
-293.49335937500001
 30
0.0
 40
1.0
 50
180.0
 51
270.0
  0
LINE
  5
237
  8
┌▓È_1
 62
     5
 10
-100.0535809517
 20
-290.49335937500001
 30
0.0
 11
-109.5535809517
 21
-290.49335937500001
 31
0.0
  0
LINE
  5
238
  8
┌▓È_1
 62
     5
 10
-100.0535809517
 20
-293.49335937500001
 30
0.0
 11
-100.0535809517
 21
-290.49335937500001
 31
0.0
  0
LINE
  5
239
  8
┌▓È_1
 62
     5
 10
-109.5535809517
 20
-290.49335937500001
 30
0.0
 11
-109.5535809517
 21
-293.49335937500001
 31
0.0
  0
ARC
  5
23A
  8
┌▓È_1
 62
     5
 10
-101.0535809517
 20
-293.49335937500001
 30
0.0
 40
1.0
 50
270.0
 51
0.0
  0
POLYLINE
  5
23B
  8
┌▓È_1
 62
     5
 10
-246.3535809517
 20
-291.193359375
 30
0.0
 66
     1
 70
     8
  0
VERTEX
  8
┌▓È_1
  5
7DA
 10
-246.354
 20
-291.193
 30
0.000000
  70
    32
  0
VERTEX
  8
┌▓È_1
  5
7DB
 10
-246.403
 20
-291.194
 30
0.000000
  70
    32
  0
VERTEX
  8
┌▓È_1
  5
7DC
 10
-246.452
 20
-291.196
 30
0.000000
  70
    32
  0
VERTEX
  8
┌▓È_1
  5
7DD
 10
-246.501
 20
-291.200
 30
0.000000
  70
    32
  0
VERTEX
  8
┌▓È_1
  5
7DE
 10
-246.550
 20
-291.205
 30
0.000000
  70
    32
  0
VERTEX
  8
┌▓È_1
  5
7DF
 10
-246.598
 20
-291.212
 30
0.000000
  70
    32
  0
VERTEX
  8
┌▓È_1
  5
7E0
 10
-246.647
 20
-291.220
 30
0.000000
  70
    32
  0
VERTEX
  8
┌▓È_1
  5
7E1
 10
-246.696
 20
-291.230
 30
0.000000
  70
    32
  0
VERTEX
  8
┌▓È_1
  5
7E2
 10
-246.744
 20
-291.241
 30
0.000000
  70
    32
  0
VERTEX
  8
┌▓È_1
  5
7E3
 10
-246.792
 20
-291.254
 30
0.000000
  70
    32
  0
VERTEX
  8
┌▓È_1
  5
7E4
 10
-246.840
 20
-291.268
 30
0.000000
  70
    32
  0
VERTEX
  8
┌▓È_1
  5
7E5
 10
-246.887
 20
-291.284
 30
0.000000
  70
    32
  0
VERTEX
  8
┌▓È_1
  5
7E6
 10
-246.934
 20
-291.301
 30
0.000000
  70
    32
  0
VERTEX
  8
┌▓È_1
  5
7E7
 10
-246.981
 20
-291.320
 30
0.000000
  70
    32
  0
VERTEX
  8
┌▓È_1
  5
7E8
 10
-247.027
 20
-291.339
 30
0.000000
  70
    32
  0
VERTEX
  8
┌▓È_1
  5
7E9
 10
-247.073
 20
-291.361
 30
0.000000
  70
    32
  0
VERTEX
  8
┌▓È_1
  5
7EA
 10
-247.119
 20
-291.384
 30
0.000000
  70
    32
  0
VERTEX
  8
┌▓È_1
  5
7EB
 10
-247.164
 20
-291.408
 30
0.000000
  70
    32
  0
VERTEX
  8
┌▓È_1
  5
7EC
 10
-247.209
 20
-291.433
 30
0.000000
  70
    32
  0
VERTEX
  8
┌▓È_1
  5
7ED
 10
-247.253
 20
-291.460
 30
0.000000
  70
    32
  0
VERTEX
  8
┌▓È_1
  5
7EE
 10
-247.296
 20
-291.489
 30
0.000000
  70
    32
  0
VERTEX
  8
┌▓È_1
  5
7EF
 10
-247.339
 20
-291.518
 30
0.000000
  70
    32
  0
VERTEX
  8
┌▓È_1
  5
7F0
 10
-247.382
 20
-291.549
 30
0.000000
  70
    32
  0
VERTEX
  8
┌▓È_1
  5
7F1
 10
-247.424
 20
-291.581
 30
0.000000
  70
    32
  0
VERTEX
  8
┌▓È_1
  5
7F2
 10
-247.465
 20
-291.615
 30
0.000000
  70
    32
  0
VERTEX
  8
┌▓È_1
  5
7F3
 10
-247.505
 20
-291.649
 30
0.000000
  70
    32
  0
VERTEX
  8
┌▓È_1
  5
7F4
 10
-247.545
 20
-291.685
 30
0.000000
  70
    32
  0
VERTEX
  8
┌▓È_1
  5
7F5
 10
-247.584
 20
-291.722
 30
0.000000
  70
    32
  0
VERTEX
  8
┌▓È_1
  5
7F6
 10
-247.622
 20
-291.761
 30
0.000000
  70
    32
  0
VERTEX
  8
┌▓È_1
  5
7F7
 10
-247.660
 20
-291.800
 30
0.000000
  70
    32
  0
VERTEX
  8
┌▓È_1
  5
7F8
 10
-247.697
 20
-291.841
 30
0.000000
  70
    32
  0
VERTEX
  8
┌▓È_1
  5
7F9
 10
-247.733
 20
-291.883
 30
0.000000
  70
    32
  0
VERTEX
  8
┌▓È_1
  5
7FA
 10
-247.768
 20
-291.926
 30
0.000000
  70
    32
  0
VERTEX
  8
┌▓È_1
  5
7FB
 10
-247.802
 20
-291.970
 30
0.000000
  70
    32
  0
VERTEX
  8
┌▓È_1
  5
7FC
 10
-247.835
 20
-292.014
 30
0.000000
  70
    32
  0
VERTEX
  8
┌▓È_1
  5
7FD
 10
-247.868
 20
-292.060
 30
0.000000
  70
    32
  0
VERTEX
  8
┌▓È_1
  5
7FE
 10
-247.900
 20
-292.107
 30
0.000000
  70
    32
  0
VERTEX
  8
┌▓È_1
  5
7FF
 10
-247.930
 20
-292.155
 30
0.000000
  70
    32
  0
VERTEX
  8
┌▓È_1
  5
800
 10
-247.960
 20
-292.204
 30
0.000000
  70
    32
  0
VERTEX
  8
┌▓È_1
  5
801
 10
-247.989
 20
-292.254
 30
0.000000
  70
    32
  0
VERTEX
  8
┌▓È_1
  5
802
 10
-248.017
 20
-292.304
 30
0.000000
  70
    32
  0
VERTEX
  8
┌▓È_1
  5
803
 10
-248.043
 20
-292.356
 30
0.000000
  70
    32
  0
VERTEX
  8
┌▓È_1
  5
804
 10
-248.069
 20
-292.408
 30
0.000000
  70
    32
  0
VERTEX
  8
┌▓È_1
  5
805
 10
-248.094
 20
-292.461
 30
0.000000
  70
    32
  0
VERTEX
  8
┌▓È_1
  5
806
 10
-248.117
 20
-292.515
 30
0.000000
  70
    32
  0
VERTEX
  8
┌▓È_1
  5
807
 10
-248.140
 20
-292.569
 30
0.000000
  70
    32
  0
VERTEX
  8
┌▓È_1
  5
808
 10
-248.162
 20
-292.624
 30
0.000000
  70
    32
  0
VERTEX
  8
┌▓È_1
  5
809
 10
-248.182
 20
-292.680
 30
0.000000
  70
    32
  0
VERTEX
  8
┌▓È_1
  5
80A
 10
-248.201
 20
-292.737
 30
0.000000
  70
    32
  0
VERTEX
  8
┌▓È_1
  5
80B
 10
-248.220
 20
-292.794
 30
0.000000
  70
    32
  0
VERTEX
  8
┌▓È_1
  5
80C
 10
-248.237
 20
-292.851
 30
0.000000
  70
    32
  0
VERTEX
  8
┌▓È_1
  5
80D
 10
-248.253
 20
-292.909
 30
0.000000
  70
    32
  0
VERTEX
  8
┌▓È_1
  5
80E
 10
-248.267
 20
-292.968
 30
0.000000
  70
    32
  0
VERTEX
  8
┌▓È_1
  5
80F
 10
-248.281
 20
-293.027
 30
0.000000
  70
    32
  0
VERTEX
  8
┌▓È_1
  5
810
 10
-248.294
 20
-293.086
 30
0.000000
  70
    32
  0
VERTEX
  8
┌▓È_1
  5
811
 10
-248.305
 20
-293.146
 30
0.000000
  70
    32
  0
VERTEX
  8
┌▓È_1
  5
812
 10
-248.315
 20
-293.206
 30
0.000000
  70
    32
  0
VERTEX
  8
┌▓È_1
  5
813
 10
-248.324
 20
-293.266
 30
0.000000
  70
    32
  0
VERTEX
  8
┌▓È_1
  5
814
 10
-248.332
 20
-293.327
 30
0.000000
  70
    32
  0
VERTEX
  8
┌▓È_1
  5
815
 10
-248.339
 20
-293.387
 30
0.000000
  70
    32
  0
VERTEX
  8
┌▓È_1
  5
816
 10
-248.344
 20
-293.448
 30
0.000000
  70
    32
  0
VERTEX
  8
┌▓È_1
  5
817
 10
-248.348
 20
-293.509
 30
0.000000
  70
    32
  0
VERTEX
  8
┌▓È_1
  5
818
 10
-248.351
 20
-293.571
 30
0.000000
  70
    32
  0
VERTEX
  8
┌▓È_1
  5
819
 10
-248.353
 20
-293.632
 30
0.000000
  70
    32
  0
VERTEX
  8
┌▓È_1
  5
81A
 10
-248.354
 20
-293.693
 30
0.000000
  70
    32
  0
VERTEX
  8
┌▓È_1
  5
81B
 10
-248.353
 20
-293.755
 30
0.000000
  70
    32
  0
VERTEX
  8
┌▓È_1
  5
81C
 10
-248.351
 20
-293.816
 30
0.000000
  70
    32
  0
VERTEX
  8
┌▓È_1
  5
81D
 10
-248.348
 20
-293.877
 30
0.000000
  70
    32
  0
VERTEX
  8
┌▓È_1
  5
81E
 10
-248.344
 20
-293.938
 30
0.000000
  70
    32
  0
VERTEX
  8
┌▓È_1
  5
81F
 10
-248.339
 20
-293.999
 30
0.000000
  70
    32
  0
VERTEX
  8
┌▓È_1
  5
820
 10
-248.332
 20
-294.060
 30
0.000000
  70
    32
  0
VERTEX
  8
┌▓È_1
  5
821
 10
-248.324
 20
-294.121
 30
0.000000
  70
    32
  0
VERTEX
  8
┌▓È_1
  5
822
 10
-248.315
 20
-294.181
 30
0.000000
  70
    32
  0
VERTEX
  8
┌▓È_1
  5
823
 10
-248.305
 20
-294.241
 30
0.000000
  70
    32
  0
VERTEX
  8
┌▓È_1
  5
824
 10
-248.294
 20
-294.301
 30
0.000000
  70
    32
  0
VERTEX
  8
┌▓È_1
  5
825
 10
-248.281
 20
-294.360
 30
0.000000
  70
    32
  0
VERTEX
  8
┌▓È_1
  5
826
 10
-248.267
 20
-294.419
 30
0.000000
  70
    32
  0
VERTEX
  8
┌▓È_1
  5
827
 10
-248.253
 20
-294.478
 30
0.000000
  70
    32
  0
VERTEX
  8
┌▓È_1
  5
828
 10
-248.237
 20
-294.536
 30
0.000000
  70
    32
  0
VERTEX
  8
┌▓È_1
  5
829
 10
-248.220
 20
-294.593
 30
0.000000
  70
    32
  0
VERTEX
  8
┌▓È_1
  5
82A
 10
-248.201
 20
-294.650
 30
0.000000
  70
    32
  0
VERTEX
  8
┌▓È_1
  5
82B
 10
-248.182
 20
-294.706
 30
0.000000
  70
    32
  0
VERTEX
  8
┌▓È_1
  5
82C
 10
-248.162
 20
-294.762
 30
0.000000
  70
    32
  0
VERTEX
  8
┌▓È_1
  5
82D
 10
-248.140
 20
-294.817
 30
0.000000
  70
    32
  0
VERTEX
  8
┌▓È_1
  5
82E
 10
-248.117
 20
-294.872
 30
0.000000
  70
    32
  0
VERTEX
  8
┌▓È_1
  5
82F
 10
-248.094
 20
-294.926
 30
0.000000
  70
    32
  0
VERTEX
  8
┌▓È_1
  5
830
 10
-248.069
 20
-294.979
 30
0.000000
  70
    32
  0
VERTEX
  8
┌▓È_1
  5
831
 10
-248.043
 20
-295.031
 30
0.000000
  70
    32
  0
VERTEX
  8
┌▓È_1
  5
832
 10
-248.017
 20
-295.082
 30
0.000000
  70
    32
  0
VERTEX
  8
┌▓È_1
  5
833
 10
-247.989
 20
-295.133
 30
0.000000
  70
    32
  0
VERTEX
  8
┌▓È_1
  5
834
 10
-247.960
 20
-295.183
 30
0.000000
  70
    32
  0
VERTEX
  8
┌▓È_1
  5
835
 10
-247.930
 20
-295.231
 30
0.000000
  70
    32
  0
VERTEX
  8
┌▓È_1
  5
836
 10
-247.900
 20
-295.279
 30
0.000000
  70
    32
  0
VERTEX
  8
┌▓È_1
  5
837
 10
-247.868
 20
-295.326
 30
0.000000
  70
    32
  0
VERTEX
  8
┌▓È_1
  5
838
 10
-247.835
 20
-295.372
 30
0.000000
  70
    32
  0
VERTEX
  8
┌▓È_1
  5
839
 10
-247.802
 20
-295.417
 30
0.000000
  70
    32
  0
VERTEX
  8
┌▓È_1
  5
83A
 10
-247.768
 20
-295.461
 30
0.000000
  70
    32
  0
VERTEX
  8
┌▓È_1
  5
83B
 10
-247.733
 20
-295.504
 30
0.000000
  70
    32
  0
VERTEX
  8
┌▓È_1
  5
83C
 10
-247.697
 20
-295.546
 30
0.000000
  70
    32
  0
VERTEX
  8
┌▓È_1
  5
83D
 10
-247.660
 20
-295.586
 30
0.000000
  70
    32
  0
VERTEX
  8
┌▓È_1
  5
83E
 10
-247.622
 20
-295.626
 30
0.000000
  70
    32
  0
VERTEX
  8
┌▓È_1
  5
83F
 10
-247.584
 20
-295.664
 30
0.000000
  70
    32
  0
VERTEX
  8
┌▓È_1
  5
840
 10
-247.545
 20
-295.701
 30
0.000000
  70
    32
  0
VERTEX
  8
┌▓È_1
  5
841
 10
-247.505
 20
-295.737
 30
0.000000
  70
    32
  0
VERTEX
  8
┌▓È_1
  5
842
 10
-247.465
 20
-295.772
 30
0.000000
  70
    32
  0
VERTEX
  8
┌▓È_1
  5
843
 10
-247.424
 20
-295.805
 30
0.000000
  70
    32
  0
VERTEX
  8
┌▓È_1
  5
844
 10
-247.382
 20
-295.838
 30
0.000000
  70
    32
  0
VERTEX
  8
┌▓È_1
  5
845
 10
-247.339
 20
-295.869
 30
0.000000
  70
    32
  0
VERTEX
  8
┌▓È_1
  5
846
 10
-247.296
 20
-295.898
 30
0.000000
  70
    32
  0
VERTEX
  8
┌▓È_1
  5
847
 10
-247.253
 20
-295.926
 30
0.000000
  70
    32
  0
VERTEX
  8
┌▓È_1
  5
848
 10
-247.209
 20
-295.953
 30
0.000000
  70
    32
  0
VERTEX
  8
┌▓È_1
  5
849
 10
-247.164
 20
-295.979
 30
0.000000
  70
    32
  0
VERTEX
  8
┌▓È_1
  5
84A
 10
-247.119
 20
-296.003
 30
0.000000
  70
    32
  0
VERTEX
  8
┌▓È_1
  5
84B
 10
-247.073
 20
-296.026
 30
0.000000
  70
    32
  0
VERTEX
  8
┌▓È_1
  5
84C
 10
-247.027
 20
-296.047
 30
0.000000
  70
    32
  0
VERTEX
  8
┌▓È_1
  5
84D
 10
-246.981
 20
-296.067
 30
0.000000
  70
    32
  0
VERTEX
  8
┌▓È_1
  5
84E
 10
-246.934
 20
-296.086
 30
0.000000
  70
    32
  0
VERTEX
  8
┌▓È_1
  5
84F
 10
-246.887
 20
-296.103
 30
0.000000
  70
    32
  0
VERTEX
  8
┌▓È_1
  5
850
 10
-246.840
 20
-296.118
 30
0.000000
  70
    32
  0
VERTEX
  8
┌▓È_1
  5
851
 10
-246.792
 20
-296.133
 30
0.000000
  70
    32
  0
VERTEX
  8
┌▓È_1
  5
852
 10
-246.744
 20
-296.145
 30
0.000000
  70
    32
  0
VERTEX
  8
┌▓È_1
  5
853
 10
-246.696
 20
-296.157
 30
0.000000
  70
    32
  0
VERTEX
  8
┌▓È_1
  5
854
 10
-246.647
 20
-296.166
 30
0.000000
  70
    32
  0
VERTEX
  8
┌▓È_1
  5
855
 10
-246.598
 20
-296.175
 30
0.000000
  70
    32
  0
VERTEX
  8
┌▓È_1
  5
856
 10
-246.550
 20
-296.181
 30
0.000000
  70
    32
  0
VERTEX
  8
┌▓È_1
  5
857
 10
-246.501
 20
-296.187
 30
0.000000
  70
    32
  0
VERTEX
  8
┌▓È_1
  5
858
 10
-246.452
 20
-296.190
 30
0.000000
  70
    32
  0
VERTEX
  8
┌▓È_1
  5
859
 10
-246.403
 20
-296.193
 30
0.000000
  70
    32
  0
VERTEX
  8
┌▓È_1
  5
85A
 10
-246.354
 20
-296.193
 30
0.000000
  70
    32
  0
SEQEND
  8
┌▓È_1
  5
85B
  0
DIMENSION
  5
249
  8
Éíû@É³
 62
     5
  2
*D7
 10
-434.80358095169993
 20
-313.89335937499999
 30
0.0
 11
-434.80358095169993
 21
-318.89335937499999
 31
0.0
 70
   128
  1
<>
 13
-400.3548658261999
 23
-313.89335937499999
 33
0.0
 14
-404.80358095169993
 24
-323.89335937499999
 34
0.0
 50
90.0
  0
DIMENSION
  5
257
  8
Éíû@É³
 62
     5
  2
*D8
 10
-434.8035810362
 20
-211.89335937499999
 30
0.0
 11
-434.8035810362
 21
-262.89335937499999
 31
0.0
 70
   128
  1
<>
 13
-399.76071377940002
 23
-211.89335937499999
 33
0.0
 14
-400.3548658261999
 24
-313.89335937499999
 34
0.0
 50
90.0
  0
DIMENSION
  5
265
  8
Éíû@É³
 62
     5
  2
*D9
 10
-434.80358095169993
 20
-201.89335937499999
 30
0.0
 11
-434.80358095169993
 21
-206.89335937499999
 31
0.0
 70
   128
  1
<>
 13
-404.80358095169993
 23
-201.89335937499999
 33
0.0
 14
-399.76071377940002
 24
-211.89335937499999
 34
0.0
 50
90.0
  0
DIMENSION
  5
273
  8
Éíû@É³
 62
     5
  2
*D10
 10
-384.80358095169998
 20
-171.89335937499999
 30
0.0
 11
-394.80358095169998
 21
-171.89335937499999
 31
0.0
 70
   128
  1
<>
 13
-384.80358095169998
 23
-201.89335937499999
 33
0.0
 14
-404.80358095169993
 24
-201.89335937499999
 34
0.0
  0
LINE
  5
274
  8
┌▓È_1
 62
     5
 10
-384.80358095169998
 20
-201.89335937499999
 30
0.0
 11
-404.80358095169993
 21
-201.89335937499999
 31
0.0
  0
LINE
  5
275
  8
┌▓È_1
 62
     5
 10
-384.80358095169998
 20
-223.89335937499999
 30
0.0
 11
-404.80358095169993
 21
-223.89335937499999
 31
0.0
  0
LINE
  5
276
  8
┌▓È_1
 62
     5
 10
-404.80358095169993
 20
-323.89335937499999
 30
0.0
 11
-384.80358095169998
 21
-323.89335937499999
 31
0.0
  0
LINE
  5
277
  8
┌▓È_1
 62
     5
 10
-404.80358095169993
 20
-323.89335937499999
 30
0.0
 11
-384.80358095169998
 21
-323.89335937499999
 31
0.0
  0
CIRCLE
  5
278
  8
┌▓È_1
 62
     5
 10
-394.80358095169998
 20
-313.89335937499999
 30
0.0
 40
2.25
  0
LINE
  5
279
  8
┌▓È_1
 62
     5
 10
-409.62662782669992
 20
-323.89335937499999
 30
0.0
 11
-437.45748720169991
 21
-323.89335937499999
 31
0.0
  0
POLYLINE
  5
27A
  8
┌▓È_1
 62
     5
 10
-244.3535809517
 20
-298.693359375
 30
0.0
 66
     1
 70
     8
  0
VERTEX
  8
┌▓È_1
  5
85C
 10
-244.354
 20
-298.693
 30
0.000000
  70
    32
  0
VERTEX
  8
┌▓È_1
  5
85D
 10
-244.356
 20
-298.816
 30
0.000000
  70
    32
  0
VERTEX
  8
┌▓È_1
  5
85E
 10
-244.363
 20
-298.938
 30
0.000000
  70
    32
  0
VERTEX
  8
┌▓È_1
  5
85F
 10
-244.375
 20
-299.060
 30
0.000000
  70
    32
  0
VERTEX
  8
┌▓È_1
  5
860
 10
-244.392
 20
-299.181
 30
0.000000
  70
    32
  0
VERTEX
  8
┌▓È_1
  5
861
 10
-244.414
 20
-299.301
 30
0.000000
  70
    32
  0
VERTEX
  8
┌▓È_1
  5
862
 10
-244.440
 20
-299.419
 30
0.000000
  70
    32
  0
VERTEX
  8
┌▓È_1
  5
863
 10
-244.470
 20
-299.536
 30
0.000000
  70
    32
  0
VERTEX
  8
┌▓È_1
  5
864
 10
-244.506
 20
-299.650
 30
0.000000
  70
    32
  0
VERTEX
  8
┌▓È_1
  5
865
 10
-244.546
 20
-299.762
 30
0.000000
  70
    32
  0
VERTEX
  8
┌▓È_1
  5
866
 10
-244.590
 20
-299.872
 30
0.000000
  70
    32
  0
VERTEX
  8
┌▓È_1
  5
867
 10
-244.638
 20
-299.979
 30
0.000000
  70
    32
  0
VERTEX
  8
┌▓È_1
  5
868
 10
-244.691
 20
-300.082
 30
0.000000
  70
    32
  0
VERTEX
  8
┌▓È_1
  5
869
 10
-244.747
 20
-300.183
 30
0.000000
  70
    32
  0
VERTEX
  8
┌▓È_1
  5
86A
 10
-244.808
 20
-300.279
 30
0.000000
  70
    32
  0
VERTEX
  8
┌▓È_1
  5
86B
 10
-244.872
 20
-300.372
 30
0.000000
  70
    32
  0
VERTEX
  8
┌▓È_1
  5
86C
 10
-244.939
 20
-300.461
 30
0.000000
  70
    32
  0
VERTEX
  8
┌▓È_1
  5
86D
 10
-245.010
 20
-300.546
 30
0.000000
  70
    32
  0
VERTEX
  8
┌▓È_1
  5
86E
 10
-245.085
 20
-300.626
 30
0.000000
  70
    32
  0
VERTEX
  8
┌▓È_1
  5
86F
 10
-245.162
 20
-300.701
 30
0.000000
  70
    32
  0
VERTEX
  8
┌▓È_1
  5
870
 10
-245.242
 20
-300.772
 30
0.000000
  70
    32
  0
VERTEX
  8
┌▓È_1
  5
871
 10
-245.325
 20
-300.838
 30
0.000000
  70
    32
  0
VERTEX
  8
┌▓È_1
  5
872
 10
-245.411
 20
-300.898
 30
0.000000
  70
    32
  0
VERTEX
  8
┌▓È_1
  5
873
 10
-245.498
 20
-300.953
 30
0.000000
  70
    32
  0
VERTEX
  8
┌▓È_1
  5
874
 10
-245.588
 20
-301.003
 30
0.000000
  70
    32
  0
VERTEX
  8
┌▓È_1
  5
875
 10
-245.680
 20
-301.047
 30
0.000000
  70
    32
  0
VERTEX
  8
┌▓È_1
  5
876
 10
-245.773
 20
-301.086
 30
0.000000
  70
    32
  0
VERTEX
  8
┌▓È_1
  5
877
 10
-245.868
 20
-301.118
 30
0.000000
  70
    32
  0
VERTEX
  8
┌▓È_1
  5
878
 10
-245.963
 20
-301.145
 30
0.000000
  70
    32
  0
VERTEX
  8
┌▓È_1
  5
879
 10
-246.060
 20
-301.166
 30
0.000000
  70
    32
  0
VERTEX
  8
┌▓È_1
  5
87A
 10
-246.158
 20
-301.181
 30
0.000000
  70
    32
  0
VERTEX
  8
┌▓È_1
  5
87B
 10
-246.255
 20
-301.190
 30
0.000000
  70
    32
  0
VERTEX
  8
┌▓È_1
  5
87C
 10
-246.354
 20
-301.193
 30
0.000000
  70
    32
  0
VERTEX
  8
┌▓È_1
  5
87D
 10
-246.452
 20
-301.190
 30
0.000000
  70
    32
  0
VERTEX
  8
┌▓È_1
  5
87E
 10
-246.550
 20
-301.181
 30
0.000000
  70
    32
  0
VERTEX
  8
┌▓È_1
  5
87F
 10
-246.647
 20
-301.166
 30
0.000000
  70
    32
  0
VERTEX
  8
┌▓È_1
  5
880
 10
-246.744
 20
-301.145
 30
0.000000
  70
    32
  0
VERTEX
  8
┌▓È_1
  5
881
 10
-246.840
 20
-301.118
 30
0.000000
  70
    32
  0
VERTEX
  8
┌▓È_1
  5
882
 10
-246.934
 20
-301.086
 30
0.000000
  70
    32
  0
VERTEX
  8
┌▓È_1
  5
883
 10
-247.027
 20
-301.047
 30
0.000000
  70
    32
  0
VERTEX
  8
┌▓È_1
  5
884
 10
-247.119
 20
-301.003
 30
0.000000
  70
    32
  0
VERTEX
  8
┌▓È_1
  5
885
 10
-247.209
 20
-300.953
 30
0.000000
  70
    32
  0
VERTEX
  8
┌▓È_1
  5
886
 10
-247.296
 20
-300.898
 30
0.000000
  70
    32
  0
VERTEX
  8
┌▓È_1
  5
887
 10
-247.382
 20
-300.838
 30
0.000000
  70
    32
  0
VERTEX
  8
┌▓È_1
  5
888
 10
-247.465
 20
-300.772
 30
0.000000
  70
    32
  0
VERTEX
  8
┌▓È_1
  5
889
 10
-247.545
 20
-300.701
 30
0.000000
  70
    32
  0
VERTEX
  8
┌▓È_1
  5
88A
 10
-247.622
 20
-300.626
 30
0.000000
  70
    32
  0
VERTEX
  8
┌▓È_1
  5
88B
 10
-247.697
 20
-300.546
 30
0.000000
  70
    32
  0
VERTEX
  8
┌▓È_1
  5
88C
 10
-247.768
 20
-300.461
 30
0.000000
  70
    32
  0
VERTEX
  8
┌▓È_1
  5
88D
 10
-247.835
 20
-300.372
 30
0.000000
  70
    32
  0
VERTEX
  8
┌▓È_1
  5
88E
 10
-247.900
 20
-300.279
 30
0.000000
  70
    32
  0
VERTEX
  8
┌▓È_1
  5
88F
 10
-247.960
 20
-300.183
 30
0.000000
  70
    32
  0
VERTEX
  8
┌▓È_1
  5
890
 10
-248.017
 20
-300.082
 30
0.000000
  70
    32
  0
VERTEX
  8
┌▓È_1
  5
891
 10
-248.069
 20
-299.979
 30
0.000000
  70
    32
  0
VERTEX
  8
┌▓È_1
  5
892
 10
-248.117
 20
-299.872
 30
0.000000
  70
    32
  0
VERTEX
  8
┌▓È_1
  5
893
 10
-248.162
 20
-299.762
 30
0.000000
  70
    32
  0
VERTEX
  8
┌▓È_1
  5
894
 10
-248.201
 20
-299.650
 30
0.000000
  70
    32
  0
VERTEX
  8
┌▓È_1
  5
895
 10
-248.237
 20
-299.536
 30
0.000000
  70
    32
  0
VERTEX
  8
┌▓È_1
  5
896
 10
-248.267
 20
-299.419
 30
0.000000
  70
    32
  0
VERTEX
  8
┌▓È_1
  5
897
 10
-248.294
 20
-299.301
 30
0.000000
  70
    32
  0
VERTEX
  8
┌▓È_1
  5
898
 10
-248.315
 20
-299.181
 30
0.000000
  70
    32
  0
VERTEX
  8
┌▓È_1
  5
899
 10
-248.332
 20
-299.060
 30
0.000000
  70
    32
  0
VERTEX
  8
┌▓È_1
  5
89A
 10
-248.344
 20
-298.938
 30
0.000000
  70
    32
  0
VERTEX
  8
┌▓È_1
  5
89B
 10
-248.351
 20
-298.816
 30
0.000000
  70
    32
  0
VERTEX
  8
┌▓È_1
  5
89C
 10
-248.354
 20
-298.693
 30
0.000000
  70
    32
  0
VERTEX
  8
┌▓È_1
  5
89D
 10
-248.351
 20
-298.571
 30
0.000000
  70
    32
  0
VERTEX
  8
┌▓È_1
  5
89E
 10
-248.344
 20
-298.448
 30
0.000000
  70
    32
  0
VERTEX
  8
┌▓È_1
  5
89F
 10
-248.332
 20
-298.327
 30
0.000000
  70
    32
  0
VERTEX
  8
┌▓È_1
  5
8A0
 10
-248.315
 20
-298.206
 30
0.000000
  70
    32
  0
VERTEX
  8
┌▓È_1
  5
8A1
 10
-248.294
 20
-298.086
 30
0.000000
  70
    32
  0
VERTEX
  8
┌▓È_1
  5
8A2
 10
-248.267
 20
-297.968
 30
0.000000
  70
    32
  0
VERTEX
  8
┌▓È_1
  5
8A3
 10
-248.237
 20
-297.851
 30
0.000000
  70
    32
  0
VERTEX
  8
┌▓È_1
  5
8A4
 10
-248.201
 20
-297.737
 30
0.000000
  70
    32
  0
VERTEX
  8
┌▓È_1
  5
8A5
 10
-248.162
 20
-297.624
 30
0.000000
  70
    32
  0
VERTEX
  8
┌▓È_1
  5
8A6
 10
-248.117
 20
-297.515
 30
0.000000
  70
    32
  0
VERTEX
  8
┌▓È_1
  5
8A7
 10
-248.069
 20
-297.408
 30
0.000000
  70
    32
  0
VERTEX
  8
┌▓È_1
  5
8A8
 10
-248.017
 20
-297.304
 30
0.000000
  70
    32
  0
VERTEX
  8
┌▓È_1
  5
8A9
 10
-247.960
 20
-297.204
 30
0.000000
  70
    32
  0
VERTEX
  8
┌▓È_1
  5
8AA
 10
-247.900
 20
-297.107
 30
0.000000
  70
    32
  0
VERTEX
  8
┌▓È_1
  5
8AB
 10
-247.835
 20
-297.014
 30
0.000000
  70
    32
  0
VERTEX
  8
┌▓È_1
  5
8AC
 10
-247.768
 20
-296.926
 30
0.000000
  70
    32
  0
VERTEX
  8
┌▓È_1
  5
8AD
 10
-247.697
 20
-296.841
 30
0.000000
  70
    32
  0
VERTEX
  8
┌▓È_1
  5
8AE
 10
-247.622
 20
-296.761
 30
0.000000
  70
    32
  0
VERTEX
  8
┌▓È_1
  5
8AF
 10
-247.545
 20
-296.685
 30
0.000000
  70
    32
  0
VERTEX
  8
┌▓È_1
  5
8B0
 10
-247.465
 20
-296.615
 30
0.000000
  70
    32
  0
VERTEX
  8
┌▓È_1
  5
8B1
 10
-247.382
 20
-296.549
 30
0.000000
  70
    32
  0
VERTEX
  8
┌▓È_1
  5
8B2
 10
-247.296
 20
-296.489
 30
0.000000
  70
    32
  0
VERTEX
  8
┌▓È_1
  5
8B3
 10
-247.209
 20
-296.433
 30
0.000000
  70
    32
  0
VERTEX
  8
┌▓È_1
  5
8B4
 10
-247.119
 20
-296.384
 30
0.000000
  70
    32
  0
VERTEX
  8
┌▓È_1
  5
8B5
 10
-247.027
 20
-296.339
 30
0.000000
  70
    32
  0
VERTEX
  8
┌▓È_1
  5
8B6
 10
-246.934
 20
-296.301
 30
0.000000
  70
    32
  0
VERTEX
  8
┌▓È_1
  5
8B7
 10
-246.840
 20
-296.268
 30
0.000000
  70
    32
  0
VERTEX
  8
┌▓È_1
  5
8B8
 10
-246.744
 20
-296.241
 30
0.000000
  70
    32
  0
VERTEX
  8
┌▓È_1
  5
8B9
 10
-246.647
 20
-296.220
 30
0.000000
  70
    32
  0
VERTEX
  8
┌▓È_1
  5
8BA
 10
-246.550
 20
-296.205
 30
0.000000
  70
    32
  0
VERTEX
  8
┌▓È_1
  5
8BB
 10
-246.452
 20
-296.196
 30
0.000000
  70
    32
  0
VERTEX
  8
┌▓È_1
  5
8BC
 10
-246.354
 20
-296.193
 30
0.000000
  70
    32
  0
VERTEX
  8
┌▓È_1
  5
8BD
 10
-246.255
 20
-296.196
 30
0.000000
  70
    32
  0
VERTEX
  8
┌▓È_1
  5
8BE
 10
-246.158
 20
-296.205
 30
0.000000
  70
    32
  0
VERTEX
  8
┌▓È_1
  5
8BF
 10
-246.060
 20
-296.220
 30
0.000000
  70
    32
  0
VERTEX
  8
┌▓È_1
  5
8C0
 10
-245.963
 20
-296.241
 30
0.000000
  70
    32
  0
VERTEX
  8
┌▓È_1
  5
8C1
 10
-245.868
 20
-296.268
 30
0.000000
  70
    32
  0
VERTEX
  8
┌▓È_1
  5
8C2
 10
-245.773
 20
-296.301
 30
0.000000
  70
    32
  0
VERTEX
  8
┌▓È_1
  5
8C3
 10
-245.680
 20
-296.339
 30
0.000000
  70
    32
  0
VERTEX
  8
┌▓È_1
  5
8C4
 10
-245.588
 20
-296.384
 30
0.000000
  70
    32
  0
VERTEX
  8
┌▓È_1
  5
8C5
 10
-245.498
 20
-296.433
 30
0.000000
  70
    32
  0
VERTEX
  8
┌▓È_1
  5
8C6
 10
-245.411
 20
-296.489
 30
0.000000
  70
    32
  0
VERTEX
  8
┌▓È_1
  5
8C7
 10
-245.325
 20
-296.549
 30
0.000000
  70
    32
  0
VERTEX
  8
┌▓È_1
  5
8C8
 10
-245.242
 20
-296.615
 30
0.000000
  70
    32
  0
VERTEX
  8
┌▓È_1
  5
8C9
 10
-245.162
 20
-296.685
 30
0.000000
  70
    32
  0
VERTEX
  8
┌▓È_1
  5
8CA
 10
-245.085
 20
-296.761
 30
0.000000
  70
    32
  0
VERTEX
  8
┌▓È_1
  5
8CB
 10
-245.010
 20
-296.841
 30
0.000000
  70
    32
  0
VERTEX
  8
┌▓È_1
  5
8CC
 10
-244.939
 20
-296.926
 30
0.000000
  70
    32
  0
VERTEX
  8
┌▓È_1
  5
8CD
 10
-244.872
 20
-297.014
 30
0.000000
  70
    32
  0
VERTEX
  8
┌▓È_1
  5
8CE
 10
-244.808
 20
-297.107
 30
0.000000
  70
    32
  0
VERTEX
  8
┌▓È_1
  5
8CF
 10
-244.747
 20
-297.204
 30
0.000000
  70
    32
  0
VERTEX
  8
┌▓È_1
  5
8D0
 10
-244.691
 20
-297.304
 30
0.000000
  70
    32
  0
VERTEX
  8
┌▓È_1
  5
8D1
 10
-244.638
 20
-297.408
 30
0.000000
  70
    32
  0
VERTEX
  8
┌▓È_1
  5
8D2
 10
-244.590
 20
-297.515
 30
0.000000
  70
    32
  0
VERTEX
  8
┌▓È_1
  5
8D3
 10
-244.546
 20
-297.624
 30
0.000000
  70
    32
  0
VERTEX
  8
┌▓È_1
  5
8D4
 10
-244.506
 20
-297.737
 30
0.000000
  70
    32
  0
VERTEX
  8
┌▓È_1
  5
8D5
 10
-244.470
 20
-297.851
 30
0.000000
  70
    32
  0
VERTEX
  8
┌▓È_1
  5
8D6
 10
-244.440
 20
-297.968
 30
0.000000
  70
    32
  0
VERTEX
  8
┌▓È_1
  5
8D7
 10
-244.414
 20
-298.086
 30
0.000000
  70
    32
  0
VERTEX
  8
┌▓È_1
  5
8D8
 10
-244.392
 20
-298.206
 30
0.000000
  70
    32
  0
VERTEX
  8
┌▓È_1
  5
8D9
 10
-244.375
 20
-298.327
 30
0.000000
  70
    32
  0
VERTEX
  8
┌▓È_1
  5
8DA
 10
-244.363
 20
-298.448
 30
0.000000
  70
    32
  0
VERTEX
  8
┌▓È_1
  5
8DB
 10
-244.356
 20
-298.571
 30
0.000000
  70
    32
  0
VERTEX
  8
┌▓È_1
  5
8DC
 10
-244.354
 20
-298.693
 30
0.000000
  70
    32
  0
SEQEND
  8
┌▓È_1
  5
8DD
  0
POLYLINE
  5
27B
  8
┌▓È_1
 62
     5
 10
-254.80358095170001
 20
-296.193359375
 30
0.0
 66
     1
 70
     8
  0
VERTEX
  8
┌▓È_1
  5
8DE
 10
-254.804
 20
-296.193
 30
0.000000
  70
    32
  0
VERTEX
  8
┌▓È_1
  5
8DF
 10
-254.754
 20
-296.194
 30
0.000000
  70
    32
  0
VERTEX
  8
┌▓È_1
  5
8E0
 10
-254.705
 20
-296.196
 30
0.000000
  70
    32
  0
VERTEX
  8
┌▓È_1
  5
8E1
 10
-254.656
 20
-296.200
 30
0.000000
  70
    32
  0
VERTEX
  8
┌▓È_1
  5
8E2
 10
-254.608
 20
-296.205
 30
0.000000
  70
    32
  0
VERTEX
  8
┌▓È_1
  5
8E3
 10
-254.559
 20
-296.212
 30
0.000000
  70
    32
  0
VERTEX
  8
┌▓È_1
  5
8E4
 10
-254.510
 20
-296.220
 30
0.000000
  70
    32
  0
VERTEX
  8
┌▓È_1
  5
8E5
 10
-254.462
 20
-296.230
 30
0.000000
  70
    32
  0
VERTEX
  8
┌▓È_1
  5
8E6
 10
-254.413
 20
-296.241
 30
0.000000
  70
    32
  0
VERTEX
  8
┌▓È_1
  5
8E7
 10
-254.365
 20
-296.254
 30
0.000000
  70
    32
  0
VERTEX
  8
┌▓È_1
  5
8E8
 10
-254.318
 20
-296.268
 30
0.000000
  70
    32
  0
VERTEX
  8
┌▓È_1
  5
8E9
 10
-254.270
 20
-296.284
 30
0.000000
  70
    32
  0
VERTEX
  8
┌▓È_1
  5
8EA
 10
-254.223
 20
-296.301
 30
0.000000
  70
    32
  0
VERTEX
  8
┌▓È_1
  5
8EB
 10
-254.176
 20
-296.320
 30
0.000000
  70
    32
  0
VERTEX
  8
┌▓È_1
  5
8EC
 10
-254.130
 20
-296.339
 30
0.000000
  70
    32
  0
VERTEX
  8
┌▓È_1
  5
8ED
 10
-254.084
 20
-296.361
 30
0.000000
  70
    32
  0
VERTEX
  8
┌▓È_1
  5
8EE
 10
-254.038
 20
-296.384
 30
0.000000
  70
    32
  0
VERTEX
  8
┌▓È_1
  5
8EF
 10
-253.993
 20
-296.408
 30
0.000000
  70
    32
  0
VERTEX
  8
┌▓È_1
  5
8F0
 10
-253.948
 20
-296.433
 30
0.000000
  70
    32
  0
VERTEX
  8
┌▓È_1
  5
8F1
 10
-253.904
 20
-296.460
 30
0.000000
  70
    32
  0
VERTEX
  8
┌▓È_1
  5
8F2
 10
-253.861
 20
-296.489
 30
0.000000
  70
    32
  0
VERTEX
  8
┌▓È_1
  5
8F3
 10
-253.818
 20
-296.518
 30
0.000000
  70
    32
  0
VERTEX
  8
┌▓È_1
  5
8F4
 10
-253.775
 20
-296.549
 30
0.000000
  70
    32
  0
VERTEX
  8
┌▓È_1
  5
8F5
 10
-253.734
 20
-296.581
 30
0.000000
  70
    32
  0
VERTEX
  8
┌▓È_1
  5
8F6
 10
-253.692
 20
-296.615
 30
0.000000
  70
    32
  0
VERTEX
  8
┌▓È_1
  5
8F7
 10
-253.652
 20
-296.649
 30
0.000000
  70
    32
  0
VERTEX
  8
┌▓È_1
  5
8F8
 10
-253.612
 20
-296.685
 30
0.000000
  70
    32
  0
VERTEX
  8
┌▓È_1
  5
8F9
 10
-253.573
 20
-296.722
 30
0.000000
  70
    32
  0
VERTEX
  8
┌▓È_1
  5
8FA
 10
-253.535
 20
-296.761
 30
0.000000
  70
    32
  0
VERTEX
  8
┌▓È_1
  5
8FB
 10
-253.497
 20
-296.800
 30
0.000000
  70
    32
  0
VERTEX
  8
┌▓È_1
  5
8FC
 10
-253.460
 20
-296.841
 30
0.000000
  70
    32
  0
VERTEX
  8
┌▓È_1
  5
8FD
 10
-253.424
 20
-296.883
 30
0.000000
  70
    32
  0
VERTEX
  8
┌▓È_1
  5
8FE
 10
-253.389
 20
-296.926
 30
0.000000
  70
    32
  0
VERTEX
  8
┌▓È_1
  5
8FF
 10
-253.355
 20
-296.970
 30
0.000000
  70
    32
  0
VERTEX
  8
┌▓È_1
  5
900
 10
-253.322
 20
-297.014
 30
0.000000
  70
    32
  0
VERTEX
  8
┌▓È_1
  5
901
 10
-253.289
 20
-297.060
 30
0.000000
  70
    32
  0
VERTEX
  8
┌▓È_1
  5
902
 10
-253.258
 20
-297.107
 30
0.000000
  70
    32
  0
VERTEX
  8
┌▓È_1
  5
903
 10
-253.227
 20
-297.155
 30
0.000000
  70
    32
  0
VERTEX
  8
┌▓È_1
  5
904
 10
-253.197
 20
-297.204
 30
0.000000
  70
    32
  0
VERTEX
  8
┌▓È_1
  5
905
 10
-253.168
 20
-297.254
 30
0.000000
  70
    32
  0
VERTEX
  8
┌▓È_1
  5
906
 10
-253.141
 20
-297.304
 30
0.000000
  70
    32
  0
VERTEX
  8
┌▓È_1
  5
907
 10
-253.114
 20
-297.356
 30
0.000000
  70
    32
  0
VERTEX
  8
┌▓È_1
  5
908
 10
-253.088
 20
-297.408
 30
0.000000
  70
    32
  0
VERTEX
  8
┌▓È_1
  5
909
 10
-253.063
 20
-297.461
 30
0.000000
  70
    32
  0
VERTEX
  8
┌▓È_1
  5
90A
 10
-253.040
 20
-297.515
 30
0.000000
  70
    32
  0
VERTEX
  8
┌▓È_1
  5
90B
 10
-253.017
 20
-297.569
 30
0.000000
  70
    32
  0
VERTEX
  8
┌▓È_1
  5
90C
 10
-252.996
 20
-297.624
 30
0.000000
  70
    32
  0
VERTEX
  8
┌▓È_1
  5
90D
 10
-252.975
 20
-297.680
 30
0.000000
  70
    32
  0
VERTEX
  8
┌▓È_1
  5
90E
 10
-252.956
 20
-297.737
 30
0.000000
  70
    32
  0
VERTEX
  8
┌▓È_1
  5
90F
 10
-252.938
 20
-297.794
 30
0.000000
  70
    32
  0
VERTEX
  8
┌▓È_1
  5
910
 10
-252.920
 20
-297.851
 30
0.000000
  70
    32
  0
VERTEX
  8
┌▓È_1
  5
911
 10
-252.905
 20
-297.909
 30
0.000000
  70
    32
  0
VERTEX
  8
┌▓È_1
  5
912
 10
-252.890
 20
-297.968
 30
0.000000
  70
    32
  0
VERTEX
  8
┌▓È_1
  5
913
 10
-252.876
 20
-298.027
 30
0.000000
  70
    32
  0
VERTEX
  8
┌▓È_1
  5
914
 10
-252.864
 20
-298.086
 30
0.000000
  70
    32
  0
VERTEX
  8
┌▓È_1
  5
915
 10
-252.852
 20
-298.146
 30
0.000000
  70
    32
  0
VERTEX
  8
┌▓È_1
  5
916
 10
-252.842
 20
-298.206
 30
0.000000
  70
    32
  0
VERTEX
  8
┌▓È_1
  5
917
 10
-252.833
 20
-298.266
 30
0.000000
  70
    32
  0
VERTEX
  8
┌▓È_1
  5
918
 10
-252.825
 20
-298.327
 30
0.000000
  70
    32
  0
VERTEX
  8
┌▓È_1
  5
919
 10
-252.819
 20
-298.387
 30
0.000000
  70
    32
  0
VERTEX
  8
┌▓È_1
  5
91A
 10
-252.813
 20
-298.448
 30
0.000000
  70
    32
  0
VERTEX
  8
┌▓È_1
  5
91B
 10
-252.809
 20
-298.509
 30
0.000000
  70
    32
  0
VERTEX
  8
┌▓È_1
  5
91C
 10
-252.806
 20
-298.571
 30
0.000000
  70
    32
  0
VERTEX
  8
┌▓È_1
  5
91D
 10
-252.804
 20
-298.632
 30
0.000000
  70
    32
  0
VERTEX
  8
┌▓È_1
  5
91E
 10
-252.804
 20
-298.693
 30
0.000000
  70
    32
  0
VERTEX
  8
┌▓È_1
  5
91F
 10
-252.804
 20
-298.755
 30
0.000000
  70
    32
  0
VERTEX
  8
┌▓È_1
  5
920
 10
-252.806
 20
-298.816
 30
0.000000
  70
    32
  0
VERTEX
  8
┌▓È_1
  5
921
 10
-252.809
 20
-298.877
 30
0.000000
  70
    32
  0
VERTEX
  8
┌▓È_1
  5
922
 10
-252.813
 20
-298.938
 30
0.000000
  70
    32
  0
VERTEX
  8
┌▓È_1
  5
923
 10
-252.819
 20
-298.999
 30
0.000000
  70
    32
  0
VERTEX
  8
┌▓È_1
  5
924
 10
-252.825
 20
-299.060
 30
0.000000
  70
    32
  0
VERTEX
  8
┌▓È_1
  5
925
 10
-252.833
 20
-299.121
 30
0.000000
  70
    32
  0
VERTEX
  8
┌▓È_1
  5
926
 10
-252.842
 20
-299.181
 30
0.000000
  70
    32
  0
VERTEX
  8
┌▓È_1
  5
927
 10
-252.852
 20
-299.241
 30
0.000000
  70
    32
  0
VERTEX
  8
┌▓È_1
  5
928
 10
-252.864
 20
-299.301
 30
0.000000
  70
    32
  0
VERTEX
  8
┌▓È_1
  5
929
 10
-252.876
 20
-299.360
 30
0.000000
  70
    32
  0
VERTEX
  8
┌▓È_1
  5
92A
 10
-252.890
 20
-299.419
 30
0.000000
  70
    32
  0
VERTEX
  8
┌▓È_1
  5
92B
 10
-252.905
 20
-299.478
 30
0.000000
  70
    32
  0
VERTEX
  8
┌▓È_1
  5
92C
 10
-252.920
 20
-299.536
 30
0.000000
  70
    32
  0
VERTEX
  8
┌▓È_1
  5
92D
 10
-252.938
 20
-299.593
 30
0.000000
  70
    32
  0
VERTEX
  8
┌▓È_1
  5
92E
 10
-252.956
 20
-299.650
 30
0.000000
  70
    32
  0
VERTEX
  8
┌▓È_1
  5
92F
 10
-252.975
 20
-299.706
 30
0.000000
  70
    32
  0
VERTEX
  8
┌▓È_1
  5
930
 10
-252.996
 20
-299.762
 30
0.000000
  70
    32
  0
VERTEX
  8
┌▓È_1
  5
931
 10
-253.017
 20
-299.817
 30
0.000000
  70
    32
  0
VERTEX
  8
┌▓È_1
  5
932
 10
-253.040
 20
-299.872
 30
0.000000
  70
    32
  0
VERTEX
  8
┌▓È_1
  5
933
 10
-253.063
 20
-299.926
 30
0.000000
  70
    32
  0
VERTEX
  8
┌▓È_1
  5
934
 10
-253.088
 20
-299.979
 30
0.000000
  70
    32
  0
VERTEX
  8
┌▓È_1
  5
935
 10
-253.114
 20
-300.031
 30
0.000000
  70
    32
  0
VERTEX
  8
┌▓È_1
  5
936
 10
-253.141
 20
-300.082
 30
0.000000
  70
    32
  0
VERTEX
  8
┌▓È_1
  5
937
 10
-253.168
 20
-300.133
 30
0.000000
  70
    32
  0
VERTEX
  8
┌▓È_1
  5
938
 10
-253.197
 20
-300.183
 30
0.000000
  70
    32
  0
VERTEX
  8
┌▓È_1
  5
939
 10
-253.227
 20
-300.231
 30
0.000000
  70
    32
  0
VERTEX
  8
┌▓È_1
  5
93A
 10
-253.258
 20
-300.279
 30
0.000000
  70
    32
  0
VERTEX
  8
┌▓È_1
  5
93B
 10
-253.289
 20
-300.326
 30
0.000000
  70
    32
  0
VERTEX
  8
┌▓È_1
  5
93C
 10
-253.322
 20
-300.372
 30
0.000000
  70
    32
  0
VERTEX
  8
┌▓È_1
  5
93D
 10
-253.355
 20
-300.417
 30
0.000000
  70
    32
  0
VERTEX
  8
┌▓È_1
  5
93E
 10
-253.389
 20
-300.461
 30
0.000000
  70
    32
  0
VERTEX
  8
┌▓È_1
  5
93F
 10
-253.424
 20
-300.504
 30
0.000000
  70
    32
  0
VERTEX
  8
┌▓È_1
  5
940
 10
-253.460
 20
-300.546
 30
0.000000
  70
    32
  0
VERTEX
  8
┌▓È_1
  5
941
 10
-253.497
 20
-300.586
 30
0.000000
  70
    32
  0
VERTEX
  8
┌▓È_1
  5
942
 10
-253.535
 20
-300.626
 30
0.000000
  70
    32
  0
VERTEX
  8
┌▓È_1
  5
943
 10
-253.573
 20
-300.664
 30
0.000000
  70
    32
  0
VERTEX
  8
┌▓È_1
  5
944
 10
-253.612
 20
-300.701
 30
0.000000
  70
    32
  0
VERTEX
  8
┌▓È_1
  5
945
 10
-253.652
 20
-300.737
 30
0.000000
  70
    32
  0
VERTEX
  8
┌▓È_1
  5
946
 10
-253.692
 20
-300.772
 30
0.000000
  70
    32
  0
VERTEX
  8
┌▓È_1
  5
947
 10
-253.734
 20
-300.805
 30
0.000000
  70
    32
  0
VERTEX
  8
┌▓È_1
  5
948
 10
-253.775
 20
-300.838
 30
0.000000
  70
    32
  0
VERTEX
  8
┌▓È_1
  5
949
 10
-253.818
 20
-300.869
 30
0.000000
  70
    32
  0
VERTEX
  8
┌▓È_1
  5
94A
 10
-253.861
 20
-300.898
 30
0.000000
  70
    32
  0
VERTEX
  8
┌▓È_1
  5
94B
 10
-253.904
 20
-300.926
 30
0.000000
  70
    32
  0
VERTEX
  8
┌▓È_1
  5
94C
 10
-253.948
 20
-300.953
 30
0.000000
  70
    32
  0
VERTEX
  8
┌▓È_1
  5
94D
 10
-253.993
 20
-300.979
 30
0.000000
  70
    32
  0
VERTEX
  8
┌▓È_1
  5
94E
 10
-254.038
 20
-301.003
 30
0.000000
  70
    32
  0
VERTEX
  8
┌▓È_1
  5
94F
 10
-254.084
 20
-301.026
 30
0.000000
  70
    32
  0
VERTEX
  8
┌▓È_1
  5
950
 10
-254.130
 20
-301.047
 30
0.000000
  70
    32
  0
VERTEX
  8
┌▓È_1
  5
951
 10
-254.176
 20
-301.067
 30
0.000000
  70
    32
  0
VERTEX
  8
┌▓È_1
  5
952
 10
-254.223
 20
-301.086
 30
0.000000
  70
    32
  0
VERTEX
  8
┌▓È_1
  5
953
 10
-254.270
 20
-301.103
 30
0.000000
  70
    32
  0
VERTEX
  8
┌▓È_1
  5
954
 10
-254.318
 20
-301.118
 30
0.000000
  70
    32
  0
VERTEX
  8
┌▓È_1
  5
955
 10
-254.365
 20
-301.133
 30
0.000000
  70
    32
  0
VERTEX
  8
┌▓È_1
  5
956
 10
-254.413
 20
-301.145
 30
0.000000
  70
    32
  0
VERTEX
  8
┌▓È_1
  5
957
 10
-254.462
 20
-301.157
 30
0.000000
  70
    32
  0
VERTEX
  8
┌▓È_1
  5
958
 10
-254.510
 20
-301.166
 30
0.000000
  70
    32
  0
VERTEX
  8
┌▓È_1
  5
959
 10
-254.559
 20
-301.175
 30
0.000000
  70
    32
  0
VERTEX
  8
┌▓È_1
  5
95A
 10
-254.608
 20
-301.181
 30
0.000000
  70
    32
  0
VERTEX
  8
┌▓È_1
  5
95B
 10
-254.656
 20
-301.187
 30
0.000000
  70
    32
  0
VERTEX
  8
┌▓È_1
  5
95C
 10
-254.705
 20
-301.190
 30
0.000000
  70
    32
  0
VERTEX
  8
┌▓È_1
  5
95D
 10
-254.754
 20
-301.193
 30
0.000000
  70
    32
  0
VERTEX
  8
┌▓È_1
  5
95E
 10
-254.804
 20
-301.193
 30
0.000000
  70
    32
  0
SEQEND
  8
┌▓È_1
  5
95F
  0
LINE
  5
27C
  8
┌▓È_1
 62
     5
 10
-254.80358095170001
 20
-301.193359375
 30
0.0
 11
-383.15358095170001
 21
-301.193359375
 31
0.0
  0
LINE
  5
27D
  8
┌▓È_1
 62
     5
 10
-254.80358095170001
 20
-291.193359375
 30
0.0
 11
-383.15358095170001
 21
-291.193359375
 31
0.0
  0
LINE
  5
27E
  8
┌▓È_1
 62
     5
 10
-406.05358095169993
 20
-304.49335937500001
 30
0.0
 11
-386.55358095169998
 21
-304.49335937500001
 31
0.0
  0
LINE
  5
27F
  8
┌▓È_1
 62
     5
 10
-386.55358095169998
 20
-304.49335937500001
 30
0.0
 11
-386.55358095169998
 21
-303.89335937499999
 31
0.0
  0
LINE
  5
280
  8
┌▓È_1
 62
     5
 10
-384.80358095169998
 20
-303.89335937499999
 30
0.0
 11
-404.80358095169993
 21
-303.89335937499999
 31
0.0
  0
LINE
  5
281
  8
┌▓È_1
 62
     5
 10
-404.80358095169993
 20
-303.89335937499999
 30
0.0
 11
-406.05358095169993
 21
-303.89335937499999
 31
0.0
  0
LINE
  5
282
  8
┌▓È_1
 62
     5
 10
-384.80358095169998
 20
-284.4416934514
 30
0.0
 11
-404.80358095169993
 21
-284.4416934514
 31
0.0
  0
LINE
  5
283
  8
┌▓È_1
 62
     5
 10
-389.66012898410008
 20
-211.89335937499999
 30
0.0
 11
-399.76071377940002
 21
-211.89335937499999
 31
0.0
  0
LINE
  5
284
  8
┌▓È_1
 62
     5
 10
-384.80358095169998
 20
-201.89335937499999
 30
0.0
 11
-404.80358095169993
 21
-201.89335937499999
 31
0.0
  0
LINE
  5
285
  8
┌▓È_1
 62
     5
 10
-404.80358095169993
 20
-201.89335937499999
 30
0.0
 11
-404.80358095169993
 21
-323.89335937499999
 31
0.0
  0
LINE
  5
286
  8
┌▓È_1
 62
     5
 10
-384.80358095169998
 20
-323.89335937499999
 30
0.0
 11
-384.80358095169998
 21
-201.89335937499999
 31
0.0
  0
LINE
  5
287
  8
┌▓È_1
 62
     5
 10
-404.80358095169993
 20
-201.89335937499999
 30
0.0
 11
-404.80358095169993
 21
-323.89335937499999
 31
0.0
  0
LINE
  5
288
  8
┌▓È_1
 62
     5
 10
442.68346354170001
 20
-290.48301239009999
 30
0.0
 11
262.63463541670001
 21
-290.48301239009999
 31
0.0
  0
LINE
  5
289
  8
┌▓È_1
 10
137.8508463542
 20
-427.34333767359999
 30
0.0
 11
587.85084635420003
 21
-427.34333767359999
 31
0.0
  0
LINE
  5
28A
  8
┌▓È_1
 10
137.8508463542
 20
-460.34333767359988
 30
0.0
 11
587.85084635420003
 21
-460.34333767359988
 31
0.0
  0
LINE
  5
28B
  8
┌▓È_1
 10
587.85084635420003
 20
-394.34333767359999
 30
0.0
 11
137.8508463542
 21
-394.34333767359999
 31
0.0
  0
LINE
  5
28C
  8
┌▓È_1
 10
137.8508463542
 20
-493.34333767359988
 30
0.0
 11
587.85084635420003
 21
-493.34333767359988
 31
0.0
  0
LINE
  5
28D
  8
┌▓È_1
 62
     5
 10
228.03606770830001
 20
-353.87677891769999
 30
0.0
 11
587.85084635420003
 21
-353.87677891769999
 31
0.0
  0
LINE
  5
28E
  8
┌▓È_1
 62
     5
 10
228.03606770830001
 20
-316.21471150439999
 30
0.0
 11
587.85084635420003
 21
-316.21471150439999
 31
0.0
  0
LINE
  5
28F
  8
┌▓È_1
 62
     5
 10
228.03606770830001
 20
-372.1179830021
 30
0.0
 11
587.85084635420003
 21
-372.1179830021
 31
0.0
  0
LINE
  5
290
  8
┌▓È_1
 62
     5
 10
228.03606770830001
 20
-334.16978535959998
 30
0.0
 11
587.85084635420003
 21
-334.16978535959998
 31
0.0
  0
DIMENSION
  5
29E
  8
Éíû@É³
 62
     5
  2
*D11
 10
367.75501302079999
 20
-78.1065070386
 30
0.0
 11
378.25112315989998
 21
-78.1065070386
 31
0.0
 70
   128
  1
<>
 13
367.75501302079999
 23
-34.930273206199999
 33
0.0
 14
388.74723329890003
 24
-33.1065070386
 34
0.0
 50
180.0
  0
DIMENSION
  5
2AD
  8
Éíû@É³
 62
     5
  2
*D12
 10
408.75501302079999
 20
242.06972679379999
 30
0.0
 11
347.75501302079999
 21
242.06972679379999
 31
0.0
 70
   128
  1
<>
 13
408.75501302079999
 23
197.06972679379999
 33
0.0
 14
286.75501302079999
 24
197.06972679379999
 34
0.0
  0
LINE
  5
2AE
  8
┌▓È_1
  6
BORDER
 62
     5
 10
388.4300130208
 20
140.60256309810001
 30
0.0
 11
372.83012952299998
 21
140.60256309810001
 31
0.0
  0
LINE
  5
2AF
  8
┌▓È_1
  6
BORDER
 62
     5
 10
388.4300130208
 20
180.60256309810001
 30
0.0
 11
372.83012952299998
 21
180.60256309810001
 31
0.0
  0
LINE
  5
2B0
  8
┌▓È_1
  6
BORDER
 62
     5
 10
388.4300130208
 20
100.60256309810001
 30
0.0
 11
372.83012952299998
 21
100.60256309810001
 31
0.0
  0
LINE
  5
2B1
  8
┌▓È_1
  6
BORDER
 62
     5
 10
381.0550130208
 20
-32.099142824099999
 30
0.0
 11
381.0550130208
 21
193.3463726219
 31
0.0
  0
LINE
  5
2B2
  8
┌▓È_1
  6
BORDER
 62
     5
 10
388.4300130208
 20
20.602563098099999
 30
0.0
 11
372.83012952299998
 21
20.602563098099999
 31
0.0
  0
LINE
  5
2B3
  8
┌▓È_1
  6
BORDER
 62
     5
 10
388.4300130208
 20
60.602563098099999
 30
0.0
 11
372.83012952299998
 21
60.602563098099999
 31
0.0
  0
LINE
  5
2B4
  8
┌▓È_1
 62
     5
 10
377.15501302080003
 20
196.10256309810001
 30
0.0
 11
383.95501302079998
 21
196.10256309810001
 31
0.0
  0
LINE
  5
2B5
  8
┌▓È_1
  6
BORDER
 62
     5
 10
388.4300130208
 20
-19.397436901900001
 30
0.0
 11
372.83012952299998
 21
-19.397436901900001
 31
0.0
  0
LINE
  5
2B6
  8
┌▓È_1
 62
     5
 10
386.75501302079999
 20
-34.930273206199999
 30
0.0
 11
369.3033470972
 21
-34.930273206199999
 31
0.0
  0
ARC
  5
2B7
  8
┌▓È_1
 62
     5
 10
383.95501302079998
 20
-30.897436901900001
 30
0.0
 40
4.0
 50
270.0
 51
0.0
  0
ARC
  5
2B8
  8
┌▓È_1
 62
     5
 10
383.95501302079998
 20
192.10256309810001
 30
0.0
 40
4.0
 50
0.0
 51
90.0
  0
LINE
  5
2B9
  8
┌▓È_1
 62
     5
 10
372.35501302080002
 20
70.602563098100006
 30
0.0
 11
389.35501302080002
 21
70.602563098100006
 31
0.0
  0
LINE
  5
2BA
  8
┌▓È_1
 62
     5
 10
389.35501302080002
 20
90.602563098099978
 30
0.0
 11
372.35501302080002
 21
90.602563098099978
 31
0.0
  0
POLYLINE
  5
2BB
  8
┌▓È_1
 62
     5
 10
-256.80358095170004
 20
-293.693359375
 30
0.0
 66
     1
 70
     8
  0
VERTEX
  8
┌▓È_1
  5
960
 10
-256.804
 20
-293.693
 30
0.000000
  70
    32
  0
VERTEX
  8
┌▓È_1
  5
961
 10
-256.801
 20
-293.816
 30
0.000000
  70
    32
  0
VERTEX
  8
┌▓È_1
  5
962
 10
-256.794
 20
-293.938
 30
0.000000
  70
    32
  0
VERTEX
  8
┌▓È_1
  5
963
 10
-256.782
 20
-294.060
 30
0.000000
  70
    32
  0
VERTEX
  8
┌▓È_1
  5
964
 10
-256.765
 20
-294.181
 30
0.000000
  70
    32
  0
VERTEX
  8
┌▓È_1
  5
965
 10
-256.744
 20
-294.301
 30
0.000000
  70
    32
  0
VERTEX
  8
┌▓È_1
  5
966
 10
-256.717
 20
-294.419
 30
0.000000
  70
    32
  0
VERTEX
  8
┌▓È_1
  5
967
 10
-256.687
 20
-294.536
 30
0.000000
  70
    32
  0
VERTEX
  8
┌▓È_1
  5
968
 10
-256.651
 20
-294.650
 30
0.000000
  70
    32
  0
VERTEX
  8
┌▓È_1
  5
969
 10
-256.612
 20
-294.762
 30
0.000000
  70
    32
  0
VERTEX
  8
┌▓È_1
  5
96A
 10
-256.567
 20
-294.872
 30
0.000000
  70
    32
  0
VERTEX
  8
┌▓È_1
  5
96B
 10
-256.519
 20
-294.979
 30
0.000000
  70
    32
  0
VERTEX
  8
┌▓È_1
  5
96C
 10
-256.467
 20
-295.082
 30
0.000000
  70
    32
  0
VERTEX
  8
┌▓È_1
  5
96D
 10
-256.410
 20
-295.183
 30
0.000000
  70
    32
  0
VERTEX
  8
┌▓È_1
  5
96E
 10
-256.350
 20
-295.279
 30
0.000000
  70
    32
  0
VERTEX
  8
┌▓È_1
  5
96F
 10
-256.285
 20
-295.372
 30
0.000000
  70
    32
  0
VERTEX
  8
┌▓È_1
  5
970
 10
-256.218
 20
-295.461
 30
0.000000
  70
    32
  0
VERTEX
  8
┌▓È_1
  5
971
 10
-256.147
 20
-295.546
 30
0.000000
  70
    32
  0
VERTEX
  8
┌▓È_1
  5
972
 10
-256.072
 20
-295.626
 30
0.000000
  70
    32
  0
VERTEX
  8
┌▓È_1
  5
973
 10
-255.995
 20
-295.701
 30
0.000000
  70
    32
  0
VERTEX
  8
┌▓È_1
  5
974
 10
-255.915
 20
-295.772
 30
0.000000
  70
    32
  0
VERTEX
  8
┌▓È_1
  5
975
 10
-255.832
 20
-295.838
 30
0.000000
  70
    32
  0
VERTEX
  8
┌▓È_1
  5
976
 10
-255.746
 20
-295.898
 30
0.000000
  70
    32
  0
VERTEX
  8
┌▓È_1
  5
977
 10
-255.659
 20
-295.953
 30
0.000000
  70
    32
  0
VERTEX
  8
┌▓È_1
  5
978
 10
-255.569
 20
-296.003
 30
0.000000
  70
    32
  0
VERTEX
  8
┌▓È_1
  5
979
 10
-255.477
 20
-296.047
 30
0.000000
  70
    32
  0
VERTEX
  8
┌▓È_1
  5
97A
 10
-255.384
 20
-296.086
 30
0.000000
  70
    32
  0
VERTEX
  8
┌▓È_1
  5
97B
 10
-255.290
 20
-296.118
 30
0.000000
  70
    32
  0
VERTEX
  8
┌▓È_1
  5
97C
 10
-255.194
 20
-296.145
 30
0.000000
  70
    32
  0
VERTEX
  8
┌▓È_1
  5
97D
 10
-255.097
 20
-296.166
 30
0.000000
  70
    32
  0
VERTEX
  8
┌▓È_1
  5
97E
 10
-255.000
 20
-296.181
 30
0.000000
  70
    32
  0
VERTEX
  8
┌▓È_1
  5
97F
 10
-254.902
 20
-296.190
 30
0.000000
  70
    32
  0
VERTEX
  8
┌▓È_1
  5
980
 10
-254.804
 20
-296.193
 30
0.000000
  70
    32
  0
VERTEX
  8
┌▓È_1
  5
981
 10
-254.705
 20
-296.190
 30
0.000000
  70
    32
  0
VERTEX
  8
┌▓È_1
  5
982
 10
-254.608
 20
-296.181
 30
0.000000
  70
    32
  0
VERTEX
  8
┌▓È_1
  5
983
 10
-254.510
 20
-296.166
 30
0.000000
  70
    32
  0
VERTEX
  8
┌▓È_1
  5
984
 10
-254.413
 20
-296.145
 30
0.000000
  70
    32
  0
VERTEX
  8
┌▓È_1
  5
985
 10
-254.318
 20
-296.118
 30
0.000000
  70
    32
  0
VERTEX
  8
┌▓È_1
  5
986
 10
-254.223
 20
-296.086
 30
0.000000
  70
    32
  0
VERTEX
  8
┌▓È_1
  5
987
 10
-254.130
 20
-296.047
 30
0.000000
  70
    32
  0
VERTEX
  8
┌▓È_1
  5
988
 10
-254.038
 20
-296.003
 30
0.000000
  70
    32
  0
VERTEX
  8
┌▓È_1
  5
989
 10
-253.948
 20
-295.953
 30
0.000000
  70
    32
  0
VERTEX
  8
┌▓È_1
  5
98A
 10
-253.861
 20
-295.898
 30
0.000000
  70
    32
  0
VERTEX
  8
┌▓È_1
  5
98B
 10
-253.775
 20
-295.838
 30
0.000000
  70
    32
  0
VERTEX
  8
┌▓È_1
  5
98C
 10
-253.692
 20
-295.772
 30
0.000000
  70
    32
  0
VERTEX
  8
┌▓È_1
  5
98D
 10
-253.612
 20
-295.701
 30
0.000000
  70
    32
  0
VERTEX
  8
┌▓È_1
  5
98E
 10
-253.535
 20
-295.626
 30
0.000000
  70
    32
  0
VERTEX
  8
┌▓È_1
  5
98F
 10
-253.460
 20
-295.546
 30
0.000000
  70
    32
  0
VERTEX
  8
┌▓È_1
  5
990
 10
-253.389
 20
-295.461
 30
0.000000
  70
    32
  0
VERTEX
  8
┌▓È_1
  5
991
 10
-253.322
 20
-295.372
 30
0.000000
  70
    32
  0
VERTEX
  8
┌▓È_1
  5
992
 10
-253.258
 20
-295.279
 30
0.000000
  70
    32
  0
VERTEX
  8
┌▓È_1
  5
993
 10
-253.197
 20
-295.183
 30
0.000000
  70
    32
  0
VERTEX
  8
┌▓È_1
  5
994
 10
-253.141
 20
-295.082
 30
0.000000
  70
    32
  0
VERTEX
  8
┌▓È_1
  5
995
 10
-253.088
 20
-294.979
 30
0.000000
  70
    32
  0
VERTEX
  8
┌▓È_1
  5
996
 10
-253.040
 20
-294.872
 30
0.000000
  70
    32
  0
VERTEX
  8
┌▓È_1
  5
997
 10
-252.996
 20
-294.762
 30
0.000000
  70
    32
  0
VERTEX
  8
┌▓È_1
  5
998
 10
-252.956
 20
-294.650
 30
0.000000
  70
    32
  0
VERTEX
  8
┌▓È_1
  5
999
 10
-252.920
 20
-294.536
 30
0.000000
  70
    32
  0
VERTEX
  8
┌▓È_1
  5
99A
 10
-252.890
 20
-294.419
 30
0.000000
  70
    32
  0
VERTEX
  8
┌▓È_1
  5
99B
 10
-252.864
 20
-294.301
 30
0.000000
  70
    32
  0
VERTEX
  8
┌▓È_1
  5
99C
 10
-252.842
 20
-294.181
 30
0.000000
  70
    32
  0
VERTEX
  8
┌▓È_1
  5
99D
 10
-252.825
 20
-294.060
 30
0.000000
  70
    32
  0
VERTEX
  8
┌▓È_1
  5
99E
 10
-252.813
 20
-293.938
 30
0.000000
  70
    32
  0
VERTEX
  8
┌▓È_1
  5
99F
 10
-252.806
 20
-293.816
 30
0.000000
  70
    32
  0
VERTEX
  8
┌▓È_1
  5
9A0
 10
-252.804
 20
-293.693
 30
0.000000
  70
    32
  0
VERTEX
  8
┌▓È_1
  5
9A1
 10
-252.806
 20
-293.571
 30
0.000000
  70
    32
  0
VERTEX
  8
┌▓È_1
  5
9A2
 10
-252.813
 20
-293.448
 30
0.000000
  70
    32
  0
VERTEX
  8
┌▓È_1
  5
9A3
 10
-252.825
 20
-293.327
 30
0.000000
  70
    32
  0
VERTEX
  8
┌▓È_1
  5
9A4
 10
-252.842
 20
-293.206
 30
0.000000
  70
    32
  0
VERTEX
  8
┌▓È_1
  5
9A5
 10
-252.864
 20
-293.086
 30
0.000000
  70
    32
  0
VERTEX
  8
┌▓È_1
  5
9A6
 10
-252.890
 20
-292.968
 30
0.000000
  70
    32
  0
VERTEX
  8
┌▓È_1
  5
9A7
 10
-252.920
 20
-292.851
 30
0.000000
  70
    32
  0
VERTEX
  8
┌▓È_1
  5
9A8
 10
-252.956
 20
-292.737
 30
0.000000
  70
    32
  0
VERTEX
  8
┌▓È_1
  5
9A9
 10
-252.996
 20
-292.624
 30
0.000000
  70
    32
  0
VERTEX
  8
┌▓È_1
  5
9AA
 10
-253.040
 20
-292.515
 30
0.000000
  70
    32
  0
VERTEX
  8
┌▓È_1
  5
9AB
 10
-253.088
 20
-292.408
 30
0.000000
  70
    32
  0
VERTEX
  8
┌▓È_1
  5
9AC
 10
-253.141
 20
-292.304
 30
0.000000
  70
    32
  0
VERTEX
  8
┌▓È_1
  5
9AD
 10
-253.197
 20
-292.204
 30
0.000000
  70
    32
  0
VERTEX
  8
┌▓È_1
  5
9AE
 10
-253.258
 20
-292.107
 30
0.000000
  70
    32
  0
VERTEX
  8
┌▓È_1
  5
9AF
 10
-253.322
 20
-292.014
 30
0.000000
  70
    32
  0
VERTEX
  8
┌▓È_1
  5
9B0
 10
-253.389
 20
-291.926
 30
0.000000
  70
    32
  0
VERTEX
  8
┌▓È_1
  5
9B1
 10
-253.460
 20
-291.841
 30
0.000000
  70
    32
  0
VERTEX
  8
┌▓È_1
  5
9B2
 10
-253.535
 20
-291.761
 30
0.000000
  70
    32
  0
VERTEX
  8
┌▓È_1
  5
9B3
 10
-253.612
 20
-291.685
 30
0.000000
  70
    32
  0
VERTEX
  8
┌▓È_1
  5
9B4
 10
-253.692
 20
-291.615
 30
0.000000
  70
    32
  0
VERTEX
  8
┌▓È_1
  5
9B5
 10
-253.775
 20
-291.549
 30
0.000000
  70
    32
  0
VERTEX
  8
┌▓È_1
  5
9B6
 10
-253.861
 20
-291.489
 30
0.000000
  70
    32
  0
VERTEX
  8
┌▓È_1
  5
9B7
 10
-253.948
 20
-291.433
 30
0.000000
  70
    32
  0
VERTEX
  8
┌▓È_1
  5
9B8
 10
-254.038
 20
-291.384
 30
0.000000
  70
    32
  0
VERTEX
  8
┌▓È_1
  5
9B9
 10
-254.130
 20
-291.339
 30
0.000000
  70
    32
  0
VERTEX
  8
┌▓È_1
  5
9BA
 10
-254.223
 20
-291.301
 30
0.000000
  70
    32
  0
VERTEX
  8
┌▓È_1
  5
9BB
 10
-254.318
 20
-291.268
 30
0.000000
  70
    32
  0
VERTEX
  8
┌▓È_1
  5
9BC
 10
-254.413
 20
-291.241
 30
0.000000
  70
    32
  0
VERTEX
  8
┌▓È_1
  5
9BD
 10
-254.510
 20
-291.220
 30
0.000000
  70
    32
  0
VERTEX
  8
┌▓È_1
  5
9BE
 10
-254.608
 20
-291.205
 30
0.000000
  70
    32
  0
VERTEX
  8
┌▓È_1
  5
9BF
 10
-254.705
 20
-291.196
 30
0.000000
  70
    32
  0
VERTEX
  8
┌▓È_1
  5
9C0
 10
-254.804
 20
-291.193
 30
0.000000
  70
    32
  0
VERTEX
  8
┌▓È_1
  5
9C1
 10
-254.902
 20
-291.196
 30
0.000000
  70
    32
  0
VERTEX
  8
┌▓È_1
  5
9C2
 10
-255.000
 20
-291.205
 30
0.000000
  70
    32
  0
VERTEX
  8
┌▓È_1
  5
9C3
 10
-255.097
 20
-291.220
 30
0.000000
  70
    32
  0
VERTEX
  8
┌▓È_1
  5
9C4
 10
-255.194
 20
-291.241
 30
0.000000
  70
    32
  0
VERTEX
  8
┌▓È_1
  5
9C5
 10
-255.290
 20
-291.268
 30
0.000000
  70
    32
  0
VERTEX
  8
┌▓È_1
  5
9C6
 10
-255.384
 20
-291.301
 30
0.000000
  70
    32
  0
VERTEX
  8
┌▓È_1
  5
9C7
 10
-255.477
 20
-291.339
 30
0.000000
  70
    32
  0
VERTEX
  8
┌▓È_1
  5
9C8
 10
-255.569
 20
-291.384
 30
0.000000
  70
    32
  0
VERTEX
  8
┌▓È_1
  5
9C9
 10
-255.659
 20
-291.433
 30
0.000000
  70
    32
  0
VERTEX
  8
┌▓È_1
  5
9CA
 10
-255.746
 20
-291.489
 30
0.000000
  70
    32
  0
VERTEX
  8
┌▓È_1
  5
9CB
 10
-255.832
 20
-291.549
 30
0.000000
  70
    32
  0
VERTEX
  8
┌▓È_1
  5
9CC
 10
-255.915
 20
-291.615
 30
0.000000
  70
    32
  0
VERTEX
  8
┌▓È_1
  5
9CD
 10
-255.995
 20
-291.685
 30
0.000000
  70
    32
  0
VERTEX
  8
┌▓È_1
  5
9CE
 10
-256.072
 20
-291.761
 30
0.000000
  70
    32
  0
VERTEX
  8
┌▓È_1
  5
9CF
 10
-256.147
 20
-291.841
 30
0.000000
  70
    32
  0
VERTEX
  8
┌▓È_1
  5
9D0
 10
-256.218
 20
-291.926
 30
0.000000
  70
    32
  0
VERTEX
  8
┌▓È_1
  5
9D1
 10
-256.285
 20
-292.014
 30
0.000000
  70
    32
  0
VERTEX
  8
┌▓È_1
  5
9D2
 10
-256.350
 20
-292.107
 30
0.000000
  70
    32
  0
VERTEX
  8
┌▓È_1
  5
9D3
 10
-256.410
 20
-292.204
 30
0.000000
  70
    32
  0
VERTEX
  8
┌▓È_1
  5
9D4
 10
-256.467
 20
-292.304
 30
0.000000
  70
    32
  0
VERTEX
  8
┌▓È_1
  5
9D5
 10
-256.519
 20
-292.408
 30
0.000000
  70
    32
  0
VERTEX
  8
┌▓È_1
  5
9D6
 10
-256.567
 20
-292.515
 30
0.000000
  70
    32
  0
VERTEX
  8
┌▓È_1
  5
9D7
 10
-256.612
 20
-292.624
 30
0.000000
  70
    32
  0
VERTEX
  8
┌▓È_1
  5
9D8
 10
-256.651
 20
-292.737
 30
0.000000
  70
    32
  0
VERTEX
  8
┌▓È_1
  5
9D9
 10
-256.687
 20
-292.851
 30
0.000000
  70
    32
  0
VERTEX
  8
┌▓È_1
  5
9DA
 10
-256.717
 20
-292.968
 30
0.000000
  70
    32
  0
VERTEX
  8
┌▓È_1
  5
9DB
 10
-256.744
 20
-293.086
 30
0.000000
  70
    32
  0
VERTEX
  8
┌▓È_1
  5
9DC
 10
-256.765
 20
-293.206
 30
0.000000
  70
    32
  0
VERTEX
  8
┌▓È_1
  5
9DD
 10
-256.782
 20
-293.327
 30
0.000000
  70
    32
  0
VERTEX
  8
┌▓È_1
  5
9DE
 10
-256.794
 20
-293.448
 30
0.000000
  70
    32
  0
VERTEX
  8
┌▓È_1
  5
9DF
 10
-256.801
 20
-293.571
 30
0.000000
  70
    32
  0
VERTEX
  8
┌▓È_1
  5
9E0
 10
-256.804
 20
-293.693
 30
0.000000
  70
    32
  0
SEQEND
  8
┌▓È_1
  5
9E1
  0
LINE
  5
2BC
  8
┌▓È_1
 62
     5
 10
-109.5535809517
 20
-301.193359375
 30
0.0
 11
-246.3535809517
 21
-301.193359375
 31
0.0
  0
LINE
  5
2BD
  8
┌▓È_1
 62
     5
 10
-109.3384611724
 20
185.60256309810001
 30
0.0
 11
-244.80358095170001
 21
185.60256309810001
 31
0.0
  0
LINE
  5
2BE
  8
┌▓È_1
 62
     5
 10
-109.5535809517
 20
175.60256309810001
 30
0.0
 11
-244.80358095170001
 21
175.60256309810001
 31
0.0
  0
LINE
  5
2BF
  8
┌▓È_1
 62
     5
 10
-109.5535809517
 20
145.58447282329999
 30
0.0
 11
-244.80358095170001
 21
145.58447282329999
 31
0.0
  0
LINE
  5
2C0
  8
┌▓È_1
 62
     5
 10
-244.80358095170001
 20
135.58447282329999
 30
0.0
 11
-109.5535809517
 21
135.58447282329999
 31
0.0
  0
LINE
  5
2C1
  8
┌▓È_1
 62
     5
 10
-109.5535809517
 20
105.60256309810001
 30
0.0
 11
-244.80358095170001
 21
105.60256309810001
 31
0.0
  0
LINE
  5
2C2
  8
┌▓È_1
 62
     5
 10
-109.5535809517
 20
95.620653372899994
 30
0.0
 11
-244.80358095170001
 21
95.620653372899994
 31
0.0
  0
LINE
  5
2C3
  8
┌▓È_1
 62
     5
 10
-109.5535809517
 20
65.602563098100006
 30
0.0
 11
-244.80358095170001
 21
65.602563098100006
 31
0.0
  0
LINE
  5
2C4
  8
┌▓È_1
 62
     5
 10
-109.5535809517
 20
55.620653372900001
 30
0.0
 11
-244.80358095170001
 21
55.620653372900001
 31
0.0
  0
LINE
  5
2C5
  8
┌▓È_1
 62
     5
 10
-109.5535809517
 20
25.602563098099999
 30
0.0
 11
-244.80358095170001
 21
25.602563098099999
 31
0.0
  0
LINE
  5
2C6
  8
┌▓È_1
 62
     5
 10
-109.5535809517
 20
15.6753226899
 30
0.0
 11
-244.80358095170001
 21
15.6753226899
 31
0.0
  0
LINE
  5
2C7
  8
┌▓È_1
 62
     5
 10
-109.5535809517
 20
-14.397436901900001
 30
0.0
 11
-244.80358095170001
 21
-14.397436901900001
 31
0.0
  0
LINE
  5
2C8
  8
┌▓È_1
 62
     5
 10
-109.3384611724
 20
-24.397436901900001
 30
0.0
 11
-244.80358095170001
 21
-24.397436901900001
 31
0.0
  0
INSERT
  5
2C9
  8
0
  6
CONTINUOUS
  2
*U29
 10
0.0
 20
0.0
 30
0.0
  0
INSERT
  5
2CA
  8
0
  6
CONTINUOUS
  2
*U30
 10
0.0
 20
0.0
 30
0.0
  0
INSERT
  5
2CB
  8
0
  6
CONTINUOUS
  2
*U31
 10
0.0
 20
0.0
 30
0.0
  0
INSERT
  5
2CC
  8
0
  6
CONTINUOUS
  2
*U32
 10
0.0
 20
0.0
 30
0.0
  0
INSERT
  5
2CD
  8
0
  6
CONTINUOUS
  2
*U33
 10
0.0
 20
0.0
 30
0.0
  0
INSERT
  5
2CE
  8
0
  6
CONTINUOUS
  2
*U34
 10
0.0
 20
0.0
 30
0.0
  0
INSERT
  5
2CF
  8
0
  6
CONTINUOUS
  2
*U35
 10
0.0
 20
0.0
 30
0.0
  0
INSERT
  5
2D0
  8
0
  6
CONTINUOUS
  2
*U36
 10
0.0
 20
0.0
 30
0.0
  0
INSERT
  5
2D1
  8
0
  6
CONTINUOUS
  2
*U37
 10
0.0
 20
0.0
 30
0.0
  0
INSERT
  5
2D2
  8
0
  6
CONTINUOUS
  2
*U38
 10
0.0
 20
0.0
 30
0.0
  0
INSERT
  5
2D3
  8
0
  6
CONTINUOUS
  2
*U39
 10
0.0
 20
0.0
 30
0.0
  0
LINE
  5
2D4
  8
┌▓È_1
 62
     5
 10
262.63463541670001
 20
-262.89335937499999
 30
0.0
 11
442.68346354170001
 21
-262.89335937499999
 31
0.0
  0
LINE
  5
2D5
  8
┌▓È_1
 62
     5
 10
173.44641904829999
 20
185.60256309810001
 30
0.0
 11
45.196419048300001
 21
185.60256309810001
 31
0.0
  0
LINE
  5
2D6
  8
┌▓È_1
 62
     5
 10
173.44641904829999
 20
175.60256309810001
 30
0.0
 11
45.196419048300001
 21
175.60256309810001
 31
0.0
  0
LINE
  5
2D7
  8
┌▓È_1
 62
     5
 10
173.44641904829999
 20
145.58447282329999
 30
0.0
 11
45.196419048300001
 21
145.58447282329999
 31
0.0
  0
LINE
  5
2D8
  8
┌▓È_1
 62
     5
 10
173.44641904829999
 20
15.6753226899
 30
0.0
 11
45.196419048300001
 21
15.6753226899
 31
0.0
  0
LINE
  5
2D9
  8
┌▓È_1
 62
     5
 10
45.196419048300001
 20
135.58447282329999
 30
0.0
 11
173.44641904829999
 21
135.58447282329999
 31
0.0
  0
LINE
  5
2DA
  8
┌▓È_1
 62
     5
 10
173.44641904829999
 20
105.60256309810001
 30
0.0
 11
45.196419048300001
 21
105.60256309810001
 31
0.0
  0
LINE
  5
2DB
  8
┌▓È_1
 62
     5
 10
173.44641904829999
 20
95.620653372899994
 30
0.0
 11
45.196419048300001
 21
95.620653372899994
 31
0.0
  0
LINE
  5
2DC
  8
┌▓È_1
 62
     5
 10
173.44641904829999
 20
65.602563098100006
 30
0.0
 11
45.196419048300001
 21
65.602563098100006
 31
0.0
  0
LINE
  5
2DD
  8
┌▓È_1
 62
     5
 10
173.44641904829999
 20
55.620653372900001
 30
0.0
 11
45.196419048300001
 21
55.620653372900001
 31
0.0
  0
LINE
  5
2DE
  8
┌▓È_1
 62
     5
 10
173.44641904829999
 20
25.602563098099999
 30
0.0
 11
45.196419048300001
 21
25.602563098099999
 31
0.0
  0
LINE
  5
2DF
  8
┌▓È_1
 62
     5
 10
173.44641904829999
 20
-14.397436901900001
 30
0.0
 11
45.196419048300001
 21
-14.397436901900001
 31
0.0
  0
LINE
  5
2E0
  8
┌▓È_1
 62
     5
 10
173.44641904829999
 20
-24.397436901900001
 30
0.0
 11
45.196419048300001
 21
-24.397436901900001
 31
0.0
  0
LINE
  5
2E1
  8
┌▓È_1
 62
     5
 10
173.54641904830001
 20
-291.193359375
 30
0.0
 11
45.196419048300001
 21
-291.193359375
 31
0.0
  0
DIMENSION
  5
2EF
  8
Éíû@É³
 62
     5
  2
*D13
 10
-404.80358095169993
 20
-151.2430805887
 30
0.0
 11
-104.8035809517
 21
-151.2430805887
 31
0.0
 70
   128
 13
-404.80358095169993
 23
-201.89335937499999
 33
0.0
 14
195.19641904829999
 24
-201.89335937499999
 34
0.0
 50
180.0
  0
DIMENSION
  5
2FD
  8
Éíû@É³
 62
     5
  2
*D14
 10
175.19641904829999
 20
-171.89335937499999
 30
0.0
 11
-104.8035809517
 21
-171.89335937499999
 31
0.0
 70
   128
 13
175.19641904829999
 23
-201.89335937499999
 33
0.0
 14
-384.80358095169998
 24
-201.89335937499999
 34
0.0
  0
DIMENSION
  5
30C
  8
Éíû@É³
 62
     5
  2
*D15
 10
-394.80358095169998
 20
-360.42714843750002
 30
0.0
 11
-104.8035809517
 21
-360.42714843750002
 31
0.0
 70
   128
 13
-394.80358095169998
 23
-330.42714843750002
 33
0.0
 14
185.19641904829999
 24
-330.42714843750002
 34
0.0
 50
180.0
  0
LINE
  5
30D
  8
┌▓È_1
 62
     5
 10
173.54641904830001
 20
-301.193359375
 30
0.0
 11
45.196419048300001
 21
-301.193359375
 31
0.0
  0
LINE
  5
30E
  8
┌▓È_1
 10
587.85084635420003
 20
305.96291232639999
 30
0.0
 11
-508.3675130208
 21
305.96291232639999
 31
0.0
  0
LINE
  5
30F
  8
┌▓È_1
 10
137.8508463542
 20
-493.34333767359988
 30
0.0
 11
-508.3675130208
 21
-493.34333767359988
 31
0.0
  0
INSERT
  5
311
  8
Éíû@É³
 62
     5
  2
BALLON0
 10
0.0
 20
0.0
 30
0.0
  0
LINE
  5
31A
  8
┌▓È_1
 10
-508.3675130208
 20
-493.34333767359988
 30
0.0
 11
-508.3675130208
 21
305.96291232639999
 31
0.0
  0
INSERT
  5
31C
  8
Éíû@É³
 62
     5
  2
BALLON1
 10
0.0
 20
0.0
 30
0.0
  0
INSERT
  5
326
  8
Éíû@É³
 62
     5
  2
BALLON2
 10
0.0
 20
0.0
 30
0.0
  0
LINE
  5
32F
  8
┌▓È_1
 10
587.85084635420003
 20
-394.34333767359999
 30
0.0
 11
587.85084635420003
 21
305.96291232639999
 31
0.0
  0
LINE
  5
330
  8
┌▓È_1
 62
     5
 10
-109.5535809517
 20
-291.193359375
 30
0.0
 11
-246.3535809517
 21
-291.193359375
 31
0.0
  0
ENDSEC
  0
EOF
