  0
SECTION
  2
HEADER
  9
$ACADVER
  1
AC1009
  9
$INSBASE
 10
0.0
 20
0.0
 30
0.0
  9
$EXTMIN
 10
480.82404766252972
 20
-735.4534040112012
 30
-6.6004028012980731
  9
$EXTMAX
 10
1193.0582020347781
 20
294.00205784956052
 30
6.600402862765363
  9
$LIMMIN
 10
0.0
 20
0.0
  9
$LIMMAX
 10
0.0
 20
0.0
  9
$ORTHOMODE
 70
     0
  9
$REGENMODE
 70
     1
  9
$FILLMODE
 70
     1
  9
$QTEXTMODE
 70
     0
  9
$MIRRTEXT
 70
     1
  9
$DRAGMODE
 70
     2
  9
$LTSCALE
 40
1.0
  9
$OSMODE
 70
    31
  9
$ATTMODE
 70
     1
  9
$TEXTSIZE
 40
0.0
  9
$TRACEWID
 40
0.05
  9
$TEXTSTYLE
  7
STANDARD
  9
$CLAYER
  8
0
  9
$CELTYPE
  6
CONTINUOUS
  9
$CECOLOR
 62
   256
  9
$DIMSCALE
 40
1.0
  9
$DIMASZ
 40
0.18
  9
$DIMEXO
 40
0.0625
  9
$DIMDLI
 40
0.38
  9
$DIMRND
 40
0.0
  9
$DIMDLE
 40
0.0
  9
$DIMEXE
 40
0.18
  9
$DIMTP
 40
0.0
  9
$DIMTM
 40
0.0
  9
$DIMTXT
 40
0.18
  9
$DIMCEN
 40
0.09
  9
$DIMTSZ
 40
0.0
  9
$DIMTOL
 70
     0
  9
$DIMLIM
 70
     0
  9
$DIMTIH
 70
     1
  9
$DIMTOH
 70
     1
  9
$DIMSE1
 70
     0
  9
$DIMSE2
 70
     0
  9
$DIMTAD
 70
     0
  9
$DIMZIN
 70
     0
  9
$DIMBLK
  1

  9
$DIMASO
 70
     1
  9
$DIMSHO
 70
     1
  9
$DIMPOST
  1

  9
$DIMAPOST
  1

  9
$DIMALT
 70
     0
  9
$DIMALTD
 70
     2
  9
$DIMALTF
 40
25.399999999999999
  9
$DIMLFAC
 40
1.0
  9
$DIMTOFL
 70
     0
  9
$DIMTVP
 40
0.0
  9
$DIMTIX
 70
     0
  9
$DIMSOXD
 70
     0
  9
$DIMSAH
 70
     0
  9
$DIMBLK1
  1

  9
$DIMBLK2
  1

  9
$DIMSTYLE
  2
STANDARD
  9
$DIMCLRD
 70
     0
  9
$DIMCLRE
 70
     0
  9
$DIMCLRT
 70
     0
  9
$DIMTFAC
 40
1.0
  9
$DIMGAP
 40
0.09
  9
$LUNITS
 70
     2
  9
$LUPREC
 70
     4
  9
$SKETCHINC
 40
0.1
  9
$FILLETRAD
 40
0.0
  9
$AUNITS
 70
     0
  9
$AUPREC
 70
     0
  9
$MENU
  1
acad
  9
$ELEVATION
 40
0.0
  9
$PELEVATION
 40
0.0
  9
$THICKNESS
 40
0.0
  9
$LIMCHECK
 70
     0
  9
$BLIPMODE
 70
     0
  9
$CHAMFERA
 40
0.0
  9
$CHAMFERB
 40
0.0
  9
$SKPOLY
 70
     0
  9
$TDCREATE
 40
2454860.7182414592
  9
$TDUPDATE
 40
2454860.7185590281
  9
$TDINDWG
 40
0.000348125
  9
$TDUSRTIMER
 40
0.0003477662
  9
$USRTIMER
 70
     1
  9
$ANGBASE
 50
0.0
  9
$ANGDIR
 70
     0
  9
$PDMODE
 70
     3
  9
$PDSIZE
 40
-1.0
  9
$PLINEWID
 40
0.0
  9
$COORDS
 70
     2
  9
$SPLFRAME
 70
     0
  9
$SPLINETYPE
 70
     6
  9
$SPLINESEGS
 70
     8
  9
$ATTDIA
 70
     0
  9
$ATTREQ
 70
     1
  9
$HANDLING
 70
     1
  9
$HANDSEED
  5
9A3
  9
$SURFTAB1
 70
     6
  9
$SURFTAB2
 70
     6
  9
$SURFTYPE
 70
     6
  9
$SURFU
 70
     6
  9
$SURFV
 70
     6
  9
$UCSNAME
  2

  9
$UCSORG
 10
0.0
 20
0.0
 30
0.0
  9
$UCSXDIR
 10
1.0
 20
0.0
 30
0.0
  9
$UCSYDIR
 10
0.0
 20
1.0
 30
0.0
  9
$PUCSNAME
  2

  9
$PUCSORG
 10
0.0
 20
0.0
 30
0.0
  9
$PUCSXDIR
 10
1.0
 20
0.0
 30
0.0
  9
$PUCSYDIR
 10
0.0
 20
1.0
 30
0.0
  9
$USERI1
 70
     0
  9
$USERI2
 70
     0
  9
$USERI3
 70
     0
  9
$USERI4
 70
     0
  9
$USERI5
 70
     0
  9
$USERR1
 40
0.0
  9
$USERR2
 40
0.0
  9
$USERR3
 40
0.0
  9
$USERR4
 40
0.0
  9
$USERR5
 40
0.0
  9
$WORLDVIEW
 70
     1
  9
$SHADEDGE
 70
     3
  9
$SHADEDIF
 70
    70
  9
$TILEMODE
 70
     1
  9
$MAXACTVP
 70
    16
  9
$PLIMCHECK
 70
     0
  9
$PEXTMIN
 10
1.0000000000000000E+020
 20
1.0000000000000000E+020
 30
1.0000000000000000E+020
  9
$PEXTMAX
 10
-1.0000000000000000E+020
 20
-1.0000000000000000E+020
 30
-1.0000000000000000E+020
  9
$PLIMMIN
 10
0.0
 20
0.0
  9
$PLIMMAX
 10
12.0
 20
9.0
  9
$UNITMODE
 70
     0
  9
$VISRETAIN
 70
     0
  9
$PLINEGEN
 70
     1
  9
$PSLTSCALE
 70
     0
  0
ENDSEC
  0
SECTION
  2
TABLES
  0
TABLE
  2
VPORT
 70
     2
  0
VPORT
  2
*ACTIVE
 70
     0
 10
0.0
 20
0.0
 11
1.0
 21
1.0
 12
836.94112484865389
 22
-220.72567308082029
 13
0.0
 23
0.0
 14
1.0
 24
1.0
 15
0.0
 25
0.0
 16
0.0
 26
0.0
 36
1.0
 17
0.0
 27
0.0
 37
0.0
 40
1037.998660714378
 41
1.6343490304709141
 42
50.0
 43
0.0
 44
0.0
 50
0.0
 51
0.0
 71
     0
 72
   100
 73
     1
 74
     1
 75
     0
 76
     0
 77
     0
 78
     0
  0
ENDTAB
  0
TABLE
  2
LTYPE
 70
    11
  0
LTYPE
  2
CONTINUOUS
 70
     0
  3
Solid line
 72
    65
 73
     0
 40
0.0
  0
LTYPE
  2
DOT
 70
     0
  3
. . . . . . . . 
 72
    65
 73
     2
 40
1.0
 49
0.0
 49
-1.0
  0
LTYPE
  2
DASHED
 70
     0
  3
___  ___  ___  ___  
 72
    65
 73
     2
 40
4.0
 49
3.0
 49
-1.0
  0
LTYPE
  2
HIDDEN
 70
     0
  3
__ __ __ __ 
 72
    65
 73
     2
 40
3.0
 49
2.0
 49
-1.0
  0
LTYPE
  2
STITCH
 70
     0
  3
_ _ _ _ 
 72
    65
 73
     2
 40
2.0
 49
1.0
 49
-1.0
  0
LTYPE
  2
CENTER
 70
     0
  3
______  __  ______  __  
 72
    65
 73
     4
 40
43.0
 49
40.0
 49
-1.0
 49
1.0
 49
-1.0
  0
LTYPE
  2
DASHDOT
 70
     0
  3
____ . ____ . 
 72
    65
 73
     4
 40
32.0
 49
30.0
 49
-1.0
 49
0.0
 49
-1.0
  0
LTYPE
  2
BORDER
 70
     0
  3
__ . __ . 
 72
    65
 73
     4
 40
22.0
 49
20.0
 49
-1.0
 49
0.0
 49
-1.0
  0
LTYPE
  2
CUTTING
 70
     0
  3
________   ___   ___   
 72
    65
 73
     6
 40
45.0
 49
40.0
 49
-1.0
 49
1.0
 49
-1.0
 49
1.0
 49
-1.0
  0
LTYPE
  2
PHANTOM
 70
     0
  3
______  __  __  
 72
    65
 73
     6
 40
35.0
 49
30.0
 49
-1.0
 49
1.0
 49
-1.0
 49
1.0
 49
-1.0
  0
LTYPE
  2
DIVIDE
 70
     0
  3
____ . . ____ . . 
 72
    65
 73
     6
 40
23.0
 49
20.0
 49
-1.0
 49
0.0
 49
-1.0
 49
0.0
 49
-1.0
  0
ENDTAB
  0
TABLE
  2
LAYER
 70
     6
  0
LAYER
  2
0
 70
     0
 62
     7
  6
CONTINUOUS
  0
LAYER
  2
ﾚｲﾔ_1
 70
     0
 62
     7
  6
CONTINUOUS
  0
LAYER
  2
図枠
 70
     0
 62
     7
  6
CONTINUOUS
  0
LAYER
  2
寸法線
 70
     0
 62
     7
  6
CONTINUOUS
  0
LAYER
  2
CONSTRUCTION
 70
     0
 62
     7
  6
CONTINUOUS
  0
LAYER
  2
改訂
 70
     0
 62
     7
  6
CONTINUOUS
  0
ENDTAB
  0
TABLE
  2
STYLE
 70
     1
  0
STYLE
  2
STANDARD
 70
     0
 40
0.0
 41
1.0
 50
0.0
 71
     0
 42
0.0
  3
txt
  4
extfont
  0
ENDTAB
  0
TABLE
  2
VIEW
 70
     0
  0
ENDTAB
  0
TABLE
  2
UCS
 70
     0
  0
ENDTAB
  0
TABLE
  2
APPID
 70
     2
  0
APPID
  2
ACAD
 70
     0
  0
APPID
  2
DCO15
 70
     0
  0
ENDTAB
  0
TABLE
  2
DIMSTYLE
 70
     2
  0
DIMSTYLE
  2
STANDARD
 70
     0
  3

  4

  5

  6

  7

 40
1.0
 41
0.18
 42
0.0625
 43
0.38
 44
0.18
 45
0.0
 46
0.0
 47
0.0
 48
0.0
140
0.18
141
0.09
142
0.0
143
25.399999999999999
144
1.0
145
0.0
146
1.0
147
0.09
 71
     0
 72
     0
 73
     1
 74
     1
 75
     0
 76
     0
 77
     0
 78
     0
170
     0
171
     2
172
     0
173
     0
174
     0
175
     0
176
     0
177
     0
178
     0
  0
DIMSTYLE
  2
VELDIM0
 70
     0
  3

  4

  5

  6

  7

 40
1.0
 41
7.5
 42
0.0625
 43
0.38
 44
0.5
 45
0.0
 46
3.0
 47
0.0
 48
0.0
140
7.4965279578999988
141
0.09
142
0.0
143
25.399999999999999
144
1.0
145
0.0
146
1.0
147
0.09
 71
     0
 72
     0
 73
     0
 74
     0
 75
     0
 76
     0
 77
     0
 78
     8
170
     0
171
     2
172
     0
173
     0
174
     0
175
     0
176
     0
177
     0
178
     0
  0
ENDTAB
  0
ENDSEC
  0
SECTION
  2
BLOCKS
  0
BLOCK
  8
0
  2
$MODEL_SPACE
 70
     0
 10
0.0
 20
0.0
 30
0.0
  3
$MODEL_SPACE
  1

  0
ENDBLK
  5
E
  8
0
  0
BLOCK
 67
     1
  8
0
  2
$PAPER_SPACE
 70
     0
 10
0.0
 20
0.0
 30
0.0
  3
$PAPER_SPACE
  1

  0
ENDBLK
  5
10
 67
     1
  8
0
  0
BLOCK
  8
0
  2
*X0
 70
     1
 10
0.0
 20
0.0
 30
0.0
  3
*X0
  1

  0
ENDBLK
  5
D8
  8
0
  0
BLOCK
  8
0
  2
*X1
 70
     1
 10
0.0
 20
0.0
 30
0.0
  3
*X1
  1

  0
ENDBLK
  5
DC
  8
0
  0
BLOCK
  8
0
  2
*X2
 70
     1
 10
0.0
 20
0.0
 30
0.0
  3
*X2
  1

  0
ENDBLK
  5
14D
  8
0
  0
BLOCK
  8
0
  2
*X3
 70
     1
 10
0.0
 20
0.0
 30
0.0
  3
*X3
  1

  0
ENDBLK
  5
151
  8
0
  0
BLOCK
  8
0
  2
BALLON0
 70
     0
 10
0.0
 20
0.0
 30
0.0
  3
BALLON0
  1

  0
INSERT
  5
1AC
  8
0
  6
CONTINUOUS
  2
*U55
 10
0.0
 20
0.0
 30
0.0
  0
CIRCLE
  5
1AD
  8
ﾚｲﾔ_1
 10
958.36152525699981
 20
-39.135589765200002
 30
0.0
 40
8.75
  0
LINE
  5
1AE
  8
寸法線
 10
972.94485859029999
 20
-39.135589765200002
 30
0.0
 11
967.11152525699993
 21
-39.135589765200002
 31
0.0
  0
LINE
  5
1AF
  8
寸法線
 10
1018.3178715885
 20
-14.815283036
 30
0.0
 11
972.94485859029999
 21
-39.135589765200002
 31
0.0
  0
SOLID
  5
1B0
  8
寸法線
 10
1018.3178715885
 20
-14.815283036
 30
0.0
 11
1011.4326052261
 21
-20.491382675600001
 31
0.0
 12
1012.1482667498
 22
-18.12224178
 32
0.0
 13
1012.1482667498
 23
-18.12224178
 33
0.0
  0
SOLID
  5
1B1
  8
寸法線
 10
1012.1482667498
 20
-18.12224178
 30
0.0
 11
1009.7791258541999
 21
-17.4065802563
 31
0.0
 12
1018.3178715885
 22
-14.815283036
 32
0.0
 13
1018.3178715885
 23
-14.815283036
 33
0.0
  0
ENDBLK
  5
1B2
  8
0
  0
BLOCK
  8
0
  2
BALLON1
 70
     0
 10
0.0
 20
0.0
 30
0.0
  3
BALLON1
  1

  0
INSERT
  5
1B6
  8
0
  6
CONTINUOUS
  2
*U56
 10
0.0
 20
0.0
 30
0.0
  0
CIRCLE
  5
1B7
  8
ﾚｲﾔ_1
 10
958.36152525699981
 20
-39.135589765200002
 30
0.0
 40
8.75
  0
LINE
  5
1B8
  8
寸法線
 10
972.94485859029999
 20
-39.135589765200002
 30
0.0
 11
967.11152525699993
 21
-39.135589765200002
 31
0.0
  0
LINE
  5
1B9
  8
寸法線
 10
1018.3178715885
 20
-14.815283036
 30
0.0
 11
972.94485859029999
 21
-39.135589765200002
 31
0.0
  0
SOLID
  5
1BA
  8
寸法線
 10
1018.3178715885
 20
-14.815283036
 30
0.0
 11
1011.4326052261
 21
-20.491382675600001
 31
0.0
 12
1012.1482667498
 22
-18.12224178
 32
0.0
 13
1012.1482667498
 23
-18.12224178
 33
0.0
  0
SOLID
  5
1BB
  8
寸法線
 10
1012.1482667498
 20
-18.12224178
 30
0.0
 11
1009.7791258541999
 21
-17.4065802563
 31
0.0
 12
1018.3178715885
 22
-14.815283036
 32
0.0
 13
1018.3178715885
 23
-14.815283036
 33
0.0
  0
ENDBLK
  5
1BC
  8
0
  0
BLOCK
  8
0
  2
BALLON2
 70
     0
 10
0.0
 20
0.0
 30
0.0
  3
BALLON2
  1

  0
INSERT
  5
1C0
  8
0
  6
CONTINUOUS
  2
*U57
 10
0.0
 20
0.0
 30
0.0
  0
CIRCLE
  5
1C1
  8
ﾚｲﾔ_1
 10
958.36152525699981
 20
-39.135589765200002
 30
0.0
 40
8.75
  0
LINE
  5
1C2
  8
寸法線
 10
972.94485859029999
 20
-39.135589765200002
 30
0.0
 11
967.11152525699993
 21
-39.135589765200002
 31
0.0
  0
LINE
  5
1C3
  8
寸法線
 10
1018.3178715885
 20
-14.815283036
 30
0.0
 11
972.94485859029999
 21
-39.135589765200002
 31
0.0
  0
SOLID
  5
1C4
  8
寸法線
 10
1018.3178715885
 20
-14.815283036
 30
0.0
 11
1011.4326052261
 21
-20.491382675600001
 31
0.0
 12
1012.1482667498
 22
-18.12224178
 32
0.0
 13
1012.1482667498
 23
-18.12224178
 33
0.0
  0
SOLID
  5
1C5
  8
寸法線
 10
1012.1482667498
 20
-18.12224178
 30
0.0
 11
1009.7791258541999
 21
-17.4065802563
 31
0.0
 12
1018.3178715885
 22
-14.815283036
 32
0.0
 13
1018.3178715885
 23
-14.815283036
 33
0.0
  0
ENDBLK
  5
1C6
  8
0
  0
BLOCK
  8
0
  2
BALLON3
 70
     0
 10
0.0
 20
0.0
 30
0.0
  3
BALLON3
  1

  0
INSERT
  5
1CA
  8
0
  6
CONTINUOUS
  2
*U58
 10
0.0
 20
0.0
 30
0.0
  0
CIRCLE
  5
1CB
  8
ﾚｲﾔ_1
 10
958.36152525699981
 20
-39.135589765200002
 30
0.0
 40
8.75
  0
LINE
  5
1CC
  8
寸法線
 10
972.94485859029999
 20
-39.135589765200002
 30
0.0
 11
967.11152525699993
 21
-39.135589765200002
 31
0.0
  0
LINE
  5
1CD
  8
寸法線
 10
1018.3178715885
 20
-14.815283036
 30
0.0
 11
972.94485859029999
 21
-39.135589765200002
 31
0.0
  0
SOLID
  5
1CE
  8
寸法線
 10
1018.3178715885
 20
-14.815283036
 30
0.0
 11
1011.4326052261
 21
-20.491382675600001
 31
0.0
 12
1012.1482667498
 22
-18.12224178
 32
0.0
 13
1012.1482667498
 23
-18.12224178
 33
0.0
  0
SOLID
  5
1CF
  8
寸法線
 10
1012.1482667498
 20
-18.12224178
 30
0.0
 11
1009.7791258541999
 21
-17.4065802563
 31
0.0
 12
1018.3178715885
 22
-14.815283036
 32
0.0
 13
1018.3178715885
 23
-14.815283036
 33
0.0
  0
ENDBLK
  5
1D0
  8
0
  0
BLOCK
  8
0
  2
BALLON4
 70
     0
 10
0.0
 20
0.0
 30
0.0
  3
BALLON4
  1

  0
INSERT
  5
1D9
  8
0
  6
CONTINUOUS
  2
*U59
 10
0.0
 20
0.0
 30
0.0
  0
CIRCLE
  5
1DA
  8
ﾚｲﾔ_1
 10
958.36152525699981
 20
-39.135589765200002
 30
0.0
 40
8.75
  0
LINE
  5
1DB
  8
寸法線
 10
972.94485859029999
 20
-39.135589765200002
 30
0.0
 11
967.11152525699993
 21
-39.135589765200002
 31
0.0
  0
LINE
  5
1DC
  8
寸法線
 10
1018.3178715885
 20
-14.815283036
 30
0.0
 11
972.94485859029999
 21
-39.135589765200002
 31
0.0
  0
SOLID
  5
1DD
  8
寸法線
 10
1018.3178715885
 20
-14.815283036
 30
0.0
 11
1011.4326052261
 21
-20.491382675600001
 31
0.0
 12
1012.1482667498
 22
-18.12224178
 32
0.0
 13
1012.1482667498
 23
-18.12224178
 33
0.0
  0
SOLID
  5
1DE
  8
寸法線
 10
1012.1482667498
 20
-18.12224178
 30
0.0
 11
1009.7791258541999
 21
-17.4065802563
 31
0.0
 12
1018.3178715885
 22
-14.815283036
 32
0.0
 13
1018.3178715885
 23
-14.815283036
 33
0.0
  0
ENDBLK
  5
1DF
  8
0
  0
BLOCK
  8
0
  2
BALLON5
 70
     0
 10
0.0
 20
0.0
 30
0.0
  3
BALLON5
  1

  0
INSERT
  5
1E8
  8
0
  6
CONTINUOUS
  2
*U60
 10
0.0
 20
0.0
 30
0.0
  0
CIRCLE
  5
1E9
  8
ﾚｲﾔ_1
 10
958.36152525699981
 20
-89.403212490000001
 30
0.0
 40
8.75
  0
LINE
  5
1EA
  8
寸法線
 10
972.94485859029999
 20
-89.403212490000001
 30
0.0
 11
967.11152525699993
 21
-89.403212490000001
 31
0.0
  0
LINE
  5
1EB
  8
寸法線
 10
1020.7178715885
 20
-51.815283035999997
 30
0.0
 11
972.94485859029999
 21
-89.403212490000001
 31
0.0
  0
SOLID
  5
1EC
  8
寸法線
 10
1020.7178715885
 20
-51.815283035999997
 30
0.0
 11
1014.9233362286
 21
-58.601177226399997
 31
0.0
 12
1015.2165529747
 22
-56.143734665499998
 32
0.0
 13
1015.2165529747
 23
-56.143734665499998
 33
0.0
  0
SOLID
  5
1ED
  8
寸法線
 10
1015.2165529747
 20
-56.143734665499998
 30
0.0
 11
1012.7591104139
 21
-55.8505179195
 31
0.0
 12
1020.7178715885
 22
-51.815283035999997
 32
0.0
 13
1020.7178715885
 23
-51.815283035999997
 33
0.0
  0
ENDBLK
  5
1EE
  8
0
  0
BLOCK
  8
0
  2
*X10
 70
     1
 10
0.0
 20
0.0
 30
0.0
  3
*X10
  1

  0
LINE
  5
213
  8
ﾚｲﾔ_1
 10
1040.0
 20
-35.236965443700001
 30
0.0
 11
1040.0
 21
-10.736965443700001
 31
0.0
  0
LINE
  5
214
  8
ﾚｲﾔ_1
 10
1060.0
 20
-35.236965443700001
 30
0.0
 11
1060.0
 21
-10.736965443700001
 31
0.0
  0
LINE
  5
215
  8
ﾚｲﾔ_1
 10
1080.0
 20
-35.236965443700001
 30
0.0
 11
1080.0
 21
-10.736965443700001
 31
0.0
  0
LINE
  5
216
  8
ﾚｲﾔ_1
 10
1030.0
 20
-35.236965443700001
 30
0.0
 11
1030.0
 21
-10.736965443700001
 31
0.0
  0
LINE
  5
217
  8
ﾚｲﾔ_1
 10
1050.0
 20
-35.236965443700001
 30
0.0
 11
1050.0
 21
-10.736965443700001
 31
0.0
  0
LINE
  5
218
  8
ﾚｲﾔ_1
 10
1070.0
 20
-35.236965443700001
 30
0.0
 11
1070.0
 21
-10.736965443700001
 31
0.0
  0
LINE
  5
219
  8
ﾚｲﾔ_1
 10
1025.1235231953001
 20
-14.895903201499999
 30
0.0
 11
1029.2824609531001
 21
-10.736965443700001
 31
0.0
  0
LINE
  5
21A
  8
ﾚｲﾔ_1
 10
1025.1235231953001
 20
-34.89627678610001
 30
0.0
 11
1049.2828345377
 21
-10.736965443700001
 31
0.0
  0
LINE
  5
21B
  8
ﾚｲﾔ_1
 10
1044.7832081222
 20
-35.236965443700001
 30
0.0
 11
1069.2832081222
 21
-10.736965443700001
 31
0.0
  0
LINE
  5
21C
  8
ﾚｲﾔ_1
 10
1064.7835817068001
 20
-35.236965443700001
 30
0.0
 11
1088.1235231953001
 21
-11.8970239552
 31
0.0
  0
LINE
  5
21D
  8
ﾚｲﾔ_1
 10
1084.7839552912999
 20
-35.236965443700001
 30
0.0
 11
1088.1235231953001
 21
-31.8973975398
 31
0.0
  0
LINE
  5
21E
  8
ﾚｲﾔ_1
 10
1035.2556446715
 20
-35.236965443700001
 30
0.0
 11
1025.1235231953001
 21
-25.104843967600001
 31
0.0
  0
LINE
  5
21F
  8
ﾚｲﾔ_1
 10
1055.2560182560001
 20
-35.236965443700001
 30
0.0
 11
1030.7560182560001
 21
-10.736965443700001
 31
0.0
  0
LINE
  5
220
  8
ﾚｲﾔ_1
 10
1075.2563918405999
 20
-35.236965443700001
 30
0.0
 11
1050.7563918405999
 21
-10.736965443700001
 31
0.0
  0
LINE
  5
221
  8
ﾚｲﾔ_1
 10
1088.1235231953001
 20
-28.1037232139
 30
0.0
 11
1070.7567654251
 21
-10.736965443700001
 31
0.0
  0
ENDBLK
  5
222
  8
0
  0
BLOCK
  8
0
  2
*X11
 70
     1
 10
0.0
 20
0.0
 30
0.0
  3
*X11
  1

  0
LINE
  5
226
  8
ﾚｲﾔ_1
 10
1040.0
 20
-175.48865815209999
 30
0.0
 11
1040.0
 21
-73.690220652099995
 31
0.0
  0
LINE
  5
227
  8
ﾚｲﾔ_1
 10
1030.0
 20
-175.48865815209999
 30
0.0
 11
1030.0
 21
-73.690220652099995
 31
0.0
  0
LINE
  5
228
  8
ﾚｲﾔ_1
 10
1023.66171875
 20
-76.358828400500002
 30
0.0
 11
1026.3303264983999
 21
-73.690220652099995
 31
0.0
  0
LINE
  5
229
  8
ﾚｲﾔ_1
 10
1023.66171875
 20
-96.3592019851
 30
0.0
 11
1041.96171875
 21
-78.059201985100003
 31
0.0
  0
LINE
  5
22A
  8
ﾚｲﾔ_1
 10
1023.66171875
 20
-116.3595755696
 30
0.0
 11
1041.96171875
 21
-98.059575569599986
 31
0.0
  0
LINE
  5
22B
  8
ﾚｲﾔ_1
 10
1023.66171875
 20
-136.3599491542
 30
0.0
 11
1041.96171875
 21
-118.0599491542
 31
0.0
  0
LINE
  5
22C
  8
ﾚｲﾔ_1
 10
1023.66171875
 20
-156.36032273870001
 30
0.0
 11
1041.96171875
 21
-138.06032273869999
 31
0.0
  0
LINE
  5
22D
  8
ﾚｲﾔ_1
 10
1024.5337569211999
 20
-175.48865815209999
 30
0.0
 11
1041.96171875
 21
-158.06069632329999
 31
0.0
  0
LINE
  5
22E
  8
ﾚｲﾔ_1
 10
1035.5047222879
 20
-175.48865815209999
 30
0.0
 11
1023.66171875
 21
-163.6456546142
 31
0.0
  0
LINE
  5
22F
  8
ﾚｲﾔ_1
 10
1041.96171875
 20
-161.94528102960001
 30
0.0
 11
1023.66171875
 21
-143.6452810296
 31
0.0
  0
LINE
  5
230
  8
ﾚｲﾔ_1
 10
1041.96171875
 20
-141.94490744500001
 30
0.0
 11
1023.66171875
 21
-123.644907445
 31
0.0
  0
LINE
  5
231
  8
ﾚｲﾔ_1
 10
1041.96171875
 20
-121.9445338605
 30
0.0
 11
1023.66171875
 21
-103.6445338605
 31
0.0
  0
LINE
  5
232
  8
ﾚｲﾔ_1
 10
1041.96171875
 20
-101.9441602759
 30
0.0
 11
1023.66171875
 21
-83.644160275900006
 31
0.0
  0
LINE
  5
233
  8
ﾚｲﾔ_1
 10
1041.96171875
 20
-81.943786691400007
 30
0.0
 11
1033.7081527107
 21
-73.690220652099995
 31
0.0
  0
ENDBLK
  5
234
  8
0
  0
BLOCK
  8
0
  2
*X12
 70
     1
 10
0.0
 20
0.0
 30
0.0
  3
*X12
  1

  0
LINE
  5
238
  8
ﾚｲﾔ_1
 10
1080.0
 20
-173.60350190209999
 30
0.0
 11
1080.0
 21
-40.486965443700001
 31
0.0
  0
LINE
  5
239
  8
ﾚｲﾔ_1
 10
1070.0
 20
-173.60350190209999
 30
0.0
 11
1070.0
 21
-40.486965443700001
 31
0.0
  0
LINE
  5
23A
  8
ﾚｲﾔ_1
 10
1067.4691802932
 20
-52.5517404418
 30
0.0
 11
1079.5339552912999
 21
-40.486965443700001
 31
0.0
  0
LINE
  5
23B
  8
ﾚｲﾔ_1
 10
1067.4691802932
 20
-72.552114026400005
 30
0.0
 11
1088.3796429869999
 21
-51.641651332599999
 31
0.0
  0
LINE
  5
23C
  8
ﾚｲﾔ_1
 10
1067.4691802932
 20
-92.552487610899988
 30
0.0
 11
1088.3796429869999
 21
-71.642024917200004
 31
0.0
  0
LINE
  5
23D
  8
ﾚｲﾔ_1
 10
1067.4691802932
 20
-112.5528611955
 30
0.0
 11
1088.3796429869999
 21
-91.642398501700001
 31
0.0
  0
LINE
  5
23E
  8
ﾚｲﾔ_1
 10
1067.4691802932
 20
-132.55323478
 30
0.0
 11
1088.3796429869999
 21
-111.6427720863
 31
0.0
  0
LINE
  5
23F
  8
ﾚｲﾔ_1
 10
1067.4691802932
 20
-152.5536083646
 30
0.0
 11
1088.3796429869999
 21
-131.6431456709
 31
0.0
  0
LINE
  5
240
  8
ﾚｲﾔ_1
 10
1067.4691802932
 20
-172.55398194919999
 30
0.0
 11
1088.3796429869999
 21
-151.64351925540001
 31
0.0
  0
LINE
  5
241
  8
ﾚｲﾔ_1
 10
1086.4200339249001
 20
-173.60350190209999
 30
0.0
 11
1088.3796429869999
 21
-171.64389284000001
 31
0.0
  0
LINE
  5
242
  8
ﾚｲﾔ_1
 10
1073.620313207
 20
-173.60350190209999
 30
0.0
 11
1067.4691802932
 21
-167.45236898830001
 31
0.0
  0
LINE
  5
243
  8
ﾚｲﾔ_1
 10
1088.3796429869999
 20
-168.3624580975
 30
0.0
 11
1067.4691802932
 21
-147.45199540370001
 31
0.0
  0
LINE
  5
244
  8
ﾚｲﾔ_1
 10
1088.3796429869999
 20
-148.3620845129
 30
0.0
 11
1067.4691802932
 21
-127.4516218192
 31
0.0
  0
LINE
  5
245
  8
ﾚｲﾔ_1
 10
1088.3796429869999
 20
-128.36171092839999
 30
0.0
 11
1067.4691802932
 21
-107.4512482346
 31
0.0
  0
LINE
  5
246
  8
ﾚｲﾔ_1
 10
1088.3796429869999
 20
-108.3613373438
 30
0.0
 11
1067.4691802932
 21
-87.450874650100005
 31
0.0
  0
LINE
  5
247
  8
ﾚｲﾔ_1
 10
1088.3796429869999
 20
-88.360963759200004
 30
0.0
 11
1067.4691802932
 21
-67.450501065500006
 31
0.0
  0
LINE
  5
248
  8
ﾚｲﾔ_1
 10
1088.3796429869999
 20
-68.360590174700008
 30
0.0
 11
1067.4691802932
 21
-47.450127480900001
 31
0.0
  0
LINE
  5
249
  8
ﾚｲﾔ_1
 10
1088.3796429869999
 20
-48.360216590100002
 30
0.0
 11
1080.5063918405999
 21
-40.486965443700001
 31
0.0
  0
ENDBLK
  5
24A
  8
0
  0
BLOCK
  8
0
  2
BALLON6
 70
     0
 10
0.0
 20
0.0
 30
0.0
  3
BALLON6
  1

  0
INSERT
  5
256
  8
0
  6
CONTINUOUS
  2
*U61
 10
0.0
 20
0.0
 30
0.0
  0
CIRCLE
  5
257
  8
ﾚｲﾔ_1
 10
958.36152525699981
 20
-167.67049324729999
 30
0.0
 40
8.75
  0
LINE
  5
258
  8
寸法線
 10
972.94485859029999
 20
-167.67049324729999
 30
0.0
 11
967.11152525699993
 21
-167.67049324729999
 31
0.0
  0
LINE
  5
259
  8
寸法線
 10
1033.3334965885001
 20
-121.7702987771
 30
0.0
 11
972.94485859029999
 21
-167.67049324729999
 31
0.0
  0
SOLID
  5
25A
  8
寸法線
 10
1033.3334965885001
 20
-121.7702987771
 30
0.0
 11
1027.4263121334
 21
-128.4583606647
 31
0.0
 12
1027.760575948
 22
-126.0061641591
 32
0.0
 13
1027.760575948
 23
-126.0061641591
 33
0.0
  0
SOLID
  5
25B
  8
寸法線
 10
1027.760575948
 20
-126.0061641591
 30
0.0
 11
1025.3083794424001
 21
-125.6719003445
 31
0.0
 12
1033.3334965885001
 22
-121.7702987771
 32
0.0
 13
1033.3334965885001
 23
-121.7702987771
 33
0.0
  0
ENDBLK
  5
25C
  8
0
  0
BLOCK
  8
0
  2
CLUMP0
 70
     0
 10
0.0
 20
0.0
 30
0.0
  3
CLUMP0
  1

  0
INSERT
  5
27D
  8
0
  6
CONTINUOUS
  2
*U62
 10
0.0
 20
0.0
 30
0.0
  0
LINE
  5
27E
  8
ﾚｲﾔ_1
 10
850.9982525488
 20
-46.597311800600004
 30
0.0
 11
850.9982525488
 21
-121.5973118006
 31
0.0
  0
LINE
  5
27F
  8
ﾚｲﾔ_1
 10
848.99825254879988
 20
-48.597311800600004
 30
0.0
 11
848.99825254879988
 21
-123.5973118006
 31
0.0
  0
LINE
  5
280
  8
ﾚｲﾔ_1
 10
846.99825254879988
 20
-50.597311800600004
 30
0.0
 11
846.99825254879988
 21
-125.5973118006
 31
0.0
  0
LINE
  5
281
  8
ﾚｲﾔ_1
 10
844.9982525488
 20
-52.597311800600011
 30
0.0
 11
844.9982525488
 21
-127.5973118006
 31
0.0
  0
LINE
  5
282
  8
ﾚｲﾔ_1
 10
842.9982525488
 20
-54.597311800600004
 30
0.0
 11
842.9982525488
 21
-129.59731180060001
 31
0.0
  0
LINE
  5
283
  8
ﾚｲﾔ_1
 10
838.99825254879988
 20
-58.597311800600004
 30
0.0
 11
838.99825254879988
 21
-133.59731180060001
 31
0.0
  0
LINE
  5
284
  8
ﾚｲﾔ_1
 10
836.9982525488
 20
-60.597311800600004
 30
0.0
 11
836.9982525488
 21
-135.59731180060001
 31
0.0
  0
LINE
  5
285
  8
ﾚｲﾔ_1
 10
834.9982525488
 20
-62.597311800600011
 30
0.0
 11
834.9982525488
 21
-137.5973118005999
 31
0.0
  0
LINE
  5
286
  8
ﾚｲﾔ_1
 10
832.9982525488
 20
-64.597311800600011
 30
0.0
 11
832.9982525488
 21
-139.5973118005999
 31
0.0
  0
LINE
  5
287
  8
ﾚｲﾔ_1
 10
840.9982525488
 20
-56.597311800600004
 30
0.0
 11
840.9982525488
 21
-131.59731180060001
 31
0.0
  0
ENDBLK
  5
288
  8
0
  0
BLOCK
  8
0
  2
CLUMP1
 70
     0
 10
0.0
 20
0.0
 30
0.0
  3
CLUMP1
  1

  0
CIRCLE
  5
2B5
  8
0
 10
671.34887080019996
 20
-55.8152830342
 30
6.5999999999999988
 40
11.0
  0
CIRCLE
  5
2B6
  8
0
 10
671.34887080019996
 20
-55.8152830342
 30
5.5999999999999988
 40
13.5
  0
CIRCLE
  5
2B7
  8
0
 10
671.34887080019996
 20
-55.8152830342
 30
5.5999999999999988
 40
13.5
  0
CIRCLE
  5
2B8
  8
0
 10
671.34887080019996
 20
-55.8152830342
 30
6.5999999999999988
 40
13.5
  0
CIRCLE
  5
2B9
  8
0
 10
671.34887080019996
 20
-55.8152830342
 30
6.5999999999999988
 40
13.5
  0
CIRCLE
  5
2BA
  8
0
 10
671.34887080019996
 20
-55.8152830342
 30
4.2999999999999989
 40
11.0
  0
CIRCLE
  5
2BB
  8
0
 10
671.34887080019996
 20
-55.8152830342
 30
4.2999999999999989
 40
11.0
  0
CIRCLE
  5
2BC
  8
0
 10
671.34887080019996
 20
-55.8152830342
 30
3.2999999999999989
 40
11.0
  0
CIRCLE
  5
2BD
  8
0
 10
671.34887080019996
 20
-55.8152830342
 30
4.2999999999999989
 40
11.0
  0
CIRCLE
  5
2BE
  8
0
 10
671.34887080019996
 20
-55.8152830342
 30
3.2999999999999989
 40
11.0
  0
CIRCLE
  5
2BF
  8
0
 10
671.34887080019996
 20
-55.8152830342
 30
4.2999999999999989
 40
11.0
  0
CIRCLE
  5
2C0
  8
0
 10
671.34887080019996
 20
-55.8152830342
 30
6.5999999999999988
 40
11.0
  0
CIRCLE
  5
2C1
  8
0
 10
671.34887080049998
 20
-55.815283033900002
 30
0.0
 40
12.0
  0
CIRCLE
  5
2C2
  8
0
 10
671.34887079910004
 20
-55.815283035999997
 30
0.0
 40
14.5
  0
ENDBLK
  5
2C3
  8
0
  0
BLOCK
  8
0
  2
BALLON7
 70
     0
 10
0.0
 20
0.0
 30
0.0
  3
BALLON7
  1

  0
INSERT
  5
30E
  8
0
  6
CONTINUOUS
  2
*U65
 10
0.0
 20
0.0
 30
0.0
  0
CIRCLE
  5
30F
  8
ﾚｲﾔ_1
 10
958.36152525699981
 20
-340.77878649529998
 30
0.0
 40
8.75
  0
LINE
  5
310
  8
寸法線
 10
972.94485859029999
 20
-340.77878649529998
 30
0.0
 11
967.11152525699993
 21
-340.77878649529998
 31
0.0
  0
LINE
  5
311
  8
寸法線
 10
1020.9178715885
 20
-300.38025971460002
 30
0.0
 11
972.94485859029999
 21
-340.77878649529998
 31
0.0
  0
SOLID
  5
312
  8
寸法線
 10
1020.9178715885
 20
-300.38025971460002
 30
0.0
 11
1015.3521531771
 21
-307.35505566609999
 31
0.0
 12
1015.5635042026
 22
-304.88922299860002
 32
0.0
 13
1015.5635042026
 23
-304.88922299860002
 33
0.0
  0
SOLID
  5
313
  8
寸法線
 10
1015.5635042026
 20
-304.88922299860002
 30
0.0
 11
1013.0976715350999
 21
-304.67787197310003
 31
0.0
 12
1020.9178715885
 22
-300.38025971460002
 32
0.0
 13
1020.9178715885
 23
-300.38025971460002
 33
0.0
  0
ENDBLK
  5
314
  8
0
  0
BLOCK
  8
0
  2
BALLON8
 70
     0
 10
0.0
 20
0.0
 30
0.0
  3
BALLON8
  1

  0
INSERT
  5
318
  8
0
  6
CONTINUOUS
  2
*U66
 10
0.0
 20
0.0
 30
0.0
  0
CIRCLE
  5
319
  8
ﾚｲﾔ_1
 10
958.36152525699981
 20
-426.8856872046
 30
0.0
 40
8.75
  0
LINE
  5
31A
  8
寸法線
 10
972.94485859029999
 20
-426.8856872046
 30
0.0
 11
967.11152525699993
 21
-426.8856872046
 31
0.0
  0
LINE
  5
31B
  8
寸法線
 10
1020.7178715885
 20
-401.81528303599998
 30
0.0
 11
972.94485859029999
 21
-426.8856872046
 31
0.0
  0
SOLID
  5
31C
  8
寸法線
 10
1020.7178715885
 20
-401.81528303599998
 30
0.0
 11
1013.7831381838
 21
-407.43083934010002
 31
0.0
 12
1014.5195295381
 22
-405.0680596691999
 32
0.0
 13
1014.5195295381
 23
-405.0680596691999
 33
0.0
  0
SOLID
  5
31D
  8
寸法線
 10
1014.5195295381
 20
-405.0680596691999
 30
0.0
 11
1012.1567498672
 21
-404.3316683148999
 31
0.0
 12
1020.7178715885
 22
-401.81528303599998
 32
0.0
 13
1020.7178715885
 23
-401.81528303599998
 33
0.0
  0
ENDBLK
  5
31E
  8
0
  0
BLOCK
  8
0
  2
CLUMP2
 70
     0
 10
0.0
 20
0.0
 30
0.0
  3
CLUMP2
  1

  0
CIRCLE
  5
412
  8
0
 10
671.34887080019996
 20
-401.81528303419998
 30
6.5999999999999988
 40
11.0
  0
CIRCLE
  5
413
  8
0
 10
671.34887080019996
 20
-401.81528303419998
 30
5.5999999999999988
 40
13.5
  0
CIRCLE
  5
414
  8
0
 10
671.34887080019996
 20
-401.81528303419998
 30
5.5999999999999988
 40
13.5
  0
CIRCLE
  5
415
  8
0
 10
671.34887080019996
 20
-401.81528303419998
 30
6.5999999999999988
 40
13.5
  0
CIRCLE
  5
416
  8
0
 10
671.34887080019996
 20
-401.81528303419998
 30
6.5999999999999988
 40
13.5
  0
CIRCLE
  5
417
  8
0
 10
671.34887080019996
 20
-401.81528303419998
 30
4.2999999999999989
 40
11.0
  0
CIRCLE
  5
418
  8
0
 10
671.34887080019996
 20
-401.81528303419998
 30
4.2999999999999989
 40
11.0
  0
CIRCLE
  5
419
  8
0
 10
671.34887080019996
 20
-401.81528303419998
 30
3.2999999999999989
 40
11.0
  0
CIRCLE
  5
41A
  8
0
 10
671.34887080019996
 20
-401.81528303419998
 30
4.2999999999999989
 40
11.0
  0
CIRCLE
  5
41B
  8
0
 10
671.34887080019996
 20
-401.81528303419998
 30
3.2999999999999989
 40
11.0
  0
CIRCLE
  5
41C
  8
0
 10
671.34887080019996
 20
-401.81528303419998
 30
4.2999999999999989
 40
11.0
  0
CIRCLE
  5
41D
  8
0
 10
671.34887080019996
 20
-401.81528303419998
 30
6.5999999999999988
 40
11.0
  0
CIRCLE
  5
41E
  8
0
 10
671.34887080049998
 20
-401.8152830338999
 30
0.0
 40
12.0
  0
CIRCLE
  5
41F
  8
0
 10
671.34887079910004
 20
-401.81528303599998
 30
0.0
 40
14.5
  0
ENDBLK
  5
420
  8
0
  0
BLOCK
  8
0
  2
*D19
 70
     1
 10
0.0
 20
0.0
 30
0.0
  3
*D19
  1

  0
TEXT
  5
42F
  8
0
 62
     0
 10
592.29292111109987
 20
-39.634727692399998
 30
0.0
 40
7.4965279578999988
  1
(50)
 50
90.0
  0
LINE
  5
430
  8
0
 62
     0
 10
635.24887079910002
 20
-5.8152830360000003
 30
0.0
 11
594.11583780959995
 21
-5.8152830360000003
 31
0.0
  0
LINE
  5
431
  8
0
 62
     0
 10
648.60824579910002
 20
-55.815283035999997
 30
0.0
 11
594.11583780959995
 21
-55.815283035999997
 31
0.0
  0
LINE
  5
432
  8
0
 62
     0
 10
594.61583780959995
 20
-5.8152830360000003
 30
0.0
 11
594.61583780959995
 21
-17.586116051400001
 31
0.0
  0
LINE
  5
433
  8
0
 62
     0
 10
594.61583780959995
 20
-5.8152830360000003
 30
0.0
 11
594.61583780959995
 21
-44.044450020500001
 31
0.0
  0
LINE
  5
434
  8
0
 62
     0
 10
594.61583780959995
 20
-55.815283035999997
 30
0.0
 11
594.61583780959995
 21
-17.586116051400001
 31
0.0
  0
LINE
  5
435
  8
0
 62
     0
 10
594.61583780959995
 20
-55.815283035999997
 30
0.0
 11
594.61583780959995
 21
-44.044450020500001
 31
0.0
  0
LINE
  5
436
  8
0
 62
     0
 10
594.61583780959995
 20
-55.815283035999997
 30
0.0
 11
594.61583780959995
 21
-52.815283035999997
 31
0.0
  0
SOLID
  5
437
  8
0
 62
     0
 10
594.61583780959995
 20
-55.815283035999997
 30
0.0
 11
592.74083780959995
 21
-48.315283035999997
 31
0.0
 12
596.49083780959995
 22
-48.315283035999997
 32
0.0
 13
594.61583780959995
 23
-50.190283035999997
 33
0.0
  0
LINE
  5
438
  8
0
 62
     0
 10
594.61583780959995
 20
-5.8152830360000003
 30
0.0
 11
594.61583780959995
 21
-8.8152830360000003
 31
0.0
  0
SOLID
  5
439
  8
0
 62
     0
 10
594.61583780959995
 20
-5.8152830360000003
 30
0.0
 11
596.49083780959995
 21
-13.315283036
 31
0.0
 12
592.74083780959995
 22
-13.315283036
 32
0.0
 13
594.61583780959995
 23
-11.440283036
 33
0.0
  0
ENDBLK
  5
43A
  8
0
  0
BLOCK
  8
0
  2
*D20
 70
     1
 10
0.0
 20
0.0
 30
0.0
  3
*D20
  1

  0
TEXT
  5
442
  8
0
 62
     0
 10
560.04470562649988
 20
9.6976944686999982
 30
0.0
 40
7.4965279578999988
  1
4
 50
90.0
  0
LINE
  5
443
  8
0
 62
     0
 10
662.34887079910004
 20
-1.9152830359999991
 30
0.0
 11
561.86762232499996
 21
-1.9152830359999991
 31
0.0
  0
LINE
  5
444
  8
0
 62
     0
 10
635.24887079910002
 20
-5.8152830360000003
 30
0.0
 11
561.86762232499996
 21
-5.8152830360000003
 31
0.0
  0
LINE
  5
445
  8
0
 62
     0
 10
562.36762232499996
 20
-1.9152830359999991
 30
0.0
 11
562.36762232499996
 21
18.517139125100002
 31
0.0
  0
LINE
  5
446
  8
0
 62
     0
 10
562.36762232499996
 20
-1.9152830359999991
 30
0.0
 11
562.36762232499996
 21
5.2879721405999991
 31
0.0
  0
LINE
  5
447
  8
0
 62
     0
 10
562.36762232499996
 20
-5.8152830360000003
 30
0.0
 11
562.36762232499996
 21
18.517139125100002
 31
0.0
  0
LINE
  5
448
  8
0
 62
     0
 10
562.36762232499996
 20
-5.8152830360000003
 30
0.0
 11
562.36762232499996
 21
5.2879721405999991
 31
0.0
  0
LINE
  5
449
  8
0
 62
     0
 10
562.36762232499996
 20
-5.8152830360000003
 30
0.0
 11
562.36762232499996
 21
-8.8152830360000003
 31
0.0
  0
SOLID
  5
44A
  8
0
 62
     0
 10
562.36762232499996
 20
-5.8152830360000003
 30
0.0
 11
564.24262232499996
 21
-13.315283036
 31
0.0
 12
560.49262232499996
 22
-13.315283036
 32
0.0
 13
562.36762232499996
 23
-11.440283036
 33
0.0
  0
LINE
  5
44B
  8
0
 62
     0
 10
562.36762232499996
 20
-1.9152830359999991
 30
0.0
 11
562.36762232499996
 21
1.0847169640000001
 31
0.0
  0
SOLID
  5
44C
  8
0
 62
     0
 10
562.36762232499996
 20
-1.9152830359999991
 30
0.0
 11
560.49262232499996
 21
5.5847169640000001
 31
0.0
 12
564.24262232499996
 22
5.5847169640000001
 32
0.0
 13
562.36762232499996
 23
3.7097169639999992
 33
0.0
  0
ENDBLK
  5
44D
  8
0
  0
BLOCK
  8
0
  2
*D21
 70
     1
 10
0.0
 20
0.0
 30
0.0
  3
*D21
  1

  0
TEXT
  5
47C
  8
0
 62
     0
 10
591.86245085550001
 20
-458.4298665282999
 30
0.0
 40
7.4965279578999988
  1
200
 50
90.0
  0
LINE
  5
47D
  8
0
 62
     0
 10
648.60824579910002
 20
-401.81528303599998
 30
0.0
 11
593.68536755399998
 21
-401.81528303599998
 31
0.0
  0
LINE
  5
47E
  8
0
 62
     0
 10
637.04887079909997
 20
-501.81528303599998
 30
0.0
 11
593.68536755399998
 21
-501.81528303599998
 31
0.0
  0
LINE
  5
47F
  8
0
 62
     0
 10
594.18536755399987
 20
-401.81528303599998
 30
0.0
 11
594.18536755399987
 21
-440.79097721549999
 31
0.0
  0
LINE
  5
480
  8
0
 62
     0
 10
594.18536755399987
 20
-401.81528303599998
 30
0.0
 11
594.18536755399987
 21
-462.83958885649997
 31
0.0
  0
LINE
  5
481
  8
0
 62
     0
 10
594.18536755399987
 20
-501.81528303599998
 30
0.0
 11
594.18536755399987
 21
-440.79097721549999
 31
0.0
  0
LINE
  5
482
  8
0
 62
     0
 10
594.18536755399987
 20
-501.81528303599998
 30
0.0
 11
594.18536755399987
 21
-462.83958885649997
 31
0.0
  0
LINE
  5
483
  8
0
 62
     0
 10
594.18536755399987
 20
-501.81528303599998
 30
0.0
 11
594.18536755399987
 21
-498.81528303599993
 31
0.0
  0
SOLID
  5
484
  8
0
 62
     0
 10
594.18536755399987
 20
-501.81528303599998
 30
0.0
 11
592.31036755399998
 21
-494.31528303599993
 31
0.0
 12
596.06036755399987
 22
-494.31528303599993
 32
0.0
 13
594.18536755399987
 23
-496.19028303599993
 33
0.0
  0
LINE
  5
485
  8
0
 62
     0
 10
594.18536755399987
 20
-401.81528303599998
 30
0.0
 11
594.18536755399987
 21
-404.81528303599998
 31
0.0
  0
SOLID
  5
486
  8
0
 62
     0
 10
594.18536755399987
 20
-401.81528303599998
 30
0.0
 11
596.06036755399987
 21
-409.31528303599998
 31
0.0
 12
592.31036755399998
 22
-409.31528303599998
 32
0.0
 13
594.18536755399987
 23
-407.44028303599993
 33
0.0
  0
ENDBLK
  5
487
  8
0
  0
BLOCK
  8
0
  2
*X22
 70
     1
 10
0.0
 20
0.0
 30
0.0
  3
*X22
  1

  0
LINE
  5
48F
  8
ﾚｲﾔ_1
 10
1040.0
 20
-495.77029877709992
 30
0.0
 11
1040.0
 21
-432.27029877709992
 31
0.0
  0
LINE
  5
490
  8
ﾚｲﾔ_1
 10
1060.0
 20
-495.77029877709992
 30
0.0
 11
1060.0
 21
-432.27029877709992
 31
0.0
  0
LINE
  5
491
  8
ﾚｲﾔ_1
 10
1080.0
 20
-495.77029877709992
 30
0.0
 11
1080.0
 21
-432.27029877709992
 31
0.0
  0
LINE
  5
492
  8
ﾚｲﾔ_1
 10
1030.0
 20
-495.77029877709992
 30
0.0
 11
1030.0
 21
-432.27029877709992
 31
0.0
  0
LINE
  5
493
  8
ﾚｲﾔ_1
 10
1050.0
 20
-495.77029877709992
 30
0.0
 11
1050.0
 21
-432.27029877709992
 31
0.0
  0
LINE
  5
494
  8
ﾚｲﾔ_1
 10
1070.0
 20
-495.77029877709992
 30
0.0
 11
1070.0
 21
-432.27029877709992
 31
0.0
  0
LINE
  5
495
  8
ﾚｲﾔ_1
 10
1026.6235231953001
 20
-433.40374847719988
 30
0.0
 11
1027.7569728953999
 21
-432.27029877709992
 31
0.0
  0
LINE
  5
496
  8
ﾚｲﾔ_1
 10
1026.6235231953001
 20
-453.40412206169992
 30
0.0
 11
1047.75734648
 21
-432.27029877709992
 31
0.0
  0
LINE
  5
497
  8
ﾚｲﾔ_1
 10
1026.6235231953001
 20
-473.40449564629989
 30
0.0
 11
1067.7577200645001
 21
-432.27029877709992
 31
0.0
  0
LINE
  5
498
  8
ﾚｲﾔ_1
 10
1026.6235231953001
 20
-493.40486923079999
 30
0.0
 11
1084.6235231953001
 21
-435.40486923079999
 31
0.0
  0
LINE
  5
499
  8
ﾚｲﾔ_1
 10
1044.2584672336
 20
-495.77029877709992
 30
0.0
 11
1084.6235231953001
 21
-455.40524281540002
 31
0.0
  0
LINE
  5
49A
  8
ﾚｲﾔ_1
 10
1064.2588408182
 20
-495.77029877709992
 30
0.0
 11
1084.6235231953001
 21
-475.40561639999987
 31
0.0
  0
LINE
  5
49B
  8
ﾚｲﾔ_1
 10
1084.2592144027001
 20
-495.77029877709992
 30
0.0
 11
1084.6235231953001
 21
-495.40598998449991
 31
0.0
  0
LINE
  5
49C
  8
ﾚｲﾔ_1
 10
1035.78038556
 20
-495.77029877709992
 30
0.0
 11
1026.6235231953001
 21
-486.6134364122999
 31
0.0
  0
LINE
  5
49D
  8
ﾚｲﾔ_1
 10
1055.7807591446001
 20
-495.77029877709992
 30
0.0
 11
1026.6235231953001
 21
-466.61306282779998
 31
0.0
  0
LINE
  5
49E
  8
ﾚｲﾔ_1
 10
1075.7811327290999
 20
-495.77029877709992
 30
0.0
 11
1026.6235231953001
 21
-446.61268924320001
 31
0.0
  0
LINE
  5
49F
  8
ﾚｲﾔ_1
 10
1084.6235231953001
 20
-484.61231565870003
 30
0.0
 11
1032.2815063137
 21
-432.27029877709992
 31
0.0
  0
LINE
  5
4A0
  8
ﾚｲﾔ_1
 10
1084.6235231953001
 20
-464.6119420741
 30
0.0
 11
1052.2818798983001
 21
-432.27029877709992
 31
0.0
  0
LINE
  5
4A1
  8
ﾚｲﾔ_1
 10
1084.6235231953001
 20
-444.61156848960002
 30
0.0
 11
1072.2822534827999
 21
-432.27029877709992
 31
0.0
  0
ENDBLK
  5
4A2
  8
0
  0
BLOCK
  8
0
  2
BALLON9
 70
     0
 10
0.0
 20
0.0
 30
0.0
  3
BALLON9
  1

  0
INSERT
  5
4A6
  8
0
  6
CONTINUOUS
  2
*U114
 10
0.0
 20
0.0
 30
0.0
  0
CIRCLE
  5
4A7
  8
ﾚｲﾔ_1
 10
958.36152525699981
 20
-474.10703124999992
 30
0.0
 40
8.75
  0
LINE
  5
4A8
  8
寸法線
 10
972.94485859029999
 20
-474.10703124999992
 30
0.0
 11
967.11152525699993
 21
-474.10703124999992
 31
0.0
  0
LINE
  5
4A9
  8
寸法線
 10
1020.1178715885
 20
-492.41528303599989
 30
0.0
 11
972.94485859029999
 21
-474.10703124999992
 31
0.0
  0
SOLID
  5
4AA
  8
寸法線
 10
1020.1178715885
 20
-492.41528303599989
 30
0.0
 11
1011.3275074365999
 21
-490.88084565499997
 31
0.0
 12
1013.5921202995
 22
-489.88258287339988
 32
0.0
 13
1013.5921202995
 23
-489.88258287339988
 33
0.0
  0
SOLID
  5
4AB
  8
寸法線
 10
1013.5921202995
 20
-489.88258287339988
 30
0.0
 11
1012.5938575179
 21
-487.61797001039997
 31
0.0
 12
1020.1178715885
 22
-492.41528303599989
 32
0.0
 13
1020.1178715885
 23
-492.41528303599989
 33
0.0
  0
ENDBLK
  5
4AC
  8
0
  0
BLOCK
  8
0
  2
*D24
 70
     1
 10
0.0
 20
0.0
 30
0.0
  3
*D24
  1

  0
TEXT
  5
4B7
  8
0
 62
     0
 10
662.5294261427
 20
42.146175837799987
 30
0.0
 40
7.4965279578999988
  1
□70
  0
LINE
  5
4B8
  8
0
 62
     0
 10
706.34887079910004
 20
-22.815283036
 30
0.0
 11
706.34887079910004
 21
40.323259139299999
 31
0.0
  0
LINE
  5
4B9
  8
0
 62
     0
 10
636.34887079910004
 20
-22.815283036
 30
0.0
 11
636.34887079910004
 21
40.323259139299999
 31
0.0
  0
LINE
  5
4BA
  8
0
 62
     0
 10
706.34887079910004
 20
39.823259139299999
 30
0.0
 11
684.57803778369998
 21
39.823259139299999
 31
0.0
  0
LINE
  5
4BB
  8
0
 62
     0
 10
706.34887079910004
 20
39.823259139299999
 30
0.0
 11
658.11970381449987
 21
39.823259139299999
 31
0.0
  0
LINE
  5
4BC
  8
0
 62
     0
 10
636.34887079910004
 20
39.823259139299999
 30
0.0
 11
684.57803778369998
 21
39.823259139299999
 31
0.0
  0
LINE
  5
4BD
  8
0
 62
     0
 10
636.34887079910004
 20
39.823259139299999
 30
0.0
 11
658.11970381449987
 21
39.823259139299999
 31
0.0
  0
LINE
  5
4BE
  8
0
 62
     0
 10
636.34887079910004
 20
39.823259139299999
 30
0.0
 11
639.34887079910004
 21
39.823259139299999
 31
0.0
  0
SOLID
  5
4BF
  8
0
 62
     0
 10
636.34887079910004
 20
39.823259139299999
 30
0.0
 11
643.84887079910004
 21
41.698259139299999
 31
0.0
 12
643.84887079910004
 22
37.948259139299999
 32
0.0
 13
641.97387079910004
 23
39.823259139299999
 33
0.0
  0
LINE
  5
4C0
  8
0
 62
     0
 10
706.34887079910004
 20
39.823259139299999
 30
0.0
 11
703.34887079910004
 21
39.823259139299999
 31
0.0
  0
SOLID
  5
4C1
  8
0
 62
     0
 10
706.34887079910004
 20
39.823259139299999
 30
0.0
 11
698.84887079910004
 21
37.948259139299999
 31
0.0
 12
698.84887079910004
 22
41.698259139299999
 32
0.0
 13
700.72387079910004
 23
39.823259139299999
 33
0.0
  0
ENDBLK
  5
4C2
  8
0
  0
BLOCK
  8
0
  2
BALLON10
 70
     0
 10
0.0
 20
0.0
 30
0.0
  3
BALLON10
  1

  0
INSERT
  5
4C7
  8
0
  6
CONTINUOUS
  2
*U115
 10
0.0
 20
0.0
 30
0.0
  0
CIRCLE
  5
4C8
  8
ﾚｲﾔ_1
 10
958.35870752899984
 20
0.0998673365
 30
0.0
 40
8.75
  0
LINE
  5
4C9
  8
寸法線
 10
943.77537419570012
 20
0.0998673365
 30
0.0
 11
949.60870752899984
 21
0.0998673365
 31
0.0
  0
LINE
  5
4CA
  8
寸法線
 10
891.62499999999989
 20
136.5
 30
0.0
 11
943.77537419570012
 21
0.0998673365
 31
0.0
  0
SOLID
  5
4CB
  8
寸法線
 10
891.62499999999989
 20
136.5
 30
0.0
 11
896.38441715960005
 21
128.9519573199
 31
0.0
 12
894.1248527872998
 22
129.9615952984
 32
0.0
 13
894.1248527872998
 23
129.9615952984
 33
0.0
  0
SOLID
  5
4CC
  8
寸法線
 10
894.1248527872998
 20
129.9615952984
 30
0.0
 11
893.11521480880015
 21
127.7020309262
 31
0.0
 12
891.62499999999989
 22
136.5
 32
0.0
 13
891.62499999999989
 23
136.5
 33
0.0
  0
ENDBLK
  5
4CD
  8
0
  0
BLOCK
  8
0
  2
*D26
 70
     1
 10
0.0
 20
0.0
 30
0.0
  3
*D26
  1

  0
TEXT
  5
4D0
  8
0
 62
     0
 10
839.01971902269997
 20
44.569805421400012
 30
0.0
 40
7.4965279578999988
  1
□75
  0
LINE
  5
4D1
  8
0
 62
     0
 10
885.43916367910003
 20
-7.3152830360000003
 30
0.0
 11
885.43916367910003
 21
42.746888722899989
 31
0.0
  0
LINE
  5
4D2
  8
0
 62
     0
 10
810.23916367909987
 20
-7.3152830360000003
 30
0.0
 11
810.23916367909987
 21
42.746888722899989
 31
0.0
  0
LINE
  5
4D3
  8
0
 62
     0
 10
885.43916367910003
 20
42.246888722899989
 30
0.0
 11
861.06833066369995
 21
42.246888722899989
 31
0.0
  0
LINE
  5
4D4
  8
0
 62
     0
 10
885.43916367910003
 20
42.246888722899989
 30
0.0
 11
834.60999669460011
 21
42.246888722899989
 31
0.0
  0
LINE
  5
4D5
  8
0
 62
     0
 10
810.23916367909987
 20
42.246888722899989
 30
0.0
 11
861.06833066369995
 21
42.246888722899989
 31
0.0
  0
LINE
  5
4D6
  8
0
 62
     0
 10
810.23916367909987
 20
42.246888722899989
 30
0.0
 11
834.60999669460011
 21
42.246888722899989
 31
0.0
  0
LINE
  5
4D7
  8
0
 62
     0
 10
810.23916367909987
 20
42.246888722899989
 30
0.0
 11
813.23916367909999
 21
42.246888722899989
 31
0.0
  0
SOLID
  5
4D8
  8
0
 62
     0
 10
810.23916367909987
 20
42.246888722899989
 30
0.0
 11
817.73916367909999
 21
44.121888722899989
 31
0.0
 12
817.73916367909999
 22
40.371888722899989
 32
0.0
 13
815.86416367909987
 23
42.246888722899989
 33
0.0
  0
LINE
  5
4D9
  8
0
 62
     0
 10
885.43916367910003
 20
42.246888722899989
 30
0.0
 11
882.43916367910003
 21
42.246888722899989
 31
0.0
  0
SOLID
  5
4DA
  8
0
 62
     0
 10
885.43916367910003
 20
42.246888722899989
 30
0.0
 11
877.93916367910003
 21
40.371888722899989
 31
0.0
 12
877.93916367910003
 22
44.121888722899989
 32
0.0
 13
879.81416367909992
 23
42.246888722899989
 33
0.0
  0
ENDBLK
  5
4DB
  8
0
  0
BLOCK
  8
0
  2
BALLON11
 70
     0
 10
0.0
 20
0.0
 30
0.0
  3
BALLON11
  1

  0
INSERT
  5
4E0
  8
0
  6
CONTINUOUS
  2
*U116
 10
0.0
 20
0.0
 30
0.0
  0
CIRCLE
  5
4E1
  8
ﾚｲﾔ_1
 10
958.36152525699981
 20
0.1043730862
 30
0.0
 40
8.75
  0
LINE
  5
4E2
  8
寸法線
 10
972.94485859029999
 20
0.1043730862
 30
0.0
 11
967.11152525699993
 21
0.1043730862
 31
0.0
  0
LINE
  5
4E3
  8
寸法線
 10
1033.8125
 20
76.5
 30
0.0
 11
972.94485859029999
 21
0.1043730862
 31
0.0
  0
SOLID
  5
4E4
  8
寸法線
 10
1033.8125
 20
76.5
 30
0.0
 11
1029.7287148728999
 21
68.566041401899994
 31
0.0
 12
1029.4505178101999
 22
71.025229559500005
 32
0.0
 13
1029.4505178101999
 23
71.025229559500005
 33
0.0
  0
SOLID
  5
4E5
  8
寸法線
 10
1029.4505178101999
 20
71.025229559500005
 30
0.0
 11
1026.9913296527
 21
70.747032496800003
 31
0.0
 12
1033.8125
 22
76.5
 32
0.0
 13
1033.8125
 23
76.5
 33
0.0
  0
ENDBLK
  5
4E6
  8
0
  0
BLOCK
  8
0
  2
*X28
 70
     1
 10
0.0
 20
0.0
 30
0.0
  3
*X28
  1

  0
LINE
  5
4F4
  8
ﾚｲﾔ_1
 10
1030.0
 20
-381.9132675271
 30
0.0
 11
1030.0
 21
-191.82667898540001
 31
0.0
  0
LINE
  5
4F5
  8
ﾚｲﾔ_1
 10
1022.16171875
 20
-197.86106990779999
 30
0.0
 11
1028.1961096724001
 21
-191.82667898540001
 31
0.0
  0
LINE
  5
4F6
  8
ﾚｲﾔ_1
 10
1022.16171875
 20
-217.86144349240001
 30
0.0
 11
1038.96171875
 21
-201.0614434924
 31
0.0
  0
LINE
  5
4F7
  8
ﾚｲﾔ_1
 10
1022.16171875
 20
-237.8618170769
 30
0.0
 11
1038.96171875
 21
-221.06181707690001
 31
0.0
  0
LINE
  5
4F8
  8
ﾚｲﾔ_1
 10
1022.16171875
 20
-257.86219066149999
 30
0.0
 11
1038.96171875
 21
-241.06219066150001
 31
0.0
  0
LINE
  5
4F9
  8
ﾚｲﾔ_1
 10
1022.16171875
 20
-277.86256424599998
 30
0.0
 11
1038.96171875
 21
-261.06256424600002
 31
0.0
  0
LINE
  5
4FA
  8
ﾚｲﾔ_1
 10
1022.16171875
 20
-297.8629378306
 30
0.0
 11
1038.96171875
 21
-281.06293783059999
 31
0.0
  0
LINE
  5
4FB
  8
ﾚｲﾔ_1
 10
1022.16171875
 20
-317.86331141519997
 30
0.0
 11
1038.96171875
 21
-301.06331141520002
 31
0.0
  0
LINE
  5
4FC
  8
ﾚｲﾔ_1
 10
1022.16171875
 20
-337.86368499970001
 30
0.0
 11
1038.96171875
 21
-321.0636849997
 31
0.0
  0
LINE
  5
4FD
  8
ﾚｲﾔ_1
 10
1022.16171875
 20
-357.86405858429998
 30
0.0
 11
1038.96171875
 21
-341.06405858430003
 31
0.0
  0
LINE
  5
4FE
  8
ﾚｲﾔ_1
 10
1022.16171875
 20
-377.86443216880002
 30
0.0
 11
1038.96171875
 21
-361.0644321687999
 31
0.0
  0
LINE
  5
4FF
  8
ﾚｲﾔ_1
 10
1038.1132569762999
 20
-381.9132675271
 30
0.0
 11
1038.96171875
 21
-381.06480575339998
 31
0.0
  0
LINE
  5
500
  8
ﾚｲﾔ_1
 10
1038.96171875
 20
-378.9493904597
 30
0.0
 11
1022.16171875
 21
-362.14939045969999
 31
0.0
  0
LINE
  5
501
  8
ﾚｲﾔ_1
 10
1038.96171875
 20
-358.94901687510003
 30
0.0
 11
1022.16171875
 21
-342.14901687510002
 31
0.0
  0
LINE
  5
502
  8
ﾚｲﾔ_1
 10
1038.96171875
 20
-338.94864329059999
 30
0.0
 11
1022.16171875
 21
-322.14864329059998
 31
0.0
  0
LINE
  5
503
  8
ﾚｲﾔ_1
 10
1038.96171875
 20
-318.94826970600002
 30
0.0
 11
1022.16171875
 21
-302.14826970600001
 31
0.0
  0
LINE
  5
504
  8
ﾚｲﾔ_1
 10
1038.96171875
 20
-298.94789612150009
 30
0.0
 11
1022.16171875
 21
-282.14789612150003
 31
0.0
  0
LINE
  5
505
  8
ﾚｲﾔ_1
 10
1038.96171875
 20
-278.94752253690001
 30
0.0
 11
1022.16171875
 21
-262.1475225369
 31
0.0
  0
LINE
  5
506
  8
ﾚｲﾔ_1
 10
1038.96171875
 20
-258.94714895240003
 30
0.0
 11
1022.16171875
 21
-242.14714895239999
 31
0.0
  0
LINE
  5
507
  8
ﾚｲﾔ_1
 10
1038.96171875
 20
-238.9467753678
 30
0.0
 11
1022.16171875
 21
-222.14677536779999
 31
0.0
  0
LINE
  5
508
  8
ﾚｲﾔ_1
 10
1038.96171875
 20
-218.94640178329999
 30
0.0
 11
1022.16171875
 21
-202.14640178330001
 31
0.0
  0
LINE
  5
509
  8
ﾚｲﾔ_1
 10
1038.96171875
 20
-198.94602819869999
 30
0.0
 11
1031.8423695367001
 21
-191.82667898540001
 31
0.0
  0
ENDBLK
  5
50A
  8
0
  0
BLOCK
  8
0
  2
*X29
 70
     1
 10
0.0
 20
0.0
 30
0.0
  3
*X29
  1

  0
LINE
  5
50E
  8
ﾚｲﾔ_1
 10
1080.0
 20
-435.4869654437
 30
0.0
 11
1080.0
 21
-199.05311127709999
 31
0.0
  0
LINE
  5
50F
  8
ﾚｲﾔ_1
 10
1070.0
 20
-435.4869654437
 30
0.0
 11
1070.0
 21
-199.05311127709999
 31
0.0
  0
LINE
  5
510
  8
ﾚｲﾔ_1
 10
1065.1318389656001
 20
-214.8920704459
 30
0.0
 11
1080.9707981344
 21
-199.05311127709999
 31
0.0
  0
LINE
  5
511
  8
ﾚｲﾔ_1
 10
1065.1318389656001
 20
-234.89244403039999
 30
0.0
 11
1085.6235231953001
 21
-214.4007598007
 31
0.0
  0
LINE
  5
512
  8
ﾚｲﾔ_1
 10
1065.1318389656001
 20
-254.89281761500001
 30
0.0
 11
1085.6235231953001
 21
-234.4011333853
 31
0.0
  0
LINE
  5
513
  8
ﾚｲﾔ_1
 10
1065.1318389656001
 20
-274.89319119959998
 30
0.0
 11
1085.6235231953001
 21
-254.4015069699
 31
0.0
  0
LINE
  5
514
  8
ﾚｲﾔ_1
 10
1065.1318389656001
 20
-294.89356478410002
 30
0.0
 11
1085.6235231953001
 21
-274.40188055440001
 31
0.0
  0
LINE
  5
515
  8
ﾚｲﾔ_1
 10
1065.1318389656001
 20
-314.89393836869999
 30
0.0
 11
1085.6235231953001
 21
-294.40225413899998
 31
0.0
  0
LINE
  5
516
  8
ﾚｲﾔ_1
 10
1065.1318389656001
 20
-334.89431195319997
 30
0.0
 11
1085.6235231953001
 21
-314.40262772350002
 31
0.0
  0
LINE
  5
517
  8
ﾚｲﾔ_1
 10
1065.1318389656001
 20
-354.8946855378
 30
0.0
 11
1085.6235231953001
 21
-334.40300130809999
 31
0.0
  0
LINE
  5
518
  8
ﾚｲﾔ_1
 10
1065.1318389656001
 20
-374.8950591223001
 30
0.0
 11
1085.6235231953001
 21
-354.40337489260003
 31
0.0
  0
LINE
  5
519
  8
ﾚｲﾔ_1
 10
1065.1318389656001
 20
-394.89543270690001
 30
0.0
 11
1085.6235231953001
 21
-374.4037484772
 31
0.0
  0
LINE
  5
51A
  8
ﾚｲﾔ_1
 10
1065.1318389656001
 20
-414.89580629139988
 30
0.0
 11
1085.6235231953001
 21
-394.40412206169998
 31
0.0
  0
LINE
  5
51B
  8
ﾚｲﾔ_1
 10
1065.1318389656001
 20
-434.89617987599991
 30
0.0
 11
1085.6235231953001
 21
-414.40449564629989
 31
0.0
  0
LINE
  5
51C
  8
ﾚｲﾔ_1
 10
1084.5414269824
 20
-435.4869654437
 30
0.0
 11
1085.6235231953001
 21
-434.40486923079999
 31
0.0
  0
LINE
  5
51D
  8
ﾚｲﾔ_1
 10
1075.4989201495
 20
-435.4869654437
 30
0.0
 11
1065.1318389656001
 21
-425.11988425989989
 31
0.0
  0
LINE
  5
51E
  8
ﾚｲﾔ_1
 10
1085.6235231953001
 20
-425.61119490499999
 30
0.0
 11
1065.1318389656001
 21
-405.11951067529998
 31
0.0
  0
LINE
  5
51F
  8
ﾚｲﾔ_1
 10
1085.6235231953001
 20
-405.61082132040002
 30
0.0
 11
1065.1318389656001
 21
-385.11913709070001
 31
0.0
  0
LINE
  5
520
  8
ﾚｲﾔ_1
 10
1085.6235231953001
 20
-385.61044773589998
 30
0.0
 11
1065.1318389656001
 21
-365.11876350620003
 31
0.0
  0
LINE
  5
521
  8
ﾚｲﾔ_1
 10
1085.6235231953001
 20
-365.61007415130001
 30
0.0
 11
1065.1318389656001
 21
-345.11838992160011
 31
0.0
  0
LINE
  5
522
  8
ﾚｲﾔ_1
 10
1085.6235231953001
 20
-345.60970056679997
 30
0.0
 11
1065.1318389656001
 21
-325.11801633710002
 31
0.0
  0
LINE
  5
523
  8
ﾚｲﾔ_1
 10
1085.6235231953001
 20
-325.6093269822
 30
0.0
 11
1065.1318389656001
 21
-305.11764275249999
 31
0.0
  0
LINE
  5
524
  8
ﾚｲﾔ_1
 10
1085.6235231953001
 20
-305.60895339770002
 30
0.0
 11
1065.1318389656001
 21
-285.11726916800001
 31
0.0
  0
LINE
  5
525
  8
ﾚｲﾔ_1
 10
1085.6235231953001
 20
-285.60857981309999
 30
0.0
 11
1065.1318389656001
 21
-265.11689558339998
 31
0.0
  0
LINE
  5
526
  8
ﾚｲﾔ_1
 10
1085.6235231953001
 20
-265.60820622860001
 30
0.0
 11
1065.1318389656001
 21
-245.1165219989
 31
0.0
  0
LINE
  5
527
  8
ﾚｲﾔ_1
 10
1085.6235231953001
 20
-245.60783264400001
 30
0.0
 11
1065.1318389656001
 21
-225.1161484143
 31
0.0
  0
LINE
  5
528
  8
ﾚｲﾔ_1
 10
1085.6235231953001
 20
-225.6074590595
 30
0.0
 11
1065.1318389656001
 21
-205.11577482979999
 31
0.0
  0
LINE
  5
529
  8
ﾚｲﾔ_1
 10
1085.6235231953001
 20
-205.6070854749
 30
0.0
 11
1079.0695489975001
 21
-199.05311127709999
 31
0.0
  0
ENDBLK
  5
52A
  8
0
  0
BLOCK
  8
0
  2
BALLON12
 70
     0
 10
0.0
 20
0.0
 30
0.0
  3
BALLON12
  1

  0
INSERT
  5
52E
  8
0
  6
CONTINUOUS
  2
*U117
 10
0.0
 20
0.0
 30
0.0
  0
CIRCLE
  5
52F
  8
ﾚｲﾔ_1
 10
958.36152525699981
 20
-254.4365539101
 30
0.0
 40
8.75
  0
LINE
  5
530
  8
寸法線
 10
972.94485859029999
 20
-254.4365539101
 30
0.0
 11
967.11152525699993
 21
-254.4365539101
 31
0.0
  0
LINE
  5
531
  8
寸法線
 10
1041.7178715885
 20
-211.30662690209999
 30
0.0
 11
972.94485859029999
 21
-254.4365539101
 31
0.0
  0
SOLID
  5
532
  8
寸法線
 10
1041.7178715885
 20
-211.30662690209999
 30
0.0
 11
1035.2347790578001
 21
-217.4380632132
 31
0.0
 12
1035.7875794401
 22
-215.02571752130001
 32
0.0
 13
1035.7875794401
 23
-215.02571752130001
 33
0.0
  0
SOLID
  5
533
  8
寸法線
 10
1035.7875794401
 20
-215.02571752130001
 30
0.0
 11
1033.3752337481999
 21
-214.472917139
 31
0.0
 12
1041.7178715885
 22
-211.30662690209999
 32
0.0
 13
1041.7178715885
 23
-211.30662690209999
 33
0.0
  0
ENDBLK
  5
534
  8
0
  0
BLOCK
  8
0
  2
*D31
 70
     1
 10
0.0
 20
0.0
 30
0.0
  3
*D31
  1

  0
TEXT
  5
539
  8
0
 62
     0
 10
592.03949475010006
 20
-240.4895538447
 30
0.0
 40
7.4965279578999988
  1
750
 50
90.0
  0
LINE
  5
53A
  8
0
 62
     0
 10
648.60824579910002
 20
-55.815283035999997
 30
0.0
 11
593.86241144849998
 21
-55.815283035999997
 31
0.0
  0
LINE
  5
53B
  8
0
 62
     0
 10
648.60824579910002
 20
-401.81528303599998
 30
0.0
 11
593.86241144849998
 21
-401.81528303599998
 31
0.0
  0
LINE
  5
53C
  8
0
 62
     0
 10
594.36241144849987
 20
-55.815283035999997
 30
0.0
 11
594.36241144849987
 21
-222.85066453190001
 31
0.0
  0
LINE
  5
53D
  8
0
 62
     0
 10
594.36241144849987
 20
-55.815283035999997
 30
0.0
 11
594.36241144849987
 21
-244.89927617289999
 31
0.0
  0
LINE
  5
53E
  8
0
 62
     0
 10
594.36241144849987
 20
-401.81528303599998
 30
0.0
 11
594.36241144849987
 21
-222.85066453190001
 31
0.0
  0
LINE
  5
53F
  8
0
 62
     0
 10
594.36241144849987
 20
-401.81528303599998
 30
0.0
 11
594.36241144849987
 21
-244.89927617289999
 31
0.0
  0
LINE
  5
540
  8
0
 62
     0
 10
594.36241144849987
 20
-401.81528303599998
 30
0.0
 11
594.36241144849987
 21
-398.81528303599998
 31
0.0
  0
SOLID
  5
541
  8
0
 62
     0
 10
594.36241144849987
 20
-401.81528303599998
 30
0.0
 11
592.48741144849998
 21
-394.31528303599998
 31
0.0
 12
596.23741144849987
 22
-394.31528303599998
 32
0.0
 13
594.36241144849987
 23
-396.19028303599998
 33
0.0
  0
LINE
  5
542
  8
0
 62
     0
 10
594.36241144849987
 20
-55.815283035999997
 30
0.0
 11
594.36241144849987
 21
-58.815283035999997
 31
0.0
  0
SOLID
  5
543
  8
0
 62
     0
 10
594.36241144849987
 20
-55.815283035999997
 30
0.0
 11
596.23741144849987
 21
-63.315283035999997
 31
0.0
 12
592.48741144849998
 22
-63.315283035999997
 32
0.0
 13
594.36241144849987
 23
-61.440283035999997
 33
0.0
  0
ENDBLK
  5
544
  8
0
  0
BLOCK
  8
0
  2
*D32
 70
     1
 10
0.0
 20
0.0
 30
0.0
  3
*D32
  1

  0
TEXT
  5
548
  8
0
 62
     0
 10
559.8563328237999
 20
-267.02786576779999
 30
0.0
 40
7.4965279578999988
  1
1000
 50
90.0
  0
LINE
  5
549
  8
0
 62
     0
 10
637.04887079909997
 20
-5.8152830360000003
 30
0.0
 11
561.67924952220005
 21
-5.8152830360000003
 31
0.0
  0
LINE
  5
54A
  8
0
 62
     0
 10
637.04887079909997
 20
-501.81528303599998
 30
0.0
 11
561.67924952220005
 21
-501.81528303599998
 31
0.0
  0
LINE
  5
54B
  8
0
 62
     0
 10
562.17924952220005
 20
-5.8152830360000003
 30
0.0
 11
562.17924952220005
 21
-244.9792541269
 31
0.0
  0
LINE
  5
54C
  8
0
 62
     0
 10
562.17924952220005
 20
-5.8152830360000003
 30
0.0
 11
562.17924952220005
 21
-271.43758809600001
 31
0.0
  0
LINE
  5
54D
  8
0
 62
     0
 10
562.17924952220005
 20
-501.81528303599998
 30
0.0
 11
562.17924952220005
 21
-244.9792541269
 31
0.0
  0
LINE
  5
54E
  8
0
 62
     0
 10
562.17924952220005
 20
-501.81528303599998
 30
0.0
 11
562.17924952220005
 21
-271.43758809600001
 31
0.0
  0
LINE
  5
54F
  8
0
 62
     0
 10
562.17924952220005
 20
-501.81528303599998
 30
0.0
 11
562.17924952220005
 21
-498.81528303599993
 31
0.0
  0
SOLID
  5
550
  8
0
 62
     0
 10
562.17924952220005
 20
-501.81528303599998
 30
0.0
 11
560.30424952220005
 21
-494.31528303599993
 31
0.0
 12
564.05424952220005
 22
-494.31528303599993
 32
0.0
 13
562.17924952220005
 23
-496.19028303599993
 33
0.0
  0
LINE
  5
551
  8
0
 62
     0
 10
562.17924952220005
 20
-5.8152830360000003
 30
0.0
 11
562.17924952220005
 21
-8.8152830360000003
 31
0.0
  0
SOLID
  5
552
  8
0
 62
     0
 10
562.17924952220005
 20
-5.8152830360000003
 30
0.0
 11
564.05424952220005
 21
-13.315283036
 31
0.0
 12
560.30424952220005
 22
-13.315283036
 32
0.0
 13
562.17924952220005
 23
-11.440283036
 33
0.0
  0
ENDBLK
  5
553
  8
0
  0
BLOCK
  8
0
  2
CLUMP3
 70
     0
 10
0.0
 20
0.0
 30
0.0
  3
CLUMP3
  1

  0
LINE
  5
579
  8
図枠
 10
963.82179112130007
 20
-563.12544458000002
 30
0.0
 11
963.82179112130007
 21
-550.62544458000002
 31
0.0
  0
LINE
  5
57A
  8
図枠
 10
816.32179112130007
 20
-563.12544458000002
 30
0.0
 11
816.32179112130007
 21
-550.62544458000002
 31
0.0
  0
LINE
  5
57B
  8
図枠
 10
838.82179112130007
 20
-563.12544458000002
 30
0.0
 11
838.82179112130007
 21
-550.62544458000002
 31
0.0
  0
LINE
  5
57C
  8
図枠
 10
1101.3217911213001
 20
-563.12544458000002
 30
0.0
 11
1101.3217911213001
 21
-550.62544458000002
 31
0.0
  0
LINE
  5
57D
  8
図枠
 10
1078.8217911213001
 20
-563.12544458000002
 30
0.0
 11
1078.8217911213001
 21
-550.62544458000002
 31
0.0
  0
LINE
  5
57E
  8
図枠
 10
1178.8217911213001
 20
-550.62544458000002
 30
0.0
 11
816.32179112130007
 21
-550.62544458000002
 31
0.0
  0
ENDBLK
  5
57F
  8
0
  0
BLOCK
  8
0
  2
CLUMP4
 70
     0
 10
0.0
 20
0.0
 30
0.0
  3
CLUMP4
  1

  0
LINE
  5
583
  8
図枠
 10
963.82179112130007
 20
-613.12544458000002
 30
0.0
 11
963.82179112130007
 21
-600.62544458000002
 31
0.0
  0
LINE
  5
584
  8
図枠
 10
816.32179112130007
 20
-613.12544458000002
 30
0.0
 11
816.32179112130007
 21
-600.62544458000002
 31
0.0
  0
LINE
  5
585
  8
図枠
 10
838.82179112130007
 20
-613.12544458000002
 30
0.0
 11
838.82179112130007
 21
-600.62544458000002
 31
0.0
  0
LINE
  5
586
  8
図枠
 10
1101.3217911213001
 20
-613.12544458000002
 30
0.0
 11
1101.3217911213001
 21
-600.62544458000002
 31
0.0
  0
LINE
  5
587
  8
図枠
 10
1078.8217911213001
 20
-613.12544458000002
 30
0.0
 11
1078.8217911213001
 21
-600.62544458000002
 31
0.0
  0
LINE
  5
588
  8
図枠
 10
1178.8217911213001
 20
-600.62544458000002
 30
0.0
 11
816.32179112130007
 21
-600.62544458000002
 31
0.0
  0
ENDBLK
  5
589
  8
0
  0
BLOCK
  8
0
  2
CLUMP5
 70
     0
 10
0.0
 20
0.0
 30
0.0
  3
CLUMP5
  1

  0
LINE
  5
58D
  8
図枠
 10
963.82179112130007
 20
-625.62544458000002
 30
0.0
 11
963.82179112130007
 21
-613.12544458000002
 31
0.0
  0
LINE
  5
58E
  8
図枠
 10
816.32179112130007
 20
-625.62544458000002
 30
0.0
 11
816.32179112130007
 21
-613.12544458000002
 31
0.0
  0
LINE
  5
58F
  8
図枠
 10
838.82179112130007
 20
-625.62544458000002
 30
0.0
 11
838.82179112130007
 21
-613.12544458000002
 31
0.0
  0
LINE
  5
590
  8
図枠
 10
1101.3217911213001
 20
-625.62544458000002
 30
0.0
 11
1101.3217911213001
 21
-613.12544458000002
 31
0.0
  0
LINE
  5
591
  8
図枠
 10
1078.8217911213001
 20
-625.62544458000002
 30
0.0
 11
1078.8217911213001
 21
-613.12544458000002
 31
0.0
  0
LINE
  5
592
  8
図枠
 10
1178.8217911213001
 20
-613.12544458000002
 30
0.0
 11
816.32179112130007
 21
-613.12544458000002
 31
0.0
  0
ENDBLK
  5
593
  8
0
  0
BLOCK
  8
0
  2
CLUMP6
 70
     0
 10
0.0
 20
0.0
 30
0.0
  3
CLUMP6
  1

  0
LINE
  5
5C1
  8
図枠
 10
963.82179112130007
 20
-588.12544458000002
 30
0.0
 11
963.82179112130007
 21
-575.62544458000002
 31
0.0
  0
LINE
  5
5C2
  8
図枠
 10
816.32179112130007
 20
-588.12544458000002
 30
0.0
 11
816.32179112130007
 21
-575.62544458000002
 31
0.0
  0
LINE
  5
5C3
  8
図枠
 10
838.82179112130007
 20
-588.12544458000002
 30
0.0
 11
838.82179112130007
 21
-575.62544458000002
 31
0.0
  0
LINE
  5
5C4
  8
図枠
 10
1101.3217911213001
 20
-588.12544458000002
 30
0.0
 11
1101.3217911213001
 21
-575.62544458000002
 31
0.0
  0
LINE
  5
5C5
  8
図枠
 10
1078.8217911213001
 20
-588.12544458000002
 30
0.0
 11
1078.8217911213001
 21
-575.62544458000002
 31
0.0
  0
LINE
  5
5C6
  8
図枠
 10
1178.8217911213001
 20
-575.62544458000002
 30
0.0
 11
816.32179112130007
 21
-575.62544458000002
 31
0.0
  0
ENDBLK
  5
5C7
  8
0
  0
BLOCK
  8
0
  2
CLUMP7
 70
     0
 10
0.0
 20
0.0
 30
0.0
  3
CLUMP7
  1

  0
LINE
  5
5CB
  8
図枠
 10
963.82179112130007
 20
-550.62544458000002
 30
0.0
 11
963.82179112130007
 21
-538.12544458000002
 31
0.0
  0
LINE
  5
5CC
  8
図枠
 10
816.32179112130007
 20
-550.62544458000002
 30
0.0
 11
816.32179112130007
 21
-538.12544458000002
 31
0.0
  0
LINE
  5
5CD
  8
図枠
 10
838.82179112130007
 20
-550.62544458000002
 30
0.0
 11
838.82179112130007
 21
-538.12544458000002
 31
0.0
  0
LINE
  5
5CE
  8
図枠
 10
1101.3217911213001
 20
-550.62544458000002
 30
0.0
 11
1101.3217911213001
 21
-538.12544458000002
 31
0.0
  0
LINE
  5
5CF
  8
図枠
 10
1078.8217911213001
 20
-550.62544458000002
 30
0.0
 11
1078.8217911213001
 21
-538.12544458000002
 31
0.0
  0
LINE
  5
5D0
  8
図枠
 10
1178.8217911213001
 20
-538.12544458000002
 30
0.0
 11
816.32179112130007
 21
-538.12544458000002
 31
0.0
  0
ENDBLK
  5
5D1
  8
0
  0
BLOCK
  8
0
  2
CLUMP8
 70
     0
 10
0.0
 20
0.0
 30
0.0
  3
CLUMP8
  1

  0
LINE
  5
5D7
  8
図枠
 10
963.82179112130007
 20
-600.62544458000002
 30
0.0
 11
963.82179112130007
 21
-588.12544458000002
 31
0.0
  0
LINE
  5
5D8
  8
図枠
 10
816.32179112130007
 20
-600.62544458000002
 30
0.0
 11
816.32179112130007
 21
-588.12544458000002
 31
0.0
  0
LINE
  5
5D9
  8
図枠
 10
838.82179112130007
 20
-600.62544458000002
 30
0.0
 11
838.82179112130007
 21
-588.12544458000002
 31
0.0
  0
LINE
  5
5DA
  8
図枠
 10
1101.3217911213001
 20
-600.62544458000002
 30
0.0
 11
1101.3217911213001
 21
-588.12544458000002
 31
0.0
  0
LINE
  5
5DB
  8
図枠
 10
1078.8217911213001
 20
-600.62544458000002
 30
0.0
 11
1078.8217911213001
 21
-588.12544458000002
 31
0.0
  0
LINE
  5
5DC
  8
図枠
 10
1178.8217911213001
 20
-588.12544458000002
 30
0.0
 11
816.32179112130007
 21
-588.12544458000002
 31
0.0
  0
ENDBLK
  5
5DD
  8
0
  0
BLOCK
  8
0
  2
CLUMP9
 70
     0
 10
0.0
 20
0.0
 30
0.0
  3
CLUMP9
  1

  0
LINE
  5
5E1
  8
図枠
 10
963.82179112130007
 20
-575.62544458000002
 30
0.0
 11
963.82179112130007
 21
-563.12544458000002
 31
0.0
  0
LINE
  5
5E2
  8
図枠
 10
816.32179112130007
 20
-575.62544458000002
 30
0.0
 11
816.32179112130007
 21
-563.12544458000002
 31
0.0
  0
LINE
  5
5E3
  8
図枠
 10
838.82179112130007
 20
-575.62544458000002
 30
0.0
 11
838.82179112130007
 21
-563.12544458000002
 31
0.0
  0
LINE
  5
5E4
  8
図枠
 10
1101.3217911213001
 20
-575.62544458000002
 30
0.0
 11
1101.3217911213001
 21
-563.12544458000002
 31
0.0
  0
LINE
  5
5E5
  8
図枠
 10
1078.8217911213001
 20
-575.62544458000002
 30
0.0
 11
1078.8217911213001
 21
-563.12544458000002
 31
0.0
  0
LINE
  5
5E6
  8
図枠
 10
1178.8217911213001
 20
-563.12544458000002
 30
0.0
 11
816.32179112130007
 21
-563.12544458000002
 31
0.0
  0
ENDBLK
  5
5E7
  8
0
  0
BLOCK
  8
0
  2
*U40
 70
     1
 10
0.0
 20
0.0
 30
0.0
  3
*U40
  1

  0
TEXT
  5
601
  8
図枠
  6
CONTINUOUS
 10
1128.821236105942
 20
269.99769956197508
 30
0.0
 40
6.7468748986999989
  1
改訂者
  0
ENDBLK
  5
603
  8
0
  0
BLOCK
  8
0
  2
*U41
 70
     1
 10
0.0
 20
0.0
 30
0.0
  3
*U41
  1

  0
TEXT
  5
605
  8
図枠
  6
CONTINUOUS
 10
1153.718491818144
 20
269.96345146604273
 30
0.0
 40
6.7468748986999989
  1
検認者
  0
ENDBLK
  5
607
  8
0
  0
BLOCK
  8
0
  2
*U42
 70
     1
 10
0.0
 20
0.0
 30
0.0
  3
*U42
  1

  0
TEXT
  5
609
  8
図枠
  6
CONTINUOUS
 10
1158.102248097503
 20
257.6689400416376
 30
0.0
 40
6.7468748986999989
  1
園原
  0
ENDBLK
  5
60B
  8
0
  0
BLOCK
  8
0
  2
*U43
 70
     1
 10
0.0
 20
0.0
 30
0.0
  3
*U43
  1

  0
TEXT
  5
60D
  8
図枠
  6
CONTINUOUS
 10
1137.486004376861
 20
257.39495527417768
 30
0.0
 40
6.7468748986999989
  1
湊
  0
ENDBLK
  5
60F
  8
0
  0
BLOCK
  8
0
  2
*U44
 70
     1
 10
0.0
 20
0.0
 30
0.0
  3
*U44
  1

  0
TEXT
  5
611
  8
図枠
  6
CONTINUOUS
 10
1137.486004376861
 20
244.8949552741777
 30
0.0
 40
6.7468748986999989
  1
湊
  0
ENDBLK
  5
613
  8
0
  0
BLOCK
  8
0
  2
*U45
 70
     1
 10
0.0
 20
0.0
 30
0.0
  3
*U45
  1

  0
TEXT
  5
615
  8
図枠
  6
CONTINUOUS
 10
1158.102248097503
 20
245.1689400416376
 30
0.0
 40
6.7468748986999989
  1
園原
  0
ENDBLK
  5
617
  8
0
  0
BLOCK
  8
0
  2
*U46
 70
     1
 10
0.0
 20
0.0
 30
0.0
  3
*U46
  1

  0
TEXT
  5
619
  8
図枠
  6
CONTINUOUS
 10
1116.973353433847
 20
-635.45666684419291
 30
0.0
 40
7.496527552599999
  1
備　　　考
  0
ENDBLK
  5
61B
  8
0
  0
BLOCK
  8
0
  2
*U47
 70
     1
 10
0.0
 20
0.0
 30
0.0
  3
*U47
  1

  0
TEXT
  5
61D
  8
図枠
  6
CONTINUOUS
 10
945.37963547394179
 20
270.13469194570507
 30
0.0
 40
6.7468748986999989
  1
副番
  0
ENDBLK
  5
61F
  8
0
  0
BLOCK
  8
0
  2
*U48
 70
     1
 10
0.0
 20
0.0
 30
0.0
  3
*U48
  1

  0
TEXT
  5
621
  8
図枠
  6
CONTINUOUS
 10
951.36413310637693
 20
257.05713301110001
 30
0.0
 40
6.7468748986999989
  1
1
  0
ENDBLK
  5
623
  8
0
  0
BLOCK
  8
0
  2
*U49
 70
     1
 10
0.0
 20
0.0
 30
0.0
  3
*U49
  1

  0
TEXT
  5
625
  8
図枠
  6
CONTINUOUS
 10
970.96163109865108
 20
270.06619575384008
 30
0.0
 40
6.7468748986999989
  1
改訂日
  0
ENDBLK
  5
627
  8
0
  0
BLOCK
  8
0
  2
*U50
 70
     1
 10
0.0
 20
0.0
 30
0.0
  3
*U50
  1

  0
TEXT
  5
629
  8
図枠
  6
CONTINUOUS
 10
966.30389005183281
 20
257.8401805213
 30
0.0
 40
6.7468748986999989
  1
H18.3.18
  0
ENDBLK
  5
62B
  8
0
  0
BLOCK
  8
0
  2
*U51
 70
     1
 10
0.0
 20
0.0
 30
0.0
  3
*U51
  1

  0
TEXT
  5
62D
  8
図枠
  6
CONTINUOUS
 10
970.01928452083246
 20
219.9115867835919
 30
0.0
 40
7.1578947901999994
  1
Ａ・Ｂ部拡大図
  0
ENDBLK
  5
62F
  8
0
  0
BLOCK
  8
0
  2
*U52
 70
     1
 10
0.0
 20
0.0
 30
0.0
  3
*U52
  1

  0
TEXT
  5
631
  8
図枠
  6
CONTINUOUS
 10
950.97028000315333
 20
244.55713301110001
 30
0.0
 40
6.7468748986999989
  1
2
  0
ENDBLK
  5
633
  8
0
  0
BLOCK
  8
0
  2
*U53
 70
     1
 10
0.0
 20
0.0
 30
0.0
  3
*U53
  1

  0
TEXT
  5
635
  8
図枠
  6
CONTINUOUS
 10
966.33813814776545
 20
245.3401805213
 30
0.0
 40
6.7468748986999989
  1
H19.3.13
  0
ENDBLK
  5
637
  8
0
  0
BLOCK
  8
0
  2
*U54
 70
     1
 10
0.0
 20
0.0
 30
0.0
  3
*U54
  1

  0
TEXT
  5
639
  8
図枠
  6
CONTINUOUS
 10
1000.996500139598
 20
-123.88208295840001
 30
0.0
 40
13.4937497973
  1
Ａ
  0
ENDBLK
  5
63B
  8
0
  0
BLOCK
  8
0
  2
*U55
 70
     1
 10
0.0
 20
0.0
 30
0.0
  3
*U55
  1

  0
TEXT
  5
63D
  8
ﾚｲﾔ_1
  6
CONTINUOUS
 10
955.70002279597202
 20
-42.222395394899998
 30
0.0
 40
7.4965279578999988
  1
2
  0
ENDBLK
  5
63F
  8
0
  0
BLOCK
  8
0
  2
*U56
 70
     1
 10
0.0
 20
0.0
 30
0.0
  3
*U56
  1

  0
TEXT
  5
641
  8
ﾚｲﾔ_1
  6
CONTINUOUS
 10
955.70002279597202
 20
-42.222395394899998
 30
0.0
 40
7.4965279578999988
  1
2
  0
ENDBLK
  5
643
  8
0
  0
BLOCK
  8
0
  2
*U57
 70
     1
 10
0.0
 20
0.0
 30
0.0
  3
*U57
  1

  0
TEXT
  5
645
  8
ﾚｲﾔ_1
  6
CONTINUOUS
 10
955.70002279597202
 20
-42.222395394899998
 30
0.0
 40
7.4965279578999988
  1
2
  0
ENDBLK
  5
647
  8
0
  0
BLOCK
  8
0
  2
*U58
 70
     1
 10
0.0
 20
0.0
 30
0.0
  3
*U58
  1

  0
TEXT
  5
649
  8
ﾚｲﾔ_1
  6
CONTINUOUS
 10
955.70002279597202
 20
-42.222395394899998
 30
0.0
 40
7.4965279578999988
  1
2
  0
ENDBLK
  5
64B
  8
0
  0
BLOCK
  8
0
  2
*U59
 70
     1
 10
0.0
 20
0.0
 30
0.0
  3
*U59
  1

  0
TEXT
  5
64D
  8
ﾚｲﾔ_1
  6
CONTINUOUS
 10
955.70002279597202
 20
-42.222395394899998
 30
0.0
 40
7.4965279578999988
  1
2
  0
ENDBLK
  5
64F
  8
0
  0
BLOCK
  8
0
  2
*U60
 70
     1
 10
0.0
 20
0.0
 30
0.0
  3
*U60
  1

  0
TEXT
  5
651
  8
ﾚｲﾔ_1
  6
CONTINUOUS
 10
955.85223656161475
 20
-92.490018119699997
 30
0.0
 40
7.4965279578999988
  1
4
  0
ENDBLK
  5
653
  8
0
  0
BLOCK
  8
0
  2
*U61
 70
     1
 10
0.0
 20
0.0
 30
0.0
  3
*U61
  1

  0
TEXT
  5
655
  8
ﾚｲﾔ_1
  6
CONTINUOUS
 10
955.62391591315065
 20
-170.75729887700001
 30
0.0
 40
7.4965279578999988
  1
6
  0
ENDBLK
  5
657
  8
0
  0
BLOCK
  8
0
  2
*U62
 70
     1
 10
0.0
 20
0.0
 30
0.0
  3
*U62
  1

  0
TEXT
  5
659
  8
ﾚｲﾔ_1
  6
CONTINUOUS
 10
860.8117955317
 20
-95.825025020200002
 30
0.0
 40
7.4965279578999988
  1
ＨＬ
 50
90.0
  0
ENDBLK
  5
65B
  8
0
  0
BLOCK
  8
0
  2
*U63
 70
     1
 10
0.0
 20
0.0
 30
0.0
  3
*U63
  1

  0
TEXT
  5
65D
  8
ﾚｲﾔ_1
  6
CONTINUOUS
 10
744.94650806330003
 20
-130.32700307269999
 30
0.0
 40
7.4965279578999988
  1
１３Ａ
  0
ENDBLK
  5
65F
  8
0
  0
BLOCK
  8
0
  2
*U64
 70
     1
 10
0.0
 20
0.0
 30
0.0
  3
*U64
  1

  0
TEXT
  5
661
  8
図枠
  6
CONTINUOUS
 10
1000.619771084343
 20
-439.87395824980001
 30
0.0
 40
13.4937497973
  1
Ｂ
  0
ENDBLK
  5
663
  8
0
  0
BLOCK
  8
0
  2
*U65
 70
     1
 10
0.0
 20
0.0
 30
0.0
  3
*U65
  1

  0
TEXT
  5
665
  8
ﾚｲﾔ_1
  6
CONTINUOUS
 10
955.20532805763344
 20
-343.86559212510002
 30
0.0
 40
7.4965279578999988
  1
1
  0
ENDBLK
  5
667
  8
0
  0
BLOCK
  8
0
  2
*U66
 70
     1
 10
0.0
 20
0.0
 30
0.0
  3
*U66
  1

  0
TEXT
  5
669
  8
ﾚｲﾔ_1
  6
CONTINUOUS
 10
955.85223656161475
 20
-429.9724928343
 30
0.0
 40
7.4965279578999988
  1
4
  0
ENDBLK
  5
66B
  8
0
  0
BLOCK
  8
0
  2
*U67
 70
     1
 10
0.0
 20
0.0
 30
0.0
  3
*U67
  1

  0
TEXT
  5
66D
  8
図枠
  6
CONTINUOUS
 10
1007.23451883822
 20
-702.35029276871967
 30
0.0
 40
7.496527552599999
  1
図 番
  0
ENDBLK
  5
66F
  8
0
  0
BLOCK
  8
0
  2
*U68
 70
     1
 10
0.0
 20
0.0
 30
0.0
  3
*U68
  1

  0
TEXT
  5
671
  8
図枠
  6
CONTINUOUS
 10
993.79841394578489
 20
-547.74102572265383
 30
0.0
 40
7.1578947901999994
  1
ポリエチレン
  0
ENDBLK
  5
673
  8
0
  0
BLOCK
  8
0
  2
*U69
 70
     1
 10
0.0
 20
0.0
 30
0.0
  3
*U69
  1

  0
TEXT
  5
675
  8
図枠
  6
CONTINUOUS
 10
994.05275538503054
 20
-572.52301877472894
 30
0.0
 40
7.1578947901999994
  1
ステンレス管
  0
ENDBLK
  5
677
  8
0
  0
BLOCK
  8
0
  2
*U70
 70
     1
 10
0.0
 20
0.0
 30
0.0
  3
*U70
  1

  0
TEXT
  5
679
  8
図枠
  6
CONTINUOUS
 10
984.20610823709035
 20
-597.12333937020003
 30
0.0
 40
7.1578947901999994
  1
SUS304  HL  0.8t
  0
ENDBLK
  5
67B
  8
0
  0
BLOCK
  8
0
  2
*U71
 70
     1
 10
0.0
 20
0.0
 30
0.0
  3
*U71
  1

  0
TEXT
  5
67D
  8
図枠
  6
CONTINUOUS
 10
984.20610823709035
 20
-609.62333937020003
 30
0.0
 40
7.1578947901999994
  1
SUS304  HL  0.8t
  0
ENDBLK
  5
67F
  8
0
  0
BLOCK
  8
0
  2
*U72
 70
     1
 10
0.0
 20
0.0
 30
0.0
  3
*U72
  1

  0
TEXT
  5
681
  8
図枠
  6
CONTINUOUS
 10
984.20610823709035
 20
-622.12333937020003
 30
0.0
 40
7.1578947901999994
  1
SUS304  HL  0.8t
  0
ENDBLK
  5
683
  8
0
  0
BLOCK
  8
0
  2
*U73
 70
     1
 10
0.0
 20
0.0
 30
0.0
  3
*U73
  1

  0
TEXT
  5
685
  8
図枠
  6
CONTINUOUS
 10
1000.520294840135
 20
-585.24102572265383
 30
0.0
 40
7.1578947901999994
  1
SUSエルボ
  0
ENDBLK
  5
687
  8
0
  0
BLOCK
  8
0
  2
*U74
 70
     1
 10
0.0
 20
0.0
 30
0.0
  3
*U74
  1

  0
TEXT
  5
689
  8
図枠
  6
CONTINUOUS
 10
963.69528788649188
 20
-560.02301877472894
 30
0.0
 40
7.1578947901999994
  1
硬質膿R砲ウレタンフォ－ム
  0
ENDBLK
  5
68B
  8
0
  0
BLOCK
  8
0
  2
*U75
 70
     1
 10
0.0
 20
0.0
 30
0.0
  3
*U75
  1

  0
TEXT
  5
68D
  8
図枠
  6
CONTINUOUS
 10
997.32909760904477
 20
-635.22834620807305
 30
0.0
 40
7.496527552599999
  1
材　　　質
  0
ENDBLK
  5
68F
  8
0
  0
BLOCK
  8
0
  2
*U76
 70
     1
 10
0.0
 20
0.0
 30
0.0
  3
*U76
  1

  0
TEXT
  5
691
  8
図枠
  6
CONTINUOUS
 10
1004.627858242519
 20
-647.50250652613306
 30
0.0
 40
7.496527552599999
  1
製品名
  0
ENDBLK
  5
693
  8
0
  0
BLOCK
  8
0
  2
*U77
 70
     1
 10
0.0
 20
0.0
 30
0.0
  3
*U77
  1

  0
TEXT
  5
695
  8
図枠
  6
CONTINUOUS
 10
1004.837152158962
 20
-674.92639964742636
 30
0.0
 40
7.496527552599999
  1
図面名
  0
ENDBLK
  5
697
  8
0
  0
BLOCK
  8
0
  2
*U78
 70
     1
 10
0.0
 20
0.0
 30
0.0
  3
*U78
  1

  0
TEXT
  5
699
  8
図枠
  6
CONTINUOUS
 10
818.43896567650802
 20
-635.19029276871981
 30
0.0
 40
7.496527552599999
  1
品番
  0
ENDBLK
  5
69B
  8
0
  0
BLOCK
  8
0
  2
*U79
 70
     1
 10
0.0
 20
0.0
 30
0.0
  3
*U79
  1

  0
TEXT
  5
69D
  8
図枠
  6
CONTINUOUS
 10
829.32516695139304
 20
-648.29827786421311
 30
0.0
 40
7.496527552599999
  1
日　　付
  0
ENDBLK
  5
69F
  8
0
  0
BLOCK
  8
0
  2
*U80
 70
     1
 10
0.0
 20
0.0
 30
0.0
  3
*U80
  1

  0
TEXT
  5
6A1
  8
図枠
  6
CONTINUOUS
 10
835.3376103692143
 20
-661.91398246610004
 30
0.0
 40
7.496527552599999
  1
H16.4
  0
ENDBLK
  5
6A3
  8
0
  0
BLOCK
  8
0
  2
*U81
 70
     1
 10
0.0
 20
0.0
 30
0.0
  3
*U81
  1

  0
TEXT
  5
6A5
  8
図枠
  6
CONTINUOUS
 10
816.32179112130007
 20
-689.77659850033297
 30
0.0
 40
7.496527552599999
  1
 製図
  0
ENDBLK
  5
6A7
  8
0
  0
BLOCK
  8
0
  2
*U82
 70
     1
 10
0.0
 20
0.0
 30
0.0
  3
*U82
  1

  0
TEXT
  5
6A9
  8
図枠
  6
CONTINUOUS
 10
816.32179112130007
 20
-675.95049162162616
 30
0.0
 40
7.496527552599999
  1
 設計
  0
ENDBLK
  5
6AB
  8
0
  0
BLOCK
  8
0
  2
*U83
 70
     1
 10
0.0
 20
0.0
 30
0.0
  3
*U83
  1

  0
TEXT
  5
6AD
  8
図枠
  6
CONTINUOUS
 10
910.07179112130007
 20
-675.98854506097962
 30
0.0
 40
7.496527552599999
  1
 照査
  0
ENDBLK
  5
6AF
  8
0
  0
BLOCK
  8
0
  2
*U84
 70
     1
 10
0.0
 20
0.0
 30
0.0
  3
*U84
  1

  0
TEXT
  5
6B1
  8
図枠
  6
CONTINUOUS
 10
910.07179112130007
 20
-689.8146519396862
 30
0.0
 40
7.496527552599999
  1
 検図
  0
ENDBLK
  5
6B3
  8
0
  0
BLOCK
  8
0
  2
*U85
 70
     1
 10
0.0
 20
0.0
 30
0.0
  3
*U85
  1

  0
TEXT
  5
6B5
  8
図枠
  6
CONTINUOUS
 10
829.9213834633
 20
-713.18556915450915
 30
0.0
 40
13.4937497973
  1
株式会社
  0
ENDBLK
  5
6B7
  8
0
  0
BLOCK
  8
0
  2
*U86
 70
     1
 10
0.0
 20
0.0
 30
0.0
  3
*U86
  1

  0
TEXT
  5
6B9
  8
図枠
  6
CONTINUOUS
 10
872.43869693738884
 20
-623.87215214879996
 30
0.0
 40
7.1578947901999994
  1
2
  0
ENDBLK
  5
6BB
  8
0
  0
BLOCK
  8
0
  2
*U87
 70
     1
 10
0.0
 20
0.0
 30
0.0
  3
*U87
  1

  0
TEXT
  5
6BD
  8
図枠
  6
CONTINUOUS
 10
808.39638483257795
 20
-524.05008264490004
 30
0.0
 40
7.1578947901999994
  1
1
  0
ENDBLK
  5
6BF
  8
0
  0
BLOCK
  8
0
  2
*U88
 70
     1
 10
0.0
 20
0.0
 30
0.0
  3
*U88
  1

  0
TEXT
  5
6C1
  8
図枠
  6
CONTINUOUS
 10
825.2645509224285
 20
-547.12333937020003
 30
0.0
 40
7.1578947901999994
  1
7
  0
ENDBLK
  5
6C3
  8
0
  0
BLOCK
  8
0
  2
*U89
 70
     1
 10
0.0
 20
0.0
 30
0.0
  3
*U89
  1

  0
TEXT
  5
6C5
  8
図枠
  6
CONTINUOUS
 10
863.63980251617795
 20
-547.92499654699998
 30
0.0
 40
7.1578947901999994
  1
1
  0
ENDBLK
  5
6C7
  8
0
  0
BLOCK
  8
0
  2
*U90
 70
     1
 10
0.0
 20
0.0
 30
0.0
  3
*U90
  1

  0
TEXT
  5
6C9
  8
図枠
  6
CONTINUOUS
 10
825.24638367676789
 20
-559.62333937020003
 30
0.0
 40
7.1578947901999994
  1
6
  0
ENDBLK
  5
6CB
  8
0
  0
BLOCK
  8
0
  2
*U91
 70
     1
 10
0.0
 20
0.0
 30
0.0
  3
*U91
  1

  0
TEXT
  5
6CD
  8
図枠
  6
CONTINUOUS
 10
825.70056481827805
 20
-622.12333937020003
 30
0.0
 40
7.1578947901999994
  1
1
  0
ENDBLK
  5
6CF
  8
0
  0
BLOCK
  8
0
  2
*U92
 70
     1
 10
0.0
 20
0.0
 30
0.0
  3
*U92
  1

  0
TEXT
  5
6D1
  8
図枠
  6
CONTINUOUS
 10
825.31905265940975
 20
-597.12333937020003
 30
0.0
 40
7.1578947901999994
  1
3
  0
ENDBLK
  5
6D3
  8
0
  0
BLOCK
  8
0
  2
*U93
 70
     1
 10
0.0
 20
0.0
 30
0.0
  3
*U93
  1

  0
TEXT
  5
6D5
  8
図枠
  6
CONTINUOUS
 10
825.2645509224285
 20
-584.62333937020003
 30
0.0
 40
7.1578947901999994
  1
4
  0
ENDBLK
  5
6D7
  8
0
  0
BLOCK
  8
0
  2
*U94
 70
     1
 10
0.0
 20
0.0
 30
0.0
  3
*U94
  1

  0
TEXT
  5
6D9
  8
図枠
  6
CONTINUOUS
 10
825.28271816808876
 20
-609.62333937020003
 30
0.0
 40
7.1578947901999994
  1
2
  0
ENDBLK
  5
6DB
  8
0
  0
BLOCK
  8
0
  2
*U95
 70
     1
 10
0.0
 20
0.0
 30
0.0
  3
*U95
  1

  0
TEXT
  5
6DD
  8
図枠
  6
CONTINUOUS
 10
872.85654358757813
 20
-585.72261559460003
 30
0.0
 40
7.1578947901999994
  1
1
  0
ENDBLK
  5
6DF
  8
0
  0
BLOCK
  8
0
  2
*U96
 70
     1
 10
0.0
 20
0.0
 30
0.0
  3
*U96
  1

  0
TEXT
  5
6E1
  8
図枠
  6
CONTINUOUS
 10
825.31905265940975
 20
-572.12333937020003
 30
0.0
 40
7.1578947901999994
  1
5
  0
ENDBLK
  5
6E3
  8
0
  0
BLOCK
  8
0
  2
*U97
 70
     1
 10
0.0
 20
0.0
 30
0.0
  3
*U97
  1

  0
TEXT
  5
6E5
  8
図枠
  6
CONTINUOUS
 10
864.09049211854358
 20
-689.85270537903955
 30
0.0
 40
7.496527552599999
  1
岸 本
  0
ENDBLK
  5
6E7
  8
0
  0
BLOCK
  8
0
  2
*U98
 70
     1
 10
0.0
 20
0.0
 30
0.0
  3
*U98
  1

  0
TEXT
  5
6E9
  8
図枠
  6
CONTINUOUS
 10
861.84533919669911
 20
-676.06465193968609
 30
0.0
 40
7.496527552599999
  1
白須賀
  0
ENDBLK
  5
6EB
  8
0
  0
BLOCK
  8
0
  2
*U99
 70
     1
 10
0.0
 20
0.0
 30
0.0
  3
*U99
  1

  0
TEXT
  5
6ED
  8
図枠
  6
CONTINUOUS
 10
957.87854555789693
 20
-675.83633130356645
 30
0.0
 40
7.496527552599999
  1
園 原
  0
ENDBLK
  5
6EF
  8
0
  0
BLOCK
  8
0
  2
*U100
 70
     1
 10
0.0
 20
0.0
 30
0.0
  3
*U100
  1

  0
TEXT
  5
6F1
  8
図枠
  6
CONTINUOUS
 10
957.87854555789693
 20
-689.58633130356645
 30
0.0
 40
7.496527552599999
  1
園 原
  0
ENDBLK
  5
6F3
  8
0
  0
BLOCK
  8
0
  2
*U101
 70
     1
 10
0.0
 20
0.0
 30
0.0
  3
*U101
  1

  0
TEXT
  5
6F5
  8
ﾚｲﾔ_1
  6
CONTINUOUS
 10
527.05851349739987
 20
-536.08983820558626
 30
0.0
 40
8.9958330630999992
  1
注意事項
  0
TEXT
  5
6F6
  8
ﾚｲﾔ_1
  6
CONTINUOUS
 10
527.05851349739987
 20
-566.76091032427746
 30
0.0
 40
8.9958330630999992
  1
＊この水栓柱は、お湯を通水することが
  0
TEXT
  5
6F7
  8
ﾚｲﾔ_1
  6
CONTINUOUS
 10
527.05851349739987
 20
-597.47764657019263
 30
0.0
 40
8.9958330630999992
  1
　可能ですが、安全にご使用していただく
  0
TEXT
  5
6F8
  8
ﾚｲﾔ_1
  6
CONTINUOUS
 10
527.05851349739987
 20
-627.92039805276454
 30
0.0
 40
8.9958330630999992
  1
　為に通水温度を８０℃以内にして下さい。
  0
TEXT
  5
6F9
  8
ﾚｲﾔ_1
  6
CONTINUOUS
 10
527.05851349739987
 20
-658.45447778978405
 30
0.0
 40
8.9958330630999992
  1
　又、人体に直接触れる可能性のある場所
  0
TEXT
  5
6FA
  8
ﾚｲﾔ_1
  6
CONTINUOUS
 10
527.05851349739987
 20
-689.17121403569922
 30
0.0
 40
8.9958330630999992
  1
　では通水温度を６０℃以内にてご使用
  0
TEXT
  5
6FB
  8
ﾚｲﾔ_1
  6
CONTINUOUS
 10
527.05851349739987
 20
-719.47697313659955
 30
0.0
 40
8.9958330630999992
  1
　下さい。
  0
ENDBLK
  5
6FD
  8
0
  0
BLOCK
  8
0
  2
*U102
 70
     1
 10
0.0
 20
0.0
 30
0.0
  3
*U102
  1

  0
TEXT
  5
6FF
  8
図枠
  6
CONTINUOUS
 10
877.40520448775135
 20
-573.26109435901935
 30
0.0
 40
7.496527552599999
  1
給水パイプ
  0
ENDBLK
  5
701
  8
0
  0
BLOCK
  8
0
  2
*U103
 70
     1
 10
0.0
 20
0.0
 30
0.0
  3
*U103
  1

  0
TEXT
  5
703
  8
図枠
  6
CONTINUOUS
 10
877.61449840419448
 20
-635.26639964742628
 30
0.0
 40
7.496527552599999
  1
品　　　名
  0
ENDBLK
  5
705
  8
0
  0
BLOCK
  8
0
  2
*U104
 70
     1
 10
0.0
 20
0.0
 30
0.0
  3
*U104
  1

  0
TEXT
  5
707
  8
図枠
  6
CONTINUOUS
 10
887.56918615637255
 20
-585.02301877472894
 30
0.0
 40
7.1578947901999994
  1
給水口
  0
ENDBLK
  5
709
  8
0
  0
BLOCK
  8
0
  2
*U105
 70
     1
 10
0.0
 20
0.0
 30
0.0
  3
*U105
  1

  0
TEXT
  5
70B
  8
図枠
  6
CONTINUOUS
 10
869.22026803936251
 20
-547.88636368793709
 30
0.0
 40
7.1578947901999994
  1
継手アダプター
  0
ENDBLK
  5
70D
  8
0
  0
BLOCK
  8
0
  2
*U106
 70
     1
 10
0.0
 20
0.0
 30
0.0
  3
*U106
  1

  0
TEXT
  5
70F
  8
図枠
  6
CONTINUOUS
 10
892.4925097303427
 20
-622.52301877472894
 30
0.0
 40
7.1578947901999994
  1
本体
  0
ENDBLK
  5
711
  8
0
  0
BLOCK
  8
0
  2
*U107
 70
     1
 10
0.0
 20
0.0
 30
0.0
  3
*U107
  1

  0
TEXT
  5
713
  8
図枠
  6
CONTINUOUS
 10
878.59456680013193
 20
-610.38636368793709
 30
0.0
 40
7.1578947901999994
  1
上キャップ
  0
ENDBLK
  5
715
  8
0
  0
BLOCK
  8
0
  2
*U108
 70
     1
 10
0.0
 20
0.0
 30
0.0
  3
*U108
  1

  0
TEXT
  5
717
  8
図枠
  6
CONTINUOUS
 10
878.63090129145291
 20
-597.88636368793709
 30
0.0
 40
7.1578947901999994
  1
下キャップ
  0
ENDBLK
  5
719
  8
0
  0
BLOCK
  8
0
  2
*U109
 70
     1
 10
0.0
 20
0.0
 30
0.0
  3
*U109
  1

  0
TEXT
  5
71B
  8
図枠
  6
CONTINUOUS
 10
887.56918615637255
 20
-585.02301877472894
 30
0.0
 40
7.1578947901999994
  1
給水口
  0
ENDBLK
  5
71D
  8
0
  0
BLOCK
  8
0
  2
*U110
 70
     1
 10
0.0
 20
0.0
 30
0.0
  3
*U110
  1

  0
TEXT
  5
71F
  8
図枠
  6
CONTINUOUS
 10
888.94989682656364
 20
-559.9503497920872
 30
0.0
 40
7.1578947901999994
  1
断熱材
  0
ENDBLK
  5
721
  8
0
  0
BLOCK
  8
0
  2
*U111
 70
     1
 10
0.0
 20
0.0
 30
0.0
  3
*U111
  1

  0
TEXT
  5
723
  8
図枠
  6
CONTINUOUS
 10
898.37035852016038
 20
-662.3325702989863
 30
0.0
 40
7.496527552599999
  1
略 尺
  0
ENDBLK
  5
725
  8
0
  0
BLOCK
  8
0
  2
*U112
 70
     1
 10
0.0
 20
0.0
 30
0.0
  3
*U112
  1

  0
TEXT
  5
727
  8
図枠
  6
CONTINUOUS
 10
891.02604472497364
 20
-648.52659850033285
 30
0.0
 40
7.496527552599999
  1
尺　　度
  0
ENDBLK
  5
729
  8
0
  0
BLOCK
  8
0
  2
*U113
 70
     1
 10
0.0
 20
0.0
 30
0.0
  3
*U113
  1

  0
TEXT
  5
72B
  8
ﾚｲﾔ_1
  6
CONTINUOUS
 10
729.07628118387197
 20
-115.4675145323492
 30
0.0
 40
7.4965279578999988
  1
2-ＲＰ1/2ネジ
  0
ENDBLK
  5
72D
  8
0
  0
BLOCK
  8
0
  2
*U114
 70
     1
 10
0.0
 20
0.0
 30
0.0
  3
*U114
  1

  0
TEXT
  5
72F
  8
ﾚｲﾔ_1
  6
CONTINUOUS
 10
955.73807623738276
 20
-477.19383687969997
 30
0.0
 40
7.4965279578999988
  1
3
  0
ENDBLK
  5
731
  8
0
  0
BLOCK
  8
0
  2
*U115
 70
     1
 10
0.0
 20
0.0
 30
0.0
  3
*U115
  1

  0
TEXT
  5
733
  8
ﾚｲﾔ_1
  6
CONTINUOUS
 10
955.54499130232932
 20
-2.9869382931999988
 30
0.0
 40
7.4965279578999988
  1
7
  0
ENDBLK
  5
735
  8
0
  0
BLOCK
  8
0
  2
*U116
 70
     1
 10
0.0
 20
0.0
 30
0.0
  3
*U116
  1

  0
TEXT
  5
737
  8
ﾚｲﾔ_1
  6
CONTINUOUS
 10
955.5478090303294
 20
-2.982432543599999
 30
0.0
 40
7.4965279578999988
  1
7
  0
ENDBLK
  5
739
  8
0
  0
BLOCK
  8
0
  2
*U117
 70
     1
 10
0.0
 20
0.0
 30
0.0
  3
*U117
  1

  0
TEXT
  5
73B
  8
ﾚｲﾔ_1
  6
CONTINUOUS
 10
955.73807623738276
 20
-257.52335953980003
 30
0.0
 40
7.4965279578999988
  1
5
  0
ENDBLK
  5
73D
  8
0
  0
BLOCK
  8
0
  2
*U118
 70
     1
 10
0.0
 20
0.0
 30
0.0
  3
*U118
  1

  0
TEXT
  5
73F
  8
図枠
  6
CONTINUOUS
 10
1088.2005648182781
 20
-572.12333937020003
 30
0.0
 40
7.1578947901999994
  1
1
  0
ENDBLK
  5
741
  8
0
  0
BLOCK
  8
0
  2
*U119
 70
     1
 10
0.0
 20
0.0
 30
0.0
  3
*U119
  1

  0
TEXT
  5
743
  8
図枠
  6
CONTINUOUS
 10
1088.2005648182781
 20
-559.62333937020003
 30
0.0
 40
7.1578947901999994
  1
1
  0
ENDBLK
  5
745
  8
0
  0
BLOCK
  8
0
  2
*U120
 70
     1
 10
0.0
 20
0.0
 30
0.0
  3
*U120
  1

  0
TEXT
  5
747
  8
図枠
  6
CONTINUOUS
 10
1088.2005648182781
 20
-597.12333937020003
 30
0.0
 40
7.1578947901999994
  1
1
  0
ENDBLK
  5
749
  8
0
  0
BLOCK
  8
0
  2
*U121
 70
     1
 10
0.0
 20
0.0
 30
0.0
  3
*U121
  1

  0
TEXT
  5
74B
  8
図枠
  6
CONTINUOUS
 10
1087.7827181680891
 20
-584.62333937020003
 30
0.0
 40
7.1578947901999994
  1
2
  0
ENDBLK
  5
74D
  8
0
  0
BLOCK
  8
0
  2
*U122
 70
     1
 10
0.0
 20
0.0
 30
0.0
  3
*U122
  1

  0
TEXT
  5
74F
  8
図枠
  6
CONTINUOUS
 10
1080.691618320712
 20
-635.34250652613309
 30
0.0
 40
7.496527552599999
  1
数量
  0
ENDBLK
  5
751
  8
0
  0
BLOCK
  8
0
  2
*U123
 70
     1
 10
0.0
 20
0.0
 30
0.0
  3
*U123
  1

  0
TEXT
  5
753
  8
図枠
  6
CONTINUOUS
 10
1043.4879534763861
 20
-683.26268394528165
 30
0.0
 40
8.9958328605000002
  1
ＷＰ７-１００Ｓ 承認図
  0
ENDBLK
  5
755
  8
0
  0
BLOCK
  8
0
  2
*U124
 70
     1
 10
0.0
 20
0.0
 30
0.0
  3
*U124
  1

  0
TEXT
  5
757
  8
図枠
  6
CONTINUOUS
 10
1089.0607514194271
 20
-656.08233282864967
 30
0.0
 40
8.9958328605000002
  1
水栓柱
  0
ENDBLK
  5
759
  8
0
  0
BLOCK
  8
0
  2
*U125
 70
     1
 10
0.0
 20
0.0
 30
0.0
  3
*U125
  1

  0
TEXT
  5
75B
  8
図枠
  6
CONTINUOUS
 10
1060.8174893675521
 20
-710.58002744049986
 30
0.0
 40
8.9958328605000002
  1
ＳＢＰ０００２９
  0
ENDBLK
  5
75D
  8
0
  0
BLOCK
  8
0
  2
*U126
 70
     1
 10
0.0
 20
0.0
 30
0.0
  3
*U126
  1

  0
TEXT
  5
75F
  8
図枠
  6
CONTINUOUS
 10
1011.7303262049149
 20
244.96345146604261
 30
0.0
 40
6.7468748986999989
  1
本体板厚変更 1.0ｔ⇒0.8ｔ
  0
ENDBLK
  5
761
  8
0
  0
BLOCK
  8
0
  2
*U127
 70
     1
 10
0.0
 20
0.0
 30
0.0
  3
*U127
  1

  0
TEXT
  5
763
  8
図枠
  6
CONTINUOUS
 10
1036.1492186047781
 20
269.99769956197508
 30
0.0
 40
6.7468748986999989
  1
改　訂　内　容
  0
ENDBLK
  5
765
  8
0
  0
BLOCK
  8
0
  2
*U128
 70
     1
 10
0.0
 20
0.0
 30
0.0
  3
*U128
  1

  0
TEXT
  5
767
  8
図枠
  6
CONTINUOUS
 10
1035.9951021730819
 20
257.36070717824521
 30
0.0
 40
6.7468748986999989
  1
部品追加・変更
  0
ENDBLK
  5
769
  8
0
  0
BLOCK
  8
0
  2
*U129
 70
     1
 10
0.0
 20
0.0
 30
0.0
  3
*U129
  1

  0
TEXT
  5
76B
  8
図枠
  6
CONTINUOUS
 10
1087.7827181680891
 20
-547.12333937020003
 30
0.0
 40
7.1578947901999994
  1
2
  0
ENDBLK
  5
76D
  8
0
  0
BLOCK
  8
0
  2
*U130
 70
     1
 10
0.0
 20
0.0
 30
0.0
  3
*U130
  1

  0
TEXT
  5
76F
  8
図枠
  6
CONTINUOUS
 10
1088.2005648182781
 20
-622.12333937020003
 30
0.0
 40
7.1578947901999994
  1
1
  0
ENDBLK
  5
771
  8
0
  0
BLOCK
  8
0
  2
*U131
 70
     1
 10
0.0
 20
0.0
 30
0.0
  3
*U131
  1

  0
TEXT
  5
773
  8
図枠
  6
CONTINUOUS
 10
1088.2005648182781
 20
-609.62333937020003
 30
0.0
 40
7.1578947901999994
  1
1
  0
ENDBLK
  5
775
  8
0
  0
BLOCK
  8
0
  2
*U132
 70
     1
 10
0.0
 20
0.0
 30
0.0
  3
*U132
  1

  0
TEXT
  5
777
  8
ﾚｲﾔ_1
  6
CONTINUOUS
 10
820.88114882089985
 20
-524.65437396188122
 30
0.0
 40
7.4965279578999988
  1
変更内容：給水口を砲金エルボからSUSエルボに変更。
  0
TEXT
  5
778
  8
ﾚｲﾔ_1
  6
CONTINUOUS
 10
820.88114882089985
 20
-537.94770949467159
 30
0.0
 40
7.4965279578999988
  1
          変更に伴い継手アダプタ ーを追加。
  0
ENDBLK
  5
77A
  8
0
  0
ENDSEC
  0
SECTION
  2
ENTITIES
  0
LINE
  5
2F
  8
ﾚｲﾔ_1
 62
     5
 10
1109.0873114691001
 20
189.2666695696
 30
0.0
 11
1111.7717463909
 21
192.04648330660001
 31
0.0
  0
ARC
  5
30
  8
ﾚｲﾔ_1
 62
     5
 10
1108.6066512693999
 20
195.1029801366
 30
0.0
 40
4.4000000000000004
 50
316.0
 51
81.094600151600005
  0
ARC
  5
31
  8
ﾚｲﾔ_1
 62
     5
 10
1108.6066512693999
 20
195.1029801366
 30
0.0
 40
2.7999999999999989
 50
316.0
 51
81.094600151600005
  0
LINE
  5
32
  8
ﾚｲﾔ_1
 62
     5
 10
1108.8066512693999
 20
157.42132596479999
 30
0.0
 11
1108.8066512693999
 21
188.57201119909999
 31
0.0
  0
INSERT
  5
34
  8
0
  6
CONTINUOUS
  2
*U40
 10
0.0
 20
0.0
 30
0.0
  0
INSERT
  5
35
  8
0
  6
CONTINUOUS
  2
*U41
 10
0.0
 20
0.0
 30
0.0
  0
INSERT
  5
36
  8
0
  6
CONTINUOUS
  2
*U42
 10
0.0
 20
0.0
 30
0.0
  0
INSERT
  5
37
  8
0
  6
CONTINUOUS
  2
*U43
 10
0.0
 20
0.0
 30
0.0
  0
LINE
  5
38
  8
図枠
 62
     5
 10
1128.8217911213001
 20
241.87455542000001
 30
0.0
 11
1128.8217911213001
 21
279.37455541999998
 31
0.0
  0
LINE
  5
39
  8
図枠
 62
     5
 10
1153.8217911213001
 20
241.87455542000001
 30
0.0
 11
1153.8217911213001
 21
279.37455541999998
 31
0.0
  0
LINE
  5
3A
  8
ﾚｲﾔ_1
 62
     5
 10
1110.9066512694001
 20
89.276037424999998
 30
0.0
 11
1105.7392661986
 21
89.276037424999998
 31
0.0
  0
ARC
  5
3B
  8
ﾚｲﾔ_1
 62
     5
 10
1109.8066512693999
 20
188.57201119909999
 30
0.0
 40
2.6000000000000001
 50
136.0
 51
180.0
  0
CIRCLE
  5
3C
  8
ﾚｲﾔ_1
 62
     5
 10
1109.1766512694001
 20
195.5906205117
 30
0.0
 40
2.2299999999999991
  0
LINE
  5
3D
  8
ﾚｲﾔ_1
 62
     5
 10
1107.4066512694001
 20
198.12517605529999
 30
0.0
 11
1109.0401010583
 21
197.86922692249999
 31
0.0
  0
LINE
  5
3E
  8
ﾚｲﾔ_1
 62
     5
 10
1107.4066512694001
 20
199.74469894929999
 30
0.0
 11
1109.2877866519
 21
199.44993937160001
 31
0.0
  0
LINE
  5
3F
  8
ﾚｲﾔ_1
 62
     5
 10
1107.9363677885001
 20
190.37812296230001
 30
0.0
 11
1110.6208027104001
 21
193.1579366993
 31
0.0
  0
LINE
  5
40
  8
ﾚｲﾔ_1
 62
     5
 10
1107.2066512694
 20
189.6224793863
 30
0.0
 11
1106.9066512694001
 21
189.6224793863
 31
0.0
  0
LINE
  5
41
  8
ﾚｲﾔ_1
 62
     5
 10
1107.4066512694001
 20
198.15651453109999
 30
0.0
 11
1106.9066512694001
 21
198.15651453109999
 31
0.0
  0
LINE
  5
42
  8
ﾚｲﾔ_1
 62
     5
 10
1107.4066512694001
 20
199.776037425
 30
0.0
 11
1106.9066512694001
 21
199.776037425
 31
0.0
  0
LINE
  5
43
  8
ﾚｲﾔ_1
 62
     5
 10
1102.9066512694001
 20
139.29921742179999
 30
0.0
 11
1105.1066512693999
 21
151.776037425
 31
0.0
  0
LINE
  5
44
  8
ﾚｲﾔ_1
 62
     5
 10
1105.1866512694
 20
153.44413344559999
 30
0.0
 11
1107.2066512694
 21
157.776037425
 31
0.0
  0
LINE
  5
45
  8
ﾚｲﾔ_1
 62
     5
 10
1106.7866512694
 20
151.776037425
 30
0.0
 11
1106.7866512694
 21
153.08942198529999
 31
0.0
  0
LINE
  5
46
  8
ﾚｲﾔ_1
 62
     5
 10
1105.1866512694
 20
151.776037425
 30
0.0
 11
1105.1866512694
 21
153.44413344559999
 31
0.0
  0
LINE
  5
47
  8
ﾚｲﾔ_1
 62
     5
 10
1102.9066512694001
 20
110.776037425
 30
0.0
 11
1102.9066512694001
 21
139.29921742179999
 31
0.0
  0
LINE
  5
48
  8
ﾚｲﾔ_1
 62
     5
 10
1107.2066512694
 20
157.776037425
 30
0.0
 11
1107.2066512694
 21
188.57201119909999
 31
0.0
  0
LINE
  5
49
  8
ﾚｲﾔ_1
 62
     5
 10
1107.4066512694001
 20
198.15651453109999
 30
0.0
 11
1107.4066512694001
 21
199.776037425
 31
0.0
  0
LINE
  5
4A
  8
ﾚｲﾔ_1
 62
     5
 10
1104.9066512694001
 20
157.776037425
 30
0.0
 11
1104.9066512694001
 21
210.257045237
 31
0.0
  0
LINE
  5
4B
  8
ﾚｲﾔ_1
 62
     5
 10
1106.9066512694001
 20
157.776037425
 30
0.0
 11
1106.9066512694001
 21
210.257045237
 31
0.0
  0
INSERT
  5
4C
  8
0
  6
CONTINUOUS
  2
*U44
 10
0.0
 20
0.0
 30
0.0
  0
INSERT
  5
4D
  8
0
  6
CONTINUOUS
  2
*U45
 10
0.0
 20
0.0
 30
0.0
  0
LINE
  5
4E
  8
ﾚｲﾔ_1
 10
1127.8091894642
 20
210.257045237
 30
0.0
 11
1127.8091894642
 21
58.910144566699991
 31
0.0
  0
LINE
  5
4F
  8
ﾚｲﾔ_1
 62
     5
 10
1110.9066512694001
 20
118.276037425
 30
0.0
 11
1108.4066512694001
 21
118.276037425
 31
0.0
  0
LINE
  5
50
  8
ﾚｲﾔ_1
 62
     5
 10
1108.4066512694001
 20
99.776037425000013
 30
0.0
 11
1108.4066512694001
 21
142.13485833159999
 31
0.0
  0
LINE
  5
51
  8
ﾚｲﾔ_1
 62
     5
 10
1110.9066512694001
 20
89.276037424999998
 30
0.0
 11
1110.9066512694001
 21
118.276037425
 31
0.0
  0
ARC
  5
52
  8
ﾚｲﾔ_1
 62
     5
 10
1109.8066512693999
 20
188.57201119909999
 30
0.0
 40
1.0
 50
136.0
 51
180.0
  0
LINE
  5
53
  8
ﾚｲﾔ_1
 62
     5
 10
1076.6266512694001
 20
151.776037425
 30
0.0
 11
1076.6266512694001
 21
153.44413344559999
 31
0.0
  0
LINE
  5
54
  8
ﾚｲﾔ_1
 62
     5
 10
1073.8769347503001
 20
190.37812296230001
 30
0.0
 11
1071.1924998285001
 21
193.1579366993
 31
0.0
  0
LINE
  5
55
  8
ﾚｲﾔ_1
 62
     5
 10
1072.7259910697001
 20
189.2666695696
 30
0.0
 11
1070.0415561479001
 21
192.04648330660001
 31
0.0
  0
CIRCLE
  5
56
  8
ﾚｲﾔ_1
 62
     5
 10
1072.6366512694001
 20
195.5906205117
 30
0.0
 40
2.2299999999999991
  0
LINE
  5
57
  8
ﾚｲﾔ_1
 62
     5
 10
1074.6066512693999
 20
157.776037425
 30
0.0
 11
1074.6066512693999
 21
188.57201119909999
 31
0.0
  0
LINE
  5
58
  8
ﾚｲﾔ_1
 62
     5
 10
1073.0066512694
 20
157.42132596479999
 30
0.0
 11
1073.0066512694
 21
188.57201119909999
 31
0.0
  0
LINE
  5
59
  8
ﾚｲﾔ_1
 62
     5
 10
1074.4066512694001
 20
198.15651453109999
 30
0.0
 11
1074.4066512694001
 21
199.776037425
 31
0.0
  0
LINE
  5
5A
  8
ﾚｲﾔ_1
 62
     5
 10
1074.4066512694001
 20
199.74469894929999
 30
0.0
 11
1072.5255158868999
 21
199.44993937160001
 31
0.0
  0
LINE
  5
5B
  8
ﾚｲﾔ_1
 62
     5
 10
1074.4066512694001
 20
198.12517605529999
 30
0.0
 11
1072.7732014804999
 21
197.86922692249999
 31
0.0
  0
ARC
  5
5C
  8
ﾚｲﾔ_1
 62
     5
 10
1073.2066512694
 20
195.1029801366
 30
0.0
 40
4.4000000000000004
 50
98.905399848399995
 51
224.0
  0
ARC
  5
5D
  8
ﾚｲﾔ_1
 62
     5
 10
1073.2066512694
 20
195.1029801366
 30
0.0
 40
2.7999999999999989
 50
98.905399848399995
 51
224.0
  0
ARC
  5
5E
  8
ﾚｲﾔ_1
 62
     5
 10
1072.0066512694
 20
188.57201119909999
 30
0.0
 40
1.0
 50
0.0
 51
44.0
  0
ARC
  5
5F
  8
ﾚｲﾔ_1
 62
     5
 10
1072.0066512694
 20
188.57201119909999
 30
0.0
 40
2.6000000000000001
 50
0.0
 51
44.0
  0
LINE
  5
60
  8
ﾚｲﾔ_1
 62
     5
 10
1032.9066512694001
 20
132.76800379400001
 30
0.0
 11
1032.9066512694001
 21
136.7760374252
 31
0.0
  0
LINE
  5
61
  8
ﾚｲﾔ_1
 62
     5
 10
1076.9066512694001
 20
157.776037425
 30
0.0
 11
1076.9066512694001
 21
210.257045237
 31
0.0
  0
LINE
  5
62
  8
ﾚｲﾔ_1
 62
     5
 10
1074.9066512694001
 20
157.776037425
 30
0.0
 11
1074.9066512694001
 21
210.257045237
 31
0.0
  0
LINE
  5
63
  8
ﾚｲﾔ_1
 62
     5
 10
1032.9066512694001
 20
210.257045237
 30
0.0
 11
1032.9066512694001
 21
133.776037425
 31
0.0
  0
LINE
  5
64
  8
ﾚｲﾔ_1
 62
     5
 10
1030.9066512694001
 20
133.276037425
 30
0.0
 11
1032.9066512694001
 21
133.276037425
 31
0.0
  0
LINE
  5
65
  8
ﾚｲﾔ_1
 62
     5
 10
1032.9066512694001
 20
73.776037424999984
 30
0.0
 11
1032.9066512694001
 21
58.910144566699991
 31
0.0
  0
LINE
  5
66
  8
ﾚｲﾔ_1
 62
     5
 10
1030.9066512694001
 20
73.776037424999984
 30
0.0
 11
1030.9066512694001
 21
58.910144566699991
 31
0.0
  0
INSERT
  5
67
  8
0
  6
CONTINUOUS
  2
*U46
 10
0.0
 20
0.0
 30
0.0
  0
LINE
  5
68
  8
図枠
 10
1101.3217911213001
 20
-638.12544458000002
 30
0.0
 11
1101.3217911213001
 21
-625.62544458000002
 31
0.0
  0
LINE
  5
69
  8
ﾚｲﾔ_1
 62
     5
 10
1109.1766512694001
 20
193.36062051169989
 30
0.0
 11
1106.9066512694001
 21
193.36062051169989
 31
0.0
  0
LINE
  5
6A
  8
ﾚｲﾔ_1
 62
     5
 10
1106.7866512694
 20
153.08942198529999
 30
0.0
 11
1108.8066512693999
 21
157.42132596479999
 31
0.0
  0
LINE
  5
6B
  8
ﾚｲﾔ_1
 62
     5
 10
1108.4066512694001
 20
142.13485833159999
 30
0.0
 11
1106.7066512694
 21
151.776037425
 31
0.0
  0
LINE
  5
6C
  8
ﾚｲﾔ_1
 62
     5
 10
1076.9066512694001
 20
118.776037425
 30
0.0
 11
1074.810292442
 21
122.407037425
 31
0.0
  0
LINE
  5
6D
  8
ﾚｲﾔ_1
 62
     5
 10
1074.810292442
 20
85.145037424999998
 30
0.0
 11
1076.9066512694001
 21
88.776037424999984
 31
0.0
  0
LINE
  5
6E
  8
ﾚｲﾔ_1
 62
     5
 10
1032.9066512694001
 20
70.776037424799995
 30
0.0
 11
1041.5066512694
 21
70.776037424799995
 31
0.0
  0
LINE
  5
6F
  8
ﾚｲﾔ_1
 62
     5
 10
1032.9066512694001
 20
71.776037424999998
 30
0.0
 11
1032.9066512694001
 21
73.776037424999984
 31
0.0
  0
LINE
  5
70
  8
ﾚｲﾔ_1
 62
     5
 10
1032.9066512694001
 20
74.784071056000002
 30
0.0
 11
1032.9066512694001
 21
70.776037424799995
 31
0.0
  0
LINE
  5
71
  8
ﾚｲﾔ_1
 62
     5
 10
1030.5066512694
 20
74.784071056000002
 30
-6.5999999999999988
 11
1032.9066512694001
 21
74.784071056000002
 31
-6.5999999999999988
  0
LINE
  5
72
  8
ﾚｲﾔ_1
 62
     5
 10
1030.9066512694001
 20
74.276037424999998
 30
0.0
 11
1032.9066512694001
 21
74.276037424999998
 31
0.0
  0
LINE
  5
73
  8
ﾚｲﾔ_1
 62
     5
 10
1032.5066512694
 20
76.776037424999998
 30
0.0
 11
1030.5066512694
 21
76.776037424999998
 31
0.0
  0
LINE
  5
74
  8
ﾚｲﾔ_1
 62
     5
 10
1036.9066512694001
 20
81.776037424999998
 30
0.0
 11
1030.5066512694
 21
81.776037424999998
 31
0.0
  0
LINE
  5
75
  8
ﾚｲﾔ_1
 62
     5
 10
1030.5066512694
 20
79.7760374243
 30
-6.5999999999999988
 11
1032.5066512694
 21
79.7760374243
 31
-6.5999999999999988
  0
LINE
  5
76
  8
ﾚｲﾔ_1
 62
     5
 10
1032.5066512694
 20
79.7760374243
 30
0.0
 11
1032.5066512694
 21
76.776037424999998
 31
0.0
  0
LINE
  5
77
  8
ﾚｲﾔ_1
 62
     5
 10
1036.9066512694001
 20
125.776037425
 30
0.0
 11
1030.5066512694
 21
125.776037425
 31
0.0
  0
LINE
  5
78
  8
ﾚｲﾔ_1
 62
     5
 10
1030.5066512694
 20
127.7760374257
 30
-6.5999999999999988
 11
1032.5066512694
 21
127.7760374257
 31
-6.5999999999999988
  0
LINE
  5
79
  8
ﾚｲﾔ_1
 62
     5
 10
1032.5066512694
 20
130.776037425
 30
0.0
 11
1030.5066512694
 21
130.776037425
 31
0.0
  0
LINE
  5
7A
  8
ﾚｲﾔ_1
 62
     5
 10
1030.5066512694
 20
132.76800379400001
 30
-6.5999999999999988
 11
1032.9066512694001
 21
132.76800379400001
 31
-6.5999999999999988
  0
LINE
  5
7B
  8
ﾚｲﾔ_1
 62
     5
 10
1032.5066512694
 20
127.7760374257
 30
0.0
 11
1032.5066512694
 21
130.776037425
 31
0.0
  0
LINE
  5
7C
  8
ﾚｲﾔ_1
 62
     5
 10
1032.9066512694001
 20
133.776037425
 30
0.0
 11
1032.9066512694001
 21
135.776037425
 31
0.0
  0
LINE
  5
7D
  8
ﾚｲﾔ_1
 62
     5
 10
1032.9066512694001
 20
136.7760374252
 30
0.0
 11
1041.5066512694
 21
136.7760374252
 31
0.0
  0
LINE
  5
7E
  8
ﾚｲﾔ_1
 62
     5
 10
1075.0266512694
 20
151.776037425
 30
0.0
 11
1075.0266512694
 21
153.08942198529999
 31
0.0
  0
LINE
  5
7F
  8
ﾚｲﾔ_1
 62
     5
 10
1076.6266512694001
 20
153.44413344559999
 30
0.0
 11
1074.6066512693999
 21
157.776037425
 31
0.0
  0
LINE
  5
80
  8
ﾚｲﾔ_1
 62
     5
 10
1086.4066512694001
 20
77.776037424999998
 30
0.0
 11
1070.9066512694001
 21
77.776037424999998
 31
0.0
  0
LINE
  5
81
  8
ﾚｲﾔ_1
 62
     5
 10
1073.4066512694001
 20
131.41719169820001
 30
0.0
 11
1073.4066512694001
 21
142.13485833159999
 31
0.0
  0
LINE
  5
82
  8
ﾚｲﾔ_1
 62
     5
 10
1075.0266512694
 20
153.08942198529999
 30
0.0
 11
1073.0066512694
 21
157.42132596479999
 31
0.0
  0
LINE
  5
83
  8
ﾚｲﾔ_1
 62
     5
 10
1078.9066512694001
 20
139.29921742179999
 30
0.0
 11
1076.7066512694
 21
151.776037425
 31
0.0
  0
LINE
  5
84
  8
ﾚｲﾔ_1
 62
     5
 10
1073.4066512694001
 20
142.13485833159999
 30
0.0
 11
1075.1066512693999
 21
151.776037425
 31
0.0
  0
LINE
  5
85
  8
ﾚｲﾔ_1
 62
     5
 10
1076.9066512694001
 20
88.776037424999984
 30
0.0
 11
1076.9066512694001
 21
118.776037425
 31
0.0
  0
LINE
  5
86
  8
ﾚｲﾔ_1
 62
     5
 10
1041.5066512694
 20
136.7760374252
 30
0.0
 11
1041.5066512694
 21
133.79825142280001
 31
0.0
  0
LINE
  5
87
  8
ﾚｲﾔ_1
 62
     5
 10
1041.5066512694
 20
133.79825142280001
 30
0.0
 11
1036.9066512694001
 21
133.79825142280001
 31
0.0
  0
LINE
  5
88
  8
ﾚｲﾔ_1
 62
     5
 10
1036.9066512694001
 20
129.776037425
 30
0.0
 11
1039.2288776037999
 21
133.79825142280001
 31
0.0
  0
LINE
  5
89
  8
ﾚｲﾔ_1
 62
     5
 10
1036.9066512694001
 20
129.776037425
 30
0.0
 11
1036.9066512694001
 21
103.776037425
 31
0.0
  0
LINE
  5
8A
  8
ﾚｲﾔ_1
 62
     5
 10
1036.9066512694001
 20
133.79825142280001
 30
0.0
 11
1036.9066512694001
 21
125.776037425
 31
0.0
  0
LINE
  5
8B
  8
ﾚｲﾔ_1
 62
     5
 10
1041.5066512694
 20
70.776037424799995
 30
0.0
 11
1041.5066512694
 21
73.753823427100002
 31
0.0
  0
LINE
  5
8C
  8
ﾚｲﾔ_1
 62
     5
 10
1036.9066512694001
 20
73.753823427100002
 30
0.0
 11
1036.9066512694001
 21
81.776037424999998
 31
0.0
  0
LINE
  5
8D
  8
ﾚｲﾔ_1
 62
     5
 10
1036.9066512694001
 20
77.776037424999998
 30
0.0
 11
1039.2288776037999
 21
73.753823427100002
 31
0.0
  0
LINE
  5
8E
  8
ﾚｲﾔ_1
 62
     5
 10
1041.5066512694
 20
73.753823427100002
 30
0.0
 11
1036.9066512694001
 21
73.753823427100002
 31
0.0
  0
LINE
  5
8F
  8
ﾚｲﾔ_1
 62
     5
 10
1036.9066512694001
 20
82.076037424999996
 30
0.0
 11
1039.9756512694
 21
85.145037424999998
 31
0.0
  0
LINE
  5
90
  8
ﾚｲﾔ_1
 62
     5
 10
1039.2288776037999
 20
133.79825142280001
 30
0.0
 11
1068.584424935
 21
133.79825142280001
 31
0.0
  0
LINE
  5
91
  8
ﾚｲﾔ_1
 62
     5
 10
1070.9066512694001
 20
77.776037424999998
 30
0.0
 11
1068.584424935
 21
73.753823427100002
 31
0.0
  0
LINE
  5
92
  8
ﾚｲﾔ_1
 62
     5
 10
1039.9756512694
 20
122.407037425
 30
0.0
 11
1074.810292442
 21
122.407037425
 31
0.0
  0
LINE
  5
93
  8
ﾚｲﾔ_1
 62
     5
 10
1037.6516512694
 20
124.731037425
 30
0.0
 11
1066.9066512694001
 21
124.731037425
 31
0.0
  0
LINE
  5
94
  8
ﾚｲﾔ_1
 62
     5
 10
1039.9756512694
 20
85.145037424999998
 30
0.0
 11
1039.9756512694
 21
122.407037425
 31
0.0
  0
LINE
  5
95
  8
ﾚｲﾔ_1
 62
     5
 10
1039.9756512694
 20
85.145037424999998
 30
0.0
 11
1074.810292442
 21
85.145037424999998
 31
0.0
  0
LINE
  5
96
  8
ﾚｲﾔ_1
 62
     5
 10
1037.6516512694
 20
82.821037425
 30
0.0
 11
1066.9066512694001
 21
82.821037425
 31
0.0
  0
LINE
  5
97
  8
ﾚｲﾔ_1
 62
     5
 10
1036.9066512694001
 20
77.776037424999998
 30
0.0
 11
1036.9066512694001
 21
103.776037425
 31
0.0
  0
LINE
  5
98
  8
ﾚｲﾔ_1
 62
     5
 10
1039.2288776037999
 20
73.753823427100002
 30
0.0
 11
1068.584424935
 21
73.753823427100002
 31
0.0
  0
LINE
  5
99
  8
ﾚｲﾔ_1
 62
     5
 10
1036.9066512694001
 20
125.476037425
 30
0.0
 11
1039.9756512694
 21
122.407037425
 31
0.0
  0
ARC
  5
9A
  8
ﾚｲﾔ_1
 62
     5
 10
1071.8066512693999
 20
131.41719169820001
 30
0.0
 40
1.6000000000000001
 50
210.0
 51
0.0
  0
LINE
  5
9B
  8
ﾚｲﾔ_1
 62
     5
 10
1078.9066512694001
 20
118.776037425
 30
0.0
 11
1076.9066512694001
 21
118.776037425
 31
0.0
  0
LINE
  5
9C
  8
ﾚｲﾔ_1
 62
     5
 10
1080.9066512694001
 20
88.776037424999984
 30
0.0
 11
1076.9066512694001
 21
88.776037424999984
 31
0.0
  0
LINE
  5
9D
  8
ﾚｲﾔ_1
 62
     5
 10
1070.4210106234
 20
130.6171916982
 30
0.0
 11
1068.584424935
 21
133.79825142280001
 31
0.0
  0
LINE
  5
9E
  8
ﾚｲﾔ_1
 10
972.25
 20
217.2463107639
 30
0.0
 11
1030.3570312500001
 21
217.2463107639
 31
0.0
  0
LINE
  5
9F
  8
ﾚｲﾔ_1
 10
972.25
 20
218.75
 30
0.0
 11
1030.3570312500001
 21
218.75
 31
0.0
  0
INSERT
  5
A0
  8
0
  6
CONTINUOUS
  2
*U47
 10
0.0
 20
0.0
 30
0.0
  0
INSERT
  5
A1
  8
0
  6
CONTINUOUS
  2
*U48
 10
0.0
 20
0.0
 30
0.0
  0
LINE
  5
A2
  8
図枠
 62
     5
 10
1003.8217911213
 20
241.87455542000001
 30
0.0
 11
1003.8217911213
 21
279.37455541999998
 31
0.0
  0
LINE
  5
A3
  8
図枠
 62
     5
 10
963.82179112130007
 20
241.87455542000001
 30
0.0
 11
963.82179112130007
 21
279.37455541999998
 31
0.0
  0
LINE
  5
A4
  8
図枠
 62
     5
 10
946.92357765619988
 20
243.07653479749999
 30
0.0
 11
959.29857765620011
 21
243.07653479749999
 31
0.0
  0
LINE
  5
A5
  8
図枠
 62
     5
 10
946.92357765619988
 20
255.45153479749999
 30
0.0
 11
959.29857765620011
 21
255.45153479749999
 31
0.0
  0
LINE
  5
A6
  8
図枠
 62
     5
 10
953.1110776562
 20
266.16859916930002
 30
0.0
 11
959.29857765620011
 21
255.45153479749999
 31
0.0
  0
LINE
  5
A7
  8
図枠
 62
     5
 10
953.1110776562
 20
266.16859916930002
 30
0.0
 11
946.92357765619988
 21
255.45153479749999
 31
0.0
  0
LINE
  5
A8
  8
図枠
 62
     5
 10
953.1110776562
 20
253.79359916929999
 30
0.0
 11
946.92357765619988
 21
243.07653479749999
 31
0.0
  0
LINE
  5
A9
  8
図枠
 62
     5
 10
953.1110776562
 20
253.79359916929999
 30
0.0
 11
959.29857765620011
 21
243.07653479749999
 31
0.0
  0
INSERT
  5
AA
  8
0
  6
CONTINUOUS
  2
*U49
 10
0.0
 20
0.0
 30
0.0
  0
INSERT
  5
AB
  8
0
  6
CONTINUOUS
  2
*U50
 10
0.0
 20
0.0
 30
0.0
  0
LINE
  5
AC
  8
ﾚｲﾔ_1
  6
BORDER
 62
     3
 10
1026.9066512694001
 20
103.776037425
 30
0.0
 11
1080.9066512694001
 21
103.776037425
 31
0.0
  0
LINE
  5
AD
  8
ﾚｲﾔ_1
 62
     5
 10
1074.9066512694001
 20
189.6224793863
 30
0.0
 11
1074.6066512693999
 21
189.6224793863
 31
0.0
  0
LINE
  5
AE
  8
ﾚｲﾔ_1
 62
     5
 10
1074.9066512694001
 20
193.36062051169989
 30
0.0
 11
1072.6366512694001
 21
193.36062051169989
 31
0.0
  0
LINE
  5
AF
  8
ﾚｲﾔ_1
 62
     5
 10
1074.9066512694001
 20
198.15651453109999
 30
0.0
 11
1074.4066512694001
 21
198.15651453109999
 31
0.0
  0
LINE
  5
B0
  8
ﾚｲﾔ_1
 62
     5
 10
1074.9066512694001
 20
199.776037425
 30
0.0
 11
1074.4066512694001
 21
199.776037425
 31
0.0
  0
LINE
  5
B1
  8
ﾚｲﾔ_1
 62
     5
 10
1074.810292442
 20
85.145037424999998
 30
0.0
 11
1074.810292442
 21
122.407037425
 31
0.0
  0
LINE
  5
B2
  8
ﾚｲﾔ_1
 62
     5
 10
1078.9066512694001
 20
118.776037425
 30
0.0
 11
1078.9066512694001
 21
139.29921742179999
 31
0.0
  0
LINE
  5
B3
  8
ﾚｲﾔ_1
 62
     5
 10
1066.9066512694001
 20
82.821037425
 30
0.0
 11
1066.9066512694001
 21
103.776037425
 31
0.0
  0
LINE
  5
B4
  8
ﾚｲﾔ_1
 62
     5
 10
1066.9066512694001
 20
82.821037425
 30
0.0
 11
1070.9319373461999
 21
85.145037424999998
 31
0.0
  0
LINE
  5
B5
  8
ﾚｲﾔ_1
 62
     5
 10
1066.9066512694001
 20
124.731037425
 30
0.0
 11
1066.9066512694001
 21
103.776037425
 31
0.0
  0
LINE
  5
B6
  8
ﾚｲﾔ_1
 62
     5
 10
1066.9066512694001
 20
124.731037425
 30
0.0
 11
1070.9319373461999
 21
122.407037425
 31
0.0
  0
ARC
  5
B8
  8
0
 62
     5
 10
967.22154947920001
 20
79.890484559200004
 30
0.0
 40
1.0
 50
180.0
 51
224.0
  0
ARC
  5
B9
  8
0
 62
     5
 10
967.22154947920001
 20
79.890484559200004
 30
0.0
 40
2.6000000000000001
 50
180.0
 51
224.0
  0
LINE
  5
BA
  8
0
 62
     5
 10
965.35126599830005
 20
78.084372796000011
 30
0.0
 11
968.03570092009988
 21
75.304559058999999
 31
0.0
  0
LINE
  5
BB
  8
0
 62
     5
 10
966.5022096788
 20
79.195826188699996
 30
0.0
 11
969.18664460070011
 21
76.4160124518
 31
0.0
  0
LINE
  5
BC
  8
0
 62
     5
 10
962.6015494792
 20
115.01836231279999
 30
0.0
 11
964.62154947919998
 21
110.6864583333
 31
0.0
  0
LINE
  5
BD
  8
0
 62
     5
 10
960.32154947919992
 20
129.16327833650001
 30
0.0
 11
962.52154947919996
 21
116.6864583333
 31
0.0
  0
CIRCLE
  5
BE
  8
0
 62
     5
 10
966.59154947920013
 20
72.871875246599998
 30
0.0
 40
2.2299999999999991
  0
LINE
  5
BF
  8
0
 62
     5
 10
964.82154947919992
 20
70.337319703000006
 30
0.0
 11
966.45499926800005
 21
70.593268835800004
 31
0.0
  0
LINE
  5
C0
  8
0
 62
     5
 10
964.82154947919992
 20
68.717796809099994
 30
0.0
 11
966.70268486169982
 21
69.012556386699998
 31
0.0
  0
LINE
  5
C1
  8
0
 62
     5
 10
962.6015494792
 20
116.6864583333
 30
0.0
 11
962.6015494792
 21
115.01836231279999
 31
0.0
  0
LINE
  5
C2
  8
0
 62
     5
 10
964.20154947920003
 20
116.6864583333
 30
0.0
 11
964.20154947920003
 21
115.373073773
 31
0.0
  0
LINE
  5
C3
  8
0
 62
     5
 10
966.22154947920001
 20
111.04116979360001
 30
0.0
 11
966.22154947920001
 21
79.890484559200004
 31
0.0
  0
LINE
  5
C4
  8
0
 62
     5
 10
964.62154947919998
 20
110.6864583333
 30
0.0
 11
964.62154947919998
 21
79.890484559200004
 31
0.0
  0
LINE
  5
C5
  8
0
 62
     5
 10
964.82154947919992
 20
70.305981227299995
 30
0.0
 11
964.82154947919992
 21
68.686458333299996
 31
0.0
  0
ARC
  5
C6
  8
0
 62
     5
 10
966.02154947919996
 20
73.359515621699984
 30
0.0
 40
4.4000000000000004
 50
278.90539984840001
 51
44.0
  0
ARC
  5
C7
  8
0
 62
     5
 10
966.02154947919996
 20
73.359515621699984
 30
0.0
 40
2.7999999999999989
 50
278.90539984840001
 51
44.0
  0
LINE
  5
C8
  8
0
 62
     5
 10
965.82154947920014
 20
126.32763742669999
 30
0.0
 11
964.12154947919998
 21
116.6864583333
 31
0.0
  0
LINE
  5
C9
  8
0
 62
     5
 10
964.20154947920003
 20
115.373073773
 30
0.0
 11
966.22154947920001
 21
111.04116979360001
 31
0.0
  0
LINE
  5
CA
  8
0
 62
     5
 10
960.32154947919992
 20
157.68645833330001
 30
0.0
 11
960.32154947919992
 21
129.16327833650001
 31
0.0
  0
LINE
  5
CB
  8
0
 62
     5
 10
965.82154947920014
 20
168.68645833330001
 30
0.0
 11
965.82154947920014
 21
126.32763742669999
 31
0.0
  0
LINE
  5
CC
  8
0
 62
     5
 10
968.32154947919992
 20
179.18645833330001
 30
0.0
 11
963.15416440829995
 21
179.18645833330001
 31
0.0
  0
LINE
  5
CD
  8
0
 62
     5
 10
968.32154947919992
 20
179.18645833330001
 30
0.0
 11
968.32154947919992
 21
150.18645833330001
 31
0.0
  0
LINE
  5
CE
  8
ﾚｲﾔ_1
 62
     5
 10
964.32154947920003
 20
110.6864583333
 30
0.0
 11
964.32154947920003
 21
58.910144566699991
 31
0.0
  0
LINE
  5
CF
  8
ﾚｲﾔ_1
  6
BORDER
 62
     3
 10
948.32154947920003
 20
154.68645929729999
 30
0.0
 11
948.32154947920003
 21
58.910144566699991
 31
0.0
  0
LINE
  5
D0
  8
ﾚｲﾔ_1
 62
     5
 10
962.32154947920014
 20
110.6864583333
 30
0.0
 11
962.32154947920014
 21
58.910144566699991
 31
0.0
  0
LINE
  5
D1
  8
ﾚｲﾔ_1
 62
     5
 10
1030.9066512694001
 20
73.776037424999984
 30
0.0
 11
1030.9066512694001
 21
74.784071056000002
 31
0.0
  0
LINE
  5
D2
  8
ﾚｲﾔ_1
 62
     5
 10
1030.9066512694001
 20
81.776037424999998
 30
0.0
 11
1030.9066512694001
 21
125.776037425
 31
0.0
  0
LINE
  5
D3
  8
ﾚｲﾔ_1
 62
     5
 10
1030.9066512694001
 20
127.7760374257
 30
0.0
 11
1030.9066512694001
 21
130.776037425
 31
0.0
  0
LINE
  5
D4
  8
ﾚｲﾔ_1
 62
     5
 10
1030.9066512694001
 20
132.76800379400001
 30
0.0
 11
1030.9066512694001
 21
133.776037425
 31
0.0
  0
INSERT
  5
D6
  8
ﾚｲﾔ_1
 62
     5
  2
*X0
 10
0.0
 20
0.0
 30
0.0
  0
INSERT
  5
DA
  8
ﾚｲﾔ_1
 62
     5
  2
*X1
 10
0.0
 20
0.0
 30
0.0
  0
INSERT
  5
DD
  8
0
  6
CONTINUOUS
  2
*U51
 10
0.0
 20
0.0
 30
0.0
  0
LINE
  5
DE
  8
0
 62
     5
 10
964.82154947919992
 20
68.686458333299996
 30
0.0
 11
964.32154947920003
 21
68.686458333299996
 31
0.0
  0
LINE
  5
DF
  8
0
 62
     5
 10
964.82154947919992
 20
70.305981227299995
 30
0.0
 11
964.32154947920003
 21
70.305981227299995
 31
0.0
  0
LINE
  5
E0
  8
0
 62
     5
 10
966.59154947920013
 20
75.101875246600002
 30
0.0
 11
964.32154947920003
 21
75.101875246600002
 31
0.0
  0
LINE
  5
E1
  8
0
 62
     5
 10
964.62154947919998
 20
78.840016371999994
 30
0.0
 11
964.32154947920003
 21
78.840016371999994
 31
0.0
  0
LINE
  5
E2
  8
ﾚｲﾔ_1
 10
1004.2393882204
 20
58.910144566699991
 30
0.0
 11
1004.2393882204
 21
210.257045237
 31
0.0
  0
LINE
  5
E3
  8
ﾚｲﾔ_1
 10
985.22408767390004
 20
210.257045237
 30
0.0
 11
985.22408767390004
 21
58.910144566699991
 31
0.0
  0
LINE
  5
E4
  8
ﾚｲﾔ_1
 62
     5
 10
1030.9066512694001
 20
74.276037424999998
 30
0.0
 11
1030.9066512694001
 21
74.784071056000002
 31
0.0
  0
LINE
  5
E5
  8
ﾚｲﾔ_1
 62
     5
 10
1030.5066512694
 20
76.776037424999998
 30
0.0
 11
1030.5066512694
 21
74.776037428400002
 31
0.0
  0
LINE
  5
E6
  8
ﾚｲﾔ_1
 62
     5
 10
1030.5066512694
 20
81.776037424999998
 30
0.0
 11
1030.5066512694
 21
79.7760374243
 31
0.0
  0
LINE
  5
E7
  8
ﾚｲﾔ_1
 62
     5
 10
1030.9066512694001
 20
76.776037424999998
 30
0.0
 11
1030.9066512694001
 21
79.7760374243
 31
0.0
  0
LINE
  5
E8
  8
ﾚｲﾔ_1
 62
     5
 10
1030.5066512694
 20
125.776037425
 30
0.0
 11
1030.5066512694
 21
127.7760374257
 31
0.0
  0
LINE
  5
E9
  8
ﾚｲﾔ_1
 62
     5
 10
1030.5066512694
 20
130.776037425
 30
0.0
 11
1030.5066512694
 21
132.77603742159999
 31
0.0
  0
LINE
  5
EA
  8
ﾚｲﾔ_1
 62
     5
 10
1030.9066512694001
 20
127.7760374257
 30
0.0
 11
1030.9066512694001
 21
130.776037425
 31
0.0
  0
LINE
  5
EB
  8
ﾚｲﾔ_1
 62
     5
 10
1030.9066512694001
 20
132.76800379400001
 30
0.0
 11
1030.9066512694001
 21
133.276037425
 31
0.0
  0
LINE
  5
EC
  8
ﾚｲﾔ_1
 62
     5
 10
1030.9066512694001
 20
81.776037424999998
 30
0.0
 11
1030.9066512694001
 21
125.776037425
 31
0.0
  0
LINE
  5
ED
  8
ﾚｲﾔ_1
 62
     5
 10
1030.9066512694001
 20
210.257045237
 30
0.0
 11
1030.9066512694001
 21
133.776037425
 31
0.0
  0
LINE
  5
EE
  8
ﾚｲﾔ_1
 62
     5
 10
1030.9066512694001
 20
65.776037424999998
 30
0.0
 11
1030.9066512694001
 21
74.276037424999998
 31
0.0
  0
LINE
  5
EF
  8
0
 62
     5
 10
968.32154947919992
 20
150.18645833330001
 30
0.0
 11
965.82154947920014
 21
150.18645833330001
 31
0.0
  0
ARC
  5
F0
  8
0
 62
     5
 10
929.42154947919983
 20
79.890484559200004
 30
0.0
 40
2.6000000000000001
 50
316.0
 51
0.0
  0
LINE
  5
F1
  8
0
 62
     5
 10
931.82154947919992
 20
68.717796809099994
 30
0.0
 11
929.94041409670001
 21
69.012556386699998
 31
0.0
  0
LINE
  5
F2
  8
0
 62
     5
 10
932.44154947920015
 20
116.6864583333
 30
0.0
 11
932.44154947920015
 21
115.373073773
 31
0.0
  0
LINE
  5
F3
  8
0
 62
     5
 10
931.82154947919992
 20
70.337319703000006
 30
0.0
 11
930.18809969029985
 21
70.593268835800004
 31
0.0
  0
ARC
  5
F4
  8
0
 62
     5
 10
930.62154947919987
 20
73.359515621699984
 30
0.0
 40
2.7999999999999989
 50
136.0
 51
261.09460015159999
  0
LINE
  5
F5
  8
0
 62
     5
 10
930.82154947919992
 20
137.04530406009999
 30
0.0
 11
930.82154947919992
 21
126.32763742669999
 31
0.0
  0
LINE
  5
F6
  8
0
 62
     5
 10
932.44154947920015
 20
115.373073773
 30
0.0
 11
930.42154947920005
 21
111.04116979360001
 31
0.0
  0
LINE
  5
F7
  8
0
 62
     5
 10
927.83590883309989
 20
137.84530406010001
 30
0.0
 11
925.99932314479997
 21
134.6642443355
 31
0.0
  0
LINE
  5
F8
  8
0
 62
     5
 10
930.82154947919992
 20
126.32763742669999
 30
0.0
 11
932.52154947919985
 21
116.6864583333
 31
0.0
  0
LINE
  5
F9
  8
0
 62
     5
 10
932.02154947919996
 20
110.6864583333
 30
0.0
 11
932.02154947919996
 21
79.890484559200004
 31
0.0
  0
LINE
  5
FA
  8
0
 62
     5
 10
930.42154947920005
 20
111.04116979360001
 30
0.0
 11
930.42154947920005
 21
79.890484559200004
 31
0.0
  0
LINE
  5
FB
  8
0
 62
     5
 10
924.32154947920003
 20
143.7314583333
 30
0.0
 11
928.34683555600009
 21
146.05545833330001
 31
0.0
  0
CIRCLE
  5
FC
  8
0
 62
     5
 10
930.05154947920005
 20
72.871875246599998
 30
0.0
 40
2.2299999999999991
  0
ARC
  5
FD
  8
0
 62
     5
 10
929.22154947919989
 20
137.04530406009999
 30
0.0
 40
1.6000000000000001
 50
0.0
 51
150.0
  0
ARC
  5
FE
  8
0
 62
     5
 10
930.62154947919987
 20
73.359515621699984
 30
0.0
 40
4.4000000000000004
 50
136.0
 51
261.09460015159999
  0
LINE
  5
FF
  8
0
 62
     5
 10
931.82154947919992
 20
70.305981227299995
 30
0.0
 11
931.82154947919992
 21
68.686458333299996
 31
0.0
  0
LINE
  5
100
  8
0
 62
     5
 10
928.32154947920014
 20
190.68645833330001
 30
0.0
 11
925.99932314479997
 21
194.70867233119989
 31
0.0
  0
LINE
  5
101
  8
ﾚｲﾔ_1
 62
     5
 10
924.32154947920003
 20
143.7314583333
 30
0.0
 11
924.32154947920003
 21
164.68645833330001
 31
0.0
  0
LINE
  5
102
  8
ﾚｲﾔ_1
 62
     5
 10
932.2251906516999
 20
183.31745833330001
 30
0.0
 11
932.2251906516999
 21
146.05545833330001
 31
0.0
  0
LINE
  5
103
  8
ﾚｲﾔ_1
 62
     5
 10
924.32154947920003
 20
185.64145833329999
 30
0.0
 11
928.34683555600009
 21
183.31745833330001
 31
0.0
  0
LINE
  5
104
  8
ﾚｲﾔ_1
 62
     5
 10
924.32154947920003
 20
185.64145833329999
 30
0.0
 11
924.32154947920003
 21
164.68645833330001
 31
0.0
  0
LINE
  5
105
  8
ﾚｲﾔ_1
 62
     5
 10
932.32154947920003
 20
110.6864583333
 30
0.0
 11
932.32154947920003
 21
58.910144566699991
 31
0.0
  0
INSERT
  5
106
  8
0
  6
CONTINUOUS
  2
*U52
 10
0.0
 20
0.0
 30
0.0
  0
INSERT
  5
107
  8
0
  6
CONTINUOUS
  2
*U53
 10
0.0
 20
0.0
 30
0.0
  0
LINE
  5
108
  8
ﾚｲﾔ_1
 62
     5
 10
1030.9066512694001
 20
76.776037424999998
 30
0.0
 11
1030.9066512694001
 21
79.7760374243
 31
0.0
  0
LINE
  5
109
  8
ﾚｲﾔ_1
 62
     5
 10
888.32154947920014
 20
194.18645833330001
 30
0.0
 11
888.32154947920014
 21
193.67842470229999
 31
0.0
  0
LINE
  5
10A
  8
0
 62
     5
 10
890.32154947920003
 20
193.67842470229999
 30
0.0
 11
890.32154947920003
 21
197.6864583334999
 31
0.0
  0
LINE
  5
10B
  8
0
 62
     5
 10
887.92154947919994
 20
191.68645833330001
 30
0.0
 11
887.92154947919994
 21
193.68645832999999
 31
0.0
  0
LINE
  5
10C
  8
ﾚｲﾔ_1
 62
     5
 10
888.32154947920014
 20
194.18645833330001
 30
0.0
 11
890.32154947920003
 21
194.18645833330001
 31
0.0
  0
LINE
  5
10D
  8
0
 62
     5
 10
894.32154947919992
 20
194.70867233119989
 30
0.0
 11
894.32154947919992
 21
186.68645833330001
 31
0.0
  0
LINE
  5
10E
  8
0
 62
     5
 10
887.92154947919994
 20
193.67842470229999
 30
-6.5999999999999988
 11
890.32154947920003
 21
193.67842470229999
 31
-6.5999999999999988
  0
LINE
  5
10F
  8
0
 62
     5
 10
887.92154947919994
 20
188.6864583341
 30
-6.5999999999999988
 11
889.92154947919994
 21
188.6864583341
 31
-6.5999999999999988
  0
LINE
  5
110
  8
0
 62
     5
 10
887.92154947919994
 20
186.68645833330001
 30
0.0
 11
887.92154947919994
 21
188.6864583341
 31
0.0
  0
LINE
  5
111
  8
0
 62
     5
 10
894.32154947919992
 20
186.68645833330001
 30
0.0
 11
887.92154947919994
 21
186.68645833330001
 31
0.0
  0
LINE
  5
112
  8
0
 62
     5
 10
889.92154947919994
 20
191.68645833330001
 30
0.0
 11
887.92154947919994
 21
191.68645833330001
 31
0.0
  0
LINE
  5
113
  8
0
 62
     5
 10
889.92154947919994
 20
188.6864583341
 30
0.0
 11
889.92154947919994
 21
191.68645833330001
 31
0.0
  0
LINE
  5
114
  8
ﾚｲﾔ_1
 62
     5
 10
888.32154947920014
 20
191.68645833330001
 30
0.0
 11
888.32154947920014
 21
188.6864583341
 31
0.0
  0
LINE
  5
115
  8
ﾚｲﾔ_1
 62
     5
 10
890.32154947920003
 20
134.6642443355
 30
0.0
 11
890.32154947920003
 21
58.910144566699991
 31
0.0
  0
LINE
  5
116
  8
ﾚｲﾔ_1
 62
     5
 10
888.32154947920014
 20
202.68645833330001
 30
0.0
 11
888.32154947920014
 21
194.18645833330001
 31
0.0
  0
LINE
  5
117
  8
ﾚｲﾔ_1
 62
     5
 10
890.32154947920003
 20
210.257045237
 30
0.0
 11
890.32154947920003
 21
194.18645833330001
 31
0.0
  0
LINE
  5
118
  8
ﾚｲﾔ_1
 62
     5
 10
888.32154947920014
 20
135.18645833330001
 30
0.0
 11
888.32154947920014
 21
58.910144566699991
 31
0.0
  0
LINE
  5
119
  8
ﾚｲﾔ_1
 62
     5
 10
888.32154947920014
 20
210.257045237
 30
0.0
 11
888.32154947920014
 21
202.68645833330001
 31
0.0
  0
LINE
  5
11A
  8
ﾚｲﾔ_1
 62
     5
 10
890.32154947920003
 20
204.68645833330001
 30
0.0
 11
890.32154947920003
 21
202.68645833330001
 31
0.0
  0
LINE
  5
11B
  8
0
 62
     5
 10
932.32154947920003
 20
68.686458333299996
 30
0.0
 11
931.82154947919992
 21
68.686458333299996
 31
0.0
  0
LINE
  5
11C
  8
0
 62
     5
 10
932.32154947920003
 20
70.305981227299995
 30
0.0
 11
931.82154947919992
 21
70.305981227299995
 31
0.0
  0
LINE
  5
11D
  8
0
 62
     5
 10
932.32154947920003
 20
75.101875246600002
 30
0.0
 11
930.05154947920005
 21
75.101875246600002
 31
0.0
  0
LINE
  5
11E
  8
0
 62
     5
 10
932.32154947920003
 20
78.840016371999994
 30
0.0
 11
932.02154947919996
 21
78.840016371999994
 31
0.0
  0
LINE
  5
11F
  8
0
 62
     5
 10
931.29183295999997
 20
78.084372796000011
 30
0.0
 11
928.6073980381999
 21
75.304559058999999
 31
0.0
  0
LINE
  5
120
  8
0
 62
     5
 10
930.14088927950002
 20
79.195826188699996
 30
0.0
 11
927.45645435769995
 21
76.4160124518
 31
0.0
  0
ARC
  5
121
  8
0
 62
     5
 10
929.42154947919983
 20
79.890484559200004
 30
0.0
 40
1.0
 50
316.0
 51
0.0
  0
LINE
  5
122
  8
ﾚｲﾔ_1
 62
     5
 10
897.39054947919988
 20
183.31745833330001
 30
0.0
 11
932.2251906516999
 21
183.31745833330001
 31
0.0
  0
LINE
  5
123
  8
ﾚｲﾔ_1
 62
     5
 10
895.06654947920003
 20
185.64145833329999
 30
0.0
 11
924.32154947920003
 21
185.64145833329999
 31
0.0
  0
LINE
  5
124
  8
ﾚｲﾔ_1
 62
     5
 10
894.32154947919992
 20
142.98645833329999
 30
0.0
 11
897.39054947919988
 21
146.05545833330001
 31
0.0
  0
LINE
  5
125
  8
0
 62
     5
 10
894.32154947919992
 20
190.68645833330001
 30
0.0
 11
896.64377581359986
 21
194.70867233119989
 31
0.0
  0
LINE
  5
126
  8
0
 62
     5
 10
898.92154947919994
 20
197.6864583334999
 30
0.0
 11
898.92154947919994
 21
194.70867233119989
 31
0.0
  0
LINE
  5
127
  8
0
 62
     5
 10
890.32154947920003
 20
197.6864583334999
 30
0.0
 11
898.92154947919994
 21
197.6864583334999
 31
0.0
  0
LINE
  5
128
  8
0
 62
     5
 10
898.92154947919994
 20
194.70867233119989
 30
0.0
 11
894.32154947919992
 21
194.70867233119989
 31
0.0
  0
LINE
  5
129
  8
0
 62
     5
 10
896.64377581359986
 20
194.70867233119989
 30
0.0
 11
925.99932314479997
 21
194.70867233119989
 31
0.0
  0
LINE
  5
12A
  8
0
 62
     5
 10
894.32154947919992
 20
186.3864583333
 30
0.0
 11
897.39054947919988
 21
183.31745833330001
 31
0.0
  0
LINE
  5
12B
  8
ﾚｲﾔ_1
 10
861.65428643020005
 20
58.910144566699991
 30
0.0
 11
861.65428643020005
 21
210.257045237
 31
0.0
  0
LINE
  5
12C
  8
ﾚｲﾔ_1
 62
     5
 10
888.32154947920014
 20
135.18645833330001
 30
0.0
 11
890.32154947920003
 21
135.18645833330001
 31
0.0
  0
LINE
  5
12D
  8
0
 62
     5
 10
887.92154947919994
 20
137.68645833330001
 30
0.0
 11
887.92154947919994
 21
135.68645833670001
 31
0.0
  0
LINE
  5
12E
  8
0
 62
     5
 10
887.92154947919994
 20
140.68645833260001
 30
-6.5999999999999988
 11
889.92154947919994
 21
140.68645833260001
 31
-6.5999999999999988
  0
LINE
  5
12F
  8
0
 62
     5
 10
889.92154947919994
 20
137.68645833330001
 30
0.0
 11
887.92154947919994
 21
137.68645833330001
 31
0.0
  0
LINE
  5
130
  8
0
 62
     5
 10
889.92154947919994
 20
140.68645833260001
 30
0.0
 11
889.92154947919994
 21
137.68645833330001
 31
0.0
  0
LINE
  5
131
  8
0
 62
     5
 10
894.32154947919992
 20
142.68645833330001
 30
0.0
 11
887.92154947919994
 21
142.68645833330001
 31
0.0
  0
LINE
  5
132
  8
0
 62
     5
 10
894.32154947919992
 20
134.6642443355
 30
0.0
 11
894.32154947919992
 21
142.68645833330001
 31
0.0
  0
LINE
  5
133
  8
ﾚｲﾔ_1
 62
     5
 10
888.32154947920014
 20
140.68645833260001
 30
0.0
 11
888.32154947920014
 21
137.68645833330001
 31
0.0
  0
LINE
  5
134
  8
ﾚｲﾔ_1
 62
     5
 10
888.32154947920014
 20
135.6944919643
 30
0.0
 11
888.32154947920014
 21
135.18645833330001
 31
0.0
  0
LINE
  5
135
  8
0
 62
     5
 10
887.92154947919994
 20
135.6944919643
 30
-6.5999999999999988
 11
890.32154947920003
 21
135.6944919643
 31
-6.5999999999999988
  0
LINE
  5
136
  8
0
 62
     5
 10
887.92154947919994
 20
142.68645833330001
 30
0.0
 11
887.92154947919994
 21
140.68645833260001
 31
0.0
  0
LINE
  5
137
  8
0
 62
     5
 10
890.32154947920003
 20
135.6944919643
 30
0.0
 11
890.32154947920003
 21
131.68645833310001
 31
0.0
  0
LINE
  5
138
  8
ﾚｲﾔ_1
 62
     5
 10
894.32154947919992
 20
138.68645833330001
 30
0.0
 11
894.32154947919992
 21
164.68645833330001
 31
0.0
  0
LINE
  5
139
  8
ﾚｲﾔ_1
 62
     5
 10
894.32154947919992
 20
190.68645833330001
 30
0.0
 11
894.32154947919992
 21
164.68645833330001
 31
0.0
  0
LINE
  5
13A
  8
ﾚｲﾔ_1
 62
     5
 10
888.32154947920014
 20
186.68645833330001
 30
0.0
 11
888.32154947920014
 21
142.68645833330001
 31
0.0
  0
LINE
  5
13B
  8
ﾚｲﾔ_1
 62
     5
 10
1043.1617187500001
 20
-82.815283035999997
 30
0.0
 11
1059.1617187500001
 21
-82.815283035999997
 31
0.0
  0
LINE
  5
13C
  8
0
 62
     5
 10
1059.4117187500001
 20
-103.005521589
 30
0.0
 11
1059.4117187500001
 21
-103.815283036
 31
0.0
  0
LINE
  5
13D
  8
0
 62
     5
 10
1042.9117187500001
 20
-103.005521589
 30
0.0
 11
1042.9117187500001
 21
-103.815283036
 31
0.0
  0
LINE
  5
13E
  8
0
 62
     5
 10
1059.31171875
 20
-82.815283035999997
 30
0.0
 11
1059.31171875
 21
-98.2132699231
 31
0.0
  0
LINE
  5
13F
  8
0
 62
     5
 10
1060.1117187499999
 20
-82.637927305900007
 30
0.0
 11
1060.1117187499999
 21
-98.2132699231
 31
0.0
  0
LINE
  5
140
  8
ﾚｲﾔ_1
 62
     5
 10
1044.1617187500001
 20
-82.815283035999997
 30
0.0
 11
1044.1617187500001
 21
-178.8976450152
 31
0.0
  0
LINE
  5
141
  8
ﾚｲﾔ_1
 62
     5
 10
1043.1617187500001
 20
-82.815283035999997
 30
0.0
 11
1043.1617187500001
 21
-178.8976450152
 31
0.0
  0
LINE
  5
142
  8
ﾚｲﾔ_1
 62
     5
 10
1059.1617187500001
 20
-82.815283035999997
 30
0.0
 11
1059.1617187500001
 21
-180.35022229059999
 31
0.0
  0
LINE
  5
143
  8
ﾚｲﾔ_1
 62
     5
 10
1058.1617187500001
 20
-82.815283035999997
 30
0.0
 11
1058.1617187500001
 21
-179.86602986540001
 31
0.0
  0
LINE
  5
144
  8
ﾚｲﾔ_1
 62
     5
 10
1048.2818353381001
 20
-2.9152830359999999
 30
0.0
 11
1064.0416021619001
 21
-2.9152830359999999
 31
0.0
  0
LINE
  5
145
  8
ﾚｲﾔ_1
 62
     5
 10
1048.1617187500001
 20
-1.9152830359999991
 30
0.0
 11
1064.1617187500001
 21
-1.9152830359999991
 31
0.0
  0
LINE
  5
146
  8
ﾚｲﾔ_1
 62
     5
 10
1032.1617187500001
 20
-5.8152830360000003
 30
0.0
 11
1048.1617187500001
 21
-1.9152830359999991
 31
0.0
  0
LINE
  5
147
  8
ﾚｲﾔ_1
 62
     5
 10
1080.1617187500001
 20
-5.8152830360000003
 30
0.0
 11
1064.1617187500001
 21
-1.9152830359999991
 31
0.0
  0
LINE
  5
148
  8
ﾚｲﾔ_1
 62
     5
 10
1080.0416021619001
 20
-6.8152830360000003
 30
0.0
 11
1064.0416021619001
 21
-2.9152830359999999
 31
0.0
  0
LINE
  5
149
  8
ﾚｲﾔ_1
 62
     5
 10
1032.2818353381001
 20
-6.8152830360000003
 30
0.0
 11
1048.2818353381001
 21
-2.9152830359999999
 31
0.0
  0
INSERT
  5
14B
  8
0
  2
*X2
 10
0.0
 20
0.0
 30
0.0
  0
INSERT
  5
14F
  8
0
  2
*X3
 10
0.0
 20
0.0
 30
0.0
  0
LINE
  5
152
  8
0
 62
     5
 10
898.92154947919994
 20
134.6642443355
 30
0.0
 11
894.32154947919992
 21
134.6642443355
 31
0.0
  0
LINE
  5
153
  8
0
 62
     5
 10
894.32154947919992
 20
138.68645833330001
 30
0.0
 11
896.64377581359986
 21
134.6642443355
 31
0.0
  0
LINE
  5
154
  8
0
 62
     5
 10
890.32154947920003
 20
131.68645833310001
 30
0.0
 11
898.92154947919994
 21
131.68645833310001
 31
0.0
  0
LINE
  5
155
  8
0
 62
     5
 10
898.92154947919994
 20
131.68645833310001
 30
0.0
 11
898.92154947919994
 21
134.6642443355
 31
0.0
  0
LINE
  5
156
  8
0
 62
     5
 10
896.64377581359986
 20
134.6642443355
 30
0.0
 11
925.99932314479997
 21
134.6642443355
 31
0.0
  0
LINE
  5
157
  8
ﾚｲﾔ_1
 62
     5
 10
897.39054947919988
 20
146.05545833330001
 30
0.0
 11
932.2251906516999
 21
146.05545833330001
 31
0.0
  0
LINE
  5
158
  8
ﾚｲﾔ_1
 62
     5
 10
895.06654947920003
 20
143.7314583333
 30
0.0
 11
924.32154947920003
 21
143.7314583333
 31
0.0
  0
LINE
  5
159
  8
ﾚｲﾔ_1
 62
     5
 10
897.39054947919988
 20
183.31745833330001
 30
0.0
 11
897.39054947919988
 21
146.05545833330001
 31
0.0
  0
ARC
  5
15A
  8
0
 62
     5
 10
1046.1617187500001
 20
-59.315283035999997
 30
0.0
 40
11.0
 50
0.0
 51
90.0
  0
CIRCLE
  5
15B
  8
0
 62
     5
 10
1042.0267187500001
 20
-101.7225745793
 30
0.0
 40
1.1149999999999991
  0
LINE
  5
15C
  8
0
 62
     5
 10
1043.22171875
 20
-79.815283035999997
 30
0.0
 11
1043.22171875
 21
-80.471975316200002
 31
0.0
  0
LINE
  5
15D
  8
0
 62
     5
 10
1059.9117187500001
 20
-74.994693489300005
 30
0.0
 11
1059.06171875
 21
-79.815283035999997
 31
0.0
  0
LINE
  5
15E
  8
0
 62
     5
 10
1042.0713886502001
 20
-98.560599108299996
 30
0.0
 11
1040.7291711892999
 21
-99.950505976800002
 31
0.0
  0
LINE
  5
15F
  8
0
 62
     5
 10
1042.6468604904001
 20
-99.116325804699997
 30
0.0
 11
1041.3046430295001
 21
-100.5062326731
 31
0.0
  0
LINE
  5
160
  8
0
 62
     5
 10
1042.9117187500001
 20
-102.9898523512
 30
0.0
 11
1042.0949938556
 21
-102.8618777847
 31
0.0
  0
LINE
  5
161
  8
0
 62
     5
 10
1057.1617187500001
 20
-73.576873034399995
 30
0.0
 11
1058.26171875
 21
-79.815283035999997
 31
0.0
  0
LINE
  5
162
  8
0
 62
     5
 10
1059.31171875
 20
-82.815283035999997
 30
0.0
 11
1043.01171875
 21
-82.815283035999997
 31
0.0
  0
LINE
  5
163
  8
0
 62
     5
 10
1059.1017187499999
 20
-80.471975316200002
 30
0.0
 11
1060.1117187499999
 21
-82.637927305900007
 31
0.0
  0
LINE
  5
164
  8
0
 62
     5
 10
1043.22171875
 20
-80.471975316200002
 30
0.0
 11
1042.21171875
 21
-82.637927305900007
 31
0.0
  0
LINE
  5
165
  8
0
 62
     5
 10
1058.30171875
 20
-80.649331046300006
 30
0.0
 11
1044.02171875
 21
-80.649331046300006
 31
0.0
  0
LINE
  5
166
  8
0
 62
     5
 10
1043.1135393362999
 20
-46.499783035999997
 30
0.0
 11
1044.1617187500001
 21
-48.315283035999997
 31
0.0
  0
LINE
  5
167
  8
0
 62
     5
 10
1043.1135393362999
 20
-46.499783035999997
 30
0.0
 11
1043.1135393362999
 21
-65.130783035999997
 31
0.0
  0
LINE
  5
168
  8
0
 62
     5
 10
1045.1617187500001
 20
-63.315283035999997
 30
0.0
 11
1045.1617187500001
 21
-73.576873034399995
 31
0.0
  0
LINE
  5
169
  8
0
 62
     5
 10
1057.1617187500001
 20
-59.315283035999997
 30
0.0
 11
1057.1617187500001
 21
-73.576873034399995
 31
0.0
  0
LINE
  5
16A
  8
0
 62
     5
 10
1059.1017187499999
 20
-79.815283035999997
 30
0.0
 11
1043.22171875
 21
-79.815283035999997
 31
0.0
  0
LINE
  5
16B
  8
0
 62
     5
 10
1059.9117187500001
 20
-53.815283035999997
 30
0.0
 11
1059.9117187500001
 21
-74.994693489300005
 31
0.0
  0
LINE
  5
16C
  8
0
 62
     5
 10
1042.4117187500001
 20
-69.635860172600005
 30
0.0
 11
1042.4117187500001
 21
-74.994693489300005
 31
0.0
  0
LINE
  5
16D
  8
0
 62
     5
 10
1045.1617187500001
 20
-73.576873034399995
 30
0.0
 11
1044.06171875
 21
-79.815283035999997
 31
0.0
  0
ARC
  5
16E
  8
0
 62
     5
 10
1060.6117187499999
 20
-98.2132699231
 30
0.0
 40
1.3
 50
180.0
 51
224.0
  0
ARC
  5
16F
  8
0
 62
     5
 10
1041.71171875
 20
-98.2132699231
 30
0.0
 40
1.3
 50
316.0
 51
0.0
  0
CIRCLE
  5
170
  8
0
 62
     5
 10
1060.2967187500001
 20
-101.7225745793
 30
0.0
 40
1.1149999999999991
  0
LINE
  5
171
  8
0
 62
     5
 10
1039.1617187500001
 20
-66.292783036000003
 30
0.0
 11
1039.1617187500001
 21
-55.815283035999997
 31
0.0
  0
LINE
  5
172
  8
0
 62
     5
 10
1039.1617187500001
 20
-66.292783036000003
 30
0.0
 11
1041.1743617883999
 21
-65.130783035999997
 31
0.0
  0
LINE
  5
173
  8
0
 62
     5
 10
1041.1617187500001
 20
-42.815283035999997
 30
0.0
 11
1040.0006055828001
 21
-40.804176037099992
 31
0.0
  0
LINE
  5
174
  8
0
 62
     5
 10
1048.9117187500001
 20
-42.815283035999997
 30
0.0
 11
1041.1617187500001
 21
-42.815283035999997
 31
0.0
  0
ARC
  5
175
  8
0
 62
     5
 10
1048.9117187500001
 20
-53.815283035999997
 30
0.0
 40
11.0
 50
0.0
 51
90.0
  0
LINE
  5
176
  8
0
 62
     5
 10
1042.4117187500001
 20
-74.994693489300005
 30
0.0
 11
1043.26171875
 21
-79.815283035999997
 31
0.0
  0
LINE
  5
177
  8
0
 62
     5
 10
1057.1617187500001
 20
-73.576873034399995
 30
0.0
 11
1045.1617187500001
 21
-73.576873034399995
 31
0.0
  0
LINE
  5
178
  8
0
 62
     5
 10
1061.1617187500001
 20
-48.565283036000011
 30
0.0
 11
1061.1617187500001
 21
-63.065283035999997
 31
0.0
  0
LINE
  5
179
  8
0
 62
     5
 10
1061.1617187500001
 20
-48.565283036000011
 30
0.0
 11
1058.5780262146
 21
-48.565283036000011
 31
0.0
  0
LINE
  5
17A
  8
0
 62
     5
 10
1045.1617187500001
 20
-63.315283035999997
 30
0.0
 11
1044.1617187500001
 21
-63.315283035999997
 31
0.0
  0
LINE
  5
17B
  8
0
 62
     5
 10
1046.1617187500001
 20
-48.315283035999997
 30
0.0
 11
1044.1617187500001
 21
-48.315283035999997
 31
0.0
  0
LINE
  5
17C
  8
0
 62
     5
 10
1040.9188984269999
 20
-69.235860172599985
 30
0.0
 11
1040.0006055828001
 21
-70.826390034900001
 31
0.0
  0
ARC
  5
17D
  8
0
 62
     5
 10
1060.01171875
 20
-101.4787543918
 30
0.0
 40
1.399999999999999
 50
278.90539984840001
 51
44.0
  0
ARC
  5
17E
  8
0
 62
     5
 10
1060.01171875
 20
-101.4787543918
 30
0.0
 40
2.2000000000000002
 50
278.90539984840001
 51
44.0
  0
ARC
  5
17F
  8
0
 62
     5
 10
1060.6117187499999
 20
-98.2132699231
 30
0.0
 40
0.5
 50
180.0
 51
224.0
  0
LINE
  5
180
  8
0
 62
     5
 10
1042.21171875
 20
-82.637927305900007
 30
0.0
 11
1042.21171875
 21
-98.2132699231
 31
0.0
  0
LINE
  5
181
  8
0
 62
     5
 10
1044.02171875
 20
-79.815283035999997
 30
0.0
 11
1044.02171875
 21
-80.649331046300006
 31
0.0
  0
LINE
  5
182
  8
0
 62
     5
 10
1043.01171875
 20
-82.815283035999997
 30
0.0
 11
1043.01171875
 21
-98.2132699231
 31
0.0
  0
LINE
  5
183
  8
0
 62
     5
 10
1042.9117187500001
 20
-103.7996137981
 30
0.0
 11
1041.9711510587999
 21
-103.6522340093
 31
0.0
  0
LINE
  5
184
  8
0
 62
     5
 10
1061.1617187500001
 20
-63.065283035999997
 30
0.0
 11
1059.9117187500001
 21
-63.065283035999997
 31
0.0
  0
LINE
  5
185
  8
0
 62
     5
 10
1039.1617187500001
 20
-45.337783036000012
 30
0.0
 11
1039.1617187500001
 21
-55.815283035999997
 31
0.0
  0
LINE
  5
186
  8
0
 62
     5
 10
1039.1617187500001
 20
-45.337783036000012
 30
0.0
 11
1041.1743617883999
 21
-46.499783035999997
 31
0.0
  0
LINE
  5
187
  8
0
 62
     5
 10
1044.1617187500001
 20
-48.315283035999997
 30
0.0
 11
1044.1617187500001
 21
-63.315283035999997
 31
0.0
  0
LINE
  5
188
  8
0
 62
     5
 10
1044.1617187500001
 20
-63.315283035999997
 30
0.0
 11
1043.1135393362999
 21
-65.130783035999997
 31
0.0
  0
ARC
  5
189
  8
0
 62
     5
 10
1041.71171875
 20
-98.2132699231
 30
0.0
 40
0.5
 50
316.0
 51
0.0
  0
ARC
  5
18A
  8
0
 62
     5
 10
1042.31171875
 20
-101.4787543918
 30
0.0
 40
1.399999999999999
 50
136.0
 51
261.09460015159999
  0
ARC
  5
18B
  8
0
 62
     5
 10
1042.31171875
 20
-101.4787543918
 30
0.0
 40
2.2000000000000002
 50
136.0
 51
261.09460015159999
  0
LINE
  5
18C
  8
ﾚｲﾔ_1
  6
BORDER
 62
     3
 10
1047.4354456958999
 20
-183.1228403277
 30
0.0
 11
1047.4354456958999
 21
-187.34803564020001
 31
0.0
  0
LINE
  5
18D
  8
ﾚｲﾔ_1
  6
BORDER
 62
     3
 10
1047.4354456958999
 20
-174.67244970269999
 30
0.0
 11
1047.4354456958999
 21
-178.8976450152
 31
0.0
  0
LINE
  5
18E
  8
0
 62
     5
 10
1043.1617187500001
 20
-103.815283036
 30
0.0
 11
1042.9117187500001
 21
-103.815283036
 31
0.0
  0
LINE
  5
18F
  8
0
 62
     5
 10
1059.4117187500001
 20
-103.815283036
 30
0.0
 11
1059.1617187500001
 21
-103.815283036
 31
0.0
  0
LINE
  5
190
  8
0
 62
     5
 10
1043.1617187500001
 20
-103.005521589
 30
0.0
 11
1042.9117187500001
 21
-103.005521589
 31
0.0
  0
LINE
  5
191
  8
0
 62
     5
 10
1059.4117187500001
 20
-103.005521589
 30
0.0
 11
1059.1617187500001
 21
-103.005521589
 31
0.0
  0
LINE
  5
192
  8
0
 62
     5
 10
1043.1617187500001
 20
-100.60757457930001
 30
0.0
 11
1042.0267187500001
 21
-100.60757457930001
 31
0.0
  0
LINE
  5
193
  8
0
 62
     5
 10
1060.2967187500001
 20
-100.60757457930001
 30
0.0
 11
1059.1617187500001
 21
-100.60757457930001
 31
0.0
  0
LINE
  5
194
  8
0
 62
     5
 10
1043.1617187500001
 20
-98.738504016700006
 30
0.0
 11
1043.01171875
 21
-98.738504016700006
 31
0.0
  0
LINE
  5
195
  8
0
 62
     5
 10
1059.31171875
 20
-98.738504016700006
 30
0.0
 11
1059.1617187500001
 21
-98.738504016700006
 31
0.0
  0
ARC
  5
196
  8
ﾚｲﾔ_1
  6
CENTER
 62
     3
 10
1046.1617187500001
 20
-60.815283035999997
 30
0.0
 40
5.0
 50
0.0
 51
90.0
  0
LINE
  5
197
  8
ﾚｲﾔ_1
 10
1069.6129878474001
 20
-33.029989584200003
 30
0.0
 11
1069.6129878474001
 21
-108.7034399193
 31
0.0
  0
LINE
  5
198
  8
0
 62
     5
 10
1059.1017187499999
 20
-79.815283035999997
 30
0.0
 11
1059.1017187499999
 21
-80.471975316200002
 31
0.0
  0
LINE
  5
199
  8
0
 62
     5
 10
1058.30171875
 20
-79.815283035999997
 30
0.0
 11
1058.30171875
 21
-80.649331046300006
 31
0.0
  0
LINE
  5
19A
  8
0
 62
     5
 10
1060.2520488498001
 20
-98.560599108299996
 30
0.0
 11
1061.5942663107
 21
-99.950505976800002
 31
0.0
  0
LINE
  5
19B
  8
0
 62
     5
 10
1059.6765770095999
 20
-99.116325804699997
 30
0.0
 11
1061.0187944705001
 21
-100.5062326731
 31
0.0
  0
LINE
  5
19C
  8
0
 62
     5
 10
1059.4117187500001
 20
-103.7996137981
 30
0.0
 11
1060.3522864412
 21
-103.6522340093
 31
0.0
  0
LINE
  5
19D
  8
0
 62
     5
 10
1059.4117187500001
 20
-102.9898523512
 30
0.0
 11
1060.2284436443999
 21
-102.8618777847
 31
0.0
  0
ARC
  5
19E
  8
0
 62
     5
 10
1041.6117187499999
 20
-69.635860172600005
 30
0.0
 40
0.8
 50
0.0
 51
150.0
  0
LINE
  5
19F
  8
0
 62
     5
 10
1058.30171875
 20
-80.649331046300006
 30
0.0
 11
1059.31171875
 21
-82.815283035999997
 31
0.0
  0
LINE
  5
1A0
  8
0
 62
     5
 10
1044.02171875
 20
-80.649331046300006
 30
0.0
 11
1043.01171875
 21
-82.815283035999997
 31
0.0
  0
LINE
  5
1A1
  8
0
 62
     5
 10
1025.3228319171999
 20
-40.804176037099992
 30
0.0
 11
1040.0006055828001
 21
-40.804176037099992
 31
0.0
  0
LINE
  5
1A2
  8
0
 62
     5
 10
1025.6962187500001
 20
-46.499783035999997
 30
0.0
 11
1043.1135393362999
 21
-46.499783035999997
 31
0.0
  0
LINE
  5
1A3
  8
0
 62
     5
 10
1025.6962187500001
 20
-65.130783035999997
 30
0.0
 11
1043.1135393362999
 21
-65.130783035999997
 31
0.0
  0
LINE
  5
1A4
  8
0
 62
     5
 10
1025.3228319171999
 20
-70.826390034900001
 30
0.0
 11
1040.0006055828001
 21
-70.826390034900001
 31
0.0
  0
LINE
  5
1A5
  8
0
 62
     5
 10
1022.16171875
 20
-72.315283036099999
 30
0.0
 11
1026.46171875
 21
-72.315283036099999
 31
0.0
  0
LINE
  5
1A6
  8
0
 62
     5
 10
1022.16171875
 20
-70.311266220500002
 30
0.0
 11
1022.16171875
 21
-72.315283036099999
 31
0.0
  0
INSERT
  5
1A7
  8
0
  6
CONTINUOUS
  2
*U54
 10
0.0
 20
0.0
 30
0.0
  0
INSERT
  5
1AA
  8
寸法線
  2
BALLON0
 10
0.0
 20
0.0
 30
0.0
  0
INSERT
  5
1B4
  8
寸法線
  2
BALLON1
 10
0.0
 20
0.0
 30
0.0
  0
INSERT
  5
1BE
  8
寸法線
  2
BALLON2
 10
0.0
 20
0.0
 30
0.0
  0
INSERT
  5
1C8
  8
寸法線
  2
BALLON3
 10
0.0
 20
0.0
 30
0.0
  0
LINE
  5
1D1
  8
ﾚｲﾔ_1
 62
     5
 10
1021.16171875
 20
-18.815283036
 30
0.0
 11
1021.06171875
 21
-18.815283036
 31
0.0
  0
LINE
  5
1D2
  8
ﾚｲﾔ_1
 62
     5
 10
1019.56171875
 20
-21.315283036
 30
0.0
 11
1019.56171875
 21
-8.3152830360000003
 31
0.0
  0
LINE
  5
1D3
  8
ﾚｲﾔ_1
 62
     5
 10
1021.16171875
 20
-19.815283036
 30
0.0
 11
1021.16171875
 21
-7.8152830360000003
 31
0.0
  0
LINE
  5
1D4
  8
ﾚｲﾔ_1
 62
     5
 10
1018.56171875
 20
-21.315283036
 30
0.0
 11
1018.56171875
 21
-8.3152830360000003
 31
0.0
  0
LINE
  5
1D5
  8
ﾚｲﾔ_1
 62
     5
 10
1022.16171875
 20
-7.8152830360000003
 30
0.0
 11
1022.16171875
 21
-39.315283035900002
 31
0.0
  0
INSERT
  5
1D7
  8
寸法線
  2
BALLON4
 10
0.0
 20
0.0
 30
0.0
  0
ARC
  5
1E0
  8
ﾚｲﾔ_1
 62
     5
 10
1021.06171875
 20
-21.315283036
 30
0.0
 40
1.5
 50
180.0
 51
270.0
  0
ARC
  5
1E1
  8
ﾚｲﾔ_1
 62
     5
 10
1021.06171875
 20
-21.315283036
 30
0.0
 40
2.5
 50
180.0
 51
270.0
  0
LINE
  5
1E2
  8
ﾚｲﾔ_1
 62
     5
 10
1021.06171875
 20
-19.815283036
 30
0.0
 11
1021.16171875
 21
-19.815283036
 31
0.0
  0
LINE
  5
1E3
  8
ﾚｲﾔ_1
 62
     5
 10
1022.16171875
 20
-70.826390034900001
 30
0.0
 11
1022.16171875
 21
-178.8976450152
 31
0.0
  0
LINE
  5
1E4
  8
ﾚｲﾔ_1
 62
     5
 10
1022.16171875
 20
-35.815283035999997
 30
0.0
 11
1022.16171875
 21
-36.815283035999997
 31
0.0
  0
INSERT
  5
1E6
  8
寸法線
  2
BALLON5
 10
0.0
 20
0.0
 30
0.0
  0
ARC
  5
1EF
  8
ﾚｲﾔ_1
 62
     5
 10
1021.06171875
 20
-8.3152830360000003
 30
0.0
 40
1.5
 50
90.0
 51
180.0
  0
ARC
  5
1F0
  8
ﾚｲﾔ_1
 62
     5
 10
1021.06171875
 20
-8.3152830360000003
 30
0.0
 40
2.5
 50
90.0
 51
180.0
  0
LINE
  5
1F1
  8
ﾚｲﾔ_1
  6
BORDER
 62
     3
 10
1047.4354456958999
 20
-183.1228403277
 30
0.0
 11
1064.8879918041
 21
-191.57323095269999
 31
0.0
  0
LINE
  5
1F2
  8
ﾚｲﾔ_1
  6
BORDER
 62
     3
 10
1047.4354456958999
 20
-174.67244970269999
 30
0.0
 11
1064.8879918041
 21
-183.1228403277
 31
0.0
  0
LINE
  5
1F3
  8
ﾚｲﾔ_1
  6
BORDER
 62
     3
 10
1064.8879918041
 20
-191.57323095269999
 30
0.0
 11
1064.8879918041
 21
-187.34803564020001
 31
0.0
  0
LINE
  5
1F4
  8
ﾚｲﾔ_1
  6
BORDER
 62
     3
 10
1064.8879918041
 20
-183.1228403277
 30
0.0
 11
1064.8879918041
 21
-178.8976450152
 31
0.0
  0
LINE
  5
1F5
  8
0
 62
     5
 10
1021.96171875
 20
-67.815283036300002
 30
0.0
 11
1021.96171875
 21
-69.315283035999997
 31
0.0
  0
LINE
  5
1F6
  8
0
 62
     5
 10
1026.46171875
 20
-40.804176037099992
 30
0.0
 11
1024.1617187500001
 21
-40.804176037099992
 31
0.0
  0
LINE
  5
1F7
  8
0
 62
     5
 10
1024.1617187500001
 20
-44.815283035999997
 30
0.0
 11
1020.96171875
 21
-44.815283035999997
 31
0.0
  0
LINE
  5
1F8
  8
0
 62
     5
 10
1026.46171875
 20
-39.315283035900002
 30
0.0
 11
1026.46171875
 21
-40.804176037099992
 31
0.0
  0
LINE
  5
1F9
  8
0
 62
     5
 10
1020.96171875
 20
-44.815283035999997
 30
0.0
 11
1020.96171875
 21
-43.815283035599997
 31
0.0
  0
LINE
  5
1FA
  8
0
 62
     5
 10
1020.96171875
 20
-43.815283035599997
 30
-3.2999999999999989
 11
1021.96171875
 21
-43.815283035599997
 31
-3.2999999999999989
  0
LINE
  5
1FB
  8
0
 62
     5
 10
1020.96171875
 20
-41.319299851499999
 30
-3.2999999999999989
 11
1022.16171875
 21
-41.319299851499999
 31
-3.2999999999999989
  0
LINE
  5
1FC
  8
0
 62
     5
 10
1020.96171875
 20
-67.815283036300002
 30
-3.2999999999999989
 11
1021.96171875
 21
-67.815283036300002
 31
-3.2999999999999989
  0
LINE
  5
1FD
  8
0
 62
     5
 10
1024.1617187500001
 20
-68.815283035999997
 30
0.0
 11
1025.3228319171999
 21
-70.826390034900001
 31
0.0
  0
LINE
  5
1FE
  8
ﾚｲﾔ_1
 62
     5
 10
1021.16171875
 20
-41.065283035999997
 30
0.0
 11
1022.16171875
 21
-41.065283035999997
 31
0.0
  0
LINE
  5
1FF
  8
ﾚｲﾔ_1
 62
     5
 10
1021.16171875
 20
-70.565283035999997
 30
0.0
 11
1022.16171875
 21
-70.565283035999997
 31
0.0
  0
LINE
  5
200
  8
ﾚｲﾔ_1
 62
     5
 10
1021.16171875
 20
-41.065283035999997
 30
0.0
 11
1021.16171875
 21
-41.319299851499999
 31
0.0
  0
LINE
  5
201
  8
ﾚｲﾔ_1
 62
     5
 10
1021.16171875
 20
-70.311266220500002
 30
0.0
 11
1021.16171875
 21
-70.565283035999997
 31
0.0
  0
LINE
  5
202
  8
0
 62
     5
 10
1020.96171875
 20
-42.315283035999997
 30
0.0
 11
1020.96171875
 21
-41.315283037699992
 31
0.0
  0
LINE
  5
203
  8
ﾚｲﾔ_1
 62
     5
 10
1021.16171875
 20
-42.315283035999997
 30
0.0
 11
1021.16171875
 21
-43.815283035599997
 31
0.0
  0
LINE
  5
204
  8
ﾚｲﾔ_1
 62
     5
 10
1021.16171875
 20
-44.815283035999997
 30
0.0
 11
1021.16171875
 21
-66.815283035999997
 31
0.0
  0
LINE
  5
205
  8
0
 62
     5
 10
1020.96171875
 20
-70.311266220500002
 30
-3.2999999999999989
 11
1022.16171875
 21
-70.311266220500002
 31
-3.2999999999999989
  0
LINE
  5
206
  8
0
 62
     5
 10
1021.96171875
 20
-69.315283035999997
 30
0.0
 11
1020.96171875
 21
-69.315283035999997
 31
0.0
  0
LINE
  5
207
  8
0
 62
     5
 10
1020.96171875
 20
-69.315283035999997
 30
0.0
 11
1020.96171875
 21
-70.315283034299995
 31
0.0
  0
LINE
  5
208
  8
0
 62
     5
 10
1024.1617187500001
 20
-40.804176037099992
 30
0.0
 11
1024.1617187500001
 21
-44.815283035999997
 31
0.0
  0
LINE
  5
209
  8
0
 62
     5
 10
1024.1617187500001
 20
-70.826390034900001
 30
0.0
 11
1024.1617187500001
 21
-66.815283035999997
 31
0.0
  0
LINE
  5
20A
  8
0
 62
     5
 10
1026.46171875
 20
-70.826390034900001
 30
0.0
 11
1024.1617187500001
 21
-70.826390034900001
 31
0.0
  0
LINE
  5
20B
  8
0
 62
     5
 10
1024.1617187500001
 20
-66.815283035999997
 30
0.0
 11
1020.96171875
 21
-66.815283035999997
 31
0.0
  0
LINE
  5
20C
  8
0
 62
     5
 10
1026.46171875
 20
-72.315283036099999
 30
0.0
 11
1026.46171875
 21
-70.826390034900001
 31
0.0
  0
LINE
  5
20D
  8
0
 62
     5
 10
1020.96171875
 20
-66.815283035999997
 30
0.0
 11
1020.96171875
 21
-67.815283036300002
 31
0.0
  0
LINE
  5
20E
  8
ﾚｲﾔ_1
 62
     5
 10
1021.16171875
 20
-67.815283036300002
 30
0.0
 11
1021.16171875
 21
-69.315283035999997
 31
0.0
  0
LINE
  5
20F
  8
ﾚｲﾔ_1
 62
     5
 10
1021.16171875
 20
-19.815283036
 30
0.0
 11
1021.16171875
 21
-41.065283035999997
 31
0.0
  0
INSERT
  5
211
  8
ﾚｲﾔ_1
  2
*X10
 10
0.0
 20
0.0
 30
0.0
  0
INSERT
  5
224
  8
ﾚｲﾔ_1
  2
*X11
 10
0.0
 20
0.0
 30
0.0
  0
INSERT
  5
236
  8
ﾚｲﾔ_1
  2
*X12
 10
0.0
 20
0.0
 30
0.0
  0
LINE
  5
24B
  8
ﾚｲﾔ_1
  6
BORDER
 62
     3
 10
1011.014160651
 20
-187.34803564020001
 30
0.0
 11
1047.4354456958999
 21
-187.34803564020001
 31
0.0
  0
LINE
  5
24C
  8
ﾚｲﾔ_1
  6
BORDER
 62
     3
 10
1011.014160651
 20
-178.8976450152
 30
0.0
 11
1047.4354456958999
 21
-178.8976450152
 31
0.0
  0
LINE
  5
24D
  8
ﾚｲﾔ_1
  6
CENTER
 62
     3
 10
1019.16171875
 20
-55.815283035999997
 30
0.0
 11
1046.1617187500001
 21
-55.815283035999997
 31
0.0
  0
LINE
  5
24E
  8
ﾚｲﾔ_1
 10
1069.6129878474001
 20
-108.7034399193
 30
0.0
 11
1007.8280872255
 21
-108.7034399193
 31
0.0
  0
LINE
  5
24F
  8
ﾚｲﾔ_1
 10
1007.8280872255
 20
-33.029989584200003
 30
0.0
 11
1069.6129878474001
 21
-33.029989584200003
 31
0.0
  0
LINE
  5
250
  8
0
 62
     5
 10
1024.53421875
 20
-45.337783036000012
 30
0.0
 11
1039.1617187500001
 21
-45.337783036000012
 31
0.0
  0
LINE
  5
251
  8
0
 62
     5
 10
1024.53421875
 20
-66.292783036000003
 30
0.0
 11
1039.1617187500001
 21
-66.292783036000003
 31
0.0
  0
LINE
  5
252
  8
ﾚｲﾔ_1
 62
     5
 10
1021.06171875
 20
-5.8152830360000003
 30
0.0
 11
1032.1617187500001
 21
-5.8152830360000003
 31
0.0
  0
INSERT
  5
254
  8
寸法線
  2
BALLON6
 10
0.0
 20
0.0
 30
0.0
  0
LINE
  5
25D
  8
ﾚｲﾔ_1
 10
1007.8280872255
 20
-108.7034399193
 30
0.0
 11
1007.8280872255
 21
-33.029989584200003
 31
0.0
  0
LINE
  5
25E
  8
0
 62
     5
 10
1024.1617187500001
 20
-66.665283036000005
 30
0.0
 11
1025.6962187500001
 21
-65.130783035999997
 31
0.0
  0
LINE
  5
25F
  8
0
 62
     5
 10
1024.1617187500001
 20
-42.815283035999997
 30
0.0
 11
1024.1617187500001
 21
-55.815283035999997
 31
0.0
  0
LINE
  5
260
  8
0
 62
     5
 10
1024.1617187500001
 20
-68.815283035999997
 30
0.0
 11
1024.1617187500001
 21
-55.815283035999997
 31
0.0
  0
LINE
  5
261
  8
0
 62
     5
 10
1025.6962187500001
 20
-46.499783035999997
 30
0.0
 11
1025.6962187500001
 21
-65.130783035999997
 31
0.0
  0
LINE
  5
262
  8
0
 62
     5
 10
1024.1617187500001
 20
-42.815283035999997
 30
0.0
 11
1025.3228319171999
 21
-40.804176037099992
 31
0.0
  0
LINE
  5
263
  8
0
 62
     5
 10
1024.1617187500001
 20
-44.965283036000002
 30
0.0
 11
1025.6962187500001
 21
-46.499783035999997
 31
0.0
  0
LINE
  5
264
  8
0
 62
     5
 10
1022.16171875
 20
-39.315283035900002
 30
0.0
 11
1026.46171875
 21
-39.315283035900002
 31
0.0
  0
LINE
  5
265
  8
0
 62
     5
 10
1022.16171875
 20
-41.319299851499999
 30
0.0
 11
1022.16171875
 21
-39.315283035900002
 31
0.0
  0
LINE
  5
266
  8
0
 62
     5
 10
1021.96171875
 20
-43.815283035599997
 30
0.0
 11
1021.96171875
 21
-42.315283035999997
 31
0.0
  0
LINE
  5
267
  8
0
 62
     5
 10
1021.96171875
 20
-42.315283035999997
 30
0.0
 11
1020.96171875
 21
-42.315283035999997
 31
0.0
  0
ARC
  5
268
  8
ﾚｲﾔ_1
 62
     5
 10
882.93916367909992
 20
-21.315283036
 30
0.0
 40
2.5
 50
270.0
 51
0.0
  0
ARC
  5
269
  8
ﾚｲﾔ_1
 62
     5
 10
812.73916367909987
 20
-21.315283036
 30
0.0
 40
2.5
 50
180.0
 51
270.0
  0
LINE
  5
26A
  8
ﾚｲﾔ_1
 62
     5
 10
885.43916367910003
 20
-21.315283036
 30
0.0
 11
885.43916367910003
 21
-8.3152830360000003
 31
0.0
  0
LINE
  5
26B
  8
ﾚｲﾔ_1
 62
     5
 10
810.23916367909987
 20
-21.315283036
 30
0.0
 11
810.23916367909987
 21
-8.3152830360000003
 31
0.0
  0
LINE
  5
26C
  8
ﾚｲﾔ_1
 62
     5
 10
812.83916367910001
 20
-23.815283036
 30
0.0
 11
812.83916367910001
 21
-178.8976450152
 31
0.0
  0
LINE
  5
26D
  8
ﾚｲﾔ_1
  6
BORDER
 62
     3
 10
839.11289062499986
 20
-183.1228403277
 30
0.0
 11
839.11289062499986
 21
-187.34803564020001
 31
0.0
  0
LINE
  5
26E
  8
ﾚｲﾔ_1
  6
BORDER
 62
     3
 10
839.11289062499986
 20
-174.67244970269999
 30
0.0
 11
839.11289062499986
 21
-178.8976450152
 31
0.0
  0
LINE
  5
26F
  8
ﾚｲﾔ_1
 62
     5
 10
812.73916367909987
 20
-23.815283036
 30
0.0
 11
882.93916367909992
 21
-23.815283036
 31
0.0
  0
LINE
  5
270
  8
ﾚｲﾔ_1
  6
BORDER
 62
     3
 10
839.11289062499986
 20
-183.1228403277
 30
0.0
 11
856.56543673319993
 21
-191.57323095269999
 31
0.0
  0
LINE
  5
271
  8
ﾚｲﾔ_1
  6
BORDER
 62
     3
 10
839.11289062499986
 20
-174.67244970269999
 30
0.0
 11
856.56543673319993
 21
-183.1228403277
 31
0.0
  0
LINE
  5
272
  8
ﾚｲﾔ_1
  6
BORDER
 62
     3
 10
802.69160558009992
 20
-187.34803564020001
 30
0.0
 11
839.11289062499986
 21
-187.34803564020001
 31
0.0
  0
LINE
  5
273
  8
ﾚｲﾔ_1
 62
     5
 10
871.83916367910001
 20
-5.8152830360000003
 30
0.0
 11
855.83916367910001
 21
-1.9152830359999991
 31
0.0
  0
LINE
  5
274
  8
ﾚｲﾔ_1
 62
     5
 10
823.83916367910001
 20
-5.8152830360000003
 30
0.0
 11
839.83916367910001
 21
-1.9152830359999991
 31
0.0
  0
LINE
  5
275
  8
ﾚｲﾔ_1
 62
     5
 10
812.73916367909987
 20
-5.8152830360000003
 30
0.0
 11
882.93916367909992
 21
-5.8152830360000003
 31
0.0
  0
LINE
  5
276
  8
ﾚｲﾔ_1
 62
     5
 10
839.83916367910001
 20
-1.9152830359999991
 30
0.0
 11
855.83916367910001
 21
-1.9152830359999991
 31
0.0
  0
ARC
  5
277
  8
ﾚｲﾔ_1
 62
     5
 10
882.93916367909992
 20
-8.3152830360000003
 30
0.0
 40
2.5
 50
0.0
 51
90.0
  0
ARC
  5
278
  8
ﾚｲﾔ_1
 62
     5
 10
812.73916367909987
 20
-8.3152830360000003
 30
0.0
 40
2.5
 50
90.0
 51
180.0
  0
LINE
  5
279
  8
ﾚｲﾔ_1
  6
BORDER
 62
     3
 10
802.69160558009992
 20
-178.8976450152
 30
0.0
 11
839.11289062499986
 21
-178.8976450152
 31
0.0
  0
INSERT
  5
27B
  8
ﾚｲﾔ_1
  2
CLUMP0
 10
0.0
 20
0.0
 30
0.0
  0
LINE
  5
289
  8
ﾚｲﾔ_1
  6
BORDER
 62
     3
 10
856.56543673319993
 20
-178.8976450152
 30
0.0
 11
894.36973058009983
 21
-178.8976450152
 31
0.0
  0
LINE
  5
28A
  8
ﾚｲﾔ_1
  6
BORDER
 62
     3
 10
856.56543673319993
 20
-191.57323095269999
 30
0.0
 11
856.56543673319993
 21
-187.34803564020001
 31
0.0
  0
LINE
  5
28B
  8
ﾚｲﾔ_1
  6
BORDER
 62
     3
 10
856.56543673319993
 20
-183.1228403277
 30
0.0
 11
856.56543673319993
 21
-178.8976450152
 31
0.0
  0
LINE
  5
28C
  8
ﾚｲﾔ_1
  6
BORDER
 62
     3
 10
856.56543673319993
 20
-187.34803564020001
 30
0.0
 11
894.36973058009983
 21
-187.34803564020001
 31
0.0
  0
LINE
  5
28D
  8
ﾚｲﾔ_1
 62
     5
 10
882.83916367910001
 20
-23.815283036
 30
0.0
 11
882.83916367910001
 21
-178.8976450152
 31
0.0
  0
LINE
  5
28E
  8
ﾚｲﾔ_1
 62
     5
 10
1021.16171875
 20
-70.311266220500002
 30
0.0
 11
1021.16171875
 21
-178.8976450152
 31
0.0
  0
LINE
  5
28F
  8
ﾚｲﾔ_1
  6
BORDER
 62
     3
 10
662.62259774499989
 20
-174.67244970269999
 30
0.0
 11
662.62259774499989
 21
-178.8976450152
 31
0.0
  0
LINE
  5
290
  8
ﾚｲﾔ_1
  6
BORDER
 62
     3
 10
662.62259774499989
 20
-183.1228403277
 30
0.0
 11
680.07514385319996
 21
-191.57323095269999
 31
0.0
  0
LINE
  5
291
  8
ﾚｲﾔ_1
  6
BORDER
 62
     3
 10
662.62259774499989
 20
-174.67244970269999
 30
0.0
 11
680.07514385319996
 21
-183.1228403277
 31
0.0
  0
INSERT
  5
292
  8
0
  6
CONTINUOUS
  2
*U63
 10
0.0
 20
0.0
 30
0.0
  0
LINE
  5
293
  8
ﾚｲﾔ_1
 62
     5
 10
708.94887079910006
 20
-21.315283036
 30
0.0
 11
708.94887079910006
 21
-8.3152830360000003
 31
0.0
  0
ARC
  5
294
  8
ﾚｲﾔ_1
 62
     5
 10
706.44887079909995
 20
-21.315283036
 30
0.0
 40
2.5
 50
270.0
 51
0.0
  0
LINE
  5
295
  8
ﾚｲﾔ_1
 62
     5
 10
706.34887079910004
 20
-23.815283036
 30
0.0
 11
706.34887079910004
 21
-178.8976450152
 31
0.0
  0
ARC
  5
296
  8
ﾚｲﾔ_1
 62
     5
 10
706.44887079909995
 20
-8.3152830360000003
 30
0.0
 40
2.5
 50
0.0
 51
90.0
  0
LINE
  5
298
  8
CONSTRUCTION
 62
     5
 10
706.44887079909995
 20
85.290169270799979
 30
0.0
 11
636.2488707990999
 21
85.290169270799979
 31
0.0
  0
LINE
  5
299
  8
CONSTRUCTION
 62
     5
 10
636.2488707990999
 20
160.49016927080001
 30
0.0
 11
706.44887079909995
 21
160.49016927080001
 31
0.0
  0
LINE
  5
29A
  8
CONSTRUCTION
 62
     5
 10
695.34887079910004
 20
98.890169270800001
 30
0.0
 11
647.34887079910004
 21
98.890169270800001
 31
0.0
  0
LINE
  5
29B
  8
CONSTRUCTION
 62
     5
 10
679.34887079910004
 20
114.8901692708
 30
0.0
 11
695.34887079910004
 21
98.890169270800001
 31
0.0
  0
LINE
  5
29C
  8
CONSTRUCTION
 62
     5
 10
679.34887079910004
 20
130.89016927079999
 30
0.0
 11
695.34887079910004
 21
146.89016927079999
 31
0.0
  0
LINE
  5
29D
  8
CONSTRUCTION
 62
     5
 10
647.34887079910004
 20
146.89016927079999
 30
0.0
 11
695.34887079910004
 21
146.89016927079999
 31
0.0
  0
LINE
  5
29E
  8
CONSTRUCTION
 62
     5
 10
679.34887079910004
 20
114.8901692708
 30
0.0
 11
663.34887079910004
 21
114.8901692708
 31
0.0
  0
LINE
  5
29F
  8
CONSTRUCTION
 62
     5
 10
663.34887079910004
 20
114.8901692708
 30
0.0
 11
663.34887079910004
 21
130.89016927079999
 31
0.0
  0
LINE
  5
2A0
  8
CONSTRUCTION
 62
     5
 10
679.34887079910004
 20
130.89016927079999
 30
0.0
 11
679.34887079910004
 21
114.8901692708
 31
0.0
  0
LINE
  5
2A1
  8
CONSTRUCTION
 62
     5
 10
647.34887079910004
 20
98.890169270800001
 30
0.0
 11
647.34887079910004
 21
146.89016927079999
 31
0.0
  0
LINE
  5
2A2
  8
CONSTRUCTION
 62
     5
 10
663.34887079910004
 20
130.89016927079999
 30
0.0
 11
679.34887079910004
 21
130.89016927079999
 31
0.0
  0
LINE
  5
2A3
  8
CONSTRUCTION
 62
     5
 10
647.34887079910004
 20
146.89016927079999
 30
0.0
 11
663.34887079910004
 21
130.89016927079999
 31
0.0
  0
LINE
  5
2A4
  8
CONSTRUCTION
 62
     5
 10
663.34887079910004
 20
114.8901692708
 30
0.0
 11
647.34887079910004
 21
98.890169270800001
 31
0.0
  0
LINE
  5
2A5
  8
CONSTRUCTION
 62
     5
 10
695.34887079910004
 20
146.89016927079999
 30
0.0
 11
695.34887079910004
 21
98.890169270800001
 31
0.0
  0
ARC
  5
2A6
  8
CONSTRUCTION
 62
     5
 10
706.44887079909995
 20
157.99016927080001
 30
0.0
 40
2.5
 50
0.0
 51
90.0
  0
LINE
  5
2A7
  8
CONSTRUCTION
 62
     5
 10
708.94887079910006
 20
157.99016927080001
 30
0.0
 11
708.94887079910006
 21
87.790169270799979
 31
0.0
  0
ARC
  5
2A8
  8
CONSTRUCTION
 62
     5
 10
706.44887079909995
 20
87.790169270799979
 30
0.0
 40
2.5
 50
270.0
 51
0.0
  0
LINE
  5
2A9
  8
ﾚｲﾔ_1
 62
     5
 10
1059.1017187499999
 20
-377.15859075579999
 30
0.0
 11
1060.1117187499999
 21
-374.99263876610001
 31
0.0
  0
LINE
  5
2AA
  8
ﾚｲﾔ_1
 62
     5
 10
1044.02171875
 20
-376.98123502570002
 30
0.0
 11
1043.01171875
 21
-374.81528303599998
 31
0.0
  0
LINE
  5
2AB
  8
ﾚｲﾔ_1
 62
     5
 10
1058.30171875
 20
-376.98123502570002
 30
0.0
 11
1059.31171875
 21
-374.81528303599998
 31
0.0
  0
LINE
  5
2AC
  8
ﾚｲﾔ_1
 62
     5
 10
1044.1617187500001
 20
-394.31528303599998
 30
0.0
 11
1043.1135393362999
 21
-392.499783036
 31
0.0
  0
LINE
  5
2AD
  8
ﾚｲﾔ_1
 62
     5
 10
1044.1617187500001
 20
-409.31528303599998
 30
0.0
 11
1044.1617187500001
 21
-394.31528303599998
 31
0.0
  0
LINE
  5
2AE
  8
ﾚｲﾔ_1
 62
     5
 10
1048.9117187500001
 20
-414.81528303599993
 30
0.0
 11
1041.1617187500001
 21
-414.81528303599993
 31
0.0
  0
ARC
  5
2AF
  8
ﾚｲﾔ_1
 62
     5
 10
1060.6117187499999
 20
-359.41729614889999
 30
0.0
 40
0.5
 50
136.0
 51
180.0
  0
ARC
  5
2B0
  8
ﾚｲﾔ_1
 62
     5
 10
1048.9117187500001
 20
-403.81528303599993
 30
0.0
 40
11.0
 50
270.0
 51
0.0
  0
LINE
  5
2B1
  8
ﾚｲﾔ_1
 62
     5
 10
1041.1617187500001
 20
-414.81528303599993
 30
0.0
 11
1040.0006055828001
 21
-416.82639003489999
 31
0.0
  0
INSERT
  5
2B3
  8
ﾚｲﾔ_1
  2
CLUMP1
 10
0.0
 20
0.0
 30
0.0
  0
LINE
  5
2C4
  8
ﾚｲﾔ_1
 10
720.56878752660009
 20
-119.41743399560001
 30
0.0
 11
680.59458626829996
 21
-67.875697166700007
 31
0.0
  0
SOLID
  5
2C5
  8
ﾚｲﾔ_1
 10
680.59458626829996
 20
-67.875697166700007
 30
0.0
 11
688.84044098669995
 21
-74.135533980600002
 31
0.0
 12
685.0809801301998
 22
-73.660341373799994
 32
0.0
 13
685.0809801301998
 23
-73.660341373799994
 33
0.0
  0
SOLID
  5
2C6
  8
ﾚｲﾔ_1
 10
680.59458626829996
 20
-67.875697166700007
 30
0.0
 11
684.60578752339995
 21
-77.419802230200006
 31
0.0
 12
685.0809801301998
 22
-73.660341373799994
 32
0.0
 13
685.0809801301998
 23
-73.660341373799994
 33
0.0
  0
LINE
  5
2C7
  8
ﾚｲﾔ_1
 62
     5
 10
636.2488707990999
 20
-23.815283036
 30
0.0
 11
706.44887079909995
 21
-23.815283036
 31
0.0
  0
CIRCLE
  5
2C8
  8
ﾚｲﾔ_1
 62
     5
 10
671.34887079910004
 20
-55.815283035999997
 30
0.0
 40
15.25
  0
LINE
  5
2C9
  8
ﾚｲﾔ_1
  6
BORDER
 62
     3
 10
680.07514385319996
 20
-187.34803564020001
 30
0.0
 11
717.87943770009997
 21
-187.34803564020001
 31
0.0
  0
LINE
  5
2CA
  8
ﾚｲﾔ_1
  6
BORDER
 62
     3
 10
680.07514385319996
 20
-178.8976450152
 30
0.0
 11
717.87943770009997
 21
-178.8976450152
 31
0.0
  0
LINE
  5
2CB
  8
ﾚｲﾔ_1
  6
BORDER
 62
     3
 10
649.60824579910002
 20
-55.815283035999997
 30
0.0
 11
693.26449579910002
 21
-55.815283035999997
 31
0.0
  0
LINE
  5
2CC
  8
ﾚｲﾔ_1
 62
     5
 10
636.2488707990999
 20
-5.8152830360000003
 30
0.0
 11
706.44887079909995
 21
-5.8152830360000003
 31
0.0
  0
LINE
  5
2CD
  8
ﾚｲﾔ_1
 62
     5
 10
695.34887079910004
 20
-5.8152830360000003
 30
0.0
 11
679.34887079910004
 21
-1.9152830359999991
 31
0.0
  0
LINE
  5
2CE
  8
ﾚｲﾔ_1
 62
     5
 10
647.34887079910004
 20
-5.8152830360000003
 30
0.0
 11
663.34887079910004
 21
-1.9152830359999991
 31
0.0
  0
LINE
  5
2CF
  8
ﾚｲﾔ_1
 62
     5
 10
663.34887079910004
 20
-1.9152830359999991
 30
0.0
 11
679.34887079910004
 21
-1.9152830359999991
 31
0.0
  0
LINE
  5
2D0
  8
ﾚｲﾔ_1
 62
     5
 10
636.34887079910004
 20
-23.815283036
 30
0.0
 11
636.34887079910004
 21
-178.8976450152
 31
0.0
  0
CIRCLE
  5
2D1
  8
ﾚｲﾔ_1
 62
     5
 10
671.34887079910004
 20
-55.815283035999997
 30
0.0
 40
9.5
  0
LINE
  5
2D2
  8
ﾚｲﾔ_1
  6
BORDER
 62
     3
 10
680.07514385319996
 20
-191.57323095269999
 30
0.0
 11
680.07514385319996
 21
-187.34803564020001
 31
0.0
  0
LINE
  5
2D3
  8
ﾚｲﾔ_1
  6
BORDER
 62
     3
 10
680.07514385319996
 20
-183.1228403277
 30
0.0
 11
680.07514385319996
 21
-178.8976450152
 31
0.0
  0
LINE
  5
2D4
  8
ﾚｲﾔ_1
  6
BORDER
 62
     3
 10
662.62259774499989
 20
-183.1228403277
 30
0.0
 11
662.62259774499989
 21
-187.34803564020001
 31
0.0
  0
LINE
  5
2D5
  8
ﾚｲﾔ_1
 62
     5
 10
1061.1617187500001
 20
-409.06528303599993
 30
0.0
 11
1061.1617187500001
 21
-394.56528303599998
 31
0.0
  0
LINE
  5
2D6
  8
ﾚｲﾔ_1
 62
     5
 10
1057.1617187500001
 20
-384.0536930376
 30
0.0
 11
1045.1617187500001
 21
-384.0536930376
 31
0.0
  0
LINE
  5
2D7
  8
ﾚｲﾔ_1
 62
     5
 10
1042.4117187500001
 20
-382.63587258270002
 30
0.0
 11
1043.26171875
 21
-377.81528303599998
 31
0.0
  0
LINE
  5
2D8
  8
ﾚｲﾔ_1
 62
     5
 10
1057.1617187500001
 20
-384.0536930376
 30
0.0
 11
1058.26171875
 21
-377.81528303599998
 31
0.0
  0
CIRCLE
  5
2D9
  8
ﾚｲﾔ_1
 62
     5
 10
1060.2967187500001
 20
-355.90799149259999
 30
0.0
 40
1.1149999999999991
  0
ARC
  5
2DA
  8
ﾚｲﾔ_1
 62
     5
 10
1041.6117187499999
 20
-387.9947058994
 30
0.0
 40
0.8
 50
210.0
 51
0.0
  0
LINE
  5
2DB
  8
ﾚｲﾔ_1
 62
     5
 10
1043.1617187500001
 20
-374.81528303599998
 30
0.0
 11
1059.1617187500001
 21
-374.81528303599998
 31
0.0
  0
LINE
  5
2DC
  8
ﾚｲﾔ_1
 62
     5
 10
1039.1617187500001
 20
-391.33778303599991
 30
0.0
 11
1041.1743617883999
 21
-392.499783036
 31
0.0
  0
LINE
  5
2DD
  8
ﾚｲﾔ_1
 62
     5
 10
1039.1617187500001
 20
-391.33778303599991
 30
0.0
 11
1039.1617187500001
 21
-401.81528303599998
 31
0.0
  0
LINE
  5
2DE
  8
ﾚｲﾔ_1
 62
     5
 10
1039.1617187500001
 20
-412.292783036
 30
0.0
 11
1041.1743617883999
 21
-411.13078303599991
 31
0.0
  0
LINE
  5
2DF
  8
ﾚｲﾔ_1
 62
     5
 10
1039.1617187500001
 20
-412.292783036
 30
0.0
 11
1039.1617187500001
 21
-401.81528303599998
 31
0.0
  0
LINE
  5
2E0
  8
ﾚｲﾔ_1
 62
     5
 10
1042.9117187500001
 20
-354.64071372080002
 30
0.0
 11
1042.0949938556
 21
-354.76868828720001
 31
0.0
  0
LINE
  5
2E1
  8
ﾚｲﾔ_1
 62
     5
 10
1042.6468604904001
 20
-358.51424026730001
 30
0.0
 11
1041.3046430295001
 21
-357.12433339879999
 31
0.0
  0
LINE
  5
2E2
  8
ﾚｲﾔ_1
 62
     5
 10
1042.0713886502001
 20
-359.06996696369998
 30
0.0
 11
1040.7291711892999
 21
-357.68006009520002
 31
0.0
  0
LINE
  5
2E3
  8
ﾚｲﾔ_1
 62
     5
 10
1059.9117187500001
 20
-382.63587258270002
 30
0.0
 11
1059.06171875
 21
-377.81528303599998
 31
0.0
  0
LINE
  5
2E4
  8
ﾚｲﾔ_1
 62
     5
 10
1043.22171875
 20
-377.81528303599998
 30
0.0
 11
1043.22171875
 21
-377.15859075579999
 31
0.0
  0
CIRCLE
  5
2E5
  8
ﾚｲﾔ_1
 62
     5
 10
1042.0267187500001
 20
-355.90799149259999
 30
0.0
 40
1.1149999999999991
  0
LINE
  5
2E6
  8
ﾚｲﾔ_1
 62
     5
 10
1059.9117187500001
 20
-403.81528303599993
 30
0.0
 11
1059.9117187500001
 21
-382.63587258270002
 31
0.0
  0
LINE
  5
2E7
  8
ﾚｲﾔ_1
 62
     5
 10
1059.1017187499999
 20
-377.81528303599998
 30
0.0
 11
1043.22171875
 21
-377.81528303599998
 31
0.0
  0
LINE
  5
2E8
  8
ﾚｲﾔ_1
 62
     5
 10
1057.1617187500001
 20
-398.31528303599998
 30
0.0
 11
1057.1617187500001
 21
-384.0536930376
 31
0.0
  0
LINE
  5
2E9
  8
ﾚｲﾔ_1
 62
     5
 10
1045.1617187500001
 20
-394.31528303599998
 30
0.0
 11
1045.1617187500001
 21
-384.0536930376
 31
0.0
  0
LINE
  5
2EA
  8
ﾚｲﾔ_1
 62
     5
 10
1043.1135393362999
 20
-411.13078303599991
 30
0.0
 11
1043.1135393362999
 21
-392.499783036
 31
0.0
  0
LINE
  5
2EB
  8
ﾚｲﾔ_1
 62
     5
 10
1043.1135393362999
 20
-411.13078303599991
 30
0.0
 11
1044.1617187500001
 21
-409.31528303599998
 31
0.0
  0
LINE
  5
2EC
  8
ﾚｲﾔ_1
 62
     5
 10
1058.30171875
 20
-376.98123502570002
 30
0.0
 11
1044.02171875
 21
-376.98123502570002
 31
0.0
  0
LINE
  5
2ED
  8
ﾚｲﾔ_1
 62
     5
 10
1043.22171875
 20
-377.15859075579999
 30
0.0
 11
1042.21171875
 21
-374.99263876610001
 31
0.0
  0
LINE
  5
2EE
  8
ﾚｲﾔ_1
 62
     5
 10
1059.1017187499999
 20
-377.81528303599998
 30
0.0
 11
1059.1017187499999
 21
-377.15859075579999
 31
0.0
  0
LINE
  5
2EF
  8
ﾚｲﾔ_1
 62
     5
 10
1059.31171875
 20
-374.81528303599998
 30
0.0
 11
1043.01171875
 21
-374.81528303599998
 31
0.0
  0
LINE
  5
2F0
  8
ﾚｲﾔ_1
 62
     5
 10
1060.1117187499999
 20
-374.99263876610001
 30
0.0
 11
1060.1117187499999
 21
-359.41729614889999
 31
0.0
  0
LINE
  5
2F1
  8
ﾚｲﾔ_1
 62
     5
 10
1059.31171875
 20
-374.81528303599998
 30
0.0
 11
1059.31171875
 21
-359.41729614889999
 31
0.0
  0
LINE
  5
2F2
  8
ﾚｲﾔ_1
 62
     5
 10
1042.9117187500001
 20
-354.62504448290002
 30
0.0
 11
1042.9117187500001
 21
-353.81528303599998
 31
0.0
  0
LINE
  5
2F3
  8
ﾚｲﾔ_1
 62
     5
 10
1059.4117187500001
 20
-354.62504448290002
 30
0.0
 11
1059.4117187500001
 21
-353.81528303599998
 31
0.0
  0
LINE
  5
2F4
  8
ﾚｲﾔ_1
 62
     5
 10
1043.01171875
 20
-374.81528303599998
 30
0.0
 11
1043.01171875
 21
-359.41729614889999
 31
0.0
  0
LINE
  5
2F5
  8
ﾚｲﾔ_1
 62
     5
 10
1044.02171875
 20
-377.81528303599998
 30
0.0
 11
1044.02171875
 21
-376.98123502570002
 31
0.0
  0
ARC
  5
2F6
  8
ﾚｲﾔ_1
 62
     5
 10
1046.1617187500001
 20
-398.31528303599998
 30
0.0
 40
11.0
 50
270.0
 51
0.0
  0
ARC
  5
2F7
  8
ﾚｲﾔ_1
 62
     5
 10
1042.31171875
 20
-356.15181168020001
 30
0.0
 40
2.2000000000000002
 50
98.905399848399995
 51
224.0
  0
ARC
  5
2F8
  8
ﾚｲﾔ_1
 62
     5
 10
1042.31171875
 20
-356.15181168020001
 30
0.0
 40
1.399999999999999
 50
98.905399848399995
 51
224.0
  0
ARC
  5
2F9
  8
ﾚｲﾔ_1
 62
     5
 10
1041.71171875
 20
-359.41729614889999
 30
0.0
 40
0.5
 50
0.0
 51
44.0
  0
ARC
  5
2FA
  8
ﾚｲﾔ_1
 62
     5
 10
1041.71171875
 20
-359.41729614889999
 30
0.0
 40
1.3
 50
0.0
 51
44.0
  0
ARC
  5
2FB
  8
ﾚｲﾔ_1
 62
     5
 10
1060.6117187499999
 20
-359.41729614889999
 30
0.0
 40
1.3
 50
136.0
 51
180.0
  0
LINE
  5
2FC
  8
ﾚｲﾔ_1
 62
     5
 10
1045.1617187500001
 20
-384.0536930376
 30
0.0
 11
1044.06171875
 21
-377.81528303599998
 31
0.0
  0
LINE
  5
2FD
  8
ﾚｲﾔ_1
 62
     5
 10
1040.9188984269999
 20
-388.39470589939998
 30
0.0
 11
1040.0006055828001
 21
-386.80417603709998
 31
0.0
  0
LINE
  5
2FE
  8
ﾚｲﾔ_1
 62
     5
 10
1046.1617187500001
 20
-409.31528303599998
 30
0.0
 11
1044.1617187500001
 21
-409.31528303599998
 31
0.0
  0
LINE
  5
2FF
  8
ﾚｲﾔ_1
 62
     5
 10
1042.4117187500001
 20
-387.9947058994
 30
0.0
 11
1042.4117187500001
 21
-382.63587258270002
 31
0.0
  0
LINE
  5
300
  8
ﾚｲﾔ_1
 62
     5
 10
1042.21171875
 20
-374.99263876610001
 30
0.0
 11
1042.21171875
 21
-359.41729614889999
 31
0.0
  0
LINE
  5
301
  8
ﾚｲﾔ_1
 62
     5
 10
1059.4117187500001
 20
-354.64071372080002
 30
0.0
 11
1060.2284436443999
 21
-354.76868828720001
 31
0.0
  0
LINE
  5
302
  8
ﾚｲﾔ_1
 62
     5
 10
1059.4117187500001
 20
-353.83095227389998
 30
0.0
 11
1060.3522864412
 21
-353.97833206269991
 31
0.0
  0
ARC
  5
303
  8
ﾚｲﾔ_1
 62
     5
 10
1060.01171875
 20
-356.15181168020001
 30
0.0
 40
2.2000000000000002
 50
316.0
 51
81.094600151600005
  0
ARC
  5
304
  8
ﾚｲﾔ_1
 62
     5
 10
1060.01171875
 20
-356.15181168020001
 30
0.0
 40
1.399999999999999
 50
316.0
 51
81.094600151600005
  0
LINE
  5
305
  8
ﾚｲﾔ_1
 62
     5
 10
1045.1617187500001
 20
-394.31528303599998
 30
0.0
 11
1044.1617187500001
 21
-394.31528303599998
 31
0.0
  0
LINE
  5
306
  8
ﾚｲﾔ_1
 62
     5
 10
1061.1617187500001
 20
-409.06528303599993
 30
0.0
 11
1058.5780262146
 21
-409.06528303599993
 31
0.0
  0
LINE
  5
307
  8
ﾚｲﾔ_1
 62
     5
 10
1024.1617187500001
 20
-412.81528303599993
 30
0.0
 11
1020.96171875
 21
-412.81528303599993
 31
0.0
  0
LINE
  5
308
  8
ﾚｲﾔ_1
 62
     5
 10
1026.46171875
 20
-418.31528303610003
 30
0.0
 11
1026.46171875
 21
-416.82639003489999
 31
0.0
  0
LINE
  5
309
  8
ﾚｲﾔ_1
 62
     5
 10
1021.16171875
 20
-420.81528303599993
 30
0.0
 11
1021.16171875
 21
-416.56528303599998
 31
0.0
  0
INSERT
  5
30A
  8
0
  6
CONTINUOUS
  2
*U64
 10
0.0
 20
0.0
 30
0.0
  0
INSERT
  5
30C
  8
寸法線
  2
BALLON7
 10
0.0
 20
0.0
 30
0.0
  0
INSERT
  5
316
  8
寸法線
  2
BALLON8
 10
0.0
 20
0.0
 30
0.0
  0
ARC
  5
31F
  8
ﾚｲﾔ_1
  6
BORDER
 62
     3
 10
1046.1617187500001
 20
-396.81528303599998
 30
0.0
 40
5.0
 50
270.0
 51
0.0
  0
LINE
  5
320
  8
ﾚｲﾔ_1
 62
     5
 10
1043.1617187500001
 20
-358.8920620552999
 30
0.0
 11
1043.01171875
 21
-358.8920620552999
 31
0.0
  0
LINE
  5
321
  8
ﾚｲﾔ_1
 62
     5
 10
1059.31171875
 20
-358.8920620552999
 30
0.0
 11
1059.1617187500001
 21
-358.8920620552999
 31
0.0
  0
LINE
  5
322
  8
ﾚｲﾔ_1
 62
     5
 10
1043.1617187500001
 20
-357.0229914926
 30
0.0
 11
1042.0267187500001
 21
-357.0229914926
 31
0.0
  0
LINE
  5
323
  8
ﾚｲﾔ_1
 62
     5
 10
1060.2967187500001
 20
-357.0229914926
 30
0.0
 11
1059.1617187500001
 21
-357.0229914926
 31
0.0
  0
LINE
  5
324
  8
ﾚｲﾔ_1
 62
     5
 10
1043.1617187500001
 20
-354.62504448290002
 30
0.0
 11
1042.9117187500001
 21
-354.62504448290002
 31
0.0
  0
LINE
  5
325
  8
ﾚｲﾔ_1
 62
     5
 10
1059.4117187500001
 20
-354.62504448290002
 30
0.0
 11
1059.1617187500001
 21
-354.62504448290002
 31
0.0
  0
LINE
  5
326
  8
ﾚｲﾔ_1
 62
     5
 10
1043.1617187500001
 20
-353.81528303599998
 30
0.0
 11
1042.9117187500001
 21
-353.81528303599998
 31
0.0
  0
LINE
  5
327
  8
ﾚｲﾔ_1
 62
     5
 10
1059.4117187500001
 20
-353.81528303599998
 30
0.0
 11
1059.1617187500001
 21
-353.81528303599998
 31
0.0
  0
LINE
  5
328
  8
ﾚｲﾔ_1
 10
1069.6129878474001
 20
-348.57477913000002
 30
0.0
 11
1069.6129878474001
 21
-424.2482294651
 31
0.0
  0
LINE
  5
329
  8
ﾚｲﾔ_1
 62
     5
 10
1061.1617187500001
 20
-394.56528303599998
 30
0.0
 11
1059.9117187500001
 21
-394.56528303599998
 31
0.0
  0
LINE
  5
32A
  8
ﾚｲﾔ_1
 62
     5
 10
1042.9117187500001
 20
-353.83095227389998
 30
0.0
 11
1041.9711510587999
 21
-353.97833206269991
 31
0.0
  0
LINE
  5
32B
  8
ﾚｲﾔ_1
 62
     5
 10
1025.6962187500001
 20
-411.13078303599991
 30
0.0
 11
1043.1135393362999
 21
-411.13078303599991
 31
0.0
  0
LINE
  5
32C
  8
ﾚｲﾔ_1
 62
     5
 10
1025.3228319171999
 20
-416.82639003489999
 30
0.0
 11
1040.0006055828001
 21
-416.82639003489999
 31
0.0
  0
LINE
  5
32D
  8
ﾚｲﾔ_1
 62
     5
 10
1025.3228319171999
 20
-386.80417603709998
 30
0.0
 11
1040.0006055828001
 21
-386.80417603709998
 31
0.0
  0
LINE
  5
32E
  8
ﾚｲﾔ_1
 62
     5
 10
1025.6962187500001
 20
-392.499783036
 30
0.0
 11
1043.1135393362999
 21
-392.499783036
 31
0.0
  0
LINE
  5
32F
  8
ﾚｲﾔ_1
 62
     5
 10
1059.6765770095999
 20
-358.51424026730001
 30
0.0
 11
1061.0187944705001
 21
-357.12433339879999
 31
0.0
  0
LINE
  5
330
  8
ﾚｲﾔ_1
 62
     5
 10
1060.2520488498001
 20
-359.06996696369998
 30
0.0
 11
1061.5942663107
 21
-357.68006009520002
 31
0.0
  0
LINE
  5
331
  8
ﾚｲﾔ_1
 62
     5
 10
1058.30171875
 20
-377.81528303599998
 30
0.0
 11
1058.30171875
 21
-376.98123502570002
 31
0.0
  0
LINE
  5
332
  8
ﾚｲﾔ_1
 62
     5
 10
1020.96171875
 20
-387.31929985149998
 30
-3.2999999999999989
 11
1022.16171875
 21
-387.31929985149998
 31
-3.2999999999999989
  0
LINE
  5
333
  8
ﾚｲﾔ_1
 62
     5
 10
1021.16171875
 20
-412.81528303599993
 30
0.0
 11
1021.16171875
 21
-390.81528303599998
 31
0.0
  0
LINE
  5
334
  8
ﾚｲﾔ_1
 62
     5
 10
1021.16171875
 20
-415.31528303599993
 30
0.0
 11
1021.16171875
 21
-413.81528303629989
 31
0.0
  0
LINE
  5
335
  8
ﾚｲﾔ_1
 62
     5
 10
1021.16171875
 20
-389.81528303559998
 30
0.0
 11
1021.16171875
 21
-388.31528303599998
 31
0.0
  0
LINE
  5
336
  8
ﾚｲﾔ_1
 62
     5
 10
1021.16171875
 20
-387.31929985149998
 30
0.0
 11
1021.16171875
 21
-387.06528303599998
 31
0.0
  0
LINE
  5
337
  8
ﾚｲﾔ_1
 62
     5
 10
1021.16171875
 20
-416.56528303599998
 30
0.0
 11
1021.16171875
 21
-416.31126622049999
 31
0.0
  0
LINE
  5
338
  8
ﾚｲﾔ_1
 62
     5
 10
1024.1617187500001
 20
-388.81528303599998
 30
0.0
 11
1025.3228319171999
 21
-386.80417603709998
 31
0.0
  0
LINE
  5
339
  8
ﾚｲﾔ_1
 62
     5
 10
1024.1617187500001
 20
-412.66528303600001
 30
0.0
 11
1025.6962187500001
 21
-411.13078303599991
 31
0.0
  0
LINE
  5
33A
  8
ﾚｲﾔ_1
 62
     5
 10
1024.1617187500001
 20
-414.81528303599993
 30
0.0
 11
1025.3228319171999
 21
-416.82639003489999
 31
0.0
  0
LINE
  5
33B
  8
ﾚｲﾔ_1
 62
     5
 10
1021.96171875
 20
-389.81528303559998
 30
0.0
 11
1021.96171875
 21
-388.31528303599998
 31
0.0
  0
LINE
  5
33C
  8
ﾚｲﾔ_1
 62
     5
 10
1021.96171875
 20
-388.31528303599998
 30
0.0
 11
1020.96171875
 21
-388.31528303599998
 31
0.0
  0
LINE
  5
33D
  8
ﾚｲﾔ_1
 62
     5
 10
1020.96171875
 20
-388.31528303599998
 30
0.0
 11
1020.96171875
 21
-387.31528303769988
 31
0.0
  0
LINE
  5
33E
  8
ﾚｲﾔ_1
 62
     5
 10
1022.16171875
 20
-416.31126622049999
 30
0.0
 11
1022.16171875
 21
-418.31528303610003
 31
0.0
  0
LINE
  5
33F
  8
ﾚｲﾔ_1
 62
     5
 10
1021.96171875
 20
-413.81528303629989
 30
0.0
 11
1021.96171875
 21
-415.31528303599993
 31
0.0
  0
LINE
  5
340
  8
ﾚｲﾔ_1
 62
     5
 10
1021.96171875
 20
-415.31528303599993
 30
0.0
 11
1020.96171875
 21
-415.31528303599993
 31
0.0
  0
LINE
  5
341
  8
ﾚｲﾔ_1
 62
     5
 10
1020.96171875
 20
-415.31528303599993
 30
0.0
 11
1020.96171875
 21
-416.31528303429991
 31
0.0
  0
LINE
  5
342
  8
ﾚｲﾔ_1
 62
     5
 10
1024.1617187500001
 20
-386.80417603709998
 30
0.0
 11
1024.1617187500001
 21
-390.81528303599998
 31
0.0
  0
LINE
  5
343
  8
ﾚｲﾔ_1
 62
     5
 10
1026.46171875
 20
-386.80417603709998
 30
0.0
 11
1024.1617187500001
 21
-386.80417603709998
 31
0.0
  0
LINE
  5
344
  8
ﾚｲﾔ_1
 62
     5
 10
1024.1617187500001
 20
-390.81528303599998
 30
0.0
 11
1020.96171875
 21
-390.81528303599998
 31
0.0
  0
LINE
  5
345
  8
ﾚｲﾔ_1
 62
     5
 10
1026.46171875
 20
-385.31528303589988
 30
0.0
 11
1026.46171875
 21
-386.80417603709998
 31
0.0
  0
LINE
  5
346
  8
ﾚｲﾔ_1
 62
     5
 10
1020.96171875
 20
-390.81528303599998
 30
0.0
 11
1020.96171875
 21
-389.81528303559998
 31
0.0
  0
LINE
  5
347
  8
ﾚｲﾔ_1
 62
     5
 10
1022.16171875
 20
-385.31528303589988
 30
0.0
 11
1026.46171875
 21
-385.31528303589988
 31
0.0
  0
LINE
  5
348
  8
ﾚｲﾔ_1
 62
     5
 10
1022.16171875
 20
-387.31929985149998
 30
0.0
 11
1022.16171875
 21
-385.31528303589988
 31
0.0
  0
LINE
  5
349
  8
ﾚｲﾔ_1
 62
     5
 10
1024.1617187500001
 20
-416.82639003489999
 30
0.0
 11
1024.1617187500001
 21
-412.81528303599993
 31
0.0
  0
LINE
  5
34A
  8
ﾚｲﾔ_1
 62
     5
 10
1026.46171875
 20
-416.82639003489999
 30
0.0
 11
1024.1617187500001
 21
-416.82639003489999
 31
0.0
  0
LINE
  5
34B
  8
ﾚｲﾔ_1
 62
     5
 10
1021.16171875
 20
-389.81528303559998
 30
0.0
 11
1021.16171875
 21
-388.31528303599998
 31
0.0
  0
LINE
  5
34C
  8
ﾚｲﾔ_1
 62
     5
 10
1021.16171875
 20
-389.81528303559998
 30
0.0
 11
1021.16171875
 21
-388.31528303599998
 31
0.0
  0
LINE
  5
34D
  8
ﾚｲﾔ_1
 62
     5
 10
1021.16171875
 20
-387.31929985149998
 30
0.0
 11
1021.16171875
 21
-386.81528303599998
 31
0.0
  0
LINE
  5
34E
  8
ﾚｲﾔ_1
 62
     5
 10
1021.16171875
 20
-387.31929985149998
 30
0.0
 11
1021.16171875
 21
-386.81528303599998
 31
0.0
  0
LINE
  5
34F
  8
ﾚｲﾔ_1
  6
BORDER
 62
     3
 10
1019.16171875
 20
-401.81528303599998
 30
0.0
 11
1046.1617187500001
 21
-401.81528303599998
 31
0.0
  0
LINE
  5
350
  8
ﾚｲﾔ_1
 10
1007.8280872255
 20
-348.57477913000002
 30
0.0
 11
1069.6129878474001
 21
-348.57477913000002
 31
0.0
  0
LINE
  5
351
  8
ﾚｲﾔ_1
 10
1069.6129878474001
 20
-424.2482294651
 30
0.0
 11
1007.8280872255
 21
-424.2482294651
 31
0.0
  0
LINE
  5
352
  8
ﾚｲﾔ_1
 62
     5
 10
1024.53421875
 20
-412.292783036
 30
0.0
 11
1039.1617187500001
 21
-412.292783036
 31
0.0
  0
LINE
  5
353
  8
ﾚｲﾔ_1
 62
     5
 10
1024.53421875
 20
-391.33778303599991
 30
0.0
 11
1039.1617187500001
 21
-391.33778303599991
 31
0.0
  0
LINE
  5
354
  8
ﾚｲﾔ_1
 10
1007.8280872255
 20
-424.2482294651
 30
0.0
 11
1007.8280872255
 21
-348.57477913000002
 31
0.0
  0
LINE
  5
355
  8
ﾚｲﾔ_1
 62
     5
 10
1022.16171875
 20
-386.81528303599998
 30
0.0
 11
1022.16171875
 21
-385.81528303599998
 31
0.0
  0
LINE
  5
356
  8
ﾚｲﾔ_1
 62
     5
 10
1022.16171875
 20
-417.81528303599998
 30
0.0
 11
1022.16171875
 21
-416.81528303599993
 31
0.0
  0
LINE
  5
357
  8
ﾚｲﾔ_1
 62
     5
 10
1021.16171875
 20
-386.81528303599998
 30
0.0
 11
1022.16171875
 21
-386.81528303599998
 31
0.0
  0
LINE
  5
358
  8
ﾚｲﾔ_1
 62
     5
 10
1021.16171875
 20
-416.81528303599993
 30
0.0
 11
1022.16171875
 21
-416.81528303599993
 31
0.0
  0
LINE
  5
359
  8
ﾚｲﾔ_1
 62
     5
 10
1022.16171875
 20
-386.81528303599998
 30
0.0
 11
1022.16171875
 21
-385.81528303599998
 31
0.0
  0
LINE
  5
35A
  8
ﾚｲﾔ_1
 62
     5
 10
1022.16171875
 20
-417.81528303599998
 30
0.0
 11
1022.16171875
 21
-416.81528303599993
 31
0.0
  0
LINE
  5
35B
  8
ﾚｲﾔ_1
 62
     5
 10
1025.6962187500001
 20
-411.13078303599991
 30
0.0
 11
1025.6962187500001
 21
-392.499783036
 31
0.0
  0
LINE
  5
35C
  8
ﾚｲﾔ_1
 62
     5
 10
1024.1617187500001
 20
-388.81528303599998
 30
0.0
 11
1024.1617187500001
 21
-401.81528303599998
 31
0.0
  0
LINE
  5
35D
  8
ﾚｲﾔ_1
 62
     5
 10
1024.1617187500001
 20
-414.81528303599993
 30
0.0
 11
1024.1617187500001
 21
-401.81528303599998
 31
0.0
  0
LINE
  5
35E
  8
ﾚｲﾔ_1
 62
     5
 10
1024.1617187500001
 20
-390.96528303600002
 30
0.0
 11
1025.6962187500001
 21
-392.499783036
 31
0.0
  0
LINE
  5
35F
  8
ﾚｲﾔ_1
 62
     5
 10
1022.16171875
 20
-418.31528303610003
 30
0.0
 11
1026.46171875
 21
-418.31528303610003
 31
0.0
  0
LINE
  5
360
  8
ﾚｲﾔ_1
 62
     5
 10
1020.96171875
 20
-412.81528303599993
 30
0.0
 11
1020.96171875
 21
-413.81528303629989
 31
0.0
  0
LINE
  5
361
  8
ﾚｲﾔ_1
 62
     5
 10
1020.96171875
 20
-413.81528303629989
 30
-3.2999999999999989
 11
1021.96171875
 21
-413.81528303629989
 31
-3.2999999999999989
  0
LINE
  5
362
  8
ﾚｲﾔ_1
 62
     5
 10
1020.96171875
 20
-416.31126622049999
 30
-3.2999999999999989
 11
1022.16171875
 21
-416.31126622049999
 31
-3.2999999999999989
  0
LINE
  5
363
  8
ﾚｲﾔ_1
 62
     5
 10
1020.96171875
 20
-389.81528303559998
 30
-3.2999999999999989
 11
1021.96171875
 21
-389.81528303559998
 31
-3.2999999999999989
  0
POLYLINE
  8
図枠
  5
77B
  66
     1
 10
0.000000
 20
0.000000
 30
0.000000
  70
     8
  0
VERTEX
  8
図枠
  5
77C
 10
958.836
 20
-710.493
 30
0.000000
  70
    32
  0
VERTEX
  8
図枠
  5
77D
 10
958.880
 20
-710.505
 30
0.000000
  70
    32
  0
VERTEX
  8
図枠
  5
77E
 10
958.924
 20
-710.517
 30
0.000000
  70
    32
  0
VERTEX
  8
図枠
  5
77F
 10
958.968
 20
-710.529
 30
0.000000
  70
    32
  0
VERTEX
  8
図枠
  5
780
 10
959.012
 20
-710.542
 30
0.000000
  70
    32
  0
VERTEX
  8
図枠
  5
781
 10
959.055
 20
-710.554
 30
0.000000
  70
    32
  0
VERTEX
  8
図枠
  5
782
 10
959.099
 20
-710.566
 30
0.000000
  70
    32
  0
VERTEX
  8
図枠
  5
783
 10
959.143
 20
-710.578
 30
0.000000
  70
    32
  0
VERTEX
  8
図枠
  5
784
 10
959.187
 20
-710.590
 30
0.000000
  70
    32
  0
VERTEX
  8
図枠
  5
785
 10
959.231
 20
-710.602
 30
0.000000
  70
    32
  0
VERTEX
  8
図枠
  5
786
 10
959.276
 20
-710.613
 30
0.000000
  70
    32
  0
VERTEX
  8
図枠
  5
787
 10
959.320
 20
-710.625
 30
0.000000
  70
    32
  0
VERTEX
  8
図枠
  5
788
 10
959.364
 20
-710.637
 30
0.000000
  70
    32
  0
VERTEX
  8
図枠
  5
789
 10
959.408
 20
-710.648
 30
0.000000
  70
    32
  0
VERTEX
  8
図枠
  5
78A
 10
959.452
 20
-710.660
 30
0.000000
  70
    32
  0
VERTEX
  8
図枠
  5
78B
 10
959.497
 20
-710.671
 30
0.000000
  70
    32
  0
VERTEX
  8
図枠
  5
78C
 10
959.541
 20
-710.683
 30
0.000000
  70
    32
  0
VERTEX
  8
図枠
  5
78D
 10
959.585
 20
-710.694
 30
0.000000
  70
    32
  0
VERTEX
  8
図枠
  5
78E
 10
959.630
 20
-710.705
 30
0.000000
  70
    32
  0
VERTEX
  8
図枠
  5
78F
 10
959.674
 20
-710.716
 30
0.000000
  70
    32
  0
VERTEX
  8
図枠
  5
790
 10
959.719
 20
-710.727
 30
0.000000
  70
    32
  0
VERTEX
  8
図枠
  5
791
 10
959.763
 20
-710.738
 30
0.000000
  70
    32
  0
VERTEX
  8
図枠
  5
792
 10
959.808
 20
-710.749
 30
0.000000
  70
    32
  0
VERTEX
  8
図枠
  5
793
 10
959.852
 20
-710.760
 30
0.000000
  70
    32
  0
VERTEX
  8
図枠
  5
794
 10
959.897
 20
-710.771
 30
0.000000
  70
    32
  0
VERTEX
  8
図枠
  5
795
 10
959.942
 20
-710.782
 30
0.000000
  70
    32
  0
VERTEX
  8
図枠
  5
796
 10
959.986
 20
-710.793
 30
0.000000
  70
    32
  0
VERTEX
  8
図枠
  5
797
 10
960.031
 20
-710.804
 30
0.000000
  70
    32
  0
VERTEX
  8
図枠
  5
798
 10
960.076
 20
-710.814
 30
0.000000
  70
    32
  0
VERTEX
  8
図枠
  5
799
 10
960.121
 20
-710.825
 30
0.000000
  70
    32
  0
VERTEX
  8
図枠
  5
79A
 10
960.166
 20
-710.835
 30
0.000000
  70
    32
  0
VERTEX
  8
図枠
  5
79B
 10
960.210
 20
-710.846
 30
0.000000
  70
    32
  0
VERTEX
  8
図枠
  5
79C
 10
960.255
 20
-710.856
 30
0.000000
  70
    32
  0
VERTEX
  8
図枠
  5
79D
 10
960.300
 20
-710.867
 30
0.000000
  70
    32
  0
VERTEX
  8
図枠
  5
79E
 10
960.345
 20
-710.877
 30
0.000000
  70
    32
  0
VERTEX
  8
図枠
  5
79F
 10
960.390
 20
-710.887
 30
0.000000
  70
    32
  0
VERTEX
  8
図枠
  5
7A0
 10
960.435
 20
-710.898
 30
0.000000
  70
    32
  0
VERTEX
  8
図枠
  5
7A1
 10
960.481
 20
-710.908
 30
0.000000
  70
    32
  0
VERTEX
  8
図枠
  5
7A2
 10
960.526
 20
-710.918
 30
0.000000
  70
    32
  0
VERTEX
  8
図枠
  5
7A3
 10
960.571
 20
-710.928
 30
0.000000
  70
    32
  0
VERTEX
  8
図枠
  5
7A4
 10
960.616
 20
-710.938
 30
0.000000
  70
    32
  0
VERTEX
  8
図枠
  5
7A5
 10
960.661
 20
-710.948
 30
0.000000
  70
    32
  0
VERTEX
  8
図枠
  5
7A6
 10
960.706
 20
-710.958
 30
0.000000
  70
    32
  0
VERTEX
  8
図枠
  5
7A7
 10
960.752
 20
-710.968
 30
0.000000
  70
    32
  0
VERTEX
  8
図枠
  5
7A8
 10
960.797
 20
-710.978
 30
0.000000
  70
    32
  0
VERTEX
  8
図枠
  5
7A9
 10
960.842
 20
-710.987
 30
0.000000
  70
    32
  0
VERTEX
  8
図枠
  5
7AA
 10
960.888
 20
-710.997
 30
0.000000
  70
    32
  0
VERTEX
  8
図枠
  5
7AB
 10
960.933
 20
-711.007
 30
0.000000
  70
    32
  0
VERTEX
  8
図枠
  5
7AC
 10
960.978
 20
-711.016
 30
0.000000
  70
    32
  0
VERTEX
  8
図枠
  5
7AD
 10
961.024
 20
-711.026
 30
0.000000
  70
    32
  0
VERTEX
  8
図枠
  5
7AE
 10
961.069
 20
-711.036
 30
0.000000
  70
    32
  0
VERTEX
  8
図枠
  5
7AF
 10
961.115
 20
-711.045
 30
0.000000
  70
    32
  0
VERTEX
  8
図枠
  5
7B0
 10
961.160
 20
-711.055
 30
0.000000
  70
    32
  0
VERTEX
  8
図枠
  5
7B1
 10
961.206
 20
-711.064
 30
0.000000
  70
    32
  0
VERTEX
  8
図枠
  5
7B2
 10
961.251
 20
-711.073
 30
0.000000
  70
    32
  0
VERTEX
  8
図枠
  5
7B3
 10
961.297
 20
-711.083
 30
0.000000
  70
    32
  0
VERTEX
  8
図枠
  5
7B4
 10
961.343
 20
-711.092
 30
0.000000
  70
    32
  0
VERTEX
  8
図枠
  5
7B5
 10
961.388
 20
-711.101
 30
0.000000
  70
    32
  0
VERTEX
  8
図枠
  5
7B6
 10
961.434
 20
-711.111
 30
0.000000
  70
    32
  0
VERTEX
  8
図枠
  5
7B7
 10
961.480
 20
-711.120
 30
0.000000
  70
    32
  0
VERTEX
  8
図枠
  5
7B8
 10
961.525
 20
-711.129
 30
0.000000
  70
    32
  0
VERTEX
  8
図枠
  5
7B9
 10
961.571
 20
-711.138
 30
0.000000
  70
    32
  0
VERTEX
  8
図枠
  5
7BA
 10
961.617
 20
-711.147
 30
0.000000
  70
    32
  0
VERTEX
  8
図枠
  5
7BB
 10
961.663
 20
-711.156
 30
0.000000
  70
    32
  0
VERTEX
  8
図枠
  5
7BC
 10
961.709
 20
-711.165
 30
0.000000
  70
    32
  0
VERTEX
  8
図枠
  5
7BD
 10
961.754
 20
-711.174
 30
0.000000
  70
    32
  0
VERTEX
  8
図枠
  5
7BE
 10
961.800
 20
-711.183
 30
0.000000
  70
    32
  0
VERTEX
  8
図枠
  5
7BF
 10
961.846
 20
-711.192
 30
0.000000
  70
    32
  0
VERTEX
  8
図枠
  5
7C0
 10
961.892
 20
-711.201
 30
0.000000
  70
    32
  0
VERTEX
  8
図枠
  5
7C1
 10
961.938
 20
-711.210
 30
0.000000
  70
    32
  0
VERTEX
  8
図枠
  5
7C2
 10
961.984
 20
-711.218
 30
0.000000
  70
    32
  0
VERTEX
  8
図枠
  5
7C3
 10
962.030
 20
-711.227
 30
0.000000
  70
    32
  0
VERTEX
  8
図枠
  5
7C4
 10
962.076
 20
-711.236
 30
0.000000
  70
    32
  0
VERTEX
  8
図枠
  5
7C5
 10
962.122
 20
-711.245
 30
0.000000
  70
    32
  0
VERTEX
  8
図枠
  5
7C6
 10
962.168
 20
-711.253
 30
0.000000
  70
    32
  0
VERTEX
  8
図枠
  5
7C7
 10
962.214
 20
-711.262
 30
0.000000
  70
    32
  0
VERTEX
  8
図枠
  5
7C8
 10
962.260
 20
-711.271
 30
0.000000
  70
    32
  0
VERTEX
  8
図枠
  5
7C9
 10
962.306
 20
-711.279
 30
0.000000
  70
    32
  0
VERTEX
  8
図枠
  5
7CA
 10
962.352
 20
-711.288
 30
0.000000
  70
    32
  0
VERTEX
  8
図枠
  5
7CB
 10
962.398
 20
-711.296
 30
0.000000
  70
    32
  0
VERTEX
  8
図枠
  5
7CC
 10
962.444
 20
-711.305
 30
0.000000
  70
    32
  0
VERTEX
  8
図枠
  5
7CD
 10
962.491
 20
-711.313
 30
0.000000
  70
    32
  0
VERTEX
  8
図枠
  5
7CE
 10
962.537
 20
-711.322
 30
0.000000
  70
    32
  0
VERTEX
  8
図枠
  5
7CF
 10
962.583
 20
-711.330
 30
0.000000
  70
    32
  0
VERTEX
  8
図枠
  5
7D0
 10
962.629
 20
-711.338
 30
0.000000
  70
    32
  0
VERTEX
  8
図枠
  5
7D1
 10
962.675
 20
-711.347
 30
0.000000
  70
    32
  0
VERTEX
  8
図枠
  5
7D2
 10
962.721
 20
-711.355
 30
0.000000
  70
    32
  0
VERTEX
  8
図枠
  5
7D3
 10
962.768
 20
-711.363
 30
0.000000
  70
    32
  0
VERTEX
  8
図枠
  5
7D4
 10
962.814
 20
-711.372
 30
0.000000
  70
    32
  0
VERTEX
  8
図枠
  5
7D5
 10
962.860
 20
-711.380
 30
0.000000
  70
    32
  0
VERTEX
  8
図枠
  5
7D6
 10
962.907
 20
-711.388
 30
0.000000
  70
    32
  0
VERTEX
  8
図枠
  5
7D7
 10
962.953
 20
-711.396
 30
0.000000
  70
    32
  0
VERTEX
  8
図枠
  5
7D8
 10
962.999
 20
-711.405
 30
0.000000
  70
    32
  0
VERTEX
  8
図枠
  5
7D9
 10
963.045
 20
-711.413
 30
0.000000
  70
    32
  0
VERTEX
  8
図枠
  5
7DA
 10
963.092
 20
-711.421
 30
0.000000
  70
    32
  0
VERTEX
  8
図枠
  5
7DB
 10
963.138
 20
-711.429
 30
0.000000
  70
    32
  0
VERTEX
  8
図枠
  5
7DC
 10
963.184
 20
-711.437
 30
0.000000
  70
    32
  0
VERTEX
  8
図枠
  5
7DD
 10
963.231
 20
-711.445
 30
0.000000
  70
    32
  0
VERTEX
  8
図枠
  5
7DE
 10
963.277
 20
-711.454
 30
0.000000
  70
    32
  0
VERTEX
  8
図枠
  5
7DF
 10
963.324
 20
-711.462
 30
0.000000
  70
    32
  0
VERTEX
  8
図枠
  5
7E0
 10
963.370
 20
-711.470
 30
0.000000
  70
    32
  0
VERTEX
  8
図枠
  5
7E1
 10
963.416
 20
-711.478
 30
0.000000
  70
    32
  0
VERTEX
  8
図枠
  5
7E2
 10
963.463
 20
-711.486
 30
0.000000
  70
    32
  0
VERTEX
  8
図枠
  5
7E3
 10
963.509
 20
-711.494
 30
0.000000
  70
    32
  0
VERTEX
  8
図枠
  5
7E4
 10
963.556
 20
-711.502
 30
0.000000
  70
    32
  0
VERTEX
  8
図枠
  5
7E5
 10
963.602
 20
-711.510
 30
0.000000
  70
    32
  0
VERTEX
  8
図枠
  5
7E6
 10
963.648
 20
-711.518
 30
0.000000
  70
    32
  0
VERTEX
  8
図枠
  5
7E7
 10
963.695
 20
-711.526
 30
0.000000
  70
    32
  0
VERTEX
  8
図枠
  5
7E8
 10
963.741
 20
-711.534
 30
0.000000
  70
    32
  0
VERTEX
  8
図枠
  5
7E9
 10
963.788
 20
-711.542
 30
0.000000
  70
    32
  0
VERTEX
  8
図枠
  5
7EA
 10
963.834
 20
-711.550
 30
0.000000
  70
    32
  0
VERTEX
  8
図枠
  5
7EB
 10
963.881
 20
-711.558
 30
0.000000
  70
    32
  0
VERTEX
  8
図枠
  5
7EC
 10
963.927
 20
-711.566
 30
0.000000
  70
    32
  0
VERTEX
  8
図枠
  5
7ED
 10
963.974
 20
-711.574
 30
0.000000
  70
    32
  0
VERTEX
  8
図枠
  5
7EE
 10
964.020
 20
-711.581
 30
0.000000
  70
    32
  0
VERTEX
  8
図枠
  5
7EF
 10
964.067
 20
-711.589
 30
0.000000
  70
    32
  0
VERTEX
  8
図枠
  5
7F0
 10
964.113
 20
-711.597
 30
0.000000
  70
    32
  0
VERTEX
  8
図枠
  5
7F1
 10
964.160
 20
-711.605
 30
0.000000
  70
    32
  0
VERTEX
  8
図枠
  5
7F2
 10
964.206
 20
-711.613
 30
0.000000
  70
    32
  0
VERTEX
  8
図枠
  5
7F3
 10
964.253
 20
-711.621
 30
0.000000
  70
    32
  0
VERTEX
  8
図枠
  5
7F4
 10
964.299
 20
-711.629
 30
0.000000
  70
    32
  0
VERTEX
  8
図枠
  5
7F5
 10
964.346
 20
-711.637
 30
0.000000
  70
    32
  0
VERTEX
  8
図枠
  5
7F6
 10
964.392
 20
-711.644
 30
0.000000
  70
    32
  0
VERTEX
  8
図枠
  5
7F7
 10
964.439
 20
-711.652
 30
0.000000
  70
    32
  0
VERTEX
  8
図枠
  5
7F8
 10
964.485
 20
-711.660
 30
0.000000
  70
    32
  0
VERTEX
  8
図枠
  5
7F9
 10
964.532
 20
-711.668
 30
0.000000
  70
    32
  0
VERTEX
  8
図枠
  5
7FA
 10
964.578
 20
-711.676
 30
0.000000
  70
    32
  0
VERTEX
  8
図枠
  5
7FB
 10
964.625
 20
-711.684
 30
0.000000
  70
    32
  0
SEQEND
  8
図枠
  5
7FC
  0
POLYLINE
  8
図枠
  5
7FD
  66
     1
 10
0.000000
 20
0.000000
 30
0.000000
  70
     8
  0
VERTEX
  8
図枠
  5
7FE
 10
950.711
 20
-705.153
 30
0.000000
  70
    32
  0
VERTEX
  8
図枠
  5
7FF
 10
950.727
 20
-705.172
 30
0.000000
  70
    32
  0
VERTEX
  8
図枠
  5
800
 10
950.744
 20
-705.190
 30
0.000000
  70
    32
  0
VERTEX
  8
図枠
  5
801
 10
950.760
 20
-705.208
 30
0.000000
  70
    32
  0
VERTEX
  8
図枠
  5
802
 10
950.777
 20
-705.227
 30
0.000000
  70
    32
  0
VERTEX
  8
図枠
  5
803
 10
950.793
 20
-705.245
 30
0.000000
  70
    32
  0
VERTEX
  8
図枠
  5
804
 10
950.810
 20
-705.264
 30
0.000000
  70
    32
  0
VERTEX
  8
図枠
  5
805
 10
950.826
 20
-705.282
 30
0.000000
  70
    32
  0
VERTEX
  8
図枠
  5
806
 10
950.843
 20
-705.300
 30
0.000000
  70
    32
  0
VERTEX
  8
図枠
  5
807
 10
950.859
 20
-705.319
 30
0.000000
  70
    32
  0
VERTEX
  8
図枠
  5
808
 10
950.876
 20
-705.337
 30
0.000000
  70
    32
  0
VERTEX
  8
図枠
  5
809
 10
950.892
 20
-705.356
 30
0.000000
  70
    32
  0
VERTEX
  8
図枠
  5
80A
 10
950.909
 20
-705.374
 30
0.000000
  70
    32
  0
VERTEX
  8
図枠
  5
80B
 10
950.925
 20
-705.392
 30
0.000000
  70
    32
  0
VERTEX
  8
図枠
  5
80C
 10
950.942
 20
-705.411
 30
0.000000
  70
    32
  0
VERTEX
  8
図枠
  5
80D
 10
950.958
 20
-705.429
 30
0.000000
  70
    32
  0
VERTEX
  8
図枠
  5
80E
 10
950.975
 20
-705.447
 30
0.000000
  70
    32
  0
VERTEX
  8
図枠
  5
80F
 10
950.991
 20
-705.466
 30
0.000000
  70
    32
  0
VERTEX
  8
図枠
  5
810
 10
951.008
 20
-705.484
 30
0.000000
  70
    32
  0
VERTEX
  8
図枠
  5
811
 10
951.024
 20
-705.502
 30
0.000000
  70
    32
  0
VERTEX
  8
図枠
  5
812
 10
951.041
 20
-705.521
 30
0.000000
  70
    32
  0
VERTEX
  8
図枠
  5
813
 10
951.057
 20
-705.539
 30
0.000000
  70
    32
  0
VERTEX
  8
図枠
  5
814
 10
951.074
 20
-705.557
 30
0.000000
  70
    32
  0
VERTEX
  8
図枠
  5
815
 10
951.091
 20
-705.576
 30
0.000000
  70
    32
  0
VERTEX
  8
図枠
  5
816
 10
951.107
 20
-705.594
 30
0.000000
  70
    32
  0
VERTEX
  8
図枠
  5
817
 10
951.124
 20
-705.612
 30
0.000000
  70
    32
  0
VERTEX
  8
図枠
  5
818
 10
951.140
 20
-705.631
 30
0.000000
  70
    32
  0
VERTEX
  8
図枠
  5
819
 10
951.157
 20
-705.649
 30
0.000000
  70
    32
  0
VERTEX
  8
図枠
  5
81A
 10
951.173
 20
-705.667
 30
0.000000
  70
    32
  0
VERTEX
  8
図枠
  5
81B
 10
951.190
 20
-705.686
 30
0.000000
  70
    32
  0
VERTEX
  8
図枠
  5
81C
 10
951.206
 20
-705.704
 30
0.000000
  70
    32
  0
VERTEX
  8
図枠
  5
81D
 10
951.223
 20
-705.722
 30
0.000000
  70
    32
  0
VERTEX
  8
図枠
  5
81E
 10
951.240
 20
-705.740
 30
0.000000
  70
    32
  0
VERTEX
  8
図枠
  5
81F
 10
951.256
 20
-705.759
 30
0.000000
  70
    32
  0
VERTEX
  8
図枠
  5
820
 10
951.273
 20
-705.777
 30
0.000000
  70
    32
  0
VERTEX
  8
図枠
  5
821
 10
951.289
 20
-705.795
 30
0.000000
  70
    32
  0
VERTEX
  8
図枠
  5
822
 10
951.306
 20
-705.813
 30
0.000000
  70
    32
  0
VERTEX
  8
図枠
  5
823
 10
951.323
 20
-705.832
 30
0.000000
  70
    32
  0
VERTEX
  8
図枠
  5
824
 10
951.339
 20
-705.850
 30
0.000000
  70
    32
  0
VERTEX
  8
図枠
  5
825
 10
951.356
 20
-705.868
 30
0.000000
  70
    32
  0
VERTEX
  8
図枠
  5
826
 10
951.372
 20
-705.886
 30
0.000000
  70
    32
  0
VERTEX
  8
図枠
  5
827
 10
951.389
 20
-705.904
 30
0.000000
  70
    32
  0
VERTEX
  8
図枠
  5
828
 10
951.406
 20
-705.922
 30
0.000000
  70
    32
  0
VERTEX
  8
図枠
  5
829
 10
951.422
 20
-705.941
 30
0.000000
  70
    32
  0
VERTEX
  8
図枠
  5
82A
 10
951.439
 20
-705.959
 30
0.000000
  70
    32
  0
VERTEX
  8
図枠
  5
82B
 10
951.456
 20
-705.977
 30
0.000000
  70
    32
  0
VERTEX
  8
図枠
  5
82C
 10
951.472
 20
-705.995
 30
0.000000
  70
    32
  0
VERTEX
  8
図枠
  5
82D
 10
951.489
 20
-706.013
 30
0.000000
  70
    32
  0
VERTEX
  8
図枠
  5
82E
 10
951.506
 20
-706.031
 30
0.000000
  70
    32
  0
VERTEX
  8
図枠
  5
82F
 10
951.522
 20
-706.049
 30
0.000000
  70
    32
  0
VERTEX
  8
図枠
  5
830
 10
951.539
 20
-706.067
 30
0.000000
  70
    32
  0
VERTEX
  8
図枠
  5
831
 10
951.556
 20
-706.085
 30
0.000000
  70
    32
  0
VERTEX
  8
図枠
  5
832
 10
951.573
 20
-706.103
 30
0.000000
  70
    32
  0
VERTEX
  8
図枠
  5
833
 10
951.589
 20
-706.121
 30
0.000000
  70
    32
  0
VERTEX
  8
図枠
  5
834
 10
951.606
 20
-706.139
 30
0.000000
  70
    32
  0
VERTEX
  8
図枠
  5
835
 10
951.623
 20
-706.157
 30
0.000000
  70
    32
  0
VERTEX
  8
図枠
  5
836
 10
951.640
 20
-706.175
 30
0.000000
  70
    32
  0
VERTEX
  8
図枠
  5
837
 10
951.656
 20
-706.193
 30
0.000000
  70
    32
  0
VERTEX
  8
図枠
  5
838
 10
951.673
 20
-706.211
 30
0.000000
  70
    32
  0
VERTEX
  8
図枠
  5
839
 10
951.690
 20
-706.229
 30
0.000000
  70
    32
  0
VERTEX
  8
図枠
  5
83A
 10
951.707
 20
-706.247
 30
0.000000
  70
    32
  0
VERTEX
  8
図枠
  5
83B
 10
951.724
 20
-706.265
 30
0.000000
  70
    32
  0
VERTEX
  8
図枠
  5
83C
 10
951.740
 20
-706.283
 30
0.000000
  70
    32
  0
VERTEX
  8
図枠
  5
83D
 10
951.757
 20
-706.301
 30
0.000000
  70
    32
  0
VERTEX
  8
図枠
  5
83E
 10
951.774
 20
-706.319
 30
0.000000
  70
    32
  0
VERTEX
  8
図枠
  5
83F
 10
951.791
 20
-706.336
 30
0.000000
  70
    32
  0
VERTEX
  8
図枠
  5
840
 10
951.808
 20
-706.354
 30
0.000000
  70
    32
  0
VERTEX
  8
図枠
  5
841
 10
951.825
 20
-706.372
 30
0.000000
  70
    32
  0
VERTEX
  8
図枠
  5
842
 10
951.842
 20
-706.390
 30
0.000000
  70
    32
  0
VERTEX
  8
図枠
  5
843
 10
951.858
 20
-706.408
 30
0.000000
  70
    32
  0
VERTEX
  8
図枠
  5
844
 10
951.875
 20
-706.425
 30
0.000000
  70
    32
  0
VERTEX
  8
図枠
  5
845
 10
951.892
 20
-706.443
 30
0.000000
  70
    32
  0
VERTEX
  8
図枠
  5
846
 10
951.909
 20
-706.461
 30
0.000000
  70
    32
  0
VERTEX
  8
図枠
  5
847
 10
951.926
 20
-706.478
 30
0.000000
  70
    32
  0
VERTEX
  8
図枠
  5
848
 10
951.943
 20
-706.496
 30
0.000000
  70
    32
  0
VERTEX
  8
図枠
  5
849
 10
951.960
 20
-706.514
 30
0.000000
  70
    32
  0
VERTEX
  8
図枠
  5
84A
 10
951.977
 20
-706.531
 30
0.000000
  70
    32
  0
VERTEX
  8
図枠
  5
84B
 10
951.994
 20
-706.549
 30
0.000000
  70
    32
  0
VERTEX
  8
図枠
  5
84C
 10
952.011
 20
-706.566
 30
0.000000
  70
    32
  0
VERTEX
  8
図枠
  5
84D
 10
952.028
 20
-706.584
 30
0.000000
  70
    32
  0
VERTEX
  8
図枠
  5
84E
 10
952.045
 20
-706.601
 30
0.000000
  70
    32
  0
VERTEX
  8
図枠
  5
84F
 10
952.062
 20
-706.619
 30
0.000000
  70
    32
  0
VERTEX
  8
図枠
  5
850
 10
952.079
 20
-706.636
 30
0.000000
  70
    32
  0
VERTEX
  8
図枠
  5
851
 10
952.096
 20
-706.654
 30
0.000000
  70
    32
  0
VERTEX
  8
図枠
  5
852
 10
952.113
 20
-706.671
 30
0.000000
  70
    32
  0
VERTEX
  8
図枠
  5
853
 10
952.131
 20
-706.689
 30
0.000000
  70
    32
  0
VERTEX
  8
図枠
  5
854
 10
952.148
 20
-706.706
 30
0.000000
  70
    32
  0
VERTEX
  8
図枠
  5
855
 10
952.165
 20
-706.724
 30
0.000000
  70
    32
  0
VERTEX
  8
図枠
  5
856
 10
952.182
 20
-706.741
 30
0.000000
  70
    32
  0
VERTEX
  8
図枠
  5
857
 10
952.199
 20
-706.758
 30
0.000000
  70
    32
  0
VERTEX
  8
図枠
  5
858
 10
952.216
 20
-706.776
 30
0.000000
  70
    32
  0
VERTEX
  8
図枠
  5
859
 10
952.233
 20
-706.793
 30
0.000000
  70
    32
  0
VERTEX
  8
図枠
  5
85A
 10
952.251
 20
-706.810
 30
0.000000
  70
    32
  0
VERTEX
  8
図枠
  5
85B
 10
952.268
 20
-706.827
 30
0.000000
  70
    32
  0
VERTEX
  8
図枠
  5
85C
 10
952.285
 20
-706.844
 30
0.000000
  70
    32
  0
VERTEX
  8
図枠
  5
85D
 10
952.302
 20
-706.862
 30
0.000000
  70
    32
  0
VERTEX
  8
図枠
  5
85E
 10
952.320
 20
-706.879
 30
0.000000
  70
    32
  0
VERTEX
  8
図枠
  5
85F
 10
952.337
 20
-706.896
 30
0.000000
  70
    32
  0
VERTEX
  8
図枠
  5
860
 10
952.354
 20
-706.913
 30
0.000000
  70
    32
  0
VERTEX
  8
図枠
  5
861
 10
952.372
 20
-706.930
 30
0.000000
  70
    32
  0
VERTEX
  8
図枠
  5
862
 10
952.389
 20
-706.947
 30
0.000000
  70
    32
  0
VERTEX
  8
図枠
  5
863
 10
952.406
 20
-706.964
 30
0.000000
  70
    32
  0
VERTEX
  8
図枠
  5
864
 10
952.424
 20
-706.981
 30
0.000000
  70
    32
  0
VERTEX
  8
図枠
  5
865
 10
952.441
 20
-706.998
 30
0.000000
  70
    32
  0
VERTEX
  8
図枠
  5
866
 10
952.459
 20
-707.015
 30
0.000000
  70
    32
  0
VERTEX
  8
図枠
  5
867
 10
952.476
 20
-707.032
 30
0.000000
  70
    32
  0
VERTEX
  8
図枠
  5
868
 10
952.493
 20
-707.049
 30
0.000000
  70
    32
  0
VERTEX
  8
図枠
  5
869
 10
952.511
 20
-707.066
 30
0.000000
  70
    32
  0
VERTEX
  8
図枠
  5
86A
 10
952.528
 20
-707.082
 30
0.000000
  70
    32
  0
VERTEX
  8
図枠
  5
86B
 10
952.546
 20
-707.099
 30
0.000000
  70
    32
  0
VERTEX
  8
図枠
  5
86C
 10
952.563
 20
-707.116
 30
0.000000
  70
    32
  0
VERTEX
  8
図枠
  5
86D
 10
952.581
 20
-707.133
 30
0.000000
  70
    32
  0
VERTEX
  8
図枠
  5
86E
 10
952.598
 20
-707.149
 30
0.000000
  70
    32
  0
VERTEX
  8
図枠
  5
86F
 10
952.616
 20
-707.166
 30
0.000000
  70
    32
  0
VERTEX
  8
図枠
  5
870
 10
952.634
 20
-707.183
 30
0.000000
  70
    32
  0
VERTEX
  8
図枠
  5
871
 10
952.651
 20
-707.199
 30
0.000000
  70
    32
  0
VERTEX
  8
図枠
  5
872
 10
952.669
 20
-707.216
 30
0.000000
  70
    32
  0
VERTEX
  8
図枠
  5
873
 10
952.687
 20
-707.232
 30
0.000000
  70
    32
  0
VERTEX
  8
図枠
  5
874
 10
952.704
 20
-707.249
 30
0.000000
  70
    32
  0
VERTEX
  8
図枠
  5
875
 10
952.722
 20
-707.265
 30
0.000000
  70
    32
  0
VERTEX
  8
図枠
  5
876
 10
952.740
 20
-707.282
 30
0.000000
  70
    32
  0
VERTEX
  8
図枠
  5
877
 10
952.757
 20
-707.298
 30
0.000000
  70
    32
  0
VERTEX
  8
図枠
  5
878
 10
952.775
 20
-707.314
 30
0.000000
  70
    32
  0
VERTEX
  8
図枠
  5
879
 10
952.793
 20
-707.331
 30
0.000000
  70
    32
  0
VERTEX
  8
図枠
  5
87A
 10
952.811
 20
-707.347
 30
0.000000
  70
    32
  0
VERTEX
  8
図枠
  5
87B
 10
952.829
 20
-707.363
 30
0.000000
  70
    32
  0
VERTEX
  8
図枠
  5
87C
 10
952.846
 20
-707.380
 30
0.000000
  70
    32
  0
VERTEX
  8
図枠
  5
87D
 10
952.864
 20
-707.396
 30
0.000000
  70
    32
  0
SEQEND
  8
図枠
  5
87E
  0
CIRCLE
  5
366
  8
図枠
 10
962.32179112129995
 20
-651.87544457999991
 30
0.0
 40
3.0
  0
LINE
  5
367
  8
図枠
 10
952.12492249359991
 20
-703.7390378314999
 30
0.0
 11
950.71070893119986
 21
-705.15325139389995
 31
0.0
  0
LINE
  5
368
  8
図枠
  6
BORDER
 10
962.32179112129995
 20
-642.87544458000002
 30
0.0
 11
962.32179112129995
 21
-660.87544458000002
 31
0.0
  0
LINE
  5
369
  8
図枠
 10
959.28172087380005
 20
-710.05659018519998
 30
0.0
 11
958.83646572429996
 21
-710.49253554570009
 31
0.0
  0
CIRCLE
  5
36A
  8
図枠
 10
962.32179112129995
 20
-651.87544457999991
 30
0.0
 40
3.0
  0
POLYLINE
  8
図枠
  5
87F
  66
     1
 10
0.000000
 20
0.000000
 30
0.000000
  70
     8
  0
VERTEX
  8
図枠
  5
880
 10
955.772
 20
-713.275
 30
0.000000
  70
    32
  0
VERTEX
  8
図枠
  5
881
 10
955.839
 20
-713.296
 30
0.000000
  70
    32
  0
VERTEX
  8
図枠
  5
882
 10
955.907
 20
-713.317
 30
0.000000
  70
    32
  0
VERTEX
  8
図枠
  5
883
 10
955.974
 20
-713.339
 30
0.000000
  70
    32
  0
VERTEX
  8
図枠
  5
884
 10
956.041
 20
-713.360
 30
0.000000
  70
    32
  0
VERTEX
  8
図枠
  5
885
 10
956.109
 20
-713.381
 30
0.000000
  70
    32
  0
VERTEX
  8
図枠
  5
886
 10
956.177
 20
-713.402
 30
0.000000
  70
    32
  0
VERTEX
  8
図枠
  5
887
 10
956.244
 20
-713.423
 30
0.000000
  70
    32
  0
VERTEX
  8
図枠
  5
888
 10
956.312
 20
-713.443
 30
0.000000
  70
    32
  0
VERTEX
  8
図枠
  5
889
 10
956.380
 20
-713.464
 30
0.000000
  70
    32
  0
VERTEX
  8
図枠
  5
88A
 10
956.447
 20
-713.485
 30
0.000000
  70
    32
  0
VERTEX
  8
図枠
  5
88B
 10
956.515
 20
-713.505
 30
0.000000
  70
    32
  0
VERTEX
  8
図枠
  5
88C
 10
956.583
 20
-713.525
 30
0.000000
  70
    32
  0
VERTEX
  8
図枠
  5
88D
 10
956.651
 20
-713.546
 30
0.000000
  70
    32
  0
VERTEX
  8
図枠
  5
88E
 10
956.719
 20
-713.566
 30
0.000000
  70
    32
  0
VERTEX
  8
図枠
  5
88F
 10
956.787
 20
-713.586
 30
0.000000
  70
    32
  0
VERTEX
  8
図枠
  5
890
 10
956.855
 20
-713.606
 30
0.000000
  70
    32
  0
VERTEX
  8
図枠
  5
891
 10
956.923
 20
-713.626
 30
0.000000
  70
    32
  0
VERTEX
  8
図枠
  5
892
 10
956.992
 20
-713.645
 30
0.000000
  70
    32
  0
VERTEX
  8
図枠
  5
893
 10
957.060
 20
-713.665
 30
0.000000
  70
    32
  0
VERTEX
  8
図枠
  5
894
 10
957.128
 20
-713.685
 30
0.000000
  70
    32
  0
VERTEX
  8
図枠
  5
895
 10
957.197
 20
-713.704
 30
0.000000
  70
    32
  0
VERTEX
  8
図枠
  5
896
 10
957.265
 20
-713.724
 30
0.000000
  70
    32
  0
VERTEX
  8
図枠
  5
897
 10
957.333
 20
-713.743
 30
0.000000
  70
    32
  0
VERTEX
  8
図枠
  5
898
 10
957.402
 20
-713.762
 30
0.000000
  70
    32
  0
VERTEX
  8
図枠
  5
899
 10
957.470
 20
-713.781
 30
0.000000
  70
    32
  0
VERTEX
  8
図枠
  5
89A
 10
957.539
 20
-713.800
 30
0.000000
  70
    32
  0
VERTEX
  8
図枠
  5
89B
 10
957.608
 20
-713.819
 30
0.000000
  70
    32
  0
VERTEX
  8
図枠
  5
89C
 10
957.676
 20
-713.838
 30
0.000000
  70
    32
  0
VERTEX
  8
図枠
  5
89D
 10
957.745
 20
-713.857
 30
0.000000
  70
    32
  0
VERTEX
  8
図枠
  5
89E
 10
957.814
 20
-713.876
 30
0.000000
  70
    32
  0
VERTEX
  8
図枠
  5
89F
 10
957.883
 20
-713.894
 30
0.000000
  70
    32
  0
VERTEX
  8
図枠
  5
8A0
 10
957.952
 20
-713.913
 30
0.000000
  70
    32
  0
VERTEX
  8
図枠
  5
8A1
 10
958.020
 20
-713.932
 30
0.000000
  70
    32
  0
VERTEX
  8
図枠
  5
8A2
 10
958.089
 20
-713.950
 30
0.000000
  70
    32
  0
VERTEX
  8
図枠
  5
8A3
 10
958.158
 20
-713.968
 30
0.000000
  70
    32
  0
VERTEX
  8
図枠
  5
8A4
 10
958.227
 20
-713.987
 30
0.000000
  70
    32
  0
VERTEX
  8
図枠
  5
8A5
 10
958.296
 20
-714.005
 30
0.000000
  70
    32
  0
VERTEX
  8
図枠
  5
8A6
 10
958.366
 20
-714.023
 30
0.000000
  70
    32
  0
VERTEX
  8
図枠
  5
8A7
 10
958.435
 20
-714.041
 30
0.000000
  70
    32
  0
VERTEX
  8
図枠
  5
8A8
 10
958.504
 20
-714.059
 30
0.000000
  70
    32
  0
VERTEX
  8
図枠
  5
8A9
 10
958.573
 20
-714.077
 30
0.000000
  70
    32
  0
VERTEX
  8
図枠
  5
8AA
 10
958.642
 20
-714.095
 30
0.000000
  70
    32
  0
VERTEX
  8
図枠
  5
8AB
 10
958.712
 20
-714.112
 30
0.000000
  70
    32
  0
VERTEX
  8
図枠
  5
8AC
 10
958.781
 20
-714.130
 30
0.000000
  70
    32
  0
VERTEX
  8
図枠
  5
8AD
 10
958.850
 20
-714.148
 30
0.000000
  70
    32
  0
VERTEX
  8
図枠
  5
8AE
 10
958.920
 20
-714.165
 30
0.000000
  70
    32
  0
VERTEX
  8
図枠
  5
8AF
 10
958.989
 20
-714.183
 30
0.000000
  70
    32
  0
VERTEX
  8
図枠
  5
8B0
 10
959.059
 20
-714.200
 30
0.000000
  70
    32
  0
VERTEX
  8
図枠
  5
8B1
 10
959.128
 20
-714.217
 30
0.000000
  70
    32
  0
VERTEX
  8
図枠
  5
8B2
 10
959.198
 20
-714.235
 30
0.000000
  70
    32
  0
VERTEX
  8
図枠
  5
8B3
 10
959.268
 20
-714.252
 30
0.000000
  70
    32
  0
VERTEX
  8
図枠
  5
8B4
 10
959.337
 20
-714.269
 30
0.000000
  70
    32
  0
VERTEX
  8
図枠
  5
8B5
 10
959.407
 20
-714.286
 30
0.000000
  70
    32
  0
VERTEX
  8
図枠
  5
8B6
 10
959.477
 20
-714.303
 30
0.000000
  70
    32
  0
VERTEX
  8
図枠
  5
8B7
 10
959.546
 20
-714.320
 30
0.000000
  70
    32
  0
VERTEX
  8
図枠
  5
8B8
 10
959.616
 20
-714.337
 30
0.000000
  70
    32
  0
VERTEX
  8
図枠
  5
8B9
 10
959.686
 20
-714.354
 30
0.000000
  70
    32
  0
VERTEX
  8
図枠
  5
8BA
 10
959.756
 20
-714.370
 30
0.000000
  70
    32
  0
VERTEX
  8
図枠
  5
8BB
 10
959.826
 20
-714.387
 30
0.000000
  70
    32
  0
VERTEX
  8
図枠
  5
8BC
 10
959.895
 20
-714.404
 30
0.000000
  70
    32
  0
VERTEX
  8
図枠
  5
8BD
 10
959.965
 20
-714.420
 30
0.000000
  70
    32
  0
VERTEX
  8
図枠
  5
8BE
 10
960.035
 20
-714.437
 30
0.000000
  70
    32
  0
VERTEX
  8
図枠
  5
8BF
 10
960.105
 20
-714.453
 30
0.000000
  70
    32
  0
VERTEX
  8
図枠
  5
8C0
 10
960.175
 20
-714.470
 30
0.000000
  70
    32
  0
VERTEX
  8
図枠
  5
8C1
 10
960.245
 20
-714.486
 30
0.000000
  70
    32
  0
VERTEX
  8
図枠
  5
8C2
 10
960.315
 20
-714.503
 30
0.000000
  70
    32
  0
VERTEX
  8
図枠
  5
8C3
 10
960.386
 20
-714.519
 30
0.000000
  70
    32
  0
VERTEX
  8
図枠
  5
8C4
 10
960.456
 20
-714.535
 30
0.000000
  70
    32
  0
VERTEX
  8
図枠
  5
8C5
 10
960.526
 20
-714.551
 30
0.000000
  70
    32
  0
VERTEX
  8
図枠
  5
8C6
 10
960.596
 20
-714.567
 30
0.000000
  70
    32
  0
VERTEX
  8
図枠
  5
8C7
 10
960.666
 20
-714.583
 30
0.000000
  70
    32
  0
VERTEX
  8
図枠
  5
8C8
 10
960.736
 20
-714.599
 30
0.000000
  70
    32
  0
VERTEX
  8
図枠
  5
8C9
 10
960.807
 20
-714.615
 30
0.000000
  70
    32
  0
VERTEX
  8
図枠
  5
8CA
 10
960.877
 20
-714.631
 30
0.000000
  70
    32
  0
VERTEX
  8
図枠
  5
8CB
 10
960.947
 20
-714.647
 30
0.000000
  70
    32
  0
VERTEX
  8
図枠
  5
8CC
 10
961.018
 20
-714.663
 30
0.000000
  70
    32
  0
VERTEX
  8
図枠
  5
8CD
 10
961.088
 20
-714.679
 30
0.000000
  70
    32
  0
VERTEX
  8
図枠
  5
8CE
 10
961.158
 20
-714.695
 30
0.000000
  70
    32
  0
VERTEX
  8
図枠
  5
8CF
 10
961.229
 20
-714.711
 30
0.000000
  70
    32
  0
VERTEX
  8
図枠
  5
8D0
 10
961.299
 20
-714.726
 30
0.000000
  70
    32
  0
VERTEX
  8
図枠
  5
8D1
 10
961.370
 20
-714.742
 30
0.000000
  70
    32
  0
VERTEX
  8
図枠
  5
8D2
 10
961.440
 20
-714.757
 30
0.000000
  70
    32
  0
VERTEX
  8
図枠
  5
8D3
 10
961.510
 20
-714.773
 30
0.000000
  70
    32
  0
VERTEX
  8
図枠
  5
8D4
 10
961.581
 20
-714.789
 30
0.000000
  70
    32
  0
VERTEX
  8
図枠
  5
8D5
 10
961.652
 20
-714.804
 30
0.000000
  70
    32
  0
VERTEX
  8
図枠
  5
8D6
 10
961.722
 20
-714.820
 30
0.000000
  70
    32
  0
VERTEX
  8
図枠
  5
8D7
 10
961.793
 20
-714.835
 30
0.000000
  70
    32
  0
VERTEX
  8
図枠
  5
8D8
 10
961.863
 20
-714.850
 30
0.000000
  70
    32
  0
VERTEX
  8
図枠
  5
8D9
 10
961.934
 20
-714.866
 30
0.000000
  70
    32
  0
VERTEX
  8
図枠
  5
8DA
 10
962.004
 20
-714.881
 30
0.000000
  70
    32
  0
VERTEX
  8
図枠
  5
8DB
 10
962.075
 20
-714.896
 30
0.000000
  70
    32
  0
VERTEX
  8
図枠
  5
8DC
 10
962.146
 20
-714.912
 30
0.000000
  70
    32
  0
VERTEX
  8
図枠
  5
8DD
 10
962.216
 20
-714.927
 30
0.000000
  70
    32
  0
VERTEX
  8
図枠
  5
8DE
 10
962.287
 20
-714.942
 30
0.000000
  70
    32
  0
VERTEX
  8
図枠
  5
8DF
 10
962.358
 20
-714.957
 30
0.000000
  70
    32
  0
VERTEX
  8
図枠
  5
8E0
 10
962.428
 20
-714.972
 30
0.000000
  70
    32
  0
VERTEX
  8
図枠
  5
8E1
 10
962.499
 20
-714.988
 30
0.000000
  70
    32
  0
VERTEX
  8
図枠
  5
8E2
 10
962.570
 20
-715.003
 30
0.000000
  70
    32
  0
VERTEX
  8
図枠
  5
8E3
 10
962.641
 20
-715.018
 30
0.000000
  70
    32
  0
VERTEX
  8
図枠
  5
8E4
 10
962.711
 20
-715.033
 30
0.000000
  70
    32
  0
VERTEX
  8
図枠
  5
8E5
 10
962.782
 20
-715.048
 30
0.000000
  70
    32
  0
VERTEX
  8
図枠
  5
8E6
 10
962.853
 20
-715.063
 30
0.000000
  70
    32
  0
VERTEX
  8
図枠
  5
8E7
 10
962.924
 20
-715.078
 30
0.000000
  70
    32
  0
VERTEX
  8
図枠
  5
8E8
 10
962.994
 20
-715.093
 30
0.000000
  70
    32
  0
VERTEX
  8
図枠
  5
8E9
 10
963.065
 20
-715.108
 30
0.000000
  70
    32
  0
VERTEX
  8
図枠
  5
8EA
 10
963.136
 20
-715.123
 30
0.000000
  70
    32
  0
VERTEX
  8
図枠
  5
8EB
 10
963.207
 20
-715.138
 30
0.000000
  70
    32
  0
VERTEX
  8
図枠
  5
8EC
 10
963.278
 20
-715.153
 30
0.000000
  70
    32
  0
VERTEX
  8
図枠
  5
8ED
 10
963.349
 20
-715.168
 30
0.000000
  70
    32
  0
VERTEX
  8
図枠
  5
8EE
 10
963.420
 20
-715.182
 30
0.000000
  70
    32
  0
VERTEX
  8
図枠
  5
8EF
 10
963.490
 20
-715.197
 30
0.000000
  70
    32
  0
VERTEX
  8
図枠
  5
8F0
 10
963.561
 20
-715.212
 30
0.000000
  70
    32
  0
VERTEX
  8
図枠
  5
8F1
 10
963.632
 20
-715.227
 30
0.000000
  70
    32
  0
VERTEX
  8
図枠
  5
8F2
 10
963.703
 20
-715.242
 30
0.000000
  70
    32
  0
VERTEX
  8
図枠
  5
8F3
 10
963.774
 20
-715.257
 30
0.000000
  70
    32
  0
VERTEX
  8
図枠
  5
8F4
 10
963.845
 20
-715.271
 30
0.000000
  70
    32
  0
VERTEX
  8
図枠
  5
8F5
 10
963.916
 20
-715.286
 30
0.000000
  70
    32
  0
VERTEX
  8
図枠
  5
8F6
 10
963.987
 20
-715.301
 30
0.000000
  70
    32
  0
VERTEX
  8
図枠
  5
8F7
 10
964.058
 20
-715.316
 30
0.000000
  70
    32
  0
VERTEX
  8
図枠
  5
8F8
 10
964.128
 20
-715.330
 30
0.000000
  70
    32
  0
VERTEX
  8
図枠
  5
8F9
 10
964.199
 20
-715.345
 30
0.000000
  70
    32
  0
VERTEX
  8
図枠
  5
8FA
 10
964.270
 20
-715.360
 30
0.000000
  70
    32
  0
VERTEX
  8
図枠
  5
8FB
 10
964.341
 20
-715.375
 30
0.000000
  70
    32
  0
VERTEX
  8
図枠
  5
8FC
 10
964.412
 20
-715.390
 30
0.000000
  70
    32
  0
VERTEX
  8
図枠
  5
8FD
 10
964.483
 20
-715.404
 30
0.000000
  70
    32
  0
VERTEX
  8
図枠
  5
8FE
 10
964.554
 20
-715.419
 30
0.000000
  70
    32
  0
VERTEX
  8
図枠
  5
8FF
 10
964.625
 20
-715.434
 30
0.000000
  70
    32
  0
SEQEND
  8
図枠
  5
900
  0
LINE
  5
36C
  8
図枠
  6
BORDER
 10
953.32179112129995
 20
-651.87544457999991
 30
0.0
 11
991.82179112129995
 21
-651.87544457999991
 31
0.0
  0
LINE
  5
36D
  8
図枠
 10
970.16862911429985
 20
-702.18376216280001
 30
0.0
 11
976.41529578090012
 21
-702.18376216280001
 31
0.0
  0
LINE
  5
36E
  8
図枠
 10
970.16862911429985
 20
-706.68376216280001
 30
0.0
 11
977.73529578089983
 21
-706.68376216280001
 31
0.0
  0
LINE
  5
36F
  8
図枠
 10
976.41529578090012
 20
-702.18376216280001
 30
0.0
 11
975.16862911429996
 21
-697.93376216279989
 31
0.0
  0
LINE
  5
370
  8
図枠
 10
975.16862911429996
 20
-697.93376216279989
 30
0.0
 11
985.16862911429996
 21
-697.93376216279989
 31
0.0
  0
LINE
  5
371
  8
図枠
 10
970.16862911429985
 20
-713.18376216280001
 30
0.0
 11
979.64196244760001
 21
-713.18376216280001
 31
0.0
  0
LINE
  5
372
  8
図枠
 10
970.16862911429985
 20
-708.68376216279989
 30
0.0
 11
978.32196244759996
 21
-708.68376216279989
 31
0.0
  0
ARC
  5
373
  8
ﾚｲﾔ_1
 62
     5
 10
1022.66171875
 20
-499.31528303599993
 30
0.0
 40
1.5
 50
180.0
 51
270.0
  0
LINE
  5
374
  8
ﾚｲﾔ_1
 62
     5
 10
1021.16171875
 20
-499.31528303599993
 30
0.0
 11
1022.16171875
 21
-499.31528303599993
 31
0.0
  0
ARC
  5
375
  8
ﾚｲﾔ_1
 62
     5
 10
1022.86171875
 20
-499.31528303599993
 30
0.0
 40
2.5
 50
180.0
 51
270.0
  0
LINE
  5
376
  8
図枠
 10
1078.8217911213001
 20
-638.12544458000002
 30
0.0
 11
1078.8217911213001
 21
-625.62544458000002
 31
0.0
  0
LINE
  5
377
  8
ﾚｲﾔ_1
 62
     5
 10
1021.16171875
 20
-415.31528303599993
 30
0.0
 11
1021.16171875
 21
-413.81528303629989
 31
0.0
  0
LINE
  5
378
  8
ﾚｲﾔ_1
 62
     5
 10
1021.16171875
 20
-416.81528303599993
 30
0.0
 11
1021.16171875
 21
-416.31126622049999
 31
0.0
  0
LINE
  5
379
  8
ﾚｲﾔ_1
 62
     5
 10
1021.16171875
 20
-415.31528303599993
 30
0.0
 11
1021.16171875
 21
-413.81528303629989
 31
0.0
  0
LINE
  5
37A
  8
ﾚｲﾔ_1
 62
     5
 10
1021.16171875
 20
-416.81528303599993
 30
0.0
 11
1021.16171875
 21
-416.31126622049999
 31
0.0
  0
LINE
  5
37B
  8
ﾚｲﾔ_1
 62
     5
 10
1021.16171875
 20
-412.81528303599993
 30
0.0
 11
1021.16171875
 21
-390.81528303599998
 31
0.0
  0
LINE
  5
37C
  8
ﾚｲﾔ_1
 62
     5
 10
1021.16171875
 20
-412.81528303599993
 30
0.0
 11
1021.16171875
 21
-390.81528303599998
 31
0.0
  0
LINE
  5
37D
  8
図枠
 10
980.66862911429996
 20
-716.68376216279989
 30
0.0
 11
979.64196244760001
 21
-713.18376216280001
 31
0.0
  0
LINE
  5
37E
  8
図枠
 10
984.79098145229989
 20
-706.68376216280001
 30
0.0
 11
992.66862911429985
 21
-706.68376216280001
 31
0.0
  0
LINE
  5
37F
  8
図枠
 10
992.66862911429985
 20
-708.68376216279989
 30
0.0
 11
992.66862911429985
 21
-713.18376216280001
 31
0.0
  0
LINE
  5
380
  8
図枠
 10
976.03658490059991
 20
-648.87544458000002
 30
0.0
 11
988.03658490060002
 21
-645.87544458000002
 31
0.0
  0
LINE
  5
381
  8
図枠
 10
978.32196244759996
 20
-708.68376216279989
 30
0.0
 11
977.73529578089983
 21
-706.68376216280001
 31
0.0
  0
LINE
  5
382
  8
図枠
 10
976.03658490059991
 20
-654.87544458000002
 30
0.0
 11
988.03658490060002
 21
-657.87544458000002
 31
0.0
  0
LINE
  5
383
  8
図枠
 10
1003.8217911213
 20
-638.12544458000002
 30
0.0
 11
1003.8217911213
 21
-720.62544457999991
 31
0.0
  0
LINE
  5
384
  8
図枠
  6
BORDER
 10
962.32179112129995
 20
-642.87544458000002
 30
0.0
 11
962.32179112129995
 21
-660.87544458000002
 31
0.0
  0
CIRCLE
  5
385
  8
図枠
 10
962.32179112129995
 20
-651.87544457999991
 30
0.0
 40
6.0
  0
LINE
  5
386
  8
図枠
 10
962.12492249360014
 20
-701.68376216280001
 30
0.0
 11
964.62492249359991
 21
-697.93376216279989
 31
0.0
  0
CIRCLE
  5
387
  8
図枠
 10
962.32179112129995
 20
-651.87544457999991
 30
0.0
 40
6.0
  0
LINE
  5
388
  8
図枠
  6
BORDER
 10
962.32179112129995
 20
-642.87544458000002
 30
0.0
 11
962.32179112129995
 21
-660.87544458000002
 31
0.0
  0
CIRCLE
  5
389
  8
図枠
 10
962.32179112129995
 20
-651.87544457999991
 30
0.0
 40
6.0
  0
ARC
  5
38A
  8
図枠
 10
948.37492249360002
 20
-701.68376216280001
 30
0.0
 40
13.75
 50
322.48761197969998
 51
0.0
  0
LINE
  5
38B
  8
図枠
 10
953.46570372279984
 20
-706.73143942559989
 30
0.0
 11
952.86421420699992
 21
-707.39578532689995
 31
0.0
  0
ARC
  5
38C
  8
図枠
 10
945.12492249360014
 20
-702.18376216280001
 30
0.0
 40
9.5
 50
331.39928138329998
 51
358.49204224580001
  0
CIRCLE
  5
38D
  8
図枠
 10
962.32179112129995
 20
-651.87544457999991
 30
0.0
 40
3.0
  0
CIRCLE
  5
38E
  8
図枠
 10
962.32179112129995
 20
-651.87544457999991
 30
0.0
 40
3.0
  0
LINE
  5
38F
  8
図枠
  6
BORDER
 10
962.32179112129995
 20
-642.87544458000002
 30
0.0
 11
962.32179112129995
 21
-660.87544458000002
 31
0.0
  0
LINE
  5
390
  8
図枠
 10
962.12492249360014
 20
-701.68376216280001
 30
0.0
 11
964.62492249359991
 21
-697.93376216279989
 31
0.0
  0
CIRCLE
  5
391
  8
図枠
 10
962.32179112129995
 20
-651.87544457999991
 30
0.0
 40
6.0
  0
LINE
  5
392
  8
図枠
 10
970.16862911429985
 20
-708.68376216279989
 30
0.0
 11
970.16862911429985
 21
-713.18376216280001
 31
0.0
  0
ARC
  5
393
  8
図枠
 10
948.37492249360002
 20
-701.68376216280001
 30
0.0
 40
13.75
 50
270.0
 51
302.54495885400001
  0
LINE
  5
394
  8
図枠
 10
964.62492249359991
 20
-711.68376216280001
 30
0.0
 11
964.62492249359991
 21
-715.43376216280001
 31
0.0
  0
LINE
  5
395
  8
図枠
 10
970.16862911429985
 20
-702.18376216280001
 30
0.0
 11
970.16862911429985
 21
-706.68376216280001
 31
0.0
  0
INSERT
  5
396
  8
0
  6
CONTINUOUS
  2
*U67
 10
0.0
 20
0.0
 30
0.0
  0
LINE
  5
397
  8
図枠
 10
963.82179112130007
 20
-638.12544458000002
 30
0.0
 11
963.82179112130007
 21
-625.62544458000002
 31
0.0
  0
LINE
  5
398
  8
図枠
 10
987.66862911429996
 20
-716.68376216279989
 30
0.0
 11
986.66145243259984
 21
-713.18376216280001
 31
0.0
  0
LINE
  5
399
  8
図枠
 10
988.03658490060002
 20
-645.87544458000002
 30
0.0
 11
988.03658490060002
 21
-657.87544458000002
 31
0.0
  0
LINE
  5
39A
  8
図枠
 10
983.13005437880008
 20
-700.91193993659988
 30
0.0
 11
985.16862911429996
 21
-697.93376216279989
 31
0.0
  0
LINE
  5
39B
  8
図枠
 10
976.03658490059991
 20
-654.87544458000002
 30
0.0
 11
988.03658490060002
 21
-657.87544458000002
 31
0.0
  0
LINE
  5
39C
  8
図枠
 10
976.03658490059991
 20
-648.87544458000002
 30
0.0
 11
988.03658490060002
 21
-645.87544458000002
 31
0.0
  0
LINE
  5
39D
  8
図枠
 10
976.03658490059991
 20
-648.87544458000002
 30
0.0
 11
988.03658490060002
 21
-645.87544458000002
 31
0.0
  0
LINE
  5
39E
  8
図枠
 10
976.03658490059991
 20
-648.87544458000002
 30
0.0
 11
976.03658490059991
 21
-654.87544458000002
 31
0.0
  0
LINE
  5
39F
  8
図枠
 10
985.36651098469997
 20
-708.68376216279989
 30
0.0
 11
992.66862911429985
 21
-708.68376216279989
 31
0.0
  0
LINE
  5
3A0
  8
図枠
 10
992.66862911429985
 20
-702.18376216280001
 30
0.0
 11
992.66862911429985
 21
-706.68376216280001
 31
0.0
  0
LINE
  5
3A1
  8
図枠
 10
986.66145243259984
 20
-713.18376216280001
 30
0.0
 11
992.66862911429985
 21
-713.18376216280001
 31
0.0
  0
LINE
  5
3A2
  8
図枠
 10
987.66862911429996
 20
-716.68376216279989
 30
0.0
 11
980.66862911429996
 21
-716.68376216279989
 31
0.0
  0
LINE
  5
3A3
  8
図枠
 10
985.36651098469997
 20
-708.68376216279989
 30
0.0
 11
984.79098145229989
 21
-706.68376216280001
 31
0.0
  0
LINE
  5
3A4
  8
図枠
 10
983.49604000440002
 20
-702.18376216280001
 30
0.0
 11
992.66862911429985
 21
-702.18376216280001
 31
0.0
  0
LINE
  5
3A5
  8
図枠
 10
983.49604000440002
 20
-702.18376216280001
 30
0.0
 11
983.13005437880008
 21
-700.91193993659988
 31
0.0
  0
LINE
  5
3A6
  8
図枠
 10
976.03658490059991
 20
-654.87544458000002
 30
0.0
 11
988.03658490060002
 21
-657.87544458000002
 31
0.0
  0
LINE
  5
3A7
  8
図枠
 10
988.03658490060002
 20
-645.87544458000002
 30
0.0
 11
988.03658490060002
 21
-657.87544458000002
 31
0.0
  0
LINE
  5
3A8
  8
図枠
 10
976.03658490059991
 20
-648.87544458000002
 30
0.0
 11
976.03658490059991
 21
-654.87544458000002
 31
0.0
  0
LINE
  5
3A9
  8
図枠
 10
976.03658490059991
 20
-648.87544458000002
 30
0.0
 11
976.03658490059991
 21
-654.87544458000002
 31
0.0
  0
LINE
  5
3AA
  8
図枠
 10
976.03658490059991
 20
-654.87544458000002
 30
0.0
 11
988.03658490060002
 21
-657.87544458000002
 31
0.0
  0
LINE
  5
3AB
  8
図枠
 10
988.03658490060002
 20
-645.87544458000002
 30
0.0
 11
988.03658490060002
 21
-657.87544458000002
 31
0.0
  0
LINE
  5
3AC
  8
図枠
 10
988.03658490060002
 20
-645.87544458000002
 30
0.0
 11
988.03658490060002
 21
-657.87544458000002
 31
0.0
  0
LINE
  5
3AD
  8
図枠
 10
976.03658490059991
 20
-648.87544458000002
 30
0.0
 11
988.03658490060002
 21
-645.87544458000002
 31
0.0
  0
LINE
  5
3AE
  8
図枠
 10
976.03658490059991
 20
-648.87544458000002
 30
0.0
 11
976.03658490059991
 21
-654.87544458000002
 31
0.0
  0
LINE
  5
3AF
  8
図枠
 10
924.22340734210002
 20
-697.93376216279989
 30
0.0
 11
914.22340734210013
 21
-697.93376216279989
 31
0.0
  0
LINE
  5
3B0
  8
図枠
 10
921.72340734210002
 20
-711.68376216280001
 30
0.0
 11
914.22340734210013
 21
-711.68376216280001
 31
0.0
  0
LINE
  5
3B1
  8
図枠
 10
914.22340734210013
 20
-697.93376216279989
 30
0.0
 11
914.22340734210013
 21
-702.93376216280001
 31
0.0
  0
LINE
  5
3B2
  8
図枠
 10
925.4734073420999
 20
-697.93376216279989
 30
0.0
 11
925.4734073420999
 21
-702.93376216280001
 31
0.0
  0
LINE
  5
3B3
  8
図枠
 10
925.4734073420999
 20
-706.68376216280001
 30
0.0
 11
925.4734073420999
 21
-707.93376216280001
 31
0.0
  0
LINE
  5
3B4
  8
図枠
 10
931.7234073420999
 20
-702.93376216280001
 30
0.0
 11
931.7234073420999
 21
-701.68376216280001
 31
0.0
  0
ARC
  5
3B5
  8
図枠
 10
921.72340734210002
 20
-707.93376216280001
 30
0.0
 40
3.75
 50
270.0
 51
0.0
  0
LINE
  5
3B6
  8
図枠
 10
914.22340734210013
 20
-706.68376216280001
 30
0.0
 11
913.84564781320012
 21
-706.68376216280001
 31
0.0
  0
LINE
  5
3B7
  8
図枠
 10
914.22340734210013
 20
-711.68376216280001
 30
0.0
 11
914.22340734210013
 21
-715.43376216280001
 31
0.0
  0
LINE
  5
3B8
  8
図枠
 10
920.47340734210013
 20
-710.43376216279989
 30
0.0
 11
920.47340734210013
 21
-706.68376216280001
 31
0.0
  0
LINE
  5
3B9
  8
図枠
 10
925.4734073420999
 20
-702.93376216280001
 30
0.0
 11
920.47340734210013
 21
-702.93376216280001
 31
0.0
  0
LINE
  5
3BA
  8
図枠
 10
920.47340734210013
 20
-701.68376216280001
 30
0.0
 11
924.22340734210002
 21
-697.93376216279989
 31
0.0
  0
LINE
  5
3BB
  8
図枠
 10
920.47340734210013
 20
-702.93376216280001
 30
0.0
 11
920.47340734210013
 21
-701.68376216280001
 31
0.0
  0
INSERT
  5
3BC
  8
0
  6
CONTINUOUS
  2
*U68
 10
0.0
 20
0.0
 30
0.0
  0
INSERT
  5
3BD
  8
0
  6
CONTINUOUS
  2
*U69
 10
0.0
 20
0.0
 30
0.0
  0
INSERT
  5
3BE
  8
0
  6
CONTINUOUS
  2
*U70
 10
0.0
 20
0.0
 30
0.0
  0
INSERT
  5
3BF
  8
0
  6
CONTINUOUS
  2
*U71
 10
0.0
 20
0.0
 30
0.0
  0
INSERT
  5
3C0
  8
0
  6
CONTINUOUS
  2
*U72
 10
0.0
 20
0.0
 30
0.0
  0
INSERT
  5
3C1
  8
0
  6
CONTINUOUS
  2
*U73
 10
0.0
 20
0.0
 30
0.0
  0
INSERT
  5
3C2
  8
0
  6
CONTINUOUS
  2
*U74
 10
0.0
 20
0.0
 30
0.0
  0
INSERT
  5
3C3
  8
0
  6
CONTINUOUS
  2
*U75
 10
0.0
 20
0.0
 30
0.0
  0
LINE
  5
3C4
  8
ﾚｲﾔ_1
 62
     5
 10
1022.86171875
 20
-501.81528303599998
 30
0.0
 11
1089.46171875
 21
-501.81528303599998
 31
0.0
  0
LINE
  5
3C5
  8
ﾚｲﾔ_1
 62
     5
 10
1022.66171875
 20
-500.81528303599998
 30
0.0
 11
1089.6617187500001
 21
-500.81528303599998
 31
0.0
  0
INSERT
  5
3C6
  8
0
  6
CONTINUOUS
  2
*U76
 10
0.0
 20
0.0
 30
0.0
  0
INSERT
  5
3C7
  8
0
  6
CONTINUOUS
  2
*U77
 10
0.0
 20
0.0
 30
0.0
  0
LINE
  5
3C8
  8
図枠
 10
838.82179112130007
 20
-638.12544458000002
 30
0.0
 11
838.82179112130007
 21
-625.62544458000002
 31
0.0
  0
LINE
  5
3C9
  8
図枠
 10
816.32179112130007
 20
-638.12544458000002
 30
0.0
 11
816.32179112130007
 21
-625.62544458000002
 31
0.0
  0
INSERT
  5
3CA
  8
0
  6
CONTINUOUS
  2
*U78
 10
0.0
 20
0.0
 30
0.0
  0
LINE
  5
3CB
  8
図枠
 10
878.82179112130007
 20
-638.12544458000002
 30
0.0
 11
878.82179112130007
 21
-665.62544458000002
 31
0.0
  0
INSERT
  5
3CC
  8
0
  6
CONTINUOUS
  2
*U79
 10
0.0
 20
0.0
 30
0.0
  0
LINE
  5
3CD
  8
図枠
 10
816.32179112130007
 20
-638.12544458000002
 30
0.0
 11
816.32179112130007
 21
-720.62544457999991
 31
0.0
  0
LINE
  5
3CE
  8
図枠
 10
822.57179112130007
 20
-651.87544457999991
 30
0.0
 11
872.57179112130007
 21
-651.87544457999991
 31
0.0
  0
INSERT
  5
3CF
  8
0
  6
CONTINUOUS
  2
*U80
 10
0.0
 20
0.0
 30
0.0
  0
INSERT
  5
3D0
  8
0
  6
CONTINUOUS
  2
*U81
 10
0.0
 20
0.0
 30
0.0
  0
INSERT
  5
3D1
  8
0
  6
CONTINUOUS
  2
*U82
 10
0.0
 20
0.0
 30
0.0
  0
LINE
  5
3D2
  8
ﾚｲﾔ_1
 62
     5
 10
814.53916367910006
 20
-501.81528303599998
 30
0.0
 11
881.13916367909997
 21
-501.81528303599998
 31
0.0
  0
ARC
  5
3D3
  8
ﾚｲﾔ_1
 62
     5
 10
881.13916367909997
 20
-499.31528303599993
 30
0.0
 40
2.5
 50
270.0
 51
0.0
  0
ARC
  5
3D4
  8
ﾚｲﾔ_1
 62
     5
 10
814.53916367910006
 20
-499.31528303599993
 30
0.0
 40
2.5
 50
180.0
 51
270.0
  0
ARC
  5
3D5
  8
図枠
 10
924.22340734210002
 20
-707.93376216280001
 30
0.0
 40
7.5
 50
270.0
 51
0.0
  0
LINE
  5
3D6
  8
図枠
 10
920.47340734210013
 20
-706.68376216280001
 30
0.0
 11
925.4734073420999
 21
-706.68376216280001
 31
0.0
  0
LINE
  5
3D7
  8
図枠
 10
911.3456478132
 20
-706.68376216280001
 30
0.0
 11
913.84564781320012
 21
-706.68376216280001
 31
0.0
  0
LINE
  5
3D8
  8
図枠
 10
914.22340734210013
 20
-710.43376216279989
 30
0.0
 11
920.47340734210013
 21
-710.43376216279989
 31
0.0
  0
LINE
  5
3D9
  8
図枠
 10
911.3456478132
 20
-702.93376216280001
 30
0.0
 11
911.3456478132
 21
-706.68376216280001
 31
0.0
  0
INSERT
  5
3DA
  8
0
  6
CONTINUOUS
  2
*U83
 10
0.0
 20
0.0
 30
0.0
  0
LINE
  5
3DB
  8
図枠
 10
914.22340734210013
 20
-702.93376216280001
 30
0.0
 11
911.3456478132
 21
-702.93376216280001
 31
0.0
  0
LINE
  5
3DC
  8
図枠
 10
914.22340734210013
 20
-706.68376216280001
 30
0.0
 11
914.22340734210013
 21
-710.43376216279989
 31
0.0
  0
LINE
  5
3DD
  8
図枠
 10
914.22340734210013
 20
-715.43376216280001
 30
0.0
 11
924.22340734210002
 21
-715.43376216280001
 31
0.0
  0
LINE
  5
3DE
  8
図枠
 10
910.07179112130007
 20
-665.62544458000002
 30
0.0
 11
910.07179112130007
 21
-693.12544458000002
 31
0.0
  0
INSERT
  5
3DF
  8
0
  6
CONTINUOUS
  2
*U84
 10
0.0
 20
0.0
 30
0.0
  0
LINE
  5
3E0
  8
図枠
 10
931.7234073420999
 20
-707.93376216280001
 30
0.0
 11
931.7234073420999
 21
-706.68376216280001
 31
0.0
  0
INSERT
  5
3E1
  8
0
  6
CONTINUOUS
  2
*U85
 10
0.0
 20
0.0
 30
0.0
  0
LINE
  5
3E2
  8
図枠
 10
822.57179112130007
 20
-679.37544458000002
 30
0.0
 11
903.82179112130007
 21
-679.37544458000002
 31
0.0
  0
LINE
  5
3E3
  8
図枠
 62
     5
 10
874.7109375
 20
-614.34966609910009
 30
0.0
 11
868.5234375
 21
-625.06673047100003
 31
0.0
  0
LINE
  5
3E4
  8
図枠
 62
     5
 10
874.7109375
 20
-614.34966609910009
 30
0.0
 11
880.89843749999989
 21
-625.06673047100003
 31
0.0
  0
LINE
  5
3E5
  8
図枠
 62
     5
 10
868.5234375
 20
-625.06673047100003
 30
0.0
 11
880.89843749999989
 21
-625.06673047100003
 31
0.0
  0
INSERT
  5
3E6
  8
0
  6
CONTINUOUS
  2
*U86
 10
0.0
 20
0.0
 30
0.0
  0
LINE
  5
3E7
  8
図枠
 62
     5
 10
810.25077874489989
 20
-514.52759659519995
 30
0.0
 11
804.0632787449
 21
-525.24466096699985
 31
0.0
  0
LINE
  5
3E8
  8
図枠
 62
     5
 10
810.25077874489989
 20
-514.52759659519995
 30
0.0
 11
816.4382787449
 21
-525.24466096699985
 31
0.0
  0
LINE
  5
3E9
  8
図枠
 62
     5
 10
804.0632787449
 20
-525.24466096699985
 30
0.0
 11
816.4382787449
 21
-525.24466096699985
 31
0.0
  0
INSERT
  5
3EA
  8
0
  6
CONTINUOUS
  2
*U87
 10
0.0
 20
0.0
 30
0.0
  0
INSERT
  5
3EB
  8
0
  6
CONTINUOUS
  2
*U88
 10
0.0
 20
0.0
 30
0.0
  0
LINE
  5
3EC
  8
図枠
 62
     5
 10
865.49419642860005
 20
-538.4025104973
 30
0.0
 11
859.30669642860005
 21
-549.11957486910001
 31
0.0
  0
LINE
  5
3ED
  8
図枠
 62
     5
 10
865.49419642860005
 20
-538.4025104973
 30
0.0
 11
871.68169642860005
 21
-549.11957486910001
 31
0.0
  0
LINE
  5
3EE
  8
図枠
 62
     5
 10
859.30669642860005
 20
-549.11957486910001
 30
0.0
 11
871.68169642860005
 21
-549.11957486910001
 31
0.0
  0
INSERT
  5
3EF
  8
0
  6
CONTINUOUS
  2
*U89
 10
0.0
 20
0.0
 30
0.0
  0
INSERT
  5
3F0
  8
0
  6
CONTINUOUS
  2
*U90
 10
0.0
 20
0.0
 30
0.0
  0
INSERT
  5
3F1
  8
0
  6
CONTINUOUS
  2
*U91
 10
0.0
 20
0.0
 30
0.0
  0
INSERT
  5
3F2
  8
0
  6
CONTINUOUS
  2
*U92
 10
0.0
 20
0.0
 30
0.0
  0
INSERT
  5
3F3
  8
0
  6
CONTINUOUS
  2
*U93
 10
0.0
 20
0.0
 30
0.0
  0
INSERT
  5
3F4
  8
0
  6
CONTINUOUS
  2
*U94
 10
0.0
 20
0.0
 30
0.0
  0
INSERT
  5
3F5
  8
0
  6
CONTINUOUS
  2
*U95
 10
0.0
 20
0.0
 30
0.0
  0
INSERT
  5
3F6
  8
0
  6
CONTINUOUS
  2
*U96
 10
0.0
 20
0.0
 30
0.0
  0
LINE
  5
3F7
  8
図枠
 62
     5
 10
868.5234375
 20
-586.91719391669994
 30
0.0
 11
880.89843749999989
 21
-586.91719391669994
 31
0.0
  0
LINE
  5
3F8
  8
図枠
 62
     5
 10
874.7109375
 20
-576.20012954489994
 30
0.0
 11
880.89843749999989
 21
-586.91719391669994
 31
0.0
  0
LINE
  5
3F9
  8
図枠
 62
     5
 10
874.7109375
 20
-576.20012954489994
 30
0.0
 11
868.5234375
 21
-586.91719391669994
 31
0.0
  0
LINE
  5
3FA
  8
0
 62
     5
 10
934.04154947919994
 20
115.01836231279999
 30
0.0
 11
932.02154947919996
 21
110.6864583333
 31
0.0
  0
LINE
  5
3FB
  8
0
 62
     5
 10
934.32154947920003
 20
149.68645833330001
 30
0.0
 11
932.2251906516999
 21
146.05545833330001
 31
0.0
  0
LINE
  5
3FC
  8
0
 62
     5
 10
936.32154947919992
 20
149.68645833330001
 30
0.0
 11
934.32154947920003
 21
149.68645833330001
 31
0.0
  0
LINE
  5
3FD
  8
0
 62
     5
 10
934.04154947919994
 20
116.6864583333
 30
0.0
 11
934.04154947919994
 21
115.01836231279999
 31
0.0
  0
LINE
  5
3FE
  8
0
 62
     5
 10
964.20154947920003
 20
116.6864583333
 30
0.0
 11
932.44154947920015
 21
116.6864583333
 31
0.0
  0
LINE
  5
3FF
  8
0
 62
     5
 10
962.6015494792
 20
115.01836231279999
 30
0.0
 11
934.04154947919994
 21
115.01836231279999
 31
0.0
  0
LINE
  5
400
  8
0
 62
     5
 10
943.82154947920003
 20
190.68645833330001
 30
0.0
 11
928.32154947920014
 21
190.68645833330001
 31
0.0
  0
LINE
  5
401
  8
0
 62
     5
 10
938.32154947920014
 20
179.68645833330001
 30
0.0
 11
934.32154947920003
 21
179.68645833330001
 31
0.0
  0
ARC
  5
402
  8
0
 62
     5
 10
943.82154947920003
 20
168.68645833330001
 30
0.0
 40
22.0
 50
0.0
 51
90.0
  0
ARC
  5
403
  8
0
 62
     5
 10
938.32154947920014
 20
157.68645833330001
 30
0.0
 40
22.0
 50
0.0
 51
90.0
  0
LINE
  5
404
  8
ﾚｲﾔ_1
 62
     5
 10
932.2251906516999
 20
183.31745833330001
 30
0.0
 11
934.32154947920003
 21
179.68645833330001
 31
0.0
  0
LINE
  5
405
  8
ﾚｲﾔ_1
 62
     5
 10
934.32154947920003
 20
179.68645833330001
 30
0.0
 11
934.32154947920003
 21
149.68645833330001
 31
0.0
  0
ARC
  5
406
  8
ﾚｲﾔ_1
  6
CENTER
 62
     3
 10
938.32154947920014
 20
154.68645833330001
 30
0.0
 40
10.0
 50
0.0
 51
90.0
  0
LINE
  5
407
  8
0
 10
964.62154947919998
 20
110.6864583333
 30
0.0
 11
932.02154947919996
 21
110.6864583333
 31
0.0
  0
LINE
  5
408
  8
ﾚｲﾔ_1
 62
     5
 10
934.32154947920003
 20
110.6864583333
 30
0.0
 11
934.32154947920003
 21
58.910144566699991
 31
0.0
  0
LINE
  5
409
  8
図枠
 62
     5
 10
943.82179112129995
 20
241.87455542000001
 30
0.0
 11
943.82179112129995
 21
279.37455541999998
 31
0.0
  0
LINE
  5
40A
  8
ﾚｲﾔ_1
 62
     5
 10
638.04887079909997
 20
-501.81528303599998
 30
0.0
 11
704.6488707991
 21
-501.81528303599998
 31
0.0
  0
ARC
  5
40B
  8
ﾚｲﾔ_1
 62
     5
 10
638.04887079909997
 20
-499.31528303599993
 30
0.0
 40
2.5
 50
180.0
 51
270.0
  0
ARC
  5
40C
  8
ﾚｲﾔ_1
 62
     5
 10
704.6488707991
 20
-499.31528303599993
 30
0.0
 40
2.5
 50
270.0
 51
0.0
  0
LINE
  5
40D
  8
ﾚｲﾔ_1
  6
BORDER
 62
     3
 10
649.60824579910002
 20
-401.81528303599998
 30
0.0
 11
692.07387079909995
 21
-401.81528303599998
 31
0.0
  0
CIRCLE
  5
40E
  8
ﾚｲﾔ_1
 62
     5
 10
671.34887079910004
 20
-401.81528303599998
 30
0.0
 40
15.25
  0
INSERT
  5
410
  8
ﾚｲﾔ_1
  2
CLUMP2
 10
0.0
 20
0.0
 30
0.0
  0
CIRCLE
  5
421
  8
ﾚｲﾔ_1
 62
     5
 10
671.34887079910004
 20
-401.81528303599998
 30
0.0
 40
9.5
  0
INSERT
  5
422
  8
0
  6
CONTINUOUS
  2
*U97
 10
0.0
 20
0.0
 30
0.0
  0
INSERT
  5
423
  8
0
  6
CONTINUOUS
  2
*U98
 10
0.0
 20
0.0
 30
0.0
  0
LINE
  5
424
  8
図枠
 10
942.12492249360002
 20
-703.7390378314999
 30
0.0
 11
952.12492249359991
 21
-703.7390378314999
 31
0.0
  0
ARC
  5
425
  8
図枠
 10
945.12492249360014
 20
-702.18376216280001
 30
0.0
 40
9.5
 50
270.0
 51
298.08590481520002
  0
LINE
  5
426
  8
図枠
 10
942.12492249360002
 20
-711.68376216280001
 30
0.0
 11
945.12492249360014
 21
-711.68376216280001
 31
0.0
  0
LINE
  5
427
  8
図枠
 10
942.12492249360002
 20
-704.54431350020002
 30
0.0
 11
942.12492249360002
 21
-703.7390378314999
 31
0.0
  0
POLYLINE
  8
図枠
  5
901
  66
     1
 10
0.000000
 20
0.000000
 30
0.000000
  70
     8
  0
VERTEX
  8
図枠
  5
902
 10
942.125
 20
-704.544
 30
0.000000
  70
    32
  0
VERTEX
  8
図枠
  5
903
 10
942.170
 20
-704.586
 30
0.000000
  70
    32
  0
VERTEX
  8
図枠
  5
904
 10
942.215
 20
-704.627
 30
0.000000
  70
    32
  0
VERTEX
  8
図枠
  5
905
 10
942.260
 20
-704.669
 30
0.000000
  70
    32
  0
VERTEX
  8
図枠
  5
906
 10
942.305
 20
-704.710
 30
0.000000
  70
    32
  0
VERTEX
  8
図枠
  5
907
 10
942.350
 20
-704.752
 30
0.000000
  70
    32
  0
VERTEX
  8
図枠
  5
908
 10
942.395
 20
-704.793
 30
0.000000
  70
    32
  0
VERTEX
  8
図枠
  5
909
 10
942.440
 20
-704.835
 30
0.000000
  70
    32
  0
VERTEX
  8
図枠
  5
90A
 10
942.485
 20
-704.876
 30
0.000000
  70
    32
  0
VERTEX
  8
図枠
  5
90B
 10
942.530
 20
-704.918
 30
0.000000
  70
    32
  0
VERTEX
  8
図枠
  5
90C
 10
942.575
 20
-704.959
 30
0.000000
  70
    32
  0
VERTEX
  8
図枠
  5
90D
 10
942.620
 20
-705.001
 30
0.000000
  70
    32
  0
VERTEX
  8
図枠
  5
90E
 10
942.665
 20
-705.042
 30
0.000000
  70
    32
  0
VERTEX
  8
図枠
  5
90F
 10
942.710
 20
-705.084
 30
0.000000
  70
    32
  0
VERTEX
  8
図枠
  5
910
 10
942.756
 20
-705.125
 30
0.000000
  70
    32
  0
VERTEX
  8
図枠
  5
911
 10
942.801
 20
-705.166
 30
0.000000
  70
    32
  0
VERTEX
  8
図枠
  5
912
 10
942.846
 20
-705.208
 30
0.000000
  70
    32
  0
VERTEX
  8
図枠
  5
913
 10
942.891
 20
-705.249
 30
0.000000
  70
    32
  0
VERTEX
  8
図枠
  5
914
 10
942.936
 20
-705.291
 30
0.000000
  70
    32
  0
VERTEX
  8
図枠
  5
915
 10
942.981
 20
-705.332
 30
0.000000
  70
    32
  0
VERTEX
  8
図枠
  5
916
 10
943.026
 20
-705.373
 30
0.000000
  70
    32
  0
VERTEX
  8
図枠
  5
917
 10
943.071
 20
-705.415
 30
0.000000
  70
    32
  0
VERTEX
  8
図枠
  5
918
 10
943.116
 20
-705.456
 30
0.000000
  70
    32
  0
VERTEX
  8
図枠
  5
919
 10
943.162
 20
-705.497
 30
0.000000
  70
    32
  0
VERTEX
  8
図枠
  5
91A
 10
943.207
 20
-705.538
 30
0.000000
  70
    32
  0
VERTEX
  8
図枠
  5
91B
 10
943.252
 20
-705.580
 30
0.000000
  70
    32
  0
VERTEX
  8
図枠
  5
91C
 10
943.297
 20
-705.621
 30
0.000000
  70
    32
  0
VERTEX
  8
図枠
  5
91D
 10
943.342
 20
-705.662
 30
0.000000
  70
    32
  0
VERTEX
  8
図枠
  5
91E
 10
943.387
 20
-705.703
 30
0.000000
  70
    32
  0
VERTEX
  8
図枠
  5
91F
 10
943.433
 20
-705.744
 30
0.000000
  70
    32
  0
VERTEX
  8
図枠
  5
920
 10
943.478
 20
-705.786
 30
0.000000
  70
    32
  0
VERTEX
  8
図枠
  5
921
 10
943.523
 20
-705.827
 30
0.000000
  70
    32
  0
VERTEX
  8
図枠
  5
922
 10
943.568
 20
-705.868
 30
0.000000
  70
    32
  0
VERTEX
  8
図枠
  5
923
 10
943.614
 20
-705.909
 30
0.000000
  70
    32
  0
VERTEX
  8
図枠
  5
924
 10
943.659
 20
-705.950
 30
0.000000
  70
    32
  0
VERTEX
  8
図枠
  5
925
 10
943.704
 20
-705.991
 30
0.000000
  70
    32
  0
VERTEX
  8
図枠
  5
926
 10
943.750
 20
-706.032
 30
0.000000
  70
    32
  0
VERTEX
  8
図枠
  5
927
 10
943.795
 20
-706.073
 30
0.000000
  70
    32
  0
VERTEX
  8
図枠
  5
928
 10
943.840
 20
-706.114
 30
0.000000
  70
    32
  0
VERTEX
  8
図枠
  5
929
 10
943.886
 20
-706.155
 30
0.000000
  70
    32
  0
VERTEX
  8
図枠
  5
92A
 10
943.931
 20
-706.195
 30
0.000000
  70
    32
  0
VERTEX
  8
図枠
  5
92B
 10
943.976
 20
-706.236
 30
0.000000
  70
    32
  0
VERTEX
  8
図枠
  5
92C
 10
944.022
 20
-706.277
 30
0.000000
  70
    32
  0
VERTEX
  8
図枠
  5
92D
 10
944.067
 20
-706.318
 30
0.000000
  70
    32
  0
VERTEX
  8
図枠
  5
92E
 10
944.113
 20
-706.358
 30
0.000000
  70
    32
  0
VERTEX
  8
図枠
  5
92F
 10
944.158
 20
-706.399
 30
0.000000
  70
    32
  0
VERTEX
  8
図枠
  5
930
 10
944.204
 20
-706.440
 30
0.000000
  70
    32
  0
VERTEX
  8
図枠
  5
931
 10
944.249
 20
-706.480
 30
0.000000
  70
    32
  0
VERTEX
  8
図枠
  5
932
 10
944.295
 20
-706.521
 30
0.000000
  70
    32
  0
VERTEX
  8
図枠
  5
933
 10
944.340
 20
-706.561
 30
0.000000
  70
    32
  0
VERTEX
  8
図枠
  5
934
 10
944.386
 20
-706.602
 30
0.000000
  70
    32
  0
VERTEX
  8
図枠
  5
935
 10
944.432
 20
-706.642
 30
0.000000
  70
    32
  0
VERTEX
  8
図枠
  5
936
 10
944.477
 20
-706.682
 30
0.000000
  70
    32
  0
VERTEX
  8
図枠
  5
937
 10
944.523
 20
-706.723
 30
0.000000
  70
    32
  0
VERTEX
  8
図枠
  5
938
 10
944.569
 20
-706.763
 30
0.000000
  70
    32
  0
VERTEX
  8
図枠
  5
939
 10
944.614
 20
-706.803
 30
0.000000
  70
    32
  0
VERTEX
  8
図枠
  5
93A
 10
944.660
 20
-706.843
 30
0.000000
  70
    32
  0
VERTEX
  8
図枠
  5
93B
 10
944.706
 20
-706.884
 30
0.000000
  70
    32
  0
VERTEX
  8
図枠
  5
93C
 10
944.752
 20
-706.924
 30
0.000000
  70
    32
  0
VERTEX
  8
図枠
  5
93D
 10
944.798
 20
-706.964
 30
0.000000
  70
    32
  0
VERTEX
  8
図枠
  5
93E
 10
944.843
 20
-707.004
 30
0.000000
  70
    32
  0
VERTEX
  8
図枠
  5
93F
 10
944.889
 20
-707.044
 30
0.000000
  70
    32
  0
VERTEX
  8
図枠
  5
940
 10
944.935
 20
-707.083
 30
0.000000
  70
    32
  0
VERTEX
  8
図枠
  5
941
 10
944.981
 20
-707.123
 30
0.000000
  70
    32
  0
VERTEX
  8
図枠
  5
942
 10
945.027
 20
-707.163
 30
0.000000
  70
    32
  0
VERTEX
  8
図枠
  5
943
 10
945.073
 20
-707.203
 30
0.000000
  70
    32
  0
VERTEX
  8
図枠
  5
944
 10
945.119
 20
-707.242
 30
0.000000
  70
    32
  0
VERTEX
  8
図枠
  5
945
 10
945.165
 20
-707.282
 30
0.000000
  70
    32
  0
VERTEX
  8
図枠
  5
946
 10
945.211
 20
-707.321
 30
0.000000
  70
    32
  0
VERTEX
  8
図枠
  5
947
 10
945.257
 20
-707.361
 30
0.000000
  70
    32
  0
VERTEX
  8
図枠
  5
948
 10
945.304
 20
-707.400
 30
0.000000
  70
    32
  0
VERTEX
  8
図枠
  5
949
 10
945.350
 20
-707.440
 30
0.000000
  70
    32
  0
VERTEX
  8
図枠
  5
94A
 10
945.396
 20
-707.479
 30
0.000000
  70
    32
  0
VERTEX
  8
図枠
  5
94B
 10
945.442
 20
-707.518
 30
0.000000
  70
    32
  0
VERTEX
  8
図枠
  5
94C
 10
945.489
 20
-707.557
 30
0.000000
  70
    32
  0
VERTEX
  8
図枠
  5
94D
 10
945.535
 20
-707.597
 30
0.000000
  70
    32
  0
VERTEX
  8
図枠
  5
94E
 10
945.581
 20
-707.636
 30
0.000000
  70
    32
  0
VERTEX
  8
図枠
  5
94F
 10
945.628
 20
-707.675
 30
0.000000
  70
    32
  0
VERTEX
  8
図枠
  5
950
 10
945.674
 20
-707.713
 30
0.000000
  70
    32
  0
VERTEX
  8
図枠
  5
951
 10
945.721
 20
-707.752
 30
0.000000
  70
    32
  0
VERTEX
  8
図枠
  5
952
 10
945.767
 20
-707.791
 30
0.000000
  70
    32
  0
VERTEX
  8
図枠
  5
953
 10
945.814
 20
-707.830
 30
0.000000
  70
    32
  0
VERTEX
  8
図枠
  5
954
 10
945.860
 20
-707.868
 30
0.000000
  70
    32
  0
VERTEX
  8
図枠
  5
955
 10
945.907
 20
-707.907
 30
0.000000
  70
    32
  0
VERTEX
  8
図枠
  5
956
 10
945.953
 20
-707.946
 30
0.000000
  70
    32
  0
VERTEX
  8
図枠
  5
957
 10
946.000
 20
-707.984
 30
0.000000
  70
    32
  0
VERTEX
  8
図枠
  5
958
 10
946.047
 20
-708.022
 30
0.000000
  70
    32
  0
VERTEX
  8
図枠
  5
959
 10
946.094
 20
-708.061
 30
0.000000
  70
    32
  0
VERTEX
  8
図枠
  5
95A
 10
946.140
 20
-708.099
 30
0.000000
  70
    32
  0
VERTEX
  8
図枠
  5
95B
 10
946.187
 20
-708.137
 30
0.000000
  70
    32
  0
VERTEX
  8
図枠
  5
95C
 10
946.234
 20
-708.175
 30
0.000000
  70
    32
  0
VERTEX
  8
図枠
  5
95D
 10
946.281
 20
-708.213
 30
0.000000
  70
    32
  0
VERTEX
  8
図枠
  5
95E
 10
946.328
 20
-708.251
 30
0.000000
  70
    32
  0
VERTEX
  8
図枠
  5
95F
 10
946.375
 20
-708.289
 30
0.000000
  70
    32
  0
VERTEX
  8
図枠
  5
960
 10
946.422
 20
-708.326
 30
0.000000
  70
    32
  0
VERTEX
  8
図枠
  5
961
 10
946.469
 20
-708.364
 30
0.000000
  70
    32
  0
VERTEX
  8
図枠
  5
962
 10
946.517
 20
-708.402
 30
0.000000
  70
    32
  0
VERTEX
  8
図枠
  5
963
 10
946.564
 20
-708.439
 30
0.000000
  70
    32
  0
VERTEX
  8
図枠
  5
964
 10
946.611
 20
-708.476
 30
0.000000
  70
    32
  0
VERTEX
  8
図枠
  5
965
 10
946.658
 20
-708.514
 30
0.000000
  70
    32
  0
VERTEX
  8
図枠
  5
966
 10
946.706
 20
-708.551
 30
0.000000
  70
    32
  0
VERTEX
  8
図枠
  5
967
 10
946.753
 20
-708.588
 30
0.000000
  70
    32
  0
VERTEX
  8
図枠
  5
968
 10
946.800
 20
-708.625
 30
0.000000
  70
    32
  0
VERTEX
  8
図枠
  5
969
 10
946.848
 20
-708.662
 30
0.000000
  70
    32
  0
VERTEX
  8
図枠
  5
96A
 10
946.895
 20
-708.699
 30
0.000000
  70
    32
  0
VERTEX
  8
図枠
  5
96B
 10
946.943
 20
-708.736
 30
0.000000
  70
    32
  0
VERTEX
  8
図枠
  5
96C
 10
946.991
 20
-708.773
 30
0.000000
  70
    32
  0
VERTEX
  8
図枠
  5
96D
 10
947.038
 20
-708.809
 30
0.000000
  70
    32
  0
VERTEX
  8
図枠
  5
96E
 10
947.086
 20
-708.846
 30
0.000000
  70
    32
  0
VERTEX
  8
図枠
  5
96F
 10
947.134
 20
-708.882
 30
0.000000
  70
    32
  0
VERTEX
  8
図枠
  5
970
 10
947.182
 20
-708.918
 30
0.000000
  70
    32
  0
VERTEX
  8
図枠
  5
971
 10
947.230
 20
-708.955
 30
0.000000
  70
    32
  0
VERTEX
  8
図枠
  5
972
 10
947.278
 20
-708.991
 30
0.000000
  70
    32
  0
VERTEX
  8
図枠
  5
973
 10
947.326
 20
-709.027
 30
0.000000
  70
    32
  0
VERTEX
  8
図枠
  5
974
 10
947.374
 20
-709.063
 30
0.000000
  70
    32
  0
VERTEX
  8
図枠
  5
975
 10
947.422
 20
-709.099
 30
0.000000
  70
    32
  0
VERTEX
  8
図枠
  5
976
 10
947.470
 20
-709.134
 30
0.000000
  70
    32
  0
VERTEX
  8
図枠
  5
977
 10
947.518
 20
-709.170
 30
0.000000
  70
    32
  0
VERTEX
  8
図枠
  5
978
 10
947.566
 20
-709.206
 30
0.000000
  70
    32
  0
VERTEX
  8
図枠
  5
979
 10
947.615
 20
-709.241
 30
0.000000
  70
    32
  0
VERTEX
  8
図枠
  5
97A
 10
947.663
 20
-709.276
 30
0.000000
  70
    32
  0
VERTEX
  8
図枠
  5
97B
 10
947.711
 20
-709.312
 30
0.000000
  70
    32
  0
VERTEX
  8
図枠
  5
97C
 10
947.760
 20
-709.347
 30
0.000000
  70
    32
  0
VERTEX
  8
図枠
  5
97D
 10
947.808
 20
-709.382
 30
0.000000
  70
    32
  0
VERTEX
  8
図枠
  5
97E
 10
947.857
 20
-709.417
 30
0.000000
  70
    32
  0
VERTEX
  8
図枠
  5
97F
 10
947.906
 20
-709.451
 30
0.000000
  70
    32
  0
VERTEX
  8
図枠
  5
980
 10
947.954
 20
-709.486
 30
0.000000
  70
    32
  0
VERTEX
  8
図枠
  5
981
 10
948.003
 20
-709.521
 30
0.000000
  70
    32
  0
VERTEX
  8
図枠
  5
982
 10
948.052
 20
-709.555
 30
0.000000
  70
    32
  0
VERTEX
  8
図枠
  5
983
 10
948.101
 20
-709.590
 30
0.000000
  70
    32
  0
VERTEX
  8
図枠
  5
984
 10
948.150
 20
-709.624
 30
0.000000
  70
    32
  0
VERTEX
  8
図枠
  5
985
 10
948.199
 20
-709.658
 30
0.000000
  70
    32
  0
VERTEX
  8
図枠
  5
986
 10
948.248
 20
-709.692
 30
0.000000
  70
    32
  0
VERTEX
  8
図枠
  5
987
 10
948.297
 20
-709.726
 30
0.000000
  70
    32
  0
VERTEX
  8
図枠
  5
988
 10
948.346
 20
-709.760
 30
0.000000
  70
    32
  0
VERTEX
  8
図枠
  5
989
 10
948.395
 20
-709.793
 30
0.000000
  70
    32
  0
VERTEX
  8
図枠
  5
98A
 10
948.445
 20
-709.827
 30
0.000000
  70
    32
  0
VERTEX
  8
図枠
  5
98B
 10
948.494
 20
-709.860
 30
0.000000
  70
    32
  0
VERTEX
  8
図枠
  5
98C
 10
948.544
 20
-709.894
 30
0.000000
  70
    32
  0
VERTEX
  8
図枠
  5
98D
 10
948.593
 20
-709.927
 30
0.000000
  70
    32
  0
VERTEX
  8
図枠
  5
98E
 10
948.643
 20
-709.960
 30
0.000000
  70
    32
  0
VERTEX
  8
図枠
  5
98F
 10
948.692
 20
-709.993
 30
0.000000
  70
    32
  0
VERTEX
  8
図枠
  5
990
 10
948.742
 20
-710.026
 30
0.000000
  70
    32
  0
VERTEX
  8
図枠
  5
991
 10
948.792
 20
-710.059
 30
0.000000
  70
    32
  0
VERTEX
  8
図枠
  5
992
 10
948.842
 20
-710.091
 30
0.000000
  70
    32
  0
VERTEX
  8
図枠
  5
993
 10
948.891
 20
-710.124
 30
0.000000
  70
    32
  0
VERTEX
  8
図枠
  5
994
 10
948.941
 20
-710.156
 30
0.000000
  70
    32
  0
VERTEX
  8
図枠
  5
995
 10
948.991
 20
-710.188
 30
0.000000
  70
    32
  0
VERTEX
  8
図枠
  5
996
 10
949.042
 20
-710.221
 30
0.000000
  70
    32
  0
VERTEX
  8
図枠
  5
997
 10
949.092
 20
-710.252
 30
0.000000
  70
    32
  0
VERTEX
  8
図枠
  5
998
 10
949.142
 20
-710.284
 30
0.000000
  70
    32
  0
VERTEX
  8
図枠
  5
999
 10
949.192
 20
-710.316
 30
0.000000
  70
    32
  0
VERTEX
  8
図枠
  5
99A
 10
949.243
 20
-710.348
 30
0.000000
  70
    32
  0
VERTEX
  8
図枠
  5
99B
 10
949.293
 20
-710.379
 30
0.000000
  70
    32
  0
VERTEX
  8
図枠
  5
99C
 10
949.344
 20
-710.410
 30
0.000000
  70
    32
  0
VERTEX
  8
図枠
  5
99D
 10
949.394
 20
-710.442
 30
0.000000
  70
    32
  0
VERTEX
  8
図枠
  5
99E
 10
949.445
 20
-710.473
 30
0.000000
  70
    32
  0
VERTEX
  8
図枠
  5
99F
 10
949.496
 20
-710.504
 30
0.000000
  70
    32
  0
VERTEX
  8
図枠
  5
9A0
 10
949.547
 20
-710.534
 30
0.000000
  70
    32
  0
VERTEX
  8
図枠
  5
9A1
 10
949.597
 20
-710.565
 30
0.000000
  70
    32
  0
SEQEND
  8
図枠
  5
9A2
  0
INSERT
  5
429
  8
0
  6
CONTINUOUS
  2
*U99
 10
0.0
 20
0.0
 30
0.0
  0
INSERT
  5
42A
  8
0
  6
CONTINUOUS
  2
*U100
 10
0.0
 20
0.0
 30
0.0
  0
LINE
  5
42B
  8
図枠
 10
916.32179112130007
 20
-679.37544458000002
 30
0.0
 11
997.57179112130007
 21
-679.37544458000002
 31
0.0
  0
DIMENSION
  5
43B
  8
寸法線
  2
*D19
 10
594.61583780959995
 20
-5.8152830360000003
 30
0.0
 11
594.61583780959995
 21
-30.815283036
 31
0.0
 70
   128
  1
(50)
 13
636.2488707990999
 23
-5.8152830360000003
 33
0.0
 14
649.60824579910002
 24
-55.815283035999997
 34
0.0
 50
90.0
  0
LINE
  5
43C
  8
ﾚｲﾔ_1
 62
     5
 10
633.74887079910002
 20
-21.315283036
 30
0.0
 11
633.74887079910002
 21
-8.3152830360000003
 31
0.0
  0
ARC
  5
43D
  8
ﾚｲﾔ_1
 62
     5
 10
636.2488707990999
 20
-21.315283036
 30
0.0
 40
2.5
 50
180.0
 51
270.0
  0
LINE
  5
43E
  8
ﾚｲﾔ_1
  6
BORDER
 62
     3
 10
626.20131270009995
 20
-178.8976450152
 30
0.0
 11
662.62259774499989
 21
-178.8976450152
 31
0.0
  0
LINE
  5
43F
  8
ﾚｲﾔ_1
  6
BORDER
 62
     3
 10
626.20131270009995
 20
-187.34803564020001
 30
0.0
 11
662.62259774499989
 21
-187.34803564020001
 31
0.0
  0
DIMENSION
  5
44E
  8
寸法線
  2
*D20
 10
562.36762232499996
 20
-1.9152830359999991
 30
0.0
 11
562.36762232499996
 21
11.9025556328
 31
0.0
 70
   128
  1
4
 13
663.34887079910004
 23
-1.9152830359999991
 33
0.0
 14
636.2488707990999
 24
-5.8152830360000003
 34
0.0
 50
90.0
  0
ARC
  5
44F
  8
ﾚｲﾔ_1
 62
     5
 10
636.2488707990999
 20
-8.3152830360000003
 30
0.0
 40
2.5
 50
90.0
 51
180.0
  0
ARC
  5
450
  8
CONSTRUCTION
 62
     5
 10
636.2488707990999
 20
87.790169270799979
 30
0.0
 40
2.5
 50
180.0
 51
270.0
  0
LINE
  5
451
  8
CONSTRUCTION
 62
     5
 10
633.74887079910002
 20
87.790169270799979
 30
0.0
 11
633.74887079910002
 21
157.99016927080001
 31
0.0
  0
ARC
  5
452
  8
CONSTRUCTION
 62
     5
 10
636.2488707990999
 20
157.99016927080001
 30
0.0
 40
2.5
 50
90.0
 51
180.0
  0
LINE
  5
453
  8
ﾚｲﾔ_1
 10
985.22408767390004
 20
58.910144566699991
 30
0.0
 11
861.65428643020005
 21
58.910144566699991
 31
0.0
  0
LINE
  5
454
  8
ﾚｲﾔ_1
 10
861.65428643020005
 20
210.257045237
 30
0.0
 11
985.22408767390004
 21
210.257045237
 31
0.0
  0
LINE
  5
455
  8
ﾚｲﾔ_1
  6
BORDER
 62
     3
 10
884.32154947920003
 20
164.68645833330001
 30
0.0
 11
938.32154947920014
 21
164.68645833330001
 31
0.0
  0
LINE
  5
456
  8
ﾚｲﾔ_1
 62
     5
 10
932.32154947920003
 20
110.6864583333
 30
0.0
 11
964.32154947920003
 21
110.6864583333
 31
0.0
  0
LINE
  5
457
  8
0
 62
     5
 10
960.32154947919992
 20
129.16327833650001
 30
0.0
 11
936.32154947919992
 21
129.16327833650001
 31
0.0
  0
LINE
  5
458
  8
0
 62
     5
 10
936.32154947919992
 20
129.16327833650001
 30
0.0
 11
934.12154947919987
 21
116.6864583333
 31
0.0
  0
LINE
  5
459
  8
0
 62
     5
 10
936.32154947919992
 20
149.68645833330001
 30
0.0
 11
936.32154947919992
 21
129.16327833650001
 31
0.0
  0
INSERT
  5
45A
  8
0
  6
CONTINUOUS
  2
*U101
 10
0.0
 20
0.0
 30
0.0
  0
INSERT
  5
45B
  8
0
  6
CONTINUOUS
  2
*U102
 10
0.0
 20
0.0
 30
0.0
  0
INSERT
  5
45C
  8
0
  6
CONTINUOUS
  2
*U103
 10
0.0
 20
0.0
 30
0.0
  0
INSERT
  5
45D
  8
0
  6
CONTINUOUS
  2
*U104
 10
0.0
 20
0.0
 30
0.0
  0
INSERT
  5
45E
  8
0
  6
CONTINUOUS
  2
*U105
 10
0.0
 20
0.0
 30
0.0
  0
INSERT
  5
45F
  8
0
  6
CONTINUOUS
  2
*U106
 10
0.0
 20
0.0
 30
0.0
  0
INSERT
  5
460
  8
0
  6
CONTINUOUS
  2
*U107
 10
0.0
 20
0.0
 30
0.0
  0
INSERT
  5
461
  8
0
  6
CONTINUOUS
  2
*U108
 10
0.0
 20
0.0
 30
0.0
  0
INSERT
  5
462
  8
0
  6
CONTINUOUS
  2
*U109
 10
0.0
 20
0.0
 30
0.0
  0
INSERT
  5
463
  8
0
  6
CONTINUOUS
  2
*U110
 10
0.0
 20
0.0
 30
0.0
  0
INSERT
  5
464
  8
0
  6
CONTINUOUS
  2
*U111
 10
0.0
 20
0.0
 30
0.0
  0
INSERT
  5
465
  8
0
  6
CONTINUOUS
  2
*U112
 10
0.0
 20
0.0
 30
0.0
  0
LINE
  5
466
  8
図枠
 10
885.07179112130007
 20
-651.87544457999991
 30
0.0
 11
935.07179112130007
 21
-651.87544457999991
 31
0.0
  0
LINE
  5
467
  8
図枠
 10
964.62492249359991
 20
-697.93376216279989
 30
0.0
 11
942.12492249360002
 21
-697.93376216279989
 31
0.0
  0
LINE
  5
468
  8
図枠
 10
942.12492249360002
 20
-715.43376216280001
 30
0.0
 11
948.37492249360002
 21
-715.43376216280001
 31
0.0
  0
LINE
  5
469
  8
図枠
 10
942.12492249360002
 20
-697.93376216279989
 30
0.0
 11
942.12492249360002
 21
-702.43376216279989
 31
0.0
  0
LINE
  5
46A
  8
図枠
 10
942.12492249360002
 20
-702.43376216279989
 30
0.0
 11
954.62492249360002
 21
-702.43376216279989
 31
0.0
  0
LINE
  5
46B
  8
図枠
 10
935.4734073420999
 20
-702.93376216280001
 30
0.0
 11
935.4734073420999
 21
-706.68376216280001
 31
0.0
  0
LINE
  5
46C
  8
図枠
 10
935.4734073420999
 20
-697.93376216279989
 30
0.0
 11
925.4734073420999
 21
-697.93376216279989
 31
0.0
  0
LINE
  5
46D
  8
図枠
 10
931.7234073420999
 20
-706.68376216280001
 30
0.0
 11
935.4734073420999
 21
-706.68376216280001
 31
0.0
  0
LINE
  5
46E
  8
図枠
 10
935.4734073420999
 20
-702.93376216280001
 30
0.0
 11
931.7234073420999
 21
-702.93376216280001
 31
0.0
  0
LINE
  5
46F
  8
図枠
 10
931.7234073420999
 20
-701.68376216280001
 30
0.0
 11
935.4734073420999
 21
-697.93376216279989
 31
0.0
  0
LINE
  5
470
  8
図枠
 10
942.12492249360002
 20
-715.43376216280001
 30
0.0
 11
942.12492249360002
 21
-711.68376216280001
 31
0.0
  0
LINE
  5
471
  8
図枠
 10
942.12492249360002
 20
-711.68376216280001
 30
0.0
 11
942.12492249360002
 21
-715.43376216280001
 31
0.0
  0
LINE
  5
472
  8
図枠
 10
941.32179112130007
 20
-638.12544458000002
 30
0.0
 11
941.32179112130007
 21
-665.62544458000002
 31
0.0
  0
LINE
  5
473
  8
ﾚｲﾔ_1
 62
     5
 10
1044.1617187500001
 20
-374.81528303599998
 30
0.0
 11
1044.1617187500001
 21
-187.34803564020001
 31
0.0
  0
LINE
  5
474
  8
ﾚｲﾔ_1
 62
     5
 10
1058.1617187500001
 20
-374.81528303599998
 30
0.0
 11
1058.1617187500001
 21
-188.31642049039999
 31
0.0
  0
LINE
  5
475
  8
ﾚｲﾔ_1
 62
     5
 10
1059.1617187500001
 20
-374.81528303599998
 30
0.0
 11
1059.1617187500001
 21
-188.8006129156
 31
0.0
  0
LINE
  5
476
  8
ﾚｲﾔ_1
 62
     5
 10
1043.1617187500001
 20
-374.81528303599998
 30
0.0
 11
1043.1617187500001
 21
-187.34803564020001
 31
0.0
  0
LINE
  5
477
  8
図枠
 62
     5
 10
1178.8217911213001
 20
279.37455541999998
 30
0.0
 11
1178.8217911213001
 21
-720.62544457999991
 31
0.0
  0
LINE
  5
478
  8
ﾚｲﾔ_1
 10
720.56878752660009
 20
-119.41743399560001
 30
0.0
 11
792.18315419600003
 21
-119.41743399560001
 31
0.0
  0
INSERT
  5
479
  8
0
  6
CONTINUOUS
  2
*U113
 10
0.0
 20
0.0
 30
0.0
  0
DIMENSION
  5
488
  8
寸法線
  2
*D21
 10
594.18536755399987
 20
-401.81528303599998
 30
0.0
 11
594.18536755399987
 21
-451.81528303599998
 31
0.0
 70
   128
  1
200
 13
649.60824579910002
 23
-401.81528303599998
 33
0.0
 14
638.04887079909997
 24
-501.81528303599998
 34
0.0
 50
90.0
  0
LINE
  5
489
  8
ﾚｲﾔ_1
 62
     5
 10
635.54887079910009
 20
-485.51528303599991
 30
0.0
 11
707.1488707991
 21
-485.51528303599991
 31
0.0
  0
LINE
  5
48A
  8
ﾚｲﾔ_1
 62
     5
 10
635.54887079910009
 20
-485.51528303599991
 30
0.0
 11
635.54887079910009
 21
-499.31528303599993
 31
0.0
  0
LINE
  5
48B
  8
ﾚｲﾔ_1
 62
     5
 10
707.1488707991
 20
-485.51528303599991
 30
0.0
 11
707.1488707991
 21
-499.31528303599993
 31
0.0
  0
INSERT
  5
48D
  8
ﾚｲﾔ_1
  2
*X22
 10
0.0
 20
0.0
 30
0.0
  0
INSERT
  5
4A4
  8
寸法線
  2
BALLON9
 10
0.0
 20
0.0
 30
0.0
  0
LINE
  5
4AD
  8
ﾚｲﾔ_1
 62
     5
 10
1022.16171875
 20
-416.81528303599993
 30
0.0
 11
1022.16171875
 21
-499.31528303599993
 31
0.0
  0
LINE
  5
4AE
  8
ﾚｲﾔ_1
 62
     5
 10
1021.16171875
 20
-416.81528303599993
 30
0.0
 11
1021.16171875
 21
-485.51528303599991
 31
0.0
  0
LINE
  5
4AF
  8
ﾚｲﾔ_1
 62
     5
 10
883.63916367910008
 20
-485.51528303599991
 30
0.0
 11
883.63916367910008
 21
-499.31528303599993
 31
0.0
  0
LINE
  5
4B0
  8
ﾚｲﾔ_1
 62
     5
 10
812.03916367910006
 20
-485.51528303599991
 30
0.0
 11
812.03916367910006
 21
-499.31528303599993
 31
0.0
  0
LINE
  5
4B1
  8
ﾚｲﾔ_1
 62
     5
 10
812.03916367910006
 20
-485.51528303599991
 30
0.0
 11
883.63916367910008
 21
-485.51528303599991
 31
0.0
  0
LINE
  5
4B2
  8
ﾚｲﾔ_1
 62
     5
 10
1021.16171875
 20
-485.51528303599991
 30
0.0
 11
1021.16171875
 21
-499.31528303599993
 31
0.0
  0
LINE
  5
4B3
  8
ﾚｲﾔ_1
 62
     5
 10
1020.36171875
 20
-485.51528303599991
 30
0.0
 11
1020.36171875
 21
-499.31528303599993
 31
0.0
  0
LINE
  5
4B4
  8
ﾚｲﾔ_1
 62
     5
 10
1020.36171875
 20
-485.51528303599991
 30
0.0
 11
1021.16171875
 21
-485.51528303599991
 31
0.0
  0
DIMENSION
  5
4C3
  8
寸法線
  2
*D24
 10
706.34887079910004
 20
39.823259139299999
 30
0.0
 11
671.34887079910004
 21
39.823259139299999
 31
0.0
 70
   128
  1
□70
 13
706.34887079910004
 23
-23.815283036
 33
0.0
 14
636.34887079910004
 24
-23.815283036
 34
0.0
  0
INSERT
  5
4C5
  8
寸法線
  2
BALLON10
 10
0.0
 20
0.0
 30
0.0
  0
DIMENSION
  5
4DC
  8
寸法線
  2
*D26
 10
885.43916367910003
 20
42.246888722899989
 30
0.0
 11
847.83916367910001
 21
42.246888722899989
 31
0.0
 70
   128
  1
□75
 13
885.43916367910003
 23
-8.3152830360000003
 33
0.0
 14
810.23916367909987
 24
-8.3152830360000003
 34
0.0
  0
INSERT
  5
4DE
  8
寸法線
  2
BALLON11
 10
0.0
 20
0.0
 30
0.0
  0
ARC
  5
4E7
  8
ﾚｲﾔ_1
 62
     5
 10
1091.26171875
 20
-8.3152830360000003
 30
0.0
 40
1.5
 50
0.0
 51
90.0
  0
ARC
  5
4E8
  8
ﾚｲﾔ_1
 62
     5
 10
1091.26171875
 20
-8.3152830360000003
 30
0.0
 40
2.5
 50
0.0
 51
90.0
  0
LINE
  5
4E9
  8
ﾚｲﾔ_1
  6
BORDER
 62
     3
 10
1090.9066512694001
 20
210.257045237
 30
0.0
 11
1090.9066512694001
 21
113.776037425
 31
0.0
  0
ARC
  5
4EA
  8
ﾚｲﾔ_1
  6
BORDER
 62
     3
 10
1080.9066512694001
 20
113.776037425
 30
0.0
 40
10.0
 50
270.0
 51
0.0
  0
LINE
  5
4EB
  8
ﾚｲﾔ_1
 62
     5
 10
1074.9066512694001
 20
157.776037425
 30
0.0
 11
1106.9066512694001
 21
157.776037425
 31
0.0
  0
LINE
  5
4EC
  8
ﾚｲﾔ_1
 62
     5
 10
1102.9066512694001
 20
139.29921742179999
 30
0.0
 11
1078.9066512694001
 21
139.29921742179999
 31
0.0
  0
ARC
  5
4ED
  8
ﾚｲﾔ_1
 62
     5
 10
1080.9066512694001
 20
110.776037425
 30
0.0
 40
22.0
 50
270.0
 51
0.0
  0
LINE
  5
4EE
  8
ﾚｲﾔ_1
 62
     5
 10
1105.1866512694
 20
153.44413344559999
 30
0.0
 11
1076.6266512694001
 21
153.44413344559999
 31
0.0
  0
LINE
  5
4EF
  8
ﾚｲﾔ_1
 62
     5
 10
1106.7866512694
 20
151.776037425
 30
0.0
 11
1075.0266512694
 21
151.776037425
 31
0.0
  0
LINE
  5
4F0
  8
ﾚｲﾔ_1
 62
     5
 10
1107.2066512694
 20
157.776037425
 30
0.0
 11
1074.6066512693999
 21
157.776037425
 31
0.0
  0
INSERT
  5
4F2
  8
ﾚｲﾔ_1
  2
*X28
 10
0.0
 20
0.0
 30
0.0
  0
INSERT
  5
50C
  8
ﾚｲﾔ_1
  2
*X29
 10
0.0
 20
0.0
 30
0.0
  0
INSERT
  5
52C
  8
寸法線
  2
BALLON12
 10
0.0
 20
0.0
 30
0.0
  0
LINE
  5
535
  8
ﾚｲﾔ_1
 62
     5
 10
1022.16171875
 20
-187.34803564020001
 30
0.0
 11
1022.16171875
 21
-386.81528303599998
 31
0.0
  0
LINE
  5
536
  8
ﾚｲﾔ_1
 62
     5
 10
1021.16171875
 20
-187.34803564020001
 30
0.0
 11
1021.16171875
 21
-386.81528303599998
 31
0.0
  0
DIMENSION
  5
545
  8
寸法線
  2
*D31
 10
594.36241144849987
 20
-55.815283035999997
 30
0.0
 11
594.36241144849987
 21
-233.8749703524
 31
0.0
 70
   128
  1
750
 13
649.60824579910002
 23
-55.815283035999997
 33
0.0
 14
649.60824579910002
 24
-401.81528303599998
 34
0.0
 50
90.0
  0
DIMENSION
  5
554
  8
寸法線
  2
*D32
 10
562.17924952220005
 20
-5.8152830360000003
 30
0.0
 11
562.17924952220005
 21
-258.20842111140001
 31
0.0
 70
   128
  1
1000
 13
638.04887079909997
 23
-5.8152830360000003
 33
0.0
 14
638.04887079909997
 24
-501.81528303599998
 34
0.0
 50
90.0
  0
LINE
  5
555
  8
ﾚｲﾔ_1
 62
     5
 10
636.34887079910004
 20
-187.34803564020001
 30
0.0
 11
636.34887079910004
 21
-485.51528303599991
 31
0.0
  0
LINE
  5
556
  8
ﾚｲﾔ_1
 62
     5
 10
706.34887079910004
 20
-187.34803564020001
 30
0.0
 11
706.34887079910004
 21
-485.51528303599991
 31
0.0
  0
LINE
  5
557
  8
ﾚｲﾔ_1
  6
BORDER
 62
     3
 10
671.34887079910004
 20
3.0847169639999992
 30
0.0
 11
671.34887079910004
 21
-506.81528303599993
 31
0.0
  0
LINE
  5
558
  8
ﾚｲﾔ_1
 62
     5
 10
882.83916367910001
 20
-187.34803564020001
 30
0.0
 11
882.83916367910001
 21
-485.51528303599991
 31
0.0
  0
LINE
  5
559
  8
ﾚｲﾔ_1
 62
     5
 10
812.83916367910001
 20
-187.34803564020001
 30
0.0
 11
812.83916367910001
 21
-485.51528303599991
 31
0.0
  0
LINE
  5
55A
  8
図枠
  6
DOT
 10
480.87179112129991
 20
293.72455542
 30
0.0
 11
480.87179112129991
 21
-734.97544458000004
 31
0.0
  0
LINE
  5
55B
  8
図枠
 62
     5
 10
495.0717911212999
 20
279.37455541999998
 30
0.0
 11
495.0717911212999
 21
-720.62544457999991
 31
0.0
  0
LINE
  5
55C
  8
ﾚｲﾔ_1
  6
BORDER
 62
     3
 10
1051.1617187500001
 20
-60.815282553999999
 30
0.0
 11
1051.1617187500001
 21
-396.81528303599998
 31
0.0
  0
INSERT
  5
55D
  8
0
  6
CONTINUOUS
  2
*U118
 10
0.0
 20
0.0
 30
0.0
  0
INSERT
  5
55E
  8
0
  6
CONTINUOUS
  2
*U119
 10
0.0
 20
0.0
 30
0.0
  0
INSERT
  5
55F
  8
0
  6
CONTINUOUS
  2
*U120
 10
0.0
 20
0.0
 30
0.0
  0
INSERT
  5
560
  8
0
  6
CONTINUOUS
  2
*U121
 10
0.0
 20
0.0
 30
0.0
  0
INSERT
  5
561
  8
0
  6
CONTINUOUS
  2
*U122
 10
0.0
 20
0.0
 30
0.0
  0
ARC
  5
562
  8
ﾚｲﾔ_1
 62
     5
 10
1089.46171875
 20
-499.31528303599993
 30
0.0
 40
2.5
 50
270.0
 51
0.0
  0
LINE
  5
563
  8
ﾚｲﾔ_1
 62
     5
 10
1090.1617187500001
 20
-499.31528303599993
 30
0.0
 11
1091.1617187500001
 21
-499.31528303599993
 31
0.0
  0
LINE
  5
564
  8
ﾚｲﾔ_1
 62
     5
 10
1091.96171875
 20
-485.51528303599991
 30
0.0
 11
1091.96171875
 21
-499.31528303599993
 31
0.0
  0
LINE
  5
565
  8
ﾚｲﾔ_1
 62
     5
 10
1091.1617187500001
 20
-485.51528303599991
 30
0.0
 11
1091.1617187500001
 21
-499.31528303599993
 31
0.0
  0
LINE
  5
566
  8
ﾚｲﾔ_1
 62
     5
 10
1091.1617187500001
 20
-485.51528303599991
 30
0.0
 11
1091.96171875
 21
-485.51528303599991
 31
0.0
  0
ARC
  5
567
  8
ﾚｲﾔ_1
 62
     5
 10
1089.6617187500001
 20
-499.31528303599993
 30
0.0
 40
1.5
 50
270.0
 51
0.0
  0
LINE
  5
568
  8
ﾚｲﾔ_1
 62
     5
 10
1021.06171875
 20
-6.8152830360000003
 30
0.0
 11
1091.26171875
 21
-6.8152830360000003
 31
0.0
  0
LINE
  5
569
  8
ﾚｲﾔ_1
 62
     5
 10
1019.56171875
 20
-7.8152830360000003
 30
0.0
 11
1092.76171875
 21
-7.8152830360000003
 31
0.0
  0
LINE
  5
56A
  8
ﾚｲﾔ_1
  6
BORDER
 62
     3
 10
1064.8879918041
 20
-178.8976450152
 30
0.0
 11
1102.692285651
 21
-178.8976450152
 31
0.0
  0
LINE
  5
56B
  8
ﾚｲﾔ_1
  6
BORDER
 62
     3
 10
1064.8879918041
 20
-187.34803564020001
 30
0.0
 11
1102.692285651
 21
-187.34803564020001
 31
0.0
  0
LINE
  5
56C
  8
ﾚｲﾔ_1
 62
     5
 10
1091.1617187500001
 20
-19.815283036
 30
0.0
 11
1091.26171875
 21
-19.815283036
 31
0.0
  0
LINE
  5
56D
  8
ﾚｲﾔ_1
 62
     5
 10
1091.1617187500001
 20
-19.815283036
 30
0.0
 11
1091.1617187500001
 21
-178.8976450152
 31
0.0
  0
LINE
  5
56E
  8
ﾚｲﾔ_1
 62
     5
 10
1093.76171875
 20
-21.315283036
 30
0.0
 11
1093.76171875
 21
-8.3152830360000003
 31
0.0
  0
LINE
  5
56F
  8
ﾚｲﾔ_1
 62
     5
 10
1092.76171875
 20
-8.3152830360000003
 30
0.0
 11
1092.76171875
 21
-21.315283036
 31
0.0
  0
LINE
  5
570
  8
ﾚｲﾔ_1
 62
     5
 10
1091.1617187500001
 20
-19.815283036
 30
0.0
 11
1091.1617187500001
 21
-7.8152830360000003
 31
0.0
  0
LINE
  5
571
  8
ﾚｲﾔ_1
 62
     5
 10
1090.1617187500001
 20
-7.8152830360000003
 30
0.0
 11
1090.1617187500001
 21
-178.8976450152
 31
0.0
  0
ARC
  5
572
  8
ﾚｲﾔ_1
 62
     5
 10
1091.26171875
 20
-21.315283036
 30
0.0
 40
1.5
 50
270.0
 51
0.0
  0
ARC
  5
573
  8
ﾚｲﾔ_1
 62
     5
 10
1091.26171875
 20
-21.315283036
 30
0.0
 40
2.5
 50
270.0
 51
0.0
  0
LINE
  5
574
  8
ﾚｲﾔ_1
 62
     5
 10
1091.1617187500001
 20
-18.815283036
 30
0.0
 11
1091.26171875
 21
-18.815283036
 31
0.0
  0
LINE
  5
575
  8
ﾚｲﾔ_1
 62
     5
 10
1080.1617187500001
 20
-5.8152830360000003
 30
0.0
 11
1091.26171875
 21
-5.8152830360000003
 31
0.0
  0
INSERT
  5
577
  8
図枠
  2
CLUMP3
 10
0.0
 20
0.0
 30
0.0
  0
INSERT
  5
581
  8
図枠
  2
CLUMP4
 10
0.0
 20
0.0
 30
0.0
  0
INSERT
  5
58B
  8
図枠
  2
CLUMP5
 10
0.0
 20
0.0
 30
0.0
  0
LINE
  5
594
  8
図枠
 10
1178.8217911213001
 20
-625.62544458000002
 30
0.0
 11
816.32179112130007
 21
-625.62544458000002
 31
0.0
  0
LINE
  5
595
  8
図枠
 10
1178.8217911213001
 20
-638.12544458000002
 30
0.0
 11
816.32179112130007
 21
-638.12544458000002
 31
0.0
  0
LINE
  5
596
  8
図枠
 10
816.32179112130007
 20
-693.12544458000002
 30
0.0
 11
1178.8217911213001
 21
-693.12544458000002
 31
0.0
  0
LINE
  5
597
  8
図枠
 10
816.32179112130007
 20
-665.62544458000002
 30
0.0
 11
1178.8217911213001
 21
-665.62544458000002
 31
0.0
  0
LINE
  5
598
  8
図枠
 62
     5
 10
1178.8217911213001
 20
-720.62544457999991
 30
0.0
 11
495.0717911212999
 21
-720.62544457999991
 31
0.0
  0
LINE
  5
599
  8
図枠
 62
     5
 10
1178.8217911213001
 20
279.37455541999998
 30
0.0
 11
495.0717911212999
 21
279.37455541999998
 31
0.0
  0
LINE
  5
59A
  8
図枠
  6
DOT
 10
1193.0217911213001
 20
293.72455542
 30
0.0
 11
480.87179112129991
 21
293.72455542
 31
0.0
  0
INSERT
  5
59B
  8
0
  6
CONTINUOUS
  2
*U123
 10
0.0
 20
0.0
 30
0.0
  0
INSERT
  5
59C
  8
0
  6
CONTINUOUS
  2
*U124
 10
0.0
 20
0.0
 30
0.0
  0
INSERT
  5
59D
  8
0
  6
CONTINUOUS
  2
*U125
 10
0.0
 20
0.0
 30
0.0
  0
INSERT
  5
59E
  8
0
  6
CONTINUOUS
  2
*U126
 10
0.0
 20
0.0
 30
0.0
  0
LINE
  5
59F
  8
ﾚｲﾔ_1
 10
1127.8091894642
 20
58.910144566699991
 30
0.0
 11
1004.2393882204
 21
58.910144566699991
 31
0.0
  0
LINE
  5
5A0
  8
ﾚｲﾔ_1
 10
1004.2393882204
 20
210.257045237
 30
0.0
 11
1127.8091894642
 21
210.257045237
 31
0.0
  0
INSERT
  5
5A1
  8
0
  6
CONTINUOUS
  2
*U127
 10
0.0
 20
0.0
 30
0.0
  0
INSERT
  5
5A2
  8
0
  6
CONTINUOUS
  2
*U128
 10
0.0
 20
0.0
 30
0.0
  0
LINE
  5
5A3
  8
図枠
 62
     5
 10
943.82179112129995
 20
241.87455542000001
 30
0.0
 11
1178.8217911213001
 21
241.87455542000001
 31
0.0
  0
LINE
  5
5A4
  8
図枠
 62
     5
 10
943.82179112129995
 20
266.87455541999998
 30
0.0
 11
1178.8217911213001
 21
266.87455541999998
 31
0.0
  0
LINE
  5
5A5
  8
図枠
 62
     5
 10
943.82179112129995
 20
254.37455542000001
 30
0.0
 11
1178.8217911213001
 21
254.37455542000001
 31
0.0
  0
ARC
  5
5A6
  8
ﾚｲﾔ_1
 62
     5
 10
1086.4066512694001
 20
99.776037425000013
 30
0.0
 40
22.0
 50
270.0
 51
0.0
  0
INSERT
  5
5A7
  8
0
  6
CONTINUOUS
  2
*U129
 10
0.0
 20
0.0
 30
0.0
  0
INSERT
  5
5A8
  8
0
  6
CONTINUOUS
  2
*U130
 10
0.0
 20
0.0
 30
0.0
  0
INSERT
  5
5A9
  8
0
  6
CONTINUOUS
  2
*U131
 10
0.0
 20
0.0
 30
0.0
  0
LINE
  5
5BB
  8
ﾚｲﾔ_1
 62
     5
 10
1091.1617187500001
 20
-187.34803564020001
 30
0.0
 11
1091.1617187500001
 21
-485.51528303599991
 31
0.0
  0
LINE
  5
5BC
  8
ﾚｲﾔ_1
 62
     5
 10
1090.1617187500001
 20
-187.34803564020001
 30
0.0
 11
1090.1617187500001
 21
-499.31528303599993
 31
0.0
  0
INSERT
  5
5BD
  8
0
  6
CONTINUOUS
  2
*U132
 10
0.0
 20
0.0
 30
0.0
  0
INSERT
  5
5BF
  8
図枠
  2
CLUMP6
 10
0.0
 20
0.0
 30
0.0
  0
INSERT
  5
5C9
  8
図枠
  2
CLUMP7
 10
0.0
 20
0.0
 30
0.0
  0
LINE
  5
5D2
  8
図枠
 10
1178.8217911213001
 20
-638.12544458000002
 30
0.0
 11
816.32179112130007
 21
-638.12544458000002
 31
0.0
  0
LINE
  5
5D3
  8
図枠
 10
816.32179112130007
 20
-638.12544458000002
 30
0.0
 11
1178.8217911213001
 21
-638.12544458000002
 31
0.0
  0
INSERT
  5
5D5
  8
図枠
  2
CLUMP8
 10
0.0
 20
0.0
 30
0.0
  0
INSERT
  5
5DF
  8
図枠
  2
CLUMP9
 10
0.0
 20
0.0
 30
0.0
  0
ENDSEC
  0
EOF
