  0
SECTION
  2
HEADER
  9
$ACADVER
  1
AC1009
  9
$INSBASE
 10
0.0
 20
0.0
 30
0.0
  9
$EXTMIN
 10
436.69604258872999
 20
-501.16791257301833
 30
-0.0015258207003583
  9
$EXTMAX
 10
1236.79321106009
 20
58.866267114521413
 30
0.0000000349246037
  9
$LIMMIN
 10
0.0
 20
0.0
  9
$LIMMAX
 10
0.0
 20
0.0
  9
$ORTHOMODE
 70
     0
  9
$REGENMODE
 70
     1
  9
$FILLMODE
 70
     1
  9
$QTEXTMODE
 70
     0
  9
$MIRRTEXT
 70
     1
  9
$DRAGMODE
 70
     2
  9
$LTSCALE
 40
1.0
  9
$OSMODE
 70
    31
  9
$ATTMODE
 70
     1
  9
$TEXTSIZE
 40
0.0
  9
$TRACEWID
 40
0.05
  9
$TEXTSTYLE
  7
STANDARD
  9
$CLAYER
  8
0
  9
$CELTYPE
  6
CONTINUOUS
  9
$CECOLOR
 62
   256
  9
$DIMSCALE
 40
1.0
  9
$DIMASZ
 40
0.18
  9
$DIMEXO
 40
0.0625
  9
$DIMDLI
 40
0.38
  9
$DIMRND
 40
0.0
  9
$DIMDLE
 40
0.0
  9
$DIMEXE
 40
0.18
  9
$DIMTP
 40
0.0
  9
$DIMTM
 40
0.0
  9
$DIMTXT
 40
0.18
  9
$DIMCEN
 40
0.09
  9
$DIMTSZ
 40
0.0
  9
$DIMTOL
 70
     0
  9
$DIMLIM
 70
     0
  9
$DIMTIH
 70
     1
  9
$DIMTOH
 70
     1
  9
$DIMSE1
 70
     0
  9
$DIMSE2
 70
     0
  9
$DIMTAD
 70
     0
  9
$DIMZIN
 70
     0
  9
$DIMBLK
  1

  9
$DIMASO
 70
     1
  9
$DIMSHO
 70
     1
  9
$DIMPOST
  1

  9
$DIMAPOST
  1

  9
$DIMALT
 70
     0
  9
$DIMALTD
 70
     2
  9
$DIMALTF
 40
25.399999999999999
  9
$DIMLFAC
 40
1.0
  9
$DIMTOFL
 70
     0
  9
$DIMTVP
 40
0.0
  9
$DIMTIX
 70
     0
  9
$DIMSOXD
 70
     0
  9
$DIMSAH
 70
     0
  9
$DIMBLK1
  1

  9
$DIMBLK2
  1

  9
$DIMSTYLE
  2
STANDARD
  9
$DIMCLRD
 70
     0
  9
$DIMCLRE
 70
     0
  9
$DIMCLRT
 70
     0
  9
$DIMTFAC
 40
1.0
  9
$DIMGAP
 40
0.09
  9
$LUNITS
 70
     2
  9
$LUPREC
 70
     4
  9
$SKETCHINC
 40
0.1
  9
$FILLETRAD
 40
0.0
  9
$AUNITS
 70
     0
  9
$AUPREC
 70
     0
  9
$MENU
  1
acad
  9
$ELEVATION
 40
0.0
  9
$PELEVATION
 40
0.0
  9
$THICKNESS
 40
0.0
  9
$LIMCHECK
 70
     0
  9
$BLIPMODE
 70
     0
  9
$CHAMFERA
 40
0.0
  9
$CHAMFERB
 40
0.0
  9
$SKPOLY
 70
     0
  9
$TDCREATE
 40
2454862.4737791088
  9
$TDUPDATE
 40
2454862.474655672
  9
$TDINDWG
 40
0.0008989815
  9
$TDUSRTIMER
 40
0.0008984375
  9
$USRTIMER
 70
     1
  9
$ANGBASE
 50
0.0
  9
$ANGDIR
 70
     0
  9
$PDMODE
 70
     3
  9
$PDSIZE
 40
-1.0
  9
$PLINEWID
 40
0.0
  9
$COORDS
 70
     2
  9
$SPLFRAME
 70
     0
  9
$SPLINETYPE
 70
     6
  9
$SPLINESEGS
 70
     8
  9
$ATTDIA
 70
     0
  9
$ATTREQ
 70
     1
  9
$HANDLING
 70
     1
  9
$HANDSEED
  5
5BF
  9
$SURFTAB1
 70
     6
  9
$SURFTAB2
 70
     6
  9
$SURFTYPE
 70
     6
  9
$SURFU
 70
     6
  9
$SURFV
 70
     6
  9
$UCSNAME
  2

  9
$UCSORG
 10
0.0
 20
0.0
 30
0.0
  9
$UCSXDIR
 10
1.0
 20
0.0
 30
0.0
  9
$UCSYDIR
 10
0.0
 20
1.0
 30
0.0
  9
$PUCSNAME
  2

  9
$PUCSORG
 10
0.0
 20
0.0
 30
0.0
  9
$PUCSXDIR
 10
1.0
 20
0.0
 30
0.0
  9
$PUCSYDIR
 10
0.0
 20
1.0
 30
0.0
  9
$USERI1
 70
     0
  9
$USERI2
 70
     0
  9
$USERI3
 70
     0
  9
$USERI4
 70
     0
  9
$USERI5
 70
     0
  9
$USERR1
 40
0.0
  9
$USERR2
 40
0.0
  9
$USERR3
 40
0.0
  9
$USERR4
 40
0.0
  9
$USERR5
 40
0.0
  9
$WORLDVIEW
 70
     1
  9
$SHADEDGE
 70
     3
  9
$SHADEDIF
 70
    70
  9
$TILEMODE
 70
     1
  9
$MAXACTVP
 70
    16
  9
$PLIMCHECK
 70
     0
  9
$PEXTMIN
 10
1.0000000000000000E+020
 20
1.0000000000000000E+020
 30
1.0000000000000000E+020
  9
$PEXTMAX
 10
-1.0000000000000000E+020
 20
-1.0000000000000000E+020
 30
-1.0000000000000000E+020
  9
$PLIMMIN
 10
0.0
 20
0.0
  9
$PLIMMAX
 10
12.0
 20
9.0
  9
$UNITMODE
 70
     0
  9
$VISRETAIN
 70
     0
  9
$PLINEGEN
 70
     1
  9
$PSLTSCALE
 70
     0
  0
ENDSEC
  0
SECTION
  2
TABLES
  0
TABLE
  2
VPORT
 70
     2
  0
VPORT
  2
*ACTIVE
 70
     0
 10
0.0
 20
0.0
 11
1.0
 21
1.0
 12
836.74462682441026
 22
-221.15082272924849
 13
0.0
 23
0.0
 14
1.0
 24
1.0
 15
0.0
 25
0.0
 16
0.0
 26
0.0
 36
1.0
 17
0.0
 27
0.0
 37
0.0
 40
564.68176624096338
 41
1.6343490304709141
 42
50.0
 43
0.0
 44
0.0
 50
0.0
 51
0.0
 71
     0
 72
   100
 73
     1
 74
     1
 75
     0
 76
     0
 77
     0
 78
     0
  0
ENDTAB
  0
TABLE
  2
LTYPE
 70
    11
  0
LTYPE
  2
CONTINUOUS
 70
     0
  3
Solid line
 72
    65
 73
     0
 40
0.0
  0
LTYPE
  2
DOT
 70
     0
  3
. . . . . . . . 
 72
    65
 73
     2
 40
1.0
 49
0.0
 49
-1.0
  0
LTYPE
  2
DASHED
 70
     0
  3
___  ___  ___  ___  
 72
    65
 73
     2
 40
4.0
 49
3.0
 49
-1.0
  0
LTYPE
  2
HIDDEN
 70
     0
  3
__ __ __ __ 
 72
    65
 73
     2
 40
3.0
 49
2.0
 49
-1.0
  0
LTYPE
  2
STITCH
 70
     0
  3
_ _ _ _ 
 72
    65
 73
     2
 40
2.0
 49
1.0
 49
-1.0
  0
LTYPE
  2
CENTER
 70
     0
  3
______  __  ______  __  
 72
    65
 73
     4
 40
43.0
 49
40.0
 49
-1.0
 49
1.0
 49
-1.0
  0
LTYPE
  2
DASHDOT
 70
     0
  3
____ . ____ . 
 72
    65
 73
     4
 40
32.0
 49
30.0
 49
-1.0
 49
0.0
 49
-1.0
  0
LTYPE
  2
BORDER
 70
     0
  3
__ . __ . 
 72
    65
 73
     4
 40
22.0
 49
20.0
 49
-1.0
 49
0.0
 49
-1.0
  0
LTYPE
  2
CUTTING
 70
     0
  3
________   ___   ___   
 72
    65
 73
     6
 40
45.0
 49
40.0
 49
-1.0
 49
1.0
 49
-1.0
 49
1.0
 49
-1.0
  0
LTYPE
  2
PHANTOM
 70
     0
  3
______  __  __  
 72
    65
 73
     6
 40
35.0
 49
30.0
 49
-1.0
 49
1.0
 49
-1.0
 49
1.0
 49
-1.0
  0
LTYPE
  2
DIVIDE
 70
     0
  3
____ . . ____ . . 
 72
    65
 73
     6
 40
23.0
 49
20.0
 49
-1.0
 49
0.0
 49
-1.0
 49
0.0
 49
-1.0
  0
ENDTAB
  0
TABLE
  2
LAYER
 70
     3
  0
LAYER
  2
0
 70
     0
 62
     7
  6
CONTINUOUS
  0
LAYER
  2
Éíû@É³
 70
     0
 62
     7
  6
CONTINUOUS
  0
LAYER
  2
┌▓È_1
 70
     0
 62
     7
  6
CONTINUOUS
  0
ENDTAB
  0
TABLE
  2
STYLE
 70
     1
  0
STYLE
  2
STANDARD
 70
     0
 40
0.0
 41
1.0
 50
0.0
 71
     0
 42
0.0
  3
txt
  4
extfont
  0
ENDTAB
  0
TABLE
  2
VIEW
 70
     0
  0
ENDTAB
  0
TABLE
  2
UCS
 70
     0
  0
ENDTAB
  0
TABLE
  2
APPID
 70
     2
  0
APPID
  2
ACAD
 70
     0
  0
APPID
  2
DCO15
 70
     0
  0
ENDTAB
  0
TABLE
  2
DIMSTYLE
 70
     2
  0
DIMSTYLE
  2
STANDARD
 70
     0
  3

  4

  5

  6

  7

 40
1.0
 41
0.18
 42
0.0625
 43
0.38
 44
0.18
 45
0.0
 46
0.0
 47
0.0
 48
0.0
140
0.18
141
0.09
142
0.0
143
25.399999999999999
144
1.0
145
0.0
146
1.0
147
0.09
 71
     0
 72
     0
 73
     1
 74
     1
 75
     0
 76
     0
 77
     0
 78
     0
170
     0
171
     2
172
     0
173
     0
174
     0
175
     0
176
     0
177
     0
178
     0
  0
DIMSTYLE
  2
VELDIM0
 70
     0
  3

  4

  5

  6

  7

 40
1.0
 41
6.0
 42
0.0625
 43
0.38
 44
0.5
 45
0.0
 46
3.0
 47
0.0
 48
0.0
140
5.9972220420999998
141
0.09
142
0.0
143
25.399999999999999
144
1.0
145
0.0
146
1.0
147
0.09
 71
     0
 72
     0
 73
     0
 74
     0
 75
     0
 76
     0
 77
     0
 78
     8
170
     0
171
     2
172
     0
173
     0
174
     0
175
     0
176
     0
177
     0
178
     0
  0
ENDTAB
  0
ENDSEC
  0
SECTION
  2
BLOCKS
  0
BLOCK
  8
0
  2
$MODEL_SPACE
 70
     0
 10
0.0
 20
0.0
 30
0.0
  3
$MODEL_SPACE
  1

  0
ENDBLK
  5
E
  8
0
  0
BLOCK
 67
     1
  8
0
  2
$PAPER_SPACE
 70
     0
 10
0.0
 20
0.0
 30
0.0
  3
$PAPER_SPACE
  1

  0
ENDBLK
  5
10
 67
     1
  8
0
  0
BLOCK
  8
0
  2
*D0
 70
     1
 10
0.0
 20
0.0
 30
0.0
  3
*D0
  1

  0
TEXT
  5
31
  8
0
 62
     0
 10
813.90939044789991
 20
-214.34296090390001
 30
0.0
 40
5.9972220420999998
  1
10
 50
90.0
  0
LINE
  5
32
  8
0
 62
     0
 10
796.96772374950001
 20
-215.8151832321
 30
0.0
 11
816.46772374950001
 21
-215.8151832321
 31
0.0
  0
LINE
  5
33
  8
0
 62
     0
 10
786.9677237494999
 20
-205.8151832321
 30
0.0
 11
816.46772374950001
 21
-205.8151832321
 31
0.0
  0
LINE
  5
34
  8
0
 62
     0
 10
815.9677237494999
 20
-215.8151832321
 30
0.0
 11
815.9677237494999
 21
-215.8151832321
 31
0.0
  0
LINE
  5
35
  8
0
 62
     0
 10
815.9677237494999
 20
-215.8151832321
 30
0.0
 11
815.9677237494999
 21
-205.8151832321
 31
0.0
  0
LINE
  5
36
  8
0
 62
     0
 10
815.9677237494999
 20
-205.8151832321
 30
0.0
 11
815.9677237494999
 21
-215.8151832321
 31
0.0
  0
LINE
  5
37
  8
0
 62
     0
 10
815.9677237494999
 20
-205.8151832321
 30
0.0
 11
815.9677237494999
 21
-205.8151832321
 31
0.0
  0
LINE
  5
38
  8
0
 62
     0
 10
815.9677237494999
 20
-205.8151832321
 30
0.0
 11
815.9677237494999
 21
-202.8151832321
 31
0.0
  0
SOLID
  5
39
  8
0
 62
     0
 10
815.9677237494999
 20
-205.8151832321
 30
0.0
 11
814.4677237494999
 21
-199.8151832321
 31
0.0
 12
817.46772374950001
 22
-199.8151832321
 32
0.0
 13
815.9677237494999
 23
-201.3151832321
 33
0.0
  0
LINE
  5
3A
  8
0
 62
     0
 10
815.9677237494999
 20
-215.8151832321
 30
0.0
 11
815.9677237494999
 21
-218.8151832321
 31
0.0
  0
SOLID
  5
3B
  8
0
 62
     0
 10
815.9677237494999
 20
-215.8151832321
 30
0.0
 11
817.46772374950001
 21
-221.8151832321
 31
0.0
 12
814.4677237494999
 22
-221.8151832321
 32
0.0
 13
815.9677237494999
 23
-220.3151832321
 33
0.0
  0
ENDBLK
  5
3C
  8
0
  0
BLOCK
  8
0
  2
BALLON0
 70
     0
 10
0.0
 20
0.0
 30
0.0
  3
BALLON0
  1

  0
INSERT
  5
43
  8
0
  6
CONTINUOUS
  2
*U18
 10
0.0
 20
0.0
 30
0.0
  0
CIRCLE
  5
44
  8
┌▓È_1
 10
-611.04711560449994
 20
-266.41640666310002
 30
0.0
 40
8.0
  0
LINE
  5
45
  8
Éíû@É³
 10
-597.71378227109994
 20
-266.41640666310002
 30
0.0
 11
-603.04711560449994
 21
-266.41640666310002
 31
0.0
  0
LINE
  5
46
  8
Éíû@É³
 10
-567.68200007339988
 20
-218.81034849709999
 30
0.0
 11
-597.71378227109994
 21
-266.41640666310002
 31
0.0
  0
SOLID
  5
47
  8
Éíû@É³
 10
-567.68200007339988
 20
-218.81034849709999
 30
0.0
 11
-570.59713304219986
 21
-226.43019100039999
 31
0.0
 12
-571.09669351139985
 22
-224.22328381209999
 32
0.0
 13
-571.09669351139985
 23
-224.22328381209999
 33
0.0
  0
SOLID
  5
48
  8
Éíû@É³
 10
-571.09669351139985
 20
-224.22328381209999
 30
0.0
 11
-573.3036006996
 21
-224.72284428130001
 31
0.0
 12
-567.68200007339988
 22
-218.81034849709999
 32
0.0
 13
-567.68200007339988
 23
-218.81034849709999
 33
0.0
  0
ENDBLK
  5
49
  8
0
  0
BLOCK
  8
0
  2
BALLON1
 70
     0
 10
0.0
 20
0.0
 30
0.0
  3
BALLON1
  1

  0
INSERT
  5
4D
  8
0
  6
CONTINUOUS
  2
*U19
 10
0.0
 20
0.0
 30
0.0
  0
CIRCLE
  5
4E
  8
┌▓È_1
 10
-411.95979796789987
 20
-266.41640666310002
 30
0.0
 40
8.0
  0
LINE
  5
4F
  8
Éíû@É³
 10
-425.29313130119999
 20
-266.41640666310002
 30
0.0
 11
-419.95979796789987
 21
-266.41640666310002
 31
0.0
  0
LINE
  5
50
  8
Éíû@É³
 10
-454.94868250050001
 20
-165.5034559664
 30
0.0
 11
-425.29313130119999
 21
-266.41640666310002
 31
0.0
  0
SOLID
  5
51
  8
Éíû@É³
 10
-454.94868250050001
 20
-165.5034559664
 30
0.0
 11
-451.15799646689999
 21
-172.72776904060001
 31
0.0
 12
-453.14420294759998
 22
-171.64380233630001
 32
0.0
 13
-453.14420294759998
 23
-171.64380233630001
 33
0.0
  0
SOLID
  5
52
  8
Éíû@É³
 10
-453.14420294759998
 20
-171.64380233630001
 30
0.0
 11
-454.22816965189998
 21
-173.63000881709999
 31
0.0
 12
-454.94868250050001
 22
-165.5034559664
 32
0.0
 13
-454.94868250050001
 23
-165.5034559664
 33
0.0
  0
ENDBLK
  5
53
  8
0
  0
BLOCK
  8
0
  2
*D3
 70
     1
 10
0.0
 20
0.0
 30
0.0
  3
*D3
  1

  0
TEXT
  5
62
  8
0
 62
     0
 10
676.17605724179987
 20
10.416922770199999
 30
0.0
 40
5.9972220420999998
  1
235
  0
LINE
  5
63
  8
0
 62
     0
 10
798.96772374950001
 20
-27.815183232100001
 30
0.0
 11
798.96772374950001
 21
8.8585894686999982
 31
0.0
  0
LINE
  5
64
  8
0
 62
     0
 10
563.96772374950001
 20
-27.815183232100001
 30
0.0
 11
563.96772374950001
 21
8.8585894686999982
 31
0.0
  0
LINE
  5
65
  8
0
 62
     0
 10
798.96772374950001
 20
8.3585894686999982
 30
0.0
 11
690.28716792899991
 21
8.3585894686999982
 31
0.0
  0
LINE
  5
66
  8
0
 62
     0
 10
798.96772374950001
 20
8.3585894686999982
 30
0.0
 11
672.64827956989996
 21
8.3585894686999982
 31
0.0
  0
LINE
  5
67
  8
0
 62
     0
 10
563.96772374950001
 20
8.3585894686999982
 30
0.0
 11
690.28716792899991
 21
8.3585894686999982
 31
0.0
  0
LINE
  5
68
  8
0
 62
     0
 10
563.96772374950001
 20
8.3585894686999982
 30
0.0
 11
672.64827956989996
 21
8.3585894686999982
 31
0.0
  0
LINE
  5
69
  8
0
 62
     0
 10
563.96772374950001
 20
8.3585894686999982
 30
0.0
 11
566.96772374950001
 21
8.3585894686999982
 31
0.0
  0
SOLID
  5
6A
  8
0
 62
     0
 10
563.96772374950001
 20
8.3585894686999982
 30
0.0
 11
569.9677237494999
 21
9.8585894686999982
 31
0.0
 12
569.9677237494999
 22
6.8585894686999991
 32
0.0
 13
568.46772374950001
 23
8.3585894686999982
 33
0.0
  0
LINE
  5
6B
  8
0
 62
     0
 10
798.96772374950001
 20
8.3585894686999982
 30
0.0
 11
795.96772374950001
 21
8.3585894686999982
 31
0.0
  0
SOLID
  5
6C
  8
0
 62
     0
 10
798.96772374950001
 20
8.3585894686999982
 30
0.0
 11
792.96772374950001
 21
6.8585894686999991
 31
0.0
 12
792.96772374950001
 22
9.8585894686999982
 32
0.0
 13
794.46772374950001
 23
8.3585894686999982
 33
0.0
  0
ENDBLK
  5
6D
  8
0
  0
BLOCK
  8
0
  2
*D4
 70
     1
 10
0.0
 20
0.0
 30
0.0
  3
*D4
  1

  0
TEXT
  5
79
  8
0
 62
     0
 10
672.64827956989996
 20
-457.56393982629999
 30
0.0
 40
5.9972220420999998
  1
(230)
  0
LINE
  5
7A
  8
0
 62
     0
 10
566.4677237494999
 20
-415.81636492479998
 30
0.0
 11
566.4677237494999
 21
-460.12227312789997
 31
0.0
  0
LINE
  5
7B
  8
0
 62
     0
 10
796.46772374950001
 20
-415.81636492479998
 30
0.0
 11
796.46772374950001
 21
-460.12227312789997
 31
0.0
  0
LINE
  5
7C
  8
0
 62
     0
 10
566.4677237494999
 20
-459.62227312789997
 30
0.0
 11
693.8149456008
 21
-459.62227312789997
 31
0.0
  0
LINE
  5
7D
  8
0
 62
     0
 10
566.4677237494999
 20
-459.62227312789997
 30
0.0
 11
669.12050189809986
 21
-459.62227312789997
 31
0.0
  0
LINE
  5
7E
  8
0
 62
     0
 10
796.46772374950001
 20
-459.62227312789997
 30
0.0
 11
693.8149456008
 21
-459.62227312789997
 31
0.0
  0
LINE
  5
7F
  8
0
 62
     0
 10
796.46772374950001
 20
-459.62227312789997
 30
0.0
 11
669.12050189809986
 21
-459.62227312789997
 31
0.0
  0
LINE
  5
80
  8
0
 62
     0
 10
796.46772374950001
 20
-459.62227312789997
 30
0.0
 11
793.46772374950001
 21
-459.62227312789997
 31
0.0
  0
SOLID
  5
81
  8
0
 62
     0
 10
796.46772374950001
 20
-459.62227312789997
 30
0.0
 11
790.46772374950001
 21
-461.12227312789997
 31
0.0
 12
790.46772374950001
 22
-458.12227312789997
 32
0.0
 13
791.96772374950001
 23
-459.62227312789997
 33
0.0
  0
LINE
  5
82
  8
0
 62
     0
 10
566.4677237494999
 20
-459.62227312789997
 30
0.0
 11
569.46772374950001
 21
-459.62227312789997
 31
0.0
  0
SOLID
  5
83
  8
0
 62
     0
 10
566.4677237494999
 20
-459.62227312789997
 30
0.0
 11
572.46772374950001
 21
-458.12227312789997
 31
0.0
 12
572.46772374950001
 22
-461.12227312789997
 32
0.0
 13
570.9677237494999
 23
-459.62227312789997
 33
0.0
  0
ENDBLK
  5
84
  8
0
  0
BLOCK
  8
0
  2
*D5
 70
     1
 10
0.0
 20
0.0
 30
0.0
  3
*D5
  1

  0
TEXT
  5
88
  8
0
 62
     0
 10
665.59272422629999
 20
-441.88436204369998
 30
0.0
 40
5.9972220420999998
  1
(217)ôÓÉí
  0
LINE
  5
89
  8
0
 62
     0
 10
572.96772374950001
 20
-414.81636492479998
 30
0.0
 11
572.96772374950001
 21
-444.44269534519998
 31
0.0
  0
LINE
  5
8A
  8
0
 62
     0
 10
789.96772374950001
 20
-414.81636492479998
 30
0.0
 11
789.96772374950001
 21
-444.44269534519998
 31
0.0
  0
LINE
  5
8B
  8
0
 62
     0
 10
572.96772374950001
 20
-443.94269534519998
 30
0.0
 11
700.87050094450001
 21
-443.94269534519998
 31
0.0
  0
LINE
  5
8C
  8
0
 62
     0
 10
572.96772374950001
 20
-443.94269534519998
 30
0.0
 11
662.06494655450001
 21
-443.94269534519998
 31
0.0
  0
LINE
  5
8D
  8
0
 62
     0
 10
789.96772374950001
 20
-443.94269534519998
 30
0.0
 11
700.87050094450001
 21
-443.94269534519998
 31
0.0
  0
LINE
  5
8E
  8
0
 62
     0
 10
789.96772374950001
 20
-443.94269534519998
 30
0.0
 11
662.06494655450001
 21
-443.94269534519998
 31
0.0
  0
LINE
  5
8F
  8
0
 62
     0
 10
789.96772374950001
 20
-443.94269534519998
 30
0.0
 11
786.9677237494999
 21
-443.94269534519998
 31
0.0
  0
SOLID
  5
90
  8
0
 62
     0
 10
789.96772374950001
 20
-443.94269534519998
 30
0.0
 11
783.96772374950001
 21
-445.44269534519992
 31
0.0
 12
783.96772374950001
 22
-442.44269534519992
 32
0.0
 13
785.46772374950001
 23
-443.94269534519998
 33
0.0
  0
LINE
  5
91
  8
0
 62
     0
 10
572.96772374950001
 20
-443.94269534519998
 30
0.0
 11
575.96772374950001
 21
-443.94269534519998
 31
0.0
  0
SOLID
  5
92
  8
0
 62
     0
 10
572.96772374950001
 20
-443.94269534519998
 30
0.0
 11
578.9677237494999
 21
-442.44269534519992
 31
0.0
 12
578.9677237494999
 22
-445.44269534519992
 32
0.0
 13
577.46772374950001
 23
-443.94269534519998
 33
0.0
  0
ENDBLK
  5
93
  8
0
  0
BLOCK
  8
0
  2
BALLON2
 70
     0
 10
0.0
 20
0.0
 30
0.0
  3
BALLON2
  1

  0
INSERT
  5
98
  8
0
  6
CONTINUOUS
  2
*U22
 10
0.0
 20
0.0
 30
0.0
  0
CIRCLE
  5
99
  8
┌▓È_1
 10
272.5151571646
 20
-387.42124139809999
 30
0.0
 40
8.0
  0
LINE
  5
9A
  8
Éíû@É³
 10
259.18182383129999
 20
-387.42124139809999
 30
0.0
 11
264.5151571646
 21
-387.42124139809999
 31
0.0
  0
LINE
  5
9B
  8
Éíû@É³
 10
227.46743193739999
 20
-428.76624513310003
 30
0.0
 11
259.18182383129999
 21
-387.42124139809999
 31
0.0
  0
SOLID
  5
9C
  8
Éíû@É³
 10
227.46743193739999
 20
-428.76624513310003
 30
0.0
 11
231.06696028760001
 21
-421.44481114400003
 31
0.0
 12
231.36267435889999
 22
-423.68814642619998
 32
0.0
 13
231.36267435889999
 23
-423.68814642619998
 33
0.0
  0
SOLID
  5
9D
  8
Éíû@É³
 10
231.36267435889999
 20
-423.68814642619998
 30
0.0
 11
233.6060096411
 21
-423.39243235479989
 31
0.0
 12
227.46743193739999
 22
-428.76624513310003
 32
0.0
 13
227.46743193739999
 23
-428.76624513310003
 33
0.0
  0
ENDBLK
  5
9E
  8
0
  0
BLOCK
  8
0
  2
*D7
 70
     1
 10
0.0
 20
0.0
 30
0.0
  3
*D7
  1

  0
TEXT
  5
A9
  8
0
 62
     0
 10
582.94002420269987
 20
-78.756849931199994
 30
0.0
 40
5.9972220420999998
  1
25
  0
LINE
  5
AA
  8
0
 62
     0
 10
598.96787999949993
 20
-99.815183232700022
 30
0.0
 11
598.96787999949993
 21
-80.315183232700008
 31
0.0
  0
LINE
  5
AB
  8
0
 62
     0
 10
573.96772374950001
 20
-119.8151832321
 30
0.0
 11
573.96772374950001
 21
-80.315183232700008
 31
0.0
  0
LINE
  5
AC
  8
0
 62
     0
 10
598.96787999949993
 20
-80.815183232700008
 30
0.0
 11
593.52335721809993
 21
-80.815183232700008
 31
0.0
  0
LINE
  5
AD
  8
0
 62
     0
 10
598.96787999949993
 20
-80.815183232700008
 30
0.0
 11
579.41224653079985
 21
-80.815183232700008
 31
0.0
  0
LINE
  5
AE
  8
0
 62
     0
 10
573.96772374950001
 20
-80.815183232700008
 30
0.0
 11
593.52335721809993
 21
-80.815183232700008
 31
0.0
  0
LINE
  5
AF
  8
0
 62
     0
 10
573.96772374950001
 20
-80.815183232700008
 30
0.0
 11
579.41224653079985
 21
-80.815183232700008
 31
0.0
  0
LINE
  5
B0
  8
0
 62
     0
 10
573.96772374950001
 20
-80.815183232700008
 30
0.0
 11
570.9677237494999
 21
-80.815183232700008
 31
0.0
  0
SOLID
  5
B1
  8
0
 62
     0
 10
573.96772374950001
 20
-80.815183232700008
 30
0.0
 11
567.96772374950001
 21
-82.315183232699994
 31
0.0
 12
567.96772374950001
 22
-79.315183232700008
 32
0.0
 13
569.46772374950001
 23
-80.815183232700008
 33
0.0
  0
LINE
  5
B2
  8
0
 62
     0
 10
598.96787999949993
 20
-80.815183232700008
 30
0.0
 11
601.96787999949981
 21
-80.815183232700008
 31
0.0
  0
SOLID
  5
B3
  8
0
 62
     0
 10
598.96787999949993
 20
-80.815183232700008
 30
0.0
 11
604.96787999949993
 21
-79.315183232700008
 31
0.0
 12
604.96787999949993
 22
-82.315183232699994
 32
0.0
 13
603.46787999949993
 23
-80.815183232700008
 33
0.0
  0
ENDBLK
  5
B4
  8
0
  0
BLOCK
  8
0
  2
*D8
 70
     1
 10
0.0
 20
0.0
 30
0.0
  3
*D8
  1

  0
TEXT
  5
C0
  8
0
 62
     0
 10
997.84997207180004
 20
13.047461374199999
 30
0.0
 40
5.9972220420999998
  1
95
  0
LINE
  5
C1
  8
0
 62
     0
 10
1048.8777497435999
 20
-26.815183232100001
 30
0.0
 11
1048.8777497435999
 21
11.4891280726
 31
0.0
  0
LINE
  5
C2
  8
0
 62
     0
 10
953.87774974359991
 20
-25.815183232100001
 30
0.0
 11
953.87774974359991
 21
11.4891280726
 31
0.0
  0
LINE
  5
C3
  8
0
 62
     0
 10
1048.8777497435999
 20
10.9891280726
 30
0.0
 11
1008.4333050872
 21
10.9891280726
 31
0.0
  0
LINE
  5
C4
  8
0
 62
     0
 10
1048.8777497435999
 20
10.9891280726
 30
0.0
 11
994.32219439990013
 21
10.9891280726
 31
0.0
  0
LINE
  5
C5
  8
0
 62
     0
 10
953.87774974359991
 20
10.9891280726
 30
0.0
 11
1008.4333050872
 21
10.9891280726
 31
0.0
  0
LINE
  5
C6
  8
0
 62
     0
 10
953.87774974359991
 20
10.9891280726
 30
0.0
 11
994.32219439990013
 21
10.9891280726
 31
0.0
  0
LINE
  5
C7
  8
0
 62
     0
 10
953.87774974359991
 20
10.9891280726
 30
0.0
 11
956.87774974360002
 21
10.9891280726
 31
0.0
  0
SOLID
  5
C8
  8
0
 62
     0
 10
953.87774974359991
 20
10.9891280726
 30
0.0
 11
959.87774974360002
 21
12.4891280726
 31
0.0
 12
959.87774974360002
 22
9.4891280725999998
 32
0.0
 13
958.37774974360013
 23
10.9891280726
 33
0.0
  0
LINE
  5
C9
  8
0
 62
     0
 10
1048.8777497435999
 20
10.9891280726
 30
0.0
 11
1045.8777497435999
 21
10.9891280726
 31
0.0
  0
SOLID
  5
CA
  8
0
 62
     0
 10
1048.8777497435999
 20
10.9891280726
 30
0.0
 11
1042.8777497435999
 21
9.4891280725999998
 31
0.0
 12
1042.8777497435999
 22
12.4891280726
 32
0.0
 13
1044.3777497435999
 23
10.9891280726
 33
0.0
  0
ENDBLK
  5
CB
  8
0
  0
BLOCK
  8
0
  2
*D9
 70
     1
 10
0.0
 20
0.0
 30
0.0
  3
*D9
  1

  0
TEXT
  5
EB
  8
0
 62
     0
 10
1094.9699868458999
 20
-129.63462741160001
 30
0.0
 40
5.9972220420999998
  1
(186)
 50
90.0
  0
LINE
  5
EC
  8
0
 62
     0
 10
1049.8777497435999
 20
-213.8151832321
 30
0.0
 11
1097.5283201474999
 21
-213.8151832321
 31
0.0
  0
LINE
  5
ED
  8
0
 62
     0
 10
1049.8777497435999
 20
-27.815183232100001
 30
0.0
 11
1097.5283201474999
 21
-27.815183232100001
 31
0.0
  0
LINE
  5
EE
  8
0
 62
     0
 10
1097.0283201474999
 20
-213.8151832321
 30
0.0
 11
1097.0283201474999
 21
-108.46796138080001
 31
0.0
  0
LINE
  5
EF
  8
0
 62
     0
 10
1097.0283201474999
 20
-213.8151832321
 30
0.0
 11
1097.0283201474999
 21
-133.1624050835
 31
0.0
  0
LINE
  5
F0
  8
0
 62
     0
 10
1097.0283201474999
 20
-27.815183232100001
 30
0.0
 11
1097.0283201474999
 21
-108.46796138080001
 31
0.0
  0
LINE
  5
F1
  8
0
 62
     0
 10
1097.0283201474999
 20
-27.815183232100001
 30
0.0
 11
1097.0283201474999
 21
-133.1624050835
 31
0.0
  0
LINE
  5
F2
  8
0
 62
     0
 10
1097.0283201474999
 20
-27.815183232100001
 30
0.0
 11
1097.0283201474999
 21
-30.815183232100001
 31
0.0
  0
SOLID
  5
F3
  8
0
 62
     0
 10
1097.0283201474999
 20
-27.815183232100001
 30
0.0
 11
1098.5283201474999
 21
-33.815183232099997
 31
0.0
 12
1095.5283201474999
 22
-33.815183232099997
 32
0.0
 13
1097.0283201474999
 23
-32.315183232099997
 33
0.0
  0
LINE
  5
F4
  8
0
 62
     0
 10
1097.0283201474999
 20
-213.8151832321
 30
0.0
 11
1097.0283201474999
 21
-210.8151832321
 31
0.0
  0
SOLID
  5
F5
  8
0
 62
     0
 10
1097.0283201474999
 20
-213.8151832321
 30
0.0
 11
1095.5283201474999
 21
-207.8151832321
 31
0.0
 12
1098.5283201474999
 22
-207.8151832321
 32
0.0
 13
1097.0283201474999
 23
-209.3151832321
 33
0.0
  0
ENDBLK
  5
F6
  8
0
  0
BLOCK
  8
0
  2
*D10
 70
     1
 10
0.0
 20
0.0
 30
0.0
  3
*D10
  1

  0
TEXT
  5
FA
  8
0
 62
     0
 10
1078.5071042704001
 20
-136.69018275529999
 30
0.0
 40
5.9972220420999998
  1
(173)ôÓÉí
 50
90.0
  0
LINE
  5
FB
  8
0
 62
     0
 10
1049.8777497435999
 20
-207.3151832321
 30
0.0
 11
1081.0654375719
 21
-207.3151832321
 31
0.0
  0
LINE
  5
FC
  8
0
 62
     0
 10
1049.8777497435999
 20
-34.315183232099997
 30
0.0
 11
1081.0654375719
 21
-34.315183232099997
 31
0.0
  0
LINE
  5
FD
  8
0
 62
     0
 10
1080.5654375719
 20
-207.3151832321
 30
0.0
 11
1080.5654375719
 21
-101.4124060371
 31
0.0
  0
LINE
  5
FE
  8
0
 62
     0
 10
1080.5654375719
 20
-207.3151832321
 30
0.0
 11
1080.5654375719
 21
-140.2179604271
 31
0.0
  0
LINE
  5
FF
  8
0
 62
     0
 10
1080.5654375719
 20
-34.315183232099997
 30
0.0
 11
1080.5654375719
 21
-101.4124060371
 31
0.0
  0
LINE
  5
100
  8
0
 62
     0
 10
1080.5654375719
 20
-34.315183232099997
 30
0.0
 11
1080.5654375719
 21
-140.2179604271
 31
0.0
  0
LINE
  5
101
  8
0
 62
     0
 10
1080.5654375719
 20
-34.315183232099997
 30
0.0
 11
1080.5654375719
 21
-37.315183232099997
 31
0.0
  0
SOLID
  5
102
  8
0
 62
     0
 10
1080.5654375719
 20
-34.315183232099997
 30
0.0
 11
1082.0654375719
 21
-40.315183232099997
 31
0.0
 12
1079.0654375719
 22
-40.315183232099997
 32
0.0
 13
1080.5654375719
 23
-38.815183232099997
 33
0.0
  0
LINE
  5
103
  8
0
 62
     0
 10
1080.5654375719
 20
-207.3151832321
 30
0.0
 11
1080.5654375719
 21
-204.3151832321
 31
0.0
  0
SOLID
  5
104
  8
0
 62
     0
 10
1080.5654375719
 20
-207.3151832321
 30
0.0
 11
1079.0654375719
 21
-201.3151832321
 31
0.0
 12
1082.0654375719
 22
-201.3151832321
 32
0.0
 13
1080.5654375719
 23
-202.8151832321
 33
0.0
  0
ENDBLK
  5
105
  8
0
  0
BLOCK
  8
0
  2
BALLON3
 70
     0
 10
0.0
 20
0.0
 30
0.0
  3
BALLON3
  1

  0
INSERT
  5
10C
  8
0
  6
CONTINUOUS
  2
*U26
 10
0.0
 20
0.0
 30
0.0
  0
CIRCLE
  5
10D
  8
┌▓È_1
 10
532.25016644589994
 20
-213.9712504627
 30
0.0
 40
8.0
  0
LINE
  5
10E
  8
Éíû@É³
 10
545.5834997792
 20
-213.9712504627
 30
0.0
 11
540.25016644589994
 21
-213.9712504627
 31
0.0
  0
LINE
  5
10F
  8
Éíû@É³
 10
604.23321849360002
 20
-186.94695406540001
 30
0.0
 11
545.5834997792
 21
-213.9712504627
 31
0.0
  0
SOLID
  5
110
  8
Éíû@É³
 10
604.23321849360002
 20
-186.94695406540001
 30
0.0
 11
597.63701071039986
 21
-191.74800008490001
 31
0.0
 12
598.42059004199996
 22
-189.62526519069999
 32
0.0
 13
598.42059004199996
 23
-189.62526519069999
 33
0.0
  0
SOLID
  5
111
  8
Éíû@É³
 10
598.42059004199996
 20
-189.62526519069999
 30
0.0
 11
596.29785514779985
 21
-188.84168585910001
 31
0.0
 12
604.23321849360002
 22
-186.94695406540001
 32
0.0
 13
604.23321849360002
 23
-186.94695406540001
 33
0.0
  0
ENDBLK
  5
112
  8
0
  0
BLOCK
  8
0
  2
*D12
 70
     1
 10
0.0
 20
0.0
 30
0.0
  3
*D12
  1

  0
TEXT
  5
117
  8
0
 62
     0
 10
829.24792704829986
 20
-126.1068497398
 30
0.0
 40
5.9972220420999998
  1
190
 50
90.0
  0
LINE
  5
118
  8
0
 62
     0
 10
796.96772374950001
 20
-215.8151832321
 30
0.0
 11
831.80626034990007
 21
-215.8151832321
 31
0.0
  0
LINE
  5
119
  8
0
 62
     0
 10
796.96772374950001
 20
-25.815183232100001
 30
0.0
 11
831.80626034990007
 21
-25.815183232100001
 31
0.0
  0
LINE
  5
11A
  8
0
 62
     0
 10
831.30626034989996
 20
-215.8151832321
 30
0.0
 11
831.30626034989996
 21
-111.9957390526
 31
0.0
  0
LINE
  5
11B
  8
0
 62
     0
 10
831.30626034989996
 20
-215.8151832321
 30
0.0
 11
831.30626034989996
 21
-129.63462741160001
 31
0.0
  0
LINE
  5
11C
  8
0
 62
     0
 10
831.30626034989996
 20
-25.815183232100001
 30
0.0
 11
831.30626034989996
 21
-111.9957390526
 31
0.0
  0
LINE
  5
11D
  8
0
 62
     0
 10
831.30626034989996
 20
-25.815183232100001
 30
0.0
 11
831.30626034989996
 21
-129.63462741160001
 31
0.0
  0
LINE
  5
11E
  8
0
 62
     0
 10
831.30626034989996
 20
-25.815183232100001
 30
0.0
 11
831.30626034989996
 21
-28.815183232100001
 31
0.0
  0
SOLID
  5
11F
  8
0
 62
     0
 10
831.30626034989996
 20
-25.815183232100001
 30
0.0
 11
832.80626034990007
 21
-31.815183232100001
 31
0.0
 12
829.80626034990007
 22
-31.815183232100001
 32
0.0
 13
831.30626034989996
 23
-30.315183232100001
 33
0.0
  0
LINE
  5
120
  8
0
 62
     0
 10
831.30626034989996
 20
-215.8151832321
 30
0.0
 11
831.30626034989996
 21
-212.8151832321
 31
0.0
  0
SOLID
  5
121
  8
0
 62
     0
 10
831.30626034989996
 20
-215.8151832321
 30
0.0
 11
829.80626034990007
 21
-209.8151832321
 31
0.0
 12
832.80626034990007
 22
-209.8151832321
 32
0.0
 13
831.30626034989996
 23
-211.3151832321
 33
0.0
  0
ENDBLK
  5
122
  8
0
  0
BLOCK
  8
0
  2
BALLON4
 70
     0
 10
0.0
 20
0.0
 30
0.0
  3
BALLON4
  1

  0
INSERT
  5
19B
  8
0
  6
CONTINUOUS
  2
*U27
 10
0.0
 20
0.0
 30
0.0
  0
CIRCLE
  5
19C
  8
┌▓È_1
 10
351.21059164119998
 20
-387.42124139809999
 30
0.0
 40
8.0
  0
LINE
  5
19D
  8
Éíû@É³
 10
364.54392497449999
 20
-387.42124139809999
 30
0.0
 11
359.2105916412001
 21
-387.42124139809999
 31
0.0
  0
LINE
  5
19E
  8
Éíû@É³
 10
398.53118465350002
 20
-448.66591462529999
 30
0.0
 11
364.54392497449999
 21
-387.42124139809999
 31
0.0
  0
SOLID
  5
19F
  8
Éíû@É³
 10
398.53118465350002
 20
-448.66591462529999
 30
0.0
 11
393.25030396059998
 21
-442.44720904399998
 31
0.0
 12
395.42569267149997
 22
-443.06985176379987
 32
0.0
 13
395.42569267149997
 23
-443.06985176379987
 33
0.0
  0
SOLID
  5
1A0
  8
Éíû@É³
 10
395.42569267149997
 20
-443.06985176379987
 30
0.0
 11
396.04833539129999
 21
-440.89446305299998
 31
0.0
 12
398.53118465350002
 22
-448.66591462529999
 32
0.0
 13
398.53118465350002
 23
-448.66591462529999
 33
0.0
  0
ENDBLK
  5
1A1
  8
0
  0
BLOCK
  8
0
  2
*D14
 70
     1
 10
0.0
 20
0.0
 30
0.0
  3
*D14
  1

  0
TEXT
  5
1B3
  8
0
 62
     0
 10
813.90939044789991
 20
-34.3429609039
 30
0.0
 40
5.9972220420999998
  1
10
 50
90.0
  0
LINE
  5
1B4
  8
0
 62
     0
 10
786.9677237494999
 20
-35.815183232099997
 30
0.0
 11
816.46772374950001
 21
-35.815183232099997
 31
0.0
  0
LINE
  5
1B5
  8
0
 62
     0
 10
796.96772374950001
 20
-25.815183232100001
 30
0.0
 11
816.46772374950001
 21
-25.815183232100001
 31
0.0
  0
LINE
  5
1B6
  8
0
 62
     0
 10
815.9677237494999
 20
-35.815183232099997
 30
0.0
 11
815.9677237494999
 21
-35.815183232099997
 31
0.0
  0
LINE
  5
1B7
  8
0
 62
     0
 10
815.9677237494999
 20
-35.815183232099997
 30
0.0
 11
815.9677237494999
 21
-25.815183232100001
 31
0.0
  0
LINE
  5
1B8
  8
0
 62
     0
 10
815.9677237494999
 20
-25.815183232100001
 30
0.0
 11
815.9677237494999
 21
-35.815183232099997
 31
0.0
  0
LINE
  5
1B9
  8
0
 62
     0
 10
815.9677237494999
 20
-25.815183232100001
 30
0.0
 11
815.9677237494999
 21
-25.815183232100001
 31
0.0
  0
LINE
  5
1BA
  8
0
 62
     0
 10
815.9677237494999
 20
-25.815183232100001
 30
0.0
 11
815.9677237494999
 21
-22.815183232100001
 31
0.0
  0
SOLID
  5
1BB
  8
0
 62
     0
 10
815.9677237494999
 20
-25.815183232100001
 30
0.0
 11
814.4677237494999
 21
-19.815183232100001
 31
0.0
 12
817.46772374950001
 22
-19.815183232100001
 32
0.0
 13
815.9677237494999
 23
-21.315183232100001
 33
0.0
  0
LINE
  5
1BC
  8
0
 62
     0
 10
815.9677237494999
 20
-35.815183232099997
 30
0.0
 11
815.9677237494999
 21
-38.815183232099997
 31
0.0
  0
SOLID
  5
1BD
  8
0
 62
     0
 10
815.9677237494999
 20
-35.815183232099997
 30
0.0
 11
817.46772374950001
 21
-41.81518323209999
 31
0.0
 12
814.4677237494999
 22
-41.81518323209999
 32
0.0
 13
815.9677237494999
 23
-40.315183232099997
 33
0.0
  0
ENDBLK
  5
1BE
  8
0
  0
BLOCK
  8
0
  2
*D15
 70
     1
 10
0.0
 20
0.0
 30
0.0
  3
*D15
  1

  0
TEXT
  5
1C2
  8
0
 62
     0
 10
790.43994607770003
 20
-6.7568499305999987
 30
0.0
 40
5.9972220420999998
  1
10
  0
LINE
  5
1C3
  8
0
 62
     0
 10
798.96772374950001
 20
-27.815183232100001
 30
0.0
 11
798.96772374950001
 21
-8.3151832321000008
 31
0.0
  0
LINE
  5
1C4
  8
0
 62
     0
 10
788.96772374950001
 20
-37.815183232099997
 30
0.0
 11
788.96772374950001
 21
-8.3151832321000008
 31
0.0
  0
LINE
  5
1C5
  8
0
 62
     0
 10
798.96772374950001
 20
-8.8151832321000008
 30
0.0
 11
798.96772374950001
 21
-8.8151832321000008
 31
0.0
  0
LINE
  5
1C6
  8
0
 62
     0
 10
798.96772374950001
 20
-8.8151832321000008
 30
0.0
 11
788.96772374950001
 21
-8.8151832321000008
 31
0.0
  0
LINE
  5
1C7
  8
0
 62
     0
 10
788.96772374950001
 20
-8.8151832321000008
 30
0.0
 11
798.96772374950001
 21
-8.8151832321000008
 31
0.0
  0
LINE
  5
1C8
  8
0
 62
     0
 10
788.96772374950001
 20
-8.8151832321000008
 30
0.0
 11
788.96772374950001
 21
-8.8151832321000008
 31
0.0
  0
LINE
  5
1C9
  8
0
 62
     0
 10
788.96772374950001
 20
-8.8151832321000008
 30
0.0
 11
785.96772374950001
 21
-8.8151832321000008
 31
0.0
  0
SOLID
  5
1CA
  8
0
 62
     0
 10
788.96772374950001
 20
-8.8151832321000008
 30
0.0
 11
782.9677237494999
 21
-10.315183232100001
 31
0.0
 12
782.9677237494999
 22
-7.3151832320999999
 32
0.0
 13
784.46772374950001
 23
-8.8151832321000008
 33
0.0
  0
LINE
  5
1CB
  8
0
 62
     0
 10
798.96772374950001
 20
-8.8151832321000008
 30
0.0
 11
801.9677237494999
 21
-8.8151832321000008
 31
0.0
  0
SOLID
  5
1CC
  8
0
 62
     0
 10
798.96772374950001
 20
-8.8151832321000008
 30
0.0
 11
804.96772374950001
 21
-7.3151832320999999
 31
0.0
 12
804.96772374950001
 22
-10.315183232100001
 32
0.0
 13
803.4677237494999
 23
-8.8151832321000008
 33
0.0
  0
ENDBLK
  5
1CD
  8
0
  0
BLOCK
  8
0
  2
*D16
 70
     1
 10
0.0
 20
0.0
 30
0.0
  3
*D16
  1

  0
TEXT
  5
1DF
  8
0
 62
     0
 10
565.43994607769991
 20
-6.7568499305999987
 30
0.0
 40
5.9972220420999998
  1
10
  0
LINE
  5
1E0
  8
0
 62
     0
 10
573.96772374950001
 20
-37.815183232099997
 30
0.0
 11
573.96772374950001
 21
-8.3151832321000008
 31
0.0
  0
LINE
  5
1E1
  8
0
 62
     0
 10
563.96772374950001
 20
-27.815183232100001
 30
0.0
 11
563.96772374950001
 21
-8.3151832321000008
 31
0.0
  0
LINE
  5
1E2
  8
0
 62
     0
 10
573.96772374950001
 20
-8.8151832321000008
 30
0.0
 11
573.96772374950001
 21
-8.8151832321000008
 31
0.0
  0
LINE
  5
1E3
  8
0
 62
     0
 10
573.96772374950001
 20
-8.8151832321000008
 30
0.0
 11
563.96772374950001
 21
-8.8151832321000008
 31
0.0
  0
LINE
  5
1E4
  8
0
 62
     0
 10
563.96772374950001
 20
-8.8151832321000008
 30
0.0
 11
573.96772374950001
 21
-8.8151832321000008
 31
0.0
  0
LINE
  5
1E5
  8
0
 62
     0
 10
563.96772374950001
 20
-8.8151832321000008
 30
0.0
 11
563.96772374950001
 21
-8.8151832321000008
 31
0.0
  0
LINE
  5
1E6
  8
0
 62
     0
 10
563.96772374950001
 20
-8.8151832321000008
 30
0.0
 11
560.96772374950001
 21
-8.8151832321000008
 31
0.0
  0
SOLID
  5
1E7
  8
0
 62
     0
 10
563.96772374950001
 20
-8.8151832321000008
 30
0.0
 11
557.9677237494999
 21
-10.315183232100001
 31
0.0
 12
557.9677237494999
 22
-7.3151832320999999
 32
0.0
 13
559.46772374950001
 23
-8.8151832321000008
 33
0.0
  0
LINE
  5
1E8
  8
0
 62
     0
 10
573.96772374950001
 20
-8.8151832321000008
 30
0.0
 11
576.96772374950001
 21
-8.8151832321000008
 31
0.0
  0
SOLID
  5
1E9
  8
0
 62
     0
 10
573.96772374950001
 20
-8.8151832321000008
 30
0.0
 11
579.96772374950001
 21
-7.3151832320999999
 31
0.0
 12
579.96772374950001
 22
-10.315183232100001
 32
0.0
 13
578.4677237494999
 23
-8.8151832321000008
 33
0.0
  0
ENDBLK
  5
1EA
  8
0
  0
BLOCK
  8
0
  2
*D17
 70
     1
 10
0.0
 20
0.0
 30
0.0
  3
*D17
  1

  0
TEXT
  5
29D
  8
0
 62
     0
 10
955.11386090769997
 20
-3.7568499306000001
 30
0.0
 40
5.9972220420999998
  1
6
  0
LINE
  5
29E
  8
0
 62
     0
 10
959.87774974360002
 20
-24.815183232100001
 30
0.0
 11
959.87774974360002
 21
-5.315183232099999
 31
0.0
  0
LINE
  5
29F
  8
0
 62
     0
 10
953.87774974359991
 20
-25.815183232100001
 30
0.0
 11
953.87774974359991
 21
-5.315183232099999
 31
0.0
  0
LINE
  5
2A0
  8
0
 62
     0
 10
959.87774974360002
 20
-5.8151832320999999
 30
0.0
 11
959.87774974360002
 21
-5.8151832320999999
 31
0.0
  0
LINE
  5
2A1
  8
0
 62
     0
 10
959.87774974360002
 20
-5.8151832320999999
 30
0.0
 11
953.87774974359991
 21
-5.8151832320999999
 31
0.0
  0
LINE
  5
2A2
  8
0
 62
     0
 10
953.87774974359991
 20
-5.8151832320999999
 30
0.0
 11
959.87774974360002
 21
-5.8151832320999999
 31
0.0
  0
LINE
  5
2A3
  8
0
 62
     0
 10
953.87774974359991
 20
-5.8151832320999999
 30
0.0
 11
953.87774974359991
 21
-5.8151832320999999
 31
0.0
  0
LINE
  5
2A4
  8
0
 62
     0
 10
953.87774974359991
 20
-5.8151832320999999
 30
0.0
 11
950.87774974360002
 21
-5.8151832320999999
 31
0.0
  0
SOLID
  5
2A5
  8
0
 62
     0
 10
953.87774974359991
 20
-5.8151832320999999
 30
0.0
 11
947.87774974360002
 21
-7.3151832320999999
 31
0.0
 12
947.87774974360002
 22
-4.315183232099999
 32
0.0
 13
949.37774974359991
 23
-5.8151832320999999
 33
0.0
  0
LINE
  5
2A6
  8
0
 62
     0
 10
959.87774974360002
 20
-5.8151832320999999
 30
0.0
 11
962.87774974360013
 21
-5.8151832320999999
 31
0.0
  0
SOLID
  5
2A7
  8
0
 62
     0
 10
959.87774974360002
 20
-5.8151832320999999
 30
0.0
 11
965.87774974360002
 21
-4.315183232099999
 31
0.0
 12
965.87774974360002
 22
-7.3151832320999999
 32
0.0
 13
964.37774974359991
 23
-5.8151832320999999
 33
0.0
  0
ENDBLK
  5
2A8
  8
0
  0
BLOCK
  8
0
  2
*U18
 70
     1
 10
0.0
 20
0.0
 30
0.0
  3
*U18
  1

  0
TEXT
  5
2C4
  8
┌▓È_1
  6
CONTINUOUS
 10
-613.57207322746854
 20
-268.88585103340012
 30
0.0
 40
5.9972220420999998
  1
1
  0
ENDBLK
  5
2C6
  8
0
  0
BLOCK
  8
0
  2
*U19
 70
     1
 10
0.0
 20
0.0
 30
0.0
  3
*U19
  1

  0
TEXT
  5
2C8
  8
┌▓È_1
  6
CONTINUOUS
 10
-414.08899982159289
 20
-268.88585103340012
 30
0.0
 40
5.9972220420999998
  1
2
  0
ENDBLK
  5
2CA
  8
0
  0
BLOCK
  8
0
  2
*U20
 70
     1
 10
0.0
 20
0.0
 30
0.0
  3
*U20
  1

  0
TEXT
  5
2CC
  8
┌▓È_1
  6
CONTINUOUS
 10
1018.8469359327
 20
-465.47174716942737
 30
0.0
 40
5.9972220420999998
  1
 Ä┌ü@ü@ôx
  0
ENDBLK
  5
2CE
  8
0
  0
BLOCK
  8
0
  2
*U21
 70
     1
 10
0.0
 20
0.0
 30
0.0
  3
*U21
  1

  0
TEXT
  5
2D0
  8
┌▓È_1
  6
CONTINUOUS
 62
     5
 10
639.49981927900103
 20
-130.96004357459131
 30
0.0
 40
21.462499999999999
  1
ÄU Éà É­
  0
ENDBLK
  5
2D2
  8
0
  0
BLOCK
  8
0
  2
*U22
 70
     1
 10
0.0
 20
0.0
 30
0.0
  3
*U22
  1

  0
TEXT
  5
2D4
  8
┌▓È_1
  6
CONTINUOUS
 10
270.41639806238987
 20
-389.89068576839998
 30
0.0
 40
5.9972220420999998
  1
5
  0
ENDBLK
  5
2D6
  8
0
  0
BLOCK
  8
0
  2
*U23
 70
     1
 10
0.0
 20
0.0
 30
0.0
  3
*U23
  1

  0
TEXT
  5
2D8
  8
┌▓È_1
  6
CONTINUOUS
 10
731.38155067636603
 20
-79.315020187800002
 30
0.0
 40
5.9972220420999998
  1
égék
  0
ENDBLK
  5
2DA
  8
0
  0
BLOCK
  8
0
  2
*U24
 70
     1
 10
0.0
 20
0.0
 30
0.0
  3
*U24
  1

  0
TEXT
  5
2DC
  8
┌▓È_1
  6
CONTINUOUS
 10
1018.8469359327
 20
-443.5021899209101
 30
0.0
 40
5.9972220420999998
  1
 ö┬ü@ü@î·
  0
ENDBLK
  5
2DE
  8
0
  0
BLOCK
  8
0
  2
*U25
 70
     1
 10
0.0
 20
0.0
 30
0.0
  3
*U25
  1

  0
TEXT
  5
2E0
  8
┌▓È_1
  6
CONTINUOUS
 62
     5
 10
1028.775793202763
 20
-476.181654342
 30
0.0
 40
5.9972220420999998
  1
1üF2
  0
ENDBLK
  5
2E2
  8
0
  0
BLOCK
  8
0
  2
*U26
 70
     1
 10
0.0
 20
0.0
 30
0.0
  3
*U26
  1

  0
TEXT
  5
2E4
  8
┌▓È_1
  6
CONTINUOUS
 10
530.15140734368981
 20
-216.44069483300001
 30
0.0
 40
5.9972220420999998
  1
3
  0
ENDBLK
  5
2E6
  8
0
  0
BLOCK
  8
0
  2
*U27
 70
     1
 10
0.0
 20
0.0
 30
0.0
  3
*U27
  1

  0
TEXT
  5
2E8
  8
┌▓È_1
  6
CONTINUOUS
 10
349.20316079343809
 20
-389.89068576839998
 30
0.0
 40
5.9972220420999998
  1
4
  0
ENDBLK
  5
2EA
  8
0
  0
BLOCK
  8
0
  2
*U28
 70
     1
 10
0.0
 20
0.0
 30
0.0
  3
*U28
  1

  0
TEXT
  5
2EC
  8
┌▓È_1
  6
CONTINUOUS
 10
939.44933324450005
 20
-432.6782359289964
 30
0.0
 40
5.9972220420999998
  1
É}öÈ
  0
ENDBLK
  5
2EE
  8
0
  0
BLOCK
  8
0
  2
*U29
 70
     1
 10
0.0
 20
0.0
 30
0.0
  3
*U29
  1

  0
TEXT
  5
2F0
  8
┌▓È_1
  6
CONTINUOUS
 10
942.8896163904999
 20
-422.4955794201
 30
0.0
 40
5.9972220420999998
  1
éP
  0
ENDBLK
  5
2F2
  8
0
  0
BLOCK
  8
0
  2
*U30
 70
     1
 10
0.0
 20
0.0
 30
0.0
  3
*U30
  1

  0
TEXT
  5
2F4
  8
┌▓È_1
  6
CONTINUOUS
 10
927.66964520069689
 20
-393.52557439089998
 30
0.0
 40
4.9752947043999987
  1
1
  0
ENDBLK
  5
2F6
  8
0
  0
BLOCK
  8
0
  2
*U31
 70
     1
 10
0.0
 20
0.0
 30
0.0
  3
*U31
  1

  0
TEXT
  5
2F8
  8
┌▓È_1
  6
CONTINUOUS
 62
     5
 10
946.94922811379877
 20
-454.181654342
 30
0.0
 40
5.9972220420999998
  1
H16.4
  0
ENDBLK
  5
2FA
  8
0
  0
BLOCK
  8
0
  2
*U32
 70
     1
 10
0.0
 20
0.0
 30
0.0
  3
*U32
  1

  0
TEXT
  5
2FC
  8
┌▓È_1
  6
CONTINUOUS
 10
978.84693593270015
 20
-443.3804189149792
 30
0.0
 40
5.9972220420999998
  1
 ìÌü@ü@Ä┐
  0
ENDBLK
  5
2FE
  8
0
  0
BLOCK
  8
0
  2
*U33
 70
     1
 10
0.0
 20
0.0
 30
0.0
  3
*U33
  1

  0
TEXT
  5
300
  8
┌▓È_1
  6
CONTINUOUS
 10
942.8896163904999
 20
-412.4955794201
 30
0.0
 40
5.9972220420999998
  1
éQ
  0
ENDBLK
  5
302
  8
0
  0
BLOCK
  8
0
  2
*U34
 70
     1
 10
0.0
 20
0.0
 30
0.0
  3
*U34
  1

  0
TEXT
  5
304
  8
┌▓È_1
  6
CONTINUOUS
 10
942.8896163904999
 20
-402.4955794201
 30
0.0
 40
5.9972220420999998
  1
éR
  0
ENDBLK
  5
306
  8
0
  0
BLOCK
  8
0
  2
*U35
 70
     1
 10
0.0
 20
0.0
 30
0.0
  3
*U35
  1

  0
TEXT
  5
308
  8
┌▓È_1
  6
CONTINUOUS
 10
942.8896163904999
 20
-392.49557942010011
 30
0.0
 40
5.9972220420999998
  1
éS
  0
ENDBLK
  5
30A
  8
0
  0
BLOCK
  8
0
  2
*U36
 70
     1
 10
0.0
 20
0.0
 30
0.0
  3
*U36
  1

  0
TEXT
  5
30C
  8
┌▓È_1
  6
CONTINUOUS
 10
942.8896163904999
 20
-382.49557942010011
 30
0.0
 40
5.9972220420999998
  1
éT
  0
ENDBLK
  5
30E
  8
0
  0
BLOCK
  8
0
  2
*U37
 70
     1
 10
0.0
 20
0.0
 30
0.0
  3
*U37
  1

  0
TEXT
  5
310
  8
┌▓È_1
  6
CONTINUOUS
 10
982.80864988600013
 20
-392.9231082273447
 30
0.0
 40
5.9972220420999998
  1
öÓ Ä¾ é» Ä▓
  0
ENDBLK
  5
312
  8
0
  0
BLOCK
  8
0
  2
*U38
 70
     1
 10
0.0
 20
0.0
 30
0.0
  3
*U38
  1

  0
TEXT
  5
314
  8
┌▓È_1
  6
CONTINUOUS
 10
999.15922539679991
 20
-422.8283293403274
 30
0.0
 40
5.9972220420999998
  1
ÿg
  0
ENDBLK
  5
316
  8
0
  0
BLOCK
  8
0
  2
*U39
 70
     1
 10
0.0
 20
0.0
 30
0.0
  3
*U39
  1

  0
TEXT
  5
318
  8
┌▓È_1
  6
CONTINUOUS
 10
987.63308726550008
 20
-432.73912143196191
 30
0.0
 40
5.9972220420999998
  1
òiü@ü@ü@û╝
  0
ENDBLK
  5
31A
  8
0
  0
BLOCK
  8
0
  2
*U40
 70
     1
 10
0.0
 20
0.0
 30
0.0
  3
*U40
  1

  0
TEXT
  5
31C
  8
┌▓È_1
  6
CONTINUOUS
 10
999.15922539679991
 20
-412.79788658884451
 30
0.0
 40
5.9972220420999998
  1
èW
  0
ENDBLK
  5
31E
  8
0
  0
BLOCK
  8
0
  2
*U41
 70
     1
 10
0.0
 20
0.0
 30
0.0
  3
*U41
  1

  0
TEXT
  5
320
  8
┌▓È_1
  6
CONTINUOUS
 10
988.92559513459992
 20
-402.85877209181012
 30
0.0
 40
5.9972220420999998
  1
û{ü@ü@æ╠
  0
ENDBLK
  5
322
  8
0
  0
BLOCK
  8
0
  2
*U42
 70
     1
 10
0.0
 20
0.0
 30
0.0
  3
*U42
  1

  0
TEXT
  5
324
  8
┌▓È_1
  6
CONTINUOUS
 10
977.86252630690012
 20
-382.83177997289653
 30
0.0
 40
5.9972220420999998
  1
âCâJâèî^é┬é▄é¦
  0
ENDBLK
  5
326
  8
0
  0
BLOCK
  8
0
  2
*U43
 70
     1
 10
0.0
 20
0.0
 30
0.0
  3
*U43
  1

  0
TEXT
  5
328
  8
┌▓È_1
  6
CONTINUOUS
 10
947.61624658899984
 20
-494.78192369271068
 30
0.0
 40
10.794999837900001
  1
èöÄ«ë´Äð
  0
ENDBLK
  5
32A
  8
0
  0
BLOCK
  8
0
  2
*U44
 70
     1
 10
0.0
 20
0.0
 30
0.0
  3
*U44
  1

  0
TEXT
  5
32C
  8
┌▓È_1
  6
CONTINUOUS
 10
1169.8720526238999
 20
-432.52261978385678
 30
0.0
 40
5.3974999188999986
  1
Éöù╩
  0
ENDBLK
  5
32E
  8
0
  0
BLOCK
  8
0
  2
*U45
 70
     1
 10
0.0
 20
0.0
 30
0.0
  3
*U45
  1

  0
TEXT
  5
330
  8
┌▓È_1
  6
CONTINUOUS
 10
1173.1995684679
 20
-422.4955794201
 30
0.0
 40
5.9972220420999998
  1
éP
  0
ENDBLK
  5
332
  8
0
  0
BLOCK
  8
0
  2
*U46
 70
     1
 10
0.0
 20
0.0
 30
0.0
  3
*U46
  1

  0
TEXT
  5
334
  8
┌▓È_1
  6
CONTINUOUS
 10
1064.6568728213001
 20
-412.4955794201
 30
0.0
 40
5.9972220420999998
  1
érétéréRéOéSü@éP.éOéöü@égék
  0
ENDBLK
  5
336
  8
0
  0
BLOCK
  8
0
  2
*U47
 70
     1
 10
0.0
 20
0.0
 30
0.0
  3
*U47
  1

  0
TEXT
  5
338
  8
┌▓È_1
  6
CONTINUOUS
 10
1173.1995684679
 20
-412.4955794201
 30
0.0
 40
5.9972220420999998
  1
éP
  0
ENDBLK
  5
33A
  8
0
  0
BLOCK
  8
0
  2
*U48
 70
     1
 10
0.0
 20
0.0
 30
0.0
  3
*U48
  1

  0
TEXT
  5
33C
  8
┌▓È_1
  6
CONTINUOUS
 10
1173.1995684679
 20
-402.4955794201
 30
0.0
 40
5.9972220420999998
  1
éP
  0
ENDBLK
  5
33E
  8
0
  0
BLOCK
  8
0
  2
*U49
 70
     1
 10
0.0
 20
0.0
 30
0.0
  3
*U49
  1

  0
TEXT
  5
340
  8
┌▓È_1
  6
CONTINUOUS
 10
1064.6568728213001
 20
-402.4955794201
 30
0.0
 40
5.9972220420999998
  1
érétéréRéOéSü@éO.éVéöü@éQéa
  0
ENDBLK
  5
342
  8
0
  0
BLOCK
  8
0
  2
*U50
 70
     1
 10
0.0
 20
0.0
 30
0.0
  3
*U50
  1

  0
TEXT
  5
344
  8
┌▓È_1
  6
CONTINUOUS
 10
1064.6568728213001
 20
-422.4955794201
 30
0.0
 40
5.9972220420999998
  1
érétéréRéOéSü@éP.éOéöü@égék
  0
ENDBLK
  5
346
  8
0
  0
BLOCK
  8
0
  2
*U51
 70
     1
 10
0.0
 20
0.0
 30
0.0
  3
*U51
  1

  0
TEXT
  5
348
  8
┌▓È_1
  6
CONTINUOUS
 10
1095.428247949
 20
-432.70867868047918
 30
0.0
 40
5.9972220420999998
  1
ìÌü@ü@ü@Ä┐
  0
ENDBLK
  5
34A
  8
0
  0
BLOCK
  8
0
  2
*U52
 70
     1
 10
0.0
 20
0.0
 30
0.0
  3
*U52
  1

  0
TEXT
  5
34C
  8
┌▓È_1
  6
CONTINUOUS
 10
1066.9050103582331
 20
-392.49557942010011
 30
0.0
 40
5.9972220420999998
  1
érétéréRéOéSü@âËéVü@âËéU
  0
ENDBLK
  5
34E
  8
0
  0
BLOCK
  8
0
  2
*U53
 70
     1
 10
0.0
 20
0.0
 30
0.0
  3
*U53
  1

  0
TEXT
  5
350
  8
┌▓È_1
  6
CONTINUOUS
 10
938.84693593270003
 20
-443.28909066053092
 30
0.0
 40
5.9972220420999998
  1
 ô·ü@ü@òt
  0
ENDBLK
  5
352
  8
0
  0
BLOCK
  8
0
  2
*U54
 70
     1
 10
0.0
 20
0.0
 30
0.0
  3
*U54
  1

  0
TEXT
  5
354
  8
┌▓È_1
  6
CONTINUOUS
 10
936.73657271549996
 20
-476.53263267239282
 30
0.0
 40
5.9972220420999998
  1
 É╗É}ü@ü@ è¦û{
  0
ENDBLK
  5
356
  8
0
  0
BLOCK
  8
0
  2
*U55
 70
     1
 10
0.0
 20
0.0
 30
0.0
  3
*U55
  1

  0
TEXT
  5
358
  8
┌▓È_1
  6
CONTINUOUS
 10
936.73657271549996
 20
-465.5021899209101
 30
0.0
 40
5.9972220420999998
  1
 É¦îvü@ü@öÆÉ{ëÛ
  0
ENDBLK
  5
35A
  8
0
  0
BLOCK
  8
0
  2
*U56
 70
     1
 10
0.0
 20
0.0
 30
0.0
  3
*U56
  1

  0
TEXT
  5
35C
  8
┌▓È_1
  6
CONTINUOUS
 10
1058.8469359327
 20
-443.5021899209101
 30
0.0
 40
5.9972220420999998
  1
 îƒü@ü@ê¾
  0
ENDBLK
  5
35E
  8
0
  0
BLOCK
  8
0
  2
*U57
 70
     1
 10
0.0
 20
0.0
 30
0.0
  3
*U57
  1

  0
TEXT
  5
360
  8
┌▓È_1
  6
CONTINUOUS
 10
1140.5796830611
 20
-471.19294774255781
 30
0.0
 40
7.1966662884000003
  1
ÄUÉàÉ­â{âbâNâX
  0
ENDBLK
  5
362
  8
0
  0
BLOCK
  8
0
  2
*U58
 70
     1
 10
0.0
 20
0.0
 30
0.0
  3
*U58
  1

  0
TEXT
  5
364
  8
┌▓È_1
  6
CONTINUOUS
 10
1140.6485704651
 20
-449.04936171349999
 30
0.0
 40
7.1966662884000003
  1
éréaéQéTü|éPéT
  0
ENDBLK
  5
366
  8
0
  0
BLOCK
  8
0
  2
*U59
 70
     1
 10
0.0
 20
0.0
 30
0.0
  3
*U59
  1

  0
TEXT
  5
368
  8
┌▓È_1
  6
CONTINUOUS
 10
1125.7150496704
 20
-493.56833704587598
 30
0.0
 40
7.1966662884000003
  1
òÃùpü@éóé®éÞî^é┬é▄é¦Ä«
  0
ENDBLK
  5
36A
  8
0
  0
BLOCK
  8
0
  2
*U60
 70
     1
 10
0.0
 20
0.0
 30
0.0
  3
*U60
  1

  0
TEXT
  5
36C
  8
┌▓È_1
  6
CONTINUOUS
 10
1085.782729922171
 20
-382.91249379265838
 30
0.0
 40
5.9972220420999998
  1
â^âLâQâôé`-20-5
  0
ENDBLK
  5
36E
  8
0
  0
BLOCK
  8
0
  2
*U61
 70
     1
 10
0.0
 20
0.0
 30
0.0
  3
*U61
  1

  0
TEXT
  5
370
  8
┌▓È_1
  6
CONTINUOUS
 10
1173.1995684679
 20
-392.49557942010011
 30
0.0
 40
5.9972220420999998
  1
éP
  0
ENDBLK
  5
372
  8
0
  0
BLOCK
  8
0
  2
*U62
 70
     1
 10
0.0
 20
0.0
 30
0.0
  3
*U62
  1

  0
TEXT
  5
374
  8
┌▓È_1
  6
CONTINUOUS
 10
1173.1995684679
 20
-382.49557942010011
 30
0.0
 40
5.9972220420999998
  1
éP
  0
ENDBLK
  5
376
  8
0
  0
BLOCK
  8
0
  2
*U63
 70
     1
 10
0.0
 20
0.0
 30
0.0
  3
*U63
  1

  0
TEXT
  5
378
  8
┌▓È_1
  6
CONTINUOUS
 10
1098.9699163891
 20
-487.35112831669642
 30
0.0
 40
5.9972220420999998
  1
É}öÈ
  0
ENDBLK
  5
37A
  8
0
  0
BLOCK
  8
0
  2
*U64
 70
     1
 10
0.0
 20
0.0
 30
0.0
  3
*U64
  1

  0
TEXT
  5
37C
  8
┌▓È_1
  6
CONTINUOUS
 10
1098.9699163891
 20
-465.41201381966192
 30
0.0
 40
5.9972220420999998
  1
òiû╝
  0
ENDBLK
  5
37E
  8
0
  0
BLOCK
  8
0
  2
*U65
 70
     1
 10
0.0
 20
0.0
 30
0.0
  3
*U65
  1

  0
TEXT
  5
380
  8
┌▓È_1
  6
CONTINUOUS
 10
1098.9699163891
 20
-443.3511283166963
 30
0.0
 40
5.9972220420999998
  1
î^öÈ
  0
ENDBLK
  5
382
  8
0
  0
BLOCK
  8
0
  2
*U66
 70
     1
 10
0.0
 20
0.0
 30
0.0
  3
*U66
  1

  0
TEXT
  5
384
  8
┌▓È_1
  6
CONTINUOUS
 10
1083.1134414269729
 20
41.399011253999987
 30
0.0
 40
5.9972220420999998
  1
H16.7.8
  0
ENDBLK
  5
386
  8
0
  0
BLOCK
  8
0
  2
*U67
 70
     1
 10
0.0
 20
0.0
 30
0.0
  3
*U67
  1

  0
TEXT
  5
388
  8
┌▓È_1
  6
CONTINUOUS
 10
1085.30531953373
 20
51.084620240838063
 30
0.0
 40
5.9972220420999998
  1
ë³Æ¨ô·
  0
ENDBLK
  5
38A
  8
0
  0
BLOCK
  8
0
  2
*U68
 70
     1
 10
0.0
 20
0.0
 30
0.0
  3
*U68
  1

  0
TEXT
  5
38C
  8
┌▓È_1
  6
CONTINUOUS
 10
1064.8673538353969
 20
40.835096744100007
 30
0.0
 40
4.9752947043999987
  1
1
  0
ENDBLK
  5
38E
  8
0
  0
BLOCK
  8
0
  2
*U69
 70
     1
 10
0.0
 20
0.0
 30
0.0
  3
*U69
  1

  0
TEXT
  5
390
  8
┌▓È_1
  6
CONTINUOUS
 10
1149.916508659205
 20
51.023734737872587
 30
0.0
 40
5.9972220420999998
  1
ë³ü@Æ¨ü@ôÓü@ùe
  0
ENDBLK
  5
392
  8
0
  0
BLOCK
  8
0
  2
*U70
 70
     1
 10
0.0
 20
0.0
 30
0.0
  3
*U70
  1

  0
TEXT
  5
394
  8
┌▓È_1
  6
CONTINUOUS
 10
1126.3690403873049
 20
41.064140987689839
 30
0.0
 40
5.9972220420999998
  1
öÓÄ¾é»Ä▓ü@âËéVü¿âËéUé╔ò¤ìX
  0
ENDBLK
  5
396
  8
0
  0
ENDSEC
  0
SECTION
  2
ENTITIES
  0
DIMENSION
  5
3E
  8
Éíû@É³
  2
*D0
 10
815.9677237494999
 20
-215.8151832321
 30
0.0
 11
815.9677237494999
 21
-210.8151832321
 31
0.0
 70
   128
  1
<>
 13
795.96772374950001
 23
-215.8151832321
 33
0.0
 14
785.96772374950001
 24
-205.8151832321
 34
0.0
 50
90.0
  0
INSERT
  5
40
  8
Éíû@É³
  2
BALLON0
 10
1200.968224084151
 20
2.2164776459703708
 30
0.0
  0
INSERT
  5
4B
  8
Éíû@É³
  2
BALLON1
 10
1200.968224084151
 20
2.2164776459703708
 30
0.0
  0
LINE
  5
54
  8
┌▓È_1
  6
BORDER
 62
     3
 10
681.46772374950001
 20
-20.815183232100001
 30
0.0
 11
681.46772374950001
 21
-220.8151832321
 31
0.0
  0
LINE
  5
55
  8
┌▓È_1
 62
     5
 10
436.73657271550002
 20
-501.15082403309992
 30
0.0
 11
436.73657271550002
 21
58.849175966899999
 31
0.0
  0
LINE
  5
56
  8
┌▓È_1
 62
     5
 10
1236.7365727155
 20
58.849175966899999
 30
0.0
 11
436.73657271550002
 21
58.849175966899999
 31
0.0
  0
LINE
  5
57
  8
┌▓È_1
 62
     5
 10
936.73657271549996
 20
-501.15082403309992
 30
0.0
 11
436.73657271550002
 21
-501.15082403309992
 31
0.0
  0
INSERT
  5
58
  8
0
  6
CONTINUOUS
  2
*U20
 10
0.0
 20
0.0
 30
0.0
  0
LINE
  5
59
  8
┌▓È_1
 10
936.73657271549996
 20
-457.15082403309998
 30
0.0
 11
1056.7365727155
 21
-457.15082403309998
 31
0.0
  0
LINE
  5
5A
  8
┌▓È_1
 10
1236.7365727155
 20
-395.15082403309998
 30
0.0
 11
936.73657271549996
 21
-395.15082403309998
 31
0.0
  0
LINE
  5
5B
  8
┌▓È_1
 10
1236.7365727155
 20
-385.15082403309998
 30
0.0
 11
936.73657271549996
 21
-385.15082403309998
 31
0.0
  0
LINE
  5
5C
  8
┌▓È_1
 10
1236.7365727155
 20
-375.15082403309998
 30
0.0
 11
936.73657271549996
 21
-375.15082403309998
 31
0.0
  0
LINE
  5
5D
  8
┌▓È_1
 10
1236.7365727155
 20
-425.15082403309992
 30
0.0
 11
936.73657271549996
 21
-425.15082403309992
 31
0.0
  0
LINE
  5
5E
  8
┌▓È_1
 10
1236.7365727155
 20
-405.15082403309992
 30
0.0
 11
936.73657271549996
 21
-405.15082403309992
 31
0.0
  0
LINE
  5
5F
  8
┌▓È_1
 10
1236.7365727155
 20
-415.15082403309998
 30
0.0
 11
936.73657271549996
 21
-415.15082403309998
 31
0.0
  0
DIMENSION
  5
6E
  8
Éíû@É³
  2
*D3
 10
798.96772374950001
 20
8.3585894686999982
 30
0.0
 11
681.46772374950001
 21
8.3585894686999982
 31
0.0
 70
   128
  1
<>
 13
798.96772374950001
 23
-28.815183232100001
 33
0.0
 14
563.96772374950001
 24
-28.815183232100001
 34
0.0
  0
LINE
  5
6F
  8
┌▓È_1
 62
     5
 10
785.968044093
 20
-204.81550357570001
 30
0.0
 11
576.96740340589997
 21
-204.81550357570001
 31
0.0
  0
INSERT
  5
70
  8
0
  6
CONTINUOUS
  2
*U21
 10
0.0
 20
0.0
 30
0.0
  0
LINE
  5
71
  8
┌▓È_1
 62
     5
 10
795.96772374950001
 20
-25.815183232100001
 30
0.0
 11
566.96772374950001
 21
-25.815183232100001
 31
0.0
  0
LINE
  5
72
  8
┌▓È_1
 62
     5
 10
576.96740340589997
 20
-36.814862888599997
 30
0.0
 11
785.968044093
 21
-36.814862888599997
 31
0.0
  0
LINE
  5
73
  8
┌▓È_1
 62
     5
 10
576.96772374950001
 20
-35.815183232099997
 30
0.0
 11
785.96772374950001
 21
-35.815183232099997
 31
0.0
  0
LINE
  5
74
  8
┌▓È_1
  6
BORDER
 62
     3
 10
558.96772374950001
 20
-120.8151832321
 30
0.0
 11
803.96772374950001
 21
-120.8151832321
 31
0.0
  0
LINE
  5
75
  8
┌▓È_1
 62
     5
 10
785.96772374950001
 20
-205.8151832321
 30
0.0
 11
576.96772374950001
 21
-205.8151832321
 31
0.0
  0
LINE
  5
76
  8
┌▓È_1
 62
     5
 10
566.96772374950001
 20
-215.8151832321
 30
0.0
 11
795.96772374950001
 21
-215.8151832321
 31
0.0
  0
DIMENSION
  5
85
  8
Éíû@É³
  2
*D4
 10
566.4677237494999
 20
-459.62227312789997
 30
0.0
 11
681.46772374950001
 21
-459.62227312789997
 31
0.0
 70
   128
  1
(<>)
 13
566.4677237494999
 23
-414.81636492479998
 33
0.0
 14
796.46772374950001
 24
-414.81636492479998
 34
0.0
 50
180.0
  0
DIMENSION
  5
94
  8
Éíû@É³
  2
*D5
 10
572.96772374950001
 20
-443.94269534519998
 30
0.0
 11
681.46772374950001
 21
-443.94269534519998
 31
0.0
 70
   128
  1
(<>)ôÓÉí
 13
572.96772374950001
 23
-413.81636492479998
 33
0.0
 14
789.96772374950001
 24
-413.81636492479998
 34
0.0
 50
180.0
  0
INSERT
  5
96
  8
Éíû@É³
  2
BALLON2
 10
374.13143650114222
 20
125.07321112988301
 30
0.0
  0
LINE
  5
9F
  8
┌▓È_1
 62
     5
 10
612.96772374950001
 20
-324.31624513309998
 30
0.0
 11
764.00836046820007
 21
-324.31624513309998
 31
0.0
  0
LINE
  5
A0
  8
┌▓È_1
 62
     5
 10
576.16757140569985
 20
-319.81624513309998
 30
0.0
 11
786.30836046820002
 21
-319.81624513309998
 31
0.0
  0
LINE
  5
A1
  8
┌▓È_1
 62
     5
 10
576.16757140569985
 20
-321.01624513310003
 30
0.0
 11
786.30836046820002
 21
-321.01624513310003
 31
0.0
  0
LINE
  5
A2
  8
┌▓È_1
 62
     5
 10
791.4677234702001
 20
-414.81636492479998
 30
0.0
 11
571.46772388359989
 21
-414.81636492479998
 31
0.0
  0
LINE
  5
A3
  8
┌▓È_1
 62
     5
 10
1236.7365727155
 20
-435.15082403309992
 30
0.0
 11
1236.7365727155
 21
58.849175966899999
 31
0.0
  0
LINE
  5
A4
  8
┌▓È_1
 62
     5
 10
788.96772374950001
 20
-38.815183232099997
 30
0.0
 11
788.96772374950001
 21
-202.8151832321
 31
0.0
  0
LINE
  5
A5
  8
┌▓È_1
 62
     5
 10
787.968044093
 20
-38.814862888600011
 30
0.0
 11
787.968044093
 21
-202.81550357570001
 31
0.0
  0
INSERT
  5
A6
  8
0
  6
CONTINUOUS
  2
*U23
 10
0.0
 20
0.0
 30
0.0
  0
DIMENSION
  5
B5
  8
Éíû@É³
  2
*D7
 10
598.96787999949993
 20
-80.815183232700008
 30
0.0
 11
586.46780187449986
 21
-80.815183232700008
 31
0.0
 70
   128
  1
<>
 13
598.96787999949993
 23
-100.81518323269999
 33
0.0
 14
573.96772374950001
 24
-120.8151832321
 34
0.0
  0
LINE
  5
B6
  8
┌▓È_1
 62
     5
 10
574.96740340589986
 20
-202.81550357570001
 30
0.0
 11
574.96740340589986
 21
-38.814862888600011
 31
0.0
  0
LINE
  5
B7
  8
┌▓È_1
 62
     5
 10
573.96772374950001
 20
-202.8151832321
 30
0.0
 11
573.96772374950001
 21
-38.815183232099997
 31
0.0
  0
LINE
  5
B8
  8
┌▓È_1
 62
     5
 10
563.96772374950001
 20
-28.815183232100001
 30
0.0
 11
563.96772374950001
 21
-212.8151832321
 31
0.0
  0
LINE
  5
B9
  8
┌▓È_1
  6
BORDER
 62
     3
 10
681.46772374950001
 20
-314.81624513309998
 30
0.0
 11
681.46772374950001
 21
-419.81636492479998
 31
0.0
  0
LINE
  5
BA
  8
┌▓È_1
 62
     5
 10
790.9677237494999
 20
-332.81636492479998
 30
0.0
 11
790.9677237494999
 21
-413.81636492479998
 31
0.0
  0
LINE
  5
BB
  8
┌▓È_1
 62
     5
 10
789.96772374950001
 20
-413.81636492479998
 30
0.0
 11
789.96772374950001
 21
-332.86002586770002
 31
0.0
  0
LINE
  5
BC
  8
┌▓È_1
 62
     5
 10
571.96772374950001
 20
-326.31636492479998
 30
0.0
 11
571.96772374950001
 21
-413.81636492479998
 31
0.0
  0
LINE
  5
BD
  8
┌▓È_1
 62
     5
 10
572.96772374950001
 20
-413.81636492479998
 30
0.0
 11
572.96772374950001
 21
-326.31636492479998
 31
0.0
  0
DIMENSION
  5
CC
  8
Éíû@É³
  2
*D8
 10
1048.8777497435999
 20
10.9891280726
 30
0.0
 11
1001.3777497436
 21
10.9891280726
 31
0.0
 70
   128
  1
<>
 13
1048.8777497435999
 23
-27.815183232100001
 33
0.0
 14
953.87774974359991
 24
-26.815183232100001
 34
0.0
  0
LINE
  5
CD
  8
┌▓È_1
  6
BORDER
 62
     3
 10
925.87774974360002
 20
-120.8151832321
 30
0.0
 11
1053.8777497435999
 21
-120.8151832321
 31
0.0
  0
LINE
  5
CE
  8
┌▓È_1
 62
     5
 10
959.87774974360002
 20
-208.3151832321
 30
0.0
 11
1047.8777497435999
 21
-208.3151832321
 31
0.0
  0
LINE
  5
CF
  8
┌▓È_1
 62
     5
 10
959.87774974360002
 20
-33.315183232099997
 30
0.0
 11
1047.8777497435999
 21
-33.315183232099997
 31
0.0
  0
LINE
  5
D0
  8
┌▓È_1
 10
1021.7365727155
 20
-468.15082403309992
 30
0.0
 11
1051.7365727155
 21
-468.15082403309992
 31
0.0
  0
LINE
  5
D1
  8
┌▓È_1
 10
1021.7365727155
 20
-446.15082403309992
 30
0.0
 11
1051.7365727155
 21
-446.15082403309992
 31
0.0
  0
LINE
  5
D2
  8
┌▓È_1
 62
     5
 10
1037.3790778133
 20
-486.18047809929999
 30
0.0
 11
1047.3790778133
 21
-486.18047809929999
 31
0.0
  0
LINE
  5
D3
  8
┌▓È_1
 62
     5
 10
936.73657271549996
 20
-501.15082403309992
 30
0.0
 11
1236.7365727155
 21
-501.15082403309992
 31
0.0
  0
LINE
  5
D4
  8
┌▓È_1
 62
     5
 10
1055.3790778133
 20
-482.58047809930002
 30
0.0
 11
1037.3790778133
 21
-482.58047809930002
 31
0.0
  0
LINE
  5
D5
  8
┌▓È_1
 10
936.73657271549996
 20
-479.15082403309992
 30
0.0
 11
1236.7365727155
 21
-479.15082403309992
 31
0.0
  0
LINE
  5
D6
  8
┌▓È_1
 10
1236.7365727155
 20
-435.15082403309992
 30
0.0
 11
936.73657271549996
 21
-435.15082403309992
 31
0.0
  0
INSERT
  5
D7
  8
0
  6
CONTINUOUS
  2
*U24
 10
0.0
 20
0.0
 30
0.0
  0
INSERT
  5
D8
  8
0
  6
CONTINUOUS
  2
*U25
 10
0.0
 20
0.0
 30
0.0
  0
ARC
  5
D9
  8
┌▓È_1
 62
     5
 10
580.96772374950001
 20
-325.31636492479998
 30
0.0
 40
1.0
 50
0.0
 51
90.0
  0
LINE
  5
DA
  8
┌▓È_1
 62
     5
 10
572.96772374950001
 20
-324.31636492479998
 30
0.0
 11
572.96772374950001
 21
-320.81636492479998
 31
0.0
  0
LINE
  5
DB
  8
┌▓È_1
 62
     5
 10
600.46743193739985
 20
-310.01624513310003
 30
0.0
 11
597.46743193739985
 21
-310.01624513310003
 31
0.0
  0
LINE
  5
DC
  8
┌▓È_1
 62
     5
 10
590.96772375709986
 20
-329.0159690914
 30
0.0
 11
590.96772375750004
 21
-331.0159690914
 31
0.0
  0
LINE
  5
DD
  8
┌▓È_1
 62
     5
 10
588.96772374950001
 20
-323.0159690914
 30
0.0
 11
588.96772374950001
 21
-325.5159690914
 31
0.0
  0
ARC
  5
DE
  8
┌▓È_1
 62
     5
 10
602.46743193739997
 20
-314.01624513310003
 30
0.0
 40
1.0
 50
180.0
 51
270.0
  0
LINE
  5
DF
  8
┌▓È_1
 62
     5
 10
595.46743193739985
 20
-315.01624513310003
 30
0.0
 11
602.46743193739997
 21
-315.01624513310003
 31
0.0
  0
LINE
  5
E0
  8
┌▓È_1
 62
     5
 10
589.46743193739985
 20
-315.01624513310003
 30
0.0
 11
595.46743193739985
 21
-315.01624513310003
 31
0.0
  0
LINE
  5
E1
  8
┌▓È_1
 62
     5
 10
587.46743193739985
 20
-317.01624513310003
 30
0.0
 11
589.46743193739985
 21
-315.01624513310003
 31
0.0
  0
LINE
  5
E2
  8
┌▓È_1
 62
     5
 10
573.96772374950001
 20
-325.31636492479998
 30
0.0
 11
572.96772374950001
 21
-325.31636492479998
 31
0.0
  0
ARC
  5
E3
  8
┌▓È_1
 62
     5
 10
572.96772374950001
 20
-326.31636492479998
 30
0.0
 40
1.0
 50
90.0
 51
180.0
  0
LINE
  5
E4
  8
┌▓È_1
 62
     5
 10
576.96772374950001
 20
-326.31636492479998
 30
0.0
 11
572.96772374950001
 21
-326.31636492479998
 31
0.0
  0
ARC
  5
E5
  8
┌▓È_1
 62
     5
 10
571.96772374950001
 20
-413.81636492479998
 30
0.0
 40
1.0
 50
270.0
 51
0.0
  0
LINE
  5
E6
  8
┌▓È_1
 62
     5
 10
571.96772374950001
 20
-413.81636492479998
 30
0.0
 11
566.4677237494999
 21
-413.81636492479998
 31
0.0
  0
LINE
  5
E7
  8
┌▓È_1
 62
     5
 10
566.4677237494999
 20
-414.81636492479998
 30
0.0
 11
571.46772374950001
 21
-414.81636492479998
 31
0.0
  0
LINE
  5
E8
  8
┌▓È_1
 62
     5
 10
566.4677237494999
 20
-413.81636492479998
 30
0.0
 11
566.4677237494999
 21
-414.81636492479998
 31
0.0
  0
DIMENSION
  5
F7
  8
Éíû@É³
  2
*D9
 10
1097.0283201474999
 20
-213.8151832321
 30
0.0
 11
1097.0283201474999
 21
-120.8151832321
 31
0.0
 70
   128
  1
(<>)
 13
1048.8777497435999
 23
-213.8151832321
 33
0.0
 14
1048.8777497435999
 24
-27.815183232100001
 34
0.0
 50
90.0
  0
DIMENSION
  5
106
  8
Éíû@É³
  2
*D10
 10
1080.5654375719
 20
-207.3151832321
 30
0.0
 11
1080.5654375719
 21
-120.8151832321
 31
0.0
 70
   128
  1
(<>)ôÓÉí
 13
1048.8777497435999
 23
-207.3151832321
 33
0.0
 14
1048.8777497435999
 24
-34.315183232099997
 34
0.0
 50
90.0
  0
LINE
  5
107
  8
┌▓È_1
 62
     5
 10
1048.8777497435999
 20
-213.8151832321
 30
0.0
 11
1048.8777497435999
 21
-27.815183232100001
 31
0.0
  0
LINE
  5
108
  8
┌▓È_1
 62
     5
 10
1047.8777497435999
 20
-213.8151832321
 30
0.0
 11
1047.8777497435999
 21
-27.815183232100001
 31
0.0
  0
INSERT
  5
10A
  8
Éíû@É³
  2
BALLON3
 10
376.09375325069868
 20
29.164022917989769
 30
0.0
  0
LINE
  5
113
  8
┌▓È_1
 62
     5
 10
953.87774974359991
 20
-214.8151832321
 30
0.0
 11
953.87774974359991
 21
-26.815183232100001
 31
0.0
  0
LINE
  5
114
  8
┌▓È_1
 62
     5
 10
959.87774974360002
 20
-215.8151832321
 30
0.0
 11
959.87774974360002
 21
-25.815183232100001
 31
0.0
  0
DIMENSION
  5
123
  8
Éíû@É³
  2
*D12
 10
831.30626034989996
 20
-215.8151832321
 30
0.0
 11
831.30626034989996
 21
-120.8151832321
 31
0.0
 70
   128
  1
<>
 13
795.96772374950001
 23
-215.8151832321
 33
0.0
 14
795.96772374950001
 24
-25.815183232100001
 34
0.0
 50
90.0
  0
LINE
  5
124
  8
┌▓È_1
 62
     5
 10
798.96772374950001
 20
-212.8151832321
 30
0.0
 11
798.96772374950001
 21
-28.815183232100001
 31
0.0
  0
LINE
  5
125
  8
┌▓È_1
 62
     5
 10
610.46772374950001
 20
-323.0159690914
 30
0.0
 11
587.4677237494999
 21
-323.0159690914
 31
0.0
  0
LINE
  5
126
  8
┌▓È_1
 62
     5
 10
584.96772374950001
 20
-325.5159690914
 30
0.0
 11
612.96772374950001
 21
-325.5159690914
 31
0.0
  0
LINE
  5
127
  8
┌▓È_1
 62
     5
 10
614.96772375709986
 20
-328.0159690914
 30
0.0
 11
589.96772374950001
 21
-328.0159690914
 31
0.0
  0
LINE
  5
128
  8
┌▓È_1
 62
     5
 10
614.96772375709986
 20
-329.0159690914
 30
0.0
 11
590.9677237494999
 21
-329.0159690914
 31
0.0
  0
LINE
  5
129
  8
┌▓È_1
 62
     5
 10
589.96772374950001
 20
-326.0159690914
 30
0.0
 11
610.46772374950001
 21
-326.0159690914
 31
0.0
  0
LINE
  5
12A
  8
┌▓È_1
 62
     5
 10
573.96772374950001
 20
-320.81636492479998
 30
0.0
 11
573.96772374950001
 21
-324.31636492479998
 31
0.0
  0
ARC
  5
12B
  8
┌▓È_1
 62
     5
 10
572.96772374950001
 20
-320.81636492479998
 30
0.0
 40
1.0
 50
0.0
 51
90.0
  0
LINE
  5
12C
  8
┌▓È_1
 62
     5
 10
573.96772374950001
 20
-324.31636492479998
 30
0.0
 11
574.93057140569988
 21
-324.31624513309998
 31
0.0
  0
LINE
  5
12D
  8
┌▓È_1
 62
     5
 10
581.96772374950001
 20
-325.31636492479998
 30
0.0
 11
581.96772374950001
 21
-326.31636492479998
 31
0.0
  0
ARC
  5
12E
  8
┌▓È_1
 62
     5
 10
564.96772374950001
 20
-320.81636492479998
 30
0.0
 40
1.0
 50
90.0
 51
180.0
  0
LINE
  5
12F
  8
┌▓È_1
 62
     5
 10
603.58652590300005
 20
-332.5159690914
 30
0.0
 11
603.58652590300005
 21
-335.61195013140002
 31
0.0
  0
LINE
  5
130
  8
┌▓È_1
 62
     5
 10
603.58652590300005
 20
-332.5159690914
 30
0.0
 11
594.34892159599985
 21
-332.5159690914
 31
0.0
  0
LINE
  5
131
  8
┌▓È_1
 62
     5
 10
587.46743193739985
 20
-317.01624513310003
 30
0.0
 11
610.46743193739985
 21
-317.01624513310003
 31
0.0
  0
ARC
  5
132
  8
┌▓È_1
 62
     5
 10
602.52712482620007
 20
-334.42500172519999
 30
0.0
 40
1.590967366299999
 50
228.24975495679999
 51
311.75024504319998
  0
LINE
  5
133
  8
┌▓È_1
 62
     5
 10
596.46743193739985
 20
-314.01624513310003
 30
0.0
 11
596.46743193739985
 21
-309.01624513310003
 31
0.0
  0
LINE
  5
134
  8
┌▓È_1
 62
     5
 10
601.46743193739985
 20
-314.01624513310003
 30
0.0
 11
601.46743193739985
 21
-309.01624513310003
 31
0.0
  0
ARC
  5
135
  8
┌▓È_1
 62
     5
 10
588.21772374950001
 20
-321.7659690914
 30
0.0
 40
0.75
 50
90.0
 51
270.0
  0
LINE
  5
136
  8
┌▓È_1
 62
     5
 10
587.4677237494999
 20
-322.5159690914
 30
0.0
 11
587.4677237494999
 21
-323.0159690914
 31
0.0
  0
LINE
  5
137
  8
┌▓È_1
 62
     5
 10
572.96772374950001
 20
-320.81636492479998
 30
0.0
 11
564.96772374950001
 21
-320.81636492479998
 31
0.0
  0
LINE
  5
138
  8
┌▓È_1
 62
     5
 10
564.96772374950001
 20
-319.81636492479998
 30
0.0
 11
572.96772374950001
 21
-319.81636492479998
 31
0.0
  0
LINE
  5
139
  8
┌▓È_1
 62
     5
 10
564.96772374950001
 20
-320.81636492479998
 30
0.0
 11
564.96772374950001
 21
-325.81636492479998
 31
0.0
  0
LINE
  5
13A
  8
┌▓È_1
 62
     5
 10
564.96772374950001
 20
-325.81636492479998
 30
0.0
 11
563.96772374950001
 21
-325.81636492479998
 31
0.0
  0
LINE
  5
13B
  8
┌▓È_1
 62
     5
 10
563.96772374950001
 20
-325.81636492479998
 30
0.0
 11
563.96772374950001
 21
-320.81636492479998
 31
0.0
  0
LINE
  5
13C
  8
┌▓È_1
 62
     5
 10
584.96772374950001
 20
-323.0159690914
 30
0.0
 11
584.96772374950001
 21
-325.5159690914
 31
0.0
  0
LINE
  5
13D
  8
┌▓È_1
 62
     5
 10
580.96772374950001
 20
-326.31636492479998
 30
0.0
 11
580.96772374950001
 21
-325.31636492479998
 31
0.0
  0
ARC
  5
13E
  8
┌▓È_1
 62
     5
 10
600.46743193739985
 20
-309.01624513310003
 30
0.0
 40
1.0
 50
270.0
 51
0.0
  0
ARC
  5
13F
  8
┌▓È_1
 62
     5
 10
595.46743193739985
 20
-314.01624513310003
 30
0.0
 40
1.0
 50
270.0
 51
0.0
  0
LINE
  5
140
  8
┌▓È_1
 62
     5
 10
598.62314012529987
 20
-322.5159690914
 30
0.0
 11
597.96984794419996
 21
-321.0159690914
 31
0.0
  0
LINE
  5
141
  8
┌▓È_1
 62
     5
 10
587.4677237494999
 20
-326.0159690914
 30
0.0
 11
589.96772374950001
 21
-326.0159690914
 31
0.0
  0
LINE
  5
142
  8
┌▓È_1
 62
     5
 10
587.46743193739985
 20
-318.01624513310003
 30
0.0
 11
587.46743193739985
 21
-317.01624513310003
 31
0.0
  0
LINE
  5
143
  8
┌▓È_1
 62
     5
 10
612.96772374950001
 20
-325.5159690914
 30
0.0
 11
612.96772374950001
 21
-323.0159690914
 31
0.0
  0
LINE
  5
144
  8
┌▓È_1
 62
     5
 10
610.46772374950001
 20
-322.5159690914
 30
0.0
 11
610.46772374950001
 21
-323.0159690914
 31
0.0
  0
LINE
  5
145
  8
┌▓È_1
 62
     5
 10
609.7177237494999
 20
-322.5159690914
 30
0.0
 11
610.46772374950001
 21
-322.5159690914
 31
0.0
  0
LINE
  5
146
  8
┌▓È_1
 62
     5
 10
614.96772375709986
 20
-328.0159690914
 30
0.0
 11
614.96772375709986
 21
-329.0159690914
 31
0.0
  0
LINE
  5
147
  8
┌▓È_1
 62
     5
 10
593.46772375750004
 20
-331.0159690914
 30
0.0
 11
593.46772375779994
 21
-332.5159690914
 31
0.0
  0
LINE
  5
148
  8
┌▓È_1
 62
     5
 10
593.46772375779994
 20
-332.5159690914
 30
0.0
 11
604.46772375779994
 21
-332.5159690914
 31
0.0
  0
ARC
  5
149
  8
┌▓È_1
 62
     5
 10
595.40832267269991
 20
-334.42500172519999
 30
0.0
 40
1.590967366299999
 50
228.24975495679999
 51
311.75024504319998
  0
LINE
  5
14A
  8
┌▓È_1
 62
     5
 10
564.96772374950001
 20
-325.81636492479998
 30
0.0
 11
572.1016983456999
 21
-325.81636492479998
 31
0.0
  0
ARC
  5
14B
  8
┌▓È_1
 62
     5
 10
573.96772374950001
 20
-324.31636492479998
 30
0.0
 40
1.0
 50
180.0
 51
270.0
  0
LINE
  5
14C
  8
┌▓È_1
 62
     5
 10
580.96772374950001
 20
-327.31636492479998
 30
0.0
 11
576.96772374950001
 21
-327.31636492479998
 31
0.0
  0
LINE
  5
14D
  8
┌▓È_1
 62
     5
 10
606.96772375709986
 20
-329.0159690914
 30
0.0
 11
606.96772375750004
 21
-331.0159690914
 31
0.0
  0
LINE
  5
14E
  8
┌▓È_1
 62
     5
 10
610.46772374950001
 20
-325.5159690914
 30
0.0
 11
610.46772374950001
 21
-326.0159690914
 31
0.0
  0
LINE
  5
14F
  8
┌▓È_1
 62
     5
 10
610.46772374950001
 20
-323.0159690914
 30
0.0
 11
612.96772374950001
 21
-323.0159690914
 31
0.0
  0
ARC
  5
150
  8
┌▓È_1
 62
     5
 10
609.7177237494999
 20
-321.7659690914
 30
0.0
 40
0.75
 50
270.0
 51
90.0
  0
LINE
  5
151
  8
┌▓È_1
 62
     5
 10
610.46743193739985
 20
-317.01624513310003
 30
0.0
 11
610.46743193739985
 21
-318.01624513310003
 31
0.0
  0
LINE
  5
152
  8
┌▓È_1
 62
     5
 10
601.46743193739985
 20
-300.51624513310003
 30
0.0
 11
601.46743193739985
 21
-309.01624513310003
 31
0.0
  0
LINE
  5
153
  8
┌▓È_1
 62
     5
 10
576.16757140569985
 20
-321.01624513310003
 30
0.0
 11
576.16757140569985
 21
-324.31624513309998
 31
0.0
  0
LINE
  5
154
  8
┌▓È_1
 62
     5
 10
590.9677237494999
 20
-329.0159690914
 30
0.0
 11
573.96773691570002
 21
-329.0159690914
 31
0.0
  0
LINE
  5
155
  8
┌▓È_1
 62
     5
 10
606.96772375750004
 20
-331.0159690914
 30
0.0
 11
590.96772375750004
 21
-331.0159690914
 31
0.0
  0
LINE
  5
156
  8
┌▓È_1
 62
     5
 10
604.46772375750004
 20
-331.0159690914
 30
0.0
 11
604.46772375779994
 21
-332.5159690914
 31
0.0
  0
LINE
  5
157
  8
┌▓È_1
 62
     5
 10
599.56388086599986
 20
-322.5159690914
 30
0.0
 11
609.7177237494999
 21
-322.5159690914
 31
0.0
  0
LINE
  5
158
  8
┌▓È_1
 62
     5
 10
587.4677237494999
 20
-322.5159690914
 30
0.0
 11
588.21772374950001
 21
-322.5159690914
 31
0.0
  0
LINE
  5
159
  8
┌▓È_1
 62
     5
 10
608.46743193739985
 20
-315.01624513310003
 30
0.0
 11
610.46743193739985
 21
-317.01624513310003
 31
0.0
  0
LINE
  5
15A
  8
┌▓È_1
 62
     5
 10
588.21772374950001
 20
-322.5159690914
 30
0.0
 11
598.62314012529987
 21
-322.5159690914
 31
0.0
  0
LINE
  5
15B
  8
┌▓È_1
 62
     5
 10
599.56388086599986
 20
-322.5159690914
 30
0.0
 11
598.96772374950001
 21
-321.0159690914
 31
0.0
  0
LINE
  5
15C
  8
┌▓È_1
 62
     5
 10
589.96772374950001
 20
-328.0159690914
 30
0.0
 11
573.96773691570002
 21
-328.0159690914
 31
0.0
  0
LINE
  5
15D
  8
┌▓È_1
 62
     5
 10
574.96757140570003
 20
-324.31624513309998
 30
0.0
 11
584.96772374950001
 21
-324.31624513309998
 31
0.0
  0
LINE
  5
15E
  8
┌▓È_1
 62
     5
 10
573.96773691570002
 20
-328.0159690914
 30
0.0
 11
573.96773691570002
 21
-329.0159690914
 31
0.0
  0
LINE
  5
15F
  8
┌▓È_1
 62
     5
 10
574.96757140570003
 20
-321.01624513310003
 30
0.0
 11
574.96757140570003
 21
-324.31624513309998
 31
0.0
  0
ARC
  5
160
  8
┌▓È_1
 62
     5
 10
576.16757140569985
 20
-321.01624513310003
 30
0.0
 40
1.1999999999999991
 50
90.0
 51
180.0
  0
LINE
  5
161
  8
┌▓È_1
 62
     5
 10
580.96772374950001
 20
-325.31636492479998
 30
0.0
 11
573.96772374950001
 21
-325.31636492479998
 31
0.0
  0
LINE
  5
162
  8
┌▓È_1
 62
     5
 10
576.96772374950001
 20
-326.31636492479998
 30
0.0
 11
580.96772374950001
 21
-326.31636492479998
 31
0.0
  0
ARC
  5
163
  8
┌▓È_1
 62
     5
 10
598.96772374950001
 20
-328.5159690914
 30
0.0
 40
7.5
 50
250.52877936549999
 51
289.47122063450001
  0
LINE
  5
164
  8
┌▓È_1
 62
     5
 10
594.34892159599985
 20
-335.61195013140002
 30
0.0
 11
594.34892159599985
 21
-332.5159690914
 31
0.0
  0
ARC
  5
165
  8
┌▓È_1
 62
     5
 10
597.46743193739985
 20
-309.01624513310003
 30
0.0
 40
1.0
 50
180.0
 51
270.0
  0
LINE
  5
166
  8
┌▓È_1
 62
     5
 10
587.46743193739985
 20
-318.01624513310003
 30
0.0
 11
587.46743193739985
 21
-319.81624513309998
 31
0.0
  0
ARC
  5
167
  8
┌▓È_1
 62
     5
 10
580.96772374950001
 20
-326.31636492479998
 30
0.0
 40
1.0
 50
270.0
 51
0.0
  0
LINE
  5
168
  8
┌▓È_1
 62
     5
 10
602.52712513690005
 20
-336.0159690914
 30
0.0
 11
595.40832238220003
 21
-336.0159690914
 31
0.0
  0
LINE
  5
169
  8
┌▓È_1
 62
     5
 10
596.46772374950001
 20
-332.5159690914
 30
0.0
 11
596.46772374950001
 21
-335.61195013140002
 31
0.0
  0
LINE
  5
16A
  8
┌▓È_1
 62
     5
 10
601.46772374950001
 20
-332.5159690914
 30
0.0
 11
601.46772374950001
 21
-335.61195013140002
 31
0.0
  0
LINE
  5
16B
  8
┌▓È_1
 62
     5
 10
596.46743193739985
 20
-300.51624513310003
 30
0.0
 11
596.46743193739985
 21
-309.01624513310003
 31
0.0
  0
LINE
  5
16C
  8
┌▓È_1
 62
     5
 10
576.96772374950001
 20
-327.31636492479998
 30
0.0
 11
576.96772374950001
 21
-326.31636492479998
 31
0.0
  0
LINE
  5
16D
  8
┌▓È_1
 62
     5
 10
610.46743193739985
 20
-318.01624513310003
 30
0.0
 11
610.46743193739985
 21
-319.81624513309998
 31
0.0
  0
LINE
  5
16E
  8
┌▓È_1
 62
     5
 10
589.96772374950001
 20
-328.0159690914
 30
0.0
 11
589.96772374950001
 21
-326.0159690914
 31
0.0
  0
LINE
  5
16F
  8
┌▓È_1
 62
     5
 10
608.96772374950001
 20
-323.0159690914
 30
0.0
 11
608.96772374950001
 21
-325.5159690914
 31
0.0
  0
LINE
  5
170
  8
┌▓È_1
 62
     5
 10
797.96772374950001
 20
-319.81636492479998
 30
0.0
 11
789.96772374950001
 21
-319.81636492479998
 31
0.0
  0
LINE
  5
171
  8
┌▓È_1
 62
     5
 10
797.96772374950001
 20
-325.81636492479998
 30
0.0
 11
798.96772374950001
 21
-325.81636492479998
 31
0.0
  0
LINE
  5
172
  8
┌▓È_1
 62
     5
 10
786.30836046820002
 20
-321.01624513310003
 30
0.0
 11
784.04170904809985
 21
-329.47550339600002
 31
0.0
  0
CIRCLE
  5
173
  8
┌▓È_1
 62
     5
 10
774.96772374950001
 20
-327.31606126909998
 30
0.0
 40
3.6000000000000001
  0
LINE
  5
174
  8
┌▓È_1
  6
BORDER
 62
     3
 10
767.96772374950001
 20
-327.31606126909998
 30
0.0
 11
781.96772374950001
 21
-327.31606126909998
 31
0.0
  0
LINE
  5
175
  8
┌▓È_1
  6
BORDER
 62
     3
 10
774.96772374950001
 20
-320.31606126909998
 30
0.0
 11
774.96772374950001
 21
-334.31606126909998
 31
0.0
  0
LINE
  5
176
  8
┌▓È_1
 62
     5
 10
789.97460312420003
 20
-332.94227166489998
 30
0.0
 11
788.97840842610003
 21
-333.02942740769998
 31
0.0
  0
LINE
  5
177
  8
┌▓È_1
 62
     5
 10
797.96772374950001
 20
-325.81636492479998
 30
0.0
 11
790.67846977149986
 21
-325.81636492479998
 31
0.0
  0
LINE
  5
178
  8
┌▓È_1
 62
     5
 10
789.46803994959998
 20
-320.81636492479998
 30
0.0
 11
797.96772374950001
 21
-320.81636492479998
 31
0.0
  0
LINE
  5
179
  8
┌▓È_1
 62
     5
 10
790.47185978719995
 20
-320.81636492479998
 30
0.0
 11
789.47566508909995
 21
-320.9035206675
 31
0.0
  0
ARC
  5
17A
  8
┌▓È_1
 62
     5
 10
789.96772374950001
 20
-320.81636492479998
 30
0.0
 40
1.0
 50
90.0
 51
183.3338037204
  0
LINE
  5
17B
  8
┌▓È_1
 62
     5
 10
790.9677237494999
 20
-332.81636492479998
 30
0.0
 11
790.47185978719995
 21
-320.81636492479998
 31
0.0
  0
LINE
  5
17C
  8
┌▓È_1
 62
     5
 10
789.46803994959998
 20
-320.81636492479998
 30
0.0
 11
789.96772374950001
 21
-332.86002586770002
 31
0.0
  0
LINE
  5
17D
  8
┌▓È_1
 62
     5
 10
788.47152905140001
 20
-320.9035206675
 30
0.0
 11
788.97840842610003
 21
-333.02942740769998
 31
0.0
  0
ARC
  5
17E
  8
┌▓È_1
 62
     5
 10
790.9677237494999
 20
-413.81636492479998
 30
0.0
 40
1.0
 50
180.0
 51
270.0
  0
LINE
  5
17F
  8
┌▓È_1
 62
     5
 10
790.9677237494999
 20
-413.81636492479998
 30
0.0
 11
796.46772374950001
 21
-413.81636492479998
 31
0.0
  0
LINE
  5
180
  8
┌▓È_1
 62
     5
 10
796.46772374950001
 20
-414.81636492479998
 30
0.0
 11
791.4677237494999
 21
-414.81636492479998
 31
0.0
  0
LINE
  5
181
  8
┌▓È_1
 62
     5
 10
796.46772374950001
 20
-413.81636492479998
 30
0.0
 11
796.46772374950001
 21
-414.81636492479998
 31
0.0
  0
LINE
  5
182
  8
┌▓È_1
  6
BORDER
 62
     3
 10
598.96772374950001
 20
-292.5159690914
 30
0.0
 11
598.96772375959995
 21
-341.0159690914
 31
0.0
  0
LINE
  5
183
  8
┌▓È_1
 62
     5
 10
598.62314012529987
 20
-322.5159690914
 30
0.0
 11
599.56388086599986
 21
-322.5159690914
 31
0.0
  0
LINE
  5
184
  8
┌▓È_1
 62
     5
 10
587.4677237494999
 20
-325.5159690914
 30
0.0
 11
587.4677237494999
 21
-326.0159690914
 31
0.0
  0
LINE
  5
185
  8
┌▓È_1
 62
     5
 10
608.96772374950001
 20
-326.0159690914
 30
0.0
 11
608.96772374950001
 21
-328.0159690914
 31
0.0
  0
LINE
  5
186
  8
┌▓È_1
 62
     5
 10
584.96772374950001
 20
-323.0159690914
 30
0.0
 11
587.4677237494999
 21
-323.0159690914
 31
0.0
  0
LINE
  5
187
  8
┌▓È_1
 62
     5
 10
602.46743193739997
 20
-315.01624513310003
 30
0.0
 11
608.46743193739985
 21
-315.01624513310003
 31
0.0
  0
ARC
  5
188
  8
┌▓È_1
 62
     5
 10
598.96743193739997
 20
-300.51624513310003
 30
0.0
 40
2.5
 50
360.0
 51
180.0
  0
ARC
  5
189
  8
┌▓È_1
 62
     5
 10
576.96740340589997
 20
-38.814862888600011
 30
0.0
 40
2.0
 50
90.0
 51
180.0
  0
ARC
  5
18A
  8
┌▓È_1
 62
     5
 10
576.96772374950001
 20
-202.8151832321
 30
0.0
 40
3.0
 50
180.0
 51
270.0
  0
ARC
  5
18B
  8
┌▓È_1
 62
     5
 10
576.96740340589997
 20
-202.81550357570001
 30
0.0
 40
2.0
 50
180.0
 51
270.0
  0
LINE
  5
18C
  8
┌▓È_1
 62
     5
 10
601.46772374950001
 20
-109.5651832321
 30
0.0
 11
601.46772374950001
 21
-132.0651832321
 31
0.0
  0
ARC
  5
18D
  8
┌▓È_1
 62
     5
 10
598.96772374950001
 20
-109.5651832321
 30
0.0
 40
2.5
 50
360.0
 51
180.0
  0
ARC
  5
18E
  8
┌▓È_1
 62
     5
 10
598.96772374950001
 20
-120.8151832321
 30
0.0
 40
5.0
 50
300.0
 51
60.0
  0
ARC
  5
18F
  8
┌▓È_1
 62
     5
 10
598.96772374950001
 20
-120.8151832321
 30
0.0
 40
11.5
 50
102.5558577986
 51
257.44414220139998
  0
ARC
  5
190
  8
┌▓È_1
 62
     5
 10
598.96772374950001
 20
-120.8151832321
 30
0.0
 40
11.5
 50
282.55585779860002
 51
77.444142201399998
  0
ARC
  5
191
  8
┌▓È_1
 62
     5
 10
598.96772374950001
 20
-120.8151832321
 30
0.0
 40
9.0
 50
106.1276202132
 51
253.8723797868
  0
ARC
  5
192
  8
┌▓È_1
 62
     5
 10
598.96772374950001
 20
-120.8151832321
 30
0.0
 40
9.0
 50
286.12762021319998
 51
73.872379786799996
  0
ARC
  5
193
  8
┌▓È_1
 62
     5
 10
598.96772374950001
 20
-120.8151832321
 30
0.0
 40
5.0
 50
120.0
 51
240.0
  0
ARC
  5
194
  8
┌▓È_1
 62
     5
 10
598.96772374950001
 20
-132.0651832321
 30
0.0
 40
2.5
 50
180.0
 51
360.0
  0
LINE
  5
195
  8
┌▓È_1
 62
     5
 10
596.46772374950001
 20
-132.0651832321
 30
0.0
 11
596.46772374950001
 21
-109.5651832321
 31
0.0
  0
LINE
  5
196
  8
┌▓È_1
  6
BORDER
 62
     3
 10
598.96787999949993
 20
-140.81518323149999
 30
0.0
 11
598.96787999949993
 21
-100.81518323269999
 31
0.0
  0
ARC
  5
197
  8
┌▓È_1
 62
     5
 10
566.96772374950001
 20
-212.8151832321
 30
0.0
 40
3.0
 50
180.0
 51
270.0
  0
INSERT
  5
199
  8
Éíû@É³
  2
BALLON4
 10
374.13143650114222
 20
125.07321112988301
 30
0.0
  0
LINE
  5
1A2
  8
┌▓È_1
 62
     5
 10
764.00836046820007
 20
-324.31624513309998
 30
0.0
 11
766.28592860389995
 21
-332.81624513309998
 31
0.0
  0
LINE
  5
1A3
  8
┌▓È_1
 62
     5
 10
783.14655999750005
 20
-332.81624513309998
 30
0.0
 11
766.28592860389995
 21
-332.81624513309998
 31
0.0
  0
LINE
  5
1A4
  8
┌▓È_1
 62
     5
 10
797.96772374950001
 20
-320.81636492479998
 30
0.0
 11
797.96772374950001
 21
-325.81636492479998
 31
0.0
  0
ARC
  5
1A5
  8
┌▓È_1
 62
     5
 10
786.30836046820002
 20
-321.01624513310003
 30
0.0
 40
1.1999999999999991
 50
345.0
 51
90.0
  0
LINE
  5
1A6
  8
┌▓È_1
 62
     5
 10
784.04170904809985
 20
-329.47550339600002
 30
0.0
 11
783.14655999750005
 21
-332.81624513309998
 31
0.0
  0
LINE
  5
1A7
  8
┌▓È_1
 62
     5
 10
785.18986386289987
 20
-329.82697525859999
 30
0.0
 11
784.03075287130002
 21
-329.51639240439999
 31
0.0
  0
LINE
  5
1A8
  8
┌▓È_1
 62
     5
 10
787.46747145979998
 20
-321.32682798719998
 30
0.0
 11
785.18986386289987
 21
-329.82697525859999
 31
0.0
  0
LINE
  5
1A9
  8
┌▓È_1
 62
     5
 10
798.96772374950001
 20
-325.81636492479998
 30
0.0
 11
798.96772374950001
 21
-320.81636492479998
 31
0.0
  0
ARC
  5
1AA
  8
┌▓È_1
 62
     5
 10
797.96772374950001
 20
-320.81636492479998
 30
0.0
 40
1.0
 50
0.0
 51
90.0
  0
INSERT
  5
1AB
  8
0
  6
CONTINUOUS
  2
*U28
 10
0.0
 20
0.0
 30
0.0
  0
INSERT
  5
1AC
  8
0
  6
CONTINUOUS
  2
*U29
 10
0.0
 20
0.0
 30
0.0
  0
LINE
  5
1AD
  8
┌▓È_1
 62
     5
 10
928.97029330869987
 20
-386.07626016860002
 30
0.0
 11
924.02029330869993
 21
-394.64991166610002
 31
0.0
  0
LINE
  5
1AE
  8
┌▓È_1
 62
     5
 10
928.97029330869987
 20
-386.07626016860002
 30
0.0
 11
933.92029330869991
 21
-394.64991166610002
 31
0.0
  0
LINE
  5
1AF
  8
┌▓È_1
 62
     5
 10
924.02029330869993
 20
-394.64991166610002
 30
0.0
 11
933.92029330869991
 21
-394.64991166610002
 31
0.0
  0
INSERT
  5
1B0
  8
0
  6
CONTINUOUS
  2
*U30
 10
0.0
 20
0.0
 30
0.0
  0
DIMENSION
  5
1BF
  8
Éíû@É³
  2
*D14
 10
815.9677237494999
 20
-35.815183232099997
 30
0.0
 11
815.9677237494999
 21
-30.815183232100001
 31
0.0
 70
   128
  1
<>
 13
785.96772374950001
 23
-35.815183232099997
 33
0.0
 14
795.96772374950001
 24
-25.815183232100001
 34
0.0
 50
90.0
  0
DIMENSION
  5
1CE
  8
Éíû@É³
  2
*D15
 10
798.96772374950001
 20
-8.8151832321000008
 30
0.0
 11
793.96772374950001
 21
-8.8151832321000008
 31
0.0
 70
   128
  1
<>
 13
798.96772374950001
 23
-28.815183232100001
 33
0.0
 14
788.96772374950001
 24
-38.815183232099997
 34
0.0
  0
ARC
  5
1CF
  8
┌▓È_1
 62
     5
 10
785.968044093
 20
-38.814862888600011
 30
0.0
 40
2.0
 50
0.0
 51
90.0
  0
ARC
  5
1D0
  8
┌▓È_1
 62
     5
 10
795.96772374950001
 20
-28.815183232100001
 30
0.0
 40
3.0
 50
0.0
 51
90.0
  0
LINE
  5
1D1
  8
┌▓È_1
 10
705.0046173751
 20
-62.061175039299997
 30
0.0
 11
755.0046173751
 21
-62.061175039299997
 31
0.0
  0
LINE
  5
1D2
  8
┌▓È_1
 10
706.50461737509988
 20
-63.561175039300011
 30
0.0
 11
756.50461737509988
 21
-63.561175039300011
 31
0.0
  0
LINE
  5
1D3
  8
┌▓È_1
 10
708.0046173751
 20
-65.061175039299997
 30
0.0
 11
758.0046173751
 21
-65.061175039299997
 31
0.0
  0
LINE
  5
1D4
  8
┌▓È_1
 10
709.5046173751
 20
-66.561175039299997
 30
0.0
 11
759.5046173751
 21
-66.561175039299997
 31
0.0
  0
LINE
  5
1D5
  8
┌▓È_1
 10
711.00461737509988
 20
-68.061175039299997
 30
0.0
 11
761.00461737509988
 21
-68.061175039299997
 31
0.0
  0
LINE
  5
1D6
  8
┌▓È_1
 10
703.50461737509988
 20
-60.561175039299997
 30
0.0
 11
753.50461737509988
 21
-60.561175039299997
 31
0.0
  0
ARC
  5
1D7
  8
┌▓È_1
 62
     5
 10
785.96772374950001
 20
-38.815183232099997
 30
0.0
 40
3.0
 50
0.0
 51
90.0
  0
LINE
  5
1D8
  8
┌▓È_1
 10
712.5046173751
 20
-69.561175039299997
 30
0.0
 11
762.5046173751
 21
-69.561175039299997
 31
0.0
  0
LINE
  5
1D9
  8
┌▓È_1
 10
714.0046173751
 20
-71.061175039299997
 30
0.0
 11
764.0046173751
 21
-71.061175039299997
 31
0.0
  0
ARC
  5
1DA
  8
┌▓È_1
 62
     5
 10
785.96772374950001
 20
-202.8151832321
 30
0.0
 40
3.0
 50
270.0
 51
0.0
  0
ARC
  5
1DB
  8
┌▓È_1
 62
     5
 10
785.968044093
 20
-202.81550357570001
 30
0.0
 40
2.0
 50
270.0
 51
0.0
  0
ARC
  5
1DC
  8
┌▓È_1
 62
     5
 10
795.96772374950001
 20
-212.8151832321
 30
0.0
 40
3.0
 50
270.0
 51
0.0
  0
DIMENSION
  5
1EB
  8
Éíû@É³
  2
*D16
 10
573.96772374950001
 20
-8.8151832321000008
 30
0.0
 11
568.96772374950001
 21
-8.8151832321000008
 31
0.0
 70
   128
  1
<>
 13
573.96772374950001
 23
-38.815183232099997
 33
0.0
 14
563.96772374950001
 24
-28.815183232100001
 34
0.0
  0
ARC
  5
1EC
  8
┌▓È_1
 62
     5
 10
566.96772374950001
 20
-28.815183232100001
 30
0.0
 40
3.0
 50
90.0
 51
180.0
  0
ARC
  5
1ED
  8
┌▓È_1
 62
     5
 10
576.96772374950001
 20
-38.815183232099997
 30
0.0
 40
3.0
 50
90.0
 51
180.0
  0
LINE
  5
1EE
  8
┌▓È_1
 62
     5
 10
1020.0578656921
 20
-489.58047809930002
 30
0.0
 11
1024.0578656921
 21
-489.58047809930002
 31
0.0
  0
LINE
  5
1EF
  8
┌▓È_1
 62
     5
 10
1037.3790778133
 20
-496.58047809930002
 30
0.0
 11
1037.3790778133
 21
-493.58047809930002
 31
0.0
  0
ARC
  5
1F0
  8
┌▓È_1
 62
     5
 10
1023.0578656921
 20
-490.58047809930002
 30
0.0
 40
6.0
 50
270.0
 51
0.0
  0
LINE
  5
1F1
  8
┌▓È_1
 62
     5
 10
1037.3790778133
 20
-482.58047809930002
 30
0.0
 11
1037.3790778133
 21
-486.18047809929999
 31
0.0
  0
LINE
  5
1F2
  8
┌▓È_1
 62
     5
 10
1032.0578656921
 20
-482.58047809930002
 30
0.0
 11
1024.0578656921
 21
-482.58047809930002
 31
0.0
  0
LINE
  5
1F3
  8
┌▓È_1
 62
     5
 10
1032.0578656921
 20
-486.58047809930002
 30
0.0
 11
1032.0578656921
 21
-489.58047809930002
 31
0.0
  0
LINE
  5
1F4
  8
┌▓È_1
 62
     5
 10
1012.7556580688999
 20
-486.58047809930002
 30
0.0
 11
1012.7556580688999
 21
-489.58047809930002
 31
0.0
  0
LINE
  5
1F5
  8
┌▓È_1
 62
     5
 10
1037.3790778133
 20
-487.8689191691999
 30
0.0
 11
1037.3790778133
 21
-487.2246986342999
 31
0.0
  0
LINE
  5
1F6
  8
┌▓È_1
 62
     5
 10
1045.3790778133
 20
-487.2246986342999
 30
0.0
 11
1044.2477069634001
 21
-488.35606948420002
 31
0.0
  0
LINE
  5
1F7
  8
┌▓È_1
 62
     5
 10
1024.0578656921
 20
-489.58047809930002
 30
0.0
 11
1024.0578656921
 21
-490.58047809930002
 31
0.0
  0
INSERT
  5
1F8
  8
0
  6
CONTINUOUS
  2
*U31
 10
0.0
 20
0.0
 30
0.0
  0
INSERT
  5
1F9
  8
0
  6
CONTINUOUS
  2
*U32
 10
0.0
 20
0.0
 30
0.0
  0
INSERT
  5
1FA
  8
0
  6
CONTINUOUS
  2
*U33
 10
0.0
 20
0.0
 30
0.0
  0
INSERT
  5
1FB
  8
0
  6
CONTINUOUS
  2
*U34
 10
0.0
 20
0.0
 30
0.0
  0
INSERT
  5
1FC
  8
0
  6
CONTINUOUS
  2
*U35
 10
0.0
 20
0.0
 30
0.0
  0
INSERT
  5
1FD
  8
0
  6
CONTINUOUS
  2
*U36
 10
0.0
 20
0.0
 30
0.0
  0
INSERT
  5
1FE
  8
0
  6
CONTINUOUS
  2
*U37
 10
0.0
 20
0.0
 30
0.0
  0
INSERT
  5
1FF
  8
0
  6
CONTINUOUS
  2
*U38
 10
0.0
 20
0.0
 30
0.0
  0
LINE
  5
200
  8
┌▓È_1
 10
956.73657271550007
 20
-435.15082403309992
 30
0.0
 11
956.73657271550007
 21
-405.15082403309992
 31
0.0
  0
INSERT
  5
201
  8
0
  6
CONTINUOUS
  2
*U39
 10
0.0
 20
0.0
 30
0.0
  0
INSERT
  5
202
  8
0
  6
CONTINUOUS
  2
*U40
 10
0.0
 20
0.0
 30
0.0
  0
INSERT
  5
203
  8
0
  6
CONTINUOUS
  2
*U41
 10
0.0
 20
0.0
 30
0.0
  0
INSERT
  5
204
  8
0
  6
CONTINUOUS
  2
*U42
 10
0.0
 20
0.0
 30
0.0
  0
LINE
  5
205
  8
┌▓È_1
 10
956.73657271550007
 20
-435.15082403309992
 30
0.0
 11
956.73657271550007
 21
-375.15082403309998
 31
0.0
  0
LINE
  5
206
  8
┌▓È_1
 10
936.73657271549996
 20
-435.15082403309992
 30
0.0
 11
936.73657271549996
 21
-375.15082403309998
 31
0.0
  0
LINE
  5
207
  8
┌▓È_1
 62
     5
 10
1029.0578656921
 20
-489.58047809930002
 30
0.0
 11
1032.0578656921
 21
-489.58047809930002
 31
0.0
  0
LINE
  5
208
  8
┌▓È_1
 62
     5
 10
1015.0578656921
 20
-493.58047809930002
 30
0.0
 11
1015.0578656921
 21
-496.58047809930002
 31
0.0
  0
LINE
  5
209
  8
┌▓È_1
 62
     5
 10
1015.0578656921
 20
-489.58047809930002
 30
0.0
 11
1014.7556580688999
 21
-489.58047809930002
 31
0.0
  0
LINE
  5
20A
  8
┌▓È_1
 62
     5
 10
1015.0578656921
 20
-486.58047809930002
 30
0.0
 11
1012.7556580688999
 21
-486.58047809930002
 31
0.0
  0
LINE
  5
20B
  8
┌▓È_1
 62
     5
 10
1037.3790778133
 20
-493.58047809930002
 30
0.0
 11
1039.7790778133001
 21
-493.58047809930002
 31
0.0
  0
LINE
  5
20C
  8
┌▓È_1
 62
     5
 10
1037.3790778133
 20
-493.58047809930002
 30
0.0
 11
1037.3790778133
 21
-496.58047809930002
 31
0.0
  0
ARC
  5
20D
  8
┌▓È_1
 62
     5
 10
1039.7790778133001
 20
-485.9804780993
 30
0.0
 40
7.5999999999999988
 50
270.0
 51
298.08590481520002
  0
LINE
  5
20E
  8
┌▓È_1
 62
     5
 10
1037.3790778133
 20
-487.2246986342999
 30
0.0
 11
1045.3790778133
 21
-487.2246986342999
 31
0.0
  0
LINE
  5
20F
  8
┌▓È_1
 62
     5
 10
1024.0578656921
 20
-482.58047809930002
 30
0.0
 11
1024.0578656921
 21
-486.58047809930002
 31
0.0
  0
LINE
  5
210
  8
┌▓È_1
 62
     5
 10
1037.3790778133
 20
-496.58047809930002
 30
0.0
 11
1042.3790778133
 21
-496.58047809930002
 31
0.0
  0
LINE
  5
211
  8
┌▓È_1
 62
     5
 10
1020.0578656921
 20
-486.58047809930002
 30
0.0
 11
1020.0578656921
 21
-485.58047809930002
 31
0.0
  0
LINE
  5
212
  8
┌▓È_1
 62
     5
 10
1029.0578656921
 20
-485.58047809930002
 30
0.0
 11
1032.0578656921
 21
-482.58047809930002
 31
0.0
  0
LINE
  5
213
  8
┌▓È_1
 62
     5
 10
1015.0578656921
 20
-492.58047809930002
 30
0.0
 11
1020.0578656921
 21
-492.58047809930002
 31
0.0
  0
LINE
  5
214
  8
┌▓È_1
 10
976.73657271549996
 20
-435.15082403309992
 30
0.0
 11
976.73657271549996
 21
-457.15082403309998
 31
0.0
  0
LINE
  5
215
  8
┌▓È_1
 10
936.73657271549996
 20
-435.15082403309992
 30
0.0
 11
936.73657271549996
 21
-501.15082403309992
 31
0.0
  0
LINE
  5
216
  8
┌▓È_1
 10
1016.7365727155
 20
-457.15082403309998
 30
0.0
 11
1016.7365727155
 21
-479.15082403309992
 31
0.0
  0
LINE
  5
217
  8
┌▓È_1
 62
     5
 10
1015.0578656921
 20
-482.58047809930002
 30
0.0
 11
1015.0578656921
 21
-486.58047809930002
 31
0.0
  0
LINE
  5
218
  8
┌▓È_1
 62
     5
 10
1020.0578656921
 20
-485.58047809930002
 30
0.0
 11
1023.0578656921
 21
-482.58047809930002
 31
0.0
  0
LINE
  5
219
  8
┌▓È_1
 62
     5
 10
1023.0578656921
 20
-482.58047809930002
 30
0.0
 11
1015.0578656921
 21
-482.58047809930002
 31
0.0
  0
LINE
  5
21A
  8
┌▓È_1
 62
     5
 10
1024.0578656921
 20
-486.58047809930002
 30
0.0
 11
1020.0578656921
 21
-486.58047809930002
 31
0.0
  0
INSERT
  5
21B
  8
0
  6
CONTINUOUS
  2
*U43
 10
0.0
 20
0.0
 30
0.0
  0
LINE
  5
21C
  8
┌▓È_1
 10
1016.7365727155
 20
-435.15082403309992
 30
0.0
 11
1016.7365727155
 21
-457.15082403309998
 31
0.0
  0
LINE
  5
21D
  8
┌▓È_1
 62
     5
 10
1029.0578656921
 20
-490.58047809930002
 30
0.0
 11
1029.0578656921
 21
-489.58047809930002
 31
0.0
  0
ARC
  5
21E
  8
┌▓È_1
 62
     5
 10
1021.0578656921
 20
-490.58047809930002
 30
0.0
 40
3.0
 50
270.0
 51
0.0
  0
LINE
  5
21F
  8
┌▓È_1
 62
     5
 10
1015.0578656921
 20
-496.58047809930002
 30
0.0
 11
1023.0578656921
 21
-496.58047809930002
 31
0.0
  0
INSERT
  5
220
  8
0
  6
CONTINUOUS
  2
*U44
 10
0.0
 20
0.0
 30
0.0
  0
INSERT
  5
221
  8
0
  6
CONTINUOUS
  2
*U45
 10
0.0
 20
0.0
 30
0.0
  0
INSERT
  5
222
  8
0
  6
CONTINUOUS
  2
*U46
 10
0.0
 20
0.0
 30
0.0
  0
INSERT
  5
223
  8
0
  6
CONTINUOUS
  2
*U47
 10
0.0
 20
0.0
 30
0.0
  0
INSERT
  5
224
  8
0
  6
CONTINUOUS
  2
*U48
 10
0.0
 20
0.0
 30
0.0
  0
INSERT
  5
225
  8
0
  6
CONTINUOUS
  2
*U49
 10
0.0
 20
0.0
 30
0.0
  0
LINE
  5
226
  8
┌▓È_1
 10
1060.7365727155
 20
-435.15082403309992
 30
0.0
 11
1060.7365727155
 21
-375.15082403309998
 31
0.0
  0
INSERT
  5
227
  8
0
  6
CONTINUOUS
  2
*U50
 10
0.0
 20
0.0
 30
0.0
  0
INSERT
  5
228
  8
0
  6
CONTINUOUS
  2
*U51
 10
0.0
 20
0.0
 30
0.0
  0
LINE
  5
229
  8
┌▓È_1
 62
     5
 10
1116.6708403703999
 20
-389.30469771830002
 30
0.0
 11
1136.6708403703999
 21
-389.30469771830002
 31
0.0
  0
INSERT
  5
22A
  8
0
  6
CONTINUOUS
  2
*U52
 10
0.0
 20
0.0
 30
0.0
  0
LINE
  5
22B
  8
┌▓È_1
 62
     5
 10
1116.6708403703999
 20
-390.80469771830002
 30
0.0
 11
1136.6708403703999
 21
-390.80469771830002
 31
0.0
  0
POLYLINE
  8
┌▓È_1
  5
397
  62
5
  66
     1
 10
0.000000
 20
0.000000
 30
0.000000
  70
     8
  0
VERTEX
  8
┌▓È_1
  5
398
 10
1037.38
 20
-487.869
 30
0.000000
  70
    32
  0
VERTEX
  8
┌▓È_1
  5
399
 10
1037.42
 20
-487.902
 30
0.000000
  70
    32
  0
VERTEX
  8
┌▓È_1
  5
39A
 10
1037.45
 20
-487.935
 30
0.000000
  70
    32
  0
VERTEX
  8
┌▓È_1
  5
39B
 10
1037.49
 20
-487.969
 30
0.000000
  70
    32
  0
VERTEX
  8
┌▓È_1
  5
39C
 10
1037.52
 20
-488.002
 30
0.000000
  70
    32
  0
VERTEX
  8
┌▓È_1
  5
39D
 10
1037.56
 20
-488.035
 30
0.000000
  70
    32
  0
VERTEX
  8
┌▓È_1
  5
39E
 10
1037.60
 20
-488.068
 30
0.000000
  70
    32
  0
VERTEX
  8
┌▓È_1
  5
39F
 10
1037.63
 20
-488.101
 30
0.000000
  70
    32
  0
VERTEX
  8
┌▓È_1
  5
3A0
 10
1037.67
 20
-488.135
 30
0.000000
  70
    32
  0
VERTEX
  8
┌▓È_1
  5
3A1
 10
1037.70
 20
-488.168
 30
0.000000
  70
    32
  0
VERTEX
  8
┌▓È_1
  5
3A2
 10
1037.74
 20
-488.201
 30
0.000000
  70
    32
  0
VERTEX
  8
┌▓È_1
  5
3A3
 10
1037.78
 20
-488.234
 30
0.000000
  70
    32
  0
VERTEX
  8
┌▓È_1
  5
3A4
 10
1037.81
 20
-488.267
 30
0.000000
  70
    32
  0
VERTEX
  8
┌▓È_1
  5
3A5
 10
1037.85
 20
-488.300
 30
0.000000
  70
    32
  0
VERTEX
  8
┌▓È_1
  5
3A6
 10
1037.88
 20
-488.333
 30
0.000000
  70
    32
  0
VERTEX
  8
┌▓È_1
  5
3A7
 10
1037.92
 20
-488.367
 30
0.000000
  70
    32
  0
VERTEX
  8
┌▓È_1
  5
3A8
 10
1037.96
 20
-488.400
 30
0.000000
  70
    32
  0
VERTEX
  8
┌▓È_1
  5
3A9
 10
1037.99
 20
-488.433
 30
0.000000
  70
    32
  0
VERTEX
  8
┌▓È_1
  5
3AA
 10
1038.03
 20
-488.466
 30
0.000000
  70
    32
  0
VERTEX
  8
┌▓È_1
  5
3AB
 10
1038.06
 20
-488.499
 30
0.000000
  70
    32
  0
VERTEX
  8
┌▓È_1
  5
3AC
 10
1038.10
 20
-488.532
 30
0.000000
  70
    32
  0
VERTEX
  8
┌▓È_1
  5
3AD
 10
1038.14
 20
-488.565
 30
0.000000
  70
    32
  0
VERTEX
  8
┌▓È_1
  5
3AE
 10
1038.17
 20
-488.598
 30
0.000000
  70
    32
  0
VERTEX
  8
┌▓È_1
  5
3AF
 10
1038.21
 20
-488.631
 30
0.000000
  70
    32
  0
VERTEX
  8
┌▓È_1
  5
3B0
 10
1038.24
 20
-488.664
 30
0.000000
  70
    32
  0
VERTEX
  8
┌▓È_1
  5
3B1
 10
1038.28
 20
-488.697
 30
0.000000
  70
    32
  0
VERTEX
  8
┌▓È_1
  5
3B2
 10
1038.32
 20
-488.730
 30
0.000000
  70
    32
  0
VERTEX
  8
┌▓È_1
  5
3B3
 10
1038.35
 20
-488.763
 30
0.000000
  70
    32
  0
VERTEX
  8
┌▓È_1
  5
3B4
 10
1038.39
 20
-488.796
 30
0.000000
  70
    32
  0
VERTEX
  8
┌▓È_1
  5
3B5
 10
1038.43
 20
-488.829
 30
0.000000
  70
    32
  0
VERTEX
  8
┌▓È_1
  5
3B6
 10
1038.46
 20
-488.862
 30
0.000000
  70
    32
  0
VERTEX
  8
┌▓È_1
  5
3B7
 10
1038.50
 20
-488.895
 30
0.000000
  70
    32
  0
VERTEX
  8
┌▓È_1
  5
3B8
 10
1038.53
 20
-488.928
 30
0.000000
  70
    32
  0
VERTEX
  8
┌▓È_1
  5
3B9
 10
1038.57
 20
-488.961
 30
0.000000
  70
    32
  0
VERTEX
  8
┌▓È_1
  5
3BA
 10
1038.61
 20
-488.993
 30
0.000000
  70
    32
  0
VERTEX
  8
┌▓È_1
  5
3BB
 10
1038.64
 20
-489.026
 30
0.000000
  70
    32
  0
VERTEX
  8
┌▓È_1
  5
3BC
 10
1038.68
 20
-489.059
 30
0.000000
  70
    32
  0
VERTEX
  8
┌▓È_1
  5
3BD
 10
1038.72
 20
-489.092
 30
0.000000
  70
    32
  0
VERTEX
  8
┌▓È_1
  5
3BE
 10
1038.75
 20
-489.124
 30
0.000000
  70
    32
  0
VERTEX
  8
┌▓È_1
  5
3BF
 10
1038.79
 20
-489.157
 30
0.000000
  70
    32
  0
VERTEX
  8
┌▓È_1
  5
3C0
 10
1038.82
 20
-489.190
 30
0.000000
  70
    32
  0
VERTEX
  8
┌▓È_1
  5
3C1
 10
1038.86
 20
-489.222
 30
0.000000
  70
    32
  0
VERTEX
  8
┌▓È_1
  5
3C2
 10
1038.90
 20
-489.255
 30
0.000000
  70
    32
  0
VERTEX
  8
┌▓È_1
  5
3C3
 10
1038.93
 20
-489.288
 30
0.000000
  70
    32
  0
VERTEX
  8
┌▓È_1
  5
3C4
 10
1038.97
 20
-489.320
 30
0.000000
  70
    32
  0
VERTEX
  8
┌▓È_1
  5
3C5
 10
1039.01
 20
-489.353
 30
0.000000
  70
    32
  0
VERTEX
  8
┌▓È_1
  5
3C6
 10
1039.04
 20
-489.385
 30
0.000000
  70
    32
  0
VERTEX
  8
┌▓È_1
  5
3C7
 10
1039.08
 20
-489.418
 30
0.000000
  70
    32
  0
VERTEX
  8
┌▓È_1
  5
3C8
 10
1039.12
 20
-489.450
 30
0.000000
  70
    32
  0
VERTEX
  8
┌▓È_1
  5
3C9
 10
1039.15
 20
-489.482
 30
0.000000
  70
    32
  0
VERTEX
  8
┌▓È_1
  5
3CA
 10
1039.19
 20
-489.515
 30
0.000000
  70
    32
  0
VERTEX
  8
┌▓È_1
  5
3CB
 10
1039.22
 20
-489.547
 30
0.000000
  70
    32
  0
VERTEX
  8
┌▓È_1
  5
3CC
 10
1039.26
 20
-489.579
 30
0.000000
  70
    32
  0
VERTEX
  8
┌▓È_1
  5
3CD
 10
1039.30
 20
-489.612
 30
0.000000
  70
    32
  0
VERTEX
  8
┌▓È_1
  5
3CE
 10
1039.33
 20
-489.644
 30
0.000000
  70
    32
  0
VERTEX
  8
┌▓È_1
  5
3CF
 10
1039.37
 20
-489.676
 30
0.000000
  70
    32
  0
VERTEX
  8
┌▓È_1
  5
3D0
 10
1039.41
 20
-489.708
 30
0.000000
  70
    32
  0
VERTEX
  8
┌▓È_1
  5
3D1
 10
1039.44
 20
-489.740
 30
0.000000
  70
    32
  0
VERTEX
  8
┌▓È_1
  5
3D2
 10
1039.48
 20
-489.772
 30
0.000000
  70
    32
  0
VERTEX
  8
┌▓È_1
  5
3D3
 10
1039.52
 20
-489.804
 30
0.000000
  70
    32
  0
VERTEX
  8
┌▓È_1
  5
3D4
 10
1039.55
 20
-489.836
 30
0.000000
  70
    32
  0
VERTEX
  8
┌▓È_1
  5
3D5
 10
1039.59
 20
-489.868
 30
0.000000
  70
    32
  0
VERTEX
  8
┌▓È_1
  5
3D6
 10
1039.63
 20
-489.900
 30
0.000000
  70
    32
  0
VERTEX
  8
┌▓È_1
  5
3D7
 10
1039.66
 20
-489.932
 30
0.000000
  70
    32
  0
VERTEX
  8
┌▓È_1
  5
3D8
 10
1039.70
 20
-489.964
 30
0.000000
  70
    32
  0
VERTEX
  8
┌▓È_1
  5
3D9
 10
1039.74
 20
-489.996
 30
0.000000
  70
    32
  0
VERTEX
  8
┌▓È_1
  5
3DA
 10
1039.77
 20
-490.027
 30
0.000000
  70
    32
  0
VERTEX
  8
┌▓È_1
  5
3DB
 10
1039.81
 20
-490.059
 30
0.000000
  70
    32
  0
VERTEX
  8
┌▓È_1
  5
3DC
 10
1039.85
 20
-490.091
 30
0.000000
  70
    32
  0
VERTEX
  8
┌▓È_1
  5
3DD
 10
1039.89
 20
-490.122
 30
0.000000
  70
    32
  0
VERTEX
  8
┌▓È_1
  5
3DE
 10
1039.92
 20
-490.154
 30
0.000000
  70
    32
  0
VERTEX
  8
┌▓È_1
  5
3DF
 10
1039.96
 20
-490.185
 30
0.000000
  70
    32
  0
VERTEX
  8
┌▓È_1
  5
3E0
 10
1040.00
 20
-490.217
 30
0.000000
  70
    32
  0
VERTEX
  8
┌▓È_1
  5
3E1
 10
1040.03
 20
-490.248
 30
0.000000
  70
    32
  0
VERTEX
  8
┌▓È_1
  5
3E2
 10
1040.07
 20
-490.279
 30
0.000000
  70
    32
  0
VERTEX
  8
┌▓È_1
  5
3E3
 10
1040.11
 20
-490.311
 30
0.000000
  70
    32
  0
VERTEX
  8
┌▓È_1
  5
3E4
 10
1040.14
 20
-490.342
 30
0.000000
  70
    32
  0
VERTEX
  8
┌▓È_1
  5
3E5
 10
1040.18
 20
-490.373
 30
0.000000
  70
    32
  0
VERTEX
  8
┌▓È_1
  5
3E6
 10
1040.22
 20
-490.404
 30
0.000000
  70
    32
  0
VERTEX
  8
┌▓È_1
  5
3E7
 10
1040.26
 20
-490.435
 30
0.000000
  70
    32
  0
VERTEX
  8
┌▓È_1
  5
3E8
 10
1040.29
 20
-490.466
 30
0.000000
  70
    32
  0
VERTEX
  8
┌▓È_1
  5
3E9
 10
1040.33
 20
-490.497
 30
0.000000
  70
    32
  0
VERTEX
  8
┌▓È_1
  5
3EA
 10
1040.37
 20
-490.528
 30
0.000000
  70
    32
  0
VERTEX
  8
┌▓È_1
  5
3EB
 10
1040.40
 20
-490.559
 30
0.000000
  70
    32
  0
VERTEX
  8
┌▓È_1
  5
3EC
 10
1040.44
 20
-490.590
 30
0.000000
  70
    32
  0
VERTEX
  8
┌▓È_1
  5
3ED
 10
1040.48
 20
-490.621
 30
0.000000
  70
    32
  0
VERTEX
  8
┌▓È_1
  5
3EE
 10
1040.52
 20
-490.651
 30
0.000000
  70
    32
  0
VERTEX
  8
┌▓È_1
  5
3EF
 10
1040.55
 20
-490.682
 30
0.000000
  70
    32
  0
VERTEX
  8
┌▓È_1
  5
3F0
 10
1040.59
 20
-490.712
 30
0.000000
  70
    32
  0
VERTEX
  8
┌▓È_1
  5
3F1
 10
1040.63
 20
-490.743
 30
0.000000
  70
    32
  0
VERTEX
  8
┌▓È_1
  5
3F2
 10
1040.67
 20
-490.773
 30
0.000000
  70
    32
  0
VERTEX
  8
┌▓È_1
  5
3F3
 10
1040.70
 20
-490.804
 30
0.000000
  70
    32
  0
VERTEX
  8
┌▓È_1
  5
3F4
 10
1040.74
 20
-490.834
 30
0.000000
  70
    32
  0
VERTEX
  8
┌▓È_1
  5
3F5
 10
1040.78
 20
-490.864
 30
0.000000
  70
    32
  0
VERTEX
  8
┌▓È_1
  5
3F6
 10
1040.82
 20
-490.895
 30
0.000000
  70
    32
  0
VERTEX
  8
┌▓È_1
  5
3F7
 10
1040.85
 20
-490.925
 30
0.000000
  70
    32
  0
VERTEX
  8
┌▓È_1
  5
3F8
 10
1040.89
 20
-490.955
 30
0.000000
  70
    32
  0
VERTEX
  8
┌▓È_1
  5
3F9
 10
1040.93
 20
-490.985
 30
0.000000
  70
    32
  0
VERTEX
  8
┌▓È_1
  5
3FA
 10
1040.97
 20
-491.015
 30
0.000000
  70
    32
  0
VERTEX
  8
┌▓È_1
  5
3FB
 10
1041.01
 20
-491.044
 30
0.000000
  70
    32
  0
VERTEX
  8
┌▓È_1
  5
3FC
 10
1041.04
 20
-491.074
 30
0.000000
  70
    32
  0
VERTEX
  8
┌▓È_1
  5
3FD
 10
1041.08
 20
-491.104
 30
0.000000
  70
    32
  0
VERTEX
  8
┌▓È_1
  5
3FE
 10
1041.12
 20
-491.134
 30
0.000000
  70
    32
  0
VERTEX
  8
┌▓È_1
  5
3FF
 10
1041.16
 20
-491.163
 30
0.000000
  70
    32
  0
VERTEX
  8
┌▓È_1
  5
400
 10
1041.20
 20
-491.193
 30
0.000000
  70
    32
  0
VERTEX
  8
┌▓È_1
  5
401
 10
1041.23
 20
-491.222
 30
0.000000
  70
    32
  0
VERTEX
  8
┌▓È_1
  5
402
 10
1041.27
 20
-491.251
 30
0.000000
  70
    32
  0
VERTEX
  8
┌▓È_1
  5
403
 10
1041.31
 20
-491.281
 30
0.000000
  70
    32
  0
VERTEX
  8
┌▓È_1
  5
404
 10
1041.35
 20
-491.310
 30
0.000000
  70
    32
  0
VERTEX
  8
┌▓È_1
  5
405
 10
1041.39
 20
-491.339
 30
0.000000
  70
    32
  0
VERTEX
  8
┌▓È_1
  5
406
 10
1041.42
 20
-491.368
 30
0.000000
  70
    32
  0
VERTEX
  8
┌▓È_1
  5
407
 10
1041.46
 20
-491.397
 30
0.000000
  70
    32
  0
VERTEX
  8
┌▓È_1
  5
408
 10
1041.50
 20
-491.426
 30
0.000000
  70
    32
  0
VERTEX
  8
┌▓È_1
  5
409
 10
1041.54
 20
-491.455
 30
0.000000
  70
    32
  0
VERTEX
  8
┌▓È_1
  5
40A
 10
1041.58
 20
-491.484
 30
0.000000
  70
    32
  0
VERTEX
  8
┌▓È_1
  5
40B
 10
1041.62
 20
-491.512
 30
0.000000
  70
    32
  0
VERTEX
  8
┌▓È_1
  5
40C
 10
1041.65
 20
-491.541
 30
0.000000
  70
    32
  0
VERTEX
  8
┌▓È_1
  5
40D
 10
1041.69
 20
-491.569
 30
0.000000
  70
    32
  0
VERTEX
  8
┌▓È_1
  5
40E
 10
1041.73
 20
-491.598
 30
0.000000
  70
    32
  0
VERTEX
  8
┌▓È_1
  5
40F
 10
1041.77
 20
-491.626
 30
0.000000
  70
    32
  0
VERTEX
  8
┌▓È_1
  5
410
 10
1041.81
 20
-491.654
 30
0.000000
  70
    32
  0
VERTEX
  8
┌▓È_1
  5
411
 10
1041.85
 20
-491.683
 30
0.000000
  70
    32
  0
VERTEX
  8
┌▓È_1
  5
412
 10
1041.89
 20
-491.711
 30
0.000000
  70
    32
  0
VERTEX
  8
┌▓È_1
  5
413
 10
1041.93
 20
-491.739
 30
0.000000
  70
    32
  0
VERTEX
  8
┌▓È_1
  5
414
 10
1041.96
 20
-491.767
 30
0.000000
  70
    32
  0
VERTEX
  8
┌▓È_1
  5
415
 10
1042.00
 20
-491.795
 30
0.000000
  70
    32
  0
VERTEX
  8
┌▓È_1
  5
416
 10
1042.04
 20
-491.822
 30
0.000000
  70
    32
  0
VERTEX
  8
┌▓È_1
  5
417
 10
1042.08
 20
-491.850
 30
0.000000
  70
    32
  0
VERTEX
  8
┌▓È_1
  5
418
 10
1042.12
 20
-491.878
 30
0.000000
  70
    32
  0
VERTEX
  8
┌▓È_1
  5
419
 10
1042.16
 20
-491.905
 30
0.000000
  70
    32
  0
VERTEX
  8
┌▓È_1
  5
41A
 10
1042.20
 20
-491.933
 30
0.000000
  70
    32
  0
VERTEX
  8
┌▓È_1
  5
41B
 10
1042.24
 20
-491.960
 30
0.000000
  70
    32
  0
VERTEX
  8
┌▓È_1
  5
41C
 10
1042.28
 20
-491.987
 30
0.000000
  70
    32
  0
VERTEX
  8
┌▓È_1
  5
41D
 10
1042.32
 20
-492.014
 30
0.000000
  70
    32
  0
VERTEX
  8
┌▓È_1
  5
41E
 10
1042.36
 20
-492.041
 30
0.000000
  70
    32
  0
VERTEX
  8
┌▓È_1
  5
41F
 10
1042.40
 20
-492.068
 30
0.000000
  70
    32
  0
VERTEX
  8
┌▓È_1
  5
420
 10
1042.43
 20
-492.095
 30
0.000000
  70
    32
  0
VERTEX
  8
┌▓È_1
  5
421
 10
1042.47
 20
-492.122
 30
0.000000
  70
    32
  0
VERTEX
  8
┌▓È_1
  5
422
 10
1042.51
 20
-492.149
 30
0.000000
  70
    32
  0
VERTEX
  8
┌▓È_1
  5
423
 10
1042.55
 20
-492.175
 30
0.000000
  70
    32
  0
VERTEX
  8
┌▓È_1
  5
424
 10
1042.59
 20
-492.202
 30
0.000000
  70
    32
  0
VERTEX
  8
┌▓È_1
  5
425
 10
1042.63
 20
-492.228
 30
0.000000
  70
    32
  0
VERTEX
  8
┌▓È_1
  5
426
 10
1042.67
 20
-492.254
 30
0.000000
  70
    32
  0
VERTEX
  8
┌▓È_1
  5
427
 10
1042.71
 20
-492.280
 30
0.000000
  70
    32
  0
VERTEX
  8
┌▓È_1
  5
428
 10
1042.75
 20
-492.307
 30
0.000000
  70
    32
  0
VERTEX
  8
┌▓È_1
  5
429
 10
1042.79
 20
-492.333
 30
0.000000
  70
    32
  0
VERTEX
  8
┌▓È_1
  5
42A
 10
1042.83
 20
-492.358
 30
0.000000
  70
    32
  0
VERTEX
  8
┌▓È_1
  5
42B
 10
1042.87
 20
-492.384
 30
0.000000
  70
    32
  0
VERTEX
  8
┌▓È_1
  5
42C
 10
1042.91
 20
-492.410
 30
0.000000
  70
    32
  0
VERTEX
  8
┌▓È_1
  5
42D
 10
1042.95
 20
-492.435
 30
0.000000
  70
    32
  0
VERTEX
  8
┌▓È_1
  5
42E
 10
1042.99
 20
-492.461
 30
0.000000
  70
    32
  0
VERTEX
  8
┌▓È_1
  5
42F
 10
1043.03
 20
-492.486
 30
0.000000
  70
    32
  0
VERTEX
  8
┌▓È_1
  5
430
 10
1043.07
 20
-492.512
 30
0.000000
  70
    32
  0
VERTEX
  8
┌▓È_1
  5
431
 10
1043.11
 20
-492.537
 30
0.000000
  70
    32
  0
VERTEX
  8
┌▓È_1
  5
432
 10
1043.15
 20
-492.562
 30
0.000000
  70
    32
  0
VERTEX
  8
┌▓È_1
  5
433
 10
1043.19
 20
-492.587
 30
0.000000
  70
    32
  0
VERTEX
  8
┌▓È_1
  5
434
 10
1043.24
 20
-492.612
 30
0.000000
  70
    32
  0
VERTEX
  8
┌▓È_1
  5
435
 10
1043.28
 20
-492.636
 30
0.000000
  70
    32
  0
VERTEX
  8
┌▓È_1
  5
436
 10
1043.32
 20
-492.661
 30
0.000000
  70
    32
  0
VERTEX
  8
┌▓È_1
  5
437
 10
1043.36
 20
-492.686
 30
0.000000
  70
    32
  0
SEQEND
  8
┌▓È_1
  5
438
  0
INSERT
  5
22D
  8
0
  6
CONTINUOUS
  2
*U53
 10
0.0
 20
0.0
 30
0.0
  0
INSERT
  5
22E
  8
0
  6
CONTINUOUS
  2
*U54
 10
0.0
 20
0.0
 30
0.0
  0
INSERT
  5
22F
  8
0
  6
CONTINUOUS
  2
*U55
 10
0.0
 20
0.0
 30
0.0
  0
LINE
  5
230
  8
┌▓È_1
 10
941.73657271550007
 20
-468.15082403309992
 30
0.0
 11
1011.7365727155
 21
-468.15082403309992
 31
0.0
  0
LINE
  5
231
  8
┌▓È_1
 10
981.73657271550007
 20
-446.15082403309992
 30
0.0
 11
1011.7365727155
 21
-446.15082403309992
 31
0.0
  0
LINE
  5
232
  8
┌▓È_1
 10
941.73657271550007
 20
-446.15082403309992
 30
0.0
 11
971.73657271549996
 21
-446.15082403309992
 31
0.0
  0
LINE
  5
233
  8
┌▓È_1
 62
     5
 10
1015.0578656921
 20
-489.58047809930002
 30
0.0
 11
1015.0578656921
 21
-492.58047809930002
 31
0.0
  0
LINE
  5
234
  8
┌▓È_1
 62
     5
 10
1029.0578656921
 20
-486.58047809930002
 30
0.0
 11
1029.0578656921
 21
-485.58047809930002
 31
0.0
  0
LINE
  5
235
  8
┌▓È_1
 62
     5
 10
1032.0578656921
 20
-486.58047809930002
 30
0.0
 11
1029.0578656921
 21
-486.58047809930002
 31
0.0
  0
LINE
  5
236
  8
┌▓È_1
 62
     5
 10
1020.0578656921
 20
-492.58047809930002
 30
0.0
 11
1020.0578656921
 21
-489.58047809930002
 31
0.0
  0
LINE
  5
237
  8
┌▓È_1
 62
     5
 10
1021.0578656921
 20
-493.58047809930002
 30
0.0
 11
1015.0578656921
 21
-493.58047809930002
 31
0.0
  0
LINE
  5
238
  8
┌▓È_1
 62
     5
 10
1012.7556580688999
 20
-489.58047809930002
 30
0.0
 11
1014.7556580688999
 21
-489.58047809930002
 31
0.0
  0
LINE
  5
239
  8
┌▓È_1
 62
     5
 10
1066.3367097764999
 20
-491.18047809929999
 30
0.0
 11
1065.8673764432001
 21
-489.58047809930002
 31
0.0
  0
LINE
  5
23A
  8
┌▓È_1
 62
     5
 10
1070.4759718219
 20
-485.9804780993
 30
0.0
 11
1070.1831833215001
 21
-484.96302031839991
 31
0.0
  0
LINE
  5
23B
  8
┌▓È_1
 62
     5
 10
1070.4759718219
 20
-485.9804780993
 30
0.0
 11
1077.8140431098
 21
-485.9804780993
 31
0.0
  0
LINE
  5
23C
  8
┌▓È_1
 62
     5
 10
1064.8113764432001
 20
-485.9804780993
 30
0.0
 11
1063.8140431098
 21
-482.58047809930002
 31
0.0
  0
LINE
  5
23D
  8
┌▓È_1
 62
     5
 10
1073.0083017644999
 20
-494.78047809930001
 30
0.0
 11
1077.8140431098
 21
-494.78047809930001
 31
0.0
  0
LINE
  5
23E
  8
┌▓È_1
 62
     5
 10
1059.8140431098
 20
-485.9804780993
 30
0.0
 11
1059.8140431098
 21
-489.58047809930002
 31
0.0
  0
LINE
  5
23F
  8
┌▓È_1
 10
1056.7365727155
 20
-435.15082403309992
 30
0.0
 11
1056.7365727155
 21
-479.15082403309992
 31
0.0
  0
LINE
  5
240
  8
┌▓È_1
 10
1096.7365727155
 20
-435.15082403309992
 30
0.0
 11
1096.7365727155
 21
-501.15082403309992
 31
0.0
  0
LINE
  5
241
  8
┌▓È_1
 62
     5
 10
1059.8140431098
 20
-494.78047809930001
 30
0.0
 11
1067.3927097764999
 21
-494.78047809930001
 31
0.0
  0
ARC
  5
242
  8
┌▓È_1
 62
     5
 10
1042.3790778133
 20
-485.58047809930002
 30
0.0
 40
11.0
 50
322.48761197969998
 51
0.0
  0
LINE
  5
243
  8
┌▓È_1
 62
     5
 10
1071.9723486062001
 20
-491.18047809929999
 30
0.0
 11
1077.8140431098
 21
-491.18047809929999
 31
0.0
  0
LINE
  5
244
  8
┌▓È_1
 62
     5
 10
1073.8140431098
 20
-497.58047809930002
 30
0.0
 11
1073.0083017644999
 21
-494.78047809930001
 31
0.0
  0
LINE
  5
245
  8
┌▓È_1
 62
     5
 10
1236.7365727155
 20
-501.15082403309992
 30
0.0
 11
1236.7365727155
 21
-435.15082403309992
 31
0.0
  0
LINE
  5
246
  8
┌▓È_1
 62
     5
 10
1073.8140431098
 20
-497.58047809930002
 30
0.0
 11
1068.2140431098001
 21
-497.58047809930002
 31
0.0
  0
LINE
  5
247
  8
┌▓È_1
 10
1096.7365727155
 20
-457.15082403309998
 30
0.0
 11
1236.7365727155
 21
-457.15082403309998
 31
0.0
  0
LINE
  5
248
  8
┌▓È_1
 10
1056.7365727155
 20
-446.15082403309992
 30
0.0
 11
1096.7365727155
 21
-446.15082403309992
 31
0.0
  0
INSERT
  5
249
  8
0
  6
CONTINUOUS
  2
*U56
 10
0.0
 20
0.0
 30
0.0
  0
INSERT
  5
24A
  8
0
  6
CONTINUOUS
  2
*U57
 10
0.0
 20
0.0
 30
0.0
  0
INSERT
  5
24B
  8
0
  6
CONTINUOUS
  2
*U58
 10
0.0
 20
0.0
 30
0.0
  0
INSERT
  5
24C
  8
0
  6
CONTINUOUS
  2
*U59
 10
0.0
 20
0.0
 30
0.0
  0
INSERT
  5
24D
  8
0
  6
CONTINUOUS
  2
*U60
 10
0.0
 20
0.0
 30
0.0
  0
LINE
  5
24E
  8
┌▓È_1
 10
1188.7365727155
 20
-435.15082403309992
 30
0.0
 11
1188.7365727155
 21
-375.15082403309998
 31
0.0
  0
LINE
  5
24F
  8
┌▓È_1
 10
1164.7365727155
 20
-435.15082403309992
 30
0.0
 11
1164.7365727155
 21
-375.15082403309998
 31
0.0
  0
INSERT
  5
250
  8
0
  6
CONTINUOUS
  2
*U61
 10
0.0
 20
0.0
 30
0.0
  0
INSERT
  5
251
  8
0
  6
CONTINUOUS
  2
*U62
 10
0.0
 20
0.0
 30
0.0
  0
ARC
  5
252
  8
┌▓È_1
 62
     5
 10
954.87774974360013
 20
-214.8151832321
 30
0.0
 40
1.0
 50
180.0
 51
270.0
  0
POLYLINE
  8
┌▓È_1
  5
439
  62
5
  66
     1
 10
0.000000
 20
0.000000
 30
0.000000
  70
     8
  0
VERTEX
  8
┌▓È_1
  5
43A
 10
1048.30
 20
-494.853
 30
0.000000
  70
    32
  0
VERTEX
  8
┌▓È_1
  5
43B
 10
1048.35
 20
-494.870
 30
0.000000
  70
    32
  0
VERTEX
  8
┌▓È_1
  5
43C
 10
1048.40
 20
-494.887
 30
0.000000
  70
    32
  0
VERTEX
  8
┌▓È_1
  5
43D
 10
1048.46
 20
-494.904
 30
0.000000
  70
    32
  0
VERTEX
  8
┌▓È_1
  5
43E
 10
1048.51
 20
-494.921
 30
0.000000
  70
    32
  0
VERTEX
  8
┌▓È_1
  5
43F
 10
1048.57
 20
-494.938
 30
0.000000
  70
    32
  0
VERTEX
  8
┌▓È_1
  5
440
 10
1048.62
 20
-494.955
 30
0.000000
  70
    32
  0
VERTEX
  8
┌▓È_1
  5
441
 10
1048.67
 20
-494.972
 30
0.000000
  70
    32
  0
VERTEX
  8
┌▓È_1
  5
442
 10
1048.73
 20
-494.988
 30
0.000000
  70
    32
  0
VERTEX
  8
┌▓È_1
  5
443
 10
1048.78
 20
-495.005
 30
0.000000
  70
    32
  0
VERTEX
  8
┌▓È_1
  5
444
 10
1048.84
 20
-495.021
 30
0.000000
  70
    32
  0
VERTEX
  8
┌▓È_1
  5
445
 10
1048.89
 20
-495.037
 30
0.000000
  70
    32
  0
VERTEX
  8
┌▓È_1
  5
446
 10
1048.95
 20
-495.054
 30
0.000000
  70
    32
  0
VERTEX
  8
┌▓È_1
  5
447
 10
1049.00
 20
-495.070
 30
0.000000
  70
    32
  0
VERTEX
  8
┌▓È_1
  5
448
 10
1049.05
 20
-495.086
 30
0.000000
  70
    32
  0
VERTEX
  8
┌▓È_1
  5
449
 10
1049.11
 20
-495.102
 30
0.000000
  70
    32
  0
VERTEX
  8
┌▓È_1
  5
44A
 10
1049.16
 20
-495.118
 30
0.000000
  70
    32
  0
VERTEX
  8
┌▓È_1
  5
44B
 10
1049.22
 20
-495.134
 30
0.000000
  70
    32
  0
VERTEX
  8
┌▓È_1
  5
44C
 10
1049.27
 20
-495.150
 30
0.000000
  70
    32
  0
VERTEX
  8
┌▓È_1
  5
44D
 10
1049.33
 20
-495.166
 30
0.000000
  70
    32
  0
VERTEX
  8
┌▓È_1
  5
44E
 10
1049.38
 20
-495.181
 30
0.000000
  70
    32
  0
VERTEX
  8
┌▓È_1
  5
44F
 10
1049.44
 20
-495.197
 30
0.000000
  70
    32
  0
VERTEX
  8
┌▓È_1
  5
450
 10
1049.49
 20
-495.212
 30
0.000000
  70
    32
  0
VERTEX
  8
┌▓È_1
  5
451
 10
1049.55
 20
-495.228
 30
0.000000
  70
    32
  0
VERTEX
  8
┌▓È_1
  5
452
 10
1049.60
 20
-495.243
 30
0.000000
  70
    32
  0
VERTEX
  8
┌▓È_1
  5
453
 10
1049.66
 20
-495.259
 30
0.000000
  70
    32
  0
VERTEX
  8
┌▓È_1
  5
454
 10
1049.71
 20
-495.274
 30
0.000000
  70
    32
  0
VERTEX
  8
┌▓È_1
  5
455
 10
1049.77
 20
-495.289
 30
0.000000
  70
    32
  0
VERTEX
  8
┌▓È_1
  5
456
 10
1049.82
 20
-495.304
 30
0.000000
  70
    32
  0
VERTEX
  8
┌▓È_1
  5
457
 10
1049.88
 20
-495.319
 30
0.000000
  70
    32
  0
VERTEX
  8
┌▓È_1
  5
458
 10
1049.93
 20
-495.334
 30
0.000000
  70
    32
  0
VERTEX
  8
┌▓È_1
  5
459
 10
1049.99
 20
-495.349
 30
0.000000
  70
    32
  0
VERTEX
  8
┌▓È_1
  5
45A
 10
1050.04
 20
-495.364
 30
0.000000
  70
    32
  0
VERTEX
  8
┌▓È_1
  5
45B
 10
1050.10
 20
-495.379
 30
0.000000
  70
    32
  0
VERTEX
  8
┌▓È_1
  5
45C
 10
1050.15
 20
-495.393
 30
0.000000
  70
    32
  0
VERTEX
  8
┌▓È_1
  5
45D
 10
1050.21
 20
-495.408
 30
0.000000
  70
    32
  0
VERTEX
  8
┌▓È_1
  5
45E
 10
1050.26
 20
-495.423
 30
0.000000
  70
    32
  0
VERTEX
  8
┌▓È_1
  5
45F
 10
1050.32
 20
-495.437
 30
0.000000
  70
    32
  0
VERTEX
  8
┌▓È_1
  5
460
 10
1050.37
 20
-495.452
 30
0.000000
  70
    32
  0
VERTEX
  8
┌▓È_1
  5
461
 10
1050.43
 20
-495.466
 30
0.000000
  70
    32
  0
VERTEX
  8
┌▓È_1
  5
462
 10
1050.48
 20
-495.481
 30
0.000000
  70
    32
  0
VERTEX
  8
┌▓È_1
  5
463
 10
1050.54
 20
-495.495
 30
0.000000
  70
    32
  0
VERTEX
  8
┌▓È_1
  5
464
 10
1050.59
 20
-495.509
 30
0.000000
  70
    32
  0
VERTEX
  8
┌▓È_1
  5
465
 10
1050.65
 20
-495.523
 30
0.000000
  70
    32
  0
VERTEX
  8
┌▓È_1
  5
466
 10
1050.70
 20
-495.537
 30
0.000000
  70
    32
  0
VERTEX
  8
┌▓È_1
  5
467
 10
1050.76
 20
-495.551
 30
0.000000
  70
    32
  0
VERTEX
  8
┌▓È_1
  5
468
 10
1050.82
 20
-495.566
 30
0.000000
  70
    32
  0
VERTEX
  8
┌▓È_1
  5
469
 10
1050.87
 20
-495.579
 30
0.000000
  70
    32
  0
VERTEX
  8
┌▓È_1
  5
46A
 10
1050.93
 20
-495.593
 30
0.000000
  70
    32
  0
VERTEX
  8
┌▓È_1
  5
46B
 10
1050.98
 20
-495.607
 30
0.000000
  70
    32
  0
VERTEX
  8
┌▓È_1
  5
46C
 10
1051.04
 20
-495.621
 30
0.000000
  70
    32
  0
VERTEX
  8
┌▓È_1
  5
46D
 10
1051.09
 20
-495.635
 30
0.000000
  70
    32
  0
VERTEX
  8
┌▓È_1
  5
46E
 10
1051.15
 20
-495.649
 30
0.000000
  70
    32
  0
VERTEX
  8
┌▓È_1
  5
46F
 10
1051.20
 20
-495.662
 30
0.000000
  70
    32
  0
VERTEX
  8
┌▓È_1
  5
470
 10
1051.26
 20
-495.676
 30
0.000000
  70
    32
  0
VERTEX
  8
┌▓È_1
  5
471
 10
1051.32
 20
-495.689
 30
0.000000
  70
    32
  0
VERTEX
  8
┌▓È_1
  5
472
 10
1051.37
 20
-495.703
 30
0.000000
  70
    32
  0
VERTEX
  8
┌▓È_1
  5
473
 10
1051.43
 20
-495.716
 30
0.000000
  70
    32
  0
VERTEX
  8
┌▓È_1
  5
474
 10
1051.48
 20
-495.730
 30
0.000000
  70
    32
  0
VERTEX
  8
┌▓È_1
  5
475
 10
1051.54
 20
-495.743
 30
0.000000
  70
    32
  0
VERTEX
  8
┌▓È_1
  5
476
 10
1051.60
 20
-495.756
 30
0.000000
  70
    32
  0
VERTEX
  8
┌▓È_1
  5
477
 10
1051.65
 20
-495.770
 30
0.000000
  70
    32
  0
VERTEX
  8
┌▓È_1
  5
478
 10
1051.71
 20
-495.783
 30
0.000000
  70
    32
  0
VERTEX
  8
┌▓È_1
  5
479
 10
1051.76
 20
-495.796
 30
0.000000
  70
    32
  0
VERTEX
  8
┌▓È_1
  5
47A
 10
1051.82
 20
-495.809
 30
0.000000
  70
    32
  0
VERTEX
  8
┌▓È_1
  5
47B
 10
1051.88
 20
-495.822
 30
0.000000
  70
    32
  0
VERTEX
  8
┌▓È_1
  5
47C
 10
1051.93
 20
-495.836
 30
0.000000
  70
    32
  0
VERTEX
  8
┌▓È_1
  5
47D
 10
1051.99
 20
-495.849
 30
0.000000
  70
    32
  0
VERTEX
  8
┌▓È_1
  5
47E
 10
1052.04
 20
-495.862
 30
0.000000
  70
    32
  0
VERTEX
  8
┌▓È_1
  5
47F
 10
1052.10
 20
-495.874
 30
0.000000
  70
    32
  0
VERTEX
  8
┌▓È_1
  5
480
 10
1052.16
 20
-495.887
 30
0.000000
  70
    32
  0
VERTEX
  8
┌▓È_1
  5
481
 10
1052.21
 20
-495.900
 30
0.000000
  70
    32
  0
VERTEX
  8
┌▓È_1
  5
482
 10
1052.27
 20
-495.913
 30
0.000000
  70
    32
  0
VERTEX
  8
┌▓È_1
  5
483
 10
1052.32
 20
-495.926
 30
0.000000
  70
    32
  0
VERTEX
  8
┌▓È_1
  5
484
 10
1052.38
 20
-495.939
 30
0.000000
  70
    32
  0
VERTEX
  8
┌▓È_1
  5
485
 10
1052.44
 20
-495.951
 30
0.000000
  70
    32
  0
VERTEX
  8
┌▓È_1
  5
486
 10
1052.49
 20
-495.964
 30
0.000000
  70
    32
  0
VERTEX
  8
┌▓È_1
  5
487
 10
1052.55
 20
-495.977
 30
0.000000
  70
    32
  0
VERTEX
  8
┌▓È_1
  5
488
 10
1052.61
 20
-495.989
 30
0.000000
  70
    32
  0
VERTEX
  8
┌▓È_1
  5
489
 10
1052.66
 20
-496.002
 30
0.000000
  70
    32
  0
VERTEX
  8
┌▓È_1
  5
48A
 10
1052.72
 20
-496.014
 30
0.000000
  70
    32
  0
VERTEX
  8
┌▓È_1
  5
48B
 10
1052.77
 20
-496.027
 30
0.000000
  70
    32
  0
VERTEX
  8
┌▓È_1
  5
48C
 10
1052.83
 20
-496.039
 30
0.000000
  70
    32
  0
VERTEX
  8
┌▓È_1
  5
48D
 10
1052.89
 20
-496.052
 30
0.000000
  70
    32
  0
VERTEX
  8
┌▓È_1
  5
48E
 10
1052.94
 20
-496.064
 30
0.000000
  70
    32
  0
VERTEX
  8
┌▓È_1
  5
48F
 10
1053.00
 20
-496.077
 30
0.000000
  70
    32
  0
VERTEX
  8
┌▓È_1
  5
490
 10
1053.06
 20
-496.089
 30
0.000000
  70
    32
  0
VERTEX
  8
┌▓È_1
  5
491
 10
1053.11
 20
-496.101
 30
0.000000
  70
    32
  0
VERTEX
  8
┌▓È_1
  5
492
 10
1053.17
 20
-496.114
 30
0.000000
  70
    32
  0
VERTEX
  8
┌▓È_1
  5
493
 10
1053.23
 20
-496.126
 30
0.000000
  70
    32
  0
VERTEX
  8
┌▓È_1
  5
494
 10
1053.28
 20
-496.138
 30
0.000000
  70
    32
  0
VERTEX
  8
┌▓È_1
  5
495
 10
1053.34
 20
-496.151
 30
0.000000
  70
    32
  0
VERTEX
  8
┌▓È_1
  5
496
 10
1053.40
 20
-496.163
 30
0.000000
  70
    32
  0
VERTEX
  8
┌▓È_1
  5
497
 10
1053.45
 20
-496.175
 30
0.000000
  70
    32
  0
VERTEX
  8
┌▓È_1
  5
498
 10
1053.51
 20
-496.187
 30
0.000000
  70
    32
  0
VERTEX
  8
┌▓È_1
  5
499
 10
1053.57
 20
-496.199
 30
0.000000
  70
    32
  0
VERTEX
  8
┌▓È_1
  5
49A
 10
1053.62
 20
-496.211
 30
0.000000
  70
    32
  0
VERTEX
  8
┌▓È_1
  5
49B
 10
1053.68
 20
-496.224
 30
0.000000
  70
    32
  0
VERTEX
  8
┌▓È_1
  5
49C
 10
1053.74
 20
-496.236
 30
0.000000
  70
    32
  0
VERTEX
  8
┌▓È_1
  5
49D
 10
1053.79
 20
-496.248
 30
0.000000
  70
    32
  0
VERTEX
  8
┌▓È_1
  5
49E
 10
1053.85
 20
-496.260
 30
0.000000
  70
    32
  0
VERTEX
  8
┌▓È_1
  5
49F
 10
1053.90
 20
-496.272
 30
0.000000
  70
    32
  0
VERTEX
  8
┌▓È_1
  5
4A0
 10
1053.96
 20
-496.284
 30
0.000000
  70
    32
  0
VERTEX
  8
┌▓È_1
  5
4A1
 10
1054.02
 20
-496.296
 30
0.000000
  70
    32
  0
VERTEX
  8
┌▓È_1
  5
4A2
 10
1054.07
 20
-496.308
 30
0.000000
  70
    32
  0
VERTEX
  8
┌▓È_1
  5
4A3
 10
1054.13
 20
-496.320
 30
0.000000
  70
    32
  0
VERTEX
  8
┌▓È_1
  5
4A4
 10
1054.19
 20
-496.332
 30
0.000000
  70
    32
  0
VERTEX
  8
┌▓È_1
  5
4A5
 10
1054.24
 20
-496.344
 30
0.000000
  70
    32
  0
VERTEX
  8
┌▓È_1
  5
4A6
 10
1054.30
 20
-496.356
 30
0.000000
  70
    32
  0
VERTEX
  8
┌▓È_1
  5
4A7
 10
1054.36
 20
-496.367
 30
0.000000
  70
    32
  0
VERTEX
  8
┌▓È_1
  5
4A8
 10
1054.41
 20
-496.379
 30
0.000000
  70
    32
  0
VERTEX
  8
┌▓È_1
  5
4A9
 10
1054.47
 20
-496.391
 30
0.000000
  70
    32
  0
VERTEX
  8
┌▓È_1
  5
4AA
 10
1054.53
 20
-496.403
 30
0.000000
  70
    32
  0
VERTEX
  8
┌▓È_1
  5
4AB
 10
1054.58
 20
-496.415
 30
0.000000
  70
    32
  0
VERTEX
  8
┌▓È_1
  5
4AC
 10
1054.64
 20
-496.427
 30
0.000000
  70
    32
  0
VERTEX
  8
┌▓È_1
  5
4AD
 10
1054.70
 20
-496.439
 30
0.000000
  70
    32
  0
VERTEX
  8
┌▓È_1
  5
4AE
 10
1054.75
 20
-496.451
 30
0.000000
  70
    32
  0
VERTEX
  8
┌▓È_1
  5
4AF
 10
1054.81
 20
-496.462
 30
0.000000
  70
    32
  0
VERTEX
  8
┌▓È_1
  5
4B0
 10
1054.87
 20
-496.474
 30
0.000000
  70
    32
  0
VERTEX
  8
┌▓È_1
  5
4B1
 10
1054.93
 20
-496.486
 30
0.000000
  70
    32
  0
VERTEX
  8
┌▓È_1
  5
4B2
 10
1054.98
 20
-496.498
 30
0.000000
  70
    32
  0
VERTEX
  8
┌▓È_1
  5
4B3
 10
1055.04
 20
-496.510
 30
0.000000
  70
    32
  0
VERTEX
  8
┌▓È_1
  5
4B4
 10
1055.10
 20
-496.521
 30
0.000000
  70
    32
  0
VERTEX
  8
┌▓È_1
  5
4B5
 10
1055.15
 20
-496.533
 30
0.000000
  70
    32
  0
VERTEX
  8
┌▓È_1
  5
4B6
 10
1055.21
 20
-496.545
 30
0.000000
  70
    32
  0
VERTEX
  8
┌▓È_1
  5
4B7
 10
1055.27
 20
-496.557
 30
0.000000
  70
    32
  0
VERTEX
  8
┌▓È_1
  5
4B8
 10
1055.32
 20
-496.569
 30
0.000000
  70
    32
  0
VERTEX
  8
┌▓È_1
  5
4B9
 10
1055.38
 20
-496.580
 30
0.000000
  70
    32
  0
SEQEND
  8
┌▓È_1
  5
4BA
  0
POLYLINE
  8
┌▓È_1
  5
4BB
  62
5
  66
     1
 10
0.000000
 20
0.000000
 30
0.000000
  70
     8
  0
VERTEX
  8
┌▓È_1
  5
4BC
 10
1044.25
 20
-488.356
 30
0.000000
  70
    32
  0
VERTEX
  8
┌▓È_1
  5
4BD
 10
1044.26
 20
-488.371
 30
0.000000
  70
    32
  0
VERTEX
  8
┌▓È_1
  5
4BE
 10
1044.27
 20
-488.386
 30
0.000000
  70
    32
  0
VERTEX
  8
┌▓È_1
  5
4BF
 10
1044.29
 20
-488.400
 30
0.000000
  70
    32
  0
VERTEX
  8
┌▓È_1
  5
4C0
 10
1044.30
 20
-488.415
 30
0.000000
  70
    32
  0
VERTEX
  8
┌▓È_1
  5
4C1
 10
1044.31
 20
-488.430
 30
0.000000
  70
    32
  0
VERTEX
  8
┌▓È_1
  5
4C2
 10
1044.33
 20
-488.444
 30
0.000000
  70
    32
  0
VERTEX
  8
┌▓È_1
  5
4C3
 10
1044.34
 20
-488.459
 30
0.000000
  70
    32
  0
VERTEX
  8
┌▓È_1
  5
4C4
 10
1044.35
 20
-488.474
 30
0.000000
  70
    32
  0
VERTEX
  8
┌▓È_1
  5
4C5
 10
1044.37
 20
-488.488
 30
0.000000
  70
    32
  0
VERTEX
  8
┌▓È_1
  5
4C6
 10
1044.38
 20
-488.503
 30
0.000000
  70
    32
  0
VERTEX
  8
┌▓È_1
  5
4C7
 10
1044.39
 20
-488.518
 30
0.000000
  70
    32
  0
VERTEX
  8
┌▓È_1
  5
4C8
 10
1044.41
 20
-488.533
 30
0.000000
  70
    32
  0
VERTEX
  8
┌▓È_1
  5
4C9
 10
1044.42
 20
-488.547
 30
0.000000
  70
    32
  0
VERTEX
  8
┌▓È_1
  5
4CA
 10
1044.43
 20
-488.562
 30
0.000000
  70
    32
  0
VERTEX
  8
┌▓È_1
  5
4CB
 10
1044.45
 20
-488.577
 30
0.000000
  70
    32
  0
VERTEX
  8
┌▓È_1
  5
4CC
 10
1044.46
 20
-488.591
 30
0.000000
  70
    32
  0
VERTEX
  8
┌▓È_1
  5
4CD
 10
1044.47
 20
-488.606
 30
0.000000
  70
    32
  0
VERTEX
  8
┌▓È_1
  5
4CE
 10
1044.49
 20
-488.621
 30
0.000000
  70
    32
  0
VERTEX
  8
┌▓È_1
  5
4CF
 10
1044.50
 20
-488.635
 30
0.000000
  70
    32
  0
VERTEX
  8
┌▓È_1
  5
4D0
 10
1044.51
 20
-488.650
 30
0.000000
  70
    32
  0
VERTEX
  8
┌▓È_1
  5
4D1
 10
1044.53
 20
-488.665
 30
0.000000
  70
    32
  0
VERTEX
  8
┌▓È_1
  5
4D2
 10
1044.54
 20
-488.679
 30
0.000000
  70
    32
  0
VERTEX
  8
┌▓È_1
  5
4D3
 10
1044.55
 20
-488.694
 30
0.000000
  70
    32
  0
VERTEX
  8
┌▓È_1
  5
4D4
 10
1044.56
 20
-488.709
 30
0.000000
  70
    32
  0
VERTEX
  8
┌▓È_1
  5
4D5
 10
1044.58
 20
-488.723
 30
0.000000
  70
    32
  0
VERTEX
  8
┌▓È_1
  5
4D6
 10
1044.59
 20
-488.738
 30
0.000000
  70
    32
  0
VERTEX
  8
┌▓È_1
  5
4D7
 10
1044.60
 20
-488.753
 30
0.000000
  70
    32
  0
VERTEX
  8
┌▓È_1
  5
4D8
 10
1044.62
 20
-488.767
 30
0.000000
  70
    32
  0
VERTEX
  8
┌▓È_1
  5
4D9
 10
1044.63
 20
-488.782
 30
0.000000
  70
    32
  0
VERTEX
  8
┌▓È_1
  5
4DA
 10
1044.64
 20
-488.797
 30
0.000000
  70
    32
  0
VERTEX
  8
┌▓È_1
  5
4DB
 10
1044.66
 20
-488.811
 30
0.000000
  70
    32
  0
VERTEX
  8
┌▓È_1
  5
4DC
 10
1044.67
 20
-488.826
 30
0.000000
  70
    32
  0
VERTEX
  8
┌▓È_1
  5
4DD
 10
1044.68
 20
-488.840
 30
0.000000
  70
    32
  0
VERTEX
  8
┌▓È_1
  5
4DE
 10
1044.70
 20
-488.855
 30
0.000000
  70
    32
  0
VERTEX
  8
┌▓È_1
  5
4DF
 10
1044.71
 20
-488.870
 30
0.000000
  70
    32
  0
VERTEX
  8
┌▓È_1
  5
4E0
 10
1044.72
 20
-488.884
 30
0.000000
  70
    32
  0
VERTEX
  8
┌▓È_1
  5
4E1
 10
1044.74
 20
-488.899
 30
0.000000
  70
    32
  0
VERTEX
  8
┌▓È_1
  5
4E2
 10
1044.75
 20
-488.913
 30
0.000000
  70
    32
  0
VERTEX
  8
┌▓È_1
  5
4E3
 10
1044.76
 20
-488.928
 30
0.000000
  70
    32
  0
VERTEX
  8
┌▓È_1
  5
4E4
 10
1044.78
 20
-488.942
 30
0.000000
  70
    32
  0
VERTEX
  8
┌▓È_1
  5
4E5
 10
1044.79
 20
-488.957
 30
0.000000
  70
    32
  0
VERTEX
  8
┌▓È_1
  5
4E6
 10
1044.80
 20
-488.971
 30
0.000000
  70
    32
  0
VERTEX
  8
┌▓È_1
  5
4E7
 10
1044.82
 20
-488.986
 30
0.000000
  70
    32
  0
VERTEX
  8
┌▓È_1
  5
4E8
 10
1044.83
 20
-489.000
 30
0.000000
  70
    32
  0
VERTEX
  8
┌▓È_1
  5
4E9
 10
1044.84
 20
-489.015
 30
0.000000
  70
    32
  0
VERTEX
  8
┌▓È_1
  5
4EA
 10
1044.86
 20
-489.029
 30
0.000000
  70
    32
  0
VERTEX
  8
┌▓È_1
  5
4EB
 10
1044.87
 20
-489.044
 30
0.000000
  70
    32
  0
VERTEX
  8
┌▓È_1
  5
4EC
 10
1044.88
 20
-489.058
 30
0.000000
  70
    32
  0
VERTEX
  8
┌▓È_1
  5
4ED
 10
1044.90
 20
-489.073
 30
0.000000
  70
    32
  0
VERTEX
  8
┌▓È_1
  5
4EE
 10
1044.91
 20
-489.087
 30
0.000000
  70
    32
  0
VERTEX
  8
┌▓È_1
  5
4EF
 10
1044.92
 20
-489.102
 30
0.000000
  70
    32
  0
VERTEX
  8
┌▓È_1
  5
4F0
 10
1044.94
 20
-489.116
 30
0.000000
  70
    32
  0
VERTEX
  8
┌▓È_1
  5
4F1
 10
1044.95
 20
-489.131
 30
0.000000
  70
    32
  0
VERTEX
  8
┌▓È_1
  5
4F2
 10
1044.96
 20
-489.145
 30
0.000000
  70
    32
  0
VERTEX
  8
┌▓È_1
  5
4F3
 10
1044.98
 20
-489.159
 30
0.000000
  70
    32
  0
VERTEX
  8
┌▓È_1
  5
4F4
 10
1044.99
 20
-489.174
 30
0.000000
  70
    32
  0
VERTEX
  8
┌▓È_1
  5
4F5
 10
1045.00
 20
-489.188
 30
0.000000
  70
    32
  0
VERTEX
  8
┌▓È_1
  5
4F6
 10
1045.02
 20
-489.202
 30
0.000000
  70
    32
  0
VERTEX
  8
┌▓È_1
  5
4F7
 10
1045.03
 20
-489.217
 30
0.000000
  70
    32
  0
VERTEX
  8
┌▓È_1
  5
4F8
 10
1045.04
 20
-489.231
 30
0.000000
  70
    32
  0
VERTEX
  8
┌▓È_1
  5
4F9
 10
1045.06
 20
-489.245
 30
0.000000
  70
    32
  0
VERTEX
  8
┌▓È_1
  5
4FA
 10
1045.07
 20
-489.260
 30
0.000000
  70
    32
  0
VERTEX
  8
┌▓È_1
  5
4FB
 10
1045.08
 20
-489.274
 30
0.000000
  70
    32
  0
VERTEX
  8
┌▓È_1
  5
4FC
 10
1045.10
 20
-489.288
 30
0.000000
  70
    32
  0
VERTEX
  8
┌▓È_1
  5
4FD
 10
1045.11
 20
-489.303
 30
0.000000
  70
    32
  0
VERTEX
  8
┌▓È_1
  5
4FE
 10
1045.13
 20
-489.317
 30
0.000000
  70
    32
  0
VERTEX
  8
┌▓È_1
  5
4FF
 10
1045.14
 20
-489.331
 30
0.000000
  70
    32
  0
VERTEX
  8
┌▓È_1
  5
500
 10
1045.15
 20
-489.345
 30
0.000000
  70
    32
  0
VERTEX
  8
┌▓È_1
  5
501
 10
1045.17
 20
-489.359
 30
0.000000
  70
    32
  0
VERTEX
  8
┌▓È_1
  5
502
 10
1045.18
 20
-489.374
 30
0.000000
  70
    32
  0
VERTEX
  8
┌▓È_1
  5
503
 10
1045.19
 20
-489.388
 30
0.000000
  70
    32
  0
VERTEX
  8
┌▓È_1
  5
504
 10
1045.21
 20
-489.402
 30
0.000000
  70
    32
  0
VERTEX
  8
┌▓È_1
  5
505
 10
1045.22
 20
-489.416
 30
0.000000
  70
    32
  0
VERTEX
  8
┌▓È_1
  5
506
 10
1045.23
 20
-489.430
 30
0.000000
  70
    32
  0
VERTEX
  8
┌▓È_1
  5
507
 10
1045.25
 20
-489.444
 30
0.000000
  70
    32
  0
VERTEX
  8
┌▓È_1
  5
508
 10
1045.26
 20
-489.458
 30
0.000000
  70
    32
  0
VERTEX
  8
┌▓È_1
  5
509
 10
1045.27
 20
-489.473
 30
0.000000
  70
    32
  0
VERTEX
  8
┌▓È_1
  5
50A
 10
1045.29
 20
-489.487
 30
0.000000
  70
    32
  0
VERTEX
  8
┌▓È_1
  5
50B
 10
1045.30
 20
-489.501
 30
0.000000
  70
    32
  0
VERTEX
  8
┌▓È_1
  5
50C
 10
1045.32
 20
-489.515
 30
0.000000
  70
    32
  0
VERTEX
  8
┌▓È_1
  5
50D
 10
1045.33
 20
-489.529
 30
0.000000
  70
    32
  0
VERTEX
  8
┌▓È_1
  5
50E
 10
1045.34
 20
-489.543
 30
0.000000
  70
    32
  0
VERTEX
  8
┌▓È_1
  5
50F
 10
1045.36
 20
-489.557
 30
0.000000
  70
    32
  0
VERTEX
  8
┌▓È_1
  5
510
 10
1045.37
 20
-489.571
 30
0.000000
  70
    32
  0
VERTEX
  8
┌▓È_1
  5
511
 10
1045.38
 20
-489.584
 30
0.000000
  70
    32
  0
VERTEX
  8
┌▓È_1
  5
512
 10
1045.40
 20
-489.598
 30
0.000000
  70
    32
  0
VERTEX
  8
┌▓È_1
  5
513
 10
1045.41
 20
-489.612
 30
0.000000
  70
    32
  0
VERTEX
  8
┌▓È_1
  5
514
 10
1045.42
 20
-489.626
 30
0.000000
  70
    32
  0
VERTEX
  8
┌▓È_1
  5
515
 10
1045.44
 20
-489.640
 30
0.000000
  70
    32
  0
VERTEX
  8
┌▓È_1
  5
516
 10
1045.45
 20
-489.654
 30
0.000000
  70
    32
  0
VERTEX
  8
┌▓È_1
  5
517
 10
1045.47
 20
-489.668
 30
0.000000
  70
    32
  0
VERTEX
  8
┌▓È_1
  5
518
 10
1045.48
 20
-489.681
 30
0.000000
  70
    32
  0
VERTEX
  8
┌▓È_1
  5
519
 10
1045.49
 20
-489.695
 30
0.000000
  70
    32
  0
VERTEX
  8
┌▓È_1
  5
51A
 10
1045.51
 20
-489.709
 30
0.000000
  70
    32
  0
VERTEX
  8
┌▓È_1
  5
51B
 10
1045.52
 20
-489.723
 30
0.000000
  70
    32
  0
VERTEX
  8
┌▓È_1
  5
51C
 10
1045.53
 20
-489.736
 30
0.000000
  70
    32
  0
VERTEX
  8
┌▓È_1
  5
51D
 10
1045.55
 20
-489.750
 30
0.000000
  70
    32
  0
VERTEX
  8
┌▓È_1
  5
51E
 10
1045.56
 20
-489.764
 30
0.000000
  70
    32
  0
VERTEX
  8
┌▓È_1
  5
51F
 10
1045.58
 20
-489.777
 30
0.000000
  70
    32
  0
VERTEX
  8
┌▓È_1
  5
520
 10
1045.59
 20
-489.791
 30
0.000000
  70
    32
  0
VERTEX
  8
┌▓È_1
  5
521
 10
1045.60
 20
-489.805
 30
0.000000
  70
    32
  0
VERTEX
  8
┌▓È_1
  5
522
 10
1045.62
 20
-489.818
 30
0.000000
  70
    32
  0
VERTEX
  8
┌▓È_1
  5
523
 10
1045.63
 20
-489.832
 30
0.000000
  70
    32
  0
VERTEX
  8
┌▓È_1
  5
524
 10
1045.65
 20
-489.845
 30
0.000000
  70
    32
  0
VERTEX
  8
┌▓È_1
  5
525
 10
1045.66
 20
-489.859
 30
0.000000
  70
    32
  0
VERTEX
  8
┌▓È_1
  5
526
 10
1045.67
 20
-489.872
 30
0.000000
  70
    32
  0
VERTEX
  8
┌▓È_1
  5
527
 10
1045.69
 20
-489.886
 30
0.000000
  70
    32
  0
VERTEX
  8
┌▓È_1
  5
528
 10
1045.70
 20
-489.899
 30
0.000000
  70
    32
  0
VERTEX
  8
┌▓È_1
  5
529
 10
1045.72
 20
-489.913
 30
0.000000
  70
    32
  0
VERTEX
  8
┌▓È_1
  5
52A
 10
1045.73
 20
-489.926
 30
0.000000
  70
    32
  0
VERTEX
  8
┌▓È_1
  5
52B
 10
1045.74
 20
-489.940
 30
0.000000
  70
    32
  0
VERTEX
  8
┌▓È_1
  5
52C
 10
1045.76
 20
-489.953
 30
0.000000
  70
    32
  0
VERTEX
  8
┌▓È_1
  5
52D
 10
1045.77
 20
-489.966
 30
0.000000
  70
    32
  0
VERTEX
  8
┌▓È_1
  5
52E
 10
1045.79
 20
-489.980
 30
0.000000
  70
    32
  0
VERTEX
  8
┌▓È_1
  5
52F
 10
1045.80
 20
-489.993
 30
0.000000
  70
    32
  0
VERTEX
  8
┌▓È_1
  5
530
 10
1045.81
 20
-490.006
 30
0.000000
  70
    32
  0
VERTEX
  8
┌▓È_1
  5
531
 10
1045.83
 20
-490.019
 30
0.000000
  70
    32
  0
VERTEX
  8
┌▓È_1
  5
532
 10
1045.84
 20
-490.032
 30
0.000000
  70
    32
  0
VERTEX
  8
┌▓È_1
  5
533
 10
1045.86
 20
-490.046
 30
0.000000
  70
    32
  0
VERTEX
  8
┌▓È_1
  5
534
 10
1045.87
 20
-490.059
 30
0.000000
  70
    32
  0
VERTEX
  8
┌▓È_1
  5
535
 10
1045.89
 20
-490.072
 30
0.000000
  70
    32
  0
VERTEX
  8
┌▓È_1
  5
536
 10
1045.90
 20
-490.085
 30
0.000000
  70
    32
  0
VERTEX
  8
┌▓È_1
  5
537
 10
1045.91
 20
-490.098
 30
0.000000
  70
    32
  0
VERTEX
  8
┌▓È_1
  5
538
 10
1045.93
 20
-490.111
 30
0.000000
  70
    32
  0
VERTEX
  8
┌▓È_1
  5
539
 10
1045.94
 20
-490.124
 30
0.000000
  70
    32
  0
VERTEX
  8
┌▓È_1
  5
53A
 10
1045.96
 20
-490.137
 30
0.000000
  70
    32
  0
VERTEX
  8
┌▓È_1
  5
53B
 10
1045.97
 20
-490.150
 30
0.000000
  70
    32
  0
SEQEND
  8
┌▓È_1
  5
53C
  0
POLYLINE
  8
┌▓È_1
  5
53D
  62
5
  66
     1
 10
0.000000
 20
0.000000
 30
0.000000
  70
     8
  0
VERTEX
  8
┌▓È_1
  5
53E
 10
1050.75
 20
-492.627
 30
0.000000
  70
    32
  0
VERTEX
  8
┌▓È_1
  5
53F
 10
1050.78
 20
-492.637
 30
0.000000
  70
    32
  0
VERTEX
  8
┌▓È_1
  5
540
 10
1050.82
 20
-492.647
 30
0.000000
  70
    32
  0
VERTEX
  8
┌▓È_1
  5
541
 10
1050.85
 20
-492.657
 30
0.000000
  70
    32
  0
VERTEX
  8
┌▓È_1
  5
542
 10
1050.89
 20
-492.667
 30
0.000000
  70
    32
  0
VERTEX
  8
┌▓È_1
  5
543
 10
1050.92
 20
-492.676
 30
0.000000
  70
    32
  0
VERTEX
  8
┌▓È_1
  5
544
 10
1050.96
 20
-492.686
 30
0.000000
  70
    32
  0
VERTEX
  8
┌▓È_1
  5
545
 10
1050.99
 20
-492.696
 30
0.000000
  70
    32
  0
VERTEX
  8
┌▓È_1
  5
546
 10
1051.03
 20
-492.705
 30
0.000000
  70
    32
  0
VERTEX
  8
┌▓È_1
  5
547
 10
1051.06
 20
-492.715
 30
0.000000
  70
    32
  0
VERTEX
  8
┌▓È_1
  5
548
 10
1051.10
 20
-492.724
 30
0.000000
  70
    32
  0
VERTEX
  8
┌▓È_1
  5
549
 10
1051.13
 20
-492.733
 30
0.000000
  70
    32
  0
VERTEX
  8
┌▓È_1
  5
54A
 10
1051.17
 20
-492.743
 30
0.000000
  70
    32
  0
VERTEX
  8
┌▓È_1
  5
54B
 10
1051.21
 20
-492.752
 30
0.000000
  70
    32
  0
VERTEX
  8
┌▓È_1
  5
54C
 10
1051.24
 20
-492.761
 30
0.000000
  70
    32
  0
VERTEX
  8
┌▓È_1
  5
54D
 10
1051.28
 20
-492.770
 30
0.000000
  70
    32
  0
VERTEX
  8
┌▓È_1
  5
54E
 10
1051.31
 20
-492.779
 30
0.000000
  70
    32
  0
VERTEX
  8
┌▓È_1
  5
54F
 10
1051.35
 20
-492.789
 30
0.000000
  70
    32
  0
VERTEX
  8
┌▓È_1
  5
550
 10
1051.38
 20
-492.798
 30
0.000000
  70
    32
  0
VERTEX
  8
┌▓È_1
  5
551
 10
1051.42
 20
-492.806
 30
0.000000
  70
    32
  0
VERTEX
  8
┌▓È_1
  5
552
 10
1051.45
 20
-492.815
 30
0.000000
  70
    32
  0
VERTEX
  8
┌▓È_1
  5
553
 10
1051.49
 20
-492.824
 30
0.000000
  70
    32
  0
VERTEX
  8
┌▓È_1
  5
554
 10
1051.53
 20
-492.833
 30
0.000000
  70
    32
  0
VERTEX
  8
┌▓È_1
  5
555
 10
1051.56
 20
-492.842
 30
0.000000
  70
    32
  0
VERTEX
  8
┌▓È_1
  5
556
 10
1051.60
 20
-492.851
 30
0.000000
  70
    32
  0
VERTEX
  8
┌▓È_1
  5
557
 10
1051.63
 20
-492.859
 30
0.000000
  70
    32
  0
VERTEX
  8
┌▓È_1
  5
558
 10
1051.67
 20
-492.868
 30
0.000000
  70
    32
  0
VERTEX
  8
┌▓È_1
  5
559
 10
1051.70
 20
-492.876
 30
0.000000
  70
    32
  0
VERTEX
  8
┌▓È_1
  5
55A
 10
1051.74
 20
-492.885
 30
0.000000
  70
    32
  0
VERTEX
  8
┌▓È_1
  5
55B
 10
1051.78
 20
-492.893
 30
0.000000
  70
    32
  0
VERTEX
  8
┌▓È_1
  5
55C
 10
1051.81
 20
-492.902
 30
0.000000
  70
    32
  0
VERTEX
  8
┌▓È_1
  5
55D
 10
1051.85
 20
-492.910
 30
0.000000
  70
    32
  0
VERTEX
  8
┌▓È_1
  5
55E
 10
1051.88
 20
-492.919
 30
0.000000
  70
    32
  0
VERTEX
  8
┌▓È_1
  5
55F
 10
1051.92
 20
-492.927
 30
0.000000
  70
    32
  0
VERTEX
  8
┌▓È_1
  5
560
 10
1051.96
 20
-492.935
 30
0.000000
  70
    32
  0
VERTEX
  8
┌▓È_1
  5
561
 10
1051.99
 20
-492.943
 30
0.000000
  70
    32
  0
VERTEX
  8
┌▓È_1
  5
562
 10
1052.03
 20
-492.952
 30
0.000000
  70
    32
  0
VERTEX
  8
┌▓È_1
  5
563
 10
1052.06
 20
-492.960
 30
0.000000
  70
    32
  0
VERTEX
  8
┌▓È_1
  5
564
 10
1052.10
 20
-492.968
 30
0.000000
  70
    32
  0
VERTEX
  8
┌▓È_1
  5
565
 10
1052.14
 20
-492.976
 30
0.000000
  70
    32
  0
VERTEX
  8
┌▓È_1
  5
566
 10
1052.17
 20
-492.984
 30
0.000000
  70
    32
  0
VERTEX
  8
┌▓È_1
  5
567
 10
1052.21
 20
-492.992
 30
0.000000
  70
    32
  0
VERTEX
  8
┌▓È_1
  5
568
 10
1052.24
 20
-493.000
 30
0.000000
  70
    32
  0
VERTEX
  8
┌▓È_1
  5
569
 10
1052.28
 20
-493.008
 30
0.000000
  70
    32
  0
VERTEX
  8
┌▓È_1
  5
56A
 10
1052.32
 20
-493.016
 30
0.000000
  70
    32
  0
VERTEX
  8
┌▓È_1
  5
56B
 10
1052.35
 20
-493.023
 30
0.000000
  70
    32
  0
VERTEX
  8
┌▓È_1
  5
56C
 10
1052.39
 20
-493.031
 30
0.000000
  70
    32
  0
VERTEX
  8
┌▓È_1
  5
56D
 10
1052.43
 20
-493.039
 30
0.000000
  70
    32
  0
VERTEX
  8
┌▓È_1
  5
56E
 10
1052.46
 20
-493.047
 30
0.000000
  70
    32
  0
VERTEX
  8
┌▓È_1
  5
56F
 10
1052.50
 20
-493.054
 30
0.000000
  70
    32
  0
VERTEX
  8
┌▓È_1
  5
570
 10
1052.53
 20
-493.062
 30
0.000000
  70
    32
  0
VERTEX
  8
┌▓È_1
  5
571
 10
1052.57
 20
-493.070
 30
0.000000
  70
    32
  0
VERTEX
  8
┌▓È_1
  5
572
 10
1052.61
 20
-493.077
 30
0.000000
  70
    32
  0
VERTEX
  8
┌▓È_1
  5
573
 10
1052.64
 20
-493.085
 30
0.000000
  70
    32
  0
VERTEX
  8
┌▓È_1
  5
574
 10
1052.68
 20
-493.092
 30
0.000000
  70
    32
  0
VERTEX
  8
┌▓È_1
  5
575
 10
1052.72
 20
-493.100
 30
0.000000
  70
    32
  0
VERTEX
  8
┌▓È_1
  5
576
 10
1052.75
 20
-493.107
 30
0.000000
  70
    32
  0
VERTEX
  8
┌▓È_1
  5
577
 10
1052.79
 20
-493.115
 30
0.000000
  70
    32
  0
VERTEX
  8
┌▓È_1
  5
578
 10
1052.83
 20
-493.122
 30
0.000000
  70
    32
  0
VERTEX
  8
┌▓È_1
  5
579
 10
1052.86
 20
-493.129
 30
0.000000
  70
    32
  0
VERTEX
  8
┌▓È_1
  5
57A
 10
1052.90
 20
-493.137
 30
0.000000
  70
    32
  0
VERTEX
  8
┌▓È_1
  5
57B
 10
1052.94
 20
-493.144
 30
0.000000
  70
    32
  0
VERTEX
  8
┌▓È_1
  5
57C
 10
1052.97
 20
-493.151
 30
0.000000
  70
    32
  0
VERTEX
  8
┌▓È_1
  5
57D
 10
1053.01
 20
-493.158
 30
0.000000
  70
    32
  0
VERTEX
  8
┌▓È_1
  5
57E
 10
1053.05
 20
-493.166
 30
0.000000
  70
    32
  0
VERTEX
  8
┌▓È_1
  5
57F
 10
1053.08
 20
-493.173
 30
0.000000
  70
    32
  0
VERTEX
  8
┌▓È_1
  5
580
 10
1053.12
 20
-493.180
 30
0.000000
  70
    32
  0
VERTEX
  8
┌▓È_1
  5
581
 10
1053.16
 20
-493.187
 30
0.000000
  70
    32
  0
VERTEX
  8
┌▓È_1
  5
582
 10
1053.19
 20
-493.194
 30
0.000000
  70
    32
  0
VERTEX
  8
┌▓È_1
  5
583
 10
1053.23
 20
-493.201
 30
0.000000
  70
    32
  0
VERTEX
  8
┌▓È_1
  5
584
 10
1053.27
 20
-493.208
 30
0.000000
  70
    32
  0
VERTEX
  8
┌▓È_1
  5
585
 10
1053.30
 20
-493.215
 30
0.000000
  70
    32
  0
VERTEX
  8
┌▓È_1
  5
586
 10
1053.34
 20
-493.222
 30
0.000000
  70
    32
  0
VERTEX
  8
┌▓È_1
  5
587
 10
1053.38
 20
-493.229
 30
0.000000
  70
    32
  0
VERTEX
  8
┌▓È_1
  5
588
 10
1053.41
 20
-493.236
 30
0.000000
  70
    32
  0
VERTEX
  8
┌▓È_1
  5
589
 10
1053.45
 20
-493.243
 30
0.000000
  70
    32
  0
VERTEX
  8
┌▓È_1
  5
58A
 10
1053.49
 20
-493.250
 30
0.000000
  70
    32
  0
VERTEX
  8
┌▓È_1
  5
58B
 10
1053.52
 20
-493.257
 30
0.000000
  70
    32
  0
VERTEX
  8
┌▓È_1
  5
58C
 10
1053.56
 20
-493.264
 30
0.000000
  70
    32
  0
VERTEX
  8
┌▓È_1
  5
58D
 10
1053.60
 20
-493.270
 30
0.000000
  70
    32
  0
VERTEX
  8
┌▓È_1
  5
58E
 10
1053.63
 20
-493.277
 30
0.000000
  70
    32
  0
VERTEX
  8
┌▓È_1
  5
58F
 10
1053.67
 20
-493.284
 30
0.000000
  70
    32
  0
VERTEX
  8
┌▓È_1
  5
590
 10
1053.71
 20
-493.291
 30
0.000000
  70
    32
  0
VERTEX
  8
┌▓È_1
  5
591
 10
1053.75
 20
-493.297
 30
0.000000
  70
    32
  0
VERTEX
  8
┌▓È_1
  5
592
 10
1053.78
 20
-493.304
 30
0.000000
  70
    32
  0
VERTEX
  8
┌▓È_1
  5
593
 10
1053.82
 20
-493.311
 30
0.000000
  70
    32
  0
VERTEX
  8
┌▓È_1
  5
594
 10
1053.86
 20
-493.318
 30
0.000000
  70
    32
  0
VERTEX
  8
┌▓È_1
  5
595
 10
1053.89
 20
-493.324
 30
0.000000
  70
    32
  0
VERTEX
  8
┌▓È_1
  5
596
 10
1053.93
 20
-493.331
 30
0.000000
  70
    32
  0
VERTEX
  8
┌▓È_1
  5
597
 10
1053.97
 20
-493.337
 30
0.000000
  70
    32
  0
VERTEX
  8
┌▓È_1
  5
598
 10
1054.00
 20
-493.344
 30
0.000000
  70
    32
  0
VERTEX
  8
┌▓È_1
  5
599
 10
1054.04
 20
-493.351
 30
0.000000
  70
    32
  0
VERTEX
  8
┌▓È_1
  5
59A
 10
1054.08
 20
-493.357
 30
0.000000
  70
    32
  0
VERTEX
  8
┌▓È_1
  5
59B
 10
1054.12
 20
-493.364
 30
0.000000
  70
    32
  0
VERTEX
  8
┌▓È_1
  5
59C
 10
1054.15
 20
-493.370
 30
0.000000
  70
    32
  0
VERTEX
  8
┌▓È_1
  5
59D
 10
1054.19
 20
-493.377
 30
0.000000
  70
    32
  0
VERTEX
  8
┌▓È_1
  5
59E
 10
1054.23
 20
-493.383
 30
0.000000
  70
    32
  0
VERTEX
  8
┌▓È_1
  5
59F
 10
1054.26
 20
-493.390
 30
0.000000
  70
    32
  0
VERTEX
  8
┌▓È_1
  5
5A0
 10
1054.30
 20
-493.396
 30
0.000000
  70
    32
  0
VERTEX
  8
┌▓È_1
  5
5A1
 10
1054.34
 20
-493.403
 30
0.000000
  70
    32
  0
VERTEX
  8
┌▓È_1
  5
5A2
 10
1054.38
 20
-493.409
 30
0.000000
  70
    32
  0
VERTEX
  8
┌▓È_1
  5
5A3
 10
1054.41
 20
-493.416
 30
0.000000
  70
    32
  0
VERTEX
  8
┌▓È_1
  5
5A4
 10
1054.45
 20
-493.422
 30
0.000000
  70
    32
  0
VERTEX
  8
┌▓È_1
  5
5A5
 10
1054.49
 20
-493.429
 30
0.000000
  70
    32
  0
VERTEX
  8
┌▓È_1
  5
5A6
 10
1054.52
 20
-493.435
 30
0.000000
  70
    32
  0
VERTEX
  8
┌▓È_1
  5
5A7
 10
1054.56
 20
-493.441
 30
0.000000
  70
    32
  0
VERTEX
  8
┌▓È_1
  5
5A8
 10
1054.60
 20
-493.448
 30
0.000000
  70
    32
  0
VERTEX
  8
┌▓È_1
  5
5A9
 10
1054.64
 20
-493.454
 30
0.000000
  70
    32
  0
VERTEX
  8
┌▓È_1
  5
5AA
 10
1054.67
 20
-493.461
 30
0.000000
  70
    32
  0
VERTEX
  8
┌▓È_1
  5
5AB
 10
1054.71
 20
-493.467
 30
0.000000
  70
    32
  0
VERTEX
  8
┌▓È_1
  5
5AC
 10
1054.75
 20
-493.473
 30
0.000000
  70
    32
  0
VERTEX
  8
┌▓È_1
  5
5AD
 10
1054.78
 20
-493.480
 30
0.000000
  70
    32
  0
VERTEX
  8
┌▓È_1
  5
5AE
 10
1054.82
 20
-493.486
 30
0.000000
  70
    32
  0
VERTEX
  8
┌▓È_1
  5
5AF
 10
1054.86
 20
-493.492
 30
0.000000
  70
    32
  0
VERTEX
  8
┌▓È_1
  5
5B0
 10
1054.90
 20
-493.499
 30
0.000000
  70
    32
  0
VERTEX
  8
┌▓È_1
  5
5B1
 10
1054.93
 20
-493.505
 30
0.000000
  70
    32
  0
VERTEX
  8
┌▓È_1
  5
5B2
 10
1054.97
 20
-493.511
 30
0.000000
  70
    32
  0
VERTEX
  8
┌▓È_1
  5
5B3
 10
1055.01
 20
-493.518
 30
0.000000
  70
    32
  0
VERTEX
  8
┌▓È_1
  5
5B4
 10
1055.04
 20
-493.524
 30
0.000000
  70
    32
  0
VERTEX
  8
┌▓È_1
  5
5B5
 10
1055.08
 20
-493.530
 30
0.000000
  70
    32
  0
VERTEX
  8
┌▓È_1
  5
5B6
 10
1055.12
 20
-493.536
 30
0.000000
  70
    32
  0
VERTEX
  8
┌▓È_1
  5
5B7
 10
1055.16
 20
-493.543
 30
0.000000
  70
    32
  0
VERTEX
  8
┌▓È_1
  5
5B8
 10
1055.19
 20
-493.549
 30
0.000000
  70
    32
  0
VERTEX
  8
┌▓È_1
  5
5B9
 10
1055.23
 20
-493.555
 30
0.000000
  70
    32
  0
VERTEX
  8
┌▓È_1
  5
5BA
 10
1055.27
 20
-493.562
 30
0.000000
  70
    32
  0
VERTEX
  8
┌▓È_1
  5
5BB
 10
1055.30
 20
-493.568
 30
0.000000
  70
    32
  0
VERTEX
  8
┌▓È_1
  5
5BC
 10
1055.34
 20
-493.574
 30
0.000000
  70
    32
  0
VERTEX
  8
┌▓È_1
  5
5BD
 10
1055.38
 20
-493.580
 30
0.000000
  70
    32
  0
SEQEND
  8
┌▓È_1
  5
5BE
  0
INSERT
  5
256
  8
0
  6
CONTINUOUS
  2
*U63
 10
0.0
 20
0.0
 30
0.0
  0
INSERT
  5
257
  8
0
  6
CONTINUOUS
  2
*U64
 10
0.0
 20
0.0
 30
0.0
  0
INSERT
  5
258
  8
0
  6
CONTINUOUS
  2
*U65
 10
0.0
 20
0.0
 30
0.0
  0
LINE
  5
259
  8
┌▓È_1
 62
     5
 10
1070.1831833215001
 20
-484.96302031839991
 30
0.0
 11
1071.8140431098
 21
-482.58047809930002
 31
0.0
  0
LINE
  5
25A
  8
┌▓È_1
 62
     5
 10
1059.8140431098
 20
-485.9804780993
 30
0.0
 11
1064.8113764432001
 21
-485.9804780993
 31
0.0
  0
LINE
  5
25B
  8
┌▓È_1
 62
     5
 10
1059.8140431098
 20
-491.18047809929999
 30
0.0
 11
1059.8140431098
 21
-494.78047809930001
 31
0.0
  0
LINE
  5
25C
  8
┌▓È_1
 62
     5
 10
1059.8140431098
 20
-489.58047809930002
 30
0.0
 11
1065.8673764432001
 21
-489.58047809930002
 31
0.0
  0
LINE
  5
25D
  8
┌▓È_1
 62
     5
 10
1077.8140431098
 20
-485.9804780993
 30
0.0
 11
1077.8140431098
 21
-489.58047809930002
 31
0.0
  0
LINE
  5
25E
  8
┌▓È_1
 62
     5
 10
1068.2140431098001
 20
-497.58047809930002
 30
0.0
 11
1067.3927097764999
 21
-494.78047809930001
 31
0.0
  0
LINE
  5
25F
  8
┌▓È_1
 62
     5
 10
1071.9723486062001
 20
-491.18047809929999
 30
0.0
 11
1071.5119249802001
 21
-489.58047809930002
 31
0.0
  0
LINE
  5
260
  8
┌▓È_1
 62
     5
 10
1059.8140431098
 20
-491.18047809929999
 30
0.0
 11
1066.3367097764999
 21
-491.18047809929999
 31
0.0
  0
ARC
  5
261
  8
┌▓È_1
 62
     5
 10
1042.3790778133
 20
-485.58047809930002
 30
0.0
 40
11.0
 50
270.0
 51
302.54495885400001
  0
ARC
  5
262
  8
┌▓È_1
 62
     5
 10
1039.7790778133001
 20
-485.9804780993
 30
0.0
 40
7.5999999999999988
 50
331.39928138329998
 51
358.49204224580001
  0
LINE
  5
263
  8
┌▓È_1
 62
     5
 10
1055.3790778133
 20
-493.58047809930002
 30
0.0
 11
1055.3790778133
 21
-496.58047809930002
 31
0.0
  0
LINE
  5
264
  8
┌▓È_1
 62
     5
 10
1077.8140431098
 20
-491.18047809929999
 30
0.0
 11
1077.8140431098
 21
-494.78047809930001
 31
0.0
  0
LINE
  5
265
  8
┌▓È_1
 62
     5
 10
1063.8140431098
 20
-482.58047809930002
 30
0.0
 11
1071.8140431098
 21
-482.58047809930002
 31
0.0
  0
LINE
  5
266
  8
┌▓È_1
 62
     5
 10
1053.3790778133
 20
-485.58047809930002
 30
0.0
 11
1055.3790778133
 21
-482.58047809930002
 31
0.0
  0
LINE
  5
267
  8
┌▓È_1
 62
     5
 10
1046.4517027966001
 20
-489.6186199094999
 30
0.0
 11
1045.9705111840001
 21
-490.15009663069998
 31
0.0
  0
LINE
  5
268
  8
┌▓È_1
 62
     5
 10
1071.5119249802001
 20
-489.58047809930002
 30
0.0
 11
1077.8140431098
 21
-489.58047809930002
 31
0.0
  0
LINE
  5
269
  8
┌▓È_1
 62
     5
 10
1053.3790778133
 20
-485.58047809930002
 30
0.0
 11
1055.3790778133
 21
-482.58047809930002
 31
0.0
  0
LINE
  5
26A
  8
┌▓È_1
 62
     5
 10
1051.1045165174
 20
-492.27874051729998
 30
0.0
 11
1050.7483123979
 21
-492.6274968056
 31
0.0
  0
LINE
  5
26B
  8
┌▓È_1
 62
     5
 10
954.87774974360013
 20
-25.815183232100001
 30
0.0
 11
959.87774974360002
 21
-25.815183232100001
 31
0.0
  0
ARC
  5
26C
  8
┌▓È_1
 62
     5
 10
942.87808548639987
 20
-108.2631111422
 30
0.0
 40
1.0
 50
0.0
 51
102.9122218322
  0
ARC
  5
26D
  8
┌▓È_1
 62
     5
 10
945.75568965309992
 20
-120.8150864184
 30
0.0
 40
13.877604166699999
 50
102.9122218322
 51
257.08777816779991
  0
ARC
  5
26E
  8
┌▓È_1
 62
     5
 10
947.87808548639998
 20
-117.3150864184
 30
0.0
 40
1.0
 50
270.0
 51
0.0
  0
ARC
  5
26F
  8
┌▓È_1
 62
     5
 10
947.87808548639998
 20
-124.3150864184
 30
0.0
 40
1.0
 50
0.0
 51
90.0
  0
LINE
  5
270
  8
┌▓È_1
 62
     5
 10
948.87808548639998
 20
-111.3150864184
 30
0.0
 11
950.87808548639987
 21
-109.3150864184
 31
0.0
  0
LINE
  5
271
  8
┌▓È_1
 62
     5
 10
948.87808548639998
 20
-117.3150864184
 30
0.0
 11
948.87808548639998
 21
-111.3150864184
 31
0.0
  0
LINE
  5
272
  8
┌▓È_1
 62
     5
 10
953.87808548639987
 20
-132.3150864184
 30
0.0
 11
950.87808548639987
 21
-132.3150864184
 31
0.0
  0
LINE
  5
273
  8
┌▓È_1
 62
     5
 10
950.87808548639987
 20
-132.3150864184
 30
0.0
 11
950.87808548639987
 21
-109.3150864184
 31
0.0
  0
LINE
  5
274
  8
┌▓È_1
 62
     5
 10
950.87808548639987
 20
-109.3150864184
 30
0.0
 11
953.87808548639987
 21
-109.3150864184
 31
0.0
  0
ARC
  5
275
  8
┌▓È_1
 62
     5
 10
938.68785674910009
 20
-117.3150864184
 30
0.0
 40
1.0
 50
153.94615045730001
 51
270.0
  0
ARC
  5
276
  8
┌▓È_1
 62
     5
 10
938.68785674910009
 20
-124.3150864184
 30
0.0
 40
1.0
 50
90.0
 51
206.05384954269999
  0
LINE
  5
277
  8
┌▓È_1
 62
     5
 10
948.87808548639998
 20
-124.3150864184
 30
0.0
 11
948.87808548639998
 21
-117.3150864184
 31
0.0
  0
LINE
  5
278
  8
┌▓È_1
 62
     5
 10
950.87808548639987
 20
-132.3150864184
 30
0.0
 11
948.87808548639998
 21
-130.3150864184
 31
0.0
  0
LINE
  5
279
  8
┌▓È_1
 62
     5
 10
948.87808548639998
 20
-130.3150864184
 30
0.0
 11
948.87808548639998
 21
-124.3150864184
 31
0.0
  0
LINE
  5
27A
  8
┌▓È_1
 62
     5
 10
943.87808548639987
 20
-108.2631111422
 30
0.0
 11
943.87808548639987
 21
-111.29865326300001
 31
0.0
  0
ARC
  5
27B
  8
┌▓È_1
 62
     5
 10
942.87808548639987
 20
-130.33151957370001
 30
0.0
 40
1.0
 50
0.0
 51
72.674147497999996
  0
LINE
  5
27C
  8
┌▓È_1
 62
     5
 10
938.68785674910009
 20
-118.3150864184
 30
0.0
 11
947.87808548639998
 21
-118.3150864184
 31
0.0
  0
ARC
  5
27D
  8
┌▓È_1
 62
     5
 10
945.84683548639987
 20
-120.8150864184
 30
0.0
 40
8.96875
 50
107.325852502
 51
153.94615045730001
  0
LINE
  5
27E
  8
┌▓È_1
 62
     5
 10
943.87808548639987
 20
-133.36706169449999
 30
0.0
 11
943.87808548639987
 21
-130.33151957370001
 31
0.0
  0
LINE
  5
27F
  8
┌▓È_1
 62
     5
 10
938.68785674910009
 20
-123.3150864184
 30
0.0
 11
947.87808548639998
 21
-123.3150864184
 31
0.0
  0
ARC
  5
280
  8
┌▓È_1
 62
     5
 10
942.87808548639987
 20
-133.36706169449999
 30
0.0
 40
1.0
 50
257.08777816779991
 51
0.0
  0
ARC
  5
281
  8
┌▓È_1
 62
     5
 10
942.87808548639987
 20
-111.29865326300001
 30
0.0
 40
1.0
 50
287.32585250199998
 51
0.0
  0
ARC
  5
282
  8
┌▓È_1
 62
     5
 10
945.84683548639987
 20
-120.8150864184
 30
0.0
 40
8.96875
 50
206.05384954269999
 51
252.674147498
  0
LINE
  5
283
  8
┌▓È_1
 62
     5
 10
954.87774974360013
 20
-215.8151832321
 30
0.0
 11
959.87774974360002
 21
-215.8151832321
 31
0.0
  0
LINE
  5
284
  8
┌▓È_1
 62
     5
 10
1048.8777497435999
 20
-27.815183232100001
 30
0.0
 11
1047.8777497435999
 21
-27.815183232100001
 31
0.0
  0
LINE
  5
285
  8
┌▓È_1
 62
     5
 10
1056.7365727155
 20
28.849175966899999
 30
0.0
 11
1236.7365727155
 21
28.849175966899999
 31
0.0
  0
INSERT
  5
286
  8
0
  6
CONTINUOUS
  2
*U66
 10
0.0
 20
0.0
 30
0.0
  0
INSERT
  5
287
  8
0
  6
CONTINUOUS
  2
*U67
 10
0.0
 20
0.0
 30
0.0
  0
LINE
  5
288
  8
┌▓È_1
 62
     5
 10
1116.7365727155
 20
28.849175966899999
 30
0.0
 11
1116.7365727155
 21
58.849175966899999
 31
0.0
  0
LINE
  5
289
  8
┌▓È_1
 62
     5
 10
1061.2180019433999
 20
29.810759468899999
 30
0.0
 11
1071.1180019434
 21
29.810759468899999
 31
0.0
  0
LINE
  5
28A
  8
┌▓È_1
 62
     5
 10
1066.1680019434
 20
38.384410966399997
 30
0.0
 11
1071.1180019434
 21
29.810759468899999
 31
0.0
  0
LINE
  5
28B
  8
┌▓È_1
 62
     5
 10
1066.1680019434
 20
38.384410966399997
 30
0.0
 11
1061.2180019433999
 21
29.810759468899999
 31
0.0
  0
LINE
  5
28C
  8
┌▓È_1
 62
     5
 10
1066.1680019434
 20
48.284410966400003
 30
0.0
 11
1061.2180019433999
 21
39.710759468900001
 31
0.0
  0
LINE
  5
28D
  8
┌▓È_1
 62
     5
 10
1066.1680019434
 20
48.284410966400003
 30
0.0
 11
1071.1180019434
 21
39.710759468900001
 31
0.0
  0
LINE
  5
28E
  8
┌▓È_1
 62
     5
 10
1061.2180019433999
 20
39.710759468900001
 30
0.0
 11
1071.1180019434
 21
39.710759468900001
 31
0.0
  0
LINE
  5
28F
  8
┌▓È_1
 62
     5
 10
1061.2180019433999
 20
49.610759468900007
 30
0.0
 11
1071.1180019434
 21
49.610759468900007
 31
0.0
  0
LINE
  5
290
  8
┌▓È_1
 62
     5
 10
1066.1680019434
 20
58.184410966400002
 30
0.0
 11
1071.1180019434
 21
49.610759468900007
 31
0.0
  0
LINE
  5
291
  8
┌▓È_1
 62
     5
 10
1066.1680019434
 20
58.184410966400002
 30
0.0
 11
1061.2180019433999
 21
49.610759468900007
 31
0.0
  0
INSERT
  5
292
  8
0
  6
CONTINUOUS
  2
*U68
 10
0.0
 20
0.0
 30
0.0
  0
LINE
  5
293
  8
┌▓È_1
 62
     5
 10
1056.7365727155
 20
28.849175966899999
 30
0.0
 11
1056.7365727155
 21
58.849175966899999
 31
0.0
  0
LINE
  5
294
  8
┌▓È_1
 62
     5
 10
1076.7365727155
 20
28.849175966899999
 30
0.0
 11
1076.7365727155
 21
58.849175966899999
 31
0.0
  0
INSERT
  5
295
  8
0
  6
CONTINUOUS
  2
*U69
 10
0.0
 20
0.0
 30
0.0
  0
INSERT
  5
296
  8
0
  6
CONTINUOUS
  2
*U70
 10
0.0
 20
0.0
 30
0.0
  0
LINE
  5
297
  8
┌▓È_1
 62
     5
 10
1116.7365727155
 20
28.849175966899999
 30
0.0
 11
1116.7365727155
 21
58.849175966899999
 31
0.0
  0
LINE
  5
298
  8
┌▓È_1
 62
     5
 10
1056.7365727155
 20
48.849175966899999
 30
0.0
 11
1236.7365727155
 21
48.849175966899999
 31
0.0
  0
LINE
  5
299
  8
┌▓È_1
 62
     5
 10
1056.7365727155
 20
38.849175966899999
 30
0.0
 11
1236.7365727155
 21
38.849175966899999
 31
0.0
  0
LINE
  5
29A
  8
┌▓È_1
 62
     5
 10
1048.8777497435999
 20
-213.8151832321
 30
0.0
 11
1047.8777497435999
 21
-213.8151832321
 31
0.0
  0
DIMENSION
  5
2A9
  8
Éíû@É³
  2
*D17
 10
959.87774974360002
 20
-5.8151832320999999
 30
0.0
 11
956.87774974360002
 21
-5.8151832320999999
 31
0.0
 70
   128
  1
<>
 13
959.87774974360002
 23
-25.815183232100001
 33
0.0
 14
953.87774974359991
 24
-26.815183232100001
 34
0.0
  0
ARC
  5
2AA
  8
┌▓È_1
 62
     5
 10
954.87774974360013
 20
-26.815183232100001
 30
0.0
 40
1.0
 50
90.0
 51
180.0
  0
ENDSEC
  0
EOF
