  0
SECTION
  2
HEADER
  9
$ACADVER
  1
AC1009
  9
$INSBASE
 10
0.0
 20
0.0
 30
0.0
  9
$EXTMIN
 10
427.04439061609997
 20
-509.08671580599997
 30
0.0
  9
$EXTMAX
 10
1246.9643906161
 20
67.833284194000001
 30
0.0
  9
$LIMMIN
 10
0.0
 20
0.0
  9
$LIMMAX
 10
0.0
 20
0.0
  9
$ORTHOMODE
 70
     0
  9
$REGENMODE
 70
     1
  9
$FILLMODE
 70
     1
  9
$QTEXTMODE
 70
     0
  9
$MIRRTEXT
 70
     1
  9
$DRAGMODE
 70
     2
  9
$LTSCALE
 40
1.0
  9
$OSMODE
 70
    31
  9
$ATTMODE
 70
     1
  9
$TEXTSIZE
 40
0.0
  9
$TRACEWID
 40
0.05
  9
$TEXTSTYLE
  7
STANDARD
  9
$CLAYER
  8
0
  9
$CELTYPE
  6
CONTINUOUS
  9
$CECOLOR
 62
   256
  9
$DIMSCALE
 40
1.0
  9
$DIMASZ
 40
0.18
  9
$DIMEXO
 40
0.0625
  9
$DIMDLI
 40
0.38
  9
$DIMRND
 40
0.0
  9
$DIMDLE
 40
0.0
  9
$DIMEXE
 40
0.18
  9
$DIMTP
 40
0.0
  9
$DIMTM
 40
0.0
  9
$DIMTXT
 40
0.18
  9
$DIMCEN
 40
0.09
  9
$DIMTSZ
 40
0.0
  9
$DIMTOL
 70
     0
  9
$DIMLIM
 70
     0
  9
$DIMTIH
 70
     1
  9
$DIMTOH
 70
     1
  9
$DIMSE1
 70
     0
  9
$DIMSE2
 70
     0
  9
$DIMTAD
 70
     0
  9
$DIMZIN
 70
     0
  9
$DIMBLK
  1

  9
$DIMASO
 70
     1
  9
$DIMSHO
 70
     1
  9
$DIMPOST
  1

  9
$DIMAPOST
  1

  9
$DIMALT
 70
     0
  9
$DIMALTD
 70
     2
  9
$DIMALTF
 40
25.399999999999999
  9
$DIMLFAC
 40
1.0
  9
$DIMTOFL
 70
     0
  9
$DIMTVP
 40
0.0
  9
$DIMTIX
 70
     0
  9
$DIMSOXD
 70
     0
  9
$DIMSAH
 70
     0
  9
$DIMBLK1
  1

  9
$DIMBLK2
  1

  9
$DIMSTYLE
  2
STANDARD
  9
$DIMCLRD
 70
     0
  9
$DIMCLRE
 70
     0
  9
$DIMCLRT
 70
     0
  9
$DIMTFAC
 40
1.0
  9
$DIMGAP
 40
0.09
  9
$LUNITS
 70
     2
  9
$LUPREC
 70
     4
  9
$SKETCHINC
 40
0.1
  9
$FILLETRAD
 40
0.0
  9
$AUNITS
 70
     0
  9
$AUPREC
 70
     0
  9
$MENU
  1
acad
  9
$ELEVATION
 40
0.0
  9
$PELEVATION
 40
0.0
  9
$THICKNESS
 40
0.0
  9
$LIMCHECK
 70
     0
  9
$BLIPMODE
 70
     0
  9
$CHAMFERA
 40
0.0
  9
$CHAMFERB
 40
0.0
  9
$SKPOLY
 70
     0
  9
$TDCREATE
 40
2454860.6777090509
  9
$TDUPDATE
 40
2454860.6781673152
  9
$TDINDWG
 40
0.0004821296
  9
$TDUSRTIMER
 40
0.0004817708
  9
$USRTIMER
 70
     1
  9
$ANGBASE
 50
0.0
  9
$ANGDIR
 70
     0
  9
$PDMODE
 70
     3
  9
$PDSIZE
 40
-1.0
  9
$PLINEWID
 40
0.0
  9
$COORDS
 70
     2
  9
$SPLFRAME
 70
     0
  9
$SPLINETYPE
 70
     6
  9
$SPLINESEGS
 70
     8
  9
$ATTDIA
 70
     0
  9
$ATTREQ
 70
     1
  9
$HANDLING
 70
     1
  9
$HANDSEED
  5
AEF
  9
$SURFTAB1
 70
     6
  9
$SURFTAB2
 70
     6
  9
$SURFTYPE
 70
     6
  9
$SURFU
 70
     6
  9
$SURFV
 70
     6
  9
$UCSNAME
  2

  9
$UCSORG
 10
0.0
 20
0.0
 30
0.0
  9
$UCSXDIR
 10
1.0
 20
0.0
 30
0.0
  9
$UCSYDIR
 10
0.0
 20
1.0
 30
0.0
  9
$PUCSNAME
  2

  9
$PUCSORG
 10
0.0
 20
0.0
 30
0.0
  9
$PUCSXDIR
 10
1.0
 20
0.0
 30
0.0
  9
$PUCSYDIR
 10
0.0
 20
1.0
 30
0.0
  9
$USERI1
 70
     0
  9
$USERI2
 70
     0
  9
$USERI3
 70
     0
  9
$USERI4
 70
     0
  9
$USERI5
 70
     0
  9
$USERR1
 40
0.0
  9
$USERR2
 40
0.0
  9
$USERR3
 40
0.0
  9
$USERR4
 40
0.0
  9
$USERR5
 40
0.0
  9
$WORLDVIEW
 70
     1
  9
$SHADEDGE
 70
     3
  9
$SHADEDIF
 70
    70
  9
$TILEMODE
 70
     1
  9
$MAXACTVP
 70
    16
  9
$PLIMCHECK
 70
     0
  9
$PEXTMIN
 10
1.0000000000000000E+020
 20
1.0000000000000000E+020
 30
1.0000000000000000E+020
  9
$PEXTMAX
 10
-1.0000000000000000E+020
 20
-1.0000000000000000E+020
 30
-1.0000000000000000E+020
  9
$PLIMMIN
 10
0.0
 20
0.0
  9
$PLIMMAX
 10
12.0
 20
9.0
  9
$UNITMODE
 70
     0
  9
$VISRETAIN
 70
     0
  9
$PLINEGEN
 70
     1
  9
$PSLTSCALE
 70
     0
  0
ENDSEC
  0
SECTION
  2
TABLES
  0
TABLE
  2
VPORT
 70
     2
  0
VPORT
  2
*ACTIVE
 70
     0
 10
0.0
 20
0.0
 11
1.0
 21
1.0
 12
837.00439061609995
 22
-220.62671580599999
 13
0.0
 23
0.0
 14
1.0
 24
1.0
 15
0.0
 25
0.0
 16
0.0
 26
0.0
 36
1.0
 17
0.0
 27
0.0
 37
0.0
 40
581.70771784232363
 41
1.6343490304709141
 42
50.0
 43
0.0
 44
0.0
 50
0.0
 51
0.0
 71
     0
 72
   100
 73
     1
 74
     1
 75
     0
 76
     0
 77
     0
 78
     0
  0
ENDTAB
  0
TABLE
  2
LTYPE
 70
    11
  0
LTYPE
  2
CONTINUOUS
 70
     0
  3
Solid line
 72
    65
 73
     0
 40
0.0
  0
LTYPE
  2
DOT
 70
     0
  3
. . . . . . . . 
 72
    65
 73
     2
 40
1.0
 49
0.0
 49
-1.0
  0
LTYPE
  2
DASHED
 70
     0
  3
___  ___  ___  ___  
 72
    65
 73
     2
 40
4.0
 49
3.0
 49
-1.0
  0
LTYPE
  2
HIDDEN
 70
     0
  3
__ __ __ __ 
 72
    65
 73
     2
 40
3.0
 49
2.0
 49
-1.0
  0
LTYPE
  2
STITCH
 70
     0
  3
_ _ _ _ 
 72
    65
 73
     2
 40
2.0
 49
1.0
 49
-1.0
  0
LTYPE
  2
CENTER
 70
     0
  3
______  __  ______  __  
 72
    65
 73
     4
 40
43.0
 49
40.0
 49
-1.0
 49
1.0
 49
-1.0
  0
LTYPE
  2
DASHDOT
 70
     0
  3
____ . ____ . 
 72
    65
 73
     4
 40
32.0
 49
30.0
 49
-1.0
 49
0.0
 49
-1.0
  0
LTYPE
  2
BORDER
 70
     0
  3
__ . __ . 
 72
    65
 73
     4
 40
22.0
 49
20.0
 49
-1.0
 49
0.0
 49
-1.0
  0
LTYPE
  2
CUTTING
 70
     0
  3
________   ___   ___   
 72
    65
 73
     6
 40
45.0
 49
40.0
 49
-1.0
 49
1.0
 49
-1.0
 49
1.0
 49
-1.0
  0
LTYPE
  2
PHANTOM
 70
     0
  3
______  __  __  
 72
    65
 73
     6
 40
35.0
 49
30.0
 49
-1.0
 49
1.0
 49
-1.0
 49
1.0
 49
-1.0
  0
LTYPE
  2
DIVIDE
 70
     0
  3
____ . . ____ . . 
 72
    65
 73
     6
 40
23.0
 49
20.0
 49
-1.0
 49
0.0
 49
-1.0
 49
0.0
 49
-1.0
  0
ENDTAB
  0
TABLE
  2
LAYER
 70
     4
  0
LAYER
  2
0
 70
     0
 62
     7
  6
CONTINUOUS
  0
LAYER
  2
Éíû@É³
 70
     0
 62
     7
  6
CONTINUOUS
  0
LAYER
  2
┌▓È_1
 70
     0
 62
     7
  6
CONTINUOUS
  0
LAYER
  2
É}ÿg
 70
     0
 62
     7
  6
CONTINUOUS
  0
ENDTAB
  0
TABLE
  2
STYLE
 70
     1
  0
STYLE
  2
STANDARD
 70
     0
 40
0.0
 41
1.0
 50
0.0
 71
     0
 42
0.0
  3
txt
  4
extfont
  0
ENDTAB
  0
TABLE
  2
VIEW
 70
     0
  0
ENDTAB
  0
TABLE
  2
UCS
 70
     0
  0
ENDTAB
  0
TABLE
  2
APPID
 70
     2
  0
APPID
  2
ACAD
 70
     0
  0
APPID
  2
DCO15
 70
     0
  0
ENDTAB
  0
TABLE
  2
DIMSTYLE
 70
     4
  0
DIMSTYLE
  2
STANDARD
 70
     0
  3

  4

  5

  6

  7

 40
1.0
 41
0.18
 42
0.0625
 43
0.38
 44
0.18
 45
0.0
 46
0.0
 47
0.0
 48
0.0
140
0.18
141
0.09
142
0.0
143
25.399999999999999
144
1.0
145
0.0
146
1.0
147
0.09
 71
     0
 72
     0
 73
     1
 74
     1
 75
     0
 76
     0
 77
     0
 78
     0
170
     0
171
     2
172
     0
173
     0
174
     0
175
     0
176
     0
177
     0
178
     0
  0
DIMSTYLE
  2
VELDIM0
 70
     0
  3

  4

  5

  6

  7

 40
1.0
 41
6.0
 42
0.0625
 43
0.38
 44
0.5
 45
0.0
 46
3.0
 47
0.0
 48
0.0
140
5.9972220420999998
141
0.09
142
0.0
143
25.399999999999999
144
1.0
145
0.0
146
1.0
147
0.09
 71
     0
 72
     0
 73
     0
 74
     0
 75
     0
 76
     0
 77
     0
 78
     8
170
     0
171
     2
172
     0
173
     0
174
     0
175
     0
176
     0
177
     0
178
     0
  0
DIMSTYLE
  2
VELDIM1
 70
     0
  3

  4

  5

  6

  7

 40
1.0
 41
6.0
 42
0.0625
 43
0.38
 44
1.0
 45
0.0
 46
6.0
 47
0.0
 48
0.0
140
5.9972220420999998
141
0.09
142
0.0
143
25.399999999999999
144
1.0
145
0.0
146
1.0
147
0.09
 71
     0
 72
     0
 73
     0
 74
     0
 75
     0
 76
     0
 77
     0
 78
     8
170
     0
171
     2
172
     0
173
     0
174
     0
175
     0
176
     0
177
     0
178
     0
  0
DIMSTYLE
  2
VELDIM2
 70
     0
  3

  4

  5

  6

  7

 40
1.0
 41
6.0
 42
0.0625
 43
0.38
 44
1.25
 45
0.0
 46
5.0
 47
0.0
 48
0.0
140
5.9972220420999998
141
0.09
142
0.0
143
25.399999999999999
144
1.0
145
0.0
146
1.0
147
0.09
 71
     0
 72
     0
 73
     0
 74
     0
 75
     0
 76
     0
 77
     0
 78
     8
170
     0
171
     2
172
     0
173
     0
174
     0
175
     0
176
     0
177
     0
178
     0
  0
ENDTAB
  0
ENDSEC
  0
SECTION
  2
BLOCKS
  0
BLOCK
  8
0
  2
$MODEL_SPACE
 70
     0
 10
0.0
 20
0.0
 30
0.0
  3
$MODEL_SPACE
  1

  0
ENDBLK
  5
E
  8
0
  0
BLOCK
 67
     1
  8
0
  2
$PAPER_SPACE
 70
     0
 10
0.0
 20
0.0
 30
0.0
  3
$PAPER_SPACE
  1

  0
ENDBLK
  5
10
 67
     1
  8
0
  0
BLOCK
  8
0
  2
*D0
 70
     1
 10
0.0
 20
0.0
 30
0.0
  3
*D0
  1

  0
TEXT
  5
31
  8
0
 62
     0
 10
663.58800512690004
 20
20.5707801561
 30
0.0
 40
5.9972220420999998
  1
235
  0
LINE
  5
32
  8
0
 62
     0
 10
786.37967163459996
 20
-24.583257845999999
 30
0.0
 11
786.37967163459996
 21
19.0124468546
 31
0.0
  0
LINE
  5
33
  8
0
 62
     0
 10
551.37967163459984
 20
-24.583257845999999
 30
0.0
 11
551.37967163459984
 21
19.0124468546
 31
0.0
  0
LINE
  5
34
  8
0
 62
     0
 10
786.37967163459996
 20
18.5124468546
 30
0.0
 11
677.69911581420001
 21
18.5124468546
 31
0.0
  0
LINE
  5
35
  8
0
 62
     0
 10
786.37967163459996
 20
18.5124468546
 30
0.0
 11
660.06022745509995
 21
18.5124468546
 31
0.0
  0
LINE
  5
36
  8
0
 62
     0
 10
551.37967163459984
 20
18.5124468546
 30
0.0
 11
677.69911581420001
 21
18.5124468546
 31
0.0
  0
LINE
  5
37
  8
0
 62
     0
 10
551.37967163459984
 20
18.5124468546
 30
0.0
 11
660.06022745509995
 21
18.5124468546
 31
0.0
  0
LINE
  5
38
  8
0
 62
     0
 10
551.37967163459984
 20
18.5124468546
 30
0.0
 11
554.37967163459984
 21
18.5124468546
 31
0.0
  0
SOLID
  5
39
  8
0
 62
     0
 10
551.37967163459984
 20
18.5124468546
 30
0.0
 11
557.37967163459996
 21
20.0124468546
 31
0.0
 12
557.37967163459996
 22
17.0124468546
 32
0.0
 13
555.87967163459984
 23
18.5124468546
 33
0.0
  0
LINE
  5
3A
  8
0
 62
     0
 10
786.37967163459996
 20
18.5124468546
 30
0.0
 11
783.37967163459996
 21
18.5124468546
 31
0.0
  0
SOLID
  5
3B
  8
0
 62
     0
 10
786.37967163459996
 20
18.5124468546
 30
0.0
 11
780.37967163459996
 21
17.0124468546
 31
0.0
 12
780.37967163459996
 22
20.0124468546
 32
0.0
 13
781.87967163460007
 23
18.5124468546
 33
0.0
  0
ENDBLK
  5
3C
  8
0
  0
BLOCK
  8
0
  2
*D1
 70
     1
 10
0.0
 20
0.0
 30
0.0
  3
*D1
  1

  0
TEXT
  5
45
  8
0
 62
     0
 10
633.32140623429984
 20
-370.85552047149997
 30
0.0
 40
5.9972220420999998
  1
47
 50
90.0
  0
LINE
  5
46
  8
0
 62
     0
 10
655.37973953589994
 20
-343.67769650339989
 30
0.0
 11
635.37973953589994
 21
-343.67769650339989
 31
0.0
  0
LINE
  5
47
  8
0
 62
     0
 10
667.87967163459984
 20
-390.97778909599998
 30
0.0
 11
635.37973953589994
 21
-390.97778909599998
 31
0.0
  0
LINE
  5
48
  8
0
 62
     0
 10
636.37973953589994
 20
-343.67769650339989
 30
0.0
 11
636.37973953589994
 21
-360.27218745610003
 31
0.0
  0
LINE
  5
49
  8
0
 62
     0
 10
636.37973953589994
 20
-343.67769650339989
 30
0.0
 11
636.37973953589994
 21
-374.38329814330001
 31
0.0
  0
LINE
  5
4A
  8
0
 62
     0
 10
636.37973953589994
 20
-390.97778909599998
 30
0.0
 11
636.37973953589994
 21
-360.27218745610003
 31
0.0
  0
LINE
  5
4B
  8
0
 62
     0
 10
636.37973953589994
 20
-390.97778909599998
 30
0.0
 11
636.37973953589994
 21
-374.38329814330001
 31
0.0
  0
LINE
  5
4C
  8
0
 62
     0
 10
636.37973953589994
 20
-390.97778909599998
 30
0.0
 11
636.37973953589994
 21
-384.97778909599998
 31
0.0
  0
SOLID
  5
4D
  8
0
 62
     0
 10
636.37973953589994
 20
-390.97778909599998
 30
0.0
 11
634.87973953589994
 21
-384.97778909599998
 31
0.0
 12
637.87973953589994
 22
-384.97778909599998
 32
0.0
 13
636.37973953589994
 23
-386.47778909599998
 33
0.0
  0
LINE
  5
4E
  8
0
 62
     0
 10
636.37973953589994
 20
-343.67769650339989
 30
0.0
 11
636.37973953589994
 21
-349.67769650339989
 31
0.0
  0
SOLID
  5
4F
  8
0
 62
     0
 10
636.37973953589994
 20
-343.67769650339989
 30
0.0
 11
637.87973953589994
 21
-349.67769650339989
 31
0.0
 12
634.87973953589994
 22
-349.67769650339989
 32
0.0
 13
636.37973953589994
 23
-348.17769650339989
 33
0.0
  0
ENDBLK
  5
50
  8
0
  0
BLOCK
  8
0
  2
*D2
 70
     1
 10
0.0
 20
0.0
 30
0.0
  3
*D2
  1

  0
TEXT
  5
54
  8
0
 62
     0
 10
653.00467211149999
 20
-418.95880586800001
 30
0.0
 40
5.9972220420999998
  1
(217)ôÓÉí
  0
LINE
  5
55
  8
0
 62
     0
 10
560.67967163460003
 20
-391.97778909599998
 30
0.0
 11
560.67967163460003
 21
-421.51713916959989
 31
0.0
  0
LINE
  5
56
  8
0
 62
     0
 10
777.0796716346
 20
-391.97778909599998
 30
0.0
 11
777.0796716346
 21
-421.51713916959989
 31
0.0
  0
LINE
  5
57
  8
0
 62
     0
 10
560.67967163460003
 20
-421.01713916959989
 30
0.0
 11
688.28244882960007
 21
-421.01713916959989
 31
0.0
  0
LINE
  5
58
  8
0
 62
     0
 10
560.67967163460003
 20
-421.01713916959989
 30
0.0
 11
649.4768944397
 21
-421.01713916959989
 31
0.0
  0
LINE
  5
59
  8
0
 62
     0
 10
777.0796716346
 20
-421.01713916959989
 30
0.0
 11
688.28244882960007
 21
-421.01713916959989
 31
0.0
  0
LINE
  5
5A
  8
0
 62
     0
 10
777.0796716346
 20
-421.01713916959989
 30
0.0
 11
649.4768944397
 21
-421.01713916959989
 31
0.0
  0
LINE
  5
5B
  8
0
 62
     0
 10
777.0796716346
 20
-421.01713916959989
 30
0.0
 11
774.07967163460012
 21
-421.01713916959989
 31
0.0
  0
SOLID
  5
5C
  8
0
 62
     0
 10
777.0796716346
 20
-421.01713916959989
 30
0.0
 11
771.07967163460012
 21
-422.51713916959989
 31
0.0
 12
771.07967163460012
 22
-419.5171391696
 32
0.0
 13
772.57967163460012
 23
-421.01713916959989
 33
0.0
  0
LINE
  5
5D
  8
0
 62
     0
 10
560.67967163460003
 20
-421.01713916959989
 30
0.0
 11
563.67967163460003
 21
-421.01713916959989
 31
0.0
  0
SOLID
  5
5E
  8
0
 62
     0
 10
560.67967163460003
 20
-421.01713916959989
 30
0.0
 11
566.67967163460003
 21
-419.5171391696
 31
0.0
 12
566.67967163460003
 22
-422.51713916959989
 32
0.0
 13
565.17967163460003
 23
-421.01713916959989
 33
0.0
  0
ENDBLK
  5
5F
  8
0
  0
BLOCK
  8
0
  2
*D3
 70
     1
 10
0.0
 20
0.0
 30
0.0
  3
*D3
  1

  0
TEXT
  5
63
  8
0
 62
     0
 10
660.06022745509995
 20
-436.36625602639998
 30
0.0
 40
5.9972220420999998
  1
(230)
  0
LINE
  5
64
  8
0
 62
     0
 10
553.87967163459984
 20
-391.97778909599998
 30
0.0
 11
553.87967163459984
 21
-438.92458932789998
 31
0.0
  0
LINE
  5
65
  8
0
 62
     0
 10
783.87967163459996
 20
-391.97778909599998
 30
0.0
 11
783.87967163459996
 21
-438.92458932789998
 31
0.0
  0
LINE
  5
66
  8
0
 62
     0
 10
553.87967163459984
 20
-438.42458932789998
 30
0.0
 11
681.22689348599999
 21
-438.42458932789998
 31
0.0
  0
LINE
  5
67
  8
0
 62
     0
 10
553.87967163459984
 20
-438.42458932789998
 30
0.0
 11
656.53244978329997
 21
-438.42458932789998
 31
0.0
  0
LINE
  5
68
  8
0
 62
     0
 10
783.87967163459996
 20
-438.42458932789998
 30
0.0
 11
681.22689348599999
 21
-438.42458932789998
 31
0.0
  0
LINE
  5
69
  8
0
 62
     0
 10
783.87967163459996
 20
-438.42458932789998
 30
0.0
 11
656.53244978329997
 21
-438.42458932789998
 31
0.0
  0
LINE
  5
6A
  8
0
 62
     0
 10
783.87967163459996
 20
-438.42458932789998
 30
0.0
 11
780.87967163460007
 21
-438.42458932789998
 31
0.0
  0
SOLID
  5
6B
  8
0
 62
     0
 10
783.87967163459996
 20
-438.42458932789998
 30
0.0
 11
777.87967163460007
 21
-439.92458932789998
 31
0.0
 12
777.87967163460007
 22
-436.92458932789998
 32
0.0
 13
779.37967163459996
 23
-438.42458932789998
 33
0.0
  0
LINE
  5
6C
  8
0
 62
     0
 10
553.87967163459984
 20
-438.42458932789998
 30
0.0
 11
556.87967163459984
 21
-438.42458932789998
 31
0.0
  0
SOLID
  5
6D
  8
0
 62
     0
 10
553.87967163459984
 20
-438.42458932789998
 30
0.0
 11
559.87967163459984
 21
-436.92458932789998
 31
0.0
 12
559.87967163459984
 22
-439.92458932789998
 32
0.0
 13
558.37967163459984
 23
-438.42458932789998
 33
0.0
  0
ENDBLK
  5
6E
  8
0
  0
BLOCK
  8
0
  2
BALLON0
 70
     0
 10
0.0
 20
0.0
 30
0.0
  3
BALLON0
  1

  0
INSERT
  5
73
  8
0
  6
CONTINUOUS
  2
*U35
 10
0.0
 20
0.0
 30
0.0
  0
CIRCLE
  5
74
  8
┌▓È_1
 10
892.39886995789982
 20
-334.87496426929999
 30
0.0
 40
8.0
  0
LINE
  5
75
  8
Éíû@É³
 10
905.73220329130015
 20
-334.87496426929999
 30
0.0
 11
900.39886995789982
 21
-334.87496426929999
 31
0.0
  0
LINE
  5
76
  8
Éíû@É³
 10
994.52386247469997
 20
-302.40929951269999
 30
0.0
 11
905.73220329130015
 21
-334.87496426929999
 31
0.0
  0
SOLID
  5
77
  8
Éíû@É³
 10
994.52386247469997
 20
-302.40929951269999
 30
0.0
 11
987.55980412459996
 21
-306.65922789979999
 31
0.0
 12
988.51305937660004
 22
-304.60708160280001
 32
0.0
 13
988.51305937660004
 23
-304.60708160280001
 33
0.0
  0
SOLID
  5
78
  8
Éíû@É³
 10
988.51305937660004
 20
-304.60708160280001
 30
0.0
 11
986.46091307949985
 21
-303.65382635079999
 31
0.0
 12
994.52386247469997
 22
-302.40929951269999
 32
0.0
 13
994.52386247469997
 23
-302.40929951269999
 33
0.0
  0
ENDBLK
  5
79
  8
0
  0
BLOCK
  8
0
  2
CLUMP0
 70
     0
 10
0.0
 20
0.0
 30
0.0
  3
CLUMP0
  1

  0
LINE
  5
7E
  8
┌▓È_1
  6
STITCH
 10
656.37973953589994
 20
-343.67769650339989
 30
0.0
 11
681.37973953589994
 21
-343.67769650339989
 31
0.0
  0
LINE
  5
7F
  8
┌▓È_1
  6
STITCH
 10
656.37973953589994
 20
-324.17778909600003
 30
0.0
 11
656.37973953589994
 21
-343.67769650339989
 31
0.0
  0
LINE
  5
80
  8
┌▓È_1
  6
STITCH
 10
681.37973953589994
 20
-343.67769650339989
 30
0.0
 11
681.37973953589994
 21
-324.17798638160002
 31
0.0
  0
LINE
  5
81
  8
┌▓È_1
  6
STITCH
 10
674.53636950550003
 20
-322.17787837510002
 30
0.0
 11
668.87961495360003
 21
-322.17778909679998
 31
0.0
  0
LINE
  5
82
  8
┌▓È_1
  6
STITCH
 10
682.37231367569996
 20
-322.17800204679997
 30
0.0
 11
678.77901019269984
 21
-322.17794533509999
 31
0.0
  0
LINE
  5
83
  8
┌▓È_1
  6
STITCH
 10
674.53636950550003
 20
-324.17787837539998
 30
0.0
 11
668.87958338839985
 21
-324.17778909660001
 31
0.0
  0
LINE
  5
84
  8
┌▓È_1
  6
STITCH
 10
672.2795624245
 20
-333.17785631790002
 30
0.0
 11
672.87955901589987
 21
-332.67785222750001
 31
0.0
  0
LINE
  5
85
  8
┌▓È_1
  6
STITCH
 10
665.47956242390001
 20
-333.1777850057
 30
0.0
 11
664.87955901529995
 21
-332.67778909600003
 31
0.0
  0
LINE
  5
86
  8
┌▓È_1
  6
STITCH
 10
672.27955560730004
 20
-332.1778563176
 30
0.0
 11
672.2795624245
 21
-333.17785631790002
 31
0.0
  0
LINE
  5
87
  8
┌▓È_1
  6
STITCH
 10
675.17966751940003
 20
-332.17788852910002
 30
0.0
 11
675.3796706759
 21
-331.9778916857
 31
0.0
  0
LINE
  5
88
  8
┌▓È_1
  6
STITCH
 10
675.17966751940003
 20
-332.17788852910002
 30
0.0
 11
668.87948080139995
 21
-332.17778909570001
 31
0.0
  0
LINE
  5
89
  8
┌▓È_1
  6
STITCH
 10
662.37966751939996
 20
-325.87778909600001
 30
0.0
 11
662.5796675194
 21
-325.67779067430001
 31
0.0
  0
ARC
  5
8A
  8
┌▓È_1
  6
STITCH
 10
662.3843247277
 20
-319.17778909600003
 30
0.0
 40
2.7999999999999989
 50
248.9697665173
 51
277.4495788159
  0
ARC
  5
8B
  8
┌▓È_1
  6
STITCH
 10
668.87951525599999
 20
-324.17778909600003
 30
0.0
 40
2.7999999999999989
 50
90.0
 51
97.021645385200003
  0
ARC
  5
8C
  8
┌▓È_1
  6
STITCH
 10
668.87951525599999
 20
-324.17778909600003
 30
0.0
 40
3.0
 50
90.0
 51
97.021645385100001
  0
LINE
  5
8D
  8
┌▓È_1
  6
STITCH
 10
668.87951525599999
 20
-321.17778909600003
 30
0.0
 11
661.37951525599988
 21
-321.17778909600003
 31
0.0
  0
LINE
  5
8E
  8
┌▓È_1
  6
STITCH
 10
661.37951525599988
 20
-322.00451121280003
 30
0.0
 11
661.37951525599988
 21
-321.17778909600003
 31
0.0
  0
LINE
  5
8F
  8
┌▓È_1
  6
STITCH
 10
668.51278234999995
 20
-321.20028897420002
 30
0.0
 11
664.30730687809989
 21
-321.75018162560002
 31
0.0
  0
LINE
  5
90
  8
┌▓È_1
  6
STITCH
 10
662.5796675194
 20
-332.17778909600003
 30
0.0
 11
668.87951525599999
 21
-332.17778909600003
 31
0.0
  0
LINE
  5
91
  8
┌▓È_1
  6
STITCH
 10
661.08528662200001
 20
-322.17778909600003
 30
0.0
 11
661.08528662200001
 21
-324.17778909600003
 31
0.0
  0
LINE
  5
92
  8
┌▓È_1
  6
STITCH
 10
668.87955164599987
 20
-331.59678909719997
 30
0.0
 11
668.87951525599999
 21
-326.25878909599999
 31
0.0
  0
LINE
  5
93
  8
┌▓È_1
  6
STITCH
 10
668.87948080139995
 20
-332.17778909570001
 30
0.0
 11
668.87944072139987
 21
-334.71729343610002
 31
0.0
  0
LINE
  5
94
  8
┌▓È_1
  6
STITCH
 10
675.1794357727
 20
-325.67779067430001
 30
0.0
 11
676.37956901680002
 21
-325.67775138169998
 31
0.0
  0
LINE
  5
95
  8
┌▓È_1
  6
STITCH
 10
672.87955560729995
 20
-332.17785222729998
 30
0.0
 11
672.87955901589987
 21
-332.67785222750001
 31
0.0
  0
LINE
  5
96
  8
┌▓È_1
  6
STITCH
 10
672.27957869579996
 20
-333.17784275830002
 30
0.0
 11
668.87946501879992
 21
-333.17778909560002
 31
0.0
  0
LINE
  5
97
  8
┌▓È_1
  6
STITCH
 10
665.47956733230001
 20
-333.17778909600003
 30
0.0
 11
668.87951525599999
 21
-333.17778909600003
 31
0.0
  0
LINE
  5
98
  8
┌▓È_1
  6
STITCH
 10
665.47955560669993
 20
-332.1777850057
 30
0.0
 11
665.47956242390001
 21
-333.1777850057
 31
0.0
  0
LINE
  5
99
  8
┌▓È_1
  6
STITCH
 10
667.62971881290002
 20
-325.67784039119999
 30
0.0
 11
669.12974643109987
 21
-324.17781277300003
 31
0.0
  0
LINE
  5
9A
  8
┌▓È_1
  6
STITCH
 10
639.87951525599988
 20
-300.47778909599998
 30
0.0
 11
639.87951525599988
 21
-301.47778909599998
 31
0.0
  0
LINE
  5
9B
  8
┌▓È_1
  6
STITCH
 10
649.87951525599988
 20
-301.47778909599998
 30
0.0
 11
649.87951525599988
 21
-320.17778909600003
 31
0.0
  0
LINE
  5
9C
  8
┌▓È_1
  6
STITCH
 10
661.37953427529987
 20
-325.67775138169998
 30
0.0
 11
661.37958339239992
 21
-324.17754354520002
 31
0.0
  0
ARC
  5
9D
  8
┌▓È_1
  6
STITCH
 10
662.3843247277
 20
-319.17778909600003
 30
0.0
 40
3.0
 50
250.43132398559999
 51
277.4495788159
  0
LINE
  5
9E
  8
┌▓È_1
  6
STITCH
 10
668.62971881290002
 20
-325.67784039119999
 30
0.0
 11
670.12974643109987
 21
-324.17781277300003
 31
0.0
  0
LINE
  5
9F
  8
┌▓È_1
  6
STITCH
 10
665.37967163459996
 20
-318.67813889029998
 30
0.0
 11
672.37967163459984
 21
-318.67813889029998
 31
0.0
  0
LINE
  5
A0
  8
┌▓È_1
  6
STITCH
 10
675.37967163459984
 20
-318.67813889029998
 30
0.0
 11
675.37967163459984
 21
-320.17813889029998
 31
0.0
  0
LINE
  5
A1
  8
┌▓È_1
  6
STITCH
 10
672.37967163459984
 20
-313.92813889029998
 30
0.0
 11
672.37967163459984
 21
-311.42813889029998
 31
0.0
  0
CIRCLE
  5
A2
  8
┌▓È_1
  6
STITCH
 10
668.91716957699987
 20
-312.67813889029998
 30
0.0
 40
1.2505670105999991
  0
LINE
  5
A3
  8
┌▓È_1
  6
STITCH
 10
662.37967163459984
 20
-318.67813889029998
 30
0.0
 11
662.37967163459984
 21
-320.17813889029998
 31
0.0
  0
LINE
  5
A4
  8
┌▓È_1
  6
STITCH
 10
675.37967163459984
 20
-318.67813889029998
 30
0.0
 11
672.37967163459984
 21
-318.67813889029998
 31
0.0
  0
POLYLINE
  5
A5
  8
┌▓È_1
  6
STITCH
 10
662.37966751938734
 20
-326.25878909599999
 30
0.0
 66
     1
 70
     8
  0
VERTEX
  8
┌▓È_1
  5
57B
 10
662.380
 20
-326.259
 30
0.000000
  70
    32
  0
VERTEX
  8
┌▓È_1
  5
57C
 10
662.381
 20
-326.245
 30
0.000000
  70
    32
  0
VERTEX
  8
┌▓È_1
  5
57D
 10
662.384
 20
-326.230
 30
0.000000
  70
    32
  0
VERTEX
  8
┌▓È_1
  5
57E
 10
662.388
 20
-326.216
 30
0.000000
  70
    32
  0
VERTEX
  8
┌▓È_1
  5
57F
 10
662.395
 20
-326.202
 30
0.000000
  70
    32
  0
VERTEX
  8
┌▓È_1
  5
580
 10
662.404
 20
-326.188
 30
0.000000
  70
    32
  0
VERTEX
  8
┌▓È_1
  5
581
 10
662.415
 20
-326.174
 30
0.000000
  70
    32
  0
VERTEX
  8
┌▓È_1
  5
582
 10
662.428
 20
-326.159
 30
0.000000
  70
    32
  0
VERTEX
  8
┌▓È_1
  5
583
 10
662.442
 20
-326.145
 30
0.000000
  70
    32
  0
VERTEX
  8
┌▓È_1
  5
584
 10
662.459
 20
-326.131
 30
0.000000
  70
    32
  0
VERTEX
  8
┌▓È_1
  5
585
 10
662.477
 20
-326.118
 30
0.000000
  70
    32
  0
VERTEX
  8
┌▓È_1
  5
586
 10
662.497
 20
-326.104
 30
0.000000
  70
    32
  0
VERTEX
  8
┌▓È_1
  5
587
 10
662.520
 20
-326.090
 30
0.000000
  70
    32
  0
VERTEX
  8
┌▓È_1
  5
588
 10
662.544
 20
-326.077
 30
0.000000
  70
    32
  0
VERTEX
  8
┌▓È_1
  5
589
 10
662.570
 20
-326.063
 30
0.000000
  70
    32
  0
VERTEX
  8
┌▓È_1
  5
58A
 10
662.597
 20
-326.050
 30
0.000000
  70
    32
  0
VERTEX
  8
┌▓È_1
  5
58B
 10
662.627
 20
-326.036
 30
0.000000
  70
    32
  0
VERTEX
  8
┌▓È_1
  5
58C
 10
662.658
 20
-326.023
 30
0.000000
  70
    32
  0
VERTEX
  8
┌▓È_1
  5
58D
 10
662.692
 20
-326.010
 30
0.000000
  70
    32
  0
VERTEX
  8
┌▓È_1
  5
58E
 10
662.727
 20
-325.998
 30
0.000000
  70
    32
  0
VERTEX
  8
┌▓È_1
  5
58F
 10
662.763
 20
-325.985
 30
0.000000
  70
    32
  0
VERTEX
  8
┌▓È_1
  5
590
 10
662.802
 20
-325.972
 30
0.000000
  70
    32
  0
VERTEX
  8
┌▓È_1
  5
591
 10
662.842
 20
-325.960
 30
0.000000
  70
    32
  0
VERTEX
  8
┌▓È_1
  5
592
 10
662.884
 20
-325.948
 30
0.000000
  70
    32
  0
VERTEX
  8
┌▓È_1
  5
593
 10
662.927
 20
-325.936
 30
0.000000
  70
    32
  0
VERTEX
  8
┌▓È_1
  5
594
 10
662.973
 20
-325.924
 30
0.000000
  70
    32
  0
VERTEX
  8
┌▓È_1
  5
595
 10
663.019
 20
-325.913
 30
0.000000
  70
    32
  0
VERTEX
  8
┌▓È_1
  5
596
 10
663.068
 20
-325.901
 30
0.000000
  70
    32
  0
VERTEX
  8
┌▓È_1
  5
597
 10
663.117
 20
-325.890
 30
0.000000
  70
    32
  0
VERTEX
  8
┌▓È_1
  5
598
 10
663.169
 20
-325.879
 30
0.000000
  70
    32
  0
VERTEX
  8
┌▓È_1
  5
599
 10
663.222
 20
-325.869
 30
0.000000
  70
    32
  0
VERTEX
  8
┌▓È_1
  5
59A
 10
663.276
 20
-325.858
 30
0.000000
  70
    32
  0
VERTEX
  8
┌▓È_1
  5
59B
 10
663.332
 20
-325.848
 30
0.000000
  70
    32
  0
VERTEX
  8
┌▓È_1
  5
59C
 10
663.389
 20
-325.838
 30
0.000000
  70
    32
  0
VERTEX
  8
┌▓È_1
  5
59D
 10
663.447
 20
-325.828
 30
0.000000
  70
    32
  0
VERTEX
  8
┌▓È_1
  5
59E
 10
663.507
 20
-325.819
 30
0.000000
  70
    32
  0
VERTEX
  8
┌▓È_1
  5
59F
 10
663.568
 20
-325.810
 30
0.000000
  70
    32
  0
VERTEX
  8
┌▓È_1
  5
5A0
 10
663.630
 20
-325.801
 30
0.000000
  70
    32
  0
VERTEX
  8
┌▓È_1
  5
5A1
 10
663.694
 20
-325.792
 30
0.000000
  70
    32
  0
VERTEX
  8
┌▓È_1
  5
5A2
 10
663.758
 20
-325.784
 30
0.000000
  70
    32
  0
VERTEX
  8
┌▓È_1
  5
5A3
 10
663.824
 20
-325.776
 30
0.000000
  70
    32
  0
VERTEX
  8
┌▓È_1
  5
5A4
 10
663.891
 20
-325.768
 30
0.000000
  70
    32
  0
VERTEX
  8
┌▓È_1
  5
5A5
 10
663.959
 20
-325.760
 30
0.000000
  70
    32
  0
VERTEX
  8
┌▓È_1
  5
5A6
 10
664.028
 20
-325.753
 30
0.000000
  70
    32
  0
VERTEX
  8
┌▓È_1
  5
5A7
 10
664.098
 20
-325.746
 30
0.000000
  70
    32
  0
VERTEX
  8
┌▓È_1
  5
5A8
 10
664.168
 20
-325.740
 30
0.000000
  70
    32
  0
VERTEX
  8
┌▓È_1
  5
5A9
 10
664.240
 20
-325.734
 30
0.000000
  70
    32
  0
VERTEX
  8
┌▓È_1
  5
5AA
 10
664.313
 20
-325.728
 30
0.000000
  70
    32
  0
VERTEX
  8
┌▓È_1
  5
5AB
 10
664.386
 20
-325.722
 30
0.000000
  70
    32
  0
VERTEX
  8
┌▓È_1
  5
5AC
 10
664.460
 20
-325.717
 30
0.000000
  70
    32
  0
VERTEX
  8
┌▓È_1
  5
5AD
 10
664.535
 20
-325.712
 30
0.000000
  70
    32
  0
VERTEX
  8
┌▓È_1
  5
5AE
 10
664.610
 20
-325.707
 30
0.000000
  70
    32
  0
VERTEX
  8
┌▓È_1
  5
5AF
 10
664.686
 20
-325.703
 30
0.000000
  70
    32
  0
VERTEX
  8
┌▓È_1
  5
5B0
 10
664.763
 20
-325.699
 30
0.000000
  70
    32
  0
VERTEX
  8
┌▓È_1
  5
5B1
 10
664.840
 20
-325.695
 30
0.000000
  70
    32
  0
VERTEX
  8
┌▓È_1
  5
5B2
 10
664.918
 20
-325.692
 30
0.000000
  70
    32
  0
VERTEX
  8
┌▓È_1
  5
5B3
 10
664.996
 20
-325.689
 30
0.000000
  70
    32
  0
VERTEX
  8
┌▓È_1
  5
5B4
 10
665.074
 20
-325.686
 30
0.000000
  70
    32
  0
VERTEX
  8
┌▓È_1
  5
5B5
 10
665.153
 20
-325.684
 30
0.000000
  70
    32
  0
VERTEX
  8
┌▓È_1
  5
5B6
 10
665.232
 20
-325.682
 30
0.000000
  70
    32
  0
VERTEX
  8
┌▓È_1
  5
5B7
 10
665.311
 20
-325.681
 30
0.000000
  70
    32
  0
VERTEX
  8
┌▓È_1
  5
5B8
 10
665.391
 20
-325.679
 30
0.000000
  70
    32
  0
VERTEX
  8
┌▓È_1
  5
5B9
 10
665.470
 20
-325.678
 30
0.000000
  70
    32
  0
VERTEX
  8
┌▓È_1
  5
5BA
 10
665.550
 20
-325.678
 30
0.000000
  70
    32
  0
VERTEX
  8
┌▓È_1
  5
5BB
 10
665.630
 20
-325.678
 30
0.000000
  70
    32
  0
VERTEX
  8
┌▓È_1
  5
5BC
 10
665.709
 20
-325.678
 30
0.000000
  70
    32
  0
VERTEX
  8
┌▓È_1
  5
5BD
 10
665.789
 20
-325.678
 30
0.000000
  70
    32
  0
VERTEX
  8
┌▓È_1
  5
5BE
 10
665.869
 20
-325.679
 30
0.000000
  70
    32
  0
VERTEX
  8
┌▓È_1
  5
5BF
 10
665.948
 20
-325.681
 30
0.000000
  70
    32
  0
VERTEX
  8
┌▓È_1
  5
5C0
 10
666.027
 20
-325.682
 30
0.000000
  70
    32
  0
VERTEX
  8
┌▓È_1
  5
5C1
 10
666.106
 20
-325.684
 30
0.000000
  70
    32
  0
VERTEX
  8
┌▓È_1
  5
5C2
 10
666.185
 20
-325.686
 30
0.000000
  70
    32
  0
VERTEX
  8
┌▓È_1
  5
5C3
 10
666.264
 20
-325.689
 30
0.000000
  70
    32
  0
VERTEX
  8
┌▓È_1
  5
5C4
 10
666.342
 20
-325.692
 30
0.000000
  70
    32
  0
VERTEX
  8
┌▓È_1
  5
5C5
 10
666.419
 20
-325.695
 30
0.000000
  70
    32
  0
VERTEX
  8
┌▓È_1
  5
5C6
 10
666.496
 20
-325.699
 30
0.000000
  70
    32
  0
VERTEX
  8
┌▓È_1
  5
5C7
 10
666.573
 20
-325.703
 30
0.000000
  70
    32
  0
VERTEX
  8
┌▓È_1
  5
5C8
 10
666.649
 20
-325.707
 30
0.000000
  70
    32
  0
VERTEX
  8
┌▓È_1
  5
5C9
 10
666.724
 20
-325.712
 30
0.000000
  70
    32
  0
VERTEX
  8
┌▓È_1
  5
5CA
 10
666.799
 20
-325.717
 30
0.000000
  70
    32
  0
VERTEX
  8
┌▓È_1
  5
5CB
 10
666.873
 20
-325.722
 30
0.000000
  70
    32
  0
VERTEX
  8
┌▓È_1
  5
5CC
 10
666.947
 20
-325.728
 30
0.000000
  70
    32
  0
VERTEX
  8
┌▓È_1
  5
5CD
 10
667.019
 20
-325.734
 30
0.000000
  70
    32
  0
VERTEX
  8
┌▓È_1
  5
5CE
 10
667.091
 20
-325.740
 30
0.000000
  70
    32
  0
VERTEX
  8
┌▓È_1
  5
5CF
 10
667.162
 20
-325.746
 30
0.000000
  70
    32
  0
VERTEX
  8
┌▓È_1
  5
5D0
 10
667.231
 20
-325.753
 30
0.000000
  70
    32
  0
VERTEX
  8
┌▓È_1
  5
5D1
 10
667.300
 20
-325.760
 30
0.000000
  70
    32
  0
VERTEX
  8
┌▓È_1
  5
5D2
 10
667.368
 20
-325.768
 30
0.000000
  70
    32
  0
VERTEX
  8
┌▓È_1
  5
5D3
 10
667.435
 20
-325.776
 30
0.000000
  70
    32
  0
VERTEX
  8
┌▓È_1
  5
5D4
 10
667.501
 20
-325.784
 30
0.000000
  70
    32
  0
VERTEX
  8
┌▓È_1
  5
5D5
 10
667.566
 20
-325.792
 30
0.000000
  70
    32
  0
VERTEX
  8
┌▓È_1
  5
5D6
 10
667.629
 20
-325.801
 30
0.000000
  70
    32
  0
VERTEX
  8
┌▓È_1
  5
5D7
 10
667.691
 20
-325.810
 30
0.000000
  70
    32
  0
VERTEX
  8
┌▓È_1
  5
5D8
 10
667.752
 20
-325.819
 30
0.000000
  70
    32
  0
VERTEX
  8
┌▓È_1
  5
5D9
 10
667.812
 20
-325.828
 30
0.000000
  70
    32
  0
VERTEX
  8
┌▓È_1
  5
5DA
 10
667.871
 20
-325.838
 30
0.000000
  70
    32
  0
VERTEX
  8
┌▓È_1
  5
5DB
 10
667.928
 20
-325.848
 30
0.000000
  70
    32
  0
VERTEX
  8
┌▓È_1
  5
5DC
 10
667.983
 20
-325.858
 30
0.000000
  70
    32
  0
VERTEX
  8
┌▓È_1
  5
5DD
 10
668.038
 20
-325.869
 30
0.000000
  70
    32
  0
VERTEX
  8
┌▓È_1
  5
5DE
 10
668.090
 20
-325.879
 30
0.000000
  70
    32
  0
VERTEX
  8
┌▓È_1
  5
5DF
 10
668.142
 20
-325.890
 30
0.000000
  70
    32
  0
VERTEX
  8
┌▓È_1
  5
5E0
 10
668.192
 20
-325.901
 30
0.000000
  70
    32
  0
VERTEX
  8
┌▓È_1
  5
5E1
 10
668.240
 20
-325.913
 30
0.000000
  70
    32
  0
VERTEX
  8
┌▓È_1
  5
5E2
 10
668.287
 20
-325.924
 30
0.000000
  70
    32
  0
VERTEX
  8
┌▓È_1
  5
5E3
 10
668.332
 20
-325.936
 30
0.000000
  70
    32
  0
VERTEX
  8
┌▓È_1
  5
5E4
 10
668.375
 20
-325.948
 30
0.000000
  70
    32
  0
VERTEX
  8
┌▓È_1
  5
5E5
 10
668.417
 20
-325.960
 30
0.000000
  70
    32
  0
VERTEX
  8
┌▓È_1
  5
5E6
 10
668.457
 20
-325.972
 30
0.000000
  70
    32
  0
VERTEX
  8
┌▓È_1
  5
5E7
 10
668.496
 20
-325.985
 30
0.000000
  70
    32
  0
VERTEX
  8
┌▓È_1
  5
5E8
 10
668.533
 20
-325.998
 30
0.000000
  70
    32
  0
VERTEX
  8
┌▓È_1
  5
5E9
 10
668.567
 20
-326.010
 30
0.000000
  70
    32
  0
VERTEX
  8
┌▓È_1
  5
5EA
 10
668.601
 20
-326.023
 30
0.000000
  70
    32
  0
VERTEX
  8
┌▓È_1
  5
5EB
 10
668.632
 20
-326.036
 30
0.000000
  70
    32
  0
VERTEX
  8
┌▓È_1
  5
5EC
 10
668.662
 20
-326.050
 30
0.000000
  70
    32
  0
VERTEX
  8
┌▓È_1
  5
5ED
 10
668.690
 20
-326.063
 30
0.000000
  70
    32
  0
VERTEX
  8
┌▓È_1
  5
5EE
 10
668.715
 20
-326.077
 30
0.000000
  70
    32
  0
VERTEX
  8
┌▓È_1
  5
5EF
 10
668.740
 20
-326.090
 30
0.000000
  70
    32
  0
VERTEX
  8
┌▓È_1
  5
5F0
 10
668.762
 20
-326.104
 30
0.000000
  70
    32
  0
VERTEX
  8
┌▓È_1
  5
5F1
 10
668.782
 20
-326.118
 30
0.000000
  70
    32
  0
VERTEX
  8
┌▓È_1
  5
5F2
 10
668.801
 20
-326.131
 30
0.000000
  70
    32
  0
VERTEX
  8
┌▓È_1
  5
5F3
 10
668.817
 20
-326.145
 30
0.000000
  70
    32
  0
VERTEX
  8
┌▓È_1
  5
5F4
 10
668.832
 20
-326.159
 30
0.000000
  70
    32
  0
VERTEX
  8
┌▓È_1
  5
5F5
 10
668.844
 20
-326.174
 30
0.000000
  70
    32
  0
VERTEX
  8
┌▓È_1
  5
5F6
 10
668.855
 20
-326.188
 30
0.000000
  70
    32
  0
VERTEX
  8
┌▓È_1
  5
5F7
 10
668.864
 20
-326.202
 30
0.000000
  70
    32
  0
VERTEX
  8
┌▓È_1
  5
5F8
 10
668.871
 20
-326.216
 30
0.000000
  70
    32
  0
VERTEX
  8
┌▓È_1
  5
5F9
 10
668.876
 20
-326.230
 30
0.000000
  70
    32
  0
VERTEX
  8
┌▓È_1
  5
5FA
 10
668.879
 20
-326.245
 30
0.000000
  70
    32
  0
VERTEX
  8
┌▓È_1
  5
5FB
 10
668.880
 20
-326.259
 30
0.000000
  70
    32
  0
SEQEND
  8
┌▓È_1
  5
5FC
  0
POLYLINE
  5
A6
  8
┌▓È_1
  6
STITCH
 10
675.37939936993791
 20
-326.25838198751444
 30
0.0
 66
     1
 70
     8
  0
VERTEX
  8
┌▓È_1
  5
5FD
 10
675.379
 20
-326.258
 30
0.000000
  70
    32
  0
VERTEX
  8
┌▓È_1
  5
5FE
 10
675.378
 20
-326.244
 30
0.000000
  70
    32
  0
VERTEX
  8
┌▓È_1
  5
5FF
 10
675.375
 20
-326.230
 30
0.000000
  70
    32
  0
VERTEX
  8
┌▓È_1
  5
600
 10
675.371
 20
-326.216
 30
0.000000
  70
    32
  0
VERTEX
  8
┌▓È_1
  5
601
 10
675.364
 20
-326.201
 30
0.000000
  70
    32
  0
VERTEX
  8
┌▓È_1
  5
602
 10
675.355
 20
-326.187
 30
0.000000
  70
    32
  0
VERTEX
  8
┌▓È_1
  5
603
 10
675.344
 20
-326.173
 30
0.000000
  70
    32
  0
VERTEX
  8
┌▓È_1
  5
604
 10
675.332
 20
-326.159
 30
0.000000
  70
    32
  0
VERTEX
  8
┌▓È_1
  5
605
 10
675.317
 20
-326.145
 30
0.000000
  70
    32
  0
VERTEX
  8
┌▓È_1
  5
606
 10
675.300
 20
-326.131
 30
0.000000
  70
    32
  0
VERTEX
  8
┌▓È_1
  5
607
 10
675.282
 20
-326.117
 30
0.000000
  70
    32
  0
VERTEX
  8
┌▓È_1
  5
608
 10
675.262
 20
-326.103
 30
0.000000
  70
    32
  0
VERTEX
  8
┌▓È_1
  5
609
 10
675.239
 20
-326.090
 30
0.000000
  70
    32
  0
VERTEX
  8
┌▓È_1
  5
60A
 10
675.215
 20
-326.076
 30
0.000000
  70
    32
  0
VERTEX
  8
┌▓È_1
  5
60B
 10
675.189
 20
-326.063
 30
0.000000
  70
    32
  0
VERTEX
  8
┌▓È_1
  5
60C
 10
675.162
 20
-326.049
 30
0.000000
  70
    32
  0
VERTEX
  8
┌▓È_1
  5
60D
 10
675.132
 20
-326.036
 30
0.000000
  70
    32
  0
VERTEX
  8
┌▓È_1
  5
60E
 10
675.101
 20
-326.023
 30
0.000000
  70
    32
  0
VERTEX
  8
┌▓È_1
  5
60F
 10
675.067
 20
-326.010
 30
0.000000
  70
    32
  0
VERTEX
  8
┌▓È_1
  5
610
 10
675.032
 20
-325.997
 30
0.000000
  70
    32
  0
VERTEX
  8
┌▓È_1
  5
611
 10
674.996
 20
-325.985
 30
0.000000
  70
    32
  0
VERTEX
  8
┌▓È_1
  5
612
 10
674.957
 20
-325.972
 30
0.000000
  70
    32
  0
VERTEX
  8
┌▓È_1
  5
613
 10
674.917
 20
-325.960
 30
0.000000
  70
    32
  0
VERTEX
  8
┌▓È_1
  5
614
 10
674.875
 20
-325.948
 30
0.000000
  70
    32
  0
VERTEX
  8
┌▓È_1
  5
615
 10
674.832
 20
-325.936
 30
0.000000
  70
    32
  0
VERTEX
  8
┌▓È_1
  5
616
 10
674.787
 20
-325.924
 30
0.000000
  70
    32
  0
VERTEX
  8
┌▓È_1
  5
617
 10
674.740
 20
-325.912
 30
0.000000
  70
    32
  0
VERTEX
  8
┌▓È_1
  5
618
 10
674.692
 20
-325.901
 30
0.000000
  70
    32
  0
VERTEX
  8
┌▓È_1
  5
619
 10
674.642
 20
-325.890
 30
0.000000
  70
    32
  0
VERTEX
  8
┌▓È_1
  5
61A
 10
674.590
 20
-325.879
 30
0.000000
  70
    32
  0
VERTEX
  8
┌▓È_1
  5
61B
 10
674.537
 20
-325.868
 30
0.000000
  70
    32
  0
VERTEX
  8
┌▓È_1
  5
61C
 10
674.483
 20
-325.858
 30
0.000000
  70
    32
  0
VERTEX
  8
┌▓È_1
  5
61D
 10
674.427
 20
-325.848
 30
0.000000
  70
    32
  0
VERTEX
  8
┌▓È_1
  5
61E
 10
674.370
 20
-325.838
 30
0.000000
  70
    32
  0
VERTEX
  8
┌▓È_1
  5
61F
 10
674.312
 20
-325.828
 30
0.000000
  70
    32
  0
VERTEX
  8
┌▓È_1
  5
620
 10
674.252
 20
-325.819
 30
0.000000
  70
    32
  0
VERTEX
  8
┌▓È_1
  5
621
 10
674.191
 20
-325.809
 30
0.000000
  70
    32
  0
VERTEX
  8
┌▓È_1
  5
622
 10
674.129
 20
-325.800
 30
0.000000
  70
    32
  0
VERTEX
  8
┌▓È_1
  5
623
 10
674.065
 20
-325.792
 30
0.000000
  70
    32
  0
VERTEX
  8
┌▓È_1
  5
624
 10
674.001
 20
-325.783
 30
0.000000
  70
    32
  0
VERTEX
  8
┌▓È_1
  5
625
 10
673.935
 20
-325.775
 30
0.000000
  70
    32
  0
VERTEX
  8
┌▓È_1
  5
626
 10
673.868
 20
-325.768
 30
0.000000
  70
    32
  0
VERTEX
  8
┌▓È_1
  5
627
 10
673.800
 20
-325.760
 30
0.000000
  70
    32
  0
VERTEX
  8
┌▓È_1
  5
628
 10
673.731
 20
-325.753
 30
0.000000
  70
    32
  0
VERTEX
  8
┌▓È_1
  5
629
 10
673.661
 20
-325.746
 30
0.000000
  70
    32
  0
VERTEX
  8
┌▓È_1
  5
62A
 10
673.591
 20
-325.740
 30
0.000000
  70
    32
  0
VERTEX
  8
┌▓È_1
  5
62B
 10
673.519
 20
-325.733
 30
0.000000
  70
    32
  0
VERTEX
  8
┌▓È_1
  5
62C
 10
673.446
 20
-325.727
 30
0.000000
  70
    32
  0
VERTEX
  8
┌▓È_1
  5
62D
 10
673.373
 20
-325.722
 30
0.000000
  70
    32
  0
VERTEX
  8
┌▓È_1
  5
62E
 10
673.299
 20
-325.716
 30
0.000000
  70
    32
  0
VERTEX
  8
┌▓È_1
  5
62F
 10
673.224
 20
-325.711
 30
0.000000
  70
    32
  0
VERTEX
  8
┌▓È_1
  5
630
 10
673.149
 20
-325.707
 30
0.000000
  70
    32
  0
VERTEX
  8
┌▓È_1
  5
631
 10
673.073
 20
-325.703
 30
0.000000
  70
    32
  0
VERTEX
  8
┌▓È_1
  5
632
 10
672.996
 20
-325.699
 30
0.000000
  70
    32
  0
VERTEX
  8
┌▓È_1
  5
633
 10
672.919
 20
-325.695
 30
0.000000
  70
    32
  0
VERTEX
  8
┌▓È_1
  5
634
 10
672.842
 20
-325.692
 30
0.000000
  70
    32
  0
VERTEX
  8
┌▓È_1
  5
635
 10
672.763
 20
-325.689
 30
0.000000
  70
    32
  0
VERTEX
  8
┌▓È_1
  5
636
 10
672.685
 20
-325.686
 30
0.000000
  70
    32
  0
VERTEX
  8
┌▓È_1
  5
637
 10
672.606
 20
-325.684
 30
0.000000
  70
    32
  0
VERTEX
  8
┌▓È_1
  5
638
 10
672.527
 20
-325.682
 30
0.000000
  70
    32
  0
VERTEX
  8
┌▓È_1
  5
639
 10
672.448
 20
-325.680
 30
0.000000
  70
    32
  0
VERTEX
  8
┌▓È_1
  5
63A
 10
672.369
 20
-325.679
 30
0.000000
  70
    32
  0
VERTEX
  8
┌▓È_1
  5
63B
 10
672.289
 20
-325.678
 30
0.000000
  70
    32
  0
VERTEX
  8
┌▓È_1
  5
63C
 10
672.209
 20
-325.678
 30
0.000000
  70
    32
  0
VERTEX
  8
┌▓È_1
  5
63D
 10
672.129
 20
-325.678
 30
0.000000
  70
    32
  0
VERTEX
  8
┌▓È_1
  5
63E
 10
672.050
 20
-325.678
 30
0.000000
  70
    32
  0
VERTEX
  8
┌▓È_1
  5
63F
 10
671.970
 20
-325.678
 30
0.000000
  70
    32
  0
VERTEX
  8
┌▓È_1
  5
640
 10
671.890
 20
-325.679
 30
0.000000
  70
    32
  0
VERTEX
  8
┌▓È_1
  5
641
 10
671.811
 20
-325.680
 30
0.000000
  70
    32
  0
VERTEX
  8
┌▓È_1
  5
642
 10
671.732
 20
-325.682
 30
0.000000
  70
    32
  0
VERTEX
  8
┌▓È_1
  5
643
 10
671.653
 20
-325.684
 30
0.000000
  70
    32
  0
VERTEX
  8
┌▓È_1
  5
644
 10
671.574
 20
-325.686
 30
0.000000
  70
    32
  0
VERTEX
  8
┌▓È_1
  5
645
 10
671.495
 20
-325.689
 30
0.000000
  70
    32
  0
VERTEX
  8
┌▓È_1
  5
646
 10
671.417
 20
-325.692
 30
0.000000
  70
    32
  0
VERTEX
  8
┌▓È_1
  5
647
 10
671.340
 20
-325.695
 30
0.000000
  70
    32
  0
VERTEX
  8
┌▓È_1
  5
648
 10
671.263
 20
-325.699
 30
0.000000
  70
    32
  0
VERTEX
  8
┌▓È_1
  5
649
 10
671.186
 20
-325.703
 30
0.000000
  70
    32
  0
VERTEX
  8
┌▓È_1
  5
64A
 10
671.110
 20
-325.707
 30
0.000000
  70
    32
  0
VERTEX
  8
┌▓È_1
  5
64B
 10
671.035
 20
-325.712
 30
0.000000
  70
    32
  0
VERTEX
  8
┌▓È_1
  5
64C
 10
670.960
 20
-325.717
 30
0.000000
  70
    32
  0
VERTEX
  8
┌▓È_1
  5
64D
 10
670.886
 20
-325.722
 30
0.000000
  70
    32
  0
VERTEX
  8
┌▓È_1
  5
64E
 10
670.812
 20
-325.728
 30
0.000000
  70
    32
  0
VERTEX
  8
┌▓È_1
  5
64F
 10
670.740
 20
-325.733
 30
0.000000
  70
    32
  0
VERTEX
  8
┌▓È_1
  5
650
 10
670.668
 20
-325.740
 30
0.000000
  70
    32
  0
VERTEX
  8
┌▓È_1
  5
651
 10
670.597
 20
-325.746
 30
0.000000
  70
    32
  0
VERTEX
  8
┌▓È_1
  5
652
 10
670.528
 20
-325.753
 30
0.000000
  70
    32
  0
VERTEX
  8
┌▓È_1
  5
653
 10
670.459
 20
-325.760
 30
0.000000
  70
    32
  0
VERTEX
  8
┌▓È_1
  5
654
 10
670.391
 20
-325.768
 30
0.000000
  70
    32
  0
VERTEX
  8
┌▓È_1
  5
655
 10
670.324
 20
-325.776
 30
0.000000
  70
    32
  0
VERTEX
  8
┌▓È_1
  5
656
 10
670.258
 20
-325.784
 30
0.000000
  70
    32
  0
VERTEX
  8
┌▓È_1
  5
657
 10
670.193
 20
-325.792
 30
0.000000
  70
    32
  0
VERTEX
  8
┌▓È_1
  5
658
 10
670.130
 20
-325.801
 30
0.000000
  70
    32
  0
VERTEX
  8
┌▓È_1
  5
659
 10
670.068
 20
-325.810
 30
0.000000
  70
    32
  0
VERTEX
  8
┌▓È_1
  5
65A
 10
670.007
 20
-325.819
 30
0.000000
  70
    32
  0
VERTEX
  8
┌▓È_1
  5
65B
 10
669.947
 20
-325.828
 30
0.000000
  70
    32
  0
VERTEX
  8
┌▓È_1
  5
65C
 10
669.888
 20
-325.838
 30
0.000000
  70
    32
  0
VERTEX
  8
┌▓È_1
  5
65D
 10
669.831
 20
-325.848
 30
0.000000
  70
    32
  0
VERTEX
  8
┌▓È_1
  5
65E
 10
669.776
 20
-325.858
 30
0.000000
  70
    32
  0
VERTEX
  8
┌▓È_1
  5
65F
 10
669.721
 20
-325.869
 30
0.000000
  70
    32
  0
VERTEX
  8
┌▓È_1
  5
660
 10
669.669
 20
-325.879
 30
0.000000
  70
    32
  0
VERTEX
  8
┌▓È_1
  5
661
 10
669.617
 20
-325.890
 30
0.000000
  70
    32
  0
VERTEX
  8
┌▓È_1
  5
662
 10
669.567
 20
-325.901
 30
0.000000
  70
    32
  0
VERTEX
  8
┌▓È_1
  5
663
 10
669.519
 20
-325.913
 30
0.000000
  70
    32
  0
VERTEX
  8
┌▓È_1
  5
664
 10
669.472
 20
-325.924
 30
0.000000
  70
    32
  0
VERTEX
  8
┌▓È_1
  5
665
 10
669.427
 20
-325.936
 30
0.000000
  70
    32
  0
VERTEX
  8
┌▓È_1
  5
666
 10
669.384
 20
-325.948
 30
0.000000
  70
    32
  0
VERTEX
  8
┌▓È_1
  5
667
 10
669.342
 20
-325.960
 30
0.000000
  70
    32
  0
VERTEX
  8
┌▓È_1
  5
668
 10
669.302
 20
-325.972
 30
0.000000
  70
    32
  0
VERTEX
  8
┌▓È_1
  5
669
 10
669.263
 20
-325.985
 30
0.000000
  70
    32
  0
VERTEX
  8
┌▓È_1
  5
66A
 10
669.227
 20
-325.998
 30
0.000000
  70
    32
  0
VERTEX
  8
┌▓È_1
  5
66B
 10
669.192
 20
-326.010
 30
0.000000
  70
    32
  0
VERTEX
  8
┌▓È_1
  5
66C
 10
669.158
 20
-326.023
 30
0.000000
  70
    32
  0
VERTEX
  8
┌▓È_1
  5
66D
 10
669.127
 20
-326.036
 30
0.000000
  70
    32
  0
VERTEX
  8
┌▓È_1
  5
66E
 10
669.097
 20
-326.050
 30
0.000000
  70
    32
  0
VERTEX
  8
┌▓È_1
  5
66F
 10
669.070
 20
-326.063
 30
0.000000
  70
    32
  0
VERTEX
  8
┌▓È_1
  5
670
 10
669.044
 20
-326.077
 30
0.000000
  70
    32
  0
VERTEX
  8
┌▓È_1
  5
671
 10
669.019
 20
-326.090
 30
0.000000
  70
    32
  0
VERTEX
  8
┌▓È_1
  5
672
 10
668.997
 20
-326.104
 30
0.000000
  70
    32
  0
VERTEX
  8
┌▓È_1
  5
673
 10
668.977
 20
-326.118
 30
0.000000
  70
    32
  0
VERTEX
  8
┌▓È_1
  5
674
 10
668.959
 20
-326.131
 30
0.000000
  70
    32
  0
VERTEX
  8
┌▓È_1
  5
675
 10
668.942
 20
-326.145
 30
0.000000
  70
    32
  0
VERTEX
  8
┌▓È_1
  5
676
 10
668.927
 20
-326.159
 30
0.000000
  70
    32
  0
VERTEX
  8
┌▓È_1
  5
677
 10
668.915
 20
-326.174
 30
0.000000
  70
    32
  0
VERTEX
  8
┌▓È_1
  5
678
 10
668.904
 20
-326.188
 30
0.000000
  70
    32
  0
VERTEX
  8
┌▓È_1
  5
679
 10
668.895
 20
-326.202
 30
0.000000
  70
    32
  0
VERTEX
  8
┌▓È_1
  5
67A
 10
668.888
 20
-326.216
 30
0.000000
  70
    32
  0
VERTEX
  8
┌▓È_1
  5
67B
 10
668.883
 20
-326.230
 30
0.000000
  70
    32
  0
VERTEX
  8
┌▓È_1
  5
67C
 10
668.881
 20
-326.245
 30
0.000000
  70
    32
  0
VERTEX
  8
┌▓È_1
  5
67D
 10
668.880
 20
-326.259
 30
0.000000
  70
    32
  0
SEQEND
  8
┌▓È_1
  5
67E
  0
POLYLINE
  5
A7
  8
┌▓È_1
  6
STITCH
 10
675.37939936993791
 20
-331.59719620448556
 30
0.0
 66
     1
 70
     8
  0
VERTEX
  8
┌▓È_1
  5
67F
 10
675.379
 20
-331.597
 30
0.000000
  70
    32
  0
VERTEX
  8
┌▓È_1
  5
680
 10
675.378
 20
-331.611
 30
0.000000
  70
    32
  0
VERTEX
  8
┌▓È_1
  5
681
 10
675.375
 20
-331.626
 30
0.000000
  70
    32
  0
VERTEX
  8
┌▓È_1
  5
682
 10
675.371
 20
-331.640
 30
0.000000
  70
    32
  0
VERTEX
  8
┌▓È_1
  5
683
 10
675.364
 20
-331.654
 30
0.000000
  70
    32
  0
VERTEX
  8
┌▓È_1
  5
684
 10
675.355
 20
-331.668
 30
0.000000
  70
    32
  0
VERTEX
  8
┌▓È_1
  5
685
 10
675.344
 20
-331.682
 30
0.000000
  70
    32
  0
VERTEX
  8
┌▓È_1
  5
686
 10
675.332
 20
-331.697
 30
0.000000
  70
    32
  0
VERTEX
  8
┌▓È_1
  5
687
 10
675.317
 20
-331.711
 30
0.000000
  70
    32
  0
VERTEX
  8
┌▓È_1
  5
688
 10
675.300
 20
-331.724
 30
0.000000
  70
    32
  0
VERTEX
  8
┌▓È_1
  5
689
 10
675.282
 20
-331.738
 30
0.000000
  70
    32
  0
VERTEX
  8
┌▓È_1
  5
68A
 10
675.262
 20
-331.752
 30
0.000000
  70
    32
  0
VERTEX
  8
┌▓È_1
  5
68B
 10
675.239
 20
-331.766
 30
0.000000
  70
    32
  0
VERTEX
  8
┌▓È_1
  5
68C
 10
675.215
 20
-331.779
 30
0.000000
  70
    32
  0
VERTEX
  8
┌▓È_1
  5
68D
 10
675.189
 20
-331.793
 30
0.000000
  70
    32
  0
VERTEX
  8
┌▓È_1
  5
68E
 10
675.162
 20
-331.806
 30
0.000000
  70
    32
  0
VERTEX
  8
┌▓È_1
  5
68F
 10
675.132
 20
-331.820
 30
0.000000
  70
    32
  0
VERTEX
  8
┌▓È_1
  5
690
 10
675.101
 20
-331.833
 30
0.000000
  70
    32
  0
VERTEX
  8
┌▓È_1
  5
691
 10
675.067
 20
-331.846
 30
0.000000
  70
    32
  0
VERTEX
  8
┌▓È_1
  5
692
 10
675.032
 20
-331.858
 30
0.000000
  70
    32
  0
VERTEX
  8
┌▓È_1
  5
693
 10
674.996
 20
-331.871
 30
0.000000
  70
    32
  0
VERTEX
  8
┌▓È_1
  5
694
 10
674.957
 20
-331.884
 30
0.000000
  70
    32
  0
VERTEX
  8
┌▓È_1
  5
695
 10
674.917
 20
-331.896
 30
0.000000
  70
    32
  0
VERTEX
  8
┌▓È_1
  5
696
 10
674.875
 20
-331.908
 30
0.000000
  70
    32
  0
VERTEX
  8
┌▓È_1
  5
697
 10
674.832
 20
-331.920
 30
0.000000
  70
    32
  0
VERTEX
  8
┌▓È_1
  5
698
 10
674.787
 20
-331.932
 30
0.000000
  70
    32
  0
VERTEX
  8
┌▓È_1
  5
699
 10
674.740
 20
-331.943
 30
0.000000
  70
    32
  0
VERTEX
  8
┌▓È_1
  5
69A
 10
674.692
 20
-331.955
 30
0.000000
  70
    32
  0
VERTEX
  8
┌▓È_1
  5
69B
 10
674.642
 20
-331.966
 30
0.000000
  70
    32
  0
VERTEX
  8
┌▓È_1
  5
69C
 10
674.590
 20
-331.977
 30
0.000000
  70
    32
  0
VERTEX
  8
┌▓È_1
  5
69D
 10
674.537
 20
-331.987
 30
0.000000
  70
    32
  0
VERTEX
  8
┌▓È_1
  5
69E
 10
674.483
 20
-331.998
 30
0.000000
  70
    32
  0
VERTEX
  8
┌▓È_1
  5
69F
 10
674.427
 20
-332.008
 30
0.000000
  70
    32
  0
VERTEX
  8
┌▓È_1
  5
6A0
 10
674.370
 20
-332.018
 30
0.000000
  70
    32
  0
VERTEX
  8
┌▓È_1
  5
6A1
 10
674.312
 20
-332.028
 30
0.000000
  70
    32
  0
VERTEX
  8
┌▓È_1
  5
6A2
 10
674.252
 20
-332.037
 30
0.000000
  70
    32
  0
VERTEX
  8
┌▓È_1
  5
6A3
 10
674.191
 20
-332.046
 30
0.000000
  70
    32
  0
VERTEX
  8
┌▓È_1
  5
6A4
 10
674.129
 20
-332.055
 30
0.000000
  70
    32
  0
VERTEX
  8
┌▓È_1
  5
6A5
 10
674.065
 20
-332.064
 30
0.000000
  70
    32
  0
VERTEX
  8
┌▓È_1
  5
6A6
 10
674.001
 20
-332.072
 30
0.000000
  70
    32
  0
VERTEX
  8
┌▓È_1
  5
6A7
 10
673.935
 20
-332.080
 30
0.000000
  70
    32
  0
VERTEX
  8
┌▓È_1
  5
6A8
 10
673.868
 20
-332.088
 30
0.000000
  70
    32
  0
VERTEX
  8
┌▓È_1
  5
6A9
 10
673.800
 20
-332.095
 30
0.000000
  70
    32
  0
VERTEX
  8
┌▓È_1
  5
6AA
 10
673.731
 20
-332.103
 30
0.000000
  70
    32
  0
VERTEX
  8
┌▓È_1
  5
6AB
 10
673.661
 20
-332.109
 30
0.000000
  70
    32
  0
VERTEX
  8
┌▓È_1
  5
6AC
 10
673.591
 20
-332.116
 30
0.000000
  70
    32
  0
VERTEX
  8
┌▓È_1
  5
6AD
 10
673.519
 20
-332.122
 30
0.000000
  70
    32
  0
VERTEX
  8
┌▓È_1
  5
6AE
 10
673.446
 20
-332.128
 30
0.000000
  70
    32
  0
VERTEX
  8
┌▓È_1
  5
6AF
 10
673.373
 20
-332.134
 30
0.000000
  70
    32
  0
VERTEX
  8
┌▓È_1
  5
6B0
 10
673.299
 20
-332.139
 30
0.000000
  70
    32
  0
VERTEX
  8
┌▓È_1
  5
6B1
 10
673.224
 20
-332.144
 30
0.000000
  70
    32
  0
VERTEX
  8
┌▓È_1
  5
6B2
 10
673.149
 20
-332.149
 30
0.000000
  70
    32
  0
VERTEX
  8
┌▓È_1
  5
6B3
 10
673.073
 20
-332.153
 30
0.000000
  70
    32
  0
VERTEX
  8
┌▓È_1
  5
6B4
 10
672.996
 20
-332.157
 30
0.000000
  70
    32
  0
VERTEX
  8
┌▓È_1
  5
6B5
 10
672.919
 20
-332.161
 30
0.000000
  70
    32
  0
VERTEX
  8
┌▓È_1
  5
6B6
 10
672.842
 20
-332.164
 30
0.000000
  70
    32
  0
VERTEX
  8
┌▓È_1
  5
6B7
 10
672.763
 20
-332.167
 30
0.000000
  70
    32
  0
VERTEX
  8
┌▓È_1
  5
6B8
 10
672.685
 20
-332.169
 30
0.000000
  70
    32
  0
VERTEX
  8
┌▓È_1
  5
6B9
 10
672.606
 20
-332.172
 30
0.000000
  70
    32
  0
VERTEX
  8
┌▓È_1
  5
6BA
 10
672.527
 20
-332.174
 30
0.000000
  70
    32
  0
VERTEX
  8
┌▓È_1
  5
6BB
 10
672.448
 20
-332.175
 30
0.000000
  70
    32
  0
VERTEX
  8
┌▓È_1
  5
6BC
 10
672.369
 20
-332.176
 30
0.000000
  70
    32
  0
VERTEX
  8
┌▓È_1
  5
6BD
 10
672.289
 20
-332.177
 30
0.000000
  70
    32
  0
VERTEX
  8
┌▓È_1
  5
6BE
 10
672.209
 20
-332.178
 30
0.000000
  70
    32
  0
VERTEX
  8
┌▓È_1
  5
6BF
 10
672.129
 20
-332.178
 30
0.000000
  70
    32
  0
VERTEX
  8
┌▓È_1
  5
6C0
 10
672.050
 20
-332.178
 30
0.000000
  70
    32
  0
VERTEX
  8
┌▓È_1
  5
6C1
 10
671.970
 20
-332.177
 30
0.000000
  70
    32
  0
VERTEX
  8
┌▓È_1
  5
6C2
 10
671.890
 20
-332.176
 30
0.000000
  70
    32
  0
VERTEX
  8
┌▓È_1
  5
6C3
 10
671.811
 20
-332.175
 30
0.000000
  70
    32
  0
VERTEX
  8
┌▓È_1
  5
6C4
 10
671.732
 20
-332.174
 30
0.000000
  70
    32
  0
VERTEX
  8
┌▓È_1
  5
6C5
 10
671.653
 20
-332.172
 30
0.000000
  70
    32
  0
VERTEX
  8
┌▓È_1
  5
6C6
 10
671.574
 20
-332.169
 30
0.000000
  70
    32
  0
VERTEX
  8
┌▓È_1
  5
6C7
 10
671.495
 20
-332.167
 30
0.000000
  70
    32
  0
VERTEX
  8
┌▓È_1
  5
6C8
 10
671.417
 20
-332.164
 30
0.000000
  70
    32
  0
VERTEX
  8
┌▓È_1
  5
6C9
 10
671.340
 20
-332.161
 30
0.000000
  70
    32
  0
VERTEX
  8
┌▓È_1
  5
6CA
 10
671.263
 20
-332.157
 30
0.000000
  70
    32
  0
VERTEX
  8
┌▓È_1
  5
6CB
 10
671.186
 20
-332.153
 30
0.000000
  70
    32
  0
VERTEX
  8
┌▓È_1
  5
6CC
 10
671.110
 20
-332.149
 30
0.000000
  70
    32
  0
VERTEX
  8
┌▓È_1
  5
6CD
 10
671.035
 20
-332.144
 30
0.000000
  70
    32
  0
VERTEX
  8
┌▓È_1
  5
6CE
 10
670.960
 20
-332.139
 30
0.000000
  70
    32
  0
VERTEX
  8
┌▓È_1
  5
6CF
 10
670.886
 20
-332.134
 30
0.000000
  70
    32
  0
VERTEX
  8
┌▓È_1
  5
6D0
 10
670.812
 20
-332.128
 30
0.000000
  70
    32
  0
VERTEX
  8
┌▓È_1
  5
6D1
 10
670.740
 20
-332.122
 30
0.000000
  70
    32
  0
VERTEX
  8
┌▓È_1
  5
6D2
 10
670.668
 20
-332.116
 30
0.000000
  70
    32
  0
VERTEX
  8
┌▓È_1
  5
6D3
 10
670.597
 20
-332.109
 30
0.000000
  70
    32
  0
VERTEX
  8
┌▓È_1
  5
6D4
 10
670.528
 20
-332.102
 30
0.000000
  70
    32
  0
VERTEX
  8
┌▓È_1
  5
6D5
 10
670.459
 20
-332.095
 30
0.000000
  70
    32
  0
VERTEX
  8
┌▓È_1
  5
6D6
 10
670.391
 20
-332.088
 30
0.000000
  70
    32
  0
VERTEX
  8
┌▓È_1
  5
6D7
 10
670.324
 20
-332.080
 30
0.000000
  70
    32
  0
VERTEX
  8
┌▓È_1
  5
6D8
 10
670.258
 20
-332.072
 30
0.000000
  70
    32
  0
VERTEX
  8
┌▓È_1
  5
6D9
 10
670.193
 20
-332.064
 30
0.000000
  70
    32
  0
VERTEX
  8
┌▓È_1
  5
6DA
 10
670.130
 20
-332.055
 30
0.000000
  70
    32
  0
VERTEX
  8
┌▓È_1
  5
6DB
 10
670.068
 20
-332.046
 30
0.000000
  70
    32
  0
VERTEX
  8
┌▓È_1
  5
6DC
 10
670.007
 20
-332.037
 30
0.000000
  70
    32
  0
VERTEX
  8
┌▓È_1
  5
6DD
 10
669.947
 20
-332.027
 30
0.000000
  70
    32
  0
VERTEX
  8
┌▓È_1
  5
6DE
 10
669.888
 20
-332.018
 30
0.000000
  70
    32
  0
VERTEX
  8
┌▓È_1
  5
6DF
 10
669.831
 20
-332.008
 30
0.000000
  70
    32
  0
VERTEX
  8
┌▓È_1
  5
6E0
 10
669.776
 20
-331.997
 30
0.000000
  70
    32
  0
VERTEX
  8
┌▓È_1
  5
6E1
 10
669.721
 20
-331.987
 30
0.000000
  70
    32
  0
VERTEX
  8
┌▓È_1
  5
6E2
 10
669.669
 20
-331.976
 30
0.000000
  70
    32
  0
VERTEX
  8
┌▓È_1
  5
6E3
 10
669.617
 20
-331.965
 30
0.000000
  70
    32
  0
VERTEX
  8
┌▓È_1
  5
6E4
 10
669.567
 20
-331.954
 30
0.000000
  70
    32
  0
VERTEX
  8
┌▓È_1
  5
6E5
 10
669.519
 20
-331.943
 30
0.000000
  70
    32
  0
VERTEX
  8
┌▓È_1
  5
6E6
 10
669.472
 20
-331.931
 30
0.000000
  70
    32
  0
VERTEX
  8
┌▓È_1
  5
6E7
 10
669.427
 20
-331.920
 30
0.000000
  70
    32
  0
VERTEX
  8
┌▓È_1
  5
6E8
 10
669.384
 20
-331.908
 30
0.000000
  70
    32
  0
VERTEX
  8
┌▓È_1
  5
6E9
 10
669.342
 20
-331.896
 30
0.000000
  70
    32
  0
VERTEX
  8
┌▓È_1
  5
6EA
 10
669.302
 20
-331.883
 30
0.000000
  70
    32
  0
VERTEX
  8
┌▓È_1
  5
6EB
 10
669.263
 20
-331.871
 30
0.000000
  70
    32
  0
VERTEX
  8
┌▓È_1
  5
6EC
 10
669.227
 20
-331.858
 30
0.000000
  70
    32
  0
VERTEX
  8
┌▓È_1
  5
6ED
 10
669.192
 20
-331.845
 30
0.000000
  70
    32
  0
VERTEX
  8
┌▓È_1
  5
6EE
 10
669.158
 20
-331.832
 30
0.000000
  70
    32
  0
VERTEX
  8
┌▓È_1
  5
6EF
 10
669.127
 20
-331.819
 30
0.000000
  70
    32
  0
VERTEX
  8
┌▓È_1
  5
6F0
 10
669.097
 20
-331.806
 30
0.000000
  70
    32
  0
VERTEX
  8
┌▓È_1
  5
6F1
 10
669.070
 20
-331.793
 30
0.000000
  70
    32
  0
VERTEX
  8
┌▓È_1
  5
6F2
 10
669.044
 20
-331.779
 30
0.000000
  70
    32
  0
VERTEX
  8
┌▓È_1
  5
6F3
 10
669.019
 20
-331.765
 30
0.000000
  70
    32
  0
VERTEX
  8
┌▓È_1
  5
6F4
 10
668.997
 20
-331.752
 30
0.000000
  70
    32
  0
VERTEX
  8
┌▓È_1
  5
6F5
 10
668.977
 20
-331.738
 30
0.000000
  70
    32
  0
VERTEX
  8
┌▓È_1
  5
6F6
 10
668.959
 20
-331.724
 30
0.000000
  70
    32
  0
VERTEX
  8
┌▓È_1
  5
6F7
 10
668.942
 20
-331.710
 30
0.000000
  70
    32
  0
VERTEX
  8
┌▓È_1
  5
6F8
 10
668.927
 20
-331.696
 30
0.000000
  70
    32
  0
VERTEX
  8
┌▓È_1
  5
6F9
 10
668.915
 20
-331.682
 30
0.000000
  70
    32
  0
VERTEX
  8
┌▓È_1
  5
6FA
 10
668.904
 20
-331.668
 30
0.000000
  70
    32
  0
VERTEX
  8
┌▓È_1
  5
6FB
 10
668.895
 20
-331.654
 30
0.000000
  70
    32
  0
VERTEX
  8
┌▓È_1
  5
6FC
 10
668.888
 20
-331.640
 30
0.000000
  70
    32
  0
VERTEX
  8
┌▓È_1
  5
6FD
 10
668.883
 20
-331.625
 30
0.000000
  70
    32
  0
VERTEX
  8
┌▓È_1
  5
6FE
 10
668.881
 20
-331.611
 30
0.000000
  70
    32
  0
VERTEX
  8
┌▓È_1
  5
6FF
 10
668.880
 20
-331.597
 30
0.000000
  70
    32
  0
SEQEND
  8
┌▓È_1
  5
700
  0
POLYLINE
  5
A8
  8
┌▓È_1
  6
STITCH
 10
662.37966751938734
 20
-331.59678909600001
 30
0.0
 66
     1
 70
     8
  0
VERTEX
  8
┌▓È_1
  5
701
 10
662.380
 20
-331.597
 30
0.000000
  70
    32
  0
VERTEX
  8
┌▓È_1
  5
702
 10
662.381
 20
-331.611
 30
0.000000
  70
    32
  0
VERTEX
  8
┌▓È_1
  5
703
 10
662.384
 20
-331.625
 30
0.000000
  70
    32
  0
VERTEX
  8
┌▓È_1
  5
704
 10
662.388
 20
-331.640
 30
0.000000
  70
    32
  0
VERTEX
  8
┌▓È_1
  5
705
 10
662.395
 20
-331.654
 30
0.000000
  70
    32
  0
VERTEX
  8
┌▓È_1
  5
706
 10
662.404
 20
-331.668
 30
0.000000
  70
    32
  0
VERTEX
  8
┌▓È_1
  5
707
 10
662.415
 20
-331.682
 30
0.000000
  70
    32
  0
VERTEX
  8
┌▓È_1
  5
708
 10
662.428
 20
-331.696
 30
0.000000
  70
    32
  0
VERTEX
  8
┌▓È_1
  5
709
 10
662.442
 20
-331.710
 30
0.000000
  70
    32
  0
VERTEX
  8
┌▓È_1
  5
70A
 10
662.459
 20
-331.724
 30
0.000000
  70
    32
  0
VERTEX
  8
┌▓È_1
  5
70B
 10
662.477
 20
-331.738
 30
0.000000
  70
    32
  0
VERTEX
  8
┌▓È_1
  5
70C
 10
662.497
 20
-331.752
 30
0.000000
  70
    32
  0
VERTEX
  8
┌▓È_1
  5
70D
 10
662.520
 20
-331.765
 30
0.000000
  70
    32
  0
VERTEX
  8
┌▓È_1
  5
70E
 10
662.544
 20
-331.779
 30
0.000000
  70
    32
  0
VERTEX
  8
┌▓È_1
  5
70F
 10
662.570
 20
-331.793
 30
0.000000
  70
    32
  0
VERTEX
  8
┌▓È_1
  5
710
 10
662.597
 20
-331.806
 30
0.000000
  70
    32
  0
VERTEX
  8
┌▓È_1
  5
711
 10
662.627
 20
-331.819
 30
0.000000
  70
    32
  0
VERTEX
  8
┌▓È_1
  5
712
 10
662.658
 20
-331.832
 30
0.000000
  70
    32
  0
VERTEX
  8
┌▓È_1
  5
713
 10
662.692
 20
-331.845
 30
0.000000
  70
    32
  0
VERTEX
  8
┌▓È_1
  5
714
 10
662.727
 20
-331.858
 30
0.000000
  70
    32
  0
VERTEX
  8
┌▓È_1
  5
715
 10
662.763
 20
-331.871
 30
0.000000
  70
    32
  0
VERTEX
  8
┌▓È_1
  5
716
 10
662.802
 20
-331.883
 30
0.000000
  70
    32
  0
VERTEX
  8
┌▓È_1
  5
717
 10
662.842
 20
-331.895
 30
0.000000
  70
    32
  0
VERTEX
  8
┌▓È_1
  5
718
 10
662.884
 20
-331.908
 30
0.000000
  70
    32
  0
VERTEX
  8
┌▓È_1
  5
719
 10
662.927
 20
-331.920
 30
0.000000
  70
    32
  0
VERTEX
  8
┌▓È_1
  5
71A
 10
662.973
 20
-331.931
 30
0.000000
  70
    32
  0
VERTEX
  8
┌▓È_1
  5
71B
 10
663.019
 20
-331.943
 30
0.000000
  70
    32
  0
VERTEX
  8
┌▓È_1
  5
71C
 10
663.068
 20
-331.954
 30
0.000000
  70
    32
  0
VERTEX
  8
┌▓È_1
  5
71D
 10
663.117
 20
-331.965
 30
0.000000
  70
    32
  0
VERTEX
  8
┌▓È_1
  5
71E
 10
663.169
 20
-331.976
 30
0.000000
  70
    32
  0
VERTEX
  8
┌▓È_1
  5
71F
 10
663.222
 20
-331.987
 30
0.000000
  70
    32
  0
VERTEX
  8
┌▓È_1
  5
720
 10
663.276
 20
-331.997
 30
0.000000
  70
    32
  0
VERTEX
  8
┌▓È_1
  5
721
 10
663.332
 20
-332.008
 30
0.000000
  70
    32
  0
VERTEX
  8
┌▓È_1
  5
722
 10
663.389
 20
-332.018
 30
0.000000
  70
    32
  0
VERTEX
  8
┌▓È_1
  5
723
 10
663.447
 20
-332.027
 30
0.000000
  70
    32
  0
VERTEX
  8
┌▓È_1
  5
724
 10
663.507
 20
-332.037
 30
0.000000
  70
    32
  0
VERTEX
  8
┌▓È_1
  5
725
 10
663.568
 20
-332.046
 30
0.000000
  70
    32
  0
VERTEX
  8
┌▓È_1
  5
726
 10
663.630
 20
-332.055
 30
0.000000
  70
    32
  0
VERTEX
  8
┌▓È_1
  5
727
 10
663.694
 20
-332.063
 30
0.000000
  70
    32
  0
VERTEX
  8
┌▓È_1
  5
728
 10
663.758
 20
-332.072
 30
0.000000
  70
    32
  0
VERTEX
  8
┌▓È_1
  5
729
 10
663.824
 20
-332.080
 30
0.000000
  70
    32
  0
VERTEX
  8
┌▓È_1
  5
72A
 10
663.891
 20
-332.088
 30
0.000000
  70
    32
  0
VERTEX
  8
┌▓È_1
  5
72B
 10
663.959
 20
-332.095
 30
0.000000
  70
    32
  0
VERTEX
  8
┌▓È_1
  5
72C
 10
664.028
 20
-332.102
 30
0.000000
  70
    32
  0
VERTEX
  8
┌▓È_1
  5
72D
 10
664.098
 20
-332.109
 30
0.000000
  70
    32
  0
VERTEX
  8
┌▓È_1
  5
72E
 10
664.168
 20
-332.116
 30
0.000000
  70
    32
  0
VERTEX
  8
┌▓È_1
  5
72F
 10
664.240
 20
-332.122
 30
0.000000
  70
    32
  0
VERTEX
  8
┌▓È_1
  5
730
 10
664.313
 20
-332.128
 30
0.000000
  70
    32
  0
VERTEX
  8
┌▓È_1
  5
731
 10
664.386
 20
-332.134
 30
0.000000
  70
    32
  0
VERTEX
  8
┌▓È_1
  5
732
 10
664.460
 20
-332.139
 30
0.000000
  70
    32
  0
VERTEX
  8
┌▓È_1
  5
733
 10
664.535
 20
-332.144
 30
0.000000
  70
    32
  0
VERTEX
  8
┌▓È_1
  5
734
 10
664.610
 20
-332.148
 30
0.000000
  70
    32
  0
VERTEX
  8
┌▓È_1
  5
735
 10
664.686
 20
-332.153
 30
0.000000
  70
    32
  0
VERTEX
  8
┌▓È_1
  5
736
 10
664.763
 20
-332.157
 30
0.000000
  70
    32
  0
VERTEX
  8
┌▓È_1
  5
737
 10
664.840
 20
-332.160
 30
0.000000
  70
    32
  0
VERTEX
  8
┌▓È_1
  5
738
 10
664.918
 20
-332.164
 30
0.000000
  70
    32
  0
VERTEX
  8
┌▓È_1
  5
739
 10
664.996
 20
-332.167
 30
0.000000
  70
    32
  0
VERTEX
  8
┌▓È_1
  5
73A
 10
665.074
 20
-332.169
 30
0.000000
  70
    32
  0
VERTEX
  8
┌▓È_1
  5
73B
 10
665.153
 20
-332.172
 30
0.000000
  70
    32
  0
VERTEX
  8
┌▓È_1
  5
73C
 10
665.232
 20
-332.173
 30
0.000000
  70
    32
  0
VERTEX
  8
┌▓È_1
  5
73D
 10
665.311
 20
-332.175
 30
0.000000
  70
    32
  0
VERTEX
  8
┌▓È_1
  5
73E
 10
665.391
 20
-332.176
 30
0.000000
  70
    32
  0
VERTEX
  8
┌▓È_1
  5
73F
 10
665.470
 20
-332.177
 30
0.000000
  70
    32
  0
VERTEX
  8
┌▓È_1
  5
740
 10
665.550
 20
-332.178
 30
0.000000
  70
    32
  0
VERTEX
  8
┌▓È_1
  5
741
 10
665.630
 20
-332.178
 30
0.000000
  70
    32
  0
VERTEX
  8
┌▓È_1
  5
742
 10
665.709
 20
-332.178
 30
0.000000
  70
    32
  0
VERTEX
  8
┌▓È_1
  5
743
 10
665.789
 20
-332.177
 30
0.000000
  70
    32
  0
VERTEX
  8
┌▓È_1
  5
744
 10
665.869
 20
-332.176
 30
0.000000
  70
    32
  0
VERTEX
  8
┌▓È_1
  5
745
 10
665.948
 20
-332.175
 30
0.000000
  70
    32
  0
VERTEX
  8
┌▓È_1
  5
746
 10
666.027
 20
-332.173
 30
0.000000
  70
    32
  0
VERTEX
  8
┌▓È_1
  5
747
 10
666.106
 20
-332.172
 30
0.000000
  70
    32
  0
VERTEX
  8
┌▓È_1
  5
748
 10
666.185
 20
-332.169
 30
0.000000
  70
    32
  0
VERTEX
  8
┌▓È_1
  5
749
 10
666.264
 20
-332.167
 30
0.000000
  70
    32
  0
VERTEX
  8
┌▓È_1
  5
74A
 10
666.342
 20
-332.164
 30
0.000000
  70
    32
  0
VERTEX
  8
┌▓È_1
  5
74B
 10
666.419
 20
-332.160
 30
0.000000
  70
    32
  0
VERTEX
  8
┌▓È_1
  5
74C
 10
666.496
 20
-332.157
 30
0.000000
  70
    32
  0
VERTEX
  8
┌▓È_1
  5
74D
 10
666.573
 20
-332.153
 30
0.000000
  70
    32
  0
VERTEX
  8
┌▓È_1
  5
74E
 10
666.649
 20
-332.148
 30
0.000000
  70
    32
  0
VERTEX
  8
┌▓È_1
  5
74F
 10
666.724
 20
-332.144
 30
0.000000
  70
    32
  0
VERTEX
  8
┌▓È_1
  5
750
 10
666.799
 20
-332.139
 30
0.000000
  70
    32
  0
VERTEX
  8
┌▓È_1
  5
751
 10
666.873
 20
-332.134
 30
0.000000
  70
    32
  0
VERTEX
  8
┌▓È_1
  5
752
 10
666.947
 20
-332.128
 30
0.000000
  70
    32
  0
VERTEX
  8
┌▓È_1
  5
753
 10
667.019
 20
-332.122
 30
0.000000
  70
    32
  0
VERTEX
  8
┌▓È_1
  5
754
 10
667.091
 20
-332.116
 30
0.000000
  70
    32
  0
VERTEX
  8
┌▓È_1
  5
755
 10
667.162
 20
-332.109
 30
0.000000
  70
    32
  0
VERTEX
  8
┌▓È_1
  5
756
 10
667.231
 20
-332.102
 30
0.000000
  70
    32
  0
VERTEX
  8
┌▓È_1
  5
757
 10
667.300
 20
-332.095
 30
0.000000
  70
    32
  0
VERTEX
  8
┌▓È_1
  5
758
 10
667.368
 20
-332.088
 30
0.000000
  70
    32
  0
VERTEX
  8
┌▓È_1
  5
759
 10
667.435
 20
-332.080
 30
0.000000
  70
    32
  0
VERTEX
  8
┌▓È_1
  5
75A
 10
667.501
 20
-332.072
 30
0.000000
  70
    32
  0
VERTEX
  8
┌▓È_1
  5
75B
 10
667.566
 20
-332.063
 30
0.000000
  70
    32
  0
VERTEX
  8
┌▓È_1
  5
75C
 10
667.629
 20
-332.055
 30
0.000000
  70
    32
  0
VERTEX
  8
┌▓È_1
  5
75D
 10
667.691
 20
-332.046
 30
0.000000
  70
    32
  0
VERTEX
  8
┌▓È_1
  5
75E
 10
667.752
 20
-332.037
 30
0.000000
  70
    32
  0
VERTEX
  8
┌▓È_1
  5
75F
 10
667.812
 20
-332.027
 30
0.000000
  70
    32
  0
VERTEX
  8
┌▓È_1
  5
760
 10
667.871
 20
-332.018
 30
0.000000
  70
    32
  0
VERTEX
  8
┌▓È_1
  5
761
 10
667.928
 20
-332.008
 30
0.000000
  70
    32
  0
VERTEX
  8
┌▓È_1
  5
762
 10
667.983
 20
-331.997
 30
0.000000
  70
    32
  0
VERTEX
  8
┌▓È_1
  5
763
 10
668.038
 20
-331.987
 30
0.000000
  70
    32
  0
VERTEX
  8
┌▓È_1
  5
764
 10
668.090
 20
-331.976
 30
0.000000
  70
    32
  0
VERTEX
  8
┌▓È_1
  5
765
 10
668.142
 20
-331.965
 30
0.000000
  70
    32
  0
VERTEX
  8
┌▓È_1
  5
766
 10
668.192
 20
-331.954
 30
0.000000
  70
    32
  0
VERTEX
  8
┌▓È_1
  5
767
 10
668.240
 20
-331.943
 30
0.000000
  70
    32
  0
VERTEX
  8
┌▓È_1
  5
768
 10
668.287
 20
-331.931
 30
0.000000
  70
    32
  0
VERTEX
  8
┌▓È_1
  5
769
 10
668.332
 20
-331.920
 30
0.000000
  70
    32
  0
VERTEX
  8
┌▓È_1
  5
76A
 10
668.375
 20
-331.908
 30
0.000000
  70
    32
  0
VERTEX
  8
┌▓È_1
  5
76B
 10
668.417
 20
-331.895
 30
0.000000
  70
    32
  0
VERTEX
  8
┌▓È_1
  5
76C
 10
668.457
 20
-331.883
 30
0.000000
  70
    32
  0
VERTEX
  8
┌▓È_1
  5
76D
 10
668.496
 20
-331.871
 30
0.000000
  70
    32
  0
VERTEX
  8
┌▓È_1
  5
76E
 10
668.533
 20
-331.858
 30
0.000000
  70
    32
  0
VERTEX
  8
┌▓È_1
  5
76F
 10
668.567
 20
-331.845
 30
0.000000
  70
    32
  0
VERTEX
  8
┌▓È_1
  5
770
 10
668.601
 20
-331.832
 30
0.000000
  70
    32
  0
VERTEX
  8
┌▓È_1
  5
771
 10
668.632
 20
-331.819
 30
0.000000
  70
    32
  0
VERTEX
  8
┌▓È_1
  5
772
 10
668.662
 20
-331.806
 30
0.000000
  70
    32
  0
VERTEX
  8
┌▓È_1
  5
773
 10
668.690
 20
-331.793
 30
0.000000
  70
    32
  0
VERTEX
  8
┌▓È_1
  5
774
 10
668.715
 20
-331.779
 30
0.000000
  70
    32
  0
VERTEX
  8
┌▓È_1
  5
775
 10
668.740
 20
-331.765
 30
0.000000
  70
    32
  0
VERTEX
  8
┌▓È_1
  5
776
 10
668.762
 20
-331.752
 30
0.000000
  70
    32
  0
VERTEX
  8
┌▓È_1
  5
777
 10
668.782
 20
-331.738
 30
0.000000
  70
    32
  0
VERTEX
  8
┌▓È_1
  5
778
 10
668.801
 20
-331.724
 30
0.000000
  70
    32
  0
VERTEX
  8
┌▓È_1
  5
779
 10
668.817
 20
-331.710
 30
0.000000
  70
    32
  0
VERTEX
  8
┌▓È_1
  5
77A
 10
668.832
 20
-331.696
 30
0.000000
  70
    32
  0
VERTEX
  8
┌▓È_1
  5
77B
 10
668.844
 20
-331.682
 30
0.000000
  70
    32
  0
VERTEX
  8
┌▓È_1
  5
77C
 10
668.855
 20
-331.668
 30
0.000000
  70
    32
  0
VERTEX
  8
┌▓È_1
  5
77D
 10
668.864
 20
-331.654
 30
0.000000
  70
    32
  0
VERTEX
  8
┌▓È_1
  5
77E
 10
668.871
 20
-331.640
 30
0.000000
  70
    32
  0
VERTEX
  8
┌▓È_1
  5
77F
 10
668.876
 20
-331.625
 30
0.000000
  70
    32
  0
VERTEX
  8
┌▓È_1
  5
780
 10
668.879
 20
-331.611
 30
0.000000
  70
    32
  0
VERTEX
  8
┌▓È_1
  5
781
 10
668.880
 20
-331.597
 30
0.000000
  70
    32
  0
SEQEND
  8
┌▓È_1
  5
782
  0
LINE
  5
A9
  8
┌▓È_1
  6
STITCH
 10
650.87951525599999
 20
-321.17778909600003
 30
0.0
 11
661.37951525599988
 21
-321.17778909600003
 31
0.0
  0
LINE
  5
AA
  8
┌▓È_1
  6
STITCH
 10
655.38681653219999
 20
-322.17778909600003
 30
0.0
 11
668.87951525599999
 21
-322.17778909600003
 31
0.0
  0
LINE
  5
AB
  8
┌▓È_1
  6
STITCH
 10
678.77901019269984
 20
-325.17778909600003
 30
0.0
 11
674.53636950550003
 21
-325.17778909600003
 31
0.0
  0
LINE
  5
AC
  8
┌▓È_1
  6
STITCH
 10
668.53723121040002
 20
-321.3987889823
 30
0.0
 11
662.77328569199994
 21
-322.15246712369998
 31
0.0
  0
ARC
  5
AD
  8
┌▓È_1
  6
STITCH
 10
671.37967163459984
 20
-309.67813889029998
 30
0.0
 40
1.0
 50
0.0
 51
90.0
  0
ARC
  5
AE
  8
┌▓È_1
  6
STITCH
 10
666.37967163459984
 20
-309.67813889029998
 30
0.0
 40
1.0
 50
90.0
 51
180.0
  0
LINE
  5
AF
  8
┌▓È_1
  6
STITCH
 10
665.37967163459996
 20
-313.92813889029998
 30
0.0
 11
665.37967163459996
 21
-311.42813889029998
 31
0.0
  0
LINE
  5
B0
  8
┌▓È_1
  6
STITCH
 10
663.62951525599988
 20
-321.15524594549998
 30
0.0
 11
663.62951525599988
 21
-321.17778909600003
 31
0.0
  0
LINE
  5
B1
  8
┌▓È_1
  6
STITCH
 10
655.38681653219999
 20
-324.17778909600003
 30
0.0
 11
668.87951525599999
 21
-324.17778909600003
 31
0.0
  0
LINE
  5
B2
  8
┌▓È_1
  6
STITCH
 10
655.38681653219999
 20
-322.17778909600003
 30
0.0
 11
655.38681653219999
 21
-324.17778909600003
 31
0.0
  0
LINE
  5
B3
  8
┌▓È_1
  6
BORDER
 62
     3
 10
661.99227245769998
 20
-312.67813889029998
 30
0.0
 11
675.94659344529987
 21
-312.67813889029998
 31
0.0
  0
LINE
  5
B4
  8
┌▓È_1
  6
BORDER
 62
     3
 10
668.87967163459984
 20
-323.21935288200001
 30
0.0
 11
668.87967163459984
 21
-305.4498055569
 31
0.0
  0
LINE
  5
B5
  8
┌▓È_1
  6
STITCH
 10
682.37228211050001
 20
-324.17800204650001
 30
0.0
 11
678.77901019269984
 21
-324.17794533530002
 31
0.0
  0
LINE
  5
B6
  8
┌▓È_1
  6
STITCH
 10
665.37967163459996
 20
-309.67813889029998
 30
0.0
 11
665.37967163459996
 21
-311.42813889029998
 31
0.0
  0
LINE
  5
B7
  8
┌▓È_1
  6
STITCH
 10
665.37967163459996
 20
-313.92813889029998
 30
0.0
 11
665.37967163459996
 21
-318.67813889029998
 31
0.0
  0
LINE
  5
B8
  8
┌▓È_1
  6
STITCH
 10
666.37967163459984
 20
-308.67813889029998
 30
0.0
 11
671.37967163459984
 21
-308.67813889029998
 31
0.0
  0
LINE
  5
B9
  8
┌▓È_1
  6
STITCH
 10
681.37973953589994
 20
-322.17798638139999
 30
0.0
 11
681.37973953589994
 21
-320.6776965034
 31
0.0
  0
LINE
  5
BA
  8
┌▓È_1
  6
STITCH
 10
650.87951525599999
 20
-301.47778909599998
 30
0.0
 11
650.87951525599999
 21
-320.17778909600003
 31
0.0
  0
LINE
  5
BB
  8
┌▓È_1
  6
STITCH
 10
639.87951525599988
 20
-300.47778909599998
 30
0.0
 11
649.87951525599988
 21
-300.47778909599998
 31
0.0
  0
LINE
  5
BC
  8
┌▓È_1
  6
STITCH
 10
662.37966751939996
 20
-331.97778909599998
 30
0.0
 11
662.37966751939996
 21
-325.87778909600001
 31
0.0
  0
LINE
  5
BD
  8
┌▓È_1
  6
STITCH
 10
662.5796675194
 20
-325.67779067430001
 30
0.0
 11
661.37953427529987
 21
-325.67775138169998
 31
0.0
  0
LINE
  5
BE
  8
┌▓È_1
  6
STITCH
 10
675.37976694979989
 20
-325.87789168640001
 30
0.0
 11
675.17977010640004
 21
-325.67789010809997
 31
0.0
  0
LINE
  5
BF
  8
┌▓È_1
  6
STITCH
 10
662.5796675194
 20
-325.67779067430001
 30
0.0
 11
675.17977010640004
 21
-325.67789010809997
 31
0.0
  0
LINE
  5
C0
  8
┌▓È_1
  6
STITCH
 10
675.3796706759
 20
-331.9778916857
 30
0.0
 11
675.37976694979989
 21
-325.87789168640001
 31
0.0
  0
LINE
  5
C1
  8
┌▓È_1
  6
STITCH
 10
662.5796675194
 20
-332.17778909600003
 30
0.0
 11
662.37966751939996
 21
-331.97778909599998
 31
0.0
  0
ARC
  5
C2
  8
┌▓È_1
  6
STITCH
 10
649.87951525599988
 20
-301.47778909599998
 30
0.0
 40
1.0
 50
0.0
 51
90.0
  0
LINE
  5
C3
  8
┌▓È_1
  6
STITCH
 10
650.87951525599999
 20
-320.17778909600003
 30
0.0
 11
668.87951525599999
 21
-320.17778909600003
 31
0.0
  0
LINE
  5
C4
  8
┌▓È_1
  6
STITCH
 10
686.87951525599988
 20
-320.17778909600003
 30
0.0
 11
668.87951525599999
 21
-320.17778909600003
 31
0.0
  0
LINE
  5
C5
  8
┌▓È_1
  6
STITCH
 10
664.87955560670002
 20
-332.17778909600003
 30
0.0
 11
664.87955901529995
 21
-332.67778909600003
 31
0.0
  0
LINE
  5
C6
  8
┌▓È_1
  6
STITCH
 10
697.87951525599999
 20
-300.47778909599998
 30
0.0
 11
687.8795152560001
 21
-300.47778909599998
 31
0.0
  0
LINE
  5
C7
  8
┌▓È_1
  6
STITCH
 10
686.87951525599988
 20
-301.47778909599998
 30
0.0
 11
686.87951525599988
 21
-320.17778909600003
 31
0.0
  0
LINE
  5
C8
  8
┌▓È_1
  6
STITCH
 10
676.37956901680002
 20
-325.67775138169998
 30
0.0
 11
676.37955264790003
 21
-325.17778909600003
 31
0.0
  0
LINE
  5
C9
  8
┌▓È_1
  6
STITCH
 10
682.37231367569996
 20
-322.17800204679997
 30
0.0
 11
682.37228211050001
 21
-324.17800204650001
 31
0.0
  0
LINE
  5
CA
  8
┌▓È_1
  6
STITCH
 10
639.87951525599988
 20
-301.47778909599998
 30
0.0
 11
649.87951525599988
 21
-301.47778909599998
 31
0.0
  0
ARC
  5
CB
  8
┌▓È_1
  6
STITCH
 10
650.87951525599999
 20
-320.17778909600003
 30
0.0
 40
1.0
 50
180.0
 51
270.0
  0
ARC
  5
CC
  8
┌▓È_1
  6
STITCH
 10
686.87951525599988
 20
-320.17778909600003
 30
0.0
 40
1.0
 50
270.0
 51
0.0
  0
LINE
  5
CD
  8
┌▓È_1
  6
STITCH
 10
687.8795152560001
 20
-301.47778909599998
 30
0.0
 11
687.8795152560001
 21
-320.17778909600003
 31
0.0
  0
LINE
  5
CE
  8
┌▓È_1
  6
STITCH
 10
697.87951525599999
 20
-300.47778909599998
 30
0.0
 11
697.87951525599999
 21
-301.47778909599998
 31
0.0
  0
LINE
  5
CF
  8
┌▓È_1
  6
STITCH
 10
697.87951525599999
 20
-301.47778909599998
 30
0.0
 11
687.8795152560001
 21
-301.47778909599998
 31
0.0
  0
LINE
  5
D0
  8
┌▓È_1
  6
STITCH
 10
674.53636950550003
 20
-321.17778909600003
 30
0.0
 11
674.53636950550003
 21
-325.17778909600003
 31
0.0
  0
LINE
  5
D1
  8
┌▓È_1
  6
STITCH
 10
675.24347628669989
 20
-321.17778909600003
 30
0.0
 11
675.24347628669989
 21
-325.17778909600003
 31
0.0
  0
LINE
  5
D2
  8
┌▓È_1
  6
STITCH
 10
678.77901019269984
 20
-321.17778909600003
 30
0.0
 11
678.77901019269984
 21
-325.17778909600003
 31
0.0
  0
ARC
  5
D3
  8
┌▓È_1
  6
STITCH
 10
664.22951525600001
 20
-321.15524594549998
 30
0.0
 40
0.6
 50
180.0
 51
277.44952384729999
  0
LINE
  5
D4
  8
┌▓È_1
  6
STITCH
 10
664.30730687809989
 20
-321.75018162560002
 30
0.0
 11
662.74735496099993
 21
-321.95415525520002
 31
0.0
  0
LINE
  5
D5
  8
┌▓È_1
  6
STITCH
 10
661.37973953589994
 20
-322.1776965034
 30
0.0
 11
656.37973953589994
 21
-322.1776965034
 31
0.0
  0
LINE
  5
D6
  8
┌▓È_1
  6
STITCH
 10
661.37973953589994
 20
-320.6776965034
 30
0.0
 11
656.37973953589994
 21
-320.6776965034
 31
0.0
  0
LINE
  5
D7
  8
┌▓È_1
  6
STITCH
 10
681.37973953589994
 20
-320.6776965034
 30
0.0
 11
661.37973953589994
 21
-320.6776965034
 31
0.0
  0
LINE
  5
D8
  8
┌▓È_1
  6
STITCH
 10
665.37967163459996
 20
-318.67813889029998
 30
0.0
 11
662.37967163459984
 21
-318.67813889029998
 31
0.0
  0
LINE
  5
D9
  8
┌▓È_1
  6
STITCH
 10
656.37973953589994
 20
-320.6776965034
 30
0.0
 11
656.37973953589994
 21
-322.1776965034
 31
0.0
  0
LINE
  5
DA
  8
┌▓È_1
  6
STITCH
 10
686.87951525599988
 20
-321.17778909600003
 30
0.0
 11
668.87951525599999
 21
-321.17778909600003
 31
0.0
  0
ARC
  5
DB
  8
┌▓È_1
  6
STITCH
 10
687.8795152560001
 20
-301.47778909599998
 30
0.0
 40
1.0
 50
90.0
 51
180.0
  0
LINE
  5
DC
  8
┌▓È_1
  6
STITCH
 10
672.37967163459984
 20
-309.67813889029998
 30
0.0
 11
672.37967163459984
 21
-311.42813889029998
 31
0.0
  0
LINE
  5
DD
  8
┌▓È_1
  6
STITCH
 10
672.37967163459984
 20
-313.92813889029998
 30
0.0
 11
672.37967163459984
 21
-318.67813889029998
 31
0.0
  0
LINE
  5
DE
  8
┌▓È_1
  6
STITCH
 10
674.01295034899999
 20
-338.37124776429999
 30
0.0
 11
678.25573618960004
 21
-334.12875223570001
 31
0.0
  0
LINE
  5
DF
  8
┌▓È_1
  6
STITCH
 10
674.01309550500002
 20
-334.12860707969998
 30
0.0
 11
678.25559103360001
 21
-338.37139292030002
 31
0.0
  0
LINE
  5
E0
  8
┌▓È_1
  6
STITCH
 10
663.74624776430005
 20
-334.12860707969998
 30
0.0
 11
659.50375223569995
 21
-338.37139292030002
 31
0.0
  0
LINE
  5
E1
  8
┌▓È_1
  6
STITCH
 10
663.74639292029997
 20
-338.37124776429999
 30
0.0
 11
659.50360707970003
 21
-334.12875223570001
 31
0.0
  0
ENDBLK
  5
E2
  8
0
  0
BLOCK
  8
0
  2
BALLON1
 70
     0
 10
0.0
 20
0.0
 30
0.0
  3
BALLON1
  1

  0
INSERT
  5
E6
  8
0
  6
CONTINUOUS
  2
*U36
 10
0.0
 20
0.0
 30
0.0
  0
CIRCLE
  5
E7
  8
┌▓È_1
 10
656.17675519160002
 20
-254.33325784600001
 30
0.0
 40
8.0
  0
LINE
  5
E8
  8
Éíû@É³
 10
669.51008852489986
 20
-254.33325784600001
 30
0.0
 11
664.17675519160002
 21
-254.33325784600001
 31
0.0
  0
LINE
  5
E9
  8
Éíû@É³
 10
702.68956746799995
 20
-328.33325784599998
 30
0.0
 11
669.51008852489986
 21
-254.33325784600001
 31
0.0
  0
SOLID
  5
EA
  8
Éíû@É³
 10
702.68956746799995
 20
-328.33325784599998
 30
0.0
 11
697.95657702919993
 21
-321.68804893229998
 31
0.0
 12
700.07114542490001
 22
-322.4934063064
 32
0.0
 13
700.07114542490001
 23
-322.4934063064
 33
0.0
  0
SOLID
  5
EB
  8
Éíû@É³
 10
700.07114542490001
 20
-322.4934063064
 30
0.0
 11
700.87650279899992
 21
-320.37883791079997
 31
0.0
 12
702.68956746799995
 22
-328.33325784599998
 32
0.0
 13
702.68956746799995
 23
-328.33325784599998
 33
0.0
  0
ENDBLK
  5
EC
  8
0
  0
BLOCK
  8
0
  2
CLUMP1
 70
     0
 10
0.0
 20
0.0
 30
0.0
  3
CLUMP1
  1

  0
LINE
  5
F3
  8
É}ÿg
 10
1063.6468957139
 20
-485.4733698721999
 30
0.0
 11
1065.6468957139
 21
-482.47336987220001
 31
0.0
  0
LINE
  5
F4
  8
É}ÿg
 10
1034.3256835927
 20
-482.47336987220001
 30
0.0
 11
1034.3256835927
 21
-486.47336987220001
 31
0.0
  0
LINE
  5
F5
  8
É}ÿg
 10
1081.7797428808999
 20
-489.4733698721999
 30
0.0
 11
1088.0818610105
 21
-489.4733698721999
 31
0.0
  0
LINE
  5
F6
  8
É}ÿg
 10
1047.6468957139
 20
-496.47336987220001
 30
0.0
 11
1052.6468957139
 21
-496.47336987220001
 31
0.0
  0
LINE
  5
F7
  8
É}ÿg
 10
1047.6468957139
 20
-487.1175904072
 30
0.0
 11
1055.6468957139
 21
-487.1175904072
 31
0.0
  0
INSERT
  5
F8
  8
0
  6
CONTINUOUS
  2
*U37
 10
0.0
 20
0.0
 30
0.0
  0
LINE
  5
F9
  8
É}ÿg
 62
     5
 10
1097.0043906161
 20
29.373284194
 30
0.0
 11
1097.0043906161
 21
59.373284194
 31
0.0
  0
LINE
  5
FA
  8
É}ÿg
 62
     5
 10
1197.0043906161
 20
29.373284194
 30
0.0
 11
1197.0043906161
 21
59.373284194
 31
0.0
  0
LINE
  5
FB
  8
É}ÿg
 62
     5
 10
1065.0043906161
 20
29.373284194
 30
0.0
 11
1065.0043906161
 21
59.373284194
 31
0.0
  0
LINE
  5
FC
  8
É}ÿg
 62
     5
 10
1051.4858198439999
 20
40.234867696000002
 30
0.0
 11
1061.385819844
 21
40.234867696000002
 31
0.0
  0
LINE
  5
FD
  8
É}ÿg
 62
     5
 10
1056.435819844
 20
38.908519193400011
 30
0.0
 11
1061.385819844
 21
30.334867696
 31
0.0
  0
LINE
  5
FE
  8
É}ÿg
 62
     5
 10
1049.0043906161
 20
29.373284194
 30
0.0
 11
1049.0043906161
 21
59.373284194
 31
0.0
  0
LINE
  5
FF
  8
É}ÿg
 62
     5
 10
1217.0043906161
 20
29.373284194
 30
0.0
 11
1217.0043906161
 21
59.373284194
 31
0.0
  0
LINE
  5
100
  8
É}ÿg
 62
     5
 10
1049.0043906161
 20
49.373284194
 30
0.0
 11
1237.0043906161
 21
49.373284194
 31
0.0
  0
LINE
  5
101
  8
É}ÿg
 62
     5
 10
1049.0043906161
 20
39.373284194
 30
0.0
 11
1237.0043906161
 21
39.373284194
 31
0.0
  0
LINE
  5
102
  8
É}ÿg
 62
     5
 10
1049.0043906161
 20
29.373284194
 30
0.0
 11
1237.0043906161
 21
29.373284194
 31
0.0
  0
INSERT
  5
103
  8
0
  6
CONTINUOUS
  2
*U38
 10
0.0
 20
0.0
 30
0.0
  0
LINE
  5
104
  8
É}ÿg
 62
     5
 10
437.00439061610001
 20
-500.62671580599988
 30
0.0
 11
437.00439061610001
 21
59.373284194
 31
0.0
  0
LINE
  5
105
  8
É}ÿg
 62
     5
 10
437.00439061610001
 20
-500.62671580599988
 30
0.0
 11
1237.0043906161
 21
-500.62671580599988
 31
0.0
  0
LINE
  5
106
  8
É}ÿg
 62
     5
 10
1237.0043906161
 20
59.373284194
 30
0.0
 11
437.00439061610001
 21
59.373284194
 31
0.0
  0
LINE
  5
107
  8
É}ÿg
 62
     5
 10
1237.0043906161
 20
-500.62671580599988
 30
0.0
 11
1237.0043906161
 21
59.373284194
 31
0.0
  0
LINE
  5
108
  8
É}ÿg
 10
1047.6468957139
 20
-487.76181094219999
 30
0.0
 11
1047.6468957139
 21
-487.1175904072
 31
0.0
  0
LINE
  5
109
  8
É}ÿg
 10
1023.0234759696
 20
-486.47336987220001
 30
0.0
 11
1023.0234759696
 21
-489.4733698721999
 31
0.0
  0
LINE
  5
10A
  8
É}ÿg
 62
     5
 10
1056.435819844
 20
48.808519193400002
 30
0.0
 11
1061.385819844
 21
40.234867696000002
 31
0.0
  0
LINE
  5
10B
  8
É}ÿg
 62
     5
 10
1056.435819844
 20
38.908519193400011
 30
0.0
 11
1051.4858198439999
 21
30.334867696
 31
0.0
  0
INSERT
  5
10C
  8
0
  6
CONTINUOUS
  2
*U39
 10
0.0
 20
0.0
 30
0.0
  0
LINE
  5
10D
  8
É}ÿg
  6
DOT
 10
427.04439061609997
 20
-509.08671580599997
 30
0.0
 11
427.04439061609997
 21
67.833284194000001
 31
0.0
  0
LINE
  5
10E
  8
É}ÿg
  6
DOT
 10
1246.9643906161
 20
-509.08671580599997
 30
0.0
 11
1246.9643906161
 21
67.833284194000001
 31
0.0
  0
LINE
  5
10F
  8
É}ÿg
  6
DOT
 10
427.04439061609997
 20
-509.08671580599997
 30
0.0
 11
1246.9643906161
 21
-509.08671580599997
 31
0.0
  0
LINE
  5
110
  8
É}ÿg
 10
1030.3256835927
 20
-492.47336987220001
 30
0.0
 11
1030.3256835927
 21
-489.4733698721999
 31
0.0
  0
LINE
  5
111
  8
É}ÿg
  6
DOT
 10
1246.9643906161
 20
67.833284194000001
 30
0.0
 11
427.04439061609997
 21
67.833284194000001
 31
0.0
  0
LINE
  5
112
  8
É}ÿg
 10
1025.3256835927
 20
-489.4733698721999
 30
0.0
 11
1025.3256835927
 21
-492.47336987220001
 31
0.0
  0
LINE
  5
113
  8
É}ÿg
 10
1039.3256835927
 20
-485.4733698721999
 30
0.0
 11
1042.3256835927
 21
-482.47336987220001
 31
0.0
  0
LINE
  5
114
  8
É}ÿg
 10
1076.6045276770999
 20
-491.07336987219998
 30
0.0
 11
1076.1351943438001
 21
-489.4733698721999
 31
0.0
  0
LINE
  5
115
  8
É}ÿg
 10
1030.3256835927
 20
-486.47336987220001
 30
0.0
 11
1030.3256835927
 21
-485.4733698721999
 31
0.0
  0
LINE
  5
116
  8
É}ÿg
 10
1061.3723344181001
 20
-492.17163229019991
 30
0.0
 11
1061.0161302985
 21
-492.52038857859998
 31
0.0
  0
LINE
  5
117
  8
É}ÿg
 10
1063.6468957139
 20
-485.4733698721999
 30
0.0
 11
1065.6468957139
 21
-482.47336987220001
 31
0.0
  0
LINE
  5
118
  8
É}ÿg
 10
1088.0818610105
 20
-491.07336987219998
 30
0.0
 11
1088.0818610105
 21
-494.6733698722
 31
0.0
  0
LINE
  5
119
  8
É}ÿg
 10
1065.6468957139
 20
-493.4733698721999
 30
0.0
 11
1065.6468957139
 21
-496.47336987220001
 31
0.0
  0
LINE
  5
11A
  8
É}ÿg
 10
1080.7437897226
 20
-485.87336987219999
 30
0.0
 11
1088.0818610105
 21
-485.87336987219999
 31
0.0
  0
LINE
  5
11B
  8
É}ÿg
 10
1080.7437897226
 20
-485.87336987219999
 30
0.0
 11
1080.4510012221001
 21
-484.8559120912999
 31
0.0
  0
LINE
  5
11C
  8
É}ÿg
 10
1065.6468957139
 20
-482.47336987220001
 30
0.0
 11
1047.6468957139
 21
-482.47336987220001
 31
0.0
  0
INSERT
  5
11D
  8
0
  6
CONTINUOUS
  2
*U40
 10
0.0
 20
0.0
 30
0.0
  0
LINE
  5
11E
  8
É}ÿg
 10
1078.4818610105001
 20
-497.4733698721999
 30
0.0
 11
1077.6605276770999
 21
-494.6733698722
 31
0.0
  0
LINE
  5
11F
  8
É}ÿg
 10
1031.3256835927
 20
-493.4733698721999
 30
0.0
 11
1025.3256835927
 21
-493.4733698721999
 31
0.0
  0
LINE
  5
120
  8
É}ÿg
 10
1047.6468957139
 20
-486.07336987219998
 30
0.0
 11
1057.6468957139
 21
-486.07336987219998
 31
0.0
  0
LINE
  5
121
  8
É}ÿg
 10
1074.7762256394999
 20
-443.2267158059999
 30
0.0
 11
1084.3762256395
 21
-440.82671580599998
 31
0.0
  0
CIRCLE
  5
122
  8
É}ÿg
 10
1063.8043906160999
 20
-445.62671580599999
 30
0.0
 40
4.7999999999999989
  0
INSERT
  5
123
  8
0
  6
CONTINUOUS
  2
*U41
 10
0.0
 20
0.0
 30
0.0
  0
LINE
  5
124
  8
É}ÿg
 10
1030.3256835927
 20
-489.4733698721999
 30
0.0
 11
1034.3256835927
 21
-489.4733698721999
 31
0.0
  0
LINE
  5
125
  8
É}ÿg
 10
1070.0818610105
 20
-489.4733698721999
 30
0.0
 11
1076.1351943438001
 21
-489.4733698721999
 31
0.0
  0
LINE
  5
126
  8
É}ÿg
 10
1042.3256835927
 20
-486.47336987220001
 30
0.0
 11
1039.3256835927
 21
-486.47336987220001
 31
0.0
  0
LINE
  5
127
  8
É}ÿg
 10
1039.3256835927
 20
-486.47336987220001
 30
0.0
 11
1039.3256835927
 21
-485.4733698721999
 31
0.0
  0
LINE
  5
128
  8
É}ÿg
 10
1070.0818610105
 20
-485.87336987219999
 30
0.0
 11
1075.0791943438001
 21
-485.87336987219999
 31
0.0
  0
LINE
  5
129
  8
É}ÿg
 10
1080.4510012221001
 20
-484.8559120912999
 30
0.0
 11
1082.0818610105
 21
-482.47336987220001
 31
0.0
  0
LINE
  5
12A
  8
É}ÿg
 10
1047.6468957139
 20
-496.47336987220001
 30
0.0
 11
1047.6468957139
 21
-493.4733698721999
 31
0.0
  0
LINE
  5
12B
  8
É}ÿg
 10
1097.0043906161
 20
-434.62671580599988
 30
0.0
 11
1097.0043906161
 21
-500.62671580599988
 31
0.0
  0
INSERT
  5
12C
  8
0
  6
CONTINUOUS
  2
*U42
 10
0.0
 20
0.0
 30
0.0
  0
INSERT
  5
12D
  8
0
  6
CONTINUOUS
  2
*U43
 10
0.0
 20
0.0
 30
0.0
  0
INSERT
  5
12E
  8
0
  6
CONTINUOUS
  2
*U44
 10
0.0
 20
0.0
 30
0.0
  0
LINE
  5
12F
  8
É}ÿg
 62
     5
 10
1051.4858198439999
 20
30.334867696
 30
0.0
 11
1061.385819844
 21
30.334867696
 31
0.0
  0
LINE
  5
130
  8
É}ÿg
 10
1023.0234759696
 20
-489.4733698721999
 30
0.0
 11
1025.0234759696
 21
-489.4733698721999
 31
0.0
  0
ARC
  5
131
  8
É}ÿg
 10
1052.6468957139
 20
-485.4733698721999
 30
0.0
 40
11.0
 50
322.48761197969998
 51
0.0
  0
LINE
  5
132
  8
É}ÿg
 10
1025.3256835927
 20
-496.47336987220001
 30
0.0
 11
1033.3256835927
 21
-496.47336987220001
 31
0.0
  0
LINE
  5
133
  8
É}ÿg
 10
1070.0818610105
 20
-494.6733698722
 30
0.0
 11
1077.6605276770999
 21
-494.6733698722
 31
0.0
  0
ARC
  5
134
  8
É}ÿg
 10
1031.3256835927
 20
-490.47336987220001
 30
0.0
 40
3.0
 50
270.0
 51
0.0
  0
LINE
  5
135
  8
É}ÿg
 10
1070.0818610105
 20
-491.07336987219998
 30
0.0
 11
1070.0818610105
 21
-494.6733698722
 31
0.0
  0
LINE
  5
136
  8
É}ÿg
 10
1025.3256835927
 20
-492.47336987220001
 30
0.0
 11
1030.3256835927
 21
-492.47336987220001
 31
0.0
  0
LINE
  5
137
  8
É}ÿg
 10
1056.7195206972999
 20
-489.51151168249999
 30
0.0
 11
1056.2383290846001
 21
-490.04298840359991
 31
0.0
  0
LINE
  5
138
  8
É}ÿg
 10
1084.0818610105
 20
-497.4733698721999
 30
0.0
 11
1078.4818610105001
 21
-497.4733698721999
 31
0.0
  0
LINE
  5
139
  8
É}ÿg
 10
1034.3256835927
 20
-489.4733698721999
 30
0.0
 11
1034.3256835927
 21
-490.47336987220001
 31
0.0
  0
LINE
  5
13A
  8
É}ÿg
 10
1237.0043906161
 20
-434.62671580599988
 30
0.0
 11
947.00439061609995
 21
-434.62671580599988
 31
0.0
  0
LINE
  5
13B
  8
É}ÿg
 10
1084.3762256395
 20
-440.82671580599998
 30
0.0
 11
1084.3762256395
 21
-450.426715806
 31
0.0
  0
LINE
  5
13C
  8
É}ÿg
 62
     5
 10
1056.435819844
 20
48.808519193400002
 30
0.0
 11
1051.4858198439999
 21
40.234867696000002
 31
0.0
  0
LINE
  5
13D
  8
É}ÿg
 10
1042.3256835927
 20
-482.47336987220001
 30
0.0
 11
1034.3256835927
 21
-482.47336987220001
 31
0.0
  0
LINE
  5
13E
  8
É}ÿg
 10
1039.3256835927
 20
-490.47336987220001
 30
0.0
 11
1039.3256835927
 21
-489.4733698721999
 31
0.0
  0
LINE
  5
13F
  8
É}ÿg
 10
1070.0818610105
 20
-485.87336987219999
 30
0.0
 11
1070.0818610105
 21
-489.4733698721999
 31
0.0
  0
LINE
  5
140
  8
É}ÿg
 10
1034.3256835927
 20
-486.47336987220001
 30
0.0
 11
1030.3256835927
 21
-486.47336987220001
 31
0.0
  0
LINE
  5
141
  8
É}ÿg
 10
1033.3256835927
 20
-482.47336987220001
 30
0.0
 11
1025.3256835927
 21
-482.47336987220001
 31
0.0
  0
LINE
  5
142
  8
É}ÿg
 10
1030.3256835927
 20
-485.4733698721999
 30
0.0
 11
1033.3256835927
 21
-482.47336987220001
 31
0.0
  0
LINE
  5
143
  8
É}ÿg
 10
1025.3256835927
 20
-482.47336987220001
 30
0.0
 11
1025.3256835927
 21
-486.47336987220001
 31
0.0
  0
LINE
  5
144
  8
É}ÿg
 10
1083.2761196650999
 20
-494.6733698722
 30
0.0
 11
1088.0818610105
 21
-494.6733698722
 31
0.0
  0
LINE
  5
145
  8
É}ÿg
 10
1075.0791943438001
 20
-485.87336987219999
 30
0.0
 11
1074.0818610105
 21
-482.47336987220001
 31
0.0
  0
LINE
  5
146
  8
É}ÿg
 10
1070.0818610105
 20
-491.07336987219998
 30
0.0
 11
1076.6045276770999
 21
-491.07336987219998
 31
0.0
  0
LINE
  5
147
  8
É}ÿg
 10
1082.2401665067989
 20
-491.07336987219998
 30
0.0
 11
1081.7797428808999
 21
-489.4733698721999
 31
0.0
  0
ARC
  5
148
  8
É}ÿg
 10
1050.0468957139001
 20
-485.87336987219999
 30
0.0
 40
7.5999999999999988
 50
270.0
 51
298.08590481520002
  0
INSERT
  5
149
  8
0
  6
CONTINUOUS
  2
*U45
 10
0.0
 20
0.0
 30
0.0
  0
LINE
  5
14A
  8
É}ÿg
 10
952.00439061609995
 20
-445.62671580599999
 30
0.0
 11
992.00439061609995
 21
-445.62671580599999
 31
0.0
  0
LINE
  5
14B
  8
É}ÿg
 10
997.00439061609995
 20
-434.62671580599988
 30
0.0
 11
997.00439061609995
 21
-456.62671580599988
 31
0.0
  0
LINE
  5
14C
  8
É}ÿg
 10
947.00439061609995
 20
-456.62671580599988
 30
0.0
 11
1237.0043906161
 21
-456.62671580599988
 31
0.0
  0
LINE
  5
14D
  8
É}ÿg
 10
1047.0043906161
 20
-434.62671580599988
 30
0.0
 11
1047.0043906161
 21
-456.62671580599988
 31
0.0
  0
LINE
  5
14E
  8
É}ÿg
  6
BORDER
 10
1063.8043906160999
 20
-438.426715806
 30
0.0
 11
1063.8043906160999
 21
-452.82671580599998
 31
0.0
  0
LINE
  5
14F
  8
É}ÿg
  6
BORDER
 10
1063.8043906160999
 20
-438.426715806
 30
0.0
 11
1063.8043906160999
 21
-452.82671580599998
 31
0.0
  0
LINE
  5
150
  8
É}ÿg
 10
1088.0818610105
 20
-485.87336987219999
 30
0.0
 11
1088.0818610105
 21
-489.4733698721999
 31
0.0
  0
LINE
  5
151
  8
É}ÿg
 10
1002.0043906161
 20
-445.62671580599999
 30
0.0
 11
1042.0043906161
 21
-445.62671580599999
 31
0.0
  0
INSERT
  5
152
  8
0
  6
CONTINUOUS
  2
*U46
 10
0.0
 20
0.0
 30
0.0
  0
CIRCLE
  5
153
  8
É}ÿg
 10
1063.8043906160999
 20
-445.62671580599999
 30
0.0
 40
4.7999999999999989
  0
LINE
  5
154
  8
É}ÿg
 10
1074.7762256394999
 20
-443.2267158059999
 30
0.0
 11
1084.3762256395
 21
-440.82671580599998
 31
0.0
  0
INSERT
  5
155
  8
0
  6
CONTINUOUS
  2
*U47
 10
0.0
 20
0.0
 30
0.0
  0
CIRCLE
  5
156
  8
É}ÿg
 10
1063.8043906160999
 20
-445.62671580599999
 30
0.0
 40
2.399999999999999
  0
LINE
  5
157
  8
É}ÿg
 10
1084.0818610105
 20
-497.4733698721999
 30
0.0
 11
1083.2761196650999
 21
-494.6733698722
 31
0.0
  0
LINE
  5
158
  8
É}ÿg
 10
1082.2401665067989
 20
-491.07336987219998
 30
0.0
 11
1088.0818610105
 21
-491.07336987219998
 31
0.0
  0
LINE
  5
159
  8
É}ÿg
 10
1047.6468957139
 20
-493.4733698721999
 30
0.0
 11
1050.0468957139001
 21
-493.4733698721999
 31
0.0
  0
LINE
  5
15A
  8
É}ÿg
 10
1074.0818610105
 20
-482.47336987220001
 30
0.0
 11
1082.0818610105
 21
-482.47336987220001
 31
0.0
  0
LINE
  5
15B
  8
É}ÿg
 10
1025.3256835927
 20
-486.47336987220001
 30
0.0
 11
1023.0234759696
 21
-486.47336987220001
 31
0.0
  0
LINE
  5
15C
  8
É}ÿg
 10
1047.6468957139
 20
-493.4733698721999
 30
0.0
 11
1047.6468957139
 21
-496.47336987220001
 31
0.0
  0
LINE
  5
15D
  8
É}ÿg
 10
1025.3256835927
 20
-489.4733698721999
 30
0.0
 11
1025.0234759696
 21
-489.4733698721999
 31
0.0
  0
LINE
  5
15E
  8
É}ÿg
 10
1025.3256835927
 20
-493.4733698721999
 30
0.0
 11
1025.3256835927
 21
-496.47336987220001
 31
0.0
  0
ARC
  5
15F
  8
É}ÿg
 10
1050.0468957139001
 20
-485.87336987219999
 30
0.0
 40
7.5999999999999988
 50
331.39928138329998
 51
358.49204224580001
  0
LINE
  5
160
  8
É}ÿg
 10
1039.3256835927
 20
-489.4733698721999
 30
0.0
 11
1042.3256835927
 21
-489.4733698721999
 31
0.0
  0
ARC
  5
161
  8
É}ÿg
 10
1052.6468957139
 20
-485.4733698721999
 30
0.0
 40
11.0
 50
270.0
 51
302.54495885400001
  0
LINE
  5
162
  8
É}ÿg
 10
1074.7762256394999
 20
-448.02671580600003
 30
0.0
 11
1084.3762256395
 21
-450.426715806
 31
0.0
  0
LINE
  5
163
  8
É}ÿg
 10
1074.7762256394999
 20
-443.2267158059999
 30
0.0
 11
1074.7762256394999
 21
-448.02671580600003
 31
0.0
  0
LINE
  5
164
  8
É}ÿg
 10
1084.3762256395
 20
-440.82671580599998
 30
0.0
 11
1084.3762256395
 21
-450.426715806
 31
0.0
  0
LINE
  5
165
  8
É}ÿg
 10
1055.6468957139
 20
-487.1175904072
 30
0.0
 11
1054.5155248640001
 21
-488.24896125709989
 31
0.0
  0
LINE
  5
166
  8
É}ÿg
  6
BORDER
 10
1056.6043906161001
 20
-445.62671580599999
 30
0.0
 11
1087.4043906161
 21
-445.62671580599999
 31
0.0
  0
CIRCLE
  5
167
  8
É}ÿg
 10
1063.8043906160999
 20
-445.62671580599999
 30
0.0
 40
2.399999999999999
  0
POLYLINE
  8
É}ÿg
  5
783
  66
     1
 10
0.000000
 20
0.000000
 30
0.000000
  70
     8
  0
VERTEX
  8
É}ÿg
  5
784
 10
1061.02
 20
-492.520
 30
0.000000
  70
    32
  0
VERTEX
  8
É}ÿg
  5
785
 10
1061.05
 20
-492.530
 30
0.000000
  70
    32
  0
VERTEX
  8
É}ÿg
  5
786
 10
1061.09
 20
-492.540
 30
0.000000
  70
    32
  0
VERTEX
  8
É}ÿg
  5
787
 10
1061.12
 20
-492.550
 30
0.000000
  70
    32
  0
VERTEX
  8
É}ÿg
  5
788
 10
1061.16
 20
-492.560
 30
0.000000
  70
    32
  0
VERTEX
  8
É}ÿg
  5
789
 10
1061.19
 20
-492.569
 30
0.000000
  70
    32
  0
VERTEX
  8
É}ÿg
  5
78A
 10
1061.23
 20
-492.579
 30
0.000000
  70
    32
  0
VERTEX
  8
É}ÿg
  5
78B
 10
1061.26
 20
-492.589
 30
0.000000
  70
    32
  0
VERTEX
  8
É}ÿg
  5
78C
 10
1061.30
 20
-492.598
 30
0.000000
  70
    32
  0
VERTEX
  8
É}ÿg
  5
78D
 10
1061.33
 20
-492.608
 30
0.000000
  70
    32
  0
VERTEX
  8
É}ÿg
  5
78E
 10
1061.37
 20
-492.617
 30
0.000000
  70
    32
  0
VERTEX
  8
É}ÿg
  5
78F
 10
1061.40
 20
-492.626
 30
0.000000
  70
    32
  0
VERTEX
  8
É}ÿg
  5
790
 10
1061.44
 20
-492.636
 30
0.000000
  70
    32
  0
VERTEX
  8
É}ÿg
  5
791
 10
1061.47
 20
-492.645
 30
0.000000
  70
    32
  0
VERTEX
  8
É}ÿg
  5
792
 10
1061.51
 20
-492.654
 30
0.000000
  70
    32
  0
VERTEX
  8
É}ÿg
  5
793
 10
1061.54
 20
-492.663
 30
0.000000
  70
    32
  0
VERTEX
  8
É}ÿg
  5
794
 10
1061.58
 20
-492.672
 30
0.000000
  70
    32
  0
VERTEX
  8
É}ÿg
  5
795
 10
1061.62
 20
-492.681
 30
0.000000
  70
    32
  0
VERTEX
  8
É}ÿg
  5
796
 10
1061.65
 20
-492.690
 30
0.000000
  70
    32
  0
VERTEX
  8
É}ÿg
  5
797
 10
1061.69
 20
-492.699
 30
0.000000
  70
    32
  0
VERTEX
  8
É}ÿg
  5
798
 10
1061.72
 20
-492.708
 30
0.000000
  70
    32
  0
VERTEX
  8
É}ÿg
  5
799
 10
1061.76
 20
-492.717
 30
0.000000
  70
    32
  0
VERTEX
  8
É}ÿg
  5
79A
 10
1061.79
 20
-492.726
 30
0.000000
  70
    32
  0
VERTEX
  8
É}ÿg
  5
79B
 10
1061.83
 20
-492.735
 30
0.000000
  70
    32
  0
VERTEX
  8
É}ÿg
  5
79C
 10
1061.86
 20
-492.743
 30
0.000000
  70
    32
  0
VERTEX
  8
É}ÿg
  5
79D
 10
1061.90
 20
-492.752
 30
0.000000
  70
    32
  0
VERTEX
  8
É}ÿg
  5
79E
 10
1061.94
 20
-492.761
 30
0.000000
  70
    32
  0
VERTEX
  8
É}ÿg
  5
79F
 10
1061.97
 20
-492.769
 30
0.000000
  70
    32
  0
VERTEX
  8
É}ÿg
  5
7A0
 10
1062.01
 20
-492.778
 30
0.000000
  70
    32
  0
VERTEX
  8
É}ÿg
  5
7A1
 10
1062.04
 20
-492.786
 30
0.000000
  70
    32
  0
VERTEX
  8
É}ÿg
  5
7A2
 10
1062.08
 20
-492.795
 30
0.000000
  70
    32
  0
VERTEX
  8
É}ÿg
  5
7A3
 10
1062.12
 20
-492.803
 30
0.000000
  70
    32
  0
VERTEX
  8
É}ÿg
  5
7A4
 10
1062.15
 20
-492.811
 30
0.000000
  70
    32
  0
VERTEX
  8
É}ÿg
  5
7A5
 10
1062.19
 20
-492.820
 30
0.000000
  70
    32
  0
VERTEX
  8
É}ÿg
  5
7A6
 10
1062.22
 20
-492.828
 30
0.000000
  70
    32
  0
VERTEX
  8
É}ÿg
  5
7A7
 10
1062.26
 20
-492.836
 30
0.000000
  70
    32
  0
VERTEX
  8
É}ÿg
  5
7A8
 10
1062.30
 20
-492.844
 30
0.000000
  70
    32
  0
VERTEX
  8
É}ÿg
  5
7A9
 10
1062.33
 20
-492.853
 30
0.000000
  70
    32
  0
VERTEX
  8
É}ÿg
  5
7AA
 10
1062.37
 20
-492.861
 30
0.000000
  70
    32
  0
VERTEX
  8
É}ÿg
  5
7AB
 10
1062.40
 20
-492.869
 30
0.000000
  70
    32
  0
VERTEX
  8
É}ÿg
  5
7AC
 10
1062.44
 20
-492.877
 30
0.000000
  70
    32
  0
VERTEX
  8
É}ÿg
  5
7AD
 10
1062.48
 20
-492.885
 30
0.000000
  70
    32
  0
VERTEX
  8
É}ÿg
  5
7AE
 10
1062.51
 20
-492.893
 30
0.000000
  70
    32
  0
VERTEX
  8
É}ÿg
  5
7AF
 10
1062.55
 20
-492.901
 30
0.000000
  70
    32
  0
VERTEX
  8
É}ÿg
  5
7B0
 10
1062.58
 20
-492.908
 30
0.000000
  70
    32
  0
VERTEX
  8
É}ÿg
  5
7B1
 10
1062.62
 20
-492.916
 30
0.000000
  70
    32
  0
VERTEX
  8
É}ÿg
  5
7B2
 10
1062.66
 20
-492.924
 30
0.000000
  70
    32
  0
VERTEX
  8
É}ÿg
  5
7B3
 10
1062.69
 20
-492.932
 30
0.000000
  70
    32
  0
VERTEX
  8
É}ÿg
  5
7B4
 10
1062.73
 20
-492.940
 30
0.000000
  70
    32
  0
VERTEX
  8
É}ÿg
  5
7B5
 10
1062.77
 20
-492.947
 30
0.000000
  70
    32
  0
VERTEX
  8
É}ÿg
  5
7B6
 10
1062.80
 20
-492.955
 30
0.000000
  70
    32
  0
VERTEX
  8
É}ÿg
  5
7B7
 10
1062.84
 20
-492.962
 30
0.000000
  70
    32
  0
VERTEX
  8
É}ÿg
  5
7B8
 10
1062.88
 20
-492.970
 30
0.000000
  70
    32
  0
VERTEX
  8
É}ÿg
  5
7B9
 10
1062.91
 20
-492.978
 30
0.000000
  70
    32
  0
VERTEX
  8
É}ÿg
  5
7BA
 10
1062.95
 20
-492.985
 30
0.000000
  70
    32
  0
VERTEX
  8
É}ÿg
  5
7BB
 10
1062.98
 20
-492.993
 30
0.000000
  70
    32
  0
VERTEX
  8
É}ÿg
  5
7BC
 10
1063.02
 20
-493.000
 30
0.000000
  70
    32
  0
VERTEX
  8
É}ÿg
  5
7BD
 10
1063.06
 20
-493.007
 30
0.000000
  70
    32
  0
VERTEX
  8
É}ÿg
  5
7BE
 10
1063.09
 20
-493.015
 30
0.000000
  70
    32
  0
VERTEX
  8
É}ÿg
  5
7BF
 10
1063.13
 20
-493.022
 30
0.000000
  70
    32
  0
VERTEX
  8
É}ÿg
  5
7C0
 10
1063.17
 20
-493.030
 30
0.000000
  70
    32
  0
VERTEX
  8
É}ÿg
  5
7C1
 10
1063.20
 20
-493.037
 30
0.000000
  70
    32
  0
VERTEX
  8
É}ÿg
  5
7C2
 10
1063.24
 20
-493.044
 30
0.000000
  70
    32
  0
VERTEX
  8
É}ÿg
  5
7C3
 10
1063.28
 20
-493.051
 30
0.000000
  70
    32
  0
VERTEX
  8
É}ÿg
  5
7C4
 10
1063.31
 20
-493.058
 30
0.000000
  70
    32
  0
VERTEX
  8
É}ÿg
  5
7C5
 10
1063.35
 20
-493.066
 30
0.000000
  70
    32
  0
VERTEX
  8
É}ÿg
  5
7C6
 10
1063.39
 20
-493.073
 30
0.000000
  70
    32
  0
VERTEX
  8
É}ÿg
  5
7C7
 10
1063.42
 20
-493.080
 30
0.000000
  70
    32
  0
VERTEX
  8
É}ÿg
  5
7C8
 10
1063.46
 20
-493.087
 30
0.000000
  70
    32
  0
VERTEX
  8
É}ÿg
  5
7C9
 10
1063.50
 20
-493.094
 30
0.000000
  70
    32
  0
VERTEX
  8
É}ÿg
  5
7CA
 10
1063.53
 20
-493.101
 30
0.000000
  70
    32
  0
VERTEX
  8
É}ÿg
  5
7CB
 10
1063.57
 20
-493.108
 30
0.000000
  70
    32
  0
VERTEX
  8
É}ÿg
  5
7CC
 10
1063.61
 20
-493.115
 30
0.000000
  70
    32
  0
VERTEX
  8
É}ÿg
  5
7CD
 10
1063.64
 20
-493.122
 30
0.000000
  70
    32
  0
VERTEX
  8
É}ÿg
  5
7CE
 10
1063.68
 20
-493.129
 30
0.000000
  70
    32
  0
VERTEX
  8
É}ÿg
  5
7CF
 10
1063.72
 20
-493.136
 30
0.000000
  70
    32
  0
VERTEX
  8
É}ÿg
  5
7D0
 10
1063.75
 20
-493.143
 30
0.000000
  70
    32
  0
VERTEX
  8
É}ÿg
  5
7D1
 10
1063.79
 20
-493.150
 30
0.000000
  70
    32
  0
VERTEX
  8
É}ÿg
  5
7D2
 10
1063.83
 20
-493.156
 30
0.000000
  70
    32
  0
VERTEX
  8
É}ÿg
  5
7D3
 10
1063.87
 20
-493.163
 30
0.000000
  70
    32
  0
VERTEX
  8
É}ÿg
  5
7D4
 10
1063.90
 20
-493.170
 30
0.000000
  70
    32
  0
VERTEX
  8
É}ÿg
  5
7D5
 10
1063.94
 20
-493.177
 30
0.000000
  70
    32
  0
VERTEX
  8
É}ÿg
  5
7D6
 10
1063.98
 20
-493.184
 30
0.000000
  70
    32
  0
VERTEX
  8
É}ÿg
  5
7D7
 10
1064.01
 20
-493.190
 30
0.000000
  70
    32
  0
VERTEX
  8
É}ÿg
  5
7D8
 10
1064.05
 20
-493.197
 30
0.000000
  70
    32
  0
VERTEX
  8
É}ÿg
  5
7D9
 10
1064.09
 20
-493.204
 30
0.000000
  70
    32
  0
VERTEX
  8
É}ÿg
  5
7DA
 10
1064.12
 20
-493.210
 30
0.000000
  70
    32
  0
VERTEX
  8
É}ÿg
  5
7DB
 10
1064.16
 20
-493.217
 30
0.000000
  70
    32
  0
VERTEX
  8
É}ÿg
  5
7DC
 10
1064.20
 20
-493.224
 30
0.000000
  70
    32
  0
VERTEX
  8
É}ÿg
  5
7DD
 10
1064.24
 20
-493.230
 30
0.000000
  70
    32
  0
VERTEX
  8
É}ÿg
  5
7DE
 10
1064.27
 20
-493.237
 30
0.000000
  70
    32
  0
VERTEX
  8
É}ÿg
  5
7DF
 10
1064.31
 20
-493.244
 30
0.000000
  70
    32
  0
VERTEX
  8
É}ÿg
  5
7E0
 10
1064.35
 20
-493.250
 30
0.000000
  70
    32
  0
VERTEX
  8
É}ÿg
  5
7E1
 10
1064.38
 20
-493.257
 30
0.000000
  70
    32
  0
VERTEX
  8
É}ÿg
  5
7E2
 10
1064.42
 20
-493.263
 30
0.000000
  70
    32
  0
VERTEX
  8
É}ÿg
  5
7E3
 10
1064.46
 20
-493.270
 30
0.000000
  70
    32
  0
VERTEX
  8
É}ÿg
  5
7E4
 10
1064.49
 20
-493.276
 30
0.000000
  70
    32
  0
VERTEX
  8
É}ÿg
  5
7E5
 10
1064.53
 20
-493.283
 30
0.000000
  70
    32
  0
VERTEX
  8
É}ÿg
  5
7E6
 10
1064.57
 20
-493.289
 30
0.000000
  70
    32
  0
VERTEX
  8
É}ÿg
  5
7E7
 10
1064.61
 20
-493.296
 30
0.000000
  70
    32
  0
VERTEX
  8
É}ÿg
  5
7E8
 10
1064.64
 20
-493.302
 30
0.000000
  70
    32
  0
VERTEX
  8
É}ÿg
  5
7E9
 10
1064.68
 20
-493.309
 30
0.000000
  70
    32
  0
VERTEX
  8
É}ÿg
  5
7EA
 10
1064.72
 20
-493.315
 30
0.000000
  70
    32
  0
VERTEX
  8
É}ÿg
  5
7EB
 10
1064.75
 20
-493.321
 30
0.000000
  70
    32
  0
VERTEX
  8
É}ÿg
  5
7EC
 10
1064.79
 20
-493.328
 30
0.000000
  70
    32
  0
VERTEX
  8
É}ÿg
  5
7ED
 10
1064.83
 20
-493.334
 30
0.000000
  70
    32
  0
VERTEX
  8
É}ÿg
  5
7EE
 10
1064.87
 20
-493.341
 30
0.000000
  70
    32
  0
VERTEX
  8
É}ÿg
  5
7EF
 10
1064.90
 20
-493.347
 30
0.000000
  70
    32
  0
VERTEX
  8
É}ÿg
  5
7F0
 10
1064.94
 20
-493.353
 30
0.000000
  70
    32
  0
VERTEX
  8
É}ÿg
  5
7F1
 10
1064.98
 20
-493.360
 30
0.000000
  70
    32
  0
VERTEX
  8
É}ÿg
  5
7F2
 10
1065.01
 20
-493.366
 30
0.000000
  70
    32
  0
VERTEX
  8
É}ÿg
  5
7F3
 10
1065.05
 20
-493.372
 30
0.000000
  70
    32
  0
VERTEX
  8
É}ÿg
  5
7F4
 10
1065.09
 20
-493.379
 30
0.000000
  70
    32
  0
VERTEX
  8
É}ÿg
  5
7F5
 10
1065.13
 20
-493.385
 30
0.000000
  70
    32
  0
VERTEX
  8
É}ÿg
  5
7F6
 10
1065.16
 20
-493.391
 30
0.000000
  70
    32
  0
VERTEX
  8
É}ÿg
  5
7F7
 10
1065.20
 20
-493.398
 30
0.000000
  70
    32
  0
VERTEX
  8
É}ÿg
  5
7F8
 10
1065.24
 20
-493.404
 30
0.000000
  70
    32
  0
VERTEX
  8
É}ÿg
  5
7F9
 10
1065.27
 20
-493.410
 30
0.000000
  70
    32
  0
VERTEX
  8
É}ÿg
  5
7FA
 10
1065.31
 20
-493.417
 30
0.000000
  70
    32
  0
VERTEX
  8
É}ÿg
  5
7FB
 10
1065.35
 20
-493.423
 30
0.000000
  70
    32
  0
VERTEX
  8
É}ÿg
  5
7FC
 10
1065.39
 20
-493.429
 30
0.000000
  70
    32
  0
VERTEX
  8
É}ÿg
  5
7FD
 10
1065.42
 20
-493.436
 30
0.000000
  70
    32
  0
VERTEX
  8
É}ÿg
  5
7FE
 10
1065.46
 20
-493.442
 30
0.000000
  70
    32
  0
VERTEX
  8
É}ÿg
  5
7FF
 10
1065.50
 20
-493.448
 30
0.000000
  70
    32
  0
VERTEX
  8
É}ÿg
  5
800
 10
1065.54
 20
-493.455
 30
0.000000
  70
    32
  0
VERTEX
  8
É}ÿg
  5
801
 10
1065.57
 20
-493.461
 30
0.000000
  70
    32
  0
VERTEX
  8
É}ÿg
  5
802
 10
1065.61
 20
-493.467
 30
0.000000
  70
    32
  0
VERTEX
  8
É}ÿg
  5
803
 10
1065.65
 20
-493.473
 30
0.000000
  70
    32
  0
SEQEND
  8
É}ÿg
  5
804
  0
POLYLINE
  8
É}ÿg
  5
805
  66
     1
 10
0.000000
 20
0.000000
 30
0.000000
  70
     8
  0
VERTEX
  8
É}ÿg
  5
806
 10
1054.52
 20
-488.249
 30
0.000000
  70
    32
  0
VERTEX
  8
É}ÿg
  5
807
 10
1054.53
 20
-488.264
 30
0.000000
  70
    32
  0
VERTEX
  8
É}ÿg
  5
808
 10
1054.54
 20
-488.278
 30
0.000000
  70
    32
  0
VERTEX
  8
É}ÿg
  5
809
 10
1054.56
 20
-488.293
 30
0.000000
  70
    32
  0
VERTEX
  8
É}ÿg
  5
80A
 10
1054.57
 20
-488.308
 30
0.000000
  70
    32
  0
VERTEX
  8
É}ÿg
  5
80B
 10
1054.58
 20
-488.323
 30
0.000000
  70
    32
  0
VERTEX
  8
É}ÿg
  5
80C
 10
1054.59
 20
-488.337
 30
0.000000
  70
    32
  0
VERTEX
  8
É}ÿg
  5
80D
 10
1054.61
 20
-488.352
 30
0.000000
  70
    32
  0
VERTEX
  8
É}ÿg
  5
80E
 10
1054.62
 20
-488.367
 30
0.000000
  70
    32
  0
VERTEX
  8
É}ÿg
  5
80F
 10
1054.63
 20
-488.381
 30
0.000000
  70
    32
  0
VERTEX
  8
É}ÿg
  5
810
 10
1054.65
 20
-488.396
 30
0.000000
  70
    32
  0
VERTEX
  8
É}ÿg
  5
811
 10
1054.66
 20
-488.411
 30
0.000000
  70
    32
  0
VERTEX
  8
É}ÿg
  5
812
 10
1054.67
 20
-488.425
 30
0.000000
  70
    32
  0
VERTEX
  8
É}ÿg
  5
813
 10
1054.69
 20
-488.440
 30
0.000000
  70
    32
  0
VERTEX
  8
É}ÿg
  5
814
 10
1054.70
 20
-488.455
 30
0.000000
  70
    32
  0
VERTEX
  8
É}ÿg
  5
815
 10
1054.71
 20
-488.470
 30
0.000000
  70
    32
  0
VERTEX
  8
É}ÿg
  5
816
 10
1054.73
 20
-488.484
 30
0.000000
  70
    32
  0
VERTEX
  8
É}ÿg
  5
817
 10
1054.74
 20
-488.499
 30
0.000000
  70
    32
  0
VERTEX
  8
É}ÿg
  5
818
 10
1054.75
 20
-488.514
 30
0.000000
  70
    32
  0
VERTEX
  8
É}ÿg
  5
819
 10
1054.77
 20
-488.528
 30
0.000000
  70
    32
  0
VERTEX
  8
É}ÿg
  5
81A
 10
1054.78
 20
-488.543
 30
0.000000
  70
    32
  0
VERTEX
  8
É}ÿg
  5
81B
 10
1054.79
 20
-488.558
 30
0.000000
  70
    32
  0
VERTEX
  8
É}ÿg
  5
81C
 10
1054.81
 20
-488.572
 30
0.000000
  70
    32
  0
VERTEX
  8
É}ÿg
  5
81D
 10
1054.82
 20
-488.587
 30
0.000000
  70
    32
  0
VERTEX
  8
É}ÿg
  5
81E
 10
1054.83
 20
-488.602
 30
0.000000
  70
    32
  0
VERTEX
  8
É}ÿg
  5
81F
 10
1054.85
 20
-488.616
 30
0.000000
  70
    32
  0
VERTEX
  8
É}ÿg
  5
820
 10
1054.86
 20
-488.631
 30
0.000000
  70
    32
  0
VERTEX
  8
É}ÿg
  5
821
 10
1054.87
 20
-488.646
 30
0.000000
  70
    32
  0
VERTEX
  8
É}ÿg
  5
822
 10
1054.89
 20
-488.660
 30
0.000000
  70
    32
  0
VERTEX
  8
É}ÿg
  5
823
 10
1054.90
 20
-488.675
 30
0.000000
  70
    32
  0
VERTEX
  8
É}ÿg
  5
824
 10
1054.91
 20
-488.689
 30
0.000000
  70
    32
  0
VERTEX
  8
É}ÿg
  5
825
 10
1054.93
 20
-488.704
 30
0.000000
  70
    32
  0
VERTEX
  8
É}ÿg
  5
826
 10
1054.94
 20
-488.719
 30
0.000000
  70
    32
  0
VERTEX
  8
É}ÿg
  5
827
 10
1054.95
 20
-488.733
 30
0.000000
  70
    32
  0
VERTEX
  8
É}ÿg
  5
828
 10
1054.97
 20
-488.748
 30
0.000000
  70
    32
  0
VERTEX
  8
É}ÿg
  5
829
 10
1054.98
 20
-488.762
 30
0.000000
  70
    32
  0
VERTEX
  8
É}ÿg
  5
82A
 10
1054.99
 20
-488.777
 30
0.000000
  70
    32
  0
VERTEX
  8
É}ÿg
  5
82B
 10
1055.01
 20
-488.792
 30
0.000000
  70
    32
  0
VERTEX
  8
É}ÿg
  5
82C
 10
1055.02
 20
-488.806
 30
0.000000
  70
    32
  0
VERTEX
  8
É}ÿg
  5
82D
 10
1055.03
 20
-488.821
 30
0.000000
  70
    32
  0
VERTEX
  8
É}ÿg
  5
82E
 10
1055.04
 20
-488.835
 30
0.000000
  70
    32
  0
VERTEX
  8
É}ÿg
  5
82F
 10
1055.06
 20
-488.850
 30
0.000000
  70
    32
  0
VERTEX
  8
É}ÿg
  5
830
 10
1055.07
 20
-488.864
 30
0.000000
  70
    32
  0
VERTEX
  8
É}ÿg
  5
831
 10
1055.08
 20
-488.879
 30
0.000000
  70
    32
  0
VERTEX
  8
É}ÿg
  5
832
 10
1055.10
 20
-488.893
 30
0.000000
  70
    32
  0
VERTEX
  8
É}ÿg
  5
833
 10
1055.11
 20
-488.908
 30
0.000000
  70
    32
  0
VERTEX
  8
É}ÿg
  5
834
 10
1055.12
 20
-488.922
 30
0.000000
  70
    32
  0
VERTEX
  8
É}ÿg
  5
835
 10
1055.14
 20
-488.937
 30
0.000000
  70
    32
  0
VERTEX
  8
É}ÿg
  5
836
 10
1055.15
 20
-488.951
 30
0.000000
  70
    32
  0
VERTEX
  8
É}ÿg
  5
837
 10
1055.16
 20
-488.966
 30
0.000000
  70
    32
  0
VERTEX
  8
É}ÿg
  5
838
 10
1055.18
 20
-488.980
 30
0.000000
  70
    32
  0
VERTEX
  8
É}ÿg
  5
839
 10
1055.19
 20
-488.995
 30
0.000000
  70
    32
  0
VERTEX
  8
É}ÿg
  5
83A
 10
1055.21
 20
-489.009
 30
0.000000
  70
    32
  0
VERTEX
  8
É}ÿg
  5
83B
 10
1055.22
 20
-489.023
 30
0.000000
  70
    32
  0
VERTEX
  8
É}ÿg
  5
83C
 10
1055.23
 20
-489.038
 30
0.000000
  70
    32
  0
VERTEX
  8
É}ÿg
  5
83D
 10
1055.25
 20
-489.052
 30
0.000000
  70
    32
  0
VERTEX
  8
É}ÿg
  5
83E
 10
1055.26
 20
-489.067
 30
0.000000
  70
    32
  0
VERTEX
  8
É}ÿg
  5
83F
 10
1055.27
 20
-489.081
 30
0.000000
  70
    32
  0
VERTEX
  8
É}ÿg
  5
840
 10
1055.29
 20
-489.095
 30
0.000000
  70
    32
  0
VERTEX
  8
É}ÿg
  5
841
 10
1055.30
 20
-489.110
 30
0.000000
  70
    32
  0
VERTEX
  8
É}ÿg
  5
842
 10
1055.31
 20
-489.124
 30
0.000000
  70
    32
  0
VERTEX
  8
É}ÿg
  5
843
 10
1055.33
 20
-489.138
 30
0.000000
  70
    32
  0
VERTEX
  8
É}ÿg
  5
844
 10
1055.34
 20
-489.153
 30
0.000000
  70
    32
  0
VERTEX
  8
É}ÿg
  5
845
 10
1055.35
 20
-489.167
 30
0.000000
  70
    32
  0
VERTEX
  8
É}ÿg
  5
846
 10
1055.37
 20
-489.181
 30
0.000000
  70
    32
  0
VERTEX
  8
É}ÿg
  5
847
 10
1055.38
 20
-489.195
 30
0.000000
  70
    32
  0
VERTEX
  8
É}ÿg
  5
848
 10
1055.39
 20
-489.210
 30
0.000000
  70
    32
  0
VERTEX
  8
É}ÿg
  5
849
 10
1055.41
 20
-489.224
 30
0.000000
  70
    32
  0
VERTEX
  8
É}ÿg
  5
84A
 10
1055.42
 20
-489.238
 30
0.000000
  70
    32
  0
VERTEX
  8
É}ÿg
  5
84B
 10
1055.43
 20
-489.252
 30
0.000000
  70
    32
  0
VERTEX
  8
É}ÿg
  5
84C
 10
1055.45
 20
-489.267
 30
0.000000
  70
    32
  0
VERTEX
  8
É}ÿg
  5
84D
 10
1055.46
 20
-489.281
 30
0.000000
  70
    32
  0
VERTEX
  8
É}ÿg
  5
84E
 10
1055.47
 20
-489.295
 30
0.000000
  70
    32
  0
VERTEX
  8
É}ÿg
  5
84F
 10
1055.49
 20
-489.309
 30
0.000000
  70
    32
  0
VERTEX
  8
É}ÿg
  5
850
 10
1055.50
 20
-489.323
 30
0.000000
  70
    32
  0
VERTEX
  8
É}ÿg
  5
851
 10
1055.52
 20
-489.337
 30
0.000000
  70
    32
  0
VERTEX
  8
É}ÿg
  5
852
 10
1055.53
 20
-489.351
 30
0.000000
  70
    32
  0
VERTEX
  8
É}ÿg
  5
853
 10
1055.54
 20
-489.365
 30
0.000000
  70
    32
  0
VERTEX
  8
É}ÿg
  5
854
 10
1055.56
 20
-489.379
 30
0.000000
  70
    32
  0
VERTEX
  8
É}ÿg
  5
855
 10
1055.57
 20
-489.394
 30
0.000000
  70
    32
  0
VERTEX
  8
É}ÿg
  5
856
 10
1055.58
 20
-489.408
 30
0.000000
  70
    32
  0
VERTEX
  8
É}ÿg
  5
857
 10
1055.60
 20
-489.422
 30
0.000000
  70
    32
  0
VERTEX
  8
É}ÿg
  5
858
 10
1055.61
 20
-489.436
 30
0.000000
  70
    32
  0
VERTEX
  8
É}ÿg
  5
859
 10
1055.62
 20
-489.450
 30
0.000000
  70
    32
  0
VERTEX
  8
É}ÿg
  5
85A
 10
1055.64
 20
-489.463
 30
0.000000
  70
    32
  0
VERTEX
  8
É}ÿg
  5
85B
 10
1055.65
 20
-489.477
 30
0.000000
  70
    32
  0
VERTEX
  8
É}ÿg
  5
85C
 10
1055.67
 20
-489.491
 30
0.000000
  70
    32
  0
VERTEX
  8
É}ÿg
  5
85D
 10
1055.68
 20
-489.505
 30
0.000000
  70
    32
  0
VERTEX
  8
É}ÿg
  5
85E
 10
1055.69
 20
-489.519
 30
0.000000
  70
    32
  0
VERTEX
  8
É}ÿg
  5
85F
 10
1055.71
 20
-489.533
 30
0.000000
  70
    32
  0
VERTEX
  8
É}ÿg
  5
860
 10
1055.72
 20
-489.547
 30
0.000000
  70
    32
  0
VERTEX
  8
É}ÿg
  5
861
 10
1055.73
 20
-489.561
 30
0.000000
  70
    32
  0
VERTEX
  8
É}ÿg
  5
862
 10
1055.75
 20
-489.574
 30
0.000000
  70
    32
  0
VERTEX
  8
É}ÿg
  5
863
 10
1055.76
 20
-489.588
 30
0.000000
  70
    32
  0
VERTEX
  8
É}ÿg
  5
864
 10
1055.78
 20
-489.602
 30
0.000000
  70
    32
  0
VERTEX
  8
É}ÿg
  5
865
 10
1055.79
 20
-489.616
 30
0.000000
  70
    32
  0
VERTEX
  8
É}ÿg
  5
866
 10
1055.80
 20
-489.629
 30
0.000000
  70
    32
  0
VERTEX
  8
É}ÿg
  5
867
 10
1055.82
 20
-489.643
 30
0.000000
  70
    32
  0
VERTEX
  8
É}ÿg
  5
868
 10
1055.83
 20
-489.657
 30
0.000000
  70
    32
  0
VERTEX
  8
É}ÿg
  5
869
 10
1055.84
 20
-489.670
 30
0.000000
  70
    32
  0
VERTEX
  8
É}ÿg
  5
86A
 10
1055.86
 20
-489.684
 30
0.000000
  70
    32
  0
VERTEX
  8
É}ÿg
  5
86B
 10
1055.87
 20
-489.698
 30
0.000000
  70
    32
  0
VERTEX
  8
É}ÿg
  5
86C
 10
1055.89
 20
-489.711
 30
0.000000
  70
    32
  0
VERTEX
  8
É}ÿg
  5
86D
 10
1055.90
 20
-489.725
 30
0.000000
  70
    32
  0
VERTEX
  8
É}ÿg
  5
86E
 10
1055.91
 20
-489.738
 30
0.000000
  70
    32
  0
VERTEX
  8
É}ÿg
  5
86F
 10
1055.93
 20
-489.752
 30
0.000000
  70
    32
  0
VERTEX
  8
É}ÿg
  5
870
 10
1055.94
 20
-489.765
 30
0.000000
  70
    32
  0
VERTEX
  8
É}ÿg
  5
871
 10
1055.96
 20
-489.779
 30
0.000000
  70
    32
  0
VERTEX
  8
É}ÿg
  5
872
 10
1055.97
 20
-489.792
 30
0.000000
  70
    32
  0
VERTEX
  8
É}ÿg
  5
873
 10
1055.98
 20
-489.806
 30
0.000000
  70
    32
  0
VERTEX
  8
É}ÿg
  5
874
 10
1056.00
 20
-489.819
 30
0.000000
  70
    32
  0
VERTEX
  8
É}ÿg
  5
875
 10
1056.01
 20
-489.832
 30
0.000000
  70
    32
  0
VERTEX
  8
É}ÿg
  5
876
 10
1056.03
 20
-489.846
 30
0.000000
  70
    32
  0
VERTEX
  8
É}ÿg
  5
877
 10
1056.04
 20
-489.859
 30
0.000000
  70
    32
  0
VERTEX
  8
É}ÿg
  5
878
 10
1056.05
 20
-489.872
 30
0.000000
  70
    32
  0
VERTEX
  8
É}ÿg
  5
879
 10
1056.07
 20
-489.886
 30
0.000000
  70
    32
  0
VERTEX
  8
É}ÿg
  5
87A
 10
1056.08
 20
-489.899
 30
0.000000
  70
    32
  0
VERTEX
  8
É}ÿg
  5
87B
 10
1056.10
 20
-489.912
 30
0.000000
  70
    32
  0
VERTEX
  8
É}ÿg
  5
87C
 10
1056.11
 20
-489.925
 30
0.000000
  70
    32
  0
VERTEX
  8
É}ÿg
  5
87D
 10
1056.12
 20
-489.939
 30
0.000000
  70
    32
  0
VERTEX
  8
É}ÿg
  5
87E
 10
1056.14
 20
-489.952
 30
0.000000
  70
    32
  0
VERTEX
  8
É}ÿg
  5
87F
 10
1056.15
 20
-489.965
 30
0.000000
  70
    32
  0
VERTEX
  8
É}ÿg
  5
880
 10
1056.17
 20
-489.978
 30
0.000000
  70
    32
  0
VERTEX
  8
É}ÿg
  5
881
 10
1056.18
 20
-489.991
 30
0.000000
  70
    32
  0
VERTEX
  8
É}ÿg
  5
882
 10
1056.20
 20
-490.004
 30
0.000000
  70
    32
  0
VERTEX
  8
É}ÿg
  5
883
 10
1056.21
 20
-490.017
 30
0.000000
  70
    32
  0
VERTEX
  8
É}ÿg
  5
884
 10
1056.22
 20
-490.030
 30
0.000000
  70
    32
  0
VERTEX
  8
É}ÿg
  5
885
 10
1056.24
 20
-490.043
 30
0.000000
  70
    32
  0
SEQEND
  8
É}ÿg
  5
886
  0
POLYLINE
  8
É}ÿg
  5
887
  66
     1
 10
0.000000
 20
0.000000
 30
0.000000
  70
     8
  0
VERTEX
  8
É}ÿg
  5
888
 10
1058.56
 20
-494.746
 30
0.000000
  70
    32
  0
VERTEX
  8
É}ÿg
  5
889
 10
1058.62
 20
-494.763
 30
0.000000
  70
    32
  0
VERTEX
  8
É}ÿg
  5
88A
 10
1058.67
 20
-494.780
 30
0.000000
  70
    32
  0
VERTEX
  8
É}ÿg
  5
88B
 10
1058.73
 20
-494.797
 30
0.000000
  70
    32
  0
VERTEX
  8
É}ÿg
  5
88C
 10
1058.78
 20
-494.814
 30
0.000000
  70
    32
  0
VERTEX
  8
É}ÿg
  5
88D
 10
1058.83
 20
-494.831
 30
0.000000
  70
    32
  0
VERTEX
  8
É}ÿg
  5
88E
 10
1058.89
 20
-494.848
 30
0.000000
  70
    32
  0
VERTEX
  8
É}ÿg
  5
88F
 10
1058.94
 20
-494.864
 30
0.000000
  70
    32
  0
VERTEX
  8
É}ÿg
  5
890
 10
1059.00
 20
-494.881
 30
0.000000
  70
    32
  0
VERTEX
  8
É}ÿg
  5
891
 10
1059.05
 20
-494.898
 30
0.000000
  70
    32
  0
VERTEX
  8
É}ÿg
  5
892
 10
1059.10
 20
-494.914
 30
0.000000
  70
    32
  0
VERTEX
  8
É}ÿg
  5
893
 10
1059.16
 20
-494.930
 30
0.000000
  70
    32
  0
VERTEX
  8
É}ÿg
  5
894
 10
1059.21
 20
-494.947
 30
0.000000
  70
    32
  0
VERTEX
  8
É}ÿg
  5
895
 10
1059.27
 20
-494.963
 30
0.000000
  70
    32
  0
VERTEX
  8
É}ÿg
  5
896
 10
1059.32
 20
-494.979
 30
0.000000
  70
    32
  0
VERTEX
  8
É}ÿg
  5
897
 10
1059.38
 20
-494.995
 30
0.000000
  70
    32
  0
VERTEX
  8
É}ÿg
  5
898
 10
1059.43
 20
-495.011
 30
0.000000
  70
    32
  0
VERTEX
  8
É}ÿg
  5
899
 10
1059.49
 20
-495.027
 30
0.000000
  70
    32
  0
VERTEX
  8
É}ÿg
  5
89A
 10
1059.54
 20
-495.043
 30
0.000000
  70
    32
  0
VERTEX
  8
É}ÿg
  5
89B
 10
1059.59
 20
-495.058
 30
0.000000
  70
    32
  0
VERTEX
  8
É}ÿg
  5
89C
 10
1059.65
 20
-495.074
 30
0.000000
  70
    32
  0
VERTEX
  8
É}ÿg
  5
89D
 10
1059.70
 20
-495.090
 30
0.000000
  70
    32
  0
VERTEX
  8
É}ÿg
  5
89E
 10
1059.76
 20
-495.105
 30
0.000000
  70
    32
  0
VERTEX
  8
É}ÿg
  5
89F
 10
1059.81
 20
-495.121
 30
0.000000
  70
    32
  0
VERTEX
  8
É}ÿg
  5
8A0
 10
1059.87
 20
-495.136
 30
0.000000
  70
    32
  0
VERTEX
  8
É}ÿg
  5
8A1
 10
1059.92
 20
-495.151
 30
0.000000
  70
    32
  0
VERTEX
  8
É}ÿg
  5
8A2
 10
1059.98
 20
-495.167
 30
0.000000
  70
    32
  0
VERTEX
  8
É}ÿg
  5
8A3
 10
1060.03
 20
-495.182
 30
0.000000
  70
    32
  0
VERTEX
  8
É}ÿg
  5
8A4
 10
1060.09
 20
-495.197
 30
0.000000
  70
    32
  0
VERTEX
  8
É}ÿg
  5
8A5
 10
1060.14
 20
-495.212
 30
0.000000
  70
    32
  0
VERTEX
  8
É}ÿg
  5
8A6
 10
1060.20
 20
-495.227
 30
0.000000
  70
    32
  0
VERTEX
  8
É}ÿg
  5
8A7
 10
1060.25
 20
-495.242
 30
0.000000
  70
    32
  0
VERTEX
  8
É}ÿg
  5
8A8
 10
1060.31
 20
-495.257
 30
0.000000
  70
    32
  0
VERTEX
  8
É}ÿg
  5
8A9
 10
1060.36
 20
-495.272
 30
0.000000
  70
    32
  0
VERTEX
  8
É}ÿg
  5
8AA
 10
1060.42
 20
-495.286
 30
0.000000
  70
    32
  0
VERTEX
  8
É}ÿg
  5
8AB
 10
1060.47
 20
-495.301
 30
0.000000
  70
    32
  0
VERTEX
  8
É}ÿg
  5
8AC
 10
1060.53
 20
-495.316
 30
0.000000
  70
    32
  0
VERTEX
  8
É}ÿg
  5
8AD
 10
1060.58
 20
-495.330
 30
0.000000
  70
    32
  0
VERTEX
  8
É}ÿg
  5
8AE
 10
1060.64
 20
-495.345
 30
0.000000
  70
    32
  0
VERTEX
  8
É}ÿg
  5
8AF
 10
1060.69
 20
-495.359
 30
0.000000
  70
    32
  0
VERTEX
  8
É}ÿg
  5
8B0
 10
1060.75
 20
-495.373
 30
0.000000
  70
    32
  0
VERTEX
  8
É}ÿg
  5
8B1
 10
1060.81
 20
-495.388
 30
0.000000
  70
    32
  0
VERTEX
  8
É}ÿg
  5
8B2
 10
1060.86
 20
-495.402
 30
0.000000
  70
    32
  0
VERTEX
  8
É}ÿg
  5
8B3
 10
1060.92
 20
-495.416
 30
0.000000
  70
    32
  0
VERTEX
  8
É}ÿg
  5
8B4
 10
1060.97
 20
-495.430
 30
0.000000
  70
    32
  0
VERTEX
  8
É}ÿg
  5
8B5
 10
1061.03
 20
-495.444
 30
0.000000
  70
    32
  0
VERTEX
  8
É}ÿg
  5
8B6
 10
1061.08
 20
-495.458
 30
0.000000
  70
    32
  0
VERTEX
  8
É}ÿg
  5
8B7
 10
1061.14
 20
-495.472
 30
0.000000
  70
    32
  0
VERTEX
  8
É}ÿg
  5
8B8
 10
1061.19
 20
-495.486
 30
0.000000
  70
    32
  0
VERTEX
  8
É}ÿg
  5
8B9
 10
1061.25
 20
-495.500
 30
0.000000
  70
    32
  0
VERTEX
  8
É}ÿg
  5
8BA
 10
1061.31
 20
-495.514
 30
0.000000
  70
    32
  0
VERTEX
  8
É}ÿg
  5
8BB
 10
1061.36
 20
-495.528
 30
0.000000
  70
    32
  0
VERTEX
  8
É}ÿg
  5
8BC
 10
1061.42
 20
-495.541
 30
0.000000
  70
    32
  0
VERTEX
  8
É}ÿg
  5
8BD
 10
1061.47
 20
-495.555
 30
0.000000
  70
    32
  0
VERTEX
  8
É}ÿg
  5
8BE
 10
1061.53
 20
-495.569
 30
0.000000
  70
    32
  0
VERTEX
  8
É}ÿg
  5
8BF
 10
1061.58
 20
-495.582
 30
0.000000
  70
    32
  0
VERTEX
  8
É}ÿg
  5
8C0
 10
1061.64
 20
-495.596
 30
0.000000
  70
    32
  0
VERTEX
  8
É}ÿg
  5
8C1
 10
1061.70
 20
-495.609
 30
0.000000
  70
    32
  0
VERTEX
  8
É}ÿg
  5
8C2
 10
1061.75
 20
-495.623
 30
0.000000
  70
    32
  0
VERTEX
  8
É}ÿg
  5
8C3
 10
1061.81
 20
-495.636
 30
0.000000
  70
    32
  0
VERTEX
  8
É}ÿg
  5
8C4
 10
1061.86
 20
-495.649
 30
0.000000
  70
    32
  0
VERTEX
  8
É}ÿg
  5
8C5
 10
1061.92
 20
-495.663
 30
0.000000
  70
    32
  0
VERTEX
  8
É}ÿg
  5
8C6
 10
1061.98
 20
-495.676
 30
0.000000
  70
    32
  0
VERTEX
  8
É}ÿg
  5
8C7
 10
1062.03
 20
-495.689
 30
0.000000
  70
    32
  0
VERTEX
  8
É}ÿg
  5
8C8
 10
1062.09
 20
-495.702
 30
0.000000
  70
    32
  0
VERTEX
  8
É}ÿg
  5
8C9
 10
1062.14
 20
-495.715
 30
0.000000
  70
    32
  0
VERTEX
  8
É}ÿg
  5
8CA
 10
1062.20
 20
-495.728
 30
0.000000
  70
    32
  0
VERTEX
  8
É}ÿg
  5
8CB
 10
1062.26
 20
-495.741
 30
0.000000
  70
    32
  0
VERTEX
  8
É}ÿg
  5
8CC
 10
1062.31
 20
-495.754
 30
0.000000
  70
    32
  0
VERTEX
  8
É}ÿg
  5
8CD
 10
1062.37
 20
-495.767
 30
0.000000
  70
    32
  0
VERTEX
  8
É}ÿg
  5
8CE
 10
1062.42
 20
-495.780
 30
0.000000
  70
    32
  0
VERTEX
  8
É}ÿg
  5
8CF
 10
1062.48
 20
-495.793
 30
0.000000
  70
    32
  0
VERTEX
  8
É}ÿg
  5
8D0
 10
1062.54
 20
-495.806
 30
0.000000
  70
    32
  0
VERTEX
  8
É}ÿg
  5
8D1
 10
1062.59
 20
-495.819
 30
0.000000
  70
    32
  0
VERTEX
  8
É}ÿg
  5
8D2
 10
1062.65
 20
-495.832
 30
0.000000
  70
    32
  0
VERTEX
  8
É}ÿg
  5
8D3
 10
1062.70
 20
-495.844
 30
0.000000
  70
    32
  0
VERTEX
  8
É}ÿg
  5
8D4
 10
1062.76
 20
-495.857
 30
0.000000
  70
    32
  0
VERTEX
  8
É}ÿg
  5
8D5
 10
1062.82
 20
-495.870
 30
0.000000
  70
    32
  0
VERTEX
  8
É}ÿg
  5
8D6
 10
1062.87
 20
-495.882
 30
0.000000
  70
    32
  0
VERTEX
  8
É}ÿg
  5
8D7
 10
1062.93
 20
-495.895
 30
0.000000
  70
    32
  0
VERTEX
  8
É}ÿg
  5
8D8
 10
1062.99
 20
-495.907
 30
0.000000
  70
    32
  0
VERTEX
  8
É}ÿg
  5
8D9
 10
1063.04
 20
-495.920
 30
0.000000
  70
    32
  0
VERTEX
  8
É}ÿg
  5
8DA
 10
1063.10
 20
-495.932
 30
0.000000
  70
    32
  0
VERTEX
  8
É}ÿg
  5
8DB
 10
1063.16
 20
-495.945
 30
0.000000
  70
    32
  0
VERTEX
  8
É}ÿg
  5
8DC
 10
1063.21
 20
-495.957
 30
0.000000
  70
    32
  0
VERTEX
  8
É}ÿg
  5
8DD
 10
1063.27
 20
-495.970
 30
0.000000
  70
    32
  0
VERTEX
  8
É}ÿg
  5
8DE
 10
1063.32
 20
-495.982
 30
0.000000
  70
    32
  0
VERTEX
  8
É}ÿg
  5
8DF
 10
1063.38
 20
-495.994
 30
0.000000
  70
    32
  0
VERTEX
  8
É}ÿg
  5
8E0
 10
1063.44
 20
-496.007
 30
0.000000
  70
    32
  0
VERTEX
  8
É}ÿg
  5
8E1
 10
1063.49
 20
-496.019
 30
0.000000
  70
    32
  0
VERTEX
  8
É}ÿg
  5
8E2
 10
1063.55
 20
-496.031
 30
0.000000
  70
    32
  0
VERTEX
  8
É}ÿg
  5
8E3
 10
1063.61
 20
-496.043
 30
0.000000
  70
    32
  0
VERTEX
  8
É}ÿg
  5
8E4
 10
1063.66
 20
-496.056
 30
0.000000
  70
    32
  0
VERTEX
  8
É}ÿg
  5
8E5
 10
1063.72
 20
-496.068
 30
0.000000
  70
    32
  0
VERTEX
  8
É}ÿg
  5
8E6
 10
1063.78
 20
-496.080
 30
0.000000
  70
    32
  0
VERTEX
  8
É}ÿg
  5
8E7
 10
1063.83
 20
-496.092
 30
0.000000
  70
    32
  0
VERTEX
  8
É}ÿg
  5
8E8
 10
1063.89
 20
-496.104
 30
0.000000
  70
    32
  0
VERTEX
  8
É}ÿg
  5
8E9
 10
1063.95
 20
-496.116
 30
0.000000
  70
    32
  0
VERTEX
  8
É}ÿg
  5
8EA
 10
1064.00
 20
-496.129
 30
0.000000
  70
    32
  0
VERTEX
  8
É}ÿg
  5
8EB
 10
1064.06
 20
-496.141
 30
0.000000
  70
    32
  0
VERTEX
  8
É}ÿg
  5
8EC
 10
1064.12
 20
-496.153
 30
0.000000
  70
    32
  0
VERTEX
  8
É}ÿg
  5
8ED
 10
1064.17
 20
-496.165
 30
0.000000
  70
    32
  0
VERTEX
  8
É}ÿg
  5
8EE
 10
1064.23
 20
-496.177
 30
0.000000
  70
    32
  0
VERTEX
  8
É}ÿg
  5
8EF
 10
1064.29
 20
-496.189
 30
0.000000
  70
    32
  0
VERTEX
  8
É}ÿg
  5
8F0
 10
1064.34
 20
-496.201
 30
0.000000
  70
    32
  0
VERTEX
  8
É}ÿg
  5
8F1
 10
1064.40
 20
-496.213
 30
0.000000
  70
    32
  0
VERTEX
  8
É}ÿg
  5
8F2
 10
1064.46
 20
-496.225
 30
0.000000
  70
    32
  0
VERTEX
  8
É}ÿg
  5
8F3
 10
1064.51
 20
-496.237
 30
0.000000
  70
    32
  0
VERTEX
  8
É}ÿg
  5
8F4
 10
1064.57
 20
-496.248
 30
0.000000
  70
    32
  0
VERTEX
  8
É}ÿg
  5
8F5
 10
1064.63
 20
-496.260
 30
0.000000
  70
    32
  0
VERTEX
  8
É}ÿg
  5
8F6
 10
1064.68
 20
-496.272
 30
0.000000
  70
    32
  0
VERTEX
  8
É}ÿg
  5
8F7
 10
1064.74
 20
-496.284
 30
0.000000
  70
    32
  0
VERTEX
  8
É}ÿg
  5
8F8
 10
1064.80
 20
-496.296
 30
0.000000
  70
    32
  0
VERTEX
  8
É}ÿg
  5
8F9
 10
1064.85
 20
-496.308
 30
0.000000
  70
    32
  0
VERTEX
  8
É}ÿg
  5
8FA
 10
1064.91
 20
-496.320
 30
0.000000
  70
    32
  0
VERTEX
  8
É}ÿg
  5
8FB
 10
1064.97
 20
-496.332
 30
0.000000
  70
    32
  0
VERTEX
  8
É}ÿg
  5
8FC
 10
1065.02
 20
-496.343
 30
0.000000
  70
    32
  0
VERTEX
  8
É}ÿg
  5
8FD
 10
1065.08
 20
-496.355
 30
0.000000
  70
    32
  0
VERTEX
  8
É}ÿg
  5
8FE
 10
1065.14
 20
-496.367
 30
0.000000
  70
    32
  0
VERTEX
  8
É}ÿg
  5
8FF
 10
1065.19
 20
-496.379
 30
0.000000
  70
    32
  0
VERTEX
  8
É}ÿg
  5
900
 10
1065.25
 20
-496.391
 30
0.000000
  70
    32
  0
VERTEX
  8
É}ÿg
  5
901
 10
1065.31
 20
-496.403
 30
0.000000
  70
    32
  0
VERTEX
  8
É}ÿg
  5
902
 10
1065.36
 20
-496.414
 30
0.000000
  70
    32
  0
VERTEX
  8
É}ÿg
  5
903
 10
1065.42
 20
-496.426
 30
0.000000
  70
    32
  0
VERTEX
  8
É}ÿg
  5
904
 10
1065.48
 20
-496.438
 30
0.000000
  70
    32
  0
VERTEX
  8
É}ÿg
  5
905
 10
1065.53
 20
-496.450
 30
0.000000
  70
    32
  0
VERTEX
  8
É}ÿg
  5
906
 10
1065.59
 20
-496.462
 30
0.000000
  70
    32
  0
VERTEX
  8
É}ÿg
  5
907
 10
1065.65
 20
-496.473
 30
0.000000
  70
    32
  0
SEQEND
  8
É}ÿg
  5
908
  0
POLYLINE
  8
É}ÿg
  5
909
  66
     1
 10
0.000000
 20
0.000000
 30
0.000000
  70
     8
  0
VERTEX
  8
É}ÿg
  5
90A
 10
1047.65
 20
-487.762
 30
0.000000
  70
    32
  0
VERTEX
  8
É}ÿg
  5
90B
 10
1047.68
 20
-487.795
 30
0.000000
  70
    32
  0
VERTEX
  8
É}ÿg
  5
90C
 10
1047.72
 20
-487.828
 30
0.000000
  70
    32
  0
VERTEX
  8
É}ÿg
  5
90D
 10
1047.75
 20
-487.861
 30
0.000000
  70
    32
  0
VERTEX
  8
É}ÿg
  5
90E
 10
1047.79
 20
-487.895
 30
0.000000
  70
    32
  0
VERTEX
  8
É}ÿg
  5
90F
 10
1047.83
 20
-487.928
 30
0.000000
  70
    32
  0
VERTEX
  8
É}ÿg
  5
910
 10
1047.86
 20
-487.961
 30
0.000000
  70
    32
  0
VERTEX
  8
É}ÿg
  5
911
 10
1047.90
 20
-487.994
 30
0.000000
  70
    32
  0
VERTEX
  8
É}ÿg
  5
912
 10
1047.94
 20
-488.027
 30
0.000000
  70
    32
  0
VERTEX
  8
É}ÿg
  5
913
 10
1047.97
 20
-488.061
 30
0.000000
  70
    32
  0
VERTEX
  8
É}ÿg
  5
914
 10
1048.01
 20
-488.094
 30
0.000000
  70
    32
  0
VERTEX
  8
É}ÿg
  5
915
 10
1048.04
 20
-488.127
 30
0.000000
  70
    32
  0
VERTEX
  8
É}ÿg
  5
916
 10
1048.08
 20
-488.160
 30
0.000000
  70
    32
  0
VERTEX
  8
É}ÿg
  5
917
 10
1048.12
 20
-488.193
 30
0.000000
  70
    32
  0
VERTEX
  8
É}ÿg
  5
918
 10
1048.15
 20
-488.226
 30
0.000000
  70
    32
  0
VERTEX
  8
É}ÿg
  5
919
 10
1048.19
 20
-488.260
 30
0.000000
  70
    32
  0
VERTEX
  8
É}ÿg
  5
91A
 10
1048.22
 20
-488.293
 30
0.000000
  70
    32
  0
VERTEX
  8
É}ÿg
  5
91B
 10
1048.26
 20
-488.326
 30
0.000000
  70
    32
  0
VERTEX
  8
É}ÿg
  5
91C
 10
1048.30
 20
-488.359
 30
0.000000
  70
    32
  0
VERTEX
  8
É}ÿg
  5
91D
 10
1048.33
 20
-488.392
 30
0.000000
  70
    32
  0
VERTEX
  8
É}ÿg
  5
91E
 10
1048.37
 20
-488.425
 30
0.000000
  70
    32
  0
VERTEX
  8
É}ÿg
  5
91F
 10
1048.40
 20
-488.458
 30
0.000000
  70
    32
  0
VERTEX
  8
É}ÿg
  5
920
 10
1048.44
 20
-488.491
 30
0.000000
  70
    32
  0
VERTEX
  8
É}ÿg
  5
921
 10
1048.48
 20
-488.524
 30
0.000000
  70
    32
  0
VERTEX
  8
É}ÿg
  5
922
 10
1048.51
 20
-488.557
 30
0.000000
  70
    32
  0
VERTEX
  8
É}ÿg
  5
923
 10
1048.55
 20
-488.590
 30
0.000000
  70
    32
  0
VERTEX
  8
É}ÿg
  5
924
 10
1048.58
 20
-488.623
 30
0.000000
  70
    32
  0
VERTEX
  8
É}ÿg
  5
925
 10
1048.62
 20
-488.656
 30
0.000000
  70
    32
  0
VERTEX
  8
É}ÿg
  5
926
 10
1048.66
 20
-488.689
 30
0.000000
  70
    32
  0
VERTEX
  8
É}ÿg
  5
927
 10
1048.69
 20
-488.722
 30
0.000000
  70
    32
  0
VERTEX
  8
É}ÿg
  5
928
 10
1048.73
 20
-488.755
 30
0.000000
  70
    32
  0
VERTEX
  8
É}ÿg
  5
929
 10
1048.77
 20
-488.788
 30
0.000000
  70
    32
  0
VERTEX
  8
É}ÿg
  5
92A
 10
1048.80
 20
-488.821
 30
0.000000
  70
    32
  0
VERTEX
  8
É}ÿg
  5
92B
 10
1048.84
 20
-488.853
 30
0.000000
  70
    32
  0
VERTEX
  8
É}ÿg
  5
92C
 10
1048.87
 20
-488.886
 30
0.000000
  70
    32
  0
VERTEX
  8
É}ÿg
  5
92D
 10
1048.91
 20
-488.919
 30
0.000000
  70
    32
  0
VERTEX
  8
É}ÿg
  5
92E
 10
1048.95
 20
-488.952
 30
0.000000
  70
    32
  0
VERTEX
  8
É}ÿg
  5
92F
 10
1048.98
 20
-488.985
 30
0.000000
  70
    32
  0
VERTEX
  8
É}ÿg
  5
930
 10
1049.02
 20
-489.017
 30
0.000000
  70
    32
  0
VERTEX
  8
É}ÿg
  5
931
 10
1049.06
 20
-489.050
 30
0.000000
  70
    32
  0
VERTEX
  8
É}ÿg
  5
932
 10
1049.09
 20
-489.083
 30
0.000000
  70
    32
  0
VERTEX
  8
É}ÿg
  5
933
 10
1049.13
 20
-489.115
 30
0.000000
  70
    32
  0
VERTEX
  8
É}ÿg
  5
934
 10
1049.16
 20
-489.148
 30
0.000000
  70
    32
  0
VERTEX
  8
É}ÿg
  5
935
 10
1049.20
 20
-489.180
 30
0.000000
  70
    32
  0
VERTEX
  8
É}ÿg
  5
936
 10
1049.24
 20
-489.213
 30
0.000000
  70
    32
  0
VERTEX
  8
É}ÿg
  5
937
 10
1049.27
 20
-489.246
 30
0.000000
  70
    32
  0
VERTEX
  8
É}ÿg
  5
938
 10
1049.31
 20
-489.278
 30
0.000000
  70
    32
  0
VERTEX
  8
É}ÿg
  5
939
 10
1049.35
 20
-489.310
 30
0.000000
  70
    32
  0
VERTEX
  8
É}ÿg
  5
93A
 10
1049.38
 20
-489.343
 30
0.000000
  70
    32
  0
VERTEX
  8
É}ÿg
  5
93B
 10
1049.42
 20
-489.375
 30
0.000000
  70
    32
  0
VERTEX
  8
É}ÿg
  5
93C
 10
1049.46
 20
-489.408
 30
0.000000
  70
    32
  0
VERTEX
  8
É}ÿg
  5
93D
 10
1049.49
 20
-489.440
 30
0.000000
  70
    32
  0
VERTEX
  8
É}ÿg
  5
93E
 10
1049.53
 20
-489.472
 30
0.000000
  70
    32
  0
VERTEX
  8
É}ÿg
  5
93F
 10
1049.57
 20
-489.505
 30
0.000000
  70
    32
  0
VERTEX
  8
É}ÿg
  5
940
 10
1049.60
 20
-489.537
 30
0.000000
  70
    32
  0
VERTEX
  8
É}ÿg
  5
941
 10
1049.64
 20
-489.569
 30
0.000000
  70
    32
  0
VERTEX
  8
É}ÿg
  5
942
 10
1049.68
 20
-489.601
 30
0.000000
  70
    32
  0
VERTEX
  8
É}ÿg
  5
943
 10
1049.71
 20
-489.633
 30
0.000000
  70
    32
  0
VERTEX
  8
É}ÿg
  5
944
 10
1049.75
 20
-489.665
 30
0.000000
  70
    32
  0
VERTEX
  8
É}ÿg
  5
945
 10
1049.79
 20
-489.697
 30
0.000000
  70
    32
  0
VERTEX
  8
É}ÿg
  5
946
 10
1049.82
 20
-489.729
 30
0.000000
  70
    32
  0
VERTEX
  8
É}ÿg
  5
947
 10
1049.86
 20
-489.761
 30
0.000000
  70
    32
  0
VERTEX
  8
É}ÿg
  5
948
 10
1049.90
 20
-489.793
 30
0.000000
  70
    32
  0
VERTEX
  8
É}ÿg
  5
949
 10
1049.93
 20
-489.825
 30
0.000000
  70
    32
  0
VERTEX
  8
É}ÿg
  5
94A
 10
1049.97
 20
-489.857
 30
0.000000
  70
    32
  0
VERTEX
  8
É}ÿg
  5
94B
 10
1050.01
 20
-489.889
 30
0.000000
  70
    32
  0
VERTEX
  8
É}ÿg
  5
94C
 10
1050.04
 20
-489.920
 30
0.000000
  70
    32
  0
VERTEX
  8
É}ÿg
  5
94D
 10
1050.08
 20
-489.952
 30
0.000000
  70
    32
  0
VERTEX
  8
É}ÿg
  5
94E
 10
1050.12
 20
-489.984
 30
0.000000
  70
    32
  0
VERTEX
  8
É}ÿg
  5
94F
 10
1050.15
 20
-490.015
 30
0.000000
  70
    32
  0
VERTEX
  8
É}ÿg
  5
950
 10
1050.19
 20
-490.047
 30
0.000000
  70
    32
  0
VERTEX
  8
É}ÿg
  5
951
 10
1050.23
 20
-490.078
 30
0.000000
  70
    32
  0
VERTEX
  8
É}ÿg
  5
952
 10
1050.26
 20
-490.110
 30
0.000000
  70
    32
  0
VERTEX
  8
É}ÿg
  5
953
 10
1050.30
 20
-490.141
 30
0.000000
  70
    32
  0
VERTEX
  8
É}ÿg
  5
954
 10
1050.34
 20
-490.172
 30
0.000000
  70
    32
  0
VERTEX
  8
É}ÿg
  5
955
 10
1050.37
 20
-490.204
 30
0.000000
  70
    32
  0
VERTEX
  8
É}ÿg
  5
956
 10
1050.41
 20
-490.235
 30
0.000000
  70
    32
  0
VERTEX
  8
É}ÿg
  5
957
 10
1050.45
 20
-490.266
 30
0.000000
  70
    32
  0
VERTEX
  8
É}ÿg
  5
958
 10
1050.49
 20
-490.297
 30
0.000000
  70
    32
  0
VERTEX
  8
É}ÿg
  5
959
 10
1050.52
 20
-490.328
 30
0.000000
  70
    32
  0
VERTEX
  8
É}ÿg
  5
95A
 10
1050.56
 20
-490.359
 30
0.000000
  70
    32
  0
VERTEX
  8
É}ÿg
  5
95B
 10
1050.60
 20
-490.390
 30
0.000000
  70
    32
  0
VERTEX
  8
É}ÿg
  5
95C
 10
1050.64
 20
-490.421
 30
0.000000
  70
    32
  0
VERTEX
  8
É}ÿg
  5
95D
 10
1050.67
 20
-490.452
 30
0.000000
  70
    32
  0
VERTEX
  8
É}ÿg
  5
95E
 10
1050.71
 20
-490.483
 30
0.000000
  70
    32
  0
VERTEX
  8
É}ÿg
  5
95F
 10
1050.75
 20
-490.514
 30
0.000000
  70
    32
  0
VERTEX
  8
É}ÿg
  5
960
 10
1050.78
 20
-490.544
 30
0.000000
  70
    32
  0
VERTEX
  8
É}ÿg
  5
961
 10
1050.82
 20
-490.575
 30
0.000000
  70
    32
  0
VERTEX
  8
É}ÿg
  5
962
 10
1050.86
 20
-490.605
 30
0.000000
  70
    32
  0
VERTEX
  8
É}ÿg
  5
963
 10
1050.90
 20
-490.636
 30
0.000000
  70
    32
  0
VERTEX
  8
É}ÿg
  5
964
 10
1050.93
 20
-490.666
 30
0.000000
  70
    32
  0
VERTEX
  8
É}ÿg
  5
965
 10
1050.97
 20
-490.697
 30
0.000000
  70
    32
  0
VERTEX
  8
É}ÿg
  5
966
 10
1051.01
 20
-490.727
 30
0.000000
  70
    32
  0
VERTEX
  8
É}ÿg
  5
967
 10
1051.05
 20
-490.757
 30
0.000000
  70
    32
  0
VERTEX
  8
É}ÿg
  5
968
 10
1051.08
 20
-490.787
 30
0.000000
  70
    32
  0
VERTEX
  8
É}ÿg
  5
969
 10
1051.12
 20
-490.818
 30
0.000000
  70
    32
  0
VERTEX
  8
É}ÿg
  5
96A
 10
1051.16
 20
-490.848
 30
0.000000
  70
    32
  0
VERTEX
  8
É}ÿg
  5
96B
 10
1051.20
 20
-490.878
 30
0.000000
  70
    32
  0
VERTEX
  8
É}ÿg
  5
96C
 10
1051.24
 20
-490.908
 30
0.000000
  70
    32
  0
VERTEX
  8
É}ÿg
  5
96D
 10
1051.27
 20
-490.937
 30
0.000000
  70
    32
  0
VERTEX
  8
É}ÿg
  5
96E
 10
1051.31
 20
-490.967
 30
0.000000
  70
    32
  0
VERTEX
  8
É}ÿg
  5
96F
 10
1051.35
 20
-490.997
 30
0.000000
  70
    32
  0
VERTEX
  8
É}ÿg
  5
970
 10
1051.39
 20
-491.027
 30
0.000000
  70
    32
  0
VERTEX
  8
É}ÿg
  5
971
 10
1051.43
 20
-491.056
 30
0.000000
  70
    32
  0
VERTEX
  8
É}ÿg
  5
972
 10
1051.46
 20
-491.086
 30
0.000000
  70
    32
  0
VERTEX
  8
É}ÿg
  5
973
 10
1051.50
 20
-491.115
 30
0.000000
  70
    32
  0
VERTEX
  8
É}ÿg
  5
974
 10
1051.54
 20
-491.144
 30
0.000000
  70
    32
  0
VERTEX
  8
É}ÿg
  5
975
 10
1051.58
 20
-491.174
 30
0.000000
  70
    32
  0
VERTEX
  8
É}ÿg
  5
976
 10
1051.62
 20
-491.203
 30
0.000000
  70
    32
  0
VERTEX
  8
É}ÿg
  5
977
 10
1051.65
 20
-491.232
 30
0.000000
  70
    32
  0
VERTEX
  8
É}ÿg
  5
978
 10
1051.69
 20
-491.261
 30
0.000000
  70
    32
  0
VERTEX
  8
É}ÿg
  5
979
 10
1051.73
 20
-491.290
 30
0.000000
  70
    32
  0
VERTEX
  8
É}ÿg
  5
97A
 10
1051.77
 20
-491.319
 30
0.000000
  70
    32
  0
VERTEX
  8
É}ÿg
  5
97B
 10
1051.81
 20
-491.348
 30
0.000000
  70
    32
  0
VERTEX
  8
É}ÿg
  5
97C
 10
1051.85
 20
-491.377
 30
0.000000
  70
    32
  0
VERTEX
  8
É}ÿg
  5
97D
 10
1051.88
 20
-491.405
 30
0.000000
  70
    32
  0
VERTEX
  8
É}ÿg
  5
97E
 10
1051.92
 20
-491.434
 30
0.000000
  70
    32
  0
VERTEX
  8
É}ÿg
  5
97F
 10
1051.96
 20
-491.462
 30
0.000000
  70
    32
  0
VERTEX
  8
É}ÿg
  5
980
 10
1052.00
 20
-491.491
 30
0.000000
  70
    32
  0
VERTEX
  8
É}ÿg
  5
981
 10
1052.04
 20
-491.519
 30
0.000000
  70
    32
  0
VERTEX
  8
É}ÿg
  5
982
 10
1052.08
 20
-491.547
 30
0.000000
  70
    32
  0
VERTEX
  8
É}ÿg
  5
983
 10
1052.12
 20
-491.576
 30
0.000000
  70
    32
  0
VERTEX
  8
É}ÿg
  5
984
 10
1052.15
 20
-491.604
 30
0.000000
  70
    32
  0
VERTEX
  8
É}ÿg
  5
985
 10
1052.19
 20
-491.632
 30
0.000000
  70
    32
  0
VERTEX
  8
É}ÿg
  5
986
 10
1052.23
 20
-491.660
 30
0.000000
  70
    32
  0
VERTEX
  8
É}ÿg
  5
987
 10
1052.27
 20
-491.687
 30
0.000000
  70
    32
  0
VERTEX
  8
É}ÿg
  5
988
 10
1052.31
 20
-491.715
 30
0.000000
  70
    32
  0
VERTEX
  8
É}ÿg
  5
989
 10
1052.35
 20
-491.743
 30
0.000000
  70
    32
  0
VERTEX
  8
É}ÿg
  5
98A
 10
1052.39
 20
-491.771
 30
0.000000
  70
    32
  0
VERTEX
  8
É}ÿg
  5
98B
 10
1052.43
 20
-491.798
 30
0.000000
  70
    32
  0
VERTEX
  8
É}ÿg
  5
98C
 10
1052.47
 20
-491.825
 30
0.000000
  70
    32
  0
VERTEX
  8
É}ÿg
  5
98D
 10
1052.51
 20
-491.853
 30
0.000000
  70
    32
  0
VERTEX
  8
É}ÿg
  5
98E
 10
1052.55
 20
-491.880
 30
0.000000
  70
    32
  0
VERTEX
  8
É}ÿg
  5
98F
 10
1052.58
 20
-491.907
 30
0.000000
  70
    32
  0
VERTEX
  8
É}ÿg
  5
990
 10
1052.62
 20
-491.934
 30
0.000000
  70
    32
  0
VERTEX
  8
É}ÿg
  5
991
 10
1052.66
 20
-491.961
 30
0.000000
  70
    32
  0
VERTEX
  8
É}ÿg
  5
992
 10
1052.70
 20
-491.988
 30
0.000000
  70
    32
  0
VERTEX
  8
É}ÿg
  5
993
 10
1052.74
 20
-492.015
 30
0.000000
  70
    32
  0
VERTEX
  8
É}ÿg
  5
994
 10
1052.78
 20
-492.041
 30
0.000000
  70
    32
  0
VERTEX
  8
É}ÿg
  5
995
 10
1052.82
 20
-492.068
 30
0.000000
  70
    32
  0
VERTEX
  8
É}ÿg
  5
996
 10
1052.86
 20
-492.094
 30
0.000000
  70
    32
  0
VERTEX
  8
É}ÿg
  5
997
 10
1052.90
 20
-492.121
 30
0.000000
  70
    32
  0
VERTEX
  8
É}ÿg
  5
998
 10
1052.94
 20
-492.147
 30
0.000000
  70
    32
  0
VERTEX
  8
É}ÿg
  5
999
 10
1052.98
 20
-492.173
 30
0.000000
  70
    32
  0
VERTEX
  8
É}ÿg
  5
99A
 10
1053.02
 20
-492.199
 30
0.000000
  70
    32
  0
VERTEX
  8
É}ÿg
  5
99B
 10
1053.06
 20
-492.225
 30
0.000000
  70
    32
  0
VERTEX
  8
É}ÿg
  5
99C
 10
1053.10
 20
-492.251
 30
0.000000
  70
    32
  0
VERTEX
  8
É}ÿg
  5
99D
 10
1053.14
 20
-492.277
 30
0.000000
  70
    32
  0
VERTEX
  8
É}ÿg
  5
99E
 10
1053.18
 20
-492.303
 30
0.000000
  70
    32
  0
VERTEX
  8
É}ÿg
  5
99F
 10
1053.22
 20
-492.328
 30
0.000000
  70
    32
  0
VERTEX
  8
É}ÿg
  5
9A0
 10
1053.26
 20
-492.354
 30
0.000000
  70
    32
  0
VERTEX
  8
É}ÿg
  5
9A1
 10
1053.30
 20
-492.379
 30
0.000000
  70
    32
  0
VERTEX
  8
É}ÿg
  5
9A2
 10
1053.34
 20
-492.404
 30
0.000000
  70
    32
  0
VERTEX
  8
É}ÿg
  5
9A3
 10
1053.38
 20
-492.430
 30
0.000000
  70
    32
  0
VERTEX
  8
É}ÿg
  5
9A4
 10
1053.42
 20
-492.455
 30
0.000000
  70
    32
  0
VERTEX
  8
É}ÿg
  5
9A5
 10
1053.46
 20
-492.480
 30
0.000000
  70
    32
  0
VERTEX
  8
É}ÿg
  5
9A6
 10
1053.50
 20
-492.505
 30
0.000000
  70
    32
  0
VERTEX
  8
É}ÿg
  5
9A7
 10
1053.54
 20
-492.529
 30
0.000000
  70
    32
  0
VERTEX
  8
É}ÿg
  5
9A8
 10
1053.58
 20
-492.554
 30
0.000000
  70
    32
  0
VERTEX
  8
É}ÿg
  5
9A9
 10
1053.62
 20
-492.578
 30
0.000000
  70
    32
  0
SEQEND
  8
É}ÿg
  5
9AA
  0
INSERT
  5
16C
  8
0
  6
CONTINUOUS
  2
*U48
 10
0.0
 20
0.0
 30
0.0
  0
LINE
  5
16D
  8
É}ÿg
 10
1074.7762256394999
 20
-443.2267158059999
 30
0.0
 11
1074.7762256394999
 21
-448.02671580600003
 31
0.0
  0
LINE
  5
16E
  8
É}ÿg
 10
1042.3256835927
 20
-486.47336987220001
 30
0.0
 11
1042.3256835927
 21
-489.4733698721999
 31
0.0
  0
LINE
  5
16F
  8
É}ÿg
 10
1074.7762256394999
 20
-448.02671580600003
 30
0.0
 11
1084.3762256395
 21
-450.426715806
 31
0.0
  0
LINE
  5
170
  8
É}ÿg
 10
1047.6468957139
 20
-482.47336987220001
 30
0.0
 11
1047.6468957139
 21
-486.07336987219998
 31
0.0
  0
ARC
  5
171
  8
É}ÿg
 10
1033.3256835927
 20
-490.47336987220001
 30
0.0
 40
6.0
 50
270.0
 51
0.0
  0
LINE
  5
172
  8
É}ÿg
 10
947.00439061609995
 20
-434.62671580599988
 30
0.0
 11
947.00439061609995
 21
-500.62671580599988
 31
0.0
  0
INSERT
  5
173
  8
0
  6
CONTINUOUS
  2
*U49
 10
0.0
 20
0.0
 30
0.0
  0
INSERT
  5
174
  8
0
  6
CONTINUOUS
  2
*U50
 10
0.0
 20
0.0
 30
0.0
  0
INSERT
  5
175
  8
0
  6
CONTINUOUS
  2
*U51
 10
0.0
 20
0.0
 30
0.0
  0
INSERT
  5
176
  8
0
  6
CONTINUOUS
  2
*U52
 10
0.0
 20
0.0
 30
0.0
  0
LINE
  5
177
  8
É}ÿg
 10
1022.0043906161
 20
-456.62671580599988
 30
0.0
 11
1022.0043906161
 21
-478.62671580599999
 31
0.0
  0
LINE
  5
178
  8
É}ÿg
 10
947.00439061609995
 20
-478.62671580599999
 30
0.0
 11
1237.0043906161
 21
-478.62671580599999
 31
0.0
  0
LINE
  5
179
  8
É}ÿg
 10
952.00439061609995
 20
-467.62671580599988
 30
0.0
 11
1017.0043906161
 21
-467.62671580599988
 31
0.0
  0
LINE
  5
17A
  8
É}ÿg
 10
1027.0043906161
 20
-467.62671580599988
 30
0.0
 11
1092.0043906161
 21
-467.62671580599988
 31
0.0
  0
INSERT
  5
17B
  8
0
  6
CONTINUOUS
  2
*U53
 10
0.0
 20
0.0
 30
0.0
  0
INSERT
  5
17C
  8
0
  6
CONTINUOUS
  2
*U54
 10
0.0
 20
0.0
 30
0.0
  0
LINE
  5
17D
  8
É}ÿg
 10
965.00439061609995
 20
-424.62671580599999
 30
0.0
 11
965.00439061609995
 21
-414.62671580599988
 31
0.0
  0
LINE
  5
17E
  8
É}ÿg
 10
947.00439061609995
 20
-424.62671580599999
 30
0.0
 11
947.00439061609995
 21
-414.62671580599988
 31
0.0
  0
LINE
  5
17F
  8
É}ÿg
 10
1175.0043906161
 20
-424.62671580599999
 30
0.0
 11
1175.0043906161
 21
-414.62671580599988
 31
0.0
  0
LINE
  5
180
  8
É}ÿg
 10
1157.0043906161
 20
-424.62671580599999
 30
0.0
 11
1157.0043906161
 21
-414.62671580599988
 31
0.0
  0
LINE
  5
181
  8
É}ÿg
 10
1237.0043906161
 20
-414.62671580599988
 30
0.0
 11
947.00439061609995
 21
-414.62671580599988
 31
0.0
  0
LINE
  5
182
  8
É}ÿg
 10
947.00439061609995
 20
-424.62671580599999
 30
0.0
 11
1237.0043906161
 21
-424.62671580599999
 31
0.0
  0
LINE
  5
183
  8
É}ÿg
 10
1065.0043906161
 20
-424.62671580599999
 30
0.0
 11
1065.0043906161
 21
-414.62671580599988
 31
0.0
  0
INSERT
  5
184
  8
0
  6
CONTINUOUS
  2
*U55
 10
0.0
 20
0.0
 30
0.0
  0
INSERT
  5
185
  8
0
  6
CONTINUOUS
  2
*U56
 10
0.0
 20
0.0
 30
0.0
  0
CIRCLE
  5
186
  8
É}ÿg
 10
1063.8043906160999
 20
-445.62671580599999
 30
0.0
 40
2.399999999999999
  0
LINE
  5
187
  8
É}ÿg
 10
1074.7762256394999
 20
-448.02671580600003
 30
0.0
 11
1084.3762256395
 21
-450.426715806
 31
0.0
  0
LINE
  5
188
  8
É}ÿg
 10
1074.7762256394999
 20
-443.2267158059999
 30
0.0
 11
1074.7762256394999
 21
-448.02671580600003
 31
0.0
  0
LINE
  5
189
  8
É}ÿg
 10
1084.3762256395
 20
-440.82671580599998
 30
0.0
 11
1084.3762256395
 21
-450.426715806
 31
0.0
  0
LINE
  5
18A
  8
É}ÿg
  6
BORDER
 10
1063.8043906160999
 20
-438.426715806
 30
0.0
 11
1063.8043906160999
 21
-452.82671580599998
 31
0.0
  0
LINE
  5
18B
  8
É}ÿg
  6
BORDER
 10
1063.8043906160999
 20
-438.426715806
 30
0.0
 11
1063.8043906160999
 21
-452.82671580599998
 31
0.0
  0
LINE
  5
18C
  8
É}ÿg
 10
1084.3762256395
 20
-440.82671580599998
 30
0.0
 11
1084.3762256395
 21
-450.426715806
 31
0.0
  0
LINE
  5
18D
  8
É}ÿg
 10
1074.7762256394999
 20
-443.2267158059999
 30
0.0
 11
1074.7762256394999
 21
-448.02671580600003
 31
0.0
  0
LINE
  5
18E
  8
É}ÿg
 10
1074.7762256394999
 20
-448.02671580600003
 30
0.0
 11
1084.3762256395
 21
-450.426715806
 31
0.0
  0
LINE
  5
18F
  8
É}ÿg
 10
1074.7762256394999
 20
-443.2267158059999
 30
0.0
 11
1084.3762256395
 21
-440.82671580599998
 31
0.0
  0
CIRCLE
  5
190
  8
É}ÿg
 10
1063.8043906160999
 20
-445.62671580599999
 30
0.0
 40
4.7999999999999989
  0
CIRCLE
  5
191
  8
É}ÿg
 10
1063.8043906160999
 20
-445.62671580599999
 30
0.0
 40
2.399999999999999
  0
CIRCLE
  5
192
  8
É}ÿg
 10
1063.8043906160999
 20
-445.62671580599999
 30
0.0
 40
4.7999999999999989
  0
LINE
  5
193
  8
É}ÿg
 10
1074.7762256394999
 20
-443.2267158059999
 30
0.0
 11
1084.3762256395
 21
-440.82671580599998
 31
0.0
  0
ENDBLK
  5
194
  8
0
  0
BLOCK
  8
0
  2
CLUMP2
 70
     0
 10
0.0
 20
0.0
 30
0.0
  3
CLUMP2
  1

  0
LINE
  5
19C
  8
É}ÿg
 10
1065.0043906161
 20
-374.62671580599999
 30
0.0
 11
1065.0043906161
 21
-364.62671580599999
 31
0.0
  0
LINE
  5
19D
  8
É}ÿg
 10
947.00439061609995
 20
-374.62671580599999
 30
0.0
 11
947.00439061609995
 21
-364.62671580599999
 31
0.0
  0
LINE
  5
19E
  8
É}ÿg
 10
965.00439061609995
 20
-374.62671580599999
 30
0.0
 11
965.00439061609995
 21
-364.62671580599999
 31
0.0
  0
LINE
  5
19F
  8
É}ÿg
 10
1175.0043906161
 20
-374.62671580599999
 30
0.0
 11
1175.0043906161
 21
-364.62671580599999
 31
0.0
  0
LINE
  5
1A0
  8
É}ÿg
 10
1157.0043906161
 20
-374.62671580599999
 30
0.0
 11
1157.0043906161
 21
-364.62671580599999
 31
0.0
  0
LINE
  5
1A1
  8
É}ÿg
 10
1237.0043906161
 20
-364.62671580599999
 30
0.0
 11
947.00439061609995
 21
-364.62671580599999
 31
0.0
  0
ENDBLK
  5
1A2
  8
0
  0
BLOCK
  8
0
  2
CLUMP3
 70
     0
 10
0.0
 20
0.0
 30
0.0
  3
CLUMP3
  1

  0
LINE
  5
1A6
  8
É}ÿg
 10
1065.0043906161
 20
-384.62671580599999
 30
0.0
 11
1065.0043906161
 21
-374.62671580599999
 31
0.0
  0
LINE
  5
1A7
  8
É}ÿg
 10
947.00439061609995
 20
-384.62671580599999
 30
0.0
 11
947.00439061609995
 21
-374.62671580599999
 31
0.0
  0
LINE
  5
1A8
  8
É}ÿg
 10
965.00439061609995
 20
-384.62671580599999
 30
0.0
 11
965.00439061609995
 21
-374.62671580599999
 31
0.0
  0
LINE
  5
1A9
  8
É}ÿg
 10
1175.0043906161
 20
-384.62671580599999
 30
0.0
 11
1175.0043906161
 21
-374.62671580599999
 31
0.0
  0
LINE
  5
1AA
  8
É}ÿg
 10
1157.0043906161
 20
-384.62671580599999
 30
0.0
 11
1157.0043906161
 21
-374.62671580599999
 31
0.0
  0
LINE
  5
1AB
  8
É}ÿg
 10
1237.0043906161
 20
-374.62671580599999
 30
0.0
 11
947.00439061609995
 21
-374.62671580599999
 31
0.0
  0
ENDBLK
  5
1AC
  8
0
  0
BLOCK
  8
0
  2
CLUMP4
 70
     0
 10
0.0
 20
0.0
 30
0.0
  3
CLUMP4
  1

  0
LINE
  5
1B0
  8
É}ÿg
 10
1065.0043906161
 20
-404.62671580599999
 30
0.0
 11
1065.0043906161
 21
-394.62671580599999
 31
0.0
  0
LINE
  5
1B1
  8
É}ÿg
 10
947.00439061609995
 20
-404.62671580599999
 30
0.0
 11
947.00439061609995
 21
-394.62671580599999
 31
0.0
  0
LINE
  5
1B2
  8
É}ÿg
 10
965.00439061609995
 20
-404.62671580599999
 30
0.0
 11
965.00439061609995
 21
-394.62671580599999
 31
0.0
  0
LINE
  5
1B3
  8
É}ÿg
 10
1175.0043906161
 20
-404.62671580599999
 30
0.0
 11
1175.0043906161
 21
-394.62671580599999
 31
0.0
  0
LINE
  5
1B4
  8
É}ÿg
 10
1157.0043906161
 20
-404.62671580599999
 30
0.0
 11
1157.0043906161
 21
-394.62671580599999
 31
0.0
  0
LINE
  5
1B5
  8
É}ÿg
 10
1237.0043906161
 20
-394.62671580599999
 30
0.0
 11
947.00439061609995
 21
-394.62671580599999
 31
0.0
  0
ENDBLK
  5
1B6
  8
0
  0
BLOCK
  8
0
  2
CLUMP5
 70
     0
 10
0.0
 20
0.0
 30
0.0
  3
CLUMP5
  1

  0
LINE
  5
1BA
  8
É}ÿg
 10
1065.0043906161
 20
-414.62671580599988
 30
0.0
 11
1065.0043906161
 21
-404.62671580599999
 31
0.0
  0
LINE
  5
1BB
  8
É}ÿg
 10
947.00439061609995
 20
-414.62671580599988
 30
0.0
 11
947.00439061609995
 21
-404.62671580599999
 31
0.0
  0
LINE
  5
1BC
  8
É}ÿg
 10
965.00439061609995
 20
-414.62671580599988
 30
0.0
 11
965.00439061609995
 21
-404.62671580599999
 31
0.0
  0
LINE
  5
1BD
  8
É}ÿg
 10
1175.0043906161
 20
-414.62671580599988
 30
0.0
 11
1175.0043906161
 21
-404.62671580599999
 31
0.0
  0
LINE
  5
1BE
  8
É}ÿg
 10
1157.0043906161
 20
-414.62671580599988
 30
0.0
 11
1157.0043906161
 21
-404.62671580599999
 31
0.0
  0
LINE
  5
1BF
  8
É}ÿg
 10
1237.0043906161
 20
-404.62671580599999
 30
0.0
 11
947.00439061609995
 21
-404.62671580599999
 31
0.0
  0
ENDBLK
  5
1C0
  8
0
  0
BLOCK
  8
0
  2
CLUMP6
 70
     0
 10
0.0
 20
0.0
 30
0.0
  3
CLUMP6
  1

  0
LINE
  5
1C4
  8
É}ÿg
 10
1065.0043906161
 20
-394.62671580599999
 30
0.0
 11
1065.0043906161
 21
-384.62671580599999
 31
0.0
  0
LINE
  5
1C5
  8
É}ÿg
 10
947.00439061609995
 20
-394.62671580599999
 30
0.0
 11
947.00439061609995
 21
-384.62671580599999
 31
0.0
  0
LINE
  5
1C6
  8
É}ÿg
 10
965.00439061609995
 20
-394.62671580599999
 30
0.0
 11
965.00439061609995
 21
-384.62671580599999
 31
0.0
  0
LINE
  5
1C7
  8
É}ÿg
 10
1175.0043906161
 20
-394.62671580599999
 30
0.0
 11
1175.0043906161
 21
-384.62671580599999
 31
0.0
  0
LINE
  5
1C8
  8
É}ÿg
 10
1157.0043906161
 20
-394.62671580599999
 30
0.0
 11
1157.0043906161
 21
-384.62671580599999
 31
0.0
  0
LINE
  5
1C9
  8
É}ÿg
 10
1237.0043906161
 20
-384.62671580599999
 30
0.0
 11
947.00439061609995
 21
-384.62671580599999
 31
0.0
  0
ENDBLK
  5
1CA
  8
0
  0
BLOCK
  8
0
  2
CLUMP7
 70
     0
 10
0.0
 20
0.0
 30
0.0
  3
CLUMP7
  1

  0
LINE
  5
1CE
  8
É}ÿg
 10
1065.0043906161
 20
-364.62671580599999
 30
0.0
 11
1065.0043906161
 21
-354.62671580599999
 31
0.0
  0
LINE
  5
1CF
  8
É}ÿg
 10
947.00439061609995
 20
-364.62671580599999
 30
0.0
 11
947.00439061609995
 21
-354.62671580599999
 31
0.0
  0
LINE
  5
1D0
  8
É}ÿg
 10
965.00439061609995
 20
-364.62671580599999
 30
0.0
 11
965.00439061609995
 21
-354.62671580599999
 31
0.0
  0
LINE
  5
1D1
  8
É}ÿg
 10
1175.0043906161
 20
-364.62671580599999
 30
0.0
 11
1175.0043906161
 21
-354.62671580599999
 31
0.0
  0
LINE
  5
1D2
  8
É}ÿg
 10
1157.0043906161
 20
-364.62671580599999
 30
0.0
 11
1157.0043906161
 21
-354.62671580599999
 31
0.0
  0
LINE
  5
1D3
  8
É}ÿg
 10
1237.0043906161
 20
-354.62671580599999
 30
0.0
 11
947.00439061609995
 21
-354.62671580599999
 31
0.0
  0
ENDBLK
  5
1D4
  8
0
  0
BLOCK
  8
0
  2
CLUMP8
 70
     0
 10
0.0
 20
0.0
 30
0.0
  3
CLUMP8
  1

  0
LINE
  5
1D8
  8
É}ÿg
 10
1065.0043906161
 20
-354.62671580599999
 30
0.0
 11
1065.0043906161
 21
-344.62671580599999
 31
0.0
  0
LINE
  5
1D9
  8
É}ÿg
 10
947.00439061609995
 20
-354.62671580599999
 30
0.0
 11
947.00439061609995
 21
-344.62671580599999
 31
0.0
  0
LINE
  5
1DA
  8
É}ÿg
 10
965.00439061609995
 20
-354.62671580599999
 30
0.0
 11
965.00439061609995
 21
-344.62671580599999
 31
0.0
  0
LINE
  5
1DB
  8
É}ÿg
 10
1175.0043906161
 20
-354.62671580599999
 30
0.0
 11
1175.0043906161
 21
-344.62671580599999
 31
0.0
  0
LINE
  5
1DC
  8
É}ÿg
 10
1157.0043906161
 20
-354.62671580599999
 30
0.0
 11
1157.0043906161
 21
-344.62671580599999
 31
0.0
  0
LINE
  5
1DD
  8
É}ÿg
 10
1237.0043906161
 20
-344.62671580599999
 30
0.0
 11
947.00439061609995
 21
-344.62671580599999
 31
0.0
  0
ENDBLK
  5
1DE
  8
0
  0
BLOCK
  8
0
  2
CLUMP9
 70
     0
 10
0.0
 20
0.0
 30
0.0
  3
CLUMP9
  1

  0
LINE
  5
1EA
  8
┌▓È_1
  6
BORDER
 62
     3
 10
553.37967163459996
 20
-46.583257846000002
 30
0.0
 11
784.37967163459996
 21
-46.583257846000002
 31
0.0
  0
LINE
  5
1EB
  8
┌▓È_1
  6
STITCH
 10
556.37967163459984
 20
-50.083257846000002
 30
0.0
 11
781.37967163460007
 21
-50.083257846000002
 31
0.0
  0
LINE
  5
1EC
  8
┌▓È_1
  6
STITCH
 10
556.37967163459984
 20
-43.083257846000002
 30
0.0
 11
781.37967163460007
 21
-43.083257846000002
 31
0.0
  0
LINE
  5
1ED
  8
┌▓È_1
  6
STITCH
 10
556.37967163459984
 20
-50.083257846000002
 30
0.0
 11
556.37967163459984
 21
-43.083257846000002
 31
0.0
  0
LINE
  5
1EE
  8
┌▓È_1
  6
STITCH
 10
781.37967163460007
 20
-43.083257846000002
 30
0.0
 11
781.37967163460007
 21
-50.083257846000002
 31
0.0
  0
ENDBLK
  5
1EF
  8
0
  0
BLOCK
  8
0
  2
CLUMP10
 70
     0
 10
0.0
 20
0.0
 30
0.0
  3
CLUMP10
  1

  0
CIRCLE
  5
1FA
  8
┌▓È_1
  6
STITCH
 10
668.87946587329998
 20
-177.58346360729999
 30
0.0
 40
6.5
  0
CIRCLE
  5
1FB
  8
┌▓È_1
  6
STITCH
 10
668.87967163459984
 20
-177.58325784600001
 30
0.0
 40
7.5
  0
LINE
  5
1FC
  8
┌▓È_1
  6
STITCH
 10
687.87946587329986
 20
-187.58346360729999
 30
0.0
 11
697.87946587329998
 21
-187.58346360729999
 31
0.0
  0
LINE
  5
1FD
  8
┌▓È_1
  6
STITCH
 10
649.87946587329986
 20
-187.58346360729999
 30
0.0
 11
639.87946587329998
 21
-187.58346360729999
 31
0.0
  0
LINE
  5
1FE
  8
┌▓È_1
  6
STITCH
 10
663.22259241410006
 20
-177.58306212069999
 30
0.0
 11
668.87944666359988
 21
-171.92620787120001
 31
0.0
  0
LINE
  5
1FF
  8
┌▓È_1
  6
STITCH
 10
668.87944666359988
 20
-183.23991637009999
 30
0.0
 11
674.53630091309992
 21
-177.58306212069999
 31
0.0
  0
LINE
  5
200
  8
┌▓È_1
  6
STITCH
 10
674.53632012280002
 20
-168.39107545190001
 30
0.0
 11
678.21327538499997
 21
-164.7141201897
 31
0.0
  0
LINE
  5
201
  8
┌▓È_1
  6
STITCH
 10
674.53632012280002
 20
-168.39107545190001
 30
0.0
 11
678.07185402879986
 21
-171.92660935779989
 31
0.0
  0
LINE
  5
202
  8
┌▓È_1
  6
STITCH
 10
675.24342690399999
 20
-167.68396867070001
 30
0.0
 11
678.77896080990001
 21
-171.21950257669999
 31
0.0
  0
LINE
  5
203
  8
┌▓È_1
  6
STITCH
 10
697.87946587329998
 20
-187.58346360729999
 30
0.0
 11
697.87946587329998
 21
-162.58346360729999
 31
0.0
  0
LINE
  5
204
  8
┌▓È_1
  6
STITCH
 10
639.87946587329998
 20
-162.58346360729999
 30
0.0
 11
639.87946587329998
 21
-187.58346360729999
 31
0.0
  0
LINE
  5
205
  8
┌▓È_1
  6
STITCH
 10
687.87946587329986
 20
-162.58346360729999
 30
0.0
 11
697.87946587329998
 21
-162.58346360729999
 31
0.0
  0
LINE
  5
206
  8
┌▓È_1
  6
STITCH
 10
681.37944666359988
 20
-202.58306212069999
 30
0.0
 11
656.37944666359988
 21
-202.58306212069999
 31
0.0
  0
LINE
  5
207
  8
┌▓È_1
  6
STITCH
 10
681.37944666359988
 20
-204.08306212069999
 30
0.0
 11
656.37944666359988
 21
-204.08306212069999
 31
0.0
  0
ARC
  5
208
  8
┌▓È_1
  6
STITCH
 10
676.37944666359988
 20
-199.08306212069999
 30
0.0
 40
5.0
 50
0.0
 51
90.0
  0
LINE
  5
209
  8
┌▓È_1
  6
STITCH
 10
681.37944666359988
 20
-199.08306212069999
 30
0.0
 11
681.37944666359988
 21
-204.08306212069999
 31
0.0
  0
LINE
  5
20A
  8
┌▓È_1
  6
STITCH
 10
661.37944666359999
 20
-194.08306212069999
 30
0.0
 11
676.37944666359988
 21
-194.08306212069999
 31
0.0
  0
ARC
  5
20B
  8
┌▓È_1
  6
STITCH
 10
661.37944666359999
 20
-199.08306212069999
 30
0.0
 40
5.0
 50
90.0
 51
180.0
  0
LINE
  5
20C
  8
┌▓È_1
  6
STITCH
 10
656.37944666359988
 20
-204.08306212069999
 30
0.0
 11
656.37944666359988
 21
-199.08306212069999
 31
0.0
  0
LINE
  5
20D
  8
┌▓È_1
  6
STITCH
 10
676.67390026869998
 20
-173.08325784600001
 30
0.0
 11
680.57101458570003
 21
-170.83325784600001
 31
0.0
  0
LINE
  5
20E
  8
┌▓È_1
  6
STITCH
 10
673.87967163459996
 20
-197.9793359004
 30
0.0
 11
679.00217695920003
 21
-187.58325784600001
 31
0.0
  0
LINE
  5
20F
  8
┌▓È_1
  6
STITCH
 10
680.98942763690002
 20
-183.5501506359
 30
0.0
 11
679.00217695920003
 21
-187.58325784600001
 31
0.0
  0
ARC
  5
210
  8
┌▓È_1
  6
STITCH
 10
668.87967163459984
 20
-177.58325784600001
 30
0.0
 40
21.0
 50
256.22585300200001
 51
283.77414699799999
  0
ARC
  5
211
  8
┌▓È_1
  6
STITCH
 10
668.87967163459984
 20
-177.58325784600001
 30
0.0
 40
9.0
 50
30.0
 51
150.0
  0
ARC
  5
212
  8
┌▓È_1
  6
STITCH
 10
668.87967163459984
 20
-177.58325784600001
 30
0.0
 40
13.5
 50
333.76894846250002
 51
30.0
  0
LINE
  5
213
  8
┌▓È_1
  6
STITCH
 10
656.76991607939988
 20
-183.55015154309999
 30
0.0
 11
658.75716631
 21
-187.58325784600001
 31
0.0
  0
ARC
  5
214
  8
┌▓È_1
  6
STITCH
 10
668.87967163459984
 20
-177.58325784600001
 30
0.0
 40
13.5
 50
150.0
 51
206.2310558298
  0
LINE
  5
215
  8
┌▓È_1
  6
STITCH
 10
663.87967163459984
 20
-197.9793359004
 30
0.0
 11
658.75716631
 21
-187.58325784600001
 31
0.0
  0
LINE
  5
216
  8
┌▓È_1
  6
STITCH
 10
661.08544300059998
 20
-173.08325784600001
 30
0.0
 11
657.18832868360005
 21
-170.83325784600001
 31
0.0
  0
LINE
  5
217
  8
┌▓È_1
  6
BORDER
 62
     3
 10
668.87944666359988
 20
-204.3349587541
 30
0.0
 11
668.87944666359988
 21
-162.34486866399999
 31
0.0
  0
ARC
  5
218
  8
┌▓È_1
  6
STITCH
 10
668.87946587329998
 20
-177.58346360729999
 30
0.0
 40
3.5
 50
110.92483242759999
 51
249.07516757240001
  0
LINE
  5
219
  8
┌▓È_1
  6
STITCH
 10
649.87946587329986
 20
-162.58346360729999
 30
0.0
 11
639.87946587329998
 21
-162.58346360729999
 31
0.0
  0
LINE
  5
21A
  8
┌▓È_1
  6
STITCH
 10
649.87946587329986
 20
-162.58346360729999
 30
0.0
 11
687.87946587329986
 21
-162.58346360729999
 31
0.0
  0
LINE
  5
21B
  8
┌▓È_1
  6
BORDER
 62
     3
 10
652.74763987389997
 20
-177.58306212069999
 30
0.0
 11
685.50027145280001
 21
-177.58306212069999
 31
0.0
  0
LINE
  5
21C
  8
┌▓È_1
  6
STITCH
 10
672.62967163459984
 20
-171.08806731760001
 30
0.0
 11
671.50467163459984
 21
-173.0366244761
 31
0.0
  0
LINE
  5
21D
  8
┌▓È_1
  6
STITCH
 10
649.87946587329986
 20
-187.58346360729999
 30
0.0
 11
687.87946587329986
 21
-187.58346360729999
 31
0.0
  0
ARC
  5
21E
  8
┌▓È_1
  6
STITCH
 10
668.87946587329998
 20
-177.58346360729999
 30
0.0
 40
3.5
 50
290.92483242759999
 51
69.075167572399991
  0
ARC
  5
21F
  8
┌▓È_1
  6
STITCH
 10
669.82946587330002
 20
-172.3834636073
 30
0.0
 40
0.3
 50
0.0
 51
90.0
  0
LINE
  5
220
  8
┌▓È_1
  6
STITCH
 10
667.92946587330005
 20
-172.08346360729999
 30
0.0
 11
669.82946587330002
 21
-172.08346360729999
 31
0.0
  0
ARC
  5
221
  8
┌▓È_1
  6
STITCH
 10
667.92946587330005
 20
-172.3834636073
 30
0.0
 40
0.3
 50
90.0
 51
180.0
  0
LINE
  5
222
  8
┌▓È_1
  6
STITCH
 10
672.62967163459984
 20
-184.07844837440001
 30
0.0
 11
671.50467163459984
 21
-182.12989121589999
 31
0.0
  0
LINE
  5
223
  8
┌▓È_1
  6
STITCH
 10
678.21327538499997
 20
-164.7141201897
 30
0.0
 11
681.7488092909
 21
-168.24965409570001
 31
0.0
  0
LINE
  5
224
  8
┌▓È_1
  6
STITCH
 10
678.07185402879986
 20
-171.92660935779989
 30
0.0
 11
681.7488092909
 21
-168.24965409570001
 31
0.0
  0
LINE
  5
225
  8
┌▓È_1
  6
STITCH
 10
649.87946587329986
 20
-162.58346360729999
 30
0.0
 11
649.87946587329986
 21
-187.58346360729999
 31
0.0
  0
LINE
  5
226
  8
┌▓È_1
  6
STITCH
 10
687.87946587329986
 20
-187.58346360729999
 30
0.0
 11
687.87946587329986
 21
-162.58346360729999
 31
0.0
  0
LINE
  5
227
  8
┌▓È_1
  6
STITCH
 10
686.87946587329986
 20
-187.58346360729999
 30
0.0
 11
686.87946587329986
 21
-162.58346360729999
 31
0.0
  0
LINE
  5
228
  8
┌▓È_1
  6
STITCH
 10
650.87946587329986
 20
-162.58346360729999
 30
0.0
 11
650.87946587329986
 21
-187.58346360729999
 31
0.0
  0
LINE
  5
229
  8
┌▓È_1
  6
STITCH
 10
661.37967163459996
 20
-177.58325784600001
 30
0.0
 11
663.62967163459996
 21
-177.58325784600001
 31
0.0
  0
CIRCLE
  5
22A
  8
┌▓È_1
  6
STITCH
 10
668.87967163459984
 20
-177.58325784600001
 30
0.0
 40
5.25
  0
ARC
  5
22B
  8
┌▓È_1
  6
STITCH
 10
667.92946587330005
 20
-182.78346360730001
 30
0.0
 40
0.3
 50
180.0
 51
270.0
  0
LINE
  5
22C
  8
┌▓È_1
  6
STITCH
 10
667.62946587329998
 20
-172.3834636073
 30
0.0
 11
667.62946587329998
 21
-182.78346360730001
 31
0.0
  0
ARC
  5
22D
  8
┌▓È_1
  6
STITCH
 10
669.82946587330002
 20
-182.78346360730001
 30
0.0
 40
0.3
 50
270.0
 51
0.0
  0
LINE
  5
22E
  8
┌▓È_1
  6
STITCH
 10
667.92946587330005
 20
-183.08346360729999
 30
0.0
 11
669.82946587330002
 21
-183.08346360729999
 31
0.0
  0
LINE
  5
22F
  8
┌▓È_1
  6
STITCH
 10
670.12946587329986
 20
-172.3834636073
 30
0.0
 11
670.12946587329986
 21
-182.78346360730001
 31
0.0
  0
LINE
  5
230
  8
┌▓È_1
  6
STITCH
 10
668.87944666359988
 20
-171.92620787120001
 30
0.0
 11
674.53630091309992
 21
-177.58306212069999
 31
0.0
  0
LINE
  5
231
  8
┌▓È_1
  6
STITCH
 10
663.22259241410006
 20
-177.58306212069999
 30
0.0
 11
668.87944666359988
 21
-183.23991637009999
 31
0.0
  0
ENDBLK
  5
232
  8
0
  0
BLOCK
  8
0
  2
*D17
 70
     1
 10
0.0
 20
0.0
 30
0.0
  3
*D17
  1

  0
TEXT
  5
235
  8
0
 62
     0
 10
629.68930657229998
 20
-193.11109782689999
 30
0.0
 40
5.9972220420999998
  1
24
 50
90.0
  0
LINE
  5
236
  8
0
 62
     0
 10
651.74763987389986
 20
-177.58306212069999
 30
0.0
 11
631.74763987389997
 21
-177.58306212069999
 31
0.0
  0
LINE
  5
237
  8
0
 62
     0
 10
667.87967163459984
 20
-201.58357818959999
 30
0.0
 11
631.74763987389997
 21
-201.58357818959999
 31
0.0
  0
LINE
  5
238
  8
0
 62
     0
 10
632.74763987389986
 20
-177.58306212069999
 30
0.0
 11
632.74763987389986
 21
-182.52776481149999
 31
0.0
  0
LINE
  5
239
  8
0
 62
     0
 10
632.74763987389986
 20
-177.58306212069999
 30
0.0
 11
632.74763987389986
 21
-196.6388754987
 31
0.0
  0
LINE
  5
23A
  8
0
 62
     0
 10
632.74763987389986
 20
-201.58357818959999
 30
0.0
 11
632.74763987389986
 21
-182.52776481149999
 31
0.0
  0
LINE
  5
23B
  8
0
 62
     0
 10
632.74763987389986
 20
-201.58357818959999
 30
0.0
 11
632.74763987389986
 21
-196.6388754987
 31
0.0
  0
LINE
  5
23C
  8
0
 62
     0
 10
632.74763987389986
 20
-201.58357818959999
 30
0.0
 11
632.74763987389986
 21
-207.58357818959999
 31
0.0
  0
SOLID
  5
23D
  8
0
 62
     0
 10
632.74763987389986
 20
-201.58357818959999
 30
0.0
 11
634.24763987389986
 21
-207.58357818959999
 31
0.0
 12
631.24763987389997
 22
-207.58357818959999
 32
0.0
 13
632.74763987389986
 23
-206.08357818959999
 33
0.0
  0
LINE
  5
23E
  8
0
 62
     0
 10
632.74763987389986
 20
-177.58306212069999
 30
0.0
 11
632.74763987389986
 21
-171.58306212069999
 31
0.0
  0
SOLID
  5
23F
  8
0
 62
     0
 10
632.74763987389986
 20
-177.58306212069999
 30
0.0
 11
631.24763987389997
 21
-171.58306212069999
 31
0.0
 12
634.24763987389986
 22
-171.58306212069999
 32
0.0
 13
632.74763987389986
 23
-173.08306212069999
 33
0.0
  0
ENDBLK
  5
240
  8
0
  0
BLOCK
  8
0
  2
*D18
 70
     1
 10
0.0
 20
0.0
 30
0.0
  3
*D18
  1

  0
TEXT
  5
24C
  8
0
 62
     0
 10
552.85189396279986
 20
2.112989999199999
 30
0.0
 40
5.9972220420999998
  1
10
  0
LINE
  5
24D
  8
0
 62
     0
 10
561.37967163459996
 20
-34.583257846000002
 30
0.0
 11
561.37967163459996
 21
0.5546566977000002
 31
0.0
  0
LINE
  5
24E
  8
0
 62
     0
 10
551.37967163459984
 20
-24.583257845999999
 30
0.0
 11
551.37967163459984
 21
0.5546566977000002
 31
0.0
  0
LINE
  5
24F
  8
0
 62
     0
 10
561.37967163459996
 20
0.0546566977
 30
0.0
 11
561.37967163459996
 21
0.0546566977
 31
0.0
  0
LINE
  5
250
  8
0
 62
     0
 10
561.37967163459996
 20
0.0546566977
 30
0.0
 11
551.37967163459984
 21
0.0546566977
 31
0.0
  0
LINE
  5
251
  8
0
 62
     0
 10
551.37967163459984
 20
0.0546566977
 30
0.0
 11
561.37967163459996
 21
0.0546566977
 31
0.0
  0
LINE
  5
252
  8
0
 62
     0
 10
551.37967163459984
 20
0.0546566977
 30
0.0
 11
551.37967163459984
 21
0.0546566977
 31
0.0
  0
LINE
  5
253
  8
0
 62
     0
 10
551.37967163459984
 20
0.0546566977
 30
0.0
 11
548.37967163459984
 21
0.0546566977
 31
0.0
  0
SOLID
  5
254
  8
0
 62
     0
 10
551.37967163459984
 20
0.0546566977
 30
0.0
 11
545.37967163459984
 21
-1.4453433022999991
 31
0.0
 12
545.37967163459984
 22
1.5546566977
 32
0.0
 13
546.87967163459984
 23
0.0546566977
 33
0.0
  0
LINE
  5
255
  8
0
 62
     0
 10
561.37967163459996
 20
0.0546566977
 30
0.0
 11
564.37967163459984
 21
0.0546566977
 31
0.0
  0
SOLID
  5
256
  8
0
 62
     0
 10
561.37967163459996
 20
0.0546566977
 30
0.0
 11
567.37967163459984
 21
1.5546566977
 31
0.0
 12
567.37967163459984
 22
-1.4453433022999991
 32
0.0
 13
565.87967163459996
 23
0.0546566977
 33
0.0
  0
ENDBLK
  5
257
  8
0
  0
BLOCK
  8
0
  2
*D19
 70
     1
 10
0.0
 20
0.0
 30
0.0
  3
*D19
  1

  0
TEXT
  5
266
  8
0
 62
     0
 10
1086.9046845954001
 20
-126.40270202550001
 30
0.0
 40
5.9972220420999998
  1
(186)
 50
90.0
  0
LINE
  5
267
  8
0
 62
     0
 10
1031.6237501662999
 20
-210.58325784600001
 30
0.0
 11
1089.4630178970001
 21
-210.58325784600001
 31
0.0
  0
LINE
  5
268
  8
0
 62
     0
 10
1031.6237501662999
 20
-24.583257845999999
 30
0.0
 11
1089.4630178970001
 21
-24.583257845999999
 31
0.0
  0
LINE
  5
269
  8
0
 62
     0
 10
1088.9630178970001
 20
-210.58325784600001
 30
0.0
 11
1088.9630178970001
 21
-105.2360359947
 31
0.0
  0
LINE
  5
26A
  8
0
 62
     0
 10
1088.9630178970001
 20
-210.58325784600001
 30
0.0
 11
1088.9630178970001
 21
-129.93047969739999
 31
0.0
  0
LINE
  5
26B
  8
0
 62
     0
 10
1088.9630178970001
 20
-24.583257845999999
 30
0.0
 11
1088.9630178970001
 21
-105.2360359947
 31
0.0
  0
LINE
  5
26C
  8
0
 62
     0
 10
1088.9630178970001
 20
-24.583257845999999
 30
0.0
 11
1088.9630178970001
 21
-129.93047969739999
 31
0.0
  0
LINE
  5
26D
  8
0
 62
     0
 10
1088.9630178970001
 20
-24.583257845999999
 30
0.0
 11
1088.9630178970001
 21
-27.583257845999999
 31
0.0
  0
SOLID
  5
26E
  8
0
 62
     0
 10
1088.9630178970001
 20
-24.583257845999999
 30
0.0
 11
1090.4630178970001
 21
-30.583257845999999
 31
0.0
 12
1087.4630178970001
 22
-30.583257845999999
 32
0.0
 13
1088.9630178970001
 23
-29.083257845999999
 33
0.0
  0
LINE
  5
26F
  8
0
 62
     0
 10
1088.9630178970001
 20
-210.58325784600001
 30
0.0
 11
1088.9630178970001
 21
-207.58325784600001
 31
0.0
  0
SOLID
  5
270
  8
0
 62
     0
 10
1088.9630178970001
 20
-210.58325784600001
 30
0.0
 11
1087.4630178970001
 21
-204.58325784600001
 31
0.0
 12
1090.4630178970001
 22
-204.58325784600001
 32
0.0
 13
1088.9630178970001
 23
-206.08325784600001
 33
0.0
  0
ENDBLK
  5
271
  8
0
  0
BLOCK
  8
0
  2
*D20
 70
     1
 10
0.0
 20
0.0
 30
0.0
  3
*D20
  1

  0
TEXT
  5
275
  8
0
 62
     0
 10
1067.3879342596999
 20
-133.2082573692
 30
0.0
 40
5.9972220420999998
  1
(173)ôÓÉí
 50
90.0
  0
LINE
  5
276
  8
0
 62
     0
 10
1031.6237501662999
 20
-203.58325784600001
 30
0.0
 11
1069.9462675612999
 21
-203.58325784600001
 31
0.0
  0
LINE
  5
277
  8
0
 62
     0
 10
1031.6237501662999
 20
-31.083257845999999
 30
0.0
 11
1069.9462675612999
 21
-31.083257845999999
 31
0.0
  0
LINE
  5
278
  8
0
 62
     0
 10
1069.4462675612999
 20
-203.58325784600001
 30
0.0
 11
1069.4462675612999
 21
-97.930480651000025
 31
0.0
  0
LINE
  5
279
  8
0
 62
     0
 10
1069.4462675612999
 20
-203.58325784600001
 30
0.0
 11
1069.4462675612999
 21
-136.73603504100001
 31
0.0
  0
LINE
  5
27A
  8
0
 62
     0
 10
1069.4462675612999
 20
-31.083257845999999
 30
0.0
 11
1069.4462675612999
 21
-97.930480651000025
 31
0.0
  0
LINE
  5
27B
  8
0
 62
     0
 10
1069.4462675612999
 20
-31.083257845999999
 30
0.0
 11
1069.4462675612999
 21
-136.73603504100001
 31
0.0
  0
LINE
  5
27C
  8
0
 62
     0
 10
1069.4462675612999
 20
-31.083257845999999
 30
0.0
 11
1069.4462675612999
 21
-34.083257846000009
 31
0.0
  0
SOLID
  5
27D
  8
0
 62
     0
 10
1069.4462675612999
 20
-31.083257845999999
 30
0.0
 11
1070.9462675612999
 21
-37.083257846000002
 31
0.0
 12
1067.9462675612999
 22
-37.083257846000002
 32
0.0
 13
1069.4462675612999
 23
-35.583257846000002
 33
0.0
  0
LINE
  5
27E
  8
0
 62
     0
 10
1069.4462675612999
 20
-203.58325784600001
 30
0.0
 11
1069.4462675612999
 21
-200.58325784600001
 31
0.0
  0
SOLID
  5
27F
  8
0
 62
     0
 10
1069.4462675612999
 20
-203.58325784600001
 30
0.0
 11
1067.9462675612999
 21
-197.58325784600001
 31
0.0
 12
1070.9462675612999
 22
-197.58325784600001
 32
0.0
 13
1069.4462675612999
 23
-199.08325784600001
 33
0.0
  0
ENDBLK
  5
280
  8
0
  0
BLOCK
  8
0
  2
*D21
 70
     1
 10
0.0
 20
0.0
 30
0.0
  3
*D21
  1

  0
TEXT
  5
28F
  8
0
 62
     0
 10
680.741476003
 20
-164.3265902787
 30
0.0
 40
5.9972220420999998
  1
%%c13
 50
40.198870940200003
  0
LINE
  5
290
  8
0
 62
     0
 10
663.91491477419993
 20
-181.77863498249999
 30
0.0
 11
693.11355047109998
 21
-157.1048610066
 31
0.0
  0
LINE
  5
291
  8
0
 62
     0
 10
663.91491477419993
 20
-181.77863498249999
 30
0.0
 11
673.84442849499987
 21
-173.38788070960001
 31
0.0
  0
SOLID
  5
292
  8
0
 62
     0
 10
663.91491477419993
 20
-181.77863498249999
 30
0.0
 11
667.52960330619987
 21
-176.76026604259999
 31
0.0
 12
669.46593121529997
 22
-179.05169228579999
 32
0.0
 13
667.35205413910001
 23
-178.87414311879999
 33
0.0
  0
SOLID
  5
293
  8
0
 62
     0
 10
673.84442849499987
 20
-173.38788070960001
 30
0.0
 11
670.22973996309997
 21
-178.40624964950001
 31
0.0
 12
668.29341205399987
 22
-176.1148234062
 32
0.0
 13
670.40728913019996
 23
-176.29237257330001
 33
0.0
  0
ENDBLK
  5
294
  8
0
  0
BLOCK
  8
0
  2
*D22
 70
     1
 10
0.0
 20
0.0
 30
0.0
  3
*D22
  1

  0
TEXT
  5
298
  8
0
 62
     0
 10
801.32133833310013
 20
-211.11103551779999
 30
0.0
 40
5.9972220420999998
  1
10
 50
90.0
  0
LINE
  5
299
  8
0
 62
     0
 10
784.37967163459996
 20
-212.58325784600001
 30
0.0
 11
803.87967163459996
 21
-212.58325784600001
 31
0.0
  0
LINE
  5
29A
  8
0
 62
     0
 10
774.37967163459996
 20
-202.58325784600001
 30
0.0
 11
803.87967163459996
 21
-202.58325784600001
 31
0.0
  0
LINE
  5
29B
  8
0
 62
     0
 10
803.37967163459996
 20
-212.58325784600001
 30
0.0
 11
803.37967163459996
 21
-212.58325784600001
 31
0.0
  0
LINE
  5
29C
  8
0
 62
     0
 10
803.37967163459996
 20
-212.58325784600001
 30
0.0
 11
803.37967163459996
 21
-202.58325784600001
 31
0.0
  0
LINE
  5
29D
  8
0
 62
     0
 10
803.37967163459996
 20
-202.58325784600001
 30
0.0
 11
803.37967163459996
 21
-212.58325784600001
 31
0.0
  0
LINE
  5
29E
  8
0
 62
     0
 10
803.37967163459996
 20
-202.58325784600001
 30
0.0
 11
803.37967163459996
 21
-202.58325784600001
 31
0.0
  0
LINE
  5
29F
  8
0
 62
     0
 10
803.37967163459996
 20
-202.58325784600001
 30
0.0
 11
803.37967163459996
 21
-199.58325784600001
 31
0.0
  0
SOLID
  5
2A0
  8
0
 62
     0
 10
803.37967163459996
 20
-202.58325784600001
 30
0.0
 11
801.87967163460007
 21
-196.58325784600001
 31
0.0
 12
804.87967163459996
 22
-196.58325784600001
 32
0.0
 13
803.37967163459996
 23
-198.08325784600001
 33
0.0
  0
LINE
  5
2A1
  8
0
 62
     0
 10
803.37967163459996
 20
-212.58325784600001
 30
0.0
 11
803.37967163459996
 21
-215.58325784600001
 31
0.0
  0
SOLID
  5
2A2
  8
0
 62
     0
 10
803.37967163459996
 20
-212.58325784600001
 30
0.0
 11
804.87967163459996
 21
-218.58325784600001
 31
0.0
 12
801.87967163460007
 22
-218.58325784600001
 32
0.0
 13
803.37967163459996
 23
-217.08325784600001
 33
0.0
  0
ENDBLK
  5
2A3
  8
0
  0
BLOCK
  8
0
  2
*D23
 70
     1
 10
0.0
 20
0.0
 30
0.0
  3
*D23
  1

  0
TEXT
  5
2A7
  8
0
 62
     0
 10
820.18228583229995
 20
-122.8749243537
 30
0.0
 40
5.9972220420999998
  1
190
 50
90.0
  0
LINE
  5
2A8
  8
0
 62
     0
 10
784.37967163459996
 20
-212.58325784600001
 30
0.0
 11
822.7406191337999
 21
-212.58325784600001
 31
0.0
  0
LINE
  5
2A9
  8
0
 62
     0
 10
784.37967163459996
 20
-22.583257845999999
 30
0.0
 11
822.7406191337999
 21
-22.583257845999999
 31
0.0
  0
LINE
  5
2AA
  8
0
 62
     0
 10
822.24061913380001
 20
-212.58325784600001
 30
0.0
 11
822.24061913380001
 21
-108.7638136665
 31
0.0
  0
LINE
  5
2AB
  8
0
 62
     0
 10
822.24061913380001
 20
-212.58325784600001
 30
0.0
 11
822.24061913380001
 21
-126.40270202550001
 31
0.0
  0
LINE
  5
2AC
  8
0
 62
     0
 10
822.24061913380001
 20
-22.583257845999999
 30
0.0
 11
822.24061913380001
 21
-108.7638136665
 31
0.0
  0
LINE
  5
2AD
  8
0
 62
     0
 10
822.24061913380001
 20
-22.583257845999999
 30
0.0
 11
822.24061913380001
 21
-126.40270202550001
 31
0.0
  0
LINE
  5
2AE
  8
0
 62
     0
 10
822.24061913380001
 20
-22.583257845999999
 30
0.0
 11
822.24061913380001
 21
-25.583257845999999
 31
0.0
  0
SOLID
  5
2AF
  8
0
 62
     0
 10
822.24061913380001
 20
-22.583257845999999
 30
0.0
 11
823.7406191337999
 21
-28.583257845999999
 31
0.0
 12
820.74061913380001
 22
-28.583257845999999
 32
0.0
 13
822.24061913380001
 23
-27.083257845999999
 33
0.0
  0
LINE
  5
2B0
  8
0
 62
     0
 10
822.24061913380001
 20
-212.58325784600001
 30
0.0
 11
822.24061913380001
 21
-209.58325784600001
 31
0.0
  0
SOLID
  5
2B1
  8
0
 62
     0
 10
822.24061913380001
 20
-212.58325784600001
 30
0.0
 11
820.74061913380001
 21
-206.58325784600001
 31
0.0
 12
823.7406191337999
 22
-206.58325784600001
 32
0.0
 13
822.24061913380001
 23
-208.08325784600001
 33
0.0
  0
ENDBLK
  5
2B2
  8
0
  0
BLOCK
  8
0
  2
*D24
 70
     1
 10
0.0
 20
0.0
 30
0.0
  3
*D24
  1

  0
TEXT
  5
2B6
  8
0
 62
     0
 10
801.32133833310013
 20
-31.111035517800001
 30
0.0
 40
5.9972220420999998
  1
10
 50
90.0
  0
LINE
  5
2B7
  8
0
 62
     0
 10
774.37967163459996
 20
-32.583257846000002
 30
0.0
 11
803.87967163459996
 21
-32.583257846000002
 31
0.0
  0
LINE
  5
2B8
  8
0
 62
     0
 10
784.37967163459996
 20
-22.583257845999999
 30
0.0
 11
803.87967163459996
 21
-22.583257845999999
 31
0.0
  0
LINE
  5
2B9
  8
0
 62
     0
 10
803.37967163459996
 20
-32.583257846000002
 30
0.0
 11
803.37967163459996
 21
-32.583257846000002
 31
0.0
  0
LINE
  5
2BA
  8
0
 62
     0
 10
803.37967163459996
 20
-32.583257846000002
 30
0.0
 11
803.37967163459996
 21
-22.583257845999999
 31
0.0
  0
LINE
  5
2BB
  8
0
 62
     0
 10
803.37967163459996
 20
-22.583257845999999
 30
0.0
 11
803.37967163459996
 21
-32.583257846000002
 31
0.0
  0
LINE
  5
2BC
  8
0
 62
     0
 10
803.37967163459996
 20
-22.583257845999999
 30
0.0
 11
803.37967163459996
 21
-22.583257845999999
 31
0.0
  0
LINE
  5
2BD
  8
0
 62
     0
 10
803.37967163459996
 20
-22.583257845999999
 30
0.0
 11
803.37967163459996
 21
-19.583257845999999
 31
0.0
  0
SOLID
  5
2BE
  8
0
 62
     0
 10
803.37967163459996
 20
-22.583257845999999
 30
0.0
 11
801.87967163460007
 21
-16.583257845999999
 31
0.0
 12
804.87967163459996
 22
-16.583257845999999
 32
0.0
 13
803.37967163459996
 23
-18.083257845999999
 33
0.0
  0
LINE
  5
2BF
  8
0
 62
     0
 10
803.37967163459996
 20
-32.583257846000002
 30
0.0
 11
803.37967163459996
 21
-35.583257846000002
 31
0.0
  0
SOLID
  5
2C0
  8
0
 62
     0
 10
803.37967163459996
 20
-32.583257846000002
 30
0.0
 11
804.87967163459996
 21
-38.583257846000002
 31
0.0
 12
801.87967163460007
 22
-38.583257846000002
 32
0.0
 13
803.37967163459996
 23
-37.083257846000002
 33
0.0
  0
ENDBLK
  5
2C1
  8
0
  0
BLOCK
  8
0
  2
*D25
 70
     1
 10
0.0
 20
0.0
 30
0.0
  3
*D25
  1

  0
TEXT
  5
2C5
  8
0
 62
     0
 10
777.85189396279998
 20
2.112989999199999
 30
0.0
 40
5.9972220420999998
  1
10
  0
LINE
  5
2C6
  8
0
 62
     0
 10
786.37967163459996
 20
-24.583257845999999
 30
0.0
 11
786.37967163459996
 21
0.5546566977000002
 31
0.0
  0
LINE
  5
2C7
  8
0
 62
     0
 10
776.37967163460007
 20
-34.583257846000002
 30
0.0
 11
776.37967163460007
 21
0.5546566977000002
 31
0.0
  0
LINE
  5
2C8
  8
0
 62
     0
 10
786.37967163459996
 20
0.0546566977
 30
0.0
 11
786.37967163459996
 21
0.0546566977
 31
0.0
  0
LINE
  5
2C9
  8
0
 62
     0
 10
786.37967163459996
 20
0.0546566977
 30
0.0
 11
776.37967163460007
 21
0.0546566977
 31
0.0
  0
LINE
  5
2CA
  8
0
 62
     0
 10
776.37967163460007
 20
0.0546566977
 30
0.0
 11
786.37967163459996
 21
0.0546566977
 31
0.0
  0
LINE
  5
2CB
  8
0
 62
     0
 10
776.37967163460007
 20
0.0546566977
 30
0.0
 11
776.37967163460007
 21
0.0546566977
 31
0.0
  0
LINE
  5
2CC
  8
0
 62
     0
 10
776.37967163460007
 20
0.0546566977
 30
0.0
 11
773.37967163460007
 21
0.0546566977
 31
0.0
  0
SOLID
  5
2CD
  8
0
 62
     0
 10
776.37967163460007
 20
0.0546566977
 30
0.0
 11
770.37967163459996
 21
-1.4453433022999991
 31
0.0
 12
770.37967163459996
 22
1.5546566977
 32
0.0
 13
771.87967163459996
 23
0.0546566977
 33
0.0
  0
LINE
  5
2CE
  8
0
 62
     0
 10
786.37967163459996
 20
0.0546566977
 30
0.0
 11
789.37967163460007
 21
0.0546566977
 31
0.0
  0
SOLID
  5
2CF
  8
0
 62
     0
 10
786.37967163459996
 20
0.0546566977
 30
0.0
 11
792.37967163459996
 21
1.5546566977
 31
0.0
 12
792.37967163459996
 22
-1.4453433022999991
 32
0.0
 13
790.87967163459996
 23
0.0546566977
 33
0.0
  0
ENDBLK
  5
2D0
  8
0
  0
BLOCK
  8
0
  2
BALLON2
 70
     0
 10
0.0
 20
0.0
 30
0.0
  3
BALLON2
  1

  0
INSERT
  5
2D5
  8
0
  6
CONTINUOUS
  2
*U74
 10
0.0
 20
0.0
 30
0.0
  0
CIRCLE
  5
2D6
  8
┌▓È_1
 10
571.78988539989984
 20
-254.33325784600001
 30
0.0
 40
8.0
  0
LINE
  5
2D7
  8
Éíû@É³
 10
585.12321873330006
 20
-254.33325784600001
 30
0.0
 11
579.78988539989984
 21
-254.33325784600001
 31
0.0
  0
LINE
  5
2D8
  8
Éíû@É³
 10
611.91873413459984
 20
-212.58325784600001
 30
0.0
 11
585.12321873330006
 21
-254.33325784600001
 31
0.0
  0
SOLID
  5
2D9
  8
Éíû@É³
 10
611.91873413459984
 20
-212.58325784600001
 30
0.0
 11
608.94419633990003
 21
-220.18010751599999
 31
0.0
 12
608.46188203559996
 22
-217.9693671622
 32
0.0
 13
608.46188203559996
 23
-217.9693671622
 33
0.0
  0
SOLID
  5
2DA
  8
Éíû@É³
 10
608.46188203559996
 20
-217.9693671622
 30
0.0
 11
606.25114168180005
 21
-218.4516814664
 31
0.0
 12
611.91873413459984
 22
-212.58325784600001
 32
0.0
 13
611.91873413459984
 23
-212.58325784600001
 33
0.0
  0
ENDBLK
  5
2DB
  8
0
  0
BLOCK
  8
0
  2
BALLON3
 70
     0
 10
0.0
 20
0.0
 30
0.0
  3
BALLON3
  1

  0
INSERT
  5
2ED
  8
0
  6
CONTINUOUS
  2
*U75
 10
0.0
 20
0.0
 30
0.0
  0
CIRCLE
  5
2EE
  8
┌▓È_1
 10
753.48171482700002
 20
-254.33325784600001
 30
0.0
 40
8.0
  0
LINE
  5
2EF
  8
Éíû@É³
 10
740.14838149369984
 20
-254.33325784600001
 30
0.0
 11
745.48171482700002
 21
-254.33325784600001
 31
0.0
  0
LINE
  5
2F0
  8
Éíû@É³
 10
730.39356966379989
 20
-182.2348732511
 30
0.0
 11
740.14838149369984
 21
-254.33325784600001
 31
0.0
  0
SOLID
  5
2F1
  8
Éíû@É³
 10
730.39356966379989
 20
-182.2348732511
 30
0.0
 11
733.05173910020005
 21
-189.94811739650001
 31
0.0
 12
731.25166243859985
 22
-188.5770871224
 32
0.0
 13
731.25166243859985
 23
-188.5770871224
 33
0.0
  0
SOLID
  5
2F2
  8
Éíû@É³
 10
731.25166243859985
 20
-188.5770871224
 30
0.0
 11
729.88063216449984
 21
-190.37716378389999
 31
0.0
 12
730.39356966379989
 22
-182.2348732511
 32
0.0
 13
730.39356966379989
 23
-182.2348732511
 33
0.0
  0
ENDBLK
  5
2F3
  8
0
  0
BLOCK
  8
0
  2
*D28
 70
     1
 10
0.0
 20
0.0
 30
0.0
  3
*D28
  1

  0
TEXT
  5
337
  8
0
 62
     0
 10
909.22583353139987
 20
-193.11103551779999
 30
0.0
 40
5.9972220420999998
  1
24
 50
90.0
  0
LINE
  5
338
  8
0
 62
     0
 10
925.28416683289993
 20
-177.58325784600001
 30
0.0
 11
910.78416683289993
 21
-177.58325784600001
 31
0.0
  0
LINE
  5
339
  8
0
 62
     0
 10
936.12375016630006
 20
-201.58325784600001
 30
0.0
 11
910.78416683289993
 21
-201.58325784600001
 31
0.0
  0
LINE
  5
33A
  8
0
 62
     0
 10
911.28416683289981
 20
-177.58325784600001
 30
0.0
 11
911.28416683289981
 21
-182.52770250239999
 31
0.0
  0
LINE
  5
33B
  8
0
 62
     0
 10
911.28416683289981
 20
-177.58325784600001
 30
0.0
 11
911.28416683289981
 21
-196.6388131896
 31
0.0
  0
LINE
  5
33C
  8
0
 62
     0
 10
911.28416683289981
 20
-201.58325784600001
 30
0.0
 11
911.28416683289981
 21
-182.52770250239999
 31
0.0
  0
LINE
  5
33D
  8
0
 62
     0
 10
911.28416683289981
 20
-201.58325784600001
 30
0.0
 11
911.28416683289981
 21
-196.6388131896
 31
0.0
  0
LINE
  5
33E
  8
0
 62
     0
 10
911.28416683289981
 20
-201.58325784600001
 30
0.0
 11
911.28416683289981
 21
-204.58325784600001
 31
0.0
  0
SOLID
  5
33F
  8
0
 62
     0
 10
911.28416683289981
 20
-201.58325784600001
 30
0.0
 11
912.78416683289993
 21
-207.58325784600001
 31
0.0
 12
909.78416683289993
 22
-207.58325784600001
 32
0.0
 13
911.28416683289981
 23
-206.08325784600001
 33
0.0
  0
LINE
  5
340
  8
0
 62
     0
 10
911.28416683289981
 20
-177.58325784600001
 30
0.0
 11
911.28416683289981
 21
-174.58325784600001
 31
0.0
  0
SOLID
  5
341
  8
0
 62
     0
 10
911.28416683289981
 20
-177.58325784600001
 30
0.0
 11
909.78416683289993
 21
-171.58325784600001
 31
0.0
 12
912.78416683289993
 22
-171.58325784600001
 32
0.0
 13
911.28416683289981
 23
-173.08325784600001
 33
0.0
  0
ENDBLK
  5
342
  8
0
  0
BLOCK
  8
0
  2
*D29
 70
     1
 10
0.0
 20
0.0
 30
0.0
  3
*D29
  1

  0
TEXT
  5
346
  8
0
 62
     0
 10
936.85986133040001
 20
-0.5249245445000002
 30
0.0
 40
5.9972220420999998
  1
6
  0
LINE
  5
347
  8
0
 62
     0
 10
941.62375016630006
 20
-21.583257845999999
 30
0.0
 11
941.62375016630006
 21
-2.0832578459999991
 31
0.0
  0
LINE
  5
348
  8
0
 62
     0
 10
935.62375016630006
 20
-22.583257845999999
 30
0.0
 11
935.62375016630006
 21
-2.0832578459999991
 31
0.0
  0
LINE
  5
349
  8
0
 62
     0
 10
941.62375016630006
 20
-2.5832578459999991
 30
0.0
 11
941.62375016630006
 21
-2.5832578459999991
 31
0.0
  0
LINE
  5
34A
  8
0
 62
     0
 10
941.62375016630006
 20
-2.5832578459999991
 30
0.0
 11
935.62375016630006
 21
-2.5832578459999991
 31
0.0
  0
LINE
  5
34B
  8
0
 62
     0
 10
935.62375016630006
 20
-2.5832578459999991
 30
0.0
 11
941.62375016630006
 21
-2.5832578459999991
 31
0.0
  0
LINE
  5
34C
  8
0
 62
     0
 10
935.62375016630006
 20
-2.5832578459999991
 30
0.0
 11
935.62375016630006
 21
-2.5832578459999991
 31
0.0
  0
LINE
  5
34D
  8
0
 62
     0
 10
935.62375016630006
 20
-2.5832578459999991
 30
0.0
 11
932.62375016629994
 21
-2.5832578459999991
 31
0.0
  0
SOLID
  5
34E
  8
0
 62
     0
 10
935.62375016630006
 20
-2.5832578459999991
 30
0.0
 11
929.62375016630006
 21
-4.0832578460000004
 31
0.0
 12
929.62375016630006
 22
-1.0832578459999991
 32
0.0
 13
931.12375016630006
 23
-2.5832578459999991
 33
0.0
  0
LINE
  5
34F
  8
0
 62
     0
 10
941.62375016630006
 20
-2.5832578459999991
 30
0.0
 11
944.62375016630006
 21
-2.5832578459999991
 31
0.0
  0
SOLID
  5
350
  8
0
 62
     0
 10
941.62375016630006
 20
-2.5832578459999991
 30
0.0
 11
947.62375016630006
 21
-1.0832578459999991
 31
0.0
 12
947.62375016630006
 22
-4.0832578460000004
 32
0.0
 13
946.12375016630006
 23
-2.5832578459999991
 33
0.0
  0
ENDBLK
  5
351
  8
0
  0
BLOCK
  8
0
  2
*D30
 70
     1
 10
0.0
 20
0.0
 30
0.0
  3
*D30
  1

  0
TEXT
  5
355
  8
0
 62
     0
 10
977.15248470130007
 20
14.6643798073
 30
0.0
 40
5.9972220420999998
  1
95
  0
LINE
  5
356
  8
0
 62
     0
 10
1030.6237501662999
 20
-23.583257845999999
 30
0.0
 11
1030.6237501662999
 21
13.1060465058
 31
0.0
  0
LINE
  5
357
  8
0
 62
     0
 10
935.62375016630006
 20
-22.583257845999999
 30
0.0
 11
935.62375016630006
 21
13.1060465058
 31
0.0
  0
LINE
  5
358
  8
0
 62
     0
 10
1030.6237501662999
 20
12.6060465058
 30
0.0
 11
987.73581771670001
 21
12.6060465058
 31
0.0
  0
LINE
  5
359
  8
0
 62
     0
 10
1030.6237501662999
 20
12.6060465058
 30
0.0
 11
973.62470702940004
 21
12.6060465058
 31
0.0
  0
LINE
  5
35A
  8
0
 62
     0
 10
935.62375016630006
 20
12.6060465058
 30
0.0
 11
987.73581771670001
 21
12.6060465058
 31
0.0
  0
LINE
  5
35B
  8
0
 62
     0
 10
935.62375016630006
 20
12.6060465058
 30
0.0
 11
973.62470702940004
 21
12.6060465058
 31
0.0
  0
LINE
  5
35C
  8
0
 62
     0
 10
935.62375016630006
 20
12.6060465058
 30
0.0
 11
938.62375016630006
 21
12.6060465058
 31
0.0
  0
SOLID
  5
35D
  8
0
 62
     0
 10
935.62375016630006
 20
12.6060465058
 30
0.0
 11
941.62375016630006
 21
14.1060465058
 31
0.0
 12
941.62375016630006
 22
11.1060465058
 32
0.0
 13
940.12375016630006
 23
12.6060465058
 33
0.0
  0
LINE
  5
35E
  8
0
 62
     0
 10
1030.6237501662999
 20
12.6060465058
 30
0.0
 11
1027.6237501662999
 21
12.6060465058
 31
0.0
  0
SOLID
  5
35F
  8
0
 62
     0
 10
1030.6237501662999
 20
12.6060465058
 30
0.0
 11
1024.6237501662999
 21
11.1060465058
 31
0.0
 12
1024.6237501662999
 22
14.1060465058
 32
0.0
 13
1026.1237501662999
 23
12.6060465058
 33
0.0
  0
ENDBLK
  5
360
  8
0
  0
BLOCK
  8
0
  2
*D31
 70
     1
 10
0.0
 20
0.0
 30
0.0
  3
*D31
  1

  0
TEXT
  5
364
  8
0
 62
     0
 10
919.56541686470007
 20
-43.611035517799998
 30
0.0
 40
5.9972220420999998
  1
13
 50
90.0
  0
LINE
  5
365
  8
0
 62
     0
 10
936.12375016630006
 20
-33.583257846000002
 30
0.0
 11
921.12375016630006
 21
-33.583257846000002
 31
0.0
  0
LINE
  5
366
  8
0
 62
     0
 10
935.62375016630006
 20
-46.583257846000002
 30
0.0
 11
921.12375016630006
 21
-46.583257846000002
 31
0.0
  0
LINE
  5
367
  8
0
 62
     0
 10
921.62375016630006
 20
-33.583257846000002
 30
0.0
 11
921.62375016630006
 21
-33.583257846000002
 31
0.0
  0
LINE
  5
368
  8
0
 62
     0
 10
921.62375016630006
 20
-33.583257846000002
 30
0.0
 11
921.62375016630006
 21
-46.583257846000002
 31
0.0
  0
LINE
  5
369
  8
0
 62
     0
 10
921.62375016630006
 20
-46.583257846000002
 30
0.0
 11
921.62375016630006
 21
-33.583257846000002
 31
0.0
  0
LINE
  5
36A
  8
0
 62
     0
 10
921.62375016630006
 20
-46.583257846000002
 30
0.0
 11
921.62375016630006
 21
-46.583257846000002
 31
0.0
  0
LINE
  5
36B
  8
0
 62
     0
 10
921.62375016630006
 20
-46.583257846000002
 30
0.0
 11
921.62375016630006
 21
-43.583257846000002
 31
0.0
  0
SOLID
  5
36C
  8
0
 62
     0
 10
921.62375016630006
 20
-46.583257846000002
 30
0.0
 11
920.12375016629994
 21
-40.583257846000002
 31
0.0
 12
923.12375016630006
 22
-40.583257846000002
 32
0.0
 13
921.62375016630006
 23
-42.083257846000002
 33
0.0
  0
LINE
  5
36D
  8
0
 62
     0
 10
921.62375016630006
 20
-33.583257846000002
 30
0.0
 11
921.62375016630006
 21
-36.583257846000009
 31
0.0
  0
SOLID
  5
36E
  8
0
 62
     0
 10
921.62375016630006
 20
-33.583257846000002
 30
0.0
 11
923.12375016630006
 21
-39.583257846000002
 31
0.0
 12
920.12375016629994
 22
-39.583257846000002
 32
0.0
 13
921.62375016630006
 23
-38.083257846000002
 33
0.0
  0
ENDBLK
  5
36F
  8
0
  0
BLOCK
  8
0
  2
BALLON4
 70
     0
 10
0.0
 20
0.0
 30
0.0
  3
BALLON4
  1

  0
INSERT
  5
3EE
  8
0
  6
CONTINUOUS
  2
*U107
 10
0.0
 20
0.0
 30
0.0
  0
CIRCLE
  5
3EF
  8
┌▓È_1
 10
892.39886995789982
 20
-148.74593080779999
 30
0.0
 40
8.0
  0
LINE
  5
3F0
  8
Éíû@É³
 10
905.73220329130015
 20
-148.74593080779999
 30
0.0
 11
900.39886995789982
 21
-148.74593080779999
 31
0.0
  0
LINE
  5
3F1
  8
Éíû@É³
 10
971.07375016629999
 20
-202.08325784600001
 30
0.0
 11
905.73220329130015
 21
-148.74593080779999
 31
0.0
  0
SOLID
  5
3F2
  8
Éíû@É³
 10
971.07375016629999
 20
-202.08325784600001
 30
0.0
 11
963.86456307449987
 21
-198.2638833584999
 31
0.0
 12
966.11581770919997
 22
-198.0361717646
 32
0.0
 13
966.11581770919997
 23
-198.0361717646
 33
0.0
  0
SOLID
  5
3F3
  8
Éíû@É³
 10
966.11581770919997
 20
-198.0361717646
 30
0.0
 11
965.88810611519989
 21
-195.78491712990001
 31
0.0
 12
971.07375016629999
 22
-202.08325784600001
 32
0.0
 13
971.07375016629999
 23
-202.08325784600001
 33
0.0
  0
ENDBLK
  5
3F4
  8
0
  0
BLOCK
  8
0
  2
BALLON5
 70
     0
 10
0.0
 20
0.0
 30
0.0
  3
BALLON5
  1

  0
INSERT
  5
3F8
  8
0
  6
CONTINUOUS
  2
*U108
 10
0.0
 20
0.0
 30
0.0
  0
CIRCLE
  5
3F9
  8
┌▓È_1
 10
892.39886995789982
 20
-61.527193951900003
 30
0.0
 40
8.0
  0
LINE
  5
3FA
  8
Éíû@É³
 10
905.73220329130015
 20
-61.527193951900003
 30
0.0
 11
900.39886995789982
 21
-61.527193951900003
 31
0.0
  0
LINE
  5
3FB
  8
Éíû@É³
 10
941.5302187044
 20
-49.3880975951
 30
0.0
 11
905.73220329130015
 21
-61.527193951900003
 31
0.0
  0
SOLID
  5
3FC
  8
Éíû@É³
 10
941.5302187044
 20
-49.3880975951
 30
0.0
 11
934.46778180470005
 21
-53.472456178400002
 31
0.0
 12
935.46921207639991
 22
-51.443383136199998
 32
0.0
 13
935.46921207639991
 23
-51.443383136199998
 33
0.0
  0
SOLID
  5
3FD
  8
Éíû@É³
 10
935.46921207639991
 20
-51.443383136199998
 30
0.0
 11
933.4401390342
 21
-50.441952864399987
 31
0.0
 12
941.5302187044
 22
-49.3880975951
 32
0.0
 13
941.5302187044
 23
-49.3880975951
 33
0.0
  0
ENDBLK
  5
3FE
  8
0
  0
BLOCK
  8
0
  2
BALLON6
 70
     0
 10
0.0
 20
0.0
 30
0.0
  3
BALLON6
  1

  0
INSERT
  5
402
  8
0
  6
CONTINUOUS
  2
*U109
 10
0.0
 20
0.0
 30
0.0
  0
CIRCLE
  5
403
  8
┌▓È_1
 10
892.39886995789982
 20
-113.4201322544
 30
0.0
 40
8.0
  0
LINE
  5
404
  8
Éíû@É³
 10
905.73220329130015
 20
-113.4201322544
 30
0.0
 11
900.39886995789982
 21
-113.4201322544
 31
0.0
  0
LINE
  5
405
  8
Éíû@É³
 10
947.23220329130004
 20
-168.83288404850001
 30
0.0
 11
905.73220329130015
 21
-113.4201322544
 31
0.0
  0
SOLID
  5
406
  8
Éíû@É³
 10
947.23220329130004
 20
-168.83288404850001
 30
0.0
 11
941.15594907699995
 21
-163.38870048039999
 31
0.0
 12
943.39572829079998
 22
-163.7102421939
 32
0.0
 13
943.39572829079998
 23
-163.7102421939
 33
0.0
  0
SOLID
  5
407
  8
Éíû@É³
 10
943.39572829079998
 20
-163.7102421939
 30
0.0
 11
943.71727000429985
 21
-161.4704629801
 31
0.0
 12
947.23220329130004
 22
-168.83288404850001
 32
0.0
 13
947.23220329130004
 23
-168.83288404850001
 33
0.0
  0
ENDBLK
  5
408
  8
0
  0
BLOCK
  8
0
  2
*U35
 70
     1
 10
0.0
 20
0.0
 30
0.0
  3
*U35
  1

  0
TEXT
  5
448
  8
┌▓È_1
  6
CONTINUOUS
 10
890.20878260124175
 20
-337.34440863959998
 30
0.0
 40
5.9972220420999998
  1
6
  0
ENDBLK
  5
44A
  8
0
  0
BLOCK
  8
0
  2
*U36
 70
     1
 10
0.0
 20
0.0
 30
0.0
  3
*U36
  1

  0
TEXT
  5
44C
  8
┌▓È_1
  6
CONTINUOUS
 10
654.07799608938979
 20
-256.80270221630002
 30
0.0
 40
5.9972220420999998
  1
3
  0
ENDBLK
  5
44E
  8
0
  0
BLOCK
  8
0
  2
*U37
 70
     1
 10
0.0
 20
0.0
 30
0.0
  3
*U37
  1

  0
TEXT
  5
450
  8
É}ÿg
  6
CONTINUOUS
 10
1122.866332603151
 20
51.871799507643139
 30
0.0
 40
5.3974999188999986
  1
ë³ü@Æ¨ü@ôÓü@ùe
  0
ENDBLK
  5
452
  8
0
  0
BLOCK
  8
0
  2
*U38
 70
     1
 10
0.0
 20
0.0
 30
0.0
  3
*U38
  1

  0
TEXT
  5
454
  8
É}ÿg
  6
CONTINUOUS
 10
1070.716262598095
 20
51.926596461134508
 30
0.0
 40
5.3974999188999986
  1
ë³Æ¨ô·
  0
ENDBLK
  5
456
  8
0
  0
BLOCK
  8
0
  2
*U39
 70
     1
 10
0.0
 20
0.0
 30
0.0
  3
*U39
  1

  0
TEXT
  5
458
  8
É}ÿg
  6
CONTINUOUS
 10
1050.2506660982881
 20
51.981393414625892
 30
0.0
 40
5.3974999188999986
  1
òøöÈ
  0
ENDBLK
  5
45A
  8
0
  0
BLOCK
  8
0
  2
*U40
 70
     1
 10
0.0
 20
0.0
 30
0.0
  3
*U40
  1

  0
TEXT
  5
45C
  8
É}ÿg
  6
CONTINUOUS
 10
957.88406448969988
 20
-494.67481546571071
 30
0.0
 40
10.794999837900001
  1
èöÄ«ë´Äð
  0
ENDBLK
  5
45E
  8
0
  0
BLOCK
  8
0
  2
*U41
 70
     1
 10
0.0
 20
0.0
 30
0.0
  3
*U41
  1

  0
TEXT
  5
460
  8
É}ÿg
  6
CONTINUOUS
 10
1216.9217511736881
 20
51.844401030897458
 30
0.0
 40
5.3974999188999986
  1
îƒöFÄÊ
  0
ENDBLK
  5
462
  8
0
  0
BLOCK
  8
0
  2
*U42
 70
     1
 10
0.0
 20
0.0
 30
0.0
  3
*U42
  1

  0
TEXT
  5
464
  8
É}ÿg
  6
CONTINUOUS
 10
1099.734572789605
 20
-486.0065943569964
 30
0.0
 40
5.9972220420999998
  1
É} öÈ
  0
ENDBLK
  5
466
  8
0
  0
BLOCK
  8
0
  2
*U43
 70
     1
 10
0.0
 20
0.0
 30
0.0
  3
*U43
  1

  0
TEXT
  5
468
  8
É}ÿg
  6
CONTINUOUS
 10
1097.6492443130369
 20
-442.12836536292741
 30
0.0
 40
5.9972220420999998
  1
É╗òiû╝
  0
ENDBLK
  5
46A
  8
0
  0
BLOCK
  8
0
  2
*U44
 70
     1
 10
0.0
 20
0.0
 30
0.0
  3
*U44
  1

  0
TEXT
  5
46C
  8
É}ÿg
  6
CONTINUOUS
 10
1097.816679446192
 20
-464.06747985996191
 30
0.0
 40
5.9972220420999998
  1
É}û╩û╝
  0
ENDBLK
  5
46E
  8
0
  0
BLOCK
  8
0
  2
*U45
 70
     1
 10
0.0
 20
0.0
 30
0.0
  3
*U45
  1

  0
TEXT
  5
470
  8
É}ÿg
  6
CONTINUOUS
 10
957.40709128012554
 20
-442.76498243343087
 30
0.0
 40
5.9972220420999998
  1
ô·ü@ü@òt
  0
ENDBLK
  5
472
  8
0
  0
BLOCK
  8
0
  2
*U46
 70
     1
 10
0.0
 20
0.0
 30
0.0
  3
*U46
  1

  0
TEXT
  5
474
  8
É}ÿg
  6
CONTINUOUS
 10
1006.767793498988
 20
-442.94763894232739
 30
0.0
 40
5.9972220420999998
  1
Ä┌ü@ü@ôx
  0
ENDBLK
  5
476
  8
0
  0
BLOCK
  8
0
  2
*U47
 70
     1
 10
0.0
 20
0.0
 30
0.0
  3
*U47
  1

  0
TEXT
  5
478
  8
É}ÿg
  6
CONTINUOUS
 10
1197.003946603925
 20
51.871799507643139
 30
0.0
 40
5.3974999188999986
  1
ë³Æ¨ÄÊ
  0
ENDBLK
  5
47A
  8
0
  0
BLOCK
  8
0
  2
*U48
 70
     1
 10
0.0
 20
0.0
 30
0.0
  3
*U48
  1

  0
TEXT
  5
47C
  8
É}ÿg
  6
CONTINUOUS
 10
948.69813026024212
 20
-422.27859435699639
 30
0.0
 40
5.9972220420999998
  1
òiöÈ
  0
ENDBLK
  5
47E
  8
0
  0
BLOCK
  8
0
  2
*U49
 70
     1
 10
0.0
 20
0.0
 30
0.0
  3
*U49
  1

  0
TEXT
  5
480
  8
É}ÿg
  6
CONTINUOUS
 10
947.00439061609995
 20
-475.94763894232739
 30
0.0
 40
5.9972220420999998
  1
 É╗É}
  0
ENDBLK
  5
482
  8
0
  0
BLOCK
  8
0
  2
*U50
 70
     1
 10
0.0
 20
0.0
 30
0.0
  3
*U50
  1

  0
TEXT
  5
484
  8
É}ÿg
  6
CONTINUOUS
 10
947.00439061609995
 20
-464.88675343936188
 30
0.0
 40
5.9972220420999998
  1
 É¦îv
  0
ENDBLK
  5
486
  8
0
  0
BLOCK
  8
0
  2
*U51
 70
     1
 10
0.0
 20
0.0
 30
0.0
  3
*U51
  1

  0
TEXT
  5
488
  8
É}ÿg
  6
CONTINUOUS
 10
1022.0043906161
 20
-475.97808169381022
 30
0.0
 40
5.9972220420999998
  1
 îƒÉ}
  0
ENDBLK
  5
48A
  8
0
  0
BLOCK
  8
0
  2
*U52
 70
     1
 10
0.0
 20
0.0
 30
0.0
  3
*U52
  1

  0
TEXT
  5
48C
  8
É}ÿg
  6
CONTINUOUS
 10
1022.0043906161
 20
-464.91719619084472
 30
0.0
 40
5.9972220420999998
  1
 Åãì©
  0
ENDBLK
  5
48E
  8
0
  0
BLOCK
  8
0
  2
*U53
 70
     1
 10
0.0
 20
0.0
 30
0.0
  3
*U53
  1

  0
TEXT
  5
490
  8
É}ÿg
  6
CONTINUOUS
 10
1158.5002523756041
 20
-422.40036536292729
 30
0.0
 40
5.9972220420999998
  1
Éöù╩
  0
ENDBLK
  5
492
  8
0
  0
BLOCK
  8
0
  2
*U54
 70
     1
 10
0.0
 20
0.0
 30
0.0
  3
*U54
  1

  0
TEXT
  5
494
  8
É}ÿg
  6
CONTINUOUS
 10
1187.5256404660761
 20
-422.49169361737557
 30
0.0
 40
5.9972220420999998
  1
ö§ü@ü@ü@ìl
  0
ENDBLK
  5
496
  8
0
  0
BLOCK
  8
0
  2
*U55
 70
     1
 10
0.0
 20
0.0
 30
0.0
  3
*U55
  1

  0
TEXT
  5
498
  8
É}ÿg
  6
CONTINUOUS
 10
1091.810235806232
 20
-422.30903710847917
 30
0.0
 40
5.9972220420999998
  1
ìÌü@ü@ü@Ä┐
  0
ENDBLK
  5
49A
  8
0
  0
BLOCK
  8
0
  2
*U56
 70
     1
 10
0.0
 20
0.0
 30
0.0
  3
*U56
  1

  0
TEXT
  5
49C
  8
É}ÿg
  6
CONTINUOUS
 10
996.03855644235227
 20
-422.3394798599619
 30
0.0
 40
5.9972220420999998
  1
òiü@ü@ü@û╝
  0
ENDBLK
  5
49E
  8
0
  0
BLOCK
  8
0
  2
*U57
 70
     1
 10
0.0
 20
0.0
 30
0.0
  3
*U57
  1

  0
TEXT
  5
4A0
  8
┌▓È_1
  6
CONTINUOUS
 10
1055.107008845097
 20
40.674109113100002
 30
0.0
 40
4.9752947043999987
  1
1
  0
ENDBLK
  5
4A2
  8
0
  0
BLOCK
  8
0
  2
*U58
 70
     1
 10
0.0
 20
0.0
 30
0.0
  3
*U58
  1

  0
TEXT
  5
4A4
  8
┌▓È_1
  6
CONTINUOUS
 10
1068.391686327273
 20
41.618901596400008
 30
0.0
 40
5.9972220420999998
  1
H16.7.8
  0
ENDBLK
  5
4A6
  8
0
  0
BLOCK
  8
0
  2
*U59
 70
     1
 10
0.0
 20
0.0
 30
0.0
  3
*U59
  1

  0
TEXT
  5
4A8
  8
┌▓È_1
  6
CONTINUOUS
 10
1095.9624231918051
 20
41.53316762178985
 30
0.0
 40
5.9972220420999998
  1
öÓÄ¾é»Ä▓ü@âËéVü¿âËéUé╔ò¤ìX
  0
ENDBLK
  5
4AA
  8
0
  0
BLOCK
  8
0
  2
*U60
 70
     1
 10
0.0
 20
0.0
 30
0.0
  3
*U60
  1

  0
TEXT
  5
4AC
  8
┌▓È_1
  6
CONTINUOUS
 10
1200.1325311099899
 20
42.262262484251757
 30
0.0
 40
5.3974999188999986
  1
è¦û{
  0
ENDBLK
  5
4AE
  8
0
  0
BLOCK
  8
0
  2
*U61
 70
     1
 10
0.0
 20
0.0
 30
0.0
  3
*U61
  1

  0
TEXT
  5
4B0
  8
É}ÿg
  6
CONTINUOUS
 10
1004.949149650433
 20
-351.55101267839132
 30
0.0
 40
5.3974999188999986
  1
ôûü@éÞ
  0
ENDBLK
  5
4B2
  8
0
  0
BLOCK
  8
0
  2
*U62
 70
     1
 10
0.0
 20
0.0
 30
0.0
  3
*U62
  1

  0
TEXT
  5
4B4
  8
É}ÿg
  6
CONTINUOUS
 10
1012.045355127566
 20
-361.82499744584823
 30
0.0
 40
5.3974999188999986
  1
î«
  0
ENDBLK
  5
4B6
  8
0
  0
BLOCK
  8
0
  2
*U63
 70
     1
 10
0.0
 20
0.0
 30
0.0
  3
*U63
  1

  0
TEXT
  5
4B8
  8
É}ÿg
  6
CONTINUOUS
 10
990.71564098105
 20
-371.82499744584823
 30
0.0
 40
5.3974999188999986
  1
î« âå âj âb âg
  0
ENDBLK
  5
4BA
  8
0
  0
BLOCK
  8
0
  2
*U64
 70
     1
 10
0.0
 20
0.0
 30
0.0
  3
*U64
  1

  0
TEXT
  5
4BC
  8
É}ÿg
  6
CONTINUOUS
 10
1001.332550720003
 20
-391.79759896910252
 30
0.0
 40
5.3974999188999986
  1
û{ü@ü@æ╠
  0
ENDBLK
  5
4BE
  8
0
  0
BLOCK
  8
0
  2
*U65
 70
     1
 10
0.0
 20
0.0
 30
0.0
  3
*U65
  1

  0
TEXT
  5
4C0
  8
┌▓È_1
  6
CONTINUOUS
 10
578.16690449060002
 20
-69.858274279044664
 30
0.0
 40
5.9972220420999998
  1
èWÉíû@213ü~168ü~3éö
  0
ENDBLK
  5
4C2
  8
0
  0
BLOCK
  8
0
  2
*U66
 70
     1
 10
0.0
 20
0.0
 30
0.0
  3
*U66
  1

  0
TEXT
  5
4C4
  8
┌▓È_1
  6
CONTINUOUS
 62
     5
 10
614.57781765300103
 20
-126.7451858434913
 30
0.0
 40
21.462499999999999
  1
ÄU Éà É­
  0
ENDBLK
  5
4C6
  8
0
  0
BLOCK
  8
0
  2
*U67
 70
     1
 10
0.0
 20
0.0
 30
0.0
  3
*U67
  1

  0
TEXT
  5
4C8
  8
┌▓È_1
  6
CONTINUOUS
 10
604.16085729286601
 20
-163.29628887620001
 30
0.0
 40
5.9972220420999998
  1
égék
  0
ENDBLK
  5
4CA
  8
0
  0
BLOCK
  8
0
  2
*U68
 70
     1
 10
0.0
 20
0.0
 30
0.0
  3
*U68
  1

  0
TEXT
  5
4CC
  8
┌▓È_1
  6
CONTINUOUS
 10
704.75231916819996
 20
-363.04547475287671
 30
0.0
 40
5.3974999188999986
  1
âXâ|âbâgùnÉ┌
  0
ENDBLK
  5
4CE
  8
0
  0
BLOCK
  8
0
  2
*U69
 70
     1
 10
0.0
 20
0.0
 30
0.0
  3
*U69
  1

  0
TEXT
  5
4D0
  8
É}ÿg
  6
CONTINUOUS
 10
1060.249794165346
 20
-464.79542518491371
 30
0.0
 40
5.9972220420999998
  1
ëÇ î┤
  0
ENDBLK
  5
4D2
  8
0
  0
BLOCK
  8
0
  2
*U70
 70
     1
 10
0.0
 20
0.0
 30
0.0
  3
*U70
  1

  0
TEXT
  5
4D4
  8
É}ÿg
  6
CONTINUOUS
 10
1060.249794165346
 20
-475.7954251849136
 30
0.0
 40
5.9972220420999998
  1
ëÇ î┤
  0
ENDBLK
  5
4D6
  8
0
  0
BLOCK
  8
0
  2
*U71
 70
     1
 10
0.0
 20
0.0
 30
0.0
  3
*U71
  1

  0
TEXT
  5
4D8
  8
É}ÿg
  6
CONTINUOUS
 10
996.05834394645854
 20
-381.74280201561112
 30
0.0
 40
5.3974999188999986
  1
öÓ Ä¾ é» Ä▓
  0
ENDBLK
  5
4DA
  8
0
  0
BLOCK
  8
0
  2
*U72
 70
     1
 10
0.0
 20
0.0
 30
0.0
  3
*U72
  1

  0
TEXT
  5
4DC
  8
É}ÿg
  6
CONTINUOUS
 10
1011.73027264499
 20
-401.74280201561112
 30
0.0
 40
5.3974999188999986
  1
èW
  0
ENDBLK
  5
4DE
  8
0
  0
BLOCK
  8
0
  2
*U73
 70
     1
 10
0.0
 20
0.0
 30
0.0
  3
*U73
  1

  0
TEXT
  5
4E0
  8
É}ÿg
  6
CONTINUOUS
 10
1011.7987688368549
 20
-411.77020049235682
 30
0.0
 40
5.3974999188999986
  1
ÿg
  0
ENDBLK
  5
4E2
  8
0
  0
BLOCK
  8
0
  2
*U74
 70
     1
 10
0.0
 20
0.0
 30
0.0
  3
*U74
  1

  0
TEXT
  5
4E4
  8
┌▓È_1
  6
CONTINUOUS
 10
569.26492777693136
 20
-256.80270221630002
 30
0.0
 40
5.9972220420999998
  1
1
  0
ENDBLK
  5
4E6
  8
0
  0
BLOCK
  8
0
  2
*U75
 70
     1
 10
0.0
 20
0.0
 30
0.0
  3
*U75
  1

  0
TEXT
  5
4E8
  8
┌▓È_1
  6
CONTINUOUS
 10
751.35251297330694
 20
-256.80270221630002
 30
0.0
 40
5.9972220420999998
  1
2
  0
ENDBLK
  5
4EA
  8
0
  0
BLOCK
  8
0
  2
*U76
 70
     1
 10
0.0
 20
0.0
 30
0.0
  3
*U76
  1

  0
TEXT
  5
4EC
  8
┌▓È_1
  6
CONTINUOUS
 10
670.01869876419994
 20
-80.905083598711172
 30
0.0
 40
5.3974999188999986
  1
âAâïâSâôùnÉ┌
  0
ENDBLK
  5
4EE
  8
0
  0
BLOCK
  8
0
  2
*U77
 70
     1
 10
0.0
 20
0.0
 30
0.0
  3
*U77
  1

  0
TEXT
  5
4F0
  8
┌▓È_1
  6
CONTINUOUS
 10
722.02947168909998
 20
-144.58695384777661
 30
0.0
 40
5.3974999188999986
  1
âXâ|âbâgùnÉ┌
  0
ENDBLK
  5
4F2
  8
0
  0
BLOCK
  8
0
  2
*U78
 70
     1
 10
0.0
 20
0.0
 30
0.0
  3
*U78
  1

  0
TEXT
  5
4F4
  8
É}ÿg
  6
CONTINUOUS
 10
1164.5933690636971
 20
-361.49621572490003
 30
0.0
 40
5.3974999188999986
  1
1
  0
ENDBLK
  5
4F6
  8
0
  0
BLOCK
  8
0
  2
*U79
 70
     1
 10
0.0
 20
0.0
 30
0.0
  3
*U79
  1

  0
TEXT
  5
4F8
  8
É}ÿg
  6
CONTINUOUS
 10
1164.5933690636971
 20
-351.49621572490003
 30
0.0
 40
5.3974999188999986
  1
1
  0
ENDBLK
  5
4FA
  8
0
  0
BLOCK
  8
0
  2
*U80
 70
     1
 10
0.0
 20
0.0
 30
0.0
  3
*U80
  1

  0
TEXT
  5
4FC
  8
É}ÿg
  6
CONTINUOUS
 10
1074.838401311795
 20
-351.49621572490003
 30
0.0
 40
5.3974999188999986
  1
érétéréRéOéSü@éP.éTéö
  0
ENDBLK
  5
4FE
  8
0
  0
BLOCK
  8
0
  2
*U81
 70
     1
 10
0.0
 20
0.0
 30
0.0
  3
*U81
  1

  0
TEXT
  5
500
  8
É}ÿg
  6
CONTINUOUS
 10
1076.9754824979591
 20
-361.85239592259393
 30
0.0
 40
5.3974999188999986
  1
É^ÞJ(âNâìü[âÇâüâbâL)
  0
ENDBLK
  5
502
  8
0
  0
BLOCK
  8
0
  2
*U82
 70
     1
 10
0.0
 20
0.0
 30
0.0
  3
*U82
  1

  0
TEXT
  5
504
  8
É}ÿg
  6
CONTINUOUS
 10
1062.591282206474
 20
-371.87979439933957
 30
0.0
 40
5.3974999188999986
  1
SUS304/É^ ÞJ(âNâìü[âÇâüâbâL)
  0
ENDBLK
  5
506
  8
0
  0
BLOCK
  8
0
  2
*U83
 70
     1
 10
0.0
 20
0.0
 30
0.0
  3
*U83
  1

  0
TEXT
  5
508
  8
É}ÿg
  6
CONTINUOUS
 10
1064.45437862518
 20
-401.49621572490003
 30
0.0
 40
5.3974999188999986
  1
érétéréRéOéSü@éR.éOéöü@égék
  0
ENDBLK
  5
50A
  8
0
  0
BLOCK
  8
0
  2
*U84
 70
     1
 10
0.0
 20
0.0
 30
0.0
  3
*U84
  1

  0
TEXT
  5
50C
  8
É}ÿg
  6
CONTINUOUS
 10
1064.45437862518
 20
-411.49621572489991
 30
0.0
 40
5.3974999188999986
  1
érétéréRéOéSü@éP.éOéöü@égék
  0
ENDBLK
  5
50E
  8
0
  0
BLOCK
  8
0
  2
*U85
 70
     1
 10
0.0
 20
0.0
 30
0.0
  3
*U85
  1

  0
TEXT
  5
510
  8
É}ÿg
  6
CONTINUOUS
 10
1073.4460636098911
 20
-381.78747656690001
 30
0.0
 40
5.3974999188999986
  1
érétéréRéOéSü@âËéV âË6
  0
ENDBLK
  5
512
  8
0
  0
BLOCK
  8
0
  2
*U86
 70
     1
 10
0.0
 20
0.0
 30
0.0
  3
*U86
  1

  0
TEXT
  5
514
  8
É}ÿg
  6
CONTINUOUS
 10
964.25671036374229
 20
-453.6575461148999
 30
0.0
 40
5.9972220420999998
  1
H9.3
  0
ENDBLK
  5
516
  8
0
  0
BLOCK
  8
0
  2
*U87
 70
     1
 10
0.0
 20
0.0
 30
0.0
  3
*U87
  1

  0
TEXT
  5
518
  8
É}ÿg
  6
CONTINUOUS
 10
1014.043611103363
 20
-453.6575461148999
 30
0.0
 40
5.9972220420999998
  1
1üF2
  0
ENDBLK
  5
51A
  8
0
  0
BLOCK
  8
0
  2
*U88
 70
     1
 10
0.0
 20
0.0
 30
0.0
  3
*U88
  1

  0
TEXT
  5
51C
  8
É}ÿg
  6
CONTINUOUS
 10
983.42322907638209
 20
-464.97808169381011
 30
0.0
 40
5.9972220420999998
  1
öÆÉ{ëÛ
  0
ENDBLK
  5
51E
  8
0
  0
BLOCK
  8
0
  2
*U89
 70
     1
 10
0.0
 20
0.0
 30
0.0
  3
*U89
  1

  0
TEXT
  5
520
  8
É}ÿg
  6
CONTINUOUS
 10
985.21935141386382
 20
-476.00852444529289
 30
0.0
 40
5.9972220420999998
  1
è¦ û{
  0
ENDBLK
  5
522
  8
0
  0
BLOCK
  8
0
  2
*U90
 70
     1
 10
0.0
 20
0.0
 30
0.0
  3
*U90
  1

  0
TEXT
  5
524
  8
É}ÿg
  6
CONTINUOUS
 10
954.59336906369708
 20
-411.49621572489991
 30
0.0
 40
5.3974999188999986
  1
1
  0
ENDBLK
  5
526
  8
0
  0
BLOCK
  8
0
  2
*U91
 70
     1
 10
0.0
 20
0.0
 30
0.0
  3
*U91
  1

  0
TEXT
  5
528
  8
É}ÿg
  6
CONTINUOUS
 10
954.27828658112185
 20
-401.49621572490003
 30
0.0
 40
5.3974999188999986
  1
2
  0
ENDBLK
  5
52A
  8
0
  0
BLOCK
  8
0
  2
*U92
 70
     1
 10
0.0
 20
0.0
 30
0.0
  3
*U92
  1

  0
TEXT
  5
52C
  8
É}ÿg
  6
CONTINUOUS
 10
954.30568505786755
 20
-371.49621572490003
 30
0.0
 40
5.3974999188999986
  1
5
  0
ENDBLK
  5
52E
  8
0
  0
BLOCK
  8
0
  2
*U93
 70
     1
 10
0.0
 20
0.0
 30
0.0
  3
*U93
  1

  0
TEXT
  5
530
  8
É}ÿg
  6
CONTINUOUS
 10
954.26458734274877
 20
-381.49621572490003
 30
0.0
 40
5.3974999188999986
  1
4
  0
ENDBLK
  5
532
  8
0
  0
BLOCK
  8
0
  2
*U94
 70
     1
 10
0.0
 20
0.0
 30
0.0
  3
*U94
  1

  0
TEXT
  5
534
  8
É}ÿg
  6
CONTINUOUS
 10
954.30568505786755
 20
-391.49621572490003
 30
0.0
 40
5.3974999188999986
  1
3
  0
ENDBLK
  5
536
  8
0
  0
BLOCK
  8
0
  2
*U95
 70
     1
 10
0.0
 20
0.0
 30
0.0
  3
*U95
  1

  0
TEXT
  5
538
  8
É}ÿg
  6
CONTINUOUS
 10
954.26458734274877
 20
-351.49621572490003
 30
0.0
 40
5.3974999188999986
  1
7
  0
ENDBLK
  5
53A
  8
0
  0
BLOCK
  8
0
  2
*U96
 70
     1
 10
0.0
 20
0.0
 30
0.0
  3
*U96
  1

  0
TEXT
  5
53C
  8
É}ÿg
  6
CONTINUOUS
 10
954.25088810437603
 20
-361.49621572490003
 30
0.0
 40
5.3974999188999986
  1
6
  0
ENDBLK
  5
53E
  8
0
  0
BLOCK
  8
0
  2
*U97
 70
     1
 10
0.0
 20
0.0
 30
0.0
  3
*U97
  1

  0
TEXT
  5
540
  8
┌▓È_1
  6
CONTINUOUS
 10
939.90108346849684
 20
-382.30649046830001
 30
0.0
 40
4.9752947043999987
  1
1
  0
ENDBLK
  5
542
  8
0
  0
BLOCK
  8
0
  2
*U98
 70
     1
 10
0.0
 20
0.0
 30
0.0
  3
*U98
  1

  0
TEXT
  5
544
  8
É}ÿg
  6
CONTINUOUS
 10
1134.198749993142
 20
-470.73650729822538
 30
0.0
 40
7.1966662884000003
  1
éréaéQéS-éPéP Å│öFÉ}
  0
ENDBLK
  5
546
  8
0
  0
BLOCK
  8
0
  2
*U99
 70
     1
 10
0.0
 20
0.0
 30
0.0
  3
*U99
  1

  0
TEXT
  5
548
  8
É}ÿg
  6
CONTINUOUS
 10
1142.674011815014
 20
-492.5903820943999
 30
0.0
 40
7.1966662884000003
  1
éréaévéOéOéOéRéS
  0
ENDBLK
  5
54A
  8
0
  0
BLOCK
  8
0
  2
*U100
 70
     1
 10
0.0
 20
0.0
 30
0.0
  3
*U100
  1

  0
TEXT
  5
54C
  8
É}ÿg
  6
CONTINUOUS
 10
1146.6376579687781
 20
-449.21141421065778
 30
0.0
 40
7.1966662884000003
  1
ÄUÉàÉ­â{âbâNâX
  0
ENDBLK
  5
54E
  8
0
  0
BLOCK
  8
0
  2
*U101
 70
     1
 10
0.0
 20
0.0
 30
0.0
  3
*U101
  1

  0
TEXT
  5
550
  8
É}ÿg
  6
CONTINUOUS
 10
1164.5933690636971
 20
-371.49621572490003
 30
0.0
 40
5.3974999188999986
  1
1
  0
ENDBLK
  5
552
  8
0
  0
BLOCK
  8
0
  2
*U102
 70
     1
 10
0.0
 20
0.0
 30
0.0
  3
*U102
  1

  0
TEXT
  5
554
  8
É}ÿg
  6
CONTINUOUS
 10
1164.5933690636971
 20
-381.49621572490003
 30
0.0
 40
5.3974999188999986
  1
1
  0
ENDBLK
  5
556
  8
0
  0
BLOCK
  8
0
  2
*U103
 70
     1
 10
0.0
 20
0.0
 30
0.0
  3
*U103
  1

  0
TEXT
  5
558
  8
É}ÿg
  6
CONTINUOUS
 10
1164.5933690636971
 20
-391.49621572490003
 30
0.0
 40
5.3974999188999986
  1
1
  0
ENDBLK
  5
55A
  8
0
  0
BLOCK
  8
0
  2
*U104
 70
     1
 10
0.0
 20
0.0
 30
0.0
  3
*U104
  1

  0
TEXT
  5
55C
  8
É}ÿg
  6
CONTINUOUS
 10
1164.5933690636971
 20
-401.49621572490003
 30
0.0
 40
5.3974999188999986
  1
1
  0
ENDBLK
  5
55E
  8
0
  0
BLOCK
  8
0
  2
*U105
 70
     1
 10
0.0
 20
0.0
 30
0.0
  3
*U105
  1

  0
TEXT
  5
560
  8
É}ÿg
  6
CONTINUOUS
 10
1164.5933690636971
 20
-411.49621572489991
 30
0.0
 40
5.3974999188999986
  1
1
  0
ENDBLK
  5
562
  8
0
  0
BLOCK
  8
0
  2
*U106
 70
     1
 10
0.0
 20
0.0
 30
0.0
  3
*U106
  1

  0
TEXT
  5
564
  8
É}ÿg
  6
CONTINUOUS
 10
1064.4817771019259
 20
-391.49621572490003
 30
0.0
 40
5.3974999188999986
  1
érétéréRéOéSü@éO.éVéöü@éQéa
  0
ENDBLK
  5
566
  8
0
  0
BLOCK
  8
0
  2
*U107
 70
     1
 10
0.0
 20
0.0
 30
0.0
  3
*U107
  1

  0
TEXT
  5
568
  8
┌▓È_1
  6
CONTINUOUS
 10
890.14789709827608
 20
-151.2153751781
 30
0.0
 40
5.9972220420999998
  1
7
  0
ENDBLK
  5
56A
  8
0
  0
BLOCK
  8
0
  2
*U108
 70
     1
 10
0.0
 20
0.0
 30
0.0
  3
*U108
  1

  0
TEXT
  5
56C
  8
┌▓È_1
  6
CONTINUOUS
 10
890.39143911013798
 20
-63.996638322199992
 30
0.0
 40
5.9972220420999998
  1
4
  0
ENDBLK
  5
56E
  8
0
  0
BLOCK
  8
0
  2
*U109
 70
     1
 10
0.0
 20
0.0
 30
0.0
  3
*U109
  1

  0
TEXT
  5
570
  8
┌▓È_1
  6
CONTINUOUS
 10
890.30011085568981
 20
-115.8895766247
 30
0.0
 40
5.9972220420999998
  1
5
  0
ENDBLK
  5
572
  8
0
  0
BLOCK
  8
0
  2
*U110
 70
     1
 10
0.0
 20
0.0
 30
0.0
  3
*U110
  1

  0
TEXT
  5
574
  8
┌▓È_1
  6
CONTINUOUS
 10
977.78263119270002
 20
-248.5331501869594
 30
0.0
 40
5.3974999188999986
  1
âvâîâXâJâVâü
  0
ENDBLK
  5
576
  8
0
  0
BLOCK
  8
0
  2
*U111
 70
     1
 10
0.0
 20
0.0
 30
0.0
  3
*U111
  1

  0
TEXT
  5
578
  8
┌▓È_1
  6
CONTINUOUS
 10
1014.2381188499
 20
-229.67694678837671
 30
0.0
 40
5.3974999188999986
  1
âXâ|âbâgùnÉ┌
  0
ENDBLK
  5
57A
  8
0
  0
ENDSEC
  0
SECTION
  2
ENTITIES
  0
DIMENSION
  5
3E
  8
Éíû@É³
  2
*D0
 10
786.37967163459996
 20
18.5124468546
 30
0.0
 11
668.87967163459984
 21
18.5124468546
 31
0.0
 70
   128
  1
<>
 13
786.37967163459996
 23
-25.583257845999999
 33
0.0
 14
551.37967163459984
 24
-25.583257845999999
 34
0.0
  0
LINE
  5
40
  8
┌▓È_1
 62
     5
 10
560.37967163459984
 20
-389.97778909599998
 30
0.0
 11
777.37967163460007
 21
-389.97778909599998
 31
0.0
  0
LINE
  5
41
  8
┌▓È_1
 62
     5
 10
560.37967163459984
 20
-390.97778909599998
 30
0.0
 11
777.37967163460007
 21
-390.97778909599998
 31
0.0
  0
DIMENSION
  5
51
  8
Éíû@É³
  2
*D1
 10
636.37973953589994
 20
-343.67769650339989
 30
0.0
 11
636.37973953589994
 21
-367.32774279969999
 31
0.0
 70
   128
  1
47
 13
656.37973953589994
 23
-343.67769650339989
 33
0.0
 14
668.87967163459984
 24
-390.97778909599998
 34
0.0
 50
90.0
  0
DIMENSION
  5
60
  8
Éíû@É³
  2
*D2
 10
560.67967163460003
 20
-421.01713916959989
 30
0.0
 11
668.87967163459984
 21
-421.01713916959989
 31
0.0
 70
   128
  1
(217)ôÓÉí
 13
560.67967163460003
 23
-390.97778909599998
 33
0.0
 14
777.0796716346
 24
-390.97778909599998
 34
0.0
 50
180.0
  0
DIMENSION
  5
6F
  8
Éíû@É³
  2
*D3
 10
553.87967163459984
 20
-438.42458932789998
 30
0.0
 11
668.87967163459984
 21
-438.42458932789998
 31
0.0
 70
   128
  1
(<>)
 13
553.87967163459984
 23
-390.97778909599998
 33
0.0
 14
783.87967163459996
 24
-390.97778909599998
 34
0.0
 50
180.0
  0
INSERT
  5
71
  8
Éíû@É³
  2
BALLON0
 10
0.0
 20
0.0
 30
0.0
  0
LINE
  5
7A
  8
┌▓È_1
 62
     5
 10
559.67967163460003
 20
-301.97778909599998
 30
0.0
 11
559.67967163460003
 21
-389.97778909599998
 31
0.0
  0
INSERT
  5
7C
  8
┌▓È_1
  6
STITCH
  2
CLUMP0
 10
0.0
 20
0.0
 30
0.0
  0
INSERT
  5
E4
  8
Éíû@É³
  2
BALLON1
 10
0.0
 20
0.0
 30
0.0
  0
LINE
  5
ED
  8
┌▓È_1
  6
BORDER
 62
     3
 10
668.87967163459984
 20
-395.97778909599998
 30
0.0
 11
668.87967163459984
 21
-290.97778909599998
 31
0.0
  0
LINE
  5
EE
  8
┌▓È_1
 62
     5
 10
778.07967163460012
 20
-301.97778909599998
 30
0.0
 11
778.07967163460012
 21
-389.97778909599998
 31
0.0
  0
INSERT
  5
F1
  8
É}ÿg
  2
CLUMP1
 10
0.0
 20
0.0
 30
0.0
  0
INSERT
  5
195
  8
0
  6
CONTINUOUS
  2
*U57
 10
0.0
 20
0.0
 30
0.0
  0
INSERT
  5
196
  8
0
  6
CONTINUOUS
  2
*U58
 10
0.0
 20
0.0
 30
0.0
  0
INSERT
  5
197
  8
0
  6
CONTINUOUS
  2
*U59
 10
0.0
 20
0.0
 30
0.0
  0
INSERT
  5
198
  8
0
  6
CONTINUOUS
  2
*U60
 10
0.0
 20
0.0
 30
0.0
  0
INSERT
  5
19A
  8
É}ÿg
  2
CLUMP2
 10
0.0
 20
0.0
 30
0.0
  0
INSERT
  5
1A4
  8
É}ÿg
  2
CLUMP3
 10
0.0
 20
0.0
 30
0.0
  0
INSERT
  5
1AE
  8
É}ÿg
  2
CLUMP4
 10
0.0
 20
0.0
 30
0.0
  0
INSERT
  5
1B8
  8
É}ÿg
  2
CLUMP5
 10
0.0
 20
0.0
 30
0.0
  0
INSERT
  5
1C2
  8
É}ÿg
  2
CLUMP6
 10
0.0
 20
0.0
 30
0.0
  0
INSERT
  5
1CC
  8
É}ÿg
  2
CLUMP7
 10
0.0
 20
0.0
 30
0.0
  0
INSERT
  5
1D6
  8
É}ÿg
  2
CLUMP8
 10
0.0
 20
0.0
 30
0.0
  0
INSERT
  5
1DF
  8
0
  6
CONTINUOUS
  2
*U61
 10
0.0
 20
0.0
 30
0.0
  0
INSERT
  5
1E0
  8
0
  6
CONTINUOUS
  2
*U62
 10
0.0
 20
0.0
 30
0.0
  0
INSERT
  5
1E1
  8
0
  6
CONTINUOUS
  2
*U63
 10
0.0
 20
0.0
 30
0.0
  0
INSERT
  5
1E2
  8
0
  6
CONTINUOUS
  2
*U64
 10
0.0
 20
0.0
 30
0.0
  0
LINE
  5
1E3
  8
┌▓È_1
 62
     5
 10
551.37967163459984
 20
-301.97778909599998
 30
0.0
 11
786.37967163459996
 21
-301.97778909599998
 31
0.0
  0
LINE
  5
1E4
  8
┌▓È_1
 62
     5
 10
552.37967163459984
 20
-295.97778909599998
 30
0.0
 11
785.37967163460007
 21
-295.97778909599998
 31
0.0
  0
INSERT
  5
1E5
  8
0
  6
CONTINUOUS
  2
*U65
 10
0.0
 20
0.0
 30
0.0
  0
LINE
  5
1E6
  8
┌▓È_1
 62
     5
 10
773.37999197820011
 20
-201.58357818959999
 30
0.0
 11
564.37935129109985
 21
-201.58357818959999
 31
0.0
  0
INSERT
  5
1E8
  8
┌▓È_1
  6
STITCH
  2
CLUMP9
 10
0.0
 20
0.0
 30
0.0
  0
INSERT
  5
1F0
  8
0
  6
CONTINUOUS
  2
*U66
 10
0.0
 20
0.0
 30
0.0
  0
LINE
  5
1F1
  8
┌▓È_1
 62
     5
 10
564.37967163459984
 20
-32.583257846000002
 30
0.0
 11
773.37967163460007
 21
-32.583257846000002
 31
0.0
  0
LINE
  5
1F2
  8
┌▓È_1
 62
     5
 10
783.37967163459996
 20
-22.583257845999999
 30
0.0
 11
554.37967163459984
 21
-22.583257845999999
 31
0.0
  0
LINE
  5
1F3
  8
┌▓È_1
 62
     5
 10
564.37935129109985
 20
-33.582937502500002
 30
0.0
 11
773.37999197820011
 21
-33.582937502500002
 31
0.0
  0
LINE
  5
1F4
  8
┌▓È_1
  6
BORDER
 62
     3
 10
546.37967163459984
 20
-117.583257846
 30
0.0
 11
791.37967163459996
 21
-117.583257846
 31
0.0
  0
LINE
  5
1F5
  8
┌▓È_1
 62
     5
 10
554.37967163459984
 20
-212.58325784600001
 30
0.0
 11
783.37967163459996
 21
-212.58325784600001
 31
0.0
  0
LINE
  5
1F6
  8
┌▓È_1
 62
     5
 10
773.37967163460007
 20
-202.58325784600001
 30
0.0
 11
564.37967163459984
 21
-202.58325784600001
 31
0.0
  0
INSERT
  5
1F8
  8
┌▓È_1
  6
STITCH
  2
CLUMP10
 10
0.0
 20
0.0
 30
0.0
  0
DIMENSION
  5
241
  8
Éíû@É³
  2
*D17
 10
632.74763987389986
 20
-177.58306212069999
 30
0.0
 11
632.74763987389986
 21
-189.5833201550999
 31
0.0
 70
   128
  1
24
 13
652.74763987389997
 23
-177.58306212069999
 33
0.0
 14
668.87967163459984
 24
-201.58357818959999
 34
0.0
 50
90.0
  0
LINE
  5
242
  8
┌▓È_1
 10
577.78392399170002
 20
-146.0424437277
 30
0.0
 11
627.78392399170002
 21
-146.0424437277
 31
0.0
  0
LINE
  5
243
  8
┌▓È_1
 10
580.78392399170002
 20
-149.0424437277
 30
0.0
 11
630.78392399170002
 21
-149.0424437277
 31
0.0
  0
LINE
  5
244
  8
┌▓È_1
 10
579.28392399169991
 20
-147.5424437277
 30
0.0
 11
629.28392399170002
 21
-147.5424437277
 31
0.0
  0
ARC
  5
245
  8
┌▓È_1
 62
     5
 10
554.37967163459984
 20
-209.58325784600001
 30
0.0
 40
3.0
 50
180.0
 51
270.0
  0
ARC
  5
246
  8
┌▓È_1
 62
     5
 10
564.37935129109985
 20
-35.582937502500002
 30
0.0
 40
2.0
 50
90.0
 51
180.0
  0
ARC
  5
247
  8
┌▓È_1
 62
     5
 10
564.37967163459984
 20
-35.583257846000002
 30
0.0
 40
3.0
 50
90.0
 51
180.0
  0
ARC
  5
248
  8
┌▓È_1
 62
     5
 10
554.37967163459984
 20
-25.583257845999999
 30
0.0
 40
3.0
 50
90.0
 51
180.0
  0
INSERT
  5
249
  8
0
  6
CONTINUOUS
  2
*U67
 10
0.0
 20
0.0
 30
0.0
  0
DIMENSION
  5
258
  8
Éíû@É³
  2
*D18
 10
561.37967163459996
 20
0.0546566977
 30
0.0
 11
556.37967163459984
 21
0.0546566977
 31
0.0
 70
   128
  1
<>
 13
561.37967163459996
 23
-35.583257846000002
 33
0.0
 14
551.37967163459984
 24
-25.583257845999999
 34
0.0
  0
LINE
  5
259
  8
┌▓È_1
 10
677.0
 20
-339.5
 30
0.0
 11
694.19052613700001
 21
-367.1772795782
 31
0.0
  0
SOLID
  5
25A
  8
┌▓È_1
 10
677.0
 20
-339.5
 30
0.0
 11
681.53141665480007
 21
-343.7486405837999
 31
0.0
 12
679.31745994019991
 22
-343.2311822899
 32
0.0
 13
679.31745994019991
 23
-343.2311822899
 33
0.0
  0
SOLID
  5
25B
  8
┌▓È_1
 10
677.0
 20
-339.5
 30
0.0
 11
678.80000164629996
 21
-345.44513900449999
 31
0.0
 12
679.31745994019991
 22
-343.2311822899
 32
0.0
 13
679.31745994019991
 23
-343.2311822899
 33
0.0
  0
LINE
  5
25C
  8
┌▓È_1
 10
694.19052613700001
 20
-367.1772795782
 30
0.0
 11
748.60649835920003
 21
-367.1772795782
 31
0.0
  0
INSERT
  5
25D
  8
0
  6
CONTINUOUS
  2
*U68
 10
0.0
 20
0.0
 30
0.0
  0
LINE
  5
25E
  8
┌▓È_1
 62
     5
 10
783.87967163459996
 20
-390.97778909599998
 30
0.0
 11
783.87967163459996
 21
-389.97778909599998
 31
0.0
  0
LINE
  5
25F
  8
┌▓È_1
 62
     5
 10
777.37967163460007
 20
-389.97778909599998
 30
0.0
 11
783.87967163459996
 21
-389.97778909599998
 31
0.0
  0
LINE
  5
260
  8
┌▓È_1
 62
     5
 10
777.37967163460007
 20
-390.97778909599998
 30
0.0
 11
783.87967163459996
 21
-390.97778909599998
 31
0.0
  0
LINE
  5
261
  8
┌▓È_1
 62
     5
 10
553.87967163459984
 20
-390.97778909599998
 30
0.0
 11
553.87967163459984
 21
-389.97778909599998
 31
0.0
  0
LINE
  5
262
  8
┌▓È_1
 62
     5
 10
553.87967163459984
 20
-390.97778909599998
 30
0.0
 11
560.37967163459984
 21
-390.97778909599998
 31
0.0
  0
LINE
  5
263
  8
┌▓È_1
 62
     5
 10
553.87967163459984
 20
-389.97778909599998
 30
0.0
 11
560.37967163459984
 21
-389.97778909599998
 31
0.0
  0
DIMENSION
  5
272
  8
Éíû@É³
  2
*D19
 10
1088.9630178970001
 20
-210.58325784600001
 30
0.0
 11
1088.9630178970001
 21
-117.583257846
 31
0.0
 70
   128
  1
(<>)
 13
1030.6237501662999
 23
-210.58325784600001
 33
0.0
 14
1030.6237501662999
 24
-24.583257845999999
 34
0.0
 50
90.0
  0
DIMENSION
  5
281
  8
Éíû@É³
  2
*D20
 10
1069.4462675612999
 20
-203.58325784600001
 30
0.0
 11
1069.4462675612999
 21
-117.333257846
 31
0.0
 70
   128
  1
(173)ôÓÉí
 13
1030.6237501662999
 23
-203.58325784600001
 33
0.0
 14
1030.6237501662999
 24
-31.083257845999999
 34
0.0
 50
90.0
  0
INSERT
  5
282
  8
0
  6
CONTINUOUS
  2
*U69
 10
0.0
 20
0.0
 30
0.0
  0
INSERT
  5
283
  8
0
  6
CONTINUOUS
  2
*U70
 10
0.0
 20
0.0
 30
0.0
  0
INSERT
  5
284
  8
0
  6
CONTINUOUS
  2
*U71
 10
0.0
 20
0.0
 30
0.0
  0
INSERT
  5
285
  8
0
  6
CONTINUOUS
  2
*U72
 10
0.0
 20
0.0
 30
0.0
  0
INSERT
  5
286
  8
0
  6
CONTINUOUS
  2
*U73
 10
0.0
 20
0.0
 30
0.0
  0
ARC
  5
287
  8
┌▓È_1
 62
     5
 10
783.37967163459996
 20
-25.583257845999999
 30
0.0
 40
3.0
 50
0.0
 51
90.0
  0
ARC
  5
288
  8
┌▓È_1
 62
     5
 10
773.37999197820011
 20
-35.582937502500002
 30
0.0
 40
2.0
 50
0.0
 51
90.0
  0
ARC
  5
289
  8
┌▓È_1
 62
     5
 10
773.37967163460007
 20
-35.583257846000002
 30
0.0
 40
3.0
 50
0.0
 51
90.0
  0
CIRCLE
  5
28A
  8
┌▓È_1
 62
     5
 10
668.87967163459984
 20
-177.58325784600001
 30
0.0
 40
6.5
  0
ARC
  5
28B
  8
┌▓È_1
 62
     5
 10
783.37967163459996
 20
-209.58325784600001
 30
0.0
 40
3.0
 50
270.0
 51
0.0
  0
DIMENSION
  5
295
  8
Éíû@É³
  2
*D21
 10
673.84442849499987
 20
-173.38788070960001
 30
0.0
 11
691.84152762830001
 21
-161.65881724869999
 31
0.0
 70
   131
  1
<>
 15
663.91491477419993
 25
-181.77863498249999
 35
0.0
 40
0.0
  0
DIMENSION
  5
2A4
  8
Éíû@É³
  2
*D22
 10
803.37967163459996
 20
-212.58325784600001
 30
0.0
 11
803.37967163459996
 21
-207.58325784600001
 31
0.0
 70
   128
  1
<>
 13
783.37967163459996
 23
-212.58325784600001
 33
0.0
 14
773.37967163460007
 24
-202.58325784600001
 34
0.0
 50
90.0
  0
DIMENSION
  5
2B3
  8
Éíû@É³
  2
*D23
 10
822.24061913380001
 20
-212.58325784600001
 30
0.0
 11
822.24061913380001
 21
-117.583257846
 31
0.0
 70
   128
  1
<>
 13
783.37967163459996
 23
-212.58325784600001
 33
0.0
 14
783.37967163459996
 24
-22.583257845999999
 34
0.0
 50
90.0
  0
DIMENSION
  5
2C2
  8
Éíû@É³
  2
*D24
 10
803.37967163459996
 20
-32.583257846000002
 30
0.0
 11
803.37967163459996
 21
-27.583257845999999
 31
0.0
 70
   128
  1
<>
 13
773.37967163460007
 23
-32.583257846000002
 33
0.0
 14
783.37967163459996
 24
-22.583257845999999
 34
0.0
 50
90.0
  0
DIMENSION
  5
2D1
  8
Éíû@É³
  2
*D25
 10
786.37967163459996
 20
0.0546566977
 30
0.0
 11
781.37967163460007
 21
0.0546566977
 31
0.0
 70
   128
  1
<>
 13
786.37967163459996
 23
-25.583257845999999
 33
0.0
 14
776.37967163460007
 24
-35.583257846000002
 34
0.0
  0
INSERT
  5
2D3
  8
Éíû@É³
  2
BALLON2
 10
0.0
 20
0.0
 30
0.0
  0
LINE
  5
2DC
  8
┌▓È_1
 10
586.78392399170002
 20
-155.0424437277
 30
0.0
 11
636.78392399170002
 21
-155.0424437277
 31
0.0
  0
LINE
  5
2DD
  8
┌▓È_1
 10
585.28392399170002
 20
-153.5424437277
 30
0.0
 11
635.28392399170002
 21
-153.5424437277
 31
0.0
  0
LINE
  5
2DE
  8
┌▓È_1
 10
583.78392399170002
 20
-152.0424437277
 30
0.0
 11
633.78392399170002
 21
-152.0424437277
 31
0.0
  0
LINE
  5
2DF
  8
┌▓È_1
 10
582.28392399170002
 20
-150.5424437277
 30
0.0
 11
632.28392399170002
 21
-150.5424437277
 31
0.0
  0
LINE
  5
2E0
  8
┌▓È_1
 62
     5
 10
551.37967163459984
 20
-296.97778909599998
 30
0.0
 11
551.37967163459984
 21
-301.97778909599998
 31
0.0
  0
ARC
  5
2E1
  8
┌▓È_1
 62
     5
 10
552.37967163459984
 20
-296.97778909599998
 30
0.0
 40
1.0
 50
90.0
 51
180.0
  0
ARC
  5
2E2
  8
┌▓È_1
  6
STITCH
 10
616.37967163459984
 20
-43.083257846000002
 30
0.0
 40
2.0
 50
0.0
 51
180.0
  0
ARC
  5
2E3
  8
┌▓È_1
  6
STITCH
 10
616.37967163459984
 20
-50.083257846000002
 30
0.0
 40
2.0
 50
180.0
 51
0.0
  0
ARC
  5
2E4
  8
┌▓È_1
 62
     5
 10
564.37967163459984
 20
-199.58325784600001
 30
0.0
 40
3.0
 50
180.0
 51
270.0
  0
ARC
  5
2E5
  8
┌▓È_1
 62
     5
 10
564.37935129109985
 20
-199.58357818959999
 30
0.0
 40
2.0
 50
180.0
 51
270.0
  0
LINE
  5
2E6
  8
┌▓È_1
 62
     5
 10
561.37967163459996
 20
-199.58325784600001
 30
0.0
 11
561.37967163459996
 21
-35.583257846000002
 31
0.0
  0
LINE
  5
2E7
  8
┌▓È_1
 62
     5
 10
562.37935129109985
 20
-199.58357818959999
 30
0.0
 11
562.37935129109985
 21
-35.582937502500002
 31
0.0
  0
LINE
  5
2E8
  8
┌▓È_1
 62
     5
 10
551.37967163459984
 20
-25.583257845999999
 30
0.0
 11
551.37967163459984
 21
-209.58325784600001
 31
0.0
  0
LINE
  5
2E9
  8
┌▓È_1
 10
576.28392399170002
 20
-144.5424437277
 30
0.0
 11
626.28392399170002
 21
-144.5424437277
 31
0.0
  0
INSERT
  5
2EB
  8
Éíû@É³
  2
BALLON3
 10
0.0
 20
0.0
 30
0.0
  0
LINE
  5
2F4
  8
┌▓È_1
 62
     5
 10
786.37967163459996
 20
-296.97778909599998
 30
0.0
 11
786.37967163459996
 21
-301.97778909599998
 31
0.0
  0
ARC
  5
2F5
  8
┌▓È_1
 62
     5
 10
785.37967163460007
 20
-296.97778909599998
 30
0.0
 40
1.0
 50
0.0
 51
90.0
  0
LINE
  5
2F6
  8
┌▓È_1
 10
710.17842544940004
 20
-82.818164438099984
 30
0.0
 11
668.87967163459984
 21
-82.818164438099984
 31
0.0
  0
INSERT
  5
2F7
  8
0
  6
CONTINUOUS
  2
*U76
 10
0.0
 20
0.0
 30
0.0
  0
LINE
  5
2F8
  8
┌▓È_1
 10
719.63438234049988
 20
-53.346302746400013
 30
0.0
 11
710.17842544940004
 21
-82.818164438099984
 31
0.0
  0
SOLID
  5
2F9
  8
┌▓È_1
 10
719.63438234049988
 20
-53.346302746400013
 30
0.0
 11
719.33217012670002
 21
-59.550603793900002
 31
0.0
 12
718.29250166179997
 22
-57.528610494399992
 32
0.0
 13
718.29250166179997
 23
-57.528610494399992
 33
0.0
  0
SOLID
  5
2FA
  8
┌▓È_1
 10
719.63438234049988
 20
-53.346302746400013
 30
0.0
 11
716.27050836229989
 21
-58.568278959300002
 31
0.0
 12
718.29250166179997
 22
-57.528610494399992
 32
0.0
 13
718.29250166179997
 23
-57.528610494399992
 33
0.0
  0
ARC
  5
2FB
  8
┌▓È_1
  6
STITCH
 10
721.37967163459996
 20
-50.083257846000002
 30
0.0
 40
2.0
 50
180.0
 51
0.0
  0
ARC
  5
2FC
  8
┌▓È_1
  6
STITCH
 10
721.37967163459996
 20
-43.083257846000002
 30
0.0
 40
2.0
 50
0.0
 51
180.0
  0
LINE
  5
2FD
  8
┌▓È_1
 10
696.49999999999989
 20
-166.125
 30
0.0
 11
711.46767865789991
 21
-148.7187586732
 31
0.0
  0
SOLID
  5
2FE
  8
┌▓È_1
 10
696.49999999999989
 20
-166.125
 30
0.0
 11
699.19299272880005
 21
-160.52745822950001
 31
0.0
 12
699.36376948329996
 22
-162.79465974690001
 32
0.0
 13
699.36376948329996
 23
-162.79465974690001
 33
0.0
  0
SOLID
  5
2FF
  8
┌▓È_1
 10
696.49999999999989
 20
-166.125
 30
0.0
 11
701.63097100059986
 21
-162.62388299240001
 31
0.0
 12
699.36376948329996
 22
-162.79465974690001
 32
0.0
 13
699.36376948329996
 23
-162.79465974690001
 33
0.0
  0
LINE
  5
300
  8
┌▓È_1
 10
711.46767865789991
 20
-148.7187586732
 30
0.0
 11
765.88365088009994
 21
-148.7187586732
 31
0.0
  0
INSERT
  5
301
  8
0
  6
CONTINUOUS
  2
*U77
 10
0.0
 20
0.0
 30
0.0
  0
LINE
  5
302
  8
┌▓È_1
  6
STITCH
 10
647.0019117539
 20
-185.8905493238
 30
0.0
 11
642.75912591320002
 21
-181.64805379520001
 31
0.0
  0
LINE
  5
303
  8
┌▓È_1
  6
STITCH
 10
647.00176659789997
 20
-181.64790863920001
 30
0.0
 11
642.75927106919994
 21
-185.8906944798
 31
0.0
  0
LINE
  5
304
  8
┌▓È_1
  6
STITCH
 10
647.00131746249986
 20
-168.5205156463999
 30
0.0
 11
642.75853162179988
 21
-164.2780201178
 31
0.0
  0
LINE
  5
305
  8
┌▓È_1
  6
STITCH
 10
647.00117230650005
 20
-164.27787496179999
 30
0.0
 11
642.75867677790006
 21
-168.52066080239999
 31
0.0
  0
LINE
  5
306
  8
┌▓È_1
  6
STITCH
 10
690.7581455298
 20
-164.27712642
 30
0.0
 11
695.0007862169
 21
-168.51976710709999
 31
0.0
  0
LINE
  5
307
  8
┌▓È_1
  6
STITCH
 10
690.7581455298
 20
-168.51976710709999
 30
0.0
 11
695.0007862169
 21
-164.27712642
 31
0.0
  0
LINE
  5
308
  8
┌▓È_1
  6
STITCH
 10
690.7581455298
 20
-181.64716010759989
 30
0.0
 11
695.0007862169
 21
-185.88980079469999
 31
0.0
  0
LINE
  5
309
  8
┌▓È_1
  6
STITCH
 10
690.7581455298
 20
-185.88980079469999
 30
0.0
 11
695.0007862169
 21
-181.64716010759989
 31
0.0
  0
LINE
  5
30A
  8
┌▓È_1
 62
     5
 10
786.37967163459996
 20
-209.58325784600001
 30
0.0
 11
786.37967163459996
 21
-25.583257845999999
 31
0.0
  0
ARC
  5
30B
  8
┌▓È_1
 62
     5
 10
773.37999197820011
 20
-199.58357818959999
 30
0.0
 40
2.0
 50
270.0
 51
0.0
  0
ARC
  5
30C
  8
┌▓È_1
 62
     5
 10
773.37967163460007
 20
-199.58325784600001
 30
0.0
 40
3.0
 50
270.0
 51
0.0
  0
LINE
  5
30D
  8
┌▓È_1
 62
     5
 10
776.37967163460007
 20
-35.583257846000002
 30
0.0
 11
776.37967163460007
 21
-199.58325784600001
 31
0.0
  0
LINE
  5
30E
  8
┌▓È_1
 62
     5
 10
775.37999197820011
 20
-35.582937502500002
 30
0.0
 11
775.37999197820011
 21
-199.58357818959999
 31
0.0
  0
LINE
  5
30F
  8
┌▓È_1
  6
BORDER
 62
     3
 10
668.87967163459984
 20
-17.583257845999999
 30
0.0
 11
668.87967163459984
 21
-217.58325784600001
 31
0.0
  0
INSERT
  5
310
  8
0
  6
CONTINUOUS
  2
*U78
 10
0.0
 20
0.0
 30
0.0
  0
INSERT
  5
311
  8
0
  6
CONTINUOUS
  2
*U79
 10
0.0
 20
0.0
 30
0.0
  0
INSERT
  5
312
  8
0
  6
CONTINUOUS
  2
*U80
 10
0.0
 20
0.0
 30
0.0
  0
INSERT
  5
313
  8
0
  6
CONTINUOUS
  2
*U81
 10
0.0
 20
0.0
 30
0.0
  0
INSERT
  5
314
  8
0
  6
CONTINUOUS
  2
*U82
 10
0.0
 20
0.0
 30
0.0
  0
INSERT
  5
315
  8
0
  6
CONTINUOUS
  2
*U83
 10
0.0
 20
0.0
 30
0.0
  0
INSERT
  5
316
  8
0
  6
CONTINUOUS
  2
*U84
 10
0.0
 20
0.0
 30
0.0
  0
INSERT
  5
317
  8
0
  6
CONTINUOUS
  2
*U85
 10
0.0
 20
0.0
 30
0.0
  0
LINE
  5
318
  8
┌▓È_1
 10
1121.25
 20
-378.625
 30
0.0
 11
1132.7458500226001
 21
-378.625
 31
0.0
  0
LINE
  5
319
  8
┌▓È_1
 10
1120.9375
 20
-380.25
 30
0.0
 11
1132.8602644370001
 21
-380.25
 31
0.0
  0
INSERT
  5
31A
  8
0
  6
CONTINUOUS
  2
*U86
 10
0.0
 20
0.0
 30
0.0
  0
INSERT
  5
31B
  8
0
  6
CONTINUOUS
  2
*U87
 10
0.0
 20
0.0
 30
0.0
  0
INSERT
  5
31C
  8
0
  6
CONTINUOUS
  2
*U88
 10
0.0
 20
0.0
 30
0.0
  0
INSERT
  5
31D
  8
0
  6
CONTINUOUS
  2
*U89
 10
0.0
 20
0.0
 30
0.0
  0
INSERT
  5
31E
  8
0
  6
CONTINUOUS
  2
*U90
 10
0.0
 20
0.0
 30
0.0
  0
INSERT
  5
31F
  8
0
  6
CONTINUOUS
  2
*U91
 10
0.0
 20
0.0
 30
0.0
  0
INSERT
  5
320
  8
0
  6
CONTINUOUS
  2
*U92
 10
0.0
 20
0.0
 30
0.0
  0
INSERT
  5
321
  8
0
  6
CONTINUOUS
  2
*U93
 10
0.0
 20
0.0
 30
0.0
  0
INSERT
  5
322
  8
0
  6
CONTINUOUS
  2
*U94
 10
0.0
 20
0.0
 30
0.0
  0
INSERT
  5
323
  8
0
  6
CONTINUOUS
  2
*U95
 10
0.0
 20
0.0
 30
0.0
  0
INSERT
  5
324
  8
0
  6
CONTINUOUS
  2
*U96
 10
0.0
 20
0.0
 30
0.0
  0
INSERT
  5
325
  8
0
  6
CONTINUOUS
  2
*U97
 10
0.0
 20
0.0
 30
0.0
  0
LINE
  5
326
  8
┌▓È_1
 62
     5
 10
936.25173157649999
 20
-383.43082774359999
 30
0.0
 11
946.15173157649997
 21
-383.43082774359999
 31
0.0
  0
LINE
  5
327
  8
┌▓È_1
 62
     5
 10
941.20173157649981
 20
-374.85717624609998
 30
0.0
 11
946.15173157649997
 21
-383.43082774359999
 31
0.0
  0
LINE
  5
328
  8
┌▓È_1
 62
     5
 10
941.20173157649981
 20
-374.85717624609998
 30
0.0
 11
936.25173157649999
 21
-383.43082774359999
 31
0.0
  0
LINE
  5
329
  8
┌▓È_1
  6
BORDER
 62
     3
 10
930.62375016630006
 20
-117.583257846
 30
0.0
 11
1035.6237501662999
 21
-117.583257846
 31
0.0
  0
LINE
  5
32A
  8
┌▓È_1
  6
BORDER
 62
     3
 10
926.28416683289993
 20
-177.58325784600001
 30
0.0
 11
984.16177099959998
 21
-177.58325784600001
 31
0.0
  0
LINE
  5
32B
  8
┌▓È_1
 62
     5
 10
1029.6237501662999
 20
-31.083257845999999
 30
0.0
 11
948.66741110919997
 21
-31.083257845999999
 31
0.0
  0
LINE
  5
32C
  8
┌▓È_1
 62
     5
 10
948.62375016630006
 20
-30.083257845999999
 30
0.0
 11
936.62375016630006
 21
-30.579121808299998
 31
0.0
  0
LINE
  5
32D
  8
┌▓È_1
 62
     5
 10
936.71090590899985
 20
-32.5794525441
 30
0.0
 11
948.83681264920006
 21
-32.072573169400002
 31
0.0
  0
LINE
  5
32E
  8
┌▓È_1
 62
     5
 10
948.62375016630006
 20
-30.083257845999999
 30
0.0
 11
1029.6237501662999
 21
-30.083257845999999
 31
0.0
  0
CIRCLE
  5
32F
  8
┌▓È_1
 62
     5
 10
943.62375016630006
 20
-46.583257846000002
 30
0.0
 40
3.5
  0
LINE
  5
330
  8
┌▓È_1
 62
     5
 10
936.62375016630006
 20
-30.579121808299998
 30
0.0
 11
936.71090590899985
 21
-31.5753165064
 31
0.0
  0
ARC
  5
331
  8
┌▓È_1
 62
     5
 10
936.62375016630006
 20
-23.583257845999999
 30
0.0
 40
1.0
 50
90.0
 51
180.0
  0
LINE
  5
332
  8
┌▓È_1
 62
     5
 10
943.12375016630006
 20
-59.583257846000002
 30
0.0
 11
940.12375016630006
 21
-59.583257846000002
 31
0.0
  0
POLYLINE
  8
┌▓È_1
  5
9AB
  62
5
  66
     1
 10
0.000000
 20
0.000000
 30
0.000000
  70
     8
  0
VERTEX
  8
┌▓È_1
  5
9AC
 10
965.793
 20
-173.583
 30
0.000000
  70
    32
  0
VERTEX
  8
┌▓È_1
  5
9AD
 10
965.784
 20
-173.634
 30
0.000000
  70
    32
  0
VERTEX
  8
┌▓È_1
  5
9AE
 10
965.775
 20
-173.684
 30
0.000000
  70
    32
  0
VERTEX
  8
┌▓È_1
  5
9AF
 10
965.766
 20
-173.734
 30
0.000000
  70
    32
  0
VERTEX
  8
┌▓È_1
  5
9B0
 10
965.757
 20
-173.785
 30
0.000000
  70
    32
  0
VERTEX
  8
┌▓È_1
  5
9B1
 10
965.748
 20
-173.835
 30
0.000000
  70
    32
  0
VERTEX
  8
┌▓È_1
  5
9B2
 10
965.740
 20
-173.885
 30
0.000000
  70
    32
  0
VERTEX
  8
┌▓È_1
  5
9B3
 10
965.731
 20
-173.935
 30
0.000000
  70
    32
  0
VERTEX
  8
┌▓È_1
  5
9B4
 10
965.722
 20
-173.986
 30
0.000000
  70
    32
  0
VERTEX
  8
┌▓È_1
  5
9B5
 10
965.713
 20
-174.036
 30
0.000000
  70
    32
  0
VERTEX
  8
┌▓È_1
  5
9B6
 10
965.705
 20
-174.086
 30
0.000000
  70
    32
  0
VERTEX
  8
┌▓È_1
  5
9B7
 10
965.696
 20
-174.137
 30
0.000000
  70
    32
  0
VERTEX
  8
┌▓È_1
  5
9B8
 10
965.687
 20
-174.187
 30
0.000000
  70
    32
  0
VERTEX
  8
┌▓È_1
  5
9B9
 10
965.679
 20
-174.237
 30
0.000000
  70
    32
  0
VERTEX
  8
┌▓È_1
  5
9BA
 10
965.670
 20
-174.288
 30
0.000000
  70
    32
  0
VERTEX
  8
┌▓È_1
  5
9BB
 10
965.662
 20
-174.338
 30
0.000000
  70
    32
  0
VERTEX
  8
┌▓È_1
  5
9BC
 10
965.653
 20
-174.388
 30
0.000000
  70
    32
  0
VERTEX
  8
┌▓È_1
  5
9BD
 10
965.645
 20
-174.439
 30
0.000000
  70
    32
  0
VERTEX
  8
┌▓È_1
  5
9BE
 10
965.636
 20
-174.489
 30
0.000000
  70
    32
  0
VERTEX
  8
┌▓È_1
  5
9BF
 10
965.628
 20
-174.539
 30
0.000000
  70
    32
  0
VERTEX
  8
┌▓È_1
  5
9C0
 10
965.619
 20
-174.590
 30
0.000000
  70
    32
  0
VERTEX
  8
┌▓È_1
  5
9C1
 10
965.611
 20
-174.640
 30
0.000000
  70
    32
  0
VERTEX
  8
┌▓È_1
  5
9C2
 10
965.603
 20
-174.690
 30
0.000000
  70
    32
  0
VERTEX
  8
┌▓È_1
  5
9C3
 10
965.595
 20
-174.740
 30
0.000000
  70
    32
  0
VERTEX
  8
┌▓È_1
  5
9C4
 10
965.587
 20
-174.791
 30
0.000000
  70
    32
  0
VERTEX
  8
┌▓È_1
  5
9C5
 10
965.579
 20
-174.841
 30
0.000000
  70
    32
  0
VERTEX
  8
┌▓È_1
  5
9C6
 10
965.571
 20
-174.891
 30
0.000000
  70
    32
  0
VERTEX
  8
┌▓È_1
  5
9C7
 10
965.563
 20
-174.942
 30
0.000000
  70
    32
  0
VERTEX
  8
┌▓È_1
  5
9C8
 10
965.555
 20
-174.992
 30
0.000000
  70
    32
  0
VERTEX
  8
┌▓È_1
  5
9C9
 10
965.547
 20
-175.042
 30
0.000000
  70
    32
  0
VERTEX
  8
┌▓È_1
  5
9CA
 10
965.540
 20
-175.093
 30
0.000000
  70
    32
  0
VERTEX
  8
┌▓È_1
  5
9CB
 10
965.532
 20
-175.143
 30
0.000000
  70
    32
  0
VERTEX
  8
┌▓È_1
  5
9CC
 10
965.525
 20
-175.193
 30
0.000000
  70
    32
  0
VERTEX
  8
┌▓È_1
  5
9CD
 10
965.517
 20
-175.244
 30
0.000000
  70
    32
  0
VERTEX
  8
┌▓È_1
  5
9CE
 10
965.510
 20
-175.294
 30
0.000000
  70
    32
  0
VERTEX
  8
┌▓È_1
  5
9CF
 10
965.503
 20
-175.344
 30
0.000000
  70
    32
  0
VERTEX
  8
┌▓È_1
  5
9D0
 10
965.496
 20
-175.395
 30
0.000000
  70
    32
  0
VERTEX
  8
┌▓È_1
  5
9D1
 10
965.489
 20
-175.445
 30
0.000000
  70
    32
  0
VERTEX
  8
┌▓È_1
  5
9D2
 10
965.482
 20
-175.495
 30
0.000000
  70
    32
  0
VERTEX
  8
┌▓È_1
  5
9D3
 10
965.475
 20
-175.546
 30
0.000000
  70
    32
  0
VERTEX
  8
┌▓È_1
  5
9D4
 10
965.469
 20
-175.596
 30
0.000000
  70
    32
  0
VERTEX
  8
┌▓È_1
  5
9D5
 10
965.462
 20
-175.646
 30
0.000000
  70
    32
  0
VERTEX
  8
┌▓È_1
  5
9D6
 10
965.456
 20
-175.696
 30
0.000000
  70
    32
  0
VERTEX
  8
┌▓È_1
  5
9D7
 10
965.449
 20
-175.747
 30
0.000000
  70
    32
  0
VERTEX
  8
┌▓È_1
  5
9D8
 10
965.443
 20
-175.797
 30
0.000000
  70
    32
  0
VERTEX
  8
┌▓È_1
  5
9D9
 10
965.437
 20
-175.847
 30
0.000000
  70
    32
  0
VERTEX
  8
┌▓È_1
  5
9DA
 10
965.431
 20
-175.898
 30
0.000000
  70
    32
  0
VERTEX
  8
┌▓È_1
  5
9DB
 10
965.425
 20
-175.948
 30
0.000000
  70
    32
  0
VERTEX
  8
┌▓È_1
  5
9DC
 10
965.420
 20
-175.998
 30
0.000000
  70
    32
  0
VERTEX
  8
┌▓È_1
  5
9DD
 10
965.414
 20
-176.049
 30
0.000000
  70
    32
  0
VERTEX
  8
┌▓È_1
  5
9DE
 10
965.409
 20
-176.099
 30
0.000000
  70
    32
  0
VERTEX
  8
┌▓È_1
  5
9DF
 10
965.403
 20
-176.149
 30
0.000000
  70
    32
  0
VERTEX
  8
┌▓È_1
  5
9E0
 10
965.398
 20
-176.200
 30
0.000000
  70
    32
  0
VERTEX
  8
┌▓È_1
  5
9E1
 10
965.393
 20
-176.250
 30
0.000000
  70
    32
  0
VERTEX
  8
┌▓È_1
  5
9E2
 10
965.388
 20
-176.300
 30
0.000000
  70
    32
  0
VERTEX
  8
┌▓È_1
  5
9E3
 10
965.384
 20
-176.351
 30
0.000000
  70
    32
  0
VERTEX
  8
┌▓È_1
  5
9E4
 10
965.379
 20
-176.401
 30
0.000000
  70
    32
  0
VERTEX
  8
┌▓È_1
  5
9E5
 10
965.375
 20
-176.451
 30
0.000000
  70
    32
  0
VERTEX
  8
┌▓È_1
  5
9E6
 10
965.371
 20
-176.501
 30
0.000000
  70
    32
  0
VERTEX
  8
┌▓È_1
  5
9E7
 10
965.366
 20
-176.552
 30
0.000000
  70
    32
  0
VERTEX
  8
┌▓È_1
  5
9E8
 10
965.363
 20
-176.602
 30
0.000000
  70
    32
  0
VERTEX
  8
┌▓È_1
  5
9E9
 10
965.359
 20
-176.652
 30
0.000000
  70
    32
  0
VERTEX
  8
┌▓È_1
  5
9EA
 10
965.355
 20
-176.703
 30
0.000000
  70
    32
  0
VERTEX
  8
┌▓È_1
  5
9EB
 10
965.352
 20
-176.753
 30
0.000000
  70
    32
  0
VERTEX
  8
┌▓È_1
  5
9EC
 10
965.349
 20
-176.803
 30
0.000000
  70
    32
  0
VERTEX
  8
┌▓È_1
  5
9ED
 10
965.346
 20
-176.854
 30
0.000000
  70
    32
  0
VERTEX
  8
┌▓È_1
  5
9EE
 10
965.343
 20
-176.904
 30
0.000000
  70
    32
  0
VERTEX
  8
┌▓È_1
  5
9EF
 10
965.340
 20
-176.954
 30
0.000000
  70
    32
  0
VERTEX
  8
┌▓È_1
  5
9F0
 10
965.338
 20
-177.005
 30
0.000000
  70
    32
  0
VERTEX
  8
┌▓È_1
  5
9F1
 10
965.335
 20
-177.055
 30
0.000000
  70
    32
  0
VERTEX
  8
┌▓È_1
  5
9F2
 10
965.333
 20
-177.105
 30
0.000000
  70
    32
  0
VERTEX
  8
┌▓È_1
  5
9F3
 10
965.332
 20
-177.156
 30
0.000000
  70
    32
  0
VERTEX
  8
┌▓È_1
  5
9F4
 10
965.330
 20
-177.206
 30
0.000000
  70
    32
  0
VERTEX
  8
┌▓È_1
  5
9F5
 10
965.328
 20
-177.256
 30
0.000000
  70
    32
  0
VERTEX
  8
┌▓È_1
  5
9F6
 10
965.327
 20
-177.307
 30
0.000000
  70
    32
  0
VERTEX
  8
┌▓È_1
  5
9F7
 10
965.326
 20
-177.357
 30
0.000000
  70
    32
  0
VERTEX
  8
┌▓È_1
  5
9F8
 10
965.325
 20
-177.407
 30
0.000000
  70
    32
  0
VERTEX
  8
┌▓È_1
  5
9F9
 10
965.324
 20
-177.457
 30
0.000000
  70
    32
  0
VERTEX
  8
┌▓È_1
  5
9FA
 10
965.324
 20
-177.508
 30
0.000000
  70
    32
  0
VERTEX
  8
┌▓È_1
  5
9FB
 10
965.324
 20
-177.558
 30
0.000000
  70
    32
  0
VERTEX
  8
┌▓È_1
  5
9FC
 10
965.324
 20
-177.608
 30
0.000000
  70
    32
  0
VERTEX
  8
┌▓È_1
  5
9FD
 10
965.324
 20
-177.659
 30
0.000000
  70
    32
  0
VERTEX
  8
┌▓È_1
  5
9FE
 10
965.324
 20
-177.709
 30
0.000000
  70
    32
  0
VERTEX
  8
┌▓È_1
  5
9FF
 10
965.325
 20
-177.759
 30
0.000000
  70
    32
  0
VERTEX
  8
┌▓È_1
  5
A00
 10
965.326
 20
-177.810
 30
0.000000
  70
    32
  0
VERTEX
  8
┌▓È_1
  5
A01
 10
965.327
 20
-177.860
 30
0.000000
  70
    32
  0
VERTEX
  8
┌▓È_1
  5
A02
 10
965.328
 20
-177.910
 30
0.000000
  70
    32
  0
VERTEX
  8
┌▓È_1
  5
A03
 10
965.330
 20
-177.961
 30
0.000000
  70
    32
  0
VERTEX
  8
┌▓È_1
  5
A04
 10
965.332
 20
-178.011
 30
0.000000
  70
    32
  0
VERTEX
  8
┌▓È_1
  5
A05
 10
965.333
 20
-178.061
 30
0.000000
  70
    32
  0
VERTEX
  8
┌▓È_1
  5
A06
 10
965.335
 20
-178.112
 30
0.000000
  70
    32
  0
VERTEX
  8
┌▓È_1
  5
A07
 10
965.338
 20
-178.162
 30
0.000000
  70
    32
  0
VERTEX
  8
┌▓È_1
  5
A08
 10
965.340
 20
-178.212
 30
0.000000
  70
    32
  0
VERTEX
  8
┌▓È_1
  5
A09
 10
965.343
 20
-178.263
 30
0.000000
  70
    32
  0
VERTEX
  8
┌▓È_1
  5
A0A
 10
965.346
 20
-178.313
 30
0.000000
  70
    32
  0
VERTEX
  8
┌▓È_1
  5
A0B
 10
965.349
 20
-178.363
 30
0.000000
  70
    32
  0
VERTEX
  8
┌▓È_1
  5
A0C
 10
965.352
 20
-178.413
 30
0.000000
  70
    32
  0
VERTEX
  8
┌▓È_1
  5
A0D
 10
965.355
 20
-178.464
 30
0.000000
  70
    32
  0
VERTEX
  8
┌▓È_1
  5
A0E
 10
965.359
 20
-178.514
 30
0.000000
  70
    32
  0
VERTEX
  8
┌▓È_1
  5
A0F
 10
965.363
 20
-178.564
 30
0.000000
  70
    32
  0
VERTEX
  8
┌▓È_1
  5
A10
 10
965.366
 20
-178.615
 30
0.000000
  70
    32
  0
VERTEX
  8
┌▓È_1
  5
A11
 10
965.371
 20
-178.665
 30
0.000000
  70
    32
  0
VERTEX
  8
┌▓È_1
  5
A12
 10
965.375
 20
-178.715
 30
0.000000
  70
    32
  0
VERTEX
  8
┌▓È_1
  5
A13
 10
965.379
 20
-178.766
 30
0.000000
  70
    32
  0
VERTEX
  8
┌▓È_1
  5
A14
 10
965.384
 20
-178.816
 30
0.000000
  70
    32
  0
VERTEX
  8
┌▓È_1
  5
A15
 10
965.388
 20
-178.866
 30
0.000000
  70
    32
  0
VERTEX
  8
┌▓È_1
  5
A16
 10
965.393
 20
-178.917
 30
0.000000
  70
    32
  0
VERTEX
  8
┌▓È_1
  5
A17
 10
965.398
 20
-178.967
 30
0.000000
  70
    32
  0
VERTEX
  8
┌▓È_1
  5
A18
 10
965.403
 20
-179.017
 30
0.000000
  70
    32
  0
VERTEX
  8
┌▓È_1
  5
A19
 10
965.409
 20
-179.068
 30
0.000000
  70
    32
  0
VERTEX
  8
┌▓È_1
  5
A1A
 10
965.414
 20
-179.118
 30
0.000000
  70
    32
  0
VERTEX
  8
┌▓È_1
  5
A1B
 10
965.420
 20
-179.168
 30
0.000000
  70
    32
  0
VERTEX
  8
┌▓È_1
  5
A1C
 10
965.425
 20
-179.218
 30
0.000000
  70
    32
  0
VERTEX
  8
┌▓È_1
  5
A1D
 10
965.431
 20
-179.269
 30
0.000000
  70
    32
  0
VERTEX
  8
┌▓È_1
  5
A1E
 10
965.437
 20
-179.319
 30
0.000000
  70
    32
  0
VERTEX
  8
┌▓È_1
  5
A1F
 10
965.443
 20
-179.369
 30
0.000000
  70
    32
  0
VERTEX
  8
┌▓È_1
  5
A20
 10
965.449
 20
-179.420
 30
0.000000
  70
    32
  0
VERTEX
  8
┌▓È_1
  5
A21
 10
965.456
 20
-179.470
 30
0.000000
  70
    32
  0
VERTEX
  8
┌▓È_1
  5
A22
 10
965.462
 20
-179.520
 30
0.000000
  70
    32
  0
VERTEX
  8
┌▓È_1
  5
A23
 10
965.469
 20
-179.571
 30
0.000000
  70
    32
  0
VERTEX
  8
┌▓È_1
  5
A24
 10
965.475
 20
-179.621
 30
0.000000
  70
    32
  0
VERTEX
  8
┌▓È_1
  5
A25
 10
965.482
 20
-179.671
 30
0.000000
  70
    32
  0
VERTEX
  8
┌▓È_1
  5
A26
 10
965.489
 20
-179.722
 30
0.000000
  70
    32
  0
VERTEX
  8
┌▓È_1
  5
A27
 10
965.496
 20
-179.772
 30
0.000000
  70
    32
  0
VERTEX
  8
┌▓È_1
  5
A28
 10
965.503
 20
-179.822
 30
0.000000
  70
    32
  0
VERTEX
  8
┌▓È_1
  5
A29
 10
965.510
 20
-179.873
 30
0.000000
  70
    32
  0
VERTEX
  8
┌▓È_1
  5
A2A
 10
965.517
 20
-179.923
 30
0.000000
  70
    32
  0
VERTEX
  8
┌▓È_1
  5
A2B
 10
965.525
 20
-179.973
 30
0.000000
  70
    32
  0
VERTEX
  8
┌▓È_1
  5
A2C
 10
965.532
 20
-180.024
 30
0.000000
  70
    32
  0
VERTEX
  8
┌▓È_1
  5
A2D
 10
965.540
 20
-180.074
 30
0.000000
  70
    32
  0
VERTEX
  8
┌▓È_1
  5
A2E
 10
965.547
 20
-180.124
 30
0.000000
  70
    32
  0
VERTEX
  8
┌▓È_1
  5
A2F
 10
965.555
 20
-180.174
 30
0.000000
  70
    32
  0
VERTEX
  8
┌▓È_1
  5
A30
 10
965.563
 20
-180.225
 30
0.000000
  70
    32
  0
VERTEX
  8
┌▓È_1
  5
A31
 10
965.571
 20
-180.275
 30
0.000000
  70
    32
  0
VERTEX
  8
┌▓È_1
  5
A32
 10
965.579
 20
-180.325
 30
0.000000
  70
    32
  0
VERTEX
  8
┌▓È_1
  5
A33
 10
965.587
 20
-180.376
 30
0.000000
  70
    32
  0
VERTEX
  8
┌▓È_1
  5
A34
 10
965.595
 20
-180.426
 30
0.000000
  70
    32
  0
VERTEX
  8
┌▓È_1
  5
A35
 10
965.603
 20
-180.476
 30
0.000000
  70
    32
  0
VERTEX
  8
┌▓È_1
  5
A36
 10
965.611
 20
-180.527
 30
0.000000
  70
    32
  0
VERTEX
  8
┌▓È_1
  5
A37
 10
965.619
 20
-180.577
 30
0.000000
  70
    32
  0
VERTEX
  8
┌▓È_1
  5
A38
 10
965.628
 20
-180.627
 30
0.000000
  70
    32
  0
VERTEX
  8
┌▓È_1
  5
A39
 10
965.636
 20
-180.678
 30
0.000000
  70
    32
  0
VERTEX
  8
┌▓È_1
  5
A3A
 10
965.645
 20
-180.728
 30
0.000000
  70
    32
  0
VERTEX
  8
┌▓È_1
  5
A3B
 10
965.653
 20
-180.778
 30
0.000000
  70
    32
  0
VERTEX
  8
┌▓È_1
  5
A3C
 10
965.662
 20
-180.829
 30
0.000000
  70
    32
  0
VERTEX
  8
┌▓È_1
  5
A3D
 10
965.670
 20
-180.879
 30
0.000000
  70
    32
  0
VERTEX
  8
┌▓È_1
  5
A3E
 10
965.679
 20
-180.929
 30
0.000000
  70
    32
  0
VERTEX
  8
┌▓È_1
  5
A3F
 10
965.687
 20
-180.979
 30
0.000000
  70
    32
  0
VERTEX
  8
┌▓È_1
  5
A40
 10
965.696
 20
-181.030
 30
0.000000
  70
    32
  0
VERTEX
  8
┌▓È_1
  5
A41
 10
965.705
 20
-181.080
 30
0.000000
  70
    32
  0
VERTEX
  8
┌▓È_1
  5
A42
 10
965.713
 20
-181.130
 30
0.000000
  70
    32
  0
VERTEX
  8
┌▓È_1
  5
A43
 10
965.722
 20
-181.181
 30
0.000000
  70
    32
  0
VERTEX
  8
┌▓È_1
  5
A44
 10
965.731
 20
-181.231
 30
0.000000
  70
    32
  0
VERTEX
  8
┌▓È_1
  5
A45
 10
965.740
 20
-181.281
 30
0.000000
  70
    32
  0
VERTEX
  8
┌▓È_1
  5
A46
 10
965.748
 20
-181.332
 30
0.000000
  70
    32
  0
VERTEX
  8
┌▓È_1
  5
A47
 10
965.757
 20
-181.382
 30
0.000000
  70
    32
  0
VERTEX
  8
┌▓È_1
  5
A48
 10
965.766
 20
-181.432
 30
0.000000
  70
    32
  0
VERTEX
  8
┌▓È_1
  5
A49
 10
965.775
 20
-181.483
 30
0.000000
  70
    32
  0
VERTEX
  8
┌▓È_1
  5
A4A
 10
965.784
 20
-181.533
 30
0.000000
  70
    32
  0
VERTEX
  8
┌▓È_1
  5
A4B
 10
965.793
 20
-181.583
 30
0.000000
  70
    32
  0
SEQEND
  8
┌▓È_1
  5
A4C
  0
POLYLINE
  8
┌▓È_1
  5
A4D
  62
5
  66
     1
 10
0.000000
 20
0.000000
 30
0.000000
  70
     8
  0
VERTEX
  8
┌▓È_1
  5
A4E
 10
971.855
 20
-173.583
 30
0.000000
  70
    32
  0
VERTEX
  8
┌▓È_1
  5
A4F
 10
971.864
 20
-173.634
 30
0.000000
  70
    32
  0
VERTEX
  8
┌▓È_1
  5
A50
 10
971.873
 20
-173.684
 30
0.000000
  70
    32
  0
VERTEX
  8
┌▓È_1
  5
A51
 10
971.881
 20
-173.734
 30
0.000000
  70
    32
  0
VERTEX
  8
┌▓È_1
  5
A52
 10
971.890
 20
-173.785
 30
0.000000
  70
    32
  0
VERTEX
  8
┌▓È_1
  5
A53
 10
971.899
 20
-173.835
 30
0.000000
  70
    32
  0
VERTEX
  8
┌▓È_1
  5
A54
 10
971.908
 20
-173.885
 30
0.000000
  70
    32
  0
VERTEX
  8
┌▓È_1
  5
A55
 10
971.917
 20
-173.935
 30
0.000000
  70
    32
  0
VERTEX
  8
┌▓È_1
  5
A56
 10
971.925
 20
-173.986
 30
0.000000
  70
    32
  0
VERTEX
  8
┌▓È_1
  5
A57
 10
971.934
 20
-174.036
 30
0.000000
  70
    32
  0
VERTEX
  8
┌▓È_1
  5
A58
 10
971.943
 20
-174.086
 30
0.000000
  70
    32
  0
VERTEX
  8
┌▓È_1
  5
A59
 10
971.952
 20
-174.137
 30
0.000000
  70
    32
  0
VERTEX
  8
┌▓È_1
  5
A5A
 10
971.960
 20
-174.187
 30
0.000000
  70
    32
  0
VERTEX
  8
┌▓È_1
  5
A5B
 10
971.969
 20
-174.237
 30
0.000000
  70
    32
  0
VERTEX
  8
┌▓È_1
  5
A5C
 10
971.977
 20
-174.288
 30
0.000000
  70
    32
  0
VERTEX
  8
┌▓È_1
  5
A5D
 10
971.986
 20
-174.338
 30
0.000000
  70
    32
  0
VERTEX
  8
┌▓È_1
  5
A5E
 10
971.994
 20
-174.388
 30
0.000000
  70
    32
  0
VERTEX
  8
┌▓È_1
  5
A5F
 10
972.003
 20
-174.439
 30
0.000000
  70
    32
  0
VERTEX
  8
┌▓È_1
  5
A60
 10
972.011
 20
-174.489
 30
0.000000
  70
    32
  0
VERTEX
  8
┌▓È_1
  5
A61
 10
972.020
 20
-174.539
 30
0.000000
  70
    32
  0
VERTEX
  8
┌▓È_1
  5
A62
 10
972.028
 20
-174.590
 30
0.000000
  70
    32
  0
VERTEX
  8
┌▓È_1
  5
A63
 10
972.036
 20
-174.640
 30
0.000000
  70
    32
  0
VERTEX
  8
┌▓È_1
  5
A64
 10
972.045
 20
-174.690
 30
0.000000
  70
    32
  0
VERTEX
  8
┌▓È_1
  5
A65
 10
972.053
 20
-174.740
 30
0.000000
  70
    32
  0
VERTEX
  8
┌▓È_1
  5
A66
 10
972.061
 20
-174.791
 30
0.000000
  70
    32
  0
VERTEX
  8
┌▓È_1
  5
A67
 10
972.069
 20
-174.841
 30
0.000000
  70
    32
  0
VERTEX
  8
┌▓È_1
  5
A68
 10
972.077
 20
-174.891
 30
0.000000
  70
    32
  0
VERTEX
  8
┌▓È_1
  5
A69
 10
972.085
 20
-174.942
 30
0.000000
  70
    32
  0
VERTEX
  8
┌▓È_1
  5
A6A
 10
972.092
 20
-174.992
 30
0.000000
  70
    32
  0
VERTEX
  8
┌▓È_1
  5
A6B
 10
972.100
 20
-175.042
 30
0.000000
  70
    32
  0
VERTEX
  8
┌▓È_1
  5
A6C
 10
972.108
 20
-175.093
 30
0.000000
  70
    32
  0
VERTEX
  8
┌▓È_1
  5
A6D
 10
972.115
 20
-175.143
 30
0.000000
  70
    32
  0
VERTEX
  8
┌▓È_1
  5
A6E
 10
972.123
 20
-175.193
 30
0.000000
  70
    32
  0
VERTEX
  8
┌▓È_1
  5
A6F
 10
972.130
 20
-175.244
 30
0.000000
  70
    32
  0
VERTEX
  8
┌▓È_1
  5
A70
 10
972.137
 20
-175.294
 30
0.000000
  70
    32
  0
VERTEX
  8
┌▓È_1
  5
A71
 10
972.144
 20
-175.344
 30
0.000000
  70
    32
  0
VERTEX
  8
┌▓È_1
  5
A72
 10
972.152
 20
-175.395
 30
0.000000
  70
    32
  0
VERTEX
  8
┌▓È_1
  5
A73
 10
972.159
 20
-175.445
 30
0.000000
  70
    32
  0
VERTEX
  8
┌▓È_1
  5
A74
 10
972.165
 20
-175.495
 30
0.000000
  70
    32
  0
VERTEX
  8
┌▓È_1
  5
A75
 10
972.172
 20
-175.546
 30
0.000000
  70
    32
  0
VERTEX
  8
┌▓È_1
  5
A76
 10
972.179
 20
-175.596
 30
0.000000
  70
    32
  0
VERTEX
  8
┌▓È_1
  5
A77
 10
972.185
 20
-175.646
 30
0.000000
  70
    32
  0
VERTEX
  8
┌▓È_1
  5
A78
 10
972.192
 20
-175.696
 30
0.000000
  70
    32
  0
VERTEX
  8
┌▓È_1
  5
A79
 10
972.198
 20
-175.747
 30
0.000000
  70
    32
  0
VERTEX
  8
┌▓È_1
  5
A7A
 10
972.204
 20
-175.797
 30
0.000000
  70
    32
  0
VERTEX
  8
┌▓È_1
  5
A7B
 10
972.210
 20
-175.847
 30
0.000000
  70
    32
  0
VERTEX
  8
┌▓È_1
  5
A7C
 10
972.216
 20
-175.898
 30
0.000000
  70
    32
  0
VERTEX
  8
┌▓È_1
  5
A7D
 10
972.222
 20
-175.948
 30
0.000000
  70
    32
  0
VERTEX
  8
┌▓È_1
  5
A7E
 10
972.228
 20
-175.998
 30
0.000000
  70
    32
  0
VERTEX
  8
┌▓È_1
  5
A7F
 10
972.233
 20
-176.049
 30
0.000000
  70
    32
  0
VERTEX
  8
┌▓È_1
  5
A80
 10
972.239
 20
-176.099
 30
0.000000
  70
    32
  0
VERTEX
  8
┌▓È_1
  5
A81
 10
972.244
 20
-176.149
 30
0.000000
  70
    32
  0
VERTEX
  8
┌▓È_1
  5
A82
 10
972.249
 20
-176.200
 30
0.000000
  70
    32
  0
VERTEX
  8
┌▓È_1
  5
A83
 10
972.254
 20
-176.250
 30
0.000000
  70
    32
  0
VERTEX
  8
┌▓È_1
  5
A84
 10
972.259
 20
-176.300
 30
0.000000
  70
    32
  0
VERTEX
  8
┌▓È_1
  5
A85
 10
972.264
 20
-176.351
 30
0.000000
  70
    32
  0
VERTEX
  8
┌▓È_1
  5
A86
 10
972.268
 20
-176.401
 30
0.000000
  70
    32
  0
VERTEX
  8
┌▓È_1
  5
A87
 10
972.273
 20
-176.451
 30
0.000000
  70
    32
  0
VERTEX
  8
┌▓È_1
  5
A88
 10
972.277
 20
-176.501
 30
0.000000
  70
    32
  0
VERTEX
  8
┌▓È_1
  5
A89
 10
972.281
 20
-176.552
 30
0.000000
  70
    32
  0
VERTEX
  8
┌▓È_1
  5
A8A
 10
972.285
 20
-176.602
 30
0.000000
  70
    32
  0
VERTEX
  8
┌▓È_1
  5
A8B
 10
972.289
 20
-176.652
 30
0.000000
  70
    32
  0
VERTEX
  8
┌▓È_1
  5
A8C
 10
972.292
 20
-176.703
 30
0.000000
  70
    32
  0
VERTEX
  8
┌▓È_1
  5
A8D
 10
972.296
 20
-176.753
 30
0.000000
  70
    32
  0
VERTEX
  8
┌▓È_1
  5
A8E
 10
972.299
 20
-176.803
 30
0.000000
  70
    32
  0
VERTEX
  8
┌▓È_1
  5
A8F
 10
972.302
 20
-176.854
 30
0.000000
  70
    32
  0
VERTEX
  8
┌▓È_1
  5
A90
 10
972.305
 20
-176.904
 30
0.000000
  70
    32
  0
VERTEX
  8
┌▓È_1
  5
A91
 10
972.307
 20
-176.954
 30
0.000000
  70
    32
  0
VERTEX
  8
┌▓È_1
  5
A92
 10
972.310
 20
-177.005
 30
0.000000
  70
    32
  0
VERTEX
  8
┌▓È_1
  5
A93
 10
972.312
 20
-177.055
 30
0.000000
  70
    32
  0
VERTEX
  8
┌▓È_1
  5
A94
 10
972.314
 20
-177.105
 30
0.000000
  70
    32
  0
VERTEX
  8
┌▓È_1
  5
A95
 10
972.316
 20
-177.156
 30
0.000000
  70
    32
  0
VERTEX
  8
┌▓È_1
  5
A96
 10
972.318
 20
-177.206
 30
0.000000
  70
    32
  0
VERTEX
  8
┌▓È_1
  5
A97
 10
972.319
 20
-177.256
 30
0.000000
  70
    32
  0
VERTEX
  8
┌▓È_1
  5
A98
 10
972.320
 20
-177.307
 30
0.000000
  70
    32
  0
VERTEX
  8
┌▓È_1
  5
A99
 10
972.322
 20
-177.357
 30
0.000000
  70
    32
  0
VERTEX
  8
┌▓È_1
  5
A9A
 10
972.322
 20
-177.407
 30
0.000000
  70
    32
  0
VERTEX
  8
┌▓È_1
  5
A9B
 10
972.323
 20
-177.457
 30
0.000000
  70
    32
  0
VERTEX
  8
┌▓È_1
  5
A9C
 10
972.324
 20
-177.508
 30
0.000000
  70
    32
  0
VERTEX
  8
┌▓È_1
  5
A9D
 10
972.324
 20
-177.558
 30
0.000000
  70
    32
  0
VERTEX
  8
┌▓È_1
  5
A9E
 10
972.324
 20
-177.608
 30
0.000000
  70
    32
  0
VERTEX
  8
┌▓È_1
  5
A9F
 10
972.324
 20
-177.659
 30
0.000000
  70
    32
  0
VERTEX
  8
┌▓È_1
  5
AA0
 10
972.323
 20
-177.709
 30
0.000000
  70
    32
  0
VERTEX
  8
┌▓È_1
  5
AA1
 10
972.322
 20
-177.759
 30
0.000000
  70
    32
  0
VERTEX
  8
┌▓È_1
  5
AA2
 10
972.322
 20
-177.810
 30
0.000000
  70
    32
  0
VERTEX
  8
┌▓È_1
  5
AA3
 10
972.320
 20
-177.860
 30
0.000000
  70
    32
  0
VERTEX
  8
┌▓È_1
  5
AA4
 10
972.319
 20
-177.910
 30
0.000000
  70
    32
  0
VERTEX
  8
┌▓È_1
  5
AA5
 10
972.318
 20
-177.961
 30
0.000000
  70
    32
  0
VERTEX
  8
┌▓È_1
  5
AA6
 10
972.316
 20
-178.011
 30
0.000000
  70
    32
  0
VERTEX
  8
┌▓È_1
  5
AA7
 10
972.314
 20
-178.061
 30
0.000000
  70
    32
  0
VERTEX
  8
┌▓È_1
  5
AA8
 10
972.312
 20
-178.112
 30
0.000000
  70
    32
  0
VERTEX
  8
┌▓È_1
  5
AA9
 10
972.310
 20
-178.162
 30
0.000000
  70
    32
  0
VERTEX
  8
┌▓È_1
  5
AAA
 10
972.307
 20
-178.212
 30
0.000000
  70
    32
  0
VERTEX
  8
┌▓È_1
  5
AAB
 10
972.305
 20
-178.263
 30
0.000000
  70
    32
  0
VERTEX
  8
┌▓È_1
  5
AAC
 10
972.302
 20
-178.313
 30
0.000000
  70
    32
  0
VERTEX
  8
┌▓È_1
  5
AAD
 10
972.299
 20
-178.363
 30
0.000000
  70
    32
  0
VERTEX
  8
┌▓È_1
  5
AAE
 10
972.296
 20
-178.413
 30
0.000000
  70
    32
  0
VERTEX
  8
┌▓È_1
  5
AAF
 10
972.292
 20
-178.464
 30
0.000000
  70
    32
  0
VERTEX
  8
┌▓È_1
  5
AB0
 10
972.289
 20
-178.514
 30
0.000000
  70
    32
  0
VERTEX
  8
┌▓È_1
  5
AB1
 10
972.285
 20
-178.564
 30
0.000000
  70
    32
  0
VERTEX
  8
┌▓È_1
  5
AB2
 10
972.281
 20
-178.615
 30
0.000000
  70
    32
  0
VERTEX
  8
┌▓È_1
  5
AB3
 10
972.277
 20
-178.665
 30
0.000000
  70
    32
  0
VERTEX
  8
┌▓È_1
  5
AB4
 10
972.273
 20
-178.715
 30
0.000000
  70
    32
  0
VERTEX
  8
┌▓È_1
  5
AB5
 10
972.268
 20
-178.766
 30
0.000000
  70
    32
  0
VERTEX
  8
┌▓È_1
  5
AB6
 10
972.264
 20
-178.816
 30
0.000000
  70
    32
  0
VERTEX
  8
┌▓È_1
  5
AB7
 10
972.259
 20
-178.866
 30
0.000000
  70
    32
  0
VERTEX
  8
┌▓È_1
  5
AB8
 10
972.254
 20
-178.917
 30
0.000000
  70
    32
  0
VERTEX
  8
┌▓È_1
  5
AB9
 10
972.249
 20
-178.967
 30
0.000000
  70
    32
  0
VERTEX
  8
┌▓È_1
  5
ABA
 10
972.244
 20
-179.017
 30
0.000000
  70
    32
  0
VERTEX
  8
┌▓È_1
  5
ABB
 10
972.239
 20
-179.068
 30
0.000000
  70
    32
  0
VERTEX
  8
┌▓È_1
  5
ABC
 10
972.233
 20
-179.118
 30
0.000000
  70
    32
  0
VERTEX
  8
┌▓È_1
  5
ABD
 10
972.228
 20
-179.168
 30
0.000000
  70
    32
  0
VERTEX
  8
┌▓È_1
  5
ABE
 10
972.222
 20
-179.218
 30
0.000000
  70
    32
  0
VERTEX
  8
┌▓È_1
  5
ABF
 10
972.216
 20
-179.269
 30
0.000000
  70
    32
  0
VERTEX
  8
┌▓È_1
  5
AC0
 10
972.210
 20
-179.319
 30
0.000000
  70
    32
  0
VERTEX
  8
┌▓È_1
  5
AC1
 10
972.204
 20
-179.369
 30
0.000000
  70
    32
  0
VERTEX
  8
┌▓È_1
  5
AC2
 10
972.198
 20
-179.420
 30
0.000000
  70
    32
  0
VERTEX
  8
┌▓È_1
  5
AC3
 10
972.192
 20
-179.470
 30
0.000000
  70
    32
  0
VERTEX
  8
┌▓È_1
  5
AC4
 10
972.185
 20
-179.520
 30
0.000000
  70
    32
  0
VERTEX
  8
┌▓È_1
  5
AC5
 10
972.179
 20
-179.571
 30
0.000000
  70
    32
  0
VERTEX
  8
┌▓È_1
  5
AC6
 10
972.172
 20
-179.621
 30
0.000000
  70
    32
  0
VERTEX
  8
┌▓È_1
  5
AC7
 10
972.165
 20
-179.671
 30
0.000000
  70
    32
  0
VERTEX
  8
┌▓È_1
  5
AC8
 10
972.159
 20
-179.722
 30
0.000000
  70
    32
  0
VERTEX
  8
┌▓È_1
  5
AC9
 10
972.152
 20
-179.772
 30
0.000000
  70
    32
  0
VERTEX
  8
┌▓È_1
  5
ACA
 10
972.144
 20
-179.822
 30
0.000000
  70
    32
  0
VERTEX
  8
┌▓È_1
  5
ACB
 10
972.137
 20
-179.873
 30
0.000000
  70
    32
  0
VERTEX
  8
┌▓È_1
  5
ACC
 10
972.130
 20
-179.923
 30
0.000000
  70
    32
  0
VERTEX
  8
┌▓È_1
  5
ACD
 10
972.123
 20
-179.973
 30
0.000000
  70
    32
  0
VERTEX
  8
┌▓È_1
  5
ACE
 10
972.115
 20
-180.024
 30
0.000000
  70
    32
  0
VERTEX
  8
┌▓È_1
  5
ACF
 10
972.108
 20
-180.074
 30
0.000000
  70
    32
  0
VERTEX
  8
┌▓È_1
  5
AD0
 10
972.100
 20
-180.124
 30
0.000000
  70
    32
  0
VERTEX
  8
┌▓È_1
  5
AD1
 10
972.092
 20
-180.174
 30
0.000000
  70
    32
  0
VERTEX
  8
┌▓È_1
  5
AD2
 10
972.085
 20
-180.225
 30
0.000000
  70
    32
  0
VERTEX
  8
┌▓È_1
  5
AD3
 10
972.077
 20
-180.275
 30
0.000000
  70
    32
  0
VERTEX
  8
┌▓È_1
  5
AD4
 10
972.069
 20
-180.325
 30
0.000000
  70
    32
  0
VERTEX
  8
┌▓È_1
  5
AD5
 10
972.061
 20
-180.376
 30
0.000000
  70
    32
  0
VERTEX
  8
┌▓È_1
  5
AD6
 10
972.053
 20
-180.426
 30
0.000000
  70
    32
  0
VERTEX
  8
┌▓È_1
  5
AD7
 10
972.045
 20
-180.476
 30
0.000000
  70
    32
  0
VERTEX
  8
┌▓È_1
  5
AD8
 10
972.036
 20
-180.527
 30
0.000000
  70
    32
  0
VERTEX
  8
┌▓È_1
  5
AD9
 10
972.028
 20
-180.577
 30
0.000000
  70
    32
  0
VERTEX
  8
┌▓È_1
  5
ADA
 10
972.020
 20
-180.627
 30
0.000000
  70
    32
  0
VERTEX
  8
┌▓È_1
  5
ADB
 10
972.011
 20
-180.678
 30
0.000000
  70
    32
  0
VERTEX
  8
┌▓È_1
  5
ADC
 10
972.003
 20
-180.728
 30
0.000000
  70
    32
  0
VERTEX
  8
┌▓È_1
  5
ADD
 10
971.994
 20
-180.778
 30
0.000000
  70
    32
  0
VERTEX
  8
┌▓È_1
  5
ADE
 10
971.986
 20
-180.829
 30
0.000000
  70
    32
  0
VERTEX
  8
┌▓È_1
  5
ADF
 10
971.977
 20
-180.879
 30
0.000000
  70
    32
  0
VERTEX
  8
┌▓È_1
  5
AE0
 10
971.969
 20
-180.929
 30
0.000000
  70
    32
  0
VERTEX
  8
┌▓È_1
  5
AE1
 10
971.960
 20
-180.979
 30
0.000000
  70
    32
  0
VERTEX
  8
┌▓È_1
  5
AE2
 10
971.952
 20
-181.030
 30
0.000000
  70
    32
  0
VERTEX
  8
┌▓È_1
  5
AE3
 10
971.943
 20
-181.080
 30
0.000000
  70
    32
  0
VERTEX
  8
┌▓È_1
  5
AE4
 10
971.934
 20
-181.130
 30
0.000000
  70
    32
  0
VERTEX
  8
┌▓È_1
  5
AE5
 10
971.925
 20
-181.181
 30
0.000000
  70
    32
  0
VERTEX
  8
┌▓È_1
  5
AE6
 10
971.917
 20
-181.231
 30
0.000000
  70
    32
  0
VERTEX
  8
┌▓È_1
  5
AE7
 10
971.908
 20
-181.281
 30
0.000000
  70
    32
  0
VERTEX
  8
┌▓È_1
  5
AE8
 10
971.899
 20
-181.332
 30
0.000000
  70
    32
  0
VERTEX
  8
┌▓È_1
  5
AE9
 10
971.890
 20
-181.382
 30
0.000000
  70
    32
  0
VERTEX
  8
┌▓È_1
  5
AEA
 10
971.881
 20
-181.432
 30
0.000000
  70
    32
  0
VERTEX
  8
┌▓È_1
  5
AEB
 10
971.873
 20
-181.483
 30
0.000000
  70
    32
  0
VERTEX
  8
┌▓È_1
  5
AEC
 10
971.864
 20
-181.533
 30
0.000000
  70
    32
  0
VERTEX
  8
┌▓È_1
  5
AED
 10
971.855
 20
-181.583
 30
0.000000
  70
    32
  0
SEQEND
  8
┌▓È_1
  5
AEE
  0
DIMENSION
  5
343
  8
Éíû@É³
  2
*D28
 10
911.28416683289981
 20
-177.58325784600001
 30
0.0
 11
911.28416683289981
 21
-189.58325784600001
 31
0.0
 70
   128
  1
<>
 13
926.28416683289993
 23
-177.58325784600001
 33
0.0
 14
937.12375016630006
 24
-201.58325784600001
 34
0.0
 50
90.0
  0
DIMENSION
  5
352
  8
Éíû@É³
  2
*D29
 10
941.62375016630006
 20
-2.5832578459999991
 30
0.0
 11
938.62375016630006
 21
-2.5832578459999991
 31
0.0
 70
   128
  1
<>
 13
941.62375016630006
 23
-22.583257845999999
 33
0.0
 14
935.62375016630006
 24
-23.583257845999999
 34
0.0
  0
DIMENSION
  5
361
  8
Éíû@É³
  2
*D30
 10
1030.6237501662999
 20
12.6060465058
 30
0.0
 11
980.68026237310005
 21
12.6060465058
 31
0.0
 70
   128
  1
<>
 13
1030.6237501662999
 23
-24.583257845999999
 33
0.0
 14
935.62375016630006
 24
-23.583257845999999
 34
0.0
  0
DIMENSION
  5
370
  8
Éíû@É³
  2
*D31
 10
921.62375016630006
 20
-33.583257846000002
 30
0.0
 11
921.62375016630006
 21
-40.083257846000002
 31
0.0
 70
   128
  1
<>
 13
937.12375016630006
 23
-33.583257846000002
 33
0.0
 14
936.62375016630006
 24
-46.583257846000002
 34
0.0
 50
90.0
  0
INSERT
  5
371
  8
0
  6
CONTINUOUS
  2
*U98
 10
0.0
 20
0.0
 30
0.0
  0
INSERT
  5
372
  8
0
  6
CONTINUOUS
  2
*U99
 10
0.0
 20
0.0
 30
0.0
  0
INSERT
  5
373
  8
0
  6
CONTINUOUS
  2
*U100
 10
0.0
 20
0.0
 30
0.0
  0
INSERT
  5
374
  8
0
  6
CONTINUOUS
  2
*U101
 10
0.0
 20
0.0
 30
0.0
  0
INSERT
  5
375
  8
0
  6
CONTINUOUS
  2
*U102
 10
0.0
 20
0.0
 30
0.0
  0
INSERT
  5
376
  8
0
  6
CONTINUOUS
  2
*U103
 10
0.0
 20
0.0
 30
0.0
  0
INSERT
  5
377
  8
0
  6
CONTINUOUS
  2
*U104
 10
0.0
 20
0.0
 30
0.0
  0
INSERT
  5
378
  8
0
  6
CONTINUOUS
  2
*U105
 10
0.0
 20
0.0
 30
0.0
  0
INSERT
  5
379
  8
0
  6
CONTINUOUS
  2
*U106
 10
0.0
 20
0.0
 30
0.0
  0
LINE
  5
37A
  8
┌▓È_1
 62
     5
 10
936.62375016630006
 20
-31.578903318599998
 30
0.0
 11
948.66741110919997
 21
-31.083257845999999
 31
0.0
  0
LINE
  5
37B
  8
┌▓È_1
 62
     5
 10
937.12375016630006
 20
-33.583257846000002
 30
0.0
 11
940.12375016630006
 21
-33.583257846000002
 31
0.0
  0
LINE
  5
37C
  8
┌▓È_1
 62
     5
 10
973.52375016630003
 20
-181.58325784600001
 30
0.0
 11
972.3237501663001
 21
-181.58325784600001
 31
0.0
  0
LINE
  5
37D
  8
┌▓È_1
 62
     5
 10
973.52375016630003
 20
-173.58325784600001
 30
0.0
 11
974.82375016629999
 21
-174.88325784599999
 31
0.0
  0
LINE
  5
37E
  8
┌▓È_1
 62
     5
 10
973.52375016630003
 20
-173.58325784600001
 30
0.0
 11
972.3237501663001
 21
-173.58325784600001
 31
0.0
  0
ARC
  5
37F
  8
┌▓È_1
 62
     5
 10
968.8237501663001
 20
-183.33325784600001
 30
0.0
 40
3.5
 50
150.0
 51
210.0
  0
LINE
  5
380
  8
┌▓È_1
 62
     5
 10
965.3237501663001
 20
-185.08325784600001
 30
0.0
 11
963.8237501663001
 21
-185.08325784600001
 31
0.0
  0
LINE
  5
381
  8
┌▓È_1
 62
     5
 10
974.82375016629999
 20
-180.283257846
 30
0.0
 11
974.82375016629999
 21
-174.88325784599999
 31
0.0
  0
LINE
  5
382
  8
┌▓È_1
 62
     5
 10
974.82375016629999
 20
-180.283257846
 30
0.0
 11
972.3237501663001
 21
-180.283257846
 31
0.0
  0
LINE
  5
383
  8
┌▓È_1
 62
     5
 10
972.3237501663001
 20
-171.83325710240001
 30
0.0
 11
972.3237501663001
 21
-183.3332589705
 31
0.0
  0
LINE
  5
384
  8
┌▓È_1
 62
     5
 10
953.5737501663001
 20
-183.08325784600001
 30
0.0
 11
953.5737501663001
 21
-181.08325784600001
 31
0.0
  0
LINE
  5
385
  8
┌▓È_1
 62
     5
 10
961.8237501663001
 20
-170.08325784600001
 30
0.0
 11
960.8237501663001
 21
-170.08325784600001
 31
0.0
  0
LINE
  5
386
  8
┌▓È_1
 62
     5
 10
960.8237501663001
 20
-187.58325784600001
 30
0.0
 11
960.8237501663001
 21
-162.58325784600001
 31
0.0
  0
LINE
  5
387
  8
┌▓È_1
 62
     5
 10
961.8237501663001
 20
-185.08325784600001
 30
0.0
 11
960.8237501663001
 21
-185.08325784600001
 31
0.0
  0
LINE
  5
388
  8
┌▓È_1
 62
     5
 10
965.79266125299989
 20
-170.08325784600001
 30
0.0
 11
971.85483907950004
 21
-170.08325784600001
 31
0.0
  0
LINE
  5
389
  8
┌▓È_1
 62
     5
 10
958.3237501663001
 20
-172.08325784600001
 30
0.0
 11
959.8237501663001
 21
-172.08325784600001
 31
0.0
  0
LINE
  5
38A
  8
┌▓È_1
 62
     5
 10
1029.6237501662999
 20
-24.583257845999999
 30
0.0
 11
1030.6237501662999
 21
-24.583257845999999
 31
0.0
  0
LINE
  5
38B
  8
┌▓È_1
 62
     5
 10
1029.6237501662999
 20
-30.083257845999999
 30
0.0
 11
1029.6237501662999
 21
-24.583257845999999
 31
0.0
  0
LINE
  5
38C
  8
┌▓È_1
 62
     5
 10
1030.6237501662999
 20
-24.583257845999999
 30
0.0
 11
1030.6237501662999
 21
-30.083257845999999
 31
0.0
  0
ARC
  5
38D
  8
┌▓È_1
 62
     5
 10
1029.6237501662999
 20
-30.083257845999999
 30
0.0
 40
1.0
 50
270.0
 51
0.0
  0
LINE
  5
38E
  8
┌▓È_1
  6
BORDER
 62
     3
 10
943.62375016630006
 20
-39.583257846000002
 30
0.0
 11
943.62375016630006
 21
-53.583257846000002
 31
0.0
  0
LINE
  5
38F
  8
┌▓È_1
  6
BORDER
 62
     3
 10
936.62375016630006
 20
-46.583257846000002
 30
0.0
 11
950.62375016630006
 21
-46.583257846000002
 31
0.0
  0
LINE
  5
390
  8
┌▓È_1
 62
     5
 10
948.7502587736999
 20
-31.083257845999999
 30
0.0
 11
948.83681264920006
 21
-32.072573169400002
 31
0.0
  0
ARC
  5
391
  8
┌▓È_1
 62
     5
 10
936.62375016630006
 20
-31.583257845999999
 30
0.0
 40
1.0
 50
180.0
 51
275.0
  0
LINE
  5
392
  8
┌▓È_1
 62
     5
 10
935.62375016630006
 20
-23.583257845999999
 30
0.0
 11
935.62375016630006
 21
-31.583257845999999
 31
0.0
  0
LINE
  5
393
  8
┌▓È_1
 62
     5
 10
974.82375016629999
 20
-180.283257846
 30
0.0
 11
973.52375016630003
 21
-181.58325784600001
 31
0.0
  0
LINE
  5
394
  8
┌▓È_1
 62
     5
 10
958.3237501663001
 20
-183.08325784600001
 30
0.0
 11
958.3237501663001
 21
-172.08325784600001
 31
0.0
  0
LINE
  5
395
  8
┌▓È_1
 62
     5
 10
959.8237501663001
 20
-162.58325784600001
 30
0.0
 11
959.8237501663001
 21
-187.58325784600001
 31
0.0
  0
LINE
  5
396
  8
┌▓È_1
 62
     5
 10
941.62375016630006
 20
-23.583257845999999
 30
0.0
 11
941.62375016630006
 21
-30.372511824
 31
0.0
  0
ARC
  5
397
  8
┌▓È_1
 62
     5
 10
968.8237501663001
 20
-171.83325784600001
 30
0.0
 40
3.5
 50
330.0
 51
30.0
  0
LINE
  5
398
  8
┌▓È_1
 62
     5
 10
971.85483907950004
 20
-173.58325784600001
 30
0.0
 11
965.79266125299989
 21
-173.58325784600001
 31
0.0
  0
LINE
  5
399
  8
┌▓È_1
 62
     5
 10
973.52375016630003
 20
-181.58325784600001
 30
0.0
 11
973.52375016630003
 21
-173.58325784600001
 31
0.0
  0
LINE
  5
39A
  8
┌▓È_1
 62
     5
 10
974.82375016629999
 20
-174.88325784599999
 30
0.0
 11
972.3237501663001
 21
-174.88325784599999
 31
0.0
  0
ARC
  5
39B
  8
┌▓È_1
 62
     5
 10
968.8237501663001
 20
-171.83325784600001
 30
0.0
 40
3.5
 50
150.0
 51
210.0
  0
LINE
  5
39C
  8
┌▓È_1
 62
     5
 10
971.85483907950004
 20
-181.58325784600001
 30
0.0
 11
965.79266125299989
 21
-181.58325784600001
 31
0.0
  0
LINE
  5
39D
  8
┌▓È_1
 62
     5
 10
971.85483907950004
 20
-185.08325784600001
 30
0.0
 11
965.79266125299989
 21
-185.08325784600001
 31
0.0
  0
LINE
  5
39E
  8
┌▓È_1
 62
     5
 10
965.3237501663001
 20
-170.08325784600001
 30
0.0
 11
963.8237501663001
 21
-170.08325784600001
 31
0.0
  0
LINE
  5
39F
  8
┌▓È_1
 62
     5
 10
961.8237501663001
 20
-185.08325784600001
 30
0.0
 11
961.8237501663001
 21
-170.08325784600001
 31
0.0
  0
LINE
  5
3A0
  8
┌▓È_1
 62
     5
 10
965.3237501663001
 20
-185.08325784600001
 30
0.0
 11
965.3237501663001
 21
-170.08325784600001
 31
0.0
  0
LINE
  5
3A1
  8
┌▓È_1
 62
     5
 10
951.0737501663001
 20
-172.08325784600001
 30
0.0
 11
951.0737501663001
 21
-174.08325784600001
 31
0.0
  0
LINE
  5
3A2
  8
┌▓È_1
 62
     5
 10
941.62375016630006
 20
-23.583257845999999
 30
0.0
 11
941.62375016630006
 21
-22.583257845999999
 31
0.0
  0
LINE
  5
3A3
  8
┌▓È_1
 62
     5
 10
941.62375016630006
 20
-22.583257845999999
 30
0.0
 11
936.62375016630006
 21
-22.583257845999999
 31
0.0
  0
LINE
  5
3A4
  8
┌▓È_1
 62
     5
 10
936.62375016630006
 20
-23.583257845999999
 30
0.0
 11
941.62375016630006
 21
-23.583257845999999
 31
0.0
  0
LINE
  5
3A5
  8
┌▓È_1
 62
     5
 10
937.12375016630006
 20
-183.5832578459999
 30
0.0
 11
940.12375016630006
 21
-183.5832578459999
 31
0.0
  0
ARC
  5
3A6
  8
┌▓È_1
 62
     5
 10
949.3237501663001
 20
-180.08325784600001
 30
0.0
 40
1.0
 50
180.0
 51
270.0
  0
LINE
  5
3A7
  8
┌▓È_1
 62
     5
 10
943.12375016630006
 20
-124.9994563331
 30
0.0
 11
943.12375016630006
 21
-162.58325784600001
 31
0.0
  0
LINE
  5
3A8
  8
┌▓È_1
 62
     5
 10
943.12375016630006
 20
-59.583257846000002
 30
0.0
 11
943.12375016630006
 21
-124.9994563331
 31
0.0
  0
LINE
  5
3A9
  8
┌▓È_1
 62
     5
 10
949.3237501663001
 20
-174.08325784600001
 30
0.0
 11
958.3237501663001
 21
-174.08325784600001
 31
0.0
  0
LINE
  5
3AA
  8
┌▓È_1
 62
     5
 10
949.3237501663001
 20
-181.08325784600001
 30
0.0
 11
958.3237501663001
 21
-181.08325784600001
 31
0.0
  0
LINE
  5
3AB
  8
┌▓È_1
 62
     5
 10
936.62375016630006
 20
-31.578903318599998
 30
0.0
 11
936.62375016630006
 21
-23.583257845999999
 31
0.0
  0
LINE
  5
3AC
  8
┌▓È_1
 62
     5
 10
941.62375016630006
 20
-211.58325784600001
 30
0.0
 11
941.62375016630006
 21
-212.58325784600001
 31
0.0
  0
ARC
  5
3AD
  8
┌▓È_1
 62
     5
 10
936.62375016630006
 20
-211.58325784600001
 30
0.0
 40
1.0
 50
180.0
 51
270.0
  0
LINE
  5
3AE
  8
┌▓È_1
 62
     5
 10
936.62375016630006
 20
-211.58325784600001
 30
0.0
 11
941.62375016630006
 21
-211.58325784600001
 31
0.0
  0
LINE
  5
3AF
  8
┌▓È_1
 62
     5
 10
935.62375016630006
 20
-211.58325784600001
 30
0.0
 11
935.62375016630006
 21
-203.58325784600001
 31
0.0
  0
LINE
  5
3B0
  8
┌▓È_1
 62
     5
 10
941.62375016630006
 20
-211.58325784600001
 30
0.0
 11
941.62375016630006
 21
-204.7012918348
 31
0.0
  0
LINE
  5
3B1
  8
┌▓È_1
 62
     5
 10
940.12375016630006
 20
-203.58325784600001
 30
0.0
 11
936.62375016630006
 21
-203.58325784600001
 31
0.0
  0
LINE
  5
3B2
  8
┌▓È_1
 62
     5
 10
936.62375016630006
 20
-202.58325784600001
 30
0.0
 11
940.12375016630006
 21
-202.58325784600001
 31
0.0
  0
LINE
  5
3B3
  8
┌▓È_1
 62
     5
 10
1029.6237501662999
 20
-204.08325784600001
 30
0.0
 11
942.12375016630006
 21
-204.08325784600001
 31
0.0
  0
LINE
  5
3B4
  8
┌▓È_1
 62
     5
 10
941.12375016630006
 20
-202.58325784600001
 30
0.0
 11
941.12375016630006
 21
-203.58325784600001
 31
0.0
  0
LINE
  5
3B5
  8
┌▓È_1
 62
     5
 10
942.62375016630006
 20
-205.08325784600001
 30
0.0
 11
1029.6237501662999
 21
-205.08325784600001
 31
0.0
  0
ARC
  5
3B6
  8
┌▓È_1
 62
     5
 10
942.62375016630006
 20
-203.58325784600001
 30
0.0
 40
1.5
 50
180.0
 51
270.0
  0
LINE
  5
3B7
  8
┌▓È_1
 62
     5
 10
1030.6237501662999
 20
-210.58325784600001
 30
0.0
 11
1030.6237501662999
 21
-205.08325784600001
 31
0.0
  0
LINE
  5
3B8
  8
┌▓È_1
 62
     5
 10
1029.6237501662999
 20
-205.08325784600001
 30
0.0
 11
1029.6237501662999
 21
-210.58325784600001
 31
0.0
  0
ARC
  5
3B9
  8
┌▓È_1
 62
     5
 10
936.62375016630006
 20
-203.58325784600001
 30
0.0
 40
1.0
 50
90.0
 51
180.0
  0
LINE
  5
3BA
  8
┌▓È_1
 62
     5
 10
960.8237501663001
 20
-162.58325784600001
 30
0.0
 11
940.12375016630006
 21
-162.58325784600001
 31
0.0
  0
LINE
  5
3BB
  8
┌▓È_1
 62
     5
 10
937.12375016630006
 20
-171.58325784600001
 30
0.0
 11
940.12375016630006
 21
-171.58325784600001
 31
0.0
  0
ARC
  5
3BC
  8
┌▓È_1
 62
     5
 10
968.8237501663001
 20
-183.33325784600001
 30
0.0
 40
3.5
 50
330.0
 51
30.0
  0
LINE
  5
3BD
  8
┌▓È_1
 62
     5
 10
953.5737501663001
 20
-172.08325784600001
 30
0.0
 11
953.5737501663001
 21
-174.08325784600001
 31
0.0
  0
LINE
  5
3BE
  8
┌▓È_1
 62
     5
 10
958.3237501663001
 20
-183.08325784600001
 30
0.0
 11
959.8237501663001
 21
-183.08325784600001
 31
0.0
  0
LINE
  5
3BF
  8
┌▓È_1
 62
     5
 10
948.3237501663001
 20
-180.08325784600001
 30
0.0
 11
948.3237501663001
 21
-175.08325784600001
 31
0.0
  0
ARC
  5
3C0
  8
┌▓È_1
 62
     5
 10
949.3237501663001
 20
-175.08325784600001
 30
0.0
 40
1.0
 50
90.0
 51
180.0
  0
LINE
  5
3C1
  8
┌▓È_1
 62
     5
 10
951.0737501663001
 20
-183.08325784600001
 30
0.0
 11
951.0737501663001
 21
-181.08325784600001
 31
0.0
  0
LINE
  5
3C2
  8
┌▓È_1
 62
     5
 10
951.0737501663001
 20
-183.08325784600001
 30
0.0
 11
953.5737501663001
 21
-183.08325784600001
 31
0.0
  0
LINE
  5
3C3
  8
┌▓È_1
 62
     5
 10
951.0737501663001
 20
-172.08325784600001
 30
0.0
 11
953.5737501663001
 21
-172.08325784600001
 31
0.0
  0
LINE
  5
3C4
  8
┌▓È_1
 62
     5
 10
960.8237501663001
 20
-187.58325784600001
 30
0.0
 11
940.12375016630006
 21
-187.58325784600001
 31
0.0
  0
LINE
  5
3C5
  8
┌▓È_1
 62
     5
 10
963.8237501663001
 20
-198.58325784600001
 30
0.0
 11
961.8237501663001
 21
-198.58325784600001
 31
0.0
  0
LINE
  5
3C6
  8
┌▓È_1
 62
     5
 10
961.8237501663001
 20
-198.58325784600001
 30
0.0
 11
961.8237501663001
 21
-185.08325784600001
 31
0.0
  0
LINE
  5
3C7
  8
┌▓È_1
 62
     5
 10
942.12375016630006
 20
-199.58325784600001
 30
0.0
 11
942.12375016630006
 21
-195.58325784600001
 31
0.0
  0
ARC
  5
3C8
  8
┌▓È_1
 62
     5
 10
941.12375016630006
 20
-195.58325784600001
 30
0.0
 40
1.0
 50
90.0
 51
180.0
  0
LINE
  5
3C9
  8
┌▓È_1
 62
     5
 10
941.12375016630006
 20
-194.58325784600001
 30
0.0
 11
942.12375016630006
 21
-194.58325784600001
 31
0.0
  0
ARC
  5
3CA
  8
┌▓È_1
 62
     5
 10
942.12375016630006
 20
-195.58325784600001
 30
0.0
 40
1.0
 50
0.0
 51
90.0
  0
LINE
  5
3CB
  8
┌▓È_1
 62
     5
 10
942.12375016630006
 20
-195.58325784600001
 30
0.0
 11
941.12375016630006
 21
-195.58325784600001
 31
0.0
  0
LINE
  5
3CC
  8
┌▓È_1
  6
STITCH
 10
1020.6188360727
 20
-203.4236707371
 30
0.0
 11
1024.8614767598001
 21
-199.18103005
 31
0.0
  0
LINE
  5
3CD
  8
┌▓È_1
  6
STITCH
 10
947.50965638519995
 20
-203.4236707371
 30
0.0
 11
951.75229707230005
 21
-199.18103005
 31
0.0
  0
LINE
  5
3CE
  8
┌▓È_1
  6
STITCH
 10
942.62375016630006
 20
-197.0832578459999
 30
0.0
 11
1028.6237501662999
 21
-197.0832578459999
 31
0.0
  0
LINE
  5
3CF
  8
┌▓È_1
 62
     5
 10
943.12375016630006
 20
-199.58325784600001
 30
0.0
 11
942.12375016630006
 21
-199.58325784600001
 31
0.0
  0
LINE
  5
3D0
  8
┌▓È_1
 62
     5
 10
940.12375016630006
 20
-202.58325784600001
 30
0.0
 11
940.12375016630006
 21
-195.58325784600001
 31
0.0
  0
LINE
  5
3D1
  8
┌▓È_1
 62
     5
 10
937.12375016630006
 20
-201.58325784600001
 30
0.0
 11
940.12375016630006
 21
-201.58325784600001
 31
0.0
  0
LINE
  5
3D2
  8
┌▓È_1
 62
     5
 10
960.32375016629999
 20
-202.58325784600001
 30
0.0
 11
960.32375016629999
 21
-194.08325784600001
 31
0.0
  0
LINE
  5
3D3
  8
┌▓È_1
 62
     5
 10
961.8237501663001
 20
-198.58325784600001
 30
0.0
 11
961.8237501663001
 21
-202.58325784600001
 31
0.0
  0
LINE
  5
3D4
  8
┌▓È_1
 62
     5
 10
961.8237501663001
 20
-194.08325784600001
 30
0.0
 11
960.32375016629999
 21
-194.08325784600001
 31
0.0
  0
LINE
  5
3D5
  8
┌▓È_1
 62
     5
 10
1030.6237501662999
 20
-30.083258109799999
 30
0.0
 11
1030.6237501662999
 21
-204.58325805620001
 31
0.0
  0
LINE
  5
3D6
  8
┌▓È_1
 62
     5
 10
935.62375016630006
 20
-31.583257845999999
 30
0.0
 11
935.62375016630006
 21
-203.58325784600001
 31
0.0
  0
LINE
  5
3D7
  8
┌▓È_1
 62
     5
 10
937.12375016630006
 20
-33.583257846000002
 30
0.0
 11
937.12375016630006
 21
-201.58325784600001
 31
0.0
  0
ARC
  5
3D8
  8
┌▓È_1
 62
     5
 10
940.12375016630006
 20
-202.58325784600001
 30
0.0
 40
1.0
 50
270.0
 51
0.0
  0
ARC
  5
3D9
  8
┌▓È_1
 62
     5
 10
961.8237501663001
 20
-202.58325784600001
 30
0.0
 40
1.5
 50
180.0
 51
270.0
  0
ARC
  5
3DA
  8
┌▓È_1
 62
     5
 10
1029.6237501662999
 20
-205.08325784600001
 30
0.0
 40
1.0
 50
360.0
 51
90.0
  0
LINE
  5
3DB
  8
┌▓È_1
 62
     5
 10
1029.6237501662999
 20
-210.58325784600001
 30
0.0
 11
1030.6237501662999
 21
-210.58325784600001
 31
0.0
  0
LINE
  5
3DC
  8
┌▓È_1
 62
     5
 10
936.62375016630006
 20
-203.58325784600001
 30
0.0
 11
936.62375016630006
 21
-211.58325784600001
 31
0.0
  0
LINE
  5
3DD
  8
┌▓È_1
 62
     5
 10
941.62375016630006
 20
-212.58325784600001
 30
0.0
 11
936.62375016630006
 21
-212.58325784600001
 31
0.0
  0
LINE
  5
3DE
  8
┌▓È_1
 62
     5
 10
1035.1009532912999
 20
-291.22780612269997
 30
0.0
 11
1005.1009532913
 21
-291.22780612269997
 31
0.0
  0
LINE
  5
3DF
  8
┌▓È_1
 62
     5
 10
1005.1009532913
 20
-302.22780612269997
 30
0.0
 11
1035.1009532912999
 21
-302.22780612269997
 31
0.0
  0
LINE
  5
3E0
  8
┌▓È_1
 62
     5
 10
1032.1009532912999
 20
-295.22780612269997
 30
0.0
 11
1035.1009532912999
 21
-295.22780612269997
 31
0.0
  0
LINE
  5
3E1
  8
┌▓È_1
 62
     5
 10
1035.1009532912999
 20
-291.22780612269997
 30
0.0
 11
1035.1009532912999
 21
-295.22780612269997
 31
0.0
  0
LINE
  5
3E2
  8
┌▓È_1
 10
962.83127961690002
 20
-252.03378446310001
 30
0.0
 11
1018.4929983669
 21
-252.03378446310001
 31
0.0
  0
LINE
  5
3E3
  8
┌▓È_1
 62
     5
 10
961.8237501663001
 20
-168.58325784600001
 30
0.0
 11
963.8237501663001
 21
-168.58325784600001
 31
0.0
  0
LINE
  5
3E4
  8
┌▓È_1
 62
     5
 10
961.8237501663001
 20
-170.08325784600001
 30
0.0
 11
961.8237501663001
 21
-168.58325784600001
 31
0.0
  0
LINE
  5
3E5
  8
┌▓È_1
 62
     5
 10
963.8237501663001
 20
-168.58325784600001
 30
0.0
 11
963.8237501663001
 21
-198.58325784600001
 31
0.0
  0
LINE
  5
3E6
  8
┌▓È_1
 10
988.31249999999989
 20
-205.5625
 30
0.0
 11
1003.6763258187
 21
-233.8087516137
 31
0.0
  0
SOLID
  5
3E7
  8
┌▓È_1
 10
988.31249999999989
 20
-205.5625
 30
0.0
 11
992.59169103380009
 21
-210.06507790680001
 31
0.0
 12
990.41121288169995
 22
-209.42096421459999
 32
0.0
 13
990.41121288169995
 23
-209.42096421459999
 33
0.0
  0
SOLID
  5
3E8
  8
┌▓È_1
 10
988.31249999999989
 20
-205.5625
 30
0.0
 11
989.76709918949985
 21
-211.60144236670001
 31
0.0
 12
990.41121288169995
 22
-209.42096421459999
 32
0.0
 13
990.41121288169995
 23
-209.42096421459999
 33
0.0
  0
LINE
  5
3E9
  8
┌▓È_1
 62
     5
 10
983.3237501663001
 20
-204.08325784600001
 30
0.0
 11
983.3237501663001
 21
-202.58325784600001
 31
0.0
  0
LINE
  5
3EA
  8
┌▓È_1
 62
     5
 10
983.3237501663001
 20
-202.58325784600001
 30
0.0
 11
961.8237501663001
 21
-202.58325784600001
 31
0.0
  0
INSERT
  5
3EC
  8
Éíû@É³
  2
BALLON4
 10
0.0
 20
0.0
 30
0.0
  0
INSERT
  5
3F6
  8
Éíû@É³
  2
BALLON5
 10
0.0
 20
0.0
 30
0.0
  0
INSERT
  5
400
  8
Éíû@É³
  2
BALLON6
 10
0.0
 20
0.0
 30
0.0
  0
LINE
  5
409
  8
┌▓È_1
  6
STITCH
 10
942.62375016630006
 20
-197.0832578459999
 30
0.0
 11
942.62375016630006
 21
-205.08325784600001
 31
0.0
  0
LINE
  5
40A
  8
┌▓È_1
 62
     5
 10
943.12375016630006
 20
-195.58325784600001
 30
0.0
 11
943.12375016630006
 21
-187.58325784600001
 31
0.0
  0
LINE
  5
40B
  8
┌▓È_1
 62
     5
 10
942.12375016630006
 20
-199.58325784600001
 30
0.0
 11
942.12375016630006
 21
-204.08325784600001
 31
0.0
  0
LINE
  5
40C
  8
┌▓È_1
 62
     5
 10
943.12375016630006
 20
-195.58325784600001
 30
0.0
 11
943.12375016630006
 21
-199.58325784600001
 31
0.0
  0
LINE
  5
40D
  8
┌▓È_1
 62
     5
 10
941.12375016630006
 20
-195.58325784600001
 30
0.0
 11
941.12375016630006
 21
-202.58325784600001
 31
0.0
  0
LINE
  5
40E
  8
┌▓È_1
  6
STITCH
 10
1028.6237501662999
 20
-197.0832578459999
 30
0.0
 11
1028.6237501662999
 21
-205.08325784600001
 31
0.0
  0
LINE
  5
40F
  8
┌▓È_1
  6
STITCH
 10
984.39974571799996
 20
-203.4236707371
 30
0.0
 11
988.64238640509996
 21
-199.18103005
 31
0.0
  0
LINE
  5
410
  8
┌▓È_1
  6
STITCH
 10
984.39974571799996
 20
-199.18103005
 30
0.0
 11
988.64238640509996
 21
-203.4236707371
 31
0.0
  0
LINE
  5
411
  8
┌▓È_1
  6
STITCH
 10
1020.6188360727
 20
-199.18103005
 30
0.0
 11
1024.8614767598001
 21
-203.4236707371
 31
0.0
  0
LINE
  5
412
  8
┌▓È_1
  6
STITCH
 10
947.50965638519995
 20
-199.18103005
 30
0.0
 11
951.75229707230005
 21
-203.4236707371
 31
0.0
  0
LINE
  5
413
  8
┌▓È_1
 62
     5
 10
940.12375016630006
 20
-33.583257846000002
 30
0.0
 11
940.12375016630006
 21
-195.38325784599999
 31
0.0
  0
INSERT
  5
414
  8
0
  6
CONTINUOUS
  2
*U110
 10
0.0
 20
0.0
 30
0.0
  0
LINE
  5
415
  8
┌▓È_1
 10
944.25
 20
-207.125
 30
0.0
 11
962.83127961690002
 21
-252.03378446310001
 31
0.0
  0
SOLID
  5
416
  8
┌▓È_1
 10
944.25
 20
-207.125
 30
0.0
 11
948.02949203289995
 21
-212.0545155627
 31
0.0
 12
945.929277103
 22
-211.18361679220001
 32
0.0
 13
945.929277103
 23
-211.18361679220001
 33
0.0
  0
SOLID
  5
417
  8
┌▓È_1
 10
944.25
 20
-207.125
 30
0.0
 11
945.05837833259989
 21
-213.28383172209999
 31
0.0
 12
945.929277103
 22
-211.18361679220001
 32
0.0
 13
945.929277103
 23
-211.18361679220001
 33
0.0
  0
INSERT
  5
418
  8
0
  6
CONTINUOUS
  2
*U111
 10
0.0
 20
0.0
 30
0.0
  0
LINE
  5
419
  8
┌▓È_1
 10
1003.6763258187
 20
-233.8087516137
 30
0.0
 11
1058.0922980409
 21
-233.8087516137
 31
0.0
  0
LINE
  5
41A
  8
┌▓È_1
 62
     5
 10
1006.9313424342
 20
-302.22780612269997
 30
0.0
 11
1006.9313424342
 21
-291.22780612269997
 31
0.0
  0
ARC
  5
41B
  8
┌▓È_1
 62
     5
 10
992.10095329130002
 20
-309.72780612270009
 30
0.0
 40
2.0
 50
180.0
 51
270.0
  0
ARC
  5
41C
  8
┌▓È_1
 62
     5
 10
1029.6009532912999
 20
-294.22780612269997
 30
0.0
 40
1.5
 50
360.0
 51
180.0
  0
LINE
  5
41D
  8
┌▓È_1
 62
     5
 10
1035.1009532912999
 20
-298.22780612269997
 30
0.0
 11
1035.1009532912999
 21
-302.22780612269997
 31
0.0
  0
LINE
  5
41E
  8
┌▓È_1
 62
     5
 10
1028.1009532912999
 20
-297.22780612270009
 30
0.0
 11
1028.1009532912999
 21
-294.22780612269997
 31
0.0
  0
LINE
  5
41F
  8
┌▓È_1
 62
     5
 10
1031.1009532912999
 20
-292.72780612269997
 30
0.0
 11
1031.1009532912999
 21
-294.22780612269997
 31
0.0
  0
LINE
  5
420
  8
┌▓È_1
 62
     5
 10
1028.1009532912999
 20
-292.72780612269997
 30
0.0
 11
1028.1009532912999
 21
-294.22780612269997
 31
0.0
  0
LINE
  5
421
  8
┌▓È_1
 62
     5
 10
992.10095329130002
 20
-311.72780612270009
 30
0.0
 11
1003.1009532913
 21
-311.72780612270009
 31
0.0
  0
ARC
  5
422
  8
┌▓È_1
 62
     5
 10
1003.1009532913
 20
-283.72780612269997
 30
0.0
 40
2.0
 50
0.0
 51
90.0
  0
LINE
  5
423
  8
┌▓È_1
 62
     5
 10
1003.1009532913
 20
-281.72780612269997
 30
0.0
 11
992.10095329130002
 21
-281.72780612269997
 31
0.0
  0
CIRCLE
  5
424
  8
┌▓È_1
 62
     5
 10
994.52386247469997
 20
-296.72780612269997
 30
0.0
 40
1.5
  0
LINE
  5
425
  8
┌▓È_1
 62
     5
 10
1005.1009532913
 20
-291.22780612269997
 30
0.0
 11
1005.1009532913
 21
-283.72780612269997
 31
0.0
  0
ARC
  5
426
  8
┌▓È_1
 62
     5
 10
1003.1009532913
 20
-309.72780612270009
 30
0.0
 40
2.0
 50
270.0
 51
0.0
  0
ARC
  5
427
  8
┌▓È_1
 62
     5
 10
992.10095329130002
 20
-283.72780612269997
 30
0.0
 40
2.0
 50
90.0
 51
180.0
  0
LINE
  5
428
  8
┌▓È_1
 62
     5
 10
990.10095329130013
 20
-283.72780612269997
 30
0.0
 11
990.10095329130013
 21
-309.72780612270009
 31
0.0
  0
LINE
  5
429
  8
┌▓È_1
 62
     5
 10
1005.1009532913
 20
-309.72780612270009
 30
0.0
 11
1005.1009532913
 21
-302.22780612269997
 31
0.0
  0
ARC
  5
42A
  8
┌▓È_1
 62
     5
 10
1014.2794180303
 20
-296.72780612269997
 30
0.0
 40
9.1784647389999972
 50
143.1853187495
 51
216.8146812505
  0
ARC
  5
42B
  8
┌▓È_1
 62
     5
 10
1029.6009532912999
 20
-292.72780612269997
 30
0.0
 40
1.5
 50
360.0
 51
180.0
  0
ARC
  5
42C
  8
┌▓È_1
 62
     5
 10
1032.1009532912999
 20
-294.22780612269997
 30
0.0
 40
1.0
 50
180.0
 51
270.0
  0
ARC
  5
42D
  8
┌▓È_1
 62
     5
 10
1029.1009532912999
 20
-297.22780612270009
 30
0.0
 40
1.0
 50
180.0
 51
270.0
  0
LINE
  5
42E
  8
┌▓È_1
 62
     5
 10
1035.1009532912999
 20
-298.22780612269997
 30
0.0
 11
1029.1009532912999
 21
-298.22780612269997
 31
0.0
  0
ENDSEC
  0
EOF
