  0
SECTION
  2
HEADER
  9
$ACADVER
  1
AC1009
  9
$INSBASE
 10
0.0
 20
0.0
 30
0.0
  9
$EXTMIN
 10
-666.946038262
 20
-790.62853650240004
 30
0.0
  9
$EXTMAX
 10
562.93396173799999
 20
74.7514634976
 30
0.0
  9
$LIMMIN
 10
0.0
 20
0.0
  9
$LIMMAX
 10
0.0
 20
0.0
  9
$ORTHOMODE
 70
     0
  9
$REGENMODE
 70
     1
  9
$FILLMODE
 70
     1
  9
$QTEXTMODE
 70
     0
  9
$MIRRTEXT
 70
     1
  9
$DRAGMODE
 70
     2
  9
$LTSCALE
 40
1.0
  9
$OSMODE
 70
    31
  9
$ATTMODE
 70
     1
  9
$TEXTSIZE
 40
0.0
  9
$TRACEWID
 40
0.05
  9
$TEXTSTYLE
  7
STANDARD
  9
$CLAYER
  8
0
  9
$CELTYPE
  6
CONTINUOUS
  9
$CECOLOR
 62
   256
  9
$DIMSCALE
 40
1.0
  9
$DIMASZ
 40
0.18
  9
$DIMEXO
 40
0.0625
  9
$DIMDLI
 40
0.38
  9
$DIMRND
 40
0.0
  9
$DIMDLE
 40
0.0
  9
$DIMEXE
 40
0.18
  9
$DIMTP
 40
0.0
  9
$DIMTM
 40
0.0
  9
$DIMTXT
 40
0.18
  9
$DIMCEN
 40
0.09
  9
$DIMTSZ
 40
0.0
  9
$DIMTOL
 70
     0
  9
$DIMLIM
 70
     0
  9
$DIMTIH
 70
     1
  9
$DIMTOH
 70
     1
  9
$DIMSE1
 70
     0
  9
$DIMSE2
 70
     0
  9
$DIMTAD
 70
     0
  9
$DIMZIN
 70
     0
  9
$DIMBLK
  1

  9
$DIMASO
 70
     1
  9
$DIMSHO
 70
     1
  9
$DIMPOST
  1

  9
$DIMAPOST
  1

  9
$DIMALT
 70
     0
  9
$DIMALTD
 70
     2
  9
$DIMALTF
 40
25.399999999999999
  9
$DIMLFAC
 40
1.0
  9
$DIMTOFL
 70
     0
  9
$DIMTVP
 40
0.0
  9
$DIMTIX
 70
     0
  9
$DIMSOXD
 70
     0
  9
$DIMSAH
 70
     0
  9
$DIMBLK1
  1

  9
$DIMBLK2
  1

  9
$DIMSTYLE
  2
STANDARD
  9
$DIMCLRD
 70
     0
  9
$DIMCLRE
 70
     0
  9
$DIMCLRT
 70
     0
  9
$DIMTFAC
 40
1.0
  9
$DIMGAP
 40
0.09
  9
$LUNITS
 70
     2
  9
$LUPREC
 70
     4
  9
$SKETCHINC
 40
0.1
  9
$FILLETRAD
 40
0.0
  9
$AUNITS
 70
     0
  9
$AUPREC
 70
     0
  9
$MENU
  1
acad
  9
$ELEVATION
 40
0.0
  9
$PELEVATION
 40
0.0
  9
$THICKNESS
 40
0.0
  9
$LIMCHECK
 70
     0
  9
$BLIPMODE
 70
     0
  9
$CHAMFERA
 40
0.0
  9
$CHAMFERB
 40
0.0
  9
$SKPOLY
 70
     0
  9
$TDCREATE
 40
2454859.8114901618
  9
$TDUPDATE
 40
2454859.8116576159
  9
$TDINDWG
 40
0.0001842824
  9
$TDUSRTIMER
 40
0.0001837384
  9
$USRTIMER
 70
     1
  9
$ANGBASE
 50
0.0
  9
$ANGDIR
 70
     0
  9
$PDMODE
 70
     3
  9
$PDSIZE
 40
-1.0
  9
$PLINEWID
 40
0.0
  9
$COORDS
 70
     2
  9
$SPLFRAME
 70
     0
  9
$SPLINETYPE
 70
     6
  9
$SPLINESEGS
 70
     8
  9
$ATTDIA
 70
     0
  9
$ATTREQ
 70
     1
  9
$HANDLING
 70
     1
  9
$HANDSEED
  5
A00
  9
$SURFTAB1
 70
     6
  9
$SURFTAB2
 70
     6
  9
$SURFTYPE
 70
     6
  9
$SURFU
 70
     6
  9
$SURFV
 70
     6
  9
$UCSNAME
  2

  9
$UCSORG
 10
0.0
 20
0.0
 30
0.0
  9
$UCSXDIR
 10
1.0
 20
0.0
 30
0.0
  9
$UCSYDIR
 10
0.0
 20
1.0
 30
0.0
  9
$PUCSNAME
  2

  9
$PUCSORG
 10
0.0
 20
0.0
 30
0.0
  9
$PUCSXDIR
 10
1.0
 20
0.0
 30
0.0
  9
$PUCSYDIR
 10
0.0
 20
1.0
 30
0.0
  9
$USERI1
 70
     0
  9
$USERI2
 70
     0
  9
$USERI3
 70
     0
  9
$USERI4
 70
     0
  9
$USERI5
 70
     0
  9
$USERR1
 40
0.0
  9
$USERR2
 40
0.0
  9
$USERR3
 40
0.0
  9
$USERR4
 40
0.0
  9
$USERR5
 40
0.0
  9
$WORLDVIEW
 70
     1
  9
$SHADEDGE
 70
     3
  9
$SHADEDIF
 70
    70
  9
$TILEMODE
 70
     1
  9
$MAXACTVP
 70
    16
  9
$PLIMCHECK
 70
     0
  9
$PEXTMIN
 10
1.0000000000000000E+020
 20
1.0000000000000000E+020
 30
1.0000000000000000E+020
  9
$PEXTMAX
 10
-1.0000000000000000E+020
 20
-1.0000000000000000E+020
 30
-1.0000000000000000E+020
  9
$PLIMMIN
 10
0.0
 20
0.0
  9
$PLIMMAX
 10
12.0
 20
9.0
  9
$UNITMODE
 70
     0
  9
$VISRETAIN
 70
     0
  9
$PLINEGEN
 70
     1
  9
$PSLTSCALE
 70
     0
  0
ENDSEC
  0
SECTION
  2
TABLES
  0
TABLE
  2
VPORT
 70
     2
  0
VPORT
  2
*ACTIVE
 70
     0
 10
0.0
 20
0.0
 11
1.0
 21
1.0
 12
-52.006038261999997
 22
-357.9385365024001
 13
0.0
 23
0.0
 14
1.0
 24
1.0
 15
0.0
 25
0.0
 16
0.0
 26
0.0
 36
1.0
 17
0.0
 27
0.0
 37
0.0
 40
872.56157676348539
 41
1.6343490304709141
 42
50.0
 43
0.0
 44
0.0
 50
0.0
 51
0.0
 71
     0
 72
   100
 73
     1
 74
     1
 75
     0
 76
     0
 77
     0
 78
     0
  0
ENDTAB
  0
TABLE
  2
LTYPE
 70
    11
  0
LTYPE
  2
CONTINUOUS
 70
     0
  3
Solid line
 72
    65
 73
     0
 40
0.0
  0
LTYPE
  2
DOT
 70
     0
  3
. . . . . . . . 
 72
    65
 73
     2
 40
1.0
 49
0.0
 49
-1.0
  0
LTYPE
  2
DASHED
 70
     0
  3
___  ___  ___  ___  
 72
    65
 73
     2
 40
4.0
 49
3.0
 49
-1.0
  0
LTYPE
  2
HIDDEN
 70
     0
  3
__ __ __ __ 
 72
    65
 73
     2
 40
3.0
 49
2.0
 49
-1.0
  0
LTYPE
  2
STITCH
 70
     0
  3
_ _ _ _ 
 72
    65
 73
     2
 40
2.0
 49
1.0
 49
-1.0
  0
LTYPE
  2
CENTER
 70
     0
  3
______  __  ______  __  
 72
    65
 73
     4
 40
43.0
 49
40.0
 49
-1.0
 49
1.0
 49
-1.0
  0
LTYPE
  2
DASHDOT
 70
     0
  3
____ . ____ . 
 72
    65
 73
     4
 40
32.0
 49
30.0
 49
-1.0
 49
0.0
 49
-1.0
  0
LTYPE
  2
BORDER
 70
     0
  3
__ . __ . 
 72
    65
 73
     4
 40
22.0
 49
20.0
 49
-1.0
 49
0.0
 49
-1.0
  0
LTYPE
  2
CUTTING
 70
     0
  3
________   ___   ___   
 72
    65
 73
     6
 40
45.0
 49
40.0
 49
-1.0
 49
1.0
 49
-1.0
 49
1.0
 49
-1.0
  0
LTYPE
  2
PHANTOM
 70
     0
  3
______  __  __  
 72
    65
 73
     6
 40
35.0
 49
30.0
 49
-1.0
 49
1.0
 49
-1.0
 49
1.0
 49
-1.0
  0
LTYPE
  2
DIVIDE
 70
     0
  3
____ . . ____ . . 
 72
    65
 73
     6
 40
23.0
 49
20.0
 49
-1.0
 49
0.0
 49
-1.0
 49
0.0
 49
-1.0
  0
ENDTAB
  0
TABLE
  2
LAYER
 70
     5
  0
LAYER
  2
0
 70
     0
 62
     7
  6
CONTINUOUS
  0
LAYER
  2
Éíû@É³
 70
     0
 62
     7
  6
CONTINUOUS
  0
LAYER
  2
┌▓È_1
 70
     0
 62
     7
  6
CONTINUOUS
  0
LAYER
  2
ë³Æ¨
 70
     0
 62
     7
  6
CONTINUOUS
  0
LAYER
  2
É}ÿg
 70
     0
 62
     7
  6
CONTINUOUS
  0
ENDTAB
  0
TABLE
  2
STYLE
 70
     1
  0
STYLE
  2
STANDARD
 70
     0
 40
0.0
 41
1.0
 50
0.0
 71
     0
 42
0.0
  3
txt
  4
extfont
  0
ENDTAB
  0
TABLE
  2
VIEW
 70
     0
  0
ENDTAB
  0
TABLE
  2
UCS
 70
     0
  0
ENDTAB
  0
TABLE
  2
APPID
 70
     2
  0
APPID
  2
ACAD
 70
     0
  0
APPID
  2
DCO15
 70
     0
  0
ENDTAB
  0
TABLE
  2
DIMSTYLE
 70
     3
  0
DIMSTYLE
  2
STANDARD
 70
     0
  3

  4

  5

  6

  7

 40
1.0
 41
0.18
 42
0.0625
 43
0.38
 44
0.18
 45
0.0
 46
0.0
 47
0.0
 48
0.0
140
0.18
141
0.09
142
0.0
143
25.399999999999999
144
1.0
145
0.0
146
1.0
147
0.09
 71
     0
 72
     0
 73
     1
 74
     1
 75
     0
 76
     0
 77
     0
 78
     0
170
     0
171
     2
172
     0
173
     0
174
     0
175
     0
176
     0
177
     0
178
     0
  0
DIMSTYLE
  2
VELDIM0
 70
     0
  3

  4

  5

  6

  7

 40
1.0
 41
9.0
 42
0.0625
 43
0.38
 44
1.0
 45
0.0
 46
5.0
 47
0.0
 48
0.0
140
9.8954164504999991
141
0.09
142
0.0
143
25.399999999999999
144
1.0
145
0.0
146
1.0
147
0.09
 71
     0
 72
     0
 73
     0
 74
     0
 75
     0
 76
     0
 77
     0
 78
     8
170
     0
171
     2
172
     0
173
     0
174
     0
175
     0
176
     0
177
     0
178
     0
  0
DIMSTYLE
  2
VELDIM1
 70
     0
  3

  4

  5

  6

  7

 40
1.0
 41
9.0
 42
0.0625
 43
0.38
 44
1.25
 45
0.0
 46
5.0
 47
0.0
 48
0.0
140
9.8954164504999991
141
0.09
142
0.0
143
25.399999999999999
144
1.0
145
0.0
146
1.0
147
0.09
 71
     0
 72
     0
 73
     0
 74
     0
 75
     0
 76
     0
 77
     0
 78
     8
170
     0
171
     2
172
     0
173
     0
174
     0
175
     0
176
     0
177
     0
178
     0
  0
ENDTAB
  0
ENDSEC
  0
SECTION
  2
BLOCKS
  0
BLOCK
  8
0
  2
$MODEL_SPACE
 70
     0
 10
0.0
 20
0.0
 30
0.0
  3
$MODEL_SPACE
  1

  0
ENDBLK
  5
E
  8
0
  0
BLOCK
 67
     1
  8
0
  2
$PAPER_SPACE
 70
     0
 10
0.0
 20
0.0
 30
0.0
  3
$PAPER_SPACE
  1

  0
ENDBLK
  5
10
 67
     1
  8
0
  0
BLOCK
  8
0
  2
*D0
 70
     1
 10
0.0
 20
0.0
 30
0.0
  3
*D0
  1

  0
TEXT
  5
31
  8
0
 62
     0
 10
320.01725545440001
 20
4.8235067796999997
 30
0.0
 40
9.8954164504999991
  1
30
  0
LINE
  5
32
  8
0
 62
     0
 10
340.83808866060002
 20
-56.343309740899997
 30
0.0
 11
340.83808866060002
 21
3.0772568178999999
 31
0.0
  0
LINE
  5
33
  8
0
 62
     0
 10
310.83808866060002
 20
-56.343309740899997
 30
0.0
 11
310.83808866060002
 21
3.0772568178999999
 31
0.0
  0
LINE
  5
34
  8
0
 62
     0
 10
340.83808866060002
 20
2.0772568178999991
 30
0.0
 11
337.47975507299998
 21
2.0772568178999991
 31
0.0
  0
LINE
  5
35
  8
0
 62
     0
 10
340.83808866060002
 20
2.0772568178999991
 30
0.0
 11
314.1964222483
 21
2.0772568178999991
 31
0.0
  0
LINE
  5
36
  8
0
 62
     0
 10
310.83808866060002
 20
2.0772568178999991
 30
0.0
 11
337.47975507299998
 21
2.0772568178999991
 31
0.0
  0
LINE
  5
37
  8
0
 62
     0
 10
310.83808866060002
 20
2.0772568178999991
 30
0.0
 11
314.1964222483
 21
2.0772568178999991
 31
0.0
  0
LINE
  5
38
  8
0
 62
     0
 10
310.83808866060002
 20
2.0772568178999991
 30
0.0
 11
305.83808866060002
 21
2.0772568178999991
 31
0.0
  0
SOLID
  5
39
  8
0
 62
     0
 10
310.83808866060002
 20
2.0772568178999991
 30
0.0
 11
301.83808866060002
 21
-0.1727431821
 31
0.0
 12
301.83808866060002
 22
4.3272568179000004
 32
0.0
 13
304.08808866060002
 23
2.0772568178999991
 33
0.0
  0
LINE
  5
3A
  8
0
 62
     0
 10
340.83808866060002
 20
2.0772568178999991
 30
0.0
 11
345.83808866060002
 21
2.0772568178999991
 31
0.0
  0
SOLID
  5
3B
  8
0
 62
     0
 10
340.83808866060002
 20
2.0772568178999991
 30
0.0
 11
349.83808866060002
 21
4.3272568179000004
 31
0.0
 12
349.83808866060002
 22
-0.1727431821
 32
0.0
 13
347.58808866060002
 23
2.0772568178999991
 33
0.0
  0
ENDBLK
  5
3C
  8
0
  0
BLOCK
  8
0
  2
*D1
 70
     1
 10
0.0
 20
0.0
 30
0.0
  3
*D1
  1

  0
TEXT
  5
41
  8
0
 62
     0
 10
408.84020976260001
 20
-16.626007085400001
 30
0.0
 40
9.8954164504999991
  1
25
  0
LINE
  5
42
  8
0
 62
     0
 10
427.16104296869997
 20
-64.543781095100002
 30
0.0
 11
427.16104296869997
 21
-18.3722570473
 31
0.0
  0
LINE
  5
43
  8
0
 62
     0
 10
402.16104296869997
 20
-55.543781095100002
 30
0.0
 11
402.16104296869997
 21
-18.3722570473
 31
0.0
  0
LINE
  5
44
  8
0
 62
     0
 10
427.16104296869997
 20
-19.3722570473
 30
0.0
 11
426.30270938109987
 21
-19.3722570473
 31
0.0
  0
LINE
  5
45
  8
0
 62
     0
 10
427.16104296869997
 20
-19.3722570473
 30
0.0
 11
403.0193765564
 21
-19.3722570473
 31
0.0
  0
LINE
  5
46
  8
0
 62
     0
 10
402.16104296869997
 20
-19.3722570473
 30
0.0
 11
426.30270938109987
 21
-19.3722570473
 31
0.0
  0
LINE
  5
47
  8
0
 62
     0
 10
402.16104296869997
 20
-19.3722570473
 30
0.0
 11
403.0193765564
 21
-19.3722570473
 31
0.0
  0
LINE
  5
48
  8
0
 62
     0
 10
402.16104296869997
 20
-19.3722570473
 30
0.0
 11
397.16104296869997
 21
-19.3722570473
 31
0.0
  0
SOLID
  5
49
  8
0
 62
     0
 10
402.16104296869997
 20
-19.3722570473
 30
0.0
 11
393.16104296869997
 21
-21.6222570473
 31
0.0
 12
393.16104296869997
 22
-17.1222570473
 32
0.0
 13
395.41104296869997
 23
-19.3722570473
 33
0.0
  0
LINE
  5
4A
  8
0
 62
     0
 10
427.16104296869997
 20
-19.3722570473
 30
0.0
 11
432.16104296869997
 21
-19.3722570473
 31
0.0
  0
SOLID
  5
4B
  8
0
 62
     0
 10
427.16104296869997
 20
-19.3722570473
 30
0.0
 11
436.16104296869997
 21
-17.1222570473
 31
0.0
 12
436.16104296869997
 22
-21.6222570473
 32
0.0
 13
433.91104296869997
 23
-19.3722570473
 33
0.0
  0
ENDBLK
  5
4C
  8
0
  0
BLOCK
  8
0
  2
CLUMP0
 70
     0
 10
0.0
 20
0.0
 30
0.0
  3
CLUMP0
  1

  0
LINE
  5
57
  8
┌▓È_1
 62
     5
 10
408.86104296869991
 20
-64.743781095100005
 30
0.0
 11
408.86104296869991
 21
-63.9437810951
 31
0.0
  0
LINE
  5
58
  8
┌▓È_1
 62
     5
 10
402.96104296869999
 20
-57.343781095099999
 30
0.0
 11
402.96104296869999
 21
-64.743781095100005
 31
0.0
  0
LINE
  5
59
  8
┌▓È_1
 62
     5
 10
408.16104296869997
 20
-57.343781095099999
 30
0.0
 11
402.96104296869999
 21
-57.343781095099999
 31
0.0
  0
LINE
  5
5A
  8
┌▓È_1
 62
     5
 10
408.16104296869997
 20
-57.343781095099999
 30
0.0
 11
408.16104296869997
 21
-56.543781095100002
 31
0.0
  0
LINE
  5
5B
  8
┌▓È_1
 62
     5
 10
408.16104296869997
 20
-56.543781095100002
 30
0.0
 11
402.96104296869999
 21
-56.543781095100002
 31
0.0
  0
ARC
  5
5C
  8
┌▓È_1
 62
     5
 10
402.96104296869999
 20
-57.343781095099999
 30
0.0
 40
0.8
 50
90.0
 51
180.0
  0
LINE
  5
5D
  8
┌▓È_1
 62
     5
 10
402.16104296869997
 20
-57.343781095099999
 30
0.0
 11
402.16104296869997
 21
-64.743781095100005
 31
0.0
  0
ARC
  5
5E
  8
┌▓È_1
 62
     5
 10
402.96104296869999
 20
-64.743781095100005
 30
0.0
 40
0.8
 50
180.0
 51
270.0
  0
LINE
  5
5F
  8
┌▓È_1
 62
     5
 10
451.16104296869997
 20
-56.543781095100002
 30
0.0
 11
451.16104296869997
 21
-57.343781095099999
 31
0.0
  0
LINE
  5
60
  8
┌▓È_1
 62
     5
 10
456.36104296870002
 20
-57.343781095099999
 30
0.0
 11
451.16104296869997
 21
-57.343781095099999
 31
0.0
  0
LINE
  5
61
  8
┌▓È_1
 62
     5
 10
456.36104296870002
 20
-69.743781095100005
 30
0.0
 11
456.36104296870002
 21
-57.343781095099999
 31
0.0
  0
LINE
  5
62
  8
┌▓È_1
 62
     5
 10
427.96104296879992
 20
-69.743781095100005
 30
0.0
 11
456.36104296870002
 21
-69.743781095100005
 31
0.0
  0
LINE
  5
63
  8
┌▓È_1
 62
     5
 10
402.96104296869999
 20
-65.543781095100002
 30
0.0
 11
427.16104296869997
 21
-65.543781095100002
 31
0.0
  0
LINE
  5
64
  8
┌▓È_1
 62
     5
 10
402.96104296869999
 20
-64.743781095100005
 30
0.0
 11
427.16104296869997
 21
-64.743781095100005
 31
0.0
  0
LINE
  5
65
  8
┌▓È_1
 62
     5
 10
427.96104296879992
 20
-65.543781095100002
 30
0.0
 11
427.96104296879992
 21
-69.743781095100005
 31
0.0
  0
ARC
  5
66
  8
┌▓È_1
 62
     5
 10
427.16104296869997
 20
-65.543781095100002
 30
0.0
 40
0.8
 50
0.0
 51
90.0
  0
LINE
  5
67
  8
┌▓È_1
 62
     5
 10
427.16104296869997
 20
-65.543781095100002
 30
0.0
 11
427.16104296869997
 21
-69.743781095100005
 31
0.0
  0
ARC
  5
68
  8
┌▓È_1
 62
     5
 10
427.96104296879992
 20
-69.743781095100005
 30
0.0
 40
0.8
 50
180.0
 51
270.0
  0
LINE
  5
69
  8
┌▓È_1
 62
     5
 10
427.96104296879992
 20
-70.543781095100002
 30
0.0
 11
456.36104296870002
 21
-70.543781095100002
 31
0.0
  0
ARC
  5
6A
  8
┌▓È_1
 62
     5
 10
456.36104296870002
 20
-69.743781095100005
 30
0.0
 40
0.8
 50
270.0
 51
0.0
  0
LINE
  5
6B
  8
┌▓È_1
 62
     5
 10
456.36104296870002
 20
-56.543781095100002
 30
0.0
 11
451.16104296869997
 21
-56.543781095100002
 31
0.0
  0
LINE
  5
6C
  8
┌▓È_1
 62
     5
 10
457.16104296869997
 20
-69.743781095100005
 30
0.0
 11
457.16104296869997
 21
-57.343781095099999
 31
0.0
  0
ARC
  5
6D
  8
┌▓È_1
 62
     5
 10
456.36104296870002
 20
-57.343781095099999
 30
0.0
 40
0.8
 50
0.0
 51
90.0
  0
LINE
  5
6E
  8
┌▓È_1
 62
     5
 10
408.86104296869991
 20
-63.9437810951
 30
0.0
 11
456.36104296870002
 21
-63.9437810951
 31
0.0
  0
LINE
  5
6F
  8
┌▓È_1
 62
     5
 10
427.16104296869997
 20
-64.743781095100005
 30
0.0
 11
456.36104296870002
 21
-64.743781095100005
 31
0.0
  0
ENDBLK
  5
70
  8
0
  0
BLOCK
  8
0
  2
CLUMP1
 70
     0
 10
0.0
 20
0.0
 30
0.0
  3
CLUMP1
  1

  0
LINE
  5
74
  8
┌▓È_1
 62
     5
 10
315.33808866060002
 20
-63.943309740899991
 30
0.0
 11
340.03808866060001
 21
-63.943309740899991
 31
0.0
  0
LINE
  5
75
  8
┌▓È_1
 62
     5
 10
315.33808866060002
 20
-63.943309740899991
 30
0.0
 11
315.33808866060002
 21
-64.743309740900003
 31
0.0
  0
LINE
  5
76
  8
┌▓È_1
 62
     5
 10
340.03808866060001
 20
-71.243309740900003
 30
0.0
 11
326.63808866059998
 21
-71.243309740900003
 31
0.0
  0
LINE
  5
77
  8
┌▓È_1
 62
     5
 10
340.03808866060001
 20
-57.343309740899997
 30
0.0
 11
340.03808866060001
 21
-71.243309740900003
 31
0.0
  0
ARC
  5
78
  8
┌▓È_1
 62
     5
 10
340.03808866060001
 20
-57.343309740899997
 30
0.0
 40
0.8
 50
0.0
 51
90.0
  0
LINE
  5
79
  8
┌▓È_1
 62
     5
 10
340.83808866060002
 20
-71.243309740900003
 30
0.0
 11
340.83808866060002
 21
-57.343309740899997
 31
0.0
  0
ARC
  5
7A
  8
┌▓È_1
 62
     5
 10
340.03808866060001
 20
-71.243309740900003
 30
0.0
 40
0.8
 50
270.0
 51
0.0
  0
LINE
  5
7B
  8
┌▓È_1
 62
     5
 10
326.63808866059998
 20
-72.0433097409
 30
0.0
 11
340.03808866060001
 21
-72.0433097409
 31
0.0
  0
LINE
  5
7C
  8
┌▓È_1
 62
     5
 10
325.83808866060002
 20
-65.543309740899986
 30
0.0
 11
325.83808866060002
 21
-71.243309740900003
 31
0.0
  0
ARC
  5
7D
  8
┌▓È_1
 62
     5
 10
326.63808866059998
 20
-71.243309740900003
 30
0.0
 40
0.8
 50
180.0
 51
270.0
  0
LINE
  5
7E
  8
┌▓È_1
 62
     5
 10
326.63808866059998
 20
-71.243309740900003
 30
0.0
 11
326.63808866059998
 21
-65.543309740899986
 31
0.0
  0
LINE
  5
7F
  8
┌▓È_1
 62
     5
 10
334.83808866060002
 20
-57.343309740899997
 30
0.0
 11
340.03808866060001
 21
-57.343309740899997
 31
0.0
  0
LINE
  5
80
  8
┌▓È_1
 62
     5
 10
334.83808866060002
 20
-56.5433097409
 30
0.0
 11
334.83808866060002
 21
-57.343309740899997
 31
0.0
  0
LINE
  5
81
  8
┌▓È_1
 62
     5
 10
316.83808866060002
 20
-57.343309740899997
 30
0.0
 11
316.83808866060002
 21
-63.943309740899991
 31
0.0
  0
LINE
  5
82
  8
┌▓È_1
 62
     5
 10
325.83808866060002
 20
-64.743309740900003
 30
0.0
 11
340.03808866060001
 21
-64.743309740900003
 31
0.0
  0
LINE
  5
83
  8
┌▓È_1
 62
     5
 10
316.83808866060002
 20
-57.343309740899997
 30
0.0
 11
316.83808866060002
 21
-56.5433097409
 31
0.0
  0
LINE
  5
84
  8
┌▓È_1
 62
     5
 10
340.03808866060001
 20
-56.5433097409
 30
0.0
 11
334.83808866060002
 21
-56.5433097409
 31
0.0
  0
ARC
  5
85
  8
┌▓È_1
 62
     5
 10
325.83808866060002
 20
-65.543309740899986
 30
0.0
 40
0.8
 50
0.0
 51
90.0
  0
ARC
  5
86
  8
┌▓È_1
 62
     5
 10
311.63808866059998
 20
-64.743309740900003
 30
0.0
 40
0.8
 50
180.0
 51
270.0
  0
LINE
  5
87
  8
┌▓È_1
 62
     5
 10
311.63808866059998
 20
-64.743309740900003
 30
0.0
 11
311.63808866059998
 21
-57.343309740899997
 31
0.0
  0
ARC
  5
88
  8
┌▓È_1
 62
     5
 10
311.63808866059998
 20
-57.343309740899997
 30
0.0
 40
0.8
 50
90.0
 51
180.0
  0
LINE
  5
89
  8
┌▓È_1
 62
     5
 10
310.83808866060002
 20
-57.343309740899997
 30
0.0
 11
310.83808866060002
 21
-64.743309740900003
 31
0.0
  0
LINE
  5
8A
  8
┌▓È_1
 62
     5
 10
311.63808866059998
 20
-57.343309740899997
 30
0.0
 11
316.83808866060002
 21
-57.343309740899997
 31
0.0
  0
LINE
  5
8B
  8
┌▓È_1
 62
     5
 10
316.83808866060002
 20
-56.5433097409
 30
0.0
 11
311.63808866059998
 21
-56.5433097409
 31
0.0
  0
LINE
  5
8C
  8
┌▓È_1
 62
     5
 10
325.83808866060002
 20
-64.743309740900003
 30
0.0
 11
311.63808866059998
 21
-64.743309740900003
 31
0.0
  0
LINE
  5
8D
  8
┌▓È_1
 62
     5
 10
311.63808866059998
 20
-65.543309740899986
 30
0.0
 11
325.83808866060002
 21
-65.543309740899986
 31
0.0
  0
ENDBLK
  5
8E
  8
0
  0
BLOCK
  8
0
  2
CLUMP2
 70
     0
 10
0.0
 20
0.0
 30
0.0
  3
CLUMP2
  1

  0
LINE
  5
9C
  8
┌▓È_1
 62
     5
 10
408.86104296869991
 20
-246.3428383868
 30
0.0
 11
408.86104296869991
 21
-247.14283838680001
 31
0.0
  0
LINE
  5
9D
  8
┌▓È_1
 62
     5
 10
402.96104296869999
 20
-253.7428383868
 30
0.0
 11
402.96104296869999
 21
-246.3428383868
 31
0.0
  0
LINE
  5
9E
  8
┌▓È_1
 62
     5
 10
408.16104296869997
 20
-253.7428383868
 30
0.0
 11
402.96104296869999
 21
-253.7428383868
 31
0.0
  0
LINE
  5
9F
  8
┌▓È_1
 62
     5
 10
408.16104296869997
 20
-253.7428383868
 30
0.0
 11
408.16104296869997
 21
-254.54283838680001
 31
0.0
  0
LINE
  5
A0
  8
┌▓È_1
 62
     5
 10
408.16104296869997
 20
-254.54283838680001
 30
0.0
 11
402.96104296869999
 21
-254.54283838680001
 31
0.0
  0
ARC
  5
A1
  8
┌▓È_1
 62
     5
 10
402.96104296869999
 20
-253.7428383868
 30
0.0
 40
0.8
 50
180.0
 51
270.0
  0
LINE
  5
A2
  8
┌▓È_1
 62
     5
 10
402.16104296869997
 20
-253.7428383868
 30
0.0
 11
402.16104296869997
 21
-246.3428383868
 31
0.0
  0
ARC
  5
A3
  8
┌▓È_1
 62
     5
 10
402.96104296869999
 20
-246.3428383868
 30
0.0
 40
0.8
 50
90.0
 51
180.0
  0
LINE
  5
A4
  8
┌▓È_1
 62
     5
 10
451.16104296869997
 20
-254.54283838680001
 30
0.0
 11
451.16104296869997
 21
-253.7428383868
 31
0.0
  0
LINE
  5
A5
  8
┌▓È_1
 62
     5
 10
456.36104296870002
 20
-253.7428383868
 30
0.0
 11
451.16104296869997
 21
-253.7428383868
 31
0.0
  0
LINE
  5
A6
  8
┌▓È_1
 62
     5
 10
456.36104296870002
 20
-241.3428383868
 30
0.0
 11
456.36104296870002
 21
-253.7428383868
 31
0.0
  0
LINE
  5
A7
  8
┌▓È_1
 62
     5
 10
427.96104296879992
 20
-241.3428383868
 30
0.0
 11
456.36104296870002
 21
-241.3428383868
 31
0.0
  0
LINE
  5
A8
  8
┌▓È_1
 62
     5
 10
402.96104296869999
 20
-245.54283838680001
 30
0.0
 11
427.16104296869997
 21
-245.54283838680001
 31
0.0
  0
LINE
  5
A9
  8
┌▓È_1
 62
     5
 10
402.96104296869999
 20
-246.3428383868
 30
0.0
 11
427.16104296869997
 21
-246.3428383868
 31
0.0
  0
LINE
  5
AA
  8
┌▓È_1
 62
     5
 10
427.96104296879992
 20
-245.54283838680001
 30
0.0
 11
427.96104296879992
 21
-241.3428383868
 31
0.0
  0
ARC
  5
AB
  8
┌▓È_1
 62
     5
 10
427.16104296869997
 20
-245.54283838680001
 30
0.0
 40
0.8
 50
270.0
 51
0.0
  0
LINE
  5
AC
  8
┌▓È_1
 62
     5
 10
427.16104296869997
 20
-245.54283838680001
 30
0.0
 11
427.16104296869997
 21
-241.3428383868
 31
0.0
  0
ARC
  5
AD
  8
┌▓È_1
 62
     5
 10
427.96104296879992
 20
-241.3428383868
 30
0.0
 40
0.8
 50
90.0
 51
180.0
  0
LINE
  5
AE
  8
┌▓È_1
 62
     5
 10
427.96104296879992
 20
-240.54283838680001
 30
0.0
 11
456.36104296870002
 21
-240.54283838680001
 31
0.0
  0
ARC
  5
AF
  8
┌▓È_1
 62
     5
 10
456.36104296870002
 20
-241.3428383868
 30
0.0
 40
0.8
 50
0.0
 51
90.0
  0
LINE
  5
B0
  8
┌▓È_1
 62
     5
 10
456.36104296870002
 20
-254.54283838680001
 30
0.0
 11
451.16104296869997
 21
-254.54283838680001
 31
0.0
  0
LINE
  5
B1
  8
┌▓È_1
 62
     5
 10
457.16104296869997
 20
-241.3428383868
 30
0.0
 11
457.16104296869997
 21
-253.7428383868
 31
0.0
  0
ARC
  5
B2
  8
┌▓È_1
 62
     5
 10
456.36104296870002
 20
-253.7428383868
 30
0.0
 40
0.8
 50
270.0
 51
0.0
  0
LINE
  5
B3
  8
┌▓È_1
 62
     5
 10
408.86104296869991
 20
-247.14283838680001
 30
0.0
 11
456.36104296870002
 21
-247.14283838680001
 31
0.0
  0
LINE
  5
B4
  8
┌▓È_1
 62
     5
 10
427.16104296869997
 20
-246.3428383868
 30
0.0
 11
456.36104296870002
 21
-246.3428383868
 31
0.0
  0
ENDBLK
  5
B5
  8
0
  0
BLOCK
  8
0
  2
CLUMP3
 70
     0
 10
0.0
 20
0.0
 30
0.0
  3
CLUMP3
  1

  0
LINE
  5
BE
  8
┌▓È_1
 62
     5
 10
315.33808866060002
 20
-247.14330974090001
 30
0.0
 11
340.03808866060001
 21
-247.14330974090001
 31
0.0
  0
LINE
  5
BF
  8
┌▓È_1
 62
     5
 10
315.33808866060002
 20
-247.14330974090001
 30
0.0
 11
315.33808866060002
 21
-246.3433097409
 31
0.0
  0
ARC
  5
C0
  8
┌▓È_1
 62
     5
 10
325.83808866060002
 20
-245.54330974090001
 30
0.0
 40
0.8
 50
270.0
 51
0.0
  0
LINE
  5
C1
  8
┌▓È_1
 62
     5
 10
334.83808866060002
 20
-253.7433097409
 30
0.0
 11
340.03808866060001
 21
-253.7433097409
 31
0.0
  0
LINE
  5
C2
  8
┌▓È_1
 62
     5
 10
334.83808866060002
 20
-254.54330974090001
 30
0.0
 11
334.83808866060002
 21
-253.7433097409
 31
0.0
  0
LINE
  5
C3
  8
┌▓È_1
 62
     5
 10
316.83808866060002
 20
-253.7433097409
 30
0.0
 11
316.83808866060002
 21
-254.54330974090001
 31
0.0
  0
LINE
  5
C4
  8
┌▓È_1
 62
     5
 10
326.63808866059998
 20
-239.04330974090001
 30
0.0
 11
340.03808866060001
 21
-239.04330974090001
 31
0.0
  0
LINE
  5
C5
  8
┌▓È_1
 62
     5
 10
325.83808866060002
 20
-245.54330974090001
 30
0.0
 11
325.83808866060002
 21
-239.8433097409
 31
0.0
  0
ARC
  5
C6
  8
┌▓È_1
 62
     5
 10
326.63808866059998
 20
-239.8433097409
 30
0.0
 40
0.8
 50
90.0
 51
180.0
  0
LINE
  5
C7
  8
┌▓È_1
 62
     5
 10
326.63808866059998
 20
-239.8433097409
 30
0.0
 11
326.63808866059998
 21
-245.54330974090001
 31
0.0
  0
LINE
  5
C8
  8
┌▓È_1
 62
     5
 10
340.03808866060001
 20
-253.7433097409
 30
0.0
 11
340.03808866060001
 21
-239.8433097409
 31
0.0
  0
LINE
  5
C9
  8
┌▓È_1
 62
     5
 10
340.03808866060001
 20
-254.54330974090001
 30
0.0
 11
334.83808866060002
 21
-254.54330974090001
 31
0.0
  0
ARC
  5
CA
  8
┌▓È_1
 62
     5
 10
340.03808866060001
 20
-253.7433097409
 30
0.0
 40
0.8
 50
270.0
 51
0.0
  0
LINE
  5
CB
  8
┌▓È_1
 62
     5
 10
340.83808866060002
 20
-239.8433097409
 30
0.0
 11
340.83808866060002
 21
-253.7433097409
 31
0.0
  0
ARC
  5
CC
  8
┌▓È_1
 62
     5
 10
340.03808866060001
 20
-239.8433097409
 30
0.0
 40
0.8
 50
0.0
 51
90.0
  0
LINE
  5
CD
  8
┌▓È_1
 62
     5
 10
316.83808866060002
 20
-253.7433097409
 30
0.0
 11
316.83808866060002
 21
-247.14330974090001
 31
0.0
  0
LINE
  5
CE
  8
┌▓È_1
 62
     5
 10
325.83808866060002
 20
-246.3433097409
 30
0.0
 11
340.03808866060001
 21
-246.3433097409
 31
0.0
  0
LINE
  5
CF
  8
┌▓È_1
 62
     5
 10
340.03808866060001
 20
-239.8433097409
 30
0.0
 11
326.63808866059998
 21
-239.8433097409
 31
0.0
  0
LINE
  5
D0
  8
┌▓È_1
 62
     5
 10
311.63808866059998
 20
-246.3433097409
 30
0.0
 11
311.63808866059998
 21
-253.7433097409
 31
0.0
  0
ARC
  5
D1
  8
┌▓È_1
 62
     5
 10
311.63808866059998
 20
-253.7433097409
 30
0.0
 40
0.8
 50
180.0
 51
270.0
  0
LINE
  5
D2
  8
┌▓È_1
 62
     5
 10
310.83808866060002
 20
-253.7433097409
 30
0.0
 11
310.83808866060002
 21
-246.3433097409
 31
0.0
  0
ARC
  5
D3
  8
┌▓È_1
 62
     5
 10
311.63808866059998
 20
-246.3433097409
 30
0.0
 40
0.8
 50
90.0
 51
180.0
  0
LINE
  5
D4
  8
┌▓È_1
 62
     5
 10
311.63808866059998
 20
-245.54330974090001
 30
0.0
 11
325.83808866060002
 21
-245.54330974090001
 31
0.0
  0
LINE
  5
D5
  8
┌▓È_1
 62
     5
 10
311.63808866059998
 20
-253.7433097409
 30
0.0
 11
316.83808866060002
 21
-253.7433097409
 31
0.0
  0
LINE
  5
D6
  8
┌▓È_1
 62
     5
 10
316.83808866060002
 20
-254.54330974090001
 30
0.0
 11
311.63808866059998
 21
-254.54330974090001
 31
0.0
  0
LINE
  5
D7
  8
┌▓È_1
 62
     5
 10
325.83808866060002
 20
-246.3433097409
 30
0.0
 11
311.63808866059998
 21
-246.3433097409
 31
0.0
  0
ENDBLK
  5
D8
  8
0
  0
BLOCK
  8
0
  2
*D6
 70
     1
 10
0.0
 20
0.0
 30
0.0
  3
*D6
  1

  0
TEXT
  5
E2
  8
0
 62
     0
 10
327.44925922070001
 20
-16.796656184100001
 30
0.0
 40
9.8954164504999991
  1
15
  0
LINE
  5
E3
  8
0
 62
     0
 10
340.83808866060002
 20
-56.343309740899997
 30
0.0
 11
340.83808866060002
 21
-18.542906146
 31
0.0
  0
LINE
  5
E4
  8
0
 62
     0
 10
325.83808866060002
 20
-64.5433097409
 30
0.0
 11
325.83808866060002
 21
-18.542906146
 31
0.0
  0
LINE
  5
E5
  8
0
 62
     0
 10
340.83808866060002
 20
-19.542906146
 30
0.0
 11
340.83808866060002
 21
-19.542906146
 31
0.0
  0
LINE
  5
E6
  8
0
 62
     0
 10
340.83808866060002
 20
-19.542906146
 30
0.0
 11
325.83808866060002
 21
-19.542906146
 31
0.0
  0
LINE
  5
E7
  8
0
 62
     0
 10
325.83808866060002
 20
-19.542906146
 30
0.0
 11
340.83808866060002
 21
-19.542906146
 31
0.0
  0
LINE
  5
E8
  8
0
 62
     0
 10
325.83808866060002
 20
-19.542906146
 30
0.0
 11
325.83808866060002
 21
-19.542906146
 31
0.0
  0
LINE
  5
E9
  8
0
 62
     0
 10
325.83808866060002
 20
-19.542906146
 30
0.0
 11
320.83808866060002
 21
-19.542906146
 31
0.0
  0
SOLID
  5
EA
  8
0
 62
     0
 10
325.83808866060002
 20
-19.542906146
 30
0.0
 11
316.83808866060002
 21
-21.792906146
 31
0.0
 12
316.83808866060002
 22
-17.292906146
 32
0.0
 13
319.08808866060002
 23
-19.542906146
 33
0.0
  0
LINE
  5
EB
  8
0
 62
     0
 10
340.83808866060002
 20
-19.542906146
 30
0.0
 11
345.83808866060002
 21
-19.542906146
 31
0.0
  0
SOLID
  5
EC
  8
0
 62
     0
 10
340.83808866060002
 20
-19.542906146
 30
0.0
 11
349.83808866060002
 21
-17.292906146
 31
0.0
 12
349.83808866060002
 22
-21.792906146
 32
0.0
 13
347.58808866060002
 23
-19.542906146
 33
0.0
  0
ENDBLK
  5
ED
  8
0
  0
BLOCK
  8
0
  2
*D7
 70
     1
 10
0.0
 20
0.0
 30
0.0
  3
*D7
  1

  0
TEXT
  5
F1
  8
0
 62
     0
 10
361.07728105109999
 20
-48.779784175499998
 30
0.0
 40
9.8954164504999991
  1
15.5
 50
90.0
  0
LINE
  5
F2
  8
0
 62
     0
 10
341.03808866060001
 20
-72.0433097409
 30
0.0
 11
364.82353101289999
 21
-72.0433097409
 31
0.0
  0
LINE
  5
F3
  8
0
 62
     0
 10
341.03808866060001
 20
-56.5433097409
 30
0.0
 11
364.82353101289999
 21
-56.5433097409
 31
0.0
  0
LINE
  5
F4
  8
0
 62
     0
 10
363.82353101289999
 20
-72.0433097409
 30
0.0
 11
363.82353101289999
 21
-23.071104181500001
 31
0.0
  0
LINE
  5
F5
  8
0
 62
     0
 10
363.82353101289999
 20
-72.0433097409
 30
0.0
 11
363.82353101289999
 21
-54.600617381699998
 31
0.0
  0
LINE
  5
F6
  8
0
 62
     0
 10
363.82353101289999
 20
-56.5433097409
 30
0.0
 11
363.82353101289999
 21
-23.071104181500001
 31
0.0
  0
LINE
  5
F7
  8
0
 62
     0
 10
363.82353101289999
 20
-56.5433097409
 30
0.0
 11
363.82353101289999
 21
-54.600617381699998
 31
0.0
  0
LINE
  5
F8
  8
0
 62
     0
 10
363.82353101289999
 20
-56.5433097409
 30
0.0
 11
363.82353101289999
 21
-51.5433097409
 31
0.0
  0
SOLID
  5
F9
  8
0
 62
     0
 10
363.82353101289999
 20
-56.5433097409
 30
0.0
 11
361.57353101289999
 21
-47.5433097409
 31
0.0
 12
366.07353101289999
 22
-47.5433097409
 32
0.0
 13
363.82353101289999
 23
-49.7933097409
 33
0.0
  0
LINE
  5
FA
  8
0
 62
     0
 10
363.82353101289999
 20
-72.0433097409
 30
0.0
 11
363.82353101289999
 21
-77.0433097409
 31
0.0
  0
SOLID
  5
FB
  8
0
 62
     0
 10
363.82353101289999
 20
-72.0433097409
 30
0.0
 11
366.07353101289999
 21
-81.0433097409
 31
0.0
 12
361.57353101289999
 22
-81.0433097409
 32
0.0
 13
363.82353101289999
 23
-78.7933097409
 33
0.0
  0
ENDBLK
  5
FC
  8
0
  0
BLOCK
  8
0
  2
*D8
 70
     1
 10
0.0
 20
0.0
 30
0.0
  3
*D8
  1

  0
TEXT
  5
100
  8
0
 62
     0
 10
423.84020976260001
 20
4.0521995491
 30
0.0
 40
9.8954164504999991
  1
55
  0
LINE
  5
101
  8
0
 62
     0
 10
457.16104296869997
 20
-56.343781095099999
 30
0.0
 11
457.16104296869997
 21
2.3059495872999989
 31
0.0
  0
LINE
  5
102
  8
0
 62
     0
 10
402.16104296869997
 20
-56.343781095099999
 30
0.0
 11
402.16104296869997
 21
2.3059495872999989
 31
0.0
  0
LINE
  5
103
  8
0
 62
     0
 10
457.16104296869997
 20
1.3059495872999991
 30
0.0
 11
441.30270938109999
 21
1.3059495872999991
 31
0.0
  0
LINE
  5
104
  8
0
 62
     0
 10
457.16104296869997
 20
1.3059495872999991
 30
0.0
 11
418.01937655639989
 21
1.3059495872999991
 31
0.0
  0
LINE
  5
105
  8
0
 62
     0
 10
402.16104296869997
 20
1.3059495872999991
 30
0.0
 11
441.30270938109999
 21
1.3059495872999991
 31
0.0
  0
LINE
  5
106
  8
0
 62
     0
 10
402.16104296869997
 20
1.3059495872999991
 30
0.0
 11
418.01937655639989
 21
1.3059495872999991
 31
0.0
  0
LINE
  5
107
  8
0
 62
     0
 10
402.16104296869997
 20
1.3059495872999991
 30
0.0
 11
407.16104296869997
 21
1.3059495872999991
 31
0.0
  0
SOLID
  5
108
  8
0
 62
     0
 10
402.16104296869997
 20
1.3059495872999991
 30
0.0
 11
411.16104296869997
 21
3.5559495873000002
 31
0.0
 12
411.16104296869997
 22
-0.9440504127
 32
0.0
 13
408.91104296869997
 23
1.3059495872999991
 33
0.0
  0
LINE
  5
109
  8
0
 62
     0
 10
457.16104296869997
 20
1.3059495872999991
 30
0.0
 11
452.16104296869997
 21
1.3059495872999991
 31
0.0
  0
SOLID
  5
10A
  8
0
 62
     0
 10
457.16104296869997
 20
1.3059495872999991
 30
0.0
 11
448.16104296869997
 21
-0.9440504127
 31
0.0
 12
448.16104296869997
 22
3.5559495873000002
 32
0.0
 13
450.41104296869997
 23
1.3059495872999991
 33
0.0
  0
ENDBLK
  5
10B
  8
0
  0
BLOCK
  8
0
  2
*D9
 70
     1
 10
0.0
 20
0.0
 30
0.0
  3
*D9
  1

  0
TEXT
  5
10F
  8
0
 62
     0
 10
436.34020976260001
 20
-16.626007085400001
 30
0.0
 40
9.8954164504999991
  1
30
  0
LINE
  5
110
  8
0
 62
     0
 10
457.16104296869997
 20
-55.543781095100002
 30
0.0
 11
457.16104296869997
 21
-18.3722570473
 31
0.0
  0
LINE
  5
111
  8
0
 62
     0
 10
427.16104296869997
 20
-64.543781095100002
 30
0.0
 11
427.16104296869997
 21
-18.3722570473
 31
0.0
  0
LINE
  5
112
  8
0
 62
     0
 10
457.16104296869997
 20
-19.3722570473
 30
0.0
 11
453.80270938109999
 21
-19.3722570473
 31
0.0
  0
LINE
  5
113
  8
0
 62
     0
 10
457.16104296869997
 20
-19.3722570473
 30
0.0
 11
430.51937655639989
 21
-19.3722570473
 31
0.0
  0
LINE
  5
114
  8
0
 62
     0
 10
427.16104296869997
 20
-19.3722570473
 30
0.0
 11
453.80270938109999
 21
-19.3722570473
 31
0.0
  0
LINE
  5
115
  8
0
 62
     0
 10
427.16104296869997
 20
-19.3722570473
 30
0.0
 11
430.51937655639989
 21
-19.3722570473
 31
0.0
  0
LINE
  5
116
  8
0
 62
     0
 10
427.16104296869997
 20
-19.3722570473
 30
0.0
 11
422.16104296869997
 21
-19.3722570473
 31
0.0
  0
SOLID
  5
117
  8
0
 62
     0
 10
427.16104296869997
 20
-19.3722570473
 30
0.0
 11
418.16104296869997
 21
-21.6222570473
 31
0.0
 12
418.16104296869997
 22
-17.1222570473
 32
0.0
 13
420.41104296869997
 23
-19.3722570473
 33
0.0
  0
LINE
  5
118
  8
0
 62
     0
 10
457.16104296869997
 20
-19.3722570473
 30
0.0
 11
462.16104296869997
 21
-19.3722570473
 31
0.0
  0
SOLID
  5
119
  8
0
 62
     0
 10
457.16104296869997
 20
-19.3722570473
 30
0.0
 11
466.16104296869997
 21
-17.1222570473
 31
0.0
 12
466.16104296869997
 22
-21.6222570473
 32
0.0
 13
463.91104296869997
 23
-19.3722570473
 33
0.0
  0
ENDBLK
  5
11A
  8
0
  0
BLOCK
  8
0
  2
*D10
 70
     1
 10
0.0
 20
0.0
 30
0.0
  3
*D10
  1

  0
TEXT
  5
11E
  8
0
 62
     0
 10
475.82970427699991
 20
-69.364614301299994
 30
0.0
 40
9.8954164504999991
  1
14
 50
90.0
  0
LINE
  5
11F
  8
0
 62
     0
 10
458.16104296869997
 20
-70.543781095100002
 30
0.0
 11
479.5759542388999
 21
-70.543781095100002
 31
0.0
  0
LINE
  5
120
  8
0
 62
     0
 10
458.16104296869997
 20
-56.543781095100002
 30
0.0
 11
479.5759542388999
 21
-56.543781095100002
 31
0.0
  0
LINE
  5
121
  8
0
 62
     0
 10
478.57595423890001
 20
-70.543781095100002
 30
0.0
 11
478.57595423890001
 21
-70.543781095100002
 31
0.0
  0
LINE
  5
122
  8
0
 62
     0
 10
478.57595423890001
 20
-70.543781095100002
 30
0.0
 11
478.57595423890001
 21
-56.543781095100002
 31
0.0
  0
LINE
  5
123
  8
0
 62
     0
 10
478.57595423890001
 20
-56.543781095100002
 30
0.0
 11
478.57595423890001
 21
-70.543781095100002
 31
0.0
  0
LINE
  5
124
  8
0
 62
     0
 10
478.57595423890001
 20
-56.543781095100002
 30
0.0
 11
478.57595423890001
 21
-56.543781095100002
 31
0.0
  0
LINE
  5
125
  8
0
 62
     0
 10
478.57595423890001
 20
-56.543781095100002
 30
0.0
 11
478.57595423890001
 21
-51.543781095100002
 31
0.0
  0
SOLID
  5
126
  8
0
 62
     0
 10
478.57595423890001
 20
-56.543781095100002
 30
0.0
 11
476.32595423890001
 21
-47.543781095100002
 31
0.0
 12
480.8259542388999
 22
-47.543781095100002
 32
0.0
 13
478.57595423890001
 23
-49.793781095100002
 33
0.0
  0
LINE
  5
127
  8
0
 62
     0
 10
478.57595423890001
 20
-70.543781095100002
 30
0.0
 11
478.57595423890001
 21
-75.543781095100002
 31
0.0
  0
SOLID
  5
128
  8
0
 62
     0
 10
478.57595423890001
 20
-70.543781095100002
 30
0.0
 11
480.8259542388999
 21
-79.543781095100002
 31
0.0
 12
476.32595423890001
 22
-79.543781095100002
 32
0.0
 13
478.57595423890001
 23
-77.293781095100002
 33
0.0
  0
ENDBLK
  5
129
  8
0
  0
BLOCK
  8
0
  2
*D11
 70
     1
 10
0.0
 20
0.0
 30
0.0
  3
*D11
  1

  0
TEXT
  5
12D
  8
0
 62
     0
 10
312.27677887599998
 20
-16.796656184100001
 30
0.0
 40
9.8954164504999991
  1
15
  0
LINE
  5
12E
  8
0
 62
     0
 10
325.83808866060002
 20
-64.5433097409
 30
0.0
 11
325.83808866060002
 21
-18.542906146
 31
0.0
  0
LINE
  5
12F
  8
0
 62
     0
 10
310.83808866060002
 20
-56.343309740899997
 30
0.0
 11
310.83808866060002
 21
-18.542906146
 31
0.0
  0
LINE
  5
130
  8
0
 62
     0
 10
325.83808866060002
 20
-19.542906146
 30
0.0
 11
325.83808866060002
 21
-19.542906146
 31
0.0
  0
LINE
  5
131
  8
0
 62
     0
 10
325.83808866060002
 20
-19.542906146
 30
0.0
 11
310.83808866060002
 21
-19.542906146
 31
0.0
  0
LINE
  5
132
  8
0
 62
     0
 10
310.83808866060002
 20
-19.542906146
 30
0.0
 11
325.83808866060002
 21
-19.542906146
 31
0.0
  0
LINE
  5
133
  8
0
 62
     0
 10
310.83808866060002
 20
-19.542906146
 30
0.0
 11
310.83808866060002
 21
-19.542906146
 31
0.0
  0
LINE
  5
134
  8
0
 62
     0
 10
310.83808866060002
 20
-19.542906146
 30
0.0
 11
305.83808866060002
 21
-19.542906146
 31
0.0
  0
SOLID
  5
135
  8
0
 62
     0
 10
310.83808866060002
 20
-19.542906146
 30
0.0
 11
301.83808866060002
 21
-21.792906146
 31
0.0
 12
301.83808866060002
 22
-17.292906146
 32
0.0
 13
304.08808866060002
 23
-19.542906146
 33
0.0
  0
LINE
  5
136
  8
0
 62
     0
 10
325.83808866060002
 20
-19.542906146
 30
0.0
 11
330.83808866060002
 21
-19.542906146
 31
0.0
  0
SOLID
  5
137
  8
0
 62
     0
 10
325.83808866060002
 20
-19.542906146
 30
0.0
 11
334.83808866060002
 21
-17.292906146
 31
0.0
 12
334.83808866060002
 22
-21.792906146
 32
0.0
 13
332.58808866060002
 23
-19.542906146
 33
0.0
  0
ENDBLK
  5
138
  8
0
  0
BLOCK
  8
0
  2
*D12
 70
     1
 10
0.0
 20
0.0
 30
0.0
  3
*D12
  1

  0
TEXT
  5
153
  8
0
 62
     0
 10
475.82970427699991
 20
-253.36367159299999
 30
0.0
 40
9.8954164504999991
  1
14
 50
90.0
  0
LINE
  5
154
  8
0
 62
     0
 10
458.16104296869997
 20
-254.54283838680001
 30
0.0
 11
479.5759542388999
 21
-254.54283838680001
 31
0.0
  0
LINE
  5
155
  8
0
 62
     0
 10
458.16104296869997
 20
-240.54283838680001
 30
0.0
 11
479.5759542388999
 21
-240.54283838680001
 31
0.0
  0
LINE
  5
156
  8
0
 62
     0
 10
478.57595423890001
 20
-254.54283838680001
 30
0.0
 11
478.57595423890001
 21
-254.54283838680001
 31
0.0
  0
LINE
  5
157
  8
0
 62
     0
 10
478.57595423890001
 20
-254.54283838680001
 30
0.0
 11
478.57595423890001
 21
-240.54283838680001
 31
0.0
  0
LINE
  5
158
  8
0
 62
     0
 10
478.57595423890001
 20
-240.54283838680001
 30
0.0
 11
478.57595423890001
 21
-254.54283838680001
 31
0.0
  0
LINE
  5
159
  8
0
 62
     0
 10
478.57595423890001
 20
-240.54283838680001
 30
0.0
 11
478.57595423890001
 21
-240.54283838680001
 31
0.0
  0
LINE
  5
15A
  8
0
 62
     0
 10
478.57595423890001
 20
-240.54283838680001
 30
0.0
 11
478.57595423890001
 21
-235.54283838680001
 31
0.0
  0
SOLID
  5
15B
  8
0
 62
     0
 10
478.57595423890001
 20
-240.54283838680001
 30
0.0
 11
476.32595423890001
 21
-231.54283838680001
 31
0.0
 12
480.8259542388999
 22
-231.54283838680001
 32
0.0
 13
478.57595423890001
 23
-233.79283838680001
 33
0.0
  0
LINE
  5
15C
  8
0
 62
     0
 10
478.57595423890001
 20
-254.54283838680001
 30
0.0
 11
478.57595423890001
 21
-259.54283838679999
 31
0.0
  0
SOLID
  5
15D
  8
0
 62
     0
 10
478.57595423890001
 20
-254.54283838680001
 30
0.0
 11
480.8259542388999
 21
-263.54283838679999
 31
0.0
 12
476.32595423890001
 22
-263.54283838679999
 32
0.0
 13
478.57595423890001
 23
-261.29283838679999
 33
0.0
  0
ENDBLK
  5
15E
  8
0
  0
BLOCK
  8
0
  2
*D13
 70
     1
 10
0.0
 20
0.0
 30
0.0
  3
*D13
  1

  0
TEXT
  5
162
  8
0
 62
     0
 10
361.07728105109999
 20
-282.4782228199
 30
0.0
 40
9.8954164504999991
  1
15.5
 50
90.0
  0
LINE
  5
163
  8
0
 62
     0
 10
341.03808866060001
 20
-254.54330974090001
 30
0.0
 11
364.82353101289999
 21
-254.54330974090001
 31
0.0
  0
LINE
  5
164
  8
0
 62
     0
 10
341.03808866060001
 20
-239.04330974090001
 30
0.0
 11
364.82353101289999
 21
-239.04330974090001
 31
0.0
  0
LINE
  5
165
  8
0
 62
     0
 10
363.82353101289999
 20
-254.54330974090001
 30
0.0
 11
363.82353101289999
 21
-256.76954282589998
 31
0.0
  0
LINE
  5
166
  8
0
 62
     0
 10
363.82353101289999
 20
-254.54330974090001
 30
0.0
 11
363.82353101289999
 21
-288.2990560261
 31
0.0
  0
LINE
  5
167
  8
0
 62
     0
 10
363.82353101289999
 20
-239.04330974090001
 30
0.0
 11
363.82353101289999
 21
-256.76954282589998
 31
0.0
  0
LINE
  5
168
  8
0
 62
     0
 10
363.82353101289999
 20
-239.04330974090001
 30
0.0
 11
363.82353101289999
 21
-288.2990560261
 31
0.0
  0
LINE
  5
169
  8
0
 62
     0
 10
363.82353101289999
 20
-239.04330974090001
 30
0.0
 11
363.82353101289999
 21
-234.04330974090001
 31
0.0
  0
SOLID
  5
16A
  8
0
 62
     0
 10
363.82353101289999
 20
-239.04330974090001
 30
0.0
 11
361.57353101289999
 21
-230.04330974090001
 31
0.0
 12
366.07353101289999
 22
-230.04330974090001
 32
0.0
 13
363.82353101289999
 23
-232.29330974090001
 33
0.0
  0
LINE
  5
16B
  8
0
 62
     0
 10
363.82353101289999
 20
-254.54330974090001
 30
0.0
 11
363.82353101289999
 21
-259.54330974089999
 31
0.0
  0
SOLID
  5
16C
  8
0
 62
     0
 10
363.82353101289999
 20
-254.54330974090001
 30
0.0
 11
366.07353101289999
 21
-263.54330974089999
 31
0.0
 12
361.57353101289999
 22
-263.54330974089999
 32
0.0
 13
363.82353101289999
 23
-261.29330974089999
 33
0.0
  0
ENDBLK
  5
16D
  8
0
  0
BLOCK
  8
0
  2
*D14
 70
     1
 10
0.0
 20
0.0
 30
0.0
  3
*D14
  1

  0
TEXT
  5
175
  8
0
 62
     0
 10
234.32072326779999
 20
-63.953726344000003
 30
0.0
 40
9.8954164504999991
  1
9
 50
90.0
  0
LINE
  5
176
  8
0
 62
     0
 10
195.49460079310001
 20
-65.543309740899986
 30
0.0
 11
238.06697322959999
 21
-65.543309740899986
 31
0.0
  0
LINE
  5
177
  8
0
 62
     0
 10
204.49460079310001
 20
-56.5433097409
 30
0.0
 11
238.06697322959999
 21
-56.5433097409
 31
0.0
  0
LINE
  5
178
  8
0
 62
     0
 10
237.06697322959999
 20
-65.543309740899986
 30
0.0
 11
237.06697322959999
 21
-65.543309740899986
 31
0.0
  0
LINE
  5
179
  8
0
 62
     0
 10
237.06697322959999
 20
-65.543309740899986
 30
0.0
 11
237.06697322959999
 21
-56.5433097409
 31
0.0
  0
LINE
  5
17A
  8
0
 62
     0
 10
237.06697322959999
 20
-56.5433097409
 30
0.0
 11
237.06697322959999
 21
-65.543309740899986
 31
0.0
  0
LINE
  5
17B
  8
0
 62
     0
 10
237.06697322959999
 20
-56.5433097409
 30
0.0
 11
237.06697322959999
 21
-56.5433097409
 31
0.0
  0
LINE
  5
17C
  8
0
 62
     0
 10
237.06697322959999
 20
-56.5433097409
 30
0.0
 11
237.06697322959999
 21
-51.5433097409
 31
0.0
  0
SOLID
  5
17D
  8
0
 62
     0
 10
237.06697322959999
 20
-56.5433097409
 30
0.0
 11
234.81697322959999
 21
-47.5433097409
 31
0.0
 12
239.31697322959999
 22
-47.5433097409
 32
0.0
 13
237.06697322959999
 23
-49.7933097409
 33
0.0
  0
LINE
  5
17E
  8
0
 62
     0
 10
237.06697322959999
 20
-65.543309740899986
 30
0.0
 11
237.06697322959999
 21
-70.543309740899986
 31
0.0
  0
SOLID
  5
17F
  8
0
 62
     0
 10
237.06697322959999
 20
-65.543309740899986
 30
0.0
 11
239.31697322959999
 21
-74.5433097409
 31
0.0
 12
234.81697322959999
 22
-74.5433097409
 32
0.0
 13
237.06697322959999
 23
-72.2933097409
 33
0.0
  0
ENDBLK
  5
180
  8
0
  0
BLOCK
  8
0
  2
*D15
 70
     1
 10
0.0
 20
0.0
 30
0.0
  3
*D15
  1

  0
TEXT
  5
184
  8
0
 62
     0
 10
196.00663240790001
 20
-21.3515756177
 30
0.0
 40
9.8954164504999991
  1
9
  0
LINE
  5
185
  8
0
 62
     0
 10
203.49460079310001
 20
-55.543309740899993
 30
0.0
 11
203.49460079310001
 21
-23.097825579599998
 31
0.0
  0
LINE
  5
186
  8
0
 62
     0
 10
194.49460079310001
 20
-64.5433097409
 30
0.0
 11
194.49460079310001
 21
-23.097825579599998
 31
0.0
  0
LINE
  5
187
  8
0
 62
     0
 10
203.49460079310001
 20
-24.097825579599998
 30
0.0
 11
203.49460079310001
 21
-24.097825579599998
 31
0.0
  0
LINE
  5
188
  8
0
 62
     0
 10
203.49460079310001
 20
-24.097825579599998
 30
0.0
 11
194.49460079310001
 21
-24.097825579599998
 31
0.0
  0
LINE
  5
189
  8
0
 62
     0
 10
194.49460079310001
 20
-24.097825579599998
 30
0.0
 11
203.49460079310001
 21
-24.097825579599998
 31
0.0
  0
LINE
  5
18A
  8
0
 62
     0
 10
194.49460079310001
 20
-24.097825579599998
 30
0.0
 11
194.49460079310001
 21
-24.097825579599998
 31
0.0
  0
LINE
  5
18B
  8
0
 62
     0
 10
194.49460079310001
 20
-24.097825579599998
 30
0.0
 11
189.49460079310001
 21
-24.097825579599998
 31
0.0
  0
SOLID
  5
18C
  8
0
 62
     0
 10
194.49460079310001
 20
-24.097825579599998
 30
0.0
 11
185.49460079310001
 21
-26.347825579599998
 31
0.0
 12
185.49460079310001
 22
-21.847825579599998
 32
0.0
 13
187.74460079310001
 23
-24.097825579599998
 33
0.0
  0
LINE
  5
18D
  8
0
 62
     0
 10
203.49460079310001
 20
-24.097825579599998
 30
0.0
 11
208.49460079310001
 21
-24.097825579599998
 31
0.0
  0
SOLID
  5
18E
  8
0
 62
     0
 10
203.49460079310001
 20
-24.097825579599998
 30
0.0
 11
212.49460079310001
 21
-21.847825579599998
 31
0.0
 12
212.49460079310001
 22
-26.347825579599998
 32
0.0
 13
210.24460079310001
 23
-24.097825579599998
 33
0.0
  0
ENDBLK
  5
18F
  8
0
  0
BLOCK
  8
0
  2
*D16
 70
     1
 10
0.0
 20
0.0
 30
0.0
  3
*D16
  1

  0
TEXT
  5
1B0
  8
0
 62
     0
 10
224.74835083120001
 20
-327.87026312030002
 30
0.0
 40
9.8954164504999991
  1
6
 50
90.0
  0
LINE
  5
1B1
  8
0
 62
     0
 10
204.49460079310001
 20
-339.88937093890002
 30
0.0
 11
228.49460079310001
 21
-339.88937093890002
 31
0.0
  0
LINE
  5
1B2
  8
0
 62
     0
 10
203.69460079309999
 20
-333.88937093890002
 30
0.0
 11
228.49460079310001
 21
-333.88937093890002
 31
0.0
  0
LINE
  5
1B3
  8
0
 62
     0
 10
227.49460079310001
 20
-339.88937093890002
 30
0.0
 11
227.49460079310001
 21
-316.22859670790001
 31
0.0
  0
LINE
  5
1B4
  8
0
 62
     0
 10
227.49460079310001
 20
-339.88937093890002
 30
0.0
 11
227.49460079310001
 21
-333.69109632639999
 31
0.0
  0
LINE
  5
1B5
  8
0
 62
     0
 10
227.49460079310001
 20
-333.88937093890002
 30
0.0
 11
227.49460079310001
 21
-316.22859670790001
 31
0.0
  0
LINE
  5
1B6
  8
0
 62
     0
 10
227.49460079310001
 20
-333.88937093890002
 30
0.0
 11
227.49460079310001
 21
-333.69109632639999
 31
0.0
  0
LINE
  5
1B7
  8
0
 62
     0
 10
227.49460079310001
 20
-333.88937093890002
 30
0.0
 11
227.49460079310001
 21
-328.88937093890002
 31
0.0
  0
SOLID
  5
1B8
  8
0
 62
     0
 10
227.49460079310001
 20
-333.88937093890002
 30
0.0
 11
225.24460079310001
 21
-324.88937093890002
 31
0.0
 12
229.74460079310001
 22
-324.88937093890002
 32
0.0
 13
227.49460079310001
 23
-327.13937093890002
 33
0.0
  0
LINE
  5
1B9
  8
0
 62
     0
 10
227.49460079310001
 20
-339.88937093890002
 30
0.0
 11
227.49460079310001
 21
-344.88937093890002
 31
0.0
  0
SOLID
  5
1BA
  8
0
 62
     0
 10
227.49460079310001
 20
-339.88937093890002
 30
0.0
 11
229.74460079310001
 21
-348.88937093890002
 31
0.0
 12
225.24460079310001
 22
-348.88937093890002
 32
0.0
 13
227.49460079310001
 23
-346.63937093890002
 33
0.0
  0
ENDBLK
  5
1BB
  8
0
  0
BLOCK
  8
0
  2
*D17
 70
     1
 10
0.0
 20
0.0
 30
0.0
  3
*D17
  1

  0
TEXT
  5
1E7
  8
0
 62
     0
 10
234.32072326779999
 20
-252.95372634399999
 30
0.0
 40
9.8954164504999991
  1
9
 50
90.0
  0
LINE
  5
1E8
  8
0
 62
     0
 10
204.49460079310001
 20
-254.54330974090001
 30
0.0
 11
238.06697322959999
 21
-254.54330974090001
 31
0.0
  0
LINE
  5
1E9
  8
0
 62
     0
 10
195.49460079310001
 20
-245.54330974090001
 30
0.0
 11
238.06697322959999
 21
-245.54330974090001
 31
0.0
  0
LINE
  5
1EA
  8
0
 62
     0
 10
237.06697322959999
 20
-254.54330974090001
 30
0.0
 11
237.06697322959999
 21
-254.54330974090001
 31
0.0
  0
LINE
  5
1EB
  8
0
 62
     0
 10
237.06697322959999
 20
-254.54330974090001
 30
0.0
 11
237.06697322959999
 21
-245.54330974090001
 31
0.0
  0
LINE
  5
1EC
  8
0
 62
     0
 10
237.06697322959999
 20
-245.54330974090001
 30
0.0
 11
237.06697322959999
 21
-254.54330974090001
 31
0.0
  0
LINE
  5
1ED
  8
0
 62
     0
 10
237.06697322959999
 20
-245.54330974090001
 30
0.0
 11
237.06697322959999
 21
-245.54330974090001
 31
0.0
  0
LINE
  5
1EE
  8
0
 62
     0
 10
237.06697322959999
 20
-245.54330974090001
 30
0.0
 11
237.06697322959999
 21
-240.54330974090001
 31
0.0
  0
SOLID
  5
1EF
  8
0
 62
     0
 10
237.06697322959999
 20
-245.54330974090001
 30
0.0
 11
234.81697322959999
 21
-236.54330974090001
 31
0.0
 12
239.31697322959999
 22
-236.54330974090001
 32
0.0
 13
237.06697322959999
 23
-238.79330974090001
 33
0.0
  0
LINE
  5
1F0
  8
0
 62
     0
 10
237.06697322959999
 20
-254.54330974090001
 30
0.0
 11
237.06697322959999
 21
-259.54330974089999
 31
0.0
  0
SOLID
  5
1F1
  8
0
 62
     0
 10
237.06697322959999
 20
-254.54330974090001
 30
0.0
 11
239.31697322959999
 21
-263.54330974089999
 31
0.0
 12
234.81697322959999
 22
-263.54330974089999
 32
0.0
 13
237.06697322959999
 23
-261.29330974089999
 33
0.0
  0
ENDBLK
  5
1F2
  8
0
  0
BLOCK
  8
0
  2
*D18
 70
     1
 10
0.0
 20
0.0
 30
0.0
  3
*D18
  1

  0
TEXT
  5
23E
  8
0
 62
     0
 10
30.034726689700001
 20
-420.04636697929988
 30
0.0
 40
9.8954164504999991
  1
23
  0
LINE
  5
23F
  8
0
 62
     0
 10
47.355559895799992
 20
-443.87751302879991
 30
0.0
 11
47.355559895799992
 21
-421.79261694109999
 31
0.0
  0
LINE
  5
240
  8
0
 62
     0
 10
24.355559895799999
 20
-445.87751302880002
 30
0.0
 11
24.355559895799999
 21
-421.79261694109999
 31
0.0
  0
LINE
  5
241
  8
0
 62
     0
 10
47.355559895799992
 20
-422.79261694109988
 30
0.0
 11
47.355559895799992
 21
-422.79261694109988
 31
0.0
  0
LINE
  5
242
  8
0
 62
     0
 10
47.355559895799992
 20
-422.79261694109988
 30
0.0
 11
24.355559895799999
 21
-422.79261694109988
 31
0.0
  0
LINE
  5
243
  8
0
 62
     0
 10
24.355559895799999
 20
-422.79261694109988
 30
0.0
 11
47.355559895799992
 21
-422.79261694109988
 31
0.0
  0
LINE
  5
244
  8
0
 62
     0
 10
24.355559895799999
 20
-422.79261694109988
 30
0.0
 11
24.355559895799999
 21
-422.79261694109988
 31
0.0
  0
LINE
  5
245
  8
0
 62
     0
 10
24.355559895799999
 20
-422.79261694109988
 30
0.0
 11
29.355559895799999
 21
-422.79261694109988
 31
0.0
  0
SOLID
  5
246
  8
0
 62
     0
 10
24.355559895799999
 20
-422.79261694109988
 30
0.0
 11
33.355559895799999
 21
-420.54261694109999
 31
0.0
 12
33.355559895799999
 22
-425.04261694109988
 32
0.0
 13
31.105559895799999
 23
-422.79261694109988
 33
0.0
  0
LINE
  5
247
  8
0
 62
     0
 10
47.355559895799992
 20
-422.79261694109988
 30
0.0
 11
42.355559895799992
 21
-422.79261694109988
 31
0.0
  0
SOLID
  5
248
  8
0
 62
     0
 10
47.355559895799992
 20
-422.79261694109988
 30
0.0
 11
38.355559895799999
 21
-425.04261694109988
 31
0.0
 12
38.355559895799999
 22
-420.54261694109999
 32
0.0
 13
40.605559895799999
 23
-422.79261694109988
 33
0.0
  0
ENDBLK
  5
249
  8
0
  0
BLOCK
  8
0
  2
*D19
 70
     1
 10
0.0
 20
0.0
 30
0.0
  3
*D19
  1

  0
TEXT
  5
24D
  8
0
 62
     0
 10
-29.443945185299999
 20
-420.04636697929988
 30
0.0
 40
9.8954164504999991
  1
14
  0
LINE
  5
24E
  8
0
 62
     0
 10
-16.623111979200001
 20
-443.87751302879991
 30
0.0
 11
-16.623111979200001
 21
-421.79261694109999
 31
0.0
  0
LINE
  5
24F
  8
0
 62
     0
 10
-30.623111979200001
 20
-445.87751437809987
 30
0.0
 11
-30.623111979200001
 21
-421.79261694109999
 31
0.0
  0
LINE
  5
250
  8
0
 62
     0
 10
-16.623111979200001
 20
-422.79261694109988
 30
0.0
 11
-16.623111979200001
 21
-422.79261694109988
 31
0.0
  0
LINE
  5
251
  8
0
 62
     0
 10
-16.623111979200001
 20
-422.79261694109988
 30
0.0
 11
-30.623111979200001
 21
-422.79261694109988
 31
0.0
  0
LINE
  5
252
  8
0
 62
     0
 10
-30.623111979200001
 20
-422.79261694109988
 30
0.0
 11
-16.623111979200001
 21
-422.79261694109988
 31
0.0
  0
LINE
  5
253
  8
0
 62
     0
 10
-30.623111979200001
 20
-422.79261694109988
 30
0.0
 11
-30.623111979200001
 21
-422.79261694109988
 31
0.0
  0
LINE
  5
254
  8
0
 62
     0
 10
-30.623111979200001
 20
-422.79261694109988
 30
0.0
 11
-35.623111979199997
 21
-422.79261694109988
 31
0.0
  0
SOLID
  5
255
  8
0
 62
     0
 10
-30.623111979200001
 20
-422.79261694109988
 30
0.0
 11
-39.623111979199997
 21
-425.04261694109988
 31
0.0
 12
-39.623111979199997
 22
-420.54261694109999
 32
0.0
 13
-37.373111979199997
 23
-422.79261694109988
 33
0.0
  0
LINE
  5
256
  8
0
 62
     0
 10
-16.623111979200001
 20
-422.79261694109988
 30
0.0
 11
-11.623111979200001
 21
-422.79261694109988
 31
0.0
  0
SOLID
  5
257
  8
0
 62
     0
 10
-16.623111979200001
 20
-422.79261694109988
 30
0.0
 11
-7.6231119791999991
 21
-420.54261694109999
 31
0.0
 12
-7.6231119791999991
 22
-425.04261694109988
 32
0.0
 13
-9.8731119791999991
 23
-422.79261694109988
 33
0.0
  0
ENDBLK
  5
258
  8
0
  0
BLOCK
  8
0
  2
*D20
 70
     1
 10
0.0
 20
0.0
 30
0.0
  3
*D20
  1

  0
TEXT
  5
2FF
  8
0
 62
     0
 10
-592.73337731720005
 20
-21.3515756177
 30
0.0
 40
9.8954164504999991
  1
9
  0
LINE
  5
300
  8
0
 62
     0
 10
-585.50539920690005
 20
-64.5433097409
 30
0.0
 11
-585.50539920690005
 21
-23.097825579599998
 31
0.0
  0
LINE
  5
301
  8
0
 62
     0
 10
-594.50539920690005
 20
-55.543309740899993
 30
0.0
 11
-594.50539920690005
 21
-23.097825579599998
 31
0.0
  0
LINE
  5
302
  8
0
 62
     0
 10
-585.50539920690005
 20
-24.097825579599998
 30
0.0
 11
-585.50539920690005
 21
-24.097825579599998
 31
0.0
  0
LINE
  5
303
  8
0
 62
     0
 10
-585.50539920690005
 20
-24.097825579599998
 30
0.0
 11
-594.50539920690005
 21
-24.097825579599998
 31
0.0
  0
LINE
  5
304
  8
0
 62
     0
 10
-594.50539920690005
 20
-24.097825579599998
 30
0.0
 11
-585.50539920690005
 21
-24.097825579599998
 31
0.0
  0
LINE
  5
305
  8
0
 62
     0
 10
-594.50539920690005
 20
-24.097825579599998
 30
0.0
 11
-594.50539920690005
 21
-24.097825579599998
 31
0.0
  0
LINE
  5
306
  8
0
 62
     0
 10
-594.50539920690005
 20
-24.097825579599998
 30
0.0
 11
-599.50539920690005
 21
-24.097825579599998
 31
0.0
  0
SOLID
  5
307
  8
0
 62
     0
 10
-594.50539920690005
 20
-24.097825579599998
 30
0.0
 11
-603.50539920690005
 21
-26.347825579599998
 31
0.0
 12
-603.50539920690005
 22
-21.847825579599998
 32
0.0
 13
-601.25539920690005
 23
-24.097825579599998
 33
0.0
  0
LINE
  5
308
  8
0
 62
     0
 10
-585.50539920690005
 20
-24.097825579599998
 30
0.0
 11
-580.50539920690005
 21
-24.097825579599998
 31
0.0
  0
SOLID
  5
309
  8
0
 62
     0
 10
-585.50539920690005
 20
-24.097825579599998
 30
0.0
 11
-576.50539920690005
 21
-21.847825579599998
 31
0.0
 12
-576.50539920690005
 22
-26.347825579599998
 32
0.0
 13
-578.75539920690005
 23
-24.097825579599998
 33
0.0
  0
ENDBLK
  5
30A
  8
0
  0
BLOCK
  8
0
  2
BALLON0
 70
     0
 10
0.0
 20
0.0
 30
0.0
  3
BALLON0
  1

  0
INSERT
  5
336
  8
0
  6
CONTINUOUS
  2
*U79
 10
0.0
 20
0.0
 30
0.0
  0
CIRCLE
  5
337
  8
┌▓È_1
 10
-546.7772091027
 20
-300.17625244930002
 30
0.0
 40
10.0
  0
LINE
  5
338
  8
Éíû@É³
 10
-530.11054243609999
 20
-300.17625244930002
 30
0.0
 11
-536.77720910269989
 21
-300.17625244930002
 31
0.0
  0
LINE
  5
339
  8
Éíû@É³
 10
-510.56610839709992
 20
-333.88937093890002
 30
0.0
 11
-530.11054243609999
 21
-300.17625244930002
 31
0.0
  0
SOLID
  5
33A
  8
Éíû@É³
 10
-510.56610839709992
 20
-333.88937093890002
 30
0.0
 11
-517.31179416600003
 21
-326.24112123660001
 31
0.0
 12
-514.57844364970003
 22
-326.9683041266
 32
0.0
 13
-514.57844364970003
 23
-326.9683041266
 33
0.0
  0
SOLID
  5
33B
  8
Éíû@É³
 10
-514.57844364970003
 20
-326.9683041266
 30
0.0
 11
-513.85126075979997
 21
-324.23495361030001
 31
0.0
 12
-510.56610839709992
 22
-333.88937093890002
 32
0.0
 13
-510.56610839709992
 23
-333.88937093890002
 33
0.0
  0
ENDBLK
  5
33C
  8
0
  0
BLOCK
  8
0
  2
BALLON1
 70
     0
 10
0.0
 20
0.0
 30
0.0
  3
BALLON1
  1

  0
INSERT
  5
340
  8
0
  6
CONTINUOUS
  2
*U80
 10
0.0
 20
0.0
 30
0.0
  0
CIRCLE
  5
341
  8
┌▓È_1
 10
-464.53182454009999
 20
-300.17625244930002
 30
0.0
 40
10.0
  0
LINE
  5
342
  8
Éíû@É³
 10
-447.86515787339988
 20
-300.17625244930002
 30
0.0
 11
-454.53182454009999
 21
-300.17625244930002
 31
0.0
  0
LINE
  5
343
  8
Éíû@É³
 10
-428.24132422069999
 20
-217.88794395229999
 30
0.0
 11
-447.86515787339988
 21
-300.17625244930002
 31
0.0
  0
SOLID
  5
344
  8
Éíû@É³
 10
-428.24132422069999
 20
-217.88794395229999
 30
0.0
 11
-428.61559451299991
 21
-228.079112764
 31
0.0
 12
-430.09709657040003
 22
-225.66972453170001
 32
0.0
 13
-430.09709657040003
 23
-225.66972453170001
 33
0.0
  0
SOLID
  5
345
  8
Éíû@É³
 10
-430.09709657040003
 20
-225.66972453170001
 30
0.0
 11
-432.5064848026999
 21
-227.15122658909999
 31
0.0
 12
-428.24132422069999
 22
-217.88794395229999
 32
0.0
 13
-428.24132422069999
 23
-217.88794395229999
 33
0.0
  0
ENDBLK
  5
346
  8
0
  0
BLOCK
  8
0
  2
BALLON2
 70
     0
 10
0.0
 20
0.0
 30
0.0
  3
BALLON2
  1

  0
INSERT
  5
34A
  8
0
  6
CONTINUOUS
  2
*U81
 10
0.0
 20
0.0
 30
0.0
  0
CIRCLE
  5
34B
  8
┌▓È_1
 10
-637.64613615600001
 20
-300.17625244930002
 30
0.0
 40
10.0
  0
LINE
  5
34C
  8
Éíû@É³
 10
-620.97946948929985
 20
-300.17625244930002
 30
0.0
 11
-627.64613615600001
 21
-300.17625244930002
 31
0.0
  0
LINE
  5
34D
  8
Éíû@É³
 10
-586.30539920690001
 20
-356.80518871160001
 30
0.0
 11
-620.97946948929985
 21
-300.17625244930002
 31
0.0
  0
SOLID
  5
34E
  8
Éíû@É³
 10
-586.30539920690001
 20
-356.80518871160001
 30
0.0
 11
-593.23295694750004
 21
-349.32127638240001
 31
0.0
 12
-590.48291864899988
 22
-349.98255495979998
 32
0.0
 13
-590.48291864899988
 23
-349.98255495979998
 33
0.0
  0
SOLID
  5
34F
  8
Éíû@É³
 10
-590.48291864899988
 20
-349.98255495979998
 30
0.0
 11
-589.82164007160009
 21
-347.23251666139998
 31
0.0
 12
-586.30539920690001
 22
-356.80518871160001
 32
0.0
 13
-586.30539920690001
 23
-356.80518871160001
 33
0.0
  0
ENDBLK
  5
350
  8
0
  0
BLOCK
  8
0
  2
*D24
 70
     1
 10
0.0
 20
0.0
 30
0.0
  3
*D24
  1

  0
TEXT
  5
3A7
  8
0
 62
     0
 10
-86.922226524399989
 20
-540.19838790159997
 30
0.0
 40
9.8954164504999991
  1
15
 50
90.0
  0
LINE
  5
3A8
  8
0
 62
     0
 10
-170.67597656250001
 20
-541.87755469540002
 30
0.0
 11
-83.175976562499983
 21
-541.87755469540002
 31
0.0
  0
LINE
  5
3A9
  8
0
 62
     0
 10
-170.67597656250001
 20
-526.87755469540002
 30
0.0
 11
-83.175976562499983
 21
-526.87755469540002
 31
0.0
  0
LINE
  5
3AA
  8
0
 62
     0
 10
-84.175976562499997
 20
-541.87755469540002
 30
0.0
 11
-84.175976562499997
 21
-541.87755469540002
 31
0.0
  0
LINE
  5
3AB
  8
0
 62
     0
 10
-84.175976562499997
 20
-541.87755469540002
 30
0.0
 11
-84.175976562499997
 21
-526.87755469540002
 31
0.0
  0
LINE
  5
3AC
  8
0
 62
     0
 10
-84.175976562499997
 20
-526.87755469540002
 30
0.0
 11
-84.175976562499997
 21
-541.87755469540002
 31
0.0
  0
LINE
  5
3AD
  8
0
 62
     0
 10
-84.175976562499997
 20
-526.87755469540002
 30
0.0
 11
-84.175976562499997
 21
-526.87755469540002
 31
0.0
  0
LINE
  5
3AE
  8
0
 62
     0
 10
-84.175976562499997
 20
-526.87755469540002
 30
0.0
 11
-84.175976562499997
 21
-521.87755469540002
 31
0.0
  0
SOLID
  5
3AF
  8
0
 62
     0
 10
-84.175976562499997
 20
-526.87755469540002
 30
0.0
 11
-86.425976562499997
 21
-517.87755469540002
 31
0.0
 12
-81.925976562499983
 22
-517.87755469540002
 32
0.0
 13
-84.175976562499997
 23
-520.12755469540002
 33
0.0
  0
LINE
  5
3B0
  8
0
 62
     0
 10
-84.175976562499997
 20
-541.87755469540002
 30
0.0
 11
-84.175976562499997
 21
-546.87755469540002
 31
0.0
  0
SOLID
  5
3B1
  8
0
 62
     0
 10
-84.175976562499997
 20
-541.87755469540002
 30
0.0
 11
-81.925976562499983
 21
-550.87755469540002
 31
0.0
 12
-86.425976562499997
 22
-550.87755469540002
 32
0.0
 13
-84.175976562499997
 23
-548.62755469540002
 33
0.0
  0
ENDBLK
  5
3B2
  8
0
  0
BLOCK
  8
0
  2
*D25
 70
     1
 10
0.0
 20
0.0
 30
0.0
  3
*D25
  1

  0
TEXT
  5
3B6
  8
0
 62
     0
 10
-86.922226524399989
 20
-517.69838790160009
 30
0.0
 40
9.8954164504999991
  1
30
 50
90.0
  0
LINE
  5
3B7
  8
0
 62
     0
 10
-170.67597656250001
 20
-526.87755469540002
 30
0.0
 11
-83.175976562499983
 21
-526.87755469540002
 31
0.0
  0
LINE
  5
3B8
  8
0
 62
     0
 10
-127.1759765625
 20
-496.87755469540002
 30
0.0
 11
-83.175976562499983
 21
-496.87755469540002
 31
0.0
  0
LINE
  5
3B9
  8
0
 62
     0
 10
-84.175976562499997
 20
-526.87755469540002
 30
0.0
 11
-84.175976562499997
 21
-500.2358882831
 31
0.0
  0
LINE
  5
3BA
  8
0
 62
     0
 10
-84.175976562499997
 20
-526.87755469540002
 30
0.0
 11
-84.175976562499997
 21
-523.51922110780004
 31
0.0
  0
LINE
  5
3BB
  8
0
 62
     0
 10
-84.175976562499997
 20
-496.87755469540002
 30
0.0
 11
-84.175976562499997
 21
-500.2358882831
 31
0.0
  0
LINE
  5
3BC
  8
0
 62
     0
 10
-84.175976562499997
 20
-496.87755469540002
 30
0.0
 11
-84.175976562499997
 21
-523.51922110780004
 31
0.0
  0
LINE
  5
3BD
  8
0
 62
     0
 10
-84.175976562499997
 20
-496.87755469540002
 30
0.0
 11
-84.175976562499997
 21
-491.87755469540002
 31
0.0
  0
SOLID
  5
3BE
  8
0
 62
     0
 10
-84.175976562499997
 20
-496.87755469540002
 30
0.0
 11
-86.425976562499997
 21
-487.87755469540002
 31
0.0
 12
-81.925976562499983
 22
-487.87755469540002
 32
0.0
 13
-84.175976562499997
 23
-490.12755469540002
 33
0.0
  0
LINE
  5
3BF
  8
0
 62
     0
 10
-84.175976562499997
 20
-526.87755469540002
 30
0.0
 11
-84.175976562499997
 21
-531.87755469539991
 31
0.0
  0
SOLID
  5
3C0
  8
0
 62
     0
 10
-84.175976562499997
 20
-526.87755469540002
 30
0.0
 11
-81.925976562499983
 21
-535.87755469539991
 31
0.0
 12
-86.425976562499997
 22
-535.87755469539991
 32
0.0
 13
-84.175976562499997
 23
-533.62755469539991
 33
0.0
  0
ENDBLK
  5
3C1
  8
0
  0
BLOCK
  8
0
  2
*D26
 70
     1
 10
0.0
 20
0.0
 30
0.0
  3
*D26
  1

  0
TEXT
  5
3C5
  8
0
 62
     0
 10
-86.922226524399989
 20
-461.6983670683
 30
0.0
 40
9.8954164504999991
  1
22
 50
90.0
  0
LINE
  5
3C6
  8
0
 62
     0
 10
-127.1759765625
 20
-466.87755469540002
 30
0.0
 11
-83.175976562499983
 21
-466.87755469540002
 31
0.0
  0
LINE
  5
3C7
  8
0
 62
     0
 10
-113.1759765625
 20
-444.87751302879991
 30
0.0
 11
-83.175976562499983
 21
-444.87751302879991
 31
0.0
  0
LINE
  5
3C8
  8
0
 62
     0
 10
-84.175976562499997
 20
-466.87755469540002
 30
0.0
 11
-84.175976562499997
 21
-466.87755469540002
 31
0.0
  0
LINE
  5
3C9
  8
0
 62
     0
 10
-84.175976562499997
 20
-466.87755469540002
 30
0.0
 11
-84.175976562499997
 21
-444.87751302879991
 31
0.0
  0
LINE
  5
3CA
  8
0
 62
     0
 10
-84.175976562499997
 20
-444.87751302879991
 30
0.0
 11
-84.175976562499997
 21
-466.87755469540002
 31
0.0
  0
LINE
  5
3CB
  8
0
 62
     0
 10
-84.175976562499997
 20
-444.87751302879991
 30
0.0
 11
-84.175976562499997
 21
-444.87751302879991
 31
0.0
  0
LINE
  5
3CC
  8
0
 62
     0
 10
-84.175976562499997
 20
-444.87751302879991
 30
0.0
 11
-84.175976562499997
 21
-449.87751302880002
 31
0.0
  0
SOLID
  5
3CD
  8
0
 62
     0
 10
-84.175976562499997
 20
-444.87751302879991
 30
0.0
 11
-81.925976562499983
 21
-453.87751302880002
 31
0.0
 12
-86.425976562499997
 22
-453.87751302880002
 32
0.0
 13
-84.175976562499997
 23
-451.62751302880002
 33
0.0
  0
LINE
  5
3CE
  8
0
 62
     0
 10
-84.175976562499997
 20
-466.87755469540002
 30
0.0
 11
-84.175976562499997
 21
-461.87755469540002
 31
0.0
  0
SOLID
  5
3CF
  8
0
 62
     0
 10
-84.175976562499997
 20
-466.87755469540002
 30
0.0
 11
-86.425976562499997
 21
-457.87755469540002
 31
0.0
 12
-81.925976562499983
 22
-457.87755469540002
 32
0.0
 13
-84.175976562499997
 23
-460.12755469540002
 33
0.0
  0
ENDBLK
  5
3D0
  8
0
  0
BLOCK
  8
0
  2
*D27
 70
     1
 10
0.0
 20
0.0
 30
0.0
  3
*D27
  1

  0
TEXT
  5
3D4
  8
0
 62
     0
 10
-86.922226524399989
 20
-480.19838790159997
 30
0.0
 40
9.8954164504999991
  1
15
 50
90.0
  0
LINE
  5
3D5
  8
0
 62
     0
 10
-127.1759765625
 20
-481.87755469539991
 30
0.0
 11
-83.175976562499983
 21
-481.87755469539991
 31
0.0
  0
LINE
  5
3D6
  8
0
 62
     0
 10
-127.1759765625
 20
-466.87755469540002
 30
0.0
 11
-83.175976562499983
 21
-466.87755469540002
 31
0.0
  0
LINE
  5
3D7
  8
0
 62
     0
 10
-84.175976562499997
 20
-481.87755469539991
 30
0.0
 11
-84.175976562499997
 21
-481.87755469539991
 31
0.0
  0
LINE
  5
3D8
  8
0
 62
     0
 10
-84.175976562499997
 20
-481.87755469539991
 30
0.0
 11
-84.175976562499997
 21
-466.87755469540002
 31
0.0
  0
LINE
  5
3D9
  8
0
 62
     0
 10
-84.175976562499997
 20
-466.87755469540002
 30
0.0
 11
-84.175976562499997
 21
-481.87755469539991
 31
0.0
  0
LINE
  5
3DA
  8
0
 62
     0
 10
-84.175976562499997
 20
-466.87755469540002
 30
0.0
 11
-84.175976562499997
 21
-466.87755469540002
 31
0.0
  0
LINE
  5
3DB
  8
0
 62
     0
 10
-84.175976562499997
 20
-466.87755469540002
 30
0.0
 11
-84.175976562499997
 21
-461.87755469540002
 31
0.0
  0
SOLID
  5
3DC
  8
0
 62
     0
 10
-84.175976562499997
 20
-466.87755469540002
 30
0.0
 11
-86.425976562499997
 21
-457.87755469540002
 31
0.0
 12
-81.925976562499983
 22
-457.87755469540002
 32
0.0
 13
-84.175976562499997
 23
-460.12755469540002
 33
0.0
  0
LINE
  5
3DD
  8
0
 62
     0
 10
-84.175976562499997
 20
-481.87755469539991
 30
0.0
 11
-84.175976562499997
 21
-486.87755469540002
 31
0.0
  0
SOLID
  5
3DE
  8
0
 62
     0
 10
-84.175976562499997
 20
-481.87755469539991
 30
0.0
 11
-81.925976562499983
 21
-490.87755469540002
 31
0.0
 12
-86.425976562499997
 22
-490.87755469540002
 32
0.0
 13
-84.175976562499997
 23
-488.62755469540002
 33
0.0
  0
ENDBLK
  5
3DF
  8
0
  0
BLOCK
  8
0
  2
*D28
 70
     1
 10
0.0
 20
0.0
 30
0.0
  3
*D28
  1

  0
TEXT
  5
3E3
  8
0
 62
     0
 10
-86.922226524399989
 20
-495.19838790159997
 30
0.0
 40
9.8954164504999991
  1
15
 50
90.0
  0
LINE
  5
3E4
  8
0
 62
     0
 10
-127.1759765625
 20
-496.87755469540002
 30
0.0
 11
-83.175976562499983
 21
-496.87755469540002
 31
0.0
  0
LINE
  5
3E5
  8
0
 62
     0
 10
-127.1759765625
 20
-481.87755469539991
 30
0.0
 11
-83.175976562499983
 21
-481.87755469539991
 31
0.0
  0
LINE
  5
3E6
  8
0
 62
     0
 10
-84.175976562499997
 20
-496.87755469540002
 30
0.0
 11
-84.175976562499997
 21
-496.87755469540002
 31
0.0
  0
LINE
  5
3E7
  8
0
 62
     0
 10
-84.175976562499997
 20
-496.87755469540002
 30
0.0
 11
-84.175976562499997
 21
-481.87755469539991
 31
0.0
  0
LINE
  5
3E8
  8
0
 62
     0
 10
-84.175976562499997
 20
-481.87755469539991
 30
0.0
 11
-84.175976562499997
 21
-496.87755469540002
 31
0.0
  0
LINE
  5
3E9
  8
0
 62
     0
 10
-84.175976562499997
 20
-481.87755469539991
 30
0.0
 11
-84.175976562499997
 21
-481.87755469539991
 31
0.0
  0
LINE
  5
3EA
  8
0
 62
     0
 10
-84.175976562499997
 20
-481.87755469539991
 30
0.0
 11
-84.175976562499997
 21
-476.87755469540002
 31
0.0
  0
SOLID
  5
3EB
  8
0
 62
     0
 10
-84.175976562499997
 20
-481.87755469539991
 30
0.0
 11
-86.425976562499997
 21
-472.87755469540002
 31
0.0
 12
-81.925976562499983
 22
-472.87755469540002
 32
0.0
 13
-84.175976562499997
 23
-475.12755469540002
 33
0.0
  0
LINE
  5
3EC
  8
0
 62
     0
 10
-84.175976562499997
 20
-496.87755469540002
 30
0.0
 11
-84.175976562499997
 21
-501.87755469540002
 31
0.0
  0
SOLID
  5
3ED
  8
0
 62
     0
 10
-84.175976562499997
 20
-496.87755469540002
 30
0.0
 11
-81.925976562499983
 21
-505.87755469540002
 31
0.0
 12
-86.425976562499997
 22
-505.87755469540002
 32
0.0
 13
-84.175976562499997
 23
-503.62755469540002
 33
0.0
  0
ENDBLK
  5
3EE
  8
0
  0
BLOCK
  8
0
  2
*D29
 70
     1
 10
0.0
 20
0.0
 30
0.0
  3
*D29
  1

  0
TEXT
  5
422
  8
0
 62
     0
 10
-131.49680976869999
 20
-649.13126306690003
 30
0.0
 40
9.8954164504999991
  1
27
  0
LINE
  5
423
  8
0
 62
     0
 10
-139.17597656250001
 20
-606.37755469540002
 30
0.0
 11
-139.17597656250001
 21
-652.87751302879985
 31
0.0
  0
LINE
  5
424
  8
0
 62
     0
 10
-112.1759765625
 20
-622.87751302879985
 30
0.0
 11
-112.1759765625
 21
-652.87751302879985
 31
0.0
  0
LINE
  5
425
  8
0
 62
     0
 10
-139.17597656250001
 20
-651.87751302879985
 30
0.0
 11
-114.0343101501
 21
-651.87751302879985
 31
0.0
  0
LINE
  5
426
  8
0
 62
     0
 10
-139.17597656250001
 20
-651.87751302879985
 30
0.0
 11
-137.3176429749
 21
-651.87751302879985
 31
0.0
  0
LINE
  5
427
  8
0
 62
     0
 10
-112.1759765625
 20
-651.87751302879985
 30
0.0
 11
-114.0343101501
 21
-651.87751302879985
 31
0.0
  0
LINE
  5
428
  8
0
 62
     0
 10
-112.1759765625
 20
-651.87751302879985
 30
0.0
 11
-137.3176429749
 21
-651.87751302879985
 31
0.0
  0
LINE
  5
429
  8
0
 62
     0
 10
-112.1759765625
 20
-651.87751302879985
 30
0.0
 11
-107.1759765625
 21
-651.87751302879985
 31
0.0
  0
SOLID
  5
42A
  8
0
 62
     0
 10
-112.1759765625
 20
-651.87751302879985
 30
0.0
 11
-103.1759765625
 21
-649.62751302879985
 31
0.0
 12
-103.1759765625
 22
-654.12751302879985
 32
0.0
 13
-105.4259765625
 23
-651.87751302879985
 33
0.0
  0
LINE
  5
42B
  8
0
 62
     0
 10
-139.17597656250001
 20
-651.87751302879985
 30
0.0
 11
-144.17597656250001
 21
-651.87751302879985
 31
0.0
  0
SOLID
  5
42C
  8
0
 62
     0
 10
-139.17597656250001
 20
-651.87751302879985
 30
0.0
 11
-148.17597656250001
 21
-654.12751302879985
 31
0.0
 12
-148.17597656250001
 22
-649.62751302879985
 32
0.0
 13
-145.92597656250001
 23
-651.87751302879985
 33
0.0
  0
ENDBLK
  5
42D
  8
0
  0
BLOCK
  8
0
  2
*D30
 70
     1
 10
0.0
 20
0.0
 30
0.0
  3
*D30
  1

  0
TEXT
  5
431
  8
0
 62
     0
 10
-86.922226524399989
 20
-618.69836706829994
 30
0.0
 40
9.8954164504999991
  1
22
 50
90.0
  0
LINE
  5
432
  8
0
 62
     0
 10
-113.1759765625
 20
-623.87751302879985
 30
0.0
 11
-83.175976562499983
 21
-623.87751302879985
 31
0.0
  0
LINE
  5
433
  8
0
 62
     0
 10
-127.1759765625
 20
-601.87755469540002
 30
0.0
 11
-83.175976562499983
 21
-601.87755469540002
 31
0.0
  0
LINE
  5
434
  8
0
 62
     0
 10
-84.175976562499997
 20
-623.87751302879985
 30
0.0
 11
-84.175976562499997
 21
-623.87751302879985
 31
0.0
  0
LINE
  5
435
  8
0
 62
     0
 10
-84.175976562499997
 20
-623.87751302879985
 30
0.0
 11
-84.175976562499997
 21
-601.87755469540002
 31
0.0
  0
LINE
  5
436
  8
0
 62
     0
 10
-84.175976562499997
 20
-601.87755469540002
 30
0.0
 11
-84.175976562499997
 21
-623.87751302879985
 31
0.0
  0
LINE
  5
437
  8
0
 62
     0
 10
-84.175976562499997
 20
-601.87755469540002
 30
0.0
 11
-84.175976562499997
 21
-601.87755469540002
 31
0.0
  0
LINE
  5
438
  8
0
 62
     0
 10
-84.175976562499997
 20
-601.87755469540002
 30
0.0
 11
-84.175976562499997
 21
-606.87755469540002
 31
0.0
  0
SOLID
  5
439
  8
0
 62
     0
 10
-84.175976562499997
 20
-601.87755469540002
 30
0.0
 11
-81.925976562499983
 21
-610.87755469539991
 31
0.0
 12
-86.425976562499997
 22
-610.87755469539991
 32
0.0
 13
-84.175976562499997
 23
-608.62755469539991
 33
0.0
  0
LINE
  5
43A
  8
0
 62
     0
 10
-84.175976562499997
 20
-623.87751302879985
 30
0.0
 11
-84.175976562499997
 21
-618.87751302879985
 31
0.0
  0
SOLID
  5
43B
  8
0
 62
     0
 10
-84.175976562499997
 20
-623.87751302879985
 30
0.0
 11
-86.425976562499997
 21
-614.87751302879985
 31
0.0
 12
-81.925976562499983
 22
-614.87751302879985
 32
0.0
 13
-84.175976562499997
 23
-617.12751302879985
 33
0.0
  0
ENDBLK
  5
43C
  8
0
  0
BLOCK
  8
0
  2
*D31
 70
     1
 10
0.0
 20
0.0
 30
0.0
  3
*D31
  1

  0
TEXT
  5
440
  8
0
 62
     0
 10
-86.922226524399989
 20
-600.19838790160009
 30
0.0
 40
9.8954164504999991
  1
15
 50
90.0
  0
LINE
  5
441
  8
0
 62
     0
 10
-127.1759765625
 20
-601.87755469540002
 30
0.0
 11
-83.175976562499983
 21
-601.87755469540002
 31
0.0
  0
LINE
  5
442
  8
0
 62
     0
 10
-127.1759765625
 20
-586.87755469540002
 30
0.0
 11
-83.175976562499983
 21
-586.87755469540002
 31
0.0
  0
LINE
  5
443
  8
0
 62
     0
 10
-84.175976562499997
 20
-601.87755469540002
 30
0.0
 11
-84.175976562499997
 21
-601.87755469540002
 31
0.0
  0
LINE
  5
444
  8
0
 62
     0
 10
-84.175976562499997
 20
-601.87755469540002
 30
0.0
 11
-84.175976562499997
 21
-586.87755469540002
 31
0.0
  0
LINE
  5
445
  8
0
 62
     0
 10
-84.175976562499997
 20
-586.87755469540002
 30
0.0
 11
-84.175976562499997
 21
-601.87755469540002
 31
0.0
  0
LINE
  5
446
  8
0
 62
     0
 10
-84.175976562499997
 20
-586.87755469540002
 30
0.0
 11
-84.175976562499997
 21
-586.87755469540002
 31
0.0
  0
LINE
  5
447
  8
0
 62
     0
 10
-84.175976562499997
 20
-586.87755469540002
 30
0.0
 11
-84.175976562499997
 21
-581.87755469539991
 31
0.0
  0
SOLID
  5
448
  8
0
 62
     0
 10
-84.175976562499997
 20
-586.87755469540002
 30
0.0
 11
-86.425976562499997
 21
-577.87755469540002
 31
0.0
 12
-81.925976562499983
 22
-577.87755469540002
 32
0.0
 13
-84.175976562499997
 23
-580.12755469540002
 33
0.0
  0
LINE
  5
449
  8
0
 62
     0
 10
-84.175976562499997
 20
-601.87755469540002
 30
0.0
 11
-84.175976562499997
 21
-606.87755469540002
 31
0.0
  0
SOLID
  5
44A
  8
0
 62
     0
 10
-84.175976562499997
 20
-601.87755469540002
 30
0.0
 11
-81.925976562499983
 21
-610.87755469539991
 31
0.0
 12
-86.425976562499997
 22
-610.87755469539991
 32
0.0
 13
-84.175976562499997
 23
-608.62755469539991
 33
0.0
  0
ENDBLK
  5
44B
  8
0
  0
BLOCK
  8
0
  2
*D32
 70
     1
 10
0.0
 20
0.0
 30
0.0
  3
*D32
  1

  0
TEXT
  5
44F
  8
0
 62
     0
 10
-275.49680976870002
 20
-649.13126277189997
 30
0.0
 40
9.8954164504999991
  1
87
  0
LINE
  5
450
  8
0
 62
     0
 10
-313.17597656250001
 20
-606.37755469540002
 30
0.0
 11
-313.17597656250001
 21
-652.87751273380002
 31
0.0
  0
LINE
  5
451
  8
0
 62
     0
 10
-226.17597656250001
 20
-606.37755469540002
 30
0.0
 11
-226.17597656250001
 21
-652.87751273380002
 31
0.0
  0
LINE
  5
452
  8
0
 62
     0
 10
-313.17597656250001
 20
-651.87751273380002
 30
0.0
 11
-258.0343101501
 21
-651.87751273380002
 31
0.0
  0
LINE
  5
453
  8
0
 62
     0
 10
-313.17597656250001
 20
-651.87751273380002
 30
0.0
 11
-281.31764297490002
 21
-651.87751273380002
 31
0.0
  0
LINE
  5
454
  8
0
 62
     0
 10
-226.17597656250001
 20
-651.87751273380002
 30
0.0
 11
-258.0343101501
 21
-651.87751273380002
 31
0.0
  0
LINE
  5
455
  8
0
 62
     0
 10
-226.17597656250001
 20
-651.87751273380002
 30
0.0
 11
-281.31764297490002
 21
-651.87751273380002
 31
0.0
  0
LINE
  5
456
  8
0
 62
     0
 10
-226.17597656250001
 20
-651.87751273380002
 30
0.0
 11
-231.17597656250001
 21
-651.87751273380002
 31
0.0
  0
SOLID
  5
457
  8
0
 62
     0
 10
-226.17597656250001
 20
-651.87751273380002
 30
0.0
 11
-235.17597656250001
 21
-654.12751273380002
 31
0.0
 12
-235.17597656250001
 22
-649.62751273380002
 32
0.0
 13
-232.92597656250001
 23
-651.87751273380002
 33
0.0
  0
LINE
  5
458
  8
0
 62
     0
 10
-313.17597656250001
 20
-651.87751273380002
 30
0.0
 11
-308.17597656250001
 21
-651.87751273380002
 31
0.0
  0
SOLID
  5
459
  8
0
 62
     0
 10
-313.17597656250001
 20
-651.87751273380002
 30
0.0
 11
-304.17597656250001
 21
-649.62751273380002
 31
0.0
 12
-304.17597656250001
 22
-654.12751273380002
 32
0.0
 13
-306.42597656250001
 23
-651.87751273380002
 33
0.0
  0
ENDBLK
  5
45A
  8
0
  0
BLOCK
  8
0
  2
*D33
 70
     1
 10
0.0
 20
0.0
 30
0.0
  3
*D33
  1

  0
TEXT
  5
45E
  8
0
 62
     0
 10
-188.49680976869999
 20
-649.13126277189997
 30
0.0
 40
9.8954164504999991
  1
87
  0
LINE
  5
45F
  8
0
 62
     0
 10
-226.17597656250001
 20
-606.37755469540002
 30
0.0
 11
-226.17597656250001
 21
-652.87751273380002
 31
0.0
  0
LINE
  5
460
  8
0
 62
     0
 10
-139.17597656250001
 20
-606.37755469540002
 30
0.0
 11
-139.17597656250001
 21
-652.87751273380002
 31
0.0
  0
LINE
  5
461
  8
0
 62
     0
 10
-226.17597656250001
 20
-651.87751273380002
 30
0.0
 11
-171.0343101501
 21
-651.87751273380002
 31
0.0
  0
LINE
  5
462
  8
0
 62
     0
 10
-226.17597656250001
 20
-651.87751273380002
 30
0.0
 11
-194.3176429749
 21
-651.87751273380002
 31
0.0
  0
LINE
  5
463
  8
0
 62
     0
 10
-139.17597656250001
 20
-651.87751273380002
 30
0.0
 11
-171.0343101501
 21
-651.87751273380002
 31
0.0
  0
LINE
  5
464
  8
0
 62
     0
 10
-139.17597656250001
 20
-651.87751273380002
 30
0.0
 11
-194.3176429749
 21
-651.87751273380002
 31
0.0
  0
LINE
  5
465
  8
0
 62
     0
 10
-139.17597656250001
 20
-651.87751273380002
 30
0.0
 11
-144.17597656250001
 21
-651.87751273380002
 31
0.0
  0
SOLID
  5
466
  8
0
 62
     0
 10
-139.17597656250001
 20
-651.87751273380002
 30
0.0
 11
-148.17597656250001
 21
-654.12751273380002
 31
0.0
 12
-148.17597656250001
 22
-649.62751273380002
 32
0.0
 13
-145.92597656250001
 23
-651.87751273380002
 33
0.0
  0
LINE
  5
467
  8
0
 62
     0
 10
-226.17597656250001
 20
-651.87751273380002
 30
0.0
 11
-221.17597656250001
 21
-651.87751273380002
 31
0.0
  0
SOLID
  5
468
  8
0
 62
     0
 10
-226.17597656250001
 20
-651.87751273380002
 30
0.0
 11
-217.17597656250001
 21
-649.62751273380002
 31
0.0
 12
-217.17597656250001
 22
-654.12751273380002
 32
0.0
 13
-219.42597656250001
 23
-651.87751273380002
 33
0.0
  0
ENDBLK
  5
469
  8
0
  0
BLOCK
  8
0
  2
*D34
 70
     1
 10
0.0
 20
0.0
 30
0.0
  3
*D34
  1

  0
TEXT
  5
4B4
  8
0
 62
     0
 10
-492.99680976870002
 20
-550.01903819309985
 30
0.0
 40
9.8954164504999991
  1
22
  0
LINE
  5
4B5
  8
0
 62
     0
 10
-476.17597656250001
 20
-570.87755469540002
 30
0.0
 11
-476.17597656250001
 21
-551.76528815489996
 31
0.0
  0
LINE
  5
4B6
  8
0
 62
     0
 10
-498.17597656250001
 20
-570.87755469540002
 30
0.0
 11
-498.17597656250001
 21
-551.76528815489996
 31
0.0
  0
LINE
  5
4B7
  8
0
 62
     0
 10
-476.17597656250001
 20
-552.76528815489985
 30
0.0
 11
-476.17597656250001
 21
-552.76528815489985
 31
0.0
  0
LINE
  5
4B8
  8
0
 62
     0
 10
-476.17597656250001
 20
-552.76528815489985
 30
0.0
 11
-498.17597656250001
 21
-552.76528815489985
 31
0.0
  0
LINE
  5
4B9
  8
0
 62
     0
 10
-498.17597656250001
 20
-552.76528815489985
 30
0.0
 11
-476.17597656250001
 21
-552.76528815489985
 31
0.0
  0
LINE
  5
4BA
  8
0
 62
     0
 10
-498.17597656250001
 20
-552.76528815489985
 30
0.0
 11
-498.17597656250001
 21
-552.76528815489985
 31
0.0
  0
LINE
  5
4BB
  8
0
 62
     0
 10
-498.17597656250001
 20
-552.76528815489985
 30
0.0
 11
-493.17597656250001
 21
-552.76528815489985
 31
0.0
  0
SOLID
  5
4BC
  8
0
 62
     0
 10
-498.17597656250001
 20
-552.76528815489985
 30
0.0
 11
-489.17597656250001
 21
-550.51528815489985
 31
0.0
 12
-489.17597656250001
 22
-555.01528815489985
 32
0.0
 13
-491.42597656250001
 23
-552.76528815489985
 33
0.0
  0
LINE
  5
4BD
  8
0
 62
     0
 10
-476.17597656250001
 20
-552.76528815489985
 30
0.0
 11
-481.17597656250001
 21
-552.76528815489985
 31
0.0
  0
SOLID
  5
4BE
  8
0
 62
     0
 10
-476.17597656250001
 20
-552.76528815489985
 30
0.0
 11
-485.17597656250001
 21
-555.01528815489985
 31
0.0
 12
-485.17597656250001
 22
-550.51528815489985
 32
0.0
 13
-482.92597656250001
 23
-552.76528815489985
 33
0.0
  0
ENDBLK
  5
4BF
  8
0
  0
BLOCK
  8
0
  2
*D35
 70
     1
 10
0.0
 20
0.0
 30
0.0
  3
*D35
  1

  0
TEXT
  5
4D3
  8
0
 62
     0
 10
-593.49680976870002
 20
-649.13126306690003
 30
0.0
 40
9.8954164504999991
  1
27
  0
LINE
  5
4D4
  8
0
 62
     0
 10
-601.17597656249995
 20
-622.87751302879985
 30
0.0
 11
-601.17597656249995
 21
-652.87751302879985
 31
0.0
  0
LINE
  5
4D5
  8
0
 62
     0
 10
-574.17597656249995
 20
-606.37755469540002
 30
0.0
 11
-574.17597656249995
 21
-652.87751302879985
 31
0.0
  0
LINE
  5
4D6
  8
0
 62
     0
 10
-601.17597656249995
 20
-651.87751302879985
 30
0.0
 11
-576.03431015010005
 21
-651.87751302879985
 31
0.0
  0
LINE
  5
4D7
  8
0
 62
     0
 10
-601.17597656249995
 20
-651.87751302879985
 30
0.0
 11
-599.31764297489997
 21
-651.87751302879985
 31
0.0
  0
LINE
  5
4D8
  8
0
 62
     0
 10
-574.17597656249995
 20
-651.87751302879985
 30
0.0
 11
-576.03431015010005
 21
-651.87751302879985
 31
0.0
  0
LINE
  5
4D9
  8
0
 62
     0
 10
-574.17597656249995
 20
-651.87751302879985
 30
0.0
 11
-599.31764297489997
 21
-651.87751302879985
 31
0.0
  0
LINE
  5
4DA
  8
0
 62
     0
 10
-574.17597656249995
 20
-651.87751302879985
 30
0.0
 11
-569.17597656249995
 21
-651.87751302879985
 31
0.0
  0
SOLID
  5
4DB
  8
0
 62
     0
 10
-574.17597656249995
 20
-651.87751302879985
 30
0.0
 11
-565.17597656249995
 21
-649.62751302879985
 31
0.0
 12
-565.17597656249995
 22
-654.12751302879985
 32
0.0
 13
-567.42597656249995
 23
-651.87751302879985
 33
0.0
  0
LINE
  5
4DC
  8
0
 62
     0
 10
-601.17597656249995
 20
-651.87751302879985
 30
0.0
 11
-606.17597656249995
 21
-651.87751302879985
 31
0.0
  0
SOLID
  5
4DD
  8
0
 62
     0
 10
-601.17597656249995
 20
-651.87751302879985
 30
0.0
 11
-610.17597656249995
 21
-654.12751302879985
 31
0.0
 12
-610.17597656249995
 22
-649.62751302879985
 32
0.0
 13
-607.92597656249995
 23
-651.87751302879985
 33
0.0
  0
ENDBLK
  5
4DE
  8
0
  0
BLOCK
  8
0
  2
*D36
 70
     1
 10
0.0
 20
0.0
 30
0.0
  3
*D36
  1

  0
TEXT
  5
4E2
  8
0
 62
     0
 10
-449.4968097686999
 20
-649.13126277189997
 30
0.0
 40
9.8954164504999991
  1
87
  0
LINE
  5
4E3
  8
0
 62
     0
 10
-487.1759765624999
 20
-606.37755469540002
 30
0.0
 11
-487.1759765624999
 21
-652.87751273380002
 31
0.0
  0
LINE
  5
4E4
  8
0
 62
     0
 10
-400.17597656250001
 20
-606.37755469540002
 30
0.0
 11
-400.17597656250001
 21
-652.87751273380002
 31
0.0
  0
LINE
  5
4E5
  8
0
 62
     0
 10
-487.1759765624999
 20
-651.87751273380002
 30
0.0
 11
-432.03431015009988
 21
-651.87751273380002
 31
0.0
  0
LINE
  5
4E6
  8
0
 62
     0
 10
-487.1759765624999
 20
-651.87751273380002
 30
0.0
 11
-455.31764297489991
 21
-651.87751273380002
 31
0.0
  0
LINE
  5
4E7
  8
0
 62
     0
 10
-400.17597656250001
 20
-651.87751273380002
 30
0.0
 11
-432.03431015009988
 21
-651.87751273380002
 31
0.0
  0
LINE
  5
4E8
  8
0
 62
     0
 10
-400.17597656250001
 20
-651.87751273380002
 30
0.0
 11
-455.31764297489991
 21
-651.87751273380002
 31
0.0
  0
LINE
  5
4E9
  8
0
 62
     0
 10
-400.17597656250001
 20
-651.87751273380002
 30
0.0
 11
-405.17597656250001
 21
-651.87751273380002
 31
0.0
  0
SOLID
  5
4EA
  8
0
 62
     0
 10
-400.17597656250001
 20
-651.87751273380002
 30
0.0
 11
-409.17597656250001
 21
-654.12751273380002
 31
0.0
 12
-409.17597656250001
 22
-649.62751273380002
 32
0.0
 13
-406.92597656250001
 23
-651.87751273380002
 33
0.0
  0
LINE
  5
4EB
  8
0
 62
     0
 10
-487.1759765624999
 20
-651.87751273380002
 30
0.0
 11
-482.1759765624999
 21
-651.87751273380002
 31
0.0
  0
SOLID
  5
4EC
  8
0
 62
     0
 10
-487.1759765624999
 20
-651.87751273380002
 30
0.0
 11
-478.1759765624999
 21
-649.62751273380002
 31
0.0
 12
-478.1759765624999
 22
-654.12751273380002
 32
0.0
 13
-480.4259765624999
 23
-651.87751273380002
 33
0.0
  0
ENDBLK
  5
4ED
  8
0
  0
BLOCK
  8
0
  2
*D37
 70
     1
 10
0.0
 20
0.0
 30
0.0
  3
*D37
  1

  0
TEXT
  5
4F1
  8
0
 62
     0
 10
-536.49680976870002
 20
-649.13126277189997
 30
0.0
 40
9.8954164504999991
  1
87
  0
LINE
  5
4F2
  8
0
 62
     0
 10
-574.17597656249995
 20
-606.37755469540002
 30
0.0
 11
-574.17597656249995
 21
-652.87751273380002
 31
0.0
  0
LINE
  5
4F3
  8
0
 62
     0
 10
-487.1759765624999
 20
-606.37755469540002
 30
0.0
 11
-487.1759765624999
 21
-652.87751273380002
 31
0.0
  0
LINE
  5
4F4
  8
0
 62
     0
 10
-574.17597656249995
 20
-651.87751273380002
 30
0.0
 11
-519.03431015010005
 21
-651.87751273380002
 31
0.0
  0
LINE
  5
4F5
  8
0
 62
     0
 10
-574.17597656249995
 20
-651.87751273380002
 30
0.0
 11
-542.31764297489985
 21
-651.87751273380002
 31
0.0
  0
LINE
  5
4F6
  8
0
 62
     0
 10
-487.1759765624999
 20
-651.87751273380002
 30
0.0
 11
-519.03431015010005
 21
-651.87751273380002
 31
0.0
  0
LINE
  5
4F7
  8
0
 62
     0
 10
-487.1759765624999
 20
-651.87751273380002
 30
0.0
 11
-542.31764297489985
 21
-651.87751273380002
 31
0.0
  0
LINE
  5
4F8
  8
0
 62
     0
 10
-487.1759765624999
 20
-651.87751273380002
 30
0.0
 11
-492.17597656250001
 21
-651.87751273380002
 31
0.0
  0
SOLID
  5
4F9
  8
0
 62
     0
 10
-487.1759765624999
 20
-651.87751273380002
 30
0.0
 11
-496.17597656250001
 21
-654.12751273380002
 31
0.0
 12
-496.17597656250001
 22
-649.62751273380002
 32
0.0
 13
-493.92597656250001
 23
-651.87751273380002
 33
0.0
  0
LINE
  5
4FA
  8
0
 62
     0
 10
-574.17597656249995
 20
-651.87751273380002
 30
0.0
 11
-569.17597656249995
 21
-651.87751273380002
 31
0.0
  0
SOLID
  5
4FB
  8
0
 62
     0
 10
-574.17597656249995
 20
-651.87751273380002
 30
0.0
 11
-565.17597656249995
 21
-649.62751273380002
 31
0.0
 12
-565.17597656249995
 22
-654.12751273380002
 32
0.0
 13
-567.42597656249995
 23
-651.87751273380002
 33
0.0
  0
ENDBLK
  5
4FC
  8
0
  0
BLOCK
  8
0
  2
*D38
 70
     1
 10
0.0
 20
0.0
 30
0.0
  3
*D38
  1

  0
TEXT
  5
51A
  8
0
 62
     0
 10
250.9727351391
 20
-164.2745595502
 30
0.0
 40
9.8954164504999991
  1
198
 50
90.0
  0
LINE
  5
51B
  8
0
 62
     0
 10
204.49460079310001
 20
-254.54330974090001
 30
0.0
 11
254.7189851009
 21
-254.54330974090001
 31
0.0
  0
LINE
  5
51C
  8
0
 62
     0
 10
204.49460079310001
 20
-56.5433097409
 30
0.0
 11
254.7189851009
 21
-56.5433097409
 31
0.0
  0
LINE
  5
51D
  8
0
 62
     0
 10
253.7189851009
 20
-254.54330974090001
 30
0.0
 11
253.7189851009
 21
-140.99122672550001
 31
0.0
  0
LINE
  5
51E
  8
0
 62
     0
 10
253.7189851009
 20
-254.54330974090001
 30
0.0
 11
253.7189851009
 21
-170.0953927564
 31
0.0
  0
LINE
  5
51F
  8
0
 62
     0
 10
253.7189851009
 20
-56.5433097409
 30
0.0
 11
253.7189851009
 21
-140.99122672550001
 31
0.0
  0
LINE
  5
520
  8
0
 62
     0
 10
253.7189851009
 20
-56.5433097409
 30
0.0
 11
253.7189851009
 21
-170.0953927564
 31
0.0
  0
LINE
  5
521
  8
0
 62
     0
 10
253.7189851009
 20
-56.5433097409
 30
0.0
 11
253.7189851009
 21
-61.5433097409
 31
0.0
  0
SOLID
  5
522
  8
0
 62
     0
 10
253.7189851009
 20
-56.5433097409
 30
0.0
 11
255.9689851009
 21
-65.543309740899986
 31
0.0
 12
251.4689851009
 22
-65.543309740899986
 32
0.0
 13
253.7189851009
 23
-63.2933097409
 33
0.0
  0
LINE
  5
523
  8
0
 62
     0
 10
253.7189851009
 20
-254.54330974090001
 30
0.0
 11
253.7189851009
 21
-249.54330974090001
 31
0.0
  0
SOLID
  5
524
  8
0
 62
     0
 10
253.7189851009
 20
-254.54330974090001
 30
0.0
 11
251.4689851009
 21
-245.54330974090001
 31
0.0
 12
255.9689851009
 22
-245.54330974090001
 32
0.0
 13
253.7189851009
 23
-247.79330974090001
 33
0.0
  0
ENDBLK
  5
525
  8
0
  0
BLOCK
  8
0
  2
*D39
 70
     1
 10
0.0
 20
0.0
 30
0.0
  3
*D39
  1

  0
TEXT
  5
529
  8
0
 62
     0
 10
234.32072326779999
 20
-164.2745595502
 30
0.0
 40
9.8954164504999991
  1
180
 50
90.0
  0
LINE
  5
52A
  8
0
 62
     0
 10
195.49460079310001
 20
-245.54330974090001
 30
0.0
 11
238.06697322959999
 21
-245.54330974090001
 31
0.0
  0
LINE
  5
52B
  8
0
 62
     0
 10
195.49460079310001
 20
-65.543309740899986
 30
0.0
 11
238.06697322959999
 21
-65.543309740899986
 31
0.0
  0
LINE
  5
52C
  8
0
 62
     0
 10
237.06697322959999
 20
-245.54330974090001
 30
0.0
 11
237.06697322959999
 21
-140.99122672550001
 31
0.0
  0
LINE
  5
52D
  8
0
 62
     0
 10
237.06697322959999
 20
-245.54330974090001
 30
0.0
 11
237.06697322959999
 21
-170.0953927564
 31
0.0
  0
LINE
  5
52E
  8
0
 62
     0
 10
237.06697322959999
 20
-65.543309740899986
 30
0.0
 11
237.06697322959999
 21
-140.99122672550001
 31
0.0
  0
LINE
  5
52F
  8
0
 62
     0
 10
237.06697322959999
 20
-65.543309740899986
 30
0.0
 11
237.06697322959999
 21
-170.0953927564
 31
0.0
  0
LINE
  5
530
  8
0
 62
     0
 10
237.06697322959999
 20
-65.543309740899986
 30
0.0
 11
237.06697322959999
 21
-70.543309740899986
 31
0.0
  0
SOLID
  5
531
  8
0
 62
     0
 10
237.06697322959999
 20
-65.543309740899986
 30
0.0
 11
239.31697322959999
 21
-74.5433097409
 31
0.0
 12
234.81697322959999
 22
-74.5433097409
 32
0.0
 13
237.06697322959999
 23
-72.2933097409
 33
0.0
  0
LINE
  5
532
  8
0
 62
     0
 10
237.06697322959999
 20
-245.54330974090001
 30
0.0
 11
237.06697322959999
 21
-240.54330974090001
 31
0.0
  0
SOLID
  5
533
  8
0
 62
     0
 10
237.06697322959999
 20
-245.54330974090001
 30
0.0
 11
234.81697322959999
 21
-236.54330974090001
 31
0.0
 12
239.31697322959999
 22
-236.54330974090001
 32
0.0
 13
237.06697322959999
 23
-238.79330974090001
 33
0.0
  0
ENDBLK
  5
534
  8
0
  0
BLOCK
  8
0
  2
*D40
 70
     1
 10
0.0
 20
0.0
 30
0.0
  3
*D40
  1

  0
TEXT
  5
53F
  8
0
 62
     0
 10
361.0171404413
 20
-164.2745595502
 30
0.0
 40
9.8954164504999991
  1
167
 50
90.0
  0
LINE
  5
540
  8
0
 62
     0
 10
341.03808866060001
 20
-239.04330974090001
 30
0.0
 11
364.76339040319999
 21
-239.04330974090001
 31
0.0
  0
LINE
  5
541
  8
0
 62
     0
 10
341.03808866060001
 20
-72.0433097409
 30
0.0
 11
364.76339040319999
 21
-72.0433097409
 31
0.0
  0
LINE
  5
542
  8
0
 62
     0
 10
363.76339040319999
 20
-239.04330974090001
 30
0.0
 11
363.76339040319999
 21
-140.99122672550001
 31
0.0
  0
LINE
  5
543
  8
0
 62
     0
 10
363.76339040319999
 20
-239.04330974090001
 30
0.0
 11
363.76339040319999
 21
-170.0953927564
 31
0.0
  0
LINE
  5
544
  8
0
 62
     0
 10
363.76339040319999
 20
-72.0433097409
 30
0.0
 11
363.76339040319999
 21
-140.99122672550001
 31
0.0
  0
LINE
  5
545
  8
0
 62
     0
 10
363.76339040319999
 20
-72.0433097409
 30
0.0
 11
363.76339040319999
 21
-170.0953927564
 31
0.0
  0
LINE
  5
546
  8
0
 62
     0
 10
363.76339040319999
 20
-72.0433097409
 30
0.0
 11
363.76339040319999
 21
-77.0433097409
 31
0.0
  0
SOLID
  5
547
  8
0
 62
     0
 10
363.76339040319999
 20
-72.0433097409
 30
0.0
 11
366.01339040319999
 21
-81.0433097409
 31
0.0
 12
361.51339040319999
 22
-81.0433097409
 32
0.0
 13
363.76339040319999
 23
-78.7933097409
 33
0.0
  0
LINE
  5
548
  8
0
 62
     0
 10
363.76339040319999
 20
-239.04330974090001
 30
0.0
 11
363.76339040319999
 21
-234.04330974090001
 31
0.0
  0
SOLID
  5
549
  8
0
 62
     0
 10
363.76339040319999
 20
-239.04330974090001
 30
0.0
 11
361.51339040319999
 21
-230.04330974090001
 31
0.0
 12
366.01339040319999
 22
-230.04330974090001
 32
0.0
 13
363.76339040319999
 23
-232.29330974090001
 33
0.0
  0
ENDBLK
  5
54A
  8
0
  0
BLOCK
  8
0
  2
*D41
 70
     1
 10
0.0
 20
0.0
 30
0.0
  3
*D41
  1

  0
TEXT
  5
54E
  8
0
 62
     0
 10
475.82970427699991
 20
-164.2745595502
 30
0.0
 40
9.8954164504999991
  1
170
 50
90.0
  0
LINE
  5
54F
  8
0
 62
     0
 10
458.16104296869997
 20
-240.54283838680001
 30
0.0
 11
479.5759542388999
 21
-240.54283838680001
 31
0.0
  0
LINE
  5
550
  8
0
 62
     0
 10
458.16104296869997
 20
-70.543781095100002
 30
0.0
 11
479.5759542388999
 21
-70.543781095100002
 31
0.0
  0
LINE
  5
551
  8
0
 62
     0
 10
478.57595423890001
 20
-240.54283838680001
 30
0.0
 11
478.57595423890001
 21
-140.99122672550001
 31
0.0
  0
LINE
  5
552
  8
0
 62
     0
 10
478.57595423890001
 20
-240.54283838680001
 30
0.0
 11
478.57595423890001
 21
-170.0953927564
 31
0.0
  0
LINE
  5
553
  8
0
 62
     0
 10
478.57595423890001
 20
-70.543781095100002
 30
0.0
 11
478.57595423890001
 21
-140.99122672550001
 31
0.0
  0
LINE
  5
554
  8
0
 62
     0
 10
478.57595423890001
 20
-70.543781095100002
 30
0.0
 11
478.57595423890001
 21
-170.0953927564
 31
0.0
  0
LINE
  5
555
  8
0
 62
     0
 10
478.57595423890001
 20
-70.543781095100002
 30
0.0
 11
478.57595423890001
 21
-75.543781095100002
 31
0.0
  0
SOLID
  5
556
  8
0
 62
     0
 10
478.57595423890001
 20
-70.543781095100002
 30
0.0
 11
480.8259542388999
 21
-79.543781095100002
 31
0.0
 12
476.32595423890001
 22
-79.543781095100002
 32
0.0
 13
478.57595423890001
 23
-77.293781095100002
 33
0.0
  0
LINE
  5
557
  8
0
 62
     0
 10
478.57595423890001
 20
-240.54283838680001
 30
0.0
 11
478.57595423890001
 21
-235.54283838680001
 31
0.0
  0
SOLID
  5
558
  8
0
 62
     0
 10
478.57595423890001
 20
-240.54283838680001
 30
0.0
 11
476.32595423890001
 21
-231.54283838680001
 31
0.0
 12
480.8259542388999
 22
-231.54283838680001
 32
0.0
 13
478.57595423890001
 23
-233.79283838680001
 33
0.0
  0
ENDBLK
  5
559
  8
0
  0
BLOCK
  8
0
  2
CLUMP4
 70
     0
 10
0.0
 20
0.0
 30
0.0
  3
CLUMP4
  1

  0
LINE
  5
563
  8
É}ÿg
 10
289.993961738
 20
-633.93853650239998
 30
0.0
 11
289.993961738
 21
-618.93853650239998
 31
0.0
  0
LINE
  5
564
  8
É}ÿg
 10
112.993961738
 20
-633.93853650239998
 30
0.0
 11
112.993961738
 21
-618.93853650239998
 31
0.0
  0
LINE
  5
565
  8
É}ÿg
 10
139.993961738
 20
-633.93853650239998
 30
0.0
 11
139.993961738
 21
-618.93853650239998
 31
0.0
  0
LINE
  5
566
  8
É}ÿg
 10
454.993961738
 20
-633.93853650239998
 30
0.0
 11
454.993961738
 21
-618.93853650239998
 31
0.0
  0
LINE
  5
567
  8
É}ÿg
 10
427.99396173800011
 20
-633.93853650239998
 30
0.0
 11
427.99396173800011
 21
-618.93853650239998
 31
0.0
  0
LINE
  5
568
  8
É}ÿg
 10
547.99396173800005
 20
-618.93853650239998
 30
0.0
 11
112.993961738
 21
-618.93853650239998
 31
0.0
  0
ENDBLK
  5
569
  8
0
  0
BLOCK
  8
0
  2
CLUMP5
 70
     0
 10
0.0
 20
0.0
 30
0.0
  3
CLUMP5
  1

  0
LINE
  5
56D
  8
É}ÿg
 10
289.993961738
 20
-648.93853650239987
 30
0.0
 11
289.993961738
 21
-633.93853650239998
 31
0.0
  0
LINE
  5
56E
  8
É}ÿg
 10
112.993961738
 20
-648.93853650239987
 30
0.0
 11
112.993961738
 21
-633.93853650239998
 31
0.0
  0
LINE
  5
56F
  8
É}ÿg
 10
139.993961738
 20
-648.93853650239987
 30
0.0
 11
139.993961738
 21
-633.93853650239998
 31
0.0
  0
LINE
  5
570
  8
É}ÿg
 10
454.993961738
 20
-648.93853650239987
 30
0.0
 11
454.993961738
 21
-633.93853650239998
 31
0.0
  0
LINE
  5
571
  8
É}ÿg
 10
427.99396173800011
 20
-648.93853650239987
 30
0.0
 11
427.99396173800011
 21
-633.93853650239998
 31
0.0
  0
LINE
  5
572
  8
É}ÿg
 10
547.99396173800005
 20
-633.93853650239998
 30
0.0
 11
112.993961738
 21
-633.93853650239998
 31
0.0
  0
ENDBLK
  5
573
  8
0
  0
BLOCK
  8
0
  2
CLUMP6
 70
     0
 10
0.0
 20
0.0
 30
0.0
  3
CLUMP6
  1

  0
LINE
  5
577
  8
É}ÿg
 10
289.993961738
 20
-618.93853650239998
 30
0.0
 11
289.993961738
 21
-603.93853650239987
 31
0.0
  0
LINE
  5
578
  8
É}ÿg
 10
112.993961738
 20
-618.93853650239998
 30
0.0
 11
112.993961738
 21
-603.93853650239987
 31
0.0
  0
LINE
  5
579
  8
É}ÿg
 10
139.993961738
 20
-618.93853650239998
 30
0.0
 11
139.993961738
 21
-603.93853650239987
 31
0.0
  0
LINE
  5
57A
  8
É}ÿg
 10
454.993961738
 20
-618.93853650239998
 30
0.0
 11
454.993961738
 21
-603.93853650239987
 31
0.0
  0
LINE
  5
57B
  8
É}ÿg
 10
427.99396173800011
 20
-618.93853650239998
 30
0.0
 11
427.99396173800011
 21
-603.93853650239987
 31
0.0
  0
LINE
  5
57C
  8
É}ÿg
 10
547.99396173800005
 20
-603.93853650239987
 30
0.0
 11
112.993961738
 21
-603.93853650239987
 31
0.0
  0
ENDBLK
  5
57D
  8
0
  0
BLOCK
  8
0
  2
*D45
 70
     1
 10
0.0
 20
0.0
 30
0.0
  3
*D45
  1

  0
TEXT
  5
587
  8
0
 62
     0
 10
-641.87255164470002
 20
-581.78577209779996
 30
0.0
 40
9.8954164504999991
  1
2-%%c15
 50
37.562827860399999
  0
LINE
  5
588
  8
0
 62
     0
 10
-579.87892833379999
 20
-539.24852391059994
 30
0.0
 11
-639.38855931820001
 21
-585.01563443809994
 31
0.0
  0
SOLID
  5
589
  8
0
 62
     0
 10
-579.87892833379999
 20
-539.24852391059994
 30
0.0
 11
-585.64142646419987
 21
-546.5187450418
 31
0.0
 12
-588.38476604000004
 22
-542.95166108260003
 32
0.0
 13
-585.22955427249985
 23
-543.36353327430004
 33
0.0
  0
ENDBLK
  5
58A
  8
0
  0
BLOCK
  8
0
  2
*D46
 70
     1
 10
0.0
 20
0.0
 30
0.0
  3
*D46
  1

  0
TEXT
  5
58E
  8
0
 62
     0
 10
-458.4222265244
 20
-574.7879712985
 30
0.0
 40
9.8954164504999991
  1
7
 50
90.0
  0
LINE
  5
58F
  8
0
 62
     0
 10
-478.6759765624999
 20
-575.37755469540002
 30
0.0
 11
-454.67597656250001
 21
-575.37755469540002
 31
0.0
  0
LINE
  5
590
  8
0
 62
     0
 10
-478.6759765624999
 20
-568.37755469540002
 30
0.0
 11
-454.67597656250001
 21
-568.37755469540002
 31
0.0
  0
LINE
  5
591
  8
0
 62
     0
 10
-455.67597656250001
 20
-575.37755469540002
 30
0.0
 11
-455.67597656250001
 21
-575.37755469540002
 31
0.0
  0
LINE
  5
592
  8
0
 62
     0
 10
-455.67597656250001
 20
-575.37755469540002
 30
0.0
 11
-455.67597656250001
 21
-568.37755469540002
 31
0.0
  0
LINE
  5
593
  8
0
 62
     0
 10
-455.67597656250001
 20
-568.37755469540002
 30
0.0
 11
-455.67597656250001
 21
-575.37755469540002
 31
0.0
  0
LINE
  5
594
  8
0
 62
     0
 10
-455.67597656250001
 20
-568.37755469540002
 30
0.0
 11
-455.67597656250001
 21
-568.37755469540002
 31
0.0
  0
LINE
  5
595
  8
0
 62
     0
 10
-455.67597656250001
 20
-568.37755469540002
 30
0.0
 11
-455.67597656250001
 21
-563.37755469540002
 31
0.0
  0
SOLID
  5
596
  8
0
 62
     0
 10
-455.67597656250001
 20
-568.37755469540002
 30
0.0
 11
-457.92597656250001
 21
-559.37755469540002
 31
0.0
 12
-453.42597656250001
 22
-559.37755469540002
 32
0.0
 13
-455.67597656250001
 23
-561.62755469540002
 33
0.0
  0
LINE
  5
597
  8
0
 62
     0
 10
-455.67597656250001
 20
-575.37755469540002
 30
0.0
 11
-455.67597656250001
 21
-580.37755469540002
 31
0.0
  0
SOLID
  5
598
  8
0
 62
     0
 10
-455.67597656250001
 20
-575.37755469540002
 30
0.0
 11
-453.42597656250001
 21
-584.37755469540002
 31
0.0
 12
-457.92597656250001
 22
-584.37755469540002
 32
0.0
 13
-455.67597656250001
 23
-582.12755469540002
 33
0.0
  0
ENDBLK
  5
599
  8
0
  0
BLOCK
  8
0
  2
*D47
 70
     1
 10
0.0
 20
0.0
 30
0.0
  3
*D47
  1

  0
TEXT
  5
5A0
  8
0
 62
     0
 10
-86.922226524399989
 20
-585.19838790160009
 30
0.0
 40
9.8954164504999991
  1
15
 50
90.0
  0
LINE
  5
5A1
  8
0
 62
     0
 10
-127.1759765625
 20
-586.87755469540002
 30
0.0
 11
-83.175976562499983
 21
-586.87755469540002
 31
0.0
  0
LINE
  5
5A2
  8
0
 62
     0
 10
-127.1759765625
 20
-571.87755469540002
 30
0.0
 11
-83.175976562499983
 21
-571.87755469540002
 31
0.0
  0
LINE
  5
5A3
  8
0
 62
     0
 10
-84.175976562499997
 20
-586.87755469540002
 30
0.0
 11
-84.175976562499997
 21
-586.87755469540002
 31
0.0
  0
LINE
  5
5A4
  8
0
 62
     0
 10
-84.175976562499997
 20
-586.87755469540002
 30
0.0
 11
-84.175976562499997
 21
-571.87755469540002
 31
0.0
  0
LINE
  5
5A5
  8
0
 62
     0
 10
-84.175976562499997
 20
-571.87755469540002
 30
0.0
 11
-84.175976562499997
 21
-586.87755469540002
 31
0.0
  0
LINE
  5
5A6
  8
0
 62
     0
 10
-84.175976562499997
 20
-571.87755469540002
 30
0.0
 11
-84.175976562499997
 21
-571.87755469540002
 31
0.0
  0
LINE
  5
5A7
  8
0
 62
     0
 10
-84.175976562499997
 20
-571.87755469540002
 30
0.0
 11
-84.175976562499997
 21
-566.87755469540002
 31
0.0
  0
SOLID
  5
5A8
  8
0
 62
     0
 10
-84.175976562499997
 20
-571.87755469540002
 30
0.0
 11
-86.425976562499997
 21
-562.87755469540002
 31
0.0
 12
-81.925976562499983
 22
-562.87755469540002
 32
0.0
 13
-84.175976562499997
 23
-565.12755469540002
 33
0.0
  0
LINE
  5
5A9
  8
0
 62
     0
 10
-84.175976562499997
 20
-586.87755469540002
 30
0.0
 11
-84.175976562499997
 21
-591.87755469540002
 31
0.0
  0
SOLID
  5
5AA
  8
0
 62
     0
 10
-84.175976562499997
 20
-586.87755469540002
 30
0.0
 11
-81.925976562499983
 21
-595.87755469540002
 31
0.0
 12
-86.425976562499997
 22
-595.87755469540002
 32
0.0
 13
-84.175976562499997
 23
-593.62755469540002
 33
0.0
  0
ENDBLK
  5
5AB
  8
0
  0
BLOCK
  8
0
  2
*D48
 70
     1
 10
0.0
 20
0.0
 30
0.0
  3
*D48
  1

  0
TEXT
  5
5AF
  8
0
 62
     0
 10
-86.922226524399989
 20
-562.69838790160009
 30
0.0
 40
9.8954164504999991
  1
30
 50
90.0
  0
LINE
  5
5B0
  8
0
 62
     0
 10
-127.1759765625
 20
-571.87755469540002
 30
0.0
 11
-83.175976562499983
 21
-571.87755469540002
 31
0.0
  0
LINE
  5
5B1
  8
0
 62
     0
 10
-170.67597656250001
 20
-541.87755469540002
 30
0.0
 11
-83.175976562499983
 21
-541.87755469540002
 31
0.0
  0
LINE
  5
5B2
  8
0
 62
     0
 10
-84.175976562499997
 20
-571.87755469540002
 30
0.0
 11
-84.175976562499997
 21
-545.23588828309994
 31
0.0
  0
LINE
  5
5B3
  8
0
 62
     0
 10
-84.175976562499997
 20
-571.87755469540002
 30
0.0
 11
-84.175976562499997
 21
-568.51922110780004
 31
0.0
  0
LINE
  5
5B4
  8
0
 62
     0
 10
-84.175976562499997
 20
-541.87755469540002
 30
0.0
 11
-84.175976562499997
 21
-545.23588828309994
 31
0.0
  0
LINE
  5
5B5
  8
0
 62
     0
 10
-84.175976562499997
 20
-541.87755469540002
 30
0.0
 11
-84.175976562499997
 21
-568.51922110780004
 31
0.0
  0
LINE
  5
5B6
  8
0
 62
     0
 10
-84.175976562499997
 20
-541.87755469540002
 30
0.0
 11
-84.175976562499997
 21
-536.87755469540002
 31
0.0
  0
SOLID
  5
5B7
  8
0
 62
     0
 10
-84.175976562499997
 20
-541.87755469540002
 30
0.0
 11
-86.425976562499997
 21
-532.87755469540002
 31
0.0
 12
-81.925976562499983
 22
-532.87755469540002
 32
0.0
 13
-84.175976562499997
 23
-535.12755469540002
 33
0.0
  0
LINE
  5
5B8
  8
0
 62
     0
 10
-84.175976562499997
 20
-571.87755469540002
 30
0.0
 11
-84.175976562499997
 21
-576.87755469540002
 31
0.0
  0
SOLID
  5
5B9
  8
0
 62
     0
 10
-84.175976562499997
 20
-571.87755469540002
 30
0.0
 11
-81.925976562499983
 21
-580.87755469540002
 31
0.0
 12
-86.425976562499997
 22
-580.87755469540002
 32
0.0
 13
-84.175976562499997
 23
-578.62755469540002
 33
0.0
  0
ENDBLK
  5
5BA
  8
0
  0
BLOCK
  8
0
  2
*D49
 70
     1
 10
0.0
 20
0.0
 30
0.0
  3
*D49
  1

  0
TEXT
  5
5BE
  8
0
 62
     0
 10
-67.457279777500005
 20
-543.10876283800008
 30
0.0
 40
9.8954164504999991
  1
179
 50
90.0
  0
LINE
  5
5BF
  8
0
 62
     0
 10
-113.1759765625
 20
-623.87751302879985
 30
0.0
 11
-63.711029815699987
 21
-623.87751302879985
 31
0.0
  0
LINE
  5
5C0
  8
0
 62
     0
 10
-113.1759765625
 20
-444.87751302879991
 30
0.0
 11
-63.711029815699987
 21
-444.87751302879991
 31
0.0
  0
LINE
  5
5C1
  8
0
 62
     0
 10
-64.711029815700002
 20
-623.87751302879985
 30
0.0
 11
-64.711029815700002
 21
-519.82543001329987
 31
0.0
  0
LINE
  5
5C2
  8
0
 62
     0
 10
-64.711029815700002
 20
-623.87751302879985
 30
0.0
 11
-64.711029815700002
 21
-548.92959604419991
 31
0.0
  0
LINE
  5
5C3
  8
0
 62
     0
 10
-64.711029815700002
 20
-444.87751302879991
 30
0.0
 11
-64.711029815700002
 21
-519.82543001329987
 31
0.0
  0
LINE
  5
5C4
  8
0
 62
     0
 10
-64.711029815700002
 20
-444.87751302879991
 30
0.0
 11
-64.711029815700002
 21
-548.92959604419991
 31
0.0
  0
LINE
  5
5C5
  8
0
 62
     0
 10
-64.711029815700002
 20
-444.87751302879991
 30
0.0
 11
-64.711029815700002
 21
-449.87751302880002
 31
0.0
  0
SOLID
  5
5C6
  8
0
 62
     0
 10
-64.711029815700002
 20
-444.87751302879991
 30
0.0
 11
-62.461029815699987
 21
-453.87751302880002
 31
0.0
 12
-66.961029815700002
 22
-453.87751302880002
 32
0.0
 13
-64.711029815700002
 23
-451.62751302880002
 33
0.0
  0
LINE
  5
5C7
  8
0
 62
     0
 10
-64.711029815700002
 20
-623.87751302879985
 30
0.0
 11
-64.711029815700002
 21
-618.87751302879985
 31
0.0
  0
SOLID
  5
5C8
  8
0
 62
     0
 10
-64.711029815700002
 20
-623.87751302879985
 30
0.0
 11
-66.961029815700002
 21
-614.87751302879985
 31
0.0
 12
-62.461029815699987
 22
-614.87751302879985
 32
0.0
 13
-64.711029815700002
 23
-617.12751302879985
 33
0.0
  0
ENDBLK
  5
5C9
  8
0
  0
BLOCK
  8
0
  2
*D50
 70
     1
 10
0.0
 20
0.0
 30
0.0
  3
*D50
  1

  0
TEXT
  5
5D7
  8
0
 62
     0
 10
-362.49680976870002
 20
-649.13126277189997
 30
0.0
 40
9.8954164504999991
  1
87
  0
LINE
  5
5D8
  8
0
 62
     0
 10
-400.17597656250001
 20
-606.37755469540002
 30
0.0
 11
-400.17597656250001
 21
-652.87751273380002
 31
0.0
  0
LINE
  5
5D9
  8
0
 62
     0
 10
-313.17597656250001
 20
-606.37755469540002
 30
0.0
 11
-313.17597656250001
 21
-652.87751273380002
 31
0.0
  0
LINE
  5
5DA
  8
0
 62
     0
 10
-400.17597656250001
 20
-651.87751273380002
 30
0.0
 11
-345.0343101501
 21
-651.87751273380002
 31
0.0
  0
LINE
  5
5DB
  8
0
 62
     0
 10
-400.17597656250001
 20
-651.87751273380002
 30
0.0
 11
-368.31764297490002
 21
-651.87751273380002
 31
0.0
  0
LINE
  5
5DC
  8
0
 62
     0
 10
-313.17597656250001
 20
-651.87751273380002
 30
0.0
 11
-345.0343101501
 21
-651.87751273380002
 31
0.0
  0
LINE
  5
5DD
  8
0
 62
     0
 10
-313.17597656250001
 20
-651.87751273380002
 30
0.0
 11
-368.31764297490002
 21
-651.87751273380002
 31
0.0
  0
LINE
  5
5DE
  8
0
 62
     0
 10
-313.17597656250001
 20
-651.87751273380002
 30
0.0
 11
-318.17597656250001
 21
-651.87751273380002
 31
0.0
  0
SOLID
  5
5DF
  8
0
 62
     0
 10
-313.17597656250001
 20
-651.87751273380002
 30
0.0
 11
-322.17597656250001
 21
-654.12751273380002
 31
0.0
 12
-322.17597656250001
 22
-649.62751273380002
 32
0.0
 13
-319.92597656250001
 23
-651.87751273380002
 33
0.0
  0
LINE
  5
5E0
  8
0
 62
     0
 10
-400.17597656250001
 20
-651.87751273380002
 30
0.0
 11
-395.17597656250001
 21
-651.87751273380002
 31
0.0
  0
SOLID
  5
5E1
  8
0
 62
     0
 10
-400.17597656250001
 20
-651.87751273380002
 30
0.0
 11
-391.17597656250001
 21
-649.62751273380002
 31
0.0
 12
-391.17597656250001
 22
-654.12751273380002
 32
0.0
 13
-393.42597656250001
 23
-651.87751273380002
 33
0.0
  0
ENDBLK
  5
5E2
  8
0
  0
BLOCK
  8
0
  2
*D51
 70
     1
 10
0.0
 20
0.0
 30
0.0
  3
*D51
  1

  0
TEXT
  5
5E6
  8
0
 62
     0
 10
-365.40722637179999
 20
-414.13126306689998
 30
0.0
 40
9.8954164504999991
  1
489
  0
LINE
  5
5E7
  8
0
 62
     0
 10
-112.1759765625
 20
-445.87751302880002
 30
0.0
 11
-112.1759765625
 21
-415.87751302879991
 31
0.0
  0
LINE
  5
5E8
  8
0
 62
     0
 10
-601.17597656249995
 20
-445.87751302880002
 30
0.0
 11
-601.17597656249995
 21
-415.87751302879991
 31
0.0
  0
LINE
  5
5E9
  8
0
 62
     0
 10
-112.1759765625
 20
-416.87751302880002
 30
0.0
 11
-342.12389354710001
 21
-416.87751302880002
 31
0.0
  0
LINE
  5
5EA
  8
0
 62
     0
 10
-112.1759765625
 20
-416.87751302880002
 30
0.0
 11
-371.22805957790001
 21
-416.87751302880002
 31
0.0
  0
LINE
  5
5EB
  8
0
 62
     0
 10
-601.17597656249995
 20
-416.87751302880002
 30
0.0
 11
-342.12389354710001
 21
-416.87751302880002
 31
0.0
  0
LINE
  5
5EC
  8
0
 62
     0
 10
-601.17597656249995
 20
-416.87751302880002
 30
0.0
 11
-371.22805957790001
 21
-416.87751302880002
 31
0.0
  0
LINE
  5
5ED
  8
0
 62
     0
 10
-601.17597656249995
 20
-416.87751302880002
 30
0.0
 11
-596.17597656249995
 21
-416.87751302880002
 31
0.0
  0
SOLID
  5
5EE
  8
0
 62
     0
 10
-601.17597656249995
 20
-416.87751302880002
 30
0.0
 11
-592.17597656249995
 21
-414.62751302880002
 31
0.0
 12
-592.17597656249995
 22
-419.12751302880002
 32
0.0
 13
-594.42597656249995
 23
-416.87751302880002
 33
0.0
  0
LINE
  5
5EF
  8
0
 62
     0
 10
-112.1759765625
 20
-416.87751302880002
 30
0.0
 11
-117.1759765625
 21
-416.87751302880002
 31
0.0
  0
SOLID
  5
5F0
  8
0
 62
     0
 10
-112.1759765625
 20
-416.87751302880002
 30
0.0
 11
-121.1759765625
 21
-419.12751302880002
 31
0.0
 12
-121.1759765625
 22
-414.62751302880002
 32
0.0
 13
-118.9259765625
 23
-416.87751302880002
 33
0.0
  0
ENDBLK
  5
5F1
  8
0
  0
BLOCK
  8
0
  2
CLUMP7
 70
     0
 10
0.0
 20
0.0
 30
0.0
  3
CLUMP7
  1

  0
LINE
  5
607
  8
É}ÿg
 10
287.9577193847
 20
-755.20851760179994
 30
0.0
 11
290.9577193847
 21
-750.70851760179994
 31
0.0
  0
LINE
  5
608
  8
É}ÿg
 10
243.97590120289999
 20
-750.70851760179994
 30
0.0
 11
243.97590120289999
 21
-756.70851760179994
 31
0.0
  0
LINE
  5
609
  8
É}ÿg
 10
315.15699013519998
 20
-761.20851760179994
 30
0.0
 11
324.61016732960002
 21
-761.20851760179994
 31
0.0
  0
LINE
  5
60A
  8
É}ÿg
 10
263.9577193847
 20
-771.70851760179994
 30
0.0
 11
271.4577193847
 21
-771.70851760179994
 31
0.0
  0
LINE
  5
60B
  8
É}ÿg
 10
263.9577193847
 20
-757.67484840420002
 30
0.0
 11
275.9577193847
 21
-757.67484840420002
 31
0.0
  0
INSERT
  5
60C
  8
0
  6
CONTINUOUS
  2
*U89
 10
0.0
 20
0.0
 30
0.0
  0
LINE
  5
60D
  8
É}ÿg
 62
     5
 10
337.993961738
 20
17.061463497599998
 30
0.0
 11
337.993961738
 21
62.061463497600002
 31
0.0
  0
LINE
  5
60E
  8
É}ÿg
 62
     5
 10
487.993961738
 20
17.061463497599998
 30
0.0
 11
487.993961738
 21
62.061463497600002
 31
0.0
  0
LINE
  5
60F
  8
É}ÿg
 62
     5
 10
289.993961738
 20
17.061463497599998
 30
0.0
 11
289.993961738
 21
62.061463497600002
 31
0.0
  0
LINE
  5
610
  8
É}ÿg
 62
     5
 10
269.71610557989999
 20
33.353838750599998
 30
0.0
 11
284.56610557990001
 21
33.353838750599998
 31
0.0
  0
LINE
  5
611
  8
É}ÿg
 62
     5
 10
277.1411055799
 20
31.364315996799998
 30
0.0
 11
284.56610557990001
 21
18.5038387506
 31
0.0
  0
LINE
  5
612
  8
É}ÿg
 62
     5
 10
265.993961738
 20
17.061463497599998
 30
0.0
 11
265.993961738
 21
62.061463497600002
 31
0.0
  0
LINE
  5
613
  8
É}ÿg
 62
     5
 10
517.99396173800005
 20
17.061463497599998
 30
0.0
 11
517.99396173800005
 21
62.061463497600002
 31
0.0
  0
LINE
  5
614
  8
É}ÿg
 62
     5
 10
265.993961738
 20
47.061463497600002
 30
0.0
 11
547.99396173800005
 21
47.061463497600002
 31
0.0
  0
LINE
  5
615
  8
É}ÿg
 62
     5
 10
265.993961738
 20
32.061463497600002
 30
0.0
 11
547.99396173800005
 21
32.061463497600002
 31
0.0
  0
LINE
  5
616
  8
É}ÿg
 62
     5
 10
265.993961738
 20
17.061463497599998
 30
0.0
 11
547.99396173800005
 21
17.061463497599998
 31
0.0
  0
INSERT
  5
617
  8
0
  6
CONTINUOUS
  2
*U90
 10
0.0
 20
0.0
 30
0.0
  0
LINE
  5
618
  8
É}ÿg
 62
     5
 10
-652.00603826199995
 20
-777.93853650239998
 30
0.0
 11
-652.00603826199995
 21
62.061463497600002
 31
0.0
  0
LINE
  5
619
  8
É}ÿg
 62
     5
 10
-652.00603826199995
 20
-777.93853650239998
 30
0.0
 11
547.99396173800005
 21
-777.93853650239998
 31
0.0
  0
LINE
  5
61A
  8
É}ÿg
 62
     5
 10
547.99396173800005
 20
62.061463497600002
 30
0.0
 11
-652.00603826199995
 21
62.061463497600002
 31
0.0
  0
LINE
  5
61B
  8
É}ÿg
 62
     5
 10
547.99396173800005
 20
-777.93853650239998
 30
0.0
 11
547.99396173800005
 21
62.061463497600002
 31
0.0
  0
LINE
  5
61C
  8
É}ÿg
 10
263.9577193847
 20
-758.64117920670003
 30
0.0
 11
263.9577193847
 21
-757.67484840420002
 31
0.0
  0
LINE
  5
61D
  8
É}ÿg
 10
227.02258976819999
 20
-756.70851760179994
 30
0.0
 11
227.02258976819999
 21
-761.20851760179994
 31
0.0
  0
LINE
  5
61E
  8
É}ÿg
 62
     5
 10
277.1411055799
 20
46.214315996800003
 30
0.0
 11
284.56610557990001
 21
33.353838750599998
 31
0.0
  0
LINE
  5
61F
  8
É}ÿg
 62
     5
 10
277.1411055799
 20
31.364315996799998
 30
0.0
 11
269.71610557989999
 21
18.5038387506
 31
0.0
  0
INSERT
  5
620
  8
0
  6
CONTINUOUS
  2
*U91
 10
0.0
 20
0.0
 30
0.0
  0
LINE
  5
621
  8
É}ÿg
  6
DOT
 10
-666.946038262
 20
-790.62853650240004
 30
0.0
 11
-666.946038262
 21
74.7514634976
 31
0.0
  0
LINE
  5
622
  8
É}ÿg
  6
DOT
 10
562.93396173799999
 20
-790.62853650240004
 30
0.0
 11
562.93396173799999
 21
74.7514634976
 31
0.0
  0
LINE
  5
623
  8
É}ÿg
  6
DOT
 10
-666.946038262
 20
-790.62853650240004
 30
0.0
 11
562.93396173799999
 21
-790.62853650240004
 31
0.0
  0
LINE
  5
624
  8
É}ÿg
 10
237.97590120289999
 20
-765.70851760179994
 30
0.0
 11
237.97590120289999
 21
-761.20851760179994
 31
0.0
  0
LINE
  5
625
  8
É}ÿg
  6
DOT
 10
562.93396173799999
 20
74.7514634976
 30
0.0
 11
-666.946038262
 21
74.7514634976
 31
0.0
  0
LINE
  5
626
  8
É}ÿg
 10
230.47590120289999
 20
-761.20851760179994
 30
0.0
 11
230.47590120289999
 21
-765.70851760179994
 31
0.0
  0
LINE
  5
627
  8
É}ÿg
 10
251.47590120289999
 20
-755.20851760179994
 30
0.0
 11
255.97590120289999
 21
-750.70851760179994
 31
0.0
  0
LINE
  5
628
  8
É}ÿg
 10
307.39416732960001
 20
-763.60851760179992
 30
0.0
 11
306.6901673296
 21
-761.20851760179994
 31
0.0
  0
LINE
  5
629
  8
É}ÿg
 10
237.97590120289999
 20
-756.70851760179994
 30
0.0
 11
237.97590120289999
 21
-755.20851760179994
 31
0.0
  0
LINE
  5
62A
  8
É}ÿg
 10
284.5458774409999
 20
-765.25591122869992
 30
0.0
 11
284.01157126160001
 21
-765.77904566130007
 31
0.0
  0
LINE
  5
62B
  8
É}ÿg
 10
287.9577193847
 20
-755.20851760179994
 30
0.0
 11
290.9577193847
 21
-750.70851760179994
 31
0.0
  0
LINE
  5
62C
  8
É}ÿg
 10
324.61016732960002
 20
-763.60851760179992
 30
0.0
 11
324.61016732960002
 21
-769.00851760179989
 31
0.0
  0
LINE
  5
62D
  8
É}ÿg
 10
290.9577193847
 20
-767.20851760179994
 30
0.0
 11
290.9577193847
 21
-771.70851760179994
 31
0.0
  0
LINE
  5
62E
  8
É}ÿg
 10
313.60306039770001
 20
-755.80851760179985
 30
0.0
 11
324.61016732960002
 21
-755.80851760179985
 31
0.0
  0
LINE
  5
62F
  8
É}ÿg
 10
313.60306039770001
 20
-755.80851760179985
 30
0.0
 11
313.16387764699999
 21
-754.28233093039978
 31
0.0
  0
LINE
  5
630
  8
É}ÿg
 10
290.9577193847
 20
-750.70851760179994
 30
0.0
 11
263.9577193847
 21
-750.70851760179994
 31
0.0
  0
INSERT
  5
631
  8
0
  6
CONTINUOUS
  2
*U92
 10
0.0
 20
0.0
 30
0.0
  0
LINE
  5
632
  8
É}ÿg
 10
310.21016732959998
 20
-773.20851760179994
 30
0.0
 11
308.97816732960001
 21
-769.00851760179989
 31
0.0
  0
LINE
  5
633
  8
É}ÿg
 10
239.47590120289999
 20
-767.20851760179994
 30
0.0
 11
230.47590120289999
 21
-767.20851760179994
 31
0.0
  0
LINE
  5
634
  8
É}ÿg
 10
263.9577193847
 20
-756.10851760179992
 30
0.0
 11
278.9577193847
 21
-756.10851760179992
 31
0.0
  0
LINE
  5
635
  8
É}ÿg
 10
304.65171427310003
 20
-691.83853650240007
 30
0.0
 11
319.0517142731
 21
-688.23853650240005
 31
0.0
  0
CIRCLE
  5
636
  8
É}ÿg
 10
288.19396173799998
 20
-695.4385365024001
 30
0.0
 40
7.2000000000000002
  0
INSERT
  5
637
  8
0
  6
CONTINUOUS
  2
*U93
 10
0.0
 20
0.0
 30
0.0
  0
LINE
  5
638
  8
É}ÿg
 10
237.97590120289999
 20
-761.20851760179994
 30
0.0
 11
243.97590120289999
 21
-761.20851760179994
 31
0.0
  0
LINE
  5
639
  8
É}ÿg
 10
297.61016732960002
 20
-761.20851760179994
 30
0.0
 11
306.6901673296
 21
-761.20851760179994
 31
0.0
  0
LINE
  5
63A
  8
É}ÿg
 10
255.97590120289999
 20
-756.70851760179994
 30
0.0
 11
251.47590120289999
 21
-756.70851760179994
 31
0.0
  0
LINE
  5
63B
  8
É}ÿg
 10
251.47590120289999
 20
-756.70851760179994
 30
0.0
 11
251.47590120289999
 21
-755.20851760179994
 31
0.0
  0
LINE
  5
63C
  8
É}ÿg
 10
297.61016732960002
 20
-755.80851760179985
 30
0.0
 11
305.1061673296
 21
-755.80851760179985
 31
0.0
  0
LINE
  5
63D
  8
É}ÿg
 10
313.16387764699999
 20
-754.28233093039978
 30
0.0
 11
315.61016732960002
 21
-750.70851760179994
 31
0.0
  0
LINE
  5
63E
  8
É}ÿg
 10
263.9577193847
 20
-771.70851760179994
 30
0.0
 11
263.9577193847
 21
-767.20851760179994
 31
0.0
  0
LINE
  5
63F
  8
É}ÿg
 10
337.993961738
 20
-678.93853650239987
 30
0.0
 11
337.993961738
 21
-777.93853650239998
 31
0.0
  0
INSERT
  5
640
  8
0
  6
CONTINUOUS
  2
*U94
 10
0.0
 20
0.0
 30
0.0
  0
INSERT
  5
641
  8
0
  6
CONTINUOUS
  2
*U95
 10
0.0
 20
0.0
 30
0.0
  0
INSERT
  5
642
  8
0
  6
CONTINUOUS
  2
*U96
 10
0.0
 20
0.0
 30
0.0
  0
LINE
  5
643
  8
É}ÿg
 62
     5
 10
269.71610557989999
 20
18.5038387506
 30
0.0
 11
284.56610557990001
 21
18.5038387506
 31
0.0
  0
LINE
  5
644
  8
É}ÿg
 10
227.02258976819999
 20
-761.20851760179994
 30
0.0
 11
230.02258976819999
 21
-761.20851760179994
 31
0.0
  0
ARC
  5
645
  8
É}ÿg
 10
271.4577193847
 20
-755.20851760179994
 30
0.0
 40
16.5
 50
322.48761197969998
 51
0.0
  0
LINE
  5
646
  8
É}ÿg
 10
230.47590120289999
 20
-771.70851760179994
 30
0.0
 11
242.47590120289999
 21
-771.70851760179994
 31
0.0
  0
LINE
  5
647
  8
É}ÿg
 10
297.61016732960002
 20
-769.00851760179989
 30
0.0
 11
308.97816732960001
 21
-769.00851760179989
 31
0.0
  0
ARC
  5
648
  8
É}ÿg
 10
239.47590120289999
 20
-762.70851760179994
 30
0.0
 40
4.5
 50
270.0
 51
0.0
  0
LINE
  5
649
  8
É}ÿg
 10
297.61016732960002
 20
-763.60851760179992
 30
0.0
 11
297.61016732960002
 21
-769.00851760179989
 31
0.0
  0
LINE
  5
64A
  8
É}ÿg
 10
230.47590120289999
 20
-765.70851760179994
 30
0.0
 11
237.97590120289999
 21
-765.70851760179994
 31
0.0
  0
LINE
  5
64B
  8
É}ÿg
 10
277.56665685979999
 20
-761.26573031709995
 30
0.0
 11
276.84486944079998
 21
-762.06294539880003
 31
0.0
  0
LINE
  5
64C
  8
É}ÿg
 10
318.61016732960002
 20
-773.20851760179994
 30
0.0
 11
310.21016732959998
 21
-773.20851760179994
 31
0.0
  0
LINE
  5
64D
  8
É}ÿg
 10
243.97590120289999
 20
-761.20851760179994
 30
0.0
 11
243.97590120289999
 21
-762.70851760179994
 31
0.0
  0
LINE
  5
64E
  8
É}ÿg
 10
547.99396173800005
 20
-678.93853650239987
 30
0.0
 11
112.993961738
 21
-678.93853650239987
 31
0.0
  0
LINE
  5
64F
  8
É}ÿg
 10
319.0517142731
 20
-688.23853650240005
 30
0.0
 11
319.0517142731
 21
-702.63853650240003
 31
0.0
  0
LINE
  5
650
  8
É}ÿg
 62
     5
 10
277.1411055799
 20
46.214315996800003
 30
0.0
 11
269.71610557989999
 21
33.353838750599998
 31
0.0
  0
LINE
  5
651
  8
É}ÿg
 10
255.97590120289999
 20
-750.70851760179994
 30
0.0
 11
243.97590120289999
 21
-750.70851760179994
 31
0.0
  0
LINE
  5
652
  8
É}ÿg
 10
251.47590120289999
 20
-762.70851760179994
 30
0.0
 11
251.47590120289999
 21
-761.20851760179994
 31
0.0
  0
LINE
  5
653
  8
É}ÿg
 10
297.61016732960002
 20
-755.80851760179985
 30
0.0
 11
297.61016732960002
 21
-761.20851760179994
 31
0.0
  0
LINE
  5
654
  8
É}ÿg
 10
243.97590120289999
 20
-756.70851760179994
 30
0.0
 11
237.97590120289999
 21
-756.70851760179994
 31
0.0
  0
LINE
  5
655
  8
É}ÿg
 10
242.47590120289999
 20
-750.70851760179994
 30
0.0
 11
230.47590120289999
 21
-750.70851760179994
 31
0.0
  0
LINE
  5
656
  8
É}ÿg
 10
237.97590120289999
 20
-755.20851760179994
 30
0.0
 11
242.47590120289999
 21
-750.70851760179994
 31
0.0
  0
LINE
  5
657
  8
É}ÿg
 10
230.47590120289999
 20
-750.70851760179994
 30
0.0
 11
230.47590120289999
 21
-756.70851760179994
 31
0.0
  0
LINE
  5
658
  8
É}ÿg
 10
317.40155531149998
 20
-769.00851760179989
 30
0.0
 11
324.61016732960002
 21
-769.00851760179989
 31
0.0
  0
LINE
  5
659
  8
É}ÿg
 10
305.1061673296
 20
-755.80851760179985
 30
0.0
 11
303.61016732960002
 21
-750.70851760179994
 31
0.0
  0
LINE
  5
65A
  8
É}ÿg
 10
297.61016732960002
 20
-763.60851760179992
 30
0.0
 11
307.39416732960001
 21
-763.60851760179992
 31
0.0
  0
LINE
  5
65B
  8
É}ÿg
 10
315.84762557400001
 20
-763.60851760179992
 30
0.0
 11
315.15699013519998
 21
-761.20851760179994
 31
0.0
  0
ARC
  5
65C
  8
É}ÿg
 10
267.55771938470002
 20
-755.80851760179985
 30
0.0
 40
11.4
 50
270.0
 51
298.08590481520002
  0
INSERT
  5
65D
  8
0
  6
CONTINUOUS
  2
*U97
 10
0.0
 20
0.0
 30
0.0
  0
LINE
  5
65E
  8
É}ÿg
 10
120.493961738
 20
-695.4385365024001
 30
0.0
 11
180.493961738
 21
-695.4385365024001
 31
0.0
  0
LINE
  5
65F
  8
É}ÿg
 10
187.993961738
 20
-678.93853650239987
 30
0.0
 11
187.993961738
 21
-711.9385365024001
 31
0.0
  0
LINE
  5
660
  8
É}ÿg
 10
112.993961738
 20
-711.9385365024001
 30
0.0
 11
547.99396173800005
 21
-711.9385365024001
 31
0.0
  0
LINE
  5
661
  8
É}ÿg
 10
262.993961738
 20
-678.93853650239987
 30
0.0
 11
262.993961738
 21
-711.9385365024001
 31
0.0
  0
LINE
  5
662
  8
É}ÿg
  6
BORDER
 10
288.19396173799998
 20
-684.63853650240003
 30
0.0
 11
288.19396173799998
 21
-706.23853650240005
 31
0.0
  0
LINE
  5
663
  8
É}ÿg
  6
BORDER
 10
288.19396173799998
 20
-684.63853650240003
 30
0.0
 11
288.19396173799998
 21
-706.23853650240005
 31
0.0
  0
LINE
  5
664
  8
É}ÿg
 10
324.61016732960002
 20
-755.80851760179985
 30
0.0
 11
324.61016732960002
 21
-761.20851760179994
 31
0.0
  0
LINE
  5
665
  8
É}ÿg
 10
195.493961738
 20
-695.4385365024001
 30
0.0
 11
255.493961738
 21
-695.4385365024001
 31
0.0
  0
INSERT
  5
666
  8
0
  6
CONTINUOUS
  2
*U98
 10
0.0
 20
0.0
 30
0.0
  0
CIRCLE
  5
667
  8
É}ÿg
 10
288.19396173799998
 20
-695.4385365024001
 30
0.0
 40
7.2000000000000002
  0
LINE
  5
668
  8
É}ÿg
 10
304.65171427310003
 20
-691.83853650240007
 30
0.0
 11
319.0517142731
 21
-688.23853650240005
 31
0.0
  0
INSERT
  5
669
  8
0
  6
CONTINUOUS
  2
*U99
 10
0.0
 20
0.0
 30
0.0
  0
CIRCLE
  5
66A
  8
É}ÿg
 10
288.19396173799998
 20
-695.4385365024001
 30
0.0
 40
3.6000000000000001
  0
LINE
  5
66B
  8
É}ÿg
 10
318.61016732960002
 20
-773.20851760179994
 30
0.0
 11
317.40155531149998
 21
-769.00851760179989
 31
0.0
  0
LINE
  5
66C
  8
É}ÿg
 10
315.84762557400001
 20
-763.60851760179992
 30
0.0
 11
324.61016732960002
 21
-763.60851760179992
 31
0.0
  0
LINE
  5
66D
  8
É}ÿg
 10
263.9577193847
 20
-767.20851760179994
 30
0.0
 11
267.55771938470002
 21
-767.20851760179994
 31
0.0
  0
LINE
  5
66E
  8
É}ÿg
 10
303.61016732960002
 20
-750.70851760179994
 30
0.0
 11
315.61016732960002
 21
-750.70851760179994
 31
0.0
  0
LINE
  5
66F
  8
É}ÿg
 10
230.47590120289999
 20
-756.70851760179994
 30
0.0
 11
227.02258976819999
 21
-756.70851760179994
 31
0.0
  0
LINE
  5
670
  8
É}ÿg
 10
263.9577193847
 20
-767.20851760179994
 30
0.0
 11
263.9577193847
 21
-771.70851760179994
 31
0.0
  0
LINE
  5
671
  8
É}ÿg
 10
230.47590120289999
 20
-761.20851760179994
 30
0.0
 11
230.02258976819999
 21
-761.20851760179994
 31
0.0
  0
LINE
  5
672
  8
É}ÿg
 10
230.47590120289999
 20
-767.20851760179994
 30
0.0
 11
230.47590120289999
 21
-771.70851760179994
 31
0.0
  0
ARC
  5
673
  8
É}ÿg
 10
267.55771938470002
 20
-755.80851760179985
 30
0.0
 40
11.4
 50
331.39928138329998
 51
358.49204224580001
  0
LINE
  5
674
  8
É}ÿg
 10
251.47590120289999
 20
-761.20851760179994
 30
0.0
 11
255.97590120289999
 21
-761.20851760179994
 31
0.0
  0
ARC
  5
675
  8
É}ÿg
 10
271.4577193847
 20
-755.20851760179994
 30
0.0
 40
16.5
 50
270.0
 51
302.54495885400001
  0
LINE
  5
676
  8
É}ÿg
 10
304.65171427310003
 20
-699.03853650240001
 30
0.0
 11
319.0517142731
 21
-702.63853650240003
 31
0.0
  0
LINE
  5
677
  8
É}ÿg
 10
304.65171427310003
 20
-691.83853650240007
 30
0.0
 11
304.65171427310003
 21
-699.03853650240001
 31
0.0
  0
LINE
  5
678
  8
É}ÿg
 10
319.0517142731
 20
-688.23853650240005
 30
0.0
 11
319.0517142731
 21
-702.63853650240003
 31
0.0
  0
LINE
  5
679
  8
É}ÿg
 10
275.9577193847
 20
-757.67484840420002
 30
0.0
 11
274.26066310990001
 21
-759.3719046791
 31
0.0
  0
LINE
  5
67A
  8
É}ÿg
  6
BORDER
 10
277.39396173799997
 20
-695.4385365024001
 30
0.0
 11
323.59396173800002
 21
-695.4385365024001
 31
0.0
  0
CIRCLE
  5
67B
  8
É}ÿg
 10
288.19396173799998
 20
-695.4385365024001
 30
0.0
 40
3.6000000000000001
  0
POLYLINE
  8
É}ÿg
  5
7D8
  66
     1
 10
0.000000
 20
0.000000
 30
0.000000
  70
     8
  0
VERTEX
  8
É}ÿg
  5
7D9
 10
284.012
 20
-765.779
 30
0.000000
  70
    32
  0
VERTEX
  8
É}ÿg
  5
7DA
 10
284.064
 20
-765.794
 30
0.000000
  70
    32
  0
VERTEX
  8
É}ÿg
  5
7DB
 10
284.117
 20
-765.809
 30
0.000000
  70
    32
  0
VERTEX
  8
É}ÿg
  5
7DC
 10
284.169
 20
-765.823
 30
0.000000
  70
    32
  0
VERTEX
  8
É}ÿg
  5
7DD
 10
284.222
 20
-765.838
 30
0.000000
  70
    32
  0
VERTEX
  8
É}ÿg
  5
7DE
 10
284.274
 20
-765.853
 30
0.000000
  70
    32
  0
VERTEX
  8
É}ÿg
  5
7DF
 10
284.327
 20
-765.867
 30
0.000000
  70
    32
  0
VERTEX
  8
É}ÿg
  5
7E0
 10
284.380
 20
-765.881
 30
0.000000
  70
    32
  0
VERTEX
  8
É}ÿg
  5
7E1
 10
284.433
 20
-765.896
 30
0.000000
  70
    32
  0
VERTEX
  8
É}ÿg
  5
7E2
 10
284.486
 20
-765.910
 30
0.000000
  70
    32
  0
VERTEX
  8
É}ÿg
  5
7E3
 10
284.538
 20
-765.924
 30
0.000000
  70
    32
  0
VERTEX
  8
É}ÿg
  5
7E4
 10
284.591
 20
-765.938
 30
0.000000
  70
    32
  0
VERTEX
  8
É}ÿg
  5
7E5
 10
284.644
 20
-765.952
 30
0.000000
  70
    32
  0
VERTEX
  8
É}ÿg
  5
7E6
 10
284.697
 20
-765.966
 30
0.000000
  70
    32
  0
VERTEX
  8
É}ÿg
  5
7E7
 10
284.751
 20
-765.980
 30
0.000000
  70
    32
  0
VERTEX
  8
É}ÿg
  5
7E8
 10
284.804
 20
-765.993
 30
0.000000
  70
    32
  0
VERTEX
  8
É}ÿg
  5
7E9
 10
284.857
 20
-766.007
 30
0.000000
  70
    32
  0
VERTEX
  8
É}ÿg
  5
7EA
 10
284.910
 20
-766.021
 30
0.000000
  70
    32
  0
VERTEX
  8
É}ÿg
  5
7EB
 10
284.963
 20
-766.034
 30
0.000000
  70
    32
  0
VERTEX
  8
É}ÿg
  5
7EC
 10
285.017
 20
-766.048
 30
0.000000
  70
    32
  0
VERTEX
  8
É}ÿg
  5
7ED
 10
285.070
 20
-766.061
 30
0.000000
  70
    32
  0
VERTEX
  8
É}ÿg
  5
7EE
 10
285.124
 20
-766.074
 30
0.000000
  70
    32
  0
VERTEX
  8
É}ÿg
  5
7EF
 10
285.177
 20
-766.087
 30
0.000000
  70
    32
  0
VERTEX
  8
É}ÿg
  5
7F0
 10
285.231
 20
-766.101
 30
0.000000
  70
    32
  0
VERTEX
  8
É}ÿg
  5
7F1
 10
285.284
 20
-766.114
 30
0.000000
  70
    32
  0
VERTEX
  8
É}ÿg
  5
7F2
 10
285.338
 20
-766.127
 30
0.000000
  70
    32
  0
VERTEX
  8
É}ÿg
  5
7F3
 10
285.391
 20
-766.140
 30
0.000000
  70
    32
  0
VERTEX
  8
É}ÿg
  5
7F4
 10
285.445
 20
-766.152
 30
0.000000
  70
    32
  0
VERTEX
  8
É}ÿg
  5
7F5
 10
285.499
 20
-766.165
 30
0.000000
  70
    32
  0
VERTEX
  8
É}ÿg
  5
7F6
 10
285.553
 20
-766.178
 30
0.000000
  70
    32
  0
VERTEX
  8
É}ÿg
  5
7F7
 10
285.607
 20
-766.191
 30
0.000000
  70
    32
  0
VERTEX
  8
É}ÿg
  5
7F8
 10
285.660
 20
-766.203
 30
0.000000
  70
    32
  0
VERTEX
  8
É}ÿg
  5
7F9
 10
285.714
 20
-766.216
 30
0.000000
  70
    32
  0
VERTEX
  8
É}ÿg
  5
7FA
 10
285.768
 20
-766.228
 30
0.000000
  70
    32
  0
VERTEX
  8
É}ÿg
  5
7FB
 10
285.822
 20
-766.241
 30
0.000000
  70
    32
  0
VERTEX
  8
É}ÿg
  5
7FC
 10
285.876
 20
-766.253
 30
0.000000
  70
    32
  0
VERTEX
  8
É}ÿg
  5
7FD
 10
285.930
 20
-766.265
 30
0.000000
  70
    32
  0
VERTEX
  8
É}ÿg
  5
7FE
 10
285.984
 20
-766.277
 30
0.000000
  70
    32
  0
VERTEX
  8
É}ÿg
  5
7FF
 10
286.039
 20
-766.290
 30
0.000000
  70
    32
  0
VERTEX
  8
É}ÿg
  5
800
 10
286.093
 20
-766.302
 30
0.000000
  70
    32
  0
VERTEX
  8
É}ÿg
  5
801
 10
286.147
 20
-766.314
 30
0.000000
  70
    32
  0
VERTEX
  8
É}ÿg
  5
802
 10
286.201
 20
-766.326
 30
0.000000
  70
    32
  0
VERTEX
  8
É}ÿg
  5
803
 10
286.255
 20
-766.338
 30
0.000000
  70
    32
  0
VERTEX
  8
É}ÿg
  5
804
 10
286.310
 20
-766.349
 30
0.000000
  70
    32
  0
VERTEX
  8
É}ÿg
  5
805
 10
286.364
 20
-766.361
 30
0.000000
  70
    32
  0
VERTEX
  8
É}ÿg
  5
806
 10
286.419
 20
-766.373
 30
0.000000
  70
    32
  0
VERTEX
  8
É}ÿg
  5
807
 10
286.473
 20
-766.385
 30
0.000000
  70
    32
  0
VERTEX
  8
É}ÿg
  5
808
 10
286.527
 20
-766.396
 30
0.000000
  70
    32
  0
VERTEX
  8
É}ÿg
  5
809
 10
286.582
 20
-766.408
 30
0.000000
  70
    32
  0
VERTEX
  8
É}ÿg
  5
80A
 10
286.636
 20
-766.419
 30
0.000000
  70
    32
  0
VERTEX
  8
É}ÿg
  5
80B
 10
286.691
 20
-766.431
 30
0.000000
  70
    32
  0
VERTEX
  8
É}ÿg
  5
80C
 10
286.746
 20
-766.442
 30
0.000000
  70
    32
  0
VERTEX
  8
É}ÿg
  5
80D
 10
286.800
 20
-766.454
 30
0.000000
  70
    32
  0
VERTEX
  8
É}ÿg
  5
80E
 10
286.855
 20
-766.465
 30
0.000000
  70
    32
  0
VERTEX
  8
É}ÿg
  5
80F
 10
286.910
 20
-766.476
 30
0.000000
  70
    32
  0
VERTEX
  8
É}ÿg
  5
810
 10
286.964
 20
-766.487
 30
0.000000
  70
    32
  0
VERTEX
  8
É}ÿg
  5
811
 10
287.019
 20
-766.499
 30
0.000000
  70
    32
  0
VERTEX
  8
É}ÿg
  5
812
 10
287.074
 20
-766.510
 30
0.000000
  70
    32
  0
VERTEX
  8
É}ÿg
  5
813
 10
287.129
 20
-766.521
 30
0.000000
  70
    32
  0
VERTEX
  8
É}ÿg
  5
814
 10
287.183
 20
-766.532
 30
0.000000
  70
    32
  0
VERTEX
  8
É}ÿg
  5
815
 10
287.238
 20
-766.543
 30
0.000000
  70
    32
  0
VERTEX
  8
É}ÿg
  5
816
 10
287.293
 20
-766.554
 30
0.000000
  70
    32
  0
VERTEX
  8
É}ÿg
  5
817
 10
287.348
 20
-766.565
 30
0.000000
  70
    32
  0
VERTEX
  8
É}ÿg
  5
818
 10
287.403
 20
-766.575
 30
0.000000
  70
    32
  0
VERTEX
  8
É}ÿg
  5
819
 10
287.458
 20
-766.586
 30
0.000000
  70
    32
  0
VERTEX
  8
É}ÿg
  5
81A
 10
287.513
 20
-766.597
 30
0.000000
  70
    32
  0
VERTEX
  8
É}ÿg
  5
81B
 10
287.568
 20
-766.608
 30
0.000000
  70
    32
  0
VERTEX
  8
É}ÿg
  5
81C
 10
287.623
 20
-766.618
 30
0.000000
  70
    32
  0
VERTEX
  8
É}ÿg
  5
81D
 10
287.678
 20
-766.629
 30
0.000000
  70
    32
  0
VERTEX
  8
É}ÿg
  5
81E
 10
287.733
 20
-766.640
 30
0.000000
  70
    32
  0
VERTEX
  8
É}ÿg
  5
81F
 10
287.789
 20
-766.650
 30
0.000000
  70
    32
  0
VERTEX
  8
É}ÿg
  5
820
 10
287.844
 20
-766.661
 30
0.000000
  70
    32
  0
VERTEX
  8
É}ÿg
  5
821
 10
287.899
 20
-766.671
 30
0.000000
  70
    32
  0
VERTEX
  8
É}ÿg
  5
822
 10
287.954
 20
-766.682
 30
0.000000
  70
    32
  0
VERTEX
  8
É}ÿg
  5
823
 10
288.009
 20
-766.692
 30
0.000000
  70
    32
  0
VERTEX
  8
É}ÿg
  5
824
 10
288.065
 20
-766.702
 30
0.000000
  70
    32
  0
VERTEX
  8
É}ÿg
  5
825
 10
288.120
 20
-766.713
 30
0.000000
  70
    32
  0
VERTEX
  8
É}ÿg
  5
826
 10
288.175
 20
-766.723
 30
0.000000
  70
    32
  0
VERTEX
  8
É}ÿg
  5
827
 10
288.230
 20
-766.733
 30
0.000000
  70
    32
  0
VERTEX
  8
É}ÿg
  5
828
 10
288.286
 20
-766.743
 30
0.000000
  70
    32
  0
VERTEX
  8
É}ÿg
  5
829
 10
288.341
 20
-766.754
 30
0.000000
  70
    32
  0
VERTEX
  8
É}ÿg
  5
82A
 10
288.396
 20
-766.764
 30
0.000000
  70
    32
  0
VERTEX
  8
É}ÿg
  5
82B
 10
288.452
 20
-766.774
 30
0.000000
  70
    32
  0
VERTEX
  8
É}ÿg
  5
82C
 10
288.507
 20
-766.784
 30
0.000000
  70
    32
  0
VERTEX
  8
É}ÿg
  5
82D
 10
288.563
 20
-766.794
 30
0.000000
  70
    32
  0
VERTEX
  8
É}ÿg
  5
82E
 10
288.618
 20
-766.804
 30
0.000000
  70
    32
  0
VERTEX
  8
É}ÿg
  5
82F
 10
288.674
 20
-766.814
 30
0.000000
  70
    32
  0
VERTEX
  8
É}ÿg
  5
830
 10
288.729
 20
-766.824
 30
0.000000
  70
    32
  0
VERTEX
  8
É}ÿg
  5
831
 10
288.785
 20
-766.834
 30
0.000000
  70
    32
  0
VERTEX
  8
É}ÿg
  5
832
 10
288.840
 20
-766.844
 30
0.000000
  70
    32
  0
VERTEX
  8
É}ÿg
  5
833
 10
288.896
 20
-766.854
 30
0.000000
  70
    32
  0
VERTEX
  8
É}ÿg
  5
834
 10
288.951
 20
-766.864
 30
0.000000
  70
    32
  0
VERTEX
  8
É}ÿg
  5
835
 10
289.007
 20
-766.874
 30
0.000000
  70
    32
  0
VERTEX
  8
É}ÿg
  5
836
 10
289.062
 20
-766.883
 30
0.000000
  70
    32
  0
VERTEX
  8
É}ÿg
  5
837
 10
289.118
 20
-766.893
 30
0.000000
  70
    32
  0
VERTEX
  8
É}ÿg
  5
838
 10
289.174
 20
-766.903
 30
0.000000
  70
    32
  0
VERTEX
  8
É}ÿg
  5
839
 10
289.229
 20
-766.913
 30
0.000000
  70
    32
  0
VERTEX
  8
É}ÿg
  5
83A
 10
289.285
 20
-766.923
 30
0.000000
  70
    32
  0
VERTEX
  8
É}ÿg
  5
83B
 10
289.340
 20
-766.932
 30
0.000000
  70
    32
  0
VERTEX
  8
É}ÿg
  5
83C
 10
289.396
 20
-766.942
 30
0.000000
  70
    32
  0
VERTEX
  8
É}ÿg
  5
83D
 10
289.452
 20
-766.952
 30
0.000000
  70
    32
  0
VERTEX
  8
É}ÿg
  5
83E
 10
289.507
 20
-766.961
 30
0.000000
  70
    32
  0
VERTEX
  8
É}ÿg
  5
83F
 10
289.563
 20
-766.971
 30
0.000000
  70
    32
  0
VERTEX
  8
É}ÿg
  5
840
 10
289.619
 20
-766.981
 30
0.000000
  70
    32
  0
VERTEX
  8
É}ÿg
  5
841
 10
289.675
 20
-766.990
 30
0.000000
  70
    32
  0
VERTEX
  8
É}ÿg
  5
842
 10
289.730
 20
-767.000
 30
0.000000
  70
    32
  0
VERTEX
  8
É}ÿg
  5
843
 10
289.786
 20
-767.009
 30
0.000000
  70
    32
  0
VERTEX
  8
É}ÿg
  5
844
 10
289.842
 20
-767.019
 30
0.000000
  70
    32
  0
VERTEX
  8
É}ÿg
  5
845
 10
289.897
 20
-767.029
 30
0.000000
  70
    32
  0
VERTEX
  8
É}ÿg
  5
846
 10
289.953
 20
-767.038
 30
0.000000
  70
    32
  0
VERTEX
  8
É}ÿg
  5
847
 10
290.009
 20
-767.048
 30
0.000000
  70
    32
  0
VERTEX
  8
É}ÿg
  5
848
 10
290.065
 20
-767.057
 30
0.000000
  70
    32
  0
VERTEX
  8
É}ÿg
  5
849
 10
290.121
 20
-767.067
 30
0.000000
  70
    32
  0
VERTEX
  8
É}ÿg
  5
84A
 10
290.176
 20
-767.076
 30
0.000000
  70
    32
  0
VERTEX
  8
É}ÿg
  5
84B
 10
290.232
 20
-767.086
 30
0.000000
  70
    32
  0
VERTEX
  8
É}ÿg
  5
84C
 10
290.288
 20
-767.095
 30
0.000000
  70
    32
  0
VERTEX
  8
É}ÿg
  5
84D
 10
290.344
 20
-767.105
 30
0.000000
  70
    32
  0
VERTEX
  8
É}ÿg
  5
84E
 10
290.400
 20
-767.114
 30
0.000000
  70
    32
  0
VERTEX
  8
É}ÿg
  5
84F
 10
290.455
 20
-767.124
 30
0.000000
  70
    32
  0
VERTEX
  8
É}ÿg
  5
850
 10
290.511
 20
-767.133
 30
0.000000
  70
    32
  0
VERTEX
  8
É}ÿg
  5
851
 10
290.567
 20
-767.142
 30
0.000000
  70
    32
  0
VERTEX
  8
É}ÿg
  5
852
 10
290.623
 20
-767.152
 30
0.000000
  70
    32
  0
VERTEX
  8
É}ÿg
  5
853
 10
290.679
 20
-767.161
 30
0.000000
  70
    32
  0
VERTEX
  8
É}ÿg
  5
854
 10
290.734
 20
-767.171
 30
0.000000
  70
    32
  0
VERTEX
  8
É}ÿg
  5
855
 10
290.790
 20
-767.180
 30
0.000000
  70
    32
  0
VERTEX
  8
É}ÿg
  5
856
 10
290.846
 20
-767.190
 30
0.000000
  70
    32
  0
VERTEX
  8
É}ÿg
  5
857
 10
290.902
 20
-767.199
 30
0.000000
  70
    32
  0
VERTEX
  8
É}ÿg
  5
858
 10
290.958
 20
-767.209
 30
0.000000
  70
    32
  0
SEQEND
  8
É}ÿg
  5
859
  0
POLYLINE
  8
É}ÿg
  5
85A
  66
     1
 10
0.000000
 20
0.000000
 30
0.000000
  70
     8
  0
VERTEX
  8
É}ÿg
  5
85B
 10
274.261
 20
-759.372
 30
0.000000
  70
    32
  0
VERTEX
  8
É}ÿg
  5
85C
 10
274.280
 20
-759.394
 30
0.000000
  70
    32
  0
VERTEX
  8
É}ÿg
  5
85D
 10
274.300
 20
-759.416
 30
0.000000
  70
    32
  0
VERTEX
  8
É}ÿg
  5
85E
 10
274.320
 20
-759.438
 30
0.000000
  70
    32
  0
VERTEX
  8
É}ÿg
  5
85F
 10
274.340
 20
-759.460
 30
0.000000
  70
    32
  0
VERTEX
  8
É}ÿg
  5
860
 10
274.360
 20
-759.482
 30
0.000000
  70
    32
  0
VERTEX
  8
É}ÿg
  5
861
 10
274.379
 20
-759.504
 30
0.000000
  70
    32
  0
VERTEX
  8
É}ÿg
  5
862
 10
274.399
 20
-759.526
 30
0.000000
  70
    32
  0
VERTEX
  8
É}ÿg
  5
863
 10
274.419
 20
-759.548
 30
0.000000
  70
    32
  0
VERTEX
  8
É}ÿg
  5
864
 10
274.439
 20
-759.571
 30
0.000000
  70
    32
  0
VERTEX
  8
É}ÿg
  5
865
 10
274.459
 20
-759.593
 30
0.000000
  70
    32
  0
VERTEX
  8
É}ÿg
  5
866
 10
274.478
 20
-759.615
 30
0.000000
  70
    32
  0
VERTEX
  8
É}ÿg
  5
867
 10
274.498
 20
-759.637
 30
0.000000
  70
    32
  0
VERTEX
  8
É}ÿg
  5
868
 10
274.518
 20
-759.659
 30
0.000000
  70
    32
  0
VERTEX
  8
É}ÿg
  5
869
 10
274.538
 20
-759.681
 30
0.000000
  70
    32
  0
VERTEX
  8
É}ÿg
  5
86A
 10
274.558
 20
-759.703
 30
0.000000
  70
    32
  0
VERTEX
  8
É}ÿg
  5
86B
 10
274.578
 20
-759.725
 30
0.000000
  70
    32
  0
VERTEX
  8
É}ÿg
  5
86C
 10
274.597
 20
-759.747
 30
0.000000
  70
    32
  0
VERTEX
  8
É}ÿg
  5
86D
 10
274.617
 20
-759.769
 30
0.000000
  70
    32
  0
VERTEX
  8
É}ÿg
  5
86E
 10
274.637
 20
-759.791
 30
0.000000
  70
    32
  0
VERTEX
  8
É}ÿg
  5
86F
 10
274.657
 20
-759.813
 30
0.000000
  70
    32
  0
VERTEX
  8
É}ÿg
  5
870
 10
274.677
 20
-759.835
 30
0.000000
  70
    32
  0
VERTEX
  8
É}ÿg
  5
871
 10
274.697
 20
-759.857
 30
0.000000
  70
    32
  0
VERTEX
  8
É}ÿg
  5
872
 10
274.716
 20
-759.879
 30
0.000000
  70
    32
  0
VERTEX
  8
É}ÿg
  5
873
 10
274.736
 20
-759.901
 30
0.000000
  70
    32
  0
VERTEX
  8
É}ÿg
  5
874
 10
274.756
 20
-759.923
 30
0.000000
  70
    32
  0
VERTEX
  8
É}ÿg
  5
875
 10
274.776
 20
-759.945
 30
0.000000
  70
    32
  0
VERTEX
  8
É}ÿg
  5
876
 10
274.796
 20
-759.967
 30
0.000000
  70
    32
  0
VERTEX
  8
É}ÿg
  5
877
 10
274.816
 20
-759.989
 30
0.000000
  70
    32
  0
VERTEX
  8
É}ÿg
  5
878
 10
274.836
 20
-760.011
 30
0.000000
  70
    32
  0
VERTEX
  8
É}ÿg
  5
879
 10
274.856
 20
-760.033
 30
0.000000
  70
    32
  0
VERTEX
  8
É}ÿg
  5
87A
 10
274.875
 20
-760.055
 30
0.000000
  70
    32
  0
VERTEX
  8
É}ÿg
  5
87B
 10
274.895
 20
-760.076
 30
0.000000
  70
    32
  0
VERTEX
  8
É}ÿg
  5
87C
 10
274.915
 20
-760.098
 30
0.000000
  70
    32
  0
VERTEX
  8
É}ÿg
  5
87D
 10
274.935
 20
-760.120
 30
0.000000
  70
    32
  0
VERTEX
  8
É}ÿg
  5
87E
 10
274.955
 20
-760.142
 30
0.000000
  70
    32
  0
VERTEX
  8
É}ÿg
  5
87F
 10
274.975
 20
-760.164
 30
0.000000
  70
    32
  0
VERTEX
  8
É}ÿg
  5
880
 10
274.995
 20
-760.186
 30
0.000000
  70
    32
  0
VERTEX
  8
É}ÿg
  5
881
 10
275.015
 20
-760.208
 30
0.000000
  70
    32
  0
VERTEX
  8
É}ÿg
  5
882
 10
275.035
 20
-760.230
 30
0.000000
  70
    32
  0
VERTEX
  8
É}ÿg
  5
883
 10
275.055
 20
-760.251
 30
0.000000
  70
    32
  0
VERTEX
  8
É}ÿg
  5
884
 10
275.075
 20
-760.273
 30
0.000000
  70
    32
  0
VERTEX
  8
É}ÿg
  5
885
 10
275.095
 20
-760.295
 30
0.000000
  70
    32
  0
VERTEX
  8
É}ÿg
  5
886
 10
275.115
 20
-760.317
 30
0.000000
  70
    32
  0
VERTEX
  8
É}ÿg
  5
887
 10
275.135
 20
-760.339
 30
0.000000
  70
    32
  0
VERTEX
  8
É}ÿg
  5
888
 10
275.155
 20
-760.360
 30
0.000000
  70
    32
  0
VERTEX
  8
É}ÿg
  5
889
 10
275.175
 20
-760.382
 30
0.000000
  70
    32
  0
VERTEX
  8
É}ÿg
  5
88A
 10
275.195
 20
-760.404
 30
0.000000
  70
    32
  0
VERTEX
  8
É}ÿg
  5
88B
 10
275.215
 20
-760.425
 30
0.000000
  70
    32
  0
VERTEX
  8
É}ÿg
  5
88C
 10
275.235
 20
-760.447
 30
0.000000
  70
    32
  0
VERTEX
  8
É}ÿg
  5
88D
 10
275.255
 20
-760.469
 30
0.000000
  70
    32
  0
VERTEX
  8
É}ÿg
  5
88E
 10
275.275
 20
-760.490
 30
0.000000
  70
    32
  0
VERTEX
  8
É}ÿg
  5
88F
 10
275.295
 20
-760.512
 30
0.000000
  70
    32
  0
VERTEX
  8
É}ÿg
  5
890
 10
275.315
 20
-760.534
 30
0.000000
  70
    32
  0
VERTEX
  8
É}ÿg
  5
891
 10
275.335
 20
-760.555
 30
0.000000
  70
    32
  0
VERTEX
  8
É}ÿg
  5
892
 10
275.355
 20
-760.577
 30
0.000000
  70
    32
  0
VERTEX
  8
É}ÿg
  5
893
 10
275.375
 20
-760.598
 30
0.000000
  70
    32
  0
VERTEX
  8
É}ÿg
  5
894
 10
275.395
 20
-760.620
 30
0.000000
  70
    32
  0
VERTEX
  8
É}ÿg
  5
895
 10
275.416
 20
-760.642
 30
0.000000
  70
    32
  0
VERTEX
  8
É}ÿg
  5
896
 10
275.436
 20
-760.663
 30
0.000000
  70
    32
  0
VERTEX
  8
É}ÿg
  5
897
 10
275.456
 20
-760.685
 30
0.000000
  70
    32
  0
VERTEX
  8
É}ÿg
  5
898
 10
275.476
 20
-760.706
 30
0.000000
  70
    32
  0
VERTEX
  8
É}ÿg
  5
899
 10
275.496
 20
-760.727
 30
0.000000
  70
    32
  0
VERTEX
  8
É}ÿg
  5
89A
 10
275.516
 20
-760.749
 30
0.000000
  70
    32
  0
VERTEX
  8
É}ÿg
  5
89B
 10
275.537
 20
-760.770
 30
0.000000
  70
    32
  0
VERTEX
  8
É}ÿg
  5
89C
 10
275.557
 20
-760.792
 30
0.000000
  70
    32
  0
VERTEX
  8
É}ÿg
  5
89D
 10
275.577
 20
-760.813
 30
0.000000
  70
    32
  0
VERTEX
  8
É}ÿg
  5
89E
 10
275.597
 20
-760.834
 30
0.000000
  70
    32
  0
VERTEX
  8
É}ÿg
  5
89F
 10
275.618
 20
-760.856
 30
0.000000
  70
    32
  0
VERTEX
  8
É}ÿg
  5
8A0
 10
275.638
 20
-760.877
 30
0.000000
  70
    32
  0
VERTEX
  8
É}ÿg
  5
8A1
 10
275.658
 20
-760.898
 30
0.000000
  70
    32
  0
VERTEX
  8
É}ÿg
  5
8A2
 10
275.679
 20
-760.920
 30
0.000000
  70
    32
  0
VERTEX
  8
É}ÿg
  5
8A3
 10
275.699
 20
-760.941
 30
0.000000
  70
    32
  0
VERTEX
  8
É}ÿg
  5
8A4
 10
275.719
 20
-760.962
 30
0.000000
  70
    32
  0
VERTEX
  8
É}ÿg
  5
8A5
 10
275.740
 20
-760.983
 30
0.000000
  70
    32
  0
VERTEX
  8
É}ÿg
  5
8A6
 10
275.760
 20
-761.004
 30
0.000000
  70
    32
  0
VERTEX
  8
É}ÿg
  5
8A7
 10
275.780
 20
-761.025
 30
0.000000
  70
    32
  0
VERTEX
  8
É}ÿg
  5
8A8
 10
275.801
 20
-761.047
 30
0.000000
  70
    32
  0
VERTEX
  8
É}ÿg
  5
8A9
 10
275.821
 20
-761.068
 30
0.000000
  70
    32
  0
VERTEX
  8
É}ÿg
  5
8AA
 10
275.842
 20
-761.089
 30
0.000000
  70
    32
  0
VERTEX
  8
É}ÿg
  5
8AB
 10
275.862
 20
-761.110
 30
0.000000
  70
    32
  0
VERTEX
  8
É}ÿg
  5
8AC
 10
275.882
 20
-761.131
 30
0.000000
  70
    32
  0
VERTEX
  8
É}ÿg
  5
8AD
 10
275.903
 20
-761.152
 30
0.000000
  70
    32
  0
VERTEX
  8
É}ÿg
  5
8AE
 10
275.923
 20
-761.173
 30
0.000000
  70
    32
  0
VERTEX
  8
É}ÿg
  5
8AF
 10
275.944
 20
-761.194
 30
0.000000
  70
    32
  0
VERTEX
  8
É}ÿg
  5
8B0
 10
275.964
 20
-761.215
 30
0.000000
  70
    32
  0
VERTEX
  8
É}ÿg
  5
8B1
 10
275.985
 20
-761.235
 30
0.000000
  70
    32
  0
VERTEX
  8
É}ÿg
  5
8B2
 10
276.006
 20
-761.256
 30
0.000000
  70
    32
  0
VERTEX
  8
É}ÿg
  5
8B3
 10
276.026
 20
-761.277
 30
0.000000
  70
    32
  0
VERTEX
  8
É}ÿg
  5
8B4
 10
276.047
 20
-761.298
 30
0.000000
  70
    32
  0
VERTEX
  8
É}ÿg
  5
8B5
 10
276.067
 20
-761.319
 30
0.000000
  70
    32
  0
VERTEX
  8
É}ÿg
  5
8B6
 10
276.088
 20
-761.339
 30
0.000000
  70
    32
  0
VERTEX
  8
É}ÿg
  5
8B7
 10
276.109
 20
-761.360
 30
0.000000
  70
    32
  0
VERTEX
  8
É}ÿg
  5
8B8
 10
276.129
 20
-761.381
 30
0.000000
  70
    32
  0
VERTEX
  8
É}ÿg
  5
8B9
 10
276.150
 20
-761.401
 30
0.000000
  70
    32
  0
VERTEX
  8
É}ÿg
  5
8BA
 10
276.171
 20
-761.422
 30
0.000000
  70
    32
  0
VERTEX
  8
É}ÿg
  5
8BB
 10
276.191
 20
-761.443
 30
0.000000
  70
    32
  0
VERTEX
  8
É}ÿg
  5
8BC
 10
276.212
 20
-761.463
 30
0.000000
  70
    32
  0
VERTEX
  8
É}ÿg
  5
8BD
 10
276.233
 20
-761.484
 30
0.000000
  70
    32
  0
VERTEX
  8
É}ÿg
  5
8BE
 10
276.254
 20
-761.504
 30
0.000000
  70
    32
  0
VERTEX
  8
É}ÿg
  5
8BF
 10
276.275
 20
-761.524
 30
0.000000
  70
    32
  0
VERTEX
  8
É}ÿg
  5
8C0
 10
276.295
 20
-761.545
 30
0.000000
  70
    32
  0
VERTEX
  8
É}ÿg
  5
8C1
 10
276.316
 20
-761.565
 30
0.000000
  70
    32
  0
VERTEX
  8
É}ÿg
  5
8C2
 10
276.337
 20
-761.586
 30
0.000000
  70
    32
  0
VERTEX
  8
É}ÿg
  5
8C3
 10
276.358
 20
-761.606
 30
0.000000
  70
    32
  0
VERTEX
  8
É}ÿg
  5
8C4
 10
276.379
 20
-761.626
 30
0.000000
  70
    32
  0
VERTEX
  8
É}ÿg
  5
8C5
 10
276.400
 20
-761.646
 30
0.000000
  70
    32
  0
VERTEX
  8
É}ÿg
  5
8C6
 10
276.421
 20
-761.667
 30
0.000000
  70
    32
  0
VERTEX
  8
É}ÿg
  5
8C7
 10
276.442
 20
-761.687
 30
0.000000
  70
    32
  0
VERTEX
  8
É}ÿg
  5
8C8
 10
276.463
 20
-761.707
 30
0.000000
  70
    32
  0
VERTEX
  8
É}ÿg
  5
8C9
 10
276.484
 20
-761.727
 30
0.000000
  70
    32
  0
VERTEX
  8
É}ÿg
  5
8CA
 10
276.505
 20
-761.747
 30
0.000000
  70
    32
  0
VERTEX
  8
É}ÿg
  5
8CB
 10
276.526
 20
-761.767
 30
0.000000
  70
    32
  0
VERTEX
  8
É}ÿg
  5
8CC
 10
276.547
 20
-761.787
 30
0.000000
  70
    32
  0
VERTEX
  8
É}ÿg
  5
8CD
 10
276.568
 20
-761.807
 30
0.000000
  70
    32
  0
VERTEX
  8
É}ÿg
  5
8CE
 10
276.589
 20
-761.827
 30
0.000000
  70
    32
  0
VERTEX
  8
É}ÿg
  5
8CF
 10
276.610
 20
-761.847
 30
0.000000
  70
    32
  0
VERTEX
  8
É}ÿg
  5
8D0
 10
276.632
 20
-761.867
 30
0.000000
  70
    32
  0
VERTEX
  8
É}ÿg
  5
8D1
 10
276.653
 20
-761.887
 30
0.000000
  70
    32
  0
VERTEX
  8
É}ÿg
  5
8D2
 10
276.674
 20
-761.906
 30
0.000000
  70
    32
  0
VERTEX
  8
É}ÿg
  5
8D3
 10
276.695
 20
-761.926
 30
0.000000
  70
    32
  0
VERTEX
  8
É}ÿg
  5
8D4
 10
276.717
 20
-761.946
 30
0.000000
  70
    32
  0
VERTEX
  8
É}ÿg
  5
8D5
 10
276.738
 20
-761.965
 30
0.000000
  70
    32
  0
VERTEX
  8
É}ÿg
  5
8D6
 10
276.759
 20
-761.985
 30
0.000000
  70
    32
  0
VERTEX
  8
É}ÿg
  5
8D7
 10
276.781
 20
-762.005
 30
0.000000
  70
    32
  0
VERTEX
  8
É}ÿg
  5
8D8
 10
276.802
 20
-762.024
 30
0.000000
  70
    32
  0
VERTEX
  8
É}ÿg
  5
8D9
 10
276.823
 20
-762.044
 30
0.000000
  70
    32
  0
VERTEX
  8
É}ÿg
  5
8DA
 10
276.845
 20
-762.063
 30
0.000000
  70
    32
  0
SEQEND
  8
É}ÿg
  5
8DB
  0
POLYLINE
  8
É}ÿg
  5
8DC
  66
     1
 10
0.000000
 20
0.000000
 30
0.000000
  70
     8
  0
VERTEX
  8
É}ÿg
  5
8DD
 10
280.334
 20
-769.118
 30
0.000000
  70
    32
  0
VERTEX
  8
É}ÿg
  5
8DE
 10
280.415
 20
-769.143
 30
0.000000
  70
    32
  0
VERTEX
  8
É}ÿg
  5
8DF
 10
280.496
 20
-769.169
 30
0.000000
  70
    32
  0
VERTEX
  8
É}ÿg
  5
8E0
 10
280.577
 20
-769.194
 30
0.000000
  70
    32
  0
VERTEX
  8
É}ÿg
  5
8E1
 10
280.658
 20
-769.220
 30
0.000000
  70
    32
  0
VERTEX
  8
É}ÿg
  5
8E2
 10
280.739
 20
-769.245
 30
0.000000
  70
    32
  0
VERTEX
  8
É}ÿg
  5
8E3
 10
280.820
 20
-769.270
 30
0.000000
  70
    32
  0
VERTEX
  8
É}ÿg
  5
8E4
 10
280.901
 20
-769.295
 30
0.000000
  70
    32
  0
VERTEX
  8
É}ÿg
  5
8E5
 10
280.982
 20
-769.320
 30
0.000000
  70
    32
  0
VERTEX
  8
É}ÿg
  5
8E6
 10
281.063
 20
-769.345
 30
0.000000
  70
    32
  0
VERTEX
  8
É}ÿg
  5
8E7
 10
281.145
 20
-769.369
 30
0.000000
  70
    32
  0
VERTEX
  8
É}ÿg
  5
8E8
 10
281.226
 20
-769.394
 30
0.000000
  70
    32
  0
VERTEX
  8
É}ÿg
  5
8E9
 10
281.308
 20
-769.418
 30
0.000000
  70
    32
  0
VERTEX
  8
É}ÿg
  5
8EA
 10
281.389
 20
-769.443
 30
0.000000
  70
    32
  0
VERTEX
  8
É}ÿg
  5
8EB
 10
281.471
 20
-769.467
 30
0.000000
  70
    32
  0
VERTEX
  8
É}ÿg
  5
8EC
 10
281.552
 20
-769.491
 30
0.000000
  70
    32
  0
VERTEX
  8
É}ÿg
  5
8ED
 10
281.634
 20
-769.515
 30
0.000000
  70
    32
  0
VERTEX
  8
É}ÿg
  5
8EE
 10
281.716
 20
-769.539
 30
0.000000
  70
    32
  0
VERTEX
  8
É}ÿg
  5
8EF
 10
281.798
 20
-769.562
 30
0.000000
  70
    32
  0
VERTEX
  8
É}ÿg
  5
8F0
 10
281.880
 20
-769.586
 30
0.000000
  70
    32
  0
VERTEX
  8
É}ÿg
  5
8F1
 10
281.962
 20
-769.610
 30
0.000000
  70
    32
  0
VERTEX
  8
É}ÿg
  5
8F2
 10
282.044
 20
-769.633
 30
0.000000
  70
    32
  0
VERTEX
  8
É}ÿg
  5
8F3
 10
282.126
 20
-769.656
 30
0.000000
  70
    32
  0
VERTEX
  8
É}ÿg
  5
8F4
 10
282.208
 20
-769.679
 30
0.000000
  70
    32
  0
VERTEX
  8
É}ÿg
  5
8F5
 10
282.290
 20
-769.703
 30
0.000000
  70
    32
  0
VERTEX
  8
É}ÿg
  5
8F6
 10
282.372
 20
-769.726
 30
0.000000
  70
    32
  0
VERTEX
  8
É}ÿg
  5
8F7
 10
282.455
 20
-769.748
 30
0.000000
  70
    32
  0
VERTEX
  8
É}ÿg
  5
8F8
 10
282.537
 20
-769.771
 30
0.000000
  70
    32
  0
VERTEX
  8
É}ÿg
  5
8F9
 10
282.619
 20
-769.794
 30
0.000000
  70
    32
  0
VERTEX
  8
É}ÿg
  5
8FA
 10
282.702
 20
-769.816
 30
0.000000
  70
    32
  0
VERTEX
  8
É}ÿg
  5
8FB
 10
282.784
 20
-769.839
 30
0.000000
  70
    32
  0
VERTEX
  8
É}ÿg
  5
8FC
 10
282.867
 20
-769.861
 30
0.000000
  70
    32
  0
VERTEX
  8
É}ÿg
  5
8FD
 10
282.950
 20
-769.884
 30
0.000000
  70
    32
  0
VERTEX
  8
É}ÿg
  5
8FE
 10
283.032
 20
-769.906
 30
0.000000
  70
    32
  0
VERTEX
  8
É}ÿg
  5
8FF
 10
283.115
 20
-769.928
 30
0.000000
  70
    32
  0
VERTEX
  8
É}ÿg
  5
900
 10
283.198
 20
-769.950
 30
0.000000
  70
    32
  0
VERTEX
  8
É}ÿg
  5
901
 10
283.281
 20
-769.972
 30
0.000000
  70
    32
  0
VERTEX
  8
É}ÿg
  5
902
 10
283.364
 20
-769.994
 30
0.000000
  70
    32
  0
VERTEX
  8
É}ÿg
  5
903
 10
283.446
 20
-770.015
 30
0.000000
  70
    32
  0
VERTEX
  8
É}ÿg
  5
904
 10
283.529
 20
-770.037
 30
0.000000
  70
    32
  0
VERTEX
  8
É}ÿg
  5
905
 10
283.613
 20
-770.059
 30
0.000000
  70
    32
  0
VERTEX
  8
É}ÿg
  5
906
 10
283.696
 20
-770.080
 30
0.000000
  70
    32
  0
VERTEX
  8
É}ÿg
  5
907
 10
283.779
 20
-770.101
 30
0.000000
  70
    32
  0
VERTEX
  8
É}ÿg
  5
908
 10
283.862
 20
-770.123
 30
0.000000
  70
    32
  0
VERTEX
  8
É}ÿg
  5
909
 10
283.945
 20
-770.144
 30
0.000000
  70
    32
  0
VERTEX
  8
É}ÿg
  5
90A
 10
284.028
 20
-770.165
 30
0.000000
  70
    32
  0
VERTEX
  8
É}ÿg
  5
90B
 10
284.112
 20
-770.186
 30
0.000000
  70
    32
  0
VERTEX
  8
É}ÿg
  5
90C
 10
284.195
 20
-770.207
 30
0.000000
  70
    32
  0
VERTEX
  8
É}ÿg
  5
90D
 10
284.278
 20
-770.228
 30
0.000000
  70
    32
  0
VERTEX
  8
É}ÿg
  5
90E
 10
284.362
 20
-770.249
 30
0.000000
  70
    32
  0
VERTEX
  8
É}ÿg
  5
90F
 10
284.445
 20
-770.269
 30
0.000000
  70
    32
  0
VERTEX
  8
É}ÿg
  5
910
 10
284.529
 20
-770.290
 30
0.000000
  70
    32
  0
VERTEX
  8
É}ÿg
  5
911
 10
284.612
 20
-770.311
 30
0.000000
  70
    32
  0
VERTEX
  8
É}ÿg
  5
912
 10
284.696
 20
-770.331
 30
0.000000
  70
    32
  0
VERTEX
  8
É}ÿg
  5
913
 10
284.780
 20
-770.352
 30
0.000000
  70
    32
  0
VERTEX
  8
É}ÿg
  5
914
 10
284.863
 20
-770.372
 30
0.000000
  70
    32
  0
VERTEX
  8
É}ÿg
  5
915
 10
284.947
 20
-770.392
 30
0.000000
  70
    32
  0
VERTEX
  8
É}ÿg
  5
916
 10
285.031
 20
-770.412
 30
0.000000
  70
    32
  0
VERTEX
  8
É}ÿg
  5
917
 10
285.115
 20
-770.432
 30
0.000000
  70
    32
  0
VERTEX
  8
É}ÿg
  5
918
 10
285.198
 20
-770.453
 30
0.000000
  70
    32
  0
VERTEX
  8
É}ÿg
  5
919
 10
285.282
 20
-770.473
 30
0.000000
  70
    32
  0
VERTEX
  8
É}ÿg
  5
91A
 10
285.366
 20
-770.492
 30
0.000000
  70
    32
  0
VERTEX
  8
É}ÿg
  5
91B
 10
285.450
 20
-770.512
 30
0.000000
  70
    32
  0
VERTEX
  8
É}ÿg
  5
91C
 10
285.534
 20
-770.532
 30
0.000000
  70
    32
  0
VERTEX
  8
É}ÿg
  5
91D
 10
285.618
 20
-770.552
 30
0.000000
  70
    32
  0
VERTEX
  8
É}ÿg
  5
91E
 10
285.702
 20
-770.571
 30
0.000000
  70
    32
  0
VERTEX
  8
É}ÿg
  5
91F
 10
285.786
 20
-770.591
 30
0.000000
  70
    32
  0
VERTEX
  8
É}ÿg
  5
920
 10
285.870
 20
-770.611
 30
0.000000
  70
    32
  0
VERTEX
  8
É}ÿg
  5
921
 10
285.955
 20
-770.630
 30
0.000000
  70
    32
  0
VERTEX
  8
É}ÿg
  5
922
 10
286.039
 20
-770.649
 30
0.000000
  70
    32
  0
VERTEX
  8
É}ÿg
  5
923
 10
286.123
 20
-770.669
 30
0.000000
  70
    32
  0
VERTEX
  8
É}ÿg
  5
924
 10
286.207
 20
-770.688
 30
0.000000
  70
    32
  0
VERTEX
  8
É}ÿg
  5
925
 10
286.292
 20
-770.707
 30
0.000000
  70
    32
  0
VERTEX
  8
É}ÿg
  5
926
 10
286.376
 20
-770.727
 30
0.000000
  70
    32
  0
VERTEX
  8
É}ÿg
  5
927
 10
286.460
 20
-770.746
 30
0.000000
  70
    32
  0
VERTEX
  8
É}ÿg
  5
928
 10
286.545
 20
-770.765
 30
0.000000
  70
    32
  0
VERTEX
  8
É}ÿg
  5
929
 10
286.629
 20
-770.784
 30
0.000000
  70
    32
  0
VERTEX
  8
É}ÿg
  5
92A
 10
286.713
 20
-770.803
 30
0.000000
  70
    32
  0
VERTEX
  8
É}ÿg
  5
92B
 10
286.798
 20
-770.822
 30
0.000000
  70
    32
  0
VERTEX
  8
É}ÿg
  5
92C
 10
286.882
 20
-770.841
 30
0.000000
  70
    32
  0
VERTEX
  8
É}ÿg
  5
92D
 10
286.967
 20
-770.859
 30
0.000000
  70
    32
  0
VERTEX
  8
É}ÿg
  5
92E
 10
287.051
 20
-770.878
 30
0.000000
  70
    32
  0
VERTEX
  8
É}ÿg
  5
92F
 10
287.136
 20
-770.897
 30
0.000000
  70
    32
  0
VERTEX
  8
É}ÿg
  5
930
 10
287.220
 20
-770.916
 30
0.000000
  70
    32
  0
VERTEX
  8
É}ÿg
  5
931
 10
287.305
 20
-770.934
 30
0.000000
  70
    32
  0
VERTEX
  8
É}ÿg
  5
932
 10
287.390
 20
-770.953
 30
0.000000
  70
    32
  0
VERTEX
  8
É}ÿg
  5
933
 10
287.474
 20
-770.971
 30
0.000000
  70
    32
  0
VERTEX
  8
É}ÿg
  5
934
 10
287.559
 20
-770.990
 30
0.000000
  70
    32
  0
VERTEX
  8
É}ÿg
  5
935
 10
287.644
 20
-771.008
 30
0.000000
  70
    32
  0
VERTEX
  8
É}ÿg
  5
936
 10
287.728
 20
-771.027
 30
0.000000
  70
    32
  0
VERTEX
  8
É}ÿg
  5
937
 10
287.813
 20
-771.045
 30
0.000000
  70
    32
  0
VERTEX
  8
É}ÿg
  5
938
 10
287.898
 20
-771.064
 30
0.000000
  70
    32
  0
VERTEX
  8
É}ÿg
  5
939
 10
287.983
 20
-771.082
 30
0.000000
  70
    32
  0
VERTEX
  8
É}ÿg
  5
93A
 10
288.067
 20
-771.100
 30
0.000000
  70
    32
  0
VERTEX
  8
É}ÿg
  5
93B
 10
288.152
 20
-771.119
 30
0.000000
  70
    32
  0
VERTEX
  8
É}ÿg
  5
93C
 10
288.237
 20
-771.137
 30
0.000000
  70
    32
  0
VERTEX
  8
É}ÿg
  5
93D
 10
288.322
 20
-771.155
 30
0.000000
  70
    32
  0
VERTEX
  8
É}ÿg
  5
93E
 10
288.407
 20
-771.173
 30
0.000000
  70
    32
  0
VERTEX
  8
É}ÿg
  5
93F
 10
288.492
 20
-771.191
 30
0.000000
  70
    32
  0
VERTEX
  8
É}ÿg
  5
940
 10
288.576
 20
-771.209
 30
0.000000
  70
    32
  0
VERTEX
  8
É}ÿg
  5
941
 10
288.661
 20
-771.227
 30
0.000000
  70
    32
  0
VERTEX
  8
É}ÿg
  5
942
 10
288.746
 20
-771.246
 30
0.000000
  70
    32
  0
VERTEX
  8
É}ÿg
  5
943
 10
288.831
 20
-771.264
 30
0.000000
  70
    32
  0
VERTEX
  8
É}ÿg
  5
944
 10
288.916
 20
-771.282
 30
0.000000
  70
    32
  0
VERTEX
  8
É}ÿg
  5
945
 10
289.001
 20
-771.300
 30
0.000000
  70
    32
  0
VERTEX
  8
É}ÿg
  5
946
 10
289.086
 20
-771.317
 30
0.000000
  70
    32
  0
VERTEX
  8
É}ÿg
  5
947
 10
289.171
 20
-771.335
 30
0.000000
  70
    32
  0
VERTEX
  8
É}ÿg
  5
948
 10
289.256
 20
-771.353
 30
0.000000
  70
    32
  0
VERTEX
  8
É}ÿg
  5
949
 10
289.341
 20
-771.371
 30
0.000000
  70
    32
  0
VERTEX
  8
É}ÿg
  5
94A
 10
289.426
 20
-771.389
 30
0.000000
  70
    32
  0
VERTEX
  8
É}ÿg
  5
94B
 10
289.511
 20
-771.407
 30
0.000000
  70
    32
  0
VERTEX
  8
É}ÿg
  5
94C
 10
289.596
 20
-771.425
 30
0.000000
  70
    32
  0
VERTEX
  8
É}ÿg
  5
94D
 10
289.681
 20
-771.443
 30
0.000000
  70
    32
  0
VERTEX
  8
É}ÿg
  5
94E
 10
289.766
 20
-771.460
 30
0.000000
  70
    32
  0
VERTEX
  8
É}ÿg
  5
94F
 10
289.851
 20
-771.478
 30
0.000000
  70
    32
  0
VERTEX
  8
É}ÿg
  5
950
 10
289.936
 20
-771.496
 30
0.000000
  70
    32
  0
VERTEX
  8
É}ÿg
  5
951
 10
290.022
 20
-771.514
 30
0.000000
  70
    32
  0
VERTEX
  8
É}ÿg
  5
952
 10
290.107
 20
-771.531
 30
0.000000
  70
    32
  0
VERTEX
  8
É}ÿg
  5
953
 10
290.192
 20
-771.549
 30
0.000000
  70
    32
  0
VERTEX
  8
É}ÿg
  5
954
 10
290.277
 20
-771.567
 30
0.000000
  70
    32
  0
VERTEX
  8
É}ÿg
  5
955
 10
290.362
 20
-771.585
 30
0.000000
  70
    32
  0
VERTEX
  8
É}ÿg
  5
956
 10
290.447
 20
-771.602
 30
0.000000
  70
    32
  0
VERTEX
  8
É}ÿg
  5
957
 10
290.532
 20
-771.620
 30
0.000000
  70
    32
  0
VERTEX
  8
É}ÿg
  5
958
 10
290.617
 20
-771.638
 30
0.000000
  70
    32
  0
VERTEX
  8
É}ÿg
  5
959
 10
290.702
 20
-771.655
 30
0.000000
  70
    32
  0
VERTEX
  8
É}ÿg
  5
95A
 10
290.787
 20
-771.673
 30
0.000000
  70
    32
  0
VERTEX
  8
É}ÿg
  5
95B
 10
290.873
 20
-771.691
 30
0.000000
  70
    32
  0
VERTEX
  8
É}ÿg
  5
95C
 10
290.958
 20
-771.709
 30
0.000000
  70
    32
  0
SEQEND
  8
É}ÿg
  5
95D
  0
POLYLINE
  8
É}ÿg
  5
95E
  66
     1
 10
0.000000
 20
0.000000
 30
0.000000
  70
     8
  0
VERTEX
  8
É}ÿg
  5
95F
 10
263.958
 20
-758.641
 30
0.000000
  70
    32
  0
VERTEX
  8
É}ÿg
  5
960
 10
264.012
 20
-758.691
 30
0.000000
  70
    32
  0
VERTEX
  8
É}ÿg
  5
961
 10
264.066
 20
-758.741
 30
0.000000
  70
    32
  0
VERTEX
  8
É}ÿg
  5
962
 10
264.120
 20
-758.791
 30
0.000000
  70
    32
  0
VERTEX
  8
É}ÿg
  5
963
 10
264.174
 20
-758.840
 30
0.000000
  70
    32
  0
VERTEX
  8
É}ÿg
  5
964
 10
264.228
 20
-758.890
 30
0.000000
  70
    32
  0
VERTEX
  8
É}ÿg
  5
965
 10
264.282
 20
-758.940
 30
0.000000
  70
    32
  0
VERTEX
  8
É}ÿg
  5
966
 10
264.336
 20
-758.990
 30
0.000000
  70
    32
  0
VERTEX
  8
É}ÿg
  5
967
 10
264.390
 20
-759.040
 30
0.000000
  70
    32
  0
VERTEX
  8
É}ÿg
  5
968
 10
264.444
 20
-759.089
 30
0.000000
  70
    32
  0
VERTEX
  8
É}ÿg
  5
969
 10
264.498
 20
-759.139
 30
0.000000
  70
    32
  0
VERTEX
  8
É}ÿg
  5
96A
 10
264.552
 20
-759.189
 30
0.000000
  70
    32
  0
VERTEX
  8
É}ÿg
  5
96B
 10
264.606
 20
-759.239
 30
0.000000
  70
    32
  0
VERTEX
  8
É}ÿg
  5
96C
 10
264.660
 20
-759.288
 30
0.000000
  70
    32
  0
VERTEX
  8
É}ÿg
  5
96D
 10
264.714
 20
-759.338
 30
0.000000
  70
    32
  0
VERTEX
  8
É}ÿg
  5
96E
 10
264.769
 20
-759.388
 30
0.000000
  70
    32
  0
VERTEX
  8
É}ÿg
  5
96F
 10
264.823
 20
-759.437
 30
0.000000
  70
    32
  0
VERTEX
  8
É}ÿg
  5
970
 10
264.877
 20
-759.487
 30
0.000000
  70
    32
  0
VERTEX
  8
É}ÿg
  5
971
 10
264.931
 20
-759.537
 30
0.000000
  70
    32
  0
VERTEX
  8
É}ÿg
  5
972
 10
264.985
 20
-759.586
 30
0.000000
  70
    32
  0
VERTEX
  8
É}ÿg
  5
973
 10
265.039
 20
-759.636
 30
0.000000
  70
    32
  0
VERTEX
  8
É}ÿg
  5
974
 10
265.093
 20
-759.686
 30
0.000000
  70
    32
  0
VERTEX
  8
É}ÿg
  5
975
 10
265.147
 20
-759.735
 30
0.000000
  70
    32
  0
VERTEX
  8
É}ÿg
  5
976
 10
265.202
 20
-759.785
 30
0.000000
  70
    32
  0
VERTEX
  8
É}ÿg
  5
977
 10
265.256
 20
-759.834
 30
0.000000
  70
    32
  0
VERTEX
  8
É}ÿg
  5
978
 10
265.310
 20
-759.884
 30
0.000000
  70
    32
  0
VERTEX
  8
É}ÿg
  5
979
 10
265.364
 20
-759.933
 30
0.000000
  70
    32
  0
VERTEX
  8
É}ÿg
  5
97A
 10
265.418
 20
-759.983
 30
0.000000
  70
    32
  0
VERTEX
  8
É}ÿg
  5
97B
 10
265.473
 20
-760.032
 30
0.000000
  70
    32
  0
VERTEX
  8
É}ÿg
  5
97C
 10
265.527
 20
-760.081
 30
0.000000
  70
    32
  0
VERTEX
  8
É}ÿg
  5
97D
 10
265.581
 20
-760.131
 30
0.000000
  70
    32
  0
VERTEX
  8
É}ÿg
  5
97E
 10
265.636
 20
-760.180
 30
0.000000
  70
    32
  0
VERTEX
  8
É}ÿg
  5
97F
 10
265.690
 20
-760.229
 30
0.000000
  70
    32
  0
VERTEX
  8
É}ÿg
  5
980
 10
265.744
 20
-760.279
 30
0.000000
  70
    32
  0
VERTEX
  8
É}ÿg
  5
981
 10
265.799
 20
-760.328
 30
0.000000
  70
    32
  0
VERTEX
  8
É}ÿg
  5
982
 10
265.853
 20
-760.377
 30
0.000000
  70
    32
  0
VERTEX
  8
É}ÿg
  5
983
 10
265.907
 20
-760.426
 30
0.000000
  70
    32
  0
VERTEX
  8
É}ÿg
  5
984
 10
265.962
 20
-760.475
 30
0.000000
  70
    32
  0
VERTEX
  8
É}ÿg
  5
985
 10
266.016
 20
-760.524
 30
0.000000
  70
    32
  0
VERTEX
  8
É}ÿg
  5
986
 10
266.071
 20
-760.573
 30
0.000000
  70
    32
  0
VERTEX
  8
É}ÿg
  5
987
 10
266.125
 20
-760.622
 30
0.000000
  70
    32
  0
VERTEX
  8
É}ÿg
  5
988
 10
266.180
 20
-760.671
 30
0.000000
  70
    32
  0
VERTEX
  8
É}ÿg
  5
989
 10
266.234
 20
-760.720
 30
0.000000
  70
    32
  0
VERTEX
  8
É}ÿg
  5
98A
 10
266.289
 20
-760.769
 30
0.000000
  70
    32
  0
VERTEX
  8
É}ÿg
  5
98B
 10
266.343
 20
-760.818
 30
0.000000
  70
    32
  0
VERTEX
  8
É}ÿg
  5
98C
 10
266.398
 20
-760.867
 30
0.000000
  70
    32
  0
VERTEX
  8
É}ÿg
  5
98D
 10
266.452
 20
-760.916
 30
0.000000
  70
    32
  0
VERTEX
  8
É}ÿg
  5
98E
 10
266.507
 20
-760.964
 30
0.000000
  70
    32
  0
VERTEX
  8
É}ÿg
  5
98F
 10
266.562
 20
-761.013
 30
0.000000
  70
    32
  0
VERTEX
  8
É}ÿg
  5
990
 10
266.616
 20
-761.061
 30
0.000000
  70
    32
  0
VERTEX
  8
É}ÿg
  5
991
 10
266.671
 20
-761.110
 30
0.000000
  70
    32
  0
VERTEX
  8
É}ÿg
  5
992
 10
266.726
 20
-761.158
 30
0.000000
  70
    32
  0
VERTEX
  8
É}ÿg
  5
993
 10
266.781
 20
-761.207
 30
0.000000
  70
    32
  0
VERTEX
  8
É}ÿg
  5
994
 10
266.835
 20
-761.255
 30
0.000000
  70
    32
  0
VERTEX
  8
É}ÿg
  5
995
 10
266.890
 20
-761.304
 30
0.000000
  70
    32
  0
VERTEX
  8
É}ÿg
  5
996
 10
266.945
 20
-761.352
 30
0.000000
  70
    32
  0
VERTEX
  8
É}ÿg
  5
997
 10
267.000
 20
-761.400
 30
0.000000
  70
    32
  0
VERTEX
  8
É}ÿg
  5
998
 10
267.055
 20
-761.448
 30
0.000000
  70
    32
  0
VERTEX
  8
É}ÿg
  5
999
 10
267.110
 20
-761.496
 30
0.000000
  70
    32
  0
VERTEX
  8
É}ÿg
  5
99A
 10
267.165
 20
-761.544
 30
0.000000
  70
    32
  0
VERTEX
  8
É}ÿg
  5
99B
 10
267.220
 20
-761.592
 30
0.000000
  70
    32
  0
VERTEX
  8
É}ÿg
  5
99C
 10
267.275
 20
-761.640
 30
0.000000
  70
    32
  0
VERTEX
  8
É}ÿg
  5
99D
 10
267.330
 20
-761.688
 30
0.000000
  70
    32
  0
VERTEX
  8
É}ÿg
  5
99E
 10
267.385
 20
-761.736
 30
0.000000
  70
    32
  0
VERTEX
  8
É}ÿg
  5
99F
 10
267.440
 20
-761.784
 30
0.000000
  70
    32
  0
VERTEX
  8
É}ÿg
  5
9A0
 10
267.496
 20
-761.831
 30
0.000000
  70
    32
  0
VERTEX
  8
É}ÿg
  5
9A1
 10
267.551
 20
-761.879
 30
0.000000
  70
    32
  0
VERTEX
  8
É}ÿg
  5
9A2
 10
267.606
 20
-761.926
 30
0.000000
  70
    32
  0
VERTEX
  8
É}ÿg
  5
9A3
 10
267.661
 20
-761.974
 30
0.000000
  70
    32
  0
VERTEX
  8
É}ÿg
  5
9A4
 10
267.717
 20
-762.021
 30
0.000000
  70
    32
  0
VERTEX
  8
É}ÿg
  5
9A5
 10
267.772
 20
-762.068
 30
0.000000
  70
    32
  0
VERTEX
  8
É}ÿg
  5
9A6
 10
267.828
 20
-762.116
 30
0.000000
  70
    32
  0
VERTEX
  8
É}ÿg
  5
9A7
 10
267.883
 20
-762.163
 30
0.000000
  70
    32
  0
VERTEX
  8
É}ÿg
  5
9A8
 10
267.939
 20
-762.210
 30
0.000000
  70
    32
  0
VERTEX
  8
É}ÿg
  5
9A9
 10
267.994
 20
-762.257
 30
0.000000
  70
    32
  0
VERTEX
  8
É}ÿg
  5
9AA
 10
268.050
 20
-762.304
 30
0.000000
  70
    32
  0
VERTEX
  8
É}ÿg
  5
9AB
 10
268.105
 20
-762.351
 30
0.000000
  70
    32
  0
VERTEX
  8
É}ÿg
  5
9AC
 10
268.161
 20
-762.398
 30
0.000000
  70
    32
  0
VERTEX
  8
É}ÿg
  5
9AD
 10
268.217
 20
-762.444
 30
0.000000
  70
    32
  0
VERTEX
  8
É}ÿg
  5
9AE
 10
268.272
 20
-762.491
 30
0.000000
  70
    32
  0
VERTEX
  8
É}ÿg
  5
9AF
 10
268.328
 20
-762.537
 30
0.000000
  70
    32
  0
VERTEX
  8
É}ÿg
  5
9B0
 10
268.384
 20
-762.584
 30
0.000000
  70
    32
  0
VERTEX
  8
É}ÿg
  5
9B1
 10
268.440
 20
-762.630
 30
0.000000
  70
    32
  0
VERTEX
  8
É}ÿg
  5
9B2
 10
268.496
 20
-762.676
 30
0.000000
  70
    32
  0
VERTEX
  8
É}ÿg
  5
9B3
 10
268.552
 20
-762.723
 30
0.000000
  70
    32
  0
VERTEX
  8
É}ÿg
  5
9B4
 10
268.608
 20
-762.769
 30
0.000000
  70
    32
  0
VERTEX
  8
É}ÿg
  5
9B5
 10
268.664
 20
-762.815
 30
0.000000
  70
    32
  0
VERTEX
  8
É}ÿg
  5
9B6
 10
268.720
 20
-762.861
 30
0.000000
  70
    32
  0
VERTEX
  8
É}ÿg
  5
9B7
 10
268.776
 20
-762.907
 30
0.000000
  70
    32
  0
VERTEX
  8
É}ÿg
  5
9B8
 10
268.833
 20
-762.952
 30
0.000000
  70
    32
  0
VERTEX
  8
É}ÿg
  5
9B9
 10
268.889
 20
-762.998
 30
0.000000
  70
    32
  0
VERTEX
  8
É}ÿg
  5
9BA
 10
268.945
 20
-763.043
 30
0.000000
  70
    32
  0
VERTEX
  8
É}ÿg
  5
9BB
 10
269.002
 20
-763.089
 30
0.000000
  70
    32
  0
VERTEX
  8
É}ÿg
  5
9BC
 10
269.058
 20
-763.134
 30
0.000000
  70
    32
  0
VERTEX
  8
É}ÿg
  5
9BD
 10
269.115
 20
-763.180
 30
0.000000
  70
    32
  0
VERTEX
  8
É}ÿg
  5
9BE
 10
269.171
 20
-763.225
 30
0.000000
  70
    32
  0
VERTEX
  8
É}ÿg
  5
9BF
 10
269.228
 20
-763.270
 30
0.000000
  70
    32
  0
VERTEX
  8
É}ÿg
  5
9C0
 10
269.284
 20
-763.315
 30
0.000000
  70
    32
  0
VERTEX
  8
É}ÿg
  5
9C1
 10
269.341
 20
-763.360
 30
0.000000
  70
    32
  0
VERTEX
  8
É}ÿg
  5
9C2
 10
269.398
 20
-763.405
 30
0.000000
  70
    32
  0
VERTEX
  8
É}ÿg
  5
9C3
 10
269.455
 20
-763.449
 30
0.000000
  70
    32
  0
VERTEX
  8
É}ÿg
  5
9C4
 10
269.511
 20
-763.494
 30
0.000000
  70
    32
  0
VERTEX
  8
É}ÿg
  5
9C5
 10
269.568
 20
-763.538
 30
0.000000
  70
    32
  0
VERTEX
  8
É}ÿg
  5
9C6
 10
269.625
 20
-763.583
 30
0.000000
  70
    32
  0
VERTEX
  8
É}ÿg
  5
9C7
 10
269.682
 20
-763.627
 30
0.000000
  70
    32
  0
VERTEX
  8
É}ÿg
  5
9C8
 10
269.739
 20
-763.671
 30
0.000000
  70
    32
  0
VERTEX
  8
É}ÿg
  5
9C9
 10
269.797
 20
-763.715
 30
0.000000
  70
    32
  0
VERTEX
  8
É}ÿg
  5
9CA
 10
269.854
 20
-763.759
 30
0.000000
  70
    32
  0
VERTEX
  8
É}ÿg
  5
9CB
 10
269.911
 20
-763.803
 30
0.000000
  70
    32
  0
VERTEX
  8
É}ÿg
  5
9CC
 10
269.968
 20
-763.846
 30
0.000000
  70
    32
  0
VERTEX
  8
É}ÿg
  5
9CD
 10
270.026
 20
-763.890
 30
0.000000
  70
    32
  0
VERTEX
  8
É}ÿg
  5
9CE
 10
270.083
 20
-763.934
 30
0.000000
  70
    32
  0
VERTEX
  8
É}ÿg
  5
9CF
 10
270.141
 20
-763.977
 30
0.000000
  70
    32
  0
VERTEX
  8
É}ÿg
  5
9D0
 10
270.198
 20
-764.020
 30
0.000000
  70
    32
  0
VERTEX
  8
É}ÿg
  5
9D1
 10
270.256
 20
-764.063
 30
0.000000
  70
    32
  0
VERTEX
  8
É}ÿg
  5
9D2
 10
270.314
 20
-764.106
 30
0.000000
  70
    32
  0
VERTEX
  8
É}ÿg
  5
9D3
 10
270.372
 20
-764.149
 30
0.000000
  70
    32
  0
VERTEX
  8
É}ÿg
  5
9D4
 10
270.429
 20
-764.192
 30
0.000000
  70
    32
  0
VERTEX
  8
É}ÿg
  5
9D5
 10
270.487
 20
-764.235
 30
0.000000
  70
    32
  0
VERTEX
  8
É}ÿg
  5
9D6
 10
270.545
 20
-764.277
 30
0.000000
  70
    32
  0
VERTEX
  8
É}ÿg
  5
9D7
 10
270.603
 20
-764.320
 30
0.000000
  70
    32
  0
VERTEX
  8
É}ÿg
  5
9D8
 10
270.661
 20
-764.362
 30
0.000000
  70
    32
  0
VERTEX
  8
É}ÿg
  5
9D9
 10
270.720
 20
-764.404
 30
0.000000
  70
    32
  0
VERTEX
  8
É}ÿg
  5
9DA
 10
270.778
 20
-764.446
 30
0.000000
  70
    32
  0
VERTEX
  8
É}ÿg
  5
9DB
 10
270.836
 20
-764.488
 30
0.000000
  70
    32
  0
VERTEX
  8
É}ÿg
  5
9DC
 10
270.895
 20
-764.530
 30
0.000000
  70
    32
  0
VERTEX
  8
É}ÿg
  5
9DD
 10
270.953
 20
-764.571
 30
0.000000
  70
    32
  0
VERTEX
  8
É}ÿg
  5
9DE
 10
271.011
 20
-764.613
 30
0.000000
  70
    32
  0
VERTEX
  8
É}ÿg
  5
9DF
 10
271.070
 20
-764.654
 30
0.000000
  70
    32
  0
VERTEX
  8
É}ÿg
  5
9E0
 10
271.129
 20
-764.695
 30
0.000000
  70
    32
  0
VERTEX
  8
É}ÿg
  5
9E1
 10
271.187
 20
-764.737
 30
0.000000
  70
    32
  0
VERTEX
  8
É}ÿg
  5
9E2
 10
271.246
 20
-764.778
 30
0.000000
  70
    32
  0
VERTEX
  8
É}ÿg
  5
9E3
 10
271.305
 20
-764.818
 30
0.000000
  70
    32
  0
VERTEX
  8
É}ÿg
  5
9E4
 10
271.364
 20
-764.859
 30
0.000000
  70
    32
  0
VERTEX
  8
É}ÿg
  5
9E5
 10
271.423
 20
-764.900
 30
0.000000
  70
    32
  0
VERTEX
  8
É}ÿg
  5
9E6
 10
271.482
 20
-764.940
 30
0.000000
  70
    32
  0
VERTEX
  8
É}ÿg
  5
9E7
 10
271.541
 20
-764.980
 30
0.000000
  70
    32
  0
VERTEX
  8
É}ÿg
  5
9E8
 10
271.601
 20
-765.021
 30
0.000000
  70
    32
  0
VERTEX
  8
É}ÿg
  5
9E9
 10
271.660
 20
-765.061
 30
0.000000
  70
    32
  0
VERTEX
  8
É}ÿg
  5
9EA
 10
271.719
 20
-765.100
 30
0.000000
  70
    32
  0
VERTEX
  8
É}ÿg
  5
9EB
 10
271.779
 20
-765.140
 30
0.000000
  70
    32
  0
VERTEX
  8
É}ÿg
  5
9EC
 10
271.838
 20
-765.180
 30
0.000000
  70
    32
  0
VERTEX
  8
É}ÿg
  5
9ED
 10
271.898
 20
-765.219
 30
0.000000
  70
    32
  0
VERTEX
  8
É}ÿg
  5
9EE
 10
271.958
 20
-765.258
 30
0.000000
  70
    32
  0
VERTEX
  8
É}ÿg
  5
9EF
 10
272.018
 20
-765.298
 30
0.000000
  70
    32
  0
VERTEX
  8
É}ÿg
  5
9F0
 10
272.078
 20
-765.337
 30
0.000000
  70
    32
  0
VERTEX
  8
É}ÿg
  5
9F1
 10
272.138
 20
-765.375
 30
0.000000
  70
    32
  0
VERTEX
  8
É}ÿg
  5
9F2
 10
272.198
 20
-765.414
 30
0.000000
  70
    32
  0
VERTEX
  8
É}ÿg
  5
9F3
 10
272.258
 20
-765.453
 30
0.000000
  70
    32
  0
VERTEX
  8
É}ÿg
  5
9F4
 10
272.318
 20
-765.491
 30
0.000000
  70
    32
  0
VERTEX
  8
É}ÿg
  5
9F5
 10
272.378
 20
-765.529
 30
0.000000
  70
    32
  0
VERTEX
  8
É}ÿg
  5
9F6
 10
272.439
 20
-765.567
 30
0.000000
  70
    32
  0
VERTEX
  8
É}ÿg
  5
9F7
 10
272.499
 20
-765.605
 30
0.000000
  70
    32
  0
VERTEX
  8
É}ÿg
  5
9F8
 10
272.560
 20
-765.643
 30
0.000000
  70
    32
  0
VERTEX
  8
É}ÿg
  5
9F9
 10
272.620
 20
-765.681
 30
0.000000
  70
    32
  0
VERTEX
  8
É}ÿg
  5
9FA
 10
272.681
 20
-765.718
 30
0.000000
  70
    32
  0
VERTEX
  8
É}ÿg
  5
9FB
 10
272.742
 20
-765.755
 30
0.000000
  70
    32
  0
VERTEX
  8
É}ÿg
  5
9FC
 10
272.803
 20
-765.792
 30
0.000000
  70
    32
  0
VERTEX
  8
É}ÿg
  5
9FD
 10
272.864
 20
-765.829
 30
0.000000
  70
    32
  0
VERTEX
  8
É}ÿg
  5
9FE
 10
272.925
 20
-765.866
 30
0.000000
  70
    32
  0
SEQEND
  8
É}ÿg
  5
9FF
  0
INSERT
  5
680
  8
0
  6
CONTINUOUS
  2
*U100
 10
0.0
 20
0.0
 30
0.0
  0
LINE
  5
681
  8
É}ÿg
 10
304.65171427310003
 20
-691.83853650240007
 30
0.0
 11
304.65171427310003
 21
-699.03853650240001
 31
0.0
  0
LINE
  5
682
  8
É}ÿg
 10
255.97590120289999
 20
-756.70851760179994
 30
0.0
 11
255.97590120289999
 21
-761.20851760179994
 31
0.0
  0
LINE
  5
683
  8
É}ÿg
 10
304.65171427310003
 20
-699.03853650240001
 30
0.0
 11
319.0517142731
 21
-702.63853650240003
 31
0.0
  0
LINE
  5
684
  8
É}ÿg
 10
263.9577193847
 20
-750.70851760179994
 30
0.0
 11
263.9577193847
 21
-756.10851760179992
 31
0.0
  0
ARC
  5
685
  8
É}ÿg
 10
242.47590120289999
 20
-762.70851760179994
 30
0.0
 40
9.0
 50
270.0
 51
0.0
  0
LINE
  5
686
  8
É}ÿg
 10
112.993961738
 20
-678.93853650239987
 30
0.0
 11
112.993961738
 21
-777.93853650239998
 31
0.0
  0
INSERT
  5
687
  8
0
  6
CONTINUOUS
  2
*U101
 10
0.0
 20
0.0
 30
0.0
  0
INSERT
  5
688
  8
0
  6
CONTINUOUS
  2
*U102
 10
0.0
 20
0.0
 30
0.0
  0
INSERT
  5
689
  8
0
  6
CONTINUOUS
  2
*U103
 10
0.0
 20
0.0
 30
0.0
  0
INSERT
  5
68A
  8
0
  6
CONTINUOUS
  2
*U104
 10
0.0
 20
0.0
 30
0.0
  0
LINE
  5
68B
  8
É}ÿg
 10
225.493961738
 20
-711.9385365024001
 30
0.0
 11
225.493961738
 21
-744.93853650239998
 31
0.0
  0
LINE
  5
68C
  8
É}ÿg
 10
112.993961738
 20
-744.93853650239998
 30
0.0
 11
547.99396173800005
 21
-744.93853650239998
 31
0.0
  0
LINE
  5
68D
  8
É}ÿg
 10
120.493961738
 20
-728.43853650239998
 30
0.0
 11
217.993961738
 21
-728.43853650239998
 31
0.0
  0
LINE
  5
68E
  8
É}ÿg
 10
232.993961738
 20
-728.43853650239998
 30
0.0
 11
330.493961738
 21
-728.43853650239998
 31
0.0
  0
INSERT
  5
68F
  8
0
  6
CONTINUOUS
  2
*U105
 10
0.0
 20
0.0
 30
0.0
  0
INSERT
  5
690
  8
0
  6
CONTINUOUS
  2
*U106
 10
0.0
 20
0.0
 30
0.0
  0
LINE
  5
691
  8
É}ÿg
 10
139.993961738
 20
-663.93853650239998
 30
0.0
 11
139.993961738
 21
-648.93853650239987
 31
0.0
  0
LINE
  5
692
  8
É}ÿg
 10
112.993961738
 20
-663.93853650239998
 30
0.0
 11
112.993961738
 21
-648.93853650239987
 31
0.0
  0
LINE
  5
693
  8
É}ÿg
 10
454.993961738
 20
-663.93853650239998
 30
0.0
 11
454.993961738
 21
-648.93853650239987
 31
0.0
  0
LINE
  5
694
  8
É}ÿg
 10
427.99396173800011
 20
-663.93853650239998
 30
0.0
 11
427.99396173800011
 21
-648.93853650239987
 31
0.0
  0
LINE
  5
695
  8
É}ÿg
 10
547.99396173800005
 20
-648.93853650239987
 30
0.0
 11
112.993961738
 21
-648.93853650239987
 31
0.0
  0
LINE
  5
696
  8
É}ÿg
 10
112.993961738
 20
-663.93853650239998
 30
0.0
 11
547.99396173800005
 21
-663.93853650239998
 31
0.0
  0
LINE
  5
697
  8
É}ÿg
 10
289.993961738
 20
-663.93853650239998
 30
0.0
 11
289.993961738
 21
-648.93853650239987
 31
0.0
  0
INSERT
  5
698
  8
0
  6
CONTINUOUS
  2
*U107
 10
0.0
 20
0.0
 30
0.0
  0
INSERT
  5
699
  8
0
  6
CONTINUOUS
  2
*U108
 10
0.0
 20
0.0
 30
0.0
  0
CIRCLE
  5
69A
  8
É}ÿg
 10
288.19396173799998
 20
-695.4385365024001
 30
0.0
 40
3.6000000000000001
  0
LINE
  5
69B
  8
É}ÿg
 10
304.65171427310003
 20
-699.03853650240001
 30
0.0
 11
319.0517142731
 21
-702.63853650240003
 31
0.0
  0
LINE
  5
69C
  8
É}ÿg
 10
304.65171427310003
 20
-691.83853650240007
 30
0.0
 11
304.65171427310003
 21
-699.03853650240001
 31
0.0
  0
LINE
  5
69D
  8
É}ÿg
 10
319.0517142731
 20
-688.23853650240005
 30
0.0
 11
319.0517142731
 21
-702.63853650240003
 31
0.0
  0
LINE
  5
69E
  8
É}ÿg
  6
BORDER
 10
288.19396173799998
 20
-684.63853650240003
 30
0.0
 11
288.19396173799998
 21
-706.23853650240005
 31
0.0
  0
LINE
  5
69F
  8
É}ÿg
  6
BORDER
 10
288.19396173799998
 20
-684.63853650240003
 30
0.0
 11
288.19396173799998
 21
-706.23853650240005
 31
0.0
  0
LINE
  5
6A0
  8
É}ÿg
 10
319.0517142731
 20
-688.23853650240005
 30
0.0
 11
319.0517142731
 21
-702.63853650240003
 31
0.0
  0
LINE
  5
6A1
  8
É}ÿg
 10
304.65171427310003
 20
-691.83853650240007
 30
0.0
 11
304.65171427310003
 21
-699.03853650240001
 31
0.0
  0
LINE
  5
6A2
  8
É}ÿg
 10
304.65171427310003
 20
-699.03853650240001
 30
0.0
 11
319.0517142731
 21
-702.63853650240003
 31
0.0
  0
LINE
  5
6A3
  8
É}ÿg
 10
304.65171427310003
 20
-691.83853650240007
 30
0.0
 11
319.0517142731
 21
-688.23853650240005
 31
0.0
  0
CIRCLE
  5
6A4
  8
É}ÿg
 10
288.19396173799998
 20
-695.4385365024001
 30
0.0
 40
7.2000000000000002
  0
CIRCLE
  5
6A5
  8
É}ÿg
 10
288.19396173799998
 20
-695.4385365024001
 30
0.0
 40
3.6000000000000001
  0
CIRCLE
  5
6A6
  8
É}ÿg
 10
288.19396173799998
 20
-695.4385365024001
 30
0.0
 40
7.2000000000000002
  0
LINE
  5
6A7
  8
É}ÿg
 10
304.65171427310003
 20
-691.83853650240007
 30
0.0
 11
319.0517142731
 21
-688.23853650240005
 31
0.0
  0
ENDBLK
  5
6A8
  8
0
  0
BLOCK
  8
0
  2
*D53
 70
     1
 10
0.0
 20
0.0
 30
0.0
  3
*D53
  1

  0
TEXT
  5
6AB
  8
0
 62
     0
 10
-205.3492167986
 20
-21.388749842599999
 30
0.0
 40
9.8954164504999991
  1
980
  0
LINE
  5
6AC
  8
0
 62
     0
 10
194.49460079310001
 20
-64.5433097409
 30
0.0
 11
194.49460079310001
 21
-23.1349998044
 31
0.0
  0
LINE
  5
6AD
  8
0
 62
     0
 10
-585.50539920690005
 20
-64.5433097409
 30
0.0
 11
-585.50539920690005
 21
-23.1349998044
 31
0.0
  0
LINE
  5
6AE
  8
0
 62
     0
 10
194.49460079310001
 20
-24.1349998044
 30
0.0
 11
-182.06588397389999
 21
-24.1349998044
 31
0.0
  0
LINE
  5
6AF
  8
0
 62
     0
 10
194.49460079310001
 20
-24.1349998044
 30
0.0
 11
-211.1700500048
 21
-24.1349998044
 31
0.0
  0
LINE
  5
6B0
  8
0
 62
     0
 10
-585.50539920690005
 20
-24.1349998044
 30
0.0
 11
-182.06588397389999
 21
-24.1349998044
 31
0.0
  0
LINE
  5
6B1
  8
0
 62
     0
 10
-585.50539920690005
 20
-24.1349998044
 30
0.0
 11
-211.1700500048
 21
-24.1349998044
 31
0.0
  0
LINE
  5
6B2
  8
0
 62
     0
 10
-585.50539920690005
 20
-24.1349998044
 30
0.0
 11
-580.50539920690005
 21
-24.1349998044
 31
0.0
  0
SOLID
  5
6B3
  8
0
 62
     0
 10
-585.50539920690005
 20
-24.1349998044
 30
0.0
 11
-576.50539920690005
 21
-21.8849998044
 31
0.0
 12
-576.50539920690005
 22
-26.3849998044
 32
0.0
 13
-578.75539920690005
 23
-24.1349998044
 33
0.0
  0
LINE
  5
6B4
  8
0
 62
     0
 10
194.49460079310001
 20
-24.1349998044
 30
0.0
 11
189.49460079310001
 21
-24.1349998044
 31
0.0
  0
SOLID
  5
6B5
  8
0
 62
     0
 10
194.49460079310001
 20
-24.1349998044
 30
0.0
 11
185.49460079310001
 21
-26.3849998044
 31
0.0
 12
185.49460079310001
 22
-21.8849998044
 32
0.0
 13
187.74460079310001
 23
-24.1349998044
 33
0.0
  0
ENDBLK
  5
6B6
  8
0
  0
BLOCK
  8
0
  2
*D54
 70
     1
 10
0.0
 20
0.0
 30
0.0
  3
*D54
  1

  0
TEXT
  5
6BA
  8
0
 62
     0
 10
-204.2366490162
 20
-3.7618997144000001
 30
0.0
 40
9.8954164504999991
  1
998
  0
LINE
  5
6BB
  8
0
 62
     0
 10
203.49460079310001
 20
-55.543309740899993
 30
0.0
 11
203.49460079310001
 21
-5.5081496762000004
 31
0.0
  0
LINE
  5
6BC
  8
0
 62
     0
 10
-594.50539920690005
 20
-55.543309740899993
 30
0.0
 11
-594.50539920690005
 21
-5.5081496762000004
 31
0.0
  0
LINE
  5
6BD
  8
0
 62
     0
 10
203.49460079310001
 20
-6.5081496762000004
 30
0.0
 11
-180.95331619149999
 21
-6.5081496762000004
 31
0.0
  0
LINE
  5
6BE
  8
0
 62
     0
 10
203.49460079310001
 20
-6.5081496762000004
 30
0.0
 11
-210.05748222240001
 21
-6.5081496762000004
 31
0.0
  0
LINE
  5
6BF
  8
0
 62
     0
 10
-594.50539920690005
 20
-6.5081496762000004
 30
0.0
 11
-180.95331619149999
 21
-6.5081496762000004
 31
0.0
  0
LINE
  5
6C0
  8
0
 62
     0
 10
-594.50539920690005
 20
-6.5081496762000004
 30
0.0
 11
-210.05748222240001
 21
-6.5081496762000004
 31
0.0
  0
LINE
  5
6C1
  8
0
 62
     0
 10
-594.50539920690005
 20
-6.5081496762000004
 30
0.0
 11
-589.50539920690005
 21
-6.5081496762000004
 31
0.0
  0
SOLID
  5
6C2
  8
0
 62
     0
 10
-594.50539920690005
 20
-6.5081496762000004
 30
0.0
 11
-585.50539920690005
 21
-4.2581496762000004
 31
0.0
 12
-585.50539920690005
 22
-8.7581496762000004
 32
0.0
 13
-587.75539920690005
 23
-6.5081496762000004
 33
0.0
  0
LINE
  5
6C3
  8
0
 62
     0
 10
203.49460079310001
 20
-6.5081496762000004
 30
0.0
 11
198.49460079310001
 21
-6.5081496762000004
 31
0.0
  0
SOLID
  5
6C4
  8
0
 62
     0
 10
203.49460079310001
 20
-6.5081496762000004
 30
0.0
 11
194.49460079310001
 21
-8.7581496762000004
 31
0.0
 12
194.49460079310001
 22
-4.2581496762000004
 32
0.0
 13
196.74460079310001
 23
-6.5081496762000004
 33
0.0
  0
ENDBLK
  5
6C5
  8
0
  0
BLOCK
  8
0
  2
*D55
 70
     1
 10
0.0
 20
0.0
 30
0.0
  3
*D55
  1

  0
TEXT
  5
6DD
  8
0
 62
     0
 10
224.74835083120001
 20
-378.5920887199
 30
0.0
 40
9.8954164504999991
  1
6
 50
90.0
  0
LINE
  5
6DE
  8
0
 62
     0
 10
203.69460079309999
 20
-363.88937093890002
 30
0.0
 11
228.49460079310001
 21
-363.88937093890002
 31
0.0
  0
LINE
  5
6DF
  8
0
 62
     0
 10
204.49460079310001
 20
-357.88937093890002
 30
0.0
 11
228.49460079310001
 21
-357.88937093890002
 31
0.0
  0
LINE
  5
6E0
  8
0
 62
     0
 10
227.49460079310001
 20
-363.88937093890002
 30
0.0
 11
227.49460079310001
 21
-366.95042230759998
 31
0.0
  0
LINE
  5
6E1
  8
0
 62
     0
 10
227.49460079310001
 20
-363.88937093890002
 30
0.0
 11
227.49460079310001
 21
-384.41292192610001
 31
0.0
  0
LINE
  5
6E2
  8
0
 62
     0
 10
227.49460079310001
 20
-357.88937093890002
 30
0.0
 11
227.49460079310001
 21
-366.95042230759998
 31
0.0
  0
LINE
  5
6E3
  8
0
 62
     0
 10
227.49460079310001
 20
-357.88937093890002
 30
0.0
 11
227.49460079310001
 21
-384.41292192610001
 31
0.0
  0
LINE
  5
6E4
  8
0
 62
     0
 10
227.49460079310001
 20
-357.88937093890002
 30
0.0
 11
227.49460079310001
 21
-352.88937093890002
 31
0.0
  0
SOLID
  5
6E5
  8
0
 62
     0
 10
227.49460079310001
 20
-357.88937093890002
 30
0.0
 11
225.24460079310001
 21
-348.88937093890002
 31
0.0
 12
229.74460079310001
 22
-348.88937093890002
 32
0.0
 13
227.49460079310001
 23
-351.13937093890002
 33
0.0
  0
LINE
  5
6E6
  8
0
 62
     0
 10
227.49460079310001
 20
-363.88937093890002
 30
0.0
 11
227.49460079310001
 21
-368.88937093890002
 31
0.0
  0
SOLID
  5
6E7
  8
0
 62
     0
 10
227.49460079310001
 20
-363.88937093890002
 30
0.0
 11
229.74460079310001
 21
-372.88937093890002
 31
0.0
 12
225.24460079310001
 22
-372.88937093890002
 32
0.0
 13
227.49460079310001
 23
-370.63937093890002
 33
0.0
  0
ENDBLK
  5
6E8
  8
0
  0
BLOCK
  8
0
  2
*U56
 70
     1
 10
0.0
 20
0.0
 30
0.0
  3
*U56
  1

  0
TEXT
  5
705
  8
┌▓È_1
  6
CONTINUOUS
 10
308.85688076259999
 20
-306.71430005759078
 30
0.0
 40
8.9958330630999992
  1
üiÉ¾î^üj
  0
ENDBLK
  5
707
  8
0
  0
BLOCK
  8
0
  2
*U57
 70
     1
 10
0.0
 20
0.0
 30
0.0
  3
*U57
  1

  0
TEXT
  5
709
  8
┌▓È_1
  6
CONTINUOUS
 10
409.77788187919992
 20
-306.5316435486954
 30
0.0
 40
8.9958330630999992
  1
üiÉ[î^üj
  0
ENDBLK
  5
70B
  8
0
  0
BLOCK
  8
0
  2
*U58
 70
     1
 10
0.0
 20
0.0
 30
0.0
  3
*U58
  1

  0
TEXT
  5
70D
  8
ë³Æ¨
  6
CONTINUOUS
 10
275.02457324493031
 20
34.407036817300003
 30
0.0
 40
8.0962499027000003
  1
1
  0
ENDBLK
  5
70F
  8
0
  0
BLOCK
  8
0
  2
*U59
 70
     1
 10
0.0
 20
0.0
 30
0.0
  3
*U59
  1

  0
TEXT
  5
711
  8
ë³Æ¨
  6
CONTINUOUS
 10
290.17783582666601
 20
36.220213619200003
 30
0.0
 40
8.0962498784000001
  1
H**.**.**
  0
ENDBLK
  5
713
  8
0
  0
BLOCK
  8
0
  2
*U60
 70
     1
 10
0.0
 20
0.0
 30
0.0
  3
*U60
  1

  0
TEXT
  5
715
  8
ë³Æ¨
  6
CONTINUOUS
 10
355.12837885075538
 20
36.227713619200003
 30
0.0
 40
8.0962498784000001
  1
**********************
  0
ENDBLK
  5
717
  8
0
  0
BLOCK
  8
0
  2
*U61
 70
     1
 10
0.0
 20
0.0
 30
0.0
  3
*U61
  1

  0
TEXT
  5
719
  8
ë³Æ¨
  6
CONTINUOUS
 10
493.82917126651171
 20
36.220213619200003
 30
0.0
 40
8.0962498784000001
  1
üûüû
  0
ENDBLK
  5
71B
  8
0
  0
BLOCK
  8
0
  2
*U62
 70
     1
 10
0.0
 20
0.0
 30
0.0
  3
*U62
  1

  0
TEXT
  5
71D
  8
É}ÿg
  6
CONTINUOUS
 10
371.97859348248051
 20
-701.37725339395888
 30
0.0
 40
11.694583225300001
  1
ânâCéãü[éÚ(É¾î^ üEÉ[î^ )
  0
ENDBLK
  5
71F
  8
0
  0
BLOCK
  8
0
  2
*U63
 70
     1
 10
0.0
 20
0.0
 30
0.0
  3
*U63
  1

  0
TEXT
  5
721
  8
É}ÿg
  6
CONTINUOUS
 10
420.59719074908298
 20
-734.37725339395888
 30
0.0
 40
11.694583225300001
  1
FM20-100(D)
  0
ENDBLK
  5
723
  8
0
  0
BLOCK
  8
0
  2
*U64
 70
     1
 10
0.0
 20
0.0
 30
0.0
  3
*U64
  1

  0
TEXT
  5
725
  8
É}ÿg
  6
CONTINUOUS
 10
431.78718535806303
 20
-766.78361972770006
 30
0.0
 40
11.694583225300001
  1
SHF00041
  0
ENDBLK
  5
727
  8
0
  0
BLOCK
  8
0
  2
*U65
 70
     1
 10
0.0
 20
0.0
 30
0.0
  3
*U65
  1

  0
TEXT
  5
729
  8
É}ÿg
  6
CONTINUOUS
 10
326.96057649046378
 20
-645.14236956549985
 30
0.0
 40
8.9958330630999992
  1
SUS304 0.8t
  0
ENDBLK
  5
72B
  8
0
  0
BLOCK
  8
0
  2
*U66
 70
     1
 10
0.0
 20
0.0
 30
0.0
  3
*U66
  1

  0
TEXT
  5
72D
  8
É}ÿg
  6
CONTINUOUS
 10
438.61712172289691
 20
-645.14236956549985
 30
0.0
 40
8.9958330630999992
  1
2
  0
ENDBLK
  5
72F
  8
0
  0
BLOCK
  8
0
  2
*U67
 70
     1
 10
0.0
 20
0.0
 30
0.0
  3
*U67
  1

  0
TEXT
  5
731
  8
É}ÿg
  6
CONTINUOUS
 10
438.61712172289691
 20
-615.14236956549985
 30
0.0
 40
8.9958330630999992
  1
2
  0
ENDBLK
  5
733
  8
0
  0
BLOCK
  8
0
  2
*U68
 70
     1
 10
0.0
 20
0.0
 30
0.0
  3
*U68
  1

  0
TEXT
  5
735
  8
É}ÿg
  6
CONTINUOUS
 10
326.96057649046378
 20
-615.14236956549985
 30
0.0
 40
8.9958330630999992
  1
SUS304 2.0t
  0
ENDBLK
  5
737
  8
0
  0
BLOCK
  8
0
  2
*U69
 70
     1
 10
0.0
 20
0.0
 30
0.0
  3
*U69
  1

  0
TEXT
  5
739
  8
É}ÿg
  6
CONTINUOUS
 10
438.61712172289691
 20
-630.14236956549996
 30
0.0
 40
8.9958330630999992
  1
2
  0
ENDBLK
  5
73B
  8
0
  0
BLOCK
  8
0
  2
*U70
 70
     1
 10
0.0
 20
0.0
 30
0.0
  3
*U70
  1

  0
TEXT
  5
73D
  8
É}ÿg
  6
CONTINUOUS
 10
326.96057649046378
 20
-630.14236956549996
 30
0.0
 40
8.9958330630999992
  1
SUS304 0.8t
  0
ENDBLK
  5
73F
  8
0
  0
BLOCK
  8
0
  2
*U71
 70
     1
 10
0.0
 20
0.0
 30
0.0
  3
*U71
  1

  0
TEXT
  5
741
  8
É}ÿg
  6
CONTINUOUS
 10
123.6627858501208
 20
-615.14236956549985
 30
0.0
 40
8.9958330630999992
  1
3
  0
ENDBLK
  5
743
  8
0
  0
BLOCK
  8
0
  2
*U72
 70
     1
 10
0.0
 20
0.0
 30
0.0
  3
*U72
  1

  0
TEXT
  5
745
  8
É}ÿg
  6
CONTINUOUS
 10
124.1422591859713
 20
-645.14236956549985
 30
0.0
 40
8.9958330630999992
  1
1
  0
ENDBLK
  5
747
  8
0
  0
BLOCK
  8
0
  2
*U73
 70
     1
 10
0.0
 20
0.0
 30
0.0
  3
*U73
  1

  0
TEXT
  5
749
  8
É}ÿg
  6
CONTINUOUS
 10
123.6171217228969
 20
-630.14236956549996
 30
0.0
 40
8.9958330630999992
  1
2
  0
ENDBLK
  5
74B
  8
0
  0
BLOCK
  8
0
  2
*U74
 70
     1
 10
0.0
 20
0.0
 30
0.0
  3
*U74
  1

  0
TEXT
  5
74D
  8
É}ÿg
  6
CONTINUOUS
 10
133.07309720209821
 20
-707.48478196569999
 30
0.0
 40
8.9958330630999992
  1
H09.07
  0
ENDBLK
  5
74F
  8
0
  0
BLOCK
  8
0
  2
*U75
 70
     1
 10
0.0
 20
0.0
 30
0.0
  3
*U75
  1

  0
TEXT
  5
751
  8
É}ÿg
  6
CONTINUOUS
 10
167.62221942851571
 20
-724.46558533406244
 30
0.0
 40
8.9958330630999992
  1
öÆÉ{ëÛ
  0
ENDBLK
  5
753
  8
0
  0
BLOCK
  8
0
  2
*U76
 70
     1
 10
0.0
 20
0.0
 30
0.0
  3
*U76
  1

  0
TEXT
  5
755
  8
É}ÿg
  6
CONTINUOUS
 10
167.62221942851571
 20
-740.96558533406244
 30
0.0
 40
8.9958330630999992
  1
öÆÉ{ëÛ
  0
ENDBLK
  5
757
  8
0
  0
BLOCK
  8
0
  2
*U77
 70
     1
 10
0.0
 20
0.0
 30
0.0
  3
*U77
  1

  0
TEXT
  5
759
  8
┌▓È_1
  6
CONTINUOUS
 10
18.124219144600001
 20
-644.82211829549544
 30
0.0
 40
8.9958330630999992
  1
üiÉ[î^üj
  0
ENDBLK
  5
75B
  8
0
  0
BLOCK
  8
0
  2
*U78
 70
     1
 10
0.0
 20
0.0
 30
0.0
  3
*U78
  1

  0
TEXT
  5
75D
  8
┌▓È_1
  6
CONTINUOUS
 10
-43.585298291800001
 20
-645.00477480439088
 30
0.0
 40
8.9958330630999992
  1
üiÉ¾î^üj
  0
ENDBLK
  5
75F
  8
0
  0
BLOCK
  8
0
  2
*U79
 70
     1
 10
0.0
 20
0.0
 30
0.0
  3
*U79
  1

  0
TEXT
  5
761
  8
┌▓È_1
  6
CONTINUOUS
 10
-551.20567254763796
 20
-304.25083569359998
 30
0.0
 40
9.8954164504999991
  1
1
  0
ENDBLK
  5
763
  8
0
  0
BLOCK
  8
0
  2
*U80
 70
     1
 10
0.0
 20
0.0
 30
0.0
  3
*U80
  1

  0
TEXT
  5
765
  8
┌▓È_1
  6
CONTINUOUS
 10
-468.17315258556653
 20
-304.25083569359998
 30
0.0
 40
9.8954164504999991
  1
3
  0
ENDBLK
  5
767
  8
0
  0
BLOCK
  8
0
  2
*U81
 70
     1
 10
0.0
 20
0.0
 30
0.0
  3
*U81
  1

  0
TEXT
  5
769
  8
┌▓È_1
  6
CONTINUOUS
 10
-641.28746420146638
 20
-304.25083569359998
 30
0.0
 40
9.8954164504999991
  1
2
  0
ENDBLK
  5
76B
  8
0
  0
BLOCK
  8
0
  2
*U82
 70
     1
 10
0.0
 20
0.0
 30
0.0
  3
*U82
  1

  0
TEXT
  5
76D
  8
┌▓È_1
  6
CONTINUOUS
 10
-462.76441351433749
 20
-434.25412262111479
 30
0.0
 40
8.9958330630999992
  1
46-Å¼ö╗îè
  0
ENDBLK
  5
76F
  8
0
  0
BLOCK
  8
0
  2
*U83
 70
     1
 10
0.0
 20
0.0
 30
0.0
  3
*U83
  1

  0
TEXT
  5
771
  8
É}ÿg
  6
CONTINUOUS
 10
195.13006639562181
 20
-645.64467496496229
 30
0.0
 40
8.9958330630999992
  1
û{   æ╠
  0
ENDBLK
  5
773
  8
0
  0
BLOCK
  8
0
  2
*U84
 70
     1
 10
0.0
 20
0.0
 30
0.0
  3
*U84
  1

  0
TEXT
  5
775
  8
É}ÿg
  6
CONTINUOUS
 10
211.45224261666371
 20
-707.98708736516244
 30
0.0
 40
8.9958330630999992
  1
ù¬ Ä┌
  0
ENDBLK
  5
777
  8
0
  0
BLOCK
  8
0
  2
*U85
 70
     1
 10
0.0
 20
0.0
 30
0.0
  3
*U85
  1

  0
TEXT
  5
779
  8
É}ÿg
  6
CONTINUOUS
 10
193.28066924305551
 20
-615.59901083773855
 30
0.0
 40
8.9958330630999992
  1
èW(û┌ÄM)
  0
ENDBLK
  5
77B
  8
0
  0
BLOCK
  8
0
  2
*U86
 70
     1
 10
0.0
 20
0.0
 30
0.0
  3
*U86
  1

  0
TEXT
  5
77D
  8
É}ÿg
  6
CONTINUOUS
 10
210.01657187059951
 20
-630.14236956549996
 30
0.0
 40
8.9958330630999992
  1
Ä¿
  0
ENDBLK
  5
77F
  8
0
  0
BLOCK
  8
0
  2
*U87
 70
     1
 10
0.0
 20
0.0
 30
0.0
  3
*U87
  1

  0
TEXT
  5
781
  8
É}ÿg
  6
CONTINUOUS
 10
282.58808229860398
 20
-724.41992120683858
 30
0.0
 40
8.9958330630999992
  1
û÷ î┤
  0
ENDBLK
  5
783
  8
0
  0
BLOCK
  8
0
  2
*U88
 70
     1
 10
0.0
 20
0.0
 30
0.0
  3
*U88
  1

  0
TEXT
  5
785
  8
É}ÿg
  6
CONTINUOUS
 10
282.58808229860398
 20
-740.91992120683858
 30
0.0
 40
8.9958330630999992
  1
û÷ î┤
  0
ENDBLK
  5
787
  8
0
  0
BLOCK
  8
0
  2
*U89
 70
     1
 10
0.0
 20
0.0
 30
0.0
  3
*U89
  1

  0
TEXT
  5
789
  8
É}ÿg
  6
CONTINUOUS
 10
376.78687471835337
 20
50.809236468012188
 30
0.0
 40
8.0962498784000001
  1
ë³ü@Æ¨ü@ôÓü@ùe
  0
ENDBLK
  5
78B
  8
0
  0
BLOCK
  8
0
  2
*U90
 70
     1
 10
0.0
 20
0.0
 30
0.0
  3
*U90
  1

  0
TEXT
  5
78D
  8
É}ÿg
  6
CONTINUOUS
 10
298.56176971089741
 20
50.891431898249749
 30
0.0
 40
8.0962498784000001
  1
ë³Æ¨ô·
  0
ENDBLK
  5
78F
  8
0
  0
BLOCK
  8
0
  2
*U91
 70
     1
 10
0.0
 20
0.0
 30
0.0
  3
*U91
  1

  0
TEXT
  5
791
  8
É}ÿg
  6
CONTINUOUS
 10
267.8633749612203
 20
50.973627328487311
 30
0.0
 40
8.0962498784000001
  1
òøöÈ
  0
ENDBLK
  5
793
  8
0
  0
BLOCK
  8
0
  2
*U92
 70
     1
 10
0.0
 20
0.0
 30
0.0
  3
*U92
  1

  0
TEXT
  5
795
  8
É}ÿg
  6
CONTINUOUS
 10
129.31347254830001
 20
-769.01068599181315
 30
0.0
 40
16.1924997568
  1
èöÄ«ë´Äð
  0
ENDBLK
  5
797
  8
0
  0
BLOCK
  8
0
  2
*U93
 70
     1
 10
0.0
 20
0.0
 30
0.0
  3
*U93
  1

  0
TEXT
  5
799
  8
É}ÿg
  6
CONTINUOUS
 10
517.87000257428826
 20
50.768138752893407
 30
0.0
 40
8.0962498784000001
  1
îƒöFÄÊ
  0
ENDBLK
  5
79B
  8
0
  0
BLOCK
  8
0
  2
*U94
 70
     1
 10
0.0
 20
0.0
 30
0.0
  3
*U94
  1

  0
TEXT
  5
79D
  8
É}ÿg
  6
CONTINUOUS
 10
342.08923499833531
 20
-756.00835432884321
 30
0.0
 40
8.9958330630999992
  1
É} öÈ
  0
ENDBLK
  5
79F
  8
0
  0
BLOCK
  8
0
  2
*U95
 70
     1
 10
0.0
 20
0.0
 30
0.0
  3
*U95
  1

  0
TEXT
  5
7A1
  8
É}ÿg
  6
CONTINUOUS
 10
338.96124228350112
 20
-690.19101083773853
 30
0.0
 40
8.9958330630999992
  1
É╗òiû╝
  0
ENDBLK
  5
7A3
  8
0
  0
BLOCK
  8
0
  2
*U96
 70
     1
 10
0.0
 20
0.0
 30
0.0
  3
*U96
  1

  0
TEXT
  5
7A5
  8
É}ÿg
  6
CONTINUOUS
 10
339.21239498323229
 20
-723.09968258329093
 30
0.0
 40
8.9958330630999992
  1
É}û╩û╝
  0
ENDBLK
  5
7A7
  8
0
  0
BLOCK
  8
0
  2
*U97
 70
     1
 10
0.0
 20
0.0
 30
0.0
  3
*U97
  1

  0
TEXT
  5
7A9
  8
É}ÿg
  6
CONTINUOUS
 10
128.59801273416011
 20
-691.14593644349543
 30
0.0
 40
8.9958330630999992
  1
ô·ü@ü@òt
  0
ENDBLK
  5
7AB
  8
0
  0
BLOCK
  8
0
  2
*U98
 70
     1
 10
0.0
 20
0.0
 30
0.0
  3
*U98
  1

  0
TEXT
  5
7AD
  8
É}ÿg
  6
CONTINUOUS
 10
202.63906606245919
 20
-691.41992120683847
 30
0.0
 40
8.9958330630999992
  1
Ä┌ü@ü@ôx
  0
ENDBLK
  5
7AF
  8
0
  0
BLOCK
  8
0
  2
*U99
 70
     1
 10
0.0
 20
0.0
 30
0.0
  3
*U99
  1

  0
TEXT
  5
7B1
  8
É}ÿg
  6
CONTINUOUS
 10
487.99329571964472
 20
50.809236468012188
 30
0.0
 40
8.0962498784000001
  1
ë³Æ¨ÄÊ
  0
ENDBLK
  5
7B3
  8
0
  0
BLOCK
  8
0
  2
*U100
 70
     1
 10
0.0
 20
0.0
 30
0.0
  3
*U100
  1

  0
TEXT
  5
7B5
  8
É}ÿg
  6
CONTINUOUS
 10
115.5345712042741
 20
-660.416354328843
 30
0.0
 40
8.9958330630999992
  1
òiöÈ
  0
ENDBLK
  5
7B7
  8
0
  0
BLOCK
  8
0
  2
*U101
 70
     1
 10
0.0
 20
0.0
 30
0.0
  3
*U101
  1

  0
TEXT
  5
7B9
  8
É}ÿg
  6
CONTINUOUS
 10
112.993961738
 20
-740.91992120683858
 30
0.0
 40
8.9958330630999992
  1
 É╗É}
  0
ENDBLK
  5
7BB
  8
0
  0
BLOCK
  8
0
  2
*U102
 70
     1
 10
0.0
 20
0.0
 30
0.0
  3
*U102
  1

  0
TEXT
  5
7BD
  8
É}ÿg
  6
CONTINUOUS
 10
112.993961738
 20
-724.32859295239075
 30
0.0
 40
8.9958330630999992
  1
 É¦îv
  0
ENDBLK
  5
7BF
  8
0
  0
BLOCK
  8
0
  2
*U103
 70
     1
 10
0.0
 20
0.0
 30
0.0
  3
*U103
  1

  0
TEXT
  5
7C1
  8
É}ÿg
  6
CONTINUOUS
 10
225.493961738
 20
-740.96558533406244
 30
0.0
 40
8.9958330630999992
  1
 îƒÉ}
  0
ENDBLK
  5
7C3
  8
0
  0
BLOCK
  8
0
  2
*U104
 70
     1
 10
0.0
 20
0.0
 30
0.0
  3
*U104
  1

  0
TEXT
  5
7C5
  8
É}ÿg
  6
CONTINUOUS
 10
225.493961738
 20
-724.37425707961472
 30
0.0
 40
8.9958330630999992
  1
 Åãì©
  0
ENDBLK
  5
7C7
  8
0
  0
BLOCK
  8
0
  2
*U105
 70
     1
 10
0.0
 20
0.0
 30
0.0
  3
*U105
  1

  0
TEXT
  5
7C9
  8
É}ÿg
  6
CONTINUOUS
 10
430.23775437731899
 20
-660.59901083773855
 30
0.0
 40
8.9958330630999992
  1
Éöù╩
  0
ENDBLK
  5
7CB
  8
0
  0
BLOCK
  8
0
  2
*U106
 70
     1
 10
0.0
 20
0.0
 30
0.0
  3
*U106
  1

  0
TEXT
  5
7CD
  8
É}ÿg
  6
CONTINUOUS
 10
473.77583651311829
 20
-660.73600321941012
 30
0.0
 40
8.9958330630999992
  1
ö§ü@ü@ü@ìl
  0
ENDBLK
  5
7CF
  8
0
  0
BLOCK
  8
0
  2
*U107
 70
     1
 10
0.0
 20
0.0
 30
0.0
  3
*U107
  1

  0
TEXT
  5
7D1
  8
É}ÿg
  6
CONTINUOUS
 10
330.20272952335768
 20
-660.46201845606686
 30
0.0
 40
8.9958330630999992
  1
ìÌü@ü@ü@Ä┐
  0
ENDBLK
  5
7D3
  8
0
  0
BLOCK
  8
0
  2
*U108
 70
     1
 10
0.0
 20
0.0
 30
0.0
  3
*U108
  1

  0
TEXT
  5
7D5
  8
É}ÿg
  6
CONTINUOUS
 10
186.5452104775365
 20
-660.50768258329083
 30
0.0
 40
8.9958330630999992
  1
òiü@ü@ü@û╝
  0
ENDBLK
  5
7D7
  8
0
  0
ENDSEC
  0
SECTION
  2
ENTITIES
  0
DIMENSION
  5
3E
  8
Éíû@É³
 62
     5
  2
*D0
 10
340.83808866060002
 20
2.0772568178999991
 30
0.0
 11
325.83808866060002
 21
2.0772568178999991
 31
0.0
 70
   128
  1
<>
 13
340.83808866060002
 23
-57.343309740899997
 33
0.0
 14
310.83808866060002
 24
-57.343309740899997
 34
0.0
  0
DIMENSION
  5
4D
  8
Éíû@É³
 62
     5
  2
*D1
 10
427.16104296869997
 20
-19.3722570473
 30
0.0
 11
414.66104296869997
 21
-19.3722570473
 31
0.0
 70
   128
  1
<>
 13
427.16104296869997
 23
-65.543781095100002
 33
0.0
 14
402.16104296869997
 24
-56.543781095100002
 34
0.0
  0
LINE
  5
4F
  8
┌▓È_1
 62
     5
 10
406.16104296869997
 20
-66.043781095100002
 30
0.0
 11
427.16104296869997
 21
-66.043781095100002
 31
0.0
  0
LINE
  5
50
  8
┌▓È_1
 62
     5
 10
406.16104296869997
 20
-68.043781095100002
 30
0.0
 11
427.16104296869997
 21
-68.043781095100002
 31
0.0
  0
LINE
  5
51
  8
┌▓È_1
 62
     5
 10
427.16104296869997
 20
-67.543781095100002
 30
0.0
 11
427.16104296869997
 21
-70.543781095100002
 31
0.0
  0
LINE
  5
52
  8
┌▓È_1
 62
     5
 10
427.16104296869997
 20
-65.543781095100002
 30
0.0
 11
427.16104296869997
 21
-66.043781095100002
 31
0.0
  0
ARC
  5
53
  8
┌▓È_1
 62
     5
 10
406.16104296869997
 20
-68.043781095100002
 30
0.0
 40
2.0
 50
90.0
 51
180.0
  0
INSERT
  5
55
  8
┌▓È_1
 62
     5
  2
CLUMP0
 10
0.0
 20
0.0
 30
0.0
  0
INSERT
  5
72
  8
┌▓È_1
  6
BORDER
 62
     5
  2
CLUMP1
 10
0.0
 20
0.0
 30
0.0
  0
LINE
  5
8F
  8
┌▓È_1
 62
     5
 10
314.33808866060002
 20
-68.043781095100002
 30
0.0
 11
313.83808866060002
 21
-68.043781095100002
 31
0.0
  0
LINE
  5
90
  8
┌▓È_1
 62
     5
 10
313.83808866060002
 20
-68.043781095100002
 30
0.0
 11
325.83808866060002
 21
-68.043781095100002
 31
0.0
  0
ARC
  5
91
  8
┌▓È_1
 62
     5
 10
313.83808866060002
 20
-68.043781095100002
 30
0.0
 40
2.0
 50
90.0
 51
180.0000386554
  0
LINE
  5
92
  8
┌▓È_1
 62
     5
 10
313.83808866060002
 20
-66.043781095100002
 30
0.0
 11
325.83808866060002
 21
-66.043781095100002
 31
0.0
  0
LINE
  5
93
  8
┌▓È_1
  6
BORDER
 62
     3
 10
397.16104296869997
 20
-155.53517399879999
 30
0.0
 11
462.16104296869997
 21
-155.53517399879999
 31
0.0
  0
LINE
  5
94
  8
┌▓È_1
 62
     5
 10
310.83808866060002
 20
-246.3433097409
 30
0.0
 11
310.83808866060002
 21
-155.53517399879999
 31
0.0
  0
LINE
  5
95
  8
┌▓È_1
  6
BORDER
 62
     3
 10
305.83808866060002
 20
-155.53517399879999
 30
0.0
 11
345.83808866060002
 21
-155.53517399879999
 31
0.0
  0
ARC
  5
96
  8
┌▓È_1
 62
     5
 10
406.16104296869997
 20
-243.04283838680001
 30
0.0
 40
2.0
 50
180.0
 51
270.0
  0
LINE
  5
97
  8
┌▓È_1
 62
     5
 10
427.16104296869997
 20
-243.54283838680001
 30
0.0
 11
427.16104296869997
 21
-240.54283838680001
 31
0.0
  0
LINE
  5
98
  8
┌▓È_1
 62
     5
 10
406.16104296869997
 20
-245.04283838680001
 30
0.0
 11
427.16104296869997
 21
-245.04283838680001
 31
0.0
  0
INSERT
  5
9A
  8
┌▓È_1
 62
     5
  2
CLUMP2
 10
0.0
 20
0.0
 30
0.0
  0
LINE
  5
B6
  8
┌▓È_1
 62
     5
 10
406.16104296869997
 20
-243.04283838680001
 30
0.0
 11
427.16104296869997
 21
-243.04283838680001
 31
0.0
  0
LINE
  5
B7
  8
┌▓È_1
 62
     5
 10
313.83808866060002
 20
-243.04283838680001
 30
0.0
 11
325.83808866060002
 21
-243.04283838680001
 31
0.0
  0
ARC
  5
B8
  8
┌▓È_1
 62
     5
 10
313.83808866060002
 20
-243.04283838680001
 30
0.0
 40
2.0
 50
180.0
 51
270.00001020809998
  0
LINE
  5
B9
  8
┌▓È_1
 62
     5
 10
313.83808901690003
 20
-245.04283838680001
 30
0.0
 11
325.83808866060002
 21
-245.04283838680001
 31
0.0
  0
LINE
  5
BA
  8
┌▓È_1
 62
     5
 10
314.33808866060002
 20
-243.04283838680001
 30
0.0
 11
313.83808866060002
 21
-243.04283838680001
 31
0.0
  0
INSERT
  5
BC
  8
┌▓È_1
  6
BORDER
 62
     5
  2
CLUMP3
 10
0.0
 20
0.0
 30
0.0
  0
INSERT
  5
D9
  8
0
  6
CONTINUOUS
  2
*U56
 10
0.0
 20
0.0
 30
0.0
  0
INSERT
  5
DA
  8
0
  6
CONTINUOUS
  2
*U57
 10
0.0
 20
0.0
 30
0.0
  0
INSERT
  5
DC
  8
0
  6
CONTINUOUS
  2
*U58
 10
0.0
 20
0.0
 30
0.0
  0
INSERT
  5
DD
  8
0
  6
CONTINUOUS
  2
*U59
 10
0.0
 20
0.0
 30
0.0
  0
INSERT
  5
DE
  8
0
  6
CONTINUOUS
  2
*U60
 10
0.0
 20
0.0
 30
0.0
  0
INSERT
  5
DF
  8
0
  6
CONTINUOUS
  2
*U61
 10
0.0
 20
0.0
 30
0.0
  0
DIMENSION
  5
EE
  8
Éíû@É³
 62
     5
  2
*D6
 10
340.83808866060002
 20
-19.542906146
 30
0.0
 11
333.27009242689991
 21
-19.542906146
 31
0.0
 70
   128
  1
<>
 13
340.83808866060002
 23
-57.343309740899997
 33
0.0
 14
325.83808866060002
 24
-65.543309740899986
 34
0.0
  0
DIMENSION
  5
FD
  8
Éíû@É³
 62
     5
  2
*D7
 10
363.82353101289999
 20
-72.0433097409
 30
0.0
 11
363.82353101289999
 21
-38.835860781599997
 31
0.0
 70
   128
  1
15.5
 13
340.03808866060001
 23
-72.0433097409
 33
0.0
 14
340.03808866060001
 24
-56.5433097409
 34
0.0
 50
90.0
  0
DIMENSION
  5
10C
  8
Éíû@É³
 62
     5
  2
*D8
 10
457.16104296869997
 20
1.3059495872999991
 30
0.0
 11
429.66104296869997
 21
1.3059495872999991
 31
0.0
 70
   128
  1
<>
 13
457.16104296869997
 23
-57.343781095099999
 33
0.0
 14
402.16104296869997
 24
-57.343781095099999
 34
0.0
  0
DIMENSION
  5
11B
  8
Éíû@É³
 62
     5
  2
*D9
 10
457.16104296869997
 20
-19.3722570473
 30
0.0
 11
442.16104296869997
 21
-19.3722570473
 31
0.0
 70
   128
  1
<>
 13
457.16104296869997
 23
-56.543781095100002
 33
0.0
 14
427.16104296869997
 24
-65.543781095100002
 34
0.0
  0
DIMENSION
  5
12A
  8
Éíû@É³
 62
     5
  2
*D10
 10
478.57595423890001
 20
-70.543781095100002
 30
0.0
 11
478.57595423890001
 21
-63.543781095100002
 31
0.0
 70
   128
  1
14
 13
457.16104296869997
 23
-70.543781095100002
 33
0.0
 14
457.16104296869997
 24
-56.543781095100002
 34
0.0
 50
90.0
  0
DIMENSION
  5
139
  8
Éíû@É³
 62
     5
  2
*D11
 10
325.83808866060002
 20
-19.542906146
 30
0.0
 11
318.0976120821
 21
-19.542906146
 31
0.0
 70
   128
  1
<>
 13
325.83808866060002
 23
-65.543309740899986
 33
0.0
 14
310.83808866060002
 24
-57.343309740899997
 34
0.0
  0
ARC
  5
13A
  8
┌▓È_1
 62
     5
 10
159.1949036458
 20
-88.043653490899999
 30
0.0
 40
3.5
 50
90.0
 51
270.0
  0
ARC
  5
13B
  8
┌▓È_1
 62
     5
 10
174.1949036458
 20
-88.043653490899999
 30
0.0
 40
3.5
 50
270.0
 51
90.0
  0
LINE
  5
13C
  8
┌▓È_1
 62
     5
 10
159.1949036458
 20
-91.543653490899985
 30
0.0
 11
174.1949036458
 21
-91.543653490899985
 31
0.0
  0
LINE
  5
13D
  8
┌▓È_1
 62
     5
 10
47.18782552079999
 20
-65.543309740899986
 30
0.0
 11
194.49460079310001
 21
-65.543309740899986
 31
0.0
  0
LINE
  5
13E
  8
┌▓È_1
 62
     5
 10
47.18782552079999
 20
-56.5433097409
 30
0.0
 11
203.49460079310001
 21
-56.5433097409
 31
0.0
  0
LINE
  5
13F
  8
┌▓È_1
 62
     5
 10
47.18782552079999
 20
-66.0433097409
 30
0.0
 11
191.1949036458
 21
-66.0433097409
 31
0.0
  0
LINE
  5
140
  8
┌▓È_1
  6
HIDDEN
 62
     1
 10
47.18782552079999
 20
-68.043309740899986
 30
0.0
 11
191.1949036458
 21
-68.043309740899986
 31
0.0
  0
ARC
  5
141
  8
┌▓È_1
 62
     5
 10
174.1949036458
 20
-118.0436534909
 30
0.0
 40
3.5
 50
270.0
 51
90.0
  0
LINE
  5
142
  8
┌▓È_1
 62
     5
 10
159.1949036458
 20
-121.5436534909
 30
0.0
 11
174.1949036458
 21
-121.5436534909
 31
0.0
  0
LINE
  5
143
  8
┌▓È_1
 62
     5
 10
174.1949036458
 20
-114.5436534909
 30
0.0
 11
159.1949036458
 21
-114.5436534909
 31
0.0
  0
ARC
  5
144
  8
┌▓È_1
 62
     5
 10
159.1949036458
 20
-118.0436534909
 30
0.0
 40
3.5
 50
90.0
 51
270.0
  0
LINE
  5
145
  8
┌▓È_1
 62
     5
 10
159.1949036458
 20
-106.5436534909
 30
0.0
 11
174.1949036458
 21
-106.5436534909
 31
0.0
  0
LINE
  5
146
  8
┌▓È_1
 62
     5
 10
72.194903645799997
 20
-106.5436534909
 30
0.0
 11
87.194903645799997
 21
-106.5436534909
 31
0.0
  0
ARC
  5
147
  8
┌▓È_1
 62
     5
 10
87.194903645799997
 20
-118.0436534909
 30
0.0
 40
3.5
 50
270.0
 51
90.0
  0
LINE
  5
148
  8
┌▓È_1
 62
     5
 10
72.194903645799997
 20
-121.5436534909
 30
0.0
 11
87.194903645799997
 21
-121.5436534909
 31
0.0
  0
LINE
  5
149
  8
┌▓È_1
 62
     5
 10
87.194903645799997
 20
-114.5436534909
 30
0.0
 11
72.194903645799997
 21
-114.5436534909
 31
0.0
  0
ARC
  5
14A
  8
┌▓È_1
 62
     5
 10
72.194903645799997
 20
-118.0436534909
 30
0.0
 40
3.5
 50
90.0
 51
270.0
  0
ARC
  5
14B
  8
┌▓È_1
 62
     5
 10
25.894440104200001
 20
-118.0436534909
 30
0.0
 40
3.5
 50
270.0
 51
90.0
  0
LINE
  5
14C
  8
┌▓È_1
 62
     5
 10
191.1949036458
 20
-68.043309740899986
 30
0.0
 11
193.6949036458
 21
-68.043309740899986
 31
0.0
  0
LINE
  5
14D
  8
┌▓È_1
 62
     5
 10
191.1949036458
 20
-68.043309740899986
 30
0.0
 11
191.1949036458
 21
-66.0433097409
 31
0.0
  0
LINE
  5
14E
  8
┌▓È_1
 62
     5
 10
174.1949036458
 20
-84.543653490899999
 30
0.0
 11
159.1949036458
 21
-84.543653490899999
 31
0.0
  0
LINE
  5
14F
  8
┌▓È_1
 62
     5
 10
87.194903645799997
 20
-84.543653490899999
 30
0.0
 11
72.194903645799997
 21
-84.543653490899999
 31
0.0
  0
ARC
  5
150
  8
┌▓È_1
 62
     5
 10
87.194903645799997
 20
-88.043653490899999
 30
0.0
 40
3.5
 50
270.0
 51
90.0
  0
DIMENSION
  5
15F
  8
Éíû@É³
 62
     5
  2
*D12
 10
478.57595423890001
 20
-254.54283838680001
 30
0.0
 11
478.57595423890001
 21
-247.54283838680001
 31
0.0
 70
   128
  1
14
 13
457.16104296869997
 23
-254.54283838680001
 33
0.0
 14
457.16104296869997
 24
-240.54283838680001
 34
0.0
 50
90.0
  0
DIMENSION
  5
16E
  8
Éíû@É³
 62
     5
  2
*D13
 10
363.82353101289999
 20
-254.54330974090001
 30
0.0
 11
363.82353101289999
 21
-272.53429942600002
 31
0.0
 70
   128
  1
15.5
 13
340.03808866060001
 23
-254.54330974090001
 33
0.0
 14
340.03808866060001
 24
-239.04330974090001
 34
0.0
 50
90.0
  0
LINE
  5
16F
  8
┌▓È_1
 62
     5
 10
191.74460079310001
 20
-336.88937093890002
 30
0.0
 11
191.74460079310001
 21
-348.88937093890002
 31
0.0
  0
LINE
  5
170
  8
┌▓È_1
 62
     5
 10
194.49460079310001
 20
-334.68937093890003
 30
0.0
 11
194.49460079310001
 21
-348.88937093890002
 31
0.0
  0
LINE
  5
171
  8
┌▓È_1
 62
     5
 10
195.29460079309999
 20
-348.88937093890002
 30
0.0
 11
195.29460079309999
 21
-334.68937093890003
 31
0.0
  0
ARC
  5
172
  8
┌▓È_1
 62
     5
 10
191.74460079310001
 20
-336.88937093890002
 30
0.0
 40
2.0
 50
0.0
 51
90.0
  0
DIMENSION
  5
181
  8
Éíû@É³
 62
     5
  2
*D14
 10
237.06697322959999
 20
-65.543309740899986
 30
0.0
 11
237.06697322959999
 21
-61.0433097409
 31
0.0
 70
   128
  1
<>
 13
194.49460079310001
 23
-65.543309740899986
 33
0.0
 14
203.49460079310001
 24
-56.5433097409
 34
0.0
 50
90.0
  0
DIMENSION
  5
190
  8
Éíû@É³
 62
     5
  2
*D15
 10
203.49460079310001
 20
-24.097825579599998
 30
0.0
 11
198.91704901099999
 21
-24.097825579599998
 31
0.0
 70
   128
  1
9
 13
203.49460079310001
 23
-56.5433097409
 33
0.0
 14
194.49460079310001
 24
-65.543309740899986
 34
0.0
  0
ARC
  5
191
  8
┌▓È_1
 62
     5
 10
87.194903645799997
 20
-103.0436534909
 30
0.0
 40
3.5
 50
270.0
 51
90.0
  0
ARC
  5
192
  8
┌▓È_1
 62
     5
 10
174.1949036458
 20
-103.0436534909
 30
0.0
 40
3.5
 50
270.0
 51
90.0
  0
LINE
  5
193
  8
┌▓È_1
 62
     5
 10
174.1949036458
 20
-99.543653490899999
 30
0.0
 11
159.1949036458
 21
-99.543653490899999
 31
0.0
  0
LINE
  5
194
  8
┌▓È_1
 62
     5
 10
87.194903645799997
 20
-99.543653490899999
 30
0.0
 11
72.194903645799997
 21
-99.543653490899999
 31
0.0
  0
ARC
  5
195
  8
┌▓È_1
 62
     5
 10
72.194903645799997
 20
-103.0436534909
 30
0.0
 40
3.5
 50
90.0
 51
270.0
  0
ARC
  5
196
  8
┌▓È_1
 62
     5
 10
159.1949036458
 20
-103.0436534909
 30
0.0
 40
3.5
 50
90.0
 51
270.0
  0
ARC
  5
197
  8
┌▓È_1
 62
     5
 10
25.894440104200001
 20
-103.0436534909
 30
0.0
 40
3.5
 50
270.0
 51
90.0
  0
LINE
  5
198
  8
┌▓È_1
 62
     5
 10
25.894440104200001
 20
-84.543653490899999
 30
0.0
 11
10.894440104199999
 21
-84.543653490899999
 31
0.0
  0
LINE
  5
199
  8
┌▓È_1
 62
     5
 10
10.894440104199999
 20
-121.5436534909
 30
0.0
 11
25.894440104200001
 21
-121.5436534909
 31
0.0
  0
LINE
  5
19A
  8
┌▓È_1
 62
     5
 10
25.894440104200001
 20
-114.5436534909
 30
0.0
 11
10.894440104199999
 21
-114.5436534909
 31
0.0
  0
LINE
  5
19B
  8
┌▓È_1
 62
     5
 10
10.894440104199999
 20
-106.5436534909
 30
0.0
 11
25.894440104200001
 21
-106.5436534909
 31
0.0
  0
ARC
  5
19C
  8
┌▓È_1
 62
     5
 10
10.894440104199999
 20
-118.0436534909
 30
0.0
 40
3.5
 50
90.0
 51
270.0
  0
LINE
  5
19D
  8
┌▓È_1
 62
     5
 10
25.894440104200001
 20
-99.543653490899999
 30
0.0
 11
10.894440104199999
 21
-99.543653490899999
 31
0.0
  0
ARC
  5
19E
  8
┌▓È_1
 62
     5
 10
10.894440104199999
 20
-103.0436534909
 30
0.0
 40
3.5
 50
90.0
 51
270.0
  0
LINE
  5
19F
  8
┌▓È_1
 62
     5
 10
10.894440104199999
 20
-91.543653490899985
 30
0.0
 11
25.894440104200001
 21
-91.543653490899985
 31
0.0
  0
ARC
  5
1A0
  8
┌▓È_1
 62
     5
 10
10.894440104199999
 20
-88.043653490899999
 30
0.0
 40
3.5
 50
90.0
 51
270.0
  0
ARC
  5
1A1
  8
┌▓È_1
 62
     5
 10
72.194903645799997
 20
-88.043653490899999
 30
0.0
 40
3.5
 50
90.0
 51
270.0
  0
ARC
  5
1A2
  8
┌▓È_1
 62
     5
 10
25.894440104200001
 20
-88.043653490899999
 30
0.0
 40
3.5
 50
270.0
 51
90.0
  0
LINE
  5
1A3
  8
┌▓È_1
 62
     5
 10
72.194903645799997
 20
-91.543653490899985
 30
0.0
 11
87.194903645799997
 21
-91.543653490899985
 31
0.0
  0
LINE
  5
1A4
  8
┌▓È_1
 62
     5
 10
115.6949036458
 20
-151.5436534909
 30
0.0
 11
130.6949036458
 21
-151.5436534909
 31
0.0
  0
LINE
  5
1A5
  8
┌▓È_1
 62
     5
 10
130.6949036458
 20
-144.5436534909
 30
0.0
 11
115.6949036458
 21
-144.5436534909
 31
0.0
  0
ARC
  5
1A6
  8
┌▓È_1
 62
     5
 10
-17.605559895799999
 20
-148.0436534909
 30
0.0
 40
3.5
 50
270.0
 51
90.0
  0
ARC
  5
1A7
  8
┌▓È_1
 62
     5
 10
-32.605559895799999
 20
-148.0436534909
 30
0.0
 40
3.5
 50
90.0
 51
270.0
  0
LINE
  5
1A8
  8
┌▓È_1
 62
     5
 10
-17.605559895799999
 20
-159.5436534909
 30
0.0
 11
-32.605559895799999
 21
-159.5436534909
 31
0.0
  0
ARC
  5
1A9
  8
┌▓È_1
 62
     5
 10
-17.605559895799999
 20
-163.0436534909
 30
0.0
 40
3.5
 50
270.0
 51
90.0
  0
ARC
  5
1AA
  8
┌▓È_1
 62
     5
 10
-32.605559895799999
 20
-163.0436534909
 30
0.0
 40
3.5
 50
90.0
 51
270.0
  0
LINE
  5
1AB
  8
┌▓È_1
 62
     5
 10
-32.605559895799999
 20
-166.5436534909
 30
0.0
 11
-17.605559895799999
 21
-166.5436534909
 31
0.0
  0
LINE
  5
1AC
  8
┌▓È_1
 62
     5
 10
-32.605559895799999
 20
-151.5436534909
 30
0.0
 11
-17.605559895799999
 21
-151.5436534909
 31
0.0
  0
LINE
  5
1AD
  8
┌▓È_1
 62
     5
 10
-17.605559895799999
 20
-144.5436534909
 30
0.0
 11
-32.605559895799999
 21
-144.5436534909
 31
0.0
  0
DIMENSION
  5
1BC
  8
Éíû@É³
 62
     5
  2
*D16
 10
227.49460079310001
 20
-339.88937093890002
 30
0.0
 11
227.49460079310001
 21
-324.95984651719999
 31
0.0
 70
   128
  1
<>
 13
203.49460079310001
 23
-339.88937093890002
 33
0.0
 14
202.69460079309999
 24
-333.88937093890002
 34
0.0
 50
90.0
  0
LINE
  5
1BD
  8
┌▓È_1
 62
     5
 10
202.69460079309999
 20
-339.88937093890002
 30
0.0
 11
203.49460079310001
 21
-339.88937093890002
 31
0.0
  0
LINE
  5
1BE
  8
┌▓È_1
 62
     5
 10
195.29460079309999
 20
-334.68937093890003
 30
0.0
 11
202.69460079309999
 21
-334.68937093890003
 31
0.0
  0
LINE
  5
1BF
  8
┌▓È_1
 62
     5
 10
202.69460079309999
 20
-339.88937093890002
 30
0.0
 11
195.29460079309999
 21
-339.88937093890002
 31
0.0
  0
LINE
  5
1C0
  8
┌▓È_1
 62
     5
 10
203.49460079310001
 20
-339.88937093890002
 30
0.0
 11
203.49460079310001
 21
-334.68937093890003
 31
0.0
  0
LINE
  5
1C1
  8
┌▓È_1
 62
     5
 10
202.69460079309999
 20
-334.68937093890003
 30
0.0
 11
202.69460079309999
 21
-339.88937093890002
 31
0.0
  0
ARC
  5
1C2
  8
┌▓È_1
 62
     5
 10
202.69460079309999
 20
-334.68937093890003
 30
0.0
 40
0.8
 50
0.0
 51
90.0
  0
ARC
  5
1C3
  8
┌▓È_1
 62
     5
 10
195.29460079309999
 20
-334.68937093890003
 30
0.0
 40
0.8
 50
90.0
 51
180.0
  0
LINE
  5
1C4
  8
┌▓È_1
 62
     5
 10
202.69460079309999
 20
-333.88937093890002
 30
0.0
 11
195.29460079309999
 21
-333.88937093890002
 31
0.0
  0
LINE
  5
1C5
  8
┌▓È_1
 62
     5
 10
194.49460079310001
 20
-348.88937093890002
 30
0.0
 11
188.79460079309999
 21
-348.88937093890002
 31
0.0
  0
LINE
  5
1C6
  8
┌▓È_1
 62
     5
 10
47.18782552079999
 20
-334.88937093890002
 30
0.0
 11
191.74460079310001
 21
-334.88937093890002
 31
0.0
  0
LINE
  5
1C7
  8
┌▓È_1
 62
     5
 10
47.18782552079999
 20
-336.88937093890002
 30
0.0
 11
191.74460079310001
 21
-336.88937093890002
 31
0.0
  0
LINE
  5
1C8
  8
┌▓È_1
 62
     5
 10
47.18782552079999
 20
-333.88937093890002
 30
0.0
 11
195.29460079309999
 21
-333.88937093890002
 31
0.0
  0
LINE
  5
1C9
  8
┌▓È_1
 62
     5
 10
193.74460079310001
 20
-348.88937093890002
 30
0.0
 11
47.18782552079999
 21
-348.88937093890002
 31
0.0
  0
LINE
  5
1CA
  8
┌▓È_1
 62
     5
 10
193.74460079310001
 20
-336.88937093890002
 30
0.0
 11
193.74460079310001
 21
-348.88937093890002
 31
0.0
  0
ARC
  5
1CB
  8
┌▓È_1
 62
     5
 10
87.194903645799997
 20
-193.0436534909
 30
0.0
 40
3.5
 50
270.0
 51
90.0
  0
LINE
  5
1CC
  8
┌▓È_1
 62
     5
 10
72.194903645799997
 20
-189.5436534909
 30
0.0
 11
87.194903645799997
 21
-189.5436534909
 31
0.0
  0
LINE
  5
1CD
  8
┌▓È_1
 62
     5
 10
87.194903645799997
 20
-196.5436534909
 30
0.0
 11
72.194903645799997
 21
-196.5436534909
 31
0.0
  0
ARC
  5
1CE
  8
┌▓È_1
 62
     5
 10
72.194903645799997
 20
-193.0436534909
 30
0.0
 40
3.5
 50
90.0
 51
270.0
  0
ARC
  5
1CF
  8
┌▓È_1
 62
     5
 10
174.1949036458
 20
-208.0436534909
 30
0.0
 40
3.5
 50
270.0
 51
90.0
  0
LINE
  5
1D0
  8
┌▓È_1
 62
     5
 10
174.1949036458
 20
-211.5436534909
 30
0.0
 11
159.1949036458
 21
-211.5436534909
 31
0.0
  0
ARC
  5
1D1
  8
┌▓È_1
 62
     5
 10
159.1949036458
 20
-208.0436534909
 30
0.0
 40
3.5
 50
90.0
 51
270.0
  0
ARC
  5
1D2
  8
┌▓È_1
 62
     5
 10
87.194903645799997
 20
-208.0436534909
 30
0.0
 40
3.5
 50
270.0
 51
90.0
  0
LINE
  5
1D3
  8
┌▓È_1
 62
     5
 10
87.194903645799997
 20
-211.5436534909
 30
0.0
 11
72.194903645799997
 21
-211.5436534909
 31
0.0
  0
ARC
  5
1D4
  8
┌▓È_1
 62
     5
 10
72.194903645799997
 20
-208.0436534909
 30
0.0
 40
3.5
 50
90.0
 51
270.0
  0
LINE
  5
1D5
  8
┌▓È_1
 62
     5
 10
115.6949036458
 20
-166.5436534909
 30
0.0
 11
130.6949036458
 21
-166.5436534909
 31
0.0
  0
LINE
  5
1D6
  8
┌▓È_1
 62
     5
 10
130.6949036458
 20
-159.5436534909
 30
0.0
 11
115.6949036458
 21
-159.5436534909
 31
0.0
  0
ARC
  5
1D7
  8
┌▓È_1
 62
     5
 10
174.1949036458
 20
-193.0436534909
 30
0.0
 40
3.5
 50
270.0
 51
90.0
  0
LINE
  5
1D8
  8
┌▓È_1
 62
     5
 10
159.1949036458
 20
-189.5436534909
 30
0.0
 11
174.1949036458
 21
-189.5436534909
 31
0.0
  0
ARC
  5
1D9
  8
┌▓È_1
 62
     5
 10
130.6949036458
 20
-163.0436534909
 30
0.0
 40
3.5
 50
270.0
 51
90.0
  0
ARC
  5
1DA
  8
┌▓È_1
 62
     5
 10
115.6949036458
 20
-163.0436534909
 30
0.0
 40
3.5
 50
90.0
 51
270.0
  0
LINE
  5
1DB
  8
┌▓È_1
 62
     5
 10
159.1949036458
 20
-204.5436534909
 30
0.0
 11
174.1949036458
 21
-204.5436534909
 31
0.0
  0
LINE
  5
1DC
  8
┌▓È_1
 62
     5
 10
72.194903645799997
 20
-204.5436534909
 30
0.0
 11
87.194903645799997
 21
-204.5436534909
 31
0.0
  0
LINE
  5
1DD
  8
┌▓È_1
 62
     5
 10
174.1949036458
 20
-196.5436534909
 30
0.0
 11
159.1949036458
 21
-196.5436534909
 31
0.0
  0
ARC
  5
1DE
  8
┌▓È_1
 62
     5
 10
159.1949036458
 20
-193.0436534909
 30
0.0
 40
3.5
 50
90.0
 51
270.0
  0
ARC
  5
1DF
  8
┌▓È_1
 62
     5
 10
87.194903645799997
 20
-223.0436534909
 30
0.0
 40
3.5
 50
270.0
 51
90.0
  0
LINE
  5
1E0
  8
┌▓È_1
 62
     5
 10
72.194903645799997
 20
-219.5436534909
 30
0.0
 11
87.194903645799997
 21
-219.5436534909
 31
0.0
  0
LINE
  5
1E1
  8
┌▓È_1
 62
     5
 10
87.194903645799997
 20
-226.5436534909
 30
0.0
 11
72.194903645799997
 21
-226.5436534909
 31
0.0
  0
ARC
  5
1E2
  8
┌▓È_1
 62
     5
 10
72.194903645799997
 20
-223.0436534909
 30
0.0
 40
3.5
 50
90.0
 51
270.0
  0
LINE
  5
1E3
  8
┌▓È_1
 62
     5
 10
191.1949036458
 20
-243.04330974090001
 30
0.0
 11
191.1949036458
 21
-245.04330974090001
 31
0.0
  0
ARC
  5
1E4
  8
┌▓È_1
 62
     5
 10
115.6949036458
 20
-148.0436534909
 30
0.0
 40
3.5
 50
90.0
 51
270.0
  0
DIMENSION
  5
1F3
  8
Éíû@É³
 62
     5
  2
*D17
 10
237.06697322959999
 20
-254.54330974090001
 30
0.0
 11
237.06697322959999
 21
-250.04330974090001
 31
0.0
 70
   128
  1
<>
 13
203.49460079310001
 23
-254.54330974090001
 33
0.0
 14
194.49460079310001
 24
-245.54330974090001
 34
0.0
 50
90.0
  0
CIRCLE
  5
1F4
  8
┌▓È_1
 62
     5
 10
166.6949036458
 20
-155.5436534909
 30
0.0
 40
7.5
  0
LINE
  5
1F5
  8
┌▓È_1
  6
BORDER
 62
     3
 10
110.9880859375
 20
-155.54330974090001
 30
0.0
 11
209.66705729169999
 21
-155.54330974090001
 31
0.0
  0
LINE
  5
1F6
  8
┌▓È_1
 62
     5
 10
191.1949036458
 20
-243.04330974090001
 30
0.0
 11
193.6949036458
 21
-243.04330974090001
 31
0.0
  0
ARC
  5
1F7
  8
┌▓È_1
 62
     5
 10
174.1949036458
 20
-223.0436534909
 30
0.0
 40
3.5
 50
270.0
 51
90.0
  0
LINE
  5
1F8
  8
┌▓È_1
 62
     5
 10
159.1949036458
 20
-219.5436534909
 30
0.0
 11
174.1949036458
 21
-219.5436534909
 31
0.0
  0
LINE
  5
1F9
  8
┌▓È_1
 62
     5
 10
174.1949036458
 20
-226.5436534909
 30
0.0
 11
159.1949036458
 21
-226.5436534909
 31
0.0
  0
ARC
  5
1FA
  8
┌▓È_1
 62
     5
 10
159.1949036458
 20
-223.0436534909
 30
0.0
 40
3.5
 50
90.0
 51
270.0
  0
ARC
  5
1FB
  8
┌▓È_1
 62
     5
 10
25.894440104200001
 20
-208.0436534909
 30
0.0
 40
3.5
 50
270.0
 51
90.0
  0
ARC
  5
1FC
  8
┌▓È_1
 62
     5
 10
25.894440104200001
 20
-193.0436534909
 30
0.0
 40
3.5
 50
270.0
 51
90.0
  0
ARC
  5
1FD
  8
┌▓È_1
 62
     5
 10
25.894440104200001
 20
-223.0436534909
 30
0.0
 40
3.5
 50
270.0
 51
90.0
  0
LINE
  5
1FE
  8
┌▓È_1
 62
     5
 10
47.18782552079999
 20
-245.04330974090001
 30
0.0
 11
191.1949036458
 21
-245.04330974090001
 31
0.0
  0
LINE
  5
1FF
  8
┌▓È_1
  6
HIDDEN
 62
     1
 10
47.18782552079999
 20
-243.04330974090001
 30
0.0
 11
191.1949036458
 21
-243.04330974090001
 31
0.0
  0
LINE
  5
200
  8
┌▓È_1
 62
     5
 10
47.18782552079999
 20
-245.54330974090001
 30
0.0
 11
194.49460079310001
 21
-245.54330974090001
 31
0.0
  0
LINE
  5
201
  8
┌▓È_1
 62
     5
 10
47.18782552079999
 20
-254.54330974090001
 30
0.0
 11
203.49460079310001
 21
-254.54330974090001
 31
0.0
  0
LINE
  5
202
  8
┌▓È_1
 62
     5
 10
10.894440104199999
 20
-204.5436534909
 30
0.0
 11
25.894440104200001
 21
-204.5436534909
 31
0.0
  0
LINE
  5
203
  8
┌▓È_1
 62
     5
 10
25.894440104200001
 20
-211.5436534909
 30
0.0
 11
10.894440104199999
 21
-211.5436534909
 31
0.0
  0
ARC
  5
204
  8
┌▓È_1
 62
     5
 10
10.894440104199999
 20
-208.0436534909
 30
0.0
 40
3.5
 50
90.0
 51
270.0
  0
LINE
  5
205
  8
┌▓È_1
 62
     5
 10
10.894440104199999
 20
-189.5436534909
 30
0.0
 11
25.894440104200001
 21
-189.5436534909
 31
0.0
  0
LINE
  5
206
  8
┌▓È_1
 62
     5
 10
25.894440104200001
 20
-196.5436534909
 30
0.0
 11
10.894440104199999
 21
-196.5436534909
 31
0.0
  0
ARC
  5
207
  8
┌▓È_1
 62
     5
 10
10.894440104199999
 20
-193.0436534909
 30
0.0
 40
3.5
 50
90.0
 51
270.0
  0
ARC
  5
208
  8
┌▓È_1
 62
     5
 10
10.894440104199999
 20
-223.0436534909
 30
0.0
 40
3.5
 50
90.0
 51
270.0
  0
LINE
  5
209
  8
┌▓È_1
 62
     5
 10
10.894440104199999
 20
-219.5436534909
 30
0.0
 11
25.894440104200001
 21
-219.5436534909
 31
0.0
  0
LINE
  5
20A
  8
┌▓È_1
 62
     5
 10
25.894440104200001
 20
-226.5436534909
 30
0.0
 11
10.894440104199999
 21
-226.5436534909
 31
0.0
  0
ARC
  5
20B
  8
┌▓È_1
 62
     5
 10
195.29460079309999
 20
-363.0893709389
 30
0.0
 40
0.8
 50
180.0
 51
270.0
  0
LINE
  5
20C
  8
┌▓È_1
 62
     5
 10
195.29460079309999
 20
-363.0893709389
 30
0.0
 11
202.69460079309999
 21
-363.0893709389
 31
0.0
  0
LINE
  5
20D
  8
┌▓È_1
 62
     5
 10
196.0946007931
 20
-363.88937093890002
 30
0.0
 11
202.69460079309999
 21
-363.88937093890002
 31
0.0
  0
LINE
  5
20E
  8
┌▓È_1
 62
     5
 10
47.18782552079999
 20
-363.88937093890002
 30
0.0
 11
196.0946007931
 21
-363.88937093890002
 31
0.0
  0
ARC
  5
20F
  8
┌▓È_1
 62
     5
 10
202.69460079309999
 20
-363.0893709389
 30
0.0
 40
0.8
 50
270.0
 51
0.0
  0
LINE
  5
210
  8
┌▓È_1
  6
BORDER
 62
     3
 10
-36.623111979199997
 20
-534.37751302879985
 30
0.0
 11
-11.623111979200001
 21
-534.37751302879985
 31
0.0
  0
LINE
  5
211
  8
┌▓È_1
 62
     5
 10
-16.623111979200001
 20
-444.87751302879991
 30
0.0
 11
-16.623111979200001
 21
-446.87751302879991
 31
0.0
  0
LINE
  5
212
  8
┌▓È_1
 62
     5
 10
-28.623111979200001
 20
-446.87751302879991
 30
0.0
 11
-16.623111979200001
 21
-446.87751302879991
 31
0.0
  0
ARC
  5
213
  8
┌▓È_1
 62
     5
 10
-28.623111979200001
 20
-446.87751302879991
 30
0.0
 40
2.0
 50
90.0
 51
180.0000386554
  0
LINE
  5
214
  8
┌▓È_1
 62
     5
 10
-28.623111979200001
 20
-444.87751302879991
 30
0.0
 11
-16.623111979200001
 21
-444.87751302879991
 31
0.0
  0
LINE
  5
215
  8
┌▓È_1
  6
BORDER
 62
     3
 10
17.355559895799999
 20
-534.37751302879985
 30
0.0
 11
52.355559895799992
 21
-534.37751302879985
 31
0.0
  0
LINE
  5
216
  8
┌▓È_1
 62
     5
 10
26.355559895799999
 20
-446.87751302879991
 30
0.0
 11
47.355559895799992
 21
-446.87751302879991
 31
0.0
  0
LINE
  5
217
  8
┌▓È_1
 62
     5
 10
26.355559895799999
 20
-444.87751302879991
 30
0.0
 11
47.355559895799992
 21
-444.87751302879991
 31
0.0
  0
ARC
  5
218
  8
┌▓È_1
 62
     5
 10
26.355559895799999
 20
-446.87751302879991
 30
0.0
 40
2.0
 50
90.0
 51
180.0
  0
LINE
  5
219
  8
┌▓È_1
 62
     5
 10
47.355559895799992
 20
-444.87751302879991
 30
0.0
 11
47.355559895799992
 21
-446.87751302879991
 31
0.0
  0
INSERT
  5
21B
  8
0
  6
CONTINUOUS
  2
*U62
 10
0.0
 20
0.0
 30
0.0
  0
INSERT
  5
21C
  8
0
  6
CONTINUOUS
  2
*U63
 10
0.0
 20
0.0
 30
0.0
  0
INSERT
  5
21D
  8
0
  6
CONTINUOUS
  2
*U64
 10
0.0
 20
0.0
 30
0.0
  0
INSERT
  5
21E
  8
0
  6
CONTINUOUS
  2
*U65
 10
0.0
 20
0.0
 30
0.0
  0
INSERT
  5
21F
  8
0
  6
CONTINUOUS
  2
*U66
 10
0.0
 20
0.0
 30
0.0
  0
INSERT
  5
220
  8
0
  6
CONTINUOUS
  2
*U67
 10
0.0
 20
0.0
 30
0.0
  0
INSERT
  5
221
  8
0
  6
CONTINUOUS
  2
*U68
 10
0.0
 20
0.0
 30
0.0
  0
INSERT
  5
222
  8
0
  6
CONTINUOUS
  2
*U69
 10
0.0
 20
0.0
 30
0.0
  0
INSERT
  5
223
  8
0
  6
CONTINUOUS
  2
*U70
 10
0.0
 20
0.0
 30
0.0
  0
ARC
  5
224
  8
┌▓È_1
 62
     5
 10
130.6949036458
 20
-148.0436534909
 30
0.0
 40
3.5
 50
270.0
 51
90.0
  0
LINE
  5
225
  8
┌▓È_1
 62
     5
 10
-289.10555989580001
 20
-114.5433514076
 30
0.0
 11
-304.10555989580001
 21
-114.5433514076
 31
0.0
  0
LINE
  5
226
  8
┌▓È_1
 62
     5
 10
-304.10555989580001
 20
-121.5433514076
 30
0.0
 11
-289.10555989580001
 21
-121.5433514076
 31
0.0
  0
LINE
  5
227
  8
┌▓È_1
 62
     5
 10
-304.10555989580001
 20
-106.5433514076
 30
0.0
 11
-289.10555989580001
 21
-106.5433514076
 31
0.0
  0
LINE
  5
228
  8
┌▓È_1
 62
     5
 10
-289.10555989580001
 20
-84.543351407599985
 30
0.0
 11
-304.10555989580001
 21
-84.543351407599985
 31
0.0
  0
LINE
  5
229
  8
┌▓È_1
 62
     5
 10
-289.10555989580001
 20
-99.543351407600014
 30
0.0
 11
-304.10555989580001
 21
-99.543351407600014
 31
0.0
  0
LINE
  5
22A
  8
┌▓È_1
 62
     5
 10
-304.10555989580001
 20
-91.543351407599999
 30
0.0
 11
-289.10555989580001
 21
-91.543351407599999
 31
0.0
  0
ARC
  5
22B
  8
┌▓È_1
 62
     5
 10
-304.10555989580001
 20
-88.043351407600014
 30
0.0
 40
3.5
 50
90.0
 51
270.0
  0
INSERT
  5
22C
  8
0
  6
CONTINUOUS
  2
*U71
 10
0.0
 20
0.0
 30
0.0
  0
INSERT
  5
22D
  8
0
  6
CONTINUOUS
  2
*U72
 10
0.0
 20
0.0
 30
0.0
  0
INSERT
  5
22E
  8
0
  6
CONTINUOUS
  2
*U73
 10
0.0
 20
0.0
 30
0.0
  0
INSERT
  5
22F
  8
0
  6
CONTINUOUS
  2
*U74
 10
0.0
 20
0.0
 30
0.0
  0
INSERT
  5
230
  8
0
  6
CONTINUOUS
  2
*U75
 10
0.0
 20
0.0
 30
0.0
  0
INSERT
  5
231
  8
0
  6
CONTINUOUS
  2
*U76
 10
0.0
 20
0.0
 30
0.0
  0
INSERT
  5
232
  8
0
  6
CONTINUOUS
  2
*U77
 10
0.0
 20
0.0
 30
0.0
  0
INSERT
  5
233
  8
0
  6
CONTINUOUS
  2
*U78
 10
0.0
 20
0.0
 30
0.0
  0
LINE
  5
234
  8
┌▓È_1
 62
     5
 10
-28.62311162280001
 20
-623.87751302879985
 30
0.0
 11
-16.623111979200001
 21
-623.87751302879985
 31
0.0
  0
LINE
  5
235
  8
┌▓È_1
 62
     5
 10
-16.623111979200001
 20
-623.87751302879985
 30
0.0
 11
-16.623111979200001
 21
-621.87751302879985
 31
0.0
  0
LINE
  5
236
  8
┌▓È_1
 62
     5
 10
-28.623111979200001
 20
-621.87751302879985
 30
0.0
 11
-16.623111979200001
 21
-621.87751302879985
 31
0.0
  0
ARC
  5
237
  8
┌▓È_1
 62
     5
 10
-28.623111979200001
 20
-621.87751302879985
 30
0.0
 40
2.0
 50
180.0
 51
270.00001020809998
  0
ARC
  5
238
  8
┌▓È_1
 62
     5
 10
26.355559895799999
 20
-621.87751302879985
 30
0.0
 40
2.0
 50
180.0
 51
270.0
  0
LINE
  5
239
  8
┌▓È_1
 62
     5
 10
26.355559895799999
 20
-623.87751302879985
 30
0.0
 11
47.355559895799992
 21
-623.87751302879985
 31
0.0
  0
LINE
  5
23A
  8
┌▓È_1
 62
     5
 10
47.355559895799992
 20
-621.87751302879985
 30
0.0
 11
47.355559895799992
 21
-623.87751302879985
 31
0.0
  0
LINE
  5
23B
  8
┌▓È_1
 62
     5
 10
26.355559895799999
 20
-621.87751302879985
 30
0.0
 11
47.355559895799992
 21
-621.87751302879985
 31
0.0
  0
DIMENSION
  5
24A
  8
Éíû@É³
 62
     5
  2
*D18
 10
47.355559895799992
 20
-422.79261694109988
 30
0.0
 11
35.855559895799999
 21
-422.79261694109988
 31
0.0
 70
   128
  1
<>
 13
47.355559895799992
 23
-444.87751302879991
 33
0.0
 14
24.355559895799999
 24
-446.87751302879991
 34
0.0
  0
DIMENSION
  5
259
  8
Éíû@É³
 62
     5
  2
*D19
 10
-16.623111979200001
 20
-422.79261694109988
 30
0.0
 11
-23.623111979200001
 21
-422.79261694109988
 31
0.0
 70
   128
  1
<>
 13
-16.623111979200001
 23
-444.87751302879991
 33
0.0
 14
-30.623111979200001
 24
-446.87751437809999
 34
0.0
  0
LINE
  5
25A
  8
┌▓È_1
 62
     5
 10
-217.10555989580001
 20
-121.5433514076
 30
0.0
 11
-202.10555989580001
 21
-121.5433514076
 31
0.0
  0
ARC
  5
25B
  8
┌▓È_1
 62
     5
 10
-202.10555989580001
 20
-118.0433514076
 30
0.0
 40
3.5
 50
270.0
 51
90.0
  0
ARC
  5
25C
  8
┌▓È_1
 62
     5
 10
-130.10555989580001
 20
-118.0433514076
 30
0.0
 40
3.5
 50
90.0
 51
270.0
  0
LINE
  5
25D
  8
┌▓È_1
 62
     5
 10
-130.10555989580001
 20
-106.5433514076
 30
0.0
 11
-115.1055598958
 21
-106.5433514076
 31
0.0
  0
LINE
  5
25E
  8
┌▓È_1
 62
     5
 10
-115.1055598958
 20
-114.5433514076
 30
0.0
 11
-130.10555989580001
 21
-114.5433514076
 31
0.0
  0
LINE
  5
25F
  8
┌▓È_1
 62
     5
 10
-130.10555989580001
 20
-121.5433514076
 30
0.0
 11
-115.1055598958
 21
-121.5433514076
 31
0.0
  0
ARC
  5
260
  8
┌▓È_1
 62
     5
 10
-289.10555989580001
 20
-118.0433514076
 30
0.0
 40
3.5
 50
270.0
 51
90.0
  0
ARC
  5
261
  8
┌▓È_1
 62
     5
 10
-130.10555989580001
 20
-103.0433514076
 30
0.0
 40
3.5
 50
90.0
 51
270.0
  0
LINE
  5
262
  8
┌▓È_1
 62
     5
 10
-115.1055598958
 20
-99.543351407600014
 30
0.0
 11
-130.10555989580001
 21
-99.543351407600014
 31
0.0
  0
LINE
  5
263
  8
┌▓È_1
 62
     5
 10
-202.10555989580001
 20
-84.543351407599985
 30
0.0
 11
-217.10555989580001
 21
-84.543351407599985
 31
0.0
  0
LINE
  5
264
  8
┌▓È_1
 62
     5
 10
-93.605559895799985
 20
-68.043309740899986
 30
0.0
 11
-93.605559895799985
 21
-66.0433097409
 31
0.0
  0
LINE
  5
265
  8
┌▓È_1
 62
     5
 10
-93.605559895799985
 20
-68.043309740899986
 30
0.0
 11
-95.605559895799999
 21
-68.043309740899986
 31
0.0
  0
LINE
  5
266
  8
┌▓È_1
 62
     5
 10
-97.605559895799999
 20
-68.043309740899986
 30
0.0
 11
-95.605559895799999
 21
-68.043309740899986
 31
0.0
  0
LINE
  5
267
  8
┌▓È_1
 62
     5
 10
-61.105559895799992
 20
-84.543653490899999
 30
0.0
 11
-76.105559895799985
 21
-84.543653490899999
 31
0.0
  0
LINE
  5
268
  8
┌▓È_1
 62
     5
 10
-115.1055598958
 20
-84.543351407599985
 30
0.0
 11
-130.10555989580001
 21
-84.543351407599985
 31
0.0
  0
LINE
  5
269
  8
┌▓È_1
 62
     5
 10
-97.605559895799999
 20
-68.043309740899986
 30
0.0
 11
-97.605559895799999
 21
-66.0433097409
 31
0.0
  0
ARC
  5
26A
  8
┌▓È_1
 62
     5
 10
-217.10555989580001
 20
-88.043351407600014
 30
0.0
 40
3.5
 50
90.0
 51
270.0
  0
ARC
  5
26B
  8
┌▓È_1
 62
     5
 10
-202.10555989580001
 20
-88.043351407600014
 30
0.0
 40
3.5
 50
270.0
 51
90.0
  0
ARC
  5
26C
  8
┌▓È_1
 62
     5
 10
-130.10555989580001
 20
-88.043351407600014
 30
0.0
 40
3.5
 50
90.0
 51
270.0
  0
LINE
  5
26D
  8
┌▓È_1
 62
     5
 10
-130.10555989580001
 20
-91.543351407599999
 30
0.0
 11
-115.1055598958
 21
-91.543351407599999
 31
0.0
  0
ARC
  5
26E
  8
┌▓È_1
 62
     5
 10
-76.105559895799985
 20
-88.043653490899999
 30
0.0
 40
3.5
 50
90.0
 51
270.0
  0
LINE
  5
26F
  8
┌▓È_1
 62
     5
 10
-217.10555989580001
 20
-91.543351407599999
 30
0.0
 11
-202.10555989580001
 21
-91.543351407599999
 31
0.0
  0
ARC
  5
270
  8
┌▓È_1
 62
     5
 10
-115.1055598958
 20
-88.043351407600014
 30
0.0
 40
3.5
 50
270.0
 51
90.0
  0
ARC
  5
271
  8
┌▓È_1
 62
     5
 10
-304.10555989580001
 20
-118.0433514076
 30
0.0
 40
3.5
 50
90.0
 51
270.0
  0
ARC
  5
272
  8
┌▓È_1
 62
     5
 10
-304.10555989580001
 20
-103.0433514076
 30
0.0
 40
3.5
 50
90.0
 51
270.0
  0
LINE
  5
273
  8
┌▓È_1
 62
     5
 10
-304.10555989580001
 20
-189.54335140759991
 30
0.0
 11
-289.10555989580001
 21
-189.54335140759991
 31
0.0
  0
LINE
  5
274
  8
┌▓È_1
 62
     5
 10
-289.10555989580001
 20
-226.5433514076
 30
0.0
 11
-304.10555989580001
 21
-226.5433514076
 31
0.0
  0
LINE
  5
275
  8
┌▓È_1
 62
     5
 10
-304.10555989580001
 20
-219.5433514076
 30
0.0
 11
-289.10555989580001
 21
-219.5433514076
 31
0.0
  0
LINE
  5
276
  8
┌▓È_1
 62
     5
 10
-347.60555989580001
 20
-151.5433514076
 30
0.0
 11
-332.60555989580001
 21
-151.5433514076
 31
0.0
  0
LINE
  5
277
  8
┌▓È_1
 62
     5
 10
-332.60555989580001
 20
-144.5433514076
 30
0.0
 11
-347.60555989580001
 21
-144.5433514076
 31
0.0
  0
ARC
  5
278
  8
┌▓È_1
 62
     5
 10
-61.105559895799992
 20
-88.043653490899999
 30
0.0
 40
3.5
 50
270.0
 51
90.0
  0
ARC
  5
279
  8
┌▓È_1
 62
     5
 10
-61.105559895799992
 20
-118.0436534909
 30
0.0
 40
3.5
 50
270.0
 51
90.0
  0
ARC
  5
27A
  8
┌▓È_1
 62
     5
 10
-61.105559895799992
 20
-103.0436534909
 30
0.0
 40
3.5
 50
270.0
 51
90.0
  0
ARC
  5
27B
  8
┌▓È_1
 62
     5
 10
-202.10555989580001
 20
-103.0433514076
 30
0.0
 40
3.5
 50
270.0
 51
90.0
  0
ARC
  5
27C
  8
┌▓È_1
 62
     5
 10
-217.10555989580001
 20
-103.0433514076
 30
0.0
 40
3.5
 50
90.0
 51
270.0
  0
LINE
  5
27D
  8
┌▓È_1
 62
     5
 10
-202.10555989580001
 20
-99.543351407600014
 30
0.0
 11
-217.10555989580001
 21
-99.543351407600014
 31
0.0
  0
ARC
  5
27E
  8
┌▓È_1
 62
     5
 10
-115.1055598958
 20
-103.0433514076
 30
0.0
 40
3.5
 50
270.0
 51
90.0
  0
LINE
  5
27F
  8
┌▓È_1
 62
     5
 10
-61.105559895799992
 20
-99.543653490899999
 30
0.0
 11
-76.105559895799985
 21
-99.543653490899999
 31
0.0
  0
ARC
  5
280
  8
┌▓È_1
 62
     5
 10
-76.105559895799985
 20
-103.0436534909
 30
0.0
 40
3.5
 50
90.0
 51
270.0
  0
ARC
  5
281
  8
┌▓È_1
 62
     5
 10
-289.10555989580001
 20
-103.0433514076
 30
0.0
 40
3.5
 50
270.0
 51
90.0
  0
LINE
  5
282
  8
┌▓È_1
 62
     5
 10
-76.105559895799985
 20
-91.543653490899985
 30
0.0
 11
-61.105559895799992
 21
-91.543653490899985
 31
0.0
  0
ARC
  5
283
  8
┌▓È_1
 62
     5
 10
-289.10555989580001
 20
-88.043351407600014
 30
0.0
 40
3.5
 50
270.0
 51
90.0
  0
LINE
  5
284
  8
┌▓È_1
 62
     5
 10
-217.10555989580001
 20
-106.5433514076
 30
0.0
 11
-202.10555989580001
 21
-106.5433514076
 31
0.0
  0
ARC
  5
285
  8
┌▓È_1
 62
     5
 10
-115.1055598958
 20
-118.0433514076
 30
0.0
 40
3.5
 50
270.0
 51
90.0
  0
LINE
  5
286
  8
┌▓È_1
 62
     5
 10
-76.105559895799985
 20
-121.5436534909
 30
0.0
 11
-61.105559895799992
 21
-121.5436534909
 31
0.0
  0
LINE
  5
287
  8
┌▓È_1
 62
     5
 10
-61.105559895799992
 20
-114.5436534909
 30
0.0
 11
-76.105559895799985
 21
-114.5436534909
 31
0.0
  0
LINE
  5
288
  8
┌▓È_1
 62
     5
 10
-76.105559895799985
 20
-106.5436534909
 30
0.0
 11
-61.105559895799992
 21
-106.5436534909
 31
0.0
  0
ARC
  5
289
  8
┌▓È_1
 62
     5
 10
-76.105559895799985
 20
-118.0436534909
 30
0.0
 40
3.5
 50
90.0
 51
270.0
  0
ARC
  5
28A
  8
┌▓È_1
 62
     5
 10
-217.10555989580001
 20
-118.0433514076
 30
0.0
 40
3.5
 50
90.0
 51
270.0
  0
LINE
  5
28B
  8
┌▓È_1
 62
     5
 10
-202.10555989580001
 20
-114.5433514076
 30
0.0
 11
-217.10555989580001
 21
-114.5433514076
 31
0.0
  0
LINE
  5
28C
  8
┌▓È_1
 62
     5
 10
-97.605559895799999
 20
-243.04330974090001
 30
0.0
 11
-95.605559895799999
 21
-243.04330974090001
 31
0.0
  0
ARC
  5
28D
  8
┌▓È_1
 62
     5
 10
-115.1055598958
 20
-223.0433514076
 30
0.0
 40
3.5
 50
270.0
 51
90.0
  0
ARC
  5
28E
  8
┌▓È_1
 62
     5
 10
-130.10555989580001
 20
-223.0433514076
 30
0.0
 40
3.5
 50
90.0
 51
270.0
  0
ARC
  5
28F
  8
┌▓È_1
 62
     5
 10
-217.10555989580001
 20
-223.0433514076
 30
0.0
 40
3.5
 50
90.0
 51
270.0
  0
LINE
  5
290
  8
┌▓È_1
 62
     5
 10
-202.10555989580001
 20
-226.5433514076
 30
0.0
 11
-217.10555989580001
 21
-226.5433514076
 31
0.0
  0
LINE
  5
291
  8
┌▓È_1
 62
     5
 10
-217.10555989580001
 20
-219.5433514076
 30
0.0
 11
-202.10555989580001
 21
-219.5433514076
 31
0.0
  0
LINE
  5
292
  8
┌▓È_1
 62
     5
 10
-260.60555989580001
 20
-151.5433514076
 30
0.0
 11
-245.60555989580001
 21
-151.5433514076
 31
0.0
  0
LINE
  5
293
  8
┌▓È_1
 62
     5
 10
-115.1055598958
 20
-211.5433514076
 30
0.0
 11
-130.10555989580001
 21
-211.5433514076
 31
0.0
  0
ARC
  5
294
  8
┌▓È_1
 62
     5
 10
-76.105559895799985
 20
-208.0436534909
 30
0.0
 40
3.5
 50
90.0
 51
270.0
  0
ARC
  5
295
  8
┌▓È_1
 62
     5
 10
-115.1055598958
 20
-208.0433514076
 30
0.0
 40
3.5
 50
270.0
 51
90.0
  0
LINE
  5
296
  8
┌▓È_1
 62
     5
 10
-173.60555989580001
 20
-151.5433514076
 30
0.0
 11
-158.60555989580001
 21
-151.5433514076
 31
0.0
  0
LINE
  5
297
  8
┌▓È_1
 62
     5
 10
-245.60555989580001
 20
-144.5433514076
 30
0.0
 11
-260.60555989580001
 21
-144.5433514076
 31
0.0
  0
LINE
  5
298
  8
┌▓È_1
 62
     5
 10
-158.60555989580001
 20
-144.5433514076
 30
0.0
 11
-173.60555989580001
 21
-144.5433514076
 31
0.0
  0
ARC
  5
299
  8
┌▓È_1
 62
     5
 10
-332.60555989580001
 20
-148.0433514076
 30
0.0
 40
3.5
 50
270.0
 51
90.0
  0
ARC
  5
29A
  8
┌▓È_1
 62
     5
 10
-347.60555989580001
 20
-148.0433514076
 30
0.0
 40
3.5
 50
90.0
 51
270.0
  0
ARC
  5
29B
  8
┌▓È_1
 62
     5
 10
-347.60555989580001
 20
-163.0433514076
 30
0.0
 40
3.5
 50
90.0
 51
270.0
  0
LINE
  5
29C
  8
┌▓È_1
 62
     5
 10
-332.60555989580001
 20
-159.5433514076
 30
0.0
 11
-347.60555989580001
 21
-159.5433514076
 31
0.0
  0
ARC
  5
29D
  8
┌▓È_1
 62
     5
 10
-304.10555989580001
 20
-208.0433514076
 30
0.0
 40
3.5
 50
90.0
 51
270.0
  0
LINE
  5
29E
  8
┌▓È_1
 62
     5
 10
-347.60555989580001
 20
-166.5433514076
 30
0.0
 11
-332.60555989580001
 21
-166.5433514076
 31
0.0
  0
ARC
  5
29F
  8
┌▓È_1
 62
     5
 10
-332.60555989580001
 20
-163.0433514076
 30
0.0
 40
3.5
 50
270.0
 51
90.0
  0
ARC
  5
2A0
  8
┌▓È_1
 62
     5
 10
-304.10555989580001
 20
-193.0433514076
 30
0.0
 40
3.5
 50
90.0
 51
270.0
  0
ARC
  5
2A1
  8
┌▓È_1
 62
     5
 10
-304.10555989580001
 20
-223.0433514076
 30
0.0
 40
3.5
 50
90.0
 51
270.0
  0
LINE
  5
2A2
  8
┌▓È_1
 62
     5
 10
-304.10555989580001
 20
-204.5433514076
 30
0.0
 11
-289.10555989580001
 21
-204.5433514076
 31
0.0
  0
LINE
  5
2A3
  8
┌▓È_1
 62
     5
 10
-289.10555989580001
 20
-211.5433514076
 30
0.0
 11
-304.10555989580001
 21
-211.5433514076
 31
0.0
  0
LINE
  5
2A4
  8
┌▓È_1
 62
     5
 10
-289.10555989580001
 20
-196.5433514076
 30
0.0
 11
-304.10555989580001
 21
-196.5433514076
 31
0.0
  0
ARC
  5
2A5
  8
┌▓È_1
 62
     5
 10
-289.10555989580001
 20
-208.0433514076
 30
0.0
 40
3.5
 50
270.0
 51
90.0
  0
ARC
  5
2A6
  8
┌▓È_1
 62
     5
 10
-260.60555989580001
 20
-163.0433514076
 30
0.0
 40
3.5
 50
90.0
 51
270.0
  0
ARC
  5
2A7
  8
┌▓È_1
 62
     5
 10
-289.10555989580001
 20
-193.0433514076
 30
0.0
 40
3.5
 50
270.0
 51
90.0
  0
ARC
  5
2A8
  8
┌▓È_1
 62
     5
 10
-289.10555989580001
 20
-223.0433514076
 30
0.0
 40
3.5
 50
270.0
 51
90.0
  0
LINE
  5
2A9
  8
┌▓È_1
 62
     5
 10
-245.60555989580001
 20
-159.5433514076
 30
0.0
 11
-260.60555989580001
 21
-159.5433514076
 31
0.0
  0
LINE
  5
2AA
  8
┌▓È_1
 62
     5
 10
-260.60555989580001
 20
-166.5433514076
 30
0.0
 11
-245.60555989580001
 21
-166.5433514076
 31
0.0
  0
ARC
  5
2AB
  8
┌▓È_1
 62
     5
 10
-115.1055598958
 20
-193.0433514076
 30
0.0
 40
3.5
 50
270.0
 51
90.0
  0
LINE
  5
2AC
  8
┌▓È_1
 62
     5
 10
-61.105559895799992
 20
-196.5436534909
 30
0.0
 11
-76.105559895799985
 21
-196.5436534909
 31
0.0
  0
LINE
  5
2AD
  8
┌▓È_1
 62
     5
 10
-76.105559895799985
 20
-189.5436534909
 30
0.0
 11
-61.105559895799992
 21
-189.5436534909
 31
0.0
  0
LINE
  5
2AE
  8
┌▓È_1
 62
     5
 10
-76.105559895799985
 20
-204.5436534909
 30
0.0
 11
-61.105559895799992
 21
-204.5436534909
 31
0.0
  0
LINE
  5
2AF
  8
┌▓È_1
 62
     5
 10
-61.105559895799992
 20
-211.5436534909
 30
0.0
 11
-76.105559895799985
 21
-211.5436534909
 31
0.0
  0
ARC
  5
2B0
  8
┌▓È_1
 62
     5
 10
-76.105559895799985
 20
-193.0436534909
 30
0.0
 40
3.5
 50
90.0
 51
270.0
  0
ARC
  5
2B1
  8
┌▓È_1
 62
     5
 10
-217.10555989580001
 20
-208.0433514076
 30
0.0
 40
3.5
 50
90.0
 51
270.0
  0
LINE
  5
2B2
  8
┌▓È_1
 62
     5
 10
-202.10555989580001
 20
-211.5433514076
 30
0.0
 11
-217.10555989580001
 21
-211.5433514076
 31
0.0
  0
ARC
  5
2B3
  8
┌▓È_1
 62
     5
 10
-245.60555989580001
 20
-163.0433514076
 30
0.0
 40
3.5
 50
270.0
 51
90.0
  0
ARC
  5
2B4
  8
┌▓È_1
 62
     5
 10
-130.10555989580001
 20
-193.0433514076
 30
0.0
 40
3.5
 50
90.0
 51
270.0
  0
LINE
  5
2B5
  8
┌▓È_1
 62
     5
 10
-115.1055598958
 20
-196.5433514076
 30
0.0
 11
-130.10555989580001
 21
-196.5433514076
 31
0.0
  0
LINE
  5
2B6
  8
┌▓È_1
 62
     5
 10
-130.10555989580001
 20
-189.54335140759991
 30
0.0
 11
-115.1055598958
 21
-189.54335140759991
 31
0.0
  0
ARC
  5
2B7
  8
┌▓È_1
 62
     5
 10
-217.10555989580001
 20
-193.0433514076
 30
0.0
 40
3.5
 50
90.0
 51
270.0
  0
LINE
  5
2B8
  8
┌▓È_1
 62
     5
 10
-202.10555989580001
 20
-196.5433514076
 30
0.0
 11
-217.10555989580001
 21
-196.5433514076
 31
0.0
  0
ARC
  5
2B9
  8
┌▓È_1
 62
     5
 10
-173.60555989580001
 20
-163.0433514076
 30
0.0
 40
3.5
 50
90.0
 51
270.0
  0
LINE
  5
2BA
  8
┌▓È_1
 62
     5
 10
-158.60555989580001
 20
-159.5433514076
 30
0.0
 11
-173.60555989580001
 21
-159.5433514076
 31
0.0
  0
LINE
  5
2BB
  8
┌▓È_1
 62
     5
 10
-217.10555989580001
 20
-204.5433514076
 30
0.0
 11
-202.10555989580001
 21
-204.5433514076
 31
0.0
  0
ARC
  5
2BC
  8
┌▓È_1
 62
     5
 10
-202.10555989580001
 20
-208.0433514076
 30
0.0
 40
3.5
 50
270.0
 51
90.0
  0
ARC
  5
2BD
  8
┌▓È_1
 62
     5
 10
-130.10555989580001
 20
-208.0433514076
 30
0.0
 40
3.5
 50
90.0
 51
270.0
  0
LINE
  5
2BE
  8
┌▓È_1
 62
     5
 10
-478.1055598957999
 20
-91.543351407599999
 30
0.0
 11
-463.10555989580001
 21
-91.543351407599999
 31
0.0
  0
ARC
  5
2BF
  8
┌▓È_1
 62
     5
 10
-376.10555989580001
 20
-88.043351407600014
 30
0.0
 40
3.5
 50
270.0
 51
90.0
  0
ARC
  5
2C0
  8
┌▓È_1
 62
     5
 10
-158.60555989580001
 20
-148.0433514076
 30
0.0
 40
3.5
 50
270.0
 51
90.0
  0
ARC
  5
2C1
  8
┌▓È_1
 62
     5
 10
-245.60555989580001
 20
-148.0433514076
 30
0.0
 40
3.5
 50
270.0
 51
90.0
  0
ARC
  5
2C2
  8
┌▓È_1
 62
     5
 10
-173.60555989580001
 20
-148.0433514076
 30
0.0
 40
3.5
 50
90.0
 51
270.0
  0
ARC
  5
2C3
  8
┌▓È_1
 62
     5
 10
-260.60555989580001
 20
-148.0433514076
 30
0.0
 40
3.5
 50
90.0
 51
270.0
  0
ARC
  5
2C4
  8
┌▓È_1
 62
     5
 10
-61.105559895799992
 20
-208.0436534909
 30
0.0
 40
3.5
 50
270.0
 51
90.0
  0
ARC
  5
2C5
  8
┌▓È_1
 62
     5
 10
-61.105559895799992
 20
-193.0436534909
 30
0.0
 40
3.5
 50
270.0
 51
90.0
  0
ARC
  5
2C6
  8
┌▓È_1
 62
     5
 10
-61.105559895799992
 20
-223.0436534909
 30
0.0
 40
3.5
 50
270.0
 51
90.0
  0
CIRCLE
  5
2C7
  8
┌▓È_1
 62
     5
 10
-68.605559895799985
 20
-155.5436534909
 30
0.0
 40
7.5
  0
CIRCLE
  5
2C8
  8
┌▓È_1
 62
     5
 10
-122.6055598958
 20
-155.5433514076
 30
0.0
 40
7.5
  0
ARC
  5
2C9
  8
┌▓È_1
 62
     5
 10
-202.10555989580001
 20
-223.0433514076
 30
0.0
 40
3.5
 50
270.0
 51
90.0
  0
LINE
  5
2CA
  8
┌▓È_1
 62
     5
 10
-115.1055598958
 20
-226.5433514076
 30
0.0
 11
-130.10555989580001
 21
-226.5433514076
 31
0.0
  0
LINE
  5
2CB
  8
┌▓È_1
 62
     5
 10
-130.10555989580001
 20
-219.5433514076
 30
0.0
 11
-115.1055598958
 21
-219.5433514076
 31
0.0
  0
ARC
  5
2CC
  8
┌▓È_1
 62
     5
 10
-76.105559895799985
 20
-223.0436534909
 30
0.0
 40
3.5
 50
90.0
 51
270.0
  0
LINE
  5
2CD
  8
┌▓È_1
 62
     5
 10
-76.105559895799985
 20
-219.5436534909
 30
0.0
 11
-61.105559895799992
 21
-219.5436534909
 31
0.0
  0
LINE
  5
2CE
  8
┌▓È_1
 62
     5
 10
-61.105559895799992
 20
-226.5436534909
 30
0.0
 11
-76.105559895799985
 21
-226.5436534909
 31
0.0
  0
LINE
  5
2CF
  8
┌▓È_1
 62
     5
 10
-93.605559895799985
 20
-243.04330974090001
 30
0.0
 11
-95.605559895799999
 21
-243.04330974090001
 31
0.0
  0
LINE
  5
2D0
  8
┌▓È_1
 62
     5
 10
-93.605559895799985
 20
-243.04330974090001
 30
0.0
 11
-93.605559895799985
 21
-245.04330974090001
 31
0.0
  0
LINE
  5
2D1
  8
┌▓È_1
 62
     5
 10
-97.605559895799999
 20
-243.04330974090001
 30
0.0
 11
-97.605559895799999
 21
-245.04330974090001
 31
0.0
  0
LINE
  5
2D2
  8
┌▓È_1
 62
     5
 10
-130.10555989580001
 20
-204.5433514076
 30
0.0
 11
-115.1055598958
 21
-204.5433514076
 31
0.0
  0
LINE
  5
2D3
  8
┌▓È_1
 62
     5
 10
-173.60555989580001
 20
-166.5433514076
 30
0.0
 11
-158.60555989580001
 21
-166.5433514076
 31
0.0
  0
ARC
  5
2D4
  8
┌▓È_1
 62
     5
 10
-158.60555989580001
 20
-163.0433514076
 30
0.0
 40
3.5
 50
270.0
 51
90.0
  0
LINE
  5
2D5
  8
┌▓È_1
 62
     5
 10
-217.10555989580001
 20
-189.54335140759991
 30
0.0
 11
-202.10555989580001
 21
-189.54335140759991
 31
0.0
  0
ARC
  5
2D6
  8
┌▓È_1
 62
     5
 10
-202.10555989580001
 20
-193.0433514076
 30
0.0
 40
3.5
 50
270.0
 51
90.0
  0
ARC
  5
2D7
  8
┌▓È_1
 62
     5
 10
-565.10555989579996
 20
-118.0433514076
 30
0.0
 40
3.5
 50
90.0
 51
270.0
  0
LINE
  5
2D8
  8
┌▓È_1
 62
     5
 10
-550.10555989579996
 20
-114.5433514076
 30
0.0
 11
-565.10555989579996
 21
-114.5433514076
 31
0.0
  0
LINE
  5
2D9
  8
┌▓È_1
 62
     5
 10
-550.10555989579996
 20
-99.543351407600014
 30
0.0
 11
-565.10555989579996
 21
-99.543351407600014
 31
0.0
  0
LINE
  5
2DA
  8
┌▓È_1
 62
     5
 10
-565.10555989579996
 20
-106.5433514076
 30
0.0
 11
-550.10555989579996
 21
-106.5433514076
 31
0.0
  0
LINE
  5
2DB
  8
┌▓È_1
 62
     5
 10
-565.10555989579996
 20
-121.5433514076
 30
0.0
 11
-550.10555989579996
 21
-121.5433514076
 31
0.0
  0
ARC
  5
2DC
  8
┌▓È_1
 62
     5
 10
-391.10555989580001
 20
-88.043351407600014
 30
0.0
 40
3.5
 50
90.0
 51
270.0
  0
ARC
  5
2DD
  8
┌▓È_1
 62
     5
 10
-478.1055598957999
 20
-88.043351407600014
 30
0.0
 40
3.5
 50
90.0
 51
270.0
  0
ARC
  5
2DE
  8
┌▓È_1
 62
     5
 10
-463.10555989580001
 20
-88.043351407600014
 30
0.0
 40
3.5
 50
270.0
 51
90.0
  0
ARC
  5
2DF
  8
┌▓È_1
 62
     5
 10
-550.10555989579996
 20
-88.043351407600014
 30
0.0
 40
3.5
 50
270.0
 51
90.0
  0
LINE
  5
2E0
  8
┌▓È_1
 62
     5
 10
-582.60555989579996
 20
-68.043309740899986
 30
0.0
 11
-584.60555989580007
 21
-68.043309740899986
 31
0.0
  0
LINE
  5
2E1
  8
┌▓È_1
 62
     5
 10
-582.60555989579996
 20
-68.043309740899986
 30
0.0
 11
-582.60555989579996
 21
-66.0433097409
 31
0.0
  0
LINE
  5
2E2
  8
┌▓È_1
 62
     5
 10
-550.10555989579996
 20
-84.543351407599985
 30
0.0
 11
-565.10555989579996
 21
-84.543351407599985
 31
0.0
  0
ARC
  5
2E3
  8
┌▓È_1
 62
     5
 10
-565.10555989579996
 20
-88.043351407600014
 30
0.0
 40
3.5
 50
90.0
 51
270.0
  0
LINE
  5
2E4
  8
┌▓È_1
 62
     5
 10
-565.10555989579996
 20
-91.543351407599999
 30
0.0
 11
-550.10555989579996
 21
-91.543351407599999
 31
0.0
  0
ARC
  5
2E5
  8
┌▓È_1
 62
     5
 10
-391.10555989580001
 20
-118.0433514076
 30
0.0
 40
3.5
 50
90.0
 51
270.0
  0
LINE
  5
2E6
  8
┌▓È_1
 62
     5
 10
-478.1055598957999
 20
-106.5433514076
 30
0.0
 11
-463.10555989580001
 21
-106.5433514076
 31
0.0
  0
ARC
  5
2E7
  8
┌▓È_1
 62
     5
 10
-376.10555989580001
 20
-118.0433514076
 30
0.0
 40
3.5
 50
270.0
 51
90.0
  0
LINE
  5
2E8
  8
┌▓È_1
 62
     5
 10
-391.10555989580001
 20
-106.5433514076
 30
0.0
 11
-376.10555989580001
 21
-106.5433514076
 31
0.0
  0
LINE
  5
2E9
  8
┌▓È_1
 62
     5
 10
-376.10555989580001
 20
-114.5433514076
 30
0.0
 11
-391.10555989580001
 21
-114.5433514076
 31
0.0
  0
LINE
  5
2EA
  8
┌▓È_1
 62
     5
 10
-391.10555989580001
 20
-121.5433514076
 30
0.0
 11
-376.10555989580001
 21
-121.5433514076
 31
0.0
  0
ARC
  5
2EB
  8
┌▓È_1
 62
     5
 10
-550.10555989579996
 20
-118.0433514076
 30
0.0
 40
3.5
 50
270.0
 51
90.0
  0
ARC
  5
2EC
  8
┌▓È_1
 62
     5
 10
-478.1055598957999
 20
-118.0433514076
 30
0.0
 40
3.5
 50
90.0
 51
270.0
  0
LINE
  5
2ED
  8
┌▓È_1
 62
     5
 10
-376.10555989580001
 20
-84.543351407599985
 30
0.0
 11
-391.10555989580001
 21
-84.543351407599985
 31
0.0
  0
LINE
  5
2EE
  8
┌▓È_1
 62
     5
 10
-463.10555989580001
 20
-84.543351407599985
 30
0.0
 11
-478.1055598957999
 21
-84.543351407599985
 31
0.0
  0
LINE
  5
2EF
  8
┌▓È_1
 62
     5
 10
-391.10555989580001
 20
-91.543351407599999
 30
0.0
 11
-376.10555989580001
 21
-91.543351407599999
 31
0.0
  0
ARC
  5
2F0
  8
┌▓È_1
 62
     5
 10
-463.10555989580001
 20
-223.0433514076
 30
0.0
 40
3.5
 50
270.0
 51
90.0
  0
LINE
  5
2F1
  8
┌▓È_1
 62
     5
 10
-521.60555989579996
 20
-166.5433514076
 30
0.0
 11
-506.60555989580001
 21
-166.5433514076
 31
0.0
  0
ARC
  5
2F2
  8
┌▓È_1
 62
     5
 10
-506.60555989580001
 20
-163.0433514076
 30
0.0
 40
3.5
 50
270.0
 51
90.0
  0
ARC
  5
2F3
  8
┌▓È_1
 62
     5
 10
-463.10555989580001
 20
-193.0433514076
 30
0.0
 40
3.5
 50
270.0
 51
90.0
  0
ARC
  5
2F4
  8
┌▓È_1
 62
     5
 10
-376.10555989580001
 20
-208.0433514076
 30
0.0
 40
3.5
 50
270.0
 51
90.0
  0
ARC
  5
2F5
  8
┌▓È_1
 62
     5
 10
-391.10555989580001
 20
-193.0433514076
 30
0.0
 40
3.5
 50
90.0
 51
270.0
  0
ARC
  5
2F6
  8
┌▓È_1
 62
     5
 10
-521.60555989579996
 20
-163.0433514076
 30
0.0
 40
3.5
 50
90.0
 51
270.0
  0
LINE
  5
2F7
  8
┌▓È_1
 62
     5
 10
-506.60555989580001
 20
-159.5433514076
 30
0.0
 11
-521.60555989579996
 21
-159.5433514076
 31
0.0
  0
ARC
  5
2F8
  8
┌▓È_1
 62
     5
 10
-478.1055598957999
 20
-193.0433514076
 30
0.0
 40
3.5
 50
90.0
 51
270.0
  0
LINE
  5
2F9
  8
┌▓È_1
 62
     5
 10
-521.60555989579996
 20
-151.5433514076
 30
0.0
 11
-506.60555989580001
 21
-151.5433514076
 31
0.0
  0
LINE
  5
2FA
  8
┌▓È_1
 62
     5
 10
-434.60555989580001
 20
-151.5433514076
 30
0.0
 11
-419.6055598957999
 21
-151.5433514076
 31
0.0
  0
LINE
  5
2FB
  8
┌▓È_1
 62
     5
 10
-506.60555989580001
 20
-144.5433514076
 30
0.0
 11
-521.60555989579996
 21
-144.5433514076
 31
0.0
  0
LINE
  5
2FC
  8
┌▓È_1
 62
     5
 10
-419.6055598957999
 20
-144.5433514076
 30
0.0
 11
-434.60555989580001
 21
-144.5433514076
 31
0.0
  0
DIMENSION
  5
30B
  8
Éíû@É³
 62
     5
  2
*D20
 10
-585.50539920690005
 20
-24.097825579599998
 30
0.0
 11
-589.82296071410008
 21
-24.097825579599998
 31
0.0
 70
   128
  1
<>
 13
-585.50539920690005
 23
-65.543309740899986
 33
0.0
 14
-594.50539920690005
 24
-56.5433097409
 34
0.0
  0
LINE
  5
30C
  8
┌▓È_1
 62
     5
 10
-463.10555989580001
 20
-114.5433514076
 30
0.0
 11
-478.1055598957999
 21
-114.5433514076
 31
0.0
  0
LINE
  5
30D
  8
┌▓È_1
 62
     5
 10
-478.1055598957999
 20
-121.5433514076
 30
0.0
 11
-463.10555989580001
 21
-121.5433514076
 31
0.0
  0
ARC
  5
30E
  8
┌▓È_1
 62
     5
 10
-463.10555989580001
 20
-118.0433514076
 30
0.0
 40
3.5
 50
270.0
 51
90.0
  0
LINE
  5
30F
  8
┌▓È_1
 62
     5
 10
-376.10555989580001
 20
-99.543351407600014
 30
0.0
 11
-391.10555989580001
 21
-99.543351407600014
 31
0.0
  0
ARC
  5
310
  8
┌▓È_1
 62
     5
 10
-550.10555989579996
 20
-103.0433514076
 30
0.0
 40
3.5
 50
270.0
 51
90.0
  0
ARC
  5
311
  8
┌▓È_1
 62
     5
 10
-391.10555989580001
 20
-103.0433514076
 30
0.0
 40
3.5
 50
90.0
 51
270.0
  0
ARC
  5
312
  8
┌▓È_1
 62
     5
 10
-478.1055598957999
 20
-103.0433514076
 30
0.0
 40
3.5
 50
90.0
 51
270.0
  0
LINE
  5
313
  8
┌▓È_1
 62
     5
 10
-463.10555989580001
 20
-99.543351407600014
 30
0.0
 11
-478.1055598957999
 21
-99.543351407600014
 31
0.0
  0
ARC
  5
314
  8
┌▓È_1
 62
     5
 10
-463.10555989580001
 20
-103.0433514076
 30
0.0
 40
3.5
 50
270.0
 51
90.0
  0
ARC
  5
315
  8
┌▓È_1
 62
     5
 10
-376.10555989580001
 20
-103.0433514076
 30
0.0
 40
3.5
 50
270.0
 51
90.0
  0
ARC
  5
316
  8
┌▓È_1
 62
     5
 10
-565.10555989579996
 20
-103.0433514076
 30
0.0
 40
3.5
 50
90.0
 51
270.0
  0
ARC
  5
317
  8
┌▓È_1
 10
-593.70539920689987
 20
-334.68937093890003
 30
0.0
 40
0.8
 50
90.0
 51
180.0
  0
LINE
  5
318
  8
┌▓È_1
 62
     5
 10
-463.10555989580001
 20
-196.5433514076
 30
0.0
 11
-478.1055598957999
 21
-196.5433514076
 31
0.0
  0
LINE
  5
319
  8
┌▓È_1
 62
     5
 10
-478.1055598957999
 20
-189.54335140759991
 30
0.0
 11
-463.10555989580001
 21
-189.54335140759991
 31
0.0
  0
ARC
  5
31A
  8
┌▓È_1
 62
     5
 10
-550.10555989579996
 20
-193.0433514076
 30
0.0
 40
3.5
 50
270.0
 51
90.0
  0
ARC
  5
31B
  8
┌▓È_1
 62
     5
 10
-376.10555989580001
 20
-193.0433514076
 30
0.0
 40
3.5
 50
270.0
 51
90.0
  0
LINE
  5
31C
  8
┌▓È_1
 62
     5
 10
-478.1055598957999
 20
-204.5433514076
 30
0.0
 11
-463.10555989580001
 21
-204.5433514076
 31
0.0
  0
ARC
  5
31D
  8
┌▓È_1
 62
     5
 10
-391.10555989580001
 20
-208.0433514076
 30
0.0
 40
3.5
 50
90.0
 51
270.0
  0
ARC
  5
31E
  8
┌▓È_1
 62
     5
 10
-478.1055598957999
 20
-208.0433514076
 30
0.0
 40
3.5
 50
90.0
 51
270.0
  0
ARC
  5
31F
  8
┌▓È_1
 62
     5
 10
-463.10555989580001
 20
-208.0433514076
 30
0.0
 40
3.5
 50
270.0
 51
90.0
  0
ARC
  5
320
  8
┌▓È_1
 62
     5
 10
-550.10555989579996
 20
-208.0433514076
 30
0.0
 40
3.5
 50
270.0
 51
90.0
  0
LINE
  5
321
  8
┌▓È_1
 62
     5
 10
-376.10555989580001
 20
-196.5433514076
 30
0.0
 11
-391.10555989580001
 21
-196.5433514076
 31
0.0
  0
LINE
  5
322
  8
┌▓È_1
 62
     5
 10
-391.10555989580001
 20
-189.54335140759991
 30
0.0
 11
-376.10555989580001
 21
-189.54335140759991
 31
0.0
  0
LINE
  5
323
  8
┌▓È_1
 62
     5
 10
-376.10555989580001
 20
-211.5433514076
 30
0.0
 11
-391.10555989580001
 21
-211.5433514076
 31
0.0
  0
LINE
  5
324
  8
┌▓È_1
 62
     5
 10
-391.10555989580001
 20
-204.5433514076
 30
0.0
 11
-376.10555989580001
 21
-204.5433514076
 31
0.0
  0
ARC
  5
325
  8
┌▓È_1
 62
     5
 10
-434.60555989580001
 20
-163.0433514076
 30
0.0
 40
3.5
 50
90.0
 51
270.0
  0
LINE
  5
326
  8
┌▓È_1
 62
     5
 10
-419.6055598957999
 20
-159.5433514076
 30
0.0
 11
-434.60555989580001
 21
-159.5433514076
 31
0.0
  0
LINE
  5
327
  8
┌▓È_1
 62
     5
 10
-434.60555989580001
 20
-166.5433514076
 30
0.0
 11
-419.6055598957999
 21
-166.5433514076
 31
0.0
  0
ARC
  5
328
  8
┌▓È_1
 62
     5
 10
-419.6055598957999
 20
-163.0433514076
 30
0.0
 40
3.5
 50
270.0
 51
90.0
  0
LINE
  5
329
  8
┌▓È_1
 62
     5
 10
-391.10555989580001
 20
-219.5433514076
 30
0.0
 11
-376.10555989580001
 21
-219.5433514076
 31
0.0
  0
LINE
  5
32A
  8
┌▓È_1
 62
     5
 10
-376.10555989580001
 20
-226.5433514076
 30
0.0
 11
-391.10555989580001
 21
-226.5433514076
 31
0.0
  0
ARC
  5
32B
  8
┌▓È_1
 62
     5
 10
-376.10555989580001
 20
-223.0433514076
 30
0.0
 40
3.5
 50
270.0
 51
90.0
  0
LINE
  5
32C
  8
┌▓È_1
 62
     5
 10
-463.10555989580001
 20
-226.5433514076
 30
0.0
 11
-478.1055598957999
 21
-226.5433514076
 31
0.0
  0
LINE
  5
32D
  8
┌▓È_1
 62
     5
 10
-478.1055598957999
 20
-219.5433514076
 30
0.0
 11
-463.10555989580001
 21
-219.5433514076
 31
0.0
  0
ARC
  5
32E
  8
┌▓È_1
 62
     5
 10
-391.10555989580001
 20
-223.0433514076
 30
0.0
 40
3.5
 50
90.0
 51
270.0
  0
ARC
  5
32F
  8
┌▓È_1
 62
     5
 10
-478.1055598957999
 20
-223.0433514076
 30
0.0
 40
3.5
 50
90.0
 51
270.0
  0
ARC
  5
330
  8
┌▓È_1
 62
     5
 10
-233.67597656250001
 20
-481.87755469539991
 30
0.0
 40
3.5
 50
90.0
 51
270.0
  0
LINE
  5
331
  8
┌▓È_1
 62
     5
 10
-218.67597656250001
 20
-478.37755469540002
 30
0.0
 11
-233.67597656250001
 21
-478.37755469540002
 31
0.0
  0
ARC
  5
332
  8
┌▓È_1
 62
     5
 10
-131.67597656250001
 20
-481.87755469539991
 30
0.0
 40
3.5
 50
270.0
 51
90.0
  0
INSERT
  5
334
  8
Éíû@É³
  2
BALLON0
 10
0.0
 20
0.0
 30
0.0
  0
INSERT
  5
33E
  8
Éíû@É³
  2
BALLON1
 10
0.0
 20
0.0
 30
0.0
  0
INSERT
  5
348
  8
Éíû@É³
  2
BALLON2
 10
0.0
 20
0.0
 30
0.0
  0
ARC
  5
351
  8
┌▓È_1
 62
     5
 10
-506.60555989580001
 20
-148.0433514076
 30
0.0
 40
3.5
 50
270.0
 51
90.0
  0
ARC
  5
352
  8
┌▓È_1
 62
     5
 10
-521.60555989579996
 20
-148.0433514076
 30
0.0
 40
3.5
 50
90.0
 51
270.0
  0
ARC
  5
353
  8
┌▓È_1
 62
     5
 10
-434.60555989580001
 20
-148.0433514076
 30
0.0
 40
3.5
 50
90.0
 51
270.0
  0
ARC
  5
354
  8
┌▓È_1
 62
     5
 10
-419.6055598957999
 20
-148.0433514076
 30
0.0
 40
3.5
 50
270.0
 51
90.0
  0
CIRCLE
  5
355
  8
┌▓È_1
 62
     5
 10
-557.60555989579996
 20
-155.5433514076
 30
0.0
 40
7.5
  0
ARC
  5
356
  8
┌▓È_1
 62
     5
 10
-550.10555989579996
 20
-223.0433514076
 30
0.0
 40
3.5
 50
270.0
 51
90.0
  0
LINE
  5
357
  8
┌▓È_1
 62
     5
 10
-463.10555989580001
 20
-211.5433514076
 30
0.0
 11
-478.1055598957999
 21
-211.5433514076
 31
0.0
  0
ARC
  5
358
  8
┌▓È_1
 62
     5
 10
-565.10555989579996
 20
-193.0433514076
 30
0.0
 40
3.5
 50
90.0
 51
270.0
  0
LINE
  5
359
  8
┌▓È_1
 62
     5
 10
-550.10555989579996
 20
-196.5433514076
 30
0.0
 11
-565.10555989579996
 21
-196.5433514076
 31
0.0
  0
LINE
  5
35A
  8
┌▓È_1
 62
     5
 10
-565.10555989579996
 20
-189.54335140759991
 30
0.0
 11
-550.10555989579996
 21
-189.54335140759991
 31
0.0
  0
LINE
  5
35B
  8
┌▓È_1
 62
     5
 10
-582.60555989579996
 20
-243.04330974090001
 30
0.0
 11
-582.60555989579996
 21
-245.04330974090001
 31
0.0
  0
LINE
  5
35C
  8
┌▓È_1
 62
     5
 10
-582.60555989579996
 20
-243.04330974090001
 30
0.0
 11
-584.60555989580007
 21
-243.04330974090001
 31
0.0
  0
ARC
  5
35D
  8
┌▓È_1
 62
     5
 10
-565.10555989579996
 20
-223.0433514076
 30
0.0
 40
3.5
 50
90.0
 51
270.0
  0
LINE
  5
35E
  8
┌▓È_1
 62
     5
 10
-550.10555989579996
 20
-226.5433514076
 30
0.0
 11
-565.10555989579996
 21
-226.5433514076
 31
0.0
  0
LINE
  5
35F
  8
┌▓È_1
 62
     5
 10
-565.10555989579996
 20
-219.5433514076
 30
0.0
 11
-550.10555989579996
 21
-219.5433514076
 31
0.0
  0
ARC
  5
360
  8
┌▓È_1
 62
     5
 10
-565.10555989579996
 20
-208.0433514076
 30
0.0
 40
3.5
 50
90.0
 51
270.0
  0
LINE
  5
361
  8
┌▓È_1
 62
     5
 10
-550.10555989579996
 20
-211.5433514076
 30
0.0
 11
-565.10555989579996
 21
-211.5433514076
 31
0.0
  0
LINE
  5
362
  8
┌▓È_1
 62
     5
 10
-565.10555989579996
 20
-204.5433514076
 30
0.0
 11
-550.10555989579996
 21
-204.5433514076
 31
0.0
  0
LINE
  5
363
  8
┌▓È_1
 10
-594.50539920690005
 20
-339.88937093890002
 30
0.0
 11
-594.50539920690005
 21
-334.68937093890003
 31
0.0
  0
LINE
  5
364
  8
┌▓È_1
 62
     5
 10
-175.17597656250001
 20
-523.37755469539991
 30
0.0
 11
-190.17597656250001
 21
-523.37755469539991
 31
0.0
  0
LINE
  5
365
  8
┌▓È_1
  6
BORDER
 62
     3
 10
-139.17597656250001
 20
-521.87755469540002
 30
0.0
 11
-139.17597656250001
 21
-546.87755469540002
 31
0.0
  0
LINE
  5
366
  8
┌▓È_1
 62
     5
 10
-131.67597656250001
 20
-493.37755469540002
 30
0.0
 11
-146.67597656250001
 21
-493.37755469540002
 31
0.0
  0
LINE
  5
367
  8
┌▓È_1
 62
     5
 10
-146.67597656250001
 20
-500.37755469540002
 30
0.0
 11
-131.67597656250001
 21
-500.37755469540002
 31
0.0
  0
LINE
  5
368
  8
┌▓È_1
 62
     5
 10
-233.67597656250001
 20
-485.37755469540002
 30
0.0
 11
-218.67597656250001
 21
-485.37755469540002
 31
0.0
  0
LINE
  5
369
  8
┌▓È_1
 62
     5
 10
-146.67597656250001
 20
-485.37755469540002
 30
0.0
 11
-131.67597656250001
 21
-485.37755469540002
 31
0.0
  0
LINE
  5
36A
  8
┌▓È_1
 62
     5
 10
-218.67597656250001
 20
-463.37755469540002
 30
0.0
 11
-233.67597656250001
 21
-463.37755469540002
 31
0.0
  0
LINE
  5
36B
  8
┌▓È_1
 62
     5
 10
-114.1759765625
 20
-446.87751302879991
 30
0.0
 11
-112.1759765625
 21
-446.87751302879991
 31
0.0
  0
LINE
  5
36C
  8
┌▓È_1
 62
     5
 10
-131.67597656250001
 20
-463.37755469540002
 30
0.0
 11
-146.67597656250001
 21
-463.37755469540002
 31
0.0
  0
LINE
  5
36D
  8
┌▓È_1
 62
     5
 10
-114.1759765625
 20
-446.87751302879991
 30
0.0
 11
-114.1759765625
 21
-444.87751302879991
 31
0.0
  0
ARC
  5
36E
  8
┌▓È_1
 62
     5
 10
-233.67597656250001
 20
-466.87755469540002
 30
0.0
 40
3.5
 50
90.0
 51
270.0
  0
ARC
  5
36F
  8
┌▓È_1
 62
     5
 10
-218.67597656250001
 20
-466.87755469540002
 30
0.0
 40
3.5
 50
270.0
 51
90.0
  0
ARC
  5
370
  8
┌▓È_1
 62
     5
 10
-146.67597656250001
 20
-466.87755469540002
 30
0.0
 40
3.5
 50
90.0
 51
270.0
  0
LINE
  5
371
  8
┌▓È_1
 62
     5
 10
-146.67597656250001
 20
-470.37755469540002
 30
0.0
 11
-131.67597656250001
 21
-470.37755469540002
 31
0.0
  0
LINE
  5
372
  8
┌▓È_1
 62
     5
 10
-233.67597656250001
 20
-470.37755469540002
 30
0.0
 11
-218.67597656250001
 21
-470.37755469540002
 31
0.0
  0
ARC
  5
373
  8
┌▓È_1
 62
     5
 10
-131.67597656250001
 20
-466.87755469540002
 30
0.0
 40
3.5
 50
270.0
 51
90.0
  0
ARC
  5
374
  8
┌▓È_1
 62
     5
 10
-131.67597656250001
 20
-496.87755469540002
 30
0.0
 40
3.5
 50
270.0
 51
90.0
  0
ARC
  5
375
  8
┌▓È_1
 62
     5
 10
-233.67597656250001
 20
-496.87755469540002
 30
0.0
 40
3.5
 50
90.0
 51
270.0
  0
LINE
  5
376
  8
┌▓È_1
 62
     5
 10
-218.67597656250001
 20
-493.37755469540002
 30
0.0
 11
-233.67597656250001
 21
-493.37755469540002
 31
0.0
  0
LINE
  5
377
  8
┌▓È_1
 62
     5
 10
-233.67597656250001
 20
-500.37755469540002
 30
0.0
 11
-218.67597656250001
 21
-500.37755469540002
 31
0.0
  0
ARC
  5
378
  8
┌▓È_1
 62
     5
 10
-218.67597656250001
 20
-496.87755469540002
 30
0.0
 40
3.5
 50
270.0
 51
90.0
  0
ARC
  5
379
  8
┌▓È_1
 62
     5
 10
-146.67597656250001
 20
-496.87755469540002
 30
0.0
 40
3.5
 50
90.0
 51
270.0
  0
ARC
  5
37A
  8
┌▓È_1
 62
     5
 10
-146.67597656250001
 20
-481.87755469539991
 30
0.0
 40
3.5
 50
90.0
 51
270.0
  0
LINE
  5
37B
  8
┌▓È_1
 62
     5
 10
-131.67597656250001
 20
-478.37755469540002
 30
0.0
 11
-146.67597656250001
 21
-478.37755469540002
 31
0.0
  0
ARC
  5
37C
  8
┌▓È_1
 62
     5
 10
-218.67597656250001
 20
-481.87755469539991
 30
0.0
 40
3.5
 50
270.0
 51
90.0
  0
ARC
  5
37D
  8
┌▓È_1
 62
     5
 10
-305.67597656250001
 20
-481.87755469539991
 30
0.0
 40
3.5
 50
270.0
 51
90.0
  0
ARC
  5
37E
  8
┌▓È_1
 62
     5
 10
-305.67597656250001
 20
-496.87755469540002
 30
0.0
 40
3.5
 50
270.0
 51
90.0
  0
LINE
  5
37F
  8
┌▓È_1
 62
     5
 10
-305.67597656250001
 20
-493.37755469540002
 30
0.0
 11
-320.67597656250001
 21
-493.37755469540002
 31
0.0
  0
LINE
  5
380
  8
┌▓È_1
 62
     5
 10
-320.67597656250001
 20
-500.37755469540002
 30
0.0
 11
-305.67597656250001
 21
-500.37755469540002
 31
0.0
  0
LINE
  5
381
  8
┌▓È_1
 62
     5
 10
-320.67597656250001
 20
-485.37755469540002
 30
0.0
 11
-305.67597656250001
 21
-485.37755469540002
 31
0.0
  0
LINE
  5
382
  8
┌▓È_1
 62
     5
 10
-305.67597656250001
 20
-463.37755469540002
 30
0.0
 11
-320.67597656250001
 21
-463.37755469540002
 31
0.0
  0
ARC
  5
383
  8
┌▓È_1
 62
     5
 10
-320.67597656250001
 20
-496.87755469540002
 30
0.0
 40
3.5
 50
90.0
 51
270.0
  0
ARC
  5
384
  8
┌▓È_1
 62
     5
 10
-320.67597656250001
 20
-481.87755469539991
 30
0.0
 40
3.5
 50
90.0
 51
270.0
  0
ARC
  5
385
  8
┌▓È_1
 62
     5
 10
-320.67597656250001
 20
-466.87755469540002
 30
0.0
 40
3.5
 50
90.0
 51
270.0
  0
ARC
  5
386
  8
┌▓È_1
 62
     5
 10
-190.17597656250001
 20
-526.87755469540002
 30
0.0
 40
3.5
 50
90.0
 51
270.0
  0
ARC
  5
387
  8
┌▓È_1
 62
     5
 10
-277.17597656250001
 20
-526.87755469540002
 30
0.0
 40
3.5
 50
90.0
 51
270.0
  0
ARC
  5
388
  8
┌▓È_1
 62
     5
 10
-277.17597656250001
 20
-541.87755469540002
 30
0.0
 40
3.5
 50
90.0
 51
270.0
  0
LINE
  5
389
  8
┌▓È_1
 62
     5
 10
-277.17597656250001
 20
-530.37755469540002
 30
0.0
 11
-262.17597656250001
 21
-530.37755469540002
 31
0.0
  0
LINE
  5
38A
  8
┌▓È_1
 62
     5
 10
-262.17597656250001
 20
-538.37755469540002
 30
0.0
 11
-277.17597656250001
 21
-538.37755469540002
 31
0.0
  0
LINE
  5
38B
  8
┌▓È_1
 62
     5
 10
-277.17597656250001
 20
-545.37755469540002
 30
0.0
 11
-262.17597656250001
 21
-545.37755469540002
 31
0.0
  0
LINE
  5
38C
  8
┌▓È_1
 62
     5
 10
-262.17597656250001
 20
-523.37755469539991
 30
0.0
 11
-277.17597656250001
 21
-523.37755469539991
 31
0.0
  0
CIRCLE
  5
38D
  8
┌▓È_1
 62
     5
 10
-139.17597656250001
 20
-534.37755469540002
 30
0.0
 40
7.5
  0
LINE
  5
38E
  8
┌▓È_1
 62
     5
 10
-190.17597656250001
 20
-530.37755469540002
 30
0.0
 11
-175.17597656250001
 21
-530.37755469540002
 31
0.0
  0
ARC
  5
38F
  8
┌▓È_1
 62
     5
 10
-175.17597656250001
 20
-526.87755469540002
 30
0.0
 40
3.5
 50
270.0
 51
90.0
  0
ARC
  5
390
  8
┌▓È_1
 62
     5
 10
-262.17597656250001
 20
-541.87755469540002
 30
0.0
 40
3.5
 50
270.0
 51
90.0
  0
ARC
  5
391
  8
┌▓È_1
 62
     5
 10
-190.17597656250001
 20
-541.87755469540002
 30
0.0
 40
3.5
 50
90.0
 51
270.0
  0
LINE
  5
392
  8
┌▓È_1
 62
     5
 10
-175.17597656250001
 20
-538.37755469540002
 30
0.0
 11
-190.17597656250001
 21
-538.37755469540002
 31
0.0
  0
ARC
  5
393
  8
┌▓È_1
 62
     5
 10
-262.17597656250001
 20
-526.87755469540002
 30
0.0
 40
3.5
 50
270.0
 51
90.0
  0
LINE
  5
394
  8
┌▓È_1
 62
     5
 10
-190.17597656250001
 20
-545.37755469540002
 30
0.0
 11
-175.17597656250001
 21
-545.37755469540002
 31
0.0
  0
ARC
  5
395
  8
┌▓È_1
 62
     5
 10
-175.17597656250001
 20
-541.87755469540002
 30
0.0
 40
3.5
 50
270.0
 51
90.0
  0
LINE
  5
396
  8
┌▓È_1
 62
     5
 10
-146.67597656250001
 20
-598.37755469539991
 30
0.0
 11
-131.67597656250001
 21
-598.37755469539991
 31
0.0
  0
LINE
  5
397
  8
┌▓È_1
 62
     5
 10
-114.1759765625
 20
-621.87751302879985
 30
0.0
 11
-114.1759765625
 21
-623.87751302879985
 31
0.0
  0
LINE
  5
398
  8
┌▓È_1
 62
     5
 10
-146.67597656250001
 20
-583.37755469540002
 30
0.0
 11
-131.67597656250001
 21
-583.37755469540002
 31
0.0
  0
ARC
  5
399
  8
┌▓È_1
 62
     5
 10
-305.67597656250001
 20
-571.87755469540002
 30
0.0
 40
3.5
 50
270.0
 51
90.0
  0
LINE
  5
39A
  8
┌▓È_1
 62
     5
 10
-320.67597656250001
 20
-568.37755469540002
 30
0.0
 11
-305.67597656250001
 21
-568.37755469540002
 31
0.0
  0
ARC
  5
39B
  8
┌▓È_1
 62
     5
 10
-320.67597656250001
 20
-571.87755469540002
 30
0.0
 40
3.5
 50
90.0
 51
270.0
  0
LINE
  5
39C
  8
┌▓È_1
 62
     5
 10
-146.67597656250001
 20
-568.37755469540002
 30
0.0
 11
-131.67597656250001
 21
-568.37755469540002
 31
0.0
  0
ARC
  5
39D
  8
┌▓È_1
 62
     5
 10
-131.67597656250001
 20
-571.87755469540002
 30
0.0
 40
3.5
 50
270.0
 51
90.0
  0
ARC
  5
39E
  8
┌▓È_1
 62
     5
 10
-146.67597656250001
 20
-571.87755469540002
 30
0.0
 40
3.5
 50
90.0
 51
270.0
  0
ARC
  5
39F
  8
┌▓È_1
 62
     5
 10
-233.67597656250001
 20
-571.87755469540002
 30
0.0
 40
3.5
 50
90.0
 51
270.0
  0
LINE
  5
3A0
  8
┌▓È_1
 62
     5
 10
-233.67597656250001
 20
-568.37755469540002
 30
0.0
 11
-218.67597656250001
 21
-568.37755469540002
 31
0.0
  0
ARC
  5
3A1
  8
┌▓È_1
 62
     5
 10
-218.67597656250001
 20
-571.87755469540002
 30
0.0
 40
3.5
 50
270.0
 51
90.0
  0
LINE
  5
3A2
  8
┌▓È_1
 62
     5
 10
-305.67597656250001
 20
-575.37755469540002
 30
0.0
 11
-320.67597656250001
 21
-575.37755469540002
 31
0.0
  0
LINE
  5
3A3
  8
┌▓È_1
 62
     5
 10
-131.67597656250001
 20
-575.37755469540002
 30
0.0
 11
-146.67597656250001
 21
-575.37755469540002
 31
0.0
  0
LINE
  5
3A4
  8
┌▓È_1
 62
     5
 10
-218.67597656250001
 20
-575.37755469540002
 30
0.0
 11
-233.67597656250001
 21
-575.37755469540002
 31
0.0
  0
DIMENSION
  5
3B3
  8
Éíû@É³
 62
     5
  2
*D24
 10
-84.175976562499997
 20
-541.87755469540002
 30
0.0
 11
-84.175976562499997
 21
-534.37755469540002
 31
0.0
 70
   128
  1
<>
 13
-171.67597656250001
 23
-541.87755469540002
 33
0.0
 14
-171.67597656250001
 24
-526.87755469540002
 34
0.0
 50
90.0
  0
DIMENSION
  5
3C2
  8
Éíû@É³
 62
     5
  2
*D25
 10
-84.175976562499997
 20
-526.87755469540002
 30
0.0
 11
-84.175976562499997
 21
-511.87755469540002
 31
0.0
 70
   128
  1
<>
 13
-171.67597656250001
 23
-526.87755469540002
 33
0.0
 14
-128.17597656250001
 24
-496.87755469540002
 34
0.0
 50
90.0
  0
DIMENSION
  5
3D1
  8
Éíû@É³
 62
     5
  2
*D26
 10
-84.175976562499997
 20
-466.87755469540002
 30
0.0
 11
-84.175976562499997
 21
-455.87753386209999
 31
0.0
 70
   128
  1
<>
 13
-128.17597656250001
 23
-466.87755469540002
 33
0.0
 14
-114.1759765625
 24
-444.87751302879991
 34
0.0
 50
90.0
  0
DIMENSION
  5
3E0
  8
Éíû@É³
 62
     5
  2
*D27
 10
-84.175976562499997
 20
-481.87755469539991
 30
0.0
 11
-84.175976562499997
 21
-474.37755469540002
 31
0.0
 70
   128
  1
<>
 13
-128.17597656250001
 23
-481.87755469539991
 33
0.0
 14
-128.17597656250001
 24
-466.87755469540002
 34
0.0
 50
90.0
  0
DIMENSION
  5
3EF
  8
Éíû@É³
 62
     5
  2
*D28
 10
-84.175976562499997
 20
-496.87755469540002
 30
0.0
 11
-84.175976562499997
 21
-489.37755469540002
 31
0.0
 70
   128
  1
<>
 13
-128.17597656250001
 23
-496.87755469540002
 33
0.0
 14
-128.17597656250001
 24
-481.87755469539991
 34
0.0
 50
90.0
  0
ARC
  5
3F0
  8
┌▓È_1
 62
     5
 10
-349.17597656250001
 20
-541.87755469540002
 30
0.0
 40
3.5
 50
270.0
 51
90.0
  0
ARC
  5
3F1
  8
┌▓È_1
 62
     5
 10
-349.17597656250001
 20
-526.87755469540002
 30
0.0
 40
3.5
 50
270.0
 51
90.0
  0
LINE
  5
3F2
  8
┌▓È_1
 62
     5
 10
-305.67597656250001
 20
-478.37755469540002
 30
0.0
 11
-320.67597656250001
 21
-478.37755469540002
 31
0.0
  0
LINE
  5
3F3
  8
┌▓È_1
 62
     5
 10
-320.67597656250001
 20
-470.37755469540002
 30
0.0
 11
-305.67597656250001
 21
-470.37755469540002
 31
0.0
  0
ARC
  5
3F4
  8
┌▓È_1
 62
     5
 10
-305.67597656250001
 20
-466.87755469540002
 30
0.0
 40
3.5
 50
270.0
 51
90.0
  0
ARC
  5
3F5
  8
┌▓È_1
 62
     5
 10
-305.67597656250001
 20
-601.87755469540002
 30
0.0
 40
3.5
 50
270.0
 51
90.0
  0
LINE
  5
3F6
  8
┌▓È_1
 62
     5
 10
-320.67597656250001
 20
-583.37755469540002
 30
0.0
 11
-305.67597656250001
 21
-583.37755469540002
 31
0.0
  0
LINE
  5
3F7
  8
┌▓È_1
 62
     5
 10
-305.67597656250001
 20
-590.37755469540002
 30
0.0
 11
-320.67597656250001
 21
-590.37755469540002
 31
0.0
  0
LINE
  5
3F8
  8
┌▓È_1
 62
     5
 10
-305.67597656250001
 20
-605.37755469540002
 30
0.0
 11
-320.67597656250001
 21
-605.37755469540002
 31
0.0
  0
ARC
  5
3F9
  8
┌▓È_1
 62
     5
 10
-320.67597656250001
 20
-601.87755469540002
 30
0.0
 40
3.5
 50
90.0
 51
270.0
  0
ARC
  5
3FA
  8
┌▓È_1
 62
     5
 10
-320.67597656250001
 20
-586.87755469540002
 30
0.0
 40
3.5
 50
90.0
 51
270.0
  0
LINE
  5
3FB
  8
┌▓È_1
 62
     5
 10
-112.1759765625
 20
-696.52096354169987
 30
0.0
 11
-112.1759765625
 21
-708.52096354169987
 31
0.0
  0
LINE
  5
3FC
  8
┌▓È_1
 62
     5
 10
-114.1759765625
 20
-696.52096354169987
 30
0.0
 11
-114.1759765625
 21
-708.52096354169987
 31
0.0
  0
LINE
  5
3FD
  8
┌▓È_1
 62
     5
 10
-112.1759765625
 20
-708.52096354169987
 30
0.0
 11
-114.1759765625
 21
-708.52096354169987
 31
0.0
  0
ARC
  5
3FE
  8
┌▓È_1
 62
     5
 10
-114.1759765625
 20
-696.52096354169987
 30
0.0
 40
2.0
 50
0.0
 51
90.000038655400004
  0
LINE
  5
3FF
  8
┌▓È_1
 62
     5
 10
-131.67597656250001
 20
-590.37755469540002
 30
0.0
 11
-146.67597656250001
 21
-590.37755469540002
 31
0.0
  0
ARC
  5
400
  8
┌▓È_1
 62
     5
 10
-131.67597656250001
 20
-586.87755469540002
 30
0.0
 40
3.5
 50
270.0
 51
90.0
  0
ARC
  5
401
  8
┌▓È_1
 62
     5
 10
-233.67597656250001
 20
-586.87755469540002
 30
0.0
 40
3.5
 50
90.0
 51
270.0
  0
LINE
  5
402
  8
┌▓È_1
 62
     5
 10
-218.67597656250001
 20
-590.37755469540002
 30
0.0
 11
-233.67597656250001
 21
-590.37755469540002
 31
0.0
  0
LINE
  5
403
  8
┌▓È_1
 62
     5
 10
-233.67597656250001
 20
-583.37755469540002
 30
0.0
 11
-218.67597656250001
 21
-583.37755469540002
 31
0.0
  0
ARC
  5
404
  8
┌▓È_1
 62
     5
 10
-218.67597656250001
 20
-586.87755469540002
 30
0.0
 40
3.5
 50
270.0
 51
90.0
  0
ARC
  5
405
  8
┌▓È_1
 62
     5
 10
-146.67597656250001
 20
-586.87755469540002
 30
0.0
 40
3.5
 50
90.0
 51
270.0
  0
LINE
  5
406
  8
┌▓È_1
 62
     5
 10
-114.1759765625
 20
-621.87751302879985
 30
0.0
 11
-112.1759765625
 21
-621.87751302879985
 31
0.0
  0
ARC
  5
407
  8
┌▓È_1
 62
     5
 10
-131.67597656250001
 20
-601.87755469540002
 30
0.0
 40
3.5
 50
270.0
 51
90.0
  0
ARC
  5
408
  8
┌▓È_1
 62
     5
 10
-146.67597656250001
 20
-601.87755469540002
 30
0.0
 40
3.5
 50
90.0
 51
270.0
  0
ARC
  5
409
  8
┌▓È_1
 62
     5
 10
-233.67597656250001
 20
-601.87755469540002
 30
0.0
 40
3.5
 50
90.0
 51
270.0
  0
LINE
  5
40A
  8
┌▓È_1
 62
     5
 10
-218.67597656250001
 20
-605.37755469540002
 30
0.0
 11
-233.67597656250001
 21
-605.37755469540002
 31
0.0
  0
LINE
  5
40B
  8
┌▓È_1
 62
     5
 10
-233.67597656250001
 20
-598.37755469539991
 30
0.0
 11
-218.67597656250001
 21
-598.37755469539991
 31
0.0
  0
ARC
  5
40C
  8
┌▓È_1
 62
     5
 10
-218.67597656250001
 20
-601.87755469540002
 30
0.0
 40
3.5
 50
270.0
 51
90.0
  0
LINE
  5
40D
  8
┌▓È_1
 62
     5
 10
-131.67597656250001
 20
-605.37755469540002
 30
0.0
 11
-146.67597656250001
 21
-605.37755469540002
 31
0.0
  0
ARC
  5
40E
  8
┌▓È_1
 62
     5
 10
-392.67597656250001
 20
-466.87755469540002
 30
0.0
 40
3.5
 50
270.0
 51
90.0
  0
ARC
  5
40F
  8
┌▓È_1
 62
     5
 10
-407.6759765624999
 20
-496.87755469540002
 30
0.0
 40
3.5
 50
90.0
 51
270.0
  0
ARC
  5
410
  8
┌▓È_1
 62
     5
 10
-581.67597656249995
 20
-496.87755469540002
 30
0.0
 40
3.5
 50
90.0
 51
270.0
  0
LINE
  5
411
  8
┌▓È_1
 62
     5
 10
-566.67597656249995
 20
-493.37755469540002
 30
0.0
 11
-581.67597656249995
 21
-493.37755469540002
 31
0.0
  0
LINE
  5
412
  8
┌▓È_1
 62
     5
 10
-407.6759765624999
 20
-500.37755469540002
 30
0.0
 11
-392.67597656250001
 21
-500.37755469540002
 31
0.0
  0
ARC
  5
413
  8
┌▓È_1
 62
     5
 10
-407.6759765624999
 20
-466.87755469540002
 30
0.0
 40
3.5
 50
90.0
 51
270.0
  0
ARC
  5
414
  8
┌▓È_1
 62
     5
 10
-494.6759765624999
 20
-466.87755469540002
 30
0.0
 40
3.5
 50
90.0
 51
270.0
  0
ARC
  5
415
  8
┌▓È_1
 62
     5
 10
-479.67597656250001
 20
-466.87755469540002
 30
0.0
 40
3.5
 50
270.0
 51
90.0
  0
ARC
  5
416
  8
┌▓È_1
 62
     5
 10
-566.67597656249995
 20
-466.87755469540002
 30
0.0
 40
3.5
 50
270.0
 51
90.0
  0
ARC
  5
417
  8
┌▓È_1
 62
     5
 10
-407.6759765624999
 20
-481.87755469539991
 30
0.0
 40
3.5
 50
90.0
 51
270.0
  0
ARC
  5
418
  8
┌▓È_1
 62
     5
 10
-494.6759765624999
 20
-481.87755469539991
 30
0.0
 40
3.5
 50
90.0
 51
270.0
  0
LINE
  5
419
  8
┌▓È_1
 62
     5
 10
-479.67597656250001
 20
-478.37755469540002
 30
0.0
 11
-494.6759765624999
 21
-478.37755469540002
 31
0.0
  0
ARC
  5
41A
  8
┌▓È_1
 62
     5
 10
-479.67597656250001
 20
-481.87755469539991
 30
0.0
 40
3.5
 50
270.0
 51
90.0
  0
ARC
  5
41B
  8
┌▓È_1
 62
     5
 10
-392.67597656250001
 20
-481.87755469539991
 30
0.0
 40
3.5
 50
270.0
 51
90.0
  0
ARC
  5
41C
  8
┌▓È_1
 62
     5
 10
-581.67597656249995
 20
-481.87755469539991
 30
0.0
 40
3.5
 50
90.0
 51
270.0
  0
LINE
  5
41D
  8
┌▓È_1
 62
     5
 10
-566.67597656249995
 20
-478.37755469540002
 30
0.0
 11
-581.67597656249995
 21
-478.37755469540002
 31
0.0
  0
LINE
  5
41E
  8
┌▓È_1
 62
     5
 10
-581.67597656249995
 20
-485.37755469540002
 30
0.0
 11
-566.67597656249995
 21
-485.37755469540002
 31
0.0
  0
LINE
  5
41F
  8
┌▓È_1
  6
BORDER
 62
     3
 10
-356.67597656250001
 20
-688.52096354169987
 30
0.0
 11
-356.67597656250001
 21
-713.52096354169987
 31
0.0
  0
DIMENSION
  5
42E
  8
Éíû@É³
 62
     5
  2
*D29
 10
-139.17597656250001
 20
-651.87751302879985
 30
0.0
 11
-125.6759765625
 21
-651.87751302879985
 31
0.0
 70
   128
  1
<>
 13
-139.17597656250001
 23
-605.37755469540002
 33
0.0
 14
-112.1759765625
 24
-621.87751302879985
 34
0.0
 50
180.0
  0
DIMENSION
  5
43D
  8
Éíû@É³
 62
     5
  2
*D30
 10
-84.175976562499997
 20
-623.87751302879985
 30
0.0
 11
-84.175976562499997
 21
-612.87753386209988
 31
0.0
 70
   128
  1
<>
 13
-114.1759765625
 23
-623.87751302879985
 33
0.0
 14
-128.17597656250001
 24
-601.87755469540002
 34
0.0
 50
90.0
  0
DIMENSION
  5
44C
  8
Éíû@É³
 62
     5
  2
*D31
 10
-84.175976562499997
 20
-601.87755469540002
 30
0.0
 11
-84.175976562499997
 21
-594.37755469539991
 31
0.0
 70
   128
  1
<>
 13
-128.17597656250001
 23
-601.87755469540002
 33
0.0
 14
-128.17597656250001
 24
-586.87755469540002
 34
0.0
 50
90.0
  0
DIMENSION
  5
45B
  8
Éíû@É³
 62
     5
  2
*D32
 10
-313.17597656250001
 20
-651.87751273380002
 30
0.0
 11
-269.67597656250001
 21
-651.87751273380002
 31
0.0
 70
   128
  1
<>
 13
-313.17597656250001
 23
-605.37755469540002
 33
0.0
 14
-226.17597656250001
 24
-605.37755469540002
 34
0.0
 50
180.0
  0
DIMENSION
  5
46A
  8
Éíû@É³
 62
     5
  2
*D33
 10
-226.17597656250001
 20
-651.87751273380002
 30
0.0
 11
-182.67597656250001
 21
-651.87751273380002
 31
0.0
 70
   128
  1
<>
 13
-226.17597656250001
 23
-605.37755469540002
 33
0.0
 14
-139.17597656250001
 24
-605.37755469540002
 34
0.0
 50
180.0
  0
LINE
  5
46B
  8
┌▓È_1
 62
     5
 10
-320.67597656250001
 20
-598.37755469539991
 30
0.0
 11
-305.67597656250001
 21
-598.37755469539991
 31
0.0
  0
ARC
  5
46C
  8
┌▓È_1
 62
     5
 10
-305.67597656250001
 20
-586.87755469540002
 30
0.0
 40
3.5
 50
270.0
 51
90.0
  0
ARC
  5
46D
  8
┌▓È_1
 62
     5
 10
-451.17597656250001
 20
-541.87755469540002
 30
0.0
 40
3.5
 50
90.0
 51
270.0
  0
CIRCLE
  5
46E
  8
┌▓È_1
 62
     5
 10
-574.17597656249995
 20
-534.37755469540002
 30
0.0
 40
7.5
  0
ARC
  5
46F
  8
┌▓È_1
 62
     5
 10
-538.17597656249995
 20
-541.87755469540002
 30
0.0
 40
3.5
 50
90.0
 51
270.0
  0
LINE
  5
470
  8
┌▓È_1
 62
     5
 10
-523.17597656249995
 20
-538.37755469540002
 30
0.0
 11
-538.17597656249995
 21
-538.37755469540002
 31
0.0
  0
ARC
  5
471
  8
┌▓È_1
 62
     5
 10
-392.67597656250001
 20
-496.87755469540002
 30
0.0
 40
3.5
 50
270.0
 51
90.0
  0
LINE
  5
472
  8
┌▓È_1
 62
     5
 10
-392.67597656250001
 20
-493.37755469540002
 30
0.0
 11
-407.6759765624999
 21
-493.37755469540002
 31
0.0
  0
ARC
  5
473
  8
┌▓È_1
 62
     5
 10
-494.6759765624999
 20
-496.87755469540002
 30
0.0
 40
3.5
 50
90.0
 51
270.0
  0
LINE
  5
474
  8
┌▓È_1
 62
     5
 10
-479.67597656250001
 20
-493.37755469540002
 30
0.0
 11
-494.6759765624999
 21
-493.37755469540002
 31
0.0
  0
LINE
  5
475
  8
┌▓È_1
 62
     5
 10
-494.6759765624999
 20
-500.37755469540002
 30
0.0
 11
-479.67597656250001
 21
-500.37755469540002
 31
0.0
  0
ARC
  5
476
  8
┌▓È_1
 62
     5
 10
-479.67597656250001
 20
-496.87755469540002
 30
0.0
 40
3.5
 50
270.0
 51
90.0
  0
LINE
  5
477
  8
┌▓È_1
 62
     5
 10
-392.67597656250001
 20
-478.37755469540002
 30
0.0
 11
-407.6759765624999
 21
-478.37755469540002
 31
0.0
  0
ARC
  5
478
  8
┌▓È_1
 62
     5
 10
-566.67597656249995
 20
-481.87755469539991
 30
0.0
 40
3.5
 50
270.0
 51
90.0
  0
ARC
  5
479
  8
┌▓È_1
 62
     5
 10
-566.67597656249995
 20
-496.87755469540002
 30
0.0
 40
3.5
 50
270.0
 51
90.0
  0
LINE
  5
47A
  8
┌▓È_1
 62
     5
 10
-581.67597656249995
 20
-500.37755469540002
 30
0.0
 11
-566.67597656249995
 21
-500.37755469540002
 31
0.0
  0
LINE
  5
47B
  8
┌▓È_1
 10
-465.25832402110001
 20
-436.665884963
 30
0.0
 11
-411.88163890729999
 21
-436.665884963
 31
0.0
  0
LINE
  5
47C
  8
┌▓È_1
 10
-487.1759765624999
 20
-463.37755469540002
 30
0.0
 11
-465.25832402110001
 21
-436.665884963
 31
0.0
  0
SOLID
  5
47D
  8
┌▓È_1
 10
-487.1759765624999
 20
-463.37755469540002
 30
0.0
 11
-485.04007480749988
 21
-458.66238312529998
 31
0.0
 12
-484.85419224489988
 22
-460.54792977260001
 32
0.0
 13
-484.85419224489988
 23
-460.54792977260001
 33
0.0
  0
SOLID
  5
47E
  8
┌▓È_1
 10
-487.1759765624999
 20
-463.37755469540002
 30
0.0
 11
-482.96864559760002
 21
-460.36204721000001
 31
0.0
 12
-484.85419224489988
 22
-460.54792977260001
 32
0.0
 13
-484.85419224489988
 23
-460.54792977260001
 33
0.0
  0
LINE
  5
47F
  8
┌▓È_1
 62
     5
 10
-392.67597656250001
 20
-463.37755469540002
 30
0.0
 11
-407.6759765624999
 21
-463.37755469540002
 31
0.0
  0
LINE
  5
480
  8
┌▓È_1
 62
     5
 10
-479.67597656250001
 20
-463.37755469540002
 30
0.0
 11
-494.6759765624999
 21
-463.37755469540002
 31
0.0
  0
LINE
  5
481
  8
┌▓È_1
 62
     5
 10
-407.6759765624999
 20
-470.37755469540002
 30
0.0
 11
-392.67597656250001
 21
-470.37755469540002
 31
0.0
  0
LINE
  5
482
  8
┌▓È_1
 62
     5
 10
-494.6759765624999
 20
-470.37755469540002
 30
0.0
 11
-479.67597656250001
 21
-470.37755469540002
 31
0.0
  0
LINE
  5
483
  8
┌▓È_1
 62
     5
 10
-566.67597656249995
 20
-463.37755469540002
 30
0.0
 11
-581.67597656249995
 21
-463.37755469540002
 31
0.0
  0
ARC
  5
484
  8
┌▓È_1
 62
     5
 10
-581.67597656249995
 20
-466.87755469540002
 30
0.0
 40
3.5
 50
90.0
 51
270.0
  0
LINE
  5
485
  8
┌▓È_1
 62
     5
 10
-581.67597656249995
 20
-470.37755469540002
 30
0.0
 11
-566.67597656249995
 21
-470.37755469540002
 31
0.0
  0
LINE
  5
486
  8
┌▓È_1
 62
     5
 10
-494.6759765624999
 20
-485.37755469540002
 30
0.0
 11
-479.67597656250001
 21
-485.37755469540002
 31
0.0
  0
LINE
  5
487
  8
┌▓È_1
 62
     5
 10
-407.6759765624999
 20
-485.37755469540002
 30
0.0
 11
-392.67597656250001
 21
-485.37755469540002
 31
0.0
  0
ARC
  5
488
  8
┌▓È_1
 62
     5
 10
-407.6759765624999
 20
-571.87755469540002
 30
0.0
 40
3.5
 50
90.0
 51
270.0
  0
ARC
  5
489
  8
┌▓È_1
 62
     5
 10
-581.67597656249995
 20
-571.87755469540002
 30
0.0
 40
3.5
 50
90.0
 51
270.0
  0
LINE
  5
48A
  8
┌▓È_1
 62
     5
 10
-479.67597656250001
 20
-575.37755469540002
 30
0.0
 11
-494.6759765624999
 21
-575.37755469540002
 31
0.0
  0
LINE
  5
48B
  8
┌▓È_1
 62
     5
 10
-566.67597656249995
 20
-575.37755469540002
 30
0.0
 11
-581.67597656249995
 21
-575.37755469540002
 31
0.0
  0
LINE
  5
48C
  8
┌▓È_1
 62
     5
 10
-392.67597656250001
 20
-575.37755469540002
 30
0.0
 11
-407.6759765624999
 21
-575.37755469540002
 31
0.0
  0
ARC
  5
48D
  8
┌▓È_1
 10
-586.30539920690001
 20
-363.0893709389
 30
0.0
 40
0.8
 50
270.0
 51
0.0
  0
LINE
  5
48E
  8
┌▓È_1
 10
-577.50543229169989
 20
-363.0893709389
 30
0.0
 11
-593.70539920689987
 21
-363.0893709389
 31
0.0
  0
ARC
  5
48F
  8
┌▓È_1
 10
-593.70539920689987
 20
-363.0893709389
 30
0.0
 40
0.8
 50
180.0
 51
270.0
  0
INSERT
  5
490
  8
0
  6
CONTINUOUS
  2
*U82
 10
0.0
 20
0.0
 30
0.0
  0
LINE
  5
491
  8
┌▓È_1
 62
     5
 10
-599.17597656249995
 20
-446.87751302879991
 30
0.0
 11
-601.17597656249995
 21
-446.87751302879991
 31
0.0
  0
LINE
  5
492
  8
┌▓È_1
 62
     5
 10
-599.17597656249995
 20
-446.87751302879991
 30
0.0
 11
-599.17597656249995
 21
-444.87751302879991
 31
0.0
  0
LINE
  5
493
  8
┌▓È_1
 62
     5
 10
-538.17597656249995
 20
-545.37755469540002
 30
0.0
 11
-523.17597656249995
 21
-545.37755469540002
 31
0.0
  0
ARC
  5
494
  8
┌▓È_1
 62
     5
 10
-523.17597656249995
 20
-541.87755469540002
 30
0.0
 40
3.5
 50
270.0
 51
90.0
  0
LINE
  5
495
  8
┌▓È_1
 62
     5
 10
-538.17597656249995
 20
-530.37755469540002
 30
0.0
 11
-523.17597656249995
 21
-530.37755469540002
 31
0.0
  0
ARC
  5
496
  8
┌▓È_1
 62
     5
 10
-523.17597656249995
 20
-526.87755469540002
 30
0.0
 40
3.5
 50
270.0
 51
90.0
  0
ARC
  5
497
  8
┌▓È_1
 62
     5
 10
-538.17597656249995
 20
-526.87755469540002
 30
0.0
 40
3.5
 50
90.0
 51
270.0
  0
LINE
  5
498
  8
┌▓È_1
 62
     5
 10
-523.17597656249995
 20
-523.37755469539991
 30
0.0
 11
-538.17597656249995
 21
-523.37755469539991
 31
0.0
  0
LINE
  5
499
  8
┌▓È_1
  6
BORDER
 62
     3
 10
-574.17597656249995
 20
-521.87755469540002
 30
0.0
 11
-574.17597656249995
 21
-546.87755469540002
 31
0.0
  0
LINE
  5
49A
  8
┌▓È_1
 62
     5
 10
-436.17597656250001
 20
-538.37755469540002
 30
0.0
 11
-451.17597656250001
 21
-538.37755469540002
 31
0.0
  0
LINE
  5
49B
  8
┌▓È_1
 62
     5
 10
-451.17597656250001
 20
-545.37755469540002
 30
0.0
 11
-436.17597656250001
 21
-545.37755469540002
 31
0.0
  0
ARC
  5
49C
  8
┌▓È_1
 62
     5
 10
-436.17597656250001
 20
-541.87755469540002
 30
0.0
 40
3.5
 50
270.0
 51
90.0
  0
ARC
  5
49D
  8
┌▓È_1
 62
     5
 10
-451.17597656250001
 20
-526.87755469540002
 30
0.0
 40
3.5
 50
90.0
 51
270.0
  0
LINE
  5
49E
  8
┌▓È_1
 62
     5
 10
-436.17597656250001
 20
-523.37755469539991
 30
0.0
 11
-451.17597656250001
 21
-523.37755469539991
 31
0.0
  0
LINE
  5
49F
  8
┌▓È_1
 62
     5
 10
-451.17597656250001
 20
-530.37755469540002
 30
0.0
 11
-436.17597656250001
 21
-530.37755469540002
 31
0.0
  0
ARC
  5
4A0
  8
┌▓È_1
 62
     5
 10
-436.17597656250001
 20
-526.87755469540002
 30
0.0
 40
3.5
 50
270.0
 51
90.0
  0
LINE
  5
4A1
  8
┌▓È_1
 62
     5
 10
-494.6759765624999
 20
-583.37755469540002
 30
0.0
 11
-479.67597656250001
 21
-583.37755469540002
 31
0.0
  0
ARC
  5
4A2
  8
┌▓È_1
 62
     5
 10
-407.6759765624999
 20
-586.87755469540002
 30
0.0
 40
3.5
 50
90.0
 51
270.0
  0
ARC
  5
4A3
  8
┌▓È_1
 62
     5
 10
-494.6759765624999
 20
-586.87755469540002
 30
0.0
 40
3.5
 50
90.0
 51
270.0
  0
ARC
  5
4A4
  8
┌▓È_1
 62
     5
 10
-479.67597656250001
 20
-586.87755469540002
 30
0.0
 40
3.5
 50
270.0
 51
90.0
  0
ARC
  5
4A5
  8
┌▓È_1
 62
     5
 10
-566.67597656249995
 20
-586.87755469540002
 30
0.0
 40
3.5
 50
270.0
 51
90.0
  0
LINE
  5
4A6
  8
┌▓È_1
 62
     5
 10
-407.6759765624999
 20
-583.37755469540002
 30
0.0
 11
-392.67597656250001
 21
-583.37755469540002
 31
0.0
  0
ARC
  5
4A7
  8
┌▓È_1
 62
     5
 10
-566.67597656249995
 20
-601.87755469540002
 30
0.0
 40
3.5
 50
270.0
 51
90.0
  0
LINE
  5
4A8
  8
┌▓È_1
 62
     5
 10
-479.67597656250001
 20
-590.37755469540002
 30
0.0
 11
-494.6759765624999
 21
-590.37755469540002
 31
0.0
  0
LINE
  5
4A9
  8
┌▓È_1
 62
     5
 10
-566.67597656249995
 20
-590.37755469540002
 30
0.0
 11
-581.67597656249995
 21
-590.37755469540002
 31
0.0
  0
LINE
  5
4AA
  8
┌▓È_1
 62
     5
 10
-581.67597656249995
 20
-583.37755469540002
 30
0.0
 11
-566.67597656249995
 21
-583.37755469540002
 31
0.0
  0
ARC
  5
4AB
  8
┌▓È_1
 62
     5
 10
-392.67597656250001
 20
-601.87755469540002
 30
0.0
 40
3.5
 50
270.0
 51
90.0
  0
LINE
  5
4AC
  8
┌▓È_1
 62
     5
 10
-479.67597656250001
 20
-605.37755469540002
 30
0.0
 11
-494.6759765624999
 21
-605.37755469540002
 31
0.0
  0
LINE
  5
4AD
  8
┌▓È_1
 62
     5
 10
-494.6759765624999
 20
-598.37755469539991
 30
0.0
 11
-479.67597656250001
 21
-598.37755469539991
 31
0.0
  0
ARC
  5
4AE
  8
┌▓È_1
 62
     5
 10
-407.6759765624999
 20
-601.87755469540002
 30
0.0
 40
3.5
 50
90.0
 51
270.0
  0
ARC
  5
4AF
  8
┌▓È_1
 62
     5
 10
-494.6759765624999
 20
-601.87755469540002
 30
0.0
 40
3.5
 50
90.0
 51
270.0
  0
ARC
  5
4B0
  8
┌▓È_1
 62
     5
 10
-479.67597656250001
 20
-601.87755469540002
 30
0.0
 40
3.5
 50
270.0
 51
90.0
  0
ARC
  5
4B1
  8
┌▓È_1
 62
     5
 10
-392.67597656250001
 20
-586.87755469540002
 30
0.0
 40
3.5
 50
270.0
 51
90.0
  0
DIMENSION
  5
4C0
  8
Éíû@É³
 62
     5
  2
*D34
 10
-476.17597656250001
 20
-552.76528815489985
 30
0.0
 11
-487.1759765624999
 21
-552.76528815489985
 31
0.0
 70
   128
  1
<>
 13
-476.17597656250001
 23
-571.87755469540002
 33
0.0
 14
-498.17597656250001
 24
-571.87755469540002
 34
0.0
  0
LINE
  5
4C1
  8
┌▓È_1
 62
     5
 10
-494.6759765624999
 20
-568.37755469540002
 30
0.0
 11
-479.67597656250001
 21
-568.37755469540002
 31
0.0
  0
ARC
  5
4C2
  8
┌▓È_1
 62
     5
 10
-566.67597656249995
 20
-571.87755469540002
 30
0.0
 40
3.5
 50
270.0
 51
90.0
  0
ARC
  5
4C3
  8
┌▓È_1
 62
     5
 10
-392.67597656250001
 20
-571.87755469540002
 30
0.0
 40
3.5
 50
270.0
 51
90.0
  0
ARC
  5
4C4
  8
┌▓È_1
 62
     5
 10
-479.67597656250001
 20
-571.87755469540002
 30
0.0
 40
3.5
 50
270.0
 51
90.0
  0
ARC
  5
4C5
  8
┌▓È_1
 62
     5
 10
-494.6759765624999
 20
-571.87755469540002
 30
0.0
 40
3.5
 50
90.0
 51
270.0
  0
LINE
  5
4C6
  8
┌▓È_1
 62
     5
 10
-581.67597656249995
 20
-568.37755469540002
 30
0.0
 11
-566.67597656249995
 21
-568.37755469540002
 31
0.0
  0
LINE
  5
4C7
  8
┌▓È_1
 62
     5
 10
-407.6759765624999
 20
-568.37755469540002
 30
0.0
 11
-392.67597656250001
 21
-568.37755469540002
 31
0.0
  0
LINE
  5
4C8
  8
┌▓È_1
 62
     5
 10
427.16104296869997
 20
-245.04283838680001
 30
0.0
 11
427.16104296869997
 21
-66.043781095100002
 31
0.0
  0
LINE
  5
4C9
  8
┌▓È_1
 62
     5
 10
402.16104296869997
 20
-246.3428383868
 30
0.0
 11
402.16104296869997
 21
-64.743781095100005
 31
0.0
  0
LINE
  5
4CA
  8
┌▓È_1
 62
     5
 10
404.16104296869997
 20
-68.043781095100002
 30
0.0
 11
404.16104296869997
 21
-243.04283838680001
 31
0.0
  0
LINE
  5
4CB
  8
┌▓È_1
 62
     5
 10
406.16104296869997
 20
-68.043781095100002
 30
0.0
 11
406.16104296869997
 21
-243.04283838680001
 31
0.0
  0
LINE
  5
4CC
  8
┌▓È_1
 62
     5
 10
340.83808866060002
 20
-239.8433097409
 30
0.0
 11
340.83808866060002
 21
-71.243309740900003
 31
0.0
  0
LINE
  5
4CD
  8
┌▓È_1
 62
     5
 10
325.83808866060002
 20
-245.04283838680001
 30
0.0
 11
325.83808866060002
 21
-66.043781095100002
 31
0.0
  0
LINE
  5
4CE
  8
┌▓È_1
 62
     5
 10
311.83808866060002
 20
-68.043782444399994
 30
0.0
 11
311.83808866060002
 21
-243.04283838680001
 31
0.0
  0
LINE
  5
4CF
  8
┌▓È_1
 62
     5
 10
310.83808866060002
 20
-64.743309740900003
 30
0.0
 11
310.83808866060002
 21
-155.53517399879999
 31
0.0
  0
LINE
  5
4D0
  8
┌▓È_1
 62
     5
 10
313.83808866060002
 20
-243.04283838680001
 30
0.0
 11
313.83808866060002
 21
-68.043781095100002
 31
0.0
  0
DIMENSION
  5
4DF
  8
Éíû@É³
 62
     5
  2
*D35
 10
-601.17597656249995
 20
-651.87751302879985
 30
0.0
 11
-587.67597656249995
 21
-651.87751302879985
 31
0.0
 70
   128
  1
<>
 13
-601.17597656249995
 23
-621.87751302879985
 33
0.0
 14
-574.17597656249995
 24
-605.37755469540002
 34
0.0
 50
180.0
  0
DIMENSION
  5
4EE
  8
Éíû@É³
 62
     5
  2
*D36
 10
-487.1759765624999
 20
-651.87751273380002
 30
0.0
 11
-443.67597656250001
 21
-651.87751273380002
 31
0.0
 70
   128
  1
<>
 13
-487.1759765624999
 23
-605.37755469540002
 33
0.0
 14
-400.17597656250001
 24
-605.37755469540002
 34
0.0
 50
180.0
  0
DIMENSION
  5
4FD
  8
Éíû@É³
 62
     5
  2
*D37
 10
-574.17597656249995
 20
-651.87751273380002
 30
0.0
 11
-530.67597656249995
 21
-651.87751273380002
 31
0.0
 70
   128
  1
<>
 13
-574.17597656249995
 23
-605.37755469540002
 33
0.0
 14
-487.1759765624999
 24
-605.37755469540002
 34
0.0
 50
180.0
  0
LINE
  5
4FE
  8
┌▓È_1
 62
     5
 10
-599.17597656249995
 20
-696.52096354169987
 30
0.0
 11
-599.17597656249995
 21
-708.52096354169987
 31
0.0
  0
LINE
  5
4FF
  8
┌▓È_1
 62
     5
 10
-601.17597656249995
 20
-708.52096354169987
 30
0.0
 11
-599.17597656249995
 21
-708.52096354169987
 31
0.0
  0
LINE
  5
500
  8
┌▓È_1
 62
     5
 10
-601.17597656249995
 20
-696.52096389799999
 30
0.0
 11
-601.17597656249995
 21
-708.52096354169987
 31
0.0
  0
ARC
  5
501
  8
┌▓È_1
 62
     5
 10
-599.17597656249995
 20
-696.52096354169987
 30
0.0
 40
2.0
 50
90.0
 51
180.00001020810001
  0
LINE
  5
502
  8
┌▓È_1
 62
     5
 10
-599.17597656249995
 20
-621.87751302879985
 30
0.0
 11
-599.17597656249995
 21
-623.87751302879985
 31
0.0
  0
LINE
  5
503
  8
┌▓È_1
 62
     5
 10
-599.17597656249995
 20
-621.87751302879985
 30
0.0
 11
-601.17597656249995
 21
-621.87751302879985
 31
0.0
  0
LINE
  5
504
  8
┌▓È_1
 62
     5
 10
-407.6759765624999
 20
-598.37755469539991
 30
0.0
 11
-392.67597656250001
 21
-598.37755469539991
 31
0.0
  0
LINE
  5
505
  8
┌▓È_1
 62
     5
 10
-392.67597656250001
 20
-605.37755469540002
 30
0.0
 11
-407.6759765624999
 21
-605.37755469540002
 31
0.0
  0
ARC
  5
506
  8
┌▓È_1
 62
     5
 10
-581.67597656249995
 20
-601.87755469540002
 30
0.0
 40
3.5
 50
90.0
 51
270.0
  0
LINE
  5
507
  8
┌▓È_1
 62
     5
 10
-566.67597656249995
 20
-605.37755469540002
 30
0.0
 11
-581.67597656249995
 21
-605.37755469540002
 31
0.0
  0
LINE
  5
508
  8
┌▓È_1
 62
     5
 10
-581.67597656249995
 20
-598.37755469539991
 30
0.0
 11
-566.67597656249995
 21
-598.37755469539991
 31
0.0
  0
ARC
  5
509
  8
┌▓È_1
 62
     5
 10
-581.67597656249995
 20
-586.87755469540002
 30
0.0
 40
3.5
 50
90.0
 51
270.0
  0
LINE
  5
50A
  8
┌▓È_1
 62
     5
 10
-392.67597656250001
 20
-590.37755469540002
 30
0.0
 11
-407.6759765624999
 21
-590.37755469540002
 31
0.0
  0
LINE
  5
50B
  8
┌▓È_1
  6
HIDDEN
 62
     1
 10
-582.60555989579996
 20
-68.043309740899986
 30
0.0
 11
-582.60555989579996
 21
-243.04330974090001
 31
0.0
  0
LINE
  5
50C
  8
┌▓È_1
 62
     5
 10
-585.50539920690005
 20
-245.54330974090001
 30
0.0
 11
-585.50539920690005
 21
-65.543309740899986
 31
0.0
  0
LINE
  5
50D
  8
┌▓È_1
 62
     5
 10
-585.50518489579986
 20
-242.29373161589999
 30
0.0
 11
-585.50518489579986
 21
-68.793731615900001
 31
0.0
  0
LINE
  5
50E
  8
┌▓È_1
 62
     5
 10
-594.50539920690005
 20
-254.54330974090001
 30
0.0
 11
-594.50539920690005
 21
-56.5433097409
 31
0.0
  0
LINE
  5
50F
  8
┌▓È_1
  6
BORDER
 62
     3
 10
-68.605559895799985
 20
-143.0436534909
 30
0.0
 11
-68.605559895799985
 21
-168.0436534909
 31
0.0
  0
LINE
  5
510
  8
┌▓È_1
  6
BORDER
 62
     3
 10
-122.6055598958
 20
-143.0433514076
 30
0.0
 11
-122.6055598958
 21
-168.0433514076
 31
0.0
  0
LINE
  5
511
  8
┌▓È_1
  6
HIDDEN
 62
     1
 10
-93.605559895799985
 20
-68.043309740899986
 30
0.0
 11
-93.605559895799985
 21
-243.04330974090001
 31
0.0
  0
LINE
  5
512
  8
┌▓È_1
 62
     5
 10
-95.605559895799999
 20
-68.043309740899986
 30
0.0
 11
-95.605559895799999
 21
-243.04330974090001
 31
0.0
  0
LINE
  5
513
  8
┌▓È_1
  6
HIDDEN
 62
     1
 10
-97.605559895799999
 20
-68.043309740899986
 30
0.0
 11
-97.605559895799999
 21
-243.04330974090001
 31
0.0
  0
LINE
  5
514
  8
┌▓È_1
 62
     5
 10
-28.623111979200001
 20
-621.87751302879985
 30
0.0
 11
-28.623111979200001
 21
-446.87751302879991
 31
0.0
  0
LINE
  5
515
  8
┌▓È_1
 62
     5
 10
-30.623111979200001
 20
-446.87751437809999
 30
0.0
 11
-30.623111979200001
 21
-621.87751302879985
 31
0.0
  0
LINE
  5
516
  8
┌▓È_1
 62
     5
 10
26.355559895799999
 20
-446.87751302879991
 30
0.0
 11
26.355559895799999
 21
-621.87751302879985
 31
0.0
  0
LINE
  5
517
  8
┌▓È_1
 62
     5
 10
24.355559895799999
 20
-446.87751302879991
 30
0.0
 11
24.355559895799999
 21
-621.87751302879985
 31
0.0
  0
DIMENSION
  5
526
  8
Éíû@É³
 62
     5
  2
*D38
 10
253.7189851009
 20
-254.54330974090001
 30
0.0
 11
253.7189851009
 21
-155.54330974090001
 31
0.0
 70
   128
  1
<>
 13
203.49460079310001
 23
-254.54330974090001
 33
0.0
 14
203.49460079310001
 24
-56.5433097409
 34
0.0
 50
90.0
  0
DIMENSION
  5
535
  8
Éíû@É³
 62
     5
  2
*D39
 10
237.06697322959999
 20
-245.54330974090001
 30
0.0
 11
237.06697322959999
 21
-155.54330974090001
 31
0.0
 70
   128
  1
<>
 13
194.49460079310001
 23
-245.54330974090001
 33
0.0
 14
194.49460079310001
 24
-65.543309740899986
 34
0.0
 50
90.0
  0
LINE
  5
536
  8
┌▓È_1
  6
BORDER
 62
     3
 10
47.18782552079999
 20
-51.5433097409
 30
0.0
 11
47.18782552079999
 21
-259.54330974089999
 31
0.0
  0
LINE
  5
537
  8
┌▓È_1
  6
BORDER
 62
     3
 10
166.6949036458
 20
-143.0436534909
 30
0.0
 11
166.6949036458
 21
-168.0436534909
 31
0.0
  0
LINE
  5
538
  8
┌▓È_1
 62
     5
 10
193.6949036458
 20
-68.043309740899986
 30
0.0
 11
193.6949036458
 21
-243.04330974090001
 31
0.0
  0
LINE
  5
539
  8
┌▓È_1
  6
HIDDEN
 62
     1
 10
191.1949036458
 20
-68.043309740899986
 30
0.0
 11
191.1949036458
 21
-243.04330974090001
 31
0.0
  0
LINE
  5
53A
  8
┌▓È_1
 62
     5
 10
203.49460079310001
 20
-56.5433097409
 30
0.0
 11
203.49460079310001
 21
-254.54330974090001
 31
0.0
  0
LINE
  5
53B
  8
┌▓È_1
 62
     5
 10
194.49460079310001
 20
-65.543309740899986
 30
0.0
 11
194.49460079310001
 21
-245.54330974090001
 31
0.0
  0
LINE
  5
53C
  8
┌▓È_1
  6
BORDER
 62
     3
 10
41.18782552079999
 20
-51.5433097409
 30
0.0
 11
41.18782552079999
 21
-259.54330974089999
 31
0.0
  0
DIMENSION
  5
54B
  8
Éíû@É³
 62
     5
  2
*D40
 10
363.76339040319999
 20
-239.04330974090001
 30
0.0
 11
363.76339040319999
 21
-155.54330974090001
 31
0.0
 70
   128
  1
<>
 13
340.03808866060001
 23
-239.04330974090001
 33
0.0
 14
340.03808866060001
 24
-72.0433097409
 34
0.0
 50
90.0
  0
DIMENSION
  5
55A
  8
Éíû@É³
 62
     5
  2
*D41
 10
478.57595423890001
 20
-240.54283838680001
 30
0.0
 11
478.57595423890001
 21
-155.54330974090001
 31
0.0
 70
   128
  1
170
 13
457.16104296869997
 23
-240.54283838680001
 33
0.0
 14
457.16104296869997
 24
-70.543781095100002
 34
0.0
 50
90.0
  0
LINE
  5
55B
  8
┌▓È_1
 62
     5
 10
457.16104296869997
 20
-69.743781095100005
 30
0.0
 11
457.16104296869997
 21
-241.3428383868
 31
0.0
  0
LINE
  5
55C
  8
┌▓È_1
  6
HIDDEN
 62
     1
 10
-582.60555989579996
 20
-243.04330974090001
 30
0.0
 11
-97.605559895799999
 21
-243.04330974090001
 31
0.0
  0
LINE
  5
55D
  8
┌▓È_1
 62
     5
 10
-585.50539920690005
 20
-65.543309740899986
 30
0.0
 11
-58.81217447920001
 21
-65.543309740899986
 31
0.0
  0
LINE
  5
55E
  8
┌▓È_1
 62
     5
 10
-594.50539920690005
 20
-56.5433097409
 30
0.0
 11
-58.81217447920001
 21
-56.5433097409
 31
0.0
  0
LINE
  5
55F
  8
┌▓È_1
 62
     5
 10
-594.50539920690005
 20
-254.54330974090001
 30
0.0
 11
-58.81217447920001
 21
-254.54330974090001
 31
0.0
  0
INSERT
  5
561
  8
É}ÿg
  2
CLUMP4
 10
0.0
 20
0.0
 30
0.0
  0
INSERT
  5
56B
  8
É}ÿg
  2
CLUMP5
 10
0.0
 20
0.0
 30
0.0
  0
INSERT
  5
575
  8
É}ÿg
  2
CLUMP6
 10
0.0
 20
0.0
 30
0.0
  0
INSERT
  5
57E
  8
0
  6
CONTINUOUS
  2
*U83
 10
0.0
 20
0.0
 30
0.0
  0
INSERT
  5
57F
  8
0
  6
CONTINUOUS
  2
*U84
 10
0.0
 20
0.0
 30
0.0
  0
INSERT
  5
580
  8
0
  6
CONTINUOUS
  2
*U85
 10
0.0
 20
0.0
 30
0.0
  0
INSERT
  5
581
  8
0
  6
CONTINUOUS
  2
*U86
 10
0.0
 20
0.0
 30
0.0
  0
INSERT
  5
582
  8
0
  6
CONTINUOUS
  2
*U87
 10
0.0
 20
0.0
 30
0.0
  0
INSERT
  5
583
  8
0
  6
CONTINUOUS
  2
*U88
 10
0.0
 20
0.0
 30
0.0
  0
DIMENSION
  5
58B
  8
Éíû@É³
 62
     5
  2
*D45
 10
-591.76920819769998
 20
-548.39298916320001
 30
0.0
 11
-585.97554317139986
 21
-572.59567280579995
 31
0.0
 70
   131
  1
2-%%c<>
 15
-579.87892833379999
 25
-539.24852391059994
 35
0.0
 40
0.0
  0
DIMENSION
  5
59A
  8
Éíû@É³
 62
     5
  2
*D46
 10
-455.67597656250001
 20
-575.37755469540002
 30
0.0
 11
-455.67597656250001
 21
-571.87755469540002
 31
0.0
 70
   128
  1
<>
 13
-479.67597656250001
 23
-575.37755469540002
 33
0.0
 14
-479.67597656250001
 24
-568.37755469540002
 34
0.0
 50
90.0
  0
LINE
  5
59B
  8
┌▓È_1
 62
     5
 10
-601.17597656249995
 20
-446.87751302879991
 30
0.0
 11
-601.17597656249995
 21
-621.87751302879985
 31
0.0
  0
LINE
  5
59C
  8
┌▓È_1
  6
HIDDEN
 62
     1
 10
-599.17597656249995
 20
-446.87751302879991
 30
0.0
 11
-599.17597656249995
 21
-621.87751302879985
 31
0.0
  0
LINE
  5
59D
  8
┌▓È_1
  6
BORDER
 62
     3
 10
-356.67597656250001
 20
-439.87751302879991
 30
0.0
 11
-356.67597656250001
 21
-628.87751302879997
 31
0.0
  0
DIMENSION
  5
5AC
  8
Éíû@É³
 62
     5
  2
*D47
 10
-84.175976562499997
 20
-586.87755469540002
 30
0.0
 11
-84.175976562499997
 21
-579.37755469540002
 31
0.0
 70
   128
  1
<>
 13
-128.17597656250001
 23
-586.87755469540002
 33
0.0
 14
-128.17597656250001
 24
-571.87755469540002
 34
0.0
 50
90.0
  0
DIMENSION
  5
5BB
  8
Éíû@É³
 62
     5
  2
*D48
 10
-84.175976562499997
 20
-571.87755469540002
 30
0.0
 11
-84.175976562499997
 21
-556.87755469539991
 31
0.0
 70
   128
  1
<>
 13
-128.17597656250001
 23
-571.87755469540002
 33
0.0
 14
-171.67597656250001
 24
-541.87755469540002
 34
0.0
 50
90.0
  0
DIMENSION
  5
5CA
  8
Éíû@É³
 62
     5
  2
*D49
 10
-64.711029815700002
 20
-623.87751302879985
 30
0.0
 11
-64.711029815700002
 21
-534.37751302879985
 31
0.0
 70
   128
  1
<>
 13
-114.1759765625
 23
-623.87751302879985
 33
0.0
 14
-114.1759765625
 24
-444.87751302879991
 34
0.0
 50
90.0
  0
LINE
  5
5CB
  8
┌▓È_1
  6
HIDDEN
 62
     1
 10
-114.1759765625
 20
-446.87751302879991
 30
0.0
 11
-114.1759765625
 21
-621.87751302879985
 31
0.0
  0
LINE
  5
5CC
  8
┌▓È_1
 62
     5
 10
-112.1759765625
 20
-446.87751302879991
 30
0.0
 11
-112.1759765625
 21
-621.87751302879985
 31
0.0
  0
LINE
  5
5CD
  8
┌▓È_1
  6
BORDER
 62
     3
 10
-557.60555989579996
 20
-143.0433514076
 30
0.0
 11
-557.60555989579996
 21
-168.0433514076
 31
0.0
  0
LINE
  5
5CE
  8
┌▓È_1
 62
     5
 10
-584.60555989580007
 20
-68.043309740899986
 30
0.0
 11
-584.60555989580007
 21
-243.04330974090001
 31
0.0
  0
LINE
  5
5CF
  8
┌▓È_1
  6
BORDER
 62
     3
 10
47.18782552079999
 20
-328.88937093890002
 30
0.0
 11
47.18782552079999
 21
-368.88937093890002
 31
0.0
  0
LINE
  5
5D0
  8
┌▓È_1
 62
     5
 10
194.49460079310001
 20
-348.88937093890002
 30
0.0
 11
194.49460079310001
 21
-363.0893709389
 31
0.0
  0
LINE
  5
5D1
  8
┌▓È_1
 62
     5
 10
195.29460079309999
 20
-348.88937093890002
 30
0.0
 11
195.29460079309999
 21
-363.0893709389
 31
0.0
  0
LINE
  5
5D2
  8
┌▓È_1
 62
     5
 10
202.69460079309999
 20
-357.88937093890002
 30
0.0
 11
202.69460079309999
 21
-363.0893709389
 31
0.0
  0
LINE
  5
5D3
  8
┌▓È_1
 62
     5
 10
203.49460079310001
 20
-357.88937093890002
 30
0.0
 11
202.69460079309999
 21
-357.88937093890002
 31
0.0
  0
LINE
  5
5D4
  8
┌▓È_1
 62
     5
 10
203.49460079310001
 20
-363.0893709389
 30
0.0
 11
203.49460079310001
 21
-357.88937093890002
 31
0.0
  0
DIMENSION
  5
5E3
  8
Éíû@É³
 62
     5
  2
*D50
 10
-400.17597656250001
 20
-651.87751273380002
 30
0.0
 11
-356.67597656250001
 21
-651.87751273380002
 31
0.0
 70
   128
  1
<>
 13
-400.17597656250001
 23
-605.37755469540002
 33
0.0
 14
-313.17597656250001
 24
-605.37755469540002
 34
0.0
 50
180.0
  0
DIMENSION
  5
5F2
  8
Éíû@É³
 62
     5
  2
*D51
 10
-112.1759765625
 20
-416.87751302880002
 30
0.0
 11
-356.67597656250001
 21
-416.87751302880002
 31
0.0
 70
   128
  1
<>
 13
-112.1759765625
 23
-446.87751302879991
 33
0.0
 14
-601.17597656249995
 24
-446.87751302879991
 34
0.0
  0
LINE
  5
5F3
  8
┌▓È_1
 62
     5
 10
-599.17597656249995
 20
-444.87751302879991
 30
0.0
 11
-114.1759765625
 21
-444.87751302879991
 31
0.0
  0
LINE
  5
5F4
  8
┌▓È_1
  6
HIDDEN
 62
     1
 10
-599.17597656249995
 20
-446.87751302879991
 30
0.0
 11
-114.1759765625
 21
-446.87751302879991
 31
0.0
  0
LINE
  5
5F5
  8
┌▓È_1
 62
     5
 10
-599.17597656249995
 20
-623.87751302879985
 30
0.0
 11
-114.1759765625
 21
-623.87751302879985
 31
0.0
  0
LINE
  5
5F6
  8
┌▓È_1
  6
HIDDEN
 62
     1
 10
-599.17597656249995
 20
-621.87751302879985
 30
0.0
 11
-114.1759765625
 21
-621.87751302879985
 31
0.0
  0
LINE
  5
5F7
  8
┌▓È_1
 62
     5
 10
-114.1759779118
 20
-694.52096354169998
 30
0.0
 11
-599.17597656249995
 21
-694.52096354169998
 31
0.0
  0
LINE
  5
5F8
  8
┌▓È_1
 62
     5
 10
-599.17597656249995
 20
-696.52096354169987
 30
0.0
 11
-114.1759765625
 21
-696.52096354169987
 31
0.0
  0
LINE
  5
5F9
  8
┌▓È_1
  6
BORDER
 62
     3
 10
-606.17597656249995
 20
-534.37751302879985
 30
0.0
 11
-107.1759765625
 21
-534.37751302879985
 31
0.0
  0
LINE
  5
5FA
  8
┌▓È_1
 62
     5
 10
-349.17597656250001
 20
-538.37755469540002
 30
0.0
 11
-364.17597656250001
 21
-538.37755469540002
 31
0.0
  0
LINE
  5
5FB
  8
┌▓È_1
 62
     5
 10
-364.17597656250001
 20
-545.37755469540002
 30
0.0
 11
-349.17597656250001
 21
-545.37755469540002
 31
0.0
  0
LINE
  5
5FC
  8
┌▓È_1
 62
     5
 10
-349.17597656250001
 20
-523.37755469539991
 30
0.0
 11
-364.17597656250001
 21
-523.37755469539991
 31
0.0
  0
LINE
  5
5FD
  8
┌▓È_1
 62
     5
 10
-364.17597656250001
 20
-530.37755469540002
 30
0.0
 11
-349.17597656250001
 21
-530.37755469540002
 31
0.0
  0
ARC
  5
5FE
  8
┌▓È_1
 62
     5
 10
-364.17597656250001
 20
-541.87755469540002
 30
0.0
 40
3.5
 50
90.0
 51
270.0
  0
ARC
  5
5FF
  8
┌▓È_1
 62
     5
 10
-364.17597656250001
 20
-526.87755469540002
 30
0.0
 40
3.5
 50
90.0
 51
270.0
  0
LINE
  5
600
  8
┌▓È_1
 62
     5
 10
-585.50539920690005
 20
-245.54330974090001
 30
0.0
 11
-58.81217447920001
 21
-245.54330974090001
 31
0.0
  0
LINE
  5
601
  8
┌▓È_1
 62
     5
 10
-582.60555989579996
 20
-66.0433097409
 30
0.0
 11
-97.605559895799999
 21
-66.0433097409
 31
0.0
  0
LINE
  5
602
  8
┌▓È_1
  6
HIDDEN
 62
     1
 10
-582.60555989579996
 20
-68.043309740899986
 30
0.0
 11
-97.605559895799999
 21
-68.043309740899986
 31
0.0
  0
LINE
  5
603
  8
┌▓È_1
 62
     5
 10
-582.60555989579996
 20
-245.04330974090001
 30
0.0
 11
-97.605559895799999
 21
-245.04330974090001
 31
0.0
  0
INSERT
  5
605
  8
É}ÿg
  2
CLUMP7
 10
0.0
 20
0.0
 30
0.0
  0
DIMENSION
  5
6B7
  8
Éíû@É³
 62
     5
  2
*D53
 10
194.49460079310001
 20
-24.1349998044
 30
0.0
 11
-196.61796698929999
 21
-24.1349998044
 31
0.0
 70
   128
  1
980
 13
194.49460079310001
 23
-65.543309740899986
 33
0.0
 14
-585.50539920690005
 24
-65.543309740899986
 34
0.0
  0
DIMENSION
  5
6C6
  8
Éíû@É³
 62
     5
  2
*D54
 10
203.49460079310001
 20
-6.5081496762000004
 30
0.0
 11
-195.50539920689999
 21
-6.5081496762000004
 31
0.0
 70
   128
  1
998
 13
203.49460079310001
 23
-56.5433097409
 33
0.0
 14
-594.50539920690005
 24
-56.5433097409
 34
0.0
  0
LINE
  5
6C7
  8
┌▓È_1
  6
HIDDEN
 62
     1
 10
-93.605559895799985
 20
-68.043309740899986
 30
0.0
 11
41.18782552079999
 21
-68.043309740899986
 31
0.0
  0
LINE
  5
6C8
  8
┌▓È_1
 62
     5
 10
-93.605559895799985
 20
-66.0433097409
 30
0.0
 11
41.18782552079999
 21
-66.0433097409
 31
0.0
  0
LINE
  5
6C9
  8
┌▓È_1
 62
     5
 10
-58.81217447920001
 20
-56.5433097409
 30
0.0
 11
41.18782552079999
 21
-56.5433097409
 31
0.0
  0
LINE
  5
6CA
  8
┌▓È_1
 62
     5
 10
-58.81217447920001
 20
-65.543309740899986
 30
0.0
 11
41.18782552079999
 21
-65.543309740899986
 31
0.0
  0
LINE
  5
6CB
  8
┌▓È_1
 62
     5
 10
-58.81217447920001
 20
-254.54330974090001
 30
0.0
 11
41.18782552079999
 21
-254.54330974090001
 31
0.0
  0
LINE
  5
6CC
  8
┌▓È_1
  6
HIDDEN
 62
     1
 10
-93.605559895799985
 20
-243.04330974090001
 30
0.0
 11
41.18782552079999
 21
-243.04330974090001
 31
0.0
  0
LINE
  5
6CD
  8
┌▓È_1
 62
     5
 10
-93.605559895799985
 20
-245.04330974090001
 30
0.0
 11
41.18782552079999
 21
-245.04330974090001
 31
0.0
  0
LINE
  5
6CE
  8
┌▓È_1
 62
     5
 10
-58.81217447920001
 20
-245.54330974090001
 30
0.0
 11
41.18782552079999
 21
-245.54330974090001
 31
0.0
  0
LINE
  5
6CF
  8
┌▓È_1
 10
41.18782552079999
 20
-363.88937093890002
 30
0.0
 11
-593.70539920689987
 21
-363.88937093890002
 31
0.0
  0
LINE
  5
6D0
  8
┌▓È_1
 10
41.18782552079999
 20
-349.68937093890003
 30
0.0
 11
-578.30539920690001
 21
-349.68937093890003
 31
0.0
  0
LINE
  5
6D1
  8
┌▓È_1
 10
-594.50539920690005
 20
-339.88937093890002
 30
0.0
 11
41.18782552079999
 21
-339.88937093890002
 31
0.0
  0
LINE
  5
6D2
  8
┌▓È_1
 10
-577.50543229169989
 20
-357.88937093890002
 30
0.0
 11
41.18782552079999
 21
-357.88937093890002
 31
0.0
  0
LINE
  5
6D3
  8
┌▓È_1
 10
-593.70539920689987
 20
-333.88937093890002
 30
0.0
 11
41.18782552079999
 21
-333.88937093890002
 31
0.0
  0
LINE
  5
6D4
  8
┌▓È_1
  6
BORDER
 62
     3
 10
-604.65677083330002
 20
-155.54330974090001
 30
0.0
 11
110.9880859375
 21
-155.54330974090001
 31
0.0
  0
LINE
  5
6D5
  8
┌▓È_1
 10
-578.30539920690001
 20
-339.88937093890002
 30
0.0
 11
-578.30539920690001
 21
-363.0893709389
 31
0.0
  0
LINE
  5
6D6
  8
┌▓È_1
 10
-586.30539920690001
 20
-339.88937093890002
 30
0.0
 11
-586.30539920690001
 21
-363.0893709389
 31
0.0
  0
LINE
  5
6D7
  8
┌▓È_1
 10
-577.50543229169989
 20
-357.88937093890002
 30
0.0
 11
-577.50543229169989
 21
-363.88937093890002
 31
0.0
  0
LINE
  5
6D8
  8
┌▓È_1
 10
-593.70539920689987
 20
-357.88937093890002
 30
0.0
 11
-594.50539920690005
 21
-357.88937093890002
 31
0.0
  0
LINE
  5
6D9
  8
┌▓È_1
 10
-593.70539920689987
 20
-363.0893709389
 30
0.0
 11
-593.70539920689987
 21
-357.88937093890002
 31
0.0
  0
LINE
  5
6DA
  8
┌▓È_1
 10
-594.50539920690005
 20
-363.0893709389
 30
0.0
 11
-594.50539920690005
 21
-357.88937093890002
 31
0.0
  0
DIMENSION
  5
6E9
  8
Éíû@É³
 62
     5
  2
*D55
 10
227.49460079310001
 20
-363.88937093890002
 30
0.0
 11
227.49460079310001
 21
-375.68167211680009
 31
0.0
 70
   128
  1
<>
 13
202.69460079309999
 23
-363.88937093890002
 33
0.0
 14
203.49460079310001
 24
-357.88937093890002
 34
0.0
 50
90.0
  0
LINE
  5
6EA
  8
┌▓È_1
  6
BORDER
 62
     3
 10
41.18782552079999
 20
-328.88937093890002
 30
0.0
 11
41.18782552079999
 21
-368.88937093890002
 31
0.0
  0
ENDSEC
  0
EOF
