  0
SECTION
  2
HEADER
  9
$ACADVER
  1
AC1009
  9
$INSBASE
 10
0.0
 20
0.0
 30
0.0
  9
$EXTMIN
 10
-364.91916768290002
 20
-477.7033511178999
 30
0.0
  9
$EXTMAX
 10
864.96083231710008
 20
387.67664888209998
 30
0.0
  9
$LIMMIN
 10
0.0
 20
0.0
  9
$LIMMAX
 10
0.0
 20
0.0
  9
$ORTHOMODE
 70
     0
  9
$REGENMODE
 70
     1
  9
$FILLMODE
 70
     1
  9
$QTEXTMODE
 70
     0
  9
$MIRRTEXT
 70
     1
  9
$DRAGMODE
 70
     2
  9
$LTSCALE
 40
1.0
  9
$OSMODE
 70
    31
  9
$ATTMODE
 70
     1
  9
$TEXTSIZE
 40
0.0
  9
$TRACEWID
 40
0.05
  9
$TEXTSTYLE
  7
STANDARD
  9
$CLAYER
  8
0
  9
$CELTYPE
  6
CONTINUOUS
  9
$CECOLOR
 62
   256
  9
$DIMSCALE
 40
1.0
  9
$DIMASZ
 40
0.18
  9
$DIMEXO
 40
0.0625
  9
$DIMDLI
 40
0.38
  9
$DIMRND
 40
0.0
  9
$DIMDLE
 40
0.0
  9
$DIMEXE
 40
0.18
  9
$DIMTP
 40
0.0
  9
$DIMTM
 40
0.0
  9
$DIMTXT
 40
0.18
  9
$DIMCEN
 40
0.09
  9
$DIMTSZ
 40
0.0
  9
$DIMTOL
 70
     0
  9
$DIMLIM
 70
     0
  9
$DIMTIH
 70
     1
  9
$DIMTOH
 70
     1
  9
$DIMSE1
 70
     0
  9
$DIMSE2
 70
     0
  9
$DIMTAD
 70
     0
  9
$DIMZIN
 70
     0
  9
$DIMBLK
  1

  9
$DIMASO
 70
     1
  9
$DIMSHO
 70
     1
  9
$DIMPOST
  1

  9
$DIMAPOST
  1

  9
$DIMALT
 70
     0
  9
$DIMALTD
 70
     2
  9
$DIMALTF
 40
25.399999999999999
  9
$DIMLFAC
 40
1.0
  9
$DIMTOFL
 70
     0
  9
$DIMTVP
 40
0.0
  9
$DIMTIX
 70
     0
  9
$DIMSOXD
 70
     0
  9
$DIMSAH
 70
     0
  9
$DIMBLK1
  1

  9
$DIMBLK2
  1

  9
$DIMSTYLE
  2
STANDARD
  9
$DIMCLRD
 70
     0
  9
$DIMCLRE
 70
     0
  9
$DIMCLRT
 70
     0
  9
$DIMTFAC
 40
1.0
  9
$DIMGAP
 40
0.09
  9
$LUNITS
 70
     2
  9
$LUPREC
 70
     4
  9
$SKETCHINC
 40
0.1
  9
$FILLETRAD
 40
0.0
  9
$AUNITS
 70
     0
  9
$AUPREC
 70
     0
  9
$MENU
  1
acad
  9
$ELEVATION
 40
0.0
  9
$PELEVATION
 40
0.0
  9
$THICKNESS
 40
0.0
  9
$LIMCHECK
 70
     0
  9
$BLIPMODE
 70
     0
  9
$CHAMFERA
 40
0.0
  9
$CHAMFERB
 40
0.0
  9
$SKPOLY
 70
     0
  9
$TDCREATE
 40
2454859.7982731019
  9
$TDUPDATE
 40
2454859.7984606479
  9
$TDINDWG
 40
0.0002048958
  9
$TDUSRTIMER
 40
0.000204537
  9
$USRTIMER
 70
     1
  9
$ANGBASE
 50
0.0
  9
$ANGDIR
 70
     0
  9
$PDMODE
 70
     3
  9
$PDSIZE
 40
-1.0
  9
$PLINEWID
 40
0.0
  9
$COORDS
 70
     2
  9
$SPLFRAME
 70
     0
  9
$SPLINETYPE
 70
     6
  9
$SPLINESEGS
 70
     8
  9
$ATTDIA
 70
     0
  9
$ATTREQ
 70
     1
  9
$HANDLING
 70
     1
  9
$HANDSEED
  5
B21
  9
$SURFTAB1
 70
     6
  9
$SURFTAB2
 70
     6
  9
$SURFTYPE
 70
     6
  9
$SURFU
 70
     6
  9
$SURFV
 70
     6
  9
$UCSNAME
  2

  9
$UCSORG
 10
0.0
 20
0.0
 30
0.0
  9
$UCSXDIR
 10
1.0
 20
0.0
 30
0.0
  9
$UCSYDIR
 10
0.0
 20
1.0
 30
0.0
  9
$PUCSNAME
  2

  9
$PUCSORG
 10
0.0
 20
0.0
 30
0.0
  9
$PUCSXDIR
 10
1.0
 20
0.0
 30
0.0
  9
$PUCSYDIR
 10
0.0
 20
1.0
 30
0.0
  9
$USERI1
 70
     0
  9
$USERI2
 70
     0
  9
$USERI3
 70
     0
  9
$USERI4
 70
     0
  9
$USERI5
 70
     0
  9
$USERR1
 40
0.0
  9
$USERR2
 40
0.0
  9
$USERR3
 40
0.0
  9
$USERR4
 40
0.0
  9
$USERR5
 40
0.0
  9
$WORLDVIEW
 70
     1
  9
$SHADEDGE
 70
     3
  9
$SHADEDIF
 70
    70
  9
$TILEMODE
 70
     1
  9
$MAXACTVP
 70
    16
  9
$PLIMCHECK
 70
     0
  9
$PEXTMIN
 10
1.0000000000000000E+020
 20
1.0000000000000000E+020
 30
1.0000000000000000E+020
  9
$PEXTMAX
 10
-1.0000000000000000E+020
 20
-1.0000000000000000E+020
 30
-1.0000000000000000E+020
  9
$PLIMMIN
 10
0.0
 20
0.0
  9
$PLIMMAX
 10
12.0
 20
9.0
  9
$UNITMODE
 70
     0
  9
$VISRETAIN
 70
     0
  9
$PLINEGEN
 70
     1
  9
$PSLTSCALE
 70
     0
  0
ENDSEC
  0
SECTION
  2
TABLES
  0
TABLE
  2
VPORT
 70
     2
  0
VPORT
  2
*ACTIVE
 70
     0
 10
0.0
 20
0.0
 11
1.0
 21
1.0
 12
250.0208323171
 22
-45.013351117900008
 13
0.0
 23
0.0
 14
1.0
 24
1.0
 15
0.0
 25
0.0
 16
0.0
 26
0.0
 36
1.0
 17
0.0
 27
0.0
 37
0.0
 40
872.56157676348539
 41
1.6343490304709141
 42
50.0
 43
0.0
 44
0.0
 50
0.0
 51
0.0
 71
     0
 72
   100
 73
     1
 74
     1
 75
     0
 76
     0
 77
     0
 78
     0
  0
ENDTAB
  0
TABLE
  2
LTYPE
 70
    11
  0
LTYPE
  2
CONTINUOUS
 70
     0
  3
Solid line
 72
    65
 73
     0
 40
0.0
  0
LTYPE
  2
DOT
 70
     0
  3
. . . . . . . . 
 72
    65
 73
     2
 40
1.0
 49
0.0
 49
-1.0
  0
LTYPE
  2
DASHED
 70
     0
  3
___  ___  ___  ___  
 72
    65
 73
     2
 40
4.0
 49
3.0
 49
-1.0
  0
LTYPE
  2
HIDDEN
 70
     0
  3
__ __ __ __ 
 72
    65
 73
     2
 40
3.0
 49
2.0
 49
-1.0
  0
LTYPE
  2
STITCH
 70
     0
  3
_ _ _ _ 
 72
    65
 73
     2
 40
2.0
 49
1.0
 49
-1.0
  0
LTYPE
  2
CENTER
 70
     0
  3
______  __  ______  __  
 72
    65
 73
     4
 40
43.0
 49
40.0
 49
-1.0
 49
1.0
 49
-1.0
  0
LTYPE
  2
DASHDOT
 70
     0
  3
____ . ____ . 
 72
    65
 73
     4
 40
32.0
 49
30.0
 49
-1.0
 49
0.0
 49
-1.0
  0
LTYPE
  2
BORDER
 70
     0
  3
__ . __ . 
 72
    65
 73
     4
 40
22.0
 49
20.0
 49
-1.0
 49
0.0
 49
-1.0
  0
LTYPE
  2
CUTTING
 70
     0
  3
________   ___   ___   
 72
    65
 73
     6
 40
45.0
 49
40.0
 49
-1.0
 49
1.0
 49
-1.0
 49
1.0
 49
-1.0
  0
LTYPE
  2
PHANTOM
 70
     0
  3
______  __  __  
 72
    65
 73
     6
 40
35.0
 49
30.0
 49
-1.0
 49
1.0
 49
-1.0
 49
1.0
 49
-1.0
  0
LTYPE
  2
DIVIDE
 70
     0
  3
____ . . ____ . . 
 72
    65
 73
     6
 40
23.0
 49
20.0
 49
-1.0
 49
0.0
 49
-1.0
 49
0.0
 49
-1.0
  0
ENDTAB
  0
TABLE
  2
LAYER
 70
     5
  0
LAYER
  2
0
 70
     0
 62
     7
  6
CONTINUOUS
  0
LAYER
  2
┌▓È_1
 70
     0
 62
     7
  6
CONTINUOUS
  0
LAYER
  2
Éíû@É³
 70
     0
 62
     7
  6
CONTINUOUS
  0
LAYER
  2
É}ÿg
 70
     0
 62
     7
  6
CONTINUOUS
  0
LAYER
  2
ë³Æ¨
 70
     0
 62
     7
  6
CONTINUOUS
  0
ENDTAB
  0
TABLE
  2
STYLE
 70
     1
  0
STYLE
  2
STANDARD
 70
     0
 40
0.0
 41
1.0
 50
0.0
 71
     0
 42
0.0
  3
txt
  4
extfont
  0
ENDTAB
  0
TABLE
  2
VIEW
 70
     0
  0
ENDTAB
  0
TABLE
  2
UCS
 70
     0
  0
ENDTAB
  0
TABLE
  2
APPID
 70
     2
  0
APPID
  2
ACAD
 70
     0
  0
APPID
  2
DCO15
 70
     0
  0
ENDTAB
  0
TABLE
  2
DIMSTYLE
 70
     3
  0
DIMSTYLE
  2
STANDARD
 70
     0
  3

  4

  5

  6

  7

 40
1.0
 41
0.18
 42
0.0625
 43
0.38
 44
0.18
 45
0.0
 46
0.0
 47
0.0
 48
0.0
140
0.18
141
0.09
142
0.0
143
25.399999999999999
144
1.0
145
0.0
146
1.0
147
0.09
 71
     0
 72
     0
 73
     1
 74
     1
 75
     0
 76
     0
 77
     0
 78
     0
170
     0
171
     2
172
     0
173
     0
174
     0
175
     0
176
     0
177
     0
178
     0
  0
DIMSTYLE
  2
VELDIM0
 70
     0
  3

  4

  5

  6

  7

 40
1.0
 41
9.0
 42
0.0625
 43
0.38
 44
1.0
 45
0.0
 46
10.0
 47
0.0
 48
0.0
140
9.8954164504999991
141
0.09
142
0.0
143
25.399999999999999
144
1.0
145
0.0
146
1.0
147
0.09
 71
     0
 72
     0
 73
     0
 74
     0
 75
     0
 76
     0
 77
     0
 78
     8
170
     0
171
     2
172
     0
173
     0
174
     0
175
     0
176
     0
177
     0
178
     0
  0
DIMSTYLE
  2
VELDIM1
 70
     0
  3

  4

  5

  6

  7

 40
1.0
 41
9.0
 42
0.0625
 43
0.38
 44
1.25
 45
0.0
 46
5.0
 47
0.0
 48
0.0
140
9.8954164504999991
141
0.09
142
0.0
143
25.399999999999999
144
1.0
145
0.0
146
1.0
147
0.09
 71
     0
 72
     0
 73
     0
 74
     0
 75
     0
 76
     0
 77
     0
 78
     8
170
     0
171
     2
172
     0
173
     0
174
     0
175
     0
176
     0
177
     0
178
     0
  0
ENDTAB
  0
ENDSEC
  0
SECTION
  2
BLOCKS
  0
BLOCK
  8
0
  2
$MODEL_SPACE
 70
     0
 10
0.0
 20
0.0
 30
0.0
  3
$MODEL_SPACE
  1

  0
ENDBLK
  5
E
  8
0
  0
BLOCK
 67
     1
  8
0
  2
$PAPER_SPACE
 70
     0
 10
0.0
 20
0.0
 30
0.0
  3
$PAPER_SPACE
  1

  0
ENDBLK
  5
10
 67
     1
  8
0
  0
BLOCK
  8
0
  2
CLUMP0
 70
     0
 10
0.0
 20
0.0
 30
0.0
  3
CLUMP0
  1

  0
INSERT
  5
33
  8
┌▓È_1
  2
CLUMP1
 10
0.0
 20
0.0
 30
0.0
  0
INSERT
  5
3B
  8
┌▓È_1
  2
CLUMP2
 10
0.0
 20
0.0
 30
0.0
  0
ENDBLK
  5
42
  8
0
  0
BLOCK
  8
0
  2
CLUMP1
 70
     0
 10
0.0
 20
0.0
 30
0.0
  3
CLUMP1
  1

  0
ARC
  5
35
  8
┌▓È_1
 10
206.60094771319999
 20
205.56500711699999
 30
0.0
 40
3.5
 50
90.0
 51
270.0
  0
LINE
  5
36
  8
┌▓È_1
 10
221.60094771319999
 20
209.06500711699999
 30
0.0
 11
206.60094771319999
 21
209.06500711699999
 31
0.0
  0
LINE
  5
37
  8
┌▓È_1
 10
206.60094771319999
 20
202.06500711699999
 30
0.0
 11
221.60094771319999
 21
202.06500711699999
 31
0.0
  0
ARC
  5
38
  8
┌▓È_1
 10
221.60094771319999
 20
205.56500711699999
 30
0.0
 40
3.5
 50
270.0
 51
90.0
  0
ENDBLK
  5
39
  8
0
  0
BLOCK
  8
0
  2
CLUMP2
 70
     0
 10
0.0
 20
0.0
 30
0.0
  3
CLUMP2
  1

  0
ARC
  5
3D
  8
┌▓È_1
 10
206.60094771319999
 20
220.56500711699999
 30
0.0
 40
3.5
 50
90.0
 51
270.0
  0
LINE
  5
3E
  8
┌▓È_1
 10
221.60094771319999
 20
224.06500711699999
 30
0.0
 11
206.60094771319999
 21
224.06500711699999
 31
0.0
  0
LINE
  5
3F
  8
┌▓È_1
 10
206.60094771319999
 20
217.06500711699999
 30
0.0
 11
221.60094771319999
 21
217.06500711699999
 31
0.0
  0
ARC
  5
40
  8
┌▓È_1
 10
221.60094771319999
 20
220.56500711699999
 30
0.0
 40
3.5
 50
270.0
 51
90.0
  0
ENDBLK
  5
41
  8
0
  0
BLOCK
  8
0
  2
CLUMP3
 70
     0
 10
0.0
 20
0.0
 30
0.0
  3
CLUMP3
  1

  0
ARC
  5
46
  8
┌▓È_1
 10
206.60094771319999
 20
127.56500711699999
 30
0.0
 40
3.5
 50
90.0
 51
270.0
  0
LINE
  5
47
  8
┌▓È_1
 10
221.60094771319999
 20
124.06500711699999
 30
0.0
 11
206.60094771319999
 21
124.06500711699999
 31
0.0
  0
LINE
  5
48
  8
┌▓È_1
 10
206.60094771319999
 20
131.06500711699999
 30
0.0
 11
221.60094771319999
 21
131.06500711699999
 31
0.0
  0
ARC
  5
49
  8
┌▓È_1
 10
221.60094771319999
 20
127.56500711699999
 30
0.0
 40
3.5
 50
270.0
 51
90.0
  0
ENDBLK
  5
4A
  8
0
  0
BLOCK
  8
0
  2
CLUMP4
 70
     0
 10
0.0
 20
0.0
 30
0.0
  3
CLUMP4
  1

  0
ARC
  5
4E
  8
┌▓È_1
 10
206.60094771319999
 20
142.56500711699999
 30
0.0
 40
3.5
 50
90.0
 51
270.0
  0
LINE
  5
4F
  8
┌▓È_1
 10
221.60094771319999
 20
139.06500711699999
 30
0.0
 11
206.60094771319999
 21
139.06500711699999
 31
0.0
  0
LINE
  5
50
  8
┌▓È_1
 10
206.60094771319999
 20
146.06500711699999
 30
0.0
 11
221.60094771319999
 21
146.06500711699999
 31
0.0
  0
ARC
  5
51
  8
┌▓È_1
 10
221.60094771319999
 20
142.56500711699999
 30
0.0
 40
3.5
 50
270.0
 51
90.0
  0
ENDBLK
  5
52
  8
0
  0
BLOCK
  8
0
  2
CLUMP5
 70
     0
 10
0.0
 20
0.0
 30
0.0
  3
CLUMP5
  1

  0
INSERT
  5
5E
  8
┌▓È_1
  2
CLUMP6
 10
0.0
 20
0.0
 30
0.0
  0
INSERT
  5
66
  8
┌▓È_1
  2
CLUMP7
 10
0.0
 20
0.0
 30
0.0
  0
ENDBLK
  5
6D
  8
0
  0
BLOCK
  8
0
  2
CLUMP6
 70
     0
 10
0.0
 20
0.0
 30
0.0
  3
CLUMP6
  1

  0
ARC
  5
60
  8
┌▓È_1
 10
131.60094771319999
 20
205.56500711699999
 30
0.0
 40
3.5
 50
90.0
 51
270.0
  0
LINE
  5
61
  8
┌▓È_1
 10
146.60094771319999
 20
209.06500711699999
 30
0.0
 11
131.60094771319999
 21
209.06500711699999
 31
0.0
  0
LINE
  5
62
  8
┌▓È_1
 10
131.60094771319999
 20
202.06500711699999
 30
0.0
 11
146.60094771319999
 21
202.06500711699999
 31
0.0
  0
ARC
  5
63
  8
┌▓È_1
 10
146.60094771319999
 20
205.56500711699999
 30
0.0
 40
3.5
 50
270.0
 51
90.0
  0
ENDBLK
  5
64
  8
0
  0
BLOCK
  8
0
  2
CLUMP7
 70
     0
 10
0.0
 20
0.0
 30
0.0
  3
CLUMP7
  1

  0
ARC
  5
68
  8
┌▓È_1
 10
131.60094771319999
 20
220.56500711699999
 30
0.0
 40
3.5
 50
90.0
 51
270.0
  0
LINE
  5
69
  8
┌▓È_1
 10
146.60094771319999
 20
224.06500711699999
 30
0.0
 11
131.60094771319999
 21
224.06500711699999
 31
0.0
  0
LINE
  5
6A
  8
┌▓È_1
 10
131.60094771319999
 20
217.06500711699999
 30
0.0
 11
146.60094771319999
 21
217.06500711699999
 31
0.0
  0
ARC
  5
6B
  8
┌▓È_1
 10
146.60094771319999
 20
220.56500711699999
 30
0.0
 40
3.5
 50
270.0
 51
90.0
  0
ENDBLK
  5
6C
  8
0
  0
BLOCK
  8
0
  2
CLUMP8
 70
     0
 10
0.0
 20
0.0
 30
0.0
  3
CLUMP8
  1

  0
ARC
  5
78
  8
┌▓È_1
 10
56.6009477132
 20
127.56500711699999
 30
0.0
 40
3.5
 50
90.0
 51
270.0
  0
LINE
  5
79
  8
┌▓È_1
 10
71.6009477132
 20
124.06500711699999
 30
0.0
 11
56.6009477132
 21
124.06500711699999
 31
0.0
  0
LINE
  5
7A
  8
┌▓È_1
 10
56.6009477132
 20
131.06500711699999
 30
0.0
 11
71.6009477132
 21
131.06500711699999
 31
0.0
  0
ARC
  5
7B
  8
┌▓È_1
 10
71.6009477132
 20
127.56500711699999
 30
0.0
 40
3.5
 50
270.0
 51
90.0
  0
ENDBLK
  5
7C
  8
0
  0
BLOCK
  8
0
  2
CLUMP9
 70
     0
 10
0.0
 20
0.0
 30
0.0
  3
CLUMP9
  1

  0
ARC
  5
80
  8
┌▓È_1
 10
56.6009477132
 20
142.56500711699999
 30
0.0
 40
3.5
 50
90.0
 51
270.0
  0
LINE
  5
81
  8
┌▓È_1
 10
71.6009477132
 20
139.06500711699999
 30
0.0
 11
56.6009477132
 21
139.06500711699999
 31
0.0
  0
LINE
  5
82
  8
┌▓È_1
 10
56.6009477132
 20
146.06500711699999
 30
0.0
 11
71.6009477132
 21
146.06500711699999
 31
0.0
  0
ARC
  5
83
  8
┌▓È_1
 10
71.6009477132
 20
142.56500711699999
 30
0.0
 40
3.5
 50
270.0
 51
90.0
  0
ENDBLK
  5
84
  8
0
  0
BLOCK
  8
0
  2
CLUMP10
 70
     0
 10
0.0
 20
0.0
 30
0.0
  3
CLUMP10
  1

  0
INSERT
  5
89
  8
┌▓È_1
  2
CLUMP11
 10
0.0
 20
0.0
 30
0.0
  0
INSERT
  5
91
  8
┌▓È_1
  2
CLUMP12
 10
0.0
 20
0.0
 30
0.0
  0
ENDBLK
  5
98
  8
0
  0
BLOCK
  8
0
  2
CLUMP11
 70
     0
 10
0.0
 20
0.0
 30
0.0
  3
CLUMP11
  1

  0
ARC
  5
8B
  8
┌▓È_1
 10
56.6009477132
 20
205.56500711699999
 30
0.0
 40
3.5
 50
90.0
 51
270.0
  0
LINE
  5
8C
  8
┌▓È_1
 10
71.6009477132
 20
209.06500711699999
 30
0.0
 11
56.6009477132
 21
209.06500711699999
 31
0.0
  0
LINE
  5
8D
  8
┌▓È_1
 10
56.6009477132
 20
202.06500711699999
 30
0.0
 11
71.6009477132
 21
202.06500711699999
 31
0.0
  0
ARC
  5
8E
  8
┌▓È_1
 10
71.6009477132
 20
205.56500711699999
 30
0.0
 40
3.5
 50
270.0
 51
90.0
  0
ENDBLK
  5
8F
  8
0
  0
BLOCK
  8
0
  2
CLUMP12
 70
     0
 10
0.0
 20
0.0
 30
0.0
  3
CLUMP12
  1

  0
ARC
  5
93
  8
┌▓È_1
 10
56.6009477132
 20
220.56500711699999
 30
0.0
 40
3.5
 50
90.0
 51
270.0
  0
LINE
  5
94
  8
┌▓È_1
 10
71.6009477132
 20
224.06500711699999
 30
0.0
 11
56.6009477132
 21
224.06500711699999
 31
0.0
  0
LINE
  5
95
  8
┌▓È_1
 10
56.6009477132
 20
217.06500711699999
 30
0.0
 11
71.6009477132
 21
217.06500711699999
 31
0.0
  0
ARC
  5
96
  8
┌▓È_1
 10
71.6009477132
 20
220.56500711699999
 30
0.0
 40
3.5
 50
270.0
 51
90.0
  0
ENDBLK
  5
97
  8
0
  0
BLOCK
  8
0
  2
CLUMP13
 70
     0
 10
0.0
 20
0.0
 30
0.0
  3
CLUMP13
  1

  0
ARC
  5
A6
  8
┌▓È_1
 10
260.77086307529999
 20
-187.95893499429999
 30
0.0
 40
3.5
 50
90.0
 51
270.0
  0
LINE
  5
A7
  8
┌▓È_1
 10
275.77086307529999
 20
-191.45893499429999
 30
0.0
 11
260.77086307529999
 21
-191.45893499429999
 31
0.0
  0
LINE
  5
A8
  8
┌▓È_1
 10
260.77086307529999
 20
-184.45893499429999
 30
0.0
 11
275.77086307529999
 21
-184.45893499429999
 31
0.0
  0
ARC
  5
A9
  8
┌▓È_1
 10
275.77086307529999
 20
-187.95893499429999
 30
0.0
 40
3.5
 50
270.0
 51
90.0
  0
ENDBLK
  5
AA
  8
0
  0
BLOCK
  8
0
  2
CLUMP14
 70
     0
 10
0.0
 20
0.0
 30
0.0
  3
CLUMP14
  1

  0
ARC
  5
AE
  8
┌▓È_1
 10
35.770863075299999
 20
-172.95893499429999
 30
0.0
 40
3.5
 50
90.0
 51
270.0
  0
LINE
  5
AF
  8
┌▓È_1
 10
50.770863075299999
 20
-176.45893499429999
 30
0.0
 11
35.770863075299999
 21
-176.45893499429999
 31
0.0
  0
LINE
  5
B0
  8
┌▓È_1
 10
35.770863075299999
 20
-169.45893499429999
 30
0.0
 11
50.770863075299999
 21
-169.45893499429999
 31
0.0
  0
ARC
  5
B1
  8
┌▓È_1
 10
50.770863075299999
 20
-172.95893499429999
 30
0.0
 40
3.5
 50
270.0
 51
90.0
  0
ENDBLK
  5
B2
  8
0
  0
BLOCK
  8
0
  2
CLUMP15
 70
     0
 10
0.0
 20
0.0
 30
0.0
  3
CLUMP15
  1

  0
INSERT
  5
B7
  8
┌▓È_1
  2
CLUMP16
 10
0.0
 20
0.0
 30
0.0
  0
INSERT
  5
BF
  8
┌▓È_1
  2
CLUMP17
 10
0.0
 20
0.0
 30
0.0
  0
ENDBLK
  5
C6
  8
0
  0
BLOCK
  8
0
  2
CLUMP16
 70
     0
 10
0.0
 20
0.0
 30
0.0
  3
CLUMP16
  1

  0
ARC
  5
B9
  8
┌▓È_1
 10
35.770863075299999
 20
-109.95893499429999
 30
0.0
 40
3.5
 50
90.0
 51
270.0
  0
LINE
  5
BA
  8
┌▓È_1
 10
50.770863075299999
 20
-106.45893499429999
 30
0.0
 11
35.770863075299999
 21
-106.45893499429999
 31
0.0
  0
LINE
  5
BB
  8
┌▓È_1
 10
35.770863075299999
 20
-113.45893499429999
 30
0.0
 11
50.770863075299999
 21
-113.45893499429999
 31
0.0
  0
ARC
  5
BC
  8
┌▓È_1
 10
50.770863075299999
 20
-109.95893499429999
 30
0.0
 40
3.5
 50
270.0
 51
90.0
  0
ENDBLK
  5
BD
  8
0
  0
BLOCK
  8
0
  2
CLUMP17
 70
     0
 10
0.0
 20
0.0
 30
0.0
  3
CLUMP17
  1

  0
ARC
  5
C1
  8
┌▓È_1
 10
35.770863075299999
 20
-94.958934994300009
 30
0.0
 40
3.5
 50
90.0
 51
270.0
  0
LINE
  5
C2
  8
┌▓È_1
 10
50.770863075299999
 20
-91.458934994299995
 30
0.0
 11
35.770863075299999
 21
-91.458934994299995
 31
0.0
  0
LINE
  5
C3
  8
┌▓È_1
 10
35.770863075299999
 20
-98.458934994300009
 30
0.0
 11
50.770863075299999
 21
-98.458934994300009
 31
0.0
  0
ARC
  5
C4
  8
┌▓È_1
 10
50.770863075299999
 20
-94.958934994300009
 30
0.0
 40
3.5
 50
270.0
 51
90.0
  0
ENDBLK
  5
C5
  8
0
  0
BLOCK
  8
0
  2
CLUMP18
 70
     0
 10
0.0
 20
0.0
 30
0.0
  3
CLUMP18
  1

  0
ARC
  5
CA
  8
┌▓È_1
 10
35.770863075299999
 20
-187.95893499429999
 30
0.0
 40
3.5
 50
90.0
 51
270.0
  0
LINE
  5
CB
  8
┌▓È_1
 10
50.770863075299999
 20
-191.45893499429999
 30
0.0
 11
35.770863075299999
 21
-191.45893499429999
 31
0.0
  0
LINE
  5
CC
  8
┌▓È_1
 10
35.770863075299999
 20
-184.45893499429999
 30
0.0
 11
50.770863075299999
 21
-184.45893499429999
 31
0.0
  0
ARC
  5
CD
  8
┌▓È_1
 10
50.770863075299999
 20
-187.95893499429999
 30
0.0
 40
3.5
 50
270.0
 51
90.0
  0
ENDBLK
  5
CE
  8
0
  0
BLOCK
  8
0
  2
CLUMP19
 70
     0
 10
0.0
 20
0.0
 30
0.0
  3
CLUMP19
  1

  0
ARC
  5
D2
  8
┌▓È_1
 10
260.77086307529999
 20
-172.95893499429999
 30
0.0
 40
3.5
 50
90.0
 51
270.0
  0
LINE
  5
D3
  8
┌▓È_1
 10
275.77086307529999
 20
-176.45893499429999
 30
0.0
 11
260.77086307529999
 21
-176.45893499429999
 31
0.0
  0
LINE
  5
D4
  8
┌▓È_1
 10
260.77086307529999
 20
-169.45893499429999
 30
0.0
 11
275.77086307529999
 21
-169.45893499429999
 31
0.0
  0
ARC
  5
D5
  8
┌▓È_1
 10
275.77086307529999
 20
-172.95893499429999
 30
0.0
 40
3.5
 50
270.0
 51
90.0
  0
ENDBLK
  5
D6
  8
0
  0
BLOCK
  8
0
  2
CLUMP20
 70
     0
 10
0.0
 20
0.0
 30
0.0
  3
CLUMP20
  1

  0
ARC
  5
DF
  8
┌▓È_1
 10
110.7708630753
 20
-187.95893499429999
 30
0.0
 40
3.5
 50
90.0
 51
270.0
  0
LINE
  5
E0
  8
┌▓È_1
 10
125.7708630753
 20
-191.45893499429999
 30
0.0
 11
110.7708630753
 21
-191.45893499429999
 31
0.0
  0
LINE
  5
E1
  8
┌▓È_1
 10
110.7708630753
 20
-184.45893499429999
 30
0.0
 11
125.7708630753
 21
-184.45893499429999
 31
0.0
  0
ARC
  5
E2
  8
┌▓È_1
 10
125.7708630753
 20
-187.95893499429999
 30
0.0
 40
3.5
 50
270.0
 51
90.0
  0
ENDBLK
  5
E3
  8
0
  0
BLOCK
  8
0
  2
CLUMP21
 70
     0
 10
0.0
 20
0.0
 30
0.0
  3
CLUMP21
  1

  0
ARC
  5
E7
  8
┌▓È_1
 10
110.7708630753
 20
-172.95893499429999
 30
0.0
 40
3.5
 50
90.0
 51
270.0
  0
LINE
  5
E8
  8
┌▓È_1
 10
125.7708630753
 20
-176.45893499429999
 30
0.0
 11
110.7708630753
 21
-176.45893499429999
 31
0.0
  0
LINE
  5
E9
  8
┌▓È_1
 10
110.7708630753
 20
-169.45893499429999
 30
0.0
 11
125.7708630753
 21
-169.45893499429999
 31
0.0
  0
ARC
  5
EA
  8
┌▓È_1
 10
125.7708630753
 20
-172.95893499429999
 30
0.0
 40
3.5
 50
270.0
 51
90.0
  0
ENDBLK
  5
EB
  8
0
  0
BLOCK
  8
0
  2
*D22
 70
     1
 10
0.0
 20
0.0
 30
0.0
  3
*D22
  1

  0
TEXT
  5
F0
  8
0
 62
     0
 10
224.95002986919999
 20
-233.21210138379999
 30
0.0
 40
9.8954164504999991
  1
75
  0
LINE
  5
F1
  8
0
 62
     0
 10
193.27086307530001
 20
-193.45893499429999
 30
0.0
 11
193.27086307530001
 21
-236.95835134559999
 31
0.0
  0
LINE
  5
F2
  8
0
 62
     0
 10
268.27086307529999
 20
-193.45893499429999
 30
0.0
 11
268.27086307529999
 21
-236.95835134559999
 31
0.0
  0
LINE
  5
F3
  8
0
 62
     0
 10
193.27086307530001
 20
-235.95835134559999
 30
0.0
 11
242.4125294877
 21
-235.95835134559999
 31
0.0
  0
LINE
  5
F4
  8
0
 62
     0
 10
193.27086307530001
 20
-235.95835134559999
 30
0.0
 11
219.12919666299999
 21
-235.95835134559999
 31
0.0
  0
LINE
  5
F5
  8
0
 62
     0
 10
268.27086307529999
 20
-235.95835134559999
 30
0.0
 11
242.4125294877
 21
-235.95835134559999
 31
0.0
  0
LINE
  5
F6
  8
0
 62
     0
 10
268.27086307529999
 20
-235.95835134559999
 30
0.0
 11
219.12919666299999
 21
-235.95835134559999
 31
0.0
  0
LINE
  5
F7
  8
0
 62
     0
 10
268.27086307529999
 20
-235.95835134559999
 30
0.0
 11
258.27086307529999
 21
-235.95835134559999
 31
0.0
  0
SOLID
  5
F8
  8
0
 62
     0
 10
268.27086307529999
 20
-235.95835134559999
 30
0.0
 11
259.27086307529999
 21
-238.20835134559999
 31
0.0
 12
259.27086307529999
 22
-233.70835134559999
 32
0.0
 13
261.52086307529999
 23
-235.95835134559999
 33
0.0
  0
LINE
  5
F9
  8
0
 62
     0
 10
193.27086307530001
 20
-235.95835134559999
 30
0.0
 11
203.27086307530001
 21
-235.95835134559999
 31
0.0
  0
SOLID
  5
FA
  8
0
 62
     0
 10
193.27086307530001
 20
-235.95835134559999
 30
0.0
 11
202.27086307530001
 21
-233.70835134559999
 31
0.0
 12
202.27086307530001
 22
-238.20835134559999
 32
0.0
 13
200.02086307530001
 23
-235.95835134559999
 33
0.0
  0
ENDBLK
  5
FB
  8
0
  0
BLOCK
  8
0
  2
*D23
 70
     1
 10
0.0
 20
0.0
 30
0.0
  3
*D23
  1

  0
TEXT
  5
100
  8
0
 62
     0
 10
149.95002986919999
 20
-233.21210138379999
 30
0.0
 40
9.8954164504999991
  1
75
  0
LINE
  5
101
  8
0
 62
     0
 10
118.2708630753
 20
-193.45893499429999
 30
0.0
 11
118.2708630753
 21
-236.95835134559999
 31
0.0
  0
LINE
  5
102
  8
0
 62
     0
 10
193.27086307530001
 20
-193.45893499429999
 30
0.0
 11
193.27086307530001
 21
-236.95835134559999
 31
0.0
  0
LINE
  5
103
  8
0
 62
     0
 10
118.2708630753
 20
-235.95835134559999
 30
0.0
 11
167.4125294877
 21
-235.95835134559999
 31
0.0
  0
LINE
  5
104
  8
0
 62
     0
 10
118.2708630753
 20
-235.95835134559999
 30
0.0
 11
144.12919666299999
 21
-235.95835134559999
 31
0.0
  0
LINE
  5
105
  8
0
 62
     0
 10
193.27086307530001
 20
-235.95835134559999
 30
0.0
 11
167.4125294877
 21
-235.95835134559999
 31
0.0
  0
LINE
  5
106
  8
0
 62
     0
 10
193.27086307530001
 20
-235.95835134559999
 30
0.0
 11
144.12919666299999
 21
-235.95835134559999
 31
0.0
  0
LINE
  5
107
  8
0
 62
     0
 10
193.27086307530001
 20
-235.95835134559999
 30
0.0
 11
183.27086307530001
 21
-235.95835134559999
 31
0.0
  0
SOLID
  5
108
  8
0
 62
     0
 10
193.27086307530001
 20
-235.95835134559999
 30
0.0
 11
184.27086307530001
 21
-238.20835134559999
 31
0.0
 12
184.27086307530001
 22
-233.70835134559999
 32
0.0
 13
186.52086307530001
 23
-235.95835134559999
 33
0.0
  0
LINE
  5
109
  8
0
 62
     0
 10
118.2708630753
 20
-235.95835134559999
 30
0.0
 11
128.27086307530001
 21
-235.95835134559999
 31
0.0
  0
SOLID
  5
10A
  8
0
 62
     0
 10
118.2708630753
 20
-235.95835134559999
 30
0.0
 11
127.2708630753
 21
-233.70835134559999
 31
0.0
 12
127.2708630753
 22
-238.20835134559999
 32
0.0
 13
125.0208630753
 23
-235.95835134559999
 33
0.0
  0
ENDBLK
  5
10B
  8
0
  0
BLOCK
  8
0
  2
*D24
 70
     1
 10
0.0
 20
0.0
 30
0.0
  3
*D24
  1

  0
TEXT
  5
10F
  8
0
 62
     0
 10
74.950029869199994
 20
-233.21210138379999
 30
0.0
 40
9.8954164504999991
  1
75
  0
LINE
  5
110
  8
0
 62
     0
 10
43.270863075299999
 20
-193.45893499429999
 30
0.0
 11
43.270863075299999
 21
-236.95835134559999
 31
0.0
  0
LINE
  5
111
  8
0
 62
     0
 10
118.2708630753
 20
-193.45893499429999
 30
0.0
 11
118.2708630753
 21
-236.95835134559999
 31
0.0
  0
LINE
  5
112
  8
0
 62
     0
 10
43.270863075299999
 20
-235.95835134559999
 30
0.0
 11
92.412529487699999
 21
-235.95835134559999
 31
0.0
  0
LINE
  5
113
  8
0
 62
     0
 10
43.270863075299999
 20
-235.95835134559999
 30
0.0
 11
69.129196663000002
 21
-235.95835134559999
 31
0.0
  0
LINE
  5
114
  8
0
 62
     0
 10
118.2708630753
 20
-235.95835134559999
 30
0.0
 11
92.412529487699999
 21
-235.95835134559999
 31
0.0
  0
LINE
  5
115
  8
0
 62
     0
 10
118.2708630753
 20
-235.95835134559999
 30
0.0
 11
69.129196663000002
 21
-235.95835134559999
 31
0.0
  0
LINE
  5
116
  8
0
 62
     0
 10
118.2708630753
 20
-235.95835134559999
 30
0.0
 11
108.2708630753
 21
-235.95835134559999
 31
0.0
  0
SOLID
  5
117
  8
0
 62
     0
 10
118.2708630753
 20
-235.95835134559999
 30
0.0
 11
109.2708630753
 21
-238.20835134559999
 31
0.0
 12
109.2708630753
 22
-233.70835134559999
 32
0.0
 13
111.5208630753
 23
-235.95835134559999
 33
0.0
  0
LINE
  5
118
  8
0
 62
     0
 10
43.270863075299999
 20
-235.95835134559999
 30
0.0
 11
53.270863075299999
 21
-235.95835134559999
 31
0.0
  0
SOLID
  5
119
  8
0
 62
     0
 10
43.270863075299999
 20
-235.95835134559999
 30
0.0
 11
52.270863075299999
 21
-233.70835134559999
 31
0.0
 12
52.270863075299999
 22
-238.20835134559999
 32
0.0
 13
50.020863075299992
 23
-235.95835134559999
 33
0.0
  0
ENDBLK
  5
11A
  8
0
  0
BLOCK
  8
0
  2
CLUMP22
 70
     0
 10
0.0
 20
0.0
 30
0.0
  3
CLUMP22
  1

  0
ARC
  5
11F
  8
┌▓È_1
 10
131.60094771319999
 20
127.56500711699999
 30
0.0
 40
3.5
 50
90.0
 51
270.0
  0
LINE
  5
120
  8
┌▓È_1
 10
146.60094771319999
 20
124.06500711699999
 30
0.0
 11
131.60094771319999
 21
124.06500711699999
 31
0.0
  0
LINE
  5
121
  8
┌▓È_1
 10
131.60094771319999
 20
131.06500711699999
 30
0.0
 11
146.60094771319999
 21
131.06500711699999
 31
0.0
  0
ARC
  5
122
  8
┌▓È_1
 10
146.60094771319999
 20
127.56500711699999
 30
0.0
 40
3.5
 50
270.0
 51
90.0
  0
ENDBLK
  5
123
  8
0
  0
BLOCK
  8
0
  2
CLUMP23
 70
     0
 10
0.0
 20
0.0
 30
0.0
  3
CLUMP23
  1

  0
ARC
  5
127
  8
┌▓È_1
 10
131.60094771319999
 20
142.56500711699999
 30
0.0
 40
3.5
 50
90.0
 51
270.0
  0
LINE
  5
128
  8
┌▓È_1
 10
146.60094771319999
 20
139.06500711699999
 30
0.0
 11
131.60094771319999
 21
139.06500711699999
 31
0.0
  0
LINE
  5
129
  8
┌▓È_1
 10
131.60094771319999
 20
146.06500711699999
 30
0.0
 11
146.60094771319999
 21
146.06500711699999
 31
0.0
  0
ARC
  5
12A
  8
┌▓È_1
 10
146.60094771319999
 20
142.56500711699999
 30
0.0
 40
3.5
 50
270.0
 51
90.0
  0
ENDBLK
  5
12B
  8
0
  0
BLOCK
  8
0
  2
CLUMP24
 70
     0
 10
0.0
 20
0.0
 30
0.0
  3
CLUMP24
  1

  0
INSERT
  5
130
  8
┌▓È_1
  2
CLUMP25
 10
0.0
 20
0.0
 30
0.0
  0
INSERT
  5
138
  8
┌▓È_1
  2
CLUMP26
 10
0.0
 20
0.0
 30
0.0
  0
ENDBLK
  5
13F
  8
0
  0
BLOCK
  8
0
  2
CLUMP25
 70
     0
 10
0.0
 20
0.0
 30
0.0
  3
CLUMP25
  1

  0
ARC
  5
132
  8
┌▓È_1
 10
-243.39905228680001
 20
205.56500711699999
 30
0.0
 40
3.5
 50
90.0
 51
270.0
  0
LINE
  5
133
  8
┌▓È_1
 10
-228.39905228680001
 20
209.06500711699999
 30
0.0
 11
-243.39905228680001
 21
209.06500711699999
 31
0.0
  0
LINE
  5
134
  8
┌▓È_1
 10
-243.39905228680001
 20
202.06500711699999
 30
0.0
 11
-228.39905228680001
 21
202.06500711699999
 31
0.0
  0
ARC
  5
135
  8
┌▓È_1
 10
-228.39905228680001
 20
205.56500711699999
 30
0.0
 40
3.5
 50
270.0
 51
90.0
  0
ENDBLK
  5
136
  8
0
  0
BLOCK
  8
0
  2
CLUMP26
 70
     0
 10
0.0
 20
0.0
 30
0.0
  3
CLUMP26
  1

  0
ARC
  5
13A
  8
┌▓È_1
 10
-243.39905228680001
 20
220.56500711699999
 30
0.0
 40
3.5
 50
90.0
 51
270.0
  0
LINE
  5
13B
  8
┌▓È_1
 10
-228.39905228680001
 20
224.06500711699999
 30
0.0
 11
-243.39905228680001
 21
224.06500711699999
 31
0.0
  0
LINE
  5
13C
  8
┌▓È_1
 10
-243.39905228680001
 20
217.06500711699999
 30
0.0
 11
-228.39905228680001
 21
217.06500711699999
 31
0.0
  0
ARC
  5
13D
  8
┌▓È_1
 10
-228.39905228680001
 20
220.56500711699999
 30
0.0
 40
3.5
 50
270.0
 51
90.0
  0
ENDBLK
  5
13E
  8
0
  0
BLOCK
  8
0
  2
CLUMP27
 70
     0
 10
0.0
 20
0.0
 30
0.0
  3
CLUMP27
  1

  0
ARC
  5
143
  8
┌▓È_1
 10
-243.39905228680001
 20
127.56500711699999
 30
0.0
 40
3.5
 50
90.0
 51
270.0
  0
LINE
  5
144
  8
┌▓È_1
 10
-228.39905228680001
 20
124.06500711699999
 30
0.0
 11
-243.39905228680001
 21
124.06500711699999
 31
0.0
  0
LINE
  5
145
  8
┌▓È_1
 10
-243.39905228680001
 20
131.06500711699999
 30
0.0
 11
-228.39905228680001
 21
131.06500711699999
 31
0.0
  0
ARC
  5
146
  8
┌▓È_1
 10
-228.39905228680001
 20
127.56500711699999
 30
0.0
 40
3.5
 50
270.0
 51
90.0
  0
ENDBLK
  5
147
  8
0
  0
BLOCK
  8
0
  2
CLUMP28
 70
     0
 10
0.0
 20
0.0
 30
0.0
  3
CLUMP28
  1

  0
ARC
  5
14F
  8
┌▓È_1
 10
-168.39905228680001
 20
142.56500711699999
 30
0.0
 40
3.5
 50
90.0
 51
270.0
  0
LINE
  5
150
  8
┌▓È_1
 10
-153.39905228680001
 20
139.06500711699999
 30
0.0
 11
-168.39905228680001
 21
139.06500711699999
 31
0.0
  0
LINE
  5
151
  8
┌▓È_1
 10
-168.39905228680001
 20
146.06500711699999
 30
0.0
 11
-153.39905228680001
 21
146.06500711699999
 31
0.0
  0
ARC
  5
152
  8
┌▓È_1
 10
-153.39905228680001
 20
142.56500711699999
 30
0.0
 40
3.5
 50
270.0
 51
90.0
  0
ENDBLK
  5
153
  8
0
  0
BLOCK
  8
0
  2
CLUMP29
 70
     0
 10
0.0
 20
0.0
 30
0.0
  3
CLUMP29
  1

  0
INSERT
  5
158
  8
┌▓È_1
  2
CLUMP30
 10
0.0
 20
0.0
 30
0.0
  0
INSERT
  5
160
  8
┌▓È_1
  2
CLUMP31
 10
0.0
 20
0.0
 30
0.0
  0
ENDBLK
  5
167
  8
0
  0
BLOCK
  8
0
  2
CLUMP30
 70
     0
 10
0.0
 20
0.0
 30
0.0
  3
CLUMP30
  1

  0
ARC
  5
15A
  8
┌▓È_1
 10
-93.399052286800014
 20
205.56500711699999
 30
0.0
 40
3.5
 50
90.0
 51
270.0
  0
LINE
  5
15B
  8
┌▓È_1
 10
-78.3990522868
 20
209.06500711699999
 30
0.0
 11
-93.399052286800014
 21
209.06500711699999
 31
0.0
  0
LINE
  5
15C
  8
┌▓È_1
 10
-93.399052286800014
 20
202.06500711699999
 30
0.0
 11
-78.3990522868
 21
202.06500711699999
 31
0.0
  0
ARC
  5
15D
  8
┌▓È_1
 10
-78.3990522868
 20
205.56500711699999
 30
0.0
 40
3.5
 50
270.0
 51
90.0
  0
ENDBLK
  5
15E
  8
0
  0
BLOCK
  8
0
  2
CLUMP31
 70
     0
 10
0.0
 20
0.0
 30
0.0
  3
CLUMP31
  1

  0
ARC
  5
162
  8
┌▓È_1
 10
-93.399052286800014
 20
220.56500711699999
 30
0.0
 40
3.5
 50
90.0
 51
270.0
  0
LINE
  5
163
  8
┌▓È_1
 10
-78.3990522868
 20
224.06500711699999
 30
0.0
 11
-93.399052286800014
 21
224.06500711699999
 31
0.0
  0
LINE
  5
164
  8
┌▓È_1
 10
-93.399052286800014
 20
217.06500711699999
 30
0.0
 11
-78.3990522868
 21
217.06500711699999
 31
0.0
  0
ARC
  5
165
  8
┌▓È_1
 10
-78.3990522868
 20
220.56500711699999
 30
0.0
 40
3.5
 50
270.0
 51
90.0
  0
ENDBLK
  5
166
  8
0
  0
BLOCK
  8
0
  2
CLUMP32
 70
     0
 10
0.0
 20
0.0
 30
0.0
  3
CLUMP32
  1

  0
ARC
  5
16B
  8
┌▓È_1
 10
-93.399052286800014
 20
127.56500711699999
 30
0.0
 40
3.5
 50
90.0
 51
270.0
  0
LINE
  5
16C
  8
┌▓È_1
 10
-78.3990522868
 20
124.06500711699999
 30
0.0
 11
-93.399052286800014
 21
124.06500711699999
 31
0.0
  0
LINE
  5
16D
  8
┌▓È_1
 10
-93.399052286800014
 20
131.06500711699999
 30
0.0
 11
-78.3990522868
 21
131.06500711699999
 31
0.0
  0
ARC
  5
16E
  8
┌▓È_1
 10
-78.3990522868
 20
127.56500711699999
 30
0.0
 40
3.5
 50
270.0
 51
90.0
  0
ENDBLK
  5
16F
  8
0
  0
BLOCK
  8
0
  2
*D36
 70
     1
 10
0.0
 20
0.0
 30
0.0
  3
*D36
  1

  0
TEXT
  5
178
  8
0
 62
     0
 10
-270.85891680660001
 20
283.92041624839999
 30
0.0
 40
9.8954164504999991
  1
9
  0
LINE
  5
179
  8
0
 62
     0
 10
-263.44850020349998
 20
241.0651842003
 30
0.0
 11
-263.44850020349998
 21
282.1741662865
 31
0.0
  0
LINE
  5
17A
  8
0
 62
     0
 10
-272.44850020349998
 20
250.0651842003
 30
0.0
 11
-272.44850020349998
 21
282.1741662865
 31
0.0
  0
LINE
  5
17B
  8
0
 62
     0
 10
-263.44850020349998
 20
281.1741662865
 30
0.0
 11
-263.44850020349998
 21
281.1741662865
 31
0.0
  0
LINE
  5
17C
  8
0
 62
     0
 10
-263.44850020349998
 20
281.1741662865
 30
0.0
 11
-272.44850020349998
 21
281.1741662865
 31
0.0
  0
LINE
  5
17D
  8
0
 62
     0
 10
-272.44850020349998
 20
281.1741662865
 30
0.0
 11
-263.44850020349998
 21
281.1741662865
 31
0.0
  0
LINE
  5
17E
  8
0
 62
     0
 10
-272.44850020349998
 20
281.1741662865
 30
0.0
 11
-272.44850020349998
 21
281.1741662865
 31
0.0
  0
LINE
  5
17F
  8
0
 62
     0
 10
-272.44850020349998
 20
281.1741662865
 30
0.0
 11
-282.44850020349998
 21
281.1741662865
 31
0.0
  0
SOLID
  5
180
  8
0
 62
     0
 10
-272.44850020349998
 20
281.1741662865
 30
0.0
 11
-281.44850020349998
 21
278.9241662865
 31
0.0
 12
-281.44850020349998
 22
283.4241662865
 32
0.0
 13
-279.19850020349998
 23
281.1741662865
 33
0.0
  0
LINE
  5
181
  8
0
 62
     0
 10
-263.44850020349998
 20
281.1741662865
 30
0.0
 11
-253.4485002035
 21
281.1741662865
 31
0.0
  0
SOLID
  5
182
  8
0
 62
     0
 10
-263.44850020349998
 20
281.1741662865
 30
0.0
 11
-254.4485002035
 21
283.4241662865
 31
0.0
 12
-254.4485002035
 22
278.9241662865
 32
0.0
 13
-256.69850020349998
 23
281.1741662865
 33
0.0
  0
ENDBLK
  5
183
  8
0
  0
BLOCK
  8
0
  2
BALLON0
 70
     0
 10
0.0
 20
0.0
 30
0.0
  3
BALLON0
  1

  0
INSERT
  5
188
  8
0
  6
CONTINUOUS
  2
*U160
 10
0.0
 20
0.0
 30
0.0
  0
CIRCLE
  5
189
  8
┌▓È_1
 10
-142.47492553660001
 20
67.641824641200003
 30
0.0
 40
10.0
  0
LINE
  5
18A
  8
Éíû@É³
 10
-125.80825887
 20
67.641824641200003
 30
0.0
 11
-132.47492553660001
 21
67.641824641200003
 31
0.0
  0
LINE
  5
18B
  8
Éíû@É³
 10
-113.660878887
 20
133.1261996412
 30
0.0
 11
-125.80825887
 21
67.641824641200003
 31
0.0
  0
SOLID
  5
18C
  8
Éíû@É³
 10
-113.660878887
 20
133.1261996412
 30
0.0
 11
-113.51831531720001
 21
122.929157147
 31
0.0
 12
-115.1199903709
 22
125.2603879426
 32
0.0
 13
-115.1199903709
 23
125.2603879426
 33
0.0
  0
SOLID
  5
18D
  8
Éíû@É³
 10
-115.1199903709
 20
125.2603879426
 30
0.0
 11
-117.45122116650001
 21
123.6587128889
 31
0.0
 12
-113.660878887
 22
133.1261996412
 32
0.0
 13
-113.660878887
 23
133.1261996412
 33
0.0
  0
ENDBLK
  5
18E
  8
0
  0
BLOCK
  8
0
  2
BALLON1
 70
     0
 10
0.0
 20
0.0
 30
0.0
  3
BALLON1
  1

  0
INSERT
  5
192
  8
0
  6
CONTINUOUS
  2
*U161
 10
0.0
 20
0.0
 30
0.0
  0
CIRCLE
  5
193
  8
┌▓È_1
 10
-224.72031009930001
 20
67.641824641200003
 30
0.0
 40
10.0
  0
LINE
  5
194
  8
Éíû@É³
 10
-208.05364343260001
 20
67.641824641200003
 30
0.0
 11
-214.72031009930001
 21
67.641824641200003
 31
0.0
  0
LINE
  5
195
  8
Éíû@É³
 10
-188.50920939369999
 20
33.928706151599997
 30
0.0
 11
-208.05364343260001
 21
67.641824641200003
 31
0.0
  0
SOLID
  5
196
  8
Éíû@É³
 10
-188.50920939369999
 20
33.928706151599997
 30
0.0
 11
-195.25489516249999
 21
41.576955853799987
 31
0.0
 12
-192.52154464629999
 22
40.849772963899987
 32
0.0
 13
-192.52154464629999
 23
40.849772963899987
 33
0.0
  0
SOLID
  5
197
  8
Éíû@É³
 10
-192.52154464629999
 20
40.849772963899987
 30
0.0
 11
-191.79436175640001
 21
43.583123480099999
 31
0.0
 12
-188.50920939369999
 22
33.928706151599997
 32
0.0
 13
-188.50920939369999
 23
33.928706151599997
 33
0.0
  0
ENDBLK
  5
198
  8
0
  0
BLOCK
  8
0
  2
CLUMP33
 70
     0
 10
0.0
 20
0.0
 30
0.0
  3
CLUMP33
  1

  0
INSERT
  5
19E
  8
┌▓È_1
  2
CLUMP34
 10
0.0
 20
0.0
 30
0.0
  0
INSERT
  5
1A6
  8
┌▓È_1
  2
CLUMP35
 10
0.0
 20
0.0
 30
0.0
  0
ENDBLK
  5
1AD
  8
0
  0
BLOCK
  8
0
  2
CLUMP34
 70
     0
 10
0.0
 20
0.0
 30
0.0
  3
CLUMP34
  1

  0
ARC
  5
1A0
  8
┌▓È_1
 10
185.77086307530001
 20
-109.95893499429999
 30
0.0
 40
3.5
 50
90.0
 51
270.0
  0
LINE
  5
1A1
  8
┌▓È_1
 10
200.77086307530001
 20
-106.45893499429999
 30
0.0
 11
185.77086307530001
 21
-106.45893499429999
 31
0.0
  0
LINE
  5
1A2
  8
┌▓È_1
 10
185.77086307530001
 20
-113.45893499429999
 30
0.0
 11
200.77086307530001
 21
-113.45893499429999
 31
0.0
  0
ARC
  5
1A3
  8
┌▓È_1
 10
200.77086307530001
 20
-109.95893499429999
 30
0.0
 40
3.5
 50
270.0
 51
90.0
  0
ENDBLK
  5
1A4
  8
0
  0
BLOCK
  8
0
  2
CLUMP35
 70
     0
 10
0.0
 20
0.0
 30
0.0
  3
CLUMP35
  1

  0
ARC
  5
1A8
  8
┌▓È_1
 10
185.77086307530001
 20
-94.958934994300009
 30
0.0
 40
3.5
 50
90.0
 51
270.0
  0
LINE
  5
1A9
  8
┌▓È_1
 10
200.77086307530001
 20
-91.458934994299995
 30
0.0
 11
185.77086307530001
 21
-91.458934994299995
 31
0.0
  0
LINE
  5
1AA
  8
┌▓È_1
 10
185.77086307530001
 20
-98.458934994300009
 30
0.0
 11
200.77086307530001
 21
-98.458934994300009
 31
0.0
  0
ARC
  5
1AB
  8
┌▓È_1
 10
200.77086307530001
 20
-94.958934994300009
 30
0.0
 40
3.5
 50
270.0
 51
90.0
  0
ENDBLK
  5
1AC
  8
0
  0
BLOCK
  8
0
  2
CLUMP36
 70
     0
 10
0.0
 20
0.0
 30
0.0
  3
CLUMP36
  1

  0
INSERT
  5
1B2
  8
┌▓È_1
  2
CLUMP37
 10
0.0
 20
0.0
 30
0.0
  0
INSERT
  5
1BA
  8
┌▓È_1
  2
CLUMP38
 10
0.0
 20
0.0
 30
0.0
  0
ENDBLK
  5
1C1
  8
0
  0
BLOCK
  8
0
  2
CLUMP37
 70
     0
 10
0.0
 20
0.0
 30
0.0
  3
CLUMP37
  1

  0
ARC
  5
1B4
  8
┌▓È_1
 10
260.77086307529999
 20
-109.95893499429999
 30
0.0
 40
3.5
 50
90.0
 51
270.0
  0
LINE
  5
1B5
  8
┌▓È_1
 10
275.77086307529999
 20
-106.45893499429999
 30
0.0
 11
260.77086307529999
 21
-106.45893499429999
 31
0.0
  0
LINE
  5
1B6
  8
┌▓È_1
 10
260.77086307529999
 20
-113.45893499429999
 30
0.0
 11
275.77086307529999
 21
-113.45893499429999
 31
0.0
  0
ARC
  5
1B7
  8
┌▓È_1
 10
275.77086307529999
 20
-109.95893499429999
 30
0.0
 40
3.5
 50
270.0
 51
90.0
  0
ENDBLK
  5
1B8
  8
0
  0
BLOCK
  8
0
  2
CLUMP38
 70
     0
 10
0.0
 20
0.0
 30
0.0
  3
CLUMP38
  1

  0
ARC
  5
1BC
  8
┌▓È_1
 10
260.77086307529999
 20
-94.958934994300009
 30
0.0
 40
3.5
 50
90.0
 51
270.0
  0
LINE
  5
1BD
  8
┌▓È_1
 10
275.77086307529999
 20
-91.458934994299995
 30
0.0
 11
260.77086307529999
 21
-91.458934994299995
 31
0.0
  0
LINE
  5
1BE
  8
┌▓È_1
 10
260.77086307529999
 20
-98.458934994300009
 30
0.0
 11
275.77086307529999
 21
-98.458934994300009
 31
0.0
  0
ARC
  5
1BF
  8
┌▓È_1
 10
275.77086307529999
 20
-94.958934994300009
 30
0.0
 40
3.5
 50
270.0
 51
90.0
  0
ENDBLK
  5
1C0
  8
0
  0
BLOCK
  8
0
  2
CLUMP39
 70
     0
 10
0.0
 20
0.0
 30
0.0
  3
CLUMP39
  1

  0
INSERT
  5
1C6
  8
┌▓È_1
  2
CLUMP40
 10
0.0
 20
0.0
 30
0.0
  0
INSERT
  5
1CE
  8
┌▓È_1
  2
CLUMP41
 10
0.0
 20
0.0
 30
0.0
  0
ENDBLK
  5
1D5
  8
0
  0
BLOCK
  8
0
  2
CLUMP40
 70
     0
 10
0.0
 20
0.0
 30
0.0
  3
CLUMP40
  1

  0
ARC
  5
1C8
  8
┌▓È_1
 10
110.7708630753
 20
-109.95893499429999
 30
0.0
 40
3.5
 50
90.0
 51
270.0
  0
LINE
  5
1C9
  8
┌▓È_1
 10
125.7708630753
 20
-106.45893499429999
 30
0.0
 11
110.7708630753
 21
-106.45893499429999
 31
0.0
  0
LINE
  5
1CA
  8
┌▓È_1
 10
110.7708630753
 20
-113.45893499429999
 30
0.0
 11
125.7708630753
 21
-113.45893499429999
 31
0.0
  0
ARC
  5
1CB
  8
┌▓È_1
 10
125.7708630753
 20
-109.95893499429999
 30
0.0
 40
3.5
 50
270.0
 51
90.0
  0
ENDBLK
  5
1CC
  8
0
  0
BLOCK
  8
0
  2
CLUMP41
 70
     0
 10
0.0
 20
0.0
 30
0.0
  3
CLUMP41
  1

  0
ARC
  5
1D0
  8
┌▓È_1
 10
110.7708630753
 20
-94.958934994300009
 30
0.0
 40
3.5
 50
90.0
 51
270.0
  0
LINE
  5
1D1
  8
┌▓È_1
 10
125.7708630753
 20
-91.458934994299995
 30
0.0
 11
110.7708630753
 21
-91.458934994299995
 31
0.0
  0
LINE
  5
1D2
  8
┌▓È_1
 10
110.7708630753
 20
-98.458934994300009
 30
0.0
 11
125.7708630753
 21
-98.458934994300009
 31
0.0
  0
ARC
  5
1D3
  8
┌▓È_1
 10
125.7708630753
 20
-94.958934994300009
 30
0.0
 40
3.5
 50
270.0
 51
90.0
  0
ENDBLK
  5
1D4
  8
0
  0
BLOCK
  8
0
  2
CLUMP42
 70
     0
 10
0.0
 20
0.0
 30
0.0
  3
CLUMP42
  1

  0
ARC
  5
1D9
  8
┌▓È_1
 10
185.77086307530001
 20
-187.95893499429999
 30
0.0
 40
3.5
 50
90.0
 51
270.0
  0
LINE
  5
1DA
  8
┌▓È_1
 10
200.77086307530001
 20
-191.45893499429999
 30
0.0
 11
185.77086307530001
 21
-191.45893499429999
 31
0.0
  0
LINE
  5
1DB
  8
┌▓È_1
 10
185.77086307530001
 20
-184.45893499429999
 30
0.0
 11
200.77086307530001
 21
-184.45893499429999
 31
0.0
  0
ARC
  5
1DC
  8
┌▓È_1
 10
200.77086307530001
 20
-187.95893499429999
 30
0.0
 40
3.5
 50
270.0
 51
90.0
  0
ENDBLK
  5
1DD
  8
0
  0
BLOCK
  8
0
  2
CLUMP43
 70
     0
 10
0.0
 20
0.0
 30
0.0
  3
CLUMP43
  1

  0
ARC
  5
1E1
  8
┌▓È_1
 10
185.77086307530001
 20
-172.95893499429999
 30
0.0
 40
3.5
 50
90.0
 51
270.0
  0
LINE
  5
1E2
  8
┌▓È_1
 10
200.77086307530001
 20
-176.45893499429999
 30
0.0
 11
185.77086307530001
 21
-176.45893499429999
 31
0.0
  0
LINE
  5
1E3
  8
┌▓È_1
 10
185.77086307530001
 20
-169.45893499429999
 30
0.0
 11
200.77086307530001
 21
-169.45893499429999
 31
0.0
  0
ARC
  5
1E4
  8
┌▓È_1
 10
200.77086307530001
 20
-172.95893499429999
 30
0.0
 40
3.5
 50
270.0
 51
90.0
  0
ENDBLK
  5
1E5
  8
0
  0
BLOCK
  8
0
  2
*D50
 70
     1
 10
0.0
 20
0.0
 30
0.0
  3
*D50
  1

  0
TEXT
  5
1E9
  8
0
 62
     0
 10
-282.95839879660002
 20
-233.2121016991
 30
0.0
 40
9.8954164504999991
  1
26.75
  0
LINE
  5
1EA
  8
0
 62
     0
 10
-283.47898067469998
 20
-207.95835166099999
 30
0.0
 11
-283.47898067469998
 21
-236.95835166099999
 31
0.0
  0
LINE
  5
1EB
  8
0
 62
     0
 10
-256.72913692470001
 20
-193.45893499429999
 30
0.0
 11
-256.72913692470001
 21
-236.95835166099999
 31
0.0
  0
LINE
  5
1EC
  8
0
 62
     0
 10
-283.47898067469998
 20
-235.95835166099999
 30
0.0
 11
-283.47898067469998
 21
-235.95835166099999
 31
0.0
  0
LINE
  5
1ED
  8
0
 62
     0
 10
-283.47898067469998
 20
-235.95835166099999
 30
0.0
 11
-256.72913692470001
 21
-235.95835166099999
 31
0.0
  0
LINE
  5
1EE
  8
0
 62
     0
 10
-256.72913692470001
 20
-235.95835166099999
 30
0.0
 11
-283.47898067469998
 21
-235.95835166099999
 31
0.0
  0
LINE
  5
1EF
  8
0
 62
     0
 10
-256.72913692470001
 20
-235.95835166099999
 30
0.0
 11
-256.72913692470001
 21
-235.95835166099999
 31
0.0
  0
LINE
  5
1F0
  8
0
 62
     0
 10
-256.72913692470001
 20
-235.95835166099999
 30
0.0
 11
-266.72913692470001
 21
-235.95835166099999
 31
0.0
  0
SOLID
  5
1F1
  8
0
 62
     0
 10
-256.72913692470001
 20
-235.95835166099999
 30
0.0
 11
-265.72913692470001
 21
-238.20835166099999
 31
0.0
 12
-265.72913692470001
 22
-233.70835166099999
 32
0.0
 13
-263.47913692470001
 23
-235.95835166099999
 33
0.0
  0
LINE
  5
1F2
  8
0
 62
     0
 10
-283.47898067469998
 20
-235.95835166099999
 30
0.0
 11
-273.47898067469998
 21
-235.95835166099999
 31
0.0
  0
SOLID
  5
1F3
  8
0
 62
     0
 10
-283.47898067469998
 20
-235.95835166099999
 30
0.0
 11
-274.47898067469998
 21
-233.70835166099999
 31
0.0
 12
-274.47898067469998
 22
-238.20835166099999
 32
0.0
 13
-276.7289806747001
 23
-235.95835166099999
 33
0.0
  0
ENDBLK
  5
1F4
  8
0
  0
BLOCK
  8
0
  2
*D51
 70
     1
 10
0.0
 20
0.0
 30
0.0
  3
*D51
  1

  0
TEXT
  5
1F8
  8
0
 62
     0
 10
-160.97538688649999
 20
-175.8693515974
 30
0.0
 40
9.8954164504999991
  1
7
 50
90.0
  0
LINE
  5
1F9
  8
0
 62
     0
 10
-172.22913692469999
 20
-176.45893499429999
 30
0.0
 11
-157.22913692469999
 21
-176.45893499429999
 31
0.0
  0
LINE
  5
1FA
  8
0
 62
     0
 10
-172.22913692469999
 20
-169.45893499429999
 30
0.0
 11
-157.22913692469999
 21
-169.45893499429999
 31
0.0
  0
LINE
  5
1FB
  8
0
 62
     0
 10
-158.22913692469999
 20
-176.45893499429999
 30
0.0
 11
-158.22913692469999
 21
-176.45893499429999
 31
0.0
  0
LINE
  5
1FC
  8
0
 62
     0
 10
-158.22913692469999
 20
-176.45893499429999
 30
0.0
 11
-158.22913692469999
 21
-169.45893499429999
 31
0.0
  0
LINE
  5
1FD
  8
0
 62
     0
 10
-158.22913692469999
 20
-169.45893499429999
 30
0.0
 11
-158.22913692469999
 21
-176.45893499429999
 31
0.0
  0
LINE
  5
1FE
  8
0
 62
     0
 10
-158.22913692469999
 20
-169.45893499429999
 30
0.0
 11
-158.22913692469999
 21
-169.45893499429999
 31
0.0
  0
LINE
  5
1FF
  8
0
 62
     0
 10
-158.22913692469999
 20
-169.45893499429999
 30
0.0
 11
-158.22913692469999
 21
-159.45893499429999
 31
0.0
  0
SOLID
  5
200
  8
0
 62
     0
 10
-158.22913692469999
 20
-169.45893499429999
 30
0.0
 11
-160.47913692469999
 21
-160.45893499429999
 31
0.0
 12
-155.9791369246999
 22
-160.45893499429999
 32
0.0
 13
-158.22913692469999
 23
-162.70893499429999
 33
0.0
  0
LINE
  5
201
  8
0
 62
     0
 10
-158.22913692469999
 20
-176.45893499429999
 30
0.0
 11
-158.22913692469999
 21
-186.45893499429999
 31
0.0
  0
SOLID
  5
202
  8
0
 62
     0
 10
-158.22913692469999
 20
-176.45893499429999
 30
0.0
 11
-155.9791369246999
 21
-185.45893499429999
 31
0.0
 12
-160.47913692469999
 22
-185.45893499429999
 32
0.0
 13
-158.22913692469999
 23
-183.20893499429999
 33
0.0
  0
ENDBLK
  5
203
  8
0
  0
BLOCK
  8
0
  2
*D52
 70
     1
 10
0.0
 20
0.0
 30
0.0
  3
*D52
  1

  0
TEXT
  5
207
  8
0
 62
     0
 10
-150.04997013080001
 20
-233.21210138379999
 30
0.0
 40
9.8954164504999991
  1
75
  0
LINE
  5
208
  8
0
 62
     0
 10
-181.72913692469999
 20
-193.45893499429999
 30
0.0
 11
-181.72913692469999
 21
-236.95835134559999
 31
0.0
  0
LINE
  5
209
  8
0
 62
     0
 10
-106.7291369247
 20
-193.45893499429999
 30
0.0
 11
-106.7291369247
 21
-236.95835134559999
 31
0.0
  0
LINE
  5
20A
  8
0
 62
     0
 10
-181.72913692469999
 20
-235.95835134559999
 30
0.0
 11
-132.5874705123
 21
-235.95835134559999
 31
0.0
  0
LINE
  5
20B
  8
0
 62
     0
 10
-181.72913692469999
 20
-235.95835134559999
 30
0.0
 11
-155.87080333700001
 21
-235.95835134559999
 31
0.0
  0
LINE
  5
20C
  8
0
 62
     0
 10
-106.7291369247
 20
-235.95835134559999
 30
0.0
 11
-132.5874705123
 21
-235.95835134559999
 31
0.0
  0
LINE
  5
20D
  8
0
 62
     0
 10
-106.7291369247
 20
-235.95835134559999
 30
0.0
 11
-155.87080333700001
 21
-235.95835134559999
 31
0.0
  0
LINE
  5
20E
  8
0
 62
     0
 10
-106.7291369247
 20
-235.95835134559999
 30
0.0
 11
-116.7291369247
 21
-235.95835134559999
 31
0.0
  0
SOLID
  5
20F
  8
0
 62
     0
 10
-106.7291369247
 20
-235.95835134559999
 30
0.0
 11
-115.7291369247
 21
-238.20835134559999
 31
0.0
 12
-115.7291369247
 22
-233.70835134559999
 32
0.0
 13
-113.4791369247
 23
-235.95835134559999
 33
0.0
  0
LINE
  5
210
  8
0
 62
     0
 10
-181.72913692469999
 20
-235.95835134559999
 30
0.0
 11
-171.72913692469999
 21
-235.95835134559999
 31
0.0
  0
SOLID
  5
211
  8
0
 62
     0
 10
-181.72913692469999
 20
-235.95835134559999
 30
0.0
 11
-172.72913692469999
 21
-233.70835134559999
 31
0.0
 12
-172.72913692469999
 22
-238.20835134559999
 32
0.0
 13
-174.97913692469999
 23
-235.95835134559999
 33
0.0
  0
ENDBLK
  5
212
  8
0
  0
BLOCK
  8
0
  2
*D53
 70
     1
 10
0.0
 20
0.0
 30
0.0
  3
*D53
  1

  0
TEXT
  5
216
  8
0
 62
     0
 10
-75.049970130800006
 20
-233.21210138379999
 30
0.0
 40
9.8954164504999991
  1
75
  0
LINE
  5
217
  8
0
 62
     0
 10
-106.7291369247
 20
-193.45893499429999
 30
0.0
 11
-106.7291369247
 21
-236.95835134559999
 31
0.0
  0
LINE
  5
218
  8
0
 62
     0
 10
-31.729136924700001
 20
-193.45893499429999
 30
0.0
 11
-31.729136924700001
 21
-236.95835134559999
 31
0.0
  0
LINE
  5
219
  8
0
 62
     0
 10
-106.7291369247
 20
-235.95835134559999
 30
0.0
 11
-57.587470512299987
 21
-235.95835134559999
 31
0.0
  0
LINE
  5
21A
  8
0
 62
     0
 10
-106.7291369247
 20
-235.95835134559999
 30
0.0
 11
-80.870803336999984
 21
-235.95835134559999
 31
0.0
  0
LINE
  5
21B
  8
0
 62
     0
 10
-31.729136924700001
 20
-235.95835134559999
 30
0.0
 11
-57.587470512299987
 21
-235.95835134559999
 31
0.0
  0
LINE
  5
21C
  8
0
 62
     0
 10
-31.729136924700001
 20
-235.95835134559999
 30
0.0
 11
-80.870803336999984
 21
-235.95835134559999
 31
0.0
  0
LINE
  5
21D
  8
0
 62
     0
 10
-31.729136924700001
 20
-235.95835134559999
 30
0.0
 11
-41.729136924699993
 21
-235.95835134559999
 31
0.0
  0
SOLID
  5
21E
  8
0
 62
     0
 10
-31.729136924700001
 20
-235.95835134559999
 30
0.0
 11
-40.729136924700001
 21
-238.20835134559999
 31
0.0
 12
-40.729136924700001
 22
-233.70835134559999
 32
0.0
 13
-38.479136924700001
 23
-235.95835134559999
 33
0.0
  0
LINE
  5
21F
  8
0
 62
     0
 10
-106.7291369247
 20
-235.95835134559999
 30
0.0
 11
-96.729136924699986
 21
-235.95835134559999
 31
0.0
  0
SOLID
  5
220
  8
0
 62
     0
 10
-106.7291369247
 20
-235.95835134559999
 30
0.0
 11
-97.729136924699986
 21
-233.70835134559999
 31
0.0
 12
-97.729136924699986
 22
-238.20835134559999
 32
0.0
 13
-99.979136924700001
 23
-235.95835134559999
 33
0.0
  0
ENDBLK
  5
221
  8
0
  0
BLOCK
  8
0
  2
*D54
 70
     1
 10
0.0
 20
0.0
 30
0.0
  3
*D54
  1

  0
TEXT
  5
225
  8
0
 62
     0
 10
-187.54997013080001
 20
-157.47277586039999
 30
0.0
 40
9.8954164504999991
  1
22
  0
LINE
  5
226
  8
0
 62
     0
 10
-170.72913692469999
 20
-170.95893499429999
 30
0.0
 11
-170.72913692469999
 21
-159.21902582230001
 31
0.0
  0
LINE
  5
227
  8
0
 62
     0
 10
-192.72913692469999
 20
-170.95893499429999
 30
0.0
 11
-192.72913692469999
 21
-159.21902582230001
 31
0.0
  0
LINE
  5
228
  8
0
 62
     0
 10
-170.72913692469999
 20
-160.21902582230001
 30
0.0
 11
-170.72913692469999
 21
-160.21902582230001
 31
0.0
  0
LINE
  5
229
  8
0
 62
     0
 10
-170.72913692469999
 20
-160.21902582230001
 30
0.0
 11
-192.72913692469999
 21
-160.21902582230001
 31
0.0
  0
LINE
  5
22A
  8
0
 62
     0
 10
-192.72913692469999
 20
-160.21902582230001
 30
0.0
 11
-170.72913692469999
 21
-160.21902582230001
 31
0.0
  0
LINE
  5
22B
  8
0
 62
     0
 10
-192.72913692469999
 20
-160.21902582230001
 30
0.0
 11
-192.72913692469999
 21
-160.21902582230001
 31
0.0
  0
LINE
  5
22C
  8
0
 62
     0
 10
-192.72913692469999
 20
-160.21902582230001
 30
0.0
 11
-182.72913692469999
 21
-160.21902582230001
 31
0.0
  0
SOLID
  5
22D
  8
0
 62
     0
 10
-192.72913692469999
 20
-160.21902582230001
 30
0.0
 11
-183.72913692469999
 21
-157.96902582230001
 31
0.0
 12
-183.72913692469999
 22
-162.46902582230001
 32
0.0
 13
-185.97913692469999
 23
-160.21902582230001
 33
0.0
  0
LINE
  5
22E
  8
0
 62
     0
 10
-170.72913692469999
 20
-160.21902582230001
 30
0.0
 11
-180.72913692469999
 21
-160.21902582230001
 31
0.0
  0
SOLID
  5
22F
  8
0
 62
     0
 10
-170.72913692469999
 20
-160.21902582230001
 30
0.0
 11
-179.72913692469999
 21
-162.46902582230001
 31
0.0
 12
-179.72913692469999
 22
-157.96902582230001
 32
0.0
 13
-177.47913692469999
 23
-160.21902582230001
 33
0.0
  0
ENDBLK
  5
230
  8
0
  0
BLOCK
  8
0
  2
CLUMP44
 70
     0
 10
0.0
 20
0.0
 30
0.0
  3
CLUMP44
  1

  0
ARC
  5
235
  8
┌▓È_1
 10
-93.399052286800014
 20
142.56500711699999
 30
0.0
 40
3.5
 50
90.0
 51
270.0
  0
LINE
  5
236
  8
┌▓È_1
 10
-78.3990522868
 20
139.06500711699999
 30
0.0
 11
-93.399052286800014
 21
139.06500711699999
 31
0.0
  0
LINE
  5
237
  8
┌▓È_1
 10
-93.399052286800014
 20
146.06500711699999
 30
0.0
 11
-78.3990522868
 21
146.06500711699999
 31
0.0
  0
ARC
  5
238
  8
┌▓È_1
 10
-78.3990522868
 20
142.56500711699999
 30
0.0
 40
3.5
 50
270.0
 51
90.0
  0
ENDBLK
  5
239
  8
0
  0
BLOCK
  8
0
  2
CLUMP45
 70
     0
 10
0.0
 20
0.0
 30
0.0
  3
CLUMP45
  1

  0
INSERT
  5
242
  8
┌▓È_1
  2
CLUMP46
 10
0.0
 20
0.0
 30
0.0
  0
INSERT
  5
24A
  8
┌▓È_1
  2
CLUMP47
 10
0.0
 20
0.0
 30
0.0
  0
ENDBLK
  5
251
  8
0
  0
BLOCK
  8
0
  2
CLUMP46
 70
     0
 10
0.0
 20
0.0
 30
0.0
  3
CLUMP46
  1

  0
ARC
  5
244
  8
┌▓È_1
 10
-168.39905228680001
 20
205.56500711699999
 30
0.0
 40
3.5
 50
90.0
 51
270.0
  0
LINE
  5
245
  8
┌▓È_1
 10
-153.39905228680001
 20
209.06500711699999
 30
0.0
 11
-168.39905228680001
 21
209.06500711699999
 31
0.0
  0
LINE
  5
246
  8
┌▓È_1
 10
-168.39905228680001
 20
202.06500711699999
 30
0.0
 11
-153.39905228680001
 21
202.06500711699999
 31
0.0
  0
ARC
  5
247
  8
┌▓È_1
 10
-153.39905228680001
 20
205.56500711699999
 30
0.0
 40
3.5
 50
270.0
 51
90.0
  0
ENDBLK
  5
248
  8
0
  0
BLOCK
  8
0
  2
CLUMP47
 70
     0
 10
0.0
 20
0.0
 30
0.0
  3
CLUMP47
  1

  0
ARC
  5
24C
  8
┌▓È_1
 10
-168.39905228680001
 20
220.56500711699999
 30
0.0
 40
3.5
 50
90.0
 51
270.0
  0
LINE
  5
24D
  8
┌▓È_1
 10
-153.39905228680001
 20
224.06500711699999
 30
0.0
 11
-168.39905228680001
 21
224.06500711699999
 31
0.0
  0
LINE
  5
24E
  8
┌▓È_1
 10
-168.39905228680001
 20
217.06500711699999
 30
0.0
 11
-153.39905228680001
 21
217.06500711699999
 31
0.0
  0
ARC
  5
24F
  8
┌▓È_1
 10
-153.39905228680001
 20
220.56500711699999
 30
0.0
 40
3.5
 50
270.0
 51
90.0
  0
ENDBLK
  5
250
  8
0
  0
BLOCK
  8
0
  2
CLUMP48
 70
     0
 10
0.0
 20
0.0
 30
0.0
  3
CLUMP48
  1

  0
ARC
  5
25E
  8
┌▓È_1
 10
-168.39905228680001
 20
127.56500711699999
 30
0.0
 40
3.5
 50
90.0
 51
270.0
  0
LINE
  5
25F
  8
┌▓È_1
 10
-153.39905228680001
 20
124.06500711699999
 30
0.0
 11
-168.39905228680001
 21
124.06500711699999
 31
0.0
  0
LINE
  5
260
  8
┌▓È_1
 10
-168.39905228680001
 20
131.06500711699999
 30
0.0
 11
-153.39905228680001
 21
131.06500711699999
 31
0.0
  0
ARC
  5
261
  8
┌▓È_1
 10
-153.39905228680001
 20
127.56500711699999
 30
0.0
 40
3.5
 50
270.0
 51
90.0
  0
ENDBLK
  5
262
  8
0
  0
BLOCK
  8
0
  2
CLUMP49
 70
     0
 10
0.0
 20
0.0
 30
0.0
  3
CLUMP49
  1

  0
ARC
  5
268
  8
┌▓È_1
 10
-243.39905228680001
 20
142.56500711699999
 30
0.0
 40
3.5
 50
90.0
 51
270.0
  0
LINE
  5
269
  8
┌▓È_1
 10
-228.39905228680001
 20
139.06500711699999
 30
0.0
 11
-243.39905228680001
 21
139.06500711699999
 31
0.0
  0
LINE
  5
26A
  8
┌▓È_1
 10
-243.39905228680001
 20
146.06500711699999
 30
0.0
 11
-228.39905228680001
 21
146.06500711699999
 31
0.0
  0
ARC
  5
26B
  8
┌▓È_1
 10
-228.39905228680001
 20
142.56500711699999
 30
0.0
 40
3.5
 50
270.0
 51
90.0
  0
ENDBLK
  5
26C
  8
0
  0
BLOCK
  8
0
  2
CLUMP50
 70
     0
 10
0.0
 20
0.0
 30
0.0
  3
CLUMP50
  1

  0
ARC
  5
271
  8
┌▓È_1
 10
-114.2291369247
 20
-172.95893499429999
 30
0.0
 40
3.5
 50
90.0
 51
270.0
  0
LINE
  5
272
  8
┌▓È_1
 10
-99.229136924699986
 20
-176.45893499429999
 30
0.0
 11
-114.2291369247
 21
-176.45893499429999
 31
0.0
  0
LINE
  5
273
  8
┌▓È_1
 10
-114.2291369247
 20
-169.45893499429999
 30
0.0
 11
-99.229136924699986
 21
-169.45893499429999
 31
0.0
  0
ARC
  5
274
  8
┌▓È_1
 10
-99.229136924699986
 20
-172.95893499429999
 30
0.0
 40
3.5
 50
270.0
 51
90.0
  0
ENDBLK
  5
275
  8
0
  0
BLOCK
  8
0
  2
CLUMP51
 70
     0
 10
0.0
 20
0.0
 30
0.0
  3
CLUMP51
  1

  0
ARC
  5
27D
  8
┌▓È_1
 10
-39.229136924700001
 20
-187.95893499429999
 30
0.0
 40
3.5
 50
90.0
 51
270.0
  0
LINE
  5
27E
  8
┌▓È_1
 10
-24.229136924700001
 20
-191.45893499429999
 30
0.0
 11
-39.229136924700001
 21
-191.45893499429999
 31
0.0
  0
LINE
  5
27F
  8
┌▓È_1
 10
-39.229136924700001
 20
-184.45893499429999
 30
0.0
 11
-24.229136924700001
 21
-184.45893499429999
 31
0.0
  0
ARC
  5
280
  8
┌▓È_1
 10
-24.229136924700001
 20
-187.95893499429999
 30
0.0
 40
3.5
 50
270.0
 51
90.0
  0
ENDBLK
  5
281
  8
0
  0
BLOCK
  8
0
  2
CLUMP52
 70
     0
 10
0.0
 20
0.0
 30
0.0
  3
CLUMP52
  1

  0
ARC
  5
28D
  8
┌▓È_1
 10
-264.22913692470001
 20
-172.95893499429999
 30
0.0
 40
3.5
 50
90.0
 51
270.0
  0
LINE
  5
28E
  8
┌▓È_1
 10
-249.22913692469999
 20
-176.45893499429999
 30
0.0
 11
-264.22913692470001
 21
-176.45893499429999
 31
0.0
  0
LINE
  5
28F
  8
┌▓È_1
 10
-264.22913692470001
 20
-169.45893499429999
 30
0.0
 11
-249.22913692469999
 21
-169.45893499429999
 31
0.0
  0
ARC
  5
290
  8
┌▓È_1
 10
-249.22913692469999
 20
-172.95893499429999
 30
0.0
 40
3.5
 50
270.0
 51
90.0
  0
ENDBLK
  5
291
  8
0
  0
BLOCK
  8
0
  2
CLUMP53
 70
     0
 10
0.0
 20
0.0
 30
0.0
  3
CLUMP53
  1

  0
INSERT
  5
296
  8
┌▓È_1
  2
CLUMP54
 10
0.0
 20
0.0
 30
0.0
  0
INSERT
  5
29E
  8
┌▓È_1
  2
CLUMP55
 10
0.0
 20
0.0
 30
0.0
  0
ENDBLK
  5
2A5
  8
0
  0
BLOCK
  8
0
  2
CLUMP54
 70
     0
 10
0.0
 20
0.0
 30
0.0
  3
CLUMP54
  1

  0
ARC
  5
298
  8
┌▓È_1
 10
-264.22913692470001
 20
-109.95893499429999
 30
0.0
 40
3.5
 50
90.0
 51
270.0
  0
LINE
  5
299
  8
┌▓È_1
 10
-249.22913692469999
 20
-106.45893499429999
 30
0.0
 11
-264.22913692470001
 21
-106.45893499429999
 31
0.0
  0
LINE
  5
29A
  8
┌▓È_1
 10
-264.22913692470001
 20
-113.45893499429999
 30
0.0
 11
-249.22913692469999
 21
-113.45893499429999
 31
0.0
  0
ARC
  5
29B
  8
┌▓È_1
 10
-249.22913692469999
 20
-109.95893499429999
 30
0.0
 40
3.5
 50
270.0
 51
90.0
  0
ENDBLK
  5
29C
  8
0
  0
BLOCK
  8
0
  2
CLUMP55
 70
     0
 10
0.0
 20
0.0
 30
0.0
  3
CLUMP55
  1

  0
ARC
  5
2A0
  8
┌▓È_1
 10
-264.22913692470001
 20
-94.958934994300009
 30
0.0
 40
3.5
 50
90.0
 51
270.0
  0
LINE
  5
2A1
  8
┌▓È_1
 10
-249.22913692469999
 20
-91.458934994299995
 30
0.0
 11
-264.22913692470001
 21
-91.458934994299995
 31
0.0
  0
LINE
  5
2A2
  8
┌▓È_1
 10
-264.22913692470001
 20
-98.458934994300009
 30
0.0
 11
-249.22913692469999
 21
-98.458934994300009
 31
0.0
  0
ARC
  5
2A3
  8
┌▓È_1
 10
-249.22913692469999
 20
-94.958934994300009
 30
0.0
 40
3.5
 50
270.0
 51
90.0
  0
ENDBLK
  5
2A4
  8
0
  0
BLOCK
  8
0
  2
CLUMP56
 70
     0
 10
0.0
 20
0.0
 30
0.0
  3
CLUMP56
  1

  0
ARC
  5
2A9
  8
┌▓È_1
 10
-264.22913692470001
 20
-187.95893499429999
 30
0.0
 40
3.5
 50
90.0
 51
270.0
  0
LINE
  5
2AA
  8
┌▓È_1
 10
-249.22913692469999
 20
-191.45893499429999
 30
0.0
 11
-264.22913692470001
 21
-191.45893499429999
 31
0.0
  0
LINE
  5
2AB
  8
┌▓È_1
 10
-264.22913692470001
 20
-184.45893499429999
 30
0.0
 11
-249.22913692469999
 21
-184.45893499429999
 31
0.0
  0
ARC
  5
2AC
  8
┌▓È_1
 10
-249.22913692469999
 20
-187.95893499429999
 30
0.0
 40
3.5
 50
270.0
 51
90.0
  0
ENDBLK
  5
2AD
  8
0
  0
BLOCK
  8
0
  2
CLUMP57
 70
     0
 10
0.0
 20
0.0
 30
0.0
  3
CLUMP57
  1

  0
ARC
  5
2B1
  8
┌▓È_1
 10
-39.229136924700001
 20
-172.95893499429999
 30
0.0
 40
3.5
 50
90.0
 51
270.0
  0
LINE
  5
2B2
  8
┌▓È_1
 10
-24.229136924700001
 20
-176.45893499429999
 30
0.0
 11
-39.229136924700001
 21
-176.45893499429999
 31
0.0
  0
LINE
  5
2B3
  8
┌▓È_1
 10
-39.229136924700001
 20
-169.45893499429999
 30
0.0
 11
-24.229136924700001
 21
-169.45893499429999
 31
0.0
  0
ARC
  5
2B4
  8
┌▓È_1
 10
-24.229136924700001
 20
-172.95893499429999
 30
0.0
 40
3.5
 50
270.0
 51
90.0
  0
ENDBLK
  5
2B5
  8
0
  0
BLOCK
  8
0
  2
CLUMP58
 70
     0
 10
0.0
 20
0.0
 30
0.0
  3
CLUMP58
  1

  0
INSERT
  5
2BB
  8
┌▓È_1
  2
CLUMP59
 10
0.0
 20
0.0
 30
0.0
  0
INSERT
  5
2C3
  8
┌▓È_1
  2
CLUMP60
 10
0.0
 20
0.0
 30
0.0
  0
ENDBLK
  5
2CA
  8
0
  0
BLOCK
  8
0
  2
CLUMP59
 70
     0
 10
0.0
 20
0.0
 30
0.0
  3
CLUMP59
  1

  0
ARC
  5
2BD
  8
┌▓È_1
 10
-114.2291369247
 20
-109.95893499429999
 30
0.0
 40
3.5
 50
90.0
 51
270.0
  0
LINE
  5
2BE
  8
┌▓È_1
 10
-99.229136924699986
 20
-106.45893499429999
 30
0.0
 11
-114.2291369247
 21
-106.45893499429999
 31
0.0
  0
LINE
  5
2BF
  8
┌▓È_1
 10
-114.2291369247
 20
-113.45893499429999
 30
0.0
 11
-99.229136924699986
 21
-113.45893499429999
 31
0.0
  0
ARC
  5
2C0
  8
┌▓È_1
 10
-99.229136924699986
 20
-109.95893499429999
 30
0.0
 40
3.5
 50
270.0
 51
90.0
  0
ENDBLK
  5
2C1
  8
0
  0
BLOCK
  8
0
  2
CLUMP60
 70
     0
 10
0.0
 20
0.0
 30
0.0
  3
CLUMP60
  1

  0
ARC
  5
2C5
  8
┌▓È_1
 10
-114.2291369247
 20
-94.958934994300009
 30
0.0
 40
3.5
 50
90.0
 51
270.0
  0
LINE
  5
2C6
  8
┌▓È_1
 10
-99.229136924699986
 20
-91.458934994299995
 30
0.0
 11
-114.2291369247
 21
-91.458934994299995
 31
0.0
  0
LINE
  5
2C7
  8
┌▓È_1
 10
-114.2291369247
 20
-98.458934994300009
 30
0.0
 11
-99.229136924699986
 21
-98.458934994300009
 31
0.0
  0
ARC
  5
2C8
  8
┌▓È_1
 10
-99.229136924699986
 20
-94.958934994300009
 30
0.0
 40
3.5
 50
270.0
 51
90.0
  0
ENDBLK
  5
2C9
  8
0
  0
BLOCK
  8
0
  2
CLUMP61
 70
     0
 10
0.0
 20
0.0
 30
0.0
  3
CLUMP61
  1

  0
INSERT
  5
2CF
  8
┌▓È_1
  2
CLUMP62
 10
0.0
 20
0.0
 30
0.0
  0
INSERT
  5
2D7
  8
┌▓È_1
  2
CLUMP63
 10
0.0
 20
0.0
 30
0.0
  0
ENDBLK
  5
2DE
  8
0
  0
BLOCK
  8
0
  2
CLUMP62
 70
     0
 10
0.0
 20
0.0
 30
0.0
  3
CLUMP62
  1

  0
ARC
  5
2D1
  8
┌▓È_1
 10
-39.229136924700001
 20
-109.95893499429999
 30
0.0
 40
3.5
 50
90.0
 51
270.0
  0
LINE
  5
2D2
  8
┌▓È_1
 10
-24.229136924700001
 20
-106.45893499429999
 30
0.0
 11
-39.229136924700001
 21
-106.45893499429999
 31
0.0
  0
LINE
  5
2D3
  8
┌▓È_1
 10
-39.229136924700001
 20
-113.45893499429999
 30
0.0
 11
-24.229136924700001
 21
-113.45893499429999
 31
0.0
  0
ARC
  5
2D4
  8
┌▓È_1
 10
-24.229136924700001
 20
-109.95893499429999
 30
0.0
 40
3.5
 50
270.0
 51
90.0
  0
ENDBLK
  5
2D5
  8
0
  0
BLOCK
  8
0
  2
CLUMP63
 70
     0
 10
0.0
 20
0.0
 30
0.0
  3
CLUMP63
  1

  0
ARC
  5
2D9
  8
┌▓È_1
 10
-39.229136924700001
 20
-94.958934994300009
 30
0.0
 40
3.5
 50
90.0
 51
270.0
  0
LINE
  5
2DA
  8
┌▓È_1
 10
-24.229136924700001
 20
-91.458934994299995
 30
0.0
 11
-39.229136924700001
 21
-91.458934994299995
 31
0.0
  0
LINE
  5
2DB
  8
┌▓È_1
 10
-39.229136924700001
 20
-98.458934994300009
 30
0.0
 11
-24.229136924700001
 21
-98.458934994300009
 31
0.0
  0
ARC
  5
2DC
  8
┌▓È_1
 10
-24.229136924700001
 20
-94.958934994300009
 30
0.0
 40
3.5
 50
270.0
 51
90.0
  0
ENDBLK
  5
2DD
  8
0
  0
BLOCK
  8
0
  2
CLUMP64
 70
     0
 10
0.0
 20
0.0
 30
0.0
  3
CLUMP64
  1

  0
ARC
  5
2E3
  8
┌▓È_1
 10
-189.22913692469999
 20
-172.95893499429999
 30
0.0
 40
3.5
 50
90.0
 51
270.0
  0
LINE
  5
2E4
  8
┌▓È_1
 10
-174.22913692469999
 20
-176.45893499429999
 30
0.0
 11
-189.22913692469999
 21
-176.45893499429999
 31
0.0
  0
LINE
  5
2E5
  8
┌▓È_1
 10
-189.22913692469999
 20
-169.45893499429999
 30
0.0
 11
-174.22913692469999
 21
-169.45893499429999
 31
0.0
  0
ARC
  5
2E6
  8
┌▓È_1
 10
-174.22913692469999
 20
-172.95893499429999
 30
0.0
 40
3.5
 50
270.0
 51
90.0
  0
ENDBLK
  5
2E7
  8
0
  0
BLOCK
  8
0
  2
*D76
 70
     1
 10
0.0
 20
0.0
 30
0.0
  3
*D76
  1

  0
TEXT
  5
2EB
  8
0
 62
     0
 10
-225.04997013080001
 20
-233.21210138379999
 30
0.0
 40
9.8954164504999991
  1
75
  0
LINE
  5
2EC
  8
0
 62
     0
 10
-256.72913692470001
 20
-193.45893499429999
 30
0.0
 11
-256.72913692470001
 21
-236.95835134559999
 31
0.0
  0
LINE
  5
2ED
  8
0
 62
     0
 10
-181.72913692469999
 20
-193.45893499429999
 30
0.0
 11
-181.72913692469999
 21
-236.95835134559999
 31
0.0
  0
LINE
  5
2EE
  8
0
 62
     0
 10
-256.72913692470001
 20
-235.95835134559999
 30
0.0
 11
-207.5874705123
 21
-235.95835134559999
 31
0.0
  0
LINE
  5
2EF
  8
0
 62
     0
 10
-256.72913692470001
 20
-235.95835134559999
 30
0.0
 11
-230.87080333700001
 21
-235.95835134559999
 31
0.0
  0
LINE
  5
2F0
  8
0
 62
     0
 10
-181.72913692469999
 20
-235.95835134559999
 30
0.0
 11
-207.5874705123
 21
-235.95835134559999
 31
0.0
  0
LINE
  5
2F1
  8
0
 62
     0
 10
-181.72913692469999
 20
-235.95835134559999
 30
0.0
 11
-230.87080333700001
 21
-235.95835134559999
 31
0.0
  0
LINE
  5
2F2
  8
0
 62
     0
 10
-181.72913692469999
 20
-235.95835134559999
 30
0.0
 11
-191.72913692469999
 21
-235.95835134559999
 31
0.0
  0
SOLID
  5
2F3
  8
0
 62
     0
 10
-181.72913692469999
 20
-235.95835134559999
 30
0.0
 11
-190.72913692469999
 21
-238.20835134559999
 31
0.0
 12
-190.72913692469999
 22
-233.70835134559999
 32
0.0
 13
-188.47913692469999
 23
-235.95835134559999
 33
0.0
  0
LINE
  5
2F4
  8
0
 62
     0
 10
-256.72913692470001
 20
-235.95835134559999
 30
0.0
 11
-246.72913692469999
 21
-235.95835134559999
 31
0.0
  0
SOLID
  5
2F5
  8
0
 62
     0
 10
-256.72913692470001
 20
-235.95835134559999
 30
0.0
 11
-247.72913692469999
 21
-233.70835134559999
 31
0.0
 12
-247.72913692469999
 22
-238.20835134559999
 32
0.0
 13
-249.97913692469999
 23
-235.95835134559999
 33
0.0
  0
ENDBLK
  5
2F6
  8
0
  0
BLOCK
  8
0
  2
CLUMP65
 70
     0
 10
0.0
 20
0.0
 30
0.0
  3
CLUMP65
  1

  0
LINE
  5
301
  8
É}ÿg
 10
589.98458996370005
 20
-442.28333221719993
 30
0.0
 11
592.98458996370005
 21
-437.78333221719998
 31
0.0
  0
LINE
  5
302
  8
É}ÿg
 10
546.00277178190004
 20
-437.78333221719998
 30
0.0
 11
546.00277178190004
 21
-443.78333221719993
 31
0.0
  0
LINE
  5
303
  8
É}ÿg
 10
617.18386071419991
 20
-448.28333221719993
 30
0.0
 11
626.63703790859995
 21
-448.28333221719993
 31
0.0
  0
LINE
  5
304
  8
É}ÿg
 10
565.98458996370005
 20
-458.78333221719998
 30
0.0
 11
573.48458996370005
 21
-458.78333221719998
 31
0.0
  0
LINE
  5
305
  8
É}ÿg
 10
565.98458996370005
 20
-444.74966301969999
 30
0.0
 11
577.98458996370005
 21
-444.74966301969999
 31
0.0
  0
INSERT
  5
306
  8
0
  6
CONTINUOUS
  2
*U167
 10
0.0
 20
0.0
 30
0.0
  0
LINE
  5
307
  8
É}ÿg
 62
     5
 10
640.02083231710003
 20
329.98664888209998
 30
0.0
 11
640.02083231710003
 21
374.98664888209998
 31
0.0
  0
LINE
  5
308
  8
É}ÿg
 62
     5
 10
790.02083231710003
 20
329.98664888209998
 30
0.0
 11
790.02083231710003
 21
374.98664888209998
 31
0.0
  0
LINE
  5
309
  8
É}ÿg
 62
     5
 10
592.02083231710003
 20
329.98664888209998
 30
0.0
 11
592.02083231710003
 21
374.98664888209998
 31
0.0
  0
LINE
  5
30A
  8
É}ÿg
 62
     5
 10
571.74297615889986
 20
346.27902413509997
 30
0.0
 11
586.5929761589
 21
346.27902413509997
 31
0.0
  0
LINE
  5
30B
  8
É}ÿg
 62
     5
 10
579.16797615890005
 20
344.2895013813
 30
0.0
 11
586.5929761589
 21
331.42902413510001
 31
0.0
  0
LINE
  5
30C
  8
É}ÿg
 62
     5
 10
568.02083231710003
 20
329.98664888209998
 30
0.0
 11
568.02083231710003
 21
374.98664888209998
 31
0.0
  0
LINE
  5
30D
  8
É}ÿg
 62
     5
 10
820.02083231710014
 20
329.98664888209998
 30
0.0
 11
820.02083231710014
 21
374.98664888209998
 31
0.0
  0
LINE
  5
30E
  8
É}ÿg
 62
     5
 10
568.02083231710003
 20
359.98664888209998
 30
0.0
 11
850.02083231709992
 21
359.98664888209998
 31
0.0
  0
LINE
  5
30F
  8
É}ÿg
 62
     5
 10
568.02083231710003
 20
344.98664888209998
 30
0.0
 11
850.02083231709992
 21
344.98664888209998
 31
0.0
  0
LINE
  5
310
  8
É}ÿg
 62
     5
 10
568.02083231710003
 20
329.98664888209998
 30
0.0
 11
850.02083231709992
 21
329.98664888209998
 31
0.0
  0
INSERT
  5
311
  8
0
  6
CONTINUOUS
  2
*U168
 10
0.0
 20
0.0
 30
0.0
  0
LINE
  5
312
  8
É}ÿg
 62
     5
 10
-349.97916768290003
 20
-465.0133511178999
 30
0.0
 11
-349.97916768290003
 21
374.98664888209998
 31
0.0
  0
LINE
  5
313
  8
É}ÿg
 62
     5
 10
-349.97916768290003
 20
-465.0133511178999
 30
0.0
 11
850.02083231709992
 21
-465.0133511178999
 31
0.0
  0
LINE
  5
314
  8
É}ÿg
 62
     5
 10
850.02083231709992
 20
374.98664888209998
 30
0.0
 11
-349.97916768290003
 21
374.98664888209998
 31
0.0
  0
LINE
  5
315
  8
É}ÿg
 62
     5
 10
850.02083231709992
 20
-465.0133511178999
 30
0.0
 11
850.02083231709992
 21
374.98664888209998
 31
0.0
  0
LINE
  5
316
  8
É}ÿg
 10
565.98458996370005
 20
-445.71599382210002
 30
0.0
 11
565.98458996370005
 21
-444.74966301969999
 31
0.0
  0
LINE
  5
317
  8
É}ÿg
 10
529.04946034730006
 20
-443.78333221719993
 30
0.0
 11
529.04946034730006
 21
-448.28333221719993
 31
0.0
  0
LINE
  5
318
  8
É}ÿg
 62
     5
 10
579.16797615890005
 20
359.13950138129991
 30
0.0
 11
586.5929761589
 21
346.27902413509997
 31
0.0
  0
LINE
  5
319
  8
É}ÿg
 62
     5
 10
579.16797615890005
 20
344.2895013813
 30
0.0
 11
571.74297615889986
 21
331.42902413510001
 31
0.0
  0
INSERT
  5
31A
  8
0
  6
CONTINUOUS
  2
*U169
 10
0.0
 20
0.0
 30
0.0
  0
LINE
  5
31B
  8
É}ÿg
  6
DOT
 10
-364.91916768290002
 20
-477.7033511178999
 30
0.0
 11
-364.91916768290002
 21
387.67664888209998
 31
0.0
  0
LINE
  5
31C
  8
É}ÿg
  6
DOT
 10
864.96083231710008
 20
-477.7033511178999
 30
0.0
 11
864.96083231710008
 21
387.67664888209998
 31
0.0
  0
LINE
  5
31D
  8
É}ÿg
  6
DOT
 10
-364.91916768290002
 20
-477.7033511178999
 30
0.0
 11
864.96083231710008
 21
-477.7033511178999
 31
0.0
  0
LINE
  5
31E
  8
É}ÿg
 10
540.00277178190004
 20
-452.78333221719993
 30
0.0
 11
540.00277178190004
 21
-448.28333221719993
 31
0.0
  0
LINE
  5
31F
  8
É}ÿg
  6
DOT
 10
864.96083231710008
 20
387.67664888209998
 30
0.0
 11
-364.91916768290002
 21
387.67664888209998
 31
0.0
  0
LINE
  5
320
  8
É}ÿg
 10
532.50277178190004
 20
-448.28333221719993
 30
0.0
 11
532.50277178190004
 21
-452.78333221719993
 31
0.0
  0
LINE
  5
321
  8
É}ÿg
 10
553.50277178190004
 20
-442.28333221719993
 30
0.0
 11
558.00277178190004
 21
-437.78333221719998
 31
0.0
  0
LINE
  5
322
  8
É}ÿg
 10
609.42103790860006
 20
-450.68333221720002
 30
0.0
 11
608.71703790859999
 21
-448.28333221719993
 31
0.0
  0
LINE
  5
323
  8
É}ÿg
 10
540.00277178190004
 20
-443.78333221719993
 30
0.0
 11
540.00277178190004
 21
-442.28333221719993
 31
0.0
  0
LINE
  5
324
  8
É}ÿg
 10
586.57274801999995
 20
-452.33072584410002
 30
0.0
 11
586.03844184059994
 21
-452.8538602767
 31
0.0
  0
LINE
  5
325
  8
É}ÿg
 10
589.98458996370005
 20
-442.28333221719993
 30
0.0
 11
592.98458996370005
 21
-437.78333221719998
 31
0.0
  0
LINE
  5
326
  8
É}ÿg
 10
626.63703790859995
 20
-450.68333221720002
 30
0.0
 11
626.63703790859995
 21
-456.08333221719988
 31
0.0
  0
LINE
  5
327
  8
É}ÿg
 10
592.98458996370005
 20
-454.28333221719998
 30
0.0
 11
592.98458996370005
 21
-458.78333221719998
 31
0.0
  0
LINE
  5
328
  8
É}ÿg
 10
615.62993097669994
 20
-442.88333221720001
 30
0.0
 11
626.63703790859995
 21
-442.88333221720001
 31
0.0
  0
LINE
  5
329
  8
É}ÿg
 10
615.62993097669994
 20
-442.88333221720001
 30
0.0
 11
615.19074822610003
 21
-441.35714554579999
 31
0.0
  0
LINE
  5
32A
  8
É}ÿg
 10
592.98458996370005
 20
-437.78333221719998
 30
0.0
 11
565.98458996370005
 21
-437.78333221719998
 31
0.0
  0
INSERT
  5
32B
  8
0
  6
CONTINUOUS
  2
*U170
 10
0.0
 20
0.0
 30
0.0
  0
LINE
  5
32C
  8
É}ÿg
 10
612.23703790859997
 20
-460.28333221719993
 30
0.0
 11
611.0050379086
 21
-456.08333221719988
 31
0.0
  0
LINE
  5
32D
  8
É}ÿg
 10
541.50277178190004
 20
-454.28333221719998
 30
0.0
 11
532.50277178190004
 21
-454.28333221719998
 31
0.0
  0
LINE
  5
32E
  8
É}ÿg
 10
565.98458996370005
 20
-443.18333221720002
 30
0.0
 11
580.98458996370005
 21
-443.18333221720002
 31
0.0
  0
LINE
  5
32F
  8
É}ÿg
 10
606.67858485210002
 20
-378.91335111789999
 30
0.0
 11
621.07858485209988
 21
-375.31335111790003
 31
0.0
  0
CIRCLE
  5
330
  8
É}ÿg
 10
590.22083231709996
 20
-382.51335111790002
 30
0.0
 40
7.2000000000000002
  0
INSERT
  5
331
  8
0
  6
CONTINUOUS
  2
*U171
 10
0.0
 20
0.0
 30
0.0
  0
LINE
  5
332
  8
É}ÿg
 10
540.00277178190004
 20
-448.28333221719993
 30
0.0
 11
546.00277178190004
 21
-448.28333221719993
 31
0.0
  0
LINE
  5
333
  8
É}ÿg
 10
599.63703790859995
 20
-448.28333221719993
 30
0.0
 11
608.71703790859999
 21
-448.28333221719993
 31
0.0
  0
LINE
  5
334
  8
É}ÿg
 10
558.00277178190004
 20
-443.78333221719993
 30
0.0
 11
553.50277178190004
 21
-443.78333221719993
 31
0.0
  0
LINE
  5
335
  8
É}ÿg
 10
553.50277178190004
 20
-443.78333221719993
 30
0.0
 11
553.50277178190004
 21
-442.28333221719993
 31
0.0
  0
LINE
  5
336
  8
É}ÿg
 10
599.63703790859995
 20
-442.88333221720001
 30
0.0
 11
607.13303790860004
 21
-442.88333221720001
 31
0.0
  0
LINE
  5
337
  8
É}ÿg
 10
615.19074822610003
 20
-441.35714554579999
 30
0.0
 11
617.63703790859995
 21
-437.78333221719998
 31
0.0
  0
LINE
  5
338
  8
É}ÿg
 10
565.98458996370005
 20
-458.78333221719998
 30
0.0
 11
565.98458996370005
 21
-454.28333221719998
 31
0.0
  0
LINE
  5
339
  8
É}ÿg
 10
640.02083231710003
 20
-366.01335111790002
 30
0.0
 11
640.02083231710003
 21
-465.0133511178999
 31
0.0
  0
INSERT
  5
33A
  8
0
  6
CONTINUOUS
  2
*U172
 10
0.0
 20
0.0
 30
0.0
  0
INSERT
  5
33B
  8
0
  6
CONTINUOUS
  2
*U173
 10
0.0
 20
0.0
 30
0.0
  0
INSERT
  5
33C
  8
0
  6
CONTINUOUS
  2
*U174
 10
0.0
 20
0.0
 30
0.0
  0
LINE
  5
33D
  8
É}ÿg
 62
     5
 10
571.74297615889986
 20
331.42902413510001
 30
0.0
 11
586.5929761589
 21
331.42902413510001
 31
0.0
  0
LINE
  5
33E
  8
É}ÿg
 10
529.04946034730006
 20
-448.28333221719993
 30
0.0
 11
532.04946034730006
 21
-448.28333221719993
 31
0.0
  0
ARC
  5
33F
  8
É}ÿg
 10
573.48458996370005
 20
-442.28333221719993
 30
0.0
 40
16.5
 50
322.48761197969998
 51
0.0
  0
LINE
  5
340
  8
É}ÿg
 10
532.50277178190004
 20
-458.78333221719998
 30
0.0
 11
544.50277178190004
 21
-458.78333221719998
 31
0.0
  0
LINE
  5
341
  8
É}ÿg
 10
599.63703790859995
 20
-456.08333221719988
 30
0.0
 11
611.0050379086
 21
-456.08333221719988
 31
0.0
  0
ARC
  5
342
  8
É}ÿg
 10
541.50277178190004
 20
-449.78333221719998
 30
0.0
 40
4.5
 50
270.0
 51
0.0
  0
LINE
  5
343
  8
É}ÿg
 10
599.63703790859995
 20
-450.68333221720002
 30
0.0
 11
599.63703790859995
 21
-456.08333221719988
 31
0.0
  0
LINE
  5
344
  8
É}ÿg
 10
532.50277178190004
 20
-452.78333221719993
 30
0.0
 11
540.00277178190004
 21
-452.78333221719993
 31
0.0
  0
LINE
  5
345
  8
É}ÿg
 10
579.59352743879992
 20
-448.34054493259998
 30
0.0
 11
578.87174001990002
 21
-449.13776001420001
 31
0.0
  0
LINE
  5
346
  8
É}ÿg
 10
620.63703790859995
 20
-460.28333221719993
 30
0.0
 11
612.23703790859997
 21
-460.28333221719993
 31
0.0
  0
LINE
  5
347
  8
É}ÿg
 10
546.00277178190004
 20
-448.28333221719993
 30
0.0
 11
546.00277178190004
 21
-449.78333221719998
 31
0.0
  0
LINE
  5
348
  8
É}ÿg
 10
850.02083231709992
 20
-366.01335111790002
 30
0.0
 11
415.02083231709992
 21
-366.01335111790002
 31
0.0
  0
LINE
  5
349
  8
É}ÿg
 10
621.07858485209988
 20
-375.31335111790003
 30
0.0
 11
621.07858485209988
 21
-389.7133511179
 31
0.0
  0
LINE
  5
34A
  8
É}ÿg
 62
     5
 10
579.16797615890005
 20
359.13950138129991
 30
0.0
 11
571.74297615889986
 21
346.27902413509997
 31
0.0
  0
LINE
  5
34B
  8
É}ÿg
 10
558.00277178190004
 20
-437.78333221719998
 30
0.0
 11
546.00277178190004
 21
-437.78333221719998
 31
0.0
  0
LINE
  5
34C
  8
É}ÿg
 10
553.50277178190004
 20
-449.78333221719998
 30
0.0
 11
553.50277178190004
 21
-448.28333221719993
 31
0.0
  0
LINE
  5
34D
  8
É}ÿg
 10
599.63703790859995
 20
-442.88333221720001
 30
0.0
 11
599.63703790859995
 21
-448.28333221719993
 31
0.0
  0
LINE
  5
34E
  8
É}ÿg
 10
546.00277178190004
 20
-443.78333221719993
 30
0.0
 11
540.00277178190004
 21
-443.78333221719993
 31
0.0
  0
LINE
  5
34F
  8
É}ÿg
 10
544.50277178190004
 20
-437.78333221719998
 30
0.0
 11
532.50277178190004
 21
-437.78333221719998
 31
0.0
  0
LINE
  5
350
  8
É}ÿg
 10
540.00277178190004
 20
-442.28333221719993
 30
0.0
 11
544.50277178190004
 21
-437.78333221719998
 31
0.0
  0
LINE
  5
351
  8
É}ÿg
 10
532.50277178190004
 20
-437.78333221719998
 30
0.0
 11
532.50277178190004
 21
-443.78333221719993
 31
0.0
  0
LINE
  5
352
  8
É}ÿg
 10
619.42842589060001
 20
-456.08333221719988
 30
0.0
 11
626.63703790859995
 21
-456.08333221719988
 31
0.0
  0
LINE
  5
353
  8
É}ÿg
 10
607.13303790860004
 20
-442.88333221720001
 30
0.0
 11
605.63703790859995
 21
-437.78333221719998
 31
0.0
  0
LINE
  5
354
  8
É}ÿg
 10
599.63703790859995
 20
-450.68333221720002
 30
0.0
 11
609.42103790860006
 21
-450.68333221720002
 31
0.0
  0
LINE
  5
355
  8
É}ÿg
 10
617.87449615309993
 20
-450.68333221720002
 30
0.0
 11
617.18386071419991
 21
-448.28333221719993
 31
0.0
  0
ARC
  5
356
  8
É}ÿg
 10
569.58458996369995
 20
-442.88333221720001
 30
0.0
 40
11.4
 50
270.0
 51
298.08590481520002
  0
INSERT
  5
357
  8
0
  6
CONTINUOUS
  2
*U175
 10
0.0
 20
0.0
 30
0.0
  0
LINE
  5
358
  8
É}ÿg
 10
422.52083231709992
 20
-382.51335111790002
 30
0.0
 11
482.52083231709997
 21
-382.51335111790002
 31
0.0
  0
LINE
  5
359
  8
É}ÿg
 10
490.02083231709992
 20
-366.01335111790002
 30
0.0
 11
490.02083231709992
 21
-399.01335111790002
 31
0.0
  0
LINE
  5
35A
  8
É}ÿg
 10
415.02083231709992
 20
-399.01335111790002
 30
0.0
 11
850.02083231709992
 21
-399.01335111790002
 31
0.0
  0
LINE
  5
35B
  8
É}ÿg
 10
565.02083231710003
 20
-366.01335111790002
 30
0.0
 11
565.02083231710003
 21
-399.01335111790002
 31
0.0
  0
LINE
  5
35C
  8
É}ÿg
  6
BORDER
 10
590.22083231709996
 20
-371.7133511179
 30
0.0
 11
590.22083231709996
 21
-393.31335111790003
 31
0.0
  0
LINE
  5
35D
  8
É}ÿg
  6
BORDER
 10
590.22083231709996
 20
-371.7133511179
 30
0.0
 11
590.22083231709996
 21
-393.31335111790003
 31
0.0
  0
LINE
  5
35E
  8
É}ÿg
 10
626.63703790859995
 20
-442.88333221720001
 30
0.0
 11
626.63703790859995
 21
-448.28333221719993
 31
0.0
  0
LINE
  5
35F
  8
É}ÿg
 10
497.52083231709992
 20
-382.51335111790002
 30
0.0
 11
557.52083231710003
 21
-382.51335111790002
 31
0.0
  0
INSERT
  5
360
  8
0
  6
CONTINUOUS
  2
*U176
 10
0.0
 20
0.0
 30
0.0
  0
CIRCLE
  5
361
  8
É}ÿg
 10
590.22083231709996
 20
-382.51335111790002
 30
0.0
 40
7.2000000000000002
  0
LINE
  5
362
  8
É}ÿg
 10
606.67858485210002
 20
-378.91335111789999
 30
0.0
 11
621.07858485209988
 21
-375.31335111790003
 31
0.0
  0
INSERT
  5
363
  8
0
  6
CONTINUOUS
  2
*U177
 10
0.0
 20
0.0
 30
0.0
  0
CIRCLE
  5
364
  8
É}ÿg
 10
590.22083231709996
 20
-382.51335111790002
 30
0.0
 40
3.6000000000000001
  0
LINE
  5
365
  8
É}ÿg
 10
620.63703790859995
 20
-460.28333221719993
 30
0.0
 11
619.42842589060001
 21
-456.08333221719988
 31
0.0
  0
LINE
  5
366
  8
É}ÿg
 10
617.87449615309993
 20
-450.68333221720002
 30
0.0
 11
626.63703790859995
 21
-450.68333221720002
 31
0.0
  0
LINE
  5
367
  8
É}ÿg
 10
565.98458996370005
 20
-454.28333221719998
 30
0.0
 11
569.58458996369995
 21
-454.28333221719998
 31
0.0
  0
LINE
  5
368
  8
É}ÿg
 10
605.63703790859995
 20
-437.78333221719998
 30
0.0
 11
617.63703790859995
 21
-437.78333221719998
 31
0.0
  0
LINE
  5
369
  8
É}ÿg
 10
532.50277178190004
 20
-443.78333221719993
 30
0.0
 11
529.04946034730006
 21
-443.78333221719993
 31
0.0
  0
LINE
  5
36A
  8
É}ÿg
 10
565.98458996370005
 20
-454.28333221719998
 30
0.0
 11
565.98458996370005
 21
-458.78333221719998
 31
0.0
  0
LINE
  5
36B
  8
É}ÿg
 10
532.50277178190004
 20
-448.28333221719993
 30
0.0
 11
532.04946034730006
 21
-448.28333221719993
 31
0.0
  0
LINE
  5
36C
  8
É}ÿg
 10
532.50277178190004
 20
-454.28333221719998
 30
0.0
 11
532.50277178190004
 21
-458.78333221719998
 31
0.0
  0
ARC
  5
36D
  8
É}ÿg
 10
569.58458996369995
 20
-442.88333221720001
 30
0.0
 40
11.4
 50
331.39928138329998
 51
358.49204224580001
  0
LINE
  5
36E
  8
É}ÿg
 10
553.50277178190004
 20
-448.28333221719993
 30
0.0
 11
558.00277178190004
 21
-448.28333221719993
 31
0.0
  0
ARC
  5
36F
  8
É}ÿg
 10
573.48458996370005
 20
-442.28333221719993
 30
0.0
 40
16.5
 50
270.0
 51
302.54495885400001
  0
LINE
  5
370
  8
É}ÿg
 10
606.67858485210002
 20
-386.11335111789998
 30
0.0
 11
621.07858485209988
 21
-389.7133511179
 31
0.0
  0
LINE
  5
371
  8
É}ÿg
 10
606.67858485210002
 20
-378.91335111789999
 30
0.0
 11
606.67858485210002
 21
-386.11335111789998
 31
0.0
  0
LINE
  5
372
  8
É}ÿg
 10
621.07858485209988
 20
-375.31335111790003
 30
0.0
 11
621.07858485209988
 21
-389.7133511179
 31
0.0
  0
LINE
  5
373
  8
É}ÿg
 10
577.98458996370005
 20
-444.74966301969999
 30
0.0
 11
576.2875336889
 21
-446.44671929449999
 31
0.0
  0
LINE
  5
374
  8
É}ÿg
  6
BORDER
 10
579.42083231710001
 20
-382.51335111790002
 30
0.0
 11
625.62083231709994
 21
-382.51335111790002
 31
0.0
  0
CIRCLE
  5
375
  8
É}ÿg
 10
590.22083231709996
 20
-382.51335111790002
 30
0.0
 40
3.6000000000000001
  0
POLYLINE
  8
É}ÿg
  5
8F9
  66
     1
 10
0.000000
 20
0.000000
 30
0.000000
  70
     8
  0
VERTEX
  8
É}ÿg
  5
8FA
 10
586.038
 20
-452.854
 30
0.000000
  70
    32
  0
VERTEX
  8
É}ÿg
  5
8FB
 10
586.091
 20
-452.869
 30
0.000000
  70
    32
  0
VERTEX
  8
É}ÿg
  5
8FC
 10
586.143
 20
-452.884
 30
0.000000
  70
    32
  0
VERTEX
  8
É}ÿg
  5
8FD
 10
586.196
 20
-452.898
 30
0.000000
  70
    32
  0
VERTEX
  8
É}ÿg
  5
8FE
 10
586.249
 20
-452.913
 30
0.000000
  70
    32
  0
VERTEX
  8
É}ÿg
  5
8FF
 10
586.301
 20
-452.927
 30
0.000000
  70
    32
  0
VERTEX
  8
É}ÿg
  5
900
 10
586.354
 20
-452.942
 30
0.000000
  70
    32
  0
VERTEX
  8
É}ÿg
  5
901
 10
586.407
 20
-452.956
 30
0.000000
  70
    32
  0
VERTEX
  8
É}ÿg
  5
902
 10
586.460
 20
-452.970
 30
0.000000
  70
    32
  0
VERTEX
  8
É}ÿg
  5
903
 10
586.512
 20
-452.985
 30
0.000000
  70
    32
  0
VERTEX
  8
É}ÿg
  5
904
 10
586.565
 20
-452.999
 30
0.000000
  70
    32
  0
VERTEX
  8
É}ÿg
  5
905
 10
586.618
 20
-453.013
 30
0.000000
  70
    32
  0
VERTEX
  8
É}ÿg
  5
906
 10
586.671
 20
-453.027
 30
0.000000
  70
    32
  0
VERTEX
  8
É}ÿg
  5
907
 10
586.724
 20
-453.041
 30
0.000000
  70
    32
  0
VERTEX
  8
É}ÿg
  5
908
 10
586.777
 20
-453.054
 30
0.000000
  70
    32
  0
VERTEX
  8
É}ÿg
  5
909
 10
586.831
 20
-453.068
 30
0.000000
  70
    32
  0
VERTEX
  8
É}ÿg
  5
90A
 10
586.884
 20
-453.082
 30
0.000000
  70
    32
  0
VERTEX
  8
É}ÿg
  5
90B
 10
586.937
 20
-453.095
 30
0.000000
  70
    32
  0
VERTEX
  8
É}ÿg
  5
90C
 10
586.990
 20
-453.109
 30
0.000000
  70
    32
  0
VERTEX
  8
É}ÿg
  5
90D
 10
587.044
 20
-453.122
 30
0.000000
  70
    32
  0
VERTEX
  8
É}ÿg
  5
90E
 10
587.097
 20
-453.136
 30
0.000000
  70
    32
  0
VERTEX
  8
É}ÿg
  5
90F
 10
587.151
 20
-453.149
 30
0.000000
  70
    32
  0
VERTEX
  8
É}ÿg
  5
910
 10
587.204
 20
-453.162
 30
0.000000
  70
    32
  0
VERTEX
  8
É}ÿg
  5
911
 10
587.258
 20
-453.175
 30
0.000000
  70
    32
  0
VERTEX
  8
É}ÿg
  5
912
 10
587.311
 20
-453.188
 30
0.000000
  70
    32
  0
VERTEX
  8
É}ÿg
  5
913
 10
587.365
 20
-453.201
 30
0.000000
  70
    32
  0
VERTEX
  8
É}ÿg
  5
914
 10
587.418
 20
-453.214
 30
0.000000
  70
    32
  0
VERTEX
  8
É}ÿg
  5
915
 10
587.472
 20
-453.227
 30
0.000000
  70
    32
  0
VERTEX
  8
É}ÿg
  5
916
 10
587.526
 20
-453.240
 30
0.000000
  70
    32
  0
VERTEX
  8
É}ÿg
  5
917
 10
587.580
 20
-453.253
 30
0.000000
  70
    32
  0
VERTEX
  8
É}ÿg
  5
918
 10
587.633
 20
-453.265
 30
0.000000
  70
    32
  0
VERTEX
  8
É}ÿg
  5
919
 10
587.687
 20
-453.278
 30
0.000000
  70
    32
  0
VERTEX
  8
É}ÿg
  5
91A
 10
587.741
 20
-453.290
 30
0.000000
  70
    32
  0
VERTEX
  8
É}ÿg
  5
91B
 10
587.795
 20
-453.303
 30
0.000000
  70
    32
  0
VERTEX
  8
É}ÿg
  5
91C
 10
587.849
 20
-453.315
 30
0.000000
  70
    32
  0
VERTEX
  8
É}ÿg
  5
91D
 10
587.903
 20
-453.328
 30
0.000000
  70
    32
  0
VERTEX
  8
É}ÿg
  5
91E
 10
587.957
 20
-453.340
 30
0.000000
  70
    32
  0
VERTEX
  8
É}ÿg
  5
91F
 10
588.011
 20
-453.352
 30
0.000000
  70
    32
  0
VERTEX
  8
É}ÿg
  5
920
 10
588.065
 20
-453.364
 30
0.000000
  70
    32
  0
VERTEX
  8
É}ÿg
  5
921
 10
588.120
 20
-453.376
 30
0.000000
  70
    32
  0
VERTEX
  8
É}ÿg
  5
922
 10
588.174
 20
-453.388
 30
0.000000
  70
    32
  0
VERTEX
  8
É}ÿg
  5
923
 10
588.228
 20
-453.400
 30
0.000000
  70
    32
  0
VERTEX
  8
É}ÿg
  5
924
 10
588.282
 20
-453.412
 30
0.000000
  70
    32
  0
VERTEX
  8
É}ÿg
  5
925
 10
588.337
 20
-453.424
 30
0.000000
  70
    32
  0
VERTEX
  8
É}ÿg
  5
926
 10
588.391
 20
-453.436
 30
0.000000
  70
    32
  0
VERTEX
  8
É}ÿg
  5
927
 10
588.445
 20
-453.448
 30
0.000000
  70
    32
  0
VERTEX
  8
É}ÿg
  5
928
 10
588.500
 20
-453.459
 30
0.000000
  70
    32
  0
VERTEX
  8
É}ÿg
  5
929
 10
588.554
 20
-453.471
 30
0.000000
  70
    32
  0
VERTEX
  8
É}ÿg
  5
92A
 10
588.609
 20
-453.483
 30
0.000000
  70
    32
  0
VERTEX
  8
É}ÿg
  5
92B
 10
588.663
 20
-453.494
 30
0.000000
  70
    32
  0
VERTEX
  8
É}ÿg
  5
92C
 10
588.718
 20
-453.506
 30
0.000000
  70
    32
  0
VERTEX
  8
É}ÿg
  5
92D
 10
588.772
 20
-453.517
 30
0.000000
  70
    32
  0
VERTEX
  8
É}ÿg
  5
92E
 10
588.827
 20
-453.528
 30
0.000000
  70
    32
  0
VERTEX
  8
É}ÿg
  5
92F
 10
588.882
 20
-453.540
 30
0.000000
  70
    32
  0
VERTEX
  8
É}ÿg
  5
930
 10
588.936
 20
-453.551
 30
0.000000
  70
    32
  0
VERTEX
  8
É}ÿg
  5
931
 10
588.991
 20
-453.562
 30
0.000000
  70
    32
  0
VERTEX
  8
É}ÿg
  5
932
 10
589.046
 20
-453.573
 30
0.000000
  70
    32
  0
VERTEX
  8
É}ÿg
  5
933
 10
589.101
 20
-453.584
 30
0.000000
  70
    32
  0
VERTEX
  8
É}ÿg
  5
934
 10
589.156
 20
-453.596
 30
0.000000
  70
    32
  0
VERTEX
  8
É}ÿg
  5
935
 10
589.210
 20
-453.607
 30
0.000000
  70
    32
  0
VERTEX
  8
É}ÿg
  5
936
 10
589.265
 20
-453.618
 30
0.000000
  70
    32
  0
VERTEX
  8
É}ÿg
  5
937
 10
589.320
 20
-453.628
 30
0.000000
  70
    32
  0
VERTEX
  8
É}ÿg
  5
938
 10
589.375
 20
-453.639
 30
0.000000
  70
    32
  0
VERTEX
  8
É}ÿg
  5
939
 10
589.430
 20
-453.650
 30
0.000000
  70
    32
  0
VERTEX
  8
É}ÿg
  5
93A
 10
589.485
 20
-453.661
 30
0.000000
  70
    32
  0
VERTEX
  8
É}ÿg
  5
93B
 10
589.540
 20
-453.672
 30
0.000000
  70
    32
  0
VERTEX
  8
É}ÿg
  5
93C
 10
589.595
 20
-453.682
 30
0.000000
  70
    32
  0
VERTEX
  8
É}ÿg
  5
93D
 10
589.650
 20
-453.693
 30
0.000000
  70
    32
  0
VERTEX
  8
É}ÿg
  5
93E
 10
589.705
 20
-453.704
 30
0.000000
  70
    32
  0
VERTEX
  8
É}ÿg
  5
93F
 10
589.760
 20
-453.714
 30
0.000000
  70
    32
  0
VERTEX
  8
É}ÿg
  5
940
 10
589.815
 20
-453.725
 30
0.000000
  70
    32
  0
VERTEX
  8
É}ÿg
  5
941
 10
589.871
 20
-453.735
 30
0.000000
  70
    32
  0
VERTEX
  8
É}ÿg
  5
942
 10
589.926
 20
-453.746
 30
0.000000
  70
    32
  0
VERTEX
  8
É}ÿg
  5
943
 10
589.981
 20
-453.756
 30
0.000000
  70
    32
  0
VERTEX
  8
É}ÿg
  5
944
 10
590.036
 20
-453.767
 30
0.000000
  70
    32
  0
VERTEX
  8
É}ÿg
  5
945
 10
590.091
 20
-453.777
 30
0.000000
  70
    32
  0
VERTEX
  8
É}ÿg
  5
946
 10
590.147
 20
-453.787
 30
0.000000
  70
    32
  0
VERTEX
  8
É}ÿg
  5
947
 10
590.202
 20
-453.798
 30
0.000000
  70
    32
  0
VERTEX
  8
É}ÿg
  5
948
 10
590.257
 20
-453.808
 30
0.000000
  70
    32
  0
VERTEX
  8
É}ÿg
  5
949
 10
590.313
 20
-453.818
 30
0.000000
  70
    32
  0
VERTEX
  8
É}ÿg
  5
94A
 10
590.368
 20
-453.828
 30
0.000000
  70
    32
  0
VERTEX
  8
É}ÿg
  5
94B
 10
590.423
 20
-453.839
 30
0.000000
  70
    32
  0
VERTEX
  8
É}ÿg
  5
94C
 10
590.479
 20
-453.849
 30
0.000000
  70
    32
  0
VERTEX
  8
É}ÿg
  5
94D
 10
590.534
 20
-453.859
 30
0.000000
  70
    32
  0
VERTEX
  8
É}ÿg
  5
94E
 10
590.590
 20
-453.869
 30
0.000000
  70
    32
  0
VERTEX
  8
É}ÿg
  5
94F
 10
590.645
 20
-453.879
 30
0.000000
  70
    32
  0
VERTEX
  8
É}ÿg
  5
950
 10
590.700
 20
-453.889
 30
0.000000
  70
    32
  0
VERTEX
  8
É}ÿg
  5
951
 10
590.756
 20
-453.899
 30
0.000000
  70
    32
  0
VERTEX
  8
É}ÿg
  5
952
 10
590.811
 20
-453.909
 30
0.000000
  70
    32
  0
VERTEX
  8
É}ÿg
  5
953
 10
590.867
 20
-453.919
 30
0.000000
  70
    32
  0
VERTEX
  8
É}ÿg
  5
954
 10
590.922
 20
-453.929
 30
0.000000
  70
    32
  0
VERTEX
  8
É}ÿg
  5
955
 10
590.978
 20
-453.939
 30
0.000000
  70
    32
  0
VERTEX
  8
É}ÿg
  5
956
 10
591.034
 20
-453.948
 30
0.000000
  70
    32
  0
VERTEX
  8
É}ÿg
  5
957
 10
591.089
 20
-453.958
 30
0.000000
  70
    32
  0
VERTEX
  8
É}ÿg
  5
958
 10
591.145
 20
-453.968
 30
0.000000
  70
    32
  0
VERTEX
  8
É}ÿg
  5
959
 10
591.200
 20
-453.978
 30
0.000000
  70
    32
  0
VERTEX
  8
É}ÿg
  5
95A
 10
591.256
 20
-453.988
 30
0.000000
  70
    32
  0
VERTEX
  8
É}ÿg
  5
95B
 10
591.312
 20
-453.997
 30
0.000000
  70
    32
  0
VERTEX
  8
É}ÿg
  5
95C
 10
591.367
 20
-454.007
 30
0.000000
  70
    32
  0
VERTEX
  8
É}ÿg
  5
95D
 10
591.423
 20
-454.017
 30
0.000000
  70
    32
  0
VERTEX
  8
É}ÿg
  5
95E
 10
591.479
 20
-454.027
 30
0.000000
  70
    32
  0
VERTEX
  8
É}ÿg
  5
95F
 10
591.534
 20
-454.036
 30
0.000000
  70
    32
  0
VERTEX
  8
É}ÿg
  5
960
 10
591.590
 20
-454.046
 30
0.000000
  70
    32
  0
VERTEX
  8
É}ÿg
  5
961
 10
591.646
 20
-454.055
 30
0.000000
  70
    32
  0
VERTEX
  8
É}ÿg
  5
962
 10
591.701
 20
-454.065
 30
0.000000
  70
    32
  0
VERTEX
  8
É}ÿg
  5
963
 10
591.757
 20
-454.075
 30
0.000000
  70
    32
  0
VERTEX
  8
É}ÿg
  5
964
 10
591.813
 20
-454.084
 30
0.000000
  70
    32
  0
VERTEX
  8
É}ÿg
  5
965
 10
591.869
 20
-454.094
 30
0.000000
  70
    32
  0
VERTEX
  8
É}ÿg
  5
966
 10
591.924
 20
-454.103
 30
0.000000
  70
    32
  0
VERTEX
  8
É}ÿg
  5
967
 10
591.980
 20
-454.113
 30
0.000000
  70
    32
  0
VERTEX
  8
É}ÿg
  5
968
 10
592.036
 20
-454.122
 30
0.000000
  70
    32
  0
VERTEX
  8
É}ÿg
  5
969
 10
592.092
 20
-454.132
 30
0.000000
  70
    32
  0
VERTEX
  8
É}ÿg
  5
96A
 10
592.147
 20
-454.142
 30
0.000000
  70
    32
  0
VERTEX
  8
É}ÿg
  5
96B
 10
592.203
 20
-454.151
 30
0.000000
  70
    32
  0
VERTEX
  8
É}ÿg
  5
96C
 10
592.259
 20
-454.161
 30
0.000000
  70
    32
  0
VERTEX
  8
É}ÿg
  5
96D
 10
592.315
 20
-454.170
 30
0.000000
  70
    32
  0
VERTEX
  8
É}ÿg
  5
96E
 10
592.371
 20
-454.179
 30
0.000000
  70
    32
  0
VERTEX
  8
É}ÿg
  5
96F
 10
592.426
 20
-454.189
 30
0.000000
  70
    32
  0
VERTEX
  8
É}ÿg
  5
970
 10
592.482
 20
-454.198
 30
0.000000
  70
    32
  0
VERTEX
  8
É}ÿg
  5
971
 10
592.538
 20
-454.208
 30
0.000000
  70
    32
  0
VERTEX
  8
É}ÿg
  5
972
 10
592.594
 20
-454.217
 30
0.000000
  70
    32
  0
VERTEX
  8
É}ÿg
  5
973
 10
592.650
 20
-454.227
 30
0.000000
  70
    32
  0
VERTEX
  8
É}ÿg
  5
974
 10
592.705
 20
-454.236
 30
0.000000
  70
    32
  0
VERTEX
  8
É}ÿg
  5
975
 10
592.761
 20
-454.246
 30
0.000000
  70
    32
  0
VERTEX
  8
É}ÿg
  5
976
 10
592.817
 20
-454.255
 30
0.000000
  70
    32
  0
VERTEX
  8
É}ÿg
  5
977
 10
592.873
 20
-454.264
 30
0.000000
  70
    32
  0
VERTEX
  8
É}ÿg
  5
978
 10
592.929
 20
-454.274
 30
0.000000
  70
    32
  0
VERTEX
  8
É}ÿg
  5
979
 10
592.985
 20
-454.283
 30
0.000000
  70
    32
  0
SEQEND
  8
É}ÿg
  5
97A
  0
POLYLINE
  8
É}ÿg
  5
97B
  66
     1
 10
0.000000
 20
0.000000
 30
0.000000
  70
     8
  0
VERTEX
  8
É}ÿg
  5
97C
 10
576.288
 20
-446.447
 30
0.000000
  70
    32
  0
VERTEX
  8
É}ÿg
  5
97D
 10
576.307
 20
-446.469
 30
0.000000
  70
    32
  0
VERTEX
  8
É}ÿg
  5
97E
 10
576.327
 20
-446.491
 30
0.000000
  70
    32
  0
VERTEX
  8
É}ÿg
  5
97F
 10
576.347
 20
-446.513
 30
0.000000
  70
    32
  0
VERTEX
  8
É}ÿg
  5
980
 10
576.367
 20
-446.535
 30
0.000000
  70
    32
  0
VERTEX
  8
É}ÿg
  5
981
 10
576.387
 20
-446.557
 30
0.000000
  70
    32
  0
VERTEX
  8
É}ÿg
  5
982
 10
576.406
 20
-446.579
 30
0.000000
  70
    32
  0
VERTEX
  8
É}ÿg
  5
983
 10
576.426
 20
-446.601
 30
0.000000
  70
    32
  0
VERTEX
  8
É}ÿg
  5
984
 10
576.446
 20
-446.623
 30
0.000000
  70
    32
  0
VERTEX
  8
É}ÿg
  5
985
 10
576.466
 20
-446.645
 30
0.000000
  70
    32
  0
VERTEX
  8
É}ÿg
  5
986
 10
576.486
 20
-446.667
 30
0.000000
  70
    32
  0
VERTEX
  8
É}ÿg
  5
987
 10
576.505
 20
-446.689
 30
0.000000
  70
    32
  0
VERTEX
  8
É}ÿg
  5
988
 10
576.525
 20
-446.712
 30
0.000000
  70
    32
  0
VERTEX
  8
É}ÿg
  5
989
 10
576.545
 20
-446.734
 30
0.000000
  70
    32
  0
VERTEX
  8
É}ÿg
  5
98A
 10
576.565
 20
-446.756
 30
0.000000
  70
    32
  0
VERTEX
  8
É}ÿg
  5
98B
 10
576.585
 20
-446.778
 30
0.000000
  70
    32
  0
VERTEX
  8
É}ÿg
  5
98C
 10
576.604
 20
-446.800
 30
0.000000
  70
    32
  0
VERTEX
  8
É}ÿg
  5
98D
 10
576.624
 20
-446.822
 30
0.000000
  70
    32
  0
VERTEX
  8
É}ÿg
  5
98E
 10
576.644
 20
-446.844
 30
0.000000
  70
    32
  0
VERTEX
  8
É}ÿg
  5
98F
 10
576.664
 20
-446.866
 30
0.000000
  70
    32
  0
VERTEX
  8
É}ÿg
  5
990
 10
576.684
 20
-446.888
 30
0.000000
  70
    32
  0
VERTEX
  8
É}ÿg
  5
991
 10
576.704
 20
-446.910
 30
0.000000
  70
    32
  0
VERTEX
  8
É}ÿg
  5
992
 10
576.723
 20
-446.932
 30
0.000000
  70
    32
  0
VERTEX
  8
É}ÿg
  5
993
 10
576.743
 20
-446.954
 30
0.000000
  70
    32
  0
VERTEX
  8
É}ÿg
  5
994
 10
576.763
 20
-446.976
 30
0.000000
  70
    32
  0
VERTEX
  8
É}ÿg
  5
995
 10
576.783
 20
-446.998
 30
0.000000
  70
    32
  0
VERTEX
  8
É}ÿg
  5
996
 10
576.803
 20
-447.020
 30
0.000000
  70
    32
  0
VERTEX
  8
É}ÿg
  5
997
 10
576.823
 20
-447.042
 30
0.000000
  70
    32
  0
VERTEX
  8
É}ÿg
  5
998
 10
576.843
 20
-447.064
 30
0.000000
  70
    32
  0
VERTEX
  8
É}ÿg
  5
999
 10
576.863
 20
-447.086
 30
0.000000
  70
    32
  0
VERTEX
  8
É}ÿg
  5
99A
 10
576.882
 20
-447.107
 30
0.000000
  70
    32
  0
VERTEX
  8
É}ÿg
  5
99B
 10
576.902
 20
-447.129
 30
0.000000
  70
    32
  0
VERTEX
  8
É}ÿg
  5
99C
 10
576.922
 20
-447.151
 30
0.000000
  70
    32
  0
VERTEX
  8
É}ÿg
  5
99D
 10
576.942
 20
-447.173
 30
0.000000
  70
    32
  0
VERTEX
  8
É}ÿg
  5
99E
 10
576.962
 20
-447.195
 30
0.000000
  70
    32
  0
VERTEX
  8
É}ÿg
  5
99F
 10
576.982
 20
-447.217
 30
0.000000
  70
    32
  0
VERTEX
  8
É}ÿg
  5
9A0
 10
577.002
 20
-447.239
 30
0.000000
  70
    32
  0
VERTEX
  8
É}ÿg
  5
9A1
 10
577.022
 20
-447.261
 30
0.000000
  70
    32
  0
VERTEX
  8
É}ÿg
  5
9A2
 10
577.042
 20
-447.283
 30
0.000000
  70
    32
  0
VERTEX
  8
É}ÿg
  5
9A3
 10
577.062
 20
-447.304
 30
0.000000
  70
    32
  0
VERTEX
  8
É}ÿg
  5
9A4
 10
577.082
 20
-447.326
 30
0.000000
  70
    32
  0
VERTEX
  8
É}ÿg
  5
9A5
 10
577.102
 20
-447.348
 30
0.000000
  70
    32
  0
VERTEX
  8
É}ÿg
  5
9A6
 10
577.122
 20
-447.370
 30
0.000000
  70
    32
  0
VERTEX
  8
É}ÿg
  5
9A7
 10
577.142
 20
-447.392
 30
0.000000
  70
    32
  0
VERTEX
  8
É}ÿg
  5
9A8
 10
577.162
 20
-447.413
 30
0.000000
  70
    32
  0
VERTEX
  8
É}ÿg
  5
9A9
 10
577.182
 20
-447.435
 30
0.000000
  70
    32
  0
VERTEX
  8
É}ÿg
  5
9AA
 10
577.202
 20
-447.457
 30
0.000000
  70
    32
  0
VERTEX
  8
É}ÿg
  5
9AB
 10
577.222
 20
-447.479
 30
0.000000
  70
    32
  0
VERTEX
  8
É}ÿg
  5
9AC
 10
577.242
 20
-447.500
 30
0.000000
  70
    32
  0
VERTEX
  8
É}ÿg
  5
9AD
 10
577.262
 20
-447.522
 30
0.000000
  70
    32
  0
VERTEX
  8
É}ÿg
  5
9AE
 10
577.282
 20
-447.544
 30
0.000000
  70
    32
  0
VERTEX
  8
É}ÿg
  5
9AF
 10
577.302
 20
-447.565
 30
0.000000
  70
    32
  0
VERTEX
  8
É}ÿg
  5
9B0
 10
577.322
 20
-447.587
 30
0.000000
  70
    32
  0
VERTEX
  8
É}ÿg
  5
9B1
 10
577.342
 20
-447.609
 30
0.000000
  70
    32
  0
VERTEX
  8
É}ÿg
  5
9B2
 10
577.362
 20
-447.630
 30
0.000000
  70
    32
  0
VERTEX
  8
É}ÿg
  5
9B3
 10
577.382
 20
-447.652
 30
0.000000
  70
    32
  0
VERTEX
  8
É}ÿg
  5
9B4
 10
577.402
 20
-447.673
 30
0.000000
  70
    32
  0
VERTEX
  8
É}ÿg
  5
9B5
 10
577.422
 20
-447.695
 30
0.000000
  70
    32
  0
VERTEX
  8
É}ÿg
  5
9B6
 10
577.442
 20
-447.716
 30
0.000000
  70
    32
  0
VERTEX
  8
É}ÿg
  5
9B7
 10
577.463
 20
-447.738
 30
0.000000
  70
    32
  0
VERTEX
  8
É}ÿg
  5
9B8
 10
577.483
 20
-447.759
 30
0.000000
  70
    32
  0
VERTEX
  8
É}ÿg
  5
9B9
 10
577.503
 20
-447.781
 30
0.000000
  70
    32
  0
VERTEX
  8
É}ÿg
  5
9BA
 10
577.523
 20
-447.802
 30
0.000000
  70
    32
  0
VERTEX
  8
É}ÿg
  5
9BB
 10
577.543
 20
-447.824
 30
0.000000
  70
    32
  0
VERTEX
  8
É}ÿg
  5
9BC
 10
577.564
 20
-447.845
 30
0.000000
  70
    32
  0
VERTEX
  8
É}ÿg
  5
9BD
 10
577.584
 20
-447.867
 30
0.000000
  70
    32
  0
VERTEX
  8
É}ÿg
  5
9BE
 10
577.604
 20
-447.888
 30
0.000000
  70
    32
  0
VERTEX
  8
É}ÿg
  5
9BF
 10
577.624
 20
-447.909
 30
0.000000
  70
    32
  0
VERTEX
  8
É}ÿg
  5
9C0
 10
577.645
 20
-447.931
 30
0.000000
  70
    32
  0
VERTEX
  8
É}ÿg
  5
9C1
 10
577.665
 20
-447.952
 30
0.000000
  70
    32
  0
VERTEX
  8
É}ÿg
  5
9C2
 10
577.685
 20
-447.973
 30
0.000000
  70
    32
  0
VERTEX
  8
É}ÿg
  5
9C3
 10
577.705
 20
-447.994
 30
0.000000
  70
    32
  0
VERTEX
  8
É}ÿg
  5
9C4
 10
577.726
 20
-448.016
 30
0.000000
  70
    32
  0
VERTEX
  8
É}ÿg
  5
9C5
 10
577.746
 20
-448.037
 30
0.000000
  70
    32
  0
VERTEX
  8
É}ÿg
  5
9C6
 10
577.766
 20
-448.058
 30
0.000000
  70
    32
  0
VERTEX
  8
É}ÿg
  5
9C7
 10
577.787
 20
-448.079
 30
0.000000
  70
    32
  0
VERTEX
  8
É}ÿg
  5
9C8
 10
577.807
 20
-448.100
 30
0.000000
  70
    32
  0
VERTEX
  8
É}ÿg
  5
9C9
 10
577.828
 20
-448.121
 30
0.000000
  70
    32
  0
VERTEX
  8
É}ÿg
  5
9CA
 10
577.848
 20
-448.143
 30
0.000000
  70
    32
  0
VERTEX
  8
É}ÿg
  5
9CB
 10
577.868
 20
-448.164
 30
0.000000
  70
    32
  0
VERTEX
  8
É}ÿg
  5
9CC
 10
577.889
 20
-448.185
 30
0.000000
  70
    32
  0
VERTEX
  8
É}ÿg
  5
9CD
 10
577.909
 20
-448.206
 30
0.000000
  70
    32
  0
VERTEX
  8
É}ÿg
  5
9CE
 10
577.930
 20
-448.227
 30
0.000000
  70
    32
  0
VERTEX
  8
É}ÿg
  5
9CF
 10
577.950
 20
-448.248
 30
0.000000
  70
    32
  0
VERTEX
  8
É}ÿg
  5
9D0
 10
577.971
 20
-448.268
 30
0.000000
  70
    32
  0
VERTEX
  8
É}ÿg
  5
9D1
 10
577.991
 20
-448.289
 30
0.000000
  70
    32
  0
VERTEX
  8
É}ÿg
  5
9D2
 10
578.012
 20
-448.310
 30
0.000000
  70
    32
  0
VERTEX
  8
É}ÿg
  5
9D3
 10
578.032
 20
-448.331
 30
0.000000
  70
    32
  0
VERTEX
  8
É}ÿg
  5
9D4
 10
578.053
 20
-448.352
 30
0.000000
  70
    32
  0
VERTEX
  8
É}ÿg
  5
9D5
 10
578.074
 20
-448.373
 30
0.000000
  70
    32
  0
VERTEX
  8
É}ÿg
  5
9D6
 10
578.094
 20
-448.393
 30
0.000000
  70
    32
  0
VERTEX
  8
É}ÿg
  5
9D7
 10
578.115
 20
-448.414
 30
0.000000
  70
    32
  0
VERTEX
  8
É}ÿg
  5
9D8
 10
578.136
 20
-448.435
 30
0.000000
  70
    32
  0
VERTEX
  8
É}ÿg
  5
9D9
 10
578.156
 20
-448.456
 30
0.000000
  70
    32
  0
VERTEX
  8
É}ÿg
  5
9DA
 10
578.177
 20
-448.476
 30
0.000000
  70
    32
  0
VERTEX
  8
É}ÿg
  5
9DB
 10
578.198
 20
-448.497
 30
0.000000
  70
    32
  0
VERTEX
  8
É}ÿg
  5
9DC
 10
578.218
 20
-448.517
 30
0.000000
  70
    32
  0
VERTEX
  8
É}ÿg
  5
9DD
 10
578.239
 20
-448.538
 30
0.000000
  70
    32
  0
VERTEX
  8
É}ÿg
  5
9DE
 10
578.260
 20
-448.558
 30
0.000000
  70
    32
  0
VERTEX
  8
É}ÿg
  5
9DF
 10
578.281
 20
-448.579
 30
0.000000
  70
    32
  0
VERTEX
  8
É}ÿg
  5
9E0
 10
578.301
 20
-448.599
 30
0.000000
  70
    32
  0
VERTEX
  8
É}ÿg
  5
9E1
 10
578.322
 20
-448.620
 30
0.000000
  70
    32
  0
VERTEX
  8
É}ÿg
  5
9E2
 10
578.343
 20
-448.640
 30
0.000000
  70
    32
  0
VERTEX
  8
É}ÿg
  5
9E3
 10
578.364
 20
-448.660
 30
0.000000
  70
    32
  0
VERTEX
  8
É}ÿg
  5
9E4
 10
578.385
 20
-448.681
 30
0.000000
  70
    32
  0
VERTEX
  8
É}ÿg
  5
9E5
 10
578.406
 20
-448.701
 30
0.000000
  70
    32
  0
VERTEX
  8
É}ÿg
  5
9E6
 10
578.427
 20
-448.721
 30
0.000000
  70
    32
  0
VERTEX
  8
É}ÿg
  5
9E7
 10
578.448
 20
-448.741
 30
0.000000
  70
    32
  0
VERTEX
  8
É}ÿg
  5
9E8
 10
578.469
 20
-448.762
 30
0.000000
  70
    32
  0
VERTEX
  8
É}ÿg
  5
9E9
 10
578.490
 20
-448.782
 30
0.000000
  70
    32
  0
VERTEX
  8
É}ÿg
  5
9EA
 10
578.511
 20
-448.802
 30
0.000000
  70
    32
  0
VERTEX
  8
É}ÿg
  5
9EB
 10
578.532
 20
-448.822
 30
0.000000
  70
    32
  0
VERTEX
  8
É}ÿg
  5
9EC
 10
578.553
 20
-448.842
 30
0.000000
  70
    32
  0
VERTEX
  8
É}ÿg
  5
9ED
 10
578.574
 20
-448.862
 30
0.000000
  70
    32
  0
VERTEX
  8
É}ÿg
  5
9EE
 10
578.595
 20
-448.882
 30
0.000000
  70
    32
  0
VERTEX
  8
É}ÿg
  5
9EF
 10
578.616
 20
-448.902
 30
0.000000
  70
    32
  0
VERTEX
  8
É}ÿg
  5
9F0
 10
578.637
 20
-448.922
 30
0.000000
  70
    32
  0
VERTEX
  8
É}ÿg
  5
9F1
 10
578.659
 20
-448.942
 30
0.000000
  70
    32
  0
VERTEX
  8
É}ÿg
  5
9F2
 10
578.680
 20
-448.961
 30
0.000000
  70
    32
  0
VERTEX
  8
É}ÿg
  5
9F3
 10
578.701
 20
-448.981
 30
0.000000
  70
    32
  0
VERTEX
  8
É}ÿg
  5
9F4
 10
578.722
 20
-449.001
 30
0.000000
  70
    32
  0
VERTEX
  8
É}ÿg
  5
9F5
 10
578.744
 20
-449.021
 30
0.000000
  70
    32
  0
VERTEX
  8
É}ÿg
  5
9F6
 10
578.765
 20
-449.040
 30
0.000000
  70
    32
  0
VERTEX
  8
É}ÿg
  5
9F7
 10
578.786
 20
-449.060
 30
0.000000
  70
    32
  0
VERTEX
  8
É}ÿg
  5
9F8
 10
578.808
 20
-449.079
 30
0.000000
  70
    32
  0
VERTEX
  8
É}ÿg
  5
9F9
 10
578.829
 20
-449.099
 30
0.000000
  70
    32
  0
VERTEX
  8
É}ÿg
  5
9FA
 10
578.850
 20
-449.118
 30
0.000000
  70
    32
  0
VERTEX
  8
É}ÿg
  5
9FB
 10
578.872
 20
-449.138
 30
0.000000
  70
    32
  0
SEQEND
  8
É}ÿg
  5
9FC
  0
POLYLINE
  8
É}ÿg
  5
9FD
  66
     1
 10
0.000000
 20
0.000000
 30
0.000000
  70
     8
  0
VERTEX
  8
É}ÿg
  5
9FE
 10
582.361
 20
-456.192
 30
0.000000
  70
    32
  0
VERTEX
  8
É}ÿg
  5
9FF
 10
582.442
 20
-456.218
 30
0.000000
  70
    32
  0
VERTEX
  8
É}ÿg
  5
A00
 10
582.523
 20
-456.244
 30
0.000000
  70
    32
  0
VERTEX
  8
É}ÿg
  5
A01
 10
582.603
 20
-456.269
 30
0.000000
  70
    32
  0
VERTEX
  8
É}ÿg
  5
A02
 10
582.684
 20
-456.295
 30
0.000000
  70
    32
  0
VERTEX
  8
É}ÿg
  5
A03
 10
582.765
 20
-456.320
 30
0.000000
  70
    32
  0
VERTEX
  8
É}ÿg
  5
A04
 10
582.847
 20
-456.345
 30
0.000000
  70
    32
  0
VERTEX
  8
É}ÿg
  5
A05
 10
582.928
 20
-456.370
 30
0.000000
  70
    32
  0
VERTEX
  8
É}ÿg
  5
A06
 10
583.009
 20
-456.395
 30
0.000000
  70
    32
  0
VERTEX
  8
É}ÿg
  5
A07
 10
583.090
 20
-456.420
 30
0.000000
  70
    32
  0
VERTEX
  8
É}ÿg
  5
A08
 10
583.172
 20
-456.444
 30
0.000000
  70
    32
  0
VERTEX
  8
É}ÿg
  5
A09
 10
583.253
 20
-456.469
 30
0.000000
  70
    32
  0
VERTEX
  8
É}ÿg
  5
A0A
 10
583.334
 20
-456.493
 30
0.000000
  70
    32
  0
VERTEX
  8
É}ÿg
  5
A0B
 10
583.416
 20
-456.517
 30
0.000000
  70
    32
  0
VERTEX
  8
É}ÿg
  5
A0C
 10
583.498
 20
-456.542
 30
0.000000
  70
    32
  0
VERTEX
  8
É}ÿg
  5
A0D
 10
583.579
 20
-456.566
 30
0.000000
  70
    32
  0
VERTEX
  8
É}ÿg
  5
A0E
 10
583.661
 20
-456.590
 30
0.000000
  70
    32
  0
VERTEX
  8
É}ÿg
  5
A0F
 10
583.743
 20
-456.614
 30
0.000000
  70
    32
  0
VERTEX
  8
É}ÿg
  5
A10
 10
583.825
 20
-456.637
 30
0.000000
  70
    32
  0
VERTEX
  8
É}ÿg
  5
A11
 10
583.907
 20
-456.661
 30
0.000000
  70
    32
  0
VERTEX
  8
É}ÿg
  5
A12
 10
583.989
 20
-456.684
 30
0.000000
  70
    32
  0
VERTEX
  8
É}ÿg
  5
A13
 10
584.071
 20
-456.708
 30
0.000000
  70
    32
  0
VERTEX
  8
É}ÿg
  5
A14
 10
584.153
 20
-456.731
 30
0.000000
  70
    32
  0
VERTEX
  8
É}ÿg
  5
A15
 10
584.235
 20
-456.754
 30
0.000000
  70
    32
  0
VERTEX
  8
É}ÿg
  5
A16
 10
584.317
 20
-456.777
 30
0.000000
  70
    32
  0
VERTEX
  8
É}ÿg
  5
A17
 10
584.399
 20
-456.800
 30
0.000000
  70
    32
  0
VERTEX
  8
É}ÿg
  5
A18
 10
584.482
 20
-456.823
 30
0.000000
  70
    32
  0
VERTEX
  8
É}ÿg
  5
A19
 10
584.564
 20
-456.846
 30
0.000000
  70
    32
  0
VERTEX
  8
É}ÿg
  5
A1A
 10
584.646
 20
-456.869
 30
0.000000
  70
    32
  0
VERTEX
  8
É}ÿg
  5
A1B
 10
584.729
 20
-456.891
 30
0.000000
  70
    32
  0
VERTEX
  8
É}ÿg
  5
A1C
 10
584.811
 20
-456.914
 30
0.000000
  70
    32
  0
VERTEX
  8
É}ÿg
  5
A1D
 10
584.894
 20
-456.936
 30
0.000000
  70
    32
  0
VERTEX
  8
É}ÿg
  5
A1E
 10
584.977
 20
-456.958
 30
0.000000
  70
    32
  0
VERTEX
  8
É}ÿg
  5
A1F
 10
585.059
 20
-456.981
 30
0.000000
  70
    32
  0
VERTEX
  8
É}ÿg
  5
A20
 10
585.142
 20
-457.003
 30
0.000000
  70
    32
  0
VERTEX
  8
É}ÿg
  5
A21
 10
585.225
 20
-457.025
 30
0.000000
  70
    32
  0
VERTEX
  8
É}ÿg
  5
A22
 10
585.308
 20
-457.047
 30
0.000000
  70
    32
  0
VERTEX
  8
É}ÿg
  5
A23
 10
585.390
 20
-457.068
 30
0.000000
  70
    32
  0
VERTEX
  8
É}ÿg
  5
A24
 10
585.473
 20
-457.090
 30
0.000000
  70
    32
  0
VERTEX
  8
É}ÿg
  5
A25
 10
585.556
 20
-457.112
 30
0.000000
  70
    32
  0
VERTEX
  8
É}ÿg
  5
A26
 10
585.639
 20
-457.133
 30
0.000000
  70
    32
  0
VERTEX
  8
É}ÿg
  5
A27
 10
585.722
 20
-457.155
 30
0.000000
  70
    32
  0
VERTEX
  8
É}ÿg
  5
A28
 10
585.806
 20
-457.176
 30
0.000000
  70
    32
  0
VERTEX
  8
É}ÿg
  5
A29
 10
585.889
 20
-457.198
 30
0.000000
  70
    32
  0
VERTEX
  8
É}ÿg
  5
A2A
 10
585.972
 20
-457.219
 30
0.000000
  70
    32
  0
VERTEX
  8
É}ÿg
  5
A2B
 10
586.055
 20
-457.240
 30
0.000000
  70
    32
  0
VERTEX
  8
É}ÿg
  5
A2C
 10
586.139
 20
-457.261
 30
0.000000
  70
    32
  0
VERTEX
  8
É}ÿg
  5
A2D
 10
586.222
 20
-457.282
 30
0.000000
  70
    32
  0
VERTEX
  8
É}ÿg
  5
A2E
 10
586.305
 20
-457.303
 30
0.000000
  70
    32
  0
VERTEX
  8
É}ÿg
  5
A2F
 10
586.389
 20
-457.324
 30
0.000000
  70
    32
  0
VERTEX
  8
É}ÿg
  5
A30
 10
586.472
 20
-457.344
 30
0.000000
  70
    32
  0
VERTEX
  8
É}ÿg
  5
A31
 10
586.556
 20
-457.365
 30
0.000000
  70
    32
  0
VERTEX
  8
É}ÿg
  5
A32
 10
586.639
 20
-457.385
 30
0.000000
  70
    32
  0
VERTEX
  8
É}ÿg
  5
A33
 10
586.723
 20
-457.406
 30
0.000000
  70
    32
  0
VERTEX
  8
É}ÿg
  5
A34
 10
586.807
 20
-457.426
 30
0.000000
  70
    32
  0
VERTEX
  8
É}ÿg
  5
A35
 10
586.890
 20
-457.447
 30
0.000000
  70
    32
  0
VERTEX
  8
É}ÿg
  5
A36
 10
586.974
 20
-457.467
 30
0.000000
  70
    32
  0
VERTEX
  8
É}ÿg
  5
A37
 10
587.058
 20
-457.487
 30
0.000000
  70
    32
  0
VERTEX
  8
É}ÿg
  5
A38
 10
587.141
 20
-457.507
 30
0.000000
  70
    32
  0
VERTEX
  8
É}ÿg
  5
A39
 10
587.225
 20
-457.527
 30
0.000000
  70
    32
  0
VERTEX
  8
É}ÿg
  5
A3A
 10
587.309
 20
-457.547
 30
0.000000
  70
    32
  0
VERTEX
  8
É}ÿg
  5
A3B
 10
587.393
 20
-457.567
 30
0.000000
  70
    32
  0
VERTEX
  8
É}ÿg
  5
A3C
 10
587.477
 20
-457.587
 30
0.000000
  70
    32
  0
VERTEX
  8
É}ÿg
  5
A3D
 10
587.561
 20
-457.607
 30
0.000000
  70
    32
  0
VERTEX
  8
É}ÿg
  5
A3E
 10
587.645
 20
-457.627
 30
0.000000
  70
    32
  0
VERTEX
  8
É}ÿg
  5
A3F
 10
587.729
 20
-457.646
 30
0.000000
  70
    32
  0
VERTEX
  8
É}ÿg
  5
A40
 10
587.813
 20
-457.666
 30
0.000000
  70
    32
  0
VERTEX
  8
É}ÿg
  5
A41
 10
587.897
 20
-457.685
 30
0.000000
  70
    32
  0
VERTEX
  8
É}ÿg
  5
A42
 10
587.981
 20
-457.705
 30
0.000000
  70
    32
  0
VERTEX
  8
É}ÿg
  5
A43
 10
588.066
 20
-457.724
 30
0.000000
  70
    32
  0
VERTEX
  8
É}ÿg
  5
A44
 10
588.150
 20
-457.744
 30
0.000000
  70
    32
  0
VERTEX
  8
É}ÿg
  5
A45
 10
588.234
 20
-457.763
 30
0.000000
  70
    32
  0
VERTEX
  8
É}ÿg
  5
A46
 10
588.318
 20
-457.782
 30
0.000000
  70
    32
  0
VERTEX
  8
É}ÿg
  5
A47
 10
588.403
 20
-457.801
 30
0.000000
  70
    32
  0
VERTEX
  8
É}ÿg
  5
A48
 10
588.487
 20
-457.821
 30
0.000000
  70
    32
  0
VERTEX
  8
É}ÿg
  5
A49
 10
588.571
 20
-457.840
 30
0.000000
  70
    32
  0
VERTEX
  8
É}ÿg
  5
A4A
 10
588.656
 20
-457.859
 30
0.000000
  70
    32
  0
VERTEX
  8
É}ÿg
  5
A4B
 10
588.740
 20
-457.878
 30
0.000000
  70
    32
  0
VERTEX
  8
É}ÿg
  5
A4C
 10
588.825
 20
-457.897
 30
0.000000
  70
    32
  0
VERTEX
  8
É}ÿg
  5
A4D
 10
588.909
 20
-457.915
 30
0.000000
  70
    32
  0
VERTEX
  8
É}ÿg
  5
A4E
 10
588.994
 20
-457.934
 30
0.000000
  70
    32
  0
VERTEX
  8
É}ÿg
  5
A4F
 10
589.078
 20
-457.953
 30
0.000000
  70
    32
  0
VERTEX
  8
É}ÿg
  5
A50
 10
589.163
 20
-457.972
 30
0.000000
  70
    32
  0
VERTEX
  8
É}ÿg
  5
A51
 10
589.247
 20
-457.990
 30
0.000000
  70
    32
  0
VERTEX
  8
É}ÿg
  5
A52
 10
589.332
 20
-458.009
 30
0.000000
  70
    32
  0
VERTEX
  8
É}ÿg
  5
A53
 10
589.416
 20
-458.028
 30
0.000000
  70
    32
  0
VERTEX
  8
É}ÿg
  5
A54
 10
589.501
 20
-458.046
 30
0.000000
  70
    32
  0
VERTEX
  8
É}ÿg
  5
A55
 10
589.586
 20
-458.065
 30
0.000000
  70
    32
  0
VERTEX
  8
É}ÿg
  5
A56
 10
589.670
 20
-458.083
 30
0.000000
  70
    32
  0
VERTEX
  8
É}ÿg
  5
A57
 10
589.755
 20
-458.102
 30
0.000000
  70
    32
  0
VERTEX
  8
É}ÿg
  5
A58
 10
589.840
 20
-458.120
 30
0.000000
  70
    32
  0
VERTEX
  8
É}ÿg
  5
A59
 10
589.925
 20
-458.138
 30
0.000000
  70
    32
  0
VERTEX
  8
É}ÿg
  5
A5A
 10
590.009
 20
-458.157
 30
0.000000
  70
    32
  0
VERTEX
  8
É}ÿg
  5
A5B
 10
590.094
 20
-458.175
 30
0.000000
  70
    32
  0
VERTEX
  8
É}ÿg
  5
A5C
 10
590.179
 20
-458.193
 30
0.000000
  70
    32
  0
VERTEX
  8
É}ÿg
  5
A5D
 10
590.264
 20
-458.212
 30
0.000000
  70
    32
  0
VERTEX
  8
É}ÿg
  5
A5E
 10
590.349
 20
-458.230
 30
0.000000
  70
    32
  0
VERTEX
  8
É}ÿg
  5
A5F
 10
590.434
 20
-458.248
 30
0.000000
  70
    32
  0
VERTEX
  8
É}ÿg
  5
A60
 10
590.518
 20
-458.266
 30
0.000000
  70
    32
  0
VERTEX
  8
É}ÿg
  5
A61
 10
590.603
 20
-458.284
 30
0.000000
  70
    32
  0
VERTEX
  8
É}ÿg
  5
A62
 10
590.688
 20
-458.302
 30
0.000000
  70
    32
  0
VERTEX
  8
É}ÿg
  5
A63
 10
590.773
 20
-458.320
 30
0.000000
  70
    32
  0
VERTEX
  8
É}ÿg
  5
A64
 10
590.858
 20
-458.338
 30
0.000000
  70
    32
  0
VERTEX
  8
É}ÿg
  5
A65
 10
590.943
 20
-458.356
 30
0.000000
  70
    32
  0
VERTEX
  8
É}ÿg
  5
A66
 10
591.028
 20
-458.374
 30
0.000000
  70
    32
  0
VERTEX
  8
É}ÿg
  5
A67
 10
591.113
 20
-458.392
 30
0.000000
  70
    32
  0
VERTEX
  8
É}ÿg
  5
A68
 10
591.198
 20
-458.410
 30
0.000000
  70
    32
  0
VERTEX
  8
É}ÿg
  5
A69
 10
591.283
 20
-458.428
 30
0.000000
  70
    32
  0
VERTEX
  8
É}ÿg
  5
A6A
 10
591.368
 20
-458.446
 30
0.000000
  70
    32
  0
VERTEX
  8
É}ÿg
  5
A6B
 10
591.453
 20
-458.464
 30
0.000000
  70
    32
  0
VERTEX
  8
É}ÿg
  5
A6C
 10
591.538
 20
-458.482
 30
0.000000
  70
    32
  0
VERTEX
  8
É}ÿg
  5
A6D
 10
591.623
 20
-458.500
 30
0.000000
  70
    32
  0
VERTEX
  8
É}ÿg
  5
A6E
 10
591.708
 20
-458.517
 30
0.000000
  70
    32
  0
VERTEX
  8
É}ÿg
  5
A6F
 10
591.793
 20
-458.535
 30
0.000000
  70
    32
  0
VERTEX
  8
É}ÿg
  5
A70
 10
591.878
 20
-458.553
 30
0.000000
  70
    32
  0
VERTEX
  8
É}ÿg
  5
A71
 10
591.963
 20
-458.571
 30
0.000000
  70
    32
  0
VERTEX
  8
É}ÿg
  5
A72
 10
592.048
 20
-458.588
 30
0.000000
  70
    32
  0
VERTEX
  8
É}ÿg
  5
A73
 10
592.134
 20
-458.606
 30
0.000000
  70
    32
  0
VERTEX
  8
É}ÿg
  5
A74
 10
592.219
 20
-458.624
 30
0.000000
  70
    32
  0
VERTEX
  8
É}ÿg
  5
A75
 10
592.304
 20
-458.642
 30
0.000000
  70
    32
  0
VERTEX
  8
É}ÿg
  5
A76
 10
592.389
 20
-458.659
 30
0.000000
  70
    32
  0
VERTEX
  8
É}ÿg
  5
A77
 10
592.474
 20
-458.677
 30
0.000000
  70
    32
  0
VERTEX
  8
É}ÿg
  5
A78
 10
592.559
 20
-458.695
 30
0.000000
  70
    32
  0
VERTEX
  8
É}ÿg
  5
A79
 10
592.644
 20
-458.713
 30
0.000000
  70
    32
  0
VERTEX
  8
É}ÿg
  5
A7A
 10
592.729
 20
-458.730
 30
0.000000
  70
    32
  0
VERTEX
  8
É}ÿg
  5
A7B
 10
592.814
 20
-458.748
 30
0.000000
  70
    32
  0
VERTEX
  8
É}ÿg
  5
A7C
 10
592.899
 20
-458.766
 30
0.000000
  70
    32
  0
VERTEX
  8
É}ÿg
  5
A7D
 10
592.985
 20
-458.783
 30
0.000000
  70
    32
  0
SEQEND
  8
É}ÿg
  5
A7E
  0
POLYLINE
  8
É}ÿg
  5
A7F
  66
     1
 10
0.000000
 20
0.000000
 30
0.000000
  70
     8
  0
VERTEX
  8
É}ÿg
  5
A80
 10
565.985
 20
-445.716
 30
0.000000
  70
    32
  0
VERTEX
  8
É}ÿg
  5
A81
 10
566.039
 20
-445.766
 30
0.000000
  70
    32
  0
VERTEX
  8
É}ÿg
  5
A82
 10
566.093
 20
-445.816
 30
0.000000
  70
    32
  0
VERTEX
  8
É}ÿg
  5
A83
 10
566.147
 20
-445.865
 30
0.000000
  70
    32
  0
VERTEX
  8
É}ÿg
  5
A84
 10
566.201
 20
-445.915
 30
0.000000
  70
    32
  0
VERTEX
  8
É}ÿg
  5
A85
 10
566.255
 20
-445.965
 30
0.000000
  70
    32
  0
VERTEX
  8
É}ÿg
  5
A86
 10
566.309
 20
-446.015
 30
0.000000
  70
    32
  0
VERTEX
  8
É}ÿg
  5
A87
 10
566.363
 20
-446.065
 30
0.000000
  70
    32
  0
VERTEX
  8
É}ÿg
  5
A88
 10
566.417
 20
-446.114
 30
0.000000
  70
    32
  0
VERTEX
  8
É}ÿg
  5
A89
 10
566.471
 20
-446.164
 30
0.000000
  70
    32
  0
VERTEX
  8
É}ÿg
  5
A8A
 10
566.525
 20
-446.214
 30
0.000000
  70
    32
  0
VERTEX
  8
É}ÿg
  5
A8B
 10
566.579
 20
-446.264
 30
0.000000
  70
    32
  0
VERTEX
  8
É}ÿg
  5
A8C
 10
566.633
 20
-446.313
 30
0.000000
  70
    32
  0
VERTEX
  8
É}ÿg
  5
A8D
 10
566.687
 20
-446.363
 30
0.000000
  70
    32
  0
VERTEX
  8
É}ÿg
  5
A8E
 10
566.741
 20
-446.413
 30
0.000000
  70
    32
  0
VERTEX
  8
É}ÿg
  5
A8F
 10
566.795
 20
-446.463
 30
0.000000
  70
    32
  0
VERTEX
  8
É}ÿg
  5
A90
 10
566.850
 20
-446.512
 30
0.000000
  70
    32
  0
VERTEX
  8
É}ÿg
  5
A91
 10
566.904
 20
-446.562
 30
0.000000
  70
    32
  0
VERTEX
  8
É}ÿg
  5
A92
 10
566.958
 20
-446.612
 30
0.000000
  70
    32
  0
VERTEX
  8
É}ÿg
  5
A93
 10
567.012
 20
-446.661
 30
0.000000
  70
    32
  0
VERTEX
  8
É}ÿg
  5
A94
 10
567.066
 20
-446.711
 30
0.000000
  70
    32
  0
VERTEX
  8
É}ÿg
  5
A95
 10
567.120
 20
-446.760
 30
0.000000
  70
    32
  0
VERTEX
  8
É}ÿg
  5
A96
 10
567.174
 20
-446.810
 30
0.000000
  70
    32
  0
VERTEX
  8
É}ÿg
  5
A97
 10
567.229
 20
-446.859
 30
0.000000
  70
    32
  0
VERTEX
  8
É}ÿg
  5
A98
 10
567.283
 20
-446.909
 30
0.000000
  70
    32
  0
VERTEX
  8
É}ÿg
  5
A99
 10
567.337
 20
-446.958
 30
0.000000
  70
    32
  0
VERTEX
  8
É}ÿg
  5
A9A
 10
567.391
 20
-447.008
 30
0.000000
  70
    32
  0
VERTEX
  8
É}ÿg
  5
A9B
 10
567.445
 20
-447.057
 30
0.000000
  70
    32
  0
VERTEX
  8
É}ÿg
  5
A9C
 10
567.500
 20
-447.107
 30
0.000000
  70
    32
  0
VERTEX
  8
É}ÿg
  5
A9D
 10
567.554
 20
-447.156
 30
0.000000
  70
    32
  0
VERTEX
  8
É}ÿg
  5
A9E
 10
567.608
 20
-447.206
 30
0.000000
  70
    32
  0
VERTEX
  8
É}ÿg
  5
A9F
 10
567.662
 20
-447.255
 30
0.000000
  70
    32
  0
VERTEX
  8
É}ÿg
  5
AA0
 10
567.717
 20
-447.304
 30
0.000000
  70
    32
  0
VERTEX
  8
É}ÿg
  5
AA1
 10
567.771
 20
-447.353
 30
0.000000
  70
    32
  0
VERTEX
  8
É}ÿg
  5
AA2
 10
567.825
 20
-447.403
 30
0.000000
  70
    32
  0
VERTEX
  8
É}ÿg
  5
AA3
 10
567.880
 20
-447.452
 30
0.000000
  70
    32
  0
VERTEX
  8
É}ÿg
  5
AA4
 10
567.934
 20
-447.501
 30
0.000000
  70
    32
  0
VERTEX
  8
É}ÿg
  5
AA5
 10
567.989
 20
-447.550
 30
0.000000
  70
    32
  0
VERTEX
  8
É}ÿg
  5
AA6
 10
568.043
 20
-447.599
 30
0.000000
  70
    32
  0
VERTEX
  8
É}ÿg
  5
AA7
 10
568.097
 20
-447.648
 30
0.000000
  70
    32
  0
VERTEX
  8
É}ÿg
  5
AA8
 10
568.152
 20
-447.697
 30
0.000000
  70
    32
  0
VERTEX
  8
É}ÿg
  5
AA9
 10
568.206
 20
-447.746
 30
0.000000
  70
    32
  0
VERTEX
  8
É}ÿg
  5
AAA
 10
568.261
 20
-447.795
 30
0.000000
  70
    32
  0
VERTEX
  8
É}ÿg
  5
AAB
 10
568.315
 20
-447.844
 30
0.000000
  70
    32
  0
VERTEX
  8
É}ÿg
  5
AAC
 10
568.370
 20
-447.893
 30
0.000000
  70
    32
  0
VERTEX
  8
É}ÿg
  5
AAD
 10
568.425
 20
-447.942
 30
0.000000
  70
    32
  0
VERTEX
  8
É}ÿg
  5
AAE
 10
568.479
 20
-447.990
 30
0.000000
  70
    32
  0
VERTEX
  8
É}ÿg
  5
AAF
 10
568.534
 20
-448.039
 30
0.000000
  70
    32
  0
VERTEX
  8
É}ÿg
  5
AB0
 10
568.589
 20
-448.088
 30
0.000000
  70
    32
  0
VERTEX
  8
É}ÿg
  5
AB1
 10
568.643
 20
-448.136
 30
0.000000
  70
    32
  0
VERTEX
  8
É}ÿg
  5
AB2
 10
568.698
 20
-448.185
 30
0.000000
  70
    32
  0
VERTEX
  8
É}ÿg
  5
AB3
 10
568.753
 20
-448.233
 30
0.000000
  70
    32
  0
VERTEX
  8
É}ÿg
  5
AB4
 10
568.808
 20
-448.282
 30
0.000000
  70
    32
  0
VERTEX
  8
É}ÿg
  5
AB5
 10
568.862
 20
-448.330
 30
0.000000
  70
    32
  0
VERTEX
  8
É}ÿg
  5
AB6
 10
568.917
 20
-448.378
 30
0.000000
  70
    32
  0
VERTEX
  8
É}ÿg
  5
AB7
 10
568.972
 20
-448.427
 30
0.000000
  70
    32
  0
VERTEX
  8
É}ÿg
  5
AB8
 10
569.027
 20
-448.475
 30
0.000000
  70
    32
  0
VERTEX
  8
É}ÿg
  5
AB9
 10
569.082
 20
-448.523
 30
0.000000
  70
    32
  0
VERTEX
  8
É}ÿg
  5
ABA
 10
569.137
 20
-448.571
 30
0.000000
  70
    32
  0
VERTEX
  8
É}ÿg
  5
ABB
 10
569.192
 20
-448.619
 30
0.000000
  70
    32
  0
VERTEX
  8
É}ÿg
  5
ABC
 10
569.247
 20
-448.667
 30
0.000000
  70
    32
  0
VERTEX
  8
É}ÿg
  5
ABD
 10
569.302
 20
-448.715
 30
0.000000
  70
    32
  0
VERTEX
  8
É}ÿg
  5
ABE
 10
569.357
 20
-448.763
 30
0.000000
  70
    32
  0
VERTEX
  8
É}ÿg
  5
ABF
 10
569.412
 20
-448.811
 30
0.000000
  70
    32
  0
VERTEX
  8
É}ÿg
  5
AC0
 10
569.467
 20
-448.858
 30
0.000000
  70
    32
  0
VERTEX
  8
É}ÿg
  5
AC1
 10
569.522
 20
-448.906
 30
0.000000
  70
    32
  0
VERTEX
  8
É}ÿg
  5
AC2
 10
569.578
 20
-448.954
 30
0.000000
  70
    32
  0
VERTEX
  8
É}ÿg
  5
AC3
 10
569.633
 20
-449.001
 30
0.000000
  70
    32
  0
VERTEX
  8
É}ÿg
  5
AC4
 10
569.688
 20
-449.049
 30
0.000000
  70
    32
  0
VERTEX
  8
É}ÿg
  5
AC5
 10
569.744
 20
-449.096
 30
0.000000
  70
    32
  0
VERTEX
  8
É}ÿg
  5
AC6
 10
569.799
 20
-449.143
 30
0.000000
  70
    32
  0
VERTEX
  8
É}ÿg
  5
AC7
 10
569.854
 20
-449.191
 30
0.000000
  70
    32
  0
VERTEX
  8
É}ÿg
  5
AC8
 10
569.910
 20
-449.238
 30
0.000000
  70
    32
  0
VERTEX
  8
É}ÿg
  5
AC9
 10
569.965
 20
-449.285
 30
0.000000
  70
    32
  0
VERTEX
  8
É}ÿg
  5
ACA
 10
570.021
 20
-449.332
 30
0.000000
  70
    32
  0
VERTEX
  8
É}ÿg
  5
ACB
 10
570.077
 20
-449.379
 30
0.000000
  70
    32
  0
VERTEX
  8
É}ÿg
  5
ACC
 10
570.132
 20
-449.426
 30
0.000000
  70
    32
  0
VERTEX
  8
É}ÿg
  5
ACD
 10
570.188
 20
-449.472
 30
0.000000
  70
    32
  0
VERTEX
  8
É}ÿg
  5
ACE
 10
570.244
 20
-449.519
 30
0.000000
  70
    32
  0
VERTEX
  8
É}ÿg
  5
ACF
 10
570.299
 20
-449.566
 30
0.000000
  70
    32
  0
VERTEX
  8
É}ÿg
  5
AD0
 10
570.355
 20
-449.612
 30
0.000000
  70
    32
  0
VERTEX
  8
É}ÿg
  5
AD1
 10
570.411
 20
-449.659
 30
0.000000
  70
    32
  0
VERTEX
  8
É}ÿg
  5
AD2
 10
570.467
 20
-449.705
 30
0.000000
  70
    32
  0
VERTEX
  8
É}ÿg
  5
AD3
 10
570.523
 20
-449.751
 30
0.000000
  70
    32
  0
VERTEX
  8
É}ÿg
  5
AD4
 10
570.579
 20
-449.797
 30
0.000000
  70
    32
  0
VERTEX
  8
É}ÿg
  5
AD5
 10
570.635
 20
-449.844
 30
0.000000
  70
    32
  0
VERTEX
  8
É}ÿg
  5
AD6
 10
570.691
 20
-449.890
 30
0.000000
  70
    32
  0
VERTEX
  8
É}ÿg
  5
AD7
 10
570.747
 20
-449.935
 30
0.000000
  70
    32
  0
VERTEX
  8
É}ÿg
  5
AD8
 10
570.803
 20
-449.981
 30
0.000000
  70
    32
  0
VERTEX
  8
É}ÿg
  5
AD9
 10
570.860
 20
-450.027
 30
0.000000
  70
    32
  0
VERTEX
  8
É}ÿg
  5
ADA
 10
570.916
 20
-450.073
 30
0.000000
  70
    32
  0
VERTEX
  8
É}ÿg
  5
ADB
 10
570.972
 20
-450.118
 30
0.000000
  70
    32
  0
VERTEX
  8
É}ÿg
  5
ADC
 10
571.029
 20
-450.164
 30
0.000000
  70
    32
  0
VERTEX
  8
É}ÿg
  5
ADD
 10
571.085
 20
-450.209
 30
0.000000
  70
    32
  0
VERTEX
  8
É}ÿg
  5
ADE
 10
571.141
 20
-450.254
 30
0.000000
  70
    32
  0
VERTEX
  8
É}ÿg
  5
ADF
 10
571.198
 20
-450.300
 30
0.000000
  70
    32
  0
VERTEX
  8
É}ÿg
  5
AE0
 10
571.255
 20
-450.345
 30
0.000000
  70
    32
  0
VERTEX
  8
É}ÿg
  5
AE1
 10
571.311
 20
-450.390
 30
0.000000
  70
    32
  0
VERTEX
  8
É}ÿg
  5
AE2
 10
571.368
 20
-450.435
 30
0.000000
  70
    32
  0
VERTEX
  8
É}ÿg
  5
AE3
 10
571.425
 20
-450.479
 30
0.000000
  70
    32
  0
VERTEX
  8
É}ÿg
  5
AE4
 10
571.481
 20
-450.524
 30
0.000000
  70
    32
  0
VERTEX
  8
É}ÿg
  5
AE5
 10
571.538
 20
-450.569
 30
0.000000
  70
    32
  0
VERTEX
  8
É}ÿg
  5
AE6
 10
571.595
 20
-450.613
 30
0.000000
  70
    32
  0
VERTEX
  8
É}ÿg
  5
AE7
 10
571.652
 20
-450.657
 30
0.000000
  70
    32
  0
VERTEX
  8
É}ÿg
  5
AE8
 10
571.709
 20
-450.702
 30
0.000000
  70
    32
  0
VERTEX
  8
É}ÿg
  5
AE9
 10
571.766
 20
-450.746
 30
0.000000
  70
    32
  0
VERTEX
  8
É}ÿg
  5
AEA
 10
571.824
 20
-450.790
 30
0.000000
  70
    32
  0
VERTEX
  8
É}ÿg
  5
AEB
 10
571.881
 20
-450.834
 30
0.000000
  70
    32
  0
VERTEX
  8
É}ÿg
  5
AEC
 10
571.938
 20
-450.878
 30
0.000000
  70
    32
  0
VERTEX
  8
É}ÿg
  5
AED
 10
571.995
 20
-450.921
 30
0.000000
  70
    32
  0
VERTEX
  8
É}ÿg
  5
AEE
 10
572.053
 20
-450.965
 30
0.000000
  70
    32
  0
VERTEX
  8
É}ÿg
  5
AEF
 10
572.110
 20
-451.008
 30
0.000000
  70
    32
  0
VERTEX
  8
É}ÿg
  5
AF0
 10
572.168
 20
-451.052
 30
0.000000
  70
    32
  0
VERTEX
  8
É}ÿg
  5
AF1
 10
572.225
 20
-451.095
 30
0.000000
  70
    32
  0
VERTEX
  8
É}ÿg
  5
AF2
 10
572.283
 20
-451.138
 30
0.000000
  70
    32
  0
VERTEX
  8
É}ÿg
  5
AF3
 10
572.341
 20
-451.181
 30
0.000000
  70
    32
  0
VERTEX
  8
É}ÿg
  5
AF4
 10
572.398
 20
-451.224
 30
0.000000
  70
    32
  0
VERTEX
  8
É}ÿg
  5
AF5
 10
572.456
 20
-451.267
 30
0.000000
  70
    32
  0
VERTEX
  8
É}ÿg
  5
AF6
 10
572.514
 20
-451.309
 30
0.000000
  70
    32
  0
VERTEX
  8
É}ÿg
  5
AF7
 10
572.572
 20
-451.352
 30
0.000000
  70
    32
  0
VERTEX
  8
É}ÿg
  5
AF8
 10
572.630
 20
-451.394
 30
0.000000
  70
    32
  0
VERTEX
  8
É}ÿg
  5
AF9
 10
572.688
 20
-451.437
 30
0.000000
  70
    32
  0
VERTEX
  8
É}ÿg
  5
AFA
 10
572.746
 20
-451.479
 30
0.000000
  70
    32
  0
VERTEX
  8
É}ÿg
  5
AFB
 10
572.805
 20
-451.521
 30
0.000000
  70
    32
  0
VERTEX
  8
É}ÿg
  5
AFC
 10
572.863
 20
-451.563
 30
0.000000
  70
    32
  0
VERTEX
  8
É}ÿg
  5
AFD
 10
572.921
 20
-451.605
 30
0.000000
  70
    32
  0
VERTEX
  8
É}ÿg
  5
AFE
 10
572.980
 20
-451.646
 30
0.000000
  70
    32
  0
VERTEX
  8
É}ÿg
  5
AFF
 10
573.038
 20
-451.688
 30
0.000000
  70
    32
  0
VERTEX
  8
É}ÿg
  5
B00
 10
573.097
 20
-451.729
 30
0.000000
  70
    32
  0
VERTEX
  8
É}ÿg
  5
B01
 10
573.156
 20
-451.770
 30
0.000000
  70
    32
  0
VERTEX
  8
É}ÿg
  5
B02
 10
573.214
 20
-451.811
 30
0.000000
  70
    32
  0
VERTEX
  8
É}ÿg
  5
B03
 10
573.273
 20
-451.852
 30
0.000000
  70
    32
  0
VERTEX
  8
É}ÿg
  5
B04
 10
573.332
 20
-451.893
 30
0.000000
  70
    32
  0
VERTEX
  8
É}ÿg
  5
B05
 10
573.391
 20
-451.934
 30
0.000000
  70
    32
  0
VERTEX
  8
É}ÿg
  5
B06
 10
573.450
 20
-451.975
 30
0.000000
  70
    32
  0
VERTEX
  8
É}ÿg
  5
B07
 10
573.509
 20
-452.015
 30
0.000000
  70
    32
  0
VERTEX
  8
É}ÿg
  5
B08
 10
573.568
 20
-452.055
 30
0.000000
  70
    32
  0
VERTEX
  8
É}ÿg
  5
B09
 10
573.628
 20
-452.095
 30
0.000000
  70
    32
  0
VERTEX
  8
É}ÿg
  5
B0A
 10
573.687
 20
-452.135
 30
0.000000
  70
    32
  0
VERTEX
  8
É}ÿg
  5
B0B
 10
573.746
 20
-452.175
 30
0.000000
  70
    32
  0
VERTEX
  8
É}ÿg
  5
B0C
 10
573.806
 20
-452.215
 30
0.000000
  70
    32
  0
VERTEX
  8
É}ÿg
  5
B0D
 10
573.865
 20
-452.255
 30
0.000000
  70
    32
  0
VERTEX
  8
É}ÿg
  5
B0E
 10
573.925
 20
-452.294
 30
0.000000
  70
    32
  0
VERTEX
  8
É}ÿg
  5
B0F
 10
573.985
 20
-452.333
 30
0.000000
  70
    32
  0
VERTEX
  8
É}ÿg
  5
B10
 10
574.045
 20
-452.372
 30
0.000000
  70
    32
  0
VERTEX
  8
É}ÿg
  5
B11
 10
574.104
 20
-452.411
 30
0.000000
  70
    32
  0
VERTEX
  8
É}ÿg
  5
B12
 10
574.164
 20
-452.450
 30
0.000000
  70
    32
  0
VERTEX
  8
É}ÿg
  5
B13
 10
574.224
 20
-452.489
 30
0.000000
  70
    32
  0
VERTEX
  8
É}ÿg
  5
B14
 10
574.285
 20
-452.527
 30
0.000000
  70
    32
  0
VERTEX
  8
É}ÿg
  5
B15
 10
574.345
 20
-452.566
 30
0.000000
  70
    32
  0
VERTEX
  8
É}ÿg
  5
B16
 10
574.405
 20
-452.604
 30
0.000000
  70
    32
  0
VERTEX
  8
É}ÿg
  5
B17
 10
574.465
 20
-452.642
 30
0.000000
  70
    32
  0
VERTEX
  8
É}ÿg
  5
B18
 10
574.526
 20
-452.680
 30
0.000000
  70
    32
  0
VERTEX
  8
É}ÿg
  5
B19
 10
574.587
 20
-452.718
 30
0.000000
  70
    32
  0
VERTEX
  8
É}ÿg
  5
B1A
 10
574.647
 20
-452.755
 30
0.000000
  70
    32
  0
VERTEX
  8
É}ÿg
  5
B1B
 10
574.708
 20
-452.793
 30
0.000000
  70
    32
  0
VERTEX
  8
É}ÿg
  5
B1C
 10
574.769
 20
-452.830
 30
0.000000
  70
    32
  0
VERTEX
  8
É}ÿg
  5
B1D
 10
574.830
 20
-452.867
 30
0.000000
  70
    32
  0
VERTEX
  8
É}ÿg
  5
B1E
 10
574.891
 20
-452.904
 30
0.000000
  70
    32
  0
VERTEX
  8
É}ÿg
  5
B1F
 10
574.952
 20
-452.941
 30
0.000000
  70
    32
  0
SEQEND
  8
É}ÿg
  5
B20
  0
INSERT
  5
37A
  8
0
  6
CONTINUOUS
  2
*U178
 10
0.0
 20
0.0
 30
0.0
  0
LINE
  5
37B
  8
É}ÿg
 10
606.67858485210002
 20
-378.91335111789999
 30
0.0
 11
606.67858485210002
 21
-386.11335111789998
 31
0.0
  0
LINE
  5
37C
  8
É}ÿg
 10
558.00277178190004
 20
-443.78333221719993
 30
0.0
 11
558.00277178190004
 21
-448.28333221719993
 31
0.0
  0
LINE
  5
37D
  8
É}ÿg
 10
606.67858485210002
 20
-386.11335111789998
 30
0.0
 11
621.07858485209988
 21
-389.7133511179
 31
0.0
  0
LINE
  5
37E
  8
É}ÿg
 10
565.98458996370005
 20
-437.78333221719998
 30
0.0
 11
565.98458996370005
 21
-443.18333221720002
 31
0.0
  0
ARC
  5
37F
  8
É}ÿg
 10
544.50277178190004
 20
-449.78333221719998
 30
0.0
 40
9.0
 50
270.0
 51
0.0
  0
LINE
  5
380
  8
É}ÿg
 10
415.02083231709992
 20
-366.01335111790002
 30
0.0
 11
415.02083231709992
 21
-465.0133511178999
 31
0.0
  0
INSERT
  5
381
  8
0
  6
CONTINUOUS
  2
*U179
 10
0.0
 20
0.0
 30
0.0
  0
INSERT
  5
382
  8
0
  6
CONTINUOUS
  2
*U180
 10
0.0
 20
0.0
 30
0.0
  0
INSERT
  5
383
  8
0
  6
CONTINUOUS
  2
*U181
 10
0.0
 20
0.0
 30
0.0
  0
INSERT
  5
384
  8
0
  6
CONTINUOUS
  2
*U182
 10
0.0
 20
0.0
 30
0.0
  0
LINE
  5
385
  8
É}ÿg
 10
527.52083231710003
 20
-399.01335111790002
 30
0.0
 11
527.52083231710003
 21
-432.01335111790002
 31
0.0
  0
LINE
  5
386
  8
É}ÿg
 10
415.02083231709992
 20
-432.01335111790002
 30
0.0
 11
850.02083231709992
 21
-432.01335111790002
 31
0.0
  0
LINE
  5
387
  8
É}ÿg
 10
422.52083231709992
 20
-415.51335111790002
 30
0.0
 11
520.02083231710003
 21
-415.51335111790002
 31
0.0
  0
LINE
  5
388
  8
É}ÿg
 10
535.02083231710003
 20
-415.51335111790002
 30
0.0
 11
632.52083231710003
 21
-415.51335111790002
 31
0.0
  0
INSERT
  5
389
  8
0
  6
CONTINUOUS
  2
*U183
 10
0.0
 20
0.0
 30
0.0
  0
INSERT
  5
38A
  8
0
  6
CONTINUOUS
  2
*U184
 10
0.0
 20
0.0
 30
0.0
  0
LINE
  5
38B
  8
É}ÿg
 10
442.02083231709992
 20
-351.01335111790002
 30
0.0
 11
442.02083231709992
 21
-336.01335111790002
 31
0.0
  0
LINE
  5
38C
  8
É}ÿg
 10
415.02083231709992
 20
-351.01335111790002
 30
0.0
 11
415.02083231709992
 21
-336.01335111790002
 31
0.0
  0
LINE
  5
38D
  8
É}ÿg
 10
757.02083231710003
 20
-351.01335111790002
 30
0.0
 11
757.02083231710003
 21
-336.01335111790002
 31
0.0
  0
LINE
  5
38E
  8
É}ÿg
 10
730.02083231710003
 20
-351.01335111790002
 30
0.0
 11
730.02083231710003
 21
-336.01335111790002
 31
0.0
  0
LINE
  5
38F
  8
É}ÿg
 10
850.02083231709992
 20
-336.01335111790002
 30
0.0
 11
415.02083231709992
 21
-336.01335111790002
 31
0.0
  0
LINE
  5
390
  8
É}ÿg
 10
415.02083231709992
 20
-351.01335111790002
 30
0.0
 11
850.02083231709992
 21
-351.01335111790002
 31
0.0
  0
LINE
  5
391
  8
É}ÿg
 10
592.02083231710003
 20
-351.01335111790002
 30
0.0
 11
592.02083231710003
 21
-336.01335111790002
 31
0.0
  0
INSERT
  5
392
  8
0
  6
CONTINUOUS
  2
*U185
 10
0.0
 20
0.0
 30
0.0
  0
INSERT
  5
393
  8
0
  6
CONTINUOUS
  2
*U186
 10
0.0
 20
0.0
 30
0.0
  0
CIRCLE
  5
394
  8
É}ÿg
 10
590.22083231709996
 20
-382.51335111790002
 30
0.0
 40
3.6000000000000001
  0
LINE
  5
395
  8
É}ÿg
 10
606.67858485210002
 20
-386.11335111789998
 30
0.0
 11
621.07858485209988
 21
-389.7133511179
 31
0.0
  0
LINE
  5
396
  8
É}ÿg
 10
606.67858485210002
 20
-378.91335111789999
 30
0.0
 11
606.67858485210002
 21
-386.11335111789998
 31
0.0
  0
LINE
  5
397
  8
É}ÿg
 10
621.07858485209988
 20
-375.31335111790003
 30
0.0
 11
621.07858485209988
 21
-389.7133511179
 31
0.0
  0
LINE
  5
398
  8
É}ÿg
  6
BORDER
 10
590.22083231709996
 20
-371.7133511179
 30
0.0
 11
590.22083231709996
 21
-393.31335111790003
 31
0.0
  0
LINE
  5
399
  8
É}ÿg
  6
BORDER
 10
590.22083231709996
 20
-371.7133511179
 30
0.0
 11
590.22083231709996
 21
-393.31335111790003
 31
0.0
  0
LINE
  5
39A
  8
É}ÿg
 10
621.07858485209988
 20
-375.31335111790003
 30
0.0
 11
621.07858485209988
 21
-389.7133511179
 31
0.0
  0
LINE
  5
39B
  8
É}ÿg
 10
606.67858485210002
 20
-378.91335111789999
 30
0.0
 11
606.67858485210002
 21
-386.11335111789998
 31
0.0
  0
LINE
  5
39C
  8
É}ÿg
 10
606.67858485210002
 20
-386.11335111789998
 30
0.0
 11
621.07858485209988
 21
-389.7133511179
 31
0.0
  0
LINE
  5
39D
  8
É}ÿg
 10
606.67858485210002
 20
-378.91335111789999
 30
0.0
 11
621.07858485209988
 21
-375.31335111790003
 31
0.0
  0
CIRCLE
  5
39E
  8
É}ÿg
 10
590.22083231709996
 20
-382.51335111790002
 30
0.0
 40
7.2000000000000002
  0
CIRCLE
  5
39F
  8
É}ÿg
 10
590.22083231709996
 20
-382.51335111790002
 30
0.0
 40
3.6000000000000001
  0
CIRCLE
  5
3A0
  8
É}ÿg
 10
590.22083231709996
 20
-382.51335111790002
 30
0.0
 40
7.2000000000000002
  0
LINE
  5
3A1
  8
É}ÿg
 10
606.67858485210002
 20
-378.91335111789999
 30
0.0
 11
621.07858485209988
 21
-375.31335111790003
 31
0.0
  0
ENDBLK
  5
3A2
  8
0
  0
BLOCK
  8
0
  2
CLUMP66
 70
     0
 10
0.0
 20
0.0
 30
0.0
  3
CLUMP66
  1

  0
LINE
  5
3A9
  8
É}ÿg
 10
592.02083231710003
 20
-306.01335111790002
 30
0.0
 11
592.02083231710003
 21
-291.01335111790002
 31
0.0
  0
LINE
  5
3AA
  8
É}ÿg
 10
415.02083231709992
 20
-306.01335111790002
 30
0.0
 11
415.02083231709992
 21
-291.01335111790002
 31
0.0
  0
LINE
  5
3AB
  8
É}ÿg
 10
442.02083231709992
 20
-306.01335111790002
 30
0.0
 11
442.02083231709992
 21
-291.01335111790002
 31
0.0
  0
LINE
  5
3AC
  8
É}ÿg
 10
757.02083231710003
 20
-306.01335111790002
 30
0.0
 11
757.02083231710003
 21
-291.01335111790002
 31
0.0
  0
LINE
  5
3AD
  8
É}ÿg
 10
730.02083231710003
 20
-306.01335111790002
 30
0.0
 11
730.02083231710003
 21
-291.01335111790002
 31
0.0
  0
LINE
  5
3AE
  8
É}ÿg
 10
850.02083231709992
 20
-291.01335111790002
 30
0.0
 11
415.02083231709992
 21
-291.01335111790002
 31
0.0
  0
ENDBLK
  5
3AF
  8
0
  0
BLOCK
  8
0
  2
CLUMP67
 70
     0
 10
0.0
 20
0.0
 30
0.0
  3
CLUMP67
  1

  0
ARC
  5
3BB
  8
┌▓È_1
 10
-189.22913692469999
 20
-187.95893499429999
 30
0.0
 40
3.5
 50
90.0
 51
270.0
  0
LINE
  5
3BC
  8
┌▓È_1
 10
-174.22913692469999
 20
-191.45893499429999
 30
0.0
 11
-189.22913692469999
 21
-191.45893499429999
 31
0.0
  0
LINE
  5
3BD
  8
┌▓È_1
 10
-189.22913692469999
 20
-184.45893499429999
 30
0.0
 11
-174.22913692469999
 21
-184.45893499429999
 31
0.0
  0
ARC
  5
3BE
  8
┌▓È_1
 10
-174.22913692469999
 20
-187.95893499429999
 30
0.0
 40
3.5
 50
270.0
 51
90.0
  0
ENDBLK
  5
3BF
  8
0
  0
BLOCK
  8
0
  2
CLUMP68
 70
     0
 10
0.0
 20
0.0
 30
0.0
  3
CLUMP68
  1

  0
INSERT
  5
3C4
  8
┌▓È_1
  2
CLUMP69
 10
0.0
 20
0.0
 30
0.0
  0
INSERT
  5
3CC
  8
┌▓È_1
  2
CLUMP70
 10
0.0
 20
0.0
 30
0.0
  0
ENDBLK
  5
3D3
  8
0
  0
BLOCK
  8
0
  2
CLUMP69
 70
     0
 10
0.0
 20
0.0
 30
0.0
  3
CLUMP69
  1

  0
ARC
  5
3C6
  8
┌▓È_1
 10
-189.22913692469999
 20
-109.95893499429999
 30
0.0
 40
3.5
 50
90.0
 51
270.0
  0
LINE
  5
3C7
  8
┌▓È_1
 10
-174.22913692469999
 20
-106.45893499429999
 30
0.0
 11
-189.22913692469999
 21
-106.45893499429999
 31
0.0
  0
LINE
  5
3C8
  8
┌▓È_1
 10
-189.22913692469999
 20
-113.45893499429999
 30
0.0
 11
-174.22913692469999
 21
-113.45893499429999
 31
0.0
  0
ARC
  5
3C9
  8
┌▓È_1
 10
-174.22913692469999
 20
-109.95893499429999
 30
0.0
 40
3.5
 50
270.0
 51
90.0
  0
ENDBLK
  5
3CA
  8
0
  0
BLOCK
  8
0
  2
CLUMP70
 70
     0
 10
0.0
 20
0.0
 30
0.0
  3
CLUMP70
  1

  0
ARC
  5
3CE
  8
┌▓È_1
 10
-189.22913692469999
 20
-94.958934994300009
 30
0.0
 40
3.5
 50
90.0
 51
270.0
  0
LINE
  5
3CF
  8
┌▓È_1
 10
-174.22913692469999
 20
-91.458934994299995
 30
0.0
 11
-189.22913692469999
 21
-91.458934994299995
 31
0.0
  0
LINE
  5
3D0
  8
┌▓È_1
 10
-189.22913692469999
 20
-98.458934994300009
 30
0.0
 11
-174.22913692469999
 21
-98.458934994300009
 31
0.0
  0
ARC
  5
3D1
  8
┌▓È_1
 10
-174.22913692469999
 20
-94.958934994300009
 30
0.0
 40
3.5
 50
270.0
 51
90.0
  0
ENDBLK
  5
3D2
  8
0
  0
BLOCK
  8
0
  2
CLUMP71
 70
     0
 10
0.0
 20
0.0
 30
0.0
  3
CLUMP71
  1

  0
ARC
  5
3DD
  8
┌▓È_1
 10
-114.2291369247
 20
-187.95893499429999
 30
0.0
 40
3.5
 50
90.0
 51
270.0
  0
LINE
  5
3DE
  8
┌▓È_1
 10
-99.229136924699986
 20
-191.45893499429999
 30
0.0
 11
-114.2291369247
 21
-191.45893499429999
 31
0.0
  0
LINE
  5
3DF
  8
┌▓È_1
 10
-114.2291369247
 20
-184.45893499429999
 30
0.0
 11
-99.229136924699986
 21
-184.45893499429999
 31
0.0
  0
ARC
  5
3E0
  8
┌▓È_1
 10
-99.229136924699986
 20
-187.95893499429999
 30
0.0
 40
3.5
 50
270.0
 51
90.0
  0
ENDBLK
  5
3E1
  8
0
  0
BLOCK
  8
0
  2
*D84
 70
     1
 10
0.0
 20
0.0
 30
0.0
  3
*D84
  1

  0
TEXT
  5
3E4
  8
0
 62
     0
 10
519.65529484809997
 20
165.3339343911
 30
0.0
 40
9.8954164504999991
  1
148
 50
90.0
  0
LINE
  5
3E5
  8
0
 62
     0
 10
472.60149979649998
 20
100.0651842003
 30
0.0
 11
523.40154481000002
 21
100.0651842003
 31
0.0
  0
LINE
  5
3E6
  8
0
 62
     0
 10
472.60149979649998
 20
248.0651842003
 30
0.0
 11
523.40154481000002
 21
248.0651842003
 31
0.0
  0
LINE
  5
3E7
  8
0
 62
     0
 10
522.40154481000002
 20
100.0651842003
 30
0.0
 11
522.40154481000002
 21
188.61726721580001
 31
0.0
  0
LINE
  5
3E8
  8
0
 62
     0
 10
522.40154481000002
 20
100.0651842003
 30
0.0
 11
522.40154481000002
 21
159.51310118489999
 31
0.0
  0
LINE
  5
3E9
  8
0
 62
     0
 10
522.40154481000002
 20
248.0651842003
 30
0.0
 11
522.40154481000002
 21
188.61726721580001
 31
0.0
  0
LINE
  5
3EA
  8
0
 62
     0
 10
522.40154481000002
 20
248.0651842003
 30
0.0
 11
522.40154481000002
 21
159.51310118489999
 31
0.0
  0
LINE
  5
3EB
  8
0
 62
     0
 10
522.40154481000002
 20
248.0651842003
 30
0.0
 11
522.40154481000002
 21
238.0651842003
 31
0.0
  0
SOLID
  5
3EC
  8
0
 62
     0
 10
522.40154481000002
 20
248.0651842003
 30
0.0
 11
524.65154481000002
 21
239.0651842003
 31
0.0
 12
520.15154481000002
 22
239.0651842003
 32
0.0
 13
522.40154481000002
 23
241.3151842003
 33
0.0
  0
LINE
  5
3ED
  8
0
 62
     0
 10
522.40154481000002
 20
100.0651842003
 30
0.0
 11
522.40154481000002
 21
110.0651842003
 31
0.0
  0
SOLID
  5
3EE
  8
0
 62
     0
 10
522.40154481000002
 20
100.0651842003
 30
0.0
 11
520.15154481000002
 21
109.0651842003
 31
0.0
 12
524.65154481000002
 22
109.0651842003
 32
0.0
 13
522.40154481000002
 23
106.8151842003
 33
0.0
  0
ENDBLK
  5
3EF
  8
0
  0
BLOCK
  8
0
  2
*D85
 70
     1
 10
0.0
 20
0.0
 30
0.0
  3
*D85
  1

  0
TEXT
  5
3F3
  8
0
 62
     0
 10
620.63717656199992
 20
72.13020601720001
 30
0.0
 40
9.8954164504999991
  1
15.5
 50
90.0
  0
LINE
  5
3F4
  8
0
 62
     0
 10
601.5979841715
 20
100.06511909619999
 30
0.0
 11
624.38342652379993
 21
100.06511909619999
 31
0.0
  0
LINE
  5
3F5
  8
0
 62
     0
 10
601.5979841715
 20
115.56511909619999
 30
0.0
 11
624.38342652379993
 21
115.56511909619999
 31
0.0
  0
LINE
  5
3F6
  8
0
 62
     0
 10
623.38342652379993
 20
100.06511909619999
 30
0.0
 11
623.38342652379993
 21
97.838886011200003
 31
0.0
  0
LINE
  5
3F7
  8
0
 62
     0
 10
623.38342652379993
 20
100.06511909619999
 30
0.0
 11
623.38342652379993
 21
66.309372811000003
 31
0.0
  0
LINE
  5
3F8
  8
0
 62
     0
 10
623.38342652379993
 20
115.56511909619999
 30
0.0
 11
623.38342652379993
 21
97.838886011200003
 31
0.0
  0
LINE
  5
3F9
  8
0
 62
     0
 10
623.38342652379993
 20
115.56511909619999
 30
0.0
 11
623.38342652379993
 21
66.309372811000003
 31
0.0
  0
LINE
  5
3FA
  8
0
 62
     0
 10
623.38342652379993
 20
115.56511909619999
 30
0.0
 11
623.38342652379993
 21
125.56511909619999
 31
0.0
  0
SOLID
  5
3FB
  8
0
 62
     0
 10
623.38342652379993
 20
115.56511909619999
 30
0.0
 11
621.13342652379993
 21
124.56511909619999
 31
0.0
 12
625.63342652379993
 22
124.56511909619999
 32
0.0
 13
623.38342652379993
 23
122.31511909619999
 33
0.0
  0
LINE
  5
3FC
  8
0
 62
     0
 10
623.38342652379993
 20
100.06511909619999
 30
0.0
 11
623.38342652379993
 21
90.065119096199993
 31
0.0
  0
SOLID
  5
3FD
  8
0
 62
     0
 10
623.38342652379993
 20
100.06511909619999
 30
0.0
 11
625.63342652379993
 21
91.065119096200007
 31
0.0
 12
621.13342652379993
 22
91.065119096200007
 32
0.0
 13
623.38342652379993
 23
93.315119096200007
 33
0.0
  0
ENDBLK
  5
3FE
  8
0
  0
BLOCK
  8
0
  2
*D86
 70
     1
 10
0.0
 20
0.0
 30
0.0
  3
*D86
  1

  0
TEXT
  5
402
  8
0
 62
     0
 10
501.42547841129988
 20
165.3339343911
 30
0.0
 40
9.8954164504999991
  1
130
 50
90.0
  0
LINE
  5
403
  8
0
 62
     0
 10
463.60149979649998
 20
109.0651842003
 30
0.0
 11
505.17172837319993
 21
109.0651842003
 31
0.0
  0
LINE
  5
404
  8
0
 62
     0
 10
463.60149979649998
 20
239.0651842003
 30
0.0
 11
505.17172837319993
 21
239.0651842003
 31
0.0
  0
LINE
  5
405
  8
0
 62
     0
 10
504.17172837319993
 20
109.0651842003
 30
0.0
 11
504.17172837319993
 21
188.61726721580001
 31
0.0
  0
LINE
  5
406
  8
0
 62
     0
 10
504.17172837319993
 20
109.0651842003
 30
0.0
 11
504.17172837319993
 21
159.51310118489999
 31
0.0
  0
LINE
  5
407
  8
0
 62
     0
 10
504.17172837319993
 20
239.0651842003
 30
0.0
 11
504.17172837319993
 21
188.61726721580001
 31
0.0
  0
LINE
  5
408
  8
0
 62
     0
 10
504.17172837319993
 20
239.0651842003
 30
0.0
 11
504.17172837319993
 21
159.51310118489999
 31
0.0
  0
LINE
  5
409
  8
0
 62
     0
 10
504.17172837319993
 20
239.0651842003
 30
0.0
 11
504.17172837319993
 21
229.0651842003
 31
0.0
  0
SOLID
  5
40A
  8
0
 62
     0
 10
504.17172837319993
 20
239.0651842003
 30
0.0
 11
506.42172837319993
 21
230.0651842003
 31
0.0
 12
501.92172837319993
 22
230.0651842003
 32
0.0
 13
504.17172837319993
 23
232.3151842003
 33
0.0
  0
LINE
  5
40B
  8
0
 62
     0
 10
504.17172837319993
 20
109.0651842003
 30
0.0
 11
504.17172837319993
 21
119.0651842003
 31
0.0
  0
SOLID
  5
40C
  8
0
 62
     0
 10
504.17172837319993
 20
109.0651842003
 30
0.0
 11
501.92172837319993
 21
118.0651842003
 31
0.0
 12
506.42172837319993
 22
118.0651842003
 32
0.0
 13
504.17172837319993
 23
115.8151842003
 33
0.0
  0
ENDBLK
  5
40D
  8
0
  0
BLOCK
  8
0
  2
*D87
 70
     1
 10
0.0
 20
0.0
 30
0.0
  3
*D87
  1

  0
TEXT
  5
411
  8
0
 62
     0
 10
741.39385162250005
 20
101.2447572442
 30
0.0
 40
9.8954164504999991
  1
14
 50
90.0
  0
LINE
  5
412
  8
0
 62
     0
 10
724.72519031429977
 20
100.06559045029999
 30
0.0
 11
745.14010158439987
 21
100.06559045029999
 31
0.0
  0
LINE
  5
413
  8
0
 62
     0
 10
724.72519031429977
 20
114.06559045029999
 30
0.0
 11
745.14010158439987
 21
114.06559045029999
 31
0.0
  0
LINE
  5
414
  8
0
 62
     0
 10
744.14010158439987
 20
100.06559045029999
 30
0.0
 11
744.14010158439987
 21
100.06559045029999
 31
0.0
  0
LINE
  5
415
  8
0
 62
     0
 10
744.14010158439987
 20
100.06559045029999
 30
0.0
 11
744.14010158439987
 21
114.06559045029999
 31
0.0
  0
LINE
  5
416
  8
0
 62
     0
 10
744.14010158439987
 20
114.06559045029999
 30
0.0
 11
744.14010158439987
 21
100.06559045029999
 31
0.0
  0
LINE
  5
417
  8
0
 62
     0
 10
744.14010158439987
 20
114.06559045029999
 30
0.0
 11
744.14010158439987
 21
114.06559045029999
 31
0.0
  0
LINE
  5
418
  8
0
 62
     0
 10
744.14010158439987
 20
114.06559045029999
 30
0.0
 11
744.14010158439987
 21
124.06559045029999
 31
0.0
  0
SOLID
  5
419
  8
0
 62
     0
 10
744.14010158439987
 20
114.06559045029999
 30
0.0
 11
741.89010158439987
 21
123.06559045029999
 31
0.0
 12
746.39010158439987
 22
123.06559045029999
 32
0.0
 13
744.14010158439987
 23
120.81559045029999
 33
0.0
  0
LINE
  5
41A
  8
0
 62
     0
 10
744.14010158439987
 20
100.06559045029999
 30
0.0
 11
744.14010158439987
 21
90.065590450299993
 31
0.0
  0
SOLID
  5
41B
  8
0
 62
     0
 10
744.14010158439987
 20
100.06559045029999
 30
0.0
 11
746.39010158439987
 21
91.065590450300007
 31
0.0
 12
741.89010158439987
 22
91.065590450300007
 32
0.0
 13
744.14010158439987
 23
93.315590450300007
 33
0.0
  0
ENDBLK
  5
41C
  8
0
  0
BLOCK
  8
0
  2
*D88
 70
     1
 10
0.0
 20
0.0
 30
0.0
  3
*D88
  1

  0
TEXT
  5
420
  8
0
 62
     0
 10
674.40435710809993
 20
287.98336446000002
 30
0.0
 40
9.8954164504999991
  1
25
  0
LINE
  5
421
  8
0
 62
     0
 10
692.72519031429977
 20
241.06559045029999
 30
0.0
 11
692.72519031429977
 21
286.23711449820001
 31
0.0
  0
LINE
  5
422
  8
0
 62
     0
 10
667.72519031429999
 20
250.06559045029999
 30
0.0
 11
667.72519031429999
 21
286.23711449820001
 31
0.0
  0
LINE
  5
423
  8
0
 62
     0
 10
692.72519031429977
 20
285.23711449820001
 30
0.0
 11
691.86685672659996
 21
285.23711449820001
 31
0.0
  0
LINE
  5
424
  8
0
 62
     0
 10
692.72519031429977
 20
285.23711449820001
 30
0.0
 11
668.58352390189998
 21
285.23711449820001
 31
0.0
  0
LINE
  5
425
  8
0
 62
     0
 10
667.72519031429999
 20
285.23711449820001
 30
0.0
 11
691.86685672659996
 21
285.23711449820001
 31
0.0
  0
LINE
  5
426
  8
0
 62
     0
 10
667.72519031429999
 20
285.23711449820001
 30
0.0
 11
668.58352390189998
 21
285.23711449820001
 31
0.0
  0
LINE
  5
427
  8
0
 62
     0
 10
667.72519031429999
 20
285.23711449820001
 30
0.0
 11
657.72519031429988
 21
285.23711449820001
 31
0.0
  0
SOLID
  5
428
  8
0
 62
     0
 10
667.72519031429999
 20
285.23711449820001
 30
0.0
 11
658.72519031429988
 21
282.98711449820001
 31
0.0
 12
658.72519031429988
 22
287.48711449820001
 32
0.0
 13
660.97519031429988
 23
285.23711449820001
 33
0.0
  0
LINE
  5
429
  8
0
 62
     0
 10
692.72519031429977
 20
285.23711449820001
 30
0.0
 11
702.72519031429988
 21
285.23711449820001
 31
0.0
  0
SOLID
  5
42A
  8
0
 62
     0
 10
692.72519031429977
 20
285.23711449820001
 30
0.0
 11
701.72519031429977
 21
287.48711449820001
 31
0.0
 12
701.72519031429977
 22
282.98711449820001
 32
0.0
 13
699.47519031429977
 23
285.23711449820001
 33
0.0
  0
ENDBLK
  5
42B
  8
0
  0
BLOCK
  8
0
  2
*D89
 70
     1
 10
0.0
 20
0.0
 30
0.0
  3
*D89
  1

  0
TEXT
  5
42F
  8
0
 62
     0
 10
689.40435710809993
 20
308.66157109459999
 30
0.0
 40
9.8954164504999991
  1
55
  0
LINE
  5
430
  8
0
 62
     0
 10
722.72519031429988
 20
249.26559045030001
 30
0.0
 11
722.72519031429988
 21
306.9153211327
 31
0.0
  0
LINE
  5
431
  8
0
 62
     0
 10
667.72519031429999
 20
249.26559045030001
 30
0.0
 11
667.72519031429999
 21
306.9153211327
 31
0.0
  0
LINE
  5
432
  8
0
 62
     0
 10
722.72519031429988
 20
305.9153211327
 30
0.0
 11
706.86685672660008
 21
305.9153211327
 31
0.0
  0
LINE
  5
433
  8
0
 62
     0
 10
722.72519031429988
 20
305.9153211327
 30
0.0
 11
683.58352390189987
 21
305.9153211327
 31
0.0
  0
LINE
  5
434
  8
0
 62
     0
 10
667.72519031429999
 20
305.9153211327
 30
0.0
 11
706.86685672660008
 21
305.9153211327
 31
0.0
  0
LINE
  5
435
  8
0
 62
     0
 10
667.72519031429999
 20
305.9153211327
 30
0.0
 11
683.58352390189987
 21
305.9153211327
 31
0.0
  0
LINE
  5
436
  8
0
 62
     0
 10
667.72519031429999
 20
305.9153211327
 30
0.0
 11
677.72519031429999
 21
305.9153211327
 31
0.0
  0
SOLID
  5
437
  8
0
 62
     0
 10
667.72519031429999
 20
305.9153211327
 30
0.0
 11
676.72519031429999
 21
308.1653211327
 31
0.0
 12
676.72519031429999
 22
303.6653211327
 32
0.0
 13
674.47519031429999
 23
305.9153211327
 33
0.0
  0
LINE
  5
438
  8
0
 62
     0
 10
722.72519031429988
 20
305.9153211327
 30
0.0
 11
712.72519031429977
 21
305.9153211327
 31
0.0
  0
SOLID
  5
439
  8
0
 62
     0
 10
722.72519031429988
 20
305.9153211327
 30
0.0
 11
713.72519031429977
 21
303.6653211327
 31
0.0
 12
713.72519031429977
 22
308.1653211327
 32
0.0
 13
715.97519031429977
 23
305.9153211327
 33
0.0
  0
ENDBLK
  5
43A
  8
0
  0
BLOCK
  8
0
  2
*D90
 70
     1
 10
0.0
 20
0.0
 30
0.0
  3
*D90
  1

  0
TEXT
  5
43E
  8
0
 62
     0
 10
701.90435710809993
 20
287.98336446000002
 30
0.0
 40
9.8954164504999991
  1
30
  0
LINE
  5
43F
  8
0
 62
     0
 10
722.72519031429988
 20
250.06559045029999
 30
0.0
 11
722.72519031429988
 21
286.23711449820001
 31
0.0
  0
LINE
  5
440
  8
0
 62
     0
 10
692.72519031429977
 20
241.06559045029999
 30
0.0
 11
692.72519031429977
 21
286.23711449820001
 31
0.0
  0
LINE
  5
441
  8
0
 62
     0
 10
722.72519031429988
 20
285.23711449820001
 30
0.0
 11
719.36685672660008
 21
285.23711449820001
 31
0.0
  0
LINE
  5
442
  8
0
 62
     0
 10
722.72519031429988
 20
285.23711449820001
 30
0.0
 11
696.08352390189987
 21
285.23711449820001
 31
0.0
  0
LINE
  5
443
  8
0
 62
     0
 10
692.72519031429977
 20
285.23711449820001
 30
0.0
 11
719.36685672660008
 21
285.23711449820001
 31
0.0
  0
LINE
  5
444
  8
0
 62
     0
 10
692.72519031429977
 20
285.23711449820001
 30
0.0
 11
696.08352390189987
 21
285.23711449820001
 31
0.0
  0
LINE
  5
445
  8
0
 62
     0
 10
692.72519031429977
 20
285.23711449820001
 30
0.0
 11
682.72519031429988
 21
285.23711449820001
 31
0.0
  0
SOLID
  5
446
  8
0
 62
     0
 10
692.72519031429977
 20
285.23711449820001
 30
0.0
 11
683.72519031429988
 21
282.98711449820001
 31
0.0
 12
683.72519031429988
 22
287.48711449820001
 32
0.0
 13
685.97519031429988
 23
285.23711449820001
 33
0.0
  0
LINE
  5
447
  8
0
 62
     0
 10
722.72519031429988
 20
285.23711449820001
 30
0.0
 11
732.72519031429988
 21
285.23711449820001
 31
0.0
  0
SOLID
  5
448
  8
0
 62
     0
 10
722.72519031429988
 20
285.23711449820001
 30
0.0
 11
731.72519031429988
 21
287.48711449820001
 31
0.0
 12
731.72519031429988
 22
282.98711449820001
 32
0.0
 13
729.47519031429988
 23
285.23711449820001
 33
0.0
  0
ENDBLK
  5
449
  8
0
  0
BLOCK
  8
0
  2
*D91
 70
     1
 10
0.0
 20
0.0
 30
0.0
  3
*D91
  1

  0
TEXT
  5
44D
  8
0
 62
     0
 10
92.820249987299988
 20
304.31592406089999
 30
0.0
 40
9.8954164504999991
  1
748
  0
LINE
  5
44E
  8
0
 62
     0
 10
475.55149979650002
 20
250.0651842003
 30
0.0
 11
475.55149979650002
 21
302.569674099
 31
0.0
  0
LINE
  5
44F
  8
0
 62
     0
 10
-272.44850020349998
 20
250.0651842003
 30
0.0
 11
-272.44850020349998
 21
302.569674099
 31
0.0
  0
LINE
  5
450
  8
0
 62
     0
 10
475.55149979650002
 20
301.569674099
 30
0.0
 11
116.103582812
 21
301.569674099
 31
0.0
  0
LINE
  5
451
  8
0
 62
     0
 10
475.55149979650002
 20
301.569674099
 30
0.0
 11
86.999416781099995
 21
301.569674099
 31
0.0
  0
LINE
  5
452
  8
0
 62
     0
 10
-272.44850020349998
 20
301.569674099
 30
0.0
 11
116.103582812
 21
301.569674099
 31
0.0
  0
LINE
  5
453
  8
0
 62
     0
 10
-272.44850020349998
 20
301.569674099
 30
0.0
 11
86.999416781099995
 21
301.569674099
 31
0.0
  0
LINE
  5
454
  8
0
 62
     0
 10
-272.44850020349998
 20
301.569674099
 30
0.0
 11
-262.44850020349998
 21
301.569674099
 31
0.0
  0
SOLID
  5
455
  8
0
 62
     0
 10
-272.44850020349998
 20
301.569674099
 30
0.0
 11
-263.44850020349998
 21
303.819674099
 31
0.0
 12
-263.44850020349998
 22
299.319674099
 32
0.0
 13
-265.69850020349998
 23
301.569674099
 33
0.0
  0
LINE
  5
456
  8
0
 62
     0
 10
475.55149979650002
 20
301.569674099
 30
0.0
 11
465.55149979650002
 21
301.569674099
 31
0.0
  0
SOLID
  5
457
  8
0
 62
     0
 10
475.55149979650002
 20
301.569674099
 30
0.0
 11
466.55149979650002
 21
299.319674099
 31
0.0
 12
466.55149979650002
 22
303.819674099
 32
0.0
 13
468.80149979650002
 23
301.569674099
 33
0.0
  0
ENDBLK
  5
458
  8
0
  0
BLOCK
  8
0
  2
*D92
 70
     1
 10
0.0
 20
0.0
 30
0.0
  3
*D92
  1

  0
TEXT
  5
45C
  8
0
 62
     0
 10
92.820249987299988
 20
283.92041624839999
 30
0.0
 40
9.8954164504999991
  1
730
  0
LINE
  5
45D
  8
0
 62
     0
 10
466.55149979650002
 20
241.0651842003
 30
0.0
 11
466.55149979650002
 21
282.1741662865
 31
0.0
  0
LINE
  5
45E
  8
0
 62
     0
 10
-263.44850020349998
 20
241.0651842003
 30
0.0
 11
-263.44850020349998
 21
282.1741662865
 31
0.0
  0
LINE
  5
45F
  8
0
 62
     0
 10
466.55149979650002
 20
281.1741662865
 30
0.0
 11
116.103582812
 21
281.1741662865
 31
0.0
  0
LINE
  5
460
  8
0
 62
     0
 10
466.55149979650002
 20
281.1741662865
 30
0.0
 11
86.999416781099995
 21
281.1741662865
 31
0.0
  0
LINE
  5
461
  8
0
 62
     0
 10
-263.44850020349998
 20
281.1741662865
 30
0.0
 11
116.103582812
 21
281.1741662865
 31
0.0
  0
LINE
  5
462
  8
0
 62
     0
 10
-263.44850020349998
 20
281.1741662865
 30
0.0
 11
86.999416781099995
 21
281.1741662865
 31
0.0
  0
LINE
  5
463
  8
0
 62
     0
 10
-263.44850020349998
 20
281.1741662865
 30
0.0
 11
-253.4485002035
 21
281.1741662865
 31
0.0
  0
SOLID
  5
464
  8
0
 62
     0
 10
-263.44850020349998
 20
281.1741662865
 30
0.0
 11
-254.4485002035
 21
283.4241662865
 31
0.0
 12
-254.4485002035
 22
278.9241662865
 32
0.0
 13
-256.69850020349998
 23
281.1741662865
 33
0.0
  0
LINE
  5
465
  8
0
 62
     0
 10
466.55149979650002
 20
281.1741662865
 30
0.0
 11
456.55149979650002
 21
281.1741662865
 31
0.0
  0
SOLID
  5
466
  8
0
 62
     0
 10
466.55149979650002
 20
281.1741662865
 30
0.0
 11
457.55149979650002
 21
278.9241662865
 31
0.0
 12
457.55149979650002
 22
283.4241662865
 32
0.0
 13
459.80149979650002
 23
281.1741662865
 33
0.0
  0
ENDBLK
  5
467
  8
0
  0
BLOCK
  8
0
  2
*D93
 70
     1
 10
0.0
 20
0.0
 30
0.0
  3
*D93
  1

  0
TEXT
  5
46B
  8
0
 62
     0
 10
617.75649814559995
 20
-44.212101699100003
 30
0.0
 40
9.8954164504999991
  1
23
  0
LINE
  5
46C
  8
0
 62
     0
 10
635.07733135169997
 20
-74.958351660999995
 30
0.0
 11
635.07733135169997
 21
-45.958351661000002
 31
0.0
  0
LINE
  5
46D
  8
0
 62
     0
 10
612.07733135169985
 20
-76.958351661000009
 30
0.0
 11
612.07733135169985
 21
-45.958351661000002
 31
0.0
  0
LINE
  5
46E
  8
0
 62
     0
 10
635.07733135169997
 20
-46.958351661000002
 30
0.0
 11
635.07733135169997
 21
-46.958351661000002
 31
0.0
  0
LINE
  5
46F
  8
0
 62
     0
 10
635.07733135169997
 20
-46.958351661000002
 30
0.0
 11
612.07733135169985
 21
-46.958351661000002
 31
0.0
  0
LINE
  5
470
  8
0
 62
     0
 10
612.07733135169985
 20
-46.958351661000002
 30
0.0
 11
635.07733135169997
 21
-46.958351661000002
 31
0.0
  0
LINE
  5
471
  8
0
 62
     0
 10
612.07733135169985
 20
-46.958351661000002
 30
0.0
 11
612.07733135169985
 21
-46.958351661000002
 31
0.0
  0
LINE
  5
472
  8
0
 62
     0
 10
612.07733135169985
 20
-46.958351661000002
 30
0.0
 11
622.07733135169997
 21
-46.958351661000002
 31
0.0
  0
SOLID
  5
473
  8
0
 62
     0
 10
612.07733135169985
 20
-46.958351661000002
 30
0.0
 11
621.07733135169985
 21
-44.708351661000002
 31
0.0
 12
621.07733135169985
 22
-49.208351661000002
 32
0.0
 13
618.82733135169985
 23
-46.958351661000002
 33
0.0
  0
LINE
  5
474
  8
0
 62
     0
 10
635.07733135169997
 20
-46.958351661000002
 30
0.0
 11
625.07733135169985
 21
-46.958351661000002
 31
0.0
  0
SOLID
  5
475
  8
0
 62
     0
 10
635.07733135169997
 20
-46.958351661000002
 30
0.0
 11
626.07733135169985
 21
-49.208351661000002
 31
0.0
 12
626.07733135169985
 22
-44.708351661000002
 32
0.0
 13
628.32733135169997
 23
-46.958351661000002
 33
0.0
  0
ENDBLK
  5
476
  8
0
  0
BLOCK
  8
0
  2
*D94
 70
     1
 10
0.0
 20
0.0
 30
0.0
  3
*D94
  1

  0
TEXT
  5
47A
  8
0
 62
     0
 10
549.8467616424
 20
-44.212101699100003
 30
0.0
 40
9.8954164504999991
  1
14
  0
LINE
  5
47B
  8
0
 62
     0
 10
562.66759484859995
 20
-74.958351660999995
 30
0.0
 11
562.66759484859995
 21
-45.958351661000002
 31
0.0
  0
LINE
  5
47C
  8
0
 62
     0
 10
548.66759484859995
 20
-76.958353010300002
 30
0.0
 11
548.66759484859995
 21
-45.958351661000002
 31
0.0
  0
LINE
  5
47D
  8
0
 62
     0
 10
562.66759484859995
 20
-46.958351661000002
 30
0.0
 11
562.66759484859995
 21
-46.958351661000002
 31
0.0
  0
LINE
  5
47E
  8
0
 62
     0
 10
562.66759484859995
 20
-46.958351661000002
 30
0.0
 11
548.66759484859995
 21
-46.958351661000002
 31
0.0
  0
LINE
  5
47F
  8
0
 62
     0
 10
548.66759484859995
 20
-46.958351661000002
 30
0.0
 11
562.66759484859995
 21
-46.958351661000002
 31
0.0
  0
LINE
  5
480
  8
0
 62
     0
 10
548.66759484859995
 20
-46.958351661000002
 30
0.0
 11
548.66759484859995
 21
-46.958351661000002
 31
0.0
  0
LINE
  5
481
  8
0
 62
     0
 10
548.66759484859995
 20
-46.958351661000002
 30
0.0
 11
538.66759484859995
 21
-46.958351661000002
 31
0.0
  0
SOLID
  5
482
  8
0
 62
     0
 10
548.66759484859995
 20
-46.958351661000002
 30
0.0
 11
539.66759484859995
 21
-49.208351661000002
 31
0.0
 12
539.66759484859995
 22
-44.708351661000002
 32
0.0
 13
541.91759484859995
 23
-46.958351661000002
 33
0.0
  0
LINE
  5
483
  8
0
 62
     0
 10
562.66759484859995
 20
-46.958351661000002
 30
0.0
 11
572.66759484860006
 21
-46.958351661000002
 31
0.0
  0
SOLID
  5
484
  8
0
 62
     0
 10
562.66759484859995
 20
-46.958351661000002
 30
0.0
 11
571.66759484859995
 21
-44.708351661000002
 31
0.0
 12
571.66759484859995
 22
-49.208351661000002
 32
0.0
 13
569.41759484859995
 23
-46.958351661000002
 33
0.0
  0
ENDBLK
  5
485
  8
0
  0
BLOCK
  8
0
  2
*D95
 70
     1
 10
0.0
 20
0.0
 30
0.0
  3
*D95
  1

  0
TEXT
  5
489
  8
0
 62
     0
 10
468.14108319339988
 20
283.92041624839999
 30
0.0
 40
9.8954164504999991
  1
9
  0
LINE
  5
48A
  8
0
 62
     0
 10
475.55149979650002
 20
250.0651842003
 30
0.0
 11
475.55149979650002
 21
282.1741662865
 31
0.0
  0
LINE
  5
48B
  8
0
 62
     0
 10
466.55149979650002
 20
241.0651842003
 30
0.0
 11
466.55149979650002
 21
282.1741662865
 31
0.0
  0
LINE
  5
48C
  8
0
 62
     0
 10
475.55149979650002
 20
281.1741662865
 30
0.0
 11
475.55149979650002
 21
281.1741662865
 31
0.0
  0
LINE
  5
48D
  8
0
 62
     0
 10
475.55149979650002
 20
281.1741662865
 30
0.0
 11
466.55149979650002
 21
281.1741662865
 31
0.0
  0
LINE
  5
48E
  8
0
 62
     0
 10
466.55149979650002
 20
281.1741662865
 30
0.0
 11
475.55149979650002
 21
281.1741662865
 31
0.0
  0
LINE
  5
48F
  8
0
 62
     0
 10
466.55149979650002
 20
281.1741662865
 30
0.0
 11
466.55149979650002
 21
281.1741662865
 31
0.0
  0
LINE
  5
490
  8
0
 62
     0
 10
466.55149979650002
 20
281.1741662865
 30
0.0
 11
456.55149979650002
 21
281.1741662865
 31
0.0
  0
SOLID
  5
491
  8
0
 62
     0
 10
466.55149979650002
 20
281.1741662865
 30
0.0
 11
457.55149979650002
 21
278.9241662865
 31
0.0
 12
457.55149979650002
 22
283.4241662865
 32
0.0
 13
459.80149979650002
 23
281.1741662865
 33
0.0
  0
LINE
  5
492
  8
0
 62
     0
 10
475.55149979650002
 20
281.1741662865
 30
0.0
 11
485.55149979650002
 21
281.1741662865
 31
0.0
  0
SOLID
  5
493
  8
0
 62
     0
 10
475.55149979650002
 20
281.1741662865
 30
0.0
 11
484.55149979650002
 21
283.4241662865
 31
0.0
 12
484.55149979650002
 22
278.9241662865
 32
0.0
 13
482.30149979650002
 23
281.1741662865
 33
0.0
  0
ENDBLK
  5
494
  8
0
  0
BLOCK
  8
0
  2
CLUMP72
 70
     0
 10
0.0
 20
0.0
 30
0.0
  3
CLUMP72
  1

  0
LINE
  5
49E
  8
É}ÿg
 10
592.02083231710003
 20
-321.01335111790002
 30
0.0
 11
592.02083231710003
 21
-306.01335111790002
 31
0.0
  0
LINE
  5
49F
  8
É}ÿg
 10
415.02083231709992
 20
-321.01335111790002
 30
0.0
 11
415.02083231709992
 21
-306.01335111790002
 31
0.0
  0
LINE
  5
4A0
  8
É}ÿg
 10
442.02083231709992
 20
-321.01335111790002
 30
0.0
 11
442.02083231709992
 21
-306.01335111790002
 31
0.0
  0
LINE
  5
4A1
  8
É}ÿg
 10
757.02083231710003
 20
-321.01335111790002
 30
0.0
 11
757.02083231710003
 21
-306.01335111790002
 31
0.0
  0
LINE
  5
4A2
  8
É}ÿg
 10
730.02083231710003
 20
-321.01335111790002
 30
0.0
 11
730.02083231710003
 21
-306.01335111790002
 31
0.0
  0
LINE
  5
4A3
  8
É}ÿg
 10
850.02083231709992
 20
-306.01335111790002
 30
0.0
 11
415.02083231709992
 21
-306.01335111790002
 31
0.0
  0
ENDBLK
  5
4A4
  8
0
  0
BLOCK
  8
0
  2
CLUMP73
 70
     0
 10
0.0
 20
0.0
 30
0.0
  3
CLUMP73
  1

  0
LINE
  5
4A8
  8
É}ÿg
 10
592.02083231710003
 20
-336.01335111790002
 30
0.0
 11
592.02083231710003
 21
-321.01335111790002
 31
0.0
  0
LINE
  5
4A9
  8
É}ÿg
 10
415.02083231709992
 20
-336.01335111790002
 30
0.0
 11
415.02083231709992
 21
-321.01335111790002
 31
0.0
  0
LINE
  5
4AA
  8
É}ÿg
 10
442.02083231709992
 20
-336.01335111790002
 30
0.0
 11
442.02083231709992
 21
-321.01335111790002
 31
0.0
  0
LINE
  5
4AB
  8
É}ÿg
 10
757.02083231710003
 20
-336.01335111790002
 30
0.0
 11
757.02083231710003
 21
-321.01335111790002
 31
0.0
  0
LINE
  5
4AC
  8
É}ÿg
 10
730.02083231710003
 20
-336.01335111790002
 30
0.0
 11
730.02083231710003
 21
-321.01335111790002
 31
0.0
  0
LINE
  5
4AD
  8
É}ÿg
 10
850.02083231709992
 20
-321.01335111790002
 30
0.0
 11
415.02083231709992
 21
-321.01335111790002
 31
0.0
  0
ENDBLK
  5
4AE
  8
0
  0
BLOCK
  8
0
  2
*D98
 70
     1
 10
0.0
 20
0.0
 30
0.0
  3
*D98
  1

  0
TEXT
  5
4B9
  8
0
 62
     0
 10
-326.40360063150001
 20
-174.81066601559999
 30
0.0
 40
9.8954164504999991
  1
2-â│15
 50
26.776143397399998
  0
LINE
  5
4BA
  8
0
 62
     0
 10
-261.94522420880003
 20
-146.8480382077
 30
0.0
 11
-324.5679770433
 21
-178.44834586100001
 31
0.0
  0
SOLID
  5
4BB
  8
0
 62
     0
 10
-261.94522420880003
 20
-146.8480382077
 30
0.0
 11
-268.96654732820002
 21
-152.9113311788
 31
0.0
 12
-270.99382365349999
 22
-148.89385053780001
 32
0.0
 13
-267.9714451703
 23
-149.88895269560001
 33
0.0
  0
ENDBLK
  5
4BC
  8
0
  0
BLOCK
  8
0
  2
*D99
 70
     1
 10
0.0
 20
0.0
 30
0.0
  3
*D99
  1

  0
TEXT
  5
4C0
  8
0
 62
     0
 10
418.79160120339992
 20
-233.2121016991
 30
0.0
 40
9.8954164504999991
  1
26.75
  0
LINE
  5
4C1
  8
0
 62
     0
 10
418.27086307529993
 20
-193.45893499429999
 30
0.0
 11
418.27086307529993
 21
-236.95835166099999
 31
0.0
  0
LINE
  5
4C2
  8
0
 62
     0
 10
445.0210193252999
 20
-207.95835166099999
 30
0.0
 11
445.0210193252999
 21
-236.95835166099999
 31
0.0
  0
LINE
  5
4C3
  8
0
 62
     0
 10
418.27086307529993
 20
-235.95835166099999
 30
0.0
 11
418.27086307529993
 21
-235.95835166099999
 31
0.0
  0
LINE
  5
4C4
  8
0
 62
     0
 10
418.27086307529993
 20
-235.95835166099999
 30
0.0
 11
445.0210193252999
 21
-235.95835166099999
 31
0.0
  0
LINE
  5
4C5
  8
0
 62
     0
 10
445.0210193252999
 20
-235.95835166099999
 30
0.0
 11
418.27086307529993
 21
-235.95835166099999
 31
0.0
  0
LINE
  5
4C6
  8
0
 62
     0
 10
445.0210193252999
 20
-235.95835166099999
 30
0.0
 11
445.0210193252999
 21
-235.95835166099999
 31
0.0
  0
LINE
  5
4C7
  8
0
 62
     0
 10
445.0210193252999
 20
-235.95835166099999
 30
0.0
 11
435.0210193252999
 21
-235.95835166099999
 31
0.0
  0
SOLID
  5
4C8
  8
0
 62
     0
 10
445.0210193252999
 20
-235.95835166099999
 30
0.0
 11
436.0210193252999
 21
-238.20835166099999
 31
0.0
 12
436.0210193252999
 22
-233.70835166099999
 32
0.0
 13
438.2710193252999
 23
-235.95835166099999
 33
0.0
  0
LINE
  5
4C9
  8
0
 62
     0
 10
418.27086307529993
 20
-235.95835166099999
 30
0.0
 11
428.27086307529993
 21
-235.95835166099999
 31
0.0
  0
SOLID
  5
4CA
  8
0
 62
     0
 10
418.27086307529993
 20
-235.95835166099999
 30
0.0
 11
427.27086307529993
 21
-233.70835166099999
 31
0.0
 12
427.27086307529993
 22
-238.20835166099999
 32
0.0
 13
425.02086307529993
 23
-235.95835166099999
 33
0.0
  0
ENDBLK
  5
4CB
  8
0
  0
BLOCK
  8
0
  2
*D100
 70
     1
 10
0.0
 20
0.0
 30
0.0
  3
*D100
  1

  0
TEXT
  5
4CF
  8
0
 62
     0
 10
472.2747693634999
 20
-202.77947653379999
 30
0.0
 40
9.8954164504999991
  1
18
 50
90.0
  0
LINE
  5
4D0
  8
0
 62
     0
 10
447.02101932530002
 20
-205.95835166099999
 30
0.0
 11
476.02101932530002
 21
-205.95835166099999
 31
0.0
  0
LINE
  5
4D1
  8
0
 62
     0
 10
431.27086307529993
 20
-187.95893499429999
 30
0.0
 11
476.02101932530002
 21
-187.95893499429999
 31
0.0
  0
LINE
  5
4D2
  8
0
 62
     0
 10
475.0210193252999
 20
-205.95835166099999
 30
0.0
 11
475.0210193252999
 21
-205.95835166099999
 31
0.0
  0
LINE
  5
4D3
  8
0
 62
     0
 10
475.0210193252999
 20
-205.95835166099999
 30
0.0
 11
475.0210193252999
 21
-187.95893499429999
 31
0.0
  0
LINE
  5
4D4
  8
0
 62
     0
 10
475.0210193252999
 20
-187.95893499429999
 30
0.0
 11
475.0210193252999
 21
-205.95835166099999
 31
0.0
  0
LINE
  5
4D5
  8
0
 62
     0
 10
475.0210193252999
 20
-187.95893499429999
 30
0.0
 11
475.0210193252999
 21
-187.95893499429999
 31
0.0
  0
LINE
  5
4D6
  8
0
 62
     0
 10
475.0210193252999
 20
-187.95893499429999
 30
0.0
 11
475.0210193252999
 21
-177.95893499429999
 31
0.0
  0
SOLID
  5
4D7
  8
0
 62
     0
 10
475.0210193252999
 20
-187.95893499429999
 30
0.0
 11
472.7710193252999
 21
-178.95893499429999
 31
0.0
 12
477.2710193252999
 22
-178.95893499429999
 32
0.0
 13
475.0210193252999
 23
-181.20893499429999
 33
0.0
  0
LINE
  5
4D8
  8
0
 62
     0
 10
475.0210193252999
 20
-205.95835166099999
 30
0.0
 11
475.0210193252999
 21
-215.95835166099999
 31
0.0
  0
SOLID
  5
4D9
  8
0
 62
     0
 10
475.0210193252999
 20
-205.95835166099999
 30
0.0
 11
477.2710193252999
 21
-214.95835166099999
 31
0.0
 12
472.7710193252999
 22
-214.95835166099999
 32
0.0
 13
475.0210193252999
 23
-212.70835166099999
 33
0.0
  0
ENDBLK
  5
4DA
  8
0
  0
BLOCK
  8
0
  2
*D101
 70
     1
 10
0.0
 20
0.0
 30
0.0
  3
*D101
  1

  0
TEXT
  5
4DE
  8
0
 62
     0
 10
472.2747693634999
 20
-167.15256672149999
 30
0.0
 40
9.8954164504999991
  1
31.5
 50
90.0
  0
LINE
  5
4DF
  8
0
 62
     0
 10
431.27086307529993
 20
-172.95893499429999
 30
0.0
 11
476.02101932530002
 21
-172.95893499429999
 31
0.0
  0
LINE
  5
4E0
  8
0
 62
     0
 10
452.0210193252999
 20
-141.45835166099999
 30
0.0
 11
476.02101932530002
 21
-141.45835166099999
 31
0.0
  0
LINE
  5
4E1
  8
0
 62
     0
 10
475.0210193252999
 20
-172.95893499429999
 30
0.0
 11
475.0210193252999
 21
-172.95893499429999
 31
0.0
  0
LINE
  5
4E2
  8
0
 62
     0
 10
475.0210193252999
 20
-172.95893499429999
 30
0.0
 11
475.0210193252999
 21
-141.45835166099999
 31
0.0
  0
LINE
  5
4E3
  8
0
 62
     0
 10
475.0210193252999
 20
-141.45835166099999
 30
0.0
 11
475.0210193252999
 21
-172.95893499429999
 31
0.0
  0
LINE
  5
4E4
  8
0
 62
     0
 10
475.0210193252999
 20
-141.45835166099999
 30
0.0
 11
475.0210193252999
 21
-141.45835166099999
 31
0.0
  0
LINE
  5
4E5
  8
0
 62
     0
 10
475.0210193252999
 20
-141.45835166099999
 30
0.0
 11
475.0210193252999
 21
-151.45835166099999
 31
0.0
  0
SOLID
  5
4E6
  8
0
 62
     0
 10
475.0210193252999
 20
-141.45835166099999
 30
0.0
 11
477.2710193252999
 21
-150.45835166099999
 31
0.0
 12
472.7710193252999
 22
-150.45835166099999
 32
0.0
 13
475.0210193252999
 23
-148.20835166099999
 33
0.0
  0
LINE
  5
4E7
  8
0
 62
     0
 10
475.0210193252999
 20
-172.95893499429999
 30
0.0
 11
475.0210193252999
 21
-162.95893499429999
 31
0.0
  0
SOLID
  5
4E8
  8
0
 62
     0
 10
475.0210193252999
 20
-172.95893499429999
 30
0.0
 11
472.7710193252999
 21
-163.95893499429999
 31
0.0
 12
477.2710193252999
 22
-163.95893499429999
 32
0.0
 13
475.0210193252999
 23
-166.20893499429999
 33
0.0
  0
ENDBLK
  5
4E9
  8
0
  0
BLOCK
  8
0
  2
*D102
 70
     1
 10
0.0
 20
0.0
 30
0.0
  3
*D102
  1

  0
TEXT
  5
4ED
  8
0
 62
     0
 10
472.27476951609992
 20
-186.2797682005
 30
0.0
 40
9.8954164504999991
  1
15
 50
90.0
  0
LINE
  5
4EE
  8
0
 62
     0
 10
431.27086307529993
 20
-187.95893499429999
 30
0.0
 11
476.02101947789993
 21
-187.95893499429999
 31
0.0
  0
LINE
  5
4EF
  8
0
 62
     0
 10
431.27086307529993
 20
-172.95893499429999
 30
0.0
 11
476.02101947789993
 21
-172.95893499429999
 31
0.0
  0
LINE
  5
4F0
  8
0
 62
     0
 10
475.02101947789998
 20
-187.95893499429999
 30
0.0
 11
475.02101947789998
 21
-187.95893499429999
 31
0.0
  0
LINE
  5
4F1
  8
0
 62
     0
 10
475.02101947789998
 20
-187.95893499429999
 30
0.0
 11
475.02101947789998
 21
-172.95893499429999
 31
0.0
  0
LINE
  5
4F2
  8
0
 62
     0
 10
475.02101947789998
 20
-172.95893499429999
 30
0.0
 11
475.02101947789998
 21
-187.95893499429999
 31
0.0
  0
LINE
  5
4F3
  8
0
 62
     0
 10
475.02101947789998
 20
-172.95893499429999
 30
0.0
 11
475.02101947789998
 21
-172.95893499429999
 31
0.0
  0
LINE
  5
4F4
  8
0
 62
     0
 10
475.02101947789998
 20
-172.95893499429999
 30
0.0
 11
475.02101947789998
 21
-162.95893499429999
 31
0.0
  0
SOLID
  5
4F5
  8
0
 62
     0
 10
475.02101947789998
 20
-172.95893499429999
 30
0.0
 11
472.77101947789998
 21
-163.95893499429999
 31
0.0
 12
477.27101947789998
 22
-163.95893499429999
 32
0.0
 13
475.02101947789998
 23
-166.20893499429999
 33
0.0
  0
LINE
  5
4F6
  8
0
 62
     0
 10
475.02101947789998
 20
-187.95893499429999
 30
0.0
 11
475.02101947789998
 21
-197.95893499429999
 31
0.0
  0
SOLID
  5
4F7
  8
0
 62
     0
 10
475.02101947789998
 20
-187.95893499429999
 30
0.0
 11
477.27101947789998
 21
-196.95893499429999
 31
0.0
 12
472.77101947789998
 22
-196.95893499429999
 32
0.0
 13
475.02101947789998
 23
-194.70893499429999
 33
0.0
  0
ENDBLK
  5
4F8
  8
0
  0
BLOCK
  8
0
  2
*D103
 70
     1
 10
0.0
 20
0.0
 30
0.0
  3
*D103
  1

  0
TEXT
  5
4FC
  8
0
 62
     0
 10
374.95002986920002
 20
-233.21210138379999
 30
0.0
 40
9.8954164504999991
  1
75
  0
LINE
  5
4FD
  8
0
 62
     0
 10
343.27086307529999
 20
-193.45893499429999
 30
0.0
 11
343.27086307529999
 21
-236.95835134559999
 31
0.0
  0
LINE
  5
4FE
  8
0
 62
     0
 10
418.27086307529993
 20
-193.45893499429999
 30
0.0
 11
418.27086307529993
 21
-236.95835134559999
 31
0.0
  0
LINE
  5
4FF
  8
0
 62
     0
 10
343.27086307529999
 20
-235.95835134559999
 30
0.0
 11
392.41252948769989
 21
-235.95835134559999
 31
0.0
  0
LINE
  5
500
  8
0
 62
     0
 10
343.27086307529999
 20
-235.95835134559999
 30
0.0
 11
369.12919666300002
 21
-235.95835134559999
 31
0.0
  0
LINE
  5
501
  8
0
 62
     0
 10
418.27086307529993
 20
-235.95835134559999
 30
0.0
 11
392.41252948769989
 21
-235.95835134559999
 31
0.0
  0
LINE
  5
502
  8
0
 62
     0
 10
418.27086307529993
 20
-235.95835134559999
 30
0.0
 11
369.12919666300002
 21
-235.95835134559999
 31
0.0
  0
LINE
  5
503
  8
0
 62
     0
 10
418.27086307529993
 20
-235.95835134559999
 30
0.0
 11
408.27086307529999
 21
-235.95835134559999
 31
0.0
  0
SOLID
  5
504
  8
0
 62
     0
 10
418.27086307529993
 20
-235.95835134559999
 30
0.0
 11
409.27086307529999
 21
-238.20835134559999
 31
0.0
 12
409.27086307529999
 22
-233.70835134559999
 32
0.0
 13
411.52086307529999
 23
-235.95835134559999
 33
0.0
  0
LINE
  5
505
  8
0
 62
     0
 10
343.27086307529999
 20
-235.95835134559999
 30
0.0
 11
353.27086307529999
 21
-235.95835134559999
 31
0.0
  0
SOLID
  5
506
  8
0
 62
     0
 10
343.27086307529999
 20
-235.95835134559999
 30
0.0
 11
352.27086307529999
 21
-233.70835134559999
 31
0.0
 12
352.27086307529999
 22
-238.20835134559999
 32
0.0
 13
350.02086307529999
 23
-235.95835134559999
 33
0.0
  0
ENDBLK
  5
507
  8
0
  0
BLOCK
  8
0
  2
*D104
 70
     1
 10
0.0
 20
0.0
 30
0.0
  3
*D104
  1

  0
TEXT
  5
50B
  8
0
 62
     0
 10
452.68573537970002
 20
-272.4625926133001
 30
0.0
 40
9.8954164504999991
  1
R5
 50
315.0
  0
LINE
  5
50C
  8
0
 62
     0
 10
443.55655323129992
 20
-269.09574135000003
 30
0.0
 11
461.6379280049
 21
-287.1771161236
 31
0.0
  0
SOLID
  5
50D
  8
0
 62
     0
 10
443.55655323129992
 20
-269.09574135000003
 30
0.0
 11
451.51150451960001
 21
-273.86871212300002
 31
0.0
 12
448.32952400430003
 22
-277.05069263839999
 32
0.0
 13
448.32952400430003
 23
-273.86871212300002
 33
0.0
  0
ENDBLK
  5
50E
  8
0
  0
BLOCK
  8
0
  2
*D105
 70
     1
 10
0.0
 20
0.0
 30
0.0
  3
*D105
  1

  0
TEXT
  5
512
  8
0
 62
     0
 10
472.2747693634999
 20
-91.779476533799993
 30
0.0
 40
9.8954164504999991
  1
18
 50
90.0
  0
LINE
  5
513
  8
0
 62
     0
 10
431.27086307529993
 20
-94.958934994300009
 30
0.0
 11
476.02101932530002
 21
-94.958934994300009
 31
0.0
  0
LINE
  5
514
  8
0
 62
     0
 10
447.02101932530002
 20
-76.958351661000009
 30
0.0
 11
476.02101932530002
 21
-76.958351661000009
 31
0.0
  0
LINE
  5
515
  8
0
 62
     0
 10
475.0210193252999
 20
-94.958934994300009
 30
0.0
 11
475.0210193252999
 21
-94.958934994300009
 31
0.0
  0
LINE
  5
516
  8
0
 62
     0
 10
475.0210193252999
 20
-94.958934994300009
 30
0.0
 11
475.0210193252999
 21
-76.958351661000009
 31
0.0
  0
LINE
  5
517
  8
0
 62
     0
 10
475.0210193252999
 20
-76.958351661000009
 30
0.0
 11
475.0210193252999
 21
-94.958934994300009
 31
0.0
  0
LINE
  5
518
  8
0
 62
     0
 10
475.0210193252999
 20
-76.958351661000009
 30
0.0
 11
475.0210193252999
 21
-76.958351661000009
 31
0.0
  0
LINE
  5
519
  8
0
 62
     0
 10
475.0210193252999
 20
-76.958351661000009
 30
0.0
 11
475.0210193252999
 21
-86.958351661000009
 31
0.0
  0
SOLID
  5
51A
  8
0
 62
     0
 10
475.0210193252999
 20
-76.958351661000009
 30
0.0
 11
477.2710193252999
 21
-85.958351660999995
 31
0.0
 12
472.7710193252999
 22
-85.958351660999995
 32
0.0
 13
475.0210193252999
 23
-83.708351660999995
 33
0.0
  0
LINE
  5
51B
  8
0
 62
     0
 10
475.0210193252999
 20
-94.958934994300009
 30
0.0
 11
475.0210193252999
 21
-84.958934994300009
 31
0.0
  0
SOLID
  5
51C
  8
0
 62
     0
 10
475.0210193252999
 20
-94.958934994300009
 30
0.0
 11
472.7710193252999
 21
-85.958934994300009
 31
0.0
 12
477.2710193252999
 22
-85.958934994300009
 32
0.0
 13
475.0210193252999
 23
-88.208934994300009
 33
0.0
  0
ENDBLK
  5
51D
  8
0
  0
BLOCK
  8
0
  2
*D106
 70
     1
 10
0.0
 20
0.0
 30
0.0
  3
*D106
  1

  0
TEXT
  5
521
  8
0
 62
     0
 10
497.90839820870002
 20
-150.18960147019999
 30
0.0
 40
9.8954164504999991
  1
129
 50
90.0
  0
LINE
  5
522
  8
0
 62
     0
 10
447.02101932530002
 20
-205.95835166099999
 30
0.0
 11
501.6546481705999
 21
-205.95835166099999
 31
0.0
  0
LINE
  5
523
  8
0
 62
     0
 10
447.02101932530002
 20
-76.958351661000009
 30
0.0
 11
501.6546481705999
 21
-76.958351661000009
 31
0.0
  0
LINE
  5
524
  8
0
 62
     0
 10
500.6546481705999
 20
-205.95835166099999
 30
0.0
 11
500.6546481705999
 21
-126.90626864550001
 31
0.0
  0
LINE
  5
525
  8
0
 62
     0
 10
500.6546481705999
 20
-205.95835166099999
 30
0.0
 11
500.6546481705999
 21
-156.0104346764
 31
0.0
  0
LINE
  5
526
  8
0
 62
     0
 10
500.6546481705999
 20
-76.958351661000009
 30
0.0
 11
500.6546481705999
 21
-126.90626864550001
 31
0.0
  0
LINE
  5
527
  8
0
 62
     0
 10
500.6546481705999
 20
-76.958351661000009
 30
0.0
 11
500.6546481705999
 21
-156.0104346764
 31
0.0
  0
LINE
  5
528
  8
0
 62
     0
 10
500.6546481705999
 20
-76.958351661000009
 30
0.0
 11
500.6546481705999
 21
-86.958351661000009
 31
0.0
  0
SOLID
  5
529
  8
0
 62
     0
 10
500.6546481705999
 20
-76.958351661000009
 30
0.0
 11
502.9046481705999
 21
-85.958351660999995
 31
0.0
 12
498.4046481705999
 22
-85.958351660999995
 32
0.0
 13
500.6546481705999
 23
-83.708351660999995
 33
0.0
  0
LINE
  5
52A
  8
0
 62
     0
 10
500.6546481705999
 20
-205.95835166099999
 30
0.0
 11
500.6546481705999
 21
-195.95835166099999
 31
0.0
  0
SOLID
  5
52B
  8
0
 62
     0
 10
500.6546481705999
 20
-205.95835166099999
 30
0.0
 11
498.4046481705999
 21
-196.95835166099999
 31
0.0
 12
502.9046481705999
 22
-196.95835166099999
 32
0.0
 13
500.6546481705999
 23
-199.20835166099999
 33
0.0
  0
ENDBLK
  5
52C
  8
0
  0
BLOCK
  8
0
  2
*D107
 70
     1
 10
0.0
 20
0.0
 30
0.0
  3
*D107
  1

  0
TEXT
  5
530
  8
0
 62
     0
 10
472.2747693634999
 20
-135.65256672149999
 30
0.0
 40
9.8954164504999991
  1
31.5
 50
90.0
  0
LINE
  5
531
  8
0
 62
     0
 10
452.0210193252999
 20
-141.45835166099999
 30
0.0
 11
476.02101932530002
 21
-141.45835166099999
 31
0.0
  0
LINE
  5
532
  8
0
 62
     0
 10
431.27086307529993
 20
-109.95893499429999
 30
0.0
 11
476.02101932530002
 21
-109.95893499429999
 31
0.0
  0
LINE
  5
533
  8
0
 62
     0
 10
475.0210193252999
 20
-141.45835166099999
 30
0.0
 11
475.0210193252999
 21
-141.45835166099999
 31
0.0
  0
LINE
  5
534
  8
0
 62
     0
 10
475.0210193252999
 20
-141.45835166099999
 30
0.0
 11
475.0210193252999
 21
-109.95893499429999
 31
0.0
  0
LINE
  5
535
  8
0
 62
     0
 10
475.0210193252999
 20
-109.95893499429999
 30
0.0
 11
475.0210193252999
 21
-141.45835166099999
 31
0.0
  0
LINE
  5
536
  8
0
 62
     0
 10
475.0210193252999
 20
-109.95893499429999
 30
0.0
 11
475.0210193252999
 21
-109.95893499429999
 31
0.0
  0
LINE
  5
537
  8
0
 62
     0
 10
475.0210193252999
 20
-109.95893499429999
 30
0.0
 11
475.0210193252999
 21
-119.95893499429999
 31
0.0
  0
SOLID
  5
538
  8
0
 62
     0
 10
475.0210193252999
 20
-109.95893499429999
 30
0.0
 11
477.2710193252999
 21
-118.95893499429999
 31
0.0
 12
472.7710193252999
 22
-118.95893499429999
 32
0.0
 13
475.0210193252999
 23
-116.70893499429999
 33
0.0
  0
LINE
  5
539
  8
0
 62
     0
 10
475.0210193252999
 20
-141.45835166099999
 30
0.0
 11
475.0210193252999
 21
-131.45835166099999
 31
0.0
  0
SOLID
  5
53A
  8
0
 62
     0
 10
475.0210193252999
 20
-141.45835166099999
 30
0.0
 11
472.7710193252999
 21
-132.45835166099999
 31
0.0
 12
477.2710193252999
 22
-132.45835166099999
 32
0.0
 13
475.0210193252999
 23
-134.70835166099999
 33
0.0
  0
ENDBLK
  5
53B
  8
0
  0
BLOCK
  8
0
  2
*D108
 70
     1
 10
0.0
 20
0.0
 30
0.0
  3
*D108
  1

  0
TEXT
  5
53F
  8
0
 62
     0
 10
472.27476951609992
 20
-108.2797682005
 30
0.0
 40
9.8954164504999991
  1
15
 50
90.0
  0
LINE
  5
540
  8
0
 62
     0
 10
431.27086307529993
 20
-109.95893499429999
 30
0.0
 11
476.02101947789993
 21
-109.95893499429999
 31
0.0
  0
LINE
  5
541
  8
0
 62
     0
 10
431.27086307529993
 20
-94.958934994300009
 30
0.0
 11
476.02101947789993
 21
-94.958934994300009
 31
0.0
  0
LINE
  5
542
  8
0
 62
     0
 10
475.02101947789998
 20
-109.95893499429999
 30
0.0
 11
475.02101947789998
 21
-109.95893499429999
 31
0.0
  0
LINE
  5
543
  8
0
 62
     0
 10
475.02101947789998
 20
-109.95893499429999
 30
0.0
 11
475.02101947789998
 21
-94.958934994300009
 31
0.0
  0
LINE
  5
544
  8
0
 62
     0
 10
475.02101947789998
 20
-94.958934994300009
 30
0.0
 11
475.02101947789998
 21
-109.95893499429999
 31
0.0
  0
LINE
  5
545
  8
0
 62
     0
 10
475.02101947789998
 20
-94.958934994300009
 30
0.0
 11
475.02101947789998
 21
-94.958934994300009
 31
0.0
  0
LINE
  5
546
  8
0
 62
     0
 10
475.02101947789998
 20
-94.958934994300009
 30
0.0
 11
475.02101947789998
 21
-84.958934994300009
 31
0.0
  0
SOLID
  5
547
  8
0
 62
     0
 10
475.02101947789998
 20
-94.958934994300009
 30
0.0
 11
472.77101947789998
 21
-85.958934994300009
 31
0.0
 12
477.27101947789998
 22
-85.958934994300009
 32
0.0
 13
475.02101947789998
 23
-88.208934994300009
 33
0.0
  0
LINE
  5
548
  8
0
 62
     0
 10
475.02101947789998
 20
-109.95893499429999
 30
0.0
 11
475.02101947789998
 21
-119.95893499429999
 31
0.0
  0
SOLID
  5
549
  8
0
 62
     0
 10
475.02101947789998
 20
-109.95893499429999
 30
0.0
 11
477.27101947789998
 21
-118.95893499429999
 31
0.0
 12
472.77101947789998
 22
-118.95893499429999
 32
0.0
 13
475.02101947789998
 23
-116.70893499429999
 33
0.0
  0
ENDBLK
  5
54A
  8
0
  0
BLOCK
  8
0
  2
*D109
 70
     1
 10
0.0
 20
0.0
 30
0.0
  3
*D109
  1

  0
TEXT
  5
54E
  8
0
 62
     0
 10
67.916679328400008
 20
-44.212101699100003
 30
0.0
 40
9.8954164504999991
  1
728.5
  0
LINE
  5
54F
  8
0
 62
     0
 10
445.0210193252999
 20
-74.958351660999995
 30
0.0
 11
445.0210193252999
 21
-45.958351661000002
 31
0.0
  0
LINE
  5
550
  8
0
 62
     0
 10
-283.47898067469998
 20
-74.958351660999995
 30
0.0
 11
-283.47898067469998
 21
-45.958351661000002
 31
0.0
  0
LINE
  5
551
  8
0
 62
     0
 10
445.0210193252999
 20
-46.958351661000002
 30
0.0
 11
99.446192528500006
 21
-46.958351661000002
 31
0.0
  0
LINE
  5
552
  8
0
 62
     0
 10
445.0210193252999
 20
-46.958351661000002
 30
0.0
 11
62.095846122200001
 21
-46.958351661000002
 31
0.0
  0
LINE
  5
553
  8
0
 62
     0
 10
-283.47898067469998
 20
-46.958351661000002
 30
0.0
 11
99.446192528500006
 21
-46.958351661000002
 31
0.0
  0
LINE
  5
554
  8
0
 62
     0
 10
-283.47898067469998
 20
-46.958351661000002
 30
0.0
 11
62.095846122200001
 21
-46.958351661000002
 31
0.0
  0
LINE
  5
555
  8
0
 62
     0
 10
-283.47898067469998
 20
-46.958351661000002
 30
0.0
 11
-273.47898067469998
 21
-46.958351661000002
 31
0.0
  0
SOLID
  5
556
  8
0
 62
     0
 10
-283.47898067469998
 20
-46.958351661000002
 30
0.0
 11
-274.47898067469998
 21
-44.708351661000002
 31
0.0
 12
-274.47898067469998
 22
-49.208351661000002
 32
0.0
 13
-276.7289806747001
 23
-46.958351661000002
 33
0.0
  0
LINE
  5
557
  8
0
 62
     0
 10
445.0210193252999
 20
-46.958351661000002
 30
0.0
 11
435.0210193252999
 21
-46.958351661000002
 31
0.0
  0
SOLID
  5
558
  8
0
 62
     0
 10
445.0210193252999
 20
-46.958351661000002
 30
0.0
 11
436.0210193252999
 21
-49.208351661000002
 31
0.0
 12
436.0210193252999
 22
-44.708351661000002
 32
0.0
 13
438.2710193252999
 23
-46.958351661000002
 33
0.0
  0
ENDBLK
  5
559
  8
0
  0
BLOCK
  8
0
  2
*D110
 70
     1
 10
0.0
 20
0.0
 30
0.0
  3
*D110
  1

  0
TEXT
  5
55D
  8
0
 62
     0
 10
501.42547841129988
 20
101.65476759720001
 30
0.0
 40
9.8954164504999991
  1
9
 50
90.0
  0
LINE
  5
55E
  8
0
 62
     0
 10
472.60149979649998
 20
100.0651842003
 30
0.0
 11
505.17172837319993
 21
100.0651842003
 31
0.0
  0
LINE
  5
55F
  8
0
 62
     0
 10
463.60149979649998
 20
109.0651842003
 30
0.0
 11
505.17172837319993
 21
109.0651842003
 31
0.0
  0
LINE
  5
560
  8
0
 62
     0
 10
504.17172837319993
 20
100.0651842003
 30
0.0
 11
504.17172837319993
 21
100.0651842003
 31
0.0
  0
LINE
  5
561
  8
0
 62
     0
 10
504.17172837319993
 20
100.0651842003
 30
0.0
 11
504.17172837319993
 21
109.0651842003
 31
0.0
  0
LINE
  5
562
  8
0
 62
     0
 10
504.17172837319993
 20
109.0651842003
 30
0.0
 11
504.17172837319993
 21
100.0651842003
 31
0.0
  0
LINE
  5
563
  8
0
 62
     0
 10
504.17172837319993
 20
109.0651842003
 30
0.0
 11
504.17172837319993
 21
109.0651842003
 31
0.0
  0
LINE
  5
564
  8
0
 62
     0
 10
504.17172837319993
 20
109.0651842003
 30
0.0
 11
504.17172837319993
 21
119.0651842003
 31
0.0
  0
SOLID
  5
565
  8
0
 62
     0
 10
504.17172837319993
 20
109.0651842003
 30
0.0
 11
501.92172837319993
 21
118.0651842003
 31
0.0
 12
506.42172837319993
 22
118.0651842003
 32
0.0
 13
504.17172837319993
 23
115.8151842003
 33
0.0
  0
LINE
  5
566
  8
0
 62
     0
 10
504.17172837319993
 20
100.0651842003
 30
0.0
 11
504.17172837319993
 21
90.06518420030001
 31
0.0
  0
SOLID
  5
567
  8
0
 62
     0
 10
504.17172837319993
 20
100.0651842003
 30
0.0
 11
506.42172837319993
 21
91.06518420030001
 31
0.0
 12
501.92172837319993
 22
91.06518420030001
 32
0.0
 13
504.17172837319993
 23
93.315184200299996
 33
0.0
  0
ENDBLK
  5
568
  8
0
  0
BLOCK
  8
0
  2
*D111
 70
     1
 10
0.0
 20
0.0
 30
0.0
  3
*D111
  1

  0
TEXT
  5
56C
  8
0
 62
     0
 10
620.57703595220005
 20
165.3343406411
 30
0.0
 40
9.8954164504999991
  1
117
 50
90.0
  0
LINE
  5
56D
  8
0
 62
     0
 10
601.5979841715
 20
115.56511909619999
 30
0.0
 11
624.32328591409998
 21
115.56511909619999
 31
0.0
  0
LINE
  5
56E
  8
0
 62
     0
 10
601.5979841715
 20
232.56606180450001
 30
0.0
 11
624.32328591409998
 21
232.56606180450001
 31
0.0
  0
LINE
  5
56F
  8
0
 62
     0
 10
623.32328591409998
 20
115.56511909619999
 30
0.0
 11
623.32328591409998
 21
188.61767346580001
 31
0.0
  0
LINE
  5
570
  8
0
 62
     0
 10
623.32328591409998
 20
115.56511909619999
 30
0.0
 11
623.32328591409998
 21
159.51350743489999
 31
0.0
  0
LINE
  5
571
  8
0
 62
     0
 10
623.32328591409998
 20
232.56606180450001
 30
0.0
 11
623.32328591409998
 21
188.61767346580001
 31
0.0
  0
LINE
  5
572
  8
0
 62
     0
 10
623.32328591409998
 20
232.56606180450001
 30
0.0
 11
623.32328591409998
 21
159.51350743489999
 31
0.0
  0
LINE
  5
573
  8
0
 62
     0
 10
623.32328591409998
 20
232.56606180450001
 30
0.0
 11
623.32328591409998
 21
222.56606180450001
 31
0.0
  0
SOLID
  5
574
  8
0
 62
     0
 10
623.32328591409998
 20
232.56606180450001
 30
0.0
 11
625.57328591409998
 21
223.56606180450001
 31
0.0
 12
621.07328591409998
 22
223.56606180450001
 32
0.0
 13
623.32328591409998
 23
225.81606180450001
 33
0.0
  0
LINE
  5
575
  8
0
 62
     0
 10
623.32328591409998
 20
115.56511909619999
 30
0.0
 11
623.32328591409998
 21
125.56511909619999
 31
0.0
  0
SOLID
  5
576
  8
0
 62
     0
 10
623.32328591409998
 20
115.56511909619999
 30
0.0
 11
621.07328591409998
 21
124.56511909619999
 31
0.0
 12
625.57328591409998
 22
124.56511909619999
 32
0.0
 13
623.32328591409998
 23
122.31511909619999
 33
0.0
  0
ENDBLK
  5
577
  8
0
  0
BLOCK
  8
0
  2
*D112
 70
     1
 10
0.0
 20
0.0
 30
0.0
  3
*D112
  1

  0
TEXT
  5
57B
  8
0
 62
     0
 10
579.57715096540005
 20
309.43287832520002
 30
0.0
 40
9.8954164504999991
  1
30
  0
LINE
  5
57C
  8
0
 62
     0
 10
600.39798417149996
 20
249.2660618045
 30
0.0
 11
600.39798417149996
 21
307.68662836329997
 31
0.0
  0
LINE
  5
57D
  8
0
 62
     0
 10
570.39798417150007
 20
249.2660618045
 30
0.0
 11
570.39798417150007
 21
307.68662836329997
 31
0.0
  0
LINE
  5
57E
  8
0
 62
     0
 10
600.39798417149996
 20
306.68662836329997
 30
0.0
 11
597.03965058389997
 21
306.68662836329997
 31
0.0
  0
LINE
  5
57F
  8
0
 62
     0
 10
600.39798417149996
 20
306.68662836329997
 30
0.0
 11
573.75631775919999
 21
306.68662836329997
 31
0.0
  0
LINE
  5
580
  8
0
 62
     0
 10
570.39798417150007
 20
306.68662836329997
 30
0.0
 11
597.03965058389997
 21
306.68662836329997
 31
0.0
  0
LINE
  5
581
  8
0
 62
     0
 10
570.39798417150007
 20
306.68662836329997
 30
0.0
 11
573.75631775919999
 21
306.68662836329997
 31
0.0
  0
LINE
  5
582
  8
0
 62
     0
 10
570.39798417150007
 20
306.68662836329997
 30
0.0
 11
560.39798417149996
 21
306.68662836329997
 31
0.0
  0
SOLID
  5
583
  8
0
 62
     0
 10
570.39798417150007
 20
306.68662836329997
 30
0.0
 11
561.39798417149996
 21
304.43662836329997
 31
0.0
 12
561.39798417149996
 22
308.93662836329997
 32
0.0
 13
563.64798417149996
 23
306.68662836329997
 33
0.0
  0
LINE
  5
584
  8
0
 62
     0
 10
600.39798417149996
 20
306.68662836329997
 30
0.0
 11
610.39798417149996
 21
306.68662836329997
 31
0.0
  0
SOLID
  5
585
  8
0
 62
     0
 10
600.39798417149996
 20
306.68662836329997
 30
0.0
 11
609.39798417149996
 21
308.93662836329997
 31
0.0
 12
609.39798417149996
 22
304.43662836329997
 32
0.0
 13
607.14798417149996
 23
306.68662836329997
 33
0.0
  0
ENDBLK
  5
586
  8
0
  0
BLOCK
  8
0
  2
*D113
 70
     1
 10
0.0
 20
0.0
 30
0.0
  3
*D113
  1

  0
TEXT
  5
58A
  8
0
 62
     0
 10
587.00915473169994
 20
287.81271536129998
 30
0.0
 40
9.8954164504999991
  1
15
  0
LINE
  5
58B
  8
0
 62
     0
 10
600.39798417149996
 20
249.2660618045
 30
0.0
 11
600.39798417149996
 21
286.06646539949998
 31
0.0
  0
LINE
  5
58C
  8
0
 62
     0
 10
585.39798417149996
 20
241.06606180450001
 30
0.0
 11
585.39798417149996
 21
286.06646539949998
 31
0.0
  0
LINE
  5
58D
  8
0
 62
     0
 10
600.39798417149996
 20
285.06646539949998
 30
0.0
 11
600.39798417149996
 21
285.06646539949998
 31
0.0
  0
LINE
  5
58E
  8
0
 62
     0
 10
600.39798417149996
 20
285.06646539949998
 30
0.0
 11
585.39798417149996
 21
285.06646539949998
 31
0.0
  0
LINE
  5
58F
  8
0
 62
     0
 10
585.39798417149996
 20
285.06646539949998
 30
0.0
 11
600.39798417149996
 21
285.06646539949998
 31
0.0
  0
LINE
  5
590
  8
0
 62
     0
 10
585.39798417149996
 20
285.06646539949998
 30
0.0
 11
585.39798417149996
 21
285.06646539949998
 31
0.0
  0
LINE
  5
591
  8
0
 62
     0
 10
585.39798417149996
 20
285.06646539949998
 30
0.0
 11
575.39798417149996
 21
285.06646539949998
 31
0.0
  0
SOLID
  5
592
  8
0
 62
     0
 10
585.39798417149996
 20
285.06646539949998
 30
0.0
 11
576.39798417149996
 21
282.81646539950009
 31
0.0
 12
576.39798417149996
 22
287.31646539949998
 32
0.0
 13
578.64798417149996
 23
285.06646539949998
 33
0.0
  0
LINE
  5
593
  8
0
 62
     0
 10
600.39798417149996
 20
285.06646539949998
 30
0.0
 11
610.39798417149996
 21
285.06646539949998
 31
0.0
  0
SOLID
  5
594
  8
0
 62
     0
 10
600.39798417149996
 20
285.06646539949998
 30
0.0
 11
609.39798417149996
 21
287.31646539949998
 31
0.0
 12
609.39798417149996
 22
282.81646539950009
 32
0.0
 13
607.14798417149996
 23
285.06646539949998
 33
0.0
  0
ENDBLK
  5
595
  8
0
  0
BLOCK
  8
0
  2
*D114
 70
     1
 10
0.0
 20
0.0
 30
0.0
  3
*D114
  1

  0
TEXT
  5
599
  8
0
 62
     0
 10
571.83667438689986
 20
287.81271536129998
 30
0.0
 40
9.8954164504999991
  1
15
  0
LINE
  5
59A
  8
0
 62
     0
 10
585.39798417149996
 20
241.06606180450001
 30
0.0
 11
585.39798417149996
 21
286.06646539949998
 31
0.0
  0
LINE
  5
59B
  8
0
 62
     0
 10
570.39798417150007
 20
249.2660618045
 30
0.0
 11
570.39798417150007
 21
286.06646539949998
 31
0.0
  0
LINE
  5
59C
  8
0
 62
     0
 10
585.39798417149996
 20
285.06646539949998
 30
0.0
 11
585.39798417149996
 21
285.06646539949998
 31
0.0
  0
LINE
  5
59D
  8
0
 62
     0
 10
585.39798417149996
 20
285.06646539949998
 30
0.0
 11
570.39798417150007
 21
285.06646539949998
 31
0.0
  0
LINE
  5
59E
  8
0
 62
     0
 10
570.39798417150007
 20
285.06646539949998
 30
0.0
 11
585.39798417149996
 21
285.06646539949998
 31
0.0
  0
LINE
  5
59F
  8
0
 62
     0
 10
570.39798417150007
 20
285.06646539949998
 30
0.0
 11
570.39798417150007
 21
285.06646539949998
 31
0.0
  0
LINE
  5
5A0
  8
0
 62
     0
 10
570.39798417150007
 20
285.06646539949998
 30
0.0
 11
560.39798417149996
 21
285.06646539949998
 31
0.0
  0
SOLID
  5
5A1
  8
0
 62
     0
 10
570.39798417150007
 20
285.06646539949998
 30
0.0
 11
561.39798417149996
 21
282.81646539950009
 31
0.0
 12
561.39798417149996
 22
287.31646539949998
 32
0.0
 13
563.64798417149996
 23
285.06646539949998
 33
0.0
  0
LINE
  5
5A2
  8
0
 62
     0
 10
585.39798417149996
 20
285.06646539949998
 30
0.0
 11
595.39798417150007
 21
285.06646539949998
 31
0.0
  0
SOLID
  5
5A3
  8
0
 62
     0
 10
585.39798417149996
 20
285.06646539949998
 30
0.0
 11
594.39798417149996
 21
287.31646539949998
 31
0.0
 12
594.39798417149996
 22
282.81646539950009
 32
0.0
 13
592.14798417149996
 23
285.06646539949998
 33
0.0
  0
ENDBLK
  5
5A4
  8
0
  0
BLOCK
  8
0
  2
*D115
 70
     1
 10
0.0
 20
0.0
 30
0.0
  3
*D115
  1

  0
TEXT
  5
5A8
  8
0
 62
     0
 10
620.63717656199992
 20
255.82958737000001
 30
0.0
 40
9.8954164504999991
  1
15.5
 50
90.0
  0
LINE
  5
5A9
  8
0
 62
     0
 10
601.5979841715
 20
232.56606180450001
 30
0.0
 11
624.38342652379993
 21
232.56606180450001
 31
0.0
  0
LINE
  5
5AA
  8
0
 62
     0
 10
601.5979841715
 20
248.06606180450001
 30
0.0
 11
624.38342652379993
 21
248.06606180450001
 31
0.0
  0
LINE
  5
5AB
  8
0
 62
     0
 10
623.38342652379993
 20
232.56606180450001
 30
0.0
 11
623.38342652379993
 21
281.53826736389999
 31
0.0
  0
LINE
  5
5AC
  8
0
 62
     0
 10
623.38342652379993
 20
232.56606180450001
 30
0.0
 11
623.38342652379993
 21
250.00875416380001
 31
0.0
  0
LINE
  5
5AD
  8
0
 62
     0
 10
623.38342652379993
 20
248.06606180450001
 30
0.0
 11
623.38342652379993
 21
281.53826736389999
 31
0.0
  0
LINE
  5
5AE
  8
0
 62
     0
 10
623.38342652379993
 20
248.06606180450001
 30
0.0
 11
623.38342652379993
 21
250.00875416380001
 31
0.0
  0
LINE
  5
5AF
  8
0
 62
     0
 10
623.38342652379993
 20
248.06606180450001
 30
0.0
 11
623.38342652379993
 21
258.06606180450001
 31
0.0
  0
SOLID
  5
5B0
  8
0
 62
     0
 10
623.38342652379993
 20
248.06606180450001
 30
0.0
 11
621.13342652379993
 21
257.06606180450001
 31
0.0
 12
625.63342652379993
 22
257.06606180450001
 32
0.0
 13
623.38342652379993
 23
254.81606180450001
 33
0.0
  0
LINE
  5
5B1
  8
0
 62
     0
 10
623.38342652379993
 20
232.56606180450001
 30
0.0
 11
623.38342652379993
 21
222.56606180450001
 31
0.0
  0
SOLID
  5
5B2
  8
0
 62
     0
 10
623.38342652379993
 20
232.56606180450001
 30
0.0
 11
625.63342652379993
 21
223.56606180450001
 31
0.0
 12
621.13342652379993
 22
223.56606180450001
 32
0.0
 13
623.38342652379993
 23
225.81606180450001
 33
0.0
  0
ENDBLK
  5
5B3
  8
0
  0
BLOCK
  8
0
  2
*D116
 70
     1
 10
0.0
 20
0.0
 30
0.0
  3
*D116
  1

  0
TEXT
  5
5B7
  8
0
 62
     0
 10
501.42547841129988
 20
240.65476759719999
 30
0.0
 40
9.8954164504999991
  1
9
 50
90.0
  0
LINE
  5
5B8
  8
0
 62
     0
 10
463.60149979649998
 20
239.0651842003
 30
0.0
 11
505.17172837319993
 21
239.0651842003
 31
0.0
  0
LINE
  5
5B9
  8
0
 62
     0
 10
472.60149979649998
 20
248.0651842003
 30
0.0
 11
505.17172837319993
 21
248.0651842003
 31
0.0
  0
LINE
  5
5BA
  8
0
 62
     0
 10
504.17172837319993
 20
239.0651842003
 30
0.0
 11
504.17172837319993
 21
239.0651842003
 31
0.0
  0
LINE
  5
5BB
  8
0
 62
     0
 10
504.17172837319993
 20
239.0651842003
 30
0.0
 11
504.17172837319993
 21
248.0651842003
 31
0.0
  0
LINE
  5
5BC
  8
0
 62
     0
 10
504.17172837319993
 20
248.0651842003
 30
0.0
 11
504.17172837319993
 21
239.0651842003
 31
0.0
  0
LINE
  5
5BD
  8
0
 62
     0
 10
504.17172837319993
 20
248.0651842003
 30
0.0
 11
504.17172837319993
 21
248.0651842003
 31
0.0
  0
LINE
  5
5BE
  8
0
 62
     0
 10
504.17172837319993
 20
248.0651842003
 30
0.0
 11
504.17172837319993
 21
258.0651842003
 31
0.0
  0
SOLID
  5
5BF
  8
0
 62
     0
 10
504.17172837319993
 20
248.0651842003
 30
0.0
 11
501.92172837319993
 21
257.0651842003
 31
0.0
 12
506.42172837319993
 22
257.0651842003
 32
0.0
 13
504.17172837319993
 23
254.8151842003
 33
0.0
  0
LINE
  5
5C0
  8
0
 62
     0
 10
504.17172837319993
 20
239.0651842003
 30
0.0
 11
504.17172837319993
 21
229.0651842003
 31
0.0
  0
SOLID
  5
5C1
  8
0
 62
     0
 10
504.17172837319993
 20
239.0651842003
 30
0.0
 11
506.42172837319993
 21
230.0651842003
 31
0.0
 12
501.92172837319993
 22
230.0651842003
 32
0.0
 13
504.17172837319993
 23
232.3151842003
 33
0.0
  0
ENDBLK
  5
5C2
  8
0
  0
BLOCK
  8
0
  2
*D117
 70
     1
 10
0.0
 20
0.0
 30
0.0
  3
*D117
  1

  0
TEXT
  5
5C6
  8
0
 62
     0
 10
741.39385162250005
 20
165.3343406411
 30
0.0
 40
9.8954164504999991
  1
120
 50
90.0
  0
LINE
  5
5C7
  8
0
 62
     0
 10
724.72519031429977
 20
114.06559045029999
 30
0.0
 11
745.14010158439987
 21
114.06559045029999
 31
0.0
  0
LINE
  5
5C8
  8
0
 62
     0
 10
724.72519031429977
 20
234.06559045029999
 30
0.0
 11
745.14010158439987
 21
234.06559045029999
 31
0.0
  0
LINE
  5
5C9
  8
0
 62
     0
 10
744.14010158439987
 20
114.06559045029999
 30
0.0
 11
744.14010158439987
 21
188.61767346580001
 31
0.0
  0
LINE
  5
5CA
  8
0
 62
     0
 10
744.14010158439987
 20
114.06559045029999
 30
0.0
 11
744.14010158439987
 21
159.51350743489999
 31
0.0
  0
LINE
  5
5CB
  8
0
 62
     0
 10
744.14010158439987
 20
234.06559045029999
 30
0.0
 11
744.14010158439987
 21
188.61767346580001
 31
0.0
  0
LINE
  5
5CC
  8
0
 62
     0
 10
744.14010158439987
 20
234.06559045029999
 30
0.0
 11
744.14010158439987
 21
159.51350743489999
 31
0.0
  0
LINE
  5
5CD
  8
0
 62
     0
 10
744.14010158439987
 20
234.06559045029999
 30
0.0
 11
744.14010158439987
 21
224.06559045029999
 31
0.0
  0
SOLID
  5
5CE
  8
0
 62
     0
 10
744.14010158439987
 20
234.06559045029999
 30
0.0
 11
746.39010158439987
 21
225.06559045029999
 31
0.0
 12
741.89010158439987
 22
225.06559045029999
 32
0.0
 13
744.14010158439987
 23
227.31559045029999
 33
0.0
  0
LINE
  5
5CF
  8
0
 62
     0
 10
744.14010158439987
 20
114.06559045029999
 30
0.0
 11
744.14010158439987
 21
124.06559045029999
 31
0.0
  0
SOLID
  5
5D0
  8
0
 62
     0
 10
744.14010158439987
 20
114.06559045029999
 30
0.0
 11
741.89010158439987
 21
123.06559045029999
 31
0.0
 12
746.39010158439987
 22
123.06559045029999
 32
0.0
 13
744.14010158439987
 23
120.81559045029999
 33
0.0
  0
ENDBLK
  5
5D1
  8
0
  0
BLOCK
  8
0
  2
*D118
 70
     1
 10
0.0
 20
0.0
 30
0.0
  3
*D118
  1

  0
TEXT
  5
5D5
  8
0
 62
     0
 10
493.98556294500003
 20
28.0182895485
 30
0.0
 40
9.8954164504999991
  1
6
 50
90.0
  0
LINE
  5
5D6
  8
0
 62
     0
 10
477.55149979650002
 20
27.9287061516
 30
0.0
 11
497.73181290690002
 21
27.9287061516
 31
0.0
  0
LINE
  5
5D7
  8
0
 62
     0
 10
476.75149979650001
 20
33.928706151599997
 30
0.0
 11
497.73181290690002
 21
33.928706151599997
 31
0.0
  0
LINE
  5
5D8
  8
0
 62
     0
 10
496.73181290690002
 20
27.9287061516
 30
0.0
 11
496.73181290690002
 21
27.9287061516
 31
0.0
  0
LINE
  5
5D9
  8
0
 62
     0
 10
496.73181290690002
 20
27.9287061516
 30
0.0
 11
496.73181290690002
 21
33.928706151599997
 31
0.0
  0
LINE
  5
5DA
  8
0
 62
     0
 10
496.73181290690002
 20
33.928706151599997
 30
0.0
 11
496.73181290690002
 21
27.9287061516
 31
0.0
  0
LINE
  5
5DB
  8
0
 62
     0
 10
496.73181290690002
 20
33.928706151599997
 30
0.0
 11
496.73181290690002
 21
33.928706151599997
 31
0.0
  0
LINE
  5
5DC
  8
0
 62
     0
 10
496.73181290690002
 20
33.928706151599997
 30
0.0
 11
496.73181290690002
 21
43.928706151599989
 31
0.0
  0
SOLID
  5
5DD
  8
0
 62
     0
 10
496.73181290690002
 20
33.928706151599997
 30
0.0
 11
494.48181290690002
 21
42.928706151599997
 31
0.0
 12
498.98181290690002
 22
42.928706151599997
 32
0.0
 13
496.73181290690002
 23
40.678706151599989
 33
0.0
  0
LINE
  5
5DE
  8
0
 62
     0
 10
496.73181290690002
 20
27.9287061516
 30
0.0
 11
496.73181290690002
 21
17.9287061516
 31
0.0
  0
SOLID
  5
5DF
  8
0
 62
     0
 10
496.73181290690002
 20
27.9287061516
 30
0.0
 11
498.98181290690002
 21
18.9287061516
 31
0.0
 12
494.48181290690002
 22
18.9287061516
 32
0.0
 13
496.73181290690002
 23
21.1787061516
 33
0.0
  0
ENDBLK
  5
5E0
  8
0
  0
BLOCK
  8
0
  2
*D119
 70
     1
 10
0.0
 20
0.0
 30
0.0
  3
*D119
  1

  0
TEXT
  5
5E4
  8
0
 62
     0
 10
493.98556294500003
 20
4.0182895485000003
 30
0.0
 40
9.8954164504999991
  1
6
 50
90.0
  0
LINE
  5
5E5
  8
0
 62
     0
 10
476.75149979650001
 20
3.9287061516000001
 30
0.0
 11
497.73181290690002
 21
3.9287061516000001
 31
0.0
  0
LINE
  5
5E6
  8
0
 62
     0
 10
477.55149979650002
 20
9.9287061516000001
 30
0.0
 11
497.73181290690002
 21
9.9287061516000001
 31
0.0
  0
LINE
  5
5E7
  8
0
 62
     0
 10
496.73181290690002
 20
3.9287061516000001
 30
0.0
 11
496.73181290690002
 21
3.9287061516000001
 31
0.0
  0
LINE
  5
5E8
  8
0
 62
     0
 10
496.73181290690002
 20
3.9287061516000001
 30
0.0
 11
496.73181290690002
 21
9.9287061516000001
 31
0.0
  0
LINE
  5
5E9
  8
0
 62
     0
 10
496.73181290690002
 20
9.9287061516000001
 30
0.0
 11
496.73181290690002
 21
3.9287061516000001
 31
0.0
  0
LINE
  5
5EA
  8
0
 62
     0
 10
496.73181290690002
 20
9.9287061516000001
 30
0.0
 11
496.73181290690002
 21
9.9287061516000001
 31
0.0
  0
LINE
  5
5EB
  8
0
 62
     0
 10
496.73181290690002
 20
9.9287061516000001
 30
0.0
 11
496.73181290690002
 21
19.9287061516
 31
0.0
  0
SOLID
  5
5EC
  8
0
 62
     0
 10
496.73181290690002
 20
9.9287061516000001
 30
0.0
 11
494.48181290690002
 21
18.9287061516
 31
0.0
 12
498.98181290690002
 22
18.9287061516
 32
0.0
 13
496.73181290690002
 23
16.6787061516
 33
0.0
  0
LINE
  5
5ED
  8
0
 62
     0
 10
496.73181290690002
 20
3.9287061516000001
 30
0.0
 11
496.73181290690002
 21
-6.0712938483999999
 31
0.0
  0
SOLID
  5
5EE
  8
0
 62
     0
 10
496.73181290690002
 20
3.9287061516000001
 30
0.0
 11
498.98181290690002
 21
-5.071293848399999
 31
0.0
 12
494.48181290690002
 22
-5.071293848399999
 32
0.0
 13
496.73181290690002
 23
-2.821293848399999
 33
0.0
  0
ENDBLK
  5
5EF
  8
0
  0
BLOCK
  8
0
  2
*D120
 70
     1
 10
0.0
 20
0.0
 30
0.0
  3
*D120
  1

  0
TEXT
  5
5F3
  8
0
 62
     0
 10
299.95002986920002
 20
-233.21210138379999
 30
0.0
 40
9.8954164504999991
  1
75
  0
LINE
  5
5F4
  8
0
 62
     0
 10
268.27086307529999
 20
-193.45893499429999
 30
0.0
 11
268.27086307529999
 21
-236.95835134559999
 31
0.0
  0
LINE
  5
5F5
  8
0
 62
     0
 10
343.27086307529999
 20
-193.45893499429999
 30
0.0
 11
343.27086307529999
 21
-236.95835134559999
 31
0.0
  0
LINE
  5
5F6
  8
0
 62
     0
 10
268.27086307529999
 20
-235.95835134559999
 30
0.0
 11
317.4125294877
 21
-235.95835134559999
 31
0.0
  0
LINE
  5
5F7
  8
0
 62
     0
 10
268.27086307529999
 20
-235.95835134559999
 30
0.0
 11
294.12919666300002
 21
-235.95835134559999
 31
0.0
  0
LINE
  5
5F8
  8
0
 62
     0
 10
343.27086307529999
 20
-235.95835134559999
 30
0.0
 11
317.4125294877
 21
-235.95835134559999
 31
0.0
  0
LINE
  5
5F9
  8
0
 62
     0
 10
343.27086307529999
 20
-235.95835134559999
 30
0.0
 11
294.12919666300002
 21
-235.95835134559999
 31
0.0
  0
LINE
  5
5FA
  8
0
 62
     0
 10
343.27086307529999
 20
-235.95835134559999
 30
0.0
 11
333.27086307529999
 21
-235.95835134559999
 31
0.0
  0
SOLID
  5
5FB
  8
0
 62
     0
 10
343.27086307529999
 20
-235.95835134559999
 30
0.0
 11
334.27086307529999
 21
-238.20835134559999
 31
0.0
 12
334.27086307529999
 22
-233.70835134559999
 32
0.0
 13
336.52086307529999
 23
-235.95835134559999
 33
0.0
  0
LINE
  5
5FC
  8
0
 62
     0
 10
268.27086307529999
 20
-235.95835134559999
 30
0.0
 11
278.27086307529999
 21
-235.95835134559999
 31
0.0
  0
SOLID
  5
5FD
  8
0
 62
     0
 10
268.27086307529999
 20
-235.95835134559999
 30
0.0
 11
277.27086307529999
 21
-233.70835134559999
 31
0.0
 12
277.27086307529999
 22
-238.20835134559999
 32
0.0
 13
275.02086307529999
 23
-235.95835134559999
 33
0.0
  0
ENDBLK
  5
5FE
  8
0
  0
BLOCK
  8
0
  2
*D121
 70
     1
 10
0.0
 20
0.0
 30
0.0
  3
*D121
  1

  0
TEXT
  5
602
  8
0
 62
     0
 10
-0.0499701308
 20
-233.21210138379999
 30
0.0
 40
9.8954164504999991
  1
75
  0
LINE
  5
603
  8
0
 62
     0
 10
-31.729136924700001
 20
-193.45893499429999
 30
0.0
 11
-31.729136924700001
 21
-236.95835134559999
 31
0.0
  0
LINE
  5
604
  8
0
 62
     0
 10
43.270863075299999
 20
-193.45893499429999
 30
0.0
 11
43.270863075299999
 21
-236.95835134559999
 31
0.0
  0
LINE
  5
605
  8
0
 62
     0
 10
-31.729136924700001
 20
-235.95835134559999
 30
0.0
 11
17.412529487699999
 21
-235.95835134559999
 31
0.0
  0
LINE
  5
606
  8
0
 62
     0
 10
-31.729136924700001
 20
-235.95835134559999
 30
0.0
 11
-5.8708033369999999
 21
-235.95835134559999
 31
0.0
  0
LINE
  5
607
  8
0
 62
     0
 10
43.270863075299999
 20
-235.95835134559999
 30
0.0
 11
17.412529487699999
 21
-235.95835134559999
 31
0.0
  0
LINE
  5
608
  8
0
 62
     0
 10
43.270863075299999
 20
-235.95835134559999
 30
0.0
 11
-5.8708033369999999
 21
-235.95835134559999
 31
0.0
  0
LINE
  5
609
  8
0
 62
     0
 10
43.270863075299999
 20
-235.95835134559999
 30
0.0
 11
33.270863075299999
 21
-235.95835134559999
 31
0.0
  0
SOLID
  5
60A
  8
0
 62
     0
 10
43.270863075299999
 20
-235.95835134559999
 30
0.0
 11
34.270863075299999
 21
-238.20835134559999
 31
0.0
 12
34.270863075299999
 22
-233.70835134559999
 32
0.0
 13
36.520863075299999
 23
-235.95835134559999
 33
0.0
  0
LINE
  5
60B
  8
0
 62
     0
 10
-31.729136924700001
 20
-235.95835134559999
 30
0.0
 11
-21.729136924700001
 21
-235.95835134559999
 31
0.0
  0
SOLID
  5
60C
  8
0
 62
     0
 10
-31.729136924700001
 20
-235.95835134559999
 30
0.0
 11
-22.729136924700001
 21
-233.70835134559999
 31
0.0
 12
-22.729136924700001
 22
-238.20835134559999
 32
0.0
 13
-24.979136924700001
 23
-235.95835134559999
 33
0.0
  0
ENDBLK
  5
60D
  8
0
  0
BLOCK
  8
0
  2
*D122
 70
     1
 10
0.0
 20
0.0
 30
0.0
  3
*D122
  1

  0
TEXT
  5
611
  8
0
 62
     0
 10
741.39385162250005
 20
235.2447572442
 30
0.0
 40
9.8954164504999991
  1
14
 50
90.0
  0
LINE
  5
612
  8
0
 62
     0
 10
724.72519031429977
 20
234.06559045029999
 30
0.0
 11
745.14010158439987
 21
234.06559045029999
 31
0.0
  0
LINE
  5
613
  8
0
 62
     0
 10
724.72519031429977
 20
248.06559045029999
 30
0.0
 11
745.14010158439987
 21
248.06559045029999
 31
0.0
  0
LINE
  5
614
  8
0
 62
     0
 10
744.14010158439987
 20
234.06559045029999
 30
0.0
 11
744.14010158439987
 21
234.06559045029999
 31
0.0
  0
LINE
  5
615
  8
0
 62
     0
 10
744.14010158439987
 20
234.06559045029999
 30
0.0
 11
744.14010158439987
 21
248.06559045029999
 31
0.0
  0
LINE
  5
616
  8
0
 62
     0
 10
744.14010158439987
 20
248.06559045029999
 30
0.0
 11
744.14010158439987
 21
234.06559045029999
 31
0.0
  0
LINE
  5
617
  8
0
 62
     0
 10
744.14010158439987
 20
248.06559045029999
 30
0.0
 11
744.14010158439987
 21
248.06559045029999
 31
0.0
  0
LINE
  5
618
  8
0
 62
     0
 10
744.14010158439987
 20
248.06559045029999
 30
0.0
 11
744.14010158439987
 21
258.06559045030002
 31
0.0
  0
SOLID
  5
619
  8
0
 62
     0
 10
744.14010158439987
 20
248.06559045029999
 30
0.0
 11
741.89010158439987
 21
257.06559045029991
 31
0.0
 12
746.39010158439987
 22
257.06559045029991
 32
0.0
 13
744.14010158439987
 23
254.81559045029999
 33
0.0
  0
LINE
  5
61A
  8
0
 62
     0
 10
744.14010158439987
 20
234.06559045029999
 30
0.0
 11
744.14010158439987
 21
224.06559045029999
 31
0.0
  0
SOLID
  5
61B
  8
0
 62
     0
 10
744.14010158439987
 20
234.06559045029999
 30
0.0
 11
746.39010158439987
 21
225.06559045029999
 31
0.0
 12
741.89010158439987
 22
225.06559045029999
 32
0.0
 13
744.14010158439987
 23
227.31559045029999
 33
0.0
  0
ENDBLK
  5
61C
  8
0
  0
BLOCK
  8
0
  2
CLUMP74
 70
     0
 10
0.0
 20
0.0
 30
0.0
  3
CLUMP74
  1

  0
LINE
  5
62C
  8
┌▓È_1
 10
466.55149979650002
 20
109.0651842003
 30
0.0
 11
-263.44850020349998
 21
109.0651842003
 31
0.0
  0
LINE
  5
62D
  8
┌▓È_1
 10
466.55149979650002
 20
239.0651842003
 30
0.0
 11
466.55149979650002
 21
109.0651842003
 31
0.0
  0
LINE
  5
62E
  8
┌▓È_1
 10
-263.44850020349998
 20
239.0651842003
 30
0.0
 11
466.55149979650002
 21
239.0651842003
 31
0.0
  0
LINE
  5
62F
  8
┌▓È_1
 10
475.55149979650002
 20
100.0651842003
 30
0.0
 11
-272.44850020349998
 21
100.0651842003
 31
0.0
  0
LINE
  5
630
  8
┌▓È_1
 10
475.55149979650002
 20
248.0651842003
 30
0.0
 11
475.55149979650002
 21
100.0651842003
 31
0.0
  0
LINE
  5
631
  8
┌▓È_1
 10
-272.44850020349998
 20
248.0651842003
 30
0.0
 11
475.55149979650002
 21
248.0651842003
 31
0.0
  0
LINE
  5
632
  8
┌▓È_1
 10
-263.44850020349998
 20
109.0651842003
 30
0.0
 11
-263.44850020349998
 21
239.0651842003
 31
0.0
  0
LINE
  5
633
  8
┌▓È_1
 10
-272.44850020349998
 20
100.0651842003
 30
0.0
 11
-272.44850020349998
 21
248.0651842003
 31
0.0
  0
ENDBLK
  5
634
  8
0
  0
BLOCK
  8
0
  2
CLUMP75
 70
     0
 10
0.0
 20
0.0
 30
0.0
  3
CLUMP75
  1

  0
LINE
  5
642
  8
┌▓È_1
 62
     5
 10
674.42519031430004
 20
239.8655904503
 30
0.0
 11
674.42519031430004
 21
240.66559045029999
 31
0.0
  0
LINE
  5
643
  8
┌▓È_1
 62
     5
 10
668.52519031429995
 20
247.26559045030001
 30
0.0
 11
668.52519031429995
 21
239.8655904503
 31
0.0
  0
LINE
  5
644
  8
┌▓È_1
 62
     5
 10
673.72519031429999
 20
247.26559045030001
 30
0.0
 11
668.52519031429995
 21
247.26559045030001
 31
0.0
  0
LINE
  5
645
  8
┌▓È_1
 62
     5
 10
673.72519031429999
 20
247.26559045030001
 30
0.0
 11
673.72519031429999
 21
248.06559045029999
 31
0.0
  0
LINE
  5
646
  8
┌▓È_1
 62
     5
 10
673.72519031429999
 20
248.06559045029999
 30
0.0
 11
668.52519031429995
 21
248.06559045029999
 31
0.0
  0
ARC
  5
647
  8
┌▓È_1
 62
     5
 10
668.52519031429995
 20
247.26559045030001
 30
0.0
 40
0.8
 50
90.0
 51
180.0
  0
LINE
  5
648
  8
┌▓È_1
 62
     5
 10
667.72519031429999
 20
247.26559045030001
 30
0.0
 11
667.72519031429999
 21
239.8655904503
 31
0.0
  0
ARC
  5
649
  8
┌▓È_1
 62
     5
 10
668.52519031429995
 20
239.8655904503
 30
0.0
 40
0.8
 50
180.0
 51
270.0
  0
LINE
  5
64A
  8
┌▓È_1
 62
     5
 10
716.72519031429977
 20
248.06559045029999
 30
0.0
 11
716.72519031429977
 21
247.26559045030001
 31
0.0
  0
LINE
  5
64B
  8
┌▓È_1
 62
     5
 10
721.92519031429993
 20
247.26559045030001
 30
0.0
 11
716.72519031429977
 21
247.26559045030001
 31
0.0
  0
LINE
  5
64C
  8
┌▓È_1
 62
     5
 10
721.92519031429993
 20
234.8655904503
 30
0.0
 11
721.92519031429993
 21
247.26559045030001
 31
0.0
  0
LINE
  5
64D
  8
┌▓È_1
 62
     5
 10
693.52519031429995
 20
234.8655904503
 30
0.0
 11
721.92519031429993
 21
234.8655904503
 31
0.0
  0
LINE
  5
64E
  8
┌▓È_1
 62
     5
 10
668.52519031429995
 20
239.06559045029999
 30
0.0
 11
692.72519031429977
 21
239.06559045029999
 31
0.0
  0
LINE
  5
64F
  8
┌▓È_1
 62
     5
 10
668.52519031429995
 20
239.8655904503
 30
0.0
 11
692.72519031429977
 21
239.8655904503
 31
0.0
  0
LINE
  5
650
  8
┌▓È_1
 62
     5
 10
693.52519031429995
 20
239.06559045029999
 30
0.0
 11
693.52519031429995
 21
234.8655904503
 31
0.0
  0
ARC
  5
651
  8
┌▓È_1
 62
     5
 10
692.72519031429977
 20
239.06559045029999
 30
0.0
 40
0.8
 50
0.0
 51
90.0
  0
LINE
  5
652
  8
┌▓È_1
 62
     5
 10
692.72519031429977
 20
239.06559045029999
 30
0.0
 11
692.72519031429977
 21
234.8655904503
 31
0.0
  0
ARC
  5
653
  8
┌▓È_1
 62
     5
 10
693.52519031429995
 20
234.8655904503
 30
0.0
 40
0.8
 50
180.0
 51
270.0
  0
LINE
  5
654
  8
┌▓È_1
 62
     5
 10
693.52519031429995
 20
234.06559045029999
 30
0.0
 11
721.92519031429993
 21
234.06559045029999
 31
0.0
  0
ARC
  5
655
  8
┌▓È_1
 62
     5
 10
721.92519031429993
 20
234.8655904503
 30
0.0
 40
0.8
 50
270.0
 51
0.0
  0
LINE
  5
656
  8
┌▓È_1
 62
     5
 10
721.92519031429993
 20
248.06559045029999
 30
0.0
 11
716.72519031429977
 21
248.06559045029999
 31
0.0
  0
LINE
  5
657
  8
┌▓È_1
 62
     5
 10
722.72519031429988
 20
234.8655904503
 30
0.0
 11
722.72519031429988
 21
247.26559045030001
 31
0.0
  0
ARC
  5
658
  8
┌▓È_1
 62
     5
 10
721.92519031429993
 20
247.26559045030001
 30
0.0
 40
0.8
 50
0.0
 51
90.0
  0
LINE
  5
659
  8
┌▓È_1
 62
     5
 10
674.42519031430004
 20
240.66559045029999
 30
0.0
 11
721.92519031429993
 21
240.66559045029999
 31
0.0
  0
LINE
  5
65A
  8
┌▓È_1
 62
     5
 10
692.72519031429977
 20
239.8655904503
 30
0.0
 11
721.92519031429993
 21
239.8655904503
 31
0.0
  0
ENDBLK
  5
65B
  8
0
  0
BLOCK
  8
0
  2
BALLON2
 70
     0
 10
0.0
 20
0.0
 30
0.0
  3
BALLON2
  1

  0
INSERT
  5
660
  8
0
  6
CONTINUOUS
  2
*U209
 10
0.0
 20
0.0
 30
0.0
  0
CIRCLE
  5
661
  8
┌▓È_1
 10
-315.5892371525
 20
67.641824641200003
 30
0.0
 40
10.0
  0
LINE
  5
662
  8
Éíû@É³
 10
-298.9225704859
 20
67.641824641200003
 30
0.0
 11
-305.5892371525
 21
67.641824641200003
 31
0.0
  0
LINE
  5
663
  8
Éíû@É³
 10
-264.24850020349999
 20
11.0128883788
 30
0.0
 11
-298.9225704859
 21
67.641824641200003
 31
0.0
  0
SOLID
  5
664
  8
Éíû@É³
 10
-264.24850020349999
 20
11.0128883788
 30
0.0
 11
-271.17605794399998
 21
18.496800707999999
 31
0.0
 12
-268.42601964559998
 22
17.835522130600001
 32
0.0
 13
-268.42601964559998
 23
17.835522130600001
 33
0.0
  0
SOLID
  5
665
  8
Éíû@É³
 10
-268.42601964559998
 20
17.835522130600001
 30
0.0
 11
-267.76474106810002
 21
20.585560429099999
 31
0.0
 12
-264.24850020349999
 22
11.0128883788
 32
0.0
 13
-264.24850020349999
 23
11.0128883788
 33
0.0
  0
ENDBLK
  5
666
  8
0
  0
BLOCK
  8
0
  2
CLUMP76
 70
     0
 10
0.0
 20
0.0
 30
0.0
  3
CLUMP76
  1

  0
LINE
  5
66A
  8
┌▓È_1
 62
     5
 10
574.89798417150007
 20
107.4651190962
 30
0.0
 11
599.5979841715
 21
107.4651190962
 31
0.0
  0
LINE
  5
66B
  8
┌▓È_1
 62
     5
 10
574.89798417150007
 20
107.4651190962
 30
0.0
 11
574.89798417150007
 21
108.2651190962
 31
0.0
  0
ARC
  5
66C
  8
┌▓È_1
 62
     5
 10
585.39798417149996
 20
109.06511909619999
 30
0.0
 40
0.8
 50
270.0
 51
0.0
  0
LINE
  5
66D
  8
┌▓È_1
 62
     5
 10
594.39798417149996
 20
100.8651190962
 30
0.0
 11
599.5979841715
 21
100.8651190962
 31
0.0
  0
LINE
  5
66E
  8
┌▓È_1
 62
     5
 10
594.39798417149996
 20
100.06511909619999
 30
0.0
 11
594.39798417149996
 21
100.8651190962
 31
0.0
  0
LINE
  5
66F
  8
┌▓È_1
 62
     5
 10
576.39798417149996
 20
100.8651190962
 30
0.0
 11
576.39798417149996
 21
100.06511909619999
 31
0.0
  0
LINE
  5
670
  8
┌▓È_1
 62
     5
 10
586.19798417150002
 20
115.56511909619999
 30
0.0
 11
599.5979841715
 21
115.56511909619999
 31
0.0
  0
LINE
  5
671
  8
┌▓È_1
 62
     5
 10
585.39798417149996
 20
109.06511909619999
 30
0.0
 11
585.39798417149996
 21
114.7651190962
 31
0.0
  0
ARC
  5
672
  8
┌▓È_1
 62
     5
 10
586.19798417150002
 20
114.7651190962
 30
0.0
 40
0.8
 50
90.0
 51
180.0
  0
LINE
  5
673
  8
┌▓È_1
 62
     5
 10
586.19798417150002
 20
114.7651190962
 30
0.0
 11
586.19798417150002
 21
109.06511909619999
 31
0.0
  0
LINE
  5
674
  8
┌▓È_1
 62
     5
 10
599.5979841715
 20
100.8651190962
 30
0.0
 11
599.5979841715
 21
114.7651190962
 31
0.0
  0
LINE
  5
675
  8
┌▓È_1
 62
     5
 10
599.5979841715
 20
100.06511909619999
 30
0.0
 11
594.39798417149996
 21
100.06511909619999
 31
0.0
  0
ARC
  5
676
  8
┌▓È_1
 62
     5
 10
599.5979841715
 20
100.8651190962
 30
0.0
 40
0.8
 50
270.0
 51
0.0
  0
LINE
  5
677
  8
┌▓È_1
 62
     5
 10
600.39798417149996
 20
114.7651190962
 30
0.0
 11
600.39798417149996
 21
100.8651190962
 31
0.0
  0
ARC
  5
678
  8
┌▓È_1
 62
     5
 10
599.5979841715
 20
114.7651190962
 30
0.0
 40
0.8
 50
0.0
 51
90.0
  0
LINE
  5
679
  8
┌▓È_1
 62
     5
 10
576.39798417149996
 20
100.8651190962
 30
0.0
 11
576.39798417149996
 21
107.4651190962
 31
0.0
  0
LINE
  5
67A
  8
┌▓È_1
 62
     5
 10
585.39798417149996
 20
108.2651190962
 30
0.0
 11
599.5979841715
 21
108.2651190962
 31
0.0
  0
LINE
  5
67B
  8
┌▓È_1
 62
     5
 10
599.5979841715
 20
114.7651190962
 30
0.0
 11
586.19798417150002
 21
114.7651190962
 31
0.0
  0
LINE
  5
67C
  8
┌▓È_1
 62
     5
 10
571.19798417150002
 20
108.2651190962
 30
0.0
 11
571.19798417150002
 21
100.8651190962
 31
0.0
  0
ARC
  5
67D
  8
┌▓È_1
 62
     5
 10
571.19798417150002
 20
100.8651190962
 30
0.0
 40
0.8
 50
180.0
 51
270.0
  0
LINE
  5
67E
  8
┌▓È_1
 62
     5
 10
570.39798417150007
 20
100.8651190962
 30
0.0
 11
570.39798417150007
 21
108.2651190962
 31
0.0
  0
ARC
  5
67F
  8
┌▓È_1
 62
     5
 10
571.19798417150002
 20
108.2651190962
 30
0.0
 40
0.8
 50
90.0
 51
180.0
  0
LINE
  5
680
  8
┌▓È_1
 62
     5
 10
571.19798417150002
 20
109.06511909619999
 30
0.0
 11
585.39798417149996
 21
109.06511909619999
 31
0.0
  0
LINE
  5
681
  8
┌▓È_1
 62
     5
 10
571.19798417150002
 20
100.8651190962
 30
0.0
 11
576.39798417149996
 21
100.8651190962
 31
0.0
  0
LINE
  5
682
  8
┌▓È_1
 62
     5
 10
576.39798417149996
 20
100.06511909619999
 30
0.0
 11
571.19798417150002
 21
100.06511909619999
 31
0.0
  0
LINE
  5
683
  8
┌▓È_1
 62
     5
 10
585.39798417149996
 20
108.2651190962
 30
0.0
 11
571.19798417150002
 21
108.2651190962
 31
0.0
  0
ENDBLK
  5
684
  8
0
  0
BLOCK
  8
0
  2
CLUMP77
 70
     0
 10
0.0
 20
0.0
 30
0.0
  3
CLUMP77
  1

  0
LINE
  5
68A
  8
┌▓È_1
 62
     5
 10
674.42519031430004
 20
108.2655904503
 30
0.0
 11
674.42519031430004
 21
107.4655904503
 31
0.0
  0
LINE
  5
68B
  8
┌▓È_1
 62
     5
 10
668.52519031429995
 20
100.8655904503
 30
0.0
 11
668.52519031429995
 21
108.2655904503
 31
0.0
  0
LINE
  5
68C
  8
┌▓È_1
 62
     5
 10
673.72519031429999
 20
100.8655904503
 30
0.0
 11
668.52519031429995
 21
100.8655904503
 31
0.0
  0
LINE
  5
68D
  8
┌▓È_1
 62
     5
 10
673.72519031429999
 20
100.8655904503
 30
0.0
 11
673.72519031429999
 21
100.06559045029999
 31
0.0
  0
LINE
  5
68E
  8
┌▓È_1
 62
     5
 10
673.72519031429999
 20
100.06559045029999
 30
0.0
 11
668.52519031429995
 21
100.06559045029999
 31
0.0
  0
ARC
  5
68F
  8
┌▓È_1
 62
     5
 10
668.52519031429995
 20
100.8655904503
 30
0.0
 40
0.8
 50
180.0
 51
270.0
  0
LINE
  5
690
  8
┌▓È_1
 62
     5
 10
667.72519031429999
 20
100.8655904503
 30
0.0
 11
667.72519031429999
 21
108.2655904503
 31
0.0
  0
ARC
  5
691
  8
┌▓È_1
 62
     5
 10
668.52519031429995
 20
108.2655904503
 30
0.0
 40
0.8
 50
90.0
 51
180.0
  0
LINE
  5
692
  8
┌▓È_1
 62
     5
 10
716.72519031429977
 20
100.06559045029999
 30
0.0
 11
716.72519031429977
 21
100.8655904503
 31
0.0
  0
LINE
  5
693
  8
┌▓È_1
 62
     5
 10
721.92519031429993
 20
100.8655904503
 30
0.0
 11
716.72519031429977
 21
100.8655904503
 31
0.0
  0
LINE
  5
694
  8
┌▓È_1
 62
     5
 10
721.92519031429993
 20
113.2655904503
 30
0.0
 11
721.92519031429993
 21
100.8655904503
 31
0.0
  0
LINE
  5
695
  8
┌▓È_1
 62
     5
 10
693.52519031429995
 20
113.2655904503
 30
0.0
 11
721.92519031429993
 21
113.2655904503
 31
0.0
  0
LINE
  5
696
  8
┌▓È_1
 62
     5
 10
668.52519031429995
 20
109.06559045029999
 30
0.0
 11
692.72519031429977
 21
109.06559045029999
 31
0.0
  0
LINE
  5
697
  8
┌▓È_1
 62
     5
 10
668.52519031429995
 20
108.2655904503
 30
0.0
 11
692.72519031429977
 21
108.2655904503
 31
0.0
  0
LINE
  5
698
  8
┌▓È_1
 62
     5
 10
693.52519031429995
 20
109.06559045029999
 30
0.0
 11
693.52519031429995
 21
113.2655904503
 31
0.0
  0
ARC
  5
699
  8
┌▓È_1
 62
     5
 10
692.72519031429977
 20
109.06559045029999
 30
0.0
 40
0.8
 50
270.0
 51
0.0
  0
LINE
  5
69A
  8
┌▓È_1
 62
     5
 10
692.72519031429977
 20
109.06559045029999
 30
0.0
 11
692.72519031429977
 21
113.2655904503
 31
0.0
  0
ARC
  5
69B
  8
┌▓È_1
 62
     5
 10
693.52519031429995
 20
113.2655904503
 30
0.0
 40
0.8
 50
90.0
 51
180.0
  0
LINE
  5
69C
  8
┌▓È_1
 62
     5
 10
693.52519031429995
 20
114.06559045029999
 30
0.0
 11
721.92519031429993
 21
114.06559045029999
 31
0.0
  0
ARC
  5
69D
  8
┌▓È_1
 62
     5
 10
721.92519031429993
 20
113.2655904503
 30
0.0
 40
0.8
 50
0.0
 51
90.0
  0
LINE
  5
69E
  8
┌▓È_1
 62
     5
 10
721.92519031429993
 20
100.06559045029999
 30
0.0
 11
716.72519031429977
 21
100.06559045029999
 31
0.0
  0
LINE
  5
69F
  8
┌▓È_1
 62
     5
 10
722.72519031429988
 20
113.2655904503
 30
0.0
 11
722.72519031429988
 21
100.8655904503
 31
0.0
  0
ARC
  5
6A0
  8
┌▓È_1
 62
     5
 10
721.92519031429993
 20
100.8655904503
 30
0.0
 40
0.8
 50
270.0
 51
0.0
  0
LINE
  5
6A1
  8
┌▓È_1
 62
     5
 10
674.42519031430004
 20
107.4655904503
 30
0.0
 11
721.92519031429993
 21
107.4655904503
 31
0.0
  0
LINE
  5
6A2
  8
┌▓È_1
 62
     5
 10
692.72519031429977
 20
108.2655904503
 30
0.0
 11
721.92519031429993
 21
108.2655904503
 31
0.0
  0
ENDBLK
  5
6A3
  8
0
  0
BLOCK
  8
0
  2
CLUMP78
 70
     0
 10
0.0
 20
0.0
 30
0.0
  3
CLUMP78
  1

  0
ARC
  5
6AA
  8
┌▓È_1
 10
431.6009477131999
 20
142.56500711699999
 30
0.0
 40
3.5
 50
90.0
 51
270.0
  0
LINE
  5
6AB
  8
┌▓È_1
 10
446.60094771320001
 20
139.06500711699999
 30
0.0
 11
431.6009477131999
 21
139.06500711699999
 31
0.0
  0
LINE
  5
6AC
  8
┌▓È_1
 10
431.6009477131999
 20
146.06500711699999
 30
0.0
 11
446.60094771320001
 21
146.06500711699999
 31
0.0
  0
ARC
  5
6AD
  8
┌▓È_1
 10
446.60094771320001
 20
142.56500711699999
 30
0.0
 40
3.5
 50
270.0
 51
90.0
  0
ENDBLK
  5
6AE
  8
0
  0
BLOCK
  8
0
  2
CLUMP79
 70
     0
 10
0.0
 20
0.0
 30
0.0
  3
CLUMP79
  1

  0
INSERT
  5
6B5
  8
┌▓È_1
  2
CLUMP80
 10
0.0
 20
0.0
 30
0.0
  0
INSERT
  5
6BD
  8
┌▓È_1
  2
CLUMP81
 10
0.0
 20
0.0
 30
0.0
  0
ENDBLK
  5
6C4
  8
0
  0
BLOCK
  8
0
  2
CLUMP80
 70
     0
 10
0.0
 20
0.0
 30
0.0
  3
CLUMP80
  1

  0
ARC
  5
6B7
  8
┌▓È_1
 10
356.60094771320001
 20
205.56500711699999
 30
0.0
 40
3.5
 50
90.0
 51
270.0
  0
LINE
  5
6B8
  8
┌▓È_1
 10
371.60094771320001
 20
209.06500711699999
 30
0.0
 11
356.60094771320001
 21
209.06500711699999
 31
0.0
  0
LINE
  5
6B9
  8
┌▓È_1
 10
356.60094771320001
 20
202.06500711699999
 30
0.0
 11
371.60094771320001
 21
202.06500711699999
 31
0.0
  0
ARC
  5
6BA
  8
┌▓È_1
 10
371.60094771320001
 20
205.56500711699999
 30
0.0
 40
3.5
 50
270.0
 51
90.0
  0
ENDBLK
  5
6BB
  8
0
  0
BLOCK
  8
0
  2
CLUMP81
 70
     0
 10
0.0
 20
0.0
 30
0.0
  3
CLUMP81
  1

  0
ARC
  5
6BF
  8
┌▓È_1
 10
356.60094771320001
 20
220.56500711699999
 30
0.0
 40
3.5
 50
90.0
 51
270.0
  0
LINE
  5
6C0
  8
┌▓È_1
 10
371.60094771320001
 20
224.06500711699999
 30
0.0
 11
356.60094771320001
 21
224.06500711699999
 31
0.0
  0
LINE
  5
6C1
  8
┌▓È_1
 10
356.60094771320001
 20
217.06500711699999
 30
0.0
 11
371.60094771320001
 21
217.06500711699999
 31
0.0
  0
ARC
  5
6C2
  8
┌▓È_1
 10
371.60094771320001
 20
220.56500711699999
 30
0.0
 40
3.5
 50
270.0
 51
90.0
  0
ENDBLK
  5
6C3
  8
0
  0
BLOCK
  8
0
  2
CLUMP82
 70
     0
 10
0.0
 20
0.0
 30
0.0
  3
CLUMP82
  1

  0
ARC
  5
6C8
  8
┌▓È_1
 10
356.60094771320001
 20
127.56500711699999
 30
0.0
 40
3.5
 50
90.0
 51
270.0
  0
LINE
  5
6C9
  8
┌▓È_1
 10
371.60094771320001
 20
124.06500711699999
 30
0.0
 11
356.60094771320001
 21
124.06500711699999
 31
0.0
  0
LINE
  5
6CA
  8
┌▓È_1
 10
356.60094771320001
 20
131.06500711699999
 30
0.0
 11
371.60094771320001
 21
131.06500711699999
 31
0.0
  0
ARC
  5
6CB
  8
┌▓È_1
 10
371.60094771320001
 20
127.56500711699999
 30
0.0
 40
3.5
 50
270.0
 51
90.0
  0
ENDBLK
  5
6CC
  8
0
  0
BLOCK
  8
0
  2
CLUMP83
 70
     0
 10
0.0
 20
0.0
 30
0.0
  3
CLUMP83
  1

  0
ARC
  5
6D0
  8
┌▓È_1
 10
356.60094771320001
 20
142.56500711699999
 30
0.0
 40
3.5
 50
90.0
 51
270.0
  0
LINE
  5
6D1
  8
┌▓È_1
 10
371.60094771320001
 20
139.06500711699999
 30
0.0
 11
356.60094771320001
 21
139.06500711699999
 31
0.0
  0
LINE
  5
6D2
  8
┌▓È_1
 10
356.60094771320001
 20
146.06500711699999
 30
0.0
 11
371.60094771320001
 21
146.06500711699999
 31
0.0
  0
ARC
  5
6D3
  8
┌▓È_1
 10
371.60094771320001
 20
142.56500711699999
 30
0.0
 40
3.5
 50
270.0
 51
90.0
  0
ENDBLK
  5
6D4
  8
0
  0
BLOCK
  8
0
  2
CLUMP84
 70
     0
 10
0.0
 20
0.0
 30
0.0
  3
CLUMP84
  1

  0
LINE
  5
6DF
  8
┌▓È_1
 62
     5
 10
573.39798452790001
 20
109.56559045029999
 30
0.0
 11
585.39798417149996
 21
109.56559045029999
 31
0.0
  0
ARC
  5
6E0
  8
┌▓È_1
 62
     5
 10
573.39798417149996
 20
111.56559045029999
 30
0.0
 40
2.0
 50
180.0
 51
270.00001020809998
  0
LINE
  5
6E1
  8
┌▓È_1
 62
     5
 10
573.39798417149996
 20
111.56559045029999
 30
0.0
 11
585.39798417149996
 21
111.56559045029999
 31
0.0
  0
LINE
  5
6E2
  8
┌▓È_1
 62
     5
 10
573.39798417149996
 20
111.56559045029999
 30
0.0
 11
573.39798417149996
 21
236.56559045029999
 31
0.0
  0
LINE
  5
6E3
  8
┌▓È_1
 62
     5
 10
585.39798417149996
 20
109.56559045029999
 30
0.0
 11
585.39798417149996
 21
238.56559045029999
 31
0.0
  0
LINE
  5
6E4
  8
┌▓È_1
 62
     5
 10
573.39798417149996
 20
238.56559045029999
 30
0.0
 11
585.39798417149996
 21
238.56559045029999
 31
0.0
  0
LINE
  5
6E5
  8
┌▓È_1
 62
     5
 10
571.39798417149996
 20
236.565589101
 30
0.0
 11
571.39798417149996
 21
111.56559045029999
 31
0.0
  0
ARC
  5
6E6
  8
┌▓È_1
 62
     5
 10
573.39798417149996
 20
236.56559045029999
 30
0.0
 40
2.0
 50
90.0
 51
180.0000386554
  0
LINE
  5
6E7
  8
┌▓È_1
 62
     5
 10
573.39798417149996
 20
236.56559045029999
 30
0.0
 11
585.39798417149996
 21
236.56559045029999
 31
0.0
  0
ENDBLK
  5
6E8
  8
0
  0
BLOCK
  8
0
  2
CLUMP85
 70
     0
 10
0.0
 20
0.0
 30
0.0
  3
CLUMP85
  1

  0
INSERT
  5
717
  8
┌▓È_1
  2
CLUMP86
 10
0.0
 20
0.0
 30
0.0
  0
INSERT
  5
71F
  8
┌▓È_1
  2
CLUMP87
 10
0.0
 20
0.0
 30
0.0
  0
ENDBLK
  5
726
  8
0
  0
BLOCK
  8
0
  2
CLUMP86
 70
     0
 10
0.0
 20
0.0
 30
0.0
  3
CLUMP86
  1

  0
ARC
  5
719
  8
┌▓È_1
 10
431.6009477131999
 20
205.56500711699999
 30
0.0
 40
3.5
 50
90.0
 51
270.0
  0
LINE
  5
71A
  8
┌▓È_1
 10
446.60094771320001
 20
209.06500711699999
 30
0.0
 11
431.6009477131999
 21
209.06500711699999
 31
0.0
  0
LINE
  5
71B
  8
┌▓È_1
 10
431.6009477131999
 20
202.06500711699999
 30
0.0
 11
446.60094771320001
 21
202.06500711699999
 31
0.0
  0
ARC
  5
71C
  8
┌▓È_1
 10
446.60094771320001
 20
205.56500711699999
 30
0.0
 40
3.5
 50
270.0
 51
90.0
  0
ENDBLK
  5
71D
  8
0
  0
BLOCK
  8
0
  2
CLUMP87
 70
     0
 10
0.0
 20
0.0
 30
0.0
  3
CLUMP87
  1

  0
ARC
  5
721
  8
┌▓È_1
 10
431.6009477131999
 20
220.56500711699999
 30
0.0
 40
3.5
 50
90.0
 51
270.0
  0
LINE
  5
722
  8
┌▓È_1
 10
446.60094771320001
 20
224.06500711699999
 30
0.0
 11
431.6009477131999
 21
224.06500711699999
 31
0.0
  0
LINE
  5
723
  8
┌▓È_1
 10
431.6009477131999
 20
217.06500711699999
 30
0.0
 11
446.60094771320001
 21
217.06500711699999
 31
0.0
  0
ARC
  5
724
  8
┌▓È_1
 10
446.60094771320001
 20
220.56500711699999
 30
0.0
 40
3.5
 50
270.0
 51
90.0
  0
ENDBLK
  5
725
  8
0
  0
BLOCK
  8
0
  2
CLUMP88
 70
     0
 10
0.0
 20
0.0
 30
0.0
  3
CLUMP88
  1

  0
ARC
  5
72A
  8
┌▓È_1
 10
431.6009477131999
 20
127.56500711699999
 30
0.0
 40
3.5
 50
90.0
 51
270.0
  0
LINE
  5
72B
  8
┌▓È_1
 10
446.60094771320001
 20
124.06500711699999
 30
0.0
 11
431.6009477131999
 21
124.06500711699999
 31
0.0
  0
LINE
  5
72C
  8
┌▓È_1
 10
431.6009477131999
 20
131.06500711699999
 30
0.0
 11
446.60094771320001
 21
131.06500711699999
 31
0.0
  0
ARC
  5
72D
  8
┌▓È_1
 10
446.60094771320001
 20
127.56500711699999
 30
0.0
 40
3.5
 50
270.0
 51
90.0
  0
ENDBLK
  5
72E
  8
0
  0
BLOCK
  8
0
  2
CLUMP89
 70
     0
 10
0.0
 20
0.0
 30
0.0
  3
CLUMP89
  1

  0
LINE
  5
734
  8
┌▓È_1
 62
     5
 10
574.89798417150007
 20
240.6660618045
 30
0.0
 11
599.5979841715
 21
240.6660618045
 31
0.0
  0
LINE
  5
735
  8
┌▓È_1
 62
     5
 10
574.89798417150007
 20
240.6660618045
 30
0.0
 11
574.89798417150007
 21
239.86606180449999
 31
0.0
  0
LINE
  5
736
  8
┌▓È_1
 62
     5
 10
599.5979841715
 20
233.36606180449999
 30
0.0
 11
586.19798417150002
 21
233.36606180449999
 31
0.0
  0
LINE
  5
737
  8
┌▓È_1
 62
     5
 10
599.5979841715
 20
247.2660618045
 30
0.0
 11
599.5979841715
 21
233.36606180449999
 31
0.0
  0
ARC
  5
738
  8
┌▓È_1
 62
     5
 10
599.5979841715
 20
247.2660618045
 30
0.0
 40
0.8
 50
0.0
 51
90.0
  0
LINE
  5
739
  8
┌▓È_1
 62
     5
 10
600.39798417149996
 20
233.36606180449999
 30
0.0
 11
600.39798417149996
 21
247.2660618045
 31
0.0
  0
ARC
  5
73A
  8
┌▓È_1
 62
     5
 10
599.5979841715
 20
233.36606180449999
 30
0.0
 40
0.8
 50
270.0
 51
0.0
  0
LINE
  5
73B
  8
┌▓È_1
 62
     5
 10
586.19798417150002
 20
232.56606180450001
 30
0.0
 11
599.5979841715
 21
232.56606180450001
 31
0.0
  0
LINE
  5
73C
  8
┌▓È_1
 62
     5
 10
585.39798417149996
 20
239.06606180450001
 30
0.0
 11
585.39798417149996
 21
233.36606180449999
 31
0.0
  0
ARC
  5
73D
  8
┌▓È_1
 62
     5
 10
586.19798417150002
 20
233.36606180449999
 30
0.0
 40
0.8
 50
180.0
 51
270.0
  0
LINE
  5
73E
  8
┌▓È_1
 62
     5
 10
586.19798417150002
 20
233.36606180449999
 30
0.0
 11
586.19798417150002
 21
239.06606180450001
 31
0.0
  0
LINE
  5
73F
  8
┌▓È_1
 62
     5
 10
594.39798417149996
 20
247.2660618045
 30
0.0
 11
599.5979841715
 21
247.2660618045
 31
0.0
  0
LINE
  5
740
  8
┌▓È_1
 62
     5
 10
594.39798417149996
 20
248.06606180450001
 30
0.0
 11
594.39798417149996
 21
247.2660618045
 31
0.0
  0
LINE
  5
741
  8
┌▓È_1
 62
     5
 10
576.39798417149996
 20
247.2660618045
 30
0.0
 11
576.39798417149996
 21
240.6660618045
 31
0.0
  0
LINE
  5
742
  8
┌▓È_1
 62
     5
 10
585.39798417149996
 20
239.86606180449999
 30
0.0
 11
599.5979841715
 21
239.86606180449999
 31
0.0
  0
LINE
  5
743
  8
┌▓È_1
 62
     5
 10
576.39798417149996
 20
247.2660618045
 30
0.0
 11
576.39798417149996
 21
248.06606180450001
 31
0.0
  0
LINE
  5
744
  8
┌▓È_1
 62
     5
 10
599.5979841715
 20
248.06606180450001
 30
0.0
 11
594.39798417149996
 21
248.06606180450001
 31
0.0
  0
ARC
  5
745
  8
┌▓È_1
 62
     5
 10
585.39798417149996
 20
239.06606180450001
 30
0.0
 40
0.8
 50
0.0
 51
90.0
  0
ARC
  5
746
  8
┌▓È_1
 62
     5
 10
571.19798417150002
 20
239.86606180449999
 30
0.0
 40
0.8
 50
180.0
 51
270.0
  0
LINE
  5
747
  8
┌▓È_1
 62
     5
 10
571.19798417150002
 20
239.86606180449999
 30
0.0
 11
571.19798417150002
 21
247.2660618045
 31
0.0
  0
ARC
  5
748
  8
┌▓È_1
 62
     5
 10
571.19798417150002
 20
247.2660618045
 30
0.0
 40
0.8
 50
90.0
 51
180.0
  0
LINE
  5
749
  8
┌▓È_1
 62
     5
 10
570.39798417150007
 20
247.2660618045
 30
0.0
 11
570.39798417150007
 21
239.86606180449999
 31
0.0
  0
LINE
  5
74A
  8
┌▓È_1
 62
     5
 10
571.19798417150002
 20
247.2660618045
 30
0.0
 11
576.39798417149996
 21
247.2660618045
 31
0.0
  0
LINE
  5
74B
  8
┌▓È_1
 62
     5
 10
576.39798417149996
 20
248.06606180450001
 30
0.0
 11
571.19798417150002
 21
248.06606180450001
 31
0.0
  0
LINE
  5
74C
  8
┌▓È_1
 62
     5
 10
585.39798417149996
 20
239.86606180449999
 30
0.0
 11
571.19798417150002
 21
239.86606180449999
 31
0.0
  0
LINE
  5
74D
  8
┌▓È_1
 62
     5
 10
571.19798417150002
 20
239.06606180450001
 30
0.0
 11
585.39798417149996
 21
239.06606180450001
 31
0.0
  0
ENDBLK
  5
74E
  8
0
  0
BLOCK
  8
0
  2
CLUMP90
 70
     0
 10
0.0
 20
0.0
 30
0.0
  3
CLUMP90
  1

  0
ARC
  5
75C
  8
┌▓È_1
 10
335.77086307529999
 20
-187.95893499429999
 30
0.0
 40
3.5
 50
90.0
 51
270.0
  0
LINE
  5
75D
  8
┌▓È_1
 10
350.77086307529999
 20
-191.45893499429999
 30
0.0
 11
335.77086307529999
 21
-191.45893499429999
 31
0.0
  0
LINE
  5
75E
  8
┌▓È_1
 10
335.77086307529999
 20
-184.45893499429999
 30
0.0
 11
350.77086307529999
 21
-184.45893499429999
 31
0.0
  0
ARC
  5
75F
  8
┌▓È_1
 10
350.77086307529999
 20
-187.95893499429999
 30
0.0
 40
3.5
 50
270.0
 51
90.0
  0
ENDBLK
  5
760
  8
0
  0
BLOCK
  8
0
  2
CLUMP91
 70
     0
 10
0.0
 20
0.0
 30
0.0
  3
CLUMP91
  1

  0
ARC
  5
764
  8
┌▓È_1
 10
335.77086307529999
 20
-172.95893499429999
 30
0.0
 40
3.5
 50
90.0
 51
270.0
  0
LINE
  5
765
  8
┌▓È_1
 10
350.77086307529999
 20
-176.45893499429999
 30
0.0
 11
335.77086307529999
 21
-176.45893499429999
 31
0.0
  0
LINE
  5
766
  8
┌▓È_1
 10
335.77086307529999
 20
-169.45893499429999
 30
0.0
 11
350.77086307529999
 21
-169.45893499429999
 31
0.0
  0
ARC
  5
767
  8
┌▓È_1
 10
350.77086307529999
 20
-172.95893499429999
 30
0.0
 40
3.5
 50
270.0
 51
90.0
  0
ENDBLK
  5
768
  8
0
  0
BLOCK
  8
0
  2
CLUMP92
 70
     0
 10
0.0
 20
0.0
 30
0.0
  3
CLUMP92
  1

  0
INSERT
  5
772
  8
┌▓È_1
  2
CLUMP93
 10
0.0
 20
0.0
 30
0.0
  0
INSERT
  5
77A
  8
┌▓È_1
  2
CLUMP94
 10
0.0
 20
0.0
 30
0.0
  0
ENDBLK
  5
781
  8
0
  0
BLOCK
  8
0
  2
CLUMP93
 70
     0
 10
0.0
 20
0.0
 30
0.0
  3
CLUMP93
  1

  0
ARC
  5
774
  8
┌▓È_1
 10
335.77086307529999
 20
-109.95893499429999
 30
0.0
 40
3.5
 50
90.0
 51
270.0
  0
LINE
  5
775
  8
┌▓È_1
 10
350.77086307529999
 20
-106.45893499429999
 30
0.0
 11
335.77086307529999
 21
-106.45893499429999
 31
0.0
  0
LINE
  5
776
  8
┌▓È_1
 10
335.77086307529999
 20
-113.45893499429999
 30
0.0
 11
350.77086307529999
 21
-113.45893499429999
 31
0.0
  0
ARC
  5
777
  8
┌▓È_1
 10
350.77086307529999
 20
-109.95893499429999
 30
0.0
 40
3.5
 50
270.0
 51
90.0
  0
ENDBLK
  5
778
  8
0
  0
BLOCK
  8
0
  2
CLUMP94
 70
     0
 10
0.0
 20
0.0
 30
0.0
  3
CLUMP94
  1

  0
ARC
  5
77C
  8
┌▓È_1
 10
335.77086307529999
 20
-94.958934994300009
 30
0.0
 40
3.5
 50
90.0
 51
270.0
  0
LINE
  5
77D
  8
┌▓È_1
 10
350.77086307529999
 20
-91.458934994299995
 30
0.0
 11
335.77086307529999
 21
-91.458934994299995
 31
0.0
  0
LINE
  5
77E
  8
┌▓È_1
 10
335.77086307529999
 20
-98.458934994300009
 30
0.0
 11
350.77086307529999
 21
-98.458934994300009
 31
0.0
  0
ARC
  5
77F
  8
┌▓È_1
 10
350.77086307529999
 20
-94.958934994300009
 30
0.0
 40
3.5
 50
270.0
 51
90.0
  0
ENDBLK
  5
780
  8
0
  0
BLOCK
  8
0
  2
CLUMP95
 70
     0
 10
0.0
 20
0.0
 30
0.0
  3
CLUMP95
  1

  0
ARC
  5
785
  8
┌▓È_1
 10
410.77086307529993
 20
-187.95893499429999
 30
0.0
 40
3.5
 50
90.0
 51
270.0
  0
LINE
  5
786
  8
┌▓È_1
 10
425.77086307529999
 20
-191.45893499429999
 30
0.0
 11
410.77086307529993
 21
-191.45893499429999
 31
0.0
  0
LINE
  5
787
  8
┌▓È_1
 10
410.77086307529993
 20
-184.45893499429999
 30
0.0
 11
425.77086307529999
 21
-184.45893499429999
 31
0.0
  0
ARC
  5
788
  8
┌▓È_1
 10
425.77086307529999
 20
-187.95893499429999
 30
0.0
 40
3.5
 50
270.0
 51
90.0
  0
ENDBLK
  5
789
  8
0
  0
BLOCK
  8
0
  2
CLUMP96
 70
     0
 10
0.0
 20
0.0
 30
0.0
  3
CLUMP96
  1

  0
ARC
  5
78D
  8
┌▓È_1
 10
410.77086307529993
 20
-172.95893499429999
 30
0.0
 40
3.5
 50
90.0
 51
270.0
  0
LINE
  5
78E
  8
┌▓È_1
 10
425.77086307529999
 20
-176.45893499429999
 30
0.0
 11
410.77086307529993
 21
-176.45893499429999
 31
0.0
  0
LINE
  5
78F
  8
┌▓È_1
 10
410.77086307529993
 20
-169.45893499429999
 30
0.0
 11
425.77086307529999
 21
-169.45893499429999
 31
0.0
  0
ARC
  5
790
  8
┌▓È_1
 10
425.77086307529999
 20
-172.95893499429999
 30
0.0
 40
3.5
 50
270.0
 51
90.0
  0
ENDBLK
  5
791
  8
0
  0
BLOCK
  8
0
  2
CLUMP97
 70
     0
 10
0.0
 20
0.0
 30
0.0
  3
CLUMP97
  1

  0
INSERT
  5
79C
  8
┌▓È_1
  2
CLUMP98
 10
0.0
 20
0.0
 30
0.0
  0
INSERT
  5
7A4
  8
┌▓È_1
  2
CLUMP99
 10
0.0
 20
0.0
 30
0.0
  0
ENDBLK
  5
7AB
  8
0
  0
BLOCK
  8
0
  2
CLUMP98
 70
     0
 10
0.0
 20
0.0
 30
0.0
  3
CLUMP98
  1

  0
ARC
  5
79E
  8
┌▓È_1
 10
410.77086307529993
 20
-109.95893499429999
 30
0.0
 40
3.5
 50
90.0
 51
270.0
  0
LINE
  5
79F
  8
┌▓È_1
 10
425.77086307529999
 20
-106.45893499429999
 30
0.0
 11
410.77086307529993
 21
-106.45893499429999
 31
0.0
  0
LINE
  5
7A0
  8
┌▓È_1
 10
410.77086307529993
 20
-113.45893499429999
 30
0.0
 11
425.77086307529999
 21
-113.45893499429999
 31
0.0
  0
ARC
  5
7A1
  8
┌▓È_1
 10
425.77086307529999
 20
-109.95893499429999
 30
0.0
 40
3.5
 50
270.0
 51
90.0
  0
ENDBLK
  5
7A2
  8
0
  0
BLOCK
  8
0
  2
CLUMP99
 70
     0
 10
0.0
 20
0.0
 30
0.0
  3
CLUMP99
  1

  0
ARC
  5
7A6
  8
┌▓È_1
 10
410.77086307529993
 20
-94.958934994300009
 30
0.0
 40
3.5
 50
90.0
 51
270.0
  0
LINE
  5
7A7
  8
┌▓È_1
 10
425.77086307529999
 20
-91.458934994299995
 30
0.0
 11
410.77086307529993
 21
-91.458934994299995
 31
0.0
  0
LINE
  5
7A8
  8
┌▓È_1
 10
410.77086307529993
 20
-98.458934994300009
 30
0.0
 11
425.77086307529999
 21
-98.458934994300009
 31
0.0
  0
ARC
  5
7A9
  8
┌▓È_1
 10
425.77086307529999
 20
-94.958934994300009
 30
0.0
 40
3.5
 50
270.0
 51
90.0
  0
ENDBLK
  5
7AA
  8
0
  0
BLOCK
  8
0
  2
CLUMP100
 70
     0
 10
0.0
 20
0.0
 30
0.0
  3
CLUMP100
  1

  0
INSERT
  5
7B7
  8
┌▓È_1
  2
CLUMP101
 10
0.0
 20
0.0
 30
0.0
  0
INSERT
  5
7BF
  8
┌▓È_1
  2
CLUMP102
 10
0.0
 20
0.0
 30
0.0
  0
ENDBLK
  5
7C6
  8
0
  0
BLOCK
  8
0
  2
CLUMP101
 70
     0
 10
0.0
 20
0.0
 30
0.0
  3
CLUMP101
  1

  0
ARC
  5
7B9
  8
┌▓È_1
 10
281.60094771320001
 20
205.56500711699999
 30
0.0
 40
3.5
 50
90.0
 51
270.0
  0
LINE
  5
7BA
  8
┌▓È_1
 10
296.60094771320001
 20
209.06500711699999
 30
0.0
 11
281.60094771320001
 21
209.06500711699999
 31
0.0
  0
LINE
  5
7BB
  8
┌▓È_1
 10
281.60094771320001
 20
202.06500711699999
 30
0.0
 11
296.60094771320001
 21
202.06500711699999
 31
0.0
  0
ARC
  5
7BC
  8
┌▓È_1
 10
296.60094771320001
 20
205.56500711699999
 30
0.0
 40
3.5
 50
270.0
 51
90.0
  0
ENDBLK
  5
7BD
  8
0
  0
BLOCK
  8
0
  2
CLUMP102
 70
     0
 10
0.0
 20
0.0
 30
0.0
  3
CLUMP102
  1

  0
ARC
  5
7C1
  8
┌▓È_1
 10
281.60094771320001
 20
220.56500711699999
 30
0.0
 40
3.5
 50
90.0
 51
270.0
  0
LINE
  5
7C2
  8
┌▓È_1
 10
296.60094771320001
 20
224.06500711699999
 30
0.0
 11
281.60094771320001
 21
224.06500711699999
 31
0.0
  0
LINE
  5
7C3
  8
┌▓È_1
 10
281.60094771320001
 20
217.06500711699999
 30
0.0
 11
296.60094771320001
 21
217.06500711699999
 31
0.0
  0
ARC
  5
7C4
  8
┌▓È_1
 10
296.60094771320001
 20
220.56500711699999
 30
0.0
 40
3.5
 50
270.0
 51
90.0
  0
ENDBLK
  5
7C5
  8
0
  0
BLOCK
  8
0
  2
CLUMP103
 70
     0
 10
0.0
 20
0.0
 30
0.0
  3
CLUMP103
  1

  0
ARC
  5
7CA
  8
┌▓È_1
 10
281.60094771320001
 20
127.56500711699999
 30
0.0
 40
3.5
 50
90.0
 51
270.0
  0
LINE
  5
7CB
  8
┌▓È_1
 10
296.60094771320001
 20
124.06500711699999
 30
0.0
 11
281.60094771320001
 21
124.06500711699999
 31
0.0
  0
LINE
  5
7CC
  8
┌▓È_1
 10
281.60094771320001
 20
131.06500711699999
 30
0.0
 11
296.60094771320001
 21
131.06500711699999
 31
0.0
  0
ARC
  5
7CD
  8
┌▓È_1
 10
296.60094771320001
 20
127.56500711699999
 30
0.0
 40
3.5
 50
270.0
 51
90.0
  0
ENDBLK
  5
7CE
  8
0
  0
BLOCK
  8
0
  2
CLUMP104
 70
     0
 10
0.0
 20
0.0
 30
0.0
  3
CLUMP104
  1

  0
ARC
  5
7D3
  8
┌▓È_1
 10
281.60094771320001
 20
142.56500711699999
 30
0.0
 40
3.5
 50
90.0
 51
270.0
  0
LINE
  5
7D4
  8
┌▓È_1
 10
296.60094771320001
 20
139.06500711699999
 30
0.0
 11
281.60094771320001
 21
139.06500711699999
 31
0.0
  0
LINE
  5
7D5
  8
┌▓È_1
 10
281.60094771320001
 20
146.06500711699999
 30
0.0
 11
296.60094771320001
 21
146.06500711699999
 31
0.0
  0
ARC
  5
7D6
  8
┌▓È_1
 10
296.60094771320001
 20
142.56500711699999
 30
0.0
 40
3.5
 50
270.0
 51
90.0
  0
ENDBLK
  5
7D7
  8
0
  0
BLOCK
  8
0
  2
CLUMP105
 70
     0
 10
0.0
 20
0.0
 30
0.0
  3
CLUMP105
  1

  0
INSERT
  5
7DF
  8
┌▓È_1
  2
CLUMP106
 10
0.0
 20
0.0
 30
0.0
  0
INSERT
  5
7E7
  8
┌▓È_1
  2
CLUMP107
 10
0.0
 20
0.0
 30
0.0
  0
ENDBLK
  5
7EE
  8
0
  0
BLOCK
  8
0
  2
CLUMP106
 70
     0
 10
0.0
 20
0.0
 30
0.0
  3
CLUMP106
  1

  0
ARC
  5
7E1
  8
┌▓È_1
 10
-18.3990522868
 20
205.56500711699999
 30
0.0
 40
3.5
 50
90.0
 51
270.0
  0
LINE
  5
7E2
  8
┌▓È_1
 10
-3.399052286799999
 20
209.06500711699999
 30
0.0
 11
-18.3990522868
 21
209.06500711699999
 31
0.0
  0
LINE
  5
7E3
  8
┌▓È_1
 10
-18.3990522868
 20
202.06500711699999
 30
0.0
 11
-3.399052286799999
 21
202.06500711699999
 31
0.0
  0
ARC
  5
7E4
  8
┌▓È_1
 10
-3.399052286799999
 20
205.56500711699999
 30
0.0
 40
3.5
 50
270.0
 51
90.0
  0
ENDBLK
  5
7E5
  8
0
  0
BLOCK
  8
0
  2
CLUMP107
 70
     0
 10
0.0
 20
0.0
 30
0.0
  3
CLUMP107
  1

  0
ARC
  5
7E9
  8
┌▓È_1
 10
-18.3990522868
 20
220.56500711699999
 30
0.0
 40
3.5
 50
90.0
 51
270.0
  0
LINE
  5
7EA
  8
┌▓È_1
 10
-3.399052286799999
 20
224.06500711699999
 30
0.0
 11
-18.3990522868
 21
224.06500711699999
 31
0.0
  0
LINE
  5
7EB
  8
┌▓È_1
 10
-18.3990522868
 20
217.06500711699999
 30
0.0
 11
-3.399052286799999
 21
217.06500711699999
 31
0.0
  0
ARC
  5
7EC
  8
┌▓È_1
 10
-3.399052286799999
 20
220.56500711699999
 30
0.0
 40
3.5
 50
270.0
 51
90.0
  0
ENDBLK
  5
7ED
  8
0
  0
BLOCK
  8
0
  2
CLUMP108
 70
     0
 10
0.0
 20
0.0
 30
0.0
  3
CLUMP108
  1

  0
ARC
  5
7F2
  8
┌▓È_1
 10
-18.3990522868
 20
127.56500711699999
 30
0.0
 40
3.5
 50
90.0
 51
270.0
  0
LINE
  5
7F3
  8
┌▓È_1
 10
-3.399052286799999
 20
124.06500711699999
 30
0.0
 11
-18.3990522868
 21
124.06500711699999
 31
0.0
  0
LINE
  5
7F4
  8
┌▓È_1
 10
-18.3990522868
 20
131.06500711699999
 30
0.0
 11
-3.399052286799999
 21
131.06500711699999
 31
0.0
  0
ARC
  5
7F5
  8
┌▓È_1
 10
-3.399052286799999
 20
127.56500711699999
 30
0.0
 40
3.5
 50
270.0
 51
90.0
  0
ENDBLK
  5
7F6
  8
0
  0
BLOCK
  8
0
  2
CLUMP109
 70
     0
 10
0.0
 20
0.0
 30
0.0
  3
CLUMP109
  1

  0
ARC
  5
7FA
  8
┌▓È_1
 10
-18.3990522868
 20
142.56500711699999
 30
0.0
 40
3.5
 50
90.0
 51
270.0
  0
LINE
  5
7FB
  8
┌▓È_1
 10
-3.399052286799999
 20
139.06500711699999
 30
0.0
 11
-18.3990522868
 21
139.06500711699999
 31
0.0
  0
LINE
  5
7FC
  8
┌▓È_1
 10
-18.3990522868
 20
146.06500711699999
 30
0.0
 11
-3.399052286799999
 21
146.06500711699999
 31
0.0
  0
ARC
  5
7FD
  8
┌▓È_1
 10
-3.399052286799999
 20
142.56500711699999
 30
0.0
 40
3.5
 50
270.0
 51
90.0
  0
ENDBLK
  5
7FE
  8
0
  0
BLOCK
  8
0
  2
*U160
 70
     1
 10
0.0
 20
0.0
 30
0.0
  3
*U160
  1

  0
TEXT
  5
826
  8
┌▓È_1
  6
CONTINUOUS
 10
-146.11625358206641
 20
63.567241396799993
 30
0.0
 40
9.8954164504999991
  1
3
  0
ENDBLK
  5
828
  8
0
  0
BLOCK
  8
0
  2
*U161
 70
     1
 10
0.0
 20
0.0
 30
0.0
  3
*U161
  1

  0
TEXT
  5
82A
  8
┌▓È_1
  6
CONTINUOUS
 10
-229.14877354423811
 20
63.567241396799993
 30
0.0
 40
9.8954164504999991
  1
1
  0
ENDBLK
  5
82C
  8
0
  0
BLOCK
  8
0
  2
*U162
 70
     1
 10
0.0
 20
0.0
 30
0.0
  3
*U162
  1

  0
TEXT
  5
82E
  8
É}ÿg
  6
CONTINUOUS
 10
435.09996778119819
 20
-394.55959658120003
 30
0.0
 40
8.9958330630999992
  1
H09.07
  0
ENDBLK
  5
830
  8
0
  0
BLOCK
  8
0
  2
*U163
 70
     1
 10
0.0
 20
0.0
 30
0.0
  3
*U163
  1

  0
TEXT
  5
832
  8
É}ÿg
  6
CONTINUOUS
 10
584.61495287770413
 20
-411.4947358223385
 30
0.0
 40
8.9958330630999992
  1
û÷ î┤
  0
ENDBLK
  5
834
  8
0
  0
BLOCK
  8
0
  2
*U164
 70
     1
 10
0.0
 20
0.0
 30
0.0
  3
*U164
  1

  0
TEXT
  5
836
  8
É}ÿg
  6
CONTINUOUS
 10
584.61495287770413
 20
-427.99473582233861
 30
0.0
 40
8.9958330630999992
  1
û÷ î┤
  0
ENDBLK
  5
838
  8
0
  0
BLOCK
  8
0
  2
*U165
 70
     1
 10
0.0
 20
0.0
 30
0.0
  3
*U165
  1

  0
TEXT
  5
83A
  8
É}ÿg
  6
CONTINUOUS
 10
469.64909000761571
 20
-411.54039994956241
 30
0.0
 40
8.9958330630999992
  1
öÆÉ{ëÛ
  0
ENDBLK
  5
83C
  8
0
  0
BLOCK
  8
0
  2
*U166
 70
     1
 10
0.0
 20
0.0
 30
0.0
  3
*U166
  1

  0
TEXT
  5
83E
  8
É}ÿg
  6
CONTINUOUS
 10
469.64909000761571
 20
-428.04039994956241
 30
0.0
 40
8.9958330630999992
  1
öÆÉ{ëÛ
  0
ENDBLK
  5
840
  8
0
  0
BLOCK
  8
0
  2
*U167
 70
     1
 10
0.0
 20
0.0
 30
0.0
  3
*U167
  1

  0
TEXT
  5
842
  8
É}ÿg
  6
CONTINUOUS
 10
678.81374529745335
 20
363.73442185251218
 30
0.0
 40
8.0962498784000001
  1
ë³ü@Æ¨ü@ôÓü@ùe
  0
ENDBLK
  5
844
  8
0
  0
BLOCK
  8
0
  2
*U168
 70
     1
 10
0.0
 20
0.0
 30
0.0
  3
*U168
  1

  0
TEXT
  5
846
  8
É}ÿg
  6
CONTINUOUS
 10
600.58864028999744
 20
363.8166172827498
 30
0.0
 40
8.0962498784000001
  1
ë³Æ¨ô·
  0
ENDBLK
  5
848
  8
0
  0
BLOCK
  8
0
  2
*U169
 70
     1
 10
0.0
 20
0.0
 30
0.0
  3
*U169
  1

  0
TEXT
  5
84A
  8
É}ÿg
  6
CONTINUOUS
 10
569.89024554032039
 20
363.89881271298731
 30
0.0
 40
8.0962498784000001
  1
òøöÈ
  0
ENDBLK
  5
84C
  8
0
  0
BLOCK
  8
0
  2
*U170
 70
     1
 10
0.0
 20
0.0
 30
0.0
  3
*U170
  1

  0
TEXT
  5
84E
  8
É}ÿg
  6
CONTINUOUS
 10
431.34034312739988
 20
-456.08550060731318
 30
0.0
 40
16.1924997568
  1
èöÄ«ë´Äð
  0
ENDBLK
  5
850
  8
0
  0
BLOCK
  8
0
  2
*U171
 70
     1
 10
0.0
 20
0.0
 30
0.0
  3
*U171
  1

  0
TEXT
  5
852
  8
É}ÿg
  6
CONTINUOUS
 10
819.89687315338836
 20
363.6933241373934
 30
0.0
 40
8.0962498784000001
  1
îƒöFÄÊ
  0
ENDBLK
  5
854
  8
0
  0
BLOCK
  8
0
  2
*U172
 70
     1
 10
0.0
 20
0.0
 30
0.0
  3
*U172
  1

  0
TEXT
  5
856
  8
É}ÿg
  6
CONTINUOUS
 10
644.11610557743529
 20
-443.08316894434307
 30
0.0
 40
8.9958330630999992
  1
É} öÈ
  0
ENDBLK
  5
858
  8
0
  0
BLOCK
  8
0
  2
*U173
 70
     1
 10
0.0
 20
0.0
 30
0.0
  3
*U173
  1

  0
TEXT
  5
85A
  8
É}ÿg
  6
CONTINUOUS
 10
640.98811286260104
 20
-377.26582545323862
 30
0.0
 40
8.9958330630999992
  1
É╗òiû╝
  0
ENDBLK
  5
85C
  8
0
  0
BLOCK
  8
0
  2
*U174
 70
     1
 10
0.0
 20
0.0
 30
0.0
  3
*U174
  1

  0
TEXT
  5
85E
  8
É}ÿg
  6
CONTINUOUS
 10
641.23926556233232
 20
-410.17449719879079
 30
0.0
 40
8.9958330630999992
  1
É}û╩û╝
  0
ENDBLK
  5
860
  8
0
  0
BLOCK
  8
0
  2
*U175
 70
     1
 10
0.0
 20
0.0
 30
0.0
  3
*U175
  1

  0
TEXT
  5
862
  8
É}ÿg
  6
CONTINUOUS
 10
430.62488331326011
 20
-378.2207510589954
 30
0.0
 40
8.9958330630999992
  1
ô·ü@ü@òt
  0
ENDBLK
  5
864
  8
0
  0
BLOCK
  8
0
  2
*U176
 70
     1
 10
0.0
 20
0.0
 30
0.0
  3
*U176
  1

  0
TEXT
  5
866
  8
É}ÿg
  6
CONTINUOUS
 10
504.66593664155909
 20
-378.4947358223385
 30
0.0
 40
8.9958330630999992
  1
Ä┌ü@ü@ôx
  0
ENDBLK
  5
868
  8
0
  0
BLOCK
  8
0
  2
*U177
 70
     1
 10
0.0
 20
0.0
 30
0.0
  3
*U177
  1

  0
TEXT
  5
86A
  8
É}ÿg
  6
CONTINUOUS
 10
790.0201662987447
 20
363.73442185251218
 30
0.0
 40
8.0962498784000001
  1
ë³Æ¨ÄÊ
  0
ENDBLK
  5
86C
  8
0
  0
BLOCK
  8
0
  2
*U178
 70
     1
 10
0.0
 20
0.0
 30
0.0
  3
*U178
  1

  0
TEXT
  5
86E
  8
É}ÿg
  6
CONTINUOUS
 10
417.56144178337411
 20
-347.49116894434309
 30
0.0
 40
8.9958330630999992
  1
òiöÈ
  0
ENDBLK
  5
870
  8
0
  0
BLOCK
  8
0
  2
*U179
 70
     1
 10
0.0
 20
0.0
 30
0.0
  3
*U179
  1

  0
TEXT
  5
872
  8
É}ÿg
  6
CONTINUOUS
 10
415.02083231709992
 20
-427.99473582233861
 30
0.0
 40
8.9958330630999992
  1
 É╗É}
  0
ENDBLK
  5
874
  8
0
  0
BLOCK
  8
0
  2
*U180
 70
     1
 10
0.0
 20
0.0
 30
0.0
  3
*U180
  1

  0
TEXT
  5
876
  8
É}ÿg
  6
CONTINUOUS
 10
415.02083231709992
 20
-411.40340756789078
 30
0.0
 40
8.9958330630999992
  1
 É¦îv
  0
ENDBLK
  5
878
  8
0
  0
BLOCK
  8
0
  2
*U181
 70
     1
 10
0.0
 20
0.0
 30
0.0
  3
*U181
  1

  0
TEXT
  5
87A
  8
É}ÿg
  6
CONTINUOUS
 10
527.52083231710003
 20
-428.04039994956241
 30
0.0
 40
8.9958330630999992
  1
 îƒÉ}
  0
ENDBLK
  5
87C
  8
0
  0
BLOCK
  8
0
  2
*U182
 70
     1
 10
0.0
 20
0.0
 30
0.0
  3
*U182
  1

  0
TEXT
  5
87E
  8
É}ÿg
  6
CONTINUOUS
 10
527.52083231710003
 20
-411.4490716951147
 30
0.0
 40
8.9958330630999992
  1
 Åãì©
  0
ENDBLK
  5
880
  8
0
  0
BLOCK
  8
0
  2
*U183
 70
     1
 10
0.0
 20
0.0
 30
0.0
  3
*U183
  1

  0
TEXT
  5
882
  8
É}ÿg
  6
CONTINUOUS
 10
732.26462495641908
 20
-347.67382545323858
 30
0.0
 40
8.9958330630999992
  1
Éöù╩
  0
ENDBLK
  5
884
  8
0
  0
BLOCK
  8
0
  2
*U184
 70
     1
 10
0.0
 20
0.0
 30
0.0
  3
*U184
  1

  0
TEXT
  5
886
  8
É}ÿg
  6
CONTINUOUS
 10
775.80270709221827
 20
-347.8108178349101
 30
0.0
 40
8.9958330630999992
  1
ö§ü@ü@ü@ìl
  0
ENDBLK
  5
888
  8
0
  0
BLOCK
  8
0
  2
*U185
 70
     1
 10
0.0
 20
0.0
 30
0.0
  3
*U185
  1

  0
TEXT
  5
88A
  8
É}ÿg
  6
CONTINUOUS
 10
632.22960010245765
 20
-347.536833071567
 30
0.0
 40
8.9958330630999992
  1
ìÌü@ü@ü@Ä┐
  0
ENDBLK
  5
88C
  8
0
  0
BLOCK
  8
0
  2
*U186
 70
     1
 10
0.0
 20
0.0
 30
0.0
  3
*U186
  1

  0
TEXT
  5
88E
  8
É}ÿg
  6
CONTINUOUS
 10
488.57208105663659
 20
-347.58249719879092
 30
0.0
 40
8.9958330630999992
  1
òiü@ü@ü@û╝
  0
ENDBLK
  5
890
  8
0
  0
BLOCK
  8
0
  2
*U187
 70
     1
 10
0.0
 20
0.0
 30
0.0
  3
*U187
  1

  0
TEXT
  5
892
  8
É}ÿg
  6
CONTINUOUS
 10
741.16912976507138
 20
-302.21718418099999
 30
0.0
 40
8.9958330630999992
  1
1
  0
ENDBLK
  5
894
  8
0
  0
BLOCK
  8
0
  2
*U188
 70
     1
 10
0.0
 20
0.0
 30
0.0
  3
*U188
  1

  0
TEXT
  5
896
  8
É}ÿg
  6
CONTINUOUS
 10
628.9874470695637
 20
-302.21718418099999
 30
0.0
 40
8.9958330630999992
  1
SUS304 2.0t
  0
ENDBLK
  5
898
  8
0
  0
BLOCK
  8
0
  2
*U189
 70
     1
 10
0.0
 20
0.0
 30
0.0
  3
*U189
  1

  0
TEXT
  5
89A
  8
É}ÿg
  6
CONTINUOUS
 10
495.3075398221556
 20
-302.67382545323858
 30
0.0
 40
8.9958330630999992
  1
èW(û┌ÄM)
  0
ENDBLK
  5
89C
  8
0
  0
BLOCK
  8
0
  2
*U190
 70
     1
 10
0.0
 20
0.0
 30
0.0
  3
*U190
  1

  0
TEXT
  5
89E
  8
É}ÿg
  6
CONTINUOUS
 10
740.64399230199695
 20
-317.21718418099999
 30
0.0
 40
8.9958330630999992
  1
2
  0
ENDBLK
  5
8A0
  8
0
  0
BLOCK
  8
0
  2
*U191
 70
     1
 10
0.0
 20
0.0
 30
0.0
  3
*U191
  1

  0
TEXT
  5
8A2
  8
É}ÿg
  6
CONTINUOUS
 10
628.9874470695637
 20
-317.21718418099999
 30
0.0
 40
8.9958330630999992
  1
SUS304 0.8t
  0
ENDBLK
  5
8A4
  8
0
  0
BLOCK
  8
0
  2
*U192
 70
     1
 10
0.0
 20
0.0
 30
0.0
  3
*U192
  1

  0
TEXT
  5
8A6
  8
É}ÿg
  6
CONTINUOUS
 10
512.04344244969957
 20
-317.21718418099999
 30
0.0
 40
8.9958330630999992
  1
Ä¿
  0
ENDBLK
  5
8A8
  8
0
  0
BLOCK
  8
0
  2
*U193
 70
     1
 10
0.0
 20
0.0
 30
0.0
  3
*U193
  1

  0
TEXT
  5
8AA
  8
É}ÿg
  6
CONTINUOUS
 10
674.00546406158037
 20
-388.45206800945891
 30
0.0
 40
11.694583225300001
  1
ânâCéãü[éÚ(É¾î^ üEÉ[î^ )
  0
ENDBLK
  5
8AC
  8
0
  0
BLOCK
  8
0
  2
*U194
 70
     1
 10
0.0
 20
0.0
 30
0.0
  3
*U194
  1

  0
TEXT
  5
8AE
  8
É}ÿg
  6
CONTINUOUS
 10
726.4233167922398
 20
-421.4520680094588
 30
0.0
 40
11.694583225300001
  1
FM15-75(D)
  0
ENDBLK
  5
8B0
  8
0
  0
BLOCK
  8
0
  2
*U195
 70
     1
 10
0.0
 20
0.0
 30
0.0
  3
*U195
  1

  0
TEXT
  5
8B2
  8
É}ÿg
  6
CONTINUOUS
 10
732.59710692133217
 20
-453.85843434319997
 30
0.0
 40
11.694583225300001
  1
SHF00034
  0
ENDBLK
  5
8B4
  8
0
  0
BLOCK
  8
0
  2
*U196
 70
     1
 10
0.0
 20
0.0
 30
0.0
  3
*U196
  1

  0
TEXT
  5
8B6
  8
┌▓È_1
  6
CONTINUOUS
 10
-155.43309011613749
 20
-66.136137996214714
 30
0.0
 40
8.9958330630999992
  1
49-Å¼ö╗îè
  0
ENDBLK
  5
8B8
  8
0
  0
BLOCK
  8
0
  2
*U197
 70
     1
 10
0.0
 20
0.0
 30
0.0
  3
*U197
  1

  0
TEXT
  5
8BA
  8
ë³Æ¨
  6
CONTINUOUS
 10
795.85604184561168
 20
349.14539900369999
 30
0.0
 40
8.0962498784000001
  1
üûüû
  0
ENDBLK
  5
8BC
  8
0
  0
BLOCK
  8
0
  2
*U198
 70
     1
 10
0.0
 20
0.0
 30
0.0
  3
*U198
  1

  0
TEXT
  5
8BE
  8
ë³Æ¨
  6
CONTINUOUS
 10
657.15524942985542
 20
349.15289900369999
 30
0.0
 40
8.0962498784000001
  1
**********************
  0
ENDBLK
  5
8C0
  8
0
  0
BLOCK
  8
0
  2
*U199
 70
     1
 10
0.0
 20
0.0
 30
0.0
  3
*U199
  1

  0
TEXT
  5
8C2
  8
ë³Æ¨
  6
CONTINUOUS
 10
577.05144382393019
 20
347.33222220189998
 30
0.0
 40
8.0962499027000003
  1
1
  0
ENDBLK
  5
8C4
  8
0
  0
BLOCK
  8
0
  2
*U200
 70
     1
 10
0.0
 20
0.0
 30
0.0
  3
*U200
  1

  0
TEXT
  5
8C6
  8
ë³Æ¨
  6
CONTINUOUS
 10
592.20470640576605
 20
349.14539900369999
 30
0.0
 40
8.0962498784000001
  1
H**.**.**
  0
ENDBLK
  5
8C8
  8
0
  0
BLOCK
  8
0
  2
*U201
 70
     1
 10
0.0
 20
0.0
 30
0.0
  3
*U201
  1

  0
TEXT
  5
8CA
  8
É}ÿg
  6
CONTINUOUS
 10
497.15693697472187
 20
-332.71948958046238
 30
0.0
 40
8.9958330630999992
  1
û{   æ╠
  0
ENDBLK
  5
8CC
  8
0
  0
BLOCK
  8
0
  2
*U202
 70
     1
 10
0.0
 20
0.0
 30
0.0
  3
*U202
  1

  0
TEXT
  5
8CE
  8
É}ÿg
  6
CONTINUOUS
 10
628.9874470695637
 20
-332.21718418099999
 30
0.0
 40
8.9958330630999992
  1
SUS304 0.8t
  0
ENDBLK
  5
8D0
  8
0
  0
BLOCK
  8
0
  2
*U203
 70
     1
 10
0.0
 20
0.0
 30
0.0
  3
*U203
  1

  0
TEXT
  5
8D2
  8
É}ÿg
  6
CONTINUOUS
 10
515.60249511167297
 20
-394.55959658120003
 30
0.0
 40
8.9958330630999992
  1
1üF3
  0
ENDBLK
  5
8D4
  8
0
  0
BLOCK
  8
0
  2
*U204
 70
     1
 10
0.0
 20
0.0
 30
0.0
  3
*U204
  1

  0
TEXT
  5
8D6
  8
É}ÿg
  6
CONTINUOUS
 10
425.68965642922069
 20
-302.21718418099999
 30
0.0
 40
8.9958330630999992
  1
3
  0
ENDBLK
  5
8D8
  8
0
  0
BLOCK
  8
0
  2
*U205
 70
     1
 10
0.0
 20
0.0
 30
0.0
  3
*U205
  1

  0
TEXT
  5
8DA
  8
É}ÿg
  6
CONTINUOUS
 10
740.64399230199695
 20
-332.21718418099999
 30
0.0
 40
8.9958330630999992
  1
2
  0
ENDBLK
  5
8DC
  8
0
  0
BLOCK
  8
0
  2
*U206
 70
     1
 10
0.0
 20
0.0
 30
0.0
  3
*U206
  1

  0
TEXT
  5
8DE
  8
É}ÿg
  6
CONTINUOUS
 10
426.1691297650712
 20
-332.21718418099999
 30
0.0
 40
8.9958330630999992
  1
1
  0
ENDBLK
  5
8E0
  8
0
  0
BLOCK
  8
0
  2
*U207
 70
     1
 10
0.0
 20
0.0
 30
0.0
  3
*U207
  1

  0
TEXT
  5
8E2
  8
É}ÿg
  6
CONTINUOUS
 10
425.64399230199689
 20
-317.21718418099999
 30
0.0
 40
8.9958330630999992
  1
2
  0
ENDBLK
  5
8E4
  8
0
  0
BLOCK
  8
0
  2
*U208
 70
     1
 10
0.0
 20
0.0
 30
0.0
  3
*U208
  1

  0
TEXT
  5
8E6
  8
┌▓È_1
  6
CONTINUOUS
 10
675.34202922470001
 20
48.076785288404572
 30
0.0
 40
8.9958330630999992
  1
üiÉ[î^üj
  0
ENDBLK
  5
8E8
  8
0
  0
BLOCK
  8
0
  2
*U209
 70
     1
 10
0.0
 20
0.0
 30
0.0
  3
*U209
  1

  0
TEXT
  5
8EA
  8
┌▓È_1
  6
CONTINUOUS
 10
-319.23056519796648
 20
63.567241396799993
 30
0.0
 40
9.8954164504999991
  1
2
  0
ENDBLK
  5
8EC
  8
0
  0
BLOCK
  8
0
  2
*U210
 70
     1
 10
0.0
 20
0.0
 30
0.0
  3
*U210
  1

  0
TEXT
  5
8EE
  8
┌▓È_1
  6
CONTINUOUS
 10
568.41677627360002
 20
47.894128779509138
 30
0.0
 40
8.9958330630999992
  1
üiÉ¾î^üj
  0
ENDBLK
  5
8F0
  8
0
  0
BLOCK
  8
0
  2
*U211
 70
     1
 10
0.0
 20
0.0
 30
0.0
  3
*U211
  1

  0
TEXT
  5
8F2
  8
┌▓È_1
  6
CONTINUOUS
 10
535.70540853599994
 20
-237.6895142653909
 30
0.0
 40
8.9958330630999992
  1
üiÉ¾î^üj
  0
ENDBLK
  5
8F4
  8
0
  0
BLOCK
  8
0
  2
*U212
 70
     1
 10
0.0
 20
0.0
 30
0.0
  3
*U212
  1

  0
TEXT
  5
8F6
  8
┌▓È_1
  6
CONTINUOUS
 10
605.84599060050004
 20
-237.50685775649549
 30
0.0
 40
8.9958330630999992
  1
üiÉ[î^üj
  0
ENDBLK
  5
8F8
  8
0
  0
ENDSEC
  0
SECTION
  2
ENTITIES
  0
INSERT
  5
30
  8
┌▓È_1
  2
CLUMP0
 10
0.0
 20
0.0
 30
0.0
  0
INSERT
  5
44
  8
┌▓È_1
  2
CLUMP3
 10
0.0
 20
0.0
 30
0.0
  0
INSERT
  5
4C
  8
┌▓È_1
  2
CLUMP4
 10
0.0
 20
0.0
 30
0.0
  0
ARC
  5
53
  8
┌▓È_1
 10
244.10094771319999
 20
174.06500711699999
 30
0.0
 40
3.5
 50
90.0
 51
270.0
  0
LINE
  5
54
  8
┌▓È_1
 10
259.10094771320001
 20
177.56500711699999
 30
0.0
 11
244.10094771319999
 21
177.56500711699999
 31
0.0
  0
LINE
  5
55
  8
┌▓È_1
 10
244.10094771319999
 20
170.56500711699999
 30
0.0
 11
259.10094771320001
 21
170.56500711699999
 31
0.0
  0
ARC
  5
56
  8
┌▓È_1
 10
259.10094771320001
 20
174.06500711699999
 30
0.0
 40
3.5
 50
270.0
 51
90.0
  0
ARC
  5
57
  8
┌▓È_1
 10
169.10094771319999
 20
174.06500711699999
 30
0.0
 40
3.5
 50
90.0
 51
270.0
  0
LINE
  5
58
  8
┌▓È_1
 10
184.10094771319999
 20
177.56500711699999
 30
0.0
 11
169.10094771319999
 21
177.56500711699999
 31
0.0
  0
LINE
  5
59
  8
┌▓È_1
 10
169.10094771319999
 20
170.56500711699999
 30
0.0
 11
184.10094771319999
 21
170.56500711699999
 31
0.0
  0
INSERT
  5
5B
  8
┌▓È_1
  2
CLUMP5
 10
0.0
 20
0.0
 30
0.0
  0
ARC
  5
6E
  8
┌▓È_1
 10
94.1009477132
 20
174.06500711699999
 30
0.0
 40
3.5
 50
90.0
 51
270.0
  0
LINE
  5
6F
  8
┌▓È_1
 10
109.1009477132
 20
177.56500711699999
 30
0.0
 11
94.1009477132
 21
177.56500711699999
 31
0.0
  0
LINE
  5
70
  8
┌▓È_1
 10
94.1009477132
 20
170.56500711699999
 30
0.0
 11
109.1009477132
 21
170.56500711699999
 31
0.0
  0
ARC
  5
71
  8
┌▓È_1
 10
109.1009477132
 20
174.06500711699999
 30
0.0
 40
3.5
 50
270.0
 51
90.0
  0
ARC
  5
72
  8
┌▓È_1
 10
184.10094771319999
 20
174.06500711699999
 30
0.0
 40
3.5
 50
270.0
 51
90.0
  0
ARC
  5
73
  8
┌▓È_1
 10
34.1009477132
 20
174.06500711699999
 30
0.0
 40
3.5
 50
270.0
 51
90.0
  0
LINE
  5
74
  8
┌▓È_1
  6
BORDER
 62
     3
 10
101.5514997965
 20
253.06559045029999
 30
0.0
 11
101.5514997965
 21
95.065590450299993
 31
0.0
  0
INSERT
  5
76
  8
┌▓È_1
  2
CLUMP8
 10
0.0
 20
0.0
 30
0.0
  0
INSERT
  5
7E
  8
┌▓È_1
  2
CLUMP9
 10
0.0
 20
0.0
 30
0.0
  0
INSERT
  5
86
  8
┌▓È_1
  2
CLUMP10
 10
0.0
 20
0.0
 30
0.0
  0
ARC
  5
99
  8
┌▓È_1
 10
19.1009477132
 20
174.06500711699999
 30
0.0
 40
3.5
 50
90.0
 51
270.0
  0
LINE
  5
9A
  8
┌▓È_1
 10
34.1009477132
 20
177.56500711699999
 30
0.0
 11
19.1009477132
 21
177.56500711699999
 31
0.0
  0
LINE
  5
9B
  8
┌▓È_1
 10
19.1009477132
 20
170.56500711699999
 30
0.0
 11
34.1009477132
 21
170.56500711699999
 31
0.0
  0
LINE
  5
9C
  8
┌▓È_1
 10
238.27086307530001
 20
-137.95893499429999
 30
0.0
 11
223.27086307530001
 21
-137.95893499429999
 31
0.0
  0
LINE
  5
9D
  8
┌▓È_1
 10
223.27086307530001
 20
-144.95893499429999
 30
0.0
 11
238.27086307530001
 21
-144.95893499429999
 31
0.0
  0
ARC
  5
9E
  8
┌▓È_1
 10
238.27086307530001
 20
-141.45893499429999
 30
0.0
 40
3.5
 50
270.0
 51
90.0
  0
ARC
  5
9F
  8
┌▓È_1
 10
148.27086307530001
 20
-141.45893499429999
 30
0.0
 40
3.5
 50
90.0
 51
270.0
  0
LINE
  5
A0
  8
┌▓È_1
 10
163.27086307530001
 20
-137.95893499429999
 30
0.0
 11
148.27086307530001
 21
-137.95893499429999
 31
0.0
  0
LINE
  5
A1
  8
┌▓È_1
 10
148.27086307530001
 20
-144.95893499429999
 30
0.0
 11
163.27086307530001
 21
-144.95893499429999
 31
0.0
  0
ARC
  5
A2
  8
┌▓È_1
 10
163.27086307530001
 20
-141.45893499429999
 30
0.0
 40
3.5
 50
270.0
 51
90.0
  0
INSERT
  5
A4
  8
┌▓È_1
  2
CLUMP13
 10
0.0
 20
0.0
 30
0.0
  0
INSERT
  5
AC
  8
┌▓È_1
  2
CLUMP14
 10
0.0
 20
0.0
 30
0.0
  0
INSERT
  5
B4
  8
┌▓È_1
  2
CLUMP15
 10
0.0
 20
0.0
 30
0.0
  0
INSERT
  5
C8
  8
┌▓È_1
  2
CLUMP18
 10
0.0
 20
0.0
 30
0.0
  0
INSERT
  5
D0
  8
┌▓È_1
  2
CLUMP19
 10
0.0
 20
0.0
 30
0.0
  0
ARC
  5
D7
  8
┌▓È_1
 10
73.270863075299999
 20
-141.45893499429999
 30
0.0
 40
3.5
 50
90.0
 51
270.0
  0
LINE
  5
D8
  8
┌▓È_1
 10
88.270863075300014
 20
-137.95893499429999
 30
0.0
 11
73.270863075299999
 21
-137.95893499429999
 31
0.0
  0
LINE
  5
D9
  8
┌▓È_1
 10
73.270863075299999
 20
-144.95893499429999
 30
0.0
 11
88.270863075300014
 21
-144.95893499429999
 31
0.0
  0
ARC
  5
DA
  8
┌▓È_1
 10
88.270863075300014
 20
-141.45893499429999
 30
0.0
 40
3.5
 50
270.0
 51
90.0
  0
LINE
  5
DB
  8
┌▓È_1
  6
BORDER
 62
     3
 10
80.721415158699983
 20
-251.5602074441
 30
0.0
 11
80.721415158699983
 21
-275.5602074441
 31
0.0
  0
INSERT
  5
DD
  8
┌▓È_1
  2
CLUMP20
 10
0.0
 20
0.0
 30
0.0
  0
INSERT
  5
E5
  8
┌▓È_1
  2
CLUMP21
 10
0.0
 20
0.0
 30
0.0
  0
ARC
  5
EC
  8
┌▓È_1
 10
13.270863075299999
 20
-141.45893499429999
 30
0.0
 40
3.5
 50
270.0
 51
90.0
  0
DIMENSION
  5
FD
  8
Éíû@É³
 62
     5
  2
*D22
 10
193.27086307530001
 20
-235.95835134559999
 30
0.0
 11
230.77086307530001
 21
-235.95835134559999
 31
0.0
 70
   128
  1
<>
 13
193.27086307530001
 23
-191.45893499429999
 33
0.0
 14
268.27086307529999
 24
-191.45893499429999
 34
0.0
 50
180.0
  0
DIMENSION
  5
10C
  8
Éíû@É³
 62
     5
  2
*D23
 10
118.2708630753
 20
-235.95835134559999
 30
0.0
 11
155.77086307530001
 21
-235.95835134559999
 31
0.0
 70
   128
  1
<>
 13
118.2708630753
 23
-191.45893499429999
 33
0.0
 14
193.27086307530001
 24
-191.45893499429999
 34
0.0
 50
180.0
  0
DIMENSION
  5
11B
  8
Éíû@É³
 62
     5
  2
*D24
 10
43.270863075299999
 20
-235.95835134559999
 30
0.0
 11
80.770863075300014
 21
-235.95835134559999
 31
0.0
 70
   128
  1
<>
 13
43.270863075299999
 23
-191.45893499429999
 33
0.0
 14
118.2708630753
 24
-191.45893499429999
 34
0.0
 50
180.0
  0
INSERT
  5
11D
  8
┌▓È_1
  2
CLUMP22
 10
0.0
 20
0.0
 30
0.0
  0
INSERT
  5
125
  8
┌▓È_1
  2
CLUMP23
 10
0.0
 20
0.0
 30
0.0
  0
INSERT
  5
12D
  8
┌▓È_1
  2
CLUMP24
 10
0.0
 20
0.0
 30
0.0
  0
INSERT
  5
141
  8
┌▓È_1
  2
CLUMP27
 10
0.0
 20
0.0
 30
0.0
  0
ARC
  5
148
  8
┌▓È_1
 10
-264.24850020349999
 20
4.7287061515999991
 30
0.0
 40
0.8
 50
270.0
 51
0.0
  0
LINE
  5
149
  8
┌▓È_1
 10
-264.24850020349999
 20
27.9287061516
 30
0.0
 11
-264.24850020349999
 21
4.7287061515999991
 31
0.0
  0
LINE
  5
14A
  8
┌▓È_1
 10
-256.24850020349999
 20
27.9287061516
 30
0.0
 11
-256.24850020349999
 21
4.7287061515999991
 31
0.0
  0
LINE
  5
14B
  8
┌▓È_1
 10
-255.4485332882
 20
9.9287061516000001
 30
0.0
 11
-255.4485332882
 21
3.9287061516000001
 31
0.0
  0
INSERT
  5
14D
  8
┌▓È_1
  2
CLUMP28
 10
0.0
 20
0.0
 30
0.0
  0
INSERT
  5
155
  8
┌▓È_1
  2
CLUMP29
 10
0.0
 20
0.0
 30
0.0
  0
INSERT
  5
169
  8
┌▓È_1
  2
CLUMP32
 10
0.0
 20
0.0
 30
0.0
  0
LINE
  5
170
  8
┌▓È_1
 10
-271.64850020350002
 20
9.9287061516000001
 30
0.0
 11
-272.44850020349998
 21
9.9287061516000001
 31
0.0
  0
LINE
  5
171
  8
┌▓È_1
 10
-272.44850020349998
 20
27.9287061516
 30
0.0
 11
-272.44850020349998
 21
33.128706151599999
 31
0.0
  0
ARC
  5
172
  8
┌▓È_1
 10
-271.64850020350002
 20
33.128706151599999
 30
0.0
 40
0.8
 50
90.0
 51
180.0
  0
LINE
  5
173
  8
┌▓È_1
 10
-255.4485332882
 20
4.7287061515999991
 30
0.0
 11
-271.64850020350002
 21
4.7287061515999991
 31
0.0
  0
ARC
  5
174
  8
┌▓È_1
 10
-271.64850020350002
 20
4.7287061515999991
 30
0.0
 40
0.8
 50
180.0
 51
270.0
  0
LINE
  5
175
  8
┌▓È_1
 10
-272.44850020349998
 20
4.7287061515999991
 30
0.0
 11
-272.44850020349998
 21
9.9287061516000001
 31
0.0
  0
DIMENSION
  5
184
  8
Éíû@É³
 62
     5
  2
*D36
 10
-263.44850020349998
 20
281.1741662865
 30
0.0
 11
-267.94850020349998
 21
281.1741662865
 31
0.0
 70
   128
  1
<>
 13
-263.44850020349998
 23
239.0651842003
 33
0.0
 14
-272.44850020349998
 24
248.0651842003
 34
0.0
  0
INSERT
  5
186
  8
Éíû@É³
  2
BALLON0
 10
0.0
 20
0.0
 30
0.0
  0
INSERT
  5
190
  8
Éíû@É³
  2
BALLON1
 10
0.0
 20
0.0
 30
0.0
  0
LINE
  5
199
  8
┌▓È_1
  6
BORDER
 62
     3
 10
80.721415158699983
 20
-71.958351661000009
 30
0.0
 11
80.721415158699983
 21
-210.95835166099999
 31
0.0
  0
INSERT
  5
19B
  8
┌▓È_1
  2
CLUMP33
 10
0.0
 20
0.0
 30
0.0
  0
INSERT
  5
1AF
  8
┌▓È_1
  2
CLUMP36
 10
0.0
 20
0.0
 30
0.0
  0
INSERT
  5
1C3
  8
┌▓È_1
  2
CLUMP39
 10
0.0
 20
0.0
 30
0.0
  0
INSERT
  5
1D7
  8
┌▓È_1
  2
CLUMP42
 10
0.0
 20
0.0
 30
0.0
  0
INSERT
  5
1DF
  8
┌▓È_1
  2
CLUMP43
 10
0.0
 20
0.0
 30
0.0
  0
ARC
  5
1E6
  8
┌▓È_1
 10
223.27086307530001
 20
-141.45893499429999
 30
0.0
 40
3.5
 50
90.0
 51
270.0
  0
DIMENSION
  5
1F5
  8
Éíû@É³
 62
     5
  2
*D50
 10
-283.47898067469998
 20
-235.95835166099999
 30
0.0
 11
-270.1040587997
 21
-235.95835166099999
 31
0.0
 70
   128
  1
<>
 13
-283.47898067469998
 23
-205.95835166099999
 33
0.0
 14
-256.72913692470001
 24
-191.45893499429999
 34
0.0
 50
180.0
  0
DIMENSION
  5
204
  8
Éíû@É³
 62
     5
  2
*D51
 10
-158.22913692469999
 20
-176.45893499429999
 30
0.0
 11
-158.22913692469999
 21
-172.95893499429999
 31
0.0
 70
   128
  1
<>
 13
-174.22913692469999
 23
-176.45893499429999
 33
0.0
 14
-174.22913692469999
 24
-169.45893499429999
 34
0.0
 50
90.0
  0
DIMENSION
  5
213
  8
Éíû@É³
 62
     5
  2
*D52
 10
-181.72913692469999
 20
-235.95835134559999
 30
0.0
 11
-144.22913692469999
 21
-235.95835134559999
 31
0.0
 70
   128
  1
<>
 13
-181.72913692469999
 23
-191.45893499429999
 33
0.0
 14
-106.7291369247
 24
-191.45893499429999
 34
0.0
 50
180.0
  0
DIMENSION
  5
222
  8
Éíû@É³
 62
     5
  2
*D53
 10
-106.7291369247
 20
-235.95835134559999
 30
0.0
 11
-69.229136924700001
 21
-235.95835134559999
 31
0.0
 70
   128
  1
<>
 13
-106.7291369247
 23
-191.45893499429999
 33
0.0
 14
-31.729136924700001
 24
-191.45893499429999
 34
0.0
 50
180.0
  0
DIMENSION
  5
231
  8
Éíû@É³
 62
     5
  2
*D54
 10
-170.72913692469999
 20
-160.21902582230001
 30
0.0
 11
-181.72913692469999
 21
-160.21902582230001
 31
0.0
 70
   128
  1
<>
 13
-170.72913692469999
 23
-172.95893499429999
 33
0.0
 14
-192.72913692469999
 24
-172.95893499429999
 34
0.0
  0
INSERT
  5
233
  8
┌▓È_1
  2
CLUMP44
 10
0.0
 20
0.0
 30
0.0
  0
ARC
  5
23A
  8
┌▓È_1
 10
-55.8990522868
 20
174.06500711699999
 30
0.0
 40
3.5
 50
90.0
 51
270.0
  0
LINE
  5
23B
  8
┌▓È_1
 10
-40.8990522868
 20
177.56500711699999
 30
0.0
 11
-55.8990522868
 21
177.56500711699999
 31
0.0
  0
LINE
  5
23C
  8
┌▓È_1
 10
-55.8990522868
 20
170.56500711699999
 30
0.0
 11
-40.8990522868
 21
170.56500711699999
 31
0.0
  0
ARC
  5
23D
  8
┌▓È_1
 10
-40.8990522868
 20
174.06500711699999
 30
0.0
 40
3.5
 50
270.0
 51
90.0
  0
INSERT
  5
23F
  8
┌▓È_1
  2
CLUMP45
 10
0.0
 20
0.0
 30
0.0
  0
ARC
  5
252
  8
┌▓È_1
 10
-115.8990522868
 20
174.06500711699999
 30
0.0
 40
3.5
 50
270.0
 51
90.0
  0
ARC
  5
253
  8
┌▓È_1
 10
-205.89905228680001
 20
174.06500711699999
 30
0.0
 40
3.5
 50
90.0
 51
270.0
  0
ARC
  5
254
  8
┌▓È_1
 10
-190.89905228680001
 20
174.06500711699999
 30
0.0
 40
3.5
 50
270.0
 51
90.0
  0
LINE
  5
255
  8
┌▓È_1
 10
-271.64850020350002
 20
4.7287061515999991
 30
0.0
 11
-271.64850020350002
 21
9.9287061516000001
 31
0.0
  0
ARC
  5
256
  8
┌▓È_1
 10
-130.89905228680001
 20
174.06500711699999
 30
0.0
 40
3.5
 50
90.0
 51
270.0
  0
LINE
  5
257
  8
┌▓È_1
 10
-115.8990522868
 20
177.56500711699999
 30
0.0
 11
-130.89905228680001
 21
177.56500711699999
 31
0.0
  0
LINE
  5
258
  8
┌▓È_1
 10
-130.89905228680001
 20
170.56500711699999
 30
0.0
 11
-115.8990522868
 21
170.56500711699999
 31
0.0
  0
LINE
  5
259
  8
┌▓È_1
 10
-190.89905228680001
 20
177.56500711699999
 30
0.0
 11
-205.89905228680001
 21
177.56500711699999
 31
0.0
  0
LINE
  5
25A
  8
┌▓È_1
 10
-205.89905228680001
 20
170.56500711699999
 30
0.0
 11
-190.89905228680001
 21
170.56500711699999
 31
0.0
  0
INSERT
  5
25C
  8
┌▓È_1
  2
CLUMP48
 10
0.0
 20
0.0
 30
0.0
  0
LINE
  5
263
  8
┌▓È_1
  6
BORDER
 62
     3
 10
-235.89905228680001
 20
186.56500711699999
 30
0.0
 11
-235.89905228680001
 21
161.56500711699999
 31
0.0
  0
CIRCLE
  5
264
  8
┌▓È_1
 10
-235.89905228680001
 20
174.06500711699999
 30
0.0
 40
7.5
  0
INSERT
  5
266
  8
┌▓È_1
  2
CLUMP49
 10
0.0
 20
0.0
 30
0.0
  0
LINE
  5
26D
  8
┌▓È_1
 10
-262.64889603680001
 20
109.56559045029999
 30
0.0
 11
-262.64889603680001
 21
238.56559045029999
 31
0.0
  0
INSERT
  5
26F
  8
┌▓È_1
  2
CLUMP50
 10
0.0
 20
0.0
 30
0.0
  0
ARC
  5
276
  8
┌▓È_1
 10
-76.729136924700001
 20
-141.45893499429999
 30
0.0
 40
3.5
 50
90.0
 51
270.0
  0
ARC
  5
277
  8
┌▓È_1
 10
-151.72913692469999
 20
-141.45893499429999
 30
0.0
 40
3.5
 50
90.0
 51
270.0
  0
LINE
  5
278
  8
┌▓È_1
 10
-136.72913692469999
 20
-137.95893499429999
 30
0.0
 11
-151.72913692469999
 21
-137.95893499429999
 31
0.0
  0
LINE
  5
279
  8
┌▓È_1
 10
-151.72913692469999
 20
-144.95893499429999
 30
0.0
 11
-136.72913692469999
 21
-144.95893499429999
 31
0.0
  0
INSERT
  5
27B
  8
┌▓È_1
  2
CLUMP51
 10
0.0
 20
0.0
 30
0.0
  0
LINE
  5
282
  8
┌▓È_1
 10
-283.47898067469998
 20
-205.95835166099999
 30
0.0
 11
-283.47898067469998
 21
-76.958351661000009
 31
0.0
  0
ARC
  5
283
  8
┌▓È_1
 62
     5
 10
-278.47898067469998
 20
-265.5602074441
 30
0.0
 40
5.0
 50
180.0
 51
269.99999957839998
  0
LINE
  5
284
  8
┌▓È_1
 62
     5
 10
-283.47898067469998
 20
-256.5602074441
 30
0.0
 11
-283.47898067469998
 21
-265.5602074441
 31
0.0
  0
LINE
  5
285
  8
┌▓È_1
 10
-61.729136924700001
 20
-137.95893499429999
 30
0.0
 11
-76.729136924700001
 21
-137.95893499429999
 31
0.0
  0
LINE
  5
286
  8
┌▓È_1
 10
-76.729136924700001
 20
-144.95893499429999
 30
0.0
 11
-61.729136924700001
 21
-144.95893499429999
 31
0.0
  0
ARC
  5
287
  8
┌▓È_1
 10
-61.729136924700001
 20
-141.45893499429999
 30
0.0
 40
3.5
 50
270.0
 51
90.0
  0
CIRCLE
  5
288
  8
┌▓È_1
 10
-256.72913692470001
 20
-141.45893499429999
 30
0.0
 40
7.5
  0
LINE
  5
289
  8
┌▓È_1
  6
BORDER
 62
     3
 10
-256.72913692470001
 20
-128.95893499429999
 30
0.0
 11
-256.72913692470001
 21
-153.95893499429999
 31
0.0
  0
INSERT
  5
28B
  8
┌▓È_1
  2
CLUMP52
 10
0.0
 20
0.0
 30
0.0
  0
INSERT
  5
293
  8
┌▓È_1
  2
CLUMP53
 10
0.0
 20
0.0
 30
0.0
  0
INSERT
  5
2A7
  8
┌▓È_1
  2
CLUMP56
 10
0.0
 20
0.0
 30
0.0
  0
INSERT
  5
2AF
  8
┌▓È_1
  2
CLUMP57
 10
0.0
 20
0.0
 30
0.0
  0
ARC
  5
2B6
  8
┌▓È_1
 10
-136.72913692469999
 20
-141.45893499429999
 30
0.0
 40
3.5
 50
270.0
 51
90.0
  0
INSERT
  5
2B8
  8
┌▓È_1
  2
CLUMP58
 10
0.0
 20
0.0
 30
0.0
  0
INSERT
  5
2CC
  8
┌▓È_1
  2
CLUMP61
 10
0.0
 20
0.0
 30
0.0
  0
ARC
  5
2DF
  8
┌▓È_1
 10
-226.72913692469999
 20
-141.45893499429999
 30
0.0
 40
3.5
 50
90.0
 51
270.0
  0
INSERT
  5
2E1
  8
┌▓È_1
  2
CLUMP64
 10
0.0
 20
0.0
 30
0.0
  0
LINE
  5
2E8
  8
┌▓È_1
 10
-211.72913692469999
 20
-137.95893499429999
 30
0.0
 11
-226.72913692469999
 21
-137.95893499429999
 31
0.0
  0
DIMENSION
  5
2F7
  8
Éíû@É³
 62
     5
  2
*D76
 10
-256.72913692470001
 20
-235.95835134559999
 30
0.0
 11
-219.22913692469999
 21
-235.95835134559999
 31
0.0
 70
   128
  1
<>
 13
-256.72913692470001
 23
-191.45893499429999
 33
0.0
 14
-181.72913692469999
 24
-191.45893499429999
 34
0.0
 50
180.0
  0
INSERT
  5
2F9
  8
0
  6
CONTINUOUS
  2
*U162
 10
0.0
 20
0.0
 30
0.0
  0
INSERT
  5
2FA
  8
0
  6
CONTINUOUS
  2
*U163
 10
0.0
 20
0.0
 30
0.0
  0
INSERT
  5
2FB
  8
0
  6
CONTINUOUS
  2
*U164
 10
0.0
 20
0.0
 30
0.0
  0
INSERT
  5
2FC
  8
0
  6
CONTINUOUS
  2
*U165
 10
0.0
 20
0.0
 30
0.0
  0
INSERT
  5
2FD
  8
0
  6
CONTINUOUS
  2
*U166
 10
0.0
 20
0.0
 30
0.0
  0
INSERT
  5
2FF
  8
É}ÿg
  2
CLUMP65
 10
0.0
 20
0.0
 30
0.0
  0
INSERT
  5
3A3
  8
0
  6
CONTINUOUS
  2
*U187
 10
0.0
 20
0.0
 30
0.0
  0
INSERT
  5
3A4
  8
0
  6
CONTINUOUS
  2
*U188
 10
0.0
 20
0.0
 30
0.0
  0
INSERT
  5
3A5
  8
0
  6
CONTINUOUS
  2
*U189
 10
0.0
 20
0.0
 30
0.0
  0
INSERT
  5
3A7
  8
É}ÿg
  2
CLUMP66
 10
0.0
 20
0.0
 30
0.0
  0
INSERT
  5
3B0
  8
0
  6
CONTINUOUS
  2
*U190
 10
0.0
 20
0.0
 30
0.0
  0
INSERT
  5
3B1
  8
0
  6
CONTINUOUS
  2
*U191
 10
0.0
 20
0.0
 30
0.0
  0
INSERT
  5
3B2
  8
0
  6
CONTINUOUS
  2
*U192
 10
0.0
 20
0.0
 30
0.0
  0
INSERT
  5
3B3
  8
0
  6
CONTINUOUS
  2
*U193
 10
0.0
 20
0.0
 30
0.0
  0
INSERT
  5
3B4
  8
0
  6
CONTINUOUS
  2
*U194
 10
0.0
 20
0.0
 30
0.0
  0
INSERT
  5
3B5
  8
0
  6
CONTINUOUS
  2
*U195
 10
0.0
 20
0.0
 30
0.0
  0
LINE
  5
3B6
  8
┌▓È_1
  6
BORDER
 62
     3
 10
101.5514997965
 20
38.928706151599997
 30
0.0
 11
101.5514997965
 21
-1.0712938484000001
 31
0.0
  0
LINE
  5
3B7
  8
┌▓È_1
 10
-226.72913692469999
 20
-144.95893499429999
 30
0.0
 11
-211.72913692469999
 21
-144.95893499429999
 31
0.0
  0
INSERT
  5
3B9
  8
┌▓È_1
  2
CLUMP67
 10
0.0
 20
0.0
 30
0.0
  0
INSERT
  5
3C1
  8
┌▓È_1
  2
CLUMP68
 10
0.0
 20
0.0
 30
0.0
  0
ARC
  5
3D4
  8
┌▓È_1
 10
-211.72913692469999
 20
-141.45893499429999
 30
0.0
 40
3.5
 50
270.0
 51
90.0
  0
LINE
  5
3D5
  8
┌▓È_1
 10
-157.92700062279999
 20
-67.458926021000011
 30
0.0
 11
-104.5503155091
 21
-67.458926021000011
 31
0.0
  0
LINE
  5
3D6
  8
┌▓È_1
 10
-181.72913692469999
 20
-91.458934994299995
 30
0.0
 11
-157.92700062279999
 21
-67.458926021000011
 31
0.0
  0
SOLID
  5
3D7
  8
┌▓È_1
 10
-181.72913692469999
 20
-91.458934994299995
 30
0.0
 11
-179.15952495510001
 21
-86.965382550100003
 31
0.0
 12
-179.15168213659999
 22
-88.860053227700007
 32
0.0
 13
-179.15168213659999
 23
-88.860053227700007
 33
0.0
  0
SOLID
  5
3D8
  8
┌▓È_1
 10
-181.72913692469999
 20
-91.458934994299995
 30
0.0
 11
-177.25701145900001
 21
-88.852210409199984
 31
0.0
 12
-179.15168213659999
 22
-88.860053227700007
 32
0.0
 13
-179.15168213659999
 23
-88.860053227700007
 33
0.0
  0
INSERT
  5
3D9
  8
0
  6
CONTINUOUS
  2
*U196
 10
0.0
 20
0.0
 30
0.0
  0
INSERT
  5
3DB
  8
┌▓È_1
  2
CLUMP71
 10
0.0
 20
0.0
 30
0.0
  0
DIMENSION
  5
3F0
  8
Éíû@É³
 62
     5
  2
*D84
 10
522.40154481000002
 20
100.0651842003
 30
0.0
 11
522.40154481000002
 21
174.0651842003
 31
0.0
 70
   128
  1
<>
 13
470.60149979649998
 23
100.0651842003
 33
0.0
 14
470.60149979649998
 24
248.0651842003
 34
0.0
 50
90.0
  0
DIMENSION
  5
3FF
  8
Éíû@É³
 62
     5
  2
*D85
 10
623.38342652379993
 20
100.06511909619999
 30
0.0
 11
623.38342652379993
 21
82.074129411100003
 31
0.0
 70
   128
  1
15.5
 13
599.5979841715
 23
100.06511909619999
 33
0.0
 14
599.5979841715
 24
115.56511909619999
 34
0.0
 50
90.0
  0
DIMENSION
  5
40E
  8
Éíû@É³
 62
     5
  2
*D86
 10
504.17172837319993
 20
109.0651842003
 30
0.0
 11
504.17172837319993
 21
174.0651842003
 31
0.0
 70
   128
  1
<>
 13
461.60149979649998
 23
109.0651842003
 33
0.0
 14
461.60149979649998
 24
239.0651842003
 34
0.0
 50
90.0
  0
DIMENSION
  5
41D
  8
Éíû@É³
 62
     5
  2
*D87
 10
744.14010158439987
 20
100.06559045029999
 30
0.0
 11
744.14010158439987
 21
107.06559045029999
 31
0.0
 70
   128
  1
14
 13
722.72519031429988
 23
100.06559045029999
 33
0.0
 14
722.72519031429988
 24
114.06559045029999
 34
0.0
 50
90.0
  0
DIMENSION
  5
42C
  8
Éíû@É³
 62
     5
  2
*D88
 10
692.72519031429977
 20
285.23711449820001
 30
0.0
 11
680.22519031429999
 21
285.23711449820001
 31
0.0
 70
   128
  1
<>
 13
692.72519031429977
 23
239.06559045029999
 33
0.0
 14
667.72519031429999
 24
248.06559045029999
 34
0.0
  0
DIMENSION
  5
43B
  8
Éíû@É³
 62
     5
  2
*D89
 10
722.72519031429988
 20
305.9153211327
 30
0.0
 11
695.22519031429988
 21
305.9153211327
 31
0.0
 70
   128
  1
<>
 13
722.72519031429988
 23
247.26559045030001
 33
0.0
 14
667.72519031429999
 24
247.26559045030001
 34
0.0
  0
DIMENSION
  5
44A
  8
Éíû@É³
 62
     5
  2
*D90
 10
722.72519031429988
 20
285.23711449820001
 30
0.0
 11
707.72519031429988
 21
285.23711449820001
 31
0.0
 70
   128
  1
<>
 13
722.72519031429988
 23
248.06559045029999
 33
0.0
 14
692.72519031429977
 24
239.06559045029999
 34
0.0
  0
DIMENSION
  5
459
  8
Éíû@É³
 62
     5
  2
*D91
 10
475.55149979650002
 20
301.569674099
 30
0.0
 11
101.5514997965
 21
301.569674099
 31
0.0
 70
   128
  1
<>
 13
475.55149979650002
 23
248.0651842003
 33
0.0
 14
-272.44850020349998
 24
248.0651842003
 34
0.0
  0
DIMENSION
  5
468
  8
Éíû@É³
 62
     5
  2
*D92
 10
466.55149979650002
 20
281.1741662865
 30
0.0
 11
101.5514997965
 21
281.1741662865
 31
0.0
 70
   128
  1
<>
 13
466.55149979650002
 23
239.0651842003
 33
0.0
 14
-263.44850020349998
 24
239.0651842003
 34
0.0
  0
DIMENSION
  5
477
  8
Éíû@É³
 62
     5
  2
*D93
 10
635.07733135169997
 20
-46.958351661000002
 30
0.0
 11
623.57733135169985
 21
-46.958351661000002
 31
0.0
 70
   128
  1
<>
 13
635.07733135169997
 23
-76.958351661000009
 33
0.0
 14
612.07733135169985
 24
-78.958351661000009
 34
0.0
  0
DIMENSION
  5
486
  8
Éíû@É³
 62
     5
  2
*D94
 10
562.66759484859995
 20
-46.958351661000002
 30
0.0
 11
555.66759484860006
 21
-46.958351661000002
 31
0.0
 70
   128
  1
<>
 13
562.66759484859995
 23
-76.958351661000009
 33
0.0
 14
548.66759484859995
 24
-78.958353010300002
 34
0.0
  0
DIMENSION
  5
495
  8
Éíû@É³
 62
     5
  2
*D95
 10
475.55149979650002
 20
281.1741662865
 30
0.0
 11
471.05149979650002
 21
281.1741662865
 31
0.0
 70
   128
  1
<>
 13
475.55149979650002
 23
248.0651842003
 33
0.0
 14
466.55149979650002
 24
239.0651842003
 34
0.0
  0
INSERT
  5
497
  8
0
  6
CONTINUOUS
  2
*U197
 10
0.0
 20
0.0
 30
0.0
  0
INSERT
  5
498
  8
0
  6
CONTINUOUS
  2
*U198
 10
0.0
 20
0.0
 30
0.0
  0
INSERT
  5
499
  8
0
  6
CONTINUOUS
  2
*U199
 10
0.0
 20
0.0
 30
0.0
  0
INSERT
  5
49A
  8
0
  6
CONTINUOUS
  2
*U200
 10
0.0
 20
0.0
 30
0.0
  0
INSERT
  5
49C
  8
É}ÿg
  2
CLUMP72
 10
0.0
 20
0.0
 30
0.0
  0
INSERT
  5
4A6
  8
É}ÿg
  2
CLUMP73
 10
0.0
 20
0.0
 30
0.0
  0
INSERT
  5
4AF
  8
0
  6
CONTINUOUS
  2
*U201
 10
0.0
 20
0.0
 30
0.0
  0
INSERT
  5
4B0
  8
0
  6
CONTINUOUS
  2
*U202
 10
0.0
 20
0.0
 30
0.0
  0
INSERT
  5
4B1
  8
0
  6
CONTINUOUS
  2
*U203
 10
0.0
 20
0.0
 30
0.0
  0
INSERT
  5
4B2
  8
0
  6
CONTINUOUS
  2
*U204
 10
0.0
 20
0.0
 30
0.0
  0
INSERT
  5
4B3
  8
0
  6
CONTINUOUS
  2
*U205
 10
0.0
 20
0.0
 30
0.0
  0
INSERT
  5
4B4
  8
0
  6
CONTINUOUS
  2
*U206
 10
0.0
 20
0.0
 30
0.0
  0
INSERT
  5
4B5
  8
0
  6
CONTINUOUS
  2
*U207
 10
0.0
 20
0.0
 30
0.0
  0
DIMENSION
  5
4BD
  8
Éíû@É³
 62
     5
  2
*D98
 10
-275.33682634550001
 20
-153.60562595869999
 30
0.0
 11
-296.61808340070002
 21
-169.2702279202
 31
0.0
 70
   131
  1
2-â│15
 15
-261.94522420880003
 25
-146.8480382077
 35
0.0
 40
0.0
  0
DIMENSION
  5
4CC
  8
Éíû@É³
 62
     5
  2
*D99
 10
418.27086307529993
 20
-235.95835166099999
 30
0.0
 11
431.64594120029989
 21
-235.95835166099999
 31
0.0
 70
   128
  1
<>
 13
418.27086307529993
 23
-191.45893499429999
 33
0.0
 14
445.0210193252999
 24
-205.95835166099999
 34
0.0
 50
180.0
  0
DIMENSION
  5
4DB
  8
Éíû@É³
 62
     5
  2
*D100
 10
475.0210193252999
 20
-205.95835166099999
 30
0.0
 11
475.0210193252999
 21
-196.9586433275999
 31
0.0
 70
   128
  1
18
 13
445.0210193252999
 23
-205.95835166099999
 33
0.0
 14
429.27086307529999
 24
-187.95893499429999
 34
0.0
 50
90.0
  0
DIMENSION
  5
4EA
  8
Éíû@É³
 62
     5
  2
*D101
 10
475.0210193252999
 20
-172.95893499429999
 30
0.0
 11
475.0210193252999
 21
-157.20864332759999
 31
0.0
 70
   128
  1
31.5
 13
429.27086307529999
 23
-172.95893499429999
 33
0.0
 14
450.0210193252999
 24
-141.45835166099999
 34
0.0
 50
90.0
  0
DIMENSION
  5
4F9
  8
Éíû@É³
 62
     5
  2
*D102
 10
475.02101947789998
 20
-187.95893499429999
 30
0.0
 11
475.02101947789998
 21
-180.45893499429999
 31
0.0
 70
   128
  1
<>
 13
429.27086307529999
 23
-187.95893499429999
 33
0.0
 14
429.27086307529999
 24
-172.95893499429999
 34
0.0
 50
90.0
  0
DIMENSION
  5
508
  8
Éíû@É³
 62
     5
  2
*D103
 10
343.27086307529999
 20
-235.95835134559999
 30
0.0
 11
380.77086307529999
 21
-235.95835134559999
 31
0.0
 70
   128
  1
<>
 13
343.27086307529999
 23
-191.45893499429999
 33
0.0
 14
418.27086307529993
 24
-191.45893499429999
 34
0.0
 50
180.0
  0
DIMENSION
  5
50F
  8
Éíû@É³
 62
     5
  2
*D104
 10
440.0210193252999
 20
-265.5602074441
 30
0.0
 11
436.40007101160001
 21
-281.26043708980001
 31
0.0
 70
   132
  1
<>
 15
443.55655323129992
 25
-269.09574135000003
 35
0.0
 40
0.0
  0
DIMENSION
  5
51E
  8
Éíû@É³
 62
     5
  2
*D105
 10
475.0210193252999
 20
-94.958934994300009
 30
0.0
 11
475.0210193252999
 21
-85.958643327599987
 31
0.0
 70
   128
  1
18
 13
429.27086307529999
 23
-94.958934994300009
 33
0.0
 14
445.0210193252999
 24
-76.958351661000009
 34
0.0
 50
90.0
  0
DIMENSION
  5
52D
  8
Éíû@É³
 62
     5
  2
*D106
 10
500.6546481705999
 20
-205.95835166099999
 30
0.0
 11
500.6546481705999
 21
-141.45835166099999
 31
0.0
 70
   128
  1
<>
 13
445.0210193252999
 23
-205.95835166099999
 33
0.0
 14
445.0210193252999
 24
-76.958351661000009
 34
0.0
 50
90.0
  0
DIMENSION
  5
53C
  8
Éíû@É³
 62
     5
  2
*D107
 10
475.0210193252999
 20
-141.45835166099999
 30
0.0
 11
475.0210193252999
 21
-125.7086433276
 31
0.0
 70
   128
  1
31.5
 13
450.0210193252999
 23
-141.45835166099999
 33
0.0
 14
429.27086307529999
 24
-109.95893499429999
 34
0.0
 50
90.0
  0
DIMENSION
  5
54B
  8
Éíû@É³
 62
     5
  2
*D108
 10
475.02101947789998
 20
-109.95893499429999
 30
0.0
 11
475.02101947789998
 21
-102.45893499429999
 31
0.0
 70
   128
  1
<>
 13
429.27086307529999
 23
-109.95893499429999
 33
0.0
 14
429.27086307529999
 24
-94.958934994300009
 34
0.0
 50
90.0
  0
DIMENSION
  5
55A
  8
Éíû@É³
 62
     5
  2
*D109
 10
445.0210193252999
 20
-46.958351661000002
 30
0.0
 11
80.771019325300003
 21
-46.958351661000002
 31
0.0
 70
   128
  1
<>
 13
445.0210193252999
 23
-76.958351661000009
 33
0.0
 14
-283.47898067469998
 24
-76.958351661000009
 34
0.0
  0
DIMENSION
  5
569
  8
Éíû@É³
 62
     5
  2
*D110
 10
504.17172837319993
 20
100.0651842003
 30
0.0
 11
504.17172837319993
 21
104.5651842003
 31
0.0
 70
   128
  1
<>
 13
470.60149979649998
 23
100.0651842003
 33
0.0
 14
461.60149979649998
 24
109.0651842003
 34
0.0
 50
90.0
  0
DIMENSION
  5
578
  8
Éíû@É³
 62
     5
  2
*D111
 10
623.32328591409998
 20
115.56511909619999
 30
0.0
 11
623.32328591409998
 21
174.06559045029999
 31
0.0
 70
   128
  1
<>
 13
599.5979841715
 23
115.56511909619999
 33
0.0
 14
599.5979841715
 24
232.56606180450001
 34
0.0
 50
90.0
  0
DIMENSION
  5
587
  8
Éíû@É³
 62
     5
  2
*D112
 10
600.39798417149996
 20
306.68662836329997
 30
0.0
 11
585.39798417149996
 21
306.68662836329997
 31
0.0
 70
   128
  1
<>
 13
600.39798417149996
 23
247.2660618045
 33
0.0
 14
570.39798417150007
 24
247.2660618045
 34
0.0
  0
DIMENSION
  5
596
  8
Éíû@É³
 62
     5
  2
*D113
 10
600.39798417149996
 20
285.06646539949998
 30
0.0
 11
592.82998793779996
 21
285.06646539949998
 31
0.0
 70
   128
  1
<>
 13
600.39798417149996
 23
247.2660618045
 33
0.0
 14
585.39798417149996
 24
239.06606180450001
 34
0.0
  0
DIMENSION
  5
5A5
  8
Éíû@É³
 62
     5
  2
*D114
 10
585.39798417149996
 20
285.06646539949998
 30
0.0
 11
577.65750759309992
 21
285.06646539949998
 31
0.0
 70
   128
  1
<>
 13
585.39798417149996
 23
239.06606180450001
 33
0.0
 14
570.39798417150007
 24
247.2660618045
 34
0.0
  0
DIMENSION
  5
5B4
  8
Éíû@É³
 62
     5
  2
*D115
 10
623.38342652379993
 20
232.56606180450001
 30
0.0
 11
623.38342652379993
 21
265.7735107638
 31
0.0
 70
   128
  1
15.5
 13
599.5979841715
 23
232.56606180450001
 33
0.0
 14
599.5979841715
 24
248.06606180450001
 34
0.0
 50
90.0
  0
DIMENSION
  5
5C3
  8
Éíû@É³
 62
     5
  2
*D116
 10
504.17172837319993
 20
239.0651842003
 30
0.0
 11
504.17172837319993
 21
243.5651842003
 31
0.0
 70
   128
  1
<>
 13
461.60149979649998
 23
239.0651842003
 33
0.0
 14
470.60149979649998
 24
248.0651842003
 34
0.0
 50
90.0
  0
DIMENSION
  5
5D2
  8
Éíû@É³
 62
     5
  2
*D117
 10
744.14010158439987
 20
114.06559045029999
 30
0.0
 11
744.14010158439987
 21
174.06559045029999
 31
0.0
 70
   128
  1
<>
 13
722.72519031429988
 23
114.06559045029999
 33
0.0
 14
722.72519031429988
 24
234.06559045029999
 34
0.0
 50
90.0
  0
DIMENSION
  5
5E1
  8
Éíû@É³
 62
     5
  2
*D118
 10
496.73181290690002
 20
27.9287061516
 30
0.0
 11
496.73181290690002
 21
30.9287061516
 31
0.0
 70
   128
  1
<>
 13
475.55149979650002
 23
27.9287061516
 33
0.0
 14
474.75149979650001
 24
33.928706151599997
 34
0.0
 50
90.0
  0
DIMENSION
  5
5F0
  8
Éíû@É³
 62
     5
  2
*D119
 10
496.73181290690002
 20
3.9287061516000001
 30
0.0
 11
496.73181290690002
 21
6.9287061515999993
 31
0.0
 70
   128
  1
<>
 13
474.75149979650001
 23
3.9287061516000001
 33
0.0
 14
475.55149979650002
 24
9.9287061516000001
 34
0.0
 50
90.0
  0
DIMENSION
  5
5FF
  8
Éíû@É³
 62
     5
  2
*D120
 10
268.27086307529999
 20
-235.95835134559999
 30
0.0
 11
305.77086307529999
 21
-235.95835134559999
 31
0.0
 70
   128
  1
<>
 13
268.27086307529999
 23
-191.45893499429999
 33
0.0
 14
343.27086307529999
 24
-191.45893499429999
 34
0.0
 50
180.0
  0
DIMENSION
  5
60E
  8
Éíû@É³
 62
     5
  2
*D121
 10
-31.729136924700001
 20
-235.95835134559999
 30
0.0
 11
5.7708630752999994
 21
-235.95835134559999
 31
0.0
 70
   128
  1
<>
 13
-31.729136924700001
 23
-191.45893499429999
 33
0.0
 14
43.270863075299999
 24
-191.45893499429999
 34
0.0
 50
180.0
  0
DIMENSION
  5
61D
  8
Éíû@É³
 62
     5
  2
*D122
 10
744.14010158439987
 20
234.06559045029999
 30
0.0
 11
744.14010158439987
 21
241.06559045029999
 31
0.0
 70
   128
  1
14
 13
722.72519031429988
 23
234.06559045029999
 33
0.0
 14
722.72519031429988
 24
248.06559045029999
 34
0.0
 50
90.0
  0
LINE
  5
61E
  8
┌▓È_1
  6
BORDER
 62
     3
 10
662.72519031429988
 20
174.06559045029999
 30
0.0
 11
727.72519031429988
 21
174.06559045029999
 31
0.0
  0
LINE
  5
61F
  8
┌▓È_1
 62
     5
 10
671.72519031429999
 20
236.56559045029999
 30
0.0
 11
692.72519031429977
 21
236.56559045029999
 31
0.0
  0
LINE
  5
620
  8
┌▓È_1
 62
     5
 10
671.72519031429999
 20
238.56559045029999
 30
0.0
 11
692.72519031429977
 21
238.56559045029999
 31
0.0
  0
LINE
  5
621
  8
┌▓È_1
 10
101.5514997965
 20
3.9287061516000001
 30
0.0
 11
-271.64850020350002
 21
3.9287061516000001
 31
0.0
  0
LINE
  5
622
  8
┌▓È_1
 62
     5
 10
468.15149979649999
 20
3.9287061516000001
 30
0.0
 11
460.85149979649998
 21
3.9287061516000001
 31
0.0
  0
LINE
  5
623
  8
┌▓È_1
 62
     5
 10
468.15149979649999
 20
3.9287061516000001
 30
0.0
 11
474.75149979650001
 21
3.9287061516000001
 31
0.0
  0
LINE
  5
624
  8
┌▓È_1
 62
     5
 10
474.75149979650001
 20
9.9287061516000001
 30
0.0
 11
474.75149979650001
 21
4.7287061515999991
 31
0.0
  0
LINE
  5
625
  8
┌▓È_1
 62
     5
 10
475.55149979650002
 20
9.9287061516000001
 30
0.0
 11
474.75149979650001
 21
9.9287061516000001
 31
0.0
  0
LINE
  5
626
  8
┌▓È_1
 62
     5
 10
467.35149979649998
 20
33.128706151599999
 30
0.0
 11
474.75149979650001
 21
33.128706151599999
 31
0.0
  0
LINE
  5
627
  8
┌▓È_1
 62
     5
 10
463.30149979650002
 20
32.928706151599997
 30
0.0
 11
465.80149979650002
 21
32.928706151599997
 31
0.0
  0
LINE
  5
628
  8
┌▓È_1
 10
-262.64889603680001
 20
109.56559045029999
 30
0.0
 11
465.85110396319988
 21
109.56559045029999
 31
0.0
  0
INSERT
  5
62A
  8
┌▓È_1
  6
BORDER
  2
CLUMP74
 10
0.0
 20
0.0
 30
0.0
  0
LINE
  5
635
  8
┌▓È_1
 10
101.5514997965
 20
18.128706151599999
 30
0.0
 11
-256.24850020349999
 21
18.128706151599999
 31
0.0
  0
LINE
  5
636
  8
┌▓È_1
 62
     5
 10
463.30149979650002
 20
30.9287061516
 30
0.0
 11
101.5514997965
 21
30.9287061516
 31
0.0
  0
LINE
  5
637
  8
┌▓È_1
 62
     5
 10
467.35149979649998
 20
33.928706151599997
 30
0.0
 11
101.5514997965
 21
33.928706151599997
 31
0.0
  0
LINE
  5
638
  8
┌▓È_1
 62
     5
 10
101.5514997965
 20
32.928706151599997
 30
0.0
 11
463.30149979650002
 21
32.928706151599997
 31
0.0
  0
LINE
  5
639
  8
┌▓È_1
 62
     5
 10
460.85149979649998
 20
3.9287061516000001
 30
0.0
 11
101.5514997965
 21
3.9287061516000001
 31
0.0
  0
LINE
  5
63A
  8
┌▓È_1
 62
     5
 10
466.55149979650002
 20
18.9287061516
 30
0.0
 11
101.5514997965
 21
18.9287061516
 31
0.0
  0
LINE
  5
63B
  8
┌▓È_1
 10
-271.64850020350002
 20
33.928706151599997
 30
0.0
 11
101.5514997965
 21
33.928706151599997
 31
0.0
  0
LINE
  5
63C
  8
┌▓È_1
 10
-272.44850020349998
 20
27.9287061516
 30
0.0
 11
101.5514997965
 21
27.9287061516
 31
0.0
  0
LINE
  5
63D
  8
┌▓È_1
 10
-255.4485332882
 20
9.9287061516000001
 30
0.0
 11
101.5514997965
 21
9.9287061516000001
 31
0.0
  0
LINE
  5
63E
  8
┌▓È_1
 62
     5
 10
671.72519031429999
 20
109.56559045029999
 30
0.0
 11
692.72519031429977
 21
109.56559045029999
 31
0.0
  0
INSERT
  5
640
  8
┌▓È_1
 62
     5
  2
CLUMP75
 10
0.0
 20
0.0
 30
0.0
  0
INSERT
  5
65C
  8
0
  6
CONTINUOUS
  2
*U208
 10
0.0
 20
0.0
 30
0.0
  0
INSERT
  5
65E
  8
Éíû@É³
  2
BALLON2
 10
0.0
 20
0.0
 30
0.0
  0
INSERT
  5
668
  8
┌▓È_1
  6
BORDER
 62
     5
  2
CLUMP76
 10
0.0
 20
0.0
 30
0.0
  0
LINE
  5
685
  8
┌▓È_1
 62
     5
 10
600.39798417149996
 20
114.7651190962
 30
0.0
 11
600.39798417149996
 21
233.36606180449999
 31
0.0
  0
LINE
  5
686
  8
┌▓È_1
 62
     5
 10
671.72519031429999
 20
111.56559045029999
 30
0.0
 11
692.72519031429977
 21
111.56559045029999
 31
0.0
  0
INSERT
  5
688
  8
┌▓È_1
 62
     5
  2
CLUMP77
 10
0.0
 20
0.0
 30
0.0
  0
LINE
  5
6A4
  8
┌▓È_1
 62
     5
 10
692.72519031429977
 20
237.06559045029999
 30
0.0
 11
692.72519031429977
 21
234.06559045029999
 31
0.0
  0
LINE
  5
6A5
  8
┌▓È_1
 10
409.10094771320001
 20
177.56500711699999
 30
0.0
 11
394.10094771320001
 21
177.56500711699999
 31
0.0
  0
LINE
  5
6A6
  8
┌▓È_1
 10
394.10094771320001
 20
170.56500711699999
 30
0.0
 11
409.10094771320001
 21
170.56500711699999
 31
0.0
  0
INSERT
  5
6A8
  8
┌▓È_1
  2
CLUMP78
 10
0.0
 20
0.0
 30
0.0
  0
ARC
  5
6AF
  8
┌▓È_1
 10
409.10094771320001
 20
174.06500711699999
 30
0.0
 40
3.5
 50
270.0
 51
90.0
  0
CIRCLE
  5
6B0
  8
┌▓È_1
 10
439.10094771320001
 20
174.06500711699999
 30
0.0
 40
7.5
  0
INSERT
  5
6B2
  8
┌▓È_1
  2
CLUMP79
 10
0.0
 20
0.0
 30
0.0
  0
INSERT
  5
6C6
  8
┌▓È_1
  2
CLUMP82
 10
0.0
 20
0.0
 30
0.0
  0
INSERT
  5
6CE
  8
┌▓È_1
  2
CLUMP83
 10
0.0
 20
0.0
 30
0.0
  0
LINE
  5
6D5
  8
┌▓È_1
 62
     5
 10
692.72519031429977
 20
111.06559045029999
 30
0.0
 11
692.72519031429977
 21
114.06559045029999
 31
0.0
  0
LINE
  5
6D6
  8
┌▓È_1
 62
     5
 10
722.72519031429988
 20
234.8655904503
 30
0.0
 11
722.72519031429988
 21
113.2655904503
 31
0.0
  0
LINE
  5
6D7
  8
┌▓È_1
 62
     5
 10
692.72519031429977
 20
109.56559045029999
 30
0.0
 11
692.72519031429977
 21
238.56559045029999
 31
0.0
  0
LINE
  5
6D8
  8
┌▓È_1
 10
-262.64889603680001
 20
238.56559045029999
 30
0.0
 11
465.85110396319988
 21
238.56559045029999
 31
0.0
  0
LINE
  5
6D9
  8
┌▓È_1
  6
HIDDEN
 62
     1
 10
-262.64889603680001
 20
111.56559045029999
 30
0.0
 11
465.85110396319988
 21
111.56559045029999
 31
0.0
  0
LINE
  5
6DA
  8
┌▓È_1
  6
HIDDEN
 62
     1
 10
-262.64889603680001
 20
236.56559045029999
 30
0.0
 11
465.85110396319988
 21
236.56559045029999
 31
0.0
  0
LINE
  5
6DB
  8
┌▓È_1
  6
BORDER
 62
     3
 10
-277.44850020349998
 20
174.06559045029999
 30
0.0
 11
480.55149979650002
 21
174.06559045029999
 31
0.0
  0
INSERT
  5
6DD
  8
┌▓È_1
  6
BORDER
 62
     5
  2
CLUMP84
 10
0.0
 20
0.0
 30
0.0
  0
LINE
  5
6E9
  8
┌▓È_1
 62
     5
 10
570.39798417150007
 20
108.2651190962
 30
0.0
 11
570.39798417150007
 21
174.06559045029999
 31
0.0
  0
LINE
  5
6EA
  8
┌▓È_1
 62
     5
 10
667.72519031429999
 20
108.2655904503
 30
0.0
 11
667.72519031429999
 21
239.8655904503
 31
0.0
  0
LINE
  5
6EB
  8
┌▓È_1
 62
     5
 10
669.72519031429999
 20
236.56559045029999
 30
0.0
 11
669.72519031429999
 21
111.56559045029999
 31
0.0
  0
LINE
  5
6EC
  8
┌▓È_1
 62
     5
 10
671.72519031429999
 20
236.56559045029999
 30
0.0
 11
671.72519031429999
 21
111.56559045029999
 31
0.0
  0
LINE
  5
6ED
  8
┌▓È_1
 62
     5
 10
475.55149979650002
 20
4.7287061515999991
 30
0.0
 11
475.55149979650002
 21
9.9287061516000001
 31
0.0
  0
LINE
  5
6EE
  8
┌▓È_1
 62
     5
 10
467.35149979649998
 20
4.7287061515999991
 30
0.0
 11
474.75149979650001
 21
4.7287061515999991
 31
0.0
  0
ARC
  5
6EF
  8
┌▓È_1
 62
     5
 10
474.75149979650001
 20
4.7287061515999991
 30
0.0
 40
0.8
 50
270.0
 51
0.0
  0
ARC
  5
6F0
  8
┌▓È_1
 62
     5
 10
467.35149979649998
 20
4.7287061515999991
 30
0.0
 40
0.8
 50
180.0
 51
270.0
  0
LINE
  5
6F1
  8
┌▓È_1
 10
445.0210193252999
 20
-205.95835166099999
 30
0.0
 11
445.0210193252999
 21
-76.958351661000009
 31
0.0
  0
LINE
  5
6F2
  8
┌▓È_1
 10
445.0210193252999
 20
-205.95835166099999
 30
0.0
 11
445.0210193252999
 21
-76.958351661000009
 31
0.0
  0
LINE
  5
6F3
  8
┌▓È_1
 62
     5
 10
614.07733135169997
 20
-78.958351661000009
 30
0.0
 11
614.07733135169997
 21
-203.95835166099999
 31
0.0
  0
LINE
  5
6F4
  8
┌▓È_1
 62
     5
 10
612.07733135169985
 20
-78.958351661000009
 30
0.0
 11
612.07733135169985
 21
-203.95835166099999
 31
0.0
  0
LINE
  5
6F5
  8
┌▓È_1
 62
     5
 10
548.66759484859995
 20
-78.958353010300002
 30
0.0
 11
548.66759484859995
 21
-203.95835166099999
 31
0.0
  0
LINE
  5
6F6
  8
┌▓È_1
 62
     5
 10
550.66759484859995
 20
-203.95835166099999
 30
0.0
 11
550.66759484859995
 21
-78.958351661000009
 31
0.0
  0
LINE
  5
6F7
  8
┌▓È_1
 62
     5
 10
465.80149979650002
 20
30.4287061516
 30
0.0
 11
465.80149979650002
 21
23.9287061516
 31
0.0
  0
ARC
  5
6F8
  8
┌▓È_1
 62
     5
 10
467.35149979649998
 20
33.128706151599999
 30
0.0
 40
0.8
 50
90.0
 51
180.0
  0
LINE
  5
6F9
  8
┌▓È_1
 62
     5
 10
463.30149979650002
 20
30.9287061516
 30
0.0
 11
465.80149979650002
 21
30.9287061516
 31
0.0
  0
LINE
  5
6FA
  8
┌▓È_1
 62
     5
 10
465.80149979650002
 20
30.4287061516
 30
0.0
 11
465.80149979650002
 21
32.928706151599997
 31
0.0
  0
LINE
  5
6FB
  8
┌▓È_1
 62
     5
 10
475.55149979650002
 20
27.9287061516
 30
0.0
 11
475.55149979650002
 21
33.128706151599999
 31
0.0
  0
ARC
  5
6FC
  8
┌▓È_1
 62
     5
 10
474.75149979650001
 20
33.128706151599999
 30
0.0
 40
0.8
 50
0.0
 51
90.0
  0
LINE
  5
6FD
  8
┌▓È_1
 62
     5
 10
474.75149979650001
 20
33.928706151599997
 30
0.0
 11
467.35149979649998
 21
33.928706151599997
 31
0.0
  0
LINE
  5
6FE
  8
┌▓È_1
 62
     5
 10
474.75149979650001
 20
33.128706151599999
 30
0.0
 11
474.75149979650001
 21
27.9287061516
 31
0.0
  0
LINE
  5
6FF
  8
┌▓È_1
 62
     5
 10
474.75149979650001
 20
27.9287061516
 30
0.0
 11
475.55149979650002
 21
27.9287061516
 31
0.0
  0
LINE
  5
700
  8
┌▓È_1
 62
     5
 10
474.75149979650001
 20
27.9287061516
 30
0.0
 11
467.35149979649998
 21
27.9287061516
 31
0.0
  0
LINE
  5
701
  8
┌▓È_1
 62
     5
 10
467.35149979649998
 20
18.9287061516
 30
0.0
 11
467.35149979649998
 21
33.128706151599999
 31
0.0
  0
LINE
  5
702
  8
┌▓È_1
 62
     5
 10
460.80149979650002
 20
18.9287061516
 30
0.0
 11
460.85149979649998
 21
18.9287061516
 31
0.0
  0
LINE
  5
703
  8
┌▓È_1
 62
     5
 10
466.55149979650002
 20
18.9287061516
 30
0.0
 11
466.55149979650002
 21
4.7287061515999991
 31
0.0
  0
INSERT
  5
704
  8
0
  6
CONTINUOUS
  2
*U210
 10
0.0
 20
0.0
 30
0.0
  0
LINE
  5
705
  8
┌▓È_1
 10
465.85110396319988
 20
109.56559045029999
 30
0.0
 11
465.85110396319988
 21
238.56559045029999
 31
0.0
  0
ARC
  5
706
  8
┌▓È_1
 62
     5
 10
550.66759484859995
 20
-78.958351661000009
 30
0.0
 40
2.0
 50
90.0
 51
180.0000386554
  0
LINE
  5
707
  8
┌▓È_1
 62
     5
 10
550.66759484859995
 20
-76.958351661000009
 30
0.0
 11
562.66759484859995
 21
-76.958351661000009
 31
0.0
  0
LINE
  5
708
  8
┌▓È_1
 62
     5
 10
635.07733135169997
 20
-76.958351661000009
 30
0.0
 11
635.07733135169997
 21
-78.958351661000009
 31
0.0
  0
LINE
  5
709
  8
┌▓È_1
  6
BORDER
 62
     3
 10
418.27086307529993
 20
-128.95893499429999
 30
0.0
 11
418.27086307529993
 21
-153.95893499429999
 31
0.0
  0
ARC
  5
70A
  8
┌▓È_1
 62
     5
 10
440.0210193252999
 20
-265.5602074441
 30
0.0
 40
5.0
 50
269.99999715709998
 51
0.0
  0
LINE
  5
70B
  8
┌▓È_1
 62
     5
 10
445.0210193252999
 20
-256.5602074441
 30
0.0
 11
445.0210193252999
 21
-265.5602074441
 31
0.0
  0
LINE
  5
70C
  8
┌▓È_1
 62
     5
 10
614.07733135169997
 20
-205.95835166099999
 30
0.0
 11
635.07733135169997
 21
-205.95835166099999
 31
0.0
  0
ARC
  5
70D
  8
┌▓È_1
 62
     5
 10
614.07733135169997
 20
-203.95835166099999
 30
0.0
 40
2.0
 50
180.0
 51
270.0
  0
LINE
  5
70E
  8
┌▓È_1
 62
     5
 10
614.07733135169997
 20
-203.95835166099999
 30
0.0
 11
635.07733135169997
 21
-203.95835166099999
 31
0.0
  0
LINE
  5
70F
  8
┌▓È_1
 62
     5
 10
562.66759484859995
 20
-205.95835166099999
 30
0.0
 11
562.66759484859995
 21
-203.95835166099999
 31
0.0
  0
ARC
  5
710
  8
┌▓È_1
 10
394.10094771320001
 20
174.06500711699999
 30
0.0
 40
3.5
 50
90.0
 51
270.0
  0
LINE
  5
711
  8
┌▓È_1
  6
BORDER
 62
     3
 10
439.10094771320001
 20
186.56500711699999
 30
0.0
 11
439.10094771320001
 21
161.56500711699999
 31
0.0
  0
LINE
  5
712
  8
┌▓È_1
  6
BORDER
 62
     3
 10
470.60149979649998
 20
174.0651842003
 30
0.0
 11
477.18367557779987
 21
174.0651842003
 31
0.0
  0
INSERT
  5
714
  8
┌▓È_1
  2
CLUMP85
 10
0.0
 20
0.0
 30
0.0
  0
INSERT
  5
728
  8
┌▓È_1
  2
CLUMP88
 10
0.0
 20
0.0
 30
0.0
  0
LINE
  5
72F
  8
┌▓È_1
  6
BORDER
 62
     3
 10
565.39798417149996
 20
174.06559045029999
 30
0.0
 11
605.39798417149996
 21
174.06559045029999
 31
0.0
  0
LINE
  5
730
  8
┌▓È_1
 62
     5
 10
570.39798417150007
 20
239.86606180449999
 30
0.0
 11
570.39798417150007
 21
174.06559045029999
 31
0.0
  0
INSERT
  5
732
  8
┌▓È_1
  6
BORDER
 62
     5
  2
CLUMP89
 10
0.0
 20
0.0
 30
0.0
  0
LINE
  5
74F
  8
┌▓È_1
 62
     5
 10
573.89798417149996
 20
236.56559045029999
 30
0.0
 11
573.39798417149996
 21
236.56559045029999
 31
0.0
  0
ARC
  5
750
  8
┌▓È_1
 62
     5
 10
671.72519031429999
 20
236.56559045029999
 30
0.0
 40
2.0
 50
90.0
 51
180.0
  0
LINE
  5
751
  8
┌▓È_1
 62
     5
 10
573.89798417149996
 20
111.56559045029999
 30
0.0
 11
573.39798417149996
 21
111.56559045029999
 31
0.0
  0
ARC
  5
752
  8
┌▓È_1
 62
     5
 10
671.72519031429999
 20
111.56559045029999
 30
0.0
 40
2.0
 50
180.0
 51
270.0
  0
ARC
  5
753
  8
┌▓È_1
 62
     5
 10
460.80149979650002
 20
23.9287061516
 30
0.0
 40
5.0
 50
270.0
 51
0.0
  0
LINE
  5
754
  8
┌▓È_1
 62
     5
 10
466.55149979650002
 20
33.128706151599999
 30
0.0
 11
466.55149979650002
 21
18.9287061516
 31
0.0
  0
LINE
  5
755
  8
┌▓È_1
 62
     5
 10
467.35149979649998
 20
18.9287061516
 30
0.0
 11
467.35149979649998
 21
4.7287061515999991
 31
0.0
  0
LINE
  5
756
  8
┌▓È_1
 10
373.27086307529999
 20
-144.95893499429999
 30
0.0
 11
388.27086307529999
 21
-144.95893499429999
 31
0.0
  0
ARC
  5
757
  8
┌▓È_1
 10
388.27086307529999
 20
-141.45893499429999
 30
0.0
 40
3.5
 50
270.0
 51
90.0
  0
ARC
  5
758
  8
┌▓È_1
 10
373.27086307529999
 20
-141.45893499429999
 30
0.0
 40
3.5
 50
90.0
 51
270.0
  0
INSERT
  5
75A
  8
┌▓È_1
  2
CLUMP90
 10
0.0
 20
0.0
 30
0.0
  0
INSERT
  5
762
  8
┌▓È_1
  2
CLUMP91
 10
0.0
 20
0.0
 30
0.0
  0
ARC
  5
769
  8
┌▓È_1
 10
334.10094771320001
 20
174.06500711699999
 30
0.0
 40
3.5
 50
270.0
 51
90.0
  0
LINE
  5
76A
  8
┌▓È_1
 10
334.10094771320001
 20
177.56500711699999
 30
0.0
 11
319.10094771320001
 21
177.56500711699999
 31
0.0
  0
LINE
  5
76B
  8
┌▓È_1
 10
319.10094771320001
 20
170.56500711699999
 30
0.0
 11
334.10094771320001
 21
170.56500711699999
 31
0.0
  0
ARC
  5
76C
  8
┌▓È_1
 62
     5
 10
614.07733135169997
 20
-78.958351661000009
 30
0.0
 40
2.0
 50
90.0
 51
180.0
  0
LINE
  5
76D
  8
┌▓È_1
 62
     5
 10
614.07733135169997
 20
-76.958351661000009
 30
0.0
 11
635.07733135169997
 21
-76.958351661000009
 31
0.0
  0
INSERT
  5
76F
  8
┌▓È_1
  2
CLUMP92
 10
0.0
 20
0.0
 30
0.0
  0
INSERT
  5
783
  8
┌▓È_1
  2
CLUMP95
 10
0.0
 20
0.0
 30
0.0
  0
INSERT
  5
78B
  8
┌▓È_1
  2
CLUMP96
 10
0.0
 20
0.0
 30
0.0
  0
CIRCLE
  5
792
  8
┌▓È_1
 10
418.27086307529993
 20
-141.45893499429999
 30
0.0
 40
7.5
  0
LINE
  5
793
  8
┌▓È_1
  6
BORDER
 62
     3
 10
-288.47898067469998
 20
-141.45835166099999
 30
0.0
 11
450.0210193252999
 21
-141.45835166099999
 31
0.0
  0
LINE
  5
794
  8
┌▓È_1
 10
-283.47898067469998
 20
-205.95835166099999
 30
0.0
 11
445.0210193252999
 21
-205.95835166099999
 31
0.0
  0
LINE
  5
795
  8
┌▓È_1
 10
-283.47898067469998
 20
-76.958351661000009
 30
0.0
 11
445.0210193252999
 21
-76.958351661000009
 31
0.0
  0
LINE
  5
796
  8
┌▓È_1
  6
HIDDEN
 62
     1
 10
-283.47898067469998
 20
-203.95835166099999
 30
0.0
 11
445.0210193252999
 21
-203.95835166099999
 31
0.0
  0
LINE
  5
797
  8
┌▓È_1
  6
HIDDEN
 62
     1
 10
-283.47898067469998
 20
-78.958351661000009
 30
0.0
 11
445.0210193252999
 21
-78.958351661000009
 31
0.0
  0
INSERT
  5
799
  8
┌▓È_1
  2
CLUMP97
 10
0.0
 20
0.0
 30
0.0
  0
LINE
  5
7AC
  8
┌▓È_1
  6
HIDDEN
 62
     1
 10
-283.47898067469998
 20
-258.5602074441
 30
0.0
 11
445.0210193252999
 21
-258.5602074441
 31
0.0
  0
LINE
  5
7AD
  8
┌▓È_1
 62
     5
 10
-283.47898067469998
 20
-256.5602074441
 30
0.0
 11
445.0210193252999
 21
-256.5602074441
 31
0.0
  0
LINE
  5
7AE
  8
┌▓È_1
 62
     5
 10
440.02101907730002
 20
-270.5602074441
 30
0.0
 11
-278.47898071140003
 21
-270.5602074441
 31
0.0
  0
LINE
  5
7AF
  8
┌▓È_1
 62
     5
 10
692.72519031429977
 20
239.06559045029999
 30
0.0
 11
692.72519031429977
 21
238.56559045029999
 31
0.0
  0
LINE
  5
7B0
  8
┌▓È_1
 62
     5
 10
550.66759484859995
 20
-78.958351661000009
 30
0.0
 11
562.66759484859995
 21
-78.958351661000009
 31
0.0
  0
ARC
  5
7B1
  8
┌▓È_1
 10
298.27086307529999
 20
-141.45893499429999
 30
0.0
 40
3.5
 50
90.0
 51
270.0
  0
ARC
  5
7B2
  8
┌▓È_1
 10
-1.729136924699999
 20
-141.45893499429999
 30
0.0
 40
3.5
 50
90.0
 51
270.0
  0
INSERT
  5
7B4
  8
┌▓È_1
  2
CLUMP100
 10
0.0
 20
0.0
 30
0.0
  0
INSERT
  5
7C8
  8
┌▓È_1
  2
CLUMP103
 10
0.0
 20
0.0
 30
0.0
  0
ARC
  5
7CF
  8
┌▓È_1
 10
319.10094771320001
 20
174.06500711699999
 30
0.0
 40
3.5
 50
90.0
 51
270.0
  0
INSERT
  5
7D1
  8
┌▓È_1
  2
CLUMP104
 10
0.0
 20
0.0
 30
0.0
  0
ARC
  5
7D8
  8
┌▓È_1
 10
313.27086307529999
 20
-141.45893499429999
 30
0.0
 40
3.5
 50
270.0
 51
90.0
  0
LINE
  5
7D9
  8
┌▓È_1
 10
313.27086307529999
 20
-137.95893499429999
 30
0.0
 11
298.27086307529999
 21
-137.95893499429999
 31
0.0
  0
LINE
  5
7DA
  8
┌▓È_1
 10
298.27086307529999
 20
-144.95893499429999
 30
0.0
 11
313.27086307529999
 21
-144.95893499429999
 31
0.0
  0
INSERT
  5
7DC
  8
┌▓È_1
  2
CLUMP105
 10
0.0
 20
0.0
 30
0.0
  0
INSERT
  5
7F0
  8
┌▓È_1
  2
CLUMP108
 10
0.0
 20
0.0
 30
0.0
  0
INSERT
  5
7F8
  8
┌▓È_1
  2
CLUMP109
 10
0.0
 20
0.0
 30
0.0
  0
LINE
  5
7FF
  8
┌▓È_1
 62
     5
 10
614.07733135169997
 20
-78.958351661000009
 30
0.0
 11
635.07733135169997
 21
-78.958351661000009
 31
0.0
  0
LINE
  5
800
  8
┌▓È_1
 62
     5
 10
562.66759484859995
 20
-76.958351661000009
 30
0.0
 11
562.66759484859995
 21
-78.958351661000009
 31
0.0
  0
LINE
  5
801
  8
┌▓È_1
 10
13.270863075299999
 20
-137.95893499429999
 30
0.0
 11
-1.729136924699999
 21
-137.95893499429999
 31
0.0
  0
LINE
  5
802
  8
┌▓È_1
 10
-1.729136924699999
 20
-144.95893499429999
 30
0.0
 11
13.270863075299999
 21
-144.95893499429999
 31
0.0
  0
LINE
  5
803
  8
┌▓È_1
 62
     5
 10
550.66759484859995
 20
-203.95835166099999
 30
0.0
 11
562.66759484859995
 21
-203.95835166099999
 31
0.0
  0
ARC
  5
804
  8
┌▓È_1
 62
     5
 10
550.66759484859995
 20
-203.95835166099999
 30
0.0
 40
2.0
 50
180.0
 51
270.00001020809998
  0
LINE
  5
805
  8
┌▓È_1
 62
     5
 10
550.66759520489995
 20
-205.95835166099999
 30
0.0
 11
562.66759484859995
 21
-205.95835166099999
 31
0.0
  0
LINE
  5
806
  8
┌▓È_1
  6
BORDER
 62
     3
 10
542.66759484859995
 20
-141.45835166099999
 30
0.0
 11
567.66759484859995
 21
-141.45835166099999
 31
0.0
  0
LINE
  5
807
  8
┌▓È_1
 62
     5
 10
635.07733135169997
 20
-203.95835166099999
 30
0.0
 11
635.07733135169997
 21
-205.95835166099999
 31
0.0
  0
LINE
  5
808
  8
┌▓È_1
  6
BORDER
 62
     3
 10
605.07733135169985
 20
-141.45835166099999
 30
0.0
 11
640.07733135169985
 21
-141.45835166099999
 31
0.0
  0
INSERT
  5
809
  8
0
  6
CONTINUOUS
  2
*U211
 10
0.0
 20
0.0
 30
0.0
  0
INSERT
  5
80A
  8
0
  6
CONTINUOUS
  2
*U212
 10
0.0
 20
0.0
 30
0.0
  0
LINE
  5
80B
  8
┌▓È_1
 10
388.27086307529999
 20
-137.95893499429999
 30
0.0
 11
373.27086307529999
 21
-137.95893499429999
 31
0.0
  0
ENDSEC
  0
EOF
