  0
SECTION
  2
HEADER
  9
$ACADVER
  1
AC1009
  9
$INSBASE
 10
0.0
 20
0.0
 30
0.0
  9
$EXTMIN
 10
621.96680962630262
 20
-400.2269839466457
 30
-0.0015258207003583
  9
$EXTMAX
 10
1442.0001626117571
 20
176.7282284557391
 30
0.0000000349246037
  9
$LIMMIN
 10
0.0
 20
0.0
  9
$LIMMAX
 10
0.0
 20
0.0
  9
$ORTHOMODE
 70
     0
  9
$REGENMODE
 70
     1
  9
$FILLMODE
 70
     1
  9
$QTEXTMODE
 70
     0
  9
$MIRRTEXT
 70
     1
  9
$DRAGMODE
 70
     2
  9
$LTSCALE
 40
1.0
  9
$OSMODE
 70
    31
  9
$ATTMODE
 70
     1
  9
$TEXTSIZE
 40
0.0
  9
$TRACEWID
 40
0.05
  9
$TEXTSTYLE
  7
STANDARD
  9
$CLAYER
  8
0
  9
$CELTYPE
  6
CONTINUOUS
  9
$CECOLOR
 62
   256
  9
$DIMSCALE
 40
1.0
  9
$DIMASZ
 40
0.18
  9
$DIMEXO
 40
0.0625
  9
$DIMDLI
 40
0.38
  9
$DIMRND
 40
0.0
  9
$DIMDLE
 40
0.0
  9
$DIMEXE
 40
0.18
  9
$DIMTP
 40
0.0
  9
$DIMTM
 40
0.0
  9
$DIMTXT
 40
0.18
  9
$DIMCEN
 40
0.09
  9
$DIMTSZ
 40
0.0
  9
$DIMTOL
 70
     0
  9
$DIMLIM
 70
     0
  9
$DIMTIH
 70
     1
  9
$DIMTOH
 70
     1
  9
$DIMSE1
 70
     0
  9
$DIMSE2
 70
     0
  9
$DIMTAD
 70
     0
  9
$DIMZIN
 70
     0
  9
$DIMBLK
  1

  9
$DIMASO
 70
     1
  9
$DIMSHO
 70
     1
  9
$DIMPOST
  1

  9
$DIMAPOST
  1

  9
$DIMALT
 70
     0
  9
$DIMALTD
 70
     2
  9
$DIMALTF
 40
25.399999999999999
  9
$DIMLFAC
 40
1.0
  9
$DIMTOFL
 70
     0
  9
$DIMTVP
 40
0.0
  9
$DIMTIX
 70
     0
  9
$DIMSOXD
 70
     0
  9
$DIMSAH
 70
     0
  9
$DIMBLK1
  1

  9
$DIMBLK2
  1

  9
$DIMSTYLE
  2
STANDARD
  9
$DIMCLRD
 70
     0
  9
$DIMCLRE
 70
     0
  9
$DIMCLRT
 70
     0
  9
$DIMTFAC
 40
1.0
  9
$DIMGAP
 40
0.09
  9
$LUNITS
 70
     2
  9
$LUPREC
 70
     4
  9
$SKETCHINC
 40
0.1
  9
$FILLETRAD
 40
0.0
  9
$AUNITS
 70
     0
  9
$AUPREC
 70
     0
  9
$MENU
  1
acad
  9
$ELEVATION
 40
0.0
  9
$PELEVATION
 40
0.0
  9
$THICKNESS
 40
0.0
  9
$LIMCHECK
 70
     0
  9
$BLIPMODE
 70
     0
  9
$CHAMFERA
 40
0.0
  9
$CHAMFERB
 40
0.0
  9
$SKPOLY
 70
     0
  9
$TDCREATE
 40
2454859.7956362031
  9
$TDUPDATE
 40
2454859.7962006251
  9
$TDINDWG
 40
0.0006168634
  9
$TDUSRTIMER
 40
0.0006135995
  9
$USRTIMER
 70
     1
  9
$ANGBASE
 50
0.0
  9
$ANGDIR
 70
     0
  9
$PDMODE
 70
     3
  9
$PDSIZE
 40
-1.0
  9
$PLINEWID
 40
0.0
  9
$COORDS
 70
     2
  9
$SPLFRAME
 70
     0
  9
$SPLINETYPE
 70
     6
  9
$SPLINESEGS
 70
     8
  9
$ATTDIA
 70
     0
  9
$ATTREQ
 70
     1
  9
$HANDLING
 70
     1
  9
$HANDSEED
  5
8BA
  9
$SURFTAB1
 70
     6
  9
$SURFTAB2
 70
     6
  9
$SURFTYPE
 70
     6
  9
$SURFU
 70
     6
  9
$SURFV
 70
     6
  9
$UCSNAME
  2

  9
$UCSORG
 10
0.0
 20
0.0
 30
0.0
  9
$UCSXDIR
 10
1.0
 20
0.0
 30
0.0
  9
$UCSYDIR
 10
0.0
 20
1.0
 30
0.0
  9
$PUCSNAME
  2

  9
$PUCSORG
 10
0.0
 20
0.0
 30
0.0
  9
$PUCSXDIR
 10
1.0
 20
0.0
 30
0.0
  9
$PUCSYDIR
 10
0.0
 20
1.0
 30
0.0
  9
$USERI1
 70
     0
  9
$USERI2
 70
     0
  9
$USERI3
 70
     0
  9
$USERI4
 70
     0
  9
$USERI5
 70
     0
  9
$USERR1
 40
0.0
  9
$USERR2
 40
0.0
  9
$USERR3
 40
0.0
  9
$USERR4
 40
0.0
  9
$USERR5
 40
0.0
  9
$WORLDVIEW
 70
     1
  9
$SHADEDGE
 70
     3
  9
$SHADEDIF
 70
    70
  9
$TILEMODE
 70
     1
  9
$MAXACTVP
 70
    16
  9
$PLIMCHECK
 70
     0
  9
$PEXTMIN
 10
1.0000000000000000E+020
 20
1.0000000000000000E+020
 30
1.0000000000000000E+020
  9
$PEXTMAX
 10
-1.0000000000000000E+020
 20
-1.0000000000000000E+020
 30
-1.0000000000000000E+020
  9
$PLIMMIN
 10
0.0
 20
0.0
  9
$PLIMMAX
 10
12.0
 20
9.0
  9
$UNITMODE
 70
     0
  9
$VISRETAIN
 70
     0
  9
$PLINEGEN
 70
     1
  9
$PSLTSCALE
 70
     0
  0
ENDSEC
  0
SECTION
  2
TABLES
  0
TABLE
  2
VPORT
 70
     2
  0
VPORT
  2
*ACTIVE
 70
     0
 10
0.0
 20
0.0
 11
1.0
 21
1.0
 12
1031.98348611903
 22
-111.7493777454533
 13
0.0
 23
0.0
 14
1.0
 24
1.0
 15
0.0
 25
0.0
 16
0.0
 26
0.0
 36
1.0
 17
0.0
 27
0.0
 37
0.0
 40
581.74322246381541
 41
1.6343490304709141
 42
50.0
 43
0.0
 44
0.0
 50
0.0
 51
0.0
 71
     0
 72
   100
 73
     1
 74
     1
 75
     0
 76
     0
 77
     0
 78
     0
  0
ENDTAB
  0
TABLE
  2
LTYPE
 70
    11
  0
LTYPE
  2
CONTINUOUS
 70
     0
  3
Solid line
 72
    65
 73
     0
 40
0.0
  0
LTYPE
  2
DOT
 70
     0
  3
. . . . . . . . 
 72
    65
 73
     2
 40
1.0
 49
0.0
 49
-1.0
  0
LTYPE
  2
DASHED
 70
     0
  3
___  ___  ___  ___  
 72
    65
 73
     2
 40
4.0
 49
3.0
 49
-1.0
  0
LTYPE
  2
HIDDEN
 70
     0
  3
__ __ __ __ 
 72
    65
 73
     2
 40
3.0
 49
2.0
 49
-1.0
  0
LTYPE
  2
STITCH
 70
     0
  3
_ _ _ _ 
 72
    65
 73
     2
 40
2.0
 49
1.0
 49
-1.0
  0
LTYPE
  2
CENTER
 70
     0
  3
______  __  ______  __  
 72
    65
 73
     4
 40
43.0
 49
40.0
 49
-1.0
 49
1.0
 49
-1.0
  0
LTYPE
  2
DASHDOT
 70
     0
  3
____ . ____ . 
 72
    65
 73
     4
 40
32.0
 49
30.0
 49
-1.0
 49
0.0
 49
-1.0
  0
LTYPE
  2
BORDER
 70
     0
  3
__ . __ . 
 72
    65
 73
     4
 40
22.0
 49
20.0
 49
-1.0
 49
0.0
 49
-1.0
  0
LTYPE
  2
CUTTING
 70
     0
  3
________   ___   ___   
 72
    65
 73
     6
 40
45.0
 49
40.0
 49
-1.0
 49
1.0
 49
-1.0
 49
1.0
 49
-1.0
  0
LTYPE
  2
PHANTOM
 70
     0
  3
______  __  __  
 72
    65
 73
     6
 40
35.0
 49
30.0
 49
-1.0
 49
1.0
 49
-1.0
 49
1.0
 49
-1.0
  0
LTYPE
  2
DIVIDE
 70
     0
  3
____ . . ____ . . 
 72
    65
 73
     6
 40
23.0
 49
20.0
 49
-1.0
 49
0.0
 49
-1.0
 49
0.0
 49
-1.0
  0
ENDTAB
  0
TABLE
  2
LAYER
 70
     5
  0
LAYER
  2
0
 70
     0
 62
     7
  6
CONTINUOUS
  0
LAYER
  2
図枠
 70
     0
 62
     7
  6
CONTINUOUS
  0
LAYER
  2
ﾚｲﾔ_1
 70
     0
 62
     7
  6
CONTINUOUS
  0
LAYER
  2
寸法線
 70
     0
 62
     7
  6
CONTINUOUS
  0
LAYER
  2
改訂
 70
     0
 62
     7
  6
CONTINUOUS
  0
ENDTAB
  0
TABLE
  2
STYLE
 70
     1
  0
STYLE
  2
STANDARD
 70
     0
 40
0.0
 41
1.0
 50
0.0
 71
     0
 42
0.0
  3
txt
  4
extfont
  0
ENDTAB
  0
TABLE
  2
VIEW
 70
     0
  0
ENDTAB
  0
TABLE
  2
UCS
 70
     0
  0
ENDTAB
  0
TABLE
  2
APPID
 70
     2
  0
APPID
  2
ACAD
 70
     0
  0
APPID
  2
DCO15
 70
     0
  0
ENDTAB
  0
TABLE
  2
DIMSTYLE
 70
     4
  0
DIMSTYLE
  2
STANDARD
 70
     0
  3

  4

  5

  6

  7

 40
1.0
 41
0.18
 42
0.0625
 43
0.38
 44
0.18
 45
0.0
 46
0.0
 47
0.0
 48
0.0
140
0.18
141
0.09
142
0.0
143
25.399999999999999
144
1.0
145
0.0
146
1.0
147
0.09
 71
     0
 72
     0
 73
     1
 74
     1
 75
     0
 76
     0
 77
     0
 78
     0
170
     0
171
     2
172
     0
173
     0
174
     0
175
     0
176
     0
177
     0
178
     0
  0
DIMSTYLE
  2
VELDIM0
 70
     0
  3

  4

  5

  6

  7

 40
1.0
 41
6.0
 42
0.0625
 43
0.38
 44
1.25
 45
0.0
 46
5.0
 47
0.0
 48
0.0
140
7.1966662884000003
141
0.09
142
0.0
143
25.399999999999999
144
1.0
145
0.0
146
1.0
147
0.09
 71
     0
 72
     0
 73
     0
 74
     0
 75
     0
 76
     0
 77
     0
 78
     8
170
     0
171
     2
172
     0
173
     0
174
     0
175
     0
176
     0
177
     0
178
     0
  0
DIMSTYLE
  2
VELDIM1
 70
     0
  3

  4

  5

  6

  7

 40
1.0
 41
6.0
 42
0.0625
 43
0.38
 44
1.0
 45
0.0
 46
5.0
 47
0.0
 48
0.0
140
5.9972220420999998
141
0.09
142
0.0
143
25.399999999999999
144
1.0
145
0.0
146
1.0
147
0.09
 71
     0
 72
     0
 73
     0
 74
     0
 75
     0
 76
     0
 77
     0
 78
     8
170
     0
171
     2
172
     0
173
     0
174
     0
175
     0
176
     0
177
     0
178
     0
  0
DIMSTYLE
  2
VELDIM2
 70
     0
  3

  4

  5

  6

  7

 40
1.0
 41
6.0
 42
0.0625
 43
0.38
 44
1.25
 45
0.0
 46
5.0
 47
0.0
 48
0.0
140
5.9972220420999998
141
0.09
142
0.0
143
25.399999999999999
144
1.0
145
0.0
146
1.0
147
0.09
 71
     0
 72
     0
 73
     0
 74
     0
 75
     0
 76
     0
 77
     0
 78
     8
170
     0
171
     2
172
     0
173
     0
174
     0
175
     0
176
     0
177
     0
178
     0
  0
ENDTAB
  0
ENDSEC
  0
SECTION
  2
BLOCKS
  0
BLOCK
  8
0
  2
$MODEL_SPACE
 70
     0
 10
0.0
 20
0.0
 30
0.0
  3
$MODEL_SPACE
  1

  0
ENDBLK
  5
E
  8
0
  0
BLOCK
 67
     1
  8
0
  2
$PAPER_SPACE
 70
     0
 10
0.0
 20
0.0
 30
0.0
  3
$PAPER_SPACE
  1

  0
ENDBLK
  5
10
 67
     1
  8
0
  0
BLOCK
  8
0
  2
CLUMP0
 70
     0
 10
0.0
 20
0.0
 30
0.0
  3
CLUMP0
  1

  0
LINE
  5
34
  8
図枠
 10
1259.9961542448
 20
-305.74937908869998
 30
0.0
 11
1259.9961542448
 21
-295.74937908869998
 31
0.0
  0
LINE
  5
35
  8
図枠
 10
1141.9961542448
 20
-305.74937908869998
 30
0.0
 11
1141.9961542448
 21
-295.74937908869998
 31
0.0
  0
LINE
  5
36
  8
図枠
 10
1159.9961542448
 20
-305.74937908869998
 30
0.0
 11
1159.9961542448
 21
-295.74937908869998
 31
0.0
  0
LINE
  5
37
  8
図枠
 10
1369.9961542448
 20
-305.74937908869998
 30
0.0
 11
1369.9961542448
 21
-295.74937908869998
 31
0.0
  0
LINE
  5
38
  8
図枠
 10
1351.9961542448
 20
-305.74937908869998
 30
0.0
 11
1351.9961542448
 21
-295.74937908869998
 31
0.0
  0
LINE
  5
39
  8
図枠
 10
1431.9961542448
 20
-295.74937908869998
 30
0.0
 11
1141.9961542448
 21
-295.74937908869998
 31
0.0
  0
ENDBLK
  5
3A
  8
0
  0
BLOCK
  8
0
  2
CLUMP1
 70
     0
 10
0.0
 20
0.0
 30
0.0
  3
CLUMP1
  1

  0
LINE
  5
3E
  8
図枠
 10
1259.9961542448
 20
-295.74937908869998
 30
0.0
 11
1259.9961542448
 21
-285.74937908869998
 31
0.0
  0
LINE
  5
3F
  8
図枠
 10
1141.9961542448
 20
-295.74937908869998
 30
0.0
 11
1141.9961542448
 21
-285.74937908869998
 31
0.0
  0
LINE
  5
40
  8
図枠
 10
1159.9961542448
 20
-295.74937908869998
 30
0.0
 11
1159.9961542448
 21
-285.74937908869998
 31
0.0
  0
LINE
  5
41
  8
図枠
 10
1369.9961542448
 20
-295.74937908869998
 30
0.0
 11
1369.9961542448
 21
-285.74937908869998
 31
0.0
  0
LINE
  5
42
  8
図枠
 10
1351.9961542448
 20
-295.74937908869998
 30
0.0
 11
1351.9961542448
 21
-285.74937908869998
 31
0.0
  0
LINE
  5
43
  8
図枠
 10
1431.9961542448
 20
-285.74937908869998
 30
0.0
 11
1141.9961542448
 21
-285.74937908869998
 31
0.0
  0
ENDBLK
  5
44
  8
0
  0
BLOCK
  8
0
  2
*D2
 70
     1
 10
0.0
 20
0.0
 30
0.0
  3
*D2
  1

  0
TEXT
  5
50
  8
0
 62
     0
 10
647.3443396273999
 20
-228.19727928469999
 30
0.0
 40
7.1966662884000003
  1
2-Φ15
 50
26.776143397399998
  0
LINE
  5
51
  8
0
 62
     0
 10
700.78678233899996
 20
-204.54872735219999
 30
0.0
 11
648.67933855959996
 21
-230.84286454560001
 31
0.0
  0
SOLID
  5
52
  8
0
 62
     0
 10
700.78678233899996
 20
-204.54872735219999
 30
0.0
 11
696.10590025940007
 21
-208.5909226663
 31
0.0
 12
694.75438270919994
 22
-205.91260223899999
 32
0.0
 13
696.76930169800005
 23
-206.57600367750001
 33
0.0
  0
ENDBLK
  5
53
  8
0
  0
BLOCK
  8
0
  2
*D3
 70
     1
 10
0.0
 20
0.0
 30
0.0
  3
*D3
  1

  0
TEXT
  5
5A
  8
0
 62
     0
 10
861.19643661860005
 20
-139.678410668
 30
0.0
 40
5.9972220420999998
  1
378.5
  0
LINE
  5
5B
  8
0
 62
     0
 10
1059.2658807980999
 20
-159.7367439695
 30
0.0
 11
1059.2658807980999
 21
-140.7367439695
 31
0.0
  0
LINE
  5
5C
  8
0
 62
     0
 10
680.76588079809994
 20
-159.7367439695
 30
0.0
 11
680.76588079809994
 21
-140.7367439695
 31
0.0
  0
LINE
  5
5D
  8
0
 62
     0
 10
1059.2658807980999
 20
-141.7367439695
 30
0.0
 11
882.36310264940005
 21
-141.7367439695
 31
0.0
  0
LINE
  5
5E
  8
0
 62
     0
 10
1059.2658807980999
 20
-141.7367439695
 30
0.0
 11
857.66865894670002
 21
-141.7367439695
 31
0.0
  0
LINE
  5
5F
  8
0
 62
     0
 10
680.76588079809994
 20
-141.7367439695
 30
0.0
 11
882.36310264940005
 21
-141.7367439695
 31
0.0
  0
LINE
  5
60
  8
0
 62
     0
 10
680.76588079809994
 20
-141.7367439695
 30
0.0
 11
857.66865894670002
 21
-141.7367439695
 31
0.0
  0
LINE
  5
61
  8
0
 62
     0
 10
680.76588079809994
 20
-141.7367439695
 30
0.0
 11
685.76588079809994
 21
-141.7367439695
 31
0.0
  0
SOLID
  5
62
  8
0
 62
     0
 10
680.76588079809994
 20
-141.7367439695
 30
0.0
 11
686.76588079809994
 21
-140.2367439695
 31
0.0
 12
686.76588079809994
 22
-143.2367439695
 32
0.0
 13
685.26588079809994
 23
-141.7367439695
 33
0.0
  0
LINE
  5
63
  8
0
 62
     0
 10
1059.2658807980999
 20
-141.7367439695
 30
0.0
 11
1054.2658807980999
 21
-141.7367439695
 31
0.0
  0
SOLID
  5
64
  8
0
 62
     0
 10
1059.2658807980999
 20
-141.7367439695
 30
0.0
 11
1053.2658807980999
 21
-143.2367439695
 31
0.0
 12
1053.2658807980999
 22
-140.2367439695
 32
0.0
 13
1054.7658807980999
 23
-141.7367439695
 33
0.0
  0
ENDBLK
  5
65
  8
0
  0
BLOCK
  8
0
  2
*D4
 70
     1
 10
0.0
 20
0.0
 30
0.0
  3
*D4
  1

  0
TEXT
  5
69
  8
0
 62
     0
 10
1077.2075474966
 20
-240.5422993132
 30
0.0
 40
5.9972220420999998
  1
14.5
 50
90.0
  0
LINE
  5
6A
  8
0
 62
     0
 10
1061.2658807980999
 20
-240.7367439695
 30
0.0
 11
1080.2658807980999
 21
-240.7367439695
 31
0.0
  0
LINE
  5
6B
  8
0
 62
     0
 10
1045.5158807980999
 20
-226.2367439695
 30
0.0
 11
1080.2658807980999
 21
-226.2367439695
 31
0.0
  0
LINE
  5
6C
  8
0
 62
     0
 10
1079.2658807980999
 20
-240.7367439695
 30
0.0
 11
1079.2658807980999
 21
-240.7367439695
 31
0.0
  0
LINE
  5
6D
  8
0
 62
     0
 10
1079.2658807980999
 20
-240.7367439695
 30
0.0
 11
1079.2658807980999
 21
-226.2367439695
 31
0.0
  0
LINE
  5
6E
  8
0
 62
     0
 10
1079.2658807980999
 20
-226.2367439695
 30
0.0
 11
1079.2658807980999
 21
-240.7367439695
 31
0.0
  0
LINE
  5
6F
  8
0
 62
     0
 10
1079.2658807980999
 20
-226.2367439695
 30
0.0
 11
1079.2658807980999
 21
-226.2367439695
 31
0.0
  0
LINE
  5
70
  8
0
 62
     0
 10
1079.2658807980999
 20
-226.2367439695
 30
0.0
 11
1079.2658807980999
 21
-231.2367439695
 31
0.0
  0
SOLID
  5
71
  8
0
 62
     0
 10
1079.2658807980999
 20
-226.2367439695
 30
0.0
 11
1080.7658807980999
 21
-232.2367439695
 31
0.0
 12
1077.7658807980999
 22
-232.2367439695
 32
0.0
 13
1079.2658807980999
 23
-230.7367439695
 33
0.0
  0
LINE
  5
72
  8
0
 62
     0
 10
1079.2658807980999
 20
-240.7367439695
 30
0.0
 11
1079.2658807980999
 21
-235.7367439695
 31
0.0
  0
SOLID
  5
73
  8
0
 62
     0
 10
1079.2658807980999
 20
-240.7367439695
 30
0.0
 11
1077.7658807980999
 21
-234.7367439695
 31
0.0
 12
1080.7658807980999
 22
-234.7367439695
 32
0.0
 13
1079.2658807980999
 23
-236.2367439695
 33
0.0
  0
ENDBLK
  5
74
  8
0
  0
BLOCK
  8
0
  2
*D5
 70
     1
 10
0.0
 20
0.0
 30
0.0
  3
*D5
  1

  0
TEXT
  5
78
  8
0
 62
     0
 10
1176.0665883193999
 20
-139.678410668
 30
0.0
 40
5.9972220420999998
  1
23
  0
LINE
  5
79
  8
0
 62
     0
 10
1191.0943659912
 20
-159.7367439695
 30
0.0
 11
1191.0943659912
 21
-140.7367439695
 31
0.0
  0
LINE
  5
7A
  8
0
 62
     0
 10
1168.0943659912
 20
-161.2367439695
 30
0.0
 11
1168.0943659912
 21
-140.7367439695
 31
0.0
  0
LINE
  5
7B
  8
0
 62
     0
 10
1191.0943659912
 20
-141.7367439695
 30
0.0
 11
1186.6499213348
 21
-141.7367439695
 31
0.0
  0
LINE
  5
7C
  8
0
 62
     0
 10
1191.0943659912
 20
-141.7367439695
 30
0.0
 11
1172.5388106476
 21
-141.7367439695
 31
0.0
  0
LINE
  5
7D
  8
0
 62
     0
 10
1168.0943659912
 20
-141.7367439695
 30
0.0
 11
1186.6499213348
 21
-141.7367439695
 31
0.0
  0
LINE
  5
7E
  8
0
 62
     0
 10
1168.0943659912
 20
-141.7367439695
 30
0.0
 11
1172.5388106476
 21
-141.7367439695
 31
0.0
  0
LINE
  5
7F
  8
0
 62
     0
 10
1168.0943659912
 20
-141.7367439695
 30
0.0
 11
1163.0943659912
 21
-141.7367439695
 31
0.0
  0
SOLID
  5
80
  8
0
 62
     0
 10
1168.0943659912
 20
-141.7367439695
 30
0.0
 11
1162.0943659912
 21
-143.2367439695
 31
0.0
 12
1162.0943659912
 22
-140.2367439695
 32
0.0
 13
1163.5943659912
 23
-141.7367439695
 33
0.0
  0
LINE
  5
81
  8
0
 62
     0
 10
1191.0943659912
 20
-141.7367439695
 30
0.0
 11
1196.0943659912
 21
-141.7367439695
 31
0.0
  0
SOLID
  5
82
  8
0
 62
     0
 10
1191.0943659912
 20
-141.7367439695
 30
0.0
 11
1197.0943659912
 21
-140.2367439695
 31
0.0
 12
1197.0943659912
 22
-143.2367439695
 32
0.0
 13
1195.5943659912
 23
-141.7367439695
 33
0.0
  0
ENDBLK
  5
83
  8
0
  0
BLOCK
  8
0
  2
CLUMP2
 70
     0
 10
0.0
 20
0.0
 30
0.0
  3
CLUMP2
  1

  0
LINE
  5
8B
  8
図枠
 10
1259.9961542448
 20
-285.74937908869998
 30
0.0
 11
1259.9961542448
 21
-275.74937908869998
 31
0.0
  0
LINE
  5
8C
  8
図枠
 10
1141.9961542448
 20
-285.74937908869998
 30
0.0
 11
1141.9961542448
 21
-275.74937908869998
 31
0.0
  0
LINE
  5
8D
  8
図枠
 10
1159.9961542448
 20
-285.74937908869998
 30
0.0
 11
1159.9961542448
 21
-275.74937908869998
 31
0.0
  0
LINE
  5
8E
  8
図枠
 10
1369.9961542448
 20
-285.74937908869998
 30
0.0
 11
1369.9961542448
 21
-275.74937908869998
 31
0.0
  0
LINE
  5
8F
  8
図枠
 10
1351.9961542448
 20
-285.74937908869998
 30
0.0
 11
1351.9961542448
 21
-275.74937908869998
 31
0.0
  0
LINE
  5
90
  8
図枠
 10
1431.9961542448
 20
-275.74937908869998
 30
0.0
 11
1141.9961542448
 21
-275.74937908869998
 31
0.0
  0
ENDBLK
  5
91
  8
0
  0
BLOCK
  8
0
  2
CLUMP3
 70
     0
 10
0.0
 20
0.0
 30
0.0
  3
CLUMP3
  1

  0
LINE
  5
98
  8
図枠
 10
1258.6386593426
 20
-376.59603315499999
 30
0.0
 11
1260.6386593426
 21
-373.59603315499999
 31
0.0
  0
LINE
  5
99
  8
図枠
 10
1229.3174472214
 20
-373.59603315499999
 30
0.0
 11
1229.3174472214
 21
-377.59603315499999
 31
0.0
  0
LINE
  5
9A
  8
図枠
 10
1276.7715065095001
 20
-380.59603315499999
 30
0.0
 11
1283.0736246391
 21
-380.59603315499999
 31
0.0
  0
LINE
  5
9B
  8
図枠
 10
1242.6386593426
 20
-387.59603315499999
 30
0.0
 11
1247.6386593426
 21
-387.59603315499999
 31
0.0
  0
LINE
  5
9C
  8
図枠
 10
1242.6386593426
 20
-378.24025368989999
 30
0.0
 11
1250.6386593426
 21
-378.24025368989999
 31
0.0
  0
INSERT
  5
9D
  8
0
  6
CONTINUOUS
  2
*U104
 10
0.0
 20
0.0
 30
0.0
  0
LINE
  5
9E
  8
図枠
 62
     5
 10
1291.9961542448
 20
138.25062091129999
 30
0.0
 11
1291.9961542448
 21
168.25062091129999
 31
0.0
  0
LINE
  5
9F
  8
図枠
 62
     5
 10
1391.9961542448
 20
138.25062091129999
 30
0.0
 11
1391.9961542448
 21
168.25062091129999
 31
0.0
  0
LINE
  5
A0
  8
図枠
 62
     5
 10
1259.9961542448
 20
138.25062091129999
 30
0.0
 11
1259.9961542448
 21
168.25062091129999
 31
0.0
  0
LINE
  5
A1
  8
図枠
 62
     5
 10
1246.4775834727
 20
149.11220441329999
 30
0.0
 11
1256.3775834727001
 21
149.11220441329999
 31
0.0
  0
LINE
  5
A2
  8
図枠
 62
     5
 10
1251.4275834727
 20
147.78585591070001
 30
0.0
 11
1256.3775834727001
 21
139.21220441329999
 31
0.0
  0
LINE
  5
A3
  8
図枠
 62
     5
 10
1243.9961542448
 20
138.25062091129999
 30
0.0
 11
1243.9961542448
 21
168.25062091129999
 31
0.0
  0
LINE
  5
A4
  8
図枠
 62
     5
 10
1411.9961542448
 20
138.25062091129999
 30
0.0
 11
1411.9961542448
 21
168.25062091129999
 31
0.0
  0
LINE
  5
A5
  8
図枠
 62
     5
 10
1243.9961542448
 20
158.25062091129999
 30
0.0
 11
1431.9961542448
 21
158.25062091129999
 31
0.0
  0
LINE
  5
A6
  8
図枠
 62
     5
 10
1243.9961542448
 20
148.25062091129999
 30
0.0
 11
1431.9961542448
 21
148.25062091129999
 31
0.0
  0
LINE
  5
A7
  8
図枠
 62
     5
 10
1243.9961542448
 20
138.25062091129999
 30
0.0
 11
1431.9961542448
 21
138.25062091129999
 31
0.0
  0
INSERT
  5
A8
  8
0
  6
CONTINUOUS
  2
*U105
 10
0.0
 20
0.0
 30
0.0
  0
LINE
  5
A9
  8
図枠
 62
     5
 10
631.99615424479987
 20
-391.7493790887001
 30
0.0
 11
631.99615424479987
 21
168.25062091129999
 31
0.0
  0
LINE
  5
AA
  8
図枠
 62
     5
 10
631.99615424479987
 20
-391.7493790887001
 30
0.0
 11
1431.9961542448
 21
-391.7493790887001
 31
0.0
  0
LINE
  5
AB
  8
図枠
 62
     5
 10
1431.9961542448
 20
168.25062091129999
 30
0.0
 11
631.99615424479987
 21
168.25062091129999
 31
0.0
  0
LINE
  5
AC
  8
図枠
 62
     5
 10
1431.9961542448
 20
-391.7493790887001
 30
0.0
 11
1431.9961542448
 21
168.25062091129999
 31
0.0
  0
LINE
  5
AD
  8
図枠
 10
1242.6386593426
 20
-378.88447422489998
 30
0.0
 11
1242.6386593426
 21
-378.24025368989999
 31
0.0
  0
LINE
  5
AE
  8
図枠
 10
1218.0152395983
 20
-377.59603315499999
 30
0.0
 11
1218.0152395983
 21
-380.59603315499999
 31
0.0
  0
LINE
  5
AF
  8
図枠
 62
     5
 10
1251.4275834727
 20
157.68585591070001
 30
0.0
 11
1256.3775834727001
 21
149.11220441329999
 31
0.0
  0
LINE
  5
B0
  8
図枠
 62
     5
 10
1251.4275834727
 20
147.78585591070001
 30
0.0
 11
1246.4775834727
 21
139.21220441329999
 31
0.0
  0
INSERT
  5
B1
  8
0
  6
CONTINUOUS
  2
*U106
 10
0.0
 20
0.0
 30
0.0
  0
LINE
  5
B2
  8
図枠
  6
DOT
 10
622.03615424479995
 20
-400.20937908870002
 30
0.0
 11
622.03615424479995
 21
176.7106209113
 31
0.0
  0
LINE
  5
B3
  8
図枠
  6
DOT
 10
1441.9561542448
 20
-400.20937908870002
 30
0.0
 11
1441.9561542448
 21
176.7106209113
 31
0.0
  0
LINE
  5
B4
  8
図枠
  6
DOT
 10
622.03615424479995
 20
-400.20937908870002
 30
0.0
 11
1441.9561542448
 21
-400.20937908870002
 31
0.0
  0
LINE
  5
B5
  8
図枠
 10
1225.3174472214
 20
-383.59603315499999
 30
0.0
 11
1225.3174472214
 21
-380.59603315499999
 31
0.0
  0
LINE
  5
B6
  8
図枠
  6
DOT
 10
1441.9561542448
 20
176.7106209113
 30
0.0
 11
622.03615424479995
 21
176.7106209113
 31
0.0
  0
LINE
  5
B7
  8
図枠
 10
1220.3174472214
 20
-380.59603315499999
 30
0.0
 11
1220.3174472214
 21
-383.59603315499999
 31
0.0
  0
LINE
  5
B8
  8
図枠
 10
1234.3174472214
 20
-376.59603315499999
 30
0.0
 11
1237.3174472214
 21
-373.59603315499999
 31
0.0
  0
LINE
  5
B9
  8
図枠
 10
1271.5962913057999
 20
-382.19603315500001
 30
0.0
 11
1271.1269579724999
 21
-380.59603315499999
 31
0.0
  0
LINE
  5
BA
  8
図枠
 10
1225.3174472214
 20
-377.59603315499999
 30
0.0
 11
1225.3174472214
 21
-376.59603315499999
 31
0.0
  0
LINE
  5
BB
  8
図枠
 10
1256.3640980467001
 20
-383.29429557290001
 30
0.0
 11
1256.0078939272
 21
-383.64305186130002
 31
0.0
  0
LINE
  5
BC
  8
図枠
 10
1258.6386593426
 20
-376.59603315499999
 30
0.0
 11
1260.6386593426
 21
-373.59603315499999
 31
0.0
  0
LINE
  5
BD
  8
図枠
 10
1283.0736246391
 20
-382.19603315500001
 30
0.0
 11
1283.0736246391
 21
-385.79603315499998
 31
0.0
  0
LINE
  5
BE
  8
図枠
 10
1260.6386593426
 20
-384.59603315499999
 30
0.0
 11
1260.6386593426
 21
-387.59603315499999
 31
0.0
  0
LINE
  5
BF
  8
図枠
 10
1275.7355533512
 20
-376.99603315500002
 30
0.0
 11
1283.0736246391
 21
-376.99603315500002
 31
0.0
  0
LINE
  5
C0
  8
図枠
 10
1275.7355533512
 20
-376.99603315500002
 30
0.0
 11
1275.4427648507999
 21
-375.978575374
 31
0.0
  0
LINE
  5
C1
  8
図枠
 10
1260.6386593426
 20
-373.59603315499999
 30
0.0
 11
1242.6386593426
 21
-373.59603315499999
 31
0.0
  0
INSERT
  5
C2
  8
0
  6
CONTINUOUS
  2
*U107
 10
0.0
 20
0.0
 30
0.0
  0
LINE
  5
C3
  8
図枠
 10
1273.4736246391001
 20
-388.59603315499999
 30
0.0
 11
1272.6522913058
 21
-385.79603315499998
 31
0.0
  0
LINE
  5
C4
  8
図枠
 10
1226.3174472214
 20
-384.59603315499999
 30
0.0
 11
1220.3174472214
 21
-384.59603315499999
 31
0.0
  0
LINE
  5
C5
  8
図枠
 10
1242.6386593426
 20
-377.19603315500001
 30
0.0
 11
1252.6386593426
 21
-377.19603315500001
 31
0.0
  0
LINE
  5
C6
  8
図枠
 10
1269.7679892681999
 20
-334.3493790887
 30
0.0
 11
1279.3679892682001
 21
-331.94937908870003
 31
0.0
  0
CIRCLE
  5
C7
  8
図枠
 10
1258.7961542447999
 20
-336.74937908869998
 30
0.0
 40
4.7999999999999989
  0
INSERT
  5
C8
  8
0
  6
CONTINUOUS
  2
*U108
 10
0.0
 20
0.0
 30
0.0
  0
LINE
  5
C9
  8
図枠
 10
1225.3174472214
 20
-380.59603315499999
 30
0.0
 11
1229.3174472214
 21
-380.59603315499999
 31
0.0
  0
LINE
  5
CA
  8
図枠
 10
1265.0736246391
 20
-380.59603315499999
 30
0.0
 11
1271.1269579724999
 21
-380.59603315499999
 31
0.0
  0
LINE
  5
CB
  8
図枠
 10
1237.3174472214
 20
-377.59603315499999
 30
0.0
 11
1234.3174472214
 21
-377.59603315499999
 31
0.0
  0
LINE
  5
CC
  8
図枠
 10
1234.3174472214
 20
-377.59603315499999
 30
0.0
 11
1234.3174472214
 21
-376.59603315499999
 31
0.0
  0
LINE
  5
CD
  8
図枠
 10
1265.0736246391
 20
-376.99603315500002
 30
0.0
 11
1270.0709579725001
 21
-376.99603315500002
 31
0.0
  0
LINE
  5
CE
  8
図枠
 10
1275.4427648507999
 20
-375.978575374
 30
0.0
 11
1277.0736246391
 21
-373.59603315499999
 31
0.0
  0
LINE
  5
CF
  8
図枠
 10
1242.6386593426
 20
-387.59603315499999
 30
0.0
 11
1242.6386593426
 21
-384.59603315499999
 31
0.0
  0
LINE
  5
D0
  8
図枠
 10
1291.9961542448
 20
-325.74937908869998
 30
0.0
 11
1291.9961542448
 21
-391.7493790887001
 31
0.0
  0
INSERT
  5
D1
  8
0
  6
CONTINUOUS
  2
*U109
 10
0.0
 20
0.0
 30
0.0
  0
INSERT
  5
D2
  8
0
  6
CONTINUOUS
  2
*U110
 10
0.0
 20
0.0
 30
0.0
  0
INSERT
  5
D3
  8
0
  6
CONTINUOUS
  2
*U111
 10
0.0
 20
0.0
 30
0.0
  0
LINE
  5
D4
  8
図枠
 62
     5
 10
1246.4775834727
 20
139.21220441329999
 30
0.0
 11
1256.3775834727001
 21
139.21220441329999
 31
0.0
  0
LINE
  5
D5
  8
図枠
 10
1218.0152395983
 20
-380.59603315499999
 30
0.0
 11
1220.0152395983
 21
-380.59603315499999
 31
0.0
  0
ARC
  5
D6
  8
図枠
 10
1247.6386593426
 20
-376.59603315499999
 30
0.0
 40
11.0
 50
322.48761197969998
 51
0.0
  0
LINE
  5
D7
  8
図枠
 10
1220.3174472214
 20
-387.59603315499999
 30
0.0
 11
1228.3174472214
 21
-387.59603315499999
 31
0.0
  0
LINE
  5
D8
  8
図枠
 10
1265.0736246391
 20
-385.79603315499998
 30
0.0
 11
1272.6522913058
 21
-385.79603315499998
 31
0.0
  0
ARC
  5
D9
  8
図枠
 10
1226.3174472214
 20
-381.59603315499999
 30
0.0
 40
3.0
 50
270.0
 51
0.0
  0
LINE
  5
DA
  8
図枠
 10
1265.0736246391
 20
-382.19603315500001
 30
0.0
 11
1265.0736246391
 21
-385.79603315499998
 31
0.0
  0
LINE
  5
DB
  8
図枠
 10
1220.3174472214
 20
-383.59603315499999
 30
0.0
 11
1225.3174472214
 21
-383.59603315499999
 31
0.0
  0
LINE
  5
DC
  8
図枠
 10
1251.7112843258999
 20
-380.63417496519997
 30
0.0
 11
1251.2300927133001
 21
-381.16565168630001
 31
0.0
  0
LINE
  5
DD
  8
図枠
 10
1279.0736246391
 20
-388.59603315499999
 30
0.0
 11
1273.4736246391001
 21
-388.59603315499999
 31
0.0
  0
LINE
  5
DE
  8
図枠
 10
1229.3174472214
 20
-380.59603315499999
 30
0.0
 11
1229.3174472214
 21
-381.59603315499999
 31
0.0
  0
LINE
  5
DF
  8
図枠
 10
1431.9961542448
 20
-325.74937908869998
 30
0.0
 11
1141.9961542448
 21
-325.74937908869998
 31
0.0
  0
LINE
  5
E0
  8
図枠
 10
1279.3679892682001
 20
-331.94937908870003
 30
0.0
 11
1279.3679892682001
 21
-341.54937908869999
 31
0.0
  0
LINE
  5
E1
  8
図枠
 62
     5
 10
1251.4275834727
 20
157.68585591070001
 30
0.0
 11
1246.4775834727
 21
149.11220441329999
 31
0.0
  0
LINE
  5
E2
  8
図枠
 10
1237.3174472214
 20
-373.59603315499999
 30
0.0
 11
1229.3174472214
 21
-373.59603315499999
 31
0.0
  0
LINE
  5
E3
  8
図枠
 10
1234.3174472214
 20
-381.59603315499999
 30
0.0
 11
1234.3174472214
 21
-380.59603315499999
 31
0.0
  0
LINE
  5
E4
  8
図枠
 10
1265.0736246391
 20
-376.99603315500002
 30
0.0
 11
1265.0736246391
 21
-380.59603315499999
 31
0.0
  0
LINE
  5
E5
  8
図枠
 10
1229.3174472214
 20
-377.59603315499999
 30
0.0
 11
1225.3174472214
 21
-377.59603315499999
 31
0.0
  0
LINE
  5
E6
  8
図枠
 10
1228.3174472214
 20
-373.59603315499999
 30
0.0
 11
1220.3174472214
 21
-373.59603315499999
 31
0.0
  0
LINE
  5
E7
  8
図枠
 10
1225.3174472214
 20
-376.59603315499999
 30
0.0
 11
1228.3174472214
 21
-373.59603315499999
 31
0.0
  0
LINE
  5
E8
  8
図枠
 10
1220.3174472214
 20
-373.59603315499999
 30
0.0
 11
1220.3174472214
 21
-377.59603315499999
 31
0.0
  0
LINE
  5
E9
  8
図枠
 10
1278.2678832938
 20
-385.79603315499998
 30
0.0
 11
1283.0736246391
 21
-385.79603315499998
 31
0.0
  0
LINE
  5
EA
  8
図枠
 10
1270.0709579725001
 20
-376.99603315500002
 30
0.0
 11
1269.0736246391
 21
-373.59603315499999
 31
0.0
  0
LINE
  5
EB
  8
図枠
 10
1265.0736246391
 20
-382.19603315500001
 30
0.0
 11
1271.5962913057999
 21
-382.19603315500001
 31
0.0
  0
LINE
  5
EC
  8
図枠
 10
1277.2319301355001
 20
-382.19603315500001
 30
0.0
 11
1276.7715065095001
 21
-380.59603315499999
 31
0.0
  0
ARC
  5
ED
  8
図枠
 10
1245.0386593426001
 20
-376.99603315500002
 30
0.0
 40
7.5999999999999988
 50
270.0
 51
298.08590481520002
  0
INSERT
  5
EE
  8
0
  6
CONTINUOUS
  2
*U112
 10
0.0
 20
0.0
 30
0.0
  0
LINE
  5
EF
  8
図枠
 10
1146.9961542448
 20
-336.74937908869998
 30
0.0
 11
1186.9961542448
 21
-336.74937908869998
 31
0.0
  0
LINE
  5
F0
  8
図枠
 10
1191.9961542448
 20
-325.74937908869998
 30
0.0
 11
1191.9961542448
 21
-347.74937908869998
 31
0.0
  0
LINE
  5
F1
  8
図枠
 10
1141.9961542448
 20
-347.74937908869998
 30
0.0
 11
1431.9961542448
 21
-347.74937908869998
 31
0.0
  0
LINE
  5
F2
  8
図枠
 10
1241.9961542448
 20
-325.74937908869998
 30
0.0
 11
1241.9961542448
 21
-347.74937908869998
 31
0.0
  0
LINE
  5
F3
  8
図枠
  6
BORDER
 10
1258.7961542447999
 20
-329.54937908869999
 30
0.0
 11
1258.7961542447999
 21
-343.94937908870003
 31
0.0
  0
LINE
  5
F4
  8
図枠
  6
BORDER
 10
1258.7961542447999
 20
-329.54937908869999
 30
0.0
 11
1258.7961542447999
 21
-343.94937908870003
 31
0.0
  0
LINE
  5
F5
  8
図枠
 10
1283.0736246391
 20
-376.99603315500002
 30
0.0
 11
1283.0736246391
 21
-380.59603315499999
 31
0.0
  0
LINE
  5
F6
  8
図枠
 10
1196.9961542448
 20
-336.74937908869998
 30
0.0
 11
1236.9961542448
 21
-336.74937908869998
 31
0.0
  0
INSERT
  5
F7
  8
0
  6
CONTINUOUS
  2
*U113
 10
0.0
 20
0.0
 30
0.0
  0
CIRCLE
  5
F8
  8
図枠
 10
1258.7961542447999
 20
-336.74937908869998
 30
0.0
 40
4.7999999999999989
  0
LINE
  5
F9
  8
図枠
 10
1269.7679892681999
 20
-334.3493790887
 30
0.0
 11
1279.3679892682001
 21
-331.94937908870003
 31
0.0
  0
INSERT
  5
FA
  8
0
  6
CONTINUOUS
  2
*U114
 10
0.0
 20
0.0
 30
0.0
  0
CIRCLE
  5
FB
  8
図枠
 10
1258.7961542447999
 20
-336.74937908869998
 30
0.0
 40
2.399999999999999
  0
LINE
  5
FC
  8
図枠
 10
1279.0736246391
 20
-388.59603315499999
 30
0.0
 11
1278.2678832938
 21
-385.79603315499998
 31
0.0
  0
LINE
  5
FD
  8
図枠
 10
1277.2319301355001
 20
-382.19603315500001
 30
0.0
 11
1283.0736246391
 21
-382.19603315500001
 31
0.0
  0
LINE
  5
FE
  8
図枠
 10
1242.6386593426
 20
-384.59603315499999
 30
0.0
 11
1245.0386593426001
 21
-384.59603315499999
 31
0.0
  0
LINE
  5
FF
  8
図枠
 10
1269.0736246391
 20
-373.59603315499999
 30
0.0
 11
1277.0736246391
 21
-373.59603315499999
 31
0.0
  0
LINE
  5
100
  8
図枠
 10
1220.3174472214
 20
-377.59603315499999
 30
0.0
 11
1218.0152395983
 21
-377.59603315499999
 31
0.0
  0
LINE
  5
101
  8
図枠
 10
1242.6386593426
 20
-384.59603315499999
 30
0.0
 11
1242.6386593426
 21
-387.59603315499999
 31
0.0
  0
LINE
  5
102
  8
図枠
 10
1220.3174472214
 20
-380.59603315499999
 30
0.0
 11
1220.0152395983
 21
-380.59603315499999
 31
0.0
  0
LINE
  5
103
  8
図枠
 10
1220.3174472214
 20
-384.59603315499999
 30
0.0
 11
1220.3174472214
 21
-387.59603315499999
 31
0.0
  0
ARC
  5
104
  8
図枠
 10
1245.0386593426001
 20
-376.99603315500002
 30
0.0
 40
7.5999999999999988
 50
331.39928138329998
 51
358.49204224580001
  0
LINE
  5
105
  8
図枠
 10
1234.3174472214
 20
-380.59603315499999
 30
0.0
 11
1237.3174472214
 21
-380.59603315499999
 31
0.0
  0
ARC
  5
106
  8
図枠
 10
1247.6386593426
 20
-376.59603315499999
 30
0.0
 40
11.0
 50
270.0
 51
302.54495885400001
  0
LINE
  5
107
  8
図枠
 10
1269.7679892681999
 20
-339.14937908870002
 30
0.0
 11
1279.3679892682001
 21
-341.54937908869999
 31
0.0
  0
LINE
  5
108
  8
図枠
 10
1269.7679892681999
 20
-334.3493790887
 30
0.0
 11
1269.7679892681999
 21
-339.14937908870002
 31
0.0
  0
LINE
  5
109
  8
図枠
 10
1279.3679892682001
 20
-331.94937908870003
 30
0.0
 11
1279.3679892682001
 21
-341.54937908869999
 31
0.0
  0
LINE
  5
10A
  8
図枠
 10
1250.6386593426
 20
-378.24025368989999
 30
0.0
 11
1249.5072884926999
 21
-379.3716245398
 31
0.0
  0
LINE
  5
10B
  8
図枠
  6
BORDER
 10
1251.5961542447999
 20
-336.74937908869998
 30
0.0
 11
1282.3961542448001
 21
-336.74937908869998
 31
0.0
  0
CIRCLE
  5
10C
  8
図枠
 10
1258.7961542447999
 20
-336.74937908869998
 30
0.0
 40
2.399999999999999
  0
POLYLINE
  8
図枠
  5
692
  66
     1
 10
0.000000
 20
0.000000
 30
0.000000
  70
     8
  0
VERTEX
  8
図枠
  5
693
 10
1256.01
 20
-383.643
 30
0.000000
  70
    32
  0
VERTEX
  8
図枠
  5
694
 10
1256.04
 20
-383.653
 30
0.000000
  70
    32
  0
VERTEX
  8
図枠
  5
695
 10
1256.08
 20
-383.663
 30
0.000000
  70
    32
  0
VERTEX
  8
図枠
  5
696
 10
1256.11
 20
-383.673
 30
0.000000
  70
    32
  0
VERTEX
  8
図枠
  5
697
 10
1256.15
 20
-383.682
 30
0.000000
  70
    32
  0
VERTEX
  8
図枠
  5
698
 10
1256.18
 20
-383.692
 30
0.000000
  70
    32
  0
VERTEX
  8
図枠
  5
699
 10
1256.22
 20
-383.702
 30
0.000000
  70
    32
  0
VERTEX
  8
図枠
  5
69A
 10
1256.25
 20
-383.711
 30
0.000000
  70
    32
  0
VERTEX
  8
図枠
  5
69B
 10
1256.29
 20
-383.721
 30
0.000000
  70
    32
  0
VERTEX
  8
図枠
  5
69C
 10
1256.32
 20
-383.730
 30
0.000000
  70
    32
  0
VERTEX
  8
図枠
  5
69D
 10
1256.36
 20
-383.740
 30
0.000000
  70
    32
  0
VERTEX
  8
図枠
  5
69E
 10
1256.39
 20
-383.749
 30
0.000000
  70
    32
  0
VERTEX
  8
図枠
  5
69F
 10
1256.43
 20
-383.758
 30
0.000000
  70
    32
  0
VERTEX
  8
図枠
  5
6A0
 10
1256.47
 20
-383.768
 30
0.000000
  70
    32
  0
VERTEX
  8
図枠
  5
6A1
 10
1256.50
 20
-383.777
 30
0.000000
  70
    32
  0
VERTEX
  8
図枠
  5
6A2
 10
1256.54
 20
-383.786
 30
0.000000
  70
    32
  0
VERTEX
  8
図枠
  5
6A3
 10
1256.57
 20
-383.795
 30
0.000000
  70
    32
  0
VERTEX
  8
図枠
  5
6A4
 10
1256.61
 20
-383.804
 30
0.000000
  70
    32
  0
VERTEX
  8
図枠
  5
6A5
 10
1256.64
 20
-383.813
 30
0.000000
  70
    32
  0
VERTEX
  8
図枠
  5
6A6
 10
1256.68
 20
-383.822
 30
0.000000
  70
    32
  0
VERTEX
  8
図枠
  5
6A7
 10
1256.71
 20
-383.831
 30
0.000000
  70
    32
  0
VERTEX
  8
図枠
  5
6A8
 10
1256.75
 20
-383.840
 30
0.000000
  70
    32
  0
VERTEX
  8
図枠
  5
6A9
 10
1256.78
 20
-383.849
 30
0.000000
  70
    32
  0
VERTEX
  8
図枠
  5
6AA
 10
1256.82
 20
-383.857
 30
0.000000
  70
    32
  0
VERTEX
  8
図枠
  5
6AB
 10
1256.86
 20
-383.866
 30
0.000000
  70
    32
  0
VERTEX
  8
図枠
  5
6AC
 10
1256.89
 20
-383.875
 30
0.000000
  70
    32
  0
VERTEX
  8
図枠
  5
6AD
 10
1256.93
 20
-383.883
 30
0.000000
  70
    32
  0
VERTEX
  8
図枠
  5
6AE
 10
1256.96
 20
-383.892
 30
0.000000
  70
    32
  0
VERTEX
  8
図枠
  5
6AF
 10
1257.00
 20
-383.900
 30
0.000000
  70
    32
  0
VERTEX
  8
図枠
  5
6B0
 10
1257.04
 20
-383.909
 30
0.000000
  70
    32
  0
VERTEX
  8
図枠
  5
6B1
 10
1257.07
 20
-383.917
 30
0.000000
  70
    32
  0
VERTEX
  8
図枠
  5
6B2
 10
1257.11
 20
-383.926
 30
0.000000
  70
    32
  0
VERTEX
  8
図枠
  5
6B3
 10
1257.14
 20
-383.934
 30
0.000000
  70
    32
  0
VERTEX
  8
図枠
  5
6B4
 10
1257.18
 20
-383.942
 30
0.000000
  70
    32
  0
VERTEX
  8
図枠
  5
6B5
 10
1257.21
 20
-383.951
 30
0.000000
  70
    32
  0
VERTEX
  8
図枠
  5
6B6
 10
1257.25
 20
-383.959
 30
0.000000
  70
    32
  0
VERTEX
  8
図枠
  5
6B7
 10
1257.29
 20
-383.967
 30
0.000000
  70
    32
  0
VERTEX
  8
図枠
  5
6B8
 10
1257.32
 20
-383.975
 30
0.000000
  70
    32
  0
VERTEX
  8
図枠
  5
6B9
 10
1257.36
 20
-383.983
 30
0.000000
  70
    32
  0
VERTEX
  8
図枠
  5
6BA
 10
1257.40
 20
-383.991
 30
0.000000
  70
    32
  0
VERTEX
  8
図枠
  5
6BB
 10
1257.43
 20
-383.999
 30
0.000000
  70
    32
  0
VERTEX
  8
図枠
  5
6BC
 10
1257.47
 20
-384.007
 30
0.000000
  70
    32
  0
VERTEX
  8
図枠
  5
6BD
 10
1257.50
 20
-384.015
 30
0.000000
  70
    32
  0
VERTEX
  8
図枠
  5
6BE
 10
1257.54
 20
-384.023
 30
0.000000
  70
    32
  0
VERTEX
  8
図枠
  5
6BF
 10
1257.58
 20
-384.031
 30
0.000000
  70
    32
  0
VERTEX
  8
図枠
  5
6C0
 10
1257.61
 20
-384.039
 30
0.000000
  70
    32
  0
VERTEX
  8
図枠
  5
6C1
 10
1257.65
 20
-384.047
 30
0.000000
  70
    32
  0
VERTEX
  8
図枠
  5
6C2
 10
1257.69
 20
-384.055
 30
0.000000
  70
    32
  0
VERTEX
  8
図枠
  5
6C3
 10
1257.72
 20
-384.062
 30
0.000000
  70
    32
  0
VERTEX
  8
図枠
  5
6C4
 10
1257.76
 20
-384.070
 30
0.000000
  70
    32
  0
VERTEX
  8
図枠
  5
6C5
 10
1257.79
 20
-384.078
 30
0.000000
  70
    32
  0
VERTEX
  8
図枠
  5
6C6
 10
1257.83
 20
-384.085
 30
0.000000
  70
    32
  0
VERTEX
  8
図枠
  5
6C7
 10
1257.87
 20
-384.093
 30
0.000000
  70
    32
  0
VERTEX
  8
図枠
  5
6C8
 10
1257.90
 20
-384.100
 30
0.000000
  70
    32
  0
VERTEX
  8
図枠
  5
6C9
 10
1257.94
 20
-384.108
 30
0.000000
  70
    32
  0
VERTEX
  8
図枠
  5
6CA
 10
1257.98
 20
-384.115
 30
0.000000
  70
    32
  0
VERTEX
  8
図枠
  5
6CB
 10
1258.01
 20
-384.123
 30
0.000000
  70
    32
  0
VERTEX
  8
図枠
  5
6CC
 10
1258.05
 20
-384.130
 30
0.000000
  70
    32
  0
VERTEX
  8
図枠
  5
6CD
 10
1258.09
 20
-384.138
 30
0.000000
  70
    32
  0
VERTEX
  8
図枠
  5
6CE
 10
1258.12
 20
-384.145
 30
0.000000
  70
    32
  0
VERTEX
  8
図枠
  5
6CF
 10
1258.16
 20
-384.152
 30
0.000000
  70
    32
  0
VERTEX
  8
図枠
  5
6D0
 10
1258.20
 20
-384.159
 30
0.000000
  70
    32
  0
VERTEX
  8
図枠
  5
6D1
 10
1258.23
 20
-384.167
 30
0.000000
  70
    32
  0
VERTEX
  8
図枠
  5
6D2
 10
1258.27
 20
-384.174
 30
0.000000
  70
    32
  0
VERTEX
  8
図枠
  5
6D3
 10
1258.31
 20
-384.181
 30
0.000000
  70
    32
  0
VERTEX
  8
図枠
  5
6D4
 10
1258.34
 20
-384.188
 30
0.000000
  70
    32
  0
VERTEX
  8
図枠
  5
6D5
 10
1258.38
 20
-384.195
 30
0.000000
  70
    32
  0
VERTEX
  8
図枠
  5
6D6
 10
1258.42
 20
-384.203
 30
0.000000
  70
    32
  0
VERTEX
  8
図枠
  5
6D7
 10
1258.45
 20
-384.210
 30
0.000000
  70
    32
  0
VERTEX
  8
図枠
  5
6D8
 10
1258.49
 20
-384.217
 30
0.000000
  70
    32
  0
VERTEX
  8
図枠
  5
6D9
 10
1258.53
 20
-384.224
 30
0.000000
  70
    32
  0
VERTEX
  8
図枠
  5
6DA
 10
1258.56
 20
-384.231
 30
0.000000
  70
    32
  0
VERTEX
  8
図枠
  5
6DB
 10
1258.60
 20
-384.238
 30
0.000000
  70
    32
  0
VERTEX
  8
図枠
  5
6DC
 10
1258.64
 20
-384.245
 30
0.000000
  70
    32
  0
VERTEX
  8
図枠
  5
6DD
 10
1258.67
 20
-384.252
 30
0.000000
  70
    32
  0
VERTEX
  8
図枠
  5
6DE
 10
1258.71
 20
-384.259
 30
0.000000
  70
    32
  0
VERTEX
  8
図枠
  5
6DF
 10
1258.75
 20
-384.265
 30
0.000000
  70
    32
  0
VERTEX
  8
図枠
  5
6E0
 10
1258.78
 20
-384.272
 30
0.000000
  70
    32
  0
VERTEX
  8
図枠
  5
6E1
 10
1258.82
 20
-384.279
 30
0.000000
  70
    32
  0
VERTEX
  8
図枠
  5
6E2
 10
1258.86
 20
-384.286
 30
0.000000
  70
    32
  0
VERTEX
  8
図枠
  5
6E3
 10
1258.89
 20
-384.293
 30
0.000000
  70
    32
  0
VERTEX
  8
図枠
  5
6E4
 10
1258.93
 20
-384.300
 30
0.000000
  70
    32
  0
VERTEX
  8
図枠
  5
6E5
 10
1258.97
 20
-384.306
 30
0.000000
  70
    32
  0
VERTEX
  8
図枠
  5
6E6
 10
1259.01
 20
-384.313
 30
0.000000
  70
    32
  0
VERTEX
  8
図枠
  5
6E7
 10
1259.04
 20
-384.320
 30
0.000000
  70
    32
  0
VERTEX
  8
図枠
  5
6E8
 10
1259.08
 20
-384.326
 30
0.000000
  70
    32
  0
VERTEX
  8
図枠
  5
6E9
 10
1259.12
 20
-384.333
 30
0.000000
  70
    32
  0
VERTEX
  8
図枠
  5
6EA
 10
1259.15
 20
-384.340
 30
0.000000
  70
    32
  0
VERTEX
  8
図枠
  5
6EB
 10
1259.19
 20
-384.346
 30
0.000000
  70
    32
  0
VERTEX
  8
図枠
  5
6EC
 10
1259.23
 20
-384.353
 30
0.000000
  70
    32
  0
VERTEX
  8
図枠
  5
6ED
 10
1259.26
 20
-384.360
 30
0.000000
  70
    32
  0
VERTEX
  8
図枠
  5
6EE
 10
1259.30
 20
-384.366
 30
0.000000
  70
    32
  0
VERTEX
  8
図枠
  5
6EF
 10
1259.34
 20
-384.373
 30
0.000000
  70
    32
  0
VERTEX
  8
図枠
  5
6F0
 10
1259.38
 20
-384.379
 30
0.000000
  70
    32
  0
VERTEX
  8
図枠
  5
6F1
 10
1259.41
 20
-384.386
 30
0.000000
  70
    32
  0
VERTEX
  8
図枠
  5
6F2
 10
1259.45
 20
-384.392
 30
0.000000
  70
    32
  0
VERTEX
  8
図枠
  5
6F3
 10
1259.49
 20
-384.399
 30
0.000000
  70
    32
  0
VERTEX
  8
図枠
  5
6F4
 10
1259.52
 20
-384.405
 30
0.000000
  70
    32
  0
VERTEX
  8
図枠
  5
6F5
 10
1259.56
 20
-384.412
 30
0.000000
  70
    32
  0
VERTEX
  8
図枠
  5
6F6
 10
1259.60
 20
-384.418
 30
0.000000
  70
    32
  0
VERTEX
  8
図枠
  5
6F7
 10
1259.63
 20
-384.425
 30
0.000000
  70
    32
  0
VERTEX
  8
図枠
  5
6F8
 10
1259.67
 20
-384.431
 30
0.000000
  70
    32
  0
VERTEX
  8
図枠
  5
6F9
 10
1259.71
 20
-384.438
 30
0.000000
  70
    32
  0
VERTEX
  8
図枠
  5
6FA
 10
1259.75
 20
-384.444
 30
0.000000
  70
    32
  0
VERTEX
  8
図枠
  5
6FB
 10
1259.78
 20
-384.451
 30
0.000000
  70
    32
  0
VERTEX
  8
図枠
  5
6FC
 10
1259.82
 20
-384.457
 30
0.000000
  70
    32
  0
VERTEX
  8
図枠
  5
6FD
 10
1259.86
 20
-384.463
 30
0.000000
  70
    32
  0
VERTEX
  8
図枠
  5
6FE
 10
1259.89
 20
-384.470
 30
0.000000
  70
    32
  0
VERTEX
  8
図枠
  5
6FF
 10
1259.93
 20
-384.476
 30
0.000000
  70
    32
  0
VERTEX
  8
図枠
  5
700
 10
1259.97
 20
-384.482
 30
0.000000
  70
    32
  0
VERTEX
  8
図枠
  5
701
 10
1260.01
 20
-384.489
 30
0.000000
  70
    32
  0
VERTEX
  8
図枠
  5
702
 10
1260.04
 20
-384.495
 30
0.000000
  70
    32
  0
VERTEX
  8
図枠
  5
703
 10
1260.08
 20
-384.501
 30
0.000000
  70
    32
  0
VERTEX
  8
図枠
  5
704
 10
1260.12
 20
-384.508
 30
0.000000
  70
    32
  0
VERTEX
  8
図枠
  5
705
 10
1260.15
 20
-384.514
 30
0.000000
  70
    32
  0
VERTEX
  8
図枠
  5
706
 10
1260.19
 20
-384.520
 30
0.000000
  70
    32
  0
VERTEX
  8
図枠
  5
707
 10
1260.23
 20
-384.527
 30
0.000000
  70
    32
  0
VERTEX
  8
図枠
  5
708
 10
1260.27
 20
-384.533
 30
0.000000
  70
    32
  0
VERTEX
  8
図枠
  5
709
 10
1260.30
 20
-384.539
 30
0.000000
  70
    32
  0
VERTEX
  8
図枠
  5
70A
 10
1260.34
 20
-384.546
 30
0.000000
  70
    32
  0
VERTEX
  8
図枠
  5
70B
 10
1260.38
 20
-384.552
 30
0.000000
  70
    32
  0
VERTEX
  8
図枠
  5
70C
 10
1260.42
 20
-384.558
 30
0.000000
  70
    32
  0
VERTEX
  8
図枠
  5
70D
 10
1260.45
 20
-384.565
 30
0.000000
  70
    32
  0
VERTEX
  8
図枠
  5
70E
 10
1260.49
 20
-384.571
 30
0.000000
  70
    32
  0
VERTEX
  8
図枠
  5
70F
 10
1260.53
 20
-384.577
 30
0.000000
  70
    32
  0
VERTEX
  8
図枠
  5
710
 10
1260.56
 20
-384.583
 30
0.000000
  70
    32
  0
VERTEX
  8
図枠
  5
711
 10
1260.60
 20
-384.590
 30
0.000000
  70
    32
  0
VERTEX
  8
図枠
  5
712
 10
1260.64
 20
-384.596
 30
0.000000
  70
    32
  0
SEQEND
  8
図枠
  5
713
  0
POLYLINE
  8
図枠
  5
714
  66
     1
 10
0.000000
 20
0.000000
 30
0.000000
  70
     8
  0
VERTEX
  8
図枠
  5
715
 10
1249.51
 20
-379.372
 30
0.000000
  70
    32
  0
VERTEX
  8
図枠
  5
716
 10
1249.52
 20
-379.386
 30
0.000000
  70
    32
  0
VERTEX
  8
図枠
  5
717
 10
1249.53
 20
-379.401
 30
0.000000
  70
    32
  0
VERTEX
  8
図枠
  5
718
 10
1249.55
 20
-379.416
 30
0.000000
  70
    32
  0
VERTEX
  8
図枠
  5
719
 10
1249.56
 20
-379.430
 30
0.000000
  70
    32
  0
VERTEX
  8
図枠
  5
71A
 10
1249.57
 20
-379.445
 30
0.000000
  70
    32
  0
VERTEX
  8
図枠
  5
71B
 10
1249.59
 20
-379.460
 30
0.000000
  70
    32
  0
VERTEX
  8
図枠
  5
71C
 10
1249.60
 20
-379.475
 30
0.000000
  70
    32
  0
VERTEX
  8
図枠
  5
71D
 10
1249.61
 20
-379.489
 30
0.000000
  70
    32
  0
VERTEX
  8
図枠
  5
71E
 10
1249.63
 20
-379.504
 30
0.000000
  70
    32
  0
VERTEX
  8
図枠
  5
71F
 10
1249.64
 20
-379.519
 30
0.000000
  70
    32
  0
VERTEX
  8
図枠
  5
720
 10
1249.65
 20
-379.533
 30
0.000000
  70
    32
  0
VERTEX
  8
図枠
  5
721
 10
1249.67
 20
-379.548
 30
0.000000
  70
    32
  0
VERTEX
  8
図枠
  5
722
 10
1249.68
 20
-379.563
 30
0.000000
  70
    32
  0
VERTEX
  8
図枠
  5
723
 10
1249.69
 20
-379.578
 30
0.000000
  70
    32
  0
VERTEX
  8
図枠
  5
724
 10
1249.71
 20
-379.592
 30
0.000000
  70
    32
  0
VERTEX
  8
図枠
  5
725
 10
1249.72
 20
-379.607
 30
0.000000
  70
    32
  0
VERTEX
  8
図枠
  5
726
 10
1249.73
 20
-379.622
 30
0.000000
  70
    32
  0
VERTEX
  8
図枠
  5
727
 10
1249.74
 20
-379.636
 30
0.000000
  70
    32
  0
VERTEX
  8
図枠
  5
728
 10
1249.76
 20
-379.651
 30
0.000000
  70
    32
  0
VERTEX
  8
図枠
  5
729
 10
1249.77
 20
-379.666
 30
0.000000
  70
    32
  0
VERTEX
  8
図枠
  5
72A
 10
1249.78
 20
-379.680
 30
0.000000
  70
    32
  0
VERTEX
  8
図枠
  5
72B
 10
1249.80
 20
-379.695
 30
0.000000
  70
    32
  0
VERTEX
  8
図枠
  5
72C
 10
1249.81
 20
-379.710
 30
0.000000
  70
    32
  0
VERTEX
  8
図枠
  5
72D
 10
1249.82
 20
-379.724
 30
0.000000
  70
    32
  0
VERTEX
  8
図枠
  5
72E
 10
1249.84
 20
-379.739
 30
0.000000
  70
    32
  0
VERTEX
  8
図枠
  5
72F
 10
1249.85
 20
-379.754
 30
0.000000
  70
    32
  0
VERTEX
  8
図枠
  5
730
 10
1249.86
 20
-379.768
 30
0.000000
  70
    32
  0
VERTEX
  8
図枠
  5
731
 10
1249.88
 20
-379.783
 30
0.000000
  70
    32
  0
VERTEX
  8
図枠
  5
732
 10
1249.89
 20
-379.798
 30
0.000000
  70
    32
  0
VERTEX
  8
図枠
  5
733
 10
1249.90
 20
-379.812
 30
0.000000
  70
    32
  0
VERTEX
  8
図枠
  5
734
 10
1249.92
 20
-379.827
 30
0.000000
  70
    32
  0
VERTEX
  8
図枠
  5
735
 10
1249.93
 20
-379.841
 30
0.000000
  70
    32
  0
VERTEX
  8
図枠
  5
736
 10
1249.94
 20
-379.856
 30
0.000000
  70
    32
  0
VERTEX
  8
図枠
  5
737
 10
1249.96
 20
-379.871
 30
0.000000
  70
    32
  0
VERTEX
  8
図枠
  5
738
 10
1249.97
 20
-379.885
 30
0.000000
  70
    32
  0
VERTEX
  8
図枠
  5
739
 10
1249.98
 20
-379.900
 30
0.000000
  70
    32
  0
VERTEX
  8
図枠
  5
73A
 10
1250.00
 20
-379.914
 30
0.000000
  70
    32
  0
VERTEX
  8
図枠
  5
73B
 10
1250.01
 20
-379.929
 30
0.000000
  70
    32
  0
VERTEX
  8
図枠
  5
73C
 10
1250.02
 20
-379.943
 30
0.000000
  70
    32
  0
VERTEX
  8
図枠
  5
73D
 10
1250.04
 20
-379.958
 30
0.000000
  70
    32
  0
VERTEX
  8
図枠
  5
73E
 10
1250.05
 20
-379.972
 30
0.000000
  70
    32
  0
VERTEX
  8
図枠
  5
73F
 10
1250.06
 20
-379.987
 30
0.000000
  70
    32
  0
VERTEX
  8
図枠
  5
740
 10
1250.08
 20
-380.002
 30
0.000000
  70
    32
  0
VERTEX
  8
図枠
  5
741
 10
1250.09
 20
-380.016
 30
0.000000
  70
    32
  0
VERTEX
  8
図枠
  5
742
 10
1250.10
 20
-380.031
 30
0.000000
  70
    32
  0
VERTEX
  8
図枠
  5
743
 10
1250.12
 20
-380.045
 30
0.000000
  70
    32
  0
VERTEX
  8
図枠
  5
744
 10
1250.13
 20
-380.060
 30
0.000000
  70
    32
  0
VERTEX
  8
図枠
  5
745
 10
1250.14
 20
-380.074
 30
0.000000
  70
    32
  0
VERTEX
  8
図枠
  5
746
 10
1250.16
 20
-380.088
 30
0.000000
  70
    32
  0
VERTEX
  8
図枠
  5
747
 10
1250.17
 20
-380.103
 30
0.000000
  70
    32
  0
VERTEX
  8
図枠
  5
748
 10
1250.18
 20
-380.117
 30
0.000000
  70
    32
  0
VERTEX
  8
図枠
  5
749
 10
1250.20
 20
-380.132
 30
0.000000
  70
    32
  0
VERTEX
  8
図枠
  5
74A
 10
1250.21
 20
-380.146
 30
0.000000
  70
    32
  0
VERTEX
  8
図枠
  5
74B
 10
1250.22
 20
-380.161
 30
0.000000
  70
    32
  0
VERTEX
  8
図枠
  5
74C
 10
1250.24
 20
-380.175
 30
0.000000
  70
    32
  0
VERTEX
  8
図枠
  5
74D
 10
1250.25
 20
-380.189
 30
0.000000
  70
    32
  0
VERTEX
  8
図枠
  5
74E
 10
1250.26
 20
-380.204
 30
0.000000
  70
    32
  0
VERTEX
  8
図枠
  5
74F
 10
1250.28
 20
-380.218
 30
0.000000
  70
    32
  0
VERTEX
  8
図枠
  5
750
 10
1250.29
 20
-380.232
 30
0.000000
  70
    32
  0
VERTEX
  8
図枠
  5
751
 10
1250.30
 20
-380.247
 30
0.000000
  70
    32
  0
VERTEX
  8
図枠
  5
752
 10
1250.32
 20
-380.261
 30
0.000000
  70
    32
  0
VERTEX
  8
図枠
  5
753
 10
1250.33
 20
-380.275
 30
0.000000
  70
    32
  0
VERTEX
  8
図枠
  5
754
 10
1250.34
 20
-380.290
 30
0.000000
  70
    32
  0
VERTEX
  8
図枠
  5
755
 10
1250.36
 20
-380.304
 30
0.000000
  70
    32
  0
VERTEX
  8
図枠
  5
756
 10
1250.37
 20
-380.318
 30
0.000000
  70
    32
  0
VERTEX
  8
図枠
  5
757
 10
1250.38
 20
-380.332
 30
0.000000
  70
    32
  0
VERTEX
  8
図枠
  5
758
 10
1250.40
 20
-380.347
 30
0.000000
  70
    32
  0
VERTEX
  8
図枠
  5
759
 10
1250.41
 20
-380.361
 30
0.000000
  70
    32
  0
VERTEX
  8
図枠
  5
75A
 10
1250.43
 20
-380.375
 30
0.000000
  70
    32
  0
VERTEX
  8
図枠
  5
75B
 10
1250.44
 20
-380.389
 30
0.000000
  70
    32
  0
VERTEX
  8
図枠
  5
75C
 10
1250.45
 20
-380.403
 30
0.000000
  70
    32
  0
VERTEX
  8
図枠
  5
75D
 10
1250.47
 20
-380.418
 30
0.000000
  70
    32
  0
VERTEX
  8
図枠
  5
75E
 10
1250.48
 20
-380.432
 30
0.000000
  70
    32
  0
VERTEX
  8
図枠
  5
75F
 10
1250.49
 20
-380.446
 30
0.000000
  70
    32
  0
VERTEX
  8
図枠
  5
760
 10
1250.51
 20
-380.460
 30
0.000000
  70
    32
  0
VERTEX
  8
図枠
  5
761
 10
1250.52
 20
-380.474
 30
0.000000
  70
    32
  0
VERTEX
  8
図枠
  5
762
 10
1250.53
 20
-380.488
 30
0.000000
  70
    32
  0
VERTEX
  8
図枠
  5
763
 10
1250.55
 20
-380.502
 30
0.000000
  70
    32
  0
VERTEX
  8
図枠
  5
764
 10
1250.56
 20
-380.516
 30
0.000000
  70
    32
  0
VERTEX
  8
図枠
  5
765
 10
1250.57
 20
-380.530
 30
0.000000
  70
    32
  0
VERTEX
  8
図枠
  5
766
 10
1250.59
 20
-380.544
 30
0.000000
  70
    32
  0
VERTEX
  8
図枠
  5
767
 10
1250.60
 20
-380.558
 30
0.000000
  70
    32
  0
VERTEX
  8
図枠
  5
768
 10
1250.62
 20
-380.572
 30
0.000000
  70
    32
  0
VERTEX
  8
図枠
  5
769
 10
1250.63
 20
-380.586
 30
0.000000
  70
    32
  0
VERTEX
  8
図枠
  5
76A
 10
1250.64
 20
-380.600
 30
0.000000
  70
    32
  0
VERTEX
  8
図枠
  5
76B
 10
1250.66
 20
-380.614
 30
0.000000
  70
    32
  0
VERTEX
  8
図枠
  5
76C
 10
1250.67
 20
-380.628
 30
0.000000
  70
    32
  0
VERTEX
  8
図枠
  5
76D
 10
1250.68
 20
-380.642
 30
0.000000
  70
    32
  0
VERTEX
  8
図枠
  5
76E
 10
1250.70
 20
-380.656
 30
0.000000
  70
    32
  0
VERTEX
  8
図枠
  5
76F
 10
1250.71
 20
-380.669
 30
0.000000
  70
    32
  0
VERTEX
  8
図枠
  5
770
 10
1250.73
 20
-380.683
 30
0.000000
  70
    32
  0
VERTEX
  8
図枠
  5
771
 10
1250.74
 20
-380.697
 30
0.000000
  70
    32
  0
VERTEX
  8
図枠
  5
772
 10
1250.75
 20
-380.711
 30
0.000000
  70
    32
  0
VERTEX
  8
図枠
  5
773
 10
1250.77
 20
-380.725
 30
0.000000
  70
    32
  0
VERTEX
  8
図枠
  5
774
 10
1250.78
 20
-380.738
 30
0.000000
  70
    32
  0
VERTEX
  8
図枠
  5
775
 10
1250.79
 20
-380.752
 30
0.000000
  70
    32
  0
VERTEX
  8
図枠
  5
776
 10
1250.81
 20
-380.766
 30
0.000000
  70
    32
  0
VERTEX
  8
図枠
  5
777
 10
1250.82
 20
-380.779
 30
0.000000
  70
    32
  0
VERTEX
  8
図枠
  5
778
 10
1250.84
 20
-380.793
 30
0.000000
  70
    32
  0
VERTEX
  8
図枠
  5
779
 10
1250.85
 20
-380.807
 30
0.000000
  70
    32
  0
VERTEX
  8
図枠
  5
77A
 10
1250.86
 20
-380.820
 30
0.000000
  70
    32
  0
VERTEX
  8
図枠
  5
77B
 10
1250.88
 20
-380.834
 30
0.000000
  70
    32
  0
VERTEX
  8
図枠
  5
77C
 10
1250.89
 20
-380.847
 30
0.000000
  70
    32
  0
VERTEX
  8
図枠
  5
77D
 10
1250.91
 20
-380.861
 30
0.000000
  70
    32
  0
VERTEX
  8
図枠
  5
77E
 10
1250.92
 20
-380.874
 30
0.000000
  70
    32
  0
VERTEX
  8
図枠
  5
77F
 10
1250.93
 20
-380.888
 30
0.000000
  70
    32
  0
VERTEX
  8
図枠
  5
780
 10
1250.95
 20
-380.901
 30
0.000000
  70
    32
  0
VERTEX
  8
図枠
  5
781
 10
1250.96
 20
-380.915
 30
0.000000
  70
    32
  0
VERTEX
  8
図枠
  5
782
 10
1250.98
 20
-380.928
 30
0.000000
  70
    32
  0
VERTEX
  8
図枠
  5
783
 10
1250.99
 20
-380.942
 30
0.000000
  70
    32
  0
VERTEX
  8
図枠
  5
784
 10
1251.00
 20
-380.955
 30
0.000000
  70
    32
  0
VERTEX
  8
図枠
  5
785
 10
1251.02
 20
-380.968
 30
0.000000
  70
    32
  0
VERTEX
  8
図枠
  5
786
 10
1251.03
 20
-380.982
 30
0.000000
  70
    32
  0
VERTEX
  8
図枠
  5
787
 10
1251.05
 20
-380.995
 30
0.000000
  70
    32
  0
VERTEX
  8
図枠
  5
788
 10
1251.06
 20
-381.008
 30
0.000000
  70
    32
  0
VERTEX
  8
図枠
  5
789
 10
1251.07
 20
-381.022
 30
0.000000
  70
    32
  0
VERTEX
  8
図枠
  5
78A
 10
1251.09
 20
-381.035
 30
0.000000
  70
    32
  0
VERTEX
  8
図枠
  5
78B
 10
1251.10
 20
-381.048
 30
0.000000
  70
    32
  0
VERTEX
  8
図枠
  5
78C
 10
1251.12
 20
-381.061
 30
0.000000
  70
    32
  0
VERTEX
  8
図枠
  5
78D
 10
1251.13
 20
-381.074
 30
0.000000
  70
    32
  0
VERTEX
  8
図枠
  5
78E
 10
1251.14
 20
-381.087
 30
0.000000
  70
    32
  0
VERTEX
  8
図枠
  5
78F
 10
1251.16
 20
-381.101
 30
0.000000
  70
    32
  0
VERTEX
  8
図枠
  5
790
 10
1251.17
 20
-381.114
 30
0.000000
  70
    32
  0
VERTEX
  8
図枠
  5
791
 10
1251.19
 20
-381.127
 30
0.000000
  70
    32
  0
VERTEX
  8
図枠
  5
792
 10
1251.20
 20
-381.140
 30
0.000000
  70
    32
  0
VERTEX
  8
図枠
  5
793
 10
1251.22
 20
-381.153
 30
0.000000
  70
    32
  0
VERTEX
  8
図枠
  5
794
 10
1251.23
 20
-381.166
 30
0.000000
  70
    32
  0
SEQEND
  8
図枠
  5
795
  0
POLYLINE
  8
図枠
  5
796
  66
     1
 10
0.000000
 20
0.000000
 30
0.000000
  70
     8
  0
VERTEX
  8
図枠
  5
797
 10
1253.56
 20
-385.869
 30
0.000000
  70
    32
  0
VERTEX
  8
図枠
  5
798
 10
1253.61
 20
-385.886
 30
0.000000
  70
    32
  0
VERTEX
  8
図枠
  5
799
 10
1253.66
 20
-385.903
 30
0.000000
  70
    32
  0
VERTEX
  8
図枠
  5
79A
 10
1253.72
 20
-385.920
 30
0.000000
  70
    32
  0
VERTEX
  8
図枠
  5
79B
 10
1253.77
 20
-385.937
 30
0.000000
  70
    32
  0
VERTEX
  8
図枠
  5
79C
 10
1253.83
 20
-385.954
 30
0.000000
  70
    32
  0
VERTEX
  8
図枠
  5
79D
 10
1253.88
 20
-385.970
 30
0.000000
  70
    32
  0
VERTEX
  8
図枠
  5
79E
 10
1253.93
 20
-385.987
 30
0.000000
  70
    32
  0
VERTEX
  8
図枠
  5
79F
 10
1253.99
 20
-386.004
 30
0.000000
  70
    32
  0
VERTEX
  8
図枠
  5
7A0
 10
1254.04
 20
-386.020
 30
0.000000
  70
    32
  0
VERTEX
  8
図枠
  5
7A1
 10
1254.10
 20
-386.037
 30
0.000000
  70
    32
  0
VERTEX
  8
図枠
  5
7A2
 10
1254.15
 20
-386.053
 30
0.000000
  70
    32
  0
VERTEX
  8
図枠
  5
7A3
 10
1254.21
 20
-386.069
 30
0.000000
  70
    32
  0
VERTEX
  8
図枠
  5
7A4
 10
1254.26
 20
-386.085
 30
0.000000
  70
    32
  0
VERTEX
  8
図枠
  5
7A5
 10
1254.31
 20
-386.102
 30
0.000000
  70
    32
  0
VERTEX
  8
図枠
  5
7A6
 10
1254.37
 20
-386.118
 30
0.000000
  70
    32
  0
VERTEX
  8
図枠
  5
7A7
 10
1254.42
 20
-386.134
 30
0.000000
  70
    32
  0
VERTEX
  8
図枠
  5
7A8
 10
1254.48
 20
-386.150
 30
0.000000
  70
    32
  0
VERTEX
  8
図枠
  5
7A9
 10
1254.53
 20
-386.165
 30
0.000000
  70
    32
  0
VERTEX
  8
図枠
  5
7AA
 10
1254.59
 20
-386.181
 30
0.000000
  70
    32
  0
VERTEX
  8
図枠
  5
7AB
 10
1254.64
 20
-386.197
 30
0.000000
  70
    32
  0
VERTEX
  8
図枠
  5
7AC
 10
1254.70
 20
-386.212
 30
0.000000
  70
    32
  0
VERTEX
  8
図枠
  5
7AD
 10
1254.75
 20
-386.228
 30
0.000000
  70
    32
  0
VERTEX
  8
図枠
  5
7AE
 10
1254.81
 20
-386.243
 30
0.000000
  70
    32
  0
VERTEX
  8
図枠
  5
7AF
 10
1254.86
 20
-386.259
 30
0.000000
  70
    32
  0
VERTEX
  8
図枠
  5
7B0
 10
1254.92
 20
-386.274
 30
0.000000
  70
    32
  0
VERTEX
  8
図枠
  5
7B1
 10
1254.97
 20
-386.289
 30
0.000000
  70
    32
  0
VERTEX
  8
図枠
  5
7B2
 10
1255.02
 20
-386.305
 30
0.000000
  70
    32
  0
VERTEX
  8
図枠
  5
7B3
 10
1255.08
 20
-386.320
 30
0.000000
  70
    32
  0
VERTEX
  8
図枠
  5
7B4
 10
1255.13
 20
-386.335
 30
0.000000
  70
    32
  0
VERTEX
  8
図枠
  5
7B5
 10
1255.19
 20
-386.350
 30
0.000000
  70
    32
  0
VERTEX
  8
図枠
  5
7B6
 10
1255.24
 20
-386.365
 30
0.000000
  70
    32
  0
VERTEX
  8
図枠
  5
7B7
 10
1255.30
 20
-386.379
 30
0.000000
  70
    32
  0
VERTEX
  8
図枠
  5
7B8
 10
1255.36
 20
-386.394
 30
0.000000
  70
    32
  0
VERTEX
  8
図枠
  5
7B9
 10
1255.41
 20
-386.409
 30
0.000000
  70
    32
  0
VERTEX
  8
図枠
  5
7BA
 10
1255.47
 20
-386.424
 30
0.000000
  70
    32
  0
VERTEX
  8
図枠
  5
7BB
 10
1255.52
 20
-386.438
 30
0.000000
  70
    32
  0
VERTEX
  8
図枠
  5
7BC
 10
1255.58
 20
-386.453
 30
0.000000
  70
    32
  0
VERTEX
  8
図枠
  5
7BD
 10
1255.63
 20
-386.467
 30
0.000000
  70
    32
  0
VERTEX
  8
図枠
  5
7BE
 10
1255.69
 20
-386.482
 30
0.000000
  70
    32
  0
VERTEX
  8
図枠
  5
7BF
 10
1255.74
 20
-386.496
 30
0.000000
  70
    32
  0
VERTEX
  8
図枠
  5
7C0
 10
1255.80
 20
-386.510
 30
0.000000
  70
    32
  0
VERTEX
  8
図枠
  5
7C1
 10
1255.85
 20
-386.525
 30
0.000000
  70
    32
  0
VERTEX
  8
図枠
  5
7C2
 10
1255.91
 20
-386.539
 30
0.000000
  70
    32
  0
VERTEX
  8
図枠
  5
7C3
 10
1255.96
 20
-386.553
 30
0.000000
  70
    32
  0
VERTEX
  8
図枠
  5
7C4
 10
1256.02
 20
-386.567
 30
0.000000
  70
    32
  0
VERTEX
  8
図枠
  5
7C5
 10
1256.07
 20
-386.581
 30
0.000000
  70
    32
  0
VERTEX
  8
図枠
  5
7C6
 10
1256.13
 20
-386.595
 30
0.000000
  70
    32
  0
VERTEX
  8
図枠
  5
7C7
 10
1256.19
 20
-386.609
 30
0.000000
  70
    32
  0
VERTEX
  8
図枠
  5
7C8
 10
1256.24
 20
-386.623
 30
0.000000
  70
    32
  0
VERTEX
  8
図枠
  5
7C9
 10
1256.30
 20
-386.637
 30
0.000000
  70
    32
  0
VERTEX
  8
図枠
  5
7CA
 10
1256.35
 20
-386.650
 30
0.000000
  70
    32
  0
VERTEX
  8
図枠
  5
7CB
 10
1256.41
 20
-386.664
 30
0.000000
  70
    32
  0
VERTEX
  8
図枠
  5
7CC
 10
1256.46
 20
-386.678
 30
0.000000
  70
    32
  0
VERTEX
  8
図枠
  5
7CD
 10
1256.52
 20
-386.691
 30
0.000000
  70
    32
  0
VERTEX
  8
図枠
  5
7CE
 10
1256.58
 20
-386.705
 30
0.000000
  70
    32
  0
VERTEX
  8
図枠
  5
7CF
 10
1256.63
 20
-386.718
 30
0.000000
  70
    32
  0
VERTEX
  8
図枠
  5
7D0
 10
1256.69
 20
-386.732
 30
0.000000
  70
    32
  0
VERTEX
  8
図枠
  5
7D1
 10
1256.74
 20
-386.745
 30
0.000000
  70
    32
  0
VERTEX
  8
図枠
  5
7D2
 10
1256.80
 20
-386.759
 30
0.000000
  70
    32
  0
VERTEX
  8
図枠
  5
7D3
 10
1256.86
 20
-386.772
 30
0.000000
  70
    32
  0
VERTEX
  8
図枠
  5
7D4
 10
1256.91
 20
-386.785
 30
0.000000
  70
    32
  0
VERTEX
  8
図枠
  5
7D5
 10
1256.97
 20
-386.799
 30
0.000000
  70
    32
  0
VERTEX
  8
図枠
  5
7D6
 10
1257.02
 20
-386.812
 30
0.000000
  70
    32
  0
VERTEX
  8
図枠
  5
7D7
 10
1257.08
 20
-386.825
 30
0.000000
  70
    32
  0
VERTEX
  8
図枠
  5
7D8
 10
1257.14
 20
-386.838
 30
0.000000
  70
    32
  0
VERTEX
  8
図枠
  5
7D9
 10
1257.19
 20
-386.851
 30
0.000000
  70
    32
  0
VERTEX
  8
図枠
  5
7DA
 10
1257.25
 20
-386.864
 30
0.000000
  70
    32
  0
VERTEX
  8
図枠
  5
7DB
 10
1257.30
 20
-386.877
 30
0.000000
  70
    32
  0
VERTEX
  8
図枠
  5
7DC
 10
1257.36
 20
-386.890
 30
0.000000
  70
    32
  0
VERTEX
  8
図枠
  5
7DD
 10
1257.42
 20
-386.903
 30
0.000000
  70
    32
  0
VERTEX
  8
図枠
  5
7DE
 10
1257.47
 20
-386.916
 30
0.000000
  70
    32
  0
VERTEX
  8
図枠
  5
7DF
 10
1257.53
 20
-386.929
 30
0.000000
  70
    32
  0
VERTEX
  8
図枠
  5
7E0
 10
1257.58
 20
-386.941
 30
0.000000
  70
    32
  0
VERTEX
  8
図枠
  5
7E1
 10
1257.64
 20
-386.954
 30
0.000000
  70
    32
  0
VERTEX
  8
図枠
  5
7E2
 10
1257.70
 20
-386.967
 30
0.000000
  70
    32
  0
VERTEX
  8
図枠
  5
7E3
 10
1257.75
 20
-386.980
 30
0.000000
  70
    32
  0
VERTEX
  8
図枠
  5
7E4
 10
1257.81
 20
-386.992
 30
0.000000
  70
    32
  0
VERTEX
  8
図枠
  5
7E5
 10
1257.87
 20
-387.005
 30
0.000000
  70
    32
  0
VERTEX
  8
図枠
  5
7E6
 10
1257.92
 20
-387.017
 30
0.000000
  70
    32
  0
VERTEX
  8
図枠
  5
7E7
 10
1257.98
 20
-387.030
 30
0.000000
  70
    32
  0
VERTEX
  8
図枠
  5
7E8
 10
1258.03
 20
-387.043
 30
0.000000
  70
    32
  0
VERTEX
  8
図枠
  5
7E9
 10
1258.09
 20
-387.055
 30
0.000000
  70
    32
  0
VERTEX
  8
図枠
  5
7EA
 10
1258.15
 20
-387.067
 30
0.000000
  70
    32
  0
VERTEX
  8
図枠
  5
7EB
 10
1258.20
 20
-387.080
 30
0.000000
  70
    32
  0
VERTEX
  8
図枠
  5
7EC
 10
1258.26
 20
-387.092
 30
0.000000
  70
    32
  0
VERTEX
  8
図枠
  5
7ED
 10
1258.32
 20
-387.105
 30
0.000000
  70
    32
  0
VERTEX
  8
図枠
  5
7EE
 10
1258.37
 20
-387.117
 30
0.000000
  70
    32
  0
VERTEX
  8
図枠
  5
7EF
 10
1258.43
 20
-387.129
 30
0.000000
  70
    32
  0
VERTEX
  8
図枠
  5
7F0
 10
1258.49
 20
-387.142
 30
0.000000
  70
    32
  0
VERTEX
  8
図枠
  5
7F1
 10
1258.54
 20
-387.154
 30
0.000000
  70
    32
  0
VERTEX
  8
図枠
  5
7F2
 10
1258.60
 20
-387.166
 30
0.000000
  70
    32
  0
VERTEX
  8
図枠
  5
7F3
 10
1258.66
 20
-387.178
 30
0.000000
  70
    32
  0
VERTEX
  8
図枠
  5
7F4
 10
1258.71
 20
-387.191
 30
0.000000
  70
    32
  0
VERTEX
  8
図枠
  5
7F5
 10
1258.77
 20
-387.203
 30
0.000000
  70
    32
  0
VERTEX
  8
図枠
  5
7F6
 10
1258.82
 20
-387.215
 30
0.000000
  70
    32
  0
VERTEX
  8
図枠
  5
7F7
 10
1258.88
 20
-387.227
 30
0.000000
  70
    32
  0
VERTEX
  8
図枠
  5
7F8
 10
1258.94
 20
-387.239
 30
0.000000
  70
    32
  0
VERTEX
  8
図枠
  5
7F9
 10
1258.99
 20
-387.251
 30
0.000000
  70
    32
  0
VERTEX
  8
図枠
  5
7FA
 10
1259.05
 20
-387.263
 30
0.000000
  70
    32
  0
VERTEX
  8
図枠
  5
7FB
 10
1259.11
 20
-387.275
 30
0.000000
  70
    32
  0
VERTEX
  8
図枠
  5
7FC
 10
1259.16
 20
-387.287
 30
0.000000
  70
    32
  0
VERTEX
  8
図枠
  5
7FD
 10
1259.22
 20
-387.299
 30
0.000000
  70
    32
  0
VERTEX
  8
図枠
  5
7FE
 10
1259.28
 20
-387.311
 30
0.000000
  70
    32
  0
VERTEX
  8
図枠
  5
7FF
 10
1259.33
 20
-387.323
 30
0.000000
  70
    32
  0
VERTEX
  8
図枠
  5
800
 10
1259.39
 20
-387.335
 30
0.000000
  70
    32
  0
VERTEX
  8
図枠
  5
801
 10
1259.45
 20
-387.347
 30
0.000000
  70
    32
  0
VERTEX
  8
図枠
  5
802
 10
1259.50
 20
-387.359
 30
0.000000
  70
    32
  0
VERTEX
  8
図枠
  5
803
 10
1259.56
 20
-387.371
 30
0.000000
  70
    32
  0
VERTEX
  8
図枠
  5
804
 10
1259.62
 20
-387.383
 30
0.000000
  70
    32
  0
VERTEX
  8
図枠
  5
805
 10
1259.67
 20
-387.395
 30
0.000000
  70
    32
  0
VERTEX
  8
図枠
  5
806
 10
1259.73
 20
-387.407
 30
0.000000
  70
    32
  0
VERTEX
  8
図枠
  5
807
 10
1259.79
 20
-387.419
 30
0.000000
  70
    32
  0
VERTEX
  8
図枠
  5
808
 10
1259.84
 20
-387.431
 30
0.000000
  70
    32
  0
VERTEX
  8
図枠
  5
809
 10
1259.90
 20
-387.442
 30
0.000000
  70
    32
  0
VERTEX
  8
図枠
  5
80A
 10
1259.96
 20
-387.454
 30
0.000000
  70
    32
  0
VERTEX
  8
図枠
  5
80B
 10
1260.01
 20
-387.466
 30
0.000000
  70
    32
  0
VERTEX
  8
図枠
  5
80C
 10
1260.07
 20
-387.478
 30
0.000000
  70
    32
  0
VERTEX
  8
図枠
  5
80D
 10
1260.13
 20
-387.490
 30
0.000000
  70
    32
  0
VERTEX
  8
図枠
  5
80E
 10
1260.18
 20
-387.502
 30
0.000000
  70
    32
  0
VERTEX
  8
図枠
  5
80F
 10
1260.24
 20
-387.513
 30
0.000000
  70
    32
  0
VERTEX
  8
図枠
  5
810
 10
1260.30
 20
-387.525
 30
0.000000
  70
    32
  0
VERTEX
  8
図枠
  5
811
 10
1260.35
 20
-387.537
 30
0.000000
  70
    32
  0
VERTEX
  8
図枠
  5
812
 10
1260.41
 20
-387.549
 30
0.000000
  70
    32
  0
VERTEX
  8
図枠
  5
813
 10
1260.47
 20
-387.561
 30
0.000000
  70
    32
  0
VERTEX
  8
図枠
  5
814
 10
1260.53
 20
-387.572
 30
0.000000
  70
    32
  0
VERTEX
  8
図枠
  5
815
 10
1260.58
 20
-387.584
 30
0.000000
  70
    32
  0
VERTEX
  8
図枠
  5
816
 10
1260.64
 20
-387.596
 30
0.000000
  70
    32
  0
SEQEND
  8
図枠
  5
817
  0
POLYLINE
  8
図枠
  5
818
  66
     1
 10
0.000000
 20
0.000000
 30
0.000000
  70
     8
  0
VERTEX
  8
図枠
  5
819
 10
1242.64
 20
-378.884
 30
0.000000
  70
    32
  0
VERTEX
  8
図枠
  5
81A
 10
1242.67
 20
-378.918
 30
0.000000
  70
    32
  0
VERTEX
  8
図枠
  5
81B
 10
1242.71
 20
-378.951
 30
0.000000
  70
    32
  0
VERTEX
  8
図枠
  5
81C
 10
1242.75
 20
-378.984
 30
0.000000
  70
    32
  0
VERTEX
  8
図枠
  5
81D
 10
1242.78
 20
-379.017
 30
0.000000
  70
    32
  0
VERTEX
  8
図枠
  5
81E
 10
1242.82
 20
-379.050
 30
0.000000
  70
    32
  0
VERTEX
  8
図枠
  5
81F
 10
1242.85
 20
-379.084
 30
0.000000
  70
    32
  0
VERTEX
  8
図枠
  5
820
 10
1242.89
 20
-379.117
 30
0.000000
  70
    32
  0
VERTEX
  8
図枠
  5
821
 10
1242.93
 20
-379.150
 30
0.000000
  70
    32
  0
VERTEX
  8
図枠
  5
822
 10
1242.96
 20
-379.183
 30
0.000000
  70
    32
  0
VERTEX
  8
図枠
  5
823
 10
1243.00
 20
-379.216
 30
0.000000
  70
    32
  0
VERTEX
  8
図枠
  5
824
 10
1243.03
 20
-379.250
 30
0.000000
  70
    32
  0
VERTEX
  8
図枠
  5
825
 10
1243.07
 20
-379.283
 30
0.000000
  70
    32
  0
VERTEX
  8
図枠
  5
826
 10
1243.11
 20
-379.316
 30
0.000000
  70
    32
  0
VERTEX
  8
図枠
  5
827
 10
1243.14
 20
-379.349
 30
0.000000
  70
    32
  0
VERTEX
  8
図枠
  5
828
 10
1243.18
 20
-379.382
 30
0.000000
  70
    32
  0
VERTEX
  8
図枠
  5
829
 10
1243.22
 20
-379.415
 30
0.000000
  70
    32
  0
VERTEX
  8
図枠
  5
82A
 10
1243.25
 20
-379.448
 30
0.000000
  70
    32
  0
VERTEX
  8
図枠
  5
82B
 10
1243.29
 20
-379.481
 30
0.000000
  70
    32
  0
VERTEX
  8
図枠
  5
82C
 10
1243.32
 20
-379.515
 30
0.000000
  70
    32
  0
VERTEX
  8
図枠
  5
82D
 10
1243.36
 20
-379.548
 30
0.000000
  70
    32
  0
VERTEX
  8
図枠
  5
82E
 10
1243.40
 20
-379.581
 30
0.000000
  70
    32
  0
VERTEX
  8
図枠
  5
82F
 10
1243.43
 20
-379.614
 30
0.000000
  70
    32
  0
VERTEX
  8
図枠
  5
830
 10
1243.47
 20
-379.647
 30
0.000000
  70
    32
  0
VERTEX
  8
図枠
  5
831
 10
1243.50
 20
-379.680
 30
0.000000
  70
    32
  0
VERTEX
  8
図枠
  5
832
 10
1243.54
 20
-379.713
 30
0.000000
  70
    32
  0
VERTEX
  8
図枠
  5
833
 10
1243.58
 20
-379.746
 30
0.000000
  70
    32
  0
VERTEX
  8
図枠
  5
834
 10
1243.61
 20
-379.779
 30
0.000000
  70
    32
  0
VERTEX
  8
図枠
  5
835
 10
1243.65
 20
-379.812
 30
0.000000
  70
    32
  0
VERTEX
  8
図枠
  5
836
 10
1243.68
 20
-379.845
 30
0.000000
  70
    32
  0
VERTEX
  8
図枠
  5
837
 10
1243.72
 20
-379.878
 30
0.000000
  70
    32
  0
VERTEX
  8
図枠
  5
838
 10
1243.76
 20
-379.910
 30
0.000000
  70
    32
  0
VERTEX
  8
図枠
  5
839
 10
1243.79
 20
-379.943
 30
0.000000
  70
    32
  0
VERTEX
  8
図枠
  5
83A
 10
1243.83
 20
-379.976
 30
0.000000
  70
    32
  0
VERTEX
  8
図枠
  5
83B
 10
1243.87
 20
-380.009
 30
0.000000
  70
    32
  0
VERTEX
  8
図枠
  5
83C
 10
1243.90
 20
-380.042
 30
0.000000
  70
    32
  0
VERTEX
  8
図枠
  5
83D
 10
1243.94
 20
-380.074
 30
0.000000
  70
    32
  0
VERTEX
  8
図枠
  5
83E
 10
1243.97
 20
-380.107
 30
0.000000
  70
    32
  0
VERTEX
  8
図枠
  5
83F
 10
1244.01
 20
-380.140
 30
0.000000
  70
    32
  0
VERTEX
  8
図枠
  5
840
 10
1244.05
 20
-380.173
 30
0.000000
  70
    32
  0
VERTEX
  8
図枠
  5
841
 10
1244.08
 20
-380.205
 30
0.000000
  70
    32
  0
VERTEX
  8
図枠
  5
842
 10
1244.12
 20
-380.238
 30
0.000000
  70
    32
  0
VERTEX
  8
図枠
  5
843
 10
1244.16
 20
-380.271
 30
0.000000
  70
    32
  0
VERTEX
  8
図枠
  5
844
 10
1244.19
 20
-380.303
 30
0.000000
  70
    32
  0
VERTEX
  8
図枠
  5
845
 10
1244.23
 20
-380.336
 30
0.000000
  70
    32
  0
VERTEX
  8
図枠
  5
846
 10
1244.27
 20
-380.368
 30
0.000000
  70
    32
  0
VERTEX
  8
図枠
  5
847
 10
1244.30
 20
-380.401
 30
0.000000
  70
    32
  0
VERTEX
  8
図枠
  5
848
 10
1244.34
 20
-380.433
 30
0.000000
  70
    32
  0
VERTEX
  8
図枠
  5
849
 10
1244.37
 20
-380.466
 30
0.000000
  70
    32
  0
VERTEX
  8
図枠
  5
84A
 10
1244.41
 20
-380.498
 30
0.000000
  70
    32
  0
VERTEX
  8
図枠
  5
84B
 10
1244.45
 20
-380.530
 30
0.000000
  70
    32
  0
VERTEX
  8
図枠
  5
84C
 10
1244.48
 20
-380.563
 30
0.000000
  70
    32
  0
VERTEX
  8
図枠
  5
84D
 10
1244.52
 20
-380.595
 30
0.000000
  70
    32
  0
VERTEX
  8
図枠
  5
84E
 10
1244.56
 20
-380.627
 30
0.000000
  70
    32
  0
VERTEX
  8
図枠
  5
84F
 10
1244.59
 20
-380.659
 30
0.000000
  70
    32
  0
VERTEX
  8
図枠
  5
850
 10
1244.63
 20
-380.692
 30
0.000000
  70
    32
  0
VERTEX
  8
図枠
  5
851
 10
1244.67
 20
-380.724
 30
0.000000
  70
    32
  0
VERTEX
  8
図枠
  5
852
 10
1244.70
 20
-380.756
 30
0.000000
  70
    32
  0
VERTEX
  8
図枠
  5
853
 10
1244.74
 20
-380.788
 30
0.000000
  70
    32
  0
VERTEX
  8
図枠
  5
854
 10
1244.78
 20
-380.820
 30
0.000000
  70
    32
  0
VERTEX
  8
図枠
  5
855
 10
1244.81
 20
-380.852
 30
0.000000
  70
    32
  0
VERTEX
  8
図枠
  5
856
 10
1244.85
 20
-380.884
 30
0.000000
  70
    32
  0
VERTEX
  8
図枠
  5
857
 10
1244.89
 20
-380.916
 30
0.000000
  70
    32
  0
VERTEX
  8
図枠
  5
858
 10
1244.92
 20
-380.948
 30
0.000000
  70
    32
  0
VERTEX
  8
図枠
  5
859
 10
1244.96
 20
-380.979
 30
0.000000
  70
    32
  0
VERTEX
  8
図枠
  5
85A
 10
1245.00
 20
-381.011
 30
0.000000
  70
    32
  0
VERTEX
  8
図枠
  5
85B
 10
1245.03
 20
-381.043
 30
0.000000
  70
    32
  0
VERTEX
  8
図枠
  5
85C
 10
1245.07
 20
-381.075
 30
0.000000
  70
    32
  0
VERTEX
  8
図枠
  5
85D
 10
1245.11
 20
-381.106
 30
0.000000
  70
    32
  0
VERTEX
  8
図枠
  5
85E
 10
1245.14
 20
-381.138
 30
0.000000
  70
    32
  0
VERTEX
  8
図枠
  5
85F
 10
1245.18
 20
-381.169
 30
0.000000
  70
    32
  0
VERTEX
  8
図枠
  5
860
 10
1245.22
 20
-381.201
 30
0.000000
  70
    32
  0
VERTEX
  8
図枠
  5
861
 10
1245.26
 20
-381.232
 30
0.000000
  70
    32
  0
VERTEX
  8
図枠
  5
862
 10
1245.29
 20
-381.264
 30
0.000000
  70
    32
  0
VERTEX
  8
図枠
  5
863
 10
1245.33
 20
-381.295
 30
0.000000
  70
    32
  0
VERTEX
  8
図枠
  5
864
 10
1245.37
 20
-381.326
 30
0.000000
  70
    32
  0
VERTEX
  8
図枠
  5
865
 10
1245.40
 20
-381.358
 30
0.000000
  70
    32
  0
VERTEX
  8
図枠
  5
866
 10
1245.44
 20
-381.389
 30
0.000000
  70
    32
  0
VERTEX
  8
図枠
  5
867
 10
1245.48
 20
-381.420
 30
0.000000
  70
    32
  0
VERTEX
  8
図枠
  5
868
 10
1245.52
 20
-381.451
 30
0.000000
  70
    32
  0
VERTEX
  8
図枠
  5
869
 10
1245.55
 20
-381.482
 30
0.000000
  70
    32
  0
VERTEX
  8
図枠
  5
86A
 10
1245.59
 20
-381.513
 30
0.000000
  70
    32
  0
VERTEX
  8
図枠
  5
86B
 10
1245.63
 20
-381.544
 30
0.000000
  70
    32
  0
VERTEX
  8
図枠
  5
86C
 10
1245.66
 20
-381.575
 30
0.000000
  70
    32
  0
VERTEX
  8
図枠
  5
86D
 10
1245.70
 20
-381.605
 30
0.000000
  70
    32
  0
VERTEX
  8
図枠
  5
86E
 10
1245.74
 20
-381.636
 30
0.000000
  70
    32
  0
VERTEX
  8
図枠
  5
86F
 10
1245.78
 20
-381.667
 30
0.000000
  70
    32
  0
VERTEX
  8
図枠
  5
870
 10
1245.81
 20
-381.697
 30
0.000000
  70
    32
  0
VERTEX
  8
図枠
  5
871
 10
1245.85
 20
-381.728
 30
0.000000
  70
    32
  0
VERTEX
  8
図枠
  5
872
 10
1245.89
 20
-381.759
 30
0.000000
  70
    32
  0
VERTEX
  8
図枠
  5
873
 10
1245.93
 20
-381.789
 30
0.000000
  70
    32
  0
VERTEX
  8
図枠
  5
874
 10
1245.96
 20
-381.819
 30
0.000000
  70
    32
  0
VERTEX
  8
図枠
  5
875
 10
1246.00
 20
-381.850
 30
0.000000
  70
    32
  0
VERTEX
  8
図枠
  5
876
 10
1246.04
 20
-381.880
 30
0.000000
  70
    32
  0
VERTEX
  8
図枠
  5
877
 10
1246.08
 20
-381.910
 30
0.000000
  70
    32
  0
VERTEX
  8
図枠
  5
878
 10
1246.11
 20
-381.940
 30
0.000000
  70
    32
  0
VERTEX
  8
図枠
  5
879
 10
1246.15
 20
-381.970
 30
0.000000
  70
    32
  0
VERTEX
  8
図枠
  5
87A
 10
1246.19
 20
-382.000
 30
0.000000
  70
    32
  0
VERTEX
  8
図枠
  5
87B
 10
1246.23
 20
-382.030
 30
0.000000
  70
    32
  0
VERTEX
  8
図枠
  5
87C
 10
1246.27
 20
-382.060
 30
0.000000
  70
    32
  0
VERTEX
  8
図枠
  5
87D
 10
1246.30
 20
-382.090
 30
0.000000
  70
    32
  0
VERTEX
  8
図枠
  5
87E
 10
1246.34
 20
-382.120
 30
0.000000
  70
    32
  0
VERTEX
  8
図枠
  5
87F
 10
1246.38
 20
-382.149
 30
0.000000
  70
    32
  0
VERTEX
  8
図枠
  5
880
 10
1246.42
 20
-382.179
 30
0.000000
  70
    32
  0
VERTEX
  8
図枠
  5
881
 10
1246.46
 20
-382.208
 30
0.000000
  70
    32
  0
VERTEX
  8
図枠
  5
882
 10
1246.49
 20
-382.238
 30
0.000000
  70
    32
  0
VERTEX
  8
図枠
  5
883
 10
1246.53
 20
-382.267
 30
0.000000
  70
    32
  0
VERTEX
  8
図枠
  5
884
 10
1246.57
 20
-382.296
 30
0.000000
  70
    32
  0
VERTEX
  8
図枠
  5
885
 10
1246.61
 20
-382.326
 30
0.000000
  70
    32
  0
VERTEX
  8
図枠
  5
886
 10
1246.65
 20
-382.355
 30
0.000000
  70
    32
  0
VERTEX
  8
図枠
  5
887
 10
1246.68
 20
-382.384
 30
0.000000
  70
    32
  0
VERTEX
  8
図枠
  5
888
 10
1246.72
 20
-382.413
 30
0.000000
  70
    32
  0
VERTEX
  8
図枠
  5
889
 10
1246.76
 20
-382.442
 30
0.000000
  70
    32
  0
VERTEX
  8
図枠
  5
88A
 10
1246.80
 20
-382.470
 30
0.000000
  70
    32
  0
VERTEX
  8
図枠
  5
88B
 10
1246.84
 20
-382.499
 30
0.000000
  70
    32
  0
VERTEX
  8
図枠
  5
88C
 10
1246.88
 20
-382.528
 30
0.000000
  70
    32
  0
VERTEX
  8
図枠
  5
88D
 10
1246.91
 20
-382.556
 30
0.000000
  70
    32
  0
VERTEX
  8
図枠
  5
88E
 10
1246.95
 20
-382.585
 30
0.000000
  70
    32
  0
VERTEX
  8
図枠
  5
88F
 10
1246.99
 20
-382.613
 30
0.000000
  70
    32
  0
VERTEX
  8
図枠
  5
890
 10
1247.03
 20
-382.642
 30
0.000000
  70
    32
  0
VERTEX
  8
図枠
  5
891
 10
1247.07
 20
-382.670
 30
0.000000
  70
    32
  0
VERTEX
  8
図枠
  5
892
 10
1247.11
 20
-382.698
 30
0.000000
  70
    32
  0
VERTEX
  8
図枠
  5
893
 10
1247.15
 20
-382.726
 30
0.000000
  70
    32
  0
VERTEX
  8
図枠
  5
894
 10
1247.19
 20
-382.754
 30
0.000000
  70
    32
  0
VERTEX
  8
図枠
  5
895
 10
1247.22
 20
-382.782
 30
0.000000
  70
    32
  0
VERTEX
  8
図枠
  5
896
 10
1247.26
 20
-382.810
 30
0.000000
  70
    32
  0
VERTEX
  8
図枠
  5
897
 10
1247.30
 20
-382.838
 30
0.000000
  70
    32
  0
VERTEX
  8
図枠
  5
898
 10
1247.34
 20
-382.866
 30
0.000000
  70
    32
  0
VERTEX
  8
図枠
  5
899
 10
1247.38
 20
-382.893
 30
0.000000
  70
    32
  0
VERTEX
  8
図枠
  5
89A
 10
1247.42
 20
-382.921
 30
0.000000
  70
    32
  0
VERTEX
  8
図枠
  5
89B
 10
1247.46
 20
-382.948
 30
0.000000
  70
    32
  0
VERTEX
  8
図枠
  5
89C
 10
1247.50
 20
-382.975
 30
0.000000
  70
    32
  0
VERTEX
  8
図枠
  5
89D
 10
1247.54
 20
-383.003
 30
0.000000
  70
    32
  0
VERTEX
  8
図枠
  5
89E
 10
1247.58
 20
-383.030
 30
0.000000
  70
    32
  0
VERTEX
  8
図枠
  5
89F
 10
1247.62
 20
-383.057
 30
0.000000
  70
    32
  0
VERTEX
  8
図枠
  5
8A0
 10
1247.66
 20
-383.084
 30
0.000000
  70
    32
  0
VERTEX
  8
図枠
  5
8A1
 10
1247.69
 20
-383.111
 30
0.000000
  70
    32
  0
VERTEX
  8
図枠
  5
8A2
 10
1247.73
 20
-383.137
 30
0.000000
  70
    32
  0
VERTEX
  8
図枠
  5
8A3
 10
1247.77
 20
-383.164
 30
0.000000
  70
    32
  0
VERTEX
  8
図枠
  5
8A4
 10
1247.81
 20
-383.191
 30
0.000000
  70
    32
  0
VERTEX
  8
図枠
  5
8A5
 10
1247.85
 20
-383.217
 30
0.000000
  70
    32
  0
VERTEX
  8
図枠
  5
8A6
 10
1247.89
 20
-383.244
 30
0.000000
  70
    32
  0
VERTEX
  8
図枠
  5
8A7
 10
1247.93
 20
-383.270
 30
0.000000
  70
    32
  0
VERTEX
  8
図枠
  5
8A8
 10
1247.97
 20
-383.296
 30
0.000000
  70
    32
  0
VERTEX
  8
図枠
  5
8A9
 10
1248.01
 20
-383.322
 30
0.000000
  70
    32
  0
VERTEX
  8
図枠
  5
8AA
 10
1248.05
 20
-383.348
 30
0.000000
  70
    32
  0
VERTEX
  8
図枠
  5
8AB
 10
1248.09
 20
-383.374
 30
0.000000
  70
    32
  0
VERTEX
  8
図枠
  5
8AC
 10
1248.13
 20
-383.400
 30
0.000000
  70
    32
  0
VERTEX
  8
図枠
  5
8AD
 10
1248.17
 20
-383.425
 30
0.000000
  70
    32
  0
VERTEX
  8
図枠
  5
8AE
 10
1248.21
 20
-383.451
 30
0.000000
  70
    32
  0
VERTEX
  8
図枠
  5
8AF
 10
1248.25
 20
-383.476
 30
0.000000
  70
    32
  0
VERTEX
  8
図枠
  5
8B0
 10
1248.29
 20
-383.502
 30
0.000000
  70
    32
  0
VERTEX
  8
図枠
  5
8B1
 10
1248.33
 20
-383.527
 30
0.000000
  70
    32
  0
VERTEX
  8
図枠
  5
8B2
 10
1248.37
 20
-383.552
 30
0.000000
  70
    32
  0
VERTEX
  8
図枠
  5
8B3
 10
1248.41
 20
-383.577
 30
0.000000
  70
    32
  0
VERTEX
  8
図枠
  5
8B4
 10
1248.45
 20
-383.602
 30
0.000000
  70
    32
  0
VERTEX
  8
図枠
  5
8B5
 10
1248.49
 20
-383.627
 30
0.000000
  70
    32
  0
VERTEX
  8
図枠
  5
8B6
 10
1248.54
 20
-383.652
 30
0.000000
  70
    32
  0
VERTEX
  8
図枠
  5
8B7
 10
1248.58
 20
-383.677
 30
0.000000
  70
    32
  0
VERTEX
  8
図枠
  5
8B8
 10
1248.62
 20
-383.701
 30
0.000000
  70
    32
  0
SEQEND
  8
図枠
  5
8B9
  0
INSERT
  5
111
  8
0
  6
CONTINUOUS
  2
*U115
 10
0.0
 20
0.0
 30
0.0
  0
LINE
  5
112
  8
図枠
 10
1269.7679892681999
 20
-334.3493790887
 30
0.0
 11
1269.7679892681999
 21
-339.14937908870002
 31
0.0
  0
LINE
  5
113
  8
図枠
 10
1237.3174472214
 20
-377.59603315499999
 30
0.0
 11
1237.3174472214
 21
-380.59603315499999
 31
0.0
  0
LINE
  5
114
  8
図枠
 10
1269.7679892681999
 20
-339.14937908870002
 30
0.0
 11
1279.3679892682001
 21
-341.54937908869999
 31
0.0
  0
LINE
  5
115
  8
図枠
 10
1242.6386593426
 20
-373.59603315499999
 30
0.0
 11
1242.6386593426
 21
-377.19603315500001
 31
0.0
  0
ARC
  5
116
  8
図枠
 10
1228.3174472214
 20
-381.59603315499999
 30
0.0
 40
6.0
 50
270.0
 51
0.0
  0
LINE
  5
117
  8
図枠
 10
1141.9961542448
 20
-325.74937908869998
 30
0.0
 11
1141.9961542448
 21
-391.7493790887001
 31
0.0
  0
INSERT
  5
118
  8
0
  6
CONTINUOUS
  2
*U116
 10
0.0
 20
0.0
 30
0.0
  0
INSERT
  5
119
  8
0
  6
CONTINUOUS
  2
*U117
 10
0.0
 20
0.0
 30
0.0
  0
INSERT
  5
11A
  8
0
  6
CONTINUOUS
  2
*U118
 10
0.0
 20
0.0
 30
0.0
  0
INSERT
  5
11B
  8
0
  6
CONTINUOUS
  2
*U119
 10
0.0
 20
0.0
 30
0.0
  0
LINE
  5
11C
  8
図枠
 10
1216.9961542448
 20
-347.74937908869998
 30
0.0
 11
1216.9961542448
 21
-369.74937908869998
 31
0.0
  0
LINE
  5
11D
  8
図枠
 10
1141.9961542448
 20
-369.74937908869998
 30
0.0
 11
1431.9961542448
 21
-369.74937908869998
 31
0.0
  0
LINE
  5
11E
  8
図枠
 10
1146.9961542448
 20
-358.7493790887001
 30
0.0
 11
1211.9961542448
 21
-358.7493790887001
 31
0.0
  0
LINE
  5
11F
  8
図枠
 10
1221.9961542448
 20
-358.7493790887001
 30
0.0
 11
1286.9961542448
 21
-358.7493790887001
 31
0.0
  0
INSERT
  5
120
  8
0
  6
CONTINUOUS
  2
*U120
 10
0.0
 20
0.0
 30
0.0
  0
INSERT
  5
121
  8
0
  6
CONTINUOUS
  2
*U121
 10
0.0
 20
0.0
 30
0.0
  0
LINE
  5
122
  8
図枠
 10
1159.9961542448
 20
-315.74937908869998
 30
0.0
 11
1159.9961542448
 21
-305.74937908869998
 31
0.0
  0
LINE
  5
123
  8
図枠
 10
1141.9961542448
 20
-315.74937908869998
 30
0.0
 11
1141.9961542448
 21
-305.74937908869998
 31
0.0
  0
LINE
  5
124
  8
図枠
 10
1369.9961542448
 20
-315.74937908869998
 30
0.0
 11
1369.9961542448
 21
-305.74937908869998
 31
0.0
  0
LINE
  5
125
  8
図枠
 10
1351.9961542448
 20
-315.74937908869998
 30
0.0
 11
1351.9961542448
 21
-305.74937908869998
 31
0.0
  0
LINE
  5
126
  8
図枠
 10
1431.9961542448
 20
-305.74937908869998
 30
0.0
 11
1141.9961542448
 21
-305.74937908869998
 31
0.0
  0
LINE
  5
127
  8
図枠
 10
1141.9961542448
 20
-315.74937908869998
 30
0.0
 11
1431.9961542448
 21
-315.74937908869998
 31
0.0
  0
LINE
  5
128
  8
図枠
 10
1259.9961542448
 20
-315.74937908869998
 30
0.0
 11
1259.9961542448
 21
-305.74937908869998
 31
0.0
  0
INSERT
  5
129
  8
0
  6
CONTINUOUS
  2
*U122
 10
0.0
 20
0.0
 30
0.0
  0
INSERT
  5
12A
  8
0
  6
CONTINUOUS
  2
*U123
 10
0.0
 20
0.0
 30
0.0
  0
CIRCLE
  5
12B
  8
図枠
 10
1258.7961542447999
 20
-336.74937908869998
 30
0.0
 40
2.399999999999999
  0
LINE
  5
12C
  8
図枠
 10
1269.7679892681999
 20
-339.14937908870002
 30
0.0
 11
1279.3679892682001
 21
-341.54937908869999
 31
0.0
  0
LINE
  5
12D
  8
図枠
 10
1269.7679892681999
 20
-334.3493790887
 30
0.0
 11
1269.7679892681999
 21
-339.14937908870002
 31
0.0
  0
LINE
  5
12E
  8
図枠
 10
1279.3679892682001
 20
-331.94937908870003
 30
0.0
 11
1279.3679892682001
 21
-341.54937908869999
 31
0.0
  0
LINE
  5
12F
  8
図枠
  6
BORDER
 10
1258.7961542447999
 20
-329.54937908869999
 30
0.0
 11
1258.7961542447999
 21
-343.94937908870003
 31
0.0
  0
LINE
  5
130
  8
図枠
  6
BORDER
 10
1258.7961542447999
 20
-329.54937908869999
 30
0.0
 11
1258.7961542447999
 21
-343.94937908870003
 31
0.0
  0
LINE
  5
131
  8
図枠
 10
1279.3679892682001
 20
-331.94937908870003
 30
0.0
 11
1279.3679892682001
 21
-341.54937908869999
 31
0.0
  0
LINE
  5
132
  8
図枠
 10
1269.7679892681999
 20
-334.3493790887
 30
0.0
 11
1269.7679892681999
 21
-339.14937908870002
 31
0.0
  0
LINE
  5
133
  8
図枠
 10
1269.7679892681999
 20
-339.14937908870002
 30
0.0
 11
1279.3679892682001
 21
-341.54937908869999
 31
0.0
  0
LINE
  5
134
  8
図枠
 10
1269.7679892681999
 20
-334.3493790887
 30
0.0
 11
1279.3679892682001
 21
-331.94937908870003
 31
0.0
  0
CIRCLE
  5
135
  8
図枠
 10
1258.7961542447999
 20
-336.74937908869998
 30
0.0
 40
4.7999999999999989
  0
CIRCLE
  5
136
  8
図枠
 10
1258.7961542447999
 20
-336.74937908869998
 30
0.0
 40
2.399999999999999
  0
CIRCLE
  5
137
  8
図枠
 10
1258.7961542447999
 20
-336.74937908869998
 30
0.0
 40
4.7999999999999989
  0
LINE
  5
138
  8
図枠
 10
1269.7679892681999
 20
-334.3493790887
 30
0.0
 11
1279.3679892682001
 21
-331.94937908870003
 31
0.0
  0
ENDBLK
  5
139
  8
0
  0
BLOCK
  8
0
  2
*D8
 70
     1
 10
0.0
 20
0.0
 30
0.0
  3
*D8
  1

  0
TEXT
  5
14B
  8
0
 62
     0
 10
949.61118179959999
 20
111.64379258140001
 30
0.0
 40
5.9972220420999998
  1
380
  0
LINE
  5
14C
  8
0
 62
     0
 10
1144.9028483073
 20
76.033856445799998
 30
0.0
 11
1144.9028483073
 21
110.58545927989999
 31
0.0
  0
LINE
  5
14D
  8
0
 62
     0
 10
764.90284830729979
 20
76.033856445799998
 30
0.0
 11
764.90284830729979
 21
110.58545927989999
 31
0.0
  0
LINE
  5
14E
  8
0
 62
     0
 10
1144.9028483073
 20
109.58545927989999
 30
0.0
 11
963.7222924867998
 21
109.58545927989999
 31
0.0
  0
LINE
  5
14F
  8
0
 62
     0
 10
1144.9028483073
 20
109.58545927989999
 30
0.0
 11
946.08340412779989
 21
109.58545927989999
 31
0.0
  0
LINE
  5
150
  8
0
 62
     0
 10
764.90284830729979
 20
109.58545927989999
 30
0.0
 11
963.7222924867998
 21
109.58545927989999
 31
0.0
  0
LINE
  5
151
  8
0
 62
     0
 10
764.90284830729979
 20
109.58545927989999
 30
0.0
 11
946.08340412779989
 21
109.58545927989999
 31
0.0
  0
LINE
  5
152
  8
0
 62
     0
 10
764.90284830729979
 20
109.58545927989999
 30
0.0
 11
769.90284830729991
 21
109.58545927989999
 31
0.0
  0
SOLID
  5
153
  8
0
 62
     0
 10
764.90284830729979
 20
109.58545927989999
 30
0.0
 11
770.90284830729991
 21
111.08545927989999
 31
0.0
 12
770.90284830729991
 22
108.08545927989999
 32
0.0
 13
769.40284830729979
 23
109.58545927989999
 33
0.0
  0
LINE
  5
154
  8
0
 62
     0
 10
1144.9028483073
 20
109.58545927989999
 30
0.0
 11
1139.9028483073
 21
109.58545927989999
 31
0.0
  0
SOLID
  5
155
  8
0
 62
     0
 10
1144.9028483073
 20
109.58545927989999
 30
0.0
 11
1138.9028483073
 21
108.08545927989999
 31
0.0
 12
1138.9028483073
 22
111.08545927989999
 32
0.0
 13
1140.4028483073
 23
109.58545927989999
 33
0.0
  0
ENDBLK
  5
156
  8
0
  0
BLOCK
  8
0
  2
*D9
 70
     1
 10
0.0
 20
0.0
 30
0.0
  3
*D9
  1

  0
TEXT
  5
15A
  8
0
 62
     0
 10
1175.9944192568
 20
76.769967609899993
 30
0.0
 40
5.9972220420999998
  1
9
 50
90.0
  0
LINE
  5
15B
  8
0
 62
     0
 10
1146.9028483073
 20
74.033856445799998
 30
0.0
 11
1179.0527525584
 21
74.033856445799998
 31
0.0
  0
LINE
  5
15C
  8
0
 62
     0
 10
1155.9028483073
 20
83.033856445799998
 30
0.0
 11
1179.0527525584
 21
83.033856445799998
 31
0.0
  0
LINE
  5
15D
  8
0
 62
     0
 10
1178.0527525584
 20
74.033856445799998
 30
0.0
 11
1178.0527525584
 21
74.033856445799998
 31
0.0
  0
LINE
  5
15E
  8
0
 62
     0
 10
1178.0527525584
 20
74.033856445799998
 30
0.0
 11
1178.0527525584
 21
83.033856445799998
 31
0.0
  0
LINE
  5
15F
  8
0
 62
     0
 10
1178.0527525584
 20
83.033856445799998
 30
0.0
 11
1178.0527525584
 21
74.033856445799998
 31
0.0
  0
LINE
  5
160
  8
0
 62
     0
 10
1178.0527525584
 20
83.033856445799998
 30
0.0
 11
1178.0527525584
 21
83.033856445799998
 31
0.0
  0
LINE
  5
161
  8
0
 62
     0
 10
1178.0527525584
 20
83.033856445799998
 30
0.0
 11
1178.0527525584
 21
88.033856445799998
 31
0.0
  0
SOLID
  5
162
  8
0
 62
     0
 10
1178.0527525584
 20
83.033856445799998
 30
0.0
 11
1176.5527525584
 21
89.033856445799998
 31
0.0
 12
1179.5527525584
 22
89.033856445799998
 32
0.0
 13
1178.0527525584
 23
87.533856445799984
 33
0.0
  0
LINE
  5
163
  8
0
 62
     0
 10
1178.0527525584
 20
74.033856445799998
 30
0.0
 11
1178.0527525584
 21
69.033856445799998
 31
0.0
  0
SOLID
  5
164
  8
0
 62
     0
 10
1178.0527525584
 20
74.033856445799998
 30
0.0
 11
1179.5527525584
 21
68.033856445799998
 31
0.0
 12
1176.5527525584
 22
68.033856445799998
 32
0.0
 13
1178.0527525584
 23
69.533856445799984
 33
0.0
  0
ENDBLK
  5
165
  8
0
  0
BLOCK
  8
0
  2
*D10
 70
     1
 10
0.0
 20
0.0
 30
0.0
  3
*D10
  1

  0
TEXT
  5
169
  8
0
 62
     0
 10
1175.9944173495001
 20
30.506078773999999
 30
0.0
 40
5.9972220420999998
  1
80
 50
90.0
  0
LINE
  5
16A
  8
0
 62
     0
 10
1146.9028483073
 20
-5.9661435541999994
 30
0.0
 11
1179.052750651
 21
-5.9661435541999994
 31
0.0
  0
LINE
  5
16B
  8
0
 62
     0
 10
1146.9028483073
 20
74.033856445799998
 30
0.0
 11
1179.052750651
 21
74.033856445799998
 31
0.0
  0
LINE
  5
16C
  8
0
 62
     0
 10
1178.052750651
 20
-5.9661435541999994
 30
0.0
 11
1178.052750651
 21
41.089411789499998
 31
0.0
  0
LINE
  5
16D
  8
0
 62
     0
 10
1178.052750651
 20
-5.9661435541999994
 30
0.0
 11
1178.052750651
 21
26.9783011022
 31
0.0
  0
LINE
  5
16E
  8
0
 62
     0
 10
1178.052750651
 20
74.033856445799998
 30
0.0
 11
1178.052750651
 21
41.089411789499998
 31
0.0
  0
LINE
  5
16F
  8
0
 62
     0
 10
1178.052750651
 20
74.033856445799998
 30
0.0
 11
1178.052750651
 21
26.9783011022
 31
0.0
  0
LINE
  5
170
  8
0
 62
     0
 10
1178.052750651
 20
74.033856445799998
 30
0.0
 11
1178.052750651
 21
69.033856445799998
 31
0.0
  0
SOLID
  5
171
  8
0
 62
     0
 10
1178.052750651
 20
74.033856445799998
 30
0.0
 11
1179.552750651
 21
68.033856445799998
 31
0.0
 12
1176.552750651
 22
68.033856445799998
 32
0.0
 13
1178.052750651
 23
69.533856445799984
 33
0.0
  0
LINE
  5
172
  8
0
 62
     0
 10
1178.052750651
 20
-5.9661435541999994
 30
0.0
 11
1178.052750651
 21
-0.9661435541999999
 31
0.0
  0
SOLID
  5
173
  8
0
 62
     0
 10
1178.052750651
 20
-5.9661435541999994
 30
0.0
 11
1176.552750651
 21
0.0338564458
 31
0.0
 12
1179.552750651
 22
0.0338564458
 32
0.0
 13
1178.052750651
 23
-1.466143554199999
 33
0.0
  0
ENDBLK
  5
174
  8
0
  0
BLOCK
  8
0
  2
*D11
 70
     1
 10
0.0
 20
0.0
 30
0.0
  3
*D11
  1

  0
TEXT
  5
178
  8
0
 62
     0
 10
1175.9944192568
 20
-12.2300323901
 30
0.0
 40
5.9972220420999998
  1
9
 50
90.0
  0
LINE
  5
179
  8
0
 62
     0
 10
1155.9028483073
 20
-14.9661435542
 30
0.0
 11
1179.0527525584
 21
-14.9661435542
 31
0.0
  0
LINE
  5
17A
  8
0
 62
     0
 10
1146.9028483073
 20
-5.9661435541999994
 30
0.0
 11
1179.0527525584
 21
-5.9661435541999994
 31
0.0
  0
LINE
  5
17B
  8
0
 62
     0
 10
1178.0527525584
 20
-14.9661435542
 30
0.0
 11
1178.0527525584
 21
-14.9661435542
 31
0.0
  0
LINE
  5
17C
  8
0
 62
     0
 10
1178.0527525584
 20
-14.9661435542
 30
0.0
 11
1178.0527525584
 21
-5.9661435541999994
 31
0.0
  0
LINE
  5
17D
  8
0
 62
     0
 10
1178.0527525584
 20
-5.9661435541999994
 30
0.0
 11
1178.0527525584
 21
-14.9661435542
 31
0.0
  0
LINE
  5
17E
  8
0
 62
     0
 10
1178.0527525584
 20
-5.9661435541999994
 30
0.0
 11
1178.0527525584
 21
-5.9661435541999994
 31
0.0
  0
LINE
  5
17F
  8
0
 62
     0
 10
1178.0527525584
 20
-5.9661435541999994
 30
0.0
 11
1178.0527525584
 21
-0.9661435541999999
 31
0.0
  0
SOLID
  5
180
  8
0
 62
     0
 10
1178.0527525584
 20
-5.9661435541999994
 30
0.0
 11
1176.5527525584
 21
0.0338564458
 31
0.0
 12
1179.5527525584
 22
0.0338564458
 32
0.0
 13
1178.0527525584
 23
-1.466143554199999
 33
0.0
  0
LINE
  5
181
  8
0
 62
     0
 10
1178.0527525584
 20
-14.9661435542
 30
0.0
 11
1178.0527525584
 21
-19.966143554199999
 31
0.0
  0
SOLID
  5
182
  8
0
 62
     0
 10
1178.0527525584
 20
-14.9661435542
 30
0.0
 11
1179.5527525584
 21
-20.966143554199999
 31
0.0
 12
1176.5527525584
 22
-20.966143554199999
 32
0.0
 13
1178.0527525584
 23
-19.466143554199999
 33
0.0
  0
ENDBLK
  5
183
  8
0
  0
BLOCK
  8
0
  2
*D12
 70
     1
 10
0.0
 20
0.0
 30
0.0
  3
*D12
  1

  0
TEXT
  5
187
  8
0
 62
     0
 10
1189.6121923129001
 20
30.506078773999999
 30
0.0
 40
5.9972220420999998
  1
98
 50
90.0
  0
LINE
  5
188
  8
0
 62
     0
 10
1155.9028483073
 20
-14.9661435542
 30
0.0
 11
1192.6705256144
 21
-14.9661435542
 31
0.0
  0
LINE
  5
189
  8
0
 62
     0
 10
1155.9028483073
 20
83.033856445799998
 30
0.0
 11
1192.6705256144
 21
83.033856445799998
 31
0.0
  0
LINE
  5
18A
  8
0
 62
     0
 10
1191.6705256144
 20
-14.9661435542
 30
0.0
 11
1191.6705256144
 21
41.089411789499998
 31
0.0
  0
LINE
  5
18B
  8
0
 62
     0
 10
1191.6705256144
 20
-14.9661435542
 30
0.0
 11
1191.6705256144
 21
26.9783011022
 31
0.0
  0
LINE
  5
18C
  8
0
 62
     0
 10
1191.6705256144
 20
83.033856445799998
 30
0.0
 11
1191.6705256144
 21
41.089411789499998
 31
0.0
  0
LINE
  5
18D
  8
0
 62
     0
 10
1191.6705256144
 20
83.033856445799998
 30
0.0
 11
1191.6705256144
 21
26.9783011022
 31
0.0
  0
LINE
  5
18E
  8
0
 62
     0
 10
1191.6705256144
 20
83.033856445799998
 30
0.0
 11
1191.6705256144
 21
78.033856445799998
 31
0.0
  0
SOLID
  5
18F
  8
0
 62
     0
 10
1191.6705256144
 20
83.033856445799998
 30
0.0
 11
1193.1705256144
 21
77.033856445799984
 31
0.0
 12
1190.1705256144
 22
77.033856445799984
 32
0.0
 13
1191.6705256144
 23
78.533856445799998
 33
0.0
  0
LINE
  5
190
  8
0
 62
     0
 10
1191.6705256144
 20
-14.9661435542
 30
0.0
 11
1191.6705256144
 21
-9.9661435542000003
 31
0.0
  0
SOLID
  5
191
  8
0
 62
     0
 10
1191.6705256144
 20
-14.9661435542
 30
0.0
 11
1190.1705256144
 21
-8.9661435542000003
 31
0.0
 12
1193.1705256144
 22
-8.9661435542000003
 32
0.0
 13
1191.6705256144
 23
-10.4661435542
 33
0.0
  0
ENDBLK
  5
192
  8
0
  0
BLOCK
  8
0
  2
*D13
 70
     1
 10
0.0
 20
0.0
 30
0.0
  3
*D13
  1

  0
TEXT
  5
196
  8
0
 62
     0
 10
1280.0380045891
 20
-34.401008793599999
 30
0.0
 40
5.9972220420999998
  1
15.5
 50
90.0
  0
LINE
  5
197
  8
0
 62
     0
 10
1264.6448567708001
 20
-14.965883137500001
 30
0.0
 11
1283.0963378905999
 21
-14.965883137500001
 31
0.0
  0
LINE
  5
198
  8
0
 62
     0
 10
1264.6448567708001
 20
0.5341168625
 30
0.0
 11
1283.0963378905999
 21
0.5341168625
 31
0.0
  0
LINE
  5
199
  8
0
 62
     0
 10
1282.0963378905999
 20
-14.965883137500001
 30
0.0
 11
1282.0963378905999
 21
-16.7621204346
 31
0.0
  0
LINE
  5
19A
  8
0
 62
     0
 10
1282.0963378905999
 20
-14.965883137500001
 30
0.0
 11
1282.0963378905999
 21
-37.928786465400002
 31
0.0
  0
LINE
  5
19B
  8
0
 62
     0
 10
1282.0963378905999
 20
0.5341168625
 30
0.0
 11
1282.0963378905999
 21
-16.7621204346
 31
0.0
  0
LINE
  5
19C
  8
0
 62
     0
 10
1282.0963378905999
 20
0.5341168625
 30
0.0
 11
1282.0963378905999
 21
-37.928786465400002
 31
0.0
  0
LINE
  5
19D
  8
0
 62
     0
 10
1282.0963378905999
 20
0.5341168625
 30
0.0
 11
1282.0963378905999
 21
-4.4658831374999988
 31
0.0
  0
SOLID
  5
19E
  8
0
 62
     0
 10
1282.0963378905999
 20
0.5341168625
 30
0.0
 11
1283.5963378905999
 21
-5.4658831374999988
 31
0.0
 12
1280.5963378905999
 22
-5.4658831374999988
 32
0.0
 13
1282.0963378905999
 23
-3.9658831375000001
 33
0.0
  0
LINE
  5
19F
  8
0
 62
     0
 10
1282.0963378905999
 20
-14.965883137500001
 30
0.0
 11
1282.0963378905999
 21
-9.9658831375000005
 31
0.0
  0
SOLID
  5
1A0
  8
0
 62
     0
 10
1282.0963378905999
 20
-14.965883137500001
 30
0.0
 11
1280.5963378905999
 21
-8.9658831375000005
 31
0.0
 12
1283.5963378905999
 22
-8.9658831375000005
 32
0.0
 13
1282.0963378905999
 23
-10.465883137500001
 33
0.0
  0
ENDBLK
  5
1A1
  8
0
  0
BLOCK
  8
0
  2
*D14
 70
     1
 10
0.0
 20
0.0
 30
0.0
  3
*D14
  1

  0
TEXT
  5
1A5
  8
0
 62
     0
 10
1280.0273112297
 20
30.5063391907
 30
0.0
 40
5.9972220420999998
  1
67
 50
90.0
  0
LINE
  5
1A6
  8
0
 62
     0
 10
1264.6448567708001
 20
0.5341168625
 30
0.0
 11
1283.0856445313
 21
0.5341168625
 31
0.0
  0
LINE
  5
1A7
  8
0
 62
     0
 10
1264.6448567708001
 20
67.534116862499999
 30
0.0
 11
1283.0856445313
 21
67.534116862499999
 31
0.0
  0
LINE
  5
1A8
  8
0
 62
     0
 10
1282.0856445313
 20
0.5341168625
 30
0.0
 11
1282.0856445313
 21
41.089672206099998
 31
0.0
  0
LINE
  5
1A9
  8
0
 62
     0
 10
1282.0856445313
 20
0.5341168625
 30
0.0
 11
1282.0856445313
 21
26.978561518900001
 31
0.0
  0
LINE
  5
1AA
  8
0
 62
     0
 10
1282.0856445313
 20
67.534116862499999
 30
0.0
 11
1282.0856445313
 21
41.089672206099998
 31
0.0
  0
LINE
  5
1AB
  8
0
 62
     0
 10
1282.0856445313
 20
67.534116862499999
 30
0.0
 11
1282.0856445313
 21
26.978561518900001
 31
0.0
  0
LINE
  5
1AC
  8
0
 62
     0
 10
1282.0856445313
 20
67.534116862499999
 30
0.0
 11
1282.0856445313
 21
62.534116862499999
 31
0.0
  0
SOLID
  5
1AD
  8
0
 62
     0
 10
1282.0856445313
 20
67.534116862499999
 30
0.0
 11
1283.5856445313
 21
61.534116862499999
 31
0.0
 12
1280.5856445313
 22
61.534116862499999
 32
0.0
 13
1282.0856445313
 23
63.034116862499999
 33
0.0
  0
LINE
  5
1AE
  8
0
 62
     0
 10
1282.0856445313
 20
0.5341168625
 30
0.0
 11
1282.0856445313
 21
5.5341168625000003
 31
0.0
  0
SOLID
  5
1AF
  8
0
 62
     0
 10
1282.0856445313
 20
0.5341168625
 30
0.0
 11
1280.5856445313
 21
6.5341168625000003
 31
0.0
 12
1283.5856445313
 22
6.5341168625000003
 32
0.0
 13
1282.0856445313
 23
5.0341168625000003
 33
0.0
  0
ENDBLK
  5
1B0
  8
0
  0
BLOCK
  8
0
  2
*D15
 70
     1
 10
0.0
 20
0.0
 30
0.0
  3
*D15
  1

  0
TEXT
  5
1B4
  8
0
 62
     0
 10
1244.9170790989999
 20
125.5578257846
 30
0.0
 40
5.9972220420999998
  1
30
  0
LINE
  5
1B5
  8
0
 62
     0
 10
1263.4448567708
 20
84.234116862500002
 30
0.0
 11
1263.4448567708
 21
124.499492483
 31
0.0
  0
LINE
  5
1B6
  8
0
 62
     0
 10
1233.4448567708
 20
84.234116862500002
 30
0.0
 11
1233.4448567708
 21
124.499492483
 31
0.0
  0
LINE
  5
1B7
  8
0
 62
     0
 10
1263.4448567708
 20
123.499492483
 30
0.0
 11
1255.5004121145
 21
123.499492483
 31
0.0
  0
LINE
  5
1B8
  8
0
 62
     0
 10
1263.4448567708
 20
123.499492483
 30
0.0
 11
1241.3893014272001
 21
123.499492483
 31
0.0
  0
LINE
  5
1B9
  8
0
 62
     0
 10
1233.4448567708
 20
123.499492483
 30
0.0
 11
1255.5004121145
 21
123.499492483
 31
0.0
  0
LINE
  5
1BA
  8
0
 62
     0
 10
1233.4448567708
 20
123.499492483
 30
0.0
 11
1241.3893014272001
 21
123.499492483
 31
0.0
  0
LINE
  5
1BB
  8
0
 62
     0
 10
1233.4448567708
 20
123.499492483
 30
0.0
 11
1238.4448567708
 21
123.499492483
 31
0.0
  0
SOLID
  5
1BC
  8
0
 62
     0
 10
1233.4448567708
 20
123.499492483
 30
0.0
 11
1239.4448567708
 21
124.999492483
 31
0.0
 12
1239.4448567708
 22
121.999492483
 32
0.0
 13
1237.9448567708
 23
123.499492483
 33
0.0
  0
LINE
  5
1BD
  8
0
 62
     0
 10
1263.4448567708
 20
123.499492483
 30
0.0
 11
1258.4448567708
 21
123.499492483
 31
0.0
  0
SOLID
  5
1BE
  8
0
 62
     0
 10
1263.4448567708
 20
123.499492483
 30
0.0
 11
1257.4448567708
 21
121.999492483
 31
0.0
 12
1257.4448567708
 22
124.999492483
 32
0.0
 13
1258.9448567708
 23
123.499492483
 33
0.0
  0
ENDBLK
  5
1BF
  8
0
  0
BLOCK
  8
0
  2
*D16
 70
     1
 10
0.0
 20
0.0
 30
0.0
  3
*D16
  1

  0
TEXT
  5
1C3
  8
0
 62
     0
 10
1252.4170790989999
 20
111.13942627900001
 30
0.0
 40
5.9972220420999998
  1
15
  0
LINE
  5
1C4
  8
0
 62
     0
 10
1263.4448567708
 20
85.034116862499999
 30
0.0
 11
1263.4448567708
 21
110.0810929774
 31
0.0
  0
LINE
  5
1C5
  8
0
 62
     0
 10
1248.4448567708
 20
76.034116862499999
 30
0.0
 11
1248.4448567708
 21
110.0810929774
 31
0.0
  0
LINE
  5
1C6
  8
0
 62
     0
 10
1263.4448567708
 20
109.0810929774
 30
0.0
 11
1263.0004121145
 21
109.0810929774
 31
0.0
  0
LINE
  5
1C7
  8
0
 62
     0
 10
1263.4448567708
 20
109.0810929774
 30
0.0
 11
1248.8893014272001
 21
109.0810929774
 31
0.0
  0
LINE
  5
1C8
  8
0
 62
     0
 10
1248.4448567708
 20
109.0810929774
 30
0.0
 11
1263.0004121145
 21
109.0810929774
 31
0.0
  0
LINE
  5
1C9
  8
0
 62
     0
 10
1248.4448567708
 20
109.0810929774
 30
0.0
 11
1248.8893014272001
 21
109.0810929774
 31
0.0
  0
LINE
  5
1CA
  8
0
 62
     0
 10
1248.4448567708
 20
109.0810929774
 30
0.0
 11
1243.4448567708
 21
109.0810929774
 31
0.0
  0
SOLID
  5
1CB
  8
0
 62
     0
 10
1248.4448567708
 20
109.0810929774
 30
0.0
 11
1242.4448567708
 21
107.5810929774
 31
0.0
 12
1242.4448567708
 22
110.5810929774
 32
0.0
 13
1243.9448567708
 23
109.0810929774
 33
0.0
  0
LINE
  5
1CC
  8
0
 62
     0
 10
1263.4448567708
 20
109.0810929774
 30
0.0
 11
1268.4448567708
 21
109.0810929774
 31
0.0
  0
SOLID
  5
1CD
  8
0
 62
     0
 10
1263.4448567708
 20
109.0810929774
 30
0.0
 11
1269.4448567708
 21
110.5810929774
 31
0.0
 12
1269.4448567708
 22
107.5810929774
 32
0.0
 13
1267.9448567708
 23
109.0810929774
 33
0.0
  0
ENDBLK
  5
1CE
  8
0
  0
BLOCK
  8
0
  2
*D17
 70
     1
 10
0.0
 20
0.0
 30
0.0
  3
*D17
  1

  0
TEXT
  5
1D2
  8
0
 62
     0
 10
1147.6389594714001
 20
111.6437906741
 30
0.0
 40
5.9972220420999998
  1
9
  0
LINE
  5
1D3
  8
0
 62
     0
 10
1153.9028483073
 20
85.033856445799984
 30
0.0
 11
1153.9028483073
 21
110.5854573726
 31
0.0
  0
LINE
  5
1D4
  8
0
 62
     0
 10
1144.9028483073
 20
76.033856445799998
 30
0.0
 11
1144.9028483073
 21
110.5854573726
 31
0.0
  0
LINE
  5
1D5
  8
0
 62
     0
 10
1153.9028483073
 20
109.5854573726
 30
0.0
 11
1153.9028483073
 21
109.5854573726
 31
0.0
  0
LINE
  5
1D6
  8
0
 62
     0
 10
1153.9028483073
 20
109.5854573726
 30
0.0
 11
1144.9028483073
 21
109.5854573726
 31
0.0
  0
LINE
  5
1D7
  8
0
 62
     0
 10
1144.9028483073
 20
109.5854573726
 30
0.0
 11
1153.9028483073
 21
109.5854573726
 31
0.0
  0
LINE
  5
1D8
  8
0
 62
     0
 10
1144.9028483073
 20
109.5854573726
 30
0.0
 11
1144.9028483073
 21
109.5854573726
 31
0.0
  0
LINE
  5
1D9
  8
0
 62
     0
 10
1144.9028483073
 20
109.5854573726
 30
0.0
 11
1139.9028483073
 21
109.5854573726
 31
0.0
  0
SOLID
  5
1DA
  8
0
 62
     0
 10
1144.9028483073
 20
109.5854573726
 30
0.0
 11
1138.9028483073
 21
108.0854573726
 31
0.0
 12
1138.9028483073
 22
111.0854573726
 32
0.0
 13
1140.4028483073
 23
109.5854573726
 33
0.0
  0
LINE
  5
1DB
  8
0
 62
     0
 10
1153.9028483073
 20
109.5854573726
 30
0.0
 11
1158.9028483073
 21
109.5854573726
 31
0.0
  0
SOLID
  5
1DC
  8
0
 62
     0
 10
1153.9028483073
 20
109.5854573726
 30
0.0
 11
1159.9028483073
 21
111.0854573726
 31
0.0
 12
1159.9028483073
 22
108.0854573726
 32
0.0
 13
1158.4028483073
 23
109.5854573726
 33
0.0
  0
ENDBLK
  5
1DD
  8
0
  0
BLOCK
  8
0
  2
*D18
 70
     1
 10
0.0
 20
0.0
 30
0.0
  3
*D18
  1

  0
TEXT
  5
1E1
  8
0
 62
     0
 10
1329.0763889949001
 20
113.6667852623
 30
0.0
 40
5.9972220420999998
  1
25
  0
LINE
  5
1E2
  8
0
 62
     0
 10
1345.1041666666999
 20
76.034116862499999
 30
0.0
 11
1345.1041666666999
 21
112.6084519608
 31
0.0
  0
LINE
  5
1E3
  8
0
 62
     0
 10
1320.1041666666999
 20
85.034116862499999
 30
0.0
 11
1320.1041666666999
 21
112.6084519608
 31
0.0
  0
LINE
  5
1E4
  8
0
 62
     0
 10
1345.1041666666999
 20
111.6084519608
 30
0.0
 11
1339.6597220102999
 21
111.6084519608
 31
0.0
  0
LINE
  5
1E5
  8
0
 62
     0
 10
1345.1041666666999
 20
111.6084519608
 30
0.0
 11
1325.5486113229999
 21
111.6084519608
 31
0.0
  0
LINE
  5
1E6
  8
0
 62
     0
 10
1320.1041666666999
 20
111.6084519608
 30
0.0
 11
1339.6597220102999
 21
111.6084519608
 31
0.0
  0
LINE
  5
1E7
  8
0
 62
     0
 10
1320.1041666666999
 20
111.6084519608
 30
0.0
 11
1325.5486113229999
 21
111.6084519608
 31
0.0
  0
LINE
  5
1E8
  8
0
 62
     0
 10
1320.1041666666999
 20
111.6084519608
 30
0.0
 11
1315.1041666666999
 21
111.6084519608
 31
0.0
  0
SOLID
  5
1E9
  8
0
 62
     0
 10
1320.1041666666999
 20
111.6084519608
 30
0.0
 11
1314.1041666666999
 21
110.1084519608
 31
0.0
 12
1314.1041666666999
 22
113.1084519608
 32
0.0
 13
1315.6041666666999
 23
111.6084519608
 33
0.0
  0
LINE
  5
1EA
  8
0
 62
     0
 10
1345.1041666666999
 20
111.6084519608
 30
0.0
 11
1350.1041666666999
 21
111.6084519608
 31
0.0
  0
SOLID
  5
1EB
  8
0
 62
     0
 10
1345.1041666666999
 20
111.6084519608
 30
0.0
 11
1351.1041666666999
 21
113.1084519608
 31
0.0
 12
1351.1041666666999
 22
110.1084519608
 32
0.0
 13
1349.6041666666999
 23
111.6084519608
 33
0.0
  0
ENDBLK
  5
1EC
  8
0
  0
BLOCK
  8
0
  2
*D19
 70
     1
 10
0.0
 20
0.0
 30
0.0
  3
*D19
  1

  0
TEXT
  5
1F0
  8
0
 62
     0
 10
1389.0458333651
 20
-11.4936608093
 30
0.0
 40
5.9972220420999998
  1
14
 50
90.0
  0
LINE
  5
1F1
  8
0
 62
     0
 10
1377.1041666666999
 20
-14.965883137500001
 30
0.0
 11
1392.1041666666999
 21
-14.965883137500001
 31
0.0
  0
LINE
  5
1F2
  8
0
 62
     0
 10
1377.1041666666999
 20
-0.9658831375
 30
0.0
 11
1392.1041666666999
 21
-0.9658831375
 31
0.0
  0
LINE
  5
1F3
  8
0
 62
     0
 10
1391.1041666666999
 20
-14.965883137500001
 30
0.0
 11
1391.1041666666999
 21
-14.965883137500001
 31
0.0
  0
LINE
  5
1F4
  8
0
 62
     0
 10
1391.1041666666999
 20
-14.965883137500001
 30
0.0
 11
1391.1041666666999
 21
-0.9658831375
 31
0.0
  0
LINE
  5
1F5
  8
0
 62
     0
 10
1391.1041666666999
 20
-0.9658831375
 30
0.0
 11
1391.1041666666999
 21
-14.965883137500001
 31
0.0
  0
LINE
  5
1F6
  8
0
 62
     0
 10
1391.1041666666999
 20
-0.9658831375
 30
0.0
 11
1391.1041666666999
 21
-0.9658831375
 31
0.0
  0
LINE
  5
1F7
  8
0
 62
     0
 10
1391.1041666666999
 20
-0.9658831375
 30
0.0
 11
1391.1041666666999
 21
-5.9658831374999988
 31
0.0
  0
SOLID
  5
1F8
  8
0
 62
     0
 10
1391.1041666666999
 20
-0.9658831375
 30
0.0
 11
1392.6041666666999
 21
-6.9658831374999988
 31
0.0
 12
1389.6041666666999
 22
-6.9658831374999988
 32
0.0
 13
1391.1041666666999
 23
-5.4658831374999988
 33
0.0
  0
LINE
  5
1F9
  8
0
 62
     0
 10
1391.1041666666999
 20
-14.965883137500001
 30
0.0
 11
1391.1041666666999
 21
-9.9658831375000005
 31
0.0
  0
SOLID
  5
1FA
  8
0
 62
     0
 10
1391.1041666666999
 20
-14.965883137500001
 30
0.0
 11
1389.6041666666999
 21
-8.9658831375000005
 31
0.0
 12
1392.6041666666999
 22
-8.9658831375000005
 32
0.0
 13
1391.1041666666999
 23
-10.465883137500001
 33
0.0
  0
ENDBLK
  5
1FB
  8
0
  0
BLOCK
  8
0
  2
*D20
 70
     1
 10
0.0
 20
0.0
 30
0.0
  3
*D20
  1

  0
TEXT
  5
1FF
  8
0
 62
     0
 10
1389.0458333651
 20
30.5063391907
 30
0.0
 40
5.9972220420999998
  1
70
 50
90.0
  0
LINE
  5
200
  8
0
 62
     0
 10
1377.1041666666999
 20
-0.9658831375
 30
0.0
 11
1392.1041666666999
 21
-0.9658831375
 31
0.0
  0
LINE
  5
201
  8
0
 62
     0
 10
1377.1041666666999
 20
69.034116862499999
 30
0.0
 11
1392.1041666666999
 21
69.034116862499999
 31
0.0
  0
LINE
  5
202
  8
0
 62
     0
 10
1391.1041666666999
 20
-0.9658831375
 30
0.0
 11
1391.1041666666999
 21
41.089672206099998
 31
0.0
  0
LINE
  5
203
  8
0
 62
     0
 10
1391.1041666666999
 20
-0.9658831375
 30
0.0
 11
1391.1041666666999
 21
26.978561518900001
 31
0.0
  0
LINE
  5
204
  8
0
 62
     0
 10
1391.1041666666999
 20
69.034116862499999
 30
0.0
 11
1391.1041666666999
 21
41.089672206099998
 31
0.0
  0
LINE
  5
205
  8
0
 62
     0
 10
1391.1041666666999
 20
69.034116862499999
 30
0.0
 11
1391.1041666666999
 21
26.978561518900001
 31
0.0
  0
LINE
  5
206
  8
0
 62
     0
 10
1391.1041666666999
 20
69.034116862499999
 30
0.0
 11
1391.1041666666999
 21
64.034116862499999
 31
0.0
  0
SOLID
  5
207
  8
0
 62
     0
 10
1391.1041666666999
 20
69.034116862499999
 30
0.0
 11
1392.6041666666999
 21
63.034116862499999
 31
0.0
 12
1389.6041666666999
 22
63.034116862499999
 32
0.0
 13
1391.1041666666999
 23
64.534116862499985
 33
0.0
  0
LINE
  5
208
  8
0
 62
     0
 10
1391.1041666666999
 20
-0.9658831375
 30
0.0
 11
1391.1041666666999
 21
4.0341168625000003
 31
0.0
  0
SOLID
  5
209
  8
0
 62
     0
 10
1391.1041666666999
 20
-0.9658831375
 30
0.0
 11
1389.6041666666999
 21
5.0341168625000003
 31
0.0
 12
1392.6041666666999
 22
5.0341168625000003
 32
0.0
 13
1391.1041666666999
 23
3.534116862499999
 33
0.0
  0
ENDBLK
  5
20A
  8
0
  0
BLOCK
  8
0
  2
*D21
 70
     1
 10
0.0
 20
0.0
 30
0.0
  3
*D21
  1

  0
TEXT
  5
20E
  8
0
 62
     0
 10
949.61118179959999
 20
126.82862331059999
 30
0.0
 40
5.9972220420999998
  1
398
  0
LINE
  5
20F
  8
0
 62
     0
 10
1153.9028483073
 20
85.033856445799984
 30
0.0
 11
1153.9028483073
 21
125.77029000909999
 31
0.0
  0
LINE
  5
210
  8
0
 62
     0
 10
755.90284830729991
 20
85.033856445799984
 30
0.0
 11
755.90284830729991
 21
125.77029000909999
 31
0.0
  0
LINE
  5
211
  8
0
 62
     0
 10
1153.9028483073
 20
124.77029000909999
 30
0.0
 11
963.7222924867998
 21
124.77029000909999
 31
0.0
  0
LINE
  5
212
  8
0
 62
     0
 10
1153.9028483073
 20
124.77029000909999
 30
0.0
 11
946.08340412779989
 21
124.77029000909999
 31
0.0
  0
LINE
  5
213
  8
0
 62
     0
 10
755.90284830729991
 20
124.77029000909999
 30
0.0
 11
963.7222924867998
 21
124.77029000909999
 31
0.0
  0
LINE
  5
214
  8
0
 62
     0
 10
755.90284830729991
 20
124.77029000909999
 30
0.0
 11
946.08340412779989
 21
124.77029000909999
 31
0.0
  0
LINE
  5
215
  8
0
 62
     0
 10
755.90284830729991
 20
124.77029000909999
 30
0.0
 11
760.90284830729979
 21
124.77029000909999
 31
0.0
  0
SOLID
  5
216
  8
0
 62
     0
 10
755.90284830729991
 20
124.77029000909999
 30
0.0
 11
761.90284830729991
 21
126.27029000909999
 31
0.0
 12
761.90284830729991
 22
123.27029000909999
 32
0.0
 13
760.40284830729979
 23
124.77029000909999
 33
0.0
  0
LINE
  5
217
  8
0
 62
     0
 10
1153.9028483073
 20
124.77029000909999
 30
0.0
 11
1148.9028483073
 21
124.77029000909999
 31
0.0
  0
SOLID
  5
218
  8
0
 62
     0
 10
1153.9028483073
 20
124.77029000909999
 30
0.0
 11
1147.9028483073
 21
123.27029000909999
 31
0.0
 12
1147.9028483073
 22
126.27029000909999
 32
0.0
 13
1149.4028483073
 23
124.77029000909999
 33
0.0
  0
ENDBLK
  5
219
  8
0
  0
BLOCK
  8
0
  2
*D22
 70
     1
 10
0.0
 20
0.0
 30
0.0
  3
*D22
  1

  0
TEXT
  5
21D
  8
0
 62
     0
 10
758.63895947139986
 20
111.6437906741
 30
0.0
 40
5.9972220420999998
  1
9
  0
LINE
  5
21E
  8
0
 62
     0
 10
764.90284830729979
 20
76.033856445799998
 30
0.0
 11
764.90284830729979
 21
110.5854573726
 31
0.0
  0
LINE
  5
21F
  8
0
 62
     0
 10
755.90284830729991
 20
85.033856445799984
 30
0.0
 11
755.90284830729991
 21
110.5854573726
 31
0.0
  0
LINE
  5
220
  8
0
 62
     0
 10
764.90284830729979
 20
109.5854573726
 30
0.0
 11
764.90284830729979
 21
109.5854573726
 31
0.0
  0
LINE
  5
221
  8
0
 62
     0
 10
764.90284830729979
 20
109.5854573726
 30
0.0
 11
755.90284830729991
 21
109.5854573726
 31
0.0
  0
LINE
  5
222
  8
0
 62
     0
 10
755.90284830729991
 20
109.5854573726
 30
0.0
 11
764.90284830729979
 21
109.5854573726
 31
0.0
  0
LINE
  5
223
  8
0
 62
     0
 10
755.90284830729991
 20
109.5854573726
 30
0.0
 11
755.90284830729991
 21
109.5854573726
 31
0.0
  0
LINE
  5
224
  8
0
 62
     0
 10
755.90284830729991
 20
109.5854573726
 30
0.0
 11
750.90284830729991
 21
109.5854573726
 31
0.0
  0
SOLID
  5
225
  8
0
 62
     0
 10
755.90284830729991
 20
109.5854573726
 30
0.0
 11
749.90284830729991
 21
108.0854573726
 31
0.0
 12
749.90284830729991
 22
111.0854573726
 32
0.0
 13
751.40284830729991
 23
109.5854573726
 33
0.0
  0
LINE
  5
226
  8
0
 62
     0
 10
764.90284830729979
 20
109.5854573726
 30
0.0
 11
769.90284830729991
 21
109.5854573726
 31
0.0
  0
SOLID
  5
227
  8
0
 62
     0
 10
764.90284830729979
 20
109.5854573726
 30
0.0
 11
770.90284830729991
 21
111.0854573726
 31
0.0
 12
770.90284830729991
 22
108.0854573726
 32
0.0
 13
769.40284830729979
 23
109.5854573726
 33
0.0
  0
ENDBLK
  5
228
  8
0
  0
BLOCK
  8
0
  2
*D23
 70
     1
 10
0.0
 20
0.0
 30
0.0
  3
*D23
  1

  0
TEXT
  5
22C
  8
0
 62
     0
 10
1237.1748385293999
 20
111.1394293307
 30
0.0
 40
5.9972220420999998
  1
15
  0
LINE
  5
22D
  8
0
 62
     0
 10
1248.4448567708
 20
76.034116862499999
 30
0.0
 11
1248.4448567708
 21
110.0810960292
 31
0.0
  0
LINE
  5
22E
  8
0
 62
     0
 10
1233.4448567708
 20
84.234116862500002
 30
0.0
 11
1233.4448567708
 21
110.0810960292
 31
0.0
  0
LINE
  5
22F
  8
0
 62
     0
 10
1248.4448567708
 20
109.0810960292
 30
0.0
 11
1247.7581715448
 21
109.0810960292
 31
0.0
  0
LINE
  5
230
  8
0
 62
     0
 10
1248.4448567708
 20
109.0810960292
 30
0.0
 11
1233.6470608576001
 21
109.0810960292
 31
0.0
  0
LINE
  5
231
  8
0
 62
     0
 10
1233.4448567708
 20
109.0810960292
 30
0.0
 11
1247.7581715448
 21
109.0810960292
 31
0.0
  0
LINE
  5
232
  8
0
 62
     0
 10
1233.4448567708
 20
109.0810960292
 30
0.0
 11
1233.6470608576001
 21
109.0810960292
 31
0.0
  0
LINE
  5
233
  8
0
 62
     0
 10
1233.4448567708
 20
109.0810960292
 30
0.0
 11
1228.4448567708
 21
109.0810960292
 31
0.0
  0
SOLID
  5
234
  8
0
 62
     0
 10
1233.4448567708
 20
109.0810960292
 30
0.0
 11
1227.4448567708
 21
107.5810960292
 31
0.0
 12
1227.4448567708
 22
110.5810960292
 32
0.0
 13
1228.9448567708
 23
109.0810960292
 33
0.0
  0
LINE
  5
235
  8
0
 62
     0
 10
1248.4448567708
 20
109.0810960292
 30
0.0
 11
1253.4448567708
 21
109.0810960292
 31
0.0
  0
SOLID
  5
236
  8
0
 62
     0
 10
1248.4448567708
 20
109.0810960292
 30
0.0
 11
1254.4448567708
 21
110.5810960292
 31
0.0
 12
1254.4448567708
 22
107.5810960292
 32
0.0
 13
1252.9448567708
 23
109.0810960292
 33
0.0
  0
ENDBLK
  5
237
  8
0
  0
BLOCK
  8
0
  2
*D24
 70
     1
 10
0.0
 20
0.0
 30
0.0
  3
*D24
  1

  0
TEXT
  5
23B
  8
0
 62
     0
 10
801.48810312629996
 20
-258.67841066800003
 30
0.0
 40
5.9972220420999998
  1
65
  0
LINE
  5
23C
  8
0
 62
     0
 10
772.51588079809994
 20
-231.7367439695
 30
0.0
 11
772.51588079809994
 21
-261.73674396950003
 31
0.0
  0
LINE
  5
23D
  8
0
 62
     0
 10
837.51588079810006
 20
-231.7367439695
 30
0.0
 11
837.51588079810006
 21
-261.73674396950003
 31
0.0
  0
LINE
  5
23E
  8
0
 62
     0
 10
772.51588079809994
 20
-260.73674396950003
 30
0.0
 11
812.07143614170002
 21
-260.73674396950003
 31
0.0
  0
LINE
  5
23F
  8
0
 62
     0
 10
772.51588079809994
 20
-260.73674396950003
 30
0.0
 11
797.96032545449998
 21
-260.73674396950003
 31
0.0
  0
LINE
  5
240
  8
0
 62
     0
 10
837.51588079810006
 20
-260.73674396950003
 30
0.0
 11
812.07143614170002
 21
-260.73674396950003
 31
0.0
  0
LINE
  5
241
  8
0
 62
     0
 10
837.51588079810006
 20
-260.73674396950003
 30
0.0
 11
797.96032545449998
 21
-260.73674396950003
 31
0.0
  0
LINE
  5
242
  8
0
 62
     0
 10
837.51588079810006
 20
-260.73674396950003
 30
0.0
 11
832.51588079809994
 21
-260.73674396950003
 31
0.0
  0
SOLID
  5
243
  8
0
 62
     0
 10
837.51588079810006
 20
-260.73674396950003
 30
0.0
 11
831.51588079809994
 21
-262.23674396950003
 31
0.0
 12
831.51588079809994
 22
-259.23674396950003
 32
0.0
 13
833.01588079810006
 23
-260.73674396950003
 33
0.0
  0
LINE
  5
244
  8
0
 62
     0
 10
772.51588079809994
 20
-260.73674396950003
 30
0.0
 11
777.51588079809994
 21
-260.73674396950003
 31
0.0
  0
SOLID
  5
245
  8
0
 62
     0
 10
772.51588079809994
 20
-260.73674396950003
 30
0.0
 11
778.51588079809994
 21
-259.23674396950003
 31
0.0
 12
778.51588079809994
 22
-262.23674396950003
 32
0.0
 13
777.01588079809994
 23
-260.73674396950003
 33
0.0
  0
ENDBLK
  5
246
  8
0
  0
BLOCK
  8
0
  2
*D25
 70
     1
 10
0.0
 20
0.0
 30
0.0
  3
*D25
  1

  0
TEXT
  5
24A
  8
0
 62
     0
 10
736.48810312629996
 20
-258.67841066800003
 30
0.0
 40
5.9972220420999998
  1
65
  0
LINE
  5
24B
  8
0
 62
     0
 10
707.51588079809994
 20
-231.7367439695
 30
0.0
 11
707.51588079809994
 21
-261.73674396950003
 31
0.0
  0
LINE
  5
24C
  8
0
 62
     0
 10
772.51588079809994
 20
-231.7367439695
 30
0.0
 11
772.51588079809994
 21
-261.73674396950003
 31
0.0
  0
LINE
  5
24D
  8
0
 62
     0
 10
707.51588079809994
 20
-260.73674396950003
 30
0.0
 11
747.07143614170002
 21
-260.73674396950003
 31
0.0
  0
LINE
  5
24E
  8
0
 62
     0
 10
707.51588079809994
 20
-260.73674396950003
 30
0.0
 11
732.96032545449987
 21
-260.73674396950003
 31
0.0
  0
LINE
  5
24F
  8
0
 62
     0
 10
772.51588079809994
 20
-260.73674396950003
 30
0.0
 11
747.07143614170002
 21
-260.73674396950003
 31
0.0
  0
LINE
  5
250
  8
0
 62
     0
 10
772.51588079809994
 20
-260.73674396950003
 30
0.0
 11
732.96032545449987
 21
-260.73674396950003
 31
0.0
  0
LINE
  5
251
  8
0
 62
     0
 10
772.51588079809994
 20
-260.73674396950003
 30
0.0
 11
767.51588079809994
 21
-260.73674396950003
 31
0.0
  0
SOLID
  5
252
  8
0
 62
     0
 10
772.51588079809994
 20
-260.73674396950003
 30
0.0
 11
766.51588079809994
 21
-262.23674396950003
 31
0.0
 12
766.51588079809994
 22
-259.23674396950003
 32
0.0
 13
768.01588079809994
 23
-260.73674396950003
 33
0.0
  0
LINE
  5
253
  8
0
 62
     0
 10
707.51588079809994
 20
-260.73674396950003
 30
0.0
 11
712.51588079809994
 21
-260.73674396950003
 31
0.0
  0
SOLID
  5
254
  8
0
 62
     0
 10
707.51588079809994
 20
-260.73674396950003
 30
0.0
 11
713.51588079809994
 21
-259.23674396950003
 31
0.0
 12
713.51588079809994
 22
-262.23674396950003
 32
0.0
 13
712.01588079809994
 23
-260.73674396950003
 33
0.0
  0
ENDBLK
  5
255
  8
0
  0
BLOCK
  8
0
  2
*D26
 70
     1
 10
0.0
 20
0.0
 30
0.0
  3
*D26
  1

  0
TEXT
  5
259
  8
0
 62
     0
 10
685.32143661860005
 20
-258.67841066800003
 30
0.0
 40
5.9972220420999998
  1
26.75
  0
LINE
  5
25A
  8
0
 62
     0
 10
680.76588079809994
 20
-242.7367439695
 30
0.0
 11
680.76588079809994
 21
-261.73674396950003
 31
0.0
  0
LINE
  5
25B
  8
0
 62
     0
 10
707.51588079809994
 20
-231.7367439695
 30
0.0
 11
707.51588079809994
 21
-261.73674396950003
 31
0.0
  0
LINE
  5
25C
  8
0
 62
     0
 10
680.76588079809994
 20
-260.73674396950003
 30
0.0
 11
706.48810264940005
 21
-260.73674396950003
 31
0.0
  0
LINE
  5
25D
  8
0
 62
     0
 10
680.76588079809994
 20
-260.73674396950003
 30
0.0
 11
681.79365894670002
 21
-260.73674396950003
 31
0.0
  0
LINE
  5
25E
  8
0
 62
     0
 10
707.51588079809994
 20
-260.73674396950003
 30
0.0
 11
706.48810264940005
 21
-260.73674396950003
 31
0.0
  0
LINE
  5
25F
  8
0
 62
     0
 10
707.51588079809994
 20
-260.73674396950003
 30
0.0
 11
681.79365894670002
 21
-260.73674396950003
 31
0.0
  0
LINE
  5
260
  8
0
 62
     0
 10
707.51588079809994
 20
-260.73674396950003
 30
0.0
 11
712.51588079809994
 21
-260.73674396950003
 31
0.0
  0
SOLID
  5
261
  8
0
 62
     0
 10
707.51588079809994
 20
-260.73674396950003
 30
0.0
 11
713.51588079809994
 21
-259.23674396950003
 31
0.0
 12
713.51588079809994
 22
-262.23674396950003
 32
0.0
 13
712.01588079809994
 23
-260.73674396950003
 33
0.0
  0
LINE
  5
262
  8
0
 62
     0
 10
680.76588079809994
 20
-260.73674396950003
 30
0.0
 11
675.76588079809994
 21
-260.73674396950003
 31
0.0
  0
SOLID
  5
263
  8
0
 62
     0
 10
680.76588079809994
 20
-260.73674396950003
 30
0.0
 11
674.76588079809994
 21
-262.23674396950003
 31
0.0
 12
674.76588079809994
 22
-259.23674396950003
 32
0.0
 13
676.26588079809994
 23
-260.73674396950003
 33
0.0
  0
ENDBLK
  5
264
  8
0
  0
BLOCK
  8
0
  2
*D27
 70
     1
 10
0.0
 20
0.0
 30
0.0
  3
*D27
  1

  0
TEXT
  5
268
  8
0
 62
     0
 10
1037.0714366186
 20
-258.67841066800003
 30
0.0
 40
5.9972220420999998
  1
26.75
  0
LINE
  5
269
  8
0
 62
     0
 10
1032.5158807980999
 20
-231.7367439695
 30
0.0
 11
1032.5158807980999
 21
-261.73674396950003
 31
0.0
  0
LINE
  5
26A
  8
0
 62
     0
 10
1059.2658807980999
 20
-242.7367439695
 30
0.0
 11
1059.2658807980999
 21
-261.73674396950003
 31
0.0
  0
LINE
  5
26B
  8
0
 62
     0
 10
1032.5158807980999
 20
-260.73674396950003
 30
0.0
 11
1058.2381026493999
 21
-260.73674396950003
 31
0.0
  0
LINE
  5
26C
  8
0
 62
     0
 10
1032.5158807980999
 20
-260.73674396950003
 30
0.0
 11
1033.5436589466999
 21
-260.73674396950003
 31
0.0
  0
LINE
  5
26D
  8
0
 62
     0
 10
1059.2658807980999
 20
-260.73674396950003
 30
0.0
 11
1058.2381026493999
 21
-260.73674396950003
 31
0.0
  0
LINE
  5
26E
  8
0
 62
     0
 10
1059.2658807980999
 20
-260.73674396950003
 30
0.0
 11
1033.5436589466999
 21
-260.73674396950003
 31
0.0
  0
LINE
  5
26F
  8
0
 62
     0
 10
1059.2658807980999
 20
-260.73674396950003
 30
0.0
 11
1064.2658807980999
 21
-260.73674396950003
 31
0.0
  0
SOLID
  5
270
  8
0
 62
     0
 10
1059.2658807980999
 20
-260.73674396950003
 30
0.0
 11
1065.2658807980999
 21
-259.23674396950003
 31
0.0
 12
1065.2658807980999
 22
-262.23674396950003
 32
0.0
 13
1063.7658807980999
 23
-260.73674396950003
 33
0.0
  0
LINE
  5
271
  8
0
 62
     0
 10
1032.5158807980999
 20
-260.73674396950003
 30
0.0
 11
1027.5158807980999
 21
-260.73674396950003
 31
0.0
  0
SOLID
  5
272
  8
0
 62
     0
 10
1032.5158807980999
 20
-260.73674396950003
 30
0.0
 11
1026.5158807980999
 21
-262.23674396950003
 31
0.0
 12
1026.5158807980999
 22
-259.23674396950003
 32
0.0
 13
1028.0158807980999
 23
-260.73674396950003
 33
0.0
  0
ENDBLK
  5
273
  8
0
  0
BLOCK
  8
0
  2
*D28
 70
     1
 10
0.0
 20
0.0
 30
0.0
  3
*D28
  1

  0
TEXT
  5
277
  8
0
 62
     0
 10
996.48810312630008
 20
-258.67841066800003
 30
0.0
 40
5.9972220420999998
  1
65
  0
LINE
  5
278
  8
0
 62
     0
 10
967.51588079809994
 20
-231.7367439695
 30
0.0
 11
967.51588079809994
 21
-261.73674396950003
 31
0.0
  0
LINE
  5
279
  8
0
 62
     0
 10
1032.5158807980999
 20
-231.7367439695
 30
0.0
 11
1032.5158807980999
 21
-261.73674396950003
 31
0.0
  0
LINE
  5
27A
  8
0
 62
     0
 10
967.51588079809994
 20
-260.73674396950003
 30
0.0
 11
1007.0714361417
 21
-260.73674396950003
 31
0.0
  0
LINE
  5
27B
  8
0
 62
     0
 10
967.51588079809994
 20
-260.73674396950003
 30
0.0
 11
992.96032545449998
 21
-260.73674396950003
 31
0.0
  0
LINE
  5
27C
  8
0
 62
     0
 10
1032.5158807980999
 20
-260.73674396950003
 30
0.0
 11
1007.0714361417
 21
-260.73674396950003
 31
0.0
  0
LINE
  5
27D
  8
0
 62
     0
 10
1032.5158807980999
 20
-260.73674396950003
 30
0.0
 11
992.96032545449998
 21
-260.73674396950003
 31
0.0
  0
LINE
  5
27E
  8
0
 62
     0
 10
1032.5158807980999
 20
-260.73674396950003
 30
0.0
 11
1027.5158807980999
 21
-260.73674396950003
 31
0.0
  0
SOLID
  5
27F
  8
0
 62
     0
 10
1032.5158807980999
 20
-260.73674396950003
 30
0.0
 11
1026.5158807980999
 21
-262.23674396950003
 31
0.0
 12
1026.5158807980999
 22
-259.23674396950003
 32
0.0
 13
1028.0158807980999
 23
-260.73674396950003
 33
0.0
  0
LINE
  5
280
  8
0
 62
     0
 10
967.51588079809994
 20
-260.73674396950003
 30
0.0
 11
972.51588079809994
 21
-260.73674396950003
 31
0.0
  0
SOLID
  5
281
  8
0
 62
     0
 10
967.51588079809994
 20
-260.73674396950003
 30
0.0
 11
973.51588079809994
 21
-259.23674396950003
 31
0.0
 12
973.51588079809994
 22
-262.23674396950003
 32
0.0
 13
972.01588079809994
 23
-260.73674396950003
 33
0.0
  0
ENDBLK
  5
282
  8
0
  0
BLOCK
  8
0
  2
*D29
 70
     1
 10
0.0
 20
0.0
 30
0.0
  3
*D29
  1

  0
TEXT
  5
286
  8
0
 62
     0
 10
931.48810312629996
 20
-258.67841066800003
 30
0.0
 40
5.9972220420999998
  1
65
  0
LINE
  5
287
  8
0
 62
     0
 10
902.51588079809983
 20
-231.7367439695
 30
0.0
 11
902.51588079809983
 21
-261.73674396950003
 31
0.0
  0
LINE
  5
288
  8
0
 62
     0
 10
967.51588079809994
 20
-231.7367439695
 30
0.0
 11
967.51588079809994
 21
-261.73674396950003
 31
0.0
  0
LINE
  5
289
  8
0
 62
     0
 10
902.51588079809983
 20
-260.73674396950003
 30
0.0
 11
942.07143614169991
 21
-260.73674396950003
 31
0.0
  0
LINE
  5
28A
  8
0
 62
     0
 10
902.51588079809983
 20
-260.73674396950003
 30
0.0
 11
927.96032545449998
 21
-260.73674396950003
 31
0.0
  0
LINE
  5
28B
  8
0
 62
     0
 10
967.51588079809994
 20
-260.73674396950003
 30
0.0
 11
942.07143614169991
 21
-260.73674396950003
 31
0.0
  0
LINE
  5
28C
  8
0
 62
     0
 10
967.51588079809994
 20
-260.73674396950003
 30
0.0
 11
927.96032545449998
 21
-260.73674396950003
 31
0.0
  0
LINE
  5
28D
  8
0
 62
     0
 10
967.51588079809994
 20
-260.73674396950003
 30
0.0
 11
962.51588079810006
 21
-260.73674396950003
 31
0.0
  0
SOLID
  5
28E
  8
0
 62
     0
 10
967.51588079809994
 20
-260.73674396950003
 30
0.0
 11
961.51588079810006
 21
-262.23674396950003
 31
0.0
 12
961.51588079810006
 22
-259.23674396950003
 32
0.0
 13
963.01588079809994
 23
-260.73674396950003
 33
0.0
  0
LINE
  5
28F
  8
0
 62
     0
 10
902.51588079809983
 20
-260.73674396950003
 30
0.0
 11
907.51588079809994
 21
-260.73674396950003
 31
0.0
  0
SOLID
  5
290
  8
0
 62
     0
 10
902.51588079809983
 20
-260.73674396950003
 30
0.0
 11
908.51588079809994
 21
-259.23674396950003
 31
0.0
 12
908.51588079809994
 22
-262.23674396950003
 32
0.0
 13
907.01588079810006
 23
-260.73674396950003
 33
0.0
  0
ENDBLK
  5
291
  8
0
  0
BLOCK
  8
0
  2
*D30
 70
     1
 10
0.0
 20
0.0
 30
0.0
  3
*D30
  1

  0
TEXT
  5
295
  8
0
 62
     0
 10
866.48810312629996
 20
-258.67841066800003
 30
0.0
 40
5.9972220420999998
  1
65
  0
LINE
  5
296
  8
0
 62
     0
 10
837.51588079810006
 20
-231.7367439695
 30
0.0
 11
837.51588079810006
 21
-261.73674396950003
 31
0.0
  0
LINE
  5
297
  8
0
 62
     0
 10
902.51588079809983
 20
-231.7367439695
 30
0.0
 11
902.51588079809983
 21
-261.73674396950003
 31
0.0
  0
LINE
  5
298
  8
0
 62
     0
 10
837.51588079810006
 20
-260.73674396950003
 30
0.0
 11
877.07143614170013
 21
-260.73674396950003
 31
0.0
  0
LINE
  5
299
  8
0
 62
     0
 10
837.51588079810006
 20
-260.73674396950003
 30
0.0
 11
862.96032545449987
 21
-260.73674396950003
 31
0.0
  0
LINE
  5
29A
  8
0
 62
     0
 10
902.51588079809983
 20
-260.73674396950003
 30
0.0
 11
877.07143614170013
 21
-260.73674396950003
 31
0.0
  0
LINE
  5
29B
  8
0
 62
     0
 10
902.51588079809983
 20
-260.73674396950003
 30
0.0
 11
862.96032545449987
 21
-260.73674396950003
 31
0.0
  0
LINE
  5
29C
  8
0
 62
     0
 10
902.51588079809983
 20
-260.73674396950003
 30
0.0
 11
897.51588079809994
 21
-260.73674396950003
 31
0.0
  0
SOLID
  5
29D
  8
0
 62
     0
 10
902.51588079809983
 20
-260.73674396950003
 30
0.0
 11
896.51588079810006
 21
-262.23674396950003
 31
0.0
 12
896.51588079810006
 22
-259.23674396950003
 32
0.0
 13
898.01588079809983
 23
-260.73674396950003
 33
0.0
  0
LINE
  5
29E
  8
0
 62
     0
 10
837.51588079810006
 20
-260.73674396950003
 30
0.0
 11
842.51588079809994
 21
-260.73674396950003
 31
0.0
  0
SOLID
  5
29F
  8
0
 62
     0
 10
837.51588079810006
 20
-260.73674396950003
 30
0.0
 11
843.51588079809983
 21
-259.23674396950003
 31
0.0
 12
843.51588079809983
 22
-262.23674396950003
 32
0.0
 13
842.01588079810006
 23
-260.73674396950003
 33
0.0
  0
ENDBLK
  5
2A0
  8
0
  0
BLOCK
  8
0
  2
*D31
 70
     1
 10
0.0
 20
0.0
 30
0.0
  3
*D31
  1

  0
TEXT
  5
2A5
  8
0
 62
     0
 10
1067.9704980324
 20
-304.616155139
 30
0.0
 40
5.9972220420999998
  1
R5
 50
315.0
  0
LINE
  5
2A6
  8
0
 62
     0
 10
1057.8014147040001
 20
-297.9393935306
 30
0.0
 11
1073.7078837152001
 21
-313.84586254179999
 31
0.0
  0
SOLID
  5
2A7
  8
0
 62
     0
 10
1057.8014147040001
 20
-297.9393935306
 30
0.0
 11
1063.1047155629001
 21
-301.12137404600003
 31
0.0
 12
1060.9833952194001
 22
-303.2426943895
 32
0.0
 13
1060.9833952194001
 23
-301.12137404600003
 33
0.0
  0
ENDBLK
  5
2A8
  8
0
  0
BLOCK
  8
0
  2
*D32
 70
     1
 10
0.0
 20
0.0
 30
0.0
  3
*D32
  1

  0
TEXT
  5
2AC
  8
0
 62
     0
 10
1090.0402113919999
 20
-204.76452164139999
 30
0.0
 40
5.9972220420999998
  1
79
 50
90.0
  0
LINE
  5
2AD
  8
0
 62
     0
 10
1061.2658807980999
 20
-240.7367439695
 30
0.0
 11
1093.0985446934999
 21
-240.7367439695
 31
0.0
  0
LINE
  5
2AE
  8
0
 62
     0
 10
1061.2658807980999
 20
-161.7367439695
 30
0.0
 11
1093.0985446934999
 21
-161.7367439695
 31
0.0
  0
LINE
  5
2AF
  8
0
 62
     0
 10
1092.0985446934999
 20
-240.7367439695
 30
0.0
 11
1092.0985446934999
 21
-194.18118862590001
 31
0.0
  0
LINE
  5
2B0
  8
0
 62
     0
 10
1092.0985446934999
 20
-240.7367439695
 30
0.0
 11
1092.0985446934999
 21
-208.2922993132
 31
0.0
  0
LINE
  5
2B1
  8
0
 62
     0
 10
1092.0985446934999
 20
-161.7367439695
 30
0.0
 11
1092.0985446934999
 21
-194.18118862590001
 31
0.0
  0
LINE
  5
2B2
  8
0
 62
     0
 10
1092.0985446934999
 20
-161.7367439695
 30
0.0
 11
1092.0985446934999
 21
-208.2922993132
 31
0.0
  0
LINE
  5
2B3
  8
0
 62
     0
 10
1092.0985446934999
 20
-161.7367439695
 30
0.0
 11
1092.0985446934999
 21
-166.7367439695
 31
0.0
  0
SOLID
  5
2B4
  8
0
 62
     0
 10
1092.0985446934999
 20
-161.7367439695
 30
0.0
 11
1093.5985446934999
 21
-167.7367439695
 31
0.0
 12
1090.5985446934999
 22
-167.7367439695
 32
0.0
 13
1092.0985446934999
 23
-166.2367439695
 33
0.0
  0
LINE
  5
2B5
  8
0
 62
     0
 10
1092.0985446934999
 20
-240.7367439695
 30
0.0
 11
1092.0985446934999
 21
-235.7367439695
 31
0.0
  0
SOLID
  5
2B6
  8
0
 62
     0
 10
1092.0985446934999
 20
-240.7367439695
 30
0.0
 11
1090.5985446934999
 21
-234.7367439695
 31
0.0
 12
1093.5985446934999
 22
-234.7367439695
 32
0.0
 13
1092.0985446934999
 23
-236.2367439695
 33
0.0
  0
ENDBLK
  5
2B7
  8
0
  0
BLOCK
  8
0
  2
CLUMP4
 70
     0
 10
0.0
 20
0.0
 30
0.0
  3
CLUMP4
  1

  0
ARC
  5
2C0
  8
ﾚｲﾔ_1
 62
     5
 10
929.90284830730002
 20
59.033856445799998
 30
0.0
 40
3.5
 50
270.0
 51
90.0
  0
LINE
  5
2C1
  8
ﾚｲﾔ_1
 62
     5
 10
914.90284830729991
 20
55.533856445799998
 30
0.0
 11
929.90284830730002
 21
55.533856445799998
 31
0.0
  0
LINE
  5
2C2
  8
ﾚｲﾔ_1
 62
     5
 10
929.90284830730002
 20
62.533856445799991
 30
0.0
 11
914.90284830729991
 21
62.533856445799991
 31
0.0
  0
ARC
  5
2C3
  8
ﾚｲﾔ_1
 62
     5
 10
914.90284830729991
 20
59.033856445799998
 30
0.0
 40
3.5
 50
90.0
 51
270.0
  0
ENDBLK
  5
2C4
  8
0
  0
BLOCK
  8
0
  2
CLUMP5
 70
     0
 10
0.0
 20
0.0
 30
0.0
  3
CLUMP5
  1

  0
ARC
  5
2CD
  8
ﾚｲﾔ_1
 62
     5
 10
799.90284830729991
 20
59.033856445799998
 30
0.0
 40
3.5
 50
270.0
 51
90.0
  0
LINE
  5
2CE
  8
ﾚｲﾔ_1
 62
     5
 10
784.90284830729991
 20
55.533856445799998
 30
0.0
 11
799.90284830729991
 21
55.533856445799998
 31
0.0
  0
LINE
  5
2CF
  8
ﾚｲﾔ_1
 62
     5
 10
799.90284830729991
 20
62.533856445799991
 30
0.0
 11
784.90284830729991
 21
62.533856445799991
 31
0.0
  0
ARC
  5
2D0
  8
ﾚｲﾔ_1
 62
     5
 10
784.90284830729991
 20
59.033856445799998
 30
0.0
 40
3.5
 50
90.0
 51
270.0
  0
ENDBLK
  5
2D1
  8
0
  0
BLOCK
  8
0
  2
CLUMP6
 70
     0
 10
0.0
 20
0.0
 30
0.0
  3
CLUMP6
  1

  0
ARC
  5
2D5
  8
ﾚｲﾔ_1
 62
     5
 10
864.90284830729991
 20
59.033856445799998
 30
0.0
 40
3.5
 50
270.0
 51
90.0
  0
LINE
  5
2D6
  8
ﾚｲﾔ_1
 62
     5
 10
849.90284830729991
 20
55.533856445799998
 30
0.0
 11
864.90284830729991
 21
55.533856445799998
 31
0.0
  0
LINE
  5
2D7
  8
ﾚｲﾔ_1
 62
     5
 10
864.90284830729991
 20
62.533856445799991
 30
0.0
 11
849.90284830729991
 21
62.533856445799991
 31
0.0
  0
ARC
  5
2D8
  8
ﾚｲﾔ_1
 62
     5
 10
849.90284830729991
 20
59.033856445799998
 30
0.0
 40
3.5
 50
90.0
 51
270.0
  0
ENDBLK
  5
2D9
  8
0
  0
BLOCK
  8
0
  2
CLUMP7
 70
     0
 10
0.0
 20
0.0
 30
0.0
  3
CLUMP7
  1

  0
ARC
  5
2DD
  8
ﾚｲﾔ_1
 62
     5
 10
994.90284830729979
 20
59.033856445799998
 30
0.0
 40
3.5
 50
270.0
 51
90.0
  0
LINE
  5
2DE
  8
ﾚｲﾔ_1
 62
     5
 10
979.90284830730002
 20
55.533856445799998
 30
0.0
 11
994.90284830729979
 21
55.533856445799998
 31
0.0
  0
LINE
  5
2DF
  8
ﾚｲﾔ_1
 62
     5
 10
994.90284830729979
 20
62.533856445799991
 30
0.0
 11
979.90284830730002
 21
62.533856445799991
 31
0.0
  0
ARC
  5
2E0
  8
ﾚｲﾔ_1
 62
     5
 10
979.90284830730002
 20
59.033856445799998
 30
0.0
 40
3.5
 50
90.0
 51
270.0
  0
ENDBLK
  5
2E1
  8
0
  0
BLOCK
  8
0
  2
*D37
 70
     1
 10
0.0
 20
0.0
 30
0.0
  3
*D37
  1

  0
TEXT
  5
2E4
  8
0
 62
     0
 10
1120.8602492294999
 20
-139.678410668
 30
0.0
 40
5.9972220420999998
  1
14
  0
LINE
  5
2E5
  8
0
 62
     0
 10
1131.3880269013
 20
-159.7367439695
 30
0.0
 11
1131.3880269013
 21
-140.7367439695
 31
0.0
  0
LINE
  5
2E6
  8
0
 62
     0
 10
1117.3880269013
 20
-161.23674341879999
 30
0.0
 11
1117.3880269013
 21
-140.7367439695
 31
0.0
  0
LINE
  5
2E7
  8
0
 62
     0
 10
1131.3880269013
 20
-141.7367439695
 30
0.0
 11
1131.3880269013
 21
-141.7367439695
 31
0.0
  0
LINE
  5
2E8
  8
0
 62
     0
 10
1131.3880269013
 20
-141.7367439695
 30
0.0
 11
1117.3880269013
 21
-141.7367439695
 31
0.0
  0
LINE
  5
2E9
  8
0
 62
     0
 10
1117.3880269013
 20
-141.7367439695
 30
0.0
 11
1131.3880269013
 21
-141.7367439695
 31
0.0
  0
LINE
  5
2EA
  8
0
 62
     0
 10
1117.3880269013
 20
-141.7367439695
 30
0.0
 11
1117.3880269013
 21
-141.7367439695
 31
0.0
  0
LINE
  5
2EB
  8
0
 62
     0
 10
1117.3880269013
 20
-141.7367439695
 30
0.0
 11
1122.3880269013
 21
-141.7367439695
 31
0.0
  0
SOLID
  5
2EC
  8
0
 62
     0
 10
1117.3880269013
 20
-141.7367439695
 30
0.0
 11
1123.3880269013
 21
-140.2367439695
 31
0.0
 12
1123.3880269013
 22
-143.2367439695
 32
0.0
 13
1121.8880269013
 23
-141.7367439695
 33
0.0
  0
LINE
  5
2ED
  8
0
 62
     0
 10
1131.3880269013
 20
-141.7367439695
 30
0.0
 11
1126.3880269013
 21
-141.7367439695
 31
0.0
  0
SOLID
  5
2EE
  8
0
 62
     0
 10
1131.3880269013
 20
-141.7367439695
 30
0.0
 11
1125.3880269013
 21
-143.2367439695
 31
0.0
 12
1125.3880269013
 22
-140.2367439695
 32
0.0
 13
1126.8880269013
 23
-141.7367439695
 33
0.0
  0
ENDBLK
  5
2EF
  8
0
  0
BLOCK
  8
0
  2
*D38
 70
     1
 10
0.0
 20
0.0
 30
0.0
  3
*D38
  1

  0
TEXT
  5
2F3
  8
0
 62
     0
 10
1077.2075474966
 20
-217.26452164139999
 30
0.0
 40
5.9972220420999998
  1
25
 50
90.0
  0
LINE
  5
2F4
  8
0
 62
     0
 10
1045.5158807980999
 20
-226.2367439695
 30
0.0
 11
1080.2658807980999
 21
-226.2367439695
 31
0.0
  0
LINE
  5
2F5
  8
0
 62
     0
 10
1066.2658807980999
 20
-201.2367439695
 30
0.0
 11
1080.2658807980999
 21
-201.2367439695
 31
0.0
  0
LINE
  5
2F6
  8
0
 62
     0
 10
1079.2658807980999
 20
-226.2367439695
 30
0.0
 11
1079.2658807980999
 21
-206.68118862590001
 31
0.0
  0
LINE
  5
2F7
  8
0
 62
     0
 10
1079.2658807980999
 20
-226.2367439695
 30
0.0
 11
1079.2658807980999
 21
-220.7922993132
 31
0.0
  0
LINE
  5
2F8
  8
0
 62
     0
 10
1079.2658807980999
 20
-201.2367439695
 30
0.0
 11
1079.2658807980999
 21
-206.68118862590001
 31
0.0
  0
LINE
  5
2F9
  8
0
 62
     0
 10
1079.2658807980999
 20
-201.2367439695
 30
0.0
 11
1079.2658807980999
 21
-220.7922993132
 31
0.0
  0
LINE
  5
2FA
  8
0
 62
     0
 10
1079.2658807980999
 20
-201.2367439695
 30
0.0
 11
1079.2658807980999
 21
-196.2367439695
 31
0.0
  0
SOLID
  5
2FB
  8
0
 62
     0
 10
1079.2658807980999
 20
-201.2367439695
 30
0.0
 11
1077.7658807980999
 21
-195.2367439695
 31
0.0
 12
1080.7658807980999
 22
-195.2367439695
 32
0.0
 13
1079.2658807980999
 23
-196.7367439695
 33
0.0
  0
LINE
  5
2FC
  8
0
 62
     0
 10
1079.2658807980999
 20
-226.2367439695
 30
0.0
 11
1079.2658807980999
 21
-231.2367439695
 31
0.0
  0
SOLID
  5
2FD
  8
0
 62
     0
 10
1079.2658807980999
 20
-226.2367439695
 30
0.0
 11
1080.7658807980999
 21
-232.2367439695
 31
0.0
 12
1077.7658807980999
 22
-232.2367439695
 32
0.0
 13
1079.2658807980999
 23
-230.7367439695
 33
0.0
  0
ENDBLK
  5
2FE
  8
0
  0
BLOCK
  8
0
  2
*D39
 70
     1
 10
0.0
 20
0.0
 30
0.0
  3
*D39
  1

  0
TEXT
  5
302
  8
0
 62
     0
 10
793.95754749649996
 20
-228.0006328055
 30
0.0
 40
5.9972220420999998
  1
7
 50
90.0
  0
LINE
  5
303
  8
0
 62
     0
 10
782.01588079809994
 20
-229.7367439695
 30
0.0
 11
797.01588079809994
 21
-229.7367439695
 31
0.0
  0
LINE
  5
304
  8
0
 62
     0
 10
782.01588079809994
 20
-222.7367439695
 30
0.0
 11
797.01588079809994
 21
-222.7367439695
 31
0.0
  0
LINE
  5
305
  8
0
 62
     0
 10
796.01588079809994
 20
-229.7367439695
 30
0.0
 11
796.01588079809994
 21
-229.7367439695
 31
0.0
  0
LINE
  5
306
  8
0
 62
     0
 10
796.01588079809994
 20
-229.7367439695
 30
0.0
 11
796.01588079809994
 21
-222.7367439695
 31
0.0
  0
LINE
  5
307
  8
0
 62
     0
 10
796.01588079809994
 20
-222.7367439695
 30
0.0
 11
796.01588079809994
 21
-229.7367439695
 31
0.0
  0
LINE
  5
308
  8
0
 62
     0
 10
796.01588079809994
 20
-222.7367439695
 30
0.0
 11
796.01588079809994
 21
-222.7367439695
 31
0.0
  0
LINE
  5
309
  8
0
 62
     0
 10
796.01588079809994
 20
-222.7367439695
 30
0.0
 11
796.01588079809994
 21
-217.7367439695
 31
0.0
  0
SOLID
  5
30A
  8
0
 62
     0
 10
796.01588079809994
 20
-222.7367439695
 30
0.0
 11
794.51588079809994
 21
-216.7367439695
 31
0.0
 12
797.51588079809994
 22
-216.7367439695
 32
0.0
 13
796.01588079809994
 23
-218.2367439695
 33
0.0
  0
LINE
  5
30B
  8
0
 62
     0
 10
796.01588079809994
 20
-229.7367439695
 30
0.0
 11
796.01588079809994
 21
-234.7367439695
 31
0.0
  0
SOLID
  5
30C
  8
0
 62
     0
 10
796.01588079809994
 20
-229.7367439695
 30
0.0
 11
797.51588079809994
 21
-235.7367439695
 31
0.0
 12
794.51588079809994
 22
-235.7367439695
 32
0.0
 13
796.01588079809994
 23
-234.2367439695
 33
0.0
  0
ENDBLK
  5
30D
  8
0
  0
BLOCK
  8
0
  2
*D40
 70
     1
 10
0.0
 20
0.0
 30
0.0
  3
*D40
  1

  0
TEXT
  5
311
  8
0
 62
     0
 10
768.98810312629996
 20
-211.4385014959
 30
0.0
 40
5.9972220420999998
  1
22
  0
LINE
  5
312
  8
0
 62
     0
 10
783.51588079809994
 20
-224.2367439695
 30
0.0
 11
783.51588079809994
 21
-212.49683479749999
 31
0.0
  0
LINE
  5
313
  8
0
 62
     0
 10
761.51588079809994
 20
-224.2367439695
 30
0.0
 11
761.51588079809994
 21
-212.49683479749999
 31
0.0
  0
LINE
  5
314
  8
0
 62
     0
 10
783.51588079809994
 20
-213.49683479749999
 30
0.0
 11
779.57143614170002
 21
-213.49683479749999
 31
0.0
  0
LINE
  5
315
  8
0
 62
     0
 10
783.51588079809994
 20
-213.49683479749999
 30
0.0
 11
765.46032545449998
 21
-213.49683479749999
 31
0.0
  0
LINE
  5
316
  8
0
 62
     0
 10
761.51588079809994
 20
-213.49683479749999
 30
0.0
 11
779.57143614170002
 21
-213.49683479749999
 31
0.0
  0
LINE
  5
317
  8
0
 62
     0
 10
761.51588079809994
 20
-213.49683479749999
 30
0.0
 11
765.46032545449998
 21
-213.49683479749999
 31
0.0
  0
LINE
  5
318
  8
0
 62
     0
 10
761.51588079809994
 20
-213.49683479749999
 30
0.0
 11
756.51588079809994
 21
-213.49683479749999
 31
0.0
  0
SOLID
  5
319
  8
0
 62
     0
 10
761.51588079809994
 20
-213.49683479749999
 30
0.0
 11
755.51588079809994
 21
-214.99683479749999
 31
0.0
 12
755.51588079809994
 22
-211.99683479749999
 32
0.0
 13
757.01588079809994
 23
-213.49683479749999
 33
0.0
  0
LINE
  5
31A
  8
0
 62
     0
 10
783.51588079809994
 20
-213.49683479749999
 30
0.0
 11
788.51588079809994
 21
-213.49683479749999
 31
0.0
  0
SOLID
  5
31B
  8
0
 62
     0
 10
783.51588079809994
 20
-213.49683479749999
 30
0.0
 11
789.51588079809994
 21
-211.99683479749999
 31
0.0
 12
789.51588079809994
 22
-214.99683479749999
 32
0.0
 13
788.01588079809994
 23
-213.49683479749999
 33
0.0
  0
ENDBLK
  5
31C
  8
0
  0
BLOCK
  8
0
  2
*D41
 70
     1
 10
0.0
 20
0.0
 30
0.0
  3
*D41
  1

  0
TEXT
  5
320
  8
0
 62
     0
 10
1077.2075474966
 20
-192.26452164139999
 30
0.0
 40
5.9972220420999998
  1
25
 50
90.0
  0
LINE
  5
321
  8
0
 62
     0
 10
1066.2658807980999
 20
-201.2367439695
 30
0.0
 11
1080.2658807980999
 21
-201.2367439695
 31
0.0
  0
LINE
  5
322
  8
0
 62
     0
 10
1045.5158807980999
 20
-176.2367439695
 30
0.0
 11
1080.2658807980999
 21
-176.2367439695
 31
0.0
  0
LINE
  5
323
  8
0
 62
     0
 10
1079.2658807980999
 20
-201.2367439695
 30
0.0
 11
1079.2658807980999
 21
-181.68118862590001
 31
0.0
  0
LINE
  5
324
  8
0
 62
     0
 10
1079.2658807980999
 20
-201.2367439695
 30
0.0
 11
1079.2658807980999
 21
-195.7922993132
 31
0.0
  0
LINE
  5
325
  8
0
 62
     0
 10
1079.2658807980999
 20
-176.2367439695
 30
0.0
 11
1079.2658807980999
 21
-181.68118862590001
 31
0.0
  0
LINE
  5
326
  8
0
 62
     0
 10
1079.2658807980999
 20
-176.2367439695
 30
0.0
 11
1079.2658807980999
 21
-195.7922993132
 31
0.0
  0
LINE
  5
327
  8
0
 62
     0
 10
1079.2658807980999
 20
-176.2367439695
 30
0.0
 11
1079.2658807980999
 21
-171.2367439695
 31
0.0
  0
SOLID
  5
328
  8
0
 62
     0
 10
1079.2658807980999
 20
-176.2367439695
 30
0.0
 11
1077.7658807980999
 21
-170.2367439695
 31
0.0
 12
1080.7658807980999
 22
-170.2367439695
 32
0.0
 13
1079.2658807980999
 23
-171.7367439695
 33
0.0
  0
LINE
  5
329
  8
0
 62
     0
 10
1079.2658807980999
 20
-201.2367439695
 30
0.0
 11
1079.2658807980999
 21
-206.2367439695
 31
0.0
  0
SOLID
  5
32A
  8
0
 62
     0
 10
1079.2658807980999
 20
-201.2367439695
 30
0.0
 11
1080.7658807980999
 21
-207.2367439695
 31
0.0
 12
1077.7658807980999
 22
-207.2367439695
 32
0.0
 13
1079.2658807980999
 23
-205.7367439695
 33
0.0
  0
ENDBLK
  5
32B
  8
0
  0
BLOCK
  8
0
  2
*D42
 70
     1
 10
0.0
 20
0.0
 30
0.0
  3
*D42
  1

  0
TEXT
  5
32F
  8
0
 62
     0
 10
1077.2075474966
 20
-176.0422993132
 30
0.0
 40
5.9972220420999998
  1
14.5
 50
90.0
  0
LINE
  5
330
  8
0
 62
     0
 10
1045.5158807980999
 20
-176.2367439695
 30
0.0
 11
1080.2658807980999
 21
-176.2367439695
 31
0.0
  0
LINE
  5
331
  8
0
 62
     0
 10
1061.2658807980999
 20
-161.7367439695
 30
0.0
 11
1080.2658807980999
 21
-161.7367439695
 31
0.0
  0
LINE
  5
332
  8
0
 62
     0
 10
1079.2658807980999
 20
-176.2367439695
 30
0.0
 11
1079.2658807980999
 21
-176.2367439695
 31
0.0
  0
LINE
  5
333
  8
0
 62
     0
 10
1079.2658807980999
 20
-176.2367439695
 30
0.0
 11
1079.2658807980999
 21
-161.7367439695
 31
0.0
  0
LINE
  5
334
  8
0
 62
     0
 10
1079.2658807980999
 20
-161.7367439695
 30
0.0
 11
1079.2658807980999
 21
-176.2367439695
 31
0.0
  0
LINE
  5
335
  8
0
 62
     0
 10
1079.2658807980999
 20
-161.7367439695
 30
0.0
 11
1079.2658807980999
 21
-161.7367439695
 31
0.0
  0
LINE
  5
336
  8
0
 62
     0
 10
1079.2658807980999
 20
-161.7367439695
 30
0.0
 11
1079.2658807980999
 21
-166.7367439695
 31
0.0
  0
SOLID
  5
337
  8
0
 62
     0
 10
1079.2658807980999
 20
-161.7367439695
 30
0.0
 11
1080.7658807980999
 21
-167.7367439695
 31
0.0
 12
1077.7658807980999
 22
-167.7367439695
 32
0.0
 13
1079.2658807980999
 23
-166.2367439695
 33
0.0
  0
LINE
  5
338
  8
0
 62
     0
 10
1079.2658807980999
 20
-176.2367439695
 30
0.0
 11
1079.2658807980999
 21
-171.2367439695
 31
0.0
  0
SOLID
  5
339
  8
0
 62
     0
 10
1079.2658807980999
 20
-176.2367439695
 30
0.0
 11
1077.7658807980999
 21
-170.2367439695
 31
0.0
 12
1080.7658807980999
 22
-170.2367439695
 32
0.0
 13
1079.2658807980999
 23
-171.7367439695
 33
0.0
  0
ENDBLK
  5
33A
  8
0
  0
BLOCK
  8
0
  2
*D43
 70
     1
 10
0.0
 20
0.0
 30
0.0
  3
*D43
  1

  0
TEXT
  5
33E
  8
0
 62
     0
 10
1356.5763889949001
 20
113.6667852623
 30
0.0
 40
5.9972220420999998
  1
30
  0
LINE
  5
33F
  8
0
 62
     0
 10
1375.1041666666999
 20
85.034116862499999
 30
0.0
 11
1375.1041666666999
 21
112.6084519608
 31
0.0
  0
LINE
  5
340
  8
0
 62
     0
 10
1345.1041666666999
 20
76.034116862499999
 30
0.0
 11
1345.1041666666999
 21
112.6084519608
 31
0.0
  0
LINE
  5
341
  8
0
 62
     0
 10
1375.1041666666999
 20
111.6084519608
 30
0.0
 11
1367.1597220102999
 21
111.6084519608
 31
0.0
  0
LINE
  5
342
  8
0
 62
     0
 10
1375.1041666666999
 20
111.6084519608
 30
0.0
 11
1353.0486113229999
 21
111.6084519608
 31
0.0
  0
LINE
  5
343
  8
0
 62
     0
 10
1345.1041666666999
 20
111.6084519608
 30
0.0
 11
1367.1597220102999
 21
111.6084519608
 31
0.0
  0
LINE
  5
344
  8
0
 62
     0
 10
1345.1041666666999
 20
111.6084519608
 30
0.0
 11
1353.0486113229999
 21
111.6084519608
 31
0.0
  0
LINE
  5
345
  8
0
 62
     0
 10
1345.1041666666999
 20
111.6084519608
 30
0.0
 11
1350.1041666666999
 21
111.6084519608
 31
0.0
  0
SOLID
  5
346
  8
0
 62
     0
 10
1345.1041666666999
 20
111.6084519608
 30
0.0
 11
1351.1041666666999
 21
113.1084519608
 31
0.0
 12
1351.1041666666999
 22
110.1084519608
 32
0.0
 13
1349.6041666666999
 23
111.6084519608
 33
0.0
  0
LINE
  5
347
  8
0
 62
     0
 10
1375.1041666666999
 20
111.6084519608
 30
0.0
 11
1370.1041666666999
 21
111.6084519608
 31
0.0
  0
SOLID
  5
348
  8
0
 62
     0
 10
1375.1041666666999
 20
111.6084519608
 30
0.0
 11
1369.1041666666999
 21
110.1084519608
 31
0.0
 12
1369.1041666666999
 22
113.1084519608
 32
0.0
 13
1370.6041666666999
 23
111.6084519608
 33
0.0
  0
ENDBLK
  5
349
  8
0
  0
BLOCK
  8
0
  2
*D44
 70
     1
 10
0.0
 20
0.0
 30
0.0
  3
*D44
  1

  0
TEXT
  5
34D
  8
0
 62
     0
 10
1389.0458333651
 20
72.506339190700004
 30
0.0
 40
5.9972220420999998
  1
14
 50
90.0
  0
LINE
  5
34E
  8
0
 62
     0
 10
1377.1041666666999
 20
69.034116862499999
 30
0.0
 11
1392.1041666666999
 21
69.034116862499999
 31
0.0
  0
LINE
  5
34F
  8
0
 62
     0
 10
1377.1041666666999
 20
83.034116862499985
 30
0.0
 11
1392.1041666666999
 21
83.034116862499985
 31
0.0
  0
LINE
  5
350
  8
0
 62
     0
 10
1391.1041666666999
 20
69.034116862499999
 30
0.0
 11
1391.1041666666999
 21
69.034116862499999
 31
0.0
  0
LINE
  5
351
  8
0
 62
     0
 10
1391.1041666666999
 20
69.034116862499999
 30
0.0
 11
1391.1041666666999
 21
83.034116862499985
 31
0.0
  0
LINE
  5
352
  8
0
 62
     0
 10
1391.1041666666999
 20
83.034116862499985
 30
0.0
 11
1391.1041666666999
 21
69.034116862499999
 31
0.0
  0
LINE
  5
353
  8
0
 62
     0
 10
1391.1041666666999
 20
83.034116862499985
 30
0.0
 11
1391.1041666666999
 21
83.034116862499985
 31
0.0
  0
LINE
  5
354
  8
0
 62
     0
 10
1391.1041666666999
 20
83.034116862499985
 30
0.0
 11
1391.1041666666999
 21
78.034116862499999
 31
0.0
  0
SOLID
  5
355
  8
0
 62
     0
 10
1391.1041666666999
 20
83.034116862499985
 30
0.0
 11
1392.6041666666999
 21
77.034116862499985
 31
0.0
 12
1389.6041666666999
 22
77.034116862499985
 32
0.0
 13
1391.1041666666999
 23
78.534116862499999
 33
0.0
  0
LINE
  5
356
  8
0
 62
     0
 10
1391.1041666666999
 20
69.034116862499999
 30
0.0
 11
1391.1041666666999
 21
74.034116862499999
 31
0.0
  0
SOLID
  5
357
  8
0
 62
     0
 10
1391.1041666666999
 20
69.034116862499999
 30
0.0
 11
1389.6041666666999
 21
75.034116862499999
 31
0.0
 12
1392.6041666666999
 22
75.034116862499999
 32
0.0
 13
1391.1041666666999
 23
73.534116862499999
 33
0.0
  0
ENDBLK
  5
358
  8
0
  0
BLOCK
  8
0
  2
*D45
 70
     1
 10
0.0
 20
0.0
 30
0.0
  3
*D45
  1

  0
TEXT
  5
35C
  8
0
 62
     0
 10
1344.0763889949001
 20
125.52059048540001
 30
0.0
 40
5.9972220420999998
  1
55
  0
LINE
  5
35D
  8
0
 62
     0
 10
1375.1041666666999
 20
84.234116862500002
 30
0.0
 11
1375.1041666666999
 21
124.46225718389999
 31
0.0
  0
LINE
  5
35E
  8
0
 62
     0
 10
1320.1041666666999
 20
84.234116862500002
 30
0.0
 11
1320.1041666666999
 21
124.46225718389999
 31
0.0
  0
LINE
  5
35F
  8
0
 62
     0
 10
1375.1041666666999
 20
123.46225718389999
 30
0.0
 11
1354.6597220102999
 21
123.46225718389999
 31
0.0
  0
LINE
  5
360
  8
0
 62
     0
 10
1375.1041666666999
 20
123.46225718389999
 30
0.0
 11
1340.5486113229999
 21
123.46225718389999
 31
0.0
  0
LINE
  5
361
  8
0
 62
     0
 10
1320.1041666666999
 20
123.46225718389999
 30
0.0
 11
1354.6597220102999
 21
123.46225718389999
 31
0.0
  0
LINE
  5
362
  8
0
 62
     0
 10
1320.1041666666999
 20
123.46225718389999
 30
0.0
 11
1340.5486113229999
 21
123.46225718389999
 31
0.0
  0
LINE
  5
363
  8
0
 62
     0
 10
1320.1041666666999
 20
123.46225718389999
 30
0.0
 11
1325.1041666666999
 21
123.46225718389999
 31
0.0
  0
SOLID
  5
364
  8
0
 62
     0
 10
1320.1041666666999
 20
123.46225718389999
 30
0.0
 11
1326.1041666666999
 21
124.96225718389999
 31
0.0
 12
1326.1041666666999
 22
121.96225718389999
 32
0.0
 13
1324.6041666666999
 23
123.46225718389999
 33
0.0
  0
LINE
  5
365
  8
0
 62
     0
 10
1375.1041666666999
 20
123.46225718389999
 30
0.0
 11
1370.1041666666999
 21
123.46225718389999
 31
0.0
  0
SOLID
  5
366
  8
0
 62
     0
 10
1375.1041666666999
 20
123.46225718389999
 30
0.0
 11
1369.1041666666999
 21
121.96225718389999
 31
0.0
 12
1369.1041666666999
 22
124.96225718389999
 32
0.0
 13
1370.6041666666999
 23
123.46225718389999
 33
0.0
  0
ENDBLK
  5
367
  8
0
  0
BLOCK
  8
0
  2
*D46
 70
     1
 10
0.0
 20
0.0
 30
0.0
  3
*D46
  1

  0
TEXT
  5
36B
  8
0
 62
     0
 10
1280.0696940421999
 20
88.654590164699997
 30
0.0
 40
5.9972220420999998
  1
15.5
 50
90.0
  0
LINE
  5
36C
  8
0
 62
     0
 10
1264.6448567708001
 20
67.534116862499999
 30
0.0
 11
1283.1280273438001
 21
67.534116862499999
 31
0.0
  0
LINE
  5
36D
  8
0
 62
     0
 10
1262.0448567707999
 20
83.034116862499985
 30
0.0
 11
1283.1280273438001
 21
83.034116862499985
 31
0.0
  0
LINE
  5
36E
  8
0
 62
     0
 10
1282.1280273438001
 20
67.534116862499999
 30
0.0
 11
1282.1280273438001
 21
106.2934785238
 31
0.0
  0
LINE
  5
36F
  8
0
 62
     0
 10
1282.1280273438001
 20
67.534116862499999
 30
0.0
 11
1282.1280273438001
 21
85.126812492900001
 31
0.0
  0
LINE
  5
370
  8
0
 62
     0
 10
1282.1280273438001
 20
83.034116862499985
 30
0.0
 11
1282.1280273438001
 21
106.2934785238
 31
0.0
  0
LINE
  5
371
  8
0
 62
     0
 10
1282.1280273438001
 20
83.034116862499985
 30
0.0
 11
1282.1280273438001
 21
85.126812492900001
 31
0.0
  0
LINE
  5
372
  8
0
 62
     0
 10
1282.1280273438001
 20
83.034116862499985
 30
0.0
 11
1282.1280273438001
 21
78.034116862499999
 31
0.0
  0
SOLID
  5
373
  8
0
 62
     0
 10
1282.1280273438001
 20
83.034116862499985
 30
0.0
 11
1283.6280273438001
 21
77.034116862499985
 31
0.0
 12
1280.6280273438001
 22
77.034116862499985
 32
0.0
 13
1282.1280273438001
 23
78.534116862499999
 33
0.0
  0
LINE
  5
374
  8
0
 62
     0
 10
1282.1280273438001
 20
67.534116862499999
 30
0.0
 11
1282.1280273438001
 21
72.534116862499999
 31
0.0
  0
SOLID
  5
375
  8
0
 62
     0
 10
1282.1280273438001
 20
67.534116862499999
 30
0.0
 11
1280.6280273438001
 21
73.534116862499999
 31
0.0
 12
1283.6280273438001
 22
73.534116862499999
 32
0.0
 13
1282.1280273438001
 23
72.034116862499985
 33
0.0
  0
ENDBLK
  5
376
  8
0
  0
BLOCK
  8
0
  2
*D47
 70
     1
 10
0.0
 20
0.0
 30
0.0
  3
*D47
  1

  0
TEXT
  5
37A
  8
0
 62
     0
 10
1173.0248281161
 20
-90.350542481700003
 30
0.0
 40
5.9972220420999998
  1
6
 50
90.0
  0
LINE
  5
37B
  8
0
 62
     0
 10
1155.1028483073001
 20
-91.586653645799998
 30
0.0
 11
1176.0831614176
 21
-91.586653645799998
 31
0.0
  0
LINE
  5
37C
  8
0
 62
     0
 10
1155.9028483073
 20
-85.586653645799984
 30
0.0
 11
1176.0831614176
 21
-85.586653645799984
 31
0.0
  0
LINE
  5
37D
  8
0
 62
     0
 10
1175.0831614176
 20
-91.586653645799998
 30
0.0
 11
1175.0831614176
 21
-91.586653645799998
 31
0.0
  0
LINE
  5
37E
  8
0
 62
     0
 10
1175.0831614176
 20
-91.586653645799998
 30
0.0
 11
1175.0831614176
 21
-85.586653645799984
 31
0.0
  0
LINE
  5
37F
  8
0
 62
     0
 10
1175.0831614176
 20
-85.586653645799984
 30
0.0
 11
1175.0831614176
 21
-91.586653645799998
 31
0.0
  0
LINE
  5
380
  8
0
 62
     0
 10
1175.0831614176
 20
-85.586653645799984
 30
0.0
 11
1175.0831614176
 21
-85.586653645799984
 31
0.0
  0
LINE
  5
381
  8
0
 62
     0
 10
1175.0831614176
 20
-85.586653645799984
 30
0.0
 11
1175.0831614176
 21
-80.586653645799984
 31
0.0
  0
SOLID
  5
382
  8
0
 62
     0
 10
1175.0831614176
 20
-85.586653645799984
 30
0.0
 11
1173.5831614176
 21
-79.586653645799984
 31
0.0
 12
1176.5831614176
 22
-79.586653645799984
 32
0.0
 13
1175.0831614176
 23
-81.086653645799998
 33
0.0
  0
LINE
  5
383
  8
0
 62
     0
 10
1175.0831614176
 20
-91.586653645799998
 30
0.0
 11
1175.0831614176
 21
-96.586653645799998
 31
0.0
  0
SOLID
  5
384
  8
0
 62
     0
 10
1175.0831614176
 20
-91.586653645799998
 30
0.0
 11
1176.5831614176
 21
-97.586653645799998
 31
0.0
 12
1173.5831614176
 22
-97.586653645799998
 32
0.0
 13
1175.0831614176
 23
-96.086653645799998
 33
0.0
  0
ENDBLK
  5
385
  8
0
  0
BLOCK
  8
0
  2
*D48
 70
     1
 10
0.0
 20
0.0
 30
0.0
  3
*D48
  1

  0
TEXT
  5
389
  8
0
 62
     0
 10
1173.0248281161
 20
-66.350542481700003
 30
0.0
 40
5.9972220420999998
  1
6
 50
90.0
  0
LINE
  5
38A
  8
0
 62
     0
 10
1155.9028483073
 20
-67.586653645799998
 30
0.0
 11
1176.0831614176
 21
-67.586653645799998
 31
0.0
  0
LINE
  5
38B
  8
0
 62
     0
 10
1155.1028483073001
 20
-61.586653645799998
 30
0.0
 11
1176.0831614176
 21
-61.586653645799998
 31
0.0
  0
LINE
  5
38C
  8
0
 62
     0
 10
1175.0831614176
 20
-67.586653645799998
 30
0.0
 11
1175.0831614176
 21
-67.586653645799998
 31
0.0
  0
LINE
  5
38D
  8
0
 62
     0
 10
1175.0831614176
 20
-67.586653645799998
 30
0.0
 11
1175.0831614176
 21
-61.586653645799998
 31
0.0
  0
LINE
  5
38E
  8
0
 62
     0
 10
1175.0831614176
 20
-61.586653645799998
 30
0.0
 11
1175.0831614176
 21
-67.586653645799998
 31
0.0
  0
LINE
  5
38F
  8
0
 62
     0
 10
1175.0831614176
 20
-61.586653645799998
 30
0.0
 11
1175.0831614176
 21
-61.586653645799998
 31
0.0
  0
LINE
  5
390
  8
0
 62
     0
 10
1175.0831614176
 20
-61.586653645799998
 30
0.0
 11
1175.0831614176
 21
-56.586653645799998
 31
0.0
  0
SOLID
  5
391
  8
0
 62
     0
 10
1175.0831614176
 20
-61.586653645799998
 30
0.0
 11
1173.5831614176
 21
-55.586653645799998
 31
0.0
 12
1176.5831614176
 22
-55.586653645799998
 32
0.0
 13
1175.0831614176
 23
-57.086653645799991
 33
0.0
  0
LINE
  5
392
  8
0
 62
     0
 10
1175.0831614176
 20
-67.586653645799998
 30
0.0
 11
1175.0831614176
 21
-72.586653645799998
 31
0.0
  0
SOLID
  5
393
  8
0
 62
     0
 10
1175.0831614176
 20
-67.586653645799998
 30
0.0
 11
1176.5831614176
 21
-73.586653645799998
 31
0.0
 12
1173.5831614176
 22
-73.586653645799998
 32
0.0
 13
1175.0831614176
 23
-72.086653645799984
 33
0.0
  0
ENDBLK
  5
394
  8
0
  0
BLOCK
  8
0
  2
CLUMP8
 70
     0
 10
0.0
 20
0.0
 30
0.0
  3
CLUMP8
  1

  0
ARC
  5
39A
  8
ﾚｲﾔ_1
 62
     5
 10
1059.9028483073
 20
59.033856445799998
 30
0.0
 40
3.5
 50
270.0
 51
90.0
  0
LINE
  5
39B
  8
ﾚｲﾔ_1
 62
     5
 10
1044.9028483073
 20
55.533856445799998
 30
0.0
 11
1059.9028483073
 21
55.533856445799998
 31
0.0
  0
LINE
  5
39C
  8
ﾚｲﾔ_1
 62
     5
 10
1059.9028483073
 20
62.533856445799991
 30
0.0
 11
1044.9028483073
 21
62.533856445799991
 31
0.0
  0
ARC
  5
39D
  8
ﾚｲﾔ_1
 62
     5
 10
1044.9028483073
 20
59.033856445799998
 30
0.0
 40
3.5
 50
90.0
 51
270.0
  0
ENDBLK
  5
39E
  8
0
  0
BLOCK
  8
0
  2
CLUMP9
 70
     0
 10
0.0
 20
0.0
 30
0.0
  3
CLUMP9
  1

  0
ARC
  5
3A2
  8
ﾚｲﾔ_1
 62
     5
 10
1124.9028483073
 20
59.033856445799998
 30
0.0
 40
3.5
 50
270.0
 51
90.0
  0
LINE
  5
3A3
  8
ﾚｲﾔ_1
 62
     5
 10
1109.9028483073
 20
55.533856445799998
 30
0.0
 11
1124.9028483073
 21
55.533856445799998
 31
0.0
  0
LINE
  5
3A4
  8
ﾚｲﾔ_1
 62
     5
 10
1124.9028483073
 20
62.533856445799991
 30
0.0
 11
1109.9028483073
 21
62.533856445799991
 31
0.0
  0
ARC
  5
3A5
  8
ﾚｲﾔ_1
 62
     5
 10
1109.9028483073
 20
59.033856445799998
 30
0.0
 40
3.5
 50
90.0
 51
270.0
  0
ENDBLK
  5
3A6
  8
0
  0
BLOCK
  8
0
  2
CLUMP10
 70
     0
 10
0.0
 20
0.0
 30
0.0
  3
CLUMP10
  1

  0
ARC
  5
3AA
  8
ﾚｲﾔ_1
 62
     5
 10
832.40284830729979
 20
34.033856445799998
 30
0.0
 40
3.5
 50
270.0
 51
90.0
  0
LINE
  5
3AB
  8
ﾚｲﾔ_1
 62
     5
 10
817.40284830729979
 20
30.533856445800001
 30
0.0
 11
832.40284830729979
 21
30.533856445800001
 31
0.0
  0
LINE
  5
3AC
  8
ﾚｲﾔ_1
 62
     5
 10
832.40284830729979
 20
37.533856445799998
 30
0.0
 11
817.40284830729979
 21
37.533856445799998
 31
0.0
  0
ARC
  5
3AD
  8
ﾚｲﾔ_1
 62
     5
 10
817.40284830729979
 20
34.033856445799998
 30
0.0
 40
3.5
 50
90.0
 51
270.0
  0
ENDBLK
  5
3AE
  8
0
  0
BLOCK
  8
0
  2
CLUMP11
 70
     0
 10
0.0
 20
0.0
 30
0.0
  3
CLUMP11
  1

  0
ARC
  5
3B2
  8
ﾚｲﾔ_1
 62
     5
 10
897.40284830729991
 20
34.033856445799998
 30
0.0
 40
3.5
 50
270.0
 51
90.0
  0
LINE
  5
3B3
  8
ﾚｲﾔ_1
 62
     5
 10
882.40284830729979
 20
30.533856445800001
 30
0.0
 11
897.40284830729991
 21
30.533856445800001
 31
0.0
  0
LINE
  5
3B4
  8
ﾚｲﾔ_1
 62
     5
 10
897.40284830729991
 20
37.533856445799998
 30
0.0
 11
882.40284830729979
 21
37.533856445799998
 31
0.0
  0
ARC
  5
3B5
  8
ﾚｲﾔ_1
 62
     5
 10
882.40284830729979
 20
34.033856445799998
 30
0.0
 40
3.5
 50
90.0
 51
270.0
  0
ENDBLK
  5
3B6
  8
0
  0
BLOCK
  8
0
  2
CLUMP12
 70
     0
 10
0.0
 20
0.0
 30
0.0
  3
CLUMP12
  1

  0
ARC
  5
3BA
  8
ﾚｲﾔ_1
 62
     5
 10
1124.9028483073
 20
9.0338564457999997
 30
0.0
 40
3.5
 50
270.0
 51
90.0
  0
LINE
  5
3BB
  8
ﾚｲﾔ_1
 62
     5
 10
1109.9028483073
 20
12.5338564458
 30
0.0
 11
1124.9028483073
 21
12.5338564458
 31
0.0
  0
LINE
  5
3BC
  8
ﾚｲﾔ_1
 62
     5
 10
1124.9028483073
 20
5.5338564457999997
 30
0.0
 11
1109.9028483073
 21
5.5338564457999997
 31
0.0
  0
ARC
  5
3BD
  8
ﾚｲﾔ_1
 62
     5
 10
1109.9028483073
 20
9.0338564457999997
 30
0.0
 40
3.5
 50
90.0
 51
270.0
  0
ENDBLK
  5
3BE
  8
0
  0
BLOCK
  8
0
  2
CLUMP13
 70
     0
 10
0.0
 20
0.0
 30
0.0
  3
CLUMP13
  1

  0
ARC
  5
3C2
  8
ﾚｲﾔ_1
 62
     5
 10
1059.9028483073
 20
9.0338564457999997
 30
0.0
 40
3.5
 50
270.0
 51
90.0
  0
LINE
  5
3C3
  8
ﾚｲﾔ_1
 62
     5
 10
1044.9028483073
 20
12.5338564458
 30
0.0
 11
1059.9028483073
 21
12.5338564458
 31
0.0
  0
LINE
  5
3C4
  8
ﾚｲﾔ_1
 62
     5
 10
1059.9028483073
 20
5.5338564457999997
 30
0.0
 11
1044.9028483073
 21
5.5338564457999997
 31
0.0
  0
ARC
  5
3C5
  8
ﾚｲﾔ_1
 62
     5
 10
1044.9028483073
 20
9.0338564457999997
 30
0.0
 40
3.5
 50
90.0
 51
270.0
  0
ENDBLK
  5
3C6
  8
0
  0
BLOCK
  8
0
  2
CLUMP14
 70
     0
 10
0.0
 20
0.0
 30
0.0
  3
CLUMP14
  1

  0
ARC
  5
3CA
  8
ﾚｲﾔ_1
 62
     5
 10
994.90284830729979
 20
9.0338564457999997
 30
0.0
 40
3.5
 50
270.0
 51
90.0
  0
LINE
  5
3CB
  8
ﾚｲﾔ_1
 62
     5
 10
979.90284830730002
 20
12.5338564458
 30
0.0
 11
994.90284830729979
 21
12.5338564458
 31
0.0
  0
LINE
  5
3CC
  8
ﾚｲﾔ_1
 62
     5
 10
994.90284830729979
 20
5.5338564457999997
 30
0.0
 11
979.90284830730002
 21
5.5338564457999997
 31
0.0
  0
ARC
  5
3CD
  8
ﾚｲﾔ_1
 62
     5
 10
979.90284830730002
 20
9.0338564457999997
 30
0.0
 40
3.5
 50
90.0
 51
270.0
  0
ENDBLK
  5
3CE
  8
0
  0
BLOCK
  8
0
  2
CLUMP15
 70
     0
 10
0.0
 20
0.0
 30
0.0
  3
CLUMP15
  1

  0
ARC
  5
3D2
  8
ﾚｲﾔ_1
 62
     5
 10
929.90284830730002
 20
9.0338564457999997
 30
0.0
 40
3.5
 50
270.0
 51
90.0
  0
LINE
  5
3D3
  8
ﾚｲﾔ_1
 62
     5
 10
914.90284830729991
 20
12.5338564458
 30
0.0
 11
929.90284830730002
 21
12.5338564458
 31
0.0
  0
LINE
  5
3D4
  8
ﾚｲﾔ_1
 62
     5
 10
929.90284830730002
 20
5.5338564457999997
 30
0.0
 11
914.90284830729991
 21
5.5338564457999997
 31
0.0
  0
ARC
  5
3D5
  8
ﾚｲﾔ_1
 62
     5
 10
914.90284830729991
 20
9.0338564457999997
 30
0.0
 40
3.5
 50
90.0
 51
270.0
  0
ENDBLK
  5
3D6
  8
0
  0
BLOCK
  8
0
  2
CLUMP16
 70
     0
 10
0.0
 20
0.0
 30
0.0
  3
CLUMP16
  1

  0
ARC
  5
3DA
  8
ﾚｲﾔ_1
 62
     5
 10
864.90284830729991
 20
9.0338564457999997
 30
0.0
 40
3.5
 50
270.0
 51
90.0
  0
LINE
  5
3DB
  8
ﾚｲﾔ_1
 62
     5
 10
849.90284830729991
 20
12.5338564458
 30
0.0
 11
864.90284830729991
 21
12.5338564458
 31
0.0
  0
LINE
  5
3DC
  8
ﾚｲﾔ_1
 62
     5
 10
864.90284830729991
 20
5.5338564457999997
 30
0.0
 11
849.90284830729991
 21
5.5338564457999997
 31
0.0
  0
ARC
  5
3DD
  8
ﾚｲﾔ_1
 62
     5
 10
849.90284830729991
 20
9.0338564457999997
 30
0.0
 40
3.5
 50
90.0
 51
270.0
  0
ENDBLK
  5
3DE
  8
0
  0
BLOCK
  8
0
  2
CLUMP17
 70
     0
 10
0.0
 20
0.0
 30
0.0
  3
CLUMP17
  1

  0
ARC
  5
3E2
  8
ﾚｲﾔ_1
 62
     5
 10
799.90284830729991
 20
9.0338564457999997
 30
0.0
 40
3.5
 50
270.0
 51
90.0
  0
LINE
  5
3E3
  8
ﾚｲﾔ_1
 62
     5
 10
784.90284830729991
 20
12.5338564458
 30
0.0
 11
799.90284830729991
 21
12.5338564458
 31
0.0
  0
LINE
  5
3E4
  8
ﾚｲﾔ_1
 62
     5
 10
799.90284830729991
 20
5.5338564457999997
 30
0.0
 11
784.90284830729991
 21
5.5338564457999997
 31
0.0
  0
ARC
  5
3E5
  8
ﾚｲﾔ_1
 62
     5
 10
784.90284830729991
 20
9.0338564457999997
 30
0.0
 40
3.5
 50
90.0
 51
270.0
  0
ENDBLK
  5
3E6
  8
0
  0
BLOCK
  8
0
  2
CLUMP18
 70
     0
 10
0.0
 20
0.0
 30
0.0
  3
CLUMP18
  1

  0
ARC
  5
3F1
  8
ﾚｲﾔ_1
 62
     5
 10
962.40284830729991
 20
34.033856445799998
 30
0.0
 40
3.5
 50
270.0
 51
90.0
  0
LINE
  5
3F2
  8
ﾚｲﾔ_1
 62
     5
 10
947.40284830729991
 20
30.533856445800001
 30
0.0
 11
962.40284830729991
 21
30.533856445800001
 31
0.0
  0
LINE
  5
3F3
  8
ﾚｲﾔ_1
 62
     5
 10
962.40284830729991
 20
37.533856445799998
 30
0.0
 11
947.40284830729991
 21
37.533856445799998
 31
0.0
  0
ARC
  5
3F4
  8
ﾚｲﾔ_1
 62
     5
 10
947.40284830729991
 20
34.033856445799998
 30
0.0
 40
3.5
 50
90.0
 51
270.0
  0
ENDBLK
  5
3F5
  8
0
  0
BLOCK
  8
0
  2
CLUMP19
 70
     0
 10
0.0
 20
0.0
 30
0.0
  3
CLUMP19
  1

  0
ARC
  5
3F9
  8
ﾚｲﾔ_1
 62
     5
 10
1027.4028483073
 20
34.033856445799998
 30
0.0
 40
3.5
 50
270.0
 51
90.0
  0
LINE
  5
3FA
  8
ﾚｲﾔ_1
 62
     5
 10
1012.4028483073
 20
30.533856445800001
 30
0.0
 11
1027.4028483073
 21
30.533856445800001
 31
0.0
  0
LINE
  5
3FB
  8
ﾚｲﾔ_1
 62
     5
 10
1027.4028483073
 20
37.533856445799998
 30
0.0
 11
1012.4028483073
 21
37.533856445799998
 31
0.0
  0
ARC
  5
3FC
  8
ﾚｲﾔ_1
 62
     5
 10
1012.4028483073
 20
34.033856445799998
 30
0.0
 40
3.5
 50
90.0
 51
270.0
  0
ENDBLK
  5
3FD
  8
0
  0
BLOCK
  8
0
  2
CLUMP20
 70
     0
 10
0.0
 20
0.0
 30
0.0
  3
CLUMP20
  1

  0
ARC
  5
401
  8
ﾚｲﾔ_1
 62
     5
 10
1092.4028483073
 20
34.033856445799998
 30
0.0
 40
3.5
 50
270.0
 51
90.0
  0
LINE
  5
402
  8
ﾚｲﾔ_1
 62
     5
 10
1077.4028483073
 20
30.533856445800001
 30
0.0
 11
1092.4028483073
 21
30.533856445800001
 31
0.0
  0
LINE
  5
403
  8
ﾚｲﾔ_1
 62
     5
 10
1092.4028483073
 20
37.533856445799998
 30
0.0
 11
1077.4028483073
 21
37.533856445799998
 31
0.0
  0
ARC
  5
404
  8
ﾚｲﾔ_1
 62
     5
 10
1077.4028483073
 20
34.033856445799998
 30
0.0
 40
3.5
 50
90.0
 51
270.0
  0
ENDBLK
  5
405
  8
0
  0
BLOCK
  8
0
  2
CLUMP21
 70
     0
 10
0.0
 20
0.0
 30
0.0
  3
CLUMP21
  1

  0
LINE
  5
415
  8
ﾚｲﾔ_1
 62
     5
 10
1237.9448567708
 20
75.634116862499994
 30
0.0
 11
1237.9448567708
 21
74.834116862499997
 31
0.0
  0
LINE
  5
416
  8
ﾚｲﾔ_1
 62
     5
 10
1237.9448567708
 20
75.634116862499994
 30
0.0
 11
1262.6448567708001
 21
75.634116862499994
 31
0.0
  0
LINE
  5
417
  8
ﾚｲﾔ_1
 62
     5
 10
1262.6448567708001
 20
82.234116862500017
 30
0.0
 11
1262.6448567708001
 21
68.334116862499997
 31
0.0
  0
LINE
  5
418
  8
ﾚｲﾔ_1
 62
     5
 10
1262.6448567708001
 20
68.334116862499997
 30
0.0
 11
1249.2448567708
 21
68.334116862499997
 31
0.0
  0
LINE
  5
419
  8
ﾚｲﾔ_1
 62
     5
 10
1248.4448567708
 20
74.834116862499997
 30
0.0
 11
1262.6448567708001
 21
74.834116862499997
 31
0.0
  0
LINE
  5
41A
  8
ﾚｲﾔ_1
 62
     5
 10
1239.4448567708
 20
82.234116862500017
 30
0.0
 11
1239.4448567708
 21
75.634116862499994
 31
0.0
  0
ARC
  5
41B
  8
ﾚｲﾔ_1
 62
     5
 10
1234.2448567708
 20
74.834116862499997
 30
0.0
 40
0.8
 50
180.0
 51
270.0
  0
LINE
  5
41C
  8
ﾚｲﾔ_1
 62
     5
 10
1233.4448567708
 20
82.234116862500017
 30
0.0
 11
1233.4448567708
 21
74.834116862499997
 31
0.0
  0
LINE
  5
41D
  8
ﾚｲﾔ_1
 62
     5
 10
1234.2448567708
 20
74.034116862499999
 30
0.0
 11
1248.4448567708
 21
74.034116862499999
 31
0.0
  0
ARC
  5
41E
  8
ﾚｲﾔ_1
 62
     5
 10
1248.4448567708
 20
74.034116862499999
 30
0.0
 40
0.8
 50
0.0
 51
90.0
  0
LINE
  5
41F
  8
ﾚｲﾔ_1
 62
     5
 10
1248.4448567708
 20
74.834116862499997
 30
0.0
 11
1234.2448567708
 21
74.834116862499997
 31
0.0
  0
LINE
  5
420
  8
ﾚｲﾔ_1
 62
     5
 10
1249.2448567708
 20
68.334116862499997
 30
0.0
 11
1249.2448567708
 21
74.034116862499999
 31
0.0
  0
ARC
  5
421
  8
ﾚｲﾔ_1
 62
     5
 10
1249.2448567708
 20
68.334116862499997
 30
0.0
 40
0.8
 50
180.0
 51
270.0
  0
LINE
  5
422
  8
ﾚｲﾔ_1
 62
     5
 10
1248.4448567708
 20
74.034116862499999
 30
0.0
 11
1248.4448567708
 21
68.334116862499997
 31
0.0
  0
LINE
  5
423
  8
ﾚｲﾔ_1
 62
     5
 10
1249.2448567708
 20
67.534116862499999
 30
0.0
 11
1262.6448567708001
 21
67.534116862499999
 31
0.0
  0
ARC
  5
424
  8
ﾚｲﾔ_1
 62
     5
 10
1262.6448567708001
 20
68.334116862499997
 30
0.0
 40
0.8
 50
270.0
 51
0.0
  0
LINE
  5
425
  8
ﾚｲﾔ_1
 62
     5
 10
1263.4448567708
 20
68.334116862499997
 30
0.0
 11
1263.4448567708
 21
82.234116862500017
 31
0.0
  0
ARC
  5
426
  8
ﾚｲﾔ_1
 62
     5
 10
1262.6448567708001
 20
82.234116862500017
 30
0.0
 40
0.8
 50
0.0
 51
90.0
  0
LINE
  5
427
  8
ﾚｲﾔ_1
 62
     5
 10
1262.6448567708001
 20
83.034116862499985
 30
0.0
 11
1257.4448567708
 21
83.034116862499985
 31
0.0
  0
ARC
  5
428
  8
ﾚｲﾔ_1
 62
     5
 10
1234.2448567708
 20
82.234116862500017
 30
0.0
 40
0.8
 50
90.0
 51
180.0
  0
LINE
  5
429
  8
ﾚｲﾔ_1
 62
     5
 10
1239.4448567708
 20
83.034116862499985
 30
0.0
 11
1234.2448567708
 21
83.034116862499985
 31
0.0
  0
LINE
  5
42A
  8
ﾚｲﾔ_1
 62
     5
 10
1239.4448567708
 20
82.234116862500017
 30
0.0
 11
1239.4448567708
 21
83.034116862499985
 31
0.0
  0
LINE
  5
42B
  8
ﾚｲﾔ_1
 62
     5
 10
1234.2448567708
 20
82.234116862500017
 30
0.0
 11
1239.4448567708
 21
82.234116862500017
 31
0.0
  0
LINE
  5
42C
  8
ﾚｲﾔ_1
 62
     5
 10
1234.2448567708
 20
74.834116862499997
 30
0.0
 11
1234.2448567708
 21
82.234116862500017
 31
0.0
  0
LINE
  5
42D
  8
ﾚｲﾔ_1
 62
     5
 10
1257.4448567708
 20
83.034116862499985
 30
0.0
 11
1257.4448567708
 21
82.234116862500017
 31
0.0
  0
LINE
  5
42E
  8
ﾚｲﾔ_1
 62
     5
 10
1257.4448567708
 20
82.234116862500017
 30
0.0
 11
1262.6448567708001
 21
82.234116862500017
 31
0.0
  0
ENDBLK
  5
42F
  8
0
  0
BLOCK
  8
0
  2
CLUMP22
 70
     0
 10
0.0
 20
0.0
 30
0.0
  3
CLUMP22
  1

  0
LINE
  5
433
  8
ﾚｲﾔ_1
 62
     5
 10
1237.9448567708
 20
-7.5658831375000002
 30
0.0
 11
1237.9448567708
 21
-6.7658831375000004
 31
0.0
  0
LINE
  5
434
  8
ﾚｲﾔ_1
 62
     5
 10
1237.9448567708
 20
-7.5658831375000002
 30
0.0
 11
1262.6448567708001
 21
-7.5658831375000002
 31
0.0
  0
LINE
  5
435
  8
ﾚｲﾔ_1
 62
     5
 10
1262.6448567708001
 20
-14.1658831375
 30
0.0
 11
1262.6448567708001
 21
-0.2658831375
 31
0.0
  0
LINE
  5
436
  8
ﾚｲﾔ_1
 62
     5
 10
1262.6448567708001
 20
-0.2658831375
 30
0.0
 11
1249.2448567708
 21
-0.2658831375
 31
0.0
  0
LINE
  5
437
  8
ﾚｲﾔ_1
 62
     5
 10
1248.4448567708
 20
-6.7658831375000004
 30
0.0
 11
1262.6448567708001
 21
-6.7658831375000004
 31
0.0
  0
LINE
  5
438
  8
ﾚｲﾔ_1
 62
     5
 10
1239.4448567708
 20
-14.1658831375
 30
0.0
 11
1239.4448567708
 21
-7.5658831375000002
 31
0.0
  0
ARC
  5
439
  8
ﾚｲﾔ_1
 62
     5
 10
1234.2448567708
 20
-6.7658831375000004
 30
0.0
 40
0.8
 50
90.0
 51
180.0
  0
LINE
  5
43A
  8
ﾚｲﾔ_1
 62
     5
 10
1233.4448567708
 20
-14.1658831375
 30
0.0
 11
1233.4448567708
 21
-6.7658831375000004
 31
0.0
  0
LINE
  5
43B
  8
ﾚｲﾔ_1
 62
     5
 10
1234.2448567708
 20
-5.9658831374999988
 30
0.0
 11
1248.4448567708
 21
-5.9658831374999988
 31
0.0
  0
ARC
  5
43C
  8
ﾚｲﾔ_1
 62
     5
 10
1248.4448567708
 20
-5.9658831374999988
 30
0.0
 40
0.8
 50
270.0
 51
0.0
  0
LINE
  5
43D
  8
ﾚｲﾔ_1
 62
     5
 10
1248.4448567708
 20
-6.7658831375000004
 30
0.0
 11
1234.2448567708
 21
-6.7658831375000004
 31
0.0
  0
LINE
  5
43E
  8
ﾚｲﾔ_1
 62
     5
 10
1249.2448567708
 20
-0.2658831375
 30
0.0
 11
1249.2448567708
 21
-5.9658831374999988
 31
0.0
  0
ARC
  5
43F
  8
ﾚｲﾔ_1
 62
     5
 10
1249.2448567708
 20
-0.2658831375
 30
0.0
 40
0.8
 50
90.0
 51
180.0
  0
LINE
  5
440
  8
ﾚｲﾔ_1
 62
     5
 10
1248.4448567708
 20
-5.9658831374999988
 30
0.0
 11
1248.4448567708
 21
-0.2658831375
 31
0.0
  0
LINE
  5
441
  8
ﾚｲﾔ_1
 62
     5
 10
1249.2448567708
 20
0.5341168625
 30
0.0
 11
1262.6448567708001
 21
0.5341168625
 31
0.0
  0
ARC
  5
442
  8
ﾚｲﾔ_1
 62
     5
 10
1262.6448567708001
 20
-0.2658831375
 30
0.0
 40
0.8
 50
0.0
 51
90.0
  0
LINE
  5
443
  8
ﾚｲﾔ_1
 62
     5
 10
1263.4448567708
 20
-0.2658831375
 30
0.0
 11
1263.4448567708
 21
-14.1658831375
 31
0.0
  0
ARC
  5
444
  8
ﾚｲﾔ_1
 62
     5
 10
1262.6448567708001
 20
-14.1658831375
 30
0.0
 40
0.8
 50
270.0
 51
0.0
  0
LINE
  5
445
  8
ﾚｲﾔ_1
 62
     5
 10
1262.6448567708001
 20
-14.965883137500001
 30
0.0
 11
1257.4448567708
 21
-14.965883137500001
 31
0.0
  0
ARC
  5
446
  8
ﾚｲﾔ_1
 62
     5
 10
1234.2448567708
 20
-14.1658831375
 30
0.0
 40
0.8
 50
180.0
 51
270.0
  0
LINE
  5
447
  8
ﾚｲﾔ_1
 62
     5
 10
1239.4448567708
 20
-14.965883137500001
 30
0.0
 11
1234.2448567708
 21
-14.965883137500001
 31
0.0
  0
LINE
  5
448
  8
ﾚｲﾔ_1
 62
     5
 10
1239.4448567708
 20
-14.1658831375
 30
0.0
 11
1239.4448567708
 21
-14.965883137500001
 31
0.0
  0
LINE
  5
449
  8
ﾚｲﾔ_1
 62
     5
 10
1234.2448567708
 20
-14.1658831375
 30
0.0
 11
1239.4448567708
 21
-14.1658831375
 31
0.0
  0
LINE
  5
44A
  8
ﾚｲﾔ_1
 62
     5
 10
1234.2448567708
 20
-6.7658831375000004
 30
0.0
 11
1234.2448567708
 21
-14.1658831375
 31
0.0
  0
LINE
  5
44B
  8
ﾚｲﾔ_1
 62
     5
 10
1257.4448567708
 20
-14.965883137500001
 30
0.0
 11
1257.4448567708
 21
-14.1658831375
 31
0.0
  0
LINE
  5
44C
  8
ﾚｲﾔ_1
 62
     5
 10
1257.4448567708
 20
-14.1658831375
 30
0.0
 11
1262.6448567708001
 21
-14.1658831375
 31
0.0
  0
ENDBLK
  5
44D
  8
0
  0
BLOCK
  8
0
  2
CLUMP23
 70
     0
 10
0.0
 20
0.0
 30
0.0
  3
CLUMP23
  1

  0
LINE
  5
453
  8
ﾚｲﾔ_1
 62
     5
 10
1323.6041666666999
 20
-5.4658831374999988
 30
0.0
 11
1345.1041666666999
 21
-5.4658831374999988
 31
0.0
  0
LINE
  5
454
  8
ﾚｲﾔ_1
 62
     5
 10
1345.1041666666999
 20
-5.4658831374999988
 30
0.0
 11
1345.1041666666999
 21
73.534116862499999
 31
0.0
  0
LINE
  5
455
  8
ﾚｲﾔ_1
 62
     5
 10
1323.6041666666999
 20
73.534116862499999
 30
0.0
 11
1345.1041666666999
 21
73.534116862499999
 31
0.0
  0
LINE
  5
456
  8
ﾚｲﾔ_1
 62
     5
 10
1323.6041666666999
 20
-3.9658831375000001
 30
0.0
 11
1345.1041666666999
 21
-3.9658831375000001
 31
0.0
  0
ARC
  5
457
  8
ﾚｲﾔ_1
 62
     5
 10
1323.6041666666999
 20
-3.9658831375000001
 30
0.0
 40
1.5
 50
180.0
 51
270.0
  0
LINE
  5
458
  8
ﾚｲﾔ_1
 62
     5
 10
1323.6041666666999
 20
72.034116862499985
 30
0.0
 11
1323.6041666666999
 21
-3.9658831375000001
 31
0.0
  0
LINE
  5
459
  8
ﾚｲﾔ_1
 62
     5
 10
1322.1041666666999
 20
72.034116862499985
 30
0.0
 11
1322.1041666666999
 21
-3.9658831375000001
 31
0.0
  0
LINE
  5
45A
  8
ﾚｲﾔ_1
 62
     5
 10
1323.6041666666999
 20
72.034116862499985
 30
0.0
 11
1345.1041666666999
 21
72.034116862499985
 31
0.0
  0
ARC
  5
45B
  8
ﾚｲﾔ_1
 62
     5
 10
1323.6041666666999
 20
72.034116862499985
 30
0.0
 40
1.5
 50
90.0
 51
180.0
  0
ENDBLK
  5
45C
  8
0
  0
BLOCK
  8
0
  2
CLUMP24
 70
     0
 10
0.0
 20
0.0
 30
0.0
  3
CLUMP24
  1

  0
LINE
  5
460
  8
ﾚｲﾔ_1
 62
     5
 10
1326.8041666667
 20
-6.7658831375000004
 30
0.0
 11
1326.8041666667
 21
-7.5658831375000002
 31
0.0
  0
LINE
  5
461
  8
ﾚｲﾔ_1
 62
     5
 10
1320.9041666666999
 20
-14.1658831375
 30
0.0
 11
1320.9041666666999
 21
-6.7658831375000004
 31
0.0
  0
LINE
  5
462
  8
ﾚｲﾔ_1
 62
     5
 10
1326.1041666666999
 20
-14.1658831375
 30
0.0
 11
1320.9041666666999
 21
-14.1658831375
 31
0.0
  0
LINE
  5
463
  8
ﾚｲﾔ_1
 62
     5
 10
1326.1041666666999
 20
-14.1658831375
 30
0.0
 11
1326.1041666666999
 21
-14.965883137500001
 31
0.0
  0
LINE
  5
464
  8
ﾚｲﾔ_1
 62
     5
 10
1326.1041666666999
 20
-14.965883137500001
 30
0.0
 11
1320.9041666666999
 21
-14.965883137500001
 31
0.0
  0
ARC
  5
465
  8
ﾚｲﾔ_1
 62
     5
 10
1320.9041666666999
 20
-14.1658831375
 30
0.0
 40
0.8
 50
180.0
 51
270.0
  0
LINE
  5
466
  8
ﾚｲﾔ_1
 62
     5
 10
1320.1041666666999
 20
-14.1658831375
 30
0.0
 11
1320.1041666666999
 21
-6.7658831375000004
 31
0.0
  0
ARC
  5
467
  8
ﾚｲﾔ_1
 62
     5
 10
1320.9041666666999
 20
-6.7658831375000004
 30
0.0
 40
0.8
 50
90.0
 51
180.0
  0
LINE
  5
468
  8
ﾚｲﾔ_1
 62
     5
 10
1369.1041666666999
 20
-14.965883137500001
 30
0.0
 11
1369.1041666666999
 21
-14.1658831375
 31
0.0
  0
LINE
  5
469
  8
ﾚｲﾔ_1
 62
     5
 10
1374.3041666667
 20
-14.1658831375
 30
0.0
 11
1369.1041666666999
 21
-14.1658831375
 31
0.0
  0
LINE
  5
46A
  8
ﾚｲﾔ_1
 62
     5
 10
1374.3041666667
 20
-1.765883137499999
 30
0.0
 11
1374.3041666667
 21
-14.1658831375
 31
0.0
  0
LINE
  5
46B
  8
ﾚｲﾔ_1
 62
     5
 10
1345.9041666666999
 20
-1.765883137499999
 30
0.0
 11
1374.3041666667
 21
-1.765883137499999
 31
0.0
  0
LINE
  5
46C
  8
ﾚｲﾔ_1
 62
     5
 10
1320.9041666666999
 20
-5.9658831374999988
 30
0.0
 11
1345.1041666666999
 21
-5.9658831374999988
 31
0.0
  0
LINE
  5
46D
  8
ﾚｲﾔ_1
 62
     5
 10
1320.9041666666999
 20
-6.7658831375000004
 30
0.0
 11
1345.1041666666999
 21
-6.7658831375000004
 31
0.0
  0
LINE
  5
46E
  8
ﾚｲﾔ_1
 62
     5
 10
1345.9041666666999
 20
-5.9658831374999988
 30
0.0
 11
1345.9041666666999
 21
-1.765883137499999
 31
0.0
  0
ARC
  5
46F
  8
ﾚｲﾔ_1
 62
     5
 10
1345.1041666666999
 20
-5.9658831374999988
 30
0.0
 40
0.8
 50
270.0
 51
0.0
  0
LINE
  5
470
  8
ﾚｲﾔ_1
 62
     5
 10
1345.1041666666999
 20
-5.9658831374999988
 30
0.0
 11
1345.1041666666999
 21
-1.765883137499999
 31
0.0
  0
ARC
  5
471
  8
ﾚｲﾔ_1
 62
     5
 10
1345.9041666666999
 20
-1.765883137499999
 30
0.0
 40
0.8
 50
90.0
 51
180.0
  0
LINE
  5
472
  8
ﾚｲﾔ_1
 62
     5
 10
1345.9041666666999
 20
-0.9658831375
 30
0.0
 11
1374.3041666667
 21
-0.9658831375
 31
0.0
  0
ARC
  5
473
  8
ﾚｲﾔ_1
 62
     5
 10
1374.3041666667
 20
-1.765883137499999
 30
0.0
 40
0.8
 50
0.0
 51
90.0
  0
LINE
  5
474
  8
ﾚｲﾔ_1
 62
     5
 10
1374.3041666667
 20
-14.965883137500001
 30
0.0
 11
1369.1041666666999
 21
-14.965883137500001
 31
0.0
  0
LINE
  5
475
  8
ﾚｲﾔ_1
 62
     5
 10
1375.1041666666999
 20
-1.765883137499999
 30
0.0
 11
1375.1041666666999
 21
-14.1658831375
 31
0.0
  0
ARC
  5
476
  8
ﾚｲﾔ_1
 62
     5
 10
1374.3041666667
 20
-14.1658831375
 30
0.0
 40
0.8
 50
270.0
 51
0.0
  0
LINE
  5
477
  8
ﾚｲﾔ_1
 62
     5
 10
1326.8041666667
 20
-7.5658831375000002
 30
0.0
 11
1374.3041666667
 21
-7.5658831375000002
 31
0.0
  0
LINE
  5
478
  8
ﾚｲﾔ_1
 62
     5
 10
1345.1041666666999
 20
-6.7658831375000004
 30
0.0
 11
1374.3041666667
 21
-6.7658831375000004
 31
0.0
  0
ENDBLK
  5
479
  8
0
  0
BLOCK
  8
0
  2
CLUMP25
 70
     0
 10
0.0
 20
0.0
 30
0.0
  3
CLUMP25
  1

  0
LINE
  5
47D
  8
ﾚｲﾔ_1
 62
     5
 10
1326.8041666667
 20
74.834116862499997
 30
0.0
 11
1326.8041666667
 21
75.634116862499994
 31
0.0
  0
LINE
  5
47E
  8
ﾚｲﾔ_1
 62
     5
 10
1320.9041666666999
 20
82.234116862500017
 30
0.0
 11
1320.9041666666999
 21
74.834116862499997
 31
0.0
  0
LINE
  5
47F
  8
ﾚｲﾔ_1
 62
     5
 10
1326.1041666666999
 20
82.234116862500017
 30
0.0
 11
1320.9041666666999
 21
82.234116862500017
 31
0.0
  0
LINE
  5
480
  8
ﾚｲﾔ_1
 62
     5
 10
1326.1041666666999
 20
82.234116862500017
 30
0.0
 11
1326.1041666666999
 21
83.034116862499985
 31
0.0
  0
LINE
  5
481
  8
ﾚｲﾔ_1
 62
     5
 10
1326.1041666666999
 20
83.034116862499985
 30
0.0
 11
1320.9041666666999
 21
83.034116862499985
 31
0.0
  0
ARC
  5
482
  8
ﾚｲﾔ_1
 62
     5
 10
1320.9041666666999
 20
82.234116862500017
 30
0.0
 40
0.8
 50
90.0
 51
180.0
  0
LINE
  5
483
  8
ﾚｲﾔ_1
 62
     5
 10
1320.1041666666999
 20
82.234116862500017
 30
0.0
 11
1320.1041666666999
 21
74.834116862499997
 31
0.0
  0
ARC
  5
484
  8
ﾚｲﾔ_1
 62
     5
 10
1320.9041666666999
 20
74.834116862499997
 30
0.0
 40
0.8
 50
180.0
 51
270.0
  0
LINE
  5
485
  8
ﾚｲﾔ_1
 62
     5
 10
1369.1041666666999
 20
83.034116862499985
 30
0.0
 11
1369.1041666666999
 21
82.234116862500017
 31
0.0
  0
LINE
  5
486
  8
ﾚｲﾔ_1
 62
     5
 10
1374.3041666667
 20
82.234116862500017
 30
0.0
 11
1369.1041666666999
 21
82.234116862500017
 31
0.0
  0
LINE
  5
487
  8
ﾚｲﾔ_1
 62
     5
 10
1374.3041666667
 20
69.834116862499997
 30
0.0
 11
1374.3041666667
 21
82.234116862500017
 31
0.0
  0
LINE
  5
488
  8
ﾚｲﾔ_1
 62
     5
 10
1345.9041666666999
 20
69.834116862499997
 30
0.0
 11
1374.3041666667
 21
69.834116862499997
 31
0.0
  0
LINE
  5
489
  8
ﾚｲﾔ_1
 62
     5
 10
1320.9041666666999
 20
74.034116862499999
 30
0.0
 11
1345.1041666666999
 21
74.034116862499999
 31
0.0
  0
LINE
  5
48A
  8
ﾚｲﾔ_1
 62
     5
 10
1320.9041666666999
 20
74.834116862499997
 30
0.0
 11
1345.1041666666999
 21
74.834116862499997
 31
0.0
  0
LINE
  5
48B
  8
ﾚｲﾔ_1
 62
     5
 10
1345.9041666666999
 20
74.034116862499999
 30
0.0
 11
1345.9041666666999
 21
69.834116862499997
 31
0.0
  0
ARC
  5
48C
  8
ﾚｲﾔ_1
 62
     5
 10
1345.1041666666999
 20
74.034116862499999
 30
0.0
 40
0.8
 50
0.0
 51
90.0
  0
LINE
  5
48D
  8
ﾚｲﾔ_1
 62
     5
 10
1345.1041666666999
 20
74.034116862499999
 30
0.0
 11
1345.1041666666999
 21
69.834116862499997
 31
0.0
  0
ARC
  5
48E
  8
ﾚｲﾔ_1
 62
     5
 10
1345.9041666666999
 20
69.834116862499997
 30
0.0
 40
0.8
 50
180.0
 51
270.0
  0
LINE
  5
48F
  8
ﾚｲﾔ_1
 62
     5
 10
1345.9041666666999
 20
69.034116862499999
 30
0.0
 11
1374.3041666667
 21
69.034116862499999
 31
0.0
  0
ARC
  5
490
  8
ﾚｲﾔ_1
 62
     5
 10
1374.3041666667
 20
69.834116862499997
 30
0.0
 40
0.8
 50
270.0
 51
0.0
  0
LINE
  5
491
  8
ﾚｲﾔ_1
 62
     5
 10
1374.3041666667
 20
83.034116862499985
 30
0.0
 11
1369.1041666666999
 21
83.034116862499985
 31
0.0
  0
LINE
  5
492
  8
ﾚｲﾔ_1
 62
     5
 10
1375.1041666666999
 20
69.834116862499997
 30
0.0
 11
1375.1041666666999
 21
82.234116862500017
 31
0.0
  0
ARC
  5
493
  8
ﾚｲﾔ_1
 62
     5
 10
1374.3041666667
 20
82.234116862500017
 30
0.0
 40
0.8
 50
0.0
 51
90.0
  0
LINE
  5
494
  8
ﾚｲﾔ_1
 62
     5
 10
1326.8041666667
 20
75.634116862499994
 30
0.0
 11
1374.3041666667
 21
75.634116862499994
 31
0.0
  0
LINE
  5
495
  8
ﾚｲﾔ_1
 62
     5
 10
1345.1041666666999
 20
74.834116862499997
 30
0.0
 11
1374.3041666667
 21
74.834116862499997
 31
0.0
  0
ENDBLK
  5
496
  8
0
  0
BLOCK
  8
0
  2
CLUMP26
 70
     0
 10
0.0
 20
0.0
 30
0.0
  3
CLUMP26
  1

  0
LINE
  5
4A3
  8
ﾚｲﾔ_1
 62
     5
 10
1248.4448567708
 20
73.534116862499999
 30
0.0
 11
1248.4448567708
 21
-5.4658831374999988
 31
0.0
  0
LINE
  5
4A4
  8
ﾚｲﾔ_1
 62
     5
 10
1234.4448567708
 20
72.034117413299995
 30
0.0
 11
1234.4448567708
 21
-3.9658831375000001
 31
0.0
  0
ARC
  5
4A5
  8
ﾚｲﾔ_1
 62
     5
 10
1235.9448567708
 20
72.034116862499985
 30
0.0
 40
1.5
 50
90.0
 51
179.99997896209999
  0
LINE
  5
4A6
  8
ﾚｲﾔ_1
 62
     5
 10
1235.9448567708
 20
72.034116862499985
 30
0.0
 11
1235.9448567708
 21
-3.9658831375000001
 31
0.0
  0
LINE
  5
4A7
  8
ﾚｲﾔ_1
 62
     5
 10
1235.9448567708
 20
72.034116862499985
 30
0.0
 11
1248.4448567708
 21
72.034116862499985
 31
0.0
  0
LINE
  5
4A8
  8
ﾚｲﾔ_1
 62
     5
 10
1235.9448567708
 20
-5.4658831374999988
 30
0.0
 11
1248.4448567708
 21
-5.4658831374999988
 31
0.0
  0
LINE
  5
4A9
  8
ﾚｲﾔ_1
 62
     5
 10
1235.9448567708
 20
-3.9658831375000001
 30
0.0
 11
1248.4448567708
 21
-3.9658831375000001
 31
0.0
  0
ARC
  5
4AA
  8
ﾚｲﾔ_1
 62
     5
 10
1235.9448567708
 20
-3.9658831375000001
 30
0.0
 40
1.5
 50
180.0
 51
270.0
  0
LINE
  5
4AB
  8
ﾚｲﾔ_1
 62
     5
 10
1235.9448567708
 20
73.534116862499999
 30
0.0
 11
1248.4448567708
 21
73.534116862499999
 31
0.0
  0
ENDBLK
  5
4AC
  8
0
  0
BLOCK
  8
0
  2
CLUMP27
 70
     0
 10
0.0
 20
0.0
 30
0.0
  3
CLUMP27
  1

  0
ARC
  5
4C9
  8
ﾚｲﾔ_1
 62
     5
 10
942.51588079809994
 20
-201.2367439695
 30
0.0
 40
3.5
 50
270.0
 51
90.0
  0
LINE
  5
4CA
  8
ﾚｲﾔ_1
 62
     5
 10
927.51588079809983
 20
-204.7367439695
 30
0.0
 11
942.51588079809994
 21
-204.7367439695
 31
0.0
  0
LINE
  5
4CB
  8
ﾚｲﾔ_1
 62
     5
 10
942.51588079809994
 20
-197.7367439695
 30
0.0
 11
927.51588079809983
 21
-197.7367439695
 31
0.0
  0
ARC
  5
4CC
  8
ﾚｲﾔ_1
 62
     5
 10
927.51588079809983
 20
-201.2367439695
 30
0.0
 40
3.5
 50
90.0
 51
270.0
  0
ENDBLK
  5
4CD
  8
0
  0
BLOCK
  8
0
  2
CLUMP28
 70
     0
 10
0.0
 20
0.0
 30
0.0
  3
CLUMP28
  1

  0
ARC
  5
4D1
  8
ﾚｲﾔ_1
 62
     5
 10
1007.5158807981001
 20
-201.2367439695
 30
0.0
 40
3.5
 50
270.0
 51
90.0
  0
LINE
  5
4D2
  8
ﾚｲﾔ_1
 62
     5
 10
992.51588079809994
 20
-204.7367439695
 30
0.0
 11
1007.5158807981001
 21
-204.7367439695
 31
0.0
  0
LINE
  5
4D3
  8
ﾚｲﾔ_1
 62
     5
 10
1007.5158807981001
 20
-197.7367439695
 30
0.0
 11
992.51588079809994
 21
-197.7367439695
 31
0.0
  0
ARC
  5
4D4
  8
ﾚｲﾔ_1
 62
     5
 10
992.51588079809994
 20
-201.2367439695
 30
0.0
 40
3.5
 50
90.0
 51
270.0
  0
ENDBLK
  5
4D5
  8
0
  0
BLOCK
  8
0
  2
CLUMP29
 70
     0
 10
0.0
 20
0.0
 30
0.0
  3
CLUMP29
  1

  0
ARC
  5
4F0
  8
ﾚｲﾔ_1
 62
     5
 10
1040.0158807980999
 20
-176.2367439695
 30
0.0
 40
3.5
 50
270.0
 51
90.0
  0
LINE
  5
4F1
  8
ﾚｲﾔ_1
 62
     5
 10
1025.0158807980999
 20
-179.7367439695
 30
0.0
 11
1040.0158807980999
 21
-179.7367439695
 31
0.0
  0
LINE
  5
4F2
  8
ﾚｲﾔ_1
 62
     5
 10
1040.0158807980999
 20
-172.7367439695
 30
0.0
 11
1025.0158807980999
 21
-172.7367439695
 31
0.0
  0
ARC
  5
4F3
  8
ﾚｲﾔ_1
 62
     5
 10
1025.0158807980999
 20
-176.2367439695
 30
0.0
 40
3.5
 50
90.0
 51
270.0
  0
ENDBLK
  5
4F4
  8
0
  0
BLOCK
  8
0
  2
CLUMP30
 70
     0
 10
0.0
 20
0.0
 30
0.0
  3
CLUMP30
  1

  0
ARC
  5
4F8
  8
ﾚｲﾔ_1
 62
     5
 10
747.51588079809994
 20
-201.2367439695
 30
0.0
 40
3.5
 50
270.0
 51
90.0
  0
LINE
  5
4F9
  8
ﾚｲﾔ_1
 62
     5
 10
732.51588079809994
 20
-204.7367439695
 30
0.0
 11
747.51588079809994
 21
-204.7367439695
 31
0.0
  0
LINE
  5
4FA
  8
ﾚｲﾔ_1
 62
     5
 10
747.51588079809994
 20
-197.7367439695
 30
0.0
 11
732.51588079809994
 21
-197.7367439695
 31
0.0
  0
ARC
  5
4FB
  8
ﾚｲﾔ_1
 62
     5
 10
732.51588079809994
 20
-201.2367439695
 30
0.0
 40
3.5
 50
90.0
 51
270.0
  0
ENDBLK
  5
4FC
  8
0
  0
BLOCK
  8
0
  2
CLUMP31
 70
     0
 10
0.0
 20
0.0
 30
0.0
  3
CLUMP31
  1

  0
ARC
  5
500
  8
ﾚｲﾔ_1
 62
     5
 10
812.51588079810006
 20
-201.2367439695
 30
0.0
 40
3.5
 50
270.0
 51
90.0
  0
LINE
  5
501
  8
ﾚｲﾔ_1
 62
     5
 10
797.51588079809994
 20
-204.7367439695
 30
0.0
 11
812.51588079810006
 21
-204.7367439695
 31
0.0
  0
LINE
  5
502
  8
ﾚｲﾔ_1
 62
     5
 10
812.51588079810006
 20
-197.7367439695
 30
0.0
 11
797.51588079809994
 21
-197.7367439695
 31
0.0
  0
ARC
  5
503
  8
ﾚｲﾔ_1
 62
     5
 10
797.51588079809994
 20
-201.2367439695
 30
0.0
 40
3.5
 50
90.0
 51
270.0
  0
ENDBLK
  5
504
  8
0
  0
BLOCK
  8
0
  2
CLUMP32
 70
     0
 10
0.0
 20
0.0
 30
0.0
  3
CLUMP32
  1

  0
ARC
  5
508
  8
ﾚｲﾔ_1
 62
     5
 10
1040.0158807980999
 20
-226.2367439695
 30
0.0
 40
3.5
 50
270.0
 51
90.0
  0
LINE
  5
509
  8
ﾚｲﾔ_1
 62
     5
 10
1025.0158807980999
 20
-222.7367439695
 30
0.0
 11
1040.0158807980999
 21
-222.7367439695
 31
0.0
  0
LINE
  5
50A
  8
ﾚｲﾔ_1
 62
     5
 10
1040.0158807980999
 20
-229.7367439695
 30
0.0
 11
1025.0158807980999
 21
-229.7367439695
 31
0.0
  0
ARC
  5
50B
  8
ﾚｲﾔ_1
 62
     5
 10
1025.0158807980999
 20
-226.2367439695
 30
0.0
 40
3.5
 50
90.0
 51
270.0
  0
ENDBLK
  5
50C
  8
0
  0
BLOCK
  8
0
  2
CLUMP33
 70
     0
 10
0.0
 20
0.0
 30
0.0
  3
CLUMP33
  1

  0
ARC
  5
510
  8
ﾚｲﾔ_1
 62
     5
 10
975.01588079810006
 20
-226.2367439695
 30
0.0
 40
3.5
 50
270.0
 51
90.0
  0
LINE
  5
511
  8
ﾚｲﾔ_1
 62
     5
 10
960.01588079809994
 20
-222.7367439695
 30
0.0
 11
975.01588079810006
 21
-222.7367439695
 31
0.0
  0
LINE
  5
512
  8
ﾚｲﾔ_1
 62
     5
 10
975.01588079810006
 20
-229.7367439695
 30
0.0
 11
960.01588079809994
 21
-229.7367439695
 31
0.0
  0
ARC
  5
513
  8
ﾚｲﾔ_1
 62
     5
 10
960.01588079809994
 20
-226.2367439695
 30
0.0
 40
3.5
 50
90.0
 51
270.0
  0
ENDBLK
  5
514
  8
0
  0
BLOCK
  8
0
  2
CLUMP34
 70
     0
 10
0.0
 20
0.0
 30
0.0
  3
CLUMP34
  1

  0
ARC
  5
518
  8
ﾚｲﾔ_1
 62
     5
 10
910.01588079809994
 20
-226.2367439695
 30
0.0
 40
3.5
 50
270.0
 51
90.0
  0
LINE
  5
519
  8
ﾚｲﾔ_1
 62
     5
 10
895.01588079809994
 20
-222.7367439695
 30
0.0
 11
910.01588079809994
 21
-222.7367439695
 31
0.0
  0
LINE
  5
51A
  8
ﾚｲﾔ_1
 62
     5
 10
910.01588079809994
 20
-229.7367439695
 30
0.0
 11
895.01588079809994
 21
-229.7367439695
 31
0.0
  0
ARC
  5
51B
  8
ﾚｲﾔ_1
 62
     5
 10
895.01588079809994
 20
-226.2367439695
 30
0.0
 40
3.5
 50
90.0
 51
270.0
  0
ENDBLK
  5
51C
  8
0
  0
BLOCK
  8
0
  2
CLUMP35
 70
     0
 10
0.0
 20
0.0
 30
0.0
  3
CLUMP35
  1

  0
ARC
  5
520
  8
ﾚｲﾔ_1
 62
     5
 10
845.01588079809994
 20
-226.2367439695
 30
0.0
 40
3.5
 50
270.0
 51
90.0
  0
LINE
  5
521
  8
ﾚｲﾔ_1
 62
     5
 10
830.01588079809994
 20
-222.7367439695
 30
0.0
 11
845.01588079809994
 21
-222.7367439695
 31
0.0
  0
LINE
  5
522
  8
ﾚｲﾔ_1
 62
     5
 10
845.01588079809994
 20
-229.7367439695
 30
0.0
 11
830.01588079809994
 21
-229.7367439695
 31
0.0
  0
ARC
  5
523
  8
ﾚｲﾔ_1
 62
     5
 10
830.01588079809994
 20
-226.2367439695
 30
0.0
 40
3.5
 50
90.0
 51
270.0
  0
ENDBLK
  5
524
  8
0
  0
BLOCK
  8
0
  2
CLUMP36
 70
     0
 10
0.0
 20
0.0
 30
0.0
  3
CLUMP36
  1

  0
ARC
  5
535
  8
ﾚｲﾔ_1
 62
     5
 10
780.01588079810006
 20
-226.2367439695
 30
0.0
 40
3.5
 50
270.0
 51
90.0
  0
LINE
  5
536
  8
ﾚｲﾔ_1
 62
     5
 10
765.01588079809994
 20
-222.7367439695
 30
0.0
 11
780.01588079810006
 21
-222.7367439695
 31
0.0
  0
LINE
  5
537
  8
ﾚｲﾔ_1
 62
     5
 10
780.01588079810006
 20
-229.7367439695
 30
0.0
 11
765.01588079809994
 21
-229.7367439695
 31
0.0
  0
ARC
  5
538
  8
ﾚｲﾔ_1
 62
     5
 10
765.01588079809994
 20
-226.2367439695
 30
0.0
 40
3.5
 50
90.0
 51
270.0
  0
ENDBLK
  5
539
  8
0
  0
BLOCK
  8
0
  2
CLUMP37
 70
     0
 10
0.0
 20
0.0
 30
0.0
  3
CLUMP37
  1

  0
ARC
  5
53D
  8
ﾚｲﾔ_1
 62
     5
 10
715.01588079809994
 20
-226.2367439695
 30
0.0
 40
3.5
 50
270.0
 51
90.0
  0
LINE
  5
53E
  8
ﾚｲﾔ_1
 62
     5
 10
700.01588079809994
 20
-222.7367439695
 30
0.0
 11
715.01588079809994
 21
-222.7367439695
 31
0.0
  0
LINE
  5
53F
  8
ﾚｲﾔ_1
 62
     5
 10
715.01588079809994
 20
-229.7367439695
 30
0.0
 11
700.01588079809994
 21
-229.7367439695
 31
0.0
  0
ARC
  5
540
  8
ﾚｲﾔ_1
 62
     5
 10
700.01588079809994
 20
-226.2367439695
 30
0.0
 40
3.5
 50
90.0
 51
270.0
  0
ENDBLK
  5
541
  8
0
  0
BLOCK
  8
0
  2
CLUMP38
 70
     0
 10
0.0
 20
0.0
 30
0.0
  3
CLUMP38
  1

  0
ARC
  5
547
  8
ﾚｲﾔ_1
 62
     5
 10
877.51588079809983
 20
-201.2367439695
 30
0.0
 40
3.5
 50
270.0
 51
90.0
  0
LINE
  5
548
  8
ﾚｲﾔ_1
 62
     5
 10
862.51588079810006
 20
-204.7367439695
 30
0.0
 11
877.51588079809983
 21
-204.7367439695
 31
0.0
  0
LINE
  5
549
  8
ﾚｲﾔ_1
 62
     5
 10
877.51588079809983
 20
-197.7367439695
 30
0.0
 11
862.51588079810006
 21
-197.7367439695
 31
0.0
  0
ARC
  5
54A
  8
ﾚｲﾔ_1
 62
     5
 10
862.51588079810006
 20
-201.2367439695
 30
0.0
 40
3.5
 50
90.0
 51
270.0
  0
ENDBLK
  5
54B
  8
0
  0
BLOCK
  8
0
  2
BALLON0
 70
     0
 10
0.0
 20
0.0
 30
0.0
  3
BALLON0
  1

  0
INSERT
  5
54F
  8
0
  6
CONTINUOUS
  2
*U138
 10
0.0
 20
0.0
 30
0.0
  0
CIRCLE
  5
550
  8
ﾚｲﾔ_1
 10
709.76948499119999
 20
-37.901058435900012
 30
0.0
 40
8.0
  0
LINE
  5
551
  8
寸法線
 10
723.10281832449994
 20
-37.901058435900012
 30
0.0
 11
717.76948499119999
 21
-37.901058435900012
 31
0.0
  0
LINE
  5
552
  8
寸法線
 10
764.10284830729995
 20
-82.376723402400003
 30
0.0
 11
723.10281832449994
 21
-37.901058435900012
 31
0.0
  0
SOLID
  5
553
  8
寸法線
 10
764.10284830729995
 20
-82.376723402400003
 30
0.0
 11
757.50409259569994
 21
-77.579179962500007
 31
0.0
 12
759.7649659814
 22
-77.671112185300004
 32
0.0
 13
759.7649659814
 23
-77.671112185300004
 33
0.0
  0
SOLID
  5
554
  8
寸法線
 10
759.7649659814
 20
-77.671112185300004
 30
0.0
 11
759.85689820419987
 21
-75.410238799499993
 31
0.0
 12
764.10284830729995
 22
-82.376723402400003
 32
0.0
 13
764.10284830729995
 23
-82.376723402400003
 33
0.0
  0
ENDBLK
  5
555
  8
0
  0
BLOCK
  8
0
  2
BALLON1
 70
     0
 10
0.0
 20
0.0
 30
0.0
  3
BALLON1
  1

  0
INSERT
  5
559
  8
0
  6
CONTINUOUS
  2
*U139
 10
0.0
 20
0.0
 30
0.0
  0
CIRCLE
  5
55A
  8
ﾚｲﾔ_1
 10
856.20808080810014
 20
-37.901058435900012
 30
0.0
 40
8.0
  0
LINE
  5
55B
  8
寸法線
 10
869.54141414139997
 20
-37.901058435900012
 30
0.0
 11
864.20808080810014
 21
-37.901058435900012
 31
0.0
  0
LINE
  5
55C
  8
寸法線
 10
889.07438841539977
 20
12.471332136499999
 30
0.0
 11
869.54141414139997
 21
-37.901058435900012
 31
0.0
  0
SOLID
  5
55D
  8
寸法線
 10
889.07438841539977
 20
12.471332136499999
 30
0.0
 11
887.67382954540005
 21
4.4340169844999986
 31
0.0
 12
886.76052541509989
 22
6.5042526150000004
 32
0.0
 13
886.76052541509989
 23
6.5042526150000004
 33
0.0
  0
SOLID
  5
55E
  8
寸法線
 10
886.76052541509989
 20
6.5042526150000004
 30
0.0
 11
884.69028978460005
 21
5.5909484847000002
 31
0.0
 12
889.07438841539977
 22
12.471332136499999
 32
0.0
 13
889.07438841539977
 23
12.471332136499999
 33
0.0
  0
ENDBLK
  5
55F
  8
0
  0
BLOCK
  8
0
  2
BALLON2
 70
     0
 10
0.0
 20
0.0
 30
0.0
  3
BALLON2
  1

  0
INSERT
  5
563
  8
0
  6
CONTINUOUS
  2
*U140
 10
0.0
 20
0.0
 30
0.0
  0
CIRCLE
  5
564
  8
ﾚｲﾔ_1
 10
795.35048269149991
 20
-37.901058435900012
 30
0.0
 40
8.0
  0
LINE
  5
565
  8
寸法線
 10
808.68381602479985
 20
-37.901058435900012
 30
0.0
 11
803.35048269149991
 21
-37.901058435900012
 31
0.0
  0
LINE
  5
566
  8
寸法線
 10
827.79343558690005
 20
-61.586653645799998
 30
0.0
 11
808.68381602479985
 21
-37.901058435900012
 31
0.0
  0
SOLID
  5
567
  8
寸法線
 10
827.79343558690005
 20
-61.586653645799998
 30
0.0
 11
821.52484203989991
 21
-56.365089230599999
 31
0.0
 12
823.77475815309992
 22
-56.605666626899989
 32
0.0
 13
823.77475815309992
 23
-56.605666626899989
 33
0.0
  0
SOLID
  5
568
  8
寸法線
 10
823.77475815309992
 20
-56.605666626899989
 30
0.0
 11
824.01533554939988
 21
-54.355750513700002
 31
0.0
 12
827.79343558690005
 22
-61.586653645799998
 32
0.0
 13
827.79343558690005
 23
-61.586653645799998
 33
0.0
  0
ENDBLK
  5
569
  8
0
  0
BLOCK
  8
0
  2
CLUMP39
 70
     0
 10
0.0
 20
0.0
 30
0.0
  3
CLUMP39
  1

  0
ARC
  5
56D
  8
ﾚｲﾔ_1
 62
     5
 10
845.01588079809994
 20
-176.2367439695
 30
0.0
 40
3.5
 50
270.0
 51
90.0
  0
LINE
  5
56E
  8
ﾚｲﾔ_1
 62
     5
 10
830.01588079809994
 20
-179.7367439695
 30
0.0
 11
845.01588079809994
 21
-179.7367439695
 31
0.0
  0
LINE
  5
56F
  8
ﾚｲﾔ_1
 62
     5
 10
845.01588079809994
 20
-172.7367439695
 30
0.0
 11
830.01588079809994
 21
-172.7367439695
 31
0.0
  0
ARC
  5
570
  8
ﾚｲﾔ_1
 62
     5
 10
830.01588079809994
 20
-176.2367439695
 30
0.0
 40
3.5
 50
90.0
 51
270.0
  0
ENDBLK
  5
571
  8
0
  0
BLOCK
  8
0
  2
CLUMP40
 70
     0
 10
0.0
 20
0.0
 30
0.0
  3
CLUMP40
  1

  0
ARC
  5
588
  8
ﾚｲﾔ_1
 62
     5
 10
715.01588079809994
 20
-176.2367439695
 30
0.0
 40
3.5
 50
270.0
 51
90.0
  0
LINE
  5
589
  8
ﾚｲﾔ_1
 62
     5
 10
700.01588079809994
 20
-179.7367439695
 30
0.0
 11
715.01588079809994
 21
-179.7367439695
 31
0.0
  0
LINE
  5
58A
  8
ﾚｲﾔ_1
 62
     5
 10
715.01588079809994
 20
-172.7367439695
 30
0.0
 11
700.01588079809994
 21
-172.7367439695
 31
0.0
  0
ARC
  5
58B
  8
ﾚｲﾔ_1
 62
     5
 10
700.01588079809994
 20
-176.2367439695
 30
0.0
 40
3.5
 50
90.0
 51
270.0
  0
ENDBLK
  5
58C
  8
0
  0
BLOCK
  8
0
  2
CLUMP41
 70
     0
 10
0.0
 20
0.0
 30
0.0
  3
CLUMP41
  1

  0
ARC
  5
590
  8
ﾚｲﾔ_1
 62
     5
 10
780.01588079810006
 20
-176.2367439695
 30
0.0
 40
3.5
 50
270.0
 51
90.0
  0
LINE
  5
591
  8
ﾚｲﾔ_1
 62
     5
 10
765.01588079809994
 20
-179.7367439695
 30
0.0
 11
780.01588079810006
 21
-179.7367439695
 31
0.0
  0
LINE
  5
592
  8
ﾚｲﾔ_1
 62
     5
 10
780.01588079810006
 20
-172.7367439695
 30
0.0
 11
765.01588079809994
 21
-172.7367439695
 31
0.0
  0
ARC
  5
593
  8
ﾚｲﾔ_1
 62
     5
 10
765.01588079809994
 20
-176.2367439695
 30
0.0
 40
3.5
 50
90.0
 51
270.0
  0
ENDBLK
  5
594
  8
0
  0
BLOCK
  8
0
  2
CLUMP42
 70
     0
 10
0.0
 20
0.0
 30
0.0
  3
CLUMP42
  1

  0
ARC
  5
598
  8
ﾚｲﾔ_1
 62
     5
 10
910.01588079809994
 20
-176.2367439695
 30
0.0
 40
3.5
 50
270.0
 51
90.0
  0
LINE
  5
599
  8
ﾚｲﾔ_1
 62
     5
 10
895.01588079809994
 20
-179.7367439695
 30
0.0
 11
910.01588079809994
 21
-179.7367439695
 31
0.0
  0
LINE
  5
59A
  8
ﾚｲﾔ_1
 62
     5
 10
910.01588079809994
 20
-172.7367439695
 30
0.0
 11
895.01588079809994
 21
-172.7367439695
 31
0.0
  0
ARC
  5
59B
  8
ﾚｲﾔ_1
 62
     5
 10
895.01588079809994
 20
-176.2367439695
 30
0.0
 40
3.5
 50
90.0
 51
270.0
  0
ENDBLK
  5
59C
  8
0
  0
BLOCK
  8
0
  2
CLUMP43
 70
     0
 10
0.0
 20
0.0
 30
0.0
  3
CLUMP43
  1

  0
ARC
  5
5A0
  8
ﾚｲﾔ_1
 62
     5
 10
975.01588079810006
 20
-176.2367439695
 30
0.0
 40
3.5
 50
270.0
 51
90.0
  0
LINE
  5
5A1
  8
ﾚｲﾔ_1
 62
     5
 10
960.01588079809994
 20
-179.7367439695
 30
0.0
 11
975.01588079810006
 21
-179.7367439695
 31
0.0
  0
LINE
  5
5A2
  8
ﾚｲﾔ_1
 62
     5
 10
975.01588079810006
 20
-172.7367439695
 30
0.0
 11
960.01588079809994
 21
-172.7367439695
 31
0.0
  0
ARC
  5
5A3
  8
ﾚｲﾔ_1
 62
     5
 10
960.01588079809994
 20
-176.2367439695
 30
0.0
 40
3.5
 50
90.0
 51
270.0
  0
ENDBLK
  5
5A4
  8
0
  0
BLOCK
  8
0
  2
*U88
 70
     1
 10
0.0
 20
0.0
 30
0.0
  3
*U88
  1

  0
TEXT
  5
5BF
  8
図枠
  6
CONTINUOUS
 10
1284.640564079657
 20
-303.21860113079998
 30
0.0
 40
5.9972220420999998
  1
SUS304 0.8t
  0
ENDBLK
  5
5C1
  8
0
  0
BLOCK
  8
0
  2
*U89
 70
     1
 10
0.0
 20
0.0
 30
0.0
  3
*U89
  1

  0
TEXT
  5
5C3
  8
図枠
  6
CONTINUOUS
 10
1196.7535573498069
 20
-303.55347139711012
 30
0.0
 40
5.9972220420999998
  1
本   体
  0
ENDBLK
  5
5C5
  8
0
  0
BLOCK
  8
0
  2
*U90
 70
     1
 10
0.0
 20
0.0
 30
0.0
  3
*U90
  1

  0
TEXT
  5
5C7
  8
図枠
  6
CONTINUOUS
 10
1314.6525754082941
 20
-340.70852368300251
 30
0.0
 40
7.7963888167999986
  1
ハイとーる(浅型 ・深型 )
  0
ENDBLK
  5
5C9
  8
0
  0
BLOCK
  8
0
  2
*U91
 70
     1
 10
0.0
 20
0.0
 30
0.0
  3
*U91
  1

  0
TEXT
  5
5CB
  8
図枠
  6
CONTINUOUS
 10
1349.597810561768
 20
-362.70852368300262
 30
0.0
 40
7.7963888167999986
  1
FM10-40(D)
  0
ENDBLK
  5
5CD
  8
0
  0
BLOCK
  8
0
  2
*U92
 70
     1
 10
0.0
 20
0.0
 30
0.0
  3
*U92
  1

  0
TEXT
  5
5CF
  8
図枠
  6
CONTINUOUS
 10
1353.8719729587961
 20
-384.3127679055001
 30
0.0
 40
7.7963888167999986
  1
SHF00027
  0
ENDBLK
  5
5D1
  8
0
  0
BLOCK
  8
0
  2
*U93
 70
     1
 10
0.0
 20
0.0
 30
0.0
  3
*U93
  1

  0
TEXT
  5
5D3
  8
ﾚｲﾔ_1
  6
CONTINUOUS
 10
1234.8073469129999
 20
-53.875376832911357
 30
0.0
 40
7.1966662884000003
  1
（浅型）
  0
ENDBLK
  5
5D5
  8
0
  0
BLOCK
  8
0
  2
*U94
 70
     1
 10
0.0
 20
0.0
 30
0.0
  3
*U94
  1

  0
TEXT
  5
5D7
  8
ﾚｲﾔ_1
  6
CONTINUOUS
 10
1336.9468186141
 20
-53.711816235447728
 30
0.0
 40
7.1966662884000003
  1
（深型）
  0
ENDBLK
  5
5D9
  8
0
  0
BLOCK
  8
0
  2
*U95
 70
     1
 10
0.0
 20
0.0
 30
0.0
  3
*U95
  1

  0
TEXT
  5
5DB
  8
ﾚｲﾔ_1
  6
CONTINUOUS
 10
1110.4837795015001
 20
-257.42123591131138
 30
0.0
 40
7.1966662884000003
  1
（浅型）
  0
ENDBLK
  5
5DD
  8
0
  0
BLOCK
  8
0
  2
*U96
 70
     1
 10
0.0
 20
0.0
 30
0.0
  3
*U96
  1

  0
TEXT
  5
5DF
  8
ﾚｲﾔ_1
  6
CONTINUOUS
 10
1166.8982170757999
 20
-257.25767531384781
 30
0.0
 40
7.1966662884000003
  1
（深型）
  0
ENDBLK
  5
5E1
  8
0
  0
BLOCK
  8
0
  2
*U97
 70
     1
 10
0.0
 20
0.0
 30
0.0
  3
*U97
  1

  0
TEXT
  5
5E3
  8
ﾚｲﾔ_1
  6
CONTINUOUS
 10
782.78096791053633
 20
-154.76915431307609
 30
0.0
 40
5.9972220420999998
  1
17-小判穴
  0
ENDBLK
  5
5E5
  8
0
  0
BLOCK
  8
0
  2
*U98
 70
     1
 10
0.0
 20
0.0
 30
0.0
  3
*U98
  1

  0
TEXT
  5
5E7
  8
図枠
  6
CONTINUOUS
 10
1206.677894333181
 20
-293.21860113079998
 30
0.0
 40
5.9972220420999998
  1
耳
  0
ENDBLK
  5
5E9
  8
0
  0
BLOCK
  8
0
  2
*U99
 70
     1
 10
0.0
 20
0.0
 30
0.0
  3
*U99
  1

  0
TEXT
  5
5EB
  8
図枠
  6
CONTINUOUS
 10
1284.640564079657
 20
-293.21860113079998
 30
0.0
 40
5.9972220420999998
  1
SUS304 0.8t
  0
ENDBLK
  5
5ED
  8
0
  0
BLOCK
  8
0
  2
*U100
 70
     1
 10
0.0
 20
0.0
 30
0.0
  3
*U100
  1

  0
TEXT
  5
5EF
  8
図枠
  6
CONTINUOUS
 10
1359.078260901387
 20
-293.21860113079998
 30
0.0
 40
5.9972220420999998
  1
2
  0
ENDBLK
  5
5F1
  8
0
  0
BLOCK
  8
0
  2
*U101
 70
     1
 10
0.0
 20
0.0
 30
0.0
  3
*U101
  1

  0
TEXT
  5
5F3
  8
図枠
  6
CONTINUOUS
 10
1195.5206259147569
 20
-283.52302864562739
 30
0.0
 40
5.9972220420999998
  1
蓋(目皿)
  0
ENDBLK
  5
5F5
  8
0
  0
BLOCK
  8
0
  2
*U102
 70
     1
 10
0.0
 20
0.0
 30
0.0
  3
*U102
  1

  0
TEXT
  5
5F7
  8
図枠
  6
CONTINUOUS
 10
1284.640564079657
 20
-283.21860113079998
 30
0.0
 40
5.9972220420999998
  1
SUS304 1.5t
  0
ENDBLK
  5
5F9
  8
0
  0
BLOCK
  8
0
  2
*U103
 70
     1
 10
0.0
 20
0.0
 30
0.0
  3
*U103
  1

  0
TEXT
  5
5FB
  8
図枠
  6
CONTINUOUS
 10
1359.428352543438
 20
-283.21860113079998
 30
0.0
 40
5.9972220420999998
  1
1
  0
ENDBLK
  5
5FD
  8
0
  0
BLOCK
  8
0
  2
*U104
 70
     1
 10
0.0
 20
0.0
 30
0.0
  3
*U104
  1

  0
TEXT
  5
5FF
  8
図枠
  6
CONTINUOUS
 10
1317.8580962318511
 20
160.7491362249431
 30
0.0
 40
5.3974999188999986
  1
改　訂　内　容
  0
ENDBLK
  5
601
  8
0
  0
BLOCK
  8
0
  2
*U105
 70
     1
 10
0.0
 20
0.0
 30
0.0
  3
*U105
  1

  0
TEXT
  5
603
  8
図枠
  6
CONTINUOUS
 10
1265.708026226795
 20
160.80393317843451
 30
0.0
 40
5.3974999188999986
  1
改訂日
  0
ENDBLK
  5
605
  8
0
  0
BLOCK
  8
0
  2
*U106
 70
     1
 10
0.0
 20
0.0
 30
0.0
  3
*U106
  1

  0
TEXT
  5
607
  8
図枠
  6
CONTINUOUS
 10
1245.2424297269879
 20
160.85873013192591
 30
0.0
 40
5.3974999188999986
  1
副番
  0
ENDBLK
  5
609
  8
0
  0
BLOCK
  8
0
  2
*U107
 70
     1
 10
0.0
 20
0.0
 30
0.0
  3
*U107
  1

  0
TEXT
  5
60B
  8
図枠
  6
CONTINUOUS
 10
1152.8758281183
 20
-385.79747874841058
 30
0.0
 40
10.794999837900001
  1
株式会社
  0
ENDBLK
  5
60D
  8
0
  0
BLOCK
  8
0
  2
*U108
 70
     1
 10
0.0
 20
0.0
 30
0.0
  3
*U108
  1

  0
TEXT
  5
60F
  8
図枠
  6
CONTINUOUS
 10
1411.9135148023879
 20
160.72173774819751
 30
0.0
 40
5.3974999188999986
  1
検認者
  0
ENDBLK
  5
611
  8
0
  0
BLOCK
  8
0
  2
*U109
 70
     1
 10
0.0
 20
0.0
 30
0.0
  3
*U109
  1

  0
TEXT
  5
613
  8
図枠
  6
CONTINUOUS
 10
1294.726336418305
 20
-377.1292576396965
 30
0.0
 40
5.9972220420999998
  1
図 番
  0
ENDBLK
  5
615
  8
0
  0
BLOCK
  8
0
  2
*U110
 70
     1
 10
0.0
 20
0.0
 30
0.0
  3
*U110
  1

  0
TEXT
  5
617
  8
図枠
  6
CONTINUOUS
 10
1292.6410079417369
 20
-333.2510286456274
 30
0.0
 40
5.9972220420999998
  1
製品名
  0
ENDBLK
  5
619
  8
0
  0
BLOCK
  8
0
  2
*U111
 70
     1
 10
0.0
 20
0.0
 30
0.0
  3
*U111
  1

  0
TEXT
  5
61B
  8
図枠
  6
CONTINUOUS
 10
1292.808443074892
 20
-355.19014314266201
 30
0.0
 40
5.9972220420999998
  1
図面名
  0
ENDBLK
  5
61D
  8
0
  0
BLOCK
  8
0
  2
*U112
 70
     1
 10
0.0
 20
0.0
 30
0.0
  3
*U112
  1

  0
TEXT
  5
61F
  8
図枠
  6
CONTINUOUS
 10
1152.3988549088249
 20
-333.88764571613098
 30
0.0
 40
5.9972220420999998
  1
日　　付
  0
ENDBLK
  5
621
  8
0
  0
BLOCK
  8
0
  2
*U113
 70
     1
 10
0.0
 20
0.0
 30
0.0
  3
*U113
  1

  0
TEXT
  5
623
  8
図枠
  6
CONTINUOUS
 10
1201.7595571276879
 20
-334.07030222502738
 30
0.0
 40
5.9972220420999998
  1
尺　　度
  0
ENDBLK
  5
625
  8
0
  0
BLOCK
  8
0
  2
*U114
 70
     1
 10
0.0
 20
0.0
 30
0.0
  3
*U114
  1

  0
TEXT
  5
627
  8
図枠
  6
CONTINUOUS
 10
1391.995710232625
 20
160.7491362249431
 30
0.0
 40
5.3974999188999986
  1
改訂者
  0
ENDBLK
  5
629
  8
0
  0
BLOCK
  8
0
  2
*U115
 70
     1
 10
0.0
 20
0.0
 30
0.0
  3
*U115
  1

  0
TEXT
  5
62B
  8
図枠
  6
CONTINUOUS
 10
1143.6898938889419
 20
-313.40125763969638
 30
0.0
 40
5.9972220420999998
  1
品番
  0
ENDBLK
  5
62D
  8
0
  0
BLOCK
  8
0
  2
*U116
 70
     1
 10
0.0
 20
0.0
 30
0.0
  3
*U116
  1

  0
TEXT
  5
62F
  8
図枠
  6
CONTINUOUS
 10
1141.9961542448
 20
-367.07030222502749
 30
0.0
 40
5.9972220420999998
  1
 製図
  0
ENDBLK
  5
631
  8
0
  0
BLOCK
  8
0
  2
*U117
 70
     1
 10
0.0
 20
0.0
 30
0.0
  3
*U117
  1

  0
TEXT
  5
633
  8
図枠
  6
CONTINUOUS
 10
1141.9961542448
 20
-356.00941672206193
 30
0.0
 40
5.9972220420999998
  1
 設計
  0
ENDBLK
  5
635
  8
0
  0
BLOCK
  8
0
  2
*U118
 70
     1
 10
0.0
 20
0.0
 30
0.0
  3
*U118
  1

  0
TEXT
  5
637
  8
図枠
  6
CONTINUOUS
 10
1216.9961542448
 20
-367.1007449765101
 30
0.0
 40
5.9972220420999998
  1
 検図
  0
ENDBLK
  5
639
  8
0
  0
BLOCK
  8
0
  2
*U119
 70
     1
 10
0.0
 20
0.0
 30
0.0
  3
*U119
  1

  0
TEXT
  5
63B
  8
図枠
  6
CONTINUOUS
 10
1216.9961542448
 20
-356.0398594735446
 30
0.0
 40
5.9972220420999998
  1
 照査
  0
ENDBLK
  5
63D
  8
0
  0
BLOCK
  8
0
  2
*U120
 70
     1
 10
0.0
 20
0.0
 30
0.0
  3
*U120
  1

  0
TEXT
  5
63F
  8
図枠
  6
CONTINUOUS
 10
1353.4920160043041
 20
-313.52302864562739
 30
0.0
 40
5.9972220420999998
  1
数量
  0
ENDBLK
  5
641
  8
0
  0
BLOCK
  8
0
  2
*U121
 70
     1
 10
0.0
 20
0.0
 30
0.0
  3
*U121
  1

  0
TEXT
  5
643
  8
図枠
  6
CONTINUOUS
 10
1382.5174040947761
 20
-313.61435690007562
 30
0.0
 40
5.9972220420999998
  1
備　　　考
  0
ENDBLK
  5
645
  8
0
  0
BLOCK
  8
0
  2
*U122
 70
     1
 10
0.0
 20
0.0
 30
0.0
  3
*U122
  1

  0
TEXT
  5
647
  8
図枠
  6
CONTINUOUS
 10
1286.801999434932
 20
-313.43170039117922
 30
0.0
 40
5.9972220420999998
  1
材　　　質
  0
ENDBLK
  5
649
  8
0
  0
BLOCK
  8
0
  2
*U123
 70
     1
 10
0.0
 20
0.0
 30
0.0
  3
*U123
  1

  0
TEXT
  5
64B
  8
図枠
  6
CONTINUOUS
 10
1191.0303200710521
 20
-313.46214314266189
 30
0.0
 40
5.9972220420999998
  1
品　　　名
  0
ENDBLK
  5
64D
  8
0
  0
BLOCK
  8
0
  2
*U124
 70
     1
 10
0.0
 20
0.0
 30
0.0
  3
*U124
  1

  0
TEXT
  5
64F
  8
図枠
  6
CONTINUOUS
 10
1178.4149927050821
 20
-367.1007449765101
 30
0.0
 40
5.9972220420999998
  1
白須賀
  0
ENDBLK
  5
651
  8
0
  0
BLOCK
  8
0
  2
*U125
 70
     1
 10
0.0
 20
0.0
 30
0.0
  3
*U125
  1

  0
TEXT
  5
653
  8
図枠
  6
CONTINUOUS
 10
1178.4149927050821
 20
-356.10074497651021
 30
0.0
 40
5.9972220420999998
  1
白須賀
  0
ENDBLK
  5
655
  8
0
  0
BLOCK
  8
0
  2
*U126
 70
     1
 10
0.0
 20
0.0
 30
0.0
  3
*U126
  1

  0
TEXT
  5
657
  8
図枠
  6
CONTINUOUS
 10
1255.0589012851499
 20
-367.07030222502749
 30
0.0
 40
5.9972220420999998
  1
柳 原
  0
ENDBLK
  5
659
  8
0
  0
BLOCK
  8
0
  2
*U127
 70
     1
 10
0.0
 20
0.0
 30
0.0
  3
*U127
  1

  0
TEXT
  5
65B
  8
図枠
  6
CONTINUOUS
 10
1255.0589012851499
 20
-356.07030222502738
 30
0.0
 40
5.9972220420999998
  1
柳 原
  0
ENDBLK
  5
65D
  8
0
  0
BLOCK
  8
0
  2
*U128
 70
     1
 10
0.0
 20
0.0
 30
0.0
  3
*U128
  1

  0
TEXT
  5
65F
  8
図枠
  6
CONTINUOUS
 10
1155.3822445541341
 20
-344.7802093976
 30
0.0
 40
5.9972220420999998
  1
H09.07
  0
ENDBLK
  5
661
  8
0
  0
BLOCK
  8
0
  2
*U129
 70
     1
 10
0.0
 20
0.0
 30
0.0
  3
*U129
  1

  0
TEXT
  5
663
  8
図枠
  6
CONTINUOUS
 10
1149.078260901387
 20
-293.21860113079998
 30
0.0
 40
5.9972220420999998
  1
2
  0
ENDBLK
  5
665
  8
0
  0
BLOCK
  8
0
  2
*U130
 70
     1
 10
0.0
 20
0.0
 30
0.0
  3
*U130
  1

  0
TEXT
  5
667
  8
図枠
  6
CONTINUOUS
 10
1149.4283525434389
 20
-303.21860113079998
 30
0.0
 40
5.9972220420999998
  1
1
  0
ENDBLK
  5
669
  8
0
  0
BLOCK
  8
0
  2
*U131
 70
     1
 10
0.0
 20
0.0
 30
0.0
  3
*U131
  1

  0
TEXT
  5
66B
  8
図枠
  6
CONTINUOUS
 10
1359.078260901387
 20
-303.21860113079998
 30
0.0
 40
5.9972220420999998
  1
2
  0
ENDBLK
  5
66D
  8
0
  0
BLOCK
  8
0
  2
*U132
 70
     1
 10
0.0
 20
0.0
 30
0.0
  3
*U132
  1

  0
TEXT
  5
66F
  8
図枠
  6
CONTINUOUS
 10
1149.10870365287
 20
-283.21860113079998
 30
0.0
 40
5.9972220420999998
  1
3
  0
ENDBLK
  5
671
  8
0
  0
BLOCK
  8
0
  2
*U133
 70
     1
 10
0.0
 20
0.0
 30
0.0
  3
*U133
  1

  0
TEXT
  5
673
  8
改訂
  6
CONTINUOUS
 10
1395.886293930512
 20
151.02312099240001
 30
0.0
 40
5.3974999188999986
  1
＊＊
  0
ENDBLK
  5
675
  8
0
  0
BLOCK
  8
0
  2
*U134
 70
     1
 10
0.0
 20
0.0
 30
0.0
  3
*U134
  1

  0
TEXT
  5
677
  8
改訂
  6
CONTINUOUS
 10
1303.419098986875
 20
151.02812099240001
 30
0.0
 40
5.3974999188999986
  1
**********************
  0
ENDBLK
  5
679
  8
0
  0
BLOCK
  8
0
  2
*U135
 70
     1
 10
0.0
 20
0.0
 30
0.0
  3
*U135
  1

  0
TEXT
  5
67B
  8
改訂
  6
CONTINUOUS
 10
1250.0165619160359
 20
149.81433645769999
 30
0.0
 40
5.397499935199999
  1
1
  0
ENDBLK
  5
67D
  8
0
  0
BLOCK
  8
0
  2
*U136
 70
     1
 10
0.0
 20
0.0
 30
0.0
  3
*U136
  1

  0
TEXT
  5
67F
  8
改訂
  6
CONTINUOUS
 10
1260.1187369706749
 20
151.02312099240001
 30
0.0
 40
5.3974999188999986
  1
H**.**.**
  0
ENDBLK
  5
681
  8
0
  0
BLOCK
  8
0
  2
*U137
 70
     1
 10
0.0
 20
0.0
 30
0.0
  3
*U137
  1

  0
TEXT
  5
683
  8
図枠
  6
CONTINUOUS
 10
1209.035374732063
 20
-344.7802093976
 30
0.0
 40
5.9972220420999998
  1
1：2
  0
ENDBLK
  5
685
  8
0
  0
BLOCK
  8
0
  2
*U138
 70
     1
 10
0.0
 20
0.0
 30
0.0
  3
*U138
  1

  0
TEXT
  5
687
  8
ﾚｲﾔ_1
  6
CONTINUOUS
 10
707.64028313750691
 20
-40.370502806199987
 30
0.0
 40
5.9972220420999998
  1
2
  0
ENDBLK
  5
689
  8
0
  0
BLOCK
  8
0
  2
*U139
 70
     1
 10
0.0
 20
0.0
 30
0.0
  3
*U139
  1

  0
TEXT
  5
68B
  8
ﾚｲﾔ_1
  6
CONTINUOUS
 10
854.10932170588978
 20
-40.370502806199987
 30
0.0
 40
5.9972220420999998
  1
3
  0
ENDBLK
  5
68D
  8
0
  0
BLOCK
  8
0
  2
*U140
 70
     1
 10
0.0
 20
0.0
 30
0.0
  3
*U140
  1

  0
TEXT
  5
68F
  8
ﾚｲﾔ_1
  6
CONTINUOUS
 10
792.82552506853142
 20
-40.370502806199987
 30
0.0
 40
5.9972220420999998
  1
1
  0
ENDBLK
  5
691
  8
0
  0
ENDSEC
  0
SECTION
  2
ENTITIES
  0
INSERT
  5
2F
  8
0
  6
CONTINUOUS
  2
*U88
 10
0.0
 20
0.0
 30
0.0
  0
INSERT
  5
30
  8
0
  6
CONTINUOUS
  2
*U89
 10
0.0
 20
0.0
 30
0.0
  0
INSERT
  5
32
  8
図枠
  2
CLUMP0
 10
0.0
 20
0.0
 30
0.0
  0
INSERT
  5
3C
  8
図枠
  2
CLUMP1
 10
0.0
 20
0.0
 30
0.0
  0
INSERT
  5
45
  8
0
  6
CONTINUOUS
  2
*U90
 10
0.0
 20
0.0
 30
0.0
  0
INSERT
  5
46
  8
0
  6
CONTINUOUS
  2
*U91
 10
0.0
 20
0.0
 30
0.0
  0
INSERT
  5
47
  8
0
  6
CONTINUOUS
  2
*U92
 10
0.0
 20
0.0
 30
0.0
  0
INSERT
  5
49
  8
0
  6
CONTINUOUS
  2
*U93
 10
0.0
 20
0.0
 30
0.0
  0
INSERT
  5
4A
  8
0
  6
CONTINUOUS
  2
*U94
 10
0.0
 20
0.0
 30
0.0
  0
INSERT
  5
4B
  8
0
  6
CONTINUOUS
  2
*U95
 10
0.0
 20
0.0
 30
0.0
  0
INSERT
  5
4C
  8
0
  6
CONTINUOUS
  2
*U96
 10
0.0
 20
0.0
 30
0.0
  0
DIMENSION
  5
55
  8
寸法線
  2
*D2
 10
687.39518020229991
 20
-211.30631510329999
 30
0.0
 11
693.40508754530003
 21
-224.16786988460001
 31
0.0
 70
   131
  1
2-Φ15
 15
700.78678233899996
 25
-204.54872735219999
 35
0.0
 40
0.0
  0
INSERT
  5
56
  8
0
  6
CONTINUOUS
  2
*U97
 10
0.0
 20
0.0
 30
0.0
  0
DIMENSION
  5
66
  8
寸法線
  2
*D3
 10
1059.2658807980999
 20
-141.7367439695
 30
0.0
 11
870.01588079809994
 21
-141.7367439695
 31
0.0
 70
   128
  1
<>
 13
1059.2658807980999
 23
-161.7367439695
 33
0.0
 14
680.76588079809994
 24
-161.7367439695
 34
0.0
  0
DIMENSION
  5
75
  8
寸法線
  2
*D4
 10
1079.2658807980999
 20
-240.7367439695
 30
0.0
 11
1079.2658807980999
 21
-233.4867439695
 31
0.0
 70
   128
  1
<>
 13
1059.2658807980999
 23
-240.7367439695
 33
0.0
 14
1043.5158807980999
 24
-226.2367439695
 34
0.0
 50
90.0
  0
DIMENSION
  5
84
  8
寸法線
  2
*D5
 10
1191.0943659912
 20
-141.7367439695
 30
0.0
 11
1179.5943659912
 21
-141.7367439695
 31
0.0
 70
   128
  1
<>
 13
1191.0943659912
 23
-161.7367439695
 33
0.0
 14
1168.0943659912
 24
-163.2367439695
 34
0.0
  0
INSERT
  5
85
  8
0
  6
CONTINUOUS
  2
*U98
 10
0.0
 20
0.0
 30
0.0
  0
INSERT
  5
86
  8
0
  6
CONTINUOUS
  2
*U99
 10
0.0
 20
0.0
 30
0.0
  0
INSERT
  5
87
  8
0
  6
CONTINUOUS
  2
*U100
 10
0.0
 20
0.0
 30
0.0
  0
INSERT
  5
89
  8
図枠
  2
CLUMP2
 10
0.0
 20
0.0
 30
0.0
  0
INSERT
  5
92
  8
0
  6
CONTINUOUS
  2
*U101
 10
0.0
 20
0.0
 30
0.0
  0
INSERT
  5
93
  8
0
  6
CONTINUOUS
  2
*U102
 10
0.0
 20
0.0
 30
0.0
  0
INSERT
  5
94
  8
0
  6
CONTINUOUS
  2
*U103
 10
0.0
 20
0.0
 30
0.0
  0
INSERT
  5
96
  8
図枠
  2
CLUMP3
 10
0.0
 20
0.0
 30
0.0
  0
INSERT
  5
13A
  8
0
  6
CONTINUOUS
  2
*U124
 10
0.0
 20
0.0
 30
0.0
  0
INSERT
  5
13B
  8
0
  6
CONTINUOUS
  2
*U125
 10
0.0
 20
0.0
 30
0.0
  0
INSERT
  5
13C
  8
0
  6
CONTINUOUS
  2
*U126
 10
0.0
 20
0.0
 30
0.0
  0
INSERT
  5
13D
  8
0
  6
CONTINUOUS
  2
*U127
 10
0.0
 20
0.0
 30
0.0
  0
INSERT
  5
13E
  8
0
  6
CONTINUOUS
  2
*U128
 10
0.0
 20
0.0
 30
0.0
  0
INSERT
  5
13F
  8
0
  6
CONTINUOUS
  2
*U129
 10
0.0
 20
0.0
 30
0.0
  0
INSERT
  5
140
  8
0
  6
CONTINUOUS
  2
*U130
 10
0.0
 20
0.0
 30
0.0
  0
INSERT
  5
141
  8
0
  6
CONTINUOUS
  2
*U131
 10
0.0
 20
0.0
 30
0.0
  0
INSERT
  5
142
  8
0
  6
CONTINUOUS
  2
*U132
 10
0.0
 20
0.0
 30
0.0
  0
INSERT
  5
144
  8
0
  6
CONTINUOUS
  2
*U133
 10
0.0
 20
0.0
 30
0.0
  0
INSERT
  5
145
  8
0
  6
CONTINUOUS
  2
*U134
 10
0.0
 20
0.0
 30
0.0
  0
INSERT
  5
146
  8
0
  6
CONTINUOUS
  2
*U135
 10
0.0
 20
0.0
 30
0.0
  0
INSERT
  5
147
  8
0
  6
CONTINUOUS
  2
*U136
 10
0.0
 20
0.0
 30
0.0
  0
INSERT
  5
148
  8
0
  6
CONTINUOUS
  2
*U137
 10
0.0
 20
0.0
 30
0.0
  0
DIMENSION
  5
157
  8
寸法線
  2
*D8
 10
1144.9028483073
 20
109.58545927989999
 30
0.0
 11
954.90284830730002
 21
109.58545927989999
 31
0.0
 70
   128
  1
<>
 13
1144.9028483073
 23
74.033856445799998
 33
0.0
 14
764.90284830729979
 24
74.033856445799998
 34
0.0
  0
DIMENSION
  5
166
  8
寸法線
  2
*D9
 10
1178.0527525584
 20
74.033856445799998
 30
0.0
 11
1178.0527525584
 21
78.533856445799998
 31
0.0
 70
   128
  1
<>
 13
1144.9028483073
 23
74.033856445799998
 33
0.0
 14
1153.9028483073
 24
83.033856445799998
 34
0.0
 50
90.0
  0
DIMENSION
  5
175
  8
寸法線
  2
*D10
 10
1178.052750651
 20
-5.9661435541999994
 30
0.0
 11
1178.052750651
 21
34.033856445799998
 31
0.0
 70
   128
  1
<>
 13
1144.9028483073
 23
-5.9661435541999994
 33
0.0
 14
1144.9028483073
 24
74.033856445799998
 34
0.0
 50
90.0
  0
DIMENSION
  5
184
  8
寸法線
  2
*D11
 10
1178.0527525584
 20
-14.9661435542
 30
0.0
 11
1178.0527525584
 21
-10.4661435542
 31
0.0
 70
   128
  1
<>
 13
1153.9028483073
 23
-14.9661435542
 33
0.0
 14
1144.9028483073
 24
-5.9661435541999994
 34
0.0
 50
90.0
  0
DIMENSION
  5
193
  8
寸法線
  2
*D12
 10
1191.6705256144
 20
-14.9661435542
 30
0.0
 11
1191.6705256144
 21
34.033856445799998
 31
0.0
 70
   128
  1
<>
 13
1153.9028483073
 23
-14.9661435542
 33
0.0
 14
1153.9028483073
 24
83.033856445799998
 34
0.0
 50
90.0
  0
DIMENSION
  5
1A2
  8
寸法線
  2
*D13
 10
1282.0963378905999
 20
-14.965883137500001
 30
0.0
 11
1282.0963378905999
 21
-27.345453450000001
 31
0.0
 70
   128
  1
15.5
 13
1262.6448567708001
 23
-14.965883137500001
 33
0.0
 14
1262.6448567708001
 24
0.5341168625
 34
0.0
 50
90.0
  0
DIMENSION
  5
1B1
  8
寸法線
  2
*D14
 10
1282.0856445313
 20
0.5341168625
 30
0.0
 11
1282.0856445313
 21
34.034116862499999
 31
0.0
 70
   128
  1
<>
 13
1262.6448567708001
 23
0.5341168625
 33
0.0
 14
1262.6448567708001
 24
67.534116862499999
 34
0.0
 50
90.0
  0
DIMENSION
  5
1C0
  8
寸法線
  2
*D15
 10
1263.4448567708
 20
123.499492483
 30
0.0
 11
1248.4448567708
 21
123.499492483
 31
0.0
 70
   128
  1
<>
 13
1263.4448567708
 23
82.234116862500017
 33
0.0
 14
1233.4448567708
 24
82.234116862500017
 34
0.0
  0
DIMENSION
  5
1CF
  8
寸法線
  2
*D16
 10
1263.4448567708
 20
109.0810929774
 30
0.0
 11
1255.9448567708
 21
109.0810929774
 31
0.0
 70
   128
  1
<>
 13
1263.4448567708
 23
83.034116862499985
 33
0.0
 14
1248.4448567708
 24
74.034116862499999
 34
0.0
  0
DIMENSION
  5
1DE
  8
寸法線
  2
*D17
 10
1153.9028483073
 20
109.5854573726
 30
0.0
 11
1149.4028483073
 21
109.5854573726
 31
0.0
 70
   128
  1
<>
 13
1153.9028483073
 23
83.033856445799998
 33
0.0
 14
1144.9028483073
 24
74.033856445799998
 34
0.0
  0
DIMENSION
  5
1ED
  8
寸法線
  2
*D18
 10
1345.1041666666999
 20
111.6084519608
 30
0.0
 11
1332.6041666666999
 21
111.6084519608
 31
0.0
 70
   128
  1
<>
 13
1345.1041666666999
 23
74.034116862499999
 33
0.0
 14
1320.1041666666999
 24
83.034116862499985
 34
0.0
  0
DIMENSION
  5
1FC
  8
寸法線
  2
*D19
 10
1391.1041666666999
 20
-14.965883137500001
 30
0.0
 11
1391.1041666666999
 21
-7.9658831374999988
 31
0.0
 70
   128
  1
14
 13
1375.1041666666999
 23
-14.965883137500001
 33
0.0
 14
1375.1041666666999
 24
-0.9658831375
 34
0.0
 50
90.0
  0
DIMENSION
  5
20B
  8
寸法線
  2
*D20
 10
1391.1041666666999
 20
-0.9658831375
 30
0.0
 11
1391.1041666666999
 21
34.034116862499999
 31
0.0
 70
   128
  1
<>
 13
1375.1041666666999
 23
-0.9658831375
 33
0.0
 14
1375.1041666666999
 24
69.034116862499999
 34
0.0
 50
90.0
  0
DIMENSION
  5
21A
  8
寸法線
  2
*D21
 10
1153.9028483073
 20
124.77029000909999
 30
0.0
 11
954.90284830730002
 21
124.77029000909999
 31
0.0
 70
   128
  1
<>
 13
1153.9028483073
 23
83.033856445799998
 33
0.0
 14
755.90284830729991
 24
83.033856445799998
 34
0.0
  0
DIMENSION
  5
229
  8
寸法線
  2
*D22
 10
764.90284830729979
 20
109.5854573726
 30
0.0
 11
760.40284830729979
 21
109.5854573726
 31
0.0
 70
   128
  1
<>
 13
764.90284830729979
 23
74.033856445799998
 33
0.0
 14
755.90284830729991
 24
83.033856445799998
 34
0.0
  0
DIMENSION
  5
238
  8
寸法線
  2
*D23
 10
1248.4448567708
 20
109.0810960292
 30
0.0
 11
1240.7026162012
 21
109.0810960292
 31
0.0
 70
   128
  1
<>
 13
1248.4448567708
 23
74.034116862499999
 33
0.0
 14
1233.4448567708
 24
82.234116862500017
 34
0.0
  0
DIMENSION
  5
247
  8
寸法線
  2
*D24
 10
772.51588079809994
 20
-260.73674396950003
 30
0.0
 11
805.01588079809994
 21
-260.73674396950003
 31
0.0
 70
   128
  1
<>
 13
772.51588079809994
 23
-229.7367439695
 33
0.0
 14
837.51588079810006
 24
-229.7367439695
 34
0.0
 50
180.0
  0
DIMENSION
  5
256
  8
寸法線
  2
*D25
 10
707.51588079809994
 20
-260.73674396950003
 30
0.0
 11
740.01588079809994
 21
-260.73674396950003
 31
0.0
 70
   128
  1
<>
 13
707.51588079809994
 23
-229.7367439695
 33
0.0
 14
772.51588079809994
 24
-229.7367439695
 34
0.0
 50
180.0
  0
DIMENSION
  5
265
  8
寸法線
  2
*D26
 10
680.76588079809994
 20
-260.73674396950003
 30
0.0
 11
694.14088079809994
 21
-260.73674396950003
 31
0.0
 70
   128
  1
<>
 13
680.76588079809994
 23
-240.7367439695
 33
0.0
 14
707.51588079809994
 24
-229.7367439695
 34
0.0
 50
180.0
  0
DIMENSION
  5
274
  8
寸法線
  2
*D27
 10
1032.5158807980999
 20
-260.73674396950003
 30
0.0
 11
1045.8908807980999
 21
-260.73674396950003
 31
0.0
 70
   128
  1
<>
 13
1032.5158807980999
 23
-229.7367439695
 33
0.0
 14
1059.2658807980999
 24
-240.7367439695
 34
0.0
 50
180.0
  0
DIMENSION
  5
283
  8
寸法線
  2
*D28
 10
967.51588079809994
 20
-260.73674396950003
 30
0.0
 11
1000.0158807981001
 21
-260.73674396950003
 31
0.0
 70
   128
  1
<>
 13
967.51588079809994
 23
-229.7367439695
 33
0.0
 14
1032.5158807980999
 24
-229.7367439695
 34
0.0
 50
180.0
  0
DIMENSION
  5
292
  8
寸法線
  2
*D29
 10
902.51588079809983
 20
-260.73674396950003
 30
0.0
 11
935.01588079809994
 21
-260.73674396950003
 31
0.0
 70
   128
  1
<>
 13
902.51588079809983
 23
-229.7367439695
 33
0.0
 14
967.51588079809994
 24
-229.7367439695
 34
0.0
 50
180.0
  0
DIMENSION
  5
2A1
  8
寸法線
  2
*D30
 10
837.51588079810006
 20
-260.73674396950003
 30
0.0
 11
870.01588079809994
 21
-260.73674396950003
 31
0.0
 70
   128
  1
<>
 13
837.51588079810006
 23
-229.7367439695
 33
0.0
 14
902.51588079809983
 24
-229.7367439695
 34
0.0
 50
180.0
  0
DIMENSION
  5
2A9
  8
寸法線
  2
*D31
 10
1054.2658807980999
 20
-294.40385962470009
 30
0.0
 11
1050.6449324842999
 21
-310.10408927039998
 31
0.0
 70
   132
  1
<>
 15
1057.8014147040001
 25
-297.9393935306
 35
0.0
 40
0.0
  0
DIMENSION
  5
2B8
  8
寸法線
  2
*D32
 10
1092.0985446934999
 20
-240.7367439695
 30
0.0
 11
1092.0985446934999
 21
-201.2367439695
 31
0.0
 70
   128
  1
<>
 13
1059.2658807980999
 23
-240.7367439695
 33
0.0
 14
1059.2658807980999
 24
-161.7367439695
 34
0.0
 50
90.0
  0
LINE
  5
2B9
  8
ﾚｲﾔ_1
  6
BORDER
 62
     3
 10
750.90284830729991
 20
34.033856445799998
 30
0.0
 11
1158.9028483073
 21
34.033856445799998
 31
0.0
  0
LINE
  5
2BA
  8
ﾚｲﾔ_1
  6
BORDER
 62
     3
 10
870.01588079809994
 20
-280.40385962469998
 30
0.0
 11
870.01588065570002
 21
-304.40385962469998
 31
0.0
  0
CIRCLE
  5
2BB
  8
ﾚｲﾔ_1
 62
     5
 10
792.40284830729991
 20
34.033856445799998
 30
0.0
 40
7.5
  0
CIRCLE
  5
2BC
  8
ﾚｲﾔ_1
 62
     5
 10
1117.4028483073
 20
34.033856445799998
 30
0.0
 40
7.5
  0
INSERT
  5
2BE
  8
ﾚｲﾔ_1
  2
CLUMP4
 10
0.0
 20
0.0
 30
0.0
  0
LINE
  5
2C5
  8
ﾚｲﾔ_1
 62
     5
 10
765.65284830729991
 20
-5.4661435541999994
 30
0.0
 11
765.65284830729991
 21
73.533856445799998
 31
0.0
  0
LINE
  5
2C6
  8
ﾚｲﾔ_1
 62
     5
 10
1144.1528483073
 20
73.533856445799998
 30
0.0
 11
1144.1528483073
 21
-5.4661435541999994
 31
0.0
  0
LINE
  5
2C7
  8
ﾚｲﾔ_1
 62
     5
 10
765.65284830729991
 20
73.533856445799998
 30
0.0
 11
1144.1528483073
 21
73.533856445799998
 31
0.0
  0
LINE
  5
2C8
  8
ﾚｲﾔ_1
 62
     5
 10
765.65284830729991
 20
-5.4661435541999994
 30
0.0
 11
1144.1528483073
 21
-5.4661435541999994
 31
0.0
  0
LINE
  5
2C9
  8
ﾚｲﾔ_1
 62
     5
 10
764.90284830729979
 20
-5.9661435541999994
 30
0.0
 11
764.90284830729979
 21
74.033856445799998
 31
0.0
  0
INSERT
  5
2CB
  8
ﾚｲﾔ_1
  2
CLUMP5
 10
0.0
 20
0.0
 30
0.0
  0
INSERT
  5
2D3
  8
ﾚｲﾔ_1
  2
CLUMP6
 10
0.0
 20
0.0
 30
0.0
  0
INSERT
  5
2DB
  8
ﾚｲﾔ_1
  2
CLUMP7
 10
0.0
 20
0.0
 30
0.0
  0
DIMENSION
  5
2F0
  8
寸法線
  2
*D37
 10
1131.3880269013
 20
-141.7367439695
 30
0.0
 11
1124.3880269013
 21
-141.7367439695
 31
0.0
 70
   128
  1
<>
 13
1131.3880269013
 23
-161.7367439695
 33
0.0
 14
1117.3880269013
 24
-163.23674341879999
 34
0.0
  0
DIMENSION
  5
2FF
  8
寸法線
  2
*D38
 10
1079.2658807980999
 20
-226.2367439695
 30
0.0
 11
1079.2658807980999
 21
-213.7367439695
 31
0.0
 70
   128
  1
<>
 13
1043.5158807980999
 23
-226.2367439695
 33
0.0
 14
1064.2658807980999
 24
-201.2367439695
 34
0.0
 50
90.0
  0
DIMENSION
  5
30E
  8
寸法線
  2
*D39
 10
796.01588079809994
 20
-229.7367439695
 30
0.0
 11
796.01588079809994
 21
-226.2367439695
 31
0.0
 70
   128
  1
<>
 13
780.01588079810006
 23
-229.7367439695
 33
0.0
 14
780.01588079810006
 24
-222.7367439695
 34
0.0
 50
90.0
  0
DIMENSION
  5
31D
  8
寸法線
  2
*D40
 10
783.51588079809994
 20
-213.49683479749999
 30
0.0
 11
772.51588079809994
 21
-213.49683479749999
 31
0.0
 70
   128
  1
<>
 13
783.51588079809994
 23
-226.2367439695
 33
0.0
 14
761.51588079809994
 24
-226.2367439695
 34
0.0
  0
DIMENSION
  5
32C
  8
寸法線
  2
*D41
 10
1079.2658807980999
 20
-201.2367439695
 30
0.0
 11
1079.2658807980999
 21
-188.7367439695
 31
0.0
 70
   128
  1
<>
 13
1064.2658807980999
 23
-201.2367439695
 33
0.0
 14
1043.5158807980999
 24
-176.2367439695
 34
0.0
 50
90.0
  0
DIMENSION
  5
33B
  8
寸法線
  2
*D42
 10
1079.2658807980999
 20
-176.2367439695
 30
0.0
 11
1079.2658807980999
 21
-168.9867439695
 31
0.0
 70
   128
  1
<>
 13
1043.5158807980999
 23
-176.2367439695
 33
0.0
 14
1059.2658807980999
 24
-161.7367439695
 34
0.0
 50
90.0
  0
DIMENSION
  5
34A
  8
寸法線
  2
*D43
 10
1375.1041666666999
 20
111.6084519608
 30
0.0
 11
1360.1041666666999
 21
111.6084519608
 31
0.0
 70
   128
  1
<>
 13
1375.1041666666999
 23
83.034116862499985
 33
0.0
 14
1345.1041666666999
 24
74.034116862499999
 34
0.0
  0
DIMENSION
  5
359
  8
寸法線
  2
*D44
 10
1391.1041666666999
 20
69.034116862499999
 30
0.0
 11
1391.1041666666999
 21
76.034116862499999
 31
0.0
 70
   128
  1
14
 13
1375.1041666666999
 23
69.034116862499999
 33
0.0
 14
1375.1041666666999
 24
83.034116862499985
 34
0.0
 50
90.0
  0
DIMENSION
  5
368
  8
寸法線
  2
*D45
 10
1375.1041666666999
 20
123.46225718389999
 30
0.0
 11
1347.6041666666999
 21
123.46225718389999
 31
0.0
 70
   128
  1
<>
 13
1375.1041666666999
 23
82.234116862500017
 33
0.0
 14
1320.1041666666999
 24
82.234116862500017
 34
0.0
  0
DIMENSION
  5
377
  8
寸法線
  2
*D46
 10
1282.1280273438001
 20
67.534116862499999
 30
0.0
 11
1282.1280273438001
 21
95.710145508300002
 31
0.0
 70
   128
  1
15.5
 13
1262.6448567708001
 23
67.534116862499999
 33
0.0
 14
1260.0448567707999
 24
83.034116862499985
 34
0.0
 50
90.0
  0
DIMENSION
  5
386
  8
寸法線
  2
*D47
 10
1175.0831614176
 20
-91.586653645799998
 30
0.0
 11
1175.0831614176
 21
-88.586653645799998
 31
0.0
 70
   128
  1
<>
 13
1153.1028483073001
 23
-91.586653645799998
 33
0.0
 14
1153.9028483073
 24
-85.586653645799984
 34
0.0
 50
90.0
  0
DIMENSION
  5
395
  8
寸法線
  2
*D48
 10
1175.0831614176
 20
-67.586653645799998
 30
0.0
 11
1175.0831614176
 21
-64.586653645799984
 31
0.0
 70
   128
  1
<>
 13
1153.9028483073
 23
-67.586653645799998
 33
0.0
 14
1153.1028483073001
 24
-61.586653645799998
 34
0.0
 50
90.0
  0
LINE
  5
396
  8
ﾚｲﾔ_1
  6
BORDER
 62
     3
 10
954.90284830730002
 20
-19.966143554199999
 30
0.0
 11
954.90284830730002
 21
88.033856445799998
 31
0.0
  0
INSERT
  5
398
  8
ﾚｲﾔ_1
  2
CLUMP8
 10
0.0
 20
0.0
 30
0.0
  0
INSERT
  5
3A0
  8
ﾚｲﾔ_1
  2
CLUMP9
 10
0.0
 20
0.0
 30
0.0
  0
INSERT
  5
3A8
  8
ﾚｲﾔ_1
  2
CLUMP10
 10
0.0
 20
0.0
 30
0.0
  0
INSERT
  5
3B0
  8
ﾚｲﾔ_1
  2
CLUMP11
 10
0.0
 20
0.0
 30
0.0
  0
INSERT
  5
3B8
  8
ﾚｲﾔ_1
  2
CLUMP12
 10
0.0
 20
0.0
 30
0.0
  0
INSERT
  5
3C0
  8
ﾚｲﾔ_1
  2
CLUMP13
 10
0.0
 20
0.0
 30
0.0
  0
INSERT
  5
3C8
  8
ﾚｲﾔ_1
  2
CLUMP14
 10
0.0
 20
0.0
 30
0.0
  0
INSERT
  5
3D0
  8
ﾚｲﾔ_1
  2
CLUMP15
 10
0.0
 20
0.0
 30
0.0
  0
INSERT
  5
3D8
  8
ﾚｲﾔ_1
  2
CLUMP16
 10
0.0
 20
0.0
 30
0.0
  0
INSERT
  5
3E0
  8
ﾚｲﾔ_1
  2
CLUMP17
 10
0.0
 20
0.0
 30
0.0
  0
LINE
  5
3E7
  8
ﾚｲﾔ_1
  6
STITCH
 10
765.65284830729991
 20
-3.9661435541999999
 30
0.0
 11
1144.1528483073
 21
-3.9661435541999999
 31
0.0
  0
LINE
  5
3E8
  8
ﾚｲﾔ_1
  6
STITCH
 10
765.65284830729991
 20
72.033856445799984
 30
0.0
 11
1144.1528483073
 21
72.033856445799984
 31
0.0
  0
LINE
  5
3E9
  8
ﾚｲﾔ_1
 62
     5
 10
755.90284830729991
 20
-14.9661435542
 30
0.0
 11
1153.9028483073
 21
-14.9661435542
 31
0.0
  0
LINE
  5
3EA
  8
ﾚｲﾔ_1
 62
     5
 10
1153.9028483073
 20
-14.9661435542
 30
0.0
 11
1153.9028483073
 21
83.033856445799998
 31
0.0
  0
LINE
  5
3EB
  8
ﾚｲﾔ_1
 62
     5
 10
1153.9028483073
 20
83.033856445799998
 30
0.0
 11
755.90284830729991
 21
83.033856445799998
 31
0.0
  0
LINE
  5
3EC
  8
ﾚｲﾔ_1
 62
     5
 10
755.90284830729991
 20
83.033856445799998
 30
0.0
 11
755.90284830729991
 21
-14.9661435542
 31
0.0
  0
LINE
  5
3ED
  8
ﾚｲﾔ_1
 62
     5
 10
764.90284830729979
 20
74.033856445799998
 30
0.0
 11
1144.9028483073
 21
74.033856445799998
 31
0.0
  0
INSERT
  5
3EF
  8
ﾚｲﾔ_1
  2
CLUMP18
 10
0.0
 20
0.0
 30
0.0
  0
INSERT
  5
3F7
  8
ﾚｲﾔ_1
  2
CLUMP19
 10
0.0
 20
0.0
 30
0.0
  0
INSERT
  5
3FF
  8
ﾚｲﾔ_1
  2
CLUMP20
 10
0.0
 20
0.0
 30
0.0
  0
LINE
  5
406
  8
ﾚｲﾔ_1
 62
     5
 10
1144.9028483073
 20
74.033856445799998
 30
0.0
 11
1144.9028483073
 21
-5.9661435541999994
 31
0.0
  0
LINE
  5
407
  8
ﾚｲﾔ_1
 62
     5
 10
1144.9028483073
 20
-5.9661435541999994
 30
0.0
 11
764.90284830729979
 21
-5.9661435541999994
 31
0.0
  0
LINE
  5
408
  8
ﾚｲﾔ_1
  6
BORDER
 62
     3
 10
792.40284830729991
 20
46.533856445799998
 30
0.0
 11
792.40284830729991
 21
21.533856445800001
 31
0.0
  0
LINE
  5
409
  8
ﾚｲﾔ_1
  6
BORDER
 62
     3
 10
1117.4028483073
 20
46.533856445799998
 30
0.0
 11
1117.4028483073
 21
21.533856445800001
 31
0.0
  0
LINE
  5
40A
  8
ﾚｲﾔ_1
 62
     5
 10
1153.1028483073001
 20
-62.386653645800003
 30
0.0
 11
1153.1028483073001
 21
-67.586653645799998
 31
0.0
  0
LINE
  5
40B
  8
ﾚｲﾔ_1
 62
     5
 10
1153.1028483073001
 20
-67.586653645799998
 30
0.0
 11
1153.9028483073
 21
-67.586653645799998
 31
0.0
  0
LINE
  5
40C
  8
ﾚｲﾔ_1
 62
     5
 10
1145.7028483073
 20
-76.586653645799998
 30
0.0
 11
1145.7028483073
 21
-62.386653645800003
 31
0.0
  0
LINE
  5
40D
  8
ﾚｲﾔ_1
 62
     5
 10
1153.1028483073001
 20
-67.586653645799998
 30
0.0
 11
1145.7028483073
 21
-67.586653645799998
 31
0.0
  0
LINE
  5
40E
  8
ﾚｲﾔ_1
 10
756.70284830729986
 20
-61.586653645799998
 30
0.0
 11
954.90284830730002
 21
-61.586653645799998
 31
0.0
  0
ARC
  5
40F
  8
ﾚｲﾔ_1
 10
764.10284830729995
 20
-90.786653645800001
 30
0.0
 40
0.8
 50
270.0
 51
0.0
  0
LINE
  5
410
  8
ﾚｲﾔ_1
 10
764.10284830729995
 20
-67.586653645799998
 30
0.0
 11
764.10284830729995
 21
-90.786653645800001
 31
0.0
  0
LINE
  5
411
  8
ﾚｲﾔ_1
  6
BORDER
 62
     3
 10
954.90284830730002
 20
-56.586653645799998
 30
0.0
 11
954.90284830730002
 21
-96.586653645799998
 31
0.0
  0
INSERT
  5
413
  8
ﾚｲﾔ_1
 62
     5
  2
CLUMP21
 10
0.0
 20
0.0
 30
0.0
  0
INSERT
  5
431
  8
ﾚｲﾔ_1
 62
     5
  2
CLUMP22
 10
0.0
 20
0.0
 30
0.0
  0
LINE
  5
44E
  8
ﾚｲﾔ_1
 62
     5
 10
1345.1041666666999
 20
74.034116862499999
 30
0.0
 11
1345.1041666666999
 21
73.534116862499999
 31
0.0
  0
LINE
  5
44F
  8
ﾚｲﾔ_1
 62
     5
 10
1345.1041666666999
 20
72.034116862499985
 30
0.0
 11
1345.1041666666999
 21
69.034116862499999
 31
0.0
  0
INSERT
  5
451
  8
ﾚｲﾔ_1
 62
     5
  2
CLUMP23
 10
0.0
 20
0.0
 30
0.0
  0
INSERT
  5
45E
  8
ﾚｲﾔ_1
 62
     5
  2
CLUMP24
 10
0.0
 20
0.0
 30
0.0
  0
INSERT
  5
47B
  8
ﾚｲﾔ_1
 62
     5
  2
CLUMP25
 10
0.0
 20
0.0
 30
0.0
  0
LINE
  5
497
  8
ﾚｲﾔ_1
  6
BORDER
 62
     3
 10
1315.1041666666999
 20
34.034116862499999
 30
0.0
 11
1380.1041666666999
 21
34.034116862499999
 31
0.0
  0
LINE
  5
498
  8
ﾚｲﾔ_1
 62
     5
 10
1375.1041666666999
 20
69.834116862499997
 30
0.0
 11
1375.1041666666999
 21
-1.765883137499999
 31
0.0
  0
LINE
  5
499
  8
ﾚｲﾔ_1
 62
     5
 10
1320.1041666666999
 20
-6.7658831375000004
 30
0.0
 11
1320.1041666666999
 21
74.834116862499997
 31
0.0
  0
LINE
  5
49A
  8
ﾚｲﾔ_1
 62
     5
 10
1345.1041666666999
 20
-3.9658831375000001
 30
0.0
 11
1345.1041666666999
 21
-0.9658831375
 31
0.0
  0
LINE
  5
49B
  8
ﾚｲﾔ_1
 62
     5
 10
1263.4448567708
 20
68.334116862499997
 30
0.0
 11
1263.4448567708
 21
34.034116862499999
 31
0.0
  0
LINE
  5
49C
  8
ﾚｲﾔ_1
 62
     5
 10
1233.4448567708
 20
74.834116862499997
 30
0.0
 11
1233.4448567708
 21
34.034116862499999
 31
0.0
  0
LINE
  5
49D
  8
ﾚｲﾔ_1
  6
BORDER
 62
     3
 10
1228.4448567708
 20
34.034116862499999
 30
0.0
 11
1268.4448567708
 21
34.034116862499999
 31
0.0
  0
LINE
  5
49E
  8
ﾚｲﾔ_1
 62
     5
 10
1233.4448567708
 20
-6.7658831375000004
 30
0.0
 11
1233.4448567708
 21
34.034116862499999
 31
0.0
  0
LINE
  5
49F
  8
ﾚｲﾔ_1
 62
     5
 10
1263.4448567708
 20
-0.2658831375
 30
0.0
 11
1263.4448567708
 21
34.034116862499999
 31
0.0
  0
INSERT
  5
4A1
  8
ﾚｲﾔ_1
 62
     5
  2
CLUMP26
 10
0.0
 20
0.0
 30
0.0
  0
LINE
  5
4AD
  8
ﾚｲﾔ_1
 62
     5
 10
1153.9028483073
 20
-90.786653645800001
 30
0.0
 11
1153.9028483073
 21
-85.586653645799984
 31
0.0
  0
ARC
  5
4AE
  8
ﾚｲﾔ_1
 62
     5
 10
1153.1028483073001
 20
-90.786653645800001
 30
0.0
 40
0.8
 50
270.0
 51
0.0
  0
ARC
  5
4AF
  8
ﾚｲﾔ_1
 62
     5
 10
1145.7028483073
 20
-90.786653645800001
 30
0.0
 40
0.8
 50
180.0
 51
270.0
  0
LINE
  5
4B0
  8
ﾚｲﾔ_1
 62
     5
 10
1144.9028483073
 20
-76.586653645799998
 30
0.0
 11
1144.9028483073
 21
-90.786653645800001
 31
0.0
  0
ARC
  5
4B1
  8
ﾚｲﾔ_1
 62
     5
 10
1145.7028483073
 20
-62.386653645800003
 30
0.0
 40
0.8
 50
90.0
 51
180.0
  0
LINE
  5
4B2
  8
ﾚｲﾔ_1
 62
     5
 10
1145.7028483073
 20
-76.586653645799998
 30
0.0
 11
1145.7028483073
 21
-90.786653645800001
 31
0.0
  0
LINE
  5
4B3
  8
ﾚｲﾔ_1
 62
     5
 10
1144.9028483073
 20
-62.386653645800003
 30
0.0
 11
1144.9028483073
 21
-76.586653645799998
 31
0.0
  0
LINE
  5
4B4
  8
ﾚｲﾔ_1
 62
     5
 10
954.90284830730002
 20
-62.586653645799998
 30
0.0
 11
1144.1528483073
 21
-62.586653645799998
 31
0.0
  0
LINE
  5
4B5
  8
ﾚｲﾔ_1
 62
     5
 10
1139.1528483073
 20
-76.586653645799998
 30
0.0
 11
1139.2028483073
 21
-76.586653645799998
 31
0.0
  0
ARC
  5
4B6
  8
ﾚｲﾔ_1
 62
     5
 10
1139.1528483073
 20
-71.586653645799998
 30
0.0
 40
5.0
 50
270.0
 51
0.0
  0
LINE
  5
4B7
  8
ﾚｲﾔ_1
 62
     5
 10
1144.9028483073
 20
-76.586653645799998
 30
0.0
 11
954.90284830730002
 21
-76.586653645799998
 31
0.0
  0
LINE
  5
4B8
  8
ﾚｲﾔ_1
 62
     5
 10
1145.7028483073
 20
-61.586653645799998
 30
0.0
 11
954.90284830730002
 21
-61.586653645799998
 31
0.0
  0
LINE
  5
4B9
  8
ﾚｲﾔ_1
 62
     5
 10
1139.2028483073
 20
-91.586653645799998
 30
0.0
 11
954.90284830730002
 21
-91.586653645799998
 31
0.0
  0
LINE
  5
4BA
  8
ﾚｲﾔ_1
 62
     5
 10
1146.5028483072999
 20
-91.586653645799998
 30
0.0
 11
1139.2028483073
 21
-91.586653645799998
 31
0.0
  0
LINE
  5
4BB
  8
ﾚｲﾔ_1
 62
     5
 10
1146.5028483072999
 20
-91.586653645799998
 30
0.0
 11
1153.1028483073001
 21
-91.586653645799998
 31
0.0
  0
LINE
  5
4BC
  8
ﾚｲﾔ_1
 62
     5
 10
1153.1028483073001
 20
-85.586653645799984
 30
0.0
 11
1153.1028483073001
 21
-90.786653645800001
 31
0.0
  0
LINE
  5
4BD
  8
ﾚｲﾔ_1
 62
     5
 10
1153.9028483073
 20
-85.586653645799984
 30
0.0
 11
1153.1028483073001
 21
-85.586653645799984
 31
0.0
  0
LINE
  5
4BE
  8
ﾚｲﾔ_1
 62
     5
 10
1145.7028483073
 20
-62.386653645800003
 30
0.0
 11
1153.1028483073001
 21
-62.386653645800003
 31
0.0
  0
LINE
  5
4BF
  8
ﾚｲﾔ_1
 10
755.90284830729991
 20
-67.586653645799998
 30
0.0
 11
954.90284830730002
 21
-67.586653645799998
 31
0.0
  0
LINE
  5
4C0
  8
ﾚｲﾔ_1
 10
954.90284830730002
 20
-77.386653645799996
 30
0.0
 11
772.10284830729995
 21
-77.386653645799996
 31
0.0
  0
LINE
  5
4C1
  8
ﾚｲﾔ_1
 10
772.90281522249995
 20
-85.586653645799984
 30
0.0
 11
954.90284830730002
 21
-85.586653645799984
 31
0.0
  0
LINE
  5
4C2
  8
ﾚｲﾔ_1
 62
     5
 10
1144.1528483073
 20
-62.586653645799998
 30
0.0
 11
1144.1528483073
 21
-71.586653645799998
 31
0.0
  0
LINE
  5
4C3
  8
ﾚｲﾔ_1
 62
     5
 10
1144.1528483073
 20
-64.586653645799984
 30
0.0
 11
954.90284830730002
 21
-64.586653645799984
 31
0.0
  0
LINE
  5
4C4
  8
ﾚｲﾔ_1
 62
     5
 10
1153.1028483073001
 20
-61.586653645799998
 30
0.0
 11
1145.7028483073
 21
-61.586653645799998
 31
0.0
  0
LINE
  5
4C5
  8
ﾚｲﾔ_1
 62
     5
 10
1145.7028483073
 20
-90.786653645800001
 30
0.0
 11
1153.1028483073001
 21
-90.786653645800001
 31
0.0
  0
INSERT
  5
4C7
  8
ﾚｲﾔ_1
  2
CLUMP27
 10
0.0
 20
0.0
 30
0.0
  0
INSERT
  5
4CF
  8
ﾚｲﾔ_1
  2
CLUMP28
 10
0.0
 20
0.0
 30
0.0
  0
LINE
  5
4D6
  8
ﾚｲﾔ_1
  6
BORDER
 62
     3
 10
707.51588079809994
 20
-188.7367439695
 30
0.0
 11
707.51588079809994
 21
-213.7367439695
 31
0.0
  0
LINE
  5
4D7
  8
ﾚｲﾔ_1
  6
BORDER
 62
     3
 10
1032.5158807980999
 20
-188.7367439695
 30
0.0
 11
1032.5158807980999
 21
-213.7367439695
 31
0.0
  0
CIRCLE
  5
4D8
  8
ﾚｲﾔ_1
 62
     5
 10
707.51588079809994
 20
-201.2367439695
 30
0.0
 40
7.5
  0
CIRCLE
  5
4D9
  8
ﾚｲﾔ_1
 62
     5
 10
1032.5158807980999
 20
-201.2367439695
 30
0.0
 40
7.5
  0
LINE
  5
4DA
  8
ﾚｲﾔ_1
 62
     5
 10
1169.5943659912
 20
-163.2367439695
 30
0.0
 11
1169.5943659912
 21
-239.2367439695
 31
0.0
  0
LINE
  5
4DB
  8
ﾚｲﾔ_1
 62
     5
 10
1168.0943659912
 20
-163.2367439695
 30
0.0
 11
1168.0943659912
 21
-239.2367439695
 31
0.0
  0
LINE
  5
4DC
  8
ﾚｲﾔ_1
 62
     5
 10
1169.5943659912
 20
-163.2367439695
 30
0.0
 11
1191.0943659912
 21
-163.2367439695
 31
0.0
  0
ARC
  5
4DD
  8
ﾚｲﾔ_1
 62
     5
 10
1169.5943659912
 20
-163.2367439695
 30
0.0
 40
1.5
 50
90.0
 51
180.0
  0
LINE
  5
4DE
  8
ﾚｲﾔ_1
  6
BORDER
 62
     3
 10
1161.0943659912
 20
-201.2367439695
 30
0.0
 11
1196.0943659912
 21
-201.2367439695
 31
0.0
  0
LINE
  5
4DF
  8
ﾚｲﾔ_1
 62
     5
 10
1191.0943659912
 20
-239.2367439695
 30
0.0
 11
1191.0943659912
 21
-240.7367439695
 31
0.0
  0
LINE
  5
4E0
  8
ﾚｲﾔ_1
 62
     5
 10
1191.0943659912
 20
-161.7367439695
 30
0.0
 11
1191.0943659912
 21
-163.2367439695
 31
0.0
  0
LINE
  5
4E1
  8
ﾚｲﾔ_1
 10
954.90284830730002
 20
-91.586653645799998
 30
0.0
 11
756.70284830729986
 21
-91.586653645799998
 31
0.0
  0
LINE
  5
4E2
  8
ﾚｲﾔ_1
 10
772.90281522249995
 20
-90.786653645800001
 30
0.0
 11
756.70284830729986
 21
-90.786653645800001
 31
0.0
  0
LINE
  5
4E3
  8
ﾚｲﾔ_1
 10
772.90281522249995
 20
-85.586653645799984
 30
0.0
 11
772.90281522249995
 21
-91.586653645799998
 31
0.0
  0
LINE
  5
4E4
  8
ﾚｲﾔ_1
 10
755.90284830729991
 20
-67.586653645799998
 30
0.0
 11
755.90284830729991
 21
-62.386653645800003
 31
0.0
  0
LINE
  5
4E5
  8
ﾚｲﾔ_1
 10
756.70284830729986
 20
-85.586653645799984
 30
0.0
 11
755.90284830729991
 21
-85.586653645799984
 31
0.0
  0
LINE
  5
4E6
  8
ﾚｲﾔ_1
 10
756.70284830729986
 20
-90.786653645800001
 30
0.0
 11
756.70284830729986
 21
-85.586653645799984
 31
0.0
  0
ARC
  5
4E7
  8
ﾚｲﾔ_1
 10
756.70284830729986
 20
-62.386653645800003
 30
0.0
 40
0.8
 50
90.0
 51
180.0
  0
LINE
  5
4E8
  8
ﾚｲﾔ_1
 10
755.90284830729991
 20
-90.786653645800001
 30
0.0
 11
755.90284830729991
 21
-85.586653645799984
 31
0.0
  0
ARC
  5
4E9
  8
ﾚｲﾔ_1
 10
756.70284830729986
 20
-90.786653645800001
 30
0.0
 40
0.8
 50
180.0
 51
270.0
  0
LINE
  5
4EA
  8
ﾚｲﾔ_1
 10
772.10284830729995
 20
-67.586653645799998
 30
0.0
 11
772.10284830729995
 21
-90.786653645800001
 31
0.0
  0
LINE
  5
4EB
  8
ﾚｲﾔ_1
 62
     5
 10
1153.9028483073
 20
-67.586653645799998
 30
0.0
 11
1153.9028483073
 21
-62.386653645800003
 31
0.0
  0
ARC
  5
4EC
  8
ﾚｲﾔ_1
 62
     5
 10
1153.1028483073001
 20
-62.386653645800003
 30
0.0
 40
0.8
 50
0.0
 51
90.0
  0
INSERT
  5
4EE
  8
ﾚｲﾔ_1
  2
CLUMP29
 10
0.0
 20
0.0
 30
0.0
  0
INSERT
  5
4F6
  8
ﾚｲﾔ_1
  2
CLUMP30
 10
0.0
 20
0.0
 30
0.0
  0
INSERT
  5
4FE
  8
ﾚｲﾔ_1
  2
CLUMP31
 10
0.0
 20
0.0
 30
0.0
  0
INSERT
  5
506
  8
ﾚｲﾔ_1
  2
CLUMP32
 10
0.0
 20
0.0
 30
0.0
  0
INSERT
  5
50E
  8
ﾚｲﾔ_1
  2
CLUMP33
 10
0.0
 20
0.0
 30
0.0
  0
INSERT
  5
516
  8
ﾚｲﾔ_1
  2
CLUMP34
 10
0.0
 20
0.0
 30
0.0
  0
INSERT
  5
51E
  8
ﾚｲﾔ_1
  2
CLUMP35
 10
0.0
 20
0.0
 30
0.0
  0
LINE
  5
525
  8
ﾚｲﾔ_1
 62
     5
 10
1117.3880269013
 20
-163.23674341879999
 30
0.0
 11
1117.3880269013
 21
-239.2367439695
 31
0.0
  0
ARC
  5
526
  8
ﾚｲﾔ_1
 62
     5
 10
1118.8880269013
 20
-163.2367439695
 30
0.0
 40
1.5
 50
90.0
 51
179.99997896209999
  0
LINE
  5
527
  8
ﾚｲﾔ_1
 62
     5
 10
1118.8880269013
 20
-163.2367439695
 30
0.0
 11
1118.8880269013
 21
-239.2367439695
 31
0.0
  0
LINE
  5
528
  8
ﾚｲﾔ_1
 62
     5
 10
1118.8880269013
 20
-163.2367439695
 30
0.0
 11
1131.3880269013
 21
-163.2367439695
 31
0.0
  0
LINE
  5
529
  8
ﾚｲﾔ_1
 62
     5
 10
1118.8880269013
 20
-240.7367439695
 30
0.0
 11
1131.3880269013
 21
-240.7367439695
 31
0.0
  0
LINE
  5
52A
  8
ﾚｲﾔ_1
 62
     5
 10
1118.8880269013
 20
-239.2367439695
 30
0.0
 11
1131.3880269013
 21
-239.2367439695
 31
0.0
  0
ARC
  5
52B
  8
ﾚｲﾔ_1
 62
     5
 10
1118.8880269013
 20
-239.2367439695
 30
0.0
 40
1.5
 50
180.0
 51
270.0
  0
LINE
  5
52C
  8
ﾚｲﾔ_1
 62
     5
 10
1118.8880269013
 20
-161.7367439695
 30
0.0
 11
1131.3880269013
 21
-161.7367439695
 31
0.0
  0
LINE
  5
52D
  8
ﾚｲﾔ_1
  6
BORDER
 62
     3
 10
1111.3880269013
 20
-201.2367439695
 30
0.0
 11
1136.3880269013
 21
-201.2367439695
 31
0.0
  0
LINE
  5
52E
  8
ﾚｲﾔ_1
 62
     5
 10
1131.3880269013
 20
-161.7367439695
 30
0.0
 11
1131.3880269013
 21
-163.2367439695
 31
0.0
  0
LINE
  5
52F
  8
ﾚｲﾔ_1
 62
     5
 10
1131.3880269013
 20
-239.2367439695
 30
0.0
 11
1131.3880269013
 21
-240.7367439695
 31
0.0
  0
LINE
  5
530
  8
ﾚｲﾔ_1
  6
BORDER
 62
     3
 10
870.01588079809994
 20
-245.7367439695
 30
0.0
 11
870.01588079809994
 21
-156.7367439695
 31
0.0
  0
LINE
  5
531
  8
ﾚｲﾔ_1
  6
BORDER
 62
     3
 10
675.76588079809994
 20
-201.2367439695
 30
0.0
 11
1064.2658807980999
 21
-201.2367439695
 31
0.0
  0
INSERT
  5
533
  8
ﾚｲﾔ_1
  2
CLUMP36
 10
0.0
 20
0.0
 30
0.0
  0
INSERT
  5
53B
  8
ﾚｲﾔ_1
  2
CLUMP37
 10
0.0
 20
0.0
 30
0.0
  0
LINE
  5
542
  8
ﾚｲﾔ_1
  6
STITCH
 10
680.76588079809994
 20
-239.2367439695
 30
0.0
 11
1059.2658807980999
 21
-239.2367439695
 31
0.0
  0
LINE
  5
543
  8
ﾚｲﾔ_1
  6
STITCH
 10
680.76588079809994
 20
-163.2367439695
 30
0.0
 11
1059.2658807980999
 21
-163.2367439695
 31
0.0
  0
INSERT
  5
545
  8
ﾚｲﾔ_1
  2
CLUMP38
 10
0.0
 20
0.0
 30
0.0
  0
INSERT
  5
54D
  8
寸法線
  2
BALLON0
 10
0.0
 20
0.0
 30
0.0
  0
INSERT
  5
557
  8
寸法線
  2
BALLON1
 10
0.0
 20
0.0
 30
0.0
  0
INSERT
  5
561
  8
寸法線
  2
BALLON2
 10
0.0
 20
0.0
 30
0.0
  0
INSERT
  5
56B
  8
ﾚｲﾔ_1
  2
CLUMP39
 10
0.0
 20
0.0
 30
0.0
  0
LINE
  5
572
  8
ﾚｲﾔ_1
 62
     5
 10
680.76588079809994
 20
-240.7367439695
 30
0.0
 11
680.76588079809994
 21
-161.7367439695
 31
0.0
  0
LINE
  5
573
  8
ﾚｲﾔ_1
 62
     5
 10
1059.2658807980999
 20
-161.7367439695
 30
0.0
 11
1059.2658807980999
 21
-240.7367439695
 31
0.0
  0
LINE
  5
574
  8
ﾚｲﾔ_1
 62
     5
 10
680.76588079809994
 20
-161.7367439695
 30
0.0
 11
1059.2658807980999
 21
-161.7367439695
 31
0.0
  0
LINE
  5
575
  8
ﾚｲﾔ_1
 62
     5
 10
680.76588079809994
 20
-240.7367439695
 30
0.0
 11
1059.2658807980999
 21
-240.7367439695
 31
0.0
  0
LINE
  5
576
  8
ﾚｲﾔ_1
 10
786.17897183240007
 20
-155.24884932270001
 30
0.0
 11
828.3178038527999
 21
-155.24884932270001
 31
0.0
  0
LINE
  5
577
  8
ﾚｲﾔ_1
 10
772.51588079809994
 20
-172.7367439695
 30
0.0
 11
786.17897183240007
 21
-155.24884932270001
 31
0.0
  0
SOLID
  5
578
  8
ﾚｲﾔ_1
 10
772.51588079809994
 20
-172.7367439695
 30
0.0
 11
774.53846246130001
 21
-167.97186383900001
 31
0.0
 12
774.76936335149992
 22
-169.85242845229999
 32
0.0
 13
774.76936335149992
 23
-169.85242845229999
 33
0.0
  0
SOLID
  5
579
  8
ﾚｲﾔ_1
 10
772.51588079809994
 20
-172.7367439695
 30
0.0
 11
776.64992796490003
 21
-169.6215275621
 31
0.0
 12
774.76936335149992
 22
-169.85242845229999
 32
0.0
 13
774.76936335149992
 23
-169.85242845229999
 33
0.0
  0
LINE
  5
57A
  8
ﾚｲﾔ_1
 62
     5
 10
1169.5943659912
 20
-240.7367439695
 30
0.0
 11
1191.0943659912
 21
-240.7367439695
 31
0.0
  0
LINE
  5
57B
  8
ﾚｲﾔ_1
 62
     5
 10
1169.5943659912
 20
-161.7367439695
 30
0.0
 11
1191.0943659912
 21
-161.7367439695
 31
0.0
  0
LINE
  5
57C
  8
ﾚｲﾔ_1
 62
     5
 10
1169.5943659912
 20
-239.2367439695
 30
0.0
 11
1191.0943659912
 21
-239.2367439695
 31
0.0
  0
ARC
  5
57D
  8
ﾚｲﾔ_1
 62
     5
 10
1169.5943659912
 20
-239.2367439695
 30
0.0
 40
1.5
 50
180.0
 51
270.0
  0
LINE
  5
57E
  8
ﾚｲﾔ_1
  6
STITCH
 10
680.76588079809994
 20
-286.90385962469998
 30
0.0
 11
1059.2658807980999
 21
-286.90385962469998
 31
0.0
  0
LINE
  5
57F
  8
ﾚｲﾔ_1
 62
     5
 10
1059.2658807980999
 20
-285.40385962469998
 30
0.0
 11
1059.2658807980999
 21
-294.40385962470009
 31
0.0
  0
ARC
  5
580
  8
ﾚｲﾔ_1
 62
     5
 10
1054.2658807980999
 20
-294.40385962470009
 30
0.0
 40
5.0
 50
269.99999715709998
 51
0.0
  0
LINE
  5
581
  8
ﾚｲﾔ_1
 62
     5
 10
680.76588079809994
 20
-285.40385962469998
 30
0.0
 11
1059.2658807980999
 21
-285.40385962469998
 31
0.0
  0
LINE
  5
582
  8
ﾚｲﾔ_1
 62
     5
 10
680.76588079809994
 20
-285.40385962469998
 30
0.0
 11
680.76588079809994
 21
-294.40385962470009
 31
0.0
  0
ARC
  5
583
  8
ﾚｲﾔ_1
 62
     5
 10
685.76588079809994
 20
-294.40385962470009
 30
0.0
 40
5.0
 50
180.0
 51
269.99999957839998
  0
LINE
  5
584
  8
ﾚｲﾔ_1
 62
     5
 10
1054.26588055
 20
-299.40385962469998
 30
0.0
 11
685.76588076129985
 21
-299.40385962469998
 31
0.0
  0
INSERT
  5
586
  8
ﾚｲﾔ_1
  2
CLUMP40
 10
0.0
 20
0.0
 30
0.0
  0
INSERT
  5
58E
  8
ﾚｲﾔ_1
  2
CLUMP41
 10
0.0
 20
0.0
 30
0.0
  0
INSERT
  5
596
  8
ﾚｲﾔ_1
  2
CLUMP42
 10
0.0
 20
0.0
 30
0.0
  0
INSERT
  5
59E
  8
ﾚｲﾔ_1
  2
CLUMP43
 10
0.0
 20
0.0
 30
0.0
  0
ENDSEC
  0
EOF
