  0
SECTION
  2
HEADER
  9
$ACADVER
  1
AC1009
  9
$INSBASE
 10
0.0
 20
0.0
 30
0.0
  9
$EXTMIN
 10
583.25475360580003
 20
-308.2073945866
 30
0.0
  9
$EXTMAX
 10
1403.1747536058001
 20
268.71260541340001
 30
0.0
  9
$LIMMIN
 10
0.0
 20
0.0
  9
$LIMMAX
 10
0.0
 20
0.0
  9
$ORTHOMODE
 70
     0
  9
$REGENMODE
 70
     1
  9
$FILLMODE
 70
     1
  9
$QTEXTMODE
 70
     0
  9
$MIRRTEXT
 70
     1
  9
$DRAGMODE
 70
     2
  9
$LTSCALE
 40
1.0
  9
$OSMODE
 70
    31
  9
$ATTMODE
 70
     1
  9
$TEXTSIZE
 40
0.0
  9
$TRACEWID
 40
0.05
  9
$TEXTSTYLE
  7
STANDARD
  9
$CLAYER
  8
0
  9
$CELTYPE
  6
CONTINUOUS
  9
$CECOLOR
 62
   256
  9
$DIMSCALE
 40
1.0
  9
$DIMASZ
 40
0.18
  9
$DIMEXO
 40
0.0625
  9
$DIMDLI
 40
0.38
  9
$DIMRND
 40
0.0
  9
$DIMDLE
 40
0.0
  9
$DIMEXE
 40
0.18
  9
$DIMTP
 40
0.0
  9
$DIMTM
 40
0.0
  9
$DIMTXT
 40
0.18
  9
$DIMCEN
 40
0.09
  9
$DIMTSZ
 40
0.0
  9
$DIMTOL
 70
     0
  9
$DIMLIM
 70
     0
  9
$DIMTIH
 70
     1
  9
$DIMTOH
 70
     1
  9
$DIMSE1
 70
     0
  9
$DIMSE2
 70
     0
  9
$DIMTAD
 70
     0
  9
$DIMZIN
 70
     0
  9
$DIMBLK
  1

  9
$DIMASO
 70
     1
  9
$DIMSHO
 70
     1
  9
$DIMPOST
  1

  9
$DIMAPOST
  1

  9
$DIMALT
 70
     0
  9
$DIMALTD
 70
     2
  9
$DIMALTF
 40
25.399999999999999
  9
$DIMLFAC
 40
1.0
  9
$DIMTOFL
 70
     0
  9
$DIMTVP
 40
0.0
  9
$DIMTIX
 70
     0
  9
$DIMSOXD
 70
     0
  9
$DIMSAH
 70
     0
  9
$DIMBLK1
  1

  9
$DIMBLK2
  1

  9
$DIMSTYLE
  2
STANDARD
  9
$DIMCLRD
 70
     0
  9
$DIMCLRE
 70
     0
  9
$DIMCLRT
 70
     0
  9
$DIMTFAC
 40
1.0
  9
$DIMGAP
 40
0.09
  9
$LUNITS
 70
     2
  9
$LUPREC
 70
     4
  9
$SKETCHINC
 40
0.1
  9
$FILLETRAD
 40
0.0
  9
$AUNITS
 70
     0
  9
$AUPREC
 70
     0
  9
$MENU
  1
acad
  9
$ELEVATION
 40
0.0
  9
$PELEVATION
 40
0.0
  9
$THICKNESS
 40
0.0
  9
$LIMCHECK
 70
     0
  9
$BLIPMODE
 70
     0
  9
$CHAMFERA
 40
0.0
  9
$CHAMFERB
 40
0.0
  9
$SKPOLY
 70
     0
  9
$TDCREATE
 40
2454860.6099546058
  9
$TDUPDATE
 40
2454860.610101806
  9
$TDINDWG
 40
0.0001692708
  9
$TDUSRTIMER
 40
0.000168912
  9
$USRTIMER
 70
     1
  9
$ANGBASE
 50
0.0
  9
$ANGDIR
 70
     0
  9
$PDMODE
 70
     3
  9
$PDSIZE
 40
-1.0
  9
$PLINEWID
 40
0.0
  9
$COORDS
 70
     2
  9
$SPLFRAME
 70
     0
  9
$SPLINETYPE
 70
     6
  9
$SPLINESEGS
 70
     8
  9
$ATTDIA
 70
     0
  9
$ATTREQ
 70
     1
  9
$HANDLING
 70
     1
  9
$HANDSEED
  5
77A
  9
$SURFTAB1
 70
     6
  9
$SURFTAB2
 70
     6
  9
$SURFTYPE
 70
     6
  9
$SURFU
 70
     6
  9
$SURFV
 70
     6
  9
$UCSNAME
  2

  9
$UCSORG
 10
0.0
 20
0.0
 30
0.0
  9
$UCSXDIR
 10
1.0
 20
0.0
 30
0.0
  9
$UCSYDIR
 10
0.0
 20
1.0
 30
0.0
  9
$PUCSNAME
  2

  9
$PUCSORG
 10
0.0
 20
0.0
 30
0.0
  9
$PUCSXDIR
 10
1.0
 20
0.0
 30
0.0
  9
$PUCSYDIR
 10
0.0
 20
1.0
 30
0.0
  9
$USERI1
 70
     0
  9
$USERI2
 70
     0
  9
$USERI3
 70
     0
  9
$USERI4
 70
     0
  9
$USERI5
 70
     0
  9
$USERR1
 40
0.0
  9
$USERR2
 40
0.0
  9
$USERR3
 40
0.0
  9
$USERR4
 40
0.0
  9
$USERR5
 40
0.0
  9
$WORLDVIEW
 70
     1
  9
$SHADEDGE
 70
     3
  9
$SHADEDIF
 70
    70
  9
$TILEMODE
 70
     1
  9
$MAXACTVP
 70
    16
  9
$PLIMCHECK
 70
     0
  9
$PEXTMIN
 10
1.0000000000000000E+020
 20
1.0000000000000000E+020
 30
1.0000000000000000E+020
  9
$PEXTMAX
 10
-1.0000000000000000E+020
 20
-1.0000000000000000E+020
 30
-1.0000000000000000E+020
  9
$PLIMMIN
 10
0.0
 20
0.0
  9
$PLIMMAX
 10
12.0
 20
9.0
  9
$UNITMODE
 70
     0
  9
$VISRETAIN
 70
     0
  9
$PLINEGEN
 70
     1
  9
$PSLTSCALE
 70
     0
  0
ENDSEC
  0
SECTION
  2
TABLES
  0
TABLE
  2
VPORT
 70
     2
  0
VPORT
  2
*ACTIVE
 70
     0
 10
0.0
 20
0.0
 11
1.0
 21
1.0
 12
993.21475360579984
 22
-19.74739458659996
 13
0.0
 23
0.0
 14
1.0
 24
1.0
 15
0.0
 25
0.0
 16
0.0
 26
0.0
 36
1.0
 17
0.0
 27
0.0
 37
0.0
 40
581.70771784232375
 41
1.6343490304709141
 42
50.0
 43
0.0
 44
0.0
 50
0.0
 51
0.0
 71
     0
 72
   100
 73
     1
 74
     1
 75
     0
 76
     0
 77
     0
 78
     0
  0
ENDTAB
  0
TABLE
  2
LTYPE
 70
    11
  0
LTYPE
  2
CONTINUOUS
 70
     0
  3
Solid line
 72
    65
 73
     0
 40
0.0
  0
LTYPE
  2
DOT
 70
     0
  3
. . . . . . . . 
 72
    65
 73
     2
 40
1.0
 49
0.0
 49
-1.0
  0
LTYPE
  2
DASHED
 70
     0
  3
___  ___  ___  ___  
 72
    65
 73
     2
 40
4.0
 49
3.0
 49
-1.0
  0
LTYPE
  2
HIDDEN
 70
     0
  3
__ __ __ __ 
 72
    65
 73
     2
 40
3.0
 49
2.0
 49
-1.0
  0
LTYPE
  2
STITCH
 70
     0
  3
_ _ _ _ 
 72
    65
 73
     2
 40
2.0
 49
1.0
 49
-1.0
  0
LTYPE
  2
CENTER
 70
     0
  3
______  __  ______  __  
 72
    65
 73
     4
 40
43.0
 49
40.0
 49
-1.0
 49
1.0
 49
-1.0
  0
LTYPE
  2
DASHDOT
 70
     0
  3
____ . ____ . 
 72
    65
 73
     4
 40
32.0
 49
30.0
 49
-1.0
 49
0.0
 49
-1.0
  0
LTYPE
  2
BORDER
 70
     0
  3
__ . __ . 
 72
    65
 73
     4
 40
22.0
 49
20.0
 49
-1.0
 49
0.0
 49
-1.0
  0
LTYPE
  2
CUTTING
 70
     0
  3
________   ___   ___   
 72
    65
 73
     6
 40
45.0
 49
40.0
 49
-1.0
 49
1.0
 49
-1.0
 49
1.0
 49
-1.0
  0
LTYPE
  2
PHANTOM
 70
     0
  3
______  __  __  
 72
    65
 73
     6
 40
35.0
 49
30.0
 49
-1.0
 49
1.0
 49
-1.0
 49
1.0
 49
-1.0
  0
LTYPE
  2
DIVIDE
 70
     0
  3
____ . . ____ . . 
 72
    65
 73
     6
 40
23.0
 49
20.0
 49
-1.0
 49
0.0
 49
-1.0
 49
0.0
 49
-1.0
  0
ENDTAB
  0
TABLE
  2
LAYER
 70
     6
  0
LAYER
  2
0
 70
     0
 62
     7
  6
CONTINUOUS
  0
LAYER
  2
寸法線
 70
     0
 62
     7
  6
CONTINUOUS
  0
LAYER
  2
ﾚｲﾔ_1
 70
     0
 62
     7
  6
CONTINUOUS
  0
LAYER
  2
図枠
 70
     0
 62
     7
  6
CONTINUOUS
  0
LAYER
  2
UNASSIGNED
 70
     0
 62
     7
  6
CONTINUOUS
  0
LAYER
  2
Defpoints
 70
     0
 62
     7
  6
CONTINUOUS
  0
ENDTAB
  0
TABLE
  2
STYLE
 70
     1
  0
STYLE
  2
STANDARD
 70
     0
 40
0.0
 41
1.0
 50
0.0
 71
     0
 42
0.0
  3
txt
  4
extfont
  0
ENDTAB
  0
TABLE
  2
VIEW
 70
     0
  0
ENDTAB
  0
TABLE
  2
UCS
 70
     0
  0
ENDTAB
  0
TABLE
  2
APPID
 70
     2
  0
APPID
  2
ACAD
 70
     0
  0
APPID
  2
DCO15
 70
     0
  0
ENDTAB
  0
TABLE
  2
DIMSTYLE
 70
     5
  0
DIMSTYLE
  2
STANDARD
 70
     0
  3

  4

  5

  6

  7

 40
1.0
 41
0.18
 42
0.0625
 43
0.38
 44
0.18
 45
0.0
 46
0.0
 47
0.0
 48
0.0
140
0.18
141
0.09
142
0.0
143
25.399999999999999
144
1.0
145
0.0
146
1.0
147
0.09
 71
     0
 72
     0
 73
     1
 74
     1
 75
     0
 76
     0
 77
     0
 78
     0
170
     0
171
     2
172
     0
173
     0
174
     0
175
     0
176
     0
177
     0
178
     0
  0
DIMSTYLE
  2
VELDIM0
 70
     0
  3

  4

  5

  6

  7

 40
1.0
 41
3.8637032508999991
 42
0.0625
 43
0.38
 44
2.0
 45
0.0
 46
10.0
 47
0.0
 48
0.0
140
5.9972220420999998
141
0.09
142
0.0
143
25.399999999999999
144
1.0
145
0.0
146
1.0
147
0.09
 71
     0
 72
     0
 73
     0
 74
     0
 75
     0
 76
     0
 77
     0
 78
     8
170
     0
171
     2
172
     0
173
     0
174
     0
175
     0
176
     0
177
     0
178
     0
  0
DIMSTYLE
  2
VELDIM1
 70
     0
  3

  4

  5

  6

  7

 40
1.0
 41
3.8637032508999991
 42
0.0625
 43
0.38
 44
1.0
 45
0.0
 46
10.0
 47
0.0
 48
0.0
140
5.9972220420999998
141
0.09
142
0.0
143
25.399999999999999
144
1.0
145
0.0
146
1.0
147
0.09
 71
     0
 72
     0
 73
     0
 74
     0
 75
     0
 76
     0
 77
     0
 78
     8
170
     0
171
     2
172
     0
173
     0
174
     0
175
     0
176
     0
177
     0
178
     0
  0
DIMSTYLE
  2
VELDIM2
 70
     0
  3

  4

  5

  6

  7

 40
1.0
 41
3.8637032508999991
 42
0.0625
 43
0.38
 44
1.0
 45
0.0
 46
5.0
 47
0.0
 48
0.0
140
5.9972220420999998
141
0.09
142
0.0
143
25.399999999999999
144
1.0
145
0.0
146
1.0
147
0.09
 71
     0
 72
     0
 73
     0
 74
     0
 75
     0
 76
     0
 77
     0
 78
     8
170
     0
171
     2
172
     0
173
     0
174
     0
175
     0
176
     0
177
     0
178
     0
  0
DIMSTYLE
  2
VELDIM3
 70
     0
  3

  4

  5

  6

  7

 40
1.0
 41
3.8637032508999991
 42
0.0625
 43
0.38
 44
1.25
 45
0.0
 46
5.0
 47
0.0
 48
0.0
140
5.9972220420999998
141
0.09
142
0.0
143
25.399999999999999
144
1.0
145
0.0
146
1.0
147
0.09
 71
     0
 72
     0
 73
     0
 74
     0
 75
     0
 76
     0
 77
     0
 78
     8
170
     0
171
     2
172
     0
173
     0
174
     0
175
     0
176
     0
177
     0
178
     0
  0
ENDTAB
  0
ENDSEC
  0
SECTION
  2
BLOCKS
  0
BLOCK
  8
0
  2
$MODEL_SPACE
 70
     0
 10
0.0
 20
0.0
 30
0.0
  3
$MODEL_SPACE
  1

  0
ENDBLK
  5
E
  8
0
  0
BLOCK
 67
     1
  8
0
  2
$PAPER_SPACE
 70
     0
 10
0.0
 20
0.0
 30
0.0
  3
$PAPER_SPACE
  1

  0
ENDBLK
  5
10
 67
     1
  8
0
  0
BLOCK
  8
0
  2
BALLON0
 70
     0
 10
0.0
 20
0.0
 30
0.0
  3
BALLON0
  1

  0
INSERT
  5
33
  8
0
  6
CONTINUOUS
  2
*U35
 10
0.0
 20
0.0
 30
0.0
  0
CIRCLE
  5
34
  8
ﾚｲﾔ_1
 10
974.38137925089995
 20
7.7503968989000001
 30
0.0
 40
8.0
  0
LINE
  5
35
  8
寸法線
 10
961.04804591749985
 20
7.7503968989000001
 30
0.0
 11
966.38137925089995
 21
7.7503968989000001
 31
0.0
  0
LINE
  5
36
  8
寸法線
 10
865.04444112679994
 20
-56.132761603399992
 30
0.0
 11
961.04804591749985
 21
7.7503968989000001
 31
0.0
  0
SOLID
  5
37
  8
寸法線
 10
865.04444112679994
 20
-56.132761603399992
 30
0.0
 11
870.81828456860001
 21
-50.368845234299997
 31
0.0
 12
870.37261552339987
 22
-52.5872633874
 32
0.0
 13
870.37261552339987
 23
-52.5872633874
 33
0.0
  0
SOLID
  5
38
  8
寸法線
 10
870.37261552339987
 20
-52.5872633874
 30
0.0
 11
872.59103367649982
 21
-53.032932432599999
 31
0.0
 12
865.04444112679994
 22
-56.132761603399992
 32
0.0
 13
865.04444112679994
 23
-56.132761603399992
 33
0.0
  0
ENDBLK
  5
39
  8
0
  0
BLOCK
  8
0
  2
BALLON1
 70
     0
 10
0.0
 20
0.0
 30
0.0
  3
BALLON1
  1

  0
INSERT
  5
3D
  8
0
  6
CONTINUOUS
  2
*U36
 10
0.0
 20
0.0
 30
0.0
  0
CIRCLE
  5
3E
  8
ﾚｲﾔ_1
 10
974.38137925089995
 20
27.310230379299998
 30
0.0
 40
8.0
  0
LINE
  5
3F
  8
寸法線
 10
961.04804591749985
 20
27.310230379299998
 30
0.0
 11
966.38137925089995
 21
27.310230379299998
 31
0.0
  0
LINE
  5
40
  8
寸法線
 10
838.94387487610004
 20
-56.132764460499999
 30
0.0
 11
961.04804591749985
 21
27.310230379299998
 31
0.0
  0
SOLID
  5
41
  8
寸法線
 10
838.94387487610004
 20
-56.132764460499999
 30
0.0
 11
844.64615962280016
 21
-50.298045215499997
 31
0.0
 12
844.22789687279999
 22
-52.521793463800002
 32
0.0
 13
844.22789687279999
 23
-52.521793463800002
 33
0.0
  0
SOLID
  5
42
  8
寸法線
 10
844.22789687279999
 20
-52.521793463800002
 30
0.0
 11
846.4516451211
 21
-52.940056213799998
 31
0.0
 12
838.94387487610004
 22
-56.132764460499999
 32
0.0
 13
838.94387487610004
 23
-56.132764460499999
 33
0.0
  0
ENDBLK
  5
43
  8
0
  0
BLOCK
  8
0
  2
BALLON2
 70
     0
 10
0.0
 20
0.0
 30
0.0
  3
BALLON2
  1

  0
INSERT
  5
47
  8
0
  6
CONTINUOUS
  2
*U37
 10
0.0
 20
0.0
 30
0.0
  0
CIRCLE
  5
48
  8
ﾚｲﾔ_1
 10
974.38137925089995
 20
-29.876904123599999
 30
0.0
 40
8.0
  0
LINE
  5
49
  8
寸法線
 10
961.04804591749985
 20
-29.876904123599999
 30
0.0
 11
966.38137925089995
 21
-29.876904123599999
 31
0.0
  0
LINE
  5
4A
  8
寸法線
 10
865.04444112679994
 20
-66.13276160640001
 30
0.0
 11
961.04804591749985
 21
-29.876904123599999
 31
0.0
  0
SOLID
  5
4B
  8
寸法線
 10
865.04444112679994
 20
-66.13276160640001
 30
0.0
 11
871.96325665710003
 21
-61.809569306899988
 31
0.0
 12
871.03171342690007
 22
-63.871662226800012
 32
0.0
 13
871.03171342690007
 23
-63.871662226800012
 33
0.0
  0
SOLID
  5
4C
  8
寸法線
 10
871.03171342690007
 20
-63.871662226800012
 30
0.0
 11
873.09380634679997
 21
-64.803205457000004
 31
0.0
 12
865.04444112679994
 22
-66.13276160640001
 32
0.0
 13
865.04444112679994
 23
-66.13276160640001
 33
0.0
  0
ENDBLK
  5
4D
  8
0
  0
BLOCK
  8
0
  2
*D3
 70
     1
 10
0.0
 20
0.0
 30
0.0
  3
*D3
  1

  0
TEXT
  5
52
  8
0
 62
     0
 10
815.47499692619988
 20
97.59457334790001
 30
0.0
 40
5.9972220420999998
  1
%%c140
  0
LINE
  5
53
  8
0
 62
     0
 10
894.29444110580005
 20
138.46005063760001
 30
0.0
 11
894.29444110580005
 21
92.536240046299994
 31
0.0
  0
LINE
  5
54
  8
0
 62
     0
 10
754.29444110580005
 20
138.46005063760001
 30
0.0
 11
754.29444110580005
 21
92.536240046299994
 31
0.0
  0
LINE
  5
55
  8
0
 62
     0
 10
894.29444110580005
 20
94.536240046299994
 30
0.0
 11
836.64166295710004
 21
94.536240046299994
 31
0.0
  0
LINE
  5
56
  8
0
 62
     0
 10
894.29444110580005
 20
94.536240046299994
 30
0.0
 11
811.94721925440001
 21
94.536240046299994
 31
0.0
  0
LINE
  5
57
  8
0
 62
     0
 10
754.29444110580005
 20
94.536240046299994
 30
0.0
 11
836.64166295710004
 21
94.536240046299994
 31
0.0
  0
LINE
  5
58
  8
0
 62
     0
 10
754.29444110580005
 20
94.536240046299994
 30
0.0
 11
811.94721925440001
 21
94.536240046299994
 31
0.0
  0
LINE
  5
59
  8
0
 62
     0
 10
754.29444110580005
 20
94.536240046299994
 30
0.0
 11
764.29444110580005
 21
94.536240046299994
 31
0.0
  0
LINE
  5
5A
  8
0
 62
     0
 10
758.15814435669995
 20
95.571516220900008
 30
0.0
 11
754.29444110580005
 21
94.536240046299994
 31
0.0
  0
LINE
  5
5B
  8
0
 62
     0
 10
754.29444110580005
 20
94.536240046299994
 30
0.0
 11
758.15814435669995
 21
93.500963871799996
 31
0.0
  0
LINE
  5
5C
  8
0
 62
     0
 10
894.29444110580005
 20
94.536240046299994
 30
0.0
 11
884.29444110580005
 21
94.536240046299994
 31
0.0
  0
LINE
  5
5D
  8
0
 62
     0
 10
890.43073785490014
 20
93.500963871799996
 30
0.0
 11
894.29444110580005
 21
94.536240046299994
 31
0.0
  0
LINE
  5
5E
  8
0
 62
     0
 10
894.29444110580005
 20
94.536240046299994
 30
0.0
 11
890.43073785490014
 21
95.571516220900008
 31
0.0
  0
ENDBLK
  5
5F
  8
0
  0
BLOCK
  8
0
  2
*D4
 70
     1
 10
0.0
 20
0.0
 30
0.0
  3
*D4
  1

  0
TEXT
  5
72
  8
0
 62
     0
 10
815.47499692619988
 20
122.3914483479
 30
0.0
 40
5.9972220420999998
  1
%%c103
  0
LINE
  5
73
  8
0
 62
     0
 10
875.79444110580005
 20
137.46005063760001
 30
0.0
 11
875.79444110580005
 21
119.33311504629999
 31
0.0
  0
LINE
  5
74
  8
0
 62
     0
 10
772.79444110580005
 20
137.46005063760001
 30
0.0
 11
772.79444110580005
 21
119.33311504629999
 31
0.0
  0
LINE
  5
75
  8
0
 62
     0
 10
875.79444110580005
 20
120.33311504629999
 30
0.0
 11
836.64166295710004
 21
120.33311504629999
 31
0.0
  0
LINE
  5
76
  8
0
 62
     0
 10
875.79444110580005
 20
120.33311504629999
 30
0.0
 11
811.94721925440001
 21
120.33311504629999
 31
0.0
  0
LINE
  5
77
  8
0
 62
     0
 10
772.79444110580005
 20
120.33311504629999
 30
0.0
 11
836.64166295710004
 21
120.33311504629999
 31
0.0
  0
LINE
  5
78
  8
0
 62
     0
 10
772.79444110580005
 20
120.33311504629999
 30
0.0
 11
811.94721925440001
 21
120.33311504629999
 31
0.0
  0
LINE
  5
79
  8
0
 62
     0
 10
772.79444110580005
 20
120.33311504629999
 30
0.0
 11
782.79444110580005
 21
120.33311504629999
 31
0.0
  0
LINE
  5
7A
  8
0
 62
     0
 10
776.65814435669995
 20
121.36839122089999
 30
0.0
 11
772.79444110580005
 21
120.33311504629999
 31
0.0
  0
LINE
  5
7B
  8
0
 62
     0
 10
772.79444110580005
 20
120.33311504629999
 30
0.0
 11
776.65814435669995
 21
119.2978388718
 31
0.0
  0
LINE
  5
7C
  8
0
 62
     0
 10
875.79444110580005
 20
120.33311504629999
 30
0.0
 11
865.79444110580005
 21
120.33311504629999
 31
0.0
  0
LINE
  5
7D
  8
0
 62
     0
 10
871.93073785490003
 20
119.2978388718
 30
0.0
 11
875.79444110580005
 21
120.33311504629999
 31
0.0
  0
LINE
  5
7E
  8
0
 62
     0
 10
875.79444110580005
 20
120.33311504629999
 30
0.0
 11
871.93073785490003
 21
121.36839122089999
 31
0.0
  0
ENDBLK
  5
7F
  8
0
  0
BLOCK
  8
0
  2
CLUMP0
 70
     0
 10
0.0
 20
0.0
 30
0.0
  3
CLUMP0
  1

  0
LINE
  5
85
  8
図枠
 10
1219.8572587036001
 20
-284.59404865279998
 30
0.0
 11
1221.8572587036001
 21
-281.59404865279998
 31
0.0
  0
LINE
  5
86
  8
図枠
 10
1190.5360465823001
 20
-281.59404865279998
 30
0.0
 11
1190.5360465823001
 21
-285.59404865279998
 31
0.0
  0
LINE
  5
87
  8
図枠
 10
1237.9901058705
 20
-288.59404865279998
 30
0.0
 11
1244.2922240001001
 21
-288.59404865279998
 31
0.0
  0
LINE
  5
88
  8
図枠
 10
1203.8572587036001
 20
-295.59404865279998
 30
0.0
 11
1208.8572587036001
 21
-295.59404865279998
 31
0.0
  0
LINE
  5
89
  8
図枠
 10
1203.8572587036001
 20
-286.23826918779997
 30
0.0
 11
1211.8572587036001
 21
-286.23826918779997
 31
0.0
  0
INSERT
  5
8A
  8
0
  6
CONTINUOUS
  2
*U38
 10
0.0
 20
0.0
 30
0.0
  0
LINE
  5
8B
  8
図枠
 62
     5
 10
1253.2147536058001
 20
230.2526054134
 30
0.0
 11
1253.2147536058001
 21
260.25260541339998
 31
0.0
  0
LINE
  5
8C
  8
図枠
 62
     5
 10
1353.2147536058001
 20
230.2526054134
 30
0.0
 11
1353.2147536058001
 21
260.25260541339998
 31
0.0
  0
LINE
  5
8D
  8
図枠
 62
     5
 10
1221.2147536058001
 20
230.2526054134
 30
0.0
 11
1221.2147536058001
 21
260.25260541339998
 31
0.0
  0
LINE
  5
8E
  8
図枠
 62
     5
 10
1207.6961828337
 20
241.11418891540001
 30
0.0
 11
1217.5961828336999
 21
241.11418891540001
 31
0.0
  0
LINE
  5
8F
  8
図枠
 62
     5
 10
1212.6461828337001
 20
239.78784041290001
 30
0.0
 11
1217.5961828336999
 21
231.2141889154
 31
0.0
  0
LINE
  5
90
  8
図枠
 62
     5
 10
1205.2147536058001
 20
230.2526054134
 30
0.0
 11
1205.2147536058001
 21
260.25260541339998
 31
0.0
  0
LINE
  5
91
  8
図枠
 62
     5
 10
1373.2147536058001
 20
230.2526054134
 30
0.0
 11
1373.2147536058001
 21
260.25260541339998
 31
0.0
  0
LINE
  5
92
  8
図枠
 62
     5
 10
1205.2147536058001
 20
250.2526054134
 30
0.0
 11
1393.2147536058001
 21
250.2526054134
 31
0.0
  0
LINE
  5
93
  8
図枠
 62
     5
 10
1205.2147536058001
 20
240.2526054134
 30
0.0
 11
1393.2147536058001
 21
240.2526054134
 31
0.0
  0
LINE
  5
94
  8
図枠
 62
     5
 10
1205.2147536058001
 20
230.2526054134
 30
0.0
 11
1393.2147536058001
 21
230.2526054134
 31
0.0
  0
INSERT
  5
95
  8
0
  6
CONTINUOUS
  2
*U39
 10
0.0
 20
0.0
 30
0.0
  0
LINE
  5
96
  8
図枠
 62
     5
 10
593.21475360580007
 20
-299.74739458660002
 30
0.0
 11
593.21475360580007
 21
260.25260541339998
 31
0.0
  0
LINE
  5
97
  8
図枠
 62
     5
 10
593.21475360580007
 20
-299.74739458660002
 30
0.0
 11
1393.2147536058001
 21
-299.74739458660002
 31
0.0
  0
LINE
  5
98
  8
図枠
 62
     5
 10
1393.2147536058001
 20
260.25260541339998
 30
0.0
 11
593.21475360580007
 21
260.25260541339998
 31
0.0
  0
LINE
  5
99
  8
図枠
 62
     5
 10
1393.2147536058001
 20
-299.74739458660002
 30
0.0
 11
1393.2147536058001
 21
260.25260541339998
 31
0.0
  0
LINE
  5
9A
  8
図枠
 10
1203.8572587036001
 20
-286.88248972280002
 30
0.0
 11
1203.8572587036001
 21
-286.23826918779997
 31
0.0
  0
LINE
  5
9B
  8
図枠
 10
1179.2338389592001
 20
-285.59404865279998
 30
0.0
 11
1179.2338389592001
 21
-288.59404865279998
 31
0.0
  0
LINE
  5
9C
  8
図枠
 62
     5
 10
1212.6461828337001
 20
249.68784041289999
 30
0.0
 11
1217.5961828336999
 21
241.11418891540001
 31
0.0
  0
LINE
  5
9D
  8
図枠
 62
     5
 10
1212.6461828337001
 20
239.78784041290001
 30
0.0
 11
1207.6961828337
 21
231.2141889154
 31
0.0
  0
INSERT
  5
9E
  8
0
  6
CONTINUOUS
  2
*U40
 10
0.0
 20
0.0
 30
0.0
  0
LINE
  5
9F
  8
図枠
  6
DOT
 10
583.25475360580003
 20
-308.2073945866
 30
0.0
 11
583.25475360580003
 21
268.71260541340001
 31
0.0
  0
LINE
  5
A0
  8
図枠
  6
DOT
 10
1403.1747536058001
 20
-308.2073945866
 30
0.0
 11
1403.1747536058001
 21
268.71260541340001
 31
0.0
  0
LINE
  5
A1
  8
図枠
  6
DOT
 10
583.25475360580003
 20
-308.2073945866
 30
0.0
 11
1403.1747536058001
 21
-308.2073945866
 31
0.0
  0
LINE
  5
A2
  8
図枠
 10
1186.5360465823001
 20
-291.59404865279998
 30
0.0
 11
1186.5360465823001
 21
-288.59404865279998
 31
0.0
  0
LINE
  5
A3
  8
図枠
  6
DOT
 10
1403.1747536058001
 20
268.71260541340001
 30
0.0
 11
583.25475360580003
 21
268.71260541340001
 31
0.0
  0
LINE
  5
A4
  8
図枠
 10
1181.5360465823001
 20
-288.59404865279998
 30
0.0
 11
1181.5360465823001
 21
-291.59404865279998
 31
0.0
  0
LINE
  5
A5
  8
図枠
 10
1195.5360465823001
 20
-284.59404865279998
 30
0.0
 11
1198.5360465823001
 21
-281.59404865279998
 31
0.0
  0
LINE
  5
A6
  8
図枠
 10
1232.8148906668
 20
-290.19404865280001
 30
0.0
 11
1232.3455573335
 21
-288.59404865279998
 31
0.0
  0
LINE
  5
A7
  8
図枠
 10
1186.5360465823001
 20
-285.59404865279998
 30
0.0
 11
1186.5360465823001
 21
-284.59404865279998
 31
0.0
  0
LINE
  5
A8
  8
図枠
 10
1217.5826974076999
 20
-291.2923110708
 30
0.0
 11
1217.2264932881001
 21
-291.64106735920001
 31
0.0
  0
LINE
  5
A9
  8
図枠
 10
1219.8572587036001
 20
-284.59404865279998
 30
0.0
 11
1221.8572587036001
 21
-281.59404865279998
 31
0.0
  0
LINE
  5
AA
  8
図枠
 10
1244.2922240001001
 20
-290.19404865280001
 30
0.0
 11
1244.2922240001001
 21
-293.79404865279997
 31
0.0
  0
LINE
  5
AB
  8
図枠
 10
1221.8572587036001
 20
-292.59404865279998
 30
0.0
 11
1221.8572587036001
 21
-295.59404865279998
 31
0.0
  0
LINE
  5
AC
  8
図枠
 10
1236.9541527122001
 20
-284.99404865280002
 30
0.0
 11
1244.2922240001001
 21
-284.99404865280002
 31
0.0
  0
LINE
  5
AD
  8
図枠
 10
1236.9541527122001
 20
-284.99404865280002
 30
0.0
 11
1236.6613642118
 21
-283.97659087189999
 31
0.0
  0
LINE
  5
AE
  8
図枠
 10
1221.8572587036001
 20
-281.59404865279998
 30
0.0
 11
1203.8572587036001
 21
-281.59404865279998
 31
0.0
  0
INSERT
  5
AF
  8
0
  6
CONTINUOUS
  2
*U41
 10
0.0
 20
0.0
 30
0.0
  0
LINE
  5
B0
  8
図枠
 10
1234.6922240000999
 20
-296.59404865279998
 30
0.0
 11
1233.8708906668001
 21
-293.79404865279997
 31
0.0
  0
LINE
  5
B1
  8
図枠
 10
1187.5360465823001
 20
-292.59404865279998
 30
0.0
 11
1181.5360465823001
 21
-292.59404865279998
 31
0.0
  0
LINE
  5
B2
  8
図枠
 10
1203.8572587036001
 20
-285.19404865280001
 30
0.0
 11
1213.8572587036001
 21
-285.19404865280001
 31
0.0
  0
LINE
  5
B3
  8
図枠
 10
1230.9865886291
 20
-242.34739458659999
 30
0.0
 11
1240.5865886291001
 21
-239.94739458660001
 31
0.0
  0
CIRCLE
  5
B4
  8
図枠
 10
1220.0147536058
 20
-244.7473945866
 30
0.0
 40
4.7999999999999989
  0
INSERT
  5
B5
  8
0
  6
CONTINUOUS
  2
*U42
 10
0.0
 20
0.0
 30
0.0
  0
LINE
  5
B6
  8
図枠
 10
1186.5360465823001
 20
-288.59404865279998
 30
0.0
 11
1190.5360465823001
 21
-288.59404865279998
 31
0.0
  0
LINE
  5
B7
  8
図枠
 10
1226.2922240001001
 20
-288.59404865279998
 30
0.0
 11
1232.3455573335
 21
-288.59404865279998
 31
0.0
  0
LINE
  5
B8
  8
図枠
 10
1198.5360465823001
 20
-285.59404865279998
 30
0.0
 11
1195.5360465823001
 21
-285.59404865279998
 31
0.0
  0
LINE
  5
B9
  8
図枠
 10
1195.5360465823001
 20
-285.59404865279998
 30
0.0
 11
1195.5360465823001
 21
-284.59404865279998
 31
0.0
  0
LINE
  5
BA
  8
図枠
 10
1226.2922240001001
 20
-284.99404865280002
 30
0.0
 11
1231.2895573334999
 21
-284.99404865280002
 31
0.0
  0
LINE
  5
BB
  8
図枠
 10
1236.6613642118
 20
-283.97659087189999
 30
0.0
 11
1238.2922240001001
 21
-281.59404865279998
 31
0.0
  0
LINE
  5
BC
  8
図枠
 10
1203.8572587036001
 20
-295.59404865279998
 30
0.0
 11
1203.8572587036001
 21
-292.59404865279998
 31
0.0
  0
LINE
  5
BD
  8
図枠
 10
1253.2147536058001
 20
-233.7473945866
 30
0.0
 11
1253.2147536058001
 21
-299.74739458660002
 31
0.0
  0
INSERT
  5
BE
  8
0
  6
CONTINUOUS
  2
*U43
 10
0.0
 20
0.0
 30
0.0
  0
INSERT
  5
BF
  8
0
  6
CONTINUOUS
  2
*U44
 10
0.0
 20
0.0
 30
0.0
  0
INSERT
  5
C0
  8
0
  6
CONTINUOUS
  2
*U45
 10
0.0
 20
0.0
 30
0.0
  0
LINE
  5
C1
  8
図枠
 62
     5
 10
1207.6961828337
 20
231.2141889154
 30
0.0
 11
1217.5961828336999
 21
231.2141889154
 31
0.0
  0
LINE
  5
C2
  8
図枠
 10
1179.2338389592001
 20
-288.59404865279998
 30
0.0
 11
1181.2338389592001
 21
-288.59404865279998
 31
0.0
  0
ARC
  5
C3
  8
図枠
 10
1208.8572587036001
 20
-284.59404865279998
 30
0.0
 40
11.0
 50
322.48761197969998
 51
0.0
  0
LINE
  5
C4
  8
図枠
 10
1181.5360465823001
 20
-295.59404865279998
 30
0.0
 11
1189.5360465823001
 21
-295.59404865279998
 31
0.0
  0
LINE
  5
C5
  8
図枠
 10
1226.2922240001001
 20
-293.79404865279997
 30
0.0
 11
1233.8708906668001
 21
-293.79404865279997
 31
0.0
  0
ARC
  5
C6
  8
図枠
 10
1187.5360465823001
 20
-289.59404865279998
 30
0.0
 40
3.0
 50
270.0
 51
0.0
  0
LINE
  5
C7
  8
図枠
 10
1226.2922240001001
 20
-290.19404865280001
 30
0.0
 11
1226.2922240001001
 21
-293.79404865279997
 31
0.0
  0
LINE
  5
C8
  8
図枠
 10
1181.5360465823001
 20
-291.59404865279998
 30
0.0
 11
1186.5360465823001
 21
-291.59404865279998
 31
0.0
  0
LINE
  5
C9
  8
図枠
 10
1212.9298836869
 20
-288.63219046310002
 30
0.0
 11
1212.4486920743
 21
-289.16366718419999
 31
0.0
  0
LINE
  5
CA
  8
図枠
 10
1240.2922240001001
 20
-296.59404865279998
 30
0.0
 11
1234.6922240000999
 21
-296.59404865279998
 31
0.0
  0
LINE
  5
CB
  8
図枠
 10
1190.5360465823001
 20
-288.59404865279998
 30
0.0
 11
1190.5360465823001
 21
-289.59404865279998
 31
0.0
  0
LINE
  5
CC
  8
図枠
 10
1393.2147536058001
 20
-233.7473945866
 30
0.0
 11
1103.2147536058001
 21
-233.7473945866
 31
0.0
  0
LINE
  5
CD
  8
図枠
 10
1240.5865886291001
 20
-239.94739458660001
 30
0.0
 11
1240.5865886291001
 21
-249.54739458660001
 31
0.0
  0
LINE
  5
CE
  8
図枠
 62
     5
 10
1212.6461828337001
 20
249.68784041289999
 30
0.0
 11
1207.6961828337
 21
241.11418891540001
 31
0.0
  0
LINE
  5
CF
  8
図枠
 10
1198.5360465823001
 20
-281.59404865279998
 30
0.0
 11
1190.5360465823001
 21
-281.59404865279998
 31
0.0
  0
LINE
  5
D0
  8
図枠
 10
1195.5360465823001
 20
-289.59404865279998
 30
0.0
 11
1195.5360465823001
 21
-288.59404865279998
 31
0.0
  0
LINE
  5
D1
  8
図枠
 10
1226.2922240001001
 20
-284.99404865280002
 30
0.0
 11
1226.2922240001001
 21
-288.59404865279998
 31
0.0
  0
LINE
  5
D2
  8
図枠
 10
1190.5360465823001
 20
-285.59404865279998
 30
0.0
 11
1186.5360465823001
 21
-285.59404865279998
 31
0.0
  0
LINE
  5
D3
  8
図枠
 10
1189.5360465823001
 20
-281.59404865279998
 30
0.0
 11
1181.5360465823001
 21
-281.59404865279998
 31
0.0
  0
LINE
  5
D4
  8
図枠
 10
1186.5360465823001
 20
-284.59404865279998
 30
0.0
 11
1189.5360465823001
 21
-281.59404865279998
 31
0.0
  0
LINE
  5
D5
  8
図枠
 10
1181.5360465823001
 20
-281.59404865279998
 30
0.0
 11
1181.5360465823001
 21
-285.59404865279998
 31
0.0
  0
LINE
  5
D6
  8
図枠
 10
1239.4864826548001
 20
-293.79404865279997
 30
0.0
 11
1244.2922240001001
 21
-293.79404865279997
 31
0.0
  0
LINE
  5
D7
  8
図枠
 10
1231.2895573334999
 20
-284.99404865280002
 30
0.0
 11
1230.2922240001001
 21
-281.59404865279998
 31
0.0
  0
LINE
  5
D8
  8
図枠
 10
1226.2922240001001
 20
-290.19404865280001
 30
0.0
 11
1232.8148906668
 21
-290.19404865280001
 31
0.0
  0
LINE
  5
D9
  8
図枠
 10
1238.4505294963999
 20
-290.19404865280001
 30
0.0
 11
1237.9901058705
 21
-288.59404865279998
 31
0.0
  0
ARC
  5
DA
  8
図枠
 10
1206.2572587036
 20
-284.99404865280002
 30
0.0
 40
7.5999999999999988
 50
270.0
 51
298.08590481520002
  0
INSERT
  5
DB
  8
0
  6
CONTINUOUS
  2
*U46
 10
0.0
 20
0.0
 30
0.0
  0
LINE
  5
DC
  8
図枠
 10
1108.2147536058001
 20
-244.7473945866
 30
0.0
 11
1148.2147536058001
 21
-244.7473945866
 31
0.0
  0
LINE
  5
DD
  8
図枠
 10
1153.2147536058001
 20
-233.7473945866
 30
0.0
 11
1153.2147536058001
 21
-255.7473945866
 31
0.0
  0
LINE
  5
DE
  8
図枠
 10
1103.2147536058001
 20
-255.7473945866
 30
0.0
 11
1393.2147536058001
 21
-255.7473945866
 31
0.0
  0
LINE
  5
DF
  8
図枠
 10
1203.2147536058001
 20
-233.7473945866
 30
0.0
 11
1203.2147536058001
 21
-255.7473945866
 31
0.0
  0
LINE
  5
E0
  8
図枠
  6
BORDER
 10
1220.0147536058
 20
-237.54739458660001
 30
0.0
 11
1220.0147536058
 21
-251.94739458660001
 31
0.0
  0
LINE
  5
E1
  8
図枠
  6
BORDER
 10
1220.0147536058
 20
-237.54739458660001
 30
0.0
 11
1220.0147536058
 21
-251.94739458660001
 31
0.0
  0
LINE
  5
E2
  8
図枠
 10
1244.2922240001001
 20
-284.99404865280002
 30
0.0
 11
1244.2922240001001
 21
-288.59404865279998
 31
0.0
  0
LINE
  5
E3
  8
図枠
 10
1158.2147536058001
 20
-244.7473945866
 30
0.0
 11
1198.2147536058001
 21
-244.7473945866
 31
0.0
  0
INSERT
  5
E4
  8
0
  6
CONTINUOUS
  2
*U47
 10
0.0
 20
0.0
 30
0.0
  0
CIRCLE
  5
E5
  8
図枠
 10
1220.0147536058
 20
-244.7473945866
 30
0.0
 40
4.7999999999999989
  0
LINE
  5
E6
  8
図枠
 10
1230.9865886291
 20
-242.34739458659999
 30
0.0
 11
1240.5865886291001
 21
-239.94739458660001
 31
0.0
  0
INSERT
  5
E7
  8
0
  6
CONTINUOUS
  2
*U48
 10
0.0
 20
0.0
 30
0.0
  0
CIRCLE
  5
E8
  8
図枠
 10
1220.0147536058
 20
-244.7473945866
 30
0.0
 40
2.399999999999999
  0
LINE
  5
E9
  8
図枠
 10
1240.2922240001001
 20
-296.59404865279998
 30
0.0
 11
1239.4864826548001
 21
-293.79404865279997
 31
0.0
  0
LINE
  5
EA
  8
図枠
 10
1238.4505294963999
 20
-290.19404865280001
 30
0.0
 11
1244.2922240001001
 21
-290.19404865280001
 31
0.0
  0
LINE
  5
EB
  8
図枠
 10
1203.8572587036001
 20
-292.59404865279998
 30
0.0
 11
1206.2572587036
 21
-292.59404865279998
 31
0.0
  0
LINE
  5
EC
  8
図枠
 10
1230.2922240001001
 20
-281.59404865279998
 30
0.0
 11
1238.2922240001001
 21
-281.59404865279998
 31
0.0
  0
LINE
  5
ED
  8
図枠
 10
1181.5360465823001
 20
-285.59404865279998
 30
0.0
 11
1179.2338389592001
 21
-285.59404865279998
 31
0.0
  0
LINE
  5
EE
  8
図枠
 10
1203.8572587036001
 20
-292.59404865279998
 30
0.0
 11
1203.8572587036001
 21
-295.59404865279998
 31
0.0
  0
LINE
  5
EF
  8
図枠
 10
1181.5360465823001
 20
-288.59404865279998
 30
0.0
 11
1181.2338389592001
 21
-288.59404865279998
 31
0.0
  0
LINE
  5
F0
  8
図枠
 10
1181.5360465823001
 20
-292.59404865279998
 30
0.0
 11
1181.5360465823001
 21
-295.59404865279998
 31
0.0
  0
ARC
  5
F1
  8
図枠
 10
1206.2572587036
 20
-284.99404865280002
 30
0.0
 40
7.5999999999999988
 50
331.39928138329998
 51
358.49204224580001
  0
LINE
  5
F2
  8
図枠
 10
1195.5360465823001
 20
-288.59404865279998
 30
0.0
 11
1198.5360465823001
 21
-288.59404865279998
 31
0.0
  0
ARC
  5
F3
  8
図枠
 10
1208.8572587036001
 20
-284.59404865279998
 30
0.0
 40
11.0
 50
270.0
 51
302.54495885400001
  0
LINE
  5
F4
  8
図枠
 10
1230.9865886291
 20
-247.1473945866
 30
0.0
 11
1240.5865886291001
 21
-249.54739458660001
 31
0.0
  0
LINE
  5
F5
  8
図枠
 10
1230.9865886291
 20
-242.34739458659999
 30
0.0
 11
1230.9865886291
 21
-247.1473945866
 31
0.0
  0
LINE
  5
F6
  8
図枠
 10
1240.5865886291001
 20
-239.94739458660001
 30
0.0
 11
1240.5865886291001
 21
-249.54739458660001
 31
0.0
  0
LINE
  5
F7
  8
図枠
 10
1211.8572587036001
 20
-286.23826918779997
 30
0.0
 11
1210.7258878537
 21
-287.36964003769998
 31
0.0
  0
LINE
  5
F8
  8
図枠
  6
BORDER
 10
1212.8147536058
 20
-244.7473945866
 30
0.0
 11
1243.6147536057999
 21
-244.7473945866
 31
0.0
  0
CIRCLE
  5
F9
  8
図枠
 10
1220.0147536058
 20
-244.7473945866
 30
0.0
 40
2.399999999999999
  0
POLYLINE
  8
図枠
  5
4CF
  66
     1
 10
0.000000
 20
0.000000
 30
0.000000
  70
     8
  0
VERTEX
  8
図枠
  5
4D0
 10
1217.23
 20
-291.641
 30
0.000000
  70
    32
  0
VERTEX
  8
図枠
  5
4D1
 10
1217.26
 20
-291.651
 30
0.000000
  70
    32
  0
VERTEX
  8
図枠
  5
4D2
 10
1217.30
 20
-291.661
 30
0.000000
  70
    32
  0
VERTEX
  8
図枠
  5
4D3
 10
1217.33
 20
-291.671
 30
0.000000
  70
    32
  0
VERTEX
  8
図枠
  5
4D4
 10
1217.37
 20
-291.680
 30
0.000000
  70
    32
  0
VERTEX
  8
図枠
  5
4D5
 10
1217.40
 20
-291.690
 30
0.000000
  70
    32
  0
VERTEX
  8
図枠
  5
4D6
 10
1217.44
 20
-291.700
 30
0.000000
  70
    32
  0
VERTEX
  8
図枠
  5
4D7
 10
1217.47
 20
-291.709
 30
0.000000
  70
    32
  0
VERTEX
  8
図枠
  5
4D8
 10
1217.51
 20
-291.719
 30
0.000000
  70
    32
  0
VERTEX
  8
図枠
  5
4D9
 10
1217.54
 20
-291.728
 30
0.000000
  70
    32
  0
VERTEX
  8
図枠
  5
4DA
 10
1217.58
 20
-291.738
 30
0.000000
  70
    32
  0
VERTEX
  8
図枠
  5
4DB
 10
1217.61
 20
-291.747
 30
0.000000
  70
    32
  0
VERTEX
  8
図枠
  5
4DC
 10
1217.65
 20
-291.756
 30
0.000000
  70
    32
  0
VERTEX
  8
図枠
  5
4DD
 10
1217.68
 20
-291.766
 30
0.000000
  70
    32
  0
VERTEX
  8
図枠
  5
4DE
 10
1217.72
 20
-291.775
 30
0.000000
  70
    32
  0
VERTEX
  8
図枠
  5
4DF
 10
1217.75
 20
-291.784
 30
0.000000
  70
    32
  0
VERTEX
  8
図枠
  5
4E0
 10
1217.79
 20
-291.793
 30
0.000000
  70
    32
  0
VERTEX
  8
図枠
  5
4E1
 10
1217.83
 20
-291.802
 30
0.000000
  70
    32
  0
VERTEX
  8
図枠
  5
4E2
 10
1217.86
 20
-291.811
 30
0.000000
  70
    32
  0
VERTEX
  8
図枠
  5
4E3
 10
1217.90
 20
-291.820
 30
0.000000
  70
    32
  0
VERTEX
  8
図枠
  5
4E4
 10
1217.93
 20
-291.829
 30
0.000000
  70
    32
  0
VERTEX
  8
図枠
  5
4E5
 10
1217.97
 20
-291.838
 30
0.000000
  70
    32
  0
VERTEX
  8
図枠
  5
4E6
 10
1218.00
 20
-291.847
 30
0.000000
  70
    32
  0
VERTEX
  8
図枠
  5
4E7
 10
1218.04
 20
-291.855
 30
0.000000
  70
    32
  0
VERTEX
  8
図枠
  5
4E8
 10
1218.07
 20
-291.864
 30
0.000000
  70
    32
  0
VERTEX
  8
図枠
  5
4E9
 10
1218.11
 20
-291.873
 30
0.000000
  70
    32
  0
VERTEX
  8
図枠
  5
4EA
 10
1218.15
 20
-291.881
 30
0.000000
  70
    32
  0
VERTEX
  8
図枠
  5
4EB
 10
1218.18
 20
-291.890
 30
0.000000
  70
    32
  0
VERTEX
  8
図枠
  5
4EC
 10
1218.22
 20
-291.898
 30
0.000000
  70
    32
  0
VERTEX
  8
図枠
  5
4ED
 10
1218.25
 20
-291.907
 30
0.000000
  70
    32
  0
VERTEX
  8
図枠
  5
4EE
 10
1218.29
 20
-291.915
 30
0.000000
  70
    32
  0
VERTEX
  8
図枠
  5
4EF
 10
1218.33
 20
-291.924
 30
0.000000
  70
    32
  0
VERTEX
  8
図枠
  5
4F0
 10
1218.36
 20
-291.932
 30
0.000000
  70
    32
  0
VERTEX
  8
図枠
  5
4F1
 10
1218.40
 20
-291.940
 30
0.000000
  70
    32
  0
VERTEX
  8
図枠
  5
4F2
 10
1218.43
 20
-291.949
 30
0.000000
  70
    32
  0
VERTEX
  8
図枠
  5
4F3
 10
1218.47
 20
-291.957
 30
0.000000
  70
    32
  0
VERTEX
  8
図枠
  5
4F4
 10
1218.51
 20
-291.965
 30
0.000000
  70
    32
  0
VERTEX
  8
図枠
  5
4F5
 10
1218.54
 20
-291.973
 30
0.000000
  70
    32
  0
VERTEX
  8
図枠
  5
4F6
 10
1218.58
 20
-291.981
 30
0.000000
  70
    32
  0
VERTEX
  8
図枠
  5
4F7
 10
1218.61
 20
-291.989
 30
0.000000
  70
    32
  0
VERTEX
  8
図枠
  5
4F8
 10
1218.65
 20
-291.997
 30
0.000000
  70
    32
  0
VERTEX
  8
図枠
  5
4F9
 10
1218.69
 20
-292.005
 30
0.000000
  70
    32
  0
VERTEX
  8
図枠
  5
4FA
 10
1218.72
 20
-292.013
 30
0.000000
  70
    32
  0
VERTEX
  8
図枠
  5
4FB
 10
1218.76
 20
-292.021
 30
0.000000
  70
    32
  0
VERTEX
  8
図枠
  5
4FC
 10
1218.79
 20
-292.029
 30
0.000000
  70
    32
  0
VERTEX
  8
図枠
  5
4FD
 10
1218.83
 20
-292.037
 30
0.000000
  70
    32
  0
VERTEX
  8
図枠
  5
4FE
 10
1218.87
 20
-292.045
 30
0.000000
  70
    32
  0
VERTEX
  8
図枠
  5
4FF
 10
1218.90
 20
-292.053
 30
0.000000
  70
    32
  0
VERTEX
  8
図枠
  5
500
 10
1218.94
 20
-292.060
 30
0.000000
  70
    32
  0
VERTEX
  8
図枠
  5
501
 10
1218.98
 20
-292.068
 30
0.000000
  70
    32
  0
VERTEX
  8
図枠
  5
502
 10
1219.01
 20
-292.076
 30
0.000000
  70
    32
  0
VERTEX
  8
図枠
  5
503
 10
1219.05
 20
-292.083
 30
0.000000
  70
    32
  0
VERTEX
  8
図枠
  5
504
 10
1219.09
 20
-292.091
 30
0.000000
  70
    32
  0
VERTEX
  8
図枠
  5
505
 10
1219.12
 20
-292.098
 30
0.000000
  70
    32
  0
VERTEX
  8
図枠
  5
506
 10
1219.16
 20
-292.106
 30
0.000000
  70
    32
  0
VERTEX
  8
図枠
  5
507
 10
1219.19
 20
-292.113
 30
0.000000
  70
    32
  0
VERTEX
  8
図枠
  5
508
 10
1219.23
 20
-292.121
 30
0.000000
  70
    32
  0
VERTEX
  8
図枠
  5
509
 10
1219.27
 20
-292.128
 30
0.000000
  70
    32
  0
VERTEX
  8
図枠
  5
50A
 10
1219.30
 20
-292.136
 30
0.000000
  70
    32
  0
VERTEX
  8
図枠
  5
50B
 10
1219.34
 20
-292.143
 30
0.000000
  70
    32
  0
VERTEX
  8
図枠
  5
50C
 10
1219.38
 20
-292.150
 30
0.000000
  70
    32
  0
VERTEX
  8
図枠
  5
50D
 10
1219.41
 20
-292.157
 30
0.000000
  70
    32
  0
VERTEX
  8
図枠
  5
50E
 10
1219.45
 20
-292.165
 30
0.000000
  70
    32
  0
VERTEX
  8
図枠
  5
50F
 10
1219.49
 20
-292.172
 30
0.000000
  70
    32
  0
VERTEX
  8
図枠
  5
510
 10
1219.52
 20
-292.179
 30
0.000000
  70
    32
  0
VERTEX
  8
図枠
  5
511
 10
1219.56
 20
-292.186
 30
0.000000
  70
    32
  0
VERTEX
  8
図枠
  5
512
 10
1219.60
 20
-292.193
 30
0.000000
  70
    32
  0
VERTEX
  8
図枠
  5
513
 10
1219.63
 20
-292.201
 30
0.000000
  70
    32
  0
VERTEX
  8
図枠
  5
514
 10
1219.67
 20
-292.208
 30
0.000000
  70
    32
  0
VERTEX
  8
図枠
  5
515
 10
1219.71
 20
-292.215
 30
0.000000
  70
    32
  0
VERTEX
  8
図枠
  5
516
 10
1219.74
 20
-292.222
 30
0.000000
  70
    32
  0
VERTEX
  8
図枠
  5
517
 10
1219.78
 20
-292.229
 30
0.000000
  70
    32
  0
VERTEX
  8
図枠
  5
518
 10
1219.82
 20
-292.236
 30
0.000000
  70
    32
  0
VERTEX
  8
図枠
  5
519
 10
1219.85
 20
-292.243
 30
0.000000
  70
    32
  0
VERTEX
  8
図枠
  5
51A
 10
1219.89
 20
-292.250
 30
0.000000
  70
    32
  0
VERTEX
  8
図枠
  5
51B
 10
1219.93
 20
-292.257
 30
0.000000
  70
    32
  0
VERTEX
  8
図枠
  5
51C
 10
1219.97
 20
-292.263
 30
0.000000
  70
    32
  0
VERTEX
  8
図枠
  5
51D
 10
1220.00
 20
-292.270
 30
0.000000
  70
    32
  0
VERTEX
  8
図枠
  5
51E
 10
1220.04
 20
-292.277
 30
0.000000
  70
    32
  0
VERTEX
  8
図枠
  5
51F
 10
1220.08
 20
-292.284
 30
0.000000
  70
    32
  0
VERTEX
  8
図枠
  5
520
 10
1220.11
 20
-292.291
 30
0.000000
  70
    32
  0
VERTEX
  8
図枠
  5
521
 10
1220.15
 20
-292.298
 30
0.000000
  70
    32
  0
VERTEX
  8
図枠
  5
522
 10
1220.19
 20
-292.304
 30
0.000000
  70
    32
  0
VERTEX
  8
図枠
  5
523
 10
1220.22
 20
-292.311
 30
0.000000
  70
    32
  0
VERTEX
  8
図枠
  5
524
 10
1220.26
 20
-292.318
 30
0.000000
  70
    32
  0
VERTEX
  8
図枠
  5
525
 10
1220.30
 20
-292.324
 30
0.000000
  70
    32
  0
VERTEX
  8
図枠
  5
526
 10
1220.33
 20
-292.331
 30
0.000000
  70
    32
  0
VERTEX
  8
図枠
  5
527
 10
1220.37
 20
-292.338
 30
0.000000
  70
    32
  0
VERTEX
  8
図枠
  5
528
 10
1220.41
 20
-292.344
 30
0.000000
  70
    32
  0
VERTEX
  8
図枠
  5
529
 10
1220.45
 20
-292.351
 30
0.000000
  70
    32
  0
VERTEX
  8
図枠
  5
52A
 10
1220.48
 20
-292.358
 30
0.000000
  70
    32
  0
VERTEX
  8
図枠
  5
52B
 10
1220.52
 20
-292.364
 30
0.000000
  70
    32
  0
VERTEX
  8
図枠
  5
52C
 10
1220.56
 20
-292.371
 30
0.000000
  70
    32
  0
VERTEX
  8
図枠
  5
52D
 10
1220.59
 20
-292.377
 30
0.000000
  70
    32
  0
VERTEX
  8
図枠
  5
52E
 10
1220.63
 20
-292.384
 30
0.000000
  70
    32
  0
VERTEX
  8
図枠
  5
52F
 10
1220.67
 20
-292.390
 30
0.000000
  70
    32
  0
VERTEX
  8
図枠
  5
530
 10
1220.70
 20
-292.397
 30
0.000000
  70
    32
  0
VERTEX
  8
図枠
  5
531
 10
1220.74
 20
-292.403
 30
0.000000
  70
    32
  0
VERTEX
  8
図枠
  5
532
 10
1220.78
 20
-292.410
 30
0.000000
  70
    32
  0
VERTEX
  8
図枠
  5
533
 10
1220.82
 20
-292.416
 30
0.000000
  70
    32
  0
VERTEX
  8
図枠
  5
534
 10
1220.85
 20
-292.423
 30
0.000000
  70
    32
  0
VERTEX
  8
図枠
  5
535
 10
1220.89
 20
-292.429
 30
0.000000
  70
    32
  0
VERTEX
  8
図枠
  5
536
 10
1220.93
 20
-292.436
 30
0.000000
  70
    32
  0
VERTEX
  8
図枠
  5
537
 10
1220.96
 20
-292.442
 30
0.000000
  70
    32
  0
VERTEX
  8
図枠
  5
538
 10
1221.00
 20
-292.449
 30
0.000000
  70
    32
  0
VERTEX
  8
図枠
  5
539
 10
1221.04
 20
-292.455
 30
0.000000
  70
    32
  0
VERTEX
  8
図枠
  5
53A
 10
1221.08
 20
-292.461
 30
0.000000
  70
    32
  0
VERTEX
  8
図枠
  5
53B
 10
1221.11
 20
-292.468
 30
0.000000
  70
    32
  0
VERTEX
  8
図枠
  5
53C
 10
1221.15
 20
-292.474
 30
0.000000
  70
    32
  0
VERTEX
  8
図枠
  5
53D
 10
1221.19
 20
-292.480
 30
0.000000
  70
    32
  0
VERTEX
  8
図枠
  5
53E
 10
1221.22
 20
-292.487
 30
0.000000
  70
    32
  0
VERTEX
  8
図枠
  5
53F
 10
1221.26
 20
-292.493
 30
0.000000
  70
    32
  0
VERTEX
  8
図枠
  5
540
 10
1221.30
 20
-292.500
 30
0.000000
  70
    32
  0
VERTEX
  8
図枠
  5
541
 10
1221.34
 20
-292.506
 30
0.000000
  70
    32
  0
VERTEX
  8
図枠
  5
542
 10
1221.37
 20
-292.512
 30
0.000000
  70
    32
  0
VERTEX
  8
図枠
  5
543
 10
1221.41
 20
-292.518
 30
0.000000
  70
    32
  0
VERTEX
  8
図枠
  5
544
 10
1221.45
 20
-292.525
 30
0.000000
  70
    32
  0
VERTEX
  8
図枠
  5
545
 10
1221.49
 20
-292.531
 30
0.000000
  70
    32
  0
VERTEX
  8
図枠
  5
546
 10
1221.52
 20
-292.537
 30
0.000000
  70
    32
  0
VERTEX
  8
図枠
  5
547
 10
1221.56
 20
-292.544
 30
0.000000
  70
    32
  0
VERTEX
  8
図枠
  5
548
 10
1221.60
 20
-292.550
 30
0.000000
  70
    32
  0
VERTEX
  8
図枠
  5
549
 10
1221.63
 20
-292.556
 30
0.000000
  70
    32
  0
VERTEX
  8
図枠
  5
54A
 10
1221.67
 20
-292.563
 30
0.000000
  70
    32
  0
VERTEX
  8
図枠
  5
54B
 10
1221.71
 20
-292.569
 30
0.000000
  70
    32
  0
VERTEX
  8
図枠
  5
54C
 10
1221.75
 20
-292.575
 30
0.000000
  70
    32
  0
VERTEX
  8
図枠
  5
54D
 10
1221.78
 20
-292.581
 30
0.000000
  70
    32
  0
VERTEX
  8
図枠
  5
54E
 10
1221.82
 20
-292.588
 30
0.000000
  70
    32
  0
VERTEX
  8
図枠
  5
54F
 10
1221.86
 20
-292.594
 30
0.000000
  70
    32
  0
SEQEND
  8
図枠
  5
550
  0
POLYLINE
  8
図枠
  5
551
  66
     1
 10
0.000000
 20
0.000000
 30
0.000000
  70
     8
  0
VERTEX
  8
図枠
  5
552
 10
1210.73
 20
-287.370
 30
0.000000
  70
    32
  0
VERTEX
  8
図枠
  5
553
 10
1210.74
 20
-287.384
 30
0.000000
  70
    32
  0
VERTEX
  8
図枠
  5
554
 10
1210.75
 20
-287.399
 30
0.000000
  70
    32
  0
VERTEX
  8
図枠
  5
555
 10
1210.77
 20
-287.414
 30
0.000000
  70
    32
  0
VERTEX
  8
図枠
  5
556
 10
1210.78
 20
-287.429
 30
0.000000
  70
    32
  0
VERTEX
  8
図枠
  5
557
 10
1210.79
 20
-287.443
 30
0.000000
  70
    32
  0
VERTEX
  8
図枠
  5
558
 10
1210.81
 20
-287.458
 30
0.000000
  70
    32
  0
VERTEX
  8
図枠
  5
559
 10
1210.82
 20
-287.473
 30
0.000000
  70
    32
  0
VERTEX
  8
図枠
  5
55A
 10
1210.83
 20
-287.487
 30
0.000000
  70
    32
  0
VERTEX
  8
図枠
  5
55B
 10
1210.84
 20
-287.502
 30
0.000000
  70
    32
  0
VERTEX
  8
図枠
  5
55C
 10
1210.86
 20
-287.517
 30
0.000000
  70
    32
  0
VERTEX
  8
図枠
  5
55D
 10
1210.87
 20
-287.531
 30
0.000000
  70
    32
  0
VERTEX
  8
図枠
  5
55E
 10
1210.88
 20
-287.546
 30
0.000000
  70
    32
  0
VERTEX
  8
図枠
  5
55F
 10
1210.90
 20
-287.561
 30
0.000000
  70
    32
  0
VERTEX
  8
図枠
  5
560
 10
1210.91
 20
-287.576
 30
0.000000
  70
    32
  0
VERTEX
  8
図枠
  5
561
 10
1210.92
 20
-287.590
 30
0.000000
  70
    32
  0
VERTEX
  8
図枠
  5
562
 10
1210.94
 20
-287.605
 30
0.000000
  70
    32
  0
VERTEX
  8
図枠
  5
563
 10
1210.95
 20
-287.620
 30
0.000000
  70
    32
  0
VERTEX
  8
図枠
  5
564
 10
1210.96
 20
-287.634
 30
0.000000
  70
    32
  0
VERTEX
  8
図枠
  5
565
 10
1210.98
 20
-287.649
 30
0.000000
  70
    32
  0
VERTEX
  8
図枠
  5
566
 10
1210.99
 20
-287.664
 30
0.000000
  70
    32
  0
VERTEX
  8
図枠
  5
567
 10
1211.00
 20
-287.678
 30
0.000000
  70
    32
  0
VERTEX
  8
図枠
  5
568
 10
1211.02
 20
-287.693
 30
0.000000
  70
    32
  0
VERTEX
  8
図枠
  5
569
 10
1211.03
 20
-287.708
 30
0.000000
  70
    32
  0
VERTEX
  8
図枠
  5
56A
 10
1211.04
 20
-287.722
 30
0.000000
  70
    32
  0
VERTEX
  8
図枠
  5
56B
 10
1211.06
 20
-287.737
 30
0.000000
  70
    32
  0
VERTEX
  8
図枠
  5
56C
 10
1211.07
 20
-287.752
 30
0.000000
  70
    32
  0
VERTEX
  8
図枠
  5
56D
 10
1211.08
 20
-287.766
 30
0.000000
  70
    32
  0
VERTEX
  8
図枠
  5
56E
 10
1211.10
 20
-287.781
 30
0.000000
  70
    32
  0
VERTEX
  8
図枠
  5
56F
 10
1211.11
 20
-287.796
 30
0.000000
  70
    32
  0
VERTEX
  8
図枠
  5
570
 10
1211.12
 20
-287.810
 30
0.000000
  70
    32
  0
VERTEX
  8
図枠
  5
571
 10
1211.14
 20
-287.825
 30
0.000000
  70
    32
  0
VERTEX
  8
図枠
  5
572
 10
1211.15
 20
-287.839
 30
0.000000
  70
    32
  0
VERTEX
  8
図枠
  5
573
 10
1211.16
 20
-287.854
 30
0.000000
  70
    32
  0
VERTEX
  8
図枠
  5
574
 10
1211.18
 20
-287.869
 30
0.000000
  70
    32
  0
VERTEX
  8
図枠
  5
575
 10
1211.19
 20
-287.883
 30
0.000000
  70
    32
  0
VERTEX
  8
図枠
  5
576
 10
1211.20
 20
-287.898
 30
0.000000
  70
    32
  0
VERTEX
  8
図枠
  5
577
 10
1211.22
 20
-287.912
 30
0.000000
  70
    32
  0
VERTEX
  8
図枠
  5
578
 10
1211.23
 20
-287.927
 30
0.000000
  70
    32
  0
VERTEX
  8
図枠
  5
579
 10
1211.24
 20
-287.941
 30
0.000000
  70
    32
  0
VERTEX
  8
図枠
  5
57A
 10
1211.26
 20
-287.956
 30
0.000000
  70
    32
  0
VERTEX
  8
図枠
  5
57B
 10
1211.27
 20
-287.970
 30
0.000000
  70
    32
  0
VERTEX
  8
図枠
  5
57C
 10
1211.28
 20
-287.985
 30
0.000000
  70
    32
  0
VERTEX
  8
図枠
  5
57D
 10
1211.30
 20
-288.000
 30
0.000000
  70
    32
  0
VERTEX
  8
図枠
  5
57E
 10
1211.31
 20
-288.014
 30
0.000000
  70
    32
  0
VERTEX
  8
図枠
  5
57F
 10
1211.32
 20
-288.029
 30
0.000000
  70
    32
  0
VERTEX
  8
図枠
  5
580
 10
1211.34
 20
-288.043
 30
0.000000
  70
    32
  0
VERTEX
  8
図枠
  5
581
 10
1211.35
 20
-288.058
 30
0.000000
  70
    32
  0
VERTEX
  8
図枠
  5
582
 10
1211.36
 20
-288.072
 30
0.000000
  70
    32
  0
VERTEX
  8
図枠
  5
583
 10
1211.38
 20
-288.086
 30
0.000000
  70
    32
  0
VERTEX
  8
図枠
  5
584
 10
1211.39
 20
-288.101
 30
0.000000
  70
    32
  0
VERTEX
  8
図枠
  5
585
 10
1211.40
 20
-288.115
 30
0.000000
  70
    32
  0
VERTEX
  8
図枠
  5
586
 10
1211.42
 20
-288.130
 30
0.000000
  70
    32
  0
VERTEX
  8
図枠
  5
587
 10
1211.43
 20
-288.144
 30
0.000000
  70
    32
  0
VERTEX
  8
図枠
  5
588
 10
1211.44
 20
-288.159
 30
0.000000
  70
    32
  0
VERTEX
  8
図枠
  5
589
 10
1211.46
 20
-288.173
 30
0.000000
  70
    32
  0
VERTEX
  8
図枠
  5
58A
 10
1211.47
 20
-288.187
 30
0.000000
  70
    32
  0
VERTEX
  8
図枠
  5
58B
 10
1211.48
 20
-288.202
 30
0.000000
  70
    32
  0
VERTEX
  8
図枠
  5
58C
 10
1211.50
 20
-288.216
 30
0.000000
  70
    32
  0
VERTEX
  8
図枠
  5
58D
 10
1211.51
 20
-288.230
 30
0.000000
  70
    32
  0
VERTEX
  8
図枠
  5
58E
 10
1211.52
 20
-288.245
 30
0.000000
  70
    32
  0
VERTEX
  8
図枠
  5
58F
 10
1211.54
 20
-288.259
 30
0.000000
  70
    32
  0
VERTEX
  8
図枠
  5
590
 10
1211.55
 20
-288.273
 30
0.000000
  70
    32
  0
VERTEX
  8
図枠
  5
591
 10
1211.56
 20
-288.288
 30
0.000000
  70
    32
  0
VERTEX
  8
図枠
  5
592
 10
1211.58
 20
-288.302
 30
0.000000
  70
    32
  0
VERTEX
  8
図枠
  5
593
 10
1211.59
 20
-288.316
 30
0.000000
  70
    32
  0
VERTEX
  8
図枠
  5
594
 10
1211.60
 20
-288.330
 30
0.000000
  70
    32
  0
VERTEX
  8
図枠
  5
595
 10
1211.62
 20
-288.345
 30
0.000000
  70
    32
  0
VERTEX
  8
図枠
  5
596
 10
1211.63
 20
-288.359
 30
0.000000
  70
    32
  0
VERTEX
  8
図枠
  5
597
 10
1211.64
 20
-288.373
 30
0.000000
  70
    32
  0
VERTEX
  8
図枠
  5
598
 10
1211.66
 20
-288.387
 30
0.000000
  70
    32
  0
VERTEX
  8
図枠
  5
599
 10
1211.67
 20
-288.401
 30
0.000000
  70
    32
  0
VERTEX
  8
図枠
  5
59A
 10
1211.68
 20
-288.416
 30
0.000000
  70
    32
  0
VERTEX
  8
図枠
  5
59B
 10
1211.70
 20
-288.430
 30
0.000000
  70
    32
  0
VERTEX
  8
図枠
  5
59C
 10
1211.71
 20
-288.444
 30
0.000000
  70
    32
  0
VERTEX
  8
図枠
  5
59D
 10
1211.73
 20
-288.458
 30
0.000000
  70
    32
  0
VERTEX
  8
図枠
  5
59E
 10
1211.74
 20
-288.472
 30
0.000000
  70
    32
  0
VERTEX
  8
図枠
  5
59F
 10
1211.75
 20
-288.486
 30
0.000000
  70
    32
  0
VERTEX
  8
図枠
  5
5A0
 10
1211.77
 20
-288.500
 30
0.000000
  70
    32
  0
VERTEX
  8
図枠
  5
5A1
 10
1211.78
 20
-288.514
 30
0.000000
  70
    32
  0
VERTEX
  8
図枠
  5
5A2
 10
1211.79
 20
-288.528
 30
0.000000
  70
    32
  0
VERTEX
  8
図枠
  5
5A3
 10
1211.81
 20
-288.542
 30
0.000000
  70
    32
  0
VERTEX
  8
図枠
  5
5A4
 10
1211.82
 20
-288.556
 30
0.000000
  70
    32
  0
VERTEX
  8
図枠
  5
5A5
 10
1211.83
 20
-288.570
 30
0.000000
  70
    32
  0
VERTEX
  8
図枠
  5
5A6
 10
1211.85
 20
-288.584
 30
0.000000
  70
    32
  0
VERTEX
  8
図枠
  5
5A7
 10
1211.86
 20
-288.598
 30
0.000000
  70
    32
  0
VERTEX
  8
図枠
  5
5A8
 10
1211.88
 20
-288.612
 30
0.000000
  70
    32
  0
VERTEX
  8
図枠
  5
5A9
 10
1211.89
 20
-288.626
 30
0.000000
  70
    32
  0
VERTEX
  8
図枠
  5
5AA
 10
1211.90
 20
-288.640
 30
0.000000
  70
    32
  0
VERTEX
  8
図枠
  5
5AB
 10
1211.92
 20
-288.654
 30
0.000000
  70
    32
  0
VERTEX
  8
図枠
  5
5AC
 10
1211.93
 20
-288.667
 30
0.000000
  70
    32
  0
VERTEX
  8
図枠
  5
5AD
 10
1211.94
 20
-288.681
 30
0.000000
  70
    32
  0
VERTEX
  8
図枠
  5
5AE
 10
1211.96
 20
-288.695
 30
0.000000
  70
    32
  0
VERTEX
  8
図枠
  5
5AF
 10
1211.97
 20
-288.709
 30
0.000000
  70
    32
  0
VERTEX
  8
図枠
  5
5B0
 10
1211.99
 20
-288.723
 30
0.000000
  70
    32
  0
VERTEX
  8
図枠
  5
5B1
 10
1212.00
 20
-288.736
 30
0.000000
  70
    32
  0
VERTEX
  8
図枠
  5
5B2
 10
1212.01
 20
-288.750
 30
0.000000
  70
    32
  0
VERTEX
  8
図枠
  5
5B3
 10
1212.03
 20
-288.764
 30
0.000000
  70
    32
  0
VERTEX
  8
図枠
  5
5B4
 10
1212.04
 20
-288.777
 30
0.000000
  70
    32
  0
VERTEX
  8
図枠
  5
5B5
 10
1212.05
 20
-288.791
 30
0.000000
  70
    32
  0
VERTEX
  8
図枠
  5
5B6
 10
1212.07
 20
-288.805
 30
0.000000
  70
    32
  0
VERTEX
  8
図枠
  5
5B7
 10
1212.08
 20
-288.818
 30
0.000000
  70
    32
  0
VERTEX
  8
図枠
  5
5B8
 10
1212.10
 20
-288.832
 30
0.000000
  70
    32
  0
VERTEX
  8
図枠
  5
5B9
 10
1212.11
 20
-288.845
 30
0.000000
  70
    32
  0
VERTEX
  8
図枠
  5
5BA
 10
1212.12
 20
-288.859
 30
0.000000
  70
    32
  0
VERTEX
  8
図枠
  5
5BB
 10
1212.14
 20
-288.873
 30
0.000000
  70
    32
  0
VERTEX
  8
図枠
  5
5BC
 10
1212.15
 20
-288.886
 30
0.000000
  70
    32
  0
VERTEX
  8
図枠
  5
5BD
 10
1212.17
 20
-288.899
 30
0.000000
  70
    32
  0
VERTEX
  8
図枠
  5
5BE
 10
1212.18
 20
-288.913
 30
0.000000
  70
    32
  0
VERTEX
  8
図枠
  5
5BF
 10
1212.19
 20
-288.926
 30
0.000000
  70
    32
  0
VERTEX
  8
図枠
  5
5C0
 10
1212.21
 20
-288.940
 30
0.000000
  70
    32
  0
VERTEX
  8
図枠
  5
5C1
 10
1212.22
 20
-288.953
 30
0.000000
  70
    32
  0
VERTEX
  8
図枠
  5
5C2
 10
1212.24
 20
-288.966
 30
0.000000
  70
    32
  0
VERTEX
  8
図枠
  5
5C3
 10
1212.25
 20
-288.980
 30
0.000000
  70
    32
  0
VERTEX
  8
図枠
  5
5C4
 10
1212.26
 20
-288.993
 30
0.000000
  70
    32
  0
VERTEX
  8
図枠
  5
5C5
 10
1212.28
 20
-289.006
 30
0.000000
  70
    32
  0
VERTEX
  8
図枠
  5
5C6
 10
1212.29
 20
-289.020
 30
0.000000
  70
    32
  0
VERTEX
  8
図枠
  5
5C7
 10
1212.31
 20
-289.033
 30
0.000000
  70
    32
  0
VERTEX
  8
図枠
  5
5C8
 10
1212.32
 20
-289.046
 30
0.000000
  70
    32
  0
VERTEX
  8
図枠
  5
5C9
 10
1212.33
 20
-289.059
 30
0.000000
  70
    32
  0
VERTEX
  8
図枠
  5
5CA
 10
1212.35
 20
-289.072
 30
0.000000
  70
    32
  0
VERTEX
  8
図枠
  5
5CB
 10
1212.36
 20
-289.086
 30
0.000000
  70
    32
  0
VERTEX
  8
図枠
  5
5CC
 10
1212.38
 20
-289.099
 30
0.000000
  70
    32
  0
VERTEX
  8
図枠
  5
5CD
 10
1212.39
 20
-289.112
 30
0.000000
  70
    32
  0
VERTEX
  8
図枠
  5
5CE
 10
1212.41
 20
-289.125
 30
0.000000
  70
    32
  0
VERTEX
  8
図枠
  5
5CF
 10
1212.42
 20
-289.138
 30
0.000000
  70
    32
  0
VERTEX
  8
図枠
  5
5D0
 10
1212.43
 20
-289.151
 30
0.000000
  70
    32
  0
VERTEX
  8
図枠
  5
5D1
 10
1212.45
 20
-289.164
 30
0.000000
  70
    32
  0
SEQEND
  8
図枠
  5
5D2
  0
POLYLINE
  8
図枠
  5
5D3
  66
     1
 10
0.000000
 20
0.000000
 30
0.000000
  70
     8
  0
VERTEX
  8
図枠
  5
5D4
 10
1214.77
 20
-293.867
 30
0.000000
  70
    32
  0
VERTEX
  8
図枠
  5
5D5
 10
1214.83
 20
-293.884
 30
0.000000
  70
    32
  0
VERTEX
  8
図枠
  5
5D6
 10
1214.88
 20
-293.901
 30
0.000000
  70
    32
  0
VERTEX
  8
図枠
  5
5D7
 10
1214.94
 20
-293.918
 30
0.000000
  70
    32
  0
VERTEX
  8
図枠
  5
5D8
 10
1214.99
 20
-293.935
 30
0.000000
  70
    32
  0
VERTEX
  8
図枠
  5
5D9
 10
1215.04
 20
-293.952
 30
0.000000
  70
    32
  0
VERTEX
  8
図枠
  5
5DA
 10
1215.10
 20
-293.968
 30
0.000000
  70
    32
  0
VERTEX
  8
図枠
  5
5DB
 10
1215.15
 20
-293.985
 30
0.000000
  70
    32
  0
VERTEX
  8
図枠
  5
5DC
 10
1215.21
 20
-294.002
 30
0.000000
  70
    32
  0
VERTEX
  8
図枠
  5
5DD
 10
1215.26
 20
-294.018
 30
0.000000
  70
    32
  0
VERTEX
  8
図枠
  5
5DE
 10
1215.32
 20
-294.035
 30
0.000000
  70
    32
  0
VERTEX
  8
図枠
  5
5DF
 10
1215.37
 20
-294.051
 30
0.000000
  70
    32
  0
VERTEX
  8
図枠
  5
5E0
 10
1215.42
 20
-294.067
 30
0.000000
  70
    32
  0
VERTEX
  8
図枠
  5
5E1
 10
1215.48
 20
-294.083
 30
0.000000
  70
    32
  0
VERTEX
  8
図枠
  5
5E2
 10
1215.53
 20
-294.100
 30
0.000000
  70
    32
  0
VERTEX
  8
図枠
  5
5E3
 10
1215.59
 20
-294.116
 30
0.000000
  70
    32
  0
VERTEX
  8
図枠
  5
5E4
 10
1215.64
 20
-294.132
 30
0.000000
  70
    32
  0
VERTEX
  8
図枠
  5
5E5
 10
1215.70
 20
-294.148
 30
0.000000
  70
    32
  0
VERTEX
  8
図枠
  5
5E6
 10
1215.75
 20
-294.163
 30
0.000000
  70
    32
  0
VERTEX
  8
図枠
  5
5E7
 10
1215.81
 20
-294.179
 30
0.000000
  70
    32
  0
VERTEX
  8
図枠
  5
5E8
 10
1215.86
 20
-294.195
 30
0.000000
  70
    32
  0
VERTEX
  8
図枠
  5
5E9
 10
1215.91
 20
-294.210
 30
0.000000
  70
    32
  0
VERTEX
  8
図枠
  5
5EA
 10
1215.97
 20
-294.226
 30
0.000000
  70
    32
  0
VERTEX
  8
図枠
  5
5EB
 10
1216.02
 20
-294.241
 30
0.000000
  70
    32
  0
VERTEX
  8
図枠
  5
5EC
 10
1216.08
 20
-294.257
 30
0.000000
  70
    32
  0
VERTEX
  8
図枠
  5
5ED
 10
1216.13
 20
-294.272
 30
0.000000
  70
    32
  0
VERTEX
  8
図枠
  5
5EE
 10
1216.19
 20
-294.287
 30
0.000000
  70
    32
  0
VERTEX
  8
図枠
  5
5EF
 10
1216.24
 20
-294.303
 30
0.000000
  70
    32
  0
VERTEX
  8
図枠
  5
5F0
 10
1216.30
 20
-294.318
 30
0.000000
  70
    32
  0
VERTEX
  8
図枠
  5
5F1
 10
1216.35
 20
-294.333
 30
0.000000
  70
    32
  0
VERTEX
  8
図枠
  5
5F2
 10
1216.41
 20
-294.348
 30
0.000000
  70
    32
  0
VERTEX
  8
図枠
  5
5F3
 10
1216.46
 20
-294.363
 30
0.000000
  70
    32
  0
VERTEX
  8
図枠
  5
5F4
 10
1216.52
 20
-294.377
 30
0.000000
  70
    32
  0
VERTEX
  8
図枠
  5
5F5
 10
1216.57
 20
-294.392
 30
0.000000
  70
    32
  0
VERTEX
  8
図枠
  5
5F6
 10
1216.63
 20
-294.407
 30
0.000000
  70
    32
  0
VERTEX
  8
図枠
  5
5F7
 10
1216.68
 20
-294.422
 30
0.000000
  70
    32
  0
VERTEX
  8
図枠
  5
5F8
 10
1216.74
 20
-294.436
 30
0.000000
  70
    32
  0
VERTEX
  8
図枠
  5
5F9
 10
1216.79
 20
-294.451
 30
0.000000
  70
    32
  0
VERTEX
  8
図枠
  5
5FA
 10
1216.85
 20
-294.465
 30
0.000000
  70
    32
  0
VERTEX
  8
図枠
  5
5FB
 10
1216.91
 20
-294.480
 30
0.000000
  70
    32
  0
VERTEX
  8
図枠
  5
5FC
 10
1216.96
 20
-294.494
 30
0.000000
  70
    32
  0
VERTEX
  8
図枠
  5
5FD
 10
1217.02
 20
-294.508
 30
0.000000
  70
    32
  0
VERTEX
  8
図枠
  5
5FE
 10
1217.07
 20
-294.523
 30
0.000000
  70
    32
  0
VERTEX
  8
図枠
  5
5FF
 10
1217.13
 20
-294.537
 30
0.000000
  70
    32
  0
VERTEX
  8
図枠
  5
600
 10
1217.18
 20
-294.551
 30
0.000000
  70
    32
  0
VERTEX
  8
図枠
  5
601
 10
1217.24
 20
-294.565
 30
0.000000
  70
    32
  0
VERTEX
  8
図枠
  5
602
 10
1217.29
 20
-294.579
 30
0.000000
  70
    32
  0
VERTEX
  8
図枠
  5
603
 10
1217.35
 20
-294.593
 30
0.000000
  70
    32
  0
VERTEX
  8
図枠
  5
604
 10
1217.40
 20
-294.607
 30
0.000000
  70
    32
  0
VERTEX
  8
図枠
  5
605
 10
1217.46
 20
-294.621
 30
0.000000
  70
    32
  0
VERTEX
  8
図枠
  5
606
 10
1217.52
 20
-294.635
 30
0.000000
  70
    32
  0
VERTEX
  8
図枠
  5
607
 10
1217.57
 20
-294.648
 30
0.000000
  70
    32
  0
VERTEX
  8
図枠
  5
608
 10
1217.63
 20
-294.662
 30
0.000000
  70
    32
  0
VERTEX
  8
図枠
  5
609
 10
1217.68
 20
-294.676
 30
0.000000
  70
    32
  0
VERTEX
  8
図枠
  5
60A
 10
1217.74
 20
-294.689
 30
0.000000
  70
    32
  0
VERTEX
  8
図枠
  5
60B
 10
1217.79
 20
-294.703
 30
0.000000
  70
    32
  0
VERTEX
  8
図枠
  5
60C
 10
1217.85
 20
-294.716
 30
0.000000
  70
    32
  0
VERTEX
  8
図枠
  5
60D
 10
1217.91
 20
-294.730
 30
0.000000
  70
    32
  0
VERTEX
  8
図枠
  5
60E
 10
1217.96
 20
-294.743
 30
0.000000
  70
    32
  0
VERTEX
  8
図枠
  5
60F
 10
1218.02
 20
-294.757
 30
0.000000
  70
    32
  0
VERTEX
  8
図枠
  5
610
 10
1218.07
 20
-294.770
 30
0.000000
  70
    32
  0
VERTEX
  8
図枠
  5
611
 10
1218.13
 20
-294.783
 30
0.000000
  70
    32
  0
VERTEX
  8
図枠
  5
612
 10
1218.19
 20
-294.797
 30
0.000000
  70
    32
  0
VERTEX
  8
図枠
  5
613
 10
1218.24
 20
-294.810
 30
0.000000
  70
    32
  0
VERTEX
  8
図枠
  5
614
 10
1218.30
 20
-294.823
 30
0.000000
  70
    32
  0
VERTEX
  8
図枠
  5
615
 10
1218.35
 20
-294.836
 30
0.000000
  70
    32
  0
VERTEX
  8
図枠
  5
616
 10
1218.41
 20
-294.849
 30
0.000000
  70
    32
  0
VERTEX
  8
図枠
  5
617
 10
1218.47
 20
-294.862
 30
0.000000
  70
    32
  0
VERTEX
  8
図枠
  5
618
 10
1218.52
 20
-294.875
 30
0.000000
  70
    32
  0
VERTEX
  8
図枠
  5
619
 10
1218.58
 20
-294.888
 30
0.000000
  70
    32
  0
VERTEX
  8
図枠
  5
61A
 10
1218.63
 20
-294.901
 30
0.000000
  70
    32
  0
VERTEX
  8
図枠
  5
61B
 10
1218.69
 20
-294.914
 30
0.000000
  70
    32
  0
VERTEX
  8
図枠
  5
61C
 10
1218.75
 20
-294.927
 30
0.000000
  70
    32
  0
VERTEX
  8
図枠
  5
61D
 10
1218.80
 20
-294.939
 30
0.000000
  70
    32
  0
VERTEX
  8
図枠
  5
61E
 10
1218.86
 20
-294.952
 30
0.000000
  70
    32
  0
VERTEX
  8
図枠
  5
61F
 10
1218.92
 20
-294.965
 30
0.000000
  70
    32
  0
VERTEX
  8
図枠
  5
620
 10
1218.97
 20
-294.978
 30
0.000000
  70
    32
  0
VERTEX
  8
図枠
  5
621
 10
1219.03
 20
-294.990
 30
0.000000
  70
    32
  0
VERTEX
  8
図枠
  5
622
 10
1219.08
 20
-295.003
 30
0.000000
  70
    32
  0
VERTEX
  8
図枠
  5
623
 10
1219.14
 20
-295.015
 30
0.000000
  70
    32
  0
VERTEX
  8
図枠
  5
624
 10
1219.20
 20
-295.028
 30
0.000000
  70
    32
  0
VERTEX
  8
図枠
  5
625
 10
1219.25
 20
-295.041
 30
0.000000
  70
    32
  0
VERTEX
  8
図枠
  5
626
 10
1219.31
 20
-295.053
 30
0.000000
  70
    32
  0
VERTEX
  8
図枠
  5
627
 10
1219.37
 20
-295.065
 30
0.000000
  70
    32
  0
VERTEX
  8
図枠
  5
628
 10
1219.42
 20
-295.078
 30
0.000000
  70
    32
  0
VERTEX
  8
図枠
  5
629
 10
1219.48
 20
-295.090
 30
0.000000
  70
    32
  0
VERTEX
  8
図枠
  5
62A
 10
1219.53
 20
-295.103
 30
0.000000
  70
    32
  0
VERTEX
  8
図枠
  5
62B
 10
1219.59
 20
-295.115
 30
0.000000
  70
    32
  0
VERTEX
  8
図枠
  5
62C
 10
1219.65
 20
-295.127
 30
0.000000
  70
    32
  0
VERTEX
  8
図枠
  5
62D
 10
1219.70
 20
-295.140
 30
0.000000
  70
    32
  0
VERTEX
  8
図枠
  5
62E
 10
1219.76
 20
-295.152
 30
0.000000
  70
    32
  0
VERTEX
  8
図枠
  5
62F
 10
1219.82
 20
-295.164
 30
0.000000
  70
    32
  0
VERTEX
  8
図枠
  5
630
 10
1219.87
 20
-295.176
 30
0.000000
  70
    32
  0
VERTEX
  8
図枠
  5
631
 10
1219.93
 20
-295.189
 30
0.000000
  70
    32
  0
VERTEX
  8
図枠
  5
632
 10
1219.99
 20
-295.201
 30
0.000000
  70
    32
  0
VERTEX
  8
図枠
  5
633
 10
1220.04
 20
-295.213
 30
0.000000
  70
    32
  0
VERTEX
  8
図枠
  5
634
 10
1220.10
 20
-295.225
 30
0.000000
  70
    32
  0
VERTEX
  8
図枠
  5
635
 10
1220.16
 20
-295.237
 30
0.000000
  70
    32
  0
VERTEX
  8
図枠
  5
636
 10
1220.21
 20
-295.249
 30
0.000000
  70
    32
  0
VERTEX
  8
図枠
  5
637
 10
1220.27
 20
-295.261
 30
0.000000
  70
    32
  0
VERTEX
  8
図枠
  5
638
 10
1220.33
 20
-295.273
 30
0.000000
  70
    32
  0
VERTEX
  8
図枠
  5
639
 10
1220.38
 20
-295.285
 30
0.000000
  70
    32
  0
VERTEX
  8
図枠
  5
63A
 10
1220.44
 20
-295.297
 30
0.000000
  70
    32
  0
VERTEX
  8
図枠
  5
63B
 10
1220.50
 20
-295.309
 30
0.000000
  70
    32
  0
VERTEX
  8
図枠
  5
63C
 10
1220.55
 20
-295.321
 30
0.000000
  70
    32
  0
VERTEX
  8
図枠
  5
63D
 10
1220.61
 20
-295.333
 30
0.000000
  70
    32
  0
VERTEX
  8
図枠
  5
63E
 10
1220.67
 20
-295.345
 30
0.000000
  70
    32
  0
VERTEX
  8
図枠
  5
63F
 10
1220.72
 20
-295.357
 30
0.000000
  70
    32
  0
VERTEX
  8
図枠
  5
640
 10
1220.78
 20
-295.369
 30
0.000000
  70
    32
  0
VERTEX
  8
図枠
  5
641
 10
1220.84
 20
-295.381
 30
0.000000
  70
    32
  0
VERTEX
  8
図枠
  5
642
 10
1220.89
 20
-295.393
 30
0.000000
  70
    32
  0
VERTEX
  8
図枠
  5
643
 10
1220.95
 20
-295.405
 30
0.000000
  70
    32
  0
VERTEX
  8
図枠
  5
644
 10
1221.01
 20
-295.417
 30
0.000000
  70
    32
  0
VERTEX
  8
図枠
  5
645
 10
1221.06
 20
-295.429
 30
0.000000
  70
    32
  0
VERTEX
  8
図枠
  5
646
 10
1221.12
 20
-295.440
 30
0.000000
  70
    32
  0
VERTEX
  8
図枠
  5
647
 10
1221.18
 20
-295.452
 30
0.000000
  70
    32
  0
VERTEX
  8
図枠
  5
648
 10
1221.23
 20
-295.464
 30
0.000000
  70
    32
  0
VERTEX
  8
図枠
  5
649
 10
1221.29
 20
-295.476
 30
0.000000
  70
    32
  0
VERTEX
  8
図枠
  5
64A
 10
1221.35
 20
-295.488
 30
0.000000
  70
    32
  0
VERTEX
  8
図枠
  5
64B
 10
1221.40
 20
-295.500
 30
0.000000
  70
    32
  0
VERTEX
  8
図枠
  5
64C
 10
1221.46
 20
-295.511
 30
0.000000
  70
    32
  0
VERTEX
  8
図枠
  5
64D
 10
1221.52
 20
-295.523
 30
0.000000
  70
    32
  0
VERTEX
  8
図枠
  5
64E
 10
1221.57
 20
-295.535
 30
0.000000
  70
    32
  0
VERTEX
  8
図枠
  5
64F
 10
1221.63
 20
-295.547
 30
0.000000
  70
    32
  0
VERTEX
  8
図枠
  5
650
 10
1221.69
 20
-295.559
 30
0.000000
  70
    32
  0
VERTEX
  8
図枠
  5
651
 10
1221.74
 20
-295.570
 30
0.000000
  70
    32
  0
VERTEX
  8
図枠
  5
652
 10
1221.80
 20
-295.582
 30
0.000000
  70
    32
  0
VERTEX
  8
図枠
  5
653
 10
1221.86
 20
-295.594
 30
0.000000
  70
    32
  0
SEQEND
  8
図枠
  5
654
  0
POLYLINE
  8
図枠
  5
655
  66
     1
 10
0.000000
 20
0.000000
 30
0.000000
  70
     8
  0
VERTEX
  8
図枠
  5
656
 10
1203.86
 20
-286.882
 30
0.000000
  70
    32
  0
VERTEX
  8
図枠
  5
657
 10
1203.89
 20
-286.916
 30
0.000000
  70
    32
  0
VERTEX
  8
図枠
  5
658
 10
1203.93
 20
-286.949
 30
0.000000
  70
    32
  0
VERTEX
  8
図枠
  5
659
 10
1203.97
 20
-286.982
 30
0.000000
  70
    32
  0
VERTEX
  8
図枠
  5
65A
 10
1204.00
 20
-287.015
 30
0.000000
  70
    32
  0
VERTEX
  8
図枠
  5
65B
 10
1204.04
 20
-287.049
 30
0.000000
  70
    32
  0
VERTEX
  8
図枠
  5
65C
 10
1204.07
 20
-287.082
 30
0.000000
  70
    32
  0
VERTEX
  8
図枠
  5
65D
 10
1204.11
 20
-287.115
 30
0.000000
  70
    32
  0
VERTEX
  8
図枠
  5
65E
 10
1204.15
 20
-287.148
 30
0.000000
  70
    32
  0
VERTEX
  8
図枠
  5
65F
 10
1204.18
 20
-287.181
 30
0.000000
  70
    32
  0
VERTEX
  8
図枠
  5
660
 10
1204.22
 20
-287.214
 30
0.000000
  70
    32
  0
VERTEX
  8
図枠
  5
661
 10
1204.25
 20
-287.248
 30
0.000000
  70
    32
  0
VERTEX
  8
図枠
  5
662
 10
1204.29
 20
-287.281
 30
0.000000
  70
    32
  0
VERTEX
  8
図枠
  5
663
 10
1204.33
 20
-287.314
 30
0.000000
  70
    32
  0
VERTEX
  8
図枠
  5
664
 10
1204.36
 20
-287.347
 30
0.000000
  70
    32
  0
VERTEX
  8
図枠
  5
665
 10
1204.40
 20
-287.380
 30
0.000000
  70
    32
  0
VERTEX
  8
図枠
  5
666
 10
1204.43
 20
-287.413
 30
0.000000
  70
    32
  0
VERTEX
  8
図枠
  5
667
 10
1204.47
 20
-287.446
 30
0.000000
  70
    32
  0
VERTEX
  8
図枠
  5
668
 10
1204.51
 20
-287.480
 30
0.000000
  70
    32
  0
VERTEX
  8
図枠
  5
669
 10
1204.54
 20
-287.513
 30
0.000000
  70
    32
  0
VERTEX
  8
図枠
  5
66A
 10
1204.58
 20
-287.546
 30
0.000000
  70
    32
  0
VERTEX
  8
図枠
  5
66B
 10
1204.61
 20
-287.579
 30
0.000000
  70
    32
  0
VERTEX
  8
図枠
  5
66C
 10
1204.65
 20
-287.612
 30
0.000000
  70
    32
  0
VERTEX
  8
図枠
  5
66D
 10
1204.69
 20
-287.645
 30
0.000000
  70
    32
  0
VERTEX
  8
図枠
  5
66E
 10
1204.72
 20
-287.678
 30
0.000000
  70
    32
  0
VERTEX
  8
図枠
  5
66F
 10
1204.76
 20
-287.711
 30
0.000000
  70
    32
  0
VERTEX
  8
図枠
  5
670
 10
1204.79
 20
-287.744
 30
0.000000
  70
    32
  0
VERTEX
  8
図枠
  5
671
 10
1204.83
 20
-287.777
 30
0.000000
  70
    32
  0
VERTEX
  8
図枠
  5
672
 10
1204.87
 20
-287.810
 30
0.000000
  70
    32
  0
VERTEX
  8
図枠
  5
673
 10
1204.90
 20
-287.843
 30
0.000000
  70
    32
  0
VERTEX
  8
図枠
  5
674
 10
1204.94
 20
-287.876
 30
0.000000
  70
    32
  0
VERTEX
  8
図枠
  5
675
 10
1204.98
 20
-287.908
 30
0.000000
  70
    32
  0
VERTEX
  8
図枠
  5
676
 10
1205.01
 20
-287.941
 30
0.000000
  70
    32
  0
VERTEX
  8
図枠
  5
677
 10
1205.05
 20
-287.974
 30
0.000000
  70
    32
  0
VERTEX
  8
図枠
  5
678
 10
1205.08
 20
-288.007
 30
0.000000
  70
    32
  0
VERTEX
  8
図枠
  5
679
 10
1205.12
 20
-288.040
 30
0.000000
  70
    32
  0
VERTEX
  8
図枠
  5
67A
 10
1205.16
 20
-288.073
 30
0.000000
  70
    32
  0
VERTEX
  8
図枠
  5
67B
 10
1205.19
 20
-288.105
 30
0.000000
  70
    32
  0
VERTEX
  8
図枠
  5
67C
 10
1205.23
 20
-288.138
 30
0.000000
  70
    32
  0
VERTEX
  8
図枠
  5
67D
 10
1205.27
 20
-288.171
 30
0.000000
  70
    32
  0
VERTEX
  8
図枠
  5
67E
 10
1205.30
 20
-288.203
 30
0.000000
  70
    32
  0
VERTEX
  8
図枠
  5
67F
 10
1205.34
 20
-288.236
 30
0.000000
  70
    32
  0
VERTEX
  8
図枠
  5
680
 10
1205.37
 20
-288.269
 30
0.000000
  70
    32
  0
VERTEX
  8
図枠
  5
681
 10
1205.41
 20
-288.301
 30
0.000000
  70
    32
  0
VERTEX
  8
図枠
  5
682
 10
1205.45
 20
-288.334
 30
0.000000
  70
    32
  0
VERTEX
  8
図枠
  5
683
 10
1205.48
 20
-288.366
 30
0.000000
  70
    32
  0
VERTEX
  8
図枠
  5
684
 10
1205.52
 20
-288.399
 30
0.000000
  70
    32
  0
VERTEX
  8
図枠
  5
685
 10
1205.56
 20
-288.431
 30
0.000000
  70
    32
  0
VERTEX
  8
図枠
  5
686
 10
1205.59
 20
-288.464
 30
0.000000
  70
    32
  0
VERTEX
  8
図枠
  5
687
 10
1205.63
 20
-288.496
 30
0.000000
  70
    32
  0
VERTEX
  8
図枠
  5
688
 10
1205.67
 20
-288.528
 30
0.000000
  70
    32
  0
VERTEX
  8
図枠
  5
689
 10
1205.70
 20
-288.561
 30
0.000000
  70
    32
  0
VERTEX
  8
図枠
  5
68A
 10
1205.74
 20
-288.593
 30
0.000000
  70
    32
  0
VERTEX
  8
図枠
  5
68B
 10
1205.78
 20
-288.625
 30
0.000000
  70
    32
  0
VERTEX
  8
図枠
  5
68C
 10
1205.81
 20
-288.657
 30
0.000000
  70
    32
  0
VERTEX
  8
図枠
  5
68D
 10
1205.85
 20
-288.690
 30
0.000000
  70
    32
  0
VERTEX
  8
図枠
  5
68E
 10
1205.89
 20
-288.722
 30
0.000000
  70
    32
  0
VERTEX
  8
図枠
  5
68F
 10
1205.92
 20
-288.754
 30
0.000000
  70
    32
  0
VERTEX
  8
図枠
  5
690
 10
1205.96
 20
-288.786
 30
0.000000
  70
    32
  0
VERTEX
  8
図枠
  5
691
 10
1206.00
 20
-288.818
 30
0.000000
  70
    32
  0
VERTEX
  8
図枠
  5
692
 10
1206.03
 20
-288.850
 30
0.000000
  70
    32
  0
VERTEX
  8
図枠
  5
693
 10
1206.07
 20
-288.882
 30
0.000000
  70
    32
  0
VERTEX
  8
図枠
  5
694
 10
1206.11
 20
-288.914
 30
0.000000
  70
    32
  0
VERTEX
  8
図枠
  5
695
 10
1206.14
 20
-288.946
 30
0.000000
  70
    32
  0
VERTEX
  8
図枠
  5
696
 10
1206.18
 20
-288.977
 30
0.000000
  70
    32
  0
VERTEX
  8
図枠
  5
697
 10
1206.22
 20
-289.009
 30
0.000000
  70
    32
  0
VERTEX
  8
図枠
  5
698
 10
1206.25
 20
-289.041
 30
0.000000
  70
    32
  0
VERTEX
  8
図枠
  5
699
 10
1206.29
 20
-289.073
 30
0.000000
  70
    32
  0
VERTEX
  8
図枠
  5
69A
 10
1206.33
 20
-289.104
 30
0.000000
  70
    32
  0
VERTEX
  8
図枠
  5
69B
 10
1206.36
 20
-289.136
 30
0.000000
  70
    32
  0
VERTEX
  8
図枠
  5
69C
 10
1206.40
 20
-289.167
 30
0.000000
  70
    32
  0
VERTEX
  8
図枠
  5
69D
 10
1206.44
 20
-289.199
 30
0.000000
  70
    32
  0
VERTEX
  8
図枠
  5
69E
 10
1206.47
 20
-289.230
 30
0.000000
  70
    32
  0
VERTEX
  8
図枠
  5
69F
 10
1206.51
 20
-289.262
 30
0.000000
  70
    32
  0
VERTEX
  8
図枠
  5
6A0
 10
1206.55
 20
-289.293
 30
0.000000
  70
    32
  0
VERTEX
  8
図枠
  5
6A1
 10
1206.59
 20
-289.324
 30
0.000000
  70
    32
  0
VERTEX
  8
図枠
  5
6A2
 10
1206.62
 20
-289.356
 30
0.000000
  70
    32
  0
VERTEX
  8
図枠
  5
6A3
 10
1206.66
 20
-289.387
 30
0.000000
  70
    32
  0
VERTEX
  8
図枠
  5
6A4
 10
1206.70
 20
-289.418
 30
0.000000
  70
    32
  0
VERTEX
  8
図枠
  5
6A5
 10
1206.73
 20
-289.449
 30
0.000000
  70
    32
  0
VERTEX
  8
図枠
  5
6A6
 10
1206.77
 20
-289.480
 30
0.000000
  70
    32
  0
VERTEX
  8
図枠
  5
6A7
 10
1206.81
 20
-289.511
 30
0.000000
  70
    32
  0
VERTEX
  8
図枠
  5
6A8
 10
1206.85
 20
-289.542
 30
0.000000
  70
    32
  0
VERTEX
  8
図枠
  5
6A9
 10
1206.88
 20
-289.573
 30
0.000000
  70
    32
  0
VERTEX
  8
図枠
  5
6AA
 10
1206.92
 20
-289.603
 30
0.000000
  70
    32
  0
VERTEX
  8
図枠
  5
6AB
 10
1206.96
 20
-289.634
 30
0.000000
  70
    32
  0
VERTEX
  8
図枠
  5
6AC
 10
1206.99
 20
-289.665
 30
0.000000
  70
    32
  0
VERTEX
  8
図枠
  5
6AD
 10
1207.03
 20
-289.695
 30
0.000000
  70
    32
  0
VERTEX
  8
図枠
  5
6AE
 10
1207.07
 20
-289.726
 30
0.000000
  70
    32
  0
VERTEX
  8
図枠
  5
6AF
 10
1207.11
 20
-289.757
 30
0.000000
  70
    32
  0
VERTEX
  8
図枠
  5
6B0
 10
1207.14
 20
-289.787
 30
0.000000
  70
    32
  0
VERTEX
  8
図枠
  5
6B1
 10
1207.18
 20
-289.817
 30
0.000000
  70
    32
  0
VERTEX
  8
図枠
  5
6B2
 10
1207.22
 20
-289.848
 30
0.000000
  70
    32
  0
VERTEX
  8
図枠
  5
6B3
 10
1207.26
 20
-289.878
 30
0.000000
  70
    32
  0
VERTEX
  8
図枠
  5
6B4
 10
1207.30
 20
-289.908
 30
0.000000
  70
    32
  0
VERTEX
  8
図枠
  5
6B5
 10
1207.33
 20
-289.938
 30
0.000000
  70
    32
  0
VERTEX
  8
図枠
  5
6B6
 10
1207.37
 20
-289.968
 30
0.000000
  70
    32
  0
VERTEX
  8
図枠
  5
6B7
 10
1207.41
 20
-289.998
 30
0.000000
  70
    32
  0
VERTEX
  8
図枠
  5
6B8
 10
1207.45
 20
-290.028
 30
0.000000
  70
    32
  0
VERTEX
  8
図枠
  5
6B9
 10
1207.48
 20
-290.058
 30
0.000000
  70
    32
  0
VERTEX
  8
図枠
  5
6BA
 10
1207.52
 20
-290.088
 30
0.000000
  70
    32
  0
VERTEX
  8
図枠
  5
6BB
 10
1207.56
 20
-290.118
 30
0.000000
  70
    32
  0
VERTEX
  8
図枠
  5
6BC
 10
1207.60
 20
-290.147
 30
0.000000
  70
    32
  0
VERTEX
  8
図枠
  5
6BD
 10
1207.64
 20
-290.177
 30
0.000000
  70
    32
  0
VERTEX
  8
図枠
  5
6BE
 10
1207.67
 20
-290.206
 30
0.000000
  70
    32
  0
VERTEX
  8
図枠
  5
6BF
 10
1207.71
 20
-290.236
 30
0.000000
  70
    32
  0
VERTEX
  8
図枠
  5
6C0
 10
1207.75
 20
-290.265
 30
0.000000
  70
    32
  0
VERTEX
  8
図枠
  5
6C1
 10
1207.79
 20
-290.294
 30
0.000000
  70
    32
  0
VERTEX
  8
図枠
  5
6C2
 10
1207.83
 20
-290.324
 30
0.000000
  70
    32
  0
VERTEX
  8
図枠
  5
6C3
 10
1207.86
 20
-290.353
 30
0.000000
  70
    32
  0
VERTEX
  8
図枠
  5
6C4
 10
1207.90
 20
-290.382
 30
0.000000
  70
    32
  0
VERTEX
  8
図枠
  5
6C5
 10
1207.94
 20
-290.411
 30
0.000000
  70
    32
  0
VERTEX
  8
図枠
  5
6C6
 10
1207.98
 20
-290.440
 30
0.000000
  70
    32
  0
VERTEX
  8
図枠
  5
6C7
 10
1208.02
 20
-290.468
 30
0.000000
  70
    32
  0
VERTEX
  8
図枠
  5
6C8
 10
1208.06
 20
-290.497
 30
0.000000
  70
    32
  0
VERTEX
  8
図枠
  5
6C9
 10
1208.09
 20
-290.526
 30
0.000000
  70
    32
  0
VERTEX
  8
図枠
  5
6CA
 10
1208.13
 20
-290.554
 30
0.000000
  70
    32
  0
VERTEX
  8
図枠
  5
6CB
 10
1208.17
 20
-290.583
 30
0.000000
  70
    32
  0
VERTEX
  8
図枠
  5
6CC
 10
1208.21
 20
-290.611
 30
0.000000
  70
    32
  0
VERTEX
  8
図枠
  5
6CD
 10
1208.25
 20
-290.640
 30
0.000000
  70
    32
  0
VERTEX
  8
図枠
  5
6CE
 10
1208.29
 20
-290.668
 30
0.000000
  70
    32
  0
VERTEX
  8
図枠
  5
6CF
 10
1208.33
 20
-290.696
 30
0.000000
  70
    32
  0
VERTEX
  8
図枠
  5
6D0
 10
1208.37
 20
-290.724
 30
0.000000
  70
    32
  0
VERTEX
  8
図枠
  5
6D1
 10
1208.40
 20
-290.752
 30
0.000000
  70
    32
  0
VERTEX
  8
図枠
  5
6D2
 10
1208.44
 20
-290.780
 30
0.000000
  70
    32
  0
VERTEX
  8
図枠
  5
6D3
 10
1208.48
 20
-290.808
 30
0.000000
  70
    32
  0
VERTEX
  8
図枠
  5
6D4
 10
1208.52
 20
-290.836
 30
0.000000
  70
    32
  0
VERTEX
  8
図枠
  5
6D5
 10
1208.56
 20
-290.864
 30
0.000000
  70
    32
  0
VERTEX
  8
図枠
  5
6D6
 10
1208.60
 20
-290.891
 30
0.000000
  70
    32
  0
VERTEX
  8
図枠
  5
6D7
 10
1208.64
 20
-290.919
 30
0.000000
  70
    32
  0
VERTEX
  8
図枠
  5
6D8
 10
1208.68
 20
-290.946
 30
0.000000
  70
    32
  0
VERTEX
  8
図枠
  5
6D9
 10
1208.72
 20
-290.973
 30
0.000000
  70
    32
  0
VERTEX
  8
図枠
  5
6DA
 10
1208.76
 20
-291.001
 30
0.000000
  70
    32
  0
VERTEX
  8
図枠
  5
6DB
 10
1208.79
 20
-291.028
 30
0.000000
  70
    32
  0
VERTEX
  8
図枠
  5
6DC
 10
1208.83
 20
-291.055
 30
0.000000
  70
    32
  0
VERTEX
  8
図枠
  5
6DD
 10
1208.87
 20
-291.082
 30
0.000000
  70
    32
  0
VERTEX
  8
図枠
  5
6DE
 10
1208.91
 20
-291.109
 30
0.000000
  70
    32
  0
VERTEX
  8
図枠
  5
6DF
 10
1208.95
 20
-291.135
 30
0.000000
  70
    32
  0
VERTEX
  8
図枠
  5
6E0
 10
1208.99
 20
-291.162
 30
0.000000
  70
    32
  0
VERTEX
  8
図枠
  5
6E1
 10
1209.03
 20
-291.189
 30
0.000000
  70
    32
  0
VERTEX
  8
図枠
  5
6E2
 10
1209.07
 20
-291.215
 30
0.000000
  70
    32
  0
VERTEX
  8
図枠
  5
6E3
 10
1209.11
 20
-291.242
 30
0.000000
  70
    32
  0
VERTEX
  8
図枠
  5
6E4
 10
1209.15
 20
-291.268
 30
0.000000
  70
    32
  0
VERTEX
  8
図枠
  5
6E5
 10
1209.19
 20
-291.294
 30
0.000000
  70
    32
  0
VERTEX
  8
図枠
  5
6E6
 10
1209.23
 20
-291.320
 30
0.000000
  70
    32
  0
VERTEX
  8
図枠
  5
6E7
 10
1209.27
 20
-291.346
 30
0.000000
  70
    32
  0
VERTEX
  8
図枠
  5
6E8
 10
1209.31
 20
-291.372
 30
0.000000
  70
    32
  0
VERTEX
  8
図枠
  5
6E9
 10
1209.35
 20
-291.398
 30
0.000000
  70
    32
  0
VERTEX
  8
図枠
  5
6EA
 10
1209.39
 20
-291.423
 30
0.000000
  70
    32
  0
VERTEX
  8
図枠
  5
6EB
 10
1209.43
 20
-291.449
 30
0.000000
  70
    32
  0
VERTEX
  8
図枠
  5
6EC
 10
1209.47
 20
-291.475
 30
0.000000
  70
    32
  0
VERTEX
  8
図枠
  5
6ED
 10
1209.51
 20
-291.500
 30
0.000000
  70
    32
  0
VERTEX
  8
図枠
  5
6EE
 10
1209.55
 20
-291.525
 30
0.000000
  70
    32
  0
VERTEX
  8
図枠
  5
6EF
 10
1209.59
 20
-291.550
 30
0.000000
  70
    32
  0
VERTEX
  8
図枠
  5
6F0
 10
1209.63
 20
-291.575
 30
0.000000
  70
    32
  0
VERTEX
  8
図枠
  5
6F1
 10
1209.67
 20
-291.600
 30
0.000000
  70
    32
  0
VERTEX
  8
図枠
  5
6F2
 10
1209.71
 20
-291.625
 30
0.000000
  70
    32
  0
VERTEX
  8
図枠
  5
6F3
 10
1209.75
 20
-291.650
 30
0.000000
  70
    32
  0
VERTEX
  8
図枠
  5
6F4
 10
1209.79
 20
-291.675
 30
0.000000
  70
    32
  0
VERTEX
  8
図枠
  5
6F5
 10
1209.84
 20
-291.699
 30
0.000000
  70
    32
  0
SEQEND
  8
図枠
  5
6F6
  0
INSERT
  5
FE
  8
0
  6
CONTINUOUS
  2
*U49
 10
0.0
 20
0.0
 30
0.0
  0
LINE
  5
FF
  8
図枠
 10
1230.9865886291
 20
-242.34739458659999
 30
0.0
 11
1230.9865886291
 21
-247.1473945866
 31
0.0
  0
LINE
  5
100
  8
図枠
 10
1198.5360465823001
 20
-285.59404865279998
 30
0.0
 11
1198.5360465823001
 21
-288.59404865279998
 31
0.0
  0
LINE
  5
101
  8
図枠
 10
1230.9865886291
 20
-247.1473945866
 30
0.0
 11
1240.5865886291001
 21
-249.54739458660001
 31
0.0
  0
LINE
  5
102
  8
図枠
 10
1203.8572587036001
 20
-281.59404865279998
 30
0.0
 11
1203.8572587036001
 21
-285.19404865280001
 31
0.0
  0
ARC
  5
103
  8
図枠
 10
1189.5360465823001
 20
-289.59404865279998
 30
0.0
 40
6.0
 50
270.0
 51
0.0
  0
LINE
  5
104
  8
図枠
 10
1103.2147536058001
 20
-233.7473945866
 30
0.0
 11
1103.2147536058001
 21
-299.74739458660002
 31
0.0
  0
INSERT
  5
105
  8
0
  6
CONTINUOUS
  2
*U50
 10
0.0
 20
0.0
 30
0.0
  0
INSERT
  5
106
  8
0
  6
CONTINUOUS
  2
*U51
 10
0.0
 20
0.0
 30
0.0
  0
INSERT
  5
107
  8
0
  6
CONTINUOUS
  2
*U52
 10
0.0
 20
0.0
 30
0.0
  0
INSERT
  5
108
  8
0
  6
CONTINUOUS
  2
*U53
 10
0.0
 20
0.0
 30
0.0
  0
LINE
  5
109
  8
図枠
 10
1178.2147536058001
 20
-255.7473945866
 30
0.0
 11
1178.2147536058001
 21
-277.74739458660002
 31
0.0
  0
LINE
  5
10A
  8
図枠
 10
1103.2147536058001
 20
-277.74739458660002
 30
0.0
 11
1393.2147536058001
 21
-277.74739458660002
 31
0.0
  0
LINE
  5
10B
  8
図枠
 10
1108.2147536058001
 20
-266.74739458660002
 30
0.0
 11
1173.2147536058001
 21
-266.74739458660002
 31
0.0
  0
LINE
  5
10C
  8
図枠
 10
1183.2147536058001
 20
-266.74739458660002
 30
0.0
 11
1248.2147536058001
 21
-266.74739458660002
 31
0.0
  0
INSERT
  5
10D
  8
0
  6
CONTINUOUS
  2
*U54
 10
0.0
 20
0.0
 30
0.0
  0
INSERT
  5
10E
  8
0
  6
CONTINUOUS
  2
*U55
 10
0.0
 20
0.0
 30
0.0
  0
LINE
  5
10F
  8
図枠
 10
1121.2147536058001
 20
-223.7473945866
 30
0.0
 11
1121.2147536058001
 21
-213.7473945866
 31
0.0
  0
LINE
  5
110
  8
図枠
 10
1103.2147536058001
 20
-223.7473945866
 30
0.0
 11
1103.2147536058001
 21
-213.7473945866
 31
0.0
  0
LINE
  5
111
  8
図枠
 10
1331.2147536058001
 20
-223.7473945866
 30
0.0
 11
1331.2147536058001
 21
-213.7473945866
 31
0.0
  0
LINE
  5
112
  8
図枠
 10
1313.2147536058001
 20
-223.7473945866
 30
0.0
 11
1313.2147536058001
 21
-213.7473945866
 31
0.0
  0
LINE
  5
113
  8
図枠
 10
1393.2147536058001
 20
-213.7473945866
 30
0.0
 11
1103.2147536058001
 21
-213.7473945866
 31
0.0
  0
LINE
  5
114
  8
図枠
 10
1103.2147536058001
 20
-223.7473945866
 30
0.0
 11
1393.2147536058001
 21
-223.7473945866
 31
0.0
  0
LINE
  5
115
  8
図枠
 10
1221.2147536058001
 20
-223.7473945866
 30
0.0
 11
1221.2147536058001
 21
-213.7473945866
 31
0.0
  0
INSERT
  5
116
  8
0
  6
CONTINUOUS
  2
*U56
 10
0.0
 20
0.0
 30
0.0
  0
INSERT
  5
117
  8
0
  6
CONTINUOUS
  2
*U57
 10
0.0
 20
0.0
 30
0.0
  0
CIRCLE
  5
118
  8
図枠
 10
1220.0147536058
 20
-244.7473945866
 30
0.0
 40
2.399999999999999
  0
LINE
  5
119
  8
図枠
 10
1230.9865886291
 20
-247.1473945866
 30
0.0
 11
1240.5865886291001
 21
-249.54739458660001
 31
0.0
  0
LINE
  5
11A
  8
図枠
 10
1230.9865886291
 20
-242.34739458659999
 30
0.0
 11
1230.9865886291
 21
-247.1473945866
 31
0.0
  0
LINE
  5
11B
  8
図枠
 10
1240.5865886291001
 20
-239.94739458660001
 30
0.0
 11
1240.5865886291001
 21
-249.54739458660001
 31
0.0
  0
LINE
  5
11C
  8
図枠
  6
BORDER
 10
1220.0147536058
 20
-237.54739458660001
 30
0.0
 11
1220.0147536058
 21
-251.94739458660001
 31
0.0
  0
LINE
  5
11D
  8
図枠
  6
BORDER
 10
1220.0147536058
 20
-237.54739458660001
 30
0.0
 11
1220.0147536058
 21
-251.94739458660001
 31
0.0
  0
LINE
  5
11E
  8
図枠
 10
1240.5865886291001
 20
-239.94739458660001
 30
0.0
 11
1240.5865886291001
 21
-249.54739458660001
 31
0.0
  0
LINE
  5
11F
  8
図枠
 10
1230.9865886291
 20
-242.34739458659999
 30
0.0
 11
1230.9865886291
 21
-247.1473945866
 31
0.0
  0
LINE
  5
120
  8
図枠
 10
1230.9865886291
 20
-247.1473945866
 30
0.0
 11
1240.5865886291001
 21
-249.54739458660001
 31
0.0
  0
LINE
  5
121
  8
図枠
 10
1230.9865886291
 20
-242.34739458659999
 30
0.0
 11
1240.5865886291001
 21
-239.94739458660001
 31
0.0
  0
CIRCLE
  5
122
  8
図枠
 10
1220.0147536058
 20
-244.7473945866
 30
0.0
 40
4.7999999999999989
  0
CIRCLE
  5
123
  8
図枠
 10
1220.0147536058
 20
-244.7473945866
 30
0.0
 40
2.399999999999999
  0
CIRCLE
  5
124
  8
図枠
 10
1220.0147536058
 20
-244.7473945866
 30
0.0
 40
4.7999999999999989
  0
LINE
  5
125
  8
図枠
 10
1230.9865886291
 20
-242.34739458659999
 30
0.0
 11
1240.5865886291001
 21
-239.94739458660001
 31
0.0
  0
ENDBLK
  5
126
  8
0
  0
BLOCK
  8
0
  2
CLUMP1
 70
     0
 10
0.0
 20
0.0
 30
0.0
  3
CLUMP1
  1

  0
LINE
  5
12B
  8
図枠
 10
1221.2147536058001
 20
-143.7473945866
 30
0.0
 11
1221.2147536058001
 21
-133.7473945866
 31
0.0
  0
LINE
  5
12C
  8
図枠
 10
1103.2147536058001
 20
-143.7473945866
 30
0.0
 11
1103.2147536058001
 21
-133.7473945866
 31
0.0
  0
LINE
  5
12D
  8
図枠
 10
1121.2147536058001
 20
-143.7473945866
 30
0.0
 11
1121.2147536058001
 21
-133.7473945866
 31
0.0
  0
LINE
  5
12E
  8
図枠
 10
1331.2147536058001
 20
-143.7473945866
 30
0.0
 11
1331.2147536058001
 21
-133.7473945866
 31
0.0
  0
LINE
  5
12F
  8
図枠
 10
1313.2147536058001
 20
-143.7473945866
 30
0.0
 11
1313.2147536058001
 21
-133.7473945866
 31
0.0
  0
LINE
  5
130
  8
図枠
 10
1393.2147536058001
 20
-133.7473945866
 30
0.0
 11
1103.2147536058001
 21
-133.7473945866
 31
0.0
  0
ENDBLK
  5
131
  8
0
  0
BLOCK
  8
0
  2
CLUMP2
 70
     0
 10
0.0
 20
0.0
 30
0.0
  3
CLUMP2
  1

  0
LINE
  5
135
  8
図枠
 10
1221.2147536058001
 20
-153.7473945866
 30
0.0
 11
1221.2147536058001
 21
-143.7473945866
 31
0.0
  0
LINE
  5
136
  8
図枠
 10
1103.2147536058001
 20
-153.7473945866
 30
0.0
 11
1103.2147536058001
 21
-143.7473945866
 31
0.0
  0
LINE
  5
137
  8
図枠
 10
1121.2147536058001
 20
-153.7473945866
 30
0.0
 11
1121.2147536058001
 21
-143.7473945866
 31
0.0
  0
LINE
  5
138
  8
図枠
 10
1331.2147536058001
 20
-153.7473945866
 30
0.0
 11
1331.2147536058001
 21
-143.7473945866
 31
0.0
  0
LINE
  5
139
  8
図枠
 10
1313.2147536058001
 20
-153.7473945866
 30
0.0
 11
1313.2147536058001
 21
-143.7473945866
 31
0.0
  0
LINE
  5
13A
  8
図枠
 10
1393.2147536058001
 20
-143.7473945866
 30
0.0
 11
1103.2147536058001
 21
-143.7473945866
 31
0.0
  0
ENDBLK
  5
13B
  8
0
  0
BLOCK
  8
0
  2
BALLON3
 70
     0
 10
0.0
 20
0.0
 30
0.0
  3
BALLON3
  1

  0
INSERT
  5
147
  8
0
  6
CONTINUOUS
  2
*U61
 10
0.0
 20
0.0
 30
0.0
  0
CIRCLE
  5
148
  8
ﾚｲﾔ_1
 10
724.84601609809988
 20
34.204858158200011
 30
0.0
 40
8.0
  0
LINE
  5
149
  8
寸法線
 10
738.17934943149987
 20
34.204858158200011
 30
0.0
 11
732.84601609809988
 21
34.204858158200011
 31
0.0
  0
LINE
  5
14A
  8
寸法線
 10
783.27833089999979
 20
-10.894123310399999
 30
0.0
 11
738.17934943149987
 21
34.204858158200011
 31
0.0
  0
SOLID
  5
14B
  8
寸法線
 10
783.27833089999979
 20
-10.894123310399999
 30
0.0
 11
776.49010580059996
 21
-6.3686399107999998
 31
0.0
 12
778.75284750039987
 22
-6.3686399107999998
 32
0.0
 13
778.75284750039987
 23
-6.3686399107999998
 33
0.0
  0
SOLID
  5
14C
  8
寸法線
 10
778.75284750039987
 20
-6.3686399107999998
 30
0.0
 11
778.75284750039987
 21
-4.1058982110000004
 31
0.0
 12
783.27833089999979
 22
-10.894123310399999
 32
0.0
 13
783.27833089999979
 23
-10.894123310399999
 33
0.0
  0
ENDBLK
  5
14D
  8
0
  0
BLOCK
  8
0
  2
*D9
 70
     1
 10
0.0
 20
0.0
 30
0.0
  3
*D9
  1

  0
TEXT
  5
150
  8
0
 62
     0
 10
703.67641643899992
 20
-56.660532927699997
 30
0.0
 40
5.9972220420999998
  1
37
 50
90.0
  0
LINE
  5
151
  8
0
 62
     0
 10
752.29444108479993
 20
-71.632761603399999
 30
0.0
 11
704.73474974049998
 21
-71.632761603399999
 31
0.0
  0
LINE
  5
152
  8
0
 62
     0
 10
822.29444110580005
 20
-34.632748908400011
 30
0.0
 11
704.73474974049998
 21
-34.632748908400011
 31
0.0
  0
LINE
  5
153
  8
0
 62
     0
 10
705.73474974049986
 20
-71.632761603399999
 30
0.0
 11
705.73474974049986
 21
-46.077199912299989
 31
0.0
  0
LINE
  5
154
  8
0
 62
     0
 10
705.73474974049986
 20
-71.632761603399999
 30
0.0
 11
705.73474974049986
 21
-60.188310599499999
 31
0.0
  0
LINE
  5
155
  8
0
 62
     0
 10
705.73474974049986
 20
-34.632748908400011
 30
0.0
 11
705.73474974049986
 21
-46.077199912299989
 31
0.0
  0
LINE
  5
156
  8
0
 62
     0
 10
705.73474974049986
 20
-34.632748908400011
 30
0.0
 11
705.73474974049986
 21
-60.188310599499999
 31
0.0
  0
LINE
  5
157
  8
0
 62
     0
 10
705.73474974049986
 20
-34.632748908400011
 30
0.0
 11
705.73474974049986
 21
-44.632748908400004
 31
0.0
  0
LINE
  5
158
  8
0
 62
     0
 10
706.77002591509995
 20
-38.496452159299999
 30
0.0
 11
705.73474974049986
 21
-34.632748908400011
 31
0.0
  0
LINE
  5
159
  8
0
 62
     0
 10
705.73474974049986
 20
-34.632748908400011
 30
0.0
 11
704.69947356600005
 21
-38.496452159299999
 31
0.0
  0
LINE
  5
15A
  8
0
 62
     0
 10
705.73474974049986
 20
-71.632761603399999
 30
0.0
 11
705.73474974049986
 21
-61.632761603399999
 31
0.0
  0
LINE
  5
15B
  8
0
 62
     0
 10
704.69947356600005
 20
-67.769058352499997
 30
0.0
 11
705.73474974049986
 21
-71.632761603399999
 31
0.0
  0
LINE
  5
15C
  8
0
 62
     0
 10
705.73474974049986
 20
-71.632761603399999
 30
0.0
 11
706.77002591509995
 21
-67.769058352499997
 31
0.0
  0
ENDBLK
  5
15D
  8
0
  0
BLOCK
  8
0
  2
*D10
 70
     1
 10
0.0
 20
0.0
 30
0.0
  3
*D10
  1

  0
TEXT
  5
163
  8
0
 62
     0
 10
815.47499692619988
 20
-214.407874956
 30
0.0
 40
5.9972220420999998
  1
%%c102
  0
LINE
  5
164
  8
0
 62
     0
 10
773.29444109049996
 20
-183.63276163669991
 30
0.0
 11
773.29444109049996
 21
-217.4662082575
 31
0.0
  0
LINE
  5
165
  8
0
 62
     0
 10
875.29444112110002
 20
-183.63276163669991
 30
0.0
 11
875.29444112110002
 21
-217.4662082575
 31
0.0
  0
LINE
  5
166
  8
0
 62
     0
 10
773.29444109049996
 20
-216.4662082575
 30
0.0
 11
836.64166295710004
 21
-216.4662082575
 31
0.0
  0
LINE
  5
167
  8
0
 62
     0
 10
773.29444109049996
 20
-216.4662082575
 30
0.0
 11
811.94721925440001
 21
-216.4662082575
 31
0.0
  0
LINE
  5
168
  8
0
 62
     0
 10
875.29444112110002
 20
-216.4662082575
 30
0.0
 11
836.64166295710004
 21
-216.4662082575
 31
0.0
  0
LINE
  5
169
  8
0
 62
     0
 10
875.29444112110002
 20
-216.4662082575
 30
0.0
 11
811.94721925440001
 21
-216.4662082575
 31
0.0
  0
LINE
  5
16A
  8
0
 62
     0
 10
875.29444112110002
 20
-216.4662082575
 30
0.0
 11
870.29444112109991
 21
-216.4662082575
 31
0.0
  0
LINE
  5
16B
  8
0
 62
     0
 10
871.43073787020012
 20
-217.50148443200001
 30
0.0
 11
875.29444112110002
 21
-216.4662082575
 31
0.0
  0
LINE
  5
16C
  8
0
 62
     0
 10
875.29444112110002
 20
-216.4662082575
 30
0.0
 11
871.43073787020012
 21
-215.43093208299999
 31
0.0
  0
LINE
  5
16D
  8
0
 62
     0
 10
773.29444109049996
 20
-216.4662082575
 30
0.0
 11
778.29444109050007
 21
-216.4662082575
 31
0.0
  0
LINE
  5
16E
  8
0
 62
     0
 10
777.15814434139998
 20
-215.43093208299999
 30
0.0
 11
773.29444109049996
 21
-216.4662082575
 31
0.0
  0
LINE
  5
16F
  8
0
 62
     0
 10
773.29444109049996
 20
-216.4662082575
 30
0.0
 11
777.15814434139998
 21
-217.50148443200001
 31
0.0
  0
ENDBLK
  5
170
  8
0
  0
BLOCK
  8
0
  2
CLUMP3
 70
     0
 10
0.0
 20
0.0
 30
0.0
  3
CLUMP3
  1

  0
LINE
  5
178
  8
UNASSIGNED
 10
765.06277823089988
 20
-170.6258102045
 30
0.0
 11
771.29444108990003
 21
-170.6258102045
 31
0.0
  0
ARC
  5
179
  8
UNASSIGNED
 10
771.29444108990003
 20
-172.62581020510001
 30
0.0
 40
2.0000000006
 50
0.0
 51
90.0
  0
LINE
  5
17A
  8
UNASSIGNED
 10
773.29444109049996
 20
-182.63276163669991
 30
0.0
 11
773.29444109049996
 21
-172.62581020510001
 31
0.0
  0
LINE
  5
17B
  8
UNASSIGNED
 10
780.29444109259987
 20
-189.63276163879999
 30
0.0
 11
868.29444111899977
 21
-189.63276163879999
 31
0.0
  0
ARC
  5
17C
  8
UNASSIGNED
 10
755.57756679940007
 20
-95.426743039100003
 30
0.0
 40
2.4852114293000001
 50
0.0
 51
61.927513000000012
  0
LINE
  5
17D
  8
UNASSIGNED
 10
772.54444109020005
 20
-71.632761603399999
 30
0.0
 11
754.29444108479993
 21
-71.632761603399999
 31
0.0
  0
ARC
  5
17E
  8
UNASSIGNED
 10
765.06277823089988
 20
-163.6258102024
 30
0.0
 40
7.0000000021000002
 50
180.0
 51
270.0
  0
ARC
  5
17F
  8
UNASSIGNED
 10
764.29444108780001
 20
-80.132761605900015
 30
0.0
 40
1.5000000003999989
 50
270.0
 51
90.0
  0
LINE
  5
180
  8
UNASSIGNED
 10
764.29444108780001
 20
-81.632761606399995
 30
0.0
 11
754.29444108479993
 21
-81.632761606399995
 31
0.0
  0
LINE
  5
181
  8
UNASSIGNED
 10
755.35326394219999
 20
-92.490541609599987
 30
0.0
 11
756.74707822839991
 21
-93.233908752700003
 31
0.0
  0
LINE
  5
182
  8
UNASSIGNED
 10
831.61353396509992
 20
-11.749463014
 30
0.0
 11
842.0526811110999
 21
-7.9499030128000001
 31
0.0
  0
LINE
  5
183
  8
UNASSIGNED
 10
841.71066968240007
 20
-7.0102358696999998
 30
0.0
 11
842.0526811110999
 21
-7.9499030128000001
 31
0.0
  0
ARC
  5
184
  8
UNASSIGNED
 10
845.2944411121
 20
-49.337140168099999
 30
0.0
 40
40.000000012000001
 50
110.000142
 51
180.0
  0
LINE
  5
185
  8
UNASSIGNED
 10
875.29444112110002
 20
-163.35363591660001
 30
0.0
 11
875.29444112110002
 21
-182.63276163669991
 31
0.0
  0
LINE
  5
186
  8
UNASSIGNED
 10
758.06277822880008
 20
-95.426743039100003
 30
0.0
 11
758.06277822880008
 21
-163.6258102024
 31
0.0
  0
ARC
  5
187
  8
UNASSIGNED
 10
877.29444112169983
 20
-163.35363591660001
 30
0.0
 40
2.0000000006
 50
90.0
 51
180.0
  0
LINE
  5
188
  8
UNASSIGNED
 10
893.78777541229999
 20
-161.353635916
 30
0.0
 11
877.29444112169983
 21
-161.353635916
 31
0.0
  0
LINE
  5
189
  8
UNASSIGNED
 10
764.29444108780001
 20
-78.632761605499994
 30
0.0
 11
754.29444108479993
 21
-78.632761605499994
 31
0.0
  0
ARC
  5
18A
  8
UNASSIGNED
 10
868.29444111899977
 20
-182.63276163669991
 30
0.0
 40
7.0000000021000002
 50
270.0
 51
0.0
  0
LINE
  5
18B
  8
UNASSIGNED
 10
855.39147254370005
 20
-44.597898738100007
 30
0.0
 11
906.13486541599991
 21
-26.128797303999999
 31
0.0
  0
LINE
  5
18C
  8
UNASSIGNED
 10
906.13486541599991
 20
-26.128797303999999
 30
0.0
 11
901.00454827160002
 21
-12.033431585500001
 31
0.0
  0
LINE
  5
18D
  8
UNASSIGNED
 10
843.29444111149985
 20
-71.632764460499999
 30
0.0
 11
876.29444112140004
 21
-71.632764460499999
 31
0.0
  0
LINE
  5
18E
  8
UNASSIGNED
 10
805.29444110009979
 20
-71.632764460499999
 30
0.0
 11
772.29444109020005
 21
-71.632764460499999
 31
0.0
  0
LINE
  5
18F
  8
UNASSIGNED
 10
843.33444968289984
 20
-47.922115881999993
 30
0.0
 11
855.04944682929988
 21
-43.658215880699998
 31
0.0
  0
LINE
  5
190
  8
UNASSIGNED
 10
855.3914568294
 20
-44.597898738100007
 30
0.0
 11
855.04944682929988
 21
-43.658215880699998
 31
0.0
  0
ARC
  5
191
  8
UNASSIGNED
 10
884.29444112380008
 20
-80.132761605900015
 30
0.0
 40
1.5000000005
 50
90.0
 51
270.0
  0
LINE
  5
192
  8
UNASSIGNED
 10
884.29444112380008
 20
-78.632761605499994
 30
0.0
 11
894.29444112679994
 21
-78.632761605499994
 31
0.0
  0
LINE
  5
193
  8
UNASSIGNED
 10
884.29444112380008
 20
-81.632761606399995
 30
0.0
 11
894.29444112679994
 21
-81.632761606399995
 31
0.0
  0
LINE
  5
194
  8
UNASSIGNED
 10
894.29444112679994
 20
-71.632761603399999
 30
0.0
 11
876.04444112129988
 21
-71.632761603399999
 31
0.0
  0
LINE
  5
195
  8
UNASSIGNED
 10
900.40326541429988
 20
-90.132770180300014
 30
0.0
 11
924.29444113580007
 21
-90.132770180300014
 31
0.0
  0
ARC
  5
196
  8
UNASSIGNED
 10
780.29444109259987
 20
-182.63276163669991
 30
0.0
 40
7.0000000021000002
 50
180.0
 51
270.0
  0
LINE
  5
197
  8
UNASSIGNED
 10
884.20307112369994
 20
-7.5068787270000001
 30
0.0
 11
897.58435827059998
 21
-2.6364872968999991
 31
0.0
  0
LINE
  5
198
  8
UNASSIGNED
 10
897.58432827060005
 20
-2.6364987255000001
 30
0.0
 11
892.45401541189995
 21
11.458854135899999
 31
0.0
  0
LINE
  5
199
  8
UNASSIGNED
 10
882.31605969460009
 20
7.7689284204999991
 30
0.0
 11
880.98454969419993
 21
11.4272084216
 31
0.0
  0
LINE
  5
19A
  8
UNASSIGNED
 10
874.99575683529997
 20
9.2326327066000005
 30
0.0
 11
876.32250540710004
 21
5.587458419799999
 31
0.0
  0
ARC
  5
19B
  8
UNASSIGNED
 10
876.29114683570003
 20
14.966352708300001
 30
0.0
 40
5.8782285732000004
 50
322.98122499999999
 51
257.26918000000001
  0
LINE
  5
19C
  8
UNASSIGNED
 10
841.71066968240007
 20
-7.0102058697
 30
0.0
 11
892.45401541189995
 21
11.458854135899999
 31
0.0
  0
LINE
  5
19D
  8
UNASSIGNED
 10
754.29444108479993
 20
-71.632761603399999
 30
0.0
 11
754.29444108479993
 21
-78.632761605499994
 31
0.0
  0
LINE
  5
19E
  8
UNASSIGNED
 10
924.29444113580007
 20
-169.132770204
 30
0.0
 11
900.40334970000015
 21
-169.132770204
 31
0.0
  0
ARC
  5
19F
  8
UNASSIGNED
 10
900.40334827150002
 20
-168.13280448949999
 30
0.0
 40
1.0000000003
 50
210.000123
 51
270.00012299999997
  0
LINE
  5
1A0
  8
UNASSIGNED
 10
924.29444113580007
 20
-169.132770204
 30
0.0
 11
924.29444113580007
 21
-90.132770180300014
 31
0.0
  0
ARC
  5
1A1
  8
UNASSIGNED
 10
900.40326541429988
 20
-91.132770180599991
 30
0.0
 40
1.0000000003
 50
90.0
 51
150.0
  0
ARC
  5
1A2
  8
UNASSIGNED
 10
893.78777541229999
 20
-164.0329430596
 30
0.0
 40
2.6793085722000001
 50
30.000122999999999
 51
90.0
  0
LINE
  5
1A3
  8
UNASSIGNED
 10
899.53732398550005
 20
-168.63280734669999
 30
0.0
 11
896.10812255589985
 21
-162.69328448780001
 31
0.0
  0
LINE
  5
1A4
  8
UNASSIGNED
 10
887.62328398190004
 20
-16.903821586900001
 30
0.0
 11
901.00455398589997
 21
-12.033428728300001
 31
0.0
  0
ARC
  5
1A5
  8
UNASSIGNED
 10
885.91316969570005
 20
-12.2053658712
 30
0.0
 40
5.0000000015000001
 50
110.000045
 51
290.00000699999998
  0
LINE
  5
1A6
  8
UNASSIGNED
 10
805.29444110009979
 20
-49.337140168099999
 30
0.0
 11
805.29444110009979
 21
-71.632764460499999
 31
0.0
  0
LINE
  5
1A7
  8
UNASSIGNED
 10
843.29444111149985
 20
-47.812191596199987
 30
0.0
 11
843.29444111149985
 21
-71.632764460499999
 31
0.0
  0
LINE
  5
1A8
  8
UNASSIGNED
 10
754.29444108479993
 20
-81.632761606399995
 30
0.0
 11
754.29444108479993
 21
-90.725835894799999
 31
0.0
  0
ARC
  5
1A9
  8
UNASSIGNED
 10
756.29444108539985
 20
-90.725835894799999
 30
0.0
 40
2.0000000006
 50
180.0
 51
241.927513
  0
ARC
  5
1AA
  8
UNASSIGNED
 10
893.7877025552001
 20
-95.232645896200012
 30
0.0
 40
2.6793085722000001
 50
118.072487
 51
330.0
  0
ARC
  5
1AB
  8
UNASSIGNED
 10
892.2944411261999
 20
-90.725835894799999
 30
0.0
 40
2.0000000006
 50
298.07248700000002
 51
0.0
  0
LINE
  5
1AC
  8
UNASSIGNED
 10
893.2356168407
 20
-92.490541609599987
 30
0.0
 11
892.52685112619997
 21
-92.868550181200007
 31
0.0
  0
LINE
  5
1AD
  8
UNASSIGNED
 10
899.53723969980001
 20
-90.632770180499989
 30
0.0
 11
896.10805112729986
 21
-96.572300182299998
 31
0.0
  0
LINE
  5
1AE
  8
UNASSIGNED
 10
894.29444112679994
 20
-71.632761603399999
 30
0.0
 11
894.29444112679994
 21
-78.632761605499994
 31
0.0
  0
LINE
  5
1AF
  8
UNASSIGNED
 10
894.29444112679994
 20
-81.632761606399995
 30
0.0
 11
894.29444112679994
 21
-90.725835894799999
 31
0.0
  0
ENDBLK
  5
1B0
  8
0
  0
BLOCK
  8
0
  2
*D12
 70
     1
 10
0.0
 20
0.0
 30
0.0
  3
*D12
  1

  0
TEXT
  5
1B3
  8
0
 62
     0
 10
703.67641643899992
 20
-135.9244281288
 30
0.0
 40
5.9972220420999998
  1
118
 50
90.0
  0
LINE
  5
1B4
  8
0
 62
     0
 10
778.29444109259998
 20
-189.63276163879999
 30
0.0
 11
704.73474974049998
 21
-189.63276163879999
 31
0.0
  0
LINE
  5
1B5
  8
0
 62
     0
 10
752.29444108479993
 20
-71.632761603399999
 30
0.0
 11
704.73474974049998
 21
-71.632761603399999
 31
0.0
  0
LINE
  5
1B6
  8
0
 62
     0
 10
705.73474974049986
 20
-189.63276163879999
 30
0.0
 11
705.73474974049986
 21
-121.8133174415
 31
0.0
  0
LINE
  5
1B7
  8
0
 62
     0
 10
705.73474974049986
 20
-189.63276163879999
 30
0.0
 11
705.73474974049986
 21
-139.45220580060001
 31
0.0
  0
LINE
  5
1B8
  8
0
 62
     0
 10
705.73474974049986
 20
-71.632761603399999
 30
0.0
 11
705.73474974049986
 21
-121.8133174415
 31
0.0
  0
LINE
  5
1B9
  8
0
 62
     0
 10
705.73474974049986
 20
-71.632761603399999
 30
0.0
 11
705.73474974049986
 21
-139.45220580060001
 31
0.0
  0
LINE
  5
1BA
  8
0
 62
     0
 10
705.73474974049986
 20
-71.632761603399999
 30
0.0
 11
705.73474974049986
 21
-81.632761603399999
 31
0.0
  0
LINE
  5
1BB
  8
0
 62
     0
 10
706.77002591509995
 20
-75.496464854199999
 30
0.0
 11
705.73474974049986
 21
-71.632761603399999
 31
0.0
  0
LINE
  5
1BC
  8
0
 62
     0
 10
705.73474974049986
 20
-71.632761603399999
 30
0.0
 11
704.69947356600005
 21
-75.496464854199999
 31
0.0
  0
LINE
  5
1BD
  8
0
 62
     0
 10
705.73474974049986
 20
-189.63276163879999
 30
0.0
 11
705.73474974049986
 21
-179.63276163879999
 31
0.0
  0
LINE
  5
1BE
  8
0
 62
     0
 10
704.69947356600005
 20
-185.7690583879
 30
0.0
 11
705.73474974049986
 21
-189.63276163879999
 31
0.0
  0
LINE
  5
1BF
  8
0
 62
     0
 10
705.73474974049986
 20
-189.63276163879999
 30
0.0
 11
706.77002591509995
 21
-185.7690583879
 31
0.0
  0
ENDBLK
  5
1C0
  8
0
  0
BLOCK
  8
0
  2
*D13
 70
     1
 10
0.0
 20
0.0
 30
0.0
  3
*D13
  1

  0
TEXT
  5
1C4
  8
0
 62
     0
 10
732.26795289730001
 20
-142.42442813069999
 30
0.0
 40
5.9972220420999998
  1
105
 50
90.0
  0
LINE
  5
1C5
  8
0
 62
     0
 10
753.29444108479993
 20
-84.632761607299997
 30
0.0
 11
733.32628619889988
 21
-84.632761607299997
 31
0.0
  0
LINE
  5
1C6
  8
0
 62
     0
 10
779.29444109259998
 20
-189.63276163879999
 30
0.0
 11
733.32628619889988
 21
-189.63276163879999
 31
0.0
  0
LINE
  5
1C7
  8
0
 62
     0
 10
734.32628619889999
 20
-84.632761607299997
 30
0.0
 11
734.32628619889999
 21
-128.31331744350001
 31
0.0
  0
LINE
  5
1C8
  8
0
 62
     0
 10
734.32628619889999
 20
-84.632761607299997
 30
0.0
 11
734.32628619889999
 21
-145.9522058025
 31
0.0
  0
LINE
  5
1C9
  8
0
 62
     0
 10
734.32628619889999
 20
-189.63276163879999
 30
0.0
 11
734.32628619889999
 21
-128.31331744350001
 31
0.0
  0
LINE
  5
1CA
  8
0
 62
     0
 10
734.32628619889999
 20
-189.63276163879999
 30
0.0
 11
734.32628619889999
 21
-145.9522058025
 31
0.0
  0
LINE
  5
1CB
  8
0
 62
     0
 10
734.32628619889999
 20
-189.63276163879999
 30
0.0
 11
734.32628619889999
 21
-184.63276163879999
 31
0.0
  0
LINE
  5
1CC
  8
0
 62
     0
 10
733.29101002429979
 20
-185.7690583879
 30
0.0
 11
734.32628619889999
 21
-189.63276163879999
 31
0.0
  0
LINE
  5
1CD
  8
0
 62
     0
 10
734.32628619889999
 20
-189.63276163879999
 30
0.0
 11
735.36156237339992
 21
-185.7690583879
 31
0.0
  0
LINE
  5
1CE
  8
0
 62
     0
 10
734.32628619889999
 20
-84.632761607299997
 30
0.0
 11
734.32628619889999
 21
-89.632761607299997
 31
0.0
  0
LINE
  5
1CF
  8
0
 62
     0
 10
735.36156237339992
 20
-88.496464858099998
 30
0.0
 11
734.32628619889999
 21
-84.632761607299997
 31
0.0
  0
LINE
  5
1D0
  8
0
 62
     0
 10
734.32628619889999
 20
-84.632761607299997
 30
0.0
 11
733.29101002429979
 21
-88.496464858099998
 31
0.0
  0
ENDBLK
  5
1D1
  8
0
  0
BLOCK
  8
0
  2
*D14
 70
     1
 10
0.0
 20
0.0
 30
0.0
  3
*D14
  1

  0
TEXT
  5
1D5
  8
0
 62
     0
 10
1017.1265082927
 20
-110.6605435715
 30
0.0
 40
5.9972220420999998
  1
45
 50
90.0
  0
LINE
  5
1D6
  8
0
 62
     0
 10
925.29444113580007
 20
-129.63277019220001
 30
0.0
 11
1020.1848415942
 21
-129.63277019220001
 31
0.0
  0
LINE
  5
1D7
  8
0
 62
     0
 10
895.29444112679994
 20
-84.632761607299997
 30
0.0
 11
1020.1848415942
 21
-84.632761607299997
 31
0.0
  0
LINE
  5
1D8
  8
0
 62
     0
 10
1019.1848415942
 20
-129.63277019220001
 30
0.0
 11
1019.1848415942
 21
-100.0772105561
 31
0.0
  0
LINE
  5
1D9
  8
0
 62
     0
 10
1019.1848415942
 20
-129.63277019220001
 30
0.0
 11
1019.1848415942
 21
-114.1883212434
 31
0.0
  0
LINE
  5
1DA
  8
0
 62
     0
 10
1019.1848415942
 20
-84.632761607299997
 30
0.0
 11
1019.1848415942
 21
-100.0772105561
 31
0.0
  0
LINE
  5
1DB
  8
0
 62
     0
 10
1019.1848415942
 20
-84.632761607299997
 30
0.0
 11
1019.1848415942
 21
-114.1883212434
 31
0.0
  0
LINE
  5
1DC
  8
0
 62
     0
 10
1019.1848415942
 20
-84.632761607299997
 30
0.0
 11
1019.1848415942
 21
-89.632761607299997
 31
0.0
  0
LINE
  5
1DD
  8
0
 62
     0
 10
1020.2201177688
 20
-88.496464858099998
 30
0.0
 11
1019.1848415942
 21
-84.632761607299997
 31
0.0
  0
LINE
  5
1DE
  8
0
 62
     0
 10
1019.1848415942
 20
-84.632761607299997
 30
0.0
 11
1018.1495654197
 21
-88.496464858099998
 31
0.0
  0
LINE
  5
1DF
  8
0
 62
     0
 10
1019.1848415942
 20
-129.63277019220001
 30
0.0
 11
1019.1848415942
 21
-124.6327701922
 31
0.0
  0
LINE
  5
1E0
  8
0
 62
     0
 10
1018.1495654197
 20
-125.7690669413
 30
0.0
 11
1019.1848415942
 21
-129.63277019220001
 31
0.0
  0
LINE
  5
1E1
  8
0
 62
     0
 10
1019.1848415942
 20
-129.63277019220001
 30
0.0
 11
1020.2201177688
 21
-125.7690669413
 31
0.0
  0
ENDBLK
  5
1E2
  8
0
  0
BLOCK
  8
0
  2
BALLON4
 70
     0
 10
0.0
 20
0.0
 30
0.0
  3
BALLON4
  1

  0
INSERT
  5
1E7
  8
0
  6
CONTINUOUS
  2
*U62
 10
0.0
 20
0.0
 30
0.0
  0
CIRCLE
  5
1E8
  8
ﾚｲﾔ_1
 10
974.38137925089995
 20
-195.3583728095
 30
0.0
 40
8.0
  0
LINE
  5
1E9
  8
寸法線
 10
961.04804591749985
 20
-195.3583728095
 30
0.0
 11
966.38137925089995
 21
-195.3583728095
 31
0.0
  0
LINE
  5
1EA
  8
寸法線
 10
883.09889541790005
 20
-153.632770204
 30
0.0
 11
961.04804591749985
 21
-195.3583728095
 31
0.0
  0
SOLID
  5
1EB
  8
寸法線
 10
883.09889541790005
 20
-153.632770204
 30
0.0
 11
890.90706486089994
 21
-155.9976147971999
 31
0.0
 12
888.74135735969992
 22
-156.65313826689999
 32
0.0
 13
888.74135735969992
 23
-156.65313826689999
 33
0.0
  0
SOLID
  5
1EC
  8
寸法線
 10
888.74135735969992
 20
-156.65313826689999
 30
0.0
 11
889.39688082940006
 21
-158.8188457681
 31
0.0
 12
883.09889541790005
 22
-153.632770204
 32
0.0
 13
883.09889541790005
 23
-153.632770204
 33
0.0
  0
ENDBLK
  5
1ED
  8
0
  0
BLOCK
  8
0
  2
BALLON5
 70
     0
 10
0.0
 20
0.0
 30
0.0
  3
BALLON5
  1

  0
INSERT
  5
1F1
  8
0
  6
CONTINUOUS
  2
*U63
 10
0.0
 20
0.0
 30
0.0
  0
CIRCLE
  5
1F2
  8
ﾚｲﾔ_1
 10
974.38137925089995
 20
-223.4226615524
 30
0.0
 40
8.0
  0
LINE
  5
1F3
  8
寸法線
 10
961.04804591749985
 20
-223.4226615524
 30
0.0
 11
966.38137925089995
 21
-223.4226615524
 31
0.0
  0
LINE
  5
1F4
  8
寸法線
 10
827.54442540119987
 20
-146.3443103095
 30
0.0
 11
961.04804591749985
 21
-223.4226615524
 31
0.0
  0
SOLID
  5
1F5
  8
寸法線
 10
827.54442540119987
 20
-146.3443103095
 30
0.0
 11
835.27262863149997
 21
-148.9586696634
 31
0.0
 12
833.08698798550006
 22
-149.54431030949999
 32
0.0
 13
833.08698798550006
 23
-149.54431030949999
 33
0.0
  0
SOLID
  5
1F6
  8
寸法線
 10
833.08698798550006
 20
-149.54431030949999
 30
0.0
 11
833.67262863149983
 21
-151.72995095549999
 31
0.0
 12
827.54442540119987
 22
-146.3443103095
 32
0.0
 13
827.54442540119987
 23
-146.3443103095
 33
0.0
  0
ENDBLK
  5
1F7
  8
0
  0
BLOCK
  8
0
  2
BALLON6
 70
     0
 10
0.0
 20
0.0
 30
0.0
  3
BALLON6
  1

  0
INSERT
  5
1FB
  8
0
  6
CONTINUOUS
  2
*U64
 10
0.0
 20
0.0
 30
0.0
  0
CIRCLE
  5
1FC
  8
ﾚｲﾔ_1
 10
974.38137925089995
 20
-49.123914011099991
 30
0.0
 40
8.0
  0
LINE
  5
1FD
  8
寸法線
 10
961.04804591749985
 20
-49.123914011099991
 30
0.0
 11
966.38137925089995
 21
-49.123914011099991
 31
0.0
  0
LINE
  5
1FE
  8
寸法線
 10
845.79442540669993
 20
-80.132761610599999
 30
0.0
 11
961.04804591749985
 21
-49.123914011099991
 31
0.0
  0
SOLID
  5
1FF
  8
寸法線
 10
845.79442540669993
 20
-80.132761610599999
 30
0.0
 11
853.10400887809988
 21
-76.509228876499989
 31
0.0
 12
851.97464849759979
 22
-78.469980041499994
 32
0.0
 13
851.97464849759979
 23
-78.469980041499994
 33
0.0
  0
SOLID
  5
200
  8
寸法線
 10
851.97464849759979
 20
-78.469980041499994
 30
0.0
 11
853.93539966259993
 21
-79.599340421899996
 31
0.0
 12
845.79442540669993
 22
-80.132761610599999
 32
0.0
 13
845.79442540669993
 23
-80.132761610599999
 33
0.0
  0
ENDBLK
  5
201
  8
0
  0
BLOCK
  8
0
  2
BALLON7
 70
     0
 10
0.0
 20
0.0
 30
0.0
  3
BALLON7
  1

  0
INSERT
  5
205
  8
0
  6
CONTINUOUS
  2
*U65
 10
0.0
 20
0.0
 30
0.0
  0
CIRCLE
  5
206
  8
ﾚｲﾔ_1
 10
974.38137925089995
 20
-10.540798069599999
 30
0.0
 40
8.0
  0
LINE
  5
207
  8
寸法線
 10
961.04804591749985
 20
-10.540798069599999
 30
0.0
 11
966.38137925089995
 21
-10.540798069599999
 31
0.0
  0
LINE
  5
208
  8
寸法線
 10
865.04444112679994
 20
-59.632761604399988
 30
0.0
 11
961.04804591749985
 21
-10.540798069599999
 31
0.0
  0
SOLID
  5
209
  8
寸法線
 10
865.04444112679994
 20
-59.632761604399988
 30
0.0
 11
871.43875963589994
 21
-54.565939049400001
 31
0.0
 12
870.74265883460009
 22
-56.718947102000001
 32
0.0
 13
870.74265883460009
 23
-56.718947102000001
 33
0.0
  0
SOLID
  5
20A
  8
寸法線
 10
870.74265883460009
 20
-56.718947102000001
 30
0.0
 11
872.89566688710011
 21
-57.4150479033
 31
0.0
 12
865.04444112679994
 22
-59.632761604399988
 32
0.0
 13
865.04444112679994
 23
-59.632761604399988
 33
0.0
  0
ENDBLK
  5
20B
  8
0
  0
BLOCK
  8
0
  2
*D19
 70
     1
 10
0.0
 20
0.0
 30
0.0
  3
*D19
  1

  0
TEXT
  5
211
  8
0
 62
     0
 10
871.82977476389988
 20
-29.108217433299998
 30
0.0
 40
5.9972220420999998
  1
4%%d
 50
100.8566887848
  0
ARC
  5
212
  8
0
 62
     0
 10
824.29444110580005
 20
-34.632748908400011
 30
0.0
 40
50.900079042400002
 50
11.1222928578
 51
19.9999918611
  0
ARC
  5
213
  8
0
 62
     0
 10
824.29444110580005
 20
-34.632748908400011
 30
0.0
 40
50.900079042400002
 50
9.9540115161999996
 51
18.831710519400001
  0
LINE
  5
214
  8
0
 62
     0
 10
876.11587451339983
 20
-29.460866862300001
 30
0.0
 11
874.42831181919985
 21
-25.834280075500001
 31
0.0
  0
LINE
  5
215
  8
0
 62
     0
 10
874.42831181919985
 20
-25.834280075500001
 30
0.0
 11
874.07649057279991
 21
-29.818777707500001
 31
0.0
  0
LINE
  5
216
  8
0
 62
     0
 10
869.83056699639997
 20
-13.947294919400001
 30
0.0
 11
872.12487225220002
 21
-17.223903373399999
 31
0.0
  0
LINE
  5
217
  8
0
 62
     0
 10
872.12487225220002
 20
-17.223903373399999
 30
0.0
 11
871.77624986039984
 21
-13.239124584500001
 31
0.0
  0
LINE
  5
218
  8
0
 62
     0
 10
889.74490029939989
 20
-35.756387809899998
 30
0.0
 11
876.69316433829988
 21
-39.5765700866
 31
0.0
  0
LINE
  5
219
  8
0
 62
     0
 10
901.08639473820006
 20
-6.6827759085
 30
0.0
 11
870.24548691349992
 21
-17.907943393099998
 31
0.0
  0
ENDBLK
  5
21A
  8
0
  0
BLOCK
  8
0
  2
BALLON8
 70
     0
 10
0.0
 20
0.0
 30
0.0
  3
BALLON8
  1

  0
INSERT
  5
21F
  8
0
  6
CONTINUOUS
  2
*U67
 10
0.0
 20
0.0
 30
0.0
  0
CIRCLE
  5
220
  8
ﾚｲﾔ_1
 10
887.48733065559986
 20
78.696317941299995
 30
0.0
 40
8.0
  0
LINE
  5
221
  8
寸法線
 10
874.1539973222998
 20
78.696317941299995
 30
0.0
 11
879.48733065559986
 21
78.696317941299995
 31
0.0
  0
LINE
  5
222
  8
寸法線
 10
849.41353562649988
 20
35.844581281400004
 30
0.0
 11
874.1539973222998
 21
78.696317941299995
 31
0.0
  0
SOLID
  5
223
  8
寸法線
 10
849.41353562649988
 20
35.844581281400004
 30
0.0
 11
852.02789498039976
 21
43.5727845117
 31
0.0
 12
852.61353562649992
 22
41.387143865600002
 32
0.0
 13
852.61353562649992
 23
41.387143865600002
 33
0.0
  0
SOLID
  5
224
  8
寸法線
 10
852.61353562649992
 20
41.387143865600002
 30
0.0
 11
854.79917627249995
 21
41.972784511699992
 31
0.0
 12
849.41353562649988
 22
35.844581281400004
 32
0.0
 13
849.41353562649988
 23
35.844581281400004
 33
0.0
  0
ENDBLK
  5
225
  8
0
  0
BLOCK
  8
0
  2
*D21
 70
     1
 10
0.0
 20
0.0
 30
0.0
  3
*D21
  1

  0
TEXT
  5
228
  8
0
 62
     0
 10
858.26667094519996
 20
35.355343437199998
 30
0.0
 40
5.9972220420999998
  1
75
  0
LINE
  5
229
  8
0
 62
     0
 10
899.2944561283
 20
-5.3349580125999987
 30
0.0
 11
899.2944561283
 21
34.297010135599997
 31
0.0
  0
LINE
  5
22A
  8
0
 62
     0
 10
824.29444110580005
 20
33.297010135599997
 30
0.0
 11
868.85000396059991
 21
33.297010135599997
 31
0.0
  0
LINE
  5
22B
  8
0
 62
     0
 10
824.29444110580005
 20
33.297010135599997
 30
0.0
 11
854.73889327339998
 21
33.297010135599997
 31
0.0
  0
LINE
  5
22C
  8
0
 62
     0
 10
899.2944561283
 20
33.297010135599997
 30
0.0
 11
868.85000396059991
 21
33.297010135599997
 31
0.0
  0
LINE
  5
22D
  8
0
 62
     0
 10
899.2944561283
 20
33.297010135599997
 30
0.0
 11
854.73889327339998
 21
33.297010135599997
 31
0.0
  0
LINE
  5
22E
  8
0
 62
     0
 10
899.2944561283
 20
33.297010135599997
 30
0.0
 11
889.2944561283
 21
33.297010135599997
 31
0.0
  0
LINE
  5
22F
  8
0
 62
     0
 10
895.43075287739998
 20
32.261733961099999
 30
0.0
 11
899.2944561283
 21
33.297010135599997
 31
0.0
  0
LINE
  5
230
  8
0
 62
     0
 10
899.2944561283
 20
33.297010135599997
 30
0.0
 11
895.43075287739998
 21
34.332286310199997
 31
0.0
  0
LINE
  5
231
  8
0
 62
     0
 10
824.29444110580005
 20
33.297010135599997
 30
0.0
 11
834.29444110580005
 21
33.297010135599997
 31
0.0
  0
LINE
  5
232
  8
0
 62
     0
 10
828.15814435669995
 20
34.332286310199997
 30
0.0
 11
824.29444110580005
 21
33.297010135599997
 31
0.0
  0
LINE
  5
233
  8
0
 62
     0
 10
824.29444110580005
 20
33.297010135599997
 30
0.0
 11
828.15814435669995
 21
32.261733961099999
 31
0.0
  0
ENDBLK
  5
234
  8
0
  0
BLOCK
  8
0
  2
*D22
 70
     1
 10
0.0
 20
0.0
 30
0.0
  3
*D22
  1

  0
TEXT
  5
238
  8
0
 62
     0
 10
838.74799971879997
 20
-156.97998347660001
 30
0.0
 40
5.9972220420999998
  1
封水 50
 50
90.0
  0
LINE
  5
239
  8
0
 62
     0
 10
855.79442540119987
 20
-119.6327616178
 30
0.0
 11
839.80633302029992
 21
-119.6327616178
 31
0.0
  0
LINE
  5
23A
  8
0
 62
     0
 10
850.79442539969989
 20
-169.6327616328
 30
0.0
 11
839.80633302029992
 21
-169.6327616328
 31
0.0
  0
LINE
  5
23B
  8
0
 62
     0
 10
840.80633302030014
 20
-119.6327616178
 30
0.0
 11
840.80633302030014
 21
-128.7577621021
 31
0.0
  0
LINE
  5
23C
  8
0
 62
     0
 10
840.80633302030014
 20
-119.6327616178
 30
0.0
 11
840.80633302030014
 21
-160.50776114839999
 31
0.0
  0
LINE
  5
23D
  8
0
 62
     0
 10
840.80633302030014
 20
-169.6327616328
 30
0.0
 11
840.80633302030014
 21
-128.7577621021
 31
0.0
  0
LINE
  5
23E
  8
0
 62
     0
 10
840.80633302030014
 20
-169.6327616328
 30
0.0
 11
840.80633302030014
 21
-160.50776114839999
 31
0.0
  0
LINE
  5
23F
  8
0
 62
     0
 10
840.80633302030014
 20
-169.6327616328
 30
0.0
 11
840.80633302030014
 21
-164.6327616328
 31
0.0
  0
LINE
  5
240
  8
0
 62
     0
 10
839.77105684579999
 20
-165.76905838190001
 30
0.0
 11
840.80633302030014
 21
-169.6327616328
 31
0.0
  0
LINE
  5
241
  8
0
 62
     0
 10
840.80633302030014
 20
-169.6327616328
 30
0.0
 11
841.8416091949
 21
-165.76905838190001
 31
0.0
  0
LINE
  5
242
  8
0
 62
     0
 10
840.80633302030014
 20
-119.6327616178
 30
0.0
 11
840.80633302030014
 21
-124.6327616178
 31
0.0
  0
LINE
  5
243
  8
0
 62
     0
 10
841.8416091949
 20
-123.4964648686
 30
0.0
 11
840.80633302030014
 21
-119.6327616178
 31
0.0
  0
LINE
  5
244
  8
0
 62
     0
 10
840.80633302030014
 20
-119.6327616178
 30
0.0
 11
839.77105684579999
 21
-123.4964648686
 31
0.0
  0
ENDBLK
  5
245
  8
0
  0
BLOCK
  8
0
  2
*D23
 70
     1
 10
0.0
 20
0.0
 30
0.0
  3
*D23
  1

  0
TEXT
  5
249
  8
0
 62
     0
 10
869.002774628
 20
-239.23212631729999
 30
0.0
 40
5.9972220420999998
  1
100
  0
LINE
  5
24A
  8
0
 62
     0
 10
924.29444113580007
 20
-170.132770204
 30
0.0
 11
924.29444113580007
 21
-242.2904596189
 31
0.0
  0
LINE
  5
24B
  8
0
 62
     0
 10
924.29444113580007
 20
-241.2904596189
 30
0.0
 11
883.11388531529985
 21
-241.2904596189
 31
0.0
  0
LINE
  5
24C
  8
0
 62
     0
 10
924.29444113580007
 20
-241.2904596189
 30
0.0
 11
865.4749969561999
 21
-241.2904596189
 31
0.0
  0
LINE
  5
24D
  8
0
 62
     0
 10
824.29444110580005
 20
-241.2904596189
 30
0.0
 11
883.11388531529985
 21
-241.2904596189
 31
0.0
  0
LINE
  5
24E
  8
0
 62
     0
 10
824.29444110580005
 20
-241.2904596189
 30
0.0
 11
865.4749969561999
 21
-241.2904596189
 31
0.0
  0
LINE
  5
24F
  8
0
 62
     0
 10
824.29444110580005
 20
-241.2904596189
 30
0.0
 11
834.29444110580005
 21
-241.2904596189
 31
0.0
  0
LINE
  5
250
  8
0
 62
     0
 10
828.15814435669995
 20
-240.2551834443
 30
0.0
 11
824.29444110580005
 21
-241.2904596189
 31
0.0
  0
LINE
  5
251
  8
0
 62
     0
 10
824.29444110580005
 20
-241.2904596189
 30
0.0
 11
828.15814435669995
 21
-242.32573579340001
 31
0.0
  0
LINE
  5
252
  8
0
 62
     0
 10
924.29444113580007
 20
-241.2904596189
 30
0.0
 11
914.29444113579996
 21
-241.2904596189
 31
0.0
  0
LINE
  5
253
  8
0
 62
     0
 10
920.43073788490005
 20
-242.32573579340001
 30
0.0
 11
924.29444113580007
 21
-241.2904596189
 31
0.0
  0
LINE
  5
254
  8
0
 62
     0
 10
924.29444113580007
 20
-241.2904596189
 30
0.0
 11
920.43073788490005
 21
-240.2551834443
 31
0.0
  0
ENDBLK
  5
255
  8
0
  0
BLOCK
  8
0
  2
*D24
 70
     1
 10
0.0
 20
0.0
 30
0.0
  3
*D24
  1

  0
TEXT
  5
259
  8
0
 62
     0
 10
991.12124006350007
 20
-137.319005027
 30
0.0
 40
5.9972220420999998
  1
%%c79
 50
90.0
  0
LINE
  5
25A
  8
0
 62
     0
 10
925.29444113580007
 20
-169.132770204
 30
0.0
 11
994.17957336500001
 21
-169.132770204
 31
0.0
  0
LINE
  5
25B
  8
0
 62
     0
 10
925.29444113580007
 20
-90.132770180300014
 30
0.0
 11
994.17957336500001
 21
-90.132770180300014
 31
0.0
  0
LINE
  5
25C
  8
0
 62
     0
 10
993.17957336500001
 20
-169.132770204
 30
0.0
 11
993.17957336500001
 21
-119.68011666789999
 31
0.0
  0
LINE
  5
25D
  8
0
 62
     0
 10
993.17957336500001
 20
-169.132770204
 30
0.0
 11
993.17957336500001
 21
-140.8467826987999
 31
0.0
  0
LINE
  5
25E
  8
0
 62
     0
 10
993.17957336500001
 20
-90.132770180300014
 30
0.0
 11
993.17957336500001
 21
-119.68011666789999
 31
0.0
  0
LINE
  5
25F
  8
0
 62
     0
 10
993.17957336500001
 20
-90.132770180300014
 30
0.0
 11
993.17957336500001
 21
-140.8467826987999
 31
0.0
  0
LINE
  5
260
  8
0
 62
     0
 10
993.17957336500001
 20
-90.132770180300014
 30
0.0
 11
993.17957336500001
 21
-95.132770180300014
 31
0.0
  0
LINE
  5
261
  8
0
 62
     0
 10
994.2148495396001
 20
-93.996473431199988
 30
0.0
 11
993.17957336500001
 21
-90.132770180300014
 31
0.0
  0
LINE
  5
262
  8
0
 62
     0
 10
993.17957336500001
 20
-90.132770180300014
 30
0.0
 11
992.14429719050008
 21
-93.996473431199988
 31
0.0
  0
LINE
  5
263
  8
0
 62
     0
 10
993.17957336500001
 20
-169.132770204
 30
0.0
 11
993.17957336500001
 21
-164.132770204
 31
0.0
  0
LINE
  5
264
  8
0
 62
     0
 10
992.14429719050008
 20
-165.2690669532
 30
0.0
 11
993.17957336500001
 21
-169.132770204
 31
0.0
  0
LINE
  5
265
  8
0
 62
     0
 10
993.17957336500001
 20
-169.132770204
 30
0.0
 11
994.2148495396001
 21
-165.2690669532
 31
0.0
  0
ENDBLK
  5
266
  8
0
  0
BLOCK
  8
0
  2
*D25
 70
     1
 10
0.0
 20
0.0
 30
0.0
  3
*D25
  1

  0
TEXT
  5
26A
  8
0
 62
     0
 10
958.01278235210009
 20
-143.63072608229999
 30
0.0
 40
5.9972220420999998
  1
Ｒｃ２
 50
90.0
  0
LINE
  5
26B
  8
0
 62
     0
 10
923.76882399249985
 20
-157.91309591500001
 30
0.0
 11
961.07111565360003
 21
-157.91309591500001
 31
0.0
  0
LINE
  5
26C
  8
0
 62
     0
 10
923.76876399249988
 20
-101.3524473266
 30
0.0
 11
961.07111565360003
 21
-101.3524473266
 31
0.0
  0
LINE
  5
26D
  8
0
 62
     0
 10
960.07111565360003
 20
-157.91309591500001
 30
0.0
 11
960.07111565360003
 21
-118.9362823796
 31
0.0
  0
LINE
  5
26E
  8
0
 62
     0
 10
960.07111565360003
 20
-157.91309591500001
 30
0.0
 11
960.07111565360003
 21
-147.1585037541
 31
0.0
  0
LINE
  5
26F
  8
0
 62
     0
 10
960.07111565360003
 20
-101.3524473266
 30
0.0
 11
960.07111565360003
 21
-118.9362823796
 31
0.0
  0
LINE
  5
270
  8
0
 62
     0
 10
960.07111565360003
 20
-101.3524473266
 30
0.0
 11
960.07111565360003
 21
-147.1585037541
 31
0.0
  0
LINE
  5
271
  8
0
 62
     0
 10
960.07111565360003
 20
-101.3524473266
 30
0.0
 11
960.07111565360003
 21
-106.3524473266
 31
0.0
  0
LINE
  5
272
  8
0
 62
     0
 10
961.10639182809985
 20
-105.2161505774
 30
0.0
 11
960.07111565360003
 21
-101.3524473266
 31
0.0
  0
LINE
  5
273
  8
0
 62
     0
 10
960.07111565360003
 20
-101.3524473266
 30
0.0
 11
959.03583947909999
 21
-105.2161505774
 31
0.0
  0
LINE
  5
274
  8
0
 62
     0
 10
960.07111565360003
 20
-157.91309591500001
 30
0.0
 11
960.07111565360003
 21
-152.91309591500001
 31
0.0
  0
LINE
  5
275
  8
0
 62
     0
 10
959.03583947909999
 20
-154.0493926641
 30
0.0
 11
960.07111565360003
 21
-157.91309591500001
 31
0.0
  0
LINE
  5
276
  8
0
 62
     0
 10
960.07111565360003
 20
-157.91309591500001
 30
0.0
 11
961.10639182809985
 21
-154.0493926641
 31
0.0
  0
ENDBLK
  5
277
  8
0
  0
BLOCK
  8
0
  2
CLUMP4
 70
     0
 10
0.0
 20
0.0
 30
0.0
  3
CLUMP4
  1

  0
LINE
  5
280
  8
図枠
 10
1221.2147536058001
 20
-163.7473945866
 30
0.0
 11
1221.2147536058001
 21
-153.7473945866
 31
0.0
  0
LINE
  5
281
  8
図枠
 10
1103.2147536058001
 20
-163.7473945866
 30
0.0
 11
1103.2147536058001
 21
-153.7473945866
 31
0.0
  0
LINE
  5
282
  8
図枠
 10
1121.2147536058001
 20
-163.7473945866
 30
0.0
 11
1121.2147536058001
 21
-153.7473945866
 31
0.0
  0
LINE
  5
283
  8
図枠
 10
1331.2147536058001
 20
-163.7473945866
 30
0.0
 11
1331.2147536058001
 21
-153.7473945866
 31
0.0
  0
LINE
  5
284
  8
図枠
 10
1313.2147536058001
 20
-163.7473945866
 30
0.0
 11
1313.2147536058001
 21
-153.7473945866
 31
0.0
  0
LINE
  5
285
  8
図枠
 10
1393.2147536058001
 20
-153.7473945866
 30
0.0
 11
1103.2147536058001
 21
-153.7473945866
 31
0.0
  0
ENDBLK
  5
286
  8
0
  0
BLOCK
  8
0
  2
CLUMP5
 70
     0
 10
0.0
 20
0.0
 30
0.0
  3
CLUMP5
  1

  0
LINE
  5
28B
  8
図枠
 10
1221.2147536058001
 20
-173.7473945866
 30
0.0
 11
1221.2147536058001
 21
-163.7473945866
 31
0.0
  0
LINE
  5
28C
  8
図枠
 10
1103.2147536058001
 20
-173.7473945866
 30
0.0
 11
1103.2147536058001
 21
-163.7473945866
 31
0.0
  0
LINE
  5
28D
  8
図枠
 10
1121.2147536058001
 20
-173.7473945866
 30
0.0
 11
1121.2147536058001
 21
-163.7473945866
 31
0.0
  0
LINE
  5
28E
  8
図枠
 10
1331.2147536058001
 20
-173.7473945866
 30
0.0
 11
1331.2147536058001
 21
-163.7473945866
 31
0.0
  0
LINE
  5
28F
  8
図枠
 10
1313.2147536058001
 20
-173.7473945866
 30
0.0
 11
1313.2147536058001
 21
-163.7473945866
 31
0.0
  0
LINE
  5
290
  8
図枠
 10
1393.2147536058001
 20
-163.7473945866
 30
0.0
 11
1103.2147536058001
 21
-163.7473945866
 31
0.0
  0
ENDBLK
  5
291
  8
0
  0
BLOCK
  8
0
  2
CLUMP6
 70
     0
 10
0.0
 20
0.0
 30
0.0
  3
CLUMP6
  1

  0
LINE
  5
296
  8
図枠
 10
1221.2147536058001
 20
-183.7473945866
 30
0.0
 11
1221.2147536058001
 21
-173.7473945866
 31
0.0
  0
LINE
  5
297
  8
図枠
 10
1103.2147536058001
 20
-183.7473945866
 30
0.0
 11
1103.2147536058001
 21
-173.7473945866
 31
0.0
  0
LINE
  5
298
  8
図枠
 10
1121.2147536058001
 20
-183.7473945866
 30
0.0
 11
1121.2147536058001
 21
-173.7473945866
 31
0.0
  0
LINE
  5
299
  8
図枠
 10
1331.2147536058001
 20
-183.7473945866
 30
0.0
 11
1331.2147536058001
 21
-173.7473945866
 31
0.0
  0
LINE
  5
29A
  8
図枠
 10
1313.2147536058001
 20
-183.7473945866
 30
0.0
 11
1313.2147536058001
 21
-173.7473945866
 31
0.0
  0
LINE
  5
29B
  8
図枠
 10
1393.2147536058001
 20
-173.7473945866
 30
0.0
 11
1103.2147536058001
 21
-173.7473945866
 31
0.0
  0
ENDBLK
  5
29C
  8
0
  0
BLOCK
  8
0
  2
CLUMP7
 70
     0
 10
0.0
 20
0.0
 30
0.0
  3
CLUMP7
  1

  0
LINE
  5
2A1
  8
図枠
 10
1221.2147536058001
 20
-193.7473945866
 30
0.0
 11
1221.2147536058001
 21
-183.7473945866
 31
0.0
  0
LINE
  5
2A2
  8
図枠
 10
1103.2147536058001
 20
-193.7473945866
 30
0.0
 11
1103.2147536058001
 21
-183.7473945866
 31
0.0
  0
LINE
  5
2A3
  8
図枠
 10
1121.2147536058001
 20
-193.7473945866
 30
0.0
 11
1121.2147536058001
 21
-183.7473945866
 31
0.0
  0
LINE
  5
2A4
  8
図枠
 10
1331.2147536058001
 20
-193.7473945866
 30
0.0
 11
1331.2147536058001
 21
-183.7473945866
 31
0.0
  0
LINE
  5
2A5
  8
図枠
 10
1313.2147536058001
 20
-193.7473945866
 30
0.0
 11
1313.2147536058001
 21
-183.7473945866
 31
0.0
  0
LINE
  5
2A6
  8
図枠
 10
1393.2147536058001
 20
-183.7473945866
 30
0.0
 11
1103.2147536058001
 21
-183.7473945866
 31
0.0
  0
ENDBLK
  5
2A7
  8
0
  0
BLOCK
  8
0
  2
CLUMP8
 70
     0
 10
0.0
 20
0.0
 30
0.0
  3
CLUMP8
  1

  0
LINE
  5
2AC
  8
図枠
 10
1221.2147536058001
 20
-203.7473945866
 30
0.0
 11
1221.2147536058001
 21
-193.7473945866
 31
0.0
  0
LINE
  5
2AD
  8
図枠
 10
1103.2147536058001
 20
-203.7473945866
 30
0.0
 11
1103.2147536058001
 21
-193.7473945866
 31
0.0
  0
LINE
  5
2AE
  8
図枠
 10
1121.2147536058001
 20
-203.7473945866
 30
0.0
 11
1121.2147536058001
 21
-193.7473945866
 31
0.0
  0
LINE
  5
2AF
  8
図枠
 10
1331.2147536058001
 20
-203.7473945866
 30
0.0
 11
1331.2147536058001
 21
-193.7473945866
 31
0.0
  0
LINE
  5
2B0
  8
図枠
 10
1313.2147536058001
 20
-203.7473945866
 30
0.0
 11
1313.2147536058001
 21
-193.7473945866
 31
0.0
  0
LINE
  5
2B1
  8
図枠
 10
1393.2147536058001
 20
-193.7473945866
 30
0.0
 11
1103.2147536058001
 21
-193.7473945866
 31
0.0
  0
ENDBLK
  5
2B2
  8
0
  0
BLOCK
  8
0
  2
CLUMP9
 70
     0
 10
0.0
 20
0.0
 30
0.0
  3
CLUMP9
  1

  0
LINE
  5
2B6
  8
図枠
 10
1221.2147536058001
 20
-213.7473945866
 30
0.0
 11
1221.2147536058001
 21
-203.7473945866
 31
0.0
  0
LINE
  5
2B7
  8
図枠
 10
1103.2147536058001
 20
-213.7473945866
 30
0.0
 11
1103.2147536058001
 21
-203.7473945866
 31
0.0
  0
LINE
  5
2B8
  8
図枠
 10
1121.2147536058001
 20
-213.7473945866
 30
0.0
 11
1121.2147536058001
 21
-203.7473945866
 31
0.0
  0
LINE
  5
2B9
  8
図枠
 10
1331.2147536058001
 20
-213.7473945866
 30
0.0
 11
1331.2147536058001
 21
-203.7473945866
 31
0.0
  0
LINE
  5
2BA
  8
図枠
 10
1313.2147536058001
 20
-213.7473945866
 30
0.0
 11
1313.2147536058001
 21
-203.7473945866
 31
0.0
  0
LINE
  5
2BB
  8
図枠
 10
1393.2147536058001
 20
-203.7473945866
 30
0.0
 11
1103.2147536058001
 21
-203.7473945866
 31
0.0
  0
ENDBLK
  5
2BC
  8
0
  0
BLOCK
  8
0
  2
CLUMP10
 70
     0
 10
0.0
 20
0.0
 30
0.0
  3
CLUMP10
  1

  0
LINE
  5
2C1
  8
図枠
 10
1221.2147536058001
 20
-133.7473945866
 30
0.0
 11
1221.2147536058001
 21
-123.7473945866
 31
0.0
  0
LINE
  5
2C2
  8
図枠
 10
1103.2147536058001
 20
-133.7473945866
 30
0.0
 11
1103.2147536058001
 21
-123.7473945866
 31
0.0
  0
LINE
  5
2C3
  8
図枠
 10
1121.2147536058001
 20
-133.7473945866
 30
0.0
 11
1121.2147536058001
 21
-123.7473945866
 31
0.0
  0
LINE
  5
2C4
  8
図枠
 10
1331.2147536058001
 20
-133.7473945866
 30
0.0
 11
1331.2147536058001
 21
-123.7473945866
 31
0.0
  0
LINE
  5
2C5
  8
図枠
 10
1313.2147536058001
 20
-133.7473945866
 30
0.0
 11
1313.2147536058001
 21
-123.7473945866
 31
0.0
  0
LINE
  5
2C6
  8
図枠
 10
1393.2147536058001
 20
-123.7473945866
 30
0.0
 11
1103.2147536058001
 21
-123.7473945866
 31
0.0
  0
ENDBLK
  5
2C7
  8
0
  0
BLOCK
  8
0
  2
*D33
 70
     1
 10
0.0
 20
0.0
 30
0.0
  3
*D33
  1

  0
TEXT
  5
2E0
  8
0
 62
     0
 10
939.65478186790006
 20
15.510155471099999
 30
0.0
 40
5.9972220420999998
  1
%%c40
 50
290.00008574639998
  0
LINE
  5
2E1
  8
0
 62
     0
 10
907.07455752500005
 20
-25.786775754400001
 30
0.0
 11
948.1217060086999
 21
-10.846765937500001
 31
0.0
  0
LINE
  5
2E2
  8
0
 62
     0
 10
893.39370752089997
 20
11.800875685499999
 30
0.0
 11
934.44085600460005
 21
26.740885502299999
 31
0.0
  0
LINE
  5
2E3
  8
0
 62
     0
 10
947.18201389979993
 20
-11.188787487200001
 30
0.0
 11
943.75346223719998
 21
-1.768963075699999
 31
0.0
  0
LINE
  5
2E4
  8
0
 62
     0
 10
947.18201389979993
 20
-11.188787487200001
 30
0.0
 11
936.51400632080004
 21
18.121185965900001
 31
0.0
  0
LINE
  5
2E5
  8
0
 62
     0
 10
933.50116389569996
 20
26.398863952700001
 30
0.0
 11
943.75346223719998
 21
-1.768963075699999
 31
0.0
  0
LINE
  5
2E6
  8
0
 62
     0
 10
933.50116389569996
 20
26.398863952700001
 30
0.0
 11
936.51400632080004
 21
18.121185965900001
 31
0.0
  0
LINE
  5
2E7
  8
0
 62
     0
 10
933.50116389569996
 20
26.398863952700001
 30
0.0
 11
935.21127164389998
 21
21.700403408
 31
0.0
  0
LINE
  5
2E8
  8
0
 62
     0
 10
935.79547452070005
 20
23.122259258100001
 30
0.0
 11
933.50116389569996
 21
26.398863952700001
 31
0.0
  0
LINE
  5
2E9
  8
0
 62
     0
 10
933.50116389569996
 20
26.398863952700001
 30
0.0
 11
933.84979281709991
 21
22.414085735099999
 31
0.0
  0
LINE
  5
2EA
  8
0
 62
     0
 10
947.18201389979993
 20
-11.188787487200001
 30
0.0
 11
945.47190615169995
 21
-6.4903269425000003
 31
0.0
  0
LINE
  5
2EB
  8
0
 62
     0
 10
944.8877032749001
 20
-7.9121827926000003
 30
0.0
 11
947.18201389979993
 21
-11.188787487200001
 31
0.0
  0
LINE
  5
2EC
  8
0
 62
     0
 10
947.18201389979993
 20
-11.188787487200001
 30
0.0
 11
946.83338497839998
 21
-7.2040092695000002
 31
0.0
  0
ENDBLK
  5
2ED
  8
0
  0
BLOCK
  8
0
  2
*D34
 70
     1
 10
0.0
 20
0.0
 30
0.0
  3
*D34
  1

  0
TEXT
  5
2F1
  8
0
 62
     0
 10
917.60936884249998
 20
6.8394893546000004
 30
0.0
 40
5.9972220420999998
  1
%%c32
 50
289.9999935052
  0
LINE
  5
2F2
  8
0
 62
     0
 10
905.70646950380001
 20
-22.0280186946
 30
0.0
 11
924.50032269489998
 21
-15.187617958500001
 31
0.0
  0
LINE
  5
2F3
  8
0
 62
     0
 10
894.761828326
 20
8.0421464111999992
 30
0.0
 11
913.55568151709997
 21
14.8825471473
 31
0.0
  0
LINE
  5
2F4
  8
0
 62
     0
 10
923.56063003530005
 20
-15.5296379953
 30
0.0
 11
921.70802139390003
 21
-10.439635790700001
 31
0.0
  0
LINE
  5
2F5
  8
0
 62
     0
 10
923.56063003530005
 20
-15.5296379953
 30
0.0
 11
914.46859749889995
 21
9.4505249058
 31
0.0
  0
LINE
  5
2F6
  8
0
 62
     0
 10
912.61598885750016
 20
14.540527110499999
 30
0.0
 11
921.70802139390003
 21
-10.439635790700001
 31
0.0
  0
LINE
  5
2F7
  8
0
 62
     0
 10
912.61598885750016
 20
14.540527110499999
 30
0.0
 11
914.46859749889995
 21
9.4505249058
 31
0.0
  0
LINE
  5
2F8
  8
0
 62
     0
 10
912.61598885750016
 20
14.540527110499999
 30
0.0
 11
914.32608904150004
 21
9.8420638126999993
 31
0.0
  0
LINE
  5
2F9
  8
0
 62
     0
 10
914.91029420740006
 20
11.2639187222
 30
0.0
 11
912.61598885750016
 21
14.540527110499999
 31
0.0
  0
LINE
  5
2FA
  8
0
 62
     0
 10
912.61598885750016
 20
14.540527110499999
 30
0.0
 11
912.96461136380015
 21
10.5557483316
 31
0.0
  0
LINE
  5
2FB
  8
0
 62
     0
 10
923.56063003530005
 20
-15.5296379953
 30
0.0
 11
921.85052985130005
 21
-10.8311746975
 31
0.0
  0
LINE
  5
2FC
  8
0
 62
     0
 10
921.26632468539992
 20
-12.2530296071
 30
0.0
 11
923.56063003530005
 21
-15.5296379953
 31
0.0
  0
LINE
  5
2FD
  8
0
 62
     0
 10
923.56063003530005
 20
-15.5296379953
 30
0.0
 11
923.21200752909999
 21
-11.544859216400001
 31
0.0
  0
ENDBLK
  5
2FE
  8
0
  0
BLOCK
  8
0
  2
*U35
 70
     1
 10
0.0
 20
0.0
 30
0.0
  3
*U35
  1

  0
TEXT
  5
397
  8
ﾚｲﾔ_1
  6
CONTINUOUS
 10
972.25217739720699
 20
5.2809525285999976
 30
0.0
 40
5.9972220420999998
  1
2
  0
ENDBLK
  5
399
  8
0
  0
BLOCK
  8
0
  2
*U36
 70
     1
 10
0.0
 20
0.0
 30
0.0
  3
*U36
  1

  0
TEXT
  5
39B
  8
ﾚｲﾔ_1
  6
CONTINUOUS
 10
972.28262014868972
 20
24.840786008999999
 30
0.0
 40
5.9972220420999998
  1
3
  0
ENDBLK
  5
39D
  8
0
  0
BLOCK
  8
0
  2
*U37
 70
     1
 10
0.0
 20
0.0
 30
0.0
  3
*U37
  1

  0
TEXT
  5
39F
  8
ﾚｲﾔ_1
  6
CONTINUOUS
 10
972.28262014868972
 20
-32.346348493900003
 30
0.0
 40
5.9972220420999998
  1
5
  0
ENDBLK
  5
3A1
  8
0
  0
BLOCK
  8
0
  2
*U38
 70
     1
 10
0.0
 20
0.0
 30
0.0
  3
*U38
  1

  0
TEXT
  5
3A3
  8
図枠
  6
CONTINUOUS
 10
1279.0766955928509
 20
252.75112072704309
 30
0.0
 40
5.3974999188999986
  1
改　訂　内　容
  0
ENDBLK
  5
3A5
  8
0
  0
BLOCK
  8
0
  2
*U39
 70
     1
 10
0.0
 20
0.0
 30
0.0
  3
*U39
  1

  0
TEXT
  5
3A7
  8
図枠
  6
CONTINUOUS
 10
1226.9266255877949
 20
252.80591768053449
 30
0.0
 40
5.3974999188999986
  1
改訂日
  0
ENDBLK
  5
3A9
  8
0
  0
BLOCK
  8
0
  2
*U40
 70
     1
 10
0.0
 20
0.0
 30
0.0
  3
*U40
  1

  0
TEXT
  5
3AB
  8
図枠
  6
CONTINUOUS
 10
1206.4610290879889
 20
252.8607146340259
 30
0.0
 40
5.3974999188999986
  1
副番
  0
ENDBLK
  5
3AD
  8
0
  0
BLOCK
  8
0
  2
*U41
 70
     1
 10
0.0
 20
0.0
 30
0.0
  3
*U41
  1

  0
TEXT
  5
3AF
  8
図枠
  6
CONTINUOUS
 10
1114.0944274793001
 20
-293.79549424621069
 30
0.0
 40
10.794999837900001
  1
株式会社
  0
ENDBLK
  5
3B1
  8
0
  0
BLOCK
  8
0
  2
*U42
 70
     1
 10
0.0
 20
0.0
 30
0.0
  3
*U42
  1

  0
TEXT
  5
3B3
  8
図枠
  6
CONTINUOUS
 10
1373.132114163388
 20
252.7237222502975
 30
0.0
 40
5.3974999188999986
  1
検認者
  0
ENDBLK
  5
3B5
  8
0
  0
BLOCK
  8
0
  2
*U43
 70
     1
 10
0.0
 20
0.0
 30
0.0
  3
*U43
  1

  0
TEXT
  5
3B7
  8
図枠
  6
CONTINUOUS
 10
1255.9449357793051
 20
-285.12727313759638
 30
0.0
 40
5.9972220420999998
  1
図 番
  0
ENDBLK
  5
3B9
  8
0
  0
BLOCK
  8
0
  2
*U44
 70
     1
 10
0.0
 20
0.0
 30
0.0
  3
*U44
  1

  0
TEXT
  5
3BB
  8
図枠
  6
CONTINUOUS
 10
1253.8596073027379
 20
-241.24904414352741
 30
0.0
 40
5.9972220420999998
  1
製品名
  0
ENDBLK
  5
3BD
  8
0
  0
BLOCK
  8
0
  2
*U45
 70
     1
 10
0.0
 20
0.0
 30
0.0
  3
*U45
  1

  0
TEXT
  5
3BF
  8
図枠
  6
CONTINUOUS
 10
1254.027042435893
 20
-263.18815864056188
 30
0.0
 40
5.9972220420999998
  1
図面名
  0
ENDBLK
  5
3C1
  8
0
  0
BLOCK
  8
0
  2
*U46
 70
     1
 10
0.0
 20
0.0
 30
0.0
  3
*U46
  1

  0
TEXT
  5
3C3
  8
図枠
  6
CONTINUOUS
 10
1113.617454269825
 20
-241.8856612140309
 30
0.0
 40
5.9972220420999998
  1
日　　付
  0
ENDBLK
  5
3C5
  8
0
  0
BLOCK
  8
0
  2
*U47
 70
     1
 10
0.0
 20
0.0
 30
0.0
  3
*U47
  1

  0
TEXT
  5
3C7
  8
図枠
  6
CONTINUOUS
 10
1162.978156488688
 20
-242.06831772292739
 30
0.0
 40
5.9972220420999998
  1
尺　　度
  0
ENDBLK
  5
3C9
  8
0
  0
BLOCK
  8
0
  2
*U48
 70
     1
 10
0.0
 20
0.0
 30
0.0
  3
*U48
  1

  0
TEXT
  5
3CB
  8
図枠
  6
CONTINUOUS
 10
1353.2143095936251
 20
252.75112072704309
 30
0.0
 40
5.3974999188999986
  1
改訂者
  0
ENDBLK
  5
3CD
  8
0
  0
BLOCK
  8
0
  2
*U49
 70
     1
 10
0.0
 20
0.0
 30
0.0
  3
*U49
  1

  0
TEXT
  5
3CF
  8
図枠
  6
CONTINUOUS
 10
1104.908493249942
 20
-221.3992731375964
 30
0.0
 40
5.9972220420999998
  1
品番
  0
ENDBLK
  5
3D1
  8
0
  0
BLOCK
  8
0
  2
*U50
 70
     1
 10
0.0
 20
0.0
 30
0.0
  3
*U50
  1

  0
TEXT
  5
3D3
  8
図枠
  6
CONTINUOUS
 10
1103.2147536058001
 20
-275.06831772292742
 30
0.0
 40
5.9972220420999998
  1
 製図
  0
ENDBLK
  5
3D5
  8
0
  0
BLOCK
  8
0
  2
*U51
 70
     1
 10
0.0
 20
0.0
 30
0.0
  3
*U51
  1

  0
TEXT
  5
3D7
  8
図枠
  6
CONTINUOUS
 10
1103.2147536058001
 20
-264.00743221996191
 30
0.0
 40
5.9972220420999998
  1
 設計
  0
ENDBLK
  5
3D9
  8
0
  0
BLOCK
  8
0
  2
*U52
 70
     1
 10
0.0
 20
0.0
 30
0.0
  3
*U52
  1

  0
TEXT
  5
3DB
  8
図枠
  6
CONTINUOUS
 10
1178.2147536058001
 20
-275.09876047441008
 30
0.0
 40
5.9972220420999998
  1
 検図
  0
ENDBLK
  5
3DD
  8
0
  0
BLOCK
  8
0
  2
*U53
 70
     1
 10
0.0
 20
0.0
 30
0.0
  3
*U53
  1

  0
TEXT
  5
3DF
  8
図枠
  6
CONTINUOUS
 10
1178.2147536058001
 20
-264.03787497144469
 30
0.0
 40
5.9972220420999998
  1
 照査
  0
ENDBLK
  5
3E1
  8
0
  0
BLOCK
  8
0
  2
*U54
 70
     1
 10
0.0
 20
0.0
 30
0.0
  3
*U54
  1

  0
TEXT
  5
3E3
  8
図枠
  6
CONTINUOUS
 10
1314.710615365304
 20
-221.5210441435274
 30
0.0
 40
5.9972220420999998
  1
数量
  0
ENDBLK
  5
3E5
  8
0
  0
BLOCK
  8
0
  2
*U55
 70
     1
 10
0.0
 20
0.0
 30
0.0
  3
*U55
  1

  0
TEXT
  5
3E7
  8
図枠
  6
CONTINUOUS
 10
1343.736003455776
 20
-221.61237239797561
 30
0.0
 40
5.9972220420999998
  1
備　　　考
  0
ENDBLK
  5
3E9
  8
0
  0
BLOCK
  8
0
  2
*U56
 70
     1
 10
0.0
 20
0.0
 30
0.0
  3
*U56
  1

  0
TEXT
  5
3EB
  8
図枠
  6
CONTINUOUS
 10
1248.0205987959321
 20
-221.4297158890792
 30
0.0
 40
5.9972220420999998
  1
材　　　質
  0
ENDBLK
  5
3ED
  8
0
  0
BLOCK
  8
0
  2
*U57
 70
     1
 10
0.0
 20
0.0
 30
0.0
  3
*U57
  1

  0
TEXT
  5
3EF
  8
図枠
  6
CONTINUOUS
 10
1152.2489194320519
 20
-221.4601586405619
 30
0.0
 40
5.9972220420999998
  1
品　　　名
  0
ENDBLK
  5
3F1
  8
0
  0
BLOCK
  8
0
  2
*U58
 70
     1
 10
0.0
 20
0.0
 30
0.0
  3
*U58
  1

  0
TEXT
  5
3F3
  8
図枠
  6
CONTINUOUS
 10
1141.2590861467829
 20
-141.73414340390659
 30
0.0
 40
5.9972220420999998
  1
２０°洗濯エルボ
  0
ENDBLK
  5
3F5
  8
0
  0
BLOCK
  8
0
  2
*U59
 70
     1
 10
0.0
 20
0.0
 30
0.0
  3
*U59
  1

  0
TEXT
  5
3F7
  8
図枠
  6
CONTINUOUS
 10
1136.6622306728891
 20
-161.8559144098376
 30
0.0
 40
5.9972220420999998
  1
スリップワッシャー
  0
ENDBLK
  5
3F9
  8
0
  0
BLOCK
  8
0
  2
*U60
 70
     1
 10
0.0
 20
0.0
 30
0.0
  3
*U60
  1

  0
TEXT
  5
3FB
  8
図枠
  6
CONTINUOUS
 10
1155.8259427312739
 20
-151.3992731375964
 30
0.0
 40
5.9972220420999998
  1
パッキン
  0
ENDBLK
  5
3FD
  8
0
  0
BLOCK
  8
0
  2
*U61
 70
     1
 10
0.0
 20
0.0
 30
0.0
  3
*U61
  1

  0
TEXT
  5
3FF
  8
ﾚｲﾔ_1
  6
CONTINUOUS
 10
722.74725699588976
 20
31.735413787900001
 30
0.0
 40
5.9972220420999998
  1
8
  0
ENDBLK
  5
401
  8
0
  0
BLOCK
  8
0
  2
*U62
 70
     1
 10
0.0
 20
0.0
 30
0.0
  3
*U62
  1

  0
TEXT
  5
403
  8
ﾚｲﾔ_1
  6
CONTINUOUS
 10
971.85642162793147
 20
-197.82781717980001
 30
0.0
 40
5.9972220420999998
  1
1
  0
ENDBLK
  5
405
  8
0
  0
BLOCK
  8
0
  2
*U63
 70
     1
 10
0.0
 20
0.0
 30
0.0
  3
*U63
  1

  0
TEXT
  5
407
  8
ﾚｲﾔ_1
  6
CONTINUOUS
 10
972.37394840313823
 20
-225.8921059226
 30
0.0
 40
5.9972220420999998
  1
4
  0
ENDBLK
  5
409
  8
0
  0
BLOCK
  8
0
  2
*U64
 70
     1
 10
0.0
 20
0.0
 30
0.0
  3
*U64
  1

  0
TEXT
  5
40B
  8
ﾚｲﾔ_1
  6
CONTINUOUS
 10
972.13040639127632
 20
-51.593358381400002
 30
0.0
 40
5.9972220420999998
  1
7
  0
ENDBLK
  5
40D
  8
0
  0
BLOCK
  8
0
  2
*U65
 70
     1
 10
0.0
 20
0.0
 30
0.0
  3
*U65
  1

  0
TEXT
  5
40F
  8
ﾚｲﾔ_1
  6
CONTINUOUS
 10
972.19129189424154
 20
-13.010242439900001
 30
0.0
 40
5.9972220420999998
  1
6
  0
ENDBLK
  5
411
  8
0
  0
BLOCK
  8
0
  2
*D66
 70
     1
 10
0.0
 20
0.0
 30
0.0
  3
*D66
  1

  0
LINE
  5
414
  8
寸法線
 62
     0
 10
958.48986852756445
 20
14.21037065978495
 30
0.0
 11
823.11982526908707
 21
-35.06027392070115
 31
0.0
  0
LINE
  5
415
  8
寸法線
 62
     0
 10
997.28238641729024
 20
-4.2734524162886478
 30
0.0
 11
823.06325758760374
 21
-34.848820990173181
 31
0.0
  0
SOLID
  5
416
  8
寸法線
 62
     0
 10
820.44350351365756
 20
-35.349097128713169
 30
0.0
 11
820.88399145495623
 21
-36.559328335877531
 31
0.0
 12
824.29444110580005
 22
-34.632748908399968
 32
0.0
 13
824.29444110580005
 23
-34.632748908399968
 33
0.0
  0
SOLID
  5
417
  8
寸法線
 62
     0
 10
820.37758710912908
 20
-34.666362597326049
 30
0.0
 11
820.60021068373578
 21
-35.934876667115248
 31
0.0
 12
824.29444110580005
 22
-34.632748908399968
 32
0.0
 13
824.29444110580005
 23
-34.632748908399968
 33
0.0
  0
TEXT
  8
寸法線
  40
5.99722
  5
6F7
  62
0
  72
0
  71
0
 10
862.289
 20
-35.6606
 30
0.000000
  1
350°
  0
POINT
  5
419
  8
Defpoints
 62
     0
 10
824.29444110580005
 20
-34.632748908399968
 30
0.0
  0
POINT
  5
41A
  8
Defpoints
 62
     0
 10
958.54859931940007
 20
14.23174691040003
 30
0.0
  0
POINT
  5
41B
  8
Defpoints
 62
     0
 10
997.34394559320015
 20
-4.2626488121999841
 30
0.0
  0
POINT
  5
41C
  8
Defpoints
 62
     0
 10
824.29444110580005
 20
-34.632748908399968
 30
0.0
  0
ENDBLK
  5
41E
  8
0
  0
BLOCK
  8
0
  2
*U67
 70
     1
 10
0.0
 20
0.0
 30
0.0
  3
*U67
  1

  0
TEXT
  5
420
  8
ﾚｲﾔ_1
  6
CONTINUOUS
 10
885.3276860504244
 20
76.226873570999999
 30
0.0
 40
5.9972220420999998
  1
9
  0
ENDBLK
  5
422
  8
0
  0
BLOCK
  8
0
  2
*U68
 70
     1
 10
0.0
 20
0.0
 30
0.0
  3
*U68
  1

  0
TEXT
  5
424
  8
図枠
  6
CONTINUOUS
 10
1156.023820615912
 20
-211.55148689501021
 30
0.0
 40
5.9972220420999998
  1
本　　体
  0
ENDBLK
  5
426
  8
0
  0
BLOCK
  8
0
  2
*U69
 70
     1
 10
0.0
 20
0.0
 30
0.0
  3
*U69
  1

  0
TEXT
  5
428
  8
図枠
  6
CONTINUOUS
 10
1214.5118210601511
 20
-274.91610396551368
 30
0.0
 40
5.9972220420999998
  1
園　原
  0
ENDBLK
  5
42A
  8
0
  0
BLOCK
  8
0
  2
*U70
 70
     1
 10
0.0
 20
0.0
 30
0.0
  3
*U70
  1

  0
TEXT
  5
42C
  8
図枠
  6
CONTINUOUS
 10
1152.5533469468801
 20
-171.3992731375964
 30
0.0
 40
5.9972220420999998
  1
Ｕパッキン
  0
ENDBLK
  5
42E
  8
0
  0
BLOCK
  8
0
  2
*U71
 70
     1
 10
0.0
 20
0.0
 30
0.0
  3
*U71
  1

  0
TEXT
  5
430
  8
図枠
  6
CONTINUOUS
 10
1152.0510415474139
 20
-181.61237239797561
 30
0.0
 40
5.9972220420999998
  1
封　水　筒
  0
ENDBLK
  5
432
  8
0
  0
BLOCK
  8
0
  2
*U72
 70
     1
 10
0.0
 20
0.0
 30
0.0
  3
*U72
  1

  0
TEXT
  5
434
  8
図枠
  6
CONTINUOUS
 10
1156.541347391119
 20
-191.2166166287
 30
0.0
 40
5.9972220420999998
  1
目　　皿
  0
ENDBLK
  5
436
  8
0
  0
BLOCK
  8
0
  2
*U73
 70
     1
 10
0.0
 20
0.0
 30
0.0
  3
*U73
  1

  0
TEXT
  5
438
  8
図枠
  6
CONTINUOUS
 10
1167.6529516823191
 20
-201.5210441435274
 30
0.0
 40
5.9972220420999998
  1
枠
  0
ENDBLK
  5
43A
  8
0
  0
BLOCK
  8
0
  2
*U74
 70
     1
 10
0.0
 20
0.0
 30
0.0
  3
*U74
  1

  0
TEXT
  5
43C
  8
図枠
  6
CONTINUOUS
 10
1144.2576971678329
 20
-131.5514868950101
 30
0.0
 40
5.9972220420999998
  1
ホース固定金具
  0
ENDBLK
  5
43E
  8
0
  0
BLOCK
  8
0
  2
*U75
 70
     1
 10
0.0
 20
0.0
 30
0.0
  3
*U75
  1

  0
TEXT
  5
440
  8
図枠
  6
CONTINUOUS
 10
1320.646951904439
 20
-131.2166166287
 30
0.0
 40
5.9972220420999998
  1
1
  0
ENDBLK
  5
442
  8
0
  0
BLOCK
  8
0
  2
*U76
 70
     1
 10
0.0
 20
0.0
 30
0.0
  3
*U76
  1

  0
TEXT
  5
444
  8
図枠
  6
CONTINUOUS
 10
1233.362413956992
 20
-131.5210441435274
 30
0.0
 40
5.9972220420999998
  1
ステンレス(SUS304)
  0
ENDBLK
  5
446
  8
0
  0
BLOCK
  8
0
  2
*U77
 70
     1
 10
0.0
 20
0.0
 30
0.0
  3
*U77
  1

  0
TEXT
  5
448
  8
図枠
  6
CONTINUOUS
 10
1320.646951904439
 20
-141.2166166287
 30
0.0
 40
5.9972220420999998
  1
1
  0
ENDBLK
  5
44A
  8
0
  0
BLOCK
  8
0
  2
*U78
 70
     1
 10
0.0
 20
0.0
 30
0.0
  3
*U78
  1

  0
TEXT
  5
44C
  8
図枠
  6
CONTINUOUS
 10
1243.0279875527619
 20
-141.5514868950101
 30
0.0
 40
5.9972220420999998
  1
合成ゴム(NBR)
  0
ENDBLK
  5
44E
  8
0
  0
BLOCK
  8
0
  2
*U79
 70
     1
 10
0.0
 20
0.0
 30
0.0
  3
*U79
  1

  0
TEXT
  5
450
  8
図枠
  6
CONTINUOUS
 10
1244.154369357623
 20
-161.73414340390659
 30
0.0
 40
5.9972220420999998
  1
ポリエチレン
  0
ENDBLK
  5
452
  8
0
  0
BLOCK
  8
0
  2
*U80
 70
     1
 10
0.0
 20
0.0
 30
0.0
  3
*U80
  1

  0
TEXT
  5
454
  8
図枠
  6
CONTINUOUS
 10
1320.646951904439
 20
-161.2166166287
 30
0.0
 40
5.9972220420999998
  1
1
  0
ENDBLK
  5
456
  8
0
  0
BLOCK
  8
0
  2
*U81
 70
     1
 10
0.0
 20
0.0
 30
0.0
  3
*U81
  1

  0
TEXT
  5
458
  8
図枠
  6
CONTINUOUS
 10
1320.646951904439
 20
-151.2166166287
 30
0.0
 40
5.9972220420999998
  1
1
  0
ENDBLK
  5
45A
  8
0
  0
BLOCK
  8
0
  2
*U82
 70
     1
 10
0.0
 20
0.0
 30
0.0
  3
*U82
  1

  0
TEXT
  5
45C
  8
図枠
  6
CONTINUOUS
 10
1243.0279875527619
 20
-151.5514868950101
 30
0.0
 40
5.9972220420999998
  1
合成ゴム(NBR)
  0
ENDBLK
  5
45E
  8
0
  0
BLOCK
  8
0
  2
*U83
 70
     1
 10
0.0
 20
0.0
 30
0.0
  3
*U83
  1

  0
TEXT
  5
460
  8
図枠
  6
CONTINUOUS
 10
1243.0279875527619
 20
-171.5514868950101
 30
0.0
 40
5.9972220420999998
  1
合成ゴム(NBR)
  0
ENDBLK
  5
462
  8
0
  0
BLOCK
  8
0
  2
*U84
 70
     1
 10
0.0
 20
0.0
 30
0.0
  3
*U84
  1

  0
TEXT
  5
464
  8
図枠
  6
CONTINUOUS
 10
1170.2539740930631
 20
-252.77822489549999
 30
0.0
 40
5.9972220420999998
  1
1：2
  0
ENDBLK
  5
466
  8
0
  0
BLOCK
  8
0
  2
*U85
 70
     1
 10
0.0
 20
0.0
 30
0.0
  3
*U85
  1

  0
TEXT
  5
468
  8
図枠
  6
CONTINUOUS
 10
1110.2816388866461
 20
-181.2166166287
 30
0.0
 40
5.9972220420999998
  1
4
  0
ENDBLK
  5
46A
  8
0
  0
BLOCK
  8
0
  2
*U86
 70
     1
 10
0.0
 20
0.0
 30
0.0
  3
*U86
  1

  0
TEXT
  5
46C
  8
図枠
  6
CONTINUOUS
 10
1110.3273030138701
 20
-191.2166166287
 30
0.0
 40
5.9972220420999998
  1
3
  0
ENDBLK
  5
46E
  8
0
  0
BLOCK
  8
0
  2
*U87
 70
     1
 10
0.0
 20
0.0
 30
0.0
  3
*U87
  1

  0
TEXT
  5
470
  8
図枠
  6
CONTINUOUS
 10
1110.646951904439
 20
-211.2166166287
 30
0.0
 40
5.9972220420999998
  1
1
  0
ENDBLK
  5
472
  8
0
  0
BLOCK
  8
0
  2
*U88
 70
     1
 10
0.0
 20
0.0
 30
0.0
  3
*U88
  1

  0
TEXT
  5
474
  8
図枠
  6
CONTINUOUS
 10
1110.2664175109039
 20
-161.2166166287
 30
0.0
 40
5.9972220420999998
  1
6
  0
ENDBLK
  5
476
  8
0
  0
BLOCK
  8
0
  2
*U89
 70
     1
 10
0.0
 20
0.0
 30
0.0
  3
*U89
  1

  0
TEXT
  5
478
  8
図枠
  6
CONTINUOUS
 10
1110.2968602623871
 20
-141.2166166287
 30
0.0
 40
5.9972220420999998
  1
8
  0
ENDBLK
  5
47A
  8
0
  0
BLOCK
  8
0
  2
*U90
 70
     1
 10
0.0
 20
0.0
 30
0.0
  3
*U90
  1

  0
TEXT
  5
47C
  8
図枠
  6
CONTINUOUS
 10
1110.2816388866461
 20
-151.2166166287
 30
0.0
 40
5.9972220420999998
  1
7
  0
ENDBLK
  5
47E
  8
0
  0
BLOCK
  8
0
  2
*U91
 70
     1
 10
0.0
 20
0.0
 30
0.0
  3
*U91
  1

  0
TEXT
  5
480
  8
図枠
  6
CONTINUOUS
 10
1110.2968602623871
 20
-201.2166166287
 30
0.0
 40
5.9972220420999998
  1
2
  0
ENDBLK
  5
482
  8
0
  0
BLOCK
  8
0
  2
*U92
 70
     1
 10
0.0
 20
0.0
 30
0.0
  3
*U92
  1

  0
TEXT
  5
484
  8
図枠
  6
CONTINUOUS
 10
1112.5824007194119
 20
-252.77822489549999
 30
0.0
 40
5.9972220420999998
  1
H17.9.14
  0
ENDBLK
  5
486
  8
0
  0
BLOCK
  8
0
  2
*U93
 70
     1
 10
0.0
 20
0.0
 30
0.0
  3
*U93
  1

  0
TEXT
  5
488
  8
図枠
  6
CONTINUOUS
 10
1110.3273030138701
 20
-171.2166166287
 30
0.0
 40
5.9972220420999998
  1
5
  0
ENDBLK
  5
48A
  8
0
  0
BLOCK
  8
0
  2
*U94
 70
     1
 10
0.0
 20
0.0
 30
0.0
  3
*U94
  1

  0
TEXT
  5
48C
  8
図枠
  6
CONTINUOUS
 10
1110.2968602623871
 20
-131.2166166287
 30
0.0
 40
5.9972220420999998
  1
9
  0
ENDBLK
  5
48E
  8
0
  0
BLOCK
  8
0
  2
*U95
 70
     1
 10
0.0
 20
0.0
 30
0.0
  3
*U95
  1

  0
TEXT
  5
490
  8
図枠
  6
CONTINUOUS
 10
1139.1617294181001
 20
-275.06831772292742
 30
0.0
 40
5.9972220420999998
  1
永　井
  0
ENDBLK
  5
492
  8
0
  0
BLOCK
  8
0
  2
*U96
 70
     1
 10
0.0
 20
0.0
 30
0.0
  3
*U96
  1

  0
TEXT
  5
494
  8
図枠
  6
CONTINUOUS
 10
1346.993377864429
 20
-211.58192964649291
 30
0.0
 40
5.9972220420999998
  1
防錆塗装
  0
ENDBLK
  5
496
  8
0
  0
BLOCK
  8
0
  2
*U97
 70
     1
 10
0.0
 20
0.0
 30
0.0
  3
*U97
  1

  0
TEXT
  5
498
  8
図枠
  6
CONTINUOUS
 10
1320.646951904439
 20
-211.2166166287
 30
0.0
 40
5.9972220420999998
  1
1
  0
ENDBLK
  5
49A
  8
0
  0
BLOCK
  8
0
  2
*U98
 70
     1
 10
0.0
 20
0.0
 30
0.0
  3
*U98
  1

  0
TEXT
  5
49C
  8
図枠
  6
CONTINUOUS
 10
1298.9209061056711
 20
-291.71106087499999
 30
0.0
 40
7.1966662884000003
  1
ＳＨＰ００００５
  0
ENDBLK
  5
49E
  8
0
  0
BLOCK
  8
0
  2
*U99
 70
     1
 10
0.0
 20
0.0
 30
0.0
  3
*U99
  1

  0
TEXT
  5
4A0
  8
図枠
  6
CONTINUOUS
 10
1286.5733263824261
 20
-248.4782181950832
 30
0.0
 40
7.1966662884000003
  1
鋳鉄製 横排水トラップ
  0
ENDBLK
  5
4A2
  8
0
  0
BLOCK
  8
0
  2
*U100
 70
     1
 10
0.0
 20
0.0
 30
0.0
  3
*U100
  1

  0
TEXT
  5
4A4
  8
図枠
  6
CONTINUOUS
 10
1294.409290437562
 20
-269.71106087499999
 30
0.0
 40
7.1966662884000003
  1
５０ＪＴ－２Ｓ－１
  0
ENDBLK
  5
4A6
  8
0
  0
BLOCK
  8
0
  2
*U101
 70
     1
 10
0.0
 20
0.0
 30
0.0
  3
*U101
  1

  0
TEXT
  5
4A8
  8
図枠
  6
CONTINUOUS
 10
1320.646951904439
 20
-171.2166166287
 30
0.0
 40
5.9972220420999998
  1
1
  0
ENDBLK
  5
4AA
  8
0
  0
BLOCK
  8
0
  2
*U102
 70
     1
 10
0.0
 20
0.0
 30
0.0
  3
*U102
  1

  0
TEXT
  5
4AC
  8
図枠
  6
CONTINUOUS
 10
1320.646951904439
 20
-181.2166166287
 30
0.0
 40
5.9972220420999998
  1
1
  0
ENDBLK
  5
4AE
  8
0
  0
BLOCK
  8
0
  2
*U103
 70
     1
 10
0.0
 20
0.0
 30
0.0
  3
*U103
  1

  0
TEXT
  5
4B0
  8
図枠
  6
CONTINUOUS
 10
1248.3402476865001
 20
-181.49060139204471
 30
0.0
 40
5.9972220420999998
  1
ＡＢＳ樹脂
  0
ENDBLK
  5
4B2
  8
0
  0
BLOCK
  8
0
  2
*U104
 70
     1
 10
0.0
 20
0.0
 30
0.0
  3
*U104
  1

  0
TEXT
  5
4B4
  8
図枠
  6
CONTINUOUS
 10
1320.646951904439
 20
-191.2166166287
 30
0.0
 40
5.9972220420999998
  1
1
  0
ENDBLK
  5
4B6
  8
0
  0
BLOCK
  8
0
  2
*U105
 70
     1
 10
0.0
 20
0.0
 30
0.0
  3
*U105
  1

  0
TEXT
  5
4B8
  8
図枠
  6
CONTINUOUS
 10
1335.531681931177
 20
-191.3992731375964
 30
0.0
 40
5.9972220420999998
  1
クロームメッキ
  0
ENDBLK
  5
4BA
  8
0
  0
BLOCK
  8
0
  2
*U106
 70
     1
 10
0.0
 20
0.0
 30
0.0
  3
*U106
  1

  0
TEXT
  5
4BC
  8
図枠
  6
CONTINUOUS
 10
1229.359192137011
 20
-191.6428151494583
 30
0.0
 40
5.9972220420999998
  1
黄銅鋳物２種(CAC202)
  0
ENDBLK
  5
4BE
  8
0
  0
BLOCK
  8
0
  2
*U107
 70
     1
 10
0.0
 20
0.0
 30
0.0
  3
*U107
  1

  0
TEXT
  5
4C0
  8
図枠
  6
CONTINUOUS
 10
1320.646951904439
 20
-201.2166166287
 30
0.0
 40
5.9972220420999998
  1
1
  0
ENDBLK
  5
4C2
  8
0
  0
BLOCK
  8
0
  2
*U108
 70
     1
 10
0.0
 20
0.0
 30
0.0
  3
*U108
  1

  0
TEXT
  5
4C4
  8
図枠
  6
CONTINUOUS
 10
1335.531681931177
 20
-201.39927313759651
 30
0.0
 40
5.9972220420999998
  1
クロームメッキ
  0
ENDBLK
  5
4C6
  8
0
  0
BLOCK
  8
0
  2
*U109
 70
     1
 10
0.0
 20
0.0
 30
0.0
  3
*U109
  1

  0
TEXT
  5
4C8
  8
図枠
  6
CONTINUOUS
 10
1229.359192137011
 20
-201.64281514945839
 30
0.0
 40
5.9972220420999998
  1
黄銅鋳物２種(CAC202)
  0
ENDBLK
  5
4CA
  8
0
  0
BLOCK
  8
0
  2
*U110
 70
     1
 10
0.0
 20
0.0
 30
0.0
  3
*U110
  1

  0
TEXT
  5
4CC
  8
図枠
  6
CONTINUOUS
 10
1223.6511762339969
 20
-211.82547165835479
 30
0.0
 40
5.9972220420999998
  1
ネズミ鋳鉄品２種(FC150)
  0
ENDBLK
  5
4CE
  8
0
  0
ENDSEC
  0
SECTION
  2
ENTITIES
  0
INSERT
  5
30
  8
寸法線
  2
BALLON0
 10
0.0
 20
0.0
 30
0.0
  0
INSERT
  5
3B
  8
寸法線
  2
BALLON1
 10
0.0
 20
0.0
 30
0.0
  0
INSERT
  5
45
  8
寸法線
  2
BALLON2
 10
0.0
 20
0.0
 30
0.0
  0
ARC
  5
4E
  8
ﾚｲﾔ_1
 10
781.2944561057999
 20
139.46005063760001
 30
0.0
 40
4.0
 50
0.0
 51
180.0
  0
DIMENSION
  5
60
  8
寸法線
  2
*D3
 10
894.29444110580005
 20
94.536240046299994
 30
0.0
 11
824.29444110580005
 21
94.536240046299994
 31
0.0
 70
   128
  1
%%c<>
 13
894.29444110580005
 23
139.46005063760001
 33
0.0
 14
754.29444110580005
 24
139.46005063760001
 34
0.0
  0
LINE
  5
61
  8
ﾚｲﾔ_1
  6
BORDER
 62
     3
 10
824.29444110580005
 20
131.21960919719999
 30
0.0
 11
824.29444110580005
 21
237.16319317130001
 31
0.0
  0
ARC
  5
62
  8
ﾚｲﾔ_1
 10
871.3658681057999
 20
139.4600196376
 30
0.0
 40
32.071429999999999
 50
141.419904
 51
179.999945
  0
ARC
  5
63
  8
ﾚｲﾔ_1
 10
911.36586810580002
 20
139.4600196376
 30
0.0
 40
32.071429999999999
 50
141.419904
 51
179.999945
  0
ARC
  5
64
  8
ﾚｲﾔ_1
 10
907.36586810580013
 20
139.4600196376
 30
0.0
 40
32.071429999999999
 50
141.419904
 51
179.999945
  0
ARC
  5
65
  8
ﾚｲﾔ_1
 10
905.3658681057999
 20
139.4600196376
 30
0.0
 40
32.071429999999999
 50
141.419904
 51
179.999945
  0
ARC
  5
66
  8
ﾚｲﾔ_1
 10
920.36586810580002
 20
139.4600196376
 30
0.0
 40
32.071429999999999
 50
141.419904
 51
179.999945
  0
ARC
  5
67
  8
ﾚｲﾔ_1
 10
913.3658681057999
 20
139.4600196376
 30
0.0
 40
32.071429999999999
 50
141.419904
 51
179.999945
  0
ARC
  5
68
  8
ﾚｲﾔ_1
 10
824.29444110580005
 20
139.46005063760001
 30
0.0
 40
70.0
 50
16.601523121500001
 51
180.0
  0
ARC
  5
69
  8
ﾚｲﾔ_1
 10
824.29444110580005
 20
139.46005063760001
 30
0.0
 40
18.5
 50
89.999979000000025
 51
180.0
  0
ARC
  5
6A
  8
ﾚｲﾔ_1
 10
824.29444110580005
 20
139.46005063760001
 30
0.0
 40
34.5
 50
35.430104
 51
180.0
  0
LINE
  5
6B
  8
ﾚｲﾔ_1
 10
898.49454810580005
 20
133.0600506376
 30
0.0
 11
898.49454810580005
 21
159.4600196376
 31
0.0
  0
ARC
  5
6C
  8
ﾚｲﾔ_1
 10
875.22301510579996
 20
139.4600196376
 30
0.0
 40
29.071429999999999
 50
0.000061
 51
35.786523000000003
  0
ARC
  5
6D
  8
ﾚｲﾔ_1
 10
875.22301510579996
 20
139.4600196376
 30
0.0
 40
32.071429999999999
 50
0.000055
 51
38.580092999999998
  0
ARC
  5
6E
  8
ﾚｲﾔ_1
 10
920.36586810580002
 20
139.4600196376
 30
0.0
 40
29.071429999999999
 50
144.21347499999999
 51
179.99993900000001
  0
DIMENSION
  5
80
  8
寸法線
  2
*D4
 10
875.79444110580005
 20
120.33311504629999
 30
0.0
 11
824.29444110580005
 21
120.33311504629999
 31
0.0
 70
   128
  1
%%c<>
 13
875.79444110580005
 23
139.46005063760001
 33
0.0
 14
772.79444110580005
 24
139.46005063760001
 34
0.0
  0
INSERT
  5
83
  8
図枠
  2
CLUMP0
 10
0.0
 20
0.0
 30
0.0
  0
INSERT
  5
127
  8
0
  6
CONTINUOUS
  2
*U58
 10
0.0
 20
0.0
 30
0.0
  0
INSERT
  5
129
  8
図枠
  2
CLUMP1
 10
0.0
 20
0.0
 30
0.0
  0
INSERT
  5
133
  8
図枠
  2
CLUMP2
 10
0.0
 20
0.0
 30
0.0
  0
INSERT
  5
13C
  8
0
  6
CONTINUOUS
  2
*U59
 10
0.0
 20
0.0
 30
0.0
  0
INSERT
  5
13D
  8
0
  6
CONTINUOUS
  2
*U60
 10
0.0
 20
0.0
 30
0.0
  0
LINE
  5
13E
  8
ﾚｲﾔ_1
 10
754.29444108479993
 20
-84.632761607299997
 30
0.0
 11
824.29444110580005
 21
-84.632761607299997
 31
0.0
  0
LINE
  5
13F
  8
ﾚｲﾔ_1
 10
764.29444108780001
 20
-81.632761606399995
 30
0.0
 11
824.29444110580005
 21
-81.632761606399995
 31
0.0
  0
LINE
  5
140
  8
ﾚｲﾔ_1
 10
764.29444108780001
 20
-78.632761605499994
 30
0.0
 11
824.29444110580005
 21
-78.632761605499994
 31
0.0
  0
LINE
  5
141
  8
ﾚｲﾔ_1
 10
754.29444108479993
 20
-74.632761604300001
 30
0.0
 11
824.29444110580005
 21
-74.632761604300001
 31
0.0
  0
LINE
  5
142
  8
ﾚｲﾔ_1
  6
BORDER
 10
805.29444110009979
 20
-71.632764460499999
 30
0.0
 11
824.29444110580005
 21
-71.632764460499999
 31
0.0
  0
LINE
  5
143
  8
ﾚｲﾔ_1
 10
754.29444108479993
 20
-75.632761604600006
 30
0.0
 11
824.29444110580005
 21
-75.632761604600006
 31
0.0
  0
INSERT
  5
145
  8
寸法線
  2
BALLON3
 10
0.0
 20
0.0
 30
0.0
  0
DIMENSION
  5
15E
  8
寸法線
  2
*D9
 10
705.73474974049986
 20
-71.632761603399999
 30
0.0
 11
705.73474974049986
 21
-53.132755255900001
 31
0.0
 70
   128
  1
<>
 13
754.29444108479993
 23
-71.632761603399999
 33
0.0
 14
824.29444110580005
 24
-34.632748908400011
 34
0.0
 50
90.0
  0
LINE
  5
15F
  8
ﾚｲﾔ_1
 10
758.06277822880008
 20
-95.426743039100003
 30
0.0
 11
824.29444110580005
 21
-95.426743039100003
 31
0.0
  0
DIMENSION
  5
171
  8
寸法線
  2
*D10
 10
773.29444109049996
 20
-216.4662082575
 30
0.0
 11
824.29444110580005
 21
-216.4662082575
 31
0.0
 70
   128
  1
%%c<>
 13
773.29444109049996
 23
-182.63276163669991
 33
0.0
 14
875.29444112110002
 24
-182.63276163669991
 34
0.0
 50
180.0
  0
LINE
  5
172
  8
ﾚｲﾔ_1
 10
771.29444108990003
 20
-170.6258102045
 30
0.0
 11
824.29444110580005
 21
-170.6258102045
 31
0.0
  0
LINE
  5
173
  8
ﾚｲﾔ_1
 10
754.57945523289993
 20
-91.754827404999986
 30
0.0
 11
824.29444110580005
 21
-91.754827404999986
 31
0.0
  0
INSERT
  5
175
  8
ﾚｲﾔ_1
  6
BORDER
  2
CLUMP3
 10
0.0
 20
0.0
 30
0.0
  0
DIMENSION
  5
1C1
  8
寸法線
  2
*D12
 10
705.73474974049986
 20
-189.63276163879999
 30
0.0
 11
705.73474974049986
 21
-130.6327616211
 31
0.0
 70
   128
  1
<>
 13
780.29444109259987
 23
-189.63276163879999
 33
0.0
 14
754.29444108479993
 24
-71.632761603399999
 34
0.0
 50
90.0
  0
DIMENSION
  5
1D2
  8
寸法線
  2
*D13
 10
734.32628619889999
 20
-84.632761607299997
 30
0.0
 11
734.32628619889999
 21
-137.13276162299999
 31
0.0
 70
   128
  1
<>
 13
754.29444108479993
 23
-84.632761607299997
 33
0.0
 14
780.29444109259987
 24
-189.63276163879999
 34
0.0
 50
90.0
  0
DIMENSION
  5
1E3
  8
寸法線
  2
*D14
 10
1019.1848415942
 20
-129.63277019220001
 30
0.0
 11
1019.1848415942
 21
-107.1327658997
 31
0.0
 70
   128
  1
<>
 13
924.29444113580007
 23
-129.63277019220001
 33
0.0
 14
894.29444112679994
 24
-84.632761607299997
 34
0.0
 50
90.0
  0
INSERT
  5
1E5
  8
寸法線
  2
BALLON4
 10
0.0
 20
0.0
 30
0.0
  0
INSERT
  5
1EF
  8
寸法線
  2
BALLON5
 10
0.0
 20
0.0
 30
0.0
  0
INSERT
  5
1F9
  8
寸法線
  2
BALLON6
 10
0.0
 20
0.0
 30
0.0
  0
INSERT
  5
203
  8
寸法線
  2
BALLON7
 10
0.0
 20
0.0
 30
0.0
  0
LINE
  5
20C
  8
ﾚｲﾔ_1
  6
BORDER
 62
     3
 10
824.29444110580005
 20
-34.632748908400011
 30
0.0
 11
893.58383708169981
 21
-34.632748908400011
 31
0.0
  0
LINE
  5
20D
  8
ﾚｲﾔ_1
  6
BORDER
 62
     3
 10
824.29444110580005
 20
105.79893423679999
 30
0.0
 11
824.29444110580005
 21
120.33311504629999
 31
0.0
  0
DIMENSION
  5
21B
  8
寸法線
  2
*D66
 10
824.29444110580005
 20
-34.632748908399968
 30
0.0
 11
874.28347865880005
 21
-25.0455610496
 31
0.0
 70
   133
  1
<>
 13
958.54859931939995
 23
14.2317469104
 33
0.0
 14
997.34394559320003
 24
-4.2626488122000001
 34
0.0
 15
824.29444110580005
 25
-34.632748908400011
 35
0.0
1001
ACAD
1000
DSTYLE
1002
{
1070
   271
1070
     0
1002
}
  0
INSERT
  5
21D
  8
寸法線
  2
BALLON8
 10
0.0
 20
0.0
 30
0.0
  0
DIMENSION
  5
235
  8
寸法線
  2
*D21
 10
824.29444110580005
 20
33.297010135599997
 30
0.0
 11
861.79444861699994
 21
33.297010135599997
 31
0.0
 70
   128
  1
<>
 13
824.29444110580005
 23
22.8144704531
 33
0.0
 14
899.2944561283
 24
-7.3349580125999987
 34
0.0
 50
180.0
  0
DIMENSION
  5
246
  8
寸法線
  2
*D22
 10
840.80633302030014
 20
-119.6327616178
 30
0.0
 11
840.80633302030014
 21
-144.63276162529999
 31
0.0
 70
   128
  1
封水 <>
 13
856.79442540119987
 23
-119.6327616178
 33
0.0
 14
851.79442539969989
 24
-169.6327616328
 34
0.0
 50
90.0
  0
DIMENSION
  5
256
  8
寸法線
  2
*D23
 10
924.29444113580007
 20
-241.2904596189
 30
0.0
 11
874.29444113580007
 21
-241.2904596189
 31
0.0
 70
   128
  1
<>
 13
924.29444113580007
 23
-169.132770204
 33
0.0
 14
824.29444110580005
 24
-239.04836215660001
 34
0.0
  0
DIMENSION
  5
267
  8
寸法線
  2
*D24
 10
993.17957336500001
 20
-169.132770204
 30
0.0
 11
993.17957336500001
 21
-130.26344968340001
 31
0.0
 70
   128
  1
%%c<>
 13
924.29444113580007
 23
-169.132770204
 33
0.0
 14
924.29444113580007
 24
-90.132770180300014
 34
0.0
 50
90.0
  0
DIMENSION
  5
278
  8
寸法線
  2
*D25
 10
960.07111565360003
 20
-157.91309591500001
 30
0.0
 11
960.07111565360003
 21
-133.0473930668
 31
0.0
 70
   128
  1
Ｒｃ２
 13
922.76882399249985
 23
-157.91309591500001
 33
0.0
 14
922.76876399249988
 24
-101.3524473266
 34
0.0
 50
90.0
  0
CIRCLE
  5
279
  8
ﾚｲﾔ_1
 10
807.83907310580003
 20
179.18685663759999
 30
0.0
 40
4.0
  0
ARC
  5
27A
  8
ﾚｲﾔ_1
 10
824.29444110580005
 20
139.46005063760001
 30
0.0
 40
51.5
 50
22.8518028666
 51
180.0
  0
INSERT
  5
27B
  8
0
  6
CONTINUOUS
  2
*U68
 10
0.0
 20
0.0
 30
0.0
  0
INSERT
  5
27C
  8
0
  6
CONTINUOUS
  2
*U69
 10
0.0
 20
0.0
 30
0.0
  0
INSERT
  5
27E
  8
図枠
  2
CLUMP4
 10
0.0
 20
0.0
 30
0.0
  0
INSERT
  5
287
  8
0
  6
CONTINUOUS
  2
*U70
 10
0.0
 20
0.0
 30
0.0
  0
INSERT
  5
289
  8
図枠
  2
CLUMP5
 10
0.0
 20
0.0
 30
0.0
  0
INSERT
  5
292
  8
0
  6
CONTINUOUS
  2
*U71
 10
0.0
 20
0.0
 30
0.0
  0
INSERT
  5
294
  8
図枠
  2
CLUMP6
 10
0.0
 20
0.0
 30
0.0
  0
INSERT
  5
29D
  8
0
  6
CONTINUOUS
  2
*U72
 10
0.0
 20
0.0
 30
0.0
  0
INSERT
  5
29F
  8
図枠
  2
CLUMP7
 10
0.0
 20
0.0
 30
0.0
  0
INSERT
  5
2A8
  8
0
  6
CONTINUOUS
  2
*U73
 10
0.0
 20
0.0
 30
0.0
  0
INSERT
  5
2AA
  8
図枠
  2
CLUMP8
 10
0.0
 20
0.0
 30
0.0
  0
INSERT
  5
2B4
  8
図枠
  2
CLUMP9
 10
0.0
 20
0.0
 30
0.0
  0
INSERT
  5
2BD
  8
0
  6
CONTINUOUS
  2
*U74
 10
0.0
 20
0.0
 30
0.0
  0
INSERT
  5
2BF
  8
図枠
  2
CLUMP10
 10
0.0
 20
0.0
 30
0.0
  0
INSERT
  5
2C8
  8
0
  6
CONTINUOUS
  2
*U75
 10
0.0
 20
0.0
 30
0.0
  0
INSERT
  5
2C9
  8
0
  6
CONTINUOUS
  2
*U76
 10
0.0
 20
0.0
 30
0.0
  0
INSERT
  5
2CA
  8
0
  6
CONTINUOUS
  2
*U77
 10
0.0
 20
0.0
 30
0.0
  0
INSERT
  5
2CB
  8
0
  6
CONTINUOUS
  2
*U78
 10
0.0
 20
0.0
 30
0.0
  0
INSERT
  5
2CC
  8
0
  6
CONTINUOUS
  2
*U79
 10
0.0
 20
0.0
 30
0.0
  0
INSERT
  5
2CD
  8
0
  6
CONTINUOUS
  2
*U80
 10
0.0
 20
0.0
 30
0.0
  0
INSERT
  5
2CE
  8
0
  6
CONTINUOUS
  2
*U81
 10
0.0
 20
0.0
 30
0.0
  0
INSERT
  5
2CF
  8
0
  6
CONTINUOUS
  2
*U82
 10
0.0
 20
0.0
 30
0.0
  0
INSERT
  5
2D0
  8
0
  6
CONTINUOUS
  2
*U83
 10
0.0
 20
0.0
 30
0.0
  0
INSERT
  5
2D1
  8
0
  6
CONTINUOUS
  2
*U84
 10
0.0
 20
0.0
 30
0.0
  0
INSERT
  5
2D2
  8
0
  6
CONTINUOUS
  2
*U85
 10
0.0
 20
0.0
 30
0.0
  0
INSERT
  5
2D3
  8
0
  6
CONTINUOUS
  2
*U86
 10
0.0
 20
0.0
 30
0.0
  0
INSERT
  5
2D4
  8
0
  6
CONTINUOUS
  2
*U87
 10
0.0
 20
0.0
 30
0.0
  0
INSERT
  5
2D5
  8
0
  6
CONTINUOUS
  2
*U88
 10
0.0
 20
0.0
 30
0.0
  0
INSERT
  5
2D6
  8
0
  6
CONTINUOUS
  2
*U89
 10
0.0
 20
0.0
 30
0.0
  0
INSERT
  5
2D7
  8
0
  6
CONTINUOUS
  2
*U90
 10
0.0
 20
0.0
 30
0.0
  0
INSERT
  5
2D8
  8
0
  6
CONTINUOUS
  2
*U91
 10
0.0
 20
0.0
 30
0.0
  0
INSERT
  5
2D9
  8
0
  6
CONTINUOUS
  2
*U92
 10
0.0
 20
0.0
 30
0.0
  0
INSERT
  5
2DA
  8
0
  6
CONTINUOUS
  2
*U93
 10
0.0
 20
0.0
 30
0.0
  0
INSERT
  5
2DB
  8
0
  6
CONTINUOUS
  2
*U94
 10
0.0
 20
0.0
 30
0.0
  0
INSERT
  5
2DC
  8
0
  6
CONTINUOUS
  2
*U95
 10
0.0
 20
0.0
 30
0.0
  0
LINE
  5
2DD
  8
ﾚｲﾔ_1
  6
BORDER
 10
897.58435827059998
 20
-2.6364872968999991
 30
0.0
 11
901.00455398589997
 21
-12.033428728300001
 31
0.0
  0
DIMENSION
  5
2EE
  8
寸法線
  2
*D33
 10
947.18201389979993
 20
-11.188787487200001
 30
0.0
 11
940.13373427899978
 21
8.1761114451000001
 31
0.0
 70
   129
  1
%%c<>
 13
906.13486541599991
 23
-26.128797303999999
 33
0.0
 14
892.45401541189995
 24
11.458854135899999
 34
0.0
  0
DIMENSION
  5
2FF
  8
寸法線
  2
*D34
 10
923.56063003530005
 20
-15.5296379953
 30
0.0
 11
918.08830944639999
 21
-0.4945554424000001
 31
0.0
 70
   129
  1
%%c<>
 13
904.76677684419997
 23
-22.370038731400001
 33
0.0
 14
893.82213566639996
 24
7.7001263743999999
 34
0.0
  0
LINE
  5
300
  8
ﾚｲﾔ_1
 10
842.0526811110999
 20
-7.9499030128000001
 30
0.0
 11
848.55106173059994
 21
-25.804064919199998
 31
0.0
  0
CIRCLE
  5
301
  8
ﾚｲﾔ_1
 10
840.74982510579991
 20
179.18685663759999
 30
0.0
 40
4.0
  0
CIRCLE
  5
302
  8
ﾚｲﾔ_1
 10
854.70003510580011
 20
169.8656286376
 30
0.0
 40
4.0
  0
LINE
  5
303
  8
ﾚｲﾔ_1
 10
880.29444110580005
 20
159.4600196376
 30
0.0
 11
846.29444110580005
 21
159.4600196376
 31
0.0
  0
LINE
  5
304
  8
ﾚｲﾔ_1
 10
886.29444110580005
 20
159.4600196376
 30
0.0
 11
882.29444110580005
 21
159.4600196376
 31
0.0
  0
LINE
  5
305
  8
ﾚｲﾔ_1
 10
888.29444110580005
 20
159.4600196376
 30
0.0
 11
895.29444110580005
 21
159.4600196376
 31
0.0
  0
LINE
  5
306
  8
ﾚｲﾔ_1
 10
900.29444110580005
 20
159.4600196376
 30
0.0
 11
898.80580910579999
 21
156.4600196376
 31
0.0
  0
LINE
  5
307
  8
ﾚｲﾔ_1
 10
896.78307310579987
 20
156.4600196376
 30
0.0
 11
895.29444110580005
 21
159.4600196376
 31
0.0
  0
LINE
  5
308
  8
ﾚｲﾔ_1
 10
896.78307310579987
 20
156.4600196376
 30
0.0
 11
898.80580910579999
 21
156.4600196376
 31
0.0
  0
CIRCLE
  5
309
  8
ﾚｲﾔ_1
 10
793.88886310580006
 20
169.8656596376
 30
0.0
 40
4.0
  0
CIRCLE
  5
30A
  8
ﾚｲﾔ_1
 10
784.56763510580004
 20
155.91543363759999
 30
0.0
 40
4.0
  0
INSERT
  5
30B
  8
0
  6
CONTINUOUS
  2
*U96
 10
0.0
 20
0.0
 30
0.0
  0
INSERT
  5
30C
  8
0
  6
CONTINUOUS
  2
*U97
 10
0.0
 20
0.0
 30
0.0
  0
INSERT
  5
30D
  8
0
  6
CONTINUOUS
  2
*U98
 10
0.0
 20
0.0
 30
0.0
  0
INSERT
  5
30E
  8
0
  6
CONTINUOUS
  2
*U99
 10
0.0
 20
0.0
 30
0.0
  0
INSERT
  5
30F
  8
0
  6
CONTINUOUS
  2
*U100
 10
0.0
 20
0.0
 30
0.0
  0
INSERT
  5
310
  8
0
  6
CONTINUOUS
  2
*U101
 10
0.0
 20
0.0
 30
0.0
  0
INSERT
  5
311
  8
0
  6
CONTINUOUS
  2
*U102
 10
0.0
 20
0.0
 30
0.0
  0
INSERT
  5
312
  8
0
  6
CONTINUOUS
  2
*U103
 10
0.0
 20
0.0
 30
0.0
  0
INSERT
  5
313
  8
0
  6
CONTINUOUS
  2
*U104
 10
0.0
 20
0.0
 30
0.0
  0
INSERT
  5
314
  8
0
  6
CONTINUOUS
  2
*U105
 10
0.0
 20
0.0
 30
0.0
  0
INSERT
  5
315
  8
0
  6
CONTINUOUS
  2
*U106
 10
0.0
 20
0.0
 30
0.0
  0
INSERT
  5
316
  8
0
  6
CONTINUOUS
  2
*U107
 10
0.0
 20
0.0
 30
0.0
  0
INSERT
  5
317
  8
0
  6
CONTINUOUS
  2
*U108
 10
0.0
 20
0.0
 30
0.0
  0
INSERT
  5
318
  8
0
  6
CONTINUOUS
  2
*U109
 10
0.0
 20
0.0
 30
0.0
  0
INSERT
  5
319
  8
0
  6
CONTINUOUS
  2
*U110
 10
0.0
 20
0.0
 30
0.0
  0
LINE
  5
31A
  8
ﾚｲﾔ_1
 62
     5
 10
880.79444112270005
 20
-75.632761604600006
 30
0.0
 11
894.29444112679994
 21
-75.632761604600006
 31
0.0
  0
LINE
  5
31B
  8
ﾚｲﾔ_1
 62
     5
 10
840.29444111060002
 20
-82.225835892299997
 30
0.0
 11
840.29444111060002
 21
-45.836041595600001
 31
0.0
  0
LINE
  5
31C
  8
ﾚｲﾔ_1
 62
     5
 10
876.29444112140004
 20
-74.832761604300003
 30
0.0
 11
876.29444112140004
 21
-71.632764460499999
 31
0.0
  0
LINE
  5
31D
  8
ﾚｲﾔ_1
 62
     5
 10
876.04444112129988
 20
-71.632761603399999
 30
0.0
 11
876.04444112129988
 21
-76.632761604899983
 31
0.0
  0
LINE
  5
31E
  8
ﾚｲﾔ_1
 62
     5
 10
859.69444968779999
 20
-71.644590174800001
 30
0.0
 11
859.69444968779999
 21
-73.644741603999989
 31
0.0
  0
LINE
  5
31F
  8
ﾚｲﾔ_1
 62
     5
 10
871.96643540579998
 20
-83.788707321299995
 30
0.0
 11
869.49687969080003
 21
-74.832761604300003
 31
0.0
  0
LINE
  5
320
  8
ﾚｲﾔ_1
 62
     5
 10
861.57674397410005
 20
-74.832761604300003
 30
0.0
 11
876.29444112140004
 21
-74.832761604300003
 31
0.0
  0
LINE
  5
321
  8
ﾚｲﾔ_1
 62
     5
 10
854.69580825770015
 20
-73.644741603999989
 30
0.0
 11
854.69580825770015
 21
-77.648084462299991
 31
0.0
  0
ARC
  5
322
  8
ﾚｲﾔ_1
 62
     5
 10
856.39797254399991
 20
-71.991834460600003
 30
0.0
 40
5.9068214302999991
 50
253.251698
 51
331.25210900000002
  0
LINE
  5
323
  8
ﾚｲﾔ_1
 62
     5
 10
877.79444112179988
 20
-81.132761606199992
 30
0.0
 11
874.79444112089993
 21
-81.132761606199992
 31
0.0
  0
LINE
  5
324
  8
ﾚｲﾔ_1
 62
     5
 10
874.79444112089993
 20
-81.132761606199992
 30
0.0
 11
874.2944411208
 21
-80.632761606100004
 31
0.0
  0
LINE
  5
325
  8
ﾚｲﾔ_1
 62
     5
 10
873.69701397769995
 20
-81.225835891999992
 30
0.0
 11
875.97296969270008
 21
-81.225835891999992
 31
0.0
  0
LINE
  5
326
  8
ﾚｲﾔ_1
 62
     5
 10
875.97296969270008
 20
-81.225835891999992
 30
0.0
 11
875.97296969270008
 21
-83.788707321299995
 31
0.0
  0
LINE
  5
327
  8
ﾚｲﾔ_1
 62
     5
 10
875.97296969270008
 20
-83.788707321299995
 30
0.0
 11
871.96643540579998
 21
-83.788707321299995
 31
0.0
  0
LINE
  5
328
  8
ﾚｲﾔ_1
 62
     5
 10
873.79444112059991
 20
-84.325835892900002
 30
0.0
 11
864.29444111780003
 21
-84.325835892900002
 31
0.0
  0
LINE
  5
329
  8
ﾚｲﾔ_1
 62
     5
 10
894.29444112679994
 20
-84.632761607299997
 30
0.0
 11
880.79444112270005
 21
-84.632761607299997
 31
0.0
  0
LINE
  5
32A
  8
ﾚｲﾔ_1
 62
     5
 10
860.29444111660007
 20
-82.225835892299997
 30
0.0
 11
824.29444110580005
 21
-82.225835892299997
 31
0.0
  0
LINE
  5
32B
  8
ﾚｲﾔ_1
 62
     5
 10
876.47923969289991
 20
5.6444884198
 30
0.0
 11
890.16007255409988
 21
-31.943158734299999
 31
0.0
  0
LINE
  5
32C
  8
ﾚｲﾔ_1
 62
     5
 10
875.53952826399996
 20
5.3025084196999996
 30
0.0
 11
889.22038969669995
 21
-32.285184448700001
 31
0.0
  0
ARC
  5
32D
  8
ﾚｲﾔ_1
 10
887.29444110580005
 20
158.87823263760001
 30
0.0
 40
1.1569199999999999
 50
30.189813999999998
 51
149.81016600000001
  0
ARC
  5
32E
  8
ﾚｲﾔ_1
 10
881.29444110579993
 20
158.87823263760001
 30
0.0
 40
1.1569199999999999
 50
30.189813999999998
 51
149.81016600000001
  0
LINE
  5
32F
  8
ﾚｲﾔ_1
 10
898.49454810580005
 20
159.4600196376
 30
0.0
 11
898.49454810580005
 21
165.96005063760001
 31
0.0
  0
LINE
  5
330
  8
ﾚｲﾔ_1
 10
895.29444110580005
 20
159.4600196376
 30
0.0
 11
900.29444110580005
 21
159.4600196376
 31
0.0
  0
LINE
  5
331
  8
ﾚｲﾔ_1
 10
845.16805310580003
 20
157.96005063760001
 30
0.0
 11
824.29444110580005
 21
157.96005063760001
 31
0.0
  0
CIRCLE
  5
332
  8
ﾚｲﾔ_1
 10
824.29444110580005
 20
182.46005063760001
 30
0.0
 40
4.0
  0
LINE
  5
333
  8
ﾚｲﾔ_1
 62
     5
 10
880.79450255130007
 20
-96.632761610900005
 30
0.0
 11
879.29450255079996
 21
-98.132761611299998
 31
0.0
  0
LINE
  5
334
  8
ﾚｲﾔ_1
 62
     5
 10
840.29444111060002
 20
-45.836041595600001
 30
0.0
 11
904.76677684419997
 21
-22.370038731400001
 31
0.0
  0
LINE
  5
335
  8
ﾚｲﾔ_1
  6
BORDER
 62
     3
 10
824.29444110580005
 20
-34.632748908400011
 30
0.0
 11
904.84516541559981
 21
-5.3146958692000004
 31
0.0
  0
LINE
  5
336
  8
ﾚｲﾔ_1
 62
     5
 10
883.05708969479997
 20
8.0386527063000006
 30
0.0
 11
896.73793827039992
 21
-29.549024447899999
 31
0.0
  0
ARC
  5
337
  8
ﾚｲﾔ_1
 62
     5
 10
876.29114683570003
 20
14.966352708300001
 30
0.0
 40
5.3782285729999986
 50
320.13272699999999
 51
260.13272699999999
  0
LINE
  5
338
  8
ﾚｲﾔ_1
 62
     5
 10
875.36949969249997
 20
9.6676812781999981
 30
0.0
 11
876.79235112149979
 21
5.7584712769999999
 31
0.0
  0
LINE
  5
339
  8
ﾚｲﾔ_1
 62
     5
 10
880.41910683690003
 20
11.518846993
 30
0.0
 11
881.84621398019988
 21
7.5979184203999992
 31
0.0
  0
LINE
  5
33A
  8
ﾚｲﾔ_1
 62
     5
 10
882.11740826599998
 20
7.6966112775999989
 30
0.0
 11
895.79823969860001
 21
-29.891034447999999
 31
0.0
  0
LINE
  5
33B
  8
ﾚｲﾔ_1
 62
     5
 10
856.79442540119987
 20
-169.6327616328
 30
0.0
 11
824.29444110580005
 21
-169.6327616328
 31
0.0
  0
LINE
  5
33C
  8
ﾚｲﾔ_1
 62
     5
 10
867.29444111869998
 20
-185.1258344945
 30
0.0
 11
824.29444110580005
 21
-185.1258344945
 31
0.0
  0
LINE
  5
33D
  8
ﾚｲﾔ_1
 62
     5
 10
856.79442540119987
 20
-169.6327616328
 30
0.0
 11
856.79442540119987
 21
-117.7998401886
 31
0.0
  0
LINE
  5
33E
  8
ﾚｲﾔ_1
 62
     5
 10
870.29444111960004
 20
-122.0327616185
 30
0.0
 11
870.29444111960004
 21
-182.1258344936
 31
0.0
  0
LINE
  5
33F
  8
ﾚｲﾔ_1
 62
     5
 10
875.09444112099993
 20
-152.8397930562999
 30
0.0
 11
875.09444112099993
 21
-122.0327616185
 31
0.0
  0
LINE
  5
340
  8
ﾚｲﾔ_1
 62
     5
 10
873.79444112059991
 20
-94.632760181700007
 30
0.0
 11
863.79444111759994
 21
-94.632730181699984
 31
0.0
  0
LINE
  5
341
  8
ﾚｲﾔ_1
 62
     5
 10
863.79444111759994
 20
-102.63276161269999
 30
0.0
 11
863.79444111759994
 21
-94.632730181699984
 31
0.0
  0
LINE
  5
342
  8
ﾚｲﾔ_1
 62
     5
 10
863.79444111759994
 20
-101.6327616124
 30
0.0
 11
862.29444111719988
 21
-101.6327616124
 31
0.0
  0
LINE
  5
343
  8
ﾚｲﾔ_1
 62
     5
 10
869.5444411192999
 20
-96.632761610900005
 30
0.0
 11
877.79444112179988
 21
-96.632761610900005
 31
0.0
  0
LINE
  5
344
  8
ﾚｲﾔ_1
 62
     5
 10
875.04442540670004
 20
-96.632761610900005
 30
0.0
 11
875.04442540670004
 21
-94.632761610299994
 31
0.0
  0
LINE
  5
345
  8
ﾚｲﾔ_1
 62
     5
 10
864.29444111780003
 20
-94.632761610299994
 30
0.0
 11
873.79444112059991
 21
-94.632761610299994
 31
0.0
  0
LINE
  5
346
  8
ﾚｲﾔ_1
 62
     5
 10
922.76876399249988
 20
-101.3524473266
 30
0.0
 11
908.29064113100003
 21
-101.8048887553
 31
0.0
  0
ARC
  5
347
  8
ﾚｲﾔ_1
 62
     5
 10
903.89444112959995
 20
-102.7658358984
 30
0.0
 40
4.5000000014000001
 50
0.0
 51
180.0
  0
LINE
  5
348
  8
ﾚｲﾔ_1
 62
     5
 10
869.5444411192999
 20
-96.632761610900005
 30
0.0
 11
869.04444111919997
 21
-96.132761610700001
 31
0.0
  0
LINE
  5
349
  8
ﾚｲﾔ_1
 62
     5
 10
875.04442540670004
 20
-94.632761610299994
 30
0.0
 11
863.79444111759994
 21
-94.632761610299994
 31
0.0
  0
ARC
  5
34A
  8
ﾚｲﾔ_1
 62
     5
 10
885.29444112409988
 20
-80.132761605900015
 30
0.0
 40
4.5000000014000001
 50
90.0
 51
270.0
  0
LINE
  5
34B
  8
ﾚｲﾔ_1
 62
     5
 10
894.29450255529991
 20
-74.632761604300001
 30
0.0
 11
880.79450255130007
 21
-74.632761604300001
 31
0.0
  0
ARC
  5
34C
  8
ﾚｲﾔ_1
 62
     5
 10
872.69444112029998
 20
-122.0327616185
 30
0.0
 40
2.4000000006999991
 50
0.0
 51
180.0
  0
LINE
  5
34D
  8
ﾚｲﾔ_1
 62
     5
 10
879.29450255079996
 20
-77.132793033599995
 30
0.0
 11
880.79450255130007
 21
-77.132793033599995
 31
0.0
  0
LINE
  5
34E
  8
ﾚｲﾔ_1
 62
     5
 10
880.79450255130007
 20
-74.632761604300001
 30
0.0
 11
879.29450255079996
 21
-77.132793033599995
 31
0.0
  0
LINE
  5
34F
  8
ﾚｲﾔ_1
 62
     5
 10
876.04444112129988
 20
-76.632761604899983
 30
0.0
 11
874.2944411208
 21
-76.632761604899983
 31
0.0
  0
LINE
  5
350
  8
ﾚｲﾔ_1
 62
     5
 10
874.2944411208
 20
-80.632761606100004
 30
0.0
 11
874.2944411208
 21
-76.632761604899983
 31
0.0
  0
LINE
  5
351
  8
ﾚｲﾔ_1
 62
     5
 10
873.69701397769995
 20
-74.832761604300003
 30
0.0
 11
873.69701397769995
 21
-81.225835891999992
 31
0.0
  0
LINE
  5
352
  8
ﾚｲﾔ_1
 62
     5
 10
859.69444968779999
 20
-73.644741603999989
 30
0.0
 11
854.69580825770015
 21
-73.644741603999989
 31
0.0
  0
LINE
  5
353
  8
ﾚｲﾔ_1
 62
     5
 10
860.29444111660007
 20
-76.431211604799984
 30
0.0
 11
860.29444111660007
 21
-82.225835892299997
 31
0.0
  0
LINE
  5
354
  8
ﾚｲﾔ_1
 62
     5
 10
922.76876399249988
 20
-101.3524473266
 30
0.0
 11
922.76876399249988
 21
-157.91309591500001
 31
0.0
  0
LINE
  5
355
  8
ﾚｲﾔ_1
 62
     5
 10
899.39444112830006
 20
-102.7658358984
 30
0.0
 11
899.39444112830006
 21
-156.49973162879999
 31
0.0
  0
POLYLINE
  5
356
  8
ﾚｲﾔ_1
 62
     5
 10
885.19443840232668
 20
-104.42581496153238
 30
0.0
 66
     1
 70
     8
  0
VERTEX
  8
ﾚｲﾔ_1
  5
6F8
 10
885.194
 20
-104.426
 30
0.000000
  70
    32
  0
VERTEX
  8
ﾚｲﾔ_1
  5
6F9
 10
885.066
 20
-104.433
 30
0.000000
  70
    32
  0
VERTEX
  8
ﾚｲﾔ_1
  5
6FA
 10
884.938
 20
-104.456
 30
0.000000
  70
    32
  0
VERTEX
  8
ﾚｲﾔ_1
  5
6FB
 10
884.811
 20
-104.494
 30
0.000000
  70
    32
  0
VERTEX
  8
ﾚｲﾔ_1
  5
6FC
 10
884.683
 20
-104.547
 30
0.000000
  70
    32
  0
VERTEX
  8
ﾚｲﾔ_1
  5
6FD
 10
884.556
 20
-104.615
 30
0.000000
  70
    32
  0
VERTEX
  8
ﾚｲﾔ_1
  5
6FE
 10
884.429
 20
-104.699
 30
0.000000
  70
    32
  0
VERTEX
  8
ﾚｲﾔ_1
  5
6FF
 10
884.303
 20
-104.797
 30
0.000000
  70
    32
  0
VERTEX
  8
ﾚｲﾔ_1
  5
700
 10
884.177
 20
-104.910
 30
0.000000
  70
    32
  0
VERTEX
  8
ﾚｲﾔ_1
  5
701
 10
884.051
 20
-105.038
 30
0.000000
  70
    32
  0
VERTEX
  8
ﾚｲﾔ_1
  5
702
 10
883.927
 20
-105.181
 30
0.000000
  70
    32
  0
VERTEX
  8
ﾚｲﾔ_1
  5
703
 10
883.803
 20
-105.339
 30
0.000000
  70
    32
  0
VERTEX
  8
ﾚｲﾔ_1
  5
704
 10
883.680
 20
-105.511
 30
0.000000
  70
    32
  0
VERTEX
  8
ﾚｲﾔ_1
  5
705
 10
883.558
 20
-105.698
 30
0.000000
  70
    32
  0
VERTEX
  8
ﾚｲﾔ_1
  5
706
 10
883.437
 20
-105.899
 30
0.000000
  70
    32
  0
VERTEX
  8
ﾚｲﾔ_1
  5
707
 10
883.317
 20
-106.115
 30
0.000000
  70
    32
  0
VERTEX
  8
ﾚｲﾔ_1
  5
708
 10
883.198
 20
-106.345
 30
0.000000
  70
    32
  0
VERTEX
  8
ﾚｲﾔ_1
  5
709
 10
883.080
 20
-106.588
 30
0.000000
  70
    32
  0
VERTEX
  8
ﾚｲﾔ_1
  5
70A
 10
882.964
 20
-106.846
 30
0.000000
  70
    32
  0
VERTEX
  8
ﾚｲﾔ_1
  5
70B
 10
882.849
 20
-107.117
 30
0.000000
  70
    32
  0
VERTEX
  8
ﾚｲﾔ_1
  5
70C
 10
882.735
 20
-107.402
 30
0.000000
  70
    32
  0
VERTEX
  8
ﾚｲﾔ_1
  5
70D
 10
882.623
 20
-107.701
 30
0.000000
  70
    32
  0
VERTEX
  8
ﾚｲﾔ_1
  5
70E
 10
882.513
 20
-108.012
 30
0.000000
  70
    32
  0
VERTEX
  8
ﾚｲﾔ_1
  5
70F
 10
882.404
 20
-108.337
 30
0.000000
  70
    32
  0
VERTEX
  8
ﾚｲﾔ_1
  5
710
 10
882.296
 20
-108.674
 30
0.000000
  70
    32
  0
VERTEX
  8
ﾚｲﾔ_1
  5
711
 10
882.191
 20
-109.024
 30
0.000000
  70
    32
  0
VERTEX
  8
ﾚｲﾔ_1
  5
712
 10
882.087
 20
-109.386
 30
0.000000
  70
    32
  0
VERTEX
  8
ﾚｲﾔ_1
  5
713
 10
881.985
 20
-109.761
 30
0.000000
  70
    32
  0
VERTEX
  8
ﾚｲﾔ_1
  5
714
 10
881.885
 20
-110.148
 30
0.000000
  70
    32
  0
VERTEX
  8
ﾚｲﾔ_1
  5
715
 10
881.787
 20
-110.546
 30
0.000000
  70
    32
  0
VERTEX
  8
ﾚｲﾔ_1
  5
716
 10
881.691
 20
-110.956
 30
0.000000
  70
    32
  0
VERTEX
  8
ﾚｲﾔ_1
  5
717
 10
881.597
 20
-111.377
 30
0.000000
  70
    32
  0
VERTEX
  8
ﾚｲﾔ_1
  5
718
 10
881.506
 20
-111.809
 30
0.000000
  70
    32
  0
VERTEX
  8
ﾚｲﾔ_1
  5
719
 10
881.416
 20
-112.252
 30
0.000000
  70
    32
  0
VERTEX
  8
ﾚｲﾔ_1
  5
71A
 10
881.329
 20
-112.705
 30
0.000000
  70
    32
  0
VERTEX
  8
ﾚｲﾔ_1
  5
71B
 10
881.244
 20
-113.168
 30
0.000000
  70
    32
  0
VERTEX
  8
ﾚｲﾔ_1
  5
71C
 10
881.162
 20
-113.642
 30
0.000000
  70
    32
  0
VERTEX
  8
ﾚｲﾔ_1
  5
71D
 10
881.082
 20
-114.125
 30
0.000000
  70
    32
  0
VERTEX
  8
ﾚｲﾔ_1
  5
71E
 10
881.004
 20
-114.617
 30
0.000000
  70
    32
  0
VERTEX
  8
ﾚｲﾔ_1
  5
71F
 10
880.929
 20
-115.118
 30
0.000000
  70
    32
  0
VERTEX
  8
ﾚｲﾔ_1
  5
720
 10
880.857
 20
-115.629
 30
0.000000
  70
    32
  0
VERTEX
  8
ﾚｲﾔ_1
  5
721
 10
880.787
 20
-116.147
 30
0.000000
  70
    32
  0
VERTEX
  8
ﾚｲﾔ_1
  5
722
 10
880.720
 20
-116.674
 30
0.000000
  70
    32
  0
VERTEX
  8
ﾚｲﾔ_1
  5
723
 10
880.655
 20
-117.208
 30
0.000000
  70
    32
  0
VERTEX
  8
ﾚｲﾔ_1
  5
724
 10
880.594
 20
-117.750
 30
0.000000
  70
    32
  0
VERTEX
  8
ﾚｲﾔ_1
  5
725
 10
880.535
 20
-118.299
 30
0.000000
  70
    32
  0
VERTEX
  8
ﾚｲﾔ_1
  5
726
 10
880.479
 20
-118.855
 30
0.000000
  70
    32
  0
VERTEX
  8
ﾚｲﾔ_1
  5
727
 10
880.425
 20
-119.418
 30
0.000000
  70
    32
  0
VERTEX
  8
ﾚｲﾔ_1
  5
728
 10
880.375
 20
-119.987
 30
0.000000
  70
    32
  0
VERTEX
  8
ﾚｲﾔ_1
  5
729
 10
880.327
 20
-120.561
 30
0.000000
  70
    32
  0
VERTEX
  8
ﾚｲﾔ_1
  5
72A
 10
880.283
 20
-121.141
 30
0.000000
  70
    32
  0
VERTEX
  8
ﾚｲﾔ_1
  5
72B
 10
880.241
 20
-121.726
 30
0.000000
  70
    32
  0
VERTEX
  8
ﾚｲﾔ_1
  5
72C
 10
880.202
 20
-122.316
 30
0.000000
  70
    32
  0
VERTEX
  8
ﾚｲﾔ_1
  5
72D
 10
880.167
 20
-122.910
 30
0.000000
  70
    32
  0
VERTEX
  8
ﾚｲﾔ_1
  5
72E
 10
880.134
 20
-123.508
 30
0.000000
  70
    32
  0
VERTEX
  8
ﾚｲﾔ_1
  5
72F
 10
880.104
 20
-124.110
 30
0.000000
  70
    32
  0
VERTEX
  8
ﾚｲﾔ_1
  5
730
 10
880.078
 20
-124.715
 30
0.000000
  70
    32
  0
VERTEX
  8
ﾚｲﾔ_1
  5
731
 10
880.055
 20
-125.323
 30
0.000000
  70
    32
  0
VERTEX
  8
ﾚｲﾔ_1
  5
732
 10
880.034
 20
-125.934
 30
0.000000
  70
    32
  0
VERTEX
  8
ﾚｲﾔ_1
  5
733
 10
880.017
 20
-126.547
 30
0.000000
  70
    32
  0
VERTEX
  8
ﾚｲﾔ_1
  5
734
 10
880.003
 20
-127.162
 30
0.000000
  70
    32
  0
VERTEX
  8
ﾚｲﾔ_1
  5
735
 10
879.992
 20
-127.778
 30
0.000000
  70
    32
  0
VERTEX
  8
ﾚｲﾔ_1
  5
736
 10
879.984
 20
-128.396
 30
0.000000
  70
    32
  0
VERTEX
  8
ﾚｲﾔ_1
  5
737
 10
879.979
 20
-129.014
 30
0.000000
  70
    32
  0
VERTEX
  8
ﾚｲﾔ_1
  5
738
 10
879.978
 20
-129.633
 30
0.000000
  70
    32
  0
VERTEX
  8
ﾚｲﾔ_1
  5
739
 10
879.979
 20
-130.251
 30
0.000000
  70
    32
  0
VERTEX
  8
ﾚｲﾔ_1
  5
73A
 10
879.984
 20
-130.870
 30
0.000000
  70
    32
  0
VERTEX
  8
ﾚｲﾔ_1
  5
73B
 10
879.992
 20
-131.487
 30
0.000000
  70
    32
  0
VERTEX
  8
ﾚｲﾔ_1
  5
73C
 10
880.003
 20
-132.104
 30
0.000000
  70
    32
  0
VERTEX
  8
ﾚｲﾔ_1
  5
73D
 10
880.017
 20
-132.718
 30
0.000000
  70
    32
  0
VERTEX
  8
ﾚｲﾔ_1
  5
73E
 10
880.034
 20
-133.331
 30
0.000000
  70
    32
  0
VERTEX
  8
ﾚｲﾔ_1
  5
73F
 10
880.055
 20
-133.942
 30
0.000000
  70
    32
  0
VERTEX
  8
ﾚｲﾔ_1
  5
740
 10
880.078
 20
-134.550
 30
0.000000
  70
    32
  0
VERTEX
  8
ﾚｲﾔ_1
  5
741
 10
880.104
 20
-135.156
 30
0.000000
  70
    32
  0
VERTEX
  8
ﾚｲﾔ_1
  5
742
 10
880.134
 20
-135.758
 30
0.000000
  70
    32
  0
VERTEX
  8
ﾚｲﾔ_1
  5
743
 10
880.167
 20
-136.356
 30
0.000000
  70
    32
  0
VERTEX
  8
ﾚｲﾔ_1
  5
744
 10
880.202
 20
-136.950
 30
0.000000
  70
    32
  0
VERTEX
  8
ﾚｲﾔ_1
  5
745
 10
880.241
 20
-137.540
 30
0.000000
  70
    32
  0
VERTEX
  8
ﾚｲﾔ_1
  5
746
 10
880.283
 20
-138.125
 30
0.000000
  70
    32
  0
VERTEX
  8
ﾚｲﾔ_1
  5
747
 10
880.327
 20
-138.705
 30
0.000000
  70
    32
  0
VERTEX
  8
ﾚｲﾔ_1
  5
748
 10
880.375
 20
-139.279
 30
0.000000
  70
    32
  0
VERTEX
  8
ﾚｲﾔ_1
  5
749
 10
880.425
 20
-139.848
 30
0.000000
  70
    32
  0
VERTEX
  8
ﾚｲﾔ_1
  5
74A
 10
880.479
 20
-140.410
 30
0.000000
  70
    32
  0
VERTEX
  8
ﾚｲﾔ_1
  5
74B
 10
880.535
 20
-140.966
 30
0.000000
  70
    32
  0
VERTEX
  8
ﾚｲﾔ_1
  5
74C
 10
880.594
 20
-141.515
 30
0.000000
  70
    32
  0
VERTEX
  8
ﾚｲﾔ_1
  5
74D
 10
880.655
 20
-142.057
 30
0.000000
  70
    32
  0
VERTEX
  8
ﾚｲﾔ_1
  5
74E
 10
880.720
 20
-142.592
 30
0.000000
  70
    32
  0
VERTEX
  8
ﾚｲﾔ_1
  5
74F
 10
880.787
 20
-143.118
 30
0.000000
  70
    32
  0
VERTEX
  8
ﾚｲﾔ_1
  5
750
 10
880.857
 20
-143.637
 30
0.000000
  70
    32
  0
VERTEX
  8
ﾚｲﾔ_1
  5
751
 10
880.929
 20
-144.147
 30
0.000000
  70
    32
  0
VERTEX
  8
ﾚｲﾔ_1
  5
752
 10
881.004
 20
-144.649
 30
0.000000
  70
    32
  0
VERTEX
  8
ﾚｲﾔ_1
  5
753
 10
881.082
 20
-145.141
 30
0.000000
  70
    32
  0
VERTEX
  8
ﾚｲﾔ_1
  5
754
 10
881.162
 20
-145.624
 30
0.000000
  70
    32
  0
VERTEX
  8
ﾚｲﾔ_1
  5
755
 10
881.244
 20
-146.097
 30
0.000000
  70
    32
  0
VERTEX
  8
ﾚｲﾔ_1
  5
756
 10
881.329
 20
-146.561
 30
0.000000
  70
    32
  0
VERTEX
  8
ﾚｲﾔ_1
  5
757
 10
881.416
 20
-147.014
 30
0.000000
  70
    32
  0
VERTEX
  8
ﾚｲﾔ_1
  5
758
 10
881.506
 20
-147.457
 30
0.000000
  70
    32
  0
VERTEX
  8
ﾚｲﾔ_1
  5
759
 10
881.597
 20
-147.889
 30
0.000000
  70
    32
  0
VERTEX
  8
ﾚｲﾔ_1
  5
75A
 10
881.691
 20
-148.310
 30
0.000000
  70
    32
  0
VERTEX
  8
ﾚｲﾔ_1
  5
75B
 10
881.787
 20
-148.720
 30
0.000000
  70
    32
  0
VERTEX
  8
ﾚｲﾔ_1
  5
75C
 10
881.885
 20
-149.118
 30
0.000000
  70
    32
  0
VERTEX
  8
ﾚｲﾔ_1
  5
75D
 10
881.985
 20
-149.505
 30
0.000000
  70
    32
  0
VERTEX
  8
ﾚｲﾔ_1
  5
75E
 10
882.087
 20
-149.879
 30
0.000000
  70
    32
  0
VERTEX
  8
ﾚｲﾔ_1
  5
75F
 10
882.191
 20
-150.242
 30
0.000000
  70
    32
  0
VERTEX
  8
ﾚｲﾔ_1
  5
760
 10
882.296
 20
-150.592
 30
0.000000
  70
    32
  0
VERTEX
  8
ﾚｲﾔ_1
  5
761
 10
882.404
 20
-150.929
 30
0.000000
  70
    32
  0
VERTEX
  8
ﾚｲﾔ_1
  5
762
 10
882.513
 20
-151.254
 30
0.000000
  70
    32
  0
VERTEX
  8
ﾚｲﾔ_1
  5
763
 10
882.623
 20
-151.565
 30
0.000000
  70
    32
  0
VERTEX
  8
ﾚｲﾔ_1
  5
764
 10
882.735
 20
-151.863
 30
0.000000
  70
    32
  0
VERTEX
  8
ﾚｲﾔ_1
  5
765
 10
882.849
 20
-152.148
 30
0.000000
  70
    32
  0
VERTEX
  8
ﾚｲﾔ_1
  5
766
 10
882.964
 20
-152.420
 30
0.000000
  70
    32
  0
VERTEX
  8
ﾚｲﾔ_1
  5
767
 10
883.080
 20
-152.677
 30
0.000000
  70
    32
  0
VERTEX
  8
ﾚｲﾔ_1
  5
768
 10
883.198
 20
-152.921
 30
0.000000
  70
    32
  0
VERTEX
  8
ﾚｲﾔ_1
  5
769
 10
883.317
 20
-153.151
 30
0.000000
  70
    32
  0
VERTEX
  8
ﾚｲﾔ_1
  5
76A
 10
883.437
 20
-153.366
 30
0.000000
  70
    32
  0
VERTEX
  8
ﾚｲﾔ_1
  5
76B
 10
883.558
 20
-153.568
 30
0.000000
  70
    32
  0
VERTEX
  8
ﾚｲﾔ_1
  5
76C
 10
883.680
 20
-153.754
 30
0.000000
  70
    32
  0
VERTEX
  8
ﾚｲﾔ_1
  5
76D
 10
883.803
 20
-153.927
 30
0.000000
  70
    32
  0
VERTEX
  8
ﾚｲﾔ_1
  5
76E
 10
883.927
 20
-154.084
 30
0.000000
  70
    32
  0
VERTEX
  8
ﾚｲﾔ_1
  5
76F
 10
884.051
 20
-154.227
 30
0.000000
  70
    32
  0
VERTEX
  8
ﾚｲﾔ_1
  5
770
 10
884.177
 20
-154.355
 30
0.000000
  70
    32
  0
VERTEX
  8
ﾚｲﾔ_1
  5
771
 10
884.303
 20
-154.469
 30
0.000000
  70
    32
  0
VERTEX
  8
ﾚｲﾔ_1
  5
772
 10
884.429
 20
-154.567
 30
0.000000
  70
    32
  0
VERTEX
  8
ﾚｲﾔ_1
  5
773
 10
884.556
 20
-154.650
 30
0.000000
  70
    32
  0
VERTEX
  8
ﾚｲﾔ_1
  5
774
 10
884.683
 20
-154.718
 30
0.000000
  70
    32
  0
VERTEX
  8
ﾚｲﾔ_1
  5
775
 10
884.811
 20
-154.771
 30
0.000000
  70
    32
  0
VERTEX
  8
ﾚｲﾔ_1
  5
776
 10
884.939
 20
-154.809
 30
0.000000
  70
    32
  0
VERTEX
  8
ﾚｲﾔ_1
  5
777
 10
885.066
 20
-154.832
 30
0.000000
  70
    32
  0
VERTEX
  8
ﾚｲﾔ_1
  5
778
 10
885.194
 20
-154.840
 30
0.000000
  70
    32
  0
SEQEND
  8
ﾚｲﾔ_1
  5
779
  0
LINE
  5
357
  8
ﾚｲﾔ_1
 62
     5
 10
899.39444112830006
 20
-104.4258101846
 30
0.0
 11
885.19444112399992
 21
-104.4258101846
 31
0.0
  0
LINE
  5
358
  8
ﾚｲﾔ_1
 62
     5
 10
885.19444112399992
 20
-104.4258358989
 30
0.0
 11
884.27750398089995
 21
-95.423181610499995
 31
0.0
  0
LINE
  5
359
  8
ﾚｲﾔ_1
 62
     5
 10
862.29444111719988
 20
-101.6327616124
 30
0.0
 11
856.84873825839986
 21
-117.47475876
 31
0.0
  0
ARC
  5
35A
  8
ﾚｲﾔ_1
 62
     5
 10
865.79442540390005
 20
-109.2484344718
 30
0.0
 40
2.0000000006
 50
299.47579100000002
 51
0.0
  0
LINE
  5
35B
  8
ﾚｲﾔ_1
 62
     5
 10
866.77975826139993
 20
-110.9888701866
 30
0.0
 11
857.22108254419993
 21
-116.39157875959999
 31
0.0
  0
LINE
  5
35C
  8
ﾚｲﾔ_1
 62
     5
 10
863.79444111759994
 20
-102.63276161269999
 30
0.0
 11
867.79442540449998
 21
-104.2577616131
 31
0.0
  0
LINE
  5
35D
  8
ﾚｲﾔ_1
 62
     5
 10
867.79442540449998
 20
-109.2484344718
 30
0.0
 11
867.79442540449998
 21
-104.2577601846
 31
0.0
  0
LINE
  5
35E
  8
ﾚｲﾔ_1
 62
     5
 10
869.29442540499986
 20
-94.632761610299994
 30
0.0
 11
869.29442540499986
 21
-96.382745896499998
 31
0.0
  0
LINE
  5
35F
  8
ﾚｲﾔ_1
 62
     5
 10
864.54444111780015
 20
-96.132761610700001
 30
0.0
 11
869.04444111919997
 21
-96.132761610700001
 31
0.0
  0
LINE
  5
360
  8
ﾚｲﾔ_1
 62
     5
 10
868.04444111889984
 20
-98.132761611299998
 30
0.0
 11
879.29450255079996
 21
-98.132761611299998
 31
0.0
  0
LINE
  5
361
  8
ﾚｲﾔ_1
 62
     5
 10
868.04444111889984
 20
-102.0258358982
 30
0.0
 11
868.04444111889984
 21
-98.132761611299998
 31
0.0
  0
LINE
  5
362
  8
ﾚｲﾔ_1
 62
     5
 10
864.54444111780015
 20
-102.0258358982
 30
0.0
 11
864.54444111780015
 21
-96.132761610700001
 31
0.0
  0
LINE
  5
363
  8
ﾚｲﾔ_1
 62
     5
 10
864.54444111780015
 20
-102.0258358982
 30
0.0
 11
868.04444111889984
 21
-102.0258358982
 31
0.0
  0
LINE
  5
364
  8
ﾚｲﾔ_1
 62
     5
 10
924.29444113580007
 20
-99.826770183199997
 30
0.0
 11
922.76876399249988
 21
-101.3524473266
 31
0.0
  0
LINE
  5
365
  8
ﾚｲﾔ_1
 62
     5
 10
908.39444113100001
 20
-156.522494486
 30
0.0
 11
908.39444113100001
 21
-102.7658358984
 31
0.0
  0
LINE
  5
366
  8
ﾚｲﾔ_1
 62
     5
 10
924.29450542149993
 20
-159.4387702011
 30
0.0
 11
922.76882399249985
 21
-157.91309591500001
 31
0.0
  0
ARC
  5
367
  8
ﾚｲﾔ_1
 62
     5
 10
867.29444111869998
 20
-182.1258344936
 30
0.0
 40
3.0000000008999992
 50
270.0
 51
0.0
  0
ARC
  5
368
  8
ﾚｲﾔ_1
 62
     5
 10
877.09444112160008
 20
-152.8397930562999
 30
0.0
 40
2.0000000006
 50
180.0
 51
270.0
  0
LINE
  5
369
  8
ﾚｲﾔ_1
 62
     5
 10
877.09444112160008
 20
-154.83979305689999
 30
0.0
 11
899.39444112830006
 21
-154.83979305689999
 31
0.0
  0
ARC
  5
36A
  8
ﾚｲﾔ_1
 62
     5
 10
903.89449827249985
 20
-156.49973162879999
 30
0.0
 40
4.5000000014000001
 50
180.000123
 51
0.000123
  0
LINE
  5
36B
  8
ﾚｲﾔ_1
 62
     5
 10
922.76882399249985
 20
-157.91309591500001
 30
0.0
 11
908.29069827379999
 21
-157.4606859148
 31
0.0
  0
LINE
  5
36C
  8
ﾚｲﾔ_1
 62
     5
 10
824.29444110580005
 20
-117.6327616172
 30
0.0
 11
851.79442539969989
 21
-117.6327616172
 31
0.0
  0
LINE
  5
36D
  8
ﾚｲﾔ_1
  6
BORDER
 62
     3
 10
824.29444110580005
 20
94.536240046299994
 30
0.0
 11
824.29444110580005
 21
-268.8294645254
 31
0.0
  0
LINE
  5
36E
  8
ﾚｲﾔ_1
 62
     5
 10
880.79450255130007
 20
-74.632761604300001
 30
0.0
 11
880.79450255130007
 21
-96.632761610900005
 31
0.0
  0
LINE
  5
36F
  8
ﾚｲﾔ_1
 62
     5
 10
879.33044112229993
 20
-86.096778750599995
 30
0.0
 11
879.33044112229993
 21
-92.161835895199985
 31
0.0
  0
LINE
  5
370
  8
ﾚｲﾔ_1
 62
     5
 10
880.79444112270005
 20
-84.632778750100002
 30
0.0
 11
879.33044112229993
 21
-86.096778750599995
 31
0.0
  0
LINE
  5
371
  8
ﾚｲﾔ_1
 62
     5
 10
859.00209254479989
 20
-93.889871610000014
 30
0.0
 11
851.79442539969989
 21
-117.6327616172
 31
0.0
  0
ARC
  5
372
  8
ﾚｲﾔ_1
 62
     5
 10
882.2877982660001
 20
-95.625835896299989
 30
0.0
 40
2.0000000006
 50
5.8156270000000001
 51
90.0
  0
LINE
  5
373
  8
ﾚｲﾔ_1
 62
     5
 10
882.2877982660001
 20
-93.625835895699979
 30
0.0
 11
880.79444112270005
 21
-93.625835895699979
 31
0.0
  0
LINE
  5
374
  8
ﾚｲﾔ_1
 62
     5
 10
880.79444112270005
 20
-93.625835895699979
 30
0.0
 11
879.33044112229993
 21
-92.161835895199985
 31
0.0
  0
LINE
  5
375
  8
ﾚｲﾔ_1
 62
     5
 10
864.29444111780003
 20
-84.325835892900002
 30
0.0
 11
864.29444111780003
 21
-89.632761608799996
 31
0.0
  0
ARC
  5
376
  8
ﾚｲﾔ_1
 62
     5
 10
864.74337540359988
 20
-95.632761610600014
 30
0.0
 40
6.0000000017999993
 50
90.0
 51
163.113201
  0
LINE
  5
377
  8
ﾚｲﾔ_1
 62
     5
 10
873.79444112059991
 20
-84.325835892900002
 30
0.0
 11
873.79444112059991
 21
-94.632761610299994
 31
0.0
  0
LINE
  5
378
  8
ﾚｲﾔ_1
 62
     5
 10
877.79444112179988
 20
-96.632761610900005
 30
0.0
 11
877.79444112179988
 21
-81.132761606199992
 31
0.0
  0
LINE
  5
379
  8
ﾚｲﾔ_1
 62
     5
 10
873.79444112059991
 20
-89.632761608799996
 30
0.0
 11
824.29444110580005
 21
-89.632761608799996
 31
0.0
  0
LINE
  5
37A
  8
ﾚｲﾔ_1
 62
     5
 10
873.79444112059991
 20
-89.632761608799996
 30
0.0
 11
824.29444110580005
 21
-89.632761608799996
 31
0.0
  0
LINE
  5
37B
  8
ﾚｲﾔ_1
 62
     5
 10
851.79442539969989
 20
-169.6327616328
 30
0.0
 11
851.79442539969989
 21
-117.6327616172
 31
0.0
  0
ARC
  5
37C
  8
ﾚｲﾔ_1
 62
     5
 10
857.79442540149989
 20
-117.7998401886
 30
0.0
 40
1.0000000003
 50
161.02954099999999
 51
180.0
  0
LINE
  5
37D
  8
ﾚｲﾔ_1
 62
     5
 10
856.79442540119987
 20
-119.6327616178
 30
0.0
 11
872.69444112029998
 21
-119.6327616178
 31
0.0
  0
ENDSEC
  0
EOF
