  0
SECTION
  2
HEADER
  9
$ACADVER
  1
AC1009
  9
$INSBASE
 10
0.0
 20
0.0
 30
0.0
  9
$EXTMIN
 10
39.100911458299997
 20
-781.18129302699992
 30
0.0
  9
$EXTMAX
 10
1651.859059659233
 20
338.81870697300002
 30
0.0
  9
$LIMMIN
 10
0.0
 20
0.0
  9
$LIMMAX
 10
0.0
 20
0.0
  9
$ORTHOMODE
 70
     0
  9
$REGENMODE
 70
     1
  9
$FILLMODE
 70
     1
  9
$QTEXTMODE
 70
     0
  9
$MIRRTEXT
 70
     1
  9
$DRAGMODE
 70
     2
  9
$LTSCALE
 40
1.0
  9
$OSMODE
 70
    31
  9
$ATTMODE
 70
     1
  9
$TEXTSIZE
 40
0.0
  9
$TRACEWID
 40
0.05
  9
$TEXTSTYLE
  7
STANDARD
  9
$CLAYER
  8
0
  9
$CELTYPE
  6
CONTINUOUS
  9
$CECOLOR
 62
   256
  9
$DIMSCALE
 40
1.0
  9
$DIMASZ
 40
0.18
  9
$DIMEXO
 40
0.0625
  9
$DIMDLI
 40
0.38
  9
$DIMRND
 40
0.0
  9
$DIMDLE
 40
0.0
  9
$DIMEXE
 40
0.18
  9
$DIMTP
 40
0.0
  9
$DIMTM
 40
0.0
  9
$DIMTXT
 40
0.18
  9
$DIMCEN
 40
0.09
  9
$DIMTSZ
 40
0.0
  9
$DIMTOL
 70
     0
  9
$DIMLIM
 70
     0
  9
$DIMTIH
 70
     1
  9
$DIMTOH
 70
     1
  9
$DIMSE1
 70
     0
  9
$DIMSE2
 70
     0
  9
$DIMTAD
 70
     0
  9
$DIMZIN
 70
     0
  9
$DIMBLK
  1

  9
$DIMASO
 70
     1
  9
$DIMSHO
 70
     1
  9
$DIMPOST
  1

  9
$DIMAPOST
  1

  9
$DIMALT
 70
     0
  9
$DIMALTD
 70
     2
  9
$DIMALTF
 40
25.399999999999999
  9
$DIMLFAC
 40
1.0
  9
$DIMTOFL
 70
     0
  9
$DIMTVP
 40
0.0
  9
$DIMTIX
 70
     0
  9
$DIMSOXD
 70
     0
  9
$DIMSAH
 70
     0
  9
$DIMBLK1
  1

  9
$DIMBLK2
  1

  9
$DIMSTYLE
  2
STANDARD
  9
$DIMCLRD
 70
     0
  9
$DIMCLRE
 70
     0
  9
$DIMCLRT
 70
     0
  9
$DIMTFAC
 40
1.0
  9
$DIMGAP
 40
0.09
  9
$LUNITS
 70
     2
  9
$LUPREC
 70
     4
  9
$SKETCHINC
 40
0.1
  9
$FILLETRAD
 40
0.0
  9
$AUNITS
 70
     0
  9
$AUPREC
 70
     0
  9
$MENU
  1
acad
  9
$ELEVATION
 40
0.0
  9
$PELEVATION
 40
0.0
  9
$THICKNESS
 40
0.0
  9
$LIMCHECK
 70
     0
  9
$BLIPMODE
 70
     0
  9
$CHAMFERA
 40
0.0
  9
$CHAMFERB
 40
0.0
  9
$SKPOLY
 70
     0
  9
$TDCREATE
 40
2454860.5930606141
  9
$TDUPDATE
 40
2454860.5932602659
  9
$TDINDWG
 40
0.0002086921
  9
$TDUSRTIMER
 40
0.0002083333
  9
$USRTIMER
 70
     1
  9
$ANGBASE
 50
0.0
  9
$ANGDIR
 70
     0
  9
$PDMODE
 70
     3
  9
$PDSIZE
 40
-1.0
  9
$PLINEWID
 40
0.0
  9
$COORDS
 70
     2
  9
$SPLFRAME
 70
     0
  9
$SPLINETYPE
 70
     6
  9
$SPLINESEGS
 70
     8
  9
$ATTDIA
 70
     0
  9
$ATTREQ
 70
     1
  9
$HANDLING
 70
     1
  9
$HANDSEED
  5
49F
  9
$SURFTAB1
 70
     6
  9
$SURFTAB2
 70
     6
  9
$SURFTYPE
 70
     6
  9
$SURFU
 70
     6
  9
$SURFV
 70
     6
  9
$UCSNAME
  2

  9
$UCSORG
 10
0.0
 20
0.0
 30
0.0
  9
$UCSXDIR
 10
1.0
 20
0.0
 30
0.0
  9
$UCSYDIR
 10
0.0
 20
1.0
 30
0.0
  9
$PUCSNAME
  2

  9
$PUCSORG
 10
0.0
 20
0.0
 30
0.0
  9
$PUCSXDIR
 10
1.0
 20
0.0
 30
0.0
  9
$PUCSYDIR
 10
0.0
 20
1.0
 30
0.0
  9
$USERI1
 70
     0
  9
$USERI2
 70
     0
  9
$USERI3
 70
     0
  9
$USERI4
 70
     0
  9
$USERI5
 70
     0
  9
$USERR1
 40
0.0
  9
$USERR2
 40
0.0
  9
$USERR3
 40
0.0
  9
$USERR4
 40
0.0
  9
$USERR5
 40
0.0
  9
$WORLDVIEW
 70
     1
  9
$SHADEDGE
 70
     3
  9
$SHADEDIF
 70
    70
  9
$TILEMODE
 70
     1
  9
$MAXACTVP
 70
    16
  9
$PLIMCHECK
 70
     0
  9
$PEXTMIN
 10
1.0000000000000000E+020
 20
1.0000000000000000E+020
 30
1.0000000000000000E+020
  9
$PEXTMAX
 10
-1.0000000000000000E+020
 20
-1.0000000000000000E+020
 30
-1.0000000000000000E+020
  9
$PLIMMIN
 10
0.0
 20
0.0
  9
$PLIMMAX
 10
12.0
 20
9.0
  9
$UNITMODE
 70
     0
  9
$VISRETAIN
 70
     0
  9
$PLINEGEN
 70
     1
  9
$PSLTSCALE
 70
     0
  0
ENDSEC
  0
SECTION
  2
TABLES
  0
TABLE
  2
VPORT
 70
     2
  0
VPORT
  2
*ACTIVE
 70
     0
 10
0.0
 20
0.0
 11
1.0
 21
1.0
 12
845.47998555876666
 22
-221.1812930269999
 13
0.0
 23
0.0
 14
1.0
 24
1.0
 15
0.0
 25
0.0
 16
0.0
 26
0.0
 36
1.0
 17
0.0
 27
0.0
 37
0.0
 40
1129.2946058091279
 41
1.6343490304709141
 42
50.0
 43
0.0
 44
0.0
 50
0.0
 51
0.0
 71
     0
 72
   100
 73
     1
 74
     1
 75
     0
 76
     0
 77
     0
 78
     0
  0
ENDTAB
  0
TABLE
  2
LTYPE
 70
    11
  0
LTYPE
  2
CONTINUOUS
 70
     0
  3
Solid line
 72
    65
 73
     0
 40
0.0
  0
LTYPE
  2
DOT
 70
     0
  3
. . . . . . . . 
 72
    65
 73
     2
 40
1.0
 49
0.0
 49
-1.0
  0
LTYPE
  2
DASHED
 70
     0
  3
___  ___  ___  ___  
 72
    65
 73
     2
 40
4.0
 49
3.0
 49
-1.0
  0
LTYPE
  2
HIDDEN
 70
     0
  3
__ __ __ __ 
 72
    65
 73
     2
 40
3.0
 49
2.0
 49
-1.0
  0
LTYPE
  2
STITCH
 70
     0
  3
_ _ _ _ 
 72
    65
 73
     2
 40
2.0
 49
1.0
 49
-1.0
  0
LTYPE
  2
CENTER
 70
     0
  3
______  __  ______  __  
 72
    65
 73
     4
 40
43.0
 49
40.0
 49
-1.0
 49
1.0
 49
-1.0
  0
LTYPE
  2
DASHDOT
 70
     0
  3
____ . ____ . 
 72
    65
 73
     4
 40
32.0
 49
30.0
 49
-1.0
 49
0.0
 49
-1.0
  0
LTYPE
  2
BORDER
 70
     0
  3
__ . __ . 
 72
    65
 73
     4
 40
22.0
 49
20.0
 49
-1.0
 49
0.0
 49
-1.0
  0
LTYPE
  2
CUTTING
 70
     0
  3
________   ___   ___   
 72
    65
 73
     6
 40
45.0
 49
40.0
 49
-1.0
 49
1.0
 49
-1.0
 49
1.0
 49
-1.0
  0
LTYPE
  2
PHANTOM
 70
     0
  3
______  __  __  
 72
    65
 73
     6
 40
35.0
 49
30.0
 49
-1.0
 49
1.0
 49
-1.0
 49
1.0
 49
-1.0
  0
LTYPE
  2
DIVIDE
 70
     0
  3
____ . . ____ . . 
 72
    65
 73
     6
 40
23.0
 49
20.0
 49
-1.0
 49
0.0
 49
-1.0
 49
0.0
 49
-1.0
  0
ENDTAB
  0
TABLE
  2
LAYER
 70
     4
  0
LAYER
  2
0
 70
     0
 62
     7
  6
CONTINUOUS
  0
LAYER
  2
LAYER1
 70
     0
 62
     7
  6
CONTINUOUS
  0
LAYER
  2
┌▓È_1
 70
     0
 62
     7
  6
CONTINUOUS
  0
LAYER
  2
Éíû@É³
 70
     0
 62
     7
  6
CONTINUOUS
  0
ENDTAB
  0
TABLE
  2
STYLE
 70
     1
  0
STYLE
  2
STANDARD
 70
     0
 40
0.0
 41
1.0
 50
0.0
 71
     0
 42
0.0
  3
txt
  4
extfont
  0
ENDTAB
  0
TABLE
  2
VIEW
 70
     0
  0
ENDTAB
  0
TABLE
  2
UCS
 70
     0
  0
ENDTAB
  0
TABLE
  2
APPID
 70
     2
  0
APPID
  2
ACAD
 70
     0
  0
APPID
  2
DCO15
 70
     0
  0
ENDTAB
  0
TABLE
  2
DIMSTYLE
 70
     4
  0
DIMSTYLE
  2
STANDARD
 70
     0
  3

  4

  5

  6

  7

 40
1.0
 41
0.18
 42
0.0625
 43
0.38
 44
0.18
 45
0.0
 46
0.0
 47
0.0
 48
0.0
140
0.18
141
0.09
142
0.0
143
25.399999999999999
144
1.0
145
0.0
146
1.0
147
0.09
 71
     0
 72
     0
 73
     1
 74
     1
 75
     0
 76
     0
 77
     0
 78
     0
170
     0
171
     2
172
     0
173
     0
174
     0
175
     0
176
     0
177
     0
178
     0
  0
DIMSTYLE
  2
VELDIM0
 70
     0
  3

  4

  5

  6

  7

 40
1.0
 41
6.0
 42
0.0625
 43
0.38
 44
1.0
 45
0.0
 46
6.0
 47
0.0
 48
0.0
140
5.9972220420999998
141
0.09
142
0.0
143
25.399999999999999
144
1.0
145
0.0
146
1.0
147
0.09
 71
     0
 72
     0
 73
     0
 74
     0
 75
     0
 76
     0
 77
     0
 78
     8
170
     0
171
     2
172
     0
173
     0
174
     0
175
     0
176
     0
177
     0
178
     0
  0
DIMSTYLE
  2
VELDIM1
 70
     0
  3

  4

  5

  6

  7

 40
1.0
 41
6.0
 42
0.0625
 43
0.38
 44
1.25
 45
0.0
 46
5.0
 47
0.0
 48
0.0
140
4.1980556725999989
141
0.09
142
0.0
143
25.399999999999999
144
1.0
145
0.0
146
1.0
147
0.09
 71
     0
 72
     0
 73
     0
 74
     0
 75
     0
 76
     0
 77
     0
 78
     8
170
     0
171
     2
172
     0
173
     0
174
     0
175
     0
176
     0
177
     0
178
     0
  0
DIMSTYLE
  2
VELDIM2
 70
     0
  3

  4

  5

  6

  7

 40
1.0
 41
12.0
 42
0.0625
 43
0.38
 44
0.5
 45
0.0
 46
3.0
 47
0.0
 48
0.0
140
11.9944440842
141
0.09
142
0.0
143
25.399999999999999
144
1.0
145
0.0
146
1.0
147
0.09
 71
     0
 72
     0
 73
     0
 74
     0
 75
     0
 76
     0
 77
     0
 78
     8
170
     0
171
     2
172
     0
173
     0
174
     0
175
     0
176
     0
177
     0
178
     0
  0
ENDTAB
  0
ENDSEC
  0
SECTION
  2
BLOCKS
  0
BLOCK
  8
0
  2
$MODEL_SPACE
 70
     0
 10
0.0
 20
0.0
 30
0.0
  3
$MODEL_SPACE
  1

  0
ENDBLK
  5
E
  8
0
  0
BLOCK
 67
     1
  8
0
  2
$PAPER_SPACE
 70
     0
 10
0.0
 20
0.0
 30
0.0
  3
$PAPER_SPACE
  1

  0
ENDBLK
  5
10
 67
     1
  8
0
  0
BLOCK
  8
0
  2
CLUMP0
 70
     0
 10
0.0
 20
0.0
 30
0.0
  3
CLUMP0
  1

  0
INSERT
  5
36
  8
┌▓È_1
 62
     5
  2
*X1
 10
0.0
 20
0.0
 30
0.0
  0
LINE
  5
51
  8
┌▓È_1
 62
     5
 10
794.76484374999995
 20
-563.26871880609986
 30
0.0
 11
794.76484374999995
 21
-566.26871880609986
 31
0.0
  0
LINE
  5
52
  8
┌▓È_1
 62
     5
 10
914.26484374999995
 20
-563.26871880609986
 30
0.0
 11
914.26484374999995
 21
-566.26871880609986
 31
0.0
  0
LINE
  5
53
  8
┌▓È_1
 62
     5
 10
780.51484374999995
 20
-563.26871880609986
 30
0.0
 11
780.51484374999995
 21
-566.26871880609986
 31
0.0
  0
LINE
  5
54
  8
┌▓È_1
 62
     5
 10
928.51484374999995
 20
-563.26871880609986
 30
0.0
 11
780.51484374999995
 21
-563.26871880609986
 31
0.0
  0
LINE
  5
55
  8
┌▓È_1
 62
     5
 10
928.51484374999995
 20
-566.26871880609986
 30
0.0
 11
928.51484374999995
 21
-563.26871880609986
 31
0.0
  0
LINE
  5
56
  8
┌▓È_1
 62
     5
 10
780.51484374999995
 20
-566.26871880609986
 30
0.0
 11
928.51484374999995
 21
-566.26871880609986
 31
0.0
  0
ENDBLK
  5
57
  8
0
  0
BLOCK
  8
0
  2
*X1
 70
     1
 10
0.0
 20
0.0
 30
0.0
  3
*X1
  1

  0
LINE
  5
38
  8
┌▓È_1
 62
     5
 10
780.51484374999995
 20
-565.07147492139995
 30
0.0
 11
782.31759986520001
 21
-563.26871880609986
 31
0.0
  0
LINE
  5
39
  8
┌▓È_1
 62
     5
 10
780.51484374999995
 20
-565.77858170260004
 30
0.0
 11
783.02470664639986
 21
-563.26871880609986
 31
0.0
  0
LINE
  5
3A
  8
┌▓È_1
 62
     5
 10
780.73181342759995
 20
-566.26871880609986
 30
0.0
 11
783.73181342759995
 21
-563.26871880609986
 31
0.0
  0
LINE
  5
3B
  8
┌▓È_1
 62
     5
 10
781.43892020880003
 20
-566.26871880609986
 30
0.0
 11
784.43892020880003
 21
-563.26871880609986
 31
0.0
  0
LINE
  5
3C
  8
┌▓È_1
 62
     5
 10
784.97445411470005
 20
-566.26871880609986
 30
0.0
 11
787.97445411470005
 21
-563.26871880609986
 31
0.0
  0
LINE
  5
3D
  8
┌▓È_1
 62
     5
 10
785.68156089590002
 20
-566.26871880609986
 30
0.0
 11
788.68156089590002
 21
-563.26871880609986
 31
0.0
  0
LINE
  5
3E
  8
┌▓È_1
 62
     5
 10
786.38866767709999
 20
-566.26871880609986
 30
0.0
 11
789.3886676771001
 21
-563.26871880609986
 31
0.0
  0
LINE
  5
3F
  8
┌▓È_1
 62
     5
 10
787.09577445830007
 20
-566.26871880609986
 30
0.0
 11
790.09577445829996
 21
-563.26871880609986
 31
0.0
  0
LINE
  5
40
  8
┌▓È_1
 62
     5
 10
790.63130836419987
 20
-566.26871880609986
 30
0.0
 11
793.63130836419998
 21
-563.26871880609986
 31
0.0
  0
LINE
  5
41
  8
┌▓È_1
 62
     5
 10
791.33841514539995
 20
-566.26871880609986
 30
0.0
 11
794.33841514539995
 21
-563.26871880609986
 31
0.0
  0
LINE
  5
42
  8
┌▓È_1
 62
     5
 10
792.04552192660003
 20
-566.26871880609986
 30
0.0
 11
794.76484374999995
 21
-563.54939698269993
 31
0.0
  0
LINE
  5
43
  8
┌▓È_1
 62
     5
 10
792.75262870779989
 20
-566.26871880609986
 30
0.0
 11
794.76484374999995
 21
-564.25650376390001
 31
0.0
  0
LINE
  5
44
  8
┌▓È_1
 62
     5
 10
914.26484374999995
 20
-563.55044300330007
 30
0.0
 11
914.54656794710002
 21
-563.26871880609986
 31
0.0
  0
LINE
  5
45
  8
┌▓È_1
 62
     5
 10
915.08210185309986
 20
-566.26871880609986
 30
0.0
 11
918.08210185309997
 21
-563.26871880609986
 31
0.0
  0
LINE
  5
46
  8
┌▓È_1
 62
     5
 10
915.78920863420001
 20
-566.26871880609986
 30
0.0
 11
918.78920863419989
 21
-563.26871880609986
 31
0.0
  0
LINE
  5
47
  8
┌▓È_1
 62
     5
 10
916.49631541539986
 20
-566.26871880609986
 30
0.0
 11
919.49631541539986
 21
-563.26871880609986
 31
0.0
  0
LINE
  5
48
  8
┌▓È_1
 62
     5
 10
917.20342219660006
 20
-566.26871880609986
 30
0.0
 11
920.20342219659994
 21
-563.26871880609986
 31
0.0
  0
LINE
  5
49
  8
┌▓È_1
 62
     5
 10
920.7389561025999
 20
-566.26871880609986
 30
0.0
 11
923.7389561025999
 21
-563.26871880609986
 31
0.0
  0
LINE
  5
4A
  8
┌▓È_1
 62
     5
 10
921.44606288369994
 20
-566.26871880609986
 30
0.0
 11
924.44606288370005
 21
-563.26871880609986
 31
0.0
  0
LINE
  5
4B
  8
┌▓È_1
 62
     5
 10
922.15316966490002
 20
-566.26871880609986
 30
0.0
 11
925.15316966489991
 21
-563.26871880609986
 31
0.0
  0
LINE
  5
4C
  8
┌▓È_1
 62
     5
 10
922.86027644609987
 20
-566.26871880609986
 30
0.0
 11
925.86027644609999
 21
-563.26871880609986
 31
0.0
  0
LINE
  5
4D
  8
┌▓È_1
 62
     5
 10
926.39581035200001
 20
-566.26871880609986
 30
0.0
 11
928.51484374999995
 21
-564.14968540819984
 31
0.0
  0
LINE
  5
4E
  8
┌▓È_1
 62
     5
 10
927.10291713320009
 20
-566.26871880609986
 30
0.0
 11
928.51484374999995
 21
-564.85679218940004
 31
0.0
  0
LINE
  5
4F
  8
┌▓È_1
 62
     5
 10
927.81002391439995
 20
-566.26871880609986
 30
0.0
 11
928.51484374999995
 21
-565.56389897050008
 31
0.0
  0
ENDBLK
  5
50
  8
0
  0
BLOCK
  8
0
  2
*D2
 70
     1
 10
0.0
 20
0.0
 30
0.0
  3
*D2
  1

  0
TEXT
  5
5B
  8
0
 62
     0
 10
757.4565104484999
 20
-566.53260764200002
 30
0.0
 40
5.9972220420999998
  1
3
 50
90.0
  0
LINE
  5
5C
  8
0
 62
     0
 10
778.51484374999995
 20
-563.26871880609986
 30
0.0
 11
759.51484374999995
 21
-563.26871880609986
 31
0.0
  0
LINE
  5
5D
  8
0
 62
     0
 10
778.51484374999995
 20
-566.26871880609986
 30
0.0
 11
759.51484374999995
 21
-566.26871880609986
 31
0.0
  0
LINE
  5
5E
  8
0
 62
     0
 10
760.51484374999995
 20
-563.26871880609986
 30
0.0
 11
760.51484374999995
 21
-563.26871880609986
 31
0.0
  0
LINE
  5
5F
  8
0
 62
     0
 10
760.51484374999995
 20
-563.26871880609986
 30
0.0
 11
760.51484374999995
 21
-566.26871880609986
 31
0.0
  0
LINE
  5
60
  8
0
 62
     0
 10
760.51484374999995
 20
-566.26871880609986
 30
0.0
 11
760.51484374999995
 21
-563.26871880609986
 31
0.0
  0
LINE
  5
61
  8
0
 62
     0
 10
760.51484374999995
 20
-566.26871880609986
 30
0.0
 11
760.51484374999995
 21
-566.26871880609986
 31
0.0
  0
LINE
  5
62
  8
0
 62
     0
 10
760.51484374999995
 20
-566.26871880609986
 30
0.0
 11
760.51484374999995
 21
-572.26871880609997
 31
0.0
  0
SOLID
  5
63
  8
0
 62
     0
 10
760.51484374999995
 20
-566.26871880609986
 30
0.0
 11
762.01484374999995
 21
-572.26871880609997
 31
0.0
 12
759.01484374999995
 22
-572.26871880609997
 32
0.0
 13
760.51484374999995
 23
-570.76871880609986
 33
0.0
  0
LINE
  5
64
  8
0
 62
     0
 10
760.51484374999995
 20
-563.26871880609986
 30
0.0
 11
760.51484374999995
 21
-557.26871880609986
 31
0.0
  0
SOLID
  5
65
  8
0
 62
     0
 10
760.51484374999995
 20
-563.26871880609986
 30
0.0
 11
759.01484374999995
 21
-557.26871880609986
 31
0.0
 12
762.01484374999995
 22
-557.26871880609986
 32
0.0
 13
760.51484374999995
 23
-558.76871880609986
 33
0.0
  0
ENDBLK
  5
66
  8
0
  0
BLOCK
  8
0
  2
*D3
 70
     1
 10
0.0
 20
0.0
 30
0.0
  3
*D3
  1

  0
TEXT
  5
6D
  8
0
 62
     0
 10
741.98701014469987
 20
-641.45568335730002
 30
0.0
 40
4.1980556725999989
  1
örÉàî¹ùáæñé╔âSâÇâpâbâLâôô\òté»
 50
60.0
  0
LINE
  5
6E
  8
0
 62
     0
 10
787.36725260419996
 20
-566.31202007629997
 30
0.0
 11
743.48403132199985
 21
-642.31998893690002
 31
0.0
  0
SOLID
  5
6F
  8
0
 62
     0
 10
787.36725260419996
 20
-566.31202007629997
 30
0.0
 11
785.66629070979991
 21
-572.25817249900001
 31
0.0
 12
783.06821449850008
 22
-570.7581724989999
 32
0.0
 13
785.11725260419996
 23
-570.20913439330002
 33
0.0
  0
ENDBLK
  5
70
  8
0
  0
BLOCK
  8
0
  2
*D4
 70
     1
 10
0.0
 20
0.0
 30
0.0
  3
*D4
  1

  0
TEXT
  5
75
  8
0
 62
     0
 10
808.65373401639988
 20
-592.89438547650002
 30
0.0
 40
5.9972220420999998
  1
(%%c119.5üjâZâôâ^ ü[é╔ô\òté»
  0
LINE
  5
76
  8
0
 62
     0
 10
794.76484374999995
 20
-568.26871880609997
 30
0.0
 11
794.76484374999995
 21
-596.95271877809989
 31
0.0
  0
LINE
  5
77
  8
0
 62
     0
 10
914.26484374999995
 20
-568.26871880609997
 30
0.0
 11
914.26484374999995
 21
-596.95271877809989
 31
0.0
  0
LINE
  5
78
  8
0
 62
     0
 10
794.76484374999995
 20
-595.95271877810001
 30
0.0
 11
903.9037311553999
 21
-595.95271877810001
 31
0.0
  0
LINE
  5
79
  8
0
 62
     0
 10
794.76484374999995
 20
-595.95271877810001
 30
0.0
 11
805.12595634460001
 21
-595.95271877810001
 31
0.0
  0
LINE
  5
7A
  8
0
 62
     0
 10
914.26484374999995
 20
-595.95271877810001
 30
0.0
 11
903.9037311553999
 21
-595.95271877810001
 31
0.0
  0
LINE
  5
7B
  8
0
 62
     0
 10
914.26484374999995
 20
-595.95271877810001
 30
0.0
 11
805.12595634460001
 21
-595.95271877810001
 31
0.0
  0
LINE
  5
7C
  8
0
 62
     0
 10
914.26484374999995
 20
-595.95271877810001
 30
0.0
 11
908.26484374999995
 21
-595.95271877810001
 31
0.0
  0
SOLID
  5
7D
  8
0
 62
     0
 10
914.26484374999995
 20
-595.95271877810001
 30
0.0
 11
908.26484374999995
 21
-597.45271877809989
 31
0.0
 12
908.26484374999995
 22
-594.45271877810001
 32
0.0
 13
909.76484374999995
 23
-595.95271877810001
 33
0.0
  0
LINE
  5
7E
  8
0
 62
     0
 10
794.76484374999995
 20
-595.95271877810001
 30
0.0
 11
800.76484374999995
 21
-595.95271877810001
 31
0.0
  0
SOLID
  5
7F
  8
0
 62
     0
 10
794.76484374999995
 20
-595.95271877810001
 30
0.0
 11
800.76484374999995
 21
-594.45271877810001
 31
0.0
 12
800.76484374999995
 22
-597.45271877809989
 32
0.0
 13
799.26484374999995
 23
-595.95271877810001
 33
0.0
  0
ENDBLK
  5
80
  8
0
  0
BLOCK
  8
0
  2
*D5
 70
     1
 10
0.0
 20
0.0
 30
0.0
  3
*D5
  1

  0
TEXT
  5
85
  8
0
 62
     0
 10
182.95928840639999
 20
-153.5210938136
 30
0.0
 40
11.9944440842
  1
25
  0
LINE
  5
86
  8
0
 62
     0
 10
177.51484375000001
 20
-122.6377604167
 30
0.0
 11
177.51484375000001
 21
-157.13776041669999
 31
0.0
  0
LINE
  5
87
  8
0
 62
     0
 10
202.51484375000001
 20
-122.6377604167
 30
0.0
 11
202.51484375000001
 21
-157.13776041669999
 31
0.0
  0
LINE
  5
88
  8
0
 62
     0
 10
177.51484375000001
 20
-156.63776041669999
 30
0.0
 11
177.51484375000001
 21
-156.63776041669999
 31
0.0
  0
LINE
  5
89
  8
0
 62
     0
 10
177.51484375000001
 20
-156.63776041669999
 30
0.0
 11
202.51484375000001
 21
-156.63776041669999
 31
0.0
  0
LINE
  5
8A
  8
0
 62
     0
 10
202.51484375000001
 20
-156.63776041669999
 30
0.0
 11
177.51484375000001
 21
-156.63776041669999
 31
0.0
  0
LINE
  5
8B
  8
0
 62
     0
 10
202.51484375000001
 20
-156.63776041669999
 30
0.0
 11
202.51484375000001
 21
-156.63776041669999
 31
0.0
  0
LINE
  5
8C
  8
0
 62
     0
 10
202.51484375000001
 20
-156.63776041669999
 30
0.0
 11
199.51484375000001
 21
-156.63776041669999
 31
0.0
  0
SOLID
  5
8D
  8
0
 62
     0
 10
202.51484375000001
 20
-156.63776041669999
 30
0.0
 11
190.51484375000001
 21
-159.63776041669999
 31
0.0
 12
190.51484375000001
 22
-153.63776041669999
 32
0.0
 13
193.51484375000001
 23
-156.63776041669999
 33
0.0
  0
LINE
  5
8E
  8
0
 62
     0
 10
177.51484375000001
 20
-156.63776041669999
 30
0.0
 11
180.51484375000001
 21
-156.63776041669999
 31
0.0
  0
SOLID
  5
8F
  8
0
 62
     0
 10
177.51484375000001
 20
-156.63776041669999
 30
0.0
 11
189.51484375000001
 21
-153.63776041669999
 31
0.0
 12
189.51484375000001
 22
-159.63776041669999
 32
0.0
 13
186.51484375000001
 23
-156.63776041669999
 33
0.0
  0
ENDBLK
  5
90
  8
0
  0
BLOCK
  8
0
  2
*D6
 70
     1
 10
0.0
 20
0.0
 30
0.0
  3
*D6
  1

  0
TEXT
  5
95
  8
0
 62
     0
 10
836.87595539089989
 20
-626.78108866139985
 30
0.0
 40
11.9944440842
  1
%%c147
  0
LINE
  5
96
  8
0
 62
     0
 10
781.01484374999995
 20
-563.26871880609986
 30
0.0
 11
781.01484374999995
 21
-630.39775526450001
 31
0.0
  0
LINE
  5
97
  8
0
 62
     0
 10
928.01484374999995
 20
-563.26871880609986
 30
0.0
 11
928.01484374999995
 21
-630.39775526450001
 31
0.0
  0
LINE
  5
98
  8
0
 62
     0
 10
781.01484374999995
 20
-629.89775526449989
 30
0.0
 11
879.20928745269998
 21
-629.89775526449989
 31
0.0
  0
LINE
  5
99
  8
0
 62
     0
 10
781.01484374999995
 20
-629.89775526449989
 30
0.0
 11
829.82040004729993
 21
-629.89775526449989
 31
0.0
  0
LINE
  5
9A
  8
0
 62
     0
 10
928.01484374999995
 20
-629.89775526449989
 30
0.0
 11
879.20928745269998
 21
-629.89775526449989
 31
0.0
  0
LINE
  5
9B
  8
0
 62
     0
 10
928.01484374999995
 20
-629.89775526449989
 30
0.0
 11
829.82040004729993
 21
-629.89775526449989
 31
0.0
  0
LINE
  5
9C
  8
0
 62
     0
 10
928.01484374999995
 20
-629.89775526449989
 30
0.0
 11
925.01484374999995
 21
-629.89775526449989
 31
0.0
  0
SOLID
  5
9D
  8
0
 62
     0
 10
928.01484374999995
 20
-629.89775526449989
 30
0.0
 11
916.01484374999995
 21
-632.89775526450001
 31
0.0
 12
916.01484374999995
 22
-626.89775526450001
 32
0.0
 13
919.01484374999995
 23
-629.89775526449989
 33
0.0
  0
LINE
  5
9E
  8
0
 62
     0
 10
781.01484374999995
 20
-629.89775526449989
 30
0.0
 11
784.01484374999995
 21
-629.89775526449989
 31
0.0
  0
SOLID
  5
9F
  8
0
 62
     0
 10
781.01484374999995
 20
-629.89775526449989
 30
0.0
 11
793.01484374999995
 21
-626.89775526450001
 31
0.0
 12
793.01484374999995
 22
-632.89775526450001
 32
0.0
 13
790.01484374999995
 23
-629.89775526449989
 33
0.0
  0
ENDBLK
  5
A0
  8
0
  0
BLOCK
  8
0
  2
*D7
 70
     1
 10
0.0
 20
0.0
 30
0.0
  3
*D7
  1

  0
TEXT
  5
A4
  8
0
 62
     0
 10
836.87595539089989
 20
-595.7100626683
 30
0.0
 40
11.9944440842
  1
%%c125
  0
LINE
  5
A5
  8
0
 62
     0
 10
792.01484374999995
 20
-564.26871880609997
 30
0.0
 11
792.01484374999995
 21
-599.32672927140004
 31
0.0
  0
LINE
  5
A6
  8
0
 62
     0
 10
917.01484374999995
 20
-564.26871880609997
 30
0.0
 11
917.01484374999995
 21
-599.32672927140004
 31
0.0
  0
LINE
  5
A7
  8
0
 62
     0
 10
792.01484374999995
 20
-598.82672927140004
 30
0.0
 11
879.20928745269998
 21
-598.82672927140004
 31
0.0
  0
LINE
  5
A8
  8
0
 62
     0
 10
792.01484374999995
 20
-598.82672927140004
 30
0.0
 11
829.82040004729993
 21
-598.82672927140004
 31
0.0
  0
LINE
  5
A9
  8
0
 62
     0
 10
917.01484374999995
 20
-598.82672927140004
 30
0.0
 11
879.20928745269998
 21
-598.82672927140004
 31
0.0
  0
LINE
  5
AA
  8
0
 62
     0
 10
917.01484374999995
 20
-598.82672927140004
 30
0.0
 11
829.82040004729993
 21
-598.82672927140004
 31
0.0
  0
LINE
  5
AB
  8
0
 62
     0
 10
917.01484374999995
 20
-598.82672927140004
 30
0.0
 11
914.01484374999995
 21
-598.82672927140004
 31
0.0
  0
SOLID
  5
AC
  8
0
 62
     0
 10
917.01484374999995
 20
-598.82672927140004
 30
0.0
 11
905.01484374999984
 21
-601.82672927140004
 31
0.0
 12
905.01484374999984
 22
-595.82672927140004
 32
0.0
 13
908.01484374999995
 23
-598.82672927140004
 33
0.0
  0
LINE
  5
AD
  8
0
 62
     0
 10
792.01484374999995
 20
-598.82672927140004
 30
0.0
 11
795.01484374999995
 21
-598.82672927140004
 31
0.0
  0
SOLID
  5
AE
  8
0
 62
     0
 10
792.01484374999995
 20
-598.82672927140004
 30
0.0
 11
804.01484374999995
 21
-595.82672927140004
 31
0.0
 12
804.01484374999995
 22
-601.82672927140004
 32
0.0
 13
801.01484374999995
 23
-598.82672927140004
 33
0.0
  0
ENDBLK
  5
AF
  8
0
  0
BLOCK
  8
0
  2
*D8
 70
     1
 10
0.0
 20
0.0
 30
0.0
  3
*D8
  1

  0
TEXT
  5
E3
  8
0
 62
     0
 10
566.93151073460001
 20
285.36692701980002
 30
0.0
 40
11.9944440842
  1
800
  0
LINE
  5
E4
  8
0
 62
     0
 10
977.51484374999995
 20
199.36223958330001
 30
0.0
 11
977.51484374999995
 21
282.75026041669997
 31
0.0
  0
LINE
  5
E5
  8
0
 62
     0
 10
177.51484375000001
 20
199.36223958330001
 30
0.0
 11
177.51484375000001
 21
282.75026041669997
 31
0.0
  0
LINE
  5
E6
  8
0
 62
     0
 10
977.51484374999995
 20
282.25026041669997
 30
0.0
 11
595.15373210910002
 21
282.25026041669997
 31
0.0
  0
LINE
  5
E7
  8
0
 62
     0
 10
977.51484374999995
 20
282.25026041669997
 30
0.0
 11
559.87595539089989
 21
282.25026041669997
 31
0.0
  0
LINE
  5
E8
  8
0
 62
     0
 10
177.51484375000001
 20
282.25026041669997
 30
0.0
 11
595.15373210910002
 21
282.25026041669997
 31
0.0
  0
LINE
  5
E9
  8
0
 62
     0
 10
177.51484375000001
 20
282.25026041669997
 30
0.0
 11
559.87595539089989
 21
282.25026041669997
 31
0.0
  0
LINE
  5
EA
  8
0
 62
     0
 10
177.51484375000001
 20
282.25026041669997
 30
0.0
 11
180.51484375000001
 21
282.25026041669997
 31
0.0
  0
SOLID
  5
EB
  8
0
 62
     0
 10
177.51484375000001
 20
282.25026041669997
 30
0.0
 11
189.51484375000001
 21
285.25026041669997
 31
0.0
 12
189.51484375000001
 22
279.25026041669997
 32
0.0
 13
186.51484375000001
 23
282.25026041669997
 33
0.0
  0
LINE
  5
EC
  8
0
 62
     0
 10
977.51484374999995
 20
282.25026041669997
 30
0.0
 11
974.51484374999995
 21
282.25026041669997
 31
0.0
  0
SOLID
  5
ED
  8
0
 62
     0
 10
977.51484374999995
 20
282.25026041669997
 30
0.0
 11
965.51484374999995
 21
279.25026041669997
 31
0.0
 12
965.51484374999995
 22
285.25026041669997
 32
0.0
 13
968.51484374999995
 23
282.25026041669997
 33
0.0
  0
ENDBLK
  5
EE
  8
0
  0
BLOCK
  8
0
  2
*D9
 70
     1
 10
0.0
 20
0.0
 30
0.0
  3
*D9
  1

  0
TEXT
  5
F2
  8
0
 62
     0
 10
1018.197698625
 20
-524.82427414980009
 30
0.0
 40
11.9944440842
  1
75
 50
90.0
  0
LINE
  5
F3
  8
0
 62
     0
 10
977.51484374999995
 20
-555.26871880609986
 30
0.0
 11
1021.8143652281
 21
-555.26871880609986
 31
0.0
  0
LINE
  5
F4
  8
0
 62
     0
 10
977.51484374999995
 20
-480.26871880610003
 30
0.0
 11
1021.8143652281
 21
-480.26871880610003
 31
0.0
  0
LINE
  5
F5
  8
0
 62
     0
 10
1021.3143652281
 20
-555.26871880609986
 30
0.0
 11
1021.3143652281
 21
-503.65760811889987
 31
0.0
  0
LINE
  5
F6
  8
0
 62
     0
 10
1021.3143652281
 20
-555.26871880609986
 30
0.0
 11
1021.3143652281
 21
-531.87982949339994
 31
0.0
  0
LINE
  5
F7
  8
0
 62
     0
 10
1021.3143652281
 20
-480.26871880610003
 30
0.0
 11
1021.3143652281
 21
-503.65760811889987
 31
0.0
  0
LINE
  5
F8
  8
0
 62
     0
 10
1021.3143652281
 20
-480.26871880610003
 30
0.0
 11
1021.3143652281
 21
-531.87982949339994
 31
0.0
  0
LINE
  5
F9
  8
0
 62
     0
 10
1021.3143652281
 20
-480.26871880610003
 30
0.0
 11
1021.3143652281
 21
-483.26871880610003
 31
0.0
  0
SOLID
  5
FA
  8
0
 62
     0
 10
1021.3143652281
 20
-480.26871880610003
 30
0.0
 11
1024.3143652281001
 21
-492.26871880610003
 31
0.0
 12
1018.3143652281
 22
-492.26871880610003
 32
0.0
 13
1021.3143652281
 23
-489.26871880610003
 33
0.0
  0
LINE
  5
FB
  8
0
 62
     0
 10
1021.3143652281
 20
-555.26871880609986
 30
0.0
 11
1021.3143652281
 21
-552.26871880609997
 31
0.0
  0
SOLID
  5
FC
  8
0
 62
     0
 10
1021.3143652281
 20
-555.26871880609986
 30
0.0
 11
1018.3143652281
 21
-543.26871880609997
 31
0.0
 12
1024.3143652281001
 22
-543.26871880609997
 32
0.0
 13
1021.3143652281
 23
-546.26871880609986
 33
0.0
  0
ENDBLK
  5
FD
  8
0
  0
BLOCK
  8
0
  2
*D10
 70
     1
 10
0.0
 20
0.0
 30
0.0
  3
*D10
  1

  0
TEXT
  5
101
  8
0
 62
     0
 10
1018.197698625
 20
-586.54769954679989
 30
0.0
 40
11.9944440842
  1
8
 50
90.0
  0
LINE
  5
102
  8
0
 62
     0
 10
928.01484374999995
 20
-563.26871880609986
 30
0.0
 11
1021.8143652281
 21
-563.26871880609986
 31
0.0
  0
LINE
  5
103
  8
0
 62
     0
 10
977.51484374999995
 20
-555.26871880609986
 30
0.0
 11
1021.8143652281
 21
-555.26871880609986
 31
0.0
  0
LINE
  5
104
  8
0
 62
     0
 10
1021.3143652281
 20
-563.26871880609986
 30
0.0
 11
1021.3143652281
 21
-572.43658885959996
 31
0.0
  0
LINE
  5
105
  8
0
 62
     0
 10
1021.3143652281
 20
-563.26871880609986
 30
0.0
 11
1021.3143652281
 21
-593.60325489039985
 31
0.0
  0
LINE
  5
106
  8
0
 62
     0
 10
1021.3143652281
 20
-555.26871880609986
 30
0.0
 11
1021.3143652281
 21
-572.43658885959996
 31
0.0
  0
LINE
  5
107
  8
0
 62
     0
 10
1021.3143652281
 20
-555.26871880609986
 30
0.0
 11
1021.3143652281
 21
-593.60325489039985
 31
0.0
  0
LINE
  5
108
  8
0
 62
     0
 10
1021.3143652281
 20
-555.26871880609986
 30
0.0
 11
1021.3143652281
 21
-552.26871880609997
 31
0.0
  0
SOLID
  5
109
  8
0
 62
     0
 10
1021.3143652281
 20
-555.26871880609986
 30
0.0
 11
1018.3143652281
 21
-543.26871880609997
 31
0.0
 12
1024.3143652281001
 22
-543.26871880609997
 32
0.0
 13
1021.3143652281
 23
-546.26871880609986
 33
0.0
  0
LINE
  5
10A
  8
0
 62
     0
 10
1021.3143652281
 20
-563.26871880609986
 30
0.0
 11
1021.3143652281
 21
-566.26871880609986
 31
0.0
  0
SOLID
  5
10B
  8
0
 62
     0
 10
1021.3143652281
 20
-563.26871880609986
 30
0.0
 11
1024.3143652281001
 21
-575.26871880609986
 31
0.0
 12
1018.3143652281
 22
-575.26871880609986
 32
0.0
 13
1021.3143652281
 23
-572.26871880609997
 33
0.0
  0
ENDBLK
  5
10C
  8
0
  0
BLOCK
  8
0
  2
*D11
 70
     1
 10
0.0
 20
0.0
 30
0.0
  3
*D11
  1

  0
TEXT
  5
11F
  8
0
 62
     0
 10
1035.7098080000001
 20
126.27890656789999
 30
0.0
 40
11.9944440842
  1
123
 50
90.0
  0
LINE
  5
120
  8
0
 62
     0
 10
945.51484374999995
 20
75.362239583299996
 30
0.0
 11
1039.3264746031
 21
75.362239583299996
 31
0.0
  0
LINE
  5
121
  8
0
 62
     0
 10
978.51484374999995
 20
198.36223958330001
 30
0.0
 11
1039.3264746031
 21
198.36223958330001
 31
0.0
  0
LINE
  5
122
  8
0
 62
     0
 10
1038.8264746031
 20
75.362239583299996
 30
0.0
 11
1038.8264746031
 21
154.50112794239999
 31
0.0
  0
LINE
  5
123
  8
0
 62
     0
 10
1038.8264746031
 20
75.362239583299996
 30
0.0
 11
1038.8264746031
 21
119.2233512243
 31
0.0
  0
LINE
  5
124
  8
0
 62
     0
 10
1038.8264746031
 20
198.36223958330001
 30
0.0
 11
1038.8264746031
 21
154.50112794239999
 31
0.0
  0
LINE
  5
125
  8
0
 62
     0
 10
1038.8264746031
 20
198.36223958330001
 30
0.0
 11
1038.8264746031
 21
119.2233512243
 31
0.0
  0
LINE
  5
126
  8
0
 62
     0
 10
1038.8264746031
 20
198.36223958330001
 30
0.0
 11
1038.8264746031
 21
195.36223958330001
 31
0.0
  0
SOLID
  5
127
  8
0
 62
     0
 10
1038.8264746031
 20
198.36223958330001
 30
0.0
 11
1041.8264746031
 21
186.36223958330001
 31
0.0
 12
1035.8264746031
 22
186.36223958330001
 32
0.0
 13
1038.8264746031
 23
189.36223958330001
 33
0.0
  0
LINE
  5
128
  8
0
 62
     0
 10
1038.8264746031
 20
75.362239583299996
 30
0.0
 11
1038.8264746031
 21
78.362239583299996
 31
0.0
  0
SOLID
  5
129
  8
0
 62
     0
 10
1038.8264746031
 20
75.362239583299996
 30
0.0
 11
1035.8264746031
 21
87.362239583299996
 31
0.0
 12
1041.8264746031
 22
87.362239583299996
 32
0.0
 13
1038.8264746031
 23
84.362239583299996
 33
0.0
  0
ENDBLK
  5
12A
  8
0
  0
BLOCK
  8
0
  2
*D12
 70
     1
 10
0.0
 20
0.0
 30
0.0
  3
*D12
  1

  0
TEXT
  5
12E
  8
0
 62
     0
 10
1035.7098080000001
 20
-390.72109343210002
 30
0.0
 40
11.9944440842
  1
123
 50
90.0
  0
LINE
  5
12F
  8
0
 62
     0
 10
978.51484374999995
 20
-441.6377604166999
 30
0.0
 11
1039.3264746031
 21
-441.6377604166999
 31
0.0
  0
LINE
  5
130
  8
0
 62
     0
 10
945.51484374999995
 20
-318.63776041670002
 30
0.0
 11
1039.3264746031
 21
-318.63776041670002
 31
0.0
  0
LINE
  5
131
  8
0
 62
     0
 10
1038.8264746031
 20
-441.6377604166999
 30
0.0
 11
1038.8264746031
 21
-362.49887205760001
 31
0.0
  0
LINE
  5
132
  8
0
 62
     0
 10
1038.8264746031
 20
-441.6377604166999
 30
0.0
 11
1038.8264746031
 21
-397.77664877569998
 31
0.0
  0
LINE
  5
133
  8
0
 62
     0
 10
1038.8264746031
 20
-318.63776041670002
 30
0.0
 11
1038.8264746031
 21
-362.49887205760001
 31
0.0
  0
LINE
  5
134
  8
0
 62
     0
 10
1038.8264746031
 20
-318.63776041670002
 30
0.0
 11
1038.8264746031
 21
-397.77664877569998
 31
0.0
  0
LINE
  5
135
  8
0
 62
     0
 10
1038.8264746031
 20
-318.63776041670002
 30
0.0
 11
1038.8264746031
 21
-321.63776041670002
 31
0.0
  0
SOLID
  5
136
  8
0
 62
     0
 10
1038.8264746031
 20
-318.63776041670002
 30
0.0
 11
1041.8264746031
 21
-330.63776041670002
 31
0.0
 12
1035.8264746031
 22
-330.63776041670002
 32
0.0
 13
1038.8264746031
 23
-327.63776041670002
 33
0.0
  0
LINE
  5
137
  8
0
 62
     0
 10
1038.8264746031
 20
-441.6377604166999
 30
0.0
 11
1038.8264746031
 21
-438.6377604166999
 31
0.0
  0
SOLID
  5
138
  8
0
 62
     0
 10
1038.8264746031
 20
-441.6377604166999
 30
0.0
 11
1035.8264746031
 21
-429.6377604166999
 31
0.0
 12
1041.8264746031
 22
-429.6377604166999
 32
0.0
 13
1038.8264746031
 23
-432.6377604166999
 33
0.0
  0
ENDBLK
  5
139
  8
0
  0
BLOCK
  8
0
  2
*D13
 70
     1
 10
0.0
 20
0.0
 30
0.0
  3
*D13
  1

  0
TEXT
  5
13D
  8
0
 62
     0
 10
1078.7707455
 20
-132.22109343209999
 30
0.0
 40
11.9944440842
  1
640
 50
90.0
  0
LINE
  5
13E
  8
0
 62
     0
 10
978.51484374999995
 20
-441.6377604166999
 30
0.0
 11
1082.3874121030999
 21
-441.6377604166999
 31
0.0
  0
LINE
  5
13F
  8
0
 62
     0
 10
978.51484374999995
 20
198.36223958330001
 30
0.0
 11
1082.3874121030999
 21
198.36223958330001
 31
0.0
  0
LINE
  5
140
  8
0
 62
     0
 10
1081.8874121030999
 20
-441.6377604166999
 30
0.0
 11
1081.8874121030999
 21
-103.9988720576
 31
0.0
  0
LINE
  5
141
  8
0
 62
     0
 10
1081.8874121030999
 20
-441.6377604166999
 30
0.0
 11
1081.8874121030999
 21
-139.27664877570001
 31
0.0
  0
LINE
  5
142
  8
0
 62
     0
 10
1081.8874121030999
 20
198.36223958330001
 30
0.0
 11
1081.8874121030999
 21
-103.9988720576
 31
0.0
  0
LINE
  5
143
  8
0
 62
     0
 10
1081.8874121030999
 20
198.36223958330001
 30
0.0
 11
1081.8874121030999
 21
-139.27664877570001
 31
0.0
  0
LINE
  5
144
  8
0
 62
     0
 10
1081.8874121030999
 20
198.36223958330001
 30
0.0
 11
1081.8874121030999
 21
195.36223958330001
 31
0.0
  0
SOLID
  5
145
  8
0
 62
     0
 10
1081.8874121030999
 20
198.36223958330001
 30
0.0
 11
1084.8874121030999
 21
186.36223958330001
 31
0.0
 12
1078.8874121030999
 22
186.36223958330001
 32
0.0
 13
1081.8874121030999
 23
189.36223958330001
 33
0.0
  0
LINE
  5
146
  8
0
 62
     0
 10
1081.8874121030999
 20
-441.6377604166999
 30
0.0
 11
1081.8874121030999
 21
-438.6377604166999
 31
0.0
  0
SOLID
  5
147
  8
0
 62
     0
 10
1081.8874121030999
 20
-441.6377604166999
 30
0.0
 11
1078.8874121030999
 21
-429.6377604166999
 31
0.0
 12
1084.8874121030999
 22
-429.6377604166999
 32
0.0
 13
1081.8874121030999
 23
-432.6377604166999
 33
0.0
  0
ENDBLK
  5
148
  8
0
  0
BLOCK
  8
0
  2
*D14
 70
     1
 10
0.0
 20
0.0
 30
0.0
  3
*D14
  1

  0
TEXT
  5
14C
  8
0
 62
     0
 10
609.39817714690003
 20
-436.19331576029992
 30
0.0
 40
11.9944440842
  1
25
 50
90.0
  0
LINE
  5
14D
  8
0
 62
     0
 10
578.51484374999995
 20
-441.6377604166999
 30
0.0
 11
613.01484374999995
 21
-441.6377604166999
 31
0.0
  0
LINE
  5
14E
  8
0
 62
     0
 10
578.51484374999995
 20
-416.6377604166999
 30
0.0
 11
613.01484374999995
 21
-416.6377604166999
 31
0.0
  0
LINE
  5
14F
  8
0
 62
     0
 10
612.51484374999995
 20
-441.6377604166999
 30
0.0
 11
612.51484374999995
 21
-441.6377604166999
 31
0.0
  0
LINE
  5
150
  8
0
 62
     0
 10
612.51484374999995
 20
-441.6377604166999
 30
0.0
 11
612.51484374999995
 21
-416.6377604166999
 31
0.0
  0
LINE
  5
151
  8
0
 62
     0
 10
612.51484374999995
 20
-416.6377604166999
 30
0.0
 11
612.51484374999995
 21
-441.6377604166999
 31
0.0
  0
LINE
  5
152
  8
0
 62
     0
 10
612.51484374999995
 20
-416.6377604166999
 30
0.0
 11
612.51484374999995
 21
-416.6377604166999
 31
0.0
  0
LINE
  5
153
  8
0
 62
     0
 10
612.51484374999995
 20
-416.6377604166999
 30
0.0
 11
612.51484374999995
 21
-419.63776041670002
 31
0.0
  0
SOLID
  5
154
  8
0
 62
     0
 10
612.51484374999995
 20
-416.6377604166999
 30
0.0
 11
615.51484374999995
 21
-428.6377604166999
 31
0.0
 12
609.51484374999995
 22
-428.6377604166999
 32
0.0
 13
612.51484374999995
 23
-425.6377604166999
 33
0.0
  0
LINE
  5
155
  8
0
 62
     0
 10
612.51484374999995
 20
-441.6377604166999
 30
0.0
 11
612.51484374999995
 21
-438.6377604166999
 31
0.0
  0
SOLID
  5
156
  8
0
 62
     0
 10
612.51484374999995
 20
-441.6377604166999
 30
0.0
 11
609.51484374999995
 21
-429.6377604166999
 31
0.0
 12
615.51484374999995
 22
-429.6377604166999
 32
0.0
 13
612.51484374999995
 23
-432.6377604166999
 33
0.0
  0
ENDBLK
  5
157
  8
0
  0
BLOCK
  8
0
  2
*D15
 70
     1
 10
0.0
 20
0.0
 30
0.0
  3
*D15
  1

  0
TEXT
  5
15B
  8
0
 62
     0
 10
905.4315107345999
 20
241.4789061864
 30
0.0
 40
11.9944440842
  1
123
  0
LINE
  5
15C
  8
0
 62
     0
 10
977.51484374999995
 20
199.36223958330001
 30
0.0
 11
977.51484374999995
 21
238.86223958330001
 31
0.0
  0
LINE
  5
15D
  8
0
 62
     0
 10
854.51484374999995
 20
209.36223958330001
 30
0.0
 11
854.51484374999995
 21
238.86223958330001
 31
0.0
  0
LINE
  5
15E
  8
0
 62
     0
 10
977.51484374999995
 20
238.36223958330001
 30
0.0
 11
933.65373210910002
 21
238.36223958330001
 31
0.0
  0
LINE
  5
15F
  8
0
 62
     0
 10
977.51484374999995
 20
238.36223958330001
 30
0.0
 11
898.37595539089989
 21
238.36223958330001
 31
0.0
  0
LINE
  5
160
  8
0
 62
     0
 10
854.51484374999995
 20
238.36223958330001
 30
0.0
 11
933.65373210910002
 21
238.36223958330001
 31
0.0
  0
LINE
  5
161
  8
0
 62
     0
 10
854.51484374999995
 20
238.36223958330001
 30
0.0
 11
898.37595539089989
 21
238.36223958330001
 31
0.0
  0
LINE
  5
162
  8
0
 62
     0
 10
854.51484374999995
 20
238.36223958330001
 30
0.0
 11
857.51484374999995
 21
238.36223958330001
 31
0.0
  0
SOLID
  5
163
  8
0
 62
     0
 10
854.51484374999995
 20
238.36223958330001
 30
0.0
 11
866.51484374999995
 21
241.36223958330001
 31
0.0
 12
866.51484374999995
 22
235.36223958330001
 32
0.0
 13
863.51484374999995
 23
238.36223958330001
 33
0.0
  0
LINE
  5
164
  8
0
 62
     0
 10
977.51484374999995
 20
238.36223958330001
 30
0.0
 11
974.51484374999995
 21
238.36223958330001
 31
0.0
  0
SOLID
  5
165
  8
0
 62
     0
 10
977.51484374999995
 20
238.36223958330001
 30
0.0
 11
965.51484374999995
 21
235.36223958330001
 31
0.0
 12
965.51484374999995
 22
241.36223958330001
 32
0.0
 13
968.51484374999995
 23
238.36223958330001
 33
0.0
  0
ENDBLK
  5
166
  8
0
  0
BLOCK
  8
0
  2
*D16
 70
     1
 10
0.0
 20
0.0
 30
0.0
  3
*D16
  1

  0
TEXT
  5
16A
  8
0
 62
     0
 10
957.95928840639999
 20
-153.5210938136
 30
0.0
 40
11.9944440842
  1
25
  0
LINE
  5
16B
  8
0
 62
     0
 10
952.51484374999995
 20
-122.6377604167
 30
0.0
 11
952.51484374999995
 21
-157.13776041669999
 31
0.0
  0
LINE
  5
16C
  8
0
 62
     0
 10
977.51484374999995
 20
-122.6377604167
 30
0.0
 11
977.51484374999995
 21
-157.13776041669999
 31
0.0
  0
LINE
  5
16D
  8
0
 62
     0
 10
952.51484374999995
 20
-156.63776041669999
 30
0.0
 11
952.51484374999995
 21
-156.63776041669999
 31
0.0
  0
LINE
  5
16E
  8
0
 62
     0
 10
952.51484374999995
 20
-156.63776041669999
 30
0.0
 11
977.51484374999995
 21
-156.63776041669999
 31
0.0
  0
LINE
  5
16F
  8
0
 62
     0
 10
977.51484374999995
 20
-156.63776041669999
 30
0.0
 11
952.51484374999995
 21
-156.63776041669999
 31
0.0
  0
LINE
  5
170
  8
0
 62
     0
 10
977.51484374999995
 20
-156.63776041669999
 30
0.0
 11
977.51484374999995
 21
-156.63776041669999
 31
0.0
  0
LINE
  5
171
  8
0
 62
     0
 10
977.51484374999995
 20
-156.63776041669999
 30
0.0
 11
974.51484374999995
 21
-156.63776041669999
 31
0.0
  0
SOLID
  5
172
  8
0
 62
     0
 10
977.51484374999995
 20
-156.63776041669999
 30
0.0
 11
965.51484374999995
 21
-159.63776041669999
 31
0.0
 12
965.51484374999995
 22
-153.63776041669999
 32
0.0
 13
968.51484374999995
 23
-156.63776041669999
 33
0.0
  0
LINE
  5
173
  8
0
 62
     0
 10
952.51484374999995
 20
-156.63776041669999
 30
0.0
 11
955.51484374999995
 21
-156.63776041669999
 31
0.0
  0
SOLID
  5
174
  8
0
 62
     0
 10
952.51484374999995
 20
-156.63776041669999
 30
0.0
 11
964.51484374999995
 21
-153.63776041669999
 31
0.0
 12
964.51484374999995
 22
-159.63776041669999
 32
0.0
 13
961.51484374999995
 23
-156.63776041669999
 33
0.0
  0
ENDBLK
  5
175
  8
0
  0
BLOCK
  8
0
  2
*D17
 70
     1
 10
0.0
 20
0.0
 30
0.0
  3
*D17
  1

  0
TEXT
  5
179
  8
0
 62
     0
 10
609.39817714690003
 20
178.80668423969999
 30
0.0
 40
11.9944440842
  1
25
 50
90.0
  0
LINE
  5
17A
  8
0
 62
     0
 10
578.51484374999995
 20
173.36223958330001
 30
0.0
 11
613.01484374999995
 21
173.36223958330001
 31
0.0
  0
LINE
  5
17B
  8
0
 62
     0
 10
578.51484374999995
 20
198.36223958330001
 30
0.0
 11
613.01484374999995
 21
198.36223958330001
 31
0.0
  0
LINE
  5
17C
  8
0
 62
     0
 10
612.51484374999995
 20
173.36223958330001
 30
0.0
 11
612.51484374999995
 21
173.36223958330001
 31
0.0
  0
LINE
  5
17D
  8
0
 62
     0
 10
612.51484374999995
 20
173.36223958330001
 30
0.0
 11
612.51484374999995
 21
198.36223958330001
 31
0.0
  0
LINE
  5
17E
  8
0
 62
     0
 10
612.51484374999995
 20
198.36223958330001
 30
0.0
 11
612.51484374999995
 21
173.36223958330001
 31
0.0
  0
LINE
  5
17F
  8
0
 62
     0
 10
612.51484374999995
 20
198.36223958330001
 30
0.0
 11
612.51484374999995
 21
198.36223958330001
 31
0.0
  0
LINE
  5
180
  8
0
 62
     0
 10
612.51484374999995
 20
198.36223958330001
 30
0.0
 11
612.51484374999995
 21
195.36223958330001
 31
0.0
  0
SOLID
  5
181
  8
0
 62
     0
 10
612.51484374999995
 20
198.36223958330001
 30
0.0
 11
615.51484374999995
 21
186.36223958330001
 31
0.0
 12
609.51484374999995
 22
186.36223958330001
 32
0.0
 13
612.51484374999995
 23
189.36223958330001
 33
0.0
  0
LINE
  5
182
  8
0
 62
     0
 10
612.51484374999995
 20
173.36223958330001
 30
0.0
 11
612.51484374999995
 21
176.36223958330001
 31
0.0
  0
SOLID
  5
183
  8
0
 62
     0
 10
612.51484374999995
 20
173.36223958330001
 30
0.0
 11
609.51484374999995
 21
185.36223958330001
 31
0.0
 12
615.51484374999995
 22
185.36223958330001
 32
0.0
 13
612.51484374999995
 23
182.36223958330001
 33
0.0
  0
ENDBLK
  5
184
  8
0
  0
BLOCK
  8
0
  2
*U18
 70
     1
 10
0.0
 20
0.0
 30
0.0
  3
*U18
  1

  0
TEXT
  5
21C
  8
┌▓È_1
  6
CONTINUOUS
 62
     5
 10
1345.1273429315161
 20
-509.81509919967198
 30
0.0
 40
16.792222690599999
  1
örÉàî¹òöÅ┌ìÎ
  0
ENDBLK
  5
21E
  8
0
  0
BLOCK
  8
0
  2
*U19
 70
     1
 10
0.0
 20
0.0
 30
0.0
  3
*U19
  1

  0
TEXT
  5
220
  8
LAYER1
  6
CONTINUOUS
 10
819.51484374999995
 20
-342.34442583719999
 30
0.0
 40
57.573330306999992
  1
éq
  0
ENDBLK
  5
222
  8
0
  0
BLOCK
  8
0
  2
*U20
 70
     1
 10
0.0
 20
0.0
 30
0.0
  3
*U20
  1

  0
TEXT
  5
224
  8
LAYER1
  6
CONTINUOUS
 10
819.51484374999995
 20
51.655574162800001
 30
0.0
 40
57.573330306999992
  1
ék
  0
ENDBLK
  5
226
  8
0
  0
BLOCK
  8
0
  2
*U21
 70
     1
 10
0.0
 20
0.0
 30
0.0
  3
*U21
  1

  0
TEXT
  5
228
  8
LAYER1
  6
CONTINUOUS
 10
819.51484374999995
 20
-145.34442583719999
 30
0.0
 40
57.573330306999992
  1
éb
  0
ENDBLK
  5
22A
  8
0
  0
BLOCK
  8
0
  2
*U22
 70
     1
 10
0.0
 20
0.0
 30
0.0
  3
*U22
  1

  0
TEXT
  5
22C
  8
┌▓È_1
  6
CONTINUOUS
 62
     5
 10
1059.526222254897
 20
-687.24295364479997
 30
0.0
 40
11.9944440842
  1
H16.4
  0
ENDBLK
  5
22E
  8
0
  0
BLOCK
  8
0
  2
*U23
 70
     1
 10
0.0
 20
0.0
 30
0.0
  3
*U23
  1

  0
TEXT
  5
230
  8
┌▓È_1
  6
CONTINUOUS
 10
1123.3216378928
 20
-665.64048279075826
 30
0.0
 40
11.9944440842
  1
 ìÌü@ü@Ä┐
  0
ENDBLK
  5
232
  8
0
  0
BLOCK
  8
0
  2
*U24
 70
     1
 10
0.0
 20
0.0
 30
0.0
  3
*U24
  1

  0
TEXT
  5
234
  8
┌▓È_1
  6
CONTINUOUS
 10
1203.3216378928
 20
-665.88402480262016
 30
0.0
 40
11.9944440842
  1
 ö┬ü@ü@î·
  0
ENDBLK
  5
236
  8
0
  0
BLOCK
  8
0
  2
*U25
 70
     1
 10
0.0
 20
0.0
 30
0.0
  3
*U25
  1

  0
TEXT
  5
238
  8
┌▓È_1
  6
CONTINUOUS
 10
1203.3216378928
 20
-709.82313929965483
 30
0.0
 40
11.9944440842
  1
 Ä┌ü@ü@ôx
  0
ENDBLK
  5
23A
  8
0
  0
BLOCK
  8
0
  2
*U26
 70
     1
 10
0.0
 20
0.0
 30
0.0
  3
*U26
  1

  0
TEXT
  5
23C
  8
┌▓È_1
  6
CONTINUOUS
 10
1283.3216378928
 20
-665.88402480262016
 30
0.0
 40
11.9944440842
  1
 îƒü@ü@ê¾
  0
ENDBLK
  5
23E
  8
0
  0
BLOCK
  8
0
  2
*U27
 70
     1
 10
0.0
 20
0.0
 30
0.0
  3
*U27
  1

  0
TEXT
  5
240
  8
┌▓È_1
  6
CONTINUOUS
 10
1060.8602592054001
 20
-768.44349234632125
 30
0.0
 40
21.589999675800001
  1
èöÄ«ë´Äð
  0
ENDBLK
  5
242
  8
0
  0
BLOCK
  8
0
  2
*U28
 70
     1
 10
0.0
 20
0.0
 30
0.0
  3
*U28
  1

  0
TEXT
  5
244
  8
┌▓È_1
  6
CONTINUOUS
 10
1039.1009114583001
 20
-643.28273907746654
 30
0.0
 40
14.393332576800001
  1
üûâgâëâbâvê╩Æué­ÄwÆÞéÁé─ë║é│éóüû
  0
ENDBLK
  5
246
  8
0
  0
BLOCK
  8
0
  2
*U29
 70
     1
 10
0.0
 20
0.0
 30
0.0
  3
*U29
  1

  0
TEXT
  5
248
  8
┌▓È_1
  6
CONTINUOUS
 62
     5
 10
1203.1405132899999
 20
-731.24295364479985
 30
0.0
 40
11.9944440842
  1
   1üF4
  0
ENDBLK
  5
24A
  8
0
  0
BLOCK
  8
0
  2
*U30
 70
     1
 10
0.0
 20
0.0
 30
0.0
  3
*U30
  1

  0
TEXT
  5
24C
  8
┌▓È_1
  6
CONTINUOUS
 62
     5
 10
1118.4920564286449
 20
-687.42561015369643
 30
0.0
 40
11.9944440842
  1
SUS304 #400
  0
ENDBLK
  5
24E
  8
0
  0
BLOCK
  8
0
  2
*U31
 70
     1
 10
0.0
 20
0.0
 30
0.0
  3
*U31
  1

  0
TEXT
  5
250
  8
┌▓È_1
  6
CONTINUOUS
 62
     5
 10
1201.9044207330001
 20
-687.24295364479997
 30
0.0
 40
11.9944440842
  1
   1.0t
  0
ENDBLK
  5
252
  8
0
  0
BLOCK
  8
0
  2
*U32
 70
     1
 10
0.0
 20
0.0
 30
0.0
  3
*U32
  1

  0
TEXT
  5
254
  8
┌▓È_1
  6
CONTINUOUS
 10
1408.7067204938
 20
-678.08819433122687
 30
0.0
 40
14.393332576800001
  1
éréuérü|éWéUéS(ébüEéküEéq)
  0
ENDBLK
  5
256
  8
0
  0
BLOCK
  8
0
  2
*U33
 70
     1
 10
0.0
 20
0.0
 30
0.0
  3
*U33
  1

  0
TEXT
  5
258
  8
┌▓È_1
  6
CONTINUOUS
 10
1457.1862852515001
 20
-764.79564439435217
 30
0.0
 40
14.393332576800001
  1
Ä¾ÆìÉÂÄYòi
  0
ENDBLK
  5
25A
  8
0
  0
BLOCK
  8
0
  2
*U34
 70
     1
 10
0.0
 20
0.0
 30
0.0
  3
*U34
  1

  0
TEXT
  5
25C
  8
┌▓È_1
  6
CONTINUOUS
 10
1363.5675988056
 20
-753.58190159409276
 30
0.0
 40
11.9944440842
  1
É}öÈ
  0
ENDBLK
  5
25E
  8
0
  0
BLOCK
  8
0
  2
*U35
 70
     1
 10
0.0
 20
0.0
 30
0.0
  3
*U35
  1

  0
TEXT
  5
260
  8
┌▓È_1
  6
CONTINUOUS
 10
1363.5675988056
 20
-709.70367260002376
 30
0.0
 40
11.9944440842
  1
òiû╝
  0
ENDBLK
  5
262
  8
0
  0
BLOCK
  8
0
  2
*U36
 70
     1
 10
0.0
 20
0.0
 30
0.0
  3
*U36
  1

  0
TEXT
  5
264
  8
┌▓È_1
  6
CONTINUOUS
 10
1363.5675988056
 20
-665.58190159409276
 30
0.0
 40
11.9944440842
  1
î^öÈ
  0
ENDBLK
  5
266
  8
0
  0
BLOCK
  8
0
  2
*U37
 70
     1
 10
0.0
 20
0.0
 30
0.0
  3
*U37
  1

  0
TEXT
  5
268
  8
┌▓È_1
  6
CONTINUOUS
 10
1043.3216378928
 20
-665.45782628186191
 30
0.0
 40
11.9944440842
  1
 ô·ü@ü@òt
  0
ENDBLK
  5
26A
  8
0
  0
BLOCK
  8
0
  2
*U38
 70
     1
 10
0.0
 20
0.0
 30
0.0
  3
*U38
  1

  0
TEXT
  5
26C
  8
┌▓È_1
  6
CONTINUOUS
 10
1039.1009114583001
 20
-731.94491030558572
 30
0.0
 40
11.9944440842
  1
 É╗É}ü@ü@ è¦û{
  0
ENDBLK
  5
26E
  8
0
  0
BLOCK
  8
0
  2
*U39
 70
     1
 10
0.0
 20
0.0
 30
0.0
  3
*U39
  1

  0
TEXT
  5
270
  8
┌▓È_1
  6
CONTINUOUS
 10
1039.1009114583001
 20
-709.88402480262027
 30
0.0
 40
11.9944440842
  1
 É¦îv    öÆÉ{ëÛü@ü@
  0
ENDBLK
  5
272
  8
0
  0
BLOCK
  8
0
  2
*U40
 70
     1
 10
0.0
 20
0.0
 30
0.0
  3
*U40
  1

  0
TEXT
  5
274
  8
┌▓È_1
  6
CONTINUOUS
 10
1441.2899739582999
 20
-721.98679522792668
 30
0.0
 40
14.393332576800001
  1
É¶æ¾ï@ûhÉàâpâô
  0
ENDBLK
  5
276
  8
0
  0
ENDSEC
  0
SECTION
  2
ENTITIES
  0
LINE
  5
2F
  8
LAYER1
 62
     5
 10
953.35394294389994
 20
-480.26871880610003
 30
0.0
 11
976.51484374999995
 21
-480.26871880610003
 31
0.0
  0
ARC
  5
30
  8
LAYER1
 62
     5
 10
976.51484374999995
 20
-481.26871880610003
 30
0.0
 40
1.0
 50
0.0
 51
90.0
  0
INSERT
  5
33
  8
┌▓È_1
 62
     5
  2
CLUMP0
 10
0.0
 20
0.0
 30
0.0
  0
DIMENSION
  5
68
  8
Éíû@É³
  2
*D2
 10
760.51484374999995
 20
-563.26871880609986
 30
0.0
 11
760.51484374999995
 21
-564.76871880609997
 31
0.0
 70
   128
  1
<>
 13
780.51484374999995
 23
-563.26871880609986
 33
0.0
 14
780.51484374999995
 24
-566.26871880609986
 34
0.0
 50
90.0
  0
LINE
  5
69
  8
┌▓È_1
  6
BORDER
 62
     3
 10
854.51484374999995
 20
-544.89640367389995
 30
0.0
 11
854.51484374999995
 21
-577.96932034060001
 31
0.0
  0
DIMENSION
  5
71
  8
Éíû@É³
  2
*D3
 10
787.41725260420003
 20
-566.22541753589996
 30
0.0
 11
740.77461268110005
 21
-610.24096371040002
 31
0.0
 70
   131
  1
örÉàî¹ùáæñé╔âSâÇâpâbâLâôô\òté»
 15
787.36725260419996
 25
-566.31202007629997
 35
0.0
 40
0.0
  0
INSERT
  5
72
  8
0
  6
CONTINUOUS
  2
*U18
 10
0.0
 20
0.0
 30
0.0
  0
DIMENSION
  5
81
  8
Éíû@É³
  2
*D4
 10
794.76484374999995
 20
-595.95271877810001
 30
0.0
 11
854.51484374999995
 21
-595.95271877810001
 31
0.0
 70
   128
  1
(%%c<>üjâZâôâ^ü[é╔ô\òté»
 13
794.76484374999995
 23
-566.26871880609986
 33
0.0
 14
914.26484374999995
 24
-566.26871880609986
 34
0.0
 50
180.0
  0
DIMENSION
  5
91
  8
Éíû@É³
  2
*D5
 10
177.51484375000001
 20
-156.63776041669999
 30
0.0
 11
190.01484375000001
 21
-156.63776041669999
 31
0.0
 70
   128
  1
<>
 13
177.51484375000001
 23
-121.6377604167
 33
0.0
 14
202.51484375000001
 24
-121.6377604167
 34
0.0
 50
180.0
  0
ARC
  5
92
  8
LAYER1
 62
     5
 10
232.51484375000001
 20
143.36223958330001
 30
0.0
 40
30.0
 50
90.0
 51
180.0
  0
DIMENSION
  5
A1
  8
Éíû@É³
  2
*D6
 10
781.01484374999995
 20
-629.89775526449989
 30
0.0
 11
854.51484374999995
 21
-629.89775526449989
 31
0.0
 70
   128
  1
%%c<>
 13
781.01484374999995
 23
-562.26871880609986
 33
0.0
 14
928.01484374999995
 24
-562.26871880609986
 34
0.0
 50
180.0
  0
DIMENSION
  5
B0
  8
Éíû@É³
  2
*D7
 10
792.01484374999995
 20
-598.82672927140004
 30
0.0
 11
854.51484374999995
 21
-598.82672927140004
 31
0.0
 70
   128
  1
%%c<>
 13
792.01484374999995
 23
-563.26871880609986
 33
0.0
 14
917.01484374999995
 24
-563.26871880609986
 34
0.0
 50
180.0
  0
LINE
  5
B1
  8
LAYER1
 62
     5
 10
781.01484374999995
 20
-554.26871880609986
 30
0.0
 11
222.27583605289999
 21
-554.26871880609986
 31
0.0
  0
LINE
  5
B2
  8
LAYER1
 62
     5
 10
781.01484374999995
 20
-555.26871880609986
 30
0.0
 11
222.2758388403
 21
-555.26871880609986
 31
0.0
  0
LINE
  5
B3
  8
LAYER1
 62
     5
 10
932.75385012820016
 20
-555.26871880609986
 30
0.0
 11
928.01484374999995
 21
-555.26871880609986
 31
0.0
  0
LINE
  5
B4
  8
LAYER1
 62
     5
 10
928.01484374999995
 20
-562.26871880609986
 30
0.0
 11
928.01484374999995
 21
-555.26871880609986
 31
0.0
  0
ARC
  5
B5
  8
LAYER1
 62
     5
 10
928.01484374999995
 20
-555.26871880609986
 30
0.0
 40
1.0
 50
90.0
 51
180.0
  0
LINE
  5
B6
  8
LAYER1
 62
     5
 10
952.36913572179981
 20
-481.09507009769999
 30
0.0
 11
940.63231215229996
 21
-547.65790422750001
 31
0.0
  0
ARC
  5
B7
  8
LAYER1
 62
     5
 10
201.6757441188
 20
-481.26871880610003
 30
0.0
 40
1.0
 50
10.0000258232
 51
90.000012143199996
  0
ARC
  5
B8
  8
LAYER1
 62
     5
 10
222.27583737180001
 20
-546.26871880609986
 30
0.0
 40
9.0
 50
190.0
 51
270.00000934830001
  0
LINE
  5
B9
  8
LAYER1
 62
     5
 10
184.51484375000001
 20
-555.26871880609986
 30
0.0
 11
178.51484375000001
 21
-555.26871880609986
 31
0.0
  0
LINE
  5
BA
  8
LAYER1
 62
     5
 10
184.51484375000001
 20
-554.26871880609986
 30
0.0
 11
178.51484375000001
 21
-554.26871880609986
 31
0.0
  0
LINE
  5
BB
  8
LAYER1
 62
     5
 10
201.6757441188
 20
-481.26871880610003
 30
0.0
 11
178.51484375000001
 21
-481.26871880610003
 31
0.0
  0
LINE
  5
BC
  8
LAYER1
 62
     5
 10
201.67574390690001
 20
-480.26871880610003
 30
0.0
 11
178.51484375000001
 21
-480.26871880610003
 31
0.0
  0
LINE
  5
BD
  8
LAYER1
 62
     5
 10
184.51484375000001
 20
-554.26871880609986
 30
0.0
 11
184.51484375000001
 21
-555.26871880609986
 31
0.0
  0
ARC
  5
BE
  8
LAYER1
 62
     5
 10
178.51484375000001
 20
-481.26871880610003
 30
0.0
 40
1.0
 50
90.0
 51
180.0
  0
ARC
  5
BF
  8
LAYER1
 62
     5
 10
178.51484375000001
 20
-554.26871880609986
 30
0.0
 40
1.0
 50
180.0
 51
270.0
  0
LINE
  5
C0
  8
LAYER1
 62
     5
 10
177.51484375000001
 20
-554.26871880609986
 30
0.0
 11
177.51484375000001
 21
-481.26871880610003
 31
0.0
  0
LINE
  5
C1
  8
LAYER1
 62
     5
 10
178.51484375000001
 20
-554.26871880609986
 30
0.0
 11
178.51484375000001
 21
-481.26871880610003
 31
0.0
  0
ARC
  5
C2
  8
LAYER1
 62
     5
 10
222.27583737180001
 20
-546.26871880609986
 30
0.0
 40
8.0
 50
190.0
 51
269.9999905537
  0
LINE
  5
C3
  8
LAYER1
 62
     5
 10
201.6757441188
 20
-481.26871880610003
 30
0.0
 11
213.41256759469999
 21
-547.83155240510007
 31
0.0
  0
LINE
  5
C4
  8
LAYER1
 62
     5
 10
202.66055179360001
 20
-481.09507018459999
 30
0.0
 11
214.39737534770001
 21
-547.65790422750001
 31
0.0
  0
LINE
  5
C5
  8
LAYER1
 62
     5
 10
970.51484374999995
 20
-555.26871880609986
 30
0.0
 11
976.51484374999995
 21
-555.26871880609986
 31
0.0
  0
LINE
  5
C6
  8
LAYER1
 62
     5
 10
970.51484374999995
 20
-554.26871880609986
 30
0.0
 11
976.51484374999995
 21
-554.26871880609986
 31
0.0
  0
LINE
  5
C7
  8
LAYER1
 62
     5
 10
970.51484374999995
 20
-554.26871880609986
 30
0.0
 11
970.51484374999995
 21
-555.26871880609986
 31
0.0
  0
LINE
  5
C8
  8
LAYER1
  6
BORDER
 62
     3
 10
814.51484374999995
 20
-318.63776041670002
 30
0.0
 11
764.51484374999995
 21
-318.63776041670002
 31
0.0
  0
INSERT
  5
C9
  8
0
  6
CONTINUOUS
  2
*U19
 10
0.0
 20
0.0
 30
0.0
  0
ARC
  5
CA
  8
LAYER1
 62
     5
 10
953.3539433812
 20
-481.26871880610003
 30
0.0
 40
1.0
 50
90.000025053999991
 51
169.9999691207
  0
LINE
  5
CB
  8
LAYER1
 62
     5
 10
953.3539433812
 20
-481.26871880610003
 30
0.0
 11
976.51484374999995
 21
-481.26871880610003
 31
0.0
  0
LINE
  5
CC
  8
LAYER1
 62
     5
 10
792.01484374999995
 20
-563.26871880609986
 30
0.0
 11
792.01484374999995
 21
-562.26871880609986
 31
0.0
  0
ARC
  5
CD
  8
LAYER1
 62
     5
 10
781.01484374999995
 20
-555.26871880609986
 30
0.0
 40
1.0
 50
0.0
 51
90.0
  0
LINE
  5
CE
  8
LAYER1
 62
     5
 10
782.01484374999995
 20
-562.26871880609986
 30
0.0
 11
782.01484374999995
 21
-555.26871880609986
 31
0.0
  0
ARC
  5
CF
  8
LAYER1
 62
     5
 10
782.01484374999995
 20
-562.26871880609986
 30
0.0
 40
1.0
 50
180.0
 51
270.0
  0
LINE
  5
D0
  8
LAYER1
 62
     5
 10
792.01484374999995
 20
-563.26871880609986
 30
0.0
 11
782.01484374999995
 21
-563.26871880609986
 31
0.0
  0
LINE
  5
D1
  8
LAYER1
 62
     5
 10
781.01484374999995
 20
-562.26871880609986
 30
0.0
 11
781.01484374999995
 21
-555.26871880609986
 31
0.0
  0
LINE
  5
D2
  8
LAYER1
 62
     5
 10
792.01484374999995
 20
-562.26871880609986
 30
0.0
 11
782.01484374999995
 21
-562.26871880609986
 31
0.0
  0
LINE
  5
D3
  8
LAYER1
 10
917.01484374999995
 20
-563.26871880609986
 30
0.0
 11
792.01484374999995
 21
-563.26871880609986
 31
0.0
  0
LINE
  5
D4
  8
LAYER1
 10
917.01484374999995
 20
-562.26871880609986
 30
0.0
 11
792.01484374999995
 21
-562.26871880609986
 31
0.0
  0
LINE
  5
D5
  8
LAYER1
 62
     5
 10
927.01484374999995
 20
-562.26871880609986
 30
0.0
 11
927.01484374999995
 21
-555.26871880609986
 31
0.0
  0
LINE
  5
D6
  8
LAYER1
 62
     5
 10
927.01484374999995
 20
-563.26871880609986
 30
0.0
 11
917.01484374999995
 21
-563.26871880609986
 31
0.0
  0
LINE
  5
D7
  8
LAYER1
 62
     5
 10
927.01484374999995
 20
-562.26871880609986
 30
0.0
 11
917.01484374999995
 21
-562.26871880609986
 31
0.0
  0
ARC
  5
D8
  8
LAYER1
 62
     5
 10
932.75385012820016
 20
-546.26871880609986
 30
0.0
 40
9.0
 50
270.0
 51
350.0
  0
ARC
  5
D9
  8
LAYER1
 62
     5
 10
932.75385012820016
 20
-546.26871880609986
 30
0.0
 40
8.0
 50
270.0
 51
350.0
  0
LINE
  5
DA
  8
LAYER1
 62
     5
 10
976.51484374999995
 20
-554.26871880609986
 30
0.0
 11
976.51484374999995
 21
-481.26871880610003
 31
0.0
  0
ARC
  5
DB
  8
LAYER1
 62
     5
 10
927.01484374999995
 20
-562.26871880609986
 30
0.0
 40
1.0
 50
270.0
 51
0.0
  0
LINE
  5
DC
  8
LAYER1
 62
     5
 10
932.75385012820016
 20
-554.26871880609986
 30
0.0
 11
928.01484374999995
 21
-554.26871880609986
 31
0.0
  0
LINE
  5
DD
  8
LAYER1
 62
     5
 10
917.01484374999995
 20
-563.26871880609986
 30
0.0
 11
917.01484374999995
 21
-562.26871880609986
 31
0.0
  0
LINE
  5
DE
  8
LAYER1
 62
     5
 10
977.51484374999995
 20
-554.26871880609986
 30
0.0
 11
977.51484374999995
 21
-481.26871880610003
 31
0.0
  0
LINE
  5
DF
  8
LAYER1
 62
     5
 10
953.3539433812
 20
-481.26871880610003
 30
0.0
 11
941.6171199053
 21
-547.83155240510007
 31
0.0
  0
ARC
  5
E0
  8
LAYER1
 62
     5
 10
976.51484374999995
 20
-554.26871880609986
 30
0.0
 40
1.0
 50
270.0
 51
0.0
  0
DIMENSION
  5
EF
  8
Éíû@É³
  2
*D8
 10
977.51484374999995
 20
282.25026041669997
 30
0.0
 11
577.51484374999995
 21
282.25026041669997
 31
0.0
 70
   128
  1
<>
 13
977.51484374999995
 23
198.36223958330001
 33
0.0
 14
177.51484375000001
 24
198.36223958330001
 34
0.0
  0
DIMENSION
  5
FE
  8
Éíû@É³
  2
*D9
 10
1021.3143652281
 20
-555.26871880609986
 30
0.0
 11
1021.3143652281
 21
-517.76871880609986
 31
0.0
 70
   128
  1
<>
 13
976.51484374999995
 23
-555.26871880609986
 33
0.0
 14
976.51484374999995
 24
-480.26871880610003
 34
0.0
 50
90.0
  0
DIMENSION
  5
10D
  8
Éíû@É³
  2
*D10
 10
1021.3143652281
 20
-563.26871880609986
 30
0.0
 11
1021.3143652281
 21
-583.01992187500002
 31
0.0
 70
   128
  1
<>
 13
927.01484374999995
 23
-563.26871880609986
 33
0.0
 14
976.51484374999995
 24
-555.26871880609986
 34
0.0
 50
90.0
  0
ARC
  5
10E
  8
LAYER1
 62
     5
 10
232.51484375000001
 20
-386.6377604166999
 30
0.0
 40
30.0
 50
180.0
 51
270.0
  0
LINE
  5
10F
  8
LAYER1
 62
     5
 10
202.51484375000001
 20
-386.6377604166999
 30
0.0
 11
202.51484375000001
 21
143.36223958330001
 31
0.0
  0
LINE
  5
110
  8
LAYER1
 62
     5
 10
952.51484374999995
 20
143.36223958330001
 30
0.0
 11
952.51484374999995
 21
-386.6377604166999
 31
0.0
  0
LINE
  5
111
  8
LAYER1
 62
     5
 10
977.51484374999995
 20
198.36223958330001
 30
0.0
 11
977.51484374999995
 21
-441.6377604166999
 31
0.0
  0
CIRCLE
  5
112
  8
LAYER1
  6
STITCH
 62
     5
 10
854.51484374999995
 20
-318.63776041670002
 30
0.0
 40
62.5
  0
LINE
  5
113
  8
LAYER1
 62
     5
 10
977.51484374999995
 20
-441.6377604166999
 30
0.0
 11
177.51484375000001
 21
-441.6377604166999
 31
0.0
  0
LINE
  5
114
  8
LAYER1
  6
BORDER
 62
     3
 10
814.51484374999995
 20
-121.6377604167
 30
0.0
 11
167.51484375000001
 21
-121.6377604167
 31
0.0
  0
LINE
  5
115
  8
LAYER1
 62
     5
 10
177.51484375000001
 20
198.36223958330001
 30
0.0
 11
977.51484374999995
 21
198.36223958330001
 31
0.0
  0
LINE
  5
116
  8
LAYER1
 62
     5
 10
232.51484375000001
 20
173.36223958330001
 30
0.0
 11
922.51484374999995
 21
173.36223958330001
 31
0.0
  0
CIRCLE
  5
117
  8
LAYER1
  6
STITCH
 62
     5
 10
854.51484374999995
 20
75.362239583299996
 30
0.0
 40
62.5
  0
CIRCLE
  5
118
  8
LAYER1
  6
STITCH
 62
     5
 10
854.51484374999995
 20
75.362239583299996
 30
0.0
 40
72.5
  0
INSERT
  5
119
  8
0
  6
CONTINUOUS
  2
*U20
 10
0.0
 20
0.0
 30
0.0
  0
LINE
  5
11A
  8
LAYER1
  6
BORDER
 62
     3
 10
854.51484374999995
 20
-358.63776041670002
 30
0.0
 11
854.51484374999995
 21
-451.6377604166999
 31
0.0
  0
CIRCLE
  5
11B
  8
LAYER1
  6
STITCH
 62
     5
 10
854.51484374999995
 20
-318.63776041670002
 30
0.0
 40
72.5
  0
LINE
  5
11C
  8
LAYER1
 62
     5
 10
177.51484375000001
 20
-441.6377604166999
 30
0.0
 11
177.51484375000001
 21
198.36223958330001
 31
0.0
  0
DIMENSION
  5
12B
  8
Éíû@É³
  2
*D11
 10
1038.8264746031
 20
75.362239583299996
 30
0.0
 11
1038.8264746031
 21
136.86223958330001
 31
0.0
 70
   128
  1
<>
 13
944.51484374999995
 23
75.362239583299996
 33
0.0
 14
977.51484374999995
 24
198.36223958330001
 34
0.0
 50
90.0
  0
DIMENSION
  5
13A
  8
Éíû@É³
  2
*D12
 10
1038.8264746031
 20
-441.6377604166999
 30
0.0
 11
1038.8264746031
 21
-380.1377604166999
 31
0.0
 70
   128
  1
<>
 13
977.51484374999995
 23
-441.6377604166999
 33
0.0
 14
944.51484374999995
 24
-318.63776041670002
 34
0.0
 50
90.0
  0
DIMENSION
  5
149
  8
Éíû@É³
  2
*D13
 10
1081.8874121030999
 20
-441.6377604166999
 30
0.0
 11
1081.8874121030999
 21
-121.6377604167
 31
0.0
 70
   128
  1
<>
 13
977.51484374999995
 23
-441.6377604166999
 33
0.0
 14
977.51484374999995
 24
198.36223958330001
 34
0.0
 50
90.0
  0
DIMENSION
  5
158
  8
Éíû@É³
  2
*D14
 10
612.51484374999995
 20
-441.6377604166999
 30
0.0
 11
612.51484374999995
 21
-429.1377604166999
 31
0.0
 70
   128
  1
<>
 13
577.51484374999995
 23
-441.6377604166999
 33
0.0
 14
577.51484374999995
 24
-416.6377604166999
 34
0.0
 50
90.0
  0
DIMENSION
  5
167
  8
Éíû@É³
  2
*D15
 10
977.51484374999995
 20
238.36223958330001
 30
0.0
 11
916.01484374999995
 21
238.36223958330001
 31
0.0
 70
   128
  1
<>
 13
977.51484374999995
 23
198.36223958330001
 33
0.0
 14
854.51484374999995
 24
208.36223958330001
 34
0.0
  0
DIMENSION
  5
176
  8
Éíû@É³
  2
*D16
 10
952.51484374999995
 20
-156.63776041669999
 30
0.0
 11
965.01484374999995
 21
-156.63776041669999
 31
0.0
 70
   128
  1
<>
 13
952.51484374999995
 23
-121.6377604167
 33
0.0
 14
977.51484374999995
 24
-121.6377604167
 34
0.0
 50
180.0
  0
DIMENSION
  5
185
  8
Éíû@É³
  2
*D17
 10
612.51484374999995
 20
173.36223958330001
 30
0.0
 11
612.51484374999995
 21
185.86223958330001
 31
0.0
 70
   128
  1
<>
 13
577.51484374999995
 23
173.36223958330001
 33
0.0
 14
577.51484374999995
 24
198.36223958330001
 34
0.0
 50
90.0
  0
LINE
  5
186
  8
┌▓È_1
 62
     5
 10
1285.2558522469999
 20
-768.44060115939999
 30
0.0
 11
1300.4131855804001
 21
-768.44060115939999
 31
0.0
  0
LINE
  5
187
  8
┌▓È_1
 62
     5
 10
1195.7434974114999
 20
-772.04060115940001
 30
0.0
 11
1211.7434974114999
 21
-772.04060115940001
 31
0.0
  0
LINE
  5
188
  8
┌▓È_1
 62
     5
 10
1229.7434974114999
 20
-752.0406011593999
 30
0.0
 11
1229.7434974114999
 21
-758.04060115940001
 31
0.0
  0
LINE
  5
189
  8
┌▓È_1
 62
     5
 10
1191.1390821652999
 20
-752.0406011593999
 30
0.0
 11
1191.1390821652999
 21
-758.04060115940001
 31
0.0
  0
LINE
  5
18A
  8
┌▓È_1
 62
     5
 10
1240.3859216538999
 20
-754.61748329929992
 30
0.0
 11
1240.3859216538999
 21
-753.32904222939987
 31
0.0
  0
LINE
  5
18B
  8
┌▓È_1
 62
     5
 10
1256.3859216538999
 20
-753.32904222939987
 30
0.0
 11
1254.1231799540999
 21
-755.59178392920001
 31
0.0
  0
LINE
  5
18C
  8
┌▓È_1
 62
     5
 10
1213.7434974114999
 20
-758.04060115940001
 30
0.0
 11
1213.7434974114999
 21
-760.0406011593999
 31
0.0
  0
LINE
  5
18D
  8
┌▓È_1
 62
     5
 10
1313.2558522469999
 20
-774.04060115940001
 30
0.0
 11
1302.0558522470001
 21
-774.04060115940001
 31
0.0
  0
POLYLINE
  8
┌▓È_1
  5
277
  62
5
  66
     1
 10
0.000000
 20
0.000000
 30
0.000000
  70
     8
  0
VERTEX
  8
┌▓È_1
  5
278
 10
1240.39
 20
-754.617
 30
0.000000
  70
    32
  0
VERTEX
  8
┌▓È_1
  5
279
 10
1240.46
 20
-754.684
 30
0.000000
  70
    32
  0
VERTEX
  8
┌▓È_1
  5
27A
 10
1240.53
 20
-754.750
 30
0.000000
  70
    32
  0
VERTEX
  8
┌▓È_1
  5
27B
 10
1240.60
 20
-754.817
 30
0.000000
  70
    32
  0
VERTEX
  8
┌▓È_1
  5
27C
 10
1240.67
 20
-754.883
 30
0.000000
  70
    32
  0
VERTEX
  8
┌▓È_1
  5
27D
 10
1240.75
 20
-754.950
 30
0.000000
  70
    32
  0
VERTEX
  8
┌▓È_1
  5
27E
 10
1240.82
 20
-755.016
 30
0.000000
  70
    32
  0
VERTEX
  8
┌▓È_1
  5
27F
 10
1240.89
 20
-755.082
 30
0.000000
  70
    32
  0
VERTEX
  8
┌▓È_1
  5
280
 10
1240.96
 20
-755.149
 30
0.000000
  70
    32
  0
VERTEX
  8
┌▓È_1
  5
281
 10
1241.03
 20
-755.215
 30
0.000000
  70
    32
  0
VERTEX
  8
┌▓È_1
  5
282
 10
1241.11
 20
-755.281
 30
0.000000
  70
    32
  0
VERTEX
  8
┌▓È_1
  5
283
 10
1241.18
 20
-755.348
 30
0.000000
  70
    32
  0
VERTEX
  8
┌▓È_1
  5
284
 10
1241.25
 20
-755.414
 30
0.000000
  70
    32
  0
VERTEX
  8
┌▓È_1
  5
285
 10
1241.32
 20
-755.480
 30
0.000000
  70
    32
  0
VERTEX
  8
┌▓È_1
  5
286
 10
1241.39
 20
-755.547
 30
0.000000
  70
    32
  0
VERTEX
  8
┌▓È_1
  5
287
 10
1241.47
 20
-755.613
 30
0.000000
  70
    32
  0
VERTEX
  8
┌▓È_1
  5
288
 10
1241.54
 20
-755.679
 30
0.000000
  70
    32
  0
VERTEX
  8
┌▓È_1
  5
289
 10
1241.61
 20
-755.745
 30
0.000000
  70
    32
  0
VERTEX
  8
┌▓È_1
  5
28A
 10
1241.68
 20
-755.812
 30
0.000000
  70
    32
  0
VERTEX
  8
┌▓È_1
  5
28B
 10
1241.76
 20
-755.878
 30
0.000000
  70
    32
  0
VERTEX
  8
┌▓È_1
  5
28C
 10
1241.83
 20
-755.944
 30
0.000000
  70
    32
  0
VERTEX
  8
┌▓È_1
  5
28D
 10
1241.90
 20
-756.010
 30
0.000000
  70
    32
  0
VERTEX
  8
┌▓È_1
  5
28E
 10
1241.97
 20
-756.076
 30
0.000000
  70
    32
  0
VERTEX
  8
┌▓È_1
  5
28F
 10
1242.04
 20
-756.142
 30
0.000000
  70
    32
  0
VERTEX
  8
┌▓È_1
  5
290
 10
1242.12
 20
-756.208
 30
0.000000
  70
    32
  0
VERTEX
  8
┌▓È_1
  5
291
 10
1242.19
 20
-756.274
 30
0.000000
  70
    32
  0
VERTEX
  8
┌▓È_1
  5
292
 10
1242.26
 20
-756.340
 30
0.000000
  70
    32
  0
VERTEX
  8
┌▓È_1
  5
293
 10
1242.33
 20
-756.406
 30
0.000000
  70
    32
  0
VERTEX
  8
┌▓È_1
  5
294
 10
1242.41
 20
-756.472
 30
0.000000
  70
    32
  0
VERTEX
  8
┌▓È_1
  5
295
 10
1242.48
 20
-756.538
 30
0.000000
  70
    32
  0
VERTEX
  8
┌▓È_1
  5
296
 10
1242.55
 20
-756.604
 30
0.000000
  70
    32
  0
VERTEX
  8
┌▓È_1
  5
297
 10
1242.62
 20
-756.669
 30
0.000000
  70
    32
  0
VERTEX
  8
┌▓È_1
  5
298
 10
1242.70
 20
-756.735
 30
0.000000
  70
    32
  0
VERTEX
  8
┌▓È_1
  5
299
 10
1242.77
 20
-756.801
 30
0.000000
  70
    32
  0
VERTEX
  8
┌▓È_1
  5
29A
 10
1242.84
 20
-756.866
 30
0.000000
  70
    32
  0
VERTEX
  8
┌▓È_1
  5
29B
 10
1242.91
 20
-756.932
 30
0.000000
  70
    32
  0
VERTEX
  8
┌▓È_1
  5
29C
 10
1242.99
 20
-756.998
 30
0.000000
  70
    32
  0
VERTEX
  8
┌▓È_1
  5
29D
 10
1243.06
 20
-757.063
 30
0.000000
  70
    32
  0
VERTEX
  8
┌▓È_1
  5
29E
 10
1243.13
 20
-757.128
 30
0.000000
  70
    32
  0
VERTEX
  8
┌▓È_1
  5
29F
 10
1243.20
 20
-757.194
 30
0.000000
  70
    32
  0
VERTEX
  8
┌▓È_1
  5
2A0
 10
1243.28
 20
-757.259
 30
0.000000
  70
    32
  0
VERTEX
  8
┌▓È_1
  5
2A1
 10
1243.35
 20
-757.324
 30
0.000000
  70
    32
  0
VERTEX
  8
┌▓È_1
  5
2A2
 10
1243.42
 20
-757.390
 30
0.000000
  70
    32
  0
VERTEX
  8
┌▓È_1
  5
2A3
 10
1243.49
 20
-757.455
 30
0.000000
  70
    32
  0
VERTEX
  8
┌▓È_1
  5
2A4
 10
1243.57
 20
-757.520
 30
0.000000
  70
    32
  0
VERTEX
  8
┌▓È_1
  5
2A5
 10
1243.64
 20
-757.585
 30
0.000000
  70
    32
  0
VERTEX
  8
┌▓È_1
  5
2A6
 10
1243.71
 20
-757.650
 30
0.000000
  70
    32
  0
VERTEX
  8
┌▓È_1
  5
2A7
 10
1243.79
 20
-757.715
 30
0.000000
  70
    32
  0
VERTEX
  8
┌▓È_1
  5
2A8
 10
1243.86
 20
-757.780
 30
0.000000
  70
    32
  0
VERTEX
  8
┌▓È_1
  5
2A9
 10
1243.93
 20
-757.844
 30
0.000000
  70
    32
  0
VERTEX
  8
┌▓È_1
  5
2AA
 10
1244.00
 20
-757.909
 30
0.000000
  70
    32
  0
VERTEX
  8
┌▓È_1
  5
2AB
 10
1244.08
 20
-757.974
 30
0.000000
  70
    32
  0
VERTEX
  8
┌▓È_1
  5
2AC
 10
1244.15
 20
-758.038
 30
0.000000
  70
    32
  0
VERTEX
  8
┌▓È_1
  5
2AD
 10
1244.22
 20
-758.103
 30
0.000000
  70
    32
  0
VERTEX
  8
┌▓È_1
  5
2AE
 10
1244.30
 20
-758.167
 30
0.000000
  70
    32
  0
VERTEX
  8
┌▓È_1
  5
2AF
 10
1244.37
 20
-758.232
 30
0.000000
  70
    32
  0
VERTEX
  8
┌▓È_1
  5
2B0
 10
1244.44
 20
-758.296
 30
0.000000
  70
    32
  0
VERTEX
  8
┌▓È_1
  5
2B1
 10
1244.52
 20
-758.360
 30
0.000000
  70
    32
  0
VERTEX
  8
┌▓È_1
  5
2B2
 10
1244.59
 20
-758.424
 30
0.000000
  70
    32
  0
VERTEX
  8
┌▓È_1
  5
2B3
 10
1244.66
 20
-758.488
 30
0.000000
  70
    32
  0
VERTEX
  8
┌▓È_1
  5
2B4
 10
1244.74
 20
-758.552
 30
0.000000
  70
    32
  0
VERTEX
  8
┌▓È_1
  5
2B5
 10
1244.81
 20
-758.616
 30
0.000000
  70
    32
  0
VERTEX
  8
┌▓È_1
  5
2B6
 10
1244.88
 20
-758.680
 30
0.000000
  70
    32
  0
VERTEX
  8
┌▓È_1
  5
2B7
 10
1244.96
 20
-758.744
 30
0.000000
  70
    32
  0
VERTEX
  8
┌▓È_1
  5
2B8
 10
1245.03
 20
-758.807
 30
0.000000
  70
    32
  0
VERTEX
  8
┌▓È_1
  5
2B9
 10
1245.10
 20
-758.871
 30
0.000000
  70
    32
  0
VERTEX
  8
┌▓È_1
  5
2BA
 10
1245.18
 20
-758.934
 30
0.000000
  70
    32
  0
VERTEX
  8
┌▓È_1
  5
2BB
 10
1245.25
 20
-758.998
 30
0.000000
  70
    32
  0
VERTEX
  8
┌▓È_1
  5
2BC
 10
1245.32
 20
-759.061
 30
0.000000
  70
    32
  0
VERTEX
  8
┌▓È_1
  5
2BD
 10
1245.40
 20
-759.124
 30
0.000000
  70
    32
  0
VERTEX
  8
┌▓È_1
  5
2BE
 10
1245.47
 20
-759.187
 30
0.000000
  70
    32
  0
VERTEX
  8
┌▓È_1
  5
2BF
 10
1245.55
 20
-759.250
 30
0.000000
  70
    32
  0
VERTEX
  8
┌▓È_1
  5
2C0
 10
1245.62
 20
-759.313
 30
0.000000
  70
    32
  0
VERTEX
  8
┌▓È_1
  5
2C1
 10
1245.69
 20
-759.376
 30
0.000000
  70
    32
  0
VERTEX
  8
┌▓È_1
  5
2C2
 10
1245.77
 20
-759.439
 30
0.000000
  70
    32
  0
VERTEX
  8
┌▓È_1
  5
2C3
 10
1245.84
 20
-759.501
 30
0.000000
  70
    32
  0
VERTEX
  8
┌▓È_1
  5
2C4
 10
1245.92
 20
-759.564
 30
0.000000
  70
    32
  0
VERTEX
  8
┌▓È_1
  5
2C5
 10
1245.99
 20
-759.626
 30
0.000000
  70
    32
  0
VERTEX
  8
┌▓È_1
  5
2C6
 10
1246.06
 20
-759.688
 30
0.000000
  70
    32
  0
VERTEX
  8
┌▓È_1
  5
2C7
 10
1246.14
 20
-759.750
 30
0.000000
  70
    32
  0
VERTEX
  8
┌▓È_1
  5
2C8
 10
1246.21
 20
-759.812
 30
0.000000
  70
    32
  0
VERTEX
  8
┌▓È_1
  5
2C9
 10
1246.29
 20
-759.874
 30
0.000000
  70
    32
  0
VERTEX
  8
┌▓È_1
  5
2CA
 10
1246.36
 20
-759.936
 30
0.000000
  70
    32
  0
VERTEX
  8
┌▓È_1
  5
2CB
 10
1246.44
 20
-759.998
 30
0.000000
  70
    32
  0
VERTEX
  8
┌▓È_1
  5
2CC
 10
1246.51
 20
-760.059
 30
0.000000
  70
    32
  0
VERTEX
  8
┌▓È_1
  5
2CD
 10
1246.59
 20
-760.121
 30
0.000000
  70
    32
  0
VERTEX
  8
┌▓È_1
  5
2CE
 10
1246.66
 20
-760.182
 30
0.000000
  70
    32
  0
VERTEX
  8
┌▓È_1
  5
2CF
 10
1246.74
 20
-760.243
 30
0.000000
  70
    32
  0
VERTEX
  8
┌▓È_1
  5
2D0
 10
1246.81
 20
-760.305
 30
0.000000
  70
    32
  0
VERTEX
  8
┌▓È_1
  5
2D1
 10
1246.89
 20
-760.366
 30
0.000000
  70
    32
  0
VERTEX
  8
┌▓È_1
  5
2D2
 10
1246.96
 20
-760.426
 30
0.000000
  70
    32
  0
VERTEX
  8
┌▓È_1
  5
2D3
 10
1247.04
 20
-760.487
 30
0.000000
  70
    32
  0
VERTEX
  8
┌▓È_1
  5
2D4
 10
1247.11
 20
-760.548
 30
0.000000
  70
    32
  0
VERTEX
  8
┌▓È_1
  5
2D5
 10
1247.19
 20
-760.608
 30
0.000000
  70
    32
  0
VERTEX
  8
┌▓È_1
  5
2D6
 10
1247.26
 20
-760.669
 30
0.000000
  70
    32
  0
VERTEX
  8
┌▓È_1
  5
2D7
 10
1247.34
 20
-760.729
 30
0.000000
  70
    32
  0
VERTEX
  8
┌▓È_1
  5
2D8
 10
1247.41
 20
-760.789
 30
0.000000
  70
    32
  0
VERTEX
  8
┌▓È_1
  5
2D9
 10
1247.49
 20
-760.849
 30
0.000000
  70
    32
  0
VERTEX
  8
┌▓È_1
  5
2DA
 10
1247.56
 20
-760.909
 30
0.000000
  70
    32
  0
VERTEX
  8
┌▓È_1
  5
2DB
 10
1247.64
 20
-760.969
 30
0.000000
  70
    32
  0
VERTEX
  8
┌▓È_1
  5
2DC
 10
1247.72
 20
-761.028
 30
0.000000
  70
    32
  0
VERTEX
  8
┌▓È_1
  5
2DD
 10
1247.79
 20
-761.088
 30
0.000000
  70
    32
  0
VERTEX
  8
┌▓È_1
  5
2DE
 10
1247.87
 20
-761.147
 30
0.000000
  70
    32
  0
VERTEX
  8
┌▓È_1
  5
2DF
 10
1247.94
 20
-761.206
 30
0.000000
  70
    32
  0
VERTEX
  8
┌▓È_1
  5
2E0
 10
1248.02
 20
-761.265
 30
0.000000
  70
    32
  0
VERTEX
  8
┌▓È_1
  5
2E1
 10
1248.09
 20
-761.324
 30
0.000000
  70
    32
  0
VERTEX
  8
┌▓È_1
  5
2E2
 10
1248.17
 20
-761.383
 30
0.000000
  70
    32
  0
VERTEX
  8
┌▓È_1
  5
2E3
 10
1248.25
 20
-761.441
 30
0.000000
  70
    32
  0
VERTEX
  8
┌▓È_1
  5
2E4
 10
1248.32
 20
-761.500
 30
0.000000
  70
    32
  0
VERTEX
  8
┌▓È_1
  5
2E5
 10
1248.40
 20
-761.558
 30
0.000000
  70
    32
  0
VERTEX
  8
┌▓È_1
  5
2E6
 10
1248.48
 20
-761.616
 30
0.000000
  70
    32
  0
VERTEX
  8
┌▓È_1
  5
2E7
 10
1248.55
 20
-761.674
 30
0.000000
  70
    32
  0
VERTEX
  8
┌▓È_1
  5
2E8
 10
1248.63
 20
-761.732
 30
0.000000
  70
    32
  0
VERTEX
  8
┌▓È_1
  5
2E9
 10
1248.71
 20
-761.789
 30
0.000000
  70
    32
  0
VERTEX
  8
┌▓È_1
  5
2EA
 10
1248.78
 20
-761.847
 30
0.000000
  70
    32
  0
VERTEX
  8
┌▓È_1
  5
2EB
 10
1248.86
 20
-761.904
 30
0.000000
  70
    32
  0
VERTEX
  8
┌▓È_1
  5
2EC
 10
1248.94
 20
-761.961
 30
0.000000
  70
    32
  0
VERTEX
  8
┌▓È_1
  5
2ED
 10
1249.01
 20
-762.019
 30
0.000000
  70
    32
  0
VERTEX
  8
┌▓È_1
  5
2EE
 10
1249.09
 20
-762.075
 30
0.000000
  70
    32
  0
VERTEX
  8
┌▓È_1
  5
2EF
 10
1249.17
 20
-762.132
 30
0.000000
  70
    32
  0
VERTEX
  8
┌▓È_1
  5
2F0
 10
1249.25
 20
-762.189
 30
0.000000
  70
    32
  0
VERTEX
  8
┌▓È_1
  5
2F1
 10
1249.32
 20
-762.245
 30
0.000000
  70
    32
  0
VERTEX
  8
┌▓È_1
  5
2F2
 10
1249.40
 20
-762.301
 30
0.000000
  70
    32
  0
VERTEX
  8
┌▓È_1
  5
2F3
 10
1249.48
 20
-762.357
 30
0.000000
  70
    32
  0
VERTEX
  8
┌▓È_1
  5
2F4
 10
1249.56
 20
-762.413
 30
0.000000
  70
    32
  0
VERTEX
  8
┌▓È_1
  5
2F5
 10
1249.63
 20
-762.469
 30
0.000000
  70
    32
  0
VERTEX
  8
┌▓È_1
  5
2F6
 10
1249.71
 20
-762.524
 30
0.000000
  70
    32
  0
VERTEX
  8
┌▓È_1
  5
2F7
 10
1249.79
 20
-762.580
 30
0.000000
  70
    32
  0
VERTEX
  8
┌▓È_1
  5
2F8
 10
1249.87
 20
-762.635
 30
0.000000
  70
    32
  0
VERTEX
  8
┌▓È_1
  5
2F9
 10
1249.95
 20
-762.690
 30
0.000000
  70
    32
  0
VERTEX
  8
┌▓È_1
  5
2FA
 10
1250.03
 20
-762.745
 30
0.000000
  70
    32
  0
VERTEX
  8
┌▓È_1
  5
2FB
 10
1250.10
 20
-762.799
 30
0.000000
  70
    32
  0
VERTEX
  8
┌▓È_1
  5
2FC
 10
1250.18
 20
-762.854
 30
0.000000
  70
    32
  0
VERTEX
  8
┌▓È_1
  5
2FD
 10
1250.26
 20
-762.908
 30
0.000000
  70
    32
  0
VERTEX
  8
┌▓È_1
  5
2FE
 10
1250.34
 20
-762.962
 30
0.000000
  70
    32
  0
VERTEX
  8
┌▓È_1
  5
2FF
 10
1250.42
 20
-763.016
 30
0.000000
  70
    32
  0
VERTEX
  8
┌▓È_1
  5
300
 10
1250.50
 20
-763.070
 30
0.000000
  70
    32
  0
VERTEX
  8
┌▓È_1
  5
301
 10
1250.58
 20
-763.123
 30
0.000000
  70
    32
  0
VERTEX
  8
┌▓È_1
  5
302
 10
1250.66
 20
-763.177
 30
0.000000
  70
    32
  0
VERTEX
  8
┌▓È_1
  5
303
 10
1250.73
 20
-763.230
 30
0.000000
  70
    32
  0
VERTEX
  8
┌▓È_1
  5
304
 10
1250.81
 20
-763.283
 30
0.000000
  70
    32
  0
VERTEX
  8
┌▓È_1
  5
305
 10
1250.89
 20
-763.336
 30
0.000000
  70
    32
  0
VERTEX
  8
┌▓È_1
  5
306
 10
1250.97
 20
-763.388
 30
0.000000
  70
    32
  0
VERTEX
  8
┌▓È_1
  5
307
 10
1251.05
 20
-763.440
 30
0.000000
  70
    32
  0
VERTEX
  8
┌▓È_1
  5
308
 10
1251.13
 20
-763.493
 30
0.000000
  70
    32
  0
VERTEX
  8
┌▓È_1
  5
309
 10
1251.21
 20
-763.545
 30
0.000000
  70
    32
  0
VERTEX
  8
┌▓È_1
  5
30A
 10
1251.29
 20
-763.596
 30
0.000000
  70
    32
  0
VERTEX
  8
┌▓È_1
  5
30B
 10
1251.37
 20
-763.648
 30
0.000000
  70
    32
  0
VERTEX
  8
┌▓È_1
  5
30C
 10
1251.45
 20
-763.699
 30
0.000000
  70
    32
  0
VERTEX
  8
┌▓È_1
  5
30D
 10
1251.53
 20
-763.751
 30
0.000000
  70
    32
  0
VERTEX
  8
┌▓È_1
  5
30E
 10
1251.61
 20
-763.802
 30
0.000000
  70
    32
  0
VERTEX
  8
┌▓È_1
  5
30F
 10
1251.69
 20
-763.852
 30
0.000000
  70
    32
  0
VERTEX
  8
┌▓È_1
  5
310
 10
1251.77
 20
-763.903
 30
0.000000
  70
    32
  0
VERTEX
  8
┌▓È_1
  5
311
 10
1251.86
 20
-763.953
 30
0.000000
  70
    32
  0
VERTEX
  8
┌▓È_1
  5
312
 10
1251.94
 20
-764.003
 30
0.000000
  70
    32
  0
VERTEX
  8
┌▓È_1
  5
313
 10
1252.02
 20
-764.053
 30
0.000000
  70
    32
  0
VERTEX
  8
┌▓È_1
  5
314
 10
1252.10
 20
-764.103
 30
0.000000
  70
    32
  0
VERTEX
  8
┌▓È_1
  5
315
 10
1252.18
 20
-764.152
 30
0.000000
  70
    32
  0
VERTEX
  8
┌▓È_1
  5
316
 10
1252.26
 20
-764.202
 30
0.000000
  70
    32
  0
VERTEX
  8
┌▓È_1
  5
317
 10
1252.34
 20
-764.251
 30
0.000000
  70
    32
  0
SEQEND
  8
┌▓È_1
  5
318
  0
POLYLINE
  8
┌▓È_1
  5
319
  62
5
  66
     1
 10
0.000000
 20
0.000000
 30
0.000000
  70
     8
  0
VERTEX
  8
┌▓È_1
  5
31A
 10
1262.22
 20
-768.586
 30
0.000000
  70
    32
  0
VERTEX
  8
┌▓È_1
  5
31B
 10
1262.33
 20
-768.620
 30
0.000000
  70
    32
  0
VERTEX
  8
┌▓È_1
  5
31C
 10
1262.44
 20
-768.654
 30
0.000000
  70
    32
  0
VERTEX
  8
┌▓È_1
  5
31D
 10
1262.54
 20
-768.688
 30
0.000000
  70
    32
  0
VERTEX
  8
┌▓È_1
  5
31E
 10
1262.65
 20
-768.722
 30
0.000000
  70
    32
  0
VERTEX
  8
┌▓È_1
  5
31F
 10
1262.76
 20
-768.756
 30
0.000000
  70
    32
  0
VERTEX
  8
┌▓È_1
  5
320
 10
1262.87
 20
-768.789
 30
0.000000
  70
    32
  0
VERTEX
  8
┌▓È_1
  5
321
 10
1262.98
 20
-768.823
 30
0.000000
  70
    32
  0
VERTEX
  8
┌▓È_1
  5
322
 10
1263.08
 20
-768.856
 30
0.000000
  70
    32
  0
VERTEX
  8
┌▓È_1
  5
323
 10
1263.19
 20
-768.889
 30
0.000000
  70
    32
  0
VERTEX
  8
┌▓È_1
  5
324
 10
1263.30
 20
-768.922
 30
0.000000
  70
    32
  0
VERTEX
  8
┌▓È_1
  5
325
 10
1263.41
 20
-768.955
 30
0.000000
  70
    32
  0
VERTEX
  8
┌▓È_1
  5
326
 10
1263.52
 20
-768.987
 30
0.000000
  70
    32
  0
VERTEX
  8
┌▓È_1
  5
327
 10
1263.63
 20
-769.019
 30
0.000000
  70
    32
  0
VERTEX
  8
┌▓È_1
  5
328
 10
1263.74
 20
-769.052
 30
0.000000
  70
    32
  0
VERTEX
  8
┌▓È_1
  5
329
 10
1263.85
 20
-769.084
 30
0.000000
  70
    32
  0
VERTEX
  8
┌▓È_1
  5
32A
 10
1263.95
 20
-769.116
 30
0.000000
  70
    32
  0
VERTEX
  8
┌▓È_1
  5
32B
 10
1264.06
 20
-769.148
 30
0.000000
  70
    32
  0
VERTEX
  8
┌▓È_1
  5
32C
 10
1264.17
 20
-769.179
 30
0.000000
  70
    32
  0
VERTEX
  8
┌▓È_1
  5
32D
 10
1264.28
 20
-769.211
 30
0.000000
  70
    32
  0
VERTEX
  8
┌▓È_1
  5
32E
 10
1264.39
 20
-769.242
 30
0.000000
  70
    32
  0
VERTEX
  8
┌▓È_1
  5
32F
 10
1264.50
 20
-769.273
 30
0.000000
  70
    32
  0
VERTEX
  8
┌▓È_1
  5
330
 10
1264.61
 20
-769.304
 30
0.000000
  70
    32
  0
VERTEX
  8
┌▓È_1
  5
331
 10
1264.72
 20
-769.335
 30
0.000000
  70
    32
  0
VERTEX
  8
┌▓È_1
  5
332
 10
1264.83
 20
-769.366
 30
0.000000
  70
    32
  0
VERTEX
  8
┌▓È_1
  5
333
 10
1264.94
 20
-769.397
 30
0.000000
  70
    32
  0
VERTEX
  8
┌▓È_1
  5
334
 10
1265.05
 20
-769.427
 30
0.000000
  70
    32
  0
VERTEX
  8
┌▓È_1
  5
335
 10
1265.16
 20
-769.458
 30
0.000000
  70
    32
  0
VERTEX
  8
┌▓È_1
  5
336
 10
1265.27
 20
-769.488
 30
0.000000
  70
    32
  0
VERTEX
  8
┌▓È_1
  5
337
 10
1265.38
 20
-769.518
 30
0.000000
  70
    32
  0
VERTEX
  8
┌▓È_1
  5
338
 10
1265.49
 20
-769.548
 30
0.000000
  70
    32
  0
VERTEX
  8
┌▓È_1
  5
339
 10
1265.60
 20
-769.578
 30
0.000000
  70
    32
  0
VERTEX
  8
┌▓È_1
  5
33A
 10
1265.71
 20
-769.607
 30
0.000000
  70
    32
  0
VERTEX
  8
┌▓È_1
  5
33B
 10
1265.82
 20
-769.637
 30
0.000000
  70
    32
  0
VERTEX
  8
┌▓È_1
  5
33C
 10
1265.93
 20
-769.666
 30
0.000000
  70
    32
  0
VERTEX
  8
┌▓È_1
  5
33D
 10
1266.04
 20
-769.696
 30
0.000000
  70
    32
  0
VERTEX
  8
┌▓È_1
  5
33E
 10
1266.15
 20
-769.725
 30
0.000000
  70
    32
  0
VERTEX
  8
┌▓È_1
  5
33F
 10
1266.26
 20
-769.754
 30
0.000000
  70
    32
  0
VERTEX
  8
┌▓È_1
  5
340
 10
1266.37
 20
-769.783
 30
0.000000
  70
    32
  0
VERTEX
  8
┌▓È_1
  5
341
 10
1266.48
 20
-769.812
 30
0.000000
  70
    32
  0
VERTEX
  8
┌▓È_1
  5
342
 10
1266.59
 20
-769.841
 30
0.000000
  70
    32
  0
VERTEX
  8
┌▓È_1
  5
343
 10
1266.70
 20
-769.869
 30
0.000000
  70
    32
  0
VERTEX
  8
┌▓È_1
  5
344
 10
1266.81
 20
-769.898
 30
0.000000
  70
    32
  0
VERTEX
  8
┌▓È_1
  5
345
 10
1266.92
 20
-769.926
 30
0.000000
  70
    32
  0
VERTEX
  8
┌▓È_1
  5
346
 10
1267.04
 20
-769.954
 30
0.000000
  70
    32
  0
VERTEX
  8
┌▓È_1
  5
347
 10
1267.15
 20
-769.983
 30
0.000000
  70
    32
  0
VERTEX
  8
┌▓È_1
  5
348
 10
1267.26
 20
-770.011
 30
0.000000
  70
    32
  0
VERTEX
  8
┌▓È_1
  5
349
 10
1267.37
 20
-770.039
 30
0.000000
  70
    32
  0
VERTEX
  8
┌▓È_1
  5
34A
 10
1267.48
 20
-770.066
 30
0.000000
  70
    32
  0
VERTEX
  8
┌▓È_1
  5
34B
 10
1267.59
 20
-770.094
 30
0.000000
  70
    32
  0
VERTEX
  8
┌▓È_1
  5
34C
 10
1267.70
 20
-770.122
 30
0.000000
  70
    32
  0
VERTEX
  8
┌▓È_1
  5
34D
 10
1267.81
 20
-770.149
 30
0.000000
  70
    32
  0
VERTEX
  8
┌▓È_1
  5
34E
 10
1267.93
 20
-770.177
 30
0.000000
  70
    32
  0
VERTEX
  8
┌▓È_1
  5
34F
 10
1268.04
 20
-770.204
 30
0.000000
  70
    32
  0
VERTEX
  8
┌▓È_1
  5
350
 10
1268.15
 20
-770.231
 30
0.000000
  70
    32
  0
VERTEX
  8
┌▓È_1
  5
351
 10
1268.26
 20
-770.258
 30
0.000000
  70
    32
  0
VERTEX
  8
┌▓È_1
  5
352
 10
1268.37
 20
-770.285
 30
0.000000
  70
    32
  0
VERTEX
  8
┌▓È_1
  5
353
 10
1268.48
 20
-770.312
 30
0.000000
  70
    32
  0
VERTEX
  8
┌▓È_1
  5
354
 10
1268.60
 20
-770.339
 30
0.000000
  70
    32
  0
VERTEX
  8
┌▓È_1
  5
355
 10
1268.71
 20
-770.366
 30
0.000000
  70
    32
  0
VERTEX
  8
┌▓È_1
  5
356
 10
1268.82
 20
-770.393
 30
0.000000
  70
    32
  0
VERTEX
  8
┌▓È_1
  5
357
 10
1268.93
 20
-770.419
 30
0.000000
  70
    32
  0
VERTEX
  8
┌▓È_1
  5
358
 10
1269.04
 20
-770.446
 30
0.000000
  70
    32
  0
VERTEX
  8
┌▓È_1
  5
359
 10
1269.15
 20
-770.472
 30
0.000000
  70
    32
  0
VERTEX
  8
┌▓È_1
  5
35A
 10
1269.27
 20
-770.498
 30
0.000000
  70
    32
  0
VERTEX
  8
┌▓È_1
  5
35B
 10
1269.38
 20
-770.525
 30
0.000000
  70
    32
  0
VERTEX
  8
┌▓È_1
  5
35C
 10
1269.49
 20
-770.551
 30
0.000000
  70
    32
  0
VERTEX
  8
┌▓È_1
  5
35D
 10
1269.60
 20
-770.577
 30
0.000000
  70
    32
  0
VERTEX
  8
┌▓È_1
  5
35E
 10
1269.72
 20
-770.603
 30
0.000000
  70
    32
  0
VERTEX
  8
┌▓È_1
  5
35F
 10
1269.83
 20
-770.629
 30
0.000000
  70
    32
  0
VERTEX
  8
┌▓È_1
  5
360
 10
1269.94
 20
-770.654
 30
0.000000
  70
    32
  0
VERTEX
  8
┌▓È_1
  5
361
 10
1270.05
 20
-770.680
 30
0.000000
  70
    32
  0
VERTEX
  8
┌▓È_1
  5
362
 10
1270.16
 20
-770.706
 30
0.000000
  70
    32
  0
VERTEX
  8
┌▓È_1
  5
363
 10
1270.28
 20
-770.731
 30
0.000000
  70
    32
  0
VERTEX
  8
┌▓È_1
  5
364
 10
1270.39
 20
-770.757
 30
0.000000
  70
    32
  0
VERTEX
  8
┌▓È_1
  5
365
 10
1270.50
 20
-770.782
 30
0.000000
  70
    32
  0
VERTEX
  8
┌▓È_1
  5
366
 10
1270.61
 20
-770.808
 30
0.000000
  70
    32
  0
VERTEX
  8
┌▓È_1
  5
367
 10
1270.73
 20
-770.833
 30
0.000000
  70
    32
  0
VERTEX
  8
┌▓È_1
  5
368
 10
1270.84
 20
-770.858
 30
0.000000
  70
    32
  0
VERTEX
  8
┌▓È_1
  5
369
 10
1270.95
 20
-770.883
 30
0.000000
  70
    32
  0
VERTEX
  8
┌▓È_1
  5
36A
 10
1271.06
 20
-770.909
 30
0.000000
  70
    32
  0
VERTEX
  8
┌▓È_1
  5
36B
 10
1271.18
 20
-770.934
 30
0.000000
  70
    32
  0
VERTEX
  8
┌▓È_1
  5
36C
 10
1271.29
 20
-770.959
 30
0.000000
  70
    32
  0
VERTEX
  8
┌▓È_1
  5
36D
 10
1271.40
 20
-770.983
 30
0.000000
  70
    32
  0
VERTEX
  8
┌▓È_1
  5
36E
 10
1271.52
 20
-771.008
 30
0.000000
  70
    32
  0
VERTEX
  8
┌▓È_1
  5
36F
 10
1271.63
 20
-771.033
 30
0.000000
  70
    32
  0
VERTEX
  8
┌▓È_1
  5
370
 10
1271.74
 20
-771.058
 30
0.000000
  70
    32
  0
VERTEX
  8
┌▓È_1
  5
371
 10
1271.85
 20
-771.083
 30
0.000000
  70
    32
  0
VERTEX
  8
┌▓È_1
  5
372
 10
1271.97
 20
-771.107
 30
0.000000
  70
    32
  0
VERTEX
  8
┌▓È_1
  5
373
 10
1272.08
 20
-771.132
 30
0.000000
  70
    32
  0
VERTEX
  8
┌▓È_1
  5
374
 10
1272.19
 20
-771.156
 30
0.000000
  70
    32
  0
VERTEX
  8
┌▓È_1
  5
375
 10
1272.31
 20
-771.181
 30
0.000000
  70
    32
  0
VERTEX
  8
┌▓È_1
  5
376
 10
1272.42
 20
-771.205
 30
0.000000
  70
    32
  0
VERTEX
  8
┌▓È_1
  5
377
 10
1272.53
 20
-771.230
 30
0.000000
  70
    32
  0
VERTEX
  8
┌▓È_1
  5
378
 10
1272.65
 20
-771.254
 30
0.000000
  70
    32
  0
VERTEX
  8
┌▓È_1
  5
379
 10
1272.76
 20
-771.278
 30
0.000000
  70
    32
  0
VERTEX
  8
┌▓È_1
  5
37A
 10
1272.87
 20
-771.303
 30
0.000000
  70
    32
  0
VERTEX
  8
┌▓È_1
  5
37B
 10
1272.98
 20
-771.327
 30
0.000000
  70
    32
  0
VERTEX
  8
┌▓È_1
  5
37C
 10
1273.10
 20
-771.351
 30
0.000000
  70
    32
  0
VERTEX
  8
┌▓È_1
  5
37D
 10
1273.21
 20
-771.375
 30
0.000000
  70
    32
  0
VERTEX
  8
┌▓È_1
  5
37E
 10
1273.32
 20
-771.399
 30
0.000000
  70
    32
  0
VERTEX
  8
┌▓È_1
  5
37F
 10
1273.44
 20
-771.423
 30
0.000000
  70
    32
  0
VERTEX
  8
┌▓È_1
  5
380
 10
1273.55
 20
-771.447
 30
0.000000
  70
    32
  0
VERTEX
  8
┌▓È_1
  5
381
 10
1273.66
 20
-771.471
 30
0.000000
  70
    32
  0
VERTEX
  8
┌▓È_1
  5
382
 10
1273.78
 20
-771.495
 30
0.000000
  70
    32
  0
VERTEX
  8
┌▓È_1
  5
383
 10
1273.89
 20
-771.519
 30
0.000000
  70
    32
  0
VERTEX
  8
┌▓È_1
  5
384
 10
1274.00
 20
-771.543
 30
0.000000
  70
    32
  0
VERTEX
  8
┌▓È_1
  5
385
 10
1274.12
 20
-771.567
 30
0.000000
  70
    32
  0
VERTEX
  8
┌▓È_1
  5
386
 10
1274.23
 20
-771.591
 30
0.000000
  70
    32
  0
VERTEX
  8
┌▓È_1
  5
387
 10
1274.34
 20
-771.615
 30
0.000000
  70
    32
  0
VERTEX
  8
┌▓È_1
  5
388
 10
1274.46
 20
-771.638
 30
0.000000
  70
    32
  0
VERTEX
  8
┌▓È_1
  5
389
 10
1274.57
 20
-771.662
 30
0.000000
  70
    32
  0
VERTEX
  8
┌▓È_1
  5
38A
 10
1274.68
 20
-771.686
 30
0.000000
  70
    32
  0
VERTEX
  8
┌▓È_1
  5
38B
 10
1274.80
 20
-771.710
 30
0.000000
  70
    32
  0
VERTEX
  8
┌▓È_1
  5
38C
 10
1274.91
 20
-771.733
 30
0.000000
  70
    32
  0
VERTEX
  8
┌▓È_1
  5
38D
 10
1275.02
 20
-771.757
 30
0.000000
  70
    32
  0
VERTEX
  8
┌▓È_1
  5
38E
 10
1275.14
 20
-771.781
 30
0.000000
  70
    32
  0
VERTEX
  8
┌▓È_1
  5
38F
 10
1275.25
 20
-771.804
 30
0.000000
  70
    32
  0
VERTEX
  8
┌▓È_1
  5
390
 10
1275.36
 20
-771.828
 30
0.000000
  70
    32
  0
VERTEX
  8
┌▓È_1
  5
391
 10
1275.48
 20
-771.852
 30
0.000000
  70
    32
  0
VERTEX
  8
┌▓È_1
  5
392
 10
1275.59
 20
-771.875
 30
0.000000
  70
    32
  0
VERTEX
  8
┌▓È_1
  5
393
 10
1275.71
 20
-771.899
 30
0.000000
  70
    32
  0
VERTEX
  8
┌▓È_1
  5
394
 10
1275.82
 20
-771.923
 30
0.000000
  70
    32
  0
VERTEX
  8
┌▓È_1
  5
395
 10
1275.93
 20
-771.946
 30
0.000000
  70
    32
  0
VERTEX
  8
┌▓È_1
  5
396
 10
1276.05
 20
-771.970
 30
0.000000
  70
    32
  0
VERTEX
  8
┌▓È_1
  5
397
 10
1276.16
 20
-771.993
 30
0.000000
  70
    32
  0
VERTEX
  8
┌▓È_1
  5
398
 10
1276.27
 20
-772.017
 30
0.000000
  70
    32
  0
VERTEX
  8
┌▓È_1
  5
399
 10
1276.39
 20
-772.041
 30
0.000000
  70
    32
  0
SEQEND
  8
┌▓È_1
  5
39A
  0
POLYLINE
  8
┌▓È_1
  5
39B
  62
5
  66
     1
 10
0.000000
 20
0.000000
 30
0.000000
  70
     8
  0
VERTEX
  8
┌▓È_1
  5
39C
 10
1254.12
 20
-755.592
 30
0.000000
  70
    32
  0
VERTEX
  8
┌▓È_1
  5
39D
 10
1254.15
 20
-755.621
 30
0.000000
  70
    32
  0
VERTEX
  8
┌▓È_1
  5
39E
 10
1254.18
 20
-755.651
 30
0.000000
  70
    32
  0
VERTEX
  8
┌▓È_1
  5
39F
 10
1254.20
 20
-755.680
 30
0.000000
  70
    32
  0
VERTEX
  8
┌▓È_1
  5
3A0
 10
1254.23
 20
-755.710
 30
0.000000
  70
    32
  0
VERTEX
  8
┌▓È_1
  5
3A1
 10
1254.26
 20
-755.739
 30
0.000000
  70
    32
  0
VERTEX
  8
┌▓È_1
  5
3A2
 10
1254.28
 20
-755.768
 30
0.000000
  70
    32
  0
VERTEX
  8
┌▓È_1
  5
3A3
 10
1254.31
 20
-755.798
 30
0.000000
  70
    32
  0
VERTEX
  8
┌▓È_1
  5
3A4
 10
1254.33
 20
-755.827
 30
0.000000
  70
    32
  0
VERTEX
  8
┌▓È_1
  5
3A5
 10
1254.36
 20
-755.857
 30
0.000000
  70
    32
  0
VERTEX
  8
┌▓È_1
  5
3A6
 10
1254.39
 20
-755.886
 30
0.000000
  70
    32
  0
VERTEX
  8
┌▓È_1
  5
3A7
 10
1254.41
 20
-755.915
 30
0.000000
  70
    32
  0
VERTEX
  8
┌▓È_1
  5
3A8
 10
1254.44
 20
-755.945
 30
0.000000
  70
    32
  0
VERTEX
  8
┌▓È_1
  5
3A9
 10
1254.47
 20
-755.974
 30
0.000000
  70
    32
  0
VERTEX
  8
┌▓È_1
  5
3AA
 10
1254.49
 20
-756.004
 30
0.000000
  70
    32
  0
VERTEX
  8
┌▓È_1
  5
3AB
 10
1254.52
 20
-756.033
 30
0.000000
  70
    32
  0
VERTEX
  8
┌▓È_1
  5
3AC
 10
1254.55
 20
-756.062
 30
0.000000
  70
    32
  0
VERTEX
  8
┌▓È_1
  5
3AD
 10
1254.57
 20
-756.092
 30
0.000000
  70
    32
  0
VERTEX
  8
┌▓È_1
  5
3AE
 10
1254.60
 20
-756.121
 30
0.000000
  70
    32
  0
VERTEX
  8
┌▓È_1
  5
3AF
 10
1254.63
 20
-756.151
 30
0.000000
  70
    32
  0
VERTEX
  8
┌▓È_1
  5
3B0
 10
1254.65
 20
-756.180
 30
0.000000
  70
    32
  0
VERTEX
  8
┌▓È_1
  5
3B1
 10
1254.68
 20
-756.209
 30
0.000000
  70
    32
  0
VERTEX
  8
┌▓È_1
  5
3B2
 10
1254.70
 20
-756.239
 30
0.000000
  70
    32
  0
VERTEX
  8
┌▓È_1
  5
3B3
 10
1254.73
 20
-756.268
 30
0.000000
  70
    32
  0
VERTEX
  8
┌▓È_1
  5
3B4
 10
1254.76
 20
-756.297
 30
0.000000
  70
    32
  0
VERTEX
  8
┌▓È_1
  5
3B5
 10
1254.78
 20
-756.326
 30
0.000000
  70
    32
  0
VERTEX
  8
┌▓È_1
  5
3B6
 10
1254.81
 20
-756.356
 30
0.000000
  70
    32
  0
VERTEX
  8
┌▓È_1
  5
3B7
 10
1254.84
 20
-756.385
 30
0.000000
  70
    32
  0
VERTEX
  8
┌▓È_1
  5
3B8
 10
1254.86
 20
-756.414
 30
0.000000
  70
    32
  0
VERTEX
  8
┌▓È_1
  5
3B9
 10
1254.89
 20
-756.444
 30
0.000000
  70
    32
  0
VERTEX
  8
┌▓È_1
  5
3BA
 10
1254.92
 20
-756.473
 30
0.000000
  70
    32
  0
VERTEX
  8
┌▓È_1
  5
3BB
 10
1254.94
 20
-756.502
 30
0.000000
  70
    32
  0
VERTEX
  8
┌▓È_1
  5
3BC
 10
1254.97
 20
-756.531
 30
0.000000
  70
    32
  0
VERTEX
  8
┌▓È_1
  5
3BD
 10
1255.00
 20
-756.560
 30
0.000000
  70
    32
  0
VERTEX
  8
┌▓È_1
  5
3BE
 10
1255.02
 20
-756.590
 30
0.000000
  70
    32
  0
VERTEX
  8
┌▓È_1
  5
3BF
 10
1255.05
 20
-756.619
 30
0.000000
  70
    32
  0
VERTEX
  8
┌▓È_1
  5
3C0
 10
1255.08
 20
-756.648
 30
0.000000
  70
    32
  0
VERTEX
  8
┌▓È_1
  5
3C1
 10
1255.10
 20
-756.677
 30
0.000000
  70
    32
  0
VERTEX
  8
┌▓È_1
  5
3C2
 10
1255.13
 20
-756.706
 30
0.000000
  70
    32
  0
VERTEX
  8
┌▓È_1
  5
3C3
 10
1255.16
 20
-756.735
 30
0.000000
  70
    32
  0
VERTEX
  8
┌▓È_1
  5
3C4
 10
1255.18
 20
-756.764
 30
0.000000
  70
    32
  0
VERTEX
  8
┌▓È_1
  5
3C5
 10
1255.21
 20
-756.793
 30
0.000000
  70
    32
  0
VERTEX
  8
┌▓È_1
  5
3C6
 10
1255.24
 20
-756.823
 30
0.000000
  70
    32
  0
VERTEX
  8
┌▓È_1
  5
3C7
 10
1255.26
 20
-756.852
 30
0.000000
  70
    32
  0
VERTEX
  8
┌▓È_1
  5
3C8
 10
1255.29
 20
-756.881
 30
0.000000
  70
    32
  0
VERTEX
  8
┌▓È_1
  5
3C9
 10
1255.32
 20
-756.910
 30
0.000000
  70
    32
  0
VERTEX
  8
┌▓È_1
  5
3CA
 10
1255.34
 20
-756.939
 30
0.000000
  70
    32
  0
VERTEX
  8
┌▓È_1
  5
3CB
 10
1255.37
 20
-756.968
 30
0.000000
  70
    32
  0
VERTEX
  8
┌▓È_1
  5
3CC
 10
1255.40
 20
-756.996
 30
0.000000
  70
    32
  0
VERTEX
  8
┌▓È_1
  5
3CD
 10
1255.42
 20
-757.025
 30
0.000000
  70
    32
  0
VERTEX
  8
┌▓È_1
  5
3CE
 10
1255.45
 20
-757.054
 30
0.000000
  70
    32
  0
VERTEX
  8
┌▓È_1
  5
3CF
 10
1255.48
 20
-757.083
 30
0.000000
  70
    32
  0
VERTEX
  8
┌▓È_1
  5
3D0
 10
1255.50
 20
-757.112
 30
0.000000
  70
    32
  0
VERTEX
  8
┌▓È_1
  5
3D1
 10
1255.53
 20
-757.141
 30
0.000000
  70
    32
  0
VERTEX
  8
┌▓È_1
  5
3D2
 10
1255.56
 20
-757.170
 30
0.000000
  70
    32
  0
VERTEX
  8
┌▓È_1
  5
3D3
 10
1255.58
 20
-757.198
 30
0.000000
  70
    32
  0
VERTEX
  8
┌▓È_1
  5
3D4
 10
1255.61
 20
-757.227
 30
0.000000
  70
    32
  0
VERTEX
  8
┌▓È_1
  5
3D5
 10
1255.64
 20
-757.256
 30
0.000000
  70
    32
  0
VERTEX
  8
┌▓È_1
  5
3D6
 10
1255.66
 20
-757.285
 30
0.000000
  70
    32
  0
VERTEX
  8
┌▓È_1
  5
3D7
 10
1255.69
 20
-757.313
 30
0.000000
  70
    32
  0
VERTEX
  8
┌▓È_1
  5
3D8
 10
1255.72
 20
-757.342
 30
0.000000
  70
    32
  0
VERTEX
  8
┌▓È_1
  5
3D9
 10
1255.74
 20
-757.371
 30
0.000000
  70
    32
  0
VERTEX
  8
┌▓È_1
  5
3DA
 10
1255.77
 20
-757.399
 30
0.000000
  70
    32
  0
VERTEX
  8
┌▓È_1
  5
3DB
 10
1255.80
 20
-757.428
 30
0.000000
  70
    32
  0
VERTEX
  8
┌▓È_1
  5
3DC
 10
1255.82
 20
-757.456
 30
0.000000
  70
    32
  0
VERTEX
  8
┌▓È_1
  5
3DD
 10
1255.85
 20
-757.485
 30
0.000000
  70
    32
  0
VERTEX
  8
┌▓È_1
  5
3DE
 10
1255.88
 20
-757.513
 30
0.000000
  70
    32
  0
VERTEX
  8
┌▓È_1
  5
3DF
 10
1255.91
 20
-757.542
 30
0.000000
  70
    32
  0
VERTEX
  8
┌▓È_1
  5
3E0
 10
1255.93
 20
-757.570
 30
0.000000
  70
    32
  0
VERTEX
  8
┌▓È_1
  5
3E1
 10
1255.96
 20
-757.599
 30
0.000000
  70
    32
  0
VERTEX
  8
┌▓È_1
  5
3E2
 10
1255.99
 20
-757.627
 30
0.000000
  70
    32
  0
VERTEX
  8
┌▓È_1
  5
3E3
 10
1256.01
 20
-757.655
 30
0.000000
  70
    32
  0
VERTEX
  8
┌▓È_1
  5
3E4
 10
1256.04
 20
-757.684
 30
0.000000
  70
    32
  0
VERTEX
  8
┌▓È_1
  5
3E5
 10
1256.07
 20
-757.712
 30
0.000000
  70
    32
  0
VERTEX
  8
┌▓È_1
  5
3E6
 10
1256.10
 20
-757.740
 30
0.000000
  70
    32
  0
VERTEX
  8
┌▓È_1
  5
3E7
 10
1256.12
 20
-757.768
 30
0.000000
  70
    32
  0
VERTEX
  8
┌▓È_1
  5
3E8
 10
1256.15
 20
-757.797
 30
0.000000
  70
    32
  0
VERTEX
  8
┌▓È_1
  5
3E9
 10
1256.18
 20
-757.825
 30
0.000000
  70
    32
  0
VERTEX
  8
┌▓È_1
  5
3EA
 10
1256.20
 20
-757.853
 30
0.000000
  70
    32
  0
VERTEX
  8
┌▓È_1
  5
3EB
 10
1256.23
 20
-757.881
 30
0.000000
  70
    32
  0
VERTEX
  8
┌▓È_1
  5
3EC
 10
1256.26
 20
-757.909
 30
0.000000
  70
    32
  0
VERTEX
  8
┌▓È_1
  5
3ED
 10
1256.29
 20
-757.937
 30
0.000000
  70
    32
  0
VERTEX
  8
┌▓È_1
  5
3EE
 10
1256.31
 20
-757.965
 30
0.000000
  70
    32
  0
VERTEX
  8
┌▓È_1
  5
3EF
 10
1256.34
 20
-757.993
 30
0.000000
  70
    32
  0
VERTEX
  8
┌▓È_1
  5
3F0
 10
1256.37
 20
-758.021
 30
0.000000
  70
    32
  0
VERTEX
  8
┌▓È_1
  5
3F1
 10
1256.39
 20
-758.049
 30
0.000000
  70
    32
  0
VERTEX
  8
┌▓È_1
  5
3F2
 10
1256.42
 20
-758.076
 30
0.000000
  70
    32
  0
VERTEX
  8
┌▓È_1
  5
3F3
 10
1256.45
 20
-758.104
 30
0.000000
  70
    32
  0
VERTEX
  8
┌▓È_1
  5
3F4
 10
1256.48
 20
-758.132
 30
0.000000
  70
    32
  0
VERTEX
  8
┌▓È_1
  5
3F5
 10
1256.50
 20
-758.160
 30
0.000000
  70
    32
  0
VERTEX
  8
┌▓È_1
  5
3F6
 10
1256.53
 20
-758.187
 30
0.000000
  70
    32
  0
VERTEX
  8
┌▓È_1
  5
3F7
 10
1256.56
 20
-758.215
 30
0.000000
  70
    32
  0
VERTEX
  8
┌▓È_1
  5
3F8
 10
1256.59
 20
-758.243
 30
0.000000
  70
    32
  0
VERTEX
  8
┌▓È_1
  5
3F9
 10
1256.61
 20
-758.270
 30
0.000000
  70
    32
  0
VERTEX
  8
┌▓È_1
  5
3FA
 10
1256.64
 20
-758.298
 30
0.000000
  70
    32
  0
VERTEX
  8
┌▓È_1
  5
3FB
 10
1256.67
 20
-758.325
 30
0.000000
  70
    32
  0
VERTEX
  8
┌▓È_1
  5
3FC
 10
1256.70
 20
-758.353
 30
0.000000
  70
    32
  0
VERTEX
  8
┌▓È_1
  5
3FD
 10
1256.73
 20
-758.380
 30
0.000000
  70
    32
  0
VERTEX
  8
┌▓È_1
  5
3FE
 10
1256.75
 20
-758.407
 30
0.000000
  70
    32
  0
VERTEX
  8
┌▓È_1
  5
3FF
 10
1256.78
 20
-758.435
 30
0.000000
  70
    32
  0
VERTEX
  8
┌▓È_1
  5
400
 10
1256.81
 20
-758.462
 30
0.000000
  70
    32
  0
VERTEX
  8
┌▓È_1
  5
401
 10
1256.84
 20
-758.489
 30
0.000000
  70
    32
  0
VERTEX
  8
┌▓È_1
  5
402
 10
1256.86
 20
-758.516
 30
0.000000
  70
    32
  0
VERTEX
  8
┌▓È_1
  5
403
 10
1256.89
 20
-758.543
 30
0.000000
  70
    32
  0
VERTEX
  8
┌▓È_1
  5
404
 10
1256.92
 20
-758.570
 30
0.000000
  70
    32
  0
VERTEX
  8
┌▓È_1
  5
405
 10
1256.95
 20
-758.598
 30
0.000000
  70
    32
  0
VERTEX
  8
┌▓È_1
  5
406
 10
1256.98
 20
-758.625
 30
0.000000
  70
    32
  0
VERTEX
  8
┌▓È_1
  5
407
 10
1257.00
 20
-758.651
 30
0.000000
  70
    32
  0
VERTEX
  8
┌▓È_1
  5
408
 10
1257.03
 20
-758.678
 30
0.000000
  70
    32
  0
VERTEX
  8
┌▓È_1
  5
409
 10
1257.06
 20
-758.705
 30
0.000000
  70
    32
  0
VERTEX
  8
┌▓È_1
  5
40A
 10
1257.09
 20
-758.732
 30
0.000000
  70
    32
  0
VERTEX
  8
┌▓È_1
  5
40B
 10
1257.12
 20
-758.759
 30
0.000000
  70
    32
  0
VERTEX
  8
┌▓È_1
  5
40C
 10
1257.14
 20
-758.785
 30
0.000000
  70
    32
  0
VERTEX
  8
┌▓È_1
  5
40D
 10
1257.17
 20
-758.812
 30
0.000000
  70
    32
  0
VERTEX
  8
┌▓È_1
  5
40E
 10
1257.20
 20
-758.839
 30
0.000000
  70
    32
  0
VERTEX
  8
┌▓È_1
  5
40F
 10
1257.23
 20
-758.865
 30
0.000000
  70
    32
  0
VERTEX
  8
┌▓È_1
  5
410
 10
1257.26
 20
-758.892
 30
0.000000
  70
    32
  0
VERTEX
  8
┌▓È_1
  5
411
 10
1257.28
 20
-758.918
 30
0.000000
  70
    32
  0
VERTEX
  8
┌▓È_1
  5
412
 10
1257.31
 20
-758.945
 30
0.000000
  70
    32
  0
VERTEX
  8
┌▓È_1
  5
413
 10
1257.34
 20
-758.971
 30
0.000000
  70
    32
  0
VERTEX
  8
┌▓È_1
  5
414
 10
1257.37
 20
-758.997
 30
0.000000
  70
    32
  0
VERTEX
  8
┌▓È_1
  5
415
 10
1257.40
 20
-759.024
 30
0.000000
  70
    32
  0
VERTEX
  8
┌▓È_1
  5
416
 10
1257.43
 20
-759.050
 30
0.000000
  70
    32
  0
VERTEX
  8
┌▓È_1
  5
417
 10
1257.45
 20
-759.076
 30
0.000000
  70
    32
  0
VERTEX
  8
┌▓È_1
  5
418
 10
1257.48
 20
-759.102
 30
0.000000
  70
    32
  0
VERTEX
  8
┌▓È_1
  5
419
 10
1257.51
 20
-759.128
 30
0.000000
  70
    32
  0
VERTEX
  8
┌▓È_1
  5
41A
 10
1257.54
 20
-759.154
 30
0.000000
  70
    32
  0
VERTEX
  8
┌▓È_1
  5
41B
 10
1257.57
 20
-759.180
 30
0.000000
  70
    32
  0
SEQEND
  8
┌▓È_1
  5
41C
  0
POLYLINE
  8
┌▓È_1
  5
41D
  62
5
  66
     1
 10
0.000000
 20
0.000000
 30
0.000000
  70
     8
  0
VERTEX
  8
┌▓È_1
  5
41E
 10
1267.12
 20
-764.135
 30
0.000000
  70
    32
  0
VERTEX
  8
┌▓È_1
  5
41F
 10
1267.19
 20
-764.154
 30
0.000000
  70
    32
  0
VERTEX
  8
┌▓È_1
  5
420
 10
1267.26
 20
-764.174
 30
0.000000
  70
    32
  0
VERTEX
  8
┌▓È_1
  5
421
 10
1267.33
 20
-764.194
 30
0.000000
  70
    32
  0
VERTEX
  8
┌▓È_1
  5
422
 10
1267.40
 20
-764.213
 30
0.000000
  70
    32
  0
VERTEX
  8
┌▓È_1
  5
423
 10
1267.47
 20
-764.233
 30
0.000000
  70
    32
  0
VERTEX
  8
┌▓È_1
  5
424
 10
1267.55
 20
-764.252
 30
0.000000
  70
    32
  0
VERTEX
  8
┌▓È_1
  5
425
 10
1267.62
 20
-764.271
 30
0.000000
  70
    32
  0
VERTEX
  8
┌▓È_1
  5
426
 10
1267.69
 20
-764.290
 30
0.000000
  70
    32
  0
VERTEX
  8
┌▓È_1
  5
427
 10
1267.76
 20
-764.309
 30
0.000000
  70
    32
  0
VERTEX
  8
┌▓È_1
  5
428
 10
1267.83
 20
-764.328
 30
0.000000
  70
    32
  0
VERTEX
  8
┌▓È_1
  5
429
 10
1267.90
 20
-764.347
 30
0.000000
  70
    32
  0
VERTEX
  8
┌▓È_1
  5
42A
 10
1267.97
 20
-764.365
 30
0.000000
  70
    32
  0
VERTEX
  8
┌▓È_1
  5
42B
 10
1268.04
 20
-764.384
 30
0.000000
  70
    32
  0
VERTEX
  8
┌▓È_1
  5
42C
 10
1268.11
 20
-764.402
 30
0.000000
  70
    32
  0
VERTEX
  8
┌▓È_1
  5
42D
 10
1268.18
 20
-764.420
 30
0.000000
  70
    32
  0
VERTEX
  8
┌▓È_1
  5
42E
 10
1268.25
 20
-764.439
 30
0.000000
  70
    32
  0
VERTEX
  8
┌▓È_1
  5
42F
 10
1268.32
 20
-764.457
 30
0.000000
  70
    32
  0
VERTEX
  8
┌▓È_1
  5
430
 10
1268.39
 20
-764.475
 30
0.000000
  70
    32
  0
VERTEX
  8
┌▓È_1
  5
431
 10
1268.46
 20
-764.493
 30
0.000000
  70
    32
  0
VERTEX
  8
┌▓È_1
  5
432
 10
1268.54
 20
-764.510
 30
0.000000
  70
    32
  0
VERTEX
  8
┌▓È_1
  5
433
 10
1268.61
 20
-764.528
 30
0.000000
  70
    32
  0
VERTEX
  8
┌▓È_1
  5
434
 10
1268.68
 20
-764.546
 30
0.000000
  70
    32
  0
VERTEX
  8
┌▓È_1
  5
435
 10
1268.75
 20
-764.563
 30
0.000000
  70
    32
  0
VERTEX
  8
┌▓È_1
  5
436
 10
1268.82
 20
-764.581
 30
0.000000
  70
    32
  0
VERTEX
  8
┌▓È_1
  5
437
 10
1268.89
 20
-764.598
 30
0.000000
  70
    32
  0
VERTEX
  8
┌▓È_1
  5
438
 10
1268.96
 20
-764.615
 30
0.000000
  70
    32
  0
VERTEX
  8
┌▓È_1
  5
439
 10
1269.04
 20
-764.632
 30
0.000000
  70
    32
  0
VERTEX
  8
┌▓È_1
  5
43A
 10
1269.11
 20
-764.649
 30
0.000000
  70
    32
  0
VERTEX
  8
┌▓È_1
  5
43B
 10
1269.18
 20
-764.666
 30
0.000000
  70
    32
  0
VERTEX
  8
┌▓È_1
  5
43C
 10
1269.25
 20
-764.683
 30
0.000000
  70
    32
  0
VERTEX
  8
┌▓È_1
  5
43D
 10
1269.32
 20
-764.700
 30
0.000000
  70
    32
  0
VERTEX
  8
┌▓È_1
  5
43E
 10
1269.39
 20
-764.717
 30
0.000000
  70
    32
  0
VERTEX
  8
┌▓È_1
  5
43F
 10
1269.47
 20
-764.733
 30
0.000000
  70
    32
  0
VERTEX
  8
┌▓È_1
  5
440
 10
1269.54
 20
-764.750
 30
0.000000
  70
    32
  0
VERTEX
  8
┌▓È_1
  5
441
 10
1269.61
 20
-764.766
 30
0.000000
  70
    32
  0
VERTEX
  8
┌▓È_1
  5
442
 10
1269.68
 20
-764.783
 30
0.000000
  70
    32
  0
VERTEX
  8
┌▓È_1
  5
443
 10
1269.75
 20
-764.799
 30
0.000000
  70
    32
  0
VERTEX
  8
┌▓È_1
  5
444
 10
1269.83
 20
-764.815
 30
0.000000
  70
    32
  0
VERTEX
  8
┌▓È_1
  5
445
 10
1269.90
 20
-764.831
 30
0.000000
  70
    32
  0
VERTEX
  8
┌▓È_1
  5
446
 10
1269.97
 20
-764.847
 30
0.000000
  70
    32
  0
VERTEX
  8
┌▓È_1
  5
447
 10
1270.04
 20
-764.863
 30
0.000000
  70
    32
  0
VERTEX
  8
┌▓È_1
  5
448
 10
1270.12
 20
-764.879
 30
0.000000
  70
    32
  0
VERTEX
  8
┌▓È_1
  5
449
 10
1270.19
 20
-764.895
 30
0.000000
  70
    32
  0
VERTEX
  8
┌▓È_1
  5
44A
 10
1270.26
 20
-764.911
 30
0.000000
  70
    32
  0
VERTEX
  8
┌▓È_1
  5
44B
 10
1270.33
 20
-764.926
 30
0.000000
  70
    32
  0
VERTEX
  8
┌▓È_1
  5
44C
 10
1270.41
 20
-764.942
 30
0.000000
  70
    32
  0
VERTEX
  8
┌▓È_1
  5
44D
 10
1270.48
 20
-764.958
 30
0.000000
  70
    32
  0
VERTEX
  8
┌▓È_1
  5
44E
 10
1270.55
 20
-764.973
 30
0.000000
  70
    32
  0
VERTEX
  8
┌▓È_1
  5
44F
 10
1270.62
 20
-764.988
 30
0.000000
  70
    32
  0
VERTEX
  8
┌▓È_1
  5
450
 10
1270.70
 20
-765.004
 30
0.000000
  70
    32
  0
VERTEX
  8
┌▓È_1
  5
451
 10
1270.77
 20
-765.019
 30
0.000000
  70
    32
  0
VERTEX
  8
┌▓È_1
  5
452
 10
1270.84
 20
-765.034
 30
0.000000
  70
    32
  0
VERTEX
  8
┌▓È_1
  5
453
 10
1270.92
 20
-765.049
 30
0.000000
  70
    32
  0
VERTEX
  8
┌▓È_1
  5
454
 10
1270.99
 20
-765.064
 30
0.000000
  70
    32
  0
VERTEX
  8
┌▓È_1
  5
455
 10
1271.06
 20
-765.079
 30
0.000000
  70
    32
  0
VERTEX
  8
┌▓È_1
  5
456
 10
1271.13
 20
-765.094
 30
0.000000
  70
    32
  0
VERTEX
  8
┌▓È_1
  5
457
 10
1271.21
 20
-765.109
 30
0.000000
  70
    32
  0
VERTEX
  8
┌▓È_1
  5
458
 10
1271.28
 20
-765.124
 30
0.000000
  70
    32
  0
VERTEX
  8
┌▓È_1
  5
459
 10
1271.35
 20
-765.138
 30
0.000000
  70
    32
  0
VERTEX
  8
┌▓È_1
  5
45A
 10
1271.43
 20
-765.153
 30
0.000000
  70
    32
  0
VERTEX
  8
┌▓È_1
  5
45B
 10
1271.50
 20
-765.167
 30
0.000000
  70
    32
  0
VERTEX
  8
┌▓È_1
  5
45C
 10
1271.57
 20
-765.182
 30
0.000000
  70
    32
  0
VERTEX
  8
┌▓È_1
  5
45D
 10
1271.65
 20
-765.196
 30
0.000000
  70
    32
  0
VERTEX
  8
┌▓È_1
  5
45E
 10
1271.72
 20
-765.211
 30
0.000000
  70
    32
  0
VERTEX
  8
┌▓È_1
  5
45F
 10
1271.79
 20
-765.225
 30
0.000000
  70
    32
  0
VERTEX
  8
┌▓È_1
  5
460
 10
1271.87
 20
-765.239
 30
0.000000
  70
    32
  0
VERTEX
  8
┌▓È_1
  5
461
 10
1271.94
 20
-765.254
 30
0.000000
  70
    32
  0
VERTEX
  8
┌▓È_1
  5
462
 10
1272.01
 20
-765.268
 30
0.000000
  70
    32
  0
VERTEX
  8
┌▓È_1
  5
463
 10
1272.09
 20
-765.282
 30
0.000000
  70
    32
  0
VERTEX
  8
┌▓È_1
  5
464
 10
1272.16
 20
-765.296
 30
0.000000
  70
    32
  0
VERTEX
  8
┌▓È_1
  5
465
 10
1272.23
 20
-765.310
 30
0.000000
  70
    32
  0
VERTEX
  8
┌▓È_1
  5
466
 10
1272.31
 20
-765.324
 30
0.000000
  70
    32
  0
VERTEX
  8
┌▓È_1
  5
467
 10
1272.38
 20
-765.338
 30
0.000000
  70
    32
  0
VERTEX
  8
┌▓È_1
  5
468
 10
1272.45
 20
-765.352
 30
0.000000
  70
    32
  0
VERTEX
  8
┌▓È_1
  5
469
 10
1272.53
 20
-765.366
 30
0.000000
  70
    32
  0
VERTEX
  8
┌▓È_1
  5
46A
 10
1272.60
 20
-765.379
 30
0.000000
  70
    32
  0
VERTEX
  8
┌▓È_1
  5
46B
 10
1272.68
 20
-765.393
 30
0.000000
  70
    32
  0
VERTEX
  8
┌▓È_1
  5
46C
 10
1272.75
 20
-765.407
 30
0.000000
  70
    32
  0
VERTEX
  8
┌▓È_1
  5
46D
 10
1272.82
 20
-765.420
 30
0.000000
  70
    32
  0
VERTEX
  8
┌▓È_1
  5
46E
 10
1272.90
 20
-765.434
 30
0.000000
  70
    32
  0
VERTEX
  8
┌▓È_1
  5
46F
 10
1272.97
 20
-765.448
 30
0.000000
  70
    32
  0
VERTEX
  8
┌▓È_1
  5
470
 10
1273.04
 20
-765.461
 30
0.000000
  70
    32
  0
VERTEX
  8
┌▓È_1
  5
471
 10
1273.12
 20
-765.475
 30
0.000000
  70
    32
  0
VERTEX
  8
┌▓È_1
  5
472
 10
1273.19
 20
-765.488
 30
0.000000
  70
    32
  0
VERTEX
  8
┌▓È_1
  5
473
 10
1273.27
 20
-765.501
 30
0.000000
  70
    32
  0
VERTEX
  8
┌▓È_1
  5
474
 10
1273.34
 20
-765.515
 30
0.000000
  70
    32
  0
VERTEX
  8
┌▓È_1
  5
475
 10
1273.41
 20
-765.528
 30
0.000000
  70
    32
  0
VERTEX
  8
┌▓È_1
  5
476
 10
1273.49
 20
-765.541
 30
0.000000
  70
    32
  0
VERTEX
  8
┌▓È_1
  5
477
 10
1273.56
 20
-765.555
 30
0.000000
  70
    32
  0
VERTEX
  8
┌▓È_1
  5
478
 10
1273.64
 20
-765.568
 30
0.000000
  70
    32
  0
VERTEX
  8
┌▓È_1
  5
479
 10
1273.71
 20
-765.581
 30
0.000000
  70
    32
  0
VERTEX
  8
┌▓È_1
  5
47A
 10
1273.78
 20
-765.594
 30
0.000000
  70
    32
  0
VERTEX
  8
┌▓È_1
  5
47B
 10
1273.86
 20
-765.607
 30
0.000000
  70
    32
  0
VERTEX
  8
┌▓È_1
  5
47C
 10
1273.93
 20
-765.620
 30
0.000000
  70
    32
  0
VERTEX
  8
┌▓È_1
  5
47D
 10
1274.01
 20
-765.633
 30
0.000000
  70
    32
  0
VERTEX
  8
┌▓È_1
  5
47E
 10
1274.08
 20
-765.646
 30
0.000000
  70
    32
  0
VERTEX
  8
┌▓È_1
  5
47F
 10
1274.16
 20
-765.659
 30
0.000000
  70
    32
  0
VERTEX
  8
┌▓È_1
  5
480
 10
1274.23
 20
-765.672
 30
0.000000
  70
    32
  0
VERTEX
  8
┌▓È_1
  5
481
 10
1274.30
 20
-765.685
 30
0.000000
  70
    32
  0
VERTEX
  8
┌▓È_1
  5
482
 10
1274.38
 20
-765.698
 30
0.000000
  70
    32
  0
VERTEX
  8
┌▓È_1
  5
483
 10
1274.45
 20
-765.711
 30
0.000000
  70
    32
  0
VERTEX
  8
┌▓È_1
  5
484
 10
1274.53
 20
-765.724
 30
0.000000
  70
    32
  0
VERTEX
  8
┌▓È_1
  5
485
 10
1274.60
 20
-765.737
 30
0.000000
  70
    32
  0
VERTEX
  8
┌▓È_1
  5
486
 10
1274.67
 20
-765.750
 30
0.000000
  70
    32
  0
VERTEX
  8
┌▓È_1
  5
487
 10
1274.75
 20
-765.762
 30
0.000000
  70
    32
  0
VERTEX
  8
┌▓È_1
  5
488
 10
1274.82
 20
-765.775
 30
0.000000
  70
    32
  0
VERTEX
  8
┌▓È_1
  5
489
 10
1274.90
 20
-765.788
 30
0.000000
  70
    32
  0
VERTEX
  8
┌▓È_1
  5
48A
 10
1274.97
 20
-765.801
 30
0.000000
  70
    32
  0
VERTEX
  8
┌▓È_1
  5
48B
 10
1275.05
 20
-765.813
 30
0.000000
  70
    32
  0
VERTEX
  8
┌▓È_1
  5
48C
 10
1275.12
 20
-765.826
 30
0.000000
  70
    32
  0
VERTEX
  8
┌▓È_1
  5
48D
 10
1275.20
 20
-765.839
 30
0.000000
  70
    32
  0
VERTEX
  8
┌▓È_1
  5
48E
 10
1275.27
 20
-765.852
 30
0.000000
  70
    32
  0
VERTEX
  8
┌▓È_1
  5
48F
 10
1275.34
 20
-765.864
 30
0.000000
  70
    32
  0
VERTEX
  8
┌▓È_1
  5
490
 10
1275.42
 20
-765.877
 30
0.000000
  70
    32
  0
VERTEX
  8
┌▓È_1
  5
491
 10
1275.49
 20
-765.889
 30
0.000000
  70
    32
  0
VERTEX
  8
┌▓È_1
  5
492
 10
1275.57
 20
-765.902
 30
0.000000
  70
    32
  0
VERTEX
  8
┌▓È_1
  5
493
 10
1275.64
 20
-765.915
 30
0.000000
  70
    32
  0
VERTEX
  8
┌▓È_1
  5
494
 10
1275.72
 20
-765.927
 30
0.000000
  70
    32
  0
VERTEX
  8
┌▓È_1
  5
495
 10
1275.79
 20
-765.940
 30
0.000000
  70
    32
  0
VERTEX
  8
┌▓È_1
  5
496
 10
1275.86
 20
-765.953
 30
0.000000
  70
    32
  0
VERTEX
  8
┌▓È_1
  5
497
 10
1275.94
 20
-765.965
 30
0.000000
  70
    32
  0
VERTEX
  8
┌▓È_1
  5
498
 10
1276.01
 20
-765.978
 30
0.000000
  70
    32
  0
VERTEX
  8
┌▓È_1
  5
499
 10
1276.09
 20
-765.990
 30
0.000000
  70
    32
  0
VERTEX
  8
┌▓È_1
  5
49A
 10
1276.16
 20
-766.003
 30
0.000000
  70
    32
  0
VERTEX
  8
┌▓È_1
  5
49B
 10
1276.24
 20
-766.015
 30
0.000000
  70
    32
  0
VERTEX
  8
┌▓È_1
  5
49C
 10
1276.31
 20
-766.028
 30
0.000000
  70
    32
  0
VERTEX
  8
┌▓È_1
  5
49D
 10
1276.39
 20
-766.041
 30
0.000000
  70
    32
  0
SEQEND
  8
┌▓È_1
  5
49E
  0
INSERT
  5
192
  8
0
  6
CONTINUOUS
  2
*U21
 10
0.0
 20
0.0
 30
0.0
  0
CIRCLE
  5
193
  8
LAYER1
 62
     5
 10
854.51484374999995
 20
-121.6377604167
 30
0.0
 40
72.5
  0
CIRCLE
  5
194
  8
LAYER1
 62
     5
 10
854.51484374999995
 20
-121.6377604167
 30
0.0
 40
62.5
  0
LINE
  5
195
  8
LAYER1
  6
BORDER
 62
     3
 10
854.51484374999995
 20
115.3622395833
 30
0.0
 11
854.51484374999995
 21
208.36223958330001
 31
0.0
  0
ARC
  5
196
  8
LAYER1
 62
     5
 10
922.51484374999995
 20
143.36223958330001
 30
0.0
 40
30.0
 50
0.0
 51
90.0
  0
LINE
  5
197
  8
┌▓È_1
 62
     5
 10
232.51484375000001
 20
-416.6377604166999
 30
0.0
 11
922.51484374999995
 21
-416.6377604166999
 31
0.0
  0
LINE
  5
198
  8
LAYER1
  6
BORDER
 62
     3
 10
854.51484374999995
 20
-161.63776041669999
 30
0.0
 11
854.51484374999995
 21
-278.63776041670002
 31
0.0
  0
LINE
  5
199
  8
LAYER1
  6
BORDER
 62
     3
 10
854.51484374999995
 20
35.362239583300003
 30
0.0
 11
854.51484374999995
 21
-81.637760416700004
 31
0.0
  0
LINE
  5
19A
  8
LAYER1
  6
BORDER
 62
     3
 10
814.51484374999995
 20
75.362239583299996
 30
0.0
 11
764.51484374999995
 21
75.362239583299996
 31
0.0
  0
LINE
  5
19B
  8
LAYER1
  6
BORDER
 62
     3
 10
894.51484374999995
 20
75.362239583299996
 30
0.0
 11
944.51484374999995
 21
75.362239583299996
 31
0.0
  0
LINE
  5
19C
  8
LAYER1
  6
BORDER
 62
     3
 10
894.51484374999995
 20
-121.6377604167
 30
0.0
 11
987.51484374999995
 21
-121.6377604167
 31
0.0
  0
LINE
  5
19D
  8
LAYER1
  6
BORDER
 62
     3
 10
894.51484374999995
 20
-318.63776041670002
 30
0.0
 11
944.51484374999995
 21
-318.63776041670002
 31
0.0
  0
ARC
  5
19E
  8
LAYER1
 62
     5
 10
922.51484374999995
 20
-386.6377604166999
 30
0.0
 40
30.0
 50
270.0
 51
0.0
  0
LINE
  5
19F
  8
┌▓È_1
 62
     5
 10
1205.7434974114999
 20
-752.0406011593999
 30
0.0
 11
1205.7434974114999
 21
-750.04060115940001
 31
0.0
  0
LINE
  5
1A0
  8
┌▓È_1
 62
     5
 10
1298.3011855804
 20
-761.24060115939994
 30
0.0
 11
1297.3625189136999
 21
-758.04060115940001
 31
0.0
  0
INSERT
  5
1A1
  8
0
  6
CONTINUOUS
  2
*U22
 10
0.0
 20
0.0
 30
0.0
  0
INSERT
  5
1A2
  8
0
  6
CONTINUOUS
  2
*U23
 10
0.0
 20
0.0
 30
0.0
  0
INSERT
  5
1A3
  8
0
  6
CONTINUOUS
  2
*U24
 10
0.0
 20
0.0
 30
0.0
  0
INSERT
  5
1A4
  8
0
  6
CONTINUOUS
  2
*U25
 10
0.0
 20
0.0
 30
0.0
  0
LINE
  5
1A5
  8
┌▓È_1
 10
1039.1009114583001
 20
-693.18129302699992
 30
0.0
 11
1279.1009114583001
 21
-693.18129302699992
 31
0.0
  0
LINE
  5
1A6
  8
┌▓È_1
 10
1359.1009114583001
 20
-693.18129302699992
 30
0.0
 11
1639.1009114583001
 21
-693.18129302699992
 31
0.0
  0
LINE
  5
1A7
  8
┌▓È_1
 10
1279.1009114583001
 20
-671.18129302699992
 30
0.0
 11
1359.1009114583001
 21
-671.18129302699992
 31
0.0
  0
INSERT
  5
1A8
  8
0
  6
CONTINUOUS
  2
*U26
 10
0.0
 20
0.0
 30
0.0
  0
LINE
  5
1A9
  8
┌▓È_1
 62
     5
 10
39.100911458299997
 20
-781.18129302699992
 30
0.0
 11
39.100911458299997
 21
338.81870697300002
 31
0.0
  0
LINE
  5
1AA
  8
┌▓È_1
 62
     5
 10
1311.6443695563
 20
-768.44060115939999
 30
0.0
 11
1321.2558522469999
 21
-768.44060115939999
 31
0.0
  0
LINE
  5
1AB
  8
┌▓È_1
 62
     5
 10
1195.7434974114999
 20
-744.0406011593999
 30
0.0
 11
1195.7434974114999
 21
-752.0406011593999
 31
0.0
  0
LINE
  5
1AC
  8
┌▓È_1
 62
     5
 10
1205.7434974114999
 20
-750.04060115940001
 30
0.0
 11
1211.7434974114999
 21
-744.0406011593999
 31
0.0
  0
LINE
  5
1AD
  8
┌▓È_1
 62
     5
 10
1211.7434974114999
 20
-744.0406011593999
 30
0.0
 11
1195.7434974114999
 21
-744.0406011593999
 31
0.0
  0
LINE
  5
1AE
  8
┌▓È_1
 62
     5
 10
1213.7434974114999
 20
-752.0406011593999
 30
0.0
 11
1205.7434974114999
 21
-752.0406011593999
 31
0.0
  0
LINE
  5
1AF
  8
┌▓È_1
 62
     5
 10
1285.2558522469999
 20
-750.84060115940008
 30
0.0
 11
1285.2558522469999
 21
-758.04060115940001
 31
0.0
  0
INSERT
  5
1B0
  8
0
  6
CONTINUOUS
  2
*U27
 10
0.0
 20
0.0
 30
0.0
  0
LINE
  5
1B1
  8
┌▓È_1
 10
1039.1009114583001
 20
-737.18129302699992
 30
0.0
 11
1639.1009114583001
 21
-737.18129302699992
 31
0.0
  0
LINE
  5
1B2
  8
┌▓È_1
 10
1199.1009114583001
 20
-649.18129302699992
 30
0.0
 11
1199.1009114583001
 21
-693.18129302699992
 31
0.0
  0
LINE
  5
1B3
  8
┌▓È_1
 10
1279.1009114583001
 20
-649.18129302699992
 30
0.0
 11
1279.1009114583001
 21
-737.18129302699992
 31
0.0
  0
LINE
  5
1B4
  8
┌▓È_1
 10
1359.1009114583001
 20
-649.18129302699992
 30
0.0
 11
1359.1009114583001
 21
-781.18129302699992
 31
0.0
  0
LINE
  5
1B5
  8
┌▓È_1
 10
1639.1009114583001
 20
-649.18129302699992
 30
0.0
 11
1039.1009114583001
 21
-649.18129302699992
 31
0.0
  0
LINE
  5
1B6
  8
┌▓È_1
 62
     5
 10
1223.7434974114999
 20
-760.0406011593999
 30
0.0
 11
1223.7434974114999
 21
-758.04060115940001
 31
0.0
  0
ARC
  5
1B7
  8
┌▓È_1
 62
     5
 10
1207.7434974114999
 20
-760.0406011593999
 30
0.0
 40
6.0
 50
270.0
 51
0.0
  0
LINE
  5
1B8
  8
┌▓È_1
 62
     5
 10
1639.1009114583001
 20
338.81870697300002
 30
0.0
 11
39.100911458299997
 21
338.81870697300002
 31
0.0
  0
LINE
  5
1B9
  8
┌▓È_1
 62
     5
 10
1039.1009114583001
 20
-781.18129302699992
 30
0.0
 11
39.100911458299997
 21
-781.18129302699992
 31
0.0
  0
ARC
  5
1BA
  8
┌▓È_1
 62
     5
 10
1250.3859216538999
 20
-750.04060115940001
 30
0.0
 40
22.0
 50
322.48761197969998
 51
0.0
  0
LINE
  5
1BB
  8
┌▓È_1
 62
     5
 10
1309.5724632397
 20
-761.24060115939994
 30
0.0
 11
1321.2558522469999
 21
-761.24060115939994
 31
0.0
  0
LINE
  5
1BC
  8
┌▓È_1
 62
     5
 10
1313.2558522469999
 20
-774.04060115940001
 30
0.0
 11
1311.6443695563
 21
-768.44060115939999
 31
0.0
  0
LINE
  5
1BD
  8
┌▓È_1
 62
     5
 10
1205.7434974114999
 20
-758.04060115940001
 30
0.0
 11
1213.7434974114999
 21
-758.04060115940001
 31
0.0
  0
LINE
  5
1BE
  8
┌▓È_1
 62
     5
 10
1240.3859216538999
 20
-772.04060115940001
 30
0.0
 11
1240.3859216538999
 21
-766.04060115940001
 31
0.0
  0
ARC
  5
1BF
  8
┌▓È_1
 62
     5
 10
1211.7434974114999
 20
-760.0406011593999
 30
0.0
 40
12.0
 50
270.0
 51
0.0
  0
LINE
  5
1C0
  8
┌▓È_1
 62
     5
 10
1639.1009114583001
 20
-781.18129302699992
 30
0.0
 11
1639.1009114583001
 21
-649.18129302699992
 31
0.0
  0
LINE
  5
1C1
  8
┌▓È_1
 62
     5
 10
1240.3859216538999
 20
-744.0406011593999
 30
0.0
 11
1240.3859216538999
 21
-751.24060115939994
 31
0.0
  0
LINE
  5
1C2
  8
┌▓È_1
 62
     5
 10
1229.7434974114999
 20
-744.0406011593999
 30
0.0
 11
1213.7434974114999
 21
-744.0406011593999
 31
0.0
  0
LINE
  5
1C3
  8
┌▓È_1
 62
     5
 10
1195.7434974114999
 20
-752.0406011593999
 30
0.0
 11
1191.1390821652999
 21
-752.0406011593999
 31
0.0
  0
LINE
  5
1C4
  8
┌▓È_1
 62
     5
 10
1293.2558522469999
 20
-744.0406011593999
 30
0.0
 11
1309.2558522469999
 21
-744.0406011593999
 31
0.0
  0
LINE
  5
1C5
  8
┌▓È_1
 62
     5
 10
1240.3859216538999
 20
-766.04060115940001
 30
0.0
 11
1245.1859216539001
 21
-766.04060115940001
 31
0.0
  0
LINE
  5
1C6
  8
┌▓È_1
 62
     5
 10
1240.3859216538999
 20
-766.04060115940001
 30
0.0
 11
1240.3859216538999
 21
-772.04060115940001
 31
0.0
  0
LINE
  5
1C7
  8
┌▓È_1
 62
     5
 10
1272.3859216538999
 20
-750.04060115940001
 30
0.0
 11
1276.3859216538999
 21
-744.0406011593999
 31
0.0
  0
ARC
  5
1C8
  8
┌▓È_1
 62
     5
 10
1245.1859216539001
 20
-750.84060115940008
 30
0.0
 40
15.199999999999999
 50
270.0
 51
298.08590481520002
  0
LINE
  5
1C9
  8
┌▓È_1
 62
     5
 10
1240.3859216538999
 20
-753.32904222939987
 30
0.0
 11
1256.3859216538999
 21
-753.32904222939987
 31
0.0
  0
LINE
  5
1CA
  8
┌▓È_1
 62
     5
 10
1258.5311716205999
 20
-758.11688477990003
 30
0.0
 11
1257.5687883953999
 21
-759.1798382221001
 31
0.0
  0
LINE
  5
1CB
  8
┌▓È_1
 62
     5
 10
1039.1009114583001
 20
-781.18129302699992
 30
0.0
 11
1639.1009114583001
 21
-781.18129302699992
 31
0.0
  0
LINE
  5
1CC
  8
┌▓È_1
 62
     5
 10
1213.7434974114999
 20
-744.0406011593999
 30
0.0
 11
1213.7434974114999
 21
-752.0406011593999
 31
0.0
  0
LINE
  5
1CD
  8
┌▓È_1
 62
     5
 10
1240.3859216538999
 20
-772.04060115940001
 30
0.0
 11
1250.3859216538999
 21
-772.04060115940001
 31
0.0
  0
LINE
  5
1CE
  8
┌▓È_1
 62
     5
 10
1308.6516159877999
 20
-758.04060115940001
 30
0.0
 11
1321.2558522469999
 21
-758.04060115940001
 31
0.0
  0
LINE
  5
1CF
  8
┌▓È_1
 62
     5
 10
1272.3859216538999
 20
-750.04060115940001
 30
0.0
 11
1276.3859216538999
 21
-744.0406011593999
 31
0.0
  0
LINE
  5
1D0
  8
┌▓È_1
 62
     5
 10
1267.8367990623001
 20
-763.43712599529999
 30
0.0
 11
1267.1243908230999
 21
-764.13463857210002
 31
0.0
  0
INSERT
  5
1D1
  8
0
  6
CONTINUOUS
  2
*U28
 10
0.0
 20
0.0
 30
0.0
  0
INSERT
  5
1D2
  8
0
  6
CONTINUOUS
  2
*U29
 10
0.0
 20
0.0
 30
0.0
  0
LINE
  5
1D3
  8
┌▓È_1
 62
     5
 10
1223.7434974114999
 20
-750.04060115940001
 30
0.0
 11
1229.7434974114999
 21
-744.0406011593999
 31
0.0
  0
LINE
  5
1D4
  8
┌▓È_1
 62
     5
 10
1195.7434974114999
 20
-764.04060115940001
 30
0.0
 11
1205.7434974114999
 21
-764.04060115940001
 31
0.0
  0
LINE
  5
1D5
  8
┌▓È_1
 62
     5
 10
1276.3859216538999
 20
-744.0406011593999
 30
0.0
 11
1240.3859216538999
 21
-744.0406011593999
 31
0.0
  0
LINE
  5
1D6
  8
┌▓È_1
 62
     5
 10
1306.5797096711999
 20
-750.84060115940008
 30
0.0
 11
1305.9941326702999
 21
-748.80568559759979
 31
0.0
  0
LINE
  5
1D7
  8
┌▓È_1
 10
1119.1009114583001
 20
-649.18129302699992
 30
0.0
 11
1119.1009114583001
 21
-693.18129302699992
 31
0.0
  0
LINE
  5
1D8
  8
┌▓È_1
 10
1039.1009114583001
 20
-649.18129302699992
 30
0.0
 11
1039.1009114583001
 21
-781.18129302699992
 31
0.0
  0
LINE
  5
1D9
  8
┌▓È_1
 10
1199.1009114583001
 20
-693.18129302699992
 30
0.0
 11
1199.1009114583001
 21
-737.18129302699992
 31
0.0
  0
LINE
  5
1DA
  8
┌▓È_1
 62
     5
 10
1306.5797096711999
 20
-750.84060115940008
 30
0.0
 11
1321.2558522469999
 21
-750.84060115940008
 31
0.0
  0
LINE
  5
1DB
  8
┌▓È_1
 62
     5
 10
1295.2505189137
 20
-750.84060115940008
 30
0.0
 11
1293.2558522469999
 21
-744.0406011593999
 31
0.0
  0
LINE
  5
1DC
  8
┌▓È_1
 62
     5
 10
1195.7434974114999
 20
-758.04060115940001
 30
0.0
 11
1195.7434974114999
 21
-764.04060115940001
 31
0.0
  0
LINE
  5
1DD
  8
┌▓È_1
 62
     5
 10
1305.9941326702999
 20
-748.80568559759979
 30
0.0
 11
1309.2558522469999
 21
-744.0406011593999
 31
0.0
  0
LINE
  5
1DE
  8
┌▓È_1
 62
     5
 10
1285.2558522469999
 20
-750.84060115940008
 30
0.0
 11
1295.2505189137
 21
-750.84060115940008
 31
0.0
  0
LINE
  5
1DF
  8
┌▓È_1
 62
     5
 10
1223.7434974114999
 20
-752.0406011593999
 30
0.0
 11
1223.7434974114999
 21
-750.04060115940001
 31
0.0
  0
LINE
  5
1E0
  8
┌▓È_1
 62
     5
 10
1229.7434974114999
 20
-752.0406011593999
 30
0.0
 11
1223.7434974114999
 21
-752.0406011593999
 31
0.0
  0
LINE
  5
1E1
  8
┌▓È_1
 62
     5
 10
1205.7434974114999
 20
-764.04060115940001
 30
0.0
 11
1205.7434974114999
 21
-758.04060115940001
 31
0.0
  0
LINE
  5
1E2
  8
┌▓È_1
 62
     5
 10
1285.2558522469999
 20
-761.24060115939994
 30
0.0
 11
1285.2558522469999
 21
-768.44060115939999
 31
0.0
  0
LINE
  5
1E3
  8
┌▓È_1
 62
     5
 10
1285.2558522469999
 20
-758.04060115940001
 30
0.0
 11
1297.3625189136999
 21
-758.04060115940001
 31
0.0
  0
LINE
  5
1E4
  8
┌▓È_1
 62
     5
 10
1321.2558522469999
 20
-750.84060115940008
 30
0.0
 11
1321.2558522469999
 21
-758.04060115940001
 31
0.0
  0
LINE
  5
1E5
  8
┌▓È_1
 62
     5
 10
1240.3859216538999
 20
-751.24060115939994
 30
0.0
 11
1260.3859216538999
 21
-751.24060115939994
 31
0.0
  0
LINE
  5
1E6
  8
┌▓È_1
 62
     5
 10
1207.7434974114999
 20
-766.04060115940001
 30
0.0
 11
1195.7434974114999
 21
-766.04060115940001
 31
0.0
  0
LINE
  5
1E7
  8
┌▓È_1
 62
     5
 10
1302.0558522470001
 20
-774.04060115940001
 30
0.0
 11
1300.4131855804001
 21
-768.44060115939999
 31
0.0
  0
LINE
  5
1E8
  8
┌▓È_1
 62
     5
 10
1309.5724632397
 20
-761.24060115939994
 30
0.0
 11
1308.6516159877999
 21
-758.04060115940001
 31
0.0
  0
LINE
  5
1E9
  8
┌▓È_1
 62
     5
 10
1639.1009114583001
 20
-649.18129302699992
 30
0.0
 11
1639.1009114583001
 21
338.81870697300002
 31
0.0
  0
INSERT
  5
1EA
  8
0
  6
CONTINUOUS
  2
*U30
 10
0.0
 20
0.0
 30
0.0
  0
INSERT
  5
1EB
  8
0
  6
CONTINUOUS
  2
*U31
 10
0.0
 20
0.0
 30
0.0
  0
INSERT
  5
1EC
  8
0
  6
CONTINUOUS
  2
*U32
 10
0.0
 20
0.0
 30
0.0
  0
INSERT
  5
1ED
  8
0
  6
CONTINUOUS
  2
*U33
 10
0.0
 20
0.0
 30
0.0
  0
LINE
  5
1EE
  8
┌▓È_1
 62
     5
 10
1285.2558522469999
 20
-761.24060115939994
 30
0.0
 11
1298.3011855804
 21
-761.24060115939994
 31
0.0
  0
LINE
  5
1EF
  8
┌▓È_1
 62
     5
 10
1191.1390821652999
 20
-758.04060115940001
 30
0.0
 11
1195.1390821652999
 21
-758.04060115940001
 31
0.0
  0
ARC
  5
1F0
  8
┌▓È_1
 62
     5
 10
1250.3859216538999
 20
-750.04060115940001
 30
0.0
 40
22.0
 50
270.0
 51
302.54495885400001
  0
LINE
  5
1F1
  8
┌▓È_1
 62
     5
 10
1223.7434974114999
 20
-758.04060115940001
 30
0.0
 11
1229.7434974114999
 21
-758.04060115940001
 31
0.0
  0
ARC
  5
1F2
  8
┌▓È_1
 62
     5
 10
1245.1859216539001
 20
-750.84060115940008
 30
0.0
 40
15.199999999999999
 50
331.39928138329998
 51
358.49204224580001
  0
LINE
  5
1F3
  8
┌▓È_1
 62
     5
 10
1195.7434974114999
 20
-766.04060115940001
 30
0.0
 11
1195.7434974114999
 21
-772.04060115940001
 31
0.0
  0
LINE
  5
1F4
  8
┌▓È_1
 62
     5
 10
1195.7434974114999
 20
-758.04060115940001
 30
0.0
 11
1195.1390821652999
 21
-758.04060115940001
 31
0.0
  0
LINE
  5
1F5
  8
┌▓È_1
 62
     5
 10
1276.3859216538999
 20
-766.04060115940001
 30
0.0
 11
1276.3859216538999
 21
-772.04060115940001
 31
0.0
  0
LINE
  5
1F6
  8
┌▓È_1
 62
     5
 10
1321.2558522469999
 20
-761.24060115939994
 30
0.0
 11
1321.2558522469999
 21
-768.44060115939999
 31
0.0
  0
INSERT
  5
1F7
  8
0
  6
CONTINUOUS
  2
*U34
 10
0.0
 20
0.0
 30
0.0
  0
INSERT
  5
1F8
  8
0
  6
CONTINUOUS
  2
*U35
 10
0.0
 20
0.0
 30
0.0
  0
INSERT
  5
1F9
  8
0
  6
CONTINUOUS
  2
*U36
 10
0.0
 20
0.0
 30
0.0
  0
INSERT
  5
1FA
  8
0
  6
CONTINUOUS
  2
*U37
 10
0.0
 20
0.0
 30
0.0
  0
INSERT
  5
1FB
  8
0
  6
CONTINUOUS
  2
*U38
 10
0.0
 20
0.0
 30
0.0
  0
INSERT
  5
1FC
  8
0
  6
CONTINUOUS
  2
*U39
 10
0.0
 20
0.0
 30
0.0
  0
LINE
  5
1FD
  8
┌▓È_1
 10
1049.1009114583001
 20
-715.18129302699992
 30
0.0
 11
1189.1009114583001
 21
-715.18129302699992
 31
0.0
  0
LINE
  5
1FE
  8
┌▓È_1
 10
1209.1009114583001
 20
-715.18129302699992
 30
0.0
 11
1269.1009114583001
 21
-715.18129302699992
 31
0.0
  0
LINE
  5
1FF
  8
┌▓È_1
 10
1209.1009114583001
 20
-671.18129302699992
 30
0.0
 11
1269.1009114583001
 21
-671.18129302699992
 31
0.0
  0
LINE
  5
200
  8
┌▓È_1
 10
1129.1009114583001
 20
-671.18129302699992
 30
0.0
 11
1189.1009114583001
 21
-671.18129302699992
 31
0.0
  0
LINE
  5
201
  8
┌▓È_1
 10
1049.1009114583001
 20
-671.18129302699992
 30
0.0
 11
1109.1009114583001
 21
-671.18129302699992
 31
0.0
  0
INSERT
  5
202
  8
0
  6
CONTINUOUS
  2
*U40
 10
0.0
 20
0.0
 30
0.0
  0
ENDSEC
  0
EOF
