  0
SECTION
  2
HEADER
  9
$ACADVER
  1
AC1009
  9
$INSBASE
 10
0.0
 20
0.0
 30
0.0
  9
$EXTMIN
 10
-960.91269531249986
 20
-714.61484374999986
 30
0.0
  9
$EXTMAX
 10
1039.0873046874999
 20
685.38515625000002
 30
0.0
  9
$LIMMIN
 10
0.0
 20
0.0
  9
$LIMMAX
 10
0.0
 20
0.0
  9
$ORTHOMODE
 70
     0
  9
$REGENMODE
 70
     1
  9
$FILLMODE
 70
     1
  9
$QTEXTMODE
 70
     0
  9
$MIRRTEXT
 70
     1
  9
$DRAGMODE
 70
     2
  9
$LTSCALE
 40
1.0
  9
$OSMODE
 70
    31
  9
$ATTMODE
 70
     1
  9
$TEXTSIZE
 40
0.0
  9
$TRACEWID
 40
0.05
  9
$TEXTSTYLE
  7
STANDARD
  9
$CLAYER
  8
0
  9
$CELTYPE
  6
CONTINUOUS
  9
$CECOLOR
 62
   256
  9
$DIMSCALE
 40
1.0
  9
$DIMASZ
 40
0.18
  9
$DIMEXO
 40
0.0625
  9
$DIMDLI
 40
0.38
  9
$DIMRND
 40
0.0
  9
$DIMDLE
 40
0.0
  9
$DIMEXE
 40
0.18
  9
$DIMTP
 40
0.0
  9
$DIMTM
 40
0.0
  9
$DIMTXT
 40
0.18
  9
$DIMCEN
 40
0.09
  9
$DIMTSZ
 40
0.0
  9
$DIMTOL
 70
     0
  9
$DIMLIM
 70
     0
  9
$DIMTIH
 70
     1
  9
$DIMTOH
 70
     1
  9
$DIMSE1
 70
     0
  9
$DIMSE2
 70
     0
  9
$DIMTAD
 70
     0
  9
$DIMZIN
 70
     0
  9
$DIMBLK
  1

  9
$DIMASO
 70
     1
  9
$DIMSHO
 70
     1
  9
$DIMPOST
  1

  9
$DIMAPOST
  1

  9
$DIMALT
 70
     0
  9
$DIMALTD
 70
     2
  9
$DIMALTF
 40
25.399999999999999
  9
$DIMLFAC
 40
1.0
  9
$DIMTOFL
 70
     0
  9
$DIMTVP
 40
0.0
  9
$DIMTIX
 70
     0
  9
$DIMSOXD
 70
     0
  9
$DIMSAH
 70
     0
  9
$DIMBLK1
  1

  9
$DIMBLK2
  1

  9
$DIMSTYLE
  2
STANDARD
  9
$DIMCLRD
 70
     0
  9
$DIMCLRE
 70
     0
  9
$DIMCLRT
 70
     0
  9
$DIMTFAC
 40
1.0
  9
$DIMGAP
 40
0.09
  9
$LUNITS
 70
     2
  9
$LUPREC
 70
     4
  9
$SKETCHINC
 40
0.1
  9
$FILLETRAD
 40
0.0
  9
$AUNITS
 70
     0
  9
$AUPREC
 70
     0
  9
$MENU
  1
acad
  9
$ELEVATION
 40
0.0
  9
$PELEVATION
 40
0.0
  9
$THICKNESS
 40
0.0
  9
$LIMCHECK
 70
     0
  9
$BLIPMODE
 70
     0
  9
$CHAMFERA
 40
0.0
  9
$CHAMFERB
 40
0.0
  9
$SKPOLY
 70
     0
  9
$TDCREATE
 40
2454860.5917229052
  9
$TDUPDATE
 40
2454860.600162569
  9
$TDINDWG
 40
0.0004781481
  9
$TDUSRTIMER
 40
0.0004770602
  9
$USRTIMER
 70
     1
  9
$ANGBASE
 50
0.0
  9
$ANGDIR
 70
     0
  9
$PDMODE
 70
     3
  9
$PDSIZE
 40
-1.0
  9
$PLINEWID
 40
0.0
  9
$COORDS
 70
     2
  9
$SPLFRAME
 70
     0
  9
$SPLINETYPE
 70
     6
  9
$SPLINESEGS
 70
     8
  9
$ATTDIA
 70
     0
  9
$ATTREQ
 70
     1
  9
$HANDLING
 70
     1
  9
$HANDSEED
  5
B38
  9
$SURFTAB1
 70
     6
  9
$SURFTAB2
 70
     6
  9
$SURFTYPE
 70
     6
  9
$SURFU
 70
     6
  9
$SURFV
 70
     6
  9
$UCSNAME
  2

  9
$UCSORG
 10
0.0
 20
0.0
 30
0.0
  9
$UCSXDIR
 10
1.0
 20
0.0
 30
0.0
  9
$UCSYDIR
 10
0.0
 20
1.0
 30
0.0
  9
$PUCSNAME
  2

  9
$PUCSORG
 10
0.0
 20
0.0
 30
0.0
  9
$PUCSXDIR
 10
1.0
 20
0.0
 30
0.0
  9
$PUCSYDIR
 10
0.0
 20
1.0
 30
0.0
  9
$USERI1
 70
     0
  9
$USERI2
 70
     0
  9
$USERI3
 70
     0
  9
$USERI4
 70
     0
  9
$USERI5
 70
     0
  9
$USERR1
 40
0.0
  9
$USERR2
 40
0.0
  9
$USERR3
 40
0.0
  9
$USERR4
 40
0.0
  9
$USERR5
 40
0.0
  9
$WORLDVIEW
 70
     1
  9
$SHADEDGE
 70
     3
  9
$SHADEDIF
 70
    70
  9
$TILEMODE
 70
     1
  9
$MAXACTVP
 70
    16
  9
$PLIMCHECK
 70
     0
  9
$PEXTMIN
 10
1.0000000000000000E+020
 20
1.0000000000000000E+020
 30
1.0000000000000000E+020
  9
$PEXTMAX
 10
-1.0000000000000000E+020
 20
-1.0000000000000000E+020
 30
-1.0000000000000000E+020
  9
$PLIMMIN
 10
0.0
 20
0.0
  9
$PLIMMAX
 10
12.0
 20
9.0
  9
$UNITMODE
 70
     0
  9
$VISRETAIN
 70
     0
  9
$PLINEGEN
 70
     1
  9
$PSLTSCALE
 70
     0
  0
ENDSEC
  0
SECTION
  2
TABLES
  0
TABLE
  2
VPORT
 70
     2
  0
VPORT
  2
*ACTIVE
 70
     0
 10
0.0
 20
0.0
 11
1.0
 21
1.0
 12
39.087304687500144
 22
-14.61484374999997
 13
0.0
 23
0.0
 14
1.0
 24
1.0
 15
0.0
 25
0.0
 16
0.0
 26
0.0
 36
1.0
 17
0.0
 27
0.0
 37
0.0
 40
1411.6182572614109
 41
1.6343490304709141
 42
50.0
 43
0.0
 44
0.0
 50
0.0
 51
0.0
 71
     0
 72
   100
 73
     1
 74
     1
 75
     0
 76
     0
 77
     0
 78
     0
  0
ENDTAB
  0
TABLE
  2
LTYPE
 70
    11
  0
LTYPE
  2
CONTINUOUS
 70
     0
  3
Solid line
 72
    65
 73
     0
 40
0.0
  0
LTYPE
  2
DOT
 70
     0
  3
. . . . . . . . 
 72
    65
 73
     2
 40
1.0
 49
0.0
 49
-1.0
  0
LTYPE
  2
DASHED
 70
     0
  3
___  ___  ___  ___  
 72
    65
 73
     2
 40
4.0
 49
3.0
 49
-1.0
  0
LTYPE
  2
HIDDEN
 70
     0
  3
__ __ __ __ 
 72
    65
 73
     2
 40
3.0
 49
2.0
 49
-1.0
  0
LTYPE
  2
STITCH
 70
     0
  3
_ _ _ _ 
 72
    65
 73
     2
 40
2.0
 49
1.0
 49
-1.0
  0
LTYPE
  2
CENTER
 70
     0
  3
______  __  ______  __  
 72
    65
 73
     4
 40
43.0
 49
40.0
 49
-1.0
 49
1.0
 49
-1.0
  0
LTYPE
  2
DASHDOT
 70
     0
  3
____ . ____ . 
 72
    65
 73
     4
 40
32.0
 49
30.0
 49
-1.0
 49
0.0
 49
-1.0
  0
LTYPE
  2
BORDER
 70
     0
  3
__ . __ . 
 72
    65
 73
     4
 40
22.0
 49
20.0
 49
-1.0
 49
0.0
 49
-1.0
  0
LTYPE
  2
CUTTING
 70
     0
  3
________   ___   ___   
 72
    65
 73
     6
 40
45.0
 49
40.0
 49
-1.0
 49
1.0
 49
-1.0
 49
1.0
 49
-1.0
  0
LTYPE
  2
PHANTOM
 70
     0
  3
______  __  __  
 72
    65
 73
     6
 40
35.0
 49
30.0
 49
-1.0
 49
1.0
 49
-1.0
 49
1.0
 49
-1.0
  0
LTYPE
  2
DIVIDE
 70
     0
  3
____ . . ____ . . 
 72
    65
 73
     6
 40
23.0
 49
20.0
 49
-1.0
 49
0.0
 49
-1.0
 49
0.0
 49
-1.0
  0
ENDTAB
  0
TABLE
  2
LAYER
 70
     3
  0
LAYER
  2
0
 70
     0
 62
     7
  6
CONTINUOUS
  0
LAYER
  2
┌▓È_1
 70
     0
 62
     7
  6
CONTINUOUS
  0
LAYER
  2
Éíû@É³
 70
     0
 62
     7
  6
CONTINUOUS
  0
ENDTAB
  0
TABLE
  2
STYLE
 70
     1
  0
STYLE
  2
STANDARD
 70
     0
 40
0.0
 41
1.0
 50
0.0
 71
     0
 42
0.0
  3
txt
  4
extfont
  0
ENDTAB
  0
TABLE
  2
VIEW
 70
     0
  0
ENDTAB
  0
TABLE
  2
UCS
 70
     0
  0
ENDTAB
  0
TABLE
  2
APPID
 70
     2
  0
APPID
  2
ACAD
 70
     0
  0
APPID
  2
DCO15
 70
     0
  0
ENDTAB
  0
TABLE
  2
DIMSTYLE
 70
     2
  0
DIMSTYLE
  2
STANDARD
 70
     0
  3

  4

  5

  6

  7

 40
1.0
 41
0.18
 42
0.0625
 43
0.38
 44
0.18
 45
0.0
 46
0.0
 47
0.0
 48
0.0
140
0.18
141
0.09
142
0.0
143
25.399999999999999
144
1.0
145
0.0
146
1.0
147
0.09
 71
     0
 72
     0
 73
     1
 74
     1
 75
     0
 76
     0
 77
     0
 78
     0
170
     0
171
     2
172
     0
173
     0
174
     0
175
     0
176
     0
177
     0
178
     0
  0
DIMSTYLE
  2
VELDIM0
 70
     0
  3

  4

  5

  6

  7

 40
1.0
 41
9.6592578887999991
 42
0.0625
 43
0.38
 44
5.0
 45
0.0
 46
25.0
 47
0.0
 48
0.0
140
17.9916661263
141
0.09
142
0.0
143
25.399999999999999
144
1.0
145
0.0
146
1.0
147
0.09
 71
     0
 72
     0
 73
     0
 74
     0
 75
     0
 76
     0
 77
     0
 78
     8
170
     0
171
     2
172
     0
173
     0
174
     0
175
     0
176
     0
177
     0
178
     0
  0
ENDTAB
  0
ENDSEC
  0
SECTION
  2
BLOCKS
  0
BLOCK
  8
0
  2
$MODEL_SPACE
 70
     0
 10
0.0
 20
0.0
 30
0.0
  3
$MODEL_SPACE
  1

  0
ENDBLK
  5
A59
  8
0
  0
BLOCK
 67
     1
  8
0
  2
$PAPER_SPACE
 70
     0
 10
0.0
 20
0.0
 30
0.0
  3
$PAPER_SPACE
  1

  0
ENDBLK
  5
A55
 67
     1
  8
0
  0
BLOCK
  8
0
  2
*D2
 70
     1
 10
0.0
 20
0.0
 30
0.0
  3
*D2
  1

  0
TEXT
  5
34
  8
0
 62
     0
 10
-391.12656202319999
 20
-153.19609384539999
 30
0.0
 40
17.9916661263
  1
800
  0
LINE
  5
35
  8
0
 62
     0
 10
-775.25156249999998
 20
-23.017187499999999
 30
0.0
 11
-775.25156249999998
 21
-166.37109375
 31
0.0
  0
LINE
  5
36
  8
0
 62
     0
 10
24.748437500000001
 20
-23.017187499999999
 30
0.0
 11
24.748437500000001
 21
-166.37109375
 31
0.0
  0
LINE
  5
37
  8
0
 62
     0
 10
-775.25156249999998
 20
-161.37109375
 30
0.0
 11
-348.79322996140002
 21
-161.37109375
 31
0.0
  0
LINE
  5
38
  8
0
 62
     0
 10
-775.25156249999998
 20
-161.37109375
 30
0.0
 11
-401.70989503859988
 21
-161.37109375
 31
0.0
  0
LINE
  5
39
  8
0
 62
     0
 10
24.748437500000001
 20
-161.37109375
 30
0.0
 11
-348.79322996140002
 21
-161.37109375
 31
0.0
  0
LINE
  5
3A
  8
0
 62
     0
 10
24.748437500000001
 20
-161.37109375
 30
0.0
 11
-401.70989503859988
 21
-161.37109375
 31
0.0
  0
LINE
  5
3B
  8
0
 62
     0
 10
24.748437500000001
 20
-161.37109375
 30
0.0
 11
-0.2515625
 21
-161.37109375
 31
0.0
  0
SOLID
  5
3C
  8
0
 62
     0
 10
24.748437500000001
 20
-161.37109375
 30
0.0
 11
15.089179611200001
 21
-163.95928430559999
 31
0.0
 12
15.089179611200001
 22
-158.78290319440001
 32
0.0
 13
17.503994083399999
 23
-161.37109375
 33
0.0
  0
LINE
  5
3D
  8
0
 62
     0
 10
-775.25156249999998
 20
-161.37109375
 30
0.0
 11
-750.25156249999998
 21
-161.37109375
 31
0.0
  0
SOLID
  5
3E
  8
0
 62
     0
 10
-775.25156249999998
 20
-161.37109375
 30
0.0
 11
-765.59230461120001
 21
-158.78290319440001
 31
0.0
 12
-765.59230461120001
 22
-163.95928430559999
 32
0.0
 13
-768.00711908339986
 23
-161.37109375
 33
0.0
  0
ENDBLK
  5
3F
  8
0
  0
BLOCK
  8
0
  2
*D3
 70
     1
 10
0.0
 20
0.0
 30
0.0
  3
*D3
  1

  0
TEXT
  5
47
  8
0
 62
     0
 10
28.387240219100001
 20
-100.9078125954
 30
0.0
 40
17.9916661263
  1
14.5
  0
LINE
  5
48
  8
0
 62
     0
 10
10.2484375
 20
-26.517187499999999
 30
0.0
 11
10.2484375
 21
-114.0828125
 31
0.0
  0
LINE
  5
49
  8
0
 62
     0
 10
24.748437500000001
 20
-31.017187499999999
 30
0.0
 11
24.748437500000001
 21
-114.0828125
 31
0.0
  0
LINE
  5
4A
  8
0
 62
     0
 10
10.2484375
 20
-109.0828125
 30
0.0
 11
81.303905296300002
 21
-109.0828125
 31
0.0
  0
LINE
  5
4B
  8
0
 62
     0
 10
10.2484375
 20
-109.0828125
 30
0.0
 11
17.8039072037
 21
-109.0828125
 31
0.0
  0
LINE
  5
4C
  8
0
 62
     0
 10
24.748437500000001
 20
-109.0828125
 30
0.0
 11
81.303905296300002
 21
-109.0828125
 31
0.0
  0
LINE
  5
4D
  8
0
 62
     0
 10
24.748437500000001
 20
-109.0828125
 30
0.0
 11
17.8039072037
 21
-109.0828125
 31
0.0
  0
LINE
  5
4E
  8
0
 62
     0
 10
24.748437500000001
 20
-109.0828125
 30
0.0
 11
49.748437500000001
 21
-109.0828125
 31
0.0
  0
SOLID
  5
4F
  8
0
 62
     0
 10
24.748437500000001
 20
-109.0828125
 30
0.0
 11
34.407695388800001
 21
-106.4946219444
 31
0.0
 12
34.407695388800001
 22
-111.6710030556
 32
0.0
 13
31.992880916600001
 23
-109.0828125
 33
0.0
  0
LINE
  5
50
  8
0
 62
     0
 10
10.2484375
 20
-109.0828125
 30
0.0
 11
-14.7515625
 21
-109.0828125
 31
0.0
  0
SOLID
  5
51
  8
0
 62
     0
 10
10.2484375
 20
-109.0828125
 30
0.0
 11
0.5891796112
 21
-111.6710030556
 31
0.0
 12
0.5891796112
 22
-106.4946219444
 32
0.0
 13
3.0039940833999981
 23
-109.0828125
 33
0.0
  0
ENDBLK
  5
52
  8
0
  0
BLOCK
  8
0
  2
*D4
 70
     1
 10
0.0
 20
0.0
 30
0.0
  3
*D4
  1

  0
TEXT
  5
56
  8
0
 62
     0
 10
-391.12656202319999
 20
-100.9078125954
 30
0.0
 40
17.9916661263
  1
771
  0
LINE
  5
57
  8
0
 62
     0
 10
-760.75156249999975
 20
-26.517187499999999
 30
0.0
 11
-760.75156249999975
 21
-114.0828125
 31
0.0
  0
LINE
  5
58
  8
0
 62
     0
 10
10.2484375
 20
-26.517187499999999
 30
0.0
 11
10.2484375
 21
-114.0828125
 31
0.0
  0
LINE
  5
59
  8
0
 62
     0
 10
-760.75156249999975
 20
-109.0828125
 30
0.0
 11
-348.79322996140002
 21
-109.0828125
 31
0.0
  0
LINE
  5
5A
  8
0
 62
     0
 10
-760.75156249999975
 20
-109.0828125
 30
0.0
 11
-401.70989503859988
 21
-109.0828125
 31
0.0
  0
LINE
  5
5B
  8
0
 62
     0
 10
10.2484375
 20
-109.0828125
 30
0.0
 11
-348.79322996140002
 21
-109.0828125
 31
0.0
  0
LINE
  5
5C
  8
0
 62
     0
 10
10.2484375
 20
-109.0828125
 30
0.0
 11
-401.70989503859988
 21
-109.0828125
 31
0.0
  0
LINE
  5
5D
  8
0
 62
     0
 10
10.2484375
 20
-109.0828125
 30
0.0
 11
-14.7515625
 21
-109.0828125
 31
0.0
  0
SOLID
  5
5E
  8
0
 62
     0
 10
10.2484375
 20
-109.0828125
 30
0.0
 11
0.5891796112
 21
-111.6710030556
 31
0.0
 12
0.5891796112
 22
-106.4946219444
 32
0.0
 13
3.0039940833999981
 23
-109.0828125
 33
0.0
  0
LINE
  5
5F
  8
0
 62
     0
 10
-760.75156249999975
 20
-109.0828125
 30
0.0
 11
-735.75156249999975
 21
-109.0828125
 31
0.0
  0
SOLID
  5
60
  8
0
 62
     0
 10
-760.75156249999975
 20
-109.0828125
 30
0.0
 11
-751.09230461120001
 21
-106.4946219444
 31
0.0
 12
-751.09230461120001
 22
-111.6710030556
 32
0.0
 13
-753.50711908339974
 23
-109.0828125
 33
0.0
  0
ENDBLK
  5
61
  8
0
  0
BLOCK
  8
0
  2
*D5
 70
     1
 10
0.0
 20
0.0
 30
0.0
  3
*D5
  1

  0
TEXT
  5
65
  8
0
 62
     0
 10
-825.09244728090005
 20
-100.9078125954
 30
0.0
 40
17.9916661263
  1
14.5
  0
LINE
  5
66
  8
0
 62
     0
 10
-775.25156249999998
 20
-31.017187499999999
 30
0.0
 11
-775.25156249999998
 21
-114.0828125
 31
0.0
  0
LINE
  5
67
  8
0
 62
     0
 10
-760.75156249999975
 20
-26.517187499999999
 30
0.0
 11
-760.75156249999975
 21
-114.0828125
 31
0.0
  0
LINE
  5
68
  8
0
 62
     0
 10
-775.25156249999998
 20
-109.0828125
 30
0.0
 11
-772.1757822036999
 21
-109.0828125
 31
0.0
  0
LINE
  5
69
  8
0
 62
     0
 10
-775.25156249999998
 20
-109.0828125
 30
0.0
 11
-835.67578029629999
 21
-109.0828125
 31
0.0
  0
LINE
  5
6A
  8
0
 62
     0
 10
-760.75156249999975
 20
-109.0828125
 30
0.0
 11
-772.1757822036999
 21
-109.0828125
 31
0.0
  0
LINE
  5
6B
  8
0
 62
     0
 10
-760.75156249999975
 20
-109.0828125
 30
0.0
 11
-835.67578029629999
 21
-109.0828125
 31
0.0
  0
LINE
  5
6C
  8
0
 62
     0
 10
-760.75156249999975
 20
-109.0828125
 30
0.0
 11
-735.75156249999975
 21
-109.0828125
 31
0.0
  0
SOLID
  5
6D
  8
0
 62
     0
 10
-760.75156249999975
 20
-109.0828125
 30
0.0
 11
-751.09230461120001
 21
-106.4946219444
 31
0.0
 12
-751.09230461120001
 22
-111.6710030556
 32
0.0
 13
-753.50711908339974
 23
-109.0828125
 33
0.0
  0
LINE
  5
6E
  8
0
 62
     0
 10
-775.25156249999998
 20
-109.0828125
 30
0.0
 11
-800.25156249999986
 21
-109.0828125
 31
0.0
  0
SOLID
  5
6F
  8
0
 62
     0
 10
-775.25156249999998
 20
-109.0828125
 30
0.0
 11
-784.91082038879995
 21
-111.6710030556
 31
0.0
 12
-784.91082038879995
 22
-106.4946219444
 32
0.0
 13
-782.49600591659998
 23
-109.0828125
 33
0.0
  0
ENDBLK
  5
70
  8
0
  0
BLOCK
  8
0
  2
*D6
 70
     1
 10
0.0
 20
0.0
 30
0.0
  3
*D6
  1

  0
TEXT
  5
74
  8
0
 62
     0
 10
-849.20859365460012
 20
-44.933853530900002
 30
0.0
 40
17.9916661263
  1
14.5
 50
90.0
  0
LINE
  5
75
  8
0
 62
     0
 10
-770.75156249999998
 20
-16.517187499999999
 30
0.0
 11
-846.03359375000002
 21
-16.517187499999999
 31
0.0
  0
LINE
  5
76
  8
0
 62
     0
 10
-775.25156249999998
 20
-31.017187499999999
 30
0.0
 11
-846.03359375000002
 21
-31.017187499999999
 31
0.0
  0
LINE
  5
77
  8
0
 62
     0
 10
-841.03359375000014
 20
-16.517187499999999
 30
0.0
 11
-841.03359375000014
 21
-16.517187499999999
 31
0.0
  0
LINE
  5
78
  8
0
 62
     0
 10
-841.03359375000014
 20
-16.517187499999999
 30
0.0
 11
-841.03359375000014
 21
-31.017187499999999
 31
0.0
  0
LINE
  5
79
  8
0
 62
     0
 10
-841.03359375000014
 20
-31.017187499999999
 30
0.0
 11
-841.03359375000014
 21
-16.517187499999999
 31
0.0
  0
LINE
  5
7A
  8
0
 62
     0
 10
-841.03359375000014
 20
-31.017187499999999
 30
0.0
 11
-841.03359375000014
 21
-31.017187499999999
 31
0.0
  0
LINE
  5
7B
  8
0
 62
     0
 10
-841.03359375000014
 20
-31.017187499999999
 30
0.0
 11
-841.03359375000014
 21
-56.017187499999991
 31
0.0
  0
SOLID
  5
7C
  8
0
 62
     0
 10
-841.03359375000014
 20
-31.017187499999999
 30
0.0
 11
-838.44540319439989
 21
-40.676445388799984
 31
0.0
 12
-843.6217843055997
 22
-40.676445388799984
 32
0.0
 13
-841.03359375000014
 23
-38.261630916599998
 33
0.0
  0
LINE
  5
7D
  8
0
 62
     0
 10
-841.03359375000014
 20
-16.517187499999999
 30
0.0
 11
-841.03359375000014
 21
8.4828124999999979
 31
0.0
  0
SOLID
  5
7E
  8
0
 62
     0
 10
-841.03359375000014
 20
-16.517187499999999
 30
0.0
 11
-843.6217843055997
 21
-6.8579296112000003
 31
0.0
 12
-838.44540319439989
 22
-6.8579296112000003
 32
0.0
 13
-841.03359375000014
 23
-9.272744083400001
 33
0.0
  0
ENDBLK
  5
7F
  8
0
  0
BLOCK
  8
0
  2
*D7
 70
     1
 10
0.0
 20
0.0
 30
0.0
  3
*D7
  1

  0
TEXT
  5
83
  8
0
 62
     0
 10
-849.20859365460012
 20
273.10781297680001
 30
0.0
 40
17.9916661263
  1
611
 50
90.0
  0
LINE
  5
84
  8
0
 62
     0
 10
-770.75156249999998
 20
594.4828124999998
 30
0.0
 11
-846.03359375000002
 21
594.4828124999998
 31
0.0
  0
LINE
  5
85
  8
0
 62
     0
 10
-770.75156249999998
 20
-16.517187499999999
 30
0.0
 11
-846.03359375000002
 21
-16.517187499999999
 31
0.0
  0
LINE
  5
86
  8
0
 62
     0
 10
-841.03359375000014
 20
594.4828124999998
 30
0.0
 11
-841.03359375000014
 21
315.44114503859998
 31
0.0
  0
LINE
  5
87
  8
0
 62
     0
 10
-841.03359375000014
 20
594.4828124999998
 30
0.0
 11
-841.03359375000014
 21
262.5244799614
 31
0.0
  0
LINE
  5
88
  8
0
 62
     0
 10
-841.03359375000014
 20
-16.517187499999999
 30
0.0
 11
-841.03359375000014
 21
315.44114503859998
 31
0.0
  0
LINE
  5
89
  8
0
 62
     0
 10
-841.03359375000014
 20
-16.517187499999999
 30
0.0
 11
-841.03359375000014
 21
262.5244799614
 31
0.0
  0
LINE
  5
8A
  8
0
 62
     0
 10
-841.03359375000014
 20
-16.517187499999999
 30
0.0
 11
-841.03359375000014
 21
8.4828124999999979
 31
0.0
  0
SOLID
  5
8B
  8
0
 62
     0
 10
-841.03359375000014
 20
-16.517187499999999
 30
0.0
 11
-843.6217843055997
 21
-6.8579296112000003
 31
0.0
 12
-838.44540319439989
 22
-6.8579296112000003
 32
0.0
 13
-841.03359375000014
 23
-9.272744083400001
 33
0.0
  0
LINE
  5
8C
  8
0
 62
     0
 10
-841.03359375000014
 20
594.4828124999998
 30
0.0
 11
-841.03359375000014
 21
569.4828124999998
 31
0.0
  0
SOLID
  5
8D
  8
0
 62
     0
 10
-841.03359375000014
 20
594.4828124999998
 30
0.0
 11
-838.44540319439989
 21
584.82355461120005
 31
0.0
 12
-843.6217843055997
 22
584.82355461120005
 32
0.0
 13
-841.03359375000014
 23
587.2383690833999
 33
0.0
  0
ENDBLK
  5
8E
  8
0
  0
BLOCK
  8
0
  2
*D8
 70
     1
 10
0.0
 20
0.0
 30
0.0
  3
*D8
  1

  0
TEXT
  5
92
  8
0
 62
     0
 10
-849.20859365460012
 20
580.56614646909998
 30
0.0
 40
17.9916661263
  1
14.5
 50
90.0
  0
LINE
  5
93
  8
0
 62
     0
 10
-775.25156249999998
 20
608.98281250000002
 30
0.0
 11
-846.03359375000002
 21
608.98281250000002
 31
0.0
  0
LINE
  5
94
  8
0
 62
     0
 10
-770.75156249999998
 20
594.4828124999998
 30
0.0
 11
-846.03359375000002
 21
594.4828124999998
 31
0.0
  0
LINE
  5
95
  8
0
 62
     0
 10
-841.03359375000014
 20
608.98281250000002
 30
0.0
 11
-841.03359375000014
 21
608.98281250000002
 31
0.0
  0
LINE
  5
96
  8
0
 62
     0
 10
-841.03359375000014
 20
608.98281250000002
 30
0.0
 11
-841.03359375000014
 21
594.4828124999998
 31
0.0
  0
LINE
  5
97
  8
0
 62
     0
 10
-841.03359375000014
 20
594.4828124999998
 30
0.0
 11
-841.03359375000014
 21
608.98281250000002
 31
0.0
  0
LINE
  5
98
  8
0
 62
     0
 10
-841.03359375000014
 20
594.4828124999998
 30
0.0
 11
-841.03359375000014
 21
594.4828124999998
 31
0.0
  0
LINE
  5
99
  8
0
 62
     0
 10
-841.03359375000014
 20
594.4828124999998
 30
0.0
 11
-841.03359375000014
 21
569.4828124999998
 31
0.0
  0
SOLID
  5
9A
  8
0
 62
     0
 10
-841.03359375000014
 20
594.4828124999998
 30
0.0
 11
-838.44540319439989
 21
584.82355461120005
 31
0.0
 12
-843.6217843055997
 22
584.82355461120005
 32
0.0
 13
-841.03359375000014
 23
587.2383690833999
 33
0.0
  0
LINE
  5
9B
  8
0
 62
     0
 10
-841.03359375000014
 20
608.98281250000002
 30
0.0
 11
-841.03359375000014
 21
633.98281250000002
 31
0.0
  0
SOLID
  5
9C
  8
0
 62
     0
 10
-841.03359375000014
 20
608.98281250000002
 30
0.0
 11
-843.6217843055997
 21
618.64207038879999
 31
0.0
 12
-838.44540319439989
 22
618.64207038879999
 32
0.0
 13
-841.03359375000014
 23
616.22725591660003
 33
0.0
  0
ENDBLK
  5
9D
  8
0
  0
BLOCK
  8
0
  2
CLUMP0
 70
     0
 10
0.0
 20
0.0
 30
0.0
  3
CLUMP0
  1

  0
INSERT
  5
A3
  8
┌▓È_1
  2
CLUMP1
 10
0.0
 20
0.0
 30
0.0
  0
LINE
  5
1A1
  8
┌▓È_1
  6
BORDER
 62
     3
 10
-98.251562500000006
 20
176.98281249999999
 30
0.0
 11
-98.251562500000006
 21
6.9828124999999979
 31
0.0
  0
ENDBLK
  5
1A2
  8
0
  0
BLOCK
  8
0
  2
CLUMP1
 70
     0
 10
0.0
 20
0.0
 30
0.0
  3
CLUMP1
  1

  0
LINE
  5
A5
  8
┌▓È_1
 62
     5
 10
-72.544898378599981
 20
73.98281249999998
 30
0.0
 11
-61.8361309617
 21
66.484452829700004
 31
0.0
  0
LINE
  5
A6
  8
┌▓È_1
 62
     5
 10
-82.251562500000006
 20
75.98281249999998
 30
0.0
 11
-66.817106882000004
 21
60.548356882
 31
0.0
  0
ARC
  5
A7
  8
┌▓È_1
 62
     5
 10
-98.251562500000006
 20
91.982812499999994
 30
0.0
 40
21.0
 50
307.60525126509998
 51
310.36759354420002
  0
ARC
  5
A8
  8
┌▓È_1
 62
     5
 10
-68.231320444399998
 20
59.1341433196
 30
0.0
 40
2.0
 50
312.42404107229999
 51
45.0
  0
ARC
  5
A9
  8
┌▓È_1
 62
     5
 10
-98.251562500000006
 20
91.982812499999994
 30
0.0
 40
46.5
 50
307.57595892770001
 51
312.42404107229999
  0
LINE
  5
AA
  8
┌▓È_1
 62
     5
 10
-85.645923468700005
 20
73.980094243799982
 30
0.0
 11
-72.753202829700001
 21
55.56738096170001
 31
0.0
  0
ARC
  5
AB
  8
┌▓È_1
 62
     5
 10
-71.114898741099992
 20
56.714533834399987
 30
0.0
 40
2.0
 50
215.0
 51
307.57595892770001
  0
ARC
  5
AC
  8
┌▓È_1
 62
     5
 10
-84.826771424399993
 20
74.553670680099998
 30
0.0
 40
1.0
 50
127.60525126509999
 51
215.0
  0
ARC
  5
AD
  8
┌▓È_1
 62
     5
 10
-58.806856025000002
 20
71.382687959099997
 30
0.0
 40
2.0
 50
332.42404107229999
 51
65.0
  0
ARC
  5
AE
  8
┌▓È_1
 62
     5
 10
-98.251562500000006
 20
91.982812499999994
 30
0.0
 40
46.5
 50
327.57595892770013
 51
332.42404107229999
  0
LINE
  5
AF
  8
┌▓È_1
 62
     5
 10
-104.25156250000001
 20
39.625482545200001
 30
0.0
 11
-104.25156250000001
 21
39.323530317299998
 31
0.0
  0
LINE
  5
B0
  8
┌▓È_1
 62
     5
 10
-150.60889245480001
 20
85.982812499999966
 30
0.0
 11
-150.9108446827
 21
85.982812499999966
 31
0.0
  0
LINE
  5
B1
  8
┌▓È_1
 62
     5
 10
-59.650437930800003
 20
109.98281249999999
 30
0.0
 11
-57.961619501500003
 21
110.7703214668
 31
0.0
  0
LINE
  5
B2
  8
┌▓È_1
 62
     5
 10
-72.544898378599981
 20
109.98281249999999
 30
0.0
 11
-61.8361309617
 21
117.4811721703
 31
0.0
  0
LINE
  5
B3
  8
┌▓È_1
 62
     5
 10
-75.401194392099981
 20
107.98281249999999
 30
0.0
 11
-74.751562500000006
 21
108.4376896479
 31
0.0
  0
LINE
  5
B4
  8
┌▓È_1
 62
     5
 10
-82.251562500000006
 20
107.98281249999999
 30
0.0
 11
-66.817106882000004
 21
123.417268118
 31
0.0
  0
ARC
  5
B5
  8
┌▓È_1
 62
     5
 10
-60.688978089000003
 20
115.8428680817
 30
0.0
 40
2.0
 50
32.4240410723
 51
125.0
  0
ARC
  5
B6
  8
┌▓È_1
 62
     5
 10
-98.251562500000006
 20
91.982812499999994
 30
0.0
 40
46.5
 50
27.5759589277
 51
32.4240410723
  0
ARC
  5
B7
  8
┌▓È_1
 62
     5
 10
-58.806856025000002
 20
112.58293704090001
 30
0.0
 40
2.0
 50
295.0
 51
27.5759589277
  0
LINE
  5
B8
  8
┌▓È_1
 62
     5
 10
-85.645923468700005
 20
109.98553075620001
 30
0.0
 11
-72.753202829700001
 21
128.39824403829999
 31
0.0
  0
LINE
  5
B9
  8
┌▓È_1
  6
BORDER
 62
     3
 10
-183.25156250000001
 20
91.982812499999994
 30
0.0
 11
-13.2515625
 21
91.982812499999994
 31
0.0
  0
ARC
  5
BA
  8
┌▓È_1
 62
     5
 10
-98.251562500000006
 20
91.982812499999994
 30
0.0
 40
53.0
 50
340.62996175450002
 51
19.370038245500002
  0
ARC
  5
BB
  8
┌▓È_1
 62
     5
 10
-98.251562500000006
 20
91.982812499999994
 30
0.0
 40
53.0
 50
21.587674387199989
 51
338.41232561279998
  0
ARC
  5
BC
  8
┌▓È_1
 62
     5
 10
-98.251562500000006
 20
91.982812499999994
 30
0.0
 40
52.700000000000003
 50
341.58015084250002
 51
18.4198491575
  0
ARC
  5
BD
  8
┌▓È_1
 62
     5
 10
-98.251562500000006
 20
91.982812499999994
 30
0.0
 40
52.700000000000003
 50
21.716787545599999
 51
338.28321245439997
  0
ARC
  5
BE
  8
┌▓È_1
 62
     5
 10
-98.251562500000006
 20
91.982812499999994
 30
0.0
 40
19.0
 50
57.363102496400003
 51
302.63689750359998
  0
INSERT
  5
C0
  8
┌▓È_1
 62
     5
  2
CLUMP2
 10
0.0
 20
0.0
 30
0.0
  0
ARC
  5
CB
  8
┌▓È_1
 62
     5
 10
-123.25156250000001
 20
90.799415749400012
 30
0.0
 40
1.0
 50
275.0
 51
0.0
  0
LINE
  5
CC
  8
┌▓È_1
  6
BORDER
 62
     3
 10
-98.251562500000006
 20
31.982812500000001
 30
0.0
 11
-98.251562500000006
 21
151.98281249999999
 31
0.0
  0
LINE
  5
CD
  8
┌▓È_1
  6
BORDER
 62
     3
 10
-98.251562500000006
 20
151.98281249999999
 30
0.0
 11
-98.251562500000006
 21
31.982812500000001
 31
0.0
  0
INSERT
  5
CF
  8
┌▓È_1
  6
STITCH
 62
     5
  2
CLUMP3
 10
0.0
 20
0.0
 30
0.0
  0
LINE
  5
ED
  8
┌▓È_1
  6
BORDER
 62
     3
 10
-98.251562500000006
 20
171.07462565099999
 30
0.0
 11
-98.251562500000006
 21
12.890999348999999
 31
0.0
  0
CIRCLE
  5
EE
  8
┌▓È_1
 62
     5
 10
-98.251562500000006
 20
91.982812499999994
 30
0.0
 40
71.0
  0
LINE
  5
EF
  8
┌▓È_1
 62
     5
 10
-59.650437930800003
 20
73.98281249999998
 30
0.0
 11
-57.961619501500003
 21
73.19530353319999
 31
0.0
  0
LINE
  5
F0
  8
┌▓È_1
 62
     5
 10
-75.401194392099981
 20
75.98281249999998
 30
0.0
 11
-74.751562500000006
 21
75.527935352100002
 31
0.0
  0
INSERT
  5
F2
  8
┌▓È_1
 62
     5
  2
CLUMP4
 10
0.0
 20
0.0
 30
0.0
  0
ARC
  5
FD
  8
┌▓È_1
 62
     5
 10
-98.251562500000006
 20
91.982812499999994
 30
0.0
 40
39.0
 50
135.0
 51
145.0
  0
ARC
  5
FE
  8
┌▓È_1
 62
     5
 10
-98.251562500000006
 20
91.982812499999994
 30
0.0
 40
39.0
 50
75.0
 51
85.0
  0
INSERT
  5
100
  8
┌▓È_1
 62
     5
  2
CLUMP5
 10
0.0
 20
0.0
 30
0.0
  0
LINE
  5
10B
  8
┌▓È_1
 62
     5
 10
-122.25156250000001
 20
90.799415749400012
 30
0.0
 11
-122.25156250000001
 21
93.166209250599962
 31
0.0
  0
INSERT
  5
10D
  8
┌▓È_1
 62
     5
  2
CLUMP6
 10
0.0
 20
0.0
 30
0.0
  0
INSERT
  5
119
  8
┌▓È_1
 62
     5
  2
CLUMP7
 10
0.0
 20
0.0
 30
0.0
  0
ARC
  5
124
  8
┌▓È_1
 62
     5
 10
-98.251562500000006
 20
91.982812499999994
 30
0.0
 40
39.0
 50
155.0
 51
165.0
  0
ARC
  5
125
  8
┌▓È_1
 62
     5
 10
-98.251562500000006
 20
91.982812499999994
 30
0.0
 40
39.0
 50
115.0
 51
125.0
  0
ARC
  5
126
  8
┌▓È_1
 62
     5
 10
-98.251562500000006
 20
91.982812499999994
 30
0.0
 40
39.0
 50
95.0
 51
105.0
  0
ARC
  5
127
  8
┌▓È_1
 62
     5
 10
-60.688978089000003
 20
68.122756918299999
 30
0.0
 40
2.0
 50
235.0
 51
327.57595892770013
  0
ARC
  5
128
  8
┌▓È_1
 62
     5
 10
-98.251562500000006
 20
91.982812499999994
 30
0.0
 40
39.0
 50
215.0
 51
225.0
  0
ARC
  5
129
  8
┌▓È_1
 62
     5
 10
-98.251562500000006
 20
91.982812499999994
 30
0.0
 40
39.0
 50
275.0
 51
285.0
  0
ARC
  5
12A
  8
┌▓È_1
 62
     5
 10
-98.251562500000006
 20
91.982812499999994
 30
0.0
 40
39.0
 50
295.0
 51
305.0
  0
ARC
  5
12B
  8
┌▓È_1
 62
     5
 10
-98.251562500000006
 20
91.982812499999994
 30
0.0
 40
39.0
 50
315.0
 51
325.0
  0
ARC
  5
12C
  8
┌▓È_1
 62
     5
 10
-98.251562500000006
 20
91.982812499999994
 30
0.0
 40
39.0
 50
235.0
 51
245.0
  0
ARC
  5
12D
  8
┌▓È_1
 62
     5
 10
-98.251562500000006
 20
91.982812499999994
 30
0.0
 40
39.0
 50
255.0
 51
265.0
  0
INSERT
  5
12F
  8
┌▓È_1
 62
     5
  2
CLUMP8
 10
0.0
 20
0.0
 30
0.0
  0
INSERT
  5
13B
  8
┌▓È_1
 62
     5
  2
CLUMP9
 10
0.0
 20
0.0
 30
0.0
  0
INSERT
  5
147
  8
┌▓È_1
 62
     5
  2
CLUMP10
 10
0.0
 20
0.0
 30
0.0
  0
ARC
  5
152
  8
┌▓È_1
 62
     5
 10
-98.251562500000006
 20
91.982812499999994
 30
0.0
 40
39.0
 50
195.0
 51
205.0
  0
INSERT
  5
154
  8
┌▓È_1
 62
     5
  2
CLUMP11
 10
0.0
 20
0.0
 30
0.0
  0
INSERT
  5
160
  8
┌▓È_1
 62
     5
  2
CLUMP12
 10
0.0
 20
0.0
 30
0.0
  0
LINE
  5
16B
  8
┌▓È_1
 62
     5
 10
-45.894232545199998
 20
85.982812499999966
 30
0.0
 11
-45.592280317300002
 21
85.982812499999966
 31
0.0
  0
LINE
  5
16C
  8
┌▓È_1
 62
     5
 10
-92.251562500000006
 20
39.625482545200001
 30
0.0
 11
-92.251562500000006
 21
39.323530317299998
 31
0.0
  0
INSERT
  5
16D
  8
0
  6
CONTINUOUS
  2
*U22
 10
0.0
 20
0.0
 30
0.0
  0
INSERT
  5
16E
  8
0
  6
CONTINUOUS
  2
*U23
 10
0.0
 20
0.0
 30
0.0
  0
INSERT
  5
16F
  8
0
  6
CONTINUOUS
  2
*U24
 10
0.0
 20
0.0
 30
0.0
  0
INSERT
  5
170
  8
0
  6
CONTINUOUS
  2
*U25
 10
0.0
 20
0.0
 30
0.0
  0
LINE
  5
171
  8
┌▓È_1
  6
BORDER
 62
     3
 10
-158.25156250000001
 20
91.982812499999994
 30
0.0
 11
-38.251562499999999
 21
91.982812499999994
 31
0.0
  0
LINE
  5
172
  8
┌▓È_1
  6
BORDER
 62
     3
 10
-158.25156250000001
 20
91.982812499999994
 30
0.0
 11
-38.251562499999999
 21
91.982812499999994
 31
0.0
  0
LINE
  5
173
  8
┌▓È_1
 62
     5
 10
-104.25156250000001
 20
144.3401424548
 30
0.0
 11
-104.25156250000001
 21
144.64209468269999
 31
0.0
  0
LINE
  5
174
  8
┌▓È_1
 62
     5
 10
-92.251562500000006
 20
144.3401424548
 30
0.0
 11
-92.251562500000006
 21
144.64209468269999
 31
0.0
  0
LINE
  5
175
  8
┌▓È_1
 62
     5
 10
-45.894232545199998
 20
97.982812499999994
 30
0.0
 11
-45.592280317300002
 21
97.982812499999994
 31
0.0
  0
LINE
  5
176
  8
┌▓È_1
 62
     5
 10
-150.60889245480001
 20
97.982812499999994
 30
0.0
 11
-150.9108446827
 21
97.982812499999994
 31
0.0
  0
ARC
  5
177
  8
┌▓È_1
 62
     5
 10
-71.114898741099992
 20
127.2510911656
 30
0.0
 40
2.0
 50
52.424041072299993
 51
145.0
  0
ARC
  5
178
  8
┌▓È_1
 62
     5
 10
-98.251562500000006
 20
91.982812499999994
 30
0.0
 40
46.5
 50
47.575958927700007
 51
52.424041072299993
  0
ARC
  5
179
  8
┌▓È_1
 62
     5
 10
-68.231320444399998
 20
124.8314816804
 30
0.0
 40
2.0
 50
315.0
 51
47.575958927599999
  0
ARC
  5
17A
  8
┌▓È_1
 62
     5
 10
-84.826771424399993
 20
109.4119543199
 30
0.0
 40
1.0
 50
145.0
 51
232.39474873489999
  0
INSERT
  5
17B
  8
0
  6
CONTINUOUS
  2
*U26
 10
0.0
 20
0.0
 30
0.0
  0
INSERT
  5
17C
  8
0
  6
CONTINUOUS
  2
*U27
 10
0.0
 20
0.0
 30
0.0
  0
INSERT
  5
17D
  8
0
  6
CONTINUOUS
  2
*U28
 10
0.0
 20
0.0
 30
0.0
  0
ARC
  5
17E
  8
┌▓È_1
 62
     5
 10
-98.251562500000006
 20
91.982812499999994
 30
0.0
 40
39.0
 50
55.0
 51
65.0
  0
ARC
  5
17F
  8
┌▓È_1
 10
-98.251562500000006
 20
91.982812499999994
 30
0.0
 40
49.600000000000001
 50
80.0
 51
100.0
  0
SOLID
  5
180
  8
┌▓È_1
 10
-89.638612887700006
 20
140.82927704939999
 30
0.0
 11
-92.902259945200001
 21
140.43813913029999
 31
0.0
 12
-91.939308489799998
 22
141.15941374849999
 32
0.0
 13
-91.939308489799998
 23
141.15941374849999
 33
0.0
  0
SOLID
  5
181
  8
┌▓È_1
 10
-89.638612887700006
 20
140.82927704939999
 30
0.0
 11
-92.660583107999997
 21
142.1223652038
 31
0.0
 12
-91.939308489799998
 22
141.15941374849999
 32
0.0
 13
-91.939308489799998
 23
141.15941374849999
 33
0.0
  0
SOLID
  5
182
  8
┌▓È_1
 10
-106.86451211230001
 20
140.82927704939999
 30
0.0
 11
-103.842541892
 21
142.1223652038
 31
0.0
 12
-104.5638165102
 22
141.15941374849999
 32
0.0
 13
-104.5638165102
 23
141.15941374849999
 33
0.0
  0
SOLID
  5
183
  8
┌▓È_1
 10
-106.86451211230001
 20
140.82927704939999
 30
0.0
 11
-103.6008650548
 21
140.43813913029999
 31
0.0
 12
-104.5638165102
 22
141.15941374849999
 32
0.0
 13
-104.5638165102
 23
141.15941374849999
 33
0.0
  0
ARC
  5
184
  8
┌▓È_1
 62
     5
 10
-98.251562500000006
 20
91.982812499999994
 30
0.0
 40
39.0
 50
35.0
 51
45.0
  0
INSERT
  5
186
  8
┌▓È_1
 62
     5
  2
CLUMP13
 10
0.0
 20
0.0
 30
0.0
  0
INSERT
  5
192
  8
┌▓È_1
 62
     5
  2
CLUMP14
 10
0.0
 20
0.0
 30
0.0
  0
ARC
  5
19D
  8
┌▓È_1
 62
     5
 10
-123.25156250000001
 20
93.166209250599962
 30
0.0
 40
1.0
 50
0.0
 51
85.0
  0
INSERT
  5
19E
  8
0
  6
CONTINUOUS
  2
*U31
 10
0.0
 20
0.0
 30
0.0
  0
INSERT
  5
19F
  8
0
  6
CONTINUOUS
  2
*U32
 10
0.0
 20
0.0
 30
0.0
  0
ENDBLK
  5
1A0
  8
0
  0
BLOCK
  8
0
  2
CLUMP2
 70
     0
 10
0.0
 20
0.0
 30
0.0
  3
CLUMP2
  1

  0
ARC
  5
C2
  8
┌▓È_1
 62
     5
 10
-120.05803761999999
 20
89.071173298000005
 30
0.0
 40
1.0
 50
7.6052512650999979
 51
95.0
  0
ARC
  5
C3
  8
┌▓È_1
 62
     5
 10
-98.251562500000006
 20
91.982812499999994
 30
0.0
 40
21.0
 50
187.60525126510001
 51
192.39474873489999
  0
ARC
  5
C4
  8
┌▓È_1
 62
     5
 10
-119.73878551280001
 20
87.260604626599985
 30
0.0
 40
1.0
 50
285.0
 51
12.3947487349
  0
ARC
  5
C5
  8
┌▓È_1
 62
     5
 10
-142.36311965159999
 20
86.115911643700002
 30
0.0
 40
2.0
 50
95.0
 51
187.57595892769999
  0
LINE
  5
C6
  8
┌▓È_1
 62
     5
 10
-120.1451933627
 20
90.067367996100003
 30
0.0
 11
-142.5374311370999
 21
88.108301039899985
 31
0.0
  0
ARC
  5
C7
  8
┌▓È_1
 62
     5
 10
-98.251562500000006
 20
91.982812499999994
 30
0.0
 40
46.5
 50
187.57595892769999
 51
192.42404107230001
  0
ARC
  5
C8
  8
┌▓È_1
 62
     5
 10
-141.7094655185
 20
82.408854842300002
 30
0.0
 40
2.0
 50
192.42404107230001
 51
285.0
  0
LINE
  5
C9
  8
┌▓È_1
 62
     5
 10
-119.4799664677
 20
86.294678800300005
 30
0.0
 11
-141.1918274283
 21
80.477003189699985
 31
0.0
  0
ENDBLK
  5
CA
  8
0
  0
BLOCK
  8
0
  2
CLUMP3
 70
     0
 10
0.0
 20
0.0
 30
0.0
  3
CLUMP3
  1

  0
LINE
  5
D1
  8
┌▓È_1
 62
     5
 10
-48.251562499999999
 20
72.48281249999998
 30
0.0
 11
-51.251562499999991
 21
72.48281249999998
 31
0.0
  0
LINE
  5
D2
  8
┌▓È_1
 62
     5
 10
-51.251562499999991
 20
73.98281249999998
 30
0.0
 11
-62.251562499999999
 21
73.98281249999998
 31
0.0
  0
LINE
  5
D3
  8
┌▓È_1
 62
     5
 10
-48.251562499999999
 20
111.48281249999999
 30
0.0
 11
-51.251562499999991
 21
111.48281249999999
 31
0.0
  0
LINE
  5
D4
  8
┌▓È_1
 62
     5
 10
-51.251562499999991
 20
109.98281249999999
 30
0.0
 11
-62.251562499999999
 21
109.98281249999999
 31
0.0
  0
LINE
  5
D5
  8
┌▓È_1
 62
     5
 10
-67.439935528999996
 20
93.232812499999994
 30
0.0
 11
-67.439935528999996
 21
90.732812499999994
 31
0.0
  0
LINE
  5
D6
  8
┌▓È_1
 62
     5
 10
-67.439935528999996
 20
90.732812499999994
 30
0.0
 11
-76.845748628300001
 21
90.732812499999994
 31
0.0
  0
LINE
  5
D7
  8
┌▓È_1
 62
     5
 10
-74.751562500000006
 20
107.98281249999999
 30
0.0
 11
-74.751562500000006
 21
93.232812499999994
 31
0.0
  0
LINE
  5
D8
  8
┌▓È_1
 62
     5
 10
-72.751562500000006
 20
96.982812499999994
 30
0.0
 11
-96.901562500000011
 21
96.982812499999994
 31
0.0
  0
LINE
  5
D9
  8
┌▓È_1
 62
     5
 10
-98.251562500000006
 20
107.98281249999999
 30
0.0
 11
-74.751562500000006
 21
107.98281249999999
 31
0.0
  0
LINE
  5
DA
  8
┌▓È_1
 62
     5
 10
-62.251562499999999
 20
111.48281249999999
 30
0.0
 11
-65.251562500000006
 21
111.48281249999999
 31
0.0
  0
LINE
  5
DB
  8
┌▓È_1
 62
     5
 10
-65.251562500000006
 20
109.98281249999999
 30
0.0
 11
-73.751562500000006
 21
109.98281249999999
 31
0.0
  0
ARC
  5
DC
  8
┌▓È_1
 62
     5
 10
-73.751562500000006
 20
108.98281249999999
 30
0.0
 40
1.0
 50
90.0
 51
180.0
  0
LINE
  5
DD
  8
┌▓È_1
 62
     5
 10
-74.751562500000006
 20
108.98281249999999
 30
0.0
 11
-74.751562500000006
 21
107.98281249999999
 31
0.0
  0
LINE
  5
DE
  8
┌▓È_1
 62
     5
 10
-74.751562500000006
 20
90.732812499999994
 30
0.0
 11
-74.751562500000006
 21
75.98281249999998
 31
0.0
  0
LINE
  5
DF
  8
┌▓È_1
 62
     5
 10
-65.251562500000006
 20
111.48281249999999
 30
0.0
 11
-65.251562500000006
 21
72.48281249999998
 31
0.0
  0
LINE
  5
E0
  8
┌▓È_1
 62
     5
 10
-62.251562499999999
 20
111.48281249999999
 30
0.0
 11
-62.251562499999999
 21
72.48281249999998
 31
0.0
  0
ARC
  5
E1
  8
┌▓È_1
 62
     5
 10
-98.251562500000006
 20
91.982812499999994
 30
0.0
 40
16.0
 50
90.0
 51
270.0
  0
LINE
  5
E2
  8
┌▓È_1
 62
     5
 10
-96.901562500000011
 20
96.982812499999994
 30
0.0
 11
-96.901562500000011
 21
86.982812499999994
 31
0.0
  0
LINE
  5
E3
  8
┌▓È_1
 62
     5
 10
-67.439935528999996
 20
93.232812499999994
 30
0.0
 11
-76.845748628300001
 21
93.232812499999994
 31
0.0
  0
ARC
  5
E4
  8
┌▓È_1
 62
     5
 10
-73.751562500000006
 20
74.98281249999998
 30
0.0
 40
1.0
 50
180.0
 51
270.0
  0
LINE
  5
E5
  8
┌▓È_1
 62
     5
 10
-72.751562500000006
 20
86.982812499999994
 30
0.0
 11
-96.901562500000011
 21
86.982812499999994
 31
0.0
  0
LINE
  5
E6
  8
┌▓È_1
 62
     5
 10
-74.751562500000006
 20
75.98281249999998
 30
0.0
 11
-74.751562500000006
 21
74.98281249999998
 31
0.0
  0
LINE
  5
E7
  8
┌▓È_1
 62
     5
 10
-62.251562499999999
 20
72.48281249999998
 30
0.0
 11
-65.251562500000006
 21
72.48281249999998
 31
0.0
  0
LINE
  5
E8
  8
┌▓È_1
 62
     5
 10
-65.251562500000006
 20
73.98281249999998
 30
0.0
 11
-73.751562500000006
 21
73.98281249999998
 31
0.0
  0
LINE
  5
E9
  8
┌▓È_1
 62
     5
 10
-98.251562500000006
 20
75.98281249999998
 30
0.0
 11
-74.751562500000006
 21
75.98281249999998
 31
0.0
  0
LINE
  5
EA
  8
┌▓È_1
 62
     5
 10
-51.251562499999991
 20
111.48281249999999
 30
0.0
 11
-51.251562499999991
 21
72.48281249999998
 31
0.0
  0
LINE
  5
EB
  8
┌▓È_1
 62
     5
 10
-48.251562499999999
 20
111.48281249999999
 30
0.0
 11
-48.251562499999999
 21
72.48281249999998
 31
0.0
  0
ENDBLK
  5
EC
  8
0
  0
BLOCK
  8
0
  2
CLUMP4
 70
     0
 10
0.0
 20
0.0
 30
0.0
  3
CLUMP4
  1

  0
ARC
  5
F4
  8
┌▓È_1
 62
     5
 10
-89.869878455599988
 20
112.32359352189999
 30
0.0
 40
1.0
 50
247.60525126510001
 51
335.0
  0
ARC
  5
F5
  8
┌▓È_1
 62
     5
 10
-98.251562500000006
 20
91.982812499999994
 30
0.0
 40
21.0
 50
67.605251265100009
 51
72.394748734899991
  0
ARC
  5
F6
  8
┌▓È_1
 62
     5
 10
-91.597502973999994
 20
112.9523974226
 30
0.0
 40
1.0
 50
165.0
 51
252.39474873489999
  0
ARC
  5
F7
  8
┌▓È_1
 62
     5
 10
-81.276669107199979
 20
133.11799202200001
 30
0.0
 40
2.0
 50
335.0
 51
67.5759589277
  0
LINE
  5
F8
  8
┌▓È_1
 62
     5
 10
-88.963570668599999
 20
111.9009752601
 30
0.0
 11
-79.464053533200001
 21
132.2727554985
 31
0.0
  0
ARC
  5
F9
  8
┌▓È_1
 62
     5
 10
-98.251562500000006
 20
91.982812499999994
 30
0.0
 40
46.5
 50
67.5759589277
 51
72.4240410723
  0
ARC
  5
FA
  8
┌▓È_1
 62
     5
 10
-84.81390153709998
 20
134.4054393381
 30
0.0
 40
2.0
 50
72.4240410723
 51
165.0
  0
LINE
  5
FB
  8
┌▓È_1
 62
     5
 10
-92.563428800300002
 20
113.2112164677
 30
0.0
 11
-86.745753189699997
 21
134.92307742829999
 31
0.0
  0
ENDBLK
  5
FC
  8
0
  0
BLOCK
  8
0
  2
CLUMP5
 70
     0
 10
0.0
 20
0.0
 30
0.0
  3
CLUMP5
  1

  0
ARC
  5
102
  8
┌▓È_1
 62
     5
 10
-104.905622026
 20
112.9523974226
 30
0.0
 40
1.0
 50
287.60525126509998
 51
15.0
  0
ARC
  5
103
  8
┌▓È_1
 62
     5
 10
-98.251562500000006
 20
91.982812499999994
 30
0.0
 40
21.0
 50
107.60525126509999
 51
112.39474873490001
  0
ARC
  5
104
  8
┌▓È_1
 62
     5
 10
-106.6332465444
 20
112.32359352189999
 30
0.0
 40
1.0
 50
205.0
 51
292.39474873490002
  0
ARC
  5
105
  8
┌▓È_1
 62
     5
 10
-111.6892234629
 20
134.4054393381
 30
0.0
 40
2.0
 50
15.0
 51
107.5759589277
  0
LINE
  5
106
  8
┌▓È_1
 62
     5
 10
-103.93969619969999
 20
113.2112164677
 30
0.0
 11
-109.7573718103
 21
134.92307742829999
 31
0.0
  0
ARC
  5
107
  8
┌▓È_1
 62
     5
 10
-98.251562500000006
 20
91.982812499999994
 30
0.0
 40
46.5
 50
107.5759589277
 51
112.4240410723
  0
ARC
  5
108
  8
┌▓È_1
 62
     5
 10
-115.2264558928
 20
133.11799202200001
 30
0.0
 40
2.0
 50
112.4240410723
 51
205.0
  0
LINE
  5
109
  8
┌▓È_1
 62
     5
 10
-107.5395543314
 20
111.9009752601
 30
0.0
 11
-117.0390714668
 21
132.2727554985
 31
0.0
  0
ENDBLK
  5
10A
  8
0
  0
BLOCK
  8
0
  2
CLUMP6
 70
     0
 10
0.0
 20
0.0
 30
0.0
  3
CLUMP6
  1

  0
ARC
  5
10F
  8
┌▓È_1
 62
     5
 10
-116.82785719260001
 20
103.769299487
 30
0.0
 40
1.0
 50
327.60525126509998
 51
55.0
  0
ARC
  5
110
  8
┌▓È_1
 62
     5
 10
-98.251562500000006
 20
91.982812499999994
 30
0.0
 40
21.0
 50
147.60525126510001
 51
152.39474873489999
  0
ARC
  5
111
  8
┌▓È_1
 62
     5
 10
-117.7471069984
 20
102.17711211850001
 30
0.0
 40
1.0
 50
245.0
 51
332.39474873490002
  0
ARC
  5
112
  8
┌▓È_1
 62
     5
 10
-135.81414691099999
 20
115.8428680817
 30
0.0
 40
2.0
 50
55.0
 51
147.57595892769999
  0
LINE
  5
113
  8
┌▓È_1
 62
     5
 10
-116.2542807562
 20
104.5884515313
 30
0.0
 11
-134.6669940383
 21
117.4811721703
 31
0.0
  0
ARC
  5
114
  8
┌▓È_1
 62
     5
 10
-98.251562500000006
 20
91.982812499999994
 30
0.0
 40
46.5
 50
147.57595892769999
 51
152.42404107230001
  0
ARC
  5
115
  8
┌▓È_1
 62
     5
 10
-137.69626897500001
 20
112.58293704090001
 30
0.0
 40
2.0
 50
152.42404107230001
 51
245.0
  0
LINE
  5
116
  8
┌▓È_1
 62
     5
 10
-118.16972526009999
 20
101.2708043314
 30
0.0
 11
-138.54150549849999
 21
110.7703214668
 31
0.0
  0
ENDBLK
  5
117
  8
0
  0
BLOCK
  8
0
  2
CLUMP7
 70
     0
 10
0.0
 20
0.0
 30
0.0
  3
CLUMP7
  1

  0
ARC
  5
11B
  8
┌▓È_1
 62
     5
 10
-111.6763535756
 20
109.4119543199
 30
0.0
 40
1.0
 50
307.60525126509998
 51
35.0
  0
ARC
  5
11C
  8
┌▓È_1
 62
     5
 10
-98.251562500000006
 20
91.982812499999994
 30
0.0
 40
21.0
 50
127.60525126509999
 51
132.39474873489999
  0
ARC
  5
11D
  8
┌▓È_1
 62
     5
 10
-113.08472598669999
 20
108.2301895491
 30
0.0
 40
1.0
 50
225.0
 51
312.39474873490002
  0
ARC
  5
11E
  8
┌▓È_1
 62
     5
 10
-125.3882262589
 20
127.2510911656
 30
0.0
 40
2.0
 50
35.0
 51
127.5759589277
  0
LINE
  5
11F
  8
┌▓È_1
 62
     5
 10
-110.85720153130001
 20
109.98553075620001
 30
0.0
 11
-123.7499221703
 21
128.39824403829999
 31
0.0
  0
ARC
  5
120
  8
┌▓È_1
 62
     5
 10
-98.251562500000006
 20
91.982812499999994
 30
0.0
 40
46.5
 50
127.5759589277
 51
132.42404107230001
  0
ARC
  5
121
  8
┌▓È_1
 62
     5
 10
-128.2718045556
 20
124.8314816804
 30
0.0
 40
2.0
 50
132.42404107230001
 51
225.0
  0
LINE
  5
122
  8
┌▓È_1
 62
     5
 10
-113.7918327679
 20
107.52308276789999
 30
0.0
 11
-129.68601811799999
 21
123.417268118
 31
0.0
  0
ENDBLK
  5
123
  8
0
  0
BLOCK
  8
0
  2
CLUMP8
 70
     0
 10
0.0
 20
0.0
 30
0.0
  3
CLUMP8
  1

  0
ARC
  5
131
  8
┌▓È_1
 62
     5
 10
-106.6332465444
 20
71.642031478100009
 30
0.0
 40
1.0
 50
67.605251265100009
 51
155.0
  0
ARC
  5
132
  8
┌▓È_1
 62
     5
 10
-98.251562500000006
 20
91.982812499999994
 30
0.0
 40
21.0
 50
247.60525126510001
 51
252.39474873489999
  0
ARC
  5
133
  8
┌▓È_1
 62
     5
 10
-104.905622026
 20
71.013227577400002
 30
0.0
 40
1.0
 50
345.0
 51
72.394748734899991
  0
ARC
  5
134
  8
┌▓È_1
 62
     5
 10
-115.2264558928
 20
50.847632978
 30
0.0
 40
2.0
 50
155.0
 51
247.5759589277001
  0
LINE
  5
135
  8
┌▓È_1
 62
     5
 10
-107.5395543314
 20
72.064649739899991
 30
0.0
 11
-117.0390714668
 21
51.692869501499999
 31
0.0
  0
ARC
  5
136
  8
┌▓È_1
 62
     5
 10
-98.251562500000006
 20
91.982812499999994
 30
0.0
 40
46.5
 50
247.5759589277001
 51
252.42404107230001
  0
ARC
  5
137
  8
┌▓È_1
 62
     5
 10
-111.6892234629
 20
49.5601856619
 30
0.0
 40
2.0
 50
252.42404107230001
 51
345.0
  0
LINE
  5
138
  8
┌▓È_1
 62
     5
 10
-103.93969619969999
 20
70.75440853229999
 30
0.0
 11
-109.7573718103
 21
49.042547571699998
 31
0.0
  0
ENDBLK
  5
139
  8
0
  0
BLOCK
  8
0
  2
CLUMP9
 70
     0
 10
0.0
 20
0.0
 30
0.0
  3
CLUMP9
  1

  0
ARC
  5
13D
  8
┌▓È_1
 62
     5
 10
-113.08472598669999
 20
75.735435450899999
 30
0.0
 40
1.0
 50
47.605251265099987
 51
135.0
  0
ARC
  5
13E
  8
┌▓È_1
 62
     5
 10
-98.251562500000006
 20
91.982812499999994
 30
0.0
 40
21.0
 50
227.60525126510001
 51
232.39474873489999
  0
ARC
  5
13F
  8
┌▓È_1
 62
     5
 10
-111.6763535756
 20
74.553670680099998
 30
0.0
 40
1.0
 50
325.0
 51
52.394748734899991
  0
ARC
  5
140
  8
┌▓È_1
 62
     5
 10
-128.2718045556
 20
59.1341433196
 30
0.0
 40
2.0
 50
135.0
 51
227.57595892769999
  0
LINE
  5
141
  8
┌▓È_1
 62
     5
 10
-113.7918327679
 20
76.442542232099981
 30
0.0
 11
-129.68601811799999
 21
60.548356882
 31
0.0
  0
ARC
  5
142
  8
┌▓È_1
 62
     5
 10
-98.251562500000006
 20
91.982812499999994
 30
0.0
 40
46.5
 50
227.57595892769999
 51
232.42404107230001
  0
ARC
  5
143
  8
┌▓È_1
 62
     5
 10
-125.3882262589
 20
56.714533834399987
 30
0.0
 40
2.0
 50
232.42404107230001
 51
325.0
  0
LINE
  5
144
  8
┌▓È_1
 62
     5
 10
-110.85720153130001
 20
73.980094243799982
 30
0.0
 11
-123.7499221703
 21
55.56738096170001
 31
0.0
  0
ENDBLK
  5
145
  8
0
  0
BLOCK
  8
0
  2
CLUMP10
 70
     0
 10
0.0
 20
0.0
 30
0.0
  3
CLUMP10
  1

  0
ARC
  5
149
  8
┌▓È_1
 62
     5
 10
-117.7471069984
 20
81.788512881499969
 30
0.0
 40
1.0
 50
27.605251265100001
 51
115.0
  0
ARC
  5
14A
  8
┌▓È_1
 62
     5
 10
-98.251562500000006
 20
91.982812499999994
 30
0.0
 40
21.0
 50
207.60525126510001
 51
212.39474873489999
  0
ARC
  5
14B
  8
┌▓È_1
 62
     5
 10
-116.82785719260001
 20
80.196325513000005
 30
0.0
 40
1.0
 50
305.0
 51
32.394748734899999
  0
ARC
  5
14C
  8
┌▓È_1
 62
     5
 10
-137.69626897500001
 20
71.382687959099997
 30
0.0
 40
2.0
 50
115.0
 51
207.57595892769999
  0
LINE
  5
14D
  8
┌▓È_1
 62
     5
 10
-118.16972526009999
 20
82.694820668600002
 30
0.0
 11
-138.54150549849999
 21
73.19530353319999
 31
0.0
  0
ARC
  5
14E
  8
┌▓È_1
 62
     5
 10
-98.251562500000006
 20
91.982812499999994
 30
0.0
 40
46.5
 50
207.57595892769999
 51
212.42404107230001
  0
ARC
  5
14F
  8
┌▓È_1
 62
     5
 10
-135.81414691099999
 20
68.122756918299999
 30
0.0
 40
2.0
 50
212.42404107230001
 51
305.0
  0
LINE
  5
150
  8
┌▓È_1
 62
     5
 10
-116.2542807562
 20
79.377173468699979
 30
0.0
 11
-134.6669940383
 21
66.484452829700004
 31
0.0
  0
ENDBLK
  5
151
  8
0
  0
BLOCK
  8
0
  2
CLUMP11
 70
     0
 10
0.0
 20
0.0
 30
0.0
  3
CLUMP11
  1

  0
ARC
  5
156
  8
┌▓È_1
 62
     5
 10
-91.597502973999994
 20
71.013227577400002
 30
0.0
 40
1.0
 50
107.60525126509999
 51
195.0
  0
ARC
  5
157
  8
┌▓È_1
 62
     5
 10
-98.251562500000006
 20
91.982812499999994
 30
0.0
 40
21.0
 50
287.60525126509998
 51
292.39474873490002
  0
ARC
  5
158
  8
┌▓È_1
 62
     5
 10
-89.869878455599988
 20
71.642031478100009
 30
0.0
 40
1.0
 50
25.0
 51
112.39474873490001
  0
ARC
  5
159
  8
┌▓È_1
 62
     5
 10
-84.81390153709998
 20
49.5601856619
 30
0.0
 40
2.0
 50
195.0
 51
287.57595892770001
  0
LINE
  5
15A
  8
┌▓È_1
 62
     5
 10
-92.563428800300002
 20
70.75440853229999
 30
0.0
 11
-86.745753189699997
 21
49.042547571699998
 31
0.0
  0
ARC
  5
15B
  8
┌▓È_1
 62
     5
 10
-98.251562500000006
 20
91.982812499999994
 30
0.0
 40
46.5
 50
287.57595892770001
 51
292.4240410723001
  0
ARC
  5
15C
  8
┌▓È_1
 62
     5
 10
-81.276669107199979
 20
50.847632978
 30
0.0
 40
2.0
 50
292.4240410723001
 51
25.0
  0
LINE
  5
15D
  8
┌▓È_1
 62
     5
 10
-88.963570668599999
 20
72.064649739899991
 30
0.0
 11
-79.464053533200001
 21
51.692869501499999
 31
0.0
  0
ENDBLK
  5
15E
  8
0
  0
BLOCK
  8
0
  2
CLUMP12
 70
     0
 10
0.0
 20
0.0
 30
0.0
  3
CLUMP12
  1

  0
ARC
  5
162
  8
┌▓È_1
 62
     5
 10
-99.170812305799998
 20
70.002025894499994
 30
0.0
 40
1.0
 50
87.605251265100037
 51
175.0
  0
ARC
  5
163
  8
┌▓È_1
 62
     5
 10
-98.251562500000006
 20
91.982812499999994
 30
0.0
 40
21.0
 50
267.60525126509998
 51
272.39474873490002
  0
ARC
  5
164
  8
┌▓È_1
 62
     5
 10
-97.332312694200013
 20
70.002025894499994
 30
0.0
 40
1.0
 50
5.0
 51
92.394748734899991
  0
ARC
  5
165
  8
┌▓È_1
 62
     5
 10
-100.13368456400001
 20
47.522632377400001
 30
0.0
 40
2.0
 50
175.0
 51
267.57595892770001
  0
LINE
  5
166
  8
┌▓È_1
 62
     5
 10
-100.1670070039
 20
70.089181637300001
 30
0.0
 11
-102.1260739601
 21
47.6969438629
 31
0.0
  0
ARC
  5
167
  8
┌▓È_1
 62
     5
 10
-98.251562500000006
 20
91.982812499999994
 30
0.0
 40
46.5
 50
267.57595892770001
 51
272.42404107229999
  0
ARC
  5
168
  8
┌▓È_1
 62
     5
 10
-96.369440436000005
 20
47.522632377400001
 30
0.0
 40
2.0
 50
272.42404107229999
 51
5.0
  0
LINE
  5
169
  8
┌▓È_1
 62
     5
 10
-96.336117996100015
 20
70.089181637300001
 30
0.0
 11
-94.377051039899996
 21
47.6969438629
 31
0.0
  0
ENDBLK
  5
16A
  8
0
  0
BLOCK
  8
0
  2
*U22
 70
     1
 10
0.0
 20
0.0
 30
0.0
  3
*U22
  1

  0
TEXT
  5
4E1
  8
┌▓È_1
  6
CONTINUOUS
 10
-115.8621621933132
 20
136.58244466539881
 30
0.0
 40
4.0481248378999988
  1
N
 50
19.999999998341838
  0
ENDBLK
  5
4E3
  8
0
  0
BLOCK
  8
0
  2
*U23
 70
     1
 10
0.0
 20
0.0
 30
0.0
  3
*U23
  1

  0
TEXT
  5
4E5
  8
┌▓È_1
  6
CONTINUOUS
 10
-120.48302806907461
 20
134.47029021267039
 30
0.0
 40
4.0481248378999988
  1
E
 50
26.000000000541561
  0
ENDBLK
  5
4E7
  8
0
  0
BLOCK
  8
0
  2
*U24
 70
     1
 10
0.0
 20
0.0
 30
0.0
  3
*U24
  1

  0
TEXT
  5
4E9
  8
┌▓È_1
  6
CONTINUOUS
 10
-124.81110573782991
 20
131.9082738144516
 30
0.0
 40
4.0481248378999988
  1
P
 50
31.99999999706359
  0
ENDBLK
  5
4EB
  8
0
  0
BLOCK
  8
0
  2
*U25
 70
     1
 10
0.0
 20
0.0
 30
0.0
  3
*U25
  1

  0
TEXT
  5
4ED
  8
┌▓È_1
  6
CONTINUOUS
 10
-128.79037873635659
 20
128.95128313913091
 30
0.0
 40
4.0481248378999988
  1
O
 50
37.999999999078653
  0
ENDBLK
  5
4EF
  8
0
  0
BLOCK
  8
0
  2
*U26
 70
     1
 10
0.0
 20
0.0
 30
0.0
  3
*U26
  1

  0
TEXT
  5
4F1
  8
┌▓È_1
  6
CONTINUOUS
 10
-83.112592801072836
 20
137.48204441339391
 30
0.0
 40
4.0481248378999988
  1
C
 50
340.00000000165812
  0
ENDBLK
  5
4F3
  8
0
  0
BLOCK
  8
0
  2
*U27
 70
     1
 10
0.0
 20
0.0
 30
0.0
  3
*U27
  1

  0
TEXT
  5
4F5
  8
┌▓È_1
  6
CONTINUOUS
 10
-73.95745374463857
 20
133.32387439114331
 30
0.0
 40
4.0481248378999988
  1
O
 50
328.00000000293642
  0
ENDBLK
  5
4F7
  8
0
  0
BLOCK
  8
0
  2
*U28
 70
     1
 10
0.0
 20
0.0
 30
0.0
  3
*U28
  1

  0
TEXT
  5
4F9
  8
┌▓È_1
  6
CONTINUOUS
 10
-78.439560869444222
 20
135.6503416223743
 30
0.0
 40
4.0481248378999988
  1
L
 50
333.99999999945851
  0
ENDBLK
  5
4FB
  8
0
  0
BLOCK
  8
0
  2
CLUMP13
 70
     0
 10
0.0
 20
0.0
 30
0.0
  3
CLUMP13
  1

  0
ARC
  5
188
  8
┌▓È_1
 62
     5
 10
-97.332312694200013
 20
113.96359910549999
 30
0.0
 40
1.0
 50
267.60525126509998
 51
355.0
  0
ARC
  5
189
  8
┌▓È_1
 62
     5
 10
-98.251562500000006
 20
91.982812499999994
 30
0.0
 40
21.0
 50
87.605251265100037
 51
92.394748734899991
  0
ARC
  5
18A
  8
┌▓È_1
 62
     5
 10
-99.170812305799998
 20
113.96359910549999
 30
0.0
 40
1.0
 50
185.0
 51
272.39474873490002
  0
ARC
  5
18B
  8
┌▓È_1
 62
     5
 10
-96.369440436000005
 20
136.4429926226
 30
0.0
 40
2.0
 50
355.0
 51
87.5759589277
  0
LINE
  5
18C
  8
┌▓È_1
 62
     5
 10
-96.336117996100015
 20
113.8764433627
 30
0.0
 11
-94.377051039899996
 21
136.2686811371
 31
0.0
  0
ARC
  5
18D
  8
┌▓È_1
 62
     5
 10
-98.251562500000006
 20
91.982812499999994
 30
0.0
 40
46.5
 50
87.5759589277
 51
92.424041072299971
  0
ARC
  5
18E
  8
┌▓È_1
 62
     5
 10
-100.13368456400001
 20
136.4429926226
 30
0.0
 40
2.0
 50
92.424041072299971
 51
185.0
  0
LINE
  5
18F
  8
┌▓È_1
 62
     5
 10
-100.1670070039
 20
113.8764433627
 30
0.0
 11
-102.1260739601
 21
136.2686811371
 31
0.0
  0
ENDBLK
  5
190
  8
0
  0
BLOCK
  8
0
  2
CLUMP14
 70
     0
 10
0.0
 20
0.0
 30
0.0
  3
CLUMP14
  1

  0
ARC
  5
194
  8
┌▓È_1
 62
     5
 10
-119.73878551280001
 20
96.705020373400004
 30
0.0
 40
1.0
 50
347.60525126509998
 51
75.0
  0
ARC
  5
195
  8
┌▓È_1
 62
     5
 10
-98.251562500000006
 20
91.982812499999994
 30
0.0
 40
21.0
 50
167.60525126510001
 51
172.39474873489999
  0
ARC
  5
196
  8
┌▓È_1
 62
     5
 10
-120.05803761999999
 20
94.894451702000012
 30
0.0
 40
1.0
 50
265.0
 51
352.39474873490002
  0
ARC
  5
197
  8
┌▓È_1
 62
     5
 10
-141.7094655185
 20
101.5567701577
 30
0.0
 40
2.0
 50
75.0
 51
167.57595892769999
  0
LINE
  5
198
  8
┌▓È_1
 62
     5
 10
-119.4799664677
 20
97.670946199699998
 30
0.0
 11
-141.1918274283
 21
103.4886218103
 31
0.0
  0
ARC
  5
199
  8
┌▓È_1
 62
     5
 10
-98.251562500000006
 20
91.982812499999994
 30
0.0
 40
46.5
 50
167.57595892769999
 51
172.42404107230001
  0
ARC
  5
19A
  8
┌▓È_1
 62
     5
 10
-142.36311965159999
 20
97.849713356299986
 30
0.0
 40
2.0
 50
172.42404107230001
 51
265.0
  0
LINE
  5
19B
  8
┌▓È_1
 62
     5
 10
-120.1451933627
 20
93.8982570039
 30
0.0
 11
-142.5374311370999
 21
95.857323960100004
 31
0.0
  0
ENDBLK
  5
19C
  8
0
  0
BLOCK
  8
0
  2
*U31
 70
     1
 10
0.0
 20
0.0
 30
0.0
  3
*U31
  1

  0
TEXT
  5
4FD
  8
┌▓È_1
  6
CONTINUOUS
 10
-69.769221745061955
 20
130.5579778739735
 30
0.0
 40
4.0481248378999988
  1
S
 50
322.00000000092137
  0
ENDBLK
  5
4FF
  8
0
  0
BLOCK
  8
0
  2
*U32
 70
     1
 10
0.0
 20
0.0
 30
0.0
  3
*U32
  1

  0
TEXT
  5
501
  8
┌▓È_1
  6
CONTINUOUS
 10
-65.930002258009523
 20
127.40512986165911
 30
0.0
 40
4.0481248378999988
  1
E
 50
315.99999999677169
  0
ENDBLK
  5
503
  8
0
  0
BLOCK
  8
0
  2
BALLON0
 70
     0
 10
0.0
 20
0.0
 30
0.0
  3
BALLON0
  1

  0
INSERT
  5
1A7
  8
0
  6
CONTINUOUS
  2
*U34
 10
0.0
 20
0.0
 30
0.0
  0
CIRCLE
  5
1A8
  8
┌▓È_1
 10
186.6183111222
 20
-173.70195312499999
 30
0.0
 40
20.0
  0
LINE
  5
1A9
  8
Éíû@É³
 10
153.28497778880001
 20
-173.70195312499999
 30
0.0
 11
166.6183111222
 21
-173.70195312499999
 31
0.0
  0
LINE
  5
1AA
  8
Éíû@É³
 10
-7.4304946880999978
 20
-12.588255311899999
 30
0.0
 11
153.28497778880001
 21
-173.70195312499999
 31
0.0
  0
SOLID
  5
1AB
  8
Éíû@É³
 10
-7.4304946880999978
 20
-12.588255311899999
 30
0.0
 11
9.5260557099999996
 21
-23.9229541873
 31
0.0
 12
3.8692057911000002
 22
-23.9159545081
 32
0.0
 13
3.8692057911000002
 23
-23.9159545081
 33
0.0
  0
SOLID
  5
1AC
  8
Éíû@É³
 10
3.8692057911000002
 20
-23.9159545081
 30
0.0
 11
3.8622061118999991
 21
-29.572804426899999
 31
0.0
 12
-7.4304946880999978
 22
-12.588255311899999
 32
0.0
 13
-7.4304946880999978
 23
-12.588255311899999
 33
0.0
  0
ENDBLK
  5
1AD
  8
0
  0
BLOCK
  8
0
  2
*U34
 70
     1
 10
0.0
 20
0.0
 30
0.0
  3
*U34
  1

  0
TEXT
  5
505
  8
┌▓È_1
  6
CONTINUOUS
 10
180.5960185788141
 20
-181.11028623589999
 30
0.0
 40
17.9916661263
  1
4
  0
ENDBLK
  5
507
  8
0
  0
BLOCK
  8
0
  2
*D35
 70
     1
 10
0.0
 20
0.0
 30
0.0
  3
*D35
  1

  0
TEXT
  5
1B0
  8
0
 62
     0
 10
64.688205524899999
 20
-274.57864551540001
 30
0.0
 40
17.9916661263
  1
68
 50
90.0
  0
LINE
  5
1B1
  8
0
 62
     0
 10
24.863205429600001
 20
-297.99531250000001
 30
0.0
 11
77.863205429600001
 21
-297.99531250000001
 31
0.0
  0
LINE
  5
1B2
  8
0
 62
     0
 10
24.163205429600001
 20
-229.99531250000001
 30
0.0
 11
77.863205429600001
 21
-229.99531250000001
 31
0.0
  0
LINE
  5
1B3
  8
0
 62
     0
 10
72.863205429600001
 20
-297.99531250000001
 30
0.0
 11
72.863205429600001
 21
-242.82864646909999
 31
0.0
  0
LINE
  5
1B4
  8
0
 62
     0
 10
72.863205429600001
 20
-297.99531250000001
 30
0.0
 11
72.863205429600001
 21
-285.1619785309
 31
0.0
  0
LINE
  5
1B5
  8
0
 62
     0
 10
72.863205429600001
 20
-229.99531250000001
 30
0.0
 11
72.863205429600001
 21
-242.82864646909999
 31
0.0
  0
LINE
  5
1B6
  8
0
 62
     0
 10
72.863205429600001
 20
-229.99531250000001
 30
0.0
 11
72.863205429600001
 21
-285.1619785309
 31
0.0
  0
LINE
  5
1B7
  8
0
 62
     0
 10
72.863205429600001
 20
-229.99531250000001
 30
0.0
 11
72.863205429600001
 21
-254.99531250000001
 31
0.0
  0
SOLID
  5
1B8
  8
0
 62
     0
 10
72.863205429600001
 20
-229.99531250000001
 30
0.0
 11
75.451395985100007
 21
-239.65457038880001
 31
0.0
 12
70.275014873999993
 22
-239.65457038880001
 32
0.0
 13
72.863205429600001
 23
-237.23975591659999
 33
0.0
  0
LINE
  5
1B9
  8
0
 62
     0
 10
72.863205429600001
 20
-297.99531250000001
 30
0.0
 11
72.863205429600001
 21
-272.99531250000001
 31
0.0
  0
SOLID
  5
1BA
  8
0
 62
     0
 10
72.863205429600001
 20
-297.99531250000001
 30
0.0
 11
70.275014873999993
 21
-288.33605461119998
 31
0.0
 12
75.451395985100007
 22
-288.33605461119998
 32
0.0
 13
72.863205429600001
 23
-290.7508690834
 33
0.0
  0
ENDBLK
  5
1BB
  8
0
  0
BLOCK
  8
0
  2
*D36
 70
     1
 10
0.0
 20
0.0
 30
0.0
  3
*D36
  1

  0
TEXT
  5
1C6
  8
0
 62
     0
 10
169.56953134540001
 20
273.10781297680001
 30
0.0
 40
17.9916661263
  1
640
 50
90.0
  0
LINE
  5
1C7
  8
0
 62
     0
 10
16.748437500000001
 20
-31.017187499999999
 30
0.0
 11
182.74453124999999
 21
-31.017187499999999
 31
0.0
  0
LINE
  5
1C8
  8
0
 62
     0
 10
16.748437500000001
 20
608.98281250000002
 30
0.0
 11
182.74453124999999
 21
608.98281250000002
 31
0.0
  0
LINE
  5
1C9
  8
0
 62
     0
 10
177.74453124999999
 20
-31.017187499999999
 30
0.0
 11
177.74453124999999
 21
315.44114503859998
 31
0.0
  0
LINE
  5
1CA
  8
0
 62
     0
 10
177.74453124999999
 20
-31.017187499999999
 30
0.0
 11
177.74453124999999
 21
262.5244799614
 31
0.0
  0
LINE
  5
1CB
  8
0
 62
     0
 10
177.74453124999999
 20
608.98281250000002
 30
0.0
 11
177.74453124999999
 21
315.44114503859998
 31
0.0
  0
LINE
  5
1CC
  8
0
 62
     0
 10
177.74453124999999
 20
608.98281250000002
 30
0.0
 11
177.74453124999999
 21
262.5244799614
 31
0.0
  0
LINE
  5
1CD
  8
0
 62
     0
 10
177.74453124999999
 20
608.98281250000002
 30
0.0
 11
177.74453124999999
 21
583.98281250000002
 31
0.0
  0
SOLID
  5
1CE
  8
0
 62
     0
 10
177.74453124999999
 20
608.98281250000002
 30
0.0
 11
180.33272180559999
 21
599.32355461120005
 31
0.0
 12
175.1563406944
 22
599.32355461120005
 32
0.0
 13
177.74453124999999
 23
601.73836908340002
 33
0.0
  0
LINE
  5
1CF
  8
0
 62
     0
 10
177.74453124999999
 20
-31.017187499999999
 30
0.0
 11
177.74453124999999
 21
-6.0171875000000004
 31
0.0
  0
SOLID
  5
1D0
  8
0
 62
     0
 10
177.74453124999999
 20
-31.017187499999999
 30
0.0
 11
175.1563406944
 21
-21.357929611199999
 31
0.0
 12
180.33272180559999
 22
-21.357929611199999
 32
0.0
 13
177.74453124999999
 23
-23.772744083399999
 33
0.0
  0
ENDBLK
  5
1D1
  8
0
  0
BLOCK
  8
0
  2
*D37
 70
     1
 10
0.0
 20
0.0
 30
0.0
  3
*D37
  1

  0
TEXT
  5
1D5
  8
0
 62
     0
 10
-427.28710927959992
 20
-276.07864551540001
 30
0.0
 40
17.9916661263
  1
65
 50
90.0
  0
LINE
  5
1D6
  8
0
 62
     0
 10
-467.11210937499999
 20
-297.99531250000001
 30
0.0
 11
-414.11210937499987
 21
-297.99531250000001
 31
0.0
  0
LINE
  5
1D7
  8
0
 62
     0
 10
-467.11210937499999
 20
-232.99531250000001
 30
0.0
 11
-414.11210937499987
 21
-232.99531250000001
 31
0.0
  0
LINE
  5
1D8
  8
0
 62
     0
 10
-419.11210937499987
 20
-297.99531250000001
 30
0.0
 11
-419.11210937499987
 21
-244.32864646909999
 31
0.0
  0
LINE
  5
1D9
  8
0
 62
     0
 10
-419.11210937499987
 20
-297.99531250000001
 30
0.0
 11
-419.11210937499987
 21
-286.6619785309
 31
0.0
  0
LINE
  5
1DA
  8
0
 62
     0
 10
-419.11210937499987
 20
-232.99531250000001
 30
0.0
 11
-419.11210937499987
 21
-244.32864646909999
 31
0.0
  0
LINE
  5
1DB
  8
0
 62
     0
 10
-419.11210937499987
 20
-232.99531250000001
 30
0.0
 11
-419.11210937499987
 21
-286.6619785309
 31
0.0
  0
LINE
  5
1DC
  8
0
 62
     0
 10
-419.11210937499987
 20
-232.99531250000001
 30
0.0
 11
-419.11210937499987
 21
-257.99531250000001
 31
0.0
  0
SOLID
  5
1DD
  8
0
 62
     0
 10
-419.11210937499987
 20
-232.99531250000001
 30
0.0
 11
-416.52391881940002
 21
-242.65457038880001
 31
0.0
 12
-421.70029993059978
 22
-242.65457038880001
 32
0.0
 13
-419.11210937499987
 23
-240.23975591659999
 33
0.0
  0
LINE
  5
1DE
  8
0
 62
     0
 10
-419.11210937499987
 20
-297.99531250000001
 30
0.0
 11
-419.11210937499987
 21
-272.99531250000001
 31
0.0
  0
SOLID
  5
1DF
  8
0
 62
     0
 10
-419.11210937499987
 20
-297.99531250000001
 30
0.0
 11
-421.70029993059978
 21
-288.33605461119998
 31
0.0
 12
-416.52391881940002
 22
-288.33605461119998
 32
0.0
 13
-419.11210937499987
 23
-290.7508690834
 33
0.0
  0
ENDBLK
  5
1E0
  8
0
  0
BLOCK
  8
0
  2
CLUMP15
 70
     0
 10
0.0
 20
0.0
 30
0.0
  3
CLUMP15
  1

  0
LINE
  5
1E7
  8
┌▓È_1
 62
     5
 10
-775.25156249999998
 20
-231.49531250000001
 30
0.0
 11
-775.25156249999998
 21
-297.1953125
 31
0.0
  0
LINE
  5
1E8
  8
┌▓È_1
 62
     5
 10
-715.25156249999975
 20
-232.99531250000001
 30
0.0
 11
-715.25156249999975
 21
-297.99531250000001
 31
0.0
  0
LINE
  5
1E9
  8
┌▓È_1
 62
     5
 10
-715.25156249999975
 20
-232.99531250000001
 30
0.0
 11
-715.25156249999975
 21
-297.99531250000001
 31
0.0
  0
ARC
  5
1EA
  8
┌▓È_1
 62
     5
 10
-774.45156250000002
 20
-297.1953125
 30
0.0
 40
0.8
 50
180.0
 51
270.0
  0
LINE
  5
1EB
  8
┌▓È_1
 62
     5
 10
-715.25156249999975
 20
-297.99531250000001
 30
0.0
 11
-774.45156250000002
 21
-297.99531250000001
 31
0.0
  0
LINE
  5
1EC
  8
┌▓È_1
 62
     5
 10
-713.25156249999986
 20
-232.99531250000001
 30
0.0
 11
-713.25156249999986
 21
-232.49531250000001
 31
0.0
  0
LINE
  5
1ED
  8
┌▓È_1
 62
     5
 10
-773.75156249999998
 20
-229.99531250000001
 30
0.0
 11
-717.25156249999986
 21
-229.99531250000001
 31
0.0
  0
LINE
  5
1EE
  8
┌▓È_1
 62
     5
 10
-713.25156249999986
 20
-232.49531250000001
 30
0.0
 11
-717.25156249999986
 21
-229.99531250000001
 31
0.0
  0
ARC
  5
1EF
  8
┌▓È_1
 62
     5
 10
-773.75156249999998
 20
-231.49531250000001
 30
0.0
 40
1.5
 50
90.0
 51
180.0
  0
LINE
  5
1F0
  8
┌▓È_1
 62
     5
 10
-715.25156249999975
 20
-232.99531250000001
 30
0.0
 11
-713.25156249999986
 21
-232.99531250000001
 31
0.0
  0
ENDBLK
  5
1F1
  8
0
  0
BLOCK
  8
0
  2
CLUMP16
 70
     0
 10
0.0
 20
0.0
 30
0.0
  3
CLUMP16
  1

  0
LINE
  5
1F5
  8
┌▓È_1
 62
     5
 10
23.663205429600001
 20
-231.49531250000001
 30
0.0
 11
23.663205429600001
 21
-297.1953125
 31
0.0
  0
LINE
  5
1F6
  8
┌▓È_1
 62
     5
 10
-36.336794570400002
 20
-232.99531250000001
 30
0.0
 11
-36.336794570400002
 21
-297.99531250000001
 31
0.0
  0
LINE
  5
1F7
  8
┌▓È_1
 62
     5
 10
-36.336794570400002
 20
-232.99531250000001
 30
0.0
 11
-36.336794570400002
 21
-297.99531250000001
 31
0.0
  0
ARC
  5
1F8
  8
┌▓È_1
 62
     5
 10
22.863205429600001
 20
-297.1953125
 30
0.0
 40
0.8
 50
270.0
 51
0.0
  0
LINE
  5
1F9
  8
┌▓È_1
 62
     5
 10
-36.336794570400002
 20
-297.99531250000001
 30
0.0
 11
22.863205429600001
 21
-297.99531250000001
 31
0.0
  0
LINE
  5
1FA
  8
┌▓È_1
 62
     5
 10
-38.336794570400002
 20
-232.99531250000001
 30
0.0
 11
-38.336794570400002
 21
-232.49531250000001
 31
0.0
  0
LINE
  5
1FB
  8
┌▓È_1
 62
     5
 10
22.163205429600001
 20
-229.99531250000001
 30
0.0
 11
-34.336794570400002
 21
-229.99531250000001
 31
0.0
  0
LINE
  5
1FC
  8
┌▓È_1
 62
     5
 10
-38.336794570400002
 20
-232.49531250000001
 30
0.0
 11
-34.336794570400002
 21
-229.99531250000001
 31
0.0
  0
ARC
  5
1FD
  8
┌▓È_1
 62
     5
 10
22.163205429600001
 20
-231.49531250000001
 30
0.0
 40
1.5
 50
0.0
 51
90.0
  0
LINE
  5
1FE
  8
┌▓È_1
 62
     5
 10
-36.336794570400002
 20
-232.99531250000001
 30
0.0
 11
-38.336794570400002
 21
-232.99531250000001
 31
0.0
  0
ENDBLK
  5
1FF
  8
0
  0
BLOCK
  8
0
  2
CLUMP17
 70
     0
 10
0.0
 20
0.0
 30
0.0
  3
CLUMP17
  1

  0
LINE
  5
203
  8
┌▓È_1
  6
BORDER
 62
     3
 10
-98.251562516000007
 20
-296.66838411459997
 30
0.0
 11
-98.251562527299996
 21
-424.50794985879992
 31
0.0
  0
INSERT
  5
205
  8
┌▓È_1
 62
     5
  2
CLUMP18
 10
0.0
 20
0.0
 30
0.0
  0
ENDBLK
  5
22A
  8
0
  0
BLOCK
  8
0
  2
CLUMP18
 70
     0
 10
0.0
 20
0.0
 30
0.0
  3
CLUMP18
  1

  0
ARC
  5
207
  8
┌▓È_1
 62
     5
 10
-24.751562517100002
 20
-307.29531250000002
 30
0.0
 40
0.5
 50
0.0
 51
90.0
  0
ARC
  5
208
  8
┌▓È_1
 62
     5
 10
-36.2515625148
 20
-312.79531250000002
 30
0.0
 40
2.0
 50
90.0
 51
180.0
  0
LINE
  5
209
  8
┌▓È_1
 62
     5
 10
-98.251562516900023
 20
-306.79531250000002
 30
0.0
 11
-167.50156274330001
 21
-306.79531250000002
 31
0.0
  0
ARC
  5
20A
  8
┌▓È_1
 62
     5
 10
-171.75156251710001
 20
-310.29531250000002
 30
0.0
 40
0.5
 50
180.0
 51
270.00001507040002
  0
ARC
  5
20B
  8
┌▓È_1
 62
     5
 10
-160.25156251480001
 20
-312.79531250000002
 30
0.0
 40
2.0
 50
0.0
 51
90.0
  0
ARC
  5
20C
  8
┌▓È_1
 62
     5
 10
-171.75156251710001
 20
-307.29531250000002
 30
0.0
 40
0.5
 50
90.0
 51
180.0
  0
LINE
  5
20D
  8
┌▓È_1
 62
     5
 10
-172.25156251710001
 20
-307.29531250000002
 30
0.0
 11
-172.25156251710001
 21
-310.29531250000002
 31
0.0
  0
LINE
  5
20E
  8
┌▓È_1
 62
     5
 10
-158.25156251480001
 20
-312.79531250000002
 30
0.0
 11
-158.25156251480001
 21
-323.79531250000002
 31
0.0
  0
LINE
  5
20F
  8
┌▓È_1
 62
     5
 10
-158.25156251480001
 20
-323.79531250000002
 30
0.0
 11
-155.68454969289999
 21
-330.98294841149999
 31
0.0
  0
ARC
  5
210
  8
┌▓È_1
 62
     5
 10
-148.0924936088999
 20
-398.79531250000002
 30
0.0
 40
7.0
 50
180.5007862073
 51
270.00000279020003
  0
LINE
  5
211
  8
┌▓È_1
 62
     5
 10
-155.68454969289999
 20
-330.98294841149999
 30
0.0
 11
-155.09222623150001
 21
-398.8564942982
 31
0.0
  0
LINE
  5
212
  8
┌▓È_1
 62
     5
 10
-40.7515621776
 20
-398.79531246490001
 30
0.0
 11
-19.661910648900001
 21
-393.81048571909997
 31
0.0
  0
LINE
  5
213
  8
┌▓È_1
 62
     5
 10
-35.309154841999998
 20
-326.49769368630001
 30
0.0
 11
2.3731230111000001
 21
-327.22123038389998
 31
0.0
  0
LINE
  5
214
  8
┌▓È_1
 62
     5
 10
-38.2515625148
 20
-312.79531250000002
 30
0.0
 11
-38.2515625148
 21
-323.49824654989999
 31
0.0
  0
ARC
  5
215
  8
┌▓È_1
 62
     5
 10
-35.2515625148
 20
-323.49824654989999
 30
0.0
 40
3.0
 50
180.0
 51
268.89999999999998
  0
POLYLINE
  5
216
  8
┌▓È_1
 62
     5
 66
     1
 10
0.0
 20
0.0
 30
0.0
 70
     8
  0
VERTEX
  5
586
  8
┌▓È_1
 62
     5
 10
-41.401499999999999
 20
-393.28899999999999
 30
0.0
 70
    32
  0
VERTEX
  5
587
  8
┌▓È_1
 62
     5
 10
-41.533099999999997
 20
-393.28399999999999
 30
0.0
 70
    32
  0
VERTEX
  5
588
  8
┌▓È_1
 62
     5
 10
-41.664499999999997
 20
-393.274
 30
0.0
 70
    32
  0
VERTEX
  5
589
  8
┌▓È_1
 62
     5
 10
-41.795900000000003
 20
-393.25900000000001
 30
0.0
 70
    32
  0
VERTEX
  5
58A
  8
┌▓È_1
 62
     5
 10
-41.927
 20
-393.23899999999998
 30
0.0
 70
    32
  0
VERTEX
  5
58B
  8
┌▓È_1
 62
     5
 10
-42.057999999999993
 20
-393.214
 30
0.0
 70
    32
  0
VERTEX
  5
58C
  8
┌▓È_1
 62
     5
 10
-42.188800000000001
 20
-393.18400000000003
 30
0.0
 70
    32
  0
VERTEX
  5
58D
  8
┌▓È_1
 62
     5
 10
-42.319400000000002
 20
-393.149
 30
0.0
 70
    32
  0
VERTEX
  5
58E
  8
┌▓È_1
 62
     5
 10
-42.449800000000003
 20
-393.10900000000009
 30
0.0
 70
    32
  0
VERTEX
  5
58F
  8
┌▓È_1
 62
     5
 10
-42.579799999999992
 20
-393.06400000000002
 30
0.0
 70
    32
  0
VERTEX
  5
590
  8
┌▓È_1
 62
     5
 10
-42.709699999999998
 20
-393.01400000000001
 30
0.0
 70
    32
  0
VERTEX
  5
591
  8
┌▓È_1
 62
     5
 10
-42.839199999999998
 20
-392.959
 30
0.0
 70
    32
  0
VERTEX
  5
592
  8
┌▓È_1
 62
     5
 10
-42.968400000000003
 20
-392.899
 30
0.0
 70
    32
  0
VERTEX
  5
593
  8
┌▓È_1
 62
     5
 10
-43.097299999999997
 20
-392.834
 30
0.0
 70
    32
  0
VERTEX
  5
594
  8
┌▓È_1
 62
     5
 10
-43.225900000000003
 20
-392.76499999999999
 30
0.0
 70
    32
  0
VERTEX
  5
595
  8
┌▓È_1
 62
     5
 10
-43.353999999999992
 20
-392.69
 30
0.0
 70
    32
  0
VERTEX
  5
596
  8
┌▓È_1
 62
     5
 10
-43.4818
 20
-392.61000000000001
 30
0.0
 70
    32
  0
VERTEX
  5
597
  8
┌▓È_1
 62
     5
 10
-43.609200000000001
 20
-392.52600000000001
 30
0.0
 70
    32
  0
VERTEX
  5
598
  8
┌▓È_1
 62
     5
 10
-43.73619999999999
 20
-392.43700000000001
 30
0.0
 70
    32
  0
VERTEX
  5
599
  8
┌▓È_1
 62
     5
 10
-43.86269999999999
 20
-392.34199999999998
 30
0.0
 70
    32
  0
VERTEX
  5
59A
  8
┌▓È_1
 62
     5
 10
-43.988700000000001
 20
-392.24300000000011
 30
0.0
 70
    32
  0
VERTEX
  5
59B
  8
┌▓È_1
 62
     5
 10
-44.1143
 20
-392.13900000000001
 30
0.0
 70
    32
  0
VERTEX
  5
59C
  8
┌▓È_1
 62
     5
 10
-44.2393
 20
-392.02999999999997
 30
0.0
 70
    32
  0
VERTEX
  5
59D
  8
┌▓È_1
 62
     5
 10
-44.363900000000001
 20
-391.91699999999997
 30
0.0
 70
    32
  0
VERTEX
  5
59E
  8
┌▓È_1
 62
     5
 10
-44.487900000000003
 20
-391.798
 30
0.0
 70
    32
  0
VERTEX
  5
59F
  8
┌▓È_1
 62
     5
 10
-44.611299999999993
 20
-391.67500000000001
 30
0.0
 70
    32
  0
VERTEX
  5
5A0
  8
┌▓È_1
 62
     5
 10
-44.734199999999987
 20
-391.54700000000003
 30
0.0
 70
    32
  0
VERTEX
  5
5A1
  8
┌▓È_1
 62
     5
 10
-44.85649999999999
 20
-391.41399999999999
 30
0.0
 70
    32
  0
VERTEX
  5
5A2
  8
┌▓È_1
 62
     5
 10
-44.978099999999998
 20
-391.27699999999999
 30
0.0
 70
    32
  0
VERTEX
  5
5A3
  8
┌▓È_1
 62
     5
 10
-45.099200000000003
 20
-391.13499999999999
 30
0.0
 70
    32
  0
VERTEX
  5
5A4
  8
┌▓È_1
 62
     5
 10
-45.219599999999993
 20
-390.98800000000011
 30
0.0
 70
    32
  0
VERTEX
  5
5A5
  8
┌▓È_1
 62
     5
 10
-45.339300000000001
 20
-390.83699999999999
 30
0.0
 70
    32
  0
VERTEX
  5
5A6
  8
┌▓È_1
 62
     5
 10
-45.458300000000001
 20
-390.68000000000001
 30
0.0
 70
    32
  0
VERTEX
  5
5A7
  8
┌▓È_1
 62
     5
 10
-45.576599999999999
 20
-390.51999999999998
 30
0.0
 70
    32
  0
VERTEX
  5
5A8
  8
┌▓È_1
 62
     5
 10
-45.694299999999991
 20
-390.35399999999998
 30
0.0
 70
    32
  0
VERTEX
  5
5A9
  8
┌▓È_1
 62
     5
 10
-45.811100000000003
 20
-390.185
 30
0.0
 70
    32
  0
VERTEX
  5
5AA
  8
┌▓È_1
 62
     5
 10
-45.927300000000002
 20
-390.00999999999999
 30
0.0
 70
    32
  0
VERTEX
  5
5AB
  8
┌▓È_1
 62
     5
 10
-46.0426
 20
-389.83100000000002
 30
0.0
 70
    32
  0
VERTEX
  5
5AC
  8
┌▓È_1
 62
     5
 10
-46.157200000000003
 20
-389.64800000000002
 30
0.0
 70
    32
  0
VERTEX
  5
5AD
  8
┌▓È_1
 62
     5
 10
-46.27089999999999
 20
-389.45999999999998
 30
0.0
 70
    32
  0
VERTEX
  5
5AE
  8
┌▓È_1
 62
     5
 10
-46.383800000000001
 20
-389.26799999999997
 30
0.0
 70
    32
  0
VERTEX
  5
5AF
  8
┌▓È_1
 62
     5
 10
-46.495899999999992
 20
-389.07100000000003
 30
0.0
 70
    32
  0
VERTEX
  5
5B0
  8
┌▓È_1
 62
     5
 10
-46.607100000000003
 20
-388.87
 30
0.0
 70
    32
  0
VERTEX
  5
5B1
  8
┌▓È_1
 62
     5
 10
-46.717500000000001
 20
-388.66399999999999
 30
0.0
 70
    32
  0
VERTEX
  5
5B2
  8
┌▓È_1
 62
     5
 10
-46.826999999999991
 20
-388.45400000000001
 30
0.0
 70
    32
  0
VERTEX
  5
5B3
  8
┌▓È_1
 62
     5
 10
-46.935499999999998
 20
-388.24000000000001
 30
0.0
 70
    32
  0
VERTEX
  5
5B4
  8
┌▓È_1
 62
     5
 10
-47.043199999999999
 20
-388.02199999999999
 30
0.0
 70
    32
  0
VERTEX
  5
5B5
  8
┌▓È_1
 62
     5
 10
-47.149900000000002
 20
-387.80000000000001
 30
0.0
 70
    32
  0
VERTEX
  5
5B6
  8
┌▓È_1
 62
     5
 10
-47.255600000000001
 20
-387.57299999999998
 30
0.0
 70
    32
  0
VERTEX
  5
5B7
  8
┌▓È_1
 62
     5
 10
-47.360399999999998
 20
-387.34199999999998
 30
0.0
 70
    32
  0
VERTEX
  5
5B8
  8
┌▓È_1
 62
     5
 10
-47.464199999999991
 20
-387.10700000000003
 30
0.0
 70
    32
  0
VERTEX
  5
5B9
  8
┌▓È_1
 62
     5
 10
-47.56689999999999
 20
-386.86800000000011
 30
0.0
 70
    32
  0
VERTEX
  5
5BA
  8
┌▓È_1
 62
     5
 10
-47.668699999999987
 20
-386.625
 30
0.0
 70
    32
  0
VERTEX
  5
5BB
  8
┌▓È_1
 62
     5
 10
-47.76939999999999
 20
-386.3780000000001
 30
0.0
 70
    32
  0
VERTEX
  5
5BC
  8
┌▓È_1
 62
     5
 10
-47.869100000000003
 20
-386.12700000000001
 30
0.0
 70
    32
  0
VERTEX
  5
5BD
  8
┌▓È_1
 62
     5
 10
-47.967700000000001
 20
-385.8719999999999
 30
0.0
 70
    32
  0
VERTEX
  5
5BE
  8
┌▓È_1
 62
     5
 10
-48.065300000000001
 20
-385.61300000000011
 30
0.0
 70
    32
  0
VERTEX
  5
5BF
  8
┌▓È_1
 62
     5
 10
-48.161700000000003
 20
-385.35000000000002
 30
0.0
 70
    32
  0
VERTEX
  5
5C0
  8
┌▓È_1
 62
     5
 10
-48.257100000000001
 20
-385.084
 30
0.0
 70
    32
  0
VERTEX
  5
5C1
  8
┌▓È_1
 62
     5
 10
-48.351300000000002
 20
-384.8130000000001
 30
0.0
 70
    32
  0
VERTEX
  5
5C2
  8
┌▓È_1
 62
     5
 10
-48.444400000000002
 20
-384.53899999999999
 30
0.0
 70
    32
  0
VERTEX
  5
5C3
  8
┌▓È_1
 62
     5
 10
-48.53629999999999
 20
-384.26100000000002
 30
0.0
 70
    32
  0
VERTEX
  5
5C4
  8
┌▓È_1
 62
     5
 10
-48.627099999999992
 20
-383.98000000000002
 30
0.0
 70
    32
  0
VERTEX
  5
5C5
  8
┌▓È_1
 62
     5
 10
-48.716700000000003
 20
-383.69499999999999
 30
0.0
 70
    32
  0
VERTEX
  5
5C6
  8
┌▓È_1
 62
     5
 10
-48.80510000000001
 20
-383.40600000000001
 30
0.0
 70
    32
  0
VERTEX
  5
5C7
  8
┌▓È_1
 62
     5
 10
-48.892400000000002
 20
-383.11399999999998
 30
0.0
 70
    32
  0
VERTEX
  5
5C8
  8
┌▓È_1
 62
     5
 10
-48.978400000000001
 20
-382.8180000000001
 30
0.0
 70
    32
  0
VERTEX
  5
5C9
  8
┌▓È_1
 62
     5
 10
-49.063099999999999
 20
-382.51900000000001
 30
0.0
 70
    32
  0
VERTEX
  5
5CA
  8
┌▓È_1
 62
     5
 10
-49.146700000000003
 20
-382.21699999999998
 30
0.0
 70
    32
  0
VERTEX
  5
5CB
  8
┌▓È_1
 62
     5
 10
-49.228900000000003
 20
-381.911
 30
0.0
 70
    32
  0
VERTEX
  5
5CC
  8
┌▓È_1
 62
     5
 10
-49.309899999999999
 20
-381.60199999999998
 30
0.0
 70
    32
  0
VERTEX
  5
5CD
  8
┌▓È_1
 62
     5
 10
-49.389699999999998
 20
-381.29000000000002
 30
0.0
 70
    32
  0
VERTEX
  5
5CE
  8
┌▓È_1
 62
     5
 10
-49.4681
 20
-380.97399999999999
 30
0.0
 70
    32
  0
VERTEX
  5
5CF
  8
┌▓È_1
 62
     5
 10
-49.545299999999997
 20
-380.65499999999997
 30
0.0
 70
    32
  0
VERTEX
  5
5D0
  8
┌▓È_1
 62
     5
 10
-49.621099999999998
 20
-380.33300000000003
 30
0.0
 70
    32
  0
VERTEX
  5
5D1
  8
┌▓È_1
 62
     5
 10
-49.695599999999999
 20
-380.00799999999998
 30
0.0
 70
    32
  0
VERTEX
  5
5D2
  8
┌▓È_1
 62
     5
 10
-49.768799999999999
 20
-379.68000000000001
 30
0.0
 70
    32
  0
VERTEX
  5
5D3
  8
┌▓È_1
 62
     5
 10
-49.840600000000002
 20
-379.34899999999999
 30
0.0
 70
    32
  0
VERTEX
  5
5D4
  8
┌▓È_1
 62
     5
 10
-49.91109999999999
 20
-379.01600000000002
 30
0.0
 70
    32
  0
VERTEX
  5
5D5
  8
┌▓È_1
 62
     5
 10
-49.980200000000004
 20
-378.67899999999997
 30
0.0
 70
    32
  0
VERTEX
  5
5D6
  8
┌▓È_1
 62
     5
 10
-50.047899999999991
 20
-378.339
 30
0.0
 70
    32
  0
VERTEX
  5
5D7
  8
┌▓È_1
 62
     5
 10
-50.114199999999997
 20
-377.99700000000001
 30
0.0
 70
    32
  0
VERTEX
  5
5D8
  8
┌▓È_1
 62
     5
 10
-50.179099999999998
 20
-377.65199999999999
 30
0.0
 70
    32
  0
VERTEX
  5
5D9
  8
┌▓È_1
 62
     5
 10
-50.242699999999999
 20
-377.30399999999997
 30
0.0
 70
    32
  0
VERTEX
  5
5DA
  8
┌▓È_1
 62
     5
 10
-50.3048
 20
-376.95400000000001
 30
0.0
 70
    32
  0
VERTEX
  5
5DB
  8
┌▓È_1
 62
     5
 10
-50.365499999999997
 20
-376.601
 30
0.0
 70
    32
  0
VERTEX
  5
5DC
  8
┌▓È_1
 62
     5
 10
-50.424700000000001
 20
-376.24599999999998
 30
0.0
 70
    32
  0
VERTEX
  5
5DD
  8
┌▓È_1
 62
     5
 10
-50.482500000000002
 20
-375.88799999999998
 30
0.0
 70
    32
  0
VERTEX
  5
5DE
  8
┌▓È_1
 62
     5
 10
-50.538899999999991
 20
-375.52699999999999
 30
0.0
 70
    32
  0
VERTEX
  5
5DF
  8
┌▓È_1
 62
     5
 10
-50.593800000000002
 20
-375.16500000000002
 30
0.0
 70
    32
  0
VERTEX
  5
5E0
  8
┌▓È_1
 62
     5
 10
-50.647199999999998
 20
-374.80000000000001
 30
0.0
 70
    32
  0
VERTEX
  5
5E1
  8
┌▓È_1
 62
     5
 10
-50.699100000000001
 20
-374.43300000000011
 30
0.0
 70
    32
  0
VERTEX
  5
5E2
  8
┌▓È_1
 62
     5
 10
-50.749600000000001
 20
-374.06299999999999
 30
0.0
 70
    32
  0
VERTEX
  5
5E3
  8
┌▓È_1
 62
     5
 10
-50.7986
 20
-373.69200000000001
 30
0.0
 70
    32
  0
VERTEX
  5
5E4
  8
┌▓È_1
 62
     5
 10
-50.845999999999997
 20
-373.31799999999998
 30
0.0
 70
    32
  0
VERTEX
  5
5E5
  8
┌▓È_1
 62
     5
 10
-50.892000000000003
 20
-372.9430000000001
 30
0.0
 70
    32
  0
VERTEX
  5
5E6
  8
┌▓È_1
 62
     5
 10
-50.936399999999999
 20
-372.565
 30
0.0
 70
    32
  0
VERTEX
  5
5E7
  8
┌▓È_1
 62
     5
 10
-50.979300000000002
 20
-372.18599999999998
 30
0.0
 70
    32
  0
VERTEX
  5
5E8
  8
┌▓È_1
 62
     5
 10
-51.020699999999998
 20
-371.80500000000001
 30
0.0
 70
    32
  0
VERTEX
  5
5E9
  8
┌▓È_1
 62
     5
 10
-51.060600000000001
 20
-371.42099999999999
 30
0.0
 70
    32
  0
VERTEX
  5
5EA
  8
┌▓È_1
 62
     5
 10
-51.0989
 20
-371.03699999999998
 30
0.0
 70
    32
  0
VERTEX
  5
5EB
  8
┌▓È_1
 62
     5
 10
-51.1357
 20
-370.64999999999998
 30
0.0
 70
    32
  0
VERTEX
  5
5EC
  8
┌▓È_1
 62
     5
 10
-51.17090000000001
 20
-370.262
 30
0.0
 70
    32
  0
VERTEX
  5
5ED
  8
┌▓È_1
 62
     5
 10
-51.204599999999999
 20
-369.87200000000001
 30
0.0
 70
    32
  0
VERTEX
  5
5EE
  8
┌▓È_1
 62
     5
 10
-51.236699999999999
 20
-369.48099999999999
 30
0.0
 70
    32
  0
VERTEX
  5
5EF
  8
┌▓È_1
 62
     5
 10
-51.267299999999999
 20
-369.08800000000002
 30
0.0
 70
    32
  0
VERTEX
  5
5F0
  8
┌▓È_1
 62
     5
 10
-51.296199999999999
 20
-368.69400000000002
 30
0.0
 70
    32
  0
VERTEX
  5
5F1
  8
┌▓È_1
 62
     5
 10
-51.323599999999999
 20
-368.29899999999998
 30
0.0
 70
    32
  0
VERTEX
  5
5F2
  8
┌▓È_1
 62
     5
 10
-51.349400000000003
 20
-367.90199999999999
 30
0.0
 70
    32
  0
VERTEX
  5
5F3
  8
┌▓È_1
 62
     5
 10
-51.373699999999999
 20
-367.505
 30
0.0
 70
    32
  0
VERTEX
  5
5F4
  8
┌▓È_1
 62
     5
 10
-51.396299999999997
 20
-367.10599999999999
 30
0.0
 70
    32
  0
VERTEX
  5
5F5
  8
┌▓È_1
 62
     5
 10
-51.417400000000001
 20
-366.70600000000002
 30
0.0
 70
    32
  0
VERTEX
  5
5F6
  8
┌▓È_1
 62
     5
 10
-51.436900000000001
 20
-366.30399999999997
 30
0.0
 70
    32
  0
VERTEX
  5
5F7
  8
┌▓È_1
 62
     5
 10
-51.454799999999999
 20
-365.90199999999999
 30
0.0
 70
    32
  0
VERTEX
  5
5F8
  8
┌▓È_1
 62
     5
 10
-51.470999999999997
 20
-365.49900000000002
 30
0.0
 70
    32
  0
VERTEX
  5
5F9
  8
┌▓È_1
 62
     5
 10
-51.485700000000001
 20
-365.09500000000003
 30
0.0
 70
    32
  0
VERTEX
  5
5FA
  8
┌▓È_1
 62
     5
 10
-51.498800000000003
 20
-364.69099999999997
 30
0.0
 70
    32
  0
VERTEX
  5
5FB
  8
┌▓È_1
 62
     5
 10
-51.51019999999999
 20
-364.28500000000003
 30
0.0
 70
    32
  0
VERTEX
  5
5FC
  8
┌▓È_1
 62
     5
 10
-51.520099999999999
 20
-363.87900000000002
 30
0.0
 70
    32
  0
VERTEX
  5
5FD
  8
┌▓È_1
 62
     5
 10
-51.528399999999998
 20
-363.47300000000001
 30
0.0
 70
    32
  0
VERTEX
  5
5FE
  8
┌▓È_1
 62
     5
 10
-51.534999999999997
 20
-363.065
 30
0.0
 70
    32
  0
VERTEX
  5
5FF
  8
┌▓È_1
 62
     5
 10
-51.539999999999992
 20
-362.65800000000002
 30
0.0
 70
    32
  0
VERTEX
  5
600
  8
┌▓È_1
 62
     5
 10
-51.543500000000002
 20
-362.25
 30
0.0
 70
    32
  0
VERTEX
  5
601
  8
┌▓È_1
 62
     5
 10
-51.545299999999997
 20
-361.84100000000001
 30
0.0
 70
    32
  0
VERTEX
  5
602
  8
┌▓È_1
 62
     5
 10
-51.545499999999997
 20
-361.43200000000002
 30
0.0
 70
    32
  0
VERTEX
  5
603
  8
┌▓È_1
 62
     5
 10
-51.5441
 20
-361.02300000000002
 30
0.0
 70
    32
  0
VERTEX
  5
604
  8
┌▓È_1
 62
     5
 10
-51.5411
 20
-360.61399999999998
 30
0.0
 70
    32
  0
VERTEX
  5
605
  8
┌▓È_1
 62
     5
 10
-51.5364
 20
-360.20499999999998
 30
0.0
 70
    32
  0
VERTEX
  5
606
  8
┌▓È_1
 62
     5
 10
-51.530200000000001
 20
-359.79500000000002
 30
0.0
 70
    32
  0
SEQEND
  5
607
  8
┌▓È_1
 62
     5
  0
POLYLINE
  5
217
  8
┌▓È_1
 62
     5
 66
     1
 10
0.0
 20
0.0
 30
0.0
 70
     8
  0
VERTEX
  5
608
  8
┌▓È_1
 62
     5
 10
-51.476500000000001
 20
-357.79500000000002
 30
0.0
 70
    32
  0
VERTEX
  5
609
  8
┌▓È_1
 62
     5
 10
-51.461300000000001
 20
-357.399
 30
0.0
 70
    32
  0
VERTEX
  5
60A
  8
┌▓È_1
 62
     5
 10
-51.444600000000001
 20
-357.00299999999999
 30
0.0
 70
    32
  0
VERTEX
  5
60B
  8
┌▓È_1
 62
     5
 10
-51.426400000000001
 20
-356.60700000000003
 30
0.0
 70
    32
  0
VERTEX
  5
60C
  8
┌▓È_1
 62
     5
 10
-51.406700000000001
 20
-356.21300000000002
 30
0.0
 70
    32
  0
VERTEX
  5
60D
  8
┌▓È_1
 62
     5
 10
-51.3855
 20
-355.8180000000001
 30
0.0
 70
    32
  0
VERTEX
  5
60E
  8
┌▓È_1
 62
     5
 10
-51.3628
 20
-355.42500000000001
 30
0.0
 70
    32
  0
VERTEX
  5
60F
  8
┌▓È_1
 62
     5
 10
-51.3386
 20
-355.03100000000001
 30
0.0
 70
    32
  0
VERTEX
  5
610
  8
┌▓È_1
 62
     5
 10
-51.313000000000002
 20
-354.63900000000001
 30
0.0
 70
    32
  0
VERTEX
  5
611
  8
┌▓È_1
 62
     5
 10
-51.285800000000002
 20
-354.24700000000001
 30
0.0
 70
    32
  0
VERTEX
  5
612
  8
┌▓È_1
 62
     5
 10
-51.257199999999997
 20
-353.85599999999999
 30
0.0
 70
    32
  0
VERTEX
  5
613
  8
┌▓È_1
 62
     5
 10
-51.2271
 20
-353.46600000000001
 30
0.0
 70
    32
  0
VERTEX
  5
614
  8
┌▓È_1
 62
     5
 10
-51.195500000000003
 20
-353.077
 30
0.0
 70
    32
  0
VERTEX
  5
615
  8
┌▓È_1
 62
     5
 10
-51.162500000000001
 20
-352.68900000000002
 30
0.0
 70
    32
  0
VERTEX
  5
616
  8
┌▓È_1
 62
     5
 10
-51.128
 20
-352.30200000000002
 30
0.0
 70
    32
  0
VERTEX
  5
617
  8
┌▓È_1
 62
     5
 10
-51.091999999999999
 20
-351.91500000000002
 30
0.0
 70
    32
  0
VERTEX
  5
618
  8
┌▓È_1
 62
     5
 10
-51.054600000000001
 20
-351.52999999999997
 30
0.0
 70
    32
  0
VERTEX
  5
619
  8
┌▓È_1
 62
     5
 10
-51.015799999999999
 20
-351.14699999999999
 30
0.0
 70
    32
  0
VERTEX
  5
61A
  8
┌▓È_1
 62
     5
 10
-50.975499999999997
 20
-350.76400000000001
 30
0.0
 70
    32
  0
VERTEX
  5
61B
  8
┌▓È_1
 62
     5
 10
-50.933700000000002
 20
-350.3830000000001
 30
0.0
 70
    32
  0
VERTEX
  5
61C
  8
┌▓È_1
 62
     5
 10
-50.890599999999992
 20
-350.0030000000001
 30
0.0
 70
    32
  0
VERTEX
  5
61D
  8
┌▓È_1
 62
     5
 10
-50.845999999999997
 20
-349.62400000000002
 30
0.0
 70
    32
  0
VERTEX
  5
61E
  8
┌▓È_1
 62
     5
 10
-50.799999999999997
 20
-349.2469999999999
 30
0.0
 70
    32
  0
VERTEX
  5
61F
  8
┌▓È_1
 62
     5
 10
-50.752600000000001
 20
-348.87099999999998
 30
0.0
 70
    32
  0
VERTEX
  5
620
  8
┌▓È_1
 62
     5
 10
-50.703800000000001
 20
-348.49700000000001
 30
0.0
 70
    32
  0
VERTEX
  5
621
  8
┌▓È_1
 62
     5
 10
-50.653599999999997
 20
-348.125
 30
0.0
 70
    32
  0
VERTEX
  5
622
  8
┌▓È_1
 62
     5
 10
-50.601999999999997
 20
-347.75400000000002
 30
0.0
 70
    32
  0
VERTEX
  5
623
  8
┌▓È_1
 62
     5
 10
-50.548999999999992
 20
-347.38499999999999
 30
0.0
 70
    32
  0
VERTEX
  5
624
  8
┌▓È_1
 62
     5
 10
-50.494700000000002
 20
-347.017
 30
0.0
 70
    32
  0
VERTEX
  5
625
  8
┌▓È_1
 62
     5
 10
-50.438899999999997
 20
-346.65199999999999
 30
0.0
 70
    32
  0
VERTEX
  5
626
  8
┌▓È_1
 62
     5
 10
-50.381900000000002
 20
-346.28800000000001
 30
0.0
 70
    32
  0
VERTEX
  5
627
  8
┌▓È_1
 62
     5
 10
-50.323399999999999
 20
-345.92599999999999
 30
0.0
 70
    32
  0
VERTEX
  5
628
  8
┌▓È_1
 62
     5
 10
-50.2637
 20
-345.56599999999997
 30
0.0
 70
    32
  0
VERTEX
  5
629
  8
┌▓È_1
 62
     5
 10
-50.202500000000001
 20
-345.209
 30
0.0
 70
    32
  0
VERTEX
  5
62A
  8
┌▓È_1
 62
     5
 10
-50.14009999999999
 20
-344.85300000000001
 30
0.0
 70
    32
  0
VERTEX
  5
62B
  8
┌▓È_1
 62
     5
 10
-50.0764
 20
-344.49900000000002
 30
0.0
 70
    32
  0
VERTEX
  5
62C
  8
┌▓È_1
 62
     5
 10
-50.011299999999991
 20
-344.14800000000002
 30
0.0
 70
    32
  0
VERTEX
  5
62D
  8
┌▓È_1
 62
     5
 10
-49.94489999999999
 20
-343.798
 30
0.0
 70
    32
  0
VERTEX
  5
62E
  8
┌▓È_1
 62
     5
 10
-49.877299999999991
 20
-343.45099999999991
 30
0.0
 70
    32
  0
VERTEX
  5
62F
  8
┌▓È_1
 62
     5
 10
-49.808300000000003
 20
-343.10700000000003
 30
0.0
 70
    32
  0
VERTEX
  5
630
  8
┌▓È_1
 62
     5
 10
-49.738100000000003
 20
-342.76400000000001
 30
0.0
 70
    32
  0
VERTEX
  5
631
  8
┌▓È_1
 62
     5
 10
-49.666699999999999
 20
-342.42400000000009
 30
0.0
 70
    32
  0
VERTEX
  5
632
  8
┌▓È_1
 62
     5
 10
-49.594000000000001
 20
-342.08699999999999
 30
0.0
 70
    32
  0
VERTEX
  5
633
  8
┌▓È_1
 62
     5
 10
-49.520000000000003
 20
-341.75200000000001
 30
0.0
 70
    32
  0
VERTEX
  5
634
  8
┌▓È_1
 62
     5
 10
-49.444800000000001
 20
-341.42000000000002
 30
0.0
 70
    32
  0
VERTEX
  5
635
  8
┌▓È_1
 62
     5
 10
-49.368400000000001
 20
-341.08999999999997
 30
0.0
 70
    32
  0
VERTEX
  5
636
  8
┌▓È_1
 62
     5
 10
-49.29079999999999
 20
-340.76300000000009
 30
0.0
 70
    32
  0
VERTEX
  5
637
  8
┌▓È_1
 62
     5
 10
-49.212000000000003
 20
-340.4380000000001
 30
0.0
 70
    32
  0
VERTEX
  5
638
  8
┌▓È_1
 62
     5
 10
-49.131999999999991
 20
-340.11599999999999
 30
0.0
 70
    32
  0
VERTEX
  5
639
  8
┌▓È_1
 62
     5
 10
-49.050800000000002
 20
-339.79700000000003
 30
0.0
 70
    32
  0
VERTEX
  5
63A
  8
┌▓È_1
 62
     5
 10
-48.968499999999999
 20
-339.48099999999999
 30
0.0
 70
    32
  0
VERTEX
  5
63B
  8
┌▓È_1
 62
     5
 10
-48.884999999999998
 20
-339.16800000000001
 30
0.0
 70
    32
  0
VERTEX
  5
63C
  8
┌▓È_1
 62
     5
 10
-48.8003
 20
-338.858
 30
0.0
 70
    32
  0
VERTEX
  5
63D
  8
┌▓È_1
 62
     5
 10
-48.71459999999999
 20
-338.55000000000001
 30
0.0
 70
    32
  0
VERTEX
  5
63E
  8
┌▓È_1
 62
     5
 10
-48.627699999999997
 20
-338.24599999999998
 30
0.0
 70
    32
  0
VERTEX
  5
63F
  8
┌▓È_1
 62
     5
 10
-48.539700000000003
 20
-337.94400000000002
 30
0.0
 70
    32
  0
VERTEX
  5
640
  8
┌▓È_1
 62
     5
 10
-48.450600000000001
 20
-337.64600000000002
 30
0.0
 70
    32
  0
VERTEX
  5
641
  8
┌▓È_1
 62
     5
 10
-48.360500000000002
 20
-337.351
 30
0.0
 70
    32
  0
VERTEX
  5
642
  8
┌▓È_1
 62
     5
 10
-48.269199999999998
 20
-337.05900000000003
 30
0.0
 70
    32
  0
VERTEX
  5
643
  8
┌▓È_1
 62
     5
 10
-48.176900000000003
 20
-336.76999999999998
 30
0.0
 70
    32
  0
VERTEX
  5
644
  8
┌▓È_1
 62
     5
 10
-48.083599999999997
 20
-336.48500000000001
 30
0.0
 70
    32
  0
VERTEX
  5
645
  8
┌▓È_1
 62
     5
 10
-47.9893
 20
-336.202
 30
0.0
 70
    32
  0
VERTEX
  5
646
  8
┌▓È_1
 62
     5
 10
-47.893900000000002
 20
-335.923
 30
0.0
 70
    32
  0
VERTEX
  5
647
  8
┌▓È_1
 62
     5
 10
-47.797499999999992
 20
-335.64800000000002
 30
0.0
 70
    32
  0
VERTEX
  5
648
  8
┌▓È_1
 62
     5
 10
-47.700200000000002
 20
-335.37599999999998
 30
0.0
 70
    32
  0
VERTEX
  5
649
  8
┌▓È_1
 62
     5
 10
-47.601799999999997
 20
-335.10700000000003
 30
0.0
 70
    32
  0
VERTEX
  5
64A
  8
┌▓È_1
 62
     5
 10
-47.502499999999998
 20
-334.84199999999998
 30
0.0
 70
    32
  0
VERTEX
  5
64B
  8
┌▓È_1
 62
     5
 10
-47.40229999999999
 20
-334.57999999999998
 30
0.0
 70
    32
  0
VERTEX
  5
64C
  8
┌▓È_1
 62
     5
 10
-47.301099999999991
 20
-334.322
 30
0.0
 70
    32
  0
VERTEX
  5
64D
  8
┌▓È_1
 62
     5
 10
-47.198999999999991
 20
-334.06699999999989
 30
0.0
 70
    32
  0
VERTEX
  5
64E
  8
┌▓È_1
 62
     5
 10
-47.095999999999997
 20
-333.81599999999997
 30
0.0
 70
    32
  0
VERTEX
  5
64F
  8
┌▓È_1
 62
     5
 10
-46.992099999999994
 20
-333.56900000000002
 30
0.0
 70
    32
  0
VERTEX
  5
650
  8
┌▓È_1
 62
     5
 10
-46.8874
 20
-333.32600000000002
 30
0.0
 70
    32
  0
VERTEX
  5
651
  8
┌▓È_1
 62
     5
 10
-46.781799999999997
 20
-333.08600000000001
 30
0.0
 70
    32
  0
VERTEX
  5
652
  8
┌▓È_1
 62
     5
 10
-46.6753
 20
-332.85000000000002
 30
0.0
 70
    32
  0
VERTEX
  5
653
  8
┌▓È_1
 62
     5
 10
-46.567999999999991
 20
-332.61700000000002
 30
0.0
 70
    32
  0
VERTEX
  5
654
  8
┌▓È_1
 62
     5
 10
-46.459899999999998
 20
-332.38900000000001
 30
0.0
 70
    32
  0
VERTEX
  5
655
  8
┌▓È_1
 62
     5
 10
-46.350999999999999
 20
-332.16500000000002
 30
0.0
 70
    32
  0
VERTEX
  5
656
  8
┌▓È_1
 62
     5
 10
-46.241300000000003
 20
-331.94400000000002
 30
0.0
 70
    32
  0
VERTEX
  5
657
  8
┌▓È_1
 62
     5
 10
-46.130800000000001
 20
-331.72699999999998
 30
0.0
 70
    32
  0
VERTEX
  5
658
  8
┌▓È_1
 62
     5
 10
-46.019599999999997
 20
-331.51400000000001
 30
0.0
 70
    32
  0
VERTEX
  5
659
  8
┌▓È_1
 62
     5
 10
-45.907600000000002
 20
-331.30599999999998
 30
0.0
 70
    32
  0
VERTEX
  5
65A
  8
┌▓È_1
 62
     5
 10
-45.794899999999991
 20
-331.101
 30
0.0
 70
    32
  0
VERTEX
  5
65B
  8
┌▓È_1
 62
     5
 10
-45.6815
 20
-330.89999999999998
 30
0.0
 70
    32
  0
VERTEX
  5
65C
  8
┌▓È_1
 62
     5
 10
-45.567399999999999
 20
-330.70300000000009
 30
0.0
 70
    32
  0
VERTEX
  5
65D
  8
┌▓È_1
 62
     5
 10
-45.4527
 20
-330.51099999999991
 30
0.0
 70
    32
  0
VERTEX
  5
65E
  8
┌▓È_1
 62
     5
 10
-45.337299999999999
 20
-330.322
 30
0.0
 70
    32
  0
VERTEX
  5
65F
  8
┌▓È_1
 62
     5
 10
-45.221200000000003
 20
-330.13799999999998
 30
0.0
 70
    32
  0
VERTEX
  5
660
  8
┌▓È_1
 62
     5
 10
-45.104500000000002
 20
-329.95800000000003
 30
0.0
 70
    32
  0
VERTEX
  5
661
  8
┌▓È_1
 62
     5
 10
-44.987200000000001
 20
-329.78199999999998
 30
0.0
 70
    32
  0
VERTEX
  5
662
  8
┌▓È_1
 62
     5
 10
-44.869300000000003
 20
-329.61099999999999
 30
0.0
 70
    32
  0
VERTEX
  5
663
  8
┌▓È_1
 62
     5
 10
-44.750799999999998
 20
-329.4430000000001
 30
0.0
 70
    32
  0
VERTEX
  5
664
  8
┌▓È_1
 62
     5
 10
-44.631799999999998
 20
-329.27999999999997
 30
0.0
 70
    32
  0
VERTEX
  5
665
  8
┌▓È_1
 62
     5
 10
-44.5122
 20
-329.12099999999998
 30
0.0
 70
    32
  0
VERTEX
  5
666
  8
┌▓È_1
 62
     5
 10
-44.392099999999999
 20
-328.96699999999998
 30
0.0
 70
    32
  0
VERTEX
  5
667
  8
┌▓È_1
 62
     5
 10
-44.271500000000003
 20
-328.81700000000001
 30
0.0
 70
    32
  0
VERTEX
  5
668
  8
┌▓È_1
 62
     5
 10
-44.150399999999998
 20
-328.67099999999999
 30
0.0
 70
    32
  0
VERTEX
  5
669
  8
┌▓È_1
 62
     5
 10
-44.02879999999999
 20
-328.52999999999997
 30
0.0
 70
    32
  0
VERTEX
  5
66A
  8
┌▓È_1
 62
     5
 10
-43.90679999999999
 20
-328.39299999999997
 30
0.0
 70
    32
  0
VERTEX
  5
66B
  8
┌▓È_1
 62
     5
 10
-43.784300000000002
 20
-328.25999999999999
 30
0.0
 70
    32
  0
VERTEX
  5
66C
  8
┌▓È_1
 62
     5
 10
-43.6614
 20
-328.13200000000001
 30
0.0
 70
    32
  0
VERTEX
  5
66D
  8
┌▓È_1
 62
     5
 10
-43.5381
 20
-328.00799999999998
 30
0.0
 70
    32
  0
VERTEX
  5
66E
  8
┌▓È_1
 62
     5
 10
-43.414400000000001
 20
-327.88900000000001
 30
0.0
 70
    32
  0
VERTEX
  5
66F
  8
┌▓È_1
 62
     5
 10
-43.290300000000002
 20
-327.774
 30
0.0
 70
    32
  0
VERTEX
  5
670
  8
┌▓È_1
 62
     5
 10
-43.165900000000001
 20
-327.66399999999999
 30
0.0
 70
    32
  0
VERTEX
  5
671
  8
┌▓È_1
 62
     5
 10
-43.0411
 20
-327.55900000000003
 30
0.0
 70
    32
  0
VERTEX
  5
672
  8
┌▓È_1
 62
     5
 10
-42.9161
 20
-327.45800000000003
 30
0.0
 70
    32
  0
VERTEX
  5
673
  8
┌▓È_1
 62
     5
 10
-42.790699999999987
 20
-327.36099999999999
 30
0.0
 70
    32
  0
VERTEX
  5
674
  8
┌▓È_1
 62
     5
 10
-42.664999999999992
 20
-327.26900000000001
 30
0.0
 70
    32
  0
VERTEX
  5
675
  8
┌▓È_1
 62
     5
 10
-42.539000000000001
 20
-327.18200000000002
 30
0.0
 70
    32
  0
VERTEX
  5
676
  8
┌▓È_1
 62
     5
 10
-42.4129
 20
-327.09899999999999
 30
0.0
 70
    32
  0
VERTEX
  5
677
  8
┌▓È_1
 62
     5
 10
-42.2864
 20
-327.02100000000002
 30
0.0
 70
    32
  0
VERTEX
  5
678
  8
┌▓È_1
 62
     5
 10
-42.159799999999997
 20
-326.947
 30
0.0
 70
    32
  0
VERTEX
  5
679
  8
┌▓È_1
 62
     5
 10
-42.033000000000001
 20
-326.87799999999999
 30
0.0
 70
    32
  0
VERTEX
  5
67A
  8
┌▓È_1
 62
     5
 10
-41.905900000000003
 20
-326.81400000000002
 30
0.0
 70
    32
  0
VERTEX
  5
67B
  8
┌▓È_1
 62
     5
 10
-41.778799999999997
 20
-326.755
 30
0.0
 70
    32
  0
VERTEX
  5
67C
  8
┌▓È_1
 62
     5
 10
-41.651499999999992
 20
-326.69999999999999
 30
0.0
 70
    32
  0
VERTEX
  5
67D
  8
┌▓È_1
 62
     5
 10
-41.524000000000001
 20
-326.649
 30
0.0
 70
    32
  0
VERTEX
  5
67E
  8
┌▓È_1
 62
     5
 10
-41.396500000000003
 20
-326.60399999999998
 30
0.0
 70
    32
  0
VERTEX
  5
67F
  8
┌▓È_1
 62
     5
 10
-41.268799999999992
 20
-326.56299999999999
 30
0.0
 70
    32
  0
VERTEX
  5
680
  8
┌▓È_1
 62
     5
 10
-41.141100000000002
 20
-326.52600000000001
 30
0.0
 70
    32
  0
VERTEX
  5
681
  8
┌▓È_1
 62
     5
 10
-41.01339999999999
 20
-326.495
 30
0.0
 70
    32
  0
VERTEX
  5
682
  8
┌▓È_1
 62
     5
 10
-40.885599999999997
 20
-326.46800000000002
 30
0.0
 70
    32
  0
VERTEX
  5
683
  8
┌▓È_1
 62
     5
 10
-40.7577
 20
-326.44600000000003
 30
0.0
 70
    32
  0
VERTEX
  5
684
  8
┌▓È_1
 62
     5
 10
-40.629899999999999
 20
-326.428
 30
0.0
 70
    32
  0
VERTEX
  5
685
  8
┌▓È_1
 62
     5
 10
-40.502099999999992
 20
-326.41500000000002
 30
0.0
 70
    32
  0
VERTEX
  5
686
  8
┌▓È_1
 62
     5
 10
-40.374400000000001
 20
-326.40699999999998
 30
0.0
 70
    32
  0
VERTEX
  5
687
  8
┌▓È_1
 62
     5
 10
-40.24669999999999
 20
-326.404
 30
0.0
 70
    32
  0
VERTEX
  5
688
  8
┌▓È_1
 62
     5
 10
-40.118999999999993
 20
-326.40499999999997
 30
0.0
 70
    32
  0
SEQEND
  5
689
  8
┌▓È_1
 62
     5
  0
LINE
  5
218
  8
┌▓È_1
 62
     5
 10
-98.251562516900023
 20
-306.79531250000002
 30
0.0
 11
-29.001562290500001
 21
-306.79531251229997
 31
0.0
  0
ARC
  5
219
  8
┌▓È_1
 62
     5
 10
-24.751562517100002
 20
-310.29531250000002
 30
0.0
 40
0.5
 50
270.0
 51
0.0
  0
LINE
  5
21A
  8
┌▓È_1
 62
     5
 10
-24.251562517100002
 20
-307.29531250000002
 30
0.0
 11
-24.251562517100002
 21
-310.29531250000002
 31
0.0
  0
LINE
  5
21B
  8
┌▓È_1
 62
     5
 10
-61.234674480800003
 20
-357.79531250000002
 30
0.0
 11
-23.251562459100001
 21
-357.79531250000002
 31
0.0
  0
LINE
  5
21C
  8
┌▓È_1
 62
     5
 10
-61.234674480800003
 20
-357.79531250000002
 30
0.0
 11
-61.234674481000013
 21
-359.79531250000002
 31
0.0
  0
ARC
  5
21D
  8
┌▓È_1
 62
     5
 10
-48.081096810399998
 20
-398.79531250000002
 30
0.0
 40
7.0
 50
270.000004402
 51
0.0000002871
  0
ARC
  5
21E
  8
┌▓È_1
 62
     5
 10
-38.081096822100001
 20
-396.4573722426
 30
0.0
 40
3.0
 50
88.900000000000006
 51
180.00000028709999
  0
LINE
  5
21F
  8
┌▓È_1
 62
     5
 10
-171.75156238560001
 20
-310.79531250000002
 30
0.0
 11
-24.751562517100002
 21
-310.79531250000002
 31
0.0
  0
LINE
  5
220
  8
┌▓È_1
 62
     5
 10
-171.75156251710001
 20
-306.79531250000002
 30
0.0
 11
-24.751562548799999
 21
-306.79531250000002
 31
0.0
  0
LINE
  5
221
  8
┌▓È_1
 62
     5
 10
-155.68454969289999
 20
-330.98294841149999
 30
0.0
 11
-49.242781671899991
 21
-330.98294841149999
 31
0.0
  0
LINE
  5
222
  8
┌▓È_1
 62
     5
 10
-158.25156251480001
 20
-323.79531250000002
 30
0.0
 11
-40.751562162600003
 21
-323.79531250000002
 31
0.0
  0
LINE
  5
223
  8
┌▓È_1
 62
     5
 10
-148.092493268
 20
-405.79531250000002
 30
0.0
 11
-48.0810962726
 21
-405.79531250000002
 31
0.0
  0
LINE
  5
224
  8
┌▓È_1
 62
     5
 10
-23.251562459100001
 20
-357.79531250000002
 30
0.0
 11
-23.251562459300001
 21
-359.79531250000002
 31
0.0
  0
LINE
  5
225
  8
┌▓È_1
 62
     5
 10
-61.234674481000013
 20
-359.79531250000002
 30
0.0
 11
-23.251562459300001
 21
-359.79531250000002
 31
0.0
  0
LINE
  5
226
  8
┌▓È_1
 62
     5
 10
1.0868943979999981
 20
-394.2088830966
 30
0.0
 11
2.3731229833
 21
-327.22123038339998
 31
0.0
  0
LINE
  5
227
  8
┌▓È_1
 62
     5
 10
-41.081096822100001
 20
-396.45737225760001
 30
0.0
 11
-41.081096810399998
 21
-398.79531274199991
 31
0.0
  0
LINE
  5
228
  8
┌▓È_1
 62
     5
 10
-38.023504494899989
 20
-393.45792510619998
 30
0.0
 11
1.086894395599999
 21
-394.20888312860001
 31
0.0
  0
ENDBLK
  5
229
  8
0
  0
BLOCK
  8
0
  2
BALLON1
 70
     0
 10
0.0
 20
0.0
 30
0.0
  3
BALLON1
  1

  0
INSERT
  5
22E
  8
0
  6
CONTINUOUS
  2
*U43
 10
0.0
 20
0.0
 30
0.0
  0
CIRCLE
  5
22F
  8
┌▓È_1
 10
186.6183111222
 20
-419.11953125000002
 30
0.0
 40
20.0
  0
LINE
  5
230
  8
Éíû@É³
 10
153.28497778880001
 20
-419.11953125000002
 30
0.0
 11
166.6183111222
 21
-419.11953125000002
 31
0.0
  0
LINE
  5
231
  8
Éíû@É³
 10
-122.4445410631
 20
-371.830078125
 30
0.0
 11
153.28497778880001
 21
-419.11953125000002
 31
0.0
  0
SOLID
  5
232
  8
Éíû@É³
 10
-122.4445410631
 20
-371.830078125
 30
0.0
 11
-102.0561980322
 21
-371.26841233809989
 31
0.0
 12
-106.674790149
 22
-374.53469567830001
 32
0.0
 13
-106.674790149
 23
-374.53469567830001
 33
0.0
  0
SOLID
  5
233
  8
Éíû@É³
 10
-106.674790149
 20
-374.53469567830001
 30
0.0
 11
-103.4085068088
 21
-379.15328779510003
 31
0.0
 12
-122.4445410631
 22
-371.830078125
 32
0.0
 13
-122.4445410631
 23
-371.830078125
 33
0.0
  0
ENDBLK
  5
234
  8
0
  0
BLOCK
  8
0
  2
*U43
 70
     1
 10
0.0
 20
0.0
 30
0.0
  3
*U43
  1

  0
TEXT
  5
515
  8
┌▓È_1
  6
CONTINUOUS
 10
180.86463109196191
 20
-426.52786436089991
 30
0.0
 40
17.9916661263
  1
2
  0
ENDBLK
  5
517
  8
0
  0
BLOCK
  8
0
  2
CLUMP19
 70
     0
 10
0.0
 20
0.0
 30
0.0
  3
CLUMP19
  1

  0
LINE
  5
2C5
  8
┌▓È_1
 62
     5
 10
23.663205429600001
 20
-476.06953125000001
 30
0.0
 11
23.663205429600001
 21
-541.76953125
 31
0.0
  0
LINE
  5
2C6
  8
┌▓È_1
 62
     5
 10
-36.336794570400002
 20
-477.56953124999978
 30
0.0
 11
-36.336794570400002
 21
-542.56953124999995
 31
0.0
  0
LINE
  5
2C7
  8
┌▓È_1
 62
     5
 10
-36.336794570400002
 20
-477.56953124999978
 30
0.0
 11
-36.336794570400002
 21
-542.56953124999995
 31
0.0
  0
ARC
  5
2C8
  8
┌▓È_1
 62
     5
 10
22.863205429600001
 20
-541.76953125
 30
0.0
 40
0.8
 50
270.0
 51
0.0
  0
LINE
  5
2C9
  8
┌▓È_1
 62
     5
 10
-36.336794570400002
 20
-542.56953124999995
 30
0.0
 11
22.863205429600001
 21
-542.56953124999995
 31
0.0
  0
LINE
  5
2CA
  8
┌▓È_1
 62
     5
 10
-38.336794570400002
 20
-477.56953124999978
 30
0.0
 11
-38.336794570400002
 21
-477.06953125000001
 31
0.0
  0
LINE
  5
2CB
  8
┌▓È_1
 62
     5
 10
22.163205429600001
 20
-474.56953125000001
 30
0.0
 11
-34.336794570400002
 21
-474.56953125000001
 31
0.0
  0
LINE
  5
2CC
  8
┌▓È_1
 62
     5
 10
-38.336794570400002
 20
-477.06953125000001
 30
0.0
 11
-34.336794570400002
 21
-474.56953125000001
 31
0.0
  0
ARC
  5
2CD
  8
┌▓È_1
 62
     5
 10
22.163205429600001
 20
-476.06953125000001
 30
0.0
 40
1.5
 50
0.0
 51
90.0
  0
LINE
  5
2CE
  8
┌▓È_1
 62
     5
 10
-36.336794570400002
 20
-477.56953124999978
 30
0.0
 11
-38.336794570400002
 21
-477.56953124999978
 31
0.0
  0
ENDBLK
  5
2CF
  8
0
  0
BLOCK
  8
0
  2
CLUMP20
 70
     0
 10
0.0
 20
0.0
 30
0.0
  3
CLUMP20
  1

  0
LINE
  5
2D6
  8
┌▓È_1
 62
     5
 10
-131.25156248299999
 20
-670.36953121390002
 30
0.0
 11
-132.95156247099999
 21
-672.06953120209994
 31
0.0
  0
LINE
  5
2D7
  8
┌▓È_1
 10
-131.25156251510001
 20
-670.36953124599995
 30
0.0
 11
-131.25156253329999
 21
-692.36953121390002
 31
0.0
  0
LINE
  5
2D8
  8
┌▓È_1
 62
     5
 10
-131.2515625012
 20
-692.36953121390002
 30
0.0
 11
-132.9515624693
 21
-690.66953124609995
 31
0.0
  0
LINE
  5
2D9
  8
┌▓È_1
 62
     5
 10
-131.25156253329999
 20
-692.36953121390002
 30
0.0
 11
-131.25156253579999
 21
-695.36953121479985
 31
0.0
  0
LINE
  5
2DA
  8
┌▓È_1
 62
     5
 10
-131.25156250410001
 20
-660.36953115839992
 30
0.0
 11
-131.25156251510001
 21
-670.36953124599995
 31
0.0
  0
LINE
  5
2DB
  8
┌▓È_1
 62
     5
 10
-155.75156249939999
 20
-575.36953125510001
 30
0.0
 11
-155.75156249240001
 21
-653.36953116059999
 31
0.0
  0
LINE
  5
2DC
  8
┌▓È_1
 62
     5
 10
-40.751562499400002
 20
-575.36953124490003
 30
0.0
 11
-40.751562492399991
 21
-653.36953115040001
 31
0.0
  0
LINE
  5
2DD
  8
┌▓È_1
  6
BORDER
 62
     3
 10
-98.251562500000006
 20
-541.24260286460003
 30
0.0
 11
-98.251562500000006
 21
-706.26886976979995
 31
0.0
  0
LINE
  5
2DE
  8
┌▓È_1
 62
     5
 10
-158.2515624964
 20
-568.36953125529976
 30
0.0
 11
-155.75156249939999
 21
-575.36953125510001
 31
0.0
  0
ARC
  5
2DF
  8
┌▓È_1
 62
     5
 10
-160.25156249739999
 20
-557.36953125550008
 30
0.0
 40
2.0
 50
0.0000000051
 51
90.000000005100006
  0
ARC
  5
2E0
  8
┌▓È_1
 62
     5
 10
-171.75156250009999
 20
-551.86953125649995
 30
0.0
 40
0.5
 50
90.000000005100006
 51
180.00000000509999
  0
LINE
  5
2E1
  8
┌▓È_1
 62
     5
 10
-172.25156250009999
 20
-551.86953125659988
 30
0.0
 11
-172.25156249989999
 21
-554.8695312566
 31
0.0
  0
ARC
  5
2E2
  8
┌▓È_1
 62
     5
 10
-171.75156249989999
 20
-554.86953125649995
 30
0.0
 40
0.5
 50
180.00000000509999
 51
270.00000000509999
  0
LINE
  5
2E3
  8
┌▓È_1
 62
     5
 10
-158.25156249739999
 20
-557.36953125529999
 30
0.0
 11
-158.2515624964
 21
-568.36953125529976
 31
0.0
  0
ARC
  5
2E4
  8
┌▓È_1
 62
     5
 10
-148.7515624923999
 20
-653.36953115999995
 30
0.0
 40
7.0
 50
180.00000000509999
 51
270.00000000509999
  0
POLYLINE
  5
2E5
  8
┌▓È_1
 62
     5
 66
     1
 10
0.0
 20
0.0
 30
0.0
 70
     8
  0
VERTEX
  5
68A
  8
┌▓È_1
 62
     5
 10
-24.7516
 20
-555.37
 30
0.0
 70
    32
  0
VERTEX
  5
68B
  8
┌▓È_1
 62
     5
 10
-24.7454
 20
-555.36900000000003
 30
0.0
 70
    32
  0
VERTEX
  5
68C
  8
┌▓È_1
 62
     5
 10
-24.7393
 20
-555.36900000000003
 30
0.0
 70
    32
  0
VERTEX
  5
68D
  8
┌▓È_1
 62
     5
 10
-24.7332
 20
-555.36900000000003
 30
0.0
 70
    32
  0
VERTEX
  5
68E
  8
┌▓È_1
 62
     5
 10
-24.727
 20
-555.36900000000003
 30
0.0
 70
    32
  0
VERTEX
  5
68F
  8
┌▓È_1
 62
     5
 10
-24.7209
 20
-555.36900000000003
 30
0.0
 70
    32
  0
VERTEX
  5
690
  8
┌▓È_1
 62
     5
 10
-24.7148
 20
-555.36800000000005
 30
0.0
 70
    32
  0
VERTEX
  5
691
  8
┌▓È_1
 62
     5
 10
-24.7087
 20
-555.36800000000005
 30
0.0
 70
    32
  0
VERTEX
  5
692
  8
┌▓È_1
 62
     5
 10
-24.7026
 20
-555.36699999999985
 30
0.0
 70
    32
  0
VERTEX
  5
693
  8
┌▓È_1
 62
     5
 10
-24.6965
 20
-555.36599999999987
 30
0.0
 70
    32
  0
VERTEX
  5
694
  8
┌▓È_1
 62
     5
 10
-24.6904
 20
-555.36599999999987
 30
0.0
 70
    32
  0
VERTEX
  5
695
  8
┌▓È_1
 62
     5
 10
-24.6843
 20
-555.36500000000001
 30
0.0
 70
    32
  0
VERTEX
  5
696
  8
┌▓È_1
 62
     5
 10
-24.6782
 20
-555.36400000000003
 30
0.0
 70
    32
  0
VERTEX
  5
697
  8
┌▓È_1
 62
     5
 10
-24.6721
 20
-555.36300000000006
 30
0.0
 70
    32
  0
VERTEX
  5
698
  8
┌▓È_1
 62
     5
 10
-24.6661
 20
-555.36199999999985
 30
0.0
 70
    32
  0
VERTEX
  5
699
  8
┌▓È_1
 62
     5
 10
-24.66
 20
-555.36099999999988
 30
0.0
 70
    32
  0
VERTEX
  5
69A
  8
┌▓È_1
 62
     5
 10
-24.654
 20
-555.36000000000001
 30
0.0
 70
    32
  0
VERTEX
  5
69B
  8
┌▓È_1
 62
     5
 10
-24.648
 20
-555.35900000000004
 30
0.0
 70
    32
  0
VERTEX
  5
69C
  8
┌▓È_1
 62
     5
 10
-24.641999999999999
 20
-555.35699999999986
 30
0.0
 70
    32
  0
VERTEX
  5
69D
  8
┌▓È_1
 62
     5
 10
-24.635999999999999
 20
-555.35599999999999
 30
0.0
 70
    32
  0
VERTEX
  5
69E
  8
┌▓È_1
 62
     5
 10
-24.630099999999999
 20
-555.35500000000002
 30
0.0
 70
    32
  0
VERTEX
  5
69F
  8
┌▓È_1
 62
     5
 10
-24.624099999999999
 20
-555.35300000000007
 30
0.0
 70
    32
  0
VERTEX
  5
6A0
  8
┌▓È_1
 62
     5
 10
-24.618200000000002
 20
-555.351
 30
0.0
 70
    32
  0
VERTEX
  5
6A1
  8
┌▓È_1
 62
     5
 10
-24.612300000000001
 20
-555.35000000000002
 30
0.0
 70
    32
  0
VERTEX
  5
6A2
  8
┌▓È_1
 62
     5
 10
-24.606400000000001
 20
-555.34799999999996
 30
0.0
 70
    32
  0
VERTEX
  5
6A3
  8
┌▓È_1
 62
     5
 10
-24.6006
 20
-555.346
 30
0.0
 70
    32
  0
VERTEX
  5
6A4
  8
┌▓È_1
 62
     5
 10
-24.5947
 20
-555.34400000000005
 30
0.0
 70
    32
  0
VERTEX
  5
6A5
  8
┌▓È_1
 62
     5
 10
-24.588899999999999
 20
-555.34199999999998
 30
0.0
 70
    32
  0
VERTEX
  5
6A6
  8
┌▓È_1
 62
     5
 10
-24.583100000000002
 20
-555.34000000000003
 30
0.0
 70
    32
  0
VERTEX
  5
6A7
  8
┌▓È_1
 62
     5
 10
-24.577400000000001
 20
-555.33799999999997
 30
0.0
 70
    32
  0
VERTEX
  5
6A8
  8
┌▓È_1
 62
     5
 10
-24.5716
 20
-555.33600000000001
 30
0.0
 70
    32
  0
VERTEX
  5
6A9
  8
┌▓È_1
 62
     5
 10
-24.565899999999999
 20
-555.33399999999995
 30
0.0
 70
    32
  0
VERTEX
  5
6AA
  8
┌▓È_1
 62
     5
 10
-24.560199999999998
 20
-555.33100000000002
 30
0.0
 70
    32
  0
VERTEX
  5
6AB
  8
┌▓È_1
 62
     5
 10
-24.554600000000001
 20
-555.32899999999995
 30
0.0
 70
    32
  0
VERTEX
  5
6AC
  8
┌▓È_1
 62
     5
 10
-24.5489
 20
-555.327
 30
0.0
 70
    32
  0
VERTEX
  5
6AD
  8
┌▓È_1
 62
     5
 10
-24.543299999999999
 20
-555.32399999999996
 30
0.0
 70
    32
  0
VERTEX
  5
6AE
  8
┌▓È_1
 62
     5
 10
-24.537800000000001
 20
-555.322
 30
0.0
 70
    32
  0
VERTEX
  5
6AF
  8
┌▓È_1
 62
     5
 10
-24.532299999999999
 20
-555.31899999999985
 30
0.0
 70
    32
  0
VERTEX
  5
6B0
  8
┌▓È_1
 62
     5
 10
-24.526800000000001
 20
-555.31600000000003
 30
0.0
 70
    32
  0
VERTEX
  5
6B1
  8
┌▓È_1
 62
     5
 10
-24.5213
 20
-555.31299999999999
 30
0.0
 70
    32
  0
VERTEX
  5
6B2
  8
┌▓È_1
 62
     5
 10
-24.515899999999998
 20
-555.30999999999995
 30
0.0
 70
    32
  0
VERTEX
  5
6B3
  8
┌▓È_1
 62
     5
 10
-24.5105
 20
-555.30799999999999
 30
0.0
 70
    32
  0
VERTEX
  5
6B4
  8
┌▓È_1
 62
     5
 10
-24.505099999999999
 20
-555.30499999999995
 30
0.0
 70
    32
  0
VERTEX
  5
6B5
  8
┌▓È_1
 62
     5
 10
-24.4998
 20
-555.30200000000002
 30
0.0
 70
    32
  0
VERTEX
  5
6B6
  8
┌▓È_1
 62
     5
 10
-24.494499999999999
 20
-555.29799999999989
 30
0.0
 70
    32
  0
VERTEX
  5
6B7
  8
┌▓È_1
 62
     5
 10
-24.4893
 20
-555.29499999999996
 30
0.0
 70
    32
  0
VERTEX
  5
6B8
  8
┌▓È_1
 62
     5
 10
-24.484100000000002
 20
-555.29199999999992
 30
0.0
 70
    32
  0
VERTEX
  5
6B9
  8
┌▓È_1
 62
     5
 10
-24.478899999999999
 20
-555.28899999999987
 30
0.0
 70
    32
  0
VERTEX
  5
6BA
  8
┌▓È_1
 62
     5
 10
-24.473800000000001
 20
-555.28499999999985
 30
0.0
 70
    32
  0
VERTEX
  5
6BB
  8
┌▓È_1
 62
     5
 10
-24.468699999999998
 20
-555.28199999999993
 30
0.0
 70
    32
  0
VERTEX
  5
6BC
  8
┌▓È_1
 62
     5
 10
-24.463699999999999
 20
-555.27800000000002
 30
0.0
 70
    32
  0
VERTEX
  5
6BD
  8
┌▓È_1
 62
     5
 10
-24.4587
 20
-555.27499999999986
 30
0.0
 70
    32
  0
VERTEX
  5
6BE
  8
┌▓È_1
 62
     5
 10
-24.453700000000001
 20
-555.27099999999984
 30
0.0
 70
    32
  0
VERTEX
  5
6BF
  8
┌▓È_1
 62
     5
 10
-24.448799999999999
 20
-555.26699999999994
 30
0.0
 70
    32
  0
VERTEX
  5
6C0
  8
┌▓È_1
 62
     5
 10
-24.443899999999999
 20
-555.26400000000001
 30
0.0
 70
    32
  0
VERTEX
  5
6C1
  8
┌▓È_1
 62
     5
 10
-24.4391
 20
-555.25999999999988
 30
0.0
 70
    32
  0
VERTEX
  5
6C2
  8
┌▓È_1
 62
     5
 10
-24.4344
 20
-555.25599999999986
 30
0.0
 70
    32
  0
VERTEX
  5
6C3
  8
┌▓È_1
 62
     5
 10
-24.429600000000001
 20
-555.25199999999995
 30
0.0
 70
    32
  0
VERTEX
  5
6C4
  8
┌▓È_1
 62
     5
 10
-24.425000000000001
 20
-555.24800000000005
 30
0.0
 70
    32
  0
VERTEX
  5
6C5
  8
┌▓È_1
 62
     5
 10
-24.420400000000001
 20
-555.24400000000003
 30
0.0
 70
    32
  0
VERTEX
  5
6C6
  8
┌▓È_1
 62
     5
 10
-24.415800000000001
 20
-555.24000000000001
 30
0.0
 70
    32
  0
VERTEX
  5
6C7
  8
┌▓È_1
 62
     5
 10
-24.411300000000001
 20
-555.23599999999999
 30
0.0
 70
    32
  0
VERTEX
  5
6C8
  8
┌▓È_1
 62
     5
 10
-24.4068
 20
-555.23199999999986
 30
0.0
 70
    32
  0
VERTEX
  5
6C9
  8
┌▓È_1
 62
     5
 10
-24.4024
 20
-555.22699999999998
 30
0.0
 70
    32
  0
VERTEX
  5
6CA
  8
┌▓È_1
 62
     5
 10
-24.398
 20
-555.22299999999996
 30
0.0
 70
    32
  0
VERTEX
  5
6CB
  8
┌▓È_1
 62
     5
 10
-24.393699999999999
 20
-555.21900000000005
 30
0.0
 70
    32
  0
VERTEX
  5
6CC
  8
┌▓È_1
 62
     5
 10
-24.389399999999998
 20
-555.21400000000006
 30
0.0
 70
    32
  0
VERTEX
  5
6CD
  8
┌▓È_1
 62
     5
 10
-24.385200000000001
 20
-555.21000000000004
 30
0.0
 70
    32
  0
VERTEX
  5
6CE
  8
┌▓È_1
 62
     5
 10
-24.3811
 20
-555.20500000000004
 30
0.0
 70
    32
  0
VERTEX
  5
6CF
  8
┌▓È_1
 62
     5
 10
-24.376999999999999
 20
-555.20100000000002
 30
0.0
 70
    32
  0
VERTEX
  5
6D0
  8
┌▓È_1
 62
     5
 10
-24.373000000000001
 20
-555.19600000000003
 30
0.0
 70
    32
  0
VERTEX
  5
6D1
  8
┌▓È_1
 62
     5
 10
-24.369
 20
-555.19100000000003
 30
0.0
 70
    32
  0
VERTEX
  5
6D2
  8
┌▓È_1
 62
     5
 10
-24.365100000000002
 20
-555.18700000000001
 30
0.0
 70
    32
  0
VERTEX
  5
6D3
  8
┌▓È_1
 62
     5
 10
-24.3612
 20
-555.18200000000002
 30
0.0
 70
    32
  0
VERTEX
  5
6D4
  8
┌▓È_1
 62
     5
 10
-24.357399999999998
 20
-555.17700000000002
 30
0.0
 70
    32
  0
VERTEX
  5
6D5
  8
┌▓È_1
 62
     5
 10
-24.3536
 20
-555.17200000000003
 30
0.0
 70
    32
  0
VERTEX
  5
6D6
  8
┌▓È_1
 62
     5
 10
-24.350000000000001
 20
-555.16699999999992
 30
0.0
 70
    32
  0
VERTEX
  5
6D7
  8
┌▓È_1
 62
     5
 10
-24.346299999999999
 20
-555.16199999999981
 30
0.0
 70
    32
  0
VERTEX
  5
6D8
  8
┌▓È_1
 62
     5
 10
-24.3428
 20
-555.15699999999993
 30
0.0
 70
    32
  0
VERTEX
  5
6D9
  8
┌▓È_1
 62
     5
 10
-24.339300000000001
 20
-555.15199999999993
 30
0.0
 70
    32
  0
VERTEX
  5
6DA
  8
┌▓È_1
 62
     5
 10
-24.335799999999999
 20
-555.14699999999993
 30
0.0
 70
    32
  0
VERTEX
  5
6DB
  8
┌▓È_1
 62
     5
 10
-24.3325
 20
-555.14199999999994
 30
0.0
 70
    32
  0
VERTEX
  5
6DC
  8
┌▓È_1
 62
     5
 10
-24.3291
 20
-555.13699999999994
 30
0.0
 70
    32
  0
VERTEX
  5
6DD
  8
┌▓È_1
 62
     5
 10
-24.325900000000001
 20
-555.13199999999995
 30
0.0
 70
    32
  0
VERTEX
  5
6DE
  8
┌▓È_1
 62
     5
 10
-24.322700000000001
 20
-555.12699999999995
 30
0.0
 70
    32
  0
VERTEX
  5
6DF
  8
┌▓È_1
 62
     5
 10
-24.319600000000001
 20
-555.12099999999998
 30
0.0
 70
    32
  0
VERTEX
  5
6E0
  8
┌▓È_1
 62
     5
 10
-24.316500000000001
 20
-555.11599999999999
 30
0.0
 70
    32
  0
VERTEX
  5
6E1
  8
┌▓È_1
 62
     5
 10
-24.313500000000001
 20
-555.11099999999999
 30
0.0
 70
    32
  0
VERTEX
  5
6E2
  8
┌▓È_1
 62
     5
 10
-24.310600000000001
 20
-555.10500000000002
 30
0.0
 70
    32
  0
VERTEX
  5
6E3
  8
┌▓È_1
 62
     5
 10
-24.307700000000001
 20
-555.10000000000002
 30
0.0
 70
    32
  0
VERTEX
  5
6E4
  8
┌▓È_1
 62
     5
 10
-24.305
 20
-555.09400000000005
 30
0.0
 70
    32
  0
VERTEX
  5
6E5
  8
┌▓È_1
 62
     5
 10
-24.302199999999999
 20
-555.08900000000006
 30
0.0
 70
    32
  0
VERTEX
  5
6E6
  8
┌▓È_1
 62
     5
 10
-24.299600000000002
 20
-555.08300000000008
 30
0.0
 70
    32
  0
VERTEX
  5
6E7
  8
┌▓È_1
 62
     5
 10
-24.297000000000001
 20
-555.07799999999986
 30
0.0
 70
    32
  0
VERTEX
  5
6E8
  8
┌▓È_1
 62
     5
 10
-24.294499999999999
 20
-555.072
 30
0.0
 70
    32
  0
VERTEX
  5
6E9
  8
┌▓È_1
 62
     5
 10
-24.292000000000002
 20
-555.06700000000001
 30
0.0
 70
    32
  0
VERTEX
  5
6EA
  8
┌▓È_1
 62
     5
 10
-24.2896
 20
-555.06100000000004
 30
0.0
 70
    32
  0
VERTEX
  5
6EB
  8
┌▓È_1
 62
     5
 10
-24.287299999999998
 20
-555.05499999999995
 30
0.0
 70
    32
  0
VERTEX
  5
6EC
  8
┌▓È_1
 62
     5
 10
-24.2851
 20
-555.04899999999986
 30
0.0
 70
    32
  0
VERTEX
  5
6ED
  8
┌▓È_1
 62
     5
 10
-24.282900000000001
 20
-555.04399999999998
 30
0.0
 70
    32
  0
VERTEX
  5
6EE
  8
┌▓È_1
 62
     5
 10
-24.280799999999999
 20
-555.03800000000001
 30
0.0
 70
    32
  0
VERTEX
  5
6EF
  8
┌▓È_1
 62
     5
 10
-24.2788
 20
-555.03199999999993
 30
0.0
 70
    32
  0
VERTEX
  5
6F0
  8
┌▓È_1
 62
     5
 10
-24.276800000000001
 20
-555.02599999999995
 30
0.0
 70
    32
  0
VERTEX
  5
6F1
  8
┌▓È_1
 62
     5
 10
-24.274899999999999
 20
-555.02099999999984
 30
0.0
 70
    32
  0
VERTEX
  5
6F2
  8
┌▓È_1
 62
     5
 10
-24.273099999999999
 20
-555.01499999999999
 30
0.0
 70
    32
  0
VERTEX
  5
6F3
  8
┌▓È_1
 62
     5
 10
-24.2713
 20
-555.0089999999999
 30
0.0
 70
    32
  0
VERTEX
  5
6F4
  8
┌▓È_1
 62
     5
 10
-24.2697
 20
-555.00300000000004
 30
0.0
 70
    32
  0
VERTEX
  5
6F5
  8
┌▓È_1
 62
     5
 10
-24.2681
 20
-554.99699999999996
 30
0.0
 70
    32
  0
VERTEX
  5
6F6
  8
┌▓È_1
 62
     5
 10
-24.266500000000001
 20
-554.99099999999987
 30
0.0
 70
    32
  0
VERTEX
  5
6F7
  8
┌▓È_1
 62
     5
 10
-24.2651
 20
-554.98500000000001
 30
0.0
 70
    32
  0
VERTEX
  5
6F8
  8
┌▓È_1
 62
     5
 10
-24.2637
 20
-554.97900000000004
 30
0.0
 70
    32
  0
VERTEX
  5
6F9
  8
┌▓È_1
 62
     5
 10
-24.2624
 20
-554.97300000000007
 30
0.0
 70
    32
  0
VERTEX
  5
6FA
  8
┌▓È_1
 62
     5
 10
-24.261199999999999
 20
-554.96699999999987
 30
0.0
 70
    32
  0
VERTEX
  5
6FB
  8
┌▓È_1
 62
     5
 10
-24.260000000000002
 20
-554.96100000000001
 30
0.0
 70
    32
  0
VERTEX
  5
6FC
  8
┌▓È_1
 62
     5
 10
-24.258900000000001
 20
-554.95500000000004
 30
0.0
 70
    32
  0
VERTEX
  5
6FD
  8
┌▓È_1
 62
     5
 10
-24.257899999999999
 20
-554.94899999999996
 30
0.0
 70
    32
  0
VERTEX
  5
6FE
  8
┌▓È_1
 62
     5
 10
-24.257000000000001
 20
-554.94299999999998
 30
0.0
 70
    32
  0
VERTEX
  5
6FF
  8
┌▓È_1
 62
     5
 10
-24.2561
 20
-554.93700000000001
 30
0.0
 70
    32
  0
VERTEX
  5
700
  8
┌▓È_1
 62
     5
 10
-24.255299999999998
 20
-554.93100000000004
 30
0.0
 70
    32
  0
VERTEX
  5
701
  8
┌▓È_1
 62
     5
 10
-24.2546
 20
-554.92499999999995
 30
0.0
 70
    32
  0
VERTEX
  5
702
  8
┌▓È_1
 62
     5
 10
-24.254000000000001
 20
-554.91899999999998
 30
0.0
 70
    32
  0
VERTEX
  5
703
  8
┌▓È_1
 62
     5
 10
-24.253399999999999
 20
-554.91199999999992
 30
0.0
 70
    32
  0
VERTEX
  5
704
  8
┌▓È_1
 62
     5
 10
-24.2529
 20
-554.90599999999995
 30
0.0
 70
    32
  0
VERTEX
  5
705
  8
┌▓È_1
 62
     5
 10
-24.252500000000001
 20
-554.89999999999986
 30
0.0
 70
    32
  0
VERTEX
  5
706
  8
┌▓È_1
 62
     5
 10
-24.252199999999998
 20
-554.89399999999989
 30
0.0
 70
    32
  0
VERTEX
  5
707
  8
┌▓È_1
 62
     5
 10
-24.251899999999999
 20
-554.88800000000003
 30
0.0
 70
    32
  0
VERTEX
  5
708
  8
┌▓È_1
 62
     5
 10
-24.2517
 20
-554.88199999999995
 30
0.0
 70
    32
  0
VERTEX
  5
709
  8
┌▓È_1
 62
     5
 10
-24.2516
 20
-554.87599999999986
 30
0.0
 70
    32
  0
VERTEX
  5
70A
  8
┌▓È_1
 62
     5
 10
-24.2516
 20
-554.87
 30
0.0
 70
    32
  0
SEQEND
  5
70B
  8
┌▓È_1
 62
     5
  0
LINE
  5
2E6
  8
┌▓È_1
 62
     5
 10
-24.251562500100011
 20
-551.86953124339993
 30
0.0
 11
-24.2515624999
 21
-554.86953124339993
 31
0.0
  0
ARC
  5
2E7
  8
┌▓È_1
 62
     5
 10
-24.7515625001
 20
-551.86953124349975
 30
0.0
 40
0.5
 50
0.0000000051
 51
90.000000005000004
  0
LINE
  5
2E8
  8
┌▓È_1
 62
     5
 10
-38.251562496399998
 20
-568.36953124470006
 30
0.0
 11
-40.751562499400002
 21
-575.36953124490003
 31
0.0
  0
LINE
  5
2E9
  8
┌▓È_1
 62
     5
 10
-38.251562497400002
 20
-557.36953124470006
 30
0.0
 11
-38.251562496399998
 21
-568.36953124470006
 31
0.0
  0
ARC
  5
2EA
  8
┌▓È_1
 62
     5
 10
-36.251562497400002
 20
-557.36953124449985
 30
0.0
 40
2.0
 50
90.000000005100006
 51
180.00000000509999
  0
LINE
  5
2EB
  8
┌▓È_1
 62
     5
 10
-65.251562523299995
 20
-670.36953120800001
 30
0.0
 11
-63.551562535099997
 21
-672.06953119599996
 31
0.0
  0
LINE
  5
2EC
  8
┌▓È_1
 62
     5
 10
-65.251562501199999
 20
-692.36953120800001
 30
0.0
 11
-63.551562533400002
 21
-690.66953123990004
 31
0.0
  0
LINE
  5
2ED
  8
┌▓È_1
 62
     5
 10
-65.251562504099994
 20
-660.36953115259996
 30
0.0
 11
-65.251562491300007
 21
-670.36953124009995
 31
0.0
  0
LINE
  5
2EE
  8
┌▓È_1
 10
-65.251562491300007
 20
-670.36953124009995
 30
0.0
 11
-65.251562469199996
 21
-692.36953120800001
 31
0.0
  0
LINE
  5
2EF
  8
┌▓È_1
 62
     5
 10
-65.251562469199996
 20
-692.36953120800001
 30
0.0
 11
-65.251562466199985
 21
-695.36953115170002
 31
0.0
  0
ARC
  5
2F0
  8
┌▓È_1
 62
     5
 10
-47.751562492399998
 20
-653.36953115099993
 30
0.0
 40
7.0
 50
270.00000000509999
 51
0.0000000051
  0
LINE
  5
2F1
  8
┌▓È_1
 62
     5
 10
-63.551562535099997
 20
-672.06953119599996
 30
0.0
 11
-63.551562533400002
 21
-690.66953123990004
 31
0.0
  0
LINE
  5
2F2
  8
┌▓È_1
 62
     5
 10
-131.25156253579999
 20
-695.36953121479985
 30
0.0
 11
-65.251562466199985
 21
-695.36953115170002
 31
0.0
  0
LINE
  5
2F3
  8
┌▓È_1
 62
     5
 10
-171.75156250020001
 20
-551.36953125649995
 30
0.0
 11
-24.751562531800001
 21
-551.36953124349975
 31
0.0
  0
LINE
  5
2F4
  8
┌▓È_1
 62
     5
 10
-131.25156255970001
 20
-670.36953130320001
 30
0.0
 11
-65.2515624901
 21
-670.36953124009995
 31
0.0
  0
LINE
  5
2F5
  8
┌▓È_1
 62
     5
 10
-131.25156253860001
 20
-692.36953127109985
 30
0.0
 11
-65.251562468999992
 21
-692.36953120800001
 31
0.0
  0
LINE
  5
2F6
  8
┌▓È_1
 62
     5
 10
-132.9515624693
 20
-690.66953124759993
 30
0.0
 11
-63.551562533400002
 21
-690.66953123990004
 31
0.0
  0
LINE
  5
2F7
  8
┌▓È_1
 62
     5
 10
-132.95156247099999
 20
-672.06953120360004
 30
0.0
 11
-63.551562535099997
 21
-672.06953119599996
 31
0.0
  0
LINE
  5
2F8
  8
┌▓È_1
 62
     5
 10
-47.751562491800001
 20
-660.36953115099993
 30
0.0
 11
-148.7515624918
 21
-660.36953115999995
 31
0.0
  0
LINE
  5
2F9
  8
┌▓È_1
 62
     5
 10
-155.75156249939999
 20
-575.36953125510001
 30
0.0
 11
-40.751562499400002
 21
-575.36953124490003
 31
0.0
  0
LINE
  5
2FA
  8
┌▓È_1
 62
     5
 10
-38.251562496399998
 20
-568.36953124470006
 30
0.0
 11
-158.2515624964
 21
-568.36953125529976
 31
0.0
  0
LINE
  5
2FB
  8
┌▓È_1
 62
     5
 10
-24.751562499799999
 20
-555.36953124349986
 30
0.0
 11
-171.7515624998
 21
-555.36953125649995
 31
0.0
  0
LINE
  5
2FC
  8
┌▓È_1
 62
     5
 10
-132.95156247099999
 20
-672.06953120209994
 30
0.0
 11
-132.9515624693
 21
-690.66953124609995
 31
0.0
  0
ENDBLK
  5
2FD
  8
0
  0
BLOCK
  8
0
  2
CLUMP21
 70
     0
 10
0.0
 20
0.0
 30
0.0
  3
CLUMP21
  1

  0
LINE
  5
301
  8
┌▓È_1
 62
     5
 10
-775.25156249999998
 20
-476.06953125000001
 30
0.0
 11
-775.25156249999998
 21
-541.76953125
 31
0.0
  0
LINE
  5
302
  8
┌▓È_1
 62
     5
 10
-715.25156249999975
 20
-477.56953124999978
 30
0.0
 11
-715.25156249999975
 21
-542.56953124999995
 31
0.0
  0
LINE
  5
303
  8
┌▓È_1
 62
     5
 10
-715.25156249999975
 20
-477.56953124999978
 30
0.0
 11
-715.25156249999975
 21
-542.56953124999995
 31
0.0
  0
ARC
  5
304
  8
┌▓È_1
 62
     5
 10
-774.45156250000002
 20
-541.76953125
 30
0.0
 40
0.8
 50
180.0
 51
270.0
  0
LINE
  5
305
  8
┌▓È_1
 62
     5
 10
-715.25156249999975
 20
-542.56953124999995
 30
0.0
 11
-774.45156250000002
 21
-542.56953124999995
 31
0.0
  0
LINE
  5
306
  8
┌▓È_1
 62
     5
 10
-713.25156249999986
 20
-477.56953124999978
 30
0.0
 11
-713.25156249999986
 21
-477.06953125000001
 31
0.0
  0
LINE
  5
307
  8
┌▓È_1
 62
     5
 10
-773.75156249999998
 20
-474.56953125000001
 30
0.0
 11
-717.25156249999986
 21
-474.56953125000001
 31
0.0
  0
LINE
  5
308
  8
┌▓È_1
 62
     5
 10
-713.25156249999986
 20
-477.06953125000001
 30
0.0
 11
-717.25156249999986
 21
-474.56953125000001
 31
0.0
  0
ARC
  5
309
  8
┌▓È_1
 62
     5
 10
-773.75156249999998
 20
-476.06953125000001
 30
0.0
 40
1.5
 50
90.0
 51
180.0
  0
LINE
  5
30A
  8
┌▓È_1
 62
     5
 10
-715.25156249999975
 20
-477.56953124999978
 30
0.0
 11
-713.25156249999986
 21
-477.56953124999978
 31
0.0
  0
ENDBLK
  5
30B
  8
0
  0
BLOCK
  8
0
  2
CLUMP22
 70
     0
 10
0.0
 20
0.0
 30
0.0
  3
CLUMP22
  1

  0
LINE
  5
315
  8
┌▓È_1
 62
     5
 10
319.85559895829999
 20
-31.017187464300001
 30
0.0
 11
385.55559895829998
 21
-31.017187464300001
 31
0.0
  0
LINE
  5
316
  8
┌▓È_1
 62
     5
 10
321.35559895829999
 20
28.982812535699999
 30
0.0
 11
386.35559895829999
 21
28.982812535699999
 31
0.0
  0
LINE
  5
317
  8
┌▓È_1
 62
     5
 10
321.35559895829999
 20
28.982812535699999
 30
0.0
 11
386.35559895829999
 21
28.982812535699999
 31
0.0
  0
ARC
  5
318
  8
┌▓È_1
 62
     5
 10
385.55559895829998
 20
-30.2171874643
 30
0.0
 40
0.8
 50
270.0
 51
0.0
  0
LINE
  5
319
  8
┌▓È_1
 62
     5
 10
386.35559895829999
 20
28.982812535699999
 30
0.0
 11
386.35559895829999
 21
-30.2171874643
 31
0.0
  0
LINE
  5
31A
  8
┌▓È_1
 62
     5
 10
321.35559895829999
 20
30.98281253570001
 30
0.0
 11
320.85559895829999
 21
30.98281253570001
 31
0.0
  0
LINE
  5
31B
  8
┌▓È_1
 62
     5
 10
318.35559895829999
 20
-29.517187464300001
 30
0.0
 11
318.35559895829999
 21
26.982812535699999
 31
0.0
  0
LINE
  5
31C
  8
┌▓È_1
 62
     5
 10
320.85559895829999
 20
30.98281253570001
 30
0.0
 11
318.35559895829999
 21
26.982812535699999
 31
0.0
  0
ARC
  5
31D
  8
┌▓È_1
 62
     5
 10
319.85559895829999
 20
-29.517187464300001
 30
0.0
 40
1.5
 50
180.0
 51
270.0
  0
LINE
  5
31E
  8
┌▓È_1
 62
     5
 10
321.35559895829999
 20
28.982812535699999
 30
0.0
 11
321.35559895829999
 21
30.98281253570001
 31
0.0
  0
ENDBLK
  5
31F
  8
0
  0
BLOCK
  8
0
  2
CLUMP23
 70
     0
 10
0.0
 20
0.0
 30
0.0
  3
CLUMP23
  1

  0
LINE
  5
323
  8
┌▓È_1
 62
     5
 10
688.85808335520005
 20
-31.017187464300001
 30
0.0
 11
754.55808335519998
 21
-31.017187464300001
 31
0.0
  0
LINE
  5
324
  8
┌▓È_1
 62
     5
 10
690.35808335520005
 20
28.982812535699999
 30
0.0
 11
755.35808335520005
 21
28.982812535699999
 31
0.0
  0
LINE
  5
325
  8
┌▓È_1
 62
     5
 10
690.35808335520005
 20
28.982812535699999
 30
0.0
 11
755.35808335520005
 21
28.982812535699999
 31
0.0
  0
ARC
  5
326
  8
┌▓È_1
 62
     5
 10
754.55808335519998
 20
-30.2171874643
 30
0.0
 40
0.8
 50
270.0
 51
0.0
  0
LINE
  5
327
  8
┌▓È_1
 62
     5
 10
755.35808335520005
 20
28.982812535699999
 30
0.0
 11
755.35808335520005
 21
-30.2171874643
 31
0.0
  0
LINE
  5
328
  8
┌▓È_1
 62
     5
 10
690.35808335520005
 20
30.98281253570001
 30
0.0
 11
689.85808335520005
 21
30.98281253570001
 31
0.0
  0
LINE
  5
329
  8
┌▓È_1
 62
     5
 10
687.35808335520016
 20
-29.517187464300001
 30
0.0
 11
687.35808335520016
 21
26.982812535699999
 31
0.0
  0
LINE
  5
32A
  8
┌▓È_1
 62
     5
 10
689.85808335520005
 20
30.98281253570001
 30
0.0
 11
687.35808335520016
 21
26.982812535699999
 31
0.0
  0
ARC
  5
32B
  8
┌▓È_1
 62
     5
 10
688.85808335520005
 20
-29.517187464300001
 30
0.0
 40
1.5
 50
180.0
 51
270.0
  0
LINE
  5
32C
  8
┌▓È_1
 62
     5
 10
690.35808335520005
 20
28.982812535699999
 30
0.0
 11
690.35808335520005
 21
30.98281253570001
 31
0.0
  0
ENDBLK
  5
32D
  8
0
  0
BLOCK
  8
0
  2
CLUMP24
 70
     0
 10
0.0
 20
0.0
 30
0.0
  3
CLUMP24
  1

  0
LINE
  5
331
  8
┌▓È_1
 62
     5
 10
319.85559895829999
 20
608.98281249360002
 30
0.0
 11
385.55559895829998
 21
608.98281249360002
 31
0.0
  0
LINE
  5
332
  8
┌▓È_1
 62
     5
 10
321.35559895829999
 20
548.98281249360002
 30
0.0
 11
386.35559895829999
 21
548.98281249360002
 31
0.0
  0
LINE
  5
333
  8
┌▓È_1
 62
     5
 10
321.35559895829999
 20
548.98281249360002
 30
0.0
 11
386.35559895829999
 21
548.98281249360002
 31
0.0
  0
ARC
  5
334
  8
┌▓È_1
 62
     5
 10
385.55559895829998
 20
608.18281249359995
 30
0.0
 40
0.8
 50
0.0
 51
90.0
  0
LINE
  5
335
  8
┌▓È_1
 62
     5
 10
386.35559895829999
 20
548.98281249360002
 30
0.0
 11
386.35559895829999
 21
608.18281249359995
 31
0.0
  0
LINE
  5
336
  8
┌▓È_1
 62
     5
 10
321.35559895829999
 20
546.98281249359991
 30
0.0
 11
320.85559895829999
 21
546.98281249359991
 31
0.0
  0
LINE
  5
337
  8
┌▓È_1
 62
     5
 10
318.35559895829999
 20
607.48281249360002
 30
0.0
 11
318.35559895829999
 21
550.98281249359991
 31
0.0
  0
LINE
  5
338
  8
┌▓È_1
 62
     5
 10
320.85559895829999
 20
546.98281249359991
 30
0.0
 11
318.35559895829999
 21
550.98281249359991
 31
0.0
  0
ARC
  5
339
  8
┌▓È_1
 62
     5
 10
319.85559895829999
 20
607.48281249360002
 30
0.0
 40
1.5
 50
90.0
 51
180.0
  0
LINE
  5
33A
  8
┌▓È_1
 62
     5
 10
321.35559895829999
 20
548.98281249360002
 30
0.0
 11
321.35559895829999
 21
546.98281249359991
 31
0.0
  0
ENDBLK
  5
33B
  8
0
  0
BLOCK
  8
0
  2
CLUMP25
 70
     0
 10
0.0
 20
0.0
 30
0.0
  3
CLUMP25
  1

  0
LINE
  5
33F
  8
┌▓È_1
 62
     5
 10
688.85808335520005
 20
608.98281249360002
 30
0.0
 11
754.55808335519998
 21
608.98281249360002
 31
0.0
  0
LINE
  5
340
  8
┌▓È_1
 62
     5
 10
690.35808335520005
 20
548.98281249360002
 30
0.0
 11
755.35808335520005
 21
548.98281249360002
 31
0.0
  0
LINE
  5
341
  8
┌▓È_1
 62
     5
 10
690.35808335520005
 20
548.98281249360002
 30
0.0
 11
755.35808335520005
 21
548.98281249360002
 31
0.0
  0
ARC
  5
342
  8
┌▓È_1
 62
     5
 10
754.55808335519998
 20
608.18281249359995
 30
0.0
 40
0.8
 50
0.0
 51
90.0
  0
LINE
  5
343
  8
┌▓È_1
 62
     5
 10
755.35808335520005
 20
548.98281249360002
 30
0.0
 11
755.35808335520005
 21
608.18281249359995
 31
0.0
  0
LINE
  5
344
  8
┌▓È_1
 62
     5
 10
690.35808335520005
 20
546.98281249359991
 30
0.0
 11
689.85808335520005
 21
546.98281249359991
 31
0.0
  0
LINE
  5
345
  8
┌▓È_1
 62
     5
 10
687.35808335520016
 20
607.48281249360002
 30
0.0
 11
687.35808335520016
 21
550.98281249359991
 31
0.0
  0
LINE
  5
346
  8
┌▓È_1
 62
     5
 10
689.85808335520005
 20
546.98281249359991
 30
0.0
 11
687.35808335520016
 21
550.98281249359991
 31
0.0
  0
ARC
  5
347
  8
┌▓È_1
 62
     5
 10
688.85808335520005
 20
607.48281249360002
 30
0.0
 40
1.5
 50
90.0
 51
180.0
  0
LINE
  5
348
  8
┌▓È_1
 62
     5
 10
690.35808335520005
 20
548.98281249360002
 30
0.0
 11
690.35808335520005
 21
546.98281249359991
 31
0.0
  0
ENDBLK
  5
349
  8
0
  0
BLOCK
  8
0
  2
*D51
 70
     1
 10
0.0
 20
0.0
 30
0.0
  3
*D51
  1

  0
TEXT
  5
34C
  8
0
 62
     0
 10
-427.28710927959992
 20
-63.1610673904
 30
0.0
 40
17.9916661263
  1
25
 50
90.0
  0
LINE
  5
34D
  8
0
 62
     0
 10
-467.11210937499999
 20
-31.017187499999999
 30
0.0
 11
-414.11210937499987
 21
-31.017187499999999
 31
0.0
  0
LINE
  5
34E
  8
0
 62
     0
 10
-467.11210937499999
 20
-6.0171875000000004
 30
0.0
 11
-414.11210937499987
 21
-6.0171875000000004
 31
0.0
  0
LINE
  5
34F
  8
0
 62
     0
 10
-419.11210937499987
 20
-31.017187499999999
 30
0.0
 11
-419.11210937499987
 21
-31.411068344099998
 31
0.0
  0
LINE
  5
350
  8
0
 62
     0
 10
-419.11210937499987
 20
-31.017187499999999
 30
0.0
 11
-419.11210937499987
 21
-73.744400405899981
 31
0.0
  0
LINE
  5
351
  8
0
 62
     0
 10
-419.11210937499987
 20
-6.0171875000000004
 30
0.0
 11
-419.11210937499987
 21
-31.411068344099998
 31
0.0
  0
LINE
  5
352
  8
0
 62
     0
 10
-419.11210937499987
 20
-6.0171875000000004
 30
0.0
 11
-419.11210937499987
 21
-73.744400405899981
 31
0.0
  0
LINE
  5
353
  8
0
 62
     0
 10
-419.11210937499987
 20
-6.0171875000000004
 30
0.0
 11
-419.11210937499987
 21
-31.017187499999999
 31
0.0
  0
SOLID
  5
354
  8
0
 62
     0
 10
-419.11210937499987
 20
-6.0171875000000004
 30
0.0
 11
-416.52391881940002
 21
-15.676445388799999
 31
0.0
 12
-421.70029993059978
 22
-15.676445388799999
 32
0.0
 13
-419.11210937499987
 23
-13.2616309166
 33
0.0
  0
LINE
  5
355
  8
0
 62
     0
 10
-419.11210937499987
 20
-31.017187499999999
 30
0.0
 11
-419.11210937499987
 21
-6.0171875000000004
 31
0.0
  0
SOLID
  5
356
  8
0
 62
     0
 10
-419.11210937499987
 20
-31.017187499999999
 30
0.0
 11
-421.70029993059978
 21
-21.357929611199999
 31
0.0
 12
-416.52391881940002
 22
-21.357929611199999
 32
0.0
 13
-419.11210937499987
 23
-23.772744083399999
 33
0.0
  0
ENDBLK
  5
357
  8
0
  0
BLOCK
  8
0
  2
*D52
 70
     1
 10
0.0
 20
0.0
 30
0.0
  3
*D52
  1

  0
TEXT
  5
35B
  8
0
 62
     0
 10
-427.28710927959992
 20
625.02018260959994
 30
0.0
 40
17.9916661263
  1
25
 50
90.0
  0
LINE
  5
35C
  8
0
 62
     0
 10
-467.11210937499999
 20
583.98281250000002
 30
0.0
 11
-414.11210937499987
 21
583.98281250000002
 31
0.0
  0
LINE
  5
35D
  8
0
 62
     0
 10
-467.11210937499999
 20
608.98281250000002
 30
0.0
 11
-414.11210937499987
 21
608.98281250000002
 31
0.0
  0
LINE
  5
35E
  8
0
 62
     0
 10
-419.11210937499987
 20
583.98281250000002
 30
0.0
 11
-419.11210937499987
 21
656.77018165589993
 31
0.0
  0
LINE
  5
35F
  8
0
 62
     0
 10
-419.11210937499987
 20
583.98281250000002
 30
0.0
 11
-419.11210937499987
 21
614.43684959410007
 31
0.0
  0
LINE
  5
360
  8
0
 62
     0
 10
-419.11210937499987
 20
608.98281250000002
 30
0.0
 11
-419.11210937499987
 21
656.77018165589993
 31
0.0
  0
LINE
  5
361
  8
0
 62
     0
 10
-419.11210937499987
 20
608.98281250000002
 30
0.0
 11
-419.11210937499987
 21
614.43684959410007
 31
0.0
  0
LINE
  5
362
  8
0
 62
     0
 10
-419.11210937499987
 20
608.98281250000002
 30
0.0
 11
-419.11210937499987
 21
583.98281250000002
 31
0.0
  0
SOLID
  5
363
  8
0
 62
     0
 10
-419.11210937499987
 20
608.98281250000002
 30
0.0
 11
-416.52391881940002
 21
599.32355461120005
 31
0.0
 12
-421.70029993059978
 22
599.32355461120005
 32
0.0
 13
-419.11210937499987
 23
601.73836908340002
 33
0.0
  0
LINE
  5
364
  8
0
 62
     0
 10
-419.11210937499987
 20
583.98281250000002
 30
0.0
 11
-419.11210937499987
 21
608.98281250000002
 31
0.0
  0
SOLID
  5
365
  8
0
 62
     0
 10
-419.11210937499987
 20
583.98281250000002
 30
0.0
 11
-421.70029993059978
 21
593.64207038879999
 31
0.0
 12
-416.52391881940002
 22
593.64207038879999
 32
0.0
 13
-419.11210937499987
 23
591.22725591660003
 33
0.0
  0
ENDBLK
  5
366
  8
0
  0
BLOCK
  8
0
  2
*D53
 70
     1
 10
0.0
 20
0.0
 30
0.0
  3
*D53
  1

  0
TEXT
  5
36A
  8
0
 62
     0
 10
34.75377635960001
 20
372.81835927959997
 30
0.0
 40
17.9916661263
  1
25
  0
LINE
  5
36B
  8
0
 62
     0
 10
-0.2515625
 20
412.64335937499982
 30
0.0
 11
-0.2515625
 21
359.64335937499999
 31
0.0
  0
LINE
  5
36C
  8
0
 62
     0
 10
24.748437500000001
 20
412.64335937499982
 30
0.0
 11
24.748437500000001
 21
359.64335937499999
 31
0.0
  0
LINE
  5
36D
  8
0
 62
     0
 10
-0.2515625
 20
364.64335937499999
 30
0.0
 11
66.503775405900001
 21
364.64335937499999
 31
0.0
  0
LINE
  5
36E
  8
0
 62
     0
 10
-0.2515625
 20
364.64335937499999
 30
0.0
 11
24.170443344100001
 21
364.64335937499999
 31
0.0
  0
LINE
  5
36F
  8
0
 62
     0
 10
24.748437500000001
 20
364.64335937499999
 30
0.0
 11
66.503775405900001
 21
364.64335937499999
 31
0.0
  0
LINE
  5
370
  8
0
 62
     0
 10
24.748437500000001
 20
364.64335937499999
 30
0.0
 11
24.170443344100001
 21
364.64335937499999
 31
0.0
  0
LINE
  5
371
  8
0
 62
     0
 10
24.748437500000001
 20
364.64335937499999
 30
0.0
 11
-0.2515625
 21
364.64335937499999
 31
0.0
  0
SOLID
  5
372
  8
0
 62
     0
 10
24.748437500000001
 20
364.64335937499999
 30
0.0
 11
15.089179611200001
 21
362.05516881940002
 31
0.0
 12
15.089179611200001
 22
367.2315499305999
 32
0.0
 13
17.503994083399999
 23
364.64335937499999
 33
0.0
  0
LINE
  5
373
  8
0
 62
     0
 10
-0.2515625
 20
364.64335937499999
 30
0.0
 11
24.748437500000001
 21
364.64335937499999
 31
0.0
  0
SOLID
  5
374
  8
0
 62
     0
 10
-0.2515625
 20
364.64335937499999
 30
0.0
 11
9.4076953888000006
 21
367.2315499305999
 31
0.0
 12
9.4076953888000006
 22
362.05516881940002
 32
0.0
 13
6.9928809165999981
 23
364.64335937499999
 33
0.0
  0
ENDBLK
  5
375
  8
0
  0
BLOCK
  8
0
  2
*D54
 70
     1
 10
0.0
 20
0.0
 30
0.0
  3
*D54
  1

  0
TEXT
  5
379
  8
0
 62
     0
 10
-810.29231739039994
 20
372.81835927959997
 30
0.0
 40
17.9916661263
  1
25
  0
LINE
  5
37A
  8
0
 62
     0
 10
-775.25156249999998
 20
412.64335937499982
 30
0.0
 11
-775.25156249999998
 21
359.64335937499999
 31
0.0
  0
LINE
  5
37B
  8
0
 62
     0
 10
-750.25156249999998
 20
412.64335937499982
 30
0.0
 11
-750.25156249999998
 21
359.64335937499999
 31
0.0
  0
LINE
  5
37C
  8
0
 62
     0
 10
-775.25156249999998
 20
364.64335937499999
 30
0.0
 11
-778.54231834409984
 21
364.64335937499999
 31
0.0
  0
LINE
  5
37D
  8
0
 62
     0
 10
-775.25156249999998
 20
364.64335937499999
 30
0.0
 11
-820.87565040590005
 21
364.64335937499999
 31
0.0
  0
LINE
  5
37E
  8
0
 62
     0
 10
-750.25156249999998
 20
364.64335937499999
 30
0.0
 11
-778.54231834409984
 21
364.64335937499999
 31
0.0
  0
LINE
  5
37F
  8
0
 62
     0
 10
-750.25156249999998
 20
364.64335937499999
 30
0.0
 11
-820.87565040590005
 21
364.64335937499999
 31
0.0
  0
LINE
  5
380
  8
0
 62
     0
 10
-750.25156249999998
 20
364.64335937499999
 30
0.0
 11
-775.25156249999998
 21
364.64335937499999
 31
0.0
  0
SOLID
  5
381
  8
0
 62
     0
 10
-750.25156249999998
 20
364.64335937499999
 30
0.0
 11
-759.91082038879995
 21
362.05516881940002
 31
0.0
 12
-759.91082038879995
 22
367.2315499305999
 32
0.0
 13
-757.49600591659998
 23
364.64335937499999
 33
0.0
  0
LINE
  5
382
  8
0
 62
     0
 10
-775.25156249999998
 20
364.64335937499999
 30
0.0
 11
-750.25156249999998
 21
364.64335937499999
 31
0.0
  0
SOLID
  5
383
  8
0
 62
     0
 10
-775.25156249999998
 20
364.64335937499999
 30
0.0
 11
-765.59230461120001
 21
367.2315499305999
 31
0.0
 12
-765.59230461120001
 22
362.05516881940002
 32
0.0
 13
-768.00711908339986
 23
364.64335937499999
 33
0.0
  0
ENDBLK
  5
384
  8
0
  0
BLOCK
  8
0
  2
*D55
 70
     1
 10
0.0
 20
0.0
 30
0.0
  3
*D55
  1

  0
TEXT
  5
388
  8
0
 62
     0
 10
88.607029819500013
 20
14.6078129768
 30
0.0
 40
17.9916661263
  1
123
 50
90.0
  0
LINE
  5
389
  8
0
 62
     0
 10
24.748437500000001
 20
-31.017187499999999
 30
0.0
 11
101.7820297241
 21
-31.017187499999999
 31
0.0
  0
LINE
  5
38A
  8
0
 62
     0
 10
0.7484375
 20
91.982812499999994
 30
0.0
 11
101.7820297241
 21
91.982812499999994
 31
0.0
  0
LINE
  5
38B
  8
0
 62
     0
 10
96.782029724100013
 20
-31.017187499999999
 30
0.0
 11
96.782029724100013
 21
56.941145038599991
 31
0.0
  0
LINE
  5
38C
  8
0
 62
     0
 10
96.782029724100013
 20
-31.017187499999999
 30
0.0
 11
96.782029724100013
 21
4.0244799613999991
 31
0.0
  0
LINE
  5
38D
  8
0
 62
     0
 10
96.782029724100013
 20
91.982812499999994
 30
0.0
 11
96.782029724100013
 21
56.941145038599991
 31
0.0
  0
LINE
  5
38E
  8
0
 62
     0
 10
96.782029724100013
 20
91.982812499999994
 30
0.0
 11
96.782029724100013
 21
4.0244799613999991
 31
0.0
  0
LINE
  5
38F
  8
0
 62
     0
 10
96.782029724100013
 20
91.982812499999994
 30
0.0
 11
96.782029724100013
 21
66.982812499999994
 31
0.0
  0
SOLID
  5
390
  8
0
 62
     0
 10
96.782029724100013
 20
91.982812499999994
 30
0.0
 11
99.370220279700007
 21
82.323554611199995
 31
0.0
 12
94.193839168500006
 22
82.323554611199995
 32
0.0
 13
96.782029724100013
 23
84.738369083400002
 33
0.0
  0
LINE
  5
391
  8
0
 62
     0
 10
96.782029724100013
 20
-31.017187499999999
 30
0.0
 11
96.782029724100013
 21
-6.0171875000000004
 31
0.0
  0
SOLID
  5
392
  8
0
 62
     0
 10
96.782029724100013
 20
-31.017187499999999
 30
0.0
 11
94.193839168500006
 21
-21.357929611199999
 31
0.0
 12
99.370220279700007
 22
-21.357929611199999
 32
0.0
 13
96.782029724100013
 23
-23.772744083399999
 33
0.0
  0
ENDBLK
  5
393
  8
0
  0
BLOCK
  8
0
  2
BALLON2
 70
     0
 10
0.0
 20
0.0
 30
0.0
  3
BALLON2
  1

  0
INSERT
  5
399
  8
0
  6
CONTINUOUS
  2
*U57
 10
0.0
 20
0.0
 30
0.0
  0
CIRCLE
  5
39A
  8
┌▓È_1
 10
186.6183111222
 20
-518.63593749999995
 30
0.0
 40
20.0
  0
LINE
  5
39B
  8
Éíû@É³
 10
153.28497778880001
 20
-518.63593749999995
 30
0.0
 11
166.6183111222
 21
-518.63593749999995
 31
0.0
  0
LINE
  5
39C
  8
Éíû@É³
 10
-108.9614290753
 20
-589.05052078099993
 30
0.0
 11
153.28497778880001
 21
-518.63593749999995
 31
0.0
  0
SOLID
  5
39D
  8
Éíû@É³
 10
-108.9614290753
 20
-589.05052078099993
 30
0.0
 11
-90.682882100699985
 21
-580.00095059779994
 31
0.0
 12
-93.508766758999997
 22
-584.90139709769994
 32
0.0
 13
-93.508766758999997
 23
-584.90139709769994
 33
0.0
  0
SOLID
  5
39E
  8
Éíû@É³
 10
-93.508766758999997
 20
-584.90139709769994
 30
0.0
 11
-88.608320259099969
 21
-587.72728175589975
 31
0.0
 12
-108.9614290753
 22
-589.05052078099993
 32
0.0
 13
-108.9614290753
 23
-589.05052078099993
 33
0.0
  0
ENDBLK
  5
39F
  8
0
  0
BLOCK
  8
0
  2
*U57
 70
     1
 10
0.0
 20
0.0
 30
0.0
  3
*U57
  1

  0
TEXT
  5
57F
  8
┌▓È_1
  6
CONTINUOUS
 10
180.9559593464102
 20
-526.04427061089984
 30
0.0
 40
17.9916661263
  1
3
  0
ENDBLK
  5
581
  8
0
  0
BLOCK
  8
0
  2
CLUMP26
 70
     0
 10
0.0
 20
0.0
 30
0.0
  3
CLUMP26
  1

  0
CIRCLE
  5
3A3
  8
┌▓È_1
 62
     5
 10
8.5110006329000001
 20
-14.779750632900001
 30
0.0
 40
9.75
  0
LINE
  5
3A4
  8
┌▓È_1
 62
     5
 10
-24.555492345099999
 20
13.786742606700001
 30
0.0
 11
-37.251562499999999
 21
13.786742606700001
 31
0.0
  0
ARC
  5
3A5
  8
┌▓È_1
 62
     5
 10
-24.5554926067
 20
18.286742606699999
 30
0.0
 40
4.5
 50
270.0
 51
359.9999889394
  0
LINE
  5
3A6
  8
┌▓È_1
 62
     5
 10
-37.251562499999999
 20
-31.017187499999999
 30
0.0
 11
-37.251562499999999
 21
13.786742606700001
 31
0.0
  0
LINE
  5
3A7
  8
┌▓È_1
 62
     5
 10
-20.0554926067
 20
30.982812500000001
 30
0.0
 11
24.748437500000001
 21
30.982812500000001
 31
0.0
  0
LINE
  5
3A8
  8
┌▓È_1
 62
     5
 10
-20.0554926067
 20
18.286741738
 30
0.0
 11
-20.0554926067
 21
30.982812500000001
 31
0.0
  0
LINE
  5
3A9
  8
┌▓È_1
 10
-37.251562499999999
 20
-10.4338916064
 30
0.0
 11
-24.555490840200001
 21
-10.4338916064
 31
0.0
  0
LINE
  5
3AA
  8
┌▓È_1
 62
     5
 10
-20.0554926067
 20
26.982812500000001
 30
0.0
 11
24.748437500000001
 21
26.982812500000001
 31
0.0
  0
LINE
  5
3AB
  8
┌▓È_1
 62
     5
 10
-33.251562499999999
 20
-31.017187499999999
 30
0.0
 11
-33.251562499999999
 21
13.786742606700001
 31
0.0
  0
LINE
  5
3AC
  8
┌▓È_1
 62
     5
 10
24.748437500000001
 20
29.982812500000001
 30
0.0
 11
24.748437500000001
 21
-21.017187499999999
 31
0.0
  0
ARC
  5
3AD
  8
┌▓È_1
 10
-24.5554926067
 20
18.286742606699999
 30
0.0
 40
22.424432600999999
 50
269.99999169189999
 51
359.9999972475
  0
LINE
  5
3AE
  8
┌▓È_1
 10
-33.251562499999999
 20
-4.1376883156000002
 30
0.0
 11
-24.555495858299999
 21
-4.1376899942999987
 31
0.0
  0
LINE
  5
3AF
  8
┌▓È_1
 62
     5
 10
-1.3446813547000001
 20
26.982812500000001
 30
0.0
 11
-0.1812920826
 21
30.982812500000001
 31
0.0
  0
LINE
  5
3B0
  8
┌▓È_1
 62
     5
 10
-1.3446813547000001
 20
26.982812500000001
 30
0.0
 11
-1.3446813547000001
 21
18.2867415294
 31
0.0
  0
LINE
  5
3B1
  8
┌▓È_1
 10
-0.7861987373
 20
30.982812500000001
 30
0.0
 11
-2.131060005699998
 21
26.982812500000001
 31
0.0
  0
LINE
  5
3B2
  8
┌▓È_1
 10
-2.131060005699998
 20
26.982812500000001
 30
0.0
 11
-2.131060005699998
 21
18.2867415294
 31
0.0
  0
ARC
  5
3B3
  8
┌▓È_1
 62
     5
 10
23.748437500000001
 20
29.982812500000001
 30
0.0
 40
1.0
 50
0.0
 51
90.0
  0
LINE
  5
3B4
  8
┌▓È_1
 10
4.165141606399998
 20
30.982812500000001
 30
0.0
 11
4.165141606399998
 21
18.2867415294
 31
0.0
  0
LINE
  5
3B5
  8
┌▓È_1
 62
     5
 10
14.7484375
 20
-31.017187499999999
 30
0.0
 11
-36.251562499999999
 21
-31.017187499999999
 31
0.0
  0
ARC
  5
3B6
  8
┌▓È_1
 62
     5
 10
-24.5554926067
 20
18.286742606699999
 30
0.0
 40
23.210811252100001
 50
269.99999183310001
 51
359.99999734070002
  0
ARC
  5
3B7
  8
┌▓È_1
 10
-24.5554926067
 20
18.286742606699999
 30
0.0
 40
28.7206342132
 50
270.00000352400002
 51
359.99999785089989
  0
ARC
  5
3B8
  8
┌▓È_1
 62
     5
 10
-36.251562499999999
 20
-30.017187499999999
 30
0.0
 40
1.0
 50
180.0
 51
270.0
  0
LINE
  5
3B9
  8
┌▓È_1
 62
     5
 10
-33.251562499999999
 20
-4.9240670022000002
 30
0.0
 11
-37.251567105600003
 21
-6.0874555183999988
 31
0.0
  0
LINE
  5
3BA
  8
┌▓È_1
 62
     5
 10
-33.251562499999999
 20
-4.9240670022000002
 30
0.0
 11
-24.555495915200002
 21
-4.9240686452999993
 31
0.0
  0
LINE
  5
3BB
  8
┌▓È_1
 10
-37.251567088500003
 20
-5.4825488117999992
 30
0.0
 11
-33.251566828900003
 21
-4.1376883156000002
 31
0.0
  0
LINE
  5
3BC
  8
┌▓È_1
 62
     5
 10
-1.8996550078000001
 20
30.982812500000001
 30
0.0
 11
23.748437500000001
 21
30.982812500000001
 31
0.0
  0
LINE
  5
3BD
  8
┌▓È_1
 62
     5
 10
-37.251562499999999
 20
-30.017187499999999
 30
0.0
 11
-37.251562499999999
 21
-4.3690949921999991
 31
0.0
  0
ARC
  5
3BE
  8
┌▓È_1
 62
     5
 10
14.7484375
 20
-21.017187499999999
 30
0.0
 40
10.0
 50
270.0
 51
0.0
  0
ENDBLK
  5
3BF
  8
0
  0
BLOCK
  8
0
  2
CLUMP27
 70
     0
 10
0.0
 20
0.0
 30
0.0
  3
CLUMP27
  1

  0
CIRCLE
  5
3C3
  8
┌▓È_1
 62
     5
 10
-759.01412563289978
 20
-14.779750632900001
 30
0.0
 40
9.75
  0
LINE
  5
3C4
  8
┌▓È_1
 62
     5
 10
-725.94763265489985
 20
13.786742606700001
 30
0.0
 11
-713.25156249999986
 21
13.786742606700001
 31
0.0
  0
ARC
  5
3C5
  8
┌▓È_1
 62
     5
 10
-725.94763239329984
 20
18.286742606699999
 30
0.0
 40
4.5
 50
180.0000110606
 51
270.0
  0
LINE
  5
3C6
  8
┌▓È_1
 62
     5
 10
-713.25156249999986
 20
-31.017187499999999
 30
0.0
 11
-713.25156249999986
 21
13.786742606700001
 31
0.0
  0
LINE
  5
3C7
  8
┌▓È_1
 62
     5
 10
-730.44763239329984
 20
30.982812500000001
 30
0.0
 11
-775.25156249999998
 21
30.982812500000001
 31
0.0
  0
LINE
  5
3C8
  8
┌▓È_1
 62
     5
 10
-730.44763239329984
 20
18.286741738
 30
0.0
 11
-730.44763239329984
 21
30.982812500000001
 31
0.0
  0
LINE
  5
3C9
  8
┌▓È_1
 10
-713.25156249999986
 20
-10.4338916064
 30
0.0
 11
-725.9476341597998
 21
-10.4338916064
 31
0.0
  0
LINE
  5
3CA
  8
┌▓È_1
 62
     5
 10
-730.44763239329984
 20
26.982812500000001
 30
0.0
 11
-775.25156249999998
 21
26.982812500000001
 31
0.0
  0
LINE
  5
3CB
  8
┌▓È_1
 62
     5
 10
-717.25156249999986
 20
-31.017187499999999
 30
0.0
 11
-717.25156249999986
 21
13.786742606700001
 31
0.0
  0
LINE
  5
3CC
  8
┌▓È_1
 62
     5
 10
-775.25156249999998
 20
29.982812500000001
 30
0.0
 11
-775.25156249999998
 21
-21.017187499999999
 31
0.0
  0
ARC
  5
3CD
  8
┌▓È_1
 10
-725.94763239329984
 20
18.286742606699999
 30
0.0
 40
22.424432600999999
 50
180.0000027525
 51
270.00000830810001
  0
LINE
  5
3CE
  8
┌▓È_1
 10
-717.25156249999986
 20
-4.1376883156000002
 30
0.0
 11
-725.94762914169985
 21
-4.1376899942999987
 31
0.0
  0
LINE
  5
3CF
  8
┌▓È_1
 62
     5
 10
-749.15844364529983
 20
26.982812500000001
 30
0.0
 11
-750.3218329174
 21
30.982812500000001
 31
0.0
  0
LINE
  5
3D0
  8
┌▓È_1
 62
     5
 10
-749.15844364529983
 20
26.982812500000001
 30
0.0
 11
-749.15844364529983
 21
18.2867415294
 31
0.0
  0
LINE
  5
3D1
  8
┌▓È_1
 10
-749.71692626270021
 20
30.982812500000001
 30
0.0
 11
-748.37206499429965
 21
26.982812500000001
 31
0.0
  0
LINE
  5
3D2
  8
┌▓È_1
 10
-748.37206499429965
 20
26.982812500000001
 30
0.0
 11
-748.37206499429965
 21
18.2867415294
 31
0.0
  0
ARC
  5
3D3
  8
┌▓È_1
 62
     5
 10
-774.25156249999998
 20
29.982812500000001
 30
0.0
 40
1.0
 50
90.0
 51
180.0
  0
LINE
  5
3D4
  8
┌▓È_1
 10
-754.66826660640004
 20
30.982812500000001
 30
0.0
 11
-754.66826660640004
 21
18.2867415294
 31
0.0
  0
LINE
  5
3D5
  8
┌▓È_1
 62
     5
 10
-765.25156249999975
 20
-31.017187499999999
 30
0.0
 11
-714.25156249999975
 21
-31.017187499999999
 31
0.0
  0
ARC
  5
3D6
  8
┌▓È_1
 62
     5
 10
-725.94763239329984
 20
18.286742606699999
 30
0.0
 40
23.210811252100001
 50
180.00000265930001
 51
270.00000816689999
  0
ARC
  5
3D7
  8
┌▓È_1
 10
-725.94763239329984
 20
18.286742606699999
 30
0.0
 40
28.7206342132
 50
180.0000021491
 51
269.99999647599998
  0
ARC
  5
3D8
  8
┌▓È_1
 62
     5
 10
-714.25156249999975
 20
-30.017187499999999
 30
0.0
 40
1.0
 50
270.0
 51
0.0
  0
LINE
  5
3D9
  8
┌▓È_1
 62
     5
 10
-717.25156249999986
 20
-4.9240670022000002
 30
0.0
 11
-713.25155789439998
 21
-6.0874555183999988
 31
0.0
  0
LINE
  5
3DA
  8
┌▓È_1
 62
     5
 10
-717.25156249999986
 20
-4.9240670022000002
 30
0.0
 11
-725.94762908479981
 21
-4.9240686452999993
 31
0.0
  0
LINE
  5
3DB
  8
┌▓È_1
 10
-713.25155791149996
 20
-5.4825488117999992
 30
0.0
 11
-717.25155817109999
 21
-4.1376883156000002
 31
0.0
  0
LINE
  5
3DC
  8
┌▓È_1
 62
     5
 10
-748.60346999219985
 20
30.982812500000001
 30
0.0
 11
-774.25156249999998
 21
30.982812500000001
 31
0.0
  0
LINE
  5
3DD
  8
┌▓È_1
 62
     5
 10
-713.25156249999986
 20
-30.017187499999999
 30
0.0
 11
-713.25156249999986
 21
-4.3690949921999991
 31
0.0
  0
ARC
  5
3DE
  8
┌▓È_1
 62
     5
 10
-765.25156249999975
 20
-21.017187499999999
 30
0.0
 40
10.0
 50
180.0
 51
270.0
  0
ENDBLK
  5
3DF
  8
0
  0
BLOCK
  8
0
  2
CLUMP28
 70
     0
 10
0.0
 20
0.0
 30
0.0
  3
CLUMP28
  1

  0
CIRCLE
  5
3EF
  8
┌▓È_1
 62
     5
 10
-759.01412563289978
 20
592.74537563290005
 30
0.0
 40
9.75
  0
LINE
  5
3F0
  8
┌▓È_1
 62
     5
 10
-725.94763265489985
 20
564.1788823933
 30
0.0
 11
-713.25156249999986
 21
564.1788823933
 31
0.0
  0
ARC
  5
3F1
  8
┌▓È_1
 62
     5
 10
-725.94763239329984
 20
559.6788823933
 30
0.0
 40
4.5
 50
90.0
 51
179.9999889394
  0
LINE
  5
3F2
  8
┌▓È_1
 62
     5
 10
-713.25156249999986
 20
608.98281250000002
 30
0.0
 11
-713.25156249999986
 21
564.1788823933
 31
0.0
  0
LINE
  5
3F3
  8
┌▓È_1
 62
     5
 10
-730.44763239329984
 20
546.98281250000002
 30
0.0
 11
-775.25156249999998
 21
546.98281250000002
 31
0.0
  0
LINE
  5
3F4
  8
┌▓È_1
 62
     5
 10
-730.44763239329984
 20
559.67888326199989
 30
0.0
 11
-730.44763239329984
 21
546.98281250000002
 31
0.0
  0
LINE
  5
3F5
  8
┌▓È_1
 10
-713.25156249999986
 20
588.39951660639986
 30
0.0
 11
-725.9476341597998
 21
588.39951660639986
 31
0.0
  0
LINE
  5
3F6
  8
┌▓È_1
 62
     5
 10
-730.44763239329984
 20
550.98281250000002
 30
0.0
 11
-775.25156249999998
 21
550.98281250000002
 31
0.0
  0
LINE
  5
3F7
  8
┌▓È_1
 62
     5
 10
-717.25156249999986
 20
608.98281250000002
 30
0.0
 11
-717.25156249999986
 21
564.1788823933
 31
0.0
  0
LINE
  5
3F8
  8
┌▓È_1
 62
     5
 10
-775.25156249999998
 20
547.98281250000002
 30
0.0
 11
-775.25156249999998
 21
598.98281250000002
 31
0.0
  0
ARC
  5
3F9
  8
┌▓È_1
 10
-725.94763239329984
 20
559.6788823933
 30
0.0
 40
22.424432600999999
 50
89.999991691900007
 51
179.9999972475
  0
LINE
  5
3FA
  8
┌▓È_1
 10
-717.25156249999986
 20
582.10331331559985
 30
0.0
 11
-725.94762914169985
 21
582.10331499430004
 31
0.0
  0
LINE
  5
3FB
  8
┌▓È_1
 62
     5
 10
-749.15844364529983
 20
550.98281250000002
 30
0.0
 11
-750.3218329174
 21
546.98281250000002
 31
0.0
  0
LINE
  5
3FC
  8
┌▓È_1
 62
     5
 10
-749.15844364529983
 20
550.98281250000002
 30
0.0
 11
-749.15844364529983
 21
559.6788834706
 31
0.0
  0
LINE
  5
3FD
  8
┌▓È_1
 10
-749.71692626270021
 20
546.98281250000002
 30
0.0
 11
-748.37206499429965
 21
550.98281250000002
 31
0.0
  0
LINE
  5
3FE
  8
┌▓È_1
 10
-748.37206499429965
 20
550.98281250000002
 30
0.0
 11
-748.37206499429965
 21
559.6788834706
 31
0.0
  0
ARC
  5
3FF
  8
┌▓È_1
 62
     5
 10
-774.25156249999998
 20
547.98281250000002
 30
0.0
 40
1.0
 50
180.0
 51
270.0
  0
LINE
  5
400
  8
┌▓È_1
 10
-754.66826660640004
 20
546.98281250000002
 30
0.0
 11
-754.66826660640004
 21
559.6788834706
 31
0.0
  0
LINE
  5
401
  8
┌▓È_1
 62
     5
 10
-765.25156249999975
 20
608.98281250000002
 30
0.0
 11
-714.25156249999975
 21
608.98281250000002
 31
0.0
  0
ARC
  5
402
  8
┌▓È_1
 62
     5
 10
-725.94763239329984
 20
559.6788823933
 30
0.0
 40
23.210811252100001
 50
89.999991833099998
 51
179.99999734069999
  0
ARC
  5
403
  8
┌▓È_1
 10
-725.94763239329984
 20
559.6788823933
 30
0.0
 40
28.7206342132
 50
90.000003523999979
 51
179.9999978509
  0
ARC
  5
404
  8
┌▓È_1
 62
     5
 10
-714.25156249999975
 20
607.98281250000002
 30
0.0
 40
1.0
 50
0.0
 51
90.0
  0
LINE
  5
405
  8
┌▓È_1
 62
     5
 10
-717.25156249999986
 20
582.88969200220004
 30
0.0
 11
-713.25155789439998
 21
584.05308051839995
 31
0.0
  0
LINE
  5
406
  8
┌▓È_1
 62
     5
 10
-717.25156249999986
 20
582.88969200220004
 30
0.0
 11
-725.94762908479981
 21
582.88969364529987
 31
0.0
  0
LINE
  5
407
  8
┌▓È_1
 10
-713.25155791149996
 20
583.44817381179985
 30
0.0
 11
-717.25155817109999
 21
582.10331331559985
 31
0.0
  0
LINE
  5
408
  8
┌▓È_1
 62
     5
 10
-748.60346999219985
 20
546.98281250000002
 30
0.0
 11
-774.25156249999998
 21
546.98281250000002
 31
0.0
  0
LINE
  5
409
  8
┌▓È_1
 62
     5
 10
-713.25156249999986
 20
607.98281250000002
 30
0.0
 11
-713.25156249999986
 21
582.33471999219989
 31
0.0
  0
ARC
  5
40A
  8
┌▓È_1
 62
     5
 10
-765.25156249999975
 20
598.98281250000002
 30
0.0
 40
10.0
 50
90.0
 51
180.0
  0
ENDBLK
  5
40B
  8
0
  0
BLOCK
  8
0
  2
CLUMP29
 70
     0
 10
0.0
 20
0.0
 30
0.0
  3
CLUMP29
  1

  0
CIRCLE
  5
40F
  8
┌▓È_1
 62
     5
 10
8.5110006329000001
 20
592.74537563290005
 30
0.0
 40
9.75
  0
LINE
  5
410
  8
┌▓È_1
 62
     5
 10
-24.555492345099999
 20
564.1788823933
 30
0.0
 11
-37.251562499999999
 21
564.1788823933
 31
0.0
  0
ARC
  5
411
  8
┌▓È_1
 62
     5
 10
-24.5554926067
 20
559.6788823933
 30
0.0
 40
4.5
 50
0.0000110606
 51
90.0
  0
LINE
  5
412
  8
┌▓È_1
 62
     5
 10
-37.251562499999999
 20
608.98281250000002
 30
0.0
 11
-37.251562499999999
 21
564.1788823933
 31
0.0
  0
LINE
  5
413
  8
┌▓È_1
 62
     5
 10
-20.0554926067
 20
546.98281250000002
 30
0.0
 11
24.748437500000001
 21
546.98281250000002
 31
0.0
  0
LINE
  5
414
  8
┌▓È_1
 62
     5
 10
-20.0554926067
 20
559.67888326199989
 30
0.0
 11
-20.0554926067
 21
546.98281250000002
 31
0.0
  0
LINE
  5
415
  8
┌▓È_1
 10
-37.251562499999999
 20
588.39951660639986
 30
0.0
 11
-24.555490840200001
 21
588.39951660639986
 31
0.0
  0
LINE
  5
416
  8
┌▓È_1
 62
     5
 10
-20.0554926067
 20
550.98281250000002
 30
0.0
 11
24.748437500000001
 21
550.98281250000002
 31
0.0
  0
LINE
  5
417
  8
┌▓È_1
 62
     5
 10
-33.251562499999999
 20
608.98281250000002
 30
0.0
 11
-33.251562499999999
 21
564.1788823933
 31
0.0
  0
LINE
  5
418
  8
┌▓È_1
 62
     5
 10
24.748437500000001
 20
547.98281250000002
 30
0.0
 11
24.748437500000001
 21
598.98281250000002
 31
0.0
  0
ARC
  5
419
  8
┌▓È_1
 10
-24.5554926067
 20
559.6788823933
 30
0.0
 40
22.424432600999999
 50
0.0000027525
 51
90.000008308099979
  0
LINE
  5
41A
  8
┌▓È_1
 10
-33.251562499999999
 20
582.10331331559985
 30
0.0
 11
-24.555495858299999
 21
582.10331499430004
 31
0.0
  0
LINE
  5
41B
  8
┌▓È_1
 62
     5
 10
-1.3446813547000001
 20
550.98281250000002
 30
0.0
 11
-0.1812920826
 21
546.98281250000002
 31
0.0
  0
LINE
  5
41C
  8
┌▓È_1
 62
     5
 10
-1.3446813547000001
 20
550.98281250000002
 30
0.0
 11
-1.3446813547000001
 21
559.6788834706
 31
0.0
  0
LINE
  5
41D
  8
┌▓È_1
 10
-0.7861987373
 20
546.98281250000002
 30
0.0
 11
-2.131060005699998
 21
550.98281250000002
 31
0.0
  0
LINE
  5
41E
  8
┌▓È_1
 10
-2.131060005699998
 20
550.98281250000002
 30
0.0
 11
-2.131060005699998
 21
559.6788834706
 31
0.0
  0
ARC
  5
41F
  8
┌▓È_1
 62
     5
 10
23.748437500000001
 20
547.98281250000002
 30
0.0
 40
1.0
 50
270.0
 51
0.0
  0
LINE
  5
420
  8
┌▓È_1
 10
4.165141606399998
 20
546.98281250000002
 30
0.0
 11
4.165141606399998
 21
559.6788834706
 31
0.0
  0
LINE
  5
421
  8
┌▓È_1
 62
     5
 10
14.7484375
 20
608.98281250000002
 30
0.0
 11
-36.251562499999999
 21
608.98281250000002
 31
0.0
  0
ARC
  5
422
  8
┌▓È_1
 62
     5
 10
-24.5554926067
 20
559.6788823933
 30
0.0
 40
23.210811252100001
 50
0.0000026593
 51
90.000008166900017
  0
ARC
  5
423
  8
┌▓È_1
 10
-24.5554926067
 20
559.6788823933
 30
0.0
 40
28.7206342132
 50
0.0000021491
 51
89.999996476000007
  0
ARC
  5
424
  8
┌▓È_1
 62
     5
 10
-36.251562499999999
 20
607.98281250000002
 30
0.0
 40
1.0
 50
90.0
 51
180.0
  0
LINE
  5
425
  8
┌▓È_1
 62
     5
 10
-33.251562499999999
 20
582.88969200220004
 30
0.0
 11
-37.251567105600003
 21
584.05308051839995
 31
0.0
  0
LINE
  5
426
  8
┌▓È_1
 62
     5
 10
-33.251562499999999
 20
582.88969200220004
 30
0.0
 11
-24.555495915200002
 21
582.88969364529987
 31
0.0
  0
LINE
  5
427
  8
┌▓È_1
 10
-37.251567088500003
 20
583.44817381179985
 30
0.0
 11
-33.251566828900003
 21
582.10331331559985
 31
0.0
  0
LINE
  5
428
  8
┌▓È_1
 62
     5
 10
-1.8996550078000001
 20
546.98281250000002
 30
0.0
 11
23.748437500000001
 21
546.98281250000002
 31
0.0
  0
LINE
  5
429
  8
┌▓È_1
 62
     5
 10
-37.251562499999999
 20
607.98281250000002
 30
0.0
 11
-37.251562499999999
 21
582.33471999219989
 31
0.0
  0
ARC
  5
42A
  8
┌▓È_1
 62
     5
 10
14.7484375
 20
598.98281250000002
 30
0.0
 40
10.0
 50
0.0
 51
90.0
  0
ENDBLK
  5
42B
  8
0
  0
BLOCK
  8
0
  2
*D62
 70
     1
 10
0.0
 20
0.0
 30
0.0
  3
*D62
  1

  0
TEXT
  5
434
  8
0
 62
     0
 10
-52.626562023199988
 20
296.31445302959997
 30
0.0
 40
17.9916661263
  1
123
  0
LINE
  5
435
  8
0
 62
     0
 10
24.748437500000001
 20
186.98281249999999
 30
0.0
 11
24.748437500000001
 21
293.13945312499999
 31
0.0
  0
LINE
  5
436
  8
0
 62
     0
 10
-98.251562500000006
 20
186.98281249999999
 30
0.0
 11
-98.251562500000006
 21
293.13945312499999
 31
0.0
  0
LINE
  5
437
  8
0
 62
     0
 10
24.748437500000001
 20
288.13945312499999
 30
0.0
 11
-10.2932299614
 21
288.13945312499999
 31
0.0
  0
LINE
  5
438
  8
0
 62
     0
 10
24.748437500000001
 20
288.13945312499999
 30
0.0
 11
-63.209895038599988
 21
288.13945312499999
 31
0.0
  0
LINE
  5
439
  8
0
 62
     0
 10
-98.251562500000006
 20
288.13945312499999
 30
0.0
 11
-10.2932299614
 21
288.13945312499999
 31
0.0
  0
LINE
  5
43A
  8
0
 62
     0
 10
-98.251562500000006
 20
288.13945312499999
 30
0.0
 11
-63.209895038599988
 21
288.13945312499999
 31
0.0
  0
LINE
  5
43B
  8
0
 62
     0
 10
-98.251562500000006
 20
288.13945312499999
 30
0.0
 11
-73.251562500000006
 21
288.13945312499999
 31
0.0
  0
SOLID
  5
43C
  8
0
 62
     0
 10
-98.251562500000006
 20
288.13945312499999
 30
0.0
 11
-88.592304611200007
 21
290.72764368060001
 31
0.0
 12
-88.592304611200007
 22
285.55126256940002
 32
0.0
 13
-91.007119083400013
 23
288.13945312499999
 33
0.0
  0
LINE
  5
43D
  8
0
 62
     0
 10
24.748437500000001
 20
288.13945312499999
 30
0.0
 11
-0.2515625
 21
288.13945312499999
 31
0.0
  0
SOLID
  5
43E
  8
0
 62
     0
 10
24.748437500000001
 20
288.13945312499999
 30
0.0
 11
15.089179611200001
 21
285.55126256940002
 31
0.0
 12
15.089179611200001
 22
290.72764368060001
 32
0.0
 13
17.503994083399999
 23
288.13945312499999
 33
0.0
  0
ENDBLK
  5
43F
  8
0
  0
BLOCK
  8
0
  2
BALLON3
 70
     0
 10
0.0
 20
0.0
 30
0.0
  3
BALLON3
  1

  0
INSERT
  5
444
  8
0
  6
CONTINUOUS
  2
*U64
 10
0.0
 20
0.0
 30
0.0
  0
CIRCLE
  5
445
  8
┌▓È_1
 10
186.6183111222
 20
-70.81210937500002
 30
0.0
 40
20.0
  0
LINE
  5
446
  8
Éíû@É³
 10
153.28497778880001
 20
-70.81210937500002
 30
0.0
 11
166.6183111222
 21
-70.81210937500002
 31
0.0
  0
LINE
  5
447
  8
Éíû@É³
 10
-54.672395833300001
 20
243.0002604167
 30
0.0
 11
153.28497778880001
 21
-70.81210937500002
 31
0.0
  0
SOLID
  5
448
  8
Éíû@É³
 10
-54.672395833300001
 20
243.0002604167
 30
0.0
 11
-40.290118214099998
 21
228.5382380655
 31
0.0
 12
-45.834031872600001
 22
229.6629697436
 32
0.0
 13
-45.834031872600001
 23
229.6629697436
 33
0.0
  0
SOLID
  5
449
  8
Éíû@É³
 10
-45.834031872600001
 20
229.6629697436
 30
0.0
 11
-46.958763550699999
 21
224.11905608519999
 31
0.0
 12
-54.672395833300001
 22
243.0002604167
 32
0.0
 13
-54.672395833300001
 23
243.0002604167
 33
0.0
  0
ENDBLK
  5
44A
  8
0
  0
BLOCK
  8
0
  2
*U64
 70
     1
 10
0.0
 20
0.0
 30
0.0
  3
*U64
  1

  0
TEXT
  5
583
  8
┌▓È_1
  6
CONTINUOUS
 10
181.9149060181164
 20
-78.22044248589998
 30
0.0
 40
17.9916661263
  1
1
  0
ENDBLK
  5
585
  8
0
  0
BLOCK
  8
0
  2
CLUMP30
 70
     0
 10
0.0
 20
0.0
 30
0.0
  3
CLUMP30
  1

  0
LINE
  5
461
  8
┌▓È_1
 62
     5
 10
883.15808331619996
 20
58.982812520100012
 30
0.0
 11
884.85808330429995
 21
57.282812532000001
 31
0.0
  0
LINE
  5
462
  8
┌▓È_1
 10
883.15808334830001
 20
58.982812488100002
 30
0.0
 11
905.15808331619985
 21
58.982812467999992
 31
0.0
  0
LINE
  5
463
  8
┌▓È_1
 62
     5
 10
905.15808331619985
 20
58.982812500000001
 30
0.0
 11
903.45808334829997
 21
57.282812532000001
 31
0.0
  0
LINE
  5
464
  8
┌▓È_1
 62
     5
 10
905.15808331619985
 20
58.982812467999992
 30
0.0
 11
908.15808331710014
 21
58.982812465199999
 31
0.0
  0
LINE
  5
465
  8
┌▓È_1
 62
     5
 10
873.1580832607001
 20
58.982812500000001
 30
0.0
 11
883.15808334830001
 21
58.982812488100002
 31
0.0
  0
LINE
  5
466
  8
┌▓È_1
 62
     5
 10
788.15808335520001
 20
34.482812512199999
 30
0.0
 11
866.15808326069987
 21
34.482812512199999
 31
0.0
  0
LINE
  5
467
  8
┌▓È_1
 62
     5
 10
788.15808335520001
 20
149.48281251220001
 30
0.0
 11
866.15808326069987
 21
149.48281251220001
 31
0.0
  0
LINE
  5
468
  8
┌▓È_1
  6
BORDER
 62
     3
 10
754.03115496989994
 20
91.982812514599985
 30
0.0
 11
919.05742187500005
 21
91.982812499999994
 31
0.0
  0
LINE
  5
469
  8
┌▓È_1
 62
     5
 10
781.15808335520001
 20
31.982812515799999
 30
0.0
 11
788.15808335520001
 21
34.482812512199999
 31
0.0
  0
ARC
  5
46A
  8
┌▓È_1
 62
     5
 10
770.15808335520001
 20
29.982812515799999
 30
0.0
 40
2.0
 50
90.0
 51
180.0
  0
ARC
  5
46B
  8
┌▓È_1
 62
     5
 10
764.65808335520001
 20
18.482812513599999
 30
0.0
 40
0.5
 50
180.0
 51
270.0
  0
LINE
  5
46C
  8
┌▓È_1
 62
     5
 10
764.65808335520001
 20
17.982812513599999
 30
0.0
 11
767.65808335520001
 21
17.982812513599999
 31
0.0
  0
ARC
  5
46D
  8
┌▓È_1
 62
     5
 10
767.65808335520001
 20
18.482812513599999
 30
0.0
 40
0.5
 50
270.0
 51
0.0
  0
LINE
  5
46E
  8
┌▓È_1
 62
     5
 10
770.15808335520001
 20
31.982812515799999
 30
0.0
 11
781.15808335520001
 21
31.982812515799999
 31
0.0
  0
ARC
  5
46F
  8
┌▓È_1
 62
     5
 10
866.15808326069987
 20
41.482812512199999
 30
0.0
 40
7.0
 50
270.0
 51
0.0
  0
ARC
  5
470
  8
┌▓È_1
 62
     5
 10
767.65808335520001
 20
165.48281251360001
 30
0.0
 40
0.5
 50
0.0
 51
90.0
  0
LINE
  5
471
  8
┌▓È_1
 62
     5
 10
764.65808335520001
 20
165.98281251360001
 30
0.0
 11
767.65808335520001
 21
165.98281251360001
 31
0.0
  0
ARC
  5
472
  8
┌▓È_1
 62
     5
 10
764.65808335520001
 20
165.48281251360001
 30
0.0
 40
0.5
 50
90.0
 51
180.0
  0
LINE
  5
473
  8
┌▓È_1
 62
     5
 10
781.15808335520001
 20
151.98281251579999
 30
0.0
 11
788.15808335520001
 21
149.48281251220001
 31
0.0
  0
LINE
  5
474
  8
┌▓È_1
 62
     5
 10
770.15808335520001
 20
151.98281251579999
 30
0.0
 11
781.15808335520001
 21
151.98281251579999
 31
0.0
  0
ARC
  5
475
  8
┌▓È_1
 62
     5
 10
770.15808335520001
 20
153.98281251579999
 30
0.0
 40
2.0
 50
180.0
 51
270.0
  0
LINE
  5
476
  8
┌▓È_1
 62
     5
 10
883.15808331619996
 20
124.98281247990001
 30
0.0
 11
884.85808330429995
 21
126.68281246790001
 31
0.0
  0
LINE
  5
477
  8
┌▓È_1
 62
     5
 10
905.15808331619985
 20
124.98281249999999
 30
0.0
 11
903.45808334829997
 21
126.68281246790001
 31
0.0
  0
LINE
  5
478
  8
┌▓È_1
 62
     5
 10
873.1580832607001
 20
124.98281249999999
 30
0.0
 11
883.15808334830001
 21
124.98281251189999
 31
0.0
  0
LINE
  5
479
  8
┌▓È_1
 10
883.15808334830001
 20
124.98281251189999
 30
0.0
 11
905.15808331619985
 21
124.982812532
 31
0.0
  0
LINE
  5
47A
  8
┌▓È_1
 62
     5
 10
905.15808331619985
 20
124.982812532
 30
0.0
 11
908.15808325980004
 21
124.9828125348
 31
0.0
  0
ARC
  5
47B
  8
┌▓È_1
 62
     5
 10
866.15808326069987
 20
142.48281251220001
 30
0.0
 40
7.0
 50
0.0
 51
90.0
  0
LINE
  5
47C
  8
┌▓È_1
 62
     5
 10
884.85808330429995
 20
126.68281246790001
 30
0.0
 11
903.45808334829997
 21
126.68281246790001
 31
0.0
  0
LINE
  5
47D
  8
┌▓È_1
 62
     5
 10
908.15808331710014
 20
58.982812465199999
 30
0.0
 11
908.15808325980004
 21
124.9828125348
 31
0.0
  0
LINE
  5
47E
  8
┌▓È_1
 62
     5
 10
764.15808335520001
 20
18.482812513599999
 30
0.0
 11
764.15808335520001
 21
165.4828124819
 31
0.0
  0
LINE
  5
47F
  8
┌▓È_1
 62
     5
 10
883.15808340550007
 20
58.982812443500002
 30
0.0
 11
883.15808334830001
 21
124.9828125131
 31
0.0
  0
LINE
  5
480
  8
┌▓È_1
 62
     5
 10
905.15808337340002
 20
58.982812462600002
 30
0.0
 11
905.15808331619985
 21
124.9828125322
 31
0.0
  0
LINE
  5
481
  8
┌▓È_1
 62
     5
 10
903.45808334970013
 20
57.282812532000001
 30
0.0
 11
903.45808334829997
 21
126.68281246790001
 31
0.0
  0
LINE
  5
482
  8
┌▓È_1
 62
     5
 10
884.85808330580005
 20
57.282812532000001
 30
0.0
 11
884.85808330429995
 21
126.68281246790001
 31
0.0
  0
LINE
  5
483
  8
┌▓È_1
 62
     5
 10
873.1580832607001
 20
142.48281251220001
 30
0.0
 11
873.1580832607001
 21
41.482812512199999
 31
0.0
  0
LINE
  5
484
  8
┌▓È_1
 62
     5
 10
788.15808335520001
 20
34.482812512199999
 30
0.0
 11
788.15808335520001
 21
149.48281251220001
 31
0.0
  0
LINE
  5
485
  8
┌▓È_1
 62
     5
 10
781.15808335520001
 20
151.98281251579999
 30
0.0
 11
781.15808335520001
 21
31.982812515799999
 31
0.0
  0
LINE
  5
486
  8
┌▓È_1
 62
     5
 10
768.15808335520001
 20
165.48281251360001
 30
0.0
 11
768.15808335520001
 21
18.482812513599999
 31
0.0
  0
LINE
  5
487
  8
┌▓È_1
 62
     5
 10
884.85808330429995
 20
57.282812532000001
 30
0.0
 11
903.45808334829997
 21
57.282812532000001
 31
0.0
  0
ENDBLK
  5
488
  8
0
  0
BLOCK
  8
0
  2
CLUMP31
 70
     0
 10
0.0
 20
0.0
 30
0.0
  3
CLUMP31
  1

  0
ARC
  5
48E
  8
┌▓È_1
 10
447.15559896280001
 20
91.982812526000004
 30
0.0
 40
36.5
 50
201.32906313820001
 51
217.90400948000001
  0
LINE
  5
48F
  8
┌▓È_1
 62
     5
 10
419.34323486480002
 20
34.54982535700001
 30
0.0
 11
419.34323486779988
 21
68.345502961500003
 31
0.0
  0
LINE
  5
490
  8
┌▓È_1
 62
     5
 10
401.15559895299998
 20
31.982812536800001
 30
0.0
 11
412.15559895299998
 21
31.982812535800001
 31
0.0
  0
LINE
  5
491
  8
┌▓È_1
 62
     5
 10
395.65559895180002
 20
17.982812535000001
 30
0.0
 11
398.65559895180002
 21
17.982812534699999
 31
0.0
  0
POLYLINE
  5
492
  8
┌▓È_1
 62
     5
 66
     1
 10
0.0
 20
0.0
 30
0.0
 70
     8
  0
VERTEX
  5
70C
  8
┌▓È_1
 62
     5
 10
395.65600000000001
 20
17.982800000000001
 30
0.0
 70
    32
  0
VERTEX
  5
70D
  8
┌▓È_1
 62
     5
 10
395.649
 20
17.982900000000001
 30
0.0
 70
    32
  0
VERTEX
  5
70E
  8
┌▓È_1
 62
     5
 10
395.64300000000009
 20
17.983000000000001
 30
0.0
 70
    32
  0
VERTEX
  5
70F
  8
┌▓È_1
 62
     5
 10
395.637
 20
17.9832
 30
0.0
 70
    32
  0
VERTEX
  5
710
  8
┌▓È_1
 62
     5
 10
395.63099999999997
 20
17.9834
 30
0.0
 70
    32
  0
VERTEX
  5
711
  8
┌▓È_1
 62
     5
 10
395.625
 20
17.983799999999999
 30
0.0
 70
    32
  0
VERTEX
  5
712
  8
┌▓È_1
 62
     5
 10
395.61900000000003
 20
17.984200000000001
 30
0.0
 70
    32
  0
VERTEX
  5
713
  8
┌▓È_1
 62
     5
 10
395.61300000000011
 20
17.9847
 30
0.0
 70
    32
  0
VERTEX
  5
714
  8
┌▓È_1
 62
     5
 10
395.60700000000003
 20
17.985199999999999
 30
0.0
 70
    32
  0
VERTEX
  5
715
  8
┌▓È_1
 62
     5
 10
395.60000000000002
 20
17.985900000000001
 30
0.0
 70
    32
  0
VERTEX
  5
716
  8
┌▓È_1
 62
     5
 10
395.59399999999999
 20
17.986599999999999
 30
0.0
 70
    32
  0
VERTEX
  5
717
  8
┌▓È_1
 62
     5
 10
395.58800000000002
 20
17.987400000000001
 30
0.0
 70
    32
  0
VERTEX
  5
718
  8
┌▓È_1
 62
     5
 10
395.58199999999999
 20
17.988199999999999
 30
0.0
 70
    32
  0
VERTEX
  5
719
  8
┌▓È_1
 62
     5
 10
395.57600000000002
 20
17.9892
 30
0.0
 70
    32
  0
VERTEX
  5
71A
  8
┌▓È_1
 62
     5
 10
395.56999999999999
 20
17.990200000000002
 30
0.0
 70
    32
  0
VERTEX
  5
71B
  8
┌▓È_1
 62
     5
 10
395.56400000000002
 20
17.991299999999999
 30
0.0
 70
    32
  0
VERTEX
  5
71C
  8
┌▓È_1
 62
     5
 10
395.55800000000011
 20
17.9924
 30
0.0
 70
    32
  0
VERTEX
  5
71D
  8
┌▓È_1
 62
     5
 10
395.55200000000002
 20
17.9937
 30
0.0
 70
    32
  0
VERTEX
  5
71E
  8
┌▓È_1
 62
     5
 10
395.54599999999999
 20
17.995000000000001
 30
0.0
 70
    32
  0
VERTEX
  5
71F
  8
┌▓È_1
 62
     5
 10
395.54000000000002
 20
17.996300000000002
 30
0.0
 70
    32
  0
VERTEX
  5
720
  8
┌▓È_1
 62
     5
 10
395.53399999999999
 20
17.997800000000002
 30
0.0
 70
    32
  0
VERTEX
  5
721
  8
┌▓È_1
 62
     5
 10
395.52800000000002
 20
17.999300000000002
 30
0.0
 70
    32
  0
VERTEX
  5
722
  8
┌▓È_1
 62
     5
 10
395.52199999999999
 20
18.000900000000001
 30
0.0
 70
    32
  0
VERTEX
  5
723
  8
┌▓È_1
 62
     5
 10
395.51600000000002
 20
18.002600000000001
 30
0.0
 70
    32
  0
VERTEX
  5
724
  8
┌▓È_1
 62
     5
 10
395.50999999999999
 20
18.004300000000001
 30
0.0
 70
    32
  0
VERTEX
  5
725
  8
┌▓È_1
 62
     5
 10
395.505
 20
18.0062
 30
0.0
 70
    32
  0
VERTEX
  5
726
  8
┌▓È_1
 62
     5
 10
395.49900000000002
 20
18.007999999999999
 30
0.0
 70
    32
  0
VERTEX
  5
727
  8
┌▓È_1
 62
     5
 10
395.49299999999999
 20
18.010000000000002
 30
0.0
 70
    32
  0
VERTEX
  5
728
  8
┌▓È_1
 62
     5
 10
395.48700000000002
 20
18.012
 30
0.0
 70
    32
  0
VERTEX
  5
729
  8
┌▓È_1
 62
     5
 10
395.48099999999999
 20
18.014099999999999
 30
0.0
 70
    32
  0
VERTEX
  5
72A
  8
┌▓È_1
 62
     5
 10
395.476
 20
18.016300000000001
 30
0.0
 70
    32
  0
VERTEX
  5
72B
  8
┌▓È_1
 62
     5
 10
395.47000000000003
 20
18.018599999999999
 30
0.0
 70
    32
  0
VERTEX
  5
72C
  8
┌▓È_1
 62
     5
 10
395.464
 20
18.020900000000001
 30
0.0
 70
    32
  0
VERTEX
  5
72D
  8
┌▓È_1
 62
     5
 10
395.459
 20
18.023299999999999
 30
0.0
 70
    32
  0
VERTEX
  5
72E
  8
┌▓È_1
 62
     5
 10
395.45299999999997
 20
18.025700000000001
 30
0.0
 70
    32
  0
VERTEX
  5
72F
  8
┌▓È_1
 62
     5
 10
395.447
 20
18.028199999999998
 30
0.0
 70
    32
  0
VERTEX
  5
730
  8
┌▓È_1
 62
     5
 10
395.44199999999989
 20
18.030799999999999
 30
0.0
 70
    32
  0
VERTEX
  5
731
  8
┌▓È_1
 62
     5
 10
395.43599999999998
 20
18.0335
 30
0.0
 70
    32
  0
VERTEX
  5
732
  8
┌▓È_1
 62
     5
 10
395.43099999999998
 20
18.036200000000001
 30
0.0
 70
    32
  0
VERTEX
  5
733
  8
┌▓È_1
 62
     5
 10
395.42500000000001
 20
18.039000000000001
 30
0.0
 70
    32
  0
VERTEX
  5
734
  8
┌▓È_1
 62
     5
 10
395.42000000000002
 20
18.041899999999998
 30
0.0
 70
    32
  0
VERTEX
  5
735
  8
┌▓È_1
 62
     5
 10
395.41500000000002
 20
18.044799999999999
 30
0.0
 70
    32
  0
VERTEX
  5
736
  8
┌▓È_1
 62
     5
 10
395.40899999999999
 20
18.047799999999999
 30
0.0
 70
    32
  0
VERTEX
  5
737
  8
┌▓È_1
 62
     5
 10
395.404
 20
18.050799999999999
 30
0.0
 70
    32
  0
VERTEX
  5
738
  8
┌▓È_1
 62
     5
 10
395.399
 20
18.053899999999999
 30
0.0
 70
    32
  0
VERTEX
  5
739
  8
┌▓È_1
 62
     5
 10
395.39299999999997
 20
18.057099999999998
 30
0.0
 70
    32
  0
VERTEX
  5
73A
  8
┌▓È_1
 62
     5
 10
395.38799999999998
 20
18.060400000000001
 30
0.0
 70
    32
  0
VERTEX
  5
73B
  8
┌▓È_1
 62
     5
 10
395.38299999999998
 20
18.063700000000001
 30
0.0
 70
    32
  0
VERTEX
  5
73C
  8
┌▓È_1
 62
     5
 10
395.37799999999999
 20
18.0671
 30
0.0
 70
    32
  0
VERTEX
  5
73D
  8
┌▓È_1
 62
     5
 10
395.3730000000001
 20
18.070499999999999
 30
0.0
 70
    32
  0
VERTEX
  5
73E
  8
┌▓È_1
 62
     5
 10
395.36800000000011
 20
18.074000000000002
 30
0.0
 70
    32
  0
VERTEX
  5
73F
  8
┌▓È_1
 62
     5
 10
395.36300000000011
 20
18.0776
 30
0.0
 70
    32
  0
VERTEX
  5
740
  8
┌▓È_1
 62
     5
 10
395.358
 20
18.081199999999999
 30
0.0
 70
    32
  0
VERTEX
  5
741
  8
┌▓È_1
 62
     5
 10
395.35300000000001
 20
18.084900000000001
 30
0.0
 70
    32
  0
VERTEX
  5
742
  8
┌▓È_1
 62
     5
 10
395.34800000000001
 20
18.0886
 30
0.0
 70
    32
  0
VERTEX
  5
743
  8
┌▓È_1
 62
     5
 10
395.34300000000002
 20
18.092400000000001
 30
0.0
 70
    32
  0
VERTEX
  5
744
  8
┌▓È_1
 62
     5
 10
395.33800000000002
 20
18.096299999999999
 30
0.0
 70
    32
  0
VERTEX
  5
745
  8
┌▓È_1
 62
     5
 10
395.334
 20
18.100200000000001
 30
0.0
 70
    32
  0
VERTEX
  5
746
  8
┌▓È_1
 62
     5
 10
395.32900000000001
 20
18.104199999999999
 30
0.0
 70
    32
  0
VERTEX
  5
747
  8
┌▓È_1
 62
     5
 10
395.32400000000001
 20
18.1082
 30
0.0
 70
    32
  0
VERTEX
  5
748
  8
┌▓È_1
 62
     5
 10
395.31999999999999
 20
18.112300000000001
 30
0.0
 70
    32
  0
VERTEX
  5
749
  8
┌▓È_1
 62
     5
 10
395.315
 20
18.116499999999998
 30
0.0
 70
    32
  0
VERTEX
  5
74A
  8
┌▓È_1
 62
     5
 10
395.31099999999998
 20
18.120699999999999
 30
0.0
 70
    32
  0
VERTEX
  5
74B
  8
┌▓È_1
 62
     5
 10
395.30599999999998
 20
18.1249
 30
0.0
 70
    32
  0
VERTEX
  5
74C
  8
┌▓È_1
 62
     5
 10
395.30200000000002
 20
18.129300000000001
 30
0.0
 70
    32
  0
VERTEX
  5
74D
  8
┌▓È_1
 62
     5
 10
395.298
 20
18.133600000000001
 30
0.0
 70
    32
  0
VERTEX
  5
74E
  8
┌▓È_1
 62
     5
 10
395.29300000000001
 20
18.138000000000002
 30
0.0
 70
    32
  0
VERTEX
  5
74F
  8
┌▓È_1
 62
     5
 10
395.28899999999999
 20
18.142499999999998
 30
0.0
 70
    32
  0
VERTEX
  5
750
  8
┌▓È_1
 62
     5
 10
395.28500000000003
 20
18.146999999999998
 30
0.0
 70
    32
  0
VERTEX
  5
751
  8
┌▓È_1
 62
     5
 10
395.28100000000001
 20
18.151599999999998
 30
0.0
 70
    32
  0
VERTEX
  5
752
  8
┌▓È_1
 62
     5
 10
395.27699999999999
 20
18.156199999999998
 30
0.0
 70
    32
  0
VERTEX
  5
753
  8
┌▓È_1
 62
     5
 10
395.27300000000002
 20
18.160900000000002
 30
0.0
 70
    32
  0
VERTEX
  5
754
  8
┌▓È_1
 62
     5
 10
395.26900000000001
 20
18.165600000000001
 30
0.0
 70
    32
  0
VERTEX
  5
755
  8
┌▓È_1
 62
     5
 10
395.26499999999999
 20
18.170400000000001
 30
0.0
 70
    32
  0
VERTEX
  5
756
  8
┌▓È_1
 62
     5
 10
395.26100000000002
 20
18.1752
 30
0.0
 70
    32
  0
VERTEX
  5
757
  8
┌▓È_1
 62
     5
 10
395.2580000000001
 20
18.180099999999999
 30
0.0
 70
    32
  0
VERTEX
  5
758
  8
┌▓È_1
 62
     5
 10
395.25400000000002
 20
18.184999999999999
 30
0.0
 70
    32
  0
VERTEX
  5
759
  8
┌▓È_1
 62
     5
 10
395.25
 20
18.189900000000002
 30
0.0
 70
    32
  0
VERTEX
  5
75A
  8
┌▓È_1
 62
     5
 10
395.2469999999999
 20
18.194900000000001
 30
0.0
 70
    32
  0
VERTEX
  5
75B
  8
┌▓È_1
 62
     5
 10
395.24300000000011
 20
18.1999
 30
0.0
 70
    32
  0
VERTEX
  5
75C
  8
┌▓È_1
 62
     5
 10
395.24000000000001
 20
18.204999999999998
 30
0.0
 70
    32
  0
VERTEX
  5
75D
  8
┌▓È_1
 62
     5
 10
395.23599999999999
 20
18.2102
 30
0.0
 70
    32
  0
VERTEX
  5
75E
  8
┌▓È_1
 62
     5
 10
395.233
 20
18.215299999999999
 30
0.0
 70
    32
  0
VERTEX
  5
75F
  8
┌▓È_1
 62
     5
 10
395.23000000000002
 20
18.220500000000001
 30
0.0
 70
    32
  0
VERTEX
  5
760
  8
┌▓È_1
 62
     5
 10
395.22699999999998
 20
18.2258
 30
0.0
 70
    32
  0
VERTEX
  5
761
  8
┌▓È_1
 62
     5
 10
395.22399999999999
 20
18.231000000000002
 30
0.0
 70
    32
  0
VERTEX
  5
762
  8
┌▓È_1
 62
     5
 10
395.221
 20
18.2364
 30
0.0
 70
    32
  0
VERTEX
  5
763
  8
┌▓È_1
 62
     5
 10
395.21800000000002
 20
18.241700000000002
 30
0.0
 70
    32
  0
VERTEX
  5
764
  8
┌▓È_1
 62
     5
 10
395.21499999999997
 20
18.2471
 30
0.0
 70
    32
  0
VERTEX
  5
765
  8
┌▓È_1
 62
     5
 10
395.21199999999999
 20
18.252500000000001
 30
0.0
 70
    32
  0
VERTEX
  5
766
  8
┌▓È_1
 62
     5
 10
395.209
 20
18.257999999999999
 30
0.0
 70
    32
  0
VERTEX
  5
767
  8
┌▓È_1
 62
     5
 10
395.20600000000002
 20
18.263500000000001
 30
0.0
 70
    32
  0
VERTEX
  5
768
  8
┌▓È_1
 62
     5
 10
395.20400000000001
 20
18.268999999999998
 30
0.0
 70
    32
  0
VERTEX
  5
769
  8
┌▓È_1
 62
     5
 10
395.20099999999991
 20
18.2746
 30
0.0
 70
    32
  0
VERTEX
  5
76A
  8
┌▓È_1
 62
     5
 10
395.19799999999998
 20
18.280200000000001
 30
0.0
 70
    32
  0
VERTEX
  5
76B
  8
┌▓È_1
 62
     5
 10
395.19600000000003
 20
18.285799999999998
 30
0.0
 70
    32
  0
VERTEX
  5
76C
  8
┌▓È_1
 62
     5
 10
395.19400000000002
 20
18.291499999999999
 30
0.0
 70
    32
  0
VERTEX
  5
76D
  8
┌▓È_1
 62
     5
 10
395.19099999999997
 20
18.2972
 30
0.0
 70
    32
  0
VERTEX
  5
76E
  8
┌▓È_1
 62
     5
 10
395.18900000000002
 20
18.302900000000001
 30
0.0
 70
    32
  0
VERTEX
  5
76F
  8
┌▓È_1
 62
     5
 10
395.1869999999999
 20
18.308599999999998
 30
0.0
 70
    32
  0
VERTEX
  5
770
  8
┌▓È_1
 62
     5
 10
395.185
 20
18.314399999999999
 30
0.0
 70
    32
  0
VERTEX
  5
771
  8
┌▓È_1
 62
     5
 10
395.18300000000011
 20
18.3202
 30
0.0
 70
    32
  0
VERTEX
  5
772
  8
┌▓È_1
 62
     5
 10
395.18099999999998
 20
18.326000000000001
 30
0.0
 70
    32
  0
VERTEX
  5
773
  8
┌▓È_1
 62
     5
 10
395.17899999999997
 20
18.331800000000001
 30
0.0
 70
    32
  0
VERTEX
  5
774
  8
┌▓È_1
 62
     5
 10
395.17700000000002
 20
18.337700000000002
 30
0.0
 70
    32
  0
VERTEX
  5
775
  8
┌▓È_1
 62
     5
 10
395.17500000000001
 20
18.343599999999999
 30
0.0
 70
    32
  0
VERTEX
  5
776
  8
┌▓È_1
 62
     5
 10
395.17399999999998
 20
18.349499999999999
 30
0.0
 70
    32
  0
VERTEX
  5
777
  8
┌▓È_1
 62
     5
 10
395.17200000000003
 20
18.355399999999999
 30
0.0
 70
    32
  0
VERTEX
  5
778
  8
┌▓È_1
 62
     5
 10
395.17099999999999
 20
18.3613
 30
0.0
 70
    32
  0
VERTEX
  5
779
  8
┌▓È_1
 62
     5
 10
395.1690000000001
 20
18.3673
 30
0.0
 70
    32
  0
VERTEX
  5
77A
  8
┌▓È_1
 62
     5
 10
395.16800000000001
 20
18.3733
 30
0.0
 70
    32
  0
VERTEX
  5
77B
  8
┌▓È_1
 62
     5
 10
395.166
 20
18.379300000000001
 30
0.0
 70
    32
  0
VERTEX
  5
77C
  8
┌▓È_1
 62
     5
 10
395.16500000000002
 20
18.385300000000001
 30
0.0
 70
    32
  0
VERTEX
  5
77D
  8
┌▓È_1
 62
     5
 10
395.16399999999999
 20
18.391300000000001
 30
0.0
 70
    32
  0
VERTEX
  5
77E
  8
┌▓È_1
 62
     5
 10
395.16300000000001
 20
18.397300000000001
 30
0.0
 70
    32
  0
VERTEX
  5
77F
  8
┌▓È_1
 62
     5
 10
395.16199999999998
 20
18.403400000000001
 30
0.0
 70
    32
  0
VERTEX
  5
780
  8
┌▓È_1
 62
     5
 10
395.161
 20
18.409400000000002
 30
0.0
 70
    32
  0
VERTEX
  5
781
  8
┌▓È_1
 62
     5
 10
395.16000000000003
 20
18.415500000000002
 30
0.0
 70
    32
  0
VERTEX
  5
782
  8
┌▓È_1
 62
     5
 10
395.15899999999999
 20
18.421600000000002
 30
0.0
 70
    32
  0
VERTEX
  5
783
  8
┌▓È_1
 62
     5
 10
395.15899999999999
 20
18.427700000000002
 30
0.0
 70
    32
  0
VERTEX
  5
784
  8
┌▓È_1
 62
     5
 10
395.15800000000002
 20
18.433800000000002
 30
0.0
 70
    32
  0
VERTEX
  5
785
  8
┌▓È_1
 62
     5
 10
395.15699999999998
 20
18.439900000000002
 30
0.0
 70
    32
  0
VERTEX
  5
786
  8
┌▓È_1
 62
     5
 10
395.15699999999998
 20
18.446000000000002
 30
0.0
 70
    32
  0
VERTEX
  5
787
  8
┌▓È_1
 62
     5
 10
395.15699999999998
 20
18.452200000000001
 30
0.0
 70
    32
  0
VERTEX
  5
788
  8
┌▓È_1
 62
     5
 10
395.15600000000001
 20
18.458300000000001
 30
0.0
 70
    32
  0
VERTEX
  5
789
  8
┌▓È_1
 62
     5
 10
395.15600000000001
 20
18.464400000000001
 30
0.0
 70
    32
  0
VERTEX
  5
78A
  8
┌▓È_1
 62
     5
 10
395.15600000000001
 20
18.470500000000001
 30
0.0
 70
    32
  0
VERTEX
  5
78B
  8
┌▓È_1
 62
     5
 10
395.15600000000001
 20
18.476700000000001
 30
0.0
 70
    32
  0
VERTEX
  5
78C
  8
┌▓È_1
 62
     5
 10
395.15600000000001
 20
18.482800000000001
 30
0.0
 70
    32
  0
SEQEND
  5
78D
  8
┌▓È_1
 62
     5
  0
ARC
  5
493
  8
┌▓È_1
 62
     5
 10
401.15559895280001
 20
29.982812536800001
 30
0.0
 40
2.0
 50
89.999999994899994
 51
179.99999999490001
  0
ARC
  5
494
  8
┌▓È_1
 62
     5
 10
398.65559895180002
 20
18.482812534699999
 30
0.0
 40
0.5
 50
269.999999995
 51
0.0000150653
  0
LINE
  5
495
  8
┌▓È_1
 62
     5
 10
401.15559897429989
 20
151.9828125315
 30
0.0
 11
412.15559897430001
 21
151.98281252859999
 31
0.0
  0
ARC
  5
496
  8
┌▓È_1
 10
447.15559896280001
 20
91.982812526000004
 30
0.0
 40
36.5
 50
142.0959905098
 51
158.6709368516
  0
LINE
  5
497
  8
┌▓È_1
 62
     5
 10
412.15559895929999
 20
102.3389701025
 30
0.0
 11
412.15559896370002
 21
151.9828125324
 31
0.0
  0
LINE
  5
498
  8
┌▓È_1
 62
     5
 10
419.34323487199998
 20
115.6201220953
 30
0.0
 11
419.34323487500001
 21
149.41579970839999
 31
0.0
  0
LINE
  5
499
  8
┌▓È_1
 62
     5
 10
446.15559896669993
 20
135.98281248539999
 30
0.0
 11
448.15559896669998
 21
135.9828124851
 31
0.0
  0
LINE
  5
49A
  8
┌▓È_1
 62
     5
 10
446.15559896579998
 20
125.4678838575
 30
0.0
 11
446.15559896669993
 21
135.98281248539999
 31
0.0
  0
LINE
  5
49B
  8
┌▓È_1
 62
     5
 10
448.15559896579998
 20
125.4678838574
 30
0.0
 11
448.15559896669998
 21
135.9828124851
 31
0.0
  0
LINE
  5
49C
  8
┌▓È_1
 62
     5
 10
419.3432348851
 20
149.41579970480001
 30
0.0
 11
487.21668471309999
 21
148.8234770636
 31
0.0
  0
LINE
  5
49D
  8
┌▓È_1
  6
BORDER
 62
     3
 10
383.23581609069998
 20
91.982812537300006
 30
0.0
 11
511.07538183489987
 21
91.982812514599985
 31
0.0
  0
LINE
  5
49E
  8
┌▓È_1
 62
     5
 10
419.34323486480002
 20
34.54982535700001
 30
0.0
 11
487.21668470179992
 21
35.1421479742
 31
0.0
  0
CIRCLE
  5
49F
  8
┌▓È_1
 62
     5
 10
447.15559896280001
 20
91.982812526000004
 30
0.0
 40
30.000000034100001
  0
CIRCLE
  5
4A0
  8
┌▓È_1
 62
     5
 10
447.15559896280001
 20
91.982812526000004
 30
0.0
 40
30.288138978900001
  0
CIRCLE
  5
4A1
  8
┌▓È_1
 62
     5
 10
447.15559896280001
 20
91.982812526000004
 30
0.0
 40
33.500000030999999
  0
LINE
  5
4A2
  8
┌▓È_1
 62
     5
 10
395.1555989583
 20
91.982812535200011
 30
0.0
 11
395.1555989583
 21
22.7328123088
 31
0.0
  0
LINE
  5
4A3
  8
┌▓È_1
 62
     5
 10
393.6555989583
 20
22.7328122411
 30
0.0
 11
393.6555989583
 21
91.982812535300013
 31
0.0
  0
LINE
  5
4A4
  8
┌▓È_1
 62
     5
 10
393.35559895829999
 20
25.982812596399999
 30
0.0
 11
393.35559895829999
 21
91.982812535300013
 31
0.0
  0
LINE
  5
4A5
  8
┌▓È_1
 62
     5
 10
422.15559896329989
 20
75.399688511800008
 30
0.0
 11
422.15559896329989
 21
85.982812517599967
 31
0.0
  0
LINE
  5
4A6
  8
┌▓È_1
 62
     5
 10
412.15559895299998
 20
31.982812535800001
 30
0.0
 11
412.1555989574
 21
81.626654955600003
 31
0.0
  0
LINE
  5
4A7
  8
┌▓È_1
  6
BORDER
 62
     3
 10
447.15559895819979
 20
40.031199471699999
 30
0.0
 11
447.15559896740001
 21
143.93442558020001
 31
0.0
  0
LINE
  5
4A8
  8
┌▓È_1
 62
     5
 10
395.15559895180002
 20
18.482812535000001
 30
0.0
 11
395.15559896489998
 21
165.48281250330001
 31
0.0
  0
LINE
  5
4A9
  8
┌▓È_1
 62
     5
 10
399.15559895180002
 20
18.482812666200001
 30
0.0
 11
399.15559896489998
 21
165.4828125347
 31
0.0
  0
LINE
  5
4AA
  8
┌▓È_1
 62
     5
 10
494.15559895389998
 20
42.141881435099997
 30
0.0
 11
494.15559896280001
 21
141.82374360150001
 31
0.0
  0
ARC
  5
4AB
  8
┌▓È_1
 62
     5
 10
393.1555989583
 20
31.982812569899998
 30
0.0
 40
0.5
 50
66.421821521799998
 51
90.0
  0
POLYLINE
  5
4AC
  8
┌▓È_1
 62
     5
 66
     1
 10
0.0
 20
0.0
 30
0.0
 70
     8
  0
VERTEX
  5
78E
  8
┌▓È_1
 62
     5
 10
393.35599999999999
 20
25.982800000000001
 30
0.0
 70
    32
  0
VERTEX
  5
78F
  8
┌▓È_1
 62
     5
 10
393.35599999999999
 20
25.978300000000001
 30
0.0
 70
    32
  0
VERTEX
  5
790
  8
┌▓È_1
 62
     5
 10
393.35599999999999
 20
25.973800000000001
 30
0.0
 70
    32
  0
VERTEX
  5
791
  8
┌▓È_1
 62
     5
 10
393.35599999999999
 20
25.969200000000001
 30
0.0
 70
    32
  0
VERTEX
  5
792
  8
┌▓È_1
 62
     5
 10
393.35599999999999
 20
25.964700000000001
 30
0.0
 70
    32
  0
VERTEX
  5
793
  8
┌▓È_1
 62
     5
 10
393.35599999999999
 20
25.9602
 30
0.0
 70
    32
  0
VERTEX
  5
794
  8
┌▓È_1
 62
     5
 10
393.35599999999999
 20
25.9557
 30
0.0
 70
    32
  0
VERTEX
  5
795
  8
┌▓È_1
 62
     5
 10
393.35700000000003
 20
25.9511
 30
0.0
 70
    32
  0
VERTEX
  5
796
  8
┌▓È_1
 62
     5
 10
393.35700000000003
 20
25.9466
 30
0.0
 70
    32
  0
VERTEX
  5
797
  8
┌▓È_1
 62
     5
 10
393.35700000000003
 20
25.9421
 30
0.0
 70
    32
  0
VERTEX
  5
798
  8
┌▓È_1
 62
     5
 10
393.358
 20
25.9376
 30
0.0
 70
    32
  0
VERTEX
  5
799
  8
┌▓È_1
 62
     5
 10
393.358
 20
25.9331
 30
0.0
 70
    32
  0
VERTEX
  5
79A
  8
┌▓È_1
 62
     5
 10
393.35899999999998
 20
25.928599999999999
 30
0.0
 70
    32
  0
VERTEX
  5
79B
  8
┌▓È_1
 62
     5
 10
393.35899999999998
 20
25.924099999999999
 30
0.0
 70
    32
  0
VERTEX
  5
79C
  8
┌▓È_1
 62
     5
 10
393.36000000000001
 20
25.919599999999999
 30
0.0
 70
    32
  0
VERTEX
  5
79D
  8
┌▓È_1
 62
     5
 10
393.36000000000001
 20
25.915099999999999
 30
0.0
 70
    32
  0
VERTEX
  5
79E
  8
┌▓È_1
 62
     5
 10
393.36099999999999
 20
25.910599999999999
 30
0.0
 70
    32
  0
VERTEX
  5
79F
  8
┌▓È_1
 62
     5
 10
393.36200000000002
 20
25.906099999999999
 30
0.0
 70
    32
  0
VERTEX
  5
7A0
  8
┌▓È_1
 62
     5
 10
393.36200000000002
 20
25.901700000000002
 30
0.0
 70
    32
  0
VERTEX
  5
7A1
  8
┌▓È_1
 62
     5
 10
393.36300000000011
 20
25.897200000000002
 30
0.0
 70
    32
  0
VERTEX
  5
7A2
  8
┌▓È_1
 62
     5
 10
393.36399999999998
 20
25.892700000000001
 30
0.0
 70
    32
  0
VERTEX
  5
7A3
  8
┌▓È_1
 62
     5
 10
393.36500000000001
 20
25.888300000000001
 30
0.0
 70
    32
  0
VERTEX
  5
7A4
  8
┌▓È_1
 62
     5
 10
393.36500000000001
 20
25.883800000000001
 30
0.0
 70
    32
  0
VERTEX
  5
7A5
  8
┌▓È_1
 62
     5
 10
393.36599999999999
 20
25.8794
 30
0.0
 70
    32
  0
VERTEX
  5
7A6
  8
┌▓È_1
 62
     5
 10
393.36700000000002
 20
25.875
 30
0.0
 70
    32
  0
VERTEX
  5
7A7
  8
┌▓È_1
 62
     5
 10
393.36800000000011
 20
25.8706
 30
0.0
 70
    32
  0
VERTEX
  5
7A8
  8
┌▓È_1
 62
     5
 10
393.36900000000003
 20
25.866199999999999
 30
0.0
 70
    32
  0
VERTEX
  5
7A9
  8
┌▓È_1
 62
     5
 10
393.37
 20
25.861799999999999
 30
0.0
 70
    32
  0
VERTEX
  5
7AA
  8
┌▓È_1
 62
     5
 10
393.37200000000001
 20
25.857399999999998
 30
0.0
 70
    32
  0
VERTEX
  5
7AB
  8
┌▓È_1
 62
     5
 10
393.37299999999999
 20
25.853000000000002
 30
0.0
 70
    32
  0
VERTEX
  5
7AC
  8
┌▓È_1
 62
     5
 10
393.37400000000002
 20
25.848600000000001
 30
0.0
 70
    32
  0
VERTEX
  5
7AD
  8
┌▓È_1
 62
     5
 10
393.375
 20
25.8443
 30
0.0
 70
    32
  0
VERTEX
  5
7AE
  8
┌▓È_1
 62
     5
 10
393.37599999999998
 20
25.8399
 30
0.0
 70
    32
  0
VERTEX
  5
7AF
  8
┌▓È_1
 62
     5
 10
393.37799999999999
 20
25.835599999999999
 30
0.0
 70
    32
  0
VERTEX
  5
7B0
  8
┌▓È_1
 62
     5
 10
393.37900000000002
 20
25.831299999999999
 30
0.0
 70
    32
  0
VERTEX
  5
7B1
  8
┌▓È_1
 62
     5
 10
393.38099999999997
 20
25.827000000000002
 30
0.0
 70
    32
  0
VERTEX
  5
7B2
  8
┌▓È_1
 62
     5
 10
393.38199999999989
 20
25.822700000000001
 30
0.0
 70
    32
  0
VERTEX
  5
7B3
  8
┌▓È_1
 62
     5
 10
393.38299999999998
 20
25.8184
 30
0.0
 70
    32
  0
VERTEX
  5
7B4
  8
┌▓È_1
 62
     5
 10
393.38499999999999
 20
25.8141
 30
0.0
 70
    32
  0
VERTEX
  5
7B5
  8
┌▓È_1
 62
     5
 10
393.38600000000002
 20
25.809899999999999
 30
0.0
 70
    32
  0
VERTEX
  5
7B6
  8
┌▓È_1
 62
     5
 10
393.38799999999998
 20
25.805599999999998
 30
0.0
 70
    32
  0
VERTEX
  5
7B7
  8
┌▓È_1
 62
     5
 10
393.38999999999999
 20
25.801400000000001
 30
0.0
 70
    32
  0
VERTEX
  5
7B8
  8
┌▓È_1
 62
     5
 10
393.39100000000002
 20
25.7972
 30
0.0
 70
    32
  0
VERTEX
  5
7B9
  8
┌▓È_1
 62
     5
 10
393.39300000000009
 20
25.792999999999999
 30
0.0
 70
    32
  0
VERTEX
  5
7BA
  8
┌▓È_1
 62
     5
 10
393.39499999999998
 20
25.788799999999998
 30
0.0
 70
    32
  0
VERTEX
  5
7BB
  8
┌▓È_1
 62
     5
 10
393.39699999999999
 20
25.784600000000001
 30
0.0
 70
    32
  0
VERTEX
  5
7BC
  8
┌▓È_1
 62
     5
 10
393.39800000000002
 20
25.7805
 30
0.0
 70
    32
  0
VERTEX
  5
7BD
  8
┌▓È_1
 62
     5
 10
393.39999999999998
 20
25.776299999999999
 30
0.0
 70
    32
  0
VERTEX
  5
7BE
  8
┌▓È_1
 62
     5
 10
393.40199999999999
 20
25.772200000000002
 30
0.0
 70
    32
  0
VERTEX
  5
7BF
  8
┌▓È_1
 62
     5
 10
393.404
 20
25.7681
 30
0.0
 70
    32
  0
VERTEX
  5
7C0
  8
┌▓È_1
 62
     5
 10
393.40600000000001
 20
25.764099999999999
 30
0.0
 70
    32
  0
VERTEX
  5
7C1
  8
┌▓È_1
 62
     5
 10
393.40800000000002
 20
25.760000000000002
 30
0.0
 70
    32
  0
VERTEX
  5
7C2
  8
┌▓È_1
 62
     5
 10
393.41000000000003
 20
25.7559
 30
0.0
 70
    32
  0
VERTEX
  5
7C3
  8
┌▓È_1
 62
     5
 10
393.41199999999998
 20
25.751899999999999
 30
0.0
 70
    32
  0
VERTEX
  5
7C4
  8
┌▓È_1
 62
     5
 10
393.41399999999999
 20
25.747900000000001
 30
0.0
 70
    32
  0
VERTEX
  5
7C5
  8
┌▓È_1
 62
     5
 10
393.416
 20
25.7439
 30
0.0
 70
    32
  0
VERTEX
  5
7C6
  8
┌▓È_1
 62
     5
 10
393.41899999999998
 20
25.739999999999998
 30
0.0
 70
    32
  0
VERTEX
  5
7C7
  8
┌▓È_1
 62
     5
 10
393.42099999999999
 20
25.736000000000001
 30
0.0
 70
    32
  0
VERTEX
  5
7C8
  8
┌▓È_1
 62
     5
 10
393.423
 20
25.732099999999999
 30
0.0
 70
    32
  0
VERTEX
  5
7C9
  8
┌▓È_1
 62
     5
 10
393.42500000000001
 20
25.728200000000001
 30
0.0
 70
    32
  0
VERTEX
  5
7CA
  8
┌▓È_1
 62
     5
 10
393.42800000000011
 20
25.724299999999999
 30
0.0
 70
    32
  0
VERTEX
  5
7CB
  8
┌▓È_1
 62
     5
 10
393.43000000000001
 20
25.720400000000001
 30
0.0
 70
    32
  0
VERTEX
  5
7CC
  8
┌▓È_1
 62
     5
 10
393.4319999999999
 20
25.7166
 30
0.0
 70
    32
  0
VERTEX
  5
7CD
  8
┌▓È_1
 62
     5
 10
393.435
 20
25.712800000000001
 30
0.0
 70
    32
  0
VERTEX
  5
7CE
  8
┌▓È_1
 62
     5
 10
393.4369999999999
 20
25.709
 30
0.0
 70
    32
  0
VERTEX
  5
7CF
  8
┌▓È_1
 62
     5
 10
393.44
 20
25.705200000000001
 30
0.0
 70
    32
  0
VERTEX
  5
7D0
  8
┌▓È_1
 62
     5
 10
393.44200000000001
 20
25.7014
 30
0.0
 70
    32
  0
VERTEX
  5
7D1
  8
┌▓È_1
 62
     5
 10
393.44499999999999
 20
25.697700000000001
 30
0.0
 70
    32
  0
VERTEX
  5
7D2
  8
┌▓È_1
 62
     5
 10
393.447
 20
25.693999999999999
 30
0.0
 70
    32
  0
VERTEX
  5
7D3
  8
┌▓È_1
 62
     5
 10
393.44999999999999
 20
25.690300000000001
 30
0.0
 70
    32
  0
VERTEX
  5
7D4
  8
┌▓È_1
 62
     5
 10
393.45299999999997
 20
25.686599999999999
 30
0.0
 70
    32
  0
VERTEX
  5
7D5
  8
┌▓È_1
 62
     5
 10
393.45499999999998
 20
25.683
 30
0.0
 70
    32
  0
VERTEX
  5
7D6
  8
┌▓È_1
 62
     5
 10
393.45800000000003
 20
25.679400000000001
 30
0.0
 70
    32
  0
VERTEX
  5
7D7
  8
┌▓È_1
 62
     5
 10
393.46100000000001
 20
25.675799999999999
 30
0.0
 70
    32
  0
VERTEX
  5
7D8
  8
┌▓È_1
 62
     5
 10
393.464
 20
25.6722
 30
0.0
 70
    32
  0
VERTEX
  5
7D9
  8
┌▓È_1
 62
     5
 10
393.46699999999998
 20
25.668700000000001
 30
0.0
 70
    32
  0
VERTEX
  5
7DA
  8
┌▓È_1
 62
     5
 10
393.46899999999999
 20
25.665199999999999
 30
0.0
 70
    32
  0
VERTEX
  5
7DB
  8
┌▓È_1
 62
     5
 10
393.47199999999998
 20
25.6617
 30
0.0
 70
    32
  0
VERTEX
  5
7DC
  8
┌▓È_1
 62
     5
 10
393.47500000000002
 20
25.658200000000001
 30
0.0
 70
    32
  0
VERTEX
  5
7DD
  8
┌▓È_1
 62
     5
 10
393.47800000000001
 20
25.654800000000002
 30
0.0
 70
    32
  0
VERTEX
  5
7DE
  8
┌▓È_1
 62
     5
 10
393.48099999999999
 20
25.651399999999999
 30
0.0
 70
    32
  0
VERTEX
  5
7DF
  8
┌▓È_1
 62
     5
 10
393.48399999999998
 20
25.648
 30
0.0
 70
    32
  0
VERTEX
  5
7E0
  8
┌▓È_1
 62
     5
 10
393.48700000000002
 20
25.6447
 30
0.0
 70
    32
  0
VERTEX
  5
7E1
  8
┌▓È_1
 62
     5
 10
393.49000000000001
 20
25.641400000000001
 30
0.0
 70
    32
  0
VERTEX
  5
7E2
  8
┌▓È_1
 62
     5
 10
393.49300000000011
 20
25.638100000000001
 30
0.0
 70
    32
  0
VERTEX
  5
7E3
  8
┌▓È_1
 62
     5
 10
393.49700000000001
 20
25.634799999999998
 30
0.0
 70
    32
  0
VERTEX
  5
7E4
  8
┌▓È_1
 62
     5
 10
393.5
 20
25.631599999999999
 30
0.0
 70
    32
  0
VERTEX
  5
7E5
  8
┌▓È_1
 62
     5
 10
393.5030000000001
 20
25.628399999999999
 30
0.0
 70
    32
  0
VERTEX
  5
7E6
  8
┌▓È_1
 62
     5
 10
393.50599999999997
 20
25.6252
 30
0.0
 70
    32
  0
VERTEX
  5
7E7
  8
┌▓È_1
 62
     5
 10
393.50900000000001
 20
25.622
 30
0.0
 70
    32
  0
VERTEX
  5
7E8
  8
┌▓È_1
 62
     5
 10
393.51299999999998
 20
25.6189
 30
0.0
 70
    32
  0
VERTEX
  5
7E9
  8
┌▓È_1
 62
     5
 10
393.51600000000002
 20
25.6158
 30
0.0
 70
    32
  0
VERTEX
  5
7EA
  8
┌▓È_1
 62
     5
 10
393.51900000000001
 20
25.6128
 30
0.0
 70
    32
  0
VERTEX
  5
7EB
  8
┌▓È_1
 62
     5
 10
393.52300000000002
 20
25.6097
 30
0.0
 70
    32
  0
VERTEX
  5
7EC
  8
┌▓È_1
 62
     5
 10
393.52600000000001
 20
25.6067
 30
0.0
 70
    32
  0
VERTEX
  5
7ED
  8
┌▓È_1
 62
     5
 10
393.52999999999997
 20
25.6038
 30
0.0
 70
    32
  0
VERTEX
  5
7EE
  8
┌▓È_1
 62
     5
 10
393.53300000000002
 20
25.6008
 30
0.0
 70
    32
  0
VERTEX
  5
7EF
  8
┌▓È_1
 62
     5
 10
393.536
 20
25.597899999999999
 30
0.0
 70
    32
  0
VERTEX
  5
7F0
  8
┌▓È_1
 62
     5
 10
393.54000000000002
 20
25.594999999999999
 30
0.0
 70
    32
  0
VERTEX
  5
7F1
  8
┌▓È_1
 62
     5
 10
393.54300000000001
 20
25.592199999999998
 30
0.0
 70
    32
  0
VERTEX
  5
7F2
  8
┌▓È_1
 62
     5
 10
393.54700000000003
 20
25.589400000000001
 30
0.0
 70
    32
  0
VERTEX
  5
7F3
  8
┌▓È_1
 62
     5
 10
393.55099999999999
 20
25.586600000000001
 30
0.0
 70
    32
  0
VERTEX
  5
7F4
  8
┌▓È_1
 62
     5
 10
393.55400000000009
 20
25.5839
 30
0.0
 70
    32
  0
VERTEX
  5
7F5
  8
┌▓È_1
 62
     5
 10
393.55800000000011
 20
25.581199999999999
 30
0.0
 70
    32
  0
VERTEX
  5
7F6
  8
┌▓È_1
 62
     5
 10
393.56099999999998
 20
25.578499999999998
 30
0.0
 70
    32
  0
VERTEX
  5
7F7
  8
┌▓È_1
 62
     5
 10
393.565
 20
25.575800000000001
 30
0.0
 70
    32
  0
VERTEX
  5
7F8
  8
┌▓È_1
 62
     5
 10
393.56900000000002
 20
25.5732
 30
0.0
 70
    32
  0
VERTEX
  5
7F9
  8
┌▓È_1
 62
     5
 10
393.57299999999998
 20
25.570599999999999
 30
0.0
 70
    32
  0
VERTEX
  5
7FA
  8
┌▓È_1
 62
     5
 10
393.57600000000002
 20
25.568100000000001
 30
0.0
 70
    32
  0
VERTEX
  5
7FB
  8
┌▓È_1
 62
     5
 10
393.57999999999998
 20
25.5656
 30
0.0
 70
    32
  0
VERTEX
  5
7FC
  8
┌▓È_1
 62
     5
 10
393.584
 20
25.563099999999999
 30
0.0
 70
    32
  0
VERTEX
  5
7FD
  8
┌▓È_1
 62
     5
 10
393.58800000000002
 20
25.560600000000001
 30
0.0
 70
    32
  0
VERTEX
  5
7FE
  8
┌▓È_1
 62
     5
 10
393.59199999999998
 20
25.558199999999999
 30
0.0
 70
    32
  0
VERTEX
  5
7FF
  8
┌▓È_1
 62
     5
 10
393.59500000000003
 20
25.555900000000001
 30
0.0
 70
    32
  0
VERTEX
  5
800
  8
┌▓È_1
 62
     5
 10
393.59899999999999
 20
25.5535
 30
0.0
 70
    32
  0
VERTEX
  5
801
  8
┌▓È_1
 62
     5
 10
393.60300000000001
 20
25.551200000000001
 30
0.0
 70
    32
  0
VERTEX
  5
802
  8
┌▓È_1
 62
     5
 10
393.60700000000003
 20
25.548999999999999
 30
0.0
 70
    32
  0
VERTEX
  5
803
  8
┌▓È_1
 62
     5
 10
393.61099999999999
 20
25.546700000000001
 30
0.0
 70
    32
  0
VERTEX
  5
804
  8
┌▓È_1
 62
     5
 10
393.61500000000001
 20
25.544499999999999
 30
0.0
 70
    32
  0
VERTEX
  5
805
  8
┌▓È_1
 62
     5
 10
393.61900000000003
 20
25.542400000000001
 30
0.0
 70
    32
  0
VERTEX
  5
806
  8
┌▓È_1
 62
     5
 10
393.6230000000001
 20
25.540199999999999
 30
0.0
 70
    32
  0
VERTEX
  5
807
  8
┌▓È_1
 62
     5
 10
393.62700000000001
 20
25.5381
 30
0.0
 70
    32
  0
VERTEX
  5
808
  8
┌▓È_1
 62
     5
 10
393.63099999999997
 20
25.536100000000001
 30
0.0
 70
    32
  0
VERTEX
  5
809
  8
┌▓È_1
 62
     5
 10
393.63499999999999
 20
25.534099999999999
 30
0.0
 70
    32
  0
VERTEX
  5
80A
  8
┌▓È_1
 62
     5
 10
393.63900000000001
 20
25.5321
 30
0.0
 70
    32
  0
VERTEX
  5
80B
  8
┌▓È_1
 62
     5
 10
393.64300000000009
 20
25.530200000000001
 30
0.0
 70
    32
  0
VERTEX
  5
80C
  8
┌▓È_1
 62
     5
 10
393.64699999999999
 20
25.528300000000002
 30
0.0
 70
    32
  0
VERTEX
  5
80D
  8
┌▓È_1
 62
     5
 10
393.65100000000001
 20
25.526399999999999
 30
0.0
 70
    32
  0
VERTEX
  5
80E
  8
┌▓È_1
 62
     5
 10
393.65600000000001
 20
25.5246
 30
0.0
 70
    32
  0
SEQEND
  5
80F
  8
┌▓È_1
 62
     5
  0
ARC
  5
4AD
  8
┌▓È_1
 62
     5
 10
394.4055989583
 20
22.732812569899998
 30
0.0
 40
0.75
 50
180.000025118
 51
359.99998005330002
  0
LINE
  5
4AE
  8
┌▓È_1
  6
BORDER
 62
     3
 10
369.9782629044999
 20
91.982812535899996
 30
0.0
 11
427.42241428809979
 21
91.982812535899996
 31
0.0
  0
LINE
  5
4AF
  8
┌▓È_1
  6
BORDER
 62
     3
 10
369.9782629044999
 20
91.982812535899996
 30
0.0
 11
427.42241428809979
 21
91.982812535899996
 31
0.0
  0
ARC
  5
4B0
  8
┌▓È_1
 62
     5
 10
487.15559895389993
 20
42.1418814357
 30
0.0
 40
7.0
 50
270.49999999490012
 51
359.99999999489989
  0
LINE
  5
4B1
  8
┌▓È_1
 62
     5
 10
480.6406702941
 20
90.982812519999996
 30
0.0
 11
487.15559896269991
 21
90.982812518299994
 31
0.0
  0
LINE
  5
4B2
  8
┌▓È_1
 62
     5
 10
480.6406702944999
 20
92.982812519999996
 30
0.0
 11
487.15559896289989
 21
92.982812518299994
 31
0.0
  0
LINE
  5
4B3
  8
┌▓È_1
 62
     5
 10
487.15559896269991
 20
90.982812518299994
 30
0.0
 11
487.15559896289989
 21
92.982812518299994
 31
0.0
  0
ARC
  5
4B4
  8
┌▓È_1
 62
     5
 10
487.15559896279979
 20
141.8237436021
 30
0.0
 40
7.0
 50
359.99999999489989
 51
89.499999984799999
  0
LINE
  5
4B5
  8
┌▓È_1
 62
     5
 10
412.15559895299998
 20
31.982812535800001
 30
0.0
 11
419.34323486480002
 21
34.54982535700001
 31
0.0
  0
LINE
  5
4B6
  8
┌▓È_1
 62
     5
 10
448.15559895389998
 20
58.49774119420001
 30
0.0
 11
448.15559895109999
 21
47.982812566499987
 31
0.0
  0
LINE
  5
4B7
  8
┌▓È_1
 62
     5
 10
446.15559895389993
 20
58.497741194700012
 30
0.0
 11
446.15559895109988
 21
47.982812566899987
 31
0.0
  0
LINE
  5
4B8
  8
┌▓È_1
 62
     5
 10
446.15559895109988
 20
47.982812566899987
 30
0.0
 11
448.15559895109999
 21
47.982812566499987
 31
0.0
  0
ARC
  5
4B9
  8
┌▓È_1
 62
     5
 10
393.15559897959997
 20
151.98281250119999
 30
0.0
 40
0.5
 50
269.99999997970002
 51
293.57817845789998
  0
ARC
  5
4BA
  8
┌▓È_1
 62
     5
 10
393.85559898169998
 20
157.9828125009
 30
0.0
 40
0.5
 50
113.578178458
 51
179.9999966597
  0
ARC
  5
4BB
  8
┌▓È_1
 62
     5
 10
394.40559898290002
 20
161.23281250069999
 30
0.0
 40
0.75
 50
0.0000199264
 51
179.99997486169991
  0
LINE
  5
4BC
  8
┌▓È_1
 62
     5
 10
395.1555989583
 20
91.982812535200011
 30
0.0
 11
395.15559898290002
 21
161.2328127616
 31
0.0
  0
LINE
  5
4BD
  8
┌▓È_1
 62
     5
 10
393.65559898290002
 20
161.2328128298
 30
0.0
 11
393.6555989583
 21
91.98281253559999
 31
0.0
  0
LINE
  5
4BE
  8
┌▓È_1
 62
     5
 10
393.35559898169998
 20
157.9828124746
 30
0.0
 11
393.35559895829999
 21
91.982812535700006
 31
0.0
  0
LINE
  5
4BF
  8
┌▓È_1
 62
     5
 10
422.15559896329989
 20
85.982812517599967
 30
0.0
 11
417.76172201629993
 21
85.982812517599967
 31
0.0
  0
LINE
  5
4C0
  8
┌▓È_1
 62
     5
 10
422.15559896329989
 20
108.5659365402
 30
0.0
 11
422.15559896329989
 21
97.982812517599996
 31
0.0
  0
LINE
  5
4C1
  8
┌▓È_1
 62
     5
 10
422.15559896329989
 20
97.982812517599996
 30
0.0
 11
417.76172201290001
 21
97.982812517599996
 31
0.0
  0
LINE
  5
4C2
  8
┌▓È_1
 62
     5
 10
412.15559897430001
 20
151.98281252859999
 30
0.0
 11
419.3432348851
 21
149.41579970480001
 31
0.0
  0
ARC
  5
4C3
  8
┌▓È_1
 62
     5
 10
398.65559897790001
 20
165.48281253440001
 30
0.0
 40
0.5
 50
359.99998491439999
 51
89.999999984799985
  0
ARC
  5
4C4
  8
┌▓È_1
 62
     5
 10
401.1555989748
 20
153.9828125315
 30
0.0
 40
2.0
 50
179.99999998480001
 51
269.99999998480001
  0
ARC
  5
4C5
  8
┌▓È_1
 62
     5
 10
395.65559897790001
 20
165.4828125352
 30
0.0
 40
0.5
 50
89.999999984799985
 51
179.99999998480001
  0
LINE
  5
4C6
  8
┌▓È_1
 62
     5
 10
395.655598978
 20
165.9828125352
 30
0.0
 11
398.65559897800011
 21
165.98281253440001
 31
0.0
  0
ENDBLK
  5
4C7
  8
0
  0
BLOCK
  8
0
  2
*U67
 70
     1
 10
0.0
 20
0.0
 30
0.0
  3
*U67
  1

  0
TEXT
  5
509
  8
┌▓È_1
  6
CONTINUOUS
 62
     5
 10
672.03248076530144
 20
-443.50633186973403
 30
0.0
 40
17.9916661263
  1
é`éaérÄ¸Äë
  0
ENDBLK
  5
50B
  8
0
  0
BLOCK
  8
0
  2
*U68
 70
     1
 10
0.0
 20
0.0
 30
0.0
  3
*U68
  1

  0
TEXT
  5
50D
  8
┌▓È_1
  6
CONTINUOUS
 62
     5
 10
672.03248076530144
 20
-473.90633186973378
 30
0.0
 40
17.9916661263
  1
é`éaérÄ¸Äë
  0
ENDBLK
  5
50F
  8
0
  0
BLOCK
  8
0
  2
*U69
 70
     1
 10
0.0
 20
0.0
 30
0.0
  3
*U69
  1

  0
TEXT
  5
511
  8
┌▓È_1
  6
CONTINUOUS
 62
     5
 10
661.21008261318718
 20
-503.48437757969992
 30
0.0
 40
17.9916661263
  1
érétéréRéOéS
  0
ENDBLK
  5
513
  8
0
  0
BLOCK
  8
0
  2
*U70
 70
     1
 10
0.0
 20
0.0
 30
0.0
  3
*U70
  1

  0
TEXT
  5
519
  8
┌▓È_1
  6
CONTINUOUS
 62
     5
 10
392.92961567482507
 20
-413.74562965087142
 30
0.0
 40
17.9916661263
  1
âRü[âiü[âsü[âX
  0
ENDBLK
  5
51B
  8
0
  0
BLOCK
  8
0
  2
*U71
 70
     1
 10
0.0
 20
0.0
 30
0.0
  3
*U71
  1

  0
TEXT
  5
51D
  8
┌▓È_1
  6
CONTINUOUS
 10
299.67063802080008
 20
-534.683088148666
 30
0.0
 40
14.9930551052
  1
É}öÈ          òi     û╝                 ü@ü@ ìÌ     Ä┐          Éöù╩
  0
ENDBLK
  5
51F
  8
0
  0
BLOCK
  8
0
  2
*U72
 70
     1
 10
0.0
 20
0.0
 30
0.0
  3
*U72
  1

  0
TEXT
  5
521
  8
┌▓È_1
  6
CONTINUOUS
 62
     5
 10
391.87934074867047
 20
-444.6022709231126
 30
0.0
 40
17.9916661263
  1
Åcê°é½âgâëâbâv
  0
ENDBLK
  5
523
  8
0
  0
BLOCK
  8
0
  2
*U73
 70
     1
 10
0.0
 20
0.0
 30
0.0
  3
*U73
  1

  0
TEXT
  5
525
  8
┌▓È_1
  6
CONTINUOUS
 62
     5
 10
391.65102011254999
 20
-475.00227092311252
 30
0.0
 40
17.9916661263
  1
ëíê°é½âgâëâbâv
  0
ENDBLK
  5
527
  8
0
  0
BLOCK
  8
0
  2
*U74
 70
     1
 10
0.0
 20
0.0
 30
0.0
  3
*U74
  1

  0
TEXT
  5
529
  8
┌▓È_1
  6
CONTINUOUS
 62
     5
 10
392.51863852980807
 20
-504.48898837863038
 30
0.0
 40
17.9916661263
  1
ûhÉàâpâôü@û{æ╠
  0
ENDBLK
  5
52B
  8
0
  0
BLOCK
  8
0
  2
*U75
 70
     1
 10
0.0
 20
0.0
 30
0.0
  3
*U75
  1

  0
TEXT
  5
52D
  8
┌▓È_1
  6
CONTINUOUS
 62
     5
 10
307.83719269296699
 20
-412.28437757969988
 30
0.0
 40
17.9916661263
  1
éS
  0
ENDBLK
  5
52F
  8
0
  0
BLOCK
  8
0
  2
*U76
 70
     1
 10
0.0
 20
0.0
 30
0.0
  3
*U76
  1

  0
TEXT
  5
531
  8
┌▓È_1
  6
CONTINUOUS
 62
     5
 10
307.79152856574291
 20
-442.6843775796998
 30
0.0
 40
17.9916661263
  1
éR
  0
ENDBLK
  5
533
  8
0
  0
BLOCK
  8
0
  2
*U77
 70
     1
 10
0.0
 20
0.0
 30
0.0
  3
*U77
  1

  0
TEXT
  5
535
  8
┌▓È_1
  6
CONTINUOUS
 62
     5
 10
308.01984920186339
 20
-473.08437757969989
 30
0.0
 40
17.9916661263
  1
éQ
  0
ENDBLK
  5
537
  8
0
  0
BLOCK
  8
0
  2
*U78
 70
     1
 10
0.0
 20
0.0
 30
0.0
  3
*U78
  1

  0
TEXT
  5
539
  8
┌▓È_1
  6
CONTINUOUS
 62
     5
 10
308.88746761912159
 20
-503.48437757969992
 30
0.0
 40
17.9916661263
  1
éP
  0
ENDBLK
  5
53B
  8
0
  0
BLOCK
  8
0
  2
*U79
 70
     1
 10
0.0
 20
0.0
 30
0.0
  3
*U79
  1

  0
TEXT
  5
53D
  8
┌▓È_1
  6
CONTINUOUS
 62
     5
 10
672.03248076530144
 20
-413.10633186973382
 30
0.0
 40
17.9916661263
  1
é`éaérÄ¸Äë
  0
ENDBLK
  5
53F
  8
0
  0
BLOCK
  8
0
  2
*U80
 70
     1
 10
0.0
 20
0.0
 30
0.0
  3
*U80
  1

  0
TEXT
  5
541
  8
┌▓È_1
  6
CONTINUOUS
 10
494.36321273059991
 20
-570.49325846947238
 30
0.0
 40
14.9930551052
  1
 ö┬ü@ü@î·
  0
ENDBLK
  5
543
  8
0
  0
BLOCK
  8
0
  2
*U81
 70
     1
 10
0.0
 20
0.0
 30
0.0
  3
*U81
  1

  0
TEXT
  5
545
  8
┌▓È_1
  6
CONTINUOUS
 10
694.67066387160003
 20
-570.1156044588397
 30
0.0
 40
14.9930551052
  1
î^öÈ
  0
ENDBLK
  5
547
  8
0
  0
BLOCK
  8
0
  2
*U82
 70
     1
 10
0.0
 20
0.0
 30
0.0
  3
*U82
  1

  0
TEXT
  5
549
  8
┌▓È_1
  6
CONTINUOUS
 10
694.67066387160003
 20
-625.26781821625275
 30
0.0
 40
14.9930551052
  1
òiû╝
  0
ENDBLK
  5
54B
  8
0
  0
BLOCK
  8
0
  2
*U83
 70
     1
 10
0.0
 20
0.0
 30
0.0
  3
*U83
  1

  0
TEXT
  5
54D
  8
┌▓È_1
  6
CONTINUOUS
 10
694.67066387160003
 20
-680.11560445883936
 30
0.0
 40
14.9930551052
  1
É}öÈ
  0
ENDBLK
  5
54F
  8
0
  0
BLOCK
  8
0
  2
*U84
 70
     1
 10
0.0
 20
0.0
 30
0.0
  3
*U84
  1

  0
TEXT
  5
551
  8
┌▓È_1
  6
CONTINUOUS
 10
594.36321273060003
 20
-570.49325846947238
 30
0.0
 40
14.9930551052
  1
 îƒü@ü@ê¾
  0
ENDBLK
  5
553
  8
0
  0
BLOCK
  8
0
  2
*U85
 70
     1
 10
0.0
 20
0.0
 30
0.0
  3
*U85
  1

  0
TEXT
  5
555
  8
┌▓È_1
  6
CONTINUOUS
 62
     5
 10
304.05150254882511
 20
-596.69844551349991
 30
0.0
 40
13.4937497973
  1
H16.8.18
  0
ENDBLK
  5
557
  8
0
  0
BLOCK
  8
0
  2
*U86
 70
     1
 10
0.0
 20
0.0
 30
0.0
  3
*U86
  1

  0
TEXT
  5
559
  8
┌▓È_1
  6
CONTINUOUS
 10
289.08730468750002
 20
-625.26493783335275
 30
0.0
 40
14.9930551052
  1
 É¦îvü@ü@ëÇî┤
  0
ENDBLK
  5
55B
  8
0
  0
BLOCK
  8
0
  2
*U87
 70
     1
 10
0.0
 20
0.0
 30
0.0
  3
*U87
  1

  0
TEXT
  5
55D
  8
┌▓È_1
  6
CONTINUOUS
 10
289.08730468750002
 20
-652.91715159076568
 30
0.0
 40
14.9930551052
  1
 É╗É}ü@ü@ëÇî┤
  0
ENDBLK
  5
55F
  8
0
  0
BLOCK
  8
0
  2
*U88
 70
     1
 10
0.0
 20
0.0
 30
0.0
  3
*U88
  1

  0
TEXT
  5
561
  8
┌▓È_1
  6
CONTINUOUS
 10
294.36321273060003
 20
-569.96051031852619
 30
0.0
 40
14.9930551052
  1
 ô·ü@ü@òt
  0
ENDBLK
  5
563
  8
0
  0
BLOCK
  8
0
  2
*U89
 70
     1
 10
0.0
 20
0.0
 30
0.0
  3
*U89
  1

  0
TEXT
  5
565
  8
┌▓È_1
  6
CONTINUOUS
 10
316.28648937140002
 20
-698.69259289902368
 30
0.0
 40
26.987499594700001
  1
èöÄ«ë´Äð
  0
ENDBLK
  5
567
  8
0
  0
BLOCK
  8
0
  2
*U90
 70
     1
 10
0.0
 20
0.0
 30
0.0
  3
*U90
  1

  0
TEXT
  5
569
  8
┌▓È_1
  6
CONTINUOUS
 62
     5
 10
804.70661338360605
 20
-622.24781023594767
 30
0.0
 40
14.993055915799999
  1
ânâCâuâèâbâhâ^âCâv
  0
TEXT
  5
56A
  8
┌▓È_1
  6
CONTINUOUS
 62
     5
 10
823.73333408893598
 20
-647.99730559049419
 30
0.0
 40
14.993055915799999
  1
É¶æ¾ï@ûhÉàâpâô
  0
TEXT
  5
56B
  8
┌▓È_1
  6
CONTINUOUS
 62
     5
 10
842.87421511849777
 20
-672.98573211682742
 30
0.0
 40
14.993055915799999
  1
800éÿ640éq
  0
ENDBLK
  5
56D
  8
0
  0
BLOCK
  8
0
  2
*U91
 70
     1
 10
0.0
 20
0.0
 30
0.0
  3
*U91
  1

  0
TEXT
  5
56F
  8
┌▓È_1
  6
CONTINUOUS
 62
     5
 10
810.89013324873076
 20
-589.1804687499997
 30
0.0
 40
26.987500000000001
  1
érév-800éq
  0
ENDBLK
  5
571
  8
0
  0
BLOCK
  8
0
  2
*U92
 70
     1
 10
0.0
 20
0.0
 30
0.0
  3
*U92
  1

  0
TEXT
  5
573
  8
┌▓È_1
  6
CONTINUOUS
 10
394.36321273060003
 20
-570.18883095464605
 30
0.0
 40
14.9930551052
  1
 ìÌü@ü@Ä┐
  0
ENDBLK
  5
575
  8
0
  0
BLOCK
  8
0
  2
*U93
 70
     1
 10
0.0
 20
0.0
 30
0.0
  3
*U93
  1

  0
TEXT
  5
577
  8
┌▓È_1
  6
CONTINUOUS
 10
494.36321273059991
 20
-625.4171515907658
 30
0.0
 40
14.9930551052
  1
 Ä┌ü@ü@ôx
  0
ENDBLK
  5
579
  8
0
  0
BLOCK
  8
0
  2
*U94
 70
     1
 10
0.0
 20
0.0
 30
0.0
  3
*U94
  1

  0
TEXT
  5
57B
  8
┌▓È_1
  6
CONTINUOUS
 62
     5
 10
519.22340934507758
 20
-652.1919195221999
 30
0.0
 40
14.9930551052
  1
1üF5
  0
ENDBLK
  5
57D
  8
0
  0
ENDSEC
  0
SECTION
  2
ENTITIES
  0
LINE
  5
2F
  8
┌▓È_1
 62
     5
 10
-29.001562222600011
 20
-305.29531251229997
 30
0.0
 11
-98.251562516800007
 21
-305.29531250000002
 31
0.0
  0
LINE
  5
30
  8
┌▓È_1
 62
     5
 10
-167.50156281100001
 20
-305.29531250000002
 30
0.0
 11
-98.251562516800007
 21
-305.29531250000002
 31
0.0
  0
DIMENSION
  5
41
  8
Éíû@É³
  2
*D2
 10
-775.25156249999998
 20
-161.37109375
 30
0.0
 11
-375.25156249999998
 21
-161.37109375
 31
0.0
 70
   128
  1
<>
 13
-775.25156249999998
 23
-21.017187499999999
 33
0.0
 14
24.748437500000001
 24
-21.017187499999999
 34
0.0
 50
180.0
  0
POINT
  5
42
  8
┌▓È_1
  6
DOT
 62
     5
 10
-760.75156249999975
 20
-16.517187499999999
 30
0.0
  0
POINT
  5
43
  8
┌▓È_1
  6
DOT
 62
     5
 10
-760.75156249999975
 20
594.4828124999998
 30
0.0
  0
POINT
  5
44
  8
┌▓È_1
  6
DOT
 62
     5
 10
10.2484375
 20
594.4828124999998
 30
0.0
  0
DIMENSION
  5
53
  8
Éíû@É³
  2
*D3
 10
10.2484375
 20
-109.0828125
 30
0.0
 11
49.55390624999999
 21
-109.0828125
 31
0.0
 70
   128
  1
<>
 13
10.2484375
 23
-16.517187499999999
 33
0.0
 14
24.748437500000001
 24
-21.017187499999999
 34
0.0
 50
180.0
  0
DIMENSION
  5
62
  8
Éíû@É³
  2
*D4
 10
-760.75156249999975
 20
-109.0828125
 30
0.0
 11
-375.25156249999998
 21
-109.0828125
 31
0.0
 70
   128
  1
<>
 13
-760.75156249999975
 23
-16.517187499999999
 33
0.0
 14
10.2484375
 24
-16.517187499999999
 34
0.0
 50
180.0
  0
DIMENSION
  5
71
  8
Éíû@É³
  2
*D5
 10
-775.25156249999998
 20
-109.0828125
 30
0.0
 11
-803.92578125
 21
-109.0828125
 31
0.0
 70
   128
  1
<>
 13
-775.25156249999998
 23
-21.017187499999999
 33
0.0
 14
-760.75156249999975
 24
-16.517187499999999
 34
0.0
 50
180.0
  0
DIMENSION
  5
80
  8
Éíû@É³
  2
*D6
 10
-841.03359375000014
 20
-16.517187499999999
 30
0.0
 11
-841.03359375000014
 21
-23.767187499999999
 31
0.0
 70
   128
  1
<>
 13
-760.75156249999975
 23
-16.517187499999999
 33
0.0
 14
-765.25156249999975
 24
-31.017187499999999
 34
0.0
 50
90.0
  0
DIMENSION
  5
8F
  8
Éíû@É³
  2
*D7
 10
-841.03359375000014
 20
594.4828124999998
 30
0.0
 11
-841.03359375000014
 21
288.98281250000002
 31
0.0
 70
   128
  1
<>
 13
-760.75156249999975
 23
594.4828124999998
 33
0.0
 14
-760.75156249999975
 24
-16.517187499999999
 34
0.0
 50
90.0
  0
DIMENSION
  5
9E
  8
Éíû@É³
  2
*D8
 10
-841.03359375000014
 20
608.98281250000002
 30
0.0
 11
-841.03359375000014
 21
601.73281250000002
 31
0.0
 70
   128
  1
<>
 13
-765.25156249999975
 23
608.98281250000002
 33
0.0
 14
-760.75156249999975
 24
594.4828124999998
 34
0.0
 50
90.0
  0
INSERT
  5
A0
  8
┌▓È_1
  6
BORDER
  2
CLUMP0
 10
0.0
 20
0.0
 30
0.0
  0
CIRCLE
  5
1A3
  8
┌▓È_1
 62
     5
 10
-98.251562500000006
 20
91.982812499999994
 30
0.0
 40
73.0
  0
INSERT
  5
1A5
  8
Éíû@É³
  2
BALLON0
 10
0.0
 20
0.0
 30
0.0
  0
DIMENSION
  5
1BC
  8
Éíû@É³
  2
*D35
 10
72.863205429600001
 20
-297.99531250000001
 30
0.0
 11
72.863205429600001
 21
-263.99531250000001
 31
0.0
 70
   128
  1
<>
 13
22.863205429600001
 23
-297.99531250000001
 33
0.0
 14
22.163205429600001
 24
-229.99531250000001
 34
0.0
 50
90.0
  0
POINT
  5
1BD
  8
┌▓È_1
  6
DOT
 62
     5
 10
10.2484375
 20
-16.517187499999999
 30
0.0
  0
LINE
  5
1BE
  8
┌▓È_1
 10
601.47024282710004
 20
-549.61484374999986
 30
0.0
 11
601.47024282710004
 21
-390.9705791568
 31
0.0
  0
INSERT
  5
1BF
  8
0
  6
CONTINUOUS
  2
*U67
 10
0.0
 20
0.0
 30
0.0
  0
INSERT
  5
1C0
  8
0
  6
CONTINUOUS
  2
*U68
 10
0.0
 20
0.0
 30
0.0
  0
INSERT
  5
1C1
  8
0
  6
CONTINUOUS
  2
*U69
 10
0.0
 20
0.0
 30
0.0
  0
LINE
  5
1C2
  8
┌▓È_1
 10
501.58730468749991
 20
-577.11484374999986
 30
0.0
 11
576.5873046874998
 21
-577.11484374999986
 31
0.0
  0
LINE
  5
1C3
  8
┌▓È_1
 10
501.58730468749991
 20
-632.11484374999975
 30
0.0
 11
576.5873046874998
 21
-632.11484374999975
 31
0.0
  0
DIMENSION
  5
1D2
  8
Éíû@É³
  2
*D36
 10
177.74453124999999
 20
-31.017187499999999
 30
0.0
 11
177.74453124999999
 21
288.98281250000002
 31
0.0
 70
   128
  1
<>
 13
14.7484375
 23
-31.017187499999999
 33
0.0
 14
14.7484375
 24
608.98281250000002
 34
0.0
 50
90.0
  0
DIMENSION
  5
1E1
  8
Éíû@É³
  2
*D37
 10
-419.11210937499987
 20
-297.99531250000001
 30
0.0
 11
-419.11210937499987
 21
-265.49531250000001
 31
0.0
 70
   128
  1
<>
 13
-469.11210937499987
 23
-297.99531250000001
 33
0.0
 14
-469.11210937499987
 24
-232.99531250000001
 34
0.0
 50
90.0
  0
LINE
  5
1E2
  8
┌▓È_1
 62
     5
 10
-36.336794570400002
 20
-232.99531250000001
 30
0.0
 11
-715.25156249999975
 21
-232.99531250000001
 31
0.0
  0
LINE
  5
1E3
  8
┌▓È_1
 62
     5
 10
-716.33679455439994
 20
-297.99531250000001
 30
0.0
 11
-36.336794570400002
 21
-297.99531250000001
 31
0.0
  0
INSERT
  5
1E5
  8
┌▓È_1
 62
     5
  2
CLUMP15
 10
0.0
 20
0.0
 30
0.0
  0
INSERT
  5
1F3
  8
┌▓È_1
 62
     5
  2
CLUMP16
 10
0.0
 20
0.0
 30
0.0
  0
INSERT
  5
201
  8
┌▓È_1
  2
CLUMP17
 10
0.0
 20
0.0
 30
0.0
  0
INSERT
  5
22C
  8
Éíû@É³
  2
BALLON1
 10
0.0
 20
0.0
 30
0.0
  0
LINE
  5
235
  8
┌▓È_1
 62
     5
 10
-164.2515624557
 20
-304.99531250000001
 30
0.0
 11
-98.251562516700005
 21
-304.99531250000001
 31
0.0
  0
LINE
  5
236
  8
┌▓È_1
 62
     5
 10
-174.25156251669981
 20
-301.99531250000001
 30
0.0
 11
-174.25156251669981
 21
-297.99531250000001
 31
0.0
  0
ARC
  5
237
  8
┌▓È_1
 62
     5
 10
-171.25156251670001
 20
-301.99531250000001
 30
0.0
 40
3.0
 50
180.0
 51
270.0
  0
LINE
  5
238
  8
┌▓È_1
 62
     5
 10
-171.25156251670001
 20
-304.99531250000001
 30
0.0
 11
-25.251562516700002
 21
-304.99531250000001
 31
0.0
  0
ARC
  5
239
  8
┌▓È_1
 62
     5
 10
-167.5015624822
 20
-306.04531250000002
 30
0.0
 40
0.75
 50
90.000025117999996
 51
269.99998005330002
  0
ARC
  5
23A
  8
┌▓È_1
 62
     5
 10
-164.2515624822
 20
-305.49531250000001
 30
0.0
 40
0.5
 50
90.000003320000019
 51
156.42182152180001
  0
ARC
  5
23B
  8
┌▓È_1
 62
     5
 10
-32.251562551399999
 20
-305.49531251169998
 30
0.0
 40
0.5
 50
23.578178468099999
 51
89.999996669799998
  0
ARC
  5
23C
  8
┌▓È_1
 62
     5
 10
-29.001562551500001
 20
-306.04531251229997
 30
0.0
 40
0.75
 50
270.0000199365
 51
89.999974871899994
  0
LINE
  5
23D
  8
┌▓È_1
 62
     5
 10
-22.251562516700002
 20
-301.99531250000001
 30
0.0
 11
-22.251562516700002
 21
-297.99531250000001
 31
0.0
  0
ARC
  5
23E
  8
┌▓È_1
 62
     5
 10
-25.251562516700002
 20
-301.99531250000001
 30
0.0
 40
3.0
 50
270.0
 51
0.0
  0
LINE
  5
23F
  8
┌▓È_1
 62
     5
 10
-32.251562577800001
 20
-304.99531251169998
 30
0.0
 11
-98.251562516700005
 21
-304.99531250000001
 31
0.0
  0
LINE
  5
240
  8
┌▓È_1
 62
     5
 10
-960.91269531249986
 20
-714.61484374999986
 30
0.0
 11
-960.91269531249986
 21
685.38515625000002
 31
0.0
  0
LINE
  5
241
  8
┌▓È_1
 62
     5
 10
289.08730468750002
 20
-714.61484374999986
 30
0.0
 11
-960.91269531249986
 21
-714.61484374999986
 31
0.0
  0
LINE
  5
242
  8
┌▓È_1
 62
     5
 10
1039.0873046874999
 20
685.38515625000002
 30
0.0
 11
-960.91269531249986
 21
685.38515625000002
 31
0.0
  0
ARC
  5
243
  8
┌▓È_1
 62
     5
 10
504.89053712889989
 20
-688.18897891559982
 30
0.0
 40
15.0
 50
270.0
 51
0.0
  0
LINE
  5
244
  8
┌▓È_1
 62
     5
 10
540.69356743200001
 20
-703.18897891559971
 30
0.0
 11
540.69356743200001
 21
-695.68897891559982
 31
0.0
  0
LINE
  5
245
  8
┌▓È_1
 62
     5
 10
497.39053712889978
 20
-685.68897891559993
 30
0.0
 11
507.39053712890001
 21
-685.68897891559993
 31
0.0
  0
INSERT
  5
246
  8
0
  6
CONTINUOUS
  2
*U70
 10
0.0
 20
0.0
 30
0.0
  0
LINE
  5
247
  8
┌▓È_1
 10
289.08730468750002
 20
-390.9705791568
 30
0.0
 11
1039.0873046874999
 21
-390.9705791568
 31
0.0
  0
LINE
  5
248
  8
┌▓È_1
 10
289.08730468750002
 20
-512.57258596420002
 30
0.0
 11
1039.0873046874999
 21
-512.57258596420002
 31
0.0
  0
LINE
  5
249
  8
┌▓È_1
 10
289.08730468750002
 20
-482.17057915679999
 30
0.0
 11
1039.0873046874999
 21
-482.17057915679999
 31
0.0
  0
INSERT
  5
24A
  8
0
  6
CONTINUOUS
  2
*U71
 10
0.0
 20
0.0
 30
0.0
  0
LINE
  5
24B
  8
┌▓È_1
 10
289.08730468750002
 20
-451.77057915679978
 30
0.0
 11
1039.0873046874999
 21
-451.77057915679978
 31
0.0
  0
LINE
  5
24C
  8
┌▓È_1
 10
289.08730468750002
 20
-421.37057915679992
 30
0.0
 11
1039.0873046874999
 21
-421.37057915679992
 31
0.0
  0
INSERT
  5
24D
  8
0
  6
CONTINUOUS
  2
*U72
 10
0.0
 20
0.0
 30
0.0
  0
INSERT
  5
24E
  8
0
  6
CONTINUOUS
  2
*U73
 10
0.0
 20
0.0
 30
0.0
  0
INSERT
  5
24F
  8
0
  6
CONTINUOUS
  2
*U74
 10
0.0
 20
0.0
 30
0.0
  0
INSERT
  5
250
  8
0
  6
CONTINUOUS
  2
*U75
 10
0.0
 20
0.0
 30
0.0
  0
LINE
  5
251
  8
┌▓È_1
 10
343.75679253470008
 20
-549.61484374999986
 30
0.0
 11
343.75679253470008
 21
-390.9705791568
 31
0.0
  0
LINE
  5
252
  8
┌▓È_1
 10
289.08730468750002
 20
-549.61484374999986
 30
0.0
 11
289.08730468750002
 21
-390.9705791568
 31
0.0
  0
INSERT
  5
253
  8
0
  6
CONTINUOUS
  2
*U76
 10
0.0
 20
0.0
 30
0.0
  0
INSERT
  5
254
  8
0
  6
CONTINUOUS
  2
*U77
 10
0.0
 20
0.0
 30
0.0
  0
INSERT
  5
255
  8
0
  6
CONTINUOUS
  2
*U78
 10
0.0
 20
0.0
 30
0.0
  0
INSERT
  5
256
  8
0
  6
CONTINUOUS
  2
*U79
 10
0.0
 20
0.0
 30
0.0
  0
LINE
  5
257
  8
┌▓È_1
 10
916.37082762239993
 20
-549.61484374999986
 30
0.0
 11
916.37082762239993
 21
-390.9705791568
 31
0.0
  0
LINE
  5
258
  8
┌▓È_1
 10
855.84175421939983
 20
-549.61484374999986
 30
0.0
 11
855.84175421939983
 21
-390.9705791568
 31
0.0
  0
LINE
  5
259
  8
┌▓È_1
 62
     5
 10
484.89053712889978
 20
-685.68897891559993
 30
0.0
 11
484.89053712889978
 21
-693.18897891559982
 31
0.0
  0
LINE
  5
25A
  8
┌▓È_1
 62
     5
 10
609.27431400670002
 20
-676.68897891559993
 30
0.0
 11
606.78098067339999
 21
-668.18897891559993
 31
0.0
  0
LINE
  5
25B
  8
┌▓È_1
 62
     5
 10
623.43580245359999
 20
-676.68897891559993
 30
0.0
 11
641.78098067339977
 21
-676.68897891559993
 31
0.0
  0
LINE
  5
25C
  8
┌▓È_1
 10
289.08730468750002
 20
-604.61484374999998
 30
0.0
 11
589.0873046874998
 21
-604.61484374999998
 31
0.0
  0
LINE
  5
25D
  8
┌▓È_1
 62
     5
 10
631.78098067339999
 20
-705.68897891559982
 30
0.0
 11
617.78098067339999
 21
-705.68897891559982
 31
0.0
  0
LINE
  5
25E
  8
┌▓È_1
 62
     5
 10
507.39053712890001
 20
-685.68897891559993
 30
0.0
 11
507.39053712890001
 21
-688.18897891559982
 31
0.0
  0
LINE
  5
25F
  8
┌▓È_1
 10
301.58730468750002
 20
-632.11484374999975
 30
0.0
 11
476.58730468749991
 21
-632.11484374999975
 31
0.0
  0
LINE
  5
260
  8
┌▓È_1
 62
     5
 10
641.78098067339977
 20
-689.68897891559982
 30
0.0
 11
641.78098067339977
 21
-698.68897891559982
 31
0.0
  0
LINE
  5
261
  8
┌▓È_1
 62
     5
 10
585.69356743199978
 20
-695.68897891559982
 30
0.0
 11
585.69356743199978
 21
-703.18897891559971
 31
0.0
  0
LINE
  5
262
  8
┌▓È_1
 62
     5
 10
484.89053712889978
 20
-685.68897891559993
 30
0.0
 11
484.13501807120002
 21
-685.68897891559993
 31
0.0
  0
LINE
  5
263
  8
┌▓È_1
 62
     5
 10
484.89053712889978
 20
-695.68897891559982
 30
0.0
 11
484.89053712889978
 21
-703.18897891559971
 31
0.0
  0
ARC
  5
264
  8
┌▓È_1
 62
     5
 10
546.69356743200001
 20
-676.68897891559993
 30
0.0
 40
19.0
 50
331.39928138329998
 51
358.49204224580001
  0
LINE
  5
265
  8
┌▓È_1
 62
     5
 10
519.89053712889995
 20
-685.68897891559993
 30
0.0
 11
527.39053712889995
 21
-685.68897891559993
 31
0.0
  0
ARC
  5
266
  8
┌▓È_1
 62
     5
 10
553.19356743200001
 20
-675.68897891559993
 30
0.0
 40
27.5
 50
270.0
 51
302.54495885400001
  0
LINE
  5
267
  8
┌▓È_1
 10
489.08730468749991
 20
-604.61484374999998
 30
0.0
 11
489.08730468749991
 21
-659.61484374999998
 31
0.0
  0
LINE
  5
268
  8
┌▓È_1
 10
289.08730468750002
 20
-549.61484374999986
 30
0.0
 11
289.08730468750002
 21
-714.61484374999986
 31
0.0
  0
LINE
  5
269
  8
┌▓È_1
 10
389.08730468750002
 20
-549.61484374999986
 30
0.0
 11
389.08730468750002
 21
-604.61484374999998
 31
0.0
  0
LINE
  5
26A
  8
┌▓È_1
 62
     5
 10
623.43580245359999
 20
-676.68897891559993
 30
0.0
 11
622.70383120250006
 21
-674.14533446320002
 31
0.0
  0
LINE
  5
26B
  8
┌▓È_1
 62
     5
 10
585.69356743199978
 20
-668.18897891559993
 30
0.0
 11
540.69356743200001
 21
-668.18897891559993
 31
0.0
  0
LINE
  5
26C
  8
┌▓È_1
 62
     5
 10
484.89053712889978
 20
-693.18897891559982
 30
0.0
 11
497.39053712889978
 21
-693.18897891559982
 31
0.0
  0
LINE
  5
26D
  8
┌▓È_1
 62
     5
 10
519.89053712889995
 20
-675.68897891559993
 30
0.0
 11
527.39053712889995
 21
-668.18897891559993
 31
0.0
  0
LINE
  5
26E
  8
┌▓È_1
 62
     5
 10
613.08764733999976
 20
-689.68897891559982
 30
0.0
 11
611.9143140066999
 21
-685.68897891559993
 31
0.0
  0
LINE
  5
26F
  8
┌▓È_1
 62
     5
 10
497.39053712889978
 20
-678.18897891559993
 30
0.0
 11
497.39053712889978
 21
-675.68897891559993
 31
0.0
  0
LINE
  5
270
  8
┌▓È_1
 62
     5
 10
575.00716419239996
 20
-692.43463496039976
 30
0.0
 11
574.11665389339998
 21
-693.30652568139999
 31
0.0
  0
LINE
  5
271
  8
┌▓È_1
 62
     5
 10
1039.0873046874999
 20
-549.61484374999986
 30
0.0
 11
1039.0873046874999
 21
685.38515625000002
 31
0.0
  0
LINE
  5
272
  8
┌▓È_1
 62
     5
 10
527.39053712889995
 20
-668.18897891559993
 30
0.0
 11
507.39053712890001
 21
-668.18897891559993
 31
0.0
  0
LINE
  5
273
  8
┌▓È_1
 62
     5
 10
540.69356743200001
 20
-668.18897891559993
 30
0.0
 11
540.69356743200001
 21
-677.18897891559993
 31
0.0
  0
LINE
  5
274
  8
┌▓È_1
 62
     5
 10
1039.0873046874999
 20
-714.61484374999986
 30
0.0
 11
1039.0873046874999
 21
-549.61484374999986
 31
0.0
  0
LINE
  5
275
  8
┌▓È_1
 10
1039.0873046874999
 20
-549.61484374999986
 30
0.0
 11
289.08730468750002
 21
-549.61484374999986
 31
0.0
  0
LINE
  5
276
  8
┌▓È_1
 10
689.08730468750002
 20
-549.61484374999986
 30
0.0
 11
689.08730468750002
 21
-714.61484374999986
 31
0.0
  0
LINE
  5
277
  8
┌▓È_1
 10
589.0873046874998
 20
-549.61484374999986
 30
0.0
 11
589.0873046874998
 21
-659.61484374999998
 31
0.0
  0
LINE
  5
278
  8
┌▓È_1
 62
     5
 10
631.78098067339999
 20
-705.68897891559982
 30
0.0
 11
629.76662730999988
 21
-698.68897891559982
 31
0.0
  0
LINE
  5
279
  8
┌▓È_1
 62
     5
 10
627.17674441420002
 20
-689.68897891559982
 30
0.0
 11
641.78098067339977
 21
-689.68897891559982
 31
0.0
  0
ARC
  5
27A
  8
┌▓È_1
 62
     5
 10
553.19356743200001
 20
-675.68897891559993
 30
0.0
 40
27.5
 50
322.48761197969998
 51
0.0
  0
LINE
  5
27B
  8
┌▓È_1
 62
     5
 10
484.89053712889978
 20
-703.18897891559971
 30
0.0
 11
504.89053712889989
 21
-703.18897891559971
 31
0.0
  0
LINE
  5
27C
  8
┌▓È_1
 62
     5
 10
596.78098067339999
 20
-698.68897891559982
 30
0.0
 11
615.72764733999975
 21
-698.68897891559982
 31
0.0
  0
ARC
  5
27D
  8
┌▓È_1
 62
     5
 10
499.89053712890001
 20
-688.18897891559982
 30
0.0
 40
7.5
 50
270.0
 51
0.0
  0
LINE
  5
27E
  8
┌▓È_1
 62
     5
 10
519.89053712889995
 20
-688.18897891559982
 30
0.0
 11
519.89053712889995
 21
-685.68897891559993
 31
0.0
  0
LINE
  5
27F
  8
┌▓È_1
 62
     5
 10
479.13501807120002
 20
-685.68897891559993
 30
0.0
 11
484.13501807120002
 21
-685.68897891559993
 31
0.0
  0
LINE
  5
280
  8
┌▓È_1
 62
     5
 10
596.78098067339999
 20
-689.68897891559982
 30
0.0
 11
613.08764733999976
 21
-689.68897891559982
 31
0.0
  0
LINE
  5
281
  8
┌▓È_1
 62
     5
 10
627.17674441420002
 20
-689.68897891559982
 30
0.0
 11
626.02568534939996
 21
-685.68897891559993
 31
0.0
  0
LINE
  5
282
  8
┌▓È_1
 62
     5
 10
617.78098067339999
 20
-705.68897891559982
 30
0.0
 11
615.72764733999975
 21
-698.68897891559982
 31
0.0
  0
LINE
  5
283
  8
┌▓È_1
 62
     5
 10
499.89053712890001
 20
-695.68897891559982
 30
0.0
 11
484.89053712889978
 21
-695.68897891559982
 31
0.0
  0
LINE
  5
284
  8
┌▓È_1
 62
     5
 10
540.69356743200001
 20
-677.18897891559993
 30
0.0
 11
565.69356743200001
 21
-677.18897891559993
 31
0.0
  0
LINE
  5
285
  8
┌▓È_1
 62
     5
 10
641.78098067339977
 20
-676.68897891559993
 30
0.0
 11
641.78098067339977
 21
-685.68897891559993
 31
0.0
  0
LINE
  5
286
  8
┌▓È_1
 62
     5
 10
596.78098067339999
 20
-685.68897891559993
 30
0.0
 11
611.9143140066999
 21
-685.68897891559993
 31
0.0
  0
LINE
  5
287
  8
┌▓È_1
 62
     5
 10
596.78098067339999
 20
-689.68897891559982
 30
0.0
 11
596.78098067339999
 21
-698.68897891559982
 31
0.0
  0
LINE
  5
288
  8
┌▓È_1
 62
     5
 10
497.39053712889978
 20
-693.18897891559982
 30
0.0
 11
497.39053712889978
 21
-685.68897891559993
 31
0.0
  0
LINE
  5
289
  8
┌▓È_1
 62
     5
 10
596.78098067339999
 20
-676.68897891559993
 30
0.0
 11
609.27431400670002
 21
-676.68897891559993
 31
0.0
  0
LINE
  5
28A
  8
┌▓È_1
 62
     5
 10
622.70383120250006
 20
-674.14533446320002
 30
0.0
 11
626.78098067339999
 21
-668.18897891559993
 31
0.0
  0
INSERT
  5
28B
  8
0
  6
CONTINUOUS
  2
*U80
 10
0.0
 20
0.0
 30
0.0
  0
INSERT
  5
28C
  8
0
  6
CONTINUOUS
  2
*U81
 10
0.0
 20
0.0
 30
0.0
  0
INSERT
  5
28D
  8
0
  6
CONTINUOUS
  2
*U82
 10
0.0
 20
0.0
 30
0.0
  0
INSERT
  5
28E
  8
0
  6
CONTINUOUS
  2
*U83
 10
0.0
 20
0.0
 30
0.0
  0
INSERT
  5
28F
  8
0
  6
CONTINUOUS
  2
*U84
 10
0.0
 20
0.0
 30
0.0
  0
INSERT
  5
290
  8
0
  6
CONTINUOUS
  2
*U85
 10
0.0
 20
0.0
 30
0.0
  0
LINE
  5
291
  8
┌▓È_1
 62
     5
 10
560.69356743199978
 20
-679.79953025299994
 30
0.0
 11
557.86514030720002
 21
-682.6279573777
 31
0.0
  0
LINE
  5
292
  8
┌▓È_1
 62
     5
 10
540.69356743200001
 20
-681.41008159039995
 30
0.0
 11
540.69356743200001
 21
-679.79953025299994
 31
0.0
  0
LINE
  5
293
  8
┌▓È_1
 62
     5
 10
479.13501807120002
 20
-678.18897891559993
 30
0.0
 11
479.13501807120002
 21
-685.68897891559993
 31
0.0
  0
LINE
  5
294
  8
┌▓È_1
 62
     5
 10
527.39053712889995
 20
-678.18897891559993
 30
0.0
 11
527.39053712889995
 21
-685.68897891559993
 31
0.0
  0
LINE
  5
295
  8
┌▓È_1
 62
     5
 10
580.69356743200001
 20
-675.68897891559993
 30
0.0
 11
585.69356743199978
 21
-668.18897891559993
 31
0.0
  0
LINE
  5
296
  8
┌▓È_1
 62
     5
 10
540.69356743200001
 20
-695.68897891559982
 30
0.0
 11
540.69356743200001
 21
-703.18897891559971
 31
0.0
  0
LINE
  5
297
  8
┌▓È_1
 62
     5
 10
540.69356743200001
 20
-695.68897891559982
 30
0.0
 11
546.69356743200001
 21
-695.68897891559982
 31
0.0
  0
LINE
  5
298
  8
┌▓È_1
 62
     5
 10
580.69356743200001
 20
-675.68897891559993
 30
0.0
 11
585.69356743199978
 21
-668.18897891559993
 31
0.0
  0
LINE
  5
299
  8
┌▓È_1
 62
     5
 10
626.02568534939996
 20
-685.68897891559993
 30
0.0
 11
641.78098067339977
 21
-685.68897891559993
 31
0.0
  0
LINE
  5
29A
  8
┌▓È_1
 62
     5
 10
540.69356743200001
 20
-703.18897891559971
 30
0.0
 11
553.19356743200001
 21
-703.18897891559971
 31
0.0
  0
LINE
  5
29B
  8
┌▓È_1
 62
     5
 10
507.39053712890001
 20
-668.18897891559993
 30
0.0
 11
507.39053712890001
 21
-678.18897891559993
 31
0.0
  0
LINE
  5
29C
  8
┌▓È_1
 62
     5
 10
289.08730468750002
 20
-714.61484374999986
 30
0.0
 11
1039.0873046874999
 21
-714.61484374999986
 31
0.0
  0
LINE
  5
29D
  8
┌▓È_1
 62
     5
 10
563.37512989039999
 20
-685.78433344109999
 30
0.0
 11
562.17215085880002
 21
-687.11302524389998
 31
0.0
  0
LINE
  5
29E
  8
┌▓È_1
 62
     5
 10
540.69356743200001
 20
-679.79953025299994
 30
0.0
 11
560.69356743199978
 21
-679.79953025299994
 31
0.0
  0
ARC
  5
29F
  8
┌▓È_1
 62
     5
 10
546.69356743200001
 20
-676.68897891559993
 30
0.0
 40
19.0
 50
270.0
 51
298.08590481520002
  0
LINE
  5
2A0
  8
┌▓È_1
 10
301.58730468750002
 20
-577.11484374999986
 30
0.0
 11
376.58730468750002
 21
-577.11484374999986
 31
0.0
  0
LINE
  5
2A1
  8
┌▓È_1
 10
401.58730468749991
 20
-577.11484374999986
 30
0.0
 11
476.58730468749991
 21
-577.11484374999986
 31
0.0
  0
LINE
  5
2A2
  8
┌▓È_1
 62
     5
 10
606.78098067339999
 20
-668.18897891559993
 30
0.0
 11
626.78098067339999
 21
-668.18897891559993
 31
0.0
  0
LINE
  5
2A3
  8
┌▓È_1
 62
     5
 10
484.89053712889978
 20
-678.18897891559993
 30
0.0
 11
479.13501807120002
 21
-678.18897891559993
 31
0.0
  0
POLYLINE
  5
810
  8
┌▓È_1
 62
     5
 66
     1
 10
0.0
 20
0.0
 30
0.0
 70
     8
  0
VERTEX
  5
811
  8
┌▓È_1
 62
     5
 10
574.11699999999985
 20
-693.30700000000002
 30
0.0
 70
    32
  0
VERTEX
  5
812
  8
┌▓È_1
 62
     5
 10
574.20400000000006
 20
-693.33100000000002
 30
0.0
 70
    32
  0
VERTEX
  5
813
  8
┌▓È_1
 62
     5
 10
574.2919999999998
 20
-693.35599999999999
 30
0.0
 70
    32
  0
VERTEX
  5
814
  8
┌▓È_1
 62
     5
 10
574.37900000000002
 20
-693.37999999999988
 30
0.0
 70
    32
  0
VERTEX
  5
815
  8
┌▓È_1
 62
     5
 10
574.46699999999998
 20
-693.40499999999997
 30
0.0
 70
    32
  0
VERTEX
  5
816
  8
┌▓È_1
 62
     5
 10
574.55499999999995
 20
-693.42899999999986
 30
0.0
 70
    32
  0
VERTEX
  5
817
  8
┌▓È_1
 62
     5
 10
574.64199999999994
 20
-693.45299999999986
 30
0.0
 70
    32
  0
VERTEX
  5
818
  8
┌▓È_1
 62
     5
 10
574.73000000000002
 20
-693.47699999999998
 30
0.0
 70
    32
  0
VERTEX
  5
819
  8
┌▓È_1
 62
     5
 10
574.81799999999987
 20
-693.50100000000009
 30
0.0
 70
    32
  0
VERTEX
  5
81A
  8
┌▓È_1
 62
     5
 10
574.90699999999993
 20
-693.52399999999989
 30
0.0
 70
    32
  0
VERTEX
  5
81B
  8
┌▓È_1
 62
     5
 10
574.995
 20
-693.548
 30
0.0
 70
    32
  0
VERTEX
  5
81C
  8
┌▓È_1
 62
     5
 10
575.08299999999997
 20
-693.57100000000003
 30
0.0
 70
    32
  0
VERTEX
  5
81D
  8
┌▓È_1
 62
     5
 10
575.17099999999994
 20
-693.59500000000003
 30
0.0
 70
    32
  0
VERTEX
  5
81E
  8
┌▓È_1
 62
     5
 10
575.25999999999999
 20
-693.61800000000005
 30
0.0
 70
    32
  0
VERTEX
  5
81F
  8
┌▓È_1
 62
     5
 10
575.34799999999996
 20
-693.64100000000008
 30
0.0
 70
    32
  0
VERTEX
  5
820
  8
┌▓È_1
 62
     5
 10
575.43700000000001
 20
-693.66399999999987
 30
0.0
 70
    32
  0
VERTEX
  5
821
  8
┌▓È_1
 62
     5
 10
575.52599999999995
 20
-693.68600000000004
 30
0.0
 70
    32
  0
VERTEX
  5
822
  8
┌▓È_1
 62
     5
 10
575.61400000000003
 20
-693.70899999999995
 30
0.0
 70
    32
  0
VERTEX
  5
823
  8
┌▓È_1
 62
     5
 10
575.70299999999986
 20
-693.73199999999986
 30
0.0
 70
    32
  0
VERTEX
  5
824
  8
┌▓È_1
 62
     5
 10
575.79199999999992
 20
-693.75399999999991
 30
0.0
 70
    32
  0
VERTEX
  5
825
  8
┌▓È_1
 62
     5
 10
575.88099999999986
 20
-693.77599999999995
 30
0.0
 70
    32
  0
VERTEX
  5
826
  8
┌▓È_1
 62
     5
 10
575.97000000000003
 20
-693.798
 30
0.0
 70
    32
  0
VERTEX
  5
827
  8
┌▓È_1
 62
     5
 10
576.05899999999986
 20
-693.82000000000005
 30
0.0
 70
    32
  0
VERTEX
  5
828
  8
┌▓È_1
 62
     5
 10
576.14800000000002
 20
-693.84199999999987
 30
0.0
 70
    32
  0
VERTEX
  5
829
  8
┌▓È_1
 62
     5
 10
576.23800000000006
 20
-693.86399999999992
 30
0.0
 70
    32
  0
VERTEX
  5
82A
  8
┌▓È_1
 62
     5
 10
576.327
 20
-693.88599999999997
 30
0.0
 70
    32
  0
VERTEX
  5
82B
  8
┌▓È_1
 62
     5
 10
576.41699999999992
 20
-693.90699999999993
 30
0.0
 70
    32
  0
VERTEX
  5
82C
  8
┌▓È_1
 62
     5
 10
576.50599999999997
 20
-693.92899999999986
 30
0.0
 70
    32
  0
VERTEX
  5
82D
  8
┌▓È_1
 62
     5
 10
576.59599999999989
 20
-693.95000000000005
 30
0.0
 70
    32
  0
VERTEX
  5
82E
  8
┌▓È_1
 62
     5
 10
576.68499999999995
 20
-693.97099999999989
 30
0.0
 70
    32
  0
VERTEX
  5
82F
  8
┌▓È_1
 62
     5
 10
576.77499999999986
 20
-693.99199999999985
 30
0.0
 70
    32
  0
VERTEX
  5
830
  8
┌▓È_1
 62
     5
 10
576.86500000000001
 20
-694.01300000000003
 30
0.0
 70
    32
  0
VERTEX
  5
831
  8
┌▓È_1
 62
     5
 10
576.95500000000004
 20
-694.03399999999988
 30
0.0
 70
    32
  0
VERTEX
  5
832
  8
┌▓È_1
 62
     5
 10
577.04399999999987
 20
-694.05499999999995
 30
0.0
 70
    32
  0
VERTEX
  5
833
  8
┌▓È_1
 62
     5
 10
577.13400000000001
 20
-694.07600000000002
 30
0.0
 70
    32
  0
VERTEX
  5
834
  8
┌▓È_1
 62
     5
 10
577.22400000000005
 20
-694.096
 30
0.0
 70
    32
  0
VERTEX
  5
835
  8
┌▓È_1
 62
     5
 10
577.31500000000005
 20
-694.11699999999985
 30
0.0
 70
    32
  0
VERTEX
  5
836
  8
┌▓È_1
 62
     5
 10
577.40499999999986
 20
-694.13699999999994
 30
0.0
 70
    32
  0
VERTEX
  5
837
  8
┌▓È_1
 62
     5
 10
577.495
 20
-694.15699999999993
 30
0.0
 70
    32
  0
VERTEX
  5
838
  8
┌▓È_1
 62
     5
 10
577.58500000000004
 20
-694.17699999999991
 30
0.0
 70
    32
  0
VERTEX
  5
839
  8
┌▓È_1
 62
     5
 10
577.67599999999993
 20
-694.197
 30
0.0
 70
    32
  0
VERTEX
  5
83A
  8
┌▓È_1
 62
     5
 10
577.76599999999996
 20
-694.21699999999987
 30
0.0
 70
    32
  0
VERTEX
  5
83B
  8
┌▓È_1
 62
     5
 10
577.85599999999988
 20
-694.23699999999985
 30
0.0
 70
    32
  0
VERTEX
  5
83C
  8
┌▓È_1
 62
     5
 10
577.94699999999989
 20
-694.25699999999995
 30
0.0
 70
    32
  0
VERTEX
  5
83D
  8
┌▓È_1
 62
     5
 10
578.03800000000001
 20
-694.27699999999993
 30
0.0
 70
    32
  0
VERTEX
  5
83E
  8
┌▓È_1
 62
     5
 10
578.12800000000004
 20
-694.29600000000005
 30
0.0
 70
    32
  0
VERTEX
  5
83F
  8
┌▓È_1
 62
     5
 10
578.21900000000005
 20
-694.31600000000003
 30
0.0
 70
    32
  0
VERTEX
  5
840
  8
┌▓È_1
 62
     5
 10
578.30999999999995
 20
-694.33500000000004
 30
0.0
 70
    32
  0
VERTEX
  5
841
  8
┌▓È_1
 62
     5
 10
578.40099999999995
 20
-694.35399999999993
 30
0.0
 70
    32
  0
VERTEX
  5
842
  8
┌▓È_1
 62
     5
 10
578.49099999999987
 20
-694.37399999999991
 30
0.0
 70
    32
  0
VERTEX
  5
843
  8
┌▓È_1
 62
     5
 10
578.58199999999999
 20
-694.39300000000003
 30
0.0
 70
    32
  0
VERTEX
  5
844
  8
┌▓È_1
 62
     5
 10
578.673
 20
-694.41199999999981
 30
0.0
 70
    32
  0
VERTEX
  5
845
  8
┌▓È_1
 62
     5
 10
578.76400000000001
 20
-694.43100000000004
 30
0.0
 70
    32
  0
VERTEX
  5
846
  8
┌▓È_1
 62
     5
 10
578.85599999999999
 20
-694.45000000000005
 30
0.0
 70
    32
  0
VERTEX
  5
847
  8
┌▓È_1
 62
     5
 10
578.947
 20
-694.46799999999996
 30
0.0
 70
    32
  0
VERTEX
  5
848
  8
┌▓È_1
 62
     5
 10
579.0379999999999
 20
-694.48699999999985
 30
0.0
 70
    32
  0
VERTEX
  5
849
  8
┌▓È_1
 62
     5
 10
579.12900000000002
 20
-694.50599999999997
 30
0.0
 70
    32
  0
VERTEX
  5
84A
  8
┌▓È_1
 62
     5
 10
579.22000000000003
 20
-694.52399999999989
 30
0.0
 70
    32
  0
VERTEX
  5
84B
  8
┌▓È_1
 62
     5
 10
579.31200000000001
 20
-694.54299999999989
 30
0.0
 70
    32
  0
VERTEX
  5
84C
  8
┌▓È_1
 62
     5
 10
579.40300000000002
 20
-694.56100000000004
 30
0.0
 70
    32
  0
VERTEX
  5
84D
  8
┌▓È_1
 62
     5
 10
579.495
 20
-694.57899999999995
 30
0.0
 70
    32
  0
VERTEX
  5
84E
  8
┌▓È_1
 62
     5
 10
579.58600000000001
 20
-694.59799999999996
 30
0.0
 70
    32
  0
VERTEX
  5
84F
  8
┌▓È_1
 62
     5
 10
579.678
 20
-694.61599999999999
 30
0.0
 70
    32
  0
VERTEX
  5
850
  8
┌▓È_1
 62
     5
 10
579.76900000000001
 20
-694.6339999999999
 30
0.0
 70
    32
  0
VERTEX
  5
851
  8
┌▓È_1
 62
     5
 10
579.86099999999999
 20
-694.65199999999993
 30
0.0
 70
    32
  0
VERTEX
  5
852
  8
┌▓È_1
 62
     5
 10
579.95299999999986
 20
-694.66999999999985
 30
0.0
 70
    32
  0
VERTEX
  5
853
  8
┌▓È_1
 62
     5
 10
580.04399999999998
 20
-694.68799999999999
 30
0.0
 70
    32
  0
VERTEX
  5
854
  8
┌▓È_1
 62
     5
 10
580.13599999999985
 20
-694.70500000000004
 30
0.0
 70
    32
  0
VERTEX
  5
855
  8
┌▓È_1
 62
     5
 10
580.22799999999995
 20
-694.72300000000007
 30
0.0
 70
    32
  0
VERTEX
  5
856
  8
┌▓È_1
 62
     5
 10
580.32000000000005
 20
-694.7410000000001
 30
0.0
 70
    32
  0
VERTEX
  5
857
  8
┌▓È_1
 62
     5
 10
580.41199999999992
 20
-694.75800000000004
 30
0.0
 70
    32
  0
VERTEX
  5
858
  8
┌▓È_1
 62
     5
 10
580.50300000000004
 20
-694.77599999999995
 30
0.0
 70
    32
  0
VERTEX
  5
859
  8
┌▓È_1
 62
     5
 10
580.59500000000003
 20
-694.79300000000001
 30
0.0
 70
    32
  0
VERTEX
  5
85A
  8
┌▓È_1
 62
     5
 10
580.6869999999999
 20
-694.81100000000004
 30
0.0
 70
    32
  0
VERTEX
  5
85B
  8
┌▓È_1
 62
     5
 10
580.77899999999988
 20
-694.82799999999986
 30
0.0
 70
    32
  0
VERTEX
  5
85C
  8
┌▓È_1
 62
     5
 10
580.87199999999996
 20
-694.84500000000003
 30
0.0
 70
    32
  0
VERTEX
  5
85D
  8
┌▓È_1
 62
     5
 10
580.96400000000006
 20
-694.86199999999997
 30
0.0
 70
    32
  0
VERTEX
  5
85E
  8
┌▓È_1
 62
     5
 10
581.05600000000004
 20
-694.88
 30
0.0
 70
    32
  0
VERTEX
  5
85F
  8
┌▓È_1
 62
     5
 10
581.14800000000002
 20
-694.89699999999993
 30
0.0
 70
    32
  0
VERTEX
  5
860
  8
┌▓È_1
 62
     5
 10
581.24000000000001
 20
-694.91399999999987
 30
0.0
 70
    32
  0
VERTEX
  5
861
  8
┌▓È_1
 62
     5
 10
581.33199999999999
 20
-694.93100000000004
 30
0.0
 70
    32
  0
VERTEX
  5
862
  8
┌▓È_1
 62
     5
 10
581.42499999999995
 20
-694.94799999999998
 30
0.0
 70
    32
  0
VERTEX
  5
863
  8
┌▓È_1
 62
     5
 10
581.51699999999994
 20
-694.96500000000003
 30
0.0
 70
    32
  0
VERTEX
  5
864
  8
┌▓È_1
 62
     5
 10
581.60900000000004
 20
-694.98100000000011
 30
0.0
 70
    32
  0
VERTEX
  5
865
  8
┌▓È_1
 62
     5
 10
581.702
 20
-694.99800000000005
 30
0.0
 70
    32
  0
VERTEX
  5
866
  8
┌▓È_1
 62
     5
 10
581.79399999999998
 20
-695.01499999999987
 30
0.0
 70
    32
  0
VERTEX
  5
867
  8
┌▓È_1
 62
     5
 10
581.88699999999994
 20
-695.03199999999993
 30
0.0
 70
    32
  0
VERTEX
  5
868
  8
┌▓È_1
 62
     5
 10
581.97900000000004
 20
-695.04799999999989
 30
0.0
 70
    32
  0
VERTEX
  5
869
  8
┌▓È_1
 62
     5
 10
582.072
 20
-695.06500000000005
 30
0.0
 70
    32
  0
VERTEX
  5
86A
  8
┌▓È_1
 62
     5
 10
582.16399999999999
 20
-695.08100000000002
 30
0.0
 70
    32
  0
VERTEX
  5
86B
  8
┌▓È_1
 62
     5
 10
582.25699999999995
 20
-695.09800000000007
 30
0.0
 70
    32
  0
VERTEX
  5
86C
  8
┌▓È_1
 62
     5
 10
582.34900000000005
 20
-695.11399999999992
 30
0.0
 70
    32
  0
VERTEX
  5
86D
  8
┌▓È_1
 62
     5
 10
582.44199999999989
 20
-695.13100000000009
 30
0.0
 70
    32
  0
VERTEX
  5
86E
  8
┌▓È_1
 62
     5
 10
582.53499999999985
 20
-695.14699999999993
 30
0.0
 70
    32
  0
VERTEX
  5
86F
  8
┌▓È_1
 62
     5
 10
582.62699999999995
 20
-695.16399999999999
 30
0.0
 70
    32
  0
VERTEX
  5
870
  8
┌▓È_1
 62
     5
 10
582.72000000000003
 20
-695.17999999999995
 30
0.0
 70
    32
  0
VERTEX
  5
871
  8
┌▓È_1
 62
     5
 10
582.81299999999987
 20
-695.19600000000003
 30
0.0
 70
    32
  0
VERTEX
  5
872
  8
┌▓È_1
 62
     5
 10
582.90499999999986
 20
-695.21199999999988
 30
0.0
 70
    32
  0
VERTEX
  5
873
  8
┌▓È_1
 62
     5
 10
582.99800000000005
 20
-695.22899999999993
 30
0.0
 70
    32
  0
VERTEX
  5
874
  8
┌▓È_1
 62
     5
 10
583.09100000000001
 20
-695.24499999999989
 30
0.0
 70
    32
  0
VERTEX
  5
875
  8
┌▓È_1
 62
     5
 10
583.18399999999986
 20
-695.26099999999997
 30
0.0
 70
    32
  0
VERTEX
  5
876
  8
┌▓È_1
 62
     5
 10
583.27599999999995
 20
-695.27699999999993
 30
0.0
 70
    32
  0
VERTEX
  5
877
  8
┌▓È_1
 62
     5
 10
583.36900000000003
 20
-695.29300000000001
 30
0.0
 70
    32
  0
VERTEX
  5
878
  8
┌▓È_1
 62
     5
 10
583.46199999999999
 20
-695.30899999999986
 30
0.0
 70
    32
  0
VERTEX
  5
879
  8
┌▓È_1
 62
     5
 10
583.55499999999995
 20
-695.32500000000005
 30
0.0
 70
    32
  0
VERTEX
  5
87A
  8
┌▓È_1
 62
     5
 10
583.64800000000002
 20
-695.34099999999989
 30
0.0
 70
    32
  0
VERTEX
  5
87B
  8
┌▓È_1
 62
     5
 10
583.74099999999999
 20
-695.35699999999997
 30
0.0
 70
    32
  0
VERTEX
  5
87C
  8
┌▓È_1
 62
     5
 10
583.83399999999995
 20
-695.37300000000005
 30
0.0
 70
    32
  0
VERTEX
  5
87D
  8
┌▓È_1
 62
     5
 10
583.92599999999993
 20
-695.3889999999999
 30
0.0
 70
    32
  0
VERTEX
  5
87E
  8
┌▓È_1
 62
     5
 10
584.01899999999989
 20
-695.40499999999986
 30
0.0
 70
    32
  0
VERTEX
  5
87F
  8
┌▓È_1
 62
     5
 10
584.11199999999997
 20
-695.42100000000005
 30
0.0
 70
    32
  0
VERTEX
  5
880
  8
┌▓È_1
 62
     5
 10
584.20500000000004
 20
-695.4369999999999
 30
0.0
 70
    32
  0
VERTEX
  5
881
  8
┌▓È_1
 62
     5
 10
584.29799999999989
 20
-695.45299999999997
 30
0.0
 70
    32
  0
VERTEX
  5
882
  8
┌▓È_1
 62
     5
 10
584.39099999999996
 20
-695.46799999999996
 30
0.0
 70
    32
  0
VERTEX
  5
883
  8
┌▓È_1
 62
     5
 10
584.48400000000004
 20
-695.48399999999992
 30
0.0
 70
    32
  0
VERTEX
  5
884
  8
┌▓È_1
 62
     5
 10
584.57699999999988
 20
-695.5
 30
0.0
 70
    32
  0
VERTEX
  5
885
  8
┌▓È_1
 62
     5
 10
584.66999999999985
 20
-695.51600000000008
 30
0.0
 70
    32
  0
VERTEX
  5
886
  8
┌▓È_1
 62
     5
 10
584.76300000000003
 20
-695.53199999999993
 30
0.0
 70
    32
  0
VERTEX
  5
887
  8
┌▓È_1
 62
     5
 10
584.85599999999988
 20
-695.54700000000003
 30
0.0
 70
    32
  0
VERTEX
  5
888
  8
┌▓È_1
 62
     5
 10
584.94900000000007
 20
-695.56299999999999
 30
0.0
 70
    32
  0
VERTEX
  5
889
  8
┌▓È_1
 62
     5
 10
585.0419999999998
 20
-695.57899999999995
 30
0.0
 70
    32
  0
VERTEX
  5
88A
  8
┌▓È_1
 62
     5
 10
585.13499999999999
 20
-695.59500000000003
 30
0.0
 70
    32
  0
VERTEX
  5
88B
  8
┌▓È_1
 62
     5
 10
585.22799999999995
 20
-695.61000000000001
 30
0.0
 70
    32
  0
VERTEX
  5
88C
  8
┌▓È_1
 62
     5
 10
585.32100000000003
 20
-695.62600000000009
 30
0.0
 70
    32
  0
VERTEX
  5
88D
  8
┌▓È_1
 62
     5
 10
585.41399999999999
 20
-695.64199999999994
 30
0.0
 70
    32
  0
VERTEX
  5
88E
  8
┌▓È_1
 62
     5
 10
585.50699999999995
 20
-695.65800000000002
 30
0.0
 70
    32
  0
VERTEX
  5
88F
  8
┌▓È_1
 62
     5
 10
585.601
 20
-695.673
 30
0.0
 70
    32
  0
VERTEX
  5
890
  8
┌▓È_1
 62
     5
 10
585.69399999999985
 20
-695.68899999999985
 30
0.0
 70
    32
  0
SEQEND
  5
891
  8
┌▓È_1
 62
     5
  0
POLYLINE
  5
892
  8
┌▓È_1
 62
     5
 66
     1
 10
0.0
 20
0.0
 30
0.0
 70
     8
  0
VERTEX
  5
893
  8
┌▓È_1
 62
     5
 10
557.86500000000001
 20
-682.62800000000004
 30
0.0
 70
    32
  0
VERTEX
  5
894
  8
┌▓È_1
 62
     5
 10
557.89800000000002
 20
-682.66499999999985
 30
0.0
 70
    32
  0
VERTEX
  5
895
  8
┌▓È_1
 62
     5
 10
557.93100000000004
 20
-682.702
 30
0.0
 70
    32
  0
VERTEX
  5
896
  8
┌▓È_1
 62
     5
 10
557.96400000000006
 20
-682.73800000000006
 30
0.0
 70
    32
  0
VERTEX
  5
897
  8
┌▓È_1
 62
     5
 10
557.99699999999984
 20
-682.77499999999986
 30
0.0
 70
    32
  0
VERTEX
  5
898
  8
┌▓È_1
 62
     5
 10
558.02999999999997
 20
-682.81200000000001
 30
0.0
 70
    32
  0
VERTEX
  5
899
  8
┌▓È_1
 62
     5
 10
558.06299999999999
 20
-682.84899999999993
 30
0.0
 70
    32
  0
VERTEX
  5
89A
  8
┌▓È_1
 62
     5
 10
558.096
 20
-682.88499999999999
 30
0.0
 70
    32
  0
VERTEX
  5
89B
  8
┌▓È_1
 62
     5
 10
558.12900000000002
 20
-682.92200000000003
 30
0.0
 70
    32
  0
VERTEX
  5
89C
  8
┌▓È_1
 62
     5
 10
558.16199999999992
 20
-682.95899999999995
 30
0.0
 70
    32
  0
VERTEX
  5
89D
  8
┌▓È_1
 62
     5
 10
558.19500000000005
 20
-682.99599999999998
 30
0.0
 70
    32
  0
VERTEX
  5
89E
  8
┌▓È_1
 62
     5
 10
558.22799999999995
 20
-683.03300000000002
 30
0.0
 70
    32
  0
VERTEX
  5
89F
  8
┌▓È_1
 62
     5
 10
558.26099999999985
 20
-683.06899999999985
 30
0.0
 70
    32
  0
VERTEX
  5
8A0
  8
┌▓È_1
 62
     5
 10
558.29399999999987
 20
-683.10599999999999
 30
0.0
 70
    32
  0
VERTEX
  5
8A1
  8
┌▓È_1
 62
     5
 10
558.32699999999988
 20
-683.14300000000003
 30
0.0
 70
    32
  0
VERTEX
  5
8A2
  8
┌▓È_1
 62
     5
 10
558.36000000000001
 20
-683.17999999999995
 30
0.0
 70
    32
  0
VERTEX
  5
8A3
  8
┌▓È_1
 62
     5
 10
558.39300000000003
 20
-683.21600000000001
 30
0.0
 70
    32
  0
VERTEX
  5
8A4
  8
┌▓È_1
 62
     5
 10
558.42599999999993
 20
-683.25300000000004
 30
0.0
 70
    32
  0
VERTEX
  5
8A5
  8
┌▓È_1
 62
     5
 10
558.45899999999995
 20
-683.28999999999985
 30
0.0
 70
    32
  0
VERTEX
  5
8A6
  8
┌▓È_1
 62
     5
 10
558.49199999999985
 20
-683.32600000000002
 30
0.0
 70
    32
  0
VERTEX
  5
8A7
  8
┌▓È_1
 62
     5
 10
558.52599999999995
 20
-683.36300000000006
 30
0.0
 70
    32
  0
VERTEX
  5
8A8
  8
┌▓È_1
 62
     5
 10
558.55899999999986
 20
-683.39999999999986
 30
0.0
 70
    32
  0
VERTEX
  5
8A9
  8
┌▓È_1
 62
     5
 10
558.59199999999987
 20
-683.43600000000004
 30
0.0
 70
    32
  0
VERTEX
  5
8AA
  8
┌▓È_1
 62
     5
 10
558.62499999999989
 20
-683.47299999999996
 30
0.0
 70
    32
  0
VERTEX
  5
8AB
  8
┌▓È_1
 62
     5
 10
558.65800000000002
 20
-683.50999999999988
 30
0.0
 70
    32
  0
VERTEX
  5
8AC
  8
┌▓È_1
 62
     5
 10
558.69100000000003
 20
-683.54600000000005
 30
0.0
 70
    32
  0
VERTEX
  5
8AD
  8
┌▓È_1
 62
     5
 10
558.72400000000005
 20
-683.58300000000008
 30
0.0
 70
    32
  0
VERTEX
  5
8AE
  8
┌▓È_1
 62
     5
 10
558.75699999999995
 20
-683.61999999999989
 30
0.0
 70
    32
  0
VERTEX
  5
8AF
  8
┌▓È_1
 62
     5
 10
558.78999999999985
 20
-683.65599999999995
 30
0.0
 70
    32
  0
VERTEX
  5
8B0
  8
┌▓È_1
 62
     5
 10
558.82299999999998
 20
-683.69299999999987
 30
0.0
 70
    32
  0
VERTEX
  5
8B1
  8
┌▓È_1
 62
     5
 10
558.85699999999986
 20
-683.72899999999993
 30
0.0
 70
    32
  0
VERTEX
  5
8B2
  8
┌▓È_1
 62
     5
 10
558.88999999999987
 20
-683.76599999999996
 30
0.0
 70
    32
  0
VERTEX
  5
8B3
  8
┌▓È_1
 62
     5
 10
558.92299999999989
 20
-683.80200000000002
 30
0.0
 70
    32
  0
VERTEX
  5
8B4
  8
┌▓È_1
 62
     5
 10
558.95600000000002
 20
-683.83899999999994
 30
0.0
 70
    32
  0
VERTEX
  5
8B5
  8
┌▓È_1
 62
     5
 10
558.98900000000003
 20
-683.875
 30
0.0
 70
    32
  0
VERTEX
  5
8B6
  8
┌▓È_1
 62
     5
 10
559.02199999999993
 20
-683.91199999999992
 30
0.0
 70
    32
  0
VERTEX
  5
8B7
  8
┌▓È_1
 62
     5
 10
559.05600000000004
 20
-683.94799999999998
 30
0.0
 70
    32
  0
VERTEX
  5
8B8
  8
┌▓È_1
 62
     5
 10
559.08900000000006
 20
-683.98500000000001
 30
0.0
 70
    32
  0
VERTEX
  5
8B9
  8
┌▓È_1
 62
     5
 10
559.12199999999984
 20
-684.02099999999996
 30
0.0
 70
    32
  0
VERTEX
  5
8BA
  8
┌▓È_1
 62
     5
 10
559.15499999999986
 20
-684.05700000000002
 30
0.0
 70
    32
  0
VERTEX
  5
8BB
  8
┌▓È_1
 62
     5
 10
559.18899999999985
 20
-684.09399999999994
 30
0.0
 70
    32
  0
VERTEX
  5
8BC
  8
┌▓È_1
 62
     5
 10
559.22199999999998
 20
-684.13
 30
0.0
 70
    32
  0
VERTEX
  5
8BD
  8
┌▓È_1
 62
     5
 10
559.255
 20
-684.16600000000005
 30
0.0
 70
    32
  0
VERTEX
  5
8BE
  8
┌▓È_1
 62
     5
 10
559.28899999999987
 20
-684.20299999999997
 30
0.0
 70
    32
  0
VERTEX
  5
8BF
  8
┌▓È_1
 62
     5
 10
559.322
 20
-684.23899999999992
 30
0.0
 70
    32
  0
VERTEX
  5
8C0
  8
┌▓È_1
 62
     5
 10
559.35500000000002
 20
-684.27499999999986
 30
0.0
 70
    32
  0
VERTEX
  5
8C1
  8
┌▓È_1
 62
     5
 10
559.38900000000001
 20
-684.31100000000004
 30
0.0
 70
    32
  0
VERTEX
  5
8C2
  8
┌▓È_1
 62
     5
 10
559.42199999999991
 20
-684.34799999999996
 30
0.0
 70
    32
  0
VERTEX
  5
8C3
  8
┌▓È_1
 62
     5
 10
559.45500000000004
 20
-684.3839999999999
 30
0.0
 70
    32
  0
VERTEX
  5
8C4
  8
┌▓È_1
 62
     5
 10
559.48900000000003
 20
-684.41999999999985
 30
0.0
 70
    32
  0
VERTEX
  5
8C5
  8
┌▓È_1
 62
     5
 10
559.52199999999993
 20
-684.45600000000002
 30
0.0
 70
    32
  0
VERTEX
  5
8C6
  8
┌▓È_1
 62
     5
 10
559.55600000000004
 20
-684.49199999999996
 30
0.0
 70
    32
  0
VERTEX
  5
8C7
  8
┌▓È_1
 62
     5
 10
559.58900000000006
 20
-684.52800000000002
 30
0.0
 70
    32
  0
VERTEX
  5
8C8
  8
┌▓È_1
 62
     5
 10
559.62199999999984
 20
-684.56399999999985
 30
0.0
 70
    32
  0
VERTEX
  5
8C9
  8
┌▓È_1
 62
     5
 10
559.65599999999995
 20
-684.60000000000002
 30
0.0
 70
    32
  0
VERTEX
  5
8CA
  8
┌▓È_1
 62
     5
 10
559.68899999999996
 20
-684.63599999999997
 30
0.0
 70
    32
  0
VERTEX
  5
8CB
  8
┌▓È_1
 62
     5
 10
559.72299999999996
 20
-684.67200000000003
 30
0.0
 70
    32
  0
VERTEX
  5
8CC
  8
┌▓È_1
 62
     5
 10
559.75599999999986
 20
-684.70799999999997
 30
0.0
 70
    32
  0
VERTEX
  5
8CD
  8
┌▓È_1
 62
     5
 10
559.78999999999996
 20
-684.7439999999998
 30
0.0
 70
    32
  0
VERTEX
  5
8CE
  8
┌▓È_1
 62
     5
 10
559.82399999999996
 20
-684.77999999999986
 30
0.0
 70
    32
  0
VERTEX
  5
8CF
  8
┌▓È_1
 62
     5
 10
559.85699999999986
 20
-684.81600000000003
 30
0.0
 70
    32
  0
VERTEX
  5
8D0
  8
┌▓È_1
 62
     5
 10
559.89099999999996
 20
-684.851
 30
0.0
 70
    32
  0
VERTEX
  5
8D1
  8
┌▓È_1
 62
     5
 10
559.92399999999986
 20
-684.88699999999994
 30
0.0
 70
    32
  0
VERTEX
  5
8D2
  8
┌▓È_1
 62
     5
 10
559.95800000000008
 20
-684.923
 30
0.0
 70
    32
  0
VERTEX
  5
8D3
  8
┌▓È_1
 62
     5
 10
559.99199999999996
 20
-684.95899999999995
 30
0.0
 70
    32
  0
VERTEX
  5
8D4
  8
┌▓È_1
 62
     5
 10
560.02599999999995
 20
-684.99399999999991
 30
0.0
 70
    32
  0
VERTEX
  5
8D5
  8
┌▓È_1
 62
     5
 10
560.05899999999986
 20
-685.02999999999986
 30
0.0
 70
    32
  0
VERTEX
  5
8D6
  8
┌▓È_1
 62
     5
 10
560.09299999999996
 20
-685.06500000000005
 30
0.0
 70
    32
  0
VERTEX
  5
8D7
  8
┌▓È_1
 62
     5
 10
560.12699999999995
 20
-685.10100000000011
 30
0.0
 70
    32
  0
VERTEX
  5
8D8
  8
┌▓È_1
 62
     5
 10
560.16099999999994
 20
-685.13699999999994
 30
0.0
 70
    32
  0
VERTEX
  5
8D9
  8
┌▓È_1
 62
     5
 10
560.19399999999985
 20
-685.17200000000003
 30
0.0
 70
    32
  0
VERTEX
  5
8DA
  8
┌▓È_1
 62
     5
 10
560.22799999999995
 20
-685.20699999999999
 30
0.0
 70
    32
  0
VERTEX
  5
8DB
  8
┌▓È_1
 62
     5
 10
560.26199999999994
 20
-685.24300000000005
 30
0.0
 70
    32
  0
VERTEX
  5
8DC
  8
┌▓È_1
 62
     5
 10
560.29599999999994
 20
-685.27800000000002
 30
0.0
 70
    32
  0
VERTEX
  5
8DD
  8
┌▓È_1
 62
     5
 10
560.33000000000004
 20
-685.31299999999999
 30
0.0
 70
    32
  0
VERTEX
  5
8DE
  8
┌▓È_1
 62
     5
 10
560.36400000000003
 20
-685.34899999999993
 30
0.0
 70
    32
  0
VERTEX
  5
8DF
  8
┌▓È_1
 62
     5
 10
560.39799999999991
 20
-685.3839999999999
 30
0.0
 70
    32
  0
VERTEX
  5
8E0
  8
┌▓È_1
 62
     5
 10
560.43200000000002
 20
-685.41899999999998
 30
0.0
 70
    32
  0
VERTEX
  5
8E1
  8
┌▓È_1
 62
     5
 10
560.46599999999989
 20
-685.45399999999995
 30
0.0
 70
    32
  0
VERTEX
  5
8E2
  8
┌▓È_1
 62
     5
 10
560.5
 20
-685.48899999999992
 30
0.0
 70
    32
  0
VERTEX
  5
8E3
  8
┌▓È_1
 62
     5
 10
560.53399999999988
 20
-685.52399999999989
 30
0.0
 70
    32
  0
VERTEX
  5
8E4
  8
┌▓È_1
 62
     5
 10
560.56799999999987
 20
-685.55899999999986
 30
0.0
 70
    32
  0
VERTEX
  5
8E5
  8
┌▓È_1
 62
     5
 10
560.60199999999998
 20
-685.59399999999994
 30
0.0
 70
    32
  0
VERTEX
  5
8E6
  8
┌▓È_1
 62
     5
 10
560.63599999999985
 20
-685.62899999999991
 30
0.0
 70
    32
  0
VERTEX
  5
8E7
  8
┌▓È_1
 62
     5
 10
560.67099999999994
 20
-685.66399999999987
 30
0.0
 70
    32
  0
VERTEX
  5
8E8
  8
┌▓È_1
 62
     5
 10
560.70500000000004
 20
-685.69899999999996
 30
0.0
 70
    32
  0
VERTEX
  5
8E9
  8
┌▓È_1
 62
     5
 10
560.73900000000003
 20
-685.73399999999992
 30
0.0
 70
    32
  0
VERTEX
  5
8EA
  8
┌▓È_1
 62
     5
 10
560.77300000000002
 20
-685.76899999999978
 30
0.0
 70
    32
  0
VERTEX
  5
8EB
  8
┌▓È_1
 62
     5
 10
560.80799999999999
 20
-685.803
 30
0.0
 70
    32
  0
VERTEX
  5
8EC
  8
┌▓È_1
 62
     5
 10
560.84199999999987
 20
-685.83800000000008
 30
0.0
 70
    32
  0
VERTEX
  5
8ED
  8
┌▓È_1
 62
     5
 10
560.87599999999998
 20
-685.87199999999984
 30
0.0
 70
    32
  0
VERTEX
  5
8EE
  8
┌▓È_1
 62
     5
 10
560.91099999999994
 20
-685.90699999999993
 30
0.0
 70
    32
  0
VERTEX
  5
8EF
  8
┌▓È_1
 62
     5
 10
560.94500000000005
 20
-685.94200000000001
 30
0.0
 70
    32
  0
VERTEX
  5
8F0
  8
┌▓È_1
 62
     5
 10
560.9799999999999
 20
-685.97600000000011
 30
0.0
 70
    32
  0
VERTEX
  5
8F1
  8
┌▓È_1
 62
     5
 10
561.01400000000001
 20
-686.00999999999999
 30
0.0
 70
    32
  0
VERTEX
  5
8F2
  8
┌▓È_1
 62
     5
 10
561.04899999999986
 20
-686.04499999999996
 30
0.0
 70
    32
  0
VERTEX
  5
8F3
  8
┌▓È_1
 62
     5
 10
561.08299999999997
 20
-686.07899999999995
 30
0.0
 70
    32
  0
VERTEX
  5
8F4
  8
┌▓È_1
 62
     5
 10
561.11800000000005
 20
-686.11300000000006
 30
0.0
 70
    32
  0
VERTEX
  5
8F5
  8
┌▓È_1
 62
     5
 10
561.15199999999993
 20
-686.14699999999993
 30
0.0
 70
    32
  0
VERTEX
  5
8F6
  8
┌▓È_1
 62
     5
 10
561.18700000000001
 20
-686.18200000000002
 30
0.0
 70
    32
  0
VERTEX
  5
8F7
  8
┌▓È_1
 62
     5
 10
561.22199999999987
 20
-686.21600000000001
 30
0.0
 70
    32
  0
VERTEX
  5
8F8
  8
┌▓È_1
 62
     5
 10
561.25599999999997
 20
-686.24999999999989
 30
0.0
 70
    32
  0
VERTEX
  5
8F9
  8
┌▓È_1
 62
     5
 10
561.29099999999994
 20
-686.28399999999999
 30
0.0
 70
    32
  0
VERTEX
  5
8FA
  8
┌▓È_1
 62
     5
 10
561.32600000000002
 20
-686.31700000000001
 30
0.0
 70
    32
  0
VERTEX
  5
8FB
  8
┌▓È_1
 62
     5
 10
561.36099999999999
 20
-686.35100000000011
 30
0.0
 70
    32
  0
VERTEX
  5
8FC
  8
┌▓È_1
 62
     5
 10
561.39599999999984
 20
-686.38499999999999
 30
0.0
 70
    32
  0
VERTEX
  5
8FD
  8
┌▓È_1
 62
     5
 10
561.42999999999995
 20
-686.41899999999987
 30
0.0
 70
    32
  0
VERTEX
  5
8FE
  8
┌▓È_1
 62
     5
 10
561.46500000000003
 20
-686.45299999999997
 30
0.0
 70
    32
  0
VERTEX
  5
8FF
  8
┌▓È_1
 62
     5
 10
561.5
 20
-686.4860000000001
 30
0.0
 70
    32
  0
VERTEX
  5
900
  8
┌▓È_1
 62
     5
 10
561.53499999999985
 20
-686.51999999999987
 30
0.0
 70
    32
  0
VERTEX
  5
901
  8
┌▓È_1
 62
     5
 10
561.57000000000005
 20
-686.55299999999988
 30
0.0
 70
    32
  0
VERTEX
  5
902
  8
┌▓È_1
 62
     5
 10
561.60599999999999
 20
-686.58699999999999
 30
0.0
 70
    32
  0
VERTEX
  5
903
  8
┌▓È_1
 62
     5
 10
561.64099999999996
 20
-686.62
 30
0.0
 70
    32
  0
VERTEX
  5
904
  8
┌▓È_1
 62
     5
 10
561.67599999999993
 20
-686.65300000000002
 30
0.0
 70
    32
  0
VERTEX
  5
905
  8
┌▓È_1
 62
     5
 10
561.71100000000001
 20
-686.68700000000001
 30
0.0
 70
    32
  0
VERTEX
  5
906
  8
┌▓È_1
 62
     5
 10
561.74599999999998
 20
-686.72000000000003
 30
0.0
 70
    32
  0
VERTEX
  5
907
  8
┌▓È_1
 62
     5
 10
561.78099999999995
 20
-686.75300000000004
 30
0.0
 70
    32
  0
VERTEX
  5
908
  8
┌▓È_1
 62
     5
 10
561.81700000000001
 20
-686.78599999999994
 30
0.0
 70
    32
  0
VERTEX
  5
909
  8
┌▓È_1
 62
     5
 10
561.85199999999998
 20
-686.81899999999985
 30
0.0
 70
    32
  0
VERTEX
  5
90A
  8
┌▓È_1
 62
     5
 10
561.88800000000003
 20
-686.85199999999998
 30
0.0
 70
    32
  0
VERTEX
  5
90B
  8
┌▓È_1
 62
     5
 10
561.92299999999989
 20
-686.88499999999999
 30
0.0
 70
    32
  0
VERTEX
  5
90C
  8
┌▓È_1
 62
     5
 10
561.95799999999997
 20
-686.91800000000001
 30
0.0
 70
    32
  0
VERTEX
  5
90D
  8
┌▓È_1
 62
     5
 10
561.99400000000003
 20
-686.95000000000005
 30
0.0
 70
    32
  0
VERTEX
  5
90E
  8
┌▓È_1
 62
     5
 10
562.02999999999986
 20
-686.98299999999995
 30
0.0
 70
    32
  0
VERTEX
  5
90F
  8
┌▓È_1
 62
     5
 10
562.06500000000005
 20
-687.01600000000008
 30
0.0
 70
    32
  0
VERTEX
  5
910
  8
┌▓È_1
 62
     5
 10
562.101
 20
-687.048
 30
0.0
 70
    32
  0
VERTEX
  5
911
  8
┌▓È_1
 62
     5
 10
562.13599999999997
 20
-687.08100000000002
 30
0.0
 70
    32
  0
VERTEX
  5
912
  8
┌▓È_1
 62
     5
 10
562.17200000000003
 20
-687.11300000000006
 30
0.0
 70
    32
  0
SEQEND
  5
913
  8
┌▓È_1
 62
     5
  0
POLYLINE
  5
914
  8
┌▓È_1
 62
     5
 66
     1
 10
0.0
 20
0.0
 30
0.0
 70
     8
  0
VERTEX
  5
915
  8
┌▓È_1
 62
     5
 10
567.98800000000006
 20
-698.87100000000009
 30
0.0
 70
    32
  0
VERTEX
  5
916
  8
┌▓È_1
 62
     5
 10
568.12199999999984
 20
-698.91399999999987
 30
0.0
 70
    32
  0
VERTEX
  5
917
  8
┌▓È_1
 62
     5
 10
568.25699999999995
 20
-698.9559999999999
 30
0.0
 70
    32
  0
VERTEX
  5
918
  8
┌▓È_1
 62
     5
 10
568.39199999999994
 20
-698.9989999999998
 30
0.0
 70
    32
  0
VERTEX
  5
919
  8
┌▓È_1
 62
     5
 10
568.52699999999993
 20
-699.04100000000005
 30
0.0
 70
    32
  0
VERTEX
  5
91A
  8
┌▓È_1
 62
     5
 10
568.66199999999992
 20
-699.08299999999997
 30
0.0
 70
    32
  0
VERTEX
  5
91B
  8
┌▓È_1
 62
     5
 10
568.79699999999991
 20
-699.12499999999989
 30
0.0
 70
    32
  0
VERTEX
  5
91C
  8
┌▓È_1
 62
     5
 10
568.93200000000002
 20
-699.16699999999992
 30
0.0
 70
    32
  0
VERTEX
  5
91D
  8
┌▓È_1
 62
     5
 10
569.06699999999989
 20
-699.20800000000008
 30
0.0
 70
    32
  0
VERTEX
  5
91E
  8
┌▓È_1
 62
     5
 10
569.20299999999986
 20
-699.24899999999991
 30
0.0
 70
    32
  0
VERTEX
  5
91F
  8
┌▓È_1
 62
     5
 10
569.33800000000008
 20
-699.29100000000005
 30
0.0
 70
    32
  0
VERTEX
  5
920
  8
┌▓È_1
 62
     5
 10
569.47400000000005
 20
-699.33100000000002
 30
0.0
 70
    32
  0
VERTEX
  5
921
  8
┌▓È_1
 62
     5
 10
569.61000000000001
 20
-699.37199999999984
 30
0.0
 70
    32
  0
VERTEX
  5
922
  8
┌▓È_1
 62
     5
 10
569.74599999999987
 20
-699.41300000000001
 30
0.0
 70
    32
  0
VERTEX
  5
923
  8
┌▓È_1
 62
     5
 10
569.88199999999995
 20
-699.45299999999997
 30
0.0
 70
    32
  0
VERTEX
  5
924
  8
┌▓È_1
 62
     5
 10
570.01800000000003
 20
-699.49300000000005
 30
0.0
 70
    32
  0
VERTEX
  5
925
  8
┌▓È_1
 62
     5
 10
570.154
 20
-699.53300000000002
 30
0.0
 70
    32
  0
VERTEX
  5
926
  8
┌▓È_1
 62
     5
 10
570.29099999999994
 20
-699.57299999999998
 30
0.0
 70
    32
  0
VERTEX
  5
927
  8
┌▓È_1
 62
     5
 10
570.42700000000002
 20
-699.61199999999985
 30
0.0
 70
    32
  0
VERTEX
  5
928
  8
┌▓È_1
 62
     5
 10
570.56299999999999
 20
-699.65199999999993
 30
0.0
 70
    32
  0
VERTEX
  5
929
  8
┌▓È_1
 62
     5
 10
570.70000000000005
 20
-699.69100000000003
 30
0.0
 70
    32
  0
VERTEX
  5
92A
  8
┌▓È_1
 62
     5
 10
570.83699999999999
 20
-699.73000000000002
 30
0.0
 70
    32
  0
VERTEX
  5
92B
  8
┌▓È_1
 62
     5
 10
570.97400000000005
 20
-699.76899999999978
 30
0.0
 70
    32
  0
VERTEX
  5
92C
  8
┌▓È_1
 62
     5
 10
571.11099999999988
 20
-699.80700000000002
 30
0.0
 70
    32
  0
VERTEX
  5
92D
  8
┌▓È_1
 62
     5
 10
571.24800000000005
 20
-699.846
 30
0.0
 70
    32
  0
VERTEX
  5
92E
  8
┌▓È_1
 62
     5
 10
571.38499999999988
 20
-699.8839999999999
 30
0.0
 70
    32
  0
VERTEX
  5
92F
  8
┌▓È_1
 62
     5
 10
571.52199999999993
 20
-699.92200000000003
 30
0.0
 70
    32
  0
VERTEX
  5
930
  8
┌▓È_1
 62
     5
 10
571.65899999999999
 20
-699.96000000000004
 30
0.0
 70
    32
  0
VERTEX
  5
931
  8
┌▓È_1
 62
     5
 10
571.79599999999994
 20
-699.99800000000005
 30
0.0
 70
    32
  0
VERTEX
  5
932
  8
┌▓È_1
 62
     5
 10
571.93399999999986
 20
-700.03599999999994
 30
0.0
 70
    32
  0
VERTEX
  5
933
  8
┌▓È_1
 62
     5
 10
572.07100000000003
 20
-700.07299999999987
 30
0.0
 70
    32
  0
VERTEX
  5
934
  8
┌▓È_1
 62
     5
 10
572.20899999999995
 20
-700.11000000000001
 30
0.0
 70
    32
  0
VERTEX
  5
935
  8
┌▓È_1
 62
     5
 10
572.34699999999987
 20
-700.14800000000002
 30
0.0
 70
    32
  0
VERTEX
  5
936
  8
┌▓È_1
 62
     5
 10
572.4849999999999
 20
-700.18399999999986
 30
0.0
 70
    32
  0
VERTEX
  5
937
  8
┌▓È_1
 62
     5
 10
572.62199999999984
 20
-700.22099999999989
 30
0.0
 70
    32
  0
VERTEX
  5
938
  8
┌▓È_1
 62
     5
 10
572.75999999999988
 20
-700.25800000000004
 30
0.0
 70
    32
  0
VERTEX
  5
939
  8
┌▓È_1
 62
     5
 10
572.899
 20
-700.29499999999985
 30
0.0
 70
    32
  0
VERTEX
  5
93A
  8
┌▓È_1
 62
     5
 10
573.03699999999992
 20
-700.3309999999999
 30
0.0
 70
    32
  0
VERTEX
  5
93B
  8
┌▓È_1
 62
     5
 10
573.17499999999995
 20
-700.36699999999985
 30
0.0
 70
    32
  0
VERTEX
  5
93C
  8
┌▓È_1
 62
     5
 10
573.31299999999999
 20
-700.40300000000002
 30
0.0
 70
    32
  0
VERTEX
  5
93D
  8
┌▓È_1
 62
     5
 10
573.45199999999988
 20
-700.43899999999985
 30
0.0
 70
    32
  0
VERTEX
  5
93E
  8
┌▓È_1
 62
     5
 10
573.58999999999992
 20
-700.47500000000002
 30
0.0
 70
    32
  0
VERTEX
  5
93F
  8
┌▓È_1
 62
     5
 10
573.72900000000004
 20
-700.50999999999988
 30
0.0
 70
    32
  0
VERTEX
  5
940
  8
┌▓È_1
 62
     5
 10
573.86699999999985
 20
-700.54600000000005
 30
0.0
 70
    32
  0
VERTEX
  5
941
  8
┌▓È_1
 62
     5
 10
574.00599999999986
 20
-700.58100000000002
 30
0.0
 70
    32
  0
VERTEX
  5
942
  8
┌▓È_1
 62
     5
 10
574.14499999999987
 20
-700.6160000000001
 30
0.0
 70
    32
  0
VERTEX
  5
943
  8
┌▓È_1
 62
     5
 10
574.28300000000002
 20
-700.65199999999993
 30
0.0
 70
    32
  0
VERTEX
  5
944
  8
┌▓È_1
 62
     5
 10
574.42200000000003
 20
-700.68600000000004
 30
0.0
 70
    32
  0
VERTEX
  5
945
  8
┌▓È_1
 62
     5
 10
574.56100000000004
 20
-700.721
 30
0.0
 70
    32
  0
VERTEX
  5
946
  8
┌▓È_1
 62
     5
 10
574.70000000000005
 20
-700.75599999999997
 30
0.0
 70
    32
  0
VERTEX
  5
947
  8
┌▓È_1
 62
     5
 10
574.84000000000003
 20
-700.78999999999985
 30
0.0
 70
    32
  0
VERTEX
  5
948
  8
┌▓È_1
 62
     5
 10
574.97900000000004
 20
-700.82500000000005
 30
0.0
 70
    32
  0
VERTEX
  5
949
  8
┌▓È_1
 62
     5
 10
575.11800000000005
 20
-700.85899999999981
 30
0.0
 70
    32
  0
VERTEX
  5
94A
  8
┌▓È_1
 62
     5
 10
575.25699999999995
 20
-700.89300000000003
 30
0.0
 70
    32
  0
VERTEX
  5
94B
  8
┌▓È_1
 62
     5
 10
575.39699999999993
 20
-700.92700000000002
 30
0.0
 70
    32
  0
VERTEX
  5
94C
  8
┌▓È_1
 62
     5
 10
575.53599999999994
 20
-700.96100000000001
 30
0.0
 70
    32
  0
VERTEX
  5
94D
  8
┌▓È_1
 62
     5
 10
575.67599999999982
 20
-700.99499999999989
 30
0.0
 70
    32
  0
VERTEX
  5
94E
  8
┌▓È_1
 62
     5
 10
575.81500000000005
 20
-701.029
 30
0.0
 70
    32
  0
VERTEX
  5
94F
  8
┌▓È_1
 62
     5
 10
575.95500000000004
 20
-701.06200000000001
 30
0.0
 70
    32
  0
VERTEX
  5
950
  8
┌▓È_1
 62
     5
 10
576.09500000000003
 20
-701.09599999999989
 30
0.0
 70
    32
  0
VERTEX
  5
951
  8
┌▓È_1
 62
     5
 10
576.23500000000001
 20
-701.12899999999979
 30
0.0
 70
    32
  0
VERTEX
  5
952
  8
┌▓È_1
 62
     5
 10
576.37400000000002
 20
-701.16199999999992
 30
0.0
 70
    32
  0
VERTEX
  5
953
  8
┌▓È_1
 62
     5
 10
576.51400000000001
 20
-701.19500000000005
 30
0.0
 70
    32
  0
VERTEX
  5
954
  8
┌▓È_1
 62
     5
 10
576.65399999999988
 20
-701.22799999999995
 30
0.0
 70
    32
  0
VERTEX
  5
955
  8
┌▓È_1
 62
     5
 10
576.79399999999998
 20
-701.26100000000008
 30
0.0
 70
    32
  0
VERTEX
  5
956
  8
┌▓È_1
 62
     5
 10
576.93399999999986
 20
-701.29399999999998
 30
0.0
 70
    32
  0
VERTEX
  5
957
  8
┌▓È_1
 62
     5
 10
577.07500000000005
 20
-701.327
 30
0.0
 70
    32
  0
VERTEX
  5
958
  8
┌▓È_1
 62
     5
 10
577.21500000000003
 20
-701.35899999999992
 30
0.0
 70
    32
  0
VERTEX
  5
959
  8
┌▓È_1
 62
     5
 10
577.35500000000002
 20
-701.39199999999994
 30
0.0
 70
    32
  0
VERTEX
  5
95A
  8
┌▓È_1
 62
     5
 10
577.495
 20
-701.42399999999998
 30
0.0
 70
    32
  0
VERTEX
  5
95B
  8
┌▓È_1
 62
     5
 10
577.63599999999985
 20
-701.45600000000002
 30
0.0
 70
    32
  0
VERTEX
  5
95C
  8
┌▓È_1
 62
     5
 10
577.77599999999995
 20
-701.48800000000006
 30
0.0
 70
    32
  0
VERTEX
  5
95D
  8
┌▓È_1
 62
     5
 10
577.91699999999992
 20
-701.51999999999998
 30
0.0
 70
    32
  0
VERTEX
  5
95E
  8
┌▓È_1
 62
     5
 10
578.0569999999999
 20
-701.55200000000002
 30
0.0
 70
    32
  0
VERTEX
  5
95F
  8
┌▓È_1
 62
     5
 10
578.19799999999987
 20
-701.58399999999995
 30
0.0
 70
    32
  0
VERTEX
  5
960
  8
┌▓È_1
 62
     5
 10
578.33800000000008
 20
-701.6160000000001
 30
0.0
 70
    32
  0
VERTEX
  5
961
  8
┌▓È_1
 62
     5
 10
578.47900000000004
 20
-701.64800000000002
 30
0.0
 70
    32
  0
VERTEX
  5
962
  8
┌▓È_1
 62
     5
 10
578.62
 20
-701.67899999999997
 30
0.0
 70
    32
  0
VERTEX
  5
963
  8
┌▓È_1
 62
     5
 10
578.75999999999999
 20
-701.71100000000001
 30
0.0
 70
    32
  0
VERTEX
  5
964
  8
┌▓È_1
 62
     5
 10
578.90099999999995
 20
-701.74199999999985
 30
0.0
 70
    32
  0
VERTEX
  5
965
  8
┌▓È_1
 62
     5
 10
579.04199999999992
 20
-701.77399999999977
 30
0.0
 70
    32
  0
VERTEX
  5
966
  8
┌▓È_1
 62
     5
 10
579.18299999999999
 20
-701.80499999999995
 30
0.0
 70
    32
  0
VERTEX
  5
967
  8
┌▓È_1
 62
     5
 10
579.32399999999996
 20
-701.83600000000001
 30
0.0
 70
    32
  0
VERTEX
  5
968
  8
┌▓È_1
 62
     5
 10
579.46500000000003
 20
-701.86800000000005
 30
0.0
 70
    32
  0
VERTEX
  5
969
  8
┌▓È_1
 62
     5
 10
579.60599999999988
 20
-701.89899999999977
 30
0.0
 70
    32
  0
VERTEX
  5
96A
  8
┌▓È_1
 62
     5
 10
579.74699999999984
 20
-701.92999999999995
 30
0.0
 70
    32
  0
VERTEX
  5
96B
  8
┌▓È_1
 62
     5
 10
579.88800000000003
 20
-701.96100000000001
 30
0.0
 70
    32
  0
VERTEX
  5
96C
  8
┌▓È_1
 62
     5
 10
580.029
 20
-701.9910000000001
 30
0.0
 70
    32
  0
VERTEX
  5
96D
  8
┌▓È_1
 62
     5
 10
580.16999999999985
 20
-702.02199999999993
 30
0.0
 70
    32
  0
VERTEX
  5
96E
  8
┌▓È_1
 62
     5
 10
580.31100000000004
 20
-702.05299999999988
 30
0.0
 70
    32
  0
VERTEX
  5
96F
  8
┌▓È_1
 62
     5
 10
580.452
 20
-702.08399999999995
 30
0.0
 70
    32
  0
VERTEX
  5
970
  8
┌▓È_1
 62
     5
 10
580.59400000000005
 20
-702.11399999999992
 30
0.0
 70
    32
  0
VERTEX
  5
971
  8
┌▓È_1
 62
     5
 10
580.73500000000001
 20
-702.14499999999987
 30
0.0
 70
    32
  0
VERTEX
  5
972
  8
┌▓È_1
 62
     5
 10
580.87599999999986
 20
-702.17499999999995
 30
0.0
 70
    32
  0
VERTEX
  5
973
  8
┌▓È_1
 62
     5
 10
581.01800000000003
 20
-702.20600000000002
 30
0.0
 70
    32
  0
VERTEX
  5
974
  8
┌▓È_1
 62
     5
 10
581.15899999999988
 20
-702.23599999999999
 30
0.0
 70
    32
  0
VERTEX
  5
975
  8
┌▓È_1
 62
     5
 10
581.29999999999995
 20
-702.26600000000008
 30
0.0
 70
    32
  0
VERTEX
  5
976
  8
┌▓È_1
 62
     5
 10
581.44200000000001
 20
-702.29700000000003
 30
0.0
 70
    32
  0
VERTEX
  5
977
  8
┌▓È_1
 62
     5
 10
581.58299999999997
 20
-702.327
 30
0.0
 70
    32
  0
VERTEX
  5
978
  8
┌▓È_1
 62
     5
 10
581.72500000000002
 20
-702.35699999999986
 30
0.0
 70
    32
  0
VERTEX
  5
979
  8
┌▓È_1
 62
     5
 10
581.86599999999999
 20
-702.38699999999994
 30
0.0
 70
    32
  0
VERTEX
  5
97A
  8
┌▓È_1
 62
     5
 10
582.00800000000004
 20
-702.4169999999998
 30
0.0
 70
    32
  0
VERTEX
  5
97B
  8
┌▓È_1
 62
     5
 10
582.14899999999989
 20
-702.44699999999989
 30
0.0
 70
    32
  0
VERTEX
  5
97C
  8
┌▓È_1
 62
     5
 10
582.29099999999994
 20
-702.47699999999998
 30
0.0
 70
    32
  0
VERTEX
  5
97D
  8
┌▓È_1
 62
     5
 10
582.43299999999988
 20
-702.50699999999995
 30
0.0
 70
    32
  0
VERTEX
  5
97E
  8
┌▓È_1
 62
     5
 10
582.57399999999996
 20
-702.53699999999992
 30
0.0
 70
    32
  0
VERTEX
  5
97F
  8
┌▓È_1
 62
     5
 10
582.71600000000001
 20
-702.56699999999989
 30
0.0
 70
    32
  0
VERTEX
  5
980
  8
┌▓È_1
 62
     5
 10
582.85799999999995
 20
-702.59699999999998
 30
0.0
 70
    32
  0
VERTEX
  5
981
  8
┌▓È_1
 62
     5
 10
582.99900000000002
 20
-702.62699999999995
 30
0.0
 70
    32
  0
VERTEX
  5
982
  8
┌▓È_1
 62
     5
 10
583.14099999999985
 20
-702.65699999999993
 30
0.0
 70
    32
  0
VERTEX
  5
983
  8
┌▓È_1
 62
     5
 10
583.28300000000002
 20
-702.68600000000004
 30
0.0
 70
    32
  0
VERTEX
  5
984
  8
┌▓È_1
 62
     5
 10
583.42399999999998
 20
-702.71600000000001
 30
0.0
 70
    32
  0
VERTEX
  5
985
  8
┌▓È_1
 62
     5
 10
583.56600000000003
 20
-702.74600000000009
 30
0.0
 70
    32
  0
VERTEX
  5
986
  8
┌▓È_1
 62
     5
 10
583.70800000000008
 20
-702.77499999999998
 30
0.0
 70
    32
  0
VERTEX
  5
987
  8
┌▓È_1
 62
     5
 10
583.85000000000002
 20
-702.80499999999995
 30
0.0
 70
    32
  0
VERTEX
  5
988
  8
┌▓È_1
 62
     5
 10
583.99199999999985
 20
-702.83500000000004
 30
0.0
 70
    32
  0
VERTEX
  5
989
  8
┌▓È_1
 62
     5
 10
584.13300000000004
 20
-702.86399999999992
 30
0.0
 70
    32
  0
VERTEX
  5
98A
  8
┌▓È_1
 62
     5
 10
584.27499999999986
 20
-702.89399999999978
 30
0.0
 70
    32
  0
VERTEX
  5
98B
  8
┌▓È_1
 62
     5
 10
584.41699999999992
 20
-702.923
 30
0.0
 70
    32
  0
VERTEX
  5
98C
  8
┌▓È_1
 62
     5
 10
584.55899999999986
 20
-702.95299999999997
 30
0.0
 70
    32
  0
VERTEX
  5
98D
  8
┌▓È_1
 62
     5
 10
584.70100000000002
 20
-702.98199999999986
 30
0.0
 70
    32
  0
VERTEX
  5
98E
  8
┌▓È_1
 62
     5
 10
584.84199999999987
 20
-703.01199999999994
 30
0.0
 70
    32
  0
VERTEX
  5
98F
  8
┌▓È_1
 62
     5
 10
584.98400000000004
 20
-703.04100000000005
 30
0.0
 70
    32
  0
VERTEX
  5
990
  8
┌▓È_1
 62
     5
 10
585.12599999999986
 20
-703.07100000000003
 30
0.0
 70
    32
  0
VERTEX
  5
991
  8
┌▓È_1
 62
     5
 10
585.26800000000003
 20
-703.10000000000002
 30
0.0
 70
    32
  0
VERTEX
  5
992
  8
┌▓È_1
 62
     5
 10
585.40999999999985
 20
-703.12999999999988
 30
0.0
 70
    32
  0
VERTEX
  5
993
  8
┌▓È_1
 62
     5
 10
585.55200000000002
 20
-703.15899999999999
 30
0.0
 70
    32
  0
VERTEX
  5
994
  8
┌▓È_1
 62
     5
 10
585.69399999999985
 20
-703.18899999999985
 30
0.0
 70
    32
  0
SEQEND
  5
995
  8
┌▓È_1
 62
     5
  0
POLYLINE
  5
996
  8
┌▓È_1
 62
     5
 66
     1
 10
0.0
 20
0.0
 30
0.0
 70
     8
  0
VERTEX
  5
997
  8
┌▓È_1
 62
     5
 10
540.69399999999985
 20
-681.40999999999985
 30
0.0
 70
    32
  0
VERTEX
  5
998
  8
┌▓È_1
 62
     5
 10
540.78399999999999
 20
-681.49300000000005
 30
0.0
 70
    32
  0
VERTEX
  5
999
  8
┌▓È_1
 62
     5
 10
540.87400000000002
 20
-681.57600000000002
 30
0.0
 70
    32
  0
VERTEX
  5
99A
  8
┌▓È_1
 62
     5
 10
540.96400000000006
 20
-681.65899999999988
 30
0.0
 70
    32
  0
VERTEX
  5
99B
  8
┌▓È_1
 62
     5
 10
541.05399999999997
 20
-681.74199999999985
 30
0.0
 70
    32
  0
VERTEX
  5
99C
  8
┌▓È_1
 62
     5
 10
541.14399999999989
 20
-681.82500000000005
 30
0.0
 70
    32
  0
VERTEX
  5
99D
  8
┌▓È_1
 62
     5
 10
541.23400000000004
 20
-681.90800000000002
 30
0.0
 70
    32
  0
VERTEX
  5
99E
  8
┌▓È_1
 62
     5
 10
541.32399999999996
 20
-681.9910000000001
 30
0.0
 70
    32
  0
VERTEX
  5
99F
  8
┌▓È_1
 62
     5
 10
541.41399999999987
 20
-682.07399999999996
 30
0.0
 70
    32
  0
VERTEX
  5
9A0
  8
┌▓È_1
 62
     5
 10
541.50400000000002
 20
-682.15699999999993
 30
0.0
 70
    32
  0
VERTEX
  5
9A1
  8
┌▓È_1
 62
     5
 10
541.59400000000005
 20
-682.24000000000001
 30
0.0
 70
    32
  0
VERTEX
  5
9A2
  8
┌▓È_1
 62
     5
 10
541.68399999999986
 20
-682.32299999999987
 30
0.0
 70
    32
  0
VERTEX
  5
9A3
  8
┌▓È_1
 62
     5
 10
541.77499999999986
 20
-682.40600000000006
 30
0.0
 70
    32
  0
VERTEX
  5
9A4
  8
┌▓È_1
 62
     5
 10
541.86500000000001
 20
-682.48899999999992
 30
0.0
 70
    32
  0
VERTEX
  5
9A5
  8
┌▓È_1
 62
     5
 10
541.95500000000004
 20
-682.57100000000003
 30
0.0
 70
    32
  0
VERTEX
  5
9A6
  8
┌▓È_1
 62
     5
 10
542.04499999999985
 20
-682.654
 30
0.0
 70
    32
  0
VERTEX
  5
9A7
  8
┌▓È_1
 62
     5
 10
542.13499999999999
 20
-682.73699999999997
 30
0.0
 70
    32
  0
VERTEX
  5
9A8
  8
┌▓È_1
 62
     5
 10
542.22500000000002
 20
-682.82000000000005
 30
0.0
 70
    32
  0
VERTEX
  5
9A9
  8
┌▓È_1
 62
     5
 10
542.31600000000003
 20
-682.90300000000002
 30
0.0
 70
    32
  0
VERTEX
  5
9AA
  8
┌▓È_1
 62
     5
 10
542.40599999999995
 20
-682.98500000000001
 30
0.0
 70
    32
  0
VERTEX
  5
9AB
  8
┌▓È_1
 62
     5
 10
542.49599999999987
 20
-683.06799999999998
 30
0.0
 70
    32
  0
VERTEX
  5
9AC
  8
┌▓È_1
 62
     5
 10
542.58600000000001
 20
-683.15099999999995
 30
0.0
 70
    32
  0
VERTEX
  5
9AD
  8
┌▓È_1
 62
     5
 10
542.67599999999993
 20
-683.23299999999995
 30
0.0
 70
    32
  0
VERTEX
  5
9AE
  8
┌▓È_1
 62
     5
 10
542.76699999999994
 20
-683.31600000000003
 30
0.0
 70
    32
  0
VERTEX
  5
9AF
  8
┌▓È_1
 62
     5
 10
542.85699999999986
 20
-683.39800000000002
 30
0.0
 70
    32
  0
VERTEX
  5
9B0
  8
┌▓È_1
 62
     5
 10
542.947
 20
-683.48099999999999
 30
0.0
 70
    32
  0
VERTEX
  5
9B1
  8
┌▓È_1
 62
     5
 10
543.03800000000001
 20
-683.56299999999999
 30
0.0
 70
    32
  0
VERTEX
  5
9B2
  8
┌▓È_1
 62
     5
 10
543.12800000000004
 20
-683.64599999999996
 30
0.0
 70
    32
  0
VERTEX
  5
9B3
  8
┌▓È_1
 62
     5
 10
543.21900000000005
 20
-683.72799999999995
 30
0.0
 70
    32
  0
VERTEX
  5
9B4
  8
┌▓È_1
 62
     5
 10
543.30899999999986
 20
-683.80999999999995
 30
0.0
 70
    32
  0
VERTEX
  5
9B5
  8
┌▓È_1
 62
     5
 10
543.399
 20
-683.89300000000003
 30
0.0
 70
    32
  0
VERTEX
  5
9B6
  8
┌▓È_1
 62
     5
 10
543.4899999999999
 20
-683.97500000000002
 30
0.0
 70
    32
  0
VERTEX
  5
9B7
  8
┌▓È_1
 62
     5
 10
543.58000000000004
 20
-684.05700000000002
 30
0.0
 70
    32
  0
VERTEX
  5
9B8
  8
┌▓È_1
 62
     5
 10
543.67099999999994
 20
-684.13899999999978
 30
0.0
 70
    32
  0
VERTEX
  5
9B9
  8
┌▓È_1
 62
     5
 10
543.76199999999994
 20
-684.221
 30
0.0
 70
    32
  0
VERTEX
  5
9BA
  8
┌▓È_1
 62
     5
 10
543.85199999999986
 20
-684.30299999999988
 30
0.0
 70
    32
  0
VERTEX
  5
9BB
  8
┌▓È_1
 62
     5
 10
543.94299999999987
 20
-684.38499999999988
 30
0.0
 70
    32
  0
VERTEX
  5
9BC
  8
┌▓È_1
 62
     5
 10
544.03399999999988
 20
-684.46699999999987
 30
0.0
 70
    32
  0
VERTEX
  5
9BD
  8
┌▓È_1
 62
     5
 10
544.12400000000002
 20
-684.54899999999986
 30
0.0
 70
    32
  0
VERTEX
  5
9BE
  8
┌▓È_1
 62
     5
 10
544.21500000000003
 20
-684.63099999999997
 30
0.0
 70
    32
  0
VERTEX
  5
9BF
  8
┌▓È_1
 62
     5
 10
544.30600000000004
 20
-684.71199999999999
 30
0.0
 70
    32
  0
VERTEX
  5
9C0
  8
┌▓È_1
 62
     5
 10
544.39699999999993
 20
-684.79399999999998
 30
0.0
 70
    32
  0
VERTEX
  5
9C1
  8
┌▓È_1
 62
     5
 10
544.48800000000006
 20
-684.87499999999989
 30
0.0
 70
    32
  0
VERTEX
  5
9C2
  8
┌▓È_1
 62
     5
 10
544.57799999999997
 20
-684.95699999999988
 30
0.0
 70
    32
  0
VERTEX
  5
9C3
  8
┌▓È_1
 62
     5
 10
544.66899999999998
 20
-685.03800000000001
 30
0.0
 70
    32
  0
VERTEX
  5
9C4
  8
┌▓È_1
 62
     5
 10
544.75999999999999
 20
-685.11899999999991
 30
0.0
 70
    32
  0
VERTEX
  5
9C5
  8
┌▓È_1
 62
     5
 10
544.85099999999989
 20
-685.20099999999991
 30
0.0
 70
    32
  0
VERTEX
  5
9C6
  8
┌▓È_1
 62
     5
 10
544.94199999999989
 20
-685.28199999999993
 30
0.0
 70
    32
  0
VERTEX
  5
9C7
  8
┌▓È_1
 62
     5
 10
545.03399999999988
 20
-685.36300000000006
 30
0.0
 70
    32
  0
VERTEX
  5
9C8
  8
┌▓È_1
 62
     5
 10
545.12499999999989
 20
-685.44399999999985
 30
0.0
 70
    32
  0
VERTEX
  5
9C9
  8
┌▓È_1
 62
     5
 10
545.21600000000001
 20
-685.52499999999986
 30
0.0
 70
    32
  0
VERTEX
  5
9CA
  8
┌▓È_1
 62
     5
 10
545.30700000000002
 20
-685.60600000000011
 30
0.0
 70
    32
  0
VERTEX
  5
9CB
  8
┌▓È_1
 62
     5
 10
545.39800000000002
 20
-685.68600000000004
 30
0.0
 70
    32
  0
VERTEX
  5
9CC
  8
┌▓È_1
 62
     5
 10
545.49000000000001
 20
-685.76699999999994
 30
0.0
 70
    32
  0
VERTEX
  5
9CD
  8
┌▓È_1
 62
     5
 10
545.58100000000002
 20
-685.84699999999987
 30
0.0
 70
    32
  0
VERTEX
  5
9CE
  8
┌▓È_1
 62
     5
 10
545.673
 20
-685.928
 30
0.0
 70
    32
  0
VERTEX
  5
9CF
  8
┌▓È_1
 62
     5
 10
545.76400000000001
 20
-686.00800000000004
 30
0.0
 70
    32
  0
VERTEX
  5
9D0
  8
┌▓È_1
 62
     5
 10
545.85599999999999
 20
-686.08799999999997
 30
0.0
 70
    32
  0
VERTEX
  5
9D1
  8
┌▓È_1
 62
     5
 10
545.947
 20
-686.16899999999998
 30
0.0
 70
    32
  0
VERTEX
  5
9D2
  8
┌▓È_1
 62
     5
 10
546.03899999999999
 20
-686.24899999999991
 30
0.0
 70
    32
  0
VERTEX
  5
9D3
  8
┌▓È_1
 62
     5
 10
546.13099999999997
 20
-686.32899999999995
 30
0.0
 70
    32
  0
VERTEX
  5
9D4
  8
┌▓È_1
 62
     5
 10
546.22199999999998
 20
-686.40899999999999
 30
0.0
 70
    32
  0
VERTEX
  5
9D5
  8
┌▓È_1
 62
     5
 10
546.31399999999996
 20
-686.48800000000006
 30
0.0
 70
    32
  0
VERTEX
  5
9D6
  8
┌▓È_1
 62
     5
 10
546.40599999999995
 20
-686.56799999999998
 30
0.0
 70
    32
  0
VERTEX
  5
9D7
  8
┌▓È_1
 62
     5
 10
546.49800000000005
 20
-686.64699999999993
 30
0.0
 70
    32
  0
VERTEX
  5
9D8
  8
┌▓È_1
 62
     5
 10
546.59000000000003
 20
-686.72699999999986
 30
0.0
 70
    32
  0
VERTEX
  5
9D9
  8
┌▓È_1
 62
     5
 10
546.68200000000002
 20
-686.80600000000004
 30
0.0
 70
    32
  0
VERTEX
  5
9DA
  8
┌▓È_1
 62
     5
 10
546.774
 20
-686.88499999999999
 30
0.0
 70
    32
  0
VERTEX
  5
9DB
  8
┌▓È_1
 62
     5
 10
546.86599999999987
 20
-686.96399999999994
 30
0.0
 70
    32
  0
VERTEX
  5
9DC
  8
┌▓È_1
 62
     5
 10
546.95900000000006
 20
-687.04299999999989
 30
0.0
 70
    32
  0
VERTEX
  5
9DD
  8
┌▓È_1
 62
     5
 10
547.05099999999993
 20
-687.12199999999996
 30
0.0
 70
    32
  0
VERTEX
  5
9DE
  8
┌▓È_1
 62
     5
 10
547.14300000000003
 20
-687.20100000000002
 30
0.0
 70
    32
  0
VERTEX
  5
9DF
  8
┌▓È_1
 62
     5
 10
547.23599999999999
 20
-687.27999999999986
 30
0.0
 70
    32
  0
VERTEX
  5
9E0
  8
┌▓È_1
 62
     5
 10
547.32799999999986
 20
-687.35799999999995
 30
0.0
 70
    32
  0
VERTEX
  5
9E1
  8
┌▓È_1
 62
     5
 10
547.42099999999994
 20
-687.43600000000004
 30
0.0
 70
    32
  0
VERTEX
  5
9E2
  8
┌▓È_1
 62
     5
 10
547.51400000000001
 20
-687.51499999999987
 30
0.0
 70
    32
  0
VERTEX
  5
9E3
  8
┌▓È_1
 62
     5
 10
547.60599999999999
 20
-687.59300000000007
 30
0.0
 70
    32
  0
VERTEX
  5
9E4
  8
┌▓È_1
 62
     5
 10
547.69899999999996
 20
-687.67100000000005
 30
0.0
 70
    32
  0
VERTEX
  5
9E5
  8
┌▓È_1
 62
     5
 10
547.79199999999992
 20
-687.74800000000005
 30
0.0
 70
    32
  0
VERTEX
  5
9E6
  8
┌▓È_1
 62
     5
 10
547.88499999999999
 20
-687.82600000000002
 30
0.0
 70
    32
  0
VERTEX
  5
9E7
  8
┌▓È_1
 62
     5
 10
547.97799999999995
 20
-687.90399999999988
 30
0.0
 70
    32
  0
VERTEX
  5
9E8
  8
┌▓È_1
 62
     5
 10
548.07100000000003
 20
-687.98099999999999
 30
0.0
 70
    32
  0
VERTEX
  5
9E9
  8
┌▓È_1
 62
     5
 10
548.16399999999987
 20
-688.05799999999999
 30
0.0
 70
    32
  0
VERTEX
  5
9EA
  8
┌▓È_1
 62
     5
 10
548.25699999999995
 20
-688.13599999999997
 30
0.0
 70
    32
  0
VERTEX
  5
9EB
  8
┌▓È_1
 62
     5
 10
548.35099999999989
 20
-688.21199999999999
 30
0.0
 70
    32
  0
VERTEX
  5
9EC
  8
┌▓È_1
 62
     5
 10
548.44399999999985
 20
-688.28899999999987
 30
0.0
 70
    32
  0
VERTEX
  5
9ED
  8
┌▓È_1
 62
     5
 10
548.53800000000001
 20
-688.36599999999999
 30
0.0
 70
    32
  0
VERTEX
  5
9EE
  8
┌▓È_1
 62
     5
 10
548.63099999999986
 20
-688.44299999999998
 30
0.0
 70
    32
  0
VERTEX
  5
9EF
  8
┌▓È_1
 62
     5
 10
548.72500000000002
 20
-688.51899999999978
 30
0.0
 70
    32
  0
VERTEX
  5
9F0
  8
┌▓È_1
 62
     5
 10
548.81799999999987
 20
-688.59500000000003
 30
0.0
 70
    32
  0
VERTEX
  5
9F1
  8
┌▓È_1
 62
     5
 10
548.91199999999981
 20
-688.67100000000005
 30
0.0
 70
    32
  0
VERTEX
  5
9F2
  8
┌▓È_1
 62
     5
 10
549.00599999999986
 20
-688.74699999999984
 30
0.0
 70
    32
  0
VERTEX
  5
9F3
  8
┌▓È_1
 62
     5
 10
549.10000000000002
 20
-688.82299999999998
 30
0.0
 70
    32
  0
VERTEX
  5
9F4
  8
┌▓È_1
 62
     5
 10
549.19399999999985
 20
-688.89899999999977
 30
0.0
 70
    32
  0
VERTEX
  5
9F5
  8
┌▓È_1
 62
     5
 10
549.28800000000001
 20
-688.97399999999993
 30
0.0
 70
    32
  0
VERTEX
  5
9F6
  8
┌▓È_1
 62
     5
 10
549.38300000000004
 20
-689.04899999999986
 30
0.0
 70
    32
  0
VERTEX
  5
9F7
  8
┌▓È_1
 62
     5
 10
549.47699999999986
 20
-689.125
 30
0.0
 70
    32
  0
VERTEX
  5
9F8
  8
┌▓È_1
 62
     5
 10
549.57100000000003
 20
-689.20000000000005
 30
0.0
 70
    32
  0
VERTEX
  5
9F9
  8
┌▓È_1
 62
     5
 10
549.66599999999994
 20
-689.27399999999977
 30
0.0
 70
    32
  0
VERTEX
  5
9FA
  8
┌▓È_1
 62
     5
 10
549.75999999999999
 20
-689.34899999999993
 30
0.0
 70
    32
  0
VERTEX
  5
9FB
  8
┌▓È_1
 62
     5
 10
549.85500000000002
 20
-689.423
 30
0.0
 70
    32
  0
VERTEX
  5
9FC
  8
┌▓È_1
 62
     5
 10
549.95000000000005
 20
-689.49800000000005
 30
0.0
 70
    32
  0
VERTEX
  5
9FD
  8
┌▓È_1
 62
     5
 10
550.04499999999985
 20
-689.57199999999989
 30
0.0
 70
    32
  0
VERTEX
  5
9FE
  8
┌▓È_1
 62
     5
 10
550.13999999999999
 20
-689.64600000000007
 30
0.0
 70
    32
  0
VERTEX
  5
9FF
  8
┌▓È_1
 62
     5
 10
550.2349999999999
 20
-689.72000000000003
 30
0.0
 70
    32
  0
VERTEX
  5
A00
  8
┌▓È_1
 62
     5
 10
550.33000000000004
 20
-689.79300000000001
 30
0.0
 70
    32
  0
VERTEX
  5
A01
  8
┌▓È_1
 62
     5
 10
550.42499999999995
 20
-689.8660000000001
 30
0.0
 70
    32
  0
VERTEX
  5
A02
  8
┌▓È_1
 62
     5
 10
550.51999999999998
 20
-689.94000000000005
 30
0.0
 70
    32
  0
VERTEX
  5
A03
  8
┌▓È_1
 62
     5
 10
550.61599999999999
 20
-690.01300000000003
 30
0.0
 70
    32
  0
VERTEX
  5
A04
  8
┌▓È_1
 62
     5
 10
550.7109999999999
 20
-690.08600000000001
 30
0.0
 70
    32
  0
VERTEX
  5
A05
  8
┌▓È_1
 62
     5
 10
550.80700000000002
 20
-690.15800000000002
 30
0.0
 70
    32
  0
VERTEX
  5
A06
  8
┌▓È_1
 62
     5
 10
550.90300000000002
 20
-690.23099999999999
 30
0.0
 70
    32
  0
VERTEX
  5
A07
  8
┌▓È_1
 62
     5
 10
550.99900000000002
 20
-690.303
 30
0.0
 70
    32
  0
VERTEX
  5
A08
  8
┌▓È_1
 62
     5
 10
551.09500000000003
 20
-690.375
 30
0.0
 70
    32
  0
VERTEX
  5
A09
  8
┌▓È_1
 62
     5
 10
551.19100000000003
 20
-690.44699999999989
 30
0.0
 70
    32
  0
VERTEX
  5
A0A
  8
┌▓È_1
 62
     5
 10
551.28699999999992
 20
-690.51899999999989
 30
0.0
 70
    32
  0
VERTEX
  5
A0B
  8
┌▓È_1
 62
     5
 10
551.38300000000004
 20
-690.59000000000003
 30
0.0
 70
    32
  0
VERTEX
  5
A0C
  8
┌▓È_1
 62
     5
 10
551.48000000000002
 20
-690.66099999999994
 30
0.0
 70
    32
  0
VERTEX
  5
A0D
  8
┌▓È_1
 62
     5
 10
551.57600000000002
 20
-690.73199999999986
 30
0.0
 70
    32
  0
VERTEX
  5
A0E
  8
┌▓È_1
 62
     5
 10
551.67299999999989
 20
-690.803
 30
0.0
 70
    32
  0
VERTEX
  5
A0F
  8
┌▓È_1
 62
     5
 10
551.76999999999987
 20
-690.8739999999998
 30
0.0
 70
    32
  0
VERTEX
  5
A10
  8
┌▓È_1
 62
     5
 10
551.86599999999987
 20
-690.94399999999996
 30
0.0
 70
    32
  0
VERTEX
  5
A11
  8
┌▓È_1
 62
     5
 10
551.96300000000008
 20
-691.01499999999987
 30
0.0
 70
    32
  0
VERTEX
  5
A12
  8
┌▓È_1
 62
     5
 10
552.05999999999995
 20
-691.08500000000004
 30
0.0
 70
    32
  0
VERTEX
  5
A13
  8
┌▓È_1
 62
     5
 10
552.15800000000002
 20
-691.15499999999997
 30
0.0
 70
    32
  0
VERTEX
  5
A14
  8
┌▓È_1
 62
     5
 10
552.25499999999988
 20
-691.22399999999993
 30
0.0
 70
    32
  0
VERTEX
  5
A15
  8
┌▓È_1
 62
     5
 10
552.35199999999986
 20
-691.29399999999987
 30
0.0
 70
    32
  0
VERTEX
  5
A16
  8
┌▓È_1
 62
     5
 10
552.45000000000005
 20
-691.36300000000006
 30
0.0
 70
    32
  0
VERTEX
  5
A17
  8
┌▓È_1
 62
     5
 10
552.54700000000003
 20
-691.43200000000002
 30
0.0
 70
    32
  0
VERTEX
  5
A18
  8
┌▓È_1
 62
     5
 10
552.64499999999987
 20
-691.50100000000009
 30
0.0
 70
    32
  0
VERTEX
  5
A19
  8
┌▓È_1
 62
     5
 10
552.74300000000005
 20
-691.56899999999985
 30
0.0
 70
    32
  0
VERTEX
  5
A1A
  8
┌▓È_1
 62
     5
 10
552.84100000000001
 20
-691.63699999999994
 30
0.0
 70
    32
  0
VERTEX
  5
A1B
  8
┌▓È_1
 62
     5
 10
552.93899999999985
 20
-691.70500000000004
 30
0.0
 70
    32
  0
VERTEX
  5
A1C
  8
┌▓È_1
 62
     5
 10
553.03800000000001
 20
-691.77300000000002
 30
0.0
 70
    32
  0
VERTEX
  5
A1D
  8
┌▓È_1
 62
     5
 10
553.13599999999985
 20
-691.84100000000001
 30
0.0
 70
    32
  0
VERTEX
  5
A1E
  8
┌▓È_1
 62
     5
 10
553.23400000000004
 20
-691.90800000000002
 30
0.0
 70
    32
  0
VERTEX
  5
A1F
  8
┌▓È_1
 62
     5
 10
553.33300000000008
 20
-691.97500000000002
 30
0.0
 70
    32
  0
VERTEX
  5
A20
  8
┌▓È_1
 62
     5
 10
553.43200000000002
 20
-692.04199999999992
 30
0.0
 70
    32
  0
VERTEX
  5
A21
  8
┌▓È_1
 62
     5
 10
553.53099999999995
 20
-692.10899999999992
 30
0.0
 70
    32
  0
VERTEX
  5
A22
  8
┌▓È_1
 62
     5
 10
553.62999999999988
 20
-692.17600000000004
 30
0.0
 70
    32
  0
VERTEX
  5
A23
  8
┌▓È_1
 62
     5
 10
553.72900000000004
 20
-692.24199999999985
 30
0.0
 70
    32
  0
VERTEX
  5
A24
  8
┌▓È_1
 62
     5
 10
553.82799999999986
 20
-692.30799999999988
 30
0.0
 70
    32
  0
VERTEX
  5
A25
  8
┌▓È_1
 62
     5
 10
553.92799999999988
 20
-692.37300000000005
 30
0.0
 70
    32
  0
VERTEX
  5
A26
  8
┌▓È_1
 62
     5
 10
554.02699999999993
 20
-692.43899999999985
 30
0.0
 70
    32
  0
VERTEX
  5
A27
  8
┌▓È_1
 62
     5
 10
554.12699999999995
 20
-692.50399999999991
 30
0.0
 70
    32
  0
VERTEX
  5
A28
  8
┌▓È_1
 62
     5
 10
554.22699999999998
 20
-692.56899999999985
 30
0.0
 70
    32
  0
VERTEX
  5
A29
  8
┌▓È_1
 62
     5
 10
554.32699999999988
 20
-692.63399999999979
 30
0.0
 70
    32
  0
VERTEX
  5
A2A
  8
┌▓È_1
 62
     5
 10
554.42700000000002
 20
-692.69799999999998
 30
0.0
 70
    32
  0
VERTEX
  5
A2B
  8
┌▓È_1
 62
     5
 10
554.52699999999993
 20
-692.76199999999994
 30
0.0
 70
    32
  0
VERTEX
  5
A2C
  8
┌▓È_1
 62
     5
 10
554.62699999999995
 20
-692.82600000000002
 30
0.0
 70
    32
  0
VERTEX
  5
A2D
  8
┌▓È_1
 62
     5
 10
554.72799999999995
 20
-692.88999999999987
 30
0.0
 70
    32
  0
VERTEX
  5
A2E
  8
┌▓È_1
 62
     5
 10
554.82799999999997
 20
-692.95399999999995
 30
0.0
 70
    32
  0
VERTEX
  5
A2F
  8
┌▓È_1
 62
     5
 10
554.92899999999997
 20
-693.01699999999994
 30
0.0
 70
    32
  0
VERTEX
  5
A30
  8
┌▓È_1
 62
     5
 10
555.02999999999997
 20
-693.08000000000004
 30
0.0
 70
    32
  0
VERTEX
  5
A31
  8
┌▓È_1
 62
     5
 10
555.13099999999986
 20
-693.14199999999994
 30
0.0
 70
    32
  0
VERTEX
  5
A32
  8
┌▓È_1
 62
     5
 10
555.23199999999986
 20
-693.20500000000004
 30
0.0
 70
    32
  0
VERTEX
  5
A33
  8
┌▓È_1
 62
     5
 10
555.33399999999995
 20
-693.26699999999994
 30
0.0
 70
    32
  0
VERTEX
  5
A34
  8
┌▓È_1
 62
     5
 10
555.43499999999995
 20
-693.32899999999995
 30
0.0
 70
    32
  0
VERTEX
  5
A35
  8
┌▓È_1
 62
     5
 10
555.53699999999992
 20
-693.38999999999999
 30
0.0
 70
    32
  0
VERTEX
  5
A36
  8
┌▓È_1
 62
     5
 10
555.63900000000001
 20
-693.452
 30
0.0
 70
    32
  0
SEQEND
  5
A37
  8
┌▓È_1
 62
     5
  0
INSERT
  5
2A8
  8
0
  6
CONTINUOUS
  2
*U86
 10
0.0
 20
0.0
 30
0.0
  0
INSERT
  5
2A9
  8
0
  6
CONTINUOUS
  2
*U87
 10
0.0
 20
0.0
 30
0.0
  0
LINE
  5
2AA
  8
┌▓È_1
 10
489.08730468749991
 20
-549.61484374999986
 30
0.0
 11
489.08730468749991
 21
-604.61484374999998
 31
0.0
  0
LINE
  5
2AB
  8
┌▓È_1
 10
289.08730468750002
 20
-659.61484374999998
 30
0.0
 11
1039.0873046874999
 21
-659.61484374999998
 31
0.0
  0
LINE
  5
2AC
  8
┌▓È_1
 62
     5
 10
596.78098067339999
 20
-676.68897891559993
 30
0.0
 11
596.78098067339999
 21
-685.68897891559993
 31
0.0
  0
LINE
  5
2AD
  8
┌▓È_1
 62
     5
 10
507.39053712890001
 20
-678.18897891559993
 30
0.0
 11
497.39053712889978
 21
-678.18897891559993
 31
0.0
  0
LINE
  5
2AE
  8
┌▓È_1
 62
     5
 10
527.39053712889995
 20
-678.18897891559993
 30
0.0
 11
519.89053712889995
 21
-678.18897891559993
 31
0.0
  0
LINE
  5
2AF
  8
┌▓È_1
 62
     5
 10
519.89053712889995
 20
-678.18897891559993
 30
0.0
 11
519.89053712889995
 21
-675.68897891559993
 31
0.0
  0
LINE
  5
2B0
  8
┌▓È_1
 62
     5
 10
504.89053712889989
 20
-668.18897891559993
 30
0.0
 11
484.89053712889978
 21
-668.18897891559993
 31
0.0
  0
LINE
  5
2B1
  8
┌▓È_1
 62
     5
 10
497.39053712889978
 20
-675.68897891559993
 30
0.0
 11
504.89053712889989
 21
-668.18897891559993
 31
0.0
  0
LINE
  5
2B2
  8
┌▓È_1
 62
     5
 10
484.89053712889978
 20
-668.18897891559993
 30
0.0
 11
484.89053712889978
 21
-678.18897891559993
 31
0.0
  0
LINE
  5
2B3
  8
┌▓È_1
 62
     5
 10
629.76662730999988
 20
-698.68897891559982
 30
0.0
 11
641.78098067339977
 21
-698.68897891559982
 31
0.0
  0
LINE
  5
2B4
  8
┌▓È_1
 10
589.0873046874998
 20
-577.11484374999986
 30
0.0
 11
689.08730468750002
 21
-577.11484374999986
 31
0.0
  0
LINE
  5
2B5
  8
┌▓È_1
 10
689.08730468750002
 20
-604.61484374999998
 30
0.0
 11
1039.0873046874999
 21
-604.61484374999998
 31
0.0
  0
INSERT
  5
2B6
  8
0
  6
CONTINUOUS
  2
*U88
 10
0.0
 20
0.0
 30
0.0
  0
INSERT
  5
2B7
  8
0
  6
CONTINUOUS
  2
*U89
 10
0.0
 20
0.0
 30
0.0
  0
INSERT
  5
2B8
  8
0
  6
CONTINUOUS
  2
*U90
 10
0.0
 20
0.0
 30
0.0
  0
INSERT
  5
2B9
  8
0
  6
CONTINUOUS
  2
*U91
 10
0.0
 20
0.0
 30
0.0
  0
INSERT
  5
2BA
  8
0
  6
CONTINUOUS
  2
*U92
 10
0.0
 20
0.0
 30
0.0
  0
INSERT
  5
2BB
  8
0
  6
CONTINUOUS
  2
*U93
 10
0.0
 20
0.0
 30
0.0
  0
INSERT
  5
2BC
  8
0
  6
CONTINUOUS
  2
*U94
 10
0.0
 20
0.0
 30
0.0
  0
ARC
  5
2BD
  8
┌▓È_1
 62
     5
 10
-167.5015624815
 20
-550.61953125000002
 30
0.0
 40
0.75
 50
90.000025117999996
 51
269.99998005330002
  0
LINE
  5
2BE
  8
┌▓È_1
 62
     5
 10
-29.0015622218
 20
-549.86953126230003
 30
0.0
 11
-98.251562516000007
 21
-549.86953125000002
 31
0.0
  0
LINE
  5
2BF
  8
┌▓È_1
 62
     5
 10
-32.25156257710001
 20
-549.56953126170004
 30
0.0
 11
-98.251562516000007
 21
-549.56953124999995
 31
0.0
  0
LINE
  5
2C0
  8
┌▓È_1
 62
     5
 10
-164.251562455
 20
-549.56953124999995
 30
0.0
 11
-98.251562516000007
 21
-549.56953124999995
 31
0.0
  0
LINE
  5
2C1
  8
┌▓È_1
  6
BORDER
 62
     3
 10
-98.251562516000007
 20
-585.69296874999998
 30
0.0
 11
-98.251562516000007
 21
-511.90729166670002
 31
0.0
  0
INSERT
  5
2C3
  8
┌▓È_1
 62
     5
  2
CLUMP19
 10
0.0
 20
0.0
 30
0.0
  0
LINE
  5
2D0
  8
┌▓È_1
 62
     5
 10
-174.25156251600001
 20
-546.56953124999995
 30
0.0
 11
-174.25156251600001
 21
-542.56953124999995
 31
0.0
  0
LINE
  5
2D1
  8
┌▓È_1
 62
     5
 10
-171.25156251600001
 20
-549.56953124999995
 30
0.0
 11
-25.251562516
 21
-549.56953124999995
 31
0.0
  0
ARC
  5
2D2
  8
┌▓È_1
 62
     5
 10
-171.25156251600001
 20
-546.56953124999995
 30
0.0
 40
3.0
 50
180.0
 51
270.0
  0
INSERT
  5
2D4
  8
┌▓È_1
  2
CLUMP20
 10
0.0
 20
0.0
 30
0.0
  0
INSERT
  5
2FF
  8
┌▓È_1
 62
     5
  2
CLUMP21
 10
0.0
 20
0.0
 30
0.0
  0
LINE
  5
30C
  8
┌▓È_1
 62
     5
 10
-36.336794570400002
 20
-477.56953124999978
 30
0.0
 11
-715.08679474300004
 21
-477.56953124999978
 31
0.0
  0
LINE
  5
30D
  8
┌▓È_1
 62
     5
 10
-715.08679474300004
 20
-542.56953124999995
 30
0.0
 11
-35.086794759
 21
-542.56953124999995
 31
0.0
  0
LINE
  5
30E
  8
┌▓È_1
 62
     5
 10
321.35559895829999
 20
548.98281253569985
 30
0.0
 11
321.35559895829999
 21
28.982812535699999
 31
0.0
  0
LINE
  5
30F
  8
┌▓È_1
 62
     5
 10
386.35559895829999
 20
28.982812535699999
 30
0.0
 11
386.35559895829999
 21
548.98281253569985
 31
0.0
  0
LINE
  5
310
  8
┌▓È_1
 62
     5
 10
755.35808335520005
 20
28.982812535699999
 30
0.0
 11
755.35808335520005
 21
548.98281253569985
 31
0.0
  0
LINE
  5
311
  8
┌▓È_1
 62
     5
 10
690.35808335520005
 20
548.98281253569985
 30
0.0
 11
690.35808335520005
 21
28.982812535699999
 31
0.0
  0
INSERT
  5
313
  8
┌▓È_1
 62
     5
  2
CLUMP22
 10
0.0
 20
0.0
 30
0.0
  0
INSERT
  5
321
  8
┌▓È_1
 62
     5
  2
CLUMP23
 10
0.0
 20
0.0
 30
0.0
  0
INSERT
  5
32F
  8
┌▓È_1
 62
     5
  2
CLUMP24
 10
0.0
 20
0.0
 30
0.0
  0
INSERT
  5
33D
  8
┌▓È_1
 62
     5
  2
CLUMP25
 10
0.0
 20
0.0
 30
0.0
  0
DIMENSION
  5
358
  8
Éíû@É³
  2
*D51
 10
-419.11210937499987
 20
-31.017187499999999
 30
0.0
 11
-419.11210937499987
 21
-52.577734374999999
 31
0.0
 70
   128
  1
<>
 13
-469.11210937499987
 23
-31.017187499999999
 33
0.0
 14
-469.11210937499987
 24
-6.0171875000000004
 34
0.0
 50
90.0
  0
DIMENSION
  5
367
  8
Éíû@É³
  2
*D52
 10
-419.11210937499987
 20
583.98281250000002
 30
0.0
 11
-419.11210937499987
 21
635.60351562499989
 31
0.0
 70
   128
  1
<>
 13
-469.11210937499987
 23
583.98281250000002
 33
0.0
 14
-469.11210937499987
 24
608.98281250000002
 34
0.0
 50
90.0
  0
DIMENSION
  5
376
  8
Éíû@É³
  2
*D53
 10
-0.2515625
 20
364.64335937499999
 30
0.0
 11
45.33710937499999
 21
364.64335937499999
 31
0.0
 70
   128
  1
<>
 13
-0.2515625
 23
414.64335937499999
 33
0.0
 14
24.748437500000001
 24
414.64335937499999
 34
0.0
 50
180.0
  0
DIMENSION
  5
385
  8
Éíû@É³
  2
*D54
 10
-775.25156249999998
 20
364.64335937499999
 30
0.0
 11
-799.708984375
 21
364.64335937499999
 31
0.0
 70
   128
  1
<>
 13
-775.25156249999998
 23
414.64335937499999
 33
0.0
 14
-750.25156249999998
 24
414.64335937499999
 34
0.0
 50
180.0
  0
DIMENSION
  5
394
  8
Éíû@É³
  2
*D55
 10
96.782029724100013
 20
-31.017187499999999
 30
0.0
 11
96.782029724100013
 21
30.482812500000001
 31
0.0
 70
   128
  1
<>
 13
14.7484375
 23
-31.017187499999999
 33
0.0
 14
-9.2515625000000004
 24
91.982812499999994
 34
0.0
 50
90.0
  0
LINE
  5
395
  8
┌▓È_1
  6
BORDER
 62
     3
 10
754.03115496989994
 20
91.982812514599985
 30
0.0
 11
724.69584377189983
 21
91.982812514599985
 31
0.0
  0
INSERT
  5
397
  8
Éíû@É³
  2
BALLON2
 10
0.0
 20
0.0
 30
0.0
  0
INSERT
  5
3A1
  8
┌▓È_1
  2
CLUMP26
 10
0.0
 20
0.0
 30
0.0
  0
INSERT
  5
3C1
  8
┌▓È_1
  2
CLUMP27
 10
0.0
 20
0.0
 30
0.0
  0
LINE
  5
3E0
  8
┌▓È_1
 62
     5
 10
-713.25156249999986
 20
-31.017187499999999
 30
0.0
 11
-37.251562499999999
 21
-31.017187499999999
 31
0.0
  0
LINE
  5
3E1
  8
┌▓È_1
 10
-713.25156249999986
 20
2.9828125000000001
 30
0.0
 11
-37.251562499999999
 21
2.9828125000000001
 31
0.0
  0
LINE
  5
3E2
  8
┌▓È_1
 62
     5
 10
-713.25156249999986
 20
-6.0171875000000004
 30
0.0
 11
-37.251562499999999
 21
-6.0171875000000004
 31
0.0
  0
LINE
  5
3E3
  8
┌▓È_1
 10
-37.251562499999999
 20
574.98281250000002
 30
0.0
 11
-713.25156249999986
 21
574.98281250000002
 31
0.0
  0
LINE
  5
3E4
  8
┌▓È_1
 62
     5
 10
-37.251562499999999
 20
583.98281250000002
 30
0.0
 11
-713.25156249999986
 21
583.98281250000002
 31
0.0
  0
LINE
  5
3E5
  8
┌▓È_1
 62
     5
 10
-37.251562499999999
 20
608.98281250000002
 30
0.0
 11
-713.25156249999986
 21
608.98281250000002
 31
0.0
  0
LINE
  5
3E6
  8
┌▓È_1
 62
     5
 10
-775.25156249999998
 20
546.98281250000002
 30
0.0
 11
-775.25156249999998
 21
30.982812500000001
 31
0.0
  0
LINE
  5
3E7
  8
┌▓È_1
 62
     5
 10
-750.25156249999998
 20
546.98281250000002
 30
0.0
 11
-750.25156249999998
 21
30.982812500000001
 31
0.0
  0
LINE
  5
3E8
  8
┌▓È_1
 10
-741.25156249999998
 20
546.98281250000002
 30
0.0
 11
-741.25156249999998
 21
30.982812500000001
 31
0.0
  0
LINE
  5
3E9
  8
┌▓È_1
 62
     5
 10
24.748437500000001
 20
30.982812500000001
 30
0.0
 11
24.748437500000001
 21
546.98281250000002
 31
0.0
  0
LINE
  5
3EA
  8
┌▓È_1
 62
     5
 10
-0.2515625
 20
30.982812500000001
 30
0.0
 11
-0.2515625
 21
546.98281250000002
 31
0.0
  0
LINE
  5
3EB
  8
┌▓È_1
 10
-9.2515625000000004
 20
30.982812500000001
 30
0.0
 11
-9.2515625000000004
 21
546.98281250000002
 31
0.0
  0
INSERT
  5
3ED
  8
┌▓È_1
  2
CLUMP28
 10
0.0
 20
0.0
 30
0.0
  0
INSERT
  5
40D
  8
┌▓È_1
  2
CLUMP29
 10
0.0
 20
0.0
 30
0.0
  0
ARC
  5
42C
  8
┌▓È_1
 62
     5
 10
-25.251562516
 20
-546.56953124999995
 30
0.0
 40
3.0
 50
270.0
 51
0.0
  0
LINE
  5
42D
  8
┌▓È_1
 62
     5
 10
-22.251562516
 20
-546.56953124999995
 30
0.0
 11
-22.251562516
 21
-542.56953124999995
 31
0.0
  0
ARC
  5
42E
  8
┌▓È_1
 62
     5
 10
-29.001562550799999
 20
-550.61953126230003
 30
0.0
 40
0.75
 50
270.0000199365
 51
89.999974871800006
  0
ARC
  5
42F
  8
┌▓È_1
 62
     5
 10
-32.251562550700001
 20
-550.06953126170004
 30
0.0
 40
0.5
 50
23.578178468099999
 51
89.999996669799998
  0
LINE
  5
430
  8
┌▓È_1
 62
     5
 10
-167.5015628102
 20
-549.86953125000002
 30
0.0
 11
-98.251562516000007
 21
-549.86953125000002
 31
0.0
  0
ARC
  5
431
  8
┌▓È_1
 62
     5
 10
-164.2515624815
 20
-550.06953124999995
 30
0.0
 40
0.5
 50
90.000003320000019
 51
156.42182152180001
  0
DIMENSION
  5
440
  8
Éíû@É³
  2
*D62
 10
24.748437500000001
 20
288.13945312499999
 30
0.0
 11
-36.751562499999999
 21
288.13945312499999
 31
0.0
 70
   128
  1
<>
 13
24.748437500000001
 23
176.98281249999999
 33
0.0
 14
-98.251562500000006
 24
176.98281249999999
 34
0.0
  0
INSERT
  5
442
  8
Éíû@É³
  2
BALLON3
 10
0.0
 20
0.0
 30
0.0
  0
ARC
  5
44B
  8
┌▓È_1
 62
     5
 10
763.40808337979968
 20
161.23281247930001
 30
0.0
 40
0.75
 50
0.0000199264
 51
179.99997486169991
  0
ARC
  5
44C
  8
┌▓È_1
 62
     5
 10
762.85808337859976
 20
157.98281247950001
 30
0.0
 40
0.5
 50
113.57817845780001
 51
179.9999966597
  0
LINE
  5
44D
  8
┌▓È_1
 62
     5
 10
764.15808335520001
 20
91.982812513700011
 30
0.0
 11
764.15808337979979
 21
161.2328127401
 31
0.0
  0
LINE
  5
44E
  8
┌▓È_1
 62
     5
 10
762.65808337979979
 20
161.2328128083
 30
0.0
 11
762.65808335520001
 21
91.982812514100004
 31
0.0
  0
LINE
  5
44F
  8
┌▓È_1
 62
     5
 10
762.35808337859976
 20
157.98281245320001
 30
0.0
 11
762.35808335520005
 21
91.982812514200006
 31
0.0
  0
ARC
  5
450
  8
┌▓È_1
 62
     5
 10
759.35808335520005
 20
164.9828125146
 30
0.0
 40
3.0
 50
0.0
 51
90.0
  0
LINE
  5
451
  8
┌▓È_1
 62
     5
 10
759.35808335520005
 20
167.9828125146
 30
0.0
 11
755.35808335520005
 21
167.9828125146
 31
0.0
  0
ARC
  5
452
  8
┌▓È_1
 62
     5
 10
390.35559895829999
 20
164.98281253569999
 30
0.0
 40
3.0
 50
0.0
 51
90.0
  0
LINE
  5
453
  8
┌▓È_1
  6
BORDER
 62
     3
 10
429.47903645830002
 20
91.982812535700006
 30
0.0
 11
355.693359375
 21
91.982812535700006
 31
0.0
  0
LINE
  5
454
  8
┌▓È_1
 62
     5
 10
390.35559895829999
 20
167.98281253569999
 30
0.0
 11
386.35559895829999
 21
167.98281253569999
 31
0.0
  0
ARC
  5
455
  8
┌▓È_1
 62
     5
 10
762.85808334350008
 20
25.9828125487
 30
0.0
 40
0.5
 50
180.00000330989999
 51
246.42182151150001
  0
ARC
  5
456
  8
┌▓È_1
 62
     5
 10
763.40808334300004
 20
22.732812548599998
 30
0.0
 40
0.75
 50
180.00002510780001
 51
359.99998004320008
  0
LINE
  5
457
  8
┌▓È_1
 62
     5
 10
759.35808335520005
 20
15.982812514600001
 30
0.0
 11
755.35808335520005
 21
15.982812514600001
 31
0.0
  0
ARC
  5
458
  8
┌▓È_1
 62
     5
 10
759.35808335520005
 20
18.982812514599999
 30
0.0
 40
3.0
 50
270.0
 51
0.0
  0
LINE
  5
459
  8
┌▓È_1
 62
     5
 10
390.35559895829999
 20
15.982812535700001
 30
0.0
 11
386.35559895829999
 21
15.982812535700001
 31
0.0
  0
ARC
  5
45A
  8
┌▓È_1
 62
     5
 10
390.35559895829999
 20
18.982812535699999
 30
0.0
 40
3.0
 50
270.0
 51
0.0
  0
LINE
  5
45B
  8
┌▓È_1
 62
     5
 10
762.35808334349986
 20
25.982812575299999
 30
0.0
 11
762.35808335520005
 21
91.982812514200006
 31
0.0
  0
LINE
  5
45C
  8
┌▓È_1
 62
     5
 10
762.65808334300004
 20
22.732812219900001
 30
0.0
 11
762.65808335520001
 21
91.982812514100004
 31
0.0
  0
LINE
  5
45D
  8
┌▓È_1
 62
     5
 10
764.15808335520001
 20
91.982812513700011
 30
0.0
 11
764.15808334300004
 21
22.732812287400002
 31
0.0
  0
INSERT
  5
45F
  8
┌▓È_1
  2
CLUMP30
 10
0.0
 20
0.0
 30
0.0
  0
LINE
  5
489
  8
┌▓È_1
 62
     5
 10
762.35808335520005
 20
18.982812514599999
 30
0.0
 11
762.35808335520005
 21
164.9828125146
 31
0.0
  0
LINE
  5
48A
  8
┌▓È_1
 62
     5
 10
393.35559895829999
 20
18.982812535699999
 30
0.0
 11
393.35559895829999
 21
164.98281253569999
 31
0.0
  0
INSERT
  5
48C
  8
┌▓È_1
  6
BORDER
  2
CLUMP31
 10
0.0
 20
0.0
 30
0.0
  0
ENDSEC
  0
EOF
