  0
SECTION
  2
HEADER
  9
$ACADVER
  1
AC1009
  9
$INSBASE
 10
0.0
 20
0.0
 30
0.0
  9
$EXTMIN
 10
-960.91269531249986
 20
-714.61484374999986
 30
0.0
  9
$EXTMAX
 10
1039.0873046874999
 20
685.38515625000002
 30
0.0
  9
$LIMMIN
 10
0.0
 20
0.0
  9
$LIMMAX
 10
0.0
 20
0.0
  9
$ORTHOMODE
 70
     0
  9
$REGENMODE
 70
     1
  9
$FILLMODE
 70
     1
  9
$QTEXTMODE
 70
     0
  9
$MIRRTEXT
 70
     1
  9
$DRAGMODE
 70
     2
  9
$LTSCALE
 40
1.0
  9
$OSMODE
 70
    31
  9
$ATTMODE
 70
     1
  9
$TEXTSIZE
 40
0.0
  9
$TRACEWID
 40
0.05
  9
$TEXTSTYLE
  7
STANDARD
  9
$CLAYER
  8
0
  9
$CELTYPE
  6
CONTINUOUS
  9
$CECOLOR
 62
   256
  9
$DIMSCALE
 40
1.0
  9
$DIMASZ
 40
0.18
  9
$DIMEXO
 40
0.0625
  9
$DIMDLI
 40
0.38
  9
$DIMRND
 40
0.0
  9
$DIMDLE
 40
0.0
  9
$DIMEXE
 40
0.18
  9
$DIMTP
 40
0.0
  9
$DIMTM
 40
0.0
  9
$DIMTXT
 40
0.18
  9
$DIMCEN
 40
0.09
  9
$DIMTSZ
 40
0.0
  9
$DIMTOL
 70
     0
  9
$DIMLIM
 70
     0
  9
$DIMTIH
 70
     1
  9
$DIMTOH
 70
     1
  9
$DIMSE1
 70
     0
  9
$DIMSE2
 70
     0
  9
$DIMTAD
 70
     0
  9
$DIMZIN
 70
     0
  9
$DIMBLK
  1

  9
$DIMASO
 70
     1
  9
$DIMSHO
 70
     1
  9
$DIMPOST
  1

  9
$DIMAPOST
  1

  9
$DIMALT
 70
     0
  9
$DIMALTD
 70
     2
  9
$DIMALTF
 40
25.399999999999999
  9
$DIMLFAC
 40
1.0
  9
$DIMTOFL
 70
     0
  9
$DIMTVP
 40
0.0
  9
$DIMTIX
 70
     0
  9
$DIMSOXD
 70
     0
  9
$DIMSAH
 70
     0
  9
$DIMBLK1
  1

  9
$DIMBLK2
  1

  9
$DIMSTYLE
  2
STANDARD
  9
$DIMCLRD
 70
     0
  9
$DIMCLRE
 70
     0
  9
$DIMCLRT
 70
     0
  9
$DIMTFAC
 40
1.0
  9
$DIMGAP
 40
0.09
  9
$LUNITS
 70
     2
  9
$LUPREC
 70
     4
  9
$SKETCHINC
 40
0.1
  9
$FILLETRAD
 40
0.0
  9
$AUNITS
 70
     0
  9
$AUPREC
 70
     0
  9
$MENU
  1
acad
  9
$ELEVATION
 40
0.0
  9
$PELEVATION
 40
0.0
  9
$THICKNESS
 40
0.0
  9
$LIMCHECK
 70
     0
  9
$BLIPMODE
 70
     0
  9
$CHAMFERA
 40
0.0
  9
$CHAMFERB
 40
0.0
  9
$SKPOLY
 70
     0
  9
$TDCREATE
 40
2454860.5912592132
  9
$TDUPDATE
 40
2454860.5914438651
  9
$TDINDWG
 40
0.0001983912
  9
$TDUSRTIMER
 40
0.0001980208
  9
$USRTIMER
 70
     1
  9
$ANGBASE
 50
0.0
  9
$ANGDIR
 70
     0
  9
$PDMODE
 70
     3
  9
$PDSIZE
 40
-1.0
  9
$PLINEWID
 40
0.0
  9
$COORDS
 70
     2
  9
$SPLFRAME
 70
     0
  9
$SPLINETYPE
 70
     6
  9
$SPLINESEGS
 70
     8
  9
$ATTDIA
 70
     0
  9
$ATTREQ
 70
     1
  9
$HANDLING
 70
     1
  9
$HANDSEED
  5
AD1
  9
$SURFTAB1
 70
     6
  9
$SURFTAB2
 70
     6
  9
$SURFTYPE
 70
     6
  9
$SURFU
 70
     6
  9
$SURFV
 70
     6
  9
$UCSNAME
  2

  9
$UCSORG
 10
0.0
 20
0.0
 30
0.0
  9
$UCSXDIR
 10
1.0
 20
0.0
 30
0.0
  9
$UCSYDIR
 10
0.0
 20
1.0
 30
0.0
  9
$PUCSNAME
  2

  9
$PUCSORG
 10
0.0
 20
0.0
 30
0.0
  9
$PUCSXDIR
 10
1.0
 20
0.0
 30
0.0
  9
$PUCSYDIR
 10
0.0
 20
1.0
 30
0.0
  9
$USERI1
 70
     0
  9
$USERI2
 70
     0
  9
$USERI3
 70
     0
  9
$USERI4
 70
     0
  9
$USERI5
 70
     0
  9
$USERR1
 40
0.0
  9
$USERR2
 40
0.0
  9
$USERR3
 40
0.0
  9
$USERR4
 40
0.0
  9
$USERR5
 40
0.0
  9
$WORLDVIEW
 70
     1
  9
$SHADEDGE
 70
     3
  9
$SHADEDIF
 70
    70
  9
$TILEMODE
 70
     1
  9
$MAXACTVP
 70
    16
  9
$PLIMCHECK
 70
     0
  9
$PEXTMIN
 10
1.0000000000000000E+020
 20
1.0000000000000000E+020
 30
1.0000000000000000E+020
  9
$PEXTMAX
 10
-1.0000000000000000E+020
 20
-1.0000000000000000E+020
 30
-1.0000000000000000E+020
  9
$PLIMMIN
 10
0.0
 20
0.0
  9
$PLIMMAX
 10
12.0
 20
9.0
  9
$UNITMODE
 70
     0
  9
$VISRETAIN
 70
     0
  9
$PLINEGEN
 70
     1
  9
$PSLTSCALE
 70
     0
  0
ENDSEC
  0
SECTION
  2
TABLES
  0
TABLE
  2
VPORT
 70
     2
  0
VPORT
  2
*ACTIVE
 70
     0
 10
0.0
 20
0.0
 11
1.0
 21
1.0
 12
39.087304687500051
 22
-14.61484374999997
 13
0.0
 23
0.0
 14
1.0
 24
1.0
 15
0.0
 25
0.0
 16
0.0
 26
0.0
 36
1.0
 17
0.0
 27
0.0
 37
0.0
 40
1411.6182572614109
 41
1.6343490304709141
 42
50.0
 43
0.0
 44
0.0
 50
0.0
 51
0.0
 71
     0
 72
   100
 73
     1
 74
     1
 75
     0
 76
     0
 77
     0
 78
     0
  0
ENDTAB
  0
TABLE
  2
LTYPE
 70
    11
  0
LTYPE
  2
CONTINUOUS
 70
     0
  3
Solid line
 72
    65
 73
     0
 40
0.0
  0
LTYPE
  2
DOT
 70
     0
  3
. . . . . . . . 
 72
    65
 73
     2
 40
1.0
 49
0.0
 49
-1.0
  0
LTYPE
  2
DASHED
 70
     0
  3
___  ___  ___  ___  
 72
    65
 73
     2
 40
4.0
 49
3.0
 49
-1.0
  0
LTYPE
  2
HIDDEN
 70
     0
  3
__ __ __ __ 
 72
    65
 73
     2
 40
3.0
 49
2.0
 49
-1.0
  0
LTYPE
  2
STITCH
 70
     0
  3
_ _ _ _ 
 72
    65
 73
     2
 40
2.0
 49
1.0
 49
-1.0
  0
LTYPE
  2
CENTER
 70
     0
  3
______  __  ______  __  
 72
    65
 73
     4
 40
43.0
 49
40.0
 49
-1.0
 49
1.0
 49
-1.0
  0
LTYPE
  2
DASHDOT
 70
     0
  3
____ . ____ . 
 72
    65
 73
     4
 40
32.0
 49
30.0
 49
-1.0
 49
0.0
 49
-1.0
  0
LTYPE
  2
BORDER
 70
     0
  3
__ . __ . 
 72
    65
 73
     4
 40
22.0
 49
20.0
 49
-1.0
 49
0.0
 49
-1.0
  0
LTYPE
  2
CUTTING
 70
     0
  3
________   ___   ___   
 72
    65
 73
     6
 40
45.0
 49
40.0
 49
-1.0
 49
1.0
 49
-1.0
 49
1.0
 49
-1.0
  0
LTYPE
  2
PHANTOM
 70
     0
  3
______  __  __  
 72
    65
 73
     6
 40
35.0
 49
30.0
 49
-1.0
 49
1.0
 49
-1.0
 49
1.0
 49
-1.0
  0
LTYPE
  2
DIVIDE
 70
     0
  3
____ . . ____ . . 
 72
    65
 73
     6
 40
23.0
 49
20.0
 49
-1.0
 49
0.0
 49
-1.0
 49
0.0
 49
-1.0
  0
ENDTAB
  0
TABLE
  2
LAYER
 70
     3
  0
LAYER
  2
0
 70
     0
 62
     7
  6
CONTINUOUS
  0
LAYER
  2
Éíû@É³
 70
     0
 62
     7
  6
CONTINUOUS
  0
LAYER
  2
┌▓È_1
 70
     0
 62
     7
  6
CONTINUOUS
  0
ENDTAB
  0
TABLE
  2
STYLE
 70
     1
  0
STYLE
  2
STANDARD
 70
     0
 40
0.0
 41
1.0
 50
0.0
 71
     0
 42
0.0
  3
txt
  4
extfont
  0
ENDTAB
  0
TABLE
  2
VIEW
 70
     0
  0
ENDTAB
  0
TABLE
  2
UCS
 70
     0
  0
ENDTAB
  0
TABLE
  2
APPID
 70
     2
  0
APPID
  2
ACAD
 70
     0
  0
APPID
  2
DCO15
 70
     0
  0
ENDTAB
  0
TABLE
  2
DIMSTYLE
 70
     2
  0
DIMSTYLE
  2
STANDARD
 70
     0
  3

  4

  5

  6

  7

 40
1.0
 41
0.18
 42
0.0625
 43
0.38
 44
0.18
 45
0.0
 46
0.0
 47
0.0
 48
0.0
140
0.18
141
0.09
142
0.0
143
25.399999999999999
144
1.0
145
0.0
146
1.0
147
0.09
 71
     0
 72
     0
 73
     1
 74
     1
 75
     0
 76
     0
 77
     0
 78
     0
170
     0
171
     2
172
     0
173
     0
174
     0
175
     0
176
     0
177
     0
178
     0
  0
DIMSTYLE
  2
VELDIM0
 70
     0
  3

  4

  5

  6

  7

 40
1.0
 41
9.6592578887999991
 42
0.0625
 43
0.38
 44
5.0
 45
0.0
 46
25.0
 47
0.0
 48
0.0
140
17.9916661263
141
0.09
142
0.0
143
25.399999999999999
144
1.0
145
0.0
146
1.0
147
0.09
 71
     0
 72
     0
 73
     0
 74
     0
 75
     0
 76
     0
 77
     0
 78
     8
170
     0
171
     2
172
     0
173
     0
174
     0
175
     0
176
     0
177
     0
178
     0
  0
ENDTAB
  0
ENDSEC
  0
SECTION
  2
BLOCKS
  0
BLOCK
  8
0
  2
$MODEL_SPACE
 70
     0
 10
0.0
 20
0.0
 30
0.0
  3
$MODEL_SPACE
  1

  0
ENDBLK
  5
E
  8
0
  0
BLOCK
 67
     1
  8
0
  2
$PAPER_SPACE
 70
     0
 10
0.0
 20
0.0
 30
0.0
  3
$PAPER_SPACE
  1

  0
ENDBLK
  5
10
 67
     1
  8
0
  0
BLOCK
  8
0
  2
*D0
 70
     1
 10
0.0
 20
0.0
 30
0.0
  3
*D0
  1

  0
TEXT
  5
31
  8
0
 62
     0
 10
-391.12656202319999
 20
-153.19609384539999
 30
0.0
 40
17.9916661263
  1
800
  0
LINE
  5
32
  8
0
 62
     0
 10
-775.25156249999998
 20
-23.017187499999999
 30
0.0
 11
-775.25156249999998
 21
-166.37109375
 31
0.0
  0
LINE
  5
33
  8
0
 62
     0
 10
24.748437500000001
 20
-23.017187499999999
 30
0.0
 11
24.748437500000001
 21
-166.37109375
 31
0.0
  0
LINE
  5
34
  8
0
 62
     0
 10
-775.25156249999998
 20
-161.37109375
 30
0.0
 11
-348.79322996140002
 21
-161.37109375
 31
0.0
  0
LINE
  5
35
  8
0
 62
     0
 10
-775.25156249999998
 20
-161.37109375
 30
0.0
 11
-401.70989503859988
 21
-161.37109375
 31
0.0
  0
LINE
  5
36
  8
0
 62
     0
 10
24.748437500000001
 20
-161.37109375
 30
0.0
 11
-348.79322996140002
 21
-161.37109375
 31
0.0
  0
LINE
  5
37
  8
0
 62
     0
 10
24.748437500000001
 20
-161.37109375
 30
0.0
 11
-401.70989503859988
 21
-161.37109375
 31
0.0
  0
LINE
  5
38
  8
0
 62
     0
 10
24.748437500000001
 20
-161.37109375
 30
0.0
 11
-0.2515625
 21
-161.37109375
 31
0.0
  0
SOLID
  5
39
  8
0
 62
     0
 10
24.748437500000001
 20
-161.37109375
 30
0.0
 11
15.089179611200001
 21
-163.95928430559999
 31
0.0
 12
15.089179611200001
 22
-158.78290319440001
 32
0.0
 13
17.503994083399999
 23
-161.37109375
 33
0.0
  0
LINE
  5
3A
  8
0
 62
     0
 10
-775.25156249999998
 20
-161.37109375
 30
0.0
 11
-750.25156249999998
 21
-161.37109375
 31
0.0
  0
SOLID
  5
3B
  8
0
 62
     0
 10
-775.25156249999998
 20
-161.37109375
 30
0.0
 11
-765.59230461120001
 21
-158.78290319440001
 31
0.0
 12
-765.59230461120001
 22
-163.95928430559999
 32
0.0
 13
-768.00711908339997
 23
-161.37109375
 33
0.0
  0
ENDBLK
  5
3C
  8
0
  0
BLOCK
  8
0
  2
*D1
 70
     1
 10
0.0
 20
0.0
 30
0.0
  3
*D1
  1

  0
TEXT
  5
45
  8
0
 62
     0
 10
28.387240219100001
 20
-100.9078125954
 30
0.0
 40
17.9916661263
  1
14.5
  0
LINE
  5
46
  8
0
 62
     0
 10
10.2484375
 20
-26.517187499999999
 30
0.0
 11
10.2484375
 21
-114.0828125
 31
0.0
  0
LINE
  5
47
  8
0
 62
     0
 10
24.748437500000001
 20
-31.017187499999999
 30
0.0
 11
24.748437500000001
 21
-114.0828125
 31
0.0
  0
LINE
  5
48
  8
0
 62
     0
 10
10.2484375
 20
-109.0828125
 30
0.0
 11
81.303905296300002
 21
-109.0828125
 31
0.0
  0
LINE
  5
49
  8
0
 62
     0
 10
10.2484375
 20
-109.0828125
 30
0.0
 11
17.8039072037
 21
-109.0828125
 31
0.0
  0
LINE
  5
4A
  8
0
 62
     0
 10
24.748437500000001
 20
-109.0828125
 30
0.0
 11
81.303905296300002
 21
-109.0828125
 31
0.0
  0
LINE
  5
4B
  8
0
 62
     0
 10
24.748437500000001
 20
-109.0828125
 30
0.0
 11
17.8039072037
 21
-109.0828125
 31
0.0
  0
LINE
  5
4C
  8
0
 62
     0
 10
24.748437500000001
 20
-109.0828125
 30
0.0
 11
49.748437500000001
 21
-109.0828125
 31
0.0
  0
SOLID
  5
4D
  8
0
 62
     0
 10
24.748437500000001
 20
-109.0828125
 30
0.0
 11
34.407695388800001
 21
-106.4946219444
 31
0.0
 12
34.407695388800001
 22
-111.6710030556
 32
0.0
 13
31.992880916600001
 23
-109.0828125
 33
0.0
  0
LINE
  5
4E
  8
0
 62
     0
 10
10.2484375
 20
-109.0828125
 30
0.0
 11
-14.7515625
 21
-109.0828125
 31
0.0
  0
SOLID
  5
4F
  8
0
 62
     0
 10
10.2484375
 20
-109.0828125
 30
0.0
 11
0.5891796112
 21
-111.6710030556
 31
0.0
 12
0.5891796112
 22
-106.4946219444
 32
0.0
 13
3.003994083399999
 23
-109.0828125
 33
0.0
  0
ENDBLK
  5
50
  8
0
  0
BLOCK
  8
0
  2
*D2
 70
     1
 10
0.0
 20
0.0
 30
0.0
  3
*D2
  1

  0
TEXT
  5
54
  8
0
 62
     0
 10
-391.12656202319999
 20
-100.9078125954
 30
0.0
 40
17.9916661263
  1
771
  0
LINE
  5
55
  8
0
 62
     0
 10
-760.75156249999986
 20
-26.517187499999999
 30
0.0
 11
-760.75156249999986
 21
-114.0828125
 31
0.0
  0
LINE
  5
56
  8
0
 62
     0
 10
10.2484375
 20
-26.517187499999999
 30
0.0
 11
10.2484375
 21
-114.0828125
 31
0.0
  0
LINE
  5
57
  8
0
 62
     0
 10
-760.75156249999986
 20
-109.0828125
 30
0.0
 11
-348.79322996140002
 21
-109.0828125
 31
0.0
  0
LINE
  5
58
  8
0
 62
     0
 10
-760.75156249999986
 20
-109.0828125
 30
0.0
 11
-401.70989503859988
 21
-109.0828125
 31
0.0
  0
LINE
  5
59
  8
0
 62
     0
 10
10.2484375
 20
-109.0828125
 30
0.0
 11
-348.79322996140002
 21
-109.0828125
 31
0.0
  0
LINE
  5
5A
  8
0
 62
     0
 10
10.2484375
 20
-109.0828125
 30
0.0
 11
-401.70989503859988
 21
-109.0828125
 31
0.0
  0
LINE
  5
5B
  8
0
 62
     0
 10
10.2484375
 20
-109.0828125
 30
0.0
 11
-14.7515625
 21
-109.0828125
 31
0.0
  0
SOLID
  5
5C
  8
0
 62
     0
 10
10.2484375
 20
-109.0828125
 30
0.0
 11
0.5891796112
 21
-111.6710030556
 31
0.0
 12
0.5891796112
 22
-106.4946219444
 32
0.0
 13
3.003994083399999
 23
-109.0828125
 33
0.0
  0
LINE
  5
5D
  8
0
 62
     0
 10
-760.75156249999986
 20
-109.0828125
 30
0.0
 11
-735.75156249999986
 21
-109.0828125
 31
0.0
  0
SOLID
  5
5E
  8
0
 62
     0
 10
-760.75156249999986
 20
-109.0828125
 30
0.0
 11
-751.09230461120001
 21
-106.4946219444
 31
0.0
 12
-751.09230461120001
 22
-111.6710030556
 32
0.0
 13
-753.50711908339986
 23
-109.0828125
 33
0.0
  0
ENDBLK
  5
5F
  8
0
  0
BLOCK
  8
0
  2
*D3
 70
     1
 10
0.0
 20
0.0
 30
0.0
  3
*D3
  1

  0
TEXT
  5
63
  8
0
 62
     0
 10
-825.09244728090005
 20
-100.9078125954
 30
0.0
 40
17.9916661263
  1
14.5
  0
LINE
  5
64
  8
0
 62
     0
 10
-775.25156249999998
 20
-31.017187499999999
 30
0.0
 11
-775.25156249999998
 21
-114.0828125
 31
0.0
  0
LINE
  5
65
  8
0
 62
     0
 10
-760.75156249999986
 20
-26.517187499999999
 30
0.0
 11
-760.75156249999986
 21
-114.0828125
 31
0.0
  0
LINE
  5
66
  8
0
 62
     0
 10
-775.25156249999998
 20
-109.0828125
 30
0.0
 11
-772.1757822036999
 21
-109.0828125
 31
0.0
  0
LINE
  5
67
  8
0
 62
     0
 10
-775.25156249999998
 20
-109.0828125
 30
0.0
 11
-835.67578029629999
 21
-109.0828125
 31
0.0
  0
LINE
  5
68
  8
0
 62
     0
 10
-760.75156249999986
 20
-109.0828125
 30
0.0
 11
-772.1757822036999
 21
-109.0828125
 31
0.0
  0
LINE
  5
69
  8
0
 62
     0
 10
-760.75156249999986
 20
-109.0828125
 30
0.0
 11
-835.67578029629999
 21
-109.0828125
 31
0.0
  0
LINE
  5
6A
  8
0
 62
     0
 10
-760.75156249999986
 20
-109.0828125
 30
0.0
 11
-735.75156249999986
 21
-109.0828125
 31
0.0
  0
SOLID
  5
6B
  8
0
 62
     0
 10
-760.75156249999986
 20
-109.0828125
 30
0.0
 11
-751.09230461120001
 21
-106.4946219444
 31
0.0
 12
-751.09230461120001
 22
-111.6710030556
 32
0.0
 13
-753.50711908339986
 23
-109.0828125
 33
0.0
  0
LINE
  5
6C
  8
0
 62
     0
 10
-775.25156249999998
 20
-109.0828125
 30
0.0
 11
-800.25156249999986
 21
-109.0828125
 31
0.0
  0
SOLID
  5
6D
  8
0
 62
     0
 10
-775.25156249999998
 20
-109.0828125
 30
0.0
 11
-784.91082038879995
 21
-111.6710030556
 31
0.0
 12
-784.91082038879995
 22
-106.4946219444
 32
0.0
 13
-782.49600591659998
 23
-109.0828125
 33
0.0
  0
ENDBLK
  5
6E
  8
0
  0
BLOCK
  8
0
  2
*D4
 70
     1
 10
0.0
 20
0.0
 30
0.0
  3
*D4
  1

  0
TEXT
  5
72
  8
0
 62
     0
 10
-849.20859365460012
 20
-44.933853530900002
 30
0.0
 40
17.9916661263
  1
14.5
 50
90.0
  0
LINE
  5
73
  8
0
 62
     0
 10
-770.75156249999998
 20
-16.517187499999999
 30
0.0
 11
-846.03359375000002
 21
-16.517187499999999
 31
0.0
  0
LINE
  5
74
  8
0
 62
     0
 10
-775.25156249999998
 20
-31.017187499999999
 30
0.0
 11
-846.03359375000002
 21
-31.017187499999999
 31
0.0
  0
LINE
  5
75
  8
0
 62
     0
 10
-841.03359375000014
 20
-16.517187499999999
 30
0.0
 11
-841.03359375000014
 21
-16.517187499999999
 31
0.0
  0
LINE
  5
76
  8
0
 62
     0
 10
-841.03359375000014
 20
-16.517187499999999
 30
0.0
 11
-841.03359375000014
 21
-31.017187499999999
 31
0.0
  0
LINE
  5
77
  8
0
 62
     0
 10
-841.03359375000014
 20
-31.017187499999999
 30
0.0
 11
-841.03359375000014
 21
-16.517187499999999
 31
0.0
  0
LINE
  5
78
  8
0
 62
     0
 10
-841.03359375000014
 20
-31.017187499999999
 30
0.0
 11
-841.03359375000014
 21
-31.017187499999999
 31
0.0
  0
LINE
  5
79
  8
0
 62
     0
 10
-841.03359375000014
 20
-31.017187499999999
 30
0.0
 11
-841.03359375000014
 21
-56.017187499999991
 31
0.0
  0
SOLID
  5
7A
  8
0
 62
     0
 10
-841.03359375000014
 20
-31.017187499999999
 30
0.0
 11
-838.44540319439989
 21
-40.676445388799991
 31
0.0
 12
-843.62178430559993
 22
-40.676445388799991
 32
0.0
 13
-841.03359375000014
 23
-38.261630916599998
 33
0.0
  0
LINE
  5
7B
  8
0
 62
     0
 10
-841.03359375000014
 20
-16.517187499999999
 30
0.0
 11
-841.03359375000014
 21
8.4828124999999996
 31
0.0
  0
SOLID
  5
7C
  8
0
 62
     0
 10
-841.03359375000014
 20
-16.517187499999999
 30
0.0
 11
-843.62178430559993
 21
-6.8579296112000003
 31
0.0
 12
-838.44540319439989
 22
-6.8579296112000003
 32
0.0
 13
-841.03359375000014
 23
-9.272744083400001
 33
0.0
  0
ENDBLK
  5
7D
  8
0
  0
BLOCK
  8
0
  2
*D5
 70
     1
 10
0.0
 20
0.0
 30
0.0
  3
*D5
  1

  0
TEXT
  5
81
  8
0
 62
     0
 10
-849.20859365460012
 20
273.10781297680001
 30
0.0
 40
17.9916661263
  1
611
 50
90.0
  0
LINE
  5
82
  8
0
 62
     0
 10
-770.75156249999998
 20
594.48281249999991
 30
0.0
 11
-846.03359375000002
 21
594.48281249999991
 31
0.0
  0
LINE
  5
83
  8
0
 62
     0
 10
-770.75156249999998
 20
-16.517187499999999
 30
0.0
 11
-846.03359375000002
 21
-16.517187499999999
 31
0.0
  0
LINE
  5
84
  8
0
 62
     0
 10
-841.03359375000014
 20
594.48281249999991
 30
0.0
 11
-841.03359375000014
 21
315.44114503859998
 31
0.0
  0
LINE
  5
85
  8
0
 62
     0
 10
-841.03359375000014
 20
594.48281249999991
 30
0.0
 11
-841.03359375000014
 21
262.5244799614
 31
0.0
  0
LINE
  5
86
  8
0
 62
     0
 10
-841.03359375000014
 20
-16.517187499999999
 30
0.0
 11
-841.03359375000014
 21
315.44114503859998
 31
0.0
  0
LINE
  5
87
  8
0
 62
     0
 10
-841.03359375000014
 20
-16.517187499999999
 30
0.0
 11
-841.03359375000014
 21
262.5244799614
 31
0.0
  0
LINE
  5
88
  8
0
 62
     0
 10
-841.03359375000014
 20
-16.517187499999999
 30
0.0
 11
-841.03359375000014
 21
8.4828124999999996
 31
0.0
  0
SOLID
  5
89
  8
0
 62
     0
 10
-841.03359375000014
 20
-16.517187499999999
 30
0.0
 11
-843.62178430559993
 21
-6.8579296112000003
 31
0.0
 12
-838.44540319439989
 22
-6.8579296112000003
 32
0.0
 13
-841.03359375000014
 23
-9.272744083400001
 33
0.0
  0
LINE
  5
8A
  8
0
 62
     0
 10
-841.03359375000014
 20
594.48281249999991
 30
0.0
 11
-841.03359375000014
 21
569.48281249999991
 31
0.0
  0
SOLID
  5
8B
  8
0
 62
     0
 10
-841.03359375000014
 20
594.48281249999991
 30
0.0
 11
-838.44540319439989
 21
584.82355461120005
 31
0.0
 12
-843.62178430559993
 22
584.82355461120005
 32
0.0
 13
-841.03359375000014
 23
587.2383690833999
 33
0.0
  0
ENDBLK
  5
8C
  8
0
  0
BLOCK
  8
0
  2
*D6
 70
     1
 10
0.0
 20
0.0
 30
0.0
  3
*D6
  1

  0
TEXT
  5
90
  8
0
 62
     0
 10
-849.20859365460012
 20
580.56614646909998
 30
0.0
 40
17.9916661263
  1
14.5
 50
90.0
  0
LINE
  5
91
  8
0
 62
     0
 10
-775.25156249999998
 20
608.98281250000002
 30
0.0
 11
-846.03359375000002
 21
608.98281250000002
 31
0.0
  0
LINE
  5
92
  8
0
 62
     0
 10
-770.75156249999998
 20
594.48281249999991
 30
0.0
 11
-846.03359375000002
 21
594.48281249999991
 31
0.0
  0
LINE
  5
93
  8
0
 62
     0
 10
-841.03359375000014
 20
608.98281250000002
 30
0.0
 11
-841.03359375000014
 21
608.98281250000002
 31
0.0
  0
LINE
  5
94
  8
0
 62
     0
 10
-841.03359375000014
 20
608.98281250000002
 30
0.0
 11
-841.03359375000014
 21
594.48281249999991
 31
0.0
  0
LINE
  5
95
  8
0
 62
     0
 10
-841.03359375000014
 20
594.48281249999991
 30
0.0
 11
-841.03359375000014
 21
608.98281250000002
 31
0.0
  0
LINE
  5
96
  8
0
 62
     0
 10
-841.03359375000014
 20
594.48281249999991
 30
0.0
 11
-841.03359375000014
 21
594.48281249999991
 31
0.0
  0
LINE
  5
97
  8
0
 62
     0
 10
-841.03359375000014
 20
594.48281249999991
 30
0.0
 11
-841.03359375000014
 21
569.48281249999991
 31
0.0
  0
SOLID
  5
98
  8
0
 62
     0
 10
-841.03359375000014
 20
594.48281249999991
 30
0.0
 11
-838.44540319439989
 21
584.82355461120005
 31
0.0
 12
-843.62178430559993
 22
584.82355461120005
 32
0.0
 13
-841.03359375000014
 23
587.2383690833999
 33
0.0
  0
LINE
  5
99
  8
0
 62
     0
 10
-841.03359375000014
 20
608.98281250000002
 30
0.0
 11
-841.03359375000014
 21
633.98281250000002
 31
0.0
  0
SOLID
  5
9A
  8
0
 62
     0
 10
-841.03359375000014
 20
608.98281250000002
 30
0.0
 11
-843.62178430559993
 21
618.64207038879999
 31
0.0
 12
-838.44540319439989
 22
618.64207038879999
 32
0.0
 13
-841.03359375000014
 23
616.22725591660003
 33
0.0
  0
ENDBLK
  5
9B
  8
0
  0
BLOCK
  8
0
  2
*D7
 70
     1
 10
0.0
 20
0.0
 30
0.0
  3
*D7
  1

  0
TEXT
  5
9F
  8
0
 62
     0
 10
88.607029819500013
 20
113.10781297680001
 30
0.0
 40
17.9916661263
  1
320
 50
90.0
  0
LINE
  5
A0
  8
0
 62
     0
 10
24.748437500000001
 20
-31.017187499999999
 30
0.0
 11
101.7820297241
 21
-31.017187499999999
 31
0.0
  0
LINE
  5
A1
  8
0
 62
     0
 10
0.7484375
 20
288.98281250000002
 30
0.0
 11
101.7820297241
 21
288.98281250000002
 31
0.0
  0
LINE
  5
A2
  8
0
 62
     0
 10
96.782029724099999
 20
-31.017187499999999
 30
0.0
 11
96.782029724099999
 21
155.44114503860001
 31
0.0
  0
LINE
  5
A3
  8
0
 62
     0
 10
96.782029724099999
 20
-31.017187499999999
 30
0.0
 11
96.782029724099999
 21
102.5244799614
 31
0.0
  0
LINE
  5
A4
  8
0
 62
     0
 10
96.782029724099999
 20
288.98281250000002
 30
0.0
 11
96.782029724099999
 21
155.44114503860001
 31
0.0
  0
LINE
  5
A5
  8
0
 62
     0
 10
96.782029724099999
 20
288.98281250000002
 30
0.0
 11
96.782029724099999
 21
102.5244799614
 31
0.0
  0
LINE
  5
A6
  8
0
 62
     0
 10
96.782029724099999
 20
288.98281250000002
 30
0.0
 11
96.782029724099999
 21
263.98281250000002
 31
0.0
  0
SOLID
  5
A7
  8
0
 62
     0
 10
96.782029724099999
 20
288.98281250000002
 30
0.0
 11
99.370220279700007
 21
279.3235546112
 31
0.0
 12
94.193839168500006
 22
279.3235546112
 32
0.0
 13
96.782029724099999
 23
281.73836908340002
 33
0.0
  0
LINE
  5
A8
  8
0
 62
     0
 10
96.782029724099999
 20
-31.017187499999999
 30
0.0
 11
96.782029724099999
 21
-6.0171875000000004
 31
0.0
  0
SOLID
  5
A9
  8
0
 62
     0
 10
96.782029724099999
 20
-31.017187499999999
 30
0.0
 11
94.193839168500006
 21
-21.357929611199999
 31
0.0
 12
99.370220279700007
 22
-21.357929611199999
 32
0.0
 13
96.782029724099999
 23
-23.772744083399999
 33
0.0
  0
ENDBLK
  5
AA
  8
0
  0
BLOCK
  8
0
  2
CLUMP0
 70
     0
 10
0.0
 20
0.0
 30
0.0
  3
CLUMP0
  1

  0
INSERT
  5
B1
  8
┌▓È_1
  2
CLUMP1
 10
0.0
 20
0.0
 30
0.0
  0
LINE
  5
1AF
  8
┌▓È_1
  6
BORDER
 62
     3
 10
-98.251562500000006
 20
373.98281250000002
 30
0.0
 11
-98.251562500000006
 21
203.98281249999999
 31
0.0
  0
ENDBLK
  5
1B0
  8
0
  0
BLOCK
  8
0
  2
CLUMP1
 70
     0
 10
0.0
 20
0.0
 30
0.0
  3
CLUMP1
  1

  0
LINE
  5
B3
  8
┌▓È_1
 62
     5
 10
-72.544898378599996
 20
270.98281250000002
 30
0.0
 11
-61.8361309617
 21
263.48445282969999
 31
0.0
  0
LINE
  5
B4
  8
┌▓È_1
 62
     5
 10
-82.251562500000006
 20
272.98281250000002
 30
0.0
 11
-66.817106882000004
 21
257.54835688200001
 31
0.0
  0
ARC
  5
B5
  8
┌▓È_1
 62
     5
 10
-98.251562500000006
 20
288.98281250000002
 30
0.0
 40
21.0
 50
307.60525126509998
 51
310.36759354420002
  0
ARC
  5
B6
  8
┌▓È_1
 62
     5
 10
-68.231320444399998
 20
256.13414331960001
 30
0.0
 40
2.0
 50
312.42404107229999
 51
45.0
  0
ARC
  5
B7
  8
┌▓È_1
 62
     5
 10
-98.251562500000006
 20
288.98281250000002
 30
0.0
 40
46.5
 50
307.57595892770001
 51
312.42404107229999
  0
LINE
  5
B8
  8
┌▓È_1
 62
     5
 10
-85.645923468700005
 20
270.98009424380001
 30
0.0
 11
-72.753202829700001
 21
252.5673809617
 31
0.0
  0
ARC
  5
B9
  8
┌▓È_1
 62
     5
 10
-71.114898741099992
 20
253.71453383439999
 30
0.0
 40
2.0
 50
215.0
 51
307.57595892770001
  0
ARC
  5
BA
  8
┌▓È_1
 62
     5
 10
-84.826771424399993
 20
271.55367068010003
 30
0.0
 40
1.0
 50
127.60525126509999
 51
215.0
  0
ARC
  5
BB
  8
┌▓È_1
 62
     5
 10
-58.806856025000002
 20
268.3826879591
 30
0.0
 40
2.0
 50
332.42404107229999
 51
65.0
  0
ARC
  5
BC
  8
┌▓È_1
 62
     5
 10
-98.251562500000006
 20
288.98281250000002
 30
0.0
 40
46.5
 50
327.57595892770013
 51
332.42404107229999
  0
LINE
  5
BD
  8
┌▓È_1
 62
     5
 10
-104.25156250000001
 20
236.62548254519999
 30
0.0
 11
-104.25156250000001
 21
236.3235303173
 31
0.0
  0
LINE
  5
BE
  8
┌▓È_1
 62
     5
 10
-150.60889245480001
 20
282.98281250000002
 30
0.0
 11
-150.9108446827
 21
282.98281250000002
 31
0.0
  0
LINE
  5
BF
  8
┌▓È_1
 62
     5
 10
-59.650437930800003
 20
306.98281250000002
 30
0.0
 11
-57.961619501500003
 21
307.7703214668
 31
0.0
  0
LINE
  5
C0
  8
┌▓È_1
 62
     5
 10
-72.544898378599996
 20
306.98281250000002
 30
0.0
 11
-61.8361309617
 21
314.4811721703
 31
0.0
  0
LINE
  5
C1
  8
┌▓È_1
 62
     5
 10
-75.401194392099995
 20
304.98281250000002
 30
0.0
 11
-74.751562500000006
 21
305.43768964790002
 31
0.0
  0
LINE
  5
C2
  8
┌▓È_1
 62
     5
 10
-82.251562500000006
 20
304.98281250000002
 30
0.0
 11
-66.817106882000004
 21
320.41726811799998
 31
0.0
  0
ARC
  5
C3
  8
┌▓È_1
 62
     5
 10
-60.688978089000003
 20
312.84286808169998
 30
0.0
 40
2.0
 50
32.4240410723
 51
125.0
  0
ARC
  5
C4
  8
┌▓È_1
 62
     5
 10
-98.251562500000006
 20
288.98281250000002
 30
0.0
 40
46.5
 50
27.5759589277
 51
32.4240410723
  0
ARC
  5
C5
  8
┌▓È_1
 62
     5
 10
-58.806856025000002
 20
309.58293704089999
 30
0.0
 40
2.0
 50
295.0
 51
27.5759589277
  0
LINE
  5
C6
  8
┌▓È_1
 62
     5
 10
-85.645923468700005
 20
306.98553075619998
 30
0.0
 11
-72.753202829700001
 21
325.39824403829999
 31
0.0
  0
LINE
  5
C7
  8
┌▓È_1
  6
BORDER
 62
     3
 10
-183.25156250000001
 20
288.98281250000002
 30
0.0
 11
-13.2515625
 21
288.98281250000002
 31
0.0
  0
ARC
  5
C8
  8
┌▓È_1
 62
     5
 10
-98.251562500000006
 20
288.98281250000002
 30
0.0
 40
53.0
 50
340.62996175450002
 51
19.370038245500002
  0
ARC
  5
C9
  8
┌▓È_1
 62
     5
 10
-98.251562500000006
 20
288.98281250000002
 30
0.0
 40
53.0
 50
21.587674387199989
 51
338.41232561279998
  0
ARC
  5
CA
  8
┌▓È_1
 62
     5
 10
-98.251562500000006
 20
288.98281250000002
 30
0.0
 40
52.700000000000003
 50
341.58015084250002
 51
18.4198491575
  0
ARC
  5
CB
  8
┌▓È_1
 62
     5
 10
-98.251562500000006
 20
288.98281250000002
 30
0.0
 40
52.700000000000003
 50
21.716787545599999
 51
338.28321245439997
  0
ARC
  5
CC
  8
┌▓È_1
 62
     5
 10
-98.251562500000006
 20
288.98281250000002
 30
0.0
 40
19.0
 50
57.363102496400003
 51
302.63689750359998
  0
INSERT
  5
CE
  8
┌▓È_1
 62
     5
  2
CLUMP2
 10
0.0
 20
0.0
 30
0.0
  0
ARC
  5
D9
  8
┌▓È_1
 62
     5
 10
-123.25156250000001
 20
287.7994157494
 30
0.0
 40
1.0
 50
275.0
 51
0.0
  0
LINE
  5
DA
  8
┌▓È_1
  6
BORDER
 62
     3
 10
-98.251562500000006
 20
228.98281249999999
 30
0.0
 11
-98.251562500000006
 21
348.98281250000002
 31
0.0
  0
LINE
  5
DB
  8
┌▓È_1
  6
BORDER
 62
     3
 10
-98.251562500000006
 20
348.98281250000002
 30
0.0
 11
-98.251562500000006
 21
228.98281249999999
 31
0.0
  0
INSERT
  5
DD
  8
┌▓È_1
  6
STITCH
 62
     5
  2
CLUMP3
 10
0.0
 20
0.0
 30
0.0
  0
LINE
  5
FB
  8
┌▓È_1
  6
BORDER
 62
     3
 10
-98.251562500000006
 20
368.07462565099991
 30
0.0
 11
-98.251562500000006
 21
209.890999349
 31
0.0
  0
CIRCLE
  5
FC
  8
┌▓È_1
 62
     5
 10
-98.251562500000006
 20
288.98281250000002
 30
0.0
 40
71.0
  0
LINE
  5
FD
  8
┌▓È_1
 62
     5
 10
-59.650437930800003
 20
270.98281250000002
 30
0.0
 11
-57.961619501500003
 21
270.19530353319999
 31
0.0
  0
LINE
  5
FE
  8
┌▓È_1
 62
     5
 10
-75.401194392099995
 20
272.98281250000002
 30
0.0
 11
-74.751562500000006
 21
272.52793535209997
 31
0.0
  0
INSERT
  5
100
  8
┌▓È_1
 62
     5
  2
CLUMP4
 10
0.0
 20
0.0
 30
0.0
  0
ARC
  5
10B
  8
┌▓È_1
 62
     5
 10
-98.251562500000006
 20
288.98281250000002
 30
0.0
 40
39.0
 50
135.0
 51
145.0
  0
ARC
  5
10C
  8
┌▓È_1
 62
     5
 10
-98.251562500000006
 20
288.98281250000002
 30
0.0
 40
39.0
 50
75.0
 51
85.0
  0
INSERT
  5
10E
  8
┌▓È_1
 62
     5
  2
CLUMP5
 10
0.0
 20
0.0
 30
0.0
  0
LINE
  5
119
  8
┌▓È_1
 62
     5
 10
-122.25156250000001
 20
287.7994157494
 30
0.0
 11
-122.25156250000001
 21
290.16620925059999
 31
0.0
  0
INSERT
  5
11B
  8
┌▓È_1
 62
     5
  2
CLUMP6
 10
0.0
 20
0.0
 30
0.0
  0
INSERT
  5
127
  8
┌▓È_1
 62
     5
  2
CLUMP7
 10
0.0
 20
0.0
 30
0.0
  0
ARC
  5
132
  8
┌▓È_1
 62
     5
 10
-98.251562500000006
 20
288.98281250000002
 30
0.0
 40
39.0
 50
155.0
 51
165.0
  0
ARC
  5
133
  8
┌▓È_1
 62
     5
 10
-98.251562500000006
 20
288.98281250000002
 30
0.0
 40
39.0
 50
115.0
 51
125.0
  0
ARC
  5
134
  8
┌▓È_1
 62
     5
 10
-98.251562500000006
 20
288.98281250000002
 30
0.0
 40
39.0
 50
95.0
 51
105.0
  0
ARC
  5
135
  8
┌▓È_1
 62
     5
 10
-60.688978089000003
 20
265.12275691830001
 30
0.0
 40
2.0
 50
235.0
 51
327.57595892770013
  0
ARC
  5
136
  8
┌▓È_1
 62
     5
 10
-98.251562500000006
 20
288.98281250000002
 30
0.0
 40
39.0
 50
215.0
 51
225.0
  0
ARC
  5
137
  8
┌▓È_1
 62
     5
 10
-98.251562500000006
 20
288.98281250000002
 30
0.0
 40
39.0
 50
275.0
 51
285.0
  0
ARC
  5
138
  8
┌▓È_1
 62
     5
 10
-98.251562500000006
 20
288.98281250000002
 30
0.0
 40
39.0
 50
295.0
 51
305.0
  0
ARC
  5
139
  8
┌▓È_1
 62
     5
 10
-98.251562500000006
 20
288.98281250000002
 30
0.0
 40
39.0
 50
315.0
 51
325.0
  0
ARC
  5
13A
  8
┌▓È_1
 62
     5
 10
-98.251562500000006
 20
288.98281250000002
 30
0.0
 40
39.0
 50
235.0
 51
245.0
  0
ARC
  5
13B
  8
┌▓È_1
 62
     5
 10
-98.251562500000006
 20
288.98281250000002
 30
0.0
 40
39.0
 50
255.0
 51
265.0
  0
INSERT
  5
13D
  8
┌▓È_1
 62
     5
  2
CLUMP8
 10
0.0
 20
0.0
 30
0.0
  0
INSERT
  5
149
  8
┌▓È_1
 62
     5
  2
CLUMP9
 10
0.0
 20
0.0
 30
0.0
  0
INSERT
  5
155
  8
┌▓È_1
 62
     5
  2
CLUMP10
 10
0.0
 20
0.0
 30
0.0
  0
ARC
  5
160
  8
┌▓È_1
 62
     5
 10
-98.251562500000006
 20
288.98281250000002
 30
0.0
 40
39.0
 50
195.0
 51
205.0
  0
INSERT
  5
162
  8
┌▓È_1
 62
     5
  2
CLUMP11
 10
0.0
 20
0.0
 30
0.0
  0
INSERT
  5
16E
  8
┌▓È_1
 62
     5
  2
CLUMP12
 10
0.0
 20
0.0
 30
0.0
  0
LINE
  5
179
  8
┌▓È_1
 62
     5
 10
-45.894232545199998
 20
282.98281250000002
 30
0.0
 11
-45.592280317300002
 21
282.98281250000002
 31
0.0
  0
LINE
  5
17A
  8
┌▓È_1
 62
     5
 10
-92.251562500000006
 20
236.62548254519999
 30
0.0
 11
-92.251562500000006
 21
236.3235303173
 31
0.0
  0
INSERT
  5
17B
  8
0
  6
CONTINUOUS
  2
*U55
 10
0.0
 20
0.0
 30
0.0
  0
INSERT
  5
17C
  8
0
  6
CONTINUOUS
  2
*U56
 10
0.0
 20
0.0
 30
0.0
  0
INSERT
  5
17D
  8
0
  6
CONTINUOUS
  2
*U57
 10
0.0
 20
0.0
 30
0.0
  0
INSERT
  5
17E
  8
0
  6
CONTINUOUS
  2
*U58
 10
0.0
 20
0.0
 30
0.0
  0
LINE
  5
17F
  8
┌▓È_1
  6
BORDER
 62
     3
 10
-158.25156250000001
 20
288.98281250000002
 30
0.0
 11
-38.251562499999999
 21
288.98281250000002
 31
0.0
  0
LINE
  5
180
  8
┌▓È_1
  6
BORDER
 62
     3
 10
-158.25156250000001
 20
288.98281250000002
 30
0.0
 11
-38.251562499999999
 21
288.98281250000002
 31
0.0
  0
LINE
  5
181
  8
┌▓È_1
 62
     5
 10
-104.25156250000001
 20
341.3401424548
 30
0.0
 11
-104.25156250000001
 21
341.64209468270002
 31
0.0
  0
LINE
  5
182
  8
┌▓È_1
 62
     5
 10
-92.251562500000006
 20
341.3401424548
 30
0.0
 11
-92.251562500000006
 21
341.64209468270002
 31
0.0
  0
LINE
  5
183
  8
┌▓È_1
 62
     5
 10
-45.894232545199998
 20
294.98281250000002
 30
0.0
 11
-45.592280317300002
 21
294.98281250000002
 31
0.0
  0
LINE
  5
184
  8
┌▓È_1
 62
     5
 10
-150.60889245480001
 20
294.98281250000002
 30
0.0
 11
-150.9108446827
 21
294.98281250000002
 31
0.0
  0
ARC
  5
185
  8
┌▓È_1
 62
     5
 10
-71.114898741099992
 20
324.25109116559997
 30
0.0
 40
2.0
 50
52.424041072299993
 51
145.0
  0
ARC
  5
186
  8
┌▓È_1
 62
     5
 10
-98.251562500000006
 20
288.98281250000002
 30
0.0
 40
46.5
 50
47.575958927700007
 51
52.424041072299993
  0
ARC
  5
187
  8
┌▓È_1
 62
     5
 10
-68.231320444399998
 20
321.83148168039997
 30
0.0
 40
2.0
 50
315.0
 51
47.575958927599999
  0
ARC
  5
188
  8
┌▓È_1
 62
     5
 10
-84.826771424399993
 20
306.41195431990002
 30
0.0
 40
1.0
 50
145.0
 51
232.39474873489999
  0
INSERT
  5
189
  8
0
  6
CONTINUOUS
  2
*U59
 10
0.0
 20
0.0
 30
0.0
  0
INSERT
  5
18A
  8
0
  6
CONTINUOUS
  2
*U60
 10
0.0
 20
0.0
 30
0.0
  0
INSERT
  5
18B
  8
0
  6
CONTINUOUS
  2
*U61
 10
0.0
 20
0.0
 30
0.0
  0
ARC
  5
18C
  8
┌▓È_1
 62
     5
 10
-98.251562500000006
 20
288.98281250000002
 30
0.0
 40
39.0
 50
55.0
 51
65.0
  0
ARC
  5
18D
  8
┌▓È_1
 10
-98.251562500000006
 20
288.98281250000002
 30
0.0
 40
49.600000000000001
 50
80.0
 51
100.0
  0
SOLID
  5
18E
  8
┌▓È_1
 10
-89.638612887700006
 20
337.82927704939999
 30
0.0
 11
-92.902259945200001
 21
337.43813913029999
 31
0.0
 12
-91.939308489799998
 22
338.15941374850001
 32
0.0
 13
-91.939308489799998
 23
338.15941374850001
 33
0.0
  0
SOLID
  5
18F
  8
┌▓È_1
 10
-89.638612887700006
 20
337.82927704939999
 30
0.0
 11
-92.660583107999997
 21
339.12236520380009
 31
0.0
 12
-91.939308489799998
 22
338.15941374850001
 32
0.0
 13
-91.939308489799998
 23
338.15941374850001
 33
0.0
  0
SOLID
  5
190
  8
┌▓È_1
 10
-106.86451211230001
 20
337.82927704939999
 30
0.0
 11
-103.842541892
 21
339.12236520380009
 31
0.0
 12
-104.5638165102
 22
338.15941374850001
 32
0.0
 13
-104.5638165102
 23
338.15941374850001
 33
0.0
  0
SOLID
  5
191
  8
┌▓È_1
 10
-106.86451211230001
 20
337.82927704939999
 30
0.0
 11
-103.6008650548
 21
337.43813913029999
 31
0.0
 12
-104.5638165102
 22
338.15941374850001
 32
0.0
 13
-104.5638165102
 23
338.15941374850001
 33
0.0
  0
ARC
  5
192
  8
┌▓È_1
 62
     5
 10
-98.251562500000006
 20
288.98281250000002
 30
0.0
 40
39.0
 50
35.0
 51
45.0
  0
INSERT
  5
194
  8
┌▓È_1
 62
     5
  2
CLUMP13
 10
0.0
 20
0.0
 30
0.0
  0
INSERT
  5
1A0
  8
┌▓È_1
 62
     5
  2
CLUMP14
 10
0.0
 20
0.0
 30
0.0
  0
ARC
  5
1AB
  8
┌▓È_1
 62
     5
 10
-123.25156250000001
 20
290.16620925059999
 30
0.0
 40
1.0
 50
0.0
 51
85.0
  0
INSERT
  5
1AC
  8
0
  6
CONTINUOUS
  2
*U62
 10
0.0
 20
0.0
 30
0.0
  0
INSERT
  5
1AD
  8
0
  6
CONTINUOUS
  2
*U63
 10
0.0
 20
0.0
 30
0.0
  0
ENDBLK
  5
1AE
  8
0
  0
BLOCK
  8
0
  2
CLUMP2
 70
     0
 10
0.0
 20
0.0
 30
0.0
  3
CLUMP2
  1

  0
ARC
  5
D0
  8
┌▓È_1
 62
     5
 10
-120.05803761999999
 20
286.07117329800002
 30
0.0
 40
1.0
 50
7.6052512650999997
 51
95.0
  0
ARC
  5
D1
  8
┌▓È_1
 62
     5
 10
-98.251562500000006
 20
288.98281250000002
 30
0.0
 40
21.0
 50
187.60525126510001
 51
192.39474873489999
  0
ARC
  5
D2
  8
┌▓È_1
 62
     5
 10
-119.73878551280001
 20
284.26060462660001
 30
0.0
 40
1.0
 50
285.0
 51
12.3947487349
  0
ARC
  5
D3
  8
┌▓È_1
 62
     5
 10
-142.36311965159999
 20
283.11591164369997
 30
0.0
 40
2.0
 50
95.0
 51
187.57595892769999
  0
LINE
  5
D4
  8
┌▓È_1
 62
     5
 10
-120.1451933627
 20
287.06736799610002
 30
0.0
 11
-142.5374311370999
 21
285.10830103990003
 31
0.0
  0
ARC
  5
D5
  8
┌▓È_1
 62
     5
 10
-98.251562500000006
 20
288.98281250000002
 30
0.0
 40
46.5
 50
187.57595892769999
 51
192.42404107230001
  0
ARC
  5
D6
  8
┌▓È_1
 62
     5
 10
-141.7094655185
 20
279.4088548423
 30
0.0
 40
2.0
 50
192.42404107230001
 51
285.0
  0
LINE
  5
D7
  8
┌▓È_1
 62
     5
 10
-119.4799664677
 20
283.29467880030001
 30
0.0
 11
-141.1918274283
 21
277.47700318969999
 31
0.0
  0
ENDBLK
  5
D8
  8
0
  0
BLOCK
  8
0
  2
CLUMP3
 70
     0
 10
0.0
 20
0.0
 30
0.0
  3
CLUMP3
  1

  0
LINE
  5
DF
  8
┌▓È_1
 62
     5
 10
-48.251562499999999
 20
269.48281250000002
 30
0.0
 11
-51.251562499999991
 21
269.48281250000002
 31
0.0
  0
LINE
  5
E0
  8
┌▓È_1
 62
     5
 10
-51.251562499999991
 20
270.98281250000002
 30
0.0
 11
-62.251562499999999
 21
270.98281250000002
 31
0.0
  0
LINE
  5
E1
  8
┌▓È_1
 62
     5
 10
-48.251562499999999
 20
308.48281250000002
 30
0.0
 11
-51.251562499999991
 21
308.48281250000002
 31
0.0
  0
LINE
  5
E2
  8
┌▓È_1
 62
     5
 10
-51.251562499999991
 20
306.98281250000002
 30
0.0
 11
-62.251562499999999
 21
306.98281250000002
 31
0.0
  0
LINE
  5
E3
  8
┌▓È_1
 62
     5
 10
-67.439935528999996
 20
290.23281250000002
 30
0.0
 11
-67.439935528999996
 21
287.73281250000002
 31
0.0
  0
LINE
  5
E4
  8
┌▓È_1
 62
     5
 10
-67.439935528999996
 20
287.73281250000002
 30
0.0
 11
-76.845748628300001
 21
287.73281250000002
 31
0.0
  0
LINE
  5
E5
  8
┌▓È_1
 62
     5
 10
-74.751562500000006
 20
304.98281250000002
 30
0.0
 11
-74.751562500000006
 21
290.23281250000002
 31
0.0
  0
LINE
  5
E6
  8
┌▓È_1
 62
     5
 10
-72.751562500000006
 20
293.98281250000002
 30
0.0
 11
-96.901562500000011
 21
293.98281250000002
 31
0.0
  0
LINE
  5
E7
  8
┌▓È_1
 62
     5
 10
-98.251562500000006
 20
304.98281250000002
 30
0.0
 11
-74.751562500000006
 21
304.98281250000002
 31
0.0
  0
LINE
  5
E8
  8
┌▓È_1
 62
     5
 10
-62.251562499999999
 20
308.48281250000002
 30
0.0
 11
-65.251562500000006
 21
308.48281250000002
 31
0.0
  0
LINE
  5
E9
  8
┌▓È_1
 62
     5
 10
-65.251562500000006
 20
306.98281250000002
 30
0.0
 11
-73.751562500000006
 21
306.98281250000002
 31
0.0
  0
ARC
  5
EA
  8
┌▓È_1
 62
     5
 10
-73.751562500000006
 20
305.98281250000002
 30
0.0
 40
1.0
 50
90.0
 51
180.0
  0
LINE
  5
EB
  8
┌▓È_1
 62
     5
 10
-74.751562500000006
 20
305.98281250000002
 30
0.0
 11
-74.751562500000006
 21
304.98281250000002
 31
0.0
  0
LINE
  5
EC
  8
┌▓È_1
 62
     5
 10
-74.751562500000006
 20
287.73281250000002
 30
0.0
 11
-74.751562500000006
 21
272.98281250000002
 31
0.0
  0
LINE
  5
ED
  8
┌▓È_1
 62
     5
 10
-65.251562500000006
 20
308.48281250000002
 30
0.0
 11
-65.251562500000006
 21
269.48281250000002
 31
0.0
  0
LINE
  5
EE
  8
┌▓È_1
 62
     5
 10
-62.251562499999999
 20
308.48281250000002
 30
0.0
 11
-62.251562499999999
 21
269.48281250000002
 31
0.0
  0
ARC
  5
EF
  8
┌▓È_1
 62
     5
 10
-98.251562500000006
 20
288.98281250000002
 30
0.0
 40
16.0
 50
90.0
 51
270.0
  0
LINE
  5
F0
  8
┌▓È_1
 62
     5
 10
-96.901562500000011
 20
293.98281250000002
 30
0.0
 11
-96.901562500000011
 21
283.98281250000002
 31
0.0
  0
LINE
  5
F1
  8
┌▓È_1
 62
     5
 10
-67.439935528999996
 20
290.23281250000002
 30
0.0
 11
-76.845748628300001
 21
290.23281250000002
 31
0.0
  0
ARC
  5
F2
  8
┌▓È_1
 62
     5
 10
-73.751562500000006
 20
271.98281250000002
 30
0.0
 40
1.0
 50
180.0
 51
270.0
  0
LINE
  5
F3
  8
┌▓È_1
 62
     5
 10
-72.751562500000006
 20
283.98281250000002
 30
0.0
 11
-96.901562500000011
 21
283.98281250000002
 31
0.0
  0
LINE
  5
F4
  8
┌▓È_1
 62
     5
 10
-74.751562500000006
 20
272.98281250000002
 30
0.0
 11
-74.751562500000006
 21
271.98281250000002
 31
0.0
  0
LINE
  5
F5
  8
┌▓È_1
 62
     5
 10
-62.251562499999999
 20
269.48281250000002
 30
0.0
 11
-65.251562500000006
 21
269.48281250000002
 31
0.0
  0
LINE
  5
F6
  8
┌▓È_1
 62
     5
 10
-65.251562500000006
 20
270.98281250000002
 30
0.0
 11
-73.751562500000006
 21
270.98281250000002
 31
0.0
  0
LINE
  5
F7
  8
┌▓È_1
 62
     5
 10
-98.251562500000006
 20
272.98281250000002
 30
0.0
 11
-74.751562500000006
 21
272.98281250000002
 31
0.0
  0
LINE
  5
F8
  8
┌▓È_1
 62
     5
 10
-51.251562499999991
 20
308.48281250000002
 30
0.0
 11
-51.251562499999991
 21
269.48281250000002
 31
0.0
  0
LINE
  5
F9
  8
┌▓È_1
 62
     5
 10
-48.251562499999999
 20
308.48281250000002
 30
0.0
 11
-48.251562499999999
 21
269.48281250000002
 31
0.0
  0
ENDBLK
  5
FA
  8
0
  0
BLOCK
  8
0
  2
CLUMP4
 70
     0
 10
0.0
 20
0.0
 30
0.0
  3
CLUMP4
  1

  0
ARC
  5
102
  8
┌▓È_1
 62
     5
 10
-89.869878455599988
 20
309.32359352189991
 30
0.0
 40
1.0
 50
247.60525126510001
 51
335.0
  0
ARC
  5
103
  8
┌▓È_1
 62
     5
 10
-98.251562500000006
 20
288.98281250000002
 30
0.0
 40
21.0
 50
67.605251265100009
 51
72.394748734899991
  0
ARC
  5
104
  8
┌▓È_1
 62
     5
 10
-91.597502973999994
 20
309.95239742259997
 30
0.0
 40
1.0
 50
165.0
 51
252.39474873489999
  0
ARC
  5
105
  8
┌▓È_1
 62
     5
 10
-81.276669107199993
 20
330.11799202200001
 30
0.0
 40
2.0
 50
335.0
 51
67.5759589277
  0
LINE
  5
106
  8
┌▓È_1
 62
     5
 10
-88.963570668599999
 20
308.90097526009998
 30
0.0
 11
-79.464053533200001
 21
329.27275549849998
 31
0.0
  0
ARC
  5
107
  8
┌▓È_1
 62
     5
 10
-98.251562500000006
 20
288.98281250000002
 30
0.0
 40
46.5
 50
67.5759589277
 51
72.4240410723
  0
ARC
  5
108
  8
┌▓È_1
 62
     5
 10
-84.813901537099994
 20
331.4054393381
 30
0.0
 40
2.0
 50
72.4240410723
 51
165.0
  0
LINE
  5
109
  8
┌▓È_1
 62
     5
 10
-92.563428800300002
 20
310.21121646770001
 30
0.0
 11
-86.745753189699997
 21
331.92307742830002
 31
0.0
  0
ENDBLK
  5
10A
  8
0
  0
BLOCK
  8
0
  2
CLUMP5
 70
     0
 10
0.0
 20
0.0
 30
0.0
  3
CLUMP5
  1

  0
ARC
  5
110
  8
┌▓È_1
 62
     5
 10
-104.905622026
 20
309.95239742259997
 30
0.0
 40
1.0
 50
287.60525126509998
 51
15.0
  0
ARC
  5
111
  8
┌▓È_1
 62
     5
 10
-98.251562500000006
 20
288.98281250000002
 30
0.0
 40
21.0
 50
107.60525126509999
 51
112.39474873490001
  0
ARC
  5
112
  8
┌▓È_1
 62
     5
 10
-106.6332465444
 20
309.32359352189991
 30
0.0
 40
1.0
 50
205.0
 51
292.39474873490002
  0
ARC
  5
113
  8
┌▓È_1
 62
     5
 10
-111.6892234629
 20
331.4054393381
 30
0.0
 40
2.0
 50
15.0
 51
107.5759589277
  0
LINE
  5
114
  8
┌▓È_1
 62
     5
 10
-103.93969619969999
 20
310.21121646770001
 30
0.0
 11
-109.7573718103
 21
331.92307742830002
 31
0.0
  0
ARC
  5
115
  8
┌▓È_1
 62
     5
 10
-98.251562500000006
 20
288.98281250000002
 30
0.0
 40
46.5
 50
107.5759589277
 51
112.4240410723
  0
ARC
  5
116
  8
┌▓È_1
 62
     5
 10
-115.2264558928
 20
330.11799202200001
 30
0.0
 40
2.0
 50
112.4240410723
 51
205.0
  0
LINE
  5
117
  8
┌▓È_1
 62
     5
 10
-107.5395543314
 20
308.90097526009998
 30
0.0
 11
-117.0390714668
 21
329.27275549849998
 31
0.0
  0
ENDBLK
  5
118
  8
0
  0
BLOCK
  8
0
  2
CLUMP6
 70
     0
 10
0.0
 20
0.0
 30
0.0
  3
CLUMP6
  1

  0
ARC
  5
11D
  8
┌▓È_1
 62
     5
 10
-116.82785719260001
 20
300.76929948700001
 30
0.0
 40
1.0
 50
327.60525126509998
 51
55.0
  0
ARC
  5
11E
  8
┌▓È_1
 62
     5
 10
-98.251562500000006
 20
288.98281250000002
 30
0.0
 40
21.0
 50
147.60525126510001
 51
152.39474873489999
  0
ARC
  5
11F
  8
┌▓È_1
 62
     5
 10
-117.7471069984
 20
299.17711211850002
 30
0.0
 40
1.0
 50
245.0
 51
332.39474873490002
  0
ARC
  5
120
  8
┌▓È_1
 62
     5
 10
-135.81414691099999
 20
312.84286808169998
 30
0.0
 40
2.0
 50
55.0
 51
147.57595892769999
  0
LINE
  5
121
  8
┌▓È_1
 62
     5
 10
-116.2542807562
 20
301.5884515313
 30
0.0
 11
-134.6669940383
 21
314.4811721703
 31
0.0
  0
ARC
  5
122
  8
┌▓È_1
 62
     5
 10
-98.251562500000006
 20
288.98281250000002
 30
0.0
 40
46.5
 50
147.57595892769999
 51
152.42404107230001
  0
ARC
  5
123
  8
┌▓È_1
 62
     5
 10
-137.69626897500001
 20
309.58293704089999
 30
0.0
 40
2.0
 50
152.42404107230001
 51
245.0
  0
LINE
  5
124
  8
┌▓È_1
 62
     5
 10
-118.16972526009999
 20
298.27080433139997
 30
0.0
 11
-138.54150549849999
 21
307.7703214668
 31
0.0
  0
ENDBLK
  5
125
  8
0
  0
BLOCK
  8
0
  2
CLUMP7
 70
     0
 10
0.0
 20
0.0
 30
0.0
  3
CLUMP7
  1

  0
ARC
  5
129
  8
┌▓È_1
 62
     5
 10
-111.6763535756
 20
306.41195431990002
 30
0.0
 40
1.0
 50
307.60525126509998
 51
35.0
  0
ARC
  5
12A
  8
┌▓È_1
 62
     5
 10
-98.251562500000006
 20
288.98281250000002
 30
0.0
 40
21.0
 50
127.60525126509999
 51
132.39474873489999
  0
ARC
  5
12B
  8
┌▓È_1
 62
     5
 10
-113.08472598669999
 20
305.23018954909998
 30
0.0
 40
1.0
 50
225.0
 51
312.39474873490002
  0
ARC
  5
12C
  8
┌▓È_1
 62
     5
 10
-125.3882262589
 20
324.25109116559997
 30
0.0
 40
2.0
 50
35.0
 51
127.5759589277
  0
LINE
  5
12D
  8
┌▓È_1
 62
     5
 10
-110.85720153130001
 20
306.98553075619998
 30
0.0
 11
-123.7499221703
 21
325.39824403829999
 31
0.0
  0
ARC
  5
12E
  8
┌▓È_1
 62
     5
 10
-98.251562500000006
 20
288.98281250000002
 30
0.0
 40
46.5
 50
127.5759589277
 51
132.42404107230001
  0
ARC
  5
12F
  8
┌▓È_1
 62
     5
 10
-128.2718045556
 20
321.83148168039997
 30
0.0
 40
2.0
 50
132.42404107230001
 51
225.0
  0
LINE
  5
130
  8
┌▓È_1
 62
     5
 10
-113.7918327679
 20
304.52308276790001
 30
0.0
 11
-129.68601811799999
 21
320.41726811799998
 31
0.0
  0
ENDBLK
  5
131
  8
0
  0
BLOCK
  8
0
  2
CLUMP8
 70
     0
 10
0.0
 20
0.0
 30
0.0
  3
CLUMP8
  1

  0
ARC
  5
13F
  8
┌▓È_1
 62
     5
 10
-106.6332465444
 20
268.64203147810002
 30
0.0
 40
1.0
 50
67.605251265100009
 51
155.0
  0
ARC
  5
140
  8
┌▓È_1
 62
     5
 10
-98.251562500000006
 20
288.98281250000002
 30
0.0
 40
21.0
 50
247.60525126510001
 51
252.39474873489999
  0
ARC
  5
141
  8
┌▓È_1
 62
     5
 10
-104.905622026
 20
268.01322757740002
 30
0.0
 40
1.0
 50
345.0
 51
72.394748734899991
  0
ARC
  5
142
  8
┌▓È_1
 62
     5
 10
-115.2264558928
 20
247.84763297800001
 30
0.0
 40
2.0
 50
155.0
 51
247.5759589277001
  0
LINE
  5
143
  8
┌▓È_1
 62
     5
 10
-107.5395543314
 20
269.06464973990001
 30
0.0
 11
-117.0390714668
 21
248.69286950150001
 31
0.0
  0
ARC
  5
144
  8
┌▓È_1
 62
     5
 10
-98.251562500000006
 20
288.98281250000002
 30
0.0
 40
46.5
 50
247.5759589277001
 51
252.42404107230001
  0
ARC
  5
145
  8
┌▓È_1
 62
     5
 10
-111.6892234629
 20
246.56018566189999
 30
0.0
 40
2.0
 50
252.42404107230001
 51
345.0
  0
LINE
  5
146
  8
┌▓È_1
 62
     5
 10
-103.93969619969999
 20
267.75440853229998
 30
0.0
 11
-109.7573718103
 21
246.0425475717
 31
0.0
  0
ENDBLK
  5
147
  8
0
  0
BLOCK
  8
0
  2
CLUMP9
 70
     0
 10
0.0
 20
0.0
 30
0.0
  3
CLUMP9
  1

  0
ARC
  5
14B
  8
┌▓È_1
 62
     5
 10
-113.08472598669999
 20
272.73543545090001
 30
0.0
 40
1.0
 50
47.605251265100001
 51
135.0
  0
ARC
  5
14C
  8
┌▓È_1
 62
     5
 10
-98.251562500000006
 20
288.98281250000002
 30
0.0
 40
21.0
 50
227.60525126510001
 51
232.39474873489999
  0
ARC
  5
14D
  8
┌▓È_1
 62
     5
 10
-111.6763535756
 20
271.55367068010003
 30
0.0
 40
1.0
 50
325.0
 51
52.394748734899991
  0
ARC
  5
14E
  8
┌▓È_1
 62
     5
 10
-128.2718045556
 20
256.13414331960001
 30
0.0
 40
2.0
 50
135.0
 51
227.57595892769999
  0
LINE
  5
14F
  8
┌▓È_1
 62
     5
 10
-113.7918327679
 20
273.44254223209998
 30
0.0
 11
-129.68601811799999
 21
257.54835688200001
 31
0.0
  0
ARC
  5
150
  8
┌▓È_1
 62
     5
 10
-98.251562500000006
 20
288.98281250000002
 30
0.0
 40
46.5
 50
227.57595892769999
 51
232.42404107230001
  0
ARC
  5
151
  8
┌▓È_1
 62
     5
 10
-125.3882262589
 20
253.71453383439999
 30
0.0
 40
2.0
 50
232.42404107230001
 51
325.0
  0
LINE
  5
152
  8
┌▓È_1
 62
     5
 10
-110.85720153130001
 20
270.98009424380001
 30
0.0
 11
-123.7499221703
 21
252.5673809617
 31
0.0
  0
ENDBLK
  5
153
  8
0
  0
BLOCK
  8
0
  2
CLUMP10
 70
     0
 10
0.0
 20
0.0
 30
0.0
  3
CLUMP10
  1

  0
ARC
  5
157
  8
┌▓È_1
 62
     5
 10
-117.7471069984
 20
278.78851288150003
 30
0.0
 40
1.0
 50
27.605251265100001
 51
115.0
  0
ARC
  5
158
  8
┌▓È_1
 62
     5
 10
-98.251562500000006
 20
288.98281250000002
 30
0.0
 40
21.0
 50
207.60525126510001
 51
212.39474873489999
  0
ARC
  5
159
  8
┌▓È_1
 62
     5
 10
-116.82785719260001
 20
277.19632551299998
 30
0.0
 40
1.0
 50
305.0
 51
32.394748734899999
  0
ARC
  5
15A
  8
┌▓È_1
 62
     5
 10
-137.69626897500001
 20
268.3826879591
 30
0.0
 40
2.0
 50
115.0
 51
207.57595892769999
  0
LINE
  5
15B
  8
┌▓È_1
 62
     5
 10
-118.16972526009999
 20
279.69482066860002
 30
0.0
 11
-138.54150549849999
 21
270.19530353319999
 31
0.0
  0
ARC
  5
15C
  8
┌▓È_1
 62
     5
 10
-98.251562500000006
 20
288.98281250000002
 30
0.0
 40
46.5
 50
207.57595892769999
 51
212.42404107230001
  0
ARC
  5
15D
  8
┌▓È_1
 62
     5
 10
-135.81414691099999
 20
265.12275691830001
 30
0.0
 40
2.0
 50
212.42404107230001
 51
305.0
  0
LINE
  5
15E
  8
┌▓È_1
 62
     5
 10
-116.2542807562
 20
276.37717346869999
 30
0.0
 11
-134.6669940383
 21
263.48445282969999
 31
0.0
  0
ENDBLK
  5
15F
  8
0
  0
BLOCK
  8
0
  2
CLUMP11
 70
     0
 10
0.0
 20
0.0
 30
0.0
  3
CLUMP11
  1

  0
ARC
  5
164
  8
┌▓È_1
 62
     5
 10
-91.597502973999994
 20
268.01322757740002
 30
0.0
 40
1.0
 50
107.60525126509999
 51
195.0
  0
ARC
  5
165
  8
┌▓È_1
 62
     5
 10
-98.251562500000006
 20
288.98281250000002
 30
0.0
 40
21.0
 50
287.60525126509998
 51
292.39474873490002
  0
ARC
  5
166
  8
┌▓È_1
 62
     5
 10
-89.869878455599988
 20
268.64203147810002
 30
0.0
 40
1.0
 50
25.0
 51
112.39474873490001
  0
ARC
  5
167
  8
┌▓È_1
 62
     5
 10
-84.813901537099994
 20
246.56018566189999
 30
0.0
 40
2.0
 50
195.0
 51
287.57595892770001
  0
LINE
  5
168
  8
┌▓È_1
 62
     5
 10
-92.563428800300002
 20
267.75440853229998
 30
0.0
 11
-86.745753189699997
 21
246.0425475717
 31
0.0
  0
ARC
  5
169
  8
┌▓È_1
 62
     5
 10
-98.251562500000006
 20
288.98281250000002
 30
0.0
 40
46.5
 50
287.57595892770001
 51
292.4240410723001
  0
ARC
  5
16A
  8
┌▓È_1
 62
     5
 10
-81.276669107199993
 20
247.84763297800001
 30
0.0
 40
2.0
 50
292.4240410723001
 51
25.0
  0
LINE
  5
16B
  8
┌▓È_1
 62
     5
 10
-88.963570668599999
 20
269.06464973990001
 30
0.0
 11
-79.464053533200001
 21
248.69286950150001
 31
0.0
  0
ENDBLK
  5
16C
  8
0
  0
BLOCK
  8
0
  2
CLUMP12
 70
     0
 10
0.0
 20
0.0
 30
0.0
  3
CLUMP12
  1

  0
ARC
  5
170
  8
┌▓È_1
 62
     5
 10
-99.170812305799998
 20
267.00202589449998
 30
0.0
 40
1.0
 50
87.605251265100009
 51
175.0
  0
ARC
  5
171
  8
┌▓È_1
 62
     5
 10
-98.251562500000006
 20
288.98281250000002
 30
0.0
 40
21.0
 50
267.60525126509998
 51
272.39474873490002
  0
ARC
  5
172
  8
┌▓È_1
 62
     5
 10
-97.332312694199999
 20
267.00202589449998
 30
0.0
 40
1.0
 50
5.0
 51
92.394748734899991
  0
ARC
  5
173
  8
┌▓È_1
 62
     5
 10
-100.13368456400001
 20
244.52263237739999
 30
0.0
 40
2.0
 50
175.0
 51
267.57595892770001
  0
LINE
  5
174
  8
┌▓È_1
 62
     5
 10
-100.1670070039
 20
267.08918163729999
 30
0.0
 11
-102.1260739601
 21
244.69694386290001
 31
0.0
  0
ARC
  5
175
  8
┌▓È_1
 62
     5
 10
-98.251562500000006
 20
288.98281250000002
 30
0.0
 40
46.5
 50
267.57595892770001
 51
272.42404107229999
  0
ARC
  5
176
  8
┌▓È_1
 62
     5
 10
-96.369440436000005
 20
244.52263237739999
 30
0.0
 40
2.0
 50
272.42404107229999
 51
5.0
  0
LINE
  5
177
  8
┌▓È_1
 62
     5
 10
-96.336117996100015
 20
267.08918163729999
 30
0.0
 11
-94.377051039899996
 21
244.69694386290001
 31
0.0
  0
ENDBLK
  5
178
  8
0
  0
BLOCK
  8
0
  2
CLUMP13
 70
     0
 10
0.0
 20
0.0
 30
0.0
  3
CLUMP13
  1

  0
ARC
  5
196
  8
┌▓È_1
 62
     5
 10
-97.332312694199999
 20
310.96359910550001
 30
0.0
 40
1.0
 50
267.60525126509998
 51
355.0
  0
ARC
  5
197
  8
┌▓È_1
 62
     5
 10
-98.251562500000006
 20
288.98281250000002
 30
0.0
 40
21.0
 50
87.605251265100009
 51
92.394748734899991
  0
ARC
  5
198
  8
┌▓È_1
 62
     5
 10
-99.170812305799998
 20
310.96359910550001
 30
0.0
 40
1.0
 50
185.0
 51
272.39474873490002
  0
ARC
  5
199
  8
┌▓È_1
 62
     5
 10
-96.369440436000005
 20
333.4429926226
 30
0.0
 40
2.0
 50
355.0
 51
87.5759589277
  0
LINE
  5
19A
  8
┌▓È_1
 62
     5
 10
-96.336117996100015
 20
310.8764433627
 30
0.0
 11
-94.377051039899996
 21
333.26868113709997
 31
0.0
  0
ARC
  5
19B
  8
┌▓È_1
 62
     5
 10
-98.251562500000006
 20
288.98281250000002
 30
0.0
 40
46.5
 50
87.5759589277
 51
92.424041072299985
  0
ARC
  5
19C
  8
┌▓È_1
 62
     5
 10
-100.13368456400001
 20
333.4429926226
 30
0.0
 40
2.0
 50
92.424041072299985
 51
185.0
  0
LINE
  5
19D
  8
┌▓È_1
 62
     5
 10
-100.1670070039
 20
310.8764433627
 30
0.0
 11
-102.1260739601
 21
333.26868113709997
 31
0.0
  0
ENDBLK
  5
19E
  8
0
  0
BLOCK
  8
0
  2
CLUMP14
 70
     0
 10
0.0
 20
0.0
 30
0.0
  3
CLUMP14
  1

  0
ARC
  5
1A2
  8
┌▓È_1
 62
     5
 10
-119.73878551280001
 20
293.70502037339992
 30
0.0
 40
1.0
 50
347.60525126509998
 51
75.0
  0
ARC
  5
1A3
  8
┌▓È_1
 62
     5
 10
-98.251562500000006
 20
288.98281250000002
 30
0.0
 40
21.0
 50
167.60525126510001
 51
172.39474873489999
  0
ARC
  5
1A4
  8
┌▓È_1
 62
     5
 10
-120.05803761999999
 20
291.89445170200003
 30
0.0
 40
1.0
 50
265.0
 51
352.39474873490002
  0
ARC
  5
1A5
  8
┌▓È_1
 62
     5
 10
-141.7094655185
 20
298.55677015769999
 30
0.0
 40
2.0
 50
75.0
 51
167.57595892769999
  0
LINE
  5
1A6
  8
┌▓È_1
 62
     5
 10
-119.4799664677
 20
294.67094619969998
 30
0.0
 11
-141.1918274283
 21
300.4886218103
 31
0.0
  0
ARC
  5
1A7
  8
┌▓È_1
 62
     5
 10
-98.251562500000006
 20
288.98281250000002
 30
0.0
 40
46.5
 50
167.57595892769999
 51
172.42404107230001
  0
ARC
  5
1A8
  8
┌▓È_1
 62
     5
 10
-142.36311965159999
 20
294.84971335630001
 30
0.0
 40
2.0
 50
172.42404107230001
 51
265.0
  0
LINE
  5
1A9
  8
┌▓È_1
 62
     5
 10
-120.1451933627
 20
290.89825700390003
 30
0.0
 11
-142.5374311370999
 21
292.85732396010002
 31
0.0
  0
ENDBLK
  5
1AA
  8
0
  0
BLOCK
  8
0
  2
*D23
 70
     1
 10
0.0
 20
0.0
 30
0.0
  3
*D23
  1

  0
TEXT
  5
1B3
  8
0
 62
     0
 10
88.607029819500013
 20
433.10781297680001
 30
0.0
 40
17.9916661263
  1
320
 50
90.0
  0
LINE
  5
1B4
  8
0
 62
     0
 10
0.7484375
 20
288.98281250000002
 30
0.0
 11
101.7820297241
 21
288.98281250000002
 31
0.0
  0
LINE
  5
1B5
  8
0
 62
     0
 10
24.748437500000001
 20
608.98281250000002
 30
0.0
 11
101.7820297241
 21
608.98281250000002
 31
0.0
  0
LINE
  5
1B6
  8
0
 62
     0
 10
96.782029724099999
 20
288.98281250000002
 30
0.0
 11
96.782029724099999
 21
475.44114503859993
 31
0.0
  0
LINE
  5
1B7
  8
0
 62
     0
 10
96.782029724099999
 20
288.98281250000002
 30
0.0
 11
96.782029724099999
 21
422.52447996139989
 31
0.0
  0
LINE
  5
1B8
  8
0
 62
     0
 10
96.782029724099999
 20
608.98281250000002
 30
0.0
 11
96.782029724099999
 21
475.44114503859993
 31
0.0
  0
LINE
  5
1B9
  8
0
 62
     0
 10
96.782029724099999
 20
608.98281250000002
 30
0.0
 11
96.782029724099999
 21
422.52447996139989
 31
0.0
  0
LINE
  5
1BA
  8
0
 62
     0
 10
96.782029724099999
 20
608.98281250000002
 30
0.0
 11
96.782029724099999
 21
583.98281250000002
 31
0.0
  0
SOLID
  5
1BB
  8
0
 62
     0
 10
96.782029724099999
 20
608.98281250000002
 30
0.0
 11
99.370220279700007
 21
599.32355461120005
 31
0.0
 12
94.193839168500006
 22
599.32355461120005
 32
0.0
 13
96.782029724099999
 23
601.73836908340002
 33
0.0
  0
LINE
  5
1BC
  8
0
 62
     0
 10
96.782029724099999
 20
288.98281250000002
 30
0.0
 11
96.782029724099999
 21
313.98281250000002
 31
0.0
  0
SOLID
  5
1BD
  8
0
 62
     0
 10
96.782029724099999
 20
288.98281250000002
 30
0.0
 11
94.193839168500006
 21
298.64207038879999
 31
0.0
 12
99.370220279700007
 22
298.64207038879999
 32
0.0
 13
96.782029724099999
 23
296.22725591659997
 33
0.0
  0
ENDBLK
  5
1BE
  8
0
  0
BLOCK
  8
0
  2
*D24
 70
     1
 10
0.0
 20
0.0
 30
0.0
  3
*D24
  1

  0
TEXT
  5
1C2
  8
0
 62
     0
 10
-52.626562023199988
 20
657.15781240459989
 30
0.0
 40
17.9916661263
  1
123
  0
LINE
  5
1C3
  8
0
 62
     0
 10
24.748437500000001
 20
608.98281250000002
 30
0.0
 11
24.748437500000001
 21
653.98281250000002
 31
0.0
  0
LINE
  5
1C4
  8
0
 62
     0
 10
-98.251562500000006
 20
383.98281250000002
 30
0.0
 11
-98.251562500000006
 21
653.98281250000002
 31
0.0
  0
LINE
  5
1C5
  8
0
 62
     0
 10
24.748437500000001
 20
648.98281250000002
 30
0.0
 11
-10.2932299614
 21
648.98281250000002
 31
0.0
  0
LINE
  5
1C6
  8
0
 62
     0
 10
24.748437500000001
 20
648.98281250000002
 30
0.0
 11
-63.209895038599988
 21
648.98281250000002
 31
0.0
  0
LINE
  5
1C7
  8
0
 62
     0
 10
-98.251562500000006
 20
648.98281250000002
 30
0.0
 11
-10.2932299614
 21
648.98281250000002
 31
0.0
  0
LINE
  5
1C8
  8
0
 62
     0
 10
-98.251562500000006
 20
648.98281250000002
 30
0.0
 11
-63.209895038599988
 21
648.98281250000002
 31
0.0
  0
LINE
  5
1C9
  8
0
 62
     0
 10
-98.251562500000006
 20
648.98281250000002
 30
0.0
 11
-73.251562500000006
 21
648.98281250000002
 31
0.0
  0
SOLID
  5
1CA
  8
0
 62
     0
 10
-98.251562500000006
 20
648.98281250000002
 30
0.0
 11
-88.592304611200007
 21
651.57100305559993
 31
0.0
 12
-88.592304611200007
 22
646.39462194439989
 32
0.0
 13
-91.007119083399999
 23
648.98281250000002
 33
0.0
  0
LINE
  5
1CB
  8
0
 62
     0
 10
24.748437500000001
 20
648.98281250000002
 30
0.0
 11
-0.2515625
 21
648.98281250000002
 31
0.0
  0
SOLID
  5
1CC
  8
0
 62
     0
 10
24.748437500000001
 20
648.98281250000002
 30
0.0
 11
15.089179611200001
 21
646.39462194439989
 31
0.0
 12
15.089179611200001
 22
651.57100305559993
 32
0.0
 13
17.503994083399999
 23
648.98281250000002
 33
0.0
  0
ENDBLK
  5
1CD
  8
0
  0
BLOCK
  8
0
  2
CLUMP15
 70
     0
 10
0.0
 20
0.0
 30
0.0
  3
CLUMP15
  1

  0
INSERT
  5
1D3
  8
┌▓È_1
  6
BORDER
  2
CLUMP16
 10
0.0
 20
0.0
 30
0.0
  0
LINE
  5
20F
  8
┌▓È_1
 62
     5
 10
393.35559895829999
 20
215.9828125354
 30
0.0
 11
393.35559895829999
 21
361.9828125354
 31
0.0
  0
ARC
  5
210
  8
┌▓È_1
 62
     5
 10
390.35559895829999
 20
215.9828125354
 30
0.0
 40
3.0
 50
270.0
 51
360.0
  0
LINE
  5
211
  8
┌▓È_1
 62
     5
 10
390.35559895829999
 20
212.9828125354
 30
0.0
 11
386.35559895829999
 21
212.9828125354
 31
0.0
  0
LINE
  5
212
  8
┌▓È_1
 62
     5
 10
390.35559895829999
 20
364.9828125354
 30
0.0
 11
386.35559895829999
 21
364.9828125354
 31
0.0
  0
LINE
  5
213
  8
┌▓È_1
  6
BORDER
 62
     3
 10
429.47903645830002
 20
288.9828125354
 30
0.0
 11
355.693359375
 21
288.9828125354
 31
0.0
  0
ARC
  5
214
  8
┌▓È_1
 62
     5
 10
390.35559895829999
 20
361.9828125354
 30
0.0
 40
3.0
 50
0.0
 51
90.0
  0
ENDBLK
  5
215
  8
0
  0
BLOCK
  8
0
  2
CLUMP16
 70
     0
 10
0.0
 20
0.0
 30
0.0
  3
CLUMP16
  1

  0
ARC
  5
1D5
  8
┌▓È_1
 10
447.15559896280001
 20
288.98281252570001
 30
0.0
 40
36.5
 50
201.32906313820001
 51
217.90400948000001
  0
LINE
  5
1D6
  8
┌▓È_1
 62
     5
 10
419.34323486480002
 20
231.5498253568
 30
0.0
 11
419.34323486779988
 21
265.34550296129999
 31
0.0
  0
LINE
  5
1D7
  8
┌▓È_1
 62
     5
 10
401.15559895299998
 20
228.98281253650001
 30
0.0
 11
412.15559895299998
 21
228.98281253549999
 31
0.0
  0
LINE
  5
1D8
  8
┌▓È_1
 62
     5
 10
395.65559895180002
 20
214.9828125347
 30
0.0
 11
398.65559895180002
 21
214.9828125345
 31
0.0
  0
POLYLINE
  5
1D9
  8
┌▓È_1
 62
     5
 10
395.65559895175568
 20
214.9828125347
 30
0.0
 66
     1
 70
     8
  0
VERTEX
  8
┌▓È_1
  5
59D
 10
395.656
 20
214.983
 30
0.000000
  70
    32
  0
VERTEX
  8
┌▓È_1
  5
59E
 10
395.649
 20
214.983
 30
0.000000
  70
    32
  0
VERTEX
  8
┌▓È_1
  5
59F
 10
395.643
 20
214.983
 30
0.000000
  70
    32
  0
VERTEX
  8
┌▓È_1
  5
5A0
 10
395.637
 20
214.983
 30
0.000000
  70
    32
  0
VERTEX
  8
┌▓È_1
  5
5A1
 10
395.631
 20
214.983
 30
0.000000
  70
    32
  0
VERTEX
  8
┌▓È_1
  5
5A2
 10
395.625
 20
214.984
 30
0.000000
  70
    32
  0
VERTEX
  8
┌▓È_1
  5
5A3
 10
395.619
 20
214.984
 30
0.000000
  70
    32
  0
VERTEX
  8
┌▓È_1
  5
5A4
 10
395.613
 20
214.985
 30
0.000000
  70
    32
  0
VERTEX
  8
┌▓È_1
  5
5A5
 10
395.607
 20
214.985
 30
0.000000
  70
    32
  0
VERTEX
  8
┌▓È_1
  5
5A6
 10
395.600
 20
214.986
 30
0.000000
  70
    32
  0
VERTEX
  8
┌▓È_1
  5
5A7
 10
395.594
 20
214.987
 30
0.000000
  70
    32
  0
VERTEX
  8
┌▓È_1
  5
5A8
 10
395.588
 20
214.987
 30
0.000000
  70
    32
  0
VERTEX
  8
┌▓È_1
  5
5A9
 10
395.582
 20
214.988
 30
0.000000
  70
    32
  0
VERTEX
  8
┌▓È_1
  5
5AA
 10
395.576
 20
214.989
 30
0.000000
  70
    32
  0
VERTEX
  8
┌▓È_1
  5
5AB
 10
395.570
 20
214.990
 30
0.000000
  70
    32
  0
VERTEX
  8
┌▓È_1
  5
5AC
 10
395.564
 20
214.991
 30
0.000000
  70
    32
  0
VERTEX
  8
┌▓È_1
  5
5AD
 10
395.558
 20
214.992
 30
0.000000
  70
    32
  0
VERTEX
  8
┌▓È_1
  5
5AE
 10
395.552
 20
214.994
 30
0.000000
  70
    32
  0
VERTEX
  8
┌▓È_1
  5
5AF
 10
395.546
 20
214.995
 30
0.000000
  70
    32
  0
VERTEX
  8
┌▓È_1
  5
5B0
 10
395.540
 20
214.996
 30
0.000000
  70
    32
  0
VERTEX
  8
┌▓È_1
  5
5B1
 10
395.534
 20
214.998
 30
0.000000
  70
    32
  0
VERTEX
  8
┌▓È_1
  5
5B2
 10
395.528
 20
214.999
 30
0.000000
  70
    32
  0
VERTEX
  8
┌▓È_1
  5
5B3
 10
395.522
 20
215.001
 30
0.000000
  70
    32
  0
VERTEX
  8
┌▓È_1
  5
5B4
 10
395.516
 20
215.003
 30
0.000000
  70
    32
  0
VERTEX
  8
┌▓È_1
  5
5B5
 10
395.510
 20
215.004
 30
0.000000
  70
    32
  0
VERTEX
  8
┌▓È_1
  5
5B6
 10
395.505
 20
215.006
 30
0.000000
  70
    32
  0
VERTEX
  8
┌▓È_1
  5
5B7
 10
395.499
 20
215.008
 30
0.000000
  70
    32
  0
VERTEX
  8
┌▓È_1
  5
5B8
 10
395.493
 20
215.010
 30
0.000000
  70
    32
  0
VERTEX
  8
┌▓È_1
  5
5B9
 10
395.487
 20
215.012
 30
0.000000
  70
    32
  0
VERTEX
  8
┌▓È_1
  5
5BA
 10
395.481
 20
215.014
 30
0.000000
  70
    32
  0
VERTEX
  8
┌▓È_1
  5
5BB
 10
395.476
 20
215.016
 30
0.000000
  70
    32
  0
VERTEX
  8
┌▓È_1
  5
5BC
 10
395.470
 20
215.019
 30
0.000000
  70
    32
  0
VERTEX
  8
┌▓È_1
  5
5BD
 10
395.464
 20
215.021
 30
0.000000
  70
    32
  0
VERTEX
  8
┌▓È_1
  5
5BE
 10
395.459
 20
215.023
 30
0.000000
  70
    32
  0
VERTEX
  8
┌▓È_1
  5
5BF
 10
395.453
 20
215.026
 30
0.000000
  70
    32
  0
VERTEX
  8
┌▓È_1
  5
5C0
 10
395.447
 20
215.028
 30
0.000000
  70
    32
  0
VERTEX
  8
┌▓È_1
  5
5C1
 10
395.442
 20
215.031
 30
0.000000
  70
    32
  0
VERTEX
  8
┌▓È_1
  5
5C2
 10
395.436
 20
215.033
 30
0.000000
  70
    32
  0
VERTEX
  8
┌▓È_1
  5
5C3
 10
395.431
 20
215.036
 30
0.000000
  70
    32
  0
VERTEX
  8
┌▓È_1
  5
5C4
 10
395.425
 20
215.039
 30
0.000000
  70
    32
  0
VERTEX
  8
┌▓È_1
  5
5C5
 10
395.420
 20
215.042
 30
0.000000
  70
    32
  0
VERTEX
  8
┌▓È_1
  5
5C6
 10
395.415
 20
215.045
 30
0.000000
  70
    32
  0
VERTEX
  8
┌▓È_1
  5
5C7
 10
395.409
 20
215.048
 30
0.000000
  70
    32
  0
VERTEX
  8
┌▓È_1
  5
5C8
 10
395.404
 20
215.051
 30
0.000000
  70
    32
  0
VERTEX
  8
┌▓È_1
  5
5C9
 10
395.399
 20
215.054
 30
0.000000
  70
    32
  0
VERTEX
  8
┌▓È_1
  5
5CA
 10
395.393
 20
215.057
 30
0.000000
  70
    32
  0
VERTEX
  8
┌▓È_1
  5
5CB
 10
395.388
 20
215.060
 30
0.000000
  70
    32
  0
VERTEX
  8
┌▓È_1
  5
5CC
 10
395.383
 20
215.064
 30
0.000000
  70
    32
  0
VERTEX
  8
┌▓È_1
  5
5CD
 10
395.378
 20
215.067
 30
0.000000
  70
    32
  0
VERTEX
  8
┌▓È_1
  5
5CE
 10
395.373
 20
215.071
 30
0.000000
  70
    32
  0
VERTEX
  8
┌▓È_1
  5
5CF
 10
395.368
 20
215.074
 30
0.000000
  70
    32
  0
VERTEX
  8
┌▓È_1
  5
5D0
 10
395.363
 20
215.078
 30
0.000000
  70
    32
  0
VERTEX
  8
┌▓È_1
  5
5D1
 10
395.358
 20
215.081
 30
0.000000
  70
    32
  0
VERTEX
  8
┌▓È_1
  5
5D2
 10
395.353
 20
215.085
 30
0.000000
  70
    32
  0
VERTEX
  8
┌▓È_1
  5
5D3
 10
395.348
 20
215.089
 30
0.000000
  70
    32
  0
VERTEX
  8
┌▓È_1
  5
5D4
 10
395.343
 20
215.092
 30
0.000000
  70
    32
  0
VERTEX
  8
┌▓È_1
  5
5D5
 10
395.338
 20
215.096
 30
0.000000
  70
    32
  0
VERTEX
  8
┌▓È_1
  5
5D6
 10
395.334
 20
215.100
 30
0.000000
  70
    32
  0
VERTEX
  8
┌▓È_1
  5
5D7
 10
395.329
 20
215.104
 30
0.000000
  70
    32
  0
VERTEX
  8
┌▓È_1
  5
5D8
 10
395.324
 20
215.108
 30
0.000000
  70
    32
  0
VERTEX
  8
┌▓È_1
  5
5D9
 10
395.320
 20
215.112
 30
0.000000
  70
    32
  0
VERTEX
  8
┌▓È_1
  5
5DA
 10
395.315
 20
215.116
 30
0.000000
  70
    32
  0
VERTEX
  8
┌▓È_1
  5
5DB
 10
395.311
 20
215.121
 30
0.000000
  70
    32
  0
VERTEX
  8
┌▓È_1
  5
5DC
 10
395.306
 20
215.125
 30
0.000000
  70
    32
  0
VERTEX
  8
┌▓È_1
  5
5DD
 10
395.302
 20
215.129
 30
0.000000
  70
    32
  0
VERTEX
  8
┌▓È_1
  5
5DE
 10
395.298
 20
215.134
 30
0.000000
  70
    32
  0
VERTEX
  8
┌▓È_1
  5
5DF
 10
395.293
 20
215.138
 30
0.000000
  70
    32
  0
VERTEX
  8
┌▓È_1
  5
5E0
 10
395.289
 20
215.143
 30
0.000000
  70
    32
  0
VERTEX
  8
┌▓È_1
  5
5E1
 10
395.285
 20
215.147
 30
0.000000
  70
    32
  0
VERTEX
  8
┌▓È_1
  5
5E2
 10
395.281
 20
215.152
 30
0.000000
  70
    32
  0
VERTEX
  8
┌▓È_1
  5
5E3
 10
395.277
 20
215.156
 30
0.000000
  70
    32
  0
VERTEX
  8
┌▓È_1
  5
5E4
 10
395.273
 20
215.161
 30
0.000000
  70
    32
  0
VERTEX
  8
┌▓È_1
  5
5E5
 10
395.269
 20
215.166
 30
0.000000
  70
    32
  0
VERTEX
  8
┌▓È_1
  5
5E6
 10
395.265
 20
215.170
 30
0.000000
  70
    32
  0
VERTEX
  8
┌▓È_1
  5
5E7
 10
395.261
 20
215.175
 30
0.000000
  70
    32
  0
VERTEX
  8
┌▓È_1
  5
5E8
 10
395.258
 20
215.180
 30
0.000000
  70
    32
  0
VERTEX
  8
┌▓È_1
  5
5E9
 10
395.254
 20
215.185
 30
0.000000
  70
    32
  0
VERTEX
  8
┌▓È_1
  5
5EA
 10
395.250
 20
215.190
 30
0.000000
  70
    32
  0
VERTEX
  8
┌▓È_1
  5
5EB
 10
395.247
 20
215.195
 30
0.000000
  70
    32
  0
VERTEX
  8
┌▓È_1
  5
5EC
 10
395.243
 20
215.200
 30
0.000000
  70
    32
  0
VERTEX
  8
┌▓È_1
  5
5ED
 10
395.240
 20
215.205
 30
0.000000
  70
    32
  0
VERTEX
  8
┌▓È_1
  5
5EE
 10
395.236
 20
215.210
 30
0.000000
  70
    32
  0
VERTEX
  8
┌▓È_1
  5
5EF
 10
395.233
 20
215.215
 30
0.000000
  70
    32
  0
VERTEX
  8
┌▓È_1
  5
5F0
 10
395.230
 20
215.221
 30
0.000000
  70
    32
  0
VERTEX
  8
┌▓È_1
  5
5F1
 10
395.227
 20
215.226
 30
0.000000
  70
    32
  0
VERTEX
  8
┌▓È_1
  5
5F2
 10
395.224
 20
215.231
 30
0.000000
  70
    32
  0
VERTEX
  8
┌▓È_1
  5
5F3
 10
395.221
 20
215.236
 30
0.000000
  70
    32
  0
VERTEX
  8
┌▓È_1
  5
5F4
 10
395.218
 20
215.242
 30
0.000000
  70
    32
  0
VERTEX
  8
┌▓È_1
  5
5F5
 10
395.215
 20
215.247
 30
0.000000
  70
    32
  0
VERTEX
  8
┌▓È_1
  5
5F6
 10
395.212
 20
215.253
 30
0.000000
  70
    32
  0
VERTEX
  8
┌▓È_1
  5
5F7
 10
395.209
 20
215.258
 30
0.000000
  70
    32
  0
VERTEX
  8
┌▓È_1
  5
5F8
 10
395.206
 20
215.264
 30
0.000000
  70
    32
  0
VERTEX
  8
┌▓È_1
  5
5F9
 10
395.204
 20
215.269
 30
0.000000
  70
    32
  0
VERTEX
  8
┌▓È_1
  5
5FA
 10
395.201
 20
215.275
 30
0.000000
  70
    32
  0
VERTEX
  8
┌▓È_1
  5
5FB
 10
395.198
 20
215.280
 30
0.000000
  70
    32
  0
VERTEX
  8
┌▓È_1
  5
5FC
 10
395.196
 20
215.286
 30
0.000000
  70
    32
  0
VERTEX
  8
┌▓È_1
  5
5FD
 10
395.194
 20
215.291
 30
0.000000
  70
    32
  0
VERTEX
  8
┌▓È_1
  5
5FE
 10
395.191
 20
215.297
 30
0.000000
  70
    32
  0
VERTEX
  8
┌▓È_1
  5
5FF
 10
395.189
 20
215.303
 30
0.000000
  70
    32
  0
VERTEX
  8
┌▓È_1
  5
600
 10
395.187
 20
215.309
 30
0.000000
  70
    32
  0
VERTEX
  8
┌▓È_1
  5
601
 10
395.185
 20
215.314
 30
0.000000
  70
    32
  0
VERTEX
  8
┌▓È_1
  5
602
 10
395.183
 20
215.320
 30
0.000000
  70
    32
  0
VERTEX
  8
┌▓È_1
  5
603
 10
395.181
 20
215.326
 30
0.000000
  70
    32
  0
VERTEX
  8
┌▓È_1
  5
604
 10
395.179
 20
215.332
 30
0.000000
  70
    32
  0
VERTEX
  8
┌▓È_1
  5
605
 10
395.177
 20
215.338
 30
0.000000
  70
    32
  0
VERTEX
  8
┌▓È_1
  5
606
 10
395.175
 20
215.344
 30
0.000000
  70
    32
  0
VERTEX
  8
┌▓È_1
  5
607
 10
395.174
 20
215.349
 30
0.000000
  70
    32
  0
VERTEX
  8
┌▓È_1
  5
608
 10
395.172
 20
215.355
 30
0.000000
  70
    32
  0
VERTEX
  8
┌▓È_1
  5
609
 10
395.171
 20
215.361
 30
0.000000
  70
    32
  0
VERTEX
  8
┌▓È_1
  5
60A
 10
395.169
 20
215.367
 30
0.000000
  70
    32
  0
VERTEX
  8
┌▓È_1
  5
60B
 10
395.168
 20
215.373
 30
0.000000
  70
    32
  0
VERTEX
  8
┌▓È_1
  5
60C
 10
395.166
 20
215.379
 30
0.000000
  70
    32
  0
VERTEX
  8
┌▓È_1
  5
60D
 10
395.165
 20
215.385
 30
0.000000
  70
    32
  0
VERTEX
  8
┌▓È_1
  5
60E
 10
395.164
 20
215.391
 30
0.000000
  70
    32
  0
VERTEX
  8
┌▓È_1
  5
60F
 10
395.163
 20
215.397
 30
0.000000
  70
    32
  0
VERTEX
  8
┌▓È_1
  5
610
 10
395.162
 20
215.403
 30
0.000000
  70
    32
  0
VERTEX
  8
┌▓È_1
  5
611
 10
395.161
 20
215.409
 30
0.000000
  70
    32
  0
VERTEX
  8
┌▓È_1
  5
612
 10
395.160
 20
215.416
 30
0.000000
  70
    32
  0
VERTEX
  8
┌▓È_1
  5
613
 10
395.159
 20
215.422
 30
0.000000
  70
    32
  0
VERTEX
  8
┌▓È_1
  5
614
 10
395.159
 20
215.428
 30
0.000000
  70
    32
  0
VERTEX
  8
┌▓È_1
  5
615
 10
395.158
 20
215.434
 30
0.000000
  70
    32
  0
VERTEX
  8
┌▓È_1
  5
616
 10
395.157
 20
215.440
 30
0.000000
  70
    32
  0
VERTEX
  8
┌▓È_1
  5
617
 10
395.157
 20
215.446
 30
0.000000
  70
    32
  0
VERTEX
  8
┌▓È_1
  5
618
 10
395.157
 20
215.452
 30
0.000000
  70
    32
  0
VERTEX
  8
┌▓È_1
  5
619
 10
395.156
 20
215.458
 30
0.000000
  70
    32
  0
VERTEX
  8
┌▓È_1
  5
61A
 10
395.156
 20
215.464
 30
0.000000
  70
    32
  0
VERTEX
  8
┌▓È_1
  5
61B
 10
395.156
 20
215.471
 30
0.000000
  70
    32
  0
VERTEX
  8
┌▓È_1
  5
61C
 10
395.156
 20
215.477
 30
0.000000
  70
    32
  0
VERTEX
  8
┌▓È_1
  5
61D
 10
395.156
 20
215.483
 30
0.000000
  70
    32
  0
SEQEND
  8
┌▓È_1
  5
61E
  0
ARC
  5
1DA
  8
┌▓È_1
 62
     5
 10
401.15559895280001
 20
226.98281253650001
 30
0.0
 40
2.0
 50
89.999999994899994
 51
179.99999999490001
  0
ARC
  5
1DB
  8
┌▓È_1
 62
     5
 10
398.65559895180002
 20
215.4828125345
 30
0.0
 40
0.5
 50
269.999999995
 51
0.0000150653
  0
LINE
  5
1DC
  8
┌▓È_1
 62
     5
 10
401.15559897429989
 20
348.9828125313
 30
0.0
 11
412.15559897430001
 21
348.98281252830009
 31
0.0
  0
ARC
  5
1DD
  8
┌▓È_1
 10
447.15559896280001
 20
288.98281252570001
 30
0.0
 40
36.5
 50
142.0959905098
 51
158.6709368516
  0
LINE
  5
1DE
  8
┌▓È_1
 62
     5
 10
412.15559895929999
 20
299.33897010229998
 30
0.0
 11
412.15559896370002
 21
348.98281253210001
 31
0.0
  0
LINE
  5
1DF
  8
┌▓È_1
 62
     5
 10
419.34323487199998
 20
312.62012209509999
 30
0.0
 11
419.34323487500001
 21
346.41579970819998
 31
0.0
  0
LINE
  5
1E0
  8
┌▓È_1
 62
     5
 10
446.15559896669993
 20
332.98281248519999
 30
0.0
 11
448.15559896669998
 21
332.98281248479998
 31
0.0
  0
LINE
  5
1E1
  8
┌▓È_1
 62
     5
 10
446.15559896579998
 20
322.46788385730002
 30
0.0
 11
446.15559896669993
 21
332.98281248519999
 31
0.0
  0
LINE
  5
1E2
  8
┌▓È_1
 62
     5
 10
448.15559896579998
 20
322.46788385709999
 30
0.0
 11
448.15559896669998
 21
332.98281248479998
 31
0.0
  0
LINE
  5
1E3
  8
┌▓È_1
 62
     5
 10
419.3432348851
 20
346.41579970449999
 30
0.0
 11
487.21668471309999
 21
345.8234770633
 31
0.0
  0
LINE
  5
1E4
  8
┌▓È_1
  6
BORDER
 62
     3
 10
383.23581609069998
 20
288.98281253710002
 30
0.0
 11
511.07538183489987
 21
288.9828125144
 31
0.0
  0
LINE
  5
1E5
  8
┌▓È_1
 62
     5
 10
419.34323486480002
 20
231.5498253568
 30
0.0
 11
487.21668470179992
 21
232.14214797400001
 31
0.0
  0
CIRCLE
  5
1E6
  8
┌▓È_1
 62
     5
 10
447.15559896280001
 20
288.98281252570001
 30
0.0
 40
30.000000034100001
  0
CIRCLE
  5
1E7
  8
┌▓È_1
 62
     5
 10
447.15559896280001
 20
288.98281252570001
 30
0.0
 40
30.288138978900001
  0
CIRCLE
  5
1E8
  8
┌▓È_1
 62
     5
 10
447.15559896280001
 20
288.98281252570001
 30
0.0
 40
33.500000030999999
  0
LINE
  5
1E9
  8
┌▓È_1
 62
     5
 10
395.1555989583
 20
288.98281253490001
 30
0.0
 11
395.1555989583
 21
219.73281230859999
 31
0.0
  0
LINE
  5
1EA
  8
┌▓È_1
 62
     5
 10
393.6555989583
 20
219.73281224089999
 30
0.0
 11
393.6555989583
 21
288.98281253509998
 31
0.0
  0
LINE
  5
1EB
  8
┌▓È_1
 62
     5
 10
393.35559895829999
 20
222.98281259620001
 30
0.0
 11
393.35559895829999
 21
288.98281253509998
 31
0.0
  0
LINE
  5
1EC
  8
┌▓È_1
 62
     5
 10
422.15559896329989
 20
272.39968851150002
 30
0.0
 11
422.15559896329989
 21
282.98281251740002
 31
0.0
  0
LINE
  5
1ED
  8
┌▓È_1
 62
     5
 10
412.15559895299998
 20
228.98281253549999
 30
0.0
 11
412.1555989574
 21
278.6266549554
 31
0.0
  0
LINE
  5
1EE
  8
┌▓È_1
  6
BORDER
 62
     3
 10
447.1555989581999
 20
237.0311994715
 30
0.0
 11
447.15559896740001
 21
340.93442557999998
 31
0.0
  0
LINE
  5
1EF
  8
┌▓È_1
 62
     5
 10
395.15559895180002
 20
215.48281253479999
 30
0.0
 11
395.15559896489998
 21
362.48281250309998
 31
0.0
  0
LINE
  5
1F0
  8
┌▓È_1
 62
     5
 10
399.15559895180002
 20
215.48281266590001
 30
0.0
 11
399.15559896489998
 21
362.48281253440001
 31
0.0
  0
LINE
  5
1F1
  8
┌▓È_1
 62
     5
 10
494.15559895389998
 20
239.14188143480001
 30
0.0
 11
494.15559896280001
 21
338.82374360130001
 31
0.0
  0
ARC
  5
1F2
  8
┌▓È_1
 62
     5
 10
393.1555989583
 20
228.9828125697
 30
0.0
 40
0.5
 50
66.421821521799998
 51
90.0
  0
POLYLINE
  5
1F3
  8
┌▓È_1
 62
     5
 10
393.35559895830011
 20
222.98281254072751
 30
0.0
 66
     1
 70
     8
  0
VERTEX
  8
┌▓È_1
  5
61F
 10
393.356
 20
222.983
 30
0.000000
  70
    32
  0
VERTEX
  8
┌▓È_1
  5
620
 10
393.356
 20
222.978
 30
0.000000
  70
    32
  0
VERTEX
  8
┌▓È_1
  5
621
 10
393.356
 20
222.974
 30
0.000000
  70
    32
  0
VERTEX
  8
┌▓È_1
  5
622
 10
393.356
 20
222.969
 30
0.000000
  70
    32
  0
VERTEX
  8
┌▓È_1
  5
623
 10
393.356
 20
222.965
 30
0.000000
  70
    32
  0
VERTEX
  8
┌▓È_1
  5
624
 10
393.356
 20
222.960
 30
0.000000
  70
    32
  0
VERTEX
  8
┌▓È_1
  5
625
 10
393.356
 20
222.956
 30
0.000000
  70
    32
  0
VERTEX
  8
┌▓È_1
  5
626
 10
393.357
 20
222.951
 30
0.000000
  70
    32
  0
VERTEX
  8
┌▓È_1
  5
627
 10
393.357
 20
222.947
 30
0.000000
  70
    32
  0
VERTEX
  8
┌▓È_1
  5
628
 10
393.357
 20
222.942
 30
0.000000
  70
    32
  0
VERTEX
  8
┌▓È_1
  5
629
 10
393.358
 20
222.938
 30
0.000000
  70
    32
  0
VERTEX
  8
┌▓È_1
  5
62A
 10
393.358
 20
222.933
 30
0.000000
  70
    32
  0
VERTEX
  8
┌▓È_1
  5
62B
 10
393.359
 20
222.929
 30
0.000000
  70
    32
  0
VERTEX
  8
┌▓È_1
  5
62C
 10
393.359
 20
222.924
 30
0.000000
  70
    32
  0
VERTEX
  8
┌▓È_1
  5
62D
 10
393.360
 20
222.920
 30
0.000000
  70
    32
  0
VERTEX
  8
┌▓È_1
  5
62E
 10
393.360
 20
222.915
 30
0.000000
  70
    32
  0
VERTEX
  8
┌▓È_1
  5
62F
 10
393.361
 20
222.911
 30
0.000000
  70
    32
  0
VERTEX
  8
┌▓È_1
  5
630
 10
393.362
 20
222.906
 30
0.000000
  70
    32
  0
VERTEX
  8
┌▓È_1
  5
631
 10
393.362
 20
222.902
 30
0.000000
  70
    32
  0
VERTEX
  8
┌▓È_1
  5
632
 10
393.363
 20
222.897
 30
0.000000
  70
    32
  0
VERTEX
  8
┌▓È_1
  5
633
 10
393.364
 20
222.893
 30
0.000000
  70
    32
  0
VERTEX
  8
┌▓È_1
  5
634
 10
393.365
 20
222.888
 30
0.000000
  70
    32
  0
VERTEX
  8
┌▓È_1
  5
635
 10
393.365
 20
222.884
 30
0.000000
  70
    32
  0
VERTEX
  8
┌▓È_1
  5
636
 10
393.366
 20
222.879
 30
0.000000
  70
    32
  0
VERTEX
  8
┌▓È_1
  5
637
 10
393.367
 20
222.875
 30
0.000000
  70
    32
  0
VERTEX
  8
┌▓È_1
  5
638
 10
393.368
 20
222.871
 30
0.000000
  70
    32
  0
VERTEX
  8
┌▓È_1
  5
639
 10
393.369
 20
222.866
 30
0.000000
  70
    32
  0
VERTEX
  8
┌▓È_1
  5
63A
 10
393.370
 20
222.862
 30
0.000000
  70
    32
  0
VERTEX
  8
┌▓È_1
  5
63B
 10
393.372
 20
222.857
 30
0.000000
  70
    32
  0
VERTEX
  8
┌▓È_1
  5
63C
 10
393.373
 20
222.853
 30
0.000000
  70
    32
  0
VERTEX
  8
┌▓È_1
  5
63D
 10
393.374
 20
222.849
 30
0.000000
  70
    32
  0
VERTEX
  8
┌▓È_1
  5
63E
 10
393.375
 20
222.844
 30
0.000000
  70
    32
  0
VERTEX
  8
┌▓È_1
  5
63F
 10
393.376
 20
222.840
 30
0.000000
  70
    32
  0
VERTEX
  8
┌▓È_1
  5
640
 10
393.378
 20
222.836
 30
0.000000
  70
    32
  0
VERTEX
  8
┌▓È_1
  5
641
 10
393.379
 20
222.831
 30
0.000000
  70
    32
  0
VERTEX
  8
┌▓È_1
  5
642
 10
393.381
 20
222.827
 30
0.000000
  70
    32
  0
VERTEX
  8
┌▓È_1
  5
643
 10
393.382
 20
222.823
 30
0.000000
  70
    32
  0
VERTEX
  8
┌▓È_1
  5
644
 10
393.383
 20
222.818
 30
0.000000
  70
    32
  0
VERTEX
  8
┌▓È_1
  5
645
 10
393.385
 20
222.814
 30
0.000000
  70
    32
  0
VERTEX
  8
┌▓È_1
  5
646
 10
393.386
 20
222.810
 30
0.000000
  70
    32
  0
VERTEX
  8
┌▓È_1
  5
647
 10
393.388
 20
222.806
 30
0.000000
  70
    32
  0
VERTEX
  8
┌▓È_1
  5
648
 10
393.390
 20
222.801
 30
0.000000
  70
    32
  0
VERTEX
  8
┌▓È_1
  5
649
 10
393.391
 20
222.797
 30
0.000000
  70
    32
  0
VERTEX
  8
┌▓È_1
  5
64A
 10
393.393
 20
222.793
 30
0.000000
  70
    32
  0
VERTEX
  8
┌▓È_1
  5
64B
 10
393.395
 20
222.789
 30
0.000000
  70
    32
  0
VERTEX
  8
┌▓È_1
  5
64C
 10
393.397
 20
222.785
 30
0.000000
  70
    32
  0
VERTEX
  8
┌▓È_1
  5
64D
 10
393.398
 20
222.780
 30
0.000000
  70
    32
  0
VERTEX
  8
┌▓È_1
  5
64E
 10
393.400
 20
222.776
 30
0.000000
  70
    32
  0
VERTEX
  8
┌▓È_1
  5
64F
 10
393.402
 20
222.772
 30
0.000000
  70
    32
  0
VERTEX
  8
┌▓È_1
  5
650
 10
393.404
 20
222.768
 30
0.000000
  70
    32
  0
VERTEX
  8
┌▓È_1
  5
651
 10
393.406
 20
222.764
 30
0.000000
  70
    32
  0
VERTEX
  8
┌▓È_1
  5
652
 10
393.408
 20
222.760
 30
0.000000
  70
    32
  0
VERTEX
  8
┌▓È_1
  5
653
 10
393.410
 20
222.756
 30
0.000000
  70
    32
  0
VERTEX
  8
┌▓È_1
  5
654
 10
393.412
 20
222.752
 30
0.000000
  70
    32
  0
VERTEX
  8
┌▓È_1
  5
655
 10
393.414
 20
222.748
 30
0.000000
  70
    32
  0
VERTEX
  8
┌▓È_1
  5
656
 10
393.416
 20
222.744
 30
0.000000
  70
    32
  0
VERTEX
  8
┌▓È_1
  5
657
 10
393.419
 20
222.740
 30
0.000000
  70
    32
  0
VERTEX
  8
┌▓È_1
  5
658
 10
393.421
 20
222.736
 30
0.000000
  70
    32
  0
VERTEX
  8
┌▓È_1
  5
659
 10
393.423
 20
222.732
 30
0.000000
  70
    32
  0
VERTEX
  8
┌▓È_1
  5
65A
 10
393.425
 20
222.728
 30
0.000000
  70
    32
  0
VERTEX
  8
┌▓È_1
  5
65B
 10
393.428
 20
222.724
 30
0.000000
  70
    32
  0
VERTEX
  8
┌▓È_1
  5
65C
 10
393.430
 20
222.720
 30
0.000000
  70
    32
  0
VERTEX
  8
┌▓È_1
  5
65D
 10
393.432
 20
222.717
 30
0.000000
  70
    32
  0
VERTEX
  8
┌▓È_1
  5
65E
 10
393.435
 20
222.713
 30
0.000000
  70
    32
  0
VERTEX
  8
┌▓È_1
  5
65F
 10
393.437
 20
222.709
 30
0.000000
  70
    32
  0
VERTEX
  8
┌▓È_1
  5
660
 10
393.440
 20
222.705
 30
0.000000
  70
    32
  0
VERTEX
  8
┌▓È_1
  5
661
 10
393.442
 20
222.701
 30
0.000000
  70
    32
  0
VERTEX
  8
┌▓È_1
  5
662
 10
393.445
 20
222.698
 30
0.000000
  70
    32
  0
VERTEX
  8
┌▓È_1
  5
663
 10
393.447
 20
222.694
 30
0.000000
  70
    32
  0
VERTEX
  8
┌▓È_1
  5
664
 10
393.450
 20
222.690
 30
0.000000
  70
    32
  0
VERTEX
  8
┌▓È_1
  5
665
 10
393.453
 20
222.687
 30
0.000000
  70
    32
  0
VERTEX
  8
┌▓È_1
  5
666
 10
393.455
 20
222.683
 30
0.000000
  70
    32
  0
VERTEX
  8
┌▓È_1
  5
667
 10
393.458
 20
222.679
 30
0.000000
  70
    32
  0
VERTEX
  8
┌▓È_1
  5
668
 10
393.461
 20
222.676
 30
0.000000
  70
    32
  0
VERTEX
  8
┌▓È_1
  5
669
 10
393.464
 20
222.672
 30
0.000000
  70
    32
  0
VERTEX
  8
┌▓È_1
  5
66A
 10
393.467
 20
222.669
 30
0.000000
  70
    32
  0
VERTEX
  8
┌▓È_1
  5
66B
 10
393.469
 20
222.665
 30
0.000000
  70
    32
  0
VERTEX
  8
┌▓È_1
  5
66C
 10
393.472
 20
222.662
 30
0.000000
  70
    32
  0
VERTEX
  8
┌▓È_1
  5
66D
 10
393.475
 20
222.658
 30
0.000000
  70
    32
  0
VERTEX
  8
┌▓È_1
  5
66E
 10
393.478
 20
222.655
 30
0.000000
  70
    32
  0
VERTEX
  8
┌▓È_1
  5
66F
 10
393.481
 20
222.651
 30
0.000000
  70
    32
  0
VERTEX
  8
┌▓È_1
  5
670
 10
393.484
 20
222.648
 30
0.000000
  70
    32
  0
VERTEX
  8
┌▓È_1
  5
671
 10
393.487
 20
222.645
 30
0.000000
  70
    32
  0
VERTEX
  8
┌▓È_1
  5
672
 10
393.490
 20
222.641
 30
0.000000
  70
    32
  0
VERTEX
  8
┌▓È_1
  5
673
 10
393.493
 20
222.638
 30
0.000000
  70
    32
  0
VERTEX
  8
┌▓È_1
  5
674
 10
393.497
 20
222.635
 30
0.000000
  70
    32
  0
VERTEX
  8
┌▓È_1
  5
675
 10
393.500
 20
222.632
 30
0.000000
  70
    32
  0
VERTEX
  8
┌▓È_1
  5
676
 10
393.503
 20
222.628
 30
0.000000
  70
    32
  0
VERTEX
  8
┌▓È_1
  5
677
 10
393.506
 20
222.625
 30
0.000000
  70
    32
  0
VERTEX
  8
┌▓È_1
  5
678
 10
393.509
 20
222.622
 30
0.000000
  70
    32
  0
VERTEX
  8
┌▓È_1
  5
679
 10
393.513
 20
222.619
 30
0.000000
  70
    32
  0
VERTEX
  8
┌▓È_1
  5
67A
 10
393.516
 20
222.616
 30
0.000000
  70
    32
  0
VERTEX
  8
┌▓È_1
  5
67B
 10
393.519
 20
222.613
 30
0.000000
  70
    32
  0
VERTEX
  8
┌▓È_1
  5
67C
 10
393.523
 20
222.610
 30
0.000000
  70
    32
  0
VERTEX
  8
┌▓È_1
  5
67D
 10
393.526
 20
222.607
 30
0.000000
  70
    32
  0
VERTEX
  8
┌▓È_1
  5
67E
 10
393.530
 20
222.604
 30
0.000000
  70
    32
  0
VERTEX
  8
┌▓È_1
  5
67F
 10
393.533
 20
222.601
 30
0.000000
  70
    32
  0
VERTEX
  8
┌▓È_1
  5
680
 10
393.536
 20
222.598
 30
0.000000
  70
    32
  0
VERTEX
  8
┌▓È_1
  5
681
 10
393.540
 20
222.595
 30
0.000000
  70
    32
  0
VERTEX
  8
┌▓È_1
  5
682
 10
393.543
 20
222.592
 30
0.000000
  70
    32
  0
VERTEX
  8
┌▓È_1
  5
683
 10
393.547
 20
222.589
 30
0.000000
  70
    32
  0
VERTEX
  8
┌▓È_1
  5
684
 10
393.551
 20
222.587
 30
0.000000
  70
    32
  0
VERTEX
  8
┌▓È_1
  5
685
 10
393.554
 20
222.584
 30
0.000000
  70
    32
  0
VERTEX
  8
┌▓È_1
  5
686
 10
393.558
 20
222.581
 30
0.000000
  70
    32
  0
VERTEX
  8
┌▓È_1
  5
687
 10
393.561
 20
222.578
 30
0.000000
  70
    32
  0
VERTEX
  8
┌▓È_1
  5
688
 10
393.565
 20
222.576
 30
0.000000
  70
    32
  0
VERTEX
  8
┌▓È_1
  5
689
 10
393.569
 20
222.573
 30
0.000000
  70
    32
  0
VERTEX
  8
┌▓È_1
  5
68A
 10
393.573
 20
222.571
 30
0.000000
  70
    32
  0
VERTEX
  8
┌▓È_1
  5
68B
 10
393.576
 20
222.568
 30
0.000000
  70
    32
  0
VERTEX
  8
┌▓È_1
  5
68C
 10
393.580
 20
222.566
 30
0.000000
  70
    32
  0
VERTEX
  8
┌▓È_1
  5
68D
 10
393.584
 20
222.563
 30
0.000000
  70
    32
  0
VERTEX
  8
┌▓È_1
  5
68E
 10
393.588
 20
222.561
 30
0.000000
  70
    32
  0
VERTEX
  8
┌▓È_1
  5
68F
 10
393.592
 20
222.558
 30
0.000000
  70
    32
  0
VERTEX
  8
┌▓È_1
  5
690
 10
393.595
 20
222.556
 30
0.000000
  70
    32
  0
VERTEX
  8
┌▓È_1
  5
691
 10
393.599
 20
222.554
 30
0.000000
  70
    32
  0
VERTEX
  8
┌▓È_1
  5
692
 10
393.603
 20
222.551
 30
0.000000
  70
    32
  0
VERTEX
  8
┌▓È_1
  5
693
 10
393.607
 20
222.549
 30
0.000000
  70
    32
  0
VERTEX
  8
┌▓È_1
  5
694
 10
393.611
 20
222.547
 30
0.000000
  70
    32
  0
VERTEX
  8
┌▓È_1
  5
695
 10
393.615
 20
222.545
 30
0.000000
  70
    32
  0
VERTEX
  8
┌▓È_1
  5
696
 10
393.619
 20
222.542
 30
0.000000
  70
    32
  0
VERTEX
  8
┌▓È_1
  5
697
 10
393.623
 20
222.540
 30
0.000000
  70
    32
  0
VERTEX
  8
┌▓È_1
  5
698
 10
393.627
 20
222.538
 30
0.000000
  70
    32
  0
VERTEX
  8
┌▓È_1
  5
699
 10
393.631
 20
222.536
 30
0.000000
  70
    32
  0
VERTEX
  8
┌▓È_1
  5
69A
 10
393.635
 20
222.534
 30
0.000000
  70
    32
  0
VERTEX
  8
┌▓È_1
  5
69B
 10
393.639
 20
222.532
 30
0.000000
  70
    32
  0
VERTEX
  8
┌▓È_1
  5
69C
 10
393.643
 20
222.530
 30
0.000000
  70
    32
  0
VERTEX
  8
┌▓È_1
  5
69D
 10
393.647
 20
222.528
 30
0.000000
  70
    32
  0
VERTEX
  8
┌▓È_1
  5
69E
 10
393.651
 20
222.526
 30
0.000000
  70
    32
  0
VERTEX
  8
┌▓È_1
  5
69F
 10
393.656
 20
222.525
 30
0.000000
  70
    32
  0
SEQEND
  8
┌▓È_1
  5
6A0
  0
ARC
  5
1F4
  8
┌▓È_1
 62
     5
 10
394.4055989583
 20
219.7328125697
 30
0.0
 40
0.75
 50
180.000025118
 51
359.99998005330002
  0
LINE
  5
1F5
  8
┌▓È_1
  6
BORDER
 62
     3
 10
369.9782629044999
 20
288.98281253570002
 30
0.0
 11
427.4224142880999
 21
288.98281253570002
 31
0.0
  0
LINE
  5
1F6
  8
┌▓È_1
  6
BORDER
 62
     3
 10
369.9782629044999
 20
288.98281253570002
 30
0.0
 11
427.4224142880999
 21
288.98281253570002
 31
0.0
  0
ARC
  5
1F7
  8
┌▓È_1
 62
     5
 10
487.15559895389993
 20
239.14188143539999
 30
0.0
 40
7.0
 50
270.49999999490012
 51
359.99999999489989
  0
LINE
  5
1F8
  8
┌▓È_1
 62
     5
 10
480.6406702941
 20
287.98281251980001
 30
0.0
 11
487.15559896269991
 21
287.98281251809999
 31
0.0
  0
LINE
  5
1F9
  8
┌▓È_1
 62
     5
 10
480.6406702944999
 20
289.98281251980001
 30
0.0
 11
487.15559896289989
 21
289.98281251809999
 31
0.0
  0
LINE
  5
1FA
  8
┌▓È_1
 62
     5
 10
487.15559896269991
 20
287.98281251809999
 30
0.0
 11
487.15559896289989
 21
289.98281251809999
 31
0.0
  0
ARC
  5
1FB
  8
┌▓È_1
 62
     5
 10
487.1555989627999
 20
338.82374360189999
 30
0.0
 40
7.0
 50
359.99999999489989
 51
89.499999984799999
  0
LINE
  5
1FC
  8
┌▓È_1
 62
     5
 10
412.15559895299998
 20
228.98281253549999
 30
0.0
 11
419.34323486480002
 21
231.5498253568
 31
0.0
  0
LINE
  5
1FD
  8
┌▓È_1
 62
     5
 10
448.15559895389998
 20
255.49774119400001
 30
0.0
 11
448.15559895109999
 21
244.9828125663
 31
0.0
  0
LINE
  5
1FE
  8
┌▓È_1
 62
     5
 10
446.15559895389993
 20
255.49774119450001
 30
0.0
 11
446.15559895109988
 21
244.98281256659999
 31
0.0
  0
LINE
  5
1FF
  8
┌▓È_1
 62
     5
 10
446.15559895109988
 20
244.98281256659999
 30
0.0
 11
448.15559895109999
 21
244.9828125663
 31
0.0
  0
ARC
  5
200
  8
┌▓È_1
 62
     5
 10
393.15559897959997
 20
348.98281250090002
 30
0.0
 40
0.5
 50
269.99999997970002
 51
293.57817845789998
  0
ARC
  5
201
  8
┌▓È_1
 62
     5
 10
393.85559898169998
 20
354.98281250069999
 30
0.0
 40
0.5
 50
113.578178458
 51
179.9999966597
  0
ARC
  5
202
  8
┌▓È_1
 62
     5
 10
394.40559898290002
 20
358.23281250050002
 30
0.0
 40
0.75
 50
0.0000199264
 51
179.99997486169991
  0
LINE
  5
203
  8
┌▓È_1
 62
     5
 10
395.1555989583
 20
288.98281253490001
 30
0.0
 11
395.15559898290002
 21
358.23281276130001
 31
0.0
  0
LINE
  5
204
  8
┌▓È_1
 62
     5
 10
393.65559898290002
 20
358.23281282959999
 30
0.0
 11
393.6555989583
 21
288.98281253530001
 31
0.0
  0
LINE
  5
205
  8
┌▓È_1
 62
     5
 10
393.35559898169998
 20
354.98281247440002
 30
0.0
 11
393.35559895829999
 21
288.9828125354
 31
0.0
  0
LINE
  5
206
  8
┌▓È_1
 62
     5
 10
422.15559896329989
 20
282.98281251740002
 30
0.0
 11
417.76172201629993
 21
282.98281251740002
 31
0.0
  0
LINE
  5
207
  8
┌▓È_1
 62
     5
 10
422.15559896329989
 20
305.56593653990001
 30
0.0
 11
422.15559896329989
 21
294.98281251740002
 31
0.0
  0
LINE
  5
208
  8
┌▓È_1
 62
     5
 10
422.15559896329989
 20
294.98281251740002
 30
0.0
 11
417.76172201290001
 21
294.98281251740002
 31
0.0
  0
LINE
  5
209
  8
┌▓È_1
 62
     5
 10
412.15559897430001
 20
348.98281252830009
 30
0.0
 11
419.3432348851
 21
346.41579970449999
 31
0.0
  0
ARC
  5
20A
  8
┌▓È_1
 62
     5
 10
398.65559897790001
 20
362.48281253419998
 30
0.0
 40
0.5
 50
359.99998491439999
 51
89.999999984799985
  0
ARC
  5
20B
  8
┌▓È_1
 62
     5
 10
401.1555989748
 20
350.9828125313
 30
0.0
 40
2.0
 50
179.99999998480001
 51
269.99999998480001
  0
ARC
  5
20C
  8
┌▓È_1
 62
     5
 10
395.65559897790001
 20
362.48281253499999
 30
0.0
 40
0.5
 50
89.999999984799985
 51
179.99999998480001
  0
LINE
  5
20D
  8
┌▓È_1
 62
     5
 10
395.655598978
 20
362.98281253499999
 30
0.0
 11
398.65559897800011
 21
362.98281253419998
 31
0.0
  0
ENDBLK
  5
20E
  8
0
  0
BLOCK
  8
0
  2
CLUMP17
 70
     0
 10
0.0
 20
0.0
 30
0.0
  3
CLUMP17
  1

  0
LINE
  5
219
  8
┌▓È_1
  6
BORDER
 62
     3
 10
754.03115496989994
 20
288.9828125144
 30
0.0
 11
724.69584377189994
 21
288.9828125144
 31
0.0
  0
LINE
  5
21A
  8
┌▓È_1
 62
     5
 10
762.35808335520005
 20
215.9828125144
 30
0.0
 11
762.35808335520005
 21
361.9828125144
 31
0.0
  0
INSERT
  5
21C
  8
┌▓È_1
  2
CLUMP18
 10
0.0
 20
0.0
 30
0.0
  0
LINE
  5
246
  8
┌▓È_1
 62
     5
 10
764.15808335520001
 20
288.98281251349999
 30
0.0
 11
764.15808334300004
 21
219.73281228709999
 31
0.0
  0
LINE
  5
247
  8
┌▓È_1
 62
     5
 10
762.65808334300004
 20
219.73281221970001
 30
0.0
 11
762.65808335520001
 21
288.9828125139
 31
0.0
  0
LINE
  5
248
  8
┌▓È_1
 62
     5
 10
762.35808334349997
 20
222.982812575
 30
0.0
 11
762.35808335520005
 21
288.98281251399999
 31
0.0
  0
ARC
  5
249
  8
┌▓È_1
 62
     5
 10
759.35808335520005
 20
215.9828125144
 30
0.0
 40
3.0
 50
270.0
 51
360.0
  0
LINE
  5
24A
  8
┌▓È_1
 62
     5
 10
759.35808335520005
 20
212.9828125144
 30
0.0
 11
755.35808335520005
 21
212.9828125144
 31
0.0
  0
ARC
  5
24B
  8
┌▓È_1
 62
     5
 10
763.40808334300004
 20
219.73281254829999
 30
0.0
 40
0.75
 50
180.00002510780001
 51
359.99998004320003
  0
ARC
  5
24C
  8
┌▓È_1
 62
     5
 10
762.85808334350008
 20
222.98281254840001
 30
0.0
 40
0.5
 50
180.00000330989999
 51
246.42182151150001
  0
LINE
  5
24D
  8
┌▓È_1
 62
     5
 10
759.35808335520005
 20
364.98281251440011
 30
0.0
 11
755.35808335520005
 21
364.98281251440011
 31
0.0
  0
ARC
  5
24E
  8
┌▓È_1
 62
     5
 10
759.35808335520005
 20
361.9828125144
 30
0.0
 40
3.0
 50
0.0
 51
90.0
  0
LINE
  5
24F
  8
┌▓È_1
 62
     5
 10
762.35808337859987
 20
354.98281245290002
 30
0.0
 11
762.35808335520005
 21
288.98281251399999
 31
0.0
  0
LINE
  5
250
  8
┌▓È_1
 62
     5
 10
762.6580833797999
 20
358.23281280809999
 30
0.0
 11
762.65808335520001
 21
288.9828125139
 31
0.0
  0
LINE
  5
251
  8
┌▓È_1
 62
     5
 10
764.15808335520001
 20
288.98281251349999
 30
0.0
 11
764.15808337979979
 21
358.2328127399
 31
0.0
  0
POLYLINE
  5
252
  8
┌▓È_1
 62
     5
 10
762.35808337859999
 20
354.98281250834981
 30
0.0
 66
     1
 70
     8
  0
VERTEX
  8
┌▓È_1
  5
6A1
 10
762.358
 20
354.983
 30
0.000000
  70
    32
  0
VERTEX
  8
┌▓È_1
  5
6A2
 10
762.358
 20
354.987
 30
0.000000
  70
    32
  0
VERTEX
  8
┌▓È_1
  5
6A3
 10
762.358
 20
354.992
 30
0.000000
  70
    32
  0
VERTEX
  8
┌▓È_1
  5
6A4
 10
762.358
 20
354.996
 30
0.000000
  70
    32
  0
VERTEX
  8
┌▓È_1
  5
6A5
 10
762.358
 20
355.001
 30
0.000000
  70
    32
  0
VERTEX
  8
┌▓È_1
  5
6A6
 10
762.359
 20
355.005
 30
0.000000
  70
    32
  0
VERTEX
  8
┌▓È_1
  5
6A7
 10
762.359
 20
355.010
 30
0.000000
  70
    32
  0
VERTEX
  8
┌▓È_1
  5
6A8
 10
762.359
 20
355.014
 30
0.000000
  70
    32
  0
VERTEX
  8
┌▓È_1
  5
6A9
 10
762.359
 20
355.019
 30
0.000000
  70
    32
  0
VERTEX
  8
┌▓È_1
  5
6AA
 10
762.360
 20
355.024
 30
0.000000
  70
    32
  0
VERTEX
  8
┌▓È_1
  5
6AB
 10
762.360
 20
355.028
 30
0.000000
  70
    32
  0
VERTEX
  8
┌▓È_1
  5
6AC
 10
762.361
 20
355.033
 30
0.000000
  70
    32
  0
VERTEX
  8
┌▓È_1
  5
6AD
 10
762.361
 20
355.037
 30
0.000000
  70
    32
  0
VERTEX
  8
┌▓È_1
  5
6AE
 10
762.362
 20
355.042
 30
0.000000
  70
    32
  0
VERTEX
  8
┌▓È_1
  5
6AF
 10
762.362
 20
355.046
 30
0.000000
  70
    32
  0
VERTEX
  8
┌▓È_1
  5
6B0
 10
762.363
 20
355.051
 30
0.000000
  70
    32
  0
VERTEX
  8
┌▓È_1
  5
6B1
 10
762.363
 20
355.055
 30
0.000000
  70
    32
  0
VERTEX
  8
┌▓È_1
  5
6B2
 10
762.364
 20
355.059
 30
0.000000
  70
    32
  0
VERTEX
  8
┌▓È_1
  5
6B3
 10
762.365
 20
355.064
 30
0.000000
  70
    32
  0
VERTEX
  8
┌▓È_1
  5
6B4
 10
762.365
 20
355.068
 30
0.000000
  70
    32
  0
VERTEX
  8
┌▓È_1
  5
6B5
 10
762.366
 20
355.073
 30
0.000000
  70
    32
  0
VERTEX
  8
┌▓È_1
  5
6B6
 10
762.367
 20
355.077
 30
0.000000
  70
    32
  0
VERTEX
  8
┌▓È_1
  5
6B7
 10
762.368
 20
355.082
 30
0.000000
  70
    32
  0
VERTEX
  8
┌▓È_1
  5
6B8
 10
762.369
 20
355.086
 30
0.000000
  70
    32
  0
VERTEX
  8
┌▓È_1
  5
6B9
 10
762.370
 20
355.091
 30
0.000000
  70
    32
  0
VERTEX
  8
┌▓È_1
  5
6BA
 10
762.371
 20
355.095
 30
0.000000
  70
    32
  0
VERTEX
  8
┌▓È_1
  5
6BB
 10
762.372
 20
355.099
 30
0.000000
  70
    32
  0
VERTEX
  8
┌▓È_1
  5
6BC
 10
762.373
 20
355.104
 30
0.000000
  70
    32
  0
VERTEX
  8
┌▓È_1
  5
6BD
 10
762.374
 20
355.108
 30
0.000000
  70
    32
  0
VERTEX
  8
┌▓È_1
  5
6BE
 10
762.375
 20
355.113
 30
0.000000
  70
    32
  0
VERTEX
  8
┌▓È_1
  5
6BF
 10
762.376
 20
355.117
 30
0.000000
  70
    32
  0
VERTEX
  8
┌▓È_1
  5
6C0
 10
762.378
 20
355.121
 30
0.000000
  70
    32
  0
VERTEX
  8
┌▓È_1
  5
6C1
 10
762.379
 20
355.126
 30
0.000000
  70
    32
  0
VERTEX
  8
┌▓È_1
  5
6C2
 10
762.380
 20
355.130
 30
0.000000
  70
    32
  0
VERTEX
  8
┌▓È_1
  5
6C3
 10
762.382
 20
355.134
 30
0.000000
  70
    32
  0
VERTEX
  8
┌▓È_1
  5
6C4
 10
762.383
 20
355.139
 30
0.000000
  70
    32
  0
VERTEX
  8
┌▓È_1
  5
6C5
 10
762.384
 20
355.143
 30
0.000000
  70
    32
  0
VERTEX
  8
┌▓È_1
  5
6C6
 10
762.386
 20
355.147
 30
0.000000
  70
    32
  0
VERTEX
  8
┌▓È_1
  5
6C7
 10
762.387
 20
355.152
 30
0.000000
  70
    32
  0
VERTEX
  8
┌▓È_1
  5
6C8
 10
762.389
 20
355.156
 30
0.000000
  70
    32
  0
VERTEX
  8
┌▓È_1
  5
6C9
 10
762.391
 20
355.160
 30
0.000000
  70
    32
  0
VERTEX
  8
┌▓È_1
  5
6CA
 10
762.392
 20
355.164
 30
0.000000
  70
    32
  0
VERTEX
  8
┌▓È_1
  5
6CB
 10
762.394
 20
355.168
 30
0.000000
  70
    32
  0
VERTEX
  8
┌▓È_1
  5
6CC
 10
762.396
 20
355.173
 30
0.000000
  70
    32
  0
VERTEX
  8
┌▓È_1
  5
6CD
 10
762.397
 20
355.177
 30
0.000000
  70
    32
  0
VERTEX
  8
┌▓È_1
  5
6CE
 10
762.399
 20
355.181
 30
0.000000
  70
    32
  0
VERTEX
  8
┌▓È_1
  5
6CF
 10
762.401
 20
355.185
 30
0.000000
  70
    32
  0
VERTEX
  8
┌▓È_1
  5
6D0
 10
762.403
 20
355.189
 30
0.000000
  70
    32
  0
VERTEX
  8
┌▓È_1
  5
6D1
 10
762.405
 20
355.193
 30
0.000000
  70
    32
  0
VERTEX
  8
┌▓È_1
  5
6D2
 10
762.407
 20
355.197
 30
0.000000
  70
    32
  0
VERTEX
  8
┌▓È_1
  5
6D3
 10
762.408
 20
355.202
 30
0.000000
  70
    32
  0
VERTEX
  8
┌▓È_1
  5
6D4
 10
762.410
 20
355.206
 30
0.000000
  70
    32
  0
VERTEX
  8
┌▓È_1
  5
6D5
 10
762.413
 20
355.210
 30
0.000000
  70
    32
  0
VERTEX
  8
┌▓È_1
  5
6D6
 10
762.415
 20
355.214
 30
0.000000
  70
    32
  0
VERTEX
  8
┌▓È_1
  5
6D7
 10
762.417
 20
355.218
 30
0.000000
  70
    32
  0
VERTEX
  8
┌▓È_1
  5
6D8
 10
762.419
 20
355.222
 30
0.000000
  70
    32
  0
VERTEX
  8
┌▓È_1
  5
6D9
 10
762.421
 20
355.226
 30
0.000000
  70
    32
  0
VERTEX
  8
┌▓È_1
  5
6DA
 10
762.423
 20
355.230
 30
0.000000
  70
    32
  0
VERTEX
  8
┌▓È_1
  5
6DB
 10
762.425
 20
355.234
 30
0.000000
  70
    32
  0
VERTEX
  8
┌▓È_1
  5
6DC
 10
762.428
 20
355.237
 30
0.000000
  70
    32
  0
VERTEX
  8
┌▓È_1
  5
6DD
 10
762.430
 20
355.241
 30
0.000000
  70
    32
  0
VERTEX
  8
┌▓È_1
  5
6DE
 10
762.432
 20
355.245
 30
0.000000
  70
    32
  0
VERTEX
  8
┌▓È_1
  5
6DF
 10
762.435
 20
355.249
 30
0.000000
  70
    32
  0
VERTEX
  8
┌▓È_1
  5
6E0
 10
762.437
 20
355.253
 30
0.000000
  70
    32
  0
VERTEX
  8
┌▓È_1
  5
6E1
 10
762.440
 20
355.257
 30
0.000000
  70
    32
  0
VERTEX
  8
┌▓È_1
  5
6E2
 10
762.442
 20
355.260
 30
0.000000
  70
    32
  0
VERTEX
  8
┌▓È_1
  5
6E3
 10
762.445
 20
355.264
 30
0.000000
  70
    32
  0
VERTEX
  8
┌▓È_1
  5
6E4
 10
762.447
 20
355.268
 30
0.000000
  70
    32
  0
VERTEX
  8
┌▓È_1
  5
6E5
 10
762.450
 20
355.272
 30
0.000000
  70
    32
  0
VERTEX
  8
┌▓È_1
  5
6E6
 10
762.453
 20
355.275
 30
0.000000
  70
    32
  0
VERTEX
  8
┌▓È_1
  5
6E7
 10
762.455
 20
355.279
 30
0.000000
  70
    32
  0
VERTEX
  8
┌▓È_1
  5
6E8
 10
762.458
 20
355.283
 30
0.000000
  70
    32
  0
VERTEX
  8
┌▓È_1
  5
6E9
 10
762.461
 20
355.286
 30
0.000000
  70
    32
  0
VERTEX
  8
┌▓È_1
  5
6EA
 10
762.463
 20
355.290
 30
0.000000
  70
    32
  0
VERTEX
  8
┌▓È_1
  5
6EB
 10
762.466
 20
355.293
 30
0.000000
  70
    32
  0
VERTEX
  8
┌▓È_1
  5
6EC
 10
762.469
 20
355.297
 30
0.000000
  70
    32
  0
VERTEX
  8
┌▓È_1
  5
6ED
 10
762.472
 20
355.300
 30
0.000000
  70
    32
  0
VERTEX
  8
┌▓È_1
  5
6EE
 10
762.475
 20
355.304
 30
0.000000
  70
    32
  0
VERTEX
  8
┌▓È_1
  5
6EF
 10
762.478
 20
355.307
 30
0.000000
  70
    32
  0
VERTEX
  8
┌▓È_1
  5
6F0
 10
762.481
 20
355.311
 30
0.000000
  70
    32
  0
VERTEX
  8
┌▓È_1
  5
6F1
 10
762.484
 20
355.314
 30
0.000000
  70
    32
  0
VERTEX
  8
┌▓È_1
  5
6F2
 10
762.487
 20
355.318
 30
0.000000
  70
    32
  0
VERTEX
  8
┌▓È_1
  5
6F3
 10
762.490
 20
355.321
 30
0.000000
  70
    32
  0
VERTEX
  8
┌▓È_1
  5
6F4
 10
762.493
 20
355.324
 30
0.000000
  70
    32
  0
VERTEX
  8
┌▓È_1
  5
6F5
 10
762.496
 20
355.328
 30
0.000000
  70
    32
  0
VERTEX
  8
┌▓È_1
  5
6F6
 10
762.499
 20
355.331
 30
0.000000
  70
    32
  0
VERTEX
  8
┌▓È_1
  5
6F7
 10
762.502
 20
355.334
 30
0.000000
  70
    32
  0
VERTEX
  8
┌▓È_1
  5
6F8
 10
762.505
 20
355.337
 30
0.000000
  70
    32
  0
VERTEX
  8
┌▓È_1
  5
6F9
 10
762.509
 20
355.340
 30
0.000000
  70
    32
  0
VERTEX
  8
┌▓È_1
  5
6FA
 10
762.512
 20
355.344
 30
0.000000
  70
    32
  0
VERTEX
  8
┌▓È_1
  5
6FB
 10
762.515
 20
355.347
 30
0.000000
  70
    32
  0
VERTEX
  8
┌▓È_1
  5
6FC
 10
762.519
 20
355.350
 30
0.000000
  70
    32
  0
VERTEX
  8
┌▓È_1
  5
6FD
 10
762.522
 20
355.353
 30
0.000000
  70
    32
  0
VERTEX
  8
┌▓È_1
  5
6FE
 10
762.525
 20
355.356
 30
0.000000
  70
    32
  0
VERTEX
  8
┌▓È_1
  5
6FF
 10
762.529
 20
355.359
 30
0.000000
  70
    32
  0
VERTEX
  8
┌▓È_1
  5
700
 10
762.532
 20
355.362
 30
0.000000
  70
    32
  0
VERTEX
  8
┌▓È_1
  5
701
 10
762.535
 20
355.365
 30
0.000000
  70
    32
  0
VERTEX
  8
┌▓È_1
  5
702
 10
762.539
 20
355.368
 30
0.000000
  70
    32
  0
VERTEX
  8
┌▓È_1
  5
703
 10
762.542
 20
355.371
 30
0.000000
  70
    32
  0
VERTEX
  8
┌▓È_1
  5
704
 10
762.546
 20
355.373
 30
0.000000
  70
    32
  0
VERTEX
  8
┌▓È_1
  5
705
 10
762.550
 20
355.376
 30
0.000000
  70
    32
  0
VERTEX
  8
┌▓È_1
  5
706
 10
762.553
 20
355.379
 30
0.000000
  70
    32
  0
VERTEX
  8
┌▓È_1
  5
707
 10
762.557
 20
355.382
 30
0.000000
  70
    32
  0
VERTEX
  8
┌▓È_1
  5
708
 10
762.560
 20
355.384
 30
0.000000
  70
    32
  0
VERTEX
  8
┌▓È_1
  5
709
 10
762.564
 20
355.387
 30
0.000000
  70
    32
  0
VERTEX
  8
┌▓È_1
  5
70A
 10
762.568
 20
355.390
 30
0.000000
  70
    32
  0
VERTEX
  8
┌▓È_1
  5
70B
 10
762.571
 20
355.392
 30
0.000000
  70
    32
  0
VERTEX
  8
┌▓È_1
  5
70C
 10
762.575
 20
355.395
 30
0.000000
  70
    32
  0
VERTEX
  8
┌▓È_1
  5
70D
 10
762.579
 20
355.398
 30
0.000000
  70
    32
  0
VERTEX
  8
┌▓È_1
  5
70E
 10
762.583
 20
355.400
 30
0.000000
  70
    32
  0
VERTEX
  8
┌▓È_1
  5
70F
 10
762.586
 20
355.403
 30
0.000000
  70
    32
  0
VERTEX
  8
┌▓È_1
  5
710
 10
762.590
 20
355.405
 30
0.000000
  70
    32
  0
VERTEX
  8
┌▓È_1
  5
711
 10
762.594
 20
355.407
 30
0.000000
  70
    32
  0
VERTEX
  8
┌▓È_1
  5
712
 10
762.598
 20
355.410
 30
0.000000
  70
    32
  0
VERTEX
  8
┌▓È_1
  5
713
 10
762.602
 20
355.412
 30
0.000000
  70
    32
  0
VERTEX
  8
┌▓È_1
  5
714
 10
762.606
 20
355.414
 30
0.000000
  70
    32
  0
VERTEX
  8
┌▓È_1
  5
715
 10
762.610
 20
355.417
 30
0.000000
  70
    32
  0
VERTEX
  8
┌▓È_1
  5
716
 10
762.613
 20
355.419
 30
0.000000
  70
    32
  0
VERTEX
  8
┌▓È_1
  5
717
 10
762.617
 20
355.421
 30
0.000000
  70
    32
  0
VERTEX
  8
┌▓È_1
  5
718
 10
762.621
 20
355.423
 30
0.000000
  70
    32
  0
VERTEX
  8
┌▓È_1
  5
719
 10
762.625
 20
355.425
 30
0.000000
  70
    32
  0
VERTEX
  8
┌▓È_1
  5
71A
 10
762.629
 20
355.427
 30
0.000000
  70
    32
  0
VERTEX
  8
┌▓È_1
  5
71B
 10
762.633
 20
355.430
 30
0.000000
  70
    32
  0
VERTEX
  8
┌▓È_1
  5
71C
 10
762.638
 20
355.432
 30
0.000000
  70
    32
  0
VERTEX
  8
┌▓È_1
  5
71D
 10
762.642
 20
355.434
 30
0.000000
  70
    32
  0
VERTEX
  8
┌▓È_1
  5
71E
 10
762.646
 20
355.435
 30
0.000000
  70
    32
  0
VERTEX
  8
┌▓È_1
  5
71F
 10
762.650
 20
355.437
 30
0.000000
  70
    32
  0
VERTEX
  8
┌▓È_1
  5
720
 10
762.654
 20
355.439
 30
0.000000
  70
    32
  0
VERTEX
  8
┌▓È_1
  5
721
 10
762.658
 20
355.441
 30
0.000000
  70
    32
  0
SEQEND
  8
┌▓È_1
  5
722
  0
ARC
  5
253
  8
┌▓È_1
 62
     5
 10
763.4080833797999
 20
358.23281247900002
 30
0.0
 40
0.75
 50
0.0000199264
 51
179.99997486169991
  0
ENDBLK
  5
254
  8
0
  0
BLOCK
  8
0
  2
CLUMP18
 70
     0
 10
0.0
 20
0.0
 30
0.0
  3
CLUMP18
  1

  0
LINE
  5
21E
  8
┌▓È_1
 62
     5
 10
883.15808331619996
 20
255.98281251989999
 30
0.0
 11
884.85808330429995
 21
254.2828125318
 31
0.0
  0
LINE
  5
21F
  8
┌▓È_1
 10
883.15808334830001
 20
255.98281248789999
 30
0.0
 11
905.15808331619985
 21
255.9828124677
 31
0.0
  0
LINE
  5
220
  8
┌▓È_1
 62
     5
 10
905.15808331619985
 20
255.98281249979999
 30
0.0
 11
903.45808334829997
 21
254.2828125318
 31
0.0
  0
LINE
  5
221
  8
┌▓È_1
 62
     5
 10
905.15808331619985
 20
255.9828124677
 30
0.0
 11
908.15808331710014
 21
255.98281246499999
 31
0.0
  0
LINE
  5
222
  8
┌▓È_1
 62
     5
 10
873.1580832607001
 20
255.98281249979999
 30
0.0
 11
883.15808334830001
 21
255.98281248789999
 31
0.0
  0
LINE
  5
223
  8
┌▓È_1
 62
     5
 10
788.15808335520001
 20
231.48281251200001
 30
0.0
 11
866.15808326069998
 21
231.48281251200001
 31
0.0
  0
LINE
  5
224
  8
┌▓È_1
 62
     5
 10
788.15808335520001
 20
346.4828125119999
 30
0.0
 11
866.15808326069998
 21
346.4828125119999
 31
0.0
  0
LINE
  5
225
  8
┌▓È_1
  6
BORDER
 62
     3
 10
754.03115496989994
 20
288.9828125144
 30
0.0
 11
919.05742187500005
 21
288.98281249979999
 31
0.0
  0
LINE
  5
226
  8
┌▓È_1
 62
     5
 10
781.15808335520001
 20
228.98281251559999
 30
0.0
 11
788.15808335520001
 21
231.48281251200001
 31
0.0
  0
ARC
  5
227
  8
┌▓È_1
 62
     5
 10
770.15808335520001
 20
226.98281251559999
 30
0.0
 40
2.0
 50
90.0
 51
180.0
  0
ARC
  5
228
  8
┌▓È_1
 62
     5
 10
764.65808335520001
 20
215.48281251329999
 30
0.0
 40
0.5
 50
180.0
 51
270.0
  0
LINE
  5
229
  8
┌▓È_1
 62
     5
 10
764.65808335520001
 20
214.98281251329999
 30
0.0
 11
767.65808335520001
 21
214.98281251329999
 31
0.0
  0
ARC
  5
22A
  8
┌▓È_1
 62
     5
 10
767.65808335520001
 20
215.48281251329999
 30
0.0
 40
0.5
 50
270.0
 51
0.0
  0
LINE
  5
22B
  8
┌▓È_1
 62
     5
 10
770.15808335520001
 20
228.98281251559999
 30
0.0
 11
781.15808335520001
 21
228.98281251559999
 31
0.0
  0
ARC
  5
22C
  8
┌▓È_1
 62
     5
 10
866.15808326069998
 20
238.48281251200001
 30
0.0
 40
7.0
 50
270.0
 51
0.0
  0
ARC
  5
22D
  8
┌▓È_1
 62
     5
 10
767.65808335520001
 20
362.48281251330002
 30
0.0
 40
0.5
 50
0.0
 51
90.0
  0
LINE
  5
22E
  8
┌▓È_1
 62
     5
 10
764.65808335520001
 20
362.98281251330002
 30
0.0
 11
767.65808335520001
 21
362.98281251330002
 31
0.0
  0
ARC
  5
22F
  8
┌▓È_1
 62
     5
 10
764.65808335520001
 20
362.48281251330002
 30
0.0
 40
0.5
 50
90.0
 51
180.0
  0
LINE
  5
230
  8
┌▓È_1
 62
     5
 10
781.15808335520001
 20
348.9828125155999
 30
0.0
 11
788.15808335520001
 21
346.4828125119999
 31
0.0
  0
LINE
  5
231
  8
┌▓È_1
 62
     5
 10
770.15808335520001
 20
348.9828125155999
 30
0.0
 11
781.15808335520001
 21
348.9828125155999
 31
0.0
  0
ARC
  5
232
  8
┌▓È_1
 62
     5
 10
770.15808335520001
 20
350.9828125155999
 30
0.0
 40
2.0
 50
180.0
 51
270.0
  0
LINE
  5
233
  8
┌▓È_1
 62
     5
 10
883.15808331619996
 20
321.9828124796
 30
0.0
 11
884.85808330429995
 21
323.68281246769999
 31
0.0
  0
LINE
  5
234
  8
┌▓È_1
 62
     5
 10
905.15808331619985
 20
321.98281249979999
 30
0.0
 11
903.45808334829997
 21
323.68281246769999
 31
0.0
  0
LINE
  5
235
  8
┌▓È_1
 62
     5
 10
873.1580832607001
 20
321.98281249979999
 30
0.0
 11
883.15808334830001
 21
321.98281251169999
 31
0.0
  0
LINE
  5
236
  8
┌▓È_1
 10
883.15808334830001
 20
321.98281251169999
 30
0.0
 11
905.15808331619985
 21
321.98281253179999
 31
0.0
  0
LINE
  5
237
  8
┌▓È_1
 62
     5
 10
905.15808331619985
 20
321.98281253179999
 30
0.0
 11
908.15808325980004
 21
321.98281253459999
 31
0.0
  0
ARC
  5
238
  8
┌▓È_1
 62
     5
 10
866.15808326069998
 20
339.48281251200001
 30
0.0
 40
7.0
 50
0.0
 51
90.0
  0
LINE
  5
239
  8
┌▓È_1
 62
     5
 10
884.85808330429995
 20
323.68281246769999
 30
0.0
 11
903.45808334829997
 21
323.68281246769999
 31
0.0
  0
LINE
  5
23A
  8
┌▓È_1
 62
     5
 10
908.15808331710014
 20
255.98281246499999
 30
0.0
 11
908.15808325980004
 21
321.98281253459999
 31
0.0
  0
LINE
  5
23B
  8
┌▓È_1
 62
     5
 10
764.15808335520001
 20
215.48281251329999
 30
0.0
 11
764.15808335520001
 21
362.48281248170002
 31
0.0
  0
LINE
  5
23C
  8
┌▓È_1
 62
     5
 10
883.15808340550007
 20
255.98281244329999
 30
0.0
 11
883.15808334830001
 21
321.98281251290001
 31
0.0
  0
LINE
  5
23D
  8
┌▓È_1
 62
     5
 10
905.15808337340002
 20
255.98281246240001
 30
0.0
 11
905.15808331619985
 21
321.98281253200003
 31
0.0
  0
LINE
  5
23E
  8
┌▓È_1
 62
     5
 10
903.45808334970013
 20
254.2828125318
 30
0.0
 11
903.45808334829997
 21
323.68281246769999
 31
0.0
  0
LINE
  5
23F
  8
┌▓È_1
 62
     5
 10
884.85808330580005
 20
254.2828125318
 30
0.0
 11
884.85808330429995
 21
323.68281246769999
 31
0.0
  0
LINE
  5
240
  8
┌▓È_1
 62
     5
 10
873.1580832607001
 20
339.48281251200001
 30
0.0
 11
873.1580832607001
 21
238.48281251200001
 31
0.0
  0
LINE
  5
241
  8
┌▓È_1
 62
     5
 10
788.15808335520001
 20
231.48281251200001
 30
0.0
 11
788.15808335520001
 21
346.4828125119999
 31
0.0
  0
LINE
  5
242
  8
┌▓È_1
 62
     5
 10
781.15808335520001
 20
348.9828125155999
 30
0.0
 11
781.15808335520001
 21
228.98281251559999
 31
0.0
  0
LINE
  5
243
  8
┌▓È_1
 62
     5
 10
768.15808335520001
 20
362.48281251330002
 30
0.0
 11
768.15808335520001
 21
215.48281251329999
 31
0.0
  0
LINE
  5
244
  8
┌▓È_1
 62
     5
 10
884.85808330429995
 20
254.2828125318
 30
0.0
 11
903.45808334829997
 21
254.2828125318
 31
0.0
  0
ENDBLK
  5
245
  8
0
  0
BLOCK
  8
0
  2
BALLON0
 70
     0
 10
0.0
 20
0.0
 30
0.0
  3
BALLON0
  1

  0
INSERT
  5
259
  8
0
  6
CONTINUOUS
  2
*U64
 10
0.0
 20
0.0
 30
0.0
  0
CIRCLE
  5
25A
  8
┌▓È_1
 10
186.6183111222
 20
-173.70195312499999
 30
0.0
 40
20.0
  0
LINE
  5
25B
  8
Éíû@É³
 10
153.28497778880001
 20
-173.70195312499999
 30
0.0
 11
166.6183111222
 21
-173.70195312499999
 31
0.0
  0
LINE
  5
25C
  8
Éíû@É³
 10
-7.4304946880999987
 20
-12.588255311899999
 30
0.0
 11
153.28497778880001
 21
-173.70195312499999
 31
0.0
  0
SOLID
  5
25D
  8
Éíû@É³
 10
-7.4304946880999987
 20
-12.588255311899999
 30
0.0
 11
9.5260557099999996
 21
-23.9229541873
 31
0.0
 12
3.8692057911000002
 22
-23.9159545081
 32
0.0
 13
3.8692057911000002
 23
-23.9159545081
 33
0.0
  0
SOLID
  5
25E
  8
Éíû@É³
 10
3.8692057911000002
 20
-23.9159545081
 30
0.0
 11
3.8622061118999991
 21
-29.572804426899999
 31
0.0
 12
-7.4304946880999987
 22
-12.588255311899999
 32
0.0
 13
-7.4304946880999987
 23
-12.588255311899999
 33
0.0
  0
ENDBLK
  5
25F
  8
0
  0
BLOCK
  8
0
  2
*D30
 70
     1
 10
0.0
 20
0.0
 30
0.0
  3
*D30
  1

  0
TEXT
  5
262
  8
0
 62
     0
 10
64.688205524899999
 20
-274.57864551540001
 30
0.0
 40
17.9916661263
  1
68
 50
90.0
  0
LINE
  5
263
  8
0
 62
     0
 10
24.863205429600001
 20
-297.99531250000001
 30
0.0
 11
77.863205429600001
 21
-297.99531250000001
 31
0.0
  0
LINE
  5
264
  8
0
 62
     0
 10
24.163205429600001
 20
-229.99531250000001
 30
0.0
 11
77.863205429600001
 21
-229.99531250000001
 31
0.0
  0
LINE
  5
265
  8
0
 62
     0
 10
72.863205429600001
 20
-297.99531250000001
 30
0.0
 11
72.863205429600001
 21
-242.82864646909999
 31
0.0
  0
LINE
  5
266
  8
0
 62
     0
 10
72.863205429600001
 20
-297.99531250000001
 30
0.0
 11
72.863205429600001
 21
-285.1619785309
 31
0.0
  0
LINE
  5
267
  8
0
 62
     0
 10
72.863205429600001
 20
-229.99531250000001
 30
0.0
 11
72.863205429600001
 21
-242.82864646909999
 31
0.0
  0
LINE
  5
268
  8
0
 62
     0
 10
72.863205429600001
 20
-229.99531250000001
 30
0.0
 11
72.863205429600001
 21
-285.1619785309
 31
0.0
  0
LINE
  5
269
  8
0
 62
     0
 10
72.863205429600001
 20
-229.99531250000001
 30
0.0
 11
72.863205429600001
 21
-254.99531250000001
 31
0.0
  0
SOLID
  5
26A
  8
0
 62
     0
 10
72.863205429600001
 20
-229.99531250000001
 30
0.0
 11
75.451395985100007
 21
-239.65457038880001
 31
0.0
 12
70.275014873999993
 22
-239.65457038880001
 32
0.0
 13
72.863205429600001
 23
-237.23975591659999
 33
0.0
  0
LINE
  5
26B
  8
0
 62
     0
 10
72.863205429600001
 20
-297.99531250000001
 30
0.0
 11
72.863205429600001
 21
-272.99531250000001
 31
0.0
  0
SOLID
  5
26C
  8
0
 62
     0
 10
72.863205429600001
 20
-297.99531250000001
 30
0.0
 11
70.275014873999993
 21
-288.33605461119998
 31
0.0
 12
75.451395985100007
 22
-288.33605461119998
 32
0.0
 13
72.863205429600001
 23
-290.7508690834
 33
0.0
  0
ENDBLK
  5
26D
  8
0
  0
BLOCK
  8
0
  2
*D31
 70
     1
 10
0.0
 20
0.0
 30
0.0
  3
*D31
  1

  0
TEXT
  5
276
  8
0
 62
     0
 10
169.56953134540001
 20
273.10781297680001
 30
0.0
 40
17.9916661263
  1
640
 50
90.0
  0
LINE
  5
277
  8
0
 62
     0
 10
16.748437500000001
 20
-31.017187499999999
 30
0.0
 11
182.74453124999999
 21
-31.017187499999999
 31
0.0
  0
LINE
  5
278
  8
0
 62
     0
 10
16.748437500000001
 20
608.98281250000002
 30
0.0
 11
182.74453124999999
 21
608.98281250000002
 31
0.0
  0
LINE
  5
279
  8
0
 62
     0
 10
177.74453124999999
 20
-31.017187499999999
 30
0.0
 11
177.74453124999999
 21
315.44114503859998
 31
0.0
  0
LINE
  5
27A
  8
0
 62
     0
 10
177.74453124999999
 20
-31.017187499999999
 30
0.0
 11
177.74453124999999
 21
262.5244799614
 31
0.0
  0
LINE
  5
27B
  8
0
 62
     0
 10
177.74453124999999
 20
608.98281250000002
 30
0.0
 11
177.74453124999999
 21
315.44114503859998
 31
0.0
  0
LINE
  5
27C
  8
0
 62
     0
 10
177.74453124999999
 20
608.98281250000002
 30
0.0
 11
177.74453124999999
 21
262.5244799614
 31
0.0
  0
LINE
  5
27D
  8
0
 62
     0
 10
177.74453124999999
 20
608.98281250000002
 30
0.0
 11
177.74453124999999
 21
583.98281250000002
 31
0.0
  0
SOLID
  5
27E
  8
0
 62
     0
 10
177.74453124999999
 20
608.98281250000002
 30
0.0
 11
180.33272180559999
 21
599.32355461120005
 31
0.0
 12
175.1563406944
 22
599.32355461120005
 32
0.0
 13
177.74453124999999
 23
601.73836908340002
 33
0.0
  0
LINE
  5
27F
  8
0
 62
     0
 10
177.74453124999999
 20
-31.017187499999999
 30
0.0
 11
177.74453124999999
 21
-6.0171875000000004
 31
0.0
  0
SOLID
  5
280
  8
0
 62
     0
 10
177.74453124999999
 20
-31.017187499999999
 30
0.0
 11
175.1563406944
 21
-21.357929611199999
 31
0.0
 12
180.33272180559999
 22
-21.357929611199999
 32
0.0
 13
177.74453124999999
 23
-23.772744083399999
 33
0.0
  0
ENDBLK
  5
281
  8
0
  0
BLOCK
  8
0
  2
*D32
 70
     1
 10
0.0
 20
0.0
 30
0.0
  3
*D32
  1

  0
TEXT
  5
285
  8
0
 62
     0
 10
-427.28710927959992
 20
-276.07864551540001
 30
0.0
 40
17.9916661263
  1
65
 50
90.0
  0
LINE
  5
286
  8
0
 62
     0
 10
-467.11210937499999
 20
-297.99531250000001
 30
0.0
 11
-414.11210937499987
 21
-297.99531250000001
 31
0.0
  0
LINE
  5
287
  8
0
 62
     0
 10
-467.11210937499999
 20
-232.99531250000001
 30
0.0
 11
-414.11210937499987
 21
-232.99531250000001
 31
0.0
  0
LINE
  5
288
  8
0
 62
     0
 10
-419.11210937499987
 20
-297.99531250000001
 30
0.0
 11
-419.11210937499987
 21
-244.32864646909999
 31
0.0
  0
LINE
  5
289
  8
0
 62
     0
 10
-419.11210937499987
 20
-297.99531250000001
 30
0.0
 11
-419.11210937499987
 21
-286.6619785309
 31
0.0
  0
LINE
  5
28A
  8
0
 62
     0
 10
-419.11210937499987
 20
-232.99531250000001
 30
0.0
 11
-419.11210937499987
 21
-244.32864646909999
 31
0.0
  0
LINE
  5
28B
  8
0
 62
     0
 10
-419.11210937499987
 20
-232.99531250000001
 30
0.0
 11
-419.11210937499987
 21
-286.6619785309
 31
0.0
  0
LINE
  5
28C
  8
0
 62
     0
 10
-419.11210937499987
 20
-232.99531250000001
 30
0.0
 11
-419.11210937499987
 21
-257.99531250000001
 31
0.0
  0
SOLID
  5
28D
  8
0
 62
     0
 10
-419.11210937499987
 20
-232.99531250000001
 30
0.0
 11
-416.52391881940002
 21
-242.65457038880001
 31
0.0
 12
-421.7002999305999
 22
-242.65457038880001
 32
0.0
 13
-419.11210937499987
 23
-240.23975591659999
 33
0.0
  0
LINE
  5
28E
  8
0
 62
     0
 10
-419.11210937499987
 20
-297.99531250000001
 30
0.0
 11
-419.11210937499987
 21
-272.99531250000001
 31
0.0
  0
SOLID
  5
28F
  8
0
 62
     0
 10
-419.11210937499987
 20
-297.99531250000001
 30
0.0
 11
-421.7002999305999
 21
-288.33605461119998
 31
0.0
 12
-416.52391881940002
 22
-288.33605461119998
 32
0.0
 13
-419.11210937499987
 23
-290.7508690834
 33
0.0
  0
ENDBLK
  5
290
  8
0
  0
BLOCK
  8
0
  2
CLUMP19
 70
     0
 10
0.0
 20
0.0
 30
0.0
  3
CLUMP19
  1

  0
LINE
  5
297
  8
┌▓È_1
 62
     5
 10
-775.25156249999998
 20
-231.49531250000001
 30
0.0
 11
-775.25156249999998
 21
-297.1953125
 31
0.0
  0
LINE
  5
298
  8
┌▓È_1
 62
     5
 10
-715.25156249999986
 20
-232.99531250000001
 30
0.0
 11
-715.25156249999986
 21
-297.99531250000001
 31
0.0
  0
LINE
  5
299
  8
┌▓È_1
 62
     5
 10
-715.25156249999986
 20
-232.99531250000001
 30
0.0
 11
-715.25156249999986
 21
-297.99531250000001
 31
0.0
  0
ARC
  5
29A
  8
┌▓È_1
 62
     5
 10
-774.45156250000002
 20
-297.1953125
 30
0.0
 40
0.8
 50
180.0
 51
270.0
  0
LINE
  5
29B
  8
┌▓È_1
 62
     5
 10
-715.25156249999986
 20
-297.99531250000001
 30
0.0
 11
-774.45156250000002
 21
-297.99531250000001
 31
0.0
  0
LINE
  5
29C
  8
┌▓È_1
 62
     5
 10
-713.25156249999986
 20
-232.99531250000001
 30
0.0
 11
-713.25156249999986
 21
-232.49531250000001
 31
0.0
  0
LINE
  5
29D
  8
┌▓È_1
 62
     5
 10
-773.75156249999998
 20
-229.99531250000001
 30
0.0
 11
-717.25156249999986
 21
-229.99531250000001
 31
0.0
  0
LINE
  5
29E
  8
┌▓È_1
 62
     5
 10
-713.25156249999986
 20
-232.49531250000001
 30
0.0
 11
-717.25156249999986
 21
-229.99531250000001
 31
0.0
  0
ARC
  5
29F
  8
┌▓È_1
 62
     5
 10
-773.75156249999998
 20
-231.49531250000001
 30
0.0
 40
1.5
 50
90.0
 51
180.0
  0
LINE
  5
2A0
  8
┌▓È_1
 62
     5
 10
-715.25156249999986
 20
-232.99531250000001
 30
0.0
 11
-713.25156249999986
 21
-232.99531250000001
 31
0.0
  0
ENDBLK
  5
2A1
  8
0
  0
BLOCK
  8
0
  2
CLUMP20
 70
     0
 10
0.0
 20
0.0
 30
0.0
  3
CLUMP20
  1

  0
LINE
  5
2A5
  8
┌▓È_1
 62
     5
 10
23.663205429600001
 20
-231.49531250000001
 30
0.0
 11
23.663205429600001
 21
-297.1953125
 31
0.0
  0
LINE
  5
2A6
  8
┌▓È_1
 62
     5
 10
-36.336794570400002
 20
-232.99531250000001
 30
0.0
 11
-36.336794570400002
 21
-297.99531250000001
 31
0.0
  0
LINE
  5
2A7
  8
┌▓È_1
 62
     5
 10
-36.336794570400002
 20
-232.99531250000001
 30
0.0
 11
-36.336794570400002
 21
-297.99531250000001
 31
0.0
  0
ARC
  5
2A8
  8
┌▓È_1
 62
     5
 10
22.863205429600001
 20
-297.1953125
 30
0.0
 40
0.8
 50
270.0
 51
0.0
  0
LINE
  5
2A9
  8
┌▓È_1
 62
     5
 10
-36.336794570400002
 20
-297.99531250000001
 30
0.0
 11
22.863205429600001
 21
-297.99531250000001
 31
0.0
  0
LINE
  5
2AA
  8
┌▓È_1
 62
     5
 10
-38.336794570400002
 20
-232.99531250000001
 30
0.0
 11
-38.336794570400002
 21
-232.49531250000001
 31
0.0
  0
LINE
  5
2AB
  8
┌▓È_1
 62
     5
 10
22.163205429600001
 20
-229.99531250000001
 30
0.0
 11
-34.336794570400002
 21
-229.99531250000001
 31
0.0
  0
LINE
  5
2AC
  8
┌▓È_1
 62
     5
 10
-38.336794570400002
 20
-232.49531250000001
 30
0.0
 11
-34.336794570400002
 21
-229.99531250000001
 31
0.0
  0
ARC
  5
2AD
  8
┌▓È_1
 62
     5
 10
22.163205429600001
 20
-231.49531250000001
 30
0.0
 40
1.5
 50
0.0
 51
90.0
  0
LINE
  5
2AE
  8
┌▓È_1
 62
     5
 10
-36.336794570400002
 20
-232.99531250000001
 30
0.0
 11
-38.336794570400002
 21
-232.99531250000001
 31
0.0
  0
ENDBLK
  5
2AF
  8
0
  0
BLOCK
  8
0
  2
CLUMP21
 70
     0
 10
0.0
 20
0.0
 30
0.0
  3
CLUMP21
  1

  0
LINE
  5
2B3
  8
┌▓È_1
  6
BORDER
 62
     3
 10
-98.251562516000007
 20
-296.66838411459997
 30
0.0
 11
-98.251562527299996
 21
-424.50794985879992
 31
0.0
  0
INSERT
  5
2B5
  8
┌▓È_1
 62
     5
  2
CLUMP22
 10
0.0
 20
0.0
 30
0.0
  0
ENDBLK
  5
2DA
  8
0
  0
BLOCK
  8
0
  2
CLUMP22
 70
     0
 10
0.0
 20
0.0
 30
0.0
  3
CLUMP22
  1

  0
ARC
  5
2B7
  8
┌▓È_1
 62
     5
 10
-24.751562517100002
 20
-307.29531250000002
 30
0.0
 40
0.5
 50
0.0
 51
90.0
  0
ARC
  5
2B8
  8
┌▓È_1
 62
     5
 10
-36.2515625148
 20
-312.79531250000002
 30
0.0
 40
2.0
 50
90.0
 51
180.0
  0
LINE
  5
2B9
  8
┌▓È_1
 62
     5
 10
-98.251562516900009
 20
-306.79531250000002
 30
0.0
 11
-167.50156274330001
 21
-306.79531250000002
 31
0.0
  0
ARC
  5
2BA
  8
┌▓È_1
 62
     5
 10
-171.75156251710001
 20
-310.29531250000002
 30
0.0
 40
0.5
 50
180.0
 51
270.00001507040002
  0
ARC
  5
2BB
  8
┌▓È_1
 62
     5
 10
-160.25156251480001
 20
-312.79531250000002
 30
0.0
 40
2.0
 50
0.0
 51
90.0
  0
ARC
  5
2BC
  8
┌▓È_1
 62
     5
 10
-171.75156251710001
 20
-307.29531250000002
 30
0.0
 40
0.5
 50
90.0
 51
180.0
  0
LINE
  5
2BD
  8
┌▓È_1
 62
     5
 10
-172.25156251710001
 20
-307.29531250000002
 30
0.0
 11
-172.25156251710001
 21
-310.29531250000002
 31
0.0
  0
LINE
  5
2BE
  8
┌▓È_1
 62
     5
 10
-158.25156251480001
 20
-312.79531250000002
 30
0.0
 11
-158.25156251480001
 21
-323.79531250000002
 31
0.0
  0
LINE
  5
2BF
  8
┌▓È_1
 62
     5
 10
-158.25156251480001
 20
-323.79531250000002
 30
0.0
 11
-155.68454969289999
 21
-330.98294841149999
 31
0.0
  0
ARC
  5
2C0
  8
┌▓È_1
 62
     5
 10
-148.0924936088999
 20
-398.79531250000002
 30
0.0
 40
7.0
 50
180.5007862073
 51
270.00000279020003
  0
LINE
  5
2C1
  8
┌▓È_1
 62
     5
 10
-155.68454969289999
 20
-330.98294841149999
 30
0.0
 11
-155.09222623150001
 21
-398.8564942982
 31
0.0
  0
LINE
  5
2C2
  8
┌▓È_1
 62
     5
 10
-40.7515621776
 20
-398.79531246490001
 30
0.0
 11
-19.661910648900001
 21
-393.81048571909997
 31
0.0
  0
LINE
  5
2C3
  8
┌▓È_1
 62
     5
 10
-35.309154841999998
 20
-326.49769368630001
 30
0.0
 11
2.3731230111000001
 21
-327.22123038389998
 31
0.0
  0
LINE
  5
2C4
  8
┌▓È_1
 62
     5
 10
-38.2515625148
 20
-312.79531250000002
 30
0.0
 11
-38.2515625148
 21
-323.49824654989999
 31
0.0
  0
ARC
  5
2C5
  8
┌▓È_1
 62
     5
 10
-35.2515625148
 20
-323.49824654989999
 30
0.0
 40
3.0
 50
180.0
 51
268.89999999999998
  0
POLYLINE
  5
2C6
  8
┌▓È_1
 62
     5
 10
-41.401508339889567
 20
-393.28913885607506
 30
0.0
 66
     1
 70
     8
  0
VERTEX
  8
┌▓È_1
  5
723
 10
-41.4015
 20
-393.289
 30
0.000000
  70
    32
  0
VERTEX
  8
┌▓È_1
  5
724
 10
-41.5331
 20
-393.284
 30
0.000000
  70
    32
  0
VERTEX
  8
┌▓È_1
  5
725
 10
-41.6645
 20
-393.274
 30
0.000000
  70
    32
  0
VERTEX
  8
┌▓È_1
  5
726
 10
-41.7959
 20
-393.259
 30
0.000000
  70
    32
  0
VERTEX
  8
┌▓È_1
  5
727
 10
-41.9270
 20
-393.239
 30
0.000000
  70
    32
  0
VERTEX
  8
┌▓È_1
  5
728
 10
-42.0580
 20
-393.214
 30
0.000000
  70
    32
  0
VERTEX
  8
┌▓È_1
  5
729
 10
-42.1888
 20
-393.184
 30
0.000000
  70
    32
  0
VERTEX
  8
┌▓È_1
  5
72A
 10
-42.3194
 20
-393.149
 30
0.000000
  70
    32
  0
VERTEX
  8
┌▓È_1
  5
72B
 10
-42.4498
 20
-393.109
 30
0.000000
  70
    32
  0
VERTEX
  8
┌▓È_1
  5
72C
 10
-42.5798
 20
-393.064
 30
0.000000
  70
    32
  0
VERTEX
  8
┌▓È_1
  5
72D
 10
-42.7097
 20
-393.014
 30
0.000000
  70
    32
  0
VERTEX
  8
┌▓È_1
  5
72E
 10
-42.8392
 20
-392.959
 30
0.000000
  70
    32
  0
VERTEX
  8
┌▓È_1
  5
72F
 10
-42.9684
 20
-392.899
 30
0.000000
  70
    32
  0
VERTEX
  8
┌▓È_1
  5
730
 10
-43.0973
 20
-392.834
 30
0.000000
  70
    32
  0
VERTEX
  8
┌▓È_1
  5
731
 10
-43.2259
 20
-392.765
 30
0.000000
  70
    32
  0
VERTEX
  8
┌▓È_1
  5
732
 10
-43.3540
 20
-392.690
 30
0.000000
  70
    32
  0
VERTEX
  8
┌▓È_1
  5
733
 10
-43.4818
 20
-392.610
 30
0.000000
  70
    32
  0
VERTEX
  8
┌▓È_1
  5
734
 10
-43.6092
 20
-392.526
 30
0.000000
  70
    32
  0
VERTEX
  8
┌▓È_1
  5
735
 10
-43.7362
 20
-392.437
 30
0.000000
  70
    32
  0
VERTEX
  8
┌▓È_1
  5
736
 10
-43.8627
 20
-392.342
 30
0.000000
  70
    32
  0
VERTEX
  8
┌▓È_1
  5
737
 10
-43.9887
 20
-392.243
 30
0.000000
  70
    32
  0
VERTEX
  8
┌▓È_1
  5
738
 10
-44.1143
 20
-392.139
 30
0.000000
  70
    32
  0
VERTEX
  8
┌▓È_1
  5
739
 10
-44.2393
 20
-392.030
 30
0.000000
  70
    32
  0
VERTEX
  8
┌▓È_1
  5
73A
 10
-44.3639
 20
-391.917
 30
0.000000
  70
    32
  0
VERTEX
  8
┌▓È_1
  5
73B
 10
-44.4879
 20
-391.798
 30
0.000000
  70
    32
  0
VERTEX
  8
┌▓È_1
  5
73C
 10
-44.6113
 20
-391.675
 30
0.000000
  70
    32
  0
VERTEX
  8
┌▓È_1
  5
73D
 10
-44.7342
 20
-391.547
 30
0.000000
  70
    32
  0
VERTEX
  8
┌▓È_1
  5
73E
 10
-44.8565
 20
-391.414
 30
0.000000
  70
    32
  0
VERTEX
  8
┌▓È_1
  5
73F
 10
-44.9781
 20
-391.277
 30
0.000000
  70
    32
  0
VERTEX
  8
┌▓È_1
  5
740
 10
-45.0992
 20
-391.135
 30
0.000000
  70
    32
  0
VERTEX
  8
┌▓È_1
  5
741
 10
-45.2196
 20
-390.988
 30
0.000000
  70
    32
  0
VERTEX
  8
┌▓È_1
  5
742
 10
-45.3393
 20
-390.837
 30
0.000000
  70
    32
  0
VERTEX
  8
┌▓È_1
  5
743
 10
-45.4583
 20
-390.680
 30
0.000000
  70
    32
  0
VERTEX
  8
┌▓È_1
  5
744
 10
-45.5766
 20
-390.520
 30
0.000000
  70
    32
  0
VERTEX
  8
┌▓È_1
  5
745
 10
-45.6943
 20
-390.354
 30
0.000000
  70
    32
  0
VERTEX
  8
┌▓È_1
  5
746
 10
-45.8111
 20
-390.185
 30
0.000000
  70
    32
  0
VERTEX
  8
┌▓È_1
  5
747
 10
-45.9273
 20
-390.010
 30
0.000000
  70
    32
  0
VERTEX
  8
┌▓È_1
  5
748
 10
-46.0426
 20
-389.831
 30
0.000000
  70
    32
  0
VERTEX
  8
┌▓È_1
  5
749
 10
-46.1572
 20
-389.648
 30
0.000000
  70
    32
  0
VERTEX
  8
┌▓È_1
  5
74A
 10
-46.2709
 20
-389.460
 30
0.000000
  70
    32
  0
VERTEX
  8
┌▓È_1
  5
74B
 10
-46.3838
 20
-389.268
 30
0.000000
  70
    32
  0
VERTEX
  8
┌▓È_1
  5
74C
 10
-46.4959
 20
-389.071
 30
0.000000
  70
    32
  0
VERTEX
  8
┌▓È_1
  5
74D
 10
-46.6071
 20
-388.870
 30
0.000000
  70
    32
  0
VERTEX
  8
┌▓È_1
  5
74E
 10
-46.7175
 20
-388.664
 30
0.000000
  70
    32
  0
VERTEX
  8
┌▓È_1
  5
74F
 10
-46.8270
 20
-388.454
 30
0.000000
  70
    32
  0
VERTEX
  8
┌▓È_1
  5
750
 10
-46.9355
 20
-388.240
 30
0.000000
  70
    32
  0
VERTEX
  8
┌▓È_1
  5
751
 10
-47.0432
 20
-388.022
 30
0.000000
  70
    32
  0
VERTEX
  8
┌▓È_1
  5
752
 10
-47.1499
 20
-387.800
 30
0.000000
  70
    32
  0
VERTEX
  8
┌▓È_1
  5
753
 10
-47.2556
 20
-387.573
 30
0.000000
  70
    32
  0
VERTEX
  8
┌▓È_1
  5
754
 10
-47.3604
 20
-387.342
 30
0.000000
  70
    32
  0
VERTEX
  8
┌▓È_1
  5
755
 10
-47.4642
 20
-387.107
 30
0.000000
  70
    32
  0
VERTEX
  8
┌▓È_1
  5
756
 10
-47.5669
 20
-386.868
 30
0.000000
  70
    32
  0
VERTEX
  8
┌▓È_1
  5
757
 10
-47.6687
 20
-386.625
 30
0.000000
  70
    32
  0
VERTEX
  8
┌▓È_1
  5
758
 10
-47.7694
 20
-386.378
 30
0.000000
  70
    32
  0
VERTEX
  8
┌▓È_1
  5
759
 10
-47.8691
 20
-386.127
 30
0.000000
  70
    32
  0
VERTEX
  8
┌▓È_1
  5
75A
 10
-47.9677
 20
-385.872
 30
0.000000
  70
    32
  0
VERTEX
  8
┌▓È_1
  5
75B
 10
-48.0653
 20
-385.613
 30
0.000000
  70
    32
  0
VERTEX
  8
┌▓È_1
  5
75C
 10
-48.1617
 20
-385.350
 30
0.000000
  70
    32
  0
VERTEX
  8
┌▓È_1
  5
75D
 10
-48.2571
 20
-385.084
 30
0.000000
  70
    32
  0
VERTEX
  8
┌▓È_1
  5
75E
 10
-48.3513
 20
-384.813
 30
0.000000
  70
    32
  0
VERTEX
  8
┌▓È_1
  5
75F
 10
-48.4444
 20
-384.539
 30
0.000000
  70
    32
  0
VERTEX
  8
┌▓È_1
  5
760
 10
-48.5363
 20
-384.261
 30
0.000000
  70
    32
  0
VERTEX
  8
┌▓È_1
  5
761
 10
-48.6271
 20
-383.980
 30
0.000000
  70
    32
  0
VERTEX
  8
┌▓È_1
  5
762
 10
-48.7167
 20
-383.695
 30
0.000000
  70
    32
  0
VERTEX
  8
┌▓È_1
  5
763
 10
-48.8051
 20
-383.406
 30
0.000000
  70
    32
  0
VERTEX
  8
┌▓È_1
  5
764
 10
-48.8924
 20
-383.114
 30
0.000000
  70
    32
  0
VERTEX
  8
┌▓È_1
  5
765
 10
-48.9784
 20
-382.818
 30
0.000000
  70
    32
  0
VERTEX
  8
┌▓È_1
  5
766
 10
-49.0631
 20
-382.519
 30
0.000000
  70
    32
  0
VERTEX
  8
┌▓È_1
  5
767
 10
-49.1467
 20
-382.217
 30
0.000000
  70
    32
  0
VERTEX
  8
┌▓È_1
  5
768
 10
-49.2289
 20
-381.911
 30
0.000000
  70
    32
  0
VERTEX
  8
┌▓È_1
  5
769
 10
-49.3099
 20
-381.602
 30
0.000000
  70
    32
  0
VERTEX
  8
┌▓È_1
  5
76A
 10
-49.3897
 20
-381.290
 30
0.000000
  70
    32
  0
VERTEX
  8
┌▓È_1
  5
76B
 10
-49.4681
 20
-380.974
 30
0.000000
  70
    32
  0
VERTEX
  8
┌▓È_1
  5
76C
 10
-49.5453
 20
-380.655
 30
0.000000
  70
    32
  0
VERTEX
  8
┌▓È_1
  5
76D
 10
-49.6211
 20
-380.333
 30
0.000000
  70
    32
  0
VERTEX
  8
┌▓È_1
  5
76E
 10
-49.6956
 20
-380.008
 30
0.000000
  70
    32
  0
VERTEX
  8
┌▓È_1
  5
76F
 10
-49.7688
 20
-379.680
 30
0.000000
  70
    32
  0
VERTEX
  8
┌▓È_1
  5
770
 10
-49.8406
 20
-379.349
 30
0.000000
  70
    32
  0
VERTEX
  8
┌▓È_1
  5
771
 10
-49.9111
 20
-379.016
 30
0.000000
  70
    32
  0
VERTEX
  8
┌▓È_1
  5
772
 10
-49.9802
 20
-378.679
 30
0.000000
  70
    32
  0
VERTEX
  8
┌▓È_1
  5
773
 10
-50.0479
 20
-378.339
 30
0.000000
  70
    32
  0
VERTEX
  8
┌▓È_1
  5
774
 10
-50.1142
 20
-377.997
 30
0.000000
  70
    32
  0
VERTEX
  8
┌▓È_1
  5
775
 10
-50.1791
 20
-377.652
 30
0.000000
  70
    32
  0
VERTEX
  8
┌▓È_1
  5
776
 10
-50.2427
 20
-377.304
 30
0.000000
  70
    32
  0
VERTEX
  8
┌▓È_1
  5
777
 10
-50.3048
 20
-376.954
 30
0.000000
  70
    32
  0
VERTEX
  8
┌▓È_1
  5
778
 10
-50.3655
 20
-376.601
 30
0.000000
  70
    32
  0
VERTEX
  8
┌▓È_1
  5
779
 10
-50.4247
 20
-376.246
 30
0.000000
  70
    32
  0
VERTEX
  8
┌▓È_1
  5
77A
 10
-50.4825
 20
-375.888
 30
0.000000
  70
    32
  0
VERTEX
  8
┌▓È_1
  5
77B
 10
-50.5389
 20
-375.527
 30
0.000000
  70
    32
  0
VERTEX
  8
┌▓È_1
  5
77C
 10
-50.5938
 20
-375.165
 30
0.000000
  70
    32
  0
VERTEX
  8
┌▓È_1
  5
77D
 10
-50.6472
 20
-374.800
 30
0.000000
  70
    32
  0
VERTEX
  8
┌▓È_1
  5
77E
 10
-50.6991
 20
-374.433
 30
0.000000
  70
    32
  0
VERTEX
  8
┌▓È_1
  5
77F
 10
-50.7496
 20
-374.063
 30
0.000000
  70
    32
  0
VERTEX
  8
┌▓È_1
  5
780
 10
-50.7986
 20
-373.692
 30
0.000000
  70
    32
  0
VERTEX
  8
┌▓È_1
  5
781
 10
-50.8460
 20
-373.318
 30
0.000000
  70
    32
  0
VERTEX
  8
┌▓È_1
  5
782
 10
-50.8920
 20
-372.943
 30
0.000000
  70
    32
  0
VERTEX
  8
┌▓È_1
  5
783
 10
-50.9364
 20
-372.565
 30
0.000000
  70
    32
  0
VERTEX
  8
┌▓È_1
  5
784
 10
-50.9793
 20
-372.186
 30
0.000000
  70
    32
  0
VERTEX
  8
┌▓È_1
  5
785
 10
-51.0207
 20
-371.805
 30
0.000000
  70
    32
  0
VERTEX
  8
┌▓È_1
  5
786
 10
-51.0606
 20
-371.421
 30
0.000000
  70
    32
  0
VERTEX
  8
┌▓È_1
  5
787
 10
-51.0989
 20
-371.037
 30
0.000000
  70
    32
  0
VERTEX
  8
┌▓È_1
  5
788
 10
-51.1357
 20
-370.650
 30
0.000000
  70
    32
  0
VERTEX
  8
┌▓È_1
  5
789
 10
-51.1709
 20
-370.262
 30
0.000000
  70
    32
  0
VERTEX
  8
┌▓È_1
  5
78A
 10
-51.2046
 20
-369.872
 30
0.000000
  70
    32
  0
VERTEX
  8
┌▓È_1
  5
78B
 10
-51.2367
 20
-369.481
 30
0.000000
  70
    32
  0
VERTEX
  8
┌▓È_1
  5
78C
 10
-51.2673
 20
-369.088
 30
0.000000
  70
    32
  0
VERTEX
  8
┌▓È_1
  5
78D
 10
-51.2962
 20
-368.694
 30
0.000000
  70
    32
  0
VERTEX
  8
┌▓È_1
  5
78E
 10
-51.3236
 20
-368.299
 30
0.000000
  70
    32
  0
VERTEX
  8
┌▓È_1
  5
78F
 10
-51.3494
 20
-367.902
 30
0.000000
  70
    32
  0
VERTEX
  8
┌▓È_1
  5
790
 10
-51.3737
 20
-367.505
 30
0.000000
  70
    32
  0
VERTEX
  8
┌▓È_1
  5
791
 10
-51.3963
 20
-367.106
 30
0.000000
  70
    32
  0
VERTEX
  8
┌▓È_1
  5
792
 10
-51.4174
 20
-366.706
 30
0.000000
  70
    32
  0
VERTEX
  8
┌▓È_1
  5
793
 10
-51.4369
 20
-366.304
 30
0.000000
  70
    32
  0
VERTEX
  8
┌▓È_1
  5
794
 10
-51.4548
 20
-365.902
 30
0.000000
  70
    32
  0
VERTEX
  8
┌▓È_1
  5
795
 10
-51.4710
 20
-365.499
 30
0.000000
  70
    32
  0
VERTEX
  8
┌▓È_1
  5
796
 10
-51.4857
 20
-365.095
 30
0.000000
  70
    32
  0
VERTEX
  8
┌▓È_1
  5
797
 10
-51.4988
 20
-364.691
 30
0.000000
  70
    32
  0
VERTEX
  8
┌▓È_1
  5
798
 10
-51.5102
 20
-364.285
 30
0.000000
  70
    32
  0
VERTEX
  8
┌▓È_1
  5
799
 10
-51.5201
 20
-363.879
 30
0.000000
  70
    32
  0
VERTEX
  8
┌▓È_1
  5
79A
 10
-51.5284
 20
-363.473
 30
0.000000
  70
    32
  0
VERTEX
  8
┌▓È_1
  5
79B
 10
-51.5350
 20
-363.065
 30
0.000000
  70
    32
  0
VERTEX
  8
┌▓È_1
  5
79C
 10
-51.5400
 20
-362.658
 30
0.000000
  70
    32
  0
VERTEX
  8
┌▓È_1
  5
79D
 10
-51.5435
 20
-362.250
 30
0.000000
  70
    32
  0
VERTEX
  8
┌▓È_1
  5
79E
 10
-51.5453
 20
-361.841
 30
0.000000
  70
    32
  0
VERTEX
  8
┌▓È_1
  5
79F
 10
-51.5455
 20
-361.432
 30
0.000000
  70
    32
  0
VERTEX
  8
┌▓È_1
  5
7A0
 10
-51.5441
 20
-361.023
 30
0.000000
  70
    32
  0
VERTEX
  8
┌▓È_1
  5
7A1
 10
-51.5411
 20
-360.614
 30
0.000000
  70
    32
  0
VERTEX
  8
┌▓È_1
  5
7A2
 10
-51.5364
 20
-360.205
 30
0.000000
  70
    32
  0
VERTEX
  8
┌▓È_1
  5
7A3
 10
-51.5302
 20
-359.795
 30
0.000000
  70
    32
  0
SEQEND
  8
┌▓È_1
  5
7A4
  0
POLYLINE
  5
2C7
  8
┌▓È_1
 62
     5
 10
-51.476496426148493
 20
-357.79460737702465
 30
0.0
 66
     1
 70
     8
  0
VERTEX
  8
┌▓È_1
  5
7A5
 10
-51.4765
 20
-357.795
 30
0.000000
  70
    32
  0
VERTEX
  8
┌▓È_1
  5
7A6
 10
-51.4613
 20
-357.399
 30
0.000000
  70
    32
  0
VERTEX
  8
┌▓È_1
  5
7A7
 10
-51.4446
 20
-357.003
 30
0.000000
  70
    32
  0
VERTEX
  8
┌▓È_1
  5
7A8
 10
-51.4264
 20
-356.607
 30
0.000000
  70
    32
  0
VERTEX
  8
┌▓È_1
  5
7A9
 10
-51.4067
 20
-356.213
 30
0.000000
  70
    32
  0
VERTEX
  8
┌▓È_1
  5
7AA
 10
-51.3855
 20
-355.818
 30
0.000000
  70
    32
  0
VERTEX
  8
┌▓È_1
  5
7AB
 10
-51.3628
 20
-355.425
 30
0.000000
  70
    32
  0
VERTEX
  8
┌▓È_1
  5
7AC
 10
-51.3386
 20
-355.031
 30
0.000000
  70
    32
  0
VERTEX
  8
┌▓È_1
  5
7AD
 10
-51.3130
 20
-354.639
 30
0.000000
  70
    32
  0
VERTEX
  8
┌▓È_1
  5
7AE
 10
-51.2858
 20
-354.247
 30
0.000000
  70
    32
  0
VERTEX
  8
┌▓È_1
  5
7AF
 10
-51.2572
 20
-353.856
 30
0.000000
  70
    32
  0
VERTEX
  8
┌▓È_1
  5
7B0
 10
-51.2271
 20
-353.466
 30
0.000000
  70
    32
  0
VERTEX
  8
┌▓È_1
  5
7B1
 10
-51.1955
 20
-353.077
 30
0.000000
  70
    32
  0
VERTEX
  8
┌▓È_1
  5
7B2
 10
-51.1625
 20
-352.689
 30
0.000000
  70
    32
  0
VERTEX
  8
┌▓È_1
  5
7B3
 10
-51.1280
 20
-352.302
 30
0.000000
  70
    32
  0
VERTEX
  8
┌▓È_1
  5
7B4
 10
-51.0920
 20
-351.915
 30
0.000000
  70
    32
  0
VERTEX
  8
┌▓È_1
  5
7B5
 10
-51.0546
 20
-351.530
 30
0.000000
  70
    32
  0
VERTEX
  8
┌▓È_1
  5
7B6
 10
-51.0158
 20
-351.147
 30
0.000000
  70
    32
  0
VERTEX
  8
┌▓È_1
  5
7B7
 10
-50.9755
 20
-350.764
 30
0.000000
  70
    32
  0
VERTEX
  8
┌▓È_1
  5
7B8
 10
-50.9337
 20
-350.383
 30
0.000000
  70
    32
  0
VERTEX
  8
┌▓È_1
  5
7B9
 10
-50.8906
 20
-350.003
 30
0.000000
  70
    32
  0
VERTEX
  8
┌▓È_1
  5
7BA
 10
-50.8460
 20
-349.624
 30
0.000000
  70
    32
  0
VERTEX
  8
┌▓È_1
  5
7BB
 10
-50.8000
 20
-349.247
 30
0.000000
  70
    32
  0
VERTEX
  8
┌▓È_1
  5
7BC
 10
-50.7526
 20
-348.871
 30
0.000000
  70
    32
  0
VERTEX
  8
┌▓È_1
  5
7BD
 10
-50.7038
 20
-348.497
 30
0.000000
  70
    32
  0
VERTEX
  8
┌▓È_1
  5
7BE
 10
-50.6536
 20
-348.125
 30
0.000000
  70
    32
  0
VERTEX
  8
┌▓È_1
  5
7BF
 10
-50.6020
 20
-347.754
 30
0.000000
  70
    32
  0
VERTEX
  8
┌▓È_1
  5
7C0
 10
-50.5490
 20
-347.385
 30
0.000000
  70
    32
  0
VERTEX
  8
┌▓È_1
  5
7C1
 10
-50.4947
 20
-347.017
 30
0.000000
  70
    32
  0
VERTEX
  8
┌▓È_1
  5
7C2
 10
-50.4389
 20
-346.652
 30
0.000000
  70
    32
  0
VERTEX
  8
┌▓È_1
  5
7C3
 10
-50.3819
 20
-346.288
 30
0.000000
  70
    32
  0
VERTEX
  8
┌▓È_1
  5
7C4
 10
-50.3234
 20
-345.926
 30
0.000000
  70
    32
  0
VERTEX
  8
┌▓È_1
  5
7C5
 10
-50.2637
 20
-345.566
 30
0.000000
  70
    32
  0
VERTEX
  8
┌▓È_1
  5
7C6
 10
-50.2025
 20
-345.209
 30
0.000000
  70
    32
  0
VERTEX
  8
┌▓È_1
  5
7C7
 10
-50.1401
 20
-344.853
 30
0.000000
  70
    32
  0
VERTEX
  8
┌▓È_1
  5
7C8
 10
-50.0764
 20
-344.499
 30
0.000000
  70
    32
  0
VERTEX
  8
┌▓È_1
  5
7C9
 10
-50.0113
 20
-344.148
 30
0.000000
  70
    32
  0
VERTEX
  8
┌▓È_1
  5
7CA
 10
-49.9449
 20
-343.798
 30
0.000000
  70
    32
  0
VERTEX
  8
┌▓È_1
  5
7CB
 10
-49.8773
 20
-343.451
 30
0.000000
  70
    32
  0
VERTEX
  8
┌▓È_1
  5
7CC
 10
-49.8083
 20
-343.107
 30
0.000000
  70
    32
  0
VERTEX
  8
┌▓È_1
  5
7CD
 10
-49.7381
 20
-342.764
 30
0.000000
  70
    32
  0
VERTEX
  8
┌▓È_1
  5
7CE
 10
-49.6667
 20
-342.424
 30
0.000000
  70
    32
  0
VERTEX
  8
┌▓È_1
  5
7CF
 10
-49.5940
 20
-342.087
 30
0.000000
  70
    32
  0
VERTEX
  8
┌▓È_1
  5
7D0
 10
-49.5200
 20
-341.752
 30
0.000000
  70
    32
  0
VERTEX
  8
┌▓È_1
  5
7D1
 10
-49.4448
 20
-341.420
 30
0.000000
  70
    32
  0
VERTEX
  8
┌▓È_1
  5
7D2
 10
-49.3684
 20
-341.090
 30
0.000000
  70
    32
  0
VERTEX
  8
┌▓È_1
  5
7D3
 10
-49.2908
 20
-340.763
 30
0.000000
  70
    32
  0
VERTEX
  8
┌▓È_1
  5
7D4
 10
-49.2120
 20
-340.438
 30
0.000000
  70
    32
  0
VERTEX
  8
┌▓È_1
  5
7D5
 10
-49.1320
 20
-340.116
 30
0.000000
  70
    32
  0
VERTEX
  8
┌▓È_1
  5
7D6
 10
-49.0508
 20
-339.797
 30
0.000000
  70
    32
  0
VERTEX
  8
┌▓È_1
  5
7D7
 10
-48.9685
 20
-339.481
 30
0.000000
  70
    32
  0
VERTEX
  8
┌▓È_1
  5
7D8
 10
-48.8850
 20
-339.168
 30
0.000000
  70
    32
  0
VERTEX
  8
┌▓È_1
  5
7D9
 10
-48.8003
 20
-338.858
 30
0.000000
  70
    32
  0
VERTEX
  8
┌▓È_1
  5
7DA
 10
-48.7146
 20
-338.550
 30
0.000000
  70
    32
  0
VERTEX
  8
┌▓È_1
  5
7DB
 10
-48.6277
 20
-338.246
 30
0.000000
  70
    32
  0
VERTEX
  8
┌▓È_1
  5
7DC
 10
-48.5397
 20
-337.944
 30
0.000000
  70
    32
  0
VERTEX
  8
┌▓È_1
  5
7DD
 10
-48.4506
 20
-337.646
 30
0.000000
  70
    32
  0
VERTEX
  8
┌▓È_1
  5
7DE
 10
-48.3605
 20
-337.351
 30
0.000000
  70
    32
  0
VERTEX
  8
┌▓È_1
  5
7DF
 10
-48.2692
 20
-337.059
 30
0.000000
  70
    32
  0
VERTEX
  8
┌▓È_1
  5
7E0
 10
-48.1769
 20
-336.770
 30
0.000000
  70
    32
  0
VERTEX
  8
┌▓È_1
  5
7E1
 10
-48.0836
 20
-336.485
 30
0.000000
  70
    32
  0
VERTEX
  8
┌▓È_1
  5
7E2
 10
-47.9893
 20
-336.202
 30
0.000000
  70
    32
  0
VERTEX
  8
┌▓È_1
  5
7E3
 10
-47.8939
 20
-335.923
 30
0.000000
  70
    32
  0
VERTEX
  8
┌▓È_1
  5
7E4
 10
-47.7975
 20
-335.648
 30
0.000000
  70
    32
  0
VERTEX
  8
┌▓È_1
  5
7E5
 10
-47.7002
 20
-335.376
 30
0.000000
  70
    32
  0
VERTEX
  8
┌▓È_1
  5
7E6
 10
-47.6018
 20
-335.107
 30
0.000000
  70
    32
  0
VERTEX
  8
┌▓È_1
  5
7E7
 10
-47.5025
 20
-334.842
 30
0.000000
  70
    32
  0
VERTEX
  8
┌▓È_1
  5
7E8
 10
-47.4023
 20
-334.580
 30
0.000000
  70
    32
  0
VERTEX
  8
┌▓È_1
  5
7E9
 10
-47.3011
 20
-334.322
 30
0.000000
  70
    32
  0
VERTEX
  8
┌▓È_1
  5
7EA
 10
-47.1990
 20
-334.067
 30
0.000000
  70
    32
  0
VERTEX
  8
┌▓È_1
  5
7EB
 10
-47.0960
 20
-333.816
 30
0.000000
  70
    32
  0
VERTEX
  8
┌▓È_1
  5
7EC
 10
-46.9921
 20
-333.569
 30
0.000000
  70
    32
  0
VERTEX
  8
┌▓È_1
  5
7ED
 10
-46.8874
 20
-333.326
 30
0.000000
  70
    32
  0
VERTEX
  8
┌▓È_1
  5
7EE
 10
-46.7818
 20
-333.086
 30
0.000000
  70
    32
  0
VERTEX
  8
┌▓È_1
  5
7EF
 10
-46.6753
 20
-332.850
 30
0.000000
  70
    32
  0
VERTEX
  8
┌▓È_1
  5
7F0
 10
-46.5680
 20
-332.617
 30
0.000000
  70
    32
  0
VERTEX
  8
┌▓È_1
  5
7F1
 10
-46.4599
 20
-332.389
 30
0.000000
  70
    32
  0
VERTEX
  8
┌▓È_1
  5
7F2
 10
-46.3510
 20
-332.165
 30
0.000000
  70
    32
  0
VERTEX
  8
┌▓È_1
  5
7F3
 10
-46.2413
 20
-331.944
 30
0.000000
  70
    32
  0
VERTEX
  8
┌▓È_1
  5
7F4
 10
-46.1308
 20
-331.727
 30
0.000000
  70
    32
  0
VERTEX
  8
┌▓È_1
  5
7F5
 10
-46.0196
 20
-331.514
 30
0.000000
  70
    32
  0
VERTEX
  8
┌▓È_1
  5
7F6
 10
-45.9076
 20
-331.306
 30
0.000000
  70
    32
  0
VERTEX
  8
┌▓È_1
  5
7F7
 10
-45.7949
 20
-331.101
 30
0.000000
  70
    32
  0
VERTEX
  8
┌▓È_1
  5
7F8
 10
-45.6815
 20
-330.900
 30
0.000000
  70
    32
  0
VERTEX
  8
┌▓È_1
  5
7F9
 10
-45.5674
 20
-330.703
 30
0.000000
  70
    32
  0
VERTEX
  8
┌▓È_1
  5
7FA
 10
-45.4527
 20
-330.511
 30
0.000000
  70
    32
  0
VERTEX
  8
┌▓È_1
  5
7FB
 10
-45.3373
 20
-330.322
 30
0.000000
  70
    32
  0
VERTEX
  8
┌▓È_1
  5
7FC
 10
-45.2212
 20
-330.138
 30
0.000000
  70
    32
  0
VERTEX
  8
┌▓È_1
  5
7FD
 10
-45.1045
 20
-329.958
 30
0.000000
  70
    32
  0
VERTEX
  8
┌▓È_1
  5
7FE
 10
-44.9872
 20
-329.782
 30
0.000000
  70
    32
  0
VERTEX
  8
┌▓È_1
  5
7FF
 10
-44.8693
 20
-329.611
 30
0.000000
  70
    32
  0
VERTEX
  8
┌▓È_1
  5
800
 10
-44.7508
 20
-329.443
 30
0.000000
  70
    32
  0
VERTEX
  8
┌▓È_1
  5
801
 10
-44.6318
 20
-329.280
 30
0.000000
  70
    32
  0
VERTEX
  8
┌▓È_1
  5
802
 10
-44.5122
 20
-329.121
 30
0.000000
  70
    32
  0
VERTEX
  8
┌▓È_1
  5
803
 10
-44.3921
 20
-328.967
 30
0.000000
  70
    32
  0
VERTEX
  8
┌▓È_1
  5
804
 10
-44.2715
 20
-328.817
 30
0.000000
  70
    32
  0
VERTEX
  8
┌▓È_1
  5
805
 10
-44.1504
 20
-328.671
 30
0.000000
  70
    32
  0
VERTEX
  8
┌▓È_1
  5
806
 10
-44.0288
 20
-328.530
 30
0.000000
  70
    32
  0
VERTEX
  8
┌▓È_1
  5
807
 10
-43.9068
 20
-328.393
 30
0.000000
  70
    32
  0
VERTEX
  8
┌▓È_1
  5
808
 10
-43.7843
 20
-328.260
 30
0.000000
  70
    32
  0
VERTEX
  8
┌▓È_1
  5
809
 10
-43.6614
 20
-328.132
 30
0.000000
  70
    32
  0
VERTEX
  8
┌▓È_1
  5
80A
 10
-43.5381
 20
-328.008
 30
0.000000
  70
    32
  0
VERTEX
  8
┌▓È_1
  5
80B
 10
-43.4144
 20
-327.889
 30
0.000000
  70
    32
  0
VERTEX
  8
┌▓È_1
  5
80C
 10
-43.2903
 20
-327.774
 30
0.000000
  70
    32
  0
VERTEX
  8
┌▓È_1
  5
80D
 10
-43.1659
 20
-327.664
 30
0.000000
  70
    32
  0
VERTEX
  8
┌▓È_1
  5
80E
 10
-43.0411
 20
-327.559
 30
0.000000
  70
    32
  0
VERTEX
  8
┌▓È_1
  5
80F
 10
-42.9161
 20
-327.458
 30
0.000000
  70
    32
  0
VERTEX
  8
┌▓È_1
  5
810
 10
-42.7907
 20
-327.361
 30
0.000000
  70
    32
  0
VERTEX
  8
┌▓È_1
  5
811
 10
-42.6650
 20
-327.269
 30
0.000000
  70
    32
  0
VERTEX
  8
┌▓È_1
  5
812
 10
-42.5390
 20
-327.182
 30
0.000000
  70
    32
  0
VERTEX
  8
┌▓È_1
  5
813
 10
-42.4129
 20
-327.099
 30
0.000000
  70
    32
  0
VERTEX
  8
┌▓È_1
  5
814
 10
-42.2864
 20
-327.021
 30
0.000000
  70
    32
  0
VERTEX
  8
┌▓È_1
  5
815
 10
-42.1598
 20
-326.947
 30
0.000000
  70
    32
  0
VERTEX
  8
┌▓È_1
  5
816
 10
-42.0330
 20
-326.878
 30
0.000000
  70
    32
  0
VERTEX
  8
┌▓È_1
  5
817
 10
-41.9059
 20
-326.814
 30
0.000000
  70
    32
  0
VERTEX
  8
┌▓È_1
  5
818
 10
-41.7788
 20
-326.755
 30
0.000000
  70
    32
  0
VERTEX
  8
┌▓È_1
  5
819
 10
-41.6515
 20
-326.700
 30
0.000000
  70
    32
  0
VERTEX
  8
┌▓È_1
  5
81A
 10
-41.5240
 20
-326.649
 30
0.000000
  70
    32
  0
VERTEX
  8
┌▓È_1
  5
81B
 10
-41.3965
 20
-326.604
 30
0.000000
  70
    32
  0
VERTEX
  8
┌▓È_1
  5
81C
 10
-41.2688
 20
-326.563
 30
0.000000
  70
    32
  0
VERTEX
  8
┌▓È_1
  5
81D
 10
-41.1411
 20
-326.526
 30
0.000000
  70
    32
  0
VERTEX
  8
┌▓È_1
  5
81E
 10
-41.0134
 20
-326.495
 30
0.000000
  70
    32
  0
VERTEX
  8
┌▓È_1
  5
81F
 10
-40.8856
 20
-326.468
 30
0.000000
  70
    32
  0
VERTEX
  8
┌▓È_1
  5
820
 10
-40.7577
 20
-326.446
 30
0.000000
  70
    32
  0
VERTEX
  8
┌▓È_1
  5
821
 10
-40.6299
 20
-326.428
 30
0.000000
  70
    32
  0
VERTEX
  8
┌▓È_1
  5
822
 10
-40.5021
 20
-326.415
 30
0.000000
  70
    32
  0
VERTEX
  8
┌▓È_1
  5
823
 10
-40.3744
 20
-326.407
 30
0.000000
  70
    32
  0
VERTEX
  8
┌▓È_1
  5
824
 10
-40.2467
 20
-326.404
 30
0.000000
  70
    32
  0
VERTEX
  8
┌▓È_1
  5
825
 10
-40.1190
 20
-326.405
 30
0.000000
  70
    32
  0
SEQEND
  8
┌▓È_1
  5
826
  0
LINE
  5
2C8
  8
┌▓È_1
 62
     5
 10
-98.251562516900009
 20
-306.79531250000002
 30
0.0
 11
-29.001562290500001
 21
-306.79531251229997
 31
0.0
  0
ARC
  5
2C9
  8
┌▓È_1
 62
     5
 10
-24.751562517100002
 20
-310.29531250000002
 30
0.0
 40
0.5
 50
270.0
 51
0.0
  0
LINE
  5
2CA
  8
┌▓È_1
 62
     5
 10
-24.251562517100002
 20
-307.29531250000002
 30
0.0
 11
-24.251562517100002
 21
-310.29531250000002
 31
0.0
  0
LINE
  5
2CB
  8
┌▓È_1
 62
     5
 10
-61.234674480800003
 20
-357.79531250000002
 30
0.0
 11
-23.251562459100001
 21
-357.79531250000002
 31
0.0
  0
LINE
  5
2CC
  8
┌▓È_1
 62
     5
 10
-61.234674480800003
 20
-357.79531250000002
 30
0.0
 11
-61.234674481000013
 21
-359.79531250000002
 31
0.0
  0
ARC
  5
2CD
  8
┌▓È_1
 62
     5
 10
-48.081096810399998
 20
-398.79531250000002
 30
0.0
 40
7.0
 50
270.000004402
 51
0.0000002871
  0
ARC
  5
2CE
  8
┌▓È_1
 62
     5
 10
-38.081096822100001
 20
-396.4573722426
 30
0.0
 40
3.0
 50
88.900000000000006
 51
180.00000028709999
  0
LINE
  5
2CF
  8
┌▓È_1
 62
     5
 10
-171.75156238560001
 20
-310.79531250000002
 30
0.0
 11
-24.751562517100002
 21
-310.79531250000002
 31
0.0
  0
LINE
  5
2D0
  8
┌▓È_1
 62
     5
 10
-171.75156251710001
 20
-306.79531250000002
 30
0.0
 11
-24.751562548799999
 21
-306.79531250000002
 31
0.0
  0
LINE
  5
2D1
  8
┌▓È_1
 62
     5
 10
-155.68454969289999
 20
-330.98294841149999
 30
0.0
 11
-49.242781671899991
 21
-330.98294841149999
 31
0.0
  0
LINE
  5
2D2
  8
┌▓È_1
 62
     5
 10
-158.25156251480001
 20
-323.79531250000002
 30
0.0
 11
-40.751562162600003
 21
-323.79531250000002
 31
0.0
  0
LINE
  5
2D3
  8
┌▓È_1
 62
     5
 10
-148.092493268
 20
-405.79531250000002
 30
0.0
 11
-48.0810962726
 21
-405.79531250000002
 31
0.0
  0
LINE
  5
2D4
  8
┌▓È_1
 62
     5
 10
-23.251562459100001
 20
-357.79531250000002
 30
0.0
 11
-23.251562459300001
 21
-359.79531250000002
 31
0.0
  0
LINE
  5
2D5
  8
┌▓È_1
 62
     5
 10
-61.234674481000013
 20
-359.79531250000002
 30
0.0
 11
-23.251562459300001
 21
-359.79531250000002
 31
0.0
  0
LINE
  5
2D6
  8
┌▓È_1
 62
     5
 10
1.086894397999999
 20
-394.2088830966
 30
0.0
 11
2.3731229833
 21
-327.22123038339998
 31
0.0
  0
LINE
  5
2D7
  8
┌▓È_1
 62
     5
 10
-41.081096822100001
 20
-396.45737225760001
 30
0.0
 11
-41.081096810399998
 21
-398.79531274199991
 31
0.0
  0
LINE
  5
2D8
  8
┌▓È_1
 62
     5
 10
-38.023504494899989
 20
-393.45792510619998
 30
0.0
 11
1.0868943955999999
 21
-394.20888312860001
 31
0.0
  0
ENDBLK
  5
2D9
  8
0
  0
BLOCK
  8
0
  2
BALLON1
 70
     0
 10
0.0
 20
0.0
 30
0.0
  3
BALLON1
  1

  0
INSERT
  5
2DE
  8
0
  6
CONTINUOUS
  2
*U67
 10
0.0
 20
0.0
 30
0.0
  0
CIRCLE
  5
2DF
  8
┌▓È_1
 10
186.6183111222
 20
-419.11953125000002
 30
0.0
 40
20.0
  0
LINE
  5
2E0
  8
Éíû@É³
 10
153.28497778880001
 20
-419.11953125000002
 30
0.0
 11
166.6183111222
 21
-419.11953125000002
 31
0.0
  0
LINE
  5
2E1
  8
Éíû@É³
 10
-122.4445410631
 20
-371.830078125
 30
0.0
 11
153.28497778880001
 21
-419.11953125000002
 31
0.0
  0
SOLID
  5
2E2
  8
Éíû@É³
 10
-122.4445410631
 20
-371.830078125
 30
0.0
 11
-102.0561980322
 21
-371.26841233809989
 31
0.0
 12
-106.674790149
 22
-374.53469567830001
 32
0.0
 13
-106.674790149
 23
-374.53469567830001
 33
0.0
  0
SOLID
  5
2E3
  8
Éíû@É³
 10
-106.674790149
 20
-374.53469567830001
 30
0.0
 11
-103.4085068088
 21
-379.15328779510003
 31
0.0
 12
-122.4445410631
 22
-371.830078125
 32
0.0
 13
-122.4445410631
 23
-371.830078125
 33
0.0
  0
ENDBLK
  5
2E4
  8
0
  0
BLOCK
  8
0
  2
CLUMP23
 70
     0
 10
0.0
 20
0.0
 30
0.0
  3
CLUMP23
  1

  0
LINE
  5
375
  8
┌▓È_1
 62
     5
 10
23.663205429600001
 20
-476.06953125000001
 30
0.0
 11
23.663205429600001
 21
-541.76953125
 31
0.0
  0
LINE
  5
376
  8
┌▓È_1
 62
     5
 10
-36.336794570400002
 20
-477.5695312499999
 30
0.0
 11
-36.336794570400002
 21
-542.56953124999995
 31
0.0
  0
LINE
  5
377
  8
┌▓È_1
 62
     5
 10
-36.336794570400002
 20
-477.5695312499999
 30
0.0
 11
-36.336794570400002
 21
-542.56953124999995
 31
0.0
  0
ARC
  5
378
  8
┌▓È_1
 62
     5
 10
22.863205429600001
 20
-541.76953125
 30
0.0
 40
0.8
 50
270.0
 51
0.0
  0
LINE
  5
379
  8
┌▓È_1
 62
     5
 10
-36.336794570400002
 20
-542.56953124999995
 30
0.0
 11
22.863205429600001
 21
-542.56953124999995
 31
0.0
  0
LINE
  5
37A
  8
┌▓È_1
 62
     5
 10
-38.336794570400002
 20
-477.5695312499999
 30
0.0
 11
-38.336794570400002
 21
-477.06953125000001
 31
0.0
  0
LINE
  5
37B
  8
┌▓È_1
 62
     5
 10
22.163205429600001
 20
-474.56953125000001
 30
0.0
 11
-34.336794570400002
 21
-474.56953125000001
 31
0.0
  0
LINE
  5
37C
  8
┌▓È_1
 62
     5
 10
-38.336794570400002
 20
-477.06953125000001
 30
0.0
 11
-34.336794570400002
 21
-474.56953125000001
 31
0.0
  0
ARC
  5
37D
  8
┌▓È_1
 62
     5
 10
22.163205429600001
 20
-476.06953125000001
 30
0.0
 40
1.5
 50
0.0
 51
90.0
  0
LINE
  5
37E
  8
┌▓È_1
 62
     5
 10
-36.336794570400002
 20
-477.5695312499999
 30
0.0
 11
-38.336794570400002
 21
-477.5695312499999
 31
0.0
  0
ENDBLK
  5
37F
  8
0
  0
BLOCK
  8
0
  2
CLUMP24
 70
     0
 10
0.0
 20
0.0
 30
0.0
  3
CLUMP24
  1

  0
LINE
  5
386
  8
┌▓È_1
 62
     5
 10
-131.25156248299999
 20
-670.36953121390002
 30
0.0
 11
-132.95156247099999
 21
-672.06953120209994
 31
0.0
  0
LINE
  5
387
  8
┌▓È_1
 10
-131.25156251510001
 20
-670.36953124599995
 30
0.0
 11
-131.25156253329999
 21
-692.36953121390002
 31
0.0
  0
LINE
  5
388
  8
┌▓È_1
 62
     5
 10
-131.2515625012
 20
-692.36953121390002
 30
0.0
 11
-132.9515624693
 21
-690.66953124609995
 31
0.0
  0
LINE
  5
389
  8
┌▓È_1
 62
     5
 10
-131.25156253329999
 20
-692.36953121390002
 30
0.0
 11
-131.25156253579999
 21
-695.36953121479985
 31
0.0
  0
LINE
  5
38A
  8
┌▓È_1
 62
     5
 10
-131.25156250410001
 20
-660.36953115839992
 30
0.0
 11
-131.25156251510001
 21
-670.36953124599995
 31
0.0
  0
LINE
  5
38B
  8
┌▓È_1
 62
     5
 10
-155.75156249939999
 20
-575.36953125510001
 30
0.0
 11
-155.75156249240001
 21
-653.36953116059999
 31
0.0
  0
LINE
  5
38C
  8
┌▓È_1
 62
     5
 10
-40.751562499400002
 20
-575.36953124490003
 30
0.0
 11
-40.751562492399991
 21
-653.36953115040001
 31
0.0
  0
LINE
  5
38D
  8
┌▓È_1
  6
BORDER
 62
     3
 10
-98.251562500000006
 20
-541.24260286460003
 30
0.0
 11
-98.251562500000006
 21
-706.26886976979995
 31
0.0
  0
LINE
  5
38E
  8
┌▓È_1
 62
     5
 10
-158.2515624964
 20
-568.36953125529988
 30
0.0
 11
-155.75156249939999
 21
-575.36953125510001
 31
0.0
  0
ARC
  5
38F
  8
┌▓È_1
 62
     5
 10
-160.25156249739999
 20
-557.36953125550008
 30
0.0
 40
2.0
 50
0.0000000051
 51
90.000000005100006
  0
ARC
  5
390
  8
┌▓È_1
 62
     5
 10
-171.75156250009999
 20
-551.86953125649995
 30
0.0
 40
0.5
 50
90.000000005100006
 51
180.00000000509999
  0
LINE
  5
391
  8
┌▓È_1
 62
     5
 10
-172.25156250009999
 20
-551.86953125659988
 30
0.0
 11
-172.25156249989999
 21
-554.8695312566
 31
0.0
  0
ARC
  5
392
  8
┌▓È_1
 62
     5
 10
-171.75156249989999
 20
-554.86953125649995
 30
0.0
 40
0.5
 50
180.00000000509999
 51
270.00000000509999
  0
LINE
  5
393
  8
┌▓È_1
 62
     5
 10
-158.25156249739999
 20
-557.36953125529999
 30
0.0
 11
-158.2515624964
 21
-568.36953125529988
 31
0.0
  0
ARC
  5
394
  8
┌▓È_1
 62
     5
 10
-148.7515624923999
 20
-653.36953115999995
 30
0.0
 40
7.0
 50
180.00000000509999
 51
270.00000000509999
  0
POLYLINE
  5
395
  8
┌▓È_1
 62
     5
 10
-24.751562499856345
 20
-555.36953124349998
 30
0.0
 66
     1
 70
     8
  0
VERTEX
  8
┌▓È_1
  5
827
 10
-24.7516
 20
-555.370
 30
0.000000
  70
    32
  0
VERTEX
  8
┌▓È_1
  5
828
 10
-24.7454
 20
-555.369
 30
0.000000
  70
    32
  0
VERTEX
  8
┌▓È_1
  5
829
 10
-24.7393
 20
-555.369
 30
0.000000
  70
    32
  0
VERTEX
  8
┌▓È_1
  5
82A
 10
-24.7332
 20
-555.369
 30
0.000000
  70
    32
  0
VERTEX
  8
┌▓È_1
  5
82B
 10
-24.7270
 20
-555.369
 30
0.000000
  70
    32
  0
VERTEX
  8
┌▓È_1
  5
82C
 10
-24.7209
 20
-555.369
 30
0.000000
  70
    32
  0
VERTEX
  8
┌▓È_1
  5
82D
 10
-24.7148
 20
-555.368
 30
0.000000
  70
    32
  0
VERTEX
  8
┌▓È_1
  5
82E
 10
-24.7087
 20
-555.368
 30
0.000000
  70
    32
  0
VERTEX
  8
┌▓È_1
  5
82F
 10
-24.7026
 20
-555.367
 30
0.000000
  70
    32
  0
VERTEX
  8
┌▓È_1
  5
830
 10
-24.6965
 20
-555.366
 30
0.000000
  70
    32
  0
VERTEX
  8
┌▓È_1
  5
831
 10
-24.6904
 20
-555.366
 30
0.000000
  70
    32
  0
VERTEX
  8
┌▓È_1
  5
832
 10
-24.6843
 20
-555.365
 30
0.000000
  70
    32
  0
VERTEX
  8
┌▓È_1
  5
833
 10
-24.6782
 20
-555.364
 30
0.000000
  70
    32
  0
VERTEX
  8
┌▓È_1
  5
834
 10
-24.6721
 20
-555.363
 30
0.000000
  70
    32
  0
VERTEX
  8
┌▓È_1
  5
835
 10
-24.6661
 20
-555.362
 30
0.000000
  70
    32
  0
VERTEX
  8
┌▓È_1
  5
836
 10
-24.6600
 20
-555.361
 30
0.000000
  70
    32
  0
VERTEX
  8
┌▓È_1
  5
837
 10
-24.6540
 20
-555.360
 30
0.000000
  70
    32
  0
VERTEX
  8
┌▓È_1
  5
838
 10
-24.6480
 20
-555.359
 30
0.000000
  70
    32
  0
VERTEX
  8
┌▓È_1
  5
839
 10
-24.6420
 20
-555.357
 30
0.000000
  70
    32
  0
VERTEX
  8
┌▓È_1
  5
83A
 10
-24.6360
 20
-555.356
 30
0.000000
  70
    32
  0
VERTEX
  8
┌▓È_1
  5
83B
 10
-24.6301
 20
-555.355
 30
0.000000
  70
    32
  0
VERTEX
  8
┌▓È_1
  5
83C
 10
-24.6241
 20
-555.353
 30
0.000000
  70
    32
  0
VERTEX
  8
┌▓È_1
  5
83D
 10
-24.6182
 20
-555.351
 30
0.000000
  70
    32
  0
VERTEX
  8
┌▓È_1
  5
83E
 10
-24.6123
 20
-555.350
 30
0.000000
  70
    32
  0
VERTEX
  8
┌▓È_1
  5
83F
 10
-24.6064
 20
-555.348
 30
0.000000
  70
    32
  0
VERTEX
  8
┌▓È_1
  5
840
 10
-24.6006
 20
-555.346
 30
0.000000
  70
    32
  0
VERTEX
  8
┌▓È_1
  5
841
 10
-24.5947
 20
-555.344
 30
0.000000
  70
    32
  0
VERTEX
  8
┌▓È_1
  5
842
 10
-24.5889
 20
-555.342
 30
0.000000
  70
    32
  0
VERTEX
  8
┌▓È_1
  5
843
 10
-24.5831
 20
-555.340
 30
0.000000
  70
    32
  0
VERTEX
  8
┌▓È_1
  5
844
 10
-24.5774
 20
-555.338
 30
0.000000
  70
    32
  0
VERTEX
  8
┌▓È_1
  5
845
 10
-24.5716
 20
-555.336
 30
0.000000
  70
    32
  0
VERTEX
  8
┌▓È_1
  5
846
 10
-24.5659
 20
-555.334
 30
0.000000
  70
    32
  0
VERTEX
  8
┌▓È_1
  5
847
 10
-24.5602
 20
-555.331
 30
0.000000
  70
    32
  0
VERTEX
  8
┌▓È_1
  5
848
 10
-24.5546
 20
-555.329
 30
0.000000
  70
    32
  0
VERTEX
  8
┌▓È_1
  5
849
 10
-24.5489
 20
-555.327
 30
0.000000
  70
    32
  0
VERTEX
  8
┌▓È_1
  5
84A
 10
-24.5433
 20
-555.324
 30
0.000000
  70
    32
  0
VERTEX
  8
┌▓È_1
  5
84B
 10
-24.5378
 20
-555.322
 30
0.000000
  70
    32
  0
VERTEX
  8
┌▓È_1
  5
84C
 10
-24.5323
 20
-555.319
 30
0.000000
  70
    32
  0
VERTEX
  8
┌▓È_1
  5
84D
 10
-24.5268
 20
-555.316
 30
0.000000
  70
    32
  0
VERTEX
  8
┌▓È_1
  5
84E
 10
-24.5213
 20
-555.313
 30
0.000000
  70
    32
  0
VERTEX
  8
┌▓È_1
  5
84F
 10
-24.5159
 20
-555.310
 30
0.000000
  70
    32
  0
VERTEX
  8
┌▓È_1
  5
850
 10
-24.5105
 20
-555.308
 30
0.000000
  70
    32
  0
VERTEX
  8
┌▓È_1
  5
851
 10
-24.5051
 20
-555.305
 30
0.000000
  70
    32
  0
VERTEX
  8
┌▓È_1
  5
852
 10
-24.4998
 20
-555.302
 30
0.000000
  70
    32
  0
VERTEX
  8
┌▓È_1
  5
853
 10
-24.4945
 20
-555.298
 30
0.000000
  70
    32
  0
VERTEX
  8
┌▓È_1
  5
854
 10
-24.4893
 20
-555.295
 30
0.000000
  70
    32
  0
VERTEX
  8
┌▓È_1
  5
855
 10
-24.4841
 20
-555.292
 30
0.000000
  70
    32
  0
VERTEX
  8
┌▓È_1
  5
856
 10
-24.4789
 20
-555.289
 30
0.000000
  70
    32
  0
VERTEX
  8
┌▓È_1
  5
857
 10
-24.4738
 20
-555.285
 30
0.000000
  70
    32
  0
VERTEX
  8
┌▓È_1
  5
858
 10
-24.4687
 20
-555.282
 30
0.000000
  70
    32
  0
VERTEX
  8
┌▓È_1
  5
859
 10
-24.4637
 20
-555.278
 30
0.000000
  70
    32
  0
VERTEX
  8
┌▓È_1
  5
85A
 10
-24.4587
 20
-555.275
 30
0.000000
  70
    32
  0
VERTEX
  8
┌▓È_1
  5
85B
 10
-24.4537
 20
-555.271
 30
0.000000
  70
    32
  0
VERTEX
  8
┌▓È_1
  5
85C
 10
-24.4488
 20
-555.267
 30
0.000000
  70
    32
  0
VERTEX
  8
┌▓È_1
  5
85D
 10
-24.4439
 20
-555.264
 30
0.000000
  70
    32
  0
VERTEX
  8
┌▓È_1
  5
85E
 10
-24.4391
 20
-555.260
 30
0.000000
  70
    32
  0
VERTEX
  8
┌▓È_1
  5
85F
 10
-24.4344
 20
-555.256
 30
0.000000
  70
    32
  0
VERTEX
  8
┌▓È_1
  5
860
 10
-24.4296
 20
-555.252
 30
0.000000
  70
    32
  0
VERTEX
  8
┌▓È_1
  5
861
 10
-24.4250
 20
-555.248
 30
0.000000
  70
    32
  0
VERTEX
  8
┌▓È_1
  5
862
 10
-24.4204
 20
-555.244
 30
0.000000
  70
    32
  0
VERTEX
  8
┌▓È_1
  5
863
 10
-24.4158
 20
-555.240
 30
0.000000
  70
    32
  0
VERTEX
  8
┌▓È_1
  5
864
 10
-24.4113
 20
-555.236
 30
0.000000
  70
    32
  0
VERTEX
  8
┌▓È_1
  5
865
 10
-24.4068
 20
-555.232
 30
0.000000
  70
    32
  0
VERTEX
  8
┌▓È_1
  5
866
 10
-24.4024
 20
-555.227
 30
0.000000
  70
    32
  0
VERTEX
  8
┌▓È_1
  5
867
 10
-24.3980
 20
-555.223
 30
0.000000
  70
    32
  0
VERTEX
  8
┌▓È_1
  5
868
 10
-24.3937
 20
-555.219
 30
0.000000
  70
    32
  0
VERTEX
  8
┌▓È_1
  5
869
 10
-24.3894
 20
-555.214
 30
0.000000
  70
    32
  0
VERTEX
  8
┌▓È_1
  5
86A
 10
-24.3852
 20
-555.210
 30
0.000000
  70
    32
  0
VERTEX
  8
┌▓È_1
  5
86B
 10
-24.3811
 20
-555.205
 30
0.000000
  70
    32
  0
VERTEX
  8
┌▓È_1
  5
86C
 10
-24.3770
 20
-555.201
 30
0.000000
  70
    32
  0
VERTEX
  8
┌▓È_1
  5
86D
 10
-24.3730
 20
-555.196
 30
0.000000
  70
    32
  0
VERTEX
  8
┌▓È_1
  5
86E
 10
-24.3690
 20
-555.191
 30
0.000000
  70
    32
  0
VERTEX
  8
┌▓È_1
  5
86F
 10
-24.3651
 20
-555.187
 30
0.000000
  70
    32
  0
VERTEX
  8
┌▓È_1
  5
870
 10
-24.3612
 20
-555.182
 30
0.000000
  70
    32
  0
VERTEX
  8
┌▓È_1
  5
871
 10
-24.3574
 20
-555.177
 30
0.000000
  70
    32
  0
VERTEX
  8
┌▓È_1
  5
872
 10
-24.3536
 20
-555.172
 30
0.000000
  70
    32
  0
VERTEX
  8
┌▓È_1
  5
873
 10
-24.3500
 20
-555.167
 30
0.000000
  70
    32
  0
VERTEX
  8
┌▓È_1
  5
874
 10
-24.3463
 20
-555.162
 30
0.000000
  70
    32
  0
VERTEX
  8
┌▓È_1
  5
875
 10
-24.3428
 20
-555.157
 30
0.000000
  70
    32
  0
VERTEX
  8
┌▓È_1
  5
876
 10
-24.3393
 20
-555.152
 30
0.000000
  70
    32
  0
VERTEX
  8
┌▓È_1
  5
877
 10
-24.3358
 20
-555.147
 30
0.000000
  70
    32
  0
VERTEX
  8
┌▓È_1
  5
878
 10
-24.3325
 20
-555.142
 30
0.000000
  70
    32
  0
VERTEX
  8
┌▓È_1
  5
879
 10
-24.3291
 20
-555.137
 30
0.000000
  70
    32
  0
VERTEX
  8
┌▓È_1
  5
87A
 10
-24.3259
 20
-555.132
 30
0.000000
  70
    32
  0
VERTEX
  8
┌▓È_1
  5
87B
 10
-24.3227
 20
-555.127
 30
0.000000
  70
    32
  0
VERTEX
  8
┌▓È_1
  5
87C
 10
-24.3196
 20
-555.121
 30
0.000000
  70
    32
  0
VERTEX
  8
┌▓È_1
  5
87D
 10
-24.3165
 20
-555.116
 30
0.000000
  70
    32
  0
VERTEX
  8
┌▓È_1
  5
87E
 10
-24.3135
 20
-555.111
 30
0.000000
  70
    32
  0
VERTEX
  8
┌▓È_1
  5
87F
 10
-24.3106
 20
-555.105
 30
0.000000
  70
    32
  0
VERTEX
  8
┌▓È_1
  5
880
 10
-24.3077
 20
-555.100
 30
0.000000
  70
    32
  0
VERTEX
  8
┌▓È_1
  5
881
 10
-24.3050
 20
-555.094
 30
0.000000
  70
    32
  0
VERTEX
  8
┌▓È_1
  5
882
 10
-24.3022
 20
-555.089
 30
0.000000
  70
    32
  0
VERTEX
  8
┌▓È_1
  5
883
 10
-24.2996
 20
-555.083
 30
0.000000
  70
    32
  0
VERTEX
  8
┌▓È_1
  5
884
 10
-24.2970
 20
-555.078
 30
0.000000
  70
    32
  0
VERTEX
  8
┌▓È_1
  5
885
 10
-24.2945
 20
-555.072
 30
0.000000
  70
    32
  0
VERTEX
  8
┌▓È_1
  5
886
 10
-24.2920
 20
-555.067
 30
0.000000
  70
    32
  0
VERTEX
  8
┌▓È_1
  5
887
 10
-24.2896
 20
-555.061
 30
0.000000
  70
    32
  0
VERTEX
  8
┌▓È_1
  5
888
 10
-24.2873
 20
-555.055
 30
0.000000
  70
    32
  0
VERTEX
  8
┌▓È_1
  5
889
 10
-24.2851
 20
-555.049
 30
0.000000
  70
    32
  0
VERTEX
  8
┌▓È_1
  5
88A
 10
-24.2829
 20
-555.044
 30
0.000000
  70
    32
  0
VERTEX
  8
┌▓È_1
  5
88B
 10
-24.2808
 20
-555.038
 30
0.000000
  70
    32
  0
VERTEX
  8
┌▓È_1
  5
88C
 10
-24.2788
 20
-555.032
 30
0.000000
  70
    32
  0
VERTEX
  8
┌▓È_1
  5
88D
 10
-24.2768
 20
-555.026
 30
0.000000
  70
    32
  0
VERTEX
  8
┌▓È_1
  5
88E
 10
-24.2749
 20
-555.021
 30
0.000000
  70
    32
  0
VERTEX
  8
┌▓È_1
  5
88F
 10
-24.2731
 20
-555.015
 30
0.000000
  70
    32
  0
VERTEX
  8
┌▓È_1
  5
890
 10
-24.2713
 20
-555.009
 30
0.000000
  70
    32
  0
VERTEX
  8
┌▓È_1
  5
891
 10
-24.2697
 20
-555.003
 30
0.000000
  70
    32
  0
VERTEX
  8
┌▓È_1
  5
892
 10
-24.2681
 20
-554.997
 30
0.000000
  70
    32
  0
VERTEX
  8
┌▓È_1
  5
893
 10
-24.2665
 20
-554.991
 30
0.000000
  70
    32
  0
VERTEX
  8
┌▓È_1
  5
894
 10
-24.2651
 20
-554.985
 30
0.000000
  70
    32
  0
VERTEX
  8
┌▓È_1
  5
895
 10
-24.2637
 20
-554.979
 30
0.000000
  70
    32
  0
VERTEX
  8
┌▓È_1
  5
896
 10
-24.2624
 20
-554.973
 30
0.000000
  70
    32
  0
VERTEX
  8
┌▓È_1
  5
897
 10
-24.2612
 20
-554.967
 30
0.000000
  70
    32
  0
VERTEX
  8
┌▓È_1
  5
898
 10
-24.2600
 20
-554.961
 30
0.000000
  70
    32
  0
VERTEX
  8
┌▓È_1
  5
899
 10
-24.2589
 20
-554.955
 30
0.000000
  70
    32
  0
VERTEX
  8
┌▓È_1
  5
89A
 10
-24.2579
 20
-554.949
 30
0.000000
  70
    32
  0
VERTEX
  8
┌▓È_1
  5
89B
 10
-24.2570
 20
-554.943
 30
0.000000
  70
    32
  0
VERTEX
  8
┌▓È_1
  5
89C
 10
-24.2561
 20
-554.937
 30
0.000000
  70
    32
  0
VERTEX
  8
┌▓È_1
  5
89D
 10
-24.2553
 20
-554.931
 30
0.000000
  70
    32
  0
VERTEX
  8
┌▓È_1
  5
89E
 10
-24.2546
 20
-554.925
 30
0.000000
  70
    32
  0
VERTEX
  8
┌▓È_1
  5
89F
 10
-24.2540
 20
-554.919
 30
0.000000
  70
    32
  0
VERTEX
  8
┌▓È_1
  5
8A0
 10
-24.2534
 20
-554.912
 30
0.000000
  70
    32
  0
VERTEX
  8
┌▓È_1
  5
8A1
 10
-24.2529
 20
-554.906
 30
0.000000
  70
    32
  0
VERTEX
  8
┌▓È_1
  5
8A2
 10
-24.2525
 20
-554.900
 30
0.000000
  70
    32
  0
VERTEX
  8
┌▓È_1
  5
8A3
 10
-24.2522
 20
-554.894
 30
0.000000
  70
    32
  0
VERTEX
  8
┌▓È_1
  5
8A4
 10
-24.2519
 20
-554.888
 30
0.000000
  70
    32
  0
VERTEX
  8
┌▓È_1
  5
8A5
 10
-24.2517
 20
-554.882
 30
0.000000
  70
    32
  0
VERTEX
  8
┌▓È_1
  5
8A6
 10
-24.2516
 20
-554.876
 30
0.000000
  70
    32
  0
VERTEX
  8
┌▓È_1
  5
8A7
 10
-24.2516
 20
-554.870
 30
0.000000
  70
    32
  0
SEQEND
  8
┌▓È_1
  5
8A8
  0
LINE
  5
396
  8
┌▓È_1
 62
     5
 10
-24.251562500100011
 20
-551.86953124339993
 30
0.0
 11
-24.2515624999
 21
-554.86953124339993
 31
0.0
  0
ARC
  5
397
  8
┌▓È_1
 62
     5
 10
-24.7515625001
 20
-551.86953124349986
 30
0.0
 40
0.5
 50
0.0000000051
 51
90.000000005000004
  0
LINE
  5
398
  8
┌▓È_1
 62
     5
 10
-38.251562496399998
 20
-568.36953124470006
 30
0.0
 11
-40.751562499400002
 21
-575.36953124490003
 31
0.0
  0
LINE
  5
399
  8
┌▓È_1
 62
     5
 10
-38.251562497400002
 20
-557.36953124470006
 30
0.0
 11
-38.251562496399998
 21
-568.36953124470006
 31
0.0
  0
ARC
  5
39A
  8
┌▓È_1
 62
     5
 10
-36.251562497400002
 20
-557.36953124449985
 30
0.0
 40
2.0
 50
90.000000005100006
 51
180.00000000509999
  0
LINE
  5
39B
  8
┌▓È_1
 62
     5
 10
-65.251562523299995
 20
-670.36953120800001
 30
0.0
 11
-63.551562535099997
 21
-672.06953119599996
 31
0.0
  0
LINE
  5
39C
  8
┌▓È_1
 62
     5
 10
-65.251562501199999
 20
-692.36953120800001
 30
0.0
 11
-63.551562533400002
 21
-690.66953123990004
 31
0.0
  0
LINE
  5
39D
  8
┌▓È_1
 62
     5
 10
-65.251562504099994
 20
-660.36953115259996
 30
0.0
 11
-65.251562491300007
 21
-670.36953124009995
 31
0.0
  0
LINE
  5
39E
  8
┌▓È_1
 10
-65.251562491300007
 20
-670.36953124009995
 30
0.0
 11
-65.251562469199996
 21
-692.36953120800001
 31
0.0
  0
LINE
  5
39F
  8
┌▓È_1
 62
     5
 10
-65.251562469199996
 20
-692.36953120800001
 30
0.0
 11
-65.251562466199985
 21
-695.36953115170002
 31
0.0
  0
ARC
  5
3A0
  8
┌▓È_1
 62
     5
 10
-47.751562492399998
 20
-653.36953115099993
 30
0.0
 40
7.0
 50
270.00000000509999
 51
0.0000000051
  0
LINE
  5
3A1
  8
┌▓È_1
 62
     5
 10
-63.551562535099997
 20
-672.06953119599996
 30
0.0
 11
-63.551562533400002
 21
-690.66953123990004
 31
0.0
  0
LINE
  5
3A2
  8
┌▓È_1
 62
     5
 10
-131.25156253579999
 20
-695.36953121479985
 30
0.0
 11
-65.251562466199985
 21
-695.36953115170002
 31
0.0
  0
LINE
  5
3A3
  8
┌▓È_1
 62
     5
 10
-171.75156250020001
 20
-551.36953125649995
 30
0.0
 11
-24.751562531800001
 21
-551.36953124349986
 31
0.0
  0
LINE
  5
3A4
  8
┌▓È_1
 62
     5
 10
-131.25156255970001
 20
-670.36953130320001
 30
0.0
 11
-65.2515624901
 21
-670.36953124009995
 31
0.0
  0
LINE
  5
3A5
  8
┌▓È_1
 62
     5
 10
-131.25156253860001
 20
-692.36953127109985
 30
0.0
 11
-65.251562468999992
 21
-692.36953120800001
 31
0.0
  0
LINE
  5
3A6
  8
┌▓È_1
 62
     5
 10
-132.9515624693
 20
-690.66953124759993
 30
0.0
 11
-63.551562533400002
 21
-690.66953123990004
 31
0.0
  0
LINE
  5
3A7
  8
┌▓È_1
 62
     5
 10
-132.95156247099999
 20
-672.06953120360004
 30
0.0
 11
-63.551562535099997
 21
-672.06953119599996
 31
0.0
  0
LINE
  5
3A8
  8
┌▓È_1
 62
     5
 10
-47.751562491800001
 20
-660.36953115099993
 30
0.0
 11
-148.7515624918
 21
-660.36953115999995
 31
0.0
  0
LINE
  5
3A9
  8
┌▓È_1
 62
     5
 10
-155.75156249939999
 20
-575.36953125510001
 30
0.0
 11
-40.751562499400002
 21
-575.36953124490003
 31
0.0
  0
LINE
  5
3AA
  8
┌▓È_1
 62
     5
 10
-38.251562496399998
 20
-568.36953124470006
 30
0.0
 11
-158.2515624964
 21
-568.36953125529988
 31
0.0
  0
LINE
  5
3AB
  8
┌▓È_1
 62
     5
 10
-24.751562499799999
 20
-555.36953124349986
 30
0.0
 11
-171.7515624998
 21
-555.36953125649995
 31
0.0
  0
LINE
  5
3AC
  8
┌▓È_1
 62
     5
 10
-132.95156247099999
 20
-672.06953120209994
 30
0.0
 11
-132.9515624693
 21
-690.66953124609995
 31
0.0
  0
ENDBLK
  5
3AD
  8
0
  0
BLOCK
  8
0
  2
CLUMP25
 70
     0
 10
0.0
 20
0.0
 30
0.0
  3
CLUMP25
  1

  0
LINE
  5
3B1
  8
┌▓È_1
 62
     5
 10
-775.25156249999998
 20
-476.06953125000001
 30
0.0
 11
-775.25156249999998
 21
-541.76953125
 31
0.0
  0
LINE
  5
3B2
  8
┌▓È_1
 62
     5
 10
-715.25156249999986
 20
-477.5695312499999
 30
0.0
 11
-715.25156249999986
 21
-542.56953124999995
 31
0.0
  0
LINE
  5
3B3
  8
┌▓È_1
 62
     5
 10
-715.25156249999986
 20
-477.5695312499999
 30
0.0
 11
-715.25156249999986
 21
-542.56953124999995
 31
0.0
  0
ARC
  5
3B4
  8
┌▓È_1
 62
     5
 10
-774.45156250000002
 20
-541.76953125
 30
0.0
 40
0.8
 50
180.0
 51
270.0
  0
LINE
  5
3B5
  8
┌▓È_1
 62
     5
 10
-715.25156249999986
 20
-542.56953124999995
 30
0.0
 11
-774.45156250000002
 21
-542.56953124999995
 31
0.0
  0
LINE
  5
3B6
  8
┌▓È_1
 62
     5
 10
-713.25156249999986
 20
-477.5695312499999
 30
0.0
 11
-713.25156249999986
 21
-477.06953125000001
 31
0.0
  0
LINE
  5
3B7
  8
┌▓È_1
 62
     5
 10
-773.75156249999998
 20
-474.56953125000001
 30
0.0
 11
-717.25156249999986
 21
-474.56953125000001
 31
0.0
  0
LINE
  5
3B8
  8
┌▓È_1
 62
     5
 10
-713.25156249999986
 20
-477.06953125000001
 30
0.0
 11
-717.25156249999986
 21
-474.56953125000001
 31
0.0
  0
ARC
  5
3B9
  8
┌▓È_1
 62
     5
 10
-773.75156249999998
 20
-476.06953125000001
 30
0.0
 40
1.5
 50
90.0
 51
180.0
  0
LINE
  5
3BA
  8
┌▓È_1
 62
     5
 10
-715.25156249999986
 20
-477.5695312499999
 30
0.0
 11
-713.25156249999986
 21
-477.5695312499999
 31
0.0
  0
ENDBLK
  5
3BB
  8
0
  0
BLOCK
  8
0
  2
CLUMP26
 70
     0
 10
0.0
 20
0.0
 30
0.0
  3
CLUMP26
  1

  0
LINE
  5
3C5
  8
┌▓È_1
 62
     5
 10
319.85559895829999
 20
-31.017187464300001
 30
0.0
 11
385.55559895829998
 21
-31.017187464300001
 31
0.0
  0
LINE
  5
3C6
  8
┌▓È_1
 62
     5
 10
321.35559895829999
 20
28.982812535699999
 30
0.0
 11
386.35559895829999
 21
28.982812535699999
 31
0.0
  0
LINE
  5
3C7
  8
┌▓È_1
 62
     5
 10
321.35559895829999
 20
28.982812535699999
 30
0.0
 11
386.35559895829999
 21
28.982812535699999
 31
0.0
  0
ARC
  5
3C8
  8
┌▓È_1
 62
     5
 10
385.55559895829998
 20
-30.2171874643
 30
0.0
 40
0.8
 50
270.0
 51
0.0
  0
LINE
  5
3C9
  8
┌▓È_1
 62
     5
 10
386.35559895829999
 20
28.982812535699999
 30
0.0
 11
386.35559895829999
 21
-30.2171874643
 31
0.0
  0
LINE
  5
3CA
  8
┌▓È_1
 62
     5
 10
321.35559895829999
 20
30.98281253570001
 30
0.0
 11
320.85559895829999
 21
30.98281253570001
 31
0.0
  0
LINE
  5
3CB
  8
┌▓È_1
 62
     5
 10
318.35559895829999
 20
-29.517187464300001
 30
0.0
 11
318.35559895829999
 21
26.982812535699999
 31
0.0
  0
LINE
  5
3CC
  8
┌▓È_1
 62
     5
 10
320.85559895829999
 20
30.98281253570001
 30
0.0
 11
318.35559895829999
 21
26.982812535699999
 31
0.0
  0
ARC
  5
3CD
  8
┌▓È_1
 62
     5
 10
319.85559895829999
 20
-29.517187464300001
 30
0.0
 40
1.5
 50
180.0
 51
270.0
  0
LINE
  5
3CE
  8
┌▓È_1
 62
     5
 10
321.35559895829999
 20
28.982812535699999
 30
0.0
 11
321.35559895829999
 21
30.98281253570001
 31
0.0
  0
ENDBLK
  5
3CF
  8
0
  0
BLOCK
  8
0
  2
CLUMP27
 70
     0
 10
0.0
 20
0.0
 30
0.0
  3
CLUMP27
  1

  0
LINE
  5
3D3
  8
┌▓È_1
 62
     5
 10
688.85808335520005
 20
-31.017187464300001
 30
0.0
 11
754.55808335519998
 21
-31.017187464300001
 31
0.0
  0
LINE
  5
3D4
  8
┌▓È_1
 62
     5
 10
690.35808335520005
 20
28.982812535699999
 30
0.0
 11
755.35808335520005
 21
28.982812535699999
 31
0.0
  0
LINE
  5
3D5
  8
┌▓È_1
 62
     5
 10
690.35808335520005
 20
28.982812535699999
 30
0.0
 11
755.35808335520005
 21
28.982812535699999
 31
0.0
  0
ARC
  5
3D6
  8
┌▓È_1
 62
     5
 10
754.55808335519998
 20
-30.2171874643
 30
0.0
 40
0.8
 50
270.0
 51
0.0
  0
LINE
  5
3D7
  8
┌▓È_1
 62
     5
 10
755.35808335520005
 20
28.982812535699999
 30
0.0
 11
755.35808335520005
 21
-30.2171874643
 31
0.0
  0
LINE
  5
3D8
  8
┌▓È_1
 62
     5
 10
690.35808335520005
 20
30.98281253570001
 30
0.0
 11
689.85808335520005
 21
30.98281253570001
 31
0.0
  0
LINE
  5
3D9
  8
┌▓È_1
 62
     5
 10
687.35808335520005
 20
-29.517187464300001
 30
0.0
 11
687.35808335520005
 21
26.982812535699999
 31
0.0
  0
LINE
  5
3DA
  8
┌▓È_1
 62
     5
 10
689.85808335520005
 20
30.98281253570001
 30
0.0
 11
687.35808335520005
 21
26.982812535699999
 31
0.0
  0
ARC
  5
3DB
  8
┌▓È_1
 62
     5
 10
688.85808335520005
 20
-29.517187464300001
 30
0.0
 40
1.5
 50
180.0
 51
270.0
  0
LINE
  5
3DC
  8
┌▓È_1
 62
     5
 10
690.35808335520005
 20
28.982812535699999
 30
0.0
 11
690.35808335520005
 21
30.98281253570001
 31
0.0
  0
ENDBLK
  5
3DD
  8
0
  0
BLOCK
  8
0
  2
CLUMP28
 70
     0
 10
0.0
 20
0.0
 30
0.0
  3
CLUMP28
  1

  0
LINE
  5
3E1
  8
┌▓È_1
 62
     5
 10
319.85559895829999
 20
608.98281249360002
 30
0.0
 11
385.55559895829998
 21
608.98281249360002
 31
0.0
  0
LINE
  5
3E2
  8
┌▓È_1
 62
     5
 10
321.35559895829999
 20
548.98281249360002
 30
0.0
 11
386.35559895829999
 21
548.98281249360002
 31
0.0
  0
LINE
  5
3E3
  8
┌▓È_1
 62
     5
 10
321.35559895829999
 20
548.98281249360002
 30
0.0
 11
386.35559895829999
 21
548.98281249360002
 31
0.0
  0
ARC
  5
3E4
  8
┌▓È_1
 62
     5
 10
385.55559895829998
 20
608.18281249359995
 30
0.0
 40
0.8
 50
0.0
 51
90.0
  0
LINE
  5
3E5
  8
┌▓È_1
 62
     5
 10
386.35559895829999
 20
548.98281249360002
 30
0.0
 11
386.35559895829999
 21
608.18281249359995
 31
0.0
  0
LINE
  5
3E6
  8
┌▓È_1
 62
     5
 10
321.35559895829999
 20
546.98281249359991
 30
0.0
 11
320.85559895829999
 21
546.98281249359991
 31
0.0
  0
LINE
  5
3E7
  8
┌▓È_1
 62
     5
 10
318.35559895829999
 20
607.48281249360002
 30
0.0
 11
318.35559895829999
 21
550.98281249359991
 31
0.0
  0
LINE
  5
3E8
  8
┌▓È_1
 62
     5
 10
320.85559895829999
 20
546.98281249359991
 30
0.0
 11
318.35559895829999
 21
550.98281249359991
 31
0.0
  0
ARC
  5
3E9
  8
┌▓È_1
 62
     5
 10
319.85559895829999
 20
607.48281249360002
 30
0.0
 40
1.5
 50
90.0
 51
180.0
  0
LINE
  5
3EA
  8
┌▓È_1
 62
     5
 10
321.35559895829999
 20
548.98281249360002
 30
0.0
 11
321.35559895829999
 21
546.98281249359991
 31
0.0
  0
ENDBLK
  5
3EB
  8
0
  0
BLOCK
  8
0
  2
CLUMP29
 70
     0
 10
0.0
 20
0.0
 30
0.0
  3
CLUMP29
  1

  0
LINE
  5
3EF
  8
┌▓È_1
 62
     5
 10
688.85808335520005
 20
608.98281249360002
 30
0.0
 11
754.55808335519998
 21
608.98281249360002
 31
0.0
  0
LINE
  5
3F0
  8
┌▓È_1
 62
     5
 10
690.35808335520005
 20
548.98281249360002
 30
0.0
 11
755.35808335520005
 21
548.98281249360002
 31
0.0
  0
LINE
  5
3F1
  8
┌▓È_1
 62
     5
 10
690.35808335520005
 20
548.98281249360002
 30
0.0
 11
755.35808335520005
 21
548.98281249360002
 31
0.0
  0
ARC
  5
3F2
  8
┌▓È_1
 62
     5
 10
754.55808335519998
 20
608.18281249359995
 30
0.0
 40
0.8
 50
0.0
 51
90.0
  0
LINE
  5
3F3
  8
┌▓È_1
 62
     5
 10
755.35808335520005
 20
548.98281249360002
 30
0.0
 11
755.35808335520005
 21
608.18281249359995
 31
0.0
  0
LINE
  5
3F4
  8
┌▓È_1
 62
     5
 10
690.35808335520005
 20
546.98281249359991
 30
0.0
 11
689.85808335520005
 21
546.98281249359991
 31
0.0
  0
LINE
  5
3F5
  8
┌▓È_1
 62
     5
 10
687.35808335520005
 20
607.48281249360002
 30
0.0
 11
687.35808335520005
 21
550.98281249359991
 31
0.0
  0
LINE
  5
3F6
  8
┌▓È_1
 62
     5
 10
689.85808335520005
 20
546.98281249359991
 30
0.0
 11
687.35808335520005
 21
550.98281249359991
 31
0.0
  0
ARC
  5
3F7
  8
┌▓È_1
 62
     5
 10
688.85808335520005
 20
607.48281249360002
 30
0.0
 40
1.5
 50
90.0
 51
180.0
  0
LINE
  5
3F8
  8
┌▓È_1
 62
     5
 10
690.35808335520005
 20
548.98281249360002
 30
0.0
 11
690.35808335520005
 21
546.98281249359991
 31
0.0
  0
ENDBLK
  5
3F9
  8
0
  0
BLOCK
  8
0
  2
*D45
 70
     1
 10
0.0
 20
0.0
 30
0.0
  3
*D45
  1

  0
TEXT
  5
3FC
  8
0
 62
     0
 10
-427.28710927959992
 20
-63.1610673904
 30
0.0
 40
17.9916661263
  1
25
 50
90.0
  0
LINE
  5
3FD
  8
0
 62
     0
 10
-467.11210937499999
 20
-31.017187499999999
 30
0.0
 11
-414.11210937499987
 21
-31.017187499999999
 31
0.0
  0
LINE
  5
3FE
  8
0
 62
     0
 10
-467.11210937499999
 20
-6.0171875000000004
 30
0.0
 11
-414.11210937499987
 21
-6.0171875000000004
 31
0.0
  0
LINE
  5
3FF
  8
0
 62
     0
 10
-419.11210937499987
 20
-31.017187499999999
 30
0.0
 11
-419.11210937499987
 21
-31.411068344099998
 31
0.0
  0
LINE
  5
400
  8
0
 62
     0
 10
-419.11210937499987
 20
-31.017187499999999
 30
0.0
 11
-419.11210937499987
 21
-73.744400405899995
 31
0.0
  0
LINE
  5
401
  8
0
 62
     0
 10
-419.11210937499987
 20
-6.0171875000000004
 30
0.0
 11
-419.11210937499987
 21
-31.411068344099998
 31
0.0
  0
LINE
  5
402
  8
0
 62
     0
 10
-419.11210937499987
 20
-6.0171875000000004
 30
0.0
 11
-419.11210937499987
 21
-73.744400405899995
 31
0.0
  0
LINE
  5
403
  8
0
 62
     0
 10
-419.11210937499987
 20
-6.0171875000000004
 30
0.0
 11
-419.11210937499987
 21
-31.017187499999999
 31
0.0
  0
SOLID
  5
404
  8
0
 62
     0
 10
-419.11210937499987
 20
-6.0171875000000004
 30
0.0
 11
-416.52391881940002
 21
-15.676445388799999
 31
0.0
 12
-421.7002999305999
 22
-15.676445388799999
 32
0.0
 13
-419.11210937499987
 23
-13.2616309166
 33
0.0
  0
LINE
  5
405
  8
0
 62
     0
 10
-419.11210937499987
 20
-31.017187499999999
 30
0.0
 11
-419.11210937499987
 21
-6.0171875000000004
 31
0.0
  0
SOLID
  5
406
  8
0
 62
     0
 10
-419.11210937499987
 20
-31.017187499999999
 30
0.0
 11
-421.7002999305999
 21
-21.357929611199999
 31
0.0
 12
-416.52391881940002
 22
-21.357929611199999
 32
0.0
 13
-419.11210937499987
 23
-23.772744083399999
 33
0.0
  0
ENDBLK
  5
407
  8
0
  0
BLOCK
  8
0
  2
*D46
 70
     1
 10
0.0
 20
0.0
 30
0.0
  3
*D46
  1

  0
TEXT
  5
40B
  8
0
 62
     0
 10
-427.28710927959992
 20
625.02018260959994
 30
0.0
 40
17.9916661263
  1
25
 50
90.0
  0
LINE
  5
40C
  8
0
 62
     0
 10
-467.11210937499999
 20
583.98281250000002
 30
0.0
 11
-414.11210937499987
 21
583.98281250000002
 31
0.0
  0
LINE
  5
40D
  8
0
 62
     0
 10
-467.11210937499999
 20
608.98281250000002
 30
0.0
 11
-414.11210937499987
 21
608.98281250000002
 31
0.0
  0
LINE
  5
40E
  8
0
 62
     0
 10
-419.11210937499987
 20
583.98281250000002
 30
0.0
 11
-419.11210937499987
 21
656.77018165589993
 31
0.0
  0
LINE
  5
40F
  8
0
 62
     0
 10
-419.11210937499987
 20
583.98281250000002
 30
0.0
 11
-419.11210937499987
 21
614.43684959410007
 31
0.0
  0
LINE
  5
410
  8
0
 62
     0
 10
-419.11210937499987
 20
608.98281250000002
 30
0.0
 11
-419.11210937499987
 21
656.77018165589993
 31
0.0
  0
LINE
  5
411
  8
0
 62
     0
 10
-419.11210937499987
 20
608.98281250000002
 30
0.0
 11
-419.11210937499987
 21
614.43684959410007
 31
0.0
  0
LINE
  5
412
  8
0
 62
     0
 10
-419.11210937499987
 20
608.98281250000002
 30
0.0
 11
-419.11210937499987
 21
583.98281250000002
 31
0.0
  0
SOLID
  5
413
  8
0
 62
     0
 10
-419.11210937499987
 20
608.98281250000002
 30
0.0
 11
-416.52391881940002
 21
599.32355461120005
 31
0.0
 12
-421.7002999305999
 22
599.32355461120005
 32
0.0
 13
-419.11210937499987
 23
601.73836908340002
 33
0.0
  0
LINE
  5
414
  8
0
 62
     0
 10
-419.11210937499987
 20
583.98281250000002
 30
0.0
 11
-419.11210937499987
 21
608.98281250000002
 31
0.0
  0
SOLID
  5
415
  8
0
 62
     0
 10
-419.11210937499987
 20
583.98281250000002
 30
0.0
 11
-421.7002999305999
 21
593.64207038879999
 31
0.0
 12
-416.52391881940002
 22
593.64207038879999
 32
0.0
 13
-419.11210937499987
 23
591.22725591660003
 33
0.0
  0
ENDBLK
  5
416
  8
0
  0
BLOCK
  8
0
  2
*D47
 70
     1
 10
0.0
 20
0.0
 30
0.0
  3
*D47
  1

  0
TEXT
  5
41A
  8
0
 62
     0
 10
34.75377635960001
 20
372.81835927959997
 30
0.0
 40
17.9916661263
  1
25
  0
LINE
  5
41B
  8
0
 62
     0
 10
-0.2515625
 20
412.64335937499987
 30
0.0
 11
-0.2515625
 21
359.64335937499999
 31
0.0
  0
LINE
  5
41C
  8
0
 62
     0
 10
24.748437500000001
 20
412.64335937499987
 30
0.0
 11
24.748437500000001
 21
359.64335937499999
 31
0.0
  0
LINE
  5
41D
  8
0
 62
     0
 10
-0.2515625
 20
364.64335937499999
 30
0.0
 11
66.503775405900001
 21
364.64335937499999
 31
0.0
  0
LINE
  5
41E
  8
0
 62
     0
 10
-0.2515625
 20
364.64335937499999
 30
0.0
 11
24.170443344100001
 21
364.64335937499999
 31
0.0
  0
LINE
  5
41F
  8
0
 62
     0
 10
24.748437500000001
 20
364.64335937499999
 30
0.0
 11
66.503775405900001
 21
364.64335937499999
 31
0.0
  0
LINE
  5
420
  8
0
 62
     0
 10
24.748437500000001
 20
364.64335937499999
 30
0.0
 11
24.170443344100001
 21
364.64335937499999
 31
0.0
  0
LINE
  5
421
  8
0
 62
     0
 10
24.748437500000001
 20
364.64335937499999
 30
0.0
 11
-0.2515625
 21
364.64335937499999
 31
0.0
  0
SOLID
  5
422
  8
0
 62
     0
 10
24.748437500000001
 20
364.64335937499999
 30
0.0
 11
15.089179611200001
 21
362.05516881940002
 31
0.0
 12
15.089179611200001
 22
367.2315499305999
 32
0.0
 13
17.503994083399999
 23
364.64335937499999
 33
0.0
  0
LINE
  5
423
  8
0
 62
     0
 10
-0.2515625
 20
364.64335937499999
 30
0.0
 11
24.748437500000001
 21
364.64335937499999
 31
0.0
  0
SOLID
  5
424
  8
0
 62
     0
 10
-0.2515625
 20
364.64335937499999
 30
0.0
 11
9.4076953888000006
 21
367.2315499305999
 31
0.0
 12
9.4076953888000006
 22
362.05516881940002
 32
0.0
 13
6.992880916599999
 23
364.64335937499999
 33
0.0
  0
ENDBLK
  5
425
  8
0
  0
BLOCK
  8
0
  2
*D48
 70
     1
 10
0.0
 20
0.0
 30
0.0
  3
*D48
  1

  0
TEXT
  5
429
  8
0
 62
     0
 10
-810.29231739039994
 20
372.81835927959997
 30
0.0
 40
17.9916661263
  1
25
  0
LINE
  5
42A
  8
0
 62
     0
 10
-775.25156249999998
 20
412.64335937499987
 30
0.0
 11
-775.25156249999998
 21
359.64335937499999
 31
0.0
  0
LINE
  5
42B
  8
0
 62
     0
 10
-750.25156249999998
 20
412.64335937499987
 30
0.0
 11
-750.25156249999998
 21
359.64335937499999
 31
0.0
  0
LINE
  5
42C
  8
0
 62
     0
 10
-775.25156249999998
 20
364.64335937499999
 30
0.0
 11
-778.54231834409995
 21
364.64335937499999
 31
0.0
  0
LINE
  5
42D
  8
0
 62
     0
 10
-775.25156249999998
 20
364.64335937499999
 30
0.0
 11
-820.87565040590005
 21
364.64335937499999
 31
0.0
  0
LINE
  5
42E
  8
0
 62
     0
 10
-750.25156249999998
 20
364.64335937499999
 30
0.0
 11
-778.54231834409995
 21
364.64335937499999
 31
0.0
  0
LINE
  5
42F
  8
0
 62
     0
 10
-750.25156249999998
 20
364.64335937499999
 30
0.0
 11
-820.87565040590005
 21
364.64335937499999
 31
0.0
  0
LINE
  5
430
  8
0
 62
     0
 10
-750.25156249999998
 20
364.64335937499999
 30
0.0
 11
-775.25156249999998
 21
364.64335937499999
 31
0.0
  0
SOLID
  5
431
  8
0
 62
     0
 10
-750.25156249999998
 20
364.64335937499999
 30
0.0
 11
-759.91082038879995
 21
362.05516881940002
 31
0.0
 12
-759.91082038879995
 22
367.2315499305999
 32
0.0
 13
-757.49600591659998
 23
364.64335937499999
 33
0.0
  0
LINE
  5
432
  8
0
 62
     0
 10
-775.25156249999998
 20
364.64335937499999
 30
0.0
 11
-750.25156249999998
 21
364.64335937499999
 31
0.0
  0
SOLID
  5
433
  8
0
 62
     0
 10
-775.25156249999998
 20
364.64335937499999
 30
0.0
 11
-765.59230461120001
 21
367.2315499305999
 31
0.0
 12
-765.59230461120001
 22
362.05516881940002
 32
0.0
 13
-768.00711908339997
 23
364.64335937499999
 33
0.0
  0
ENDBLK
  5
434
  8
0
  0
BLOCK
  8
0
  2
BALLON2
 70
     0
 10
0.0
 20
0.0
 30
0.0
  3
BALLON2
  1

  0
INSERT
  5
43B
  8
0
  6
CONTINUOUS
  2
*U94
 10
0.0
 20
0.0
 30
0.0
  0
CIRCLE
  5
43C
  8
┌▓È_1
 10
186.6183111222
 20
-70.812109375000006
 30
0.0
 40
20.0
  0
LINE
  5
43D
  8
Éíû@É³
 10
153.28497778880001
 20
-70.812109375000006
 30
0.0
 11
166.6183111222
 21
-70.812109375000006
 31
0.0
  0
LINE
  5
43E
  8
Éíû@É³
 10
-54.672395833300001
 20
243.0002604167
 30
0.0
 11
153.28497778880001
 21
-70.812109375000006
 31
0.0
  0
SOLID
  5
43F
  8
Éíû@É³
 10
-54.672395833300001
 20
243.0002604167
 30
0.0
 11
-40.290118214099998
 21
228.5382380655
 31
0.0
 12
-45.834031872600001
 22
229.6629697436
 32
0.0
 13
-45.834031872600001
 23
229.6629697436
 33
0.0
  0
SOLID
  5
440
  8
Éíû@É³
 10
-45.834031872600001
 20
229.6629697436
 30
0.0
 11
-46.958763550699999
 21
224.11905608519999
 31
0.0
 12
-54.672395833300001
 22
243.0002604167
 32
0.0
 13
-54.672395833300001
 23
243.0002604167
 33
0.0
  0
ENDBLK
  5
441
  8
0
  0
BLOCK
  8
0
  2
BALLON3
 70
     0
 10
0.0
 20
0.0
 30
0.0
  3
BALLON3
  1

  0
INSERT
  5
445
  8
0
  6
CONTINUOUS
  2
*U95
 10
0.0
 20
0.0
 30
0.0
  0
CIRCLE
  5
446
  8
┌▓È_1
 10
186.6183111222
 20
-518.63593749999995
 30
0.0
 40
20.0
  0
LINE
  5
447
  8
Éíû@É³
 10
153.28497778880001
 20
-518.63593749999995
 30
0.0
 11
166.6183111222
 21
-518.63593749999995
 31
0.0
  0
LINE
  5
448
  8
Éíû@É³
 10
-108.9614290753
 20
-589.05052078099993
 30
0.0
 11
153.28497778880001
 21
-518.63593749999995
 31
0.0
  0
SOLID
  5
449
  8
Éíû@É³
 10
-108.9614290753
 20
-589.05052078099993
 30
0.0
 11
-90.682882100699985
 21
-580.00095059779994
 31
0.0
 12
-93.508766758999997
 22
-584.90139709769994
 32
0.0
 13
-93.508766758999997
 23
-584.90139709769994
 33
0.0
  0
SOLID
  5
44A
  8
Éíû@É³
 10
-93.508766758999997
 20
-584.90139709769994
 30
0.0
 11
-88.608320259099983
 21
-587.72728175589987
 31
0.0
 12
-108.9614290753
 22
-589.05052078099993
 32
0.0
 13
-108.9614290753
 23
-589.05052078099993
 33
0.0
  0
ENDBLK
  5
44B
  8
0
  0
BLOCK
  8
0
  2
CLUMP30
 70
     0
 10
0.0
 20
0.0
 30
0.0
  3
CLUMP30
  1

  0
CIRCLE
  5
44F
  8
┌▓È_1
 62
     5
 10
8.5110006329000001
 20
-14.779750632900001
 30
0.0
 40
9.75
  0
LINE
  5
450
  8
┌▓È_1
 62
     5
 10
-24.555492345099999
 20
13.786742606700001
 30
0.0
 11
-37.251562499999999
 21
13.786742606700001
 31
0.0
  0
ARC
  5
451
  8
┌▓È_1
 62
     5
 10
-24.5554926067
 20
18.286742606699999
 30
0.0
 40
4.5
 50
270.0
 51
359.9999889394
  0
LINE
  5
452
  8
┌▓È_1
 62
     5
 10
-37.251562499999999
 20
-31.017187499999999
 30
0.0
 11
-37.251562499999999
 21
13.786742606700001
 31
0.0
  0
LINE
  5
453
  8
┌▓È_1
 62
     5
 10
-20.0554926067
 20
30.982812500000001
 30
0.0
 11
24.748437500000001
 21
30.982812500000001
 31
0.0
  0
LINE
  5
454
  8
┌▓È_1
 62
     5
 10
-20.0554926067
 20
18.286741738
 30
0.0
 11
-20.0554926067
 21
30.982812500000001
 31
0.0
  0
LINE
  5
455
  8
┌▓È_1
 10
-37.251562499999999
 20
-10.4338916064
 30
0.0
 11
-24.555490840200001
 21
-10.4338916064
 31
0.0
  0
LINE
  5
456
  8
┌▓È_1
 62
     5
 10
-20.0554926067
 20
26.982812500000001
 30
0.0
 11
24.748437500000001
 21
26.982812500000001
 31
0.0
  0
LINE
  5
457
  8
┌▓È_1
 62
     5
 10
-33.251562499999999
 20
-31.017187499999999
 30
0.0
 11
-33.251562499999999
 21
13.786742606700001
 31
0.0
  0
LINE
  5
458
  8
┌▓È_1
 62
     5
 10
24.748437500000001
 20
29.982812500000001
 30
0.0
 11
24.748437500000001
 21
-21.017187499999999
 31
0.0
  0
ARC
  5
459
  8
┌▓È_1
 10
-24.5554926067
 20
18.286742606699999
 30
0.0
 40
22.424432600999999
 50
269.99999169189999
 51
359.9999972475
  0
LINE
  5
45A
  8
┌▓È_1
 10
-33.251562499999999
 20
-4.1376883156000002
 30
0.0
 11
-24.555495858299999
 21
-4.1376899942999996
 31
0.0
  0
LINE
  5
45B
  8
┌▓È_1
 62
     5
 10
-1.3446813547000001
 20
26.982812500000001
 30
0.0
 11
-0.1812920826
 21
30.982812500000001
 31
0.0
  0
LINE
  5
45C
  8
┌▓È_1
 62
     5
 10
-1.3446813547000001
 20
26.982812500000001
 30
0.0
 11
-1.3446813547000001
 21
18.2867415294
 31
0.0
  0
LINE
  5
45D
  8
┌▓È_1
 10
-0.7861987373
 20
30.982812500000001
 30
0.0
 11
-2.1310600056999989
 21
26.982812500000001
 31
0.0
  0
LINE
  5
45E
  8
┌▓È_1
 10
-2.1310600056999989
 20
26.982812500000001
 30
0.0
 11
-2.1310600056999989
 21
18.2867415294
 31
0.0
  0
ARC
  5
45F
  8
┌▓È_1
 62
     5
 10
23.748437500000001
 20
29.982812500000001
 30
0.0
 40
1.0
 50
0.0
 51
90.0
  0
LINE
  5
460
  8
┌▓È_1
 10
4.1651416063999989
 20
30.982812500000001
 30
0.0
 11
4.1651416063999989
 21
18.2867415294
 31
0.0
  0
LINE
  5
461
  8
┌▓È_1
 62
     5
 10
14.7484375
 20
-31.017187499999999
 30
0.0
 11
-36.251562499999999
 21
-31.017187499999999
 31
0.0
  0
ARC
  5
462
  8
┌▓È_1
 62
     5
 10
-24.5554926067
 20
18.286742606699999
 30
0.0
 40
23.210811252100001
 50
269.99999183310001
 51
359.99999734070002
  0
ARC
  5
463
  8
┌▓È_1
 10
-24.5554926067
 20
18.286742606699999
 30
0.0
 40
28.7206342132
 50
270.00000352400002
 51
359.99999785089989
  0
ARC
  5
464
  8
┌▓È_1
 62
     5
 10
-36.251562499999999
 20
-30.017187499999999
 30
0.0
 40
1.0
 50
180.0
 51
270.0
  0
LINE
  5
465
  8
┌▓È_1
 62
     5
 10
-33.251562499999999
 20
-4.9240670022000002
 30
0.0
 11
-37.251567105600003
 21
-6.0874555183999997
 31
0.0
  0
LINE
  5
466
  8
┌▓È_1
 62
     5
 10
-33.251562499999999
 20
-4.9240670022000002
 30
0.0
 11
-24.555495915200002
 21
-4.9240686452999993
 31
0.0
  0
LINE
  5
467
  8
┌▓È_1
 10
-37.251567088500003
 20
-5.4825488117999992
 30
0.0
 11
-33.251566828900003
 21
-4.1376883156000002
 31
0.0
  0
LINE
  5
468
  8
┌▓È_1
 62
     5
 10
-1.8996550078000001
 20
30.982812500000001
 30
0.0
 11
23.748437500000001
 21
30.982812500000001
 31
0.0
  0
LINE
  5
469
  8
┌▓È_1
 62
     5
 10
-37.251562499999999
 20
-30.017187499999999
 30
0.0
 11
-37.251562499999999
 21
-4.3690949921999991
 31
0.0
  0
ARC
  5
46A
  8
┌▓È_1
 62
     5
 10
14.7484375
 20
-21.017187499999999
 30
0.0
 40
10.0
 50
270.0
 51
0.0
  0
ENDBLK
  5
46B
  8
0
  0
BLOCK
  8
0
  2
CLUMP31
 70
     0
 10
0.0
 20
0.0
 30
0.0
  3
CLUMP31
  1

  0
CIRCLE
  5
46F
  8
┌▓È_1
 62
     5
 10
-759.01412563289978
 20
-14.779750632900001
 30
0.0
 40
9.75
  0
LINE
  5
470
  8
┌▓È_1
 62
     5
 10
-725.94763265489996
 20
13.786742606700001
 30
0.0
 11
-713.25156249999986
 21
13.786742606700001
 31
0.0
  0
ARC
  5
471
  8
┌▓È_1
 62
     5
 10
-725.94763239329995
 20
18.286742606699999
 30
0.0
 40
4.5
 50
180.0000110606
 51
270.0
  0
LINE
  5
472
  8
┌▓È_1
 62
     5
 10
-713.25156249999986
 20
-31.017187499999999
 30
0.0
 11
-713.25156249999986
 21
13.786742606700001
 31
0.0
  0
LINE
  5
473
  8
┌▓È_1
 62
     5
 10
-730.44763239329995
 20
30.982812500000001
 30
0.0
 11
-775.25156249999998
 21
30.982812500000001
 31
0.0
  0
LINE
  5
474
  8
┌▓È_1
 62
     5
 10
-730.44763239329995
 20
18.286741738
 30
0.0
 11
-730.44763239329995
 21
30.982812500000001
 31
0.0
  0
LINE
  5
475
  8
┌▓È_1
 10
-713.25156249999986
 20
-10.4338916064
 30
0.0
 11
-725.94763415979992
 21
-10.4338916064
 31
0.0
  0
LINE
  5
476
  8
┌▓È_1
 62
     5
 10
-730.44763239329995
 20
26.982812500000001
 30
0.0
 11
-775.25156249999998
 21
26.982812500000001
 31
0.0
  0
LINE
  5
477
  8
┌▓È_1
 62
     5
 10
-717.25156249999986
 20
-31.017187499999999
 30
0.0
 11
-717.25156249999986
 21
13.786742606700001
 31
0.0
  0
LINE
  5
478
  8
┌▓È_1
 62
     5
 10
-775.25156249999998
 20
29.982812500000001
 30
0.0
 11
-775.25156249999998
 21
-21.017187499999999
 31
0.0
  0
ARC
  5
479
  8
┌▓È_1
 10
-725.94763239329995
 20
18.286742606699999
 30
0.0
 40
22.424432600999999
 50
180.0000027525
 51
270.00000830810001
  0
LINE
  5
47A
  8
┌▓È_1
 10
-717.25156249999986
 20
-4.1376883156000002
 30
0.0
 11
-725.94762914169996
 21
-4.1376899942999996
 31
0.0
  0
LINE
  5
47B
  8
┌▓È_1
 62
     5
 10
-749.15844364529994
 20
26.982812500000001
 30
0.0
 11
-750.3218329174
 21
30.982812500000001
 31
0.0
  0
LINE
  5
47C
  8
┌▓È_1
 62
     5
 10
-749.15844364529994
 20
26.982812500000001
 30
0.0
 11
-749.15844364529994
 21
18.2867415294
 31
0.0
  0
LINE
  5
47D
  8
┌▓È_1
 10
-749.7169262627001
 20
30.982812500000001
 30
0.0
 11
-748.37206499429976
 21
26.982812500000001
 31
0.0
  0
LINE
  5
47E
  8
┌▓È_1
 10
-748.37206499429976
 20
26.982812500000001
 30
0.0
 11
-748.37206499429976
 21
18.2867415294
 31
0.0
  0
ARC
  5
47F
  8
┌▓È_1
 62
     5
 10
-774.25156249999998
 20
29.982812500000001
 30
0.0
 40
1.0
 50
90.0
 51
180.0
  0
LINE
  5
480
  8
┌▓È_1
 10
-754.66826660640004
 20
30.982812500000001
 30
0.0
 11
-754.66826660640004
 21
18.2867415294
 31
0.0
  0
LINE
  5
481
  8
┌▓È_1
 62
     5
 10
-765.25156249999986
 20
-31.017187499999999
 30
0.0
 11
-714.25156249999986
 21
-31.017187499999999
 31
0.0
  0
ARC
  5
482
  8
┌▓È_1
 62
     5
 10
-725.94763239329995
 20
18.286742606699999
 30
0.0
 40
23.210811252100001
 50
180.00000265930001
 51
270.00000816689999
  0
ARC
  5
483
  8
┌▓È_1
 10
-725.94763239329995
 20
18.286742606699999
 30
0.0
 40
28.7206342132
 50
180.0000021491
 51
269.99999647599998
  0
ARC
  5
484
  8
┌▓È_1
 62
     5
 10
-714.25156249999986
 20
-30.017187499999999
 30
0.0
 40
1.0
 50
270.0
 51
0.0
  0
LINE
  5
485
  8
┌▓È_1
 62
     5
 10
-717.25156249999986
 20
-4.9240670022000002
 30
0.0
 11
-713.25155789439998
 21
-6.0874555183999997
 31
0.0
  0
LINE
  5
486
  8
┌▓È_1
 62
     5
 10
-717.25156249999986
 20
-4.9240670022000002
 30
0.0
 11
-725.94762908479993
 21
-4.9240686452999993
 31
0.0
  0
LINE
  5
487
  8
┌▓È_1
 10
-713.25155791149996
 20
-5.4825488117999992
 30
0.0
 11
-717.25155817109999
 21
-4.1376883156000002
 31
0.0
  0
LINE
  5
488
  8
┌▓È_1
 62
     5
 10
-748.60346999219985
 20
30.982812500000001
 30
0.0
 11
-774.25156249999998
 21
30.982812500000001
 31
0.0
  0
LINE
  5
489
  8
┌▓È_1
 62
     5
 10
-713.25156249999986
 20
-30.017187499999999
 30
0.0
 11
-713.25156249999986
 21
-4.3690949921999991
 31
0.0
  0
ARC
  5
48A
  8
┌▓È_1
 62
     5
 10
-765.25156249999986
 20
-21.017187499999999
 30
0.0
 40
10.0
 50
180.0
 51
270.0
  0
ENDBLK
  5
48B
  8
0
  0
BLOCK
  8
0
  2
CLUMP32
 70
     0
 10
0.0
 20
0.0
 30
0.0
  3
CLUMP32
  1

  0
CIRCLE
  5
49B
  8
┌▓È_1
 62
     5
 10
-759.01412563289978
 20
592.74537563290005
 30
0.0
 40
9.75
  0
LINE
  5
49C
  8
┌▓È_1
 62
     5
 10
-725.94763265489996
 20
564.1788823933
 30
0.0
 11
-713.25156249999986
 21
564.1788823933
 31
0.0
  0
ARC
  5
49D
  8
┌▓È_1
 62
     5
 10
-725.94763239329995
 20
559.6788823933
 30
0.0
 40
4.5
 50
90.0
 51
179.9999889394
  0
LINE
  5
49E
  8
┌▓È_1
 62
     5
 10
-713.25156249999986
 20
608.98281250000002
 30
0.0
 11
-713.25156249999986
 21
564.1788823933
 31
0.0
  0
LINE
  5
49F
  8
┌▓È_1
 62
     5
 10
-730.44763239329995
 20
546.98281250000002
 30
0.0
 11
-775.25156249999998
 21
546.98281250000002
 31
0.0
  0
LINE
  5
4A0
  8
┌▓È_1
 62
     5
 10
-730.44763239329995
 20
559.67888326199989
 30
0.0
 11
-730.44763239329995
 21
546.98281250000002
 31
0.0
  0
LINE
  5
4A1
  8
┌▓È_1
 10
-713.25156249999986
 20
588.39951660639986
 30
0.0
 11
-725.94763415979992
 21
588.39951660639986
 31
0.0
  0
LINE
  5
4A2
  8
┌▓È_1
 62
     5
 10
-730.44763239329995
 20
550.98281250000002
 30
0.0
 11
-775.25156249999998
 21
550.98281250000002
 31
0.0
  0
LINE
  5
4A3
  8
┌▓È_1
 62
     5
 10
-717.25156249999986
 20
608.98281250000002
 30
0.0
 11
-717.25156249999986
 21
564.1788823933
 31
0.0
  0
LINE
  5
4A4
  8
┌▓È_1
 62
     5
 10
-775.25156249999998
 20
547.98281250000002
 30
0.0
 11
-775.25156249999998
 21
598.98281250000002
 31
0.0
  0
ARC
  5
4A5
  8
┌▓È_1
 10
-725.94763239329995
 20
559.6788823933
 30
0.0
 40
22.424432600999999
 50
89.999991691900007
 51
179.9999972475
  0
LINE
  5
4A6
  8
┌▓È_1
 10
-717.25156249999986
 20
582.10331331559985
 30
0.0
 11
-725.94762914169996
 21
582.10331499430004
 31
0.0
  0
LINE
  5
4A7
  8
┌▓È_1
 62
     5
 10
-749.15844364529994
 20
550.98281250000002
 30
0.0
 11
-750.3218329174
 21
546.98281250000002
 31
0.0
  0
LINE
  5
4A8
  8
┌▓È_1
 62
     5
 10
-749.15844364529994
 20
550.98281250000002
 30
0.0
 11
-749.15844364529994
 21
559.6788834706
 31
0.0
  0
LINE
  5
4A9
  8
┌▓È_1
 10
-749.7169262627001
 20
546.98281250000002
 30
0.0
 11
-748.37206499429976
 21
550.98281250000002
 31
0.0
  0
LINE
  5
4AA
  8
┌▓È_1
 10
-748.37206499429976
 20
550.98281250000002
 30
0.0
 11
-748.37206499429976
 21
559.6788834706
 31
0.0
  0
ARC
  5
4AB
  8
┌▓È_1
 62
     5
 10
-774.25156249999998
 20
547.98281250000002
 30
0.0
 40
1.0
 50
180.0
 51
270.0
  0
LINE
  5
4AC
  8
┌▓È_1
 10
-754.66826660640004
 20
546.98281250000002
 30
0.0
 11
-754.66826660640004
 21
559.6788834706
 31
0.0
  0
LINE
  5
4AD
  8
┌▓È_1
 62
     5
 10
-765.25156249999986
 20
608.98281250000002
 30
0.0
 11
-714.25156249999986
 21
608.98281250000002
 31
0.0
  0
ARC
  5
4AE
  8
┌▓È_1
 62
     5
 10
-725.94763239329995
 20
559.6788823933
 30
0.0
 40
23.210811252100001
 50
89.999991833099998
 51
179.99999734069999
  0
ARC
  5
4AF
  8
┌▓È_1
 10
-725.94763239329995
 20
559.6788823933
 30
0.0
 40
28.7206342132
 50
90.000003523999979
 51
179.9999978509
  0
ARC
  5
4B0
  8
┌▓È_1
 62
     5
 10
-714.25156249999986
 20
607.98281250000002
 30
0.0
 40
1.0
 50
0.0
 51
90.0
  0
LINE
  5
4B1
  8
┌▓È_1
 62
     5
 10
-717.25156249999986
 20
582.88969200220004
 30
0.0
 11
-713.25155789439998
 21
584.05308051839995
 31
0.0
  0
LINE
  5
4B2
  8
┌▓È_1
 62
     5
 10
-717.25156249999986
 20
582.88969200220004
 30
0.0
 11
-725.94762908479993
 21
582.88969364529987
 31
0.0
  0
LINE
  5
4B3
  8
┌▓È_1
 10
-713.25155791149996
 20
583.44817381179985
 30
0.0
 11
-717.25155817109999
 21
582.10331331559985
 31
0.0
  0
LINE
  5
4B4
  8
┌▓È_1
 62
     5
 10
-748.60346999219985
 20
546.98281250000002
 30
0.0
 11
-774.25156249999998
 21
546.98281250000002
 31
0.0
  0
LINE
  5
4B5
  8
┌▓È_1
 62
     5
 10
-713.25156249999986
 20
607.98281250000002
 30
0.0
 11
-713.25156249999986
 21
582.33471999219989
 31
0.0
  0
ARC
  5
4B6
  8
┌▓È_1
 62
     5
 10
-765.25156249999986
 20
598.98281250000002
 30
0.0
 40
10.0
 50
90.0
 51
180.0
  0
ENDBLK
  5
4B7
  8
0
  0
BLOCK
  8
0
  2
CLUMP33
 70
     0
 10
0.0
 20
0.0
 30
0.0
  3
CLUMP33
  1

  0
CIRCLE
  5
4BB
  8
┌▓È_1
 62
     5
 10
8.5110006329000001
 20
592.74537563290005
 30
0.0
 40
9.75
  0
LINE
  5
4BC
  8
┌▓È_1
 62
     5
 10
-24.555492345099999
 20
564.1788823933
 30
0.0
 11
-37.251562499999999
 21
564.1788823933
 31
0.0
  0
ARC
  5
4BD
  8
┌▓È_1
 62
     5
 10
-24.5554926067
 20
559.6788823933
 30
0.0
 40
4.5
 50
0.0000110606
 51
90.0
  0
LINE
  5
4BE
  8
┌▓È_1
 62
     5
 10
-37.251562499999999
 20
608.98281250000002
 30
0.0
 11
-37.251562499999999
 21
564.1788823933
 31
0.0
  0
LINE
  5
4BF
  8
┌▓È_1
 62
     5
 10
-20.0554926067
 20
546.98281250000002
 30
0.0
 11
24.748437500000001
 21
546.98281250000002
 31
0.0
  0
LINE
  5
4C0
  8
┌▓È_1
 62
     5
 10
-20.0554926067
 20
559.67888326199989
 30
0.0
 11
-20.0554926067
 21
546.98281250000002
 31
0.0
  0
LINE
  5
4C1
  8
┌▓È_1
 10
-37.251562499999999
 20
588.39951660639986
 30
0.0
 11
-24.555490840200001
 21
588.39951660639986
 31
0.0
  0
LINE
  5
4C2
  8
┌▓È_1
 62
     5
 10
-20.0554926067
 20
550.98281250000002
 30
0.0
 11
24.748437500000001
 21
550.98281250000002
 31
0.0
  0
LINE
  5
4C3
  8
┌▓È_1
 62
     5
 10
-33.251562499999999
 20
608.98281250000002
 30
0.0
 11
-33.251562499999999
 21
564.1788823933
 31
0.0
  0
LINE
  5
4C4
  8
┌▓È_1
 62
     5
 10
24.748437500000001
 20
547.98281250000002
 30
0.0
 11
24.748437500000001
 21
598.98281250000002
 31
0.0
  0
ARC
  5
4C5
  8
┌▓È_1
 10
-24.5554926067
 20
559.6788823933
 30
0.0
 40
22.424432600999999
 50
0.0000027525
 51
90.000008308100007
  0
LINE
  5
4C6
  8
┌▓È_1
 10
-33.251562499999999
 20
582.10331331559985
 30
0.0
 11
-24.555495858299999
 21
582.10331499430004
 31
0.0
  0
LINE
  5
4C7
  8
┌▓È_1
 62
     5
 10
-1.3446813547000001
 20
550.98281250000002
 30
0.0
 11
-0.1812920826
 21
546.98281250000002
 31
0.0
  0
LINE
  5
4C8
  8
┌▓È_1
 62
     5
 10
-1.3446813547000001
 20
550.98281250000002
 30
0.0
 11
-1.3446813547000001
 21
559.6788834706
 31
0.0
  0
LINE
  5
4C9
  8
┌▓È_1
 10
-0.7861987373
 20
546.98281250000002
 30
0.0
 11
-2.1310600056999989
 21
550.98281250000002
 31
0.0
  0
LINE
  5
4CA
  8
┌▓È_1
 10
-2.1310600056999989
 20
550.98281250000002
 30
0.0
 11
-2.1310600056999989
 21
559.6788834706
 31
0.0
  0
ARC
  5
4CB
  8
┌▓È_1
 62
     5
 10
23.748437500000001
 20
547.98281250000002
 30
0.0
 40
1.0
 50
270.0
 51
0.0
  0
LINE
  5
4CC
  8
┌▓È_1
 10
4.1651416063999989
 20
546.98281250000002
 30
0.0
 11
4.1651416063999989
 21
559.6788834706
 31
0.0
  0
LINE
  5
4CD
  8
┌▓È_1
 62
     5
 10
14.7484375
 20
608.98281250000002
 30
0.0
 11
-36.251562499999999
 21
608.98281250000002
 31
0.0
  0
ARC
  5
4CE
  8
┌▓È_1
 62
     5
 10
-24.5554926067
 20
559.6788823933
 30
0.0
 40
23.210811252100001
 50
0.0000026593
 51
90.000008166900002
  0
ARC
  5
4CF
  8
┌▓È_1
 10
-24.5554926067
 20
559.6788823933
 30
0.0
 40
28.7206342132
 50
0.0000021491
 51
89.999996476000007
  0
ARC
  5
4D0
  8
┌▓È_1
 62
     5
 10
-36.251562499999999
 20
607.98281250000002
 30
0.0
 40
1.0
 50
90.0
 51
180.0
  0
LINE
  5
4D1
  8
┌▓È_1
 62
     5
 10
-33.251562499999999
 20
582.88969200220004
 30
0.0
 11
-37.251567105600003
 21
584.05308051839995
 31
0.0
  0
LINE
  5
4D2
  8
┌▓È_1
 62
     5
 10
-33.251562499999999
 20
582.88969200220004
 30
0.0
 11
-24.555495915200002
 21
582.88969364529987
 31
0.0
  0
LINE
  5
4D3
  8
┌▓È_1
 10
-37.251567088500003
 20
583.44817381179985
 30
0.0
 11
-33.251566828900003
 21
582.10331331559985
 31
0.0
  0
LINE
  5
4D4
  8
┌▓È_1
 62
     5
 10
-1.8996550078000001
 20
546.98281250000002
 30
0.0
 11
23.748437500000001
 21
546.98281250000002
 31
0.0
  0
LINE
  5
4D5
  8
┌▓È_1
 62
     5
 10
-37.251562499999999
 20
607.98281250000002
 30
0.0
 11
-37.251562499999999
 21
582.33471999219989
 31
0.0
  0
ARC
  5
4D6
  8
┌▓È_1
 62
     5
 10
14.7484375
 20
598.98281250000002
 30
0.0
 40
10.0
 50
0.0
 51
90.0
  0
ENDBLK
  5
4D7
  8
0
  0
BLOCK
  8
0
  2
*U55
 70
     1
 10
0.0
 20
0.0
 30
0.0
  3
*U55
  1

  0
TEXT
  5
4F8
  8
┌▓È_1
  6
CONTINUOUS
 10
-115.8621621933132
 20
333.5824446653989
 30
0.0
 40
4.0481248378999997
  1
N
 50
19.999999998341838
  0
ENDBLK
  5
4FA
  8
0
  0
BLOCK
  8
0
  2
*U56
 70
     1
 10
0.0
 20
0.0
 30
0.0
  3
*U56
  1

  0
TEXT
  5
4FC
  8
┌▓È_1
  6
CONTINUOUS
 10
-120.48302806907461
 20
331.47029021267042
 30
0.0
 40
4.0481248378999997
  1
E
 50
26.000000000541561
  0
ENDBLK
  5
4FE
  8
0
  0
BLOCK
  8
0
  2
*U57
 70
     1
 10
0.0
 20
0.0
 30
0.0
  3
*U57
  1

  0
TEXT
  5
500
  8
┌▓È_1
  6
CONTINUOUS
 10
-124.81110573782991
 20
328.9082738144516
 30
0.0
 40
4.0481248378999997
  1
P
 50
31.99999999706359
  0
ENDBLK
  5
502
  8
0
  0
BLOCK
  8
0
  2
*U58
 70
     1
 10
0.0
 20
0.0
 30
0.0
  3
*U58
  1

  0
TEXT
  5
504
  8
┌▓È_1
  6
CONTINUOUS
 10
-128.79037873635659
 20
325.95128313913091
 30
0.0
 40
4.0481248378999997
  1
O
 50
37.999999999078653
  0
ENDBLK
  5
506
  8
0
  0
BLOCK
  8
0
  2
*U59
 70
     1
 10
0.0
 20
0.0
 30
0.0
  3
*U59
  1

  0
TEXT
  5
508
  8
┌▓È_1
  6
CONTINUOUS
 10
-83.112592801072864
 20
334.48204441339391
 30
0.0
 40
4.0481248378999997
  1
C
 50
340.00000000165812
  0
ENDBLK
  5
50A
  8
0
  0
BLOCK
  8
0
  2
*U60
 70
     1
 10
0.0
 20
0.0
 30
0.0
  3
*U60
  1

  0
TEXT
  5
50C
  8
┌▓È_1
  6
CONTINUOUS
 10
-73.95745374463857
 20
330.32387439114331
 30
0.0
 40
4.0481248378999997
  1
O
 50
328.00000000293642
  0
ENDBLK
  5
50E
  8
0
  0
BLOCK
  8
0
  2
*U61
 70
     1
 10
0.0
 20
0.0
 30
0.0
  3
*U61
  1

  0
TEXT
  5
510
  8
┌▓È_1
  6
CONTINUOUS
 10
-78.439560869444222
 20
332.65034162237419
 30
0.0
 40
4.0481248378999997
  1
L
 50
333.99999999945851
  0
ENDBLK
  5
512
  8
0
  0
BLOCK
  8
0
  2
*U62
 70
     1
 10
0.0
 20
0.0
 30
0.0
  3
*U62
  1

  0
TEXT
  5
514
  8
┌▓È_1
  6
CONTINUOUS
 10
-69.769221745061955
 20
327.55797787397358
 30
0.0
 40
4.0481248378999997
  1
S
 50
322.00000000092137
  0
ENDBLK
  5
516
  8
0
  0
BLOCK
  8
0
  2
*U63
 70
     1
 10
0.0
 20
0.0
 30
0.0
  3
*U63
  1

  0
TEXT
  5
518
  8
┌▓È_1
  6
CONTINUOUS
 10
-65.930002258009523
 20
324.40512986165919
 30
0.0
 40
4.0481248378999997
  1
E
 50
315.99999999677169
  0
ENDBLK
  5
51A
  8
0
  0
BLOCK
  8
0
  2
*U64
 70
     1
 10
0.0
 20
0.0
 30
0.0
  3
*U64
  1

  0
TEXT
  5
51C
  8
┌▓È_1
  6
CONTINUOUS
 10
180.5960185788141
 20
-181.11028623589999
 30
0.0
 40
17.9916661263
  1
4
  0
ENDBLK
  5
51E
  8
0
  0
BLOCK
  8
0
  2
*U65
 70
     1
 10
0.0
 20
0.0
 30
0.0
  3
*U65
  1

  0
TEXT
  5
520
  8
┌▓È_1
  6
CONTINUOUS
 62
     5
 10
672.03248076530144
 20
-473.90633186973389
 30
0.0
 40
17.9916661263
  1
é`éaérÄ¸Äë
  0
ENDBLK
  5
522
  8
0
  0
BLOCK
  8
0
  2
*U66
 70
     1
 10
0.0
 20
0.0
 30
0.0
  3
*U66
  1

  0
TEXT
  5
524
  8
┌▓È_1
  6
CONTINUOUS
 62
     5
 10
661.21008261318718
 20
-503.48437757969992
 30
0.0
 40
17.9916661263
  1
érétéréRéOéS
  0
ENDBLK
  5
526
  8
0
  0
BLOCK
  8
0
  2
*U67
 70
     1
 10
0.0
 20
0.0
 30
0.0
  3
*U67
  1

  0
TEXT
  5
528
  8
┌▓È_1
  6
CONTINUOUS
 10
180.86463109196191
 20
-426.52786436089991
 30
0.0
 40
17.9916661263
  1
2
  0
ENDBLK
  5
52A
  8
0
  0
BLOCK
  8
0
  2
*U68
 70
     1
 10
0.0
 20
0.0
 30
0.0
  3
*U68
  1

  0
TEXT
  5
52C
  8
┌▓È_1
  6
CONTINUOUS
 62
     5
 10
392.92961567482507
 20
-413.74562965087148
 30
0.0
 40
17.9916661263
  1
âRü[âiü[âsü[âX
  0
ENDBLK
  5
52E
  8
0
  0
BLOCK
  8
0
  2
*U69
 70
     1
 10
0.0
 20
0.0
 30
0.0
  3
*U69
  1

  0
TEXT
  5
530
  8
┌▓È_1
  6
CONTINUOUS
 10
299.67063802080003
 20
-534.683088148666
 30
0.0
 40
14.9930551052
  1
É}öÈ          òi     û╝                 ü@ü@ ìÌ     Ä┐          Éöù╩
  0
ENDBLK
  5
532
  8
0
  0
BLOCK
  8
0
  2
*U70
 70
     1
 10
0.0
 20
0.0
 30
0.0
  3
*U70
  1

  0
TEXT
  5
534
  8
┌▓È_1
  6
CONTINUOUS
 62
     5
 10
391.87934074867047
 20
-444.6022709231126
 30
0.0
 40
17.9916661263
  1
Åcê°é½âgâëâbâv
  0
ENDBLK
  5
536
  8
0
  0
BLOCK
  8
0
  2
*U71
 70
     1
 10
0.0
 20
0.0
 30
0.0
  3
*U71
  1

  0
TEXT
  5
538
  8
┌▓È_1
  6
CONTINUOUS
 62
     5
 10
391.65102011254999
 20
-475.00227092311258
 30
0.0
 40
17.9916661263
  1
ëíê°é½âgâëâbâv
  0
ENDBLK
  5
53A
  8
0
  0
BLOCK
  8
0
  2
*U72
 70
     1
 10
0.0
 20
0.0
 30
0.0
  3
*U72
  1

  0
TEXT
  5
53C
  8
┌▓È_1
  6
CONTINUOUS
 62
     5
 10
392.51863852980807
 20
-504.48898837863038
 30
0.0
 40
17.9916661263
  1
ûhÉàâpâôü@û{æ╠
  0
ENDBLK
  5
53E
  8
0
  0
BLOCK
  8
0
  2
*U73
 70
     1
 10
0.0
 20
0.0
 30
0.0
  3
*U73
  1

  0
TEXT
  5
540
  8
┌▓È_1
  6
CONTINUOUS
 62
     5
 10
307.83719269296699
 20
-412.28437757969988
 30
0.0
 40
17.9916661263
  1
éS
  0
ENDBLK
  5
542
  8
0
  0
BLOCK
  8
0
  2
*U74
 70
     1
 10
0.0
 20
0.0
 30
0.0
  3
*U74
  1

  0
TEXT
  5
544
  8
┌▓È_1
  6
CONTINUOUS
 62
     5
 10
307.79152856574291
 20
-442.68437757969991
 30
0.0
 40
17.9916661263
  1
éR
  0
ENDBLK
  5
546
  8
0
  0
BLOCK
  8
0
  2
*U75
 70
     1
 10
0.0
 20
0.0
 30
0.0
  3
*U75
  1

  0
TEXT
  5
548
  8
┌▓È_1
  6
CONTINUOUS
 62
     5
 10
308.01984920186339
 20
-473.08437757969989
 30
0.0
 40
17.9916661263
  1
éQ
  0
ENDBLK
  5
54A
  8
0
  0
BLOCK
  8
0
  2
*U76
 70
     1
 10
0.0
 20
0.0
 30
0.0
  3
*U76
  1

  0
TEXT
  5
54C
  8
┌▓È_1
  6
CONTINUOUS
 62
     5
 10
308.88746761912159
 20
-503.48437757969992
 30
0.0
 40
17.9916661263
  1
éP
  0
ENDBLK
  5
54E
  8
0
  0
BLOCK
  8
0
  2
*U77
 70
     1
 10
0.0
 20
0.0
 30
0.0
  3
*U77
  1

  0
TEXT
  5
550
  8
┌▓È_1
  6
CONTINUOUS
 62
     5
 10
672.03248076530144
 20
-413.10633186973388
 30
0.0
 40
17.9916661263
  1
é`éaérÄ¸Äë
  0
ENDBLK
  5
552
  8
0
  0
BLOCK
  8
0
  2
*U78
 70
     1
 10
0.0
 20
0.0
 30
0.0
  3
*U78
  1

  0
TEXT
  5
554
  8
┌▓È_1
  6
CONTINUOUS
 62
     5
 10
672.03248076530144
 20
-443.50633186973403
 30
0.0
 40
17.9916661263
  1
é`éaérÄ¸Äë
  0
ENDBLK
  5
556
  8
0
  0
BLOCK
  8
0
  2
*U79
 70
     1
 10
0.0
 20
0.0
 30
0.0
  3
*U79
  1

  0
TEXT
  5
558
  8
┌▓È_1
  6
CONTINUOUS
 10
694.67066387160003
 20
-625.26781821625275
 30
0.0
 40
14.9930551052
  1
òiû╝
  0
ENDBLK
  5
55A
  8
0
  0
BLOCK
  8
0
  2
*U80
 70
     1
 10
0.0
 20
0.0
 30
0.0
  3
*U80
  1

  0
TEXT
  5
55C
  8
┌▓È_1
  6
CONTINUOUS
 10
694.67066387160003
 20
-680.11560445883947
 30
0.0
 40
14.9930551052
  1
É}öÈ
  0
ENDBLK
  5
55E
  8
0
  0
BLOCK
  8
0
  2
*U81
 70
     1
 10
0.0
 20
0.0
 30
0.0
  3
*U81
  1

  0
TEXT
  5
560
  8
┌▓È_1
  6
CONTINUOUS
 10
594.36321273060003
 20
-570.49325846947238
 30
0.0
 40
14.9930551052
  1
 îƒü@ü@ê¾
  0
ENDBLK
  5
562
  8
0
  0
BLOCK
  8
0
  2
*U82
 70
     1
 10
0.0
 20
0.0
 30
0.0
  3
*U82
  1

  0
TEXT
  5
564
  8
┌▓È_1
  6
CONTINUOUS
 62
     5
 10
304.05150254882511
 20
-596.69844551349991
 30
0.0
 40
13.4937497973
  1
H16.8.18
  0
ENDBLK
  5
566
  8
0
  0
BLOCK
  8
0
  2
*U83
 70
     1
 10
0.0
 20
0.0
 30
0.0
  3
*U83
  1

  0
TEXT
  5
568
  8
┌▓È_1
  6
CONTINUOUS
 10
289.08730468750002
 20
-625.26493783335275
 30
0.0
 40
14.9930551052
  1
 É¦îvü@ü@ëÇî┤
  0
ENDBLK
  5
56A
  8
0
  0
BLOCK
  8
0
  2
*U84
 70
     1
 10
0.0
 20
0.0
 30
0.0
  3
*U84
  1

  0
TEXT
  5
56C
  8
┌▓È_1
  6
CONTINUOUS
 10
289.08730468750002
 20
-652.91715159076591
 30
0.0
 40
14.9930551052
  1
 É╗É}ü@ü@ëÇî┤
  0
ENDBLK
  5
56E
  8
0
  0
BLOCK
  8
0
  2
*U85
 70
     1
 10
0.0
 20
0.0
 30
0.0
  3
*U85
  1

  0
TEXT
  5
570
  8
┌▓È_1
  6
CONTINUOUS
 10
294.36321273060003
 20
-569.9605103185263
 30
0.0
 40
14.9930551052
  1
 ô·ü@ü@òt
  0
ENDBLK
  5
572
  8
0
  0
BLOCK
  8
0
  2
*U86
 70
     1
 10
0.0
 20
0.0
 30
0.0
  3
*U86
  1

  0
TEXT
  5
574
  8
┌▓È_1
  6
CONTINUOUS
 10
316.28648937140002
 20
-698.69259289902379
 30
0.0
 40
26.987499594700001
  1
èöÄ«ë´Äð
  0
ENDBLK
  5
576
  8
0
  0
BLOCK
  8
0
  2
*U87
 70
     1
 10
0.0
 20
0.0
 30
0.0
  3
*U87
  1

  0
TEXT
  5
578
  8
┌▓È_1
  6
CONTINUOUS
 62
     5
 10
804.70661338360605
 20
-622.24781023594767
 30
0.0
 40
14.993055915799999
  1
ânâCâuâèâbâhâ^âCâv
  0
TEXT
  5
579
  8
┌▓È_1
  6
CONTINUOUS
 62
     5
 10
823.73333408893598
 20
-647.99730559049419
 30
0.0
 40
14.993055915799999
  1
É¶æ¾ï@ûhÉàâpâô
  0
TEXT
  5
57A
  8
┌▓È_1
  6
CONTINUOUS
 62
     5
 10
842.83616167708726
 20
-672.98573211682742
 30
0.0
 40
14.993055915799999
  1
800éÿ640éb
  0
ENDBLK
  5
57C
  8
0
  0
BLOCK
  8
0
  2
*U88
 70
     1
 10
0.0
 20
0.0
 30
0.0
  3
*U88
  1

  0
TEXT
  5
57E
  8
┌▓È_1
  6
CONTINUOUS
 62
     5
 10
810.82163705583753
 20
-589.18046874999993
 30
0.0
 40
26.987500000000001
  1
érév-800éb
  0
ENDBLK
  5
580
  8
0
  0
BLOCK
  8
0
  2
*U89
 70
     1
 10
0.0
 20
0.0
 30
0.0
  3
*U89
  1

  0
TEXT
  5
582
  8
┌▓È_1
  6
CONTINUOUS
 10
394.36321273060003
 20
-570.18883095464605
 30
0.0
 40
14.9930551052
  1
 ìÌü@ü@Ä┐
  0
ENDBLK
  5
584
  8
0
  0
BLOCK
  8
0
  2
*U90
 70
     1
 10
0.0
 20
0.0
 30
0.0
  3
*U90
  1

  0
TEXT
  5
586
  8
┌▓È_1
  6
CONTINUOUS
 10
494.36321273059991
 20
-625.41715159076591
 30
0.0
 40
14.9930551052
  1
 Ä┌ü@ü@ôx
  0
ENDBLK
  5
588
  8
0
  0
BLOCK
  8
0
  2
*U91
 70
     1
 10
0.0
 20
0.0
 30
0.0
  3
*U91
  1

  0
TEXT
  5
58A
  8
┌▓È_1
  6
CONTINUOUS
 62
     5
 10
519.22340934507758
 20
-652.1919195221999
 30
0.0
 40
14.9930551052
  1
1üF5
  0
ENDBLK
  5
58C
  8
0
  0
BLOCK
  8
0
  2
*U92
 70
     1
 10
0.0
 20
0.0
 30
0.0
  3
*U92
  1

  0
TEXT
  5
58E
  8
┌▓È_1
  6
CONTINUOUS
 10
494.36321273059991
 20
-570.49325846947238
 30
0.0
 40
14.9930551052
  1
 ö┬ü@ü@î·
  0
ENDBLK
  5
590
  8
0
  0
BLOCK
  8
0
  2
*U93
 70
     1
 10
0.0
 20
0.0
 30
0.0
  3
*U93
  1

  0
TEXT
  5
592
  8
┌▓È_1
  6
CONTINUOUS
 10
694.67066387160003
 20
-570.11560445883958
 30
0.0
 40
14.9930551052
  1
î^öÈ
  0
ENDBLK
  5
594
  8
0
  0
BLOCK
  8
0
  2
*U94
 70
     1
 10
0.0
 20
0.0
 30
0.0
  3
*U94
  1

  0
TEXT
  5
596
  8
┌▓È_1
  6
CONTINUOUS
 10
181.91490601811651
 20
-78.220442485899994
 30
0.0
 40
17.9916661263
  1
1
  0
ENDBLK
  5
598
  8
0
  0
BLOCK
  8
0
  2
*U95
 70
     1
 10
0.0
 20
0.0
 30
0.0
  3
*U95
  1

  0
TEXT
  5
59A
  8
┌▓È_1
  6
CONTINUOUS
 10
180.9559593464102
 20
-526.04427061089984
 30
0.0
 40
17.9916661263
  1
3
  0
ENDBLK
  5
59C
  8
0
  0
ENDSEC
  0
SECTION
  2
ENTITIES
  0
DIMENSION
  5
3E
  8
Éíû@É³
  2
*D0
 10
-775.25156249999998
 20
-161.37109375
 30
0.0
 11
-375.25156249999998
 21
-161.37109375
 31
0.0
 70
   128
  1
<>
 13
-775.25156249999998
 23
-21.017187499999999
 33
0.0
 14
24.748437500000001
 24
-21.017187499999999
 34
0.0
 50
180.0
  0
POINT
  5
40
  8
┌▓È_1
  6
DOT
 62
     5
 10
-760.75156249999986
 20
-16.517187499999999
 30
0.0
  0
POINT
  5
41
  8
┌▓È_1
  6
DOT
 62
     5
 10
-760.75156249999986
 20
594.48281249999991
 30
0.0
  0
POINT
  5
42
  8
┌▓È_1
  6
DOT
 62
     5
 10
10.2484375
 20
594.48281249999991
 30
0.0
  0
DIMENSION
  5
51
  8
Éíû@É³
  2
*D1
 10
10.2484375
 20
-109.0828125
 30
0.0
 11
49.55390624999999
 21
-109.0828125
 31
0.0
 70
   128
  1
<>
 13
10.2484375
 23
-16.517187499999999
 33
0.0
 14
24.748437500000001
 24
-21.017187499999999
 34
0.0
 50
180.0
  0
DIMENSION
  5
60
  8
Éíû@É³
  2
*D2
 10
-760.75156249999986
 20
-109.0828125
 30
0.0
 11
-375.25156249999998
 21
-109.0828125
 31
0.0
 70
   128
  1
<>
 13
-760.75156249999986
 23
-16.517187499999999
 33
0.0
 14
10.2484375
 24
-16.517187499999999
 34
0.0
 50
180.0
  0
DIMENSION
  5
6F
  8
Éíû@É³
  2
*D3
 10
-775.25156249999998
 20
-109.0828125
 30
0.0
 11
-803.92578125
 21
-109.0828125
 31
0.0
 70
   128
  1
<>
 13
-775.25156249999998
 23
-21.017187499999999
 33
0.0
 14
-760.75156249999986
 24
-16.517187499999999
 34
0.0
 50
180.0
  0
DIMENSION
  5
7E
  8
Éíû@É³
  2
*D4
 10
-841.03359375000014
 20
-16.517187499999999
 30
0.0
 11
-841.03359375000014
 21
-23.767187499999999
 31
0.0
 70
   128
  1
<>
 13
-760.75156249999986
 23
-16.517187499999999
 33
0.0
 14
-765.25156249999986
 24
-31.017187499999999
 34
0.0
 50
90.0
  0
DIMENSION
  5
8D
  8
Éíû@É³
  2
*D5
 10
-841.03359375000014
 20
594.48281249999991
 30
0.0
 11
-841.03359375000014
 21
288.98281250000002
 31
0.0
 70
   128
  1
<>
 13
-760.75156249999986
 23
594.48281249999991
 33
0.0
 14
-760.75156249999986
 24
-16.517187499999999
 34
0.0
 50
90.0
  0
DIMENSION
  5
9C
  8
Éíû@É³
  2
*D6
 10
-841.03359375000014
 20
608.98281250000002
 30
0.0
 11
-841.03359375000014
 21
601.73281250000002
 31
0.0
 70
   128
  1
<>
 13
-765.25156249999986
 23
608.98281250000002
 33
0.0
 14
-760.75156249999986
 24
594.48281249999991
 34
0.0
 50
90.0
  0
DIMENSION
  5
AB
  8
Éíû@É³
  2
*D7
 10
96.782029724099999
 20
-31.017187499999999
 30
0.0
 11
96.782029724099999
 21
128.98281249999999
 31
0.0
 70
   128
  1
<>
 13
14.7484375
 23
-31.017187499999999
 33
0.0
 14
-9.2515625000000004
 24
288.98281250000002
 34
0.0
 50
90.0
  0
CIRCLE
  5
AC
  8
┌▓È_1
 62
     5
 10
-98.251562500000006
 20
288.98281250000002
 30
0.0
 40
73.0
  0
INSERT
  5
AE
  8
┌▓È_1
  6
BORDER
  2
CLUMP0
 10
0.0
 20
0.0
 30
0.0
  0
DIMENSION
  5
1BF
  8
Éíû@É³
  2
*D23
 10
96.782029724099999
 20
288.98281250000002
 30
0.0
 11
96.782029724099999
 21
448.98281250000002
 31
0.0
 70
   128
  1
<>
 13
-9.2515625000000004
 23
288.98281250000002
 33
0.0
 14
14.7484375
 24
608.98281250000002
 34
0.0
 50
90.0
  0
DIMENSION
  5
1CE
  8
Éíû@É³
  2
*D24
 10
24.748437500000001
 20
648.98281250000002
 30
0.0
 11
-36.751562499999999
 21
648.98281250000002
 31
0.0
 70
   128
  1
<>
 13
24.748437500000001
 23
598.98281250000002
 33
0.0
 14
-98.251562500000006
 24
373.98281250000002
 34
0.0
  0
INSERT
  5
1D0
  8
┌▓È_1
  2
CLUMP15
 10
0.0
 20
0.0
 30
0.0
  0
INSERT
  5
217
  8
┌▓È_1
  2
CLUMP17
 10
0.0
 20
0.0
 30
0.0
  0
LINE
  5
255
  8
┌▓È_1
  6
BORDER
 62
     3
 10
-98.251562516000007
 20
-585.69296874999998
 30
0.0
 11
-98.251562516000007
 21
-511.90729166670002
 31
0.0
  0
INSERT
  5
257
  8
Éíû@É³
  2
BALLON0
 10
0.0
 20
0.0
 30
0.0
  0
DIMENSION
  5
26E
  8
Éíû@É³
  2
*D30
 10
72.863205429600001
 20
-297.99531250000001
 30
0.0
 11
72.863205429600001
 21
-263.99531250000001
 31
0.0
 70
   128
  1
<>
 13
22.863205429600001
 23
-297.99531250000001
 33
0.0
 14
22.163205429600001
 24
-229.99531250000001
 34
0.0
 50
90.0
  0
POINT
  5
26F
  8
┌▓È_1
  6
DOT
 62
     5
 10
10.2484375
 20
-16.517187499999999
 30
0.0
  0
INSERT
  5
270
  8
0
  6
CONTINUOUS
  2
*U65
 10
0.0
 20
0.0
 30
0.0
  0
INSERT
  5
271
  8
0
  6
CONTINUOUS
  2
*U66
 10
0.0
 20
0.0
 30
0.0
  0
LINE
  5
272
  8
┌▓È_1
 10
501.58730468749991
 20
-577.11484374999986
 30
0.0
 11
576.58730468749991
 21
-577.11484374999986
 31
0.0
  0
LINE
  5
273
  8
┌▓È_1
 10
501.58730468749991
 20
-632.11484374999986
 30
0.0
 11
576.58730468749991
 21
-632.11484374999986
 31
0.0
  0
DIMENSION
  5
282
  8
Éíû@É³
  2
*D31
 10
177.74453124999999
 20
-31.017187499999999
 30
0.0
 11
177.74453124999999
 21
288.98281250000002
 31
0.0
 70
   128
  1
<>
 13
14.7484375
 23
-31.017187499999999
 33
0.0
 14
14.7484375
 24
608.98281250000002
 34
0.0
 50
90.0
  0
DIMENSION
  5
291
  8
Éíû@É³
  2
*D32
 10
-419.11210937499987
 20
-297.99531250000001
 30
0.0
 11
-419.11210937499987
 21
-265.49531250000001
 31
0.0
 70
   128
  1
<>
 13
-469.11210937499987
 23
-297.99531250000001
 33
0.0
 14
-469.11210937499987
 24
-232.99531250000001
 34
0.0
 50
90.0
  0
LINE
  5
292
  8
┌▓È_1
 62
     5
 10
-36.336794570400002
 20
-232.99531250000001
 30
0.0
 11
-715.25156249999986
 21
-232.99531250000001
 31
0.0
  0
LINE
  5
293
  8
┌▓È_1
 62
     5
 10
-716.33679455439994
 20
-297.99531250000001
 30
0.0
 11
-36.336794570400002
 21
-297.99531250000001
 31
0.0
  0
INSERT
  5
295
  8
┌▓È_1
 62
     5
  2
CLUMP19
 10
0.0
 20
0.0
 30
0.0
  0
INSERT
  5
2A3
  8
┌▓È_1
 62
     5
  2
CLUMP20
 10
0.0
 20
0.0
 30
0.0
  0
INSERT
  5
2B1
  8
┌▓È_1
  2
CLUMP21
 10
0.0
 20
0.0
 30
0.0
  0
INSERT
  5
2DC
  8
Éíû@É³
  2
BALLON1
 10
0.0
 20
0.0
 30
0.0
  0
LINE
  5
2E5
  8
┌▓È_1
 62
     5
 10
-164.2515624557
 20
-304.99531250000001
 30
0.0
 11
-98.251562516700005
 21
-304.99531250000001
 31
0.0
  0
LINE
  5
2E6
  8
┌▓È_1
 62
     5
 10
-174.25156251669989
 20
-301.99531250000001
 30
0.0
 11
-174.25156251669989
 21
-297.99531250000001
 31
0.0
  0
ARC
  5
2E7
  8
┌▓È_1
 62
     5
 10
-171.25156251670001
 20
-301.99531250000001
 30
0.0
 40
3.0
 50
180.0
 51
270.0
  0
LINE
  5
2E8
  8
┌▓È_1
 62
     5
 10
-171.25156251670001
 20
-304.99531250000001
 30
0.0
 11
-25.251562516700002
 21
-304.99531250000001
 31
0.0
  0
ARC
  5
2E9
  8
┌▓È_1
 62
     5
 10
-167.5015624822
 20
-306.04531250000002
 30
0.0
 40
0.75
 50
90.000025117999996
 51
269.99998005330002
  0
ARC
  5
2EA
  8
┌▓È_1
 62
     5
 10
-164.2515624822
 20
-305.49531250000001
 30
0.0
 40
0.5
 50
90.000003320000005
 51
156.42182152180001
  0
ARC
  5
2EB
  8
┌▓È_1
 62
     5
 10
-32.251562551399999
 20
-305.49531251169998
 30
0.0
 40
0.5
 50
23.578178468099999
 51
89.999996669799998
  0
ARC
  5
2EC
  8
┌▓È_1
 62
     5
 10
-29.001562551500001
 20
-306.04531251229997
 30
0.0
 40
0.75
 50
270.0000199365
 51
89.999974871899994
  0
LINE
  5
2ED
  8
┌▓È_1
 62
     5
 10
-22.251562516700002
 20
-301.99531250000001
 30
0.0
 11
-22.251562516700002
 21
-297.99531250000001
 31
0.0
  0
ARC
  5
2EE
  8
┌▓È_1
 62
     5
 10
-25.251562516700002
 20
-301.99531250000001
 30
0.0
 40
3.0
 50
270.0
 51
0.0
  0
LINE
  5
2EF
  8
┌▓È_1
 62
     5
 10
-32.251562577800001
 20
-304.99531251169998
 30
0.0
 11
-98.251562516700005
 21
-304.99531250000001
 31
0.0
  0
LINE
  5
2F0
  8
┌▓È_1
 62
     5
 10
-29.001562222600011
 20
-305.29531251229997
 30
0.0
 11
-98.251562516800007
 21
-305.29531250000002
 31
0.0
  0
LINE
  5
2F1
  8
┌▓È_1
 62
     5
 10
-167.50156281100001
 20
-305.29531250000002
 30
0.0
 11
-98.251562516800007
 21
-305.29531250000002
 31
0.0
  0
LINE
  5
2F2
  8
┌▓È_1
 62
     5
 10
1039.0873046874999
 20
685.38515625000002
 30
0.0
 11
-960.91269531249986
 21
685.38515625000002
 31
0.0
  0
ARC
  5
2F3
  8
┌▓È_1
 62
     5
 10
504.89053712889989
 20
-688.18897891559993
 30
0.0
 40
15.0
 50
270.0
 51
0.0
  0
LINE
  5
2F4
  8
┌▓È_1
 62
     5
 10
540.69356743200001
 20
-703.18897891559993
 30
0.0
 11
540.69356743200001
 21
-695.68897891559993
 31
0.0
  0
LINE
  5
2F5
  8
┌▓È_1
 62
     5
 10
497.39053712889989
 20
-685.68897891559993
 30
0.0
 11
507.39053712890001
 21
-685.68897891559993
 31
0.0
  0
INSERT
  5
2F6
  8
0
  6
CONTINUOUS
  2
*U68
 10
0.0
 20
0.0
 30
0.0
  0
LINE
  5
2F7
  8
┌▓È_1
 10
289.08730468750002
 20
-390.9705791568
 30
0.0
 11
1039.0873046874999
 21
-390.9705791568
 31
0.0
  0
LINE
  5
2F8
  8
┌▓È_1
 10
289.08730468750002
 20
-512.57258596420002
 30
0.0
 11
1039.0873046874999
 21
-512.57258596420002
 31
0.0
  0
LINE
  5
2F9
  8
┌▓È_1
 10
289.08730468750002
 20
-482.17057915679999
 30
0.0
 11
1039.0873046874999
 21
-482.17057915679999
 31
0.0
  0
INSERT
  5
2FA
  8
0
  6
CONTINUOUS
  2
*U69
 10
0.0
 20
0.0
 30
0.0
  0
LINE
  5
2FB
  8
┌▓È_1
 10
289.08730468750002
 20
-451.7705791567999
 30
0.0
 11
1039.0873046874999
 21
-451.7705791567999
 31
0.0
  0
LINE
  5
2FC
  8
┌▓È_1
 10
289.08730468750002
 20
-421.37057915679992
 30
0.0
 11
1039.0873046874999
 21
-421.37057915679992
 31
0.0
  0
INSERT
  5
2FD
  8
0
  6
CONTINUOUS
  2
*U70
 10
0.0
 20
0.0
 30
0.0
  0
INSERT
  5
2FE
  8
0
  6
CONTINUOUS
  2
*U71
 10
0.0
 20
0.0
 30
0.0
  0
INSERT
  5
2FF
  8
0
  6
CONTINUOUS
  2
*U72
 10
0.0
 20
0.0
 30
0.0
  0
INSERT
  5
300
  8
0
  6
CONTINUOUS
  2
*U73
 10
0.0
 20
0.0
 30
0.0
  0
LINE
  5
301
  8
┌▓È_1
 10
343.75679253470003
 20
-549.61484374999986
 30
0.0
 11
343.75679253470003
 21
-390.9705791568
 31
0.0
  0
LINE
  5
302
  8
┌▓È_1
 10
289.08730468750002
 20
-549.61484374999986
 30
0.0
 11
289.08730468750002
 21
-390.9705791568
 31
0.0
  0
INSERT
  5
303
  8
0
  6
CONTINUOUS
  2
*U74
 10
0.0
 20
0.0
 30
0.0
  0
INSERT
  5
304
  8
0
  6
CONTINUOUS
  2
*U75
 10
0.0
 20
0.0
 30
0.0
  0
INSERT
  5
305
  8
0
  6
CONTINUOUS
  2
*U76
 10
0.0
 20
0.0
 30
0.0
  0
INSERT
  5
306
  8
0
  6
CONTINUOUS
  2
*U77
 10
0.0
 20
0.0
 30
0.0
  0
LINE
  5
307
  8
┌▓È_1
 10
916.37082762239993
 20
-549.61484374999986
 30
0.0
 11
916.37082762239993
 21
-390.9705791568
 31
0.0
  0
LINE
  5
308
  8
┌▓È_1
 10
855.84175421939995
 20
-549.61484374999986
 30
0.0
 11
855.84175421939995
 21
-390.9705791568
 31
0.0
  0
LINE
  5
309
  8
┌▓È_1
 10
601.47024282710004
 20
-549.61484374999986
 30
0.0
 11
601.47024282710004
 21
-390.9705791568
 31
0.0
  0
INSERT
  5
30A
  8
0
  6
CONTINUOUS
  2
*U78
 10
0.0
 20
0.0
 30
0.0
  0
LINE
  5
30B
  8
┌▓È_1
 62
     5
 10
623.43580245359999
 20
-676.68897891559993
 30
0.0
 11
641.78098067339988
 21
-676.68897891559993
 31
0.0
  0
LINE
  5
30C
  8
┌▓È_1
 10
289.08730468750002
 20
-604.61484374999998
 30
0.0
 11
589.08730468749991
 21
-604.61484374999998
 31
0.0
  0
LINE
  5
30D
  8
┌▓È_1
 62
     5
 10
631.78098067339999
 20
-705.68897891559993
 30
0.0
 11
617.78098067339999
 21
-705.68897891559993
 31
0.0
  0
LINE
  5
30E
  8
┌▓È_1
 62
     5
 10
507.39053712890001
 20
-685.68897891559993
 30
0.0
 11
507.39053712890001
 21
-688.18897891559993
 31
0.0
  0
LINE
  5
30F
  8
┌▓È_1
 10
301.58730468750002
 20
-632.11484374999986
 30
0.0
 11
476.58730468749991
 21
-632.11484374999986
 31
0.0
  0
LINE
  5
310
  8
┌▓È_1
 62
     5
 10
641.78098067339988
 20
-689.68897891559993
 30
0.0
 11
641.78098067339988
 21
-698.68897891559993
 31
0.0
  0
LINE
  5
311
  8
┌▓È_1
 62
     5
 10
585.6935674319999
 20
-695.68897891559993
 30
0.0
 11
585.6935674319999
 21
-703.18897891559993
 31
0.0
  0
LINE
  5
312
  8
┌▓È_1
 62
     5
 10
484.89053712889989
 20
-685.68897891559993
 30
0.0
 11
484.13501807120002
 21
-685.68897891559993
 31
0.0
  0
LINE
  5
313
  8
┌▓È_1
 62
     5
 10
484.89053712889989
 20
-695.68897891559993
 30
0.0
 11
484.89053712889989
 21
-703.18897891559993
 31
0.0
  0
ARC
  5
314
  8
┌▓È_1
 62
     5
 10
546.69356743200001
 20
-676.68897891559993
 30
0.0
 40
19.0
 50
331.39928138329998
 51
358.49204224580001
  0
LINE
  5
315
  8
┌▓È_1
 62
     5
 10
519.89053712889995
 20
-685.68897891559993
 30
0.0
 11
527.39053712889995
 21
-685.68897891559993
 31
0.0
  0
ARC
  5
316
  8
┌▓È_1
 62
     5
 10
553.19356743200001
 20
-675.68897891559993
 30
0.0
 40
27.5
 50
270.0
 51
302.54495885400001
  0
LINE
  5
317
  8
┌▓È_1
 10
489.08730468749991
 20
-604.61484374999998
 30
0.0
 11
489.08730468749991
 21
-659.61484374999998
 31
0.0
  0
LINE
  5
318
  8
┌▓È_1
 10
289.08730468750002
 20
-549.61484374999986
 30
0.0
 11
289.08730468750002
 21
-714.61484374999986
 31
0.0
  0
LINE
  5
319
  8
┌▓È_1
 10
389.08730468750002
 20
-549.61484374999986
 30
0.0
 11
389.08730468750002
 21
-604.61484374999998
 31
0.0
  0
LINE
  5
31A
  8
┌▓È_1
 62
     5
 10
623.43580245359999
 20
-676.68897891559993
 30
0.0
 11
622.70383120250006
 21
-674.14533446320002
 31
0.0
  0
LINE
  5
31B
  8
┌▓È_1
 62
     5
 10
585.6935674319999
 20
-668.18897891559993
 30
0.0
 11
540.69356743200001
 21
-668.18897891559993
 31
0.0
  0
LINE
  5
31C
  8
┌▓È_1
 62
     5
 10
484.89053712889989
 20
-693.18897891559993
 30
0.0
 11
497.39053712889989
 21
-693.18897891559993
 31
0.0
  0
LINE
  5
31D
  8
┌▓È_1
 62
     5
 10
519.89053712889995
 20
-675.68897891559993
 30
0.0
 11
527.39053712889995
 21
-668.18897891559993
 31
0.0
  0
LINE
  5
31E
  8
┌▓È_1
 62
     5
 10
613.08764733999988
 20
-689.68897891559993
 30
0.0
 11
611.9143140066999
 21
-685.68897891559993
 31
0.0
  0
LINE
  5
31F
  8
┌▓È_1
 62
     5
 10
497.39053712889989
 20
-678.18897891559993
 30
0.0
 11
497.39053712889989
 21
-675.68897891559993
 31
0.0
  0
LINE
  5
320
  8
┌▓È_1
 62
     5
 10
575.00716419239996
 20
-692.43463496039976
 30
0.0
 11
574.11665389339998
 21
-693.30652568139999
 31
0.0
  0
LINE
  5
321
  8
┌▓È_1
 62
     5
 10
1039.0873046874999
 20
-549.61484374999986
 30
0.0
 11
1039.0873046874999
 21
685.38515625000002
 31
0.0
  0
LINE
  5
322
  8
┌▓È_1
 62
     5
 10
-960.91269531249986
 20
-714.61484374999986
 30
0.0
 11
-960.91269531249986
 21
685.38515625000002
 31
0.0
  0
LINE
  5
323
  8
┌▓È_1
 62
     5
 10
289.08730468750002
 20
-714.61484374999986
 30
0.0
 11
-960.91269531249986
 21
-714.61484374999986
 31
0.0
  0
LINE
  5
324
  8
┌▓È_1
 62
     5
 10
1039.0873046874999
 20
-714.61484374999986
 30
0.0
 11
1039.0873046874999
 21
-549.61484374999986
 31
0.0
  0
LINE
  5
325
  8
┌▓È_1
 10
1039.0873046874999
 20
-549.61484374999986
 30
0.0
 11
289.08730468750002
 21
-549.61484374999986
 31
0.0
  0
LINE
  5
326
  8
┌▓È_1
 10
689.08730468750002
 20
-549.61484374999986
 30
0.0
 11
689.08730468750002
 21
-714.61484374999986
 31
0.0
  0
LINE
  5
327
  8
┌▓È_1
 10
589.08730468749991
 20
-549.61484374999986
 30
0.0
 11
589.08730468749991
 21
-659.61484374999998
 31
0.0
  0
LINE
  5
328
  8
┌▓È_1
 62
     5
 10
631.78098067339999
 20
-705.68897891559993
 30
0.0
 11
629.76662730999988
 21
-698.68897891559993
 31
0.0
  0
LINE
  5
329
  8
┌▓È_1
 62
     5
 10
627.17674441420002
 20
-689.68897891559993
 30
0.0
 11
641.78098067339988
 21
-689.68897891559993
 31
0.0
  0
ARC
  5
32A
  8
┌▓È_1
 62
     5
 10
553.19356743200001
 20
-675.68897891559993
 30
0.0
 40
27.5
 50
322.48761197969998
 51
0.0
  0
LINE
  5
32B
  8
┌▓È_1
 62
     5
 10
484.89053712889989
 20
-703.18897891559993
 30
0.0
 11
504.89053712889989
 21
-703.18897891559993
 31
0.0
  0
LINE
  5
32C
  8
┌▓È_1
 62
     5
 10
596.78098067339999
 20
-698.68897891559993
 30
0.0
 11
615.72764733999986
 21
-698.68897891559993
 31
0.0
  0
ARC
  5
32D
  8
┌▓È_1
 62
     5
 10
499.89053712890001
 20
-688.18897891559993
 30
0.0
 40
7.5
 50
270.0
 51
0.0
  0
LINE
  5
32E
  8
┌▓È_1
 62
     5
 10
519.89053712889995
 20
-688.18897891559993
 30
0.0
 11
519.89053712889995
 21
-685.68897891559993
 31
0.0
  0
LINE
  5
32F
  8
┌▓È_1
 62
     5
 10
479.13501807120002
 20
-685.68897891559993
 30
0.0
 11
484.13501807120002
 21
-685.68897891559993
 31
0.0
  0
LINE
  5
330
  8
┌▓È_1
 62
     5
 10
596.78098067339999
 20
-689.68897891559993
 30
0.0
 11
613.08764733999988
 21
-689.68897891559993
 31
0.0
  0
LINE
  5
331
  8
┌▓È_1
 62
     5
 10
627.17674441420002
 20
-689.68897891559993
 30
0.0
 11
626.02568534939996
 21
-685.68897891559993
 31
0.0
  0
LINE
  5
332
  8
┌▓È_1
 62
     5
 10
617.78098067339999
 20
-705.68897891559993
 30
0.0
 11
615.72764733999986
 21
-698.68897891559993
 31
0.0
  0
LINE
  5
333
  8
┌▓È_1
 62
     5
 10
499.89053712890001
 20
-695.68897891559993
 30
0.0
 11
484.89053712889989
 21
-695.68897891559993
 31
0.0
  0
LINE
  5
334
  8
┌▓È_1
 62
     5
 10
540.69356743200001
 20
-677.18897891559993
 30
0.0
 11
565.69356743200001
 21
-677.18897891559993
 31
0.0
  0
LINE
  5
335
  8
┌▓È_1
 62
     5
 10
641.78098067339988
 20
-676.68897891559993
 30
0.0
 11
641.78098067339988
 21
-685.68897891559993
 31
0.0
  0
LINE
  5
336
  8
┌▓È_1
 62
     5
 10
596.78098067339999
 20
-685.68897891559993
 30
0.0
 11
611.9143140066999
 21
-685.68897891559993
 31
0.0
  0
LINE
  5
337
  8
┌▓È_1
 62
     5
 10
596.78098067339999
 20
-689.68897891559993
 30
0.0
 11
596.78098067339999
 21
-698.68897891559993
 31
0.0
  0
LINE
  5
338
  8
┌▓È_1
 62
     5
 10
497.39053712889989
 20
-693.18897891559993
 30
0.0
 11
497.39053712889989
 21
-685.68897891559993
 31
0.0
  0
LINE
  5
339
  8
┌▓È_1
 62
     5
 10
596.78098067339999
 20
-676.68897891559993
 30
0.0
 11
609.27431400670002
 21
-676.68897891559993
 31
0.0
  0
LINE
  5
33A
  8
┌▓È_1
 62
     5
 10
622.70383120250006
 20
-674.14533446320002
 30
0.0
 11
626.78098067339999
 21
-668.18897891559993
 31
0.0
  0
LINE
  5
33B
  8
┌▓È_1
 62
     5
 10
484.89053712889989
 20
-685.68897891559993
 30
0.0
 11
484.89053712889989
 21
-693.18897891559993
 31
0.0
  0
LINE
  5
33C
  8
┌▓È_1
 62
     5
 10
609.27431400670002
 20
-676.68897891559993
 30
0.0
 11
606.78098067339999
 21
-668.18897891559993
 31
0.0
  0
INSERT
  5
33D
  8
0
  6
CONTINUOUS
  2
*U79
 10
0.0
 20
0.0
 30
0.0
  0
INSERT
  5
33E
  8
0
  6
CONTINUOUS
  2
*U80
 10
0.0
 20
0.0
 30
0.0
  0
INSERT
  5
33F
  8
0
  6
CONTINUOUS
  2
*U81
 10
0.0
 20
0.0
 30
0.0
  0
INSERT
  5
340
  8
0
  6
CONTINUOUS
  2
*U82
 10
0.0
 20
0.0
 30
0.0
  0
LINE
  5
341
  8
┌▓È_1
 62
     5
 10
560.6935674319999
 20
-679.79953025299994
 30
0.0
 11
557.86514030720002
 21
-682.6279573777
 31
0.0
  0
LINE
  5
342
  8
┌▓È_1
 62
     5
 10
540.69356743200001
 20
-681.41008159039995
 30
0.0
 11
540.69356743200001
 21
-679.79953025299994
 31
0.0
  0
LINE
  5
343
  8
┌▓È_1
 62
     5
 10
479.13501807120002
 20
-678.18897891559993
 30
0.0
 11
479.13501807120002
 21
-685.68897891559993
 31
0.0
  0
LINE
  5
344
  8
┌▓È_1
 62
     5
 10
527.39053712889995
 20
-678.18897891559993
 30
0.0
 11
527.39053712889995
 21
-685.68897891559993
 31
0.0
  0
LINE
  5
345
  8
┌▓È_1
 62
     5
 10
580.69356743200001
 20
-675.68897891559993
 30
0.0
 11
585.6935674319999
 21
-668.18897891559993
 31
0.0
  0
LINE
  5
346
  8
┌▓È_1
 62
     5
 10
540.69356743200001
 20
-695.68897891559993
 30
0.0
 11
540.69356743200001
 21
-703.18897891559993
 31
0.0
  0
LINE
  5
347
  8
┌▓È_1
 62
     5
 10
540.69356743200001
 20
-695.68897891559993
 30
0.0
 11
546.69356743200001
 21
-695.68897891559993
 31
0.0
  0
LINE
  5
348
  8
┌▓È_1
 62
     5
 10
580.69356743200001
 20
-675.68897891559993
 30
0.0
 11
585.6935674319999
 21
-668.18897891559993
 31
0.0
  0
LINE
  5
349
  8
┌▓È_1
 62
     5
 10
626.02568534939996
 20
-685.68897891559993
 30
0.0
 11
641.78098067339988
 21
-685.68897891559993
 31
0.0
  0
LINE
  5
34A
  8
┌▓È_1
 62
     5
 10
540.69356743200001
 20
-703.18897891559993
 30
0.0
 11
553.19356743200001
 21
-703.18897891559993
 31
0.0
  0
LINE
  5
34B
  8
┌▓È_1
 62
     5
 10
507.39053712890001
 20
-668.18897891559993
 30
0.0
 11
507.39053712890001
 21
-678.18897891559993
 31
0.0
  0
LINE
  5
34C
  8
┌▓È_1
 62
     5
 10
289.08730468750002
 20
-714.61484374999986
 30
0.0
 11
1039.0873046874999
 21
-714.61484374999986
 31
0.0
  0
LINE
  5
34D
  8
┌▓È_1
 62
     5
 10
563.37512989039999
 20
-685.78433344109999
 30
0.0
 11
562.17215085880002
 21
-687.11302524389998
 31
0.0
  0
LINE
  5
34E
  8
┌▓È_1
 62
     5
 10
540.69356743200001
 20
-679.79953025299994
 30
0.0
 11
560.6935674319999
 21
-679.79953025299994
 31
0.0
  0
ARC
  5
34F
  8
┌▓È_1
 62
     5
 10
546.69356743200001
 20
-676.68897891559993
 30
0.0
 40
19.0
 50
270.0
 51
298.08590481520002
  0
LINE
  5
350
  8
┌▓È_1
 10
301.58730468750002
 20
-577.11484374999986
 30
0.0
 11
376.58730468750002
 21
-577.11484374999986
 31
0.0
  0
LINE
  5
351
  8
┌▓È_1
 10
401.58730468749991
 20
-577.11484374999986
 30
0.0
 11
476.58730468749991
 21
-577.11484374999986
 31
0.0
  0
LINE
  5
352
  8
┌▓È_1
 62
     5
 10
606.78098067339999
 20
-668.18897891559993
 30
0.0
 11
626.78098067339999
 21
-668.18897891559993
 31
0.0
  0
LINE
  5
353
  8
┌▓È_1
 62
     5
 10
484.89053712889989
 20
-678.18897891559993
 30
0.0
 11
479.13501807120002
 21
-678.18897891559993
 31
0.0
  0
LINE
  5
354
  8
┌▓È_1
 62
     5
 10
527.39053712889995
 20
-668.18897891559993
 30
0.0
 11
507.39053712890001
 21
-668.18897891559993
 31
0.0
  0
LINE
  5
355
  8
┌▓È_1
 62
     5
 10
540.69356743200001
 20
-668.18897891559993
 30
0.0
 11
540.69356743200001
 21
-677.18897891559993
 31
0.0
  0
POLYLINE
  8
┌▓È_1
  5
8A9
  62
5
  66
     1
 10
0.000000
 20
0.000000
 30
0.000000
  70
     8
  0
VERTEX
  8
┌▓È_1
  5
8AA
 10
567.988
 20
-698.871
 30
0.000000
  70
    32
  0
VERTEX
  8
┌▓È_1
  5
8AB
 10
568.122
 20
-698.914
 30
0.000000
  70
    32
  0
VERTEX
  8
┌▓È_1
  5
8AC
 10
568.257
 20
-698.956
 30
0.000000
  70
    32
  0
VERTEX
  8
┌▓È_1
  5
8AD
 10
568.392
 20
-698.999
 30
0.000000
  70
    32
  0
VERTEX
  8
┌▓È_1
  5
8AE
 10
568.527
 20
-699.041
 30
0.000000
  70
    32
  0
VERTEX
  8
┌▓È_1
  5
8AF
 10
568.662
 20
-699.083
 30
0.000000
  70
    32
  0
VERTEX
  8
┌▓È_1
  5
8B0
 10
568.797
 20
-699.125
 30
0.000000
  70
    32
  0
VERTEX
  8
┌▓È_1
  5
8B1
 10
568.932
 20
-699.167
 30
0.000000
  70
    32
  0
VERTEX
  8
┌▓È_1
  5
8B2
 10
569.067
 20
-699.208
 30
0.000000
  70
    32
  0
VERTEX
  8
┌▓È_1
  5
8B3
 10
569.203
 20
-699.249
 30
0.000000
  70
    32
  0
VERTEX
  8
┌▓È_1
  5
8B4
 10
569.338
 20
-699.291
 30
0.000000
  70
    32
  0
VERTEX
  8
┌▓È_1
  5
8B5
 10
569.474
 20
-699.331
 30
0.000000
  70
    32
  0
VERTEX
  8
┌▓È_1
  5
8B6
 10
569.610
 20
-699.372
 30
0.000000
  70
    32
  0
VERTEX
  8
┌▓È_1
  5
8B7
 10
569.746
 20
-699.413
 30
0.000000
  70
    32
  0
VERTEX
  8
┌▓È_1
  5
8B8
 10
569.882
 20
-699.453
 30
0.000000
  70
    32
  0
VERTEX
  8
┌▓È_1
  5
8B9
 10
570.018
 20
-699.493
 30
0.000000
  70
    32
  0
VERTEX
  8
┌▓È_1
  5
8BA
 10
570.154
 20
-699.533
 30
0.000000
  70
    32
  0
VERTEX
  8
┌▓È_1
  5
8BB
 10
570.291
 20
-699.573
 30
0.000000
  70
    32
  0
VERTEX
  8
┌▓È_1
  5
8BC
 10
570.427
 20
-699.612
 30
0.000000
  70
    32
  0
VERTEX
  8
┌▓È_1
  5
8BD
 10
570.563
 20
-699.652
 30
0.000000
  70
    32
  0
VERTEX
  8
┌▓È_1
  5
8BE
 10
570.700
 20
-699.691
 30
0.000000
  70
    32
  0
VERTEX
  8
┌▓È_1
  5
8BF
 10
570.837
 20
-699.730
 30
0.000000
  70
    32
  0
VERTEX
  8
┌▓È_1
  5
8C0
 10
570.974
 20
-699.769
 30
0.000000
  70
    32
  0
VERTEX
  8
┌▓È_1
  5
8C1
 10
571.111
 20
-699.807
 30
0.000000
  70
    32
  0
VERTEX
  8
┌▓È_1
  5
8C2
 10
571.248
 20
-699.846
 30
0.000000
  70
    32
  0
VERTEX
  8
┌▓È_1
  5
8C3
 10
571.385
 20
-699.884
 30
0.000000
  70
    32
  0
VERTEX
  8
┌▓È_1
  5
8C4
 10
571.522
 20
-699.922
 30
0.000000
  70
    32
  0
VERTEX
  8
┌▓È_1
  5
8C5
 10
571.659
 20
-699.960
 30
0.000000
  70
    32
  0
VERTEX
  8
┌▓È_1
  5
8C6
 10
571.796
 20
-699.998
 30
0.000000
  70
    32
  0
VERTEX
  8
┌▓È_1
  5
8C7
 10
571.934
 20
-700.036
 30
0.000000
  70
    32
  0
VERTEX
  8
┌▓È_1
  5
8C8
 10
572.071
 20
-700.073
 30
0.000000
  70
    32
  0
VERTEX
  8
┌▓È_1
  5
8C9
 10
572.209
 20
-700.110
 30
0.000000
  70
    32
  0
VERTEX
  8
┌▓È_1
  5
8CA
 10
572.347
 20
-700.148
 30
0.000000
  70
    32
  0
VERTEX
  8
┌▓È_1
  5
8CB
 10
572.485
 20
-700.184
 30
0.000000
  70
    32
  0
VERTEX
  8
┌▓È_1
  5
8CC
 10
572.622
 20
-700.221
 30
0.000000
  70
    32
  0
VERTEX
  8
┌▓È_1
  5
8CD
 10
572.760
 20
-700.258
 30
0.000000
  70
    32
  0
VERTEX
  8
┌▓È_1
  5
8CE
 10
572.899
 20
-700.295
 30
0.000000
  70
    32
  0
VERTEX
  8
┌▓È_1
  5
8CF
 10
573.037
 20
-700.331
 30
0.000000
  70
    32
  0
VERTEX
  8
┌▓È_1
  5
8D0
 10
573.175
 20
-700.367
 30
0.000000
  70
    32
  0
VERTEX
  8
┌▓È_1
  5
8D1
 10
573.313
 20
-700.403
 30
0.000000
  70
    32
  0
VERTEX
  8
┌▓È_1
  5
8D2
 10
573.452
 20
-700.439
 30
0.000000
  70
    32
  0
VERTEX
  8
┌▓È_1
  5
8D3
 10
573.590
 20
-700.475
 30
0.000000
  70
    32
  0
VERTEX
  8
┌▓È_1
  5
8D4
 10
573.729
 20
-700.510
 30
0.000000
  70
    32
  0
VERTEX
  8
┌▓È_1
  5
8D5
 10
573.867
 20
-700.546
 30
0.000000
  70
    32
  0
VERTEX
  8
┌▓È_1
  5
8D6
 10
574.006
 20
-700.581
 30
0.000000
  70
    32
  0
VERTEX
  8
┌▓È_1
  5
8D7
 10
574.145
 20
-700.616
 30
0.000000
  70
    32
  0
VERTEX
  8
┌▓È_1
  5
8D8
 10
574.283
 20
-700.652
 30
0.000000
  70
    32
  0
VERTEX
  8
┌▓È_1
  5
8D9
 10
574.422
 20
-700.686
 30
0.000000
  70
    32
  0
VERTEX
  8
┌▓È_1
  5
8DA
 10
574.561
 20
-700.721
 30
0.000000
  70
    32
  0
VERTEX
  8
┌▓È_1
  5
8DB
 10
574.700
 20
-700.756
 30
0.000000
  70
    32
  0
VERTEX
  8
┌▓È_1
  5
8DC
 10
574.840
 20
-700.790
 30
0.000000
  70
    32
  0
VERTEX
  8
┌▓È_1
  5
8DD
 10
574.979
 20
-700.825
 30
0.000000
  70
    32
  0
VERTEX
  8
┌▓È_1
  5
8DE
 10
575.118
 20
-700.859
 30
0.000000
  70
    32
  0
VERTEX
  8
┌▓È_1
  5
8DF
 10
575.257
 20
-700.893
 30
0.000000
  70
    32
  0
VERTEX
  8
┌▓È_1
  5
8E0
 10
575.397
 20
-700.927
 30
0.000000
  70
    32
  0
VERTEX
  8
┌▓È_1
  5
8E1
 10
575.536
 20
-700.961
 30
0.000000
  70
    32
  0
VERTEX
  8
┌▓È_1
  5
8E2
 10
575.676
 20
-700.995
 30
0.000000
  70
    32
  0
VERTEX
  8
┌▓È_1
  5
8E3
 10
575.815
 20
-701.029
 30
0.000000
  70
    32
  0
VERTEX
  8
┌▓È_1
  5
8E4
 10
575.955
 20
-701.062
 30
0.000000
  70
    32
  0
VERTEX
  8
┌▓È_1
  5
8E5
 10
576.095
 20
-701.096
 30
0.000000
  70
    32
  0
VERTEX
  8
┌▓È_1
  5
8E6
 10
576.235
 20
-701.129
 30
0.000000
  70
    32
  0
VERTEX
  8
┌▓È_1
  5
8E7
 10
576.374
 20
-701.162
 30
0.000000
  70
    32
  0
VERTEX
  8
┌▓È_1
  5
8E8
 10
576.514
 20
-701.195
 30
0.000000
  70
    32
  0
VERTEX
  8
┌▓È_1
  5
8E9
 10
576.654
 20
-701.228
 30
0.000000
  70
    32
  0
VERTEX
  8
┌▓È_1
  5
8EA
 10
576.794
 20
-701.261
 30
0.000000
  70
    32
  0
VERTEX
  8
┌▓È_1
  5
8EB
 10
576.934
 20
-701.294
 30
0.000000
  70
    32
  0
VERTEX
  8
┌▓È_1
  5
8EC
 10
577.075
 20
-701.327
 30
0.000000
  70
    32
  0
VERTEX
  8
┌▓È_1
  5
8ED
 10
577.215
 20
-701.359
 30
0.000000
  70
    32
  0
VERTEX
  8
┌▓È_1
  5
8EE
 10
577.355
 20
-701.392
 30
0.000000
  70
    32
  0
VERTEX
  8
┌▓È_1
  5
8EF
 10
577.495
 20
-701.424
 30
0.000000
  70
    32
  0
VERTEX
  8
┌▓È_1
  5
8F0
 10
577.636
 20
-701.456
 30
0.000000
  70
    32
  0
VERTEX
  8
┌▓È_1
  5
8F1
 10
577.776
 20
-701.488
 30
0.000000
  70
    32
  0
VERTEX
  8
┌▓È_1
  5
8F2
 10
577.917
 20
-701.520
 30
0.000000
  70
    32
  0
VERTEX
  8
┌▓È_1
  5
8F3
 10
578.057
 20
-701.552
 30
0.000000
  70
    32
  0
VERTEX
  8
┌▓È_1
  5
8F4
 10
578.198
 20
-701.584
 30
0.000000
  70
    32
  0
VERTEX
  8
┌▓È_1
  5
8F5
 10
578.338
 20
-701.616
 30
0.000000
  70
    32
  0
VERTEX
  8
┌▓È_1
  5
8F6
 10
578.479
 20
-701.648
 30
0.000000
  70
    32
  0
VERTEX
  8
┌▓È_1
  5
8F7
 10
578.620
 20
-701.679
 30
0.000000
  70
    32
  0
VERTEX
  8
┌▓È_1
  5
8F8
 10
578.760
 20
-701.711
 30
0.000000
  70
    32
  0
VERTEX
  8
┌▓È_1
  5
8F9
 10
578.901
 20
-701.742
 30
0.000000
  70
    32
  0
VERTEX
  8
┌▓È_1
  5
8FA
 10
579.042
 20
-701.774
 30
0.000000
  70
    32
  0
VERTEX
  8
┌▓È_1
  5
8FB
 10
579.183
 20
-701.805
 30
0.000000
  70
    32
  0
VERTEX
  8
┌▓È_1
  5
8FC
 10
579.324
 20
-701.836
 30
0.000000
  70
    32
  0
VERTEX
  8
┌▓È_1
  5
8FD
 10
579.465
 20
-701.868
 30
0.000000
  70
    32
  0
VERTEX
  8
┌▓È_1
  5
8FE
 10
579.606
 20
-701.899
 30
0.000000
  70
    32
  0
VERTEX
  8
┌▓È_1
  5
8FF
 10
579.747
 20
-701.930
 30
0.000000
  70
    32
  0
VERTEX
  8
┌▓È_1
  5
900
 10
579.888
 20
-701.961
 30
0.000000
  70
    32
  0
VERTEX
  8
┌▓È_1
  5
901
 10
580.029
 20
-701.991
 30
0.000000
  70
    32
  0
VERTEX
  8
┌▓È_1
  5
902
 10
580.170
 20
-702.022
 30
0.000000
  70
    32
  0
VERTEX
  8
┌▓È_1
  5
903
 10
580.311
 20
-702.053
 30
0.000000
  70
    32
  0
VERTEX
  8
┌▓È_1
  5
904
 10
580.452
 20
-702.084
 30
0.000000
  70
    32
  0
VERTEX
  8
┌▓È_1
  5
905
 10
580.594
 20
-702.114
 30
0.000000
  70
    32
  0
VERTEX
  8
┌▓È_1
  5
906
 10
580.735
 20
-702.145
 30
0.000000
  70
    32
  0
VERTEX
  8
┌▓È_1
  5
907
 10
580.876
 20
-702.175
 30
0.000000
  70
    32
  0
VERTEX
  8
┌▓È_1
  5
908
 10
581.018
 20
-702.206
 30
0.000000
  70
    32
  0
VERTEX
  8
┌▓È_1
  5
909
 10
581.159
 20
-702.236
 30
0.000000
  70
    32
  0
VERTEX
  8
┌▓È_1
  5
90A
 10
581.300
 20
-702.266
 30
0.000000
  70
    32
  0
VERTEX
  8
┌▓È_1
  5
90B
 10
581.442
 20
-702.297
 30
0.000000
  70
    32
  0
VERTEX
  8
┌▓È_1
  5
90C
 10
581.583
 20
-702.327
 30
0.000000
  70
    32
  0
VERTEX
  8
┌▓È_1
  5
90D
 10
581.725
 20
-702.357
 30
0.000000
  70
    32
  0
VERTEX
  8
┌▓È_1
  5
90E
 10
581.866
 20
-702.387
 30
0.000000
  70
    32
  0
VERTEX
  8
┌▓È_1
  5
90F
 10
582.008
 20
-702.417
 30
0.000000
  70
    32
  0
VERTEX
  8
┌▓È_1
  5
910
 10
582.149
 20
-702.447
 30
0.000000
  70
    32
  0
VERTEX
  8
┌▓È_1
  5
911
 10
582.291
 20
-702.477
 30
0.000000
  70
    32
  0
VERTEX
  8
┌▓È_1
  5
912
 10
582.433
 20
-702.507
 30
0.000000
  70
    32
  0
VERTEX
  8
┌▓È_1
  5
913
 10
582.574
 20
-702.537
 30
0.000000
  70
    32
  0
VERTEX
  8
┌▓È_1
  5
914
 10
582.716
 20
-702.567
 30
0.000000
  70
    32
  0
VERTEX
  8
┌▓È_1
  5
915
 10
582.858
 20
-702.597
 30
0.000000
  70
    32
  0
VERTEX
  8
┌▓È_1
  5
916
 10
582.999
 20
-702.627
 30
0.000000
  70
    32
  0
VERTEX
  8
┌▓È_1
  5
917
 10
583.141
 20
-702.657
 30
0.000000
  70
    32
  0
VERTEX
  8
┌▓È_1
  5
918
 10
583.283
 20
-702.686
 30
0.000000
  70
    32
  0
VERTEX
  8
┌▓È_1
  5
919
 10
583.424
 20
-702.716
 30
0.000000
  70
    32
  0
VERTEX
  8
┌▓È_1
  5
91A
 10
583.566
 20
-702.746
 30
0.000000
  70
    32
  0
VERTEX
  8
┌▓È_1
  5
91B
 10
583.708
 20
-702.775
 30
0.000000
  70
    32
  0
VERTEX
  8
┌▓È_1
  5
91C
 10
583.850
 20
-702.805
 30
0.000000
  70
    32
  0
VERTEX
  8
┌▓È_1
  5
91D
 10
583.992
 20
-702.835
 30
0.000000
  70
    32
  0
VERTEX
  8
┌▓È_1
  5
91E
 10
584.133
 20
-702.864
 30
0.000000
  70
    32
  0
VERTEX
  8
┌▓È_1
  5
91F
 10
584.275
 20
-702.894
 30
0.000000
  70
    32
  0
VERTEX
  8
┌▓È_1
  5
920
 10
584.417
 20
-702.923
 30
0.000000
  70
    32
  0
VERTEX
  8
┌▓È_1
  5
921
 10
584.559
 20
-702.953
 30
0.000000
  70
    32
  0
VERTEX
  8
┌▓È_1
  5
922
 10
584.701
 20
-702.982
 30
0.000000
  70
    32
  0
VERTEX
  8
┌▓È_1
  5
923
 10
584.842
 20
-703.012
 30
0.000000
  70
    32
  0
VERTEX
  8
┌▓È_1
  5
924
 10
584.984
 20
-703.041
 30
0.000000
  70
    32
  0
VERTEX
  8
┌▓È_1
  5
925
 10
585.126
 20
-703.071
 30
0.000000
  70
    32
  0
VERTEX
  8
┌▓È_1
  5
926
 10
585.268
 20
-703.100
 30
0.000000
  70
    32
  0
VERTEX
  8
┌▓È_1
  5
927
 10
585.410
 20
-703.130
 30
0.000000
  70
    32
  0
VERTEX
  8
┌▓È_1
  5
928
 10
585.552
 20
-703.159
 30
0.000000
  70
    32
  0
VERTEX
  8
┌▓È_1
  5
929
 10
585.694
 20
-703.189
 30
0.000000
  70
    32
  0
SEQEND
  8
┌▓È_1
  5
92A
  0
POLYLINE
  8
┌▓È_1
  5
92B
  62
5
  66
     1
 10
0.000000
 20
0.000000
 30
0.000000
  70
     8
  0
VERTEX
  8
┌▓È_1
  5
92C
 10
540.694
 20
-681.410
 30
0.000000
  70
    32
  0
VERTEX
  8
┌▓È_1
  5
92D
 10
540.784
 20
-681.493
 30
0.000000
  70
    32
  0
VERTEX
  8
┌▓È_1
  5
92E
 10
540.874
 20
-681.576
 30
0.000000
  70
    32
  0
VERTEX
  8
┌▓È_1
  5
92F
 10
540.964
 20
-681.659
 30
0.000000
  70
    32
  0
VERTEX
  8
┌▓È_1
  5
930
 10
541.054
 20
-681.742
 30
0.000000
  70
    32
  0
VERTEX
  8
┌▓È_1
  5
931
 10
541.144
 20
-681.825
 30
0.000000
  70
    32
  0
VERTEX
  8
┌▓È_1
  5
932
 10
541.234
 20
-681.908
 30
0.000000
  70
    32
  0
VERTEX
  8
┌▓È_1
  5
933
 10
541.324
 20
-681.991
 30
0.000000
  70
    32
  0
VERTEX
  8
┌▓È_1
  5
934
 10
541.414
 20
-682.074
 30
0.000000
  70
    32
  0
VERTEX
  8
┌▓È_1
  5
935
 10
541.504
 20
-682.157
 30
0.000000
  70
    32
  0
VERTEX
  8
┌▓È_1
  5
936
 10
541.594
 20
-682.240
 30
0.000000
  70
    32
  0
VERTEX
  8
┌▓È_1
  5
937
 10
541.684
 20
-682.323
 30
0.000000
  70
    32
  0
VERTEX
  8
┌▓È_1
  5
938
 10
541.775
 20
-682.406
 30
0.000000
  70
    32
  0
VERTEX
  8
┌▓È_1
  5
939
 10
541.865
 20
-682.489
 30
0.000000
  70
    32
  0
VERTEX
  8
┌▓È_1
  5
93A
 10
541.955
 20
-682.571
 30
0.000000
  70
    32
  0
VERTEX
  8
┌▓È_1
  5
93B
 10
542.045
 20
-682.654
 30
0.000000
  70
    32
  0
VERTEX
  8
┌▓È_1
  5
93C
 10
542.135
 20
-682.737
 30
0.000000
  70
    32
  0
VERTEX
  8
┌▓È_1
  5
93D
 10
542.225
 20
-682.820
 30
0.000000
  70
    32
  0
VERTEX
  8
┌▓È_1
  5
93E
 10
542.316
 20
-682.903
 30
0.000000
  70
    32
  0
VERTEX
  8
┌▓È_1
  5
93F
 10
542.406
 20
-682.985
 30
0.000000
  70
    32
  0
VERTEX
  8
┌▓È_1
  5
940
 10
542.496
 20
-683.068
 30
0.000000
  70
    32
  0
VERTEX
  8
┌▓È_1
  5
941
 10
542.586
 20
-683.151
 30
0.000000
  70
    32
  0
VERTEX
  8
┌▓È_1
  5
942
 10
542.676
 20
-683.233
 30
0.000000
  70
    32
  0
VERTEX
  8
┌▓È_1
  5
943
 10
542.767
 20
-683.316
 30
0.000000
  70
    32
  0
VERTEX
  8
┌▓È_1
  5
944
 10
542.857
 20
-683.398
 30
0.000000
  70
    32
  0
VERTEX
  8
┌▓È_1
  5
945
 10
542.947
 20
-683.481
 30
0.000000
  70
    32
  0
VERTEX
  8
┌▓È_1
  5
946
 10
543.038
 20
-683.563
 30
0.000000
  70
    32
  0
VERTEX
  8
┌▓È_1
  5
947
 10
543.128
 20
-683.646
 30
0.000000
  70
    32
  0
VERTEX
  8
┌▓È_1
  5
948
 10
543.219
 20
-683.728
 30
0.000000
  70
    32
  0
VERTEX
  8
┌▓È_1
  5
949
 10
543.309
 20
-683.810
 30
0.000000
  70
    32
  0
VERTEX
  8
┌▓È_1
  5
94A
 10
543.399
 20
-683.893
 30
0.000000
  70
    32
  0
VERTEX
  8
┌▓È_1
  5
94B
 10
543.490
 20
-683.975
 30
0.000000
  70
    32
  0
VERTEX
  8
┌▓È_1
  5
94C
 10
543.580
 20
-684.057
 30
0.000000
  70
    32
  0
VERTEX
  8
┌▓È_1
  5
94D
 10
543.671
 20
-684.139
 30
0.000000
  70
    32
  0
VERTEX
  8
┌▓È_1
  5
94E
 10
543.762
 20
-684.221
 30
0.000000
  70
    32
  0
VERTEX
  8
┌▓È_1
  5
94F
 10
543.852
 20
-684.303
 30
0.000000
  70
    32
  0
VERTEX
  8
┌▓È_1
  5
950
 10
543.943
 20
-684.385
 30
0.000000
  70
    32
  0
VERTEX
  8
┌▓È_1
  5
951
 10
544.034
 20
-684.467
 30
0.000000
  70
    32
  0
VERTEX
  8
┌▓È_1
  5
952
 10
544.124
 20
-684.549
 30
0.000000
  70
    32
  0
VERTEX
  8
┌▓È_1
  5
953
 10
544.215
 20
-684.631
 30
0.000000
  70
    32
  0
VERTEX
  8
┌▓È_1
  5
954
 10
544.306
 20
-684.712
 30
0.000000
  70
    32
  0
VERTEX
  8
┌▓È_1
  5
955
 10
544.397
 20
-684.794
 30
0.000000
  70
    32
  0
VERTEX
  8
┌▓È_1
  5
956
 10
544.488
 20
-684.875
 30
0.000000
  70
    32
  0
VERTEX
  8
┌▓È_1
  5
957
 10
544.578
 20
-684.957
 30
0.000000
  70
    32
  0
VERTEX
  8
┌▓È_1
  5
958
 10
544.669
 20
-685.038
 30
0.000000
  70
    32
  0
VERTEX
  8
┌▓È_1
  5
959
 10
544.760
 20
-685.119
 30
0.000000
  70
    32
  0
VERTEX
  8
┌▓È_1
  5
95A
 10
544.851
 20
-685.201
 30
0.000000
  70
    32
  0
VERTEX
  8
┌▓È_1
  5
95B
 10
544.942
 20
-685.282
 30
0.000000
  70
    32
  0
VERTEX
  8
┌▓È_1
  5
95C
 10
545.034
 20
-685.363
 30
0.000000
  70
    32
  0
VERTEX
  8
┌▓È_1
  5
95D
 10
545.125
 20
-685.444
 30
0.000000
  70
    32
  0
VERTEX
  8
┌▓È_1
  5
95E
 10
545.216
 20
-685.525
 30
0.000000
  70
    32
  0
VERTEX
  8
┌▓È_1
  5
95F
 10
545.307
 20
-685.606
 30
0.000000
  70
    32
  0
VERTEX
  8
┌▓È_1
  5
960
 10
545.398
 20
-685.686
 30
0.000000
  70
    32
  0
VERTEX
  8
┌▓È_1
  5
961
 10
545.490
 20
-685.767
 30
0.000000
  70
    32
  0
VERTEX
  8
┌▓È_1
  5
962
 10
545.581
 20
-685.847
 30
0.000000
  70
    32
  0
VERTEX
  8
┌▓È_1
  5
963
 10
545.673
 20
-685.928
 30
0.000000
  70
    32
  0
VERTEX
  8
┌▓È_1
  5
964
 10
545.764
 20
-686.008
 30
0.000000
  70
    32
  0
VERTEX
  8
┌▓È_1
  5
965
 10
545.856
 20
-686.088
 30
0.000000
  70
    32
  0
VERTEX
  8
┌▓È_1
  5
966
 10
545.947
 20
-686.169
 30
0.000000
  70
    32
  0
VERTEX
  8
┌▓È_1
  5
967
 10
546.039
 20
-686.249
 30
0.000000
  70
    32
  0
VERTEX
  8
┌▓È_1
  5
968
 10
546.131
 20
-686.329
 30
0.000000
  70
    32
  0
VERTEX
  8
┌▓È_1
  5
969
 10
546.222
 20
-686.409
 30
0.000000
  70
    32
  0
VERTEX
  8
┌▓È_1
  5
96A
 10
546.314
 20
-686.488
 30
0.000000
  70
    32
  0
VERTEX
  8
┌▓È_1
  5
96B
 10
546.406
 20
-686.568
 30
0.000000
  70
    32
  0
VERTEX
  8
┌▓È_1
  5
96C
 10
546.498
 20
-686.647
 30
0.000000
  70
    32
  0
VERTEX
  8
┌▓È_1
  5
96D
 10
546.590
 20
-686.727
 30
0.000000
  70
    32
  0
VERTEX
  8
┌▓È_1
  5
96E
 10
546.682
 20
-686.806
 30
0.000000
  70
    32
  0
VERTEX
  8
┌▓È_1
  5
96F
 10
546.774
 20
-686.885
 30
0.000000
  70
    32
  0
VERTEX
  8
┌▓È_1
  5
970
 10
546.866
 20
-686.964
 30
0.000000
  70
    32
  0
VERTEX
  8
┌▓È_1
  5
971
 10
546.959
 20
-687.043
 30
0.000000
  70
    32
  0
VERTEX
  8
┌▓È_1
  5
972
 10
547.051
 20
-687.122
 30
0.000000
  70
    32
  0
VERTEX
  8
┌▓È_1
  5
973
 10
547.143
 20
-687.201
 30
0.000000
  70
    32
  0
VERTEX
  8
┌▓È_1
  5
974
 10
547.236
 20
-687.280
 30
0.000000
  70
    32
  0
VERTEX
  8
┌▓È_1
  5
975
 10
547.328
 20
-687.358
 30
0.000000
  70
    32
  0
VERTEX
  8
┌▓È_1
  5
976
 10
547.421
 20
-687.436
 30
0.000000
  70
    32
  0
VERTEX
  8
┌▓È_1
  5
977
 10
547.514
 20
-687.515
 30
0.000000
  70
    32
  0
VERTEX
  8
┌▓È_1
  5
978
 10
547.606
 20
-687.593
 30
0.000000
  70
    32
  0
VERTEX
  8
┌▓È_1
  5
979
 10
547.699
 20
-687.671
 30
0.000000
  70
    32
  0
VERTEX
  8
┌▓È_1
  5
97A
 10
547.792
 20
-687.748
 30
0.000000
  70
    32
  0
VERTEX
  8
┌▓È_1
  5
97B
 10
547.885
 20
-687.826
 30
0.000000
  70
    32
  0
VERTEX
  8
┌▓È_1
  5
97C
 10
547.978
 20
-687.904
 30
0.000000
  70
    32
  0
VERTEX
  8
┌▓È_1
  5
97D
 10
548.071
 20
-687.981
 30
0.000000
  70
    32
  0
VERTEX
  8
┌▓È_1
  5
97E
 10
548.164
 20
-688.058
 30
0.000000
  70
    32
  0
VERTEX
  8
┌▓È_1
  5
97F
 10
548.257
 20
-688.136
 30
0.000000
  70
    32
  0
VERTEX
  8
┌▓È_1
  5
980
 10
548.351
 20
-688.212
 30
0.000000
  70
    32
  0
VERTEX
  8
┌▓È_1
  5
981
 10
548.444
 20
-688.289
 30
0.000000
  70
    32
  0
VERTEX
  8
┌▓È_1
  5
982
 10
548.538
 20
-688.366
 30
0.000000
  70
    32
  0
VERTEX
  8
┌▓È_1
  5
983
 10
548.631
 20
-688.443
 30
0.000000
  70
    32
  0
VERTEX
  8
┌▓È_1
  5
984
 10
548.725
 20
-688.519
 30
0.000000
  70
    32
  0
VERTEX
  8
┌▓È_1
  5
985
 10
548.818
 20
-688.595
 30
0.000000
  70
    32
  0
VERTEX
  8
┌▓È_1
  5
986
 10
548.912
 20
-688.671
 30
0.000000
  70
    32
  0
VERTEX
  8
┌▓È_1
  5
987
 10
549.006
 20
-688.747
 30
0.000000
  70
    32
  0
VERTEX
  8
┌▓È_1
  5
988
 10
549.100
 20
-688.823
 30
0.000000
  70
    32
  0
VERTEX
  8
┌▓È_1
  5
989
 10
549.194
 20
-688.899
 30
0.000000
  70
    32
  0
VERTEX
  8
┌▓È_1
  5
98A
 10
549.288
 20
-688.974
 30
0.000000
  70
    32
  0
VERTEX
  8
┌▓È_1
  5
98B
 10
549.383
 20
-689.049
 30
0.000000
  70
    32
  0
VERTEX
  8
┌▓È_1
  5
98C
 10
549.477
 20
-689.125
 30
0.000000
  70
    32
  0
VERTEX
  8
┌▓È_1
  5
98D
 10
549.571
 20
-689.200
 30
0.000000
  70
    32
  0
VERTEX
  8
┌▓È_1
  5
98E
 10
549.666
 20
-689.274
 30
0.000000
  70
    32
  0
VERTEX
  8
┌▓È_1
  5
98F
 10
549.760
 20
-689.349
 30
0.000000
  70
    32
  0
VERTEX
  8
┌▓È_1
  5
990
 10
549.855
 20
-689.423
 30
0.000000
  70
    32
  0
VERTEX
  8
┌▓È_1
  5
991
 10
549.950
 20
-689.498
 30
0.000000
  70
    32
  0
VERTEX
  8
┌▓È_1
  5
992
 10
550.045
 20
-689.572
 30
0.000000
  70
    32
  0
VERTEX
  8
┌▓È_1
  5
993
 10
550.140
 20
-689.646
 30
0.000000
  70
    32
  0
VERTEX
  8
┌▓È_1
  5
994
 10
550.235
 20
-689.720
 30
0.000000
  70
    32
  0
VERTEX
  8
┌▓È_1
  5
995
 10
550.330
 20
-689.793
 30
0.000000
  70
    32
  0
VERTEX
  8
┌▓È_1
  5
996
 10
550.425
 20
-689.866
 30
0.000000
  70
    32
  0
VERTEX
  8
┌▓È_1
  5
997
 10
550.520
 20
-689.940
 30
0.000000
  70
    32
  0
VERTEX
  8
┌▓È_1
  5
998
 10
550.616
 20
-690.013
 30
0.000000
  70
    32
  0
VERTEX
  8
┌▓È_1
  5
999
 10
550.711
 20
-690.086
 30
0.000000
  70
    32
  0
VERTEX
  8
┌▓È_1
  5
99A
 10
550.807
 20
-690.158
 30
0.000000
  70
    32
  0
VERTEX
  8
┌▓È_1
  5
99B
 10
550.903
 20
-690.231
 30
0.000000
  70
    32
  0
VERTEX
  8
┌▓È_1
  5
99C
 10
550.999
 20
-690.303
 30
0.000000
  70
    32
  0
VERTEX
  8
┌▓È_1
  5
99D
 10
551.095
 20
-690.375
 30
0.000000
  70
    32
  0
VERTEX
  8
┌▓È_1
  5
99E
 10
551.191
 20
-690.447
 30
0.000000
  70
    32
  0
VERTEX
  8
┌▓È_1
  5
99F
 10
551.287
 20
-690.519
 30
0.000000
  70
    32
  0
VERTEX
  8
┌▓È_1
  5
9A0
 10
551.383
 20
-690.590
 30
0.000000
  70
    32
  0
VERTEX
  8
┌▓È_1
  5
9A1
 10
551.480
 20
-690.661
 30
0.000000
  70
    32
  0
VERTEX
  8
┌▓È_1
  5
9A2
 10
551.576
 20
-690.732
 30
0.000000
  70
    32
  0
VERTEX
  8
┌▓È_1
  5
9A3
 10
551.673
 20
-690.803
 30
0.000000
  70
    32
  0
VERTEX
  8
┌▓È_1
  5
9A4
 10
551.770
 20
-690.874
 30
0.000000
  70
    32
  0
VERTEX
  8
┌▓È_1
  5
9A5
 10
551.866
 20
-690.944
 30
0.000000
  70
    32
  0
VERTEX
  8
┌▓È_1
  5
9A6
 10
551.963
 20
-691.015
 30
0.000000
  70
    32
  0
VERTEX
  8
┌▓È_1
  5
9A7
 10
552.060
 20
-691.085
 30
0.000000
  70
    32
  0
VERTEX
  8
┌▓È_1
  5
9A8
 10
552.158
 20
-691.155
 30
0.000000
  70
    32
  0
VERTEX
  8
┌▓È_1
  5
9A9
 10
552.255
 20
-691.224
 30
0.000000
  70
    32
  0
VERTEX
  8
┌▓È_1
  5
9AA
 10
552.352
 20
-691.294
 30
0.000000
  70
    32
  0
VERTEX
  8
┌▓È_1
  5
9AB
 10
552.450
 20
-691.363
 30
0.000000
  70
    32
  0
VERTEX
  8
┌▓È_1
  5
9AC
 10
552.547
 20
-691.432
 30
0.000000
  70
    32
  0
VERTEX
  8
┌▓È_1
  5
9AD
 10
552.645
 20
-691.501
 30
0.000000
  70
    32
  0
VERTEX
  8
┌▓È_1
  5
9AE
 10
552.743
 20
-691.569
 30
0.000000
  70
    32
  0
VERTEX
  8
┌▓È_1
  5
9AF
 10
552.841
 20
-691.637
 30
0.000000
  70
    32
  0
VERTEX
  8
┌▓È_1
  5
9B0
 10
552.939
 20
-691.705
 30
0.000000
  70
    32
  0
VERTEX
  8
┌▓È_1
  5
9B1
 10
553.038
 20
-691.773
 30
0.000000
  70
    32
  0
VERTEX
  8
┌▓È_1
  5
9B2
 10
553.136
 20
-691.841
 30
0.000000
  70
    32
  0
VERTEX
  8
┌▓È_1
  5
9B3
 10
553.234
 20
-691.908
 30
0.000000
  70
    32
  0
VERTEX
  8
┌▓È_1
  5
9B4
 10
553.333
 20
-691.975
 30
0.000000
  70
    32
  0
VERTEX
  8
┌▓È_1
  5
9B5
 10
553.432
 20
-692.042
 30
0.000000
  70
    32
  0
VERTEX
  8
┌▓È_1
  5
9B6
 10
553.531
 20
-692.109
 30
0.000000
  70
    32
  0
VERTEX
  8
┌▓È_1
  5
9B7
 10
553.630
 20
-692.176
 30
0.000000
  70
    32
  0
VERTEX
  8
┌▓È_1
  5
9B8
 10
553.729
 20
-692.242
 30
0.000000
  70
    32
  0
VERTEX
  8
┌▓È_1
  5
9B9
 10
553.828
 20
-692.308
 30
0.000000
  70
    32
  0
VERTEX
  8
┌▓È_1
  5
9BA
 10
553.928
 20
-692.373
 30
0.000000
  70
    32
  0
VERTEX
  8
┌▓È_1
  5
9BB
 10
554.027
 20
-692.439
 30
0.000000
  70
    32
  0
VERTEX
  8
┌▓È_1
  5
9BC
 10
554.127
 20
-692.504
 30
0.000000
  70
    32
  0
VERTEX
  8
┌▓È_1
  5
9BD
 10
554.227
 20
-692.569
 30
0.000000
  70
    32
  0
VERTEX
  8
┌▓È_1
  5
9BE
 10
554.327
 20
-692.634
 30
0.000000
  70
    32
  0
VERTEX
  8
┌▓È_1
  5
9BF
 10
554.427
 20
-692.698
 30
0.000000
  70
    32
  0
VERTEX
  8
┌▓È_1
  5
9C0
 10
554.527
 20
-692.762
 30
0.000000
  70
    32
  0
VERTEX
  8
┌▓È_1
  5
9C1
 10
554.627
 20
-692.826
 30
0.000000
  70
    32
  0
VERTEX
  8
┌▓È_1
  5
9C2
 10
554.728
 20
-692.890
 30
0.000000
  70
    32
  0
VERTEX
  8
┌▓È_1
  5
9C3
 10
554.828
 20
-692.954
 30
0.000000
  70
    32
  0
VERTEX
  8
┌▓È_1
  5
9C4
 10
554.929
 20
-693.017
 30
0.000000
  70
    32
  0
VERTEX
  8
┌▓È_1
  5
9C5
 10
555.030
 20
-693.080
 30
0.000000
  70
    32
  0
VERTEX
  8
┌▓È_1
  5
9C6
 10
555.131
 20
-693.142
 30
0.000000
  70
    32
  0
VERTEX
  8
┌▓È_1
  5
9C7
 10
555.232
 20
-693.205
 30
0.000000
  70
    32
  0
VERTEX
  8
┌▓È_1
  5
9C8
 10
555.334
 20
-693.267
 30
0.000000
  70
    32
  0
VERTEX
  8
┌▓È_1
  5
9C9
 10
555.435
 20
-693.329
 30
0.000000
  70
    32
  0
VERTEX
  8
┌▓È_1
  5
9CA
 10
555.537
 20
-693.390
 30
0.000000
  70
    32
  0
VERTEX
  8
┌▓È_1
  5
9CB
 10
555.639
 20
-693.452
 30
0.000000
  70
    32
  0
SEQEND
  8
┌▓È_1
  5
9CC
  0
INSERT
  5
358
  8
0
  6
CONTINUOUS
  2
*U83
 10
0.0
 20
0.0
 30
0.0
  0
INSERT
  5
359
  8
0
  6
CONTINUOUS
  2
*U84
 10
0.0
 20
0.0
 30
0.0
  0
LINE
  5
35A
  8
┌▓È_1
 10
489.08730468749991
 20
-549.61484374999986
 30
0.0
 11
489.08730468749991
 21
-604.61484374999998
 31
0.0
  0
LINE
  5
35B
  8
┌▓È_1
 10
289.08730468750002
 20
-659.61484374999998
 30
0.0
 11
1039.0873046874999
 21
-659.61484374999998
 31
0.0
  0
LINE
  5
35C
  8
┌▓È_1
 62
     5
 10
596.78098067339999
 20
-676.68897891559993
 30
0.0
 11
596.78098067339999
 21
-685.68897891559993
 31
0.0
  0
LINE
  5
35D
  8
┌▓È_1
 62
     5
 10
507.39053712890001
 20
-678.18897891559993
 30
0.0
 11
497.39053712889989
 21
-678.18897891559993
 31
0.0
  0
LINE
  5
35E
  8
┌▓È_1
 62
     5
 10
527.39053712889995
 20
-678.18897891559993
 30
0.0
 11
519.89053712889995
 21
-678.18897891559993
 31
0.0
  0
LINE
  5
35F
  8
┌▓È_1
 62
     5
 10
519.89053712889995
 20
-678.18897891559993
 30
0.0
 11
519.89053712889995
 21
-675.68897891559993
 31
0.0
  0
LINE
  5
360
  8
┌▓È_1
 62
     5
 10
504.89053712889989
 20
-668.18897891559993
 30
0.0
 11
484.89053712889989
 21
-668.18897891559993
 31
0.0
  0
LINE
  5
361
  8
┌▓È_1
 62
     5
 10
497.39053712889989
 20
-675.68897891559993
 30
0.0
 11
504.89053712889989
 21
-668.18897891559993
 31
0.0
  0
LINE
  5
362
  8
┌▓È_1
 62
     5
 10
484.89053712889989
 20
-668.18897891559993
 30
0.0
 11
484.89053712889989
 21
-678.18897891559993
 31
0.0
  0
LINE
  5
363
  8
┌▓È_1
 62
     5
 10
629.76662730999988
 20
-698.68897891559993
 30
0.0
 11
641.78098067339988
 21
-698.68897891559993
 31
0.0
  0
LINE
  5
364
  8
┌▓È_1
 10
589.08730468749991
 20
-577.11484374999986
 30
0.0
 11
689.08730468750002
 21
-577.11484374999986
 31
0.0
  0
LINE
  5
365
  8
┌▓È_1
 10
689.08730468750002
 20
-604.61484374999998
 30
0.0
 11
1039.0873046874999
 21
-604.61484374999998
 31
0.0
  0
INSERT
  5
366
  8
0
  6
CONTINUOUS
  2
*U85
 10
0.0
 20
0.0
 30
0.0
  0
INSERT
  5
367
  8
0
  6
CONTINUOUS
  2
*U86
 10
0.0
 20
0.0
 30
0.0
  0
INSERT
  5
368
  8
0
  6
CONTINUOUS
  2
*U87
 10
0.0
 20
0.0
 30
0.0
  0
INSERT
  5
369
  8
0
  6
CONTINUOUS
  2
*U88
 10
0.0
 20
0.0
 30
0.0
  0
INSERT
  5
36A
  8
0
  6
CONTINUOUS
  2
*U89
 10
0.0
 20
0.0
 30
0.0
  0
INSERT
  5
36B
  8
0
  6
CONTINUOUS
  2
*U90
 10
0.0
 20
0.0
 30
0.0
  0
INSERT
  5
36C
  8
0
  6
CONTINUOUS
  2
*U91
 10
0.0
 20
0.0
 30
0.0
  0
INSERT
  5
36D
  8
0
  6
CONTINUOUS
  2
*U92
 10
0.0
 20
0.0
 30
0.0
  0
INSERT
  5
36E
  8
0
  6
CONTINUOUS
  2
*U93
 10
0.0
 20
0.0
 30
0.0
  0
LINE
  5
36F
  8
┌▓È_1
 62
     5
 10
-29.0015622218
 20
-549.86953126230003
 30
0.0
 11
-98.251562516000007
 21
-549.86953125000002
 31
0.0
  0
LINE
  5
370
  8
┌▓È_1
 62
     5
 10
-32.25156257710001
 20
-549.56953126170004
 30
0.0
 11
-98.251562516000007
 21
-549.56953124999995
 31
0.0
  0
LINE
  5
371
  8
┌▓È_1
 62
     5
 10
-164.251562455
 20
-549.56953124999995
 30
0.0
 11
-98.251562516000007
 21
-549.56953124999995
 31
0.0
  0
INSERT
  5
373
  8
┌▓È_1
 62
     5
  2
CLUMP23
 10
0.0
 20
0.0
 30
0.0
  0
LINE
  5
380
  8
┌▓È_1
 62
     5
 10
-174.25156251600001
 20
-546.56953124999995
 30
0.0
 11
-174.25156251600001
 21
-542.56953124999995
 31
0.0
  0
LINE
  5
381
  8
┌▓È_1
 62
     5
 10
-171.25156251600001
 20
-549.56953124999995
 30
0.0
 11
-25.251562516
 21
-549.56953124999995
 31
0.0
  0
ARC
  5
382
  8
┌▓È_1
 62
     5
 10
-171.25156251600001
 20
-546.56953124999995
 30
0.0
 40
3.0
 50
180.0
 51
270.0
  0
INSERT
  5
384
  8
┌▓È_1
  2
CLUMP24
 10
0.0
 20
0.0
 30
0.0
  0
INSERT
  5
3AF
  8
┌▓È_1
 62
     5
  2
CLUMP25
 10
0.0
 20
0.0
 30
0.0
  0
LINE
  5
3BC
  8
┌▓È_1
 62
     5
 10
-36.336794570400002
 20
-477.5695312499999
 30
0.0
 11
-715.08679474300004
 21
-477.5695312499999
 31
0.0
  0
LINE
  5
3BD
  8
┌▓È_1
 62
     5
 10
-715.08679474300004
 20
-542.56953124999995
 30
0.0
 11
-35.086794759
 21
-542.56953124999995
 31
0.0
  0
LINE
  5
3BE
  8
┌▓È_1
 62
     5
 10
321.35559895829999
 20
548.98281253569985
 30
0.0
 11
321.35559895829999
 21
28.982812535699999
 31
0.0
  0
LINE
  5
3BF
  8
┌▓È_1
 62
     5
 10
386.35559895829999
 20
28.982812535699999
 30
0.0
 11
386.35559895829999
 21
548.98281253569985
 31
0.0
  0
LINE
  5
3C0
  8
┌▓È_1
 62
     5
 10
755.35808335520005
 20
28.982812535699999
 30
0.0
 11
755.35808335520005
 21
548.98281253569985
 31
0.0
  0
LINE
  5
3C1
  8
┌▓È_1
 62
     5
 10
690.35808335520005
 20
548.98281253569985
 30
0.0
 11
690.35808335520005
 21
28.982812535699999
 31
0.0
  0
INSERT
  5
3C3
  8
┌▓È_1
 62
     5
  2
CLUMP26
 10
0.0
 20
0.0
 30
0.0
  0
INSERT
  5
3D1
  8
┌▓È_1
 62
     5
  2
CLUMP27
 10
0.0
 20
0.0
 30
0.0
  0
INSERT
  5
3DF
  8
┌▓È_1
 62
     5
  2
CLUMP28
 10
0.0
 20
0.0
 30
0.0
  0
INSERT
  5
3ED
  8
┌▓È_1
 62
     5
  2
CLUMP29
 10
0.0
 20
0.0
 30
0.0
  0
DIMENSION
  5
408
  8
Éíû@É³
  2
*D45
 10
-419.11210937499987
 20
-31.017187499999999
 30
0.0
 11
-419.11210937499987
 21
-52.577734374999999
 31
0.0
 70
   128
  1
<>
 13
-469.11210937499987
 23
-31.017187499999999
 33
0.0
 14
-469.11210937499987
 24
-6.0171875000000004
 34
0.0
 50
90.0
  0
DIMENSION
  5
417
  8
Éíû@É³
  2
*D46
 10
-419.11210937499987
 20
583.98281250000002
 30
0.0
 11
-419.11210937499987
 21
635.60351562499989
 31
0.0
 70
   128
  1
<>
 13
-469.11210937499987
 23
583.98281250000002
 33
0.0
 14
-469.11210937499987
 24
608.98281250000002
 34
0.0
 50
90.0
  0
DIMENSION
  5
426
  8
Éíû@É³
  2
*D47
 10
-0.2515625
 20
364.64335937499999
 30
0.0
 11
45.33710937499999
 21
364.64335937499999
 31
0.0
 70
   128
  1
<>
 13
-0.2515625
 23
414.64335937499999
 33
0.0
 14
24.748437500000001
 24
414.64335937499999
 34
0.0
 50
180.0
  0
DIMENSION
  5
435
  8
Éíû@É³
  2
*D48
 10
-775.25156249999998
 20
364.64335937499999
 30
0.0
 11
-799.708984375
 21
364.64335937499999
 31
0.0
 70
   128
  1
<>
 13
-775.25156249999998
 23
414.64335937499999
 33
0.0
 14
-750.25156249999998
 24
414.64335937499999
 34
0.0
 50
180.0
  0
POLYLINE
  8
┌▓È_1
  5
9CD
  62
5
  66
     1
 10
0.000000
 20
0.000000
 30
0.000000
  70
     8
  0
VERTEX
  8
┌▓È_1
  5
9CE
 10
574.117
 20
-693.307
 30
0.000000
  70
    32
  0
VERTEX
  8
┌▓È_1
  5
9CF
 10
574.204
 20
-693.331
 30
0.000000
  70
    32
  0
VERTEX
  8
┌▓È_1
  5
9D0
 10
574.292
 20
-693.356
 30
0.000000
  70
    32
  0
VERTEX
  8
┌▓È_1
  5
9D1
 10
574.379
 20
-693.380
 30
0.000000
  70
    32
  0
VERTEX
  8
┌▓È_1
  5
9D2
 10
574.467
 20
-693.405
 30
0.000000
  70
    32
  0
VERTEX
  8
┌▓È_1
  5
9D3
 10
574.555
 20
-693.429
 30
0.000000
  70
    32
  0
VERTEX
  8
┌▓È_1
  5
9D4
 10
574.642
 20
-693.453
 30
0.000000
  70
    32
  0
VERTEX
  8
┌▓È_1
  5
9D5
 10
574.730
 20
-693.477
 30
0.000000
  70
    32
  0
VERTEX
  8
┌▓È_1
  5
9D6
 10
574.818
 20
-693.501
 30
0.000000
  70
    32
  0
VERTEX
  8
┌▓È_1
  5
9D7
 10
574.907
 20
-693.524
 30
0.000000
  70
    32
  0
VERTEX
  8
┌▓È_1
  5
9D8
 10
574.995
 20
-693.548
 30
0.000000
  70
    32
  0
VERTEX
  8
┌▓È_1
  5
9D9
 10
575.083
 20
-693.571
 30
0.000000
  70
    32
  0
VERTEX
  8
┌▓È_1
  5
9DA
 10
575.171
 20
-693.595
 30
0.000000
  70
    32
  0
VERTEX
  8
┌▓È_1
  5
9DB
 10
575.260
 20
-693.618
 30
0.000000
  70
    32
  0
VERTEX
  8
┌▓È_1
  5
9DC
 10
575.348
 20
-693.641
 30
0.000000
  70
    32
  0
VERTEX
  8
┌▓È_1
  5
9DD
 10
575.437
 20
-693.664
 30
0.000000
  70
    32
  0
VERTEX
  8
┌▓È_1
  5
9DE
 10
575.526
 20
-693.686
 30
0.000000
  70
    32
  0
VERTEX
  8
┌▓È_1
  5
9DF
 10
575.614
 20
-693.709
 30
0.000000
  70
    32
  0
VERTEX
  8
┌▓È_1
  5
9E0
 10
575.703
 20
-693.732
 30
0.000000
  70
    32
  0
VERTEX
  8
┌▓È_1
  5
9E1
 10
575.792
 20
-693.754
 30
0.000000
  70
    32
  0
VERTEX
  8
┌▓È_1
  5
9E2
 10
575.881
 20
-693.776
 30
0.000000
  70
    32
  0
VERTEX
  8
┌▓È_1
  5
9E3
 10
575.970
 20
-693.798
 30
0.000000
  70
    32
  0
VERTEX
  8
┌▓È_1
  5
9E4
 10
576.059
 20
-693.820
 30
0.000000
  70
    32
  0
VERTEX
  8
┌▓È_1
  5
9E5
 10
576.148
 20
-693.842
 30
0.000000
  70
    32
  0
VERTEX
  8
┌▓È_1
  5
9E6
 10
576.238
 20
-693.864
 30
0.000000
  70
    32
  0
VERTEX
  8
┌▓È_1
  5
9E7
 10
576.327
 20
-693.886
 30
0.000000
  70
    32
  0
VERTEX
  8
┌▓È_1
  5
9E8
 10
576.417
 20
-693.907
 30
0.000000
  70
    32
  0
VERTEX
  8
┌▓È_1
  5
9E9
 10
576.506
 20
-693.929
 30
0.000000
  70
    32
  0
VERTEX
  8
┌▓È_1
  5
9EA
 10
576.596
 20
-693.950
 30
0.000000
  70
    32
  0
VERTEX
  8
┌▓È_1
  5
9EB
 10
576.685
 20
-693.971
 30
0.000000
  70
    32
  0
VERTEX
  8
┌▓È_1
  5
9EC
 10
576.775
 20
-693.992
 30
0.000000
  70
    32
  0
VERTEX
  8
┌▓È_1
  5
9ED
 10
576.865
 20
-694.013
 30
0.000000
  70
    32
  0
VERTEX
  8
┌▓È_1
  5
9EE
 10
576.955
 20
-694.034
 30
0.000000
  70
    32
  0
VERTEX
  8
┌▓È_1
  5
9EF
 10
577.044
 20
-694.055
 30
0.000000
  70
    32
  0
VERTEX
  8
┌▓È_1
  5
9F0
 10
577.134
 20
-694.076
 30
0.000000
  70
    32
  0
VERTEX
  8
┌▓È_1
  5
9F1
 10
577.224
 20
-694.096
 30
0.000000
  70
    32
  0
VERTEX
  8
┌▓È_1
  5
9F2
 10
577.315
 20
-694.117
 30
0.000000
  70
    32
  0
VERTEX
  8
┌▓È_1
  5
9F3
 10
577.405
 20
-694.137
 30
0.000000
  70
    32
  0
VERTEX
  8
┌▓È_1
  5
9F4
 10
577.495
 20
-694.157
 30
0.000000
  70
    32
  0
VERTEX
  8
┌▓È_1
  5
9F5
 10
577.585
 20
-694.177
 30
0.000000
  70
    32
  0
VERTEX
  8
┌▓È_1
  5
9F6
 10
577.676
 20
-694.197
 30
0.000000
  70
    32
  0
VERTEX
  8
┌▓È_1
  5
9F7
 10
577.766
 20
-694.217
 30
0.000000
  70
    32
  0
VERTEX
  8
┌▓È_1
  5
9F8
 10
577.856
 20
-694.237
 30
0.000000
  70
    32
  0
VERTEX
  8
┌▓È_1
  5
9F9
 10
577.947
 20
-694.257
 30
0.000000
  70
    32
  0
VERTEX
  8
┌▓È_1
  5
9FA
 10
578.038
 20
-694.277
 30
0.000000
  70
    32
  0
VERTEX
  8
┌▓È_1
  5
9FB
 10
578.128
 20
-694.296
 30
0.000000
  70
    32
  0
VERTEX
  8
┌▓È_1
  5
9FC
 10
578.219
 20
-694.316
 30
0.000000
  70
    32
  0
VERTEX
  8
┌▓È_1
  5
9FD
 10
578.310
 20
-694.335
 30
0.000000
  70
    32
  0
VERTEX
  8
┌▓È_1
  5
9FE
 10
578.401
 20
-694.354
 30
0.000000
  70
    32
  0
VERTEX
  8
┌▓È_1
  5
9FF
 10
578.491
 20
-694.374
 30
0.000000
  70
    32
  0
VERTEX
  8
┌▓È_1
  5
A00
 10
578.582
 20
-694.393
 30
0.000000
  70
    32
  0
VERTEX
  8
┌▓È_1
  5
A01
 10
578.673
 20
-694.412
 30
0.000000
  70
    32
  0
VERTEX
  8
┌▓È_1
  5
A02
 10
578.764
 20
-694.431
 30
0.000000
  70
    32
  0
VERTEX
  8
┌▓È_1
  5
A03
 10
578.856
 20
-694.450
 30
0.000000
  70
    32
  0
VERTEX
  8
┌▓È_1
  5
A04
 10
578.947
 20
-694.468
 30
0.000000
  70
    32
  0
VERTEX
  8
┌▓È_1
  5
A05
 10
579.038
 20
-694.487
 30
0.000000
  70
    32
  0
VERTEX
  8
┌▓È_1
  5
A06
 10
579.129
 20
-694.506
 30
0.000000
  70
    32
  0
VERTEX
  8
┌▓È_1
  5
A07
 10
579.220
 20
-694.524
 30
0.000000
  70
    32
  0
VERTEX
  8
┌▓È_1
  5
A08
 10
579.312
 20
-694.543
 30
0.000000
  70
    32
  0
VERTEX
  8
┌▓È_1
  5
A09
 10
579.403
 20
-694.561
 30
0.000000
  70
    32
  0
VERTEX
  8
┌▓È_1
  5
A0A
 10
579.495
 20
-694.579
 30
0.000000
  70
    32
  0
VERTEX
  8
┌▓È_1
  5
A0B
 10
579.586
 20
-694.598
 30
0.000000
  70
    32
  0
VERTEX
  8
┌▓È_1
  5
A0C
 10
579.678
 20
-694.616
 30
0.000000
  70
    32
  0
VERTEX
  8
┌▓È_1
  5
A0D
 10
579.769
 20
-694.634
 30
0.000000
  70
    32
  0
VERTEX
  8
┌▓È_1
  5
A0E
 10
579.861
 20
-694.652
 30
0.000000
  70
    32
  0
VERTEX
  8
┌▓È_1
  5
A0F
 10
579.953
 20
-694.670
 30
0.000000
  70
    32
  0
VERTEX
  8
┌▓È_1
  5
A10
 10
580.044
 20
-694.688
 30
0.000000
  70
    32
  0
VERTEX
  8
┌▓È_1
  5
A11
 10
580.136
 20
-694.705
 30
0.000000
  70
    32
  0
VERTEX
  8
┌▓È_1
  5
A12
 10
580.228
 20
-694.723
 30
0.000000
  70
    32
  0
VERTEX
  8
┌▓È_1
  5
A13
 10
580.320
 20
-694.741
 30
0.000000
  70
    32
  0
VERTEX
  8
┌▓È_1
  5
A14
 10
580.412
 20
-694.758
 30
0.000000
  70
    32
  0
VERTEX
  8
┌▓È_1
  5
A15
 10
580.503
 20
-694.776
 30
0.000000
  70
    32
  0
VERTEX
  8
┌▓È_1
  5
A16
 10
580.595
 20
-694.793
 30
0.000000
  70
    32
  0
VERTEX
  8
┌▓È_1
  5
A17
 10
580.687
 20
-694.811
 30
0.000000
  70
    32
  0
VERTEX
  8
┌▓È_1
  5
A18
 10
580.779
 20
-694.828
 30
0.000000
  70
    32
  0
VERTEX
  8
┌▓È_1
  5
A19
 10
580.872
 20
-694.845
 30
0.000000
  70
    32
  0
VERTEX
  8
┌▓È_1
  5
A1A
 10
580.964
 20
-694.862
 30
0.000000
  70
    32
  0
VERTEX
  8
┌▓È_1
  5
A1B
 10
581.056
 20
-694.880
 30
0.000000
  70
    32
  0
VERTEX
  8
┌▓È_1
  5
A1C
 10
581.148
 20
-694.897
 30
0.000000
  70
    32
  0
VERTEX
  8
┌▓È_1
  5
A1D
 10
581.240
 20
-694.914
 30
0.000000
  70
    32
  0
VERTEX
  8
┌▓È_1
  5
A1E
 10
581.332
 20
-694.931
 30
0.000000
  70
    32
  0
VERTEX
  8
┌▓È_1
  5
A1F
 10
581.425
 20
-694.948
 30
0.000000
  70
    32
  0
VERTEX
  8
┌▓È_1
  5
A20
 10
581.517
 20
-694.965
 30
0.000000
  70
    32
  0
VERTEX
  8
┌▓È_1
  5
A21
 10
581.609
 20
-694.981
 30
0.000000
  70
    32
  0
VERTEX
  8
┌▓È_1
  5
A22
 10
581.702
 20
-694.998
 30
0.000000
  70
    32
  0
VERTEX
  8
┌▓È_1
  5
A23
 10
581.794
 20
-695.015
 30
0.000000
  70
    32
  0
VERTEX
  8
┌▓È_1
  5
A24
 10
581.887
 20
-695.032
 30
0.000000
  70
    32
  0
VERTEX
  8
┌▓È_1
  5
A25
 10
581.979
 20
-695.048
 30
0.000000
  70
    32
  0
VERTEX
  8
┌▓È_1
  5
A26
 10
582.072
 20
-695.065
 30
0.000000
  70
    32
  0
VERTEX
  8
┌▓È_1
  5
A27
 10
582.164
 20
-695.081
 30
0.000000
  70
    32
  0
VERTEX
  8
┌▓È_1
  5
A28
 10
582.257
 20
-695.098
 30
0.000000
  70
    32
  0
VERTEX
  8
┌▓È_1
  5
A29
 10
582.349
 20
-695.114
 30
0.000000
  70
    32
  0
VERTEX
  8
┌▓È_1
  5
A2A
 10
582.442
 20
-695.131
 30
0.000000
  70
    32
  0
VERTEX
  8
┌▓È_1
  5
A2B
 10
582.535
 20
-695.147
 30
0.000000
  70
    32
  0
VERTEX
  8
┌▓È_1
  5
A2C
 10
582.627
 20
-695.164
 30
0.000000
  70
    32
  0
VERTEX
  8
┌▓È_1
  5
A2D
 10
582.720
 20
-695.180
 30
0.000000
  70
    32
  0
VERTEX
  8
┌▓È_1
  5
A2E
 10
582.813
 20
-695.196
 30
0.000000
  70
    32
  0
VERTEX
  8
┌▓È_1
  5
A2F
 10
582.905
 20
-695.212
 30
0.000000
  70
    32
  0
VERTEX
  8
┌▓È_1
  5
A30
 10
582.998
 20
-695.229
 30
0.000000
  70
    32
  0
VERTEX
  8
┌▓È_1
  5
A31
 10
583.091
 20
-695.245
 30
0.000000
  70
    32
  0
VERTEX
  8
┌▓È_1
  5
A32
 10
583.184
 20
-695.261
 30
0.000000
  70
    32
  0
VERTEX
  8
┌▓È_1
  5
A33
 10
583.276
 20
-695.277
 30
0.000000
  70
    32
  0
VERTEX
  8
┌▓È_1
  5
A34
 10
583.369
 20
-695.293
 30
0.000000
  70
    32
  0
VERTEX
  8
┌▓È_1
  5
A35
 10
583.462
 20
-695.309
 30
0.000000
  70
    32
  0
VERTEX
  8
┌▓È_1
  5
A36
 10
583.555
 20
-695.325
 30
0.000000
  70
    32
  0
VERTEX
  8
┌▓È_1
  5
A37
 10
583.648
 20
-695.341
 30
0.000000
  70
    32
  0
VERTEX
  8
┌▓È_1
  5
A38
 10
583.741
 20
-695.357
 30
0.000000
  70
    32
  0
VERTEX
  8
┌▓È_1
  5
A39
 10
583.834
 20
-695.373
 30
0.000000
  70
    32
  0
VERTEX
  8
┌▓È_1
  5
A3A
 10
583.926
 20
-695.389
 30
0.000000
  70
    32
  0
VERTEX
  8
┌▓È_1
  5
A3B
 10
584.019
 20
-695.405
 30
0.000000
  70
    32
  0
VERTEX
  8
┌▓È_1
  5
A3C
 10
584.112
 20
-695.421
 30
0.000000
  70
    32
  0
VERTEX
  8
┌▓È_1
  5
A3D
 10
584.205
 20
-695.437
 30
0.000000
  70
    32
  0
VERTEX
  8
┌▓È_1
  5
A3E
 10
584.298
 20
-695.453
 30
0.000000
  70
    32
  0
VERTEX
  8
┌▓È_1
  5
A3F
 10
584.391
 20
-695.468
 30
0.000000
  70
    32
  0
VERTEX
  8
┌▓È_1
  5
A40
 10
584.484
 20
-695.484
 30
0.000000
  70
    32
  0
VERTEX
  8
┌▓È_1
  5
A41
 10
584.577
 20
-695.500
 30
0.000000
  70
    32
  0
VERTEX
  8
┌▓È_1
  5
A42
 10
584.670
 20
-695.516
 30
0.000000
  70
    32
  0
VERTEX
  8
┌▓È_1
  5
A43
 10
584.763
 20
-695.532
 30
0.000000
  70
    32
  0
VERTEX
  8
┌▓È_1
  5
A44
 10
584.856
 20
-695.547
 30
0.000000
  70
    32
  0
VERTEX
  8
┌▓È_1
  5
A45
 10
584.949
 20
-695.563
 30
0.000000
  70
    32
  0
VERTEX
  8
┌▓È_1
  5
A46
 10
585.042
 20
-695.579
 30
0.000000
  70
    32
  0
VERTEX
  8
┌▓È_1
  5
A47
 10
585.135
 20
-695.595
 30
0.000000
  70
    32
  0
VERTEX
  8
┌▓È_1
  5
A48
 10
585.228
 20
-695.610
 30
0.000000
  70
    32
  0
VERTEX
  8
┌▓È_1
  5
A49
 10
585.321
 20
-695.626
 30
0.000000
  70
    32
  0
VERTEX
  8
┌▓È_1
  5
A4A
 10
585.414
 20
-695.642
 30
0.000000
  70
    32
  0
VERTEX
  8
┌▓È_1
  5
A4B
 10
585.507
 20
-695.658
 30
0.000000
  70
    32
  0
VERTEX
  8
┌▓È_1
  5
A4C
 10
585.601
 20
-695.673
 30
0.000000
  70
    32
  0
VERTEX
  8
┌▓È_1
  5
A4D
 10
585.694
 20
-695.689
 30
0.000000
  70
    32
  0
SEQEND
  8
┌▓È_1
  5
A4E
  0
POLYLINE
  8
┌▓È_1
  5
A4F
  62
5
  66
     1
 10
0.000000
 20
0.000000
 30
0.000000
  70
     8
  0
VERTEX
  8
┌▓È_1
  5
A50
 10
557.865
 20
-682.628
 30
0.000000
  70
    32
  0
VERTEX
  8
┌▓È_1
  5
A51
 10
557.898
 20
-682.665
 30
0.000000
  70
    32
  0
VERTEX
  8
┌▓È_1
  5
A52
 10
557.931
 20
-682.702
 30
0.000000
  70
    32
  0
VERTEX
  8
┌▓È_1
  5
A53
 10
557.964
 20
-682.738
 30
0.000000
  70
    32
  0
VERTEX
  8
┌▓È_1
  5
A54
 10
557.997
 20
-682.775
 30
0.000000
  70
    32
  0
VERTEX
  8
┌▓È_1
  5
A55
 10
558.030
 20
-682.812
 30
0.000000
  70
    32
  0
VERTEX
  8
┌▓È_1
  5
A56
 10
558.063
 20
-682.849
 30
0.000000
  70
    32
  0
VERTEX
  8
┌▓È_1
  5
A57
 10
558.096
 20
-682.885
 30
0.000000
  70
    32
  0
VERTEX
  8
┌▓È_1
  5
A58
 10
558.129
 20
-682.922
 30
0.000000
  70
    32
  0
VERTEX
  8
┌▓È_1
  5
A59
 10
558.162
 20
-682.959
 30
0.000000
  70
    32
  0
VERTEX
  8
┌▓È_1
  5
A5A
 10
558.195
 20
-682.996
 30
0.000000
  70
    32
  0
VERTEX
  8
┌▓È_1
  5
A5B
 10
558.228
 20
-683.033
 30
0.000000
  70
    32
  0
VERTEX
  8
┌▓È_1
  5
A5C
 10
558.261
 20
-683.069
 30
0.000000
  70
    32
  0
VERTEX
  8
┌▓È_1
  5
A5D
 10
558.294
 20
-683.106
 30
0.000000
  70
    32
  0
VERTEX
  8
┌▓È_1
  5
A5E
 10
558.327
 20
-683.143
 30
0.000000
  70
    32
  0
VERTEX
  8
┌▓È_1
  5
A5F
 10
558.360
 20
-683.180
 30
0.000000
  70
    32
  0
VERTEX
  8
┌▓È_1
  5
A60
 10
558.393
 20
-683.216
 30
0.000000
  70
    32
  0
VERTEX
  8
┌▓È_1
  5
A61
 10
558.426
 20
-683.253
 30
0.000000
  70
    32
  0
VERTEX
  8
┌▓È_1
  5
A62
 10
558.459
 20
-683.290
 30
0.000000
  70
    32
  0
VERTEX
  8
┌▓È_1
  5
A63
 10
558.492
 20
-683.326
 30
0.000000
  70
    32
  0
VERTEX
  8
┌▓È_1
  5
A64
 10
558.526
 20
-683.363
 30
0.000000
  70
    32
  0
VERTEX
  8
┌▓È_1
  5
A65
 10
558.559
 20
-683.400
 30
0.000000
  70
    32
  0
VERTEX
  8
┌▓È_1
  5
A66
 10
558.592
 20
-683.436
 30
0.000000
  70
    32
  0
VERTEX
  8
┌▓È_1
  5
A67
 10
558.625
 20
-683.473
 30
0.000000
  70
    32
  0
VERTEX
  8
┌▓È_1
  5
A68
 10
558.658
 20
-683.510
 30
0.000000
  70
    32
  0
VERTEX
  8
┌▓È_1
  5
A69
 10
558.691
 20
-683.546
 30
0.000000
  70
    32
  0
VERTEX
  8
┌▓È_1
  5
A6A
 10
558.724
 20
-683.583
 30
0.000000
  70
    32
  0
VERTEX
  8
┌▓È_1
  5
A6B
 10
558.757
 20
-683.620
 30
0.000000
  70
    32
  0
VERTEX
  8
┌▓È_1
  5
A6C
 10
558.790
 20
-683.656
 30
0.000000
  70
    32
  0
VERTEX
  8
┌▓È_1
  5
A6D
 10
558.823
 20
-683.693
 30
0.000000
  70
    32
  0
VERTEX
  8
┌▓È_1
  5
A6E
 10
558.857
 20
-683.729
 30
0.000000
  70
    32
  0
VERTEX
  8
┌▓È_1
  5
A6F
 10
558.890
 20
-683.766
 30
0.000000
  70
    32
  0
VERTEX
  8
┌▓È_1
  5
A70
 10
558.923
 20
-683.802
 30
0.000000
  70
    32
  0
VERTEX
  8
┌▓È_1
  5
A71
 10
558.956
 20
-683.839
 30
0.000000
  70
    32
  0
VERTEX
  8
┌▓È_1
  5
A72
 10
558.989
 20
-683.875
 30
0.000000
  70
    32
  0
VERTEX
  8
┌▓È_1
  5
A73
 10
559.022
 20
-683.912
 30
0.000000
  70
    32
  0
VERTEX
  8
┌▓È_1
  5
A74
 10
559.056
 20
-683.948
 30
0.000000
  70
    32
  0
VERTEX
  8
┌▓È_1
  5
A75
 10
559.089
 20
-683.985
 30
0.000000
  70
    32
  0
VERTEX
  8
┌▓È_1
  5
A76
 10
559.122
 20
-684.021
 30
0.000000
  70
    32
  0
VERTEX
  8
┌▓È_1
  5
A77
 10
559.155
 20
-684.057
 30
0.000000
  70
    32
  0
VERTEX
  8
┌▓È_1
  5
A78
 10
559.189
 20
-684.094
 30
0.000000
  70
    32
  0
VERTEX
  8
┌▓È_1
  5
A79
 10
559.222
 20
-684.130
 30
0.000000
  70
    32
  0
VERTEX
  8
┌▓È_1
  5
A7A
 10
559.255
 20
-684.166
 30
0.000000
  70
    32
  0
VERTEX
  8
┌▓È_1
  5
A7B
 10
559.289
 20
-684.203
 30
0.000000
  70
    32
  0
VERTEX
  8
┌▓È_1
  5
A7C
 10
559.322
 20
-684.239
 30
0.000000
  70
    32
  0
VERTEX
  8
┌▓È_1
  5
A7D
 10
559.355
 20
-684.275
 30
0.000000
  70
    32
  0
VERTEX
  8
┌▓È_1
  5
A7E
 10
559.389
 20
-684.311
 30
0.000000
  70
    32
  0
VERTEX
  8
┌▓È_1
  5
A7F
 10
559.422
 20
-684.348
 30
0.000000
  70
    32
  0
VERTEX
  8
┌▓È_1
  5
A80
 10
559.455
 20
-684.384
 30
0.000000
  70
    32
  0
VERTEX
  8
┌▓È_1
  5
A81
 10
559.489
 20
-684.420
 30
0.000000
  70
    32
  0
VERTEX
  8
┌▓È_1
  5
A82
 10
559.522
 20
-684.456
 30
0.000000
  70
    32
  0
VERTEX
  8
┌▓È_1
  5
A83
 10
559.556
 20
-684.492
 30
0.000000
  70
    32
  0
VERTEX
  8
┌▓È_1
  5
A84
 10
559.589
 20
-684.528
 30
0.000000
  70
    32
  0
VERTEX
  8
┌▓È_1
  5
A85
 10
559.622
 20
-684.564
 30
0.000000
  70
    32
  0
VERTEX
  8
┌▓È_1
  5
A86
 10
559.656
 20
-684.600
 30
0.000000
  70
    32
  0
VERTEX
  8
┌▓È_1
  5
A87
 10
559.689
 20
-684.636
 30
0.000000
  70
    32
  0
VERTEX
  8
┌▓È_1
  5
A88
 10
559.723
 20
-684.672
 30
0.000000
  70
    32
  0
VERTEX
  8
┌▓È_1
  5
A89
 10
559.756
 20
-684.708
 30
0.000000
  70
    32
  0
VERTEX
  8
┌▓È_1
  5
A8A
 10
559.790
 20
-684.744
 30
0.000000
  70
    32
  0
VERTEX
  8
┌▓È_1
  5
A8B
 10
559.824
 20
-684.780
 30
0.000000
  70
    32
  0
VERTEX
  8
┌▓È_1
  5
A8C
 10
559.857
 20
-684.816
 30
0.000000
  70
    32
  0
VERTEX
  8
┌▓È_1
  5
A8D
 10
559.891
 20
-684.851
 30
0.000000
  70
    32
  0
VERTEX
  8
┌▓È_1
  5
A8E
 10
559.924
 20
-684.887
 30
0.000000
  70
    32
  0
VERTEX
  8
┌▓È_1
  5
A8F
 10
559.958
 20
-684.923
 30
0.000000
  70
    32
  0
VERTEX
  8
┌▓È_1
  5
A90
 10
559.992
 20
-684.959
 30
0.000000
  70
    32
  0
VERTEX
  8
┌▓È_1
  5
A91
 10
560.026
 20
-684.994
 30
0.000000
  70
    32
  0
VERTEX
  8
┌▓È_1
  5
A92
 10
560.059
 20
-685.030
 30
0.000000
  70
    32
  0
VERTEX
  8
┌▓È_1
  5
A93
 10
560.093
 20
-685.065
 30
0.000000
  70
    32
  0
VERTEX
  8
┌▓È_1
  5
A94
 10
560.127
 20
-685.101
 30
0.000000
  70
    32
  0
VERTEX
  8
┌▓È_1
  5
A95
 10
560.161
 20
-685.137
 30
0.000000
  70
    32
  0
VERTEX
  8
┌▓È_1
  5
A96
 10
560.194
 20
-685.172
 30
0.000000
  70
    32
  0
VERTEX
  8
┌▓È_1
  5
A97
 10
560.228
 20
-685.207
 30
0.000000
  70
    32
  0
VERTEX
  8
┌▓È_1
  5
A98
 10
560.262
 20
-685.243
 30
0.000000
  70
    32
  0
VERTEX
  8
┌▓È_1
  5
A99
 10
560.296
 20
-685.278
 30
0.000000
  70
    32
  0
VERTEX
  8
┌▓È_1
  5
A9A
 10
560.330
 20
-685.313
 30
0.000000
  70
    32
  0
VERTEX
  8
┌▓È_1
  5
A9B
 10
560.364
 20
-685.349
 30
0.000000
  70
    32
  0
VERTEX
  8
┌▓È_1
  5
A9C
 10
560.398
 20
-685.384
 30
0.000000
  70
    32
  0
VERTEX
  8
┌▓È_1
  5
A9D
 10
560.432
 20
-685.419
 30
0.000000
  70
    32
  0
VERTEX
  8
┌▓È_1
  5
A9E
 10
560.466
 20
-685.454
 30
0.000000
  70
    32
  0
VERTEX
  8
┌▓È_1
  5
A9F
 10
560.500
 20
-685.489
 30
0.000000
  70
    32
  0
VERTEX
  8
┌▓È_1
  5
AA0
 10
560.534
 20
-685.524
 30
0.000000
  70
    32
  0
VERTEX
  8
┌▓È_1
  5
AA1
 10
560.568
 20
-685.559
 30
0.000000
  70
    32
  0
VERTEX
  8
┌▓È_1
  5
AA2
 10
560.602
 20
-685.594
 30
0.000000
  70
    32
  0
VERTEX
  8
┌▓È_1
  5
AA3
 10
560.636
 20
-685.629
 30
0.000000
  70
    32
  0
VERTEX
  8
┌▓È_1
  5
AA4
 10
560.671
 20
-685.664
 30
0.000000
  70
    32
  0
VERTEX
  8
┌▓È_1
  5
AA5
 10
560.705
 20
-685.699
 30
0.000000
  70
    32
  0
VERTEX
  8
┌▓È_1
  5
AA6
 10
560.739
 20
-685.734
 30
0.000000
  70
    32
  0
VERTEX
  8
┌▓È_1
  5
AA7
 10
560.773
 20
-685.769
 30
0.000000
  70
    32
  0
VERTEX
  8
┌▓È_1
  5
AA8
 10
560.808
 20
-685.803
 30
0.000000
  70
    32
  0
VERTEX
  8
┌▓È_1
  5
AA9
 10
560.842
 20
-685.838
 30
0.000000
  70
    32
  0
VERTEX
  8
┌▓È_1
  5
AAA
 10
560.876
 20
-685.872
 30
0.000000
  70
    32
  0
VERTEX
  8
┌▓È_1
  5
AAB
 10
560.911
 20
-685.907
 30
0.000000
  70
    32
  0
VERTEX
  8
┌▓È_1
  5
AAC
 10
560.945
 20
-685.942
 30
0.000000
  70
    32
  0
VERTEX
  8
┌▓È_1
  5
AAD
 10
560.980
 20
-685.976
 30
0.000000
  70
    32
  0
VERTEX
  8
┌▓È_1
  5
AAE
 10
561.014
 20
-686.010
 30
0.000000
  70
    32
  0
VERTEX
  8
┌▓È_1
  5
AAF
 10
561.049
 20
-686.045
 30
0.000000
  70
    32
  0
VERTEX
  8
┌▓È_1
  5
AB0
 10
561.083
 20
-686.079
 30
0.000000
  70
    32
  0
VERTEX
  8
┌▓È_1
  5
AB1
 10
561.118
 20
-686.113
 30
0.000000
  70
    32
  0
VERTEX
  8
┌▓È_1
  5
AB2
 10
561.152
 20
-686.147
 30
0.000000
  70
    32
  0
VERTEX
  8
┌▓È_1
  5
AB3
 10
561.187
 20
-686.182
 30
0.000000
  70
    32
  0
VERTEX
  8
┌▓È_1
  5
AB4
 10
561.222
 20
-686.216
 30
0.000000
  70
    32
  0
VERTEX
  8
┌▓È_1
  5
AB5
 10
561.256
 20
-686.250
 30
0.000000
  70
    32
  0
VERTEX
  8
┌▓È_1
  5
AB6
 10
561.291
 20
-686.284
 30
0.000000
  70
    32
  0
VERTEX
  8
┌▓È_1
  5
AB7
 10
561.326
 20
-686.317
 30
0.000000
  70
    32
  0
VERTEX
  8
┌▓È_1
  5
AB8
 10
561.361
 20
-686.351
 30
0.000000
  70
    32
  0
VERTEX
  8
┌▓È_1
  5
AB9
 10
561.396
 20
-686.385
 30
0.000000
  70
    32
  0
VERTEX
  8
┌▓È_1
  5
ABA
 10
561.430
 20
-686.419
 30
0.000000
  70
    32
  0
VERTEX
  8
┌▓È_1
  5
ABB
 10
561.465
 20
-686.453
 30
0.000000
  70
    32
  0
VERTEX
  8
┌▓È_1
  5
ABC
 10
561.500
 20
-686.486
 30
0.000000
  70
    32
  0
VERTEX
  8
┌▓È_1
  5
ABD
 10
561.535
 20
-686.520
 30
0.000000
  70
    32
  0
VERTEX
  8
┌▓È_1
  5
ABE
 10
561.570
 20
-686.553
 30
0.000000
  70
    32
  0
VERTEX
  8
┌▓È_1
  5
ABF
 10
561.606
 20
-686.587
 30
0.000000
  70
    32
  0
VERTEX
  8
┌▓È_1
  5
AC0
 10
561.641
 20
-686.620
 30
0.000000
  70
    32
  0
VERTEX
  8
┌▓È_1
  5
AC1
 10
561.676
 20
-686.653
 30
0.000000
  70
    32
  0
VERTEX
  8
┌▓È_1
  5
AC2
 10
561.711
 20
-686.687
 30
0.000000
  70
    32
  0
VERTEX
  8
┌▓È_1
  5
AC3
 10
561.746
 20
-686.720
 30
0.000000
  70
    32
  0
VERTEX
  8
┌▓È_1
  5
AC4
 10
561.781
 20
-686.753
 30
0.000000
  70
    32
  0
VERTEX
  8
┌▓È_1
  5
AC5
 10
561.817
 20
-686.786
 30
0.000000
  70
    32
  0
VERTEX
  8
┌▓È_1
  5
AC6
 10
561.852
 20
-686.819
 30
0.000000
  70
    32
  0
VERTEX
  8
┌▓È_1
  5
AC7
 10
561.888
 20
-686.852
 30
0.000000
  70
    32
  0
VERTEX
  8
┌▓È_1
  5
AC8
 10
561.923
 20
-686.885
 30
0.000000
  70
    32
  0
VERTEX
  8
┌▓È_1
  5
AC9
 10
561.958
 20
-686.918
 30
0.000000
  70
    32
  0
VERTEX
  8
┌▓È_1
  5
ACA
 10
561.994
 20
-686.950
 30
0.000000
  70
    32
  0
VERTEX
  8
┌▓È_1
  5
ACB
 10
562.030
 20
-686.983
 30
0.000000
  70
    32
  0
VERTEX
  8
┌▓È_1
  5
ACC
 10
562.065
 20
-687.016
 30
0.000000
  70
    32
  0
VERTEX
  8
┌▓È_1
  5
ACD
 10
562.101
 20
-687.048
 30
0.000000
  70
    32
  0
VERTEX
  8
┌▓È_1
  5
ACE
 10
562.136
 20
-687.081
 30
0.000000
  70
    32
  0
VERTEX
  8
┌▓È_1
  5
ACF
 10
562.172
 20
-687.113
 30
0.000000
  70
    32
  0
SEQEND
  8
┌▓È_1
  5
AD0
  0
INSERT
  5
439
  8
Éíû@É³
  2
BALLON2
 10
0.0
 20
0.0
 30
0.0
  0
INSERT
  5
443
  8
Éíû@É³
  2
BALLON3
 10
0.0
 20
0.0
 30
0.0
  0
INSERT
  5
44D
  8
┌▓È_1
  2
CLUMP30
 10
0.0
 20
0.0
 30
0.0
  0
INSERT
  5
46D
  8
┌▓È_1
  2
CLUMP31
 10
0.0
 20
0.0
 30
0.0
  0
LINE
  5
48C
  8
┌▓È_1
 62
     5
 10
-713.25156249999986
 20
-31.017187499999999
 30
0.0
 11
-37.251562499999999
 21
-31.017187499999999
 31
0.0
  0
LINE
  5
48D
  8
┌▓È_1
 10
-713.25156249999986
 20
2.9828125000000001
 30
0.0
 11
-37.251562499999999
 21
2.9828125000000001
 31
0.0
  0
LINE
  5
48E
  8
┌▓È_1
 62
     5
 10
-713.25156249999986
 20
-6.0171875000000004
 30
0.0
 11
-37.251562499999999
 21
-6.0171875000000004
 31
0.0
  0
LINE
  5
48F
  8
┌▓È_1
 10
-37.251562499999999
 20
574.98281250000002
 30
0.0
 11
-713.25156249999986
 21
574.98281250000002
 31
0.0
  0
LINE
  5
490
  8
┌▓È_1
 62
     5
 10
-37.251562499999999
 20
583.98281250000002
 30
0.0
 11
-713.25156249999986
 21
583.98281250000002
 31
0.0
  0
LINE
  5
491
  8
┌▓È_1
 62
     5
 10
-37.251562499999999
 20
608.98281250000002
 30
0.0
 11
-713.25156249999986
 21
608.98281250000002
 31
0.0
  0
LINE
  5
492
  8
┌▓È_1
 62
     5
 10
-775.25156249999998
 20
546.98281250000002
 30
0.0
 11
-775.25156249999998
 21
30.982812500000001
 31
0.0
  0
LINE
  5
493
  8
┌▓È_1
 62
     5
 10
-750.25156249999998
 20
546.98281250000002
 30
0.0
 11
-750.25156249999998
 21
30.982812500000001
 31
0.0
  0
LINE
  5
494
  8
┌▓È_1
 10
-741.25156249999998
 20
546.98281250000002
 30
0.0
 11
-741.25156249999998
 21
30.982812500000001
 31
0.0
  0
LINE
  5
495
  8
┌▓È_1
 62
     5
 10
24.748437500000001
 20
30.982812500000001
 30
0.0
 11
24.748437500000001
 21
546.98281250000002
 31
0.0
  0
LINE
  5
496
  8
┌▓È_1
 62
     5
 10
-0.2515625
 20
30.982812500000001
 30
0.0
 11
-0.2515625
 21
546.98281250000002
 31
0.0
  0
LINE
  5
497
  8
┌▓È_1
 10
-9.2515625000000004
 20
30.982812500000001
 30
0.0
 11
-9.2515625000000004
 21
546.98281250000002
 31
0.0
  0
INSERT
  5
499
  8
┌▓È_1
  2
CLUMP32
 10
0.0
 20
0.0
 30
0.0
  0
INSERT
  5
4B9
  8
┌▓È_1
  2
CLUMP33
 10
0.0
 20
0.0
 30
0.0
  0
ARC
  5
4D8
  8
┌▓È_1
 62
     5
 10
-25.251562516
 20
-546.56953124999995
 30
0.0
 40
3.0
 50
270.0
 51
0.0
  0
LINE
  5
4D9
  8
┌▓È_1
 62
     5
 10
-22.251562516
 20
-546.56953124999995
 30
0.0
 11
-22.251562516
 21
-542.56953124999995
 31
0.0
  0
ARC
  5
4DA
  8
┌▓È_1
 62
     5
 10
-29.001562550799999
 20
-550.61953126230003
 30
0.0
 40
0.75
 50
270.0000199365
 51
89.999974871800006
  0
ARC
  5
4DB
  8
┌▓È_1
 62
     5
 10
-32.251562550700001
 20
-550.06953126170004
 30
0.0
 40
0.5
 50
23.578178468099999
 51
89.999996669799998
  0
LINE
  5
4DC
  8
┌▓È_1
 62
     5
 10
-167.5015628102
 20
-549.86953125000002
 30
0.0
 11
-98.251562516000007
 21
-549.86953125000002
 31
0.0
  0
ARC
  5
4DD
  8
┌▓È_1
 62
     5
 10
-164.2515624815
 20
-550.06953124999995
 30
0.0
 40
0.5
 50
90.000003320000005
 51
156.42182152180001
  0
ARC
  5
4DE
  8
┌▓È_1
 62
     5
 10
-167.5015624815
 20
-550.61953125000002
 30
0.0
 40
0.75
 50
90.000025117999996
 51
269.99998005330002
  0
ENDSEC
  0
EOF
