  0
SECTION
  2
HEADER
  9
$ACADVER
  1
AC1009
  9
$INSBASE
 10
0.0
 20
0.0
 30
0.0
  9
$EXTMIN
 10
529.52688721150002
 20
-436.96934698109987
 30
0.0
  9
$EXTMAX
 10
1144.4668872115001
 20
-4.2793469810999989
 30
0.0
  9
$LIMMIN
 10
0.0
 20
0.0
  9
$LIMMAX
 10
0.0
 20
0.0
  9
$ORTHOMODE
 70
     0
  9
$REGENMODE
 70
     1
  9
$FILLMODE
 70
     1
  9
$QTEXTMODE
 70
     0
  9
$MIRRTEXT
 70
     1
  9
$DRAGMODE
 70
     2
  9
$LTSCALE
 40
1.0
  9
$OSMODE
 70
    31
  9
$ATTMODE
 70
     1
  9
$TEXTSIZE
 40
0.0
  9
$TRACEWID
 40
0.05
  9
$TEXTSTYLE
  7
STANDARD
  9
$CLAYER
  8
0
  9
$CELTYPE
  6
CONTINUOUS
  9
$CECOLOR
 62
   256
  9
$DIMSCALE
 40
1.0
  9
$DIMASZ
 40
0.18
  9
$DIMEXO
 40
0.0625
  9
$DIMDLI
 40
0.38
  9
$DIMRND
 40
0.0
  9
$DIMDLE
 40
0.0
  9
$DIMEXE
 40
0.18
  9
$DIMTP
 40
0.0
  9
$DIMTM
 40
0.0
  9
$DIMTXT
 40
0.18
  9
$DIMCEN
 40
0.09
  9
$DIMTSZ
 40
0.0
  9
$DIMTOL
 70
     0
  9
$DIMLIM
 70
     0
  9
$DIMTIH
 70
     1
  9
$DIMTOH
 70
     1
  9
$DIMSE1
 70
     0
  9
$DIMSE2
 70
     0
  9
$DIMTAD
 70
     0
  9
$DIMZIN
 70
     0
  9
$DIMBLK
  1

  9
$DIMASO
 70
     1
  9
$DIMSHO
 70
     1
  9
$DIMPOST
  1

  9
$DIMAPOST
  1

  9
$DIMALT
 70
     0
  9
$DIMALTD
 70
     2
  9
$DIMALTF
 40
25.399999999999999
  9
$DIMLFAC
 40
1.0
  9
$DIMTOFL
 70
     0
  9
$DIMTVP
 40
0.0
  9
$DIMTIX
 70
     0
  9
$DIMSOXD
 70
     0
  9
$DIMSAH
 70
     0
  9
$DIMBLK1
  1

  9
$DIMBLK2
  1

  9
$DIMSTYLE
  2
STANDARD
  9
$DIMCLRD
 70
     0
  9
$DIMCLRE
 70
     0
  9
$DIMCLRT
 70
     0
  9
$DIMTFAC
 40
1.0
  9
$DIMGAP
 40
0.09
  9
$LUNITS
 70
     2
  9
$LUPREC
 70
     4
  9
$SKETCHINC
 40
0.1
  9
$FILLETRAD
 40
0.0
  9
$AUNITS
 70
     0
  9
$AUPREC
 70
     0
  9
$MENU
  1
acad
  9
$ELEVATION
 40
0.0
  9
$PELEVATION
 40
0.0
  9
$THICKNESS
 40
0.0
  9
$LIMCHECK
 70
     0
  9
$BLIPMODE
 70
     0
  9
$CHAMFERA
 40
0.0
  9
$CHAMFERB
 40
0.0
  9
$SKPOLY
 70
     0
  9
$TDCREATE
 40
2454860.6398509839
  9
$TDUPDATE
 40
2454860.6400618399
  9
$TDINDWG
 40
0.0002276852
  9
$TDUSRTIMER
 40
0.0002271412
  9
$USRTIMER
 70
     1
  9
$ANGBASE
 50
0.0
  9
$ANGDIR
 70
     0
  9
$PDMODE
 70
     3
  9
$PDSIZE
 40
-1.0
  9
$PLINEWID
 40
0.0
  9
$COORDS
 70
     2
  9
$SPLFRAME
 70
     0
  9
$SPLINETYPE
 70
     6
  9
$SPLINESEGS
 70
     8
  9
$ATTDIA
 70
     0
  9
$ATTREQ
 70
     1
  9
$HANDLING
 70
     1
  9
$HANDSEED
  5
754
  9
$SURFTAB1
 70
     6
  9
$SURFTAB2
 70
     6
  9
$SURFTYPE
 70
     6
  9
$SURFU
 70
     6
  9
$SURFV
 70
     6
  9
$UCSNAME
  2

  9
$UCSORG
 10
0.0
 20
0.0
 30
0.0
  9
$UCSXDIR
 10
1.0
 20
0.0
 30
0.0
  9
$UCSYDIR
 10
0.0
 20
1.0
 30
0.0
  9
$PUCSNAME
  2

  9
$PUCSORG
 10
0.0
 20
0.0
 30
0.0
  9
$PUCSXDIR
 10
1.0
 20
0.0
 30
0.0
  9
$PUCSYDIR
 10
0.0
 20
1.0
 30
0.0
  9
$USERI1
 70
     0
  9
$USERI2
 70
     0
  9
$USERI3
 70
     0
  9
$USERI4
 70
     0
  9
$USERI5
 70
     0
  9
$USERR1
 40
0.0
  9
$USERR2
 40
0.0
  9
$USERR3
 40
0.0
  9
$USERR4
 40
0.0
  9
$USERR5
 40
0.0
  9
$WORLDVIEW
 70
     1
  9
$SHADEDGE
 70
     3
  9
$SHADEDIF
 70
    70
  9
$TILEMODE
 70
     1
  9
$MAXACTVP
 70
    16
  9
$PLIMCHECK
 70
     0
  9
$PEXTMIN
 10
1.0000000000000000E+020
 20
1.0000000000000000E+020
 30
1.0000000000000000E+020
  9
$PEXTMAX
 10
-1.0000000000000000E+020
 20
-1.0000000000000000E+020
 30
-1.0000000000000000E+020
  9
$PLIMMIN
 10
0.0
 20
0.0
  9
$PLIMMAX
 10
12.0
 20
9.0
  9
$UNITMODE
 70
     0
  9
$VISRETAIN
 70
     0
  9
$PLINEGEN
 70
     1
  9
$PSLTSCALE
 70
     0
  0
ENDSEC
  0
SECTION
  2
TABLES
  0
TABLE
  2
VPORT
 70
     2
  0
VPORT
  2
*ACTIVE
 70
     0
 10
0.0
 20
0.0
 11
1.0
 21
1.0
 12
836.99688721149982
 22
-220.62434698109999
 13
0.0
 23
0.0
 14
1.0
 24
1.0
 15
0.0
 25
0.0
 16
0.0
 26
0.0
 36
1.0
 17
0.0
 27
0.0
 37
0.0
 40
436.2807883817427
 41
1.6343490304709141
 42
50.0
 43
0.0
 44
0.0
 50
0.0
 51
0.0
 71
     0
 72
   100
 73
     1
 74
     1
 75
     0
 76
     0
 77
     0
 78
     0
  0
ENDTAB
  0
TABLE
  2
LTYPE
 70
    11
  0
LTYPE
  2
CONTINUOUS
 70
     0
  3
Solid line
 72
    65
 73
     0
 40
0.0
  0
LTYPE
  2
DOT
 70
     0
  3
. . . . . . . . 
 72
    65
 73
     2
 40
1.0
 49
0.0
 49
-1.0
  0
LTYPE
  2
DASHED
 70
     0
  3
___  ___  ___  ___  
 72
    65
 73
     2
 40
4.0
 49
3.0
 49
-1.0
  0
LTYPE
  2
HIDDEN
 70
     0
  3
__ __ __ __ 
 72
    65
 73
     2
 40
3.0
 49
2.0
 49
-1.0
  0
LTYPE
  2
STITCH
 70
     0
  3
_ _ _ _ 
 72
    65
 73
     2
 40
2.0
 49
1.0
 49
-1.0
  0
LTYPE
  2
CENTER
 70
     0
  3
______  __  ______  __  
 72
    65
 73
     4
 40
43.0
 49
40.0
 49
-1.0
 49
1.0
 49
-1.0
  0
LTYPE
  2
DASHDOT
 70
     0
  3
____ . ____ . 
 72
    65
 73
     4
 40
32.0
 49
30.0
 49
-1.0
 49
0.0
 49
-1.0
  0
LTYPE
  2
BORDER
 70
     0
  3
__ . __ . 
 72
    65
 73
     4
 40
22.0
 49
20.0
 49
-1.0
 49
0.0
 49
-1.0
  0
LTYPE
  2
CUTTING
 70
     0
  3
________   ___   ___   
 72
    65
 73
     6
 40
45.0
 49
40.0
 49
-1.0
 49
1.0
 49
-1.0
 49
1.0
 49
-1.0
  0
LTYPE
  2
PHANTOM
 70
     0
  3
______  __  __  
 72
    65
 73
     6
 40
35.0
 49
30.0
 49
-1.0
 49
1.0
 49
-1.0
 49
1.0
 49
-1.0
  0
LTYPE
  2
DIVIDE
 70
     0
  3
____ . . ____ . . 
 72
    65
 73
     6
 40
23.0
 49
20.0
 49
-1.0
 49
0.0
 49
-1.0
 49
0.0
 49
-1.0
  0
ENDTAB
  0
TABLE
  2
LAYER
 70
     5
  0
LAYER
  2
0
 70
     0
 62
     7
  6
CONTINUOUS
  0
LAYER
  2
ﾚｲﾔ_1
 70
     0
 62
     7
  6
CONTINUOUS
  0
LAYER
  2
改訂
 70
     0
 62
     7
  6
CONTINUOUS
  0
LAYER
  2
寸法線
 70
     0
 62
     7
  6
CONTINUOUS
  0
LAYER
  2
図枠
 70
     0
 62
     7
  6
CONTINUOUS
  0
ENDTAB
  0
TABLE
  2
STYLE
 70
     1
  0
STYLE
  2
STANDARD
 70
     0
 40
0.0
 41
1.0
 50
0.0
 71
     0
 42
0.0
  3
txt
  4
extfont
  0
ENDTAB
  0
TABLE
  2
VIEW
 70
     0
  0
ENDTAB
  0
TABLE
  2
UCS
 70
     0
  0
ENDTAB
  0
TABLE
  2
APPID
 70
     2
  0
APPID
  2
ACAD
 70
     0
  0
APPID
  2
DCO15
 70
     0
  0
ENDTAB
  0
TABLE
  2
DIMSTYLE
 70
     2
  0
DIMSTYLE
  2
STANDARD
 70
     0
  3

  4

  5

  6

  7

 40
1.0
 41
0.18
 42
0.0625
 43
0.38
 44
0.18
 45
0.0
 46
0.0
 47
0.0
 48
0.0
140
0.18
141
0.09
142
0.0
143
25.399999999999999
144
1.0
145
0.0
146
1.0
147
0.09
 71
     0
 72
     0
 73
     1
 74
     1
 75
     0
 76
     0
 77
     0
 78
     0
170
     0
171
     2
172
     0
173
     0
174
     0
175
     0
176
     0
177
     0
178
     0
  0
DIMSTYLE
  2
VELDIM0
 70
     0
  3

  4

  5

  6

  7

 40
1.0
 41
4.5
 42
0.0625
 43
0.38
 44
0.5
 45
0.0
 46
3.0
 47
0.0
 48
0.0
140
5.3974999188999986
141
0.09
142
0.0
143
25.399999999999999
144
1.0
145
0.0
146
1.0
147
0.09
 71
     0
 72
     0
 73
     0
 74
     0
 75
     0
 76
     0
 77
     0
 78
     8
170
     0
171
     2
172
     0
173
     0
174
     0
175
     0
176
     0
177
     0
178
     0
  0
ENDTAB
  0
ENDSEC
  0
SECTION
  2
BLOCKS
  0
BLOCK
  8
0
  2
$MODEL_SPACE
 70
     0
 10
0.0
 20
0.0
 30
0.0
  3
$MODEL_SPACE
  1

  0
ENDBLK
  5
E
  8
0
  0
BLOCK
 67
     1
  8
0
  2
$PAPER_SPACE
 70
     0
 10
0.0
 20
0.0
 30
0.0
  3
$PAPER_SPACE
  1

  0
ENDBLK
  5
10
 67
     1
  8
0
  0
BLOCK
  8
0
  2
CLUMP0
 70
     0
 10
0.0
 20
0.0
 30
0.0
  3
CLUMP0
  1

  0
LINE
  5
87
  8
ﾚｲﾔ_1
  6
BORDER
 62
     3
 10
960.10570015940004
 20
-147.75399091029999
 30
0.0
 11
940.94573934690015
 21
-139.98116823429999
 31
0.0
  0
LINE
  5
88
  8
ﾚｲﾔ_1
  6
BORDER
 62
     3
 10
958.80572093919989
 20
-155.2419863833
 30
0.0
 11
938.75338718240005
 21
-158.18373941600001
 31
0.0
  0
ARC
  5
89
  8
ﾚｲﾔ_1
  6
BORDER
 62
     3
 10
937.37446096429994
 20
-148.78434781409999
 30
0.0
 40
9.5
 50
67.918566997200003
 51
278.34597099370001
  0
CIRCLE
  5
8A
  8
ﾚｲﾔ_1
  6
BORDER
 62
     3
 10
937.37446096429994
 20
-148.78434781409999
 30
0.0
 40
7.5
  0
LINE
  5
8B
  8
ﾚｲﾔ_1
  6
BORDER
 62
     3
 10
961.93321966990004
 20
-152.78434781409999
 30
0.0
 11
969.73673964689988
 21
-152.78434781409999
 31
0.0
  0
LINE
  5
8C
  8
ﾚｲﾔ_1
  6
BORDER
 62
     3
 10
970.07413656460005
 20
-148.54788991749999
 30
0.0
 11
969.73673964689988
 21
-152.78434781409999
 31
0.0
  0
LINE
  5
8D
  8
ﾚｲﾔ_1
  6
BORDER
 62
     3
 10
960.10570015940004
 20
-147.75399091029999
 30
0.0
 11
970.07413656460005
 21
-148.54788991749999
 31
0.0
  0
ARC
  5
8E
  8
ﾚｲﾔ_1
  6
BORDER
 62
     3
 10
958.22512042630001
 20
-151.28434781409999
 30
0.0
 40
4.0
 50
278.34596892000002
 51
337.97568716299998
  0
ENDBLK
  5
8F
  8
0
  0
BLOCK
  8
0
  2
*D1
 70
     1
 10
0.0
 20
0.0
 30
0.0
  3
*D1
  1

  0
TEXT
  5
93
  8
0
 62
     0
 10
931.48457646480006
 20
-95.852600258400003
 30
0.0
 40
5.3974999188999986
  1
2
 50
90.0
  0
LINE
  5
94
  8
0
 62
     0
 10
949.22512042630001
 20
-84.784347814099988
 30
0.0
 11
932.93707645049994
 21
-84.784347814099988
 31
0.0
  0
LINE
  5
95
  8
0
 62
     0
 10
949.22512042630001
 20
-86.784347814100002
 30
0.0
 11
932.93707645049994
 21
-86.784347814100002
 31
0.0
  0
LINE
  5
96
  8
0
 62
     0
 10
933.43707645050006
 20
-84.784347814099988
 30
0.0
 11
933.43707645050006
 21
-89.502600353700004
 31
0.0
  0
LINE
  5
97
  8
0
 62
     0
 10
933.43707645050006
 20
-84.784347814099988
 30
0.0
 11
933.43707645050006
 21
-99.027600210700015
 31
0.0
  0
LINE
  5
98
  8
0
 62
     0
 10
933.43707645050006
 20
-86.784347814100002
 30
0.0
 11
933.43707645050006
 21
-89.502600353700004
 31
0.0
  0
LINE
  5
99
  8
0
 62
     0
 10
933.43707645050006
 20
-86.784347814100002
 30
0.0
 11
933.43707645050006
 21
-99.027600210700015
 31
0.0
  0
LINE
  5
9A
  8
0
 62
     0
 10
933.43707645050006
 20
-86.784347814100002
 30
0.0
 11
933.43707645050006
 21
-89.784347814099988
 31
0.0
  0
SOLID
  5
9B
  8
0
 62
     0
 10
933.43707645050006
 20
-86.784347814100002
 30
0.0
 11
934.56207645049994
 21
-91.284347814100002
 31
0.0
 12
932.31207645049994
 22
-91.284347814100002
 32
0.0
 13
933.43707645050006
 23
-90.159347814100016
 33
0.0
  0
LINE
  5
9C
  8
0
 62
     0
 10
933.43707645050006
 20
-84.784347814099988
 30
0.0
 11
933.43707645050006
 21
-81.784347814100002
 31
0.0
  0
SOLID
  5
9D
  8
0
 62
     0
 10
933.43707645050006
 20
-84.784347814099988
 30
0.0
 11
932.31207645049994
 21
-80.284347814100002
 31
0.0
 12
934.56207645049994
 22
-80.284347814100002
 32
0.0
 13
933.43707645050006
 23
-81.409347814100016
 33
0.0
  0
ENDBLK
  5
9E
  8
0
  0
BLOCK
  8
0
  2
*D2
 70
     1
 10
0.0
 20
0.0
 30
0.0
  3
*D2
  1

  0
TEXT
  5
F0
  8
0
 62
     0
 10
957.12394237630008
 20
-178.4216334043
 30
0.0
 40
5.3974999188999986
  1
2
  0
LINE
  5
F1
  8
0
 62
     0
 10
965.22512042630001
 20
-189.28434781409999
 30
0.0
 11
965.22512042630001
 21
-179.87413339
 31
0.0
  0
LINE
  5
F2
  8
0
 62
     0
 10
963.2251204262999
 20
-189.28434781409999
 30
0.0
 11
963.2251204262999
 21
-179.87413339
 31
0.0
  0
LINE
  5
F3
  8
0
 62
     0
 10
965.22512042630001
 20
-180.37413339
 30
0.0
 11
963.47394228089991
 21
-180.37413339
 31
0.0
  0
LINE
  5
F4
  8
0
 62
     0
 10
965.22512042630001
 20
-180.37413339
 30
0.0
 11
953.94894242399994
 21
-180.37413339
 31
0.0
  0
LINE
  5
F5
  8
0
 62
     0
 10
963.2251204262999
 20
-180.37413339
 30
0.0
 11
963.47394228089991
 21
-180.37413339
 31
0.0
  0
LINE
  5
F6
  8
0
 62
     0
 10
963.2251204262999
 20
-180.37413339
 30
0.0
 11
953.94894242399994
 21
-180.37413339
 31
0.0
  0
LINE
  5
F7
  8
0
 62
     0
 10
963.2251204262999
 20
-180.37413339
 30
0.0
 11
960.22512042630001
 21
-180.37413339
 31
0.0
  0
SOLID
  5
F8
  8
0
 62
     0
 10
963.2251204262999
 20
-180.37413339
 30
0.0
 11
958.7251204262999
 21
-181.49913339
 31
0.0
 12
958.7251204262999
 22
-179.24913339
 32
0.0
 13
959.85012042630001
 23
-180.37413339
 33
0.0
  0
LINE
  5
F9
  8
0
 62
     0
 10
965.22512042630001
 20
-180.37413339
 30
0.0
 11
968.22512042630001
 21
-180.37413339
 31
0.0
  0
SOLID
  5
FA
  8
0
 62
     0
 10
965.22512042630001
 20
-180.37413339
 30
0.0
 11
969.72512042630001
 21
-179.24913339
 31
0.0
 12
969.72512042630001
 22
-181.49913339
 32
0.0
 13
968.60012042630001
 23
-180.37413339
 33
0.0
  0
ENDBLK
  5
FB
  8
0
  0
BLOCK
  8
0
  2
CLUMP1
 70
     0
 10
0.0
 20
0.0
 30
0.0
  3
CLUMP1
  1

  0
ARC
  5
103
  8
ﾚｲﾔ_1
  6
STITCH
 10
960.72512042630001
 20
-130.43368835210001
 30
0.0
 40
9.5
 50
337.9185669972
 51
188.34597099370001
  0
CIRCLE
  5
104
  8
ﾚｲﾔ_1
  6
STITCH
 10
960.72512042630001
 20
-130.43368835210001
 30
0.0
 40
7.5
  0
LINE
  5
105
  8
ﾚｲﾔ_1
  6
STITCH
 10
956.72512042630001
 20
-154.9924470576
 30
0.0
 11
956.72512042630001
 21
-162.7959670347
 31
0.0
  0
LINE
  5
106
  8
ﾚｲﾔ_1
  6
STITCH
 10
960.96157832289987
 20
-163.1333639524
 30
0.0
 11
956.72512042630001
 21
-162.7959670347
 31
0.0
  0
LINE
  5
107
  8
ﾚｲﾔ_1
  6
STITCH
 10
961.75547733009978
 20
-153.16492754710001
 30
0.0
 11
960.96157832289987
 21
-163.1333639524
 31
0.0
  0
ARC
  5
108
  8
ﾚｲﾔ_1
  6
STITCH
 10
958.22512042630001
 20
-151.28434781409999
 30
0.0
 40
4.0
 50
188.34596891999999
 51
247.975687163
  0
LINE
  5
109
  8
ﾚｲﾔ_1
  6
STITCH
 10
961.75547733009978
 20
-153.16492754710001
 30
0.0
 11
969.52830000619997
 21
-134.0049667346
 31
0.0
  0
LINE
  5
10A
  8
ﾚｲﾔ_1
  6
STITCH
 10
954.26748185710005
 20
-151.86494832689999
 30
0.0
 11
951.32572882449983
 21
-131.81261457010001
 31
0.0
  0
CIRCLE
  5
10B
  8
ﾚｲﾔ_1
  6
STITCH
 10
955.2251204262999
 20
-158.93434781409999
 30
0.0
 40
1.5
  0
CIRCLE
  5
10C
  8
ﾚｲﾔ_1
  6
STITCH
 10
958.22512042630001
 20
-151.28434781409999
 30
0.0
 40
1.5
  0
ENDBLK
  5
10D
  8
0
  0
BLOCK
  8
0
  2
BALLON0
 70
     0
 10
0.0
 20
0.0
 30
0.0
  3
BALLON0
  1

  0
INSERT
  5
11E
  8
0
  6
CONTINUOUS
  2
*U48
 10
0.0
 20
0.0
 30
0.0
  0
CIRCLE
  5
11F
  8
ﾚｲﾔ_1
 10
926.08700286880003
 20
-275.55474885580003
 30
0.0
 40
6.0
  0
LINE
  5
120
  8
寸法線
 10
936.08700286879991
 20
-275.55474885580003
 30
0.0
 11
932.08700286880003
 21
-275.55474885580003
 31
0.0
  0
LINE
  5
121
  8
寸法線
 10
955.23419610450003
 20
-224.78434781409999
 30
0.0
 11
936.08700286879991
 21
-275.55474885580003
 31
0.0
  0
SOLID
  5
122
  8
寸法線
 10
955.23419610450003
 20
-224.78434781409999
 30
0.0
 11
954.23976646249992
 21
-230.82182325400001
 31
0.0
 12
953.54040785069992
 22
-229.2755705152
 32
0.0
 13
953.54040785069992
 23
-229.2755705152
 33
0.0
  0
SOLID
  5
123
  8
寸法線
 10
953.54040785069992
 20
-229.2755705152
 30
0.0
 11
951.99415511199982
 21
-229.97492912710001
 31
0.0
 12
955.23419610450003
 22
-224.78434781409999
 32
0.0
 13
955.23419610450003
 23
-224.78434781409999
 33
0.0
  0
ENDBLK
  5
124
  8
0
  0
BLOCK
  8
0
  2
*D5
 70
     1
 10
0.0
 20
0.0
 30
0.0
  3
*D5
  1

  0
TEXT
  5
19B
  8
0
 62
     0
 10
794.89961707179987
 20
-186.5608914005
 30
0.0
 40
5.3974999188999986
  1
(5)
  0
LINE
  5
19C
  8
0
 62
     0
 10
773.07985040130006
 20
-190.6850711214
 30
0.0
 11
773.07985040130006
 21
-188.0133913862
 31
0.0
  0
LINE
  5
19D
  8
0
 62
     0
 10
768.07985040129995
 20
-190.6850711214
 30
0.0
 11
768.07985040129995
 21
-188.0133913862
 31
0.0
  0
LINE
  5
19E
  8
0
 62
     0
 10
773.07985040130006
 20
-188.5133913862
 30
0.0
 11
805.21836691679982
 21
-188.5133913862
 31
0.0
  0
LINE
  5
19F
  8
0
 62
     0
 10
773.07985040130006
 20
-188.5133913862
 30
0.0
 11
791.72461711949995
 21
-188.5133913862
 31
0.0
  0
LINE
  5
1A0
  8
0
 62
     0
 10
768.07985040129995
 20
-188.5133913862
 30
0.0
 11
805.21836691679982
 21
-188.5133913862
 31
0.0
  0
LINE
  5
1A1
  8
0
 62
     0
 10
768.07985040129995
 20
-188.5133913862
 30
0.0
 11
791.72461711949995
 21
-188.5133913862
 31
0.0
  0
LINE
  5
1A2
  8
0
 62
     0
 10
768.07985040129995
 20
-188.5133913862
 30
0.0
 11
765.07985040130006
 21
-188.5133913862
 31
0.0
  0
SOLID
  5
1A3
  8
0
 62
     0
 10
768.07985040129995
 20
-188.5133913862
 30
0.0
 11
763.57985040129995
 21
-189.6383913862
 31
0.0
 12
763.57985040129995
 22
-187.3883913862
 32
0.0
 13
764.70485040129995
 23
-188.5133913862
 33
0.0
  0
LINE
  5
1A4
  8
0
 62
     0
 10
773.07985040130006
 20
-188.5133913862
 30
0.0
 11
776.07985040129995
 21
-188.5133913862
 31
0.0
  0
SOLID
  5
1A5
  8
0
 62
     0
 10
773.07985040130006
 20
-188.5133913862
 30
0.0
 11
777.57985040130006
 21
-187.3883913862
 31
0.0
 12
777.57985040130006
 22
-189.6383913862
 32
0.0
 13
776.45485040129995
 23
-188.5133913862
 33
0.0
  0
ENDBLK
  5
1A6
  8
0
  0
BLOCK
  8
0
  2
BALLON1
 70
     0
 10
0.0
 20
0.0
 30
0.0
  3
BALLON1
  1

  0
INSERT
  5
215
  8
0
  6
CONTINUOUS
  2
*U49
 10
0.0
 20
0.0
 30
0.0
  0
CIRCLE
  5
216
  8
ﾚｲﾔ_1
 10
809.94066955279993
 20
-275.55474885580003
 30
0.0
 40
6.0
  0
LINE
  5
217
  8
寸法線
 10
799.94066955279993
 20
-275.55474885580003
 30
0.0
 11
803.94066955279993
 21
-275.55474885580003
 31
0.0
  0
LINE
  5
218
  8
寸法線
 10
778.02379571380004
 20
-227.5547488558
 30
0.0
 11
799.94066955279993
 21
-275.55474885580003
 31
0.0
  0
SOLID
  5
219
  8
寸法線
 10
778.02379571380004
 20
-227.5547488558
 30
0.0
 11
781.6075029241
 21
-232.51428942230001
 31
0.0
 12
780.01748732689998
 22
-231.92111963159999
 32
0.0
 13
780.01748732689998
 23
-231.92111963159999
 33
0.0
  0
SOLID
  5
21A
  8
寸法線
 10
780.01748732689998
 20
-231.92111963159999
 30
0.0
 11
779.42431753619985
 21
-233.51113522879999
 31
0.0
 12
778.02379571380004
 22
-227.5547488558
 32
0.0
 13
778.02379571380004
 23
-227.5547488558
 33
0.0
  0
ENDBLK
  5
21B
  8
0
  0
BLOCK
  8
0
  2
*D7
 70
     1
 10
0.0
 20
0.0
 30
0.0
  3
*D7
  1

  0
TEXT
  5
231
  8
0
 62
     0
 10
905.98676610100006
 20
-159.22184769489999
 30
0.0
 40
5.3974999188999986
  1
□129
 50
90.0
  0
LINE
  5
232
  8
0
 62
     0
 10
949.22512042630001
 20
-86.784347814100002
 30
0.0
 11
907.43926608669994
 21
-86.784347814100002
 31
0.0
  0
LINE
  5
233
  8
0
 62
     0
 10
949.22512042630001
 20
-215.78434781409999
 30
0.0
 11
907.43926608669994
 21
-215.78434781409999
 31
0.0
  0
LINE
  5
234
  8
0
 62
     0
 10
907.93926608669983
 20
-86.784347814100002
 30
0.0
 11
907.93926608669983
 21
-140.17184798100001
 31
0.0
  0
LINE
  5
235
  8
0
 62
     0
 10
907.93926608669983
 20
-86.784347814100002
 30
0.0
 11
907.93926608669983
 21
-162.39684764719999
 31
0.0
  0
LINE
  5
236
  8
0
 62
     0
 10
907.93926608669983
 20
-215.78434781409999
 30
0.0
 11
907.93926608669983
 21
-140.17184798100001
 31
0.0
  0
LINE
  5
237
  8
0
 62
     0
 10
907.93926608669983
 20
-215.78434781409999
 30
0.0
 11
907.93926608669983
 21
-162.39684764719999
 31
0.0
  0
LINE
  5
238
  8
0
 62
     0
 10
907.93926608669983
 20
-215.78434781409999
 30
0.0
 11
907.93926608669983
 21
-212.78434781409999
 31
0.0
  0
SOLID
  5
239
  8
0
 62
     0
 10
907.93926608669983
 20
-215.78434781409999
 30
0.0
 11
906.81426608669994
 21
-211.28434781409999
 31
0.0
 12
909.06426608669994
 22
-211.28434781409999
 32
0.0
 13
907.93926608669983
 23
-212.40934781409999
 33
0.0
  0
LINE
  5
23A
  8
0
 62
     0
 10
907.93926608669983
 20
-86.784347814100002
 30
0.0
 11
907.93926608669983
 21
-89.784347814099988
 31
0.0
  0
SOLID
  5
23B
  8
0
 62
     0
 10
907.93926608669983
 20
-86.784347814100002
 30
0.0
 11
909.06426608669994
 21
-91.284347814100002
 31
0.0
 12
906.81426608669994
 22
-91.284347814100002
 32
0.0
 13
907.93926608669983
 23
-90.159347814100016
 33
0.0
  0
ENDBLK
  5
23C
  8
0
  0
BLOCK
  8
0
  2
*D8
 70
     1
 10
0.0
 20
0.0
 30
0.0
  3
*D8
  1

  0
TEXT
  5
240
  8
0
 62
     0
 10
954.55012047399998
 20
-114.4885037529
 30
0.0
 40
5.3974999188999986
  1
15
  0
LINE
  5
241
  8
0
 62
     0
 10
965.22512042630001
 20
-117.7530886995
 30
0.0
 11
965.22512042630001
 21
-115.9410037386
 31
0.0
  0
LINE
  5
242
  8
0
 62
     0
 10
950.22512042630001
 20
-115.92684358229999
 30
0.0
 11
950.22512042630001
 21
-115.9410037386
 31
0.0
  0
LINE
  5
243
  8
0
 62
     0
 10
965.22512042630001
 20
-116.4410037386
 30
0.0
 11
964.07512033100011
 21
-116.4410037386
 31
0.0
  0
LINE
  5
244
  8
0
 62
     0
 10
965.22512042630001
 20
-116.4410037386
 30
0.0
 11
951.37512052169996
 21
-116.4410037386
 31
0.0
  0
LINE
  5
245
  8
0
 62
     0
 10
950.22512042630001
 20
-116.4410037386
 30
0.0
 11
964.07512033100011
 21
-116.4410037386
 31
0.0
  0
LINE
  5
246
  8
0
 62
     0
 10
950.22512042630001
 20
-116.4410037386
 30
0.0
 11
951.37512052169996
 21
-116.4410037386
 31
0.0
  0
LINE
  5
247
  8
0
 62
     0
 10
950.22512042630001
 20
-116.4410037386
 30
0.0
 11
947.22512042630012
 21
-116.4410037386
 31
0.0
  0
SOLID
  5
248
  8
0
 62
     0
 10
950.22512042630001
 20
-116.4410037386
 30
0.0
 11
945.72512042630001
 21
-117.5660037386
 31
0.0
 12
945.72512042630001
 22
-115.3160037386
 32
0.0
 13
946.85012042630012
 23
-116.4410037386
 33
0.0
  0
LINE
  5
249
  8
0
 62
     0
 10
965.22512042630001
 20
-116.4410037386
 30
0.0
 11
968.22512042630001
 21
-116.4410037386
 31
0.0
  0
SOLID
  5
24A
  8
0
 62
     0
 10
965.22512042630001
 20
-116.4410037386
 30
0.0
 11
969.72512042630001
 21
-115.3160037386
 31
0.0
 12
969.72512042630001
 22
-117.5660037386
 32
0.0
 13
968.60012042630001
 23
-116.4410037386
 33
0.0
  0
ENDBLK
  5
24B
  8
0
  0
BLOCK
  8
0
  2
*D9
 70
     1
 10
0.0
 20
0.0
 30
0.0
  3
*D9
  1

  0
TEXT
  5
257
  8
0
 62
     0
 10
1030.3001587402
 20
-156.04684774259999
 30
0.0
 40
5.3974999188999986
  1
119
 50
90.0
  0
LINE
  5
258
  8
0
 62
     0
 10
1005.7251204263
 20
-210.78434781409999
 30
0.0
 11
1032.7526587258999
 21
-210.78434781409999
 31
0.0
  0
LINE
  5
259
  8
0
 62
     0
 10
1005.7251204263
 20
-91.784347814100002
 30
0.0
 11
1032.7526587258999
 21
-91.784347814100002
 31
0.0
  0
LINE
  5
25A
  8
0
 62
     0
 10
1032.2526587258999
 20
-210.78434781409999
 30
0.0
 11
1032.2526587258999
 21
-143.34684793330001
 31
0.0
  0
LINE
  5
25B
  8
0
 62
     0
 10
1032.2526587258999
 20
-210.78434781409999
 30
0.0
 11
1032.2526587258999
 21
-159.22184769489999
 31
0.0
  0
LINE
  5
25C
  8
0
 62
     0
 10
1032.2526587258999
 20
-91.784347814100002
 30
0.0
 11
1032.2526587258999
 21
-143.34684793330001
 31
0.0
  0
LINE
  5
25D
  8
0
 62
     0
 10
1032.2526587258999
 20
-91.784347814100002
 30
0.0
 11
1032.2526587258999
 21
-159.22184769489999
 31
0.0
  0
LINE
  5
25E
  8
0
 62
     0
 10
1032.2526587258999
 20
-91.784347814100002
 30
0.0
 11
1032.2526587258999
 21
-94.784347814099988
 31
0.0
  0
SOLID
  5
25F
  8
0
 62
     0
 10
1032.2526587258999
 20
-91.784347814100002
 30
0.0
 11
1033.3776587258999
 21
-96.284347814100002
 31
0.0
 12
1031.1276587258999
 22
-96.284347814100002
 32
0.0
 13
1032.2526587258999
 23
-95.159347814100016
 33
0.0
  0
LINE
  5
260
  8
0
 62
     0
 10
1032.2526587258999
 20
-210.78434781409999
 30
0.0
 11
1032.2526587258999
 21
-207.78434781409999
 31
0.0
  0
SOLID
  5
261
  8
0
 62
     0
 10
1032.2526587258999
 20
-210.78434781409999
 30
0.0
 11
1031.1276587258999
 21
-206.28434781409999
 31
0.0
 12
1033.3776587258999
 22
-206.28434781409999
 32
0.0
 13
1032.2526587258999
 23
-207.40934781409999
 33
0.0
  0
ENDBLK
  5
262
  8
0
  0
BLOCK
  8
0
  2
*D10
 70
     1
 10
0.0
 20
0.0
 30
0.0
  3
*D10
  1

  0
TEXT
  5
29C
  8
0
 62
     0
 10
815.61216029109994
 20
-348.87988075250001
 30
0.0
 40
5.3974999188999986
  1
55
 50
90.0
  0
LINE
  5
29D
  8
0
 62
     0
 10
786.07985040130006
 20
-373.20488080019999
 30
0.0
 11
818.06466027680005
 21
-373.20488080019999
 31
0.0
  0
LINE
  5
29E
  8
0
 62
     0
 10
776.07985040129995
 20
-318.20488080019999
 30
0.0
 11
818.06466027680005
 21
-318.20488080019999
 31
0.0
  0
LINE
  5
29F
  8
0
 62
     0
 10
817.56466027679994
 20
-373.20488080019999
 30
0.0
 11
817.56466027679994
 21
-339.35488089559999
 31
0.0
  0
LINE
  5
2A0
  8
0
 62
     0
 10
817.56466027679994
 20
-373.20488080019999
 30
0.0
 11
817.56466027679994
 21
-352.0548807048001
 31
0.0
  0
LINE
  5
2A1
  8
0
 62
     0
 10
817.56466027679994
 20
-318.20488080019999
 30
0.0
 11
817.56466027679994
 21
-339.35488089559999
 31
0.0
  0
LINE
  5
2A2
  8
0
 62
     0
 10
817.56466027679994
 20
-318.20488080019999
 30
0.0
 11
817.56466027679994
 21
-352.0548807048001
 31
0.0
  0
LINE
  5
2A3
  8
0
 62
     0
 10
817.56466027679994
 20
-318.20488080019999
 30
0.0
 11
817.56466027679994
 21
-321.20488080019999
 31
0.0
  0
SOLID
  5
2A4
  8
0
 62
     0
 10
817.56466027679994
 20
-318.20488080019999
 30
0.0
 11
818.68966027679994
 21
-322.70488080019999
 31
0.0
 12
816.43966027679994
 22
-322.70488080019999
 32
0.0
 13
817.56466027679994
 23
-321.57988080019999
 33
0.0
  0
LINE
  5
2A5
  8
0
 62
     0
 10
817.56466027679994
 20
-373.20488080019999
 30
0.0
 11
817.56466027679994
 21
-370.20488080019999
 31
0.0
  0
SOLID
  5
2A6
  8
0
 62
     0
 10
817.56466027679994
 20
-373.20488080019999
 30
0.0
 11
816.43966027679994
 21
-368.70488080019999
 31
0.0
 12
818.68966027679994
 22
-368.70488080019999
 32
0.0
 13
817.56466027679994
 23
-369.82988080019999
 33
0.0
  0
ENDBLK
  5
2A7
  8
0
  0
BLOCK
  8
0
  2
*D11
 70
     1
 10
0.0
 20
0.0
 30
0.0
  3
*D11
  1

  0
TEXT
  5
2AB
  8
0
 62
     0
 10
801.51133021299995
 20
-329.95708728470009
 30
0.0
 40
5.3974999188999986
  1
12.5
 50
90.0
  0
LINE
  5
2AC
  8
0
 62
     0
 10
778.07985040129995
 20
-330.70488080019999
 30
0.0
 11
803.96383019869995
 21
-330.70488080019999
 31
0.0
  0
LINE
  5
2AD
  8
0
 62
     0
 10
776.07985040129995
 20
-318.20488080019999
 30
0.0
 11
803.96383019869995
 21
-318.20488080019999
 31
0.0
  0
LINE
  5
2AE
  8
0
 62
     0
 10
803.46383019869995
 20
-330.70488080019999
 30
0.0
 11
803.46383019869995
 21
-330.70488080019999
 31
0.0
  0
LINE
  5
2AF
  8
0
 62
     0
 10
803.46383019869995
 20
-330.70488080019999
 30
0.0
 11
803.46383019869995
 21
-318.20488080019999
 31
0.0
  0
LINE
  5
2B0
  8
0
 62
     0
 10
803.46383019869995
 20
-318.20488080019999
 30
0.0
 11
803.46383019869995
 21
-330.70488080019999
 31
0.0
  0
LINE
  5
2B1
  8
0
 62
     0
 10
803.46383019869995
 20
-318.20488080019999
 30
0.0
 11
803.46383019869995
 21
-318.20488080019999
 31
0.0
  0
LINE
  5
2B2
  8
0
 62
     0
 10
803.46383019869995
 20
-318.20488080019999
 30
0.0
 11
803.46383019869995
 21
-321.20488080019999
 31
0.0
  0
SOLID
  5
2B3
  8
0
 62
     0
 10
803.46383019869995
 20
-318.20488080019999
 30
0.0
 11
804.58883019869995
 21
-322.70488080019999
 31
0.0
 12
802.33883019869995
 22
-322.70488080019999
 32
0.0
 13
803.46383019869995
 23
-321.57988080019999
 33
0.0
  0
LINE
  5
2B4
  8
0
 62
     0
 10
803.46383019869995
 20
-330.70488080019999
 30
0.0
 11
803.46383019869995
 21
-327.70488080019999
 31
0.0
  0
SOLID
  5
2B5
  8
0
 62
     0
 10
803.46383019869995
 20
-330.70488080019999
 30
0.0
 11
802.33883019869995
 21
-326.20488080019999
 31
0.0
 12
804.58883019869995
 22
-326.20488080019999
 32
0.0
 13
803.46383019869995
 23
-327.32988080019999
 33
0.0
  0
ENDBLK
  5
2B6
  8
0
  0
BLOCK
  8
0
  2
CLUMP2
 70
     0
 10
0.0
 20
0.0
 30
0.0
  3
CLUMP2
  1

  0
LINE
  5
2CF
  8
図枠
 10
1007.9968872115001
 20
-336.12434698110002
 30
0.0
 11
1007.9968872115001
 21
-328.62434698110002
 31
0.0
  0
LINE
  5
2D0
  8
図枠
 10
919.49688721150005
 20
-336.12434698110002
 30
0.0
 11
919.49688721150005
 21
-328.62434698110002
 31
0.0
  0
LINE
  5
2D1
  8
図枠
 10
932.99688721149994
 20
-336.12434698110002
 30
0.0
 11
932.99688721149994
 21
-328.62434698110002
 31
0.0
  0
LINE
  5
2D2
  8
図枠
 10
1090.4968872115001
 20
-336.12434698110002
 30
0.0
 11
1090.4968872115001
 21
-328.62434698110002
 31
0.0
  0
LINE
  5
2D3
  8
図枠
 10
1076.9968872115001
 20
-336.12434698110002
 30
0.0
 11
1076.9968872115001
 21
-328.62434698110002
 31
0.0
  0
LINE
  5
2D4
  8
図枠
 10
1136.9968872115001
 20
-328.62434698110002
 30
0.0
 11
919.49688721150005
 21
-328.62434698110002
 31
0.0
  0
ENDBLK
  5
2D5
  8
0
  0
BLOCK
  8
0
  2
CLUMP3
 70
     0
 10
0.0
 20
0.0
 30
0.0
  3
CLUMP3
  1

  0
LINE
  5
2D9
  8
図枠
 10
1007.9968872115001
 20
-343.62434698110002
 30
0.0
 11
1007.9968872115001
 21
-336.12434698110002
 31
0.0
  0
LINE
  5
2DA
  8
図枠
 10
919.49688721150005
 20
-343.62434698110002
 30
0.0
 11
919.49688721150005
 21
-336.12434698110002
 31
0.0
  0
LINE
  5
2DB
  8
図枠
 10
932.99688721149994
 20
-343.62434698110002
 30
0.0
 11
932.99688721149994
 21
-336.12434698110002
 31
0.0
  0
LINE
  5
2DC
  8
図枠
 10
1090.4968872115001
 20
-343.62434698110002
 30
0.0
 11
1090.4968872115001
 21
-336.12434698110002
 31
0.0
  0
LINE
  5
2DD
  8
図枠
 10
1076.9968872115001
 20
-343.62434698110002
 30
0.0
 11
1076.9968872115001
 21
-336.12434698110002
 31
0.0
  0
LINE
  5
2DE
  8
図枠
 10
1136.9968872115001
 20
-336.12434698110002
 30
0.0
 11
919.49688721150005
 21
-336.12434698110002
 31
0.0
  0
ENDBLK
  5
2DF
  8
0
  0
BLOCK
  8
0
  2
CLUMP4
 70
     0
 10
0.0
 20
0.0
 30
0.0
  3
CLUMP4
  1

  0
LINE
  5
2E3
  8
図枠
 10
1007.9968872115001
 20
-351.12434698110002
 30
0.0
 11
1007.9968872115001
 21
-343.62434698110002
 31
0.0
  0
LINE
  5
2E4
  8
図枠
 10
919.49688721150005
 20
-351.12434698110002
 30
0.0
 11
919.49688721150005
 21
-343.62434698110002
 31
0.0
  0
LINE
  5
2E5
  8
図枠
 10
932.99688721149994
 20
-351.12434698110002
 30
0.0
 11
932.99688721149994
 21
-343.62434698110002
 31
0.0
  0
LINE
  5
2E6
  8
図枠
 10
1090.4968872115001
 20
-351.12434698110002
 30
0.0
 11
1090.4968872115001
 21
-343.62434698110002
 31
0.0
  0
LINE
  5
2E7
  8
図枠
 10
1076.9968872115001
 20
-351.12434698110002
 30
0.0
 11
1076.9968872115001
 21
-343.62434698110002
 31
0.0
  0
LINE
  5
2E8
  8
図枠
 10
1136.9968872115001
 20
-343.62434698110002
 30
0.0
 11
919.49688721150005
 21
-343.62434698110002
 31
0.0
  0
ENDBLK
  5
2E9
  8
0
  0
BLOCK
  8
0
  2
CLUMP5
 70
     0
 10
0.0
 20
0.0
 30
0.0
  3
CLUMP5
  1

  0
LINE
  5
2ED
  8
図枠
 10
1007.9968872115001
 20
-358.62434698110002
 30
0.0
 11
1007.9968872115001
 21
-351.12434698110002
 31
0.0
  0
LINE
  5
2EE
  8
図枠
 10
919.49688721150005
 20
-358.62434698110002
 30
0.0
 11
919.49688721150005
 21
-351.12434698110002
 31
0.0
  0
LINE
  5
2EF
  8
図枠
 10
932.99688721149994
 20
-358.62434698110002
 30
0.0
 11
932.99688721149994
 21
-351.12434698110002
 31
0.0
  0
LINE
  5
2F0
  8
図枠
 10
1090.4968872115001
 20
-358.62434698110002
 30
0.0
 11
1090.4968872115001
 21
-351.12434698110002
 31
0.0
  0
LINE
  5
2F1
  8
図枠
 10
1076.9968872115001
 20
-358.62434698110002
 30
0.0
 11
1076.9968872115001
 21
-351.12434698110002
 31
0.0
  0
LINE
  5
2F2
  8
図枠
 10
1136.9968872115001
 20
-351.12434698110002
 30
0.0
 11
919.49688721150005
 21
-351.12434698110002
 31
0.0
  0
ENDBLK
  5
2F3
  8
0
  0
BLOCK
  8
0
  2
CLUMP6
 70
     0
 10
0.0
 20
0.0
 30
0.0
  3
CLUMP6
  1

  0
LINE
  5
2F7
  8
図枠
 10
1007.9968872115001
 20
-366.12434698110002
 30
0.0
 11
1007.9968872115001
 21
-358.62434698110002
 31
0.0
  0
LINE
  5
2F8
  8
図枠
 10
919.49688721150005
 20
-366.12434698110002
 30
0.0
 11
919.49688721150005
 21
-358.62434698110002
 31
0.0
  0
LINE
  5
2F9
  8
図枠
 10
932.99688721149994
 20
-366.12434698110002
 30
0.0
 11
932.99688721149994
 21
-358.62434698110002
 31
0.0
  0
LINE
  5
2FA
  8
図枠
 10
1090.4968872115001
 20
-366.12434698110002
 30
0.0
 11
1090.4968872115001
 21
-358.62434698110002
 31
0.0
  0
LINE
  5
2FB
  8
図枠
 10
1076.9968872115001
 20
-366.12434698110002
 30
0.0
 11
1076.9968872115001
 21
-358.62434698110002
 31
0.0
  0
LINE
  5
2FC
  8
図枠
 10
1136.9968872115001
 20
-358.62434698110002
 30
0.0
 11
919.49688721150005
 21
-358.62434698110002
 31
0.0
  0
ENDBLK
  5
2FD
  8
0
  0
BLOCK
  8
0
  2
*D17
 70
     1
 10
0.0
 20
0.0
 30
0.0
  3
*D17
  1

  0
TEXT
  5
313
  8
0
 62
     0
 10
696.81735047289999
 20
-40.634659809600002
 30
0.0
 40
5.3974999188999986
  1
167
  0
LINE
  5
314
  8
0
 62
     0
 10
785.07985040129995
 20
-78.784566564100004
 30
0.0
 11
785.07985040129995
 21
-42.087159795300003
 31
0.0
  0
LINE
  5
315
  8
0
 62
     0
 10
618.07985040129995
 20
-78.784566564100004
 30
0.0
 11
618.07985040129995
 21
-42.087159795300003
 31
0.0
  0
LINE
  5
316
  8
0
 62
     0
 10
785.07985040129995
 20
-42.587159795300003
 30
0.0
 11
709.51735028209998
 21
-42.587159795300003
 31
0.0
  0
LINE
  5
317
  8
0
 62
     0
 10
785.07985040129995
 20
-42.587159795300003
 30
0.0
 11
693.64235052050003
 21
-42.587159795300003
 31
0.0
  0
LINE
  5
318
  8
0
 62
     0
 10
618.07985040129995
 20
-42.587159795300003
 30
0.0
 11
709.51735028209998
 21
-42.587159795300003
 31
0.0
  0
LINE
  5
319
  8
0
 62
     0
 10
618.07985040129995
 20
-42.587159795300003
 30
0.0
 11
693.64235052050003
 21
-42.587159795300003
 31
0.0
  0
LINE
  5
31A
  8
0
 62
     0
 10
618.07985040129995
 20
-42.587159795300003
 30
0.0
 11
621.07985040129995
 21
-42.587159795300003
 31
0.0
  0
SOLID
  5
31B
  8
0
 62
     0
 10
618.07985040129995
 20
-42.587159795300003
 30
0.0
 11
622.57985040129995
 21
-41.462159795300003
 31
0.0
 12
622.57985040129995
 22
-43.712159795299989
 32
0.0
 13
621.45485040129995
 23
-42.587159795300003
 33
0.0
  0
LINE
  5
31C
  8
0
 62
     0
 10
785.07985040129995
 20
-42.587159795300003
 30
0.0
 11
782.07985040130006
 21
-42.587159795300003
 31
0.0
  0
SOLID
  5
31D
  8
0
 62
     0
 10
785.07985040129995
 20
-42.587159795300003
 30
0.0
 11
780.57985040129995
 21
-43.712159795299989
 31
0.0
 12
780.57985040129995
 22
-41.462159795300003
 32
0.0
 13
781.70485040129995
 23
-42.587159795300003
 33
0.0
  0
ENDBLK
  5
31E
  8
0
  0
BLOCK
  8
0
  2
CLUMP7
 70
     0
 10
0.0
 20
0.0
 30
0.0
  3
CLUMP7
  1

  0
LINE
  5
32C
  8
図枠
 10
1006.9787660349
 20
-419.2593375308
 30
0.0
 11
1008.4787660349
 21
-417.0093375308
 31
0.0
  0
LINE
  5
32D
  8
図枠
 10
984.98785694399987
 20
-417.0093375308
 30
0.0
 11
984.98785694399987
 21
-420.00933753079988
 31
0.0
  0
LINE
  5
32E
  8
図枠
 10
1020.5784014101
 20
-422.25933753079988
 30
0.0
 11
1025.3049900072999
 21
-422.25933753079988
 31
0.0
  0
LINE
  5
32F
  8
図枠
 10
994.97876603489999
 20
-427.50933753079988
 30
0.0
 11
998.72876603489999
 21
-427.50933753079988
 31
0.0
  0
LINE
  5
330
  8
図枠
 10
994.97876603489999
 20
-420.49250293199998
 30
0.0
 11
1000.9787660349
 21
-420.49250293199998
 31
0.0
  0
INSERT
  5
331
  8
0
  6
CONTINUOUS
  2
*U60
 10
0.0
 20
0.0
 30
0.0
  0
LINE
  5
332
  8
図枠
 62
     5
 10
1031.9968872115001
 20
-33.124346981100011
 30
0.0
 11
1031.9968872115001
 21
-10.6243469811
 31
0.0
  0
LINE
  5
333
  8
図枠
 62
     5
 10
1106.9968872115001
 20
-33.124346981100011
 30
0.0
 11
1106.9968872115001
 21
-10.6243469811
 31
0.0
  0
LINE
  5
334
  8
図枠
 62
     5
 10
1007.9968872115001
 20
-33.124346981100011
 30
0.0
 11
1007.9968872115001
 21
-10.6243469811
 31
0.0
  0
LINE
  5
335
  8
図枠
 62
     5
 10
997.8579591324999
 20
-24.978159354599999
 30
0.0
 11
1005.2829591325
 21
-24.978159354599999
 31
0.0
  0
LINE
  5
336
  8
図枠
 62
     5
 10
1001.5704591325
 20
-25.9729207315
 30
0.0
 11
1005.2829591325
 21
-32.4031593546
 31
0.0
  0
LINE
  5
337
  8
図枠
 62
     5
 10
995.99688721149982
 20
-33.124346981100011
 30
0.0
 11
995.99688721149982
 21
-10.6243469811
 31
0.0
  0
LINE
  5
338
  8
図枠
 62
     5
 10
1121.9968872115001
 20
-33.124346981100011
 30
0.0
 11
1121.9968872115001
 21
-10.6243469811
 31
0.0
  0
LINE
  5
339
  8
図枠
 62
     5
 10
995.99688721149982
 20
-18.1243469811
 30
0.0
 11
1136.9968872115001
 21
-18.1243469811
 31
0.0
  0
LINE
  5
33A
  8
図枠
 62
     5
 10
995.99688721149982
 20
-25.6243469811
 30
0.0
 11
1136.9968872115001
 21
-25.6243469811
 31
0.0
  0
LINE
  5
33B
  8
図枠
 62
     5
 10
995.99688721149982
 20
-33.124346981100011
 30
0.0
 11
1136.9968872115001
 21
-33.124346981100011
 31
0.0
  0
INSERT
  5
33C
  8
0
  6
CONTINUOUS
  2
*U61
 10
0.0
 20
0.0
 30
0.0
  0
LINE
  5
33D
  8
図枠
 62
     5
 10
536.99688721150005
 20
-430.62434698110002
 30
0.0
 11
536.99688721150005
 21
-10.6243469811
 31
0.0
  0
LINE
  5
33E
  8
図枠
 62
     5
 10
536.99688721150005
 20
-430.62434698110002
 30
0.0
 11
1136.9968872115001
 21
-430.62434698110002
 31
0.0
  0
LINE
  5
33F
  8
図枠
 62
     5
 10
1136.9968872115001
 20
-10.6243469811
 30
0.0
 11
536.99688721150005
 21
-10.6243469811
 31
0.0
  0
LINE
  5
340
  8
図枠
 62
     5
 10
1136.9968872115001
 20
-430.62434698110002
 30
0.0
 11
1136.9968872115001
 21
-10.6243469811
 31
0.0
  0
LINE
  5
341
  8
図枠
 10
994.97876603489999
 20
-420.97566833320002
 30
0.0
 11
994.97876603489999
 21
-420.49250293199998
 31
0.0
  0
LINE
  5
342
  8
図枠
 10
976.51120122659995
 20
-420.00933753079988
 30
0.0
 11
976.51120122659995
 21
-422.25933753079988
 31
0.0
  0
LINE
  5
343
  8
図枠
 62
     5
 10
1001.5704591325
 20
-18.5479207315
 30
0.0
 11
1005.2829591325
 21
-24.978159354599999
 31
0.0
  0
LINE
  5
344
  8
図枠
 62
     5
 10
1001.5704591325
 20
-25.9729207315
 30
0.0
 11
997.8579591324999
 21
-32.4031593546
 31
0.0
  0
INSERT
  5
345
  8
0
  6
CONTINUOUS
  2
*U62
 10
0.0
 20
0.0
 30
0.0
  0
LINE
  5
346
  8
図枠
  6
DOT
 10
529.52688721150002
 20
-436.96934698109987
 30
0.0
 11
529.52688721150002
 21
-4.2793469810999989
 31
0.0
  0
LINE
  5
347
  8
図枠
  6
DOT
 10
1144.4668872115001
 20
-436.96934698109987
 30
0.0
 11
1144.4668872115001
 21
-4.2793469810999989
 31
0.0
  0
LINE
  5
348
  8
図枠
  6
DOT
 10
529.52688721150002
 20
-436.96934698109987
 30
0.0
 11
1144.4668872115001
 21
-436.96934698109987
 31
0.0
  0
LINE
  5
349
  8
図枠
 10
981.98785694399999
 20
-424.5093375308
 30
0.0
 11
981.98785694399999
 21
-422.25933753079988
 31
0.0
  0
LINE
  5
34A
  8
図枠
  6
DOT
 10
1144.4668872115001
 20
-4.2793469810999989
 30
0.0
 11
529.52688721150002
 21
-4.2793469810999989
 31
0.0
  0
LINE
  5
34B
  8
図枠
 10
978.23785694399999
 20
-422.25933753079988
 30
0.0
 11
978.23785694399999
 21
-424.5093375308
 31
0.0
  0
LINE
  5
34C
  8
図枠
 10
988.73785694389994
 20
-419.2593375308
 30
0.0
 11
990.98785694389994
 21
-417.0093375308
 31
0.0
  0
LINE
  5
34D
  8
図枠
 10
1016.6969900073
 20
-423.45933753079998
 30
0.0
 11
1016.3449900073
 21
-422.25933753079988
 31
0.0
  0
LINE
  5
34E
  8
図枠
 10
981.98785694399999
 20
-420.00933753079988
 30
0.0
 11
981.98785694399999
 21
-419.2593375308
 31
0.0
  0
LINE
  5
34F
  8
図枠
 10
1005.272845063
 20
-424.2830343441999
 30
0.0
 11
1005.0056919733
 21
-424.54460156049998
 31
0.0
  0
LINE
  5
350
  8
図枠
 10
1006.9787660349
 20
-419.2593375308
 30
0.0
 11
1008.4787660349
 21
-417.0093375308
 31
0.0
  0
LINE
  5
351
  8
図枠
 10
1025.3049900072999
 20
-423.45933753079998
 30
0.0
 11
1025.3049900072999
 21
-426.15933753079997
 31
0.0
  0
LINE
  5
352
  8
図枠
 10
1008.4787660349
 20
-425.25933753079988
 30
0.0
 11
1008.4787660349
 21
-427.50933753079988
 31
0.0
  0
LINE
  5
353
  8
図枠
 10
1019.8014365414
 20
-419.55933753080001
 30
0.0
 11
1025.3049900072999
 21
-419.55933753080001
 31
0.0
  0
LINE
  5
354
  8
図枠
 10
1019.8014365414
 20
-419.55933753080001
 30
0.0
 11
1019.581845166
 21
-418.79624419509992
 31
0.0
  0
LINE
  5
355
  8
図枠
 10
1008.4787660349
 20
-417.0093375308
 30
0.0
 11
994.97876603489999
 21
-417.0093375308
 31
0.0
  0
INSERT
  5
356
  8
0
  6
CONTINUOUS
  2
*U63
 10
0.0
 20
0.0
 30
0.0
  0
LINE
  5
357
  8
図枠
 10
1018.1049900073
 20
-428.2593375308
 30
0.0
 11
1017.4889900073
 21
-426.15933753079997
 31
0.0
  0
LINE
  5
358
  8
図枠
 10
982.73785694399999
 20
-425.25933753079988
 30
0.0
 11
978.23785694399999
 21
-425.25933753079988
 31
0.0
  0
LINE
  5
359
  8
図枠
 10
994.97876603489999
 20
-419.70933753079998
 30
0.0
 11
1002.4787660349
 21
-419.70933753079998
 31
0.0
  0
LINE
  5
35A
  8
図枠
 10
1015.3257634791
 20
-387.57434698110001
 30
0.0
 11
1022.5257634791
 21
-385.7743469811
 31
0.0
  0
CIRCLE
  5
35B
  8
図枠
 10
1007.0968872115
 20
-389.37434698110002
 30
0.0
 40
3.6000000000000001
  0
INSERT
  5
35C
  8
0
  6
CONTINUOUS
  2
*U64
 10
0.0
 20
0.0
 30
0.0
  0
LINE
  5
35D
  8
図枠
 10
981.98785694399999
 20
-422.25933753079988
 30
0.0
 11
984.98785694399987
 21
-422.25933753079988
 31
0.0
  0
LINE
  5
35E
  8
図枠
 10
1011.8049900073
 20
-422.25933753079988
 30
0.0
 11
1016.3449900073
 21
-422.25933753079988
 31
0.0
  0
LINE
  5
35F
  8
図枠
 10
990.98785694389994
 20
-420.00933753079988
 30
0.0
 11
988.73785694389994
 21
-420.00933753079988
 31
0.0
  0
LINE
  5
360
  8
図枠
 10
988.73785694389994
 20
-420.00933753079988
 30
0.0
 11
988.73785694389994
 21
-419.2593375308
 31
0.0
  0
LINE
  5
361
  8
図枠
 10
1011.8049900073
 20
-419.55933753080001
 30
0.0
 11
1015.5529900073
 21
-419.55933753080001
 31
0.0
  0
LINE
  5
362
  8
図枠
 10
1019.581845166
 20
-418.79624419509992
 30
0.0
 11
1020.8049900073
 21
-417.0093375308
 31
0.0
  0
LINE
  5
363
  8
図枠
 10
994.97876603489999
 20
-427.50933753079988
 30
0.0
 11
994.97876603489999
 21
-425.25933753079988
 31
0.0
  0
LINE
  5
364
  8
図枠
 10
1031.9968872115001
 20
-381.12434698110002
 30
0.0
 11
1031.9968872115001
 21
-430.62434698110002
 31
0.0
  0
INSERT
  5
365
  8
0
  6
CONTINUOUS
  2
*U65
 10
0.0
 20
0.0
 30
0.0
  0
INSERT
  5
366
  8
0
  6
CONTINUOUS
  2
*U66
 10
0.0
 20
0.0
 30
0.0
  0
INSERT
  5
367
  8
0
  6
CONTINUOUS
  2
*U67
 10
0.0
 20
0.0
 30
0.0
  0
LINE
  5
368
  8
図枠
 62
     5
 10
997.8579591324999
 20
-32.4031593546
 30
0.0
 11
1005.2829591325
 21
-32.4031593546
 31
0.0
  0
LINE
  5
369
  8
図枠
 10
976.51120122659995
 20
-422.25933753079988
 30
0.0
 11
978.01120122659995
 21
-422.25933753079988
 31
0.0
  0
ARC
  5
36A
  8
図枠
 10
998.72876603489999
 20
-419.2593375308
 30
0.0
 40
8.25
 50
322.48761197969998
 51
0.0
  0
LINE
  5
36B
  8
図枠
 10
978.23785694399999
 20
-427.50933753079988
 30
0.0
 11
984.23785694399987
 21
-427.50933753079988
 31
0.0
  0
LINE
  5
36C
  8
図枠
 10
1011.8049900073
 20
-426.15933753079997
 30
0.0
 11
1017.4889900073
 21
-426.15933753079997
 31
0.0
  0
ARC
  5
36D
  8
図枠
 10
982.73785694399999
 20
-423.00933753079988
 30
0.0
 40
2.25
 50
270.0
 51
0.0
  0
LINE
  5
36E
  8
図枠
 10
1011.8049900073
 20
-423.45933753079998
 30
0.0
 11
1011.8049900073
 21
-426.15933753079997
 31
0.0
  0
LINE
  5
36F
  8
図枠
 10
978.23785694399999
 20
-424.5093375308
 30
0.0
 11
981.98785694399999
 21
-424.5093375308
 31
0.0
  0
LINE
  5
370
  8
図枠
 10
1001.7832347724
 20
-422.28794388839998
 30
0.0
 11
1001.4223410629
 21
-422.68655142929998
 31
0.0
  0
LINE
  5
371
  8
図枠
 10
1022.3049900073
 20
-428.2593375308
 30
0.0
 11
1018.1049900073
 21
-428.2593375308
 31
0.0
  0
LINE
  5
372
  8
図枠
 10
984.98785694399987
 20
-422.25933753079988
 30
0.0
 11
984.98785694399987
 21
-423.00933753079988
 31
0.0
  0
LINE
  5
373
  8
図枠
 10
1136.9968872115001
 20
-381.12434698110002
 30
0.0
 11
919.49688721150005
 21
-381.12434698110002
 31
0.0
  0
LINE
  5
374
  8
図枠
 10
1022.5257634791
 20
-385.7743469811
 30
0.0
 11
1022.5257634791
 21
-392.97434698109998
 31
0.0
  0
LINE
  5
375
  8
図枠
 62
     5
 10
1001.5704591325
 20
-18.5479207315
 30
0.0
 11
997.8579591324999
 21
-24.978159354599999
 31
0.0
  0
LINE
  5
376
  8
図枠
 10
990.98785694389994
 20
-417.0093375308
 30
0.0
 11
984.98785694399987
 21
-417.0093375308
 31
0.0
  0
LINE
  5
377
  8
図枠
 10
988.73785694389994
 20
-423.00933753079988
 30
0.0
 11
988.73785694389994
 21
-422.25933753079988
 31
0.0
  0
LINE
  5
378
  8
図枠
 10
1011.8049900073
 20
-419.55933753080001
 30
0.0
 11
1011.8049900073
 21
-422.25933753079988
 31
0.0
  0
LINE
  5
379
  8
図枠
 10
984.98785694399987
 20
-420.00933753079988
 30
0.0
 11
981.98785694399999
 21
-420.00933753079988
 31
0.0
  0
LINE
  5
37A
  8
図枠
 10
984.23785694399987
 20
-417.0093375308
 30
0.0
 11
978.23785694399999
 21
-417.0093375308
 31
0.0
  0
LINE
  5
37B
  8
図枠
 10
981.98785694399999
 20
-419.2593375308
 30
0.0
 11
984.23785694399987
 21
-417.0093375308
 31
0.0
  0
LINE
  5
37C
  8
図枠
 10
978.23785694399999
 20
-417.0093375308
 30
0.0
 11
978.23785694399999
 21
-420.00933753079988
 31
0.0
  0
LINE
  5
37D
  8
図枠
 10
1021.7006839983
 20
-426.15933753079997
 30
0.0
 11
1025.3049900072999
 21
-426.15933753079997
 31
0.0
  0
LINE
  5
37E
  8
図枠
 10
1015.5529900073
 20
-419.55933753080001
 30
0.0
 11
1014.8049900073
 21
-417.0093375308
 31
0.0
  0
LINE
  5
37F
  8
図枠
 10
1011.8049900073
 20
-423.45933753079998
 30
0.0
 11
1016.6969900073
 21
-423.45933753079998
 31
0.0
  0
LINE
  5
380
  8
図枠
 10
1020.9237191295
 20
-423.45933753079998
 30
0.0
 11
1020.5784014101
 21
-422.25933753079988
 31
0.0
  0
ARC
  5
381
  8
図枠
 10
996.77876603490006
 20
-419.55933753080001
 30
0.0
 40
5.7000000000000002
 50
270.0
 51
298.08590481520002
  0
INSERT
  5
382
  8
0
  6
CONTINUOUS
  2
*U68
 10
0.0
 20
0.0
 30
0.0
  0
LINE
  5
383
  8
図枠
 10
923.24688721149994
 20
-389.37434698110002
 30
0.0
 11
953.24688721150005
 21
-389.37434698110002
 31
0.0
  0
LINE
  5
384
  8
図枠
 10
956.99688721150005
 20
-381.12434698110002
 30
0.0
 11
956.99688721150005
 21
-397.62434698110002
 31
0.0
  0
LINE
  5
385
  8
図枠
 10
919.49688721150005
 20
-397.62434698110002
 30
0.0
 11
1136.9968872115001
 21
-397.62434698110002
 31
0.0
  0
LINE
  5
386
  8
図枠
 10
994.49688721150005
 20
-381.12434698110002
 30
0.0
 11
994.49688721150005
 21
-397.62434698110002
 31
0.0
  0
LINE
  5
387
  8
図枠
  6
BORDER
 10
1007.0968872115
 20
-383.97434698109998
 30
0.0
 11
1007.0968872115
 21
-394.7743469811
 31
0.0
  0
LINE
  5
388
  8
図枠
  6
BORDER
 10
1007.0968872115
 20
-383.97434698109998
 30
0.0
 11
1007.0968872115
 21
-394.7743469811
 31
0.0
  0
LINE
  5
389
  8
図枠
 10
1025.3049900072999
 20
-419.55933753080001
 30
0.0
 11
1025.3049900072999
 21
-422.25933753079988
 31
0.0
  0
LINE
  5
38A
  8
図枠
 10
960.74688721149994
 20
-389.37434698110002
 30
0.0
 11
990.74688721150005
 21
-389.37434698110002
 31
0.0
  0
INSERT
  5
38B
  8
0
  6
CONTINUOUS
  2
*U69
 10
0.0
 20
0.0
 30
0.0
  0
CIRCLE
  5
38C
  8
図枠
 10
1007.0968872115
 20
-389.37434698110002
 30
0.0
 40
3.6000000000000001
  0
LINE
  5
38D
  8
図枠
 10
1015.3257634791
 20
-387.57434698110001
 30
0.0
 11
1022.5257634791
 21
-385.7743469811
 31
0.0
  0
INSERT
  5
38E
  8
0
  6
CONTINUOUS
  2
*U70
 10
0.0
 20
0.0
 30
0.0
  0
CIRCLE
  5
38F
  8
図枠
 10
1007.0968872115
 20
-389.37434698110002
 30
0.0
 40
1.8
  0
LINE
  5
390
  8
図枠
 10
1022.3049900073
 20
-428.2593375308
 30
0.0
 11
1021.7006839983
 21
-426.15933753079997
 31
0.0
  0
LINE
  5
391
  8
図枠
 10
1020.9237191295
 20
-423.45933753079998
 30
0.0
 11
1025.3049900072999
 21
-423.45933753079998
 31
0.0
  0
LINE
  5
392
  8
図枠
 10
994.97876603489999
 20
-425.25933753079988
 30
0.0
 11
996.77876603490006
 21
-425.25933753079988
 31
0.0
  0
LINE
  5
393
  8
図枠
 10
1014.8049900073
 20
-417.0093375308
 30
0.0
 11
1020.8049900073
 21
-417.0093375308
 31
0.0
  0
LINE
  5
394
  8
図枠
 10
978.23785694399999
 20
-420.00933753079988
 30
0.0
 11
976.51120122659995
 21
-420.00933753079988
 31
0.0
  0
LINE
  5
395
  8
図枠
 10
994.97876603489999
 20
-425.25933753079988
 30
0.0
 11
994.97876603489999
 21
-427.50933753079988
 31
0.0
  0
LINE
  5
396
  8
図枠
 10
978.23785694399999
 20
-422.25933753079988
 30
0.0
 11
978.01120122659995
 21
-422.25933753079988
 31
0.0
  0
LINE
  5
397
  8
図枠
 10
978.23785694399999
 20
-425.25933753079988
 30
0.0
 11
978.23785694399999
 21
-427.50933753079988
 31
0.0
  0
ARC
  5
398
  8
図枠
 10
996.77876603490006
 20
-419.55933753080001
 30
0.0
 40
5.7000000000000002
 50
331.39928138329998
 51
358.49204224580001
  0
LINE
  5
399
  8
図枠
 10
988.73785694389994
 20
-422.25933753079988
 30
0.0
 11
990.98785694389994
 21
-422.25933753079988
 31
0.0
  0
ARC
  5
39A
  8
図枠
 10
998.72876603489999
 20
-419.2593375308
 30
0.0
 40
8.25
 50
270.0
 51
302.54495885400001
  0
LINE
  5
39B
  8
図枠
 10
1015.3257634791
 20
-391.17434698109997
 30
0.0
 11
1022.5257634791
 21
-392.97434698109998
 31
0.0
  0
LINE
  5
39C
  8
図枠
 10
1015.3257634791
 20
-387.57434698110001
 30
0.0
 11
1015.3257634791
 21
-391.17434698109997
 31
0.0
  0
LINE
  5
39D
  8
図枠
 10
1022.5257634791
 20
-385.7743469811
 30
0.0
 11
1022.5257634791
 21
-392.97434698109998
 31
0.0
  0
LINE
  5
39E
  8
図枠
 10
1000.9787660349
 20
-420.49250293199998
 30
0.0
 11
1000.1302378974
 21
-421.34103106939989
 31
0.0
  0
LINE
  5
39F
  8
図枠
  6
BORDER
 10
1001.6968872115
 20
-389.37434698110002
 30
0.0
 11
1024.7968872115
 21
-389.37434698110002
 31
0.0
  0
CIRCLE
  5
3A0
  8
図枠
 10
1007.0968872115
 20
-389.37434698110002
 30
0.0
 40
1.8
  0
POLYLINE
  8
図枠
  5
52C
  66
     1
 10
0.000000
 20
0.000000
 30
0.000000
  70
     8
  0
VERTEX
  8
図枠
  5
52D
 10
1005.01
 20
-424.545
 30
0.000000
  70
    32
  0
VERTEX
  8
図枠
  5
52E
 10
1005.03
 20
-424.552
 30
0.000000
  70
    32
  0
VERTEX
  8
図枠
  5
52F
 10
1005.06
 20
-424.559
 30
0.000000
  70
    32
  0
VERTEX
  8
図枠
  5
530
 10
1005.08
 20
-424.567
 30
0.000000
  70
    32
  0
VERTEX
  8
図枠
  5
531
 10
1005.11
 20
-424.574
 30
0.000000
  70
    32
  0
VERTEX
  8
図枠
  5
532
 10
1005.14
 20
-424.581
 30
0.000000
  70
    32
  0
VERTEX
  8
図枠
  5
533
 10
1005.16
 20
-424.589
 30
0.000000
  70
    32
  0
VERTEX
  8
図枠
  5
534
 10
1005.19
 20
-424.596
 30
0.000000
  70
    32
  0
VERTEX
  8
図枠
  5
535
 10
1005.22
 20
-424.603
 30
0.000000
  70
    32
  0
VERTEX
  8
図枠
  5
536
 10
1005.24
 20
-424.610
 30
0.000000
  70
    32
  0
VERTEX
  8
図枠
  5
537
 10
1005.27
 20
-424.617
 30
0.000000
  70
    32
  0
VERTEX
  8
図枠
  5
538
 10
1005.30
 20
-424.624
 30
0.000000
  70
    32
  0
VERTEX
  8
図枠
  5
539
 10
1005.32
 20
-424.631
 30
0.000000
  70
    32
  0
VERTEX
  8
図枠
  5
53A
 10
1005.35
 20
-424.638
 30
0.000000
  70
    32
  0
VERTEX
  8
図枠
  5
53B
 10
1005.38
 20
-424.645
 30
0.000000
  70
    32
  0
VERTEX
  8
図枠
  5
53C
 10
1005.40
 20
-424.652
 30
0.000000
  70
    32
  0
VERTEX
  8
図枠
  5
53D
 10
1005.43
 20
-424.659
 30
0.000000
  70
    32
  0
VERTEX
  8
図枠
  5
53E
 10
1005.46
 20
-424.665
 30
0.000000
  70
    32
  0
VERTEX
  8
図枠
  5
53F
 10
1005.48
 20
-424.672
 30
0.000000
  70
    32
  0
VERTEX
  8
図枠
  5
540
 10
1005.51
 20
-424.679
 30
0.000000
  70
    32
  0
VERTEX
  8
図枠
  5
541
 10
1005.54
 20
-424.686
 30
0.000000
  70
    32
  0
VERTEX
  8
図枠
  5
542
 10
1005.56
 20
-424.692
 30
0.000000
  70
    32
  0
VERTEX
  8
図枠
  5
543
 10
1005.59
 20
-424.699
 30
0.000000
  70
    32
  0
VERTEX
  8
図枠
  5
544
 10
1005.62
 20
-424.705
 30
0.000000
  70
    32
  0
VERTEX
  8
図枠
  5
545
 10
1005.64
 20
-424.712
 30
0.000000
  70
    32
  0
VERTEX
  8
図枠
  5
546
 10
1005.67
 20
-424.718
 30
0.000000
  70
    32
  0
VERTEX
  8
図枠
  5
547
 10
1005.70
 20
-424.725
 30
0.000000
  70
    32
  0
VERTEX
  8
図枠
  5
548
 10
1005.72
 20
-424.731
 30
0.000000
  70
    32
  0
VERTEX
  8
図枠
  5
549
 10
1005.75
 20
-424.738
 30
0.000000
  70
    32
  0
VERTEX
  8
図枠
  5
54A
 10
1005.78
 20
-424.744
 30
0.000000
  70
    32
  0
VERTEX
  8
図枠
  5
54B
 10
1005.80
 20
-424.750
 30
0.000000
  70
    32
  0
VERTEX
  8
図枠
  5
54C
 10
1005.83
 20
-424.757
 30
0.000000
  70
    32
  0
VERTEX
  8
図枠
  5
54D
 10
1005.86
 20
-424.763
 30
0.000000
  70
    32
  0
VERTEX
  8
図枠
  5
54E
 10
1005.88
 20
-424.769
 30
0.000000
  70
    32
  0
VERTEX
  8
図枠
  5
54F
 10
1005.91
 20
-424.775
 30
0.000000
  70
    32
  0
VERTEX
  8
図枠
  5
550
 10
1005.94
 20
-424.782
 30
0.000000
  70
    32
  0
VERTEX
  8
図枠
  5
551
 10
1005.97
 20
-424.788
 30
0.000000
  70
    32
  0
VERTEX
  8
図枠
  5
552
 10
1005.99
 20
-424.794
 30
0.000000
  70
    32
  0
VERTEX
  8
図枠
  5
553
 10
1006.02
 20
-424.800
 30
0.000000
  70
    32
  0
VERTEX
  8
図枠
  5
554
 10
1006.05
 20
-424.806
 30
0.000000
  70
    32
  0
VERTEX
  8
図枠
  5
555
 10
1006.07
 20
-424.812
 30
0.000000
  70
    32
  0
VERTEX
  8
図枠
  5
556
 10
1006.10
 20
-424.818
 30
0.000000
  70
    32
  0
VERTEX
  8
図枠
  5
557
 10
1006.13
 20
-424.824
 30
0.000000
  70
    32
  0
VERTEX
  8
図枠
  5
558
 10
1006.15
 20
-424.830
 30
0.000000
  70
    32
  0
VERTEX
  8
図枠
  5
559
 10
1006.18
 20
-424.836
 30
0.000000
  70
    32
  0
VERTEX
  8
図枠
  5
55A
 10
1006.21
 20
-424.842
 30
0.000000
  70
    32
  0
VERTEX
  8
図枠
  5
55B
 10
1006.24
 20
-424.847
 30
0.000000
  70
    32
  0
VERTEX
  8
図枠
  5
55C
 10
1006.26
 20
-424.853
 30
0.000000
  70
    32
  0
VERTEX
  8
図枠
  5
55D
 10
1006.29
 20
-424.859
 30
0.000000
  70
    32
  0
VERTEX
  8
図枠
  5
55E
 10
1006.32
 20
-424.865
 30
0.000000
  70
    32
  0
VERTEX
  8
図枠
  5
55F
 10
1006.35
 20
-424.870
 30
0.000000
  70
    32
  0
VERTEX
  8
図枠
  5
560
 10
1006.37
 20
-424.876
 30
0.000000
  70
    32
  0
VERTEX
  8
図枠
  5
561
 10
1006.40
 20
-424.882
 30
0.000000
  70
    32
  0
VERTEX
  8
図枠
  5
562
 10
1006.43
 20
-424.888
 30
0.000000
  70
    32
  0
VERTEX
  8
図枠
  5
563
 10
1006.45
 20
-424.893
 30
0.000000
  70
    32
  0
VERTEX
  8
図枠
  5
564
 10
1006.48
 20
-424.899
 30
0.000000
  70
    32
  0
VERTEX
  8
図枠
  5
565
 10
1006.51
 20
-424.904
 30
0.000000
  70
    32
  0
VERTEX
  8
図枠
  5
566
 10
1006.54
 20
-424.910
 30
0.000000
  70
    32
  0
VERTEX
  8
図枠
  5
567
 10
1006.56
 20
-424.915
 30
0.000000
  70
    32
  0
VERTEX
  8
図枠
  5
568
 10
1006.59
 20
-424.921
 30
0.000000
  70
    32
  0
VERTEX
  8
図枠
  5
569
 10
1006.62
 20
-424.926
 30
0.000000
  70
    32
  0
VERTEX
  8
図枠
  5
56A
 10
1006.65
 20
-424.932
 30
0.000000
  70
    32
  0
VERTEX
  8
図枠
  5
56B
 10
1006.67
 20
-424.937
 30
0.000000
  70
    32
  0
VERTEX
  8
図枠
  5
56C
 10
1006.70
 20
-424.943
 30
0.000000
  70
    32
  0
VERTEX
  8
図枠
  5
56D
 10
1006.73
 20
-424.948
 30
0.000000
  70
    32
  0
VERTEX
  8
図枠
  5
56E
 10
1006.76
 20
-424.954
 30
0.000000
  70
    32
  0
VERTEX
  8
図枠
  5
56F
 10
1006.78
 20
-424.959
 30
0.000000
  70
    32
  0
VERTEX
  8
図枠
  5
570
 10
1006.81
 20
-424.964
 30
0.000000
  70
    32
  0
VERTEX
  8
図枠
  5
571
 10
1006.84
 20
-424.970
 30
0.000000
  70
    32
  0
VERTEX
  8
図枠
  5
572
 10
1006.87
 20
-424.975
 30
0.000000
  70
    32
  0
VERTEX
  8
図枠
  5
573
 10
1006.89
 20
-424.980
 30
0.000000
  70
    32
  0
VERTEX
  8
図枠
  5
574
 10
1006.92
 20
-424.985
 30
0.000000
  70
    32
  0
VERTEX
  8
図枠
  5
575
 10
1006.95
 20
-424.991
 30
0.000000
  70
    32
  0
VERTEX
  8
図枠
  5
576
 10
1006.98
 20
-424.996
 30
0.000000
  70
    32
  0
VERTEX
  8
図枠
  5
577
 10
1007.00
 20
-425.001
 30
0.000000
  70
    32
  0
VERTEX
  8
図枠
  5
578
 10
1007.03
 20
-425.006
 30
0.000000
  70
    32
  0
VERTEX
  8
図枠
  5
579
 10
1007.06
 20
-425.011
 30
0.000000
  70
    32
  0
VERTEX
  8
図枠
  5
57A
 10
1007.09
 20
-425.017
 30
0.000000
  70
    32
  0
VERTEX
  8
図枠
  5
57B
 10
1007.12
 20
-425.022
 30
0.000000
  70
    32
  0
VERTEX
  8
図枠
  5
57C
 10
1007.14
 20
-425.027
 30
0.000000
  70
    32
  0
VERTEX
  8
図枠
  5
57D
 10
1007.17
 20
-425.032
 30
0.000000
  70
    32
  0
VERTEX
  8
図枠
  5
57E
 10
1007.20
 20
-425.037
 30
0.000000
  70
    32
  0
VERTEX
  8
図枠
  5
57F
 10
1007.23
 20
-425.042
 30
0.000000
  70
    32
  0
VERTEX
  8
図枠
  5
580
 10
1007.25
 20
-425.047
 30
0.000000
  70
    32
  0
VERTEX
  8
図枠
  5
581
 10
1007.28
 20
-425.052
 30
0.000000
  70
    32
  0
VERTEX
  8
図枠
  5
582
 10
1007.31
 20
-425.057
 30
0.000000
  70
    32
  0
VERTEX
  8
図枠
  5
583
 10
1007.34
 20
-425.062
 30
0.000000
  70
    32
  0
VERTEX
  8
図枠
  5
584
 10
1007.36
 20
-425.067
 30
0.000000
  70
    32
  0
VERTEX
  8
図枠
  5
585
 10
1007.39
 20
-425.072
 30
0.000000
  70
    32
  0
VERTEX
  8
図枠
  5
586
 10
1007.42
 20
-425.077
 30
0.000000
  70
    32
  0
VERTEX
  8
図枠
  5
587
 10
1007.45
 20
-425.082
 30
0.000000
  70
    32
  0
VERTEX
  8
図枠
  5
588
 10
1007.48
 20
-425.087
 30
0.000000
  70
    32
  0
VERTEX
  8
図枠
  5
589
 10
1007.50
 20
-425.092
 30
0.000000
  70
    32
  0
VERTEX
  8
図枠
  5
58A
 10
1007.53
 20
-425.097
 30
0.000000
  70
    32
  0
VERTEX
  8
図枠
  5
58B
 10
1007.56
 20
-425.102
 30
0.000000
  70
    32
  0
VERTEX
  8
図枠
  5
58C
 10
1007.59
 20
-425.107
 30
0.000000
  70
    32
  0
VERTEX
  8
図枠
  5
58D
 10
1007.61
 20
-425.112
 30
0.000000
  70
    32
  0
VERTEX
  8
図枠
  5
58E
 10
1007.64
 20
-425.116
 30
0.000000
  70
    32
  0
VERTEX
  8
図枠
  5
58F
 10
1007.67
 20
-425.121
 30
0.000000
  70
    32
  0
VERTEX
  8
図枠
  5
590
 10
1007.70
 20
-425.126
 30
0.000000
  70
    32
  0
VERTEX
  8
図枠
  5
591
 10
1007.73
 20
-425.131
 30
0.000000
  70
    32
  0
VERTEX
  8
図枠
  5
592
 10
1007.75
 20
-425.136
 30
0.000000
  70
    32
  0
VERTEX
  8
図枠
  5
593
 10
1007.78
 20
-425.141
 30
0.000000
  70
    32
  0
VERTEX
  8
図枠
  5
594
 10
1007.81
 20
-425.145
 30
0.000000
  70
    32
  0
VERTEX
  8
図枠
  5
595
 10
1007.84
 20
-425.150
 30
0.000000
  70
    32
  0
VERTEX
  8
図枠
  5
596
 10
1007.87
 20
-425.155
 30
0.000000
  70
    32
  0
VERTEX
  8
図枠
  5
597
 10
1007.89
 20
-425.160
 30
0.000000
  70
    32
  0
VERTEX
  8
図枠
  5
598
 10
1007.92
 20
-425.165
 30
0.000000
  70
    32
  0
VERTEX
  8
図枠
  5
599
 10
1007.95
 20
-425.169
 30
0.000000
  70
    32
  0
VERTEX
  8
図枠
  5
59A
 10
1007.98
 20
-425.174
 30
0.000000
  70
    32
  0
VERTEX
  8
図枠
  5
59B
 10
1008.00
 20
-425.179
 30
0.000000
  70
    32
  0
VERTEX
  8
図枠
  5
59C
 10
1008.03
 20
-425.184
 30
0.000000
  70
    32
  0
VERTEX
  8
図枠
  5
59D
 10
1008.06
 20
-425.188
 30
0.000000
  70
    32
  0
VERTEX
  8
図枠
  5
59E
 10
1008.09
 20
-425.193
 30
0.000000
  70
    32
  0
VERTEX
  8
図枠
  5
59F
 10
1008.12
 20
-425.198
 30
0.000000
  70
    32
  0
VERTEX
  8
図枠
  5
5A0
 10
1008.14
 20
-425.203
 30
0.000000
  70
    32
  0
VERTEX
  8
図枠
  5
5A1
 10
1008.17
 20
-425.207
 30
0.000000
  70
    32
  0
VERTEX
  8
図枠
  5
5A2
 10
1008.20
 20
-425.212
 30
0.000000
  70
    32
  0
VERTEX
  8
図枠
  5
5A3
 10
1008.23
 20
-425.217
 30
0.000000
  70
    32
  0
VERTEX
  8
図枠
  5
5A4
 10
1008.26
 20
-425.222
 30
0.000000
  70
    32
  0
VERTEX
  8
図枠
  5
5A5
 10
1008.28
 20
-425.226
 30
0.000000
  70
    32
  0
VERTEX
  8
図枠
  5
5A6
 10
1008.31
 20
-425.231
 30
0.000000
  70
    32
  0
VERTEX
  8
図枠
  5
5A7
 10
1008.34
 20
-425.236
 30
0.000000
  70
    32
  0
VERTEX
  8
図枠
  5
5A8
 10
1008.37
 20
-425.240
 30
0.000000
  70
    32
  0
VERTEX
  8
図枠
  5
5A9
 10
1008.40
 20
-425.245
 30
0.000000
  70
    32
  0
VERTEX
  8
図枠
  5
5AA
 10
1008.42
 20
-425.250
 30
0.000000
  70
    32
  0
VERTEX
  8
図枠
  5
5AB
 10
1008.45
 20
-425.255
 30
0.000000
  70
    32
  0
VERTEX
  8
図枠
  5
5AC
 10
1008.48
 20
-425.259
 30
0.000000
  70
    32
  0
SEQEND
  8
図枠
  5
5AD
  0
POLYLINE
  8
図枠
  5
5AE
  66
     1
 10
0.000000
 20
0.000000
 30
0.000000
  70
     8
  0
VERTEX
  8
図枠
  5
5AF
 10
1000.13
 20
-421.341
 30
0.000000
  70
    32
  0
VERTEX
  8
図枠
  5
5B0
 10
1000.14
 20
-421.352
 30
0.000000
  70
    32
  0
VERTEX
  8
図枠
  5
5B1
 10
1000.15
 20
-421.363
 30
0.000000
  70
    32
  0
VERTEX
  8
図枠
  5
5B2
 10
1000.16
 20
-421.374
 30
0.000000
  70
    32
  0
VERTEX
  8
図枠
  5
5B3
 10
1000.17
 20
-421.385
 30
0.000000
  70
    32
  0
VERTEX
  8
図枠
  5
5B4
 10
1000.18
 20
-421.396
 30
0.000000
  70
    32
  0
VERTEX
  8
図枠
  5
5B5
 10
1000.19
 20
-421.407
 30
0.000000
  70
    32
  0
VERTEX
  8
図枠
  5
5B6
 10
1000.20
 20
-421.418
 30
0.000000
  70
    32
  0
VERTEX
  8
図枠
  5
5B7
 10
1000.21
 20
-421.429
 30
0.000000
  70
    32
  0
VERTEX
  8
図枠
  5
5B8
 10
1000.22
 20
-421.440
 30
0.000000
  70
    32
  0
VERTEX
  8
図枠
  5
5B9
 10
1000.23
 20
-421.451
 30
0.000000
  70
    32
  0
VERTEX
  8
図枠
  5
5BA
 10
1000.24
 20
-421.462
 30
0.000000
  70
    32
  0
VERTEX
  8
図枠
  5
5BB
 10
1000.25
 20
-421.473
 30
0.000000
  70
    32
  0
VERTEX
  8
図枠
  5
5BC
 10
1000.26
 20
-421.484
 30
0.000000
  70
    32
  0
VERTEX
  8
図枠
  5
5BD
 10
1000.27
 20
-421.495
 30
0.000000
  70
    32
  0
VERTEX
  8
図枠
  5
5BE
 10
1000.28
 20
-421.506
 30
0.000000
  70
    32
  0
VERTEX
  8
図枠
  5
5BF
 10
1000.29
 20
-421.518
 30
0.000000
  70
    32
  0
VERTEX
  8
図枠
  5
5C0
 10
1000.30
 20
-421.529
 30
0.000000
  70
    32
  0
VERTEX
  8
図枠
  5
5C1
 10
1000.31
 20
-421.540
 30
0.000000
  70
    32
  0
VERTEX
  8
図枠
  5
5C2
 10
1000.32
 20
-421.551
 30
0.000000
  70
    32
  0
VERTEX
  8
図枠
  5
5C3
 10
1000.33
 20
-421.562
 30
0.000000
  70
    32
  0
VERTEX
  8
図枠
  5
5C4
 10
1000.34
 20
-421.573
 30
0.000000
  70
    32
  0
VERTEX
  8
図枠
  5
5C5
 10
1000.35
 20
-421.584
 30
0.000000
  70
    32
  0
VERTEX
  8
図枠
  5
5C6
 10
1000.36
 20
-421.595
 30
0.000000
  70
    32
  0
VERTEX
  8
図枠
  5
5C7
 10
1000.37
 20
-421.606
 30
0.000000
  70
    32
  0
VERTEX
  8
図枠
  5
5C8
 10
1000.38
 20
-421.617
 30
0.000000
  70
    32
  0
VERTEX
  8
図枠
  5
5C9
 10
1000.39
 20
-421.628
 30
0.000000
  70
    32
  0
VERTEX
  8
図枠
  5
5CA
 10
1000.40
 20
-421.639
 30
0.000000
  70
    32
  0
VERTEX
  8
図枠
  5
5CB
 10
1000.41
 20
-421.649
 30
0.000000
  70
    32
  0
VERTEX
  8
図枠
  5
5CC
 10
1000.42
 20
-421.660
 30
0.000000
  70
    32
  0
VERTEX
  8
図枠
  5
5CD
 10
1000.43
 20
-421.671
 30
0.000000
  70
    32
  0
VERTEX
  8
図枠
  5
5CE
 10
1000.44
 20
-421.682
 30
0.000000
  70
    32
  0
VERTEX
  8
図枠
  5
5CF
 10
1000.45
 20
-421.693
 30
0.000000
  70
    32
  0
VERTEX
  8
図枠
  5
5D0
 10
1000.46
 20
-421.704
 30
0.000000
  70
    32
  0
VERTEX
  8
図枠
  5
5D1
 10
1000.47
 20
-421.715
 30
0.000000
  70
    32
  0
VERTEX
  8
図枠
  5
5D2
 10
1000.48
 20
-421.726
 30
0.000000
  70
    32
  0
VERTEX
  8
図枠
  5
5D3
 10
1000.49
 20
-421.737
 30
0.000000
  70
    32
  0
VERTEX
  8
図枠
  5
5D4
 10
1000.50
 20
-421.748
 30
0.000000
  70
    32
  0
VERTEX
  8
図枠
  5
5D5
 10
1000.51
 20
-421.759
 30
0.000000
  70
    32
  0
VERTEX
  8
図枠
  5
5D6
 10
1000.52
 20
-421.770
 30
0.000000
  70
    32
  0
VERTEX
  8
図枠
  5
5D7
 10
1000.53
 20
-421.781
 30
0.000000
  70
    32
  0
VERTEX
  8
図枠
  5
5D8
 10
1000.54
 20
-421.792
 30
0.000000
  70
    32
  0
VERTEX
  8
図枠
  5
5D9
 10
1000.55
 20
-421.803
 30
0.000000
  70
    32
  0
VERTEX
  8
図枠
  5
5DA
 10
1000.56
 20
-421.813
 30
0.000000
  70
    32
  0
VERTEX
  8
図枠
  5
5DB
 10
1000.57
 20
-421.824
 30
0.000000
  70
    32
  0
VERTEX
  8
図枠
  5
5DC
 10
1000.58
 20
-421.835
 30
0.000000
  70
    32
  0
VERTEX
  8
図枠
  5
5DD
 10
1000.59
 20
-421.846
 30
0.000000
  70
    32
  0
VERTEX
  8
図枠
  5
5DE
 10
1000.60
 20
-421.857
 30
0.000000
  70
    32
  0
VERTEX
  8
図枠
  5
5DF
 10
1000.61
 20
-421.868
 30
0.000000
  70
    32
  0
VERTEX
  8
図枠
  5
5E0
 10
1000.62
 20
-421.879
 30
0.000000
  70
    32
  0
VERTEX
  8
図枠
  5
5E1
 10
1000.63
 20
-421.889
 30
0.000000
  70
    32
  0
VERTEX
  8
図枠
  5
5E2
 10
1000.64
 20
-421.900
 30
0.000000
  70
    32
  0
VERTEX
  8
図枠
  5
5E3
 10
1000.65
 20
-421.911
 30
0.000000
  70
    32
  0
VERTEX
  8
図枠
  5
5E4
 10
1000.66
 20
-421.922
 30
0.000000
  70
    32
  0
VERTEX
  8
図枠
  5
5E5
 10
1000.67
 20
-421.933
 30
0.000000
  70
    32
  0
VERTEX
  8
図枠
  5
5E6
 10
1000.68
 20
-421.944
 30
0.000000
  70
    32
  0
VERTEX
  8
図枠
  5
5E7
 10
1000.69
 20
-421.954
 30
0.000000
  70
    32
  0
VERTEX
  8
図枠
  5
5E8
 10
1000.70
 20
-421.965
 30
0.000000
  70
    32
  0
VERTEX
  8
図枠
  5
5E9
 10
1000.71
 20
-421.976
 30
0.000000
  70
    32
  0
VERTEX
  8
図枠
  5
5EA
 10
1000.72
 20
-421.987
 30
0.000000
  70
    32
  0
VERTEX
  8
図枠
  5
5EB
 10
1000.73
 20
-421.997
 30
0.000000
  70
    32
  0
VERTEX
  8
図枠
  5
5EC
 10
1000.74
 20
-422.008
 30
0.000000
  70
    32
  0
VERTEX
  8
図枠
  5
5ED
 10
1000.75
 20
-422.019
 30
0.000000
  70
    32
  0
VERTEX
  8
図枠
  5
5EE
 10
1000.76
 20
-422.030
 30
0.000000
  70
    32
  0
VERTEX
  8
図枠
  5
5EF
 10
1000.77
 20
-422.040
 30
0.000000
  70
    32
  0
VERTEX
  8
図枠
  5
5F0
 10
1000.78
 20
-422.051
 30
0.000000
  70
    32
  0
VERTEX
  8
図枠
  5
5F1
 10
1000.79
 20
-422.062
 30
0.000000
  70
    32
  0
VERTEX
  8
図枠
  5
5F2
 10
1000.80
 20
-422.072
 30
0.000000
  70
    32
  0
VERTEX
  8
図枠
  5
5F3
 10
1000.81
 20
-422.083
 30
0.000000
  70
    32
  0
VERTEX
  8
図枠
  5
5F4
 10
1000.82
 20
-422.094
 30
0.000000
  70
    32
  0
VERTEX
  8
図枠
  5
5F5
 10
1000.83
 20
-422.104
 30
0.000000
  70
    32
  0
VERTEX
  8
図枠
  5
5F6
 10
1000.84
 20
-422.115
 30
0.000000
  70
    32
  0
VERTEX
  8
図枠
  5
5F7
 10
1000.85
 20
-422.125
 30
0.000000
  70
    32
  0
VERTEX
  8
図枠
  5
5F8
 10
1000.86
 20
-422.136
 30
0.000000
  70
    32
  0
VERTEX
  8
図枠
  5
5F9
 10
1000.87
 20
-422.147
 30
0.000000
  70
    32
  0
VERTEX
  8
図枠
  5
5FA
 10
1000.88
 20
-422.157
 30
0.000000
  70
    32
  0
VERTEX
  8
図枠
  5
5FB
 10
1000.89
 20
-422.168
 30
0.000000
  70
    32
  0
VERTEX
  8
図枠
  5
5FC
 10
1000.90
 20
-422.178
 30
0.000000
  70
    32
  0
VERTEX
  8
図枠
  5
5FD
 10
1000.91
 20
-422.189
 30
0.000000
  70
    32
  0
VERTEX
  8
図枠
  5
5FE
 10
1000.92
 20
-422.199
 30
0.000000
  70
    32
  0
VERTEX
  8
図枠
  5
5FF
 10
1000.93
 20
-422.210
 30
0.000000
  70
    32
  0
VERTEX
  8
図枠
  5
600
 10
1000.94
 20
-422.220
 30
0.000000
  70
    32
  0
VERTEX
  8
図枠
  5
601
 10
1000.95
 20
-422.231
 30
0.000000
  70
    32
  0
VERTEX
  8
図枠
  5
602
 10
1000.96
 20
-422.241
 30
0.000000
  70
    32
  0
VERTEX
  8
図枠
  5
603
 10
1000.97
 20
-422.252
 30
0.000000
  70
    32
  0
VERTEX
  8
図枠
  5
604
 10
1000.98
 20
-422.262
 30
0.000000
  70
    32
  0
VERTEX
  8
図枠
  5
605
 10
1000.99
 20
-422.273
 30
0.000000
  70
    32
  0
VERTEX
  8
図枠
  5
606
 10
1001.00
 20
-422.283
 30
0.000000
  70
    32
  0
VERTEX
  8
図枠
  5
607
 10
1001.01
 20
-422.294
 30
0.000000
  70
    32
  0
VERTEX
  8
図枠
  5
608
 10
1001.02
 20
-422.304
 30
0.000000
  70
    32
  0
VERTEX
  8
図枠
  5
609
 10
1001.03
 20
-422.314
 30
0.000000
  70
    32
  0
VERTEX
  8
図枠
  5
60A
 10
1001.04
 20
-422.325
 30
0.000000
  70
    32
  0
VERTEX
  8
図枠
  5
60B
 10
1001.05
 20
-422.335
 30
0.000000
  70
    32
  0
VERTEX
  8
図枠
  5
60C
 10
1001.06
 20
-422.345
 30
0.000000
  70
    32
  0
VERTEX
  8
図枠
  5
60D
 10
1001.07
 20
-422.356
 30
0.000000
  70
    32
  0
VERTEX
  8
図枠
  5
60E
 10
1001.09
 20
-422.366
 30
0.000000
  70
    32
  0
VERTEX
  8
図枠
  5
60F
 10
1001.10
 20
-422.376
 30
0.000000
  70
    32
  0
VERTEX
  8
図枠
  5
610
 10
1001.11
 20
-422.387
 30
0.000000
  70
    32
  0
VERTEX
  8
図枠
  5
611
 10
1001.12
 20
-422.397
 30
0.000000
  70
    32
  0
VERTEX
  8
図枠
  5
612
 10
1001.13
 20
-422.407
 30
0.000000
  70
    32
  0
VERTEX
  8
図枠
  5
613
 10
1001.14
 20
-422.417
 30
0.000000
  70
    32
  0
VERTEX
  8
図枠
  5
614
 10
1001.15
 20
-422.428
 30
0.000000
  70
    32
  0
VERTEX
  8
図枠
  5
615
 10
1001.16
 20
-422.438
 30
0.000000
  70
    32
  0
VERTEX
  8
図枠
  5
616
 10
1001.17
 20
-422.448
 30
0.000000
  70
    32
  0
VERTEX
  8
図枠
  5
617
 10
1001.18
 20
-422.458
 30
0.000000
  70
    32
  0
VERTEX
  8
図枠
  5
618
 10
1001.19
 20
-422.468
 30
0.000000
  70
    32
  0
VERTEX
  8
図枠
  5
619
 10
1001.20
 20
-422.478
 30
0.000000
  70
    32
  0
VERTEX
  8
図枠
  5
61A
 10
1001.21
 20
-422.488
 30
0.000000
  70
    32
  0
VERTEX
  8
図枠
  5
61B
 10
1001.22
 20
-422.498
 30
0.000000
  70
    32
  0
VERTEX
  8
図枠
  5
61C
 10
1001.23
 20
-422.509
 30
0.000000
  70
    32
  0
VERTEX
  8
図枠
  5
61D
 10
1001.24
 20
-422.519
 30
0.000000
  70
    32
  0
VERTEX
  8
図枠
  5
61E
 10
1001.25
 20
-422.529
 30
0.000000
  70
    32
  0
VERTEX
  8
図枠
  5
61F
 10
1001.26
 20
-422.539
 30
0.000000
  70
    32
  0
VERTEX
  8
図枠
  5
620
 10
1001.27
 20
-422.549
 30
0.000000
  70
    32
  0
VERTEX
  8
図枠
  5
621
 10
1001.28
 20
-422.559
 30
0.000000
  70
    32
  0
VERTEX
  8
図枠
  5
622
 10
1001.29
 20
-422.569
 30
0.000000
  70
    32
  0
VERTEX
  8
図枠
  5
623
 10
1001.31
 20
-422.579
 30
0.000000
  70
    32
  0
VERTEX
  8
図枠
  5
624
 10
1001.32
 20
-422.588
 30
0.000000
  70
    32
  0
VERTEX
  8
図枠
  5
625
 10
1001.33
 20
-422.598
 30
0.000000
  70
    32
  0
VERTEX
  8
図枠
  5
626
 10
1001.34
 20
-422.608
 30
0.000000
  70
    32
  0
VERTEX
  8
図枠
  5
627
 10
1001.35
 20
-422.618
 30
0.000000
  70
    32
  0
VERTEX
  8
図枠
  5
628
 10
1001.36
 20
-422.628
 30
0.000000
  70
    32
  0
VERTEX
  8
図枠
  5
629
 10
1001.37
 20
-422.638
 30
0.000000
  70
    32
  0
VERTEX
  8
図枠
  5
62A
 10
1001.38
 20
-422.648
 30
0.000000
  70
    32
  0
VERTEX
  8
図枠
  5
62B
 10
1001.39
 20
-422.657
 30
0.000000
  70
    32
  0
VERTEX
  8
図枠
  5
62C
 10
1001.40
 20
-422.667
 30
0.000000
  70
    32
  0
VERTEX
  8
図枠
  5
62D
 10
1001.41
 20
-422.677
 30
0.000000
  70
    32
  0
VERTEX
  8
図枠
  5
62E
 10
1001.42
 20
-422.687
 30
0.000000
  70
    32
  0
SEQEND
  8
図枠
  5
62F
  0
POLYLINE
  8
図枠
  5
630
  66
     1
 10
0.000000
 20
0.000000
 30
0.000000
  70
     8
  0
VERTEX
  8
図枠
  5
631
 10
1003.17
 20
-426.214
 30
0.000000
  70
    32
  0
VERTEX
  8
図枠
  5
632
 10
1003.21
 20
-426.227
 30
0.000000
  70
    32
  0
VERTEX
  8
図枠
  5
633
 10
1003.25
 20
-426.240
 30
0.000000
  70
    32
  0
VERTEX
  8
図枠
  5
634
 10
1003.29
 20
-426.252
 30
0.000000
  70
    32
  0
VERTEX
  8
図枠
  5
635
 10
1003.33
 20
-426.265
 30
0.000000
  70
    32
  0
VERTEX
  8
図枠
  5
636
 10
1003.37
 20
-426.278
 30
0.000000
  70
    32
  0
VERTEX
  8
図枠
  5
637
 10
1003.41
 20
-426.290
 30
0.000000
  70
    32
  0
VERTEX
  8
図枠
  5
638
 10
1003.45
 20
-426.303
 30
0.000000
  70
    32
  0
VERTEX
  8
図枠
  5
639
 10
1003.49
 20
-426.315
 30
0.000000
  70
    32
  0
VERTEX
  8
図枠
  5
63A
 10
1003.53
 20
-426.327
 30
0.000000
  70
    32
  0
VERTEX
  8
図枠
  5
63B
 10
1003.57
 20
-426.340
 30
0.000000
  70
    32
  0
VERTEX
  8
図枠
  5
63C
 10
1003.61
 20
-426.352
 30
0.000000
  70
    32
  0
VERTEX
  8
図枠
  5
63D
 10
1003.65
 20
-426.364
 30
0.000000
  70
    32
  0
VERTEX
  8
図枠
  5
63E
 10
1003.69
 20
-426.376
 30
0.000000
  70
    32
  0
VERTEX
  8
図枠
  5
63F
 10
1003.74
 20
-426.389
 30
0.000000
  70
    32
  0
VERTEX
  8
図枠
  5
640
 10
1003.78
 20
-426.401
 30
0.000000
  70
    32
  0
VERTEX
  8
図枠
  5
641
 10
1003.82
 20
-426.413
 30
0.000000
  70
    32
  0
VERTEX
  8
図枠
  5
642
 10
1003.86
 20
-426.424
 30
0.000000
  70
    32
  0
VERTEX
  8
図枠
  5
643
 10
1003.90
 20
-426.436
 30
0.000000
  70
    32
  0
VERTEX
  8
図枠
  5
644
 10
1003.94
 20
-426.448
 30
0.000000
  70
    32
  0
VERTEX
  8
図枠
  5
645
 10
1003.98
 20
-426.460
 30
0.000000
  70
    32
  0
VERTEX
  8
図枠
  5
646
 10
1004.02
 20
-426.472
 30
0.000000
  70
    32
  0
VERTEX
  8
図枠
  5
647
 10
1004.06
 20
-426.483
 30
0.000000
  70
    32
  0
VERTEX
  8
図枠
  5
648
 10
1004.10
 20
-426.495
 30
0.000000
  70
    32
  0
VERTEX
  8
図枠
  5
649
 10
1004.14
 20
-426.506
 30
0.000000
  70
    32
  0
VERTEX
  8
図枠
  5
64A
 10
1004.19
 20
-426.518
 30
0.000000
  70
    32
  0
VERTEX
  8
図枠
  5
64B
 10
1004.23
 20
-426.529
 30
0.000000
  70
    32
  0
VERTEX
  8
図枠
  5
64C
 10
1004.27
 20
-426.541
 30
0.000000
  70
    32
  0
VERTEX
  8
図枠
  5
64D
 10
1004.31
 20
-426.552
 30
0.000000
  70
    32
  0
VERTEX
  8
図枠
  5
64E
 10
1004.35
 20
-426.563
 30
0.000000
  70
    32
  0
VERTEX
  8
図枠
  5
64F
 10
1004.39
 20
-426.575
 30
0.000000
  70
    32
  0
VERTEX
  8
図枠
  5
650
 10
1004.43
 20
-426.586
 30
0.000000
  70
    32
  0
VERTEX
  8
図枠
  5
651
 10
1004.47
 20
-426.597
 30
0.000000
  70
    32
  0
VERTEX
  8
図枠
  5
652
 10
1004.52
 20
-426.608
 30
0.000000
  70
    32
  0
VERTEX
  8
図枠
  5
653
 10
1004.56
 20
-426.619
 30
0.000000
  70
    32
  0
VERTEX
  8
図枠
  5
654
 10
1004.60
 20
-426.630
 30
0.000000
  70
    32
  0
VERTEX
  8
図枠
  5
655
 10
1004.64
 20
-426.641
 30
0.000000
  70
    32
  0
VERTEX
  8
図枠
  5
656
 10
1004.68
 20
-426.652
 30
0.000000
  70
    32
  0
VERTEX
  8
図枠
  5
657
 10
1004.72
 20
-426.663
 30
0.000000
  70
    32
  0
VERTEX
  8
図枠
  5
658
 10
1004.76
 20
-426.674
 30
0.000000
  70
    32
  0
VERTEX
  8
図枠
  5
659
 10
1004.81
 20
-426.684
 30
0.000000
  70
    32
  0
VERTEX
  8
図枠
  5
65A
 10
1004.85
 20
-426.695
 30
0.000000
  70
    32
  0
VERTEX
  8
図枠
  5
65B
 10
1004.89
 20
-426.706
 30
0.000000
  70
    32
  0
VERTEX
  8
図枠
  5
65C
 10
1004.93
 20
-426.716
 30
0.000000
  70
    32
  0
VERTEX
  8
図枠
  5
65D
 10
1004.97
 20
-426.727
 30
0.000000
  70
    32
  0
VERTEX
  8
図枠
  5
65E
 10
1005.01
 20
-426.738
 30
0.000000
  70
    32
  0
VERTEX
  8
図枠
  5
65F
 10
1005.06
 20
-426.748
 30
0.000000
  70
    32
  0
VERTEX
  8
図枠
  5
660
 10
1005.10
 20
-426.759
 30
0.000000
  70
    32
  0
VERTEX
  8
図枠
  5
661
 10
1005.14
 20
-426.769
 30
0.000000
  70
    32
  0
VERTEX
  8
図枠
  5
662
 10
1005.18
 20
-426.779
 30
0.000000
  70
    32
  0
VERTEX
  8
図枠
  5
663
 10
1005.22
 20
-426.790
 30
0.000000
  70
    32
  0
VERTEX
  8
図枠
  5
664
 10
1005.26
 20
-426.800
 30
0.000000
  70
    32
  0
VERTEX
  8
図枠
  5
665
 10
1005.31
 20
-426.810
 30
0.000000
  70
    32
  0
VERTEX
  8
図枠
  5
666
 10
1005.35
 20
-426.821
 30
0.000000
  70
    32
  0
VERTEX
  8
図枠
  5
667
 10
1005.39
 20
-426.831
 30
0.000000
  70
    32
  0
VERTEX
  8
図枠
  5
668
 10
1005.43
 20
-426.841
 30
0.000000
  70
    32
  0
VERTEX
  8
図枠
  5
669
 10
1005.47
 20
-426.851
 30
0.000000
  70
    32
  0
VERTEX
  8
図枠
  5
66A
 10
1005.52
 20
-426.861
 30
0.000000
  70
    32
  0
VERTEX
  8
図枠
  5
66B
 10
1005.56
 20
-426.871
 30
0.000000
  70
    32
  0
VERTEX
  8
図枠
  5
66C
 10
1005.60
 20
-426.881
 30
0.000000
  70
    32
  0
VERTEX
  8
図枠
  5
66D
 10
1005.64
 20
-426.891
 30
0.000000
  70
    32
  0
VERTEX
  8
図枠
  5
66E
 10
1005.68
 20
-426.901
 30
0.000000
  70
    32
  0
VERTEX
  8
図枠
  5
66F
 10
1005.73
 20
-426.911
 30
0.000000
  70
    32
  0
VERTEX
  8
図枠
  5
670
 10
1005.77
 20
-426.921
 30
0.000000
  70
    32
  0
VERTEX
  8
図枠
  5
671
 10
1005.81
 20
-426.931
 30
0.000000
  70
    32
  0
VERTEX
  8
図枠
  5
672
 10
1005.85
 20
-426.941
 30
0.000000
  70
    32
  0
VERTEX
  8
図枠
  5
673
 10
1005.89
 20
-426.951
 30
0.000000
  70
    32
  0
VERTEX
  8
図枠
  5
674
 10
1005.94
 20
-426.960
 30
0.000000
  70
    32
  0
VERTEX
  8
図枠
  5
675
 10
1005.98
 20
-426.970
 30
0.000000
  70
    32
  0
VERTEX
  8
図枠
  5
676
 10
1006.02
 20
-426.980
 30
0.000000
  70
    32
  0
VERTEX
  8
図枠
  5
677
 10
1006.06
 20
-426.990
 30
0.000000
  70
    32
  0
VERTEX
  8
図枠
  5
678
 10
1006.10
 20
-426.999
 30
0.000000
  70
    32
  0
VERTEX
  8
図枠
  5
679
 10
1006.15
 20
-427.009
 30
0.000000
  70
    32
  0
VERTEX
  8
図枠
  5
67A
 10
1006.19
 20
-427.018
 30
0.000000
  70
    32
  0
VERTEX
  8
図枠
  5
67B
 10
1006.23
 20
-427.028
 30
0.000000
  70
    32
  0
VERTEX
  8
図枠
  5
67C
 10
1006.27
 20
-427.037
 30
0.000000
  70
    32
  0
VERTEX
  8
図枠
  5
67D
 10
1006.31
 20
-427.047
 30
0.000000
  70
    32
  0
VERTEX
  8
図枠
  5
67E
 10
1006.36
 20
-427.056
 30
0.000000
  70
    32
  0
VERTEX
  8
図枠
  5
67F
 10
1006.40
 20
-427.066
 30
0.000000
  70
    32
  0
VERTEX
  8
図枠
  5
680
 10
1006.44
 20
-427.075
 30
0.000000
  70
    32
  0
VERTEX
  8
図枠
  5
681
 10
1006.48
 20
-427.085
 30
0.000000
  70
    32
  0
VERTEX
  8
図枠
  5
682
 10
1006.53
 20
-427.094
 30
0.000000
  70
    32
  0
VERTEX
  8
図枠
  5
683
 10
1006.57
 20
-427.104
 30
0.000000
  70
    32
  0
VERTEX
  8
図枠
  5
684
 10
1006.61
 20
-427.113
 30
0.000000
  70
    32
  0
VERTEX
  8
図枠
  5
685
 10
1006.65
 20
-427.122
 30
0.000000
  70
    32
  0
VERTEX
  8
図枠
  5
686
 10
1006.69
 20
-427.132
 30
0.000000
  70
    32
  0
VERTEX
  8
図枠
  5
687
 10
1006.74
 20
-427.141
 30
0.000000
  70
    32
  0
VERTEX
  8
図枠
  5
688
 10
1006.78
 20
-427.150
 30
0.000000
  70
    32
  0
VERTEX
  8
図枠
  5
689
 10
1006.82
 20
-427.159
 30
0.000000
  70
    32
  0
VERTEX
  8
図枠
  5
68A
 10
1006.86
 20
-427.169
 30
0.000000
  70
    32
  0
VERTEX
  8
図枠
  5
68B
 10
1006.91
 20
-427.178
 30
0.000000
  70
    32
  0
VERTEX
  8
図枠
  5
68C
 10
1006.95
 20
-427.187
 30
0.000000
  70
    32
  0
VERTEX
  8
図枠
  5
68D
 10
1006.99
 20
-427.196
 30
0.000000
  70
    32
  0
VERTEX
  8
図枠
  5
68E
 10
1007.03
 20
-427.205
 30
0.000000
  70
    32
  0
VERTEX
  8
図枠
  5
68F
 10
1007.08
 20
-427.214
 30
0.000000
  70
    32
  0
VERTEX
  8
図枠
  5
690
 10
1007.12
 20
-427.223
 30
0.000000
  70
    32
  0
VERTEX
  8
図枠
  5
691
 10
1007.16
 20
-427.233
 30
0.000000
  70
    32
  0
VERTEX
  8
図枠
  5
692
 10
1007.20
 20
-427.242
 30
0.000000
  70
    32
  0
VERTEX
  8
図枠
  5
693
 10
1007.25
 20
-427.251
 30
0.000000
  70
    32
  0
VERTEX
  8
図枠
  5
694
 10
1007.29
 20
-427.260
 30
0.000000
  70
    32
  0
VERTEX
  8
図枠
  5
695
 10
1007.33
 20
-427.269
 30
0.000000
  70
    32
  0
VERTEX
  8
図枠
  5
696
 10
1007.37
 20
-427.278
 30
0.000000
  70
    32
  0
VERTEX
  8
図枠
  5
697
 10
1007.42
 20
-427.287
 30
0.000000
  70
    32
  0
VERTEX
  8
図枠
  5
698
 10
1007.46
 20
-427.296
 30
0.000000
  70
    32
  0
VERTEX
  8
図枠
  5
699
 10
1007.50
 20
-427.305
 30
0.000000
  70
    32
  0
VERTEX
  8
図枠
  5
69A
 10
1007.54
 20
-427.314
 30
0.000000
  70
    32
  0
VERTEX
  8
図枠
  5
69B
 10
1007.59
 20
-427.323
 30
0.000000
  70
    32
  0
VERTEX
  8
図枠
  5
69C
 10
1007.63
 20
-427.332
 30
0.000000
  70
    32
  0
VERTEX
  8
図枠
  5
69D
 10
1007.67
 20
-427.341
 30
0.000000
  70
    32
  0
VERTEX
  8
図枠
  5
69E
 10
1007.71
 20
-427.350
 30
0.000000
  70
    32
  0
VERTEX
  8
図枠
  5
69F
 10
1007.76
 20
-427.359
 30
0.000000
  70
    32
  0
VERTEX
  8
図枠
  5
6A0
 10
1007.80
 20
-427.367
 30
0.000000
  70
    32
  0
VERTEX
  8
図枠
  5
6A1
 10
1007.84
 20
-427.376
 30
0.000000
  70
    32
  0
VERTEX
  8
図枠
  5
6A2
 10
1007.88
 20
-427.385
 30
0.000000
  70
    32
  0
VERTEX
  8
図枠
  5
6A3
 10
1007.93
 20
-427.394
 30
0.000000
  70
    32
  0
VERTEX
  8
図枠
  5
6A4
 10
1007.97
 20
-427.403
 30
0.000000
  70
    32
  0
VERTEX
  8
図枠
  5
6A5
 10
1008.01
 20
-427.412
 30
0.000000
  70
    32
  0
VERTEX
  8
図枠
  5
6A6
 10
1008.05
 20
-427.421
 30
0.000000
  70
    32
  0
VERTEX
  8
図枠
  5
6A7
 10
1008.10
 20
-427.430
 30
0.000000
  70
    32
  0
VERTEX
  8
図枠
  5
6A8
 10
1008.14
 20
-427.439
 30
0.000000
  70
    32
  0
VERTEX
  8
図枠
  5
6A9
 10
1008.18
 20
-427.447
 30
0.000000
  70
    32
  0
VERTEX
  8
図枠
  5
6AA
 10
1008.22
 20
-427.456
 30
0.000000
  70
    32
  0
VERTEX
  8
図枠
  5
6AB
 10
1008.27
 20
-427.465
 30
0.000000
  70
    32
  0
VERTEX
  8
図枠
  5
6AC
 10
1008.31
 20
-427.474
 30
0.000000
  70
    32
  0
VERTEX
  8
図枠
  5
6AD
 10
1008.35
 20
-427.483
 30
0.000000
  70
    32
  0
VERTEX
  8
図枠
  5
6AE
 10
1008.39
 20
-427.492
 30
0.000000
  70
    32
  0
VERTEX
  8
図枠
  5
6AF
 10
1008.44
 20
-427.500
 30
0.000000
  70
    32
  0
VERTEX
  8
図枠
  5
6B0
 10
1008.48
 20
-427.509
 30
0.000000
  70
    32
  0
SEQEND
  8
図枠
  5
6B1
  0
POLYLINE
  8
図枠
  5
6B2
  66
     1
 10
0.000000
 20
0.000000
 30
0.000000
  70
     8
  0
VERTEX
  8
図枠
  5
6B3
 10
994.979
 20
-420.976
 30
0.000000
  70
    32
  0
VERTEX
  8
図枠
  5
6B4
 10
995.006
 20
-421.001
 30
0.000000
  70
    32
  0
VERTEX
  8
図枠
  5
6B5
 10
995.033
 20
-421.025
 30
0.000000
  70
    32
  0
VERTEX
  8
図枠
  5
6B6
 10
995.060
 20
-421.050
 30
0.000000
  70
    32
  0
VERTEX
  8
図枠
  5
6B7
 10
995.087
 20
-421.075
 30
0.000000
  70
    32
  0
VERTEX
  8
図枠
  5
6B8
 10
995.114
 20
-421.100
 30
0.000000
  70
    32
  0
VERTEX
  8
図枠
  5
6B9
 10
995.141
 20
-421.125
 30
0.000000
  70
    32
  0
VERTEX
  8
図枠
  5
6BA
 10
995.168
 20
-421.150
 30
0.000000
  70
    32
  0
VERTEX
  8
図枠
  5
6BB
 10
995.195
 20
-421.175
 30
0.000000
  70
    32
  0
VERTEX
  8
図枠
  5
6BC
 10
995.222
 20
-421.200
 30
0.000000
  70
    32
  0
VERTEX
  8
図枠
  5
6BD
 10
995.249
 20
-421.225
 30
0.000000
  70
    32
  0
VERTEX
  8
図枠
  5
6BE
 10
995.276
 20
-421.249
 30
0.000000
  70
    32
  0
VERTEX
  8
図枠
  5
6BF
 10
995.303
 20
-421.274
 30
0.000000
  70
    32
  0
VERTEX
  8
図枠
  5
6C0
 10
995.330
 20
-421.299
 30
0.000000
  70
    32
  0
VERTEX
  8
図枠
  5
6C1
 10
995.357
 20
-421.324
 30
0.000000
  70
    32
  0
VERTEX
  8
図枠
  5
6C2
 10
995.384
 20
-421.349
 30
0.000000
  70
    32
  0
VERTEX
  8
図枠
  5
6C3
 10
995.411
 20
-421.374
 30
0.000000
  70
    32
  0
VERTEX
  8
図枠
  5
6C4
 10
995.438
 20
-421.399
 30
0.000000
  70
    32
  0
VERTEX
  8
図枠
  5
6C5
 10
995.465
 20
-421.423
 30
0.000000
  70
    32
  0
VERTEX
  8
図枠
  5
6C6
 10
995.492
 20
-421.448
 30
0.000000
  70
    32
  0
VERTEX
  8
図枠
  5
6C7
 10
995.519
 20
-421.473
 30
0.000000
  70
    32
  0
VERTEX
  8
図枠
  5
6C8
 10
995.547
 20
-421.498
 30
0.000000
  70
    32
  0
VERTEX
  8
図枠
  5
6C9
 10
995.574
 20
-421.523
 30
0.000000
  70
    32
  0
VERTEX
  8
図枠
  5
6CA
 10
995.601
 20
-421.547
 30
0.000000
  70
    32
  0
VERTEX
  8
図枠
  5
6CB
 10
995.628
 20
-421.572
 30
0.000000
  70
    32
  0
VERTEX
  8
図枠
  5
6CC
 10
995.655
 20
-421.597
 30
0.000000
  70
    32
  0
VERTEX
  8
図枠
  5
6CD
 10
995.682
 20
-421.622
 30
0.000000
  70
    32
  0
VERTEX
  8
図枠
  5
6CE
 10
995.709
 20
-421.646
 30
0.000000
  70
    32
  0
VERTEX
  8
図枠
  5
6CF
 10
995.736
 20
-421.671
 30
0.000000
  70
    32
  0
VERTEX
  8
図枠
  5
6D0
 10
995.763
 20
-421.696
 30
0.000000
  70
    32
  0
VERTEX
  8
図枠
  5
6D1
 10
995.791
 20
-421.720
 30
0.000000
  70
    32
  0
VERTEX
  8
図枠
  5
6D2
 10
995.818
 20
-421.745
 30
0.000000
  70
    32
  0
VERTEX
  8
図枠
  5
6D3
 10
995.845
 20
-421.770
 30
0.000000
  70
    32
  0
VERTEX
  8
図枠
  5
6D4
 10
995.872
 20
-421.794
 30
0.000000
  70
    32
  0
VERTEX
  8
図枠
  5
6D5
 10
995.899
 20
-421.819
 30
0.000000
  70
    32
  0
VERTEX
  8
図枠
  5
6D6
 10
995.926
 20
-421.844
 30
0.000000
  70
    32
  0
VERTEX
  8
図枠
  5
6D7
 10
995.954
 20
-421.868
 30
0.000000
  70
    32
  0
VERTEX
  8
図枠
  5
6D8
 10
995.981
 20
-421.893
 30
0.000000
  70
    32
  0
VERTEX
  8
図枠
  5
6D9
 10
996.008
 20
-421.917
 30
0.000000
  70
    32
  0
VERTEX
  8
図枠
  5
6DA
 10
996.035
 20
-421.942
 30
0.000000
  70
    32
  0
VERTEX
  8
図枠
  5
6DB
 10
996.062
 20
-421.966
 30
0.000000
  70
    32
  0
VERTEX
  8
図枠
  5
6DC
 10
996.090
 20
-421.991
 30
0.000000
  70
    32
  0
VERTEX
  8
図枠
  5
6DD
 10
996.117
 20
-422.015
 30
0.000000
  70
    32
  0
VERTEX
  8
図枠
  5
6DE
 10
996.144
 20
-422.040
 30
0.000000
  70
    32
  0
VERTEX
  8
図枠
  5
6DF
 10
996.171
 20
-422.064
 30
0.000000
  70
    32
  0
VERTEX
  8
図枠
  5
6E0
 10
996.199
 20
-422.088
 30
0.000000
  70
    32
  0
VERTEX
  8
図枠
  5
6E1
 10
996.226
 20
-422.113
 30
0.000000
  70
    32
  0
VERTEX
  8
図枠
  5
6E2
 10
996.253
 20
-422.137
 30
0.000000
  70
    32
  0
VERTEX
  8
図枠
  5
6E3
 10
996.281
 20
-422.162
 30
0.000000
  70
    32
  0
VERTEX
  8
図枠
  5
6E4
 10
996.308
 20
-422.186
 30
0.000000
  70
    32
  0
VERTEX
  8
図枠
  5
6E5
 10
996.335
 20
-422.210
 30
0.000000
  70
    32
  0
VERTEX
  8
図枠
  5
6E6
 10
996.363
 20
-422.234
 30
0.000000
  70
    32
  0
VERTEX
  8
図枠
  5
6E7
 10
996.390
 20
-422.259
 30
0.000000
  70
    32
  0
VERTEX
  8
図枠
  5
6E8
 10
996.418
 20
-422.283
 30
0.000000
  70
    32
  0
VERTEX
  8
図枠
  5
6E9
 10
996.445
 20
-422.307
 30
0.000000
  70
    32
  0
VERTEX
  8
図枠
  5
6EA
 10
996.472
 20
-422.331
 30
0.000000
  70
    32
  0
VERTEX
  8
図枠
  5
6EB
 10
996.500
 20
-422.355
 30
0.000000
  70
    32
  0
VERTEX
  8
図枠
  5
6EC
 10
996.527
 20
-422.379
 30
0.000000
  70
    32
  0
VERTEX
  8
図枠
  5
6ED
 10
996.555
 20
-422.403
 30
0.000000
  70
    32
  0
VERTEX
  8
図枠
  5
6EE
 10
996.582
 20
-422.427
 30
0.000000
  70
    32
  0
VERTEX
  8
図枠
  5
6EF
 10
996.610
 20
-422.451
 30
0.000000
  70
    32
  0
VERTEX
  8
図枠
  5
6F0
 10
996.637
 20
-422.475
 30
0.000000
  70
    32
  0
VERTEX
  8
図枠
  5
6F1
 10
996.665
 20
-422.499
 30
0.000000
  70
    32
  0
VERTEX
  8
図枠
  5
6F2
 10
996.693
 20
-422.523
 30
0.000000
  70
    32
  0
VERTEX
  8
図枠
  5
6F3
 10
996.720
 20
-422.547
 30
0.000000
  70
    32
  0
VERTEX
  8
図枠
  5
6F4
 10
996.748
 20
-422.571
 30
0.000000
  70
    32
  0
VERTEX
  8
図枠
  5
6F5
 10
996.775
 20
-422.594
 30
0.000000
  70
    32
  0
VERTEX
  8
図枠
  5
6F6
 10
996.803
 20
-422.618
 30
0.000000
  70
    32
  0
VERTEX
  8
図枠
  5
6F7
 10
996.831
 20
-422.642
 30
0.000000
  70
    32
  0
VERTEX
  8
図枠
  5
6F8
 10
996.858
 20
-422.666
 30
0.000000
  70
    32
  0
VERTEX
  8
図枠
  5
6F9
 10
996.886
 20
-422.689
 30
0.000000
  70
    32
  0
VERTEX
  8
図枠
  5
6FA
 10
996.914
 20
-422.713
 30
0.000000
  70
    32
  0
VERTEX
  8
図枠
  5
6FB
 10
996.941
 20
-422.737
 30
0.000000
  70
    32
  0
VERTEX
  8
図枠
  5
6FC
 10
996.969
 20
-422.760
 30
0.000000
  70
    32
  0
VERTEX
  8
図枠
  5
6FD
 10
996.997
 20
-422.784
 30
0.000000
  70
    32
  0
VERTEX
  8
図枠
  5
6FE
 10
997.025
 20
-422.807
 30
0.000000
  70
    32
  0
VERTEX
  8
図枠
  5
6FF
 10
997.053
 20
-422.830
 30
0.000000
  70
    32
  0
VERTEX
  8
図枠
  5
700
 10
997.080
 20
-422.854
 30
0.000000
  70
    32
  0
VERTEX
  8
図枠
  5
701
 10
997.108
 20
-422.877
 30
0.000000
  70
    32
  0
VERTEX
  8
図枠
  5
702
 10
997.136
 20
-422.900
 30
0.000000
  70
    32
  0
VERTEX
  8
図枠
  5
703
 10
997.164
 20
-422.924
 30
0.000000
  70
    32
  0
VERTEX
  8
図枠
  5
704
 10
997.192
 20
-422.947
 30
0.000000
  70
    32
  0
VERTEX
  8
図枠
  5
705
 10
997.220
 20
-422.970
 30
0.000000
  70
    32
  0
VERTEX
  8
図枠
  5
706
 10
997.248
 20
-422.993
 30
0.000000
  70
    32
  0
VERTEX
  8
図枠
  5
707
 10
997.276
 20
-423.016
 30
0.000000
  70
    32
  0
VERTEX
  8
図枠
  5
708
 10
997.304
 20
-423.039
 30
0.000000
  70
    32
  0
VERTEX
  8
図枠
  5
709
 10
997.332
 20
-423.062
 30
0.000000
  70
    32
  0
VERTEX
  8
図枠
  5
70A
 10
997.360
 20
-423.085
 30
0.000000
  70
    32
  0
VERTEX
  8
図枠
  5
70B
 10
997.388
 20
-423.108
 30
0.000000
  70
    32
  0
VERTEX
  8
図枠
  5
70C
 10
997.416
 20
-423.131
 30
0.000000
  70
    32
  0
VERTEX
  8
図枠
  5
70D
 10
997.444
 20
-423.154
 30
0.000000
  70
    32
  0
VERTEX
  8
図枠
  5
70E
 10
997.473
 20
-423.177
 30
0.000000
  70
    32
  0
VERTEX
  8
図枠
  5
70F
 10
997.501
 20
-423.200
 30
0.000000
  70
    32
  0
VERTEX
  8
図枠
  5
710
 10
997.529
 20
-423.222
 30
0.000000
  70
    32
  0
VERTEX
  8
図枠
  5
711
 10
997.557
 20
-423.245
 30
0.000000
  70
    32
  0
VERTEX
  8
図枠
  5
712
 10
997.585
 20
-423.267
 30
0.000000
  70
    32
  0
VERTEX
  8
図枠
  5
713
 10
997.614
 20
-423.290
 30
0.000000
  70
    32
  0
VERTEX
  8
図枠
  5
714
 10
997.642
 20
-423.313
 30
0.000000
  70
    32
  0
VERTEX
  8
図枠
  5
715
 10
997.670
 20
-423.335
 30
0.000000
  70
    32
  0
VERTEX
  8
図枠
  5
716
 10
997.699
 20
-423.357
 30
0.000000
  70
    32
  0
VERTEX
  8
図枠
  5
717
 10
997.727
 20
-423.380
 30
0.000000
  70
    32
  0
VERTEX
  8
図枠
  5
718
 10
997.756
 20
-423.402
 30
0.000000
  70
    32
  0
VERTEX
  8
図枠
  5
719
 10
997.784
 20
-423.424
 30
0.000000
  70
    32
  0
VERTEX
  8
図枠
  5
71A
 10
997.813
 20
-423.446
 30
0.000000
  70
    32
  0
VERTEX
  8
図枠
  5
71B
 10
997.841
 20
-423.468
 30
0.000000
  70
    32
  0
VERTEX
  8
図枠
  5
71C
 10
997.870
 20
-423.491
 30
0.000000
  70
    32
  0
VERTEX
  8
図枠
  5
71D
 10
997.898
 20
-423.513
 30
0.000000
  70
    32
  0
VERTEX
  8
図枠
  5
71E
 10
997.927
 20
-423.535
 30
0.000000
  70
    32
  0
VERTEX
  8
図枠
  5
71F
 10
997.955
 20
-423.556
 30
0.000000
  70
    32
  0
VERTEX
  8
図枠
  5
720
 10
997.984
 20
-423.578
 30
0.000000
  70
    32
  0
VERTEX
  8
図枠
  5
721
 10
998.013
 20
-423.600
 30
0.000000
  70
    32
  0
VERTEX
  8
図枠
  5
722
 10
998.042
 20
-423.622
 30
0.000000
  70
    32
  0
VERTEX
  8
図枠
  5
723
 10
998.070
 20
-423.644
 30
0.000000
  70
    32
  0
VERTEX
  8
図枠
  5
724
 10
998.099
 20
-423.665
 30
0.000000
  70
    32
  0
VERTEX
  8
図枠
  5
725
 10
998.128
 20
-423.687
 30
0.000000
  70
    32
  0
VERTEX
  8
図枠
  5
726
 10
998.157
 20
-423.708
 30
0.000000
  70
    32
  0
VERTEX
  8
図枠
  5
727
 10
998.186
 20
-423.730
 30
0.000000
  70
    32
  0
VERTEX
  8
図枠
  5
728
 10
998.215
 20
-423.751
 30
0.000000
  70
    32
  0
VERTEX
  8
図枠
  5
729
 10
998.244
 20
-423.772
 30
0.000000
  70
    32
  0
VERTEX
  8
図枠
  5
72A
 10
998.273
 20
-423.794
 30
0.000000
  70
    32
  0
VERTEX
  8
図枠
  5
72B
 10
998.302
 20
-423.815
 30
0.000000
  70
    32
  0
VERTEX
  8
図枠
  5
72C
 10
998.331
 20
-423.836
 30
0.000000
  70
    32
  0
VERTEX
  8
図枠
  5
72D
 10
998.360
 20
-423.857
 30
0.000000
  70
    32
  0
VERTEX
  8
図枠
  5
72E
 10
998.389
 20
-423.878
 30
0.000000
  70
    32
  0
VERTEX
  8
図枠
  5
72F
 10
998.418
 20
-423.899
 30
0.000000
  70
    32
  0
VERTEX
  8
図枠
  5
730
 10
998.447
 20
-423.920
 30
0.000000
  70
    32
  0
VERTEX
  8
図枠
  5
731
 10
998.476
 20
-423.941
 30
0.000000
  70
    32
  0
VERTEX
  8
図枠
  5
732
 10
998.506
 20
-423.962
 30
0.000000
  70
    32
  0
VERTEX
  8
図枠
  5
733
 10
998.535
 20
-423.982
 30
0.000000
  70
    32
  0
VERTEX
  8
図枠
  5
734
 10
998.564
 20
-424.003
 30
0.000000
  70
    32
  0
VERTEX
  8
図枠
  5
735
 10
998.594
 20
-424.023
 30
0.000000
  70
    32
  0
VERTEX
  8
図枠
  5
736
 10
998.623
 20
-424.044
 30
0.000000
  70
    32
  0
VERTEX
  8
図枠
  5
737
 10
998.652
 20
-424.064
 30
0.000000
  70
    32
  0
VERTEX
  8
図枠
  5
738
 10
998.682
 20
-424.085
 30
0.000000
  70
    32
  0
VERTEX
  8
図枠
  5
739
 10
998.711
 20
-424.105
 30
0.000000
  70
    32
  0
VERTEX
  8
図枠
  5
73A
 10
998.741
 20
-424.125
 30
0.000000
  70
    32
  0
VERTEX
  8
図枠
  5
73B
 10
998.771
 20
-424.145
 30
0.000000
  70
    32
  0
VERTEX
  8
図枠
  5
73C
 10
998.800
 20
-424.165
 30
0.000000
  70
    32
  0
VERTEX
  8
図枠
  5
73D
 10
998.830
 20
-424.185
 30
0.000000
  70
    32
  0
VERTEX
  8
図枠
  5
73E
 10
998.860
 20
-424.205
 30
0.000000
  70
    32
  0
VERTEX
  8
図枠
  5
73F
 10
998.889
 20
-424.225
 30
0.000000
  70
    32
  0
VERTEX
  8
図枠
  5
740
 10
998.919
 20
-424.245
 30
0.000000
  70
    32
  0
VERTEX
  8
図枠
  5
741
 10
998.949
 20
-424.265
 30
0.000000
  70
    32
  0
VERTEX
  8
図枠
  5
742
 10
998.979
 20
-424.284
 30
0.000000
  70
    32
  0
VERTEX
  8
図枠
  5
743
 10
999.009
 20
-424.304
 30
0.000000
  70
    32
  0
VERTEX
  8
図枠
  5
744
 10
999.039
 20
-424.323
 30
0.000000
  70
    32
  0
VERTEX
  8
図枠
  5
745
 10
999.069
 20
-424.343
 30
0.000000
  70
    32
  0
VERTEX
  8
図枠
  5
746
 10
999.099
 20
-424.362
 30
0.000000
  70
    32
  0
VERTEX
  8
図枠
  5
747
 10
999.129
 20
-424.381
 30
0.000000
  70
    32
  0
VERTEX
  8
図枠
  5
748
 10
999.159
 20
-424.401
 30
0.000000
  70
    32
  0
VERTEX
  8
図枠
  5
749
 10
999.189
 20
-424.420
 30
0.000000
  70
    32
  0
VERTEX
  8
図枠
  5
74A
 10
999.219
 20
-424.439
 30
0.000000
  70
    32
  0
VERTEX
  8
図枠
  5
74B
 10
999.249
 20
-424.458
 30
0.000000
  70
    32
  0
VERTEX
  8
図枠
  5
74C
 10
999.280
 20
-424.477
 30
0.000000
  70
    32
  0
VERTEX
  8
図枠
  5
74D
 10
999.310
 20
-424.495
 30
0.000000
  70
    32
  0
VERTEX
  8
図枠
  5
74E
 10
999.340
 20
-424.514
 30
0.000000
  70
    32
  0
VERTEX
  8
図枠
  5
74F
 10
999.371
 20
-424.533
 30
0.000000
  70
    32
  0
VERTEX
  8
図枠
  5
750
 10
999.401
 20
-424.551
 30
0.000000
  70
    32
  0
VERTEX
  8
図枠
  5
751
 10
999.432
 20
-424.570
 30
0.000000
  70
    32
  0
VERTEX
  8
図枠
  5
752
 10
999.462
 20
-424.588
 30
0.000000
  70
    32
  0
SEQEND
  8
図枠
  5
753
  0
INSERT
  5
3A5
  8
0
  6
CONTINUOUS
  2
*U71
 10
0.0
 20
0.0
 30
0.0
  0
LINE
  5
3A6
  8
図枠
 10
1015.3257634791
 20
-387.57434698110001
 30
0.0
 11
1015.3257634791
 21
-391.17434698109997
 31
0.0
  0
LINE
  5
3A7
  8
図枠
 10
990.98785694389994
 20
-420.00933753079988
 30
0.0
 11
990.98785694389994
 21
-422.25933753079988
 31
0.0
  0
LINE
  5
3A8
  8
図枠
 10
1015.3257634791
 20
-391.17434698109997
 30
0.0
 11
1022.5257634791
 21
-392.97434698109998
 31
0.0
  0
LINE
  5
3A9
  8
図枠
 10
994.97876603489999
 20
-417.0093375308
 30
0.0
 11
994.97876603489999
 21
-419.70933753079998
 31
0.0
  0
ARC
  5
3AA
  8
図枠
 10
984.23785694399987
 20
-423.00933753079988
 30
0.0
 40
4.5
 50
270.0
 51
0.0
  0
LINE
  5
3AB
  8
図枠
 10
919.49688721150005
 20
-381.12434698110002
 30
0.0
 11
919.49688721150005
 21
-430.62434698110002
 31
0.0
  0
INSERT
  5
3AC
  8
0
  6
CONTINUOUS
  2
*U72
 10
0.0
 20
0.0
 30
0.0
  0
INSERT
  5
3AD
  8
0
  6
CONTINUOUS
  2
*U73
 10
0.0
 20
0.0
 30
0.0
  0
INSERT
  5
3AE
  8
0
  6
CONTINUOUS
  2
*U74
 10
0.0
 20
0.0
 30
0.0
  0
INSERT
  5
3AF
  8
0
  6
CONTINUOUS
  2
*U75
 10
0.0
 20
0.0
 30
0.0
  0
LINE
  5
3B0
  8
図枠
 10
975.74688721150005
 20
-397.62434698110002
 30
0.0
 11
975.74688721150005
 21
-414.12434698110002
 31
0.0
  0
LINE
  5
3B1
  8
図枠
 10
919.49688721150005
 20
-414.12434698110002
 30
0.0
 11
1136.9968872115001
 21
-414.12434698110002
 31
0.0
  0
LINE
  5
3B2
  8
図枠
 10
923.24688721149994
 20
-405.87434698110002
 30
0.0
 11
971.99688721150005
 21
-405.87434698110002
 31
0.0
  0
LINE
  5
3B3
  8
図枠
 10
979.49688721149994
 20
-405.87434698110002
 30
0.0
 11
1028.2468872115001
 21
-405.87434698110002
 31
0.0
  0
INSERT
  5
3B4
  8
0
  6
CONTINUOUS
  2
*U76
 10
0.0
 20
0.0
 30
0.0
  0
INSERT
  5
3B5
  8
0
  6
CONTINUOUS
  2
*U77
 10
0.0
 20
0.0
 30
0.0
  0
LINE
  5
3B6
  8
図枠
 10
932.99688721149994
 20
-373.62434698110002
 30
0.0
 11
932.99688721149994
 21
-366.12434698110002
 31
0.0
  0
LINE
  5
3B7
  8
図枠
 10
919.49688721150005
 20
-373.62434698110002
 30
0.0
 11
919.49688721150005
 21
-366.12434698110002
 31
0.0
  0
LINE
  5
3B8
  8
図枠
 10
1090.4968872115001
 20
-373.62434698110002
 30
0.0
 11
1090.4968872115001
 21
-366.12434698110002
 31
0.0
  0
LINE
  5
3B9
  8
図枠
 10
1076.9968872115001
 20
-373.62434698110002
 30
0.0
 11
1076.9968872115001
 21
-366.12434698110002
 31
0.0
  0
LINE
  5
3BA
  8
図枠
 10
1136.9968872115001
 20
-366.12434698110002
 30
0.0
 11
919.49688721150005
 21
-366.12434698110002
 31
0.0
  0
LINE
  5
3BB
  8
図枠
 10
919.49688721150005
 20
-373.62434698110002
 30
0.0
 11
1136.9968872115001
 21
-373.62434698110002
 31
0.0
  0
LINE
  5
3BC
  8
図枠
 10
1007.9968872115001
 20
-373.62434698110002
 30
0.0
 11
1007.9968872115001
 21
-366.12434698110002
 31
0.0
  0
INSERT
  5
3BD
  8
0
  6
CONTINUOUS
  2
*U78
 10
0.0
 20
0.0
 30
0.0
  0
INSERT
  5
3BE
  8
0
  6
CONTINUOUS
  2
*U79
 10
0.0
 20
0.0
 30
0.0
  0
CIRCLE
  5
3BF
  8
図枠
 10
1007.0968872115
 20
-389.37434698110002
 30
0.0
 40
1.8
  0
LINE
  5
3C0
  8
図枠
 10
1015.3257634791
 20
-391.17434698109997
 30
0.0
 11
1022.5257634791
 21
-392.97434698109998
 31
0.0
  0
LINE
  5
3C1
  8
図枠
 10
1015.3257634791
 20
-387.57434698110001
 30
0.0
 11
1015.3257634791
 21
-391.17434698109997
 31
0.0
  0
LINE
  5
3C2
  8
図枠
 10
1022.5257634791
 20
-385.7743469811
 30
0.0
 11
1022.5257634791
 21
-392.97434698109998
 31
0.0
  0
LINE
  5
3C3
  8
図枠
  6
BORDER
 10
1007.0968872115
 20
-383.97434698109998
 30
0.0
 11
1007.0968872115
 21
-394.7743469811
 31
0.0
  0
LINE
  5
3C4
  8
図枠
  6
BORDER
 10
1007.0968872115
 20
-383.97434698109998
 30
0.0
 11
1007.0968872115
 21
-394.7743469811
 31
0.0
  0
LINE
  5
3C5
  8
図枠
 10
1022.5257634791
 20
-385.7743469811
 30
0.0
 11
1022.5257634791
 21
-392.97434698109998
 31
0.0
  0
LINE
  5
3C6
  8
図枠
 10
1015.3257634791
 20
-387.57434698110001
 30
0.0
 11
1015.3257634791
 21
-391.17434698109997
 31
0.0
  0
LINE
  5
3C7
  8
図枠
 10
1015.3257634791
 20
-391.17434698109997
 30
0.0
 11
1022.5257634791
 21
-392.97434698109998
 31
0.0
  0
LINE
  5
3C8
  8
図枠
 10
1015.3257634791
 20
-387.57434698110001
 30
0.0
 11
1022.5257634791
 21
-385.7743469811
 31
0.0
  0
CIRCLE
  5
3C9
  8
図枠
 10
1007.0968872115
 20
-389.37434698110002
 30
0.0
 40
3.6000000000000001
  0
CIRCLE
  5
3CA
  8
図枠
 10
1007.0968872115
 20
-389.37434698110002
 30
0.0
 40
1.8
  0
CIRCLE
  5
3CB
  8
図枠
 10
1007.0968872115
 20
-389.37434698110002
 30
0.0
 40
3.6000000000000001
  0
LINE
  5
3CC
  8
図枠
 10
1015.3257634791
 20
-387.57434698110001
 30
0.0
 11
1022.5257634791
 21
-385.7743469811
 31
0.0
  0
ENDBLK
  5
3CD
  8
0
  0
BLOCK
  8
0
  2
BALLON2
 70
     0
 10
0.0
 20
0.0
 30
0.0
  3
BALLON2
  1

  0
INSERT
  5
3D1
  8
0
  6
CONTINUOUS
  2
*U80
 10
0.0
 20
0.0
 30
0.0
  0
CIRCLE
  5
3D2
  8
ﾚｲﾔ_1
 10
775.42979998759995
 20
-275.55474885580003
 30
0.0
 40
6.0
  0
LINE
  5
3D3
  8
寸法線
 10
765.42979998759995
 20
-275.55474885580003
 30
0.0
 11
769.42979998759995
 21
-275.55474885580003
 31
0.0
  0
LINE
  5
3D4
  8
寸法線
 10
726.02379571380004
 20
-181.5547488558
 30
0.0
 11
765.42979998759995
 21
-275.55474885580003
 31
0.0
  0
SOLID
  5
3D5
  8
寸法線
 10
726.02379571380004
 20
-181.5547488558
 30
0.0
 11
729.45017669770004
 21
-186.62425705209989
 31
0.0
 12
727.8795490558
 22
-185.98150608130001
 32
0.0
 13
727.8795490558
 23
-185.98150608130001
 33
0.0
  0
SOLID
  5
3D6
  8
寸法線
 10
727.8795490558
 20
-185.98150608130001
 30
0.0
 11
727.23679808500003
 21
-187.55213372310001
 31
0.0
 12
726.02379571380004
 22
-181.5547488558
 32
0.0
 13
726.02379571380004
 23
-181.5547488558
 33
0.0
  0
ENDBLK
  5
3D7
  8
0
  0
BLOCK
  8
0
  2
*D20
 70
     1
 10
0.0
 20
0.0
 30
0.0
  3
*D20
  1

  0
TEXT
  5
3DA
  8
0
 62
     0
 10
810.97323283139986
 20
-156.04706649260001
 30
0.0
 40
5.3974999188999986
  1
167
 50
90.0
  0
LINE
  5
3DB
  8
0
 62
     0
 10
774.07985040129995
 20
-234.7845665641
 30
0.0
 11
813.42573281710008
 21
-234.7845665641
 31
0.0
  0
LINE
  5
3DC
  8
0
 62
     0
 10
774.07985040129995
 20
-67.784566564100004
 30
0.0
 11
813.42573281710008
 21
-67.784566564100004
 31
0.0
  0
LINE
  5
3DD
  8
0
 62
     0
 10
812.92573281709997
 20
-234.7845665641
 30
0.0
 11
812.92573281709997
 21
-143.3470666833
 31
0.0
  0
LINE
  5
3DE
  8
0
 62
     0
 10
812.92573281709997
 20
-234.7845665641
 30
0.0
 11
812.92573281709997
 21
-159.22206644490001
 31
0.0
  0
LINE
  5
3DF
  8
0
 62
     0
 10
812.92573281709997
 20
-67.784566564100004
 30
0.0
 11
812.92573281709997
 21
-143.3470666833
 31
0.0
  0
LINE
  5
3E0
  8
0
 62
     0
 10
812.92573281709997
 20
-67.784566564100004
 30
0.0
 11
812.92573281709997
 21
-159.22206644490001
 31
0.0
  0
LINE
  5
3E1
  8
0
 62
     0
 10
812.92573281709997
 20
-67.784566564100004
 30
0.0
 11
812.92573281709997
 21
-70.784566564100004
 31
0.0
  0
SOLID
  5
3E2
  8
0
 62
     0
 10
812.92573281709997
 20
-67.784566564100004
 30
0.0
 11
814.05073281709997
 21
-72.284566564100004
 31
0.0
 12
811.80073281709997
 22
-72.284566564100004
 32
0.0
 13
812.92573281709997
 23
-71.159566564100004
 33
0.0
  0
LINE
  5
3E3
  8
0
 62
     0
 10
812.92573281709997
 20
-234.7845665641
 30
0.0
 11
812.92573281709997
 21
-231.7845665641
 31
0.0
  0
SOLID
  5
3E4
  8
0
 62
     0
 10
812.92573281709997
 20
-234.7845665641
 30
0.0
 11
811.80073281709997
 21
-230.2845665641
 31
0.0
 12
814.05073281709997
 22
-230.2845665641
 32
0.0
 13
812.92573281709997
 23
-231.4095665641
 33
0.0
  0
ENDBLK
  5
3E5
  8
0
  0
BLOCK
  8
0
  2
BALLON3
 70
     0
 10
0.0
 20
0.0
 30
0.0
  3
BALLON3
  1

  0
INSERT
  5
3F9
  8
0
  6
CONTINUOUS
  2
*U81
 10
0.0
 20
0.0
 30
0.0
  0
CIRCLE
  5
3FA
  8
ﾚｲﾔ_1
 10
984.05588642220005
 20
-275.55474885580003
 30
0.0
 40
6.0
  0
LINE
  5
3FB
  8
寸法線
 10
974.05588642220005
 20
-275.55474885580003
 30
0.0
 11
978.05588642219993
 21
-275.55474885580003
 31
0.0
  0
LINE
  5
3FC
  8
寸法線
 10
957.22512042630001
 20
-217.78434781409999
 30
0.0
 11
974.05588642220005
 21
-275.55474885580003
 31
0.0
  0
SOLID
  5
3FD
  8
寸法線
 10
957.22512042630001
 20
-217.78434781409999
 30
0.0
 11
960.05548180469987
 21
-223.2092030627
 31
0.0
 12
958.56772837139999
 22
-222.392753602
 32
0.0
 13
958.56772837139999
 23
-222.392753602
 33
0.0
  0
SOLID
  5
3FE
  8
寸法線
 10
958.56772837139999
 20
-222.392753602
 30
0.0
 11
957.75127891069997
 21
-223.8805070352
 31
0.0
 12
957.22512042630001
 22
-217.78434781409999
 32
0.0
 13
957.22512042630001
 23
-217.78434781409999
 33
0.0
  0
ENDBLK
  5
3FF
  8
0
  0
BLOCK
  8
0
  2
BALLON4
 70
     0
 10
0.0
 20
0.0
 30
0.0
  3
BALLON4
  1

  0
INSERT
  5
403
  8
0
  6
CONTINUOUS
  2
*U82
 10
0.0
 20
0.0
 30
0.0
  0
CIRCLE
  5
404
  8
ﾚｲﾔ_1
 10
880.47868053979983
 20
-275.55474885580003
 30
0.0
 40
6.0
  0
LINE
  5
405
  8
寸法線
 10
890.47868053980005
 20
-275.55474885580003
 30
0.0
 11
886.47868053979994
 21
-275.55474885580003
 31
0.0
  0
LINE
  5
406
  8
寸法線
 10
933.08985427749985
 20
-157.26327142139999
 30
0.0
 11
890.47868053980005
 21
-275.55474885580003
 31
0.0
  0
SOLID
  5
407
  8
寸法線
 10
933.08985427749985
 20
-157.26327142139999
 30
0.0
 11
932.18541396079991
 21
-163.314881762
 31
0.0
 12
931.46311398149999
 22
-161.7792116347
 32
0.0
 13
931.46311398149999
 23
-161.7792116347
 33
0.0
  0
SOLID
  5
408
  8
寸法線
 10
931.46311398149999
 20
-161.7792116347
 30
0.0
 11
929.92744385419985
 21
-162.50151161400001
 31
0.0
 12
933.08985427749985
 22
-157.26327142139999
 32
0.0
 13
933.08985427749985
 23
-157.26327142139999
 33
0.0
  0
ENDBLK
  5
409
  8
0
  0
BLOCK
  8
0
  2
*D23
 70
     1
 10
0.0
 20
0.0
 30
0.0
  3
*D23
  1

  0
TEXT
  5
40C
  8
0
 62
     0
 10
929.9730103027
 20
-232.1166812596
 30
0.0
 40
5.3974999188999986
  1
2
 50
90.0
  0
LINE
  5
40D
  8
0
 62
     0
 10
948.7251204262999
 20
-222.78434781409999
 30
0.0
 11
931.42551028840012
 21
-222.78434781409999
 31
0.0
  0
LINE
  5
40E
  8
0
 62
     0
 10
948.7251204262999
 20
-224.78434781409999
 30
0.0
 11
931.42551028840012
 21
-224.78434781409999
 31
0.0
  0
LINE
  5
40F
  8
0
 62
     0
 10
931.92551028840001
 20
-222.78434781409999
 30
0.0
 11
931.92551028840001
 21
-225.766681355
 31
0.0
  0
LINE
  5
410
  8
0
 62
     0
 10
931.92551028840001
 20
-222.78434781409999
 30
0.0
 11
931.92551028840001
 21
-235.2916812119
 31
0.0
  0
LINE
  5
411
  8
0
 62
     0
 10
931.92551028840001
 20
-224.78434781409999
 30
0.0
 11
931.92551028840001
 21
-225.766681355
 31
0.0
  0
LINE
  5
412
  8
0
 62
     0
 10
931.92551028840001
 20
-224.78434781409999
 30
0.0
 11
931.92551028840001
 21
-235.2916812119
 31
0.0
  0
LINE
  5
413
  8
0
 62
     0
 10
931.92551028840001
 20
-224.78434781409999
 30
0.0
 11
931.92551028840001
 21
-227.78434781409999
 31
0.0
  0
SOLID
  5
414
  8
0
 62
     0
 10
931.92551028840001
 20
-224.78434781409999
 30
0.0
 11
933.05051028840001
 21
-229.28434781409999
 31
0.0
 12
930.80051028839989
 22
-229.28434781409999
 32
0.0
 13
931.92551028840001
 23
-228.15934781409999
 33
0.0
  0
LINE
  5
415
  8
0
 62
     0
 10
931.92551028840001
 20
-222.78434781409999
 30
0.0
 11
931.92551028840001
 21
-219.78434781409999
 31
0.0
  0
SOLID
  5
416
  8
0
 62
     0
 10
931.92551028840001
 20
-222.78434781409999
 30
0.0
 11
930.80051028839989
 21
-218.28434781409999
 31
0.0
 12
933.05051028840001
 22
-218.28434781409999
 32
0.0
 13
931.92551028840001
 23
-219.40934781409999
 33
0.0
  0
ENDBLK
  5
417
  8
0
  0
BLOCK
  8
0
  2
*D24
 70
     1
 10
0.0
 20
0.0
 30
0.0
  3
*D24
  1

  0
TEXT
  5
41B
  8
0
 62
     0
 10
889.68940663449996
 20
-159.22184769489999
 30
0.0
 40
5.3974999188999986
  1
□147
 50
90.0
  0
LINE
  5
41C
  8
0
 62
     0
 10
948.7251204262999
 20
-77.784347814100002
 30
0.0
 11
891.14190662019996
 21
-77.784347814100002
 31
0.0
  0
LINE
  5
41D
  8
0
 62
     0
 10
948.7251204262999
 20
-224.78434781409999
 30
0.0
 11
891.14190662019996
 21
-224.78434781409999
 31
0.0
  0
LINE
  5
41E
  8
0
 62
     0
 10
891.64190662020007
 20
-77.784347814100002
 30
0.0
 11
891.64190662020007
 21
-140.17184798100001
 31
0.0
  0
LINE
  5
41F
  8
0
 62
     0
 10
891.64190662020007
 20
-77.784347814100002
 30
0.0
 11
891.64190662020007
 21
-162.39684764719999
 31
0.0
  0
LINE
  5
420
  8
0
 62
     0
 10
891.64190662020007
 20
-224.78434781409999
 30
0.0
 11
891.64190662020007
 21
-140.17184798100001
 31
0.0
  0
LINE
  5
421
  8
0
 62
     0
 10
891.64190662020007
 20
-224.78434781409999
 30
0.0
 11
891.64190662020007
 21
-162.39684764719999
 31
0.0
  0
LINE
  5
422
  8
0
 62
     0
 10
891.64190662020007
 20
-224.78434781409999
 30
0.0
 11
891.64190662020007
 21
-221.78434781409999
 31
0.0
  0
SOLID
  5
423
  8
0
 62
     0
 10
891.64190662020007
 20
-224.78434781409999
 30
0.0
 11
890.51690662020007
 21
-220.28434781409999
 31
0.0
 12
892.76690662019996
 22
-220.28434781409999
 32
0.0
 13
891.64190662020007
 23
-221.40934781409999
 33
0.0
  0
LINE
  5
424
  8
0
 62
     0
 10
891.64190662020007
 20
-77.784347814100002
 30
0.0
 11
891.64190662020007
 21
-80.784347814100016
 31
0.0
  0
SOLID
  5
425
  8
0
 62
     0
 10
891.64190662020007
 20
-77.784347814100002
 30
0.0
 11
892.76690662019996
 21
-82.284347814099988
 31
0.0
 12
890.51690662020007
 22
-82.284347814099988
 32
0.0
 13
891.64190662020007
 23
-81.159347814100002
 33
0.0
  0
ENDBLK
  5
426
  8
0
  0
BLOCK
  8
0
  2
*U25
 70
     1
 10
0.0
 20
0.0
 30
0.0
  3
*U25
  1

  0
TEXT
  5
445
  8
改訂
  6
CONTINUOUS
 10
1109.9144919757559
 20
-23.5449719203
 30
0.0
 40
4.0481249392
  1
＊＊
  0
ENDBLK
  5
447
  8
0
  0
BLOCK
  8
0
  2
*U26
 70
     1
 10
0.0
 20
0.0
 30
0.0
  3
*U26
  1

  0
TEXT
  5
449
  8
改訂
  6
CONTINUOUS
 10
1040.564095767877
 20
-23.5412219203
 30
0.0
 40
4.0481249392
  1
**********************
  0
ENDBLK
  5
44B
  8
0
  0
BLOCK
  8
0
  2
*U27
 70
     1
 10
0.0
 20
0.0
 30
0.0
  3
*U27
  1

  0
TEXT
  5
44D
  8
改訂
  6
CONTINUOUS
 10
1000.512192965002
 20
-24.451560321300001
 30
0.0
 40
4.0481249514000002
  1
1
  0
ENDBLK
  5
44F
  8
0
  0
BLOCK
  8
0
  2
*U28
 70
     1
 10
0.0
 20
0.0
 30
0.0
  3
*U28
  1

  0
TEXT
  5
451
  8
改訂
  6
CONTINUOUS
 10
1008.0888242558329
 20
-23.5449719203
 30
0.0
 40
4.0481249392
  1
H**.**.**
  0
ENDBLK
  5
453
  8
0
  0
BLOCK
  8
0
  2
*U29
 70
     1
 10
0.0
 20
0.0
 30
0.0
  3
*U29
  1

  0
TEXT
  5
455
  8
図枠
  6
CONTINUOUS
 10
1076.6468242659589
 20
-409.44647177839988
 30
0.0
 40
6.7468747973000003
  1
MH-55151
  0
ENDBLK
  5
457
  8
0
  0
BLOCK
  8
0
  2
*U30
 70
     1
 10
0.0
 20
0.0
 30
0.0
  3
*U30
  1

  0
TEXT
  5
459
  8
図枠
  6
CONTINUOUS
 10
1077.194792848099
 20
-425.4966804901
 30
0.0
 40
6.2970835090000001
  1
SHM00002
  0
ENDBLK
  5
45B
  8
0
  0
BLOCK
  8
0
  2
*U31
 70
     1
 10
0.0
 20
0.0
 30
0.0
  3
*U31
  1

  0
TEXT
  5
45D
  8
図枠
  6
CONTINUOUS
 10
1073.8065144117841
 20
-392.94418896282082
 30
0.0
 40
6.2970835090000001
  1
メジスルー
  0
ENDBLK
  5
45F
  8
0
  0
BLOCK
  8
0
  2
*U32
 70
     1
 10
0.0
 20
0.0
 30
0.0
  3
*U32
  1

  0
TEXT
  5
461
  8
図枠
  6
CONTINUOUS
 10
1031.5032485822339
 20
-364.43175208520972
 30
0.0
 40
4.4979165315999996
  1
ＰＰ樹脂
  0
ENDBLK
  5
463
  8
0
  0
BLOCK
  8
0
  2
*U33
 70
     1
 10
0.0
 20
0.0
 30
0.0
  3
*U33
  1

  0
TEXT
  5
465
  8
図枠
  6
CONTINUOUS
 10
1031.5032485822339
 20
-356.93175208520972
 30
0.0
 40
4.4979165315999996
  1
ＰＰ樹脂
  0
ENDBLK
  5
467
  8
0
  0
BLOCK
  8
0
  2
*U34
 70
     1
 10
0.0
 20
0.0
 30
0.0
  3
*U34
  1

  0
TEXT
  5
469
  8
図枠
  6
CONTINUOUS
 10
1013.99105579169
 20
-349.22626351269997
 30
0.0
 40
4.4979165315999996
  1
ＳＵＳ３０４  ２.０t
  0
ENDBLK
  5
46B
  8
0
  0
BLOCK
  8
0
  2
*U35
 70
     1
 10
0.0
 20
0.0
 30
0.0
  3
*U35
  1

  0
TEXT
  5
46D
  8
図枠
  6
CONTINUOUS
 10
1013.99105579169
 20
-341.72626351269997
 30
0.0
 40
4.4979165315999996
  1
ＳＵＳ３０４  ２.０t
  0
ENDBLK
  5
46F
  8
0
  0
BLOCK
  8
0
  2
*U36
 70
     1
 10
0.0
 20
0.0
 30
0.0
  3
*U36
  1

  0
TEXT
  5
471
  8
図枠
  6
CONTINUOUS
 10
1082.5710359354721
 20
-341.72626351269997
 30
0.0
 40
4.4979165315999996
  1
1
  0
ENDBLK
  5
473
  8
0
  0
BLOCK
  8
0
  2
*U37
 70
     1
 10
0.0
 20
0.0
 30
0.0
  3
*U37
  1

  0
TEXT
  5
475
  8
図枠
  6
CONTINUOUS
 10
1082.5710359354721
 20
-349.22626351269997
 30
0.0
 40
4.4979165315999996
  1
1
  0
ENDBLK
  5
477
  8
0
  0
BLOCK
  8
0
  2
*U38
 70
     1
 10
0.0
 20
0.0
 30
0.0
  3
*U38
  1

  0
TEXT
  5
479
  8
図枠
  6
CONTINUOUS
 10
1082.5710359354721
 20
-356.72626351269997
 30
0.0
 40
4.4979165315999996
  1
1
  0
ENDBLK
  5
47B
  8
0
  0
BLOCK
  8
0
  2
*U39
 70
     1
 10
0.0
 20
0.0
 30
0.0
  3
*U39
  1

  0
TEXT
  5
47D
  8
図枠
  6
CONTINUOUS
 10
1082.5710359354721
 20
-364.22626351269997
 30
0.0
 40
4.4979165315999996
  1
1
  0
ENDBLK
  5
47F
  8
0
  0
BLOCK
  8
0
  2
*U40
 70
     1
 10
0.0
 20
0.0
 30
0.0
  3
*U40
  1

  0
TEXT
  5
481
  8
図枠
  6
CONTINUOUS
 10
966.86521446636084
 20
-395.3974697128001
 30
0.0
 40
4.4979165315999996
  1
1：1.5
  0
ENDBLK
  5
483
  8
0
  0
BLOCK
  8
0
  2
*U41
 70
     1
 10
0.0
 20
0.0
 30
0.0
  3
*U41
  1

  0
TEXT
  5
485
  8
図枠
  6
CONTINUOUS
 10
924.79705117212632
 20
-341.72626351269997
 30
0.0
 40
4.4979165315999996
  1
4
  0
ENDBLK
  5
487
  8
0
  0
BLOCK
  8
0
  2
*U42
 70
     1
 10
0.0
 20
0.0
 30
0.0
  3
*U42
  1

  0
TEXT
  5
489
  8
図枠
  6
CONTINUOUS
 10
924.83129926754464
 20
-349.22626351269997
 30
0.0
 40
4.4979165315999996
  1
3
  0
ENDBLK
  5
48B
  8
0
  0
BLOCK
  8
0
  2
*U43
 70
     1
 10
0.0
 20
0.0
 30
0.0
  3
*U43
  1

  0
TEXT
  5
48D
  8
図枠
  6
CONTINUOUS
 10
925.07103593547254
 20
-364.22626351269997
 30
0.0
 40
4.4979165315999996
  1
1
  0
ENDBLK
  5
48F
  8
0
  0
BLOCK
  8
0
  2
*U44
 70
     1
 10
0.0
 20
0.0
 30
0.0
  3
*U44
  1

  0
TEXT
  5
491
  8
図枠
  6
CONTINUOUS
 10
924.80846720393242
 20
-356.72626351269997
 30
0.0
 40
4.4979165315999996
  1
2
  0
ENDBLK
  5
493
  8
0
  0
BLOCK
  8
0
  2
*U45
 70
     1
 10
0.0
 20
0.0
 30
0.0
  3
*U45
  1

  0
TEXT
  5
495
  8
図枠
  6
CONTINUOUS
 10
948.15810780978416
 20
-412.16070346064612
 30
0.0
 40
4.4979165315999996
  1
岸 本
  0
ENDBLK
  5
497
  8
0
  0
BLOCK
  8
0
  2
*U46
 70
     1
 10
0.0
 20
0.0
 30
0.0
  3
*U46
  1

  0
TEXT
  5
499
  8
図枠
  6
CONTINUOUS
 10
946.81101605666538
 20
-403.88787139703402
 30
0.0
 40
4.4979165315999996
  1
白須賀
  0
ENDBLK
  5
49B
  8
0
  0
BLOCK
  8
0
  2
*U47
 70
     1
 10
0.0
 20
0.0
 30
0.0
  3
*U47
  1

  0
TEXT
  5
49D
  8
図枠
  6
CONTINUOUS
 10
930.9063787601832
 20
-395.3974697128001
 30
0.0
 40
4.4979165315999996
  1
H16.4
  0
ENDBLK
  5
49F
  8
0
  0
BLOCK
  8
0
  2
*U48
 70
     1
 10
0.0
 20
0.0
 30
0.0
  3
*U48
  1

  0
TEXT
  5
4A1
  8
ﾚｲﾔ_1
  6
CONTINUOUS
 10
924.10082392131756
 20
-277.77724882230001
 30
0.0
 40
5.3974999188999986
  1
3
  0
ENDBLK
  5
4A3
  8
0
  0
BLOCK
  8
0
  2
*U49
 70
     1
 10
0.0
 20
0.0
 30
0.0
  3
*U49
  1

  0
TEXT
  5
4A5
  8
ﾚｲﾔ_1
  6
CONTINUOUS
 10
807.5251440209596
 20
-277.77724882230001
 30
0.0
 40
5.3974999188999986
  1
1
  0
ENDBLK
  5
4A7
  8
0
  0
BLOCK
  8
0
  2
*U50
 70
     1
 10
0.0
 20
0.0
 30
0.0
  3
*U50
  1

  0
TEXT
  5
4A9
  8
図枠
  6
CONTINUOUS
 10
924.83129926754464
 20
-334.22626351269997
 30
0.0
 40
4.4979165315999996
  1
5
  0
ENDBLK
  5
4AB
  8
0
  0
BLOCK
  8
0
  2
*U51
 70
     1
 10
0.0
 20
0.0
 30
0.0
  3
*U51
  1

  0
TEXT
  5
4AD
  8
図枠
  6
CONTINUOUS
 10
1013.99105579169
 20
-334.22626351269997
 30
0.0
 40
4.4979165315999996
  1
ＳＵＳ３０４  ２.０t
  0
ENDBLK
  5
4AF
  8
0
  0
BLOCK
  8
0
  2
*U52
 70
     1
 10
0.0
 20
0.0
 30
0.0
  3
*U52
  1

  0
TEXT
  5
4B1
  8
図枠
  6
CONTINUOUS
 10
1082.308467203932
 20
-334.22626351269997
 30
0.0
 40
4.4979165315999996
  1
2
  0
ENDBLK
  5
4B3
  8
0
  0
BLOCK
  8
0
  2
*U53
 70
     1
 10
0.0
 20
0.0
 30
0.0
  3
*U53
  1

  0
TEXT
  5
4B5
  8
図枠
  6
CONTINUOUS
 10
960.5649395402005
 20
-364.47741621243409
 30
0.0
 40
4.4979165315999996
  1
本   体
  0
ENDBLK
  5
4B7
  8
0
  0
BLOCK
  8
0
  2
*U54
 70
     1
 10
0.0
 20
0.0
 30
0.0
  3
*U54
  1

  0
TEXT
  5
4B9
  8
図枠
  6
CONTINUOUS
 10
967.76845560984407
 20
-356.93175208520972
 30
0.0
 40
4.4979165315999996
  1
蓋
  0
ENDBLK
  5
4BB
  8
0
  0
BLOCK
  8
0
  2
*U55
 70
     1
 10
0.0
 20
0.0
 30
0.0
  3
*U55
  1

  0
TEXT
  5
4BD
  8
図枠
  6
CONTINUOUS
 10
960.50785938116985
 20
-349.45458414882182
 30
0.0
 40
4.4979165315999996
  1
外   枠
  0
ENDBLK
  5
4BF
  8
0
  0
BLOCK
  8
0
  2
*U56
 70
     1
 10
0.0
 20
0.0
 30
0.0
  3
*U56
  1

  0
TEXT
  5
4C1
  8
図枠
  6
CONTINUOUS
 10
960.69051589006745
 20
-341.95458414882182
 30
0.0
 40
4.4979165315999996
  1
内   枠
  0
ENDBLK
  5
4C3
  8
0
  0
BLOCK
  8
0
  2
*U57
 70
     1
 10
0.0
 20
0.0
 30
0.0
  3
*U57
  1

  0
TEXT
  5
4C5
  8
図枠
  6
CONTINUOUS
 10
956.19259935846742
 20
-334.50024827604619
 30
0.0
 40
4.4979165315999996
  1
回転取っ手
  0
ENDBLK
  5
4C7
  8
0
  0
BLOCK
  8
0
  2
*U58
 70
     1
 10
0.0
 20
0.0
 30
0.0
  3
*U58
  1

  0
TEXT
  5
4C9
  8
図枠
  6
CONTINUOUS
 10
1004.293947491723
 20
-412.11503933342169
 30
0.0
 40
4.4979165315999996
  1
柳 原
  0
ENDBLK
  5
4CB
  8
0
  0
BLOCK
  8
0
  2
*U59
 70
     1
 10
0.0
 20
0.0
 30
0.0
  3
*U59
  1

  0
TEXT
  5
4CD
  8
図枠
  6
CONTINUOUS
 10
1004.293947491723
 20
-403.86503933342181
 30
0.0
 40
4.4979165315999996
  1
柳 原
  0
ENDBLK
  5
4CF
  8
0
  0
BLOCK
  8
0
  2
*U60
 70
     1
 10
0.0
 20
0.0
 30
0.0
  3
*U60
  1

  0
TEXT
  5
4D1
  8
図枠
  6
CONTINUOUS
 10
1051.393343701676
 20
-16.250460495893911
 30
0.0
 40
4.0481249392
  1
改　訂　内　容
  0
ENDBLK
  5
4D3
  8
0
  0
BLOCK
  8
0
  2
*U61
 70
     1
 10
0.0
 20
0.0
 30
0.0
  3
*U61
  1

  0
TEXT
  5
4D5
  8
図枠
  6
CONTINUOUS
 10
1012.280791197949
 20
-16.20936278077512
 30
0.0
 40
4.0481249392
  1
改訂日
  0
ENDBLK
  5
4D7
  8
0
  0
BLOCK
  8
0
  2
*U62
 70
     1
 10
0.0
 20
0.0
 30
0.0
  3
*U62
  1

  0
TEXT
  5
4D9
  8
図枠
  6
CONTINUOUS
 10
996.93159382311012
 20
-16.168265065656339
 30
0.0
 40
4.0481249392
  1
副番
  0
ENDBLK
  5
4DB
  8
0
  0
BLOCK
  8
0
  2
*U63
 70
     1
 10
0.0
 20
0.0
 30
0.0
  3
*U63
  1

  0
TEXT
  5
4DD
  8
図枠
  6
CONTINUOUS
 10
927.65664261669986
 20
-426.16042172580649
 30
0.0
 40
8.0962498784000001
  1
株式会社
  0
ENDBLK
  5
4DF
  8
0
  0
BLOCK
  8
0
  2
*U64
 70
     1
 10
0.0
 20
0.0
 30
0.0
  3
*U64
  1

  0
TEXT
  5
4E1
  8
図枠
  6
CONTINUOUS
 10
1121.9349076296439
 20
-16.271009353453302
 30
0.0
 40
4.0481249392
  1
検認者
  0
ENDBLK
  5
4E3
  8
0
  0
BLOCK
  8
0
  2
*U65
 70
     1
 10
0.0
 20
0.0
 30
0.0
  3
*U65
  1

  0
TEXT
  5
4E5
  8
図枠
  6
CONTINUOUS
 10
1034.04452384159
 20
-419.65925589437308
 30
0.0
 40
4.4979165315999996
  1
図 番
  0
ENDBLK
  5
4E7
  8
0
  0
BLOCK
  8
0
  2
*U66
 70
     1
 10
0.0
 20
0.0
 30
0.0
  3
*U66
  1

  0
TEXT
  5
4E9
  8
図枠
  6
CONTINUOUS
 10
1032.480527484156
 20
-386.75058414882182
 30
0.0
 40
4.4979165315999996
  1
製品名
  0
ENDBLK
  5
4EB
  8
0
  0
BLOCK
  8
0
  2
*U67
 70
     1
 10
0.0
 20
0.0
 30
0.0
  3
*U67
  1

  0
TEXT
  5
4ED
  8
図枠
  6
CONTINUOUS
 10
1032.6061038340231
 20
-403.20492002159739
 30
0.0
 40
4.4979165315999996
  1
図面名
  0
ENDBLK
  5
4EF
  8
0
  0
BLOCK
  8
0
  2
*U68
 70
     1
 10
0.0
 20
0.0
 30
0.0
  3
*U68
  1

  0
TEXT
  5
4F1
  8
図枠
  6
CONTINUOUS
 10
927.29891270945836
 20
-387.22804695174869
 30
0.0
 40
4.4979165315999996
  1
日　　付
  0
ENDBLK
  5
4F3
  8
0
  0
BLOCK
  8
0
  2
*U69
 70
     1
 10
0.0
 20
0.0
 30
0.0
  3
*U69
  1

  0
TEXT
  5
4F5
  8
図枠
  6
CONTINUOUS
 10
964.31943937360245
 20
-387.36503933342181
 30
0.0
 40
4.4979165315999996
  1
尺　　度
  0
ENDBLK
  5
4F7
  8
0
  0
BLOCK
  8
0
  2
*U70
 70
     1
 10
0.0
 20
0.0
 30
0.0
  3
*U70
  1

  0
TEXT
  5
4F9
  8
図枠
  6
CONTINUOUS
 10
1106.9965542023219
 20
-16.250460495893911
 30
0.0
 40
4.0481249392
  1
改訂者
  0
ENDBLK
  5
4FB
  8
0
  0
BLOCK
  8
0
  2
*U71
 70
     1
 10
0.0
 20
0.0
 30
0.0
  3
*U71
  1

  0
TEXT
  5
4FD
  8
図枠
  6
CONTINUOUS
 10
920.7671919445761
 20
-371.86325589437308
 30
0.0
 40
4.4979165315999996
  1
品番
  0
ENDBLK
  5
4FF
  8
0
  0
BLOCK
  8
0
  2
*U72
 70
     1
 10
0.0
 20
0.0
 30
0.0
  3
*U72
  1

  0
TEXT
  5
501
  8
図枠
  6
CONTINUOUS
 10
919.49688721150005
 20
-412.11503933342169
 30
0.0
 40
4.4979165315999996
  1
 製図
  0
ENDBLK
  5
503
  8
0
  0
BLOCK
  8
0
  2
*U73
 70
     1
 10
0.0
 20
0.0
 30
0.0
  3
*U73
  1

  0
TEXT
  5
505
  8
図枠
  6
CONTINUOUS
 10
919.49688721150005
 20
-403.81937520619738
 30
0.0
 40
4.4979165315999996
  1
 設計
  0
ENDBLK
  5
507
  8
0
  0
BLOCK
  8
0
  2
*U74
 70
     1
 10
0.0
 20
0.0
 30
0.0
  3
*U74
  1

  0
TEXT
  5
509
  8
図枠
  6
CONTINUOUS
 10
975.74688721150005
 20
-412.13787139703402
 30
0.0
 40
4.4979165315999996
  1
 検図
  0
ENDBLK
  5
50B
  8
0
  0
BLOCK
  8
0
  2
*U75
 70
     1
 10
0.0
 20
0.0
 30
0.0
  3
*U75
  1

  0
TEXT
  5
50D
  8
図枠
  6
CONTINUOUS
 10
975.74688721150005
 20
-403.84220726980959
 30
0.0
 40
4.4979165315999996
  1
 照査
  0
ENDBLK
  5
50F
  8
0
  0
BLOCK
  8
0
  2
*U76
 70
     1
 10
0.0
 20
0.0
 30
0.0
  3
*U76
  1

  0
TEXT
  5
511
  8
図枠
  6
CONTINUOUS
 10
1078.1187835310971
 20
-371.95458414882182
 30
0.0
 40
4.4979165315999996
  1
数量
  0
ENDBLK
  5
513
  8
0
  0
BLOCK
  8
0
  2
*U77
 70
     1
 10
0.0
 20
0.0
 30
0.0
  3
*U77
  1

  0
TEXT
  5
515
  8
図枠
  6
CONTINUOUS
 10
1099.8878245989049
 20
-372.02308033965841
 30
0.0
 40
4.4979165315999996
  1
備　　　考
  0
ENDBLK
  5
517
  8
0
  0
BLOCK
  8
0
  2
*U78
 70
     1
 10
0.0
 20
0.0
 30
0.0
  3
*U78
  1

  0
TEXT
  5
519
  8
図枠
  6
CONTINUOUS
 10
1028.1012711040189
 20
-371.8860879579853
 30
0.0
 40
4.4979165315999996
  1
材　　　質
  0
ENDBLK
  5
51B
  8
0
  0
BLOCK
  8
0
  2
*U79
 70
     1
 10
0.0
 20
0.0
 30
0.0
  3
*U79
  1

  0
TEXT
  5
51D
  8
図枠
  6
CONTINUOUS
 10
956.27251158111005
 20
-371.90892002159751
 30
0.0
 40
4.4979165315999996
  1
品　　　名
  0
ENDBLK
  5
51F
  8
0
  0
BLOCK
  8
0
  2
*U80
 70
     1
 10
0.0
 20
0.0
 30
0.0
  3
*U80
  1

  0
TEXT
  5
521
  8
ﾚｲﾔ_1
  6
CONTINUOUS
 10
773.44362104011759
 20
-277.77724882230001
 30
0.0
 40
5.3974999188999986
  1
2
  0
ENDBLK
  5
523
  8
0
  0
BLOCK
  8
0
  2
*U81
 70
     1
 10
0.0
 20
0.0
 30
0.0
  3
*U81
  1

  0
TEXT
  5
525
  8
ﾚｲﾔ_1
  6
CONTINUOUS
 10
982.19237792741978
 20
-277.77724882230001
 30
0.0
 40
5.3974999188999986
  1
4
  0
ENDBLK
  5
527
  8
0
  0
BLOCK
  8
0
  2
*U82
 70
     1
 10
0.0
 20
0.0
 30
0.0
  3
*U82
  1

  0
TEXT
  5
529
  8
ﾚｲﾔ_1
  6
CONTINUOUS
 10
878.49250159241763
 20
-277.77724882230001
 30
0.0
 40
5.3974999188999986
  1
5
  0
ENDBLK
  5
52B
  8
0
  0
ENDSEC
  0
SECTION
  2
ENTITIES
  0
LINE
  5
2F
  8
ﾚｲﾔ_1
 62
     5
 10
965.22512042630001
 20
-96.784347814100002
 30
0.0
 11
969.22512042630001
 21
-96.784347814100002
 31
0.0
  0
LINE
  5
30
  8
ﾚｲﾔ_1
 62
     5
 10
965.22512042630001
 20
-100.7843478141
 30
0.0
 11
965.22512042630001
 21
-87.784347814100002
 31
0.0
  0
LINE
  5
31
  8
ﾚｲﾔ_1
 62
     5
 10
949.7251204262999
 20
-77.784347814100002
 30
0.0
 11
949.7251204262999
 21
-79.784347814100002
 31
0.0
  0
LINE
  5
32
  8
ﾚｲﾔ_1
 62
     5
 10
983.22512042630001
 20
-87.784347814100002
 30
0.0
 11
983.22512042630001
 21
-89.784347814099988
 31
0.0
  0
LINE
  5
33
  8
ﾚｲﾔ_1
 62
     5
 10
983.22512042630001
 20
-91.784347814100002
 30
0.0
 11
983.22512042630001
 21
-95.784347814100016
 31
0.0
  0
LINE
  5
34
  8
ﾚｲﾔ_1
 62
     5
 10
980.2251204262999
 20
-86.784347814100002
 30
0.0
 11
976.96776111350005
 21
-86.784347814100002
 31
0.0
  0
ARC
  5
35
  8
ﾚｲﾔ_1
 62
     5
 10
980.2251204262999
 20
-87.784347814100002
 30
0.0
 40
1.0
 50
0.0
 51
90.0
  0
LINE
  5
36
  8
ﾚｲﾔ_1
 62
     5
 10
1004.7251204263
 20
-210.78434781409999
 30
0.0
 11
1004.7251204263
 21
-212.78434781409999
 31
0.0
  0
INSERT
  5
38
  8
0
  6
CONTINUOUS
  2
*U25
 10
0.0
 20
0.0
 30
0.0
  0
INSERT
  5
39
  8
0
  6
CONTINUOUS
  2
*U26
 10
0.0
 20
0.0
 30
0.0
  0
INSERT
  5
3A
  8
0
  6
CONTINUOUS
  2
*U27
 10
0.0
 20
0.0
 30
0.0
  0
INSERT
  5
3B
  8
0
  6
CONTINUOUS
  2
*U28
 10
0.0
 20
0.0
 30
0.0
  0
LINE
  5
3C
  8
ﾚｲﾔ_1
 62
     5
 10
1002.7251204263
 20
-73.784347814100002
 30
0.0
 11
1002.7251204263
 21
-67.784347814100002
 31
0.0
  0
LINE
  5
3D
  8
ﾚｲﾔ_1
 62
     5
 10
1004.7251204263
 20
-74.612774938800001
 30
0.0
 11
1004.7251204263
 21
-67.784347814100002
 31
0.0
  0
LINE
  5
3E
  8
ﾚｲﾔ_1
 62
     5
 10
1004.7251204263
 20
-74.612774938800001
 30
0.0
 11
1001.5535475511
 21
-77.784347814100002
 31
0.0
  0
LINE
  5
3F
  8
ﾚｲﾔ_1
 62
     5
 10
1002.7251204263
 20
-73.784347814100002
 30
0.0
 11
1000.7251204263
 21
-75.784347814100002
 31
0.0
  0
LINE
  5
40
  8
ﾚｲﾔ_1
 62
     5
 10
1004.7251204263
 20
-91.784347814100002
 30
0.0
 11
1004.7251204263
 21
-89.784347814099988
 31
0.0
  0
LINE
  5
41
  8
ﾚｲﾔ_1
 62
     5
 10
1004.7251204263
 20
-89.784347814099988
 30
0.0
 11
1004.7251204263
 21
-74.612774938800001
 31
0.0
  0
LINE
  5
42
  8
ﾚｲﾔ_1
 62
     5
 10
968.72512042630012
 20
-78.704190331999996
 30
0.0
 11
969.8052779085001
 21
-79.784347814100002
 31
0.0
  0
ARC
  5
43
  8
ﾚｲﾔ_1
 62
     5
 10
964.22512042630012
 20
-87.784347814100002
 30
0.0
 40
3.0
 50
0.0
 51
90.0
  0
LINE
  5
44
  8
ﾚｲﾔ_1
 62
     5
 10
967.22512042630001
 20
-87.784347814100002
 30
0.0
 11
967.22512042630001
 21
-92.784347814100002
 31
0.0
  0
LINE
  5
45
  8
ﾚｲﾔ_1
 62
     5
 10
950.22512042630001
 20
-84.784347814099988
 30
0.0
 11
950.22512042630001
 21
-86.784347814100002
 31
0.0
  0
LINE
  5
46
  8
ﾚｲﾔ_1
 62
     5
 10
970.72512042630001
 20
-90.784347814100016
 30
0.0
 11
970.72512042630001
 21
-98.784347814100002
 31
0.0
  0
LINE
  5
47
  8
ﾚｲﾔ_1
 62
     5
 10
969.22512042630001
 20
-90.784347814100016
 30
0.0
 11
970.72512042630001
 21
-90.784347814100016
 31
0.0
  0
LINE
  5
48
  8
ﾚｲﾔ_1
 62
     5
 10
965.22512042630001
 20
-92.284347814099988
 30
0.0
 11
964.72512042630001
 21
-92.284347814099988
 31
0.0
  0
LINE
  5
49
  8
ﾚｲﾔ_1
 62
     5
 10
967.22512042630001
 20
-102.7843478141
 30
0.0
 11
967.22512042630001
 21
-100.7843478141
 31
0.0
  0
LINE
  5
4A
  8
ﾚｲﾔ_1
 62
     5
 10
970.72512042630001
 20
-79.784347814100002
 30
0.0
 11
970.72512042630001
 21
-80.541707126999995
 31
0.0
  0
LINE
  5
4B
  8
ﾚｲﾔ_1
 62
     5
 10
964.72512042630001
 20
-74.784347814100002
 30
0.0
 11
964.72512042630001
 21
-78.704190331999996
 31
0.0
  0
LINE
  5
4C
  8
ﾚｲﾔ_1
 62
     5
 10
964.22512042630012
 20
-74.284347814100002
 30
0.0
 11
964.22512042630012
 21
-74.784347814100002
 31
0.0
  0
LINE
  5
4D
  8
ﾚｲﾔ_1
 62
     5
 10
969.22512042630001
 20
-74.284347814100002
 30
0.0
 11
969.22512042630001
 21
-74.784347814100002
 31
0.0
  0
ARC
  5
4E
  8
ﾚｲﾔ_1
 62
     5
 10
967.22512042630001
 20
-104.7843478141
 30
0.0
 40
2.0
 50
90.0
 51
180.0
  0
LINE
  5
4F
  8
ﾚｲﾔ_1
 62
     5
 10
970.72512042630001
 20
-98.784347814100002
 30
0.0
 11
969.22512042630001
 21
-98.784347814100002
 31
0.0
  0
LINE
  5
50
  8
ﾚｲﾔ_1
 62
     5
 10
983.22512042630001
 20
-95.784347814100016
 30
0.0
 11
986.2251204262999
 21
-95.784347814100016
 31
0.0
  0
ARC
  5
51
  8
ﾚｲﾔ_1
 62
     5
 10
975.96776111350005
 20
-82.784347814100002
 30
0.0
 40
1.0
 50
90.0
 51
225.0
  0
LINE
  5
52
  8
ﾚｲﾔ_1
 62
     5
 10
975.26065433229985
 20
-83.491454595299984
 30
0.0
 11
976.26065433229996
 21
-84.491454595299984
 31
0.0
  0
LINE
  5
53
  8
ﾚｲﾔ_1
 62
     5
 10
975.96776111350005
 20
-81.784347814100002
 30
0.0
 11
977.72512042630001
 21
-81.784347814100002
 31
0.0
  0
LINE
  5
54
  8
ﾚｲﾔ_1
 62
     5
 10
981.22512042630012
 20
-89.784347814099988
 30
0.0
 11
969.22512042630001
 21
-89.784347814099988
 31
0.0
  0
LINE
  5
55
  8
ﾚｲﾔ_1
 62
     5
 10
969.22512042630001
 20
-102.7843478141
 30
0.0
 11
981.22512042630012
 21
-102.7843478141
 31
0.0
  0
LINE
  5
56
  8
ﾚｲﾔ_1
 62
     5
 10
981.22512042630012
 20
-104.7843478141
 30
0.0
 11
967.22512042630001
 21
-104.7843478141
 31
0.0
  0
LINE
  5
57
  8
ﾚｲﾔ_1
 62
     5
 10
981.22512042630012
 20
-102.7843478141
 30
0.0
 11
981.22512042630012
 21
-104.7843478141
 31
0.0
  0
ARC
  5
58
  8
ﾚｲﾔ_1
 62
     5
 10
976.96776111350005
 20
-83.784347814100002
 30
0.0
 40
3.0
 50
225.0
 51
270.0
  0
LINE
  5
59
  8
ﾚｲﾔ_1
 62
     5
 10
974.7251204262999
 20
-77.784347814100002
 30
0.0
 11
974.7251204262999
 21
-79.784347814100002
 31
0.0
  0
LINE
  5
5A
  8
ﾚｲﾔ_1
 62
     5
 10
977.72512042630001
 20
-77.784347814100002
 30
0.0
 11
977.72512042630001
 21
-81.784347814100002
 31
0.0
  0
LINE
  5
5B
  8
ﾚｲﾔ_1
 62
     5
 10
964.22512042630012
 20
-86.784347814100002
 30
0.0
 11
950.22512042630001
 21
-86.784347814100002
 31
0.0
  0
LINE
  5
5C
  8
ﾚｲﾔ_1
 62
     5
 10
964.72512042630001
 20
-92.284347814099988
 30
0.0
 11
964.72512042630001
 21
-97.284347814100016
 31
0.0
  0
LINE
  5
5D
  8
ﾚｲﾔ_1
 62
     5
 10
964.72512042630001
 20
-97.284347814100016
 30
0.0
 11
965.22512042630001
 21
-97.284347814100016
 31
0.0
  0
LINE
  5
5E
  8
ﾚｲﾔ_1
 62
     5
 10
949.7251204262999
 20
-77.784347814100002
 30
0.0
 11
964.72512042630001
 21
-77.784347814100002
 31
0.0
  0
LINE
  5
5F
  8
ﾚｲﾔ_1
 62
     5
 10
950.22512042630001
 20
-84.784347814099988
 30
0.0
 11
964.22512042630012
 21
-84.784347814099988
 31
0.0
  0
ARC
  5
60
  8
ﾚｲﾔ_1
 62
     5
 10
980.2251204262999
 20
-87.784347814100002
 30
0.0
 40
3.0
 50
0.0
 51
90.0
  0
ARC
  5
61
  8
ﾚｲﾔ_1
 62
     5
 10
976.96776111350005
 20
-83.784347814100002
 30
0.0
 40
1.0
 50
225.0
 51
270.0
  0
LINE
  5
62
  8
ﾚｲﾔ_1
 62
     5
 10
983.22512042630001
 20
-97.784347814100002
 30
0.0
 11
986.2251204262999
 21
-97.784347814100002
 31
0.0
  0
LINE
  5
63
  8
ﾚｲﾔ_1
 62
     5
 10
963.2251204262999
 20
-74.784347814100002
 30
0.0
 11
970.2251204262999
 21
-67.784347814100002
 31
0.0
  0
LINE
  5
64
  8
ﾚｲﾔ_1
 62
     5
 10
965.22512042630001
 20
-92.784347814100002
 30
0.0
 11
969.22512042630001
 21
-92.784347814100002
 31
0.0
  0
LINE
  5
65
  8
ﾚｲﾔ_1
 62
     5
 10
967.22512042630001
 20
-96.784347814100002
 30
0.0
 11
967.22512042630001
 21
-100.7843478141
 31
0.0
  0
LINE
  5
66
  8
ﾚｲﾔ_1
 62
     5
 10
964.72512042630001
 20
-78.704190331999996
 30
0.0
 11
963.64496294419985
 21
-79.784347814100002
 31
0.0
  0
LINE
  5
67
  8
ﾚｲﾔ_1
 62
     5
 10
971.60380008280003
 20
-82.663027470499998
 30
0.0
 11
974.84644076990003
 21
-85.905668157600005
 31
0.0
  0
LINE
  5
68
  8
ﾚｲﾔ_1
 62
     5
 10
960.72512042630001
 20
-74.784347814100002
 30
0.0
 11
972.72512042630001
 21
-74.784347814100002
 31
0.0
  0
ARC
  5
69
  8
ﾚｲﾔ_1
 62
     5
 10
973.7251204262999
 20
-80.541707126999995
 30
0.0
 40
3.0
 50
180.0
 51
225.0
  0
LINE
  5
6A
  8
ﾚｲﾔ_1
 62
     5
 10
986.2251204262999
 20
-97.784347814100002
 30
0.0
 11
986.2251204262999
 21
-91.784347814100002
 31
0.0
  0
LINE
  5
6B
  8
ﾚｲﾔ_1
 62
     5
 10
981.22512042630012
 20
-87.784347814100002
 30
0.0
 11
981.22512042630012
 21
-95.784347814100016
 31
0.0
  0
ARC
  5
6C
  8
ﾚｲﾔ_1
 62
     5
 10
983.22512042630001
 20
-95.784347814100016
 30
0.0
 40
2.0
 50
180.0
 51
270.0
  0
LINE
  5
6D
  8
ﾚｲﾔ_1
 62
     5
 10
949.7251204262999
 20
-79.784347814100002
 30
0.0
 11
974.7251204262999
 21
-79.784347814100002
 31
0.0
  0
LINE
  5
6E
  8
ﾚｲﾔ_1
 62
     5
 10
968.72512042630012
 20
-77.784347814100002
 30
0.0
 11
974.7251204262999
 21
-77.784347814100002
 31
0.0
  0
LINE
  5
6F
  8
ﾚｲﾔ_1
 62
     5
 10
980.2251204262999
 20
-87.784347814100002
 30
0.0
 11
967.22512042630001
 21
-87.784347814100002
 31
0.0
  0
LINE
  5
70
  8
ﾚｲﾔ_1
 62
     5
 10
960.72512042630001
 20
-77.784347814100002
 30
0.0
 11
960.72512042630001
 21
-75.784347814100002
 31
0.0
  0
LINE
  5
71
  8
ﾚｲﾔ_1
 62
     5
 10
968.72512042630012
 20
-74.784347814100002
 30
0.0
 11
968.72512042630012
 21
-78.704190331999996
 31
0.0
  0
LINE
  5
72
  8
ﾚｲﾔ_1
 62
     5
 10
960.72512042630001
 20
-75.784347814100002
 30
0.0
 11
964.72512042630001
 21
-75.784347814100002
 31
0.0
  0
LINE
  5
73
  8
ﾚｲﾔ_1
 62
     5
 10
964.22512042630012
 20
-74.284347814100002
 30
0.0
 11
969.22512042630001
 21
-74.284347814100002
 31
0.0
  0
LINE
  5
74
  8
ﾚｲﾔ_1
 62
     5
 10
967.22512042630001
 20
-144.28434781409999
 30
0.0
 11
981.22512042630012
 21
-144.28434781409999
 31
0.0
  0
ARC
  5
75
  8
ﾚｲﾔ_1
 62
     5
 10
983.22512042630001
 20
-143.78434781409999
 30
0.0
 40
2.0
 50
90.0
 51
180.0
  0
ARC
  5
76
  8
ﾚｲﾔ_1
 62
     5
 10
976.96776111350005
 20
-218.78434781409999
 30
0.0
 40
3.0
 50
90.0
 51
135.0
  0
ARC
  5
77
  8
ﾚｲﾔ_1
 62
     5
 10
964.22512042630012
 20
-214.78434781409999
 30
0.0
 40
3.0
 50
270.0
 51
0.0
  0
ARC
  5
78
  8
ﾚｲﾔ_1
 62
     5
 10
964.22512042630012
 20
-214.78434781409999
 30
0.0
 40
1.0
 50
270.0
 51
0.0
  0
LINE
  5
79
  8
ﾚｲﾔ_1
 62
     5
 10
950.22512042630001
 20
-217.78434781409999
 30
0.0
 11
964.22512042630012
 21
-217.78434781409999
 31
0.0
  0
LINE
  5
7A
  8
ﾚｲﾔ_1
 62
     5
 10
950.22512042630001
 20
-217.78434781409999
 30
0.0
 11
950.22512042630001
 21
-215.78434781409999
 31
0.0
  0
LINE
  5
7B
  8
ﾚｲﾔ_1
 62
     5
 10
980.2251204262999
 20
-214.78434781409999
 30
0.0
 11
967.22512042630001
 21
-214.78434781409999
 31
0.0
  0
LINE
  5
7C
  8
ﾚｲﾔ_1
 62
     5
 10
981.22512042630012
 20
-212.78434781409999
 30
0.0
 11
969.22512042630001
 21
-212.78434781409999
 31
0.0
  0
LINE
  5
7D
  8
ﾚｲﾔ_1
 62
     5
 10
981.22512042630012
 20
-197.78434781409999
 30
0.0
 11
967.22512042630001
 21
-197.78434781409999
 31
0.0
  0
LINE
  5
7E
  8
ﾚｲﾔ_1
 62
     5
 10
969.22512042630001
 20
-199.78434781409999
 30
0.0
 11
981.22512042630012
 21
-199.78434781409999
 31
0.0
  0
LINE
  5
7F
  8
ﾚｲﾔ_1
 62
     5
 10
969.22512042630001
 20
-146.28434781409999
 30
0.0
 11
981.22512042630012
 21
-146.28434781409999
 31
0.0
  0
LINE
  5
80
  8
ﾚｲﾔ_1
 62
     5
 10
963.2251204262999
 20
-130.28434781409999
 30
0.0
 11
963.2251204262999
 21
-132.28434781409999
 31
0.0
  0
ARC
  5
81
  8
ﾚｲﾔ_1
 62
     5
 10
967.22512042630001
 20
-158.28434781409999
 30
0.0
 40
2.0
 50
90.0
 51
180.0
  0
LINE
  5
82
  8
ﾚｲﾔ_1
 62
     5
 10
969.22512042630001
 20
-212.78434781409999
 30
0.0
 11
969.22512042630001
 21
-199.78434781409999
 31
0.0
  0
LINE
  5
83
  8
ﾚｲﾔ_1
 62
     5
 10
965.22512042630001
 20
-209.78434781409999
 30
0.0
 11
969.22512042630001
 21
-209.78434781409999
 31
0.0
  0
INSERT
  5
85
  8
ﾚｲﾔ_1
  6
BORDER
 62
     3
  2
CLUMP0
 10
0.0
 20
0.0
 30
0.0
  0
DIMENSION
  5
A0
  8
寸法線
  2
*D1
 10
933.43707645050006
 20
-84.784347814099988
 30
0.0
 11
933.43707645050006
 21
-94.265100282199995
 31
0.0
 70
   128
  1
<>
 13
950.22512042630001
 23
-84.784347814099988
 33
0.0
 14
950.22512042630001
 24
-86.784347814100002
 34
0.0
 50
90.0
  0
ARC
  5
A1
  8
ﾚｲﾔ_1
 62
     5
 10
964.22512042630012
 20
-87.784347814100002
 30
0.0
 40
1.0
 50
0.0
 51
90.0
  0
LINE
  5
A2
  8
ﾚｲﾔ_1
 62
     5
 10
960.72512042630001
 20
-75.784347814100002
 30
0.0
 11
960.72512042630001
 21
-74.784347814100002
 31
0.0
  0
LINE
  5
A3
  8
ﾚｲﾔ_1
 62
     5
 10
976.96776111350005
 20
-84.784347814099988
 30
0.0
 11
980.2251204262999
 21
-84.784347814099988
 31
0.0
  0
LINE
  5
A4
  8
ﾚｲﾔ_1
 62
     5
 10
972.72512042630001
 20
-74.784347814100002
 30
0.0
 11
972.72512042630001
 21
-75.784347814100002
 31
0.0
  0
ARC
  5
A5
  8
ﾚｲﾔ_1
 62
     5
 10
980.2251204262999
 20
-88.784347814100002
 30
0.0
 40
1.0
 50
0.0
 51
90.0
  0
LINE
  5
A6
  8
ﾚｲﾔ_1
 62
     5
 10
967.22512042630001
 20
-100.7843478141
 30
0.0
 11
965.22512042630001
 21
-100.7843478141
 31
0.0
  0
LINE
  5
A7
  8
ﾚｲﾔ_1
 62
     5
 10
969.22512042630001
 20
-89.784347814099988
 30
0.0
 11
969.22512042630001
 21
-102.7843478141
 31
0.0
  0
LINE
  5
A8
  8
ﾚｲﾔ_1
 62
     5
 10
980.2251204262999
 20
-215.78434781409999
 30
0.0
 11
976.96776111350005
 21
-215.78434781409999
 31
0.0
  0
LINE
  5
A9
  8
ﾚｲﾔ_1
 62
     5
 10
976.96776111350005
 20
-217.78434781409999
 30
0.0
 11
980.2251204262999
 21
-217.78434781409999
 31
0.0
  0
ARC
  5
AA
  8
ﾚｲﾔ_1
 62
     5
 10
967.22512042630001
 20
-144.28434781409999
 30
0.0
 40
2.0
 50
180.0
 51
270.0
  0
LINE
  5
AB
  8
ﾚｲﾔ_1
 62
     5
 10
965.22512042630001
 20
-130.28434781409999
 30
0.0
 11
963.2251204262999
 21
-130.28434781409999
 31
0.0
  0
LINE
  5
AC
  8
ﾚｲﾔ_1
 62
     5
 10
963.2251204262999
 20
-132.28434781409999
 30
0.0
 11
965.22512042630001
 21
-132.28434781409999
 31
0.0
  0
LINE
  5
AD
  8
ﾚｲﾔ_1
 62
     5
 10
963.2251204262999
 20
-170.28434781409999
 30
0.0
 11
965.22512042630001
 21
-170.28434781409999
 31
0.0
  0
LINE
  5
AE
  8
ﾚｲﾔ_1
 62
     5
 10
967.22512042630001
 20
-201.78434781409999
 30
0.0
 11
965.22512042630001
 21
-201.78434781409999
 31
0.0
  0
LINE
  5
AF
  8
ﾚｲﾔ_1
 62
     5
 10
963.2251204262999
 20
-192.28434781409999
 30
0.0
 11
963.2251204262999
 21
-190.28434781409999
 31
0.0
  0
LINE
  5
B0
  8
ﾚｲﾔ_1
 62
     5
 10
967.22512042630001
 20
-156.28434781409999
 30
0.0
 11
967.22512042630001
 21
-151.28434781409999
 31
0.0
  0
LINE
  5
B1
  8
ﾚｲﾔ_1
 62
     5
 10
965.22512042630001
 20
-210.28434781409999
 30
0.0
 11
964.72512042630001
 21
-210.28434781409999
 31
0.0
  0
ARC
  5
B2
  8
ﾚｲﾔ_1
 62
     5
 10
967.22512042630001
 20
-197.78434781409999
 30
0.0
 40
2.0
 50
180.0
 51
270.0
  0
LINE
  5
B3
  8
ﾚｲﾔ_1
 62
     5
 10
965.22512042630001
 20
-201.78434781409999
 30
0.0
 11
965.22512042630001
 21
-214.78434781409999
 31
0.0
  0
LINE
  5
B4
  8
ﾚｲﾔ_1
 62
     5
 10
967.22512042630001
 20
-214.78434781409999
 30
0.0
 11
967.22512042630001
 21
-209.78434781409999
 31
0.0
  0
LINE
  5
B5
  8
ﾚｲﾔ_1
 62
     5
 10
965.22512042630001
 20
-172.2843478140999
 30
0.0
 11
963.2251204262999
 21
-172.2843478140999
 31
0.0
  0
LINE
  5
B6
  8
ﾚｲﾔ_1
 62
     5
 10
970.72512042630001
 20
-203.78434781409999
 30
0.0
 11
969.22512042630001
 21
-203.78434781409999
 31
0.0
  0
LINE
  5
B7
  8
ﾚｲﾔ_1
 62
     5
 10
963.2251204262999
 20
-190.28434781409999
 30
0.0
 11
965.22512042630001
 21
-190.28434781409999
 31
0.0
  0
LINE
  5
B8
  8
ﾚｲﾔ_1
 62
     5
 10
986.2251204262999
 20
-141.78434781409999
 30
0.0
 11
983.22512042630001
 21
-141.78434781409999
 31
0.0
  0
LINE
  5
B9
  8
ﾚｲﾔ_1
 62
     5
 10
986.2251204262999
 20
-160.78434781409999
 30
0.0
 11
983.22512042630001
 21
-160.78434781409999
 31
0.0
  0
LINE
  5
BA
  8
ﾚｲﾔ_1
 62
     5
 10
967.22512042630001
 20
-205.78434781409999
 30
0.0
 11
967.22512042630001
 21
-201.78434781409999
 31
0.0
  0
LINE
  5
BB
  8
ﾚｲﾔ_1
 62
     5
 10
967.22512042630001
 20
-199.78434781409999
 30
0.0
 11
967.22512042630001
 21
-201.78434781409999
 31
0.0
  0
LINE
  5
BC
  8
ﾚｲﾔ_1
 62
     5
 10
963.2251204262999
 20
-172.2843478140999
 30
0.0
 11
963.2251204262999
 21
-170.28434781409999
 31
0.0
  0
LINE
  5
BD
  8
ﾚｲﾔ_1
 62
     5
 10
965.22512042630001
 20
-158.28434781409999
 30
0.0
 11
965.22512042630001
 21
-151.28434781409999
 31
0.0
  0
LINE
  5
BE
  8
ﾚｲﾔ_1
 62
     5
 10
965.22512042630001
 20
-144.28434781409999
 30
0.0
 11
965.22512042630001
 21
-151.28434781409999
 31
0.0
  0
LINE
  5
BF
  8
ﾚｲﾔ_1
 62
     5
 10
967.22512042630001
 20
-158.28434781409999
 30
0.0
 11
981.22512042630012
 21
-158.28434781409999
 31
0.0
  0
LINE
  5
C0
  8
ﾚｲﾔ_1
 62
     5
 10
969.22512042630001
 20
-156.28434781409999
 30
0.0
 11
981.22512042630012
 21
-156.28434781409999
 31
0.0
  0
ARC
  5
C1
  8
ﾚｲﾔ_1
 62
     5
 10
980.2251204262999
 20
-214.78434781409999
 30
0.0
 40
3.0
 50
270.0
 51
0.0
  0
LINE
  5
C2
  8
ﾚｲﾔ_1
 62
     5
 10
981.22512042630012
 20
-214.78434781409999
 30
0.0
 11
981.22512042630012
 21
-206.78434781409999
 31
0.0
  0
LINE
  5
C3
  8
ﾚｲﾔ_1
 62
     5
 10
969.22512042630001
 20
-146.28434781409999
 30
0.0
 11
969.22512042630001
 21
-151.28434781409999
 31
0.0
  0
LINE
  5
C4
  8
ﾚｲﾔ_1
 62
     5
 10
964.72512042630001
 20
-205.28434781409999
 30
0.0
 11
965.22512042630001
 21
-205.28434781409999
 31
0.0
  0
LINE
  5
C5
  8
ﾚｲﾔ_1
 62
     5
 10
967.22512042630001
 20
-146.28434781409999
 30
0.0
 11
967.22512042630001
 21
-151.28434781409999
 31
0.0
  0
LINE
  5
C6
  8
ﾚｲﾔ_1
 62
     5
 10
965.22512042630001
 20
-197.78434781409999
 30
0.0
 11
965.22512042630001
 21
-158.28434781409999
 31
0.0
  0
LINE
  5
C7
  8
ﾚｲﾔ_1
 62
     5
 10
964.22512042630012
 20
-215.78434781409999
 30
0.0
 11
950.22512042630001
 21
-215.78434781409999
 31
0.0
  0
LINE
  5
C8
  8
ﾚｲﾔ_1
 62
     5
 10
964.72512042630001
 20
-210.28434781409999
 30
0.0
 11
964.72512042630001
 21
-205.28434781409999
 31
0.0
  0
LINE
  5
C9
  8
ﾚｲﾔ_1
 62
     5
 10
986.2251204262999
 20
-160.78434781409999
 30
0.0
 11
986.2251204262999
 21
-141.78434781409999
 31
0.0
  0
ARC
  5
CA
  8
ﾚｲﾔ_1
 62
     5
 10
983.22512042630001
 20
-158.78434781409999
 30
0.0
 40
2.0
 50
180.0
 51
270.0
  0
ARC
  5
CB
  8
ﾚｲﾔ_1
 62
     5
 10
976.96776111350005
 20
-218.78434781409999
 30
0.0
 40
1.0
 50
90.0
 51
135.0
  0
LINE
  5
CC
  8
ﾚｲﾔ_1
 62
     5
 10
981.22512042630012
 20
-206.78434781409999
 30
0.0
 11
981.22512042630012
 21
-151.28434781409999
 31
0.0
  0
ARC
  5
CD
  8
ﾚｲﾔ_1
 62
     5
 10
980.2251204262999
 20
-214.78434781409999
 30
0.0
 40
1.0
 50
270.0
 51
0.0
  0
LINE
  5
CE
  8
ﾚｲﾔ_1
 62
     5
 10
969.22512042630001
 20
-211.78434781409999
 30
0.0
 11
970.72512042630001
 21
-211.78434781409999
 31
0.0
  0
LINE
  5
CF
  8
ﾚｲﾔ_1
 62
     5
 10
965.22512042630001
 20
-205.78434781409999
 30
0.0
 11
969.22512042630001
 21
-205.78434781409999
 31
0.0
  0
LINE
  5
D0
  8
ﾚｲﾔ_1
 62
     5
 10
967.22512042630001
 20
-197.78434781409999
 30
0.0
 11
967.22512042630001
 21
-158.28434781409999
 31
0.0
  0
LINE
  5
D1
  8
ﾚｲﾔ_1
 62
     5
 10
969.22512042630001
 20
-156.28434781409999
 30
0.0
 11
969.22512042630001
 21
-151.28434781409999
 31
0.0
  0
LINE
  5
D2
  8
ﾚｲﾔ_1
 62
     5
 10
983.22512042630001
 20
-214.78434781409999
 30
0.0
 11
983.22512042630001
 21
-212.78434781409999
 31
0.0
  0
LINE
  5
D3
  8
ﾚｲﾔ_1
 62
     5
 10
981.22512042630012
 20
-199.78434781409999
 30
0.0
 11
981.22512042630012
 21
-197.78434781409999
 31
0.0
  0
ARC
  5
D4
  8
ﾚｲﾔ_1
 62
     5
 10
983.22512042630001
 20
-206.78434781409999
 30
0.0
 40
2.0
 50
90.0
 51
180.0
  0
LINE
  5
D5
  8
ﾚｲﾔ_1
 62
     5
 10
983.22512042630001
 20
-210.78434781409999
 30
0.0
 11
983.22512042630001
 21
-206.78434781409999
 31
0.0
  0
LINE
  5
D6
  8
ﾚｲﾔ_1
 62
     5
 10
983.22512042630001
 20
-204.78434781409999
 30
0.0
 11
986.2251204262999
 21
-204.78434781409999
 31
0.0
  0
LINE
  5
D7
  8
ﾚｲﾔ_1
 62
     5
 10
965.22512042630001
 20
-192.28434781409999
 30
0.0
 11
963.2251204262999
 21
-192.28434781409999
 31
0.0
  0
LINE
  5
D8
  8
ﾚｲﾔ_1
 62
     5
 10
970.72512042630001
 20
-211.78434781409999
 30
0.0
 11
970.72512042630001
 21
-203.78434781409999
 31
0.0
  0
LINE
  5
D9
  8
ﾚｲﾔ_1
 62
     5
 10
950.22512042630001
 20
-215.78434781409999
 30
0.0
 11
950.22512042630001
 21
-151.28434781409999
 31
0.0
  0
LINE
  5
DA
  8
ﾚｲﾔ_1
 62
     5
 10
968.72512042630012
 20
-224.78434781409999
 30
0.0
 11
974.7251204262999
 21
-224.78434781409999
 31
0.0
  0
LINE
  5
DB
  8
ﾚｲﾔ_1
 62
     5
 10
960.72512042630001
 20
-227.78434781409999
 30
0.0
 11
972.72512042630001
 21
-227.78434781409999
 31
0.0
  0
LINE
  5
DC
  8
ﾚｲﾔ_1
 62
     5
 10
964.22512042630012
 20
-228.28434781409999
 30
0.0
 11
964.22512042630012
 21
-227.78434781409999
 31
0.0
  0
LINE
  5
DD
  8
ﾚｲﾔ_1
 62
     5
 10
960.72512042630001
 20
-226.78434781409999
 30
0.0
 11
960.72512042630001
 21
-227.78434781409999
 31
0.0
  0
INSERT
  5
DF
  8
0
  6
CONTINUOUS
  2
*U29
 10
0.0
 20
0.0
 30
0.0
  0
INSERT
  5
E0
  8
0
  6
CONTINUOUS
  2
*U30
 10
0.0
 20
0.0
 30
0.0
  0
INSERT
  5
E1
  8
0
  6
CONTINUOUS
  2
*U31
 10
0.0
 20
0.0
 30
0.0
  0
INSERT
  5
E2
  8
0
  6
CONTINUOUS
  2
*U32
 10
0.0
 20
0.0
 30
0.0
  0
INSERT
  5
E3
  8
0
  6
CONTINUOUS
  2
*U33
 10
0.0
 20
0.0
 30
0.0
  0
INSERT
  5
E4
  8
0
  6
CONTINUOUS
  2
*U34
 10
0.0
 20
0.0
 30
0.0
  0
INSERT
  5
E5
  8
0
  6
CONTINUOUS
  2
*U35
 10
0.0
 20
0.0
 30
0.0
  0
INSERT
  5
E6
  8
0
  6
CONTINUOUS
  2
*U36
 10
0.0
 20
0.0
 30
0.0
  0
INSERT
  5
E7
  8
0
  6
CONTINUOUS
  2
*U37
 10
0.0
 20
0.0
 30
0.0
  0
INSERT
  5
E8
  8
0
  6
CONTINUOUS
  2
*U38
 10
0.0
 20
0.0
 30
0.0
  0
INSERT
  5
E9
  8
0
  6
CONTINUOUS
  2
*U39
 10
0.0
 20
0.0
 30
0.0
  0
LINE
  5
EA
  8
ﾚｲﾔ_1
 62
     5
 10
1004.7251204263
 20
-234.78434781409999
 30
0.0
 11
1004.7251204263
 21
-227.9559206893
 31
0.0
  0
LINE
  5
EB
  8
ﾚｲﾔ_1
 62
     5
 10
1002.7251204263
 20
-228.78434781409999
 30
0.0
 11
1000.7251204263
 21
-226.78434781409999
 31
0.0
  0
LINE
  5
EC
  8
ﾚｲﾔ_1
 62
     5
 10
1004.7251204263
 20
-227.9559206893
 30
0.0
 11
1001.5535475511
 21
-224.78434781409999
 31
0.0
  0
LINE
  5
ED
  8
ﾚｲﾔ_1
 62
     5
 10
1002.7251204263
 20
-234.78434781409999
 30
0.0
 11
1002.7251204263
 21
-228.78434781409999
 31
0.0
  0
DIMENSION
  5
FC
  8
寸法線
  2
*D2
 10
965.22512042630001
 20
-180.37413339
 30
0.0
 11
958.71144235249994
 21
-180.37413339
 31
0.0
 70
   128
  1
<>
 13
965.22512042630001
 23
-190.28434781409999
 33
0.0
 14
963.2251204262999
 24
-190.28434781409999
 34
0.0
  0
ARC
  5
FD
  8
ﾚｲﾔ_1
 10
958.22512042630001
 20
-151.28434781409999
 30
0.0
 40
33.000946956100002
 50
102.2463328597
 51
148.53151070460001
  0
SOLID
  5
FE
  8
ﾚｲﾔ_1
 10
930.07770881869999
 20
-134.0568778956999
 30
0.0
 11
931.91698543929988
 21
-129.21828504699999
 31
0.0
 12
932.2194820635001
 22
-131.08866850460001
 32
0.0
 13
932.2194820635001
 23
-131.08866850460001
 33
0.0
  0
SOLID
  5
FF
  8
ﾚｲﾔ_1
 10
930.07770881869999
 20
-134.0568778956999
 30
0.0
 11
934.08986552110014
 21
-130.78617188039999
 31
0.0
 12
932.2194820635001
 22
-131.08866850460001
 32
0.0
 13
932.2194820635001
 23
-131.08866850460001
 33
0.0
  0
INSERT
  5
101
  8
ﾚｲﾔ_1
  6
STITCH
  2
CLUMP1
 10
0.0
 20
0.0
 30
0.0
  0
LINE
  5
10E
  8
ﾚｲﾔ_1
 62
     5
 10
983.22512042630001
 20
-206.78434781409999
 30
0.0
 11
986.2251204262999
 21
-206.78434781409999
 31
0.0
  0
LINE
  5
10F
  8
ﾚｲﾔ_1
 62
     5
 10
986.2251204262999
 20
-204.78434781409999
 30
0.0
 11
986.2251204262999
 21
-210.78434781409999
 31
0.0
  0
ARC
  5
110
  8
ﾚｲﾔ_1
 62
     5
 10
980.2251204262999
 20
-213.78434781409999
 30
0.0
 40
1.0
 50
270.0
 51
0.0
  0
LINE
  5
111
  8
ﾚｲﾔ_1
 62
     5
 10
707.57985040129995
 20
-74.784566564100004
 30
0.0
 11
707.57985040129995
 21
-75.784566564100004
 31
0.0
  0
ARC
  5
112
  8
ﾚｲﾔ_1
 62
     5
 10
772.07985040129995
 20
-80.784566564100004
 30
0.0
 40
5.0
 50
0.0
 51
90.0
  0
INSERT
  5
113
  8
0
  6
CONTINUOUS
  2
*U40
 10
0.0
 20
0.0
 30
0.0
  0
INSERT
  5
114
  8
0
  6
CONTINUOUS
  2
*U41
 10
0.0
 20
0.0
 30
0.0
  0
INSERT
  5
115
  8
0
  6
CONTINUOUS
  2
*U42
 10
0.0
 20
0.0
 30
0.0
  0
INSERT
  5
116
  8
0
  6
CONTINUOUS
  2
*U43
 10
0.0
 20
0.0
 30
0.0
  0
INSERT
  5
117
  8
0
  6
CONTINUOUS
  2
*U44
 10
0.0
 20
0.0
 30
0.0
  0
INSERT
  5
118
  8
0
  6
CONTINUOUS
  2
*U45
 10
0.0
 20
0.0
 30
0.0
  0
INSERT
  5
119
  8
0
  6
CONTINUOUS
  2
*U46
 10
0.0
 20
0.0
 30
0.0
  0
INSERT
  5
11A
  8
0
  6
CONTINUOUS
  2
*U47
 10
0.0
 20
0.0
 30
0.0
  0
INSERT
  5
11C
  8
寸法線
  2
BALLON0
 10
0.0
 20
0.0
 30
0.0
  0
LINE
  5
125
  8
ﾚｲﾔ_1
 62
     5
 10
968.72512042630012
 20
-223.86450529620001
 30
0.0
 11
969.8052779085001
 21
-222.78434781409999
 31
0.0
  0
LINE
  5
126
  8
ﾚｲﾔ_1
 62
     5
 10
974.7251204262999
 20
-224.78434781409999
 30
0.0
 11
974.7251204262999
 21
-222.78434781409999
 31
0.0
  0
LINE
  5
127
  8
ﾚｲﾔ_1
 62
     5
 10
949.7251204262999
 20
-222.78434781409999
 30
0.0
 11
974.7251204262999
 21
-222.78434781409999
 31
0.0
  0
LINE
  5
128
  8
ﾚｲﾔ_1
 62
     5
 10
964.72512042630001
 20
-223.86450529620001
 30
0.0
 11
963.64496294419985
 21
-222.78434781409999
 31
0.0
  0
LINE
  5
129
  8
ﾚｲﾔ_1
 62
     5
 10
949.7251204262999
 20
-224.78434781409999
 30
0.0
 11
949.7251204262999
 21
-222.78434781409999
 31
0.0
  0
LINE
  5
12A
  8
ﾚｲﾔ_1
 62
     5
 10
964.72512042630001
 20
-227.78434781409999
 30
0.0
 11
964.72512042630001
 21
-223.86450529620001
 31
0.0
  0
LINE
  5
12B
  8
ﾚｲﾔ_1
 62
     5
 10
968.72512042630012
 20
-227.78434781409999
 30
0.0
 11
968.72512042630012
 21
-223.86450529620001
 31
0.0
  0
LINE
  5
12C
  8
ﾚｲﾔ_1
 62
     5
 10
960.72512042630001
 20
-226.78434781409999
 30
0.0
 11
964.72512042630001
 21
-226.78434781409999
 31
0.0
  0
LINE
  5
12D
  8
ﾚｲﾔ_1
 62
     5
 10
969.22512042630001
 20
-228.28434781409999
 30
0.0
 11
969.22512042630001
 21
-227.78434781409999
 31
0.0
  0
LINE
  5
12E
  8
ﾚｲﾔ_1
 62
     5
 10
972.72512042630001
 20
-227.78434781409999
 30
0.0
 11
972.72512042630001
 21
-226.78434781409999
 31
0.0
  0
LINE
  5
12F
  8
ﾚｲﾔ_1
 62
     5
 10
949.7251204262999
 20
-224.78434781409999
 30
0.0
 11
964.72512042630001
 21
-224.78434781409999
 31
0.0
  0
LINE
  5
130
  8
ﾚｲﾔ_1
 62
     5
 10
960.72512042630001
 20
-224.78434781409999
 30
0.0
 11
960.72512042630001
 21
-226.78434781409999
 31
0.0
  0
LINE
  5
131
  8
ﾚｲﾔ_1
 62
     5
 10
963.2251204262999
 20
-227.78434781409999
 30
0.0
 11
970.2251204262999
 21
-234.78434781409999
 31
0.0
  0
LINE
  5
132
  8
ﾚｲﾔ_1
 62
     5
 10
964.22512042630012
 20
-228.28434781409999
 30
0.0
 11
969.22512042630001
 21
-228.28434781409999
 31
0.0
  0
LINE
  5
133
  8
ﾚｲﾔ_1
 62
     5
 10
699.07985040129995
 20
-74.284566564100004
 30
0.0
 11
699.07985040129995
 21
-74.784566564100004
 31
0.0
  0
LINE
  5
134
  8
ﾚｲﾔ_1
 62
     5
 10
704.07985040129995
 20
-74.284566564100004
 30
0.0
 11
704.07985040129995
 21
-74.784566564100004
 31
0.0
  0
ARC
  5
135
  8
ﾚｲﾔ_1
 62
     5
 10
772.07985040129995
 20
-80.784566564100004
 30
0.0
 40
1.0
 50
0.0
 51
90.0
  0
LINE
  5
136
  8
ﾚｲﾔ_1
 62
     5
 10
696.57985040129995
 20
-102.7845665641
 30
0.0
 11
706.57985040130006
 21
-102.7845665641
 31
0.0
  0
ARC
  5
137
  8
ﾚｲﾔ_1
 62
     5
 10
725.57985040129995
 20
-104.7845665641
 30
0.0
 40
2.0
 50
90.0
 51
180.0
  0
LINE
  5
138
  8
ﾚｲﾔ_1
 62
     5
 10
725.57985040129995
 20
-102.7845665641
 30
0.0
 11
748.07985040130006
 21
-102.7845665641
 31
0.0
  0
ARC
  5
139
  8
ﾚｲﾔ_1
 62
     5
 10
772.07985040129995
 20
-80.784566564100004
 30
0.0
 40
3.0
 50
0.0
 51
90.0
  0
LINE
  5
13A
  8
ﾚｲﾔ_1
 62
     5
 10
710.57985040130006
 20
-106.7845665641
 30
0.0
 11
721.57985040129995
 21
-106.7845665641
 31
0.0
  0
ARC
  5
13B
  8
ﾚｲﾔ_1
 62
     5
 10
721.57985040129995
 20
-104.7845665641
 30
0.0
 40
2.0
 50
270.0
 51
0.0
  0
CIRCLE
  5
13C
  8
ﾚｲﾔ_1
 62
     5
 10
701.57985040129995
 20
-94.784566564100004
 30
0.0
 40
1.5
  0
CIRCLE
  5
13D
  8
ﾚｲﾔ_1
 62
     5
 10
701.57985040129995
 20
-94.784566564100004
 30
0.0
 40
3.0
  0
ARC
  5
13E
  8
ﾚｲﾔ_1
 62
     5
 10
748.07985040130006
 20
-104.7845665641
 30
0.0
 40
2.0
 50
0.0
 51
90.0
  0
LINE
  5
13F
  8
ﾚｲﾔ_1
 62
     5
 10
785.07985040129995
 20
-88.284566564100004
 30
0.0
 11
777.07985040130006
 21
-88.284566564100004
 31
0.0
  0
LINE
  5
140
  8
ﾚｲﾔ_1
 62
     5
 10
708.57985040129995
 20
-104.7845665641
 30
0.0
 11
708.57985040129995
 21
-100.7845665641
 31
0.0
  0
ARC
  5
141
  8
ﾚｲﾔ_1
 62
     5
 10
692.57985040129995
 20
-104.7845665641
 30
0.0
 40
2.0
 50
270.0
 51
0.0
  0
LINE
  5
142
  8
ﾚｲﾔ_1
 62
     5
 10
694.57985040130006
 20
-104.7845665641
 30
0.0
 11
694.57985040130006
 21
-100.7845665641
 31
0.0
  0
ARC
  5
143
  8
ﾚｲﾔ_1
 62
     5
 10
696.57985040129995
 20
-104.7845665641
 30
0.0
 40
2.0
 50
90.0
 51
180.0
  0
LINE
  5
144
  8
ﾚｲﾔ_1
 62
     5
 10
692.57985040129995
 20
-67.784566564100004
 30
0.0
 11
692.57985040129995
 21
-75.784566564100004
 31
0.0
  0
LINE
  5
145
  8
ﾚｲﾔ_1
 62
     5
 10
695.57985040129995
 20
-74.784566564100004
 30
0.0
 11
695.57985040129995
 21
-75.784566564100004
 31
0.0
  0
LINE
  5
146
  8
ﾚｲﾔ_1
 62
     5
 10
694.57985040130006
 20
-67.784566564100004
 30
0.0
 11
694.57985040130006
 21
-75.784566564100004
 31
0.0
  0
LINE
  5
147
  8
ﾚｲﾔ_1
 62
     5
 10
708.57985040129995
 20
-67.784566564100004
 30
0.0
 11
708.57985040129995
 21
-75.784566564100004
 31
0.0
  0
ARC
  5
148
  8
ﾚｲﾔ_1
 62
     5
 10
773.07985040130006
 20
-79.784566564100004
 30
0.0
 40
12.0
 50
0.0
 51
90.0
  0
LINE
  5
149
  8
ﾚｲﾔ_1
 62
     5
 10
764.57985040130006
 20
-67.784566564100004
 30
0.0
 11
764.57985040130006
 21
-75.784566564100004
 31
0.0
  0
LINE
  5
14A
  8
ﾚｲﾔ_1
 62
     5
 10
766.57985040129995
 20
-67.784566564100004
 30
0.0
 11
766.57985040129995
 21
-75.784566564100004
 31
0.0
  0
LINE
  5
14B
  8
ﾚｲﾔ_1
 62
     5
 10
710.57985040130006
 20
-67.784566564100004
 30
0.0
 11
710.57985040130006
 21
-75.784566564100004
 31
0.0
  0
ARC
  5
14C
  8
ﾚｲﾔ_1
 62
     5
 10
721.57985040129995
 20
-197.7845665641
 30
0.0
 40
2.0
 50
0.0
 51
90.0
  0
LINE
  5
14D
  8
ﾚｲﾔ_1
 62
     5
 10
708.57985040129995
 20
-197.7845665641
 30
0.0
 11
708.57985040129995
 21
-197.7845665641
 31
0.0
  0
ARC
  5
14E
  8
ﾚｲﾔ_1
 62
     5
 10
710.57985040130006
 20
-197.7845665641
 30
0.0
 40
2.0
 50
90.0
 51
180.0
  0
ARC
  5
14F
  8
ﾚｲﾔ_1
 62
     5
 10
725.57985040129995
 20
-197.7845665641
 30
0.0
 40
2.0
 50
180.0
 51
270.0
  0
ARC
  5
150
  8
ﾚｲﾔ_1
 62
     5
 10
696.57985040129995
 20
-197.7845665641
 30
0.0
 40
2.0
 50
180.0
 51
270.0
  0
LINE
  5
151
  8
ﾚｲﾔ_1
 62
     5
 10
723.57985040130006
 20
-197.7845665641
 30
0.0
 11
723.57985040130006
 21
-201.7845665641
 31
0.0
  0
LINE
  5
152
  8
ﾚｲﾔ_1
 62
     5
 10
748.07985040130006
 20
-199.7845665641
 30
0.0
 11
725.57985040129995
 21
-199.7845665641
 31
0.0
  0
LINE
  5
153
  8
ﾚｲﾔ_1
 62
     5
 10
766.07985040129995
 20
-214.7845665641
 30
0.0
 11
752.07985040130006
 21
-200.7845665641
 31
0.0
  0
LINE
  5
154
  8
ﾚｲﾔ_1
 62
     5
 10
765.07985040130006
 20
-215.7845665641
 30
0.0
 11
751.07985040129995
 21
-201.7845665641
 31
0.0
  0
ARC
  5
155
  8
ﾚｲﾔ_1
 62
     5
 10
765.07985040130006
 20
-214.7845665641
 30
0.0
 40
3.0
 50
270.0
 51
360.0
  0
LINE
  5
156
  8
ﾚｲﾔ_1
 62
     5
 10
750.07985040129995
 20
-175.2845665641
 30
0.0
 11
750.07985040129995
 21
-197.7845665641
 31
0.0
  0
ARC
  5
157
  8
ﾚｲﾔ_1
 62
     5
 10
692.57985040129995
 20
-197.7845665641
 30
0.0
 40
2.0
 50
0.0
 51
90.0
  0
LINE
  5
158
  8
ﾚｲﾔ_1
 62
     5
 10
694.57985040130006
 20
-197.7845665641
 30
0.0
 11
694.57985040130006
 21
-201.7845665641
 31
0.0
  0
LINE
  5
159
  8
ﾚｲﾔ_1
 62
     5
 10
694.57985040130006
 20
-197.7845665641
 30
0.0
 11
694.57985040130006
 21
-197.7845665641
 31
0.0
  0
LINE
  5
15A
  8
ﾚｲﾔ_1
 62
     5
 10
723.57985040130006
 20
-104.7845665641
 30
0.0
 11
723.57985040130006
 21
-100.7845665641
 31
0.0
  0
LINE
  5
15B
  8
ﾚｲﾔ_1
 62
     5
 10
766.07985040129995
 20
-87.784566564100004
 30
0.0
 11
752.07985040130006
 21
-101.7845665641
 31
0.0
  0
LINE
  5
15C
  8
ﾚｲﾔ_1
 62
     5
 10
765.07985040130006
 20
-86.784566564100004
 30
0.0
 11
751.07985040129995
 21
-100.7845665641
 31
0.0
  0
ARC
  5
15D
  8
ﾚｲﾔ_1
 62
     5
 10
765.07985040130006
 20
-87.784566564100004
 30
0.0
 40
1.0
 50
0.0
 51
90.0
  0
ARC
  5
15E
  8
ﾚｲﾔ_1
 62
     5
 10
765.07985040130006
 20
-87.784566564100004
 30
0.0
 40
3.0
 50
0.0
 51
90.0
  0
LINE
  5
15F
  8
ﾚｲﾔ_1
 62
     5
 10
785.07985040129995
 20
-86.284566564100004
 30
0.0
 11
777.07985040130006
 21
-86.284566564100004
 31
0.0
  0
ARC
  5
160
  8
ﾚｲﾔ_1
 62
     5
 10
710.57985040130006
 20
-104.7845665641
 30
0.0
 40
2.0
 50
180.0
 51
270.0
  0
LINE
  5
161
  8
ﾚｲﾔ_1
 62
     5
 10
708.57985040129995
 20
-104.7845665641
 30
0.0
 11
708.57985040129995
 21
-104.7845665641
 31
0.0
  0
ARC
  5
162
  8
ﾚｲﾔ_1
 62
     5
 10
706.57985040130006
 20
-104.7845665641
 30
0.0
 40
2.0
 50
0.0
 51
90.0
  0
LINE
  5
163
  8
ﾚｲﾔ_1
 62
     5
 10
695.57985040129995
 20
-74.784566564100004
 30
0.0
 11
707.57985040129995
 21
-74.784566564100004
 31
0.0
  0
LINE
  5
164
  8
ﾚｲﾔ_1
 62
     5
 10
699.07985040129995
 20
-74.284566564100004
 30
0.0
 11
704.07985040129995
 21
-74.284566564100004
 31
0.0
  0
LINE
  5
165
  8
ﾚｲﾔ_1
 62
     5
 10
750.07985040129995
 20
-146.2845665641
 30
0.0
 11
750.07985040129995
 21
-156.2845665641
 31
0.0
  0
ARC
  5
166
  8
ﾚｲﾔ_1
 62
     5
 10
748.07985040130006
 20
-146.2845665641
 30
0.0
 40
2.0
 50
0.0
 51
90.0
  0
LINE
  5
167
  8
ﾚｲﾔ_1
 62
     5
 10
768.07985040129995
 20
-149.7845665641
 30
0.0
 11
768.57985040130006
 21
-149.7845665641
 31
0.0
  0
ARC
  5
168
  8
ﾚｲﾔ_1
 62
     5
 10
766.07985040129995
 20
-153.2845665641
 30
0.0
 40
0.5
 50
180.0
 51
270.0
  0
LINE
  5
169
  8
ﾚｲﾔ_1
 62
     5
 10
771.57985040129995
 20
-162.7845665641
 30
0.0
 11
770.07985040129995
 21
-162.7845665641
 31
0.0
  0
LINE
  5
16A
  8
ﾚｲﾔ_1
 62
     5
 10
778.07985040129995
 20
-157.2845665641
 30
0.0
 11
777.07985040130006
 21
-157.2845665641
 31
0.0
  0
LINE
  5
16B
  8
ﾚｲﾔ_1
 62
     5
 10
778.57985040129995
 20
-148.7845665641
 30
0.0
 11
778.07985040129995
 21
-148.7845665641
 31
0.0
  0
LINE
  5
16C
  8
ﾚｲﾔ_1
 62
     5
 10
778.57985040129995
 20
-148.7845665641
 30
0.0
 11
778.57985040129995
 21
-153.7845665641
 31
0.0
  0
ARC
  5
16D
  8
ﾚｲﾔ_1
 62
     5
 10
748.07985040130006
 20
-160.2845665641
 30
0.0
 40
2.0
 50
90.0
 51
180.0
  0
ARC
  5
16E
  8
ﾚｲﾔ_1
 62
     5
 10
748.07985040130006
 20
-156.2845665641
 30
0.0
 40
2.0
 50
270.0
 51
0.0
  0
CIRCLE
  5
16F
  8
ﾚｲﾔ_1
 62
     5
 10
721.57985040129995
 20
-151.2845665641
 30
0.0
 40
1.0
  0
LINE
  5
170
  8
ﾚｲﾔ_1
 62
     5
 10
785.07985040129995
 20
-158.2845665641
 30
0.0
 11
777.07985040130006
 21
-158.2845665641
 31
0.0
  0
CIRCLE
  5
171
  8
ﾚｲﾔ_1
 62
     5
 10
741.57985040129995
 20
-191.2845665641
 30
0.0
 40
1.0
  0
ARC
  5
172
  8
ﾚｲﾔ_1
 62
     5
 10
748.07985040130006
 20
-197.7845665641
 30
0.0
 40
2.0
 50
270.0
 51
0.0
  0
LINE
  5
173
  8
ﾚｲﾔ_1
 62
     5
 10
785.07985040129995
 20
-216.2845665641
 30
0.0
 11
777.07985040130006
 21
-216.2845665641
 31
0.0
  0
LINE
  5
174
  8
ﾚｲﾔ_1
 62
     5
 10
708.57985040129995
 20
-197.7845665641
 30
0.0
 11
708.57985040129995
 21
-201.7845665641
 31
0.0
  0
ARC
  5
175
  8
ﾚｲﾔ_1
 62
     5
 10
706.57985040130006
 20
-197.7845665641
 30
0.0
 40
2.0
 50
270.0
 51
0.0
  0
CIRCLE
  5
176
  8
ﾚｲﾔ_1
 62
     5
 10
701.57985040129995
 20
-207.7845665641
 30
0.0
 40
3.0
  0
LINE
  5
177
  8
ﾚｲﾔ_1
 62
     5
 10
706.57985040130006
 20
-199.7845665641
 30
0.0
 11
696.57985040129995
 21
-199.7845665641
 31
0.0
  0
CIRCLE
  5
178
  8
ﾚｲﾔ_1
 62
     5
 10
721.57985040129995
 20
-191.2845665641
 30
0.0
 40
1.0
  0
CIRCLE
  5
179
  8
ﾚｲﾔ_1
 62
     5
 10
701.57985040129995
 20
-207.7845665641
 30
0.0
 40
1.5
  0
CIRCLE
  5
17A
  8
ﾚｲﾔ_1
 62
     5
 10
701.57985040129995
 20
-191.2845665641
 30
0.0
 40
1.0
  0
LINE
  5
17B
  8
ﾚｲﾔ_1
 62
     5
 10
710.57985040130006
 20
-195.7845665641
 30
0.0
 11
721.57985040129995
 21
-195.7845665641
 31
0.0
  0
ARC
  5
17C
  8
ﾚｲﾔ_1
 62
     5
 10
765.07985040130006
 20
-214.7845665641
 30
0.0
 40
1.0
 50
270.0
 51
0.0
  0
LINE
  5
17D
  8
ﾚｲﾔ_1
 62
     5
 10
785.07985040129995
 20
-214.2845665641
 30
0.0
 11
777.07985040130006
 21
-214.2845665641
 31
0.0
  0
LINE
  5
17E
  8
ﾚｲﾔ_1
 62
     5
 10
706.57985040130006
 20
-156.2845665641
 30
0.0
 11
706.57985040130006
 21
-146.2845665641
 31
0.0
  0
ARC
  5
17F
  8
ﾚｲﾔ_1
 62
     5
 10
748.07985040130006
 20
-175.2845665641
 30
0.0
 40
2.0
 50
0.0
 51
90.0
  0
LINE
  5
180
  8
ﾚｲﾔ_1
 62
     5
 10
748.07985040130006
 20
-144.2845665641
 30
0.0
 11
752.07985040130006
 21
-144.2845665641
 31
0.0
  0
ARC
  5
181
  8
ﾚｲﾔ_1
 62
     5
 10
770.07985040129995
 20
-161.2845665641
 30
0.0
 40
1.5
 50
180.0
 51
270.0
  0
LINE
  5
182
  8
ﾚｲﾔ_1
 62
     5
 10
769.07985040130006
 20
-160.7845665641
 30
0.0
 11
769.07985040130006
 21
-157.7845665641
 31
0.0
  0
LINE
  5
183
  8
ﾚｲﾔ_1
 62
     5
 10
768.07985040129995
 20
-160.7845665641
 30
0.0
 11
769.07985040130006
 21
-160.7845665641
 31
0.0
  0
ARC
  5
184
  8
ﾚｲﾔ_1
 62
     5
 10
766.07985040129995
 20
-149.2845665641
 30
0.0
 40
0.5
 50
90.0
 51
180.0
  0
LINE
  5
185
  8
ﾚｲﾔ_1
 62
     5
 10
696.57985040129995
 20
-156.2845665641
 30
0.0
 11
706.57985040130006
 21
-156.2845665641
 31
0.0
  0
LINE
  5
186
  8
ﾚｲﾔ_1
 62
     5
 10
706.57985040130006
 20
-146.2845665641
 30
0.0
 11
696.57985040129995
 21
-146.2845665641
 31
0.0
  0
LINE
  5
187
  8
ﾚｲﾔ_1
 62
     5
 10
768.57985040130006
 20
-161.2845665641
 30
0.0
 11
768.57985040130006
 21
-160.7845665641
 31
0.0
  0
ARC
  5
188
  8
ﾚｲﾔ_1
 62
     5
 10
748.07985040130006
 20
-171.2845665641
 30
0.0
 40
2.0
 50
180.0
 51
270.0
  0
CIRCLE
  5
189
  8
ﾚｲﾔ_1
 62
     5
 10
741.57985040129995
 20
-171.2845665641
 30
0.0
 40
1.0
  0
CIRCLE
  5
18A
  8
ﾚｲﾔ_1
 62
     5
 10
721.57985040129995
 20
-171.2845665641
 30
0.0
 40
1.0
  0
LINE
  5
18B
  8
ﾚｲﾔ_1
 62
     5
 10
770.57985040129995
 20
-148.7845665641
 30
0.0
 11
770.07985040129995
 21
-148.7845665641
 31
0.0
  0
CIRCLE
  5
18C
  8
ﾚｲﾔ_1
 62
     5
 10
701.57985040129995
 20
-171.2845665641
 30
0.0
 40
1.0
  0
LINE
  5
18D
  8
ﾚｲﾔ_1
 62
     5
 10
768.57985040130006
 20
-157.7845665641
 30
0.0
 11
768.57985040130006
 21
-131.2845665641
 31
0.0
  0
ARC
  5
18E
  8
ﾚｲﾔ_1
 62
     5
 10
748.07985040130006
 20
-142.2845665641
 30
0.0
 40
2.0
 50
180.0
 51
270.0
  0
LINE
  5
18F
  8
ﾚｲﾔ_1
 62
     5
 10
778.07985040129995
 20
-145.2845665641
 30
0.0
 11
777.07985040130006
 21
-145.2845665641
 31
0.0
  0
LINE
  5
190
  8
ﾚｲﾔ_1
 62
     5
 10
770.07985040129995
 20
-151.2845665641
 30
0.0
 11
770.07985040129995
 21
-161.2845665641
 31
0.0
  0
LINE
  5
191
  8
ﾚｲﾔ_1
 62
     5
 10
768.07985040129995
 20
-152.7845665641
 30
0.0
 11
768.57985040130006
 21
-152.7845665641
 31
0.0
  0
LINE
  5
192
  8
ﾚｲﾔ_1
 62
     5
 10
778.57985040129995
 20
-153.7845665641
 30
0.0
 11
778.07985040129995
 21
-153.7845665641
 31
0.0
  0
CIRCLE
  5
193
  8
ﾚｲﾔ_1
 62
     5
 10
741.57985040129995
 20
-151.2845665641
 30
0.0
 40
1.0
  0
LINE
  5
194
  8
ﾚｲﾔ_1
 62
     5
 10
748.07985040130006
 20
-173.2845665641
 30
0.0
 11
752.07985040130006
 21
-173.2845665641
 31
0.0
  0
LINE
  5
195
  8
ﾚｲﾔ_1
 62
     5
 10
770.07985040129995
 20
-151.2845665641
 30
0.0
 11
770.07985040129995
 21
-131.2845665641
 31
0.0
  0
CIRCLE
  5
196
  8
ﾚｲﾔ_1
 62
     5
 10
701.57985040129995
 20
-131.2845665641
 30
0.0
 40
1.0
  0
ARC
  5
197
  8
ﾚｲﾔ_1
 62
     5
 10
631.07985040129995
 20
-80.784566564100004
 30
0.0
 40
5.0
 50
90.0
 51
180.0
  0
LINE
  5
198
  8
ﾚｲﾔ_1
 62
     5
 10
655.07985040129995
 20
-102.7845665641
 30
0.0
 11
677.57985040129995
 21
-102.7845665641
 31
0.0
  0
DIMENSION
  5
1A7
  8
寸法線
  2
*D5
 10
773.07985040130006
 20
-188.5133913862
 30
0.0
 11
798.47149201820002
 21
-188.5133913862
 31
0.0
 70
   128
  1
(5)
 13
773.07985040130006
 23
-191.6850711214
 33
0.0
 14
768.07985040129995
 24
-191.6850711214
 34
0.0
  0
LINE
  5
1A8
  8
ﾚｲﾔ_1
 62
     5
 10
771.57985040129995
 20
-161.2845665641
 30
0.0
 11
771.57985040129995
 21
-162.7845665641
 31
0.0
  0
LINE
  5
1A9
  8
ﾚｲﾔ_1
 62
     5
 10
770.07985040129995
 20
-161.2845665641
 30
0.0
 11
771.57985040129995
 21
-161.2845665641
 31
0.0
  0
LINE
  5
1AA
  8
ﾚｲﾔ_1
 62
     5
 10
770.07985040129995
 20
-131.2845665641
 30
0.0
 11
768.57985040130006
 21
-131.2845665641
 31
0.0
  0
ARC
  5
1AB
  8
ﾚｲﾔ_1
 62
     5
 10
748.07985040130006
 20
-127.2845665641
 30
0.0
 40
2.0
 50
270.0
 51
0.0
  0
LINE
  5
1AC
  8
ﾚｲﾔ_1
 62
     5
 10
746.07985040129995
 20
-142.2845665641
 30
0.0
 11
746.07985040129995
 21
-131.2845665641
 31
0.0
  0
LINE
  5
1AD
  8
ﾚｲﾔ_1
 62
     5
 10
785.07985040129995
 20
-142.2845665641
 30
0.0
 11
777.07985040130006
 21
-142.2845665641
 31
0.0
  0
LINE
  5
1AE
  8
ﾚｲﾔ_1
 62
     5
 10
778.07985040129995
 20
-145.2845665641
 30
0.0
 11
778.07985040129995
 21
-157.2845665641
 31
0.0
  0
LINE
  5
1AF
  8
ﾚｲﾔ_1
 62
     5
 10
765.57985040129995
 20
-149.2845665641
 30
0.0
 11
765.57985040129995
 21
-153.2845665641
 31
0.0
  0
LINE
  5
1B0
  8
ﾚｲﾔ_1
 62
     5
 10
785.07985040129995
 20
-160.2845665641
 30
0.0
 11
777.07985040130006
 21
-160.2845665641
 31
0.0
  0
LINE
  5
1B1
  8
ﾚｲﾔ_1
 62
     5
 10
770.57985040129995
 20
-153.7845665641
 30
0.0
 11
770.07985040129995
 21
-153.7845665641
 31
0.0
  0
LINE
  5
1B2
  8
ﾚｲﾔ_1
 62
     5
 10
770.57985040129995
 20
-153.7845665641
 30
0.0
 11
770.57985040129995
 21
-148.7845665641
 31
0.0
  0
ARC
  5
1B3
  8
ﾚｲﾔ_1
 62
     5
 10
748.07985040130006
 20
-131.2845665641
 30
0.0
 40
2.0
 50
90.0
 51
180.0
  0
CIRCLE
  5
1B4
  8
ﾚｲﾔ_1
 62
     5
 10
721.57985040129995
 20
-131.2845665641
 30
0.0
 40
1.0
  0
CIRCLE
  5
1B5
  8
ﾚｲﾔ_1
 62
     5
 10
741.57985040129995
 20
-131.2845665641
 30
0.0
 40
1.0
  0
CIRCLE
  5
1B6
  8
ﾚｲﾔ_1
 62
     5
 10
758.07985040129995
 20
-151.2845665641
 30
0.0
 40
1.5
  0
LINE
  5
1B7
  8
ﾚｲﾔ_1
 62
     5
 10
748.07985040130006
 20
-158.2845665641
 30
0.0
 11
752.07985040130006
 21
-158.2845665641
 31
0.0
  0
CIRCLE
  5
1B8
  8
ﾚｲﾔ_1
 62
     5
 10
758.07985040129995
 20
-151.2845665641
 30
0.0
 40
3.0
  0
LINE
  5
1B9
  8
ﾚｲﾔ_1
 62
     5
 10
769.07985040130006
 20
-157.7845665641
 30
0.0
 11
768.07985040129995
 21
-157.7845665641
 31
0.0
  0
LINE
  5
1BA
  8
ﾚｲﾔ_1
 62
     5
 10
746.07985040129995
 20
-160.2845665641
 30
0.0
 11
746.07985040129995
 21
-171.2845665641
 31
0.0
  0
LINE
  5
1BB
  8
ﾚｲﾔ_1
 62
     5
 10
696.57985040129995
 20
-146.2845665641
 30
0.0
 11
696.57985040129995
 21
-156.2845665641
 31
0.0
  0
LINE
  5
1BC
  8
ﾚｲﾔ_1
 62
     5
 10
748.07985040130006
 20
-129.2845665641
 30
0.0
 11
752.07985040130006
 21
-129.2845665641
 31
0.0
  0
LINE
  5
1BD
  8
ﾚｲﾔ_1
 62
     5
 10
785.07985040129995
 20
-144.2845665641
 30
0.0
 11
777.07985040130006
 21
-144.2845665641
 31
0.0
  0
LINE
  5
1BE
  8
ﾚｲﾔ_1
 62
     5
 10
655.07985040129995
 20
-173.2845665641
 30
0.0
 11
651.07985040129995
 21
-173.2845665641
 31
0.0
  0
ARC
  5
1BF
  8
ﾚｲﾔ_1
 62
     5
 10
638.07985040129995
 20
-214.7845665641
 30
0.0
 40
1.0
 50
180.0
 51
270.0
  0
LINE
  5
1C0
  8
ﾚｲﾔ_1
 62
     5
 10
618.07985040129995
 20
-142.2845665641
 30
0.0
 11
626.07985040129995
 21
-142.2845665641
 31
0.0
  0
LINE
  5
1C1
  8
ﾚｲﾔ_1
 62
     5
 10
625.07985040129995
 20
-145.2845665641
 30
0.0
 11
626.07985040129995
 21
-145.2845665641
 31
0.0
  0
LINE
  5
1C2
  8
ﾚｲﾔ_1
 62
     5
 10
625.07985040129995
 20
-157.2845665641
 30
0.0
 11
625.07985040129995
 21
-145.2845665641
 31
0.0
  0
LINE
  5
1C3
  8
ﾚｲﾔ_1
 62
     5
 10
618.07985040129995
 20
-144.2845665641
 30
0.0
 11
626.07985040129995
 21
-144.2845665641
 31
0.0
  0
LINE
  5
1C4
  8
ﾚｲﾔ_1
 62
     5
 10
624.57985040129995
 20
-153.7845665641
 30
0.0
 11
624.57985040129995
 21
-148.7845665641
 31
0.0
  0
LINE
  5
1C5
  8
ﾚｲﾔ_1
 62
     5
 10
618.07985040129995
 20
-158.2845665641
 30
0.0
 11
626.07985040129995
 21
-158.2845665641
 31
0.0
  0
LINE
  5
1C6
  8
ﾚｲﾔ_1
 62
     5
 10
638.07985040129995
 20
-215.7845665641
 30
0.0
 11
652.07985040129995
 21
-201.7845665641
 31
0.0
  0
CIRCLE
  5
1C7
  8
ﾚｲﾔ_1
 62
     5
 10
645.07985040129995
 20
-151.2845665641
 30
0.0
 40
3.0
  0
LINE
  5
1C8
  8
ﾚｲﾔ_1
 62
     5
 10
637.07985040129995
 20
-214.7845665641
 30
0.0
 11
651.07985040129995
 21
-200.7845665641
 31
0.0
  0
ARC
  5
1C9
  8
ﾚｲﾔ_1
 62
     5
 10
677.57985040129995
 20
-104.7845665641
 30
0.0
 40
2.0
 50
0.0
 51
90.0
  0
LINE
  5
1CA
  8
ﾚｲﾔ_1
 62
     5
 10
679.57985040129995
 20
-104.7845665641
 30
0.0
 11
679.57985040129995
 21
-100.7845665641
 31
0.0
  0
LINE
  5
1CB
  8
ﾚｲﾔ_1
 62
     5
 10
618.07985040129995
 20
-88.284566564100004
 30
0.0
 11
626.07985040129995
 21
-88.284566564100004
 31
0.0
  0
ARC
  5
1CC
  8
ﾚｲﾔ_1
 62
     5
 10
631.07985040129995
 20
-80.784566564100004
 30
0.0
 40
1.0
 50
90.0
 51
180.0
  0
ARC
  5
1CD
  8
ﾚｲﾔ_1
 62
     5
 10
631.07985040129995
 20
-80.784566564100004
 30
0.0
 40
3.0
 50
90.0
 51
180.0
  0
ARC
  5
1CE
  8
ﾚｲﾔ_1
 62
     5
 10
630.07985040129995
 20
-79.784566564100004
 30
0.0
 40
12.0
 50
90.0
 51
180.0
  0
LINE
  5
1CF
  8
ﾚｲﾔ_1
 62
     5
 10
618.07985040129995
 20
-86.284566564100004
 30
0.0
 11
626.07985040129995
 21
-86.284566564100004
 31
0.0
  0
LINE
  5
1D0
  8
ﾚｲﾔ_1
 62
     5
 10
636.57985040129995
 20
-67.784566564100004
 30
0.0
 11
636.57985040129995
 21
-75.784566564100004
 31
0.0
  0
LINE
  5
1D1
  8
ﾚｲﾔ_1
 62
     5
 10
638.07985040129995
 20
-86.784566564100004
 30
0.0
 11
652.07985040129995
 21
-100.7845665641
 31
0.0
  0
LINE
  5
1D2
  8
ﾚｲﾔ_1
 62
     5
 10
637.07985040129995
 20
-87.784566564100004
 30
0.0
 11
651.07985040129995
 21
-101.7845665641
 31
0.0
  0
ARC
  5
1D3
  8
ﾚｲﾔ_1
 62
     5
 10
638.07985040129995
 20
-87.784566564100004
 30
0.0
 40
1.0
 50
90.0
 51
180.0
  0
ARC
  5
1D4
  8
ﾚｲﾔ_1
 62
     5
 10
638.07985040129995
 20
-87.784566564100004
 30
0.0
 40
3.0
 50
90.0
 51
180.0
  0
ARC
  5
1D5
  8
ﾚｲﾔ_1
 62
     5
 10
655.07985040129995
 20
-104.7845665641
 30
0.0
 40
2.0
 50
90.0
 51
180.0
  0
LINE
  5
1D6
  8
ﾚｲﾔ_1
 62
     5
 10
638.57985040129995
 20
-67.784566564100004
 30
0.0
 11
638.57985040129995
 21
-75.784566564100004
 31
0.0
  0
CIRCLE
  5
1D7
  8
ﾚｲﾔ_1
 62
     5
 10
661.57985040129995
 20
-191.2845665641
 30
0.0
 40
1.0
  0
ARC
  5
1D8
  8
ﾚｲﾔ_1
 62
     5
 10
655.07985040129995
 20
-160.2845665641
 30
0.0
 40
2.0
 50
0.0
 51
90.0
  0
CIRCLE
  5
1D9
  8
ﾚｲﾔ_1
 62
     5
 10
645.07985040129995
 20
-151.2845665641
 30
0.0
 40
1.5
  0
LINE
  5
1DA
  8
ﾚｲﾔ_1
 62
     5
 10
624.57985040129995
 20
-148.7845665641
 30
0.0
 11
625.07985040129995
 21
-148.7845665641
 31
0.0
  0
LINE
  5
1DB
  8
ﾚｲﾔ_1
 62
     5
 10
657.07985040129995
 20
-160.2845665641
 30
0.0
 11
657.07985040129995
 21
-171.2845665641
 31
0.0
  0
LINE
  5
1DC
  8
ﾚｲﾔ_1
 62
     5
 10
618.07985040129995
 20
-160.2845665641
 30
0.0
 11
626.07985040129995
 21
-160.2845665641
 31
0.0
  0
ARC
  5
1DD
  8
ﾚｲﾔ_1
 62
     5
 10
655.07985040129995
 20
-156.2845665641
 30
0.0
 40
2.0
 50
180.0
 51
270.0
  0
LINE
  5
1DE
  8
ﾚｲﾔ_1
 62
     5
 10
655.07985040129995
 20
-158.2845665641
 30
0.0
 11
651.07985040129995
 21
-158.2845665641
 31
0.0
  0
LINE
  5
1DF
  8
ﾚｲﾔ_1
 62
     5
 10
653.07985040129995
 20
-156.2845665641
 30
0.0
 11
653.07985040129995
 21
-146.2845665641
 31
0.0
  0
LINE
  5
1E0
  8
ﾚｲﾔ_1
 62
     5
 10
625.07985040129995
 20
-157.2845665641
 30
0.0
 11
626.07985040129995
 21
-157.2845665641
 31
0.0
  0
LINE
  5
1E1
  8
ﾚｲﾔ_1
 62
     5
 10
618.07985040129995
 20
-214.2845665641
 30
0.0
 11
626.07985040129995
 21
-214.2845665641
 31
0.0
  0
ARC
  5
1E2
  8
ﾚｲﾔ_1
 62
     5
 10
655.07985040129995
 20
-171.2845665641
 30
0.0
 40
2.0
 50
270.0
 51
0.0
  0
LINE
  5
1E3
  8
ﾚｲﾔ_1
 62
     5
 10
635.07985040129995
 20
-160.7845665641
 30
0.0
 11
634.07985040129995
 21
-160.7845665641
 31
0.0
  0
LINE
  5
1E4
  8
ﾚｲﾔ_1
 62
     5
 10
634.57985040129995
 20
-157.7845665641
 30
0.0
 11
634.57985040129995
 21
-131.2845665641
 31
0.0
  0
LINE
  5
1E5
  8
ﾚｲﾔ_1
 62
     5
 10
635.07985040129995
 20
-149.7845665641
 30
0.0
 11
634.57985040129995
 21
-149.7845665641
 31
0.0
  0
LINE
  5
1E6
  8
ﾚｲﾔ_1
 62
     5
 10
635.07985040129995
 20
-152.7845665641
 30
0.0
 11
634.57985040129995
 21
-152.7845665641
 31
0.0
  0
LINE
  5
1E7
  8
ﾚｲﾔ_1
 62
     5
 10
633.07985040129995
 20
-151.2845665641
 30
0.0
 11
633.07985040129995
 21
-161.2845665641
 31
0.0
  0
ARC
  5
1E8
  8
ﾚｲﾔ_1
 62
     5
 10
637.07985040129995
 20
-149.2845665641
 30
0.0
 40
0.5
 50
0.0
 51
90.0
  0
LINE
  5
1E9
  8
ﾚｲﾔ_1
 62
     5
 10
637.57985040129995
 20
-149.2845665641
 30
0.0
 11
637.57985040129995
 21
-153.2845665641
 31
0.0
  0
ARC
  5
1EA
  8
ﾚｲﾔ_1
 62
     5
 10
637.07985040129995
 20
-153.2845665641
 30
0.0
 40
0.5
 50
270.0
 51
0.0
  0
LINE
  5
1EB
  8
ﾚｲﾔ_1
 62
     5
 10
624.57985040129995
 20
-153.7845665641
 30
0.0
 11
625.07985040129995
 21
-153.7845665641
 31
0.0
  0
LINE
  5
1EC
  8
ﾚｲﾔ_1
 62
     5
 10
633.07985040129995
 20
-151.2845665641
 30
0.0
 11
633.07985040129995
 21
-131.2845665641
 31
0.0
  0
ARC
  5
1ED
  8
ﾚｲﾔ_1
 62
     5
 10
655.07985040129995
 20
-142.2845665641
 30
0.0
 40
2.0
 50
270.0
 51
0.0
  0
CIRCLE
  5
1EE
  8
ﾚｲﾔ_1
 62
     5
 10
661.57985040129995
 20
-171.2845665641
 30
0.0
 40
1.0
  0
LINE
  5
1EF
  8
ﾚｲﾔ_1
 62
     5
 10
677.57985040129995
 20
-199.7845665641
 30
0.0
 11
655.07985040129995
 21
-199.7845665641
 31
0.0
  0
ARC
  5
1F0
  8
ﾚｲﾔ_1
 62
     5
 10
677.57985040129995
 20
-197.7845665641
 30
0.0
 40
2.0
 50
270.0
 51
0.0
  0
ARC
  5
1F1
  8
ﾚｲﾔ_1
 62
     5
 10
655.07985040129995
 20
-127.2845665641
 30
0.0
 40
2.0
 50
180.0
 51
270.0
  0
ARC
  5
1F2
  8
ﾚｲﾔ_1
 62
     5
 10
655.07985040129995
 20
-131.2845665641
 30
0.0
 40
2.0
 50
0.0
 51
90.0
  0
LINE
  5
1F3
  8
ﾚｲﾔ_1
 62
     5
 10
631.57985040129995
 20
-161.2845665641
 30
0.0
 11
631.57985040129995
 21
-162.7845665641
 31
0.0
  0
LINE
  5
1F4
  8
ﾚｲﾔ_1
 62
     5
 10
632.57985040129995
 20
-153.7845665641
 30
0.0
 11
632.57985040129995
 21
-148.7845665641
 31
0.0
  0
LINE
  5
1F5
  8
ﾚｲﾔ_1
 62
     5
 10
633.07985040129995
 20
-161.2845665641
 30
0.0
 11
631.57985040129995
 21
-161.2845665641
 31
0.0
  0
LINE
  5
1F6
  8
ﾚｲﾔ_1
 62
     5
 10
657.07985040129995
 20
-142.2845665641
 30
0.0
 11
657.07985040129995
 21
-131.2845665641
 31
0.0
  0
LINE
  5
1F7
  8
ﾚｲﾔ_1
 62
     5
 10
655.07985040129995
 20
-129.2845665641
 30
0.0
 11
651.07985040129995
 21
-129.2845665641
 31
0.0
  0
LINE
  5
1F8
  8
ﾚｲﾔ_1
 62
     5
 10
633.07985040129995
 20
-131.2845665641
 30
0.0
 11
634.57985040129995
 21
-131.2845665641
 31
0.0
  0
ARC
  5
1F9
  8
ﾚｲﾔ_1
 62
     5
 10
638.07985040129995
 20
-214.7845665641
 30
0.0
 40
3.0
 50
180.0
 51
270.0
  0
LINE
  5
1FA
  8
ﾚｲﾔ_1
 62
     5
 10
655.07985040129995
 20
-144.2845665641
 30
0.0
 11
651.07985040129995
 21
-144.2845665641
 31
0.0
  0
ARC
  5
1FB
  8
ﾚｲﾔ_1
 62
     5
 10
655.07985040129995
 20
-146.2845665641
 30
0.0
 40
2.0
 50
90.0
 51
180.0
  0
LINE
  5
1FC
  8
ﾚｲﾔ_1
 62
     5
 10
632.57985040129995
 20
-153.7845665641
 30
0.0
 11
633.07985040129995
 21
-153.7845665641
 31
0.0
  0
LINE
  5
1FD
  8
ﾚｲﾔ_1
 62
     5
 10
632.57985040129995
 20
-148.7845665641
 30
0.0
 11
633.07985040129995
 21
-148.7845665641
 31
0.0
  0
LINE
  5
1FE
  8
ﾚｲﾔ_1
 62
     5
 10
634.07985040129995
 20
-157.7845665641
 30
0.0
 11
635.07985040129995
 21
-157.7845665641
 31
0.0
  0
CIRCLE
  5
1FF
  8
ﾚｲﾔ_1
 62
     5
 10
661.57985040129995
 20
-131.2845665641
 30
0.0
 40
1.0
  0
ARC
  5
200
  8
ﾚｲﾔ_1
 62
     5
 10
633.07985040129995
 20
-161.2845665641
 30
0.0
 40
1.5
 50
270.0
 51
0.0
  0
LINE
  5
201
  8
ﾚｲﾔ_1
 62
     5
 10
634.57985040129995
 20
-161.2845665641
 30
0.0
 11
634.57985040129995
 21
-160.7845665641
 31
0.0
  0
LINE
  5
202
  8
ﾚｲﾔ_1
 62
     5
 10
631.57985040129995
 20
-162.7845665641
 30
0.0
 11
633.07985040129995
 21
-162.7845665641
 31
0.0
  0
CIRCLE
  5
203
  8
ﾚｲﾔ_1
 62
     5
 10
661.57985040129995
 20
-151.2845665641
 30
0.0
 40
1.0
  0
LINE
  5
204
  8
ﾚｲﾔ_1
 62
     5
 10
634.07985040129995
 20
-160.7845665641
 30
0.0
 11
634.07985040129995
 21
-157.7845665641
 31
0.0
  0
LINE
  5
205
  8
ﾚｲﾔ_1
 62
     5
 10
618.07985040129995
 20
-216.2845665641
 30
0.0
 11
626.07985040129995
 21
-216.2845665641
 31
0.0
  0
ARC
  5
206
  8
ﾚｲﾔ_1
 62
     5
 10
655.07985040129995
 20
-175.2845665641
 30
0.0
 40
2.0
 50
90.0
 51
180.0
  0
LINE
  5
207
  8
ﾚｲﾔ_1
 62
     5
 10
653.07985040129995
 20
-197.7845665641
 30
0.0
 11
653.07985040129995
 21
-175.2845665641
 31
0.0
  0
ARC
  5
208
  8
ﾚｲﾔ_1
 62
     5
 10
655.07985040129995
 20
-197.7845665641
 30
0.0
 40
2.0
 50
180.0
 51
270.0
  0
LINE
  5
209
  8
ﾚｲﾔ_1
 62
     5
 10
694.57985040130006
 20
-369.20488080019999
 30
0.0
 11
708.57985040129995
 21
-369.20488080019999
 31
0.0
  0
LINE
  5
20A
  8
ﾚｲﾔ_1
 62
     5
 10
692.57985040129995
 20
-338.70488080019999
 30
0.0
 11
694.57985040130006
 21
-338.70488080019999
 31
0.0
  0
LINE
  5
20B
  8
ﾚｲﾔ_1
 62
     5
 10
779.07985040129995
 20
-371.20488080019999
 30
0.0
 11
785.07985040129995
 21
-371.20488080019999
 31
0.0
  0
LINE
  5
20C
  8
ﾚｲﾔ_1
 62
     5
 10
766.57985040129995
 20
-369.20488080019999
 30
0.0
 11
777.07985040130006
 21
-369.20488080019999
 31
0.0
  0
LINE
  5
20D
  8
ﾚｲﾔ_1
 62
     5
 10
708.57985040129995
 20
-338.70488080019999
 30
0.0
 11
710.57985040130006
 21
-338.70488080019999
 31
0.0
  0
LINE
  5
20E
  8
ﾚｲﾔ_1
 62
     5
 10
764.57985040130006
 20
-338.70488080019999
 30
0.0
 11
766.57985040129995
 21
-338.70488080019999
 31
0.0
  0
LINE
  5
20F
  8
ﾚｲﾔ_1
 62
     5
 10
779.07985040129995
 20
-371.20488080019999
 30
0.0
 11
777.07985040130006
 21
-369.20488080019999
 31
0.0
  0
LINE
  5
210
  8
ﾚｲﾔ_1
 62
     5
 10
785.07985040129995
 20
-338.70488080019999
 30
0.0
 11
785.07985040129995
 21
-373.20488080019999
 31
0.0
  0
LINE
  5
211
  8
ﾚｲﾔ_1
 62
     5
 10
710.57985040130006
 20
-369.20488080019999
 30
0.0
 11
764.57985040130006
 21
-369.20488080019999
 31
0.0
  0
INSERT
  5
213
  8
寸法線
  2
BALLON1
 10
0.0
 20
0.0
 30
0.0
  0
ARC
  5
21C
  8
ﾚｲﾔ_1
 62
     5
 10
773.07985040130006
 20
-222.7845665641
 30
0.0
 40
12.0
 50
270.0
 51
0.0
  0
LINE
  5
21D
  8
ﾚｲﾔ_1
 62
     5
 10
695.57985040129995
 20
-227.7845665641
 30
0.0
 11
695.57985040129995
 21
-226.7845665641
 31
0.0
  0
LINE
  5
21E
  8
ﾚｲﾔ_1
 62
     5
 10
710.57985040130006
 20
-234.7845665641
 30
0.0
 11
710.57985040130006
 21
-226.7845665641
 31
0.0
  0
LINE
  5
21F
  8
ﾚｲﾔ_1
 62
     5
 10
708.57985040129995
 20
-234.7845665641
 30
0.0
 11
708.57985040129995
 21
-226.7845665641
 31
0.0
  0
LINE
  5
220
  8
ﾚｲﾔ_1
 62
     5
 10
704.07985040129995
 20
-228.2845665641
 30
0.0
 11
699.07985040129995
 21
-228.2845665641
 31
0.0
  0
LINE
  5
221
  8
ﾚｲﾔ_1
 62
     5
 10
766.57985040129995
 20
-234.7845665641
 30
0.0
 11
766.57985040129995
 21
-226.7845665641
 31
0.0
  0
LINE
  5
222
  8
ﾚｲﾔ_1
 62
     5
 10
764.57985040130006
 20
-234.7845665641
 30
0.0
 11
764.57985040130006
 21
-226.7845665641
 31
0.0
  0
LINE
  5
223
  8
ﾚｲﾔ_1
 62
     5
 10
704.07985040129995
 20
-228.2845665641
 30
0.0
 11
704.07985040129995
 21
-227.7845665641
 31
0.0
  0
LINE
  5
224
  8
ﾚｲﾔ_1
 62
     5
 10
699.07985040129995
 20
-228.2845665641
 30
0.0
 11
699.07985040129995
 21
-227.7845665641
 31
0.0
  0
LINE
  5
225
  8
ﾚｲﾔ_1
 62
     5
 10
692.57985040129995
 20
-234.7845665641
 30
0.0
 11
692.57985040129995
 21
-226.7845665641
 31
0.0
  0
LINE
  5
226
  8
ﾚｲﾔ_1
 62
     5
 10
707.57985040129995
 20
-227.7845665641
 30
0.0
 11
707.57985040129995
 21
-226.7845665641
 31
0.0
  0
LINE
  5
227
  8
ﾚｲﾔ_1
 62
     5
 10
707.57985040129995
 20
-227.7845665641
 30
0.0
 11
695.57985040129995
 21
-227.7845665641
 31
0.0
  0
LINE
  5
228
  8
ﾚｲﾔ_1
 62
     5
 10
694.57985040130006
 20
-234.7845665641
 30
0.0
 11
694.57985040130006
 21
-226.7845665641
 31
0.0
  0
LINE
  5
229
  8
ﾚｲﾔ_1
 62
     5
 10
679.57985040129995
 20
-197.7845665641
 30
0.0
 11
679.57985040129995
 21
-197.7845665641
 31
0.0
  0
LINE
  5
22A
  8
ﾚｲﾔ_1
 62
     5
 10
679.57985040129995
 20
-197.7845665641
 30
0.0
 11
679.57985040129995
 21
-201.7845665641
 31
0.0
  0
CIRCLE
  5
22B
  8
ﾚｲﾔ_1
 62
     5
 10
741.57985040129995
 20
-111.2845665641
 30
0.0
 40
1.0
  0
INSERT
  5
22C
  8
0
  6
CONTINUOUS
  2
*U50
 10
0.0
 20
0.0
 30
0.0
  0
INSERT
  5
22D
  8
0
  6
CONTINUOUS
  2
*U51
 10
0.0
 20
0.0
 30
0.0
  0
INSERT
  5
22E
  8
0
  6
CONTINUOUS
  2
*U52
 10
0.0
 20
0.0
 30
0.0
  0
DIMENSION
  5
23D
  8
寸法線
  2
*D7
 10
907.93926608669983
 20
-86.784347814100002
 30
0.0
 11
907.93926608669983
 21
-151.28434781409999
 31
0.0
 70
   128
  1
□129
 13
950.22512042630001
 23
-86.784347814100002
 33
0.0
 14
950.22512042630001
 24
-215.78434781409999
 34
0.0
 50
90.0
  0
DIMENSION
  5
24C
  8
寸法線
  2
*D8
 10
965.22512042630001
 20
-116.4410037386
 30
0.0
 11
957.7251204262999
 21
-116.4410037386
 31
0.0
 70
   128
  1
<>
 13
965.22512042630001
 23
-118.7530886995
 33
0.0
 14
950.22512042630001
 24
-116.92684358229999
 34
0.0
  0
LINE
  5
24D
  8
ﾚｲﾔ_1
 62
     5
 10
950.22512042630001
 20
-86.784347814100002
 30
0.0
 11
950.22512042630001
 21
-151.28434781409999
 31
0.0
  0
LINE
  5
24E
  8
ﾚｲﾔ_1
 62
     5
 10
967.22512042630001
 20
-104.7843478141
 30
0.0
 11
967.22512042630001
 21
-144.28434781409999
 31
0.0
  0
LINE
  5
24F
  8
ﾚｲﾔ_1
 62
     5
 10
981.22512042630012
 20
-95.784347814100016
 30
0.0
 11
981.22512042630012
 21
-151.28434781409999
 31
0.0
  0
LINE
  5
250
  8
ﾚｲﾔ_1
 62
     5
 10
965.22512042630001
 20
-104.7843478141
 30
0.0
 11
965.22512042630001
 21
-144.28434781409999
 31
0.0
  0
LINE
  5
251
  8
ﾚｲﾔ_1
 62
     5
 10
949.7251204262999
 20
-79.784347814100002
 30
0.0
 11
949.7251204262999
 21
-151.28434781409999
 31
0.0
  0
LINE
  5
252
  8
ﾚｲﾔ_1
 62
     5
 10
963.2251204262999
 20
-110.2843478141
 30
0.0
 11
963.2251204262999
 21
-112.2843478141
 31
0.0
  0
LINE
  5
253
  8
ﾚｲﾔ_1
 62
     5
 10
963.2251204262999
 20
-112.2843478141
 30
0.0
 11
965.22512042630001
 21
-112.2843478141
 31
0.0
  0
LINE
  5
254
  8
ﾚｲﾔ_1
 62
     5
 10
965.22512042630001
 20
-110.2843478141
 30
0.0
 11
963.2251204262999
 21
-110.2843478141
 31
0.0
  0
DIMENSION
  5
263
  8
寸法線
  2
*D9
 10
1032.2526587258999
 20
-210.78434781409999
 30
0.0
 11
1032.2526587258999
 21
-151.28434781409999
 31
0.0
 70
   128
  1
<>
 13
1004.7251204263
 23
-210.78434781409999
 33
0.0
 14
1004.7251204263
 24
-91.784347814100002
 34
0.0
 50
90.0
  0
LINE
  5
264
  8
ﾚｲﾔ_1
 62
     5
 10
1004.7251204263
 20
-91.784347814100002
 30
0.0
 11
1004.7251204263
 21
-210.78434781409999
 31
0.0
  0
LINE
  5
265
  8
ﾚｲﾔ_1
 62
     5
 10
624.07985040129995
 20
-371.20488080019999
 30
0.0
 11
626.07985040129995
 21
-369.20488080019999
 31
0.0
  0
LINE
  5
266
  8
ﾚｲﾔ_1
 62
     5
 10
618.07985040129995
 20
-371.20488080019999
 30
0.0
 11
624.07985040129995
 21
-371.20488080019999
 31
0.0
  0
LINE
  5
267
  8
ﾚｲﾔ_1
 62
     5
 10
618.07985040129995
 20
-338.70488080019999
 30
0.0
 11
618.07985040129995
 21
-373.20488080019999
 31
0.0
  0
LINE
  5
268
  8
ﾚｲﾔ_1
 62
     5
 10
636.57985040129995
 20
-338.70488080019999
 30
0.0
 11
638.57985040129995
 21
-338.70488080019999
 31
0.0
  0
LINE
  5
269
  8
ﾚｲﾔ_1
 62
     5
 10
626.07985040129995
 20
-369.20488080019999
 30
0.0
 11
636.57985040129995
 21
-369.20488080019999
 31
0.0
  0
ARC
  5
26A
  8
ﾚｲﾔ_1
 62
     5
 10
630.07985040129995
 20
-222.7845665641
 30
0.0
 40
12.0
 50
180.0
 51
270.0
  0
LINE
  5
26B
  8
ﾚｲﾔ_1
 62
     5
 10
636.57985040129995
 20
-234.7845665641
 30
0.0
 11
636.57985040129995
 21
-226.7845665641
 31
0.0
  0
LINE
  5
26C
  8
ﾚｲﾔ_1
 62
     5
 10
638.57985040129995
 20
-234.7845665641
 30
0.0
 11
638.57985040129995
 21
-226.7845665641
 31
0.0
  0
CIRCLE
  5
26D
  8
ﾚｲﾔ_1
 62
     5
 10
701.57985040129995
 20
-335.20488080019999
 30
0.0
 40
2.5
  0
LINE
  5
26E
  8
ﾚｲﾔ_1
 62
     5
 10
777.07985040130006
 20
-329.20488080019999
 30
0.0
 11
777.07985040130006
 21
-330.70488080019999
 31
0.0
  0
ARC
  5
26F
  8
ﾚｲﾔ_1
 62
     5
 10
701.57985040129995
 20
-335.20488080019999
 30
0.0
 40
6.5
 50
43.8130614604
 51
136.18693853959999
  0
LINE
  5
270
  8
ﾚｲﾔ_1
 62
     5
 10
777.07985040130006
 20
-329.20488080019999
 30
0.0
 11
778.07985040129995
 21
-329.20488080019999
 31
0.0
  0
LINE
  5
271
  8
ﾚｲﾔ_1
 62
     5
 10
775.07985040129995
 20
-329.20488080019999
 30
0.0
 11
777.07985040130006
 21
-329.20488080019999
 31
0.0
  0
LINE
  5
272
  8
ﾚｲﾔ_1
 62
     5
 10
692.57985040129995
 20
-330.70488080019999
 30
0.0
 11
692.57985040129995
 21
-371.20488080019999
 31
0.0
  0
LINE
  5
273
  8
ﾚｲﾔ_1
 62
     5
 10
694.57985040130006
 20
-330.70488080019999
 30
0.0
 11
694.57985040130006
 21
-371.20488080019999
 31
0.0
  0
LINE
  5
274
  8
ﾚｲﾔ_1
 62
     5
 10
777.07985040130006
 20
-330.70488080019999
 30
0.0
 11
785.07985040129995
 21
-338.70488080019999
 31
0.0
  0
LINE
  5
275
  8
ﾚｲﾔ_1
 62
     5
 10
766.57985040129995
 20
-330.70488080019999
 30
0.0
 11
766.57985040129995
 21
-371.20488080019999
 31
0.0
  0
LINE
  5
276
  8
ﾚｲﾔ_1
 62
     5
 10
710.57985040130006
 20
-330.70488080019999
 30
0.0
 11
710.57985040130006
 21
-371.20488080019999
 31
0.0
  0
LINE
  5
277
  8
ﾚｲﾔ_1
 62
     5
 10
708.57985040129995
 20
-330.70488080019999
 30
0.0
 11
708.57985040129995
 21
-371.20488080019999
 31
0.0
  0
LINE
  5
278
  8
ﾚｲﾔ_1
 62
     5
 10
777.07985040130006
 20
-330.70488080019999
 30
0.0
 11
777.07985040130006
 21
-369.20488080019999
 31
0.0
  0
LINE
  5
279
  8
ﾚｲﾔ_1
 62
     5
 10
764.57985040130006
 20
-330.70488080019999
 30
0.0
 11
764.57985040130006
 21
-371.20488080019999
 31
0.0
  0
LINE
  5
27A
  8
ﾚｲﾔ_1
 62
     5
 10
706.27026616119986
 20
-330.70488080019999
 30
0.0
 11
777.07985040130006
 21
-330.70488080019999
 31
0.0
  0
CIRCLE
  5
27B
  8
ﾚｲﾔ_1
 62
     5
 10
701.57985040129995
 20
-335.20488080019999
 30
0.0
 40
3.0
  0
LINE
  5
27C
  8
ﾚｲﾔ_1
 62
     5
 10
653.07985040129995
 20
-127.2845665641
 30
0.0
 11
653.07985040129995
 21
-104.7845665641
 31
0.0
  0
LINE
  5
27D
  8
ﾚｲﾔ_1
 62
     5
 10
651.07985040129995
 20
-200.7845665641
 30
0.0
 11
651.07985040129995
 21
-101.7845665641
 31
0.0
  0
LINE
  5
27E
  8
ﾚｲﾔ_1
 62
     5
 10
637.07985040129995
 20
-214.7845665641
 30
0.0
 11
637.07985040129995
 21
-87.784566564100004
 31
0.0
  0
LINE
  5
27F
  8
ﾚｲﾔ_1
 62
     5
 10
635.07985040129995
 20
-214.7845665641
 30
0.0
 11
635.07985040129995
 21
-87.784566564100004
 31
0.0
  0
CIRCLE
  5
280
  8
ﾚｲﾔ_1
 62
     5
 10
661.57985040129995
 20
-111.2845665641
 30
0.0
 40
1.0
  0
LINE
  5
281
  8
ﾚｲﾔ_1
 62
     5
 10
750.07985040129995
 20
-104.7845665641
 30
0.0
 11
750.07985040129995
 21
-127.2845665641
 31
0.0
  0
LINE
  5
282
  8
ﾚｲﾔ_1
 62
     5
 10
768.07985040129995
 20
-87.784566564100004
 30
0.0
 11
768.07985040129995
 21
-214.7845665641
 31
0.0
  0
LINE
  5
283
  8
ﾚｲﾔ_1
 62
     5
 10
752.07985040130006
 20
-101.7845665641
 30
0.0
 11
752.07985040130006
 21
-200.7845665641
 31
0.0
  0
LINE
  5
284
  8
ﾚｲﾔ_1
 62
     5
 10
766.07985040129995
 20
-87.784566564100004
 30
0.0
 11
766.07985040129995
 21
-214.7845665641
 31
0.0
  0
CIRCLE
  5
285
  8
ﾚｲﾔ_1
 62
     5
 10
701.57985040129995
 20
-111.2845665641
 30
0.0
 40
1.0
  0
CIRCLE
  5
286
  8
ﾚｲﾔ_1
 62
     5
 10
721.57985040129995
 20
-111.2845665641
 30
0.0
 40
1.0
  0
LINE
  5
287
  8
ﾚｲﾔ_1
 62
     5
 10
970.2251204262999
 20
-234.78434781409999
 30
0.0
 11
1004.7251204263
 21
-234.78434781409999
 31
0.0
  0
LINE
  5
288
  8
ﾚｲﾔ_1
 62
     5
 10
968.72512042630012
 20
-75.784347814100002
 30
0.0
 11
1000.7251204263
 21
-75.784347814100002
 31
0.0
  0
LINE
  5
289
  8
ﾚｲﾔ_1
 62
     5
 10
1004.7251204263
 20
-212.78434781409999
 30
0.0
 11
983.22512042630001
 21
-212.78434781409999
 31
0.0
  0
LINE
  5
28A
  8
ﾚｲﾔ_1
 62
     5
 10
1004.7251204263
 20
-196.78434781409999
 30
0.0
 11
981.22512042630012
 21
-196.78434781409999
 31
0.0
  0
LINE
  5
28B
  8
ﾚｲﾔ_1
 62
     5
 10
1004.7251204263
 20
-210.78434781409999
 30
0.0
 11
983.22512042630001
 21
-210.78434781409999
 31
0.0
  0
LINE
  5
28C
  8
ﾚｲﾔ_1
 62
     5
 10
1001.5535475511
 20
-77.784347814100002
 30
0.0
 11
977.72512042630001
 21
-77.784347814100002
 31
0.0
  0
LINE
  5
28D
  8
ﾚｲﾔ_1
 62
     5
 10
1004.7251204263
 20
-89.784347814099988
 30
0.0
 11
983.22512042630001
 21
-89.784347814099988
 31
0.0
  0
LINE
  5
28E
  8
ﾚｲﾔ_1
 62
     5
 10
970.2251204262999
 20
-67.784347814100002
 30
0.0
 11
1004.7251204263
 21
-67.784347814100002
 31
0.0
  0
LINE
  5
28F
  8
ﾚｲﾔ_1
 62
     5
 10
1004.7251204263
 20
-91.784347814100002
 30
0.0
 11
983.22512042630001
 21
-91.784347814100002
 31
0.0
  0
LINE
  5
290
  8
ﾚｲﾔ_1
 62
     5
 10
1004.7251204263
 20
-105.7843478141
 30
0.0
 11
981.22512042630012
 21
-105.7843478141
 31
0.0
  0
LINE
  5
291
  8
ﾚｲﾔ_1
 62
     5
 10
626.07985040129995
 20
-329.20488080019999
 30
0.0
 11
626.07985040129995
 21
-330.70488080019999
 31
0.0
  0
LINE
  5
292
  8
ﾚｲﾔ_1
 62
     5
 10
625.07985040129995
 20
-329.20488080019999
 30
0.0
 11
625.07985040129995
 21
-331.70488080019999
 31
0.0
  0
LINE
  5
293
  8
ﾚｲﾔ_1
 62
     5
 10
628.07985040129995
 20
-330.70488080019999
 30
0.0
 11
628.07985040129995
 21
-318.20488080019999
 31
0.0
  0
LINE
  5
294
  8
ﾚｲﾔ_1
 62
     5
 10
628.07985040129995
 20
-329.20488080019999
 30
0.0
 11
626.07985040129995
 21
-329.20488080019999
 31
0.0
  0
LINE
  5
295
  8
ﾚｲﾔ_1
 62
     5
 10
626.07985040129995
 20
-329.20488080019999
 30
0.0
 11
625.07985040129995
 21
-329.20488080019999
 31
0.0
  0
LINE
  5
296
  8
ﾚｲﾔ_1
 62
     5
 10
636.57985040129995
 20
-330.70488080019999
 30
0.0
 11
636.57985040129995
 21
-371.20488080019999
 31
0.0
  0
LINE
  5
297
  8
ﾚｲﾔ_1
 62
     5
 10
626.07985040129995
 20
-330.70488080019999
 30
0.0
 11
626.07985040129995
 21
-369.20488080019999
 31
0.0
  0
LINE
  5
298
  8
ﾚｲﾔ_1
 62
     5
 10
638.57985040129995
 20
-330.70488080019999
 30
0.0
 11
638.57985040129995
 21
-371.20488080019999
 31
0.0
  0
LINE
  5
299
  8
ﾚｲﾔ_1
 62
     5
 10
626.07985040129995
 20
-330.70488080019999
 30
0.0
 11
618.07985040129995
 21
-338.70488080019999
 31
0.0
  0
DIMENSION
  5
2A8
  8
寸法線
  2
*D10
 10
817.56466027679994
 20
-373.20488080019999
 30
0.0
 11
817.56466027679994
 21
-345.70488080019999
 31
0.0
 70
   128
  1
<>
 13
785.07985040129995
 23
-373.20488080019999
 33
0.0
 14
775.07985040129995
 24
-318.20488080019999
 34
0.0
 50
90.0
  0
DIMENSION
  5
2B7
  8
寸法線
  2
*D11
 10
803.46383019869995
 20
-330.70488080019999
 30
0.0
 11
803.46383019869995
 21
-324.53312903279999
 31
0.0
 70
   128
  1
<>
 13
777.07985040130006
 23
-330.70488080019999
 33
0.0
 14
775.07985040129995
 24
-318.20488080019999
 34
0.0
 50
90.0
  0
LINE
  5
2B8
  8
ﾚｲﾔ_1
  6
BORDER
 62
     3
 10
701.57985040129995
 20
-313.20488080019999
 30
0.0
 11
701.57985040129995
 21
-378.20488080019999
 31
0.0
  0
CIRCLE
  5
2B9
  8
ﾚｲﾔ_1
 62
     5
 10
701.57985040129995
 20
-335.20488080019999
 30
0.0
 40
6.0
  0
LINE
  5
2BA
  8
ﾚｲﾔ_1
 62
     5
 10
775.07985040129995
 20
-318.20488080019999
 30
0.0
 11
775.07985040129995
 21
-330.70488080019999
 31
0.0
  0
LINE
  5
2BB
  8
ﾚｲﾔ_1
 62
     5
 10
778.07985040129995
 20
-329.20488080019999
 30
0.0
 11
778.07985040129995
 21
-331.70488080019999
 31
0.0
  0
LINE
  5
2BC
  8
ﾚｲﾔ_1
 62
     5
 10
652.07985040129995
 20
-100.7845665641
 30
0.0
 11
751.07985040129995
 21
-100.7845665641
 31
0.0
  0
LINE
  5
2BD
  8
ﾚｲﾔ_1
 62
     5
 10
638.07985040129995
 20
-86.784566564100004
 30
0.0
 11
765.07985040130006
 21
-86.784566564100004
 31
0.0
  0
LINE
  5
2BE
  8
ﾚｲﾔ_1
 62
     5
 10
638.07985040129995
 20
-84.784566564100004
 30
0.0
 11
765.07985040130006
 21
-84.784566564100004
 31
0.0
  0
LINE
  5
2BF
  8
ﾚｲﾔ_1
 62
     5
 10
751.07985040129995
 20
-201.7845665641
 30
0.0
 11
652.07985040129995
 21
-201.7845665641
 31
0.0
  0
CIRCLE
  5
2C0
  8
ﾚｲﾔ_1
 62
     5
 10
681.57985040129995
 20
-151.2845665641
 30
0.0
 40
1.0
  0
CIRCLE
  5
2C1
  8
ﾚｲﾔ_1
 62
     5
 10
681.57985040129995
 20
-131.2845665641
 30
0.0
 40
1.0
  0
CIRCLE
  5
2C2
  8
ﾚｲﾔ_1
 62
     5
 10
681.57985040129995
 20
-171.2845665641
 30
0.0
 40
1.0
  0
ARC
  5
2C3
  8
ﾚｲﾔ_1
 62
     5
 10
681.57985040129995
 20
-197.7845665641
 30
0.0
 40
2.0
 50
90.0
 51
180.0
  0
CIRCLE
  5
2C4
  8
ﾚｲﾔ_1
 62
     5
 10
681.57985040129995
 20
-191.2845665641
 30
0.0
 40
1.0
  0
CIRCLE
  5
2C5
  8
ﾚｲﾔ_1
 62
     5
 10
681.57985040129995
 20
-111.2845665641
 30
0.0
 40
1.0
  0
ARC
  5
2C6
  8
ﾚｲﾔ_1
 62
     5
 10
681.57985040129995
 20
-104.7845665641
 30
0.0
 40
2.0
 50
180.0
 51
270.0
  0
INSERT
  5
2C7
  8
0
  6
CONTINUOUS
  2
*U53
 10
0.0
 20
0.0
 30
0.0
  0
INSERT
  5
2C8
  8
0
  6
CONTINUOUS
  2
*U54
 10
0.0
 20
0.0
 30
0.0
  0
INSERT
  5
2C9
  8
0
  6
CONTINUOUS
  2
*U55
 10
0.0
 20
0.0
 30
0.0
  0
INSERT
  5
2CA
  8
0
  6
CONTINUOUS
  2
*U56
 10
0.0
 20
0.0
 30
0.0
  0
INSERT
  5
2CB
  8
0
  6
CONTINUOUS
  2
*U57
 10
0.0
 20
0.0
 30
0.0
  0
INSERT
  5
2CD
  8
図枠
  2
CLUMP2
 10
0.0
 20
0.0
 30
0.0
  0
INSERT
  5
2D7
  8
図枠
  2
CLUMP3
 10
0.0
 20
0.0
 30
0.0
  0
INSERT
  5
2E1
  8
図枠
  2
CLUMP4
 10
0.0
 20
0.0
 30
0.0
  0
INSERT
  5
2EB
  8
図枠
  2
CLUMP5
 10
0.0
 20
0.0
 30
0.0
  0
INSERT
  5
2F5
  8
図枠
  2
CLUMP6
 10
0.0
 20
0.0
 30
0.0
  0
INSERT
  5
2FE
  8
0
  6
CONTINUOUS
  2
*U58
 10
0.0
 20
0.0
 30
0.0
  0
INSERT
  5
2FF
  8
0
  6
CONTINUOUS
  2
*U59
 10
0.0
 20
0.0
 30
0.0
  0
LINE
  5
300
  8
ﾚｲﾔ_1
 62
     5
 10
1001.5535475511
 20
-224.78434781409999
 30
0.0
 11
977.72512042630001
 21
-224.78434781409999
 31
0.0
  0
LINE
  5
301
  8
ﾚｲﾔ_1
 62
     5
 10
968.72512042630012
 20
-226.78434781409999
 30
0.0
 11
1000.7251204263
 21
-226.78434781409999
 31
0.0
  0
LINE
  5
302
  8
ﾚｲﾔ_1
 62
     5
 10
1004.7251204263
 20
-212.78434781409999
 30
0.0
 11
1004.7251204263
 21
-227.9559206893
 31
0.0
  0
ARC
  5
303
  8
ﾚｲﾔ_1
 62
     5
 10
973.7251204262999
 20
-222.02698850120001
 30
0.0
 40
3.0
 50
135.0
 51
180.0
  0
ARC
  5
304
  8
ﾚｲﾔ_1
 62
     5
 10
975.96776111350005
 20
-219.78434781409999
 30
0.0
 40
1.0
 50
135.0
 51
270.0
  0
LINE
  5
305
  8
ﾚｲﾔ_1
 62
     5
 10
975.96776111350005
 20
-220.78434781409999
 30
0.0
 11
977.72512042630001
 21
-220.78434781409999
 31
0.0
  0
LINE
  5
306
  8
ﾚｲﾔ_1
 62
     5
 10
971.60380008280003
 20
-219.90566815759999
 30
0.0
 11
974.84644076990003
 21
-216.6630274705
 31
0.0
  0
LINE
  5
307
  8
ﾚｲﾔ_1
 62
     5
 10
975.26065433229985
 20
-219.07724103289999
 30
0.0
 11
976.26065433229996
 21
-218.07724103289999
 31
0.0
  0
LINE
  5
308
  8
ﾚｲﾔ_1
 62
     5
 10
772.07985040129995
 20
-222.7845665641
 30
0.0
 11
631.07985040129995
 21
-222.7845665641
 31
0.0
  0
LINE
  5
309
  8
ﾚｲﾔ_1
 62
     5
 10
772.07985040129995
 20
-224.7845665641
 30
0.0
 11
631.07985040129995
 21
-224.7845665641
 31
0.0
  0
LINE
  5
30A
  8
ﾚｲﾔ_1
 62
     5
 10
638.57985040129995
 20
-369.20488080019999
 30
0.0
 11
692.57985040129995
 21
-369.20488080019999
 31
0.0
  0
LINE
  5
30B
  8
ﾚｲﾔ_1
 62
     5
 10
628.07985040129995
 20
-318.20488080019999
 30
0.0
 11
775.07985040129995
 21
-318.20488080019999
 31
0.0
  0
LINE
  5
30C
  8
ﾚｲﾔ_1
 62
     5
 10
624.07985040129995
 20
-371.20488080019999
 30
0.0
 11
779.07985040129995
 21
-371.20488080019999
 31
0.0
  0
LINE
  5
30D
  8
ﾚｲﾔ_1
 62
     5
 10
618.07985040129995
 20
-373.20488080019999
 30
0.0
 11
785.07985040129995
 21
-373.20488080019999
 31
0.0
  0
LINE
  5
30E
  8
ﾚｲﾔ_1
 62
     5
 10
626.07985040129995
 20
-330.70488080019999
 30
0.0
 11
696.88943464149986
 21
-330.70488080019999
 31
0.0
  0
LINE
  5
30F
  8
ﾚｲﾔ_1
 62
     5
 10
772.07985040129995
 20
-226.7845665641
 30
0.0
 11
631.07985040129995
 21
-226.7845665641
 31
0.0
  0
LINE
  5
310
  8
ﾚｲﾔ_1
 62
     5
 10
630.07985040129995
 20
-234.7845665641
 30
0.0
 11
773.07985040130006
 21
-234.7845665641
 31
0.0
  0
DIMENSION
  5
31F
  8
寸法線
  2
*D17
 10
785.07985040129995
 20
-42.587159795300003
 30
0.0
 11
701.57985040129995
 21
-42.587159795300003
 31
0.0
 70
   128
  1
<>
 13
785.07985040129995
 23
-79.784566564100004
 33
0.0
 14
618.07985040129995
 24
-79.784566564100004
 34
0.0
  0
LINE
  5
320
  8
ﾚｲﾔ_1
 62
     5
 10
692.57985040129995
 20
-106.7845665641
 30
0.0
 11
681.57985040129995
 21
-106.7845665641
 31
0.0
  0
LINE
  5
321
  8
ﾚｲﾔ_1
 62
     5
 10
692.57985040129995
 20
-195.7845665641
 30
0.0
 11
681.57985040129995
 21
-195.7845665641
 31
0.0
  0
LINE
  5
322
  8
ﾚｲﾔ_1
  6
BORDER
 62
     3
 10
613.07985040129995
 20
-151.2845665641
 30
0.0
 11
790.07985040130006
 21
-151.2845665641
 31
0.0
  0
LINE
  5
323
  8
ﾚｲﾔ_1
 62
     5
 10
765.07985040130006
 20
-217.7845665641
 30
0.0
 11
638.07985040129995
 21
-217.7845665641
 31
0.0
  0
LINE
  5
324
  8
ﾚｲﾔ_1
 62
     5
 10
631.07985040129995
 20
-75.784566564100004
 30
0.0
 11
772.07985040129995
 21
-75.784566564100004
 31
0.0
  0
LINE
  5
325
  8
ﾚｲﾔ_1
 62
     5
 10
631.07985040129995
 20
-77.784566564100004
 30
0.0
 11
772.07985040129995
 21
-77.784566564100004
 31
0.0
  0
LINE
  5
326
  8
ﾚｲﾔ_1
 62
     5
 10
773.07985040130006
 20
-67.784566564100004
 30
0.0
 11
630.07985040129995
 21
-67.784566564100004
 31
0.0
  0
LINE
  5
327
  8
ﾚｲﾔ_1
 62
     5
 10
631.07985040129995
 20
-79.784566564100004
 30
0.0
 11
772.07985040129995
 21
-79.784566564100004
 31
0.0
  0
LINE
  5
328
  8
ﾚｲﾔ_1
 62
     5
 10
765.07985040130006
 20
-215.7845665641
 30
0.0
 11
638.07985040129995
 21
-215.7845665641
 31
0.0
  0
INSERT
  5
32A
  8
図枠
  2
CLUMP7
 10
0.0
 20
0.0
 30
0.0
  0
INSERT
  5
3CF
  8
寸法線
  2
BALLON2
 10
0.0
 20
0.0
 30
0.0
  0
DIMENSION
  5
3E6
  8
寸法線
  2
*D20
 10
812.92573281709997
 20
-234.7845665641
 30
0.0
 11
812.92573281709997
 21
-151.2845665641
 31
0.0
 70
   128
  1
<>
 13
773.07985040130006
 23
-234.7845665641
 33
0.0
 14
773.07985040130006
 24
-67.784566564100004
 34
0.0
 50
90.0
  0
ARC
  5
3E7
  8
ﾚｲﾔ_1
 62
     5
 10
772.07985040129995
 20
-221.7845665641
 30
0.0
 40
3.0
 50
270.0
 51
0.0
  0
ARC
  5
3E8
  8
ﾚｲﾔ_1
 62
     5
 10
772.07985040129995
 20
-221.7845665641
 30
0.0
 40
5.0
 50
270.0
 51
0.0
  0
ARC
  5
3E9
  8
ﾚｲﾔ_1
 62
     5
 10
772.07985040129995
 20
-221.7845665641
 30
0.0
 40
1.0
 50
270.0
 51
0.0
  0
LINE
  5
3EA
  8
ﾚｲﾔ_1
 62
     5
 10
775.07985040129995
 20
-80.784566564100004
 30
0.0
 11
775.07985040129995
 21
-221.7845665641
 31
0.0
  0
LINE
  5
3EB
  8
ﾚｲﾔ_1
 62
     5
 10
785.07985040129995
 20
-222.7845665641
 30
0.0
 11
785.07985040129995
 21
-79.784566564100004
 31
0.0
  0
LINE
  5
3EC
  8
ﾚｲﾔ_1
  6
BORDER
 62
     3
 10
701.57985040129995
 20
-239.7845665641
 30
0.0
 11
701.57985040129995
 21
-62.784566564099997
 31
0.0
  0
LINE
  5
3ED
  8
ﾚｲﾔ_1
 62
     5
 10
777.07985040130006
 20
-80.784566564100004
 30
0.0
 11
777.07985040130006
 21
-221.7845665641
 31
0.0
  0
LINE
  5
3EE
  8
ﾚｲﾔ_1
 62
     5
 10
773.07985040130006
 20
-80.784566564100004
 30
0.0
 11
773.07985040130006
 21
-221.7845665641
 31
0.0
  0
LINE
  5
3EF
  8
ﾚｲﾔ_1
 62
     5
 10
626.07985040129995
 20
-221.7845665641
 30
0.0
 11
626.07985040129995
 21
-80.784566564100004
 31
0.0
  0
ARC
  5
3F0
  8
ﾚｲﾔ_1
 62
     5
 10
631.07985040129995
 20
-221.7845665641
 30
0.0
 40
5.0
 50
180.0
 51
270.0
  0
ARC
  5
3F1
  8
ﾚｲﾔ_1
 62
     5
 10
631.07985040129995
 20
-221.7845665641
 30
0.0
 40
3.0
 50
180.0
 51
270.0
  0
LINE
  5
3F2
  8
ﾚｲﾔ_1
 62
     5
 10
630.07985040129995
 20
-221.7845665641
 30
0.0
 11
630.07985040129995
 21
-80.784566564100004
 31
0.0
  0
LINE
  5
3F3
  8
ﾚｲﾔ_1
 62
     5
 10
628.07985040129995
 20
-221.7845665641
 30
0.0
 11
628.07985040129995
 21
-80.784566564100004
 31
0.0
  0
ARC
  5
3F4
  8
ﾚｲﾔ_1
 62
     5
 10
631.07985040129995
 20
-221.7845665641
 30
0.0
 40
1.0
 50
180.0
 51
270.0
  0
LINE
  5
3F5
  8
ﾚｲﾔ_1
 62
     5
 10
618.07985040129995
 20
-79.784566564100004
 30
0.0
 11
618.07985040129995
 21
-222.7845665641
 31
0.0
  0
INSERT
  5
3F7
  8
寸法線
  2
BALLON3
 10
0.0
 20
0.0
 30
0.0
  0
INSERT
  5
401
  8
寸法線
  2
BALLON4
 10
0.0
 20
0.0
 30
0.0
  0
DIMENSION
  5
418
  8
寸法線
  2
*D23
 10
931.92551028840001
 20
-222.78434781409999
 30
0.0
 11
931.92551028840001
 21
-230.52918128350001
 31
0.0
 70
   128
  1
<>
 13
949.7251204262999
 23
-222.78434781409999
 33
0.0
 14
949.7251204262999
 24
-224.78434781409999
 34
0.0
 50
90.0
  0
DIMENSION
  5
427
  8
寸法線
  2
*D24
 10
891.64190662020007
 20
-77.784347814100002
 30
0.0
 11
891.64190662020007
 21
-151.28434781409999
 31
0.0
 70
   128
  1
□147
 13
949.7251204262999
 23
-77.784347814100002
 33
0.0
 14
949.7251204262999
 24
-224.78434781409999
 34
0.0
 50
90.0
  0
LINE
  5
428
  8
ﾚｲﾔ_1
 62
     5
 10
970.72512042630001
 20
-222.78434781409999
 30
0.0
 11
970.72512042630001
 21
-222.02698850120001
 31
0.0
  0
LINE
  5
429
  8
ﾚｲﾔ_1
 62
     5
 10
977.72512042630001
 20
-224.78434781409999
 30
0.0
 11
977.72512042630001
 21
-220.78434781409999
 31
0.0
  0
LINE
  5
42A
  8
ﾚｲﾔ_1
 62
     5
 10
949.7251204262999
 20
-222.78434781409999
 30
0.0
 11
949.7251204262999
 21
-151.28434781409999
 31
0.0
  0
ENDSEC
  0
EOF
