  0
SECTION
  2
HEADER
  9
$ACADVER
  1
AC1009
  9
$INSBASE
 10
0.0
 20
0.0
 30
0.0
  9
$EXTMIN
 10
323.0804024185
 20
-481.1813127858
 30
0.0
  9
$EXTMAX
 10
1552.9604024185001
 20
384.19868721419999
 30
0.0
  9
$LIMMIN
 10
0.0
 20
0.0
  9
$LIMMAX
 10
0.0
 20
0.0
  9
$ORTHOMODE
 70
     0
  9
$REGENMODE
 70
     1
  9
$FILLMODE
 70
     1
  9
$QTEXTMODE
 70
     0
  9
$MIRRTEXT
 70
     1
  9
$DRAGMODE
 70
     2
  9
$LTSCALE
 40
1.0
  9
$OSMODE
 70
    31
  9
$ATTMODE
 70
     1
  9
$TEXTSIZE
 40
0.0
  9
$TRACEWID
 40
0.05
  9
$TEXTSTYLE
  7
STANDARD
  9
$CLAYER
  8
0
  9
$CELTYPE
  6
CONTINUOUS
  9
$CECOLOR
 62
   256
  9
$DIMSCALE
 40
1.0
  9
$DIMASZ
 40
0.18
  9
$DIMEXO
 40
0.0625
  9
$DIMDLI
 40
0.38
  9
$DIMRND
 40
0.0
  9
$DIMDLE
 40
0.0
  9
$DIMEXE
 40
0.18
  9
$DIMTP
 40
0.0
  9
$DIMTM
 40
0.0
  9
$DIMTXT
 40
0.18
  9
$DIMCEN
 40
0.09
  9
$DIMTSZ
 40
0.0
  9
$DIMTOL
 70
     0
  9
$DIMLIM
 70
     0
  9
$DIMTIH
 70
     1
  9
$DIMTOH
 70
     1
  9
$DIMSE1
 70
     0
  9
$DIMSE2
 70
     0
  9
$DIMTAD
 70
     0
  9
$DIMZIN
 70
     0
  9
$DIMBLK
  1

  9
$DIMASO
 70
     1
  9
$DIMSHO
 70
     1
  9
$DIMPOST
  1

  9
$DIMAPOST
  1

  9
$DIMALT
 70
     0
  9
$DIMALTD
 70
     2
  9
$DIMALTF
 40
25.399999999999999
  9
$DIMLFAC
 40
1.0
  9
$DIMTOFL
 70
     0
  9
$DIMTVP
 40
0.0
  9
$DIMTIX
 70
     0
  9
$DIMSOXD
 70
     0
  9
$DIMSAH
 70
     0
  9
$DIMBLK1
  1

  9
$DIMBLK2
  1

  9
$DIMSTYLE
  2
STANDARD
  9
$DIMCLRD
 70
     0
  9
$DIMCLRE
 70
     0
  9
$DIMCLRT
 70
     0
  9
$DIMTFAC
 40
1.0
  9
$DIMGAP
 40
0.09
  9
$LUNITS
 70
     2
  9
$LUPREC
 70
     4
  9
$SKETCHINC
 40
0.1
  9
$FILLETRAD
 40
0.0
  9
$AUNITS
 70
     0
  9
$AUPREC
 70
     0
  9
$MENU
  1
acad
  9
$ELEVATION
 40
0.0
  9
$PELEVATION
 40
0.0
  9
$THICKNESS
 40
0.0
  9
$LIMCHECK
 70
     0
  9
$BLIPMODE
 70
     0
  9
$CHAMFERA
 40
0.0
  9
$CHAMFERB
 40
0.0
  9
$SKPOLY
 70
     0
  9
$TDCREATE
 40
2454859.8120486112
  9
$TDUPDATE
 40
2454859.8122285418
  9
$TDINDWG
 40
0.0001971181
  9
$TDUSRTIMER
 40
0.0001967593
  9
$USRTIMER
 70
     1
  9
$ANGBASE
 50
0.0
  9
$ANGDIR
 70
     0
  9
$PDMODE
 70
     3
  9
$PDSIZE
 40
-1.0
  9
$PLINEWID
 40
0.0
  9
$COORDS
 70
     2
  9
$SPLFRAME
 70
     0
  9
$SPLINETYPE
 70
     6
  9
$SPLINESEGS
 70
     8
  9
$ATTDIA
 70
     0
  9
$ATTREQ
 70
     1
  9
$HANDLING
 70
     1
  9
$HANDSEED
  5
925
  9
$SURFTAB1
 70
     6
  9
$SURFTAB2
 70
     6
  9
$SURFTYPE
 70
     6
  9
$SURFU
 70
     6
  9
$SURFV
 70
     6
  9
$UCSNAME
  2

  9
$UCSORG
 10
0.0
 20
0.0
 30
0.0
  9
$UCSXDIR
 10
1.0
 20
0.0
 30
0.0
  9
$UCSYDIR
 10
0.0
 20
1.0
 30
0.0
  9
$PUCSNAME
  2

  9
$PUCSORG
 10
0.0
 20
0.0
 30
0.0
  9
$PUCSXDIR
 10
1.0
 20
0.0
 30
0.0
  9
$PUCSYDIR
 10
0.0
 20
1.0
 30
0.0
  9
$USERI1
 70
     0
  9
$USERI2
 70
     0
  9
$USERI3
 70
     0
  9
$USERI4
 70
     0
  9
$USERI5
 70
     0
  9
$USERR1
 40
0.0
  9
$USERR2
 40
0.0
  9
$USERR3
 40
0.0
  9
$USERR4
 40
0.0
  9
$USERR5
 40
0.0
  9
$WORLDVIEW
 70
     1
  9
$SHADEDGE
 70
     3
  9
$SHADEDIF
 70
    70
  9
$TILEMODE
 70
     1
  9
$MAXACTVP
 70
    16
  9
$PLIMCHECK
 70
     0
  9
$PEXTMIN
 10
1.0000000000000000E+020
 20
1.0000000000000000E+020
 30
1.0000000000000000E+020
  9
$PEXTMAX
 10
-1.0000000000000000E+020
 20
-1.0000000000000000E+020
 30
-1.0000000000000000E+020
  9
$PLIMMIN
 10
0.0
 20
0.0
  9
$PLIMMAX
 10
12.0
 20
9.0
  9
$UNITMODE
 70
     0
  9
$VISRETAIN
 70
     0
  9
$PLINEGEN
 70
     1
  9
$PSLTSCALE
 70
     0
  0
ENDSEC
  0
SECTION
  2
TABLES
  0
TABLE
  2
VPORT
 70
     2
  0
VPORT
  2
*ACTIVE
 70
     0
 10
0.0
 20
0.0
 11
1.0
 21
1.0
 12
938.02040241849966
 22
-48.491312785799998
 13
0.0
 23
0.0
 14
1.0
 24
1.0
 15
0.0
 25
0.0
 16
0.0
 26
0.0
 36
1.0
 17
0.0
 27
0.0
 37
0.0
 40
872.56157676348539
 41
1.6343490304709141
 42
50.0
 43
0.0
 44
0.0
 50
0.0
 51
0.0
 71
     0
 72
   100
 73
     1
 74
     1
 75
     0
 76
     0
 77
     0
 78
     0
  0
ENDTAB
  0
TABLE
  2
LTYPE
 70
    11
  0
LTYPE
  2
CONTINUOUS
 70
     0
  3
Solid line
 72
    65
 73
     0
 40
0.0
  0
LTYPE
  2
DOT
 70
     0
  3
. . . . . . . . 
 72
    65
 73
     2
 40
1.0
 49
0.0
 49
-1.0
  0
LTYPE
  2
DASHED
 70
     0
  3
___  ___  ___  ___  
 72
    65
 73
     2
 40
4.0
 49
3.0
 49
-1.0
  0
LTYPE
  2
HIDDEN
 70
     0
  3
__ __ __ __ 
 72
    65
 73
     2
 40
3.0
 49
2.0
 49
-1.0
  0
LTYPE
  2
STITCH
 70
     0
  3
_ _ _ _ 
 72
    65
 73
     2
 40
2.0
 49
1.0
 49
-1.0
  0
LTYPE
  2
CENTER
 70
     0
  3
______  __  ______  __  
 72
    65
 73
     4
 40
43.0
 49
40.0
 49
-1.0
 49
1.0
 49
-1.0
  0
LTYPE
  2
DASHDOT
 70
     0
  3
____ . ____ . 
 72
    65
 73
     4
 40
32.0
 49
30.0
 49
-1.0
 49
0.0
 49
-1.0
  0
LTYPE
  2
BORDER
 70
     0
  3
__ . __ . 
 72
    65
 73
     4
 40
22.0
 49
20.0
 49
-1.0
 49
0.0
 49
-1.0
  0
LTYPE
  2
CUTTING
 70
     0
  3
________   ___   ___   
 72
    65
 73
     6
 40
45.0
 49
40.0
 49
-1.0
 49
1.0
 49
-1.0
 49
1.0
 49
-1.0
  0
LTYPE
  2
PHANTOM
 70
     0
  3
______  __  __  
 72
    65
 73
     6
 40
35.0
 49
30.0
 49
-1.0
 49
1.0
 49
-1.0
 49
1.0
 49
-1.0
  0
LTYPE
  2
DIVIDE
 70
     0
  3
____ . . ____ . . 
 72
    65
 73
     6
 40
23.0
 49
20.0
 49
-1.0
 49
0.0
 49
-1.0
 49
0.0
 49
-1.0
  0
ENDTAB
  0
TABLE
  2
LAYER
 70
     5
  0
LAYER
  2
0
 70
     0
 62
     7
  6
CONTINUOUS
  0
LAYER
  2
ﾚｲﾔ_1
 70
     0
 62
     7
  6
CONTINUOUS
  0
LAYER
  2
改訂
 70
     0
 62
     7
  6
CONTINUOUS
  0
LAYER
  2
寸法線
 70
     0
 62
     7
  6
CONTINUOUS
  0
LAYER
  2
図枠
 70
     0
 62
     7
  6
CONTINUOUS
  0
ENDTAB
  0
TABLE
  2
STYLE
 70
     1
  0
STYLE
  2
STANDARD
 70
     0
 40
0.0
 41
1.0
 50
0.0
 71
     0
 42
0.0
  3
txt
  4
extfont
  0
ENDTAB
  0
TABLE
  2
VIEW
 70
     0
  0
ENDTAB
  0
TABLE
  2
UCS
 70
     0
  0
ENDTAB
  0
TABLE
  2
APPID
 70
     2
  0
APPID
  2
ACAD
 70
     0
  0
APPID
  2
DCO15
 70
     0
  0
ENDTAB
  0
TABLE
  2
DIMSTYLE
 70
     3
  0
DIMSTYLE
  2
STANDARD
 70
     0
  3

  4

  5

  6

  7

 40
1.0
 41
0.18
 42
0.0625
 43
0.38
 44
0.18
 45
0.0
 46
0.0
 47
0.0
 48
0.0
140
0.18
141
0.09
142
0.0
143
25.399999999999999
144
1.0
145
0.0
146
1.0
147
0.09
 71
     0
 72
     0
 73
     1
 74
     1
 75
     0
 76
     0
 77
     0
 78
     0
170
     0
171
     2
172
     0
173
     0
174
     0
175
     0
176
     0
177
     0
178
     0
  0
DIMSTYLE
  2
VELDIM0
 70
     0
  3

  4

  5

  6

  7

 40
1.0
 41
9.0
 42
0.0625
 43
0.38
 44
1.0
 45
0.0
 46
5.0
 47
0.0
 48
0.0
140
9.8954164504999991
141
0.09
142
0.0
143
25.399999999999999
144
1.0
145
0.0
146
1.0
147
0.09
 71
     0
 72
     0
 73
     0
 74
     0
 75
     0
 76
     0
 77
     0
 78
     8
170
     0
171
     2
172
     0
173
     0
174
     0
175
     0
176
     0
177
     0
178
     0
  0
DIMSTYLE
  2
VELDIM1
 70
     0
  3

  4

  5

  6

  7

 40
1.0
 41
9.0
 42
0.0625
 43
0.38
 44
1.25
 45
0.0
 46
5.0
 47
0.0
 48
0.0
140
9.8954164504999991
141
0.09
142
0.0
143
25.399999999999999
144
1.0
145
0.0
146
1.0
147
0.09
 71
     0
 72
     0
 73
     0
 74
     0
 75
     0
 76
     0
 77
     0
 78
     8
170
     0
171
     2
172
     0
173
     0
174
     0
175
     0
176
     0
177
     0
178
     0
  0
ENDTAB
  0
ENDSEC
  0
SECTION
  2
BLOCKS
  0
BLOCK
  8
0
  2
$MODEL_SPACE
 70
     0
 10
0.0
 20
0.0
 30
0.0
  3
$MODEL_SPACE
  1

  0
ENDBLK
  5
E
  8
0
  0
BLOCK
 67
     1
  8
0
  2
$PAPER_SPACE
 70
     0
 10
0.0
 20
0.0
 30
0.0
  3
$PAPER_SPACE
  1

  0
ENDBLK
  5
10
 67
     1
  8
0
  0
BLOCK
  8
0
  2
CLUMP0
 70
     0
 10
0.0
 20
0.0
 30
0.0
  3
CLUMP0
  1

  0
LINE
  5
36
  8
ﾚｲﾔ_1
 62
     5
 10
1098.0251027643999
 20
273.02042708329998
 30
0.0
 11
1098.0251027643999
 21
273.82042708329999
 31
0.0
  0
LINE
  5
37
  8
ﾚｲﾔ_1
 62
     5
 10
1092.1251027644
 20
280.42042708330001
 30
0.0
 11
1092.1251027644
 21
273.02042708329998
 31
0.0
  0
LINE
  5
38
  8
ﾚｲﾔ_1
 62
     5
 10
1097.3251027644001
 20
280.42042708330001
 30
0.0
 11
1092.1251027644
 21
280.42042708330001
 31
0.0
  0
LINE
  5
39
  8
ﾚｲﾔ_1
 62
     5
 10
1097.3251027644001
 20
280.42042708330001
 30
0.0
 11
1097.3251027644001
 21
281.22042708330002
 31
0.0
  0
LINE
  5
3A
  8
ﾚｲﾔ_1
 62
     5
 10
1097.3251027644001
 20
281.22042708330002
 30
0.0
 11
1092.1251027644
 21
281.22042708330002
 31
0.0
  0
ARC
  5
3B
  8
ﾚｲﾔ_1
 62
     5
 10
1092.1251027644
 20
280.42042708330001
 30
0.0
 40
0.8
 50
90.0
 51
180.0
  0
LINE
  5
3C
  8
ﾚｲﾔ_1
 62
     5
 10
1091.3251027644001
 20
280.42042708330001
 30
0.0
 11
1091.3251027644001
 21
273.02042708329998
 31
0.0
  0
ARC
  5
3D
  8
ﾚｲﾔ_1
 62
     5
 10
1092.1251027644
 20
273.02042708329998
 30
0.0
 40
0.8
 50
180.0
 51
270.0
  0
LINE
  5
3E
  8
ﾚｲﾔ_1
 62
     5
 10
1140.3251027644001
 20
281.22042708330002
 30
0.0
 11
1140.3251027644001
 21
280.42042708330001
 31
0.0
  0
LINE
  5
3F
  8
ﾚｲﾔ_1
 62
     5
 10
1145.5251027643999
 20
280.42042708330001
 30
0.0
 11
1140.3251027644001
 21
280.42042708330001
 31
0.0
  0
LINE
  5
40
  8
ﾚｲﾔ_1
 62
     5
 10
1145.5251027643999
 20
268.02042708329998
 30
0.0
 11
1145.5251027643999
 21
280.42042708330001
 31
0.0
  0
LINE
  5
41
  8
ﾚｲﾔ_1
 62
     5
 10
1117.1251027644
 20
268.02042708329998
 30
0.0
 11
1145.5251027643999
 21
268.02042708329998
 31
0.0
  0
LINE
  5
42
  8
ﾚｲﾔ_1
 62
     5
 10
1092.1251027644
 20
272.22042708330002
 30
0.0
 11
1116.3251027644001
 21
272.22042708330002
 31
0.0
  0
LINE
  5
43
  8
ﾚｲﾔ_1
 62
     5
 10
1092.1251027644
 20
273.02042708329998
 30
0.0
 11
1116.3251027644001
 21
273.02042708329998
 31
0.0
  0
LINE
  5
44
  8
ﾚｲﾔ_1
 62
     5
 10
1117.1251027644
 20
272.22042708330002
 30
0.0
 11
1117.1251027644
 21
268.02042708329998
 31
0.0
  0
ARC
  5
45
  8
ﾚｲﾔ_1
 62
     5
 10
1116.3251027644001
 20
272.22042708330002
 30
0.0
 40
0.8
 50
0.0
 51
90.0
  0
LINE
  5
46
  8
ﾚｲﾔ_1
 62
     5
 10
1116.3251027644001
 20
272.22042708330002
 30
0.0
 11
1116.3251027644001
 21
268.02042708329998
 31
0.0
  0
ARC
  5
47
  8
ﾚｲﾔ_1
 62
     5
 10
1117.1251027644
 20
268.02042708329998
 30
0.0
 40
0.8
 50
180.0
 51
270.0
  0
LINE
  5
48
  8
ﾚｲﾔ_1
 62
     5
 10
1117.1251027644
 20
267.22042708330002
 30
0.0
 11
1145.5251027643999
 21
267.22042708330002
 31
0.0
  0
ARC
  5
49
  8
ﾚｲﾔ_1
 62
     5
 10
1145.5251027643999
 20
268.02042708329998
 30
0.0
 40
0.8
 50
270.0
 51
0.0
  0
LINE
  5
4A
  8
ﾚｲﾔ_1
 62
     5
 10
1145.5251027643999
 20
281.22042708330002
 30
0.0
 11
1140.3251027644001
 21
281.22042708330002
 31
0.0
  0
LINE
  5
4B
  8
ﾚｲﾔ_1
 62
     5
 10
1146.3251027644001
 20
268.02042708329998
 30
0.0
 11
1146.3251027644001
 21
280.42042708330001
 31
0.0
  0
ARC
  5
4C
  8
ﾚｲﾔ_1
 62
     5
 10
1145.5251027643999
 20
280.42042708330001
 30
0.0
 40
0.8
 50
0.0
 51
90.0
  0
LINE
  5
4D
  8
ﾚｲﾔ_1
 62
     5
 10
1098.0251027643999
 20
273.82042708329999
 30
0.0
 11
1145.5251027643999
 21
273.82042708329999
 31
0.0
  0
LINE
  5
4E
  8
ﾚｲﾔ_1
 62
     5
 10
1116.3251027644001
 20
273.02042708329998
 30
0.0
 11
1145.5251027643999
 21
273.02042708329998
 31
0.0
  0
ENDBLK
  5
4F
  8
0
  0
BLOCK
  8
0
  2
CLUMP1
 70
     0
 10
0.0
 20
0.0
 30
0.0
  3
CLUMP1
  1

  0
LINE
  5
57
  8
ﾚｲﾔ_1
 62
     5
 10
988.39287620189987
 20
273.82089843749998
 30
0.0
 11
1013.0928762019
 21
273.82089843749998
 31
0.0
  0
LINE
  5
58
  8
ﾚｲﾔ_1
 62
     5
 10
988.39287620189987
 20
273.82089843749998
 30
0.0
 11
988.39287620189987
 21
273.02089843750002
 31
0.0
  0
LINE
  5
59
  8
ﾚｲﾔ_1
 62
     5
 10
1013.0928762019
 20
266.52089843750002
 30
0.0
 11
999.69287620190005
 21
266.52089843750002
 31
0.0
  0
LINE
  5
5A
  8
ﾚｲﾔ_1
 62
     5
 10
1013.0928762019
 20
280.4208984375
 30
0.0
 11
1013.0928762019
 21
266.52089843750002
 31
0.0
  0
ARC
  5
5B
  8
ﾚｲﾔ_1
 62
     5
 10
1013.0928762019
 20
280.4208984375
 30
0.0
 40
0.8
 50
0.0
 51
90.0
  0
LINE
  5
5C
  8
ﾚｲﾔ_1
 62
     5
 10
1013.8928762019
 20
266.52089843750002
 30
0.0
 11
1013.8928762019
 21
280.4208984375
 31
0.0
  0
ARC
  5
5D
  8
ﾚｲﾔ_1
 62
     5
 10
1013.0928762019
 20
266.52089843750002
 30
0.0
 40
0.8
 50
270.0
 51
0.0
  0
LINE
  5
5E
  8
ﾚｲﾔ_1
 62
     5
 10
999.69287620190005
 20
265.72089843750001
 30
0.0
 11
1013.0928762019
 21
265.72089843750001
 31
0.0
  0
LINE
  5
5F
  8
ﾚｲﾔ_1
 62
     5
 10
998.89287620189998
 20
272.22089843750001
 30
0.0
 11
998.89287620189998
 21
266.52089843750002
 31
0.0
  0
ARC
  5
60
  8
ﾚｲﾔ_1
 62
     5
 10
999.69287620190005
 20
266.52089843750002
 30
0.0
 40
0.8
 50
180.0
 51
270.0
  0
LINE
  5
61
  8
ﾚｲﾔ_1
 62
     5
 10
999.69287620190005
 20
266.52089843750002
 30
0.0
 11
999.69287620190005
 21
272.22089843750001
 31
0.0
  0
LINE
  5
62
  8
ﾚｲﾔ_1
 62
     5
 10
1007.8928762019
 20
280.4208984375
 30
0.0
 11
1013.0928762019
 21
280.4208984375
 31
0.0
  0
LINE
  5
63
  8
ﾚｲﾔ_1
 62
     5
 10
1007.8928762019
 20
281.22089843750001
 30
0.0
 11
1007.8928762019
 21
280.4208984375
 31
0.0
  0
LINE
  5
64
  8
ﾚｲﾔ_1
 62
     5
 10
989.89287620189998
 20
280.4208984375
 30
0.0
 11
989.89287620189998
 21
273.82089843749998
 31
0.0
  0
LINE
  5
65
  8
ﾚｲﾔ_1
 62
     5
 10
998.89287620189998
 20
273.02089843750002
 30
0.0
 11
1013.0928762019
 21
273.02089843750002
 31
0.0
  0
LINE
  5
66
  8
ﾚｲﾔ_1
 62
     5
 10
989.89287620189998
 20
280.4208984375
 30
0.0
 11
989.89287620189998
 21
281.22089843750001
 31
0.0
  0
LINE
  5
67
  8
ﾚｲﾔ_1
 62
     5
 10
1013.0928762019
 20
281.22089843750001
 30
0.0
 11
1007.8928762019
 21
281.22089843750001
 31
0.0
  0
ARC
  5
68
  8
ﾚｲﾔ_1
 62
     5
 10
998.89287620189998
 20
272.22089843750001
 30
0.0
 40
0.8
 50
0.0
 51
90.0
  0
ARC
  5
69
  8
ﾚｲﾔ_1
 62
     5
 10
984.69287620190005
 20
273.02089843750002
 30
0.0
 40
0.8
 50
180.0
 51
270.0
  0
LINE
  5
6A
  8
ﾚｲﾔ_1
 62
     5
 10
984.69287620190005
 20
273.02089843750002
 30
0.0
 11
984.69287620190005
 21
280.4208984375
 31
0.0
  0
ARC
  5
6B
  8
ﾚｲﾔ_1
 62
     5
 10
984.69287620190005
 20
280.4208984375
 30
0.0
 40
0.8
 50
90.0
 51
180.0
  0
LINE
  5
6C
  8
ﾚｲﾔ_1
 62
     5
 10
983.89287620189998
 20
280.4208984375
 30
0.0
 11
983.89287620189998
 21
273.02089843750002
 31
0.0
  0
LINE
  5
6D
  8
ﾚｲﾔ_1
 62
     5
 10
984.69287620190005
 20
280.4208984375
 30
0.0
 11
989.89287620189998
 21
280.4208984375
 31
0.0
  0
LINE
  5
6E
  8
ﾚｲﾔ_1
 62
     5
 10
989.89287620189998
 20
281.22089843750001
 30
0.0
 11
984.69287620190005
 21
281.22089843750001
 31
0.0
  0
LINE
  5
6F
  8
ﾚｲﾔ_1
 62
     5
 10
998.89287620189998
 20
273.02089843750002
 30
0.0
 11
984.69287620190005
 21
273.02089843750002
 31
0.0
  0
LINE
  5
70
  8
ﾚｲﾔ_1
 62
     5
 10
984.69287620190005
 20
272.22089843750001
 30
0.0
 11
998.89287620189998
 21
272.22089843750001
 31
0.0
  0
ENDBLK
  5
71
  8
0
  0
BLOCK
  8
0
  2
*D2
 70
     1
 10
0.0
 20
0.0
 30
0.0
  3
*D2
  1

  0
TEXT
  5
7B
  8
0
 62
     0
 10
1034.1320685923999
 20
5.2859853585999996
 30
0.0
 40
9.8954164504999991
  1
15.5
 50
90.0
  0
LINE
  5
7C
  8
0
 62
     0
 10
1015.0928762019
 20
33.220898437499997
 30
0.0
 11
1037.8783185542
 21
33.220898437499997
 31
0.0
  0
LINE
  5
7D
  8
0
 62
     0
 10
1015.0928762019
 20
48.720898437499997
 30
0.0
 11
1037.8783185542
 21
48.720898437499997
 31
0.0
  0
LINE
  5
7E
  8
0
 62
     0
 10
1036.8783185542
 20
33.220898437499997
 30
0.0
 11
1036.8783185542
 21
30.9946653525
 31
0.0
  0
LINE
  5
7F
  8
0
 62
     0
 10
1036.8783185542
 20
33.220898437499997
 30
0.0
 11
1036.8783185542
 21
-0.5348478476
 31
0.0
  0
LINE
  5
80
  8
0
 62
     0
 10
1036.8783185542
 20
48.720898437499997
 30
0.0
 11
1036.8783185542
 21
30.9946653525
 31
0.0
  0
LINE
  5
81
  8
0
 62
     0
 10
1036.8783185542
 20
48.720898437499997
 30
0.0
 11
1036.8783185542
 21
-0.5348478476
 31
0.0
  0
LINE
  5
82
  8
0
 62
     0
 10
1036.8783185542
 20
48.720898437499997
 30
0.0
 11
1036.8783185542
 21
53.720898437499997
 31
0.0
  0
SOLID
  5
83
  8
0
 62
     0
 10
1036.8783185542
 20
48.720898437499997
 30
0.0
 11
1034.6283185542
 21
57.72089843749999
 31
0.0
 12
1039.1283185542
 22
57.72089843749999
 32
0.0
 13
1036.8783185542
 23
55.470898437499997
 33
0.0
  0
LINE
  5
84
  8
0
 62
     0
 10
1036.8783185542
 20
33.220898437499997
 30
0.0
 11
1036.8783185542
 21
28.220898437500001
 31
0.0
  0
SOLID
  5
85
  8
0
 62
     0
 10
1036.8783185542
 20
33.220898437499997
 30
0.0
 11
1039.1283185542
 21
24.220898437500001
 31
0.0
 12
1034.6283185542
 22
24.220898437500001
 32
0.0
 13
1036.8783185542
 23
26.470898437500001
 33
0.0
  0
ENDBLK
  5
86
  8
0
  0
BLOCK
  8
0
  2
*D3
 70
     1
 10
0.0
 20
0.0
 30
0.0
  3
*D3
  1

  0
TEXT
  5
8B
  8
0
 62
     0
 10
1164.9937640727001
 20
34.400536585499999
 30
0.0
 40
9.8954164504999991
  1
14
 50
90.0
  0
LINE
  5
8C
  8
0
 62
     0
 10
1148.3251027644001
 20
33.221369791699999
 30
0.0
 11
1168.7400140346001
 21
33.221369791699999
 31
0.0
  0
LINE
  5
8D
  8
0
 62
     0
 10
1148.3251027644001
 20
47.221369791699999
 30
0.0
 11
1168.7400140346001
 21
47.221369791699999
 31
0.0
  0
LINE
  5
8E
  8
0
 62
     0
 10
1167.7400140346001
 20
33.221369791699999
 30
0.0
 11
1167.7400140346001
 21
33.221369791699999
 31
0.0
  0
LINE
  5
8F
  8
0
 62
     0
 10
1167.7400140346001
 20
33.221369791699999
 30
0.0
 11
1167.7400140346001
 21
47.221369791699999
 31
0.0
  0
LINE
  5
90
  8
0
 62
     0
 10
1167.7400140346001
 20
47.221369791699999
 30
0.0
 11
1167.7400140346001
 21
33.221369791699999
 31
0.0
  0
LINE
  5
91
  8
0
 62
     0
 10
1167.7400140346001
 20
47.221369791699999
 30
0.0
 11
1167.7400140346001
 21
47.221369791699999
 31
0.0
  0
LINE
  5
92
  8
0
 62
     0
 10
1167.7400140346001
 20
47.221369791699999
 30
0.0
 11
1167.7400140346001
 21
52.221369791699999
 31
0.0
  0
SOLID
  5
93
  8
0
 62
     0
 10
1167.7400140346001
 20
47.221369791699999
 30
0.0
 11
1165.4900140346001
 21
56.221369791699999
 31
0.0
 12
1169.9900140346001
 22
56.221369791699999
 32
0.0
 13
1167.7400140346001
 23
53.971369791699992
 33
0.0
  0
LINE
  5
94
  8
0
 62
     0
 10
1167.7400140346001
 20
33.221369791699999
 30
0.0
 11
1167.7400140346001
 21
28.221369791699999
 31
0.0
  0
SOLID
  5
95
  8
0
 62
     0
 10
1167.7400140346001
 20
33.221369791699999
 30
0.0
 11
1169.9900140346001
 21
24.221369791699999
 31
0.0
 12
1165.4900140346001
 22
24.221369791699999
 32
0.0
 13
1167.7400140346001
 23
26.471369791699999
 33
0.0
  0
ENDBLK
  5
96
  8
0
  0
BLOCK
  8
0
  2
CLUMP2
 70
     0
 10
0.0
 20
0.0
 30
0.0
  3
CLUMP2
  1

  0
LINE
  5
A1
  8
ﾚｲﾔ_1
 62
     5
 10
988.39287620189987
 20
40.620898437500003
 30
0.0
 11
1013.0928762019
 21
40.620898437500003
 31
0.0
  0
LINE
  5
A2
  8
ﾚｲﾔ_1
 62
     5
 10
988.39287620189987
 20
40.620898437500003
 30
0.0
 11
988.39287620189987
 21
41.4208984375
 31
0.0
  0
ARC
  5
A3
  8
ﾚｲﾔ_1
 62
     5
 10
998.89287620189998
 20
42.220898437499997
 30
0.0
 40
0.8
 50
270.0
 51
0.0
  0
LINE
  5
A4
  8
ﾚｲﾔ_1
 62
     5
 10
1007.8928762019
 20
34.020898437500001
 30
0.0
 11
1013.0928762019
 21
34.020898437500001
 31
0.0
  0
LINE
  5
A5
  8
ﾚｲﾔ_1
 62
     5
 10
1007.8928762019
 20
33.220898437499997
 30
0.0
 11
1007.8928762019
 21
34.020898437500001
 31
0.0
  0
LINE
  5
A6
  8
ﾚｲﾔ_1
 62
     5
 10
989.89287620189998
 20
34.020898437500001
 30
0.0
 11
989.89287620189998
 21
33.220898437499997
 31
0.0
  0
LINE
  5
A7
  8
ﾚｲﾔ_1
 62
     5
 10
999.69287620190005
 20
48.720898437499997
 30
0.0
 11
1013.0928762019
 21
48.720898437499997
 31
0.0
  0
LINE
  5
A8
  8
ﾚｲﾔ_1
 62
     5
 10
998.89287620189998
 20
42.220898437499997
 30
0.0
 11
998.89287620189998
 21
47.9208984375
 31
0.0
  0
ARC
  5
A9
  8
ﾚｲﾔ_1
 62
     5
 10
999.69287620190005
 20
47.9208984375
 30
0.0
 40
0.8
 50
90.0
 51
180.0
  0
LINE
  5
AA
  8
ﾚｲﾔ_1
 62
     5
 10
999.69287620190005
 20
47.9208984375
 30
0.0
 11
999.69287620190005
 21
42.220898437499997
 31
0.0
  0
LINE
  5
AB
  8
ﾚｲﾔ_1
 62
     5
 10
1013.0928762019
 20
34.020898437500001
 30
0.0
 11
1013.0928762019
 21
47.9208984375
 31
0.0
  0
LINE
  5
AC
  8
ﾚｲﾔ_1
 62
     5
 10
1013.0928762019
 20
33.220898437499997
 30
0.0
 11
1007.8928762019
 21
33.220898437499997
 31
0.0
  0
ARC
  5
AD
  8
ﾚｲﾔ_1
 62
     5
 10
1013.0928762019
 20
34.020898437500001
 30
0.0
 40
0.8
 50
270.0
 51
0.0
  0
LINE
  5
AE
  8
ﾚｲﾔ_1
 62
     5
 10
1013.8928762019
 20
47.9208984375
 30
0.0
 11
1013.8928762019
 21
34.020898437500001
 31
0.0
  0
ARC
  5
AF
  8
ﾚｲﾔ_1
 62
     5
 10
1013.0928762019
 20
47.9208984375
 30
0.0
 40
0.8
 50
0.0
 51
90.0
  0
LINE
  5
B0
  8
ﾚｲﾔ_1
 62
     5
 10
989.89287620189998
 20
34.020898437500001
 30
0.0
 11
989.89287620189998
 21
40.620898437500003
 31
0.0
  0
LINE
  5
B1
  8
ﾚｲﾔ_1
 62
     5
 10
998.89287620189998
 20
41.4208984375
 30
0.0
 11
1013.0928762019
 21
41.4208984375
 31
0.0
  0
LINE
  5
B2
  8
ﾚｲﾔ_1
 62
     5
 10
1013.0928762019
 20
47.9208984375
 30
0.0
 11
999.69287620190005
 21
47.9208984375
 31
0.0
  0
LINE
  5
B3
  8
ﾚｲﾔ_1
 62
     5
 10
984.69287620190005
 20
41.4208984375
 30
0.0
 11
984.69287620190005
 21
34.020898437500001
 31
0.0
  0
ARC
  5
B4
  8
ﾚｲﾔ_1
 62
     5
 10
984.69287620190005
 20
34.020898437500001
 30
0.0
 40
0.8
 50
180.0
 51
270.0
  0
LINE
  5
B5
  8
ﾚｲﾔ_1
 62
     5
 10
983.89287620189998
 20
34.020898437500001
 30
0.0
 11
983.89287620189998
 21
41.4208984375
 31
0.0
  0
ARC
  5
B6
  8
ﾚｲﾔ_1
 62
     5
 10
984.69287620190005
 20
41.4208984375
 30
0.0
 40
0.8
 50
90.0
 51
180.0
  0
LINE
  5
B7
  8
ﾚｲﾔ_1
 62
     5
 10
984.69287620190005
 20
42.220898437499997
 30
0.0
 11
998.89287620189998
 21
42.220898437499997
 31
0.0
  0
LINE
  5
B8
  8
ﾚｲﾔ_1
 62
     5
 10
984.69287620190005
 20
34.020898437500001
 30
0.0
 11
989.89287620189998
 21
34.020898437500001
 31
0.0
  0
LINE
  5
B9
  8
ﾚｲﾔ_1
 62
     5
 10
989.89287620189998
 20
33.220898437499997
 30
0.0
 11
984.69287620190005
 21
33.220898437499997
 31
0.0
  0
LINE
  5
BA
  8
ﾚｲﾔ_1
 62
     5
 10
998.89287620189998
 20
41.4208984375
 30
0.0
 11
984.69287620190005
 21
41.4208984375
 31
0.0
  0
ENDBLK
  5
BB
  8
0
  0
BLOCK
  8
0
  2
CLUMP3
 70
     0
 10
0.0
 20
0.0
 30
0.0
  3
CLUMP3
  1

  0
LINE
  5
C3
  8
ﾚｲﾔ_1
 62
     5
 10
1098.0251027643999
 20
41.421369791700002
 30
0.0
 11
1098.0251027643999
 21
40.621369791699991
 31
0.0
  0
LINE
  5
C4
  8
ﾚｲﾔ_1
 62
     5
 10
1092.1251027644
 20
34.02136979170001
 30
0.0
 11
1092.1251027644
 21
41.421369791700002
 31
0.0
  0
LINE
  5
C5
  8
ﾚｲﾔ_1
 62
     5
 10
1097.3251027644001
 20
34.02136979170001
 30
0.0
 11
1092.1251027644
 21
34.02136979170001
 31
0.0
  0
LINE
  5
C6
  8
ﾚｲﾔ_1
 62
     5
 10
1097.3251027644001
 20
34.02136979170001
 30
0.0
 11
1097.3251027644001
 21
33.221369791699999
 31
0.0
  0
LINE
  5
C7
  8
ﾚｲﾔ_1
 62
     5
 10
1097.3251027644001
 20
33.221369791699999
 30
0.0
 11
1092.1251027644
 21
33.221369791699999
 31
0.0
  0
ARC
  5
C8
  8
ﾚｲﾔ_1
 62
     5
 10
1092.1251027644
 20
34.02136979170001
 30
0.0
 40
0.8
 50
180.0
 51
270.0
  0
LINE
  5
C9
  8
ﾚｲﾔ_1
 62
     5
 10
1091.3251027644001
 20
34.02136979170001
 30
0.0
 11
1091.3251027644001
 21
41.421369791700002
 31
0.0
  0
ARC
  5
CA
  8
ﾚｲﾔ_1
 62
     5
 10
1092.1251027644
 20
41.421369791700002
 30
0.0
 40
0.8
 50
90.0
 51
180.0
  0
LINE
  5
CB
  8
ﾚｲﾔ_1
 62
     5
 10
1140.3251027644001
 20
33.221369791699999
 30
0.0
 11
1140.3251027644001
 21
34.02136979170001
 31
0.0
  0
LINE
  5
CC
  8
ﾚｲﾔ_1
 62
     5
 10
1145.5251027643999
 20
34.02136979170001
 30
0.0
 11
1140.3251027644001
 21
34.02136979170001
 31
0.0
  0
LINE
  5
CD
  8
ﾚｲﾔ_1
 62
     5
 10
1145.5251027643999
 20
46.421369791700002
 30
0.0
 11
1145.5251027643999
 21
34.02136979170001
 31
0.0
  0
LINE
  5
CE
  8
ﾚｲﾔ_1
 62
     5
 10
1117.1251027644
 20
46.421369791700002
 30
0.0
 11
1145.5251027643999
 21
46.421369791700002
 31
0.0
  0
LINE
  5
CF
  8
ﾚｲﾔ_1
 62
     5
 10
1092.1251027644
 20
42.221369791699999
 30
0.0
 11
1116.3251027644001
 21
42.221369791699999
 31
0.0
  0
LINE
  5
D0
  8
ﾚｲﾔ_1
 62
     5
 10
1092.1251027644
 20
41.421369791700002
 30
0.0
 11
1116.3251027644001
 21
41.421369791700002
 31
0.0
  0
LINE
  5
D1
  8
ﾚｲﾔ_1
 62
     5
 10
1117.1251027644
 20
42.221369791699999
 30
0.0
 11
1117.1251027644
 21
46.421369791700002
 31
0.0
  0
ARC
  5
D2
  8
ﾚｲﾔ_1
 62
     5
 10
1116.3251027644001
 20
42.221369791699999
 30
0.0
 40
0.8
 50
270.0
 51
0.0
  0
LINE
  5
D3
  8
ﾚｲﾔ_1
 62
     5
 10
1116.3251027644001
 20
42.221369791699999
 30
0.0
 11
1116.3251027644001
 21
46.421369791700002
 31
0.0
  0
ARC
  5
D4
  8
ﾚｲﾔ_1
 62
     5
 10
1117.1251027644
 20
46.421369791700002
 30
0.0
 40
0.8
 50
90.0
 51
180.0
  0
LINE
  5
D5
  8
ﾚｲﾔ_1
 62
     5
 10
1117.1251027644
 20
47.221369791699999
 30
0.0
 11
1145.5251027643999
 21
47.221369791699999
 31
0.0
  0
ARC
  5
D6
  8
ﾚｲﾔ_1
 62
     5
 10
1145.5251027643999
 20
46.421369791700002
 30
0.0
 40
0.8
 50
0.0
 51
90.0
  0
LINE
  5
D7
  8
ﾚｲﾔ_1
 62
     5
 10
1145.5251027643999
 20
33.221369791699999
 30
0.0
 11
1140.3251027644001
 21
33.221369791699999
 31
0.0
  0
LINE
  5
D8
  8
ﾚｲﾔ_1
 62
     5
 10
1146.3251027644001
 20
46.421369791700002
 30
0.0
 11
1146.3251027644001
 21
34.02136979170001
 31
0.0
  0
ARC
  5
D9
  8
ﾚｲﾔ_1
 62
     5
 10
1145.5251027643999
 20
34.02136979170001
 30
0.0
 40
0.8
 50
270.0
 51
0.0
  0
LINE
  5
DA
  8
ﾚｲﾔ_1
 62
     5
 10
1098.0251027643999
 20
40.621369791699991
 30
0.0
 11
1145.5251027643999
 21
40.621369791699991
 31
0.0
  0
LINE
  5
DB
  8
ﾚｲﾔ_1
 62
     5
 10
1116.3251027644001
 20
41.421369791700002
 30
0.0
 11
1145.5251027643999
 21
41.421369791700002
 31
0.0
  0
ENDBLK
  5
DC
  8
0
  0
BLOCK
  8
0
  2
*D6
 70
     1
 10
0.0
 20
0.0
 30
0.0
  3
*D6
  1

  0
TEXT
  5
E2
  8
0
 62
     0
 10
1000.504046762
 20
304.36892681120003
 30
0.0
 40
9.8954164504999991
  1
15
  0
LINE
  5
E3
  8
0
 62
     0
 10
1013.8928762019
 20
282.4208984375
 30
0.0
 11
1013.8928762019
 21
302.62267684940002
 31
0.0
  0
LINE
  5
E4
  8
0
 62
     0
 10
998.89287620189998
 20
274.22089843750001
 30
0.0
 11
998.89287620189998
 21
302.62267684940002
 31
0.0
  0
LINE
  5
E5
  8
0
 62
     0
 10
1013.8928762019
 20
301.62267684940002
 30
0.0
 11
1013.8928762019
 21
301.62267684940002
 31
0.0
  0
LINE
  5
E6
  8
0
 62
     0
 10
1013.8928762019
 20
301.62267684940002
 30
0.0
 11
998.89287620189998
 21
301.62267684940002
 31
0.0
  0
LINE
  5
E7
  8
0
 62
     0
 10
998.89287620189998
 20
301.62267684940002
 30
0.0
 11
1013.8928762019
 21
301.62267684940002
 31
0.0
  0
LINE
  5
E8
  8
0
 62
     0
 10
998.89287620189998
 20
301.62267684940002
 30
0.0
 11
998.89287620189998
 21
301.62267684940002
 31
0.0
  0
LINE
  5
E9
  8
0
 62
     0
 10
998.89287620189998
 20
301.62267684940002
 30
0.0
 11
993.89287620189987
 21
301.62267684940002
 31
0.0
  0
SOLID
  5
EA
  8
0
 62
     0
 10
998.89287620189998
 20
301.62267684940002
 30
0.0
 11
989.89287620189998
 21
299.37267684940002
 31
0.0
 12
989.89287620189998
 22
303.87267684940002
 32
0.0
 13
992.14287620189987
 23
301.62267684940002
 33
0.0
  0
LINE
  5
EB
  8
0
 62
     0
 10
1013.8928762019
 20
301.62267684940002
 30
0.0
 11
1018.8928762019
 21
301.62267684940002
 31
0.0
  0
SOLID
  5
EC
  8
0
 62
     0
 10
1013.8928762019
 20
301.62267684940002
 30
0.0
 11
1022.8928762019
 21
303.87267684940002
 31
0.0
 12
1022.8928762019
 22
299.37267684940002
 32
0.0
 13
1020.6428762019
 23
301.62267684940002
 33
0.0
  0
ENDBLK
  5
ED
  8
0
  0
BLOCK
  8
0
  2
*D7
 70
     1
 10
0.0
 20
0.0
 30
0.0
  3
*D7
  1

  0
TEXT
  5
F1
  8
0
 62
     0
 10
1098.0042695581999
 20
304.53957590990001
 30
0.0
 40
9.8954164504999991
  1
25
  0
LINE
  5
F2
  8
0
 62
     0
 10
1116.3251027644001
 20
274.22042708330002
 30
0.0
 11
1116.3251027644001
 21
302.79332594810001
 31
0.0
  0
LINE
  5
F3
  8
0
 62
     0
 10
1091.3251027644001
 20
283.22042708330002
 30
0.0
 11
1091.3251027644001
 21
302.79332594810001
 31
0.0
  0
LINE
  5
F4
  8
0
 62
     0
 10
1116.3251027644001
 20
301.79332594810001
 30
0.0
 11
1115.4667691768
 21
301.79332594810001
 31
0.0
  0
LINE
  5
F5
  8
0
 62
     0
 10
1116.3251027644001
 20
301.79332594810001
 30
0.0
 11
1092.1834363521
 21
301.79332594810001
 31
0.0
  0
LINE
  5
F6
  8
0
 62
     0
 10
1091.3251027644001
 20
301.79332594810001
 30
0.0
 11
1115.4667691768
 21
301.79332594810001
 31
0.0
  0
LINE
  5
F7
  8
0
 62
     0
 10
1091.3251027644001
 20
301.79332594810001
 30
0.0
 11
1092.1834363521
 21
301.79332594810001
 31
0.0
  0
LINE
  5
F8
  8
0
 62
     0
 10
1091.3251027644001
 20
301.79332594810001
 30
0.0
 11
1086.3251027644001
 21
301.79332594810001
 31
0.0
  0
SOLID
  5
F9
  8
0
 62
     0
 10
1091.3251027644001
 20
301.79332594810001
 30
0.0
 11
1082.3251027644001
 21
299.54332594810001
 31
0.0
 12
1082.3251027644001
 22
304.04332594810001
 32
0.0
 13
1084.5751027644001
 23
301.79332594810001
 33
0.0
  0
LINE
  5
FA
  8
0
 62
     0
 10
1116.3251027644001
 20
301.79332594810001
 30
0.0
 11
1121.3251027644001
 21
301.79332594810001
 31
0.0
  0
SOLID
  5
FB
  8
0
 62
     0
 10
1116.3251027644001
 20
301.79332594810001
 30
0.0
 11
1125.3251027644001
 21
304.04332594810001
 31
0.0
 12
1125.3251027644001
 22
299.54332594810001
 32
0.0
 13
1123.0751027644001
 23
301.79332594810001
 33
0.0
  0
ENDBLK
  5
FC
  8
0
  0
BLOCK
  8
0
  2
*D8
 70
     1
 10
0.0
 20
0.0
 30
0.0
  3
*D8
  1

  0
TEXT
  5
100
  8
0
 62
     0
 10
1125.5042695581999
 20
304.53957590990001
 30
0.0
 40
9.8954164504999991
  1
30
  0
LINE
  5
101
  8
0
 62
     0
 10
1146.3251027644001
 20
283.22042708330002
 30
0.0
 11
1146.3251027644001
 21
302.79332594810001
 31
0.0
  0
LINE
  5
102
  8
0
 62
     0
 10
1116.3251027644001
 20
274.22042708330002
 30
0.0
 11
1116.3251027644001
 21
302.79332594810001
 31
0.0
  0
LINE
  5
103
  8
0
 62
     0
 10
1146.3251027644001
 20
301.79332594810001
 30
0.0
 11
1142.9667691768
 21
301.79332594810001
 31
0.0
  0
LINE
  5
104
  8
0
 62
     0
 10
1146.3251027644001
 20
301.79332594810001
 30
0.0
 11
1119.6834363521
 21
301.79332594810001
 31
0.0
  0
LINE
  5
105
  8
0
 62
     0
 10
1116.3251027644001
 20
301.79332594810001
 30
0.0
 11
1142.9667691768
 21
301.79332594810001
 31
0.0
  0
LINE
  5
106
  8
0
 62
     0
 10
1116.3251027644001
 20
301.79332594810001
 30
0.0
 11
1119.6834363521
 21
301.79332594810001
 31
0.0
  0
LINE
  5
107
  8
0
 62
     0
 10
1116.3251027644001
 20
301.79332594810001
 30
0.0
 11
1111.3251027644001
 21
301.79332594810001
 31
0.0
  0
SOLID
  5
108
  8
0
 62
     0
 10
1116.3251027644001
 20
301.79332594810001
 30
0.0
 11
1107.3251027644001
 21
299.54332594810001
 31
0.0
 12
1107.3251027644001
 22
304.04332594810001
 32
0.0
 13
1109.5751027644001
 23
301.79332594810001
 33
0.0
  0
LINE
  5
109
  8
0
 62
     0
 10
1146.3251027644001
 20
301.79332594810001
 30
0.0
 11
1151.3251027644001
 21
301.79332594810001
 31
0.0
  0
SOLID
  5
10A
  8
0
 62
     0
 10
1146.3251027644001
 20
301.79332594810001
 30
0.0
 11
1155.3251027644001
 21
304.04332594810001
 31
0.0
 12
1155.3251027644001
 22
299.54332594810001
 32
0.0
 13
1153.0751027644001
 23
301.79332594810001
 33
0.0
  0
ENDBLK
  5
10B
  8
0
  0
BLOCK
  8
0
  2
*D9
 70
     1
 10
0.0
 20
0.0
 30
0.0
  3
*D9
  1

  0
TEXT
  5
10F
  8
0
 62
     0
 10
985.33156641729988
 20
304.36892681120003
 30
0.0
 40
9.8954164504999991
  1
15
  0
LINE
  5
110
  8
0
 62
     0
 10
998.89287620189998
 20
274.22089843750001
 30
0.0
 11
998.89287620189998
 21
302.62267684940002
 31
0.0
  0
LINE
  5
111
  8
0
 62
     0
 10
983.89287620189998
 20
282.4208984375
 30
0.0
 11
983.89287620189998
 21
302.62267684940002
 31
0.0
  0
LINE
  5
112
  8
0
 62
     0
 10
998.89287620189998
 20
301.62267684940002
 30
0.0
 11
998.89287620189998
 21
301.62267684940002
 31
0.0
  0
LINE
  5
113
  8
0
 62
     0
 10
998.89287620189998
 20
301.62267684940002
 30
0.0
 11
983.89287620189998
 21
301.62267684940002
 31
0.0
  0
LINE
  5
114
  8
0
 62
     0
 10
983.89287620189998
 20
301.62267684940002
 30
0.0
 11
998.89287620189998
 21
301.62267684940002
 31
0.0
  0
LINE
  5
115
  8
0
 62
     0
 10
983.89287620189998
 20
301.62267684940002
 30
0.0
 11
983.89287620189998
 21
301.62267684940002
 31
0.0
  0
LINE
  5
116
  8
0
 62
     0
 10
983.89287620189998
 20
301.62267684940002
 30
0.0
 11
978.89287620189987
 21
301.62267684940002
 31
0.0
  0
SOLID
  5
117
  8
0
 62
     0
 10
983.89287620189998
 20
301.62267684940002
 30
0.0
 11
974.89287620189998
 21
299.37267684940002
 31
0.0
 12
974.89287620189998
 22
303.87267684940002
 32
0.0
 13
977.14287620189987
 23
301.62267684940002
 33
0.0
  0
LINE
  5
118
  8
0
 62
     0
 10
998.89287620189998
 20
301.62267684940002
 30
0.0
 11
1003.8928762019
 21
301.62267684940002
 31
0.0
  0
SOLID
  5
119
  8
0
 62
     0
 10
998.89287620189998
 20
301.62267684940002
 30
0.0
 11
1007.8928762019
 21
303.87267684940002
 31
0.0
 12
1007.8928762019
 22
299.37267684940002
 32
0.0
 13
1005.6428762019
 23
301.62267684940002
 33
0.0
  0
ENDBLK
  5
11A
  8
0
  0
BLOCK
  8
0
  2
*D10
 70
     1
 10
0.0
 20
0.0
 30
0.0
  3
*D10
  1

  0
TEXT
  5
11E
  8
0
 62
     0
 10
1034.1320685923999
 20
288.98442400300002
 30
0.0
 40
9.8954164504999991
  1
15.5
 50
90.0
  0
LINE
  5
11F
  8
0
 62
     0
 10
1015.0928762019
 20
265.72089843750001
 30
0.0
 11
1037.8783185542
 21
265.72089843750001
 31
0.0
  0
LINE
  5
120
  8
0
 62
     0
 10
1015.0928762019
 20
281.22089843750001
 30
0.0
 11
1037.8783185542
 21
281.22089843750001
 31
0.0
  0
LINE
  5
121
  8
0
 62
     0
 10
1036.8783185542
 20
265.72089843750001
 30
0.0
 11
1036.8783185542
 21
314.69310399689999
 31
0.0
  0
LINE
  5
122
  8
0
 62
     0
 10
1036.8783185542
 20
265.72089843750001
 30
0.0
 11
1036.8783185542
 21
283.16359079680001
 31
0.0
  0
LINE
  5
123
  8
0
 62
     0
 10
1036.8783185542
 20
281.22089843750001
 30
0.0
 11
1036.8783185542
 21
314.69310399689999
 31
0.0
  0
LINE
  5
124
  8
0
 62
     0
 10
1036.8783185542
 20
281.22089843750001
 30
0.0
 11
1036.8783185542
 21
283.16359079680001
 31
0.0
  0
LINE
  5
125
  8
0
 62
     0
 10
1036.8783185542
 20
281.22089843750001
 30
0.0
 11
1036.8783185542
 21
286.22089843750001
 31
0.0
  0
SOLID
  5
126
  8
0
 62
     0
 10
1036.8783185542
 20
281.22089843750001
 30
0.0
 11
1034.6283185542
 21
290.22089843750001
 31
0.0
 12
1039.1283185542
 22
290.22089843750001
 32
0.0
 13
1036.8783185542
 23
287.97089843750001
 33
0.0
  0
LINE
  5
127
  8
0
 62
     0
 10
1036.8783185542
 20
265.72089843750001
 30
0.0
 11
1036.8783185542
 21
260.72089843750001
 31
0.0
  0
SOLID
  5
128
  8
0
 62
     0
 10
1036.8783185542
 20
265.72089843750001
 30
0.0
 11
1039.1283185542
 21
256.72089843750001
 31
0.0
 12
1034.6283185542
 22
256.72089843750001
 32
0.0
 13
1036.8783185542
 23
258.97089843750001
 33
0.0
  0
ENDBLK
  5
129
  8
0
  0
BLOCK
  8
0
  2
*D11
 70
     1
 10
0.0
 20
0.0
 30
0.0
  3
*D11
  1

  0
TEXT
  5
12D
  8
0
 62
     0
 10
993.07204299570003
 20
322.53011684419999
 30
0.0
 40
9.8954164504999991
  1
30
  0
LINE
  5
12E
  8
0
 62
     0
 10
1013.8928762019
 20
282.4208984375
 30
0.0
 11
1013.8928762019
 21
320.7838668823
 31
0.0
  0
LINE
  5
12F
  8
0
 62
     0
 10
983.89287620189998
 20
282.4208984375
 30
0.0
 11
983.89287620189998
 21
320.7838668823
 31
0.0
  0
LINE
  5
130
  8
0
 62
     0
 10
1013.8928762019
 20
319.7838668823
 30
0.0
 11
1010.5345426143
 21
319.7838668823
 31
0.0
  0
LINE
  5
131
  8
0
 62
     0
 10
1013.8928762019
 20
319.7838668823
 30
0.0
 11
987.25120978960013
 21
319.7838668823
 31
0.0
  0
LINE
  5
132
  8
0
 62
     0
 10
983.89287620189998
 20
319.7838668823
 30
0.0
 11
1010.5345426143
 21
319.7838668823
 31
0.0
  0
LINE
  5
133
  8
0
 62
     0
 10
983.89287620189998
 20
319.7838668823
 30
0.0
 11
987.25120978960013
 21
319.7838668823
 31
0.0
  0
LINE
  5
134
  8
0
 62
     0
 10
983.89287620189998
 20
319.7838668823
 30
0.0
 11
978.89287620189987
 21
319.7838668823
 31
0.0
  0
SOLID
  5
135
  8
0
 62
     0
 10
983.89287620189998
 20
319.7838668823
 30
0.0
 11
974.89287620189998
 21
317.5338668823
 31
0.0
 12
974.89287620189998
 22
322.0338668823
 32
0.0
 13
977.14287620189987
 23
319.7838668823
 33
0.0
  0
LINE
  5
136
  8
0
 62
     0
 10
1013.8928762019
 20
319.7838668823
 30
0.0
 11
1018.8928762019
 21
319.7838668823
 31
0.0
  0
SOLID
  5
137
  8
0
 62
     0
 10
1013.8928762019
 20
319.7838668823
 30
0.0
 11
1022.8928762019
 21
322.0338668823
 31
0.0
 12
1022.8928762019
 22
317.5338668823
 32
0.0
 13
1020.6428762019
 23
319.7838668823
 33
0.0
  0
ENDBLK
  5
138
  8
0
  0
BLOCK
  8
0
  2
*D12
 70
     1
 10
0.0
 20
0.0
 30
0.0
  3
*D12
  1

  0
TEXT
  5
13C
  8
0
 62
     0
 10
1113.0042695581999
 20
321.75881342820003
 30
0.0
 40
9.8954164504999991
  1
55
  0
LINE
  5
13D
  8
0
 62
     0
 10
1146.3251027644001
 20
282.42042708330001
 30
0.0
 11
1146.3251027644001
 21
320.01256346640002
 31
0.0
  0
LINE
  5
13E
  8
0
 62
     0
 10
1091.3251027644001
 20
282.42042708330001
 30
0.0
 11
1091.3251027644001
 21
320.01256346640002
 31
0.0
  0
LINE
  5
13F
  8
0
 62
     0
 10
1146.3251027644001
 20
319.01256346640002
 30
0.0
 11
1130.4667691768
 21
319.01256346640002
 31
0.0
  0
LINE
  5
140
  8
0
 62
     0
 10
1146.3251027644001
 20
319.01256346640002
 30
0.0
 11
1107.1834363521
 21
319.01256346640002
 31
0.0
  0
LINE
  5
141
  8
0
 62
     0
 10
1091.3251027644001
 20
319.01256346640002
 30
0.0
 11
1130.4667691768
 21
319.01256346640002
 31
0.0
  0
LINE
  5
142
  8
0
 62
     0
 10
1091.3251027644001
 20
319.01256346640002
 30
0.0
 11
1107.1834363521
 21
319.01256346640002
 31
0.0
  0
LINE
  5
143
  8
0
 62
     0
 10
1091.3251027644001
 20
319.01256346640002
 30
0.0
 11
1096.3251027644001
 21
319.01256346640002
 31
0.0
  0
SOLID
  5
144
  8
0
 62
     0
 10
1091.3251027644001
 20
319.01256346640002
 30
0.0
 11
1100.3251027644001
 21
321.26256346640002
 31
0.0
 12
1100.3251027644001
 22
316.76256346640002
 32
0.0
 13
1098.0751027644001
 23
319.01256346640002
 33
0.0
  0
LINE
  5
145
  8
0
 62
     0
 10
1146.3251027644001
 20
319.01256346640002
 30
0.0
 11
1141.3251027644001
 21
319.01256346640002
 31
0.0
  0
SOLID
  5
146
  8
0
 62
     0
 10
1146.3251027644001
 20
319.01256346640002
 30
0.0
 11
1137.3251027644001
 21
316.76256346640002
 31
0.0
 12
1137.3251027644001
 22
321.26256346640002
 32
0.0
 13
1139.5751027644001
 23
319.01256346640002
 33
0.0
  0
ENDBLK
  5
147
  8
0
  0
BLOCK
  8
0
  2
*D13
 70
     1
 10
0.0
 20
0.0
 30
0.0
  3
*D13
  1

  0
TEXT
  5
14B
  8
0
 62
     0
 10
1164.9937640727001
 20
268.3995938772
 30
0.0
 40
9.8954164504999991
  1
14
 50
90.0
  0
LINE
  5
14C
  8
0
 62
     0
 10
1148.3251027644001
 20
267.22042708330002
 30
0.0
 11
1168.7400140346001
 21
267.22042708330002
 31
0.0
  0
LINE
  5
14D
  8
0
 62
     0
 10
1148.3251027644001
 20
281.22042708330002
 30
0.0
 11
1168.7400140346001
 21
281.22042708330002
 31
0.0
  0
LINE
  5
14E
  8
0
 62
     0
 10
1167.7400140346001
 20
267.22042708330002
 30
0.0
 11
1167.7400140346001
 21
267.22042708330002
 31
0.0
  0
LINE
  5
14F
  8
0
 62
     0
 10
1167.7400140346001
 20
267.22042708330002
 30
0.0
 11
1167.7400140346001
 21
281.22042708330002
 31
0.0
  0
LINE
  5
150
  8
0
 62
     0
 10
1167.7400140346001
 20
281.22042708330002
 30
0.0
 11
1167.7400140346001
 21
267.22042708330002
 31
0.0
  0
LINE
  5
151
  8
0
 62
     0
 10
1167.7400140346001
 20
281.22042708330002
 30
0.0
 11
1167.7400140346001
 21
281.22042708330002
 31
0.0
  0
LINE
  5
152
  8
0
 62
     0
 10
1167.7400140346001
 20
281.22042708330002
 30
0.0
 11
1167.7400140346001
 21
286.22042708330002
 31
0.0
  0
SOLID
  5
153
  8
0
 62
     0
 10
1167.7400140346001
 20
281.22042708330002
 30
0.0
 11
1165.4900140346001
 21
290.22042708330002
 31
0.0
 12
1169.9900140346001
 22
290.22042708330002
 32
0.0
 13
1167.7400140346001
 23
287.97042708330002
 33
0.0
  0
LINE
  5
154
  8
0
 62
     0
 10
1167.7400140346001
 20
267.22042708330002
 30
0.0
 11
1167.7400140346001
 21
262.22042708330002
 31
0.0
  0
SOLID
  5
155
  8
0
 62
     0
 10
1167.7400140346001
 20
267.22042708330002
 30
0.0
 11
1169.9900140346001
 21
258.22042708330002
 31
0.0
 12
1165.4900140346001
 22
258.22042708330002
 32
0.0
 13
1167.7400140346001
 23
260.47042708330002
 33
0.0
  0
ENDBLK
  5
156
  8
0
  0
BLOCK
  8
0
  2
*D14
 70
     1
 10
0.0
 20
0.0
 30
0.0
  3
*D14
  1

  0
TEXT
  5
168
  8
0
 62
     0
 10
1034.0719279826001
 20
148.4896486282
 30
0.0
 40
9.8954164504999991
  1
217
 50
90.0
  0
LINE
  5
169
  8
0
 62
     0
 10
1015.0928762019
 20
48.720898437499997
 30
0.0
 11
1037.8181779444999
 21
48.720898437499997
 31
0.0
  0
LINE
  5
16A
  8
0
 62
     0
 10
1015.0928762019
 20
265.72089843750001
 30
0.0
 11
1037.8181779444999
 21
265.72089843750001
 31
0.0
  0
LINE
  5
16B
  8
0
 62
     0
 10
1036.8181779444999
 20
48.720898437499997
 30
0.0
 11
1036.8181779444999
 21
171.77298145290001
 31
0.0
  0
LINE
  5
16C
  8
0
 62
     0
 10
1036.8181779444999
 20
48.720898437499997
 30
0.0
 11
1036.8181779444999
 21
142.66881542210001
 31
0.0
  0
LINE
  5
16D
  8
0
 62
     0
 10
1036.8181779444999
 20
265.72089843750001
 30
0.0
 11
1036.8181779444999
 21
171.77298145290001
 31
0.0
  0
LINE
  5
16E
  8
0
 62
     0
 10
1036.8181779444999
 20
265.72089843750001
 30
0.0
 11
1036.8181779444999
 21
142.66881542210001
 31
0.0
  0
LINE
  5
16F
  8
0
 62
     0
 10
1036.8181779444999
 20
265.72089843750001
 30
0.0
 11
1036.8181779444999
 21
260.72089843750001
 31
0.0
  0
SOLID
  5
170
  8
0
 62
     0
 10
1036.8181779444999
 20
265.72089843750001
 30
0.0
 11
1039.0681779444999
 21
256.72089843750001
 31
0.0
 12
1034.5681779444999
 22
256.72089843750001
 32
0.0
 13
1036.8181779444999
 23
258.97089843750001
 33
0.0
  0
LINE
  5
171
  8
0
 62
     0
 10
1036.8181779444999
 20
48.720898437499997
 30
0.0
 11
1036.8181779444999
 21
53.720898437499997
 31
0.0
  0
SOLID
  5
172
  8
0
 62
     0
 10
1036.8181779444999
 20
48.720898437499997
 30
0.0
 11
1034.5681779444999
 21
57.72089843749999
 31
0.0
 12
1039.0681779444999
 22
57.72089843749999
 32
0.0
 13
1036.8181779444999
 23
55.470898437499997
 33
0.0
  0
ENDBLK
  5
173
  8
0
  0
BLOCK
  8
0
  2
*D15
 70
     1
 10
0.0
 20
0.0
 30
0.0
  3
*D15
  1

  0
TEXT
  5
177
  8
0
 62
     0
 10
1164.9937640727001
 20
148.4896486282
 30
0.0
 40
9.8954164504999991
  1
220
 50
90.0
  0
LINE
  5
178
  8
0
 62
     0
 10
1148.3251027644001
 20
47.221369791699999
 30
0.0
 11
1168.7400140346001
 21
47.221369791699999
 31
0.0
  0
LINE
  5
179
  8
0
 62
     0
 10
1148.3251027644001
 20
267.22042708330002
 30
0.0
 11
1168.7400140346001
 21
267.22042708330002
 31
0.0
  0
LINE
  5
17A
  8
0
 62
     0
 10
1167.7400140346001
 20
47.221369791699999
 30
0.0
 11
1167.7400140346001
 21
171.77298145290001
 31
0.0
  0
LINE
  5
17B
  8
0
 62
     0
 10
1167.7400140346001
 20
47.221369791699999
 30
0.0
 11
1167.7400140346001
 21
142.66881542210001
 31
0.0
  0
LINE
  5
17C
  8
0
 62
     0
 10
1167.7400140346001
 20
267.22042708330002
 30
0.0
 11
1167.7400140346001
 21
171.77298145290001
 31
0.0
  0
LINE
  5
17D
  8
0
 62
     0
 10
1167.7400140346001
 20
267.22042708330002
 30
0.0
 11
1167.7400140346001
 21
142.66881542210001
 31
0.0
  0
LINE
  5
17E
  8
0
 62
     0
 10
1167.7400140346001
 20
267.22042708330002
 30
0.0
 11
1167.7400140346001
 21
262.22042708330002
 31
0.0
  0
SOLID
  5
17F
  8
0
 62
     0
 10
1167.7400140346001
 20
267.22042708330002
 30
0.0
 11
1169.9900140346001
 21
258.22042708330002
 31
0.0
 12
1165.4900140346001
 22
258.22042708330002
 32
0.0
 13
1167.7400140346001
 23
260.47042708330002
 33
0.0
  0
LINE
  5
180
  8
0
 62
     0
 10
1167.7400140346001
 20
47.221369791699999
 30
0.0
 11
1167.7400140346001
 21
52.221369791699999
 31
0.0
  0
SOLID
  5
181
  8
0
 62
     0
 10
1167.7400140346001
 20
47.221369791699999
 30
0.0
 11
1165.4900140346001
 21
56.221369791699999
 31
0.0
 12
1169.9900140346001
 22
56.221369791699999
 32
0.0
 13
1167.7400140346001
 23
53.971369791699992
 33
0.0
  0
ENDBLK
  5
182
  8
0
  0
BLOCK
  8
0
  2
*D16
 70
     1
 10
0.0
 20
0.0
 30
0.0
  3
*D16
  1

  0
TEXT
  5
1C4
  8
0
 62
     0
 10
901.55658481600005
 20
273.81048183439998
 30
0.0
 40
9.8954164504999991
  1
9
 50
90.0
  0
LINE
  5
1C5
  8
0
 62
     0
 10
860.26486328129999
 20
272.22089843750001
 30
0.0
 11
905.30283477779994
 21
272.22089843750001
 31
0.0
  0
LINE
  5
1C6
  8
0
 62
     0
 10
869.26486328129999
 20
281.22089843750001
 30
0.0
 11
905.30283477779994
 21
281.22089843750001
 31
0.0
  0
LINE
  5
1C7
  8
0
 62
     0
 10
904.30283477779994
 20
272.22089843750001
 30
0.0
 11
904.30283477779994
 21
272.22089843750001
 31
0.0
  0
LINE
  5
1C8
  8
0
 62
     0
 10
904.30283477779994
 20
272.22089843750001
 30
0.0
 11
904.30283477779994
 21
281.22089843750001
 31
0.0
  0
LINE
  5
1C9
  8
0
 62
     0
 10
904.30283477779994
 20
281.22089843750001
 30
0.0
 11
904.30283477779994
 21
272.22089843750001
 31
0.0
  0
LINE
  5
1CA
  8
0
 62
     0
 10
904.30283477779994
 20
281.22089843750001
 30
0.0
 11
904.30283477779994
 21
281.22089843750001
 31
0.0
  0
LINE
  5
1CB
  8
0
 62
     0
 10
904.30283477779994
 20
281.22089843750001
 30
0.0
 11
904.30283477779994
 21
286.22089843750001
 31
0.0
  0
SOLID
  5
1CC
  8
0
 62
     0
 10
904.30283477779994
 20
281.22089843750001
 30
0.0
 11
902.05283477779983
 21
290.22089843750001
 31
0.0
 12
906.55283477779983
 22
290.22089843750001
 32
0.0
 13
904.30283477779994
 23
287.97089843750001
 33
0.0
  0
LINE
  5
1CD
  8
0
 62
     0
 10
904.30283477779994
 20
272.22089843750001
 30
0.0
 11
904.30283477779994
 21
267.22089843750001
 31
0.0
  0
SOLID
  5
1CE
  8
0
 62
     0
 10
904.30283477779994
 20
272.22089843750001
 30
0.0
 11
906.55283477779983
 21
263.22089843750001
 31
0.0
 12
902.05283477779983
 22
263.22089843750001
 32
0.0
 13
904.30283477779994
 23
265.47089843750001
 33
0.0
  0
ENDBLK
  5
1CF
  8
0
  0
BLOCK
  8
0
  2
*D17
 70
     1
 10
0.0
 20
0.0
 30
0.0
  3
*D17
  1

  0
TEXT
  5
1D3
  8
0
 62
     0
 10
859.85444667820002
 20
311.6712499619
 30
0.0
 40
9.8954164504999991
  1
9
  0
LINE
  5
1D4
  8
0
 62
     0
 10
867.26486328129999
 20
283.22089843750001
 30
0.0
 11
867.26486328129999
 21
309.92500000000001
 31
0.0
  0
LINE
  5
1D5
  8
0
 62
     0
 10
858.26486328129999
 20
274.22089843750001
 30
0.0
 11
858.26486328129999
 21
309.92500000000001
 31
0.0
  0
LINE
  5
1D6
  8
0
 62
     0
 10
867.26486328129999
 20
308.92500000000001
 30
0.0
 11
867.26486328129999
 21
308.92500000000001
 31
0.0
  0
LINE
  5
1D7
  8
0
 62
     0
 10
867.26486328129999
 20
308.92500000000001
 30
0.0
 11
858.26486328129999
 21
308.92500000000001
 31
0.0
  0
LINE
  5
1D8
  8
0
 62
     0
 10
858.26486328129999
 20
308.92500000000001
 30
0.0
 11
867.26486328129999
 21
308.92500000000001
 31
0.0
  0
LINE
  5
1D9
  8
0
 62
     0
 10
858.26486328129999
 20
308.92500000000001
 30
0.0
 11
858.26486328129999
 21
308.92500000000001
 31
0.0
  0
LINE
  5
1DA
  8
0
 62
     0
 10
858.26486328129999
 20
308.92500000000001
 30
0.0
 11
853.26486328129999
 21
308.92500000000001
 31
0.0
  0
SOLID
  5
1DB
  8
0
 62
     0
 10
858.26486328129999
 20
308.92500000000001
 30
0.0
 11
849.26486328129988
 21
306.67500000000001
 31
0.0
 12
849.26486328129988
 22
311.17500000000001
 32
0.0
 13
851.51486328129999
 23
308.92500000000001
 33
0.0
  0
LINE
  5
1DC
  8
0
 62
     0
 10
867.26486328129999
 20
308.92500000000001
 30
0.0
 11
872.26486328129988
 21
308.92500000000001
 31
0.0
  0
SOLID
  5
1DD
  8
0
 62
     0
 10
867.26486328129999
 20
308.92500000000001
 30
0.0
 11
876.26486328129999
 21
311.17500000000001
 31
0.0
 12
876.26486328129999
 22
306.67500000000001
 32
0.0
 13
874.01486328129988
 23
308.92500000000001
 33
0.0
  0
ENDBLK
  5
1DE
  8
0
  0
BLOCK
  8
0
  2
*D18
 70
     1
 10
0.0
 20
0.0
 30
0.0
  3
*D18
  1

  0
TEXT
  5
246
  8
0
 62
     0
 10
901.55658100130006
 20
34.810481834400001
 30
0.0
 40
9.8954164504999991
  1
9
 50
90.0
  0
LINE
  5
247
  8
0
 62
     0
 10
869.26486328129999
 20
33.220898437499997
 30
0.0
 11
905.30283096309995
 21
33.220898437499997
 31
0.0
  0
LINE
  5
248
  8
0
 62
     0
 10
860.26486328129999
 20
42.220898437499997
 30
0.0
 11
905.30283096309995
 21
42.220898437499997
 31
0.0
  0
LINE
  5
249
  8
0
 62
     0
 10
904.30283096309995
 20
33.220898437499997
 30
0.0
 11
904.30283096309995
 21
33.220898437499997
 31
0.0
  0
LINE
  5
24A
  8
0
 62
     0
 10
904.30283096309995
 20
33.220898437499997
 30
0.0
 11
904.30283096309995
 21
42.220898437499997
 31
0.0
  0
LINE
  5
24B
  8
0
 62
     0
 10
904.30283096309995
 20
42.220898437499997
 30
0.0
 11
904.30283096309995
 21
33.220898437499997
 31
0.0
  0
LINE
  5
24C
  8
0
 62
     0
 10
904.30283096309995
 20
42.220898437499997
 30
0.0
 11
904.30283096309995
 21
42.220898437499997
 31
0.0
  0
LINE
  5
24D
  8
0
 62
     0
 10
904.30283096309995
 20
42.220898437499997
 30
0.0
 11
904.30283096309995
 21
47.220898437499997
 31
0.0
  0
SOLID
  5
24E
  8
0
 62
     0
 10
904.30283096309995
 20
42.220898437499997
 30
0.0
 11
902.05283096309995
 21
51.220898437499997
 31
0.0
 12
906.55283096309995
 22
51.220898437499997
 32
0.0
 13
904.30283096309995
 23
48.97089843749999
 33
0.0
  0
LINE
  5
24F
  8
0
 62
     0
 10
904.30283096309995
 20
33.220898437499997
 30
0.0
 11
904.30283096309995
 21
28.220898437500001
 31
0.0
  0
SOLID
  5
250
  8
0
 62
     0
 10
904.30283096309995
 20
33.220898437499997
 30
0.0
 11
906.55283096309995
 21
24.220898437500001
 31
0.0
 12
902.05283096309995
 22
24.220898437500001
 32
0.0
 13
904.30283096309995
 23
26.470898437500001
 33
0.0
  0
ENDBLK
  5
251
  8
0
  0
BLOCK
  8
0
  2
*D19
 70
     1
 10
0.0
 20
0.0
 30
0.0
  3
*D19
  1

  0
TEXT
  5
255
  8
0
 62
     0
 10
907.39745258330004
 20
-31.922085873899999
 30
0.0
 40
9.8954164504999991
  1
6
 50
90.0
  0
LINE
  5
256
  8
0
 62
     0
 10
869.2650976563001
 20
-32.011669270799999
 30
0.0
 11
911.14370254520009
 21
-32.011669270799999
 31
0.0
  0
LINE
  5
257
  8
0
 62
     0
 10
869.2650976563001
 20
-26.011669270799999
 30
0.0
 11
911.14370254520009
 21
-26.011669270799999
 31
0.0
  0
LINE
  5
258
  8
0
 62
     0
 10
910.14370254519997
 20
-32.011669270799999
 30
0.0
 11
910.14370254519997
 21
-32.011669270799999
 31
0.0
  0
LINE
  5
259
  8
0
 62
     0
 10
910.14370254519997
 20
-32.011669270799999
 30
0.0
 11
910.14370254519997
 21
-26.011669270799999
 31
0.0
  0
LINE
  5
25A
  8
0
 62
     0
 10
910.14370254519997
 20
-26.011669270799999
 30
0.0
 11
910.14370254519997
 21
-32.011669270799999
 31
0.0
  0
LINE
  5
25B
  8
0
 62
     0
 10
910.14370254519997
 20
-26.011669270799999
 30
0.0
 11
910.14370254519997
 21
-26.011669270799999
 31
0.0
  0
LINE
  5
25C
  8
0
 62
     0
 10
910.14370254519997
 20
-26.011669270799999
 30
0.0
 11
910.14370254519997
 21
-21.011669270799999
 31
0.0
  0
SOLID
  5
25D
  8
0
 62
     0
 10
910.14370254519997
 20
-26.011669270799999
 30
0.0
 11
907.89370254520009
 21
-17.011669270799999
 31
0.0
 12
912.39370254520009
 22
-17.011669270799999
 32
0.0
 13
910.14370254519997
 23
-19.261669270799999
 33
0.0
  0
LINE
  5
25E
  8
0
 62
     0
 10
910.14370254519997
 20
-32.011669270799999
 30
0.0
 11
910.14370254519997
 21
-37.011669270799999
 31
0.0
  0
SOLID
  5
25F
  8
0
 62
     0
 10
910.14370254519997
 20
-32.011669270799999
 30
0.0
 11
912.39370254520009
 21
-41.011669270799999
 31
0.0
 12
907.89370254520009
 22
-41.011669270799999
 32
0.0
 13
910.14370254519997
 23
-38.761669270799999
 33
0.0
  0
ENDBLK
  5
260
  8
0
  0
BLOCK
  8
0
  2
BALLON0
 70
     0
 10
0.0
 20
0.0
 30
0.0
  3
BALLON0
  1

  0
INSERT
  5
27C
  8
0
  6
CONTINUOUS
  2
*U78
 10
0.0
 20
0.0
 30
0.0
  0
CIRCLE
  5
27D
  8
ﾚｲﾔ_1
 10
749.23843794809989
 20
2.6406155934000002
 30
0.0
 40
10.0
  0
LINE
  5
27E
  8
寸法線
 10
765.90510461479994
 20
2.6406155934000002
 30
0.0
 11
759.2384379481
 21
2.6406155934000002
 31
0.0
  0
LINE
  5
27F
  8
寸法線
 10
801.95039847630005
 20
69.040388038800003
 30
0.0
 11
765.90510461479994
 21
2.6406155934000002
 31
0.0
  0
SOLID
  5
280
  8
寸法線
 10
801.95039847630005
 20
69.040388038800003
 30
0.0
 11
798.93722035780002
 21
59.297659590099997
 31
0.0
 12
798.13368785460011
 22
62.009547404199999
 32
0.0
 13
798.13368785460011
 23
62.009547404199999
 33
0.0
  0
SOLID
  5
281
  8
寸法線
 10
798.13368785460011
 20
62.009547404199999
 30
0.0
 11
795.42180004049999
 21
61.206014900900001
 31
0.0
 12
801.95039847630005
 22
69.040388038800003
 32
0.0
 13
801.95039847630005
 23
69.040388038800003
 33
0.0
  0
ENDBLK
  5
282
  8
0
  0
BLOCK
  8
0
  2
*D21
 70
     1
 10
0.0
 20
0.0
 30
0.0
  3
*D21
  1

  0
TEXT
  5
285
  8
0
 62
     0
 10
734.53361347199996
 20
311.6712499619
 30
0.0
 40
9.8954164504999991
  1
230
  0
LINE
  5
286
  8
0
 62
     0
 10
858.26486328129999
 20
274.22089843750001
 30
0.0
 11
858.26486328129999
 21
309.92500000000001
 31
0.0
  0
LINE
  5
287
  8
0
 62
     0
 10
628.26486328129999
 20
274.22089843750001
 30
0.0
 11
628.26486328129999
 21
309.92500000000001
 31
0.0
  0
LINE
  5
288
  8
0
 62
     0
 10
858.26486328129999
 20
308.92500000000001
 30
0.0
 11
757.81694629669994
 21
308.92500000000001
 31
0.0
  0
LINE
  5
289
  8
0
 62
     0
 10
858.26486328129999
 20
308.92500000000001
 30
0.0
 11
728.71278026580001
 21
308.92500000000001
 31
0.0
  0
LINE
  5
28A
  8
0
 62
     0
 10
628.26486328129999
 20
308.92500000000001
 30
0.0
 11
757.81694629669994
 21
308.92500000000001
 31
0.0
  0
LINE
  5
28B
  8
0
 62
     0
 10
628.26486328129999
 20
308.92500000000001
 30
0.0
 11
728.71278026580001
 21
308.92500000000001
 31
0.0
  0
LINE
  5
28C
  8
0
 62
     0
 10
628.26486328129999
 20
308.92500000000001
 30
0.0
 11
633.26486328129999
 21
308.92500000000001
 31
0.0
  0
SOLID
  5
28D
  8
0
 62
     0
 10
628.26486328129999
 20
308.92500000000001
 30
0.0
 11
637.26486328129999
 21
311.17500000000001
 31
0.0
 12
637.26486328129999
 22
306.67500000000001
 32
0.0
 13
635.01486328129999
 23
308.92500000000001
 33
0.0
  0
LINE
  5
28E
  8
0
 62
     0
 10
858.26486328129999
 20
308.92500000000001
 30
0.0
 11
853.26486328129999
 21
308.92500000000001
 31
0.0
  0
SOLID
  5
28F
  8
0
 62
     0
 10
858.26486328129999
 20
308.92500000000001
 30
0.0
 11
849.26486328129988
 21
306.67500000000001
 31
0.0
 12
849.26486328129988
 22
311.17500000000001
 32
0.0
 13
851.51486328129999
 23
308.92500000000001
 33
0.0
  0
ENDBLK
  5
290
  8
0
  0
BLOCK
  8
0
  2
*D22
 70
     1
 10
0.0
 20
0.0
 30
0.0
  3
*D22
  1

  0
TEXT
  5
29A
  8
0
 62
     0
 10
918.84165332789985
 20
148.4896486282
 30
0.0
 40
9.8954164504999991
  1
248
 50
90.0
  0
LINE
  5
29B
  8
0
 62
     0
 10
869.26486328129999
 20
33.220898437499997
 30
0.0
 11
922.5879032897999
 21
33.220898437499997
 31
0.0
  0
LINE
  5
29C
  8
0
 62
     0
 10
869.26486328129999
 20
281.22089843750001
 30
0.0
 11
922.5879032897999
 21
281.22089843750001
 31
0.0
  0
LINE
  5
29D
  8
0
 62
     0
 10
921.58790328980001
 20
33.220898437499997
 30
0.0
 11
921.58790328980001
 21
171.77298145290001
 31
0.0
  0
LINE
  5
29E
  8
0
 62
     0
 10
921.58790328980001
 20
33.220898437499997
 30
0.0
 11
921.58790328980001
 21
142.66881542210001
 31
0.0
  0
LINE
  5
29F
  8
0
 62
     0
 10
921.58790328980001
 20
281.22089843750001
 30
0.0
 11
921.58790328980001
 21
171.77298145290001
 31
0.0
  0
LINE
  5
2A0
  8
0
 62
     0
 10
921.58790328980001
 20
281.22089843750001
 30
0.0
 11
921.58790328980001
 21
142.66881542210001
 31
0.0
  0
LINE
  5
2A1
  8
0
 62
     0
 10
921.58790328980001
 20
281.22089843750001
 30
0.0
 11
921.58790328980001
 21
276.22089843750001
 31
0.0
  0
SOLID
  5
2A2
  8
0
 62
     0
 10
921.58790328980001
 20
281.22089843750001
 30
0.0
 11
923.83790328980001
 21
272.22089843750001
 31
0.0
 12
919.33790328980001
 22
272.22089843750001
 32
0.0
 13
921.58790328980001
 23
274.47089843750001
 33
0.0
  0
LINE
  5
2A3
  8
0
 62
     0
 10
921.58790328980001
 20
33.220898437499997
 30
0.0
 11
921.58790328980001
 21
38.220898437499997
 31
0.0
  0
SOLID
  5
2A4
  8
0
 62
     0
 10
921.58790328980001
 20
33.220898437499997
 30
0.0
 11
919.33790328980001
 21
42.220898437499997
 31
0.0
 12
923.83790328980001
 22
42.220898437499997
 32
0.0
 13
921.58790328980001
 23
39.970898437499997
 33
0.0
  0
ENDBLK
  5
2A5
  8
0
  0
BLOCK
  8
0
  2
*D23
 70
     1
 10
0.0
 20
0.0
 30
0.0
  3
*D23
  1

  0
TEXT
  5
2A9
  8
0
 62
     0
 10
901.55658100130006
 20
148.4896486282
 30
0.0
 40
9.8954164504999991
  1
230
 50
90.0
  0
LINE
  5
2AA
  8
0
 62
     0
 10
860.26486328129999
 20
42.220898437499997
 30
0.0
 11
905.30283096309995
 21
42.220898437499997
 31
0.0
  0
LINE
  5
2AB
  8
0
 62
     0
 10
860.26486328129999
 20
272.22089843750001
 30
0.0
 11
905.30283096309995
 21
272.22089843750001
 31
0.0
  0
LINE
  5
2AC
  8
0
 62
     0
 10
904.30283096309995
 20
42.220898437499997
 30
0.0
 11
904.30283096309995
 21
171.77298145290001
 31
0.0
  0
LINE
  5
2AD
  8
0
 62
     0
 10
904.30283096309995
 20
42.220898437499997
 30
0.0
 11
904.30283096309995
 21
142.66881542210001
 31
0.0
  0
LINE
  5
2AE
  8
0
 62
     0
 10
904.30283096309995
 20
272.22089843750001
 30
0.0
 11
904.30283096309995
 21
171.77298145290001
 31
0.0
  0
LINE
  5
2AF
  8
0
 62
     0
 10
904.30283096309995
 20
272.22089843750001
 30
0.0
 11
904.30283096309995
 21
142.66881542210001
 31
0.0
  0
LINE
  5
2B0
  8
0
 62
     0
 10
904.30283096309995
 20
272.22089843750001
 30
0.0
 11
904.30283096309995
 21
267.22089843750001
 31
0.0
  0
SOLID
  5
2B1
  8
0
 62
     0
 10
904.30283096309995
 20
272.22089843750001
 30
0.0
 11
906.55283096309995
 21
263.22089843750001
 31
0.0
 12
902.05283096309995
 22
263.22089843750001
 32
0.0
 13
904.30283096309995
 23
265.47089843750001
 33
0.0
  0
LINE
  5
2B2
  8
0
 62
     0
 10
904.30283096309995
 20
42.220898437499997
 30
0.0
 11
904.30283096309995
 21
47.220898437499997
 31
0.0
  0
SOLID
  5
2B3
  8
0
 62
     0
 10
904.30283096309995
 20
42.220898437499997
 30
0.0
 11
902.05283096309995
 21
51.220898437499997
 31
0.0
 12
906.55283096309995
 22
51.220898437499997
 32
0.0
 13
904.30283096309995
 23
48.97089843749999
 33
0.0
  0
ENDBLK
  5
2B4
  8
0
  0
BLOCK
  8
0
  2
*D24
 70
     1
 10
0.0
 20
0.0
 30
0.0
  3
*D24
  1

  0
TEXT
  5
301
  8
0
 62
     0
 10
763.97412965919989
 20
-197.2205381464
 30
0.0
 40
9.8954164504999991
  1
28.5
 50
90.0
  0
LINE
  5
302
  8
0
 62
     0
 10
724.22037962110005
 20
-201.52661475260001
 30
0.0
 11
767.72037962110005
 21
-201.52661475260001
 31
0.0
  0
LINE
  5
303
  8
0
 62
     0
 10
724.22037962110005
 20
-173.02661475260001
 30
0.0
 11
767.72037962110005
 21
-173.02661475260001
 31
0.0
  0
LINE
  5
304
  8
0
 62
     0
 10
766.72037962110005
 20
-201.52661475260001
 30
0.0
 11
766.72037962110005
 21
-201.52661475260001
 31
0.0
  0
LINE
  5
305
  8
0
 62
     0
 10
766.72037962110005
 20
-201.52661475260001
 30
0.0
 11
766.72037962110005
 21
-173.02661475260001
 31
0.0
  0
LINE
  5
306
  8
0
 62
     0
 10
766.72037962110005
 20
-173.02661475260001
 30
0.0
 11
766.72037962110005
 21
-201.52661475260001
 31
0.0
  0
LINE
  5
307
  8
0
 62
     0
 10
766.72037962110005
 20
-173.02661475260001
 30
0.0
 11
766.72037962110005
 21
-173.02661475260001
 31
0.0
  0
LINE
  5
308
  8
0
 62
     0
 10
766.72037962110005
 20
-173.02661475260001
 30
0.0
 11
766.72037962110005
 21
-178.0266147525999
 31
0.0
  0
SOLID
  5
309
  8
0
 62
     0
 10
766.72037962110005
 20
-173.02661475260001
 30
0.0
 11
768.97037962110005
 21
-182.02661475260001
 31
0.0
 12
764.47037962110005
 22
-182.02661475260001
 32
0.0
 13
766.72037962110005
 23
-179.77661475260001
 33
0.0
  0
LINE
  5
30A
  8
0
 62
     0
 10
766.72037962110005
 20
-201.52661475260001
 30
0.0
 11
766.72037962110005
 21
-196.52661475260001
 31
0.0
  0
SOLID
  5
30B
  8
0
 62
     0
 10
766.72037962110005
 20
-201.52661475260001
 30
0.0
 11
764.47037962110005
 21
-192.52661475260001
 31
0.0
 12
768.97037962110005
 22
-192.52661475260001
 32
0.0
 13
766.72037962110005
 23
-194.77661475260001
 33
0.0
  0
ENDBLK
  5
30C
  8
0
  0
BLOCK
  8
0
  2
*D25
 70
     1
 10
0.0
 20
0.0
 30
0.0
  3
*D25
  1

  0
TEXT
  5
310
  8
0
 62
     0
 10
763.97412965919989
 20
-214.8474479587
 30
0.0
 40
9.8954164504999991
  1
15
 50
90.0
  0
LINE
  5
311
  8
0
 62
     0
 10
724.22037962110005
 20
-216.52661475260001
 30
0.0
 11
767.72037962110005
 21
-216.52661475260001
 31
0.0
  0
LINE
  5
312
  8
0
 62
     0
 10
724.22037962110005
 20
-201.52661475260001
 30
0.0
 11
767.72037962110005
 21
-201.52661475260001
 31
0.0
  0
LINE
  5
313
  8
0
 62
     0
 10
766.72037962110005
 20
-216.52661475260001
 30
0.0
 11
766.72037962110005
 21
-216.52661475260001
 31
0.0
  0
LINE
  5
314
  8
0
 62
     0
 10
766.72037962110005
 20
-216.52661475260001
 30
0.0
 11
766.72037962110005
 21
-201.52661475260001
 31
0.0
  0
LINE
  5
315
  8
0
 62
     0
 10
766.72037962110005
 20
-201.52661475260001
 30
0.0
 11
766.72037962110005
 21
-216.52661475260001
 31
0.0
  0
LINE
  5
316
  8
0
 62
     0
 10
766.72037962110005
 20
-201.52661475260001
 30
0.0
 11
766.72037962110005
 21
-201.52661475260001
 31
0.0
  0
LINE
  5
317
  8
0
 62
     0
 10
766.72037962110005
 20
-201.52661475260001
 30
0.0
 11
766.72037962110005
 21
-196.52661475260001
 31
0.0
  0
SOLID
  5
318
  8
0
 62
     0
 10
766.72037962110005
 20
-201.52661475260001
 30
0.0
 11
764.47037962110005
 21
-192.52661475260001
 31
0.0
 12
768.97037962110005
 22
-192.52661475260001
 32
0.0
 13
766.72037962110005
 23
-194.77661475260001
 33
0.0
  0
LINE
  5
319
  8
0
 62
     0
 10
766.72037962110005
 20
-216.52661475260001
 30
0.0
 11
766.72037962110005
 21
-221.52661475260001
 31
0.0
  0
SOLID
  5
31A
  8
0
 62
     0
 10
766.72037962110005
 20
-216.52661475260001
 30
0.0
 11
768.97037962110005
 21
-225.52661475260001
 31
0.0
 12
764.47037962110005
 22
-225.52661475260001
 32
0.0
 13
766.72037962110005
 23
-223.27661475260001
 33
0.0
  0
ENDBLK
  5
31B
  8
0
  0
BLOCK
  8
0
  2
*D26
 70
     1
 10
0.0
 20
0.0
 30
0.0
  3
*D26
  1

  0
TEXT
  5
31F
  8
0
 62
     0
 10
763.97412965919989
 20
-153.8474479587
 30
0.0
 40
9.8954164504999991
  1
20
 50
90.0
  0
LINE
  5
320
  8
0
 62
     0
 10
724.22037962110005
 20
-158.02661475260001
 30
0.0
 11
767.72037962110005
 21
-158.02661475260001
 31
0.0
  0
LINE
  5
321
  8
0
 62
     0
 10
738.72037962110005
 20
-138.02661475260001
 30
0.0
 11
767.72037962110005
 21
-138.02661475260001
 31
0.0
  0
LINE
  5
322
  8
0
 62
     0
 10
766.72037962110005
 20
-158.02661475260001
 30
0.0
 11
766.72037962110005
 21
-158.02661475260001
 31
0.0
  0
LINE
  5
323
  8
0
 62
     0
 10
766.72037962110005
 20
-158.02661475260001
 30
0.0
 11
766.72037962110005
 21
-138.02661475260001
 31
0.0
  0
LINE
  5
324
  8
0
 62
     0
 10
766.72037962110005
 20
-138.02661475260001
 30
0.0
 11
766.72037962110005
 21
-158.02661475260001
 31
0.0
  0
LINE
  5
325
  8
0
 62
     0
 10
766.72037962110005
 20
-138.02661475260001
 30
0.0
 11
766.72037962110005
 21
-138.02661475260001
 31
0.0
  0
LINE
  5
326
  8
0
 62
     0
 10
766.72037962110005
 20
-138.02661475260001
 30
0.0
 11
766.72037962110005
 21
-143.02661475260001
 31
0.0
  0
SOLID
  5
327
  8
0
 62
     0
 10
766.72037962110005
 20
-138.02661475260001
 30
0.0
 11
768.97037962110005
 21
-147.02661475260001
 31
0.0
 12
764.47037962110005
 22
-147.02661475260001
 32
0.0
 13
766.72037962110005
 23
-144.77661475260001
 33
0.0
  0
LINE
  5
328
  8
0
 62
     0
 10
766.72037962110005
 20
-158.02661475260001
 30
0.0
 11
766.72037962110005
 21
-153.02661475260001
 31
0.0
  0
SOLID
  5
329
  8
0
 62
     0
 10
766.72037962110005
 20
-158.02661475260001
 30
0.0
 11
764.47037962110005
 21
-149.02661475260001
 31
0.0
 12
768.97037962110005
 22
-149.02661475260001
 32
0.0
 13
766.72037962110005
 23
-151.27661475260001
 33
0.0
  0
ENDBLK
  5
32A
  8
0
  0
BLOCK
  8
0
  2
*D27
 70
     1
 10
0.0
 20
0.0
 30
0.0
  3
*D27
  1

  0
TEXT
  5
32E
  8
0
 62
     0
 10
763.97412965919989
 20
-171.3474479587
 30
0.0
 40
9.8954164504999991
  1
15
 50
90.0
  0
LINE
  5
32F
  8
0
 62
     0
 10
724.22037962110005
 20
-173.02661475260001
 30
0.0
 11
767.72037962110005
 21
-173.02661475260001
 31
0.0
  0
LINE
  5
330
  8
0
 62
     0
 10
724.22037962110005
 20
-158.02661475260001
 30
0.0
 11
767.72037962110005
 21
-158.02661475260001
 31
0.0
  0
LINE
  5
331
  8
0
 62
     0
 10
766.72037962110005
 20
-173.02661475260001
 30
0.0
 11
766.72037962110005
 21
-173.02661475260001
 31
0.0
  0
LINE
  5
332
  8
0
 62
     0
 10
766.72037962110005
 20
-173.02661475260001
 30
0.0
 11
766.72037962110005
 21
-158.02661475260001
 31
0.0
  0
LINE
  5
333
  8
0
 62
     0
 10
766.72037962110005
 20
-158.02661475260001
 30
0.0
 11
766.72037962110005
 21
-173.02661475260001
 31
0.0
  0
LINE
  5
334
  8
0
 62
     0
 10
766.72037962110005
 20
-158.02661475260001
 30
0.0
 11
766.72037962110005
 21
-158.02661475260001
 31
0.0
  0
LINE
  5
335
  8
0
 62
     0
 10
766.72037962110005
 20
-158.02661475260001
 30
0.0
 11
766.72037962110005
 21
-153.02661475260001
 31
0.0
  0
SOLID
  5
336
  8
0
 62
     0
 10
766.72037962110005
 20
-158.02661475260001
 30
0.0
 11
764.47037962110005
 21
-149.02661475260001
 31
0.0
 12
768.97037962110005
 22
-149.02661475260001
 32
0.0
 13
766.72037962110005
 23
-151.27661475260001
 33
0.0
  0
LINE
  5
337
  8
0
 62
     0
 10
766.72037962110005
 20
-173.02661475260001
 30
0.0
 11
766.72037962110005
 21
-178.0266147525999
 31
0.0
  0
SOLID
  5
338
  8
0
 62
     0
 10
766.72037962110005
 20
-173.02661475260001
 30
0.0
 11
768.97037962110005
 21
-182.02661475260001
 31
0.0
 12
764.47037962110005
 22
-182.02661475260001
 32
0.0
 13
766.72037962110005
 23
-179.77661475260001
 33
0.0
  0
ENDBLK
  5
339
  8
0
  0
BLOCK
  8
0
  2
*D28
 70
     1
 10
0.0
 20
0.0
 30
0.0
  3
*D28
  1

  0
TEXT
  5
33D
  8
0
 62
     0
 10
899.51076835629999
 20
-113.1954687031
 30
0.0
 40
9.8954164504999991
  1
23
  0
LINE
  5
33E
  8
0
 62
     0
 10
916.83160156250005
 20
-136.02661475260001
 30
0.0
 11
916.83160156250005
 21
-114.94171866489999
 31
0.0
  0
LINE
  5
33F
  8
0
 62
     0
 10
893.83160156250005
 20
-138.02661475260001
 30
0.0
 11
893.83160156250005
 21
-114.94171866489999
 31
0.0
  0
LINE
  5
340
  8
0
 62
     0
 10
916.83160156250005
 20
-115.94171866489999
 30
0.0
 11
916.83160156250005
 21
-115.94171866489999
 31
0.0
  0
LINE
  5
341
  8
0
 62
     0
 10
916.83160156250005
 20
-115.94171866489999
 30
0.0
 11
893.83160156250005
 21
-115.94171866489999
 31
0.0
  0
LINE
  5
342
  8
0
 62
     0
 10
893.83160156250005
 20
-115.94171866489999
 30
0.0
 11
916.83160156250005
 21
-115.94171866489999
 31
0.0
  0
LINE
  5
343
  8
0
 62
     0
 10
893.83160156250005
 20
-115.94171866489999
 30
0.0
 11
893.83160156250005
 21
-115.94171866489999
 31
0.0
  0
LINE
  5
344
  8
0
 62
     0
 10
893.83160156250005
 20
-115.94171866489999
 30
0.0
 11
898.83160156250005
 21
-115.94171866489999
 31
0.0
  0
SOLID
  5
345
  8
0
 62
     0
 10
893.83160156250005
 20
-115.94171866489999
 30
0.0
 11
902.83160156250005
 21
-113.69171866489999
 31
0.0
 12
902.83160156250005
 22
-118.19171866489999
 32
0.0
 13
900.58160156250005
 23
-115.94171866489999
 33
0.0
  0
LINE
  5
346
  8
0
 62
     0
 10
916.83160156250005
 20
-115.94171866489999
 30
0.0
 11
911.83160156250005
 21
-115.94171866489999
 31
0.0
  0
SOLID
  5
347
  8
0
 62
     0
 10
916.83160156250005
 20
-115.94171866489999
 30
0.0
 11
907.83160156250005
 21
-118.19171866489999
 31
0.0
 12
907.83160156250005
 22
-113.69171866489999
 32
0.0
 13
910.08160156249994
 23
-115.94171866489999
 33
0.0
  0
ENDBLK
  5
348
  8
0
  0
BLOCK
  8
0
  2
*D29
 70
     1
 10
0.0
 20
0.0
 30
0.0
  3
*D29
  1

  0
TEXT
  5
34C
  8
0
 62
     0
 10
840.03209648130007
 20
-113.1954687031
 30
0.0
 40
9.8954164504999991
  1
14
  0
LINE
  5
34D
  8
0
 62
     0
 10
852.85292968749991
 20
-136.02661475260001
 30
0.0
 11
852.85292968749991
 21
-114.94171866489999
 31
0.0
  0
LINE
  5
34E
  8
0
 62
     0
 10
838.85292968750014
 20
-138.0266161019
 30
0.0
 11
838.85292968750014
 21
-114.94171866489999
 31
0.0
  0
LINE
  5
34F
  8
0
 62
     0
 10
852.85292968749991
 20
-115.94171866489999
 30
0.0
 11
852.85292968749991
 21
-115.94171866489999
 31
0.0
  0
LINE
  5
350
  8
0
 62
     0
 10
852.85292968749991
 20
-115.94171866489999
 30
0.0
 11
838.85292968750014
 21
-115.94171866489999
 31
0.0
  0
LINE
  5
351
  8
0
 62
     0
 10
838.85292968750014
 20
-115.94171866489999
 30
0.0
 11
852.85292968749991
 21
-115.94171866489999
 31
0.0
  0
LINE
  5
352
  8
0
 62
     0
 10
838.85292968750014
 20
-115.94171866489999
 30
0.0
 11
838.85292968750014
 21
-115.94171866489999
 31
0.0
  0
LINE
  5
353
  8
0
 62
     0
 10
838.85292968750014
 20
-115.94171866489999
 30
0.0
 11
833.85292968750002
 21
-115.94171866489999
 31
0.0
  0
SOLID
  5
354
  8
0
 62
     0
 10
838.85292968750014
 20
-115.94171866489999
 30
0.0
 11
829.85292968749991
 21
-118.19171866489999
 31
0.0
 12
829.85292968749991
 22
-113.69171866489999
 32
0.0
 13
832.10292968750002
 23
-115.94171866489999
 33
0.0
  0
LINE
  5
355
  8
0
 62
     0
 10
852.85292968749991
 20
-115.94171866489999
 30
0.0
 11
857.85292968750002
 21
-115.94171866489999
 31
0.0
  0
SOLID
  5
356
  8
0
 62
     0
 10
852.85292968749991
 20
-115.94171866489999
 30
0.0
 11
861.85292968749991
 21
-113.69171866489999
 31
0.0
 12
861.85292968749991
 22
-118.19171866489999
 32
0.0
 13
859.60292968750002
 23
-115.94171866489999
 33
0.0
  0
ENDBLK
  5
357
  8
0
  0
BLOCK
  8
0
  2
*D30
 70
     1
 10
0.0
 20
0.0
 30
0.0
  3
*D30
  1

  0
TEXT
  5
35B
  8
0
 62
     0
 10
763.97412965919989
 20
-240.7205381464
 30
0.0
 40
9.8954164504999991
  1
28.5
 50
90.0
  0
LINE
  5
35C
  8
0
 62
     0
 10
666.22037962110005
 20
-245.02661475260001
 30
0.0
 11
767.72037962110005
 21
-245.02661475260001
 31
0.0
  0
LINE
  5
35D
  8
0
 62
     0
 10
724.22037962110005
 20
-216.52661475260001
 30
0.0
 11
767.72037962110005
 21
-216.52661475260001
 31
0.0
  0
LINE
  5
35E
  8
0
 62
     0
 10
766.72037962110005
 20
-245.02661475260001
 30
0.0
 11
766.72037962110005
 21
-245.02661475260001
 31
0.0
  0
LINE
  5
35F
  8
0
 62
     0
 10
766.72037962110005
 20
-245.02661475260001
 30
0.0
 11
766.72037962110005
 21
-216.52661475260001
 31
0.0
  0
LINE
  5
360
  8
0
 62
     0
 10
766.72037962110005
 20
-216.52661475260001
 30
0.0
 11
766.72037962110005
 21
-245.02661475260001
 31
0.0
  0
LINE
  5
361
  8
0
 62
     0
 10
766.72037962110005
 20
-216.52661475260001
 30
0.0
 11
766.72037962110005
 21
-216.52661475260001
 31
0.0
  0
LINE
  5
362
  8
0
 62
     0
 10
766.72037962110005
 20
-216.52661475260001
 30
0.0
 11
766.72037962110005
 21
-221.52661475260001
 31
0.0
  0
SOLID
  5
363
  8
0
 62
     0
 10
766.72037962110005
 20
-216.52661475260001
 30
0.0
 11
768.97037962110005
 21
-225.52661475260001
 31
0.0
 12
764.47037962110005
 22
-225.52661475260001
 32
0.0
 13
766.72037962110005
 23
-223.27661475260001
 33
0.0
  0
LINE
  5
364
  8
0
 62
     0
 10
766.72037962110005
 20
-245.02661475260001
 30
0.0
 11
766.72037962110005
 21
-240.02661475260001
 31
0.0
  0
SOLID
  5
365
  8
0
 62
     0
 10
766.72037962110005
 20
-245.02661475260001
 30
0.0
 11
764.47037962110005
 21
-236.02661475260001
 31
0.0
 12
768.97037962110005
 22
-236.02661475260001
 32
0.0
 13
766.72037962110005
 23
-238.27661475260001
 33
0.0
  0
ENDBLK
  5
366
  8
0
  0
BLOCK
  8
0
  2
*D31
 70
     1
 10
0.0
 20
0.0
 30
0.0
  3
*D31
  1

  0
TEXT
  5
38E
  8
0
 62
     0
 10
763.97412965919989
 20
-345.3474479587
 30
0.0
 40
9.8954164504999991
  1
15
 50
90.0
  0
LINE
  5
38F
  8
0
 62
     0
 10
724.22037962110005
 20
-347.02661475259998
 30
0.0
 11
767.72037962110005
 21
-347.02661475259998
 31
0.0
  0
LINE
  5
390
  8
0
 62
     0
 10
724.22037962110005
 20
-332.02661475259998
 30
0.0
 11
767.72037962110005
 21
-332.02661475259998
 31
0.0
  0
LINE
  5
391
  8
0
 62
     0
 10
766.72037962110005
 20
-347.02661475259998
 30
0.0
 11
766.72037962110005
 21
-347.02661475259998
 31
0.0
  0
LINE
  5
392
  8
0
 62
     0
 10
766.72037962110005
 20
-347.02661475259998
 30
0.0
 11
766.72037962110005
 21
-332.02661475259998
 31
0.0
  0
LINE
  5
393
  8
0
 62
     0
 10
766.72037962110005
 20
-332.02661475259998
 30
0.0
 11
766.72037962110005
 21
-347.02661475259998
 31
0.0
  0
LINE
  5
394
  8
0
 62
     0
 10
766.72037962110005
 20
-332.02661475259998
 30
0.0
 11
766.72037962110005
 21
-332.02661475259998
 31
0.0
  0
LINE
  5
395
  8
0
 62
     0
 10
766.72037962110005
 20
-332.02661475259998
 30
0.0
 11
766.72037962110005
 21
-327.02661475259998
 31
0.0
  0
SOLID
  5
396
  8
0
 62
     0
 10
766.72037962110005
 20
-332.02661475259998
 30
0.0
 11
764.47037962110005
 21
-323.02661475259998
 31
0.0
 12
768.97037962110005
 22
-323.02661475259998
 32
0.0
 13
766.72037962110005
 23
-325.27661475259998
 33
0.0
  0
LINE
  5
397
  8
0
 62
     0
 10
766.72037962110005
 20
-347.02661475259998
 30
0.0
 11
766.72037962110005
 21
-352.0266147526001
 31
0.0
  0
SOLID
  5
398
  8
0
 62
     0
 10
766.72037962110005
 20
-347.02661475259998
 30
0.0
 11
768.97037962110005
 21
-356.0266147526001
 31
0.0
 12
764.47037962110005
 22
-356.0266147526001
 32
0.0
 13
766.72037962110005
 23
-353.77661475259998
 33
0.0
  0
ENDBLK
  5
399
  8
0
  0
BLOCK
  8
0
  2
*D32
 70
     1
 10
0.0
 20
0.0
 30
0.0
  3
*D32
  1

  0
TEXT
  5
39D
  8
0
 62
     0
 10
763.97412965919989
 20
-362.8474479587
 30
0.0
 40
9.8954164504999991
  1
20
 50
90.0
  0
LINE
  5
39E
  8
0
 62
     0
 10
738.72037962110005
 20
-367.02661475259998
 30
0.0
 11
767.72037962110005
 21
-367.02661475259998
 31
0.0
  0
LINE
  5
39F
  8
0
 62
     0
 10
724.22037962110005
 20
-347.02661475259998
 30
0.0
 11
767.72037962110005
 21
-347.02661475259998
 31
0.0
  0
LINE
  5
3A0
  8
0
 62
     0
 10
766.72037962110005
 20
-367.02661475259998
 30
0.0
 11
766.72037962110005
 21
-367.02661475259998
 31
0.0
  0
LINE
  5
3A1
  8
0
 62
     0
 10
766.72037962110005
 20
-367.02661475259998
 30
0.0
 11
766.72037962110005
 21
-347.02661475259998
 31
0.0
  0
LINE
  5
3A2
  8
0
 62
     0
 10
766.72037962110005
 20
-347.02661475259998
 30
0.0
 11
766.72037962110005
 21
-367.02661475259998
 31
0.0
  0
LINE
  5
3A3
  8
0
 62
     0
 10
766.72037962110005
 20
-347.02661475259998
 30
0.0
 11
766.72037962110005
 21
-347.02661475259998
 31
0.0
  0
LINE
  5
3A4
  8
0
 62
     0
 10
766.72037962110005
 20
-347.02661475259998
 30
0.0
 11
766.72037962110005
 21
-352.0266147526001
 31
0.0
  0
SOLID
  5
3A5
  8
0
 62
     0
 10
766.72037962110005
 20
-347.02661475259998
 30
0.0
 11
768.97037962110005
 21
-356.0266147526001
 31
0.0
 12
764.47037962110005
 22
-356.0266147526001
 32
0.0
 13
766.72037962110005
 23
-353.77661475259998
 33
0.0
  0
LINE
  5
3A6
  8
0
 62
     0
 10
766.72037962110005
 20
-367.02661475259998
 30
0.0
 11
766.72037962110005
 21
-362.02661475259998
 31
0.0
  0
SOLID
  5
3A7
  8
0
 62
     0
 10
766.72037962110005
 20
-367.02661475259998
 30
0.0
 11
764.47037962110005
 21
-358.02661475259998
 31
0.0
 12
768.97037962110005
 22
-358.02661475259998
 32
0.0
 13
766.72037962110005
 23
-360.2766147526001
 33
0.0
  0
ENDBLK
  5
3A8
  8
0
  0
BLOCK
  8
0
  2
*D33
 70
     1
 10
0.0
 20
0.0
 30
0.0
  3
*D33
  1

  0
TEXT
  5
3AC
  8
0
 62
     0
 10
715.02645622720001
 20
-392.28036479069999
 30
0.0
 40
9.8954164504999991
  1
27.5
  0
LINE
  5
3AD
  8
0
 62
     0
 10
711.22037962110005
 20
-352.52661475259998
 30
0.0
 11
711.22037962110005
 21
-396.0266147526001
 31
0.0
  0
LINE
  5
3AE
  8
0
 62
     0
 10
738.72037962110005
 20
-367.02661475259998
 30
0.0
 11
738.72037962110005
 21
-396.0266147526001
 31
0.0
  0
LINE
  5
3AF
  8
0
 62
     0
 10
711.22037962110005
 20
-395.02661475259998
 30
0.0
 11
711.22037962110005
 21
-395.02661475259998
 31
0.0
  0
LINE
  5
3B0
  8
0
 62
     0
 10
711.22037962110005
 20
-395.02661475259998
 30
0.0
 11
738.72037962110005
 21
-395.02661475259998
 31
0.0
  0
LINE
  5
3B1
  8
0
 62
     0
 10
738.72037962110005
 20
-395.02661475259998
 30
0.0
 11
711.22037962110005
 21
-395.02661475259998
 31
0.0
  0
LINE
  5
3B2
  8
0
 62
     0
 10
738.72037962110005
 20
-395.02661475259998
 30
0.0
 11
738.72037962110005
 21
-395.02661475259998
 31
0.0
  0
LINE
  5
3B3
  8
0
 62
     0
 10
738.72037962110005
 20
-395.02661475259998
 30
0.0
 11
733.72037962110005
 21
-395.02661475259998
 31
0.0
  0
SOLID
  5
3B4
  8
0
 62
     0
 10
738.72037962110005
 20
-395.02661475259998
 30
0.0
 11
729.72037962110005
 21
-397.27661475259998
 31
0.0
 12
729.72037962110005
 22
-392.77661475259998
 32
0.0
 13
731.97037962110005
 23
-395.02661475259998
 33
0.0
  0
LINE
  5
3B5
  8
0
 62
     0
 10
711.22037962110005
 20
-395.02661475259998
 30
0.0
 11
716.22037962110005
 21
-395.02661475259998
 31
0.0
  0
SOLID
  5
3B6
  8
0
 62
     0
 10
711.22037962110005
 20
-395.02661475259998
 30
0.0
 11
720.22037962110005
 21
-392.77661475259998
 31
0.0
 12
720.22037962110005
 22
-397.27661475259998
 32
0.0
 13
717.97037962110005
 23
-395.02661475259998
 33
0.0
  0
ENDBLK
  5
3B7
  8
0
  0
BLOCK
  8
0
  2
*D34
 70
     1
 10
0.0
 20
0.0
 30
0.0
  3
*D34
  1

  0
TEXT
  5
3BB
  8
0
 62
     0
 10
676.39954641489987
 20
-392.28036479069999
 30
0.0
 40
9.8954164504999991
  1
58
  0
LINE
  5
3BC
  8
0
 62
     0
 10
653.22037962110005
 20
-352.52661475259998
 30
0.0
 11
653.22037962110005
 21
-396.0266147526001
 31
0.0
  0
LINE
  5
3BD
  8
0
 62
     0
 10
711.22037962110005
 20
-352.52661475259998
 30
0.0
 11
711.22037962110005
 21
-396.0266147526001
 31
0.0
  0
LINE
  5
3BE
  8
0
 62
     0
 10
653.22037962110005
 20
-395.02661475259998
 30
0.0
 11
693.86204603340002
 21
-395.02661475259998
 31
0.0
  0
LINE
  5
3BF
  8
0
 62
     0
 10
653.22037962110005
 20
-395.02661475259998
 30
0.0
 11
670.57871320870004
 21
-395.02661475259998
 31
0.0
  0
LINE
  5
3C0
  8
0
 62
     0
 10
711.22037962110005
 20
-395.02661475259998
 30
0.0
 11
693.86204603340002
 21
-395.02661475259998
 31
0.0
  0
LINE
  5
3C1
  8
0
 62
     0
 10
711.22037962110005
 20
-395.02661475259998
 30
0.0
 11
670.57871320870004
 21
-395.02661475259998
 31
0.0
  0
LINE
  5
3C2
  8
0
 62
     0
 10
711.22037962110005
 20
-395.02661475259998
 30
0.0
 11
706.22037962110005
 21
-395.02661475259998
 31
0.0
  0
SOLID
  5
3C3
  8
0
 62
     0
 10
711.22037962110005
 20
-395.02661475259998
 30
0.0
 11
702.22037962110005
 21
-397.27661475259998
 31
0.0
 12
702.22037962110005
 22
-392.77661475259998
 32
0.0
 13
704.47037962110005
 23
-395.02661475259998
 33
0.0
  0
LINE
  5
3C4
  8
0
 62
     0
 10
653.22037962110005
 20
-395.02661475259998
 30
0.0
 11
658.22037962110005
 21
-395.02661475259998
 31
0.0
  0
SOLID
  5
3C5
  8
0
 62
     0
 10
653.22037962110005
 20
-395.02661475259998
 30
0.0
 11
662.22037962110005
 21
-392.77661475259998
 31
0.0
 12
662.22037962110005
 22
-397.27661475259998
 32
0.0
 13
659.97037962110005
 23
-395.02661475259998
 33
0.0
  0
ENDBLK
  5
3C6
  8
0
  0
BLOCK
  8
0
  2
*D35
 70
     1
 10
0.0
 20
0.0
 30
0.0
  3
*D35
  1

  0
TEXT
  5
3CA
  8
0
 62
     0
 10
763.97412965919989
 20
-284.22053814639997
 30
0.0
 40
9.8954164504999991
  1
28.5
 50
90.0
  0
LINE
  5
3CB
  8
0
 62
     0
 10
724.22037962110005
 20
-288.52661475259998
 30
0.0
 11
767.72037962110005
 21
-288.52661475259998
 31
0.0
  0
LINE
  5
3CC
  8
0
 62
     0
 10
666.22037962110005
 20
-260.02661475259998
 30
0.0
 11
767.72037962110005
 21
-260.02661475259998
 31
0.0
  0
LINE
  5
3CD
  8
0
 62
     0
 10
766.72037962110005
 20
-288.52661475259998
 30
0.0
 11
766.72037962110005
 21
-288.52661475259998
 31
0.0
  0
LINE
  5
3CE
  8
0
 62
     0
 10
766.72037962110005
 20
-288.52661475259998
 30
0.0
 11
766.72037962110005
 21
-260.02661475259998
 31
0.0
  0
LINE
  5
3CF
  8
0
 62
     0
 10
766.72037962110005
 20
-260.02661475259998
 30
0.0
 11
766.72037962110005
 21
-288.52661475259998
 31
0.0
  0
LINE
  5
3D0
  8
0
 62
     0
 10
766.72037962110005
 20
-260.02661475259998
 30
0.0
 11
766.72037962110005
 21
-260.02661475259998
 31
0.0
  0
LINE
  5
3D1
  8
0
 62
     0
 10
766.72037962110005
 20
-260.02661475259998
 30
0.0
 11
766.72037962110005
 21
-265.02661475259998
 31
0.0
  0
SOLID
  5
3D2
  8
0
 62
     0
 10
766.72037962110005
 20
-260.02661475259998
 30
0.0
 11
768.97037962110005
 21
-269.02661475259998
 31
0.0
 12
764.47037962110005
 22
-269.02661475259998
 32
0.0
 13
766.72037962110005
 23
-266.77661475259998
 33
0.0
  0
LINE
  5
3D3
  8
0
 62
     0
 10
766.72037962110005
 20
-288.52661475259998
 30
0.0
 11
766.72037962110005
 21
-283.52661475259998
 31
0.0
  0
SOLID
  5
3D4
  8
0
 62
     0
 10
766.72037962110005
 20
-288.52661475259998
 30
0.0
 11
764.47037962110005
 21
-279.52661475259998
 31
0.0
 12
768.97037962110005
 22
-279.52661475259998
 32
0.0
 13
766.72037962110005
 23
-281.77661475259998
 33
0.0
  0
ENDBLK
  5
3D5
  8
0
  0
BLOCK
  8
0
  2
*D36
 70
     1
 10
0.0
 20
0.0
 30
0.0
  3
*D36
  1

  0
TEXT
  5
3D9
  8
0
 62
     0
 10
763.97412965919989
 20
-301.8474479587
 30
0.0
 40
9.8954164504999991
  1
15
 50
90.0
  0
LINE
  5
3DA
  8
0
 62
     0
 10
724.22037962110005
 20
-303.52661475259998
 30
0.0
 11
767.72037962110005
 21
-303.52661475259998
 31
0.0
  0
LINE
  5
3DB
  8
0
 62
     0
 10
724.22037962110005
 20
-288.52661475259998
 30
0.0
 11
767.72037962110005
 21
-288.52661475259998
 31
0.0
  0
LINE
  5
3DC
  8
0
 62
     0
 10
766.72037962110005
 20
-303.52661475259998
 30
0.0
 11
766.72037962110005
 21
-303.52661475259998
 31
0.0
  0
LINE
  5
3DD
  8
0
 62
     0
 10
766.72037962110005
 20
-303.52661475259998
 30
0.0
 11
766.72037962110005
 21
-288.52661475259998
 31
0.0
  0
LINE
  5
3DE
  8
0
 62
     0
 10
766.72037962110005
 20
-288.52661475259998
 30
0.0
 11
766.72037962110005
 21
-303.52661475259998
 31
0.0
  0
LINE
  5
3DF
  8
0
 62
     0
 10
766.72037962110005
 20
-288.52661475259998
 30
0.0
 11
766.72037962110005
 21
-288.52661475259998
 31
0.0
  0
LINE
  5
3E0
  8
0
 62
     0
 10
766.72037962110005
 20
-288.52661475259998
 30
0.0
 11
766.72037962110005
 21
-283.52661475259998
 31
0.0
  0
SOLID
  5
3E1
  8
0
 62
     0
 10
766.72037962110005
 20
-288.52661475259998
 30
0.0
 11
764.47037962110005
 21
-279.52661475259998
 31
0.0
 12
768.97037962110005
 22
-279.52661475259998
 32
0.0
 13
766.72037962110005
 23
-281.77661475259998
 33
0.0
  0
LINE
  5
3E2
  8
0
 62
     0
 10
766.72037962110005
 20
-303.52661475259998
 30
0.0
 11
766.72037962110005
 21
-308.52661475259998
 31
0.0
  0
SOLID
  5
3E3
  8
0
 62
     0
 10
766.72037962110005
 20
-303.52661475259998
 30
0.0
 11
768.97037962110005
 21
-312.52661475259998
 31
0.0
 12
764.47037962110005
 22
-312.52661475259998
 32
0.0
 13
766.72037962110005
 23
-310.27661475259998
 33
0.0
  0
ENDBLK
  5
3E4
  8
0
  0
BLOCK
  8
0
  2
*D37
 70
     1
 10
0.0
 20
0.0
 30
0.0
  3
*D37
  1

  0
TEXT
  5
3E8
  8
0
 62
     0
 10
763.97412965919989
 20
-327.72053814639997
 30
0.0
 40
9.8954164504999991
  1
28.5
 50
90.0
  0
LINE
  5
3E9
  8
0
 62
     0
 10
724.22037962110005
 20
-332.02661475259998
 30
0.0
 11
767.72037962110005
 21
-332.02661475259998
 31
0.0
  0
LINE
  5
3EA
  8
0
 62
     0
 10
724.22037962110005
 20
-303.52661475259998
 30
0.0
 11
767.72037962110005
 21
-303.52661475259998
 31
0.0
  0
LINE
  5
3EB
  8
0
 62
     0
 10
766.72037962110005
 20
-332.02661475259998
 30
0.0
 11
766.72037962110005
 21
-332.02661475259998
 31
0.0
  0
LINE
  5
3EC
  8
0
 62
     0
 10
766.72037962110005
 20
-332.02661475259998
 30
0.0
 11
766.72037962110005
 21
-303.52661475259998
 31
0.0
  0
LINE
  5
3ED
  8
0
 62
     0
 10
766.72037962110005
 20
-303.52661475259998
 30
0.0
 11
766.72037962110005
 21
-332.02661475259998
 31
0.0
  0
LINE
  5
3EE
  8
0
 62
     0
 10
766.72037962110005
 20
-303.52661475259998
 30
0.0
 11
766.72037962110005
 21
-303.52661475259998
 31
0.0
  0
LINE
  5
3EF
  8
0
 62
     0
 10
766.72037962110005
 20
-303.52661475259998
 30
0.0
 11
766.72037962110005
 21
-308.52661475259998
 31
0.0
  0
SOLID
  5
3F0
  8
0
 62
     0
 10
766.72037962110005
 20
-303.52661475259998
 30
0.0
 11
768.97037962110005
 21
-312.52661475259998
 31
0.0
 12
764.47037962110005
 22
-312.52661475259998
 32
0.0
 13
766.72037962110005
 23
-310.27661475259998
 33
0.0
  0
LINE
  5
3F1
  8
0
 62
     0
 10
766.72037962110005
 20
-332.02661475259998
 30
0.0
 11
766.72037962110005
 21
-327.02661475259998
 31
0.0
  0
SOLID
  5
3F2
  8
0
 62
     0
 10
766.72037962110005
 20
-332.02661475259998
 30
0.0
 11
764.47037962110005
 21
-323.02661475259998
 31
0.0
 12
768.97037962110005
 22
-323.02661475259998
 32
0.0
 13
766.72037962110005
 23
-325.27661475259998
 33
0.0
  0
ENDBLK
  5
3F3
  8
0
  0
BLOCK
  8
0
  2
*D38
 70
     1
 10
0.0
 20
0.0
 30
0.0
  3
*D38
  1

  0
TEXT
  5
418
  8
0
 62
     0
 10
784.83411501080002
 20
-261.25786456179998
 30
0.0
 40
9.8954164504999991
  1
229
 50
90.0
  0
LINE
  5
419
  8
0
 62
     0
 10
738.72037962110005
 20
-367.02661475259998
 30
0.0
 11
788.58036497259991
 21
-367.02661475259998
 31
0.0
  0
LINE
  5
41A
  8
0
 62
     0
 10
738.72037962110005
 20
-138.02661475260001
 30
0.0
 11
788.58036497259991
 21
-138.02661475260001
 31
0.0
  0
LINE
  5
41B
  8
0
 62
     0
 10
787.58036497259991
 20
-367.02661475259998
 30
0.0
 11
787.58036497259991
 21
-237.97453173709999
 31
0.0
  0
LINE
  5
41C
  8
0
 62
     0
 10
787.58036497259991
 20
-367.02661475259998
 30
0.0
 11
787.58036497259991
 21
-267.07869776799998
 31
0.0
  0
LINE
  5
41D
  8
0
 62
     0
 10
787.58036497259991
 20
-138.02661475260001
 30
0.0
 11
787.58036497259991
 21
-237.97453173709999
 31
0.0
  0
LINE
  5
41E
  8
0
 62
     0
 10
787.58036497259991
 20
-138.02661475260001
 30
0.0
 11
787.58036497259991
 21
-267.07869776799998
 31
0.0
  0
LINE
  5
41F
  8
0
 62
     0
 10
787.58036497259991
 20
-138.02661475260001
 30
0.0
 11
787.58036497259991
 21
-143.02661475260001
 31
0.0
  0
SOLID
  5
420
  8
0
 62
     0
 10
787.58036497259991
 20
-138.02661475260001
 30
0.0
 11
789.83036497259991
 21
-147.02661475260001
 31
0.0
 12
785.33036497259991
 22
-147.02661475260001
 32
0.0
 13
787.58036497259991
 23
-144.77661475260001
 33
0.0
  0
LINE
  5
421
  8
0
 62
     0
 10
787.58036497259991
 20
-367.02661475259998
 30
0.0
 11
787.58036497259991
 21
-362.02661475259998
 31
0.0
  0
SOLID
  5
422
  8
0
 62
     0
 10
787.58036497259991
 20
-367.02661475259998
 30
0.0
 11
785.33036497259991
 21
-358.02661475259998
 31
0.0
 12
789.83036497259991
 22
-358.02661475259998
 32
0.0
 13
787.58036497259991
 23
-360.2766147526001
 33
0.0
  0
ENDBLK
  5
423
  8
0
  0
BLOCK
  8
0
  2
*D39
 70
     1
 10
0.0
 20
0.0
 30
0.0
  3
*D39
  1

  0
TEXT
  5
427
  8
0
 62
     0
 10
763.97412965919989
 20
-258.3474479587
 30
0.0
 40
9.8954164504999991
  1
15
 50
90.0
  0
LINE
  5
428
  8
0
 62
     0
 10
666.22037962110005
 20
-260.02661475259998
 30
0.0
 11
767.72037962110005
 21
-260.02661475259998
 31
0.0
  0
LINE
  5
429
  8
0
 62
     0
 10
666.22037962110005
 20
-245.02661475260001
 30
0.0
 11
767.72037962110005
 21
-245.02661475260001
 31
0.0
  0
LINE
  5
42A
  8
0
 62
     0
 10
766.72037962110005
 20
-260.02661475259998
 30
0.0
 11
766.72037962110005
 21
-260.02661475259998
 31
0.0
  0
LINE
  5
42B
  8
0
 62
     0
 10
766.72037962110005
 20
-260.02661475259998
 30
0.0
 11
766.72037962110005
 21
-245.02661475260001
 31
0.0
  0
LINE
  5
42C
  8
0
 62
     0
 10
766.72037962110005
 20
-245.02661475260001
 30
0.0
 11
766.72037962110005
 21
-260.02661475259998
 31
0.0
  0
LINE
  5
42D
  8
0
 62
     0
 10
766.72037962110005
 20
-245.02661475260001
 30
0.0
 11
766.72037962110005
 21
-245.02661475260001
 31
0.0
  0
LINE
  5
42E
  8
0
 62
     0
 10
766.72037962110005
 20
-245.02661475260001
 30
0.0
 11
766.72037962110005
 21
-240.02661475260001
 31
0.0
  0
SOLID
  5
42F
  8
0
 62
     0
 10
766.72037962110005
 20
-245.02661475260001
 30
0.0
 11
764.47037962110005
 21
-236.02661475260001
 31
0.0
 12
768.97037962110005
 22
-236.02661475260001
 32
0.0
 13
766.72037962110005
 23
-238.27661475260001
 33
0.0
  0
LINE
  5
430
  8
0
 62
     0
 10
766.72037962110005
 20
-260.02661475259998
 30
0.0
 11
766.72037962110005
 21
-265.02661475259998
 31
0.0
  0
SOLID
  5
431
  8
0
 62
     0
 10
766.72037962110005
 20
-260.02661475259998
 30
0.0
 11
768.97037962110005
 21
-269.02661475259998
 31
0.0
 12
764.47037962110005
 22
-269.02661475259998
 32
0.0
 13
766.72037962110005
 23
-266.77661475259998
 33
0.0
  0
ENDBLK
  5
432
  8
0
  0
BLOCK
  8
0
  2
*D40
 70
     1
 10
0.0
 20
0.0
 30
0.0
  3
*D40
  1

  0
TEXT
  5
472
  8
0
 62
     0
 10
531.39954641489999
 20
-273.8570440204
 30
0.0
 40
9.8954164504999991
  1
22
  0
LINE
  5
473
  8
0
 62
     0
 10
548.22037962110005
 20
-286.52661475259998
 30
0.0
 11
548.22037962110005
 21
-275.60329398229999
 31
0.0
  0
LINE
  5
474
  8
0
 62
     0
 10
526.22037962110005
 20
-286.52661475259998
 30
0.0
 11
526.22037962110005
 21
-275.60329398229999
 31
0.0
  0
LINE
  5
475
  8
0
 62
     0
 10
548.22037962110005
 20
-276.60329398229999
 30
0.0
 11
548.22037962110005
 21
-276.60329398229999
 31
0.0
  0
LINE
  5
476
  8
0
 62
     0
 10
548.22037962110005
 20
-276.60329398229999
 30
0.0
 11
526.22037962110005
 21
-276.60329398229999
 31
0.0
  0
LINE
  5
477
  8
0
 62
     0
 10
526.22037962110005
 20
-276.60329398229999
 30
0.0
 11
548.22037962110005
 21
-276.60329398229999
 31
0.0
  0
LINE
  5
478
  8
0
 62
     0
 10
526.22037962110005
 20
-276.60329398229999
 30
0.0
 11
526.22037962110005
 21
-276.60329398229999
 31
0.0
  0
LINE
  5
479
  8
0
 62
     0
 10
526.22037962110005
 20
-276.60329398229999
 30
0.0
 11
531.22037962110005
 21
-276.60329398229999
 31
0.0
  0
SOLID
  5
47A
  8
0
 62
     0
 10
526.22037962110005
 20
-276.60329398229999
 30
0.0
 11
535.22037962110005
 21
-274.35329398229999
 31
0.0
 12
535.22037962110005
 22
-278.85329398229999
 32
0.0
 13
532.97037962110005
 23
-276.60329398229999
 33
0.0
  0
LINE
  5
47B
  8
0
 62
     0
 10
548.22037962110005
 20
-276.60329398229999
 30
0.0
 11
543.22037962110005
 21
-276.60329398229999
 31
0.0
  0
SOLID
  5
47C
  8
0
 62
     0
 10
548.22037962110005
 20
-276.60329398229999
 30
0.0
 11
539.22037962110005
 21
-278.85329398229999
 31
0.0
 12
539.22037962110005
 22
-274.35329398229999
 32
0.0
 13
541.47037962110005
 23
-276.60329398229999
 33
0.0
  0
ENDBLK
  5
47D
  8
0
  0
BLOCK
  8
0
  2
*D41
 70
     1
 10
0.0
 20
0.0
 30
0.0
  3
*D41
  1

  0
TEXT
  5
481
  8
0
 62
     0
 10
513.5264562271999
 20
-392.28036479069999
 30
0.0
 40
9.8954164504999991
  1
27.5
  0
LINE
  5
482
  8
0
 62
     0
 10
509.72037962109988
 20
-367.02661475259998
 30
0.0
 11
509.72037962109988
 21
-396.0266147526001
 31
0.0
  0
LINE
  5
483
  8
0
 62
     0
 10
537.22037962110005
 20
-352.52661475259998
 30
0.0
 11
537.22037962110005
 21
-396.0266147526001
 31
0.0
  0
LINE
  5
484
  8
0
 62
     0
 10
509.72037962109988
 20
-395.02661475259998
 30
0.0
 11
509.72037962109988
 21
-395.02661475259998
 31
0.0
  0
LINE
  5
485
  8
0
 62
     0
 10
509.72037962109988
 20
-395.02661475259998
 30
0.0
 11
537.22037962110005
 21
-395.02661475259998
 31
0.0
  0
LINE
  5
486
  8
0
 62
     0
 10
537.22037962110005
 20
-395.02661475259998
 30
0.0
 11
509.72037962109988
 21
-395.02661475259998
 31
0.0
  0
LINE
  5
487
  8
0
 62
     0
 10
537.22037962110005
 20
-395.02661475259998
 30
0.0
 11
537.22037962110005
 21
-395.02661475259998
 31
0.0
  0
LINE
  5
488
  8
0
 62
     0
 10
537.22037962110005
 20
-395.02661475259998
 30
0.0
 11
532.22037962110005
 21
-395.02661475259998
 31
0.0
  0
SOLID
  5
489
  8
0
 62
     0
 10
537.22037962110005
 20
-395.02661475259998
 30
0.0
 11
528.22037962110005
 21
-397.27661475259998
 31
0.0
 12
528.22037962110005
 22
-392.77661475259998
 32
0.0
 13
530.47037962110005
 23
-395.02661475259998
 33
0.0
  0
LINE
  5
48A
  8
0
 62
     0
 10
509.72037962109988
 20
-395.02661475259998
 30
0.0
 11
514.72037962110005
 21
-395.02661475259998
 31
0.0
  0
SOLID
  5
48B
  8
0
 62
     0
 10
509.72037962109988
 20
-395.02661475259998
 30
0.0
 11
518.72037962110005
 21
-392.77661475259998
 31
0.0
 12
518.72037962110005
 22
-397.27661475259998
 32
0.0
 13
516.47037962110005
 23
-395.02661475259998
 33
0.0
  0
ENDBLK
  5
48C
  8
0
  0
BLOCK
  8
0
  2
*D42
 70
     1
 10
0.0
 20
0.0
 30
0.0
  3
*D42
  1

  0
TEXT
  5
490
  8
0
 62
     0
 10
565.9741296592
 20
-291.43703135560003
 30
0.0
 40
9.8954164504999991
  1
7
 50
90.0
  0
LINE
  5
491
  8
0
 62
     0
 10
546.72037962110005
 20
-292.02661475259998
 30
0.0
 11
569.72037962110005
 21
-292.02661475259998
 31
0.0
  0
LINE
  5
492
  8
0
 62
     0
 10
546.72037962110005
 20
-285.02661475259998
 30
0.0
 11
569.72037962110005
 21
-285.02661475259998
 31
0.0
  0
LINE
  5
493
  8
0
 62
     0
 10
568.72037962110005
 20
-292.02661475259998
 30
0.0
 11
568.72037962110005
 21
-292.02661475259998
 31
0.0
  0
LINE
  5
494
  8
0
 62
     0
 10
568.72037962110005
 20
-292.02661475259998
 30
0.0
 11
568.72037962110005
 21
-285.02661475259998
 31
0.0
  0
LINE
  5
495
  8
0
 62
     0
 10
568.72037962110005
 20
-285.02661475259998
 30
0.0
 11
568.72037962110005
 21
-292.02661475259998
 31
0.0
  0
LINE
  5
496
  8
0
 62
     0
 10
568.72037962110005
 20
-285.02661475259998
 30
0.0
 11
568.72037962110005
 21
-285.02661475259998
 31
0.0
  0
LINE
  5
497
  8
0
 62
     0
 10
568.72037962110005
 20
-285.02661475259998
 30
0.0
 11
568.72037962110005
 21
-280.02661475259998
 31
0.0
  0
SOLID
  5
498
  8
0
 62
     0
 10
568.72037962110005
 20
-285.02661475259998
 30
0.0
 11
566.47037962110005
 21
-276.02661475259998
 31
0.0
 12
570.97037962110005
 22
-276.02661475259998
 32
0.0
 13
568.72037962110005
 23
-278.27661475259998
 33
0.0
  0
LINE
  5
499
  8
0
 62
     0
 10
568.72037962110005
 20
-292.02661475259998
 30
0.0
 11
568.72037962110005
 21
-297.02661475259998
 31
0.0
  0
SOLID
  5
49A
  8
0
 62
     0
 10
568.72037962110005
 20
-292.02661475259998
 30
0.0
 11
570.97037962110005
 21
-301.02661475259998
 31
0.0
 12
566.47037962110005
 22
-301.02661475259998
 32
0.0
 13
568.72037962110005
 23
-298.77661475259998
 33
0.0
  0
ENDBLK
  5
49B
  8
0
  0
BLOCK
  8
0
  2
*D43
 70
     1
 10
0.0
 20
0.0
 30
0.0
  3
*D43
  1

  0
TEXT
  5
49F
  8
0
 62
     0
 10
560.39954641489999
 20
-392.28036479069999
 30
0.0
 40
9.8954164504999991
  1
58
  0
LINE
  5
4A0
  8
0
 62
     0
 10
537.22037962110005
 20
-352.52661475259998
 30
0.0
 11
537.22037962110005
 21
-396.0266147526001
 31
0.0
  0
LINE
  5
4A1
  8
0
 62
     0
 10
595.22037962110005
 20
-352.52661475259998
 30
0.0
 11
595.22037962110005
 21
-396.0266147526001
 31
0.0
  0
LINE
  5
4A2
  8
0
 62
     0
 10
537.22037962110005
 20
-395.02661475259998
 30
0.0
 11
577.86204603340002
 21
-395.02661475259998
 31
0.0
  0
LINE
  5
4A3
  8
0
 62
     0
 10
537.22037962110005
 20
-395.02661475259998
 30
0.0
 11
554.57871320870004
 21
-395.02661475259998
 31
0.0
  0
LINE
  5
4A4
  8
0
 62
     0
 10
595.22037962110005
 20
-395.02661475259998
 30
0.0
 11
577.86204603340002
 21
-395.02661475259998
 31
0.0
  0
LINE
  5
4A5
  8
0
 62
     0
 10
595.22037962110005
 20
-395.02661475259998
 30
0.0
 11
554.57871320870004
 21
-395.02661475259998
 31
0.0
  0
LINE
  5
4A6
  8
0
 62
     0
 10
595.22037962110005
 20
-395.02661475259998
 30
0.0
 11
590.22037962110005
 21
-395.02661475259998
 31
0.0
  0
SOLID
  5
4A7
  8
0
 62
     0
 10
595.22037962110005
 20
-395.02661475259998
 30
0.0
 11
586.22037962110005
 21
-397.27661475259998
 31
0.0
 12
586.22037962110005
 22
-392.77661475259998
 32
0.0
 13
588.47037962110005
 23
-395.02661475259998
 33
0.0
  0
LINE
  5
4A8
  8
0
 62
     0
 10
537.22037962110005
 20
-395.02661475259998
 30
0.0
 11
542.22037962110005
 21
-395.02661475259998
 31
0.0
  0
SOLID
  5
4A9
  8
0
 62
     0
 10
537.22037962110005
 20
-395.02661475259998
 30
0.0
 11
546.22037962110005
 21
-392.77661475259998
 31
0.0
 12
546.22037962110005
 22
-397.27661475259998
 32
0.0
 13
543.97037962110005
 23
-395.02661475259998
 33
0.0
  0
ENDBLK
  5
4AA
  8
0
  0
BLOCK
  8
0
  2
BALLON1
 70
     0
 10
0.0
 20
0.0
 30
0.0
  3
BALLON1
  1

  0
INSERT
  5
4C1
  8
0
  6
CONTINUOUS
  2
*U83
 10
0.0
 20
0.0
 30
0.0
  0
CIRCLE
  5
4C2
  8
ﾚｲﾔ_1
 10
631.89409418190007
 20
2.6406155934000002
 30
0.0
 40
10.0
  0
LINE
  5
4C3
  8
寸法線
 10
648.56076084860001
 20
2.6406155934000002
 30
0.0
 11
641.89409418189996
 21
2.6406155934000002
 31
0.0
  0
LINE
  5
4C4
  8
寸法線
 10
668.10519488759996
 20
-26.011328124999999
 30
0.0
 11
648.56076084860001
 21
2.6406155934000002
 31
0.0
  0
SOLID
  5
4C5
  8
寸法線
 10
668.10519488759996
 20
-26.011328124999999
 30
0.0
 11
660.81783921689998
 21
-18.8772936893
 31
0.0
 12
663.5970804387
 22
-19.402477686699999
 32
0.0
 13
663.5970804387
 23
-19.402477686699999
 33
0.0
  0
SOLID
  5
4C6
  8
寸法線
 10
663.5970804387
 20
-19.402477686699999
 30
0.0
 11
664.12226443609995
 21
-16.6232364649
 31
0.0
 12
668.10519488759996
 22
-26.011328124999999
 32
0.0
 13
668.10519488759996
 23
-26.011328124999999
 33
0.0
  0
ENDBLK
  5
4C7
  8
0
  0
BLOCK
  8
0
  2
*D45
 70
     1
 10
0.0
 20
0.0
 30
0.0
  3
*D45
  1

  0
TEXT
  5
4CA
  8
0
 62
     0
 10
734.53361347199996
 20
328.62516460419999
 30
0.0
 40
9.8954164504999991
  1
248
  0
LINE
  5
4CB
  8
0
 62
     0
 10
867.26486328129999
 20
283.22089843750001
 30
0.0
 11
867.26486328129999
 21
326.8789146423
 31
0.0
  0
LINE
  5
4CC
  8
0
 62
     0
 10
619.26486328129999
 20
283.22089843750001
 30
0.0
 11
619.26486328129999
 21
326.8789146423
 31
0.0
  0
LINE
  5
4CD
  8
0
 62
     0
 10
867.26486328129999
 20
325.8789146423
 30
0.0
 11
757.81694629669994
 21
325.8789146423
 31
0.0
  0
LINE
  5
4CE
  8
0
 62
     0
 10
867.26486328129999
 20
325.8789146423
 30
0.0
 11
728.71278026580001
 21
325.8789146423
 31
0.0
  0
LINE
  5
4CF
  8
0
 62
     0
 10
619.26486328129999
 20
325.8789146423
 30
0.0
 11
757.81694629669994
 21
325.8789146423
 31
0.0
  0
LINE
  5
4D0
  8
0
 62
     0
 10
619.26486328129999
 20
325.8789146423
 30
0.0
 11
728.71278026580001
 21
325.8789146423
 31
0.0
  0
LINE
  5
4D1
  8
0
 62
     0
 10
619.26486328129999
 20
325.8789146423
 30
0.0
 11
624.26486328129999
 21
325.8789146423
 31
0.0
  0
SOLID
  5
4D2
  8
0
 62
     0
 10
619.26486328129999
 20
325.8789146423
 30
0.0
 11
628.26486328129999
 21
328.1289146423
 31
0.0
 12
628.26486328129999
 22
323.6289146423
 32
0.0
 13
626.01486328129999
 23
325.8789146423
 33
0.0
  0
LINE
  5
4D3
  8
0
 62
     0
 10
867.26486328129999
 20
325.8789146423
 30
0.0
 11
862.26486328129999
 21
325.8789146423
 31
0.0
  0
SOLID
  5
4D4
  8
0
 62
     0
 10
867.26486328129999
 20
325.8789146423
 30
0.0
 11
858.26486328129999
 21
323.6289146423
 31
0.0
 12
858.26486328129999
 22
328.1289146423
 32
0.0
 13
860.51486328129999
 23
325.8789146423
 33
0.0
  0
ENDBLK
  5
4D5
  8
0
  0
BLOCK
  8
0
  2
*D46
 70
     1
 10
0.0
 20
0.0
 30
0.0
  3
*D46
  1

  0
TEXT
  5
4E1
  8
0
 62
     0
 10
620.85444667820002
 20
311.6712499619
 30
0.0
 40
9.8954164504999991
  1
9
  0
LINE
  5
4E2
  8
0
 62
     0
 10
628.26486328129999
 20
274.22089843750001
 30
0.0
 11
628.26486328129999
 21
309.92500000000001
 31
0.0
  0
LINE
  5
4E3
  8
0
 62
     0
 10
619.26486328129999
 20
283.22089843750001
 30
0.0
 11
619.26486328129999
 21
309.92500000000001
 31
0.0
  0
LINE
  5
4E4
  8
0
 62
     0
 10
628.26486328129999
 20
308.92500000000001
 30
0.0
 11
628.26486328129999
 21
308.92500000000001
 31
0.0
  0
LINE
  5
4E5
  8
0
 62
     0
 10
628.26486328129999
 20
308.92500000000001
 30
0.0
 11
619.26486328129999
 21
308.92500000000001
 31
0.0
  0
LINE
  5
4E6
  8
0
 62
     0
 10
619.26486328129999
 20
308.92500000000001
 30
0.0
 11
628.26486328129999
 21
308.92500000000001
 31
0.0
  0
LINE
  5
4E7
  8
0
 62
     0
 10
619.26486328129999
 20
308.92500000000001
 30
0.0
 11
619.26486328129999
 21
308.92500000000001
 31
0.0
  0
LINE
  5
4E8
  8
0
 62
     0
 10
619.26486328129999
 20
308.92500000000001
 30
0.0
 11
614.26486328129988
 21
308.92500000000001
 31
0.0
  0
SOLID
  5
4E9
  8
0
 62
     0
 10
619.26486328129999
 20
308.92500000000001
 30
0.0
 11
610.26486328129999
 21
306.67500000000001
 31
0.0
 12
610.26486328129999
 22
311.17500000000001
 32
0.0
 13
612.51486328129999
 23
308.92500000000001
 33
0.0
  0
LINE
  5
4EA
  8
0
 62
     0
 10
628.26486328129999
 20
308.92500000000001
 30
0.0
 11
633.26486328129999
 21
308.92500000000001
 31
0.0
  0
SOLID
  5
4EB
  8
0
 62
     0
 10
628.26486328129999
 20
308.92500000000001
 30
0.0
 11
637.26486328129999
 21
311.17500000000001
 31
0.0
 12
637.26486328129999
 22
306.67500000000001
 32
0.0
 13
635.01486328129999
 23
308.92500000000001
 33
0.0
  0
ENDBLK
  5
4EC
  8
0
  0
BLOCK
  8
0
  2
CLUMP4
 70
     0
 10
0.0
 20
0.0
 30
0.0
  3
CLUMP4
  1

  0
LINE
  5
4F2
  8
図枠
 10
1280.0204024185
 20
-324.49131278580001
 30
0.0
 11
1280.0204024185
 21
-309.49131278580001
 31
0.0
  0
LINE
  5
4F3
  8
図枠
 10
1103.0204024185
 20
-324.49131278580001
 30
0.0
 11
1103.0204024185
 21
-309.49131278580001
 31
0.0
  0
LINE
  5
4F4
  8
図枠
 10
1130.0204024185
 20
-324.49131278580001
 30
0.0
 11
1130.0204024185
 21
-309.49131278580001
 31
0.0
  0
LINE
  5
4F5
  8
図枠
 10
1445.0204024185
 20
-324.49131278580001
 30
0.0
 11
1445.0204024185
 21
-309.49131278580001
 31
0.0
  0
LINE
  5
4F6
  8
図枠
 10
1418.0204024185
 20
-324.49131278580001
 30
0.0
 11
1418.0204024185
 21
-309.49131278580001
 31
0.0
  0
LINE
  5
4F7
  8
図枠
 10
1538.0204024185
 20
-309.49131278580001
 30
0.0
 11
1103.0204024185
 21
-309.49131278580001
 31
0.0
  0
ENDBLK
  5
4F8
  8
0
  0
BLOCK
  8
0
  2
CLUMP5
 70
     0
 10
0.0
 20
0.0
 30
0.0
  3
CLUMP5
  1

  0
LINE
  5
4FC
  8
図枠
 10
1280.0204024185
 20
-339.49131278580001
 30
0.0
 11
1280.0204024185
 21
-324.49131278580001
 31
0.0
  0
LINE
  5
4FD
  8
図枠
 10
1103.0204024185
 20
-339.49131278580001
 30
0.0
 11
1103.0204024185
 21
-324.49131278580001
 31
0.0
  0
LINE
  5
4FE
  8
図枠
 10
1130.0204024185
 20
-339.49131278580001
 30
0.0
 11
1130.0204024185
 21
-324.49131278580001
 31
0.0
  0
LINE
  5
4FF
  8
図枠
 10
1445.0204024185
 20
-339.49131278580001
 30
0.0
 11
1445.0204024185
 21
-324.49131278580001
 31
0.0
  0
LINE
  5
500
  8
図枠
 10
1418.0204024185
 20
-339.49131278580001
 30
0.0
 11
1418.0204024185
 21
-324.49131278580001
 31
0.0
  0
LINE
  5
501
  8
図枠
 10
1538.0204024185
 20
-324.49131278580001
 30
0.0
 11
1103.0204024185
 21
-324.49131278580001
 31
0.0
  0
ENDBLK
  5
502
  8
0
  0
BLOCK
  8
0
  2
CLUMP6
 70
     0
 10
0.0
 20
0.0
 30
0.0
  3
CLUMP6
  1

  0
LINE
  5
506
  8
図枠
 10
1280.0204024185
 20
-309.49131278580001
 30
0.0
 11
1280.0204024185
 21
-294.49131278580001
 31
0.0
  0
LINE
  5
507
  8
図枠
 10
1103.0204024185
 20
-309.49131278580001
 30
0.0
 11
1103.0204024185
 21
-294.49131278580001
 31
0.0
  0
LINE
  5
508
  8
図枠
 10
1130.0204024185
 20
-309.49131278580001
 30
0.0
 11
1130.0204024185
 21
-294.49131278580001
 31
0.0
  0
LINE
  5
509
  8
図枠
 10
1445.0204024185
 20
-309.49131278580001
 30
0.0
 11
1445.0204024185
 21
-294.49131278580001
 31
0.0
  0
LINE
  5
50A
  8
図枠
 10
1418.0204024185
 20
-309.49131278580001
 30
0.0
 11
1418.0204024185
 21
-294.49131278580001
 31
0.0
  0
LINE
  5
50B
  8
図枠
 10
1538.0204024185
 20
-294.49131278580001
 30
0.0
 11
1103.0204024185
 21
-294.49131278580001
 31
0.0
  0
ENDBLK
  5
50C
  8
0
  0
BLOCK
  8
0
  2
*D50
 70
     1
 10
0.0
 20
0.0
 30
0.0
  3
*D50
  1

  0
TEXT
  5
515
  8
0
 62
     0
 10
469.52380453889992
 20
-299.93483215499998
 30
0.0
 40
9.8954164504999991
  1
2-%%c15
 50
37.562827860399999
  0
LINE
  5
516
  8
0
 62
     0
 10
531.51742784980001
 20
-257.39758396769997
 30
0.0
 11
472.0077968654
 21
-303.16469449520002
 31
0.0
  0
SOLID
  5
517
  8
0
 62
     0
 10
531.51742784980001
 20
-257.39758396769997
 30
0.0
 11
525.75492971940002
 21
-264.66780509889998
 31
0.0
 12
523.01159014359996
 22
-261.1007211397
 32
0.0
 13
526.16680191110004
 23
-261.51259333140001
 33
0.0
  0
ENDBLK
  5
518
  8
0
  0
BLOCK
  8
0
  2
CLUMP7
 70
     0
 10
0.0
 20
0.0
 30
0.0
  3
CLUMP7
  1

  0
LINE
  5
51F
  8
図枠
 10
1277.9841600652001
 20
-445.7612938851999
 30
0.0
 11
1280.9841600652001
 21
-441.2612938851999
 31
0.0
  0
LINE
  5
520
  8
図枠
 10
1234.0023418833
 20
-441.2612938851999
 30
0.0
 11
1234.0023418833
 21
-447.2612938851999
 31
0.0
  0
LINE
  5
521
  8
図枠
 10
1305.1834308156001
 20
-451.7612938851999
 30
0.0
 11
1314.6366080099999
 21
-451.7612938851999
 31
0.0
  0
LINE
  5
522
  8
図枠
 10
1253.9841600652001
 20
-462.2612938851999
 30
0.0
 11
1261.4841600652001
 21
-462.2612938851999
 31
0.0
  0
LINE
  5
523
  8
図枠
 10
1253.9841600652001
 20
-448.22762468759998
 30
0.0
 11
1265.9841600652001
 21
-448.22762468759998
 31
0.0
  0
INSERT
  5
524
  8
0
  6
CONTINUOUS
  2
*U89
 10
0.0
 20
0.0
 30
0.0
  0
LINE
  5
525
  8
図枠
 62
     5
 10
1328.0204024185
 20
326.50868721419999
 30
0.0
 11
1328.0204024185
 21
371.50868721419999
 31
0.0
  0
LINE
  5
526
  8
図枠
 62
     5
 10
1478.0204024185
 20
326.50868721419999
 30
0.0
 11
1478.0204024185
 21
371.50868721419999
 31
0.0
  0
LINE
  5
527
  8
図枠
 62
     5
 10
1280.0204024185
 20
326.50868721419999
 30
0.0
 11
1280.0204024185
 21
371.50868721419999
 31
0.0
  0
LINE
  5
528
  8
図枠
 62
     5
 10
1259.7425462604001
 20
342.80106246719998
 30
0.0
 11
1274.5925462604
 21
342.80106246719998
 31
0.0
  0
LINE
  5
529
  8
図枠
 62
     5
 10
1267.1675462604001
 20
340.81153971340001
 30
0.0
 11
1274.5925462604
 21
327.95106246720002
 31
0.0
  0
LINE
  5
52A
  8
図枠
 62
     5
 10
1256.0204024185
 20
326.50868721419999
 30
0.0
 11
1256.0204024185
 21
371.50868721419999
 31
0.0
  0
LINE
  5
52B
  8
図枠
 62
     5
 10
1508.0204024185
 20
326.50868721419999
 30
0.0
 11
1508.0204024185
 21
371.50868721419999
 31
0.0
  0
LINE
  5
52C
  8
図枠
 62
     5
 10
1256.0204024185
 20
356.50868721419999
 30
0.0
 11
1538.0204024185
 21
356.50868721419999
 31
0.0
  0
LINE
  5
52D
  8
図枠
 62
     5
 10
1256.0204024185
 20
341.50868721419999
 30
0.0
 11
1538.0204024185
 21
341.50868721419999
 31
0.0
  0
LINE
  5
52E
  8
図枠
 62
     5
 10
1256.0204024185
 20
326.50868721419999
 30
0.0
 11
1538.0204024185
 21
326.50868721419999
 31
0.0
  0
INSERT
  5
52F
  8
0
  6
CONTINUOUS
  2
*U90
 10
0.0
 20
0.0
 30
0.0
  0
LINE
  5
530
  8
図枠
 62
     5
 10
338.0204024185
 20
-468.49131278580001
 30
0.0
 11
338.0204024185
 21
371.50868721419999
 31
0.0
  0
LINE
  5
531
  8
図枠
 62
     5
 10
338.0204024185
 20
-468.49131278580001
 30
0.0
 11
1538.0204024185
 21
-468.49131278580001
 31
0.0
  0
LINE
  5
532
  8
図枠
 62
     5
 10
1538.0204024185
 20
371.50868721419999
 30
0.0
 11
338.0204024185
 21
371.50868721419999
 31
0.0
  0
LINE
  5
533
  8
図枠
 62
     5
 10
1538.0204024185
 20
-468.49131278580001
 30
0.0
 11
1538.0204024185
 21
371.50868721419999
 31
0.0
  0
LINE
  5
534
  8
図枠
 10
1253.9841600652001
 20
-449.1939554901
 30
0.0
 11
1253.9841600652001
 21
-448.22762468759998
 31
0.0
  0
LINE
  5
535
  8
図枠
 10
1217.0490304487
 20
-447.2612938851999
 30
0.0
 11
1217.0490304487
 21
-451.7612938851999
 31
0.0
  0
LINE
  5
536
  8
図枠
 62
     5
 10
1267.1675462604001
 20
355.66153971339997
 30
0.0
 11
1274.5925462604
 21
342.80106246719998
 31
0.0
  0
LINE
  5
537
  8
図枠
 62
     5
 10
1267.1675462604001
 20
340.81153971340001
 30
0.0
 11
1259.7425462604001
 21
327.95106246720002
 31
0.0
  0
INSERT
  5
538
  8
0
  6
CONTINUOUS
  2
*U91
 10
0.0
 20
0.0
 30
0.0
  0
LINE
  5
539
  8
図枠
  6
DOT
 10
323.0804024185
 20
-481.1813127858
 30
0.0
 11
323.0804024185
 21
384.19868721419999
 31
0.0
  0
LINE
  5
53A
  8
図枠
  6
DOT
 10
1552.9604024185001
 20
-481.1813127858
 30
0.0
 11
1552.9604024185001
 21
384.19868721419999
 31
0.0
  0
LINE
  5
53B
  8
図枠
  6
DOT
 10
323.0804024185
 20
-481.1813127858
 30
0.0
 11
1552.9604024185001
 21
-481.1813127858
 31
0.0
  0
LINE
  5
53C
  8
図枠
 10
1228.0023418833
 20
-456.2612938851999
 30
0.0
 11
1228.0023418833
 21
-451.7612938851999
 31
0.0
  0
LINE
  5
53D
  8
図枠
  6
DOT
 10
1552.9604024185001
 20
384.19868721419999
 30
0.0
 11
323.0804024185
 21
384.19868721419999
 31
0.0
  0
LINE
  5
53E
  8
図枠
 10
1220.5023418833
 20
-451.7612938851999
 30
0.0
 11
1220.5023418833
 21
-456.2612938851999
 31
0.0
  0
LINE
  5
53F
  8
図枠
 10
1241.5023418833
 20
-445.7612938851999
 30
0.0
 11
1246.0023418833
 21
-441.2612938851999
 31
0.0
  0
LINE
  5
540
  8
図枠
 10
1297.42060801
 20
-454.16129388519988
 30
0.0
 11
1296.7166080100001
 21
-451.7612938851999
 31
0.0
  0
LINE
  5
541
  8
図枠
 10
1228.0023418833
 20
-447.2612938851999
 30
0.0
 11
1228.0023418833
 21
-445.7612938851999
 31
0.0
  0
LINE
  5
542
  8
図枠
 10
1274.5723181214
 20
-455.80868751209988
 30
0.0
 11
1274.0380119419999
 21
-456.33182194469998
 31
0.0
  0
LINE
  5
543
  8
図枠
 10
1277.9841600652001
 20
-445.7612938851999
 30
0.0
 11
1280.9841600652001
 21
-441.2612938851999
 31
0.0
  0
LINE
  5
544
  8
図枠
 10
1314.6366080099999
 20
-454.16129388519988
 30
0.0
 11
1314.6366080099999
 21
-459.56129388519992
 31
0.0
  0
LINE
  5
545
  8
図枠
 10
1280.9841600652001
 20
-457.7612938851999
 30
0.0
 11
1280.9841600652001
 21
-462.2612938851999
 31
0.0
  0
LINE
  5
546
  8
図枠
 10
1303.6295010781
 20
-446.36129388519998
 30
0.0
 11
1314.6366080099999
 21
-446.36129388519998
 31
0.0
  0
LINE
  5
547
  8
図枠
 10
1303.6295010781
 20
-446.36129388519998
 30
0.0
 11
1303.1903183275001
 21
-444.83510721379997
 31
0.0
  0
LINE
  5
548
  8
図枠
 10
1280.9841600652001
 20
-441.2612938851999
 30
0.0
 11
1253.9841600652001
 21
-441.2612938851999
 31
0.0
  0
INSERT
  5
549
  8
0
  6
CONTINUOUS
  2
*U92
 10
0.0
 20
0.0
 30
0.0
  0
LINE
  5
54A
  8
図枠
 10
1300.2366080100001
 20
-463.7612938851999
 30
0.0
 11
1299.0046080100001
 21
-459.56129388519992
 31
0.0
  0
LINE
  5
54B
  8
図枠
 10
1229.5023418833
 20
-457.7612938851999
 30
0.0
 11
1220.5023418833
 21
-457.7612938851999
 31
0.0
  0
LINE
  5
54C
  8
図枠
 10
1253.9841600652001
 20
-446.66129388519988
 30
0.0
 11
1268.9841600652001
 21
-446.66129388519988
 31
0.0
  0
LINE
  5
54D
  8
図枠
 10
1294.6781549535999
 20
-382.39131278579998
 30
0.0
 11
1309.0781549536
 21
-378.79131278580002
 31
0.0
  0
CIRCLE
  5
54E
  8
図枠
 10
1278.2204024185
 20
-385.99131278580001
 30
0.0
 40
7.2000000000000002
  0
INSERT
  5
54F
  8
0
  6
CONTINUOUS
  2
*U93
 10
0.0
 20
0.0
 30
0.0
  0
LINE
  5
550
  8
図枠
 10
1228.0023418833
 20
-451.7612938851999
 30
0.0
 11
1234.0023418833
 21
-451.7612938851999
 31
0.0
  0
LINE
  5
551
  8
図枠
 10
1287.6366080099999
 20
-451.7612938851999
 30
0.0
 11
1296.7166080100001
 21
-451.7612938851999
 31
0.0
  0
LINE
  5
552
  8
図枠
 10
1246.0023418833
 20
-447.2612938851999
 30
0.0
 11
1241.5023418833
 21
-447.2612938851999
 31
0.0
  0
LINE
  5
553
  8
図枠
 10
1241.5023418833
 20
-447.2612938851999
 30
0.0
 11
1241.5023418833
 21
-445.7612938851999
 31
0.0
  0
LINE
  5
554
  8
図枠
 10
1287.6366080099999
 20
-446.36129388519998
 30
0.0
 11
1295.13260801
 21
-446.36129388519998
 31
0.0
  0
LINE
  5
555
  8
図枠
 10
1303.1903183275001
 20
-444.83510721379997
 30
0.0
 11
1305.6366080099999
 21
-441.2612938851999
 31
0.0
  0
LINE
  5
556
  8
図枠
 10
1253.9841600652001
 20
-462.2612938851999
 30
0.0
 11
1253.9841600652001
 21
-457.7612938851999
 31
0.0
  0
LINE
  5
557
  8
図枠
 10
1328.0204024185
 20
-369.49131278580001
 30
0.0
 11
1328.0204024185
 21
-468.49131278580001
 31
0.0
  0
INSERT
  5
558
  8
0
  6
CONTINUOUS
  2
*U94
 10
0.0
 20
0.0
 30
0.0
  0
INSERT
  5
559
  8
0
  6
CONTINUOUS
  2
*U95
 10
0.0
 20
0.0
 30
0.0
  0
INSERT
  5
55A
  8
0
  6
CONTINUOUS
  2
*U96
 10
0.0
 20
0.0
 30
0.0
  0
LINE
  5
55B
  8
図枠
 62
     5
 10
1259.7425462604001
 20
327.95106246720002
 30
0.0
 11
1274.5925462604
 21
327.95106246720002
 31
0.0
  0
LINE
  5
55C
  8
図枠
 10
1217.0490304487
 20
-451.7612938851999
 30
0.0
 11
1220.0490304487
 21
-451.7612938851999
 31
0.0
  0
ARC
  5
55D
  8
図枠
 10
1261.4841600652001
 20
-445.7612938851999
 30
0.0
 40
16.5
 50
322.48761197969998
 51
0.0
  0
LINE
  5
55E
  8
図枠
 10
1220.5023418833
 20
-462.2612938851999
 30
0.0
 11
1232.5023418833
 21
-462.2612938851999
 31
0.0
  0
LINE
  5
55F
  8
図枠
 10
1287.6366080099999
 20
-459.56129388519992
 30
0.0
 11
1299.0046080100001
 21
-459.56129388519992
 31
0.0
  0
ARC
  5
560
  8
図枠
 10
1229.5023418833
 20
-453.26129388520002
 30
0.0
 40
4.5
 50
270.0
 51
0.0
  0
LINE
  5
561
  8
図枠
 10
1287.6366080099999
 20
-454.16129388519988
 30
0.0
 11
1287.6366080099999
 21
-459.56129388519992
 31
0.0
  0
LINE
  5
562
  8
図枠
 10
1220.5023418833
 20
-456.2612938851999
 30
0.0
 11
1228.0023418833
 21
-456.2612938851999
 31
0.0
  0
LINE
  5
563
  8
図枠
 10
1267.5930975402
 20
-451.81850660049997
 30
0.0
 11
1266.8713101213
 21
-452.61572168219988
 31
0.0
  0
LINE
  5
564
  8
図枠
 10
1308.6366080099999
 20
-463.7612938851999
 30
0.0
 11
1300.2366080100001
 21
-463.7612938851999
 31
0.0
  0
LINE
  5
565
  8
図枠
 10
1234.0023418833
 20
-451.7612938851999
 30
0.0
 11
1234.0023418833
 21
-453.26129388520002
 31
0.0
  0
LINE
  5
566
  8
図枠
 10
1538.0204024185
 20
-369.49131278580001
 30
0.0
 11
1103.0204024185
 21
-369.49131278580001
 31
0.0
  0
LINE
  5
567
  8
図枠
 10
1309.0781549536
 20
-378.79131278580002
 30
0.0
 11
1309.0781549536
 21
-393.19131278579999
 31
0.0
  0
LINE
  5
568
  8
図枠
 62
     5
 10
1267.1675462604001
 20
355.66153971339997
 30
0.0
 11
1259.7425462604001
 21
342.80106246719998
 31
0.0
  0
LINE
  5
569
  8
図枠
 10
1246.0023418833
 20
-441.2612938851999
 30
0.0
 11
1234.0023418833
 21
-441.2612938851999
 31
0.0
  0
LINE
  5
56A
  8
図枠
 10
1241.5023418833
 20
-453.26129388520002
 30
0.0
 11
1241.5023418833
 21
-451.7612938851999
 31
0.0
  0
LINE
  5
56B
  8
図枠
 10
1287.6366080099999
 20
-446.36129388519998
 30
0.0
 11
1287.6366080099999
 21
-451.7612938851999
 31
0.0
  0
LINE
  5
56C
  8
図枠
 10
1234.0023418833
 20
-447.2612938851999
 30
0.0
 11
1228.0023418833
 21
-447.2612938851999
 31
0.0
  0
LINE
  5
56D
  8
図枠
 10
1232.5023418833
 20
-441.2612938851999
 30
0.0
 11
1220.5023418833
 21
-441.2612938851999
 31
0.0
  0
LINE
  5
56E
  8
図枠
 10
1228.0023418833
 20
-445.7612938851999
 30
0.0
 11
1232.5023418833
 21
-441.2612938851999
 31
0.0
  0
LINE
  5
56F
  8
図枠
 10
1220.5023418833
 20
-441.2612938851999
 30
0.0
 11
1220.5023418833
 21
-447.2612938851999
 31
0.0
  0
LINE
  5
570
  8
図枠
 10
1307.427995992
 20
-459.56129388519992
 30
0.0
 11
1314.6366080099999
 21
-459.56129388519992
 31
0.0
  0
LINE
  5
571
  8
図枠
 10
1295.13260801
 20
-446.36129388519998
 30
0.0
 11
1293.6366080099999
 21
-441.2612938851999
 31
0.0
  0
LINE
  5
572
  8
図枠
 10
1287.6366080099999
 20
-454.16129388519988
 30
0.0
 11
1297.42060801
 21
-454.16129388519988
 31
0.0
  0
LINE
  5
573
  8
図枠
 10
1305.8740662544999
 20
-454.16129388519988
 30
0.0
 11
1305.1834308156001
 21
-451.7612938851999
 31
0.0
  0
ARC
  5
574
  8
図枠
 10
1257.5841600652
 20
-446.36129388519998
 30
0.0
 40
11.4
 50
270.0
 51
298.08590481520002
  0
INSERT
  5
575
  8
0
  6
CONTINUOUS
  2
*U97
 10
0.0
 20
0.0
 30
0.0
  0
LINE
  5
576
  8
図枠
 10
1110.5204024185
 20
-385.99131278580001
 30
0.0
 11
1170.5204024185
 21
-385.99131278580001
 31
0.0
  0
LINE
  5
577
  8
図枠
 10
1178.0204024185
 20
-369.49131278580001
 30
0.0
 11
1178.0204024185
 21
-402.49131278580001
 31
0.0
  0
LINE
  5
578
  8
図枠
 10
1103.0204024185
 20
-402.49131278580001
 30
0.0
 11
1538.0204024185
 21
-402.49131278580001
 31
0.0
  0
LINE
  5
579
  8
図枠
 10
1253.0204024185
 20
-369.49131278580001
 30
0.0
 11
1253.0204024185
 21
-402.49131278580001
 31
0.0
  0
LINE
  5
57A
  8
図枠
  6
BORDER
 10
1278.2204024185
 20
-375.19131278579999
 30
0.0
 11
1278.2204024185
 21
-396.79131278580002
 31
0.0
  0
LINE
  5
57B
  8
図枠
  6
BORDER
 10
1278.2204024185
 20
-375.19131278579999
 30
0.0
 11
1278.2204024185
 21
-396.79131278580002
 31
0.0
  0
LINE
  5
57C
  8
図枠
 10
1314.6366080099999
 20
-446.36129388519998
 30
0.0
 11
1314.6366080099999
 21
-451.7612938851999
 31
0.0
  0
LINE
  5
57D
  8
図枠
 10
1185.5204024185
 20
-385.99131278580001
 30
0.0
 11
1245.5204024185
 21
-385.99131278580001
 31
0.0
  0
INSERT
  5
57E
  8
0
  6
CONTINUOUS
  2
*U98
 10
0.0
 20
0.0
 30
0.0
  0
CIRCLE
  5
57F
  8
図枠
 10
1278.2204024185
 20
-385.99131278580001
 30
0.0
 40
7.2000000000000002
  0
LINE
  5
580
  8
図枠
 10
1294.6781549535999
 20
-382.39131278579998
 30
0.0
 11
1309.0781549536
 21
-378.79131278580002
 31
0.0
  0
INSERT
  5
581
  8
0
  6
CONTINUOUS
  2
*U99
 10
0.0
 20
0.0
 30
0.0
  0
CIRCLE
  5
582
  8
図枠
 10
1278.2204024185
 20
-385.99131278580001
 30
0.0
 40
3.6000000000000001
  0
LINE
  5
583
  8
図枠
 10
1308.6366080099999
 20
-463.7612938851999
 30
0.0
 11
1307.427995992
 21
-459.56129388519992
 31
0.0
  0
LINE
  5
584
  8
図枠
 10
1305.8740662544999
 20
-454.16129388519988
 30
0.0
 11
1314.6366080099999
 21
-454.16129388519988
 31
0.0
  0
LINE
  5
585
  8
図枠
 10
1253.9841600652001
 20
-457.7612938851999
 30
0.0
 11
1257.5841600652
 21
-457.7612938851999
 31
0.0
  0
LINE
  5
586
  8
図枠
 10
1293.6366080099999
 20
-441.2612938851999
 30
0.0
 11
1305.6366080099999
 21
-441.2612938851999
 31
0.0
  0
LINE
  5
587
  8
図枠
 10
1220.5023418833
 20
-447.2612938851999
 30
0.0
 11
1217.0490304487
 21
-447.2612938851999
 31
0.0
  0
LINE
  5
588
  8
図枠
 10
1253.9841600652001
 20
-457.7612938851999
 30
0.0
 11
1253.9841600652001
 21
-462.2612938851999
 31
0.0
  0
LINE
  5
589
  8
図枠
 10
1220.5023418833
 20
-451.7612938851999
 30
0.0
 11
1220.0490304487
 21
-451.7612938851999
 31
0.0
  0
LINE
  5
58A
  8
図枠
 10
1220.5023418833
 20
-457.7612938851999
 30
0.0
 11
1220.5023418833
 21
-462.2612938851999
 31
0.0
  0
ARC
  5
58B
  8
図枠
 10
1257.5841600652
 20
-446.36129388519998
 30
0.0
 40
11.4
 50
331.39928138329998
 51
358.49204224580001
  0
LINE
  5
58C
  8
図枠
 10
1241.5023418833
 20
-451.7612938851999
 30
0.0
 11
1246.0023418833
 21
-451.7612938851999
 31
0.0
  0
ARC
  5
58D
  8
図枠
 10
1261.4841600652001
 20
-445.7612938851999
 30
0.0
 40
16.5
 50
270.0
 51
302.54495885400001
  0
LINE
  5
58E
  8
図枠
 10
1294.6781549535999
 20
-389.59131278580003
 30
0.0
 11
1309.0781549536
 21
-393.19131278579999
 31
0.0
  0
LINE
  5
58F
  8
図枠
 10
1294.6781549535999
 20
-382.39131278579998
 30
0.0
 11
1294.6781549535999
 21
-389.59131278580003
 31
0.0
  0
LINE
  5
590
  8
図枠
 10
1309.0781549536
 20
-378.79131278580002
 30
0.0
 11
1309.0781549536
 21
-393.19131278579999
 31
0.0
  0
LINE
  5
591
  8
図枠
 10
1265.9841600652001
 20
-448.22762468759998
 30
0.0
 11
1264.2871037903001
 21
-449.92468096250002
 31
0.0
  0
LINE
  5
592
  8
図枠
  6
BORDER
 10
1267.4204024185001
 20
-385.99131278580001
 30
0.0
 11
1313.6204024184999
 21
-385.99131278580001
 31
0.0
  0
CIRCLE
  5
593
  8
図枠
 10
1278.2204024185
 20
-385.99131278580001
 30
0.0
 40
3.6000000000000001
  0
POLYLINE
  8
図枠
  5
6FD
  66
     1
 10
0.000000
 20
0.000000
 30
0.000000
  70
     8
  0
VERTEX
  8
図枠
  5
6FE
 10
1274.04
 20
-456.332
 30
0.000000
  70
    32
  0
VERTEX
  8
図枠
  5
6FF
 10
1274.09
 20
-456.347
 30
0.000000
  70
    32
  0
VERTEX
  8
図枠
  5
700
 10
1274.14
 20
-456.361
 30
0.000000
  70
    32
  0
VERTEX
  8
図枠
  5
701
 10
1274.20
 20
-456.376
 30
0.000000
  70
    32
  0
VERTEX
  8
図枠
  5
702
 10
1274.25
 20
-456.391
 30
0.000000
  70
    32
  0
VERTEX
  8
図枠
  5
703
 10
1274.30
 20
-456.405
 30
0.000000
  70
    32
  0
VERTEX
  8
図枠
  5
704
 10
1274.35
 20
-456.420
 30
0.000000
  70
    32
  0
VERTEX
  8
図枠
  5
705
 10
1274.41
 20
-456.434
 30
0.000000
  70
    32
  0
VERTEX
  8
図枠
  5
706
 10
1274.46
 20
-456.448
 30
0.000000
  70
    32
  0
VERTEX
  8
図枠
  5
707
 10
1274.51
 20
-456.463
 30
0.000000
  70
    32
  0
VERTEX
  8
図枠
  5
708
 10
1274.56
 20
-456.477
 30
0.000000
  70
    32
  0
VERTEX
  8
図枠
  5
709
 10
1274.62
 20
-456.491
 30
0.000000
  70
    32
  0
VERTEX
  8
図枠
  5
70A
 10
1274.67
 20
-456.505
 30
0.000000
  70
    32
  0
VERTEX
  8
図枠
  5
70B
 10
1274.72
 20
-456.519
 30
0.000000
  70
    32
  0
VERTEX
  8
図枠
  5
70C
 10
1274.78
 20
-456.532
 30
0.000000
  70
    32
  0
VERTEX
  8
図枠
  5
70D
 10
1274.83
 20
-456.546
 30
0.000000
  70
    32
  0
VERTEX
  8
図枠
  5
70E
 10
1274.88
 20
-456.560
 30
0.000000
  70
    32
  0
VERTEX
  8
図枠
  5
70F
 10
1274.94
 20
-456.573
 30
0.000000
  70
    32
  0
VERTEX
  8
図枠
  5
710
 10
1274.99
 20
-456.587
 30
0.000000
  70
    32
  0
VERTEX
  8
図枠
  5
711
 10
1275.04
 20
-456.600
 30
0.000000
  70
    32
  0
VERTEX
  8
図枠
  5
712
 10
1275.10
 20
-456.614
 30
0.000000
  70
    32
  0
VERTEX
  8
図枠
  5
713
 10
1275.15
 20
-456.627
 30
0.000000
  70
    32
  0
VERTEX
  8
図枠
  5
714
 10
1275.20
 20
-456.640
 30
0.000000
  70
    32
  0
VERTEX
  8
図枠
  5
715
 10
1275.26
 20
-456.653
 30
0.000000
  70
    32
  0
VERTEX
  8
図枠
  5
716
 10
1275.31
 20
-456.666
 30
0.000000
  70
    32
  0
VERTEX
  8
図枠
  5
717
 10
1275.36
 20
-456.679
 30
0.000000
  70
    32
  0
VERTEX
  8
図枠
  5
718
 10
1275.42
 20
-456.692
 30
0.000000
  70
    32
  0
VERTEX
  8
図枠
  5
719
 10
1275.47
 20
-456.705
 30
0.000000
  70
    32
  0
VERTEX
  8
図枠
  5
71A
 10
1275.53
 20
-456.718
 30
0.000000
  70
    32
  0
VERTEX
  8
図枠
  5
71B
 10
1275.58
 20
-456.731
 30
0.000000
  70
    32
  0
VERTEX
  8
図枠
  5
71C
 10
1275.63
 20
-456.743
 30
0.000000
  70
    32
  0
VERTEX
  8
図枠
  5
71D
 10
1275.69
 20
-456.756
 30
0.000000
  70
    32
  0
VERTEX
  8
図枠
  5
71E
 10
1275.74
 20
-456.768
 30
0.000000
  70
    32
  0
VERTEX
  8
図枠
  5
71F
 10
1275.79
 20
-456.781
 30
0.000000
  70
    32
  0
VERTEX
  8
図枠
  5
720
 10
1275.85
 20
-456.793
 30
0.000000
  70
    32
  0
VERTEX
  8
図枠
  5
721
 10
1275.90
 20
-456.806
 30
0.000000
  70
    32
  0
VERTEX
  8
図枠
  5
722
 10
1275.96
 20
-456.818
 30
0.000000
  70
    32
  0
VERTEX
  8
図枠
  5
723
 10
1276.01
 20
-456.830
 30
0.000000
  70
    32
  0
VERTEX
  8
図枠
  5
724
 10
1276.06
 20
-456.842
 30
0.000000
  70
    32
  0
VERTEX
  8
図枠
  5
725
 10
1276.12
 20
-456.854
 30
0.000000
  70
    32
  0
VERTEX
  8
図枠
  5
726
 10
1276.17
 20
-456.866
 30
0.000000
  70
    32
  0
VERTEX
  8
図枠
  5
727
 10
1276.23
 20
-456.878
 30
0.000000
  70
    32
  0
VERTEX
  8
図枠
  5
728
 10
1276.28
 20
-456.890
 30
0.000000
  70
    32
  0
VERTEX
  8
図枠
  5
729
 10
1276.34
 20
-456.902
 30
0.000000
  70
    32
  0
VERTEX
  8
図枠
  5
72A
 10
1276.39
 20
-456.914
 30
0.000000
  70
    32
  0
VERTEX
  8
図枠
  5
72B
 10
1276.44
 20
-456.926
 30
0.000000
  70
    32
  0
VERTEX
  8
図枠
  5
72C
 10
1276.50
 20
-456.937
 30
0.000000
  70
    32
  0
VERTEX
  8
図枠
  5
72D
 10
1276.55
 20
-456.949
 30
0.000000
  70
    32
  0
VERTEX
  8
図枠
  5
72E
 10
1276.61
 20
-456.961
 30
0.000000
  70
    32
  0
VERTEX
  8
図枠
  5
72F
 10
1276.66
 20
-456.972
 30
0.000000
  70
    32
  0
VERTEX
  8
図枠
  5
730
 10
1276.72
 20
-456.984
 30
0.000000
  70
    32
  0
VERTEX
  8
図枠
  5
731
 10
1276.77
 20
-456.995
 30
0.000000
  70
    32
  0
VERTEX
  8
図枠
  5
732
 10
1276.83
 20
-457.006
 30
0.000000
  70
    32
  0
VERTEX
  8
図枠
  5
733
 10
1276.88
 20
-457.018
 30
0.000000
  70
    32
  0
VERTEX
  8
図枠
  5
734
 10
1276.94
 20
-457.029
 30
0.000000
  70
    32
  0
VERTEX
  8
図枠
  5
735
 10
1276.99
 20
-457.040
 30
0.000000
  70
    32
  0
VERTEX
  8
図枠
  5
736
 10
1277.05
 20
-457.051
 30
0.000000
  70
    32
  0
VERTEX
  8
図枠
  5
737
 10
1277.10
 20
-457.062
 30
0.000000
  70
    32
  0
VERTEX
  8
図枠
  5
738
 10
1277.16
 20
-457.073
 30
0.000000
  70
    32
  0
VERTEX
  8
図枠
  5
739
 10
1277.21
 20
-457.085
 30
0.000000
  70
    32
  0
VERTEX
  8
図枠
  5
73A
 10
1277.26
 20
-457.095
 30
0.000000
  70
    32
  0
VERTEX
  8
図枠
  5
73B
 10
1277.32
 20
-457.106
 30
0.000000
  70
    32
  0
VERTEX
  8
図枠
  5
73C
 10
1277.37
 20
-457.117
 30
0.000000
  70
    32
  0
VERTEX
  8
図枠
  5
73D
 10
1277.43
 20
-457.128
 30
0.000000
  70
    32
  0
VERTEX
  8
図枠
  5
73E
 10
1277.48
 20
-457.139
 30
0.000000
  70
    32
  0
VERTEX
  8
図枠
  5
73F
 10
1277.54
 20
-457.150
 30
0.000000
  70
    32
  0
VERTEX
  8
図枠
  5
740
 10
1277.59
 20
-457.160
 30
0.000000
  70
    32
  0
VERTEX
  8
図枠
  5
741
 10
1277.65
 20
-457.171
 30
0.000000
  70
    32
  0
VERTEX
  8
図枠
  5
742
 10
1277.70
 20
-457.182
 30
0.000000
  70
    32
  0
VERTEX
  8
図枠
  5
743
 10
1277.76
 20
-457.192
 30
0.000000
  70
    32
  0
VERTEX
  8
図枠
  5
744
 10
1277.81
 20
-457.203
 30
0.000000
  70
    32
  0
VERTEX
  8
図枠
  5
745
 10
1277.87
 20
-457.213
 30
0.000000
  70
    32
  0
VERTEX
  8
図枠
  5
746
 10
1277.93
 20
-457.224
 30
0.000000
  70
    32
  0
VERTEX
  8
図枠
  5
747
 10
1277.98
 20
-457.234
 30
0.000000
  70
    32
  0
VERTEX
  8
図枠
  5
748
 10
1278.04
 20
-457.245
 30
0.000000
  70
    32
  0
VERTEX
  8
図枠
  5
749
 10
1278.09
 20
-457.255
 30
0.000000
  70
    32
  0
VERTEX
  8
図枠
  5
74A
 10
1278.15
 20
-457.265
 30
0.000000
  70
    32
  0
VERTEX
  8
図枠
  5
74B
 10
1278.20
 20
-457.276
 30
0.000000
  70
    32
  0
VERTEX
  8
図枠
  5
74C
 10
1278.26
 20
-457.286
 30
0.000000
  70
    32
  0
VERTEX
  8
図枠
  5
74D
 10
1278.31
 20
-457.296
 30
0.000000
  70
    32
  0
VERTEX
  8
図枠
  5
74E
 10
1278.37
 20
-457.306
 30
0.000000
  70
    32
  0
VERTEX
  8
図枠
  5
74F
 10
1278.42
 20
-457.317
 30
0.000000
  70
    32
  0
VERTEX
  8
図枠
  5
750
 10
1278.48
 20
-457.327
 30
0.000000
  70
    32
  0
VERTEX
  8
図枠
  5
751
 10
1278.53
 20
-457.337
 30
0.000000
  70
    32
  0
VERTEX
  8
図枠
  5
752
 10
1278.59
 20
-457.347
 30
0.000000
  70
    32
  0
VERTEX
  8
図枠
  5
753
 10
1278.64
 20
-457.357
 30
0.000000
  70
    32
  0
VERTEX
  8
図枠
  5
754
 10
1278.70
 20
-457.367
 30
0.000000
  70
    32
  0
VERTEX
  8
図枠
  5
755
 10
1278.76
 20
-457.377
 30
0.000000
  70
    32
  0
VERTEX
  8
図枠
  5
756
 10
1278.81
 20
-457.387
 30
0.000000
  70
    32
  0
VERTEX
  8
図枠
  5
757
 10
1278.87
 20
-457.397
 30
0.000000
  70
    32
  0
VERTEX
  8
図枠
  5
758
 10
1278.92
 20
-457.407
 30
0.000000
  70
    32
  0
VERTEX
  8
図枠
  5
759
 10
1278.98
 20
-457.417
 30
0.000000
  70
    32
  0
VERTEX
  8
図枠
  5
75A
 10
1279.03
 20
-457.426
 30
0.000000
  70
    32
  0
VERTEX
  8
図枠
  5
75B
 10
1279.09
 20
-457.436
 30
0.000000
  70
    32
  0
VERTEX
  8
図枠
  5
75C
 10
1279.14
 20
-457.446
 30
0.000000
  70
    32
  0
VERTEX
  8
図枠
  5
75D
 10
1279.20
 20
-457.456
 30
0.000000
  70
    32
  0
VERTEX
  8
図枠
  5
75E
 10
1279.26
 20
-457.466
 30
0.000000
  70
    32
  0
VERTEX
  8
図枠
  5
75F
 10
1279.31
 20
-457.475
 30
0.000000
  70
    32
  0
VERTEX
  8
図枠
  5
760
 10
1279.37
 20
-457.485
 30
0.000000
  70
    32
  0
VERTEX
  8
図枠
  5
761
 10
1279.42
 20
-457.495
 30
0.000000
  70
    32
  0
VERTEX
  8
図枠
  5
762
 10
1279.48
 20
-457.504
 30
0.000000
  70
    32
  0
VERTEX
  8
図枠
  5
763
 10
1279.53
 20
-457.514
 30
0.000000
  70
    32
  0
VERTEX
  8
図枠
  5
764
 10
1279.59
 20
-457.524
 30
0.000000
  70
    32
  0
VERTEX
  8
図枠
  5
765
 10
1279.65
 20
-457.533
 30
0.000000
  70
    32
  0
VERTEX
  8
図枠
  5
766
 10
1279.70
 20
-457.543
 30
0.000000
  70
    32
  0
VERTEX
  8
図枠
  5
767
 10
1279.76
 20
-457.553
 30
0.000000
  70
    32
  0
VERTEX
  8
図枠
  5
768
 10
1279.81
 20
-457.562
 30
0.000000
  70
    32
  0
VERTEX
  8
図枠
  5
769
 10
1279.87
 20
-457.572
 30
0.000000
  70
    32
  0
VERTEX
  8
図枠
  5
76A
 10
1279.92
 20
-457.581
 30
0.000000
  70
    32
  0
VERTEX
  8
図枠
  5
76B
 10
1279.98
 20
-457.591
 30
0.000000
  70
    32
  0
VERTEX
  8
図枠
  5
76C
 10
1280.04
 20
-457.600
 30
0.000000
  70
    32
  0
VERTEX
  8
図枠
  5
76D
 10
1280.09
 20
-457.610
 30
0.000000
  70
    32
  0
VERTEX
  8
図枠
  5
76E
 10
1280.15
 20
-457.619
 30
0.000000
  70
    32
  0
VERTEX
  8
図枠
  5
76F
 10
1280.20
 20
-457.629
 30
0.000000
  70
    32
  0
VERTEX
  8
図枠
  5
770
 10
1280.26
 20
-457.638
 30
0.000000
  70
    32
  0
VERTEX
  8
図枠
  5
771
 10
1280.31
 20
-457.648
 30
0.000000
  70
    32
  0
VERTEX
  8
図枠
  5
772
 10
1280.37
 20
-457.657
 30
0.000000
  70
    32
  0
VERTEX
  8
図枠
  5
773
 10
1280.43
 20
-457.667
 30
0.000000
  70
    32
  0
VERTEX
  8
図枠
  5
774
 10
1280.48
 20
-457.676
 30
0.000000
  70
    32
  0
VERTEX
  8
図枠
  5
775
 10
1280.54
 20
-457.686
 30
0.000000
  70
    32
  0
VERTEX
  8
図枠
  5
776
 10
1280.59
 20
-457.695
 30
0.000000
  70
    32
  0
VERTEX
  8
図枠
  5
777
 10
1280.65
 20
-457.705
 30
0.000000
  70
    32
  0
VERTEX
  8
図枠
  5
778
 10
1280.71
 20
-457.714
 30
0.000000
  70
    32
  0
VERTEX
  8
図枠
  5
779
 10
1280.76
 20
-457.724
 30
0.000000
  70
    32
  0
VERTEX
  8
図枠
  5
77A
 10
1280.82
 20
-457.733
 30
0.000000
  70
    32
  0
VERTEX
  8
図枠
  5
77B
 10
1280.87
 20
-457.742
 30
0.000000
  70
    32
  0
VERTEX
  8
図枠
  5
77C
 10
1280.93
 20
-457.752
 30
0.000000
  70
    32
  0
VERTEX
  8
図枠
  5
77D
 10
1280.98
 20
-457.761
 30
0.000000
  70
    32
  0
SEQEND
  8
図枠
  5
77E
  0
POLYLINE
  8
図枠
  5
77F
  66
     1
 10
0.000000
 20
0.000000
 30
0.000000
  70
     8
  0
VERTEX
  8
図枠
  5
780
 10
1264.29
 20
-449.925
 30
0.000000
  70
    32
  0
VERTEX
  8
図枠
  5
781
 10
1264.31
 20
-449.947
 30
0.000000
  70
    32
  0
VERTEX
  8
図枠
  5
782
 10
1264.33
 20
-449.969
 30
0.000000
  70
    32
  0
VERTEX
  8
図枠
  5
783
 10
1264.35
 20
-449.991
 30
0.000000
  70
    32
  0
VERTEX
  8
図枠
  5
784
 10
1264.37
 20
-450.013
 30
0.000000
  70
    32
  0
VERTEX
  8
図枠
  5
785
 10
1264.39
 20
-450.035
 30
0.000000
  70
    32
  0
VERTEX
  8
図枠
  5
786
 10
1264.41
 20
-450.057
 30
0.000000
  70
    32
  0
VERTEX
  8
図枠
  5
787
 10
1264.43
 20
-450.079
 30
0.000000
  70
    32
  0
VERTEX
  8
図枠
  5
788
 10
1264.45
 20
-450.101
 30
0.000000
  70
    32
  0
VERTEX
  8
図枠
  5
789
 10
1264.47
 20
-450.123
 30
0.000000
  70
    32
  0
VERTEX
  8
図枠
  5
78A
 10
1264.49
 20
-450.145
 30
0.000000
  70
    32
  0
VERTEX
  8
図枠
  5
78B
 10
1264.50
 20
-450.167
 30
0.000000
  70
    32
  0
VERTEX
  8
図枠
  5
78C
 10
1264.52
 20
-450.189
 30
0.000000
  70
    32
  0
VERTEX
  8
図枠
  5
78D
 10
1264.54
 20
-450.212
 30
0.000000
  70
    32
  0
VERTEX
  8
図枠
  5
78E
 10
1264.56
 20
-450.234
 30
0.000000
  70
    32
  0
VERTEX
  8
図枠
  5
78F
 10
1264.58
 20
-450.256
 30
0.000000
  70
    32
  0
VERTEX
  8
図枠
  5
790
 10
1264.60
 20
-450.278
 30
0.000000
  70
    32
  0
VERTEX
  8
図枠
  5
791
 10
1264.62
 20
-450.300
 30
0.000000
  70
    32
  0
VERTEX
  8
図枠
  5
792
 10
1264.64
 20
-450.322
 30
0.000000
  70
    32
  0
VERTEX
  8
図枠
  5
793
 10
1264.66
 20
-450.344
 30
0.000000
  70
    32
  0
VERTEX
  8
図枠
  5
794
 10
1264.68
 20
-450.366
 30
0.000000
  70
    32
  0
VERTEX
  8
図枠
  5
795
 10
1264.70
 20
-450.388
 30
0.000000
  70
    32
  0
VERTEX
  8
図枠
  5
796
 10
1264.72
 20
-450.410
 30
0.000000
  70
    32
  0
VERTEX
  8
図枠
  5
797
 10
1264.74
 20
-450.432
 30
0.000000
  70
    32
  0
VERTEX
  8
図枠
  5
798
 10
1264.76
 20
-450.454
 30
0.000000
  70
    32
  0
VERTEX
  8
図枠
  5
799
 10
1264.78
 20
-450.476
 30
0.000000
  70
    32
  0
VERTEX
  8
図枠
  5
79A
 10
1264.80
 20
-450.498
 30
0.000000
  70
    32
  0
VERTEX
  8
図枠
  5
79B
 10
1264.82
 20
-450.520
 30
0.000000
  70
    32
  0
VERTEX
  8
図枠
  5
79C
 10
1264.84
 20
-450.542
 30
0.000000
  70
    32
  0
VERTEX
  8
図枠
  5
79D
 10
1264.86
 20
-450.564
 30
0.000000
  70
    32
  0
VERTEX
  8
図枠
  5
79E
 10
1264.88
 20
-450.585
 30
0.000000
  70
    32
  0
VERTEX
  8
図枠
  5
79F
 10
1264.90
 20
-450.607
 30
0.000000
  70
    32
  0
VERTEX
  8
図枠
  5
7A0
 10
1264.92
 20
-450.629
 30
0.000000
  70
    32
  0
VERTEX
  8
図枠
  5
7A1
 10
1264.94
 20
-450.651
 30
0.000000
  70
    32
  0
VERTEX
  8
図枠
  5
7A2
 10
1264.96
 20
-450.673
 30
0.000000
  70
    32
  0
VERTEX
  8
図枠
  5
7A3
 10
1264.98
 20
-450.695
 30
0.000000
  70
    32
  0
VERTEX
  8
図枠
  5
7A4
 10
1265.00
 20
-450.717
 30
0.000000
  70
    32
  0
VERTEX
  8
図枠
  5
7A5
 10
1265.02
 20
-450.739
 30
0.000000
  70
    32
  0
VERTEX
  8
図枠
  5
7A6
 10
1265.04
 20
-450.761
 30
0.000000
  70
    32
  0
VERTEX
  8
図枠
  5
7A7
 10
1265.06
 20
-450.782
 30
0.000000
  70
    32
  0
VERTEX
  8
図枠
  5
7A8
 10
1265.08
 20
-450.804
 30
0.000000
  70
    32
  0
VERTEX
  8
図枠
  5
7A9
 10
1265.10
 20
-450.826
 30
0.000000
  70
    32
  0
VERTEX
  8
図枠
  5
7AA
 10
1265.12
 20
-450.848
 30
0.000000
  70
    32
  0
VERTEX
  8
図枠
  5
7AB
 10
1265.14
 20
-450.870
 30
0.000000
  70
    32
  0
VERTEX
  8
図枠
  5
7AC
 10
1265.16
 20
-450.891
 30
0.000000
  70
    32
  0
VERTEX
  8
図枠
  5
7AD
 10
1265.18
 20
-450.913
 30
0.000000
  70
    32
  0
VERTEX
  8
図枠
  5
7AE
 10
1265.20
 20
-450.935
 30
0.000000
  70
    32
  0
VERTEX
  8
図枠
  5
7AF
 10
1265.22
 20
-450.956
 30
0.000000
  70
    32
  0
VERTEX
  8
図枠
  5
7B0
 10
1265.24
 20
-450.978
 30
0.000000
  70
    32
  0
VERTEX
  8
図枠
  5
7B1
 10
1265.26
 20
-451.000
 30
0.000000
  70
    32
  0
VERTEX
  8
図枠
  5
7B2
 10
1265.28
 20
-451.022
 30
0.000000
  70
    32
  0
VERTEX
  8
図枠
  5
7B3
 10
1265.30
 20
-451.043
 30
0.000000
  70
    32
  0
VERTEX
  8
図枠
  5
7B4
 10
1265.32
 20
-451.065
 30
0.000000
  70
    32
  0
VERTEX
  8
図枠
  5
7B5
 10
1265.34
 20
-451.086
 30
0.000000
  70
    32
  0
VERTEX
  8
図枠
  5
7B6
 10
1265.36
 20
-451.108
 30
0.000000
  70
    32
  0
VERTEX
  8
図枠
  5
7B7
 10
1265.38
 20
-451.130
 30
0.000000
  70
    32
  0
VERTEX
  8
図枠
  5
7B8
 10
1265.40
 20
-451.151
 30
0.000000
  70
    32
  0
VERTEX
  8
図枠
  5
7B9
 10
1265.42
 20
-451.173
 30
0.000000
  70
    32
  0
VERTEX
  8
図枠
  5
7BA
 10
1265.44
 20
-451.194
 30
0.000000
  70
    32
  0
VERTEX
  8
図枠
  5
7BB
 10
1265.46
 20
-451.216
 30
0.000000
  70
    32
  0
VERTEX
  8
図枠
  5
7BC
 10
1265.48
 20
-451.237
 30
0.000000
  70
    32
  0
VERTEX
  8
図枠
  5
7BD
 10
1265.50
 20
-451.259
 30
0.000000
  70
    32
  0
VERTEX
  8
図枠
  5
7BE
 10
1265.52
 20
-451.280
 30
0.000000
  70
    32
  0
VERTEX
  8
図枠
  5
7BF
 10
1265.54
 20
-451.302
 30
0.000000
  70
    32
  0
VERTEX
  8
図枠
  5
7C0
 10
1265.56
 20
-451.323
 30
0.000000
  70
    32
  0
VERTEX
  8
図枠
  5
7C1
 10
1265.58
 20
-451.344
 30
0.000000
  70
    32
  0
VERTEX
  8
図枠
  5
7C2
 10
1265.60
 20
-451.366
 30
0.000000
  70
    32
  0
VERTEX
  8
図枠
  5
7C3
 10
1265.62
 20
-451.387
 30
0.000000
  70
    32
  0
VERTEX
  8
図枠
  5
7C4
 10
1265.64
 20
-451.409
 30
0.000000
  70
    32
  0
VERTEX
  8
図枠
  5
7C5
 10
1265.66
 20
-451.430
 30
0.000000
  70
    32
  0
VERTEX
  8
図枠
  5
7C6
 10
1265.68
 20
-451.451
 30
0.000000
  70
    32
  0
VERTEX
  8
図枠
  5
7C7
 10
1265.70
 20
-451.472
 30
0.000000
  70
    32
  0
VERTEX
  8
図枠
  5
7C8
 10
1265.73
 20
-451.494
 30
0.000000
  70
    32
  0
VERTEX
  8
図枠
  5
7C9
 10
1265.75
 20
-451.515
 30
0.000000
  70
    32
  0
VERTEX
  8
図枠
  5
7CA
 10
1265.77
 20
-451.536
 30
0.000000
  70
    32
  0
VERTEX
  8
図枠
  5
7CB
 10
1265.79
 20
-451.557
 30
0.000000
  70
    32
  0
VERTEX
  8
図枠
  5
7CC
 10
1265.81
 20
-451.578
 30
0.000000
  70
    32
  0
VERTEX
  8
図枠
  5
7CD
 10
1265.83
 20
-451.599
 30
0.000000
  70
    32
  0
VERTEX
  8
図枠
  5
7CE
 10
1265.85
 20
-451.620
 30
0.000000
  70
    32
  0
VERTEX
  8
図枠
  5
7CF
 10
1265.87
 20
-451.642
 30
0.000000
  70
    32
  0
VERTEX
  8
図枠
  5
7D0
 10
1265.89
 20
-451.663
 30
0.000000
  70
    32
  0
VERTEX
  8
図枠
  5
7D1
 10
1265.91
 20
-451.684
 30
0.000000
  70
    32
  0
VERTEX
  8
図枠
  5
7D2
 10
1265.93
 20
-451.705
 30
0.000000
  70
    32
  0
VERTEX
  8
図枠
  5
7D3
 10
1265.95
 20
-451.725
 30
0.000000
  70
    32
  0
VERTEX
  8
図枠
  5
7D4
 10
1265.97
 20
-451.746
 30
0.000000
  70
    32
  0
VERTEX
  8
図枠
  5
7D5
 10
1265.99
 20
-451.767
 30
0.000000
  70
    32
  0
VERTEX
  8
図枠
  5
7D6
 10
1266.01
 20
-451.788
 30
0.000000
  70
    32
  0
VERTEX
  8
図枠
  5
7D7
 10
1266.03
 20
-451.809
 30
0.000000
  70
    32
  0
VERTEX
  8
図枠
  5
7D8
 10
1266.05
 20
-451.830
 30
0.000000
  70
    32
  0
VERTEX
  8
図枠
  5
7D9
 10
1266.07
 20
-451.851
 30
0.000000
  70
    32
  0
VERTEX
  8
図枠
  5
7DA
 10
1266.09
 20
-451.871
 30
0.000000
  70
    32
  0
VERTEX
  8
図枠
  5
7DB
 10
1266.11
 20
-451.892
 30
0.000000
  70
    32
  0
VERTEX
  8
図枠
  5
7DC
 10
1266.14
 20
-451.913
 30
0.000000
  70
    32
  0
VERTEX
  8
図枠
  5
7DD
 10
1266.16
 20
-451.933
 30
0.000000
  70
    32
  0
VERTEX
  8
図枠
  5
7DE
 10
1266.18
 20
-451.954
 30
0.000000
  70
    32
  0
VERTEX
  8
図枠
  5
7DF
 10
1266.20
 20
-451.975
 30
0.000000
  70
    32
  0
VERTEX
  8
図枠
  5
7E0
 10
1266.22
 20
-451.995
 30
0.000000
  70
    32
  0
VERTEX
  8
図枠
  5
7E1
 10
1266.24
 20
-452.016
 30
0.000000
  70
    32
  0
VERTEX
  8
図枠
  5
7E2
 10
1266.26
 20
-452.036
 30
0.000000
  70
    32
  0
VERTEX
  8
図枠
  5
7E3
 10
1266.28
 20
-452.057
 30
0.000000
  70
    32
  0
VERTEX
  8
図枠
  5
7E4
 10
1266.30
 20
-452.077
 30
0.000000
  70
    32
  0
VERTEX
  8
図枠
  5
7E5
 10
1266.32
 20
-452.098
 30
0.000000
  70
    32
  0
VERTEX
  8
図枠
  5
7E6
 10
1266.34
 20
-452.118
 30
0.000000
  70
    32
  0
VERTEX
  8
図枠
  5
7E7
 10
1266.36
 20
-452.138
 30
0.000000
  70
    32
  0
VERTEX
  8
図枠
  5
7E8
 10
1266.38
 20
-452.159
 30
0.000000
  70
    32
  0
VERTEX
  8
図枠
  5
7E9
 10
1266.41
 20
-452.179
 30
0.000000
  70
    32
  0
VERTEX
  8
図枠
  5
7EA
 10
1266.43
 20
-452.199
 30
0.000000
  70
    32
  0
VERTEX
  8
図枠
  5
7EB
 10
1266.45
 20
-452.219
 30
0.000000
  70
    32
  0
VERTEX
  8
図枠
  5
7EC
 10
1266.47
 20
-452.240
 30
0.000000
  70
    32
  0
VERTEX
  8
図枠
  5
7ED
 10
1266.49
 20
-452.260
 30
0.000000
  70
    32
  0
VERTEX
  8
図枠
  5
7EE
 10
1266.51
 20
-452.280
 30
0.000000
  70
    32
  0
VERTEX
  8
図枠
  5
7EF
 10
1266.53
 20
-452.300
 30
0.000000
  70
    32
  0
VERTEX
  8
図枠
  5
7F0
 10
1266.55
 20
-452.320
 30
0.000000
  70
    32
  0
VERTEX
  8
図枠
  5
7F1
 10
1266.57
 20
-452.340
 30
0.000000
  70
    32
  0
VERTEX
  8
図枠
  5
7F2
 10
1266.59
 20
-452.360
 30
0.000000
  70
    32
  0
VERTEX
  8
図枠
  5
7F3
 10
1266.62
 20
-452.380
 30
0.000000
  70
    32
  0
VERTEX
  8
図枠
  5
7F4
 10
1266.64
 20
-452.400
 30
0.000000
  70
    32
  0
VERTEX
  8
図枠
  5
7F5
 10
1266.66
 20
-452.420
 30
0.000000
  70
    32
  0
VERTEX
  8
図枠
  5
7F6
 10
1266.68
 20
-452.439
 30
0.000000
  70
    32
  0
VERTEX
  8
図枠
  5
7F7
 10
1266.70
 20
-452.459
 30
0.000000
  70
    32
  0
VERTEX
  8
図枠
  5
7F8
 10
1266.72
 20
-452.479
 30
0.000000
  70
    32
  0
VERTEX
  8
図枠
  5
7F9
 10
1266.74
 20
-452.498
 30
0.000000
  70
    32
  0
VERTEX
  8
図枠
  5
7FA
 10
1266.76
 20
-452.518
 30
0.000000
  70
    32
  0
VERTEX
  8
図枠
  5
7FB
 10
1266.79
 20
-452.538
 30
0.000000
  70
    32
  0
VERTEX
  8
図枠
  5
7FC
 10
1266.81
 20
-452.557
 30
0.000000
  70
    32
  0
VERTEX
  8
図枠
  5
7FD
 10
1266.83
 20
-452.577
 30
0.000000
  70
    32
  0
VERTEX
  8
図枠
  5
7FE
 10
1266.85
 20
-452.596
 30
0.000000
  70
    32
  0
VERTEX
  8
図枠
  5
7FF
 10
1266.87
 20
-452.616
 30
0.000000
  70
    32
  0
SEQEND
  8
図枠
  5
800
  0
POLYLINE
  8
図枠
  5
801
  66
     1
 10
0.000000
 20
0.000000
 30
0.000000
  70
     8
  0
VERTEX
  8
図枠
  5
802
 10
1270.36
 20
-459.670
 30
0.000000
  70
    32
  0
VERTEX
  8
図枠
  5
803
 10
1270.44
 20
-459.696
 30
0.000000
  70
    32
  0
VERTEX
  8
図枠
  5
804
 10
1270.52
 20
-459.722
 30
0.000000
  70
    32
  0
VERTEX
  8
図枠
  5
805
 10
1270.60
 20
-459.747
 30
0.000000
  70
    32
  0
VERTEX
  8
図枠
  5
806
 10
1270.68
 20
-459.773
 30
0.000000
  70
    32
  0
VERTEX
  8
図枠
  5
807
 10
1270.76
 20
-459.798
 30
0.000000
  70
    32
  0
VERTEX
  8
図枠
  5
808
 10
1270.85
 20
-459.823
 30
0.000000
  70
    32
  0
VERTEX
  8
図枠
  5
809
 10
1270.93
 20
-459.848
 30
0.000000
  70
    32
  0
VERTEX
  8
図枠
  5
80A
 10
1271.01
 20
-459.873
 30
0.000000
  70
    32
  0
VERTEX
  8
図枠
  5
80B
 10
1271.09
 20
-459.898
 30
0.000000
  70
    32
  0
VERTEX
  8
図枠
  5
80C
 10
1271.17
 20
-459.922
 30
0.000000
  70
    32
  0
VERTEX
  8
図枠
  5
80D
 10
1271.25
 20
-459.947
 30
0.000000
  70
    32
  0
VERTEX
  8
図枠
  5
80E
 10
1271.33
 20
-459.971
 30
0.000000
  70
    32
  0
VERTEX
  8
図枠
  5
80F
 10
1271.42
 20
-459.995
 30
0.000000
  70
    32
  0
VERTEX
  8
図枠
  5
810
 10
1271.50
 20
-460.020
 30
0.000000
  70
    32
  0
VERTEX
  8
図枠
  5
811
 10
1271.58
 20
-460.044
 30
0.000000
  70
    32
  0
VERTEX
  8
図枠
  5
812
 10
1271.66
 20
-460.068
 30
0.000000
  70
    32
  0
VERTEX
  8
図枠
  5
813
 10
1271.74
 20
-460.092
 30
0.000000
  70
    32
  0
VERTEX
  8
図枠
  5
814
 10
1271.82
 20
-460.115
 30
0.000000
  70
    32
  0
VERTEX
  8
図枠
  5
815
 10
1271.91
 20
-460.139
 30
0.000000
  70
    32
  0
VERTEX
  8
図枠
  5
816
 10
1271.99
 20
-460.162
 30
0.000000
  70
    32
  0
VERTEX
  8
図枠
  5
817
 10
1272.07
 20
-460.186
 30
0.000000
  70
    32
  0
VERTEX
  8
図枠
  5
818
 10
1272.15
 20
-460.209
 30
0.000000
  70
    32
  0
VERTEX
  8
図枠
  5
819
 10
1272.23
 20
-460.232
 30
0.000000
  70
    32
  0
VERTEX
  8
図枠
  5
81A
 10
1272.32
 20
-460.255
 30
0.000000
  70
    32
  0
VERTEX
  8
図枠
  5
81B
 10
1272.40
 20
-460.278
 30
0.000000
  70
    32
  0
VERTEX
  8
図枠
  5
81C
 10
1272.48
 20
-460.301
 30
0.000000
  70
    32
  0
VERTEX
  8
図枠
  5
81D
 10
1272.56
 20
-460.324
 30
0.000000
  70
    32
  0
VERTEX
  8
図枠
  5
81E
 10
1272.65
 20
-460.347
 30
0.000000
  70
    32
  0
VERTEX
  8
図枠
  5
81F
 10
1272.73
 20
-460.369
 30
0.000000
  70
    32
  0
VERTEX
  8
図枠
  5
820
 10
1272.81
 20
-460.392
 30
0.000000
  70
    32
  0
VERTEX
  8
図枠
  5
821
 10
1272.89
 20
-460.414
 30
0.000000
  70
    32
  0
VERTEX
  8
図枠
  5
822
 10
1272.98
 20
-460.436
 30
0.000000
  70
    32
  0
VERTEX
  8
図枠
  5
823
 10
1273.06
 20
-460.459
 30
0.000000
  70
    32
  0
VERTEX
  8
図枠
  5
824
 10
1273.14
 20
-460.481
 30
0.000000
  70
    32
  0
VERTEX
  8
図枠
  5
825
 10
1273.22
 20
-460.503
 30
0.000000
  70
    32
  0
VERTEX
  8
図枠
  5
826
 10
1273.31
 20
-460.525
 30
0.000000
  70
    32
  0
VERTEX
  8
図枠
  5
827
 10
1273.39
 20
-460.546
 30
0.000000
  70
    32
  0
VERTEX
  8
図枠
  5
828
 10
1273.47
 20
-460.568
 30
0.000000
  70
    32
  0
VERTEX
  8
図枠
  5
829
 10
1273.56
 20
-460.590
 30
0.000000
  70
    32
  0
VERTEX
  8
図枠
  5
82A
 10
1273.64
 20
-460.611
 30
0.000000
  70
    32
  0
VERTEX
  8
図枠
  5
82B
 10
1273.72
 20
-460.633
 30
0.000000
  70
    32
  0
VERTEX
  8
図枠
  5
82C
 10
1273.81
 20
-460.654
 30
0.000000
  70
    32
  0
VERTEX
  8
図枠
  5
82D
 10
1273.89
 20
-460.675
 30
0.000000
  70
    32
  0
VERTEX
  8
図枠
  5
82E
 10
1273.97
 20
-460.697
 30
0.000000
  70
    32
  0
VERTEX
  8
図枠
  5
82F
 10
1274.05
 20
-460.718
 30
0.000000
  70
    32
  0
VERTEX
  8
図枠
  5
830
 10
1274.14
 20
-460.739
 30
0.000000
  70
    32
  0
VERTEX
  8
図枠
  5
831
 10
1274.22
 20
-460.760
 30
0.000000
  70
    32
  0
VERTEX
  8
図枠
  5
832
 10
1274.30
 20
-460.781
 30
0.000000
  70
    32
  0
VERTEX
  8
図枠
  5
833
 10
1274.39
 20
-460.801
 30
0.000000
  70
    32
  0
VERTEX
  8
図枠
  5
834
 10
1274.47
 20
-460.822
 30
0.000000
  70
    32
  0
VERTEX
  8
図枠
  5
835
 10
1274.56
 20
-460.843
 30
0.000000
  70
    32
  0
VERTEX
  8
図枠
  5
836
 10
1274.64
 20
-460.863
 30
0.000000
  70
    32
  0
VERTEX
  8
図枠
  5
837
 10
1274.72
 20
-460.884
 30
0.000000
  70
    32
  0
VERTEX
  8
図枠
  5
838
 10
1274.81
 20
-460.904
 30
0.000000
  70
    32
  0
VERTEX
  8
図枠
  5
839
 10
1274.89
 20
-460.925
 30
0.000000
  70
    32
  0
VERTEX
  8
図枠
  5
83A
 10
1274.97
 20
-460.945
 30
0.000000
  70
    32
  0
VERTEX
  8
図枠
  5
83B
 10
1275.06
 20
-460.965
 30
0.000000
  70
    32
  0
VERTEX
  8
図枠
  5
83C
 10
1275.14
 20
-460.985
 30
0.000000
  70
    32
  0
VERTEX
  8
図枠
  5
83D
 10
1275.22
 20
-461.005
 30
0.000000
  70
    32
  0
VERTEX
  8
図枠
  5
83E
 10
1275.31
 20
-461.025
 30
0.000000
  70
    32
  0
VERTEX
  8
図枠
  5
83F
 10
1275.39
 20
-461.045
 30
0.000000
  70
    32
  0
VERTEX
  8
図枠
  5
840
 10
1275.48
 20
-461.065
 30
0.000000
  70
    32
  0
VERTEX
  8
図枠
  5
841
 10
1275.56
 20
-461.085
 30
0.000000
  70
    32
  0
VERTEX
  8
図枠
  5
842
 10
1275.64
 20
-461.105
 30
0.000000
  70
    32
  0
VERTEX
  8
図枠
  5
843
 10
1275.73
 20
-461.124
 30
0.000000
  70
    32
  0
VERTEX
  8
図枠
  5
844
 10
1275.81
 20
-461.144
 30
0.000000
  70
    32
  0
VERTEX
  8
図枠
  5
845
 10
1275.90
 20
-461.163
 30
0.000000
  70
    32
  0
VERTEX
  8
図枠
  5
846
 10
1275.98
 20
-461.183
 30
0.000000
  70
    32
  0
VERTEX
  8
図枠
  5
847
 10
1276.07
 20
-461.202
 30
0.000000
  70
    32
  0
VERTEX
  8
図枠
  5
848
 10
1276.15
 20
-461.222
 30
0.000000
  70
    32
  0
VERTEX
  8
図枠
  5
849
 10
1276.23
 20
-461.241
 30
0.000000
  70
    32
  0
VERTEX
  8
図枠
  5
84A
 10
1276.32
 20
-461.260
 30
0.000000
  70
    32
  0
VERTEX
  8
図枠
  5
84B
 10
1276.40
 20
-461.279
 30
0.000000
  70
    32
  0
VERTEX
  8
図枠
  5
84C
 10
1276.49
 20
-461.298
 30
0.000000
  70
    32
  0
VERTEX
  8
図枠
  5
84D
 10
1276.57
 20
-461.318
 30
0.000000
  70
    32
  0
VERTEX
  8
図枠
  5
84E
 10
1276.66
 20
-461.337
 30
0.000000
  70
    32
  0
VERTEX
  8
図枠
  5
84F
 10
1276.74
 20
-461.356
 30
0.000000
  70
    32
  0
VERTEX
  8
図枠
  5
850
 10
1276.82
 20
-461.375
 30
0.000000
  70
    32
  0
VERTEX
  8
図枠
  5
851
 10
1276.91
 20
-461.393
 30
0.000000
  70
    32
  0
VERTEX
  8
図枠
  5
852
 10
1276.99
 20
-461.412
 30
0.000000
  70
    32
  0
VERTEX
  8
図枠
  5
853
 10
1277.08
 20
-461.431
 30
0.000000
  70
    32
  0
VERTEX
  8
図枠
  5
854
 10
1277.16
 20
-461.450
 30
0.000000
  70
    32
  0
VERTEX
  8
図枠
  5
855
 10
1277.25
 20
-461.468
 30
0.000000
  70
    32
  0
VERTEX
  8
図枠
  5
856
 10
1277.33
 20
-461.487
 30
0.000000
  70
    32
  0
VERTEX
  8
図枠
  5
857
 10
1277.42
 20
-461.506
 30
0.000000
  70
    32
  0
VERTEX
  8
図枠
  5
858
 10
1277.50
 20
-461.524
 30
0.000000
  70
    32
  0
VERTEX
  8
図枠
  5
859
 10
1277.59
 20
-461.543
 30
0.000000
  70
    32
  0
VERTEX
  8
図枠
  5
85A
 10
1277.67
 20
-461.561
 30
0.000000
  70
    32
  0
VERTEX
  8
図枠
  5
85B
 10
1277.75
 20
-461.580
 30
0.000000
  70
    32
  0
VERTEX
  8
図枠
  5
85C
 10
1277.84
 20
-461.598
 30
0.000000
  70
    32
  0
VERTEX
  8
図枠
  5
85D
 10
1277.92
 20
-461.616
 30
0.000000
  70
    32
  0
VERTEX
  8
図枠
  5
85E
 10
1278.01
 20
-461.635
 30
0.000000
  70
    32
  0
VERTEX
  8
図枠
  5
85F
 10
1278.09
 20
-461.653
 30
0.000000
  70
    32
  0
VERTEX
  8
図枠
  5
860
 10
1278.18
 20
-461.671
 30
0.000000
  70
    32
  0
VERTEX
  8
図枠
  5
861
 10
1278.26
 20
-461.690
 30
0.000000
  70
    32
  0
VERTEX
  8
図枠
  5
862
 10
1278.35
 20
-461.708
 30
0.000000
  70
    32
  0
VERTEX
  8
図枠
  5
863
 10
1278.43
 20
-461.726
 30
0.000000
  70
    32
  0
VERTEX
  8
図枠
  5
864
 10
1278.52
 20
-461.744
 30
0.000000
  70
    32
  0
VERTEX
  8
図枠
  5
865
 10
1278.60
 20
-461.762
 30
0.000000
  70
    32
  0
VERTEX
  8
図枠
  5
866
 10
1278.69
 20
-461.780
 30
0.000000
  70
    32
  0
VERTEX
  8
図枠
  5
867
 10
1278.77
 20
-461.798
 30
0.000000
  70
    32
  0
VERTEX
  8
図枠
  5
868
 10
1278.86
 20
-461.816
 30
0.000000
  70
    32
  0
VERTEX
  8
図枠
  5
869
 10
1278.94
 20
-461.834
 30
0.000000
  70
    32
  0
VERTEX
  8
図枠
  5
86A
 10
1279.03
 20
-461.852
 30
0.000000
  70
    32
  0
VERTEX
  8
図枠
  5
86B
 10
1279.11
 20
-461.870
 30
0.000000
  70
    32
  0
VERTEX
  8
図枠
  5
86C
 10
1279.20
 20
-461.888
 30
0.000000
  70
    32
  0
VERTEX
  8
図枠
  5
86D
 10
1279.28
 20
-461.906
 30
0.000000
  70
    32
  0
VERTEX
  8
図枠
  5
86E
 10
1279.37
 20
-461.924
 30
0.000000
  70
    32
  0
VERTEX
  8
図枠
  5
86F
 10
1279.45
 20
-461.942
 30
0.000000
  70
    32
  0
VERTEX
  8
図枠
  5
870
 10
1279.54
 20
-461.960
 30
0.000000
  70
    32
  0
VERTEX
  8
図枠
  5
871
 10
1279.62
 20
-461.977
 30
0.000000
  70
    32
  0
VERTEX
  8
図枠
  5
872
 10
1279.71
 20
-461.995
 30
0.000000
  70
    32
  0
VERTEX
  8
図枠
  5
873
 10
1279.79
 20
-462.013
 30
0.000000
  70
    32
  0
VERTEX
  8
図枠
  5
874
 10
1279.88
 20
-462.031
 30
0.000000
  70
    32
  0
VERTEX
  8
図枠
  5
875
 10
1279.96
 20
-462.049
 30
0.000000
  70
    32
  0
VERTEX
  8
図枠
  5
876
 10
1280.05
 20
-462.066
 30
0.000000
  70
    32
  0
VERTEX
  8
図枠
  5
877
 10
1280.13
 20
-462.084
 30
0.000000
  70
    32
  0
VERTEX
  8
図枠
  5
878
 10
1280.22
 20
-462.102
 30
0.000000
  70
    32
  0
VERTEX
  8
図枠
  5
879
 10
1280.30
 20
-462.120
 30
0.000000
  70
    32
  0
VERTEX
  8
図枠
  5
87A
 10
1280.39
 20
-462.137
 30
0.000000
  70
    32
  0
VERTEX
  8
図枠
  5
87B
 10
1280.47
 20
-462.155
 30
0.000000
  70
    32
  0
VERTEX
  8
図枠
  5
87C
 10
1280.56
 20
-462.173
 30
0.000000
  70
    32
  0
VERTEX
  8
図枠
  5
87D
 10
1280.64
 20
-462.191
 30
0.000000
  70
    32
  0
VERTEX
  8
図枠
  5
87E
 10
1280.73
 20
-462.208
 30
0.000000
  70
    32
  0
VERTEX
  8
図枠
  5
87F
 10
1280.81
 20
-462.226
 30
0.000000
  70
    32
  0
VERTEX
  8
図枠
  5
880
 10
1280.90
 20
-462.244
 30
0.000000
  70
    32
  0
VERTEX
  8
図枠
  5
881
 10
1280.98
 20
-462.261
 30
0.000000
  70
    32
  0
SEQEND
  8
図枠
  5
882
  0
POLYLINE
  8
図枠
  5
883
  66
     1
 10
0.000000
 20
0.000000
 30
0.000000
  70
     8
  0
VERTEX
  8
図枠
  5
884
 10
1253.98
 20
-449.194
 30
0.000000
  70
    32
  0
VERTEX
  8
図枠
  5
885
 10
1254.04
 20
-449.244
 30
0.000000
  70
    32
  0
VERTEX
  8
図枠
  5
886
 10
1254.09
 20
-449.294
 30
0.000000
  70
    32
  0
VERTEX
  8
図枠
  5
887
 10
1254.15
 20
-449.343
 30
0.000000
  70
    32
  0
VERTEX
  8
図枠
  5
888
 10
1254.20
 20
-449.393
 30
0.000000
  70
    32
  0
VERTEX
  8
図枠
  5
889
 10
1254.25
 20
-449.443
 30
0.000000
  70
    32
  0
VERTEX
  8
図枠
  5
88A
 10
1254.31
 20
-449.493
 30
0.000000
  70
    32
  0
VERTEX
  8
図枠
  5
88B
 10
1254.36
 20
-449.543
 30
0.000000
  70
    32
  0
VERTEX
  8
図枠
  5
88C
 10
1254.42
 20
-449.592
 30
0.000000
  70
    32
  0
VERTEX
  8
図枠
  5
88D
 10
1254.47
 20
-449.642
 30
0.000000
  70
    32
  0
VERTEX
  8
図枠
  5
88E
 10
1254.52
 20
-449.692
 30
0.000000
  70
    32
  0
VERTEX
  8
図枠
  5
88F
 10
1254.58
 20
-449.742
 30
0.000000
  70
    32
  0
VERTEX
  8
図枠
  5
890
 10
1254.63
 20
-449.791
 30
0.000000
  70
    32
  0
VERTEX
  8
図枠
  5
891
 10
1254.69
 20
-449.841
 30
0.000000
  70
    32
  0
VERTEX
  8
図枠
  5
892
 10
1254.74
 20
-449.891
 30
0.000000
  70
    32
  0
VERTEX
  8
図枠
  5
893
 10
1254.79
 20
-449.940
 30
0.000000
  70
    32
  0
VERTEX
  8
図枠
  5
894
 10
1254.85
 20
-449.990
 30
0.000000
  70
    32
  0
VERTEX
  8
図枠
  5
895
 10
1254.90
 20
-450.040
 30
0.000000
  70
    32
  0
VERTEX
  8
図枠
  5
896
 10
1254.96
 20
-450.089
 30
0.000000
  70
    32
  0
VERTEX
  8
図枠
  5
897
 10
1255.01
 20
-450.139
 30
0.000000
  70
    32
  0
VERTEX
  8
図枠
  5
898
 10
1255.07
 20
-450.189
 30
0.000000
  70
    32
  0
VERTEX
  8
図枠
  5
899
 10
1255.12
 20
-450.238
 30
0.000000
  70
    32
  0
VERTEX
  8
図枠
  5
89A
 10
1255.17
 20
-450.288
 30
0.000000
  70
    32
  0
VERTEX
  8
図枠
  5
89B
 10
1255.23
 20
-450.337
 30
0.000000
  70
    32
  0
VERTEX
  8
図枠
  5
89C
 10
1255.28
 20
-450.387
 30
0.000000
  70
    32
  0
VERTEX
  8
図枠
  5
89D
 10
1255.34
 20
-450.436
 30
0.000000
  70
    32
  0
VERTEX
  8
図枠
  5
89E
 10
1255.39
 20
-450.486
 30
0.000000
  70
    32
  0
VERTEX
  8
図枠
  5
89F
 10
1255.44
 20
-450.535
 30
0.000000
  70
    32
  0
VERTEX
  8
図枠
  5
8A0
 10
1255.50
 20
-450.585
 30
0.000000
  70
    32
  0
VERTEX
  8
図枠
  5
8A1
 10
1255.55
 20
-450.634
 30
0.000000
  70
    32
  0
VERTEX
  8
図枠
  5
8A2
 10
1255.61
 20
-450.684
 30
0.000000
  70
    32
  0
VERTEX
  8
図枠
  5
8A3
 10
1255.66
 20
-450.733
 30
0.000000
  70
    32
  0
VERTEX
  8
図枠
  5
8A4
 10
1255.72
 20
-450.782
 30
0.000000
  70
    32
  0
VERTEX
  8
図枠
  5
8A5
 10
1255.77
 20
-450.831
 30
0.000000
  70
    32
  0
VERTEX
  8
図枠
  5
8A6
 10
1255.82
 20
-450.881
 30
0.000000
  70
    32
  0
VERTEX
  8
図枠
  5
8A7
 10
1255.88
 20
-450.930
 30
0.000000
  70
    32
  0
VERTEX
  8
図枠
  5
8A8
 10
1255.93
 20
-450.979
 30
0.000000
  70
    32
  0
VERTEX
  8
図枠
  5
8A9
 10
1255.99
 20
-451.028
 30
0.000000
  70
    32
  0
VERTEX
  8
図枠
  5
8AA
 10
1256.04
 20
-451.077
 30
0.000000
  70
    32
  0
VERTEX
  8
図枠
  5
8AB
 10
1256.10
 20
-451.126
 30
0.000000
  70
    32
  0
VERTEX
  8
図枠
  5
8AC
 10
1256.15
 20
-451.175
 30
0.000000
  70
    32
  0
VERTEX
  8
図枠
  5
8AD
 10
1256.21
 20
-451.224
 30
0.000000
  70
    32
  0
VERTEX
  8
図枠
  5
8AE
 10
1256.26
 20
-451.273
 30
0.000000
  70
    32
  0
VERTEX
  8
図枠
  5
8AF
 10
1256.32
 20
-451.322
 30
0.000000
  70
    32
  0
VERTEX
  8
図枠
  5
8B0
 10
1256.37
 20
-451.371
 30
0.000000
  70
    32
  0
VERTEX
  8
図枠
  5
8B1
 10
1256.42
 20
-451.420
 30
0.000000
  70
    32
  0
VERTEX
  8
図枠
  5
8B2
 10
1256.48
 20
-451.468
 30
0.000000
  70
    32
  0
VERTEX
  8
図枠
  5
8B3
 10
1256.53
 20
-451.517
 30
0.000000
  70
    32
  0
VERTEX
  8
図枠
  5
8B4
 10
1256.59
 20
-451.566
 30
0.000000
  70
    32
  0
VERTEX
  8
図枠
  5
8B5
 10
1256.64
 20
-451.614
 30
0.000000
  70
    32
  0
VERTEX
  8
図枠
  5
8B6
 10
1256.70
 20
-451.663
 30
0.000000
  70
    32
  0
VERTEX
  8
図枠
  5
8B7
 10
1256.75
 20
-451.711
 30
0.000000
  70
    32
  0
VERTEX
  8
図枠
  5
8B8
 10
1256.81
 20
-451.760
 30
0.000000
  70
    32
  0
VERTEX
  8
図枠
  5
8B9
 10
1256.86
 20
-451.808
 30
0.000000
  70
    32
  0
VERTEX
  8
図枠
  5
8BA
 10
1256.92
 20
-451.856
 30
0.000000
  70
    32
  0
VERTEX
  8
図枠
  5
8BB
 10
1256.97
 20
-451.905
 30
0.000000
  70
    32
  0
VERTEX
  8
図枠
  5
8BC
 10
1257.03
 20
-451.953
 30
0.000000
  70
    32
  0
VERTEX
  8
図枠
  5
8BD
 10
1257.08
 20
-452.001
 30
0.000000
  70
    32
  0
VERTEX
  8
図枠
  5
8BE
 10
1257.14
 20
-452.049
 30
0.000000
  70
    32
  0
VERTEX
  8
図枠
  5
8BF
 10
1257.19
 20
-452.097
 30
0.000000
  70
    32
  0
VERTEX
  8
図枠
  5
8C0
 10
1257.25
 20
-452.145
 30
0.000000
  70
    32
  0
VERTEX
  8
図枠
  5
8C1
 10
1257.30
 20
-452.193
 30
0.000000
  70
    32
  0
VERTEX
  8
図枠
  5
8C2
 10
1257.36
 20
-452.241
 30
0.000000
  70
    32
  0
VERTEX
  8
図枠
  5
8C3
 10
1257.41
 20
-452.289
 30
0.000000
  70
    32
  0
VERTEX
  8
図枠
  5
8C4
 10
1257.47
 20
-452.336
 30
0.000000
  70
    32
  0
VERTEX
  8
図枠
  5
8C5
 10
1257.52
 20
-452.384
 30
0.000000
  70
    32
  0
VERTEX
  8
図枠
  5
8C6
 10
1257.58
 20
-452.432
 30
0.000000
  70
    32
  0
VERTEX
  8
図枠
  5
8C7
 10
1257.63
 20
-452.479
 30
0.000000
  70
    32
  0
VERTEX
  8
図枠
  5
8C8
 10
1257.69
 20
-452.527
 30
0.000000
  70
    32
  0
VERTEX
  8
図枠
  5
8C9
 10
1257.74
 20
-452.574
 30
0.000000
  70
    32
  0
VERTEX
  8
図枠
  5
8CA
 10
1257.80
 20
-452.621
 30
0.000000
  70
    32
  0
VERTEX
  8
図枠
  5
8CB
 10
1257.85
 20
-452.668
 30
0.000000
  70
    32
  0
VERTEX
  8
図枠
  5
8CC
 10
1257.91
 20
-452.716
 30
0.000000
  70
    32
  0
VERTEX
  8
図枠
  5
8CD
 10
1257.97
 20
-452.763
 30
0.000000
  70
    32
  0
VERTEX
  8
図枠
  5
8CE
 10
1258.02
 20
-452.810
 30
0.000000
  70
    32
  0
VERTEX
  8
図枠
  5
8CF
 10
1258.08
 20
-452.857
 30
0.000000
  70
    32
  0
VERTEX
  8
図枠
  5
8D0
 10
1258.13
 20
-452.904
 30
0.000000
  70
    32
  0
VERTEX
  8
図枠
  5
8D1
 10
1258.19
 20
-452.950
 30
0.000000
  70
    32
  0
VERTEX
  8
図枠
  5
8D2
 10
1258.24
 20
-452.997
 30
0.000000
  70
    32
  0
VERTEX
  8
図枠
  5
8D3
 10
1258.30
 20
-453.044
 30
0.000000
  70
    32
  0
VERTEX
  8
図枠
  5
8D4
 10
1258.35
 20
-453.090
 30
0.000000
  70
    32
  0
VERTEX
  8
図枠
  5
8D5
 10
1258.41
 20
-453.137
 30
0.000000
  70
    32
  0
VERTEX
  8
図枠
  5
8D6
 10
1258.47
 20
-453.183
 30
0.000000
  70
    32
  0
VERTEX
  8
図枠
  5
8D7
 10
1258.52
 20
-453.229
 30
0.000000
  70
    32
  0
VERTEX
  8
図枠
  5
8D8
 10
1258.58
 20
-453.275
 30
0.000000
  70
    32
  0
VERTEX
  8
図枠
  5
8D9
 10
1258.63
 20
-453.322
 30
0.000000
  70
    32
  0
VERTEX
  8
図枠
  5
8DA
 10
1258.69
 20
-453.368
 30
0.000000
  70
    32
  0
VERTEX
  8
図枠
  5
8DB
 10
1258.75
 20
-453.413
 30
0.000000
  70
    32
  0
VERTEX
  8
図枠
  5
8DC
 10
1258.80
 20
-453.459
 30
0.000000
  70
    32
  0
VERTEX
  8
図枠
  5
8DD
 10
1258.86
 20
-453.505
 30
0.000000
  70
    32
  0
VERTEX
  8
図枠
  5
8DE
 10
1258.92
 20
-453.551
 30
0.000000
  70
    32
  0
VERTEX
  8
図枠
  5
8DF
 10
1258.97
 20
-453.596
 30
0.000000
  70
    32
  0
VERTEX
  8
図枠
  5
8E0
 10
1259.03
 20
-453.642
 30
0.000000
  70
    32
  0
VERTEX
  8
図枠
  5
8E1
 10
1259.08
 20
-453.687
 30
0.000000
  70
    32
  0
VERTEX
  8
図枠
  5
8E2
 10
1259.14
 20
-453.732
 30
0.000000
  70
    32
  0
VERTEX
  8
図枠
  5
8E3
 10
1259.20
 20
-453.778
 30
0.000000
  70
    32
  0
VERTEX
  8
図枠
  5
8E4
 10
1259.25
 20
-453.823
 30
0.000000
  70
    32
  0
VERTEX
  8
図枠
  5
8E5
 10
1259.31
 20
-453.868
 30
0.000000
  70
    32
  0
VERTEX
  8
図枠
  5
8E6
 10
1259.37
 20
-453.912
 30
0.000000
  70
    32
  0
VERTEX
  8
図枠
  5
8E7
 10
1259.42
 20
-453.957
 30
0.000000
  70
    32
  0
VERTEX
  8
図枠
  5
8E8
 10
1259.48
 20
-454.002
 30
0.000000
  70
    32
  0
VERTEX
  8
図枠
  5
8E9
 10
1259.54
 20
-454.047
 30
0.000000
  70
    32
  0
VERTEX
  8
図枠
  5
8EA
 10
1259.59
 20
-454.091
 30
0.000000
  70
    32
  0
VERTEX
  8
図枠
  5
8EB
 10
1259.65
 20
-454.135
 30
0.000000
  70
    32
  0
VERTEX
  8
図枠
  5
8EC
 10
1259.71
 20
-454.180
 30
0.000000
  70
    32
  0
VERTEX
  8
図枠
  5
8ED
 10
1259.77
 20
-454.224
 30
0.000000
  70
    32
  0
VERTEX
  8
図枠
  5
8EE
 10
1259.82
 20
-454.268
 30
0.000000
  70
    32
  0
VERTEX
  8
図枠
  5
8EF
 10
1259.88
 20
-454.312
 30
0.000000
  70
    32
  0
VERTEX
  8
図枠
  5
8F0
 10
1259.94
 20
-454.356
 30
0.000000
  70
    32
  0
VERTEX
  8
図枠
  5
8F1
 10
1259.99
 20
-454.399
 30
0.000000
  70
    32
  0
VERTEX
  8
図枠
  5
8F2
 10
1260.05
 20
-454.443
 30
0.000000
  70
    32
  0
VERTEX
  8
図枠
  5
8F3
 10
1260.11
 20
-454.486
 30
0.000000
  70
    32
  0
VERTEX
  8
図枠
  5
8F4
 10
1260.17
 20
-454.530
 30
0.000000
  70
    32
  0
VERTEX
  8
図枠
  5
8F5
 10
1260.22
 20
-454.573
 30
0.000000
  70
    32
  0
VERTEX
  8
図枠
  5
8F6
 10
1260.28
 20
-454.616
 30
0.000000
  70
    32
  0
VERTEX
  8
図枠
  5
8F7
 10
1260.34
 20
-454.659
 30
0.000000
  70
    32
  0
VERTEX
  8
図枠
  5
8F8
 10
1260.40
 20
-454.702
 30
0.000000
  70
    32
  0
VERTEX
  8
図枠
  5
8F9
 10
1260.46
 20
-454.745
 30
0.000000
  70
    32
  0
VERTEX
  8
図枠
  5
8FA
 10
1260.51
 20
-454.787
 30
0.000000
  70
    32
  0
VERTEX
  8
図枠
  5
8FB
 10
1260.57
 20
-454.830
 30
0.000000
  70
    32
  0
VERTEX
  8
図枠
  5
8FC
 10
1260.63
 20
-454.872
 30
0.000000
  70
    32
  0
VERTEX
  8
図枠
  5
8FD
 10
1260.69
 20
-454.915
 30
0.000000
  70
    32
  0
VERTEX
  8
図枠
  5
8FE
 10
1260.75
 20
-454.957
 30
0.000000
  70
    32
  0
VERTEX
  8
図枠
  5
8FF
 10
1260.80
 20
-454.999
 30
0.000000
  70
    32
  0
VERTEX
  8
図枠
  5
900
 10
1260.86
 20
-455.041
 30
0.000000
  70
    32
  0
VERTEX
  8
図枠
  5
901
 10
1260.92
 20
-455.082
 30
0.000000
  70
    32
  0
VERTEX
  8
図枠
  5
902
 10
1260.98
 20
-455.124
 30
0.000000
  70
    32
  0
VERTEX
  8
図枠
  5
903
 10
1261.04
 20
-455.166
 30
0.000000
  70
    32
  0
VERTEX
  8
図枠
  5
904
 10
1261.10
 20
-455.207
 30
0.000000
  70
    32
  0
VERTEX
  8
図枠
  5
905
 10
1261.16
 20
-455.248
 30
0.000000
  70
    32
  0
VERTEX
  8
図枠
  5
906
 10
1261.21
 20
-455.289
 30
0.000000
  70
    32
  0
VERTEX
  8
図枠
  5
907
 10
1261.27
 20
-455.330
 30
0.000000
  70
    32
  0
VERTEX
  8
図枠
  5
908
 10
1261.33
 20
-455.371
 30
0.000000
  70
    32
  0
VERTEX
  8
図枠
  5
909
 10
1261.39
 20
-455.412
 30
0.000000
  70
    32
  0
VERTEX
  8
図枠
  5
90A
 10
1261.45
 20
-455.452
 30
0.000000
  70
    32
  0
VERTEX
  8
図枠
  5
90B
 10
1261.51
 20
-455.493
 30
0.000000
  70
    32
  0
VERTEX
  8
図枠
  5
90C
 10
1261.57
 20
-455.533
 30
0.000000
  70
    32
  0
VERTEX
  8
図枠
  5
90D
 10
1261.63
 20
-455.573
 30
0.000000
  70
    32
  0
VERTEX
  8
図枠
  5
90E
 10
1261.69
 20
-455.613
 30
0.000000
  70
    32
  0
VERTEX
  8
図枠
  5
90F
 10
1261.75
 20
-455.653
 30
0.000000
  70
    32
  0
VERTEX
  8
図枠
  5
910
 10
1261.81
 20
-455.693
 30
0.000000
  70
    32
  0
VERTEX
  8
図枠
  5
911
 10
1261.86
 20
-455.733
 30
0.000000
  70
    32
  0
VERTEX
  8
図枠
  5
912
 10
1261.92
 20
-455.772
 30
0.000000
  70
    32
  0
VERTEX
  8
図枠
  5
913
 10
1261.98
 20
-455.811
 30
0.000000
  70
    32
  0
VERTEX
  8
図枠
  5
914
 10
1262.04
 20
-455.850
 30
0.000000
  70
    32
  0
VERTEX
  8
図枠
  5
915
 10
1262.10
 20
-455.889
 30
0.000000
  70
    32
  0
VERTEX
  8
図枠
  5
916
 10
1262.16
 20
-455.928
 30
0.000000
  70
    32
  0
VERTEX
  8
図枠
  5
917
 10
1262.22
 20
-455.967
 30
0.000000
  70
    32
  0
VERTEX
  8
図枠
  5
918
 10
1262.28
 20
-456.005
 30
0.000000
  70
    32
  0
VERTEX
  8
図枠
  5
919
 10
1262.34
 20
-456.044
 30
0.000000
  70
    32
  0
VERTEX
  8
図枠
  5
91A
 10
1262.40
 20
-456.082
 30
0.000000
  70
    32
  0
VERTEX
  8
図枠
  5
91B
 10
1262.47
 20
-456.120
 30
0.000000
  70
    32
  0
VERTEX
  8
図枠
  5
91C
 10
1262.53
 20
-456.158
 30
0.000000
  70
    32
  0
VERTEX
  8
図枠
  5
91D
 10
1262.59
 20
-456.196
 30
0.000000
  70
    32
  0
VERTEX
  8
図枠
  5
91E
 10
1262.65
 20
-456.233
 30
0.000000
  70
    32
  0
VERTEX
  8
図枠
  5
91F
 10
1262.71
 20
-456.271
 30
0.000000
  70
    32
  0
VERTEX
  8
図枠
  5
920
 10
1262.77
 20
-456.308
 30
0.000000
  70
    32
  0
VERTEX
  8
図枠
  5
921
 10
1262.83
 20
-456.345
 30
0.000000
  70
    32
  0
VERTEX
  8
図枠
  5
922
 10
1262.89
 20
-456.382
 30
0.000000
  70
    32
  0
VERTEX
  8
図枠
  5
923
 10
1262.95
 20
-456.419
 30
0.000000
  70
    32
  0
SEQEND
  8
図枠
  5
924
  0
INSERT
  5
598
  8
0
  6
CONTINUOUS
  2
*U100
 10
0.0
 20
0.0
 30
0.0
  0
LINE
  5
599
  8
図枠
 10
1294.6781549535999
 20
-382.39131278579998
 30
0.0
 11
1294.6781549535999
 21
-389.59131278580003
 31
0.0
  0
LINE
  5
59A
  8
図枠
 10
1246.0023418833
 20
-447.2612938851999
 30
0.0
 11
1246.0023418833
 21
-451.7612938851999
 31
0.0
  0
LINE
  5
59B
  8
図枠
 10
1294.6781549535999
 20
-389.59131278580003
 30
0.0
 11
1309.0781549536
 21
-393.19131278579999
 31
0.0
  0
LINE
  5
59C
  8
図枠
 10
1253.9841600652001
 20
-441.2612938851999
 30
0.0
 11
1253.9841600652001
 21
-446.66129388519988
 31
0.0
  0
ARC
  5
59D
  8
図枠
 10
1232.5023418833
 20
-453.26129388520002
 30
0.0
 40
9.0
 50
270.0
 51
0.0
  0
LINE
  5
59E
  8
図枠
 10
1103.0204024185
 20
-369.49131278580001
 30
0.0
 11
1103.0204024185
 21
-468.49131278580001
 31
0.0
  0
INSERT
  5
59F
  8
0
  6
CONTINUOUS
  2
*U101
 10
0.0
 20
0.0
 30
0.0
  0
INSERT
  5
5A0
  8
0
  6
CONTINUOUS
  2
*U102
 10
0.0
 20
0.0
 30
0.0
  0
INSERT
  5
5A1
  8
0
  6
CONTINUOUS
  2
*U103
 10
0.0
 20
0.0
 30
0.0
  0
INSERT
  5
5A2
  8
0
  6
CONTINUOUS
  2
*U104
 10
0.0
 20
0.0
 30
0.0
  0
LINE
  5
5A3
  8
図枠
 10
1215.5204024185
 20
-402.49131278580001
 30
0.0
 11
1215.5204024185
 21
-435.49131278580001
 31
0.0
  0
LINE
  5
5A4
  8
図枠
 10
1103.0204024185
 20
-435.49131278580001
 30
0.0
 11
1538.0204024185
 21
-435.49131278580001
 31
0.0
  0
LINE
  5
5A5
  8
図枠
 10
1110.5204024185
 20
-418.99131278580001
 30
0.0
 11
1208.0204024185
 21
-418.99131278580001
 31
0.0
  0
LINE
  5
5A6
  8
図枠
 10
1223.0204024185
 20
-418.99131278580001
 30
0.0
 11
1320.5204024185
 21
-418.99131278580001
 31
0.0
  0
INSERT
  5
5A7
  8
0
  6
CONTINUOUS
  2
*U105
 10
0.0
 20
0.0
 30
0.0
  0
INSERT
  5
5A8
  8
0
  6
CONTINUOUS
  2
*U106
 10
0.0
 20
0.0
 30
0.0
  0
LINE
  5
5A9
  8
図枠
 10
1130.0204024185
 20
-354.49131278580001
 30
0.0
 11
1130.0204024185
 21
-339.49131278580001
 31
0.0
  0
LINE
  5
5AA
  8
図枠
 10
1103.0204024185
 20
-354.49131278580001
 30
0.0
 11
1103.0204024185
 21
-339.49131278580001
 31
0.0
  0
LINE
  5
5AB
  8
図枠
 10
1445.0204024185
 20
-354.49131278580001
 30
0.0
 11
1445.0204024185
 21
-339.49131278580001
 31
0.0
  0
LINE
  5
5AC
  8
図枠
 10
1418.0204024185
 20
-354.49131278580001
 30
0.0
 11
1418.0204024185
 21
-339.49131278580001
 31
0.0
  0
LINE
  5
5AD
  8
図枠
 10
1538.0204024185
 20
-339.49131278580001
 30
0.0
 11
1103.0204024185
 21
-339.49131278580001
 31
0.0
  0
LINE
  5
5AE
  8
図枠
 10
1103.0204024185
 20
-354.49131278580001
 30
0.0
 11
1538.0204024185
 21
-354.49131278580001
 31
0.0
  0
LINE
  5
5AF
  8
図枠
 10
1280.0204024185
 20
-354.49131278580001
 30
0.0
 11
1280.0204024185
 21
-339.49131278580001
 31
0.0
  0
INSERT
  5
5B0
  8
0
  6
CONTINUOUS
  2
*U107
 10
0.0
 20
0.0
 30
0.0
  0
INSERT
  5
5B1
  8
0
  6
CONTINUOUS
  2
*U108
 10
0.0
 20
0.0
 30
0.0
  0
CIRCLE
  5
5B2
  8
図枠
 10
1278.2204024185
 20
-385.99131278580001
 30
0.0
 40
3.6000000000000001
  0
LINE
  5
5B3
  8
図枠
 10
1294.6781549535999
 20
-389.59131278580003
 30
0.0
 11
1309.0781549536
 21
-393.19131278579999
 31
0.0
  0
LINE
  5
5B4
  8
図枠
 10
1294.6781549535999
 20
-382.39131278579998
 30
0.0
 11
1294.6781549535999
 21
-389.59131278580003
 31
0.0
  0
LINE
  5
5B5
  8
図枠
 10
1309.0781549536
 20
-378.79131278580002
 30
0.0
 11
1309.0781549536
 21
-393.19131278579999
 31
0.0
  0
LINE
  5
5B6
  8
図枠
  6
BORDER
 10
1278.2204024185
 20
-375.19131278579999
 30
0.0
 11
1278.2204024185
 21
-396.79131278580002
 31
0.0
  0
LINE
  5
5B7
  8
図枠
  6
BORDER
 10
1278.2204024185
 20
-375.19131278579999
 30
0.0
 11
1278.2204024185
 21
-396.79131278580002
 31
0.0
  0
LINE
  5
5B8
  8
図枠
 10
1309.0781549536
 20
-378.79131278580002
 30
0.0
 11
1309.0781549536
 21
-393.19131278579999
 31
0.0
  0
LINE
  5
5B9
  8
図枠
 10
1294.6781549535999
 20
-382.39131278579998
 30
0.0
 11
1294.6781549535999
 21
-389.59131278580003
 31
0.0
  0
LINE
  5
5BA
  8
図枠
 10
1294.6781549535999
 20
-389.59131278580003
 30
0.0
 11
1309.0781549536
 21
-393.19131278579999
 31
0.0
  0
LINE
  5
5BB
  8
図枠
 10
1294.6781549535999
 20
-382.39131278579998
 30
0.0
 11
1309.0781549536
 21
-378.79131278580002
 31
0.0
  0
CIRCLE
  5
5BC
  8
図枠
 10
1278.2204024185
 20
-385.99131278580001
 30
0.0
 40
7.2000000000000002
  0
CIRCLE
  5
5BD
  8
図枠
 10
1278.2204024185
 20
-385.99131278580001
 30
0.0
 40
3.6000000000000001
  0
CIRCLE
  5
5BE
  8
図枠
 10
1278.2204024185
 20
-385.99131278580001
 30
0.0
 40
7.2000000000000002
  0
LINE
  5
5BF
  8
図枠
 10
1294.6781549535999
 20
-382.39131278579998
 30
0.0
 11
1309.0781549536
 21
-378.79131278580002
 31
0.0
  0
ENDBLK
  5
5C0
  8
0
  0
BLOCK
  8
0
  2
BALLON2
 70
     0
 10
0.0
 20
0.0
 30
0.0
  3
BALLON2
  1

  0
INSERT
  5
5C4
  8
0
  6
CONTINUOUS
  2
*U109
 10
0.0
 20
0.0
 30
0.0
  0
CIRCLE
  5
5C5
  8
ﾚｲﾔ_1
 10
576.12412633220003
 20
2.6406155934000002
 30
0.0
 40
10.0
  0
LINE
  5
5C6
  8
寸法線
 10
592.79079299879993
 20
2.6406155934000002
 30
0.0
 11
586.12412633220003
 21
2.6406155934000002
 31
0.0
  0
LINE
  5
5C7
  8
寸法線
 10
627.46486328129993
 20
-48.927145897700008
 30
0.0
 11
592.79079299879993
 21
2.6406155934000002
 31
0.0
  0
SOLID
  5
5C8
  8
寸法線
 10
627.46486328129993
 20
-48.927145897700008
 30
0.0
 11
620.22527934480001
 21
-41.744637670999992
 31
0.0
 12
623.00095382649999
 22
-42.288357425400001
 32
0.0
 13
623.00095382649999
 23
-42.288357425400001
 33
0.0
  0
SOLID
  5
5C9
  8
寸法線
 10
623.00095382649999
 20
-42.288357425400001
 30
0.0
 11
623.54467358089994
 21
-39.5126829437
 31
0.0
 12
627.46486328129993
 22
-48.927145897700008
 32
0.0
 13
627.46486328129993
 23
-48.927145897700008
 33
0.0
  0
ENDBLK
  5
5CA
  8
0
  0
BLOCK
  8
0
  2
*D53
 70
     1
 10
0.0
 20
0.0
 30
0.0
  3
*D53
  1

  0
TEXT
  5
5CD
  8
0
 62
     0
 10
907.39745258330004
 20
-55.922085873900002
 30
0.0
 40
9.8954164504999991
  1
6
 50
90.0
  0
LINE
  5
5CE
  8
0
 62
     0
 10
869.2650976563001
 20
-56.011669270799999
 30
0.0
 11
911.14370254520009
 21
-56.011669270799999
 31
0.0
  0
LINE
  5
5CF
  8
0
 62
     0
 10
869.2650976563001
 20
-50.011669270799992
 30
0.0
 11
911.14370254520009
 21
-50.011669270799992
 31
0.0
  0
LINE
  5
5D0
  8
0
 62
     0
 10
910.14370254519997
 20
-56.011669270799999
 30
0.0
 11
910.14370254519997
 21
-56.011669270799999
 31
0.0
  0
LINE
  5
5D1
  8
0
 62
     0
 10
910.14370254519997
 20
-56.011669270799999
 30
0.0
 11
910.14370254519997
 21
-50.011669270799992
 31
0.0
  0
LINE
  5
5D2
  8
0
 62
     0
 10
910.14370254519997
 20
-50.011669270799992
 30
0.0
 11
910.14370254519997
 21
-56.011669270799999
 31
0.0
  0
LINE
  5
5D3
  8
0
 62
     0
 10
910.14370254519997
 20
-50.011669270799992
 30
0.0
 11
910.14370254519997
 21
-50.011669270799992
 31
0.0
  0
LINE
  5
5D4
  8
0
 62
     0
 10
910.14370254519997
 20
-50.011669270799992
 30
0.0
 11
910.14370254519997
 21
-45.011669270799992
 31
0.0
  0
SOLID
  5
5D5
  8
0
 62
     0
 10
910.14370254519997
 20
-50.011669270799992
 30
0.0
 11
907.89370254520009
 21
-41.011669270799999
 31
0.0
 12
912.39370254520009
 22
-41.011669270799999
 32
0.0
 13
910.14370254519997
 23
-43.261669270799999
 33
0.0
  0
LINE
  5
5D6
  8
0
 62
     0
 10
910.14370254519997
 20
-56.011669270799999
 30
0.0
 11
910.14370254519997
 21
-61.011669270799999
 31
0.0
  0
SOLID
  5
5D7
  8
0
 62
     0
 10
910.14370254519997
 20
-56.011669270799999
 30
0.0
 11
912.39370254520009
 21
-65.011669270799985
 31
0.0
 12
907.89370254520009
 22
-65.011669270799985
 32
0.0
 13
910.14370254519997
 23
-62.761669270799999
 33
0.0
  0
ENDBLK
  5
5D8
  8
0
  0
BLOCK
  8
0
  2
*D54
 70
     1
 10
0.0
 20
0.0
 30
0.0
  3
*D54
  1

  0
TEXT
  5
5E9
  8
0
 62
     0
 10
618.39954641489987
 20
-392.28036479069999
 30
0.0
 40
9.8954164504999991
  1
58
  0
LINE
  5
5EA
  8
0
 62
     0
 10
595.22037962110005
 20
-352.52661475259998
 30
0.0
 11
595.22037962110005
 21
-396.0266147526001
 31
0.0
  0
LINE
  5
5EB
  8
0
 62
     0
 10
653.22037962110005
 20
-352.52661475259998
 30
0.0
 11
653.22037962110005
 21
-396.0266147526001
 31
0.0
  0
LINE
  5
5EC
  8
0
 62
     0
 10
595.22037962110005
 20
-395.02661475259998
 30
0.0
 11
635.86204603340002
 21
-395.02661475259998
 31
0.0
  0
LINE
  5
5ED
  8
0
 62
     0
 10
595.22037962110005
 20
-395.02661475259998
 30
0.0
 11
612.57871320870004
 21
-395.02661475259998
 31
0.0
  0
LINE
  5
5EE
  8
0
 62
     0
 10
653.22037962110005
 20
-395.02661475259998
 30
0.0
 11
635.86204603340002
 21
-395.02661475259998
 31
0.0
  0
LINE
  5
5EF
  8
0
 62
     0
 10
653.22037962110005
 20
-395.02661475259998
 30
0.0
 11
612.57871320870004
 21
-395.02661475259998
 31
0.0
  0
LINE
  5
5F0
  8
0
 62
     0
 10
653.22037962110005
 20
-395.02661475259998
 30
0.0
 11
648.22037962110005
 21
-395.02661475259998
 31
0.0
  0
SOLID
  5
5F1
  8
0
 62
     0
 10
653.22037962110005
 20
-395.02661475259998
 30
0.0
 11
644.22037962110005
 21
-397.27661475259998
 31
0.0
 12
644.22037962110005
 22
-392.77661475259998
 32
0.0
 13
646.47037962110005
 23
-395.02661475259998
 33
0.0
  0
LINE
  5
5F2
  8
0
 62
     0
 10
595.22037962110005
 20
-395.02661475259998
 30
0.0
 11
600.22037962110005
 21
-395.02661475259998
 31
0.0
  0
SOLID
  5
5F3
  8
0
 62
     0
 10
595.22037962110005
 20
-395.02661475259998
 30
0.0
 11
604.22037962110005
 21
-392.77661475259998
 31
0.0
 12
604.22037962110005
 22
-397.27661475259998
 32
0.0
 13
601.97037962110005
 23
-395.02661475259998
 33
0.0
  0
ENDBLK
  5
5F4
  8
0
  0
BLOCK
  8
0
  2
*D55
 70
     1
 10
0.0
 20
0.0
 30
0.0
  3
*D55
  1

  0
TEXT
  5
5F8
  8
0
 62
     0
 10
615.48912981180001
 20
-107.28036479070001
 30
0.0
 40
9.8954164504999991
  1
229
  0
LINE
  5
5F9
  8
0
 62
     0
 10
738.72037962110005
 20
-138.02661475260001
 30
0.0
 11
738.72037962110005
 21
-109.0266147526
 31
0.0
  0
LINE
  5
5FA
  8
0
 62
     0
 10
509.72037962109988
 20
-138.02661475260001
 30
0.0
 11
509.72037962109988
 21
-109.0266147526
 31
0.0
  0
LINE
  5
5FB
  8
0
 62
     0
 10
738.72037962110005
 20
-110.0266147526
 30
0.0
 11
638.77246263649999
 21
-110.0266147526
 31
0.0
  0
LINE
  5
5FC
  8
0
 62
     0
 10
738.72037962110005
 20
-110.0266147526
 30
0.0
 11
609.66829660559995
 21
-110.0266147526
 31
0.0
  0
LINE
  5
5FD
  8
0
 62
     0
 10
509.72037962109988
 20
-110.0266147526
 30
0.0
 11
638.77246263649999
 21
-110.0266147526
 31
0.0
  0
LINE
  5
5FE
  8
0
 62
     0
 10
509.72037962109988
 20
-110.0266147526
 30
0.0
 11
609.66829660559995
 21
-110.0266147526
 31
0.0
  0
LINE
  5
5FF
  8
0
 62
     0
 10
509.72037962109988
 20
-110.0266147526
 30
0.0
 11
514.72037962110005
 21
-110.0266147526
 31
0.0
  0
SOLID
  5
600
  8
0
 62
     0
 10
509.72037962109988
 20
-110.0266147526
 30
0.0
 11
518.72037962110005
 21
-107.7766147526
 31
0.0
 12
518.72037962110005
 22
-112.2766147526
 32
0.0
 13
516.47037962110005
 23
-110.0266147526
 33
0.0
  0
LINE
  5
601
  8
0
 62
     0
 10
738.72037962110005
 20
-110.0266147526
 30
0.0
 11
733.72037962110005
 21
-110.0266147526
 31
0.0
  0
SOLID
  5
602
  8
0
 62
     0
 10
738.72037962110005
 20
-110.0266147526
 30
0.0
 11
729.72037962110005
 21
-112.2766147526
 31
0.0
 12
729.72037962110005
 22
-107.7766147526
 32
0.0
 13
731.97037962110005
 23
-110.0266147526
 33
0.0
  0
ENDBLK
  5
603
  8
0
  0
BLOCK
  8
0
  2
*U56
 70
     1
 10
0.0
 20
0.0
 30
0.0
  3
*U56
  1

  0
TEXT
  5
626
  8
改訂
  6
CONTINUOUS
 10
1280.204276507166
 20
345.6674373358
 30
0.0
 40
8.0962498784000001
  1
H**.**.**
  0
ENDBLK
  5
628
  8
0
  0
BLOCK
  8
0
  2
*U57
 70
     1
 10
0.0
 20
0.0
 30
0.0
  3
*U57
  1

  0
TEXT
  5
62A
  8
改訂
  6
CONTINUOUS
 10
1265.05101392543
 20
343.85426053390012
 30
0.0
 40
8.0962499027000003
  1
1
  0
ENDBLK
  5
62C
  8
0
  0
BLOCK
  8
0
  2
*U58
 70
     1
 10
0.0
 20
0.0
 30
0.0
  3
*U58
  1

  0
TEXT
  5
62E
  8
改訂
  6
CONTINUOUS
 10
1345.154819531255
 20
345.6749373358
 30
0.0
 40
8.0962498784000001
  1
**********************
  0
ENDBLK
  5
630
  8
0
  0
BLOCK
  8
0
  2
*U59
 70
     1
 10
0.0
 20
0.0
 30
0.0
  3
*U59
  1

  0
TEXT
  5
632
  8
改訂
  6
CONTINUOUS
 10
1483.855611947012
 20
345.6674373358
 30
0.0
 40
8.0962498784000001
  1
＊＊
  0
ENDBLK
  5
634
  8
0
  0
BLOCK
  8
0
  2
*U60
 70
     1
 10
0.0
 20
0.0
 30
0.0
  3
*U60
  1

  0
TEXT
  5
636
  8
ﾚｲﾔ_1
  6
CONTINUOUS
 10
989.29094902439988
 20
-18.950091879190861
 30
0.0
 40
8.9958330630999992
  1
（浅型）
  0
ENDBLK
  5
638
  8
0
  0
BLOCK
  8
0
  2
*U61
 70
     1
 10
0.0
 20
0.0
 30
0.0
  3
*U61
  1

  0
TEXT
  5
63A
  8
ﾚｲﾔ_1
  6
CONTINUOUS
 10
1106.3212223953001
 20
-18.767435370295431
 30
0.0
 40
8.9958330630999992
  1
（深型）
  0
ENDBLK
  5
63C
  8
0
  0
BLOCK
  8
0
  2
*U62
 70
     1
 10
0.0
 20
0.0
 30
0.0
  3
*U62
  1

  0
TEXT
  5
63E
  8
図枠
  6
CONTINUOUS
 10
1113.643562403397
 20
-320.6951458489001
 30
0.0
 40
8.9958330630999992
  1
2
  0
ENDBLK
  5
640
  8
0
  0
BLOCK
  8
0
  2
*U63
 70
     1
 10
0.0
 20
0.0
 30
0.0
  3
*U63
  1

  0
TEXT
  5
642
  8
図枠
  6
CONTINUOUS
 10
1123.099537882598
 20
-398.03755824910002
 30
0.0
 40
8.9958330630999992
  1
H09.07
  0
ENDBLK
  5
644
  8
0
  0
BLOCK
  8
0
  2
*U64
 70
     1
 10
0.0
 20
0.0
 30
0.0
  3
*U64
  1

  0
TEXT
  5
646
  8
図枠
  6
CONTINUOUS
 10
1157.648660109016
 20
-415.0183616174624
 30
0.0
 40
8.9958330630999992
  1
白須賀
  0
ENDBLK
  5
648
  8
0
  0
BLOCK
  8
0
  2
*U65
 70
     1
 10
0.0
 20
0.0
 30
0.0
  3
*U65
  1

  0
TEXT
  5
64A
  8
図枠
  6
CONTINUOUS
 10
1157.648660109016
 20
-431.5183616174624
 30
0.0
 40
8.9958330630999992
  1
白須賀
  0
ENDBLK
  5
64C
  8
0
  0
BLOCK
  8
0
  2
*U66
 70
     1
 10
0.0
 20
0.0
 30
0.0
  3
*U66
  1

  0
TEXT
  5
64E
  8
図枠
  6
CONTINUOUS
 10
1362.005034162981
 20
-391.9300296773589
 30
0.0
 40
11.694583225300001
  1
ハイとーる(浅型 ・深型 )
  0
ENDBLK
  5
650
  8
0
  0
BLOCK
  8
0
  2
*U67
 70
     1
 10
0.0
 20
0.0
 30
0.0
  3
*U67
  1

  0
TEXT
  5
652
  8
図枠
  6
CONTINUOUS
 10
1414.42288689364
 20
-424.93002967735879
 30
0.0
 40
11.694583225300001
  1
FM25-25(D)
  0
ENDBLK
  5
654
  8
0
  0
BLOCK
  8
0
  2
*U68
 70
     1
 10
0.0
 20
0.0
 30
0.0
  3
*U68
  1

  0
TEXT
  5
656
  8
図枠
  6
CONTINUOUS
 10
1420.77476712261
 20
-457.33639601110002
 30
0.0
 40
11.694583225300001
  1
SHF00043
  0
ENDBLK
  5
658
  8
0
  0
BLOCK
  8
0
  2
*U69
 70
     1
 10
0.0
 20
0.0
 30
0.0
  3
*U69
  1

  0
TEXT
  5
65A
  8
図枠
  6
CONTINUOUS
 10
1316.987017170964
 20
-335.6951458489001
 30
0.0
 40
8.9958330630999992
  1
SUS304 0.8t
  0
ENDBLK
  5
65C
  8
0
  0
BLOCK
  8
0
  2
*U70
 70
     1
 10
0.0
 20
0.0
 30
0.0
  3
*U70
  1

  0
TEXT
  5
65E
  8
図枠
  6
CONTINUOUS
 10
1428.643562403397
 20
-335.6951458489001
 30
0.0
 40
8.9958330630999992
  1
2
  0
ENDBLK
  5
660
  8
0
  0
BLOCK
  8
0
  2
*U71
 70
     1
 10
0.0
 20
0.0
 30
0.0
  3
*U71
  1

  0
TEXT
  5
662
  8
図枠
  6
CONTINUOUS
 10
1429.1686998664709
 20
-305.69514584889998
 30
0.0
 40
8.9958330630999992
  1
1
  0
ENDBLK
  5
664
  8
0
  0
BLOCK
  8
0
  2
*U72
 70
     1
 10
0.0
 20
0.0
 30
0.0
  3
*U72
  1

  0
TEXT
  5
666
  8
図枠
  6
CONTINUOUS
 10
1316.987017170964
 20
-305.69514584889998
 30
0.0
 40
8.9958330630999992
  1
SUS304 2.0t
  0
ENDBLK
  5
668
  8
0
  0
BLOCK
  8
0
  2
*U73
 70
     1
 10
0.0
 20
0.0
 30
0.0
  3
*U73
  1

  0
TEXT
  5
66A
  8
図枠
  6
CONTINUOUS
 10
1428.643562403397
 20
-320.6951458489001
 30
0.0
 40
8.9958330630999992
  1
2
  0
ENDBLK
  5
66C
  8
0
  0
BLOCK
  8
0
  2
*U74
 70
     1
 10
0.0
 20
0.0
 30
0.0
  3
*U74
  1

  0
TEXT
  5
66E
  8
図枠
  6
CONTINUOUS
 10
1316.987017170964
 20
-320.6951458489001
 30
0.0
 40
8.9958330630999992
  1
SUS304 0.8t
  0
ENDBLK
  5
670
  8
0
  0
BLOCK
  8
0
  2
*U75
 70
     1
 10
0.0
 20
0.0
 30
0.0
  3
*U75
  1

  0
TEXT
  5
672
  8
図枠
  6
CONTINUOUS
 10
1203.602065213073
 20
-398.03755824910002
 30
0.0
 40
8.9958330630999992
  1
1：3
  0
ENDBLK
  5
674
  8
0
  0
BLOCK
  8
0
  2
*U76
 70
     1
 10
0.0
 20
0.0
 30
0.0
  3
*U76
  1

  0
TEXT
  5
676
  8
図枠
  6
CONTINUOUS
 10
1113.689226530621
 20
-305.69514584889998
 30
0.0
 40
8.9958330630999992
  1
3
  0
ENDBLK
  5
678
  8
0
  0
BLOCK
  8
0
  2
*U77
 70
     1
 10
0.0
 20
0.0
 30
0.0
  3
*U77
  1

  0
TEXT
  5
67A
  8
図枠
  6
CONTINUOUS
 10
1114.1686998664709
 20
-335.6951458489001
 30
0.0
 40
8.9958330630999992
  1
1
  0
ENDBLK
  5
67C
  8
0
  0
BLOCK
  8
0
  2
*U78
 70
     1
 10
0.0
 20
0.0
 30
0.0
  3
*U78
  1

  0
TEXT
  5
67E
  8
ﾚｲﾔ_1
  6
CONTINUOUS
 10
745.59710990263352
 20
-1.433967650899997
 30
0.0
 40
9.8954164504999991
  1
3
  0
ENDBLK
  5
680
  8
0
  0
BLOCK
  8
0
  2
*U79
 70
     1
 10
0.0
 20
0.0
 30
0.0
  3
*U79
  1

  0
TEXT
  5
682
  8
ﾚｲﾔ_1
  6
CONTINUOUS
 10
825.89074337479985
 20
-388.15387652819089
 30
0.0
 40
8.9958330630999992
  1
（浅型）
  0
ENDBLK
  5
684
  8
0
  0
BLOCK
  8
0
  2
*U80
 70
     1
 10
0.0
 20
0.0
 30
0.0
  3
*U80
  1

  0
TEXT
  5
686
  8
ﾚｲﾔ_1
  6
CONTINUOUS
 10
887.60026081119986
 20
-387.97122001929552
 30
0.0
 40
8.9958330630999992
  1
（深型）
  0
ENDBLK
  5
688
  8
0
  0
BLOCK
  8
0
  2
*U81
 70
     1
 10
0.0
 20
0.0
 30
0.0
  3
*U81
  1

  0
TEXT
  5
68A
  8
ﾚｲﾔ_1
  6
CONTINUOUS
 10
825.89074337479985
 20
-388.15387652819089
 30
0.0
 40
8.9958330630999992
  1
（浅型）
  0
ENDBLK
  5
68C
  8
0
  0
BLOCK
  8
0
  2
*U82
 70
     1
 10
0.0
 20
0.0
 30
0.0
  3
*U82
  1

  0
TEXT
  5
68E
  8
ﾚｲﾔ_1
  6
CONTINUOUS
 10
561.56344647842673
 20
-125.4031826782147
 30
0.0
 40
8.9958330630999992
  1
36-小判穴
  0
ENDBLK
  5
690
  8
0
  0
BLOCK
  8
0
  2
*U83
 70
     1
 10
0.0
 20
0.0
 30
0.0
  3
*U83
  1

  0
TEXT
  5
692
  8
ﾚｲﾔ_1
  6
CONTINUOUS
 10
627.46563073706193
 20
-1.433967650899997
 30
0.0
 40
9.8954164504999991
  1
1
  0
ENDBLK
  5
694
  8
0
  0
BLOCK
  8
0
  2
*U84
 70
     1
 10
0.0
 20
0.0
 30
0.0
  3
*U84
  1

  0
TEXT
  5
696
  8
図枠
  6
CONTINUOUS
 10
1185.1565070761219
 20
-336.19745124836248
 30
0.0
 40
8.9958330630999992
  1
本   体
  0
ENDBLK
  5
698
  8
0
  0
BLOCK
  8
0
  2
*U85
 70
     1
 10
0.0
 20
0.0
 30
0.0
  3
*U85
  1

  0
TEXT
  5
69A
  8
図枠
  6
CONTINUOUS
 10
1272.6145229791041
 20
-414.97269749023849
 30
0.0
 40
8.9958330630999992
  1
柳 原
  0
ENDBLK
  5
69C
  8
0
  0
BLOCK
  8
0
  2
*U86
 70
     1
 10
0.0
 20
0.0
 30
0.0
  3
*U86
  1

  0
TEXT
  5
69E
  8
図枠
  6
CONTINUOUS
 10
1272.6145229791041
 20
-431.47269749023849
 30
0.0
 40
8.9958330630999992
  1
柳 原
  0
ENDBLK
  5
6A0
  8
0
  0
BLOCK
  8
0
  2
*U87
 70
     1
 10
0.0
 20
0.0
 30
0.0
  3
*U87
  1

  0
TEXT
  5
6A2
  8
図枠
  6
CONTINUOUS
 10
1183.3071099235549
 20
-306.15178712113863
 30
0.0
 40
8.9958330630999992
  1
蓋(目皿)
  0
ENDBLK
  5
6A4
  8
0
  0
BLOCK
  8
0
  2
*U88
 70
     1
 10
0.0
 20
0.0
 30
0.0
  3
*U88
  1

  0
TEXT
  5
6A6
  8
図枠
  6
CONTINUOUS
 10
1200.0430125510991
 20
-320.6951458489001
 30
0.0
 40
8.9958330630999992
  1
耳
  0
ENDBLK
  5
6A8
  8
0
  0
BLOCK
  8
0
  2
*U89
 70
     1
 10
0.0
 20
0.0
 30
0.0
  3
*U89
  1

  0
TEXT
  5
6AA
  8
図枠
  6
CONTINUOUS
 10
1366.8133153988531
 20
360.25646018461219
 30
0.0
 40
8.0962498784000001
  1
改　訂　内　容
  0
ENDBLK
  5
6AC
  8
0
  0
BLOCK
  8
0
  2
*U90
 70
     1
 10
0.0
 20
0.0
 30
0.0
  3
*U90
  1

  0
TEXT
  5
6AE
  8
図枠
  6
CONTINUOUS
 10
1288.5882103913971
 20
360.3386556148497
 30
0.0
 40
8.0962498784000001
  1
改訂日
  0
ENDBLK
  5
6B0
  8
0
  0
BLOCK
  8
0
  2
*U91
 70
     1
 10
0.0
 20
0.0
 30
0.0
  3
*U91
  1

  0
TEXT
  5
6B2
  8
図枠
  6
CONTINUOUS
 10
1257.8898156417199
 20
360.42085104508732
 30
0.0
 40
8.0962498784000001
  1
副番
  0
ENDBLK
  5
6B4
  8
0
  0
BLOCK
  8
0
  2
*U92
 70
     1
 10
0.0
 20
0.0
 30
0.0
  3
*U92
  1

  0
TEXT
  5
6B6
  8
図枠
  6
CONTINUOUS
 10
1119.3399132288
 20
-459.56346227521323
 30
0.0
 40
16.1924997568
  1
株式会社
  0
ENDBLK
  5
6B8
  8
0
  0
BLOCK
  8
0
  2
*U93
 70
     1
 10
0.0
 20
0.0
 30
0.0
  3
*U93
  1

  0
TEXT
  5
6BA
  8
図枠
  6
CONTINUOUS
 10
1507.896443254788
 20
360.21536246949341
 30
0.0
 40
8.0962498784000001
  1
検認者
  0
ENDBLK
  5
6BC
  8
0
  0
BLOCK
  8
0
  2
*U94
 70
     1
 10
0.0
 20
0.0
 30
0.0
  3
*U94
  1

  0
TEXT
  5
6BE
  8
図枠
  6
CONTINUOUS
 10
1332.115675678835
 20
-446.56113061224318
 30
0.0
 40
8.9958330630999992
  1
図 番
  0
ENDBLK
  5
6C0
  8
0
  0
BLOCK
  8
0
  2
*U95
 70
     1
 10
0.0
 20
0.0
 30
0.0
  3
*U95
  1

  0
TEXT
  5
6C2
  8
図枠
  6
CONTINUOUS
 10
1328.9876829640009
 20
-380.74378712113861
 30
0.0
 40
8.9958330630999992
  1
製品名
  0
ENDBLK
  5
6C4
  8
0
  0
BLOCK
  8
0
  2
*U96
 70
     1
 10
0.0
 20
0.0
 30
0.0
  3
*U96
  1

  0
TEXT
  5
6C6
  8
図枠
  6
CONTINUOUS
 10
1329.2388356637321
 20
-413.65245886669078
 30
0.0
 40
8.9958330630999992
  1
図面名
  0
ENDBLK
  5
6C8
  8
0
  0
BLOCK
  8
0
  2
*U97
 70
     1
 10
0.0
 20
0.0
 30
0.0
  3
*U97
  1

  0
TEXT
  5
6CA
  8
図枠
  6
CONTINUOUS
 10
1118.6244534146599
 20
-381.69871272689539
 30
0.0
 40
8.9958330630999992
  1
日　　付
  0
ENDBLK
  5
6CC
  8
0
  0
BLOCK
  8
0
  2
*U98
 70
     1
 10
0.0
 20
0.0
 30
0.0
  3
*U98
  1

  0
TEXT
  5
6CE
  8
図枠
  6
CONTINUOUS
 10
1192.665506742959
 20
-381.9726974902386
 30
0.0
 40
8.9958330630999992
  1
尺　　度
  0
ENDBLK
  5
6D0
  8
0
  0
BLOCK
  8
0
  2
*U99
 70
     1
 10
0.0
 20
0.0
 30
0.0
  3
*U99
  1

  0
TEXT
  5
6D2
  8
図枠
  6
CONTINUOUS
 10
1478.0197364001449
 20
360.25646018461219
 30
0.0
 40
8.0962498784000001
  1
改訂者
  0
ENDBLK
  5
6D4
  8
0
  0
BLOCK
  8
0
  2
*U100
 70
     1
 10
0.0
 20
0.0
 30
0.0
  3
*U100
  1

  0
TEXT
  5
6D6
  8
図枠
  6
CONTINUOUS
 10
1105.561011884774
 20
-350.96913061224319
 30
0.0
 40
8.9958330630999992
  1
品番
  0
ENDBLK
  5
6D8
  8
0
  0
BLOCK
  8
0
  2
*U101
 70
     1
 10
0.0
 20
0.0
 30
0.0
  3
*U101
  1

  0
TEXT
  5
6DA
  8
図枠
  6
CONTINUOUS
 10
1103.0204024185
 20
-431.47269749023849
 30
0.0
 40
8.9958330630999992
  1
 製図
  0
ENDBLK
  5
6DC
  8
0
  0
BLOCK
  8
0
  2
*U102
 70
     1
 10
0.0
 20
0.0
 30
0.0
  3
*U102
  1

  0
TEXT
  5
6DE
  8
図枠
  6
CONTINUOUS
 10
1103.0204024185
 20
-414.88136923579083
 30
0.0
 40
8.9958330630999992
  1
 設計
  0
ENDBLK
  5
6E0
  8
0
  0
BLOCK
  8
0
  2
*U103
 70
     1
 10
0.0
 20
0.0
 30
0.0
  3
*U103
  1

  0
TEXT
  5
6E2
  8
図枠
  6
CONTINUOUS
 10
1215.5204024185
 20
-431.5183616174624
 30
0.0
 40
8.9958330630999992
  1
 検図
  0
ENDBLK
  5
6E4
  8
0
  0
BLOCK
  8
0
  2
*U104
 70
     1
 10
0.0
 20
0.0
 30
0.0
  3
*U104
  1

  0
TEXT
  5
6E6
  8
図枠
  6
CONTINUOUS
 10
1215.5204024185
 20
-414.92703336301469
 30
0.0
 40
8.9958330630999992
  1
 照査
  0
ENDBLK
  5
6E8
  8
0
  0
BLOCK
  8
0
  2
*U105
 70
     1
 10
0.0
 20
0.0
 30
0.0
  3
*U105
  1

  0
TEXT
  5
6EA
  8
図枠
  6
CONTINUOUS
 10
1420.2641950578191
 20
-351.15178712113863
 30
0.0
 40
8.9958330630999992
  1
数量
  0
ENDBLK
  5
6EC
  8
0
  0
BLOCK
  8
0
  2
*U106
 70
     1
 10
0.0
 20
0.0
 30
0.0
  3
*U106
  1

  0
TEXT
  5
6EE
  8
図枠
  6
CONTINUOUS
 10
1463.802277193618
 20
-351.2887795028102
 30
0.0
 40
8.9958330630999992
  1
備　　　考
  0
ENDBLK
  5
6F0
  8
0
  0
BLOCK
  8
0
  2
*U107
 70
     1
 10
0.0
 20
0.0
 30
0.0
  3
*U107
  1

  0
TEXT
  5
6F2
  8
図枠
  6
CONTINUOUS
 10
1320.2291702038569
 20
-351.01479473946711
 30
0.0
 40
8.9958330630999992
  1
材　　　質
  0
ENDBLK
  5
6F4
  8
0
  0
BLOCK
  8
0
  2
*U108
 70
     1
 10
0.0
 20
0.0
 30
0.0
  3
*U108
  1

  0
TEXT
  5
6F6
  8
図枠
  6
CONTINUOUS
 10
1176.571651158036
 20
-351.06045886669091
 30
0.0
 40
8.9958330630999992
  1
品　　　名
  0
ENDBLK
  5
6F8
  8
0
  0
BLOCK
  8
0
  2
*U109
 70
     1
 10
0.0
 20
0.0
 30
0.0
  3
*U109
  1

  0
TEXT
  5
6FA
  8
ﾚｲﾔ_1
  6
CONTINUOUS
 10
572.48279828673355
 20
-1.433967650899997
 30
0.0
 40
9.8954164504999991
  1
2
  0
ENDBLK
  5
6FC
  8
0
  0
ENDSEC
  0
SECTION
  2
ENTITIES
  0
LINE
  5
2F
  8
ﾚｲﾔ_1
 62
     5
 10
1116.3251027644001
 20
272.22042708330002
 30
0.0
 11
1116.3251027644001
 21
271.72042708330002
 31
0.0
  0
ARC
  5
30
  8
ﾚｲﾔ_1
 62
     5
 10
1095.3251027644001
 20
269.72042708330002
 30
0.0
 40
2.0
 50
90.0
 51
180.0
  0
LINE
  5
31
  8
ﾚｲﾔ_1
 62
     5
 10
1095.3251027644001
 20
271.72042708330002
 30
0.0
 11
1116.3251027644001
 21
271.72042708330002
 31
0.0
  0
LINE
  5
32
  8
ﾚｲﾔ_1
 62
     5
 10
1095.3251027644001
 20
269.72042708330002
 30
0.0
 11
1116.3251027644001
 21
269.72042708330002
 31
0.0
  0
INSERT
  5
34
  8
ﾚｲﾔ_1
 62
     5
  2
CLUMP0
 10
0.0
 20
0.0
 30
0.0
  0
LINE
  5
50
  8
ﾚｲﾔ_1
 62
     5
 10
986.89287620189987
 20
271.72042708330002
 30
0.0
 11
998.89287620189998
 21
271.72042708330002
 31
0.0
  0
ARC
  5
51
  8
ﾚｲﾔ_1
 62
     5
 10
986.89287620189987
 20
269.72042708330002
 30
0.0
 40
2.0
 50
90.0
 51
180.0000386554
  0
LINE
  5
52
  8
ﾚｲﾔ_1
 62
     5
 10
986.89287620189987
 20
269.72042708330002
 30
0.0
 11
998.89287620189998
 21
269.72042708330002
 31
0.0
  0
LINE
  5
53
  8
ﾚｲﾔ_1
 62
     5
 10
987.39287620189998
 20
269.72042708330002
 30
0.0
 11
986.89287620189987
 21
269.72042708330002
 31
0.0
  0
INSERT
  5
55
  8
ﾚｲﾔ_1
  6
BORDER
 62
     5
  2
CLUMP1
 10
0.0
 20
0.0
 30
0.0
  0
LINE
  5
72
  8
ﾚｲﾔ_1
 62
     5
 10
1116.3251027644001
 20
270.22042708330002
 30
0.0
 11
1116.3251027644001
 21
267.22042708330002
 31
0.0
  0
INSERT
  5
74
  8
0
  6
CONTINUOUS
  2
*U56
 10
0.0
 20
0.0
 30
0.0
  0
INSERT
  5
75
  8
0
  6
CONTINUOUS
  2
*U57
 10
0.0
 20
0.0
 30
0.0
  0
INSERT
  5
76
  8
0
  6
CONTINUOUS
  2
*U58
 10
0.0
 20
0.0
 30
0.0
  0
INSERT
  5
77
  8
0
  6
CONTINUOUS
  2
*U59
 10
0.0
 20
0.0
 30
0.0
  0
DIMENSION
  5
88
  8
寸法線
  2
*D2
 10
1036.8783185542
 20
33.220898437499997
 30
0.0
 11
1036.8783185542
 21
15.2299087524
 31
0.0
 70
   128
  1
15.5
 13
1013.0928762019
 23
33.220898437499997
 33
0.0
 14
1013.0928762019
 24
48.720898437499997
 34
0.0
 50
90.0
  0
DIMENSION
  5
97
  8
寸法線
  2
*D3
 10
1167.7400140346001
 20
33.221369791699999
 30
0.0
 11
1167.7400140346001
 21
40.221369791699992
 31
0.0
 70
   128
  1
14
 13
1146.3251027644001
 23
33.221369791699999
 33
0.0
 14
1146.3251027644001
 24
47.221369791699999
 34
0.0
 50
90.0
  0
INSERT
  5
98
  8
0
  6
CONTINUOUS
  2
*U60
 10
0.0
 20
0.0
 30
0.0
  0
INSERT
  5
99
  8
0
  6
CONTINUOUS
  2
*U61
 10
0.0
 20
0.0
 30
0.0
  0
LINE
  5
9A
  8
ﾚｲﾔ_1
 62
     5
 10
986.8928765582001
 20
42.721369791699992
 30
0.0
 11
998.89287620189998
 21
42.721369791699992
 31
0.0
  0
LINE
  5
9B
  8
ﾚｲﾔ_1
 62
     5
 10
986.89287620189987
 20
44.721369791699999
 30
0.0
 11
998.89287620189998
 21
44.721369791699999
 31
0.0
  0
LINE
  5
9C
  8
ﾚｲﾔ_1
 62
     5
 10
987.39287620189998
 20
44.721369791699999
 30
0.0
 11
986.89287620189987
 21
44.721369791699999
 31
0.0
  0
ARC
  5
9D
  8
ﾚｲﾔ_1
 62
     5
 10
986.89287620189987
 20
44.721369791699999
 30
0.0
 40
2.0
 50
180.0
 51
270.00001020809998
  0
INSERT
  5
9F
  8
ﾚｲﾔ_1
  6
BORDER
 62
     5
  2
CLUMP2
 10
0.0
 20
0.0
 30
0.0
  0
LINE
  5
BC
  8
ﾚｲﾔ_1
 62
     5
 10
1095.3251027644001
 20
44.721369791699999
 30
0.0
 11
1116.3251027644001
 21
44.721369791699999
 31
0.0
  0
ARC
  5
BD
  8
ﾚｲﾔ_1
 62
     5
 10
1095.3251027644001
 20
44.721369791699999
 30
0.0
 40
2.0
 50
180.0
 51
270.0
  0
LINE
  5
BE
  8
ﾚｲﾔ_1
 62
     5
 10
1116.3251027644001
 20
44.221369791699999
 30
0.0
 11
1116.3251027644001
 21
47.221369791699999
 31
0.0
  0
LINE
  5
BF
  8
ﾚｲﾔ_1
 62
     5
 10
1095.3251027644001
 20
42.721369791699992
 30
0.0
 11
1116.3251027644001
 21
42.721369791699992
 31
0.0
  0
INSERT
  5
C1
  8
ﾚｲﾔ_1
 62
     5
  2
CLUMP3
 10
0.0
 20
0.0
 30
0.0
  0
LINE
  5
DD
  8
ﾚｲﾔ_1
 62
     5
 10
983.89287620189998
 20
41.4208984375
 30
0.0
 11
983.89287620189998
 21
157.22903417969999
 31
0.0
  0
LINE
  5
DE
  8
ﾚｲﾔ_1
  6
BORDER
 62
     3
 10
978.89287620189987
 20
157.22903417969999
 30
0.0
 11
1018.8928762019
 21
157.22903417969999
 31
0.0
  0
LINE
  5
DF
  8
ﾚｲﾔ_1
  6
BORDER
 62
     3
 10
1086.3251027644001
 20
157.22903417969999
 30
0.0
 11
1151.3251027644001
 21
157.22903417969999
 31
0.0
  0
DIMENSION
  5
EE
  8
寸法線
  2
*D6
 10
1013.8928762019
 20
301.62267684940002
 30
0.0
 11
1006.3248799682
 21
301.62267684940002
 31
0.0
 70
   128
  1
<>
 13
1013.8928762019
 23
280.4208984375
 33
0.0
 14
998.89287620189998
 24
272.22089843750001
 34
0.0
  0
DIMENSION
  5
FD
  8
寸法線
  2
*D7
 10
1116.3251027644001
 20
301.79332594810001
 30
0.0
 11
1103.8251027644001
 21
301.79332594810001
 31
0.0
 70
   128
  1
<>
 13
1116.3251027644001
 23
272.22042708330002
 33
0.0
 14
1091.3251027644001
 24
281.22042708330002
 34
0.0
  0
DIMENSION
  5
10C
  8
寸法線
  2
*D8
 10
1146.3251027644001
 20
301.79332594810001
 30
0.0
 11
1131.3251027644001
 21
301.79332594810001
 31
0.0
 70
   128
  1
<>
 13
1146.3251027644001
 23
281.22042708330002
 33
0.0
 14
1116.3251027644001
 24
272.22042708330002
 34
0.0
  0
DIMENSION
  5
11B
  8
寸法線
  2
*D9
 10
998.89287620189998
 20
301.62267684940002
 30
0.0
 11
991.15239962340002
 21
301.62267684940002
 31
0.0
 70
   128
  1
<>
 13
998.89287620189998
 23
272.22089843750001
 33
0.0
 14
983.89287620189998
 24
280.4208984375
 34
0.0
  0
DIMENSION
  5
12A
  8
寸法線
  2
*D10
 10
1036.8783185542
 20
265.72089843750001
 30
0.0
 11
1036.8783185542
 21
298.92834739689999
 31
0.0
 70
   128
  1
15.5
 13
1013.0928762019
 23
265.72089843750001
 33
0.0
 14
1013.0928762019
 24
281.22089843750001
 34
0.0
 50
90.0
  0
DIMENSION
  5
139
  8
寸法線
  2
*D11
 10
1013.8928762019
 20
319.7838668823
 30
0.0
 11
998.89287620189998
 21
319.7838668823
 31
0.0
 70
   128
  1
<>
 13
1013.8928762019
 23
280.4208984375
 33
0.0
 14
983.89287620189998
 24
280.4208984375
 34
0.0
  0
DIMENSION
  5
148
  8
寸法線
  2
*D12
 10
1146.3251027644001
 20
319.01256346640002
 30
0.0
 11
1118.8251027644001
 21
319.01256346640002
 31
0.0
 70
   128
  1
<>
 13
1146.3251027644001
 23
280.42042708330001
 33
0.0
 14
1091.3251027644001
 24
280.42042708330001
 34
0.0
  0
DIMENSION
  5
157
  8
寸法線
  2
*D13
 10
1167.7400140346001
 20
267.22042708330002
 30
0.0
 11
1167.7400140346001
 21
274.22042708330002
 31
0.0
 70
   128
  1
14
 13
1146.3251027644001
 23
267.22042708330002
 33
0.0
 14
1146.3251027644001
 24
281.22042708330002
 34
0.0
 50
90.0
  0
INSERT
  5
159
  8
0
  6
CONTINUOUS
  2
*U62
 10
0.0
 20
0.0
 30
0.0
  0
INSERT
  5
15A
  8
0
  6
CONTINUOUS
  2
*U63
 10
0.0
 20
0.0
 30
0.0
  0
INSERT
  5
15B
  8
0
  6
CONTINUOUS
  2
*U64
 10
0.0
 20
0.0
 30
0.0
  0
INSERT
  5
15C
  8
0
  6
CONTINUOUS
  2
*U65
 10
0.0
 20
0.0
 30
0.0
  0
INSERT
  5
15D
  8
0
  6
CONTINUOUS
  2
*U66
 10
0.0
 20
0.0
 30
0.0
  0
INSERT
  5
15E
  8
0
  6
CONTINUOUS
  2
*U67
 10
0.0
 20
0.0
 30
0.0
  0
INSERT
  5
15F
  8
0
  6
CONTINUOUS
  2
*U68
 10
0.0
 20
0.0
 30
0.0
  0
INSERT
  5
160
  8
0
  6
CONTINUOUS
  2
*U69
 10
0.0
 20
0.0
 30
0.0
  0
INSERT
  5
161
  8
0
  6
CONTINUOUS
  2
*U70
 10
0.0
 20
0.0
 30
0.0
  0
INSERT
  5
162
  8
0
  6
CONTINUOUS
  2
*U71
 10
0.0
 20
0.0
 30
0.0
  0
INSERT
  5
163
  8
0
  6
CONTINUOUS
  2
*U72
 10
0.0
 20
0.0
 30
0.0
  0
INSERT
  5
164
  8
0
  6
CONTINUOUS
  2
*U73
 10
0.0
 20
0.0
 30
0.0
  0
INSERT
  5
165
  8
0
  6
CONTINUOUS
  2
*U74
 10
0.0
 20
0.0
 30
0.0
  0
DIMENSION
  5
174
  8
寸法線
  2
*D14
 10
1036.8181779444999
 20
48.720898437499997
 30
0.0
 11
1036.8181779444999
 21
157.22089843750001
 31
0.0
 70
   128
  1
<>
 13
1013.0928762019
 23
48.720898437499997
 33
0.0
 14
1013.0928762019
 24
265.72089843750001
 34
0.0
 50
90.0
  0
DIMENSION
  5
183
  8
寸法線
  2
*D15
 10
1167.7400140346001
 20
47.221369791699999
 30
0.0
 11
1167.7400140346001
 21
157.22089843750001
 31
0.0
 70
   128
  1
220
 13
1146.3251027644001
 23
47.221369791699999
 33
0.0
 14
1146.3251027644001
 24
267.22042708330002
 34
0.0
 50
90.0
  0
LINE
  5
184
  8
ﾚｲﾔ_1
 62
     5
 10
983.89287620189998
 20
273.02089843750002
 30
0.0
 11
983.89287620189998
 21
157.22903417969999
 31
0.0
  0
LINE
  5
185
  8
ﾚｲﾔ_1
 62
     5
 10
1095.3251027644001
 20
269.72042708330002
 30
0.0
 11
1095.3251027644001
 21
44.721369791699999
 31
0.0
  0
LINE
  5
186
  8
ﾚｲﾔ_1
 62
     5
 10
1093.3251027644001
 20
269.72042708330002
 30
0.0
 11
1093.3251027644001
 21
44.721369791699999
 31
0.0
  0
LINE
  5
187
  8
ﾚｲﾔ_1
 62
     5
 10
1091.3251027644001
 20
41.421369791700002
 30
0.0
 11
1091.3251027644001
 21
273.02042708329998
 31
0.0
  0
LINE
  5
188
  8
ﾚｲﾔ_1
 62
     5
 10
1116.3251027644001
 20
42.721369791699992
 30
0.0
 11
1116.3251027644001
 21
271.72042708330002
 31
0.0
  0
LINE
  5
189
  8
ﾚｲﾔ_1
 62
     5
 10
1013.8928762019
 20
47.9208984375
 30
0.0
 11
1013.8928762019
 21
266.52089843750002
 31
0.0
  0
LINE
  5
18A
  8
ﾚｲﾔ_1
 62
     5
 10
998.89287620189998
 20
42.721369791699992
 30
0.0
 11
998.89287620189998
 21
271.72042708330002
 31
0.0
  0
LINE
  5
18B
  8
ﾚｲﾔ_1
 62
     5
 10
984.89287620189987
 20
269.720425734
 30
0.0
 11
984.89287620189987
 21
44.721369791699999
 31
0.0
  0
LINE
  5
18C
  8
ﾚｲﾔ_1
 62
     5
 10
1146.3251027644001
 20
268.02042708329998
 30
0.0
 11
1146.3251027644001
 21
46.421369791700002
 31
0.0
  0
LINE
  5
18D
  8
ﾚｲﾔ_1
 62
     5
 10
986.89287620189987
 20
44.721369791699999
 30
0.0
 11
986.89287620189987
 21
269.72042708330002
 31
0.0
  0
LINE
  5
18E
  8
ﾚｲﾔ_1
 62
     5
 10
721.76486328129988
 20
189.72089843750001
 30
0.0
 11
706.76486328129999
 21
189.72089843750001
 31
0.0
  0
LINE
  5
18F
  8
ﾚｲﾔ_1
 62
     5
 10
706.76486328129999
 20
196.72089843750001
 30
0.0
 11
721.76486328129988
 21
196.72089843750001
 31
0.0
  0
LINE
  5
190
  8
ﾚｲﾔ_1
 62
     5
 10
721.76486328129988
 20
233.22089843750001
 30
0.0
 11
706.76486328129999
 21
233.22089843750001
 31
0.0
  0
LINE
  5
191
  8
ﾚｲﾔ_1
 62
     5
 10
721.76486328129988
 20
248.22089843750001
 30
0.0
 11
706.76486328129999
 21
248.22089843750001
 31
0.0
  0
LINE
  5
192
  8
ﾚｲﾔ_1
 62
     5
 10
706.76486328129999
 20
255.22089843750001
 30
0.0
 11
721.76486328129988
 21
255.22089843750001
 31
0.0
  0
LINE
  5
193
  8
ﾚｲﾔ_1
 62
     5
 10
706.76486328129999
 20
240.22089843750001
 30
0.0
 11
721.76486328129988
 21
240.22089843750001
 31
0.0
  0
ARC
  5
194
  8
ﾚｲﾔ_1
 62
     5
 10
706.76486328129999
 20
236.72089843750001
 30
0.0
 40
3.5
 50
90.0
 51
270.0
  0
ARC
  5
195
  8
ﾚｲﾔ_1
 62
     5
 10
706.76486328129999
 20
208.22089843750001
 30
0.0
 40
3.5
 50
90.0
 51
270.0
  0
ARC
  5
196
  8
ﾚｲﾔ_1
 62
     5
 10
706.76486328129999
 20
193.22089843750001
 30
0.0
 40
3.5
 50
90.0
 51
270.0
  0
ARC
  5
197
  8
ﾚｲﾔ_1
 62
     5
 10
706.76486328129999
 20
251.72089843750001
 30
0.0
 40
3.5
 50
90.0
 51
270.0
  0
ARC
  5
198
  8
ﾚｲﾔ_1
 62
     5
 10
764.76486328129999
 20
236.72089843750001
 30
0.0
 40
3.5
 50
90.0
 51
270.0
  0
ARC
  5
199
  8
ﾚｲﾔ_1
 62
     5
 10
779.76486328129988
 20
236.72089843750001
 30
0.0
 40
3.5
 50
270.0
 51
90.0
  0
ARC
  5
19A
  8
ﾚｲﾔ_1
 62
     5
 10
721.76486328129988
 20
236.72089843750001
 30
0.0
 40
3.5
 50
270.0
 51
90.0
  0
ARC
  5
19B
  8
ﾚｲﾔ_1
 62
     5
 10
721.76486328129988
 20
208.22089843750001
 30
0.0
 40
3.5
 50
270.0
 51
90.0
  0
ARC
  5
19C
  8
ﾚｲﾔ_1
 62
     5
 10
721.76486328129988
 20
193.22089843750001
 30
0.0
 40
3.5
 50
270.0
 51
90.0
  0
ARC
  5
19D
  8
ﾚｲﾔ_1
 62
     5
 10
764.76486328129999
 20
193.22089843750001
 30
0.0
 40
3.5
 50
90.0
 51
270.0
  0
LINE
  5
19E
  8
ﾚｲﾔ_1
 62
     5
 10
764.76486328129999
 20
211.72089843750001
 30
0.0
 11
779.76486328129988
 21
211.72089843750001
 31
0.0
  0
ARC
  5
19F
  8
ﾚｲﾔ_1
 62
     5
 10
779.76486328129988
 20
208.22089843750001
 30
0.0
 40
3.5
 50
270.0
 51
90.0
  0
LINE
  5
1A0
  8
ﾚｲﾔ_1
 62
     5
 10
764.76486328129999
 20
168.22089843750001
 30
0.0
 11
779.76486328129988
 21
168.22089843750001
 31
0.0
  0
LINE
  5
1A1
  8
ﾚｲﾔ_1
 62
     5
 10
764.76486328129999
 20
240.22089843750001
 30
0.0
 11
779.76486328129988
 21
240.22089843750001
 31
0.0
  0
ARC
  5
1A2
  8
ﾚｲﾔ_1
 62
     5
 10
764.76486328129999
 20
251.72089843750001
 30
0.0
 40
3.5
 50
90.0
 51
270.0
  0
LINE
  5
1A3
  8
ﾚｲﾔ_1
 62
     5
 10
779.76486328129988
 20
248.22089843750001
 30
0.0
 11
764.76486328129999
 21
248.22089843750001
 31
0.0
  0
INSERT
  5
1A4
  8
0
  6
CONTINUOUS
  2
*U75
 10
0.0
 20
0.0
 30
0.0
  0
INSERT
  5
1A5
  8
0
  6
CONTINUOUS
  2
*U76
 10
0.0
 20
0.0
 30
0.0
  0
INSERT
  5
1A6
  8
0
  6
CONTINUOUS
  2
*U77
 10
0.0
 20
0.0
 30
0.0
  0
ARC
  5
1A7
  8
ﾚｲﾔ_1
 62
     5
 10
779.76486328129988
 20
251.72089843750001
 30
0.0
 40
3.5
 50
270.0
 51
90.0
  0
ARC
  5
1A8
  8
ﾚｲﾔ_1
 62
     5
 10
721.76486328129988
 20
251.72089843750001
 30
0.0
 40
3.5
 50
270.0
 51
90.0
  0
LINE
  5
1A9
  8
ﾚｲﾔ_1
 62
     5
 10
855.76486328129999
 20
269.72089843750001
 30
0.0
 11
855.76486328129999
 21
271.72089843750001
 31
0.0
  0
LINE
  5
1AA
  8
ﾚｲﾔ_1
 62
     5
 10
855.76486328129999
 20
269.72089843750001
 30
0.0
 11
857.76486328129999
 21
269.72089843750001
 31
0.0
  0
LINE
  5
1AB
  8
ﾚｲﾔ_1
 62
     5
 10
706.76486328129999
 20
211.72089843750001
 30
0.0
 11
721.76486328129988
 21
211.72089843750001
 31
0.0
  0
LINE
  5
1AC
  8
ﾚｲﾔ_1
 62
     5
 10
721.76486328129988
 20
204.72089843750001
 30
0.0
 11
706.76486328129999
 21
204.72089843750001
 31
0.0
  0
ARC
  5
1AD
  8
ﾚｲﾔ_1
 62
     5
 10
822.76486328129999
 20
236.72089843750001
 30
0.0
 40
3.5
 50
90.0
 51
270.0
  0
ARC
  5
1AE
  8
ﾚｲﾔ_1
 62
     5
 10
837.76486328129999
 20
236.72089843750001
 30
0.0
 40
3.5
 50
270.0
 51
90.0
  0
ARC
  5
1AF
  8
ﾚｲﾔ_1
 62
     5
 10
837.76486328129999
 20
193.22089843750001
 30
0.0
 40
3.5
 50
270.0
 51
90.0
  0
ARC
  5
1B0
  8
ﾚｲﾔ_1
 62
     5
 10
822.76486328129999
 20
208.22089843750001
 30
0.0
 40
3.5
 50
90.0
 51
270.0
  0
LINE
  5
1B1
  8
ﾚｲﾔ_1
 62
     5
 10
837.76486328129999
 20
204.72089843750001
 30
0.0
 11
822.76486328129999
 21
204.72089843750001
 31
0.0
  0
LINE
  5
1B2
  8
ﾚｲﾔ_1
 62
     5
 10
822.76486328129999
 20
211.72089843750001
 30
0.0
 11
837.76486328129999
 21
211.72089843750001
 31
0.0
  0
ARC
  5
1B3
  8
ﾚｲﾔ_1
 62
     5
 10
837.76486328129999
 20
208.22089843750001
 30
0.0
 40
3.5
 50
270.0
 51
90.0
  0
ARC
  5
1B4
  8
ﾚｲﾔ_1
 62
     5
 10
822.76486328129999
 20
193.22089843750001
 30
0.0
 40
3.5
 50
90.0
 51
270.0
  0
LINE
  5
1B5
  8
ﾚｲﾔ_1
 62
     5
 10
837.76486328129999
 20
189.72089843750001
 30
0.0
 11
822.76486328129999
 21
189.72089843750001
 31
0.0
  0
LINE
  5
1B6
  8
ﾚｲﾔ_1
 62
     5
 10
822.76486328129999
 20
196.72089843750001
 30
0.0
 11
837.76486328129999
 21
196.72089843750001
 31
0.0
  0
LINE
  5
1B7
  8
ﾚｲﾔ_1
 62
     5
 10
837.76486328129999
 20
233.22089843750001
 30
0.0
 11
822.76486328129999
 21
233.22089843750001
 31
0.0
  0
LINE
  5
1B8
  8
ﾚｲﾔ_1
 62
     5
 10
837.76486328129999
 20
248.22089843750001
 30
0.0
 11
822.76486328129999
 21
248.22089843750001
 31
0.0
  0
LINE
  5
1B9
  8
ﾚｲﾔ_1
 62
     5
 10
822.76486328129999
 20
255.22089843750001
 30
0.0
 11
837.76486328129999
 21
255.22089843750001
 31
0.0
  0
ARC
  5
1BA
  8
ﾚｲﾔ_1
 62
     5
 10
837.76486328129999
 20
251.72089843750001
 30
0.0
 40
3.5
 50
270.0
 51
90.0
  0
LINE
  5
1BB
  8
ﾚｲﾔ_1
 62
     5
 10
822.76486328129999
 20
240.22089843750001
 30
0.0
 11
837.76486328129999
 21
240.22089843750001
 31
0.0
  0
ARC
  5
1BC
  8
ﾚｲﾔ_1
 62
     5
 10
822.76486328129999
 20
251.72089843750001
 30
0.0
 40
3.5
 50
90.0
 51
270.0
  0
LINE
  5
1BD
  8
ﾚｲﾔ_1
 62
     5
 10
764.76486328129999
 20
196.72089843750001
 30
0.0
 11
779.76486328129988
 21
196.72089843750001
 31
0.0
  0
LINE
  5
1BE
  8
ﾚｲﾔ_1
 62
     5
 10
779.76486328129988
 20
189.72089843750001
 30
0.0
 11
764.76486328129999
 21
189.72089843750001
 31
0.0
  0
LINE
  5
1BF
  8
ﾚｲﾔ_1
 62
     5
 10
706.76486328129999
 20
168.22089843750001
 30
0.0
 11
721.76486328129988
 21
168.22089843750001
 31
0.0
  0
LINE
  5
1C0
  8
ﾚｲﾔ_1
 62
     5
 10
706.76486328129999
 20
153.22089843750001
 30
0.0
 11
721.76486328129988
 21
153.22089843750001
 31
0.0
  0
ARC
  5
1C1
  8
ﾚｲﾔ_1
 62
     5
 10
706.76486328129999
 20
149.72089843750001
 30
0.0
 40
3.5
 50
90.0
 51
270.0
  0
DIMENSION
  5
1D0
  8
寸法線
  2
*D16
 10
904.30283477779994
 20
272.22089843750001
 30
0.0
 11
904.30283477779994
 21
276.72089843750001
 31
0.0
 70
   128
  1
<>
 13
858.26486328129999
 23
272.22089843750001
 33
0.0
 14
867.26486328129999
 24
281.22089843750001
 34
0.0
 50
90.0
  0
DIMENSION
  5
1DF
  8
寸法線
  2
*D17
 10
867.26486328129999
 20
308.92500000000001
 30
0.0
 11
862.76486328129999
 21
308.92500000000001
 31
0.0
 70
   128
  1
<>
 13
867.26486328129999
 23
281.22089843750001
 33
0.0
 14
858.26486328129999
 24
272.22089843750001
 34
0.0
  0
ARC
  5
1E0
  8
ﾚｲﾔ_1
 62
     5
 10
779.76486328129988
 20
193.22089843750001
 30
0.0
 40
3.5
 50
270.0
 51
90.0
  0
ARC
  5
1E1
  8
ﾚｲﾔ_1
 62
     5
 10
764.76486328129999
 20
208.22089843750001
 30
0.0
 40
3.5
 50
90.0
 51
270.0
  0
LINE
  5
1E2
  8
ﾚｲﾔ_1
 62
     5
 10
779.76486328129988
 20
204.72089843750001
 30
0.0
 11
764.76486328129999
 21
204.72089843750001
 31
0.0
  0
LINE
  5
1E3
  8
ﾚｲﾔ_1
 62
     5
 10
779.76486328129988
 20
233.22089843750001
 30
0.0
 11
764.76486328129999
 21
233.22089843750001
 31
0.0
  0
LINE
  5
1E4
  8
ﾚｲﾔ_1
 62
     5
 10
648.76486328129999
 20
255.22089843750001
 30
0.0
 11
663.76486328129988
 21
255.22089843750001
 31
0.0
  0
ARC
  5
1E5
  8
ﾚｲﾔ_1
 62
     5
 10
663.76486328129988
 20
251.72089843750001
 30
0.0
 40
3.5
 50
270.0
 51
90.0
  0
LINE
  5
1E6
  8
ﾚｲﾔ_1
 62
     5
 10
648.76486328129999
 20
240.22089843750001
 30
0.0
 11
663.76486328129988
 21
240.22089843750001
 31
0.0
  0
ARC
  5
1E7
  8
ﾚｲﾔ_1
 62
     5
 10
648.76486328129999
 20
251.72089843750001
 30
0.0
 40
3.5
 50
90.0
 51
270.0
  0
LINE
  5
1E8
  8
ﾚｲﾔ_1
 62
     5
 10
663.76486328129988
 20
248.22089843750001
 30
0.0
 11
648.76486328129999
 21
248.22089843750001
 31
0.0
  0
ARC
  5
1E9
  8
ﾚｲﾔ_1
 62
     5
 10
648.76486328129999
 20
193.22089843750001
 30
0.0
 40
3.5
 50
90.0
 51
270.0
  0
ARC
  5
1EA
  8
ﾚｲﾔ_1
 62
     5
 10
663.76486328129988
 20
236.72089843750001
 30
0.0
 40
3.5
 50
270.0
 51
90.0
  0
ARC
  5
1EB
  8
ﾚｲﾔ_1
 62
     5
 10
648.76486328129999
 20
236.72089843750001
 30
0.0
 40
3.5
 50
90.0
 51
270.0
  0
LINE
  5
1EC
  8
ﾚｲﾔ_1
 62
     5
 10
663.76486328129988
 20
189.72089843750001
 30
0.0
 11
648.76486328129999
 21
189.72089843750001
 31
0.0
  0
LINE
  5
1ED
  8
ﾚｲﾔ_1
 62
     5
 10
648.76486328129999
 20
196.72089843750001
 30
0.0
 11
663.76486328129988
 21
196.72089843750001
 31
0.0
  0
ARC
  5
1EE
  8
ﾚｲﾔ_1
 62
     5
 10
663.76486328129988
 20
193.22089843750001
 30
0.0
 40
3.5
 50
270.0
 51
90.0
  0
LINE
  5
1EF
  8
ﾚｲﾔ_1
 62
     5
 10
663.76486328129988
 20
233.22089843750001
 30
0.0
 11
648.76486328129999
 21
233.22089843750001
 31
0.0
  0
LINE
  5
1F0
  8
ﾚｲﾔ_1
 62
     5
 10
663.76486328129988
 20
204.72089843750001
 30
0.0
 11
648.76486328129999
 21
204.72089843750001
 31
0.0
  0
LINE
  5
1F1
  8
ﾚｲﾔ_1
 62
     5
 10
648.76486328129999
 20
211.72089843750001
 30
0.0
 11
663.76486328129988
 21
211.72089843750001
 31
0.0
  0
ARC
  5
1F2
  8
ﾚｲﾔ_1
 62
     5
 10
663.76486328129988
 20
208.22089843750001
 30
0.0
 40
3.5
 50
270.0
 51
90.0
  0
ARC
  5
1F3
  8
ﾚｲﾔ_1
 62
     5
 10
648.76486328129999
 20
208.22089843750001
 30
0.0
 40
3.5
 50
90.0
 51
270.0
  0
LINE
  5
1F4
  8
ﾚｲﾔ_1
 62
     5
 10
764.76486328129999
 20
255.22089843750001
 30
0.0
 11
779.76486328129988
 21
255.22089843750001
 31
0.0
  0
LINE
  5
1F5
  8
ﾚｲﾔ_1
 62
     5
 10
779.76486328129988
 20
161.22089843750001
 30
0.0
 11
764.76486328129999
 21
161.22089843750001
 31
0.0
  0
ARC
  5
1F6
  8
ﾚｲﾔ_1
 62
     5
 10
764.76486328129999
 20
149.72089843750001
 30
0.0
 40
3.5
 50
90.0
 51
270.0
  0
LINE
  5
1F7
  8
ﾚｲﾔ_1
 62
     5
 10
779.76486328129988
 20
146.22089843750001
 30
0.0
 11
764.76486328129999
 21
146.22089843750001
 31
0.0
  0
LINE
  5
1F8
  8
ﾚｲﾔ_1
 62
     5
 10
764.76486328129999
 20
153.22089843750001
 30
0.0
 11
779.76486328129988
 21
153.22089843750001
 31
0.0
  0
ARC
  5
1F9
  8
ﾚｲﾔ_1
 62
     5
 10
779.76486328129988
 20
149.72089843750001
 30
0.0
 40
3.5
 50
270.0
 51
90.0
  0
LINE
  5
1FA
  8
ﾚｲﾔ_1
 62
     5
 10
721.76486328129988
 20
161.22089843750001
 30
0.0
 11
706.76486328129999
 21
161.22089843750001
 31
0.0
  0
LINE
  5
1FB
  8
ﾚｲﾔ_1
 62
     5
 10
837.76486328129999
 20
124.7208984375
 30
0.0
 11
822.76486328129999
 21
124.7208984375
 31
0.0
  0
LINE
  5
1FC
  8
ﾚｲﾔ_1
 62
     5
 10
866.46509765630014
 20
-32.011669270799999
 30
0.0
 11
867.2650976563001
 21
-32.011669270799999
 31
0.0
  0
LINE
  5
1FD
  8
ﾚｲﾔ_1
 62
     5
 10
866.46509765630014
 20
-26.8116692708
 30
0.0
 11
866.46509765630014
 21
-32.011669270799999
 31
0.0
  0
LINE
  5
1FE
  8
ﾚｲﾔ_1
 62
     5
 10
859.06509765630005
 20
-26.8116692708
 30
0.0
 11
866.46509765630014
 21
-26.8116692708
 31
0.0
  0
LINE
  5
1FF
  8
ﾚｲﾔ_1
 62
     5
 10
721.76486328129988
 20
66.220898437499997
 30
0.0
 11
706.76486328129999
 21
66.220898437499997
 31
0.0
  0
LINE
  5
200
  8
ﾚｲﾔ_1
 62
     5
 10
706.76486328129999
 20
74.220898437499997
 30
0.0
 11
721.76486328129988
 21
74.220898437499997
 31
0.0
  0
LINE
  5
201
  8
ﾚｲﾔ_1
 62
     5
 10
721.76486328129988
 20
109.7208984375
 30
0.0
 11
706.76486328129999
 21
109.7208984375
 31
0.0
  0
LINE
  5
202
  8
ﾚｲﾔ_1
 62
     5
 10
706.76486328129999
 20
102.7208984375
 30
0.0
 11
721.76486328129988
 21
102.7208984375
 31
0.0
  0
LINE
  5
203
  8
ﾚｲﾔ_1
 62
     5
 10
706.76486328129999
 20
59.220898437499997
 30
0.0
 11
721.76486328129988
 21
59.220898437499997
 31
0.0
  0
LINE
  5
204
  8
ﾚｲﾔ_1
 62
     5
 10
721.76486328129988
 20
81.220898437499997
 30
0.0
 11
706.76486328129999
 21
81.220898437499997
 31
0.0
  0
ARC
  5
205
  8
ﾚｲﾔ_1
 62
     5
 10
706.76486328129999
 20
62.72089843749999
 30
0.0
 40
3.5
 50
90.0
 51
270.0
  0
ARC
  5
206
  8
ﾚｲﾔ_1
 62
     5
 10
706.76486328129999
 20
106.2208984375
 30
0.0
 40
3.5
 50
90.0
 51
270.0
  0
ARC
  5
207
  8
ﾚｲﾔ_1
 62
     5
 10
706.76486328129999
 20
77.720898437499983
 30
0.0
 40
3.5
 50
90.0
 51
270.0
  0
LINE
  5
208
  8
ﾚｲﾔ_1
 62
     5
 10
793.26509765629999
 20
-29.011669270799999
 30
0.0
 11
743.26486328129988
 21
-29.011669270799999
 31
0.0
  0
LINE
  5
209
  8
ﾚｲﾔ_1
 62
     5
 10
793.26509765629999
 20
-27.011669270799999
 30
0.0
 11
743.26486328129988
 21
-27.011669270799999
 31
0.0
  0
ARC
  5
20A
  8
ﾚｲﾔ_1
 62
     5
 10
779.76486328129988
 20
77.720898437499983
 30
0.0
 40
3.5
 50
270.0
 51
90.0
  0
LINE
  5
20B
  8
ﾚｲﾔ_1
 62
     5
 10
764.76486328129999
 20
59.220898437499997
 30
0.0
 11
779.76486328129988
 21
59.220898437499997
 31
0.0
  0
ARC
  5
20C
  8
ﾚｲﾔ_1
 62
     5
 10
779.76486328129988
 20
62.72089843749999
 30
0.0
 40
3.5
 50
270.0
 51
90.0
  0
LINE
  5
20D
  8
ﾚｲﾔ_1
 62
     5
 10
721.76486328129988
 20
146.22089843750001
 30
0.0
 11
706.76486328129999
 21
146.22089843750001
 31
0.0
  0
LINE
  5
20E
  8
ﾚｲﾔ_1
 62
     5
 10
779.76486328129988
 20
81.220898437499997
 30
0.0
 11
764.76486328129999
 21
81.220898437499997
 31
0.0
  0
LINE
  5
20F
  8
ﾚｲﾔ_1
 62
     5
 10
867.2650976563001
 20
-32.011669270799999
 30
0.0
 11
867.2650976563001
 21
-26.8116692708
 31
0.0
  0
LINE
  5
210
  8
ﾚｲﾔ_1
 62
     5
 10
866.46509765630014
 20
-32.011669270799999
 30
0.0
 11
859.06509765630005
 21
-32.011669270799999
 31
0.0
  0
LINE
  5
211
  8
ﾚｲﾔ_1
 62
     5
 10
855.76486328129999
 20
44.720898437499997
 30
0.0
 11
857.76486328129999
 21
44.720898437499997
 31
0.0
  0
LINE
  5
212
  8
ﾚｲﾔ_1
 62
     5
 10
855.76486328129999
 20
44.720898437499997
 30
0.0
 11
855.76486328129999
 21
42.72089843749999
 31
0.0
  0
ARC
  5
213
  8
ﾚｲﾔ_1
 62
     5
 10
855.18053194649997
 20
-29.011669270799999
 30
0.0
 40
2.0
 50
0.0
 51
90.0
  0
ARC
  5
214
  8
ﾚｲﾔ_1
 62
     5
 10
764.76486328129999
 20
106.2208984375
 30
0.0
 40
3.5
 50
90.0
 51
270.0
  0
LINE
  5
215
  8
ﾚｲﾔ_1
 62
     5
 10
779.76486328129988
 20
109.7208984375
 30
0.0
 11
764.76486328129999
 21
109.7208984375
 31
0.0
  0
ARC
  5
216
  8
ﾚｲﾔ_1
 62
     5
 10
721.76486328129988
 20
77.720898437499983
 30
0.0
 40
3.5
 50
270.0
 51
90.0
  0
ARC
  5
217
  8
ﾚｲﾔ_1
 62
     5
 10
721.76486328129988
 20
106.2208984375
 30
0.0
 40
3.5
 50
270.0
 51
90.0
  0
ARC
  5
218
  8
ﾚｲﾔ_1
 62
     5
 10
721.76486328129988
 20
62.72089843749999
 30
0.0
 40
3.5
 50
270.0
 51
90.0
  0
ARC
  5
219
  8
ﾚｲﾔ_1
 62
     5
 10
837.76486328129999
 20
62.72089843749999
 30
0.0
 40
3.5
 50
270.0
 51
90.0
  0
ARC
  5
21A
  8
ﾚｲﾔ_1
 62
     5
 10
822.76486328129999
 20
77.720898437499983
 30
0.0
 40
3.5
 50
90.0
 51
270.0
  0
LINE
  5
21B
  8
ﾚｲﾔ_1
 62
     5
 10
837.76486328129999
 20
81.220898437499997
 30
0.0
 11
822.76486328129999
 21
81.220898437499997
 31
0.0
  0
LINE
  5
21C
  8
ﾚｲﾔ_1
 62
     5
 10
822.76486328129999
 20
74.220898437499997
 30
0.0
 11
837.76486328129999
 21
74.220898437499997
 31
0.0
  0
ARC
  5
21D
  8
ﾚｲﾔ_1
 62
     5
 10
837.76486328129999
 20
77.720898437499983
 30
0.0
 40
3.5
 50
270.0
 51
90.0
  0
ARC
  5
21E
  8
ﾚｲﾔ_1
 62
     5
 10
822.76486328129999
 20
62.72089843749999
 30
0.0
 40
3.5
 50
90.0
 51
270.0
  0
LINE
  5
21F
  8
ﾚｲﾔ_1
 62
     5
 10
837.76486328129999
 20
66.220898437499997
 30
0.0
 11
822.76486328129999
 21
66.220898437499997
 31
0.0
  0
LINE
  5
220
  8
ﾚｲﾔ_1
 62
     5
 10
822.76486328129999
 20
59.220898437499997
 30
0.0
 11
837.76486328129999
 21
59.220898437499997
 31
0.0
  0
ARC
  5
221
  8
ﾚｲﾔ_1
 62
     5
 10
822.76486328129999
 20
106.2208984375
 30
0.0
 40
3.5
 50
90.0
 51
270.0
  0
LINE
  5
222
  8
ﾚｲﾔ_1
 62
     5
 10
837.76486328129999
 20
109.7208984375
 30
0.0
 11
822.76486328129999
 21
109.7208984375
 31
0.0
  0
LINE
  5
223
  8
ﾚｲﾔ_1
 62
     5
 10
822.76486328129999
 20
102.7208984375
 30
0.0
 11
837.76486328129999
 21
102.7208984375
 31
0.0
  0
ARC
  5
224
  8
ﾚｲﾔ_1
 62
     5
 10
837.76486328129999
 20
106.2208984375
 30
0.0
 40
3.5
 50
270.0
 51
90.0
  0
ARC
  5
225
  8
ﾚｲﾔ_1
 62
     5
 10
706.76486328129999
 20
121.2208984375
 30
0.0
 40
3.5
 50
90.0
 51
270.0
  0
ARC
  5
226
  8
ﾚｲﾔ_1
 62
     5
 10
721.76486328129988
 20
149.72089843750001
 30
0.0
 40
3.5
 50
270.0
 51
90.0
  0
LINE
  5
227
  8
ﾚｲﾔ_1
 62
     5
 10
663.76486328129988
 20
109.7208984375
 30
0.0
 11
648.76486328129999
 21
109.7208984375
 31
0.0
  0
ARC
  5
228
  8
ﾚｲﾔ_1
 62
     5
 10
764.76486328129999
 20
121.2208984375
 30
0.0
 40
3.5
 50
90.0
 51
270.0
  0
ARC
  5
229
  8
ﾚｲﾔ_1
 62
     5
 10
721.76486328129988
 20
121.2208984375
 30
0.0
 40
3.5
 50
270.0
 51
90.0
  0
LINE
  5
22A
  8
ﾚｲﾔ_1
 62
     5
 10
866.46509765630014
 20
-26.011669270799999
 30
0.0
 11
859.06509765630005
 21
-26.011669270799999
 31
0.0
  0
ARC
  5
22B
  8
ﾚｲﾔ_1
 62
     5
 10
866.46509765630014
 20
-26.8116692708
 30
0.0
 40
0.8
 50
0.0
 51
90.0
  0
ARC
  5
22C
  8
ﾚｲﾔ_1
 62
     5
 10
859.06509765630005
 20
-26.8116692708
 30
0.0
 40
0.8
 50
90.0
 51
180.0
  0
LINE
  5
22D
  8
ﾚｲﾔ_1
 62
     5
 10
721.76486328129988
 20
124.7208984375
 30
0.0
 11
706.76486328129999
 21
124.7208984375
 31
0.0
  0
LINE
  5
22E
  8
ﾚｲﾔ_1
 62
     5
 10
779.76486328129988
 20
124.7208984375
 30
0.0
 11
764.76486328129999
 21
124.7208984375
 31
0.0
  0
LINE
  5
22F
  8
ﾚｲﾔ_1
 62
     5
 10
857.18053194649985
 20
-41.011669270799999
 30
0.0
 11
857.18053194649985
 21
-29.011669270799999
 31
0.0
  0
LINE
  5
230
  8
ﾚｲﾔ_1
 62
     5
 10
855.18053194649997
 20
-41.011669270799999
 30
0.0
 11
855.18053194649997
 21
-29.011669270799999
 31
0.0
  0
LINE
  5
231
  8
ﾚｲﾔ_1
 62
     5
 10
858.26509765629999
 20
-26.8116692708
 30
0.0
 11
858.26509765629999
 21
-41.011669270799999
 31
0.0
  0
LINE
  5
232
  8
ﾚｲﾔ_1
 62
     5
 10
859.06509765630005
 20
-41.011669270799999
 30
0.0
 11
859.06509765630005
 21
-26.8116692708
 31
0.0
  0
LINE
  5
233
  8
ﾚｲﾔ_1
 62
     5
 10
793.26509765629999
 20
-41.011669270799999
 30
0.0
 11
743.26486328129988
 21
-41.011669270799999
 31
0.0
  0
LINE
  5
234
  8
ﾚｲﾔ_1
 62
     5
 10
793.26509765629999
 20
-41.011669270799999
 30
0.0
 11
858.26509765629999
 21
-41.011669270799999
 31
0.0
  0
ARC
  5
235
  8
ﾚｲﾔ_1
 62
     5
 10
779.76486328129988
 20
121.2208984375
 30
0.0
 40
3.5
 50
270.0
 51
90.0
  0
ARC
  5
236
  8
ﾚｲﾔ_1
 62
     5
 10
822.76486328129999
 20
121.2208984375
 30
0.0
 40
3.5
 50
90.0
 51
270.0
  0
LINE
  5
237
  8
ﾚｲﾔ_1
 62
     5
 10
793.26509765629999
 20
-27.011669270799999
 30
0.0
 11
855.18053194649997
 21
-27.011669270799999
 31
0.0
  0
LINE
  5
238
  8
ﾚｲﾔ_1
 62
     5
 10
743.26486328129988
 20
-26.011328124999999
 30
0.0
 11
859.03830550380007
 21
-26.0121180338
 31
0.0
  0
LINE
  5
239
  8
ﾚｲﾔ_1
 62
     5
 10
793.26509765629999
 20
-29.011669270799999
 30
0.0
 11
855.18053194649997
 21
-29.011669270799999
 31
0.0
  0
ARC
  5
23A
  8
ﾚｲﾔ_1
 62
     5
 10
837.76486328129999
 20
121.2208984375
 30
0.0
 40
3.5
 50
270.0
 51
90.0
  0
LINE
  5
23B
  8
ﾚｲﾔ_1
 62
     5
 10
764.76486328129999
 20
117.7208984375
 30
0.0
 11
779.76486328129988
 21
117.7208984375
 31
0.0
  0
LINE
  5
23C
  8
ﾚｲﾔ_1
 62
     5
 10
822.76486328129999
 20
117.7208984375
 30
0.0
 11
837.76486328129999
 21
117.7208984375
 31
0.0
  0
LINE
  5
23D
  8
ﾚｲﾔ_1
 62
     5
 10
706.76486328129999
 20
117.7208984375
 30
0.0
 11
721.76486328129988
 21
117.7208984375
 31
0.0
  0
LINE
  5
23E
  8
ﾚｲﾔ_1
 62
     5
 10
764.76486328129999
 20
74.220898437499997
 30
0.0
 11
779.76486328129988
 21
74.220898437499997
 31
0.0
  0
ARC
  5
23F
  8
ﾚｲﾔ_1
 62
     5
 10
764.76486328129999
 20
77.720898437499983
 30
0.0
 40
3.5
 50
90.0
 51
270.0
  0
ARC
  5
240
  8
ﾚｲﾔ_1
 62
     5
 10
706.76486328129999
 20
164.72089843750001
 30
0.0
 40
3.5
 50
90.0
 51
270.0
  0
ARC
  5
241
  8
ﾚｲﾔ_1
 62
     5
 10
721.76486328129988
 20
164.72089843750001
 30
0.0
 40
3.5
 50
270.0
 51
90.0
  0
LINE
  5
242
  8
ﾚｲﾔ_1
 62
     5
 10
630.76486328129988
 20
44.720898437499997
 30
0.0
 11
630.76486328129988
 21
42.72089843749999
 31
0.0
  0
LINE
  5
243
  8
ﾚｲﾔ_1
 62
     5
 10
630.76486328129988
 20
269.72089843750001
 30
0.0
 11
630.76486328129988
 21
271.72089843750001
 31
0.0
  0
DIMENSION
  5
252
  8
寸法線
  2
*D18
 10
904.30283096309995
 20
33.220898437499997
 30
0.0
 11
904.30283096309995
 21
37.720898437499997
 31
0.0
 70
   128
  1
<>
 13
867.26486328129999
 23
33.220898437499997
 33
0.0
 14
858.26486328129999
 24
42.220898437499997
 34
0.0
 50
90.0
  0
DIMENSION
  5
261
  8
寸法線
  2
*D19
 10
910.14370254519997
 20
-32.011669270799999
 30
0.0
 11
910.14370254519997
 21
-29.011669270799999
 31
0.0
 70
   128
  1
<>
 13
867.2650976563001
 23
-32.011669270799999
 33
0.0
 14
867.2650976563001
 24
-26.011669270799999
 34
0.0
 50
90.0
  0
LINE
  5
262
  8
ﾚｲﾔ_1
 62
     5
 10
764.76486328129999
 20
102.7208984375
 30
0.0
 11
779.76486328129988
 21
102.7208984375
 31
0.0
  0
ARC
  5
263
  8
ﾚｲﾔ_1
 62
     5
 10
779.76486328129988
 20
106.2208984375
 30
0.0
 40
3.5
 50
270.0
 51
90.0
  0
ARC
  5
264
  8
ﾚｲﾔ_1
 62
     5
 10
764.76486328129999
 20
62.72089843749999
 30
0.0
 40
3.5
 50
90.0
 51
270.0
  0
LINE
  5
265
  8
ﾚｲﾔ_1
 62
     5
 10
779.76486328129988
 20
66.220898437499997
 30
0.0
 11
764.76486328129999
 21
66.220898437499997
 31
0.0
  0
LINE
  5
266
  8
ﾚｲﾔ_1
 62
     5
 10
648.76486328129999
 20
102.7208984375
 30
0.0
 11
663.76486328129988
 21
102.7208984375
 31
0.0
  0
ARC
  5
267
  8
ﾚｲﾔ_1
 62
     5
 10
663.76486328129988
 20
106.2208984375
 30
0.0
 40
3.5
 50
270.0
 51
90.0
  0
ARC
  5
268
  8
ﾚｲﾔ_1
 62
     5
 10
648.76486328129999
 20
62.72089843749999
 30
0.0
 40
3.5
 50
90.0
 51
270.0
  0
LINE
  5
269
  8
ﾚｲﾔ_1
 62
     5
 10
648.76486328129999
 20
117.7208984375
 30
0.0
 11
663.76486328129988
 21
117.7208984375
 31
0.0
  0
ARC
  5
26A
  8
ﾚｲﾔ_1
 62
     5
 10
648.76486328129999
 20
121.2208984375
 30
0.0
 40
3.5
 50
90.0
 51
270.0
  0
ARC
  5
26B
  8
ﾚｲﾔ_1
 62
     5
 10
663.76486328129988
 20
121.2208984375
 30
0.0
 40
3.5
 50
270.0
 51
90.0
  0
LINE
  5
26C
  8
ﾚｲﾔ_1
 62
     5
 10
663.76486328129988
 20
124.7208984375
 30
0.0
 11
648.76486328129999
 21
124.7208984375
 31
0.0
  0
ARC
  5
26D
  8
ﾚｲﾔ_1
 62
     5
 10
648.76486328129999
 20
77.720898437499983
 30
0.0
 40
3.5
 50
90.0
 51
270.0
  0
LINE
  5
26E
  8
ﾚｲﾔ_1
 62
     5
 10
663.76486328129988
 20
81.220898437499997
 30
0.0
 11
648.76486328129999
 21
81.220898437499997
 31
0.0
  0
LINE
  5
26F
  8
ﾚｲﾔ_1
 62
     5
 10
648.76486328129999
 20
74.220898437499997
 30
0.0
 11
663.76486328129988
 21
74.220898437499997
 31
0.0
  0
ARC
  5
270
  8
ﾚｲﾔ_1
 62
     5
 10
663.76486328129988
 20
77.720898437499983
 30
0.0
 40
3.5
 50
270.0
 51
90.0
  0
LINE
  5
271
  8
ﾚｲﾔ_1
 62
     5
 10
663.76486328129988
 20
66.220898437499997
 30
0.0
 11
648.76486328129999
 21
66.220898437499997
 31
0.0
  0
LINE
  5
272
  8
ﾚｲﾔ_1
 62
     5
 10
648.76486328129999
 20
59.220898437499997
 30
0.0
 11
663.76486328129988
 21
59.220898437499997
 31
0.0
  0
ARC
  5
273
  8
ﾚｲﾔ_1
 62
     5
 10
663.76486328129988
 20
62.72089843749999
 30
0.0
 40
3.5
 50
270.0
 51
90.0
  0
ARC
  5
274
  8
ﾚｲﾔ_1
 62
     5
 10
648.76486328129999
 20
106.2208984375
 30
0.0
 40
3.5
 50
90.0
 51
270.0
  0
LINE
  5
275
  8
ﾚｲﾔ_1
 62
     5
 10
628.26486328129999
 20
42.220898437499997
 30
0.0
 11
628.26486328129999
 21
272.22089843750001
 31
0.0
  0
LINE
  5
276
  8
ﾚｲﾔ_1
 62
     5
 10
628.76486328129999
 20
269.72089843750001
 30
0.0
 11
628.76486328129999
 21
44.720898437499997
 31
0.0
  0
LINE
  5
277
  8
ﾚｲﾔ_1
 10
619.26486328129999
 20
-32.011328124999999
 30
0.0
 11
619.26486328129999
 21
-26.811328124999999
 31
0.0
  0
ARC
  5
278
  8
ﾚｲﾔ_1
 10
620.06486328129995
 20
-26.811328124999999
 30
0.0
 40
0.8
 50
90.0
 51
180.0
  0
INSERT
  5
27A
  8
寸法線
  2
BALLON0
 10
0.0
 20
0.0
 30
0.0
  0
DIMENSION
  5
291
  8
寸法線
  2
*D21
 10
858.26486328129999
 20
308.92500000000001
 30
0.0
 11
743.26486328129988
 21
308.92500000000001
 31
0.0
 70
   128
  1
<>
 13
858.26486328129999
 23
272.22089843750001
 33
0.0
 14
628.26486328129999
 24
272.22089843750001
 34
0.0
  0
LINE
  5
292
  8
ﾚｲﾔ_1
 62
     5
 10
630.76486328129988
 20
42.72089843749999
 30
0.0
 11
855.76486328129999
 21
42.72089843749999
 31
0.0
  0
LINE
  5
293
  8
ﾚｲﾔ_1
  6
STITCH
 10
630.76486328129988
 20
44.720898437499997
 30
0.0
 11
855.76486328129999
 21
44.720898437499997
 31
0.0
  0
LINE
  5
294
  8
ﾚｲﾔ_1
  6
STITCH
 10
630.76486328129988
 20
269.72089843750001
 30
0.0
 11
855.76486328129999
 21
269.72089843750001
 31
0.0
  0
LINE
  5
295
  8
ﾚｲﾔ_1
 10
743.26486328129988
 20
-41.811328125000003
 30
0.0
 11
635.46486328129993
 21
-41.811328125000003
 31
0.0
  0
LINE
  5
296
  8
ﾚｲﾔ_1
 62
     5
 10
630.76486328129988
 20
271.72089843750001
 30
0.0
 11
855.76486328129999
 21
271.72089843750001
 31
0.0
  0
LINE
  5
297
  8
ﾚｲﾔ_1
  6
STITCH
 10
630.76486328129988
 20
269.72089843750001
 30
0.0
 11
630.76486328129988
 21
44.720898437499997
 31
0.0
  0
DIMENSION
  5
2A6
  8
寸法線
  2
*D22
 10
921.58790328980001
 20
33.220898437499997
 30
0.0
 11
921.58790328980001
 21
157.22089843750001
 31
0.0
 70
   128
  1
<>
 13
867.26486328129999
 23
33.220898437499997
 33
0.0
 14
867.26486328129999
 24
281.22089843750001
 34
0.0
 50
90.0
  0
DIMENSION
  5
2B5
  8
寸法線
  2
*D23
 10
904.30283096309995
 20
42.220898437499997
 30
0.0
 11
904.30283096309995
 21
157.22089843750001
 31
0.0
 70
   128
  1
<>
 13
858.26486328129999
 23
42.220898437499997
 33
0.0
 14
858.26486328129999
 24
272.22089843750001
 34
0.0
 50
90.0
  0
ARC
  5
2B6
  8
ﾚｲﾔ_1
 62
     5
 10
764.76486328129999
 20
164.72089843750001
 30
0.0
 40
3.5
 50
90.0
 51
270.0
  0
ARC
  5
2B7
  8
ﾚｲﾔ_1
 62
     5
 10
779.76486328129988
 20
164.72089843750001
 30
0.0
 40
3.5
 50
270.0
 51
90.0
  0
LINE
  5
2B8
  8
ﾚｲﾔ_1
  6
BORDER
 62
     3
 10
830.26486328129988
 20
169.72089843750001
 30
0.0
 11
830.26486328129988
 21
144.72089843750001
 31
0.0
  0
CIRCLE
  5
2B9
  8
ﾚｲﾔ_1
 62
     5
 10
830.26486328129988
 20
157.22089843750001
 30
0.0
 40
7.5
  0
LINE
  5
2BA
  8
ﾚｲﾔ_1
  6
BORDER
 62
     3
 10
656.26486328129999
 20
169.72089843750001
 30
0.0
 11
656.26486328129999
 21
144.72089843750001
 31
0.0
  0
CIRCLE
  5
2BB
  8
ﾚｲﾔ_1
 62
     5
 10
656.26486328129999
 20
157.22089843750001
 30
0.0
 40
7.5
  0
LINE
  5
2BC
  8
ﾚｲﾔ_1
  6
BORDER
 62
     3
 10
743.26486328129988
 20
286.22089843750001
 30
0.0
 11
743.26486328129988
 21
28.220898437500001
 31
0.0
  0
LINE
  5
2BD
  8
ﾚｲﾔ_1
 62
     5
 10
867.26486328129999
 20
281.22089843750001
 30
0.0
 11
867.26486328129999
 21
33.220898437499997
 31
0.0
  0
LINE
  5
2BE
  8
ﾚｲﾔ_1
 62
     5
 10
858.26486328129999
 20
272.22089843750001
 30
0.0
 11
858.26486328129999
 21
42.220898437499997
 31
0.0
  0
LINE
  5
2BF
  8
ﾚｲﾔ_1
 62
     5
 10
857.76486328129999
 20
269.72089843750001
 30
0.0
 11
857.76486328129999
 21
44.720898437499997
 31
0.0
  0
LINE
  5
2C0
  8
ﾚｲﾔ_1
  6
STITCH
 10
855.76486328129999
 20
269.72089843750001
 30
0.0
 11
855.76486328129999
 21
44.720898437499997
 31
0.0
  0
LINE
  5
2C1
  8
ﾚｲﾔ_1
 62
     5
 10
645.72037962110005
 20
-213.02661475260001
 30
0.0
 11
660.72037962110005
 21
-213.02661475260001
 31
0.0
  0
ARC
  5
2C2
  8
ﾚｲﾔ_1
 62
     5
 10
660.72037962110005
 20
-216.52661475260001
 30
0.0
 40
3.5
 50
270.0
 51
90.0
  0
LINE
  5
2C3
  8
ﾚｲﾔ_1
 62
     5
 10
660.72037962110005
 20
-220.02661475260001
 30
0.0
 11
645.72037962110005
 21
-220.02661475260001
 31
0.0
  0
ARC
  5
2C4
  8
ﾚｲﾔ_1
 62
     5
 10
645.72037962110005
 20
-216.52661475260001
 30
0.0
 40
3.5
 50
90.0
 51
270.0
  0
ARC
  5
2C5
  8
ﾚｲﾔ_1
 62
     5
 10
660.72037962110005
 20
-201.52661475260001
 30
0.0
 40
3.5
 50
270.0
 51
90.0
  0
ARC
  5
2C6
  8
ﾚｲﾔ_1
 62
     5
 10
895.83160156249994
 20
-140.02661475260001
 30
0.0
 40
2.0
 50
90.0
 51
180.0
  0
LINE
  5
2C7
  8
ﾚｲﾔ_1
 62
     5
 10
916.83160156250005
 20
-138.02661475260001
 30
0.0
 11
916.83160156250005
 21
-140.02661475260001
 31
0.0
  0
LINE
  5
2C8
  8
ﾚｲﾔ_1
 62
     5
 10
852.85292968749991
 20
-138.02661475260001
 30
0.0
 11
852.85292968749991
 21
-140.02661475260001
 31
0.0
  0
LINE
  5
2C9
  8
ﾚｲﾔ_1
 62
     5
 10
866.46509765630014
 20
-56.011669270799999
 30
0.0
 11
859.06509765630005
 21
-56.011669270799999
 31
0.0
  0
ARC
  5
2CA
  8
ﾚｲﾔ_1
 62
     5
 10
859.06509765630005
 20
-55.211669270800002
 30
0.0
 40
0.8
 50
180.0
 51
270.0
  0
LINE
  5
2CB
  8
ﾚｲﾔ_1
 62
     5
 10
859.06509765630005
 20
-55.211669270800002
 30
0.0
 11
866.46509765630014
 21
-55.211669270800002
 31
0.0
  0
ARC
  5
2CC
  8
ﾚｲﾔ_1
 62
     5
 10
866.46509765630014
 20
-55.211669270800002
 30
0.0
 40
0.8
 50
270.0
 51
0.0
  0
LINE
  5
2CD
  8
ﾚｲﾔ_1
 62
     5
 10
793.26509765629999
 20
-56.011669270799999
 30
0.0
 11
743.26486328129988
 21
-56.011328124999999
 31
0.0
  0
LINE
  5
2CE
  8
ﾚｲﾔ_1
 62
     5
 10
859.06509692899988
 20
-56.011669270799999
 30
0.0
 11
793.26509765629999
 21
-56.011669270799999
 31
0.0
  0
LINE
  5
2CF
  8
ﾚｲﾔ_1
 62
     5
 10
736.72037962110005
 20
-140.02661475260001
 30
0.0
 11
736.72037962110005
 21
-138.02661475260001
 31
0.0
  0
LINE
  5
2D0
  8
ﾚｲﾔ_1
 62
     5
 10
840.85292968750002
 20
-140.02661475260001
 30
0.0
 11
852.85292968749991
 21
-140.02661475260001
 31
0.0
  0
ARC
  5
2D1
  8
ﾚｲﾔ_1
 62
     5
 10
840.85292968750002
 20
-140.02661475260001
 30
0.0
 40
2.0
 50
90.0
 51
180.0000386554
  0
LINE
  5
2D2
  8
ﾚｲﾔ_1
 62
     5
 10
840.85292968750002
 20
-138.02661475260001
 30
0.0
 11
852.85292968749991
 21
-138.02661475260001
 31
0.0
  0
LINE
  5
2D3
  8
ﾚｲﾔ_1
 62
     5
 10
895.83160156249994
 20
-140.02661475260001
 30
0.0
 11
916.83160156250005
 21
-140.02661475260001
 31
0.0
  0
LINE
  5
2D4
  8
ﾚｲﾔ_1
 62
     5
 10
895.83160156249994
 20
-138.02661475260001
 30
0.0
 11
916.83160156250005
 21
-138.02661475260001
 31
0.0
  0
LINE
  5
2D5
  8
ﾚｲﾔ_1
 62
     5
 10
703.72037962110005
 20
-169.52661475260001
 30
0.0
 11
718.72037962110005
 21
-169.52661475260001
 31
0.0
  0
ARC
  5
2D6
  8
ﾚｲﾔ_1
 62
     5
 10
718.72037962110005
 20
-158.02661475260001
 30
0.0
 40
3.5
 50
270.0
 51
90.0
  0
LINE
  5
2D7
  8
ﾚｲﾔ_1
 62
     5
 10
703.72037962110005
 20
-154.52661475260001
 30
0.0
 11
718.72037962110005
 21
-154.52661475260001
 31
0.0
  0
LINE
  5
2D8
  8
ﾚｲﾔ_1
 62
     5
 10
718.72037962110005
 20
-161.52661475260001
 30
0.0
 11
703.72037962110005
 21
-161.52661475260001
 31
0.0
  0
LINE
  5
2D9
  8
ﾚｲﾔ_1
 62
     5
 10
619.26486328129999
 20
33.220898437499997
 30
0.0
 11
619.26486328129999
 21
281.22089843750001
 31
0.0
  0
ARC
  5
2DA
  8
ﾚｲﾔ_1
 62
     5
 10
645.72037962110005
 20
-173.02661475260001
 30
0.0
 40
3.5
 50
90.0
 51
270.0
  0
ARC
  5
2DB
  8
ﾚｲﾔ_1
 62
     5
 10
660.72037962110005
 20
-158.02661475260001
 30
0.0
 40
3.5
 50
270.0
 51
90.0
  0
LINE
  5
2DC
  8
ﾚｲﾔ_1
 62
     5
 10
645.72037962110005
 20
-154.52661475260001
 30
0.0
 11
660.72037962110005
 21
-154.52661475260001
 31
0.0
  0
ARC
  5
2DD
  8
ﾚｲﾔ_1
 62
     5
 10
660.72037962110005
 20
-245.02661475260001
 30
0.0
 40
3.5
 50
270.0
 51
90.0
  0
LINE
  5
2DE
  8
ﾚｲﾔ_1
 62
     5
 10
645.72037962110005
 20
-241.52661475260001
 30
0.0
 11
660.72037962110005
 21
-241.52661475260001
 31
0.0
  0
LINE
  5
2DF
  8
ﾚｲﾔ_1
 62
     5
 10
660.72037962110005
 20
-248.52661475260001
 30
0.0
 11
645.72037962110005
 21
-248.52661475260001
 31
0.0
  0
ARC
  5
2E0
  8
ﾚｲﾔ_1
 62
     5
 10
645.72037962110005
 20
-245.02661475260001
 30
0.0
 40
3.5
 50
90.0
 51
270.0
  0
LINE
  5
2E1
  8
ﾚｲﾔ_1
 62
     5
 10
645.72037962110005
 20
-256.52661475259998
 30
0.0
 11
660.72037962110005
 21
-256.52661475259998
 31
0.0
  0
LINE
  5
2E2
  8
ﾚｲﾔ_1
 62
     5
 10
718.72037962110005
 20
-176.52661475260001
 30
0.0
 11
703.72037962110005
 21
-176.52661475260001
 31
0.0
  0
LINE
  5
2E3
  8
ﾚｲﾔ_1
 62
     5
 10
703.72037962110005
 20
-213.02661475260001
 30
0.0
 11
718.72037962110005
 21
-213.02661475260001
 31
0.0
  0
LINE
  5
2E4
  8
ﾚｲﾔ_1
 62
     5
 10
736.72037962110005
 20
-140.02661475260001
 30
0.0
 11
738.72037962110005
 21
-140.02661475260001
 31
0.0
  0
ARC
  5
2E5
  8
ﾚｲﾔ_1
 62
     5
 10
703.72037962110005
 20
-158.02661475260001
 30
0.0
 40
3.5
 50
90.0
 51
270.0
  0
ARC
  5
2E6
  8
ﾚｲﾔ_1
 62
     5
 10
718.72037962110005
 20
-201.52661475260001
 30
0.0
 40
3.5
 50
270.0
 51
90.0
  0
LINE
  5
2E7
  8
ﾚｲﾔ_1
 62
     5
 10
703.72037962110005
 20
-198.02661475260001
 30
0.0
 11
718.72037962110005
 21
-198.02661475260001
 31
0.0
  0
LINE
  5
2E8
  8
ﾚｲﾔ_1
 62
     5
 10
718.72037962110005
 20
-205.02661475260001
 30
0.0
 11
703.72037962110005
 21
-205.02661475260001
 31
0.0
  0
ARC
  5
2E9
  8
ﾚｲﾔ_1
 62
     5
 10
703.72037962110005
 20
-201.52661475260001
 30
0.0
 40
3.5
 50
90.0
 51
270.0
  0
ARC
  5
2EA
  8
ﾚｲﾔ_1
 62
     5
 10
718.72037962110005
 20
-173.02661475260001
 30
0.0
 40
3.5
 50
270.0
 51
90.0
  0
ARC
  5
2EB
  8
ﾚｲﾔ_1
 62
     5
 10
703.72037962110005
 20
-173.02661475260001
 30
0.0
 40
3.5
 50
90.0
 51
270.0
  0
ARC
  5
2EC
  8
ﾚｲﾔ_1
 62
     5
 10
718.72037962110005
 20
-216.52661475260001
 30
0.0
 40
3.5
 50
270.0
 51
90.0
  0
LINE
  5
2ED
  8
ﾚｲﾔ_1
 62
     5
 10
718.72037962110005
 20
-220.02661475260001
 30
0.0
 11
703.72037962110005
 21
-220.02661475260001
 31
0.0
  0
ARC
  5
2EE
  8
ﾚｲﾔ_1
 62
     5
 10
703.72037962110005
 20
-216.52661475260001
 30
0.0
 40
3.5
 50
90.0
 51
270.0
  0
LINE
  5
2EF
  8
ﾚｲﾔ_1
  6
BORDER
 62
     3
 10
886.83160156250005
 20
-252.52661475260001
 30
0.0
 11
921.83160156250005
 21
-252.52661475260001
 31
0.0
  0
LINE
  5
2F0
  8
ﾚｲﾔ_1
  6
BORDER
 62
     3
 10
832.85292968750002
 20
-252.52661475260001
 30
0.0
 11
857.85292968750002
 21
-252.52661475260001
 31
0.0
  0
LINE
  5
2F1
  8
ﾚｲﾔ_1
 62
     5
 10
660.72037962110005
 20
-161.52661475260001
 30
0.0
 11
645.72037962110005
 21
-161.52661475260001
 31
0.0
  0
ARC
  5
2F2
  8
ﾚｲﾔ_1
 62
     5
 10
645.72037962110005
 20
-158.02661475260001
 30
0.0
 40
3.5
 50
90.0
 51
270.0
  0
ARC
  5
2F3
  8
ﾚｲﾔ_1
 62
     5
 10
718.72037962110005
 20
-303.52661475259998
 30
0.0
 40
3.5
 50
270.0
 51
90.0
  0
LINE
  5
2F4
  8
ﾚｲﾔ_1
 62
     5
 10
703.72037962110005
 20
-307.02661475259998
 30
0.0
 11
718.72037962110005
 21
-307.02661475259998
 31
0.0
  0
ARC
  5
2F5
  8
ﾚｲﾔ_1
 62
     5
 10
660.72037962110005
 20
-303.52661475259998
 30
0.0
 40
3.5
 50
270.0
 51
90.0
  0
INSERT
  5
2F6
  8
0
  6
CONTINUOUS
  2
*U79
 10
0.0
 20
0.0
 30
0.0
  0
LINE
  5
2F7
  8
ﾚｲﾔ_1
 62
     5
 10
852.85292968749991
 20
-367.02661475259998
 30
0.0
 11
852.85292968749991
 21
-365.02661475259998
 31
0.0
  0
LINE
  5
2F8
  8
ﾚｲﾔ_1
 62
     5
 10
840.85292968750002
 20
-365.02661475259998
 30
0.0
 11
852.85292968749991
 21
-365.02661475259998
 31
0.0
  0
ARC
  5
2F9
  8
ﾚｲﾔ_1
 62
     5
 10
840.85292968750002
 20
-365.02661475259998
 30
0.0
 40
2.0
 50
180.0
 51
270.00001020809998
  0
LINE
  5
2FA
  8
ﾚｲﾔ_1
 62
     5
 10
840.85293004380014
 20
-367.02661475259998
 30
0.0
 11
852.85292968749991
 21
-367.02661475259998
 31
0.0
  0
ARC
  5
2FB
  8
ﾚｲﾔ_1
 62
     5
 10
895.83160156249994
 20
-365.02661475259998
 30
0.0
 40
2.0
 50
180.0
 51
270.0
  0
LINE
  5
2FC
  8
ﾚｲﾔ_1
 62
     5
 10
895.83160156249994
 20
-367.02661475259998
 30
0.0
 11
916.83160156250005
 21
-367.02661475259998
 31
0.0
  0
LINE
  5
2FD
  8
ﾚｲﾔ_1
 62
     5
 10
916.83160156250005
 20
-365.02661475259998
 30
0.0
 11
916.83160156250005
 21
-367.02661475259998
 31
0.0
  0
LINE
  5
2FE
  8
ﾚｲﾔ_1
 62
     5
 10
895.83160156249994
 20
-365.02661475259998
 30
0.0
 11
916.83160156250005
 21
-365.02661475259998
 31
0.0
  0
DIMENSION
  5
30D
  8
寸法線
  2
*D24
 10
766.72037962110005
 20
-201.52661475260001
 30
0.0
 11
766.72037962110005
 21
-187.2766147525999
 31
0.0
 70
   128
  1
<>
 13
722.22037962110005
 23
-201.52661475260001
 33
0.0
 14
722.22037962110005
 24
-173.02661475260001
 34
0.0
 50
90.0
  0
DIMENSION
  5
31C
  8
寸法線
  2
*D25
 10
766.72037962110005
 20
-216.52661475260001
 30
0.0
 11
766.72037962110005
 21
-209.02661475260001
 31
0.0
 70
   128
  1
<>
 13
722.22037962110005
 23
-216.52661475260001
 33
0.0
 14
722.22037962110005
 24
-201.52661475260001
 34
0.0
 50
90.0
  0
DIMENSION
  5
32B
  8
寸法線
  2
*D26
 10
766.72037962110005
 20
-158.02661475260001
 30
0.0
 11
766.72037962110005
 21
-148.02661475260001
 31
0.0
 70
   128
  1
<>
 13
722.22037962110005
 23
-158.02661475260001
 33
0.0
 14
736.72037962110005
 24
-138.02661475260001
 34
0.0
 50
90.0
  0
DIMENSION
  5
33A
  8
寸法線
  2
*D27
 10
766.72037962110005
 20
-173.02661475260001
 30
0.0
 11
766.72037962110005
 21
-165.52661475260001
 31
0.0
 70
   128
  1
<>
 13
722.22037962110005
 23
-173.02661475260001
 33
0.0
 14
722.22037962110005
 24
-158.02661475260001
 34
0.0
 50
90.0
  0
DIMENSION
  5
349
  8
寸法線
  2
*D28
 10
916.83160156250005
 20
-115.94171866489999
 30
0.0
 11
905.33160156250005
 21
-115.94171866489999
 31
0.0
 70
   128
  1
<>
 13
916.83160156250005
 23
-138.02661475260001
 33
0.0
 14
893.83160156250005
 24
-140.02661475260001
 34
0.0
  0
DIMENSION
  5
358
  8
寸法線
  2
*D29
 10
852.85292968749991
 20
-115.94171866489999
 30
0.0
 11
845.85292968749991
 21
-115.94171866489999
 31
0.0
 70
   128
  1
<>
 13
852.85292968749991
 23
-138.02661475260001
 33
0.0
 14
838.85292968750014
 24
-140.0266161019
 34
0.0
  0
DIMENSION
  5
367
  8
寸法線
  2
*D30
 10
766.72037962110005
 20
-245.02661475260001
 30
0.0
 11
766.72037962110005
 21
-230.77661475260001
 31
0.0
 70
   128
  1
<>
 13
664.22037962110005
 23
-245.02661475260001
 33
0.0
 14
722.22037962110005
 24
-216.52661475260001
 34
0.0
 50
90.0
  0
LINE
  5
368
  8
ﾚｲﾔ_1
 62
     5
 10
645.72037962110005
 20
-198.02661475260001
 30
0.0
 11
660.72037962110005
 21
-198.02661475260001
 31
0.0
  0
LINE
  5
369
  8
ﾚｲﾔ_1
 62
     5
 10
645.72037962110005
 20
-169.52661475260001
 30
0.0
 11
660.72037962110005
 21
-169.52661475260001
 31
0.0
  0
LINE
  5
36A
  8
ﾚｲﾔ_1
 62
     5
 10
660.72037962110005
 20
-176.52661475260001
 30
0.0
 11
645.72037962110005
 21
-176.52661475260001
 31
0.0
  0
LINE
  5
36B
  8
ﾚｲﾔ_1
 62
     5
 10
660.72037962110005
 20
-205.02661475260001
 30
0.0
 11
645.72037962110005
 21
-205.02661475260001
 31
0.0
  0
ARC
  5
36C
  8
ﾚｲﾔ_1
 62
     5
 10
645.72037962110005
 20
-201.52661475260001
 30
0.0
 40
3.5
 50
90.0
 51
270.0
  0
ARC
  5
36D
  8
ﾚｲﾔ_1
 62
     5
 10
660.72037962110005
 20
-173.02661475260001
 30
0.0
 40
3.5
 50
270.0
 51
90.0
  0
ARC
  5
36E
  8
ﾚｲﾔ_1
 62
     5
 10
645.72037962110005
 20
-332.02661475259998
 30
0.0
 40
3.5
 50
90.0
 51
270.0
  0
ARC
  5
36F
  8
ﾚｲﾔ_1
 62
     5
 10
660.72037962110005
 20
-347.02661475259998
 30
0.0
 40
3.5
 50
270.0
 51
90.0
  0
LINE
  5
370
  8
ﾚｲﾔ_1
 62
     5
 10
645.72037962110005
 20
-350.52661475259998
 30
0.0
 11
660.72037962110005
 21
-350.52661475259998
 31
0.0
  0
ARC
  5
371
  8
ﾚｲﾔ_1
 62
     5
 10
660.72037962110005
 20
-332.02661475259998
 30
0.0
 40
3.5
 50
270.0
 51
90.0
  0
LINE
  5
372
  8
ﾚｲﾔ_1
 62
     5
 10
660.72037962110005
 20
-263.52661475259998
 30
0.0
 11
645.72037962110005
 21
-263.52661475259998
 31
0.0
  0
LINE
  5
373
  8
ﾚｲﾔ_1
 62
     5
 10
738.72037962110005
 20
-430.55781250000001
 30
0.0
 11
738.72037962110005
 21
-442.55781250000001
 31
0.0
  0
ARC
  5
374
  8
ﾚｲﾔ_1
 62
     5
 10
736.72037962110005
 20
-430.55781250000001
 30
0.0
 40
2.0
 50
0.0
 51
90.000038655400004
  0
LINE
  5
375
  8
ﾚｲﾔ_1
 62
     5
 10
736.72037962110005
 20
-430.55781250000001
 30
0.0
 11
736.72037962110005
 21
-442.55781250000001
 31
0.0
  0
LINE
  5
376
  8
ﾚｲﾔ_1
 62
     5
 10
738.72037962110005
 20
-442.55781250000001
 30
0.0
 11
736.72037962110005
 21
-442.55781250000001
 31
0.0
  0
LINE
  5
377
  8
ﾚｲﾔ_1
 62
     5
 10
703.72037962110005
 20
-292.02661475259998
 30
0.0
 11
718.72037962110005
 21
-292.02661475259998
 31
0.0
  0
LINE
  5
378
  8
ﾚｲﾔ_1
 62
     5
 10
718.72037962110005
 20
-300.02661475259998
 30
0.0
 11
703.72037962110005
 21
-300.02661475259998
 31
0.0
  0
ARC
  5
379
  8
ﾚｲﾔ_1
 62
     5
 10
703.72037962110005
 20
-303.52661475259998
 30
0.0
 40
3.5
 50
90.0
 51
270.0
  0
LINE
  5
37A
  8
ﾚｲﾔ_1
 62
     5
 10
703.72037962110005
 20
-350.52661475259998
 30
0.0
 11
718.72037962110005
 21
-350.52661475259998
 31
0.0
  0
LINE
  5
37B
  8
ﾚｲﾔ_1
 62
     5
 10
718.72037962110005
 20
-343.52661475259998
 30
0.0
 11
703.72037962110005
 21
-343.52661475259998
 31
0.0
  0
ARC
  5
37C
  8
ﾚｲﾔ_1
 62
     5
 10
703.72037962110005
 20
-347.02661475259998
 30
0.0
 40
3.5
 50
90.0
 51
270.0
  0
ARC
  5
37D
  8
ﾚｲﾔ_1
 62
     5
 10
718.72037962110005
 20
-332.02661475259998
 30
0.0
 40
3.5
 50
270.0
 51
90.0
  0
LINE
  5
37E
  8
ﾚｲﾔ_1
 62
     5
 10
703.72037962110005
 20
-335.52661475259998
 30
0.0
 11
718.72037962110005
 21
-335.52661475259998
 31
0.0
  0
LINE
  5
37F
  8
ﾚｲﾔ_1
 62
     5
 10
718.72037962110005
 20
-328.52661475259998
 30
0.0
 11
703.72037962110005
 21
-328.52661475259998
 31
0.0
  0
ARC
  5
380
  8
ﾚｲﾔ_1
 62
     5
 10
703.72037962110005
 20
-332.02661475259998
 30
0.0
 40
3.5
 50
90.0
 51
270.0
  0
ARC
  5
381
  8
ﾚｲﾔ_1
 62
     5
 10
718.72037962110005
 20
-347.02661475259998
 30
0.0
 40
3.5
 50
270.0
 51
90.0
  0
LINE
  5
382
  8
ﾚｲﾔ_1
 62
     5
 10
718.72037962110005
 20
-285.02661475259998
 30
0.0
 11
703.72037962110005
 21
-285.02661475259998
 31
0.0
  0
LINE
  5
383
  8
ﾚｲﾔ_1
 62
     5
 10
736.72037962110005
 20
-365.02661475259998
 30
0.0
 11
736.72037962110005
 21
-367.02661475259998
 31
0.0
  0
LINE
  5
384
  8
ﾚｲﾔ_1
 62
     5
 10
736.72037962110005
 20
-365.02661475259998
 30
0.0
 11
738.72037962110005
 21
-365.02661475259998
 31
0.0
  0
ARC
  5
385
  8
ﾚｲﾔ_1
 62
     5
 10
718.72037962110005
 20
-288.52661475259998
 30
0.0
 40
3.5
 50
270.0
 51
90.0
  0
ARC
  5
386
  8
ﾚｲﾔ_1
 62
     5
 10
703.72037962110005
 20
-288.52661475259998
 30
0.0
 40
3.5
 50
90.0
 51
270.0
  0
ARC
  5
387
  8
ﾚｲﾔ_1
 62
     5
 10
660.72037962110005
 20
-260.02661475259998
 30
0.0
 40
3.5
 50
270.0
 51
90.0
  0
LINE
  5
388
  8
ﾚｲﾔ_1
 62
     5
 10
738.72037962110005
 20
-140.02661475260001
 30
0.0
 11
738.72037962110005
 21
-365.02661475259998
 31
0.0
  0
LINE
  5
389
  8
ﾚｲﾔ_1
 62
     5
 10
893.83160156250005
 20
-140.02661475260001
 30
0.0
 11
893.83160156250005
 21
-365.02661475259998
 31
0.0
  0
LINE
  5
38A
  8
ﾚｲﾔ_1
 62
     5
 10
895.83160156249994
 20
-140.02661475260001
 30
0.0
 11
895.83160156249994
 21
-365.02661475259998
 31
0.0
  0
LINE
  5
38B
  8
ﾚｲﾔ_1
 62
     5
 10
838.85292968750014
 20
-140.0266161019
 30
0.0
 11
838.85292968750014
 21
-365.02661475259998
 31
0.0
  0
DIMENSION
  5
39A
  8
寸法線
  2
*D31
 10
766.72037962110005
 20
-347.02661475259998
 30
0.0
 11
766.72037962110005
 21
-339.52661475259998
 31
0.0
 70
   128
  1
<>
 13
722.22037962110005
 23
-347.02661475259998
 33
0.0
 14
722.22037962110005
 24
-332.02661475259998
 34
0.0
 50
90.0
  0
DIMENSION
  5
3A9
  8
寸法線
  2
*D32
 10
766.72037962110005
 20
-367.02661475259998
 30
0.0
 11
766.72037962110005
 21
-357.02661475259998
 31
0.0
 70
   128
  1
<>
 13
736.72037962110005
 23
-367.02661475259998
 33
0.0
 14
722.22037962110005
 24
-347.02661475259998
 34
0.0
 50
90.0
  0
DIMENSION
  5
3B8
  8
寸法線
  2
*D33
 10
711.22037962110005
 20
-395.02661475259998
 30
0.0
 11
724.97037962110005
 21
-395.02661475259998
 31
0.0
 70
   128
  1
<>
 13
711.22037962110005
 23
-350.52661475259998
 33
0.0
 14
738.72037962110005
 24
-365.02661475259998
 34
0.0
 50
180.0
  0
DIMENSION
  5
3C7
  8
寸法線
  2
*D34
 10
653.22037962110005
 20
-395.02661475259998
 30
0.0
 11
682.22037962110005
 21
-395.02661475259998
 31
0.0
 70
   128
  1
<>
 13
653.22037962110005
 23
-350.52661475259998
 33
0.0
 14
711.22037962110005
 24
-350.52661475259998
 34
0.0
 50
180.0
  0
DIMENSION
  5
3D6
  8
寸法線
  2
*D35
 10
766.72037962110005
 20
-288.52661475259998
 30
0.0
 11
766.72037962110005
 21
-274.27661475259998
 31
0.0
 70
   128
  1
<>
 13
722.22037962110005
 23
-288.52661475259998
 33
0.0
 14
664.22037962110005
 24
-260.02661475259998
 34
0.0
 50
90.0
  0
DIMENSION
  5
3E5
  8
寸法線
  2
*D36
 10
766.72037962110005
 20
-303.52661475259998
 30
0.0
 11
766.72037962110005
 21
-296.02661475259998
 31
0.0
 70
   128
  1
<>
 13
722.22037962110005
 23
-303.52661475259998
 33
0.0
 14
722.22037962110005
 24
-288.52661475259998
 34
0.0
 50
90.0
  0
DIMENSION
  5
3F4
  8
寸法線
  2
*D37
 10
766.72037962110005
 20
-332.02661475259998
 30
0.0
 11
766.72037962110005
 21
-317.77661475259998
 31
0.0
 70
   128
  1
<>
 13
722.22037962110005
 23
-332.02661475259998
 33
0.0
 14
722.22037962110005
 24
-303.52661475259998
 34
0.0
 50
90.0
  0
INSERT
  5
3F5
  8
0
  6
CONTINUOUS
  2
*U80
 10
0.0
 20
0.0
 30
0.0
  0
INSERT
  5
3F6
  8
0
  6
CONTINUOUS
  2
*U81
 10
0.0
 20
0.0
 30
0.0
  0
LINE
  5
3F7
  8
ﾚｲﾔ_1
 62
     5
 10
645.72037962110005
 20
-307.02661475259998
 30
0.0
 11
660.72037962110005
 21
-307.02661475259998
 31
0.0
  0
LINE
  5
3F8
  8
ﾚｲﾔ_1
 62
     5
 10
660.72037962110005
 20
-300.02661475259998
 30
0.0
 11
645.72037962110005
 21
-300.02661475259998
 31
0.0
  0
ARC
  5
3F9
  8
ﾚｲﾔ_1
 62
     5
 10
645.72037962110005
 20
-303.52661475259998
 30
0.0
 40
3.5
 50
90.0
 51
270.0
  0
LINE
  5
3FA
  8
ﾚｲﾔ_1
 62
     5
 10
660.72037962110005
 20
-343.52661475259998
 30
0.0
 11
645.72037962110005
 21
-343.52661475259998
 31
0.0
  0
LINE
  5
3FB
  8
ﾚｲﾔ_1
 62
     5
 10
660.72037962110005
 20
-285.02661475259998
 30
0.0
 11
645.72037962110005
 21
-285.02661475259998
 31
0.0
  0
LINE
  5
3FC
  8
ﾚｲﾔ_1
 62
     5
 10
645.72037962110005
 20
-292.02661475259998
 30
0.0
 11
660.72037962110005
 21
-292.02661475259998
 31
0.0
  0
ARC
  5
3FD
  8
ﾚｲﾔ_1
 62
     5
 10
660.72037962110005
 20
-288.52661475259998
 30
0.0
 40
3.5
 50
270.0
 51
90.0
  0
ARC
  5
3FE
  8
ﾚｲﾔ_1
 62
     5
 10
645.72037962110005
 20
-288.52661475259998
 30
0.0
 40
3.5
 50
90.0
 51
270.0
  0
ARC
  5
3FF
  8
ﾚｲﾔ_1
 62
     5
 10
645.72037962110005
 20
-347.02661475259998
 30
0.0
 40
3.5
 50
90.0
 51
270.0
  0
LINE
  5
400
  8
ﾚｲﾔ_1
 62
     5
 10
645.72037962110005
 20
-335.52661475259998
 30
0.0
 11
660.72037962110005
 21
-335.52661475259998
 31
0.0
  0
LINE
  5
401
  8
ﾚｲﾔ_1
 62
     5
 10
660.72037962110005
 20
-328.52661475259998
 30
0.0
 11
645.72037962110005
 21
-328.52661475259998
 31
0.0
  0
ARC
  5
402
  8
ﾚｲﾔ_1
 62
     5
 10
602.72037962110005
 20
-201.52661475260001
 30
0.0
 40
3.5
 50
270.0
 51
90.0
  0
ARC
  5
403
  8
ﾚｲﾔ_1
 62
     5
 10
602.72037962110005
 20
-173.02661475260001
 30
0.0
 40
3.5
 50
270.0
 51
90.0
  0
ARC
  5
404
  8
ﾚｲﾔ_1
 62
     5
 10
544.72037962110005
 20
-201.52661475260001
 30
0.0
 40
3.5
 50
270.0
 51
90.0
  0
LINE
  5
405
  8
ﾚｲﾔ_1
 10
537.22037962110005
 20
-154.52661475260001
 30
0.0
 11
559.13803216250005
 21
-127.8149450202
 31
0.0
  0
SOLID
  5
406
  8
ﾚｲﾔ_1
 10
537.22037962110005
 20
-154.52661475260001
 30
0.0
 11
539.35628137610001
 21
-149.81144318240001
 31
0.0
 12
539.54216393870001
 22
-151.69698982969999
 32
0.0
 13
539.54216393870001
 23
-151.69698982969999
 33
0.0
  0
SOLID
  5
407
  8
ﾚｲﾔ_1
 10
537.22037962110005
 20
-154.52661475260001
 30
0.0
 11
541.42771058599999
 21
-151.51110726709999
 31
0.0
 12
539.54216393870001
 22
-151.69698982969999
 32
0.0
 13
539.54216393870001
 23
-151.69698982969999
 33
0.0
  0
ARC
  5
408
  8
ﾚｲﾔ_1
 62
     5
 10
602.72037962110005
 20
-158.02661475260001
 30
0.0
 40
3.5
 50
270.0
 51
90.0
  0
LINE
  5
409
  8
ﾚｲﾔ_1
 62
     5
 10
544.72037962110005
 20
-220.02661475260001
 30
0.0
 11
529.72037962110005
 21
-220.02661475260001
 31
0.0
  0
ARC
  5
40A
  8
ﾚｲﾔ_1
 62
     5
 10
529.72037962110005
 20
-216.52661475260001
 30
0.0
 40
3.5
 50
90.0
 51
270.0
  0
ARC
  5
40B
  8
ﾚｲﾔ_1
 62
     5
 10
544.72037962110005
 20
-216.52661475260001
 30
0.0
 40
3.5
 50
270.0
 51
90.0
  0
LINE
  5
40C
  8
ﾚｲﾔ_1
 62
     5
 10
529.72037962110005
 20
-198.02661475260001
 30
0.0
 11
544.72037962110005
 21
-198.02661475260001
 31
0.0
  0
LINE
  5
40D
  8
ﾚｲﾔ_1
 62
     5
 10
544.72037962110005
 20
-205.02661475260001
 30
0.0
 11
529.72037962110005
 21
-205.02661475260001
 31
0.0
  0
LINE
  5
40E
  8
ﾚｲﾔ_1
 62
     5
 10
544.72037962110005
 20
-176.52661475260001
 30
0.0
 11
529.72037962110005
 21
-176.52661475260001
 31
0.0
  0
LINE
  5
40F
  8
ﾚｲﾔ_1
 62
     5
 10
529.72037962110005
 20
-213.02661475260001
 30
0.0
 11
544.72037962110005
 21
-213.02661475260001
 31
0.0
  0
ARC
  5
410
  8
ﾚｲﾔ_1
 62
     5
 10
529.72037962110005
 20
-173.02661475260001
 30
0.0
 40
3.5
 50
90.0
 51
270.0
  0
ARC
  5
411
  8
ﾚｲﾔ_1
 62
     5
 10
544.72037962110005
 20
-173.02661475260001
 30
0.0
 40
3.5
 50
270.0
 51
90.0
  0
LINE
  5
412
  8
ﾚｲﾔ_1
 62
     5
 10
511.72037962109999
 20
-140.02661475260001
 30
0.0
 11
509.72037962109988
 21
-140.02661475260001
 31
0.0
  0
ARC
  5
413
  8
ﾚｲﾔ_1
 62
     5
 10
587.72037962110005
 20
-158.02661475260001
 30
0.0
 40
3.5
 50
90.0
 51
270.0
  0
ARC
  5
414
  8
ﾚｲﾔ_1
 62
     5
 10
587.72037962110005
 20
-201.52661475260001
 30
0.0
 40
3.5
 50
90.0
 51
270.0
  0
ARC
  5
415
  8
ﾚｲﾔ_1
 62
     5
 10
587.72037962110005
 20
-173.02661475260001
 30
0.0
 40
3.5
 50
90.0
 51
270.0
  0
DIMENSION
  5
424
  8
寸法線
  2
*D38
 10
787.58036497259991
 20
-367.02661475259998
 30
0.0
 11
787.58036497259991
 21
-252.52661475260001
 31
0.0
 70
   128
  1
<>
 13
736.72037962110005
 23
-367.02661475259998
 33
0.0
 14
736.72037962110005
 24
-138.02661475260001
 34
0.0
 50
90.0
  0
DIMENSION
  5
433
  8
寸法線
  2
*D39
 10
766.72037962110005
 20
-260.02661475259998
 30
0.0
 11
766.72037962110005
 21
-252.52661475260001
 31
0.0
 70
   128
  1
<>
 13
664.22037962110005
 23
-260.02661475259998
 33
0.0
 14
664.22037962110005
 24
-245.02661475260001
 34
0.0
 50
90.0
  0
LINE
  5
434
  8
ﾚｲﾔ_1
 62
     5
 10
840.85292968750002
 20
-365.02661475259998
 30
0.0
 11
840.85292968750002
 21
-140.02661475260001
 31
0.0
  0
LINE
  5
435
  8
ﾚｲﾔ_1
  6
STITCH
 10
736.72037962110005
 20
-140.02661475260001
 30
0.0
 11
736.72037962110005
 21
-365.02661475259998
 31
0.0
  0
CIRCLE
  5
436
  8
ﾚｲﾔ_1
 62
     5
 10
711.22037962110005
 20
-252.52661475260001
 30
0.0
 40
7.5
  0
LINE
  5
437
  8
ﾚｲﾔ_1
  6
BORDER
 62
     3
 10
711.22037962110005
 20
-240.02661475260001
 30
0.0
 11
711.22037962110005
 21
-265.02661475259998
 31
0.0
  0
ARC
  5
438
  8
ﾚｲﾔ_1
 62
     5
 10
645.72037962110005
 20
-260.02661475259998
 30
0.0
 40
3.5
 50
90.0
 51
270.0
  0
LINE
  5
439
  8
ﾚｲﾔ_1
 62
     5
 10
511.72037962109999
 20
-140.02661475260001
 30
0.0
 11
511.72037962109999
 21
-138.02661475260001
 31
0.0
  0
LINE
  5
43A
  8
ﾚｲﾔ_1
 62
     5
 10
544.72037962110005
 20
-161.52661475260001
 30
0.0
 11
529.72037962110005
 21
-161.52661475260001
 31
0.0
  0
ARC
  5
43B
  8
ﾚｲﾔ_1
 62
     5
 10
529.72037962110005
 20
-158.02661475260001
 30
0.0
 40
3.5
 50
90.0
 51
270.0
  0
LINE
  5
43C
  8
ﾚｲﾔ_1
 62
     5
 10
529.72037962110005
 20
-169.52661475260001
 30
0.0
 11
544.72037962110005
 21
-169.52661475260001
 31
0.0
  0
ARC
  5
43D
  8
ﾚｲﾔ_1
 62
     5
 10
544.72037962110005
 20
-158.02661475260001
 30
0.0
 40
3.5
 50
270.0
 51
90.0
  0
LINE
  5
43E
  8
ﾚｲﾔ_1
 62
     5
 10
529.72037962110005
 20
-154.52661475260001
 30
0.0
 11
544.72037962110005
 21
-154.52661475260001
 31
0.0
  0
ARC
  5
43F
  8
ﾚｲﾔ_1
 62
     5
 10
529.72037962110005
 20
-201.52661475260001
 30
0.0
 40
3.5
 50
90.0
 51
270.0
  0
LINE
  5
440
  8
ﾚｲﾔ_1
 10
559.13803216250005
 20
-127.8149450202
 30
0.0
 11
612.51471727620003
 21
-127.8149450202
 31
0.0
  0
LINE
  5
441
  8
ﾚｲﾔ_1
 62
     5
 10
587.72037962110005
 20
-154.52661475260001
 30
0.0
 11
602.72037962110005
 21
-154.52661475260001
 31
0.0
  0
LINE
  5
442
  8
ﾚｲﾔ_1
 62
     5
 10
602.72037962110005
 20
-161.52661475260001
 30
0.0
 11
587.72037962110005
 21
-161.52661475260001
 31
0.0
  0
LINE
  5
443
  8
ﾚｲﾔ_1
 62
     5
 10
602.72037962110005
 20
-176.52661475260001
 30
0.0
 11
587.72037962110005
 21
-176.52661475260001
 31
0.0
  0
ARC
  5
444
  8
ﾚｲﾔ_1
 62
     5
 10
602.72037962110005
 20
-245.02661475260001
 30
0.0
 40
3.5
 50
270.0
 51
90.0
  0
ARC
  5
445
  8
ﾚｲﾔ_1
 62
     5
 10
587.72037962110005
 20
-245.02661475260001
 30
0.0
 40
3.5
 50
90.0
 51
270.0
  0
LINE
  5
446
  8
ﾚｲﾔ_1
 62
     5
 10
587.72037962110005
 20
-256.52661475259998
 30
0.0
 11
602.72037962110005
 21
-256.52661475259998
 31
0.0
  0
LINE
  5
447
  8
ﾚｲﾔ_1
 62
     5
 10
587.72037962110005
 20
-241.52661475260001
 30
0.0
 11
602.72037962110005
 21
-241.52661475260001
 31
0.0
  0
LINE
  5
448
  8
ﾚｲﾔ_1
 62
     5
 10
602.72037962110005
 20
-248.52661475260001
 30
0.0
 11
587.72037962110005
 21
-248.52661475260001
 31
0.0
  0
LINE
  5
449
  8
ﾚｲﾔ_1
 62
     5
 10
587.72037962110005
 20
-169.52661475260001
 30
0.0
 11
602.72037962110005
 21
-169.52661475260001
 31
0.0
  0
ARC
  5
44A
  8
ﾚｲﾔ_1
 10
620.06486328129995
 20
-55.211328125000001
 30
0.0
 40
0.8
 50
180.0
 51
270.0
  0
ARC
  5
44B
  8
ﾚｲﾔ_1
 10
627.46486328129993
 20
-55.211328125000001
 30
0.0
 40
0.8
 50
270.0
 51
0.0
  0
LINE
  5
44C
  8
ﾚｲﾔ_1
 62
     5
 10
587.72037962110005
 20
-213.02661475260001
 30
0.0
 11
602.72037962110005
 21
-213.02661475260001
 31
0.0
  0
LINE
  5
44D
  8
ﾚｲﾔ_1
 62
     5
 10
602.72037962110005
 20
-205.02661475260001
 30
0.0
 11
587.72037962110005
 21
-205.02661475260001
 31
0.0
  0
LINE
  5
44E
  8
ﾚｲﾔ_1
 62
     5
 10
587.72037962110005
 20
-198.02661475260001
 30
0.0
 11
602.72037962110005
 21
-198.02661475260001
 31
0.0
  0
ARC
  5
44F
  8
ﾚｲﾔ_1
 62
     5
 10
602.72037962110005
 20
-216.52661475260001
 30
0.0
 40
3.5
 50
270.0
 51
90.0
  0
ARC
  5
450
  8
ﾚｲﾔ_1
 62
     5
 10
587.72037962110005
 20
-216.52661475260001
 30
0.0
 40
3.5
 50
90.0
 51
270.0
  0
LINE
  5
451
  8
ﾚｲﾔ_1
 62
     5
 10
602.72037962110005
 20
-220.02661475260001
 30
0.0
 11
587.72037962110005
 21
-220.02661475260001
 31
0.0
  0
ARC
  5
452
  8
ﾚｲﾔ_1
 62
     5
 10
529.72037962110005
 20
-303.52661475259998
 30
0.0
 40
3.5
 50
90.0
 51
270.0
  0
ARC
  5
453
  8
ﾚｲﾔ_1
 62
     5
 10
544.72037962110005
 20
-347.02661475259998
 30
0.0
 40
3.5
 50
270.0
 51
90.0
  0
LINE
  5
454
  8
ﾚｲﾔ_1
 62
     5
 10
529.72037962110005
 20
-350.52661475259998
 30
0.0
 11
544.72037962110005
 21
-350.52661475259998
 31
0.0
  0
LINE
  5
455
  8
ﾚｲﾔ_1
 62
     5
 10
544.72037962110005
 20
-343.52661475259998
 30
0.0
 11
529.72037962110005
 21
-343.52661475259998
 31
0.0
  0
ARC
  5
456
  8
ﾚｲﾔ_1
 62
     5
 10
544.72037962110005
 20
-332.02661475259998
 30
0.0
 40
3.5
 50
270.0
 51
90.0
  0
ARC
  5
457
  8
ﾚｲﾔ_1
 62
     5
 10
602.72037962110005
 20
-347.02661475259998
 30
0.0
 40
3.5
 50
270.0
 51
90.0
  0
ARC
  5
458
  8
ﾚｲﾔ_1
 62
     5
 10
602.72037962110005
 20
-303.52661475259998
 30
0.0
 40
3.5
 50
270.0
 51
90.0
  0
ARC
  5
459
  8
ﾚｲﾔ_1
 62
     5
 10
602.72037962110005
 20
-332.02661475259998
 30
0.0
 40
3.5
 50
270.0
 51
90.0
  0
LINE
  5
45A
  8
ﾚｲﾔ_1
 62
     5
 10
529.72037962110005
 20
-335.52661475259998
 30
0.0
 11
544.72037962110005
 21
-335.52661475259998
 31
0.0
  0
LINE
  5
45B
  8
ﾚｲﾔ_1
 62
     5
 10
544.72037962110005
 20
-328.52661475259998
 30
0.0
 11
529.72037962110005
 21
-328.52661475259998
 31
0.0
  0
ARC
  5
45C
  8
ﾚｲﾔ_1
 62
     5
 10
529.72037962110005
 20
-332.02661475259998
 30
0.0
 40
3.5
 50
90.0
 51
270.0
  0
LINE
  5
45D
  8
ﾚｲﾔ_1
 62
     5
 10
544.72037962110005
 20
-285.02661475259998
 30
0.0
 11
529.72037962110005
 21
-285.02661475259998
 31
0.0
  0
ARC
  5
45E
  8
ﾚｲﾔ_1
 62
     5
 10
544.72037962110005
 20
-288.52661475259998
 30
0.0
 40
3.5
 50
270.0
 51
90.0
  0
ARC
  5
45F
  8
ﾚｲﾔ_1
 62
     5
 10
529.72037962110005
 20
-288.52661475259998
 30
0.0
 40
3.5
 50
90.0
 51
270.0
  0
LINE
  5
460
  8
ﾚｲﾔ_1
 62
     5
 10
529.72037962110005
 20
-292.02661475259998
 30
0.0
 11
544.72037962110005
 21
-292.02661475259998
 31
0.0
  0
ARC
  5
461
  8
ﾚｲﾔ_1
 62
     5
 10
529.72037962110005
 20
-347.02661475259998
 30
0.0
 40
3.5
 50
90.0
 51
270.0
  0
LINE
  5
462
  8
ﾚｲﾔ_1
 62
     5
 10
587.72037962110005
 20
-292.02661475259998
 30
0.0
 11
602.72037962110005
 21
-292.02661475259998
 31
0.0
  0
ARC
  5
463
  8
ﾚｲﾔ_1
 62
     5
 10
587.72037962110005
 20
-332.02661475259998
 30
0.0
 40
3.5
 50
90.0
 51
270.0
  0
ARC
  5
464
  8
ﾚｲﾔ_1
 62
     5
 10
587.72037962110005
 20
-303.52661475259998
 30
0.0
 40
3.5
 50
90.0
 51
270.0
  0
ARC
  5
465
  8
ﾚｲﾔ_1
 62
     5
 10
587.72037962110005
 20
-347.02661475259998
 30
0.0
 40
3.5
 50
90.0
 51
270.0
  0
LINE
  5
466
  8
ﾚｲﾔ_1
 62
     5
 10
587.72037962110005
 20
-350.52661475259998
 30
0.0
 11
602.72037962110005
 21
-350.52661475259998
 31
0.0
  0
LINE
  5
467
  8
ﾚｲﾔ_1
 62
     5
 10
587.72037962110005
 20
-307.02661475259998
 30
0.0
 11
602.72037962110005
 21
-307.02661475259998
 31
0.0
  0
LINE
  5
468
  8
ﾚｲﾔ_1
 62
     5
 10
602.72037962110005
 20
-300.02661475259998
 30
0.0
 11
587.72037962110005
 21
-300.02661475259998
 31
0.0
  0
LINE
  5
469
  8
ﾚｲﾔ_1
 62
     5
 10
587.72037962110005
 20
-335.52661475259998
 30
0.0
 11
602.72037962110005
 21
-335.52661475259998
 31
0.0
  0
INSERT
  5
46A
  8
0
  6
CONTINUOUS
  2
*U82
 10
0.0
 20
0.0
 30
0.0
  0
LINE
  5
46B
  8
ﾚｲﾔ_1
  6
BORDER
 62
     3
 10
537.22037962110005
 20
-240.02661475260001
 30
0.0
 11
537.22037962110005
 21
-265.02661475259998
 31
0.0
  0
CIRCLE
  5
46C
  8
ﾚｲﾔ_1
 62
     5
 10
537.22037962110005
 20
-252.52661475260001
 30
0.0
 40
7.5
  0
LINE
  5
46D
  8
ﾚｲﾔ_1
  6
BORDER
 62
     3
 10
624.22037962110005
 20
-133.02661475260001
 30
0.0
 11
624.22037962110005
 21
-372.02661475259998
 31
0.0
  0
LINE
  5
46E
  8
ﾚｲﾔ_1
  6
STITCH
 10
511.72037962109999
 20
-140.02661475260001
 30
0.0
 11
511.72037962109999
 21
-365.02661475259998
 31
0.0
  0
LINE
  5
46F
  8
ﾚｲﾔ_1
 62
     5
 10
509.72037962109988
 20
-140.02661475260001
 30
0.0
 11
509.72037962109988
 21
-365.02661475259998
 31
0.0
  0
DIMENSION
  5
47E
  8
寸法線
  2
*D40
 10
548.22037962110005
 20
-276.60329398229999
 30
0.0
 11
537.22037962110005
 21
-276.60329398229999
 31
0.0
 70
   128
  1
<>
 13
548.22037962110005
 23
-288.52661475259998
 33
0.0
 14
526.22037962110005
 24
-288.52661475259998
 34
0.0
  0
DIMENSION
  5
48D
  8
寸法線
  2
*D41
 10
509.72037962109988
 20
-395.02661475259998
 30
0.0
 11
523.47037962110005
 21
-395.02661475259998
 31
0.0
 70
   128
  1
<>
 13
509.72037962109988
 23
-365.02661475259998
 33
0.0
 14
537.22037962110005
 24
-350.52661475259998
 34
0.0
 50
180.0
  0
DIMENSION
  5
49C
  8
寸法線
  2
*D42
 10
568.72037962110005
 20
-292.02661475259998
 30
0.0
 11
568.72037962110005
 21
-288.52661475259998
 31
0.0
 70
   128
  1
<>
 13
544.72037962110005
 23
-292.02661475259998
 33
0.0
 14
544.72037962110005
 24
-285.02661475259998
 34
0.0
 50
90.0
  0
DIMENSION
  5
4AB
  8
寸法線
  2
*D43
 10
537.22037962110005
 20
-395.02661475259998
 30
0.0
 11
566.22037962110005
 21
-395.02661475259998
 31
0.0
 70
   128
  1
<>
 13
537.22037962110005
 23
-350.52661475259998
 33
0.0
 14
595.22037962110005
 24
-350.52661475259998
 34
0.0
 50
180.0
  0
LINE
  5
4AC
  8
ﾚｲﾔ_1
 62
     5
 10
511.72037962109999
 20
-365.02661475259998
 30
0.0
 11
511.72037962109999
 21
-367.02661475259998
 31
0.0
  0
LINE
  5
4AD
  8
ﾚｲﾔ_1
 62
     5
 10
511.72037962109999
 20
-365.02661475259998
 30
0.0
 11
509.72037962109988
 21
-365.02661475259998
 31
0.0
  0
ARC
  5
4AE
  8
ﾚｲﾔ_1
 62
     5
 10
544.72037962110005
 20
-303.52661475259998
 30
0.0
 40
3.5
 50
270.0
 51
90.0
  0
ARC
  5
4AF
  8
ﾚｲﾔ_1
 62
     5
 10
587.72037962110005
 20
-288.52661475259998
 30
0.0
 40
3.5
 50
90.0
 51
270.0
  0
LINE
  5
4B0
  8
ﾚｲﾔ_1
 62
     5
 10
509.72037962109988
 20
-430.5578128562999
 30
0.0
 11
509.72037962109988
 21
-442.55781250000001
 31
0.0
  0
ARC
  5
4B1
  8
ﾚｲﾔ_1
 62
     5
 10
511.72037962109999
 20
-430.55781250000001
 30
0.0
 40
2.0
 50
90.0
 51
180.00001020810001
  0
LINE
  5
4B2
  8
ﾚｲﾔ_1
 62
     5
 10
511.72037962109999
 20
-430.55781250000001
 30
0.0
 11
511.72037962109999
 21
-442.55781250000001
 31
0.0
  0
LINE
  5
4B3
  8
ﾚｲﾔ_1
 62
     5
 10
509.72037962109988
 20
-442.55781250000001
 30
0.0
 11
511.72037962109999
 21
-442.55781250000001
 31
0.0
  0
LINE
  5
4B4
  8
ﾚｲﾔ_1
  6
BORDER
 62
     3
 10
624.22037962110005
 20
-422.55781250000001
 30
0.0
 11
624.22037962110005
 21
-447.55781250000001
 31
0.0
  0
LINE
  5
4B5
  8
ﾚｲﾔ_1
 62
     5
 10
602.72037962110005
 20
-343.52661475259998
 30
0.0
 11
587.72037962110005
 21
-343.52661475259998
 31
0.0
  0
LINE
  5
4B6
  8
ﾚｲﾔ_1
 62
     5
 10
602.72037962110005
 20
-285.02661475259998
 30
0.0
 11
587.72037962110005
 21
-285.02661475259998
 31
0.0
  0
ARC
  5
4B7
  8
ﾚｲﾔ_1
 62
     5
 10
602.72037962110005
 20
-288.52661475259998
 30
0.0
 40
3.5
 50
270.0
 51
90.0
  0
LINE
  5
4B8
  8
ﾚｲﾔ_1
 62
     5
 10
602.72037962110005
 20
-328.52661475259998
 30
0.0
 11
587.72037962110005
 21
-328.52661475259998
 31
0.0
  0
LINE
  5
4B9
  8
ﾚｲﾔ_1
 62
     5
 10
602.72037962110005
 20
-263.52661475259998
 30
0.0
 11
587.72037962110005
 21
-263.52661475259998
 31
0.0
  0
LINE
  5
4BA
  8
ﾚｲﾔ_1
 62
     5
 10
529.72037962110005
 20
-307.02661475259998
 30
0.0
 11
544.72037962110005
 21
-307.02661475259998
 31
0.0
  0
LINE
  5
4BB
  8
ﾚｲﾔ_1
 62
     5
 10
544.72037962110005
 20
-300.02661475259998
 30
0.0
 11
529.72037962110005
 21
-300.02661475259998
 31
0.0
  0
LINE
  5
4BC
  8
ﾚｲﾔ_1
 10
743.26486328129988
 20
-56.011328124999999
 30
0.0
 11
620.06486328129995
 21
-56.011328124999999
 31
0.0
  0
LINE
  5
4BD
  8
ﾚｲﾔ_1
 10
636.26483019650004
 20
-55.211328125000001
 30
0.0
 11
620.06486328129995
 21
-55.211328125000001
 31
0.0
  0
INSERT
  5
4BF
  8
寸法線
  2
BALLON1
 10
0.0
 20
0.0
 30
0.0
  0
DIMENSION
  5
4D6
  8
寸法線
  2
*D45
 10
867.26486328129999
 20
325.8789146423
 30
0.0
 11
743.26486328129988
 21
325.8789146423
 31
0.0
 70
   128
  1
<>
 13
867.26486328129999
 23
281.22089843750001
 33
0.0
 14
619.26486328129999
 24
281.22089843750001
 34
0.0
  0
LINE
  5
4D7
  8
ﾚｲﾔ_1
 10
619.26486328129999
 20
-32.011328124999999
 30
0.0
 11
743.26486328129988
 21
-32.011328124999999
 31
0.0
  0
LINE
  5
4D8
  8
ﾚｲﾔ_1
 10
620.06486328129995
 20
-26.011328124999999
 30
0.0
 11
743.26486328129988
 21
-26.011328124999999
 31
0.0
  0
LINE
  5
4D9
  8
ﾚｲﾔ_1
  6
BORDER
 62
     3
 10
614.26486328129988
 20
157.22089843750001
 30
0.0
 11
872.26486328119995
 21
157.22089843750001
 31
0.0
  0
LINE
  5
4DA
  8
ﾚｲﾔ_1
 62
     5
 10
628.26486328129999
 20
272.22089843750001
 30
0.0
 11
858.26486328129999
 21
272.22089843750001
 31
0.0
  0
LINE
  5
4DB
  8
ﾚｲﾔ_1
 62
     5
 10
619.26486328129999
 20
281.22089843750001
 30
0.0
 11
867.26486328129999
 21
281.22089843750001
 31
0.0
  0
LINE
  5
4DC
  8
ﾚｲﾔ_1
 62
     5
 10
867.26486328129999
 20
33.220898437499997
 30
0.0
 11
619.26486328129999
 21
33.220898437499997
 31
0.0
  0
LINE
  5
4DD
  8
ﾚｲﾔ_1
 62
     5
 10
858.26486328129999
 20
42.220898437499997
 30
0.0
 11
628.26486328129999
 21
42.220898437499997
 31
0.0
  0
LINE
  5
4DE
  8
ﾚｲﾔ_1
 62
     5
 10
630.76486328129988
 20
44.720898437499997
 30
0.0
 11
628.76486328129999
 21
44.720898437499997
 31
0.0
  0
DIMENSION
  5
4ED
  8
寸法線
  2
*D46
 10
628.26486328129999
 20
308.92500000000001
 30
0.0
 11
623.76486328129999
 21
308.92500000000001
 31
0.0
 70
   128
  1
<>
 13
628.26486328129999
 23
272.22089843750001
 33
0.0
 14
619.26486328129999
 24
281.22089843750001
 34
0.0
  0
LINE
  5
4EE
  8
ﾚｲﾔ_1
 62
     5
 10
630.76486328129988
 20
269.72089843750001
 30
0.0
 11
628.76486328129999
 21
269.72089843750001
 31
0.0
  0
INSERT
  5
4F0
  8
図枠
  2
CLUMP4
 10
0.0
 20
0.0
 30
0.0
  0
INSERT
  5
4FA
  8
図枠
  2
CLUMP5
 10
0.0
 20
0.0
 30
0.0
  0
INSERT
  5
504
  8
図枠
  2
CLUMP6
 10
0.0
 20
0.0
 30
0.0
  0
INSERT
  5
50D
  8
0
  6
CONTINUOUS
  2
*U84
 10
0.0
 20
0.0
 30
0.0
  0
INSERT
  5
50E
  8
0
  6
CONTINUOUS
  2
*U85
 10
0.0
 20
0.0
 30
0.0
  0
INSERT
  5
50F
  8
0
  6
CONTINUOUS
  2
*U86
 10
0.0
 20
0.0
 30
0.0
  0
INSERT
  5
510
  8
0
  6
CONTINUOUS
  2
*U87
 10
0.0
 20
0.0
 30
0.0
  0
INSERT
  5
511
  8
0
  6
CONTINUOUS
  2
*U88
 10
0.0
 20
0.0
 30
0.0
  0
DIMENSION
  5
519
  8
寸法線
  2
*D50
 10
519.62714798589991
 20
-266.54204922029999
 30
0.0
 11
525.42081301220003
 21
-290.74473286289998
 31
0.0
 70
   131
  1
2-%%c<>
 15
531.51742784980001
 25
-257.39758396769997
 35
0.0
 40
0.0
  0
ARC
  5
51A
  8
ﾚｲﾔ_1
 62
     5
 10
602.72037962110005
 20
-260.02661475259998
 30
0.0
 40
3.5
 50
270.0
 51
90.0
  0
ARC
  5
51B
  8
ﾚｲﾔ_1
 62
     5
 10
587.72037962110005
 20
-260.02661475259998
 30
0.0
 40
3.5
 50
90.0
 51
270.0
  0
INSERT
  5
51D
  8
図枠
  2
CLUMP7
 10
0.0
 20
0.0
 30
0.0
  0
INSERT
  5
5C2
  8
寸法線
  2
BALLON2
 10
0.0
 20
0.0
 30
0.0
  0
DIMENSION
  5
5D9
  8
寸法線
  2
*D53
 10
910.14370254519997
 20
-56.011669270799999
 30
0.0
 11
910.14370254519997
 21
-53.011669270799999
 31
0.0
 70
   128
  1
<>
 13
867.2650976563001
 23
-56.011669270799999
 33
0.0
 14
867.2650976563001
 24
-50.011669270799992
 34
0.0
 50
90.0
  0
LINE
  5
5DA
  8
ﾚｲﾔ_1
 10
636.26483019650004
 20
-50.011328124999991
 30
0.0
 11
743.26486328129988
 21
-50.011328124999991
 31
0.0
  0
LINE
  5
5DB
  8
ﾚｲﾔ_1
 62
     5
 10
858.26509765629999
 20
-41.011669270799999
 30
0.0
 11
858.26509765629999
 21
-55.211669270800002
 31
0.0
  0
LINE
  5
5DC
  8
ﾚｲﾔ_1
 62
     5
 10
859.06509765630005
 20
-41.011669270799999
 30
0.0
 11
859.06509765630005
 21
-55.211669270800002
 31
0.0
  0
LINE
  5
5DD
  8
ﾚｲﾔ_1
 10
635.46486328129993
 20
-32.011328124999999
 30
0.0
 11
635.46486328129993
 21
-55.211328125000001
 31
0.0
  0
LINE
  5
5DE
  8
ﾚｲﾔ_1
 10
627.46486328129993
 20
-32.011328124999999
 30
0.0
 11
627.46486328129993
 21
-55.211328125000001
 31
0.0
  0
LINE
  5
5DF
  8
ﾚｲﾔ_1
  6
BORDER
 62
     3
 10
743.26486328129988
 20
-21.0113281249
 30
0.0
 11
743.26486328129988
 21
-61.0113281251
 31
0.0
  0
LINE
  5
5E0
  8
ﾚｲﾔ_1
 62
     5
 10
866.46509765630014
 20
-50.011669270799992
 30
0.0
 11
866.46509765630014
 21
-55.211669270800002
 31
0.0
  0
LINE
  5
5E1
  8
ﾚｲﾔ_1
 62
     5
 10
867.2650976563001
 20
-55.211669270800002
 30
0.0
 11
867.2650976563001
 21
-50.011669270799992
 31
0.0
  0
LINE
  5
5E2
  8
ﾚｲﾔ_1
 62
     5
 10
867.2650976563001
 20
-50.011669270799992
 30
0.0
 11
866.46509765630014
 21
-50.011669270799992
 31
0.0
  0
LINE
  5
5E3
  8
ﾚｲﾔ_1
 10
636.26483019650004
 20
-50.011328124999991
 30
0.0
 11
636.26483019650004
 21
-56.011328124999999
 31
0.0
  0
LINE
  5
5E4
  8
ﾚｲﾔ_1
 10
620.06486328129995
 20
-50.011328124999991
 30
0.0
 11
619.26486328129999
 21
-50.011328124999991
 31
0.0
  0
LINE
  5
5E5
  8
ﾚｲﾔ_1
 10
620.06486328129995
 20
-55.211328125000001
 30
0.0
 11
620.06486328129995
 21
-50.011328124999991
 31
0.0
  0
LINE
  5
5E6
  8
ﾚｲﾔ_1
 10
619.26486328129999
 20
-55.211328125000001
 30
0.0
 11
619.26486328129999
 21
-50.011328124999991
 31
0.0
  0
DIMENSION
  5
5F5
  8
寸法線
  2
*D54
 10
595.22037962110005
 20
-395.02661475259998
 30
0.0
 11
624.22037962110005
 21
-395.02661475259998
 31
0.0
 70
   128
  1
<>
 13
595.22037962110005
 23
-350.52661475259998
 33
0.0
 14
653.22037962110005
 24
-350.52661475259998
 34
0.0
 50
180.0
  0
DIMENSION
  5
604
  8
寸法線
  2
*D55
 10
738.72037962110005
 20
-110.0266147526
 30
0.0
 11
624.22037962110005
 21
-110.0266147526
 31
0.0
 70
   128
  1
<>
 13
738.72037962110005
 23
-140.02661475260001
 33
0.0
 14
509.72037962109988
 24
-140.02661475260001
 34
0.0
  0
LINE
  5
605
  8
ﾚｲﾔ_1
  6
STITCH
 10
511.72037962109999
 20
-140.02661475260001
 30
0.0
 11
736.72037962110005
 21
-140.02661475260001
 31
0.0
  0
LINE
  5
606
  8
ﾚｲﾔ_1
  6
STITCH
 10
511.72037962109999
 20
-365.02661475259998
 30
0.0
 11
736.72037962110005
 21
-365.02661475259998
 31
0.0
  0
LINE
  5
607
  8
ﾚｲﾔ_1
 62
     5
 10
511.72037962109999
 20
-367.02661475259998
 30
0.0
 11
736.72037962110005
 21
-367.02661475259998
 31
0.0
  0
LINE
  5
608
  8
ﾚｲﾔ_1
 62
     5
 10
511.72037962109999
 20
-430.55781250000001
 30
0.0
 11
736.72037962110005
 21
-430.55781250000001
 31
0.0
  0
LINE
  5
609
  8
ﾚｲﾔ_1
 62
     5
 10
736.72037827179986
 20
-428.5578124999999
 30
0.0
 11
511.72037962109999
 21
-428.5578124999999
 31
0.0
  0
LINE
  5
60A
  8
ﾚｲﾔ_1
 62
     5
 10
511.72037962109999
 20
-138.02661475260001
 30
0.0
 11
736.72037962110005
 21
-138.02661475260001
 31
0.0
  0
LINE
  5
60B
  8
ﾚｲﾔ_1
  6
BORDER
 62
     3
 10
504.72037962109988
 20
-252.52661475260001
 30
0.0
 11
743.72037962110005
 21
-252.52661475260001
 31
0.0
  0
ENDSEC
  0
EOF
