  0
SECTION
  2
HEADER
  9
$ACADVER
  1
AC1009
  9
$INSBASE
 10
0.0
 20
0.0
 30
0.0
  9
$EXTMIN
 10
419.55499999999989
 20
-414.07583333330001
 30
0.0
  9
$EXTMAX
 10
1444.4549999999999
 20
307.07416666670002
 30
0.0
  9
$LIMMIN
 10
0.0
 20
0.0
  9
$LIMMAX
 10
0.0
 20
0.0
  9
$ORTHOMODE
 70
     0
  9
$REGENMODE
 70
     1
  9
$FILLMODE
 70
     1
  9
$QTEXTMODE
 70
     0
  9
$MIRRTEXT
 70
     1
  9
$DRAGMODE
 70
     2
  9
$LTSCALE
 40
1.0
  9
$OSMODE
 70
    31
  9
$ATTMODE
 70
     1
  9
$TEXTSIZE
 40
0.0
  9
$TRACEWID
 40
0.05
  9
$TEXTSTYLE
  7
STANDARD
  9
$CLAYER
  8
0
  9
$CELTYPE
  6
CONTINUOUS
  9
$CECOLOR
 62
   256
  9
$DIMSCALE
 40
1.0
  9
$DIMASZ
 40
0.18
  9
$DIMEXO
 40
0.0625
  9
$DIMDLI
 40
0.38
  9
$DIMRND
 40
0.0
  9
$DIMDLE
 40
0.0
  9
$DIMEXE
 40
0.18
  9
$DIMTP
 40
0.0
  9
$DIMTM
 40
0.0
  9
$DIMTXT
 40
0.18
  9
$DIMCEN
 40
0.09
  9
$DIMTSZ
 40
0.0
  9
$DIMTOL
 70
     0
  9
$DIMLIM
 70
     0
  9
$DIMTIH
 70
     1
  9
$DIMTOH
 70
     1
  9
$DIMSE1
 70
     0
  9
$DIMSE2
 70
     0
  9
$DIMTAD
 70
     0
  9
$DIMZIN
 70
     0
  9
$DIMBLK
  1

  9
$DIMASO
 70
     1
  9
$DIMSHO
 70
     1
  9
$DIMPOST
  1

  9
$DIMAPOST
  1

  9
$DIMALT
 70
     0
  9
$DIMALTD
 70
     2
  9
$DIMALTF
 40
25.399999999999999
  9
$DIMLFAC
 40
1.0
  9
$DIMTOFL
 70
     0
  9
$DIMTVP
 40
0.0
  9
$DIMTIX
 70
     0
  9
$DIMSOXD
 70
     0
  9
$DIMSAH
 70
     0
  9
$DIMBLK1
  1

  9
$DIMBLK2
  1

  9
$DIMSTYLE
  2
STANDARD
  9
$DIMCLRD
 70
     0
  9
$DIMCLRE
 70
     0
  9
$DIMCLRT
 70
     0
  9
$DIMTFAC
 40
1.0
  9
$DIMGAP
 40
0.09
  9
$LUNITS
 70
     2
  9
$LUPREC
 70
     4
  9
$SKETCHINC
 40
0.1
  9
$FILLETRAD
 40
0.0
  9
$AUNITS
 70
     0
  9
$AUPREC
 70
     0
  9
$MENU
  1
acad
  9
$ELEVATION
 40
0.0
  9
$PELEVATION
 40
0.0
  9
$THICKNESS
 40
0.0
  9
$LIMCHECK
 70
     0
  9
$BLIPMODE
 70
     0
  9
$CHAMFERA
 40
0.0
  9
$CHAMFERB
 40
0.0
  9
$SKPOLY
 70
     0
  9
$TDCREATE
 40
2454859.8101716209
  9
$TDUPDATE
 40
2454859.8104000231
  9
$TDINDWG
 40
0.0002707176
  9
$TDUSRTIMER
 40
0.0002676505
  9
$USRTIMER
 70
     1
  9
$ANGBASE
 50
0.0
  9
$ANGDIR
 70
     0
  9
$PDMODE
 70
     3
  9
$PDSIZE
 40
-1.0
  9
$PLINEWID
 40
0.0
  9
$COORDS
 70
     2
  9
$SPLFRAME
 70
     0
  9
$SPLINETYPE
 70
     6
  9
$SPLINESEGS
 70
     8
  9
$ATTDIA
 70
     0
  9
$ATTREQ
 70
     1
  9
$HANDLING
 70
     1
  9
$HANDSEED
  5
8D0
  9
$SURFTAB1
 70
     6
  9
$SURFTAB2
 70
     6
  9
$SURFTYPE
 70
     6
  9
$SURFU
 70
     6
  9
$SURFV
 70
     6
  9
$UCSNAME
  2

  9
$UCSORG
 10
0.0
 20
0.0
 30
0.0
  9
$UCSXDIR
 10
1.0
 20
0.0
 30
0.0
  9
$UCSYDIR
 10
0.0
 20
1.0
 30
0.0
  9
$PUCSNAME
  2

  9
$PUCSORG
 10
0.0
 20
0.0
 30
0.0
  9
$PUCSXDIR
 10
1.0
 20
0.0
 30
0.0
  9
$PUCSYDIR
 10
0.0
 20
1.0
 30
0.0
  9
$USERI1
 70
     0
  9
$USERI2
 70
     0
  9
$USERI3
 70
     0
  9
$USERI4
 70
     0
  9
$USERI5
 70
     0
  9
$USERR1
 40
0.0
  9
$USERR2
 40
0.0
  9
$USERR3
 40
0.0
  9
$USERR4
 40
0.0
  9
$USERR5
 40
0.0
  9
$WORLDVIEW
 70
     1
  9
$SHADEDGE
 70
     3
  9
$SHADEDIF
 70
    70
  9
$TILEMODE
 70
     1
  9
$MAXACTVP
 70
    16
  9
$PLIMCHECK
 70
     0
  9
$PEXTMIN
 10
1.0000000000000000E+020
 20
1.0000000000000000E+020
 30
1.0000000000000000E+020
  9
$PEXTMAX
 10
-1.0000000000000000E+020
 20
-1.0000000000000000E+020
 30
-1.0000000000000000E+020
  9
$PLIMMIN
 10
0.0
 20
0.0
  9
$PLIMMAX
 10
12.0
 20
9.0
  9
$UNITMODE
 70
     0
  9
$VISRETAIN
 70
     0
  9
$PLINEGEN
 70
     1
  9
$PSLTSCALE
 70
     0
  0
ENDSEC
  0
SECTION
  2
TABLES
  0
TABLE
  2
VPORT
 70
     2
  0
VPORT
  2
*ACTIVE
 70
     0
 10
0.0
 20
0.0
 11
1.0
 21
1.0
 12
932.00499999999977
 22
-53.500833333300022
 13
0.0
 23
0.0
 14
1.0
 24
1.0
 15
0.0
 25
0.0
 16
0.0
 26
0.0
 36
1.0
 17
0.0
 27
0.0
 37
0.0
 40
727.13464730290445
 41
1.6343490304709141
 42
50.0
 43
0.0
 44
0.0
 50
0.0
 51
0.0
 71
     0
 72
   100
 73
     1
 74
     1
 75
     0
 76
     0
 77
     0
 78
     0
  0
ENDTAB
  0
TABLE
  2
LTYPE
 70
    11
  0
LTYPE
  2
CONTINUOUS
 70
     0
  3
Solid line
 72
    65
 73
     0
 40
0.0
  0
LTYPE
  2
DOT
 70
     0
  3
. . . . . . . . 
 72
    65
 73
     2
 40
1.0
 49
0.0
 49
-1.0
  0
LTYPE
  2
DASHED
 70
     0
  3
___  ___  ___  ___  
 72
    65
 73
     2
 40
4.0
 49
3.0
 49
-1.0
  0
LTYPE
  2
HIDDEN
 70
     0
  3
__ __ __ __ 
 72
    65
 73
     2
 40
3.0
 49
2.0
 49
-1.0
  0
LTYPE
  2
STITCH
 70
     0
  3
_ _ _ _ 
 72
    65
 73
     2
 40
2.0
 49
1.0
 49
-1.0
  0
LTYPE
  2
CENTER
 70
     0
  3
______  __  ______  __  
 72
    65
 73
     4
 40
43.0
 49
40.0
 49
-1.0
 49
1.0
 49
-1.0
  0
LTYPE
  2
DASHDOT
 70
     0
  3
____ . ____ . 
 72
    65
 73
     4
 40
32.0
 49
30.0
 49
-1.0
 49
0.0
 49
-1.0
  0
LTYPE
  2
BORDER
 70
     0
  3
__ . __ . 
 72
    65
 73
     4
 40
22.0
 49
20.0
 49
-1.0
 49
0.0
 49
-1.0
  0
LTYPE
  2
CUTTING
 70
     0
  3
________   ___   ___   
 72
    65
 73
     6
 40
45.0
 49
40.0
 49
-1.0
 49
1.0
 49
-1.0
 49
1.0
 49
-1.0
  0
LTYPE
  2
PHANTOM
 70
     0
  3
______  __  __  
 72
    65
 73
     6
 40
35.0
 49
30.0
 49
-1.0
 49
1.0
 49
-1.0
 49
1.0
 49
-1.0
  0
LTYPE
  2
DIVIDE
 70
     0
  3
____ . . ____ . . 
 72
    65
 73
     6
 40
23.0
 49
20.0
 49
-1.0
 49
0.0
 49
-1.0
 49
0.0
 49
-1.0
  0
ENDTAB
  0
TABLE
  2
LAYER
 70
     5
  0
LAYER
  2
0
 70
     0
 62
     7
  6
CONTINUOUS
  0
LAYER
  2
ﾚｲﾔ_1
 70
     0
 62
     7
  6
CONTINUOUS
  0
LAYER
  2
寸法線
 70
     0
 62
     7
  6
CONTINUOUS
  0
LAYER
  2
図枠
 70
     0
 62
     7
  6
CONTINUOUS
  0
LAYER
  2
改訂
 70
     0
 62
     7
  6
CONTINUOUS
  0
ENDTAB
  0
TABLE
  2
STYLE
 70
     1
  0
STYLE
  2
STANDARD
 70
     0
 40
0.0
 41
1.0
 50
0.0
 71
     0
 42
0.0
  3
txt
  4
extfont
  0
ENDTAB
  0
TABLE
  2
VIEW
 70
     0
  0
ENDTAB
  0
TABLE
  2
UCS
 70
     0
  0
ENDTAB
  0
TABLE
  2
APPID
 70
     2
  0
APPID
  2
ACAD
 70
     0
  0
APPID
  2
DCO15
 70
     0
  0
ENDTAB
  0
TABLE
  2
DIMSTYLE
 70
     3
  0
DIMSTYLE
  2
STANDARD
 70
     0
  3

  4

  5

  6

  7

 40
1.0
 41
0.18
 42
0.0625
 43
0.38
 44
0.18
 45
0.0
 46
0.0
 47
0.0
 48
0.0
140
0.18
141
0.09
142
0.0
143
25.399999999999999
144
1.0
145
0.0
146
1.0
147
0.09
 71
     0
 72
     0
 73
     1
 74
     1
 75
     0
 76
     0
 77
     0
 78
     0
170
     0
171
     2
172
     0
173
     0
174
     0
175
     0
176
     0
177
     0
178
     0
  0
DIMSTYLE
  2
VELDIM0
 70
     0
  3

  4

  5

  6

  7

 40
1.0
 41
7.5
 42
0.0625
 43
0.38
 44
1.0
 45
0.0
 46
8.0
 47
0.0
 48
0.0
140
8.2461809158000001
141
0.09
142
0.0
143
25.399999999999999
144
1.0
145
0.0
146
1.0
147
0.09
 71
     0
 72
     0
 73
     0
 74
     0
 75
     0
 76
     0
 77
     0
 78
     8
170
     0
171
     2
172
     0
173
     0
174
     0
175
     0
176
     0
177
     0
178
     0
  0
DIMSTYLE
  2
VELDIM1
 70
     0
  3

  4

  5

  6

  7

 40
1.0
 41
7.5
 42
0.0625
 43
0.38
 44
1.25
 45
0.0
 46
5.0
 47
0.0
 48
0.0
140
8.2461809158000001
141
0.09
142
0.0
143
25.399999999999999
144
1.0
145
0.0
146
1.0
147
0.09
 71
     0
 72
     0
 73
     0
 74
     0
 75
     0
 76
     0
 77
     0
 78
     8
170
     0
171
     2
172
     0
173
     0
174
     0
175
     0
176
     0
177
     0
178
     0
  0
ENDTAB
  0
ENDSEC
  0
SECTION
  2
BLOCKS
  0
BLOCK
  8
0
  2
$MODEL_SPACE
 70
     0
 10
0.0
 20
0.0
 30
0.0
  3
$MODEL_SPACE
  1

  0
ENDBLK
  5
E
  8
0
  0
BLOCK
 67
     1
  8
0
  2
$PAPER_SPACE
 70
     0
 10
0.0
 20
0.0
 30
0.0
  3
$PAPER_SPACE
  1

  0
ENDBLK
  5
10
 67
     1
  8
0
  0
BLOCK
  8
0
  2
*D0
 70
     1
 10
0.0
 20
0.0
 30
0.0
  3
*D0
  1

  0
TEXT
  5
3D
  8
0
 62
     0
 10
834.94145727179978
 20
-212.12855571259999
 30
0.0
 40
8.2461809158000001
  1
179
 50
90.0
  0
LINE
  5
3E
  8
0
 62
     0
 10
792.19616518039993
 20
-294.35251372800002
 30
0.0
 11
838.39666566869994
 21
-294.35251372800002
 31
0.0
  0
LINE
  5
3F
  8
0
 62
     0
 10
792.19616518039993
 20
-115.35251372800001
 30
0.0
 11
838.39666566869994
 21
-115.35251372800001
 31
0.0
  0
LINE
  5
40
  8
0
 62
     0
 10
837.39666566869994
 20
-294.35251372800002
 30
0.0
 11
837.39666566869994
 21
-192.7257770871
 31
0.0
  0
LINE
  5
41
  8
0
 62
     0
 10
837.39666566869994
 20
-294.35251372800002
 30
0.0
 11
837.39666566869994
 21
-216.979250369
 31
0.0
  0
LINE
  5
42
  8
0
 62
     0
 10
837.39666566869994
 20
-115.35251372800001
 30
0.0
 11
837.39666566869994
 21
-192.7257770871
 31
0.0
  0
LINE
  5
43
  8
0
 62
     0
 10
837.39666566869994
 20
-115.35251372800001
 30
0.0
 11
837.39666566869994
 21
-216.979250369
 31
0.0
  0
LINE
  5
44
  8
0
 62
     0
 10
837.39666566869994
 20
-115.35251372800001
 30
0.0
 11
837.39666566869994
 21
-123.35251372800001
 31
0.0
  0
SOLID
  5
45
  8
0
 62
     0
 10
837.39666566869994
 20
-115.35251372800001
 30
0.0
 11
839.27166566869994
 21
-122.85251372800001
 31
0.0
 12
835.52166566870005
 22
-122.85251372800001
 32
0.0
 13
837.39666566869994
 23
-120.97751372800001
 33
0.0
  0
LINE
  5
46
  8
0
 62
     0
 10
837.39666566869994
 20
-294.35251372800002
 30
0.0
 11
837.39666566869994
 21
-286.35251372800002
 31
0.0
  0
SOLID
  5
47
  8
0
 62
     0
 10
837.39666566869994
 20
-294.35251372800002
 30
0.0
 11
835.52166566870005
 21
-286.85251372800002
 31
0.0
 12
839.27166566869994
 22
-286.85251372800002
 32
0.0
 13
837.39666566869994
 23
-288.72751372800002
 33
0.0
  0
ENDBLK
  5
48
  8
0
  0
BLOCK
  8
0
  2
*D1
 70
     1
 10
0.0
 20
0.0
 30
0.0
  3
*D1
  1

  0
TEXT
  5
4D
  8
0
 62
     0
 10
815.45293569579985
 20
-164.7032083844
 30
0.0
 40
8.2461809158000001
  1
15
 50
90.0
  0
LINE
  5
4E
  8
0
 62
     0
 10
784.69616518039993
 20
-167.35251372799999
 30
0.0
 11
818.9081440926999
 21
-167.35251372799999
 31
0.0
  0
LINE
  5
4F
  8
0
 62
     0
 10
784.69616518039993
 20
-152.35251372799999
 30
0.0
 11
818.9081440926999
 21
-152.35251372799999
 31
0.0
  0
LINE
  5
50
  8
0
 62
     0
 10
817.9081440926999
 20
-167.35251372799999
 30
0.0
 11
817.9081440926999
 21
-167.35251372799999
 31
0.0
  0
LINE
  5
51
  8
0
 62
     0
 10
817.9081440926999
 20
-167.35251372799999
 30
0.0
 11
817.9081440926999
 21
-152.35251372799999
 31
0.0
  0
LINE
  5
52
  8
0
 62
     0
 10
817.9081440926999
 20
-152.35251372799999
 30
0.0
 11
817.9081440926999
 21
-167.35251372799999
 31
0.0
  0
LINE
  5
53
  8
0
 62
     0
 10
817.9081440926999
 20
-152.35251372799999
 30
0.0
 11
817.9081440926999
 21
-152.35251372799999
 31
0.0
  0
LINE
  5
54
  8
0
 62
     0
 10
817.9081440926999
 20
-152.35251372799999
 30
0.0
 11
817.9081440926999
 21
-160.35251372799999
 31
0.0
  0
SOLID
  5
55
  8
0
 62
     0
 10
817.9081440926999
 20
-152.35251372799999
 30
0.0
 11
819.78314409270001
 21
-159.85251372799999
 31
0.0
 12
816.03314409270001
 22
-159.85251372799999
 32
0.0
 13
817.9081440926999
 23
-157.97751372799999
 33
0.0
  0
LINE
  5
56
  8
0
 62
     0
 10
817.9081440926999
 20
-167.35251372799999
 30
0.0
 11
817.9081440926999
 21
-159.35251372799999
 31
0.0
  0
SOLID
  5
57
  8
0
 62
     0
 10
817.9081440926999
 20
-167.35251372799999
 30
0.0
 11
816.03314409270001
 21
-159.85251372799999
 31
0.0
 12
819.78314409270001
 22
-159.85251372799999
 32
0.0
 13
817.9081440926999
 23
-161.72751372799999
 33
0.0
  0
ENDBLK
  5
58
  8
0
  0
BLOCK
  8
0
  2
*D2
 70
     1
 10
0.0
 20
0.0
 30
0.0
  3
*D2
  1

  0
TEXT
  5
5E
  8
0
 62
     0
 10
571.40086247329998
 20
-232.4006716918
 30
0.0
 40
8.2461809158000001
  1
2-Φ15
 50
26.776143397399998
  0
LINE
  5
5F
  8
0
 62
     0
 10
626.96706672129994
 20
-208.16449711070001
 30
0.0
 11
572.93054889699988
 21
-235.43207176160001
 31
0.0
  0
SOLID
  5
60
  8
0
 62
     0
 10
626.96706672129994
 20
-208.16449711070001
 30
0.0
 11
621.11596412179995
 21
-213.21724125329999
 31
0.0
 12
619.42656718399996
 22
-209.86934071920001
 32
0.0
 13
621.94521592000001
 23
-210.69859251739999
 33
0.0
  0
ENDBLK
  5
61
  8
0
  0
BLOCK
  8
0
  2
*D3
 70
     1
 10
0.0
 20
0.0
 30
0.0
  3
*D3
  1

  0
TEXT
  5
65
  8
0
 62
     0
 10
749.46007038330004
 20
260.16842056569999
 30
0.0
 40
8.2461809158000001
  1
198
  0
LINE
  5
66
  8
0
 62
     0
 10
855.73611236789986
 20
227.9525767929
 30
0.0
 11
855.73611236789986
 21
258.7132121688
 31
0.0
  0
LINE
  5
67
  8
0
 62
     0
 10
657.73611236789998
 20
227.9525767929
 30
0.0
 11
657.73611236789998
 21
258.7132121688
 31
0.0
  0
LINE
  5
68
  8
0
 62
     0
 10
855.73611236789986
 20
257.7132121688
 30
0.0
 11
768.86284900880003
 21
257.7132121688
 31
0.0
  0
LINE
  5
69
  8
0
 62
     0
 10
855.73611236789986
 20
257.7132121688
 30
0.0
 11
744.60937572699993
 21
257.7132121688
 31
0.0
  0
LINE
  5
6A
  8
0
 62
     0
 10
657.73611236789998
 20
257.7132121688
 30
0.0
 11
768.86284900880003
 21
257.7132121688
 31
0.0
  0
LINE
  5
6B
  8
0
 62
     0
 10
657.73611236789998
 20
257.7132121688
 30
0.0
 11
744.60937572699993
 21
257.7132121688
 31
0.0
  0
LINE
  5
6C
  8
0
 62
     0
 10
657.73611236789998
 20
257.7132121688
 30
0.0
 11
665.73611236789998
 21
257.7132121688
 31
0.0
  0
SOLID
  5
6D
  8
0
 62
     0
 10
657.73611236789998
 20
257.7132121688
 30
0.0
 11
665.23611236789998
 21
259.5882121688
 31
0.0
 12
665.23611236789998
 22
255.8382121688
 32
0.0
 13
663.36111236789986
 23
257.7132121688
 33
0.0
  0
LINE
  5
6E
  8
0
 62
     0
 10
855.73611236789986
 20
257.7132121688
 30
0.0
 11
847.73611236789986
 21
257.7132121688
 31
0.0
  0
SOLID
  5
6F
  8
0
 62
     0
 10
855.73611236789986
 20
257.7132121688
 30
0.0
 11
848.23611236789998
 21
255.8382121688
 31
0.0
 12
848.23611236789998
 22
259.5882121688
 32
0.0
 13
850.11111236789986
 23
257.7132121688
 33
0.0
  0
ENDBLK
  5
70
  8
0
  0
BLOCK
  8
0
  2
*D4
 70
     1
 10
0.0
 20
0.0
 30
0.0
  3
*D4
  1

  0
TEXT
  5
74
  8
0
 62
     0
 10
1022.8342186342001
 20
119.6765348083
 30
0.0
 40
8.2461809158000001
  1
167
 50
90.0
  0
LINE
  5
75
  8
0
 62
     0
 10
1003.5641252886001
 20
43.45257679289999
 30
0.0
 11
1026.2894270311001
 21
43.45257679289999
 31
0.0
  0
LINE
  5
76
  8
0
 62
     0
 10
1003.5641252886001
 20
210.4525767929
 30
0.0
 11
1026.2894270311001
 21
210.4525767929
 31
0.0
  0
LINE
  5
77
  8
0
 62
     0
 10
1025.2894270311001
 20
43.45257679289999
 30
0.0
 11
1025.2894270311001
 21
139.0793134338
 31
0.0
  0
LINE
  5
78
  8
0
 62
     0
 10
1025.2894270311001
 20
43.45257679289999
 30
0.0
 11
1025.2894270311001
 21
114.8258401519
 31
0.0
  0
LINE
  5
79
  8
0
 62
     0
 10
1025.2894270311001
 20
210.4525767929
 30
0.0
 11
1025.2894270311001
 21
139.0793134338
 31
0.0
  0
LINE
  5
7A
  8
0
 62
     0
 10
1025.2894270311001
 20
210.4525767929
 30
0.0
 11
1025.2894270311001
 21
114.8258401519
 31
0.0
  0
LINE
  5
7B
  8
0
 62
     0
 10
1025.2894270311001
 20
210.4525767929
 30
0.0
 11
1025.2894270311001
 21
202.4525767929
 31
0.0
  0
SOLID
  5
7C
  8
0
 62
     0
 10
1025.2894270311001
 20
210.4525767929
 30
0.0
 11
1027.1644270311001
 21
202.9525767929
 31
0.0
 12
1023.4144270311
 22
202.9525767929
 32
0.0
 13
1025.2894270311001
 23
204.8275767929
 33
0.0
  0
LINE
  5
7D
  8
0
 62
     0
 10
1025.2894270311001
 20
43.45257679289999
 30
0.0
 11
1025.2894270311001
 21
51.452576792899997
 31
0.0
  0
SOLID
  5
7E
  8
0
 62
     0
 10
1025.2894270311001
 20
43.45257679289999
 30
0.0
 11
1023.4144270311
 21
50.952576792899997
 31
0.0
 12
1027.1644270311001
 22
50.952576792899997
 32
0.0
 13
1025.2894270311001
 23
49.077576792899997
 33
0.0
  0
ENDBLK
  5
7F
  8
0
  0
BLOCK
  8
0
  2
*D5
 70
     1
 10
0.0
 20
0.0
 30
0.0
  3
*D5
  1

  0
TEXT
  5
83
  8
0
 62
     0
 10
1022.8943592439
 20
1.6749837364999991
 30
0.0
 40
8.2461809158000001
  1
15.5
 50
90.0
  0
LINE
  5
84
  8
0
 62
     0
 10
1003.5641252886001
 20
27.9525767929
 30
0.0
 11
1026.3495676407999
 21
27.9525767929
 31
0.0
  0
LINE
  5
85
  8
0
 62
     0
 10
1003.5641252886001
 20
43.45257679289999
 30
0.0
 11
1026.3495676407999
 21
43.45257679289999
 31
0.0
  0
LINE
  5
86
  8
0
 62
     0
 10
1025.3495676407999
 20
27.9525767929
 30
0.0
 11
1025.3495676407999
 21
23.098885135500002
 31
0.0
  0
LINE
  5
87
  8
0
 62
     0
 10
1025.3495676407999
 20
27.9525767929
 30
0.0
 11
1025.3495676407999
 21
-3.1757109199000002
 31
0.0
  0
LINE
  5
88
  8
0
 62
     0
 10
1025.3495676407999
 20
43.45257679289999
 30
0.0
 11
1025.3495676407999
 21
23.098885135500002
 31
0.0
  0
LINE
  5
89
  8
0
 62
     0
 10
1025.3495676407999
 20
43.45257679289999
 30
0.0
 11
1025.3495676407999
 21
-3.1757109199000002
 31
0.0
  0
LINE
  5
8A
  8
0
 62
     0
 10
1025.3495676407999
 20
43.45257679289999
 30
0.0
 11
1025.3495676407999
 21
35.452576792899997
 31
0.0
  0
SOLID
  5
8B
  8
0
 62
     0
 10
1025.3495676407999
 20
43.45257679289999
 30
0.0
 11
1027.2245676407999
 21
35.952576792899997
 31
0.0
 12
1023.4745676408
 22
35.952576792899997
 32
0.0
 13
1025.3495676407999
 23
37.827576792899997
 33
0.0
  0
LINE
  5
8C
  8
0
 62
     0
 10
1025.3495676407999
 20
27.9525767929
 30
0.0
 11
1025.3495676407999
 21
35.952576792899997
 31
0.0
  0
SOLID
  5
8D
  8
0
 62
     0
 10
1025.3495676407999
 20
27.9525767929
 30
0.0
 11
1023.4745676408
 21
35.452576792899997
 31
0.0
 12
1027.2245676407999
 22
35.452576792899997
 32
0.0
 13
1025.3495676407999
 23
33.577576792899997
 33
0.0
  0
ENDBLK
  5
8E
  8
0
  0
BLOCK
  8
0
  2
*D6
 70
     1
 10
0.0
 20
0.0
 30
0.0
  3
*D6
  1

  0
TEXT
  5
92
  8
0
 62
     0
 10
1022.8943592439
 20
235.3734223809
 30
0.0
 40
8.2461809158000001
  1
15.5
 50
90.0
  0
LINE
  5
93
  8
0
 62
     0
 10
1003.5641252886001
 20
210.4525767929
 30
0.0
 11
1026.3495676407999
 21
210.4525767929
 31
0.0
  0
LINE
  5
94
  8
0
 62
     0
 10
1003.5641252886001
 20
225.9525767929
 30
0.0
 11
1026.3495676407999
 21
225.9525767929
 31
0.0
  0
LINE
  5
95
  8
0
 62
     0
 10
1025.3495676407999
 20
210.4525767929
 30
0.0
 11
1025.3495676407999
 21
256.79732377990001
 31
0.0
  0
LINE
  5
96
  8
0
 62
     0
 10
1025.3495676407999
 20
210.4525767929
 30
0.0
 11
1025.3495676407999
 21
230.52272772449999
 31
0.0
  0
LINE
  5
97
  8
0
 62
     0
 10
1025.3495676407999
 20
225.9525767929
 30
0.0
 11
1025.3495676407999
 21
256.79732377990001
 31
0.0
  0
LINE
  5
98
  8
0
 62
     0
 10
1025.3495676407999
 20
225.9525767929
 30
0.0
 11
1025.3495676407999
 21
230.52272772449999
 31
0.0
  0
LINE
  5
99
  8
0
 62
     0
 10
1025.3495676407999
 20
225.9525767929
 30
0.0
 11
1025.3495676407999
 21
217.9525767929
 31
0.0
  0
SOLID
  5
9A
  8
0
 62
     0
 10
1025.3495676407999
 20
225.9525767929
 30
0.0
 11
1027.2245676407999
 21
218.4525767929
 31
0.0
 12
1023.4745676408
 22
218.4525767929
 32
0.0
 13
1025.3495676407999
 23
220.3275767929
 33
0.0
  0
LINE
  5
9B
  8
0
 62
     0
 10
1025.3495676407999
 20
210.4525767929
 30
0.0
 11
1025.3495676407999
 21
218.4525767929
 31
0.0
  0
SOLID
  5
9C
  8
0
 62
     0
 10
1025.3495676407999
 20
210.4525767929
 30
0.0
 11
1023.4745676408
 21
217.9525767929
 31
0.0
 12
1027.2245676407999
 22
217.9525767929
 32
0.0
 13
1025.3495676407999
 23
216.0775767929
 33
0.0
  0
ENDBLK
  5
9D
  8
0
  0
BLOCK
  8
0
  2
CLUMP0
 70
     0
 10
0.0
 20
0.0
 30
0.0
  3
CLUMP0
  1

  0
LINE
  5
A3
  8
図枠
 10
1215.3081313722
 20
-384.55915091610001
 30
0.0
 11
1217.8081313722
 21
-380.80915091610001
 31
0.0
  0
LINE
  5
A4
  8
図枠
 10
1178.6566162207
 20
-380.80915091610001
 30
0.0
 11
1178.6566162207
 21
-385.80915091610001
 31
0.0
  0
LINE
  5
A5
  8
図枠
 10
1237.974190331
 20
-389.55915091610001
 30
0.0
 11
1245.8518379929001
 21
-389.55915091610001
 31
0.0
  0
LINE
  5
A6
  8
図枠
 10
1195.3081313722
 20
-398.30915091610001
 30
0.0
 11
1201.5581313722
 21
-398.30915091610001
 31
0.0
  0
LINE
  5
A7
  8
図枠
 10
1195.3081313722
 20
-386.61442658480001
 30
0.0
 11
1205.3081313722
 21
-386.61442658480001
 31
0.0
  0
INSERT
  5
A8
  8
0
  6
CONTINUOUS
  2
*U56
 10
0.0
 20
0.0
 30
0.0
  0
LINE
  5
A9
  8
図枠
 62
     5
 10
1257.0050000000001
 20
258.99916666669998
 30
0.0
 11
1257.0050000000001
 21
296.49916666669998
 31
0.0
  0
LINE
  5
AA
  8
図枠
 62
     5
 10
1382.0050000000001
 20
258.99916666669998
 30
0.0
 11
1382.0050000000001
 21
296.49916666669998
 31
0.0
  0
LINE
  5
AB
  8
図枠
 62
     5
 10
1217.0050000000001
 20
258.99916666669998
 30
0.0
 11
1217.0050000000001
 21
296.49916666669998
 31
0.0
  0
LINE
  5
AC
  8
図枠
 62
     5
 10
1200.1067865349
 20
272.5761460441999
 30
0.0
 11
1212.4817865349
 21
272.5761460441999
 31
0.0
  0
LINE
  5
AD
  8
図枠
 62
     5
 10
1206.2942865349
 20
270.91821041599991
 30
0.0
 11
1212.4817865349
 21
260.20114604420002
 31
0.0
  0
LINE
  5
AE
  8
図枠
 62
     5
 10
1197.0050000000001
 20
258.99916666669998
 30
0.0
 11
1197.0050000000001
 21
296.49916666669998
 31
0.0
  0
LINE
  5
AF
  8
図枠
 62
     5
 10
1407.0050000000001
 20
258.99916666669998
 30
0.0
 11
1407.0050000000001
 21
296.49916666669998
 31
0.0
  0
LINE
  5
B0
  8
図枠
 62
     5
 10
1197.0050000000001
 20
283.99916666669998
 30
0.0
 11
1432.0050000000001
 21
283.99916666669998
 31
0.0
  0
LINE
  5
B1
  8
図枠
 62
     5
 10
1197.0050000000001
 20
271.49916666669998
 30
0.0
 11
1432.0050000000001
 21
271.49916666669998
 31
0.0
  0
LINE
  5
B2
  8
図枠
 62
     5
 10
1197.0050000000001
 20
258.99916666669998
 30
0.0
 11
1432.0050000000001
 21
258.99916666669998
 31
0.0
  0
INSERT
  5
B3
  8
0
  6
CONTINUOUS
  2
*U57
 10
0.0
 20
0.0
 30
0.0
  0
LINE
  5
B4
  8
図枠
 62
     5
 10
432.005
 20
-403.50083333330002
 30
0.0
 11
432.005
 21
296.49916666669998
 31
0.0
  0
LINE
  5
B5
  8
図枠
 62
     5
 10
432.005
 20
-403.50083333330002
 30
0.0
 11
1432.0050000000001
 21
-403.50083333330002
 31
0.0
  0
LINE
  5
B6
  8
図枠
 62
     5
 10
1432.0050000000001
 20
296.49916666669998
 30
0.0
 11
432.005
 21
296.49916666669998
 31
0.0
  0
LINE
  5
B7
  8
図枠
 62
     5
 10
1432.0050000000001
 20
-403.50083333330002
 30
0.0
 11
1432.0050000000001
 21
296.49916666669998
 31
0.0
  0
LINE
  5
B8
  8
図枠
 10
1195.3081313722
 20
-387.41970225350002
 30
0.0
 11
1195.3081313722
 21
-386.61442658480001
 31
0.0
  0
LINE
  5
B9
  8
図枠
 10
1164.5288566918
 20
-385.80915091610001
 30
0.0
 11
1164.5288566918
 21
-389.55915091610001
 31
0.0
  0
LINE
  5
BA
  8
図枠
 62
     5
 10
1206.2942865349
 20
283.29321041600002
 30
0.0
 11
1212.4817865349
 21
272.5761460441999
 31
0.0
  0
LINE
  5
BB
  8
図枠
 62
     5
 10
1206.2942865349
 20
270.91821041599991
 30
0.0
 11
1200.1067865349
 21
260.20114604420002
 31
0.0
  0
INSERT
  5
BC
  8
0
  6
CONTINUOUS
  2
*U58
 10
0.0
 20
0.0
 30
0.0
  0
LINE
  5
BD
  8
図枠
  6
DOT
 10
419.55499999999989
 20
-414.07583333330001
 30
0.0
 11
419.55499999999989
 21
307.07416666670002
 31
0.0
  0
LINE
  5
BE
  8
図枠
  6
DOT
 10
1444.4549999999999
 20
-414.07583333330001
 30
0.0
 11
1444.4549999999999
 21
307.07416666670002
 31
0.0
  0
LINE
  5
BF
  8
図枠
  6
DOT
 10
419.55499999999989
 20
-414.07583333330001
 30
0.0
 11
1444.4549999999999
 21
-414.07583333330001
 31
0.0
  0
LINE
  5
C0
  8
図枠
 10
1173.6566162207
 20
-393.30915091610001
 30
0.0
 11
1173.6566162207
 21
-389.55915091610001
 31
0.0
  0
LINE
  5
C1
  8
図枠
  6
DOT
 10
1444.4549999999999
 20
307.07416666670002
 30
0.0
 11
419.55499999999989
 21
307.07416666670002
 31
0.0
  0
LINE
  5
C2
  8
図枠
 10
1167.4066162207
 20
-389.55915091610001
 30
0.0
 11
1167.4066162207
 21
-393.30915091610001
 31
0.0
  0
LINE
  5
C3
  8
図枠
 10
1184.9066162207
 20
-384.55915091610001
 30
0.0
 11
1188.6566162207
 21
-380.80915091610001
 31
0.0
  0
LINE
  5
C4
  8
図枠
 10
1231.5051713262999
 20
-391.55915091610001
 30
0.0
 11
1230.9185046596001
 21
-389.55915091610001
 31
0.0
  0
LINE
  5
C5
  8
図枠
 10
1173.6566162207
 20
-385.80915091610001
 30
0.0
 11
1173.6566162207
 21
-384.55915091610001
 31
0.0
  0
LINE
  5
C6
  8
図枠
 10
1212.4649297525
 20
-392.93197893849998
 30
0.0
 11
1212.0196746030001
 21
-393.36792429899998
 31
0.0
  0
LINE
  5
C7
  8
図枠
 10
1215.3081313722
 20
-384.55915091610001
 30
0.0
 11
1217.8081313722
 21
-380.80915091610001
 31
0.0
  0
LINE
  5
C8
  8
図枠
 10
1245.8518379929001
 20
-391.55915091610001
 30
0.0
 11
1245.8518379929001
 21
-396.05915091610001
 31
0.0
  0
LINE
  5
C9
  8
図枠
 10
1217.8081313722
 20
-394.55915091610001
 30
0.0
 11
1217.8081313722
 21
-398.30915091610001
 31
0.0
  0
LINE
  5
CA
  8
図枠
 10
1236.6792488830999
 20
-385.05915091610001
 30
0.0
 11
1245.8518379929001
 21
-385.05915091610001
 31
0.0
  0
LINE
  5
CB
  8
図枠
 10
1236.6792488830999
 20
-385.05915091610001
 30
0.0
 11
1236.3132632575
 21
-383.78732868989999
 31
0.0
  0
LINE
  5
CC
  8
図枠
 10
1217.8081313722
 20
-380.80915091610001
 30
0.0
 11
1195.3081313722
 21
-380.80915091610001
 31
0.0
  0
INSERT
  5
CD
  8
0
  6
CONTINUOUS
  2
*U59
 10
0.0
 20
0.0
 30
0.0
  0
LINE
  5
CE
  8
図枠
 10
1233.8518379929001
 20
-399.55915091610001
 30
0.0
 11
1232.8251713263001
 21
-396.05915091610001
 31
0.0
  0
LINE
  5
CF
  8
図枠
 10
1174.9066162207
 20
-394.55915091610001
 30
0.0
 11
1167.4066162207
 21
-394.55915091610001
 31
0.0
  0
LINE
  5
D0
  8
図枠
 10
1195.3081313722
 20
-385.30915091610001
 30
0.0
 11
1207.8081313722
 21
-385.30915091610001
 31
0.0
  0
LINE
  5
D1
  8
図枠
 10
1229.2197937792
 20
-331.75083333330002
 30
0.0
 11
1241.2197937792
 21
-328.75083333330002
 31
0.0
  0
CIRCLE
  5
D2
  8
図枠
 10
1215.5050000000001
 20
-334.75083333330002
 30
0.0
 40
6.0
  0
INSERT
  5
D3
  8
0
  6
CONTINUOUS
  2
*U60
 10
0.0
 20
0.0
 30
0.0
  0
LINE
  5
D4
  8
図枠
 10
1173.6566162207
 20
-389.55915091610001
 30
0.0
 11
1178.6566162207
 21
-389.55915091610001
 31
0.0
  0
LINE
  5
D5
  8
図枠
 10
1223.3518379929001
 20
-389.55915091610001
 30
0.0
 11
1230.9185046596001
 21
-389.55915091610001
 31
0.0
  0
LINE
  5
D6
  8
図枠
 10
1188.6566162207
 20
-385.80915091610001
 30
0.0
 11
1184.9066162207
 21
-385.80915091610001
 31
0.0
  0
LINE
  5
D7
  8
図枠
 10
1184.9066162207
 20
-385.80915091610001
 30
0.0
 11
1184.9066162207
 21
-384.55915091610001
 31
0.0
  0
LINE
  5
D8
  8
図枠
 10
1223.3518379929001
 20
-385.05915091610001
 30
0.0
 11
1229.5985046595999
 21
-385.05915091610001
 31
0.0
  0
LINE
  5
D9
  8
図枠
 10
1236.3132632575
 20
-383.78732868989999
 30
0.0
 11
1238.3518379929001
 21
-380.80915091610001
 31
0.0
  0
LINE
  5
DA
  8
図枠
 10
1195.3081313722
 20
-398.30915091610001
 30
0.0
 11
1195.3081313722
 21
-394.55915091610001
 31
0.0
  0
LINE
  5
DB
  8
図枠
 10
1257.0050000000001
 20
-321.00083333330002
 30
0.0
 11
1257.0050000000001
 21
-403.50083333330002
 31
0.0
  0
INSERT
  5
DC
  8
0
  6
CONTINUOUS
  2
*U61
 10
0.0
 20
0.0
 30
0.0
  0
INSERT
  5
DD
  8
0
  6
CONTINUOUS
  2
*U62
 10
0.0
 20
0.0
 30
0.0
  0
INSERT
  5
DE
  8
0
  6
CONTINUOUS
  2
*U63
 10
0.0
 20
0.0
 30
0.0
  0
LINE
  5
DF
  8
図枠
 62
     5
 10
1200.1067865349
 20
260.20114604420002
 30
0.0
 11
1212.4817865349
 21
260.20114604420002
 31
0.0
  0
LINE
  5
E0
  8
図枠
 10
1164.5288566918
 20
-389.55915091610001
 30
0.0
 11
1167.0288566918
 21
-389.55915091610001
 31
0.0
  0
ARC
  5
E1
  8
図枠
 10
1201.5581313722
 20
-384.55915091610001
 30
0.0
 40
13.75
 50
322.48761197969998
 51
0.0
  0
LINE
  5
E2
  8
図枠
 10
1167.4066162207
 20
-398.30915091610001
 30
0.0
 11
1177.4066162207
 21
-398.30915091610001
 31
0.0
  0
LINE
  5
E3
  8
図枠
 10
1223.3518379929001
 20
-396.05915091610001
 30
0.0
 11
1232.8251713263001
 21
-396.05915091610001
 31
0.0
  0
ARC
  5
E4
  8
図枠
 10
1174.9066162207
 20
-390.80915091610001
 30
0.0
 40
3.75
 50
270.0
 51
0.0
  0
LINE
  5
E5
  8
図枠
 10
1223.3518379929001
 20
-391.55915091610001
 30
0.0
 11
1223.3518379929001
 21
-396.05915091610001
 31
0.0
  0
LINE
  5
E6
  8
図枠
 10
1167.4066162207
 20
-393.30915091610001
 30
0.0
 11
1173.6566162207
 21
-393.30915091610001
 31
0.0
  0
LINE
  5
E7
  8
図枠
 10
1206.6489126014999
 20
-389.6068281789
 30
0.0
 11
1206.0474230857001
 21
-390.2711740803
 31
0.0
  0
LINE
  5
E8
  8
図枠
 10
1240.8518379929001
 20
-399.55915091610001
 30
0.0
 11
1233.8518379929001
 21
-399.55915091610001
 31
0.0
  0
LINE
  5
E9
  8
図枠
 10
1178.6566162207
 20
-389.55915091610001
 30
0.0
 11
1178.6566162207
 21
-390.80915091610001
 31
0.0
  0
LINE
  5
EA
  8
図枠
 10
1432.0050000000001
 20
-321.00083333330002
 30
0.0
 11
1069.5050000000001
 21
-321.00083333330002
 31
0.0
  0
LINE
  5
EB
  8
図枠
 10
1241.2197937792
 20
-328.75083333330002
 30
0.0
 11
1241.2197937792
 21
-340.75083333330002
 31
0.0
  0
LINE
  5
EC
  8
図枠
 62
     5
 10
1206.2942865349
 20
283.29321041600002
 30
0.0
 11
1200.1067865349
 21
272.5761460441999
 31
0.0
  0
LINE
  5
ED
  8
図枠
 10
1188.6566162207
 20
-380.80915091610001
 30
0.0
 11
1178.6566162207
 21
-380.80915091610001
 31
0.0
  0
LINE
  5
EE
  8
図枠
 10
1184.9066162207
 20
-390.80915091610001
 30
0.0
 11
1184.9066162207
 21
-389.55915091610001
 31
0.0
  0
LINE
  5
EF
  8
図枠
 10
1223.3518379929001
 20
-385.05915091610001
 30
0.0
 11
1223.3518379929001
 21
-389.55915091610001
 31
0.0
  0
LINE
  5
F0
  8
図枠
 10
1178.6566162207
 20
-385.80915091610001
 30
0.0
 11
1173.6566162207
 21
-385.80915091610001
 31
0.0
  0
LINE
  5
F1
  8
図枠
 10
1177.4066162207
 20
-380.80915091610001
 30
0.0
 11
1167.4066162207
 21
-380.80915091610001
 31
0.0
  0
LINE
  5
F2
  8
図枠
 10
1173.6566162207
 20
-384.55915091610001
 30
0.0
 11
1177.4066162207
 21
-380.80915091610001
 31
0.0
  0
LINE
  5
F3
  8
図枠
 10
1167.4066162207
 20
-380.80915091610001
 30
0.0
 11
1167.4066162207
 21
-385.80915091610001
 31
0.0
  0
LINE
  5
F4
  8
図枠
 10
1239.8446613112001
 20
-396.05915091610001
 30
0.0
 11
1245.8518379929001
 21
-396.05915091610001
 31
0.0
  0
LINE
  5
F5
  8
図枠
 10
1229.5985046595999
 20
-385.05915091610001
 30
0.0
 11
1228.3518379929001
 21
-380.80915091610001
 31
0.0
  0
LINE
  5
F6
  8
図枠
 10
1223.3518379929001
 20
-391.55915091610001
 30
0.0
 11
1231.5051713262999
 21
-391.55915091610001
 31
0.0
  0
LINE
  5
F7
  8
図枠
 10
1238.5497198633
 20
-391.55915091610001
 30
0.0
 11
1237.974190331
 21
-389.55915091610001
 31
0.0
  0
ARC
  5
F8
  8
図枠
 10
1198.3081313722
 20
-385.05915091610001
 30
0.0
 40
9.5
 50
270.0
 51
298.08590481520002
  0
INSERT
  5
F9
  8
0
  6
CONTINUOUS
  2
*U64
 10
0.0
 20
0.0
 30
0.0
  0
LINE
  5
FA
  8
図枠
 10
1075.7550000000001
 20
-334.75083333330002
 30
0.0
 11
1125.7550000000001
 21
-334.75083333330002
 31
0.0
  0
LINE
  5
FB
  8
図枠
 10
1132.0050000000001
 20
-321.00083333330002
 30
0.0
 11
1132.0050000000001
 21
-348.50083333330002
 31
0.0
  0
LINE
  5
FC
  8
図枠
 10
1069.5050000000001
 20
-348.50083333330002
 30
0.0
 11
1432.0050000000001
 21
-348.50083333330002
 31
0.0
  0
LINE
  5
FD
  8
図枠
 10
1194.5050000000001
 20
-321.00083333330002
 30
0.0
 11
1194.5050000000001
 21
-348.50083333330002
 31
0.0
  0
LINE
  5
FE
  8
図枠
  6
BORDER
 10
1215.5050000000001
 20
-325.75083333330002
 30
0.0
 11
1215.5050000000001
 21
-343.75083333330002
 31
0.0
  0
LINE
  5
FF
  8
図枠
  6
BORDER
 10
1215.5050000000001
 20
-325.75083333330002
 30
0.0
 11
1215.5050000000001
 21
-343.75083333330002
 31
0.0
  0
LINE
  5
100
  8
図枠
 10
1245.8518379929001
 20
-385.05915091610001
 30
0.0
 11
1245.8518379929001
 21
-389.55915091610001
 31
0.0
  0
LINE
  5
101
  8
図枠
 10
1138.2550000000001
 20
-334.75083333330002
 30
0.0
 11
1188.2550000000001
 21
-334.75083333330002
 31
0.0
  0
INSERT
  5
102
  8
0
  6
CONTINUOUS
  2
*U65
 10
0.0
 20
0.0
 30
0.0
  0
CIRCLE
  5
103
  8
図枠
 10
1215.5050000000001
 20
-334.75083333330002
 30
0.0
 40
6.0
  0
LINE
  5
104
  8
図枠
 10
1229.2197937792
 20
-331.75083333330002
 30
0.0
 11
1241.2197937792
 21
-328.75083333330002
 31
0.0
  0
INSERT
  5
105
  8
0
  6
CONTINUOUS
  2
*U66
 10
0.0
 20
0.0
 30
0.0
  0
CIRCLE
  5
106
  8
図枠
 10
1215.5050000000001
 20
-334.75083333330002
 30
0.0
 40
3.0
  0
LINE
  5
107
  8
図枠
 10
1240.8518379929001
 20
-399.55915091610001
 30
0.0
 11
1239.8446613112001
 21
-396.05915091610001
 31
0.0
  0
LINE
  5
108
  8
図枠
 10
1238.5497198633
 20
-391.55915091610001
 30
0.0
 11
1245.8518379929001
 21
-391.55915091610001
 31
0.0
  0
LINE
  5
109
  8
図枠
 10
1195.3081313722
 20
-394.55915091610001
 30
0.0
 11
1198.3081313722
 21
-394.55915091610001
 31
0.0
  0
LINE
  5
10A
  8
図枠
 10
1228.3518379929001
 20
-380.80915091610001
 30
0.0
 11
1238.3518379929001
 21
-380.80915091610001
 31
0.0
  0
LINE
  5
10B
  8
図枠
 10
1167.4066162207
 20
-385.80915091610001
 30
0.0
 11
1164.5288566918
 21
-385.80915091610001
 31
0.0
  0
LINE
  5
10C
  8
図枠
 10
1195.3081313722
 20
-394.55915091610001
 30
0.0
 11
1195.3081313722
 21
-398.30915091610001
 31
0.0
  0
LINE
  5
10D
  8
図枠
 10
1167.4066162207
 20
-389.55915091610001
 30
0.0
 11
1167.0288566918
 21
-389.55915091610001
 31
0.0
  0
LINE
  5
10E
  8
図枠
 10
1167.4066162207
 20
-394.55915091610001
 30
0.0
 11
1167.4066162207
 21
-398.30915091610001
 31
0.0
  0
ARC
  5
10F
  8
図枠
 10
1198.3081313722
 20
-385.05915091610001
 30
0.0
 40
9.5
 50
331.39928138329998
 51
358.49204224580001
  0
LINE
  5
110
  8
図枠
 10
1184.9066162207
 20
-389.55915091610001
 30
0.0
 11
1188.6566162207
 21
-389.55915091610001
 31
0.0
  0
ARC
  5
111
  8
図枠
 10
1201.5581313722
 20
-384.55915091610001
 30
0.0
 40
13.75
 50
270.0
 51
302.54495885400001
  0
LINE
  5
112
  8
図枠
 10
1229.2197937792
 20
-337.75083333330002
 30
0.0
 11
1241.2197937792
 21
-340.75083333330002
 31
0.0
  0
LINE
  5
113
  8
図枠
 10
1229.2197937792
 20
-331.75083333330002
 30
0.0
 11
1229.2197937792
 21
-337.75083333330002
 31
0.0
  0
LINE
  5
114
  8
図枠
 10
1241.2197937792
 20
-328.75083333330002
 30
0.0
 11
1241.2197937792
 21
-340.75083333330002
 31
0.0
  0
LINE
  5
115
  8
図枠
 10
1205.3081313722
 20
-386.61442658480001
 30
0.0
 11
1203.8939178098999
 21
-388.02864014720001
 31
0.0
  0
LINE
  5
116
  8
図枠
  6
BORDER
 10
1206.5050000000001
 20
-334.75083333330002
 30
0.0
 11
1245.0050000000001
 21
-334.75083333330002
 31
0.0
  0
CIRCLE
  5
117
  8
図枠
 10
1215.5050000000001
 20
-334.75083333330002
 30
0.0
 40
3.0
  0
POLYLINE
  8
図枠
  5
6A8
  66
     1
 10
0.000000
 20
0.000000
 30
0.000000
  70
     8
  0
VERTEX
  8
図枠
  5
6A9
 10
1212.02
 20
-393.368
 30
0.000000
  70
    32
  0
VERTEX
  8
図枠
  5
6AA
 10
1212.06
 20
-393.380
 30
0.000000
  70
    32
  0
VERTEX
  8
図枠
  5
6AB
 10
1212.11
 20
-393.393
 30
0.000000
  70
    32
  0
VERTEX
  8
図枠
  5
6AC
 10
1212.15
 20
-393.405
 30
0.000000
  70
    32
  0
VERTEX
  8
図枠
  5
6AD
 10
1212.19
 20
-393.417
 30
0.000000
  70
    32
  0
VERTEX
  8
図枠
  5
6AE
 10
1212.24
 20
-393.429
 30
0.000000
  70
    32
  0
VERTEX
  8
図枠
  5
6AF
 10
1212.28
 20
-393.441
 30
0.000000
  70
    32
  0
VERTEX
  8
図枠
  5
6B0
 10
1212.33
 20
-393.453
 30
0.000000
  70
    32
  0
VERTEX
  8
図枠
  5
6B1
 10
1212.37
 20
-393.465
 30
0.000000
  70
    32
  0
VERTEX
  8
図枠
  5
6B2
 10
1212.41
 20
-393.477
 30
0.000000
  70
    32
  0
VERTEX
  8
図枠
  5
6B3
 10
1212.46
 20
-393.489
 30
0.000000
  70
    32
  0
VERTEX
  8
図枠
  5
6B4
 10
1212.50
 20
-393.500
 30
0.000000
  70
    32
  0
VERTEX
  8
図枠
  5
6B5
 10
1212.55
 20
-393.512
 30
0.000000
  70
    32
  0
VERTEX
  8
図枠
  5
6B6
 10
1212.59
 20
-393.524
 30
0.000000
  70
    32
  0
VERTEX
  8
図枠
  5
6B7
 10
1212.64
 20
-393.535
 30
0.000000
  70
    32
  0
VERTEX
  8
図枠
  5
6B8
 10
1212.68
 20
-393.547
 30
0.000000
  70
    32
  0
VERTEX
  8
図枠
  5
6B9
 10
1212.72
 20
-393.558
 30
0.000000
  70
    32
  0
VERTEX
  8
図枠
  5
6BA
 10
1212.77
 20
-393.569
 30
0.000000
  70
    32
  0
VERTEX
  8
図枠
  5
6BB
 10
1212.81
 20
-393.580
 30
0.000000
  70
    32
  0
VERTEX
  8
図枠
  5
6BC
 10
1212.86
 20
-393.592
 30
0.000000
  70
    32
  0
VERTEX
  8
図枠
  5
6BD
 10
1212.90
 20
-393.603
 30
0.000000
  70
    32
  0
VERTEX
  8
図枠
  5
6BE
 10
1212.95
 20
-393.614
 30
0.000000
  70
    32
  0
VERTEX
  8
図枠
  5
6BF
 10
1212.99
 20
-393.625
 30
0.000000
  70
    32
  0
VERTEX
  8
図枠
  5
6C0
 10
1213.04
 20
-393.636
 30
0.000000
  70
    32
  0
VERTEX
  8
図枠
  5
6C1
 10
1213.08
 20
-393.647
 30
0.000000
  70
    32
  0
VERTEX
  8
図枠
  5
6C2
 10
1213.12
 20
-393.658
 30
0.000000
  70
    32
  0
VERTEX
  8
図枠
  5
6C3
 10
1213.17
 20
-393.668
 30
0.000000
  70
    32
  0
VERTEX
  8
図枠
  5
6C4
 10
1213.21
 20
-393.679
 30
0.000000
  70
    32
  0
VERTEX
  8
図枠
  5
6C5
 10
1213.26
 20
-393.690
 30
0.000000
  70
    32
  0
VERTEX
  8
図枠
  5
6C6
 10
1213.30
 20
-393.700
 30
0.000000
  70
    32
  0
VERTEX
  8
図枠
  5
6C7
 10
1213.35
 20
-393.711
 30
0.000000
  70
    32
  0
VERTEX
  8
図枠
  5
6C8
 10
1213.39
 20
-393.721
 30
0.000000
  70
    32
  0
VERTEX
  8
図枠
  5
6C9
 10
1213.44
 20
-393.732
 30
0.000000
  70
    32
  0
VERTEX
  8
図枠
  5
6CA
 10
1213.48
 20
-393.742
 30
0.000000
  70
    32
  0
VERTEX
  8
図枠
  5
6CB
 10
1213.53
 20
-393.752
 30
0.000000
  70
    32
  0
VERTEX
  8
図枠
  5
6CC
 10
1213.57
 20
-393.763
 30
0.000000
  70
    32
  0
VERTEX
  8
図枠
  5
6CD
 10
1213.62
 20
-393.773
 30
0.000000
  70
    32
  0
VERTEX
  8
図枠
  5
6CE
 10
1213.66
 20
-393.783
 30
0.000000
  70
    32
  0
VERTEX
  8
図枠
  5
6CF
 10
1213.71
 20
-393.793
 30
0.000000
  70
    32
  0
VERTEX
  8
図枠
  5
6D0
 10
1213.75
 20
-393.803
 30
0.000000
  70
    32
  0
VERTEX
  8
図枠
  5
6D1
 10
1213.80
 20
-393.813
 30
0.000000
  70
    32
  0
VERTEX
  8
図枠
  5
6D2
 10
1213.84
 20
-393.823
 30
0.000000
  70
    32
  0
VERTEX
  8
図枠
  5
6D3
 10
1213.89
 20
-393.833
 30
0.000000
  70
    32
  0
VERTEX
  8
図枠
  5
6D4
 10
1213.93
 20
-393.843
 30
0.000000
  70
    32
  0
VERTEX
  8
図枠
  5
6D5
 10
1213.98
 20
-393.853
 30
0.000000
  70
    32
  0
VERTEX
  8
図枠
  5
6D6
 10
1214.03
 20
-393.863
 30
0.000000
  70
    32
  0
VERTEX
  8
図枠
  5
6D7
 10
1214.07
 20
-393.873
 30
0.000000
  70
    32
  0
VERTEX
  8
図枠
  5
6D8
 10
1214.12
 20
-393.882
 30
0.000000
  70
    32
  0
VERTEX
  8
図枠
  5
6D9
 10
1214.16
 20
-393.892
 30
0.000000
  70
    32
  0
VERTEX
  8
図枠
  5
6DA
 10
1214.21
 20
-393.901
 30
0.000000
  70
    32
  0
VERTEX
  8
図枠
  5
6DB
 10
1214.25
 20
-393.911
 30
0.000000
  70
    32
  0
VERTEX
  8
図枠
  5
6DC
 10
1214.30
 20
-393.921
 30
0.000000
  70
    32
  0
VERTEX
  8
図枠
  5
6DD
 10
1214.34
 20
-393.930
 30
0.000000
  70
    32
  0
VERTEX
  8
図枠
  5
6DE
 10
1214.39
 20
-393.939
 30
0.000000
  70
    32
  0
VERTEX
  8
図枠
  5
6DF
 10
1214.43
 20
-393.949
 30
0.000000
  70
    32
  0
VERTEX
  8
図枠
  5
6E0
 10
1214.48
 20
-393.958
 30
0.000000
  70
    32
  0
VERTEX
  8
図枠
  5
6E1
 10
1214.53
 20
-393.967
 30
0.000000
  70
    32
  0
VERTEX
  8
図枠
  5
6E2
 10
1214.57
 20
-393.977
 30
0.000000
  70
    32
  0
VERTEX
  8
図枠
  5
6E3
 10
1214.62
 20
-393.986
 30
0.000000
  70
    32
  0
VERTEX
  8
図枠
  5
6E4
 10
1214.66
 20
-393.995
 30
0.000000
  70
    32
  0
VERTEX
  8
図枠
  5
6E5
 10
1214.71
 20
-394.004
 30
0.000000
  70
    32
  0
VERTEX
  8
図枠
  5
6E6
 10
1214.75
 20
-394.013
 30
0.000000
  70
    32
  0
VERTEX
  8
図枠
  5
6E7
 10
1214.80
 20
-394.023
 30
0.000000
  70
    32
  0
VERTEX
  8
図枠
  5
6E8
 10
1214.85
 20
-394.032
 30
0.000000
  70
    32
  0
VERTEX
  8
図枠
  5
6E9
 10
1214.89
 20
-394.041
 30
0.000000
  70
    32
  0
VERTEX
  8
図枠
  5
6EA
 10
1214.94
 20
-394.049
 30
0.000000
  70
    32
  0
VERTEX
  8
図枠
  5
6EB
 10
1214.98
 20
-394.058
 30
0.000000
  70
    32
  0
VERTEX
  8
図枠
  5
6EC
 10
1215.03
 20
-394.067
 30
0.000000
  70
    32
  0
VERTEX
  8
図枠
  5
6ED
 10
1215.08
 20
-394.076
 30
0.000000
  70
    32
  0
VERTEX
  8
図枠
  5
6EE
 10
1215.12
 20
-394.085
 30
0.000000
  70
    32
  0
VERTEX
  8
図枠
  5
6EF
 10
1215.17
 20
-394.094
 30
0.000000
  70
    32
  0
VERTEX
  8
図枠
  5
6F0
 10
1215.21
 20
-394.103
 30
0.000000
  70
    32
  0
VERTEX
  8
図枠
  5
6F1
 10
1215.26
 20
-394.111
 30
0.000000
  70
    32
  0
VERTEX
  8
図枠
  5
6F2
 10
1215.31
 20
-394.120
 30
0.000000
  70
    32
  0
VERTEX
  8
図枠
  5
6F3
 10
1215.35
 20
-394.129
 30
0.000000
  70
    32
  0
VERTEX
  8
図枠
  5
6F4
 10
1215.40
 20
-394.137
 30
0.000000
  70
    32
  0
VERTEX
  8
図枠
  5
6F5
 10
1215.44
 20
-394.146
 30
0.000000
  70
    32
  0
VERTEX
  8
図枠
  5
6F6
 10
1215.49
 20
-394.154
 30
0.000000
  70
    32
  0
VERTEX
  8
図枠
  5
6F7
 10
1215.54
 20
-394.163
 30
0.000000
  70
    32
  0
VERTEX
  8
図枠
  5
6F8
 10
1215.58
 20
-394.172
 30
0.000000
  70
    32
  0
VERTEX
  8
図枠
  5
6F9
 10
1215.63
 20
-394.180
 30
0.000000
  70
    32
  0
VERTEX
  8
図枠
  5
6FA
 10
1215.67
 20
-394.189
 30
0.000000
  70
    32
  0
VERTEX
  8
図枠
  5
6FB
 10
1215.72
 20
-394.197
 30
0.000000
  70
    32
  0
VERTEX
  8
図枠
  5
6FC
 10
1215.77
 20
-394.205
 30
0.000000
  70
    32
  0
VERTEX
  8
図枠
  5
6FD
 10
1215.81
 20
-394.214
 30
0.000000
  70
    32
  0
VERTEX
  8
図枠
  5
6FE
 10
1215.86
 20
-394.222
 30
0.000000
  70
    32
  0
VERTEX
  8
図枠
  5
6FF
 10
1215.90
 20
-394.230
 30
0.000000
  70
    32
  0
VERTEX
  8
図枠
  5
700
 10
1215.95
 20
-394.239
 30
0.000000
  70
    32
  0
VERTEX
  8
図枠
  5
701
 10
1216.00
 20
-394.247
 30
0.000000
  70
    32
  0
VERTEX
  8
図枠
  5
702
 10
1216.04
 20
-394.255
 30
0.000000
  70
    32
  0
VERTEX
  8
図枠
  5
703
 10
1216.09
 20
-394.264
 30
0.000000
  70
    32
  0
VERTEX
  8
図枠
  5
704
 10
1216.14
 20
-394.272
 30
0.000000
  70
    32
  0
VERTEX
  8
図枠
  5
705
 10
1216.18
 20
-394.280
 30
0.000000
  70
    32
  0
VERTEX
  8
図枠
  5
706
 10
1216.23
 20
-394.288
 30
0.000000
  70
    32
  0
VERTEX
  8
図枠
  5
707
 10
1216.27
 20
-394.296
 30
0.000000
  70
    32
  0
VERTEX
  8
図枠
  5
708
 10
1216.32
 20
-394.305
 30
0.000000
  70
    32
  0
VERTEX
  8
図枠
  5
709
 10
1216.37
 20
-394.313
 30
0.000000
  70
    32
  0
VERTEX
  8
図枠
  5
70A
 10
1216.41
 20
-394.321
 30
0.000000
  70
    32
  0
VERTEX
  8
図枠
  5
70B
 10
1216.46
 20
-394.329
 30
0.000000
  70
    32
  0
VERTEX
  8
図枠
  5
70C
 10
1216.51
 20
-394.337
 30
0.000000
  70
    32
  0
VERTEX
  8
図枠
  5
70D
 10
1216.55
 20
-394.345
 30
0.000000
  70
    32
  0
VERTEX
  8
図枠
  5
70E
 10
1216.60
 20
-394.353
 30
0.000000
  70
    32
  0
VERTEX
  8
図枠
  5
70F
 10
1216.65
 20
-394.361
 30
0.000000
  70
    32
  0
VERTEX
  8
図枠
  5
710
 10
1216.69
 20
-394.369
 30
0.000000
  70
    32
  0
VERTEX
  8
図枠
  5
711
 10
1216.74
 20
-394.377
 30
0.000000
  70
    32
  0
VERTEX
  8
図枠
  5
712
 10
1216.79
 20
-394.385
 30
0.000000
  70
    32
  0
VERTEX
  8
図枠
  5
713
 10
1216.83
 20
-394.393
 30
0.000000
  70
    32
  0
VERTEX
  8
図枠
  5
714
 10
1216.88
 20
-394.401
 30
0.000000
  70
    32
  0
VERTEX
  8
図枠
  5
715
 10
1216.92
 20
-394.409
 30
0.000000
  70
    32
  0
VERTEX
  8
図枠
  5
716
 10
1216.97
 20
-394.417
 30
0.000000
  70
    32
  0
VERTEX
  8
図枠
  5
717
 10
1217.02
 20
-394.425
 30
0.000000
  70
    32
  0
VERTEX
  8
図枠
  5
718
 10
1217.06
 20
-394.433
 30
0.000000
  70
    32
  0
VERTEX
  8
図枠
  5
719
 10
1217.11
 20
-394.441
 30
0.000000
  70
    32
  0
VERTEX
  8
図枠
  5
71A
 10
1217.16
 20
-394.449
 30
0.000000
  70
    32
  0
VERTEX
  8
図枠
  5
71B
 10
1217.20
 20
-394.457
 30
0.000000
  70
    32
  0
VERTEX
  8
図枠
  5
71C
 10
1217.25
 20
-394.465
 30
0.000000
  70
    32
  0
VERTEX
  8
図枠
  5
71D
 10
1217.30
 20
-394.473
 30
0.000000
  70
    32
  0
VERTEX
  8
図枠
  5
71E
 10
1217.34
 20
-394.480
 30
0.000000
  70
    32
  0
VERTEX
  8
図枠
  5
71F
 10
1217.39
 20
-394.488
 30
0.000000
  70
    32
  0
VERTEX
  8
図枠
  5
720
 10
1217.44
 20
-394.496
 30
0.000000
  70
    32
  0
VERTEX
  8
図枠
  5
721
 10
1217.48
 20
-394.504
 30
0.000000
  70
    32
  0
VERTEX
  8
図枠
  5
722
 10
1217.53
 20
-394.512
 30
0.000000
  70
    32
  0
VERTEX
  8
図枠
  5
723
 10
1217.58
 20
-394.520
 30
0.000000
  70
    32
  0
VERTEX
  8
図枠
  5
724
 10
1217.62
 20
-394.528
 30
0.000000
  70
    32
  0
VERTEX
  8
図枠
  5
725
 10
1217.67
 20
-394.536
 30
0.000000
  70
    32
  0
VERTEX
  8
図枠
  5
726
 10
1217.72
 20
-394.543
 30
0.000000
  70
    32
  0
VERTEX
  8
図枠
  5
727
 10
1217.76
 20
-394.551
 30
0.000000
  70
    32
  0
VERTEX
  8
図枠
  5
728
 10
1217.81
 20
-394.559
 30
0.000000
  70
    32
  0
SEQEND
  8
図枠
  5
729
  0
POLYLINE
  8
図枠
  5
72A
  66
     1
 10
0.000000
 20
0.000000
 30
0.000000
  70
     8
  0
VERTEX
  8
図枠
  5
72B
 10
1203.89
 20
-388.029
 30
0.000000
  70
    32
  0
VERTEX
  8
図枠
  5
72C
 10
1203.91
 20
-388.047
 30
0.000000
  70
    32
  0
VERTEX
  8
図枠
  5
72D
 10
1203.93
 20
-388.065
 30
0.000000
  70
    32
  0
VERTEX
  8
図枠
  5
72E
 10
1203.94
 20
-388.084
 30
0.000000
  70
    32
  0
VERTEX
  8
図枠
  5
72F
 10
1203.96
 20
-388.102
 30
0.000000
  70
    32
  0
VERTEX
  8
図枠
  5
730
 10
1203.98
 20
-388.121
 30
0.000000
  70
    32
  0
VERTEX
  8
図枠
  5
731
 10
1203.99
 20
-388.139
 30
0.000000
  70
    32
  0
VERTEX
  8
図枠
  5
732
 10
1204.01
 20
-388.157
 30
0.000000
  70
    32
  0
VERTEX
  8
図枠
  5
733
 10
1204.03
 20
-388.176
 30
0.000000
  70
    32
  0
VERTEX
  8
図枠
  5
734
 10
1204.04
 20
-388.194
 30
0.000000
  70
    32
  0
VERTEX
  8
図枠
  5
735
 10
1204.06
 20
-388.213
 30
0.000000
  70
    32
  0
VERTEX
  8
図枠
  5
736
 10
1204.08
 20
-388.231
 30
0.000000
  70
    32
  0
VERTEX
  8
図枠
  5
737
 10
1204.09
 20
-388.249
 30
0.000000
  70
    32
  0
VERTEX
  8
図枠
  5
738
 10
1204.11
 20
-388.268
 30
0.000000
  70
    32
  0
VERTEX
  8
図枠
  5
739
 10
1204.12
 20
-388.286
 30
0.000000
  70
    32
  0
VERTEX
  8
図枠
  5
73A
 10
1204.14
 20
-388.304
 30
0.000000
  70
    32
  0
VERTEX
  8
図枠
  5
73B
 10
1204.16
 20
-388.323
 30
0.000000
  70
    32
  0
VERTEX
  8
図枠
  5
73C
 10
1204.17
 20
-388.341
 30
0.000000
  70
    32
  0
VERTEX
  8
図枠
  5
73D
 10
1204.19
 20
-388.359
 30
0.000000
  70
    32
  0
VERTEX
  8
図枠
  5
73E
 10
1204.21
 20
-388.378
 30
0.000000
  70
    32
  0
VERTEX
  8
図枠
  5
73F
 10
1204.22
 20
-388.396
 30
0.000000
  70
    32
  0
VERTEX
  8
図枠
  5
740
 10
1204.24
 20
-388.415
 30
0.000000
  70
    32
  0
VERTEX
  8
図枠
  5
741
 10
1204.26
 20
-388.433
 30
0.000000
  70
    32
  0
VERTEX
  8
図枠
  5
742
 10
1204.27
 20
-388.451
 30
0.000000
  70
    32
  0
VERTEX
  8
図枠
  5
743
 10
1204.29
 20
-388.470
 30
0.000000
  70
    32
  0
VERTEX
  8
図枠
  5
744
 10
1204.31
 20
-388.488
 30
0.000000
  70
    32
  0
VERTEX
  8
図枠
  5
745
 10
1204.32
 20
-388.506
 30
0.000000
  70
    32
  0
VERTEX
  8
図枠
  5
746
 10
1204.34
 20
-388.524
 30
0.000000
  70
    32
  0
VERTEX
  8
図枠
  5
747
 10
1204.36
 20
-388.543
 30
0.000000
  70
    32
  0
VERTEX
  8
図枠
  5
748
 10
1204.37
 20
-388.561
 30
0.000000
  70
    32
  0
VERTEX
  8
図枠
  5
749
 10
1204.39
 20
-388.579
 30
0.000000
  70
    32
  0
VERTEX
  8
図枠
  5
74A
 10
1204.41
 20
-388.598
 30
0.000000
  70
    32
  0
VERTEX
  8
図枠
  5
74B
 10
1204.42
 20
-388.616
 30
0.000000
  70
    32
  0
VERTEX
  8
図枠
  5
74C
 10
1204.44
 20
-388.634
 30
0.000000
  70
    32
  0
VERTEX
  8
図枠
  5
74D
 10
1204.46
 20
-388.652
 30
0.000000
  70
    32
  0
VERTEX
  8
図枠
  5
74E
 10
1204.47
 20
-388.671
 30
0.000000
  70
    32
  0
VERTEX
  8
図枠
  5
74F
 10
1204.49
 20
-388.689
 30
0.000000
  70
    32
  0
VERTEX
  8
図枠
  5
750
 10
1204.51
 20
-388.707
 30
0.000000
  70
    32
  0
VERTEX
  8
図枠
  5
751
 10
1204.52
 20
-388.725
 30
0.000000
  70
    32
  0
VERTEX
  8
図枠
  5
752
 10
1204.54
 20
-388.743
 30
0.000000
  70
    32
  0
VERTEX
  8
図枠
  5
753
 10
1204.56
 20
-388.762
 30
0.000000
  70
    32
  0
VERTEX
  8
図枠
  5
754
 10
1204.57
 20
-388.780
 30
0.000000
  70
    32
  0
VERTEX
  8
図枠
  5
755
 10
1204.59
 20
-388.798
 30
0.000000
  70
    32
  0
VERTEX
  8
図枠
  5
756
 10
1204.61
 20
-388.816
 30
0.000000
  70
    32
  0
VERTEX
  8
図枠
  5
757
 10
1204.62
 20
-388.834
 30
0.000000
  70
    32
  0
VERTEX
  8
図枠
  5
758
 10
1204.64
 20
-388.852
 30
0.000000
  70
    32
  0
VERTEX
  8
図枠
  5
759
 10
1204.66
 20
-388.870
 30
0.000000
  70
    32
  0
VERTEX
  8
図枠
  5
75A
 10
1204.67
 20
-388.888
 30
0.000000
  70
    32
  0
VERTEX
  8
図枠
  5
75B
 10
1204.69
 20
-388.907
 30
0.000000
  70
    32
  0
VERTEX
  8
図枠
  5
75C
 10
1204.71
 20
-388.925
 30
0.000000
  70
    32
  0
VERTEX
  8
図枠
  5
75D
 10
1204.72
 20
-388.943
 30
0.000000
  70
    32
  0
VERTEX
  8
図枠
  5
75E
 10
1204.74
 20
-388.961
 30
0.000000
  70
    32
  0
VERTEX
  8
図枠
  5
75F
 10
1204.76
 20
-388.979
 30
0.000000
  70
    32
  0
VERTEX
  8
図枠
  5
760
 10
1204.77
 20
-388.997
 30
0.000000
  70
    32
  0
VERTEX
  8
図枠
  5
761
 10
1204.79
 20
-389.015
 30
0.000000
  70
    32
  0
VERTEX
  8
図枠
  5
762
 10
1204.81
 20
-389.033
 30
0.000000
  70
    32
  0
VERTEX
  8
図枠
  5
763
 10
1204.82
 20
-389.051
 30
0.000000
  70
    32
  0
VERTEX
  8
図枠
  5
764
 10
1204.84
 20
-389.069
 30
0.000000
  70
    32
  0
VERTEX
  8
図枠
  5
765
 10
1204.86
 20
-389.087
 30
0.000000
  70
    32
  0
VERTEX
  8
図枠
  5
766
 10
1204.87
 20
-389.105
 30
0.000000
  70
    32
  0
VERTEX
  8
図枠
  5
767
 10
1204.89
 20
-389.122
 30
0.000000
  70
    32
  0
VERTEX
  8
図枠
  5
768
 10
1204.91
 20
-389.140
 30
0.000000
  70
    32
  0
VERTEX
  8
図枠
  5
769
 10
1204.92
 20
-389.158
 30
0.000000
  70
    32
  0
VERTEX
  8
図枠
  5
76A
 10
1204.94
 20
-389.176
 30
0.000000
  70
    32
  0
VERTEX
  8
図枠
  5
76B
 10
1204.96
 20
-389.194
 30
0.000000
  70
    32
  0
VERTEX
  8
図枠
  5
76C
 10
1204.97
 20
-389.212
 30
0.000000
  70
    32
  0
VERTEX
  8
図枠
  5
76D
 10
1204.99
 20
-389.230
 30
0.000000
  70
    32
  0
VERTEX
  8
図枠
  5
76E
 10
1205.01
 20
-389.247
 30
0.000000
  70
    32
  0
VERTEX
  8
図枠
  5
76F
 10
1205.02
 20
-389.265
 30
0.000000
  70
    32
  0
VERTEX
  8
図枠
  5
770
 10
1205.04
 20
-389.283
 30
0.000000
  70
    32
  0
VERTEX
  8
図枠
  5
771
 10
1205.06
 20
-389.301
 30
0.000000
  70
    32
  0
VERTEX
  8
図枠
  5
772
 10
1205.08
 20
-389.318
 30
0.000000
  70
    32
  0
VERTEX
  8
図枠
  5
773
 10
1205.09
 20
-389.336
 30
0.000000
  70
    32
  0
VERTEX
  8
図枠
  5
774
 10
1205.11
 20
-389.354
 30
0.000000
  70
    32
  0
VERTEX
  8
図枠
  5
775
 10
1205.13
 20
-389.371
 30
0.000000
  70
    32
  0
VERTEX
  8
図枠
  5
776
 10
1205.14
 20
-389.389
 30
0.000000
  70
    32
  0
VERTEX
  8
図枠
  5
777
 10
1205.16
 20
-389.407
 30
0.000000
  70
    32
  0
VERTEX
  8
図枠
  5
778
 10
1205.18
 20
-389.424
 30
0.000000
  70
    32
  0
VERTEX
  8
図枠
  5
779
 10
1205.19
 20
-389.442
 30
0.000000
  70
    32
  0
VERTEX
  8
図枠
  5
77A
 10
1205.21
 20
-389.459
 30
0.000000
  70
    32
  0
VERTEX
  8
図枠
  5
77B
 10
1205.23
 20
-389.477
 30
0.000000
  70
    32
  0
VERTEX
  8
図枠
  5
77C
 10
1205.25
 20
-389.494
 30
0.000000
  70
    32
  0
VERTEX
  8
図枠
  5
77D
 10
1205.26
 20
-389.512
 30
0.000000
  70
    32
  0
VERTEX
  8
図枠
  5
77E
 10
1205.28
 20
-389.529
 30
0.000000
  70
    32
  0
VERTEX
  8
図枠
  5
77F
 10
1205.30
 20
-389.547
 30
0.000000
  70
    32
  0
VERTEX
  8
図枠
  5
780
 10
1205.31
 20
-389.564
 30
0.000000
  70
    32
  0
VERTEX
  8
図枠
  5
781
 10
1205.33
 20
-389.582
 30
0.000000
  70
    32
  0
VERTEX
  8
図枠
  5
782
 10
1205.35
 20
-389.599
 30
0.000000
  70
    32
  0
VERTEX
  8
図枠
  5
783
 10
1205.37
 20
-389.616
 30
0.000000
  70
    32
  0
VERTEX
  8
図枠
  5
784
 10
1205.38
 20
-389.634
 30
0.000000
  70
    32
  0
VERTEX
  8
図枠
  5
785
 10
1205.40
 20
-389.651
 30
0.000000
  70
    32
  0
VERTEX
  8
図枠
  5
786
 10
1205.42
 20
-389.668
 30
0.000000
  70
    32
  0
VERTEX
  8
図枠
  5
787
 10
1205.43
 20
-389.685
 30
0.000000
  70
    32
  0
VERTEX
  8
図枠
  5
788
 10
1205.45
 20
-389.703
 30
0.000000
  70
    32
  0
VERTEX
  8
図枠
  5
789
 10
1205.47
 20
-389.720
 30
0.000000
  70
    32
  0
VERTEX
  8
図枠
  5
78A
 10
1205.49
 20
-389.737
 30
0.000000
  70
    32
  0
VERTEX
  8
図枠
  5
78B
 10
1205.50
 20
-389.754
 30
0.000000
  70
    32
  0
VERTEX
  8
図枠
  5
78C
 10
1205.52
 20
-389.771
 30
0.000000
  70
    32
  0
VERTEX
  8
図枠
  5
78D
 10
1205.54
 20
-389.788
 30
0.000000
  70
    32
  0
VERTEX
  8
図枠
  5
78E
 10
1205.55
 20
-389.805
 30
0.000000
  70
    32
  0
VERTEX
  8
図枠
  5
78F
 10
1205.57
 20
-389.822
 30
0.000000
  70
    32
  0
VERTEX
  8
図枠
  5
790
 10
1205.59
 20
-389.839
 30
0.000000
  70
    32
  0
VERTEX
  8
図枠
  5
791
 10
1205.61
 20
-389.856
 30
0.000000
  70
    32
  0
VERTEX
  8
図枠
  5
792
 10
1205.62
 20
-389.873
 30
0.000000
  70
    32
  0
VERTEX
  8
図枠
  5
793
 10
1205.64
 20
-389.890
 30
0.000000
  70
    32
  0
VERTEX
  8
図枠
  5
794
 10
1205.66
 20
-389.907
 30
0.000000
  70
    32
  0
VERTEX
  8
図枠
  5
795
 10
1205.68
 20
-389.924
 30
0.000000
  70
    32
  0
VERTEX
  8
図枠
  5
796
 10
1205.69
 20
-389.941
 30
0.000000
  70
    32
  0
VERTEX
  8
図枠
  5
797
 10
1205.71
 20
-389.958
 30
0.000000
  70
    32
  0
VERTEX
  8
図枠
  5
798
 10
1205.73
 20
-389.975
 30
0.000000
  70
    32
  0
VERTEX
  8
図枠
  5
799
 10
1205.75
 20
-389.991
 30
0.000000
  70
    32
  0
VERTEX
  8
図枠
  5
79A
 10
1205.76
 20
-390.008
 30
0.000000
  70
    32
  0
VERTEX
  8
図枠
  5
79B
 10
1205.78
 20
-390.025
 30
0.000000
  70
    32
  0
VERTEX
  8
図枠
  5
79C
 10
1205.80
 20
-390.041
 30
0.000000
  70
    32
  0
VERTEX
  8
図枠
  5
79D
 10
1205.82
 20
-390.058
 30
0.000000
  70
    32
  0
VERTEX
  8
図枠
  5
79E
 10
1205.83
 20
-390.075
 30
0.000000
  70
    32
  0
VERTEX
  8
図枠
  5
79F
 10
1205.85
 20
-390.091
 30
0.000000
  70
    32
  0
VERTEX
  8
図枠
  5
7A0
 10
1205.87
 20
-390.108
 30
0.000000
  70
    32
  0
VERTEX
  8
図枠
  5
7A1
 10
1205.89
 20
-390.124
 30
0.000000
  70
    32
  0
VERTEX
  8
図枠
  5
7A2
 10
1205.91
 20
-390.141
 30
0.000000
  70
    32
  0
VERTEX
  8
図枠
  5
7A3
 10
1205.92
 20
-390.157
 30
0.000000
  70
    32
  0
VERTEX
  8
図枠
  5
7A4
 10
1205.94
 20
-390.173
 30
0.000000
  70
    32
  0
VERTEX
  8
図枠
  5
7A5
 10
1205.96
 20
-390.190
 30
0.000000
  70
    32
  0
VERTEX
  8
図枠
  5
7A6
 10
1205.98
 20
-390.206
 30
0.000000
  70
    32
  0
VERTEX
  8
図枠
  5
7A7
 10
1205.99
 20
-390.222
 30
0.000000
  70
    32
  0
VERTEX
  8
図枠
  5
7A8
 10
1206.01
 20
-390.239
 30
0.000000
  70
    32
  0
VERTEX
  8
図枠
  5
7A9
 10
1206.03
 20
-390.255
 30
0.000000
  70
    32
  0
VERTEX
  8
図枠
  5
7AA
 10
1206.05
 20
-390.271
 30
0.000000
  70
    32
  0
SEQEND
  8
図枠
  5
7AB
  0
POLYLINE
  8
図枠
  5
7AC
  66
     1
 10
0.000000
 20
0.000000
 30
0.000000
  70
     8
  0
VERTEX
  8
図枠
  5
7AD
 10
1208.96
 20
-396.150
 30
0.000000
  70
    32
  0
VERTEX
  8
図枠
  5
7AE
 10
1209.02
 20
-396.171
 30
0.000000
  70
    32
  0
VERTEX
  8
図枠
  5
7AF
 10
1209.09
 20
-396.193
 30
0.000000
  70
    32
  0
VERTEX
  8
図枠
  5
7B0
 10
1209.16
 20
-396.214
 30
0.000000
  70
    32
  0
VERTEX
  8
図枠
  5
7B1
 10
1209.22
 20
-396.235
 30
0.000000
  70
    32
  0
VERTEX
  8
図枠
  5
7B2
 10
1209.29
 20
-396.256
 30
0.000000
  70
    32
  0
VERTEX
  8
図枠
  5
7B3
 10
1209.36
 20
-396.277
 30
0.000000
  70
    32
  0
VERTEX
  8
図枠
  5
7B4
 10
1209.43
 20
-396.298
 30
0.000000
  70
    32
  0
VERTEX
  8
図枠
  5
7B5
 10
1209.50
 20
-396.319
 30
0.000000
  70
    32
  0
VERTEX
  8
図枠
  5
7B6
 10
1209.56
 20
-396.339
 30
0.000000
  70
    32
  0
VERTEX
  8
図枠
  5
7B7
 10
1209.63
 20
-396.360
 30
0.000000
  70
    32
  0
VERTEX
  8
図枠
  5
7B8
 10
1209.70
 20
-396.380
 30
0.000000
  70
    32
  0
VERTEX
  8
図枠
  5
7B9
 10
1209.77
 20
-396.401
 30
0.000000
  70
    32
  0
VERTEX
  8
図枠
  5
7BA
 10
1209.83
 20
-396.421
 30
0.000000
  70
    32
  0
VERTEX
  8
図枠
  5
7BB
 10
1209.90
 20
-396.441
 30
0.000000
  70
    32
  0
VERTEX
  8
図枠
  5
7BC
 10
1209.97
 20
-396.461
 30
0.000000
  70
    32
  0
VERTEX
  8
図枠
  5
7BD
 10
1210.04
 20
-396.481
 30
0.000000
  70
    32
  0
VERTEX
  8
図枠
  5
7BE
 10
1210.11
 20
-396.501
 30
0.000000
  70
    32
  0
VERTEX
  8
図枠
  5
7BF
 10
1210.17
 20
-396.521
 30
0.000000
  70
    32
  0
VERTEX
  8
図枠
  5
7C0
 10
1210.24
 20
-396.540
 30
0.000000
  70
    32
  0
VERTEX
  8
図枠
  5
7C1
 10
1210.31
 20
-396.560
 30
0.000000
  70
    32
  0
VERTEX
  8
図枠
  5
7C2
 10
1210.38
 20
-396.580
 30
0.000000
  70
    32
  0
VERTEX
  8
図枠
  5
7C3
 10
1210.45
 20
-396.599
 30
0.000000
  70
    32
  0
VERTEX
  8
図枠
  5
7C4
 10
1210.52
 20
-396.618
 30
0.000000
  70
    32
  0
VERTEX
  8
図枠
  5
7C5
 10
1210.59
 20
-396.638
 30
0.000000
  70
    32
  0
VERTEX
  8
図枠
  5
7C6
 10
1210.65
 20
-396.657
 30
0.000000
  70
    32
  0
VERTEX
  8
図枠
  5
7C7
 10
1210.72
 20
-396.676
 30
0.000000
  70
    32
  0
VERTEX
  8
図枠
  5
7C8
 10
1210.79
 20
-396.695
 30
0.000000
  70
    32
  0
VERTEX
  8
図枠
  5
7C9
 10
1210.86
 20
-396.714
 30
0.000000
  70
    32
  0
VERTEX
  8
図枠
  5
7CA
 10
1210.93
 20
-396.732
 30
0.000000
  70
    32
  0
VERTEX
  8
図枠
  5
7CB
 10
1211.00
 20
-396.751
 30
0.000000
  70
    32
  0
VERTEX
  8
図枠
  5
7CC
 10
1211.07
 20
-396.770
 30
0.000000
  70
    32
  0
VERTEX
  8
図枠
  5
7CD
 10
1211.13
 20
-396.788
 30
0.000000
  70
    32
  0
VERTEX
  8
図枠
  5
7CE
 10
1211.20
 20
-396.807
 30
0.000000
  70
    32
  0
VERTEX
  8
図枠
  5
7CF
 10
1211.27
 20
-396.825
 30
0.000000
  70
    32
  0
VERTEX
  8
図枠
  5
7D0
 10
1211.34
 20
-396.844
 30
0.000000
  70
    32
  0
VERTEX
  8
図枠
  5
7D1
 10
1211.41
 20
-396.862
 30
0.000000
  70
    32
  0
VERTEX
  8
図枠
  5
7D2
 10
1211.48
 20
-396.880
 30
0.000000
  70
    32
  0
VERTEX
  8
図枠
  5
7D3
 10
1211.55
 20
-396.898
 30
0.000000
  70
    32
  0
VERTEX
  8
図枠
  5
7D4
 10
1211.62
 20
-396.916
 30
0.000000
  70
    32
  0
VERTEX
  8
図枠
  5
7D5
 10
1211.69
 20
-396.934
 30
0.000000
  70
    32
  0
VERTEX
  8
図枠
  5
7D6
 10
1211.76
 20
-396.952
 30
0.000000
  70
    32
  0
VERTEX
  8
図枠
  5
7D7
 10
1211.83
 20
-396.970
 30
0.000000
  70
    32
  0
VERTEX
  8
図枠
  5
7D8
 10
1211.89
 20
-396.988
 30
0.000000
  70
    32
  0
VERTEX
  8
図枠
  5
7D9
 10
1211.96
 20
-397.005
 30
0.000000
  70
    32
  0
VERTEX
  8
図枠
  5
7DA
 10
1212.03
 20
-397.023
 30
0.000000
  70
    32
  0
VERTEX
  8
図枠
  5
7DB
 10
1212.10
 20
-397.040
 30
0.000000
  70
    32
  0
VERTEX
  8
図枠
  5
7DC
 10
1212.17
 20
-397.058
 30
0.000000
  70
    32
  0
VERTEX
  8
図枠
  5
7DD
 10
1212.24
 20
-397.075
 30
0.000000
  70
    32
  0
VERTEX
  8
図枠
  5
7DE
 10
1212.31
 20
-397.093
 30
0.000000
  70
    32
  0
VERTEX
  8
図枠
  5
7DF
 10
1212.38
 20
-397.110
 30
0.000000
  70
    32
  0
VERTEX
  8
図枠
  5
7E0
 10
1212.45
 20
-397.127
 30
0.000000
  70
    32
  0
VERTEX
  8
図枠
  5
7E1
 10
1212.52
 20
-397.144
 30
0.000000
  70
    32
  0
VERTEX
  8
図枠
  5
7E2
 10
1212.59
 20
-397.161
 30
0.000000
  70
    32
  0
VERTEX
  8
図枠
  5
7E3
 10
1212.66
 20
-397.178
 30
0.000000
  70
    32
  0
VERTEX
  8
図枠
  5
7E4
 10
1212.73
 20
-397.195
 30
0.000000
  70
    32
  0
VERTEX
  8
図枠
  5
7E5
 10
1212.80
 20
-397.212
 30
0.000000
  70
    32
  0
VERTEX
  8
図枠
  5
7E6
 10
1212.87
 20
-397.229
 30
0.000000
  70
    32
  0
VERTEX
  8
図枠
  5
7E7
 10
1212.94
 20
-397.246
 30
0.000000
  70
    32
  0
VERTEX
  8
図枠
  5
7E8
 10
1213.01
 20
-397.262
 30
0.000000
  70
    32
  0
VERTEX
  8
図枠
  5
7E9
 10
1213.08
 20
-397.279
 30
0.000000
  70
    32
  0
VERTEX
  8
図枠
  5
7EA
 10
1213.15
 20
-397.296
 30
0.000000
  70
    32
  0
VERTEX
  8
図枠
  5
7EB
 10
1213.22
 20
-397.312
 30
0.000000
  70
    32
  0
VERTEX
  8
図枠
  5
7EC
 10
1213.29
 20
-397.329
 30
0.000000
  70
    32
  0
VERTEX
  8
図枠
  5
7ED
 10
1213.36
 20
-397.345
 30
0.000000
  70
    32
  0
VERTEX
  8
図枠
  5
7EE
 10
1213.43
 20
-397.362
 30
0.000000
  70
    32
  0
VERTEX
  8
図枠
  5
7EF
 10
1213.50
 20
-397.378
 30
0.000000
  70
    32
  0
VERTEX
  8
図枠
  5
7F0
 10
1213.57
 20
-397.394
 30
0.000000
  70
    32
  0
VERTEX
  8
図枠
  5
7F1
 10
1213.64
 20
-397.410
 30
0.000000
  70
    32
  0
VERTEX
  8
図枠
  5
7F2
 10
1213.71
 20
-397.427
 30
0.000000
  70
    32
  0
VERTEX
  8
図枠
  5
7F3
 10
1213.78
 20
-397.443
 30
0.000000
  70
    32
  0
VERTEX
  8
図枠
  5
7F4
 10
1213.85
 20
-397.459
 30
0.000000
  70
    32
  0
VERTEX
  8
図枠
  5
7F5
 10
1213.92
 20
-397.475
 30
0.000000
  70
    32
  0
VERTEX
  8
図枠
  5
7F6
 10
1213.99
 20
-397.491
 30
0.000000
  70
    32
  0
VERTEX
  8
図枠
  5
7F7
 10
1214.06
 20
-397.507
 30
0.000000
  70
    32
  0
VERTEX
  8
図枠
  5
7F8
 10
1214.13
 20
-397.523
 30
0.000000
  70
    32
  0
VERTEX
  8
図枠
  5
7F9
 10
1214.20
 20
-397.539
 30
0.000000
  70
    32
  0
VERTEX
  8
図枠
  5
7FA
 10
1214.27
 20
-397.554
 30
0.000000
  70
    32
  0
VERTEX
  8
図枠
  5
7FB
 10
1214.34
 20
-397.570
 30
0.000000
  70
    32
  0
VERTEX
  8
図枠
  5
7FC
 10
1214.41
 20
-397.586
 30
0.000000
  70
    32
  0
VERTEX
  8
図枠
  5
7FD
 10
1214.48
 20
-397.602
 30
0.000000
  70
    32
  0
VERTEX
  8
図枠
  5
7FE
 10
1214.55
 20
-397.617
 30
0.000000
  70
    32
  0
VERTEX
  8
図枠
  5
7FF
 10
1214.62
 20
-397.633
 30
0.000000
  70
    32
  0
VERTEX
  8
図枠
  5
800
 10
1214.69
 20
-397.648
 30
0.000000
  70
    32
  0
VERTEX
  8
図枠
  5
801
 10
1214.76
 20
-397.664
 30
0.000000
  70
    32
  0
VERTEX
  8
図枠
  5
802
 10
1214.83
 20
-397.679
 30
0.000000
  70
    32
  0
VERTEX
  8
図枠
  5
803
 10
1214.91
 20
-397.695
 30
0.000000
  70
    32
  0
VERTEX
  8
図枠
  5
804
 10
1214.98
 20
-397.710
 30
0.000000
  70
    32
  0
VERTEX
  8
図枠
  5
805
 10
1215.05
 20
-397.726
 30
0.000000
  70
    32
  0
VERTEX
  8
図枠
  5
806
 10
1215.12
 20
-397.741
 30
0.000000
  70
    32
  0
VERTEX
  8
図枠
  5
807
 10
1215.19
 20
-397.756
 30
0.000000
  70
    32
  0
VERTEX
  8
図枠
  5
808
 10
1215.26
 20
-397.772
 30
0.000000
  70
    32
  0
VERTEX
  8
図枠
  5
809
 10
1215.33
 20
-397.787
 30
0.000000
  70
    32
  0
VERTEX
  8
図枠
  5
80A
 10
1215.40
 20
-397.802
 30
0.000000
  70
    32
  0
VERTEX
  8
図枠
  5
80B
 10
1215.47
 20
-397.818
 30
0.000000
  70
    32
  0
VERTEX
  8
図枠
  5
80C
 10
1215.54
 20
-397.833
 30
0.000000
  70
    32
  0
VERTEX
  8
図枠
  5
80D
 10
1215.61
 20
-397.848
 30
0.000000
  70
    32
  0
VERTEX
  8
図枠
  5
80E
 10
1215.68
 20
-397.863
 30
0.000000
  70
    32
  0
VERTEX
  8
図枠
  5
80F
 10
1215.75
 20
-397.878
 30
0.000000
  70
    32
  0
VERTEX
  8
図枠
  5
810
 10
1215.82
 20
-397.893
 30
0.000000
  70
    32
  0
VERTEX
  8
図枠
  5
811
 10
1215.89
 20
-397.908
 30
0.000000
  70
    32
  0
VERTEX
  8
図枠
  5
812
 10
1215.97
 20
-397.923
 30
0.000000
  70
    32
  0
VERTEX
  8
図枠
  5
813
 10
1216.04
 20
-397.938
 30
0.000000
  70
    32
  0
VERTEX
  8
図枠
  5
814
 10
1216.11
 20
-397.953
 30
0.000000
  70
    32
  0
VERTEX
  8
図枠
  5
815
 10
1216.18
 20
-397.968
 30
0.000000
  70
    32
  0
VERTEX
  8
図枠
  5
816
 10
1216.25
 20
-397.983
 30
0.000000
  70
    32
  0
VERTEX
  8
図枠
  5
817
 10
1216.32
 20
-397.998
 30
0.000000
  70
    32
  0
VERTEX
  8
図枠
  5
818
 10
1216.39
 20
-398.013
 30
0.000000
  70
    32
  0
VERTEX
  8
図枠
  5
819
 10
1216.46
 20
-398.028
 30
0.000000
  70
    32
  0
VERTEX
  8
図枠
  5
81A
 10
1216.53
 20
-398.043
 30
0.000000
  70
    32
  0
VERTEX
  8
図枠
  5
81B
 10
1216.60
 20
-398.058
 30
0.000000
  70
    32
  0
VERTEX
  8
図枠
  5
81C
 10
1216.67
 20
-398.073
 30
0.000000
  70
    32
  0
VERTEX
  8
図枠
  5
81D
 10
1216.74
 20
-398.087
 30
0.000000
  70
    32
  0
VERTEX
  8
図枠
  5
81E
 10
1216.82
 20
-398.102
 30
0.000000
  70
    32
  0
VERTEX
  8
図枠
  5
81F
 10
1216.89
 20
-398.117
 30
0.000000
  70
    32
  0
VERTEX
  8
図枠
  5
820
 10
1216.96
 20
-398.132
 30
0.000000
  70
    32
  0
VERTEX
  8
図枠
  5
821
 10
1217.03
 20
-398.147
 30
0.000000
  70
    32
  0
VERTEX
  8
図枠
  5
822
 10
1217.10
 20
-398.162
 30
0.000000
  70
    32
  0
VERTEX
  8
図枠
  5
823
 10
1217.17
 20
-398.176
 30
0.000000
  70
    32
  0
VERTEX
  8
図枠
  5
824
 10
1217.24
 20
-398.191
 30
0.000000
  70
    32
  0
VERTEX
  8
図枠
  5
825
 10
1217.31
 20
-398.206
 30
0.000000
  70
    32
  0
VERTEX
  8
図枠
  5
826
 10
1217.38
 20
-398.221
 30
0.000000
  70
    32
  0
VERTEX
  8
図枠
  5
827
 10
1217.45
 20
-398.235
 30
0.000000
  70
    32
  0
VERTEX
  8
図枠
  5
828
 10
1217.52
 20
-398.250
 30
0.000000
  70
    32
  0
VERTEX
  8
図枠
  5
829
 10
1217.60
 20
-398.265
 30
0.000000
  70
    32
  0
VERTEX
  8
図枠
  5
82A
 10
1217.67
 20
-398.280
 30
0.000000
  70
    32
  0
VERTEX
  8
図枠
  5
82B
 10
1217.74
 20
-398.294
 30
0.000000
  70
    32
  0
VERTEX
  8
図枠
  5
82C
 10
1217.81
 20
-398.309
 30
0.000000
  70
    32
  0
SEQEND
  8
図枠
  5
82D
  0
POLYLINE
  8
図枠
  5
82E
  66
     1
 10
0.000000
 20
0.000000
 30
0.000000
  70
     8
  0
VERTEX
  8
図枠
  5
82F
 10
1195.31
 20
-387.420
 30
0.000000
  70
    32
  0
VERTEX
  8
図枠
  5
830
 10
1195.35
 20
-387.461
 30
0.000000
  70
    32
  0
VERTEX
  8
図枠
  5
831
 10
1195.40
 20
-387.503
 30
0.000000
  70
    32
  0
VERTEX
  8
図枠
  5
832
 10
1195.44
 20
-387.544
 30
0.000000
  70
    32
  0
VERTEX
  8
図枠
  5
833
 10
1195.49
 20
-387.586
 30
0.000000
  70
    32
  0
VERTEX
  8
図枠
  5
834
 10
1195.53
 20
-387.627
 30
0.000000
  70
    32
  0
VERTEX
  8
図枠
  5
835
 10
1195.58
 20
-387.669
 30
0.000000
  70
    32
  0
VERTEX
  8
図枠
  5
836
 10
1195.62
 20
-387.710
 30
0.000000
  70
    32
  0
VERTEX
  8
図枠
  5
837
 10
1195.67
 20
-387.752
 30
0.000000
  70
    32
  0
VERTEX
  8
図枠
  5
838
 10
1195.71
 20
-387.793
 30
0.000000
  70
    32
  0
VERTEX
  8
図枠
  5
839
 10
1195.76
 20
-387.835
 30
0.000000
  70
    32
  0
VERTEX
  8
図枠
  5
83A
 10
1195.80
 20
-387.876
 30
0.000000
  70
    32
  0
VERTEX
  8
図枠
  5
83B
 10
1195.85
 20
-387.918
 30
0.000000
  70
    32
  0
VERTEX
  8
図枠
  5
83C
 10
1195.89
 20
-387.959
 30
0.000000
  70
    32
  0
VERTEX
  8
図枠
  5
83D
 10
1195.94
 20
-388.000
 30
0.000000
  70
    32
  0
VERTEX
  8
図枠
  5
83E
 10
1195.98
 20
-388.042
 30
0.000000
  70
    32
  0
VERTEX
  8
図枠
  5
83F
 10
1196.03
 20
-388.083
 30
0.000000
  70
    32
  0
VERTEX
  8
図枠
  5
840
 10
1196.07
 20
-388.125
 30
0.000000
  70
    32
  0
VERTEX
  8
図枠
  5
841
 10
1196.12
 20
-388.166
 30
0.000000
  70
    32
  0
VERTEX
  8
図枠
  5
842
 10
1196.16
 20
-388.207
 30
0.000000
  70
    32
  0
VERTEX
  8
図枠
  5
843
 10
1196.21
 20
-388.249
 30
0.000000
  70
    32
  0
VERTEX
  8
図枠
  5
844
 10
1196.25
 20
-388.290
 30
0.000000
  70
    32
  0
VERTEX
  8
図枠
  5
845
 10
1196.30
 20
-388.331
 30
0.000000
  70
    32
  0
VERTEX
  8
図枠
  5
846
 10
1196.34
 20
-388.373
 30
0.000000
  70
    32
  0
VERTEX
  8
図枠
  5
847
 10
1196.39
 20
-388.414
 30
0.000000
  70
    32
  0
VERTEX
  8
図枠
  5
848
 10
1196.44
 20
-388.455
 30
0.000000
  70
    32
  0
VERTEX
  8
図枠
  5
849
 10
1196.48
 20
-388.496
 30
0.000000
  70
    32
  0
VERTEX
  8
図枠
  5
84A
 10
1196.53
 20
-388.538
 30
0.000000
  70
    32
  0
VERTEX
  8
図枠
  5
84B
 10
1196.57
 20
-388.579
 30
0.000000
  70
    32
  0
VERTEX
  8
図枠
  5
84C
 10
1196.62
 20
-388.620
 30
0.000000
  70
    32
  0
VERTEX
  8
図枠
  5
84D
 10
1196.66
 20
-388.661
 30
0.000000
  70
    32
  0
VERTEX
  8
図枠
  5
84E
 10
1196.71
 20
-388.702
 30
0.000000
  70
    32
  0
VERTEX
  8
図枠
  5
84F
 10
1196.75
 20
-388.743
 30
0.000000
  70
    32
  0
VERTEX
  8
図枠
  5
850
 10
1196.80
 20
-388.784
 30
0.000000
  70
    32
  0
VERTEX
  8
図枠
  5
851
 10
1196.84
 20
-388.825
 30
0.000000
  70
    32
  0
VERTEX
  8
図枠
  5
852
 10
1196.89
 20
-388.866
 30
0.000000
  70
    32
  0
VERTEX
  8
図枠
  5
853
 10
1196.93
 20
-388.907
 30
0.000000
  70
    32
  0
VERTEX
  8
図枠
  5
854
 10
1196.98
 20
-388.948
 30
0.000000
  70
    32
  0
VERTEX
  8
図枠
  5
855
 10
1197.02
 20
-388.989
 30
0.000000
  70
    32
  0
VERTEX
  8
図枠
  5
856
 10
1197.07
 20
-389.030
 30
0.000000
  70
    32
  0
VERTEX
  8
図枠
  5
857
 10
1197.11
 20
-389.071
 30
0.000000
  70
    32
  0
VERTEX
  8
図枠
  5
858
 10
1197.16
 20
-389.112
 30
0.000000
  70
    32
  0
VERTEX
  8
図枠
  5
859
 10
1197.21
 20
-389.152
 30
0.000000
  70
    32
  0
VERTEX
  8
図枠
  5
85A
 10
1197.25
 20
-389.193
 30
0.000000
  70
    32
  0
VERTEX
  8
図枠
  5
85B
 10
1197.30
 20
-389.234
 30
0.000000
  70
    32
  0
VERTEX
  8
図枠
  5
85C
 10
1197.34
 20
-389.274
 30
0.000000
  70
    32
  0
VERTEX
  8
図枠
  5
85D
 10
1197.39
 20
-389.315
 30
0.000000
  70
    32
  0
VERTEX
  8
図枠
  5
85E
 10
1197.43
 20
-389.356
 30
0.000000
  70
    32
  0
VERTEX
  8
図枠
  5
85F
 10
1197.48
 20
-389.396
 30
0.000000
  70
    32
  0
VERTEX
  8
図枠
  5
860
 10
1197.52
 20
-389.437
 30
0.000000
  70
    32
  0
VERTEX
  8
図枠
  5
861
 10
1197.57
 20
-389.477
 30
0.000000
  70
    32
  0
VERTEX
  8
図枠
  5
862
 10
1197.61
 20
-389.517
 30
0.000000
  70
    32
  0
VERTEX
  8
図枠
  5
863
 10
1197.66
 20
-389.558
 30
0.000000
  70
    32
  0
VERTEX
  8
図枠
  5
864
 10
1197.71
 20
-389.598
 30
0.000000
  70
    32
  0
VERTEX
  8
図枠
  5
865
 10
1197.75
 20
-389.638
 30
0.000000
  70
    32
  0
VERTEX
  8
図枠
  5
866
 10
1197.80
 20
-389.679
 30
0.000000
  70
    32
  0
VERTEX
  8
図枠
  5
867
 10
1197.84
 20
-389.719
 30
0.000000
  70
    32
  0
VERTEX
  8
図枠
  5
868
 10
1197.89
 20
-389.759
 30
0.000000
  70
    32
  0
VERTEX
  8
図枠
  5
869
 10
1197.93
 20
-389.799
 30
0.000000
  70
    32
  0
VERTEX
  8
図枠
  5
86A
 10
1197.98
 20
-389.839
 30
0.000000
  70
    32
  0
VERTEX
  8
図枠
  5
86B
 10
1198.03
 20
-389.879
 30
0.000000
  70
    32
  0
VERTEX
  8
図枠
  5
86C
 10
1198.07
 20
-389.919
 30
0.000000
  70
    32
  0
VERTEX
  8
図枠
  5
86D
 10
1198.12
 20
-389.959
 30
0.000000
  70
    32
  0
VERTEX
  8
図枠
  5
86E
 10
1198.16
 20
-389.999
 30
0.000000
  70
    32
  0
VERTEX
  8
図枠
  5
86F
 10
1198.21
 20
-390.038
 30
0.000000
  70
    32
  0
VERTEX
  8
図枠
  5
870
 10
1198.26
 20
-390.078
 30
0.000000
  70
    32
  0
VERTEX
  8
図枠
  5
871
 10
1198.30
 20
-390.118
 30
0.000000
  70
    32
  0
VERTEX
  8
図枠
  5
872
 10
1198.35
 20
-390.157
 30
0.000000
  70
    32
  0
VERTEX
  8
図枠
  5
873
 10
1198.39
 20
-390.197
 30
0.000000
  70
    32
  0
VERTEX
  8
図枠
  5
874
 10
1198.44
 20
-390.236
 30
0.000000
  70
    32
  0
VERTEX
  8
図枠
  5
875
 10
1198.49
 20
-390.276
 30
0.000000
  70
    32
  0
VERTEX
  8
図枠
  5
876
 10
1198.53
 20
-390.315
 30
0.000000
  70
    32
  0
VERTEX
  8
図枠
  5
877
 10
1198.58
 20
-390.354
 30
0.000000
  70
    32
  0
VERTEX
  8
図枠
  5
878
 10
1198.63
 20
-390.394
 30
0.000000
  70
    32
  0
VERTEX
  8
図枠
  5
879
 10
1198.67
 20
-390.433
 30
0.000000
  70
    32
  0
VERTEX
  8
図枠
  5
87A
 10
1198.72
 20
-390.472
 30
0.000000
  70
    32
  0
VERTEX
  8
図枠
  5
87B
 10
1198.76
 20
-390.511
 30
0.000000
  70
    32
  0
VERTEX
  8
図枠
  5
87C
 10
1198.81
 20
-390.550
 30
0.000000
  70
    32
  0
VERTEX
  8
図枠
  5
87D
 10
1198.86
 20
-390.589
 30
0.000000
  70
    32
  0
VERTEX
  8
図枠
  5
87E
 10
1198.90
 20
-390.628
 30
0.000000
  70
    32
  0
VERTEX
  8
図枠
  5
87F
 10
1198.95
 20
-390.667
 30
0.000000
  70
    32
  0
VERTEX
  8
図枠
  5
880
 10
1199.00
 20
-390.705
 30
0.000000
  70
    32
  0
VERTEX
  8
図枠
  5
881
 10
1199.04
 20
-390.744
 30
0.000000
  70
    32
  0
VERTEX
  8
図枠
  5
882
 10
1199.09
 20
-390.782
 30
0.000000
  70
    32
  0
VERTEX
  8
図枠
  5
883
 10
1199.14
 20
-390.821
 30
0.000000
  70
    32
  0
VERTEX
  8
図枠
  5
884
 10
1199.18
 20
-390.859
 30
0.000000
  70
    32
  0
VERTEX
  8
図枠
  5
885
 10
1199.23
 20
-390.898
 30
0.000000
  70
    32
  0
VERTEX
  8
図枠
  5
886
 10
1199.28
 20
-390.936
 30
0.000000
  70
    32
  0
VERTEX
  8
図枠
  5
887
 10
1199.32
 20
-390.974
 30
0.000000
  70
    32
  0
VERTEX
  8
図枠
  5
888
 10
1199.37
 20
-391.012
 30
0.000000
  70
    32
  0
VERTEX
  8
図枠
  5
889
 10
1199.42
 20
-391.050
 30
0.000000
  70
    32
  0
VERTEX
  8
図枠
  5
88A
 10
1199.46
 20
-391.088
 30
0.000000
  70
    32
  0
VERTEX
  8
図枠
  5
88B
 10
1199.51
 20
-391.126
 30
0.000000
  70
    32
  0
VERTEX
  8
図枠
  5
88C
 10
1199.56
 20
-391.164
 30
0.000000
  70
    32
  0
VERTEX
  8
図枠
  5
88D
 10
1199.61
 20
-391.202
 30
0.000000
  70
    32
  0
VERTEX
  8
図枠
  5
88E
 10
1199.65
 20
-391.239
 30
0.000000
  70
    32
  0
VERTEX
  8
図枠
  5
88F
 10
1199.70
 20
-391.277
 30
0.000000
  70
    32
  0
VERTEX
  8
図枠
  5
890
 10
1199.75
 20
-391.314
 30
0.000000
  70
    32
  0
VERTEX
  8
図枠
  5
891
 10
1199.79
 20
-391.352
 30
0.000000
  70
    32
  0
VERTEX
  8
図枠
  5
892
 10
1199.84
 20
-391.389
 30
0.000000
  70
    32
  0
VERTEX
  8
図枠
  5
893
 10
1199.89
 20
-391.426
 30
0.000000
  70
    32
  0
VERTEX
  8
図枠
  5
894
 10
1199.94
 20
-391.464
 30
0.000000
  70
    32
  0
VERTEX
  8
図枠
  5
895
 10
1199.98
 20
-391.501
 30
0.000000
  70
    32
  0
VERTEX
  8
図枠
  5
896
 10
1200.03
 20
-391.538
 30
0.000000
  70
    32
  0
VERTEX
  8
図枠
  5
897
 10
1200.08
 20
-391.574
 30
0.000000
  70
    32
  0
VERTEX
  8
図枠
  5
898
 10
1200.13
 20
-391.611
 30
0.000000
  70
    32
  0
VERTEX
  8
図枠
  5
899
 10
1200.17
 20
-391.648
 30
0.000000
  70
    32
  0
VERTEX
  8
図枠
  5
89A
 10
1200.22
 20
-391.685
 30
0.000000
  70
    32
  0
VERTEX
  8
図枠
  5
89B
 10
1200.27
 20
-391.721
 30
0.000000
  70
    32
  0
VERTEX
  8
図枠
  5
89C
 10
1200.32
 20
-391.757
 30
0.000000
  70
    32
  0
VERTEX
  8
図枠
  5
89D
 10
1200.36
 20
-391.794
 30
0.000000
  70
    32
  0
VERTEX
  8
図枠
  5
89E
 10
1200.41
 20
-391.830
 30
0.000000
  70
    32
  0
VERTEX
  8
図枠
  5
89F
 10
1200.46
 20
-391.866
 30
0.000000
  70
    32
  0
VERTEX
  8
図枠
  5
8A0
 10
1200.51
 20
-391.902
 30
0.000000
  70
    32
  0
VERTEX
  8
図枠
  5
8A1
 10
1200.56
 20
-391.938
 30
0.000000
  70
    32
  0
VERTEX
  8
図枠
  5
8A2
 10
1200.60
 20
-391.974
 30
0.000000
  70
    32
  0
VERTEX
  8
図枠
  5
8A3
 10
1200.65
 20
-392.010
 30
0.000000
  70
    32
  0
VERTEX
  8
図枠
  5
8A4
 10
1200.70
 20
-392.045
 30
0.000000
  70
    32
  0
VERTEX
  8
図枠
  5
8A5
 10
1200.75
 20
-392.081
 30
0.000000
  70
    32
  0
VERTEX
  8
図枠
  5
8A6
 10
1200.80
 20
-392.116
 30
0.000000
  70
    32
  0
VERTEX
  8
図枠
  5
8A7
 10
1200.85
 20
-392.152
 30
0.000000
  70
    32
  0
VERTEX
  8
図枠
  5
8A8
 10
1200.89
 20
-392.187
 30
0.000000
  70
    32
  0
VERTEX
  8
図枠
  5
8A9
 10
1200.94
 20
-392.222
 30
0.000000
  70
    32
  0
VERTEX
  8
図枠
  5
8AA
 10
1200.99
 20
-392.257
 30
0.000000
  70
    32
  0
VERTEX
  8
図枠
  5
8AB
 10
1201.04
 20
-392.292
 30
0.000000
  70
    32
  0
VERTEX
  8
図枠
  5
8AC
 10
1201.09
 20
-392.327
 30
0.000000
  70
    32
  0
VERTEX
  8
図枠
  5
8AD
 10
1201.14
 20
-392.361
 30
0.000000
  70
    32
  0
VERTEX
  8
図枠
  5
8AE
 10
1201.19
 20
-392.396
 30
0.000000
  70
    32
  0
VERTEX
  8
図枠
  5
8AF
 10
1201.24
 20
-392.431
 30
0.000000
  70
    32
  0
VERTEX
  8
図枠
  5
8B0
 10
1201.28
 20
-392.465
 30
0.000000
  70
    32
  0
VERTEX
  8
図枠
  5
8B1
 10
1201.33
 20
-392.499
 30
0.000000
  70
    32
  0
VERTEX
  8
図枠
  5
8B2
 10
1201.38
 20
-392.533
 30
0.000000
  70
    32
  0
VERTEX
  8
図枠
  5
8B3
 10
1201.43
 20
-392.567
 30
0.000000
  70
    32
  0
VERTEX
  8
図枠
  5
8B4
 10
1201.48
 20
-392.601
 30
0.000000
  70
    32
  0
VERTEX
  8
図枠
  5
8B5
 10
1201.53
 20
-392.635
 30
0.000000
  70
    32
  0
VERTEX
  8
図枠
  5
8B6
 10
1201.58
 20
-392.669
 30
0.000000
  70
    32
  0
VERTEX
  8
図枠
  5
8B7
 10
1201.63
 20
-392.702
 30
0.000000
  70
    32
  0
VERTEX
  8
図枠
  5
8B8
 10
1201.68
 20
-392.736
 30
0.000000
  70
    32
  0
VERTEX
  8
図枠
  5
8B9
 10
1201.73
 20
-392.769
 30
0.000000
  70
    32
  0
VERTEX
  8
図枠
  5
8BA
 10
1201.78
 20
-392.802
 30
0.000000
  70
    32
  0
VERTEX
  8
図枠
  5
8BB
 10
1201.83
 20
-392.836
 30
0.000000
  70
    32
  0
VERTEX
  8
図枠
  5
8BC
 10
1201.88
 20
-392.868
 30
0.000000
  70
    32
  0
VERTEX
  8
図枠
  5
8BD
 10
1201.93
 20
-392.901
 30
0.000000
  70
    32
  0
VERTEX
  8
図枠
  5
8BE
 10
1201.97
 20
-392.934
 30
0.000000
  70
    32
  0
VERTEX
  8
図枠
  5
8BF
 10
1202.02
 20
-392.967
 30
0.000000
  70
    32
  0
VERTEX
  8
図枠
  5
8C0
 10
1202.07
 20
-392.999
 30
0.000000
  70
    32
  0
VERTEX
  8
図枠
  5
8C1
 10
1202.12
 20
-393.032
 30
0.000000
  70
    32
  0
VERTEX
  8
図枠
  5
8C2
 10
1202.17
 20
-393.064
 30
0.000000
  70
    32
  0
VERTEX
  8
図枠
  5
8C3
 10
1202.22
 20
-393.096
 30
0.000000
  70
    32
  0
VERTEX
  8
図枠
  5
8C4
 10
1202.27
 20
-393.128
 30
0.000000
  70
    32
  0
VERTEX
  8
図枠
  5
8C5
 10
1202.33
 20
-393.160
 30
0.000000
  70
    32
  0
VERTEX
  8
図枠
  5
8C6
 10
1202.38
 20
-393.191
 30
0.000000
  70
    32
  0
VERTEX
  8
図枠
  5
8C7
 10
1202.43
 20
-393.223
 30
0.000000
  70
    32
  0
VERTEX
  8
図枠
  5
8C8
 10
1202.48
 20
-393.254
 30
0.000000
  70
    32
  0
VERTEX
  8
図枠
  5
8C9
 10
1202.53
 20
-393.286
 30
0.000000
  70
    32
  0
VERTEX
  8
図枠
  5
8CA
 10
1202.58
 20
-393.317
 30
0.000000
  70
    32
  0
VERTEX
  8
図枠
  5
8CB
 10
1202.63
 20
-393.348
 30
0.000000
  70
    32
  0
VERTEX
  8
図枠
  5
8CC
 10
1202.68
 20
-393.379
 30
0.000000
  70
    32
  0
VERTEX
  8
図枠
  5
8CD
 10
1202.73
 20
-393.410
 30
0.000000
  70
    32
  0
VERTEX
  8
図枠
  5
8CE
 10
1202.78
 20
-393.440
 30
0.000000
  70
    32
  0
SEQEND
  8
図枠
  5
8CF
  0
INSERT
  5
11C
  8
0
  6
CONTINUOUS
  2
*U67
 10
0.0
 20
0.0
 30
0.0
  0
LINE
  5
11D
  8
図枠
 10
1229.2197937792
 20
-331.75083333330002
 30
0.0
 11
1229.2197937792
 21
-337.75083333330002
 31
0.0
  0
LINE
  5
11E
  8
図枠
 10
1188.6566162207
 20
-385.80915091610001
 30
0.0
 11
1188.6566162207
 21
-389.55915091610001
 31
0.0
  0
LINE
  5
11F
  8
図枠
 10
1229.2197937792
 20
-337.75083333330002
 30
0.0
 11
1241.2197937792
 21
-340.75083333330002
 31
0.0
  0
LINE
  5
120
  8
図枠
 10
1195.3081313722
 20
-380.80915091610001
 30
0.0
 11
1195.3081313722
 21
-385.30915091610001
 31
0.0
  0
ARC
  5
121
  8
図枠
 10
1177.4066162207
 20
-390.80915091610001
 30
0.0
 40
7.5
 50
270.0
 51
0.0
  0
LINE
  5
122
  8
図枠
 10
1069.5050000000001
 20
-321.00083333330002
 30
0.0
 11
1069.5050000000001
 21
-403.50083333330002
 31
0.0
  0
INSERT
  5
123
  8
0
  6
CONTINUOUS
  2
*U68
 10
0.0
 20
0.0
 30
0.0
  0
INSERT
  5
124
  8
0
  6
CONTINUOUS
  2
*U69
 10
0.0
 20
0.0
 30
0.0
  0
INSERT
  5
125
  8
0
  6
CONTINUOUS
  2
*U70
 10
0.0
 20
0.0
 30
0.0
  0
INSERT
  5
126
  8
0
  6
CONTINUOUS
  2
*U71
 10
0.0
 20
0.0
 30
0.0
  0
LINE
  5
127
  8
図枠
 10
1163.2550000000001
 20
-348.50083333330002
 30
0.0
 11
1163.2550000000001
 21
-376.00083333330002
 31
0.0
  0
LINE
  5
128
  8
図枠
 10
1069.5050000000001
 20
-376.00083333330002
 30
0.0
 11
1432.0050000000001
 21
-376.00083333330002
 31
0.0
  0
LINE
  5
129
  8
図枠
 10
1075.7550000000001
 20
-362.25083333330002
 30
0.0
 11
1157.0050000000001
 21
-362.25083333330002
 31
0.0
  0
LINE
  5
12A
  8
図枠
 10
1169.5050000000001
 20
-362.25083333330002
 30
0.0
 11
1250.7550000000001
 21
-362.25083333330002
 31
0.0
  0
INSERT
  5
12B
  8
0
  6
CONTINUOUS
  2
*U72
 10
0.0
 20
0.0
 30
0.0
  0
INSERT
  5
12C
  8
0
  6
CONTINUOUS
  2
*U73
 10
0.0
 20
0.0
 30
0.0
  0
LINE
  5
12D
  8
図枠
 10
1092.0050000000001
 20
-308.50083333330002
 30
0.0
 11
1092.0050000000001
 21
-296.00083333330002
 31
0.0
  0
LINE
  5
12E
  8
図枠
 10
1069.5050000000001
 20
-308.50083333330002
 30
0.0
 11
1069.5050000000001
 21
-296.00083333330002
 31
0.0
  0
LINE
  5
12F
  8
図枠
 10
1354.5050000000001
 20
-308.50083333330002
 30
0.0
 11
1354.5050000000001
 21
-296.00083333330002
 31
0.0
  0
LINE
  5
130
  8
図枠
 10
1332.0050000000001
 20
-308.50083333330002
 30
0.0
 11
1332.0050000000001
 21
-296.00083333330002
 31
0.0
  0
LINE
  5
131
  8
図枠
 10
1432.0050000000001
 20
-296.00083333330002
 30
0.0
 11
1069.5050000000001
 21
-296.00083333330002
 31
0.0
  0
LINE
  5
132
  8
図枠
 10
1069.5050000000001
 20
-308.50083333330002
 30
0.0
 11
1432.0050000000001
 21
-308.50083333330002
 31
0.0
  0
LINE
  5
133
  8
図枠
 10
1217.0050000000001
 20
-308.50083333330002
 30
0.0
 11
1217.0050000000001
 21
-296.00083333330002
 31
0.0
  0
INSERT
  5
134
  8
0
  6
CONTINUOUS
  2
*U74
 10
0.0
 20
0.0
 30
0.0
  0
INSERT
  5
135
  8
0
  6
CONTINUOUS
  2
*U75
 10
0.0
 20
0.0
 30
0.0
  0
CIRCLE
  5
136
  8
図枠
 10
1215.5050000000001
 20
-334.75083333330002
 30
0.0
 40
3.0
  0
LINE
  5
137
  8
図枠
 10
1229.2197937792
 20
-337.75083333330002
 30
0.0
 11
1241.2197937792
 21
-340.75083333330002
 31
0.0
  0
LINE
  5
138
  8
図枠
 10
1229.2197937792
 20
-331.75083333330002
 30
0.0
 11
1229.2197937792
 21
-337.75083333330002
 31
0.0
  0
LINE
  5
139
  8
図枠
 10
1241.2197937792
 20
-328.75083333330002
 30
0.0
 11
1241.2197937792
 21
-340.75083333330002
 31
0.0
  0
LINE
  5
13A
  8
図枠
  6
BORDER
 10
1215.5050000000001
 20
-325.75083333330002
 30
0.0
 11
1215.5050000000001
 21
-343.75083333330002
 31
0.0
  0
LINE
  5
13B
  8
図枠
  6
BORDER
 10
1215.5050000000001
 20
-325.75083333330002
 30
0.0
 11
1215.5050000000001
 21
-343.75083333330002
 31
0.0
  0
LINE
  5
13C
  8
図枠
 10
1241.2197937792
 20
-328.75083333330002
 30
0.0
 11
1241.2197937792
 21
-340.75083333330002
 31
0.0
  0
LINE
  5
13D
  8
図枠
 10
1229.2197937792
 20
-331.75083333330002
 30
0.0
 11
1229.2197937792
 21
-337.75083333330002
 31
0.0
  0
LINE
  5
13E
  8
図枠
 10
1229.2197937792
 20
-337.75083333330002
 30
0.0
 11
1241.2197937792
 21
-340.75083333330002
 31
0.0
  0
LINE
  5
13F
  8
図枠
 10
1229.2197937792
 20
-331.75083333330002
 30
0.0
 11
1241.2197937792
 21
-328.75083333330002
 31
0.0
  0
CIRCLE
  5
140
  8
図枠
 10
1215.5050000000001
 20
-334.75083333330002
 30
0.0
 40
6.0
  0
CIRCLE
  5
141
  8
図枠
 10
1215.5050000000001
 20
-334.75083333330002
 30
0.0
 40
3.0
  0
CIRCLE
  5
142
  8
図枠
 10
1215.5050000000001
 20
-334.75083333330002
 30
0.0
 40
6.0
  0
LINE
  5
143
  8
図枠
 10
1229.2197937792
 20
-331.75083333330002
 30
0.0
 11
1241.2197937792
 21
-328.75083333330002
 31
0.0
  0
ENDBLK
  5
144
  8
0
  0
BLOCK
  8
0
  2
*D8
 70
     1
 10
0.0
 20
0.0
 30
0.0
  3
*D8
  1

  0
TEXT
  5
154
  8
0
 62
     0
 10
815.45293569579985
 20
-187.2032083844
 30
0.0
 40
8.2461809158000001
  1
30
 50
90.0
  0
LINE
  5
155
  8
0
 62
     0
 10
738.69616518039993
 20
-197.35251372799999
 30
0.0
 11
818.9081440926999
 21
-197.35251372799999
 31
0.0
  0
LINE
  5
156
  8
0
 62
     0
 10
784.69616518039993
 20
-167.35251372799999
 30
0.0
 11
818.9081440926999
 21
-167.35251372799999
 31
0.0
  0
LINE
  5
157
  8
0
 62
     0
 10
817.9081440926999
 20
-197.35251372799999
 30
0.0
 11
817.9081440926999
 21
-172.65112441529999
 31
0.0
  0
LINE
  5
158
  8
0
 62
     0
 10
817.9081440926999
 20
-197.35251372799999
 30
0.0
 11
817.9081440926999
 21
-192.05390304080001
 31
0.0
  0
LINE
  5
159
  8
0
 62
     0
 10
817.9081440926999
 20
-167.35251372799999
 30
0.0
 11
817.9081440926999
 21
-172.65112441529999
 31
0.0
  0
LINE
  5
15A
  8
0
 62
     0
 10
817.9081440926999
 20
-167.35251372799999
 30
0.0
 11
817.9081440926999
 21
-192.05390304080001
 31
0.0
  0
LINE
  5
15B
  8
0
 62
     0
 10
817.9081440926999
 20
-167.35251372799999
 30
0.0
 11
817.9081440926999
 21
-159.35251372799999
 31
0.0
  0
SOLID
  5
15C
  8
0
 62
     0
 10
817.9081440926999
 20
-167.35251372799999
 30
0.0
 11
816.03314409270001
 21
-159.85251372799999
 31
0.0
 12
819.78314409270001
 22
-159.85251372799999
 32
0.0
 13
817.9081440926999
 23
-161.72751372799999
 33
0.0
  0
LINE
  5
15D
  8
0
 62
     0
 10
817.9081440926999
 20
-197.35251372799999
 30
0.0
 11
817.9081440926999
 21
-205.35251372799999
 31
0.0
  0
SOLID
  5
15E
  8
0
 62
     0
 10
817.9081440926999
 20
-197.35251372799999
 30
0.0
 11
819.78314409270001
 21
-204.85251372799999
 31
0.0
 12
816.03314409270001
 22
-204.85251372799999
 32
0.0
 13
817.9081440926999
 23
-202.97751372799999
 33
0.0
  0
ENDBLK
  5
15F
  8
0
  0
BLOCK
  8
0
  2
*D9
 70
     1
 10
0.0
 20
0.0
 30
0.0
  3
*D9
  1

  0
TEXT
  5
163
  8
0
 62
     0
 10
815.45293951050007
 20
-209.7032083844
 30
0.0
 40
8.2461809158000001
  1
15
 50
90.0
  0
LINE
  5
164
  8
0
 62
     0
 10
738.69616518039993
 20
-212.35251372799999
 30
0.0
 11
818.90814790739989
 21
-212.35251372799999
 31
0.0
  0
LINE
  5
165
  8
0
 62
     0
 10
738.69616518039993
 20
-197.35251372799999
 30
0.0
 11
818.90814790739989
 21
-197.35251372799999
 31
0.0
  0
LINE
  5
166
  8
0
 62
     0
 10
817.90814790740001
 20
-212.35251372799999
 30
0.0
 11
817.90814790740001
 21
-212.35251372799999
 31
0.0
  0
LINE
  5
167
  8
0
 62
     0
 10
817.90814790740001
 20
-212.35251372799999
 30
0.0
 11
817.90814790740001
 21
-197.35251372799999
 31
0.0
  0
LINE
  5
168
  8
0
 62
     0
 10
817.90814790740001
 20
-197.35251372799999
 30
0.0
 11
817.90814790740001
 21
-212.35251372799999
 31
0.0
  0
LINE
  5
169
  8
0
 62
     0
 10
817.90814790740001
 20
-197.35251372799999
 30
0.0
 11
817.90814790740001
 21
-197.35251372799999
 31
0.0
  0
LINE
  5
16A
  8
0
 62
     0
 10
817.90814790740001
 20
-197.35251372799999
 30
0.0
 11
817.90814790740001
 21
-189.35251372799999
 31
0.0
  0
SOLID
  5
16B
  8
0
 62
     0
 10
817.90814790740001
 20
-197.35251372799999
 30
0.0
 11
816.03314790739989
 21
-189.85251372799999
 31
0.0
 12
819.78314790740001
 22
-189.85251372799999
 32
0.0
 13
817.90814790740001
 23
-191.72751372799999
 33
0.0
  0
LINE
  5
16C
  8
0
 62
     0
 10
817.90814790740001
 20
-212.35251372799999
 30
0.0
 11
817.90814790740001
 21
-220.35251372799999
 31
0.0
  0
SOLID
  5
16D
  8
0
 62
     0
 10
817.90814790740001
 20
-212.35251372799999
 30
0.0
 11
819.78314790740001
 21
-219.85251372799999
 31
0.0
 12
816.03314790739989
 22
-219.85251372799999
 32
0.0
 13
817.90814790740001
 23
-217.97751372799999
 33
0.0
  0
ENDBLK
  5
16E
  8
0
  0
BLOCK
  8
0
  2
*D10
 70
     1
 10
0.0
 20
0.0
 30
0.0
  3
*D10
  1

  0
TEXT
  5
172
  8
0
 62
     0
 10
815.45293569579985
 20
-232.2032083844
 30
0.0
 40
8.2461809158000001
  1
30
 50
90.0
  0
LINE
  5
173
  8
0
 62
     0
 10
784.69616518039993
 20
-242.35251372799999
 30
0.0
 11
818.9081440926999
 21
-242.35251372799999
 31
0.0
  0
LINE
  5
174
  8
0
 62
     0
 10
738.69616518039993
 20
-212.35251372799999
 30
0.0
 11
818.9081440926999
 21
-212.35251372799999
 31
0.0
  0
LINE
  5
175
  8
0
 62
     0
 10
817.9081440926999
 20
-242.35251372799999
 30
0.0
 11
817.9081440926999
 21
-217.65112441529999
 31
0.0
  0
LINE
  5
176
  8
0
 62
     0
 10
817.9081440926999
 20
-242.35251372799999
 30
0.0
 11
817.9081440926999
 21
-237.05390304080001
 31
0.0
  0
LINE
  5
177
  8
0
 62
     0
 10
817.9081440926999
 20
-212.35251372799999
 30
0.0
 11
817.9081440926999
 21
-217.65112441529999
 31
0.0
  0
LINE
  5
178
  8
0
 62
     0
 10
817.9081440926999
 20
-212.35251372799999
 30
0.0
 11
817.9081440926999
 21
-237.05390304080001
 31
0.0
  0
LINE
  5
179
  8
0
 62
     0
 10
817.9081440926999
 20
-212.35251372799999
 30
0.0
 11
817.9081440926999
 21
-204.35251372799999
 31
0.0
  0
SOLID
  5
17A
  8
0
 62
     0
 10
817.9081440926999
 20
-212.35251372799999
 30
0.0
 11
816.03314409270001
 21
-204.85251372799999
 31
0.0
 12
819.78314409270001
 22
-204.85251372799999
 32
0.0
 13
817.9081440926999
 23
-206.72751372799999
 33
0.0
  0
LINE
  5
17B
  8
0
 62
     0
 10
817.9081440926999
 20
-242.35251372799999
 30
0.0
 11
817.9081440926999
 21
-250.35251372799999
 31
0.0
  0
SOLID
  5
17C
  8
0
 62
     0
 10
817.9081440926999
 20
-242.35251372799999
 30
0.0
 11
819.78314409270001
 21
-249.85251372799999
 31
0.0
 12
816.03314409270001
 22
-249.85251372799999
 32
0.0
 13
817.9081440926999
 23
-247.97751372799999
 33
0.0
  0
ENDBLK
  5
17D
  8
0
  0
BLOCK
  8
0
  2
*D11
 70
     1
 10
0.0
 20
0.0
 30
0.0
  3
*D11
  1

  0
TEXT
  5
181
  8
0
 62
     0
 10
815.45293569579985
 20
-254.7032083844
 30
0.0
 40
8.2461809158000001
  1
15
 50
90.0
  0
LINE
  5
182
  8
0
 62
     0
 10
784.69616518039993
 20
-257.35251372800002
 30
0.0
 11
818.9081440926999
 21
-257.35251372800002
 31
0.0
  0
LINE
  5
183
  8
0
 62
     0
 10
784.69616518039993
 20
-242.35251372799999
 30
0.0
 11
818.9081440926999
 21
-242.35251372799999
 31
0.0
  0
LINE
  5
184
  8
0
 62
     0
 10
817.9081440926999
 20
-257.35251372800002
 30
0.0
 11
817.9081440926999
 21
-257.35251372800002
 31
0.0
  0
LINE
  5
185
  8
0
 62
     0
 10
817.9081440926999
 20
-257.35251372800002
 30
0.0
 11
817.9081440926999
 21
-242.35251372799999
 31
0.0
  0
LINE
  5
186
  8
0
 62
     0
 10
817.9081440926999
 20
-242.35251372799999
 30
0.0
 11
817.9081440926999
 21
-257.35251372800002
 31
0.0
  0
LINE
  5
187
  8
0
 62
     0
 10
817.9081440926999
 20
-242.35251372799999
 30
0.0
 11
817.9081440926999
 21
-242.35251372799999
 31
0.0
  0
LINE
  5
188
  8
0
 62
     0
 10
817.9081440926999
 20
-242.35251372799999
 30
0.0
 11
817.9081440926999
 21
-234.35251372799999
 31
0.0
  0
SOLID
  5
189
  8
0
 62
     0
 10
817.9081440926999
 20
-242.35251372799999
 30
0.0
 11
816.03314409270001
 21
-234.85251372799999
 31
0.0
 12
819.78314409270001
 22
-234.85251372799999
 32
0.0
 13
817.9081440926999
 23
-236.72751372799999
 33
0.0
  0
LINE
  5
18A
  8
0
 62
     0
 10
817.9081440926999
 20
-257.35251372800002
 30
0.0
 11
817.9081440926999
 21
-265.35251372800002
 31
0.0
  0
SOLID
  5
18B
  8
0
 62
     0
 10
817.9081440926999
 20
-257.35251372800002
 30
0.0
 11
819.78314409270001
 21
-264.85251372800002
 31
0.0
 12
816.03314409270001
 22
-264.85251372800002
 32
0.0
 13
817.9081440926999
 23
-262.97751372800002
 33
0.0
  0
ENDBLK
  5
18C
  8
0
  0
BLOCK
  8
0
  2
*D12
 70
     1
 10
0.0
 20
0.0
 30
0.0
  3
*D12
  1

  0
TEXT
  5
190
  8
0
 62
     0
 10
773.65956180909996
 20
-314.89730533109997
 30
0.0
 40
8.2461809158000001
  1
20.5
  0
LINE
  5
191
  8
0
 62
     0
 10
771.69616518039993
 20
-277.85251372800002
 30
0.0
 11
771.69616518039993
 21
-318.35251372800002
 31
0.0
  0
LINE
  5
192
  8
0
 62
     0
 10
792.19616518039993
 20
-294.35251372800002
 30
0.0
 11
792.19616518039993
 21
-318.35251372800002
 31
0.0
  0
LINE
  5
193
  8
0
 62
     0
 10
771.69616518039993
 20
-317.35251372800002
 30
0.0
 11
771.69616518039993
 21
-317.35251372800002
 31
0.0
  0
LINE
  5
194
  8
0
 62
     0
 10
771.69616518039993
 20
-317.35251372800002
 30
0.0
 11
792.19616518039993
 21
-317.35251372800002
 31
0.0
  0
LINE
  5
195
  8
0
 62
     0
 10
792.19616518039993
 20
-317.35251372800002
 30
0.0
 11
771.69616518039993
 21
-317.35251372800002
 31
0.0
  0
LINE
  5
196
  8
0
 62
     0
 10
792.19616518039993
 20
-317.35251372800002
 30
0.0
 11
792.19616518039993
 21
-317.35251372800002
 31
0.0
  0
LINE
  5
197
  8
0
 62
     0
 10
792.19616518039993
 20
-317.35251372800002
 30
0.0
 11
784.19616518039993
 21
-317.35251372800002
 31
0.0
  0
SOLID
  5
198
  8
0
 62
     0
 10
792.19616518039993
 20
-317.35251372800002
 30
0.0
 11
784.69616518039993
 21
-319.22751372800002
 31
0.0
 12
784.69616518039993
 22
-315.47751372800002
 32
0.0
 13
786.57116518039993
 23
-317.35251372800002
 33
0.0
  0
LINE
  5
199
  8
0
 62
     0
 10
771.69616518039993
 20
-317.35251372800002
 30
0.0
 11
779.69616518039993
 21
-317.35251372800002
 31
0.0
  0
SOLID
  5
19A
  8
0
 62
     0
 10
771.69616518039993
 20
-317.35251372800002
 30
0.0
 11
779.19616518039993
 21
-315.47751372800002
 31
0.0
 12
779.19616518039993
 22
-319.22751372800002
 32
0.0
 13
777.32116518039993
 23
-317.35251372800002
 33
0.0
  0
ENDBLK
  5
19B
  8
0
  0
BLOCK
  8
0
  2
*D13
 70
     1
 10
0.0
 20
0.0
 30
0.0
  3
*D13
  1

  0
TEXT
  5
19F
  8
0
 62
     0
 10
815.45293569579985
 20
-288.2032083844
 30
0.0
 40
8.2461809158000001
  1
22
 50
90.0
  0
LINE
  5
1A0
  8
0
 62
     0
 10
792.19616518039993
 20
-294.35251372800002
 30
0.0
 11
818.9081440926999
 21
-294.35251372800002
 31
0.0
  0
LINE
  5
1A1
  8
0
 62
     0
 10
784.69616518039993
 20
-272.35251372800002
 30
0.0
 11
818.9081440926999
 21
-272.35251372800002
 31
0.0
  0
LINE
  5
1A2
  8
0
 62
     0
 10
817.9081440926999
 20
-294.35251372800002
 30
0.0
 11
817.9081440926999
 21
-273.65112441529999
 31
0.0
  0
LINE
  5
1A3
  8
0
 62
     0
 10
817.9081440926999
 20
-294.35251372800002
 30
0.0
 11
817.9081440926999
 21
-293.05390304080009
 31
0.0
  0
LINE
  5
1A4
  8
0
 62
     0
 10
817.9081440926999
 20
-272.35251372800002
 30
0.0
 11
817.9081440926999
 21
-273.65112441529999
 31
0.0
  0
LINE
  5
1A5
  8
0
 62
     0
 10
817.9081440926999
 20
-272.35251372800002
 30
0.0
 11
817.9081440926999
 21
-293.05390304080009
 31
0.0
  0
LINE
  5
1A6
  8
0
 62
     0
 10
817.9081440926999
 20
-272.35251372800002
 30
0.0
 11
817.9081440926999
 21
-264.35251372800002
 31
0.0
  0
SOLID
  5
1A7
  8
0
 62
     0
 10
817.9081440926999
 20
-272.35251372800002
 30
0.0
 11
816.03314409270001
 21
-264.85251372800002
 31
0.0
 12
819.78314409270001
 22
-264.85251372800002
 32
0.0
 13
817.9081440926999
 23
-266.72751372800002
 33
0.0
  0
LINE
  5
1A8
  8
0
 62
     0
 10
817.9081440926999
 20
-294.35251372800002
 30
0.0
 11
817.9081440926999
 21
-302.35251372800002
 31
0.0
  0
SOLID
  5
1A9
  8
0
 62
     0
 10
817.9081440926999
 20
-294.35251372800002
 30
0.0
 11
819.78314409270001
 21
-301.85251372800002
 31
0.0
 12
816.03314409270001
 22
-301.85251372800002
 32
0.0
 13
817.9081440926999
 23
-299.97751372800002
 33
0.0
  0
ENDBLK
  5
1AA
  8
0
  0
BLOCK
  8
0
  2
*D14
 70
     1
 10
0.0
 20
0.0
 30
0.0
  3
*D14
  1

  0
TEXT
  5
1AE
  8
0
 62
     0
 10
815.45293569579985
 20
-269.7032083844
 30
0.0
 40
8.2461809158000001
  1
15
 50
90.0
  0
LINE
  5
1AF
  8
0
 62
     0
 10
784.69616518039993
 20
-272.35251372800002
 30
0.0
 11
818.9081440926999
 21
-272.35251372800002
 31
0.0
  0
LINE
  5
1B0
  8
0
 62
     0
 10
784.69616518039993
 20
-257.35251372800002
 30
0.0
 11
818.9081440926999
 21
-257.35251372800002
 31
0.0
  0
LINE
  5
1B1
  8
0
 62
     0
 10
817.9081440926999
 20
-272.35251372800002
 30
0.0
 11
817.9081440926999
 21
-272.35251372800002
 31
0.0
  0
LINE
  5
1B2
  8
0
 62
     0
 10
817.9081440926999
 20
-272.35251372800002
 30
0.0
 11
817.9081440926999
 21
-257.35251372800002
 31
0.0
  0
LINE
  5
1B3
  8
0
 62
     0
 10
817.9081440926999
 20
-257.35251372800002
 30
0.0
 11
817.9081440926999
 21
-272.35251372800002
 31
0.0
  0
LINE
  5
1B4
  8
0
 62
     0
 10
817.9081440926999
 20
-257.35251372800002
 30
0.0
 11
817.9081440926999
 21
-257.35251372800002
 31
0.0
  0
LINE
  5
1B5
  8
0
 62
     0
 10
817.9081440926999
 20
-257.35251372800002
 30
0.0
 11
817.9081440926999
 21
-265.35251372800002
 31
0.0
  0
SOLID
  5
1B6
  8
0
 62
     0
 10
817.9081440926999
 20
-257.35251372800002
 30
0.0
 11
819.78314409270001
 21
-264.85251372800002
 31
0.0
 12
816.03314409270001
 22
-264.85251372800002
 32
0.0
 13
817.9081440926999
 23
-262.97751372800002
 33
0.0
  0
LINE
  5
1B7
  8
0
 62
     0
 10
817.9081440926999
 20
-272.35251372800002
 30
0.0
 11
817.9081440926999
 21
-264.35251372800002
 31
0.0
  0
SOLID
  5
1B8
  8
0
 62
     0
 10
817.9081440926999
 20
-272.35251372800002
 30
0.0
 11
816.03314409270001
 21
-264.85251372800002
 31
0.0
 12
819.78314409270001
 22
-264.85251372800002
 32
0.0
 13
817.9081440926999
 23
-266.72751372800002
 33
0.0
  0
ENDBLK
  5
1B9
  8
0
  0
BLOCK
  8
0
  2
*D15
 70
     1
 10
0.0
 20
0.0
 30
0.0
  3
*D15
  1

  0
TEXT
  5
1D9
  8
0
 62
     0
 10
815.45293569579985
 20
-149.7032083844
 30
0.0
 40
8.2461809158000001
  1
15
 50
90.0
  0
LINE
  5
1DA
  8
0
 62
     0
 10
784.69616518039993
 20
-152.35251372799999
 30
0.0
 11
818.9081440926999
 21
-152.35251372799999
 31
0.0
  0
LINE
  5
1DB
  8
0
 62
     0
 10
784.69616518039993
 20
-137.35251372799999
 30
0.0
 11
818.9081440926999
 21
-137.35251372799999
 31
0.0
  0
LINE
  5
1DC
  8
0
 62
     0
 10
817.9081440926999
 20
-152.35251372799999
 30
0.0
 11
817.9081440926999
 21
-152.35251372799999
 31
0.0
  0
LINE
  5
1DD
  8
0
 62
     0
 10
817.9081440926999
 20
-152.35251372799999
 30
0.0
 11
817.9081440926999
 21
-137.35251372799999
 31
0.0
  0
LINE
  5
1DE
  8
0
 62
     0
 10
817.9081440926999
 20
-137.35251372799999
 30
0.0
 11
817.9081440926999
 21
-152.35251372799999
 31
0.0
  0
LINE
  5
1DF
  8
0
 62
     0
 10
817.9081440926999
 20
-137.35251372799999
 30
0.0
 11
817.9081440926999
 21
-137.35251372799999
 31
0.0
  0
LINE
  5
1E0
  8
0
 62
     0
 10
817.9081440926999
 20
-137.35251372799999
 30
0.0
 11
817.9081440926999
 21
-145.35251372799999
 31
0.0
  0
SOLID
  5
1E1
  8
0
 62
     0
 10
817.9081440926999
 20
-137.35251372799999
 30
0.0
 11
819.78314409270001
 21
-144.85251372799999
 31
0.0
 12
816.03314409270001
 22
-144.85251372799999
 32
0.0
 13
817.9081440926999
 23
-142.97751372799999
 33
0.0
  0
LINE
  5
1E2
  8
0
 62
     0
 10
817.9081440926999
 20
-152.35251372799999
 30
0.0
 11
817.9081440926999
 21
-144.35251372799999
 31
0.0
  0
SOLID
  5
1E3
  8
0
 62
     0
 10
817.9081440926999
 20
-152.35251372799999
 30
0.0
 11
816.03314409270001
 21
-144.85251372799999
 31
0.0
 12
819.78314409270001
 22
-144.85251372799999
 32
0.0
 13
817.9081440926999
 23
-146.72751372799999
 33
0.0
  0
ENDBLK
  5
1E4
  8
0
  0
BLOCK
  8
0
  2
*D16
 70
     1
 10
0.0
 20
0.0
 30
0.0
  3
*D16
  1

  0
TEXT
  5
1E8
  8
0
 62
     0
 10
695.42012319579987
 20
-89.8973053311
 30
0.0
 40
8.2461809158000001
  1
179
  0
LINE
  5
1E9
  8
0
 62
     0
 10
792.19616518039993
 20
-115.35251372800001
 30
0.0
 11
792.19616518039993
 21
-91.352513727999991
 31
0.0
  0
LINE
  5
1EA
  8
0
 62
     0
 10
613.19616518040004
 20
-115.35251372800001
 30
0.0
 11
613.19616518040004
 21
-91.352513727999991
 31
0.0
  0
LINE
  5
1EB
  8
0
 62
     0
 10
792.19616518039993
 20
-92.352513727999977
 30
0.0
 11
714.82290182130009
 21
-92.352513727999977
 31
0.0
  0
LINE
  5
1EC
  8
0
 62
     0
 10
792.19616518039993
 20
-92.352513727999977
 30
0.0
 11
690.5694285395
 21
-92.352513727999977
 31
0.0
  0
LINE
  5
1ED
  8
0
 62
     0
 10
613.19616518040004
 20
-92.352513727999977
 30
0.0
 11
714.82290182130009
 21
-92.352513727999977
 31
0.0
  0
LINE
  5
1EE
  8
0
 62
     0
 10
613.19616518040004
 20
-92.352513727999977
 30
0.0
 11
690.5694285395
 21
-92.352513727999977
 31
0.0
  0
LINE
  5
1EF
  8
0
 62
     0
 10
613.19616518040004
 20
-92.352513727999977
 30
0.0
 11
621.19616518040004
 21
-92.352513727999977
 31
0.0
  0
SOLID
  5
1F0
  8
0
 62
     0
 10
613.19616518040004
 20
-92.352513727999977
 30
0.0
 11
620.69616518040004
 21
-90.477513727999977
 31
0.0
 12
620.69616518040004
 22
-94.227513727999977
 32
0.0
 13
618.82116518040004
 23
-92.352513727999977
 33
0.0
  0
LINE
  5
1F1
  8
0
 62
     0
 10
792.19616518039993
 20
-92.352513727999977
 30
0.0
 11
784.19616518039993
 21
-92.352513727999977
 31
0.0
  0
SOLID
  5
1F2
  8
0
 62
     0
 10
792.19616518039993
 20
-92.352513727999977
 30
0.0
 11
784.69616518039993
 21
-94.227513727999977
 31
0.0
 12
784.69616518039993
 22
-90.477513727999977
 32
0.0
 13
786.57116518039993
 23
-92.352513727999977
 33
0.0
  0
ENDBLK
  5
1F3
  8
0
  0
BLOCK
  8
0
  2
*D17
 70
     1
 10
0.0
 20
0.0
 30
0.0
  3
*D17
  1

  0
TEXT
  5
1F7
  8
0
 62
     0
 10
749.46007038330004
 20
246.57270027460001
 30
0.0
 40
8.2461809158000001
  1
180
  0
LINE
  5
1F8
  8
0
 62
     0
 10
846.73611236789986
 20
218.9525767929
 30
0.0
 11
846.73611236789986
 21
245.11749187769999
 31
0.0
  0
LINE
  5
1F9
  8
0
 62
     0
 10
666.73611236789998
 20
218.9525767929
 30
0.0
 11
666.73611236789998
 21
245.11749187769999
 31
0.0
  0
LINE
  5
1FA
  8
0
 62
     0
 10
846.73611236789986
 20
244.11749187769999
 30
0.0
 11
768.86284900880003
 21
244.11749187769999
 31
0.0
  0
LINE
  5
1FB
  8
0
 62
     0
 10
846.73611236789986
 20
244.11749187769999
 30
0.0
 11
744.60937572699993
 21
244.11749187769999
 31
0.0
  0
LINE
  5
1FC
  8
0
 62
     0
 10
666.73611236789998
 20
244.11749187769999
 30
0.0
 11
768.86284900880003
 21
244.11749187769999
 31
0.0
  0
LINE
  5
1FD
  8
0
 62
     0
 10
666.73611236789998
 20
244.11749187769999
 30
0.0
 11
744.60937572699993
 21
244.11749187769999
 31
0.0
  0
LINE
  5
1FE
  8
0
 62
     0
 10
666.73611236789998
 20
244.11749187769999
 30
0.0
 11
674.73611236789998
 21
244.11749187769999
 31
0.0
  0
SOLID
  5
1FF
  8
0
 62
     0
 10
666.73611236789998
 20
244.11749187769999
 30
0.0
 11
674.23611236789998
 21
245.99249187769999
 31
0.0
 12
674.23611236789998
 22
242.24249187769999
 32
0.0
 13
672.36111236789986
 23
244.11749187769999
 33
0.0
  0
LINE
  5
200
  8
0
 62
     0
 10
846.73611236789986
 20
244.11749187769999
 30
0.0
 11
838.73611236789986
 21
244.11749187769999
 31
0.0
  0
SOLID
  5
201
  8
0
 62
     0
 10
846.73611236789986
 20
244.11749187769999
 30
0.0
 11
839.23611236789998
 21
242.24249187769999
 31
0.0
 12
839.23611236789998
 22
245.99249187769999
 32
0.0
 13
841.11111236789986
 23
244.11749187769999
 33
0.0
  0
ENDBLK
  5
202
  8
0
  0
BLOCK
  8
0
  2
*D18
 70
     1
 10
0.0
 20
0.0
 30
0.0
  3
*D18
  1

  0
TEXT
  5
206
  8
0
 62
     0
 10
815.45293569579985
 20
-131.2032083844
 30
0.0
 40
8.2461809158000001
  1
22
 50
90.0
  0
LINE
  5
207
  8
0
 62
     0
 10
784.69616518039993
 20
-137.35251372799999
 30
0.0
 11
818.9081440926999
 21
-137.35251372799999
 31
0.0
  0
LINE
  5
208
  8
0
 62
     0
 10
792.19616518039993
 20
-115.35251372800001
 30
0.0
 11
818.9081440926999
 21
-115.35251372800001
 31
0.0
  0
LINE
  5
209
  8
0
 62
     0
 10
817.9081440926999
 20
-137.35251372799999
 30
0.0
 11
817.9081440926999
 21
-116.6511244153
 31
0.0
  0
LINE
  5
20A
  8
0
 62
     0
 10
817.9081440926999
 20
-137.35251372799999
 30
0.0
 11
817.9081440926999
 21
-136.05390304080001
 31
0.0
  0
LINE
  5
20B
  8
0
 62
     0
 10
817.9081440926999
 20
-115.35251372800001
 30
0.0
 11
817.9081440926999
 21
-116.6511244153
 31
0.0
  0
LINE
  5
20C
  8
0
 62
     0
 10
817.9081440926999
 20
-115.35251372800001
 30
0.0
 11
817.9081440926999
 21
-136.05390304080001
 31
0.0
  0
LINE
  5
20D
  8
0
 62
     0
 10
817.9081440926999
 20
-115.35251372800001
 30
0.0
 11
817.9081440926999
 21
-107.35251372800001
 31
0.0
  0
SOLID
  5
20E
  8
0
 62
     0
 10
817.9081440926999
 20
-115.35251372800001
 30
0.0
 11
816.03314409270001
 21
-107.85251372800001
 31
0.0
 12
819.78314409270001
 22
-107.85251372800001
 32
0.0
 13
817.9081440926999
 23
-109.72751372800001
 33
0.0
  0
LINE
  5
20F
  8
0
 62
     0
 10
817.9081440926999
 20
-137.35251372799999
 30
0.0
 11
817.9081440926999
 21
-145.35251372799999
 31
0.0
  0
SOLID
  5
210
  8
0
 62
     0
 10
817.9081440926999
 20
-137.35251372799999
 30
0.0
 11
819.78314409270001
 21
-144.85251372799999
 31
0.0
 12
816.03314409270001
 22
-144.85251372799999
 32
0.0
 13
817.9081440926999
 23
-142.97751372799999
 33
0.0
  0
ENDBLK
  5
211
  8
0
  0
BLOCK
  8
0
  2
CLUMP1
 70
     0
 10
0.0
 20
0.0
 30
0.0
  3
CLUMP1
  1

  0
LINE
  5
223
  8
図枠
 10
1217.0050000000001
 20
-271.00083333330002
 30
0.0
 11
1217.0050000000001
 21
-258.50083333330002
 31
0.0
  0
LINE
  5
224
  8
図枠
 10
1069.5050000000001
 20
-271.00083333330002
 30
0.0
 11
1069.5050000000001
 21
-258.50083333330002
 31
0.0
  0
LINE
  5
225
  8
図枠
 10
1092.0050000000001
 20
-271.00083333330002
 30
0.0
 11
1092.0050000000001
 21
-258.50083333330002
 31
0.0
  0
LINE
  5
226
  8
図枠
 10
1354.5050000000001
 20
-271.00083333330002
 30
0.0
 11
1354.5050000000001
 21
-258.50083333330002
 31
0.0
  0
LINE
  5
227
  8
図枠
 10
1332.0050000000001
 20
-271.00083333330002
 30
0.0
 11
1332.0050000000001
 21
-258.50083333330002
 31
0.0
  0
LINE
  5
228
  8
図枠
 10
1432.0050000000001
 20
-258.50083333330002
 30
0.0
 11
1069.5050000000001
 21
-258.50083333330002
 31
0.0
  0
ENDBLK
  5
229
  8
0
  0
BLOCK
  8
0
  2
CLUMP2
 70
     0
 10
0.0
 20
0.0
 30
0.0
  3
CLUMP2
  1

  0
LINE
  5
231
  8
図枠
 10
1217.0050000000001
 20
-296.00083333330002
 30
0.0
 11
1217.0050000000001
 21
-283.50083333330002
 31
0.0
  0
LINE
  5
232
  8
図枠
 10
1069.5050000000001
 20
-296.00083333330002
 30
0.0
 11
1069.5050000000001
 21
-283.50083333330002
 31
0.0
  0
LINE
  5
233
  8
図枠
 10
1092.0050000000001
 20
-296.00083333330002
 30
0.0
 11
1092.0050000000001
 21
-283.50083333330002
 31
0.0
  0
LINE
  5
234
  8
図枠
 10
1354.5050000000001
 20
-296.00083333330002
 30
0.0
 11
1354.5050000000001
 21
-283.50083333330002
 31
0.0
  0
LINE
  5
235
  8
図枠
 10
1332.0050000000001
 20
-296.00083333330002
 30
0.0
 11
1332.0050000000001
 21
-283.50083333330002
 31
0.0
  0
LINE
  5
236
  8
図枠
 10
1432.0050000000001
 20
-283.50083333330002
 30
0.0
 11
1069.5050000000001
 21
-283.50083333330002
 31
0.0
  0
ENDBLK
  5
237
  8
0
  0
BLOCK
  8
0
  2
CLUMP3
 70
     0
 10
0.0
 20
0.0
 30
0.0
  3
CLUMP3
  1

  0
LINE
  5
23B
  8
図枠
 10
1217.0050000000001
 20
-283.50083333330002
 30
0.0
 11
1217.0050000000001
 21
-271.00083333330002
 31
0.0
  0
LINE
  5
23C
  8
図枠
 10
1069.5050000000001
 20
-283.50083333330002
 30
0.0
 11
1069.5050000000001
 21
-271.00083333330002
 31
0.0
  0
LINE
  5
23D
  8
図枠
 10
1092.0050000000001
 20
-283.50083333330002
 30
0.0
 11
1092.0050000000001
 21
-271.00083333330002
 31
0.0
  0
LINE
  5
23E
  8
図枠
 10
1354.5050000000001
 20
-283.50083333330002
 30
0.0
 11
1354.5050000000001
 21
-271.00083333330002
 31
0.0
  0
LINE
  5
23F
  8
図枠
 10
1332.0050000000001
 20
-283.50083333330002
 30
0.0
 11
1332.0050000000001
 21
-271.00083333330002
 31
0.0
  0
LINE
  5
240
  8
図枠
 10
1432.0050000000001
 20
-271.00083333330002
 30
0.0
 11
1069.5050000000001
 21
-271.00083333330002
 31
0.0
  0
ENDBLK
  5
241
  8
0
  0
BLOCK
  8
0
  2
*D22
 70
     1
 10
0.0
 20
0.0
 30
0.0
  3
*D22
  1

  0
TEXT
  5
24D
  8
0
 62
     0
 10
1153.7560547242999
 20
119.6765348083
 30
0.0
 40
8.2461809158000001
  1
170
 50
90.0
  0
LINE
  5
24E
  8
0
 62
     0
 10
1136.7963518511001
 20
41.953048146999997
 30
0.0
 11
1157.2112631212001
 21
41.953048146999997
 31
0.0
  0
LINE
  5
24F
  8
0
 62
     0
 10
1136.7963518511001
 20
211.95210543869999
 30
0.0
 11
1157.2112631212001
 21
211.95210543869999
 31
0.0
  0
LINE
  5
250
  8
0
 62
     0
 10
1156.2112631212001
 20
41.953048146999997
 30
0.0
 11
1156.2112631212001
 21
139.0793134338
 31
0.0
  0
LINE
  5
251
  8
0
 62
     0
 10
1156.2112631212001
 20
41.953048146999997
 30
0.0
 11
1156.2112631212001
 21
114.8258401519
 31
0.0
  0
LINE
  5
252
  8
0
 62
     0
 10
1156.2112631212001
 20
211.95210543869999
 30
0.0
 11
1156.2112631212001
 21
139.0793134338
 31
0.0
  0
LINE
  5
253
  8
0
 62
     0
 10
1156.2112631212001
 20
211.95210543869999
 30
0.0
 11
1156.2112631212001
 21
114.8258401519
 31
0.0
  0
LINE
  5
254
  8
0
 62
     0
 10
1156.2112631212001
 20
211.95210543869999
 30
0.0
 11
1156.2112631212001
 21
203.95210543869999
 31
0.0
  0
SOLID
  5
255
  8
0
 62
     0
 10
1156.2112631212001
 20
211.95210543869999
 30
0.0
 11
1158.0862631212001
 21
204.45210543869999
 31
0.0
 12
1154.3362631212001
 22
204.45210543869999
 32
0.0
 13
1156.2112631212001
 23
206.32710543869999
 33
0.0
  0
LINE
  5
256
  8
0
 62
     0
 10
1156.2112631212001
 20
41.953048146999997
 30
0.0
 11
1156.2112631212001
 21
49.95304814699999
 31
0.0
  0
SOLID
  5
257
  8
0
 62
     0
 10
1156.2112631212001
 20
41.953048146999997
 30
0.0
 11
1154.3362631212001
 21
49.453048146999997
 31
0.0
 12
1158.0862631212001
 22
49.453048146999997
 32
0.0
 13
1156.2112631212001
 23
47.578048146999997
 33
0.0
  0
ENDBLK
  5
258
  8
0
  0
BLOCK
  8
0
  2
*D23
 70
     1
 10
0.0
 20
0.0
 30
0.0
  3
*D23
  1

  0
TEXT
  5
269
  8
0
 62
     0
 10
888.44233051520007
 20
119.6765348083
 30
0.0
 40
8.2461809158000001
  1
180
 50
90.0
  0
LINE
  5
26A
  8
0
 62
     0
 10
848.73611236789986
 20
36.952576792899997
 30
0.0
 11
891.89753891210012
 21
36.952576792899997
 31
0.0
  0
LINE
  5
26B
  8
0
 62
     0
 10
848.73611236789986
 20
216.9525767929
 30
0.0
 11
891.89753891210012
 21
216.9525767929
 31
0.0
  0
LINE
  5
26C
  8
0
 62
     0
 10
890.89753891210012
 20
36.952576792899997
 30
0.0
 11
890.89753891210012
 21
139.0793134338
 31
0.0
  0
LINE
  5
26D
  8
0
 62
     0
 10
890.89753891210012
 20
36.952576792899997
 30
0.0
 11
890.89753891210012
 21
114.8258401519
 31
0.0
  0
LINE
  5
26E
  8
0
 62
     0
 10
890.89753891210012
 20
216.9525767929
 30
0.0
 11
890.89753891210012
 21
139.0793134338
 31
0.0
  0
LINE
  5
26F
  8
0
 62
     0
 10
890.89753891210012
 20
216.9525767929
 30
0.0
 11
890.89753891210012
 21
114.8258401519
 31
0.0
  0
LINE
  5
270
  8
0
 62
     0
 10
890.89753891210012
 20
216.9525767929
 30
0.0
 11
890.89753891210012
 21
208.9525767929
 31
0.0
  0
SOLID
  5
271
  8
0
 62
     0
 10
890.89753891210012
 20
216.9525767929
 30
0.0
 11
892.7725389121
 21
209.4525767929
 31
0.0
 12
889.02253891210012
 22
209.4525767929
 32
0.0
 13
890.89753891210012
 23
211.3275767929
 33
0.0
  0
LINE
  5
272
  8
0
 62
     0
 10
890.89753891210012
 20
36.952576792899997
 30
0.0
 11
890.89753891210012
 21
44.95257679289999
 31
0.0
  0
SOLID
  5
273
  8
0
 62
     0
 10
890.89753891210012
 20
36.952576792899997
 30
0.0
 11
889.02253891210012
 21
44.452576792899997
 31
0.0
 12
892.7725389121
 22
44.452576792899997
 32
0.0
 13
890.89753891210012
 23
42.577576792899997
 33
0.0
  0
ENDBLK
  5
274
  8
0
  0
BLOCK
  8
0
  2
*D24
 70
     1
 10
0.0
 20
0.0
 30
0.0
  3
*D24
  1

  0
TEXT
  5
278
  8
0
 62
     0
 10
903.98637119509988
 20
119.6765348083
 30
0.0
 40
8.2461809158000001
  1
198
 50
90.0
  0
LINE
  5
279
  8
0
 62
     0
 10
857.73611236789986
 20
27.9525767929
 30
0.0
 11
907.44157959200004
 21
27.9525767929
 31
0.0
  0
LINE
  5
27A
  8
0
 62
     0
 10
857.73611236789986
 20
225.9525767929
 30
0.0
 11
907.44157959200004
 21
225.9525767929
 31
0.0
  0
LINE
  5
27B
  8
0
 62
     0
 10
906.44157959199981
 20
27.9525767929
 30
0.0
 11
906.44157959199981
 21
139.0793134338
 31
0.0
  0
LINE
  5
27C
  8
0
 62
     0
 10
906.44157959199981
 20
27.9525767929
 30
0.0
 11
906.44157959199981
 21
114.8258401519
 31
0.0
  0
LINE
  5
27D
  8
0
 62
     0
 10
906.44157959199981
 20
225.9525767929
 30
0.0
 11
906.44157959199981
 21
139.0793134338
 31
0.0
  0
LINE
  5
27E
  8
0
 62
     0
 10
906.44157959199981
 20
225.9525767929
 30
0.0
 11
906.44157959199981
 21
114.8258401519
 31
0.0
  0
LINE
  5
27F
  8
0
 62
     0
 10
906.44157959199981
 20
225.9525767929
 30
0.0
 11
906.44157959199981
 21
217.9525767929
 31
0.0
  0
SOLID
  5
280
  8
0
 62
     0
 10
906.44157959199981
 20
225.9525767929
 30
0.0
 11
908.31657959199993
 21
218.4525767929
 31
0.0
 12
904.56657959199993
 22
218.4525767929
 32
0.0
 13
906.44157959199981
 23
220.3275767929
 33
0.0
  0
LINE
  5
281
  8
0
 62
     0
 10
906.44157959199981
 20
27.9525767929
 30
0.0
 11
906.44157959199981
 21
35.952576792899997
 31
0.0
  0
SOLID
  5
282
  8
0
 62
     0
 10
906.44157959199981
 20
27.9525767929
 30
0.0
 11
904.56657959199993
 21
35.452576792899997
 31
0.0
 12
908.31657959199993
 22
35.452576792899997
 32
0.0
 13
906.44157959199981
 23
33.577576792899997
 33
0.0
  0
ENDBLK
  5
283
  8
0
  0
BLOCK
  8
0
  2
*D25
 70
     1
 10
0.0
 20
0.0
 30
0.0
  3
*D25
  1

  0
TEXT
  5
29E
  8
0
 62
     0
 10
743.84547052399978
 20
-314.89730533109997
 30
0.0
 40
8.2461809158000001
  1
46
  0
LINE
  5
29F
  8
0
 62
     0
 10
725.69616518039993
 20
-277.85251372800002
 30
0.0
 11
725.69616518039993
 21
-318.35251372800002
 31
0.0
  0
LINE
  5
2A0
  8
0
 62
     0
 10
771.69616518039993
 20
-277.85251372800002
 30
0.0
 11
771.69616518039993
 21
-318.35251372800002
 31
0.0
  0
LINE
  5
2A1
  8
0
 62
     0
 10
725.69616518039993
 20
-317.35251372800002
 30
0.0
 11
758.39755449309985
 21
-317.35251372800002
 31
0.0
  0
LINE
  5
2A2
  8
0
 62
     0
 10
725.69616518039993
 20
-317.35251372800002
 30
0.0
 11
738.99477586759986
 21
-317.35251372800002
 31
0.0
  0
LINE
  5
2A3
  8
0
 62
     0
 10
771.69616518039993
 20
-317.35251372800002
 30
0.0
 11
758.39755449309985
 21
-317.35251372800002
 31
0.0
  0
LINE
  5
2A4
  8
0
 62
     0
 10
771.69616518039993
 20
-317.35251372800002
 30
0.0
 11
738.99477586759986
 21
-317.35251372800002
 31
0.0
  0
LINE
  5
2A5
  8
0
 62
     0
 10
771.69616518039993
 20
-317.35251372800002
 30
0.0
 11
763.69616518039993
 21
-317.35251372800002
 31
0.0
  0
SOLID
  5
2A6
  8
0
 62
     0
 10
771.69616518039993
 20
-317.35251372800002
 30
0.0
 11
764.19616518039993
 21
-319.22751372800002
 31
0.0
 12
764.19616518039993
 22
-315.47751372800002
 32
0.0
 13
766.07116518039993
 23
-317.35251372800002
 33
0.0
  0
LINE
  5
2A7
  8
0
 62
     0
 10
725.69616518039993
 20
-317.35251372800002
 30
0.0
 11
733.69616518039993
 21
-317.35251372800002
 31
0.0
  0
SOLID
  5
2A8
  8
0
 62
     0
 10
725.69616518039993
 20
-317.35251372800002
 30
0.0
 11
733.19616518039993
 21
-315.47751372800002
 31
0.0
 12
733.19616518039993
 22
-319.22751372800002
 32
0.0
 13
731.32116518039993
 23
-317.35251372800002
 33
0.0
  0
ENDBLK
  5
2A9
  8
0
  0
BLOCK
  8
0
  2
*D26
 70
     1
 10
0.0
 20
0.0
 30
0.0
  3
*D26
  1

  0
TEXT
  5
2AD
  8
0
 62
     0
 10
654.7409567835
 20
-244.77786105620001
 30
0.0
 40
8.2461809158000001
  1
7
 50
90.0
  0
LINE
  5
2AE
  8
0
 62
     0
 10
643.19616518040004
 20
-245.85251372799999
 30
0.0
 11
658.19616518040004
 21
-245.85251372799999
 31
0.0
  0
LINE
  5
2AF
  8
0
 62
     0
 10
643.19616518040004
 20
-238.85251372799999
 30
0.0
 11
658.19616518040004
 21
-238.85251372799999
 31
0.0
  0
LINE
  5
2B0
  8
0
 62
     0
 10
657.19616518040004
 20
-245.85251372799999
 30
0.0
 11
657.19616518040004
 21
-245.85251372799999
 31
0.0
  0
LINE
  5
2B1
  8
0
 62
     0
 10
657.19616518040004
 20
-245.85251372799999
 30
0.0
 11
657.19616518040004
 21
-238.85251372799999
 31
0.0
  0
LINE
  5
2B2
  8
0
 62
     0
 10
657.19616518040004
 20
-238.85251372799999
 30
0.0
 11
657.19616518040004
 21
-245.85251372799999
 31
0.0
  0
LINE
  5
2B3
  8
0
 62
     0
 10
657.19616518040004
 20
-238.85251372799999
 30
0.0
 11
657.19616518040004
 21
-238.85251372799999
 31
0.0
  0
LINE
  5
2B4
  8
0
 62
     0
 10
657.19616518040004
 20
-238.85251372799999
 30
0.0
 11
657.19616518040004
 21
-230.85251372799999
 31
0.0
  0
SOLID
  5
2B5
  8
0
 62
     0
 10
657.19616518040004
 20
-238.85251372799999
 30
0.0
 11
655.32116518040004
 21
-231.35251372799999
 31
0.0
 12
659.07116518040004
 22
-231.35251372799999
 32
0.0
 13
657.19616518040004
 23
-233.22751372799999
 33
0.0
  0
LINE
  5
2B6
  8
0
 62
     0
 10
657.19616518040004
 20
-245.85251372799999
 30
0.0
 11
657.19616518040004
 21
-253.85251372799999
 31
0.0
  0
SOLID
  5
2B7
  8
0
 62
     0
 10
657.19616518040004
 20
-245.85251372799999
 30
0.0
 11
659.07116518040004
 21
-253.35251372799999
 31
0.0
 12
655.32116518040004
 22
-253.35251372799999
 32
0.0
 13
657.19616518040004
 23
-251.47751372799999
 33
0.0
  0
ENDBLK
  5
2B8
  8
0
  0
BLOCK
  8
0
  2
*D27
 70
     1
 10
0.0
 20
0.0
 30
0.0
  3
*D27
  1

  0
TEXT
  5
2BC
  8
0
 62
     0
 10
615.15956180909996
 20
-314.89730533109997
 30
0.0
 40
8.2461809158000001
  1
20.5
  0
LINE
  5
2BD
  8
0
 62
     0
 10
613.19616518040004
 20
-294.35251372800002
 30
0.0
 11
613.19616518040004
 21
-318.35251372800002
 31
0.0
  0
LINE
  5
2BE
  8
0
 62
     0
 10
633.69616518040004
 20
-277.85251372800002
 30
0.0
 11
633.69616518040004
 21
-318.35251372800002
 31
0.0
  0
LINE
  5
2BF
  8
0
 62
     0
 10
613.19616518040004
 20
-317.35251372800002
 30
0.0
 11
613.19616518040004
 21
-317.35251372800002
 31
0.0
  0
LINE
  5
2C0
  8
0
 62
     0
 10
613.19616518040004
 20
-317.35251372800002
 30
0.0
 11
633.69616518040004
 21
-317.35251372800002
 31
0.0
  0
LINE
  5
2C1
  8
0
 62
     0
 10
633.69616518040004
 20
-317.35251372800002
 30
0.0
 11
613.19616518040004
 21
-317.35251372800002
 31
0.0
  0
LINE
  5
2C2
  8
0
 62
     0
 10
633.69616518040004
 20
-317.35251372800002
 30
0.0
 11
633.69616518040004
 21
-317.35251372800002
 31
0.0
  0
LINE
  5
2C3
  8
0
 62
     0
 10
633.69616518040004
 20
-317.35251372800002
 30
0.0
 11
625.69616518040004
 21
-317.35251372800002
 31
0.0
  0
SOLID
  5
2C4
  8
0
 62
     0
 10
633.69616518040004
 20
-317.35251372800002
 30
0.0
 11
626.19616518040004
 21
-319.22751372800002
 31
0.0
 12
626.19616518040004
 22
-315.47751372800002
 32
0.0
 13
628.07116518040004
 23
-317.35251372800002
 33
0.0
  0
LINE
  5
2C5
  8
0
 62
     0
 10
613.19616518040004
 20
-317.35251372800002
 30
0.0
 11
621.19616518040004
 21
-317.35251372800002
 31
0.0
  0
SOLID
  5
2C6
  8
0
 62
     0
 10
613.19616518040004
 20
-317.35251372800002
 30
0.0
 11
620.69616518040004
 21
-315.47751372800002
 31
0.0
 12
620.69616518040004
 22
-319.22751372800002
 32
0.0
 13
618.82116518040004
 23
-317.35251372800002
 33
0.0
  0
ENDBLK
  5
2C7
  8
0
  0
BLOCK
  8
0
  2
*D28
 70
     1
 10
0.0
 20
0.0
 30
0.0
  3
*D28
  1

  0
TEXT
  5
2CB
  8
0
 62
     0
 10
651.84547052399989
 20
-314.89730533109997
 30
0.0
 40
8.2461809158000001
  1
46
  0
LINE
  5
2CC
  8
0
 62
     0
 10
633.69616518040004
 20
-277.85251372800002
 30
0.0
 11
633.69616518040004
 21
-318.35251372800002
 31
0.0
  0
LINE
  5
2CD
  8
0
 62
     0
 10
679.69616518040004
 20
-277.85251372800002
 30
0.0
 11
679.69616518040004
 21
-318.35251372800002
 31
0.0
  0
LINE
  5
2CE
  8
0
 62
     0
 10
633.69616518040004
 20
-317.35251372800002
 30
0.0
 11
666.39755449309985
 21
-317.35251372800002
 31
0.0
  0
LINE
  5
2CF
  8
0
 62
     0
 10
633.69616518040004
 20
-317.35251372800002
 30
0.0
 11
646.99477586759986
 21
-317.35251372800002
 31
0.0
  0
LINE
  5
2D0
  8
0
 62
     0
 10
679.69616518040004
 20
-317.35251372800002
 30
0.0
 11
666.39755449309985
 21
-317.35251372800002
 31
0.0
  0
LINE
  5
2D1
  8
0
 62
     0
 10
679.69616518040004
 20
-317.35251372800002
 30
0.0
 11
646.99477586759986
 21
-317.35251372800002
 31
0.0
  0
LINE
  5
2D2
  8
0
 62
     0
 10
679.69616518040004
 20
-317.35251372800002
 30
0.0
 11
671.69616518040004
 21
-317.35251372800002
 31
0.0
  0
SOLID
  5
2D3
  8
0
 62
     0
 10
679.69616518040004
 20
-317.35251372800002
 30
0.0
 11
672.19616518040004
 21
-319.22751372800002
 31
0.0
 12
672.19616518040004
 22
-315.47751372800002
 32
0.0
 13
674.07116518040004
 23
-317.35251372800002
 33
0.0
  0
LINE
  5
2D4
  8
0
 62
     0
 10
633.69616518040004
 20
-317.35251372800002
 30
0.0
 11
641.69616518040004
 21
-317.35251372800002
 31
0.0
  0
SOLID
  5
2D5
  8
0
 62
     0
 10
633.69616518040004
 20
-317.35251372800002
 30
0.0
 11
641.19616518040004
 21
-315.47751372800002
 31
0.0
 12
641.19616518040004
 22
-319.22751372800002
 32
0.0
 13
639.32116518040004
 23
-317.35251372800002
 33
0.0
  0
ENDBLK
  5
2D6
  8
0
  0
BLOCK
  8
0
  2
*D29
 70
     1
 10
0.0
 20
0.0
 30
0.0
  3
*D29
  1

  0
TEXT
  5
2DA
  8
0
 62
     0
 10
697.84547052399989
 20
-314.89730533109997
 30
0.0
 40
8.2461809158000001
  1
46
  0
LINE
  5
2DB
  8
0
 62
     0
 10
679.69616518040004
 20
-277.85251372800002
 30
0.0
 11
679.69616518040004
 21
-318.35251372800002
 31
0.0
  0
LINE
  5
2DC
  8
0
 62
     0
 10
725.69616518039993
 20
-277.85251372800002
 30
0.0
 11
725.69616518039993
 21
-318.35251372800002
 31
0.0
  0
LINE
  5
2DD
  8
0
 62
     0
 10
679.69616518040004
 20
-317.35251372800002
 30
0.0
 11
712.39755449309985
 21
-317.35251372800002
 31
0.0
  0
LINE
  5
2DE
  8
0
 62
     0
 10
679.69616518040004
 20
-317.35251372800002
 30
0.0
 11
692.99477586759986
 21
-317.35251372800002
 31
0.0
  0
LINE
  5
2DF
  8
0
 62
     0
 10
725.69616518039993
 20
-317.35251372800002
 30
0.0
 11
712.39755449309985
 21
-317.35251372800002
 31
0.0
  0
LINE
  5
2E0
  8
0
 62
     0
 10
725.69616518039993
 20
-317.35251372800002
 30
0.0
 11
692.99477586759986
 21
-317.35251372800002
 31
0.0
  0
LINE
  5
2E1
  8
0
 62
     0
 10
725.69616518039993
 20
-317.35251372800002
 30
0.0
 11
717.69616518039993
 21
-317.35251372800002
 31
0.0
  0
SOLID
  5
2E2
  8
0
 62
     0
 10
725.69616518039993
 20
-317.35251372800002
 30
0.0
 11
718.19616518039993
 21
-319.22751372800002
 31
0.0
 12
718.19616518039993
 22
-315.47751372800002
 32
0.0
 13
720.07116518039993
 23
-317.35251372800002
 33
0.0
  0
LINE
  5
2E3
  8
0
 62
     0
 10
679.69616518040004
 20
-317.35251372800002
 30
0.0
 11
687.69616518039993
 21
-317.35251372800002
 31
0.0
  0
SOLID
  5
2E4
  8
0
 62
     0
 10
679.69616518040004
 20
-317.35251372800002
 30
0.0
 11
687.19616518039993
 21
-315.47751372800002
 31
0.0
 12
687.19616518039993
 22
-319.22751372800002
 32
0.0
 13
685.32116518040004
 23
-317.35251372800002
 33
0.0
  0
ENDBLK
  5
2E5
  8
0
  0
BLOCK
  8
0
  2
*D30
 70
     1
 10
0.0
 20
0.0
 30
0.0
  3
*D30
  1

  0
TEXT
  5
2E9
  8
0
 62
     0
 10
628.84547052400001
 20
-227.15739615909999
 30
0.0
 40
8.2461809158000001
  1
22
  0
LINE
  5
2EA
  8
0
 62
     0
 10
644.69616518040004
 20
-240.35251372799999
 30
0.0
 11
644.69616518040004
 21
-228.61260455600001
 31
0.0
  0
LINE
  5
2EB
  8
0
 62
     0
 10
622.69616518040004
 20
-240.35251372799999
 30
0.0
 11
622.69616518040004
 21
-228.61260455600001
 31
0.0
  0
LINE
  5
2EC
  8
0
 62
     0
 10
644.69616518040004
 20
-229.61260455600001
 30
0.0
 11
643.39755449309996
 21
-229.61260455600001
 31
0.0
  0
LINE
  5
2ED
  8
0
 62
     0
 10
644.69616518040004
 20
-229.61260455600001
 30
0.0
 11
623.99477586759997
 21
-229.61260455600001
 31
0.0
  0
LINE
  5
2EE
  8
0
 62
     0
 10
622.69616518040004
 20
-229.61260455600001
 30
0.0
 11
643.39755449309996
 21
-229.61260455600001
 31
0.0
  0
LINE
  5
2EF
  8
0
 62
     0
 10
622.69616518040004
 20
-229.61260455600001
 30
0.0
 11
623.99477586759997
 21
-229.61260455600001
 31
0.0
  0
LINE
  5
2F0
  8
0
 62
     0
 10
622.69616518040004
 20
-229.61260455600001
 30
0.0
 11
614.69616518040004
 21
-229.61260455600001
 31
0.0
  0
SOLID
  5
2F1
  8
0
 62
     0
 10
622.69616518040004
 20
-229.61260455600001
 30
0.0
 11
615.19616518040004
 21
-231.48760455600001
 31
0.0
 12
615.19616518040004
 22
-227.73760455600001
 32
0.0
 13
617.07116518040004
 23
-229.61260455600001
 33
0.0
  0
LINE
  5
2F2
  8
0
 62
     0
 10
644.69616518040004
 20
-229.61260455600001
 30
0.0
 11
652.69616518040004
 21
-229.61260455600001
 31
0.0
  0
SOLID
  5
2F3
  8
0
 62
     0
 10
644.69616518040004
 20
-229.61260455600001
 30
0.0
 11
652.19616518040004
 21
-227.73760455600001
 31
0.0
 12
652.19616518040004
 22
-231.48760455600001
 32
0.0
 13
650.32116518040004
 23
-229.61260455600001
 33
0.0
  0
ENDBLK
  5
2F4
  8
0
  0
BLOCK
  8
0
  2
BALLON0
 70
     0
 10
0.0
 20
0.0
 30
0.0
  3
BALLON0
  1

  0
INSERT
  5
354
  8
0
  6
CONTINUOUS
  2
*U87
 10
0.0
 20
0.0
 30
0.0
  0
CIRCLE
  5
355
  8
ﾚｲﾔ_1
 10
610.01867873929984
 20
3.528978020699999
 30
0.0
 40
8.0
  0
LINE
  5
356
  8
寸法線
 10
623.35201207269995
 20
3.528978020699999
 30
0.0
 11
618.01867873929984
 21
3.528978020699999
 31
0.0
  0
LINE
  5
357
  8
寸法線
 10
664.35204205540003
 20
-43.20999471279999
 30
0.0
 11
623.35201207269995
 21
3.528978020699999
 31
0.0
  0
SOLID
  5
358
  8
寸法線
 10
664.35204205540003
 20
-43.20999471279999
 30
0.0
 11
657.87366909989998
 21
-38.251095253400003
 31
0.0
 12
660.13158585259998
 22
-38.398783904699997
 32
0.0
 13
660.13158585259998
 23
-38.398783904699997
 33
0.0
  0
SOLID
  5
359
  8
寸法線
 10
660.13158585259998
 20
-38.398783904699997
 30
0.0
 11
660.27927450389996
 21
-36.140867151999998
 31
0.0
 12
664.35204205540003
 22
-43.20999471279999
 32
0.0
 13
664.35204205540003
 23
-43.20999471279999
 33
0.0
  0
ENDBLK
  5
35A
  8
0
  0
BLOCK
  8
0
  2
BALLON1
 70
     0
 10
0.0
 20
0.0
 30
0.0
  3
BALLON1
  1

  0
INSERT
  5
35E
  8
0
  6
CONTINUOUS
  2
*U88
 10
0.0
 20
0.0
 30
0.0
  0
CIRCLE
  5
35F
  8
ﾚｲﾔ_1
 10
649.06181683789998
 20
3.528978020699999
 30
0.0
 40
8.0
  0
LINE
  5
360
  8
寸法線
 10
662.39515017120004
 20
3.528978020699999
 30
0.0
 11
657.06181683789998
 21
3.528978020699999
 31
0.0
  0
LINE
  5
361
  8
寸法線
 10
681.50476973330001
 20
-22.419924956199999
 30
0.0
 11
662.39515017120004
 21
3.528978020699999
 31
0.0
  0
SOLID
  5
362
  8
寸法線
 10
681.50476973330001
 20
-22.419924956199999
 30
0.0
 11
675.47254581820005
 21
-16.926995442900001
 31
0.0
 12
677.70966356989993
 22
-17.266560112899999
 32
0.0
 13
677.70966356989993
 23
-17.266560112899999
 33
0.0
  0
SOLID
  5
363
  8
寸法線
 10
677.70966356989993
 20
-17.266560112899999
 30
0.0
 11
678.04922823989989
 21
-15.029442361199999
 31
0.0
 12
681.50476973330001
 22
-22.419924956199999
 32
0.0
 13
681.50476973330001
 23
-22.419924956199999
 33
0.0
  0
ENDBLK
  5
364
  8
0
  0
BLOCK
  8
0
  2
BALLON2
 70
     0
 10
0.0
 20
0.0
 30
0.0
  3
BALLON2
  1

  0
INSERT
  5
368
  8
0
  6
CONTINUOUS
  2
*U89
 10
0.0
 20
0.0
 30
0.0
  0
CIRCLE
  5
369
  8
ﾚｲﾔ_1
 10
710.67623068649993
 20
3.528978020699999
 30
0.0
 40
8.0
  0
LINE
  5
36A
  8
寸法線
 10
724.00956401979988
 20
3.528978020699999
 30
0.0
 11
718.67623068649993
 21
3.528978020699999
 31
0.0
  0
LINE
  5
36B
  8
寸法線
 10
748.01682782360001
 20
38.379551000399999
 30
0.0
 11
724.00956401979988
 21
3.528978020699999
 31
0.0
  0
SOLID
  5
36C
  8
寸法線
 10
748.01682782360001
 20
38.379551000399999
 30
0.0
 11
744.79613064059993
 21
30.883744862600011
 31
0.0
 12
744.38616750779988
 22
33.109038153299998
 32
0.0
 13
744.38616750779988
 23
33.109038153299998
 33
0.0
  0
SOLID
  5
36D
  8
寸法線
 10
744.38616750779988
 20
33.109038153299998
 30
0.0
 11
742.16087421700001
 21
32.699075020500011
 31
0.0
 12
748.01682782360001
 22
38.379551000399999
 32
0.0
 13
748.01682782360001
 23
38.379551000399999
 33
0.0
  0
ENDBLK
  5
36E
  8
0
  0
BLOCK
  8
0
  2
BALLON3
 70
     0
 10
0.0
 20
0.0
 30
0.0
  3
BALLON3
  1

  0
INSERT
  5
372
  8
0
  6
CONTINUOUS
  2
*U90
 10
0.0
 20
0.0
 30
0.0
  0
CIRCLE
  5
373
  8
ﾚｲﾔ_1
 10
710.67623068649993
 20
3.528978020699999
 30
0.0
 40
8.0
  0
LINE
  5
374
  8
寸法線
 10
724.00956401979988
 20
3.528978020699999
 30
0.0
 11
718.67623068649993
 21
3.528978020699999
 31
0.0
  0
LINE
  5
375
  8
寸法線
 10
748.01682782360001
 20
38.379551000399999
 30
0.0
 11
724.00956401979988
 21
3.528978020699999
 31
0.0
  0
SOLID
  5
376
  8
寸法線
 10
748.01682782360001
 20
38.379551000399999
 30
0.0
 11
744.79613064059993
 21
30.883744862600011
 31
0.0
 12
744.38616750779988
 22
33.109038153299998
 32
0.0
 13
744.38616750779988
 23
33.109038153299998
 33
0.0
  0
SOLID
  5
377
  8
寸法線
 10
744.38616750779988
 20
33.109038153299998
 30
0.0
 11
742.16087421700001
 21
32.699075020500011
 31
0.0
 12
748.01682782360001
 22
38.379551000399999
 32
0.0
 13
748.01682782360001
 23
38.379551000399999
 33
0.0
  0
ENDBLK
  5
378
  8
0
  0
BLOCK
  8
0
  2
*D35
 70
     1
 10
0.0
 20
0.0
 30
0.0
  3
*D35
  1

  0
TEXT
  5
3AE
  8
0
 62
     0
 10
659.81076503969985
 20
246.57270027460001
 30
0.0
 40
8.2461809158000001
  1
9
  0
LINE
  5
3AF
  8
0
 62
     0
 10
666.73611236789998
 20
218.9525767929
 30
0.0
 11
666.73611236789998
 21
245.11749187769999
 31
0.0
  0
LINE
  5
3B0
  8
0
 62
     0
 10
657.73611236789998
 20
227.9525767929
 30
0.0
 11
657.73611236789998
 21
245.11749187769999
 31
0.0
  0
LINE
  5
3B1
  8
0
 62
     0
 10
666.73611236789998
 20
244.11749187769999
 30
0.0
 11
666.73611236789998
 21
244.11749187769999
 31
0.0
  0
LINE
  5
3B2
  8
0
 62
     0
 10
666.73611236789998
 20
244.11749187769999
 30
0.0
 11
657.73611236789998
 21
244.11749187769999
 31
0.0
  0
LINE
  5
3B3
  8
0
 62
     0
 10
657.73611236789998
 20
244.11749187769999
 30
0.0
 11
666.73611236789998
 21
244.11749187769999
 31
0.0
  0
LINE
  5
3B4
  8
0
 62
     0
 10
657.73611236789998
 20
244.11749187769999
 30
0.0
 11
657.73611236789998
 21
244.11749187769999
 31
0.0
  0
LINE
  5
3B5
  8
0
 62
     0
 10
657.73611236789998
 20
244.11749187769999
 30
0.0
 11
649.73611236789998
 21
244.11749187769999
 31
0.0
  0
SOLID
  5
3B6
  8
0
 62
     0
 10
657.73611236789998
 20
244.11749187769999
 30
0.0
 11
650.23611236789986
 21
242.24249187769999
 31
0.0
 12
650.23611236789986
 22
245.99249187769999
 32
0.0
 13
652.11111236789986
 23
244.11749187769999
 33
0.0
  0
LINE
  5
3B7
  8
0
 62
     0
 10
666.73611236789998
 20
244.11749187769999
 30
0.0
 11
674.73611236789998
 21
244.11749187769999
 31
0.0
  0
SOLID
  5
3B8
  8
0
 62
     0
 10
666.73611236789998
 20
244.11749187769999
 30
0.0
 11
674.23611236789998
 21
245.99249187769999
 31
0.0
 12
674.23611236789998
 22
242.24249187769999
 32
0.0
 13
672.36111236789986
 23
244.11749187769999
 33
0.0
  0
ENDBLK
  5
3B9
  8
0
  0
BLOCK
  8
0
  2
*D36
 70
     1
 10
0.0
 20
0.0
 30
0.0
  3
*D36
  1

  0
TEXT
  5
401
  8
0
 62
     0
 10
891.96929864900005
 20
-90.812409243499999
 30
0.0
 40
8.2461809158000001
  1
14
  0
LINE
  5
402
  8
0
 62
     0
 10
903.81999330539998
 20
-113.35251372800001
 30
0.0
 11
903.81999330539998
 21
-92.267617640400005
 31
0.0
  0
LINE
  5
403
  8
0
 62
     0
 10
889.81999330539998
 20
-115.3525150774
 30
0.0
 11
889.81999330539998
 21
-92.267617640400005
 31
0.0
  0
LINE
  5
404
  8
0
 62
     0
 10
903.81999330539998
 20
-93.267617640400005
 30
0.0
 11
903.81999330539998
 21
-93.267617640400005
 31
0.0
  0
LINE
  5
405
  8
0
 62
     0
 10
903.81999330539998
 20
-93.267617640400005
 30
0.0
 11
889.81999330539998
 21
-93.267617640400005
 31
0.0
  0
LINE
  5
406
  8
0
 62
     0
 10
889.81999330539998
 20
-93.267617640400005
 30
0.0
 11
903.81999330539998
 21
-93.267617640400005
 31
0.0
  0
LINE
  5
407
  8
0
 62
     0
 10
889.81999330539998
 20
-93.267617640400005
 30
0.0
 11
889.81999330539998
 21
-93.267617640400005
 31
0.0
  0
LINE
  5
408
  8
0
 62
     0
 10
889.81999330539998
 20
-93.267617640400005
 30
0.0
 11
881.81999330539998
 21
-93.267617640400005
 31
0.0
  0
SOLID
  5
409
  8
0
 62
     0
 10
889.81999330539998
 20
-93.267617640400005
 30
0.0
 11
882.31999330539986
 21
-95.142617640400005
 31
0.0
 12
882.31999330539986
 22
-91.392617640400005
 32
0.0
 13
884.19499330539986
 23
-93.267617640400005
 33
0.0
  0
LINE
  5
40A
  8
0
 62
     0
 10
903.81999330539998
 20
-93.267617640400005
 30
0.0
 11
911.81999330539986
 21
-93.267617640400005
 31
0.0
  0
SOLID
  5
40B
  8
0
 62
     0
 10
903.81999330539998
 20
-93.267617640400005
 30
0.0
 11
911.31999330539998
 21
-91.392617640400005
 31
0.0
 12
911.31999330539998
 22
-95.142617640400005
 32
0.0
 13
909.44499330539986
 23
-93.267617640400005
 33
0.0
  0
ENDBLK
  5
40C
  8
0
  0
BLOCK
  8
0
  2
*D37
 70
     1
 10
0.0
 20
0.0
 30
0.0
  3
*D37
  1

  0
TEXT
  5
410
  8
0
 62
     0
 10
884.69511704470005
 20
-27.8452722844
 30
0.0
 40
8.2461809158000001
  1
6
 50
90.0
  0
LINE
  5
411
  8
0
 62
     0
 10
856.15204205539999
 20
-28.419924956199999
 30
0.0
 11
888.15032544159988
 21
-28.419924956199999
 31
0.0
  0
LINE
  5
412
  8
0
 62
     0
 10
855.35204205539992
 20
-22.419924956199999
 30
0.0
 11
888.15032544159988
 21
-22.419924956199999
 31
0.0
  0
LINE
  5
413
  8
0
 62
     0
 10
887.15032544159988
 20
-28.419924956199999
 30
0.0
 11
887.15032544159988
 21
-28.419924956199999
 31
0.0
  0
LINE
  5
414
  8
0
 62
     0
 10
887.15032544159988
 20
-28.419924956199999
 30
0.0
 11
887.15032544159988
 21
-22.419924956199999
 31
0.0
  0
LINE
  5
415
  8
0
 62
     0
 10
887.15032544159988
 20
-22.419924956199999
 30
0.0
 11
887.15032544159988
 21
-28.419924956199999
 31
0.0
  0
LINE
  5
416
  8
0
 62
     0
 10
887.15032544159988
 20
-22.419924956199999
 30
0.0
 11
887.15032544159988
 21
-22.419924956199999
 31
0.0
  0
LINE
  5
417
  8
0
 62
     0
 10
887.15032544159988
 20
-22.419924956199999
 30
0.0
 11
887.15032544159988
 21
-14.419924956199999
 31
0.0
  0
SOLID
  5
418
  8
0
 62
     0
 10
887.15032544159988
 20
-22.419924956199999
 30
0.0
 11
885.27532544159988
 21
-14.919924956199999
 31
0.0
 12
889.02532544159999
 22
-14.919924956199999
 32
0.0
 13
887.15032544159988
 23
-16.794924956199999
 33
0.0
  0
LINE
  5
419
  8
0
 62
     0
 10
887.15032544159988
 20
-28.419924956199999
 30
0.0
 11
887.15032544159988
 21
-36.419924956199999
 31
0.0
  0
SOLID
  5
41A
  8
0
 62
     0
 10
887.15032544159988
 20
-28.419924956199999
 30
0.0
 11
889.02532544159999
 21
-35.919924956199999
 31
0.0
 12
885.27532544159988
 22
-35.919924956199999
 32
0.0
 13
887.15032544159988
 23
-34.044924956199999
 33
0.0
  0
ENDBLK
  5
41B
  8
0
  0
BLOCK
  8
0
  2
*D38
 70
     1
 10
0.0
 20
0.0
 30
0.0
  3
*D38
  1

  0
TEXT
  5
41F
  8
0
 62
     0
 10
888.44233051520007
 20
30.0272294647
 30
0.0
 40
8.2461809158000001
  1
9
 50
90.0
  0
LINE
  5
420
  8
0
 62
     0
 10
857.73611236789986
 20
27.9525767929
 30
0.0
 11
891.89753891210012
 21
27.9525767929
 31
0.0
  0
LINE
  5
421
  8
0
 62
     0
 10
848.73611236789986
 20
36.952576792899997
 30
0.0
 11
891.89753891210012
 21
36.952576792899997
 31
0.0
  0
LINE
  5
422
  8
0
 62
     0
 10
890.89753891210012
 20
27.9525767929
 30
0.0
 11
890.89753891210012
 21
27.9525767929
 31
0.0
  0
LINE
  5
423
  8
0
 62
     0
 10
890.89753891210012
 20
27.9525767929
 30
0.0
 11
890.89753891210012
 21
36.952576792899997
 31
0.0
  0
LINE
  5
424
  8
0
 62
     0
 10
890.89753891210012
 20
36.952576792899997
 30
0.0
 11
890.89753891210012
 21
27.9525767929
 31
0.0
  0
LINE
  5
425
  8
0
 62
     0
 10
890.89753891210012
 20
36.952576792899997
 30
0.0
 11
890.89753891210012
 21
36.952576792899997
 31
0.0
  0
LINE
  5
426
  8
0
 62
     0
 10
890.89753891210012
 20
36.952576792899997
 30
0.0
 11
890.89753891210012
 21
44.95257679289999
 31
0.0
  0
SOLID
  5
427
  8
0
 62
     0
 10
890.89753891210012
 20
36.952576792899997
 30
0.0
 11
889.02253891210012
 21
44.452576792899997
 31
0.0
 12
892.7725389121
 22
44.452576792899997
 32
0.0
 13
890.89753891210012
 23
42.577576792899997
 33
0.0
  0
LINE
  5
428
  8
0
 62
     0
 10
890.89753891210012
 20
27.9525767929
 30
0.0
 11
890.89753891210012
 21
19.9525767929
 31
0.0
  0
SOLID
  5
429
  8
0
 62
     0
 10
890.89753891210012
 20
27.9525767929
 30
0.0
 11
892.7725389121
 21
20.4525767929
 31
0.0
 12
889.02253891210012
 22
20.4525767929
 32
0.0
 13
890.89753891210012
 23
22.3275767929
 33
0.0
  0
ENDBLK
  5
42A
  8
0
  0
BLOCK
  8
0
  2
*D39
 70
     1
 10
0.0
 20
0.0
 30
0.0
  3
*D39
  1

  0
TEXT
  5
42E
  8
0
 62
     0
 10
951.44797052399986
 20
-90.812409243499999
 30
0.0
 40
8.2461809158000001
  1
23
  0
LINE
  5
42F
  8
0
 62
     0
 10
967.79866518039989
 20
-113.35251372800001
 30
0.0
 11
967.79866518039989
 21
-92.267617640400005
 31
0.0
  0
LINE
  5
430
  8
0
 62
     0
 10
944.79866518039989
 20
-115.35251372800001
 30
0.0
 11
944.79866518039989
 21
-92.267617640400005
 31
0.0
  0
LINE
  5
431
  8
0
 62
     0
 10
967.79866518039989
 20
-93.267617640400005
 30
0.0
 11
966.00005449310004
 21
-93.267617640400005
 31
0.0
  0
LINE
  5
432
  8
0
 62
     0
 10
967.79866518039989
 20
-93.267617640400005
 30
0.0
 11
946.59727586759993
 21
-93.267617640400005
 31
0.0
  0
LINE
  5
433
  8
0
 62
     0
 10
944.79866518039989
 20
-93.267617640400005
 30
0.0
 11
966.00005449310004
 21
-93.267617640400005
 31
0.0
  0
LINE
  5
434
  8
0
 62
     0
 10
944.79866518039989
 20
-93.267617640400005
 30
0.0
 11
946.59727586759993
 21
-93.267617640400005
 31
0.0
  0
LINE
  5
435
  8
0
 62
     0
 10
944.79866518039989
 20
-93.267617640400005
 30
0.0
 11
936.79866518039989
 21
-93.267617640400005
 31
0.0
  0
SOLID
  5
436
  8
0
 62
     0
 10
944.79866518039989
 20
-93.267617640400005
 30
0.0
 11
937.29866518039978
 21
-95.142617640400005
 31
0.0
 12
937.29866518039978
 22
-91.392617640400005
 32
0.0
 13
939.17366518039989
 23
-93.267617640400005
 33
0.0
  0
LINE
  5
437
  8
0
 62
     0
 10
967.79866518039989
 20
-93.267617640400005
 30
0.0
 11
975.79866518039989
 21
-93.267617640400005
 31
0.0
  0
SOLID
  5
438
  8
0
 62
     0
 10
967.79866518039989
 20
-93.267617640400005
 30
0.0
 11
975.29866518039989
 21
-91.392617640400005
 31
0.0
 12
975.29866518039989
 22
-95.142617640400005
 32
0.0
 13
973.42366518039978
 23
-93.267617640400005
 33
0.0
  0
ENDBLK
  5
439
  8
0
  0
BLOCK
  8
0
  2
*D40
 70
     1
 10
0.0
 20
0.0
 30
0.0
  3
*D40
  1

  0
TEXT
  5
43D
  8
0
 62
     0
 10
884.69511704470005
 20
-51.845272284399996
 30
0.0
 40
8.2461809158000001
  1
6
 50
90.0
  0
LINE
  5
43E
  8
0
 62
     0
 10
855.35204205539992
 20
-52.419924956199992
 30
0.0
 11
888.15032544159988
 21
-52.419924956199992
 31
0.0
  0
LINE
  5
43F
  8
0
 62
     0
 10
856.15204205539999
 20
-46.419924956199999
 30
0.0
 11
888.15032544159988
 21
-46.419924956199999
 31
0.0
  0
LINE
  5
440
  8
0
 62
     0
 10
887.15032544159988
 20
-52.419924956199992
 30
0.0
 11
887.15032544159988
 21
-52.419924956199992
 31
0.0
  0
LINE
  5
441
  8
0
 62
     0
 10
887.15032544159988
 20
-52.419924956199992
 30
0.0
 11
887.15032544159988
 21
-46.419924956199999
 31
0.0
  0
LINE
  5
442
  8
0
 62
     0
 10
887.15032544159988
 20
-46.419924956199999
 30
0.0
 11
887.15032544159988
 21
-52.419924956199992
 31
0.0
  0
LINE
  5
443
  8
0
 62
     0
 10
887.15032544159988
 20
-46.419924956199999
 30
0.0
 11
887.15032544159988
 21
-46.419924956199999
 31
0.0
  0
LINE
  5
444
  8
0
 62
     0
 10
887.15032544159988
 20
-46.419924956199999
 30
0.0
 11
887.15032544159988
 21
-38.419924956199999
 31
0.0
  0
SOLID
  5
445
  8
0
 62
     0
 10
887.15032544159988
 20
-46.419924956199999
 30
0.0
 11
885.27532544159988
 21
-38.919924956199999
 31
0.0
 12
889.02532544159999
 22
-38.919924956199999
 32
0.0
 13
887.15032544159988
 23
-40.794924956199999
 33
0.0
  0
LINE
  5
446
  8
0
 62
     0
 10
887.15032544159988
 20
-52.419924956199992
 30
0.0
 11
887.15032544159988
 21
-60.419924956199999
 31
0.0
  0
SOLID
  5
447
  8
0
 62
     0
 10
887.15032544159988
 20
-52.419924956199992
 30
0.0
 11
889.02532544159999
 21
-59.919924956199992
 31
0.0
 12
885.27532544159988
 22
-59.919924956199992
 32
0.0
 13
887.15032544159988
 23
-58.044924956199992
 33
0.0
  0
ENDBLK
  5
448
  8
0
  0
BLOCK
  8
0
  2
*D41
 70
     1
 10
0.0
 20
0.0
 30
0.0
  3
*D41
  1

  0
TEXT
  5
47F
  8
0
 62
     0
 10
888.44233051520007
 20
219.02722946470001
 30
0.0
 40
8.2461809158000001
  1
9
 50
90.0
  0
LINE
  5
480
  8
0
 62
     0
 10
848.73611236789986
 20
216.9525767929
 30
0.0
 11
891.89753891210012
 21
216.9525767929
 31
0.0
  0
LINE
  5
481
  8
0
 62
     0
 10
857.73611236789986
 20
225.9525767929
 30
0.0
 11
891.89753891210012
 21
225.9525767929
 31
0.0
  0
LINE
  5
482
  8
0
 62
     0
 10
890.89753891210012
 20
216.9525767929
 30
0.0
 11
890.89753891210012
 21
216.9525767929
 31
0.0
  0
LINE
  5
483
  8
0
 62
     0
 10
890.89753891210012
 20
216.9525767929
 30
0.0
 11
890.89753891210012
 21
225.9525767929
 31
0.0
  0
LINE
  5
484
  8
0
 62
     0
 10
890.89753891210012
 20
225.9525767929
 30
0.0
 11
890.89753891210012
 21
216.9525767929
 31
0.0
  0
LINE
  5
485
  8
0
 62
     0
 10
890.89753891210012
 20
225.9525767929
 30
0.0
 11
890.89753891210012
 21
225.9525767929
 31
0.0
  0
LINE
  5
486
  8
0
 62
     0
 10
890.89753891210012
 20
225.9525767929
 30
0.0
 11
890.89753891210012
 21
233.9525767929
 31
0.0
  0
SOLID
  5
487
  8
0
 62
     0
 10
890.89753891210012
 20
225.9525767929
 30
0.0
 11
889.02253891210012
 21
233.4525767929
 31
0.0
 12
892.7725389121
 22
233.4525767929
 32
0.0
 13
890.89753891210012
 23
231.5775767929
 33
0.0
  0
LINE
  5
488
  8
0
 62
     0
 10
890.89753891210012
 20
216.9525767929
 30
0.0
 11
890.89753891210012
 21
208.9525767929
 31
0.0
  0
SOLID
  5
489
  8
0
 62
     0
 10
890.89753891210012
 20
216.9525767929
 30
0.0
 11
892.7725389121
 21
209.4525767929
 31
0.0
 12
889.02253891210012
 22
209.4525767929
 32
0.0
 13
890.89753891210012
 23
211.3275767929
 33
0.0
  0
ENDBLK
  5
48A
  8
0
  0
BLOCK
  8
0
  2
*D42
 70
     1
 10
0.0
 20
0.0
 30
0.0
  3
*D42
  1

  0
TEXT
  5
48E
  8
0
 62
     0
 10
848.81076503969985
 20
246.57270027460001
 30
0.0
 40
8.2461809158000001
  1
9
  0
LINE
  5
48F
  8
0
 62
     0
 10
855.73611236789986
 20
227.9525767929
 30
0.0
 11
855.73611236789986
 21
245.11749187769999
 31
0.0
  0
LINE
  5
490
  8
0
 62
     0
 10
846.73611236789986
 20
218.9525767929
 30
0.0
 11
846.73611236789986
 21
245.11749187769999
 31
0.0
  0
LINE
  5
491
  8
0
 62
     0
 10
855.73611236789986
 20
244.11749187769999
 30
0.0
 11
855.73611236789986
 21
244.11749187769999
 31
0.0
  0
LINE
  5
492
  8
0
 62
     0
 10
855.73611236789986
 20
244.11749187769999
 30
0.0
 11
846.73611236789986
 21
244.11749187769999
 31
0.0
  0
LINE
  5
493
  8
0
 62
     0
 10
846.73611236789986
 20
244.11749187769999
 30
0.0
 11
855.73611236789986
 21
244.11749187769999
 31
0.0
  0
LINE
  5
494
  8
0
 62
     0
 10
846.73611236789986
 20
244.11749187769999
 30
0.0
 11
846.73611236789986
 21
244.11749187769999
 31
0.0
  0
LINE
  5
495
  8
0
 62
     0
 10
846.73611236789986
 20
244.11749187769999
 30
0.0
 11
838.73611236789986
 21
244.11749187769999
 31
0.0
  0
SOLID
  5
496
  8
0
 62
     0
 10
846.73611236789986
 20
244.11749187769999
 30
0.0
 11
839.23611236789998
 21
242.24249187769999
 31
0.0
 12
839.23611236789998
 22
245.99249187769999
 32
0.0
 13
841.11111236789986
 23
244.11749187769999
 33
0.0
  0
LINE
  5
497
  8
0
 62
     0
 10
855.73611236789986
 20
244.11749187769999
 30
0.0
 11
863.73611236789986
 21
244.11749187769999
 31
0.0
  0
SOLID
  5
498
  8
0
 62
     0
 10
855.73611236789986
 20
244.11749187769999
 30
0.0
 11
863.23611236789998
 21
245.99249187769999
 31
0.0
 12
863.23611236789998
 22
242.24249187769999
 32
0.0
 13
861.36111236789998
 23
244.11749187769999
 33
0.0
  0
ENDBLK
  5
499
  8
0
  0
BLOCK
  8
0
  2
*D43
 70
     1
 10
0.0
 20
0.0
 30
0.0
  3
*D43
  1

  0
TEXT
  5
49D
  8
0
 62
     0
 10
989.94543439849997
 20
243.87283798519999
 30
0.0
 40
8.2461809158000001
  1
15
  0
LINE
  5
49E
  8
0
 62
     0
 10
1002.3641252886
 20
227.15257679289999
 30
0.0
 11
1002.3641252886
 21
242.4176295883
 31
0.0
  0
LINE
  5
49F
  8
0
 62
     0
 10
987.36412528860012
 20
218.9525767929
 30
0.0
 11
987.36412528860012
 21
242.4176295883
 31
0.0
  0
LINE
  5
4A0
  8
0
 62
     0
 10
1002.3641252886
 20
241.4176295883
 30
0.0
 11
1002.3641252886
 21
241.4176295883
 31
0.0
  0
LINE
  5
4A1
  8
0
 62
     0
 10
1002.3641252886
 20
241.4176295883
 30
0.0
 11
987.36412528860012
 21
241.4176295883
 31
0.0
  0
LINE
  5
4A2
  8
0
 62
     0
 10
987.36412528860012
 20
241.4176295883
 30
0.0
 11
1002.3641252886
 21
241.4176295883
 31
0.0
  0
LINE
  5
4A3
  8
0
 62
     0
 10
987.36412528860012
 20
241.4176295883
 30
0.0
 11
987.36412528860012
 21
241.4176295883
 31
0.0
  0
LINE
  5
4A4
  8
0
 62
     0
 10
987.36412528860012
 20
241.4176295883
 30
0.0
 11
995.36412528859989
 21
241.4176295883
 31
0.0
  0
SOLID
  5
4A5
  8
0
 62
     0
 10
987.36412528860012
 20
241.4176295883
 30
0.0
 11
994.86412528860001
 21
243.2926295883
 31
0.0
 12
994.86412528860001
 22
239.5426295883
 32
0.0
 13
992.98912528859989
 23
241.4176295883
 33
0.0
  0
LINE
  5
4A6
  8
0
 62
     0
 10
1002.3641252886
 20
241.4176295883
 30
0.0
 11
994.36412528859989
 21
241.4176295883
 31
0.0
  0
SOLID
  5
4A7
  8
0
 62
     0
 10
1002.3641252886
 20
241.4176295883
 30
0.0
 11
994.86412528860001
 21
239.5426295883
 31
0.0
 12
994.86412528860001
 22
243.2926295883
 32
0.0
 13
996.73912528860012
 23
241.4176295883
 33
0.0
  0
ENDBLK
  5
4A8
  8
0
  0
BLOCK
  8
0
  2
*D44
 70
     1
 10
0.0
 20
0.0
 30
0.0
  3
*D44
  1

  0
TEXT
  5
4AC
  8
0
 62
     0
 10
974.77295405369989
 20
243.87283798519999
 30
0.0
 40
8.2461809158000001
  1
15
  0
LINE
  5
4AD
  8
0
 62
     0
 10
987.36412528860012
 20
218.9525767929
 30
0.0
 11
987.36412528860012
 21
242.4176295883
 31
0.0
  0
LINE
  5
4AE
  8
0
 62
     0
 10
972.36412528860001
 20
227.15257679289999
 30
0.0
 11
972.36412528860001
 21
242.4176295883
 31
0.0
  0
LINE
  5
4AF
  8
0
 62
     0
 10
987.36412528860012
 20
241.4176295883
 30
0.0
 11
987.36412528860012
 21
241.4176295883
 31
0.0
  0
LINE
  5
4B0
  8
0
 62
     0
 10
987.36412528860012
 20
241.4176295883
 30
0.0
 11
972.36412528860001
 21
241.4176295883
 31
0.0
  0
LINE
  5
4B1
  8
0
 62
     0
 10
972.36412528860001
 20
241.4176295883
 30
0.0
 11
987.36412528860012
 21
241.4176295883
 31
0.0
  0
LINE
  5
4B2
  8
0
 62
     0
 10
972.36412528860001
 20
241.4176295883
 30
0.0
 11
972.36412528860001
 21
241.4176295883
 31
0.0
  0
LINE
  5
4B3
  8
0
 62
     0
 10
972.36412528860001
 20
241.4176295883
 30
0.0
 11
980.36412528860001
 21
241.4176295883
 31
0.0
  0
SOLID
  5
4B4
  8
0
 62
     0
 10
972.36412528860001
 20
241.4176295883
 30
0.0
 11
979.86412528860001
 21
243.2926295883
 31
0.0
 12
979.86412528860001
 22
239.5426295883
 32
0.0
 13
977.98912528860012
 23
241.4176295883
 33
0.0
  0
LINE
  5
4B5
  8
0
 62
     0
 10
987.36412528860012
 20
241.4176295883
 30
0.0
 11
979.36412528860012
 21
241.4176295883
 31
0.0
  0
SOLID
  5
4B6
  8
0
 62
     0
 10
987.36412528860012
 20
241.4176295883
 30
0.0
 11
979.86412528860001
 21
239.5426295883
 31
0.0
 12
979.86412528860001
 22
243.2926295883
 32
0.0
 13
981.73912528860001
 23
241.4176295883
 33
0.0
  0
ENDBLK
  5
4B7
  8
0
  0
BLOCK
  8
0
  2
*D45
 70
     1
 10
0.0
 20
0.0
 30
0.0
  3
*D45
  1

  0
TEXT
  5
4BB
  8
0
 62
     0
 10
982.51343063219986
 20
258.35121055899998
 30
0.0
 40
8.2461809158000001
  1
30
  0
LINE
  5
4BC
  8
0
 62
     0
 10
1002.3641252886
 20
227.15257679289999
 30
0.0
 11
1002.3641252886
 21
256.89600216209999
 31
0.0
  0
LINE
  5
4BD
  8
0
 62
     0
 10
972.36412528860001
 20
227.15257679289999
 30
0.0
 11
972.36412528860001
 21
256.89600216209999
 31
0.0
  0
LINE
  5
4BE
  8
0
 62
     0
 10
1002.3641252886
 20
255.89600216209999
 30
0.0
 11
997.06551460129992
 21
255.89600216209999
 31
0.0
  0
LINE
  5
4BF
  8
0
 62
     0
 10
1002.3641252886
 20
255.89600216209999
 30
0.0
 11
977.66273597580005
 21
255.89600216209999
 31
0.0
  0
LINE
  5
4C0
  8
0
 62
     0
 10
972.36412528860001
 20
255.89600216209999
 30
0.0
 11
997.06551460129992
 21
255.89600216209999
 31
0.0
  0
LINE
  5
4C1
  8
0
 62
     0
 10
972.36412528860001
 20
255.89600216209999
 30
0.0
 11
977.66273597580005
 21
255.89600216209999
 31
0.0
  0
LINE
  5
4C2
  8
0
 62
     0
 10
972.36412528860001
 20
255.89600216209999
 30
0.0
 11
964.36412528860001
 21
255.89600216209999
 31
0.0
  0
SOLID
  5
4C3
  8
0
 62
     0
 10
972.36412528860001
 20
255.89600216209999
 30
0.0
 11
964.86412528859989
 21
254.02100216209999
 31
0.0
 12
964.86412528859989
 22
257.77100216209999
 32
0.0
 13
966.73912528860001
 23
255.89600216209999
 33
0.0
  0
LINE
  5
4C4
  8
0
 62
     0
 10
1002.3641252886
 20
255.89600216209999
 30
0.0
 11
1010.3641252886
 21
255.89600216209999
 31
0.0
  0
SOLID
  5
4C5
  8
0
 62
     0
 10
1002.3641252886
 20
255.89600216209999
 30
0.0
 11
1009.8641252886
 21
257.77100216209999
 31
0.0
 12
1009.8641252886
 22
254.02100216209999
 32
0.0
 13
1007.9891252886
 23
255.89600216209999
 33
0.0
  0
ENDBLK
  5
4C6
  8
0
  0
BLOCK
  8
0
  2
CLUMP4
 70
     0
 10
0.0
 20
0.0
 30
0.0
  3
CLUMP4
  1

  0
LINE
  5
4CF
  8
ﾚｲﾔ_1
 62
     5
 10
976.86412528860001
 20
35.352576792900003
 30
0.0
 11
1001.5641252886001
 21
35.352576792900003
 31
0.0
  0
LINE
  5
4D0
  8
ﾚｲﾔ_1
 62
     5
 10
976.86412528860001
 20
35.352576792900003
 30
0.0
 11
976.86412528860001
 21
36.1525767929
 31
0.0
  0
ARC
  5
4D1
  8
ﾚｲﾔ_1
 62
     5
 10
987.36412528860012
 20
36.952576792899997
 30
0.0
 40
0.8
 50
270.0
 51
0.0
  0
LINE
  5
4D2
  8
ﾚｲﾔ_1
 62
     5
 10
996.36412528860001
 20
28.752576792900001
 30
0.0
 11
1001.5641252886001
 21
28.752576792900001
 31
0.0
  0
LINE
  5
4D3
  8
ﾚｲﾔ_1
 62
     5
 10
996.36412528860001
 20
27.9525767929
 30
0.0
 11
996.36412528860001
 21
28.752576792900001
 31
0.0
  0
LINE
  5
4D4
  8
ﾚｲﾔ_1
 62
     5
 10
978.36412528859989
 20
28.752576792900001
 30
0.0
 11
978.36412528859989
 21
27.9525767929
 31
0.0
  0
LINE
  5
4D5
  8
ﾚｲﾔ_1
 62
     5
 10
988.16412528859996
 20
43.45257679289999
 30
0.0
 11
1001.5641252886001
 21
43.45257679289999
 31
0.0
  0
LINE
  5
4D6
  8
ﾚｲﾔ_1
 62
     5
 10
987.36412528860012
 20
36.952576792899997
 30
0.0
 11
987.36412528860012
 21
42.6525767929
 31
0.0
  0
ARC
  5
4D7
  8
ﾚｲﾔ_1
 62
     5
 10
988.16412528859996
 20
42.6525767929
 30
0.0
 40
0.8
 50
90.0
 51
180.0
  0
LINE
  5
4D8
  8
ﾚｲﾔ_1
 62
     5
 10
988.16412528859996
 20
42.6525767929
 30
0.0
 11
988.16412528859996
 21
36.952576792899997
 31
0.0
  0
LINE
  5
4D9
  8
ﾚｲﾔ_1
 62
     5
 10
1001.5641252886001
 20
28.752576792900001
 30
0.0
 11
1001.5641252886001
 21
42.6525767929
 31
0.0
  0
LINE
  5
4DA
  8
ﾚｲﾔ_1
 62
     5
 10
1001.5641252886001
 20
27.9525767929
 30
0.0
 11
996.36412528860001
 21
27.9525767929
 31
0.0
  0
ARC
  5
4DB
  8
ﾚｲﾔ_1
 62
     5
 10
1001.5641252886001
 20
28.752576792900001
 30
0.0
 40
0.8
 50
270.0
 51
0.0
  0
LINE
  5
4DC
  8
ﾚｲﾔ_1
 62
     5
 10
1002.3641252886
 20
42.6525767929
 30
0.0
 11
1002.3641252886
 21
28.752576792900001
 31
0.0
  0
ARC
  5
4DD
  8
ﾚｲﾔ_1
 62
     5
 10
1001.5641252886001
 20
42.6525767929
 30
0.0
 40
0.8
 50
0.0
 51
90.0
  0
LINE
  5
4DE
  8
ﾚｲﾔ_1
 62
     5
 10
978.36412528859989
 20
28.752576792900001
 30
0.0
 11
978.36412528859989
 21
35.352576792900003
 31
0.0
  0
LINE
  5
4DF
  8
ﾚｲﾔ_1
 62
     5
 10
987.36412528860012
 20
36.1525767929
 30
0.0
 11
1001.5641252886001
 21
36.1525767929
 31
0.0
  0
LINE
  5
4E0
  8
ﾚｲﾔ_1
 62
     5
 10
1001.5641252886001
 20
42.6525767929
 30
0.0
 11
988.16412528859996
 21
42.6525767929
 31
0.0
  0
LINE
  5
4E1
  8
ﾚｲﾔ_1
 62
     5
 10
973.16412528859985
 20
36.1525767929
 30
0.0
 11
973.16412528859985
 21
28.752576792900001
 31
0.0
  0
ARC
  5
4E2
  8
ﾚｲﾔ_1
 62
     5
 10
973.16412528859985
 20
28.752576792900001
 30
0.0
 40
0.8
 50
180.0
 51
270.0
  0
LINE
  5
4E3
  8
ﾚｲﾔ_1
 62
     5
 10
972.36412528860001
 20
28.752576792900001
 30
0.0
 11
972.36412528860001
 21
36.1525767929
 31
0.0
  0
ARC
  5
4E4
  8
ﾚｲﾔ_1
 62
     5
 10
973.16412528859985
 20
36.1525767929
 30
0.0
 40
0.8
 50
90.0
 51
180.0
  0
LINE
  5
4E5
  8
ﾚｲﾔ_1
 62
     5
 10
973.16412528859985
 20
36.952576792899997
 30
0.0
 11
987.36412528860012
 21
36.952576792899997
 31
0.0
  0
LINE
  5
4E6
  8
ﾚｲﾔ_1
 62
     5
 10
973.16412528859985
 20
28.752576792900001
 30
0.0
 11
978.36412528859989
 21
28.752576792900001
 31
0.0
  0
LINE
  5
4E7
  8
ﾚｲﾔ_1
 62
     5
 10
978.36412528859989
 20
27.9525767929
 30
0.0
 11
973.16412528859985
 21
27.9525767929
 31
0.0
  0
LINE
  5
4E8
  8
ﾚｲﾔ_1
 62
     5
 10
987.36412528860012
 20
36.1525767929
 30
0.0
 11
973.16412528859985
 21
36.1525767929
 31
0.0
  0
ENDBLK
  5
4E9
  8
0
  0
BLOCK
  8
0
  2
CLUMP5
 70
     0
 10
0.0
 20
0.0
 30
0.0
  3
CLUMP5
  1

  0
LINE
  5
4F9
  8
ﾚｲﾔ_1
 62
     5
 10
976.86412528860001
 20
218.5525767929
 30
0.0
 11
1001.5641252886001
 21
218.5525767929
 31
0.0
  0
LINE
  5
4FA
  8
ﾚｲﾔ_1
 62
     5
 10
976.86412528860001
 20
218.5525767929
 30
0.0
 11
976.86412528860001
 21
217.75257679289999
 31
0.0
  0
LINE
  5
4FB
  8
ﾚｲﾔ_1
 62
     5
 10
1001.5641252886001
 20
211.25257679289999
 30
0.0
 11
988.16412528859996
 21
211.25257679289999
 31
0.0
  0
LINE
  5
4FC
  8
ﾚｲﾔ_1
 62
     5
 10
1001.5641252886001
 20
225.15257679289999
 30
0.0
 11
1001.5641252886001
 21
211.25257679289999
 31
0.0
  0
ARC
  5
4FD
  8
ﾚｲﾔ_1
 62
     5
 10
1001.5641252886001
 20
225.15257679289999
 30
0.0
 40
0.8
 50
0.0
 51
90.0
  0
LINE
  5
4FE
  8
ﾚｲﾔ_1
 62
     5
 10
1002.3641252886
 20
211.25257679289999
 30
0.0
 11
1002.3641252886
 21
225.15257679289999
 31
0.0
  0
ARC
  5
4FF
  8
ﾚｲﾔ_1
 62
     5
 10
1001.5641252886001
 20
211.25257679289999
 30
0.0
 40
0.8
 50
270.0
 51
0.0
  0
LINE
  5
500
  8
ﾚｲﾔ_1
 62
     5
 10
988.16412528859996
 20
210.4525767929
 30
0.0
 11
1001.5641252886001
 21
210.4525767929
 31
0.0
  0
LINE
  5
501
  8
ﾚｲﾔ_1
 62
     5
 10
987.36412528860012
 20
216.9525767929
 30
0.0
 11
987.36412528860012
 21
211.25257679289999
 31
0.0
  0
ARC
  5
502
  8
ﾚｲﾔ_1
 62
     5
 10
988.16412528859996
 20
211.25257679289999
 30
0.0
 40
0.8
 50
180.0
 51
270.0
  0
LINE
  5
503
  8
ﾚｲﾔ_1
 62
     5
 10
988.16412528859996
 20
211.25257679289999
 30
0.0
 11
988.16412528859996
 21
216.9525767929
 31
0.0
  0
LINE
  5
504
  8
ﾚｲﾔ_1
 62
     5
 10
996.36412528860001
 20
225.15257679289999
 30
0.0
 11
1001.5641252886001
 21
225.15257679289999
 31
0.0
  0
LINE
  5
505
  8
ﾚｲﾔ_1
 62
     5
 10
996.36412528860001
 20
225.9525767929
 30
0.0
 11
996.36412528860001
 21
225.15257679289999
 31
0.0
  0
LINE
  5
506
  8
ﾚｲﾔ_1
 62
     5
 10
978.36412528859989
 20
225.15257679289999
 30
0.0
 11
978.36412528859989
 21
218.5525767929
 31
0.0
  0
LINE
  5
507
  8
ﾚｲﾔ_1
 62
     5
 10
987.36412528860012
 20
217.75257679289999
 30
0.0
 11
1001.5641252886001
 21
217.75257679289999
 31
0.0
  0
LINE
  5
508
  8
ﾚｲﾔ_1
 62
     5
 10
978.36412528859989
 20
225.15257679289999
 30
0.0
 11
978.36412528859989
 21
225.9525767929
 31
0.0
  0
LINE
  5
509
  8
ﾚｲﾔ_1
 62
     5
 10
1001.5641252886001
 20
225.9525767929
 30
0.0
 11
996.36412528860001
 21
225.9525767929
 31
0.0
  0
ARC
  5
50A
  8
ﾚｲﾔ_1
 62
     5
 10
987.36412528860012
 20
216.9525767929
 30
0.0
 40
0.8
 50
0.0
 51
90.0
  0
ARC
  5
50B
  8
ﾚｲﾔ_1
 62
     5
 10
973.16412528859985
 20
217.75257679289999
 30
0.0
 40
0.8
 50
180.0
 51
270.0
  0
LINE
  5
50C
  8
ﾚｲﾔ_1
 62
     5
 10
973.16412528859985
 20
217.75257679289999
 30
0.0
 11
973.16412528859985
 21
225.15257679289999
 31
0.0
  0
ARC
  5
50D
  8
ﾚｲﾔ_1
 62
     5
 10
973.16412528859985
 20
225.15257679289999
 30
0.0
 40
0.8
 50
90.0
 51
180.0
  0
LINE
  5
50E
  8
ﾚｲﾔ_1
 62
     5
 10
972.36412528860001
 20
225.15257679289999
 30
0.0
 11
972.36412528860001
 21
217.75257679289999
 31
0.0
  0
LINE
  5
50F
  8
ﾚｲﾔ_1
 62
     5
 10
973.16412528859985
 20
225.15257679289999
 30
0.0
 11
978.36412528859989
 21
225.15257679289999
 31
0.0
  0
LINE
  5
510
  8
ﾚｲﾔ_1
 62
     5
 10
978.36412528859989
 20
225.9525767929
 30
0.0
 11
973.16412528859985
 21
225.9525767929
 31
0.0
  0
LINE
  5
511
  8
ﾚｲﾔ_1
 62
     5
 10
987.36412528860012
 20
217.75257679289999
 30
0.0
 11
973.16412528859985
 21
217.75257679289999
 31
0.0
  0
LINE
  5
512
  8
ﾚｲﾔ_1
 62
     5
 10
973.16412528859985
 20
216.9525767929
 30
0.0
 11
987.36412528860012
 21
216.9525767929
 31
0.0
  0
ENDBLK
  5
513
  8
0
  0
BLOCK
  8
0
  2
CLUMP6
 70
     0
 10
0.0
 20
0.0
 30
0.0
  3
CLUMP6
  1

  0
LINE
  5
523
  8
ﾚｲﾔ_1
 62
     5
 10
1086.4963518510999
 20
217.7521054387
 30
0.0
 11
1086.4963518510999
 21
218.55210543870001
 31
0.0
  0
LINE
  5
524
  8
ﾚｲﾔ_1
 62
     5
 10
1080.5963518511001
 20
225.1521054387
 30
0.0
 11
1080.5963518511001
 21
217.7521054387
 31
0.0
  0
LINE
  5
525
  8
ﾚｲﾔ_1
 62
     5
 10
1085.7963518511001
 20
225.1521054387
 30
0.0
 11
1080.5963518511001
 21
225.1521054387
 31
0.0
  0
LINE
  5
526
  8
ﾚｲﾔ_1
 62
     5
 10
1085.7963518511001
 20
225.1521054387
 30
0.0
 11
1085.7963518511001
 21
225.95210543869999
 31
0.0
  0
LINE
  5
527
  8
ﾚｲﾔ_1
 62
     5
 10
1085.7963518511001
 20
225.95210543869999
 30
0.0
 11
1080.5963518511001
 21
225.95210543869999
 31
0.0
  0
ARC
  5
528
  8
ﾚｲﾔ_1
 62
     5
 10
1080.5963518511001
 20
225.1521054387
 30
0.0
 40
0.8
 50
90.0
 51
180.0
  0
LINE
  5
529
  8
ﾚｲﾔ_1
 62
     5
 10
1079.7963518511001
 20
225.1521054387
 30
0.0
 11
1079.7963518511001
 21
217.7521054387
 31
0.0
  0
ARC
  5
52A
  8
ﾚｲﾔ_1
 62
     5
 10
1080.5963518511001
 20
217.7521054387
 30
0.0
 40
0.8
 50
180.0
 51
270.0
  0
LINE
  5
52B
  8
ﾚｲﾔ_1
 62
     5
 10
1128.7963518511001
 20
225.95210543869999
 30
0.0
 11
1128.7963518511001
 21
225.1521054387
 31
0.0
  0
LINE
  5
52C
  8
ﾚｲﾔ_1
 62
     5
 10
1133.9963518510999
 20
225.1521054387
 30
0.0
 11
1128.7963518511001
 21
225.1521054387
 31
0.0
  0
LINE
  5
52D
  8
ﾚｲﾔ_1
 62
     5
 10
1133.9963518510999
 20
212.7521054387
 30
0.0
 11
1133.9963518510999
 21
225.1521054387
 31
0.0
  0
LINE
  5
52E
  8
ﾚｲﾔ_1
 62
     5
 10
1105.5963518511001
 20
212.7521054387
 30
0.0
 11
1133.9963518510999
 21
212.7521054387
 31
0.0
  0
LINE
  5
52F
  8
ﾚｲﾔ_1
 62
     5
 10
1080.5963518511001
 20
216.95210543869999
 30
0.0
 11
1104.7963518511001
 21
216.95210543869999
 31
0.0
  0
LINE
  5
530
  8
ﾚｲﾔ_1
 62
     5
 10
1080.5963518511001
 20
217.7521054387
 30
0.0
 11
1104.7963518511001
 21
217.7521054387
 31
0.0
  0
LINE
  5
531
  8
ﾚｲﾔ_1
 62
     5
 10
1105.5963518511001
 20
216.95210543869999
 30
0.0
 11
1105.5963518511001
 21
212.7521054387
 31
0.0
  0
ARC
  5
532
  8
ﾚｲﾔ_1
 62
     5
 10
1104.7963518511001
 20
216.95210543869999
 30
0.0
 40
0.8
 50
0.0
 51
90.0
  0
LINE
  5
533
  8
ﾚｲﾔ_1
 62
     5
 10
1104.7963518511001
 20
216.95210543869999
 30
0.0
 11
1104.7963518511001
 21
212.7521054387
 31
0.0
  0
ARC
  5
534
  8
ﾚｲﾔ_1
 62
     5
 10
1105.5963518511001
 20
212.7521054387
 30
0.0
 40
0.8
 50
180.0
 51
270.0
  0
LINE
  5
535
  8
ﾚｲﾔ_1
 62
     5
 10
1105.5963518511001
 20
211.95210543869999
 30
0.0
 11
1133.9963518510999
 21
211.95210543869999
 31
0.0
  0
ARC
  5
536
  8
ﾚｲﾔ_1
 62
     5
 10
1133.9963518510999
 20
212.7521054387
 30
0.0
 40
0.8
 50
270.0
 51
0.0
  0
LINE
  5
537
  8
ﾚｲﾔ_1
 62
     5
 10
1133.9963518510999
 20
225.95210543869999
 30
0.0
 11
1128.7963518511001
 21
225.95210543869999
 31
0.0
  0
LINE
  5
538
  8
ﾚｲﾔ_1
 62
     5
 10
1134.7963518511001
 20
212.7521054387
 30
0.0
 11
1134.7963518511001
 21
225.1521054387
 31
0.0
  0
ARC
  5
539
  8
ﾚｲﾔ_1
 62
     5
 10
1133.9963518510999
 20
225.1521054387
 30
0.0
 40
0.8
 50
0.0
 51
90.0
  0
LINE
  5
53A
  8
ﾚｲﾔ_1
 62
     5
 10
1086.4963518510999
 20
218.55210543870001
 30
0.0
 11
1133.9963518510999
 21
218.55210543870001
 31
0.0
  0
LINE
  5
53B
  8
ﾚｲﾔ_1
 62
     5
 10
1104.7963518511001
 20
217.7521054387
 30
0.0
 11
1133.9963518510999
 21
217.7521054387
 31
0.0
  0
ENDBLK
  5
53C
  8
0
  0
BLOCK
  8
0
  2
*D49
 70
     1
 10
0.0
 20
0.0
 30
0.0
  3
*D49
  1

  0
TEXT
  5
545
  8
0
 62
     0
 10
1114.9456571947001
 20
244.04348803760001
 30
0.0
 40
8.2461809158000001
  1
30
  0
LINE
  5
546
  8
0
 62
     0
 10
1134.7963518511001
 20
227.95210543869999
 30
0.0
 11
1134.7963518511001
 21
242.58827964069999
 31
0.0
  0
LINE
  5
547
  8
0
 62
     0
 10
1104.7963518511001
 20
218.95210543869999
 30
0.0
 11
1104.7963518511001
 21
242.58827964069999
 31
0.0
  0
LINE
  5
548
  8
0
 62
     0
 10
1134.7963518511001
 20
241.58827964069999
 30
0.0
 11
1129.4977411637999
 21
241.58827964069999
 31
0.0
  0
LINE
  5
549
  8
0
 62
     0
 10
1134.7963518511001
 20
241.58827964069999
 30
0.0
 11
1110.0949625383
 21
241.58827964069999
 31
0.0
  0
LINE
  5
54A
  8
0
 62
     0
 10
1104.7963518511001
 20
241.58827964069999
 30
0.0
 11
1129.4977411637999
 21
241.58827964069999
 31
0.0
  0
LINE
  5
54B
  8
0
 62
     0
 10
1104.7963518511001
 20
241.58827964069999
 30
0.0
 11
1110.0949625383
 21
241.58827964069999
 31
0.0
  0
LINE
  5
54C
  8
0
 62
     0
 10
1104.7963518511001
 20
241.58827964069999
 30
0.0
 11
1096.7963518511001
 21
241.58827964069999
 31
0.0
  0
SOLID
  5
54D
  8
0
 62
     0
 10
1104.7963518511001
 20
241.58827964069999
 30
0.0
 11
1097.2963518511001
 21
239.71327964069999
 31
0.0
 12
1097.2963518511001
 22
243.46327964069999
 32
0.0
 13
1099.1713518511001
 23
241.58827964069999
 33
0.0
  0
LINE
  5
54E
  8
0
 62
     0
 10
1134.7963518511001
 20
241.58827964069999
 30
0.0
 11
1142.7963518511001
 21
241.58827964069999
 31
0.0
  0
SOLID
  5
54F
  8
0
 62
     0
 10
1134.7963518511001
 20
241.58827964069999
 30
0.0
 11
1142.2963518511001
 21
243.46327964069999
 31
0.0
 12
1142.2963518511001
 22
239.71327964069999
 32
0.0
 13
1140.4213518511001
 23
241.58827964069999
 33
0.0
  0
ENDBLK
  5
550
  8
0
  0
BLOCK
  8
0
  2
*D50
 70
     1
 10
0.0
 20
0.0
 30
0.0
  3
*D50
  1

  0
TEXT
  5
554
  8
0
 62
     0
 10
1153.7560547242999
 20
214.10141078230001
 30
0.0
 40
8.2461809158000001
  1
14
 50
90.0
  0
LINE
  5
555
  8
0
 62
     0
 10
1136.7963518511001
 20
211.95210543869999
 30
0.0
 11
1157.2112631212001
 21
211.95210543869999
 31
0.0
  0
LINE
  5
556
  8
0
 62
     0
 10
1136.7963518511001
 20
225.95210543869999
 30
0.0
 11
1157.2112631212001
 21
225.95210543869999
 31
0.0
  0
LINE
  5
557
  8
0
 62
     0
 10
1156.2112631212001
 20
211.95210543869999
 30
0.0
 11
1156.2112631212001
 21
211.95210543869999
 31
0.0
  0
LINE
  5
558
  8
0
 62
     0
 10
1156.2112631212001
 20
211.95210543869999
 30
0.0
 11
1156.2112631212001
 21
225.95210543869999
 31
0.0
  0
LINE
  5
559
  8
0
 62
     0
 10
1156.2112631212001
 20
225.95210543869999
 30
0.0
 11
1156.2112631212001
 21
211.95210543869999
 31
0.0
  0
LINE
  5
55A
  8
0
 62
     0
 10
1156.2112631212001
 20
225.95210543869999
 30
0.0
 11
1156.2112631212001
 21
225.95210543869999
 31
0.0
  0
LINE
  5
55B
  8
0
 62
     0
 10
1156.2112631212001
 20
225.95210543869999
 30
0.0
 11
1156.2112631212001
 21
233.95210543869999
 31
0.0
  0
SOLID
  5
55C
  8
0
 62
     0
 10
1156.2112631212001
 20
225.95210543869999
 30
0.0
 11
1154.3362631212001
 21
233.45210543869999
 31
0.0
 12
1158.0862631212001
 22
233.45210543869999
 32
0.0
 13
1156.2112631212001
 23
231.57710543869999
 33
0.0
  0
LINE
  5
55D
  8
0
 62
     0
 10
1156.2112631212001
 20
211.95210543869999
 30
0.0
 11
1156.2112631212001
 21
203.95210543869999
 31
0.0
  0
SOLID
  5
55E
  8
0
 62
     0
 10
1156.2112631212001
 20
211.95210543869999
 30
0.0
 11
1158.0862631212001
 21
204.45210543869999
 31
0.0
 12
1154.3362631212001
 22
204.45210543869999
 32
0.0
 13
1156.2112631212001
 23
206.32710543869999
 33
0.0
  0
ENDBLK
  5
55F
  8
0
  0
BLOCK
  8
0
  2
*D51
 70
     1
 10
0.0
 20
0.0
 30
0.0
  3
*D51
  1

  0
TEXT
  5
563
  8
0
 62
     0
 10
1087.4456571947001
 20
244.04348803760001
 30
0.0
 40
8.2461809158000001
  1
25
  0
LINE
  5
564
  8
0
 62
     0
 10
1104.7963518511001
 20
218.95210543869999
 30
0.0
 11
1104.7963518511001
 21
242.58827964069999
 31
0.0
  0
LINE
  5
565
  8
0
 62
     0
 10
1079.7963518511001
 20
227.95210543869999
 30
0.0
 11
1079.7963518511001
 21
242.58827964069999
 31
0.0
  0
LINE
  5
566
  8
0
 62
     0
 10
1104.7963518511001
 20
241.58827964069999
 30
0.0
 11
1101.9977411637999
 21
241.58827964069999
 31
0.0
  0
LINE
  5
567
  8
0
 62
     0
 10
1104.7963518511001
 20
241.58827964069999
 30
0.0
 11
1082.5949625383
 21
241.58827964069999
 31
0.0
  0
LINE
  5
568
  8
0
 62
     0
 10
1079.7963518511001
 20
241.58827964069999
 30
0.0
 11
1101.9977411637999
 21
241.58827964069999
 31
0.0
  0
LINE
  5
569
  8
0
 62
     0
 10
1079.7963518511001
 20
241.58827964069999
 30
0.0
 11
1082.5949625383
 21
241.58827964069999
 31
0.0
  0
LINE
  5
56A
  8
0
 62
     0
 10
1079.7963518511001
 20
241.58827964069999
 30
0.0
 11
1071.7963518511001
 21
241.58827964069999
 31
0.0
  0
SOLID
  5
56B
  8
0
 62
     0
 10
1079.7963518511001
 20
241.58827964069999
 30
0.0
 11
1072.2963518511001
 21
239.71327964069999
 31
0.0
 12
1072.2963518511001
 22
243.46327964069999
 32
0.0
 13
1074.1713518511001
 23
241.58827964069999
 33
0.0
  0
LINE
  5
56C
  8
0
 62
     0
 10
1104.7963518511001
 20
241.58827964069999
 30
0.0
 11
1112.7963518511001
 21
241.58827964069999
 31
0.0
  0
SOLID
  5
56D
  8
0
 62
     0
 10
1104.7963518511001
 20
241.58827964069999
 30
0.0
 11
1112.2963518511001
 21
243.46327964069999
 31
0.0
 12
1112.2963518511001
 22
239.71327964069999
 32
0.0
 13
1110.4213518511001
 23
241.58827964069999
 33
0.0
  0
ENDBLK
  5
56E
  8
0
  0
BLOCK
  8
0
  2
*D52
 70
     1
 10
0.0
 20
0.0
 30
0.0
  3
*D52
  1

  0
TEXT
  5
572
  8
0
 62
     0
 10
1102.4456571947001
 20
257.57990523569998
 30
0.0
 40
8.2461809158000001
  1
55
  0
LINE
  5
573
  8
0
 62
     0
 10
1134.7963518511001
 20
227.1521054387
 30
0.0
 11
1134.7963518511001
 21
256.12469683879999
 31
0.0
  0
LINE
  5
574
  8
0
 62
     0
 10
1079.7963518511001
 20
227.1521054387
 30
0.0
 11
1079.7963518511001
 21
256.12469683879999
 31
0.0
  0
LINE
  5
575
  8
0
 62
     0
 10
1134.7963518511001
 20
255.12469683879999
 30
0.0
 11
1116.9977411637999
 21
255.12469683879999
 31
0.0
  0
LINE
  5
576
  8
0
 62
     0
 10
1134.7963518511001
 20
255.12469683879999
 30
0.0
 11
1097.5949625383
 21
255.12469683879999
 31
0.0
  0
LINE
  5
577
  8
0
 62
     0
 10
1079.7963518511001
 20
255.12469683879999
 30
0.0
 11
1116.9977411637999
 21
255.12469683879999
 31
0.0
  0
LINE
  5
578
  8
0
 62
     0
 10
1079.7963518511001
 20
255.12469683879999
 30
0.0
 11
1097.5949625383
 21
255.12469683879999
 31
0.0
  0
LINE
  5
579
  8
0
 62
     0
 10
1079.7963518511001
 20
255.12469683879999
 30
0.0
 11
1087.7963518511001
 21
255.12469683879999
 31
0.0
  0
SOLID
  5
57A
  8
0
 62
     0
 10
1079.7963518511001
 20
255.12469683879999
 30
0.0
 11
1087.2963518511001
 21
256.99969683879999
 31
0.0
 12
1087.2963518511001
 22
253.24969683879999
 32
0.0
 13
1085.4213518511001
 23
255.12469683879999
 33
0.0
  0
LINE
  5
57B
  8
0
 62
     0
 10
1134.7963518511001
 20
255.12469683879999
 30
0.0
 11
1126.7963518511001
 21
255.12469683879999
 31
0.0
  0
SOLID
  5
57C
  8
0
 62
     0
 10
1134.7963518511001
 20
255.12469683879999
 30
0.0
 11
1127.2963518511001
 21
253.24969683879999
 31
0.0
 12
1127.2963518511001
 22
256.99969683879999
 32
0.0
 13
1129.1713518511001
 23
255.12469683879999
 33
0.0
  0
ENDBLK
  5
57D
  8
0
  0
BLOCK
  8
0
  2
CLUMP7
 70
     0
 10
0.0
 20
0.0
 30
0.0
  3
CLUMP7
  1

  0
LINE
  5
582
  8
ﾚｲﾔ_1
 62
     5
 10
1086.4963518510999
 20
36.153048147
 30
0.0
 11
1086.4963518510999
 21
35.353048147000003
 31
0.0
  0
LINE
  5
583
  8
ﾚｲﾔ_1
 62
     5
 10
1080.5963518511001
 20
28.753048147000001
 30
0.0
 11
1080.5963518511001
 21
36.153048147
 31
0.0
  0
LINE
  5
584
  8
ﾚｲﾔ_1
 62
     5
 10
1085.7963518511001
 20
28.753048147000001
 30
0.0
 11
1080.5963518511001
 21
28.753048147000001
 31
0.0
  0
LINE
  5
585
  8
ﾚｲﾔ_1
 62
     5
 10
1085.7963518511001
 20
28.753048147000001
 30
0.0
 11
1085.7963518511001
 21
27.953048147000001
 31
0.0
  0
LINE
  5
586
  8
ﾚｲﾔ_1
 62
     5
 10
1085.7963518511001
 20
27.953048147000001
 30
0.0
 11
1080.5963518511001
 21
27.953048147000001
 31
0.0
  0
ARC
  5
587
  8
ﾚｲﾔ_1
 62
     5
 10
1080.5963518511001
 20
28.753048147000001
 30
0.0
 40
0.8
 50
180.0
 51
270.0
  0
LINE
  5
588
  8
ﾚｲﾔ_1
 62
     5
 10
1079.7963518511001
 20
28.753048147000001
 30
0.0
 11
1079.7963518511001
 21
36.153048147
 31
0.0
  0
ARC
  5
589
  8
ﾚｲﾔ_1
 62
     5
 10
1080.5963518511001
 20
36.153048147
 30
0.0
 40
0.8
 50
90.0
 51
180.0
  0
LINE
  5
58A
  8
ﾚｲﾔ_1
 62
     5
 10
1128.7963518511001
 20
27.953048147000001
 30
0.0
 11
1128.7963518511001
 21
28.753048147000001
 31
0.0
  0
LINE
  5
58B
  8
ﾚｲﾔ_1
 62
     5
 10
1133.9963518510999
 20
28.753048147000001
 30
0.0
 11
1128.7963518511001
 21
28.753048147000001
 31
0.0
  0
LINE
  5
58C
  8
ﾚｲﾔ_1
 62
     5
 10
1133.9963518510999
 20
41.153048146999993
 30
0.0
 11
1133.9963518510999
 21
28.753048147000001
 31
0.0
  0
LINE
  5
58D
  8
ﾚｲﾔ_1
 62
     5
 10
1105.5963518511001
 20
41.153048146999993
 30
0.0
 11
1133.9963518510999
 21
41.153048146999993
 31
0.0
  0
LINE
  5
58E
  8
ﾚｲﾔ_1
 62
     5
 10
1080.5963518511001
 20
36.953048146999997
 30
0.0
 11
1104.7963518511001
 21
36.953048146999997
 31
0.0
  0
LINE
  5
58F
  8
ﾚｲﾔ_1
 62
     5
 10
1080.5963518511001
 20
36.153048147
 30
0.0
 11
1104.7963518511001
 21
36.153048147
 31
0.0
  0
LINE
  5
590
  8
ﾚｲﾔ_1
 62
     5
 10
1105.5963518511001
 20
36.953048146999997
 30
0.0
 11
1105.5963518511001
 21
41.153048146999993
 31
0.0
  0
ARC
  5
591
  8
ﾚｲﾔ_1
 62
     5
 10
1104.7963518511001
 20
36.953048146999997
 30
0.0
 40
0.8
 50
270.0
 51
0.0
  0
LINE
  5
592
  8
ﾚｲﾔ_1
 62
     5
 10
1104.7963518511001
 20
36.953048146999997
 30
0.0
 11
1104.7963518511001
 21
41.153048146999993
 31
0.0
  0
ARC
  5
593
  8
ﾚｲﾔ_1
 62
     5
 10
1105.5963518511001
 20
41.153048146999993
 30
0.0
 40
0.8
 50
90.0
 51
180.0
  0
LINE
  5
594
  8
ﾚｲﾔ_1
 62
     5
 10
1105.5963518511001
 20
41.953048146999997
 30
0.0
 11
1133.9963518510999
 21
41.953048146999997
 31
0.0
  0
ARC
  5
595
  8
ﾚｲﾔ_1
 62
     5
 10
1133.9963518510999
 20
41.153048146999993
 30
0.0
 40
0.8
 50
0.0
 51
90.0
  0
LINE
  5
596
  8
ﾚｲﾔ_1
 62
     5
 10
1133.9963518510999
 20
27.953048147000001
 30
0.0
 11
1128.7963518511001
 21
27.953048147000001
 31
0.0
  0
LINE
  5
597
  8
ﾚｲﾔ_1
 62
     5
 10
1134.7963518511001
 20
41.153048146999993
 30
0.0
 11
1134.7963518511001
 21
28.753048147000001
 31
0.0
  0
ARC
  5
598
  8
ﾚｲﾔ_1
 62
     5
 10
1133.9963518510999
 20
28.753048147000001
 30
0.0
 40
0.8
 50
270.0
 51
0.0
  0
LINE
  5
599
  8
ﾚｲﾔ_1
 62
     5
 10
1086.4963518510999
 20
35.353048147000003
 30
0.0
 11
1133.9963518510999
 21
35.353048147000003
 31
0.0
  0
LINE
  5
59A
  8
ﾚｲﾔ_1
 62
     5
 10
1104.7963518511001
 20
36.153048147
 30
0.0
 11
1133.9963518510999
 21
36.153048147
 31
0.0
  0
ENDBLK
  5
59B
  8
0
  0
BLOCK
  8
0
  2
*D54
 70
     1
 10
0.0
 20
0.0
 30
0.0
  3
*D54
  1

  0
TEXT
  5
5A3
  8
0
 62
     0
 10
1153.7560547242999
 20
30.102353490599999
 30
0.0
 40
8.2461809158000001
  1
14
 50
90.0
  0
LINE
  5
5A4
  8
0
 62
     0
 10
1136.7963518511001
 20
27.953048147000001
 30
0.0
 11
1157.2112631212001
 21
27.953048147000001
 31
0.0
  0
LINE
  5
5A5
  8
0
 62
     0
 10
1136.7963518511001
 20
41.953048146999997
 30
0.0
 11
1157.2112631212001
 21
41.953048146999997
 31
0.0
  0
LINE
  5
5A6
  8
0
 62
     0
 10
1156.2112631212001
 20
27.953048147000001
 30
0.0
 11
1156.2112631212001
 21
27.953048147000001
 31
0.0
  0
LINE
  5
5A7
  8
0
 62
     0
 10
1156.2112631212001
 20
27.953048147000001
 30
0.0
 11
1156.2112631212001
 21
41.953048146999997
 31
0.0
  0
LINE
  5
5A8
  8
0
 62
     0
 10
1156.2112631212001
 20
41.953048146999997
 30
0.0
 11
1156.2112631212001
 21
27.953048147000001
 31
0.0
  0
LINE
  5
5A9
  8
0
 62
     0
 10
1156.2112631212001
 20
41.953048146999997
 30
0.0
 11
1156.2112631212001
 21
41.953048146999997
 31
0.0
  0
LINE
  5
5AA
  8
0
 62
     0
 10
1156.2112631212001
 20
41.953048146999997
 30
0.0
 11
1156.2112631212001
 21
49.95304814699999
 31
0.0
  0
SOLID
  5
5AB
  8
0
 62
     0
 10
1156.2112631212001
 20
41.953048146999997
 30
0.0
 11
1154.3362631212001
 21
49.453048146999997
 31
0.0
 12
1158.0862631212001
 22
49.453048146999997
 32
0.0
 13
1156.2112631212001
 23
47.578048146999997
 33
0.0
  0
LINE
  5
5AC
  8
0
 62
     0
 10
1156.2112631212001
 20
27.953048147000001
 30
0.0
 11
1156.2112631212001
 21
19.953048147000001
 31
0.0
  0
SOLID
  5
5AD
  8
0
 62
     0
 10
1156.2112631212001
 20
27.953048147000001
 30
0.0
 11
1158.0862631212001
 21
20.453048147000001
 31
0.0
 12
1154.3362631212001
 22
20.453048147000001
 32
0.0
 13
1156.2112631212001
 23
22.328048147000001
 33
0.0
  0
ENDBLK
  5
5AE
  8
0
  0
BLOCK
  8
0
  2
*U55
 70
     1
 10
0.0
 20
0.0
 30
0.0
  3
*U55
  1

  0
TEXT
  5
5D1
  8
ﾚｲﾔ_1
  6
CONTINUOUS
 10
977.76219811099998
 20
-22.65822293208528
 30
0.0
 40
7.4965279578999988
  1
（浅型）
  0
ENDBLK
  5
5D3
  8
0
  0
BLOCK
  8
0
  2
*U56
 70
     1
 10
0.0
 20
0.0
 30
0.0
  3
*U56
  1

  0
TEXT
  5
5D5
  8
図枠
  6
CONTINUOUS
 10
1289.3324274834781
 20
287.12231080867508
 30
0.0
 40
6.7468748986999989
  1
改　訂　内　容
  0
ENDBLK
  5
5D7
  8
0
  0
BLOCK
  8
0
  2
*U57
 70
     1
 10
0.0
 20
0.0
 30
0.0
  3
*U57
  1

  0
TEXT
  5
5D9
  8
図枠
  6
CONTINUOUS
 10
1224.144839977351
 20
287.19080700054008
 30
0.0
 40
6.7468748986999989
  1
改訂日
  0
ENDBLK
  5
5DB
  8
0
  0
BLOCK
  8
0
  2
*U58
 70
     1
 10
0.0
 20
0.0
 30
0.0
  3
*U58
  1

  0
TEXT
  5
5DD
  8
図枠
  6
CONTINUOUS
 10
1198.5628443526421
 20
287.25930319240501
 30
0.0
 40
6.7468748986999989
  1
副番
  0
ENDBLK
  5
5DF
  8
0
  0
BLOCK
  8
0
  2
*U59
 70
     1
 10
0.0
 20
0.0
 30
0.0
  3
*U59
  1

  0
TEXT
  5
5E1
  8
図枠
  6
CONTINUOUS
 10
1083.1045923418999
 20
-396.0609579078091
 30
0.0
 40
13.4937497973
  1
株式会社
  0
ENDBLK
  5
5E3
  8
0
  0
BLOCK
  8
0
  2
*U60
 70
     1
 10
0.0
 20
0.0
 30
0.0
  3
*U60
  1

  0
TEXT
  5
5E5
  8
図枠
  6
CONTINUOUS
 10
1406.901700696845
 20
287.08806271274261
 30
0.0
 40
6.7468748986999989
  1
検認者
  0
ENDBLK
  5
5E7
  8
0
  0
BLOCK
  8
0
  2
*U61
 70
     1
 10
0.0
 20
0.0
 30
0.0
  3
*U61
  1

  0
TEXT
  5
5E9
  8
図枠
  6
CONTINUOUS
 10
1260.4177277169199
 20
-385.2256815220199
 30
0.0
 40
7.496527552599999
  1
図 番
  0
ENDBLK
  5
5EB
  8
0
  0
BLOCK
  8
0
  2
*U62
 70
     1
 10
0.0
 20
0.0
 30
0.0
  3
*U62
  1

  0
TEXT
  5
5ED
  8
図枠
  6
CONTINUOUS
 10
1257.8110671212189
 20
-330.37789527943301
 30
0.0
 40
7.496527552599999
  1
製品名
  0
ENDBLK
  5
5EF
  8
0
  0
BLOCK
  8
0
  2
*U63
 70
     1
 10
0.0
 20
0.0
 30
0.0
  3
*U63
  1

  0
TEXT
  5
5F1
  8
図枠
  6
CONTINUOUS
 10
1258.020361037662
 20
-357.80178840072642
 30
0.0
 40
7.496527552599999
  1
図面名
  0
ENDBLK
  5
5F3
  8
0
  0
BLOCK
  8
0
  2
*U64
 70
     1
 10
0.0
 20
0.0
 30
0.0
  3
*U64
  1

  0
TEXT
  5
5F5
  8
図枠
  6
CONTINUOUS
 10
1082.508375830093
 20
-331.17366661761309
 30
0.0
 40
7.496527552599999
  1
日　　付
  0
ENDBLK
  5
5F7
  8
0
  0
BLOCK
  8
0
  2
*U65
 70
     1
 10
0.0
 20
0.0
 30
0.0
  3
*U65
  1

  0
TEXT
  5
5F9
  8
図枠
  6
CONTINUOUS
 10
1144.2092536036739
 20
-331.4019872537329
 30
0.0
 40
7.496527552599999
  1
尺　　度
  0
ENDBLK
  5
5FB
  8
0
  0
BLOCK
  8
0
  2
*U66
 70
     1
 10
0.0
 20
0.0
 30
0.0
  3
*U66
  1

  0
TEXT
  5
5FD
  8
図枠
  6
CONTINUOUS
 10
1382.0044449846421
 20
287.12231080867508
 30
0.0
 40
6.7468748986999989
  1
改訂者
  0
ENDBLK
  5
5FF
  8
0
  0
BLOCK
  8
0
  2
*U67
 70
     1
 10
0.0
 20
0.0
 30
0.0
  3
*U67
  1

  0
TEXT
  5
601
  8
図枠
  6
CONTINUOUS
 10
1071.6221745552079
 20
-305.56568152201982
 30
0.0
 40
7.496527552599999
  1
品番
  0
ENDBLK
  5
603
  8
0
  0
BLOCK
  8
0
  2
*U68
 70
     1
 10
0.0
 20
0.0
 30
0.0
  3
*U68
  1

  0
TEXT
  5
605
  8
図枠
  6
CONTINUOUS
 10
1069.5050000000001
 20
-372.65198725373301
 30
0.0
 40
7.496527552599999
  1
 製図
  0
ENDBLK
  5
607
  8
0
  0
BLOCK
  8
0
  2
*U69
 70
     1
 10
0.0
 20
0.0
 30
0.0
  3
*U69
  1

  0
TEXT
  5
609
  8
図枠
  6
CONTINUOUS
 10
1069.5050000000001
 20
-358.82588037502637
 30
0.0
 40
7.496527552599999
  1
 設計
  0
ENDBLK
  5
60B
  8
0
  0
BLOCK
  8
0
  2
*U70
 70
     1
 10
0.0
 20
0.0
 30
0.0
  3
*U70
  1

  0
TEXT
  5
60D
  8
図枠
  6
CONTINUOUS
 10
1163.2550000000001
 20
-372.6900406930863
 30
0.0
 40
7.496527552599999
  1
 検図
  0
ENDBLK
  5
60F
  8
0
  0
BLOCK
  8
0
  2
*U71
 70
     1
 10
0.0
 20
0.0
 30
0.0
  3
*U71
  1

  0
TEXT
  5
611
  8
図枠
  6
CONTINUOUS
 10
1163.2550000000001
 20
-358.86393381437972
 30
0.0
 40
7.496527552599999
  1
 照査
  0
ENDBLK
  5
613
  8
0
  0
BLOCK
  8
0
  2
*U72
 70
     1
 10
0.0
 20
0.0
 30
0.0
  3
*U72
  1

  0
TEXT
  5
615
  8
図枠
  6
CONTINUOUS
 10
1333.874827199412
 20
-305.71789527943298
 30
0.0
 40
7.496527552599999
  1
数量
  0
ENDBLK
  5
617
  8
0
  0
BLOCK
  8
0
  2
*U73
 70
     1
 10
0.0
 20
0.0
 30
0.0
  3
*U73
  1

  0
TEXT
  5
619
  8
図枠
  6
CONTINUOUS
 10
1370.1565623125471
 20
-305.83205559749291
 30
0.0
 40
7.496527552599999
  1
備　　　考
  0
ENDBLK
  5
61B
  8
0
  0
BLOCK
  8
0
  2
*U74
 70
     1
 10
0.0
 20
0.0
 30
0.0
  3
*U74
  1

  0
TEXT
  5
61D
  8
図枠
  6
CONTINUOUS
 10
1250.512306487745
 20
-305.60373496137311
 30
0.0
 40
7.496527552599999
  1
材　　　質
  0
ENDBLK
  5
61F
  8
0
  0
BLOCK
  8
0
  2
*U75
 70
     1
 10
0.0
 20
0.0
 30
0.0
  3
*U75
  1

  0
TEXT
  5
621
  8
図枠
  6
CONTINUOUS
 10
1130.797707282894
 20
-305.6417884007264
 30
0.0
 40
7.496527552599999
  1
品　　　名
  0
ENDBLK
  5
623
  8
0
  0
BLOCK
  8
0
  2
*U76
 70
     1
 10
0.0
 20
0.0
 30
0.0
  3
*U76
  1

  0
TEXT
  5
625
  8
改訂
  6
CONTINUOUS
 10
1386.8676746070551
 20
274.96479176799988
 30
0.0
 40
6.7468748986999989
  1
＊＊
  0
ENDBLK
  5
627
  8
0
  0
BLOCK
  8
0
  2
*U77
 70
     1
 10
0.0
 20
0.0
 30
0.0
  3
*U77
  1

  0
TEXT
  5
629
  8
改訂
  6
CONTINUOUS
 10
1271.283680927058
 20
274.97104176800002
 30
0.0
 40
6.7468748986999989
  1
**********************
  0
ENDBLK
  5
62B
  8
0
  0
BLOCK
  8
0
  2
*U78
 70
     1
 10
0.0
 20
0.0
 30
0.0
  3
*U78
  1

  0
TEXT
  5
62D
  8
改訂
  6
CONTINUOUS
 10
1204.530509589096
 20
273.45381109980002
 30
0.0
 40
6.7468749188999988
  1
1
  0
ENDBLK
  5
62F
  8
0
  0
BLOCK
  8
0
  2
*U79
 70
     1
 10
0.0
 20
0.0
 30
0.0
  3
*U79
  1

  0
TEXT
  5
631
  8
改訂
  6
CONTINUOUS
 10
1217.1582284071239
 20
274.96479176799988
 30
0.0
 40
6.7468748986999989
  1
H**.**.**
  0
ENDBLK
  5
633
  8
0
  0
BLOCK
  8
0
  2
*U80
 70
     1
 10
0.0
 20
0.0
 30
0.0
  3
*U80
  1

  0
TEXT
  5
635
  8
図枠
  6
CONTINUOUS
 10
1247.8105122936599
 20
-280.33736088590001
 30
0.0
 40
7.496527552599999
  1
SUS304 0.8t
  0
ENDBLK
  5
637
  8
0
  0
BLOCK
  8
0
  2
*U81
 70
     1
 10
0.0
 20
0.0
 30
0.0
  3
*U81
  1

  0
TEXT
  5
639
  8
図枠
  6
CONTINUOUS
 10
1247.8105122936599
 20
-267.83736088590001
 30
0.0
 40
7.496527552599999
  1
SUS304 2.0t
  0
ENDBLK
  5
63B
  8
0
  0
BLOCK
  8
0
  2
*U82
 70
     1
 10
0.0
 20
0.0
 30
0.0
  3
*U82
  1

  0
TEXT
  5
63D
  8
図枠
  6
CONTINUOUS
 10
1210.833433800477
 20
-372.65198725373301
 30
0.0
 40
7.496527552599999
  1
柳 原
  0
ENDBLK
  5
63F
  8
0
  0
BLOCK
  8
0
  2
*U83
 70
     1
 10
0.0
 20
0.0
 30
0.0
  3
*U83
  1

  0
TEXT
  5
641
  8
図枠
  6
CONTINUOUS
 10
1210.833433800477
 20
-358.90198725373301
 30
0.0
 40
7.496527552599999
  1
柳 原
  0
ENDBLK
  5
643
  8
0
  0
BLOCK
  8
0
  2
*U84
 70
     1
 10
0.0
 20
0.0
 30
0.0
  3
*U84
  1

  0
TEXT
  5
645
  8
図枠
  6
CONTINUOUS
 10
1247.8105122936599
 20
-292.83736088590001
 30
0.0
 40
7.496527552599999
  1
SUS304 0.8t
  0
ENDBLK
  5
647
  8
0
  0
BLOCK
  8
0
  2
*U85
 70
     1
 10
0.0
 20
0.0
 30
0.0
  3
*U85
  1

  0
TEXT
  5
649
  8
図枠
  6
CONTINUOUS
 10
1115.0285480753989
 20
-372.6900406930863
 30
0.0
 40
7.496527552599999
  1
白須賀
  0
ENDBLK
  5
64B
  8
0
  0
BLOCK
  8
0
  2
*U86
 70
     1
 10
0.0
 20
0.0
 30
0.0
  3
*U86
  1

  0
TEXT
  5
64D
  8
ﾚｲﾔ_1
  6
CONTINUOUS
 10
879.00317466579997
 20
-318.2275348029853
 30
0.0
 40
7.4965279578999988
  1
（浅型）
  0
ENDBLK
  5
64F
  8
0
  0
BLOCK
  8
0
  2
*U87
 70
     1
 10
0.0
 20
0.0
 30
0.0
  3
*U87
  1

  0
TEXT
  5
651
  8
ﾚｲﾔ_1
  6
CONTINUOUS
 10
606.98423850254665
 20
0.1334917612000002
 30
0.0
 40
8.2461809158000001
  1
2
  0
ENDBLK
  5
653
  8
0
  0
BLOCK
  8
0
  2
*U88
 70
     1
 10
0.0
 20
0.0
 30
0.0
  3
*U88
  1

  0
TEXT
  5
655
  8
ﾚｲﾔ_1
  6
CONTINUOUS
 10
645.37143039193506
 20
0.1334917612000002
 30
0.0
 40
8.2461809158000001
  1
1
  0
ENDBLK
  5
657
  8
0
  0
BLOCK
  8
0
  2
*U89
 70
     1
 10
0.0
 20
0.0
 30
0.0
  3
*U89
  1

  0
TEXT
  5
659
  8
ﾚｲﾔ_1
  6
CONTINUOUS
 10
707.64179044974662
 20
0.1334917612000002
 30
0.0
 40
8.2461809158000001
  1
3
  0
ENDBLK
  5
65B
  8
0
  0
BLOCK
  8
0
  2
*U90
 70
     1
 10
0.0
 20
0.0
 30
0.0
  3
*U90
  1

  0
TEXT
  5
65D
  8
ﾚｲﾔ_1
  6
CONTINUOUS
 10
707.64179044974662
 20
0.1334917612000002
 30
0.0
 40
8.2461809158000001
  1
3
  0
ENDBLK
  5
65F
  8
0
  0
BLOCK
  8
0
  2
*U91
 70
     1
 10
0.0
 20
0.0
 30
0.0
  3
*U91
  1

  0
TEXT
  5
661
  8
ﾚｲﾔ_1
  6
CONTINUOUS
 10
940.71269210219987
 20
-318.07532103734258
 30
0.0
 40
7.4965279578999988
  1
（深型）
  0
ENDBLK
  5
663
  8
0
  0
BLOCK
  8
0
  2
*U92
 70
     1
 10
0.0
 20
0.0
 30
0.0
  3
*U92
  1

  0
TEXT
  5
665
  8
ﾚｲﾔ_1
  6
CONTINUOUS
 10
648.41335731659592
 20
-105.3222702527959
 30
0.0
 40
7.4965279578999988
  1
28-小判穴
  0
ENDBLK
  5
667
  8
0
  0
BLOCK
  8
0
  2
*U93
 70
     1
 10
0.0
 20
0.0
 30
0.0
  3
*U93
  1

  0
TEXT
  5
669
  8
図枠
  6
CONTINUOUS
 10
1136.4105895875059
 20
-268.21789527943298
 30
0.0
 40
7.496527552599999
  1
蓋(目皿)
  0
ENDBLK
  5
66B
  8
0
  0
BLOCK
  8
0
  2
*U94
 70
     1
 10
0.0
 20
0.0
 30
0.0
  3
*U94
  1

  0
TEXT
  5
66D
  8
図枠
  6
CONTINUOUS
 10
1115.0285480753989
 20
-358.9400406930863
 30
0.0
 40
7.496527552599999
  1
白須賀
  0
ENDBLK
  5
66F
  8
0
  0
BLOCK
  8
0
  2
*U95
 70
     1
 10
0.0
 20
0.0
 30
0.0
  3
*U95
  1

  0
TEXT
  5
671
  8
図枠
  6
CONTINUOUS
 10
1086.2376128867161
 20
-344.78937121939998
 30
0.0
 40
7.496527552599999
  1
H09.07
  0
ENDBLK
  5
673
  8
0
  0
BLOCK
  8
0
  2
*U96
 70
     1
 10
0.0
 20
0.0
 30
0.0
  3
*U96
  1

  0
TEXT
  5
675
  8
図枠
  6
CONTINUOUS
 10
1078.357633320742
 20
-280.33736088590001
 30
0.0
 40
7.496527552599999
  1
2
  0
ENDBLK
  5
677
  8
0
  0
BLOCK
  8
0
  2
*U97
 70
     1
 10
0.0
 20
0.0
 30
0.0
  3
*U97
  1

  0
TEXT
  5
679
  8
図枠
  6
CONTINUOUS
 10
1078.795247873305
 20
-292.83736088590001
 30
0.0
 40
7.496527552599999
  1
1
  0
ENDBLK
  5
67B
  8
0
  0
BLOCK
  8
0
  2
*U98
 70
     1
 10
0.0
 20
0.0
 30
0.0
  3
*U98
  1

  0
TEXT
  5
67D
  8
図枠
  6
CONTINUOUS
 10
1078.395686760095
 20
-267.83736088590001
 30
0.0
 40
7.496527552599999
  1
3
  0
ENDBLK
  5
67F
  8
0
  0
BLOCK
  8
0
  2
*U99
 70
     1
 10
0.0
 20
0.0
 30
0.0
  3
*U99
  1

  0
TEXT
  5
681
  8
図枠
  6
CONTINUOUS
 10
1148.4522120915669
 20
-344.78937121939998
 30
0.0
 40
7.496527552599999
  1
1：2.5
  0
ENDBLK
  5
683
  8
0
  0
BLOCK
  8
0
  2
*U100
 70
     1
 10
0.0
 20
0.0
 30
0.0
  3
*U100
  1

  0
TEXT
  5
685
  8
図枠
  6
CONTINUOUS
 10
1137.9517538813141
 20
-293.25594871878633
 30
0.0
 40
7.496527552599999
  1
本   体
  0
ENDBLK
  5
687
  8
0
  0
BLOCK
  8
0
  2
*U101
 70
     1
 10
0.0
 20
0.0
 30
0.0
  3
*U101
  1

  0
TEXT
  5
689
  8
ﾚｲﾔ_1
  6
CONTINUOUS
 10
1094.7924714820001
 20
-22.506009166442642
 30
0.0
 40
7.4965279578999988
  1
（深型）
  0
ENDBLK
  5
68B
  8
0
  0
BLOCK
  8
0
  2
*U102
 70
     1
 10
0.0
 20
0.0
 30
0.0
  3
*U102
  1

  0
TEXT
  5
68D
  8
図枠
  6
CONTINUOUS
 10
1340.857633320742
 20
-280.33736088590001
 30
0.0
 40
7.496527552599999
  1
2
  0
ENDBLK
  5
68F
  8
0
  0
BLOCK
  8
0
  2
*U103
 70
     1
 10
0.0
 20
0.0
 30
0.0
  3
*U103
  1

  0
TEXT
  5
691
  8
図枠
  6
CONTINUOUS
 10
1341.295247873305
 20
-267.83736088590001
 30
0.0
 40
7.496527552599999
  1
1
  0
ENDBLK
  5
693
  8
0
  0
BLOCK
  8
0
  2
*U104
 70
     1
 10
0.0
 20
0.0
 30
0.0
  3
*U104
  1

  0
TEXT
  5
695
  8
図枠
  6
CONTINUOUS
 10
1291.0316427699499
 20
-338.91205745575428
 30
0.0
 40
8.9958328605000002
  1
ハイとーる(浅型 ・深型 )
  0
ENDBLK
  5
697
  8
0
  0
BLOCK
  8
0
  2
*U105
 70
     1
 10
0.0
 20
0.0
 30
0.0
  3
*U105
  1

  0
TEXT
  5
699
  8
図枠
  6
CONTINUOUS
 10
1331.353066200516
 20
-366.41205745575428
 30
0.0
 40
8.9958328605000002
  1
FM20-20(D)
  0
ENDBLK
  5
69B
  8
0
  0
BLOCK
  8
0
  2
*U106
 70
     1
 10
0.0
 20
0.0
 30
0.0
  3
*U106
  1

  0
TEXT
  5
69D
  8
図枠
  6
CONTINUOUS
 10
1340.857633320742
 20
-292.83736088590001
 30
0.0
 40
7.496527552599999
  1
2
  0
ENDBLK
  5
69F
  8
0
  0
BLOCK
  8
0
  2
*U107
 70
     1
 10
0.0
 20
0.0
 30
0.0
  3
*U107
  1

  0
TEXT
  5
6A1
  8
図枠
  6
CONTINUOUS
 10
1336.2847918296229
 20
-393.45541619379998
 30
0.0
 40
8.9958328605000002
  1
SHF00037
  0
ENDBLK
  5
6A3
  8
0
  0
BLOCK
  8
0
  2
*U108
 70
     1
 10
0.0
 20
0.0
 30
0.0
  3
*U108
  1

  0
TEXT
  5
6A5
  8
図枠
  6
CONTINUOUS
 10
1150.3571751104901
 20
-280.33736088590001
 30
0.0
 40
7.496527552599999
  1
耳
  0
ENDBLK
  5
6A7
  8
0
  0
ENDSEC
  0
SECTION
  2
ENTITIES
  0
ARC
  5
2F
  8
ﾚｲﾔ_1
 62
     5
 10
626.19616518040004
 20
-152.35251372799999
 30
0.0
 40
3.5
 50
90.0
 51
270.0
  0
LINE
  5
30
  8
ﾚｲﾔ_1
 62
     5
 10
944.79866518039989
 20
-117.35251372800001
 30
0.0
 11
944.79866518039989
 21
-292.35251372800002
 31
0.0
  0
LINE
  5
31
  8
ﾚｲﾔ_1
 62
     5
 10
946.79866518039989
 20
-117.35251372800001
 30
0.0
 11
946.79866518039989
 21
-292.35251372800002
 31
0.0
  0
LINE
  5
32
  8
ﾚｲﾔ_1
 62
     5
 10
891.81999330539986
 20
-292.35251372800002
 30
0.0
 11
891.81999330539986
 21
-117.35251372800001
 31
0.0
  0
LINE
  5
33
  8
ﾚｲﾔ_1
 62
     5
 10
889.81999330539998
 20
-117.3525150774
 30
0.0
 11
889.81999330539998
 21
-292.35251372800002
 31
0.0
  0
LINE
  5
34
  8
ﾚｲﾔ_1
 62
     5
 10
792.19616518039993
 20
-117.35251372800001
 30
0.0
 11
792.19616518039993
 21
-292.35251372800002
 31
0.0
  0
LINE
  5
35
  8
ﾚｲﾔ_1
  6
STITCH
 10
790.19616518039993
 20
-117.35251372800001
 30
0.0
 11
790.19616518039993
 21
-292.35251372800002
 31
0.0
  0
LINE
  5
36
  8
ﾚｲﾔ_1
  6
BORDER
 62
     3
 10
702.69616518039993
 20
-110.35251372800001
 30
0.0
 11
702.69616518039993
 21
-299.35251372800002
 31
0.0
  0
LINE
  5
37
  8
ﾚｲﾔ_1
 62
     5
 10
613.19616518040004
 20
-292.35251372800002
 30
0.0
 11
613.19616518040004
 21
-117.35251372800001
 31
0.0
  0
LINE
  5
38
  8
ﾚｲﾔ_1
  6
STITCH
 10
615.19616518040004
 20
-117.35251372800001
 30
0.0
 11
615.19616518040004
 21
-292.35251372800002
 31
0.0
  0
LINE
  5
39
  8
ﾚｲﾔ_1
 62
     5
 10
672.19616518040004
 20
-155.85251372799999
 30
0.0
 11
687.19616518039993
 21
-155.85251372799999
 31
0.0
  0
DIMENSION
  5
4A
  8
寸法線
  2
*D0
 10
837.39666566869994
 20
-294.35251372800002
 30
0.0
 11
837.39666566869994
 21
-204.85251372799999
 31
0.0
 70
   128
  1
<>
 13
790.19616518039993
 23
-294.35251372800002
 33
0.0
 14
790.19616518039993
 24
-115.35251372800001
 34
0.0
 50
90.0
  0
DIMENSION
  5
59
  8
寸法線
  2
*D1
 10
817.9081440926999
 20
-167.35251372799999
 30
0.0
 11
817.9081440926999
 21
-159.85251372799999
 31
0.0
 70
   128
  1
<>
 13
782.69616518039993
 23
-167.35251372799999
 33
0.0
 14
782.69616518039993
 24
-152.35251372799999
 34
0.0
 50
90.0
  0
INSERT
  5
5A
  8
0
  6
CONTINUOUS
  2
*U55
 10
0.0
 20
0.0
 30
0.0
  0
DIMENSION
  5
62
  8
寸法線
  2
*D2
 10
613.57546458460001
 20
-214.92208486179999
 30
0.0
 11
619.58537192760002
 21
-227.7836396431
 31
0.0
 70
   131
  1
2-Φ15
 15
626.96706672129994
 25
-208.16449711070001
 35
0.0
 40
0.0
  0
DIMENSION
  5
71
  8
寸法線
  2
*D3
 10
855.73611236789986
 20
257.7132121688
 30
0.0
 11
756.73611236789986
 21
257.7132121688
 31
0.0
 70
   128
  1
<>
 13
855.73611236789986
 23
225.9525767929
 33
0.0
 14
657.73611236789998
 24
225.9525767929
 34
0.0
  0
DIMENSION
  5
80
  8
寸法線
  2
*D4
 10
1025.2894270311001
 20
43.45257679289999
 30
0.0
 11
1025.2894270311001
 21
126.9525767929
 31
0.0
 70
   128
  1
<>
 13
1001.5641252886001
 23
43.45257679289999
 33
0.0
 14
1001.5641252886001
 24
210.4525767929
 34
0.0
 50
90.0
  0
DIMENSION
  5
8F
  8
寸法線
  2
*D5
 10
1025.3495676407999
 20
27.9525767929
 30
0.0
 11
1025.3495676407999
 21
9.9615871077999998
 31
0.0
 70
   128
  1
15.5
 13
1001.5641252886001
 23
27.9525767929
 33
0.0
 14
1001.5641252886001
 24
43.45257679289999
 34
0.0
 50
90.0
  0
DIMENSION
  5
9E
  8
寸法線
  2
*D6
 10
1025.3495676407999
 20
210.4525767929
 30
0.0
 11
1025.3495676407999
 21
243.6600257522
 31
0.0
 70
   128
  1
15.5
 13
1001.5641252886001
 23
210.4525767929
 33
0.0
 14
1001.5641252886001
 24
225.9525767929
 34
0.0
 50
90.0
  0
INSERT
  5
A1
  8
図枠
  2
CLUMP0
 10
0.0
 20
0.0
 30
0.0
  0
INSERT
  5
146
  8
0
  6
CONTINUOUS
  2
*U76
 10
0.0
 20
0.0
 30
0.0
  0
INSERT
  5
147
  8
0
  6
CONTINUOUS
  2
*U77
 10
0.0
 20
0.0
 30
0.0
  0
INSERT
  5
148
  8
0
  6
CONTINUOUS
  2
*U78
 10
0.0
 20
0.0
 30
0.0
  0
INSERT
  5
149
  8
0
  6
CONTINUOUS
  2
*U79
 10
0.0
 20
0.0
 30
0.0
  0
LINE
  5
14A
  8
ﾚｲﾔ_1
 62
     5
 10
792.19616518039993
 20
-365.00067939119998
 30
0.0
 11
790.19616518039993
 21
-365.00067939119998
 31
0.0
  0
LINE
  5
14B
  8
ﾚｲﾔ_1
 62
     5
 10
790.19616518039993
 20
-292.35251372800002
 30
0.0
 11
792.19616518039993
 21
-292.35251372800002
 31
0.0
  0
LINE
  5
14C
  8
ﾚｲﾔ_1
 62
     5
 10
790.19616518039993
 20
-353.00067939119998
 30
0.0
 11
790.19616518039993
 21
-365.00067939119998
 31
0.0
  0
LINE
  5
14D
  8
ﾚｲﾔ_1
  6
BORDER
 62
     3
 10
608.19616518040004
 20
-204.85251372799999
 30
0.0
 11
797.19616518039993
 21
-204.85251372799999
 31
0.0
  0
LINE
  5
14E
  8
ﾚｲﾔ_1
 62
     5
 10
790.19616383109985
 20
-351.00067939119998
 30
0.0
 11
615.19616518040004
 21
-351.00067939119998
 31
0.0
  0
LINE
  5
14F
  8
ﾚｲﾔ_1
 62
     5
 10
615.19616518040004
 20
-353.00067939119998
 30
0.0
 11
790.19616518039993
 21
-353.00067939119998
 31
0.0
  0
LINE
  5
150
  8
ﾚｲﾔ_1
 62
     5
 10
615.19616518040004
 20
-294.35251372800002
 30
0.0
 11
790.19616518039993
 21
-294.35251372800002
 31
0.0
  0
LINE
  5
151
  8
ﾚｲﾔ_1
  6
STITCH
 10
615.19616518040004
 20
-292.35251372800002
 30
0.0
 11
790.19616518039993
 21
-292.35251372800002
 31
0.0
  0
DIMENSION
  5
160
  8
寸法線
  2
*D8
 10
817.9081440926999
 20
-197.35251372799999
 30
0.0
 11
817.9081440926999
 21
-182.35251372799999
 31
0.0
 70
   128
  1
<>
 13
736.69616518039993
 23
-197.35251372799999
 33
0.0
 14
782.69616518039993
 24
-167.35251372799999
 34
0.0
 50
90.0
  0
DIMENSION
  5
16F
  8
寸法線
  2
*D9
 10
817.90814790740001
 20
-212.35251372799999
 30
0.0
 11
817.90814790740001
 21
-204.85251372799999
 31
0.0
 70
   128
  1
<>
 13
736.69616518039993
 23
-212.35251372799999
 33
0.0
 14
736.69616518039993
 24
-197.35251372799999
 34
0.0
 50
90.0
  0
DIMENSION
  5
17E
  8
寸法線
  2
*D10
 10
817.9081440926999
 20
-242.35251372799999
 30
0.0
 11
817.9081440926999
 21
-227.35251372799999
 31
0.0
 70
   128
  1
<>
 13
782.69616518039993
 23
-242.35251372799999
 33
0.0
 14
736.69616518039993
 24
-212.35251372799999
 34
0.0
 50
90.0
  0
DIMENSION
  5
18D
  8
寸法線
  2
*D11
 10
817.9081440926999
 20
-257.35251372800002
 30
0.0
 11
817.9081440926999
 21
-249.85251372799999
 31
0.0
 70
   128
  1
<>
 13
782.69616518039993
 23
-257.35251372800002
 33
0.0
 14
782.69616518039993
 24
-242.35251372799999
 34
0.0
 50
90.0
  0
DIMENSION
  5
19C
  8
寸法線
  2
*D12
 10
771.69616518039993
 20
-317.35251372800002
 30
0.0
 11
781.94616518039993
 21
-317.35251372800002
 31
0.0
 70
   128
  1
<>
 13
771.69616518039993
 23
-275.85251372800002
 33
0.0
 14
792.19616518039993
 24
-292.35251372800002
 34
0.0
 50
180.0
  0
DIMENSION
  5
1AB
  8
寸法線
  2
*D13
 10
817.9081440926999
 20
-294.35251372800002
 30
0.0
 11
817.9081440926999
 21
-283.35251372800002
 31
0.0
 70
   128
  1
<>
 13
790.19616518039993
 23
-294.35251372800002
 33
0.0
 14
782.69616518039993
 24
-272.35251372800002
 34
0.0
 50
90.0
  0
DIMENSION
  5
1BA
  8
寸法線
  2
*D14
 10
817.9081440926999
 20
-272.35251372800002
 30
0.0
 11
817.9081440926999
 21
-264.85251372800002
 31
0.0
 70
   128
  1
<>
 13
782.69616518039993
 23
-272.35251372800002
 33
0.0
 14
782.69616518039993
 24
-257.35251372800002
 34
0.0
 50
90.0
  0
LINE
  5
1BB
  8
ﾚｲﾔ_1
 62
     5
 10
764.19616518039993
 20
-155.85251372799999
 30
0.0
 11
779.19616518039993
 21
-155.85251372799999
 31
0.0
  0
ARC
  5
1BC
  8
ﾚｲﾔ_1
 62
     5
 10
733.19616518039993
 20
-152.35251372799999
 30
0.0
 40
3.5
 50
270.0
 51
90.0
  0
LINE
  5
1BD
  8
ﾚｲﾔ_1
 62
     5
 10
718.19616518039993
 20
-155.85251372799999
 30
0.0
 11
733.19616518039993
 21
-155.85251372799999
 31
0.0
  0
ARC
  5
1BE
  8
ﾚｲﾔ_1
 62
     5
 10
687.19616518039993
 20
-152.35251372799999
 30
0.0
 40
3.5
 50
270.0
 51
90.0
  0
ARC
  5
1BF
  8
ﾚｲﾔ_1
 62
     5
 10
718.19616518039993
 20
-152.35251372799999
 30
0.0
 40
3.5
 50
90.0
 51
270.0
  0
ARC
  5
1C0
  8
ﾚｲﾔ_1
 62
     5
 10
764.19616518039993
 20
-152.35251372799999
 30
0.0
 40
3.5
 50
90.0
 51
270.0
  0
ARC
  5
1C1
  8
ﾚｲﾔ_1
 62
     5
 10
779.19616518039993
 20
-152.35251372799999
 30
0.0
 40
3.5
 50
270.0
 51
90.0
  0
ARC
  5
1C2
  8
ﾚｲﾔ_1
 62
     5
 10
672.19616518040004
 20
-152.35251372799999
 30
0.0
 40
3.5
 50
90.0
 51
270.0
  0
LINE
  5
1C3
  8
ﾚｲﾔ_1
 62
     5
 10
626.19616518040004
 20
-155.85251372799999
 30
0.0
 11
641.19616518040004
 21
-155.85251372799999
 31
0.0
  0
ARC
  5
1C4
  8
ﾚｲﾔ_1
 62
     5
 10
641.19616518040004
 20
-152.35251372799999
 30
0.0
 40
3.5
 50
270.0
 51
90.0
  0
LINE
  5
1C5
  8
ﾚｲﾔ_1
 62
     5
 10
845.95204205539994
 20
-22.419924956199999
 30
0.0
 11
756.73611236789986
 21
-22.419924956199999
 31
0.0
  0
LINE
  5
1C6
  8
ﾚｲﾔ_1
 62
     5
 10
757.59911236789992
 20
-23.419924956199999
 30
0.0
 11
842.40204205539987
 21
-23.419924956199999
 31
0.0
  0
LINE
  5
1C7
  8
ﾚｲﾔ_1
 62
     5
 10
756.73611236789986
 20
-25.419924956199999
 30
0.0
 11
842.40204205539987
 21
-25.419924956199999
 31
0.0
  0
LINE
  5
1C8
  8
ﾚｲﾔ_1
 62
     5
 10
844.40204205539999
 20
-37.419924956199999
 30
0.0
 11
757.59911236789992
 21
-37.419924956199999
 31
0.0
  0
LINE
  5
1C9
  8
ﾚｲﾔ_1
 62
     5
 10
790.19616518039993
 20
-117.35251372800001
 30
0.0
 11
790.19616518039993
 21
-115.35251372800001
 31
0.0
  0
LINE
  5
1CA
  8
ﾚｲﾔ_1
 62
     5
 10
790.19616518039993
 20
-117.35251372800001
 30
0.0
 11
792.19616518039993
 21
-117.35251372800001
 31
0.0
  0
LINE
  5
1CB
  8
ﾚｲﾔ_1
  6
STITCH
 10
669.23611236789986
 20
214.4525767929
 30
0.0
 11
844.23611236789986
 21
214.4525767929
 31
0.0
  0
LINE
  5
1CC
  8
ﾚｲﾔ_1
 62
     5
 10
669.23611236789986
 20
216.4525767929
 30
0.0
 11
844.23611236789986
 21
216.4525767929
 31
0.0
  0
LINE
  5
1CD
  8
ﾚｲﾔ_1
 62
     5
 10
669.23611236789986
 20
37.452576792899997
 30
0.0
 11
844.23611236789986
 21
37.452576792899997
 31
0.0
  0
LINE
  5
1CE
  8
ﾚｲﾔ_1
  6
STITCH
 10
669.23611236789986
 20
39.452576792899997
 30
0.0
 11
844.23611236789986
 21
39.452576792899997
 31
0.0
  0
LINE
  5
1CF
  8
ﾚｲﾔ_1
 62
     5
 10
657.73611236789998
 20
225.9525767929
 30
0.0
 11
855.73611236789986
 21
225.9525767929
 31
0.0
  0
LINE
  5
1D0
  8
ﾚｲﾔ_1
  6
BORDER
 62
     3
 10
652.73611236789998
 20
126.9525767929
 30
0.0
 11
860.73611236789998
 21
126.9525767929
 31
0.0
  0
LINE
  5
1D1
  8
ﾚｲﾔ_1
 62
     5
 10
846.73611236789986
 20
36.952576792899997
 30
0.0
 11
666.73611236789998
 21
36.952576792899997
 31
0.0
  0
LINE
  5
1D2
  8
ﾚｲﾔ_1
 62
     5
 10
855.73611236789986
 20
27.9525767929
 30
0.0
 11
657.73611236789998
 21
27.9525767929
 31
0.0
  0
LINE
  5
1D3
  8
ﾚｲﾔ_1
 62
     5
 10
666.73611236789998
 20
216.9525767929
 30
0.0
 11
846.73611236789986
 21
216.9525767929
 31
0.0
  0
LINE
  5
1D4
  8
ﾚｲﾔ_1
 62
     5
 10
615.19616518040004
 20
-115.35251372800001
 30
0.0
 11
790.19616518039993
 21
-115.35251372800001
 31
0.0
  0
LINE
  5
1D5
  8
ﾚｲﾔ_1
  6
STITCH
 10
615.19616518040004
 20
-117.35251372800001
 30
0.0
 11
790.19616518039993
 21
-117.35251372800001
 31
0.0
  0
LINE
  5
1D6
  8
ﾚｲﾔ_1
 62
     5
 10
839.45204205539983
 20
-52.419924956199992
 30
0.0
 11
756.73611236789986
 21
-52.419924956199992
 31
0.0
  0
DIMENSION
  5
1E5
  8
寸法線
  2
*D15
 10
817.9081440926999
 20
-152.35251372799999
 30
0.0
 11
817.9081440926999
 21
-144.85251372799999
 31
0.0
 70
   128
  1
<>
 13
782.69616518039993
 23
-152.35251372799999
 33
0.0
 14
782.69616518039993
 24
-137.35251372799999
 34
0.0
 50
90.0
  0
DIMENSION
  5
1F4
  8
寸法線
  2
*D16
 10
792.19616518039993
 20
-92.352513727999977
 30
0.0
 11
702.69616518039993
 21
-92.352513727999977
 31
0.0
 70
   128
  1
<>
 13
792.19616518039993
 23
-117.35251372800001
 33
0.0
 14
613.19616518040004
 24
-117.35251372800001
 34
0.0
  0
DIMENSION
  5
203
  8
寸法線
  2
*D17
 10
846.73611236789986
 20
244.11749187769999
 30
0.0
 11
756.73611236789986
 21
244.11749187769999
 31
0.0
 70
   128
  1
<>
 13
846.73611236789986
 23
216.9525767929
 33
0.0
 14
666.73611236789998
 24
216.9525767929
 34
0.0
  0
DIMENSION
  5
212
  8
寸法線
  2
*D18
 10
817.9081440926999
 20
-137.35251372799999
 30
0.0
 11
817.9081440926999
 21
-126.35251372800001
 31
0.0
 70
   128
  1
<>
 13
782.69616518039993
 23
-137.35251372799999
 33
0.0
 14
790.19616518039993
 24
-115.35251372800001
 34
0.0
 50
90.0
  0
LINE
  5
213
  8
ﾚｲﾔ_1
 62
     5
 10
790.19616518039993
 20
-292.35251372800002
 30
0.0
 11
790.19616518039993
 21
-294.35251372800002
 31
0.0
  0
LINE
  5
214
  8
ﾚｲﾔ_1
 62
     5
 10
792.19616518039993
 20
-353.00067939119998
 30
0.0
 11
792.19616518039993
 21
-365.00067939119998
 31
0.0
  0
ARC
  5
215
  8
ﾚｲﾔ_1
 62
     5
 10
790.19616518039993
 20
-353.00067939119998
 30
0.0
 40
2.0
 50
0.0
 51
90.000038655400004
  0
LINE
  5
216
  8
ﾚｲﾔ_1
 62
     5
 10
666.73611236789998
 20
216.9525767929
 30
0.0
 11
666.73611236789998
 21
36.952576792899997
 31
0.0
  0
LINE
  5
217
  8
ﾚｲﾔ_1
 62
     5
 10
667.23611236789986
 20
39.452576792899997
 30
0.0
 11
667.23611236789986
 21
214.4525767929
 31
0.0
  0
LINE
  5
218
  8
ﾚｲﾔ_1
 62
     5
 10
657.73611236789998
 20
27.9525767929
 30
0.0
 11
657.73611236789998
 21
225.9525767929
 31
0.0
  0
LINE
  5
219
  8
ﾚｲﾔ_1
  6
STITCH
 10
669.23611236789986
 20
214.4525767929
 30
0.0
 11
669.23611236789986
 21
39.452576792899997
 31
0.0
  0
LINE
  5
21A
  8
ﾚｲﾔ_1
 62
     5
 10
695.23611236789998
 20
55.952576792899997
 30
0.0
 11
680.23611236789986
 21
55.952576792899997
 31
0.0
  0
LINE
  5
21B
  8
ﾚｲﾔ_1
  6
BORDER
 62
     3
 10
702.69616518039993
 20
-345.00067939119998
 30
0.0
 11
702.69616518039993
 21
-370.00067939119998
 31
0.0
  0
LINE
  5
21C
  8
ﾚｲﾔ_1
 62
     5
 10
615.19616518040004
 20
-353.00067939119998
 30
0.0
 11
615.19616518040004
 21
-365.00067939119998
 31
0.0
  0
LINE
  5
21D
  8
ﾚｲﾔ_1
 62
     5
 10
613.19616518040004
 20
-365.00067939119998
 30
0.0
 11
615.19616518040004
 21
-365.00067939119998
 31
0.0
  0
LINE
  5
21E
  8
ﾚｲﾔ_1
 62
     5
 10
613.19616518040004
 20
-353.00067974749999
 30
0.0
 11
613.19616518040004
 21
-365.00067939119998
 31
0.0
  0
INSERT
  5
21F
  8
0
  6
CONTINUOUS
  2
*U80
 10
0.0
 20
0.0
 30
0.0
  0
INSERT
  5
221
  8
図枠
  2
CLUMP1
 10
0.0
 20
0.0
 30
0.0
  0
INSERT
  5
22A
  8
0
  6
CONTINUOUS
  2
*U81
 10
0.0
 20
0.0
 30
0.0
  0
INSERT
  5
22B
  8
0
  6
CONTINUOUS
  2
*U82
 10
0.0
 20
0.0
 30
0.0
  0
INSERT
  5
22C
  8
0
  6
CONTINUOUS
  2
*U83
 10
0.0
 20
0.0
 30
0.0
  0
INSERT
  5
22D
  8
0
  6
CONTINUOUS
  2
*U84
 10
0.0
 20
0.0
 30
0.0
  0
INSERT
  5
22F
  8
図枠
  2
CLUMP2
 10
0.0
 20
0.0
 30
0.0
  0
INSERT
  5
239
  8
図枠
  2
CLUMP3
 10
0.0
 20
0.0
 30
0.0
  0
ARC
  5
242
  8
ﾚｲﾔ_1
 62
     5
 10
787.23611236789998
 20
164.4525767929
 30
0.0
 40
3.5
 50
270.0
 51
90.0
  0
ARC
  5
243
  8
ﾚｲﾔ_1
 62
     5
 10
787.23611236789998
 20
134.4525767929
 30
0.0
 40
3.5
 50
270.0
 51
90.0
  0
ARC
  5
244
  8
ﾚｲﾔ_1
 62
     5
 10
787.23611236789998
 20
194.4525767929
 30
0.0
 40
3.5
 50
270.0
 51
90.0
  0
ARC
  5
245
  8
ﾚｲﾔ_1
 62
     5
 10
787.23611236789998
 20
179.4525767929
 30
0.0
 40
3.5
 50
270.0
 51
90.0
  0
ARC
  5
246
  8
ﾚｲﾔ_1
 62
     5
 10
787.23611236789998
 20
119.4525767929
 30
0.0
 40
3.5
 50
270.0
 51
90.0
  0
ARC
  5
247
  8
ﾚｲﾔ_1
 62
     5
 10
787.23611236789998
 20
89.452576792900004
 30
0.0
 40
3.5
 50
270.0
 51
90.0
  0
ARC
  5
248
  8
ﾚｲﾔ_1
 62
     5
 10
787.23611236789998
 20
59.452576792899997
 30
0.0
 40
3.5
 50
270.0
 51
90.0
  0
ARC
  5
249
  8
ﾚｲﾔ_1
 62
     5
 10
787.23611236789998
 20
74.452576792900004
 30
0.0
 40
3.5
 50
270.0
 51
90.0
  0
LINE
  5
24A
  8
ﾚｲﾔ_1
 62
     5
 10
1134.7963518511001
 20
212.7521054387
 30
0.0
 11
1134.7963518511001
 21
41.153048146999993
 31
0.0
  0
DIMENSION
  5
259
  8
寸法線
  2
*D22
 10
1156.2112631212001
 20
41.953048146999997
 30
0.0
 11
1156.2112631212001
 21
126.9525767929
 31
0.0
 70
   128
  1
170
 13
1134.7963518511001
 23
41.953048146999997
 33
0.0
 14
1134.7963518511001
 24
211.95210543869999
 34
0.0
 50
90.0
  0
INSERT
  5
25A
  8
0
  6
CONTINUOUS
  2
*U85
 10
0.0
 20
0.0
 30
0.0
  0
ARC
  5
25B
  8
ﾚｲﾔ_1
 62
     5
 10
818.23611236789986
 20
59.452576792899997
 30
0.0
 40
3.5
 50
90.0
 51
270.0
  0
ARC
  5
25C
  8
ﾚｲﾔ_1
 62
     5
 10
833.23611236789998
 20
59.452576792899997
 30
0.0
 40
3.5
 50
270.0
 51
90.0
  0
LINE
  5
25D
  8
ﾚｲﾔ_1
 62
     5
 10
833.23611236789998
 20
55.952576792899997
 30
0.0
 11
818.23611236789986
 21
55.952576792899997
 31
0.0
  0
LINE
  5
25E
  8
ﾚｲﾔ_1
 62
     5
 10
975.36412528860001
 20
39.453048146999997
 30
0.0
 11
975.36412528860001
 21
214.45210543869999
 31
0.0
  0
LINE
  5
25F
  8
ﾚｲﾔ_1
 62
     5
 10
973.36412528860001
 20
214.4521040894
 30
0.0
 11
973.36412528860001
 21
39.453048146999997
 31
0.0
  0
LINE
  5
260
  8
ﾚｲﾔ_1
 62
     5
 10
987.36412528860012
 20
37.453048146999997
 30
0.0
 11
987.36412528860012
 21
216.45210543869999
 31
0.0
  0
LINE
  5
261
  8
ﾚｲﾔ_1
 62
     5
 10
1002.3641252886
 20
42.6525767929
 30
0.0
 11
1002.3641252886
 21
211.25257679289999
 31
0.0
  0
LINE
  5
262
  8
ﾚｲﾔ_1
 62
     5
 10
972.36412528860001
 20
36.1525767929
 30
0.0
 11
972.36412528860001
 21
126.960712535
 31
0.0
  0
LINE
  5
263
  8
ﾚｲﾔ_1
 62
     5
 10
846.73611236789986
 20
216.9525767929
 30
0.0
 11
846.73611236789986
 21
36.952576792899997
 31
0.0
  0
LINE
  5
264
  8
ﾚｲﾔ_1
 62
     5
 10
855.73611236789986
 20
225.9525767929
 30
0.0
 11
855.73611236789986
 21
27.9525767929
 31
0.0
  0
LINE
  5
265
  8
ﾚｲﾔ_1
 62
     5
 10
846.23611236789986
 20
214.4525767929
 30
0.0
 11
846.23611236789986
 21
39.452576792899997
 31
0.0
  0
LINE
  5
266
  8
ﾚｲﾔ_1
  6
STITCH
 10
844.23611236789986
 20
214.4525767929
 30
0.0
 11
844.23611236789986
 21
39.452576792899997
 31
0.0
  0
DIMENSION
  5
275
  8
寸法線
  2
*D23
 10
890.89753891210012
 20
36.952576792899997
 30
0.0
 11
890.89753891210012
 21
126.9525767929
 31
0.0
 70
   128
  1
<>
 13
846.73611236789986
 23
36.952576792899997
 33
0.0
 14
846.73611236789986
 24
216.9525767929
 34
0.0
 50
90.0
  0
DIMENSION
  5
284
  8
寸法線
  2
*D24
 10
906.44157959199981
 20
27.9525767929
 30
0.0
 11
906.44157959199981
 21
126.9525767929
 31
0.0
 70
   128
  1
<>
 13
855.73611236789986
 23
27.9525767929
 33
0.0
 14
855.73611236789986
 24
225.9525767929
 34
0.0
 50
90.0
  0
ARC
  5
285
  8
ﾚｲﾔ_1
 62
     5
 10
741.23611236789998
 20
59.452576792899997
 30
0.0
 40
3.5
 50
270.0
 51
90.0
  0
ARC
  5
286
  8
ﾚｲﾔ_1
 62
     5
 10
772.23611236789986
 20
59.452576792899997
 30
0.0
 40
3.5
 50
90.0
 51
270.0
  0
LINE
  5
287
  8
ﾚｲﾔ_1
 62
     5
 10
741.23611236789998
 20
55.952576792899997
 30
0.0
 11
726.23611236789986
 21
55.952576792899997
 31
0.0
  0
LINE
  5
288
  8
ﾚｲﾔ_1
 62
     5
 10
787.23611236789998
 20
55.952576792899997
 30
0.0
 11
772.23611236789986
 21
55.952576792899997
 31
0.0
  0
ARC
  5
289
  8
ﾚｲﾔ_1
 62
     5
 10
726.23611236789986
 20
59.452576792899997
 30
0.0
 40
3.5
 50
90.0
 51
270.0
  0
ARC
  5
28A
  8
ﾚｲﾔ_1
 62
     5
 10
695.23611236789998
 20
59.452576792899997
 30
0.0
 40
3.5
 50
270.0
 51
90.0
  0
ARC
  5
28B
  8
ﾚｲﾔ_1
 62
     5
 10
680.23611236789986
 20
59.452576792899997
 30
0.0
 40
3.5
 50
90.0
 51
270.0
  0
LINE
  5
28C
  8
ﾚｲﾔ_1
  6
BORDER
 62
     3
 10
756.73611236789986
 20
230.9525767929
 30
0.0
 11
756.73611236789986
 21
22.9525767929
 31
0.0
  0
ARC
  5
28D
  8
ﾚｲﾔ_1
 62
     5
 10
641.19616518040004
 20
-272.35251372800002
 30
0.0
 40
3.5
 50
270.0
 51
90.0
  0
ARC
  5
28E
  8
ﾚｲﾔ_1
 62
     5
 10
672.19616518040004
 20
-242.35251372799999
 30
0.0
 40
3.5
 50
90.0
 51
270.0
  0
ARC
  5
28F
  8
ﾚｲﾔ_1
 62
     5
 10
615.19616518040004
 20
-353.00067939119998
 30
0.0
 40
2.0
 50
90.0
 51
180.00001020810001
  0
LINE
  5
290
  8
ﾚｲﾔ_1
 62
     5
 10
672.19616518040004
 20
-200.85251372799999
 30
0.0
 11
687.19616518039993
 21
-200.85251372799999
 31
0.0
  0
LINE
  5
291
  8
ﾚｲﾔ_1
 62
     5
 10
687.19616518039993
 20
-193.85251372799999
 30
0.0
 11
672.19616518040004
 21
-193.85251372799999
 31
0.0
  0
LINE
  5
292
  8
ﾚｲﾔ_1
 62
     5
 10
672.19616518040004
 20
-253.85251372799999
 30
0.0
 11
687.19616518039993
 21
-253.85251372799999
 31
0.0
  0
LINE
  5
293
  8
ﾚｲﾔ_1
 62
     5
 10
687.19616518039993
 20
-275.85251372800002
 30
0.0
 11
672.19616518040004
 21
-275.85251372800002
 31
0.0
  0
LINE
  5
294
  8
ﾚｲﾔ_1
 62
     5
 10
687.19616518039993
 20
-208.85251372799999
 30
0.0
 11
672.19616518040004
 21
-208.85251372799999
 31
0.0
  0
LINE
  5
295
  8
ﾚｲﾔ_1
 62
     5
 10
672.19616518040004
 20
-215.85251372799999
 30
0.0
 11
687.19616518039993
 21
-215.85251372799999
 31
0.0
  0
LINE
  5
296
  8
ﾚｲﾔ_1
 62
     5
 10
687.19616518039993
 20
-245.85251372799999
 30
0.0
 11
672.19616518040004
 21
-245.85251372799999
 31
0.0
  0
LINE
  5
297
  8
ﾚｲﾔ_1
 62
     5
 10
672.19616518040004
 20
-238.85251372799999
 30
0.0
 11
687.19616518039993
 21
-238.85251372799999
 31
0.0
  0
LINE
  5
298
  8
ﾚｲﾔ_1
 62
     5
 10
687.19616518039993
 20
-260.85251372800002
 30
0.0
 11
672.19616518040004
 21
-260.85251372800002
 31
0.0
  0
LINE
  5
299
  8
ﾚｲﾔ_1
 62
     5
 10
672.19616518040004
 20
-268.85251372800002
 30
0.0
 11
687.19616518039993
 21
-268.85251372800002
 31
0.0
  0
LINE
  5
29A
  8
ﾚｲﾔ_1
 62
     5
 10
687.19616518039993
 20
-163.85251372799999
 30
0.0
 11
672.19616518040004
 21
-163.85251372799999
 31
0.0
  0
LINE
  5
29B
  8
ﾚｲﾔ_1
 62
     5
 10
672.19616518040004
 20
-170.85251372799999
 30
0.0
 11
687.19616518039993
 21
-170.85251372799999
 31
0.0
  0
DIMENSION
  5
2AA
  8
寸法線
  2
*D25
 10
725.69616518039993
 20
-317.35251372800002
 30
0.0
 11
748.69616518039993
 21
-317.35251372800002
 31
0.0
 70
   128
  1
<>
 13
725.69616518039993
 23
-275.85251372800002
 33
0.0
 14
771.69616518039993
 24
-275.85251372800002
 34
0.0
 50
180.0
  0
DIMENSION
  5
2B9
  8
寸法線
  2
*D26
 10
657.19616518040004
 20
-245.85251372799999
 30
0.0
 11
657.19616518040004
 21
-242.35251372799999
 31
0.0
 70
   128
  1
<>
 13
641.19616518040004
 23
-245.85251372799999
 33
0.0
 14
641.19616518040004
 24
-238.85251372799999
 34
0.0
 50
90.0
  0
DIMENSION
  5
2C8
  8
寸法線
  2
*D27
 10
613.19616518040004
 20
-317.35251372800002
 30
0.0
 11
623.44616518040004
 21
-317.35251372800002
 31
0.0
 70
   128
  1
<>
 13
613.19616518040004
 23
-292.35251372800002
 33
0.0
 14
633.69616518040004
 24
-275.85251372800002
 34
0.0
 50
180.0
  0
DIMENSION
  5
2D7
  8
寸法線
  2
*D28
 10
633.69616518040004
 20
-317.35251372800002
 30
0.0
 11
656.69616518040004
 21
-317.35251372800002
 31
0.0
 70
   128
  1
<>
 13
633.69616518040004
 23
-275.85251372800002
 33
0.0
 14
679.69616518040004
 24
-275.85251372800002
 34
0.0
 50
180.0
  0
DIMENSION
  5
2E6
  8
寸法線
  2
*D29
 10
679.69616518040004
 20
-317.35251372800002
 30
0.0
 11
702.69616518039993
 21
-317.35251372800002
 31
0.0
 70
   128
  1
<>
 13
679.69616518040004
 23
-275.85251372800002
 33
0.0
 14
725.69616518039993
 24
-275.85251372800002
 34
0.0
 50
180.0
  0
DIMENSION
  5
2F5
  8
寸法線
  2
*D30
 10
644.69616518040004
 20
-229.61260455600001
 30
0.0
 11
633.69616518040004
 21
-229.61260455600001
 31
0.0
 70
   128
  1
<>
 13
644.69616518040004
 23
-242.35251372799999
 33
0.0
 14
622.69616518040004
 24
-242.35251372799999
 34
0.0
  0
LINE
  5
2F6
  8
ﾚｲﾔ_1
 62
     5
 10
1104.7963518511001
 20
37.453048146999997
 30
0.0
 11
1104.7963518511001
 21
216.45210543869999
 31
0.0
  0
LINE
  5
2F7
  8
ﾚｲﾔ_1
 62
     5
 10
1079.7963518511001
 20
36.153048147
 30
0.0
 11
1079.7963518511001
 21
217.7521054387
 31
0.0
  0
LINE
  5
2F8
  8
ﾚｲﾔ_1
 62
     5
 10
1081.7963518511001
 20
214.45210543869999
 30
0.0
 11
1081.7963518511001
 21
39.453048146999997
 31
0.0
  0
LINE
  5
2F9
  8
ﾚｲﾔ_1
 62
     5
 10
1083.7963518511001
 20
214.45210543869999
 30
0.0
 11
1083.7963518511001
 21
39.453048146999997
 31
0.0
  0
ARC
  5
2FA
  8
ﾚｲﾔ_1
 62
     5
 10
764.19616518039993
 20
-257.35251372800002
 30
0.0
 40
3.5
 50
90.0
 51
270.0
  0
LINE
  5
2FB
  8
ﾚｲﾔ_1
 62
     5
 10
626.19616518040004
 20
-170.85251372799999
 30
0.0
 11
641.19616518040004
 21
-170.85251372799999
 31
0.0
  0
ARC
  5
2FC
  8
ﾚｲﾔ_1
 62
     5
 10
641.19616518040004
 20
-167.35251372799999
 30
0.0
 40
3.5
 50
270.0
 51
90.0
  0
ARC
  5
2FD
  8
ﾚｲﾔ_1
 62
     5
 10
672.19616518040004
 20
-167.35251372799999
 30
0.0
 40
3.5
 50
90.0
 51
270.0
  0
ARC
  5
2FE
  8
ﾚｲﾔ_1
 62
     5
 10
672.19616518040004
 20
-197.35251372799999
 30
0.0
 40
3.5
 50
90.0
 51
270.0
  0
CIRCLE
  5
2FF
  8
ﾚｲﾔ_1
 62
     5
 10
633.69616518040004
 20
-204.85251372799999
 30
0.0
 40
7.5
  0
ARC
  5
300
  8
ﾚｲﾔ_1
 62
     5
 10
626.19616518040004
 20
-167.35251372799999
 30
0.0
 40
3.5
 50
90.0
 51
270.0
  0
LINE
  5
301
  8
ﾚｲﾔ_1
  6
BORDER
 62
     3
 10
633.69616518040004
 20
-192.35251372799999
 30
0.0
 11
633.69616518040004
 21
-217.35251372799999
 31
0.0
  0
ARC
  5
302
  8
ﾚｲﾔ_1
 62
     5
 10
672.19616518040004
 20
-212.35251372799999
 30
0.0
 40
3.5
 50
90.0
 51
270.0
  0
LINE
  5
303
  8
ﾚｲﾔ_1
 62
     5
 10
641.19616518040004
 20
-163.85251372799999
 30
0.0
 11
626.19616518040004
 21
-163.85251372799999
 31
0.0
  0
LINE
  5
304
  8
ﾚｲﾔ_1
 62
     5
 10
641.19616518040004
 20
-275.85251372800002
 30
0.0
 11
626.19616518040004
 21
-275.85251372800002
 31
0.0
  0
LINE
  5
305
  8
ﾚｲﾔ_1
 62
     5
 10
626.19616518040004
 20
-253.85251372799999
 30
0.0
 11
641.19616518040004
 21
-253.85251372799999
 31
0.0
  0
ARC
  5
306
  8
ﾚｲﾔ_1
 62
     5
 10
626.19616518040004
 20
-272.35251372800002
 30
0.0
 40
3.5
 50
90.0
 51
270.0
  0
ARC
  5
307
  8
ﾚｲﾔ_1
 62
     5
 10
672.19616518040004
 20
-257.35251372800002
 30
0.0
 40
3.5
 50
90.0
 51
270.0
  0
ARC
  5
308
  8
ﾚｲﾔ_1
 62
     5
 10
626.19616518040004
 20
-257.35251372800002
 30
0.0
 40
3.5
 50
90.0
 51
270.0
  0
LINE
  5
309
  8
ﾚｲﾔ_1
 62
     5
 10
641.19616518040004
 20
-260.85251372800002
 30
0.0
 11
626.19616518040004
 21
-260.85251372800002
 31
0.0
  0
ARC
  5
30A
  8
ﾚｲﾔ_1
 62
     5
 10
641.19616518040004
 20
-257.35251372800002
 30
0.0
 40
3.5
 50
270.0
 51
90.0
  0
LINE
  5
30B
  8
ﾚｲﾔ_1
 62
     5
 10
626.19616518040004
 20
-268.85251372800002
 30
0.0
 11
641.19616518040004
 21
-268.85251372800002
 31
0.0
  0
LINE
  5
30C
  8
ﾚｲﾔ_1
 62
     5
 10
615.19616518040004
 20
-292.35251372800002
 30
0.0
 11
615.19616518040004
 21
-294.35251372800002
 31
0.0
  0
LINE
  5
30D
  8
ﾚｲﾔ_1
 62
     5
 10
615.19616518040004
 20
-292.35251372800002
 30
0.0
 11
613.19616518040004
 21
-292.35251372800002
 31
0.0
  0
ARC
  5
30E
  8
ﾚｲﾔ_1
 62
     5
 10
626.19616518040004
 20
-242.35251372799999
 30
0.0
 40
3.5
 50
90.0
 51
270.0
  0
LINE
  5
30F
  8
ﾚｲﾔ_1
 62
     5
 10
641.19616518040004
 20
-245.85251372799999
 30
0.0
 11
626.19616518040004
 21
-245.85251372799999
 31
0.0
  0
LINE
  5
310
  8
ﾚｲﾔ_1
 62
     5
 10
626.19616518040004
 20
-238.85251372799999
 30
0.0
 11
641.19616518040004
 21
-238.85251372799999
 31
0.0
  0
ARC
  5
311
  8
ﾚｲﾔ_1
 62
     5
 10
641.19616518040004
 20
-242.35251372799999
 30
0.0
 40
3.5
 50
270.0
 51
90.0
  0
ARC
  5
312
  8
ﾚｲﾔ_1
 62
     5
 10
672.19616518040004
 20
-272.35251372800002
 30
0.0
 40
3.5
 50
90.0
 51
270.0
  0
ARC
  5
313
  8
ﾚｲﾔ_1
 62
     5
 10
779.19616518039993
 20
-257.35251372800002
 30
0.0
 40
3.5
 50
270.0
 51
90.0
  0
ARC
  5
314
  8
ﾚｲﾔ_1
 62
     5
 10
779.19616518039993
 20
-242.35251372799999
 30
0.0
 40
3.5
 50
270.0
 51
90.0
  0
LINE
  5
315
  8
ﾚｲﾔ_1
 62
     5
 10
779.19616518039993
 20
-275.85251372800002
 30
0.0
 11
764.19616518039993
 21
-275.85251372800002
 31
0.0
  0
LINE
  5
316
  8
ﾚｲﾔ_1
 62
     5
 10
718.19616518039993
 20
-268.85251372800002
 30
0.0
 11
733.19616518039993
 21
-268.85251372800002
 31
0.0
  0
LINE
  5
317
  8
ﾚｲﾔ_1
 62
     5
 10
718.19616518039993
 20
-253.85251372799999
 30
0.0
 11
733.19616518039993
 21
-253.85251372799999
 31
0.0
  0
LINE
  5
318
  8
ﾚｲﾔ_1
 62
     5
 10
733.19616518039993
 20
-245.85251372799999
 30
0.0
 11
718.19616518039993
 21
-245.85251372799999
 31
0.0
  0
LINE
  5
319
  8
ﾚｲﾔ_1
 62
     5
 10
718.19616518039993
 20
-238.85251372799999
 30
0.0
 11
733.19616518039993
 21
-238.85251372799999
 31
0.0
  0
ARC
  5
31A
  8
ﾚｲﾔ_1
 62
     5
 10
733.19616518039993
 20
-272.35251372800002
 30
0.0
 40
3.5
 50
270.0
 51
90.0
  0
ARC
  5
31B
  8
ﾚｲﾔ_1
 62
     5
 10
733.19616518039993
 20
-242.35251372799999
 30
0.0
 40
3.5
 50
270.0
 51
90.0
  0
LINE
  5
31C
  8
ﾚｲﾔ_1
 62
     5
 10
733.19616518039993
 20
-260.85251372800002
 30
0.0
 11
718.19616518039993
 21
-260.85251372800002
 31
0.0
  0
LINE
  5
31D
  8
ﾚｲﾔ_1
 62
     5
 10
733.19616518039993
 20
-275.85251372800002
 30
0.0
 11
718.19616518039993
 21
-275.85251372800002
 31
0.0
  0
ARC
  5
31E
  8
ﾚｲﾔ_1
 62
     5
 10
733.19616518039993
 20
-257.35251372800002
 30
0.0
 40
3.5
 50
270.0
 51
90.0
  0
ARC
  5
31F
  8
ﾚｲﾔ_1
 62
     5
 10
718.19616518039993
 20
-272.35251372800002
 30
0.0
 40
3.5
 50
90.0
 51
270.0
  0
ARC
  5
320
  8
ﾚｲﾔ_1
 62
     5
 10
718.19616518039993
 20
-242.35251372799999
 30
0.0
 40
3.5
 50
90.0
 51
270.0
  0
ARC
  5
321
  8
ﾚｲﾔ_1
 62
     5
 10
687.19616518039993
 20
-257.35251372800002
 30
0.0
 40
3.5
 50
270.0
 51
90.0
  0
ARC
  5
322
  8
ﾚｲﾔ_1
 62
     5
 10
718.19616518039993
 20
-257.35251372800002
 30
0.0
 40
3.5
 50
90.0
 51
270.0
  0
ARC
  5
323
  8
ﾚｲﾔ_1
 62
     5
 10
687.19616518039993
 20
-242.35251372799999
 30
0.0
 40
3.5
 50
270.0
 51
90.0
  0
ARC
  5
324
  8
ﾚｲﾔ_1
 62
     5
 10
687.19616518039993
 20
-272.35251372800002
 30
0.0
 40
3.5
 50
270.0
 51
90.0
  0
LINE
  5
325
  8
ﾚｲﾔ_1
 62
     5
 10
764.19616518039993
 20
-238.85251372799999
 30
0.0
 11
779.19616518039993
 21
-238.85251372799999
 31
0.0
  0
LINE
  5
326
  8
ﾚｲﾔ_1
 62
     5
 10
764.19616518039993
 20
-253.85251372799999
 30
0.0
 11
779.19616518039993
 21
-253.85251372799999
 31
0.0
  0
ARC
  5
327
  8
ﾚｲﾔ_1
 62
     5
 10
764.19616518039993
 20
-272.35251372800002
 30
0.0
 40
3.5
 50
90.0
 51
270.0
  0
ARC
  5
328
  8
ﾚｲﾔ_1
 62
     5
 10
779.19616518039993
 20
-272.35251372800002
 30
0.0
 40
3.5
 50
270.0
 51
90.0
  0
LINE
  5
329
  8
ﾚｲﾔ_1
 62
     5
 10
779.19616518039993
 20
-245.85251372799999
 30
0.0
 11
764.19616518039993
 21
-245.85251372799999
 31
0.0
  0
LINE
  5
32A
  8
ﾚｲﾔ_1
 62
     5
 10
764.19616518039993
 20
-268.85251372800002
 30
0.0
 11
779.19616518039993
 21
-268.85251372800002
 31
0.0
  0
LINE
  5
32B
  8
ﾚｲﾔ_1
 62
     5
 10
779.19616518039993
 20
-260.85251372800002
 30
0.0
 11
764.19616518039993
 21
-260.85251372800002
 31
0.0
  0
LINE
  5
32C
  8
ﾚｲﾔ_1
 62
     5
 10
891.81999330539986
 20
-292.35251372800002
 30
0.0
 11
903.81999330539998
 21
-292.35251372800002
 31
0.0
  0
ARC
  5
32D
  8
ﾚｲﾔ_1
 62
     5
 10
891.81999330539986
 20
-292.35251372800002
 30
0.0
 40
2.0
 50
180.0
 51
270.00001020809998
  0
INSERT
  5
32E
  8
0
  6
CONTINUOUS
  2
*U86
 10
0.0
 20
0.0
 30
0.0
  0
ARC
  5
32F
  8
ﾚｲﾔ_1
 62
     5
 10
764.19616518039993
 20
-167.35251372799999
 30
0.0
 40
3.5
 50
90.0
 51
270.0
  0
LINE
  5
330
  8
ﾚｲﾔ_1
  6
BORDER
 62
     3
 10
771.69616518039993
 20
-192.35251372799999
 30
0.0
 11
771.69616518039993
 21
-217.35251372799999
 31
0.0
  0
LINE
  5
331
  8
ﾚｲﾔ_1
 62
     5
 10
718.19616518039993
 20
-215.85251372799999
 30
0.0
 11
733.19616518039993
 21
-215.85251372799999
 31
0.0
  0
LINE
  5
332
  8
ﾚｲﾔ_1
 62
     5
 10
733.19616518039993
 20
-208.85251372799999
 30
0.0
 11
718.19616518039993
 21
-208.85251372799999
 31
0.0
  0
ARC
  5
333
  8
ﾚｲﾔ_1
 62
     5
 10
733.19616518039993
 20
-197.35251372799999
 30
0.0
 40
3.5
 50
270.0
 51
90.0
  0
LINE
  5
334
  8
ﾚｲﾔ_1
 62
     5
 10
733.19616518039993
 20
-163.85251372799999
 30
0.0
 11
718.19616518039993
 21
-163.85251372799999
 31
0.0
  0
LINE
  5
335
  8
ﾚｲﾔ_1
 62
     5
 10
718.19616518039993
 20
-170.85251372799999
 30
0.0
 11
733.19616518039993
 21
-170.85251372799999
 31
0.0
  0
ARC
  5
336
  8
ﾚｲﾔ_1
 62
     5
 10
733.19616518039993
 20
-167.35251372799999
 30
0.0
 40
3.5
 50
270.0
 51
90.0
  0
LINE
  5
337
  8
ﾚｲﾔ_1
 62
     5
 10
718.19616518039993
 20
-200.85251372799999
 30
0.0
 11
733.19616518039993
 21
-200.85251372799999
 31
0.0
  0
LINE
  5
338
  8
ﾚｲﾔ_1
 62
     5
 10
733.19616518039993
 20
-193.85251372799999
 30
0.0
 11
718.19616518039993
 21
-193.85251372799999
 31
0.0
  0
ARC
  5
339
  8
ﾚｲﾔ_1
 62
     5
 10
718.19616518039993
 20
-212.35251372799999
 30
0.0
 40
3.5
 50
90.0
 51
270.0
  0
ARC
  5
33A
  8
ﾚｲﾔ_1
 62
     5
 10
687.19616518039993
 20
-212.35251372799999
 30
0.0
 40
3.5
 50
270.0
 51
90.0
  0
ARC
  5
33B
  8
ﾚｲﾔ_1
 62
     5
 10
718.19616518039993
 20
-197.35251372799999
 30
0.0
 40
3.5
 50
90.0
 51
270.0
  0
ARC
  5
33C
  8
ﾚｲﾔ_1
 62
     5
 10
687.19616518039993
 20
-197.35251372799999
 30
0.0
 40
3.5
 50
270.0
 51
90.0
  0
ARC
  5
33D
  8
ﾚｲﾔ_1
 62
     5
 10
718.19616518039993
 20
-167.35251372799999
 30
0.0
 40
3.5
 50
90.0
 51
270.0
  0
ARC
  5
33E
  8
ﾚｲﾔ_1
 62
     5
 10
687.19616518039993
 20
-167.35251372799999
 30
0.0
 40
3.5
 50
270.0
 51
90.0
  0
ARC
  5
33F
  8
ﾚｲﾔ_1
 62
     5
 10
779.19616518039993
 20
-167.35251372799999
 30
0.0
 40
3.5
 50
270.0
 51
90.0
  0
LINE
  5
340
  8
ﾚｲﾔ_1
 62
     5
 10
779.19616518039993
 20
-163.85251372799999
 30
0.0
 11
764.19616518039993
 21
-163.85251372799999
 31
0.0
  0
LINE
  5
341
  8
ﾚｲﾔ_1
 62
     5
 10
764.19616518039993
 20
-170.85251372799999
 30
0.0
 11
779.19616518039993
 21
-170.85251372799999
 31
0.0
  0
CIRCLE
  5
342
  8
ﾚｲﾔ_1
 62
     5
 10
771.69616518039993
 20
-204.85251372799999
 30
0.0
 40
7.5
  0
ARC
  5
343
  8
ﾚｲﾔ_1
 62
     5
 10
733.19616518039993
 20
-212.35251372799999
 30
0.0
 40
3.5
 50
270.0
 51
90.0
  0
ARC
  5
344
  8
ﾚｲﾔ_1
 62
     5
 10
764.19616518039993
 20
-242.35251372799999
 30
0.0
 40
3.5
 50
90.0
 51
270.0
  0
LINE
  5
345
  8
ﾚｲﾔ_1
 62
     5
 10
672.19616518040004
 20
-140.85251372799999
 30
0.0
 11
687.19616518039993
 21
-140.85251372799999
 31
0.0
  0
LINE
  5
346
  8
ﾚｲﾔ_1
 62
     5
 10
687.19616518039993
 20
-148.85251372799999
 30
0.0
 11
672.19616518040004
 21
-148.85251372799999
 31
0.0
  0
LINE
  5
347
  8
ﾚｲﾔ_1
 10
756.73611236789986
 20
-52.419924956199992
 30
0.0
 11
656.95204205540006
 21
-52.419924956199992
 31
0.0
  0
LINE
  5
348
  8
ﾚｲﾔ_1
 10
656.15204205539999
 20
-51.619924956200002
 30
0.0
 11
656.15204205539999
 21
-46.419924956199999
 31
0.0
  0
ARC
  5
349
  8
ﾚｲﾔ_1
 10
656.95204205540006
 20
-51.619924956200002
 30
0.0
 40
0.8
 50
180.0
 51
270.0
  0
LINE
  5
34A
  8
ﾚｲﾔ_1
 10
664.35204205540003
 20
-28.419924956199999
 30
0.0
 11
664.35204205540003
 21
-51.619924956200002
 31
0.0
  0
ARC
  5
34B
  8
ﾚｲﾔ_1
 10
664.35204205540003
 20
-51.619924956200002
 30
0.0
 40
0.8
 50
270.0
 51
0.0
  0
LINE
  5
34C
  8
ﾚｲﾔ_1
  6
BORDER
 62
     3
 10
756.73611236789986
 20
-17.419924956199999
 30
0.0
 11
756.73611236789986
 21
-57.419924956199992
 31
0.0
  0
LINE
  5
34D
  8
ﾚｲﾔ_1
 10
673.15200897059992
 20
-51.619924956200002
 30
0.0
 11
656.95204205540006
 21
-51.619924956200002
 31
0.0
  0
LINE
  5
34E
  8
ﾚｲﾔ_1
 10
673.15200897059992
 20
-46.419924956199999
 30
0.0
 11
673.15200897059992
 21
-52.419924956199992
 31
0.0
  0
LINE
  5
34F
  8
ﾚｲﾔ_1
 10
672.35204205540003
 20
-28.419924956199999
 30
0.0
 11
672.35204205540003
 21
-51.619924956200002
 31
0.0
  0
LINE
  5
350
  8
ﾚｲﾔ_1
 10
656.95204205540006
 20
-51.619924956200002
 30
0.0
 11
656.95204205540006
 21
-46.419924956199999
 31
0.0
  0
INSERT
  5
352
  8
寸法線
  2
BALLON0
 10
0.0
 20
0.0
 30
0.0
  0
INSERT
  5
35C
  8
寸法線
  2
BALLON1
 10
0.0
 20
0.0
 30
0.0
  0
INSERT
  5
366
  8
寸法線
  2
BALLON2
 10
0.0
 20
0.0
 30
0.0
  0
INSERT
  5
370
  8
寸法線
  2
BALLON3
 10
0.0
 20
0.0
 30
0.0
  0
LINE
  5
379
  8
ﾚｲﾔ_1
  6
BORDER
 62
     3
 10
937.79866518039989
 20
-204.85251372799999
 30
0.0
 11
972.79866518039978
 21
-204.85251372799999
 31
0.0
  0
ARC
  5
37A
  8
ﾚｲﾔ_1
 62
     5
 10
946.79866518039989
 20
-292.35251372800002
 30
0.0
 40
2.0
 50
180.0
 51
270.0
  0
LINE
  5
37B
  8
ﾚｲﾔ_1
 62
     5
 10
946.79866518039989
 20
-294.35251372800002
 30
0.0
 11
967.79866518039989
 21
-294.35251372800002
 31
0.0
  0
LINE
  5
37C
  8
ﾚｲﾔ_1
 62
     5
 10
967.79866518039989
 20
-292.35251372800002
 30
0.0
 11
967.79866518039989
 21
-294.35251372800002
 31
0.0
  0
LINE
  5
37D
  8
ﾚｲﾔ_1
 62
     5
 10
946.79866518039989
 20
-292.35251372800002
 30
0.0
 11
967.79866518039989
 21
-292.35251372800002
 31
0.0
  0
INSERT
  5
37E
  8
0
  6
CONTINUOUS
  2
*U91
 10
0.0
 20
0.0
 30
0.0
  0
LINE
  5
37F
  8
ﾚｲﾔ_1
  6
BORDER
 62
     3
 10
883.81999330539986
 20
-204.85251372799999
 30
0.0
 11
908.81999330539986
 21
-204.85251372799999
 31
0.0
  0
LINE
  5
380
  8
ﾚｲﾔ_1
 62
     5
 10
891.81999366169998
 20
-294.35251372800002
 30
0.0
 11
903.81999330539998
 21
-294.35251372800002
 31
0.0
  0
LINE
  5
381
  8
ﾚｲﾔ_1
 62
     5
 10
903.81999330539998
 20
-294.35251372800002
 30
0.0
 11
903.81999330539998
 21
-292.35251372800002
 31
0.0
  0
ARC
  5
382
  8
ﾚｲﾔ_1
 62
     5
 10
687.19616518039993
 20
-137.35251372799999
 30
0.0
 40
3.5
 50
270.0
 51
90.0
  0
LINE
  5
383
  8
ﾚｲﾔ_1
 62
     5
 10
733.19616518039993
 20
-133.85251372799999
 30
0.0
 11
718.19616518039993
 21
-133.85251372799999
 31
0.0
  0
ARC
  5
384
  8
ﾚｲﾔ_1
 62
     5
 10
718.19616518039993
 20
-137.35251372799999
 30
0.0
 40
3.5
 50
90.0
 51
270.0
  0
ARC
  5
385
  8
ﾚｲﾔ_1
 62
     5
 10
733.19616518039993
 20
-137.35251372799999
 30
0.0
 40
3.5
 50
270.0
 51
90.0
  0
ARC
  5
386
  8
ﾚｲﾔ_1
 62
     5
 10
779.19616518039993
 20
-137.35251372799999
 30
0.0
 40
3.5
 50
270.0
 51
90.0
  0
LINE
  5
387
  8
ﾚｲﾔ_1
 62
     5
 10
779.19616518039993
 20
-133.85251372799999
 30
0.0
 11
764.19616518039993
 21
-133.85251372799999
 31
0.0
  0
ARC
  5
388
  8
ﾚｲﾔ_1
 62
     5
 10
764.19616518039993
 20
-137.35251372799999
 30
0.0
 40
3.5
 50
90.0
 51
270.0
  0
LINE
  5
389
  8
ﾚｲﾔ_1
 62
     5
 10
718.19616518039993
 20
-140.85251372799999
 30
0.0
 11
733.19616518039993
 21
-140.85251372799999
 31
0.0
  0
LINE
  5
38A
  8
ﾚｲﾔ_1
 62
     5
 10
764.19616518039993
 20
-140.85251372799999
 30
0.0
 11
779.19616518039993
 21
-140.85251372799999
 31
0.0
  0
LINE
  5
38B
  8
ﾚｲﾔ_1
 62
     5
 10
641.19616518040004
 20
-148.85251372799999
 30
0.0
 11
626.19616518040004
 21
-148.85251372799999
 31
0.0
  0
LINE
  5
38C
  8
ﾚｲﾔ_1
 62
     5
 10
615.19616518040004
 20
-117.35251372800001
 30
0.0
 11
613.19616518040004
 21
-117.35251372800001
 31
0.0
  0
LINE
  5
38D
  8
ﾚｲﾔ_1
 62
     5
 10
615.19616518040004
 20
-117.35251372800001
 30
0.0
 11
615.19616518040004
 21
-115.35251372800001
 31
0.0
  0
ARC
  5
38E
  8
ﾚｲﾔ_1
 62
     5
 10
626.19616518040004
 20
-137.35251372799999
 30
0.0
 40
3.5
 50
90.0
 51
270.0
  0
ARC
  5
38F
  8
ﾚｲﾔ_1
 62
     5
 10
672.19616518040004
 20
-137.35251372799999
 30
0.0
 40
3.5
 50
90.0
 51
270.0
  0
ARC
  5
390
  8
ﾚｲﾔ_1
 62
     5
 10
641.19616518040004
 20
-137.35251372799999
 30
0.0
 40
3.5
 50
270.0
 51
90.0
  0
LINE
  5
391
  8
ﾚｲﾔ_1
 62
     5
 10
641.19616518040004
 20
-133.85251372799999
 30
0.0
 11
626.19616518040004
 21
-133.85251372799999
 31
0.0
  0
LINE
  5
392
  8
ﾚｲﾔ_1
 10
633.69616518040004
 20
-133.85251372799999
 30
0.0
 11
642.58513586679987
 21
-107.9545310761
 31
0.0
  0
SOLID
  5
393
  8
ﾚｲﾔ_1
 10
633.69616518040004
 20
-133.85251372799999
 30
0.0
 11
634.05218339769999
 21
-128.68839034920001
 31
0.0
 12
634.88443031739985
 22
-130.390507722
 32
0.0
 13
634.88443031739985
 23
-130.390507722
 33
0.0
  0
SOLID
  5
394
  8
ﾚｲﾔ_1
 10
633.69616518040004
 20
-133.85251372799999
 30
0.0
 11
636.58654769019995
 21
-129.5582608023
 31
0.0
 12
634.88443031739985
 22
-130.390507722
 32
0.0
 13
634.88443031739985
 23
-130.390507722
 33
0.0
  0
LINE
  5
395
  8
ﾚｲﾔ_1
 62
     5
 10
626.19616518040004
 20
-140.85251372799999
 30
0.0
 11
641.19616518040004
 21
-140.85251372799999
 31
0.0
  0
LINE
  5
396
  8
ﾚｲﾔ_1
 10
656.15204205539999
 20
-28.419924956199999
 30
0.0
 11
756.73611236789986
 21
-28.419924956199999
 31
0.0
  0
LINE
  5
397
  8
ﾚｲﾔ_1
 10
656.95204205540006
 20
-22.419924956199999
 30
0.0
 11
756.73611236789986
 21
-22.419924956199999
 31
0.0
  0
LINE
  5
398
  8
ﾚｲﾔ_1
 10
756.73611236789986
 20
-38.219924956200003
 30
0.0
 11
672.35204205540003
 21
-38.219924956200003
 31
0.0
  0
LINE
  5
399
  8
ﾚｲﾔ_1
 10
673.15200897059992
 20
-46.419924956199999
 30
0.0
 11
756.73611236789986
 21
-46.419924956199999
 31
0.0
  0
LINE
  5
39A
  8
ﾚｲﾔ_1
 10
642.58513586679987
 20
-107.9545310761
 30
0.0
 11
695.96182098049997
 21
-107.9545310761
 31
0.0
  0
INSERT
  5
39B
  8
0
  6
CONTINUOUS
  2
*U92
 10
0.0
 20
0.0
 30
0.0
  0
LINE
  5
39C
  8
ﾚｲﾔ_1
 62
     5
 10
687.19616518039993
 20
-133.85251372799999
 30
0.0
 11
672.19616518040004
 21
-133.85251372799999
 31
0.0
  0
ARC
  5
39D
  8
ﾚｲﾔ_1
 62
     5
 10
680.23611236789986
 20
89.452576792900004
 30
0.0
 40
3.5
 50
90.0
 51
270.0
  0
ARC
  5
39E
  8
ﾚｲﾔ_1
 62
     5
 10
680.23611236789986
 20
74.452576792900004
 30
0.0
 40
3.5
 50
90.0
 51
270.0
  0
LINE
  5
39F
  8
ﾚｲﾔ_1
  6
BORDER
 62
     3
 10
687.73611236789986
 20
139.4525767929
 30
0.0
 11
687.73611236789986
 21
114.4525767929
 31
0.0
  0
LINE
  5
3A0
  8
ﾚｲﾔ_1
 62
     5
 10
695.23611236789998
 20
167.9525767929
 30
0.0
 11
680.23611236789986
 21
167.9525767929
 31
0.0
  0
LINE
  5
3A1
  8
ﾚｲﾔ_1
 62
     5
 10
680.23611236789986
 20
62.95257679289999
 30
0.0
 11
695.23611236789998
 21
62.95257679289999
 31
0.0
  0
LINE
  5
3A2
  8
ﾚｲﾔ_1
 62
     5
 10
680.23611236789986
 20
92.952576792900004
 30
0.0
 11
695.23611236789998
 21
92.952576792900004
 31
0.0
  0
LINE
  5
3A3
  8
ﾚｲﾔ_1
 62
     5
 10
680.23611236789986
 20
77.952576792900004
 30
0.0
 11
695.23611236789998
 21
77.952576792900004
 31
0.0
  0
LINE
  5
3A4
  8
ﾚｲﾔ_1
 62
     5
 10
680.23611236789986
 20
175.9525767929
 30
0.0
 11
695.23611236789998
 21
175.9525767929
 31
0.0
  0
LINE
  5
3A5
  8
ﾚｲﾔ_1
 62
     5
 10
695.23611236789998
 20
182.9525767929
 30
0.0
 11
680.23611236789986
 21
182.9525767929
 31
0.0
  0
LINE
  5
3A6
  8
ﾚｲﾔ_1
 62
     5
 10
680.23611236789986
 20
160.9525767929
 30
0.0
 11
695.23611236789998
 21
160.9525767929
 31
0.0
  0
LINE
  5
3A7
  8
ﾚｲﾔ_1
 62
     5
 10
695.23611236789998
 20
197.9525767929
 30
0.0
 11
680.23611236789986
 21
197.9525767929
 31
0.0
  0
LINE
  5
3A8
  8
ﾚｲﾔ_1
 62
     5
 10
680.23611236789986
 20
190.9525767929
 30
0.0
 11
695.23611236789998
 21
190.9525767929
 31
0.0
  0
LINE
  5
3A9
  8
ﾚｲﾔ_1
 62
     5
 10
695.23611236789998
 20
85.952576792900004
 30
0.0
 11
680.23611236789986
 21
85.952576792900004
 31
0.0
  0
LINE
  5
3AA
  8
ﾚｲﾔ_1
 62
     5
 10
695.23611236789998
 20
70.952576792900004
 30
0.0
 11
680.23611236789986
 21
70.952576792900004
 31
0.0
  0
CIRCLE
  5
3AB
  8
ﾚｲﾔ_1
 62
     5
 10
687.73611236789986
 20
126.9525767929
 30
0.0
 40
7.5
  0
DIMENSION
  5
3BA
  8
寸法線
  2
*D35
 10
666.73611236789998
 20
244.11749187769999
 30
0.0
 11
662.23611236789998
 21
244.11749187769999
 31
0.0
 70
   128
  1
<>
 13
666.73611236789998
 23
216.9525767929
 33
0.0
 14
657.73611236789998
 24
225.9525767929
 34
0.0
  0
LINE
  5
3BB
  8
ﾚｲﾔ_1
 62
     5
 10
757.59911236789992
 20
-37.419924956199999
 30
0.0
 11
756.73611236789986
 21
-37.419924956199999
 31
0.0
  0
LINE
  5
3BC
  8
ﾚｲﾔ_1
 62
     5
 10
757.59911236789992
 20
-23.419924956199999
 30
0.0
 11
756.73611236789986
 21
-23.419924956199999
 31
0.0
  0
LINE
  5
3BD
  8
ﾚｲﾔ_1
 62
     5
 10
669.23611236789986
 20
39.452576792899997
 30
0.0
 11
667.23611236789986
 21
39.452576792899997
 31
0.0
  0
LINE
  5
3BE
  8
ﾚｲﾔ_1
 62
     5
 10
669.23611236789986
 20
39.452576792899997
 30
0.0
 11
669.23611236789986
 21
37.452576792899997
 31
0.0
  0
ARC
  5
3BF
  8
ﾚｲﾔ_1
 10
656.95204205540006
 20
-23.2199249562
 30
0.0
 40
0.8
 50
90.0
 51
180.0
  0
LINE
  5
3C0
  8
ﾚｲﾔ_1
 10
656.15204205539999
 20
-28.419924956199999
 30
0.0
 11
656.15204205539999
 21
-23.2199249562
 31
0.0
  0
LINE
  5
3C1
  8
ﾚｲﾔ_1
 10
656.95204205540006
 20
-46.419924956199999
 30
0.0
 11
656.15204205539999
 21
-46.419924956199999
 31
0.0
  0
LINE
  5
3C2
  8
ﾚｲﾔ_1
 62
     5
 10
779.19616518039993
 20
-148.85251372799999
 30
0.0
 11
764.19616518039993
 21
-148.85251372799999
 31
0.0
  0
LINE
  5
3C3
  8
ﾚｲﾔ_1
 62
     5
 10
733.19616518039993
 20
-148.85251372799999
 30
0.0
 11
718.19616518039993
 21
-148.85251372799999
 31
0.0
  0
ARC
  5
3C4
  8
ﾚｲﾔ_1
 62
     5
 10
772.23611236789986
 20
119.4525767929
 30
0.0
 40
3.5
 50
90.0
 51
270.0
  0
ARC
  5
3C5
  8
ﾚｲﾔ_1
 62
     5
 10
741.23611236789998
 20
119.4525767929
 30
0.0
 40
3.5
 50
270.0
 51
90.0
  0
ARC
  5
3C6
  8
ﾚｲﾔ_1
 62
     5
 10
726.23611236789986
 20
89.452576792900004
 30
0.0
 40
3.5
 50
90.0
 51
270.0
  0
ARC
  5
3C7
  8
ﾚｲﾔ_1
 62
     5
 10
726.23611236789986
 20
119.4525767929
 30
0.0
 40
3.5
 50
90.0
 51
270.0
  0
ARC
  5
3C8
  8
ﾚｲﾔ_1
 62
     5
 10
726.23611236789986
 20
74.452576792900004
 30
0.0
 40
3.5
 50
90.0
 51
270.0
  0
LINE
  5
3C9
  8
ﾚｲﾔ_1
 62
     5
 10
741.23611236789998
 20
70.952576792900004
 30
0.0
 11
726.23611236789986
 21
70.952576792900004
 31
0.0
  0
LINE
  5
3CA
  8
ﾚｲﾔ_1
 62
     5
 10
772.23611236789986
 20
62.95257679289999
 30
0.0
 11
787.23611236789998
 21
62.95257679289999
 31
0.0
  0
LINE
  5
3CB
  8
ﾚｲﾔ_1
 62
     5
 10
772.23611236789986
 20
77.952576792900004
 30
0.0
 11
787.23611236789998
 21
77.952576792900004
 31
0.0
  0
LINE
  5
3CC
  8
ﾚｲﾔ_1
 62
     5
 10
772.23611236789986
 20
115.9525767929
 30
0.0
 11
787.23611236789998
 21
115.9525767929
 31
0.0
  0
LINE
  5
3CD
  8
ﾚｲﾔ_1
 62
     5
 10
787.23611236789998
 20
122.9525767929
 30
0.0
 11
772.23611236789986
 21
122.9525767929
 31
0.0
  0
LINE
  5
3CE
  8
ﾚｲﾔ_1
 62
     5
 10
787.23611236789998
 20
85.952576792900004
 30
0.0
 11
772.23611236789986
 21
85.952576792900004
 31
0.0
  0
LINE
  5
3CF
  8
ﾚｲﾔ_1
 62
     5
 10
772.23611236789986
 20
92.952576792900004
 30
0.0
 11
787.23611236789998
 21
92.952576792900004
 31
0.0
  0
LINE
  5
3D0
  8
ﾚｲﾔ_1
 62
     5
 10
726.23611236789986
 20
77.952576792900004
 30
0.0
 11
741.23611236789998
 21
77.952576792900004
 31
0.0
  0
ARC
  5
3D1
  8
ﾚｲﾔ_1
 62
     5
 10
695.23611236789998
 20
74.452576792900004
 30
0.0
 40
3.5
 50
270.0
 51
90.0
  0
ARC
  5
3D2
  8
ﾚｲﾔ_1
 62
     5
 10
741.23611236789998
 20
89.452576792900004
 30
0.0
 40
3.5
 50
270.0
 51
90.0
  0
ARC
  5
3D3
  8
ﾚｲﾔ_1
 62
     5
 10
772.23611236789986
 20
89.452576792900004
 30
0.0
 40
3.5
 50
90.0
 51
270.0
  0
LINE
  5
3D4
  8
ﾚｲﾔ_1
 62
     5
 10
726.23611236789986
 20
115.9525767929
 30
0.0
 11
741.23611236789998
 21
115.9525767929
 31
0.0
  0
LINE
  5
3D5
  8
ﾚｲﾔ_1
 62
     5
 10
741.23611236789998
 20
122.9525767929
 30
0.0
 11
726.23611236789986
 21
122.9525767929
 31
0.0
  0
LINE
  5
3D6
  8
ﾚｲﾔ_1
 62
     5
 10
741.23611236789998
 20
85.952576792900004
 30
0.0
 11
726.23611236789986
 21
85.952576792900004
 31
0.0
  0
LINE
  5
3D7
  8
ﾚｲﾔ_1
 62
     5
 10
726.23611236789986
 20
92.952576792900004
 30
0.0
 11
741.23611236789998
 21
92.952576792900004
 31
0.0
  0
LINE
  5
3D8
  8
ﾚｲﾔ_1
 62
     5
 10
669.23611236789986
 20
214.4525767929
 30
0.0
 11
667.23611236789986
 21
214.4525767929
 31
0.0
  0
ARC
  5
3D9
  8
ﾚｲﾔ_1
 62
     5
 10
680.23611236789986
 20
164.4525767929
 30
0.0
 40
3.5
 50
90.0
 51
270.0
  0
ARC
  5
3DA
  8
ﾚｲﾔ_1
 62
     5
 10
680.23611236789986
 20
194.4525767929
 30
0.0
 40
3.5
 50
90.0
 51
270.0
  0
ARC
  5
3DB
  8
ﾚｲﾔ_1
 62
     5
 10
680.23611236789986
 20
179.4525767929
 30
0.0
 40
3.5
 50
90.0
 51
270.0
  0
LINE
  5
3DC
  8
ﾚｲﾔ_1
 62
     5
 10
669.23611236789986
 20
214.4525767929
 30
0.0
 11
669.23611236789986
 21
216.4525767929
 31
0.0
  0
ARC
  5
3DD
  8
ﾚｲﾔ_1
 62
     5
 10
695.23611236789998
 20
179.4525767929
 30
0.0
 40
3.5
 50
270.0
 51
90.0
  0
ARC
  5
3DE
  8
ﾚｲﾔ_1
 62
     5
 10
695.23611236789998
 20
164.4525767929
 30
0.0
 40
3.5
 50
270.0
 51
90.0
  0
LINE
  5
3DF
  8
ﾚｲﾔ_1
 62
     5
 10
787.23611236789998
 20
197.9525767929
 30
0.0
 11
772.23611236789986
 21
197.9525767929
 31
0.0
  0
ARC
  5
3E0
  8
ﾚｲﾔ_1
 62
     5
 10
741.23611236789998
 20
179.4525767929
 30
0.0
 40
3.5
 50
270.0
 51
90.0
  0
ARC
  5
3E1
  8
ﾚｲﾔ_1
 62
     5
 10
741.23611236789998
 20
194.4525767929
 30
0.0
 40
3.5
 50
270.0
 51
90.0
  0
ARC
  5
3E2
  8
ﾚｲﾔ_1
 62
     5
 10
741.23611236789998
 20
164.4525767929
 30
0.0
 40
3.5
 50
270.0
 51
90.0
  0
ARC
  5
3E3
  8
ﾚｲﾔ_1
 62
     5
 10
772.23611236789986
 20
179.4525767929
 30
0.0
 40
3.5
 50
90.0
 51
270.0
  0
ARC
  5
3E4
  8
ﾚｲﾔ_1
 62
     5
 10
772.23611236789986
 20
164.4525767929
 30
0.0
 40
3.5
 50
90.0
 51
270.0
  0
ARC
  5
3E5
  8
ﾚｲﾔ_1
 62
     5
 10
772.23611236789986
 20
194.4525767929
 30
0.0
 40
3.5
 50
90.0
 51
270.0
  0
LINE
  5
3E6
  8
ﾚｲﾔ_1
 62
     5
 10
787.23611236789998
 20
182.9525767929
 30
0.0
 11
772.23611236789986
 21
182.9525767929
 31
0.0
  0
LINE
  5
3E7
  8
ﾚｲﾔ_1
 62
     5
 10
772.23611236789986
 20
175.9525767929
 30
0.0
 11
787.23611236789998
 21
175.9525767929
 31
0.0
  0
LINE
  5
3E8
  8
ﾚｲﾔ_1
 62
     5
 10
772.23611236789986
 20
130.9525767929
 30
0.0
 11
787.23611236789998
 21
130.9525767929
 31
0.0
  0
LINE
  5
3E9
  8
ﾚｲﾔ_1
 62
     5
 10
787.23611236789998
 20
137.9525767929
 30
0.0
 11
772.23611236789986
 21
137.9525767929
 31
0.0
  0
LINE
  5
3EA
  8
ﾚｲﾔ_1
 62
     5
 10
741.23611236789998
 20
182.9525767929
 30
0.0
 11
726.23611236789986
 21
182.9525767929
 31
0.0
  0
LINE
  5
3EB
  8
ﾚｲﾔ_1
 62
     5
 10
726.23611236789986
 20
190.9525767929
 30
0.0
 11
741.23611236789998
 21
190.9525767929
 31
0.0
  0
LINE
  5
3EC
  8
ﾚｲﾔ_1
 62
     5
 10
741.23611236789998
 20
167.9525767929
 30
0.0
 11
726.23611236789986
 21
167.9525767929
 31
0.0
  0
LINE
  5
3ED
  8
ﾚｲﾔ_1
 62
     5
 10
726.23611236789986
 20
160.9525767929
 30
0.0
 11
741.23611236789998
 21
160.9525767929
 31
0.0
  0
ARC
  5
3EE
  8
ﾚｲﾔ_1
 62
     5
 10
741.23611236789998
 20
134.4525767929
 30
0.0
 40
3.5
 50
270.0
 51
90.0
  0
LINE
  5
3EF
  8
ﾚｲﾔ_1
 62
     5
 10
772.23611236789986
 20
190.9525767929
 30
0.0
 11
787.23611236789998
 21
190.9525767929
 31
0.0
  0
LINE
  5
3F0
  8
ﾚｲﾔ_1
 62
     5
 10
787.23611236789998
 20
167.9525767929
 30
0.0
 11
772.23611236789986
 21
167.9525767929
 31
0.0
  0
LINE
  5
3F1
  8
ﾚｲﾔ_1
 62
     5
 10
787.23611236789998
 20
70.952576792900004
 30
0.0
 11
772.23611236789986
 21
70.952576792900004
 31
0.0
  0
ARC
  5
3F2
  8
ﾚｲﾔ_1
 62
     5
 10
741.23611236789998
 20
74.452576792900004
 30
0.0
 40
3.5
 50
270.0
 51
90.0
  0
ARC
  5
3F3
  8
ﾚｲﾔ_1
 62
     5
 10
772.23611236789986
 20
74.452576792900004
 30
0.0
 40
3.5
 50
90.0
 51
270.0
  0
LINE
  5
3F4
  8
ﾚｲﾔ_1
 62
     5
 10
726.23611236789986
 20
62.95257679289999
 30
0.0
 11
741.23611236789998
 21
62.95257679289999
 31
0.0
  0
ARC
  5
3F5
  8
ﾚｲﾔ_1
 62
     5
 10
695.23611236789998
 20
89.452576792900004
 30
0.0
 40
3.5
 50
270.0
 51
90.0
  0
LINE
  5
3F6
  8
ﾚｲﾔ_1
 62
     5
 10
846.7520420553999
 20
-52.419924956199992
 30
0.0
 11
839.45204205539983
 21
-52.419924956199992
 31
0.0
  0
LINE
  5
3F7
  8
ﾚｲﾔ_1
 62
     5
 10
846.7520420553999
 20
-52.419924956199992
 30
0.0
 11
853.35204205539992
 21
-52.419924956199992
 31
0.0
  0
LINE
  5
3F8
  8
ﾚｲﾔ_1
 62
     5
 10
853.35204205539992
 20
-46.419924956199999
 30
0.0
 11
853.35204205539992
 21
-51.619924956200002
 31
0.0
  0
LINE
  5
3F9
  8
ﾚｲﾔ_1
 62
     5
 10
845.95204205539994
 20
-51.619924956200002
 30
0.0
 11
853.35204205539992
 21
-51.619924956200002
 31
0.0
  0
LINE
  5
3FA
  8
ﾚｲﾔ_1
 62
     5
 10
854.15204205539999
 20
-51.619924956200002
 30
0.0
 11
854.15204205539999
 21
-46.419924956199999
 31
0.0
  0
ARC
  5
3FB
  8
ﾚｲﾔ_1
 62
     5
 10
853.35204205539992
 20
-51.619924956200002
 30
0.0
 40
0.8
 50
270.0
 51
0.0
  0
LINE
  5
3FC
  8
ﾚｲﾔ_1
 62
     5
 10
845.95204205539994
 20
-37.419924956199999
 30
0.0
 11
845.95204205539994
 21
-51.619924956200002
 31
0.0
  0
ARC
  5
3FD
  8
ﾚｲﾔ_1
 62
     5
 10
845.95204205539994
 20
-51.619924956200002
 30
0.0
 40
0.8
 50
180.0
 51
270.0
  0
LINE
  5
3FE
  8
ﾚｲﾔ_1
 62
     5
 10
845.15204205539999
 20
-37.419924956199999
 30
0.0
 11
845.15204205539999
 21
-51.619924956200002
 31
0.0
  0
DIMENSION
  5
40D
  8
寸法線
  2
*D36
 10
903.81999330539998
 20
-93.267617640400005
 30
0.0
 11
896.81999330539998
 21
-93.267617640400005
 31
0.0
 70
   128
  1
<>
 13
903.81999330539998
 23
-115.35251372800001
 33
0.0
 14
889.81999330539998
 24
-117.3525150774
 34
0.0
  0
DIMENSION
  5
41C
  8
寸法線
  2
*D37
 10
887.15032544159988
 20
-28.419924956199999
 30
0.0
 11
887.15032544159988
 21
-25.419924956199999
 31
0.0
 70
   128
  1
<>
 13
854.15204205539999
 23
-28.419924956199999
 33
0.0
 14
853.35204205539992
 24
-22.419924956199999
 34
0.0
 50
90.0
  0
DIMENSION
  5
42B
  8
寸法線
  2
*D38
 10
890.89753891210012
 20
27.9525767929
 30
0.0
 11
890.89753891210012
 21
32.452576792899997
 31
0.0
 70
   128
  1
<>
 13
855.73611236789986
 23
27.9525767929
 33
0.0
 14
846.73611236789986
 24
36.952576792899997
 34
0.0
 50
90.0
  0
DIMENSION
  5
43A
  8
寸法線
  2
*D39
 10
967.79866518039989
 20
-93.267617640400005
 30
0.0
 11
956.29866518039989
 21
-93.267617640400005
 31
0.0
 70
   128
  1
<>
 13
967.79866518039989
 23
-115.35251372800001
 33
0.0
 14
944.79866518039989
 24
-117.35251372800001
 34
0.0
  0
DIMENSION
  5
449
  8
寸法線
  2
*D40
 10
887.15032544159988
 20
-52.419924956199992
 30
0.0
 11
887.15032544159988
 21
-49.419924956199999
 31
0.0
 70
   128
  1
<>
 13
853.35204205539992
 23
-52.419924956199992
 33
0.0
 14
854.15204205539999
 24
-46.419924956199999
 34
0.0
 50
90.0
  0
LINE
  5
44A
  8
ﾚｲﾔ_1
 62
     5
 10
772.23611236789986
 20
160.9525767929
 30
0.0
 11
787.23611236789998
 21
160.9525767929
 31
0.0
  0
ARC
  5
44B
  8
ﾚｲﾔ_1
 62
     5
 10
772.23611236789986
 20
134.4525767929
 30
0.0
 40
3.5
 50
90.0
 51
270.0
  0
ARC
  5
44C
  8
ﾚｲﾔ_1
 62
     5
 10
726.23611236789986
 20
179.4525767929
 30
0.0
 40
3.5
 50
90.0
 51
270.0
  0
ARC
  5
44D
  8
ﾚｲﾔ_1
 62
     5
 10
726.23611236789986
 20
194.4525767929
 30
0.0
 40
3.5
 50
90.0
 51
270.0
  0
ARC
  5
44E
  8
ﾚｲﾔ_1
 62
     5
 10
726.23611236789986
 20
164.4525767929
 30
0.0
 40
3.5
 50
90.0
 51
270.0
  0
ARC
  5
44F
  8
ﾚｲﾔ_1
 62
     5
 10
726.23611236789986
 20
134.4525767929
 30
0.0
 40
3.5
 50
90.0
 51
270.0
  0
LINE
  5
450
  8
ﾚｲﾔ_1
 62
     5
 10
726.23611236789986
 20
175.9525767929
 30
0.0
 11
741.23611236789998
 21
175.9525767929
 31
0.0
  0
LINE
  5
451
  8
ﾚｲﾔ_1
 62
     5
 10
741.23611236789998
 20
197.9525767929
 30
0.0
 11
726.23611236789986
 21
197.9525767929
 31
0.0
  0
LINE
  5
452
  8
ﾚｲﾔ_1
 62
     5
 10
726.23611236789986
 20
130.9525767929
 30
0.0
 11
741.23611236789998
 21
130.9525767929
 31
0.0
  0
LINE
  5
453
  8
ﾚｲﾔ_1
 62
     5
 10
741.23611236789998
 20
137.9525767929
 30
0.0
 11
726.23611236789986
 21
137.9525767929
 31
0.0
  0
ARC
  5
454
  8
ﾚｲﾔ_1
 62
     5
 10
695.23611236789998
 20
194.4525767929
 30
0.0
 40
3.5
 50
270.0
 51
90.0
  0
ARC
  5
455
  8
ﾚｲﾔ_1
 62
     5
 10
946.79866518039989
 20
-117.35251372800001
 30
0.0
 40
2.0
 50
90.0
 51
180.0
  0
LINE
  5
456
  8
ﾚｲﾔ_1
 62
     5
 10
967.79866518039989
 20
-115.35251372800001
 30
0.0
 11
967.79866518039989
 21
-117.35251372800001
 31
0.0
  0
LINE
  5
457
  8
ﾚｲﾔ_1
 62
     5
 10
946.79866518039989
 20
-117.35251372800001
 30
0.0
 11
967.79866518039989
 21
-117.35251372800001
 31
0.0
  0
LINE
  5
458
  8
ﾚｲﾔ_1
 62
     5
 10
946.79866518039989
 20
-115.35251372800001
 30
0.0
 11
967.79866518039989
 21
-115.35251372800001
 31
0.0
  0
LINE
  5
459
  8
ﾚｲﾔ_1
 62
     5
 10
844.23611236789986
 20
39.452576792899997
 30
0.0
 11
844.23611236789986
 21
37.452576792899997
 31
0.0
  0
LINE
  5
45A
  8
ﾚｲﾔ_1
 62
     5
 10
844.23611236789986
 20
39.452576792899997
 30
0.0
 11
846.23611236789986
 21
39.452576792899997
 31
0.0
  0
LINE
  5
45B
  8
ﾚｲﾔ_1
 62
     5
 10
842.40204205539987
 20
-25.419924956199999
 30
0.0
 11
842.40204205539987
 21
-37.419924956199999
 31
0.0
  0
LINE
  5
45C
  8
ﾚｲﾔ_1
 62
     5
 10
844.40204205539999
 20
-25.419924956199999
 30
0.0
 11
844.40204205539999
 21
-37.419924956199999
 31
0.0
  0
ARC
  5
45D
  8
ﾚｲﾔ_1
 62
     5
 10
842.40204205539987
 20
-25.419924956199999
 30
0.0
 40
2.0
 50
0.0
 51
90.0
  0
ARC
  5
45E
  8
ﾚｲﾔ_1
 62
     5
 10
853.35204205539992
 20
-23.2199249562
 30
0.0
 40
0.8
 50
0.0
 51
90.0
  0
ARC
  5
45F
  8
ﾚｲﾔ_1
 62
     5
 10
845.95204205539994
 20
-23.2199249562
 30
0.0
 40
0.8
 50
90.0
 51
180.0
  0
LINE
  5
460
  8
ﾚｲﾔ_1
 62
     5
 10
853.35204205539992
 20
-28.419924956199999
 30
0.0
 11
845.95204205539994
 21
-28.419924956199999
 31
0.0
  0
LINE
  5
461
  8
ﾚｲﾔ_1
 62
     5
 10
854.15204205539999
 20
-46.419924956199999
 30
0.0
 11
853.35204205539992
 21
-46.419924956199999
 31
0.0
  0
LINE
  5
462
  8
ﾚｲﾔ_1
 62
     5
 10
854.15204205539999
 20
-28.419924956199999
 30
0.0
 11
854.15204205539999
 21
-23.2199249562
 31
0.0
  0
LINE
  5
463
  8
ﾚｲﾔ_1
 62
     5
 10
845.95204205539994
 20
-23.2199249562
 30
0.0
 11
853.35204205539992
 21
-23.2199249562
 31
0.0
  0
LINE
  5
464
  8
ﾚｲﾔ_1
 62
     5
 10
853.35204205539992
 20
-23.2199249562
 30
0.0
 11
853.35204205539992
 21
-28.419924956199999
 31
0.0
  0
LINE
  5
465
  8
ﾚｲﾔ_1
 62
     5
 10
853.35204205539992
 20
-28.419924956199999
 30
0.0
 11
854.15204205539999
 21
-28.419924956199999
 31
0.0
  0
LINE
  5
466
  8
ﾚｲﾔ_1
 62
     5
 10
845.95204205539994
 20
-37.419924956199999
 30
0.0
 11
845.95204205539994
 21
-23.2199249562
 31
0.0
  0
LINE
  5
467
  8
ﾚｲﾔ_1
 62
     5
 10
845.15204205539999
 20
-37.419924956199999
 30
0.0
 11
839.45204205539983
 21
-37.419924956199999
 31
0.0
  0
LINE
  5
468
  8
ﾚｲﾔ_1
 62
     5
 10
845.15204205539999
 20
-23.2199249562
 30
0.0
 11
845.15204205539999
 21
-37.419924956199999
 31
0.0
  0
LINE
  5
469
  8
ﾚｲﾔ_1
 62
     5
 10
853.35204205539992
 20
-22.419924956199999
 30
0.0
 11
845.95204205539994
 21
-22.419924956199999
 31
0.0
  0
LINE
  5
46A
  8
ﾚｲﾔ_1
 62
     5
 10
903.81999330539998
 20
-115.35251372800001
 30
0.0
 11
903.81999330539998
 21
-117.35251372800001
 31
0.0
  0
LINE
  5
46B
  8
ﾚｲﾔ_1
 62
     5
 10
891.81999330539986
 20
-117.35251372800001
 30
0.0
 11
903.81999330539998
 21
-117.35251372800001
 31
0.0
  0
ARC
  5
46C
  8
ﾚｲﾔ_1
 62
     5
 10
891.81999330539986
 20
-117.35251372800001
 30
0.0
 40
2.0
 50
90.0
 51
180.0000386554
  0
LINE
  5
46D
  8
ﾚｲﾔ_1
 62
     5
 10
891.81999330539986
 20
-115.35251372800001
 30
0.0
 11
903.81999330539998
 21
-115.35251372800001
 31
0.0
  0
ARC
  5
46E
  8
ﾚｲﾔ_1
 62
     5
 10
833.23611236789998
 20
179.4525767929
 30
0.0
 40
3.5
 50
270.0
 51
90.0
  0
ARC
  5
46F
  8
ﾚｲﾔ_1
 62
     5
 10
833.23611236789998
 20
194.4525767929
 30
0.0
 40
3.5
 50
270.0
 51
90.0
  0
ARC
  5
470
  8
ﾚｲﾔ_1
 62
     5
 10
818.23611236789986
 20
89.452576792900004
 30
0.0
 40
3.5
 50
90.0
 51
270.0
  0
ARC
  5
471
  8
ﾚｲﾔ_1
 62
     5
 10
833.23611236789998
 20
74.452576792900004
 30
0.0
 40
3.5
 50
270.0
 51
90.0
  0
ARC
  5
472
  8
ﾚｲﾔ_1
 62
     5
 10
833.23611236789998
 20
89.452576792900004
 30
0.0
 40
3.5
 50
270.0
 51
90.0
  0
LINE
  5
473
  8
ﾚｲﾔ_1
 62
     5
 10
818.23611236789986
 20
92.952576792900004
 30
0.0
 11
833.23611236789998
 21
92.952576792900004
 31
0.0
  0
LINE
  5
474
  8
ﾚｲﾔ_1
 62
     5
 10
818.23611236789986
 20
77.952576792900004
 30
0.0
 11
833.23611236789998
 21
77.952576792900004
 31
0.0
  0
LINE
  5
475
  8
ﾚｲﾔ_1
 62
     5
 10
833.23611236789998
 20
85.952576792900004
 30
0.0
 11
818.23611236789986
 21
85.952576792900004
 31
0.0
  0
LINE
  5
476
  8
ﾚｲﾔ_1
 62
     5
 10
818.23611236789986
 20
62.95257679289999
 30
0.0
 11
833.23611236789998
 21
62.95257679289999
 31
0.0
  0
LINE
  5
477
  8
ﾚｲﾔ_1
 62
     5
 10
833.23611236789998
 20
70.952576792900004
 30
0.0
 11
818.23611236789986
 21
70.952576792900004
 31
0.0
  0
ARC
  5
478
  8
ﾚｲﾔ_1
 62
     5
 10
818.23611236789986
 20
74.452576792900004
 30
0.0
 40
3.5
 50
90.0
 51
270.0
  0
LINE
  5
479
  8
ﾚｲﾔ_1
 62
     5
 10
972.36412528860001
 20
217.75257679289999
 30
0.0
 11
972.36412528860001
 21
126.960712535
 31
0.0
  0
LINE
  5
47A
  8
ﾚｲﾔ_1
  6
BORDER
 62
     3
 10
967.36412528860001
 20
126.960712535
 30
0.0
 11
1007.3641252886
 21
126.960712535
 31
0.0
  0
CIRCLE
  5
47B
  8
ﾚｲﾔ_1
 62
     5
 10
825.73611236789998
 20
126.9525767929
 30
0.0
 40
7.5
  0
LINE
  5
47C
  8
ﾚｲﾔ_1
  6
BORDER
 62
     3
 10
825.73611236789998
 20
139.4525767929
 30
0.0
 11
825.73611236789998
 21
114.4525767929
 31
0.0
  0
DIMENSION
  5
48B
  8
寸法線
  2
*D41
 10
890.89753891210012
 20
216.9525767929
 30
0.0
 11
890.89753891210012
 21
221.4525767929
 31
0.0
 70
   128
  1
<>
 13
846.73611236789986
 23
216.9525767929
 33
0.0
 14
855.73611236789986
 24
225.9525767929
 34
0.0
 50
90.0
  0
DIMENSION
  5
49A
  8
寸法線
  2
*D42
 10
855.73611236789986
 20
244.11749187769999
 30
0.0
 11
851.23611236789986
 21
244.11749187769999
 31
0.0
 70
   128
  1
<>
 13
855.73611236789986
 23
225.9525767929
 33
0.0
 14
846.73611236789986
 24
216.9525767929
 34
0.0
  0
DIMENSION
  5
4A9
  8
寸法線
  2
*D43
 10
1002.3641252886
 20
241.4176295883
 30
0.0
 11
994.79612905490012
 21
241.4176295883
 31
0.0
 70
   128
  1
<>
 13
1002.3641252886
 23
225.15257679289999
 33
0.0
 14
987.36412528860012
 24
216.9525767929
 34
0.0
  0
DIMENSION
  5
4B8
  8
寸法線
  2
*D44
 10
987.36412528860012
 20
241.4176295883
 30
0.0
 11
979.62364871009993
 21
241.4176295883
 31
0.0
 70
   128
  1
<>
 13
987.36412528860012
 23
216.9525767929
 33
0.0
 14
972.36412528860001
 24
225.15257679289999
 34
0.0
  0
DIMENSION
  5
4C7
  8
寸法線
  2
*D45
 10
1002.3641252886
 20
255.89600216209999
 30
0.0
 11
987.36412528860012
 21
255.89600216209999
 31
0.0
 70
   128
  1
<>
 13
1002.3641252886
 23
225.15257679289999
 33
0.0
 14
972.36412528860001
 24
225.15257679289999
 34
0.0
  0
LINE
  5
4C8
  8
ﾚｲﾔ_1
 62
     5
 10
975.36412564490001
 20
37.453048146999997
 30
0.0
 11
987.36412528860012
 21
37.453048146999997
 31
0.0
  0
LINE
  5
4C9
  8
ﾚｲﾔ_1
 62
     5
 10
975.36412528860001
 20
39.453048146999997
 30
0.0
 11
987.36412528860012
 21
39.453048146999997
 31
0.0
  0
LINE
  5
4CA
  8
ﾚｲﾔ_1
 62
     5
 10
975.86412528860001
 20
39.453048146999997
 30
0.0
 11
975.36412528860001
 21
39.453048146999997
 31
0.0
  0
ARC
  5
4CB
  8
ﾚｲﾔ_1
 62
     5
 10
975.36412528860001
 20
39.453048146999997
 30
0.0
 40
2.0
 50
180.0
 51
270.00001020809998
  0
INSERT
  5
4CD
  8
ﾚｲﾔ_1
  6
BORDER
 62
     5
  2
CLUMP4
 10
0.0
 20
0.0
 30
0.0
  0
INSERT
  5
4EA
  8
0
  6
CONTINUOUS
  2
*U93
 10
0.0
 20
0.0
 30
0.0
  0
INSERT
  5
4EB
  8
0
  6
CONTINUOUS
  2
*U94
 10
0.0
 20
0.0
 30
0.0
  0
INSERT
  5
4EC
  8
0
  6
CONTINUOUS
  2
*U95
 10
0.0
 20
0.0
 30
0.0
  0
INSERT
  5
4ED
  8
0
  6
CONTINUOUS
  2
*U96
 10
0.0
 20
0.0
 30
0.0
  0
INSERT
  5
4EE
  8
0
  6
CONTINUOUS
  2
*U97
 10
0.0
 20
0.0
 30
0.0
  0
INSERT
  5
4EF
  8
0
  6
CONTINUOUS
  2
*U98
 10
0.0
 20
0.0
 30
0.0
  0
INSERT
  5
4F0
  8
0
  6
CONTINUOUS
  2
*U99
 10
0.0
 20
0.0
 30
0.0
  0
INSERT
  5
4F1
  8
0
  6
CONTINUOUS
  2
*U100
 10
0.0
 20
0.0
 30
0.0
  0
LINE
  5
4F2
  8
ﾚｲﾔ_1
 62
     5
 10
975.36412528860001
 20
216.45210543869999
 30
0.0
 11
987.36412528860012
 21
216.45210543869999
 31
0.0
  0
ARC
  5
4F3
  8
ﾚｲﾔ_1
 62
     5
 10
975.36412528860001
 20
214.45210543869999
 30
0.0
 40
2.0
 50
90.0
 51
180.0000386554
  0
LINE
  5
4F4
  8
ﾚｲﾔ_1
 62
     5
 10
975.36412528860001
 20
214.45210543869999
 30
0.0
 11
987.36412528860012
 21
214.45210543869999
 31
0.0
  0
LINE
  5
4F5
  8
ﾚｲﾔ_1
 62
     5
 10
975.86412528860001
 20
214.45210543869999
 30
0.0
 11
975.36412528860001
 21
214.45210543869999
 31
0.0
  0
INSERT
  5
4F7
  8
ﾚｲﾔ_1
  6
BORDER
 62
     5
  2
CLUMP5
 10
0.0
 20
0.0
 30
0.0
  0
ARC
  5
514
  8
ﾚｲﾔ_1
 62
     5
 10
818.23611236789986
 20
194.4525767929
 30
0.0
 40
3.5
 50
90.0
 51
270.0
  0
ARC
  5
515
  8
ﾚｲﾔ_1
 62
     5
 10
818.23611236789986
 20
179.4525767929
 30
0.0
 40
3.5
 50
90.0
 51
270.0
  0
LINE
  5
516
  8
ﾚｲﾔ_1
 62
     5
 10
833.23611236789998
 20
167.9525767929
 30
0.0
 11
818.23611236789986
 21
167.9525767929
 31
0.0
  0
LINE
  5
517
  8
ﾚｲﾔ_1
 62
     5
 10
818.23611236789986
 20
160.9525767929
 30
0.0
 11
833.23611236789998
 21
160.9525767929
 31
0.0
  0
ARC
  5
518
  8
ﾚｲﾔ_1
 62
     5
 10
833.23611236789998
 20
164.4525767929
 30
0.0
 40
3.5
 50
270.0
 51
90.0
  0
LINE
  5
519
  8
ﾚｲﾔ_1
 62
     5
 10
844.23611236789986
 20
214.4525767929
 30
0.0
 11
846.23611236789986
 21
214.4525767929
 31
0.0
  0
LINE
  5
51A
  8
ﾚｲﾔ_1
 62
     5
 10
844.23611236789986
 20
214.4525767929
 30
0.0
 11
844.23611236789986
 21
216.4525767929
 31
0.0
  0
LINE
  5
51B
  8
ﾚｲﾔ_1
 62
     5
 10
833.23611236789998
 20
182.9525767929
 30
0.0
 11
818.23611236789986
 21
182.9525767929
 31
0.0
  0
LINE
  5
51C
  8
ﾚｲﾔ_1
 62
     5
 10
818.23611236789986
 20
175.9525767929
 30
0.0
 11
833.23611236789998
 21
175.9525767929
 31
0.0
  0
LINE
  5
51D
  8
ﾚｲﾔ_1
 62
     5
 10
833.23611236789998
 20
197.9525767929
 30
0.0
 11
818.23611236789986
 21
197.9525767929
 31
0.0
  0
LINE
  5
51E
  8
ﾚｲﾔ_1
 62
     5
 10
818.23611236789986
 20
190.9525767929
 30
0.0
 11
833.23611236789998
 21
190.9525767929
 31
0.0
  0
ARC
  5
51F
  8
ﾚｲﾔ_1
 62
     5
 10
818.23611236789986
 20
164.4525767929
 30
0.0
 40
3.5
 50
90.0
 51
270.0
  0
INSERT
  5
521
  8
ﾚｲﾔ_1
 62
     5
  2
CLUMP6
 10
0.0
 20
0.0
 30
0.0
  0
LINE
  5
53D
  8
ﾚｲﾔ_1
 62
     5
 10
1104.7963518511001
 20
214.95210543869999
 30
0.0
 11
1104.7963518511001
 21
211.95210543869999
 31
0.0
  0
LINE
  5
53E
  8
ﾚｲﾔ_1
 62
     5
 10
1104.7963518511001
 20
216.95210543869999
 30
0.0
 11
1104.7963518511001
 21
216.45210543869999
 31
0.0
  0
ARC
  5
53F
  8
ﾚｲﾔ_1
 62
     5
 10
1083.7963518511001
 20
214.45210543869999
 30
0.0
 40
2.0
 50
90.0
 51
180.0
  0
LINE
  5
540
  8
ﾚｲﾔ_1
 62
     5
 10
1083.7963518511001
 20
216.45210543869999
 30
0.0
 11
1104.7963518511001
 21
216.45210543869999
 31
0.0
  0
LINE
  5
541
  8
ﾚｲﾔ_1
 62
     5
 10
1083.7963518511001
 20
214.45210543869999
 30
0.0
 11
1104.7963518511001
 21
214.45210543869999
 31
0.0
  0
LINE
  5
542
  8
ﾚｲﾔ_1
  6
BORDER
 62
     3
 10
1074.7963518511001
 20
126.960712535
 30
0.0
 11
1139.7963518511001
 21
126.960712535
 31
0.0
  0
DIMENSION
  5
551
  8
寸法線
  2
*D49
 10
1134.7963518511001
 20
241.58827964069999
 30
0.0
 11
1119.7963518511001
 21
241.58827964069999
 31
0.0
 70
   128
  1
<>
 13
1134.7963518511001
 23
225.95210543869999
 33
0.0
 14
1104.7963518511001
 24
216.95210543869999
 34
0.0
  0
DIMENSION
  5
560
  8
寸法線
  2
*D50
 10
1156.2112631212001
 20
211.95210543869999
 30
0.0
 11
1156.2112631212001
 21
218.95210543869999
 31
0.0
 70
   128
  1
14
 13
1134.7963518511001
 23
211.95210543869999
 33
0.0
 14
1134.7963518511001
 24
225.95210543869999
 34
0.0
 50
90.0
  0
DIMENSION
  5
56F
  8
寸法線
  2
*D51
 10
1104.7963518511001
 20
241.58827964069999
 30
0.0
 11
1092.2963518511001
 21
241.58827964069999
 31
0.0
 70
   128
  1
<>
 13
1104.7963518511001
 23
216.95210543869999
 33
0.0
 14
1079.7963518511001
 24
225.95210543869999
 34
0.0
  0
DIMENSION
  5
57E
  8
寸法線
  2
*D52
 10
1134.7963518511001
 20
255.12469683879999
 30
0.0
 11
1107.2963518511001
 21
255.12469683879999
 31
0.0
 70
   128
  1
<>
 13
1134.7963518511001
 23
225.1521054387
 33
0.0
 14
1079.7963518511001
 24
225.1521054387
 34
0.0
  0
INSERT
  5
580
  8
ﾚｲﾔ_1
 62
     5
  2
CLUMP7
 10
0.0
 20
0.0
 30
0.0
  0
LINE
  5
59C
  8
ﾚｲﾔ_1
 62
     5
 10
1083.7963518511001
 20
39.453048146999997
 30
0.0
 11
1104.7963518511001
 21
39.453048146999997
 31
0.0
  0
ARC
  5
59D
  8
ﾚｲﾔ_1
 62
     5
 10
1083.7963518511001
 20
39.453048146999997
 30
0.0
 40
2.0
 50
180.0
 51
270.0
  0
LINE
  5
59E
  8
ﾚｲﾔ_1
 62
     5
 10
1104.7963518511001
 20
38.953048146999997
 30
0.0
 11
1104.7963518511001
 21
41.953048146999997
 31
0.0
  0
LINE
  5
59F
  8
ﾚｲﾔ_1
 62
     5
 10
1083.7963518511001
 20
37.453048146999997
 30
0.0
 11
1104.7963518511001
 21
37.453048146999997
 31
0.0
  0
INSERT
  5
5A0
  8
0
  6
CONTINUOUS
  2
*U101
 10
0.0
 20
0.0
 30
0.0
  0
DIMENSION
  5
5AF
  8
寸法線
  2
*D54
 10
1156.2112631212001
 20
27.953048147000001
 30
0.0
 11
1156.2112631212001
 21
34.953048146999997
 31
0.0
 70
   128
  1
14
 13
1134.7963518511001
 23
27.953048147000001
 33
0.0
 14
1134.7963518511001
 24
41.953048146999997
 34
0.0
 50
90.0
  0
INSERT
  5
5B0
  8
0
  6
CONTINUOUS
  2
*U102
 10
0.0
 20
0.0
 30
0.0
  0
INSERT
  5
5B1
  8
0
  6
CONTINUOUS
  2
*U103
 10
0.0
 20
0.0
 30
0.0
  0
INSERT
  5
5B2
  8
0
  6
CONTINUOUS
  2
*U104
 10
0.0
 20
0.0
 30
0.0
  0
INSERT
  5
5B3
  8
0
  6
CONTINUOUS
  2
*U105
 10
0.0
 20
0.0
 30
0.0
  0
INSERT
  5
5B4
  8
0
  6
CONTINUOUS
  2
*U106
 10
0.0
 20
0.0
 30
0.0
  0
INSERT
  5
5B5
  8
0
  6
CONTINUOUS
  2
*U107
 10
0.0
 20
0.0
 30
0.0
  0
INSERT
  5
5B6
  8
0
  6
CONTINUOUS
  2
*U108
 10
0.0
 20
0.0
 30
0.0
  0
ENDSEC
  0
EOF
