  0
SECTION
  2
HEADER
  9
$ACADVER
  1
AC1009
  9
$INSBASE
 10
0.0
 20
0.0
 30
0.0
  9
$EXTMIN
 10
603.54515342779985
 20
-511.57419454659998
 30
0.0
  9
$EXTMAX
 10
1628.4451534278001
 20
209.57580545339999
 30
0.0
  9
$LIMMIN
 10
0.0
 20
0.0
  9
$LIMMAX
 10
0.0
 20
0.0
  9
$ORTHOMODE
 70
     0
  9
$REGENMODE
 70
     1
  9
$FILLMODE
 70
     1
  9
$QTEXTMODE
 70
     0
  9
$MIRRTEXT
 70
     1
  9
$DRAGMODE
 70
     2
  9
$LTSCALE
 40
1.0
  9
$OSMODE
 70
    31
  9
$ATTMODE
 70
     1
  9
$TEXTSIZE
 40
0.0
  9
$TRACEWID
 40
0.05
  9
$TEXTSTYLE
  7
STANDARD
  9
$CLAYER
  8
0
  9
$CELTYPE
  6
CONTINUOUS
  9
$CECOLOR
 62
   256
  9
$DIMSCALE
 40
1.0
  9
$DIMASZ
 40
0.18
  9
$DIMEXO
 40
0.0625
  9
$DIMDLI
 40
0.38
  9
$DIMRND
 40
0.0
  9
$DIMDLE
 40
0.0
  9
$DIMEXE
 40
0.18
  9
$DIMTP
 40
0.0
  9
$DIMTM
 40
0.0
  9
$DIMTXT
 40
0.18
  9
$DIMCEN
 40
0.09
  9
$DIMTSZ
 40
0.0
  9
$DIMTOL
 70
     0
  9
$DIMLIM
 70
     0
  9
$DIMTIH
 70
     1
  9
$DIMTOH
 70
     1
  9
$DIMSE1
 70
     0
  9
$DIMSE2
 70
     0
  9
$DIMTAD
 70
     0
  9
$DIMZIN
 70
     0
  9
$DIMBLK
  1

  9
$DIMASO
 70
     1
  9
$DIMSHO
 70
     1
  9
$DIMPOST
  1

  9
$DIMAPOST
  1

  9
$DIMALT
 70
     0
  9
$DIMALTD
 70
     2
  9
$DIMALTF
 40
25.399999999999999
  9
$DIMLFAC
 40
1.0
  9
$DIMTOFL
 70
     0
  9
$DIMTVP
 40
0.0
  9
$DIMTIX
 70
     0
  9
$DIMSOXD
 70
     0
  9
$DIMSAH
 70
     0
  9
$DIMBLK1
  1

  9
$DIMBLK2
  1

  9
$DIMSTYLE
  2
STANDARD
  9
$DIMCLRD
 70
     0
  9
$DIMCLRE
 70
     0
  9
$DIMCLRT
 70
     0
  9
$DIMTFAC
 40
1.0
  9
$DIMGAP
 40
0.09
  9
$LUNITS
 70
     2
  9
$LUPREC
 70
     4
  9
$SKETCHINC
 40
0.1
  9
$FILLETRAD
 40
0.0
  9
$AUNITS
 70
     0
  9
$AUPREC
 70
     0
  9
$MENU
  1
acad
  9
$ELEVATION
 40
0.0
  9
$PELEVATION
 40
0.0
  9
$THICKNESS
 40
0.0
  9
$LIMCHECK
 70
     0
  9
$BLIPMODE
 70
     0
  9
$CHAMFERA
 40
0.0
  9
$CHAMFERB
 40
0.0
  9
$SKPOLY
 70
     0
  9
$TDCREATE
 40
2454859.7969706599
  9
$TDUPDATE
 40
2454859.7971182289
  9
$TDINDWG
 40
0.0001643866
  9
$TDUSRTIMER
 40
0.0001640278
  9
$USRTIMER
 70
     1
  9
$ANGBASE
 50
0.0
  9
$ANGDIR
 70
     0
  9
$PDMODE
 70
     3
  9
$PDSIZE
 40
-1.0
  9
$PLINEWID
 40
0.0
  9
$COORDS
 70
     2
  9
$SPLFRAME
 70
     0
  9
$SPLINETYPE
 70
     6
  9
$SPLINESEGS
 70
     8
  9
$ATTDIA
 70
     0
  9
$ATTREQ
 70
     1
  9
$HANDLING
 70
     1
  9
$HANDSEED
  5
8D5
  9
$SURFTAB1
 70
     6
  9
$SURFTAB2
 70
     6
  9
$SURFTYPE
 70
     6
  9
$SURFU
 70
     6
  9
$SURFV
 70
     6
  9
$UCSNAME
  2

  9
$UCSORG
 10
0.0
 20
0.0
 30
0.0
  9
$UCSXDIR
 10
1.0
 20
0.0
 30
0.0
  9
$UCSYDIR
 10
0.0
 20
1.0
 30
0.0
  9
$PUCSNAME
  2

  9
$PUCSORG
 10
0.0
 20
0.0
 30
0.0
  9
$PUCSXDIR
 10
1.0
 20
0.0
 30
0.0
  9
$PUCSYDIR
 10
0.0
 20
1.0
 30
0.0
  9
$USERI1
 70
     0
  9
$USERI2
 70
     0
  9
$USERI3
 70
     0
  9
$USERI4
 70
     0
  9
$USERI5
 70
     0
  9
$USERR1
 40
0.0
  9
$USERR2
 40
0.0
  9
$USERR3
 40
0.0
  9
$USERR4
 40
0.0
  9
$USERR5
 40
0.0
  9
$WORLDVIEW
 70
     1
  9
$SHADEDGE
 70
     3
  9
$SHADEDIF
 70
    70
  9
$TILEMODE
 70
     1
  9
$MAXACTVP
 70
    16
  9
$PLIMCHECK
 70
     0
  9
$PEXTMIN
 10
1.0000000000000000E+020
 20
1.0000000000000000E+020
 30
1.0000000000000000E+020
  9
$PEXTMAX
 10
-1.0000000000000000E+020
 20
-1.0000000000000000E+020
 30
-1.0000000000000000E+020
  9
$PLIMMIN
 10
0.0
 20
0.0
  9
$PLIMMAX
 10
12.0
 20
9.0
  9
$UNITMODE
 70
     0
  9
$VISRETAIN
 70
     0
  9
$PLINEGEN
 70
     1
  9
$PSLTSCALE
 70
     0
  0
ENDSEC
  0
SECTION
  2
TABLES
  0
TABLE
  2
VPORT
 70
     2
  0
VPORT
  2
*ACTIVE
 70
     0
 10
0.0
 20
0.0
 11
1.0
 21
1.0
 12
1115.9951534278
 22
-150.99919454659999
 13
0.0
 23
0.0
 14
1.0
 24
1.0
 15
0.0
 25
0.0
 16
0.0
 26
0.0
 36
1.0
 17
0.0
 27
0.0
 37
0.0
 40
727.13464730290468
 41
1.6343490304709141
 42
50.0
 43
0.0
 44
0.0
 50
0.0
 51
0.0
 71
     0
 72
   100
 73
     1
 74
     1
 75
     0
 76
     0
 77
     0
 78
     0
  0
ENDTAB
  0
TABLE
  2
LTYPE
 70
    11
  0
LTYPE
  2
CONTINUOUS
 70
     0
  3
Solid line
 72
    65
 73
     0
 40
0.0
  0
LTYPE
  2
DOT
 70
     0
  3
. . . . . . . . 
 72
    65
 73
     2
 40
1.0
 49
0.0
 49
-1.0
  0
LTYPE
  2
DASHED
 70
     0
  3
___  ___  ___  ___  
 72
    65
 73
     2
 40
4.0
 49
3.0
 49
-1.0
  0
LTYPE
  2
HIDDEN
 70
     0
  3
__ __ __ __ 
 72
    65
 73
     2
 40
3.0
 49
2.0
 49
-1.0
  0
LTYPE
  2
STITCH
 70
     0
  3
_ _ _ _ 
 72
    65
 73
     2
 40
2.0
 49
1.0
 49
-1.0
  0
LTYPE
  2
CENTER
 70
     0
  3
______  __  ______  __  
 72
    65
 73
     4
 40
43.0
 49
40.0
 49
-1.0
 49
1.0
 49
-1.0
  0
LTYPE
  2
DASHDOT
 70
     0
  3
____ . ____ . 
 72
    65
 73
     4
 40
32.0
 49
30.0
 49
-1.0
 49
0.0
 49
-1.0
  0
LTYPE
  2
BORDER
 70
     0
  3
__ . __ . 
 72
    65
 73
     4
 40
22.0
 49
20.0
 49
-1.0
 49
0.0
 49
-1.0
  0
LTYPE
  2
CUTTING
 70
     0
  3
________   ___   ___   
 72
    65
 73
     6
 40
45.0
 49
40.0
 49
-1.0
 49
1.0
 49
-1.0
 49
1.0
 49
-1.0
  0
LTYPE
  2
PHANTOM
 70
     0
  3
______  __  __  
 72
    65
 73
     6
 40
35.0
 49
30.0
 49
-1.0
 49
1.0
 49
-1.0
 49
1.0
 49
-1.0
  0
LTYPE
  2
DIVIDE
 70
     0
  3
____ . . ____ . . 
 72
    65
 73
     6
 40
23.0
 49
20.0
 49
-1.0
 49
0.0
 49
-1.0
 49
0.0
 49
-1.0
  0
ENDTAB
  0
TABLE
  2
LAYER
 70
     5
  0
LAYER
  2
0
 70
     0
 62
     7
  6
CONTINUOUS
  0
LAYER
  2
図枠
 70
     0
 62
     7
  6
CONTINUOUS
  0
LAYER
  2
寸法線
 70
     0
 62
     7
  6
CONTINUOUS
  0
LAYER
  2
改訂
 70
     0
 62
     7
  6
CONTINUOUS
  0
LAYER
  2
ﾚｲﾔ_1
 70
     0
 62
     7
  6
CONTINUOUS
  0
ENDTAB
  0
TABLE
  2
STYLE
 70
     1
  0
STYLE
  2
STANDARD
 70
     0
 40
0.0
 41
1.0
 50
0.0
 71
     0
 42
0.0
  3
txt
  4
extfont
  0
ENDTAB
  0
TABLE
  2
VIEW
 70
     0
  0
ENDTAB
  0
TABLE
  2
UCS
 70
     0
  0
ENDTAB
  0
TABLE
  2
APPID
 70
     2
  0
APPID
  2
ACAD
 70
     0
  0
APPID
  2
DCO15
 70
     0
  0
ENDTAB
  0
TABLE
  2
DIMSTYLE
 70
     3
  0
DIMSTYLE
  2
STANDARD
 70
     0
  3

  4

  5

  6

  7

 40
1.0
 41
0.18
 42
0.0625
 43
0.38
 44
0.18
 45
0.0
 46
0.0
 47
0.0
 48
0.0
140
0.18
141
0.09
142
0.0
143
25.399999999999999
144
1.0
145
0.0
146
1.0
147
0.09
 71
     0
 72
     0
 73
     1
 74
     1
 75
     0
 76
     0
 77
     0
 78
     0
170
     0
171
     2
172
     0
173
     0
174
     0
175
     0
176
     0
177
     0
178
     0
  0
DIMSTYLE
  2
VELDIM0
 70
     0
  3

  4

  5

  6

  7

 40
1.0
 41
7.5
 42
0.0625
 43
0.38
 44
1.25
 45
0.0
 46
5.0
 47
0.0
 48
0.0
140
8.2461809158000001
141
0.09
142
0.0
143
25.399999999999999
144
1.0
145
0.0
146
1.0
147
0.09
 71
     0
 72
     0
 73
     0
 74
     0
 75
     0
 76
     0
 77
     0
 78
     8
170
     0
171
     2
172
     0
173
     0
174
     0
175
     0
176
     0
177
     0
178
     0
  0
DIMSTYLE
  2
VELDIM1
 70
     0
  3

  4

  5

  6

  7

 40
1.0
 41
7.5
 42
0.0625
 43
0.38
 44
1.0
 45
0.0
 46
5.0
 47
0.0
 48
0.0
140
8.2461809158000001
141
0.09
142
0.0
143
25.399999999999999
144
1.0
145
0.0
146
1.0
147
0.09
 71
     0
 72
     0
 73
     0
 74
     0
 75
     0
 76
     0
 77
     0
 78
     8
170
     0
171
     2
172
     0
173
     0
174
     0
175
     0
176
     0
177
     0
178
     0
  0
ENDTAB
  0
ENDSEC
  0
SECTION
  2
BLOCKS
  0
BLOCK
  8
0
  2
$MODEL_SPACE
 70
     0
 10
0.0
 20
0.0
 30
0.0
  3
$MODEL_SPACE
  1

  0
ENDBLK
  5
E
  8
0
  0
BLOCK
 67
     1
  8
0
  2
$PAPER_SPACE
 70
     0
 10
0.0
 20
0.0
 30
0.0
  3
$PAPER_SPACE
  1

  0
ENDBLK
  5
10
 67
     1
  8
0
  0
BLOCK
  8
0
  2
CLUMP0
 70
     0
 10
0.0
 20
0.0
 30
0.0
  3
CLUMP0
  1

  0
LINE
  5
33
  8
図枠
 10
1400.9951534278
 20
-393.49919454660011
 30
0.0
 11
1400.9951534278
 21
-380.99919454660011
 31
0.0
  0
LINE
  5
34
  8
図枠
 10
1253.4951534278
 20
-393.49919454660011
 30
0.0
 11
1253.4951534278
 21
-380.99919454660011
 31
0.0
  0
LINE
  5
35
  8
図枠
 10
1275.9951534278
 20
-393.49919454660011
 30
0.0
 11
1275.9951534278
 21
-380.99919454660011
 31
0.0
  0
LINE
  5
36
  8
図枠
 10
1538.4951534278
 20
-393.49919454660011
 30
0.0
 11
1538.4951534278
 21
-380.99919454660011
 31
0.0
  0
LINE
  5
37
  8
図枠
 10
1515.9951534278
 20
-393.49919454660011
 30
0.0
 11
1515.9951534278
 21
-380.99919454660011
 31
0.0
  0
LINE
  5
38
  8
図枠
 10
1615.9951534278
 20
-380.99919454660011
 30
0.0
 11
1253.4951534278
 21
-380.99919454660011
 31
0.0
  0
ENDBLK
  5
39
  8
0
  0
BLOCK
  8
0
  2
CLUMP1
 70
     0
 10
0.0
 20
0.0
 30
0.0
  3
CLUMP1
  1

  0
LINE
  5
3D
  8
図枠
 10
1400.9951534278
 20
-380.99919454660011
 30
0.0
 11
1400.9951534278
 21
-368.49919454660011
 31
0.0
  0
LINE
  5
3E
  8
図枠
 10
1253.4951534278
 20
-380.99919454660011
 30
0.0
 11
1253.4951534278
 21
-368.49919454660011
 31
0.0
  0
LINE
  5
3F
  8
図枠
 10
1275.9951534278
 20
-380.99919454660011
 30
0.0
 11
1275.9951534278
 21
-368.49919454660011
 31
0.0
  0
LINE
  5
40
  8
図枠
 10
1538.4951534278
 20
-380.99919454660011
 30
0.0
 11
1538.4951534278
 21
-368.49919454660011
 31
0.0
  0
LINE
  5
41
  8
図枠
 10
1515.9951534278
 20
-380.99919454660011
 30
0.0
 11
1515.9951534278
 21
-368.49919454660011
 31
0.0
  0
LINE
  5
42
  8
図枠
 10
1615.9951534278
 20
-368.49919454660011
 30
0.0
 11
1253.4951534278
 21
-368.49919454660011
 31
0.0
  0
ENDBLK
  5
43
  8
0
  0
BLOCK
  8
0
  2
*D2
 70
     1
 10
0.0
 20
0.0
 30
0.0
  3
*D2
  1

  0
TEXT
  5
4C
  8
0
 62
     0
 10
680.73326368280004
 20
-288.75784586899999
 30
0.0
 40
8.2461809158000001
  1
2-Φ15
 50
26.776143397399998
  0
LINE
  5
4D
  8
0
 62
     0
 10
733.88157862419985
 20
-265.74177169080002
 30
0.0
 11
682.26295010650006
 21
-291.78924593879998
 31
0.0
  0
SOLID
  5
4E
  8
0
 62
     0
 10
733.88157862419985
 20
-265.74177169080002
 30
0.0
 11
728.03047602469985
 21
-270.79451583330001
 31
0.0
 12
726.34107908700003
 22
-267.4466152992
 32
0.0
 13
728.85972782289991
 23
-268.27586709740001
 33
0.0
  0
ENDBLK
  5
4F
  8
0
  0
BLOCK
  8
0
  2
*D3
 70
     1
 10
0.0
 20
0.0
 30
0.0
  3
*D3
  1

  0
TEXT
  5
55
  8
0
 62
     0
 10
722.25998242699995
 20
-324.47457991110002
 30
0.0
 40
8.2461809158000001
  1
27
  0
LINE
  5
56
  8
0
 62
     0
 10
713.61067708329995
 20
-303.9297883081
 30
0.0
 11
713.61067708329995
 21
-327.9297883081
 31
0.0
  0
LINE
  5
57
  8
0
 62
     0
 10
740.61067708329995
 20
-292.9297883081
 30
0.0
 11
740.61067708329995
 21
-327.9297883081
 31
0.0
  0
LINE
  5
58
  8
0
 62
     0
 10
713.61067708329995
 20
-326.9297883081
 30
0.0
 11
736.81206639610002
 21
-326.9297883081
 31
0.0
  0
LINE
  5
59
  8
0
 62
     0
 10
713.61067708329995
 20
-326.9297883081
 30
0.0
 11
717.40928777060003
 21
-326.9297883081
 31
0.0
  0
LINE
  5
5A
  8
0
 62
     0
 10
740.61067708329995
 20
-326.9297883081
 30
0.0
 11
736.81206639610002
 21
-326.9297883081
 31
0.0
  0
LINE
  5
5B
  8
0
 62
     0
 10
740.61067708329995
 20
-326.9297883081
 30
0.0
 11
717.40928777060003
 21
-326.9297883081
 31
0.0
  0
LINE
  5
5C
  8
0
 62
     0
 10
740.61067708329995
 20
-326.9297883081
 30
0.0
 11
745.61067708330006
 21
-326.9297883081
 31
0.0
  0
SOLID
  5
5D
  8
0
 62
     0
 10
740.61067708329995
 20
-326.9297883081
 30
0.0
 11
748.11067708329995
 21
-325.0547883081
 31
0.0
 12
748.11067708329995
 22
-328.8047883081
 32
0.0
 13
746.23567708329995
 23
-326.9297883081
 33
0.0
  0
LINE
  5
5E
  8
0
 62
     0
 10
713.61067708329995
 20
-326.9297883081
 30
0.0
 11
708.61067708330006
 21
-326.9297883081
 31
0.0
  0
SOLID
  5
5F
  8
0
 62
     0
 10
713.61067708329995
 20
-326.9297883081
 30
0.0
 11
706.11067708329995
 21
-328.8047883081
 31
0.0
 12
706.11067708329995
 22
-325.0547883081
 32
0.0
 13
707.98567708329995
 23
-326.9297883081
 33
0.0
  0
ENDBLK
  5
60
  8
0
  0
BLOCK
  8
0
  2
*D4
 70
     1
 10
0.0
 20
0.0
 30
0.0
  3
*D4
  1

  0
TEXT
  5
64
  8
0
 62
     0
 10
769.25998242699995
 20
-324.47457991110002
 30
0.0
 40
8.2461809158000001
  1
67
  0
LINE
  5
65
  8
0
 62
     0
 10
740.61067708329995
 20
-292.9297883081
 30
0.0
 11
740.61067708329995
 21
-327.9297883081
 31
0.0
  0
LINE
  5
66
  8
0
 62
     0
 10
807.61067708329995
 20
-292.9297883081
 30
0.0
 11
807.61067708329995
 21
-327.9297883081
 31
0.0
  0
LINE
  5
67
  8
0
 62
     0
 10
740.61067708329995
 20
-326.9297883081
 30
0.0
 11
783.81206639610002
 21
-326.9297883081
 31
0.0
  0
LINE
  5
68
  8
0
 62
     0
 10
740.61067708329995
 20
-326.9297883081
 30
0.0
 11
764.40928777060003
 21
-326.9297883081
 31
0.0
  0
LINE
  5
69
  8
0
 62
     0
 10
807.61067708329995
 20
-326.9297883081
 30
0.0
 11
783.81206639610002
 21
-326.9297883081
 31
0.0
  0
LINE
  5
6A
  8
0
 62
     0
 10
807.61067708329995
 20
-326.9297883081
 30
0.0
 11
764.40928777060003
 21
-326.9297883081
 31
0.0
  0
LINE
  5
6B
  8
0
 62
     0
 10
807.61067708329995
 20
-326.9297883081
 30
0.0
 11
802.61067708330006
 21
-326.9297883081
 31
0.0
  0
SOLID
  5
6C
  8
0
 62
     0
 10
807.61067708329995
 20
-326.9297883081
 30
0.0
 11
800.11067708330006
 21
-328.8047883081
 31
0.0
 12
800.11067708330006
 22
-325.0547883081
 32
0.0
 13
801.98567708329995
 23
-326.9297883081
 33
0.0
  0
LINE
  5
6D
  8
0
 62
     0
 10
740.61067708329995
 20
-326.9297883081
 30
0.0
 11
745.61067708330006
 21
-326.9297883081
 31
0.0
  0
SOLID
  5
6E
  8
0
 62
     0
 10
740.61067708329995
 20
-326.9297883081
 30
0.0
 11
748.11067708329995
 21
-325.0547883081
 31
0.0
 12
748.11067708329995
 22
-328.8047883081
 32
0.0
 13
746.23567708329995
 23
-326.9297883081
 33
0.0
  0
ENDBLK
  5
6F
  8
0
  0
BLOCK
  8
0
  2
*D5
 70
     1
 10
0.0
 20
0.0
 30
0.0
  3
*D5
  1

  0
TEXT
  5
73
  8
0
 62
     0
 10
1037.2599824270001
 20
-324.47457991110002
 30
0.0
 40
8.2461809158000001
  1
67
  0
LINE
  5
74
  8
0
 62
     0
 10
1008.6106770832999
 20
-292.9297883081
 30
0.0
 11
1008.6106770832999
 21
-327.9297883081
 31
0.0
  0
LINE
  5
75
  8
0
 62
     0
 10
1075.6106770833001
 20
-292.9297883081
 30
0.0
 11
1075.6106770833001
 21
-327.9297883081
 31
0.0
  0
LINE
  5
76
  8
0
 62
     0
 10
1008.6106770832999
 20
-326.9297883081
 30
0.0
 11
1051.8120663960999
 21
-326.9297883081
 31
0.0
  0
LINE
  5
77
  8
0
 62
     0
 10
1008.6106770832999
 20
-326.9297883081
 30
0.0
 11
1032.4092877706
 21
-326.9297883081
 31
0.0
  0
LINE
  5
78
  8
0
 62
     0
 10
1075.6106770833001
 20
-326.9297883081
 30
0.0
 11
1051.8120663960999
 21
-326.9297883081
 31
0.0
  0
LINE
  5
79
  8
0
 62
     0
 10
1075.6106770833001
 20
-326.9297883081
 30
0.0
 11
1032.4092877706
 21
-326.9297883081
 31
0.0
  0
LINE
  5
7A
  8
0
 62
     0
 10
1075.6106770833001
 20
-326.9297883081
 30
0.0
 11
1070.6106770833001
 21
-326.9297883081
 31
0.0
  0
SOLID
  5
7B
  8
0
 62
     0
 10
1075.6106770833001
 20
-326.9297883081
 30
0.0
 11
1068.1106770833001
 21
-328.8047883081
 31
0.0
 12
1068.1106770833001
 22
-325.0547883081
 32
0.0
 13
1069.9856770833001
 23
-326.9297883081
 33
0.0
  0
LINE
  5
7C
  8
0
 62
     0
 10
1008.6106770832999
 20
-326.9297883081
 30
0.0
 11
1013.6106770832999
 21
-326.9297883081
 31
0.0
  0
SOLID
  5
7D
  8
0
 62
     0
 10
1008.6106770832999
 20
-326.9297883081
 30
0.0
 11
1016.1106770832999
 21
-325.0547883081
 31
0.0
 12
1016.1106770832999
 22
-328.8047883081
 32
0.0
 13
1014.2356770832999
 23
-326.9297883081
 33
0.0
  0
ENDBLK
  5
7E
  8
0
  0
BLOCK
  8
0
  2
CLUMP2
 70
     0
 10
0.0
 20
0.0
 30
0.0
  3
CLUMP2
  1

  0
LINE
  5
86
  8
図枠
 10
1400.9951534278
 20
-368.49919454660011
 30
0.0
 11
1400.9951534278
 21
-355.99919454660011
 31
0.0
  0
LINE
  5
87
  8
図枠
 10
1253.4951534278
 20
-368.49919454660011
 30
0.0
 11
1253.4951534278
 21
-355.99919454660011
 31
0.0
  0
LINE
  5
88
  8
図枠
 10
1275.9951534278
 20
-368.49919454660011
 30
0.0
 11
1275.9951534278
 21
-355.99919454660011
 31
0.0
  0
LINE
  5
89
  8
図枠
 10
1538.4951534278
 20
-368.49919454660011
 30
0.0
 11
1538.4951534278
 21
-355.99919454660011
 31
0.0
  0
LINE
  5
8A
  8
図枠
 10
1515.9951534278
 20
-368.49919454660011
 30
0.0
 11
1515.9951534278
 21
-355.99919454660011
 31
0.0
  0
LINE
  5
8B
  8
図枠
 10
1615.9951534278
 20
-355.99919454660011
 30
0.0
 11
1253.4951534278
 21
-355.99919454660011
 31
0.0
  0
ENDBLK
  5
8C
  8
0
  0
BLOCK
  8
0
  2
CLUMP3
 70
     0
 10
0.0
 20
0.0
 30
0.0
  3
CLUMP3
  1

  0
LINE
  5
92
  8
図枠
 10
1399.2982847999999
 20
-482.05751212939998
 30
0.0
 11
1401.7982847999999
 21
-478.30751212939998
 31
0.0
  0
LINE
  5
93
  8
図枠
 10
1362.6467696484999
 20
-478.30751212939998
 30
0.0
 11
1362.6467696484999
 21
-483.30751212939998
 31
0.0
  0
LINE
  5
94
  8
図枠
 10
1421.9643437586999
 20
-487.05751212939998
 30
0.0
 11
1429.8419914207
 21
-487.05751212939998
 31
0.0
  0
LINE
  5
95
  8
図枠
 10
1379.2982847999999
 20
-495.80751212939998
 30
0.0
 11
1385.5482847999999
 21
-495.80751212939998
 31
0.0
  0
LINE
  5
96
  8
図枠
 10
1379.2982847999999
 20
-484.11278779809999
 30
0.0
 11
1389.2982847999999
 21
-484.11278779809999
 31
0.0
  0
INSERT
  5
97
  8
0
  6
CONTINUOUS
  2
*U93
 10
0.0
 20
0.0
 30
0.0
  0
LINE
  5
98
  8
図枠
 62
     5
 10
1440.9951534278
 20
161.50080545340001
 30
0.0
 11
1440.9951534278
 21
199.00080545340001
 31
0.0
  0
LINE
  5
99
  8
図枠
 62
     5
 10
1565.9951534278
 20
161.50080545340001
 30
0.0
 11
1565.9951534278
 21
199.00080545340001
 31
0.0
  0
LINE
  5
9A
  8
図枠
 62
     5
 10
1400.9951534278
 20
161.50080545340001
 30
0.0
 11
1400.9951534278
 21
199.00080545340001
 31
0.0
  0
LINE
  5
9B
  8
図枠
 62
     5
 10
1384.0969399625999
 20
175.07778483089999
 30
0.0
 11
1396.4719399625999
 21
175.07778483089999
 31
0.0
  0
LINE
  5
9C
  8
図枠
 62
     5
 10
1390.2844399625999
 20
173.41984920269999
 30
0.0
 11
1396.4719399625999
 21
162.70278483089999
 31
0.0
  0
LINE
  5
9D
  8
図枠
 62
     5
 10
1380.9951534278
 20
161.50080545340001
 30
0.0
 11
1380.9951534278
 21
199.00080545340001
 31
0.0
  0
LINE
  5
9E
  8
図枠
 62
     5
 10
1590.9951534278
 20
161.50080545340001
 30
0.0
 11
1590.9951534278
 21
199.00080545340001
 31
0.0
  0
LINE
  5
9F
  8
図枠
 62
     5
 10
1380.9951534278
 20
186.50080545340001
 30
0.0
 11
1615.9951534278
 21
186.50080545340001
 31
0.0
  0
LINE
  5
A0
  8
図枠
 62
     5
 10
1380.9951534278
 20
174.00080545340001
 30
0.0
 11
1615.9951534278
 21
174.00080545340001
 31
0.0
  0
LINE
  5
A1
  8
図枠
 62
     5
 10
1380.9951534278
 20
161.50080545340001
 30
0.0
 11
1615.9951534278
 21
161.50080545340001
 31
0.0
  0
INSERT
  5
A2
  8
0
  6
CONTINUOUS
  2
*U94
 10
0.0
 20
0.0
 30
0.0
  0
LINE
  5
A3
  8
図枠
 62
     5
 10
615.99515342780001
 20
-500.99919454659999
 30
0.0
 11
615.99515342780001
 21
199.00080545340001
 31
0.0
  0
LINE
  5
A4
  8
図枠
 62
     5
 10
615.99515342780001
 20
-500.99919454659999
 30
0.0
 11
1615.9951534278
 21
-500.99919454659999
 31
0.0
  0
LINE
  5
A5
  8
図枠
 62
     5
 10
1615.9951534278
 20
199.00080545340001
 30
0.0
 11
615.99515342780001
 21
199.00080545340001
 31
0.0
  0
LINE
  5
A6
  8
図枠
 62
     5
 10
1615.9951534278
 20
-500.99919454659999
 30
0.0
 11
1615.9951534278
 21
199.00080545340001
 31
0.0
  0
LINE
  5
A7
  8
図枠
 10
1379.2982847999999
 20
-484.91806346679999
 30
0.0
 11
1379.2982847999999
 21
-484.11278779809999
 31
0.0
  0
LINE
  5
A8
  8
図枠
 10
1348.5190101195999
 20
-483.30751212939998
 30
0.0
 11
1348.5190101195999
 21
-487.05751212939998
 31
0.0
  0
LINE
  5
A9
  8
図枠
 62
     5
 10
1390.2844399625999
 20
185.79484920269999
 30
0.0
 11
1396.4719399625999
 21
175.07778483089999
 31
0.0
  0
LINE
  5
AA
  8
図枠
 62
     5
 10
1390.2844399625999
 20
173.41984920269999
 30
0.0
 11
1384.0969399625999
 21
162.70278483089999
 31
0.0
  0
INSERT
  5
AB
  8
0
  6
CONTINUOUS
  2
*U95
 10
0.0
 20
0.0
 30
0.0
  0
LINE
  5
AC
  8
図枠
  6
DOT
 10
603.54515342779985
 20
-511.57419454659998
 30
0.0
 11
603.54515342779985
 21
209.57580545339999
 31
0.0
  0
LINE
  5
AD
  8
図枠
  6
DOT
 10
1628.4451534278001
 20
-511.57419454659998
 30
0.0
 11
1628.4451534278001
 21
209.57580545339999
 31
0.0
  0
LINE
  5
AE
  8
図枠
  6
DOT
 10
603.54515342779985
 20
-511.57419454659998
 30
0.0
 11
1628.4451534278001
 21
-511.57419454659998
 31
0.0
  0
LINE
  5
AF
  8
図枠
 10
1357.6467696484999
 20
-490.80751212939998
 30
0.0
 11
1357.6467696484999
 21
-487.05751212939998
 31
0.0
  0
LINE
  5
B0
  8
図枠
  6
DOT
 10
1628.4451534278001
 20
209.57580545339999
 30
0.0
 11
603.54515342779985
 21
209.57580545339999
 31
0.0
  0
LINE
  5
B1
  8
図枠
 10
1351.3967696484999
 20
-487.05751212939998
 30
0.0
 11
1351.3967696484999
 21
-490.80751212939998
 31
0.0
  0
LINE
  5
B2
  8
図枠
 10
1368.8967696484999
 20
-482.05751212939998
 30
0.0
 11
1372.6467696484999
 21
-478.30751212939998
 31
0.0
  0
LINE
  5
B3
  8
図枠
 10
1415.495324754
 20
-489.05751212939998
 30
0.0
 11
1414.9086580874
 21
-487.05751212939998
 31
0.0
  0
LINE
  5
B4
  8
図枠
 10
1357.6467696484999
 20
-483.30751212939998
 30
0.0
 11
1357.6467696484999
 21
-482.05751212939998
 31
0.0
  0
LINE
  5
B5
  8
図枠
 10
1396.4550831802001
 20
-490.43034015189988
 30
0.0
 11
1396.0098280307
 21
-490.86628551230001
 31
0.0
  0
LINE
  5
B6
  8
図枠
 10
1399.2982847999999
 20
-482.05751212939998
 30
0.0
 11
1401.7982847999999
 21
-478.30751212939998
 31
0.0
  0
LINE
  5
B7
  8
図枠
 10
1429.8419914207
 20
-489.05751212939998
 30
0.0
 11
1429.8419914207
 21
-493.55751212939998
 31
0.0
  0
LINE
  5
B8
  8
図枠
 10
1401.7982847999999
 20
-492.05751212939998
 30
0.0
 11
1401.7982847999999
 21
-495.80751212939998
 31
0.0
  0
LINE
  5
B9
  8
図枠
 10
1420.6694023108
 20
-482.55751212939998
 30
0.0
 11
1429.8419914207
 21
-482.55751212939998
 31
0.0
  0
LINE
  5
BA
  8
図枠
 10
1420.6694023108
 20
-482.55751212939998
 30
0.0
 11
1420.3034166852001
 21
-481.28568990330001
 31
0.0
  0
LINE
  5
BB
  8
図枠
 10
1401.7982847999999
 20
-478.30751212939998
 30
0.0
 11
1379.2982847999999
 21
-478.30751212939998
 31
0.0
  0
INSERT
  5
BC
  8
0
  6
CONTINUOUS
  2
*U96
 10
0.0
 20
0.0
 30
0.0
  0
LINE
  5
BD
  8
図枠
 10
1417.8419914207
 20
-497.05751212939998
 30
0.0
 11
1416.8153247539999
 21
-493.55751212939998
 31
0.0
  0
LINE
  5
BE
  8
図枠
 10
1358.8967696484999
 20
-492.05751212939998
 30
0.0
 11
1351.3967696484999
 21
-492.05751212939998
 31
0.0
  0
LINE
  5
BF
  8
図枠
 10
1379.2982847999999
 20
-482.80751212939998
 30
0.0
 11
1391.7982847999999
 21
-482.80751212939998
 31
0.0
  0
LINE
  5
C0
  8
図枠
 10
1413.2099472069999
 20
-429.24919454659999
 30
0.0
 11
1425.2099472069999
 21
-426.24919454659999
 31
0.0
  0
CIRCLE
  5
C1
  8
図枠
 10
1399.4951534278
 20
-432.24919454659999
 30
0.0
 40
6.0
  0
INSERT
  5
C2
  8
0
  6
CONTINUOUS
  2
*U97
 10
0.0
 20
0.0
 30
0.0
  0
LINE
  5
C3
  8
図枠
 10
1357.6467696484999
 20
-487.05751212939998
 30
0.0
 11
1362.6467696484999
 21
-487.05751212939998
 31
0.0
  0
LINE
  5
C4
  8
図枠
 10
1407.3419914207
 20
-487.05751212939998
 30
0.0
 11
1414.9086580874
 21
-487.05751212939998
 31
0.0
  0
LINE
  5
C5
  8
図枠
 10
1372.6467696484999
 20
-483.30751212939998
 30
0.0
 11
1368.8967696484999
 21
-483.30751212939998
 31
0.0
  0
LINE
  5
C6
  8
図枠
 10
1368.8967696484999
 20
-483.30751212939998
 30
0.0
 11
1368.8967696484999
 21
-482.05751212939998
 31
0.0
  0
LINE
  5
C7
  8
図枠
 10
1407.3419914207
 20
-482.55751212939998
 30
0.0
 11
1413.5886580874001
 21
-482.55751212939998
 31
0.0
  0
LINE
  5
C8
  8
図枠
 10
1420.3034166852001
 20
-481.28568990330001
 30
0.0
 11
1422.3419914207
 21
-478.30751212939998
 31
0.0
  0
LINE
  5
C9
  8
図枠
 10
1379.2982847999999
 20
-495.80751212939998
 30
0.0
 11
1379.2982847999999
 21
-492.05751212939998
 31
0.0
  0
LINE
  5
CA
  8
図枠
 10
1440.9951534278
 20
-418.49919454659999
 30
0.0
 11
1440.9951534278
 21
-500.99919454659999
 31
0.0
  0
INSERT
  5
CB
  8
0
  6
CONTINUOUS
  2
*U98
 10
0.0
 20
0.0
 30
0.0
  0
INSERT
  5
CC
  8
0
  6
CONTINUOUS
  2
*U99
 10
0.0
 20
0.0
 30
0.0
  0
INSERT
  5
CD
  8
0
  6
CONTINUOUS
  2
*U100
 10
0.0
 20
0.0
 30
0.0
  0
LINE
  5
CE
  8
図枠
 62
     5
 10
1384.0969399625999
 20
162.70278483089999
 30
0.0
 11
1396.4719399625999
 21
162.70278483089999
 31
0.0
  0
LINE
  5
CF
  8
図枠
 10
1348.5190101195999
 20
-487.05751212939998
 30
0.0
 11
1351.0190101195999
 21
-487.05751212939998
 31
0.0
  0
ARC
  5
D0
  8
図枠
 10
1385.5482847999999
 20
-482.05751212939998
 30
0.0
 40
13.75
 50
322.48761197969998
 51
0.0
  0
LINE
  5
D1
  8
図枠
 10
1351.3967696484999
 20
-495.80751212939998
 30
0.0
 11
1361.3967696484999
 21
-495.80751212939998
 31
0.0
  0
LINE
  5
D2
  8
図枠
 10
1407.3419914207
 20
-493.55751212939998
 30
0.0
 11
1416.8153247539999
 21
-493.55751212939998
 31
0.0
  0
ARC
  5
D3
  8
図枠
 10
1358.8967696484999
 20
-488.30751212939998
 30
0.0
 40
3.75
 50
270.0
 51
0.0
  0
LINE
  5
D4
  8
図枠
 10
1407.3419914207
 20
-489.05751212939998
 30
0.0
 11
1407.3419914207
 21
-493.55751212939998
 31
0.0
  0
LINE
  5
D5
  8
図枠
 10
1351.3967696484999
 20
-490.80751212939998
 30
0.0
 11
1357.6467696484999
 21
-490.80751212939998
 31
0.0
  0
LINE
  5
D6
  8
図枠
 10
1390.6390660292
 20
-487.10518939219992
 30
0.0
 11
1390.0375765133999
 21
-487.76953529359997
 31
0.0
  0
LINE
  5
D7
  8
図枠
 10
1424.8419914207
 20
-497.05751212939998
 30
0.0
 11
1417.8419914207
 21
-497.05751212939998
 31
0.0
  0
LINE
  5
D8
  8
図枠
 10
1362.6467696484999
 20
-487.05751212939998
 30
0.0
 11
1362.6467696484999
 21
-488.30751212939998
 31
0.0
  0
LINE
  5
D9
  8
図枠
 10
1615.9951534278
 20
-418.49919454659999
 30
0.0
 11
1253.4951534278
 21
-418.49919454659999
 31
0.0
  0
LINE
  5
DA
  8
図枠
 10
1425.2099472069999
 20
-426.24919454659999
 30
0.0
 11
1425.2099472069999
 21
-438.24919454659999
 31
0.0
  0
LINE
  5
DB
  8
図枠
 62
     5
 10
1390.2844399625999
 20
185.79484920269999
 30
0.0
 11
1384.0969399625999
 21
175.07778483089999
 31
0.0
  0
LINE
  5
DC
  8
図枠
 10
1372.6467696484999
 20
-478.30751212939998
 30
0.0
 11
1362.6467696484999
 21
-478.30751212939998
 31
0.0
  0
LINE
  5
DD
  8
図枠
 10
1368.8967696484999
 20
-488.30751212939998
 30
0.0
 11
1368.8967696484999
 21
-487.05751212939998
 31
0.0
  0
LINE
  5
DE
  8
図枠
 10
1407.3419914207
 20
-482.55751212939998
 30
0.0
 11
1407.3419914207
 21
-487.05751212939998
 31
0.0
  0
LINE
  5
DF
  8
図枠
 10
1362.6467696484999
 20
-483.30751212939998
 30
0.0
 11
1357.6467696484999
 21
-483.30751212939998
 31
0.0
  0
LINE
  5
E0
  8
図枠
 10
1361.3967696484999
 20
-478.30751212939998
 30
0.0
 11
1351.3967696484999
 21
-478.30751212939998
 31
0.0
  0
LINE
  5
E1
  8
図枠
 10
1357.6467696484999
 20
-482.05751212939998
 30
0.0
 11
1361.3967696484999
 21
-478.30751212939998
 31
0.0
  0
LINE
  5
E2
  8
図枠
 10
1351.3967696484999
 20
-478.30751212939998
 30
0.0
 11
1351.3967696484999
 21
-483.30751212939998
 31
0.0
  0
LINE
  5
E3
  8
図枠
 10
1423.834814739
 20
-493.55751212939998
 30
0.0
 11
1429.8419914207
 21
-493.55751212939998
 31
0.0
  0
LINE
  5
E4
  8
図枠
 10
1413.5886580874001
 20
-482.55751212939998
 30
0.0
 11
1412.3419914207
 21
-478.30751212939998
 31
0.0
  0
LINE
  5
E5
  8
図枠
 10
1407.3419914207
 20
-489.05751212939998
 30
0.0
 11
1415.495324754
 21
-489.05751212939998
 31
0.0
  0
LINE
  5
E6
  8
図枠
 10
1422.5398732911001
 20
-489.05751212939998
 30
0.0
 11
1421.9643437586999
 21
-487.05751212939998
 31
0.0
  0
ARC
  5
E7
  8
図枠
 10
1382.2982847999999
 20
-482.55751212939998
 30
0.0
 40
9.5
 50
270.0
 51
298.08590481520002
  0
INSERT
  5
E8
  8
0
  6
CONTINUOUS
  2
*U101
 10
0.0
 20
0.0
 30
0.0
  0
LINE
  5
E9
  8
図枠
 10
1259.7451534278
 20
-432.24919454659999
 30
0.0
 11
1309.7451534278
 21
-432.24919454659999
 31
0.0
  0
LINE
  5
EA
  8
図枠
 10
1315.9951534278
 20
-418.49919454659999
 30
0.0
 11
1315.9951534278
 21
-445.99919454659999
 31
0.0
  0
LINE
  5
EB
  8
図枠
 10
1253.4951534278
 20
-445.99919454659999
 30
0.0
 11
1615.9951534278
 21
-445.99919454659999
 31
0.0
  0
LINE
  5
EC
  8
図枠
 10
1378.4951534278
 20
-418.49919454659999
 30
0.0
 11
1378.4951534278
 21
-445.99919454659999
 31
0.0
  0
LINE
  5
ED
  8
図枠
  6
BORDER
 10
1399.4951534278
 20
-423.24919454659999
 30
0.0
 11
1399.4951534278
 21
-441.24919454659999
 31
0.0
  0
LINE
  5
EE
  8
図枠
  6
BORDER
 10
1399.4951534278
 20
-423.24919454659999
 30
0.0
 11
1399.4951534278
 21
-441.24919454659999
 31
0.0
  0
LINE
  5
EF
  8
図枠
 10
1429.8419914207
 20
-482.55751212939998
 30
0.0
 11
1429.8419914207
 21
-487.05751212939998
 31
0.0
  0
LINE
  5
F0
  8
図枠
 10
1322.2451534278
 20
-432.24919454659999
 30
0.0
 11
1372.2451534278
 21
-432.24919454659999
 31
0.0
  0
INSERT
  5
F1
  8
0
  6
CONTINUOUS
  2
*U102
 10
0.0
 20
0.0
 30
0.0
  0
CIRCLE
  5
F2
  8
図枠
 10
1399.4951534278
 20
-432.24919454659999
 30
0.0
 40
6.0
  0
LINE
  5
F3
  8
図枠
 10
1413.2099472069999
 20
-429.24919454659999
 30
0.0
 11
1425.2099472069999
 21
-426.24919454659999
 31
0.0
  0
INSERT
  5
F4
  8
0
  6
CONTINUOUS
  2
*U103
 10
0.0
 20
0.0
 30
0.0
  0
CIRCLE
  5
F5
  8
図枠
 10
1399.4951534278
 20
-432.24919454659999
 30
0.0
 40
3.0
  0
LINE
  5
F6
  8
図枠
 10
1424.8419914207
 20
-497.05751212939998
 30
0.0
 11
1423.834814739
 21
-493.55751212939998
 31
0.0
  0
LINE
  5
F7
  8
図枠
 10
1422.5398732911001
 20
-489.05751212939998
 30
0.0
 11
1429.8419914207
 21
-489.05751212939998
 31
0.0
  0
LINE
  5
F8
  8
図枠
 10
1379.2982847999999
 20
-492.05751212939998
 30
0.0
 11
1382.2982847999999
 21
-492.05751212939998
 31
0.0
  0
LINE
  5
F9
  8
図枠
 10
1412.3419914207
 20
-478.30751212939998
 30
0.0
 11
1422.3419914207
 21
-478.30751212939998
 31
0.0
  0
LINE
  5
FA
  8
図枠
 10
1351.3967696484999
 20
-483.30751212939998
 30
0.0
 11
1348.5190101195999
 21
-483.30751212939998
 31
0.0
  0
LINE
  5
FB
  8
図枠
 10
1379.2982847999999
 20
-492.05751212939998
 30
0.0
 11
1379.2982847999999
 21
-495.80751212939998
 31
0.0
  0
LINE
  5
FC
  8
図枠
 10
1351.3967696484999
 20
-487.05751212939998
 30
0.0
 11
1351.0190101195999
 21
-487.05751212939998
 31
0.0
  0
LINE
  5
FD
  8
図枠
 10
1351.3967696484999
 20
-492.05751212939998
 30
0.0
 11
1351.3967696484999
 21
-495.80751212939998
 31
0.0
  0
ARC
  5
FE
  8
図枠
 10
1382.2982847999999
 20
-482.55751212939998
 30
0.0
 40
9.5
 50
331.39928138329998
 51
358.49204224580001
  0
LINE
  5
FF
  8
図枠
 10
1368.8967696484999
 20
-487.05751212939998
 30
0.0
 11
1372.6467696484999
 21
-487.05751212939998
 31
0.0
  0
ARC
  5
100
  8
図枠
 10
1385.5482847999999
 20
-482.05751212939998
 30
0.0
 40
13.75
 50
270.0
 51
302.54495885400001
  0
LINE
  5
101
  8
図枠
 10
1413.2099472069999
 20
-435.24919454659999
 30
0.0
 11
1425.2099472069999
 21
-438.24919454659999
 31
0.0
  0
LINE
  5
102
  8
図枠
 10
1413.2099472069999
 20
-429.24919454659999
 30
0.0
 11
1413.2099472069999
 21
-435.24919454659999
 31
0.0
  0
LINE
  5
103
  8
図枠
 10
1425.2099472069999
 20
-426.24919454659999
 30
0.0
 11
1425.2099472069999
 21
-438.24919454659999
 31
0.0
  0
LINE
  5
104
  8
図枠
 10
1389.2982847999999
 20
-484.11278779809999
 30
0.0
 11
1387.8840712376
 21
-485.52700136049998
 31
0.0
  0
LINE
  5
105
  8
図枠
  6
BORDER
 10
1390.4951534278
 20
-432.24919454659999
 30
0.0
 11
1428.9951534278
 21
-432.24919454659999
 31
0.0
  0
CIRCLE
  5
106
  8
図枠
 10
1399.4951534278
 20
-432.24919454659999
 30
0.0
 40
3.0
  0
POLYLINE
  8
図枠
  5
6AD
  66
     1
 10
0.000000
 20
0.000000
 30
0.000000
  70
     8
  0
VERTEX
  8
図枠
  5
6AE
 10
1396.01
 20
-490.866
 30
0.000000
  70
    32
  0
VERTEX
  8
図枠
  5
6AF
 10
1396.05
 20
-490.879
 30
0.000000
  70
    32
  0
VERTEX
  8
図枠
  5
6B0
 10
1396.10
 20
-490.891
 30
0.000000
  70
    32
  0
VERTEX
  8
図枠
  5
6B1
 10
1396.14
 20
-490.903
 30
0.000000
  70
    32
  0
VERTEX
  8
図枠
  5
6B2
 10
1396.18
 20
-490.915
 30
0.000000
  70
    32
  0
VERTEX
  8
図枠
  5
6B3
 10
1396.23
 20
-490.928
 30
0.000000
  70
    32
  0
VERTEX
  8
図枠
  5
6B4
 10
1396.27
 20
-490.940
 30
0.000000
  70
    32
  0
VERTEX
  8
図枠
  5
6B5
 10
1396.32
 20
-490.952
 30
0.000000
  70
    32
  0
VERTEX
  8
図枠
  5
6B6
 10
1396.36
 20
-490.963
 30
0.000000
  70
    32
  0
VERTEX
  8
図枠
  5
6B7
 10
1396.40
 20
-490.975
 30
0.000000
  70
    32
  0
VERTEX
  8
図枠
  5
6B8
 10
1396.45
 20
-490.987
 30
0.000000
  70
    32
  0
VERTEX
  8
図枠
  5
6B9
 10
1396.49
 20
-490.999
 30
0.000000
  70
    32
  0
VERTEX
  8
図枠
  5
6BA
 10
1396.54
 20
-491.010
 30
0.000000
  70
    32
  0
VERTEX
  8
図枠
  5
6BB
 10
1396.58
 20
-491.022
 30
0.000000
  70
    32
  0
VERTEX
  8
図枠
  5
6BC
 10
1396.63
 20
-491.033
 30
0.000000
  70
    32
  0
VERTEX
  8
図枠
  5
6BD
 10
1396.67
 20
-491.045
 30
0.000000
  70
    32
  0
VERTEX
  8
図枠
  5
6BE
 10
1396.71
 20
-491.056
 30
0.000000
  70
    32
  0
VERTEX
  8
図枠
  5
6BF
 10
1396.76
 20
-491.068
 30
0.000000
  70
    32
  0
VERTEX
  8
図枠
  5
6C0
 10
1396.80
 20
-491.079
 30
0.000000
  70
    32
  0
VERTEX
  8
図枠
  5
6C1
 10
1396.85
 20
-491.090
 30
0.000000
  70
    32
  0
VERTEX
  8
図枠
  5
6C2
 10
1396.89
 20
-491.101
 30
0.000000
  70
    32
  0
VERTEX
  8
図枠
  5
6C3
 10
1396.94
 20
-491.112
 30
0.000000
  70
    32
  0
VERTEX
  8
図枠
  5
6C4
 10
1396.98
 20
-491.123
 30
0.000000
  70
    32
  0
VERTEX
  8
図枠
  5
6C5
 10
1397.03
 20
-491.134
 30
0.000000
  70
    32
  0
VERTEX
  8
図枠
  5
6C6
 10
1397.07
 20
-491.145
 30
0.000000
  70
    32
  0
VERTEX
  8
図枠
  5
6C7
 10
1397.12
 20
-491.156
 30
0.000000
  70
    32
  0
VERTEX
  8
図枠
  5
6C8
 10
1397.16
 20
-491.167
 30
0.000000
  70
    32
  0
VERTEX
  8
図枠
  5
6C9
 10
1397.20
 20
-491.177
 30
0.000000
  70
    32
  0
VERTEX
  8
図枠
  5
6CA
 10
1397.25
 20
-491.188
 30
0.000000
  70
    32
  0
VERTEX
  8
図枠
  5
6CB
 10
1397.29
 20
-491.199
 30
0.000000
  70
    32
  0
VERTEX
  8
図枠
  5
6CC
 10
1397.34
 20
-491.209
 30
0.000000
  70
    32
  0
VERTEX
  8
図枠
  5
6CD
 10
1397.38
 20
-491.220
 30
0.000000
  70
    32
  0
VERTEX
  8
図枠
  5
6CE
 10
1397.43
 20
-491.230
 30
0.000000
  70
    32
  0
VERTEX
  8
図枠
  5
6CF
 10
1397.47
 20
-491.241
 30
0.000000
  70
    32
  0
VERTEX
  8
図枠
  5
6D0
 10
1397.52
 20
-491.251
 30
0.000000
  70
    32
  0
VERTEX
  8
図枠
  5
6D1
 10
1397.56
 20
-491.261
 30
0.000000
  70
    32
  0
VERTEX
  8
図枠
  5
6D2
 10
1397.61
 20
-491.271
 30
0.000000
  70
    32
  0
VERTEX
  8
図枠
  5
6D3
 10
1397.65
 20
-491.282
 30
0.000000
  70
    32
  0
VERTEX
  8
図枠
  5
6D4
 10
1397.70
 20
-491.292
 30
0.000000
  70
    32
  0
VERTEX
  8
図枠
  5
6D5
 10
1397.74
 20
-491.302
 30
0.000000
  70
    32
  0
VERTEX
  8
図枠
  5
6D6
 10
1397.79
 20
-491.312
 30
0.000000
  70
    32
  0
VERTEX
  8
図枠
  5
6D7
 10
1397.83
 20
-491.322
 30
0.000000
  70
    32
  0
VERTEX
  8
図枠
  5
6D8
 10
1397.88
 20
-491.332
 30
0.000000
  70
    32
  0
VERTEX
  8
図枠
  5
6D9
 10
1397.93
 20
-491.342
 30
0.000000
  70
    32
  0
VERTEX
  8
図枠
  5
6DA
 10
1397.97
 20
-491.351
 30
0.000000
  70
    32
  0
VERTEX
  8
図枠
  5
6DB
 10
1398.02
 20
-491.361
 30
0.000000
  70
    32
  0
VERTEX
  8
図枠
  5
6DC
 10
1398.06
 20
-491.371
 30
0.000000
  70
    32
  0
VERTEX
  8
図枠
  5
6DD
 10
1398.11
 20
-491.381
 30
0.000000
  70
    32
  0
VERTEX
  8
図枠
  5
6DE
 10
1398.15
 20
-491.390
 30
0.000000
  70
    32
  0
VERTEX
  8
図枠
  5
6DF
 10
1398.20
 20
-491.400
 30
0.000000
  70
    32
  0
VERTEX
  8
図枠
  5
6E0
 10
1398.24
 20
-491.409
 30
0.000000
  70
    32
  0
VERTEX
  8
図枠
  5
6E1
 10
1398.29
 20
-491.419
 30
0.000000
  70
    32
  0
VERTEX
  8
図枠
  5
6E2
 10
1398.33
 20
-491.428
 30
0.000000
  70
    32
  0
VERTEX
  8
図枠
  5
6E3
 10
1398.38
 20
-491.438
 30
0.000000
  70
    32
  0
VERTEX
  8
図枠
  5
6E4
 10
1398.42
 20
-491.447
 30
0.000000
  70
    32
  0
VERTEX
  8
図枠
  5
6E5
 10
1398.47
 20
-491.457
 30
0.000000
  70
    32
  0
VERTEX
  8
図枠
  5
6E6
 10
1398.52
 20
-491.466
 30
0.000000
  70
    32
  0
VERTEX
  8
図枠
  5
6E7
 10
1398.56
 20
-491.475
 30
0.000000
  70
    32
  0
VERTEX
  8
図枠
  5
6E8
 10
1398.61
 20
-491.484
 30
0.000000
  70
    32
  0
VERTEX
  8
図枠
  5
6E9
 10
1398.65
 20
-491.494
 30
0.000000
  70
    32
  0
VERTEX
  8
図枠
  5
6EA
 10
1398.70
 20
-491.503
 30
0.000000
  70
    32
  0
VERTEX
  8
図枠
  5
6EB
 10
1398.74
 20
-491.512
 30
0.000000
  70
    32
  0
VERTEX
  8
図枠
  5
6EC
 10
1398.79
 20
-491.521
 30
0.000000
  70
    32
  0
VERTEX
  8
図枠
  5
6ED
 10
1398.84
 20
-491.530
 30
0.000000
  70
    32
  0
VERTEX
  8
図枠
  5
6EE
 10
1398.88
 20
-491.539
 30
0.000000
  70
    32
  0
VERTEX
  8
図枠
  5
6EF
 10
1398.93
 20
-491.548
 30
0.000000
  70
    32
  0
VERTEX
  8
図枠
  5
6F0
 10
1398.97
 20
-491.557
 30
0.000000
  70
    32
  0
VERTEX
  8
図枠
  5
6F1
 10
1399.02
 20
-491.566
 30
0.000000
  70
    32
  0
VERTEX
  8
図枠
  5
6F2
 10
1399.07
 20
-491.575
 30
0.000000
  70
    32
  0
VERTEX
  8
図枠
  5
6F3
 10
1399.11
 20
-491.583
 30
0.000000
  70
    32
  0
VERTEX
  8
図枠
  5
6F4
 10
1399.16
 20
-491.592
 30
0.000000
  70
    32
  0
VERTEX
  8
図枠
  5
6F5
 10
1399.20
 20
-491.601
 30
0.000000
  70
    32
  0
VERTEX
  8
図枠
  5
6F6
 10
1399.25
 20
-491.610
 30
0.000000
  70
    32
  0
VERTEX
  8
図枠
  5
6F7
 10
1399.30
 20
-491.618
 30
0.000000
  70
    32
  0
VERTEX
  8
図枠
  5
6F8
 10
1399.34
 20
-491.627
 30
0.000000
  70
    32
  0
VERTEX
  8
図枠
  5
6F9
 10
1399.39
 20
-491.636
 30
0.000000
  70
    32
  0
VERTEX
  8
図枠
  5
6FA
 10
1399.43
 20
-491.644
 30
0.000000
  70
    32
  0
VERTEX
  8
図枠
  5
6FB
 10
1399.48
 20
-491.653
 30
0.000000
  70
    32
  0
VERTEX
  8
図枠
  5
6FC
 10
1399.53
 20
-491.661
 30
0.000000
  70
    32
  0
VERTEX
  8
図枠
  5
6FD
 10
1399.57
 20
-491.670
 30
0.000000
  70
    32
  0
VERTEX
  8
図枠
  5
6FE
 10
1399.62
 20
-491.678
 30
0.000000
  70
    32
  0
VERTEX
  8
図枠
  5
6FF
 10
1399.66
 20
-491.687
 30
0.000000
  70
    32
  0
VERTEX
  8
図枠
  5
700
 10
1399.71
 20
-491.695
 30
0.000000
  70
    32
  0
VERTEX
  8
図枠
  5
701
 10
1399.76
 20
-491.704
 30
0.000000
  70
    32
  0
VERTEX
  8
図枠
  5
702
 10
1399.80
 20
-491.712
 30
0.000000
  70
    32
  0
VERTEX
  8
図枠
  5
703
 10
1399.85
 20
-491.721
 30
0.000000
  70
    32
  0
VERTEX
  8
図枠
  5
704
 10
1399.89
 20
-491.729
 30
0.000000
  70
    32
  0
VERTEX
  8
図枠
  5
705
 10
1399.94
 20
-491.737
 30
0.000000
  70
    32
  0
VERTEX
  8
図枠
  5
706
 10
1399.99
 20
-491.745
 30
0.000000
  70
    32
  0
VERTEX
  8
図枠
  5
707
 10
1400.03
 20
-491.754
 30
0.000000
  70
    32
  0
VERTEX
  8
図枠
  5
708
 10
1400.08
 20
-491.762
 30
0.000000
  70
    32
  0
VERTEX
  8
図枠
  5
709
 10
1400.13
 20
-491.770
 30
0.000000
  70
    32
  0
VERTEX
  8
図枠
  5
70A
 10
1400.17
 20
-491.778
 30
0.000000
  70
    32
  0
VERTEX
  8
図枠
  5
70B
 10
1400.22
 20
-491.787
 30
0.000000
  70
    32
  0
VERTEX
  8
図枠
  5
70C
 10
1400.27
 20
-491.795
 30
0.000000
  70
    32
  0
VERTEX
  8
図枠
  5
70D
 10
1400.31
 20
-491.803
 30
0.000000
  70
    32
  0
VERTEX
  8
図枠
  5
70E
 10
1400.36
 20
-491.811
 30
0.000000
  70
    32
  0
VERTEX
  8
図枠
  5
70F
 10
1400.40
 20
-491.819
 30
0.000000
  70
    32
  0
VERTEX
  8
図枠
  5
710
 10
1400.45
 20
-491.827
 30
0.000000
  70
    32
  0
VERTEX
  8
図枠
  5
711
 10
1400.50
 20
-491.835
 30
0.000000
  70
    32
  0
VERTEX
  8
図枠
  5
712
 10
1400.54
 20
-491.844
 30
0.000000
  70
    32
  0
VERTEX
  8
図枠
  5
713
 10
1400.59
 20
-491.852
 30
0.000000
  70
    32
  0
VERTEX
  8
図枠
  5
714
 10
1400.64
 20
-491.860
 30
0.000000
  70
    32
  0
VERTEX
  8
図枠
  5
715
 10
1400.68
 20
-491.868
 30
0.000000
  70
    32
  0
VERTEX
  8
図枠
  5
716
 10
1400.73
 20
-491.876
 30
0.000000
  70
    32
  0
VERTEX
  8
図枠
  5
717
 10
1400.78
 20
-491.884
 30
0.000000
  70
    32
  0
VERTEX
  8
図枠
  5
718
 10
1400.82
 20
-491.892
 30
0.000000
  70
    32
  0
VERTEX
  8
図枠
  5
719
 10
1400.87
 20
-491.900
 30
0.000000
  70
    32
  0
VERTEX
  8
図枠
  5
71A
 10
1400.91
 20
-491.908
 30
0.000000
  70
    32
  0
VERTEX
  8
図枠
  5
71B
 10
1400.96
 20
-491.916
 30
0.000000
  70
    32
  0
VERTEX
  8
図枠
  5
71C
 10
1401.01
 20
-491.923
 30
0.000000
  70
    32
  0
VERTEX
  8
図枠
  5
71D
 10
1401.05
 20
-491.931
 30
0.000000
  70
    32
  0
VERTEX
  8
図枠
  5
71E
 10
1401.10
 20
-491.939
 30
0.000000
  70
    32
  0
VERTEX
  8
図枠
  5
71F
 10
1401.15
 20
-491.947
 30
0.000000
  70
    32
  0
VERTEX
  8
図枠
  5
720
 10
1401.19
 20
-491.955
 30
0.000000
  70
    32
  0
VERTEX
  8
図枠
  5
721
 10
1401.24
 20
-491.963
 30
0.000000
  70
    32
  0
VERTEX
  8
図枠
  5
722
 10
1401.29
 20
-491.971
 30
0.000000
  70
    32
  0
VERTEX
  8
図枠
  5
723
 10
1401.33
 20
-491.979
 30
0.000000
  70
    32
  0
VERTEX
  8
図枠
  5
724
 10
1401.38
 20
-491.987
 30
0.000000
  70
    32
  0
VERTEX
  8
図枠
  5
725
 10
1401.43
 20
-491.995
 30
0.000000
  70
    32
  0
VERTEX
  8
図枠
  5
726
 10
1401.47
 20
-492.002
 30
0.000000
  70
    32
  0
VERTEX
  8
図枠
  5
727
 10
1401.52
 20
-492.010
 30
0.000000
  70
    32
  0
VERTEX
  8
図枠
  5
728
 10
1401.57
 20
-492.018
 30
0.000000
  70
    32
  0
VERTEX
  8
図枠
  5
729
 10
1401.61
 20
-492.026
 30
0.000000
  70
    32
  0
VERTEX
  8
図枠
  5
72A
 10
1401.66
 20
-492.034
 30
0.000000
  70
    32
  0
VERTEX
  8
図枠
  5
72B
 10
1401.71
 20
-492.042
 30
0.000000
  70
    32
  0
VERTEX
  8
図枠
  5
72C
 10
1401.75
 20
-492.050
 30
0.000000
  70
    32
  0
VERTEX
  8
図枠
  5
72D
 10
1401.80
 20
-492.058
 30
0.000000
  70
    32
  0
SEQEND
  8
図枠
  5
72E
  0
POLYLINE
  8
図枠
  5
72F
  66
     1
 10
0.000000
 20
0.000000
 30
0.000000
  70
     8
  0
VERTEX
  8
図枠
  5
730
 10
1387.88
 20
-485.527
 30
0.000000
  70
    32
  0
VERTEX
  8
図枠
  5
731
 10
1387.90
 20
-485.545
 30
0.000000
  70
    32
  0
VERTEX
  8
図枠
  5
732
 10
1387.92
 20
-485.564
 30
0.000000
  70
    32
  0
VERTEX
  8
図枠
  5
733
 10
1387.93
 20
-485.582
 30
0.000000
  70
    32
  0
VERTEX
  8
図枠
  5
734
 10
1387.95
 20
-485.601
 30
0.000000
  70
    32
  0
VERTEX
  8
図枠
  5
735
 10
1387.97
 20
-485.619
 30
0.000000
  70
    32
  0
VERTEX
  8
図枠
  5
736
 10
1387.98
 20
-485.637
 30
0.000000
  70
    32
  0
VERTEX
  8
図枠
  5
737
 10
1388.00
 20
-485.656
 30
0.000000
  70
    32
  0
VERTEX
  8
図枠
  5
738
 10
1388.02
 20
-485.674
 30
0.000000
  70
    32
  0
VERTEX
  8
図枠
  5
739
 10
1388.03
 20
-485.693
 30
0.000000
  70
    32
  0
VERTEX
  8
図枠
  5
73A
 10
1388.05
 20
-485.711
 30
0.000000
  70
    32
  0
VERTEX
  8
図枠
  5
73B
 10
1388.07
 20
-485.729
 30
0.000000
  70
    32
  0
VERTEX
  8
図枠
  5
73C
 10
1388.08
 20
-485.748
 30
0.000000
  70
    32
  0
VERTEX
  8
図枠
  5
73D
 10
1388.10
 20
-485.766
 30
0.000000
  70
    32
  0
VERTEX
  8
図枠
  5
73E
 10
1388.12
 20
-485.784
 30
0.000000
  70
    32
  0
VERTEX
  8
図枠
  5
73F
 10
1388.13
 20
-485.803
 30
0.000000
  70
    32
  0
VERTEX
  8
図枠
  5
740
 10
1388.15
 20
-485.821
 30
0.000000
  70
    32
  0
VERTEX
  8
図枠
  5
741
 10
1388.16
 20
-485.840
 30
0.000000
  70
    32
  0
VERTEX
  8
図枠
  5
742
 10
1388.18
 20
-485.858
 30
0.000000
  70
    32
  0
VERTEX
  8
図枠
  5
743
 10
1388.20
 20
-485.876
 30
0.000000
  70
    32
  0
VERTEX
  8
図枠
  5
744
 10
1388.21
 20
-485.895
 30
0.000000
  70
    32
  0
VERTEX
  8
図枠
  5
745
 10
1388.23
 20
-485.913
 30
0.000000
  70
    32
  0
VERTEX
  8
図枠
  5
746
 10
1388.25
 20
-485.931
 30
0.000000
  70
    32
  0
VERTEX
  8
図枠
  5
747
 10
1388.26
 20
-485.950
 30
0.000000
  70
    32
  0
VERTEX
  8
図枠
  5
748
 10
1388.28
 20
-485.968
 30
0.000000
  70
    32
  0
VERTEX
  8
図枠
  5
749
 10
1388.30
 20
-485.986
 30
0.000000
  70
    32
  0
VERTEX
  8
図枠
  5
74A
 10
1388.31
 20
-486.004
 30
0.000000
  70
    32
  0
VERTEX
  8
図枠
  5
74B
 10
1388.33
 20
-486.023
 30
0.000000
  70
    32
  0
VERTEX
  8
図枠
  5
74C
 10
1388.35
 20
-486.041
 30
0.000000
  70
    32
  0
VERTEX
  8
図枠
  5
74D
 10
1388.36
 20
-486.059
 30
0.000000
  70
    32
  0
VERTEX
  8
図枠
  5
74E
 10
1388.38
 20
-486.078
 30
0.000000
  70
    32
  0
VERTEX
  8
図枠
  5
74F
 10
1388.40
 20
-486.096
 30
0.000000
  70
    32
  0
VERTEX
  8
図枠
  5
750
 10
1388.41
 20
-486.114
 30
0.000000
  70
    32
  0
VERTEX
  8
図枠
  5
751
 10
1388.43
 20
-486.132
 30
0.000000
  70
    32
  0
VERTEX
  8
図枠
  5
752
 10
1388.45
 20
-486.151
 30
0.000000
  70
    32
  0
VERTEX
  8
図枠
  5
753
 10
1388.46
 20
-486.169
 30
0.000000
  70
    32
  0
VERTEX
  8
図枠
  5
754
 10
1388.48
 20
-486.187
 30
0.000000
  70
    32
  0
VERTEX
  8
図枠
  5
755
 10
1388.50
 20
-486.205
 30
0.000000
  70
    32
  0
VERTEX
  8
図枠
  5
756
 10
1388.51
 20
-486.224
 30
0.000000
  70
    32
  0
VERTEX
  8
図枠
  5
757
 10
1388.53
 20
-486.242
 30
0.000000
  70
    32
  0
VERTEX
  8
図枠
  5
758
 10
1388.55
 20
-486.260
 30
0.000000
  70
    32
  0
VERTEX
  8
図枠
  5
759
 10
1388.56
 20
-486.278
 30
0.000000
  70
    32
  0
VERTEX
  8
図枠
  5
75A
 10
1388.58
 20
-486.296
 30
0.000000
  70
    32
  0
VERTEX
  8
図枠
  5
75B
 10
1388.60
 20
-486.314
 30
0.000000
  70
    32
  0
VERTEX
  8
図枠
  5
75C
 10
1388.61
 20
-486.333
 30
0.000000
  70
    32
  0
VERTEX
  8
図枠
  5
75D
 10
1388.63
 20
-486.351
 30
0.000000
  70
    32
  0
VERTEX
  8
図枠
  5
75E
 10
1388.65
 20
-486.369
 30
0.000000
  70
    32
  0
VERTEX
  8
図枠
  5
75F
 10
1388.66
 20
-486.387
 30
0.000000
  70
    32
  0
VERTEX
  8
図枠
  5
760
 10
1388.68
 20
-486.405
 30
0.000000
  70
    32
  0
VERTEX
  8
図枠
  5
761
 10
1388.70
 20
-486.423
 30
0.000000
  70
    32
  0
VERTEX
  8
図枠
  5
762
 10
1388.71
 20
-486.441
 30
0.000000
  70
    32
  0
VERTEX
  8
図枠
  5
763
 10
1388.73
 20
-486.459
 30
0.000000
  70
    32
  0
VERTEX
  8
図枠
  5
764
 10
1388.75
 20
-486.477
 30
0.000000
  70
    32
  0
VERTEX
  8
図枠
  5
765
 10
1388.76
 20
-486.495
 30
0.000000
  70
    32
  0
VERTEX
  8
図枠
  5
766
 10
1388.78
 20
-486.513
 30
0.000000
  70
    32
  0
VERTEX
  8
図枠
  5
767
 10
1388.80
 20
-486.531
 30
0.000000
  70
    32
  0
VERTEX
  8
図枠
  5
768
 10
1388.81
 20
-486.549
 30
0.000000
  70
    32
  0
VERTEX
  8
図枠
  5
769
 10
1388.83
 20
-486.567
 30
0.000000
  70
    32
  0
VERTEX
  8
図枠
  5
76A
 10
1388.85
 20
-486.585
 30
0.000000
  70
    32
  0
VERTEX
  8
図枠
  5
76B
 10
1388.86
 20
-486.603
 30
0.000000
  70
    32
  0
VERTEX
  8
図枠
  5
76C
 10
1388.88
 20
-486.621
 30
0.000000
  70
    32
  0
VERTEX
  8
図枠
  5
76D
 10
1388.90
 20
-486.639
 30
0.000000
  70
    32
  0
VERTEX
  8
図枠
  5
76E
 10
1388.91
 20
-486.657
 30
0.000000
  70
    32
  0
VERTEX
  8
図枠
  5
76F
 10
1388.93
 20
-486.674
 30
0.000000
  70
    32
  0
VERTEX
  8
図枠
  5
770
 10
1388.95
 20
-486.692
 30
0.000000
  70
    32
  0
VERTEX
  8
図枠
  5
771
 10
1388.96
 20
-486.710
 30
0.000000
  70
    32
  0
VERTEX
  8
図枠
  5
772
 10
1388.98
 20
-486.728
 30
0.000000
  70
    32
  0
VERTEX
  8
図枠
  5
773
 10
1389.00
 20
-486.746
 30
0.000000
  70
    32
  0
VERTEX
  8
図枠
  5
774
 10
1389.01
 20
-486.764
 30
0.000000
  70
    32
  0
VERTEX
  8
図枠
  5
775
 10
1389.03
 20
-486.781
 30
0.000000
  70
    32
  0
VERTEX
  8
図枠
  5
776
 10
1389.05
 20
-486.799
 30
0.000000
  70
    32
  0
VERTEX
  8
図枠
  5
777
 10
1389.07
 20
-486.817
 30
0.000000
  70
    32
  0
VERTEX
  8
図枠
  5
778
 10
1389.08
 20
-486.834
 30
0.000000
  70
    32
  0
VERTEX
  8
図枠
  5
779
 10
1389.10
 20
-486.852
 30
0.000000
  70
    32
  0
VERTEX
  8
図枠
  5
77A
 10
1389.12
 20
-486.870
 30
0.000000
  70
    32
  0
VERTEX
  8
図枠
  5
77B
 10
1389.13
 20
-486.887
 30
0.000000
  70
    32
  0
VERTEX
  8
図枠
  5
77C
 10
1389.15
 20
-486.905
 30
0.000000
  70
    32
  0
VERTEX
  8
図枠
  5
77D
 10
1389.17
 20
-486.923
 30
0.000000
  70
    32
  0
VERTEX
  8
図枠
  5
77E
 10
1389.18
 20
-486.940
 30
0.000000
  70
    32
  0
VERTEX
  8
図枠
  5
77F
 10
1389.20
 20
-486.958
 30
0.000000
  70
    32
  0
VERTEX
  8
図枠
  5
780
 10
1389.22
 20
-486.975
 30
0.000000
  70
    32
  0
VERTEX
  8
図枠
  5
781
 10
1389.24
 20
-486.993
 30
0.000000
  70
    32
  0
VERTEX
  8
図枠
  5
782
 10
1389.25
 20
-487.010
 30
0.000000
  70
    32
  0
VERTEX
  8
図枠
  5
783
 10
1389.27
 20
-487.028
 30
0.000000
  70
    32
  0
VERTEX
  8
図枠
  5
784
 10
1389.29
 20
-487.045
 30
0.000000
  70
    32
  0
VERTEX
  8
図枠
  5
785
 10
1389.30
 20
-487.063
 30
0.000000
  70
    32
  0
VERTEX
  8
図枠
  5
786
 10
1389.32
 20
-487.080
 30
0.000000
  70
    32
  0
VERTEX
  8
図枠
  5
787
 10
1389.34
 20
-487.097
 30
0.000000
  70
    32
  0
VERTEX
  8
図枠
  5
788
 10
1389.36
 20
-487.115
 30
0.000000
  70
    32
  0
VERTEX
  8
図枠
  5
789
 10
1389.37
 20
-487.132
 30
0.000000
  70
    32
  0
VERTEX
  8
図枠
  5
78A
 10
1389.39
 20
-487.149
 30
0.000000
  70
    32
  0
VERTEX
  8
図枠
  5
78B
 10
1389.41
 20
-487.167
 30
0.000000
  70
    32
  0
VERTEX
  8
図枠
  5
78C
 10
1389.42
 20
-487.184
 30
0.000000
  70
    32
  0
VERTEX
  8
図枠
  5
78D
 10
1389.44
 20
-487.201
 30
0.000000
  70
    32
  0
VERTEX
  8
図枠
  5
78E
 10
1389.46
 20
-487.218
 30
0.000000
  70
    32
  0
VERTEX
  8
図枠
  5
78F
 10
1389.48
 20
-487.235
 30
0.000000
  70
    32
  0
VERTEX
  8
図枠
  5
790
 10
1389.49
 20
-487.253
 30
0.000000
  70
    32
  0
VERTEX
  8
図枠
  5
791
 10
1389.51
 20
-487.270
 30
0.000000
  70
    32
  0
VERTEX
  8
図枠
  5
792
 10
1389.53
 20
-487.287
 30
0.000000
  70
    32
  0
VERTEX
  8
図枠
  5
793
 10
1389.54
 20
-487.304
 30
0.000000
  70
    32
  0
VERTEX
  8
図枠
  5
794
 10
1389.56
 20
-487.321
 30
0.000000
  70
    32
  0
VERTEX
  8
図枠
  5
795
 10
1389.58
 20
-487.338
 30
0.000000
  70
    32
  0
VERTEX
  8
図枠
  5
796
 10
1389.60
 20
-487.355
 30
0.000000
  70
    32
  0
VERTEX
  8
図枠
  5
797
 10
1389.61
 20
-487.372
 30
0.000000
  70
    32
  0
VERTEX
  8
図枠
  5
798
 10
1389.63
 20
-487.389
 30
0.000000
  70
    32
  0
VERTEX
  8
図枠
  5
799
 10
1389.65
 20
-487.406
 30
0.000000
  70
    32
  0
VERTEX
  8
図枠
  5
79A
 10
1389.67
 20
-487.422
 30
0.000000
  70
    32
  0
VERTEX
  8
図枠
  5
79B
 10
1389.68
 20
-487.439
 30
0.000000
  70
    32
  0
VERTEX
  8
図枠
  5
79C
 10
1389.70
 20
-487.456
 30
0.000000
  70
    32
  0
VERTEX
  8
図枠
  5
79D
 10
1389.72
 20
-487.473
 30
0.000000
  70
    32
  0
VERTEX
  8
図枠
  5
79E
 10
1389.74
 20
-487.490
 30
0.000000
  70
    32
  0
VERTEX
  8
図枠
  5
79F
 10
1389.75
 20
-487.506
 30
0.000000
  70
    32
  0
VERTEX
  8
図枠
  5
7A0
 10
1389.77
 20
-487.523
 30
0.000000
  70
    32
  0
VERTEX
  8
図枠
  5
7A1
 10
1389.79
 20
-487.540
 30
0.000000
  70
    32
  0
VERTEX
  8
図枠
  5
7A2
 10
1389.81
 20
-487.556
 30
0.000000
  70
    32
  0
VERTEX
  8
図枠
  5
7A3
 10
1389.82
 20
-487.573
 30
0.000000
  70
    32
  0
VERTEX
  8
図枠
  5
7A4
 10
1389.84
 20
-487.589
 30
0.000000
  70
    32
  0
VERTEX
  8
図枠
  5
7A5
 10
1389.86
 20
-487.606
 30
0.000000
  70
    32
  0
VERTEX
  8
図枠
  5
7A6
 10
1389.88
 20
-487.623
 30
0.000000
  70
    32
  0
VERTEX
  8
図枠
  5
7A7
 10
1389.90
 20
-487.639
 30
0.000000
  70
    32
  0
VERTEX
  8
図枠
  5
7A8
 10
1389.91
 20
-487.655
 30
0.000000
  70
    32
  0
VERTEX
  8
図枠
  5
7A9
 10
1389.93
 20
-487.672
 30
0.000000
  70
    32
  0
VERTEX
  8
図枠
  5
7AA
 10
1389.95
 20
-487.688
 30
0.000000
  70
    32
  0
VERTEX
  8
図枠
  5
7AB
 10
1389.97
 20
-487.705
 30
0.000000
  70
    32
  0
VERTEX
  8
図枠
  5
7AC
 10
1389.98
 20
-487.721
 30
0.000000
  70
    32
  0
VERTEX
  8
図枠
  5
7AD
 10
1390.00
 20
-487.737
 30
0.000000
  70
    32
  0
VERTEX
  8
図枠
  5
7AE
 10
1390.02
 20
-487.753
 30
0.000000
  70
    32
  0
VERTEX
  8
図枠
  5
7AF
 10
1390.04
 20
-487.770
 30
0.000000
  70
    32
  0
SEQEND
  8
図枠
  5
7B0
  0
POLYLINE
  8
図枠
  5
7B1
  66
     1
 10
0.000000
 20
0.000000
 30
0.000000
  70
     8
  0
VERTEX
  8
図枠
  5
7B2
 10
1392.95
 20
-493.648
 30
0.000000
  70
    32
  0
VERTEX
  8
図枠
  5
7B3
 10
1393.01
 20
-493.670
 30
0.000000
  70
    32
  0
VERTEX
  8
図枠
  5
7B4
 10
1393.08
 20
-493.691
 30
0.000000
  70
    32
  0
VERTEX
  8
図枠
  5
7B5
 10
1393.15
 20
-493.712
 30
0.000000
  70
    32
  0
VERTEX
  8
図枠
  5
7B6
 10
1393.21
 20
-493.734
 30
0.000000
  70
    32
  0
VERTEX
  8
図枠
  5
7B7
 10
1393.28
 20
-493.755
 30
0.000000
  70
    32
  0
VERTEX
  8
図枠
  5
7B8
 10
1393.35
 20
-493.776
 30
0.000000
  70
    32
  0
VERTEX
  8
図枠
  5
7B9
 10
1393.42
 20
-493.796
 30
0.000000
  70
    32
  0
VERTEX
  8
図枠
  5
7BA
 10
1393.49
 20
-493.817
 30
0.000000
  70
    32
  0
VERTEX
  8
図枠
  5
7BB
 10
1393.55
 20
-493.838
 30
0.000000
  70
    32
  0
VERTEX
  8
図枠
  5
7BC
 10
1393.62
 20
-493.858
 30
0.000000
  70
    32
  0
VERTEX
  8
図枠
  5
7BD
 10
1393.69
 20
-493.879
 30
0.000000
  70
    32
  0
VERTEX
  8
図枠
  5
7BE
 10
1393.76
 20
-493.899
 30
0.000000
  70
    32
  0
VERTEX
  8
図枠
  5
7BF
 10
1393.82
 20
-493.919
 30
0.000000
  70
    32
  0
VERTEX
  8
図枠
  5
7C0
 10
1393.89
 20
-493.939
 30
0.000000
  70
    32
  0
VERTEX
  8
図枠
  5
7C1
 10
1393.96
 20
-493.960
 30
0.000000
  70
    32
  0
VERTEX
  8
図枠
  5
7C2
 10
1394.03
 20
-493.979
 30
0.000000
  70
    32
  0
VERTEX
  8
図枠
  5
7C3
 10
1394.10
 20
-493.999
 30
0.000000
  70
    32
  0
VERTEX
  8
図枠
  5
7C4
 10
1394.16
 20
-494.019
 30
0.000000
  70
    32
  0
VERTEX
  8
図枠
  5
7C5
 10
1394.23
 20
-494.039
 30
0.000000
  70
    32
  0
VERTEX
  8
図枠
  5
7C6
 10
1394.30
 20
-494.058
 30
0.000000
  70
    32
  0
VERTEX
  8
図枠
  5
7C7
 10
1394.37
 20
-494.078
 30
0.000000
  70
    32
  0
VERTEX
  8
図枠
  5
7C8
 10
1394.44
 20
-494.097
 30
0.000000
  70
    32
  0
VERTEX
  8
図枠
  5
7C9
 10
1394.51
 20
-494.117
 30
0.000000
  70
    32
  0
VERTEX
  8
図枠
  5
7CA
 10
1394.58
 20
-494.136
 30
0.000000
  70
    32
  0
VERTEX
  8
図枠
  5
7CB
 10
1394.64
 20
-494.155
 30
0.000000
  70
    32
  0
VERTEX
  8
図枠
  5
7CC
 10
1394.71
 20
-494.174
 30
0.000000
  70
    32
  0
VERTEX
  8
図枠
  5
7CD
 10
1394.78
 20
-494.193
 30
0.000000
  70
    32
  0
VERTEX
  8
図枠
  5
7CE
 10
1394.85
 20
-494.212
 30
0.000000
  70
    32
  0
VERTEX
  8
図枠
  5
7CF
 10
1394.92
 20
-494.231
 30
0.000000
  70
    32
  0
VERTEX
  8
図枠
  5
7D0
 10
1394.99
 20
-494.250
 30
0.000000
  70
    32
  0
VERTEX
  8
図枠
  5
7D1
 10
1395.06
 20
-494.268
 30
0.000000
  70
    32
  0
VERTEX
  8
図枠
  5
7D2
 10
1395.12
 20
-494.287
 30
0.000000
  70
    32
  0
VERTEX
  8
図枠
  5
7D3
 10
1395.19
 20
-494.305
 30
0.000000
  70
    32
  0
VERTEX
  8
図枠
  5
7D4
 10
1395.26
 20
-494.324
 30
0.000000
  70
    32
  0
VERTEX
  8
図枠
  5
7D5
 10
1395.33
 20
-494.342
 30
0.000000
  70
    32
  0
VERTEX
  8
図枠
  5
7D6
 10
1395.40
 20
-494.360
 30
0.000000
  70
    32
  0
VERTEX
  8
図枠
  5
7D7
 10
1395.47
 20
-494.378
 30
0.000000
  70
    32
  0
VERTEX
  8
図枠
  5
7D8
 10
1395.54
 20
-494.397
 30
0.000000
  70
    32
  0
VERTEX
  8
図枠
  5
7D9
 10
1395.61
 20
-494.415
 30
0.000000
  70
    32
  0
VERTEX
  8
図枠
  5
7DA
 10
1395.68
 20
-494.433
 30
0.000000
  70
    32
  0
VERTEX
  8
図枠
  5
7DB
 10
1395.75
 20
-494.450
 30
0.000000
  70
    32
  0
VERTEX
  8
図枠
  5
7DC
 10
1395.82
 20
-494.468
 30
0.000000
  70
    32
  0
VERTEX
  8
図枠
  5
7DD
 10
1395.89
 20
-494.486
 30
0.000000
  70
    32
  0
VERTEX
  8
図枠
  5
7DE
 10
1395.95
 20
-494.504
 30
0.000000
  70
    32
  0
VERTEX
  8
図枠
  5
7DF
 10
1396.02
 20
-494.521
 30
0.000000
  70
    32
  0
VERTEX
  8
図枠
  5
7E0
 10
1396.09
 20
-494.539
 30
0.000000
  70
    32
  0
VERTEX
  8
図枠
  5
7E1
 10
1396.16
 20
-494.556
 30
0.000000
  70
    32
  0
VERTEX
  8
図枠
  5
7E2
 10
1396.23
 20
-494.574
 30
0.000000
  70
    32
  0
VERTEX
  8
図枠
  5
7E3
 10
1396.30
 20
-494.591
 30
0.000000
  70
    32
  0
VERTEX
  8
図枠
  5
7E4
 10
1396.37
 20
-494.608
 30
0.000000
  70
    32
  0
VERTEX
  8
図枠
  5
7E5
 10
1396.44
 20
-494.625
 30
0.000000
  70
    32
  0
VERTEX
  8
図枠
  5
7E6
 10
1396.51
 20
-494.643
 30
0.000000
  70
    32
  0
VERTEX
  8
図枠
  5
7E7
 10
1396.58
 20
-494.660
 30
0.000000
  70
    32
  0
VERTEX
  8
図枠
  5
7E8
 10
1396.65
 20
-494.677
 30
0.000000
  70
    32
  0
VERTEX
  8
図枠
  5
7E9
 10
1396.72
 20
-494.694
 30
0.000000
  70
    32
  0
VERTEX
  8
図枠
  5
7EA
 10
1396.79
 20
-494.711
 30
0.000000
  70
    32
  0
VERTEX
  8
図枠
  5
7EB
 10
1396.86
 20
-494.727
 30
0.000000
  70
    32
  0
VERTEX
  8
図枠
  5
7EC
 10
1396.93
 20
-494.744
 30
0.000000
  70
    32
  0
VERTEX
  8
図枠
  5
7ED
 10
1397.00
 20
-494.761
 30
0.000000
  70
    32
  0
VERTEX
  8
図枠
  5
7EE
 10
1397.07
 20
-494.778
 30
0.000000
  70
    32
  0
VERTEX
  8
図枠
  5
7EF
 10
1397.14
 20
-494.794
 30
0.000000
  70
    32
  0
VERTEX
  8
図枠
  5
7F0
 10
1397.21
 20
-494.811
 30
0.000000
  70
    32
  0
VERTEX
  8
図枠
  5
7F1
 10
1397.28
 20
-494.827
 30
0.000000
  70
    32
  0
VERTEX
  8
図枠
  5
7F2
 10
1397.35
 20
-494.844
 30
0.000000
  70
    32
  0
VERTEX
  8
図枠
  5
7F3
 10
1397.42
 20
-494.860
 30
0.000000
  70
    32
  0
VERTEX
  8
図枠
  5
7F4
 10
1397.49
 20
-494.876
 30
0.000000
  70
    32
  0
VERTEX
  8
図枠
  5
7F5
 10
1397.56
 20
-494.893
 30
0.000000
  70
    32
  0
VERTEX
  8
図枠
  5
7F6
 10
1397.63
 20
-494.909
 30
0.000000
  70
    32
  0
VERTEX
  8
図枠
  5
7F7
 10
1397.70
 20
-494.925
 30
0.000000
  70
    32
  0
VERTEX
  8
図枠
  5
7F8
 10
1397.77
 20
-494.941
 30
0.000000
  70
    32
  0
VERTEX
  8
図枠
  5
7F9
 10
1397.84
 20
-494.957
 30
0.000000
  70
    32
  0
VERTEX
  8
図枠
  5
7FA
 10
1397.91
 20
-494.973
 30
0.000000
  70
    32
  0
VERTEX
  8
図枠
  5
7FB
 10
1397.98
 20
-494.989
 30
0.000000
  70
    32
  0
VERTEX
  8
図枠
  5
7FC
 10
1398.05
 20
-495.005
 30
0.000000
  70
    32
  0
VERTEX
  8
図枠
  5
7FD
 10
1398.12
 20
-495.021
 30
0.000000
  70
    32
  0
VERTEX
  8
図枠
  5
7FE
 10
1398.19
 20
-495.037
 30
0.000000
  70
    32
  0
VERTEX
  8
図枠
  5
7FF
 10
1398.26
 20
-495.053
 30
0.000000
  70
    32
  0
VERTEX
  8
図枠
  5
800
 10
1398.33
 20
-495.069
 30
0.000000
  70
    32
  0
VERTEX
  8
図枠
  5
801
 10
1398.40
 20
-495.084
 30
0.000000
  70
    32
  0
VERTEX
  8
図枠
  5
802
 10
1398.47
 20
-495.100
 30
0.000000
  70
    32
  0
VERTEX
  8
図枠
  5
803
 10
1398.54
 20
-495.116
 30
0.000000
  70
    32
  0
VERTEX
  8
図枠
  5
804
 10
1398.61
 20
-495.131
 30
0.000000
  70
    32
  0
VERTEX
  8
図枠
  5
805
 10
1398.68
 20
-495.147
 30
0.000000
  70
    32
  0
VERTEX
  8
図枠
  5
806
 10
1398.75
 20
-495.162
 30
0.000000
  70
    32
  0
VERTEX
  8
図枠
  5
807
 10
1398.82
 20
-495.178
 30
0.000000
  70
    32
  0
VERTEX
  8
図枠
  5
808
 10
1398.90
 20
-495.193
 30
0.000000
  70
    32
  0
VERTEX
  8
図枠
  5
809
 10
1398.97
 20
-495.209
 30
0.000000
  70
    32
  0
VERTEX
  8
図枠
  5
80A
 10
1399.04
 20
-495.224
 30
0.000000
  70
    32
  0
VERTEX
  8
図枠
  5
80B
 10
1399.11
 20
-495.240
 30
0.000000
  70
    32
  0
VERTEX
  8
図枠
  5
80C
 10
1399.18
 20
-495.255
 30
0.000000
  70
    32
  0
VERTEX
  8
図枠
  5
80D
 10
1399.25
 20
-495.270
 30
0.000000
  70
    32
  0
VERTEX
  8
図枠
  5
80E
 10
1399.32
 20
-495.285
 30
0.000000
  70
    32
  0
VERTEX
  8
図枠
  5
80F
 10
1399.39
 20
-495.301
 30
0.000000
  70
    32
  0
VERTEX
  8
図枠
  5
810
 10
1399.46
 20
-495.316
 30
0.000000
  70
    32
  0
VERTEX
  8
図枠
  5
811
 10
1399.53
 20
-495.331
 30
0.000000
  70
    32
  0
VERTEX
  8
図枠
  5
812
 10
1399.60
 20
-495.346
 30
0.000000
  70
    32
  0
VERTEX
  8
図枠
  5
813
 10
1399.67
 20
-495.361
 30
0.000000
  70
    32
  0
VERTEX
  8
図枠
  5
814
 10
1399.74
 20
-495.376
 30
0.000000
  70
    32
  0
VERTEX
  8
図枠
  5
815
 10
1399.81
 20
-495.392
 30
0.000000
  70
    32
  0
VERTEX
  8
図枠
  5
816
 10
1399.88
 20
-495.407
 30
0.000000
  70
    32
  0
VERTEX
  8
図枠
  5
817
 10
1399.96
 20
-495.422
 30
0.000000
  70
    32
  0
VERTEX
  8
図枠
  5
818
 10
1400.03
 20
-495.437
 30
0.000000
  70
    32
  0
VERTEX
  8
図枠
  5
819
 10
1400.10
 20
-495.452
 30
0.000000
  70
    32
  0
VERTEX
  8
図枠
  5
81A
 10
1400.17
 20
-495.467
 30
0.000000
  70
    32
  0
VERTEX
  8
図枠
  5
81B
 10
1400.24
 20
-495.482
 30
0.000000
  70
    32
  0
VERTEX
  8
図枠
  5
81C
 10
1400.31
 20
-495.497
 30
0.000000
  70
    32
  0
VERTEX
  8
図枠
  5
81D
 10
1400.38
 20
-495.511
 30
0.000000
  70
    32
  0
VERTEX
  8
図枠
  5
81E
 10
1400.45
 20
-495.526
 30
0.000000
  70
    32
  0
VERTEX
  8
図枠
  5
81F
 10
1400.52
 20
-495.541
 30
0.000000
  70
    32
  0
VERTEX
  8
図枠
  5
820
 10
1400.59
 20
-495.556
 30
0.000000
  70
    32
  0
VERTEX
  8
図枠
  5
821
 10
1400.66
 20
-495.571
 30
0.000000
  70
    32
  0
VERTEX
  8
図枠
  5
822
 10
1400.73
 20
-495.586
 30
0.000000
  70
    32
  0
VERTEX
  8
図枠
  5
823
 10
1400.81
 20
-495.601
 30
0.000000
  70
    32
  0
VERTEX
  8
図枠
  5
824
 10
1400.88
 20
-495.616
 30
0.000000
  70
    32
  0
VERTEX
  8
図枠
  5
825
 10
1400.95
 20
-495.630
 30
0.000000
  70
    32
  0
VERTEX
  8
図枠
  5
826
 10
1401.02
 20
-495.645
 30
0.000000
  70
    32
  0
VERTEX
  8
図枠
  5
827
 10
1401.09
 20
-495.660
 30
0.000000
  70
    32
  0
VERTEX
  8
図枠
  5
828
 10
1401.16
 20
-495.675
 30
0.000000
  70
    32
  0
VERTEX
  8
図枠
  5
829
 10
1401.23
 20
-495.689
 30
0.000000
  70
    32
  0
VERTEX
  8
図枠
  5
82A
 10
1401.30
 20
-495.704
 30
0.000000
  70
    32
  0
VERTEX
  8
図枠
  5
82B
 10
1401.37
 20
-495.719
 30
0.000000
  70
    32
  0
VERTEX
  8
図枠
  5
82C
 10
1401.44
 20
-495.734
 30
0.000000
  70
    32
  0
VERTEX
  8
図枠
  5
82D
 10
1401.51
 20
-495.749
 30
0.000000
  70
    32
  0
VERTEX
  8
図枠
  5
82E
 10
1401.59
 20
-495.763
 30
0.000000
  70
    32
  0
VERTEX
  8
図枠
  5
82F
 10
1401.66
 20
-495.778
 30
0.000000
  70
    32
  0
VERTEX
  8
図枠
  5
830
 10
1401.73
 20
-495.793
 30
0.000000
  70
    32
  0
VERTEX
  8
図枠
  5
831
 10
1401.80
 20
-495.808
 30
0.000000
  70
    32
  0
SEQEND
  8
図枠
  5
832
  0
POLYLINE
  8
図枠
  5
833
  66
     1
 10
0.000000
 20
0.000000
 30
0.000000
  70
     8
  0
VERTEX
  8
図枠
  5
834
 10
1379.30
 20
-484.918
 30
0.000000
  70
    32
  0
VERTEX
  8
図枠
  5
835
 10
1379.34
 20
-484.960
 30
0.000000
  70
    32
  0
VERTEX
  8
図枠
  5
836
 10
1379.39
 20
-485.001
 30
0.000000
  70
    32
  0
VERTEX
  8
図枠
  5
837
 10
1379.43
 20
-485.043
 30
0.000000
  70
    32
  0
VERTEX
  8
図枠
  5
838
 10
1379.48
 20
-485.084
 30
0.000000
  70
    32
  0
VERTEX
  8
図枠
  5
839
 10
1379.52
 20
-485.126
 30
0.000000
  70
    32
  0
VERTEX
  8
図枠
  5
83A
 10
1379.57
 20
-485.167
 30
0.000000
  70
    32
  0
VERTEX
  8
図枠
  5
83B
 10
1379.61
 20
-485.209
 30
0.000000
  70
    32
  0
VERTEX
  8
図枠
  5
83C
 10
1379.66
 20
-485.250
 30
0.000000
  70
    32
  0
VERTEX
  8
図枠
  5
83D
 10
1379.70
 20
-485.292
 30
0.000000
  70
    32
  0
VERTEX
  8
図枠
  5
83E
 10
1379.75
 20
-485.333
 30
0.000000
  70
    32
  0
VERTEX
  8
図枠
  5
83F
 10
1379.79
 20
-485.374
 30
0.000000
  70
    32
  0
VERTEX
  8
図枠
  5
840
 10
1379.84
 20
-485.416
 30
0.000000
  70
    32
  0
VERTEX
  8
図枠
  5
841
 10
1379.88
 20
-485.457
 30
0.000000
  70
    32
  0
VERTEX
  8
図枠
  5
842
 10
1379.93
 20
-485.499
 30
0.000000
  70
    32
  0
VERTEX
  8
図枠
  5
843
 10
1379.97
 20
-485.540
 30
0.000000
  70
    32
  0
VERTEX
  8
図枠
  5
844
 10
1380.02
 20
-485.582
 30
0.000000
  70
    32
  0
VERTEX
  8
図枠
  5
845
 10
1380.06
 20
-485.623
 30
0.000000
  70
    32
  0
VERTEX
  8
図枠
  5
846
 10
1380.11
 20
-485.664
 30
0.000000
  70
    32
  0
VERTEX
  8
図枠
  5
847
 10
1380.15
 20
-485.706
 30
0.000000
  70
    32
  0
VERTEX
  8
図枠
  5
848
 10
1380.20
 20
-485.747
 30
0.000000
  70
    32
  0
VERTEX
  8
図枠
  5
849
 10
1380.24
 20
-485.788
 30
0.000000
  70
    32
  0
VERTEX
  8
図枠
  5
84A
 10
1380.29
 20
-485.830
 30
0.000000
  70
    32
  0
VERTEX
  8
図枠
  5
84B
 10
1380.33
 20
-485.871
 30
0.000000
  70
    32
  0
VERTEX
  8
図枠
  5
84C
 10
1380.38
 20
-485.912
 30
0.000000
  70
    32
  0
VERTEX
  8
図枠
  5
84D
 10
1380.43
 20
-485.953
 30
0.000000
  70
    32
  0
VERTEX
  8
図枠
  5
84E
 10
1380.47
 20
-485.995
 30
0.000000
  70
    32
  0
VERTEX
  8
図枠
  5
84F
 10
1380.52
 20
-486.036
 30
0.000000
  70
    32
  0
VERTEX
  8
図枠
  5
850
 10
1380.56
 20
-486.077
 30
0.000000
  70
    32
  0
VERTEX
  8
図枠
  5
851
 10
1380.61
 20
-486.118
 30
0.000000
  70
    32
  0
VERTEX
  8
図枠
  5
852
 10
1380.65
 20
-486.159
 30
0.000000
  70
    32
  0
VERTEX
  8
図枠
  5
853
 10
1380.70
 20
-486.200
 30
0.000000
  70
    32
  0
VERTEX
  8
図枠
  5
854
 10
1380.74
 20
-486.242
 30
0.000000
  70
    32
  0
VERTEX
  8
図枠
  5
855
 10
1380.79
 20
-486.283
 30
0.000000
  70
    32
  0
VERTEX
  8
図枠
  5
856
 10
1380.83
 20
-486.324
 30
0.000000
  70
    32
  0
VERTEX
  8
図枠
  5
857
 10
1380.88
 20
-486.365
 30
0.000000
  70
    32
  0
VERTEX
  8
図枠
  5
858
 10
1380.92
 20
-486.406
 30
0.000000
  70
    32
  0
VERTEX
  8
図枠
  5
859
 10
1380.97
 20
-486.447
 30
0.000000
  70
    32
  0
VERTEX
  8
図枠
  5
85A
 10
1381.01
 20
-486.487
 30
0.000000
  70
    32
  0
VERTEX
  8
図枠
  5
85B
 10
1381.06
 20
-486.528
 30
0.000000
  70
    32
  0
VERTEX
  8
図枠
  5
85C
 10
1381.10
 20
-486.569
 30
0.000000
  70
    32
  0
VERTEX
  8
図枠
  5
85D
 10
1381.15
 20
-486.610
 30
0.000000
  70
    32
  0
VERTEX
  8
図枠
  5
85E
 10
1381.20
 20
-486.651
 30
0.000000
  70
    32
  0
VERTEX
  8
図枠
  5
85F
 10
1381.24
 20
-486.691
 30
0.000000
  70
    32
  0
VERTEX
  8
図枠
  5
860
 10
1381.29
 20
-486.732
 30
0.000000
  70
    32
  0
VERTEX
  8
図枠
  5
861
 10
1381.33
 20
-486.773
 30
0.000000
  70
    32
  0
VERTEX
  8
図枠
  5
862
 10
1381.38
 20
-486.813
 30
0.000000
  70
    32
  0
VERTEX
  8
図枠
  5
863
 10
1381.42
 20
-486.854
 30
0.000000
  70
    32
  0
VERTEX
  8
図枠
  5
864
 10
1381.47
 20
-486.894
 30
0.000000
  70
    32
  0
VERTEX
  8
図枠
  5
865
 10
1381.51
 20
-486.935
 30
0.000000
  70
    32
  0
VERTEX
  8
図枠
  5
866
 10
1381.56
 20
-486.975
 30
0.000000
  70
    32
  0
VERTEX
  8
図枠
  5
867
 10
1381.61
 20
-487.016
 30
0.000000
  70
    32
  0
VERTEX
  8
図枠
  5
868
 10
1381.65
 20
-487.056
 30
0.000000
  70
    32
  0
VERTEX
  8
図枠
  5
869
 10
1381.70
 20
-487.096
 30
0.000000
  70
    32
  0
VERTEX
  8
図枠
  5
86A
 10
1381.74
 20
-487.137
 30
0.000000
  70
    32
  0
VERTEX
  8
図枠
  5
86B
 10
1381.79
 20
-487.177
 30
0.000000
  70
    32
  0
VERTEX
  8
図枠
  5
86C
 10
1381.83
 20
-487.217
 30
0.000000
  70
    32
  0
VERTEX
  8
図枠
  5
86D
 10
1381.88
 20
-487.257
 30
0.000000
  70
    32
  0
VERTEX
  8
図枠
  5
86E
 10
1381.93
 20
-487.297
 30
0.000000
  70
    32
  0
VERTEX
  8
図枠
  5
86F
 10
1381.97
 20
-487.337
 30
0.000000
  70
    32
  0
VERTEX
  8
図枠
  5
870
 10
1382.02
 20
-487.377
 30
0.000000
  70
    32
  0
VERTEX
  8
図枠
  5
871
 10
1382.06
 20
-487.417
 30
0.000000
  70
    32
  0
VERTEX
  8
図枠
  5
872
 10
1382.11
 20
-487.457
 30
0.000000
  70
    32
  0
VERTEX
  8
図枠
  5
873
 10
1382.15
 20
-487.497
 30
0.000000
  70
    32
  0
VERTEX
  8
図枠
  5
874
 10
1382.20
 20
-487.537
 30
0.000000
  70
    32
  0
VERTEX
  8
図枠
  5
875
 10
1382.25
 20
-487.576
 30
0.000000
  70
    32
  0
VERTEX
  8
図枠
  5
876
 10
1382.29
 20
-487.616
 30
0.000000
  70
    32
  0
VERTEX
  8
図枠
  5
877
 10
1382.34
 20
-487.656
 30
0.000000
  70
    32
  0
VERTEX
  8
図枠
  5
878
 10
1382.38
 20
-487.695
 30
0.000000
  70
    32
  0
VERTEX
  8
図枠
  5
879
 10
1382.43
 20
-487.735
 30
0.000000
  70
    32
  0
VERTEX
  8
図枠
  5
87A
 10
1382.48
 20
-487.774
 30
0.000000
  70
    32
  0
VERTEX
  8
図枠
  5
87B
 10
1382.52
 20
-487.813
 30
0.000000
  70
    32
  0
VERTEX
  8
図枠
  5
87C
 10
1382.57
 20
-487.853
 30
0.000000
  70
    32
  0
VERTEX
  8
図枠
  5
87D
 10
1382.62
 20
-487.892
 30
0.000000
  70
    32
  0
VERTEX
  8
図枠
  5
87E
 10
1382.66
 20
-487.931
 30
0.000000
  70
    32
  0
VERTEX
  8
図枠
  5
87F
 10
1382.71
 20
-487.970
 30
0.000000
  70
    32
  0
VERTEX
  8
図枠
  5
880
 10
1382.75
 20
-488.009
 30
0.000000
  70
    32
  0
VERTEX
  8
図枠
  5
881
 10
1382.80
 20
-488.048
 30
0.000000
  70
    32
  0
VERTEX
  8
図枠
  5
882
 10
1382.85
 20
-488.087
 30
0.000000
  70
    32
  0
VERTEX
  8
図枠
  5
883
 10
1382.89
 20
-488.126
 30
0.000000
  70
    32
  0
VERTEX
  8
図枠
  5
884
 10
1382.94
 20
-488.165
 30
0.000000
  70
    32
  0
VERTEX
  8
図枠
  5
885
 10
1382.99
 20
-488.204
 30
0.000000
  70
    32
  0
VERTEX
  8
図枠
  5
886
 10
1383.03
 20
-488.242
 30
0.000000
  70
    32
  0
VERTEX
  8
図枠
  5
887
 10
1383.08
 20
-488.281
 30
0.000000
  70
    32
  0
VERTEX
  8
図枠
  5
888
 10
1383.13
 20
-488.319
 30
0.000000
  70
    32
  0
VERTEX
  8
図枠
  5
889
 10
1383.17
 20
-488.358
 30
0.000000
  70
    32
  0
VERTEX
  8
図枠
  5
88A
 10
1383.22
 20
-488.396
 30
0.000000
  70
    32
  0
VERTEX
  8
図枠
  5
88B
 10
1383.27
 20
-488.434
 30
0.000000
  70
    32
  0
VERTEX
  8
図枠
  5
88C
 10
1383.31
 20
-488.473
 30
0.000000
  70
    32
  0
VERTEX
  8
図枠
  5
88D
 10
1383.36
 20
-488.511
 30
0.000000
  70
    32
  0
VERTEX
  8
図枠
  5
88E
 10
1383.41
 20
-488.549
 30
0.000000
  70
    32
  0
VERTEX
  8
図枠
  5
88F
 10
1383.45
 20
-488.587
 30
0.000000
  70
    32
  0
VERTEX
  8
図枠
  5
890
 10
1383.50
 20
-488.625
 30
0.000000
  70
    32
  0
VERTEX
  8
図枠
  5
891
 10
1383.55
 20
-488.662
 30
0.000000
  70
    32
  0
VERTEX
  8
図枠
  5
892
 10
1383.60
 20
-488.700
 30
0.000000
  70
    32
  0
VERTEX
  8
図枠
  5
893
 10
1383.64
 20
-488.738
 30
0.000000
  70
    32
  0
VERTEX
  8
図枠
  5
894
 10
1383.69
 20
-488.775
 30
0.000000
  70
    32
  0
VERTEX
  8
図枠
  5
895
 10
1383.74
 20
-488.813
 30
0.000000
  70
    32
  0
VERTEX
  8
図枠
  5
896
 10
1383.78
 20
-488.850
 30
0.000000
  70
    32
  0
VERTEX
  8
図枠
  5
897
 10
1383.83
 20
-488.887
 30
0.000000
  70
    32
  0
VERTEX
  8
図枠
  5
898
 10
1383.88
 20
-488.925
 30
0.000000
  70
    32
  0
VERTEX
  8
図枠
  5
899
 10
1383.93
 20
-488.962
 30
0.000000
  70
    32
  0
VERTEX
  8
図枠
  5
89A
 10
1383.97
 20
-488.999
 30
0.000000
  70
    32
  0
VERTEX
  8
図枠
  5
89B
 10
1384.02
 20
-489.036
 30
0.000000
  70
    32
  0
VERTEX
  8
図枠
  5
89C
 10
1384.07
 20
-489.073
 30
0.000000
  70
    32
  0
VERTEX
  8
図枠
  5
89D
 10
1384.12
 20
-489.110
 30
0.000000
  70
    32
  0
VERTEX
  8
図枠
  5
89E
 10
1384.16
 20
-489.146
 30
0.000000
  70
    32
  0
VERTEX
  8
図枠
  5
89F
 10
1384.21
 20
-489.183
 30
0.000000
  70
    32
  0
VERTEX
  8
図枠
  5
8A0
 10
1384.26
 20
-489.219
 30
0.000000
  70
    32
  0
VERTEX
  8
図枠
  5
8A1
 10
1384.31
 20
-489.256
 30
0.000000
  70
    32
  0
VERTEX
  8
図枠
  5
8A2
 10
1384.36
 20
-489.292
 30
0.000000
  70
    32
  0
VERTEX
  8
図枠
  5
8A3
 10
1384.40
 20
-489.328
 30
0.000000
  70
    32
  0
VERTEX
  8
図枠
  5
8A4
 10
1384.45
 20
-489.365
 30
0.000000
  70
    32
  0
VERTEX
  8
図枠
  5
8A5
 10
1384.50
 20
-489.401
 30
0.000000
  70
    32
  0
VERTEX
  8
図枠
  5
8A6
 10
1384.55
 20
-489.436
 30
0.000000
  70
    32
  0
VERTEX
  8
図枠
  5
8A7
 10
1384.59
 20
-489.472
 30
0.000000
  70
    32
  0
VERTEX
  8
図枠
  5
8A8
 10
1384.64
 20
-489.508
 30
0.000000
  70
    32
  0
VERTEX
  8
図枠
  5
8A9
 10
1384.69
 20
-489.544
 30
0.000000
  70
    32
  0
VERTEX
  8
図枠
  5
8AA
 10
1384.74
 20
-489.579
 30
0.000000
  70
    32
  0
VERTEX
  8
図枠
  5
8AB
 10
1384.79
 20
-489.615
 30
0.000000
  70
    32
  0
VERTEX
  8
図枠
  5
8AC
 10
1384.84
 20
-489.650
 30
0.000000
  70
    32
  0
VERTEX
  8
図枠
  5
8AD
 10
1384.88
 20
-489.685
 30
0.000000
  70
    32
  0
VERTEX
  8
図枠
  5
8AE
 10
1384.93
 20
-489.720
 30
0.000000
  70
    32
  0
VERTEX
  8
図枠
  5
8AF
 10
1384.98
 20
-489.755
 30
0.000000
  70
    32
  0
VERTEX
  8
図枠
  5
8B0
 10
1385.03
 20
-489.790
 30
0.000000
  70
    32
  0
VERTEX
  8
図枠
  5
8B1
 10
1385.08
 20
-489.825
 30
0.000000
  70
    32
  0
VERTEX
  8
図枠
  5
8B2
 10
1385.13
 20
-489.860
 30
0.000000
  70
    32
  0
VERTEX
  8
図枠
  5
8B3
 10
1385.18
 20
-489.894
 30
0.000000
  70
    32
  0
VERTEX
  8
図枠
  5
8B4
 10
1385.23
 20
-489.929
 30
0.000000
  70
    32
  0
VERTEX
  8
図枠
  5
8B5
 10
1385.27
 20
-489.963
 30
0.000000
  70
    32
  0
VERTEX
  8
図枠
  5
8B6
 10
1385.32
 20
-489.998
 30
0.000000
  70
    32
  0
VERTEX
  8
図枠
  5
8B7
 10
1385.37
 20
-490.032
 30
0.000000
  70
    32
  0
VERTEX
  8
図枠
  5
8B8
 10
1385.42
 20
-490.066
 30
0.000000
  70
    32
  0
VERTEX
  8
図枠
  5
8B9
 10
1385.47
 20
-490.100
 30
0.000000
  70
    32
  0
VERTEX
  8
図枠
  5
8BA
 10
1385.52
 20
-490.133
 30
0.000000
  70
    32
  0
VERTEX
  8
図枠
  5
8BB
 10
1385.57
 20
-490.167
 30
0.000000
  70
    32
  0
VERTEX
  8
図枠
  5
8BC
 10
1385.62
 20
-490.201
 30
0.000000
  70
    32
  0
VERTEX
  8
図枠
  5
8BD
 10
1385.67
 20
-490.234
 30
0.000000
  70
    32
  0
VERTEX
  8
図枠
  5
8BE
 10
1385.72
 20
-490.268
 30
0.000000
  70
    32
  0
VERTEX
  8
図枠
  5
8BF
 10
1385.77
 20
-490.301
 30
0.000000
  70
    32
  0
VERTEX
  8
図枠
  5
8C0
 10
1385.82
 20
-490.334
 30
0.000000
  70
    32
  0
VERTEX
  8
図枠
  5
8C1
 10
1385.87
 20
-490.367
 30
0.000000
  70
    32
  0
VERTEX
  8
図枠
  5
8C2
 10
1385.92
 20
-490.400
 30
0.000000
  70
    32
  0
VERTEX
  8
図枠
  5
8C3
 10
1385.97
 20
-490.432
 30
0.000000
  70
    32
  0
VERTEX
  8
図枠
  5
8C4
 10
1386.01
 20
-490.465
 30
0.000000
  70
    32
  0
VERTEX
  8
図枠
  5
8C5
 10
1386.06
 20
-490.498
 30
0.000000
  70
    32
  0
VERTEX
  8
図枠
  5
8C6
 10
1386.11
 20
-490.530
 30
0.000000
  70
    32
  0
VERTEX
  8
図枠
  5
8C7
 10
1386.16
 20
-490.562
 30
0.000000
  70
    32
  0
VERTEX
  8
図枠
  5
8C8
 10
1386.21
 20
-490.594
 30
0.000000
  70
    32
  0
VERTEX
  8
図枠
  5
8C9
 10
1386.27
 20
-490.626
 30
0.000000
  70
    32
  0
VERTEX
  8
図枠
  5
8CA
 10
1386.32
 20
-490.658
 30
0.000000
  70
    32
  0
VERTEX
  8
図枠
  5
8CB
 10
1386.37
 20
-490.690
 30
0.000000
  70
    32
  0
VERTEX
  8
図枠
  5
8CC
 10
1386.42
 20
-490.721
 30
0.000000
  70
    32
  0
VERTEX
  8
図枠
  5
8CD
 10
1386.47
 20
-490.753
 30
0.000000
  70
    32
  0
VERTEX
  8
図枠
  5
8CE
 10
1386.52
 20
-490.784
 30
0.000000
  70
    32
  0
VERTEX
  8
図枠
  5
8CF
 10
1386.57
 20
-490.815
 30
0.000000
  70
    32
  0
VERTEX
  8
図枠
  5
8D0
 10
1386.62
 20
-490.846
 30
0.000000
  70
    32
  0
VERTEX
  8
図枠
  5
8D1
 10
1386.67
 20
-490.877
 30
0.000000
  70
    32
  0
VERTEX
  8
図枠
  5
8D2
 10
1386.72
 20
-490.908
 30
0.000000
  70
    32
  0
VERTEX
  8
図枠
  5
8D3
 10
1386.77
 20
-490.939
 30
0.000000
  70
    32
  0
SEQEND
  8
図枠
  5
8D4
  0
INSERT
  5
10B
  8
0
  6
CONTINUOUS
  2
*U104
 10
0.0
 20
0.0
 30
0.0
  0
LINE
  5
10C
  8
図枠
 10
1413.2099472069999
 20
-429.24919454659999
 30
0.0
 11
1413.2099472069999
 21
-435.24919454659999
 31
0.0
  0
LINE
  5
10D
  8
図枠
 10
1372.6467696484999
 20
-483.30751212939998
 30
0.0
 11
1372.6467696484999
 21
-487.05751212939998
 31
0.0
  0
LINE
  5
10E
  8
図枠
 10
1413.2099472069999
 20
-435.24919454659999
 30
0.0
 11
1425.2099472069999
 21
-438.24919454659999
 31
0.0
  0
LINE
  5
10F
  8
図枠
 10
1379.2982847999999
 20
-478.30751212939998
 30
0.0
 11
1379.2982847999999
 21
-482.80751212939998
 31
0.0
  0
ARC
  5
110
  8
図枠
 10
1361.3967696484999
 20
-488.30751212939998
 30
0.0
 40
7.5
 50
270.0
 51
0.0
  0
LINE
  5
111
  8
図枠
 10
1253.4951534278
 20
-418.49919454659999
 30
0.0
 11
1253.4951534278
 21
-500.99919454659999
 31
0.0
  0
INSERT
  5
112
  8
0
  6
CONTINUOUS
  2
*U105
 10
0.0
 20
0.0
 30
0.0
  0
INSERT
  5
113
  8
0
  6
CONTINUOUS
  2
*U106
 10
0.0
 20
0.0
 30
0.0
  0
INSERT
  5
114
  8
0
  6
CONTINUOUS
  2
*U107
 10
0.0
 20
0.0
 30
0.0
  0
INSERT
  5
115
  8
0
  6
CONTINUOUS
  2
*U108
 10
0.0
 20
0.0
 30
0.0
  0
LINE
  5
116
  8
図枠
 10
1347.2451534278
 20
-445.99919454659999
 30
0.0
 11
1347.2451534278
 21
-473.49919454659999
 31
0.0
  0
LINE
  5
117
  8
図枠
 10
1253.4951534278
 20
-473.49919454659999
 30
0.0
 11
1615.9951534278
 21
-473.49919454659999
 31
0.0
  0
LINE
  5
118
  8
図枠
 10
1259.7451534278
 20
-459.74919454659999
 30
0.0
 11
1340.9951534278
 21
-459.74919454659999
 31
0.0
  0
LINE
  5
119
  8
図枠
 10
1353.4951534278
 20
-459.74919454659999
 30
0.0
 11
1434.7451534278
 21
-459.74919454659999
 31
0.0
  0
INSERT
  5
11A
  8
0
  6
CONTINUOUS
  2
*U109
 10
0.0
 20
0.0
 30
0.0
  0
INSERT
  5
11B
  8
0
  6
CONTINUOUS
  2
*U110
 10
0.0
 20
0.0
 30
0.0
  0
LINE
  5
11C
  8
図枠
 10
1275.9951534278
 20
-405.99919454659999
 30
0.0
 11
1275.9951534278
 21
-393.49919454660011
 31
0.0
  0
LINE
  5
11D
  8
図枠
 10
1253.4951534278
 20
-405.99919454659999
 30
0.0
 11
1253.4951534278
 21
-393.49919454660011
 31
0.0
  0
LINE
  5
11E
  8
図枠
 10
1538.4951534278
 20
-405.99919454659999
 30
0.0
 11
1538.4951534278
 21
-393.49919454660011
 31
0.0
  0
LINE
  5
11F
  8
図枠
 10
1515.9951534278
 20
-405.99919454659999
 30
0.0
 11
1515.9951534278
 21
-393.49919454660011
 31
0.0
  0
LINE
  5
120
  8
図枠
 10
1615.9951534278
 20
-393.49919454660011
 30
0.0
 11
1253.4951534278
 21
-393.49919454660011
 31
0.0
  0
LINE
  5
121
  8
図枠
 10
1253.4951534278
 20
-405.99919454659999
 30
0.0
 11
1615.9951534278
 21
-405.99919454659999
 31
0.0
  0
LINE
  5
122
  8
図枠
 10
1400.9951534278
 20
-405.99919454659999
 30
0.0
 11
1400.9951534278
 21
-393.49919454660011
 31
0.0
  0
INSERT
  5
123
  8
0
  6
CONTINUOUS
  2
*U111
 10
0.0
 20
0.0
 30
0.0
  0
INSERT
  5
124
  8
0
  6
CONTINUOUS
  2
*U112
 10
0.0
 20
0.0
 30
0.0
  0
CIRCLE
  5
125
  8
図枠
 10
1399.4951534278
 20
-432.24919454659999
 30
0.0
 40
3.0
  0
LINE
  5
126
  8
図枠
 10
1413.2099472069999
 20
-435.24919454659999
 30
0.0
 11
1425.2099472069999
 21
-438.24919454659999
 31
0.0
  0
LINE
  5
127
  8
図枠
 10
1413.2099472069999
 20
-429.24919454659999
 30
0.0
 11
1413.2099472069999
 21
-435.24919454659999
 31
0.0
  0
LINE
  5
128
  8
図枠
 10
1425.2099472069999
 20
-426.24919454659999
 30
0.0
 11
1425.2099472069999
 21
-438.24919454659999
 31
0.0
  0
LINE
  5
129
  8
図枠
  6
BORDER
 10
1399.4951534278
 20
-423.24919454659999
 30
0.0
 11
1399.4951534278
 21
-441.24919454659999
 31
0.0
  0
LINE
  5
12A
  8
図枠
  6
BORDER
 10
1399.4951534278
 20
-423.24919454659999
 30
0.0
 11
1399.4951534278
 21
-441.24919454659999
 31
0.0
  0
LINE
  5
12B
  8
図枠
 10
1425.2099472069999
 20
-426.24919454659999
 30
0.0
 11
1425.2099472069999
 21
-438.24919454659999
 31
0.0
  0
LINE
  5
12C
  8
図枠
 10
1413.2099472069999
 20
-429.24919454659999
 30
0.0
 11
1413.2099472069999
 21
-435.24919454659999
 31
0.0
  0
LINE
  5
12D
  8
図枠
 10
1413.2099472069999
 20
-435.24919454659999
 30
0.0
 11
1425.2099472069999
 21
-438.24919454659999
 31
0.0
  0
LINE
  5
12E
  8
図枠
 10
1413.2099472069999
 20
-429.24919454659999
 30
0.0
 11
1425.2099472069999
 21
-426.24919454659999
 31
0.0
  0
CIRCLE
  5
12F
  8
図枠
 10
1399.4951534278
 20
-432.24919454659999
 30
0.0
 40
6.0
  0
CIRCLE
  5
130
  8
図枠
 10
1399.4951534278
 20
-432.24919454659999
 30
0.0
 40
3.0
  0
CIRCLE
  5
131
  8
図枠
 10
1399.4951534278
 20
-432.24919454659999
 30
0.0
 40
6.0
  0
LINE
  5
132
  8
図枠
 10
1413.2099472069999
 20
-429.24919454659999
 30
0.0
 11
1425.2099472069999
 21
-426.24919454659999
 31
0.0
  0
ENDBLK
  5
133
  8
0
  0
BLOCK
  8
0
  2
*D8
 70
     1
 10
0.0
 20
0.0
 30
0.0
  3
*D8
  1

  0
TEXT
  5
145
  8
0
 62
     0
 10
1415.4639482498001
 20
-27.599910268599999
 30
0.0
 40
8.2461809158000001
  1
15.5
 50
90.0
  0
LINE
  5
146
  8
0
 62
     0
 10
1400.4676757812999
 20
-6.9337368899999987
 30
0.0
 11
1418.9191566467
 21
-6.9337368899999987
 31
0.0
  0
LINE
  5
147
  8
0
 62
     0
 10
1400.4676757812999
 20
8.5662631099999995
 30
0.0
 11
1418.9191566467
 21
8.5662631099999995
 31
0.0
  0
LINE
  5
148
  8
0
 62
     0
 10
1417.9191566467
 20
-6.9337368899999987
 30
0.0
 11
1417.9191566467
 21
-6.1760088696000004
 31
0.0
  0
LINE
  5
149
  8
0
 62
     0
 10
1417.9191566467
 20
-6.9337368899999987
 30
0.0
 11
1417.9191566467
 21
-32.450604925
 31
0.0
  0
LINE
  5
14A
  8
0
 62
     0
 10
1417.9191566467
 20
8.5662631099999995
 30
0.0
 11
1417.9191566467
 21
-6.1760088696000004
 31
0.0
  0
LINE
  5
14B
  8
0
 62
     0
 10
1417.9191566467
 20
8.5662631099999995
 30
0.0
 11
1417.9191566467
 21
-32.450604925
 31
0.0
  0
LINE
  5
14C
  8
0
 62
     0
 10
1417.9191566467
 20
8.5662631099999995
 30
0.0
 11
1417.9191566467
 21
3.5662631099999991
 31
0.0
  0
SOLID
  5
14D
  8
0
 62
     0
 10
1417.9191566467
 20
8.5662631099999995
 30
0.0
 11
1419.7941566467
 21
1.0662631099999991
 31
0.0
 12
1416.0441566467
 22
1.0662631099999991
 32
0.0
 13
1417.9191566467
 23
2.9412631099999991
 33
0.0
  0
LINE
  5
14E
  8
0
 62
     0
 10
1417.9191566467
 20
-6.9337368899999987
 30
0.0
 11
1417.9191566467
 21
-1.93373689
 31
0.0
  0
SOLID
  5
14F
  8
0
 62
     0
 10
1417.9191566467
 20
-6.9337368899999987
 30
0.0
 11
1416.0441566467
 21
0.56626311
 31
0.0
 12
1419.7941566467
 22
0.56626311
 32
0.0
 13
1417.9191566467
 23
-1.30873689
 33
0.0
  0
ENDBLK
  5
150
  8
0
  0
BLOCK
  8
0
  2
BALLON0
 70
     0
 10
0.0
 20
0.0
 30
0.0
  3
BALLON0
  1

  0
INSERT
  5
156
  8
0
  6
CONTINUOUS
  2
*U127
 10
0.0
 20
0.0
 30
0.0
  0
CIRCLE
  5
157
  8
ﾚｲﾔ_1
 10
660.46994013419987
 20
-49.001178385400003
 30
0.0
 40
10.0
  0
LINE
  5
158
  8
寸法線
 10
677.13660680089993
 20
-49.001178385400003
 30
0.0
 11
670.46994013419999
 21
-49.001178385400003
 31
0.0
  0
LINE
  5
159
  8
寸法線
 10
711.81067708329999
 20
-105.6301146477
 30
0.0
 11
677.13660680089993
 21
-49.001178385400003
 31
0.0
  0
SOLID
  5
15A
  8
寸法線
 10
711.81067708329999
 20
-105.6301146477
 30
0.0
 11
704.8831193428
 21
-98.146202318500002
 31
0.0
 12
707.6331576412
 22
-98.807480896000001
 32
0.0
 13
707.6331576412
 23
-98.807480896000001
 33
0.0
  0
SOLID
  5
15B
  8
寸法線
 10
707.6331576412
 20
-98.807480896000001
 30
0.0
 11
708.29443621869984
 21
-96.0574425975
 31
0.0
 12
711.81067708329999
 22
-105.6301146477
 32
0.0
 13
711.81067708329999
 23
-105.6301146477
 33
0.0
  0
ENDBLK
  5
15C
  8
0
  0
BLOCK
  8
0
  2
BALLON1
 70
     0
 10
0.0
 20
0.0
 30
0.0
  3
BALLON1
  1

  0
INSERT
  5
160
  8
0
  6
CONTINUOUS
  2
*U128
 10
0.0
 20
0.0
 30
0.0
  0
CIRCLE
  5
161
  8
ﾚｲﾔ_1
 10
751.3388671875
 20
-49.001178385400003
 30
0.0
 40
10.0
  0
LINE
  5
162
  8
寸法線
 10
768.00553385419994
 20
-49.001178385400003
 30
0.0
 11
761.3388671875
 21
-49.001178385400003
 31
0.0
  0
LINE
  5
163
  8
寸法線
 10
787.54996789309985
 20
-82.714296875000016
 30
0.0
 11
768.00553385419994
 21
-49.001178385400003
 31
0.0
  0
SOLID
  5
164
  8
寸法線
 10
787.54996789309985
 20
-82.714296875000016
 30
0.0
 11
780.8042821242999
 21
-75.066047172799998
 31
0.0
 12
783.53763264049996
 22
-75.793230062700005
 32
0.0
 13
783.53763264049996
 23
-75.793230062700005
 33
0.0
  0
SOLID
  5
165
  8
寸法線
 10
783.53763264049996
 20
-75.793230062700005
 30
0.0
 11
784.26481553039991
 21
-73.059879546499985
 31
0.0
 12
787.54996789309985
 22
-82.714296875000016
 32
0.0
 13
787.54996789309985
 23
-82.714296875000016
 33
0.0
  0
ENDBLK
  5
166
  8
0
  0
BLOCK
  8
0
  2
BALLON2
 70
     0
 10
0.0
 20
0.0
 30
0.0
  3
BALLON2
  1

  0
INSERT
  5
16A
  8
0
  6
CONTINUOUS
  2
*U129
 10
0.0
 20
0.0
 30
0.0
  0
CIRCLE
  5
16B
  8
ﾚｲﾔ_1
 10
813.01560829829987
 20
-49.001178385400003
 30
0.0
 40
10.0
  0
LINE
  5
16C
  8
寸法線
 10
829.68227496500015
 20
-49.001178385400003
 30
0.0
 11
823.01560829829987
 21
-49.001178385400003
 31
0.0
  0
LINE
  5
16D
  8
寸法線
 10
841.82965494789983
 20
16.483196614600001
 30
0.0
 11
829.68227496500015
 21
-49.001178385400003
 31
0.0
  0
SOLID
  5
16E
  8
寸法線
 10
841.82965494789983
 20
16.483196614600001
 30
0.0
 11
841.97221851769996
 21
6.2861541203999991
 31
0.0
 12
840.37054346399987
 22
8.6173849160000007
 32
0.0
 13
840.37054346399987
 23
8.6173849160000007
 33
0.0
  0
SOLID
  5
16F
  8
寸法線
 10
840.37054346399987
 20
8.6173849160000007
 30
0.0
 11
838.03931266839993
 21
7.0157098622999996
 31
0.0
 12
841.82965494789983
 22
16.483196614600001
 32
0.0
 13
841.82965494789983
 23
16.483196614600001
 33
0.0
  0
ENDBLK
  5
170
  8
0
  0
BLOCK
  8
0
  2
*D12
 70
     1
 10
0.0
 20
0.0
 30
0.0
  3
*D12
  1

  0
TEXT
  5
173
  8
0
 62
     0
 10
1493.4565319061001
 20
122.0962648571
 30
0.0
 40
8.2461809158000001
  1
30
  0
LINE
  5
174
  8
0
 62
     0
 10
1513.3072265625001
 20
93.06672136200001
 30
0.0
 11
1513.3072265625001
 21
120.64105646020001
 31
0.0
  0
LINE
  5
175
  8
0
 62
     0
 10
1483.3072265625001
 20
84.066721361999996
 30
0.0
 11
1483.3072265625001
 21
120.64105646020001
 31
0.0
  0
LINE
  5
176
  8
0
 62
     0
 10
1513.3072265625001
 20
119.64105646020001
 30
0.0
 11
1508.0086158751999
 21
119.64105646020001
 31
0.0
  0
LINE
  5
177
  8
0
 62
     0
 10
1513.3072265625001
 20
119.64105646020001
 30
0.0
 11
1488.6058372498001
 21
119.64105646020001
 31
0.0
  0
LINE
  5
178
  8
0
 62
     0
 10
1483.3072265625001
 20
119.64105646020001
 30
0.0
 11
1508.0086158751999
 21
119.64105646020001
 31
0.0
  0
LINE
  5
179
  8
0
 62
     0
 10
1483.3072265625001
 20
119.64105646020001
 30
0.0
 11
1488.6058372498001
 21
119.64105646020001
 31
0.0
  0
LINE
  5
17A
  8
0
 62
     0
 10
1483.3072265625001
 20
119.64105646020001
 30
0.0
 11
1478.3072265625001
 21
119.64105646020001
 31
0.0
  0
SOLID
  5
17B
  8
0
 62
     0
 10
1483.3072265625001
 20
119.64105646020001
 30
0.0
 11
1475.8072265625001
 21
117.76605646020001
 31
0.0
 12
1475.8072265625001
 22
121.51605646020001
 32
0.0
 13
1477.6822265625001
 23
119.64105646020001
 33
0.0
  0
LINE
  5
17C
  8
0
 62
     0
 10
1513.3072265625001
 20
119.64105646020001
 30
0.0
 11
1518.3072265625001
 21
119.64105646020001
 31
0.0
  0
SOLID
  5
17D
  8
0
 62
     0
 10
1513.3072265625001
 20
119.64105646020001
 30
0.0
 11
1520.8072265625001
 21
121.51605646020001
 31
0.0
 12
1520.8072265625001
 22
117.76605646020001
 32
0.0
 13
1518.9322265625001
 23
119.64105646020001
 33
0.0
  0
ENDBLK
  5
17E
  8
0
  0
BLOCK
  8
0
  2
*D13
 70
     1
 10
0.0
 20
0.0
 30
0.0
  3
*D13
  1

  0
TEXT
  5
182
  8
0
 62
     0
 10
1465.9565319061001
 20
122.0962648571
 30
0.0
 40
8.2461809158000001
  1
25
  0
LINE
  5
183
  8
0
 62
     0
 10
1483.3072265625001
 20
84.066721361999996
 30
0.0
 11
1483.3072265625001
 21
120.64105646020001
 31
0.0
  0
LINE
  5
184
  8
0
 62
     0
 10
1458.3072265625001
 20
93.06672136200001
 30
0.0
 11
1458.3072265625001
 21
120.64105646020001
 31
0.0
  0
LINE
  5
185
  8
0
 62
     0
 10
1483.3072265625001
 20
119.64105646020001
 30
0.0
 11
1480.5086158751999
 21
119.64105646020001
 31
0.0
  0
LINE
  5
186
  8
0
 62
     0
 10
1483.3072265625001
 20
119.64105646020001
 30
0.0
 11
1461.1058372498001
 21
119.64105646020001
 31
0.0
  0
LINE
  5
187
  8
0
 62
     0
 10
1458.3072265625001
 20
119.64105646020001
 30
0.0
 11
1480.5086158751999
 21
119.64105646020001
 31
0.0
  0
LINE
  5
188
  8
0
 62
     0
 10
1458.3072265625001
 20
119.64105646020001
 30
0.0
 11
1461.1058372498001
 21
119.64105646020001
 31
0.0
  0
LINE
  5
189
  8
0
 62
     0
 10
1458.3072265625001
 20
119.64105646020001
 30
0.0
 11
1453.3072265625001
 21
119.64105646020001
 31
0.0
  0
SOLID
  5
18A
  8
0
 62
     0
 10
1458.3072265625001
 20
119.64105646020001
 30
0.0
 11
1450.8072265625001
 21
117.76605646020001
 31
0.0
 12
1450.8072265625001
 22
121.51605646020001
 32
0.0
 13
1452.6822265625001
 23
119.64105646020001
 33
0.0
  0
LINE
  5
18B
  8
0
 62
     0
 10
1483.3072265625001
 20
119.64105646020001
 30
0.0
 11
1488.3072265625001
 21
119.64105646020001
 31
0.0
  0
SOLID
  5
18C
  8
0
 62
     0
 10
1483.3072265625001
 20
119.64105646020001
 30
0.0
 11
1490.8072265625001
 21
121.51605646020001
 31
0.0
 12
1490.8072265625001
 22
117.76605646020001
 32
0.0
 13
1488.9322265625001
 23
119.64105646020001
 33
0.0
  0
ENDBLK
  5
18D
  8
0
  0
BLOCK
  8
0
  2
*D14
 70
     1
 10
0.0
 20
0.0
 30
0.0
  3
*D14
  1

  0
TEXT
  5
191
  8
0
 62
     0
 10
1526.8520181655999
 20
-4.7839732943999991
 30
0.0
 40
8.2461809158000001
  1
14
 50
90.0
  0
LINE
  5
192
  8
0
 62
     0
 10
1515.3072265625001
 20
-6.9332786379999991
 30
0.0
 11
1530.3072265625001
 21
-6.9332786379999991
 31
0.0
  0
LINE
  5
193
  8
0
 62
     0
 10
1515.3072265625001
 20
7.066721362
 30
0.0
 11
1530.3072265625001
 21
7.066721362
 31
0.0
  0
LINE
  5
194
  8
0
 62
     0
 10
1529.3072265625001
 20
-6.9332786379999991
 30
0.0
 11
1529.3072265625001
 21
-6.9332786379999991
 31
0.0
  0
LINE
  5
195
  8
0
 62
     0
 10
1529.3072265625001
 20
-6.9332786379999991
 30
0.0
 11
1529.3072265625001
 21
7.066721362
 31
0.0
  0
LINE
  5
196
  8
0
 62
     0
 10
1529.3072265625001
 20
7.066721362
 30
0.0
 11
1529.3072265625001
 21
-6.9332786379999991
 31
0.0
  0
LINE
  5
197
  8
0
 62
     0
 10
1529.3072265625001
 20
7.066721362
 30
0.0
 11
1529.3072265625001
 21
7.066721362
 31
0.0
  0
LINE
  5
198
  8
0
 62
     0
 10
1529.3072265625001
 20
7.066721362
 30
0.0
 11
1529.3072265625001
 21
12.066721361999999
 31
0.0
  0
SOLID
  5
199
  8
0
 62
     0
 10
1529.3072265625001
 20
7.066721362
 30
0.0
 11
1527.4322265625001
 21
14.566721361999999
 31
0.0
 12
1531.1822265625001
 22
14.566721361999999
 32
0.0
 13
1529.3072265625001
 23
12.691721361999999
 33
0.0
  0
LINE
  5
19A
  8
0
 62
     0
 10
1529.3072265625001
 20
-6.9332786379999991
 30
0.0
 11
1529.3072265625001
 21
-11.933278638000001
 31
0.0
  0
SOLID
  5
19B
  8
0
 62
     0
 10
1529.3072265625001
 20
-6.9332786379999991
 30
0.0
 11
1531.1822265625001
 21
-14.433278638000001
 31
0.0
 12
1527.4322265625001
 22
-14.433278638000001
 32
0.0
 13
1529.3072265625001
 23
-12.558278638000001
 33
0.0
  0
ENDBLK
  5
19C
  8
0
  0
BLOCK
  8
0
  2
*D15
 70
     1
 10
0.0
 20
0.0
 30
0.0
  3
*D15
  1

  0
TEXT
  5
1A0
  8
0
 62
     0
 10
1526.8520181655999
 20
37.216026705600001
 30
0.0
 40
8.2461809158000001
  1
70
 50
90.0
  0
LINE
  5
1A1
  8
0
 62
     0
 10
1515.3072265625001
 20
7.066721362
 30
0.0
 11
1530.3072265625001
 21
7.066721362
 31
0.0
  0
LINE
  5
1A2
  8
0
 62
     0
 10
1515.3072265625001
 20
77.066721361999996
 30
0.0
 11
1530.3072265625001
 21
77.066721361999996
 31
0.0
  0
LINE
  5
1A3
  8
0
 62
     0
 10
1529.3072265625001
 20
7.066721362
 30
0.0
 11
1529.3072265625001
 21
51.768110674699997
 31
0.0
  0
LINE
  5
1A4
  8
0
 62
     0
 10
1529.3072265625001
 20
7.066721362
 30
0.0
 11
1529.3072265625001
 21
32.365332049199999
 31
0.0
  0
LINE
  5
1A5
  8
0
 62
     0
 10
1529.3072265625001
 20
77.066721361999996
 30
0.0
 11
1529.3072265625001
 21
51.768110674699997
 31
0.0
  0
LINE
  5
1A6
  8
0
 62
     0
 10
1529.3072265625001
 20
77.066721361999996
 30
0.0
 11
1529.3072265625001
 21
32.365332049199999
 31
0.0
  0
LINE
  5
1A7
  8
0
 62
     0
 10
1529.3072265625001
 20
77.066721361999996
 30
0.0
 11
1529.3072265625001
 21
72.066721361999996
 31
0.0
  0
SOLID
  5
1A8
  8
0
 62
     0
 10
1529.3072265625001
 20
77.066721361999996
 30
0.0
 11
1531.1822265625001
 21
69.566721361999996
 31
0.0
 12
1527.4322265625001
 22
69.566721361999996
 32
0.0
 13
1529.3072265625001
 23
71.441721361999996
 33
0.0
  0
LINE
  5
1A9
  8
0
 62
     0
 10
1529.3072265625001
 20
7.066721362
 30
0.0
 11
1529.3072265625001
 21
12.066721361999999
 31
0.0
  0
SOLID
  5
1AA
  8
0
 62
     0
 10
1529.3072265625001
 20
7.066721362
 30
0.0
 11
1527.4322265625001
 21
14.566721361999999
 31
0.0
 12
1531.1822265625001
 22
14.566721361999999
 32
0.0
 13
1529.3072265625001
 23
12.691721361999999
 33
0.0
  0
ENDBLK
  5
1AB
  8
0
  0
BLOCK
  8
0
  2
*D16
 70
     1
 10
0.0
 20
0.0
 30
0.0
  3
*D16
  1

  0
TEXT
  5
1AF
  8
0
 62
     0
 10
1526.8520181655999
 20
79.216026705600001
 30
0.0
 40
8.2461809158000001
  1
14
 50
90.0
  0
LINE
  5
1B0
  8
0
 62
     0
 10
1515.3072265625001
 20
77.066721361999996
 30
0.0
 11
1530.3072265625001
 21
77.066721361999996
 31
0.0
  0
LINE
  5
1B1
  8
0
 62
     0
 10
1515.3072265625001
 20
91.066721362000024
 30
0.0
 11
1530.3072265625001
 21
91.066721362000024
 31
0.0
  0
LINE
  5
1B2
  8
0
 62
     0
 10
1529.3072265625001
 20
77.066721361999996
 30
0.0
 11
1529.3072265625001
 21
77.066721361999996
 31
0.0
  0
LINE
  5
1B3
  8
0
 62
     0
 10
1529.3072265625001
 20
77.066721361999996
 30
0.0
 11
1529.3072265625001
 21
91.066721362000024
 31
0.0
  0
LINE
  5
1B4
  8
0
 62
     0
 10
1529.3072265625001
 20
91.066721362000024
 30
0.0
 11
1529.3072265625001
 21
77.066721361999996
 31
0.0
  0
LINE
  5
1B5
  8
0
 62
     0
 10
1529.3072265625001
 20
91.066721362000024
 30
0.0
 11
1529.3072265625001
 21
91.066721362000024
 31
0.0
  0
LINE
  5
1B6
  8
0
 62
     0
 10
1529.3072265625001
 20
91.066721362000024
 30
0.0
 11
1529.3072265625001
 21
96.066721362000024
 31
0.0
  0
SOLID
  5
1B7
  8
0
 62
     0
 10
1529.3072265625001
 20
91.066721362000024
 30
0.0
 11
1527.4322265625001
 21
98.566721362000024
 31
0.0
 12
1531.1822265625001
 22
98.566721362000024
 32
0.0
 13
1529.3072265625001
 23
96.691721362000024
 33
0.0
  0
LINE
  5
1B8
  8
0
 62
     0
 10
1529.3072265625001
 20
77.066721361999996
 30
0.0
 11
1529.3072265625001
 21
72.066721361999996
 31
0.0
  0
SOLID
  5
1B9
  8
0
 62
     0
 10
1529.3072265625001
 20
77.066721361999996
 30
0.0
 11
1531.1822265625001
 21
69.566721361999996
 31
0.0
 12
1527.4322265625001
 22
69.566721361999996
 32
0.0
 13
1529.3072265625001
 23
71.441721361999996
 33
0.0
  0
ENDBLK
  5
1BA
  8
0
  0
BLOCK
  8
0
  2
*D17
 70
     1
 10
0.0
 20
0.0
 30
0.0
  3
*D17
  1

  0
TEXT
  5
1BE
  8
0
 62
     0
 10
1306.4157817968
 20
-88.139644203199992
 30
0.0
 40
8.2461809158000001
  1
6
 50
90.0
  0
LINE
  5
1BF
  8
0
 62
     0
 10
1289.6906770833
 20
-88.714296875000002
 30
0.0
 11
1309.8709901937
 21
-88.714296875000002
 31
0.0
  0
LINE
  5
1C0
  8
0
 62
     0
 10
1288.8906770833
 20
-82.714296875000016
 30
0.0
 11
1309.8709901937
 21
-82.714296875000016
 31
0.0
  0
LINE
  5
1C1
  8
0
 62
     0
 10
1308.8709901937
 20
-88.714296875000002
 30
0.0
 11
1308.8709901937
 21
-88.714296875000002
 31
0.0
  0
LINE
  5
1C2
  8
0
 62
     0
 10
1308.8709901937
 20
-88.714296875000002
 30
0.0
 11
1308.8709901937
 21
-82.714296875000016
 31
0.0
  0
LINE
  5
1C3
  8
0
 62
     0
 10
1308.8709901937
 20
-82.714296875000016
 30
0.0
 11
1308.8709901937
 21
-88.714296875000002
 31
0.0
  0
LINE
  5
1C4
  8
0
 62
     0
 10
1308.8709901937
 20
-82.714296875000016
 30
0.0
 11
1308.8709901937
 21
-82.714296875000016
 31
0.0
  0
LINE
  5
1C5
  8
0
 62
     0
 10
1308.8709901937
 20
-82.714296875000016
 30
0.0
 11
1308.8709901937
 21
-77.714296875000002
 31
0.0
  0
SOLID
  5
1C6
  8
0
 62
     0
 10
1308.8709901937
 20
-82.714296875000016
 30
0.0
 11
1306.9959901937
 21
-75.214296875000002
 31
0.0
 12
1310.7459901937
 22
-75.214296875000002
 32
0.0
 13
1308.8709901937
 23
-77.089296875000002
 33
0.0
  0
LINE
  5
1C7
  8
0
 62
     0
 10
1308.8709901937
 20
-88.714296875000002
 30
0.0
 11
1308.8709901937
 21
-93.714296875000002
 31
0.0
  0
SOLID
  5
1C8
  8
0
 62
     0
 10
1308.8709901937
 20
-88.714296875000002
 30
0.0
 11
1310.7459901937
 21
-96.214296875000002
 31
0.0
 12
1306.9959901937
 22
-96.214296875000002
 32
0.0
 13
1308.8709901937
 23
-94.339296875000002
 33
0.0
  0
ENDBLK
  5
1C9
  8
0
  0
BLOCK
  8
0
  2
*D18
 70
     1
 10
0.0
 20
0.0
 30
0.0
  3
*D18
  1

  0
TEXT
  5
1CD
  8
0
 62
     0
 10
1315.3005073674999
 20
-4.8590842181999987
 30
0.0
 40
8.2461809158000001
  1
9
 50
90.0
  0
LINE
  5
1CE
  8
0
 62
     0
 10
1289.6906770833
 20
-6.9337368899999987
 30
0.0
 11
1318.7557157644001
 21
-6.9337368899999987
 31
0.0
  0
LINE
  5
1CF
  8
0
 62
     0
 10
1280.6906770833
 20
2.0662631099999991
 30
0.0
 11
1318.7557157644001
 21
2.0662631099999991
 31
0.0
  0
LINE
  5
1D0
  8
0
 62
     0
 10
1317.7557157644001
 20
-6.9337368899999987
 30
0.0
 11
1317.7557157644001
 21
-6.9337368899999987
 31
0.0
  0
LINE
  5
1D1
  8
0
 62
     0
 10
1317.7557157644001
 20
-6.9337368899999987
 30
0.0
 11
1317.7557157644001
 21
2.0662631099999991
 31
0.0
  0
LINE
  5
1D2
  8
0
 62
     0
 10
1317.7557157644001
 20
2.0662631099999991
 30
0.0
 11
1317.7557157644001
 21
-6.9337368899999987
 31
0.0
  0
LINE
  5
1D3
  8
0
 62
     0
 10
1317.7557157644001
 20
2.0662631099999991
 30
0.0
 11
1317.7557157644001
 21
2.0662631099999991
 31
0.0
  0
LINE
  5
1D4
  8
0
 62
     0
 10
1317.7557157644001
 20
2.0662631099999991
 30
0.0
 11
1317.7557157644001
 21
7.0662631100000004
 31
0.0
  0
SOLID
  5
1D5
  8
0
 62
     0
 10
1317.7557157644001
 20
2.0662631099999991
 30
0.0
 11
1315.8807157644001
 21
9.5662631099999995
 31
0.0
 12
1319.6307157644001
 22
9.5662631099999995
 32
0.0
 13
1317.7557157644001
 23
7.6912631100000004
 33
0.0
  0
LINE
  5
1D6
  8
0
 62
     0
 10
1317.7557157644001
 20
-6.9337368899999987
 30
0.0
 11
1317.7557157644001
 21
-11.93373689
 31
0.0
  0
SOLID
  5
1D7
  8
0
 62
     0
 10
1317.7557157644001
 20
-6.9337368899999987
 30
0.0
 11
1319.6307157644001
 21
-14.43373689
 31
0.0
 12
1315.8807157644001
 22
-14.43373689
 32
0.0
 13
1317.7557157644001
 23
-12.55873689
 33
0.0
  0
ENDBLK
  5
1D8
  8
0
  0
BLOCK
  8
0
  2
*D19
 70
     1
 10
0.0
 20
0.0
 30
0.0
  3
*D19
  1

  0
TEXT
  5
1DC
  8
0
 62
     0
 10
1315.3005073674999
 20
84.140915781800004
 30
0.0
 40
8.2461809158000001
  1
9
 50
90.0
  0
LINE
  5
1DD
  8
0
 62
     0
 10
1280.6906770833
 20
82.066263109999994
 30
0.0
 11
1318.7557157644001
 21
82.066263109999994
 31
0.0
  0
LINE
  5
1DE
  8
0
 62
     0
 10
1289.6906770833
 20
91.066263109999994
 30
0.0
 11
1318.7557157644001
 21
91.066263109999994
 31
0.0
  0
LINE
  5
1DF
  8
0
 62
     0
 10
1317.7557157644001
 20
82.066263109999994
 30
0.0
 11
1317.7557157644001
 21
82.066263109999994
 31
0.0
  0
LINE
  5
1E0
  8
0
 62
     0
 10
1317.7557157644001
 20
82.066263109999994
 30
0.0
 11
1317.7557157644001
 21
91.066263109999994
 31
0.0
  0
LINE
  5
1E1
  8
0
 62
     0
 10
1317.7557157644001
 20
91.066263109999994
 30
0.0
 11
1317.7557157644001
 21
82.066263109999994
 31
0.0
  0
LINE
  5
1E2
  8
0
 62
     0
 10
1317.7557157644001
 20
91.066263109999994
 30
0.0
 11
1317.7557157644001
 21
91.066263109999994
 31
0.0
  0
LINE
  5
1E3
  8
0
 62
     0
 10
1317.7557157644001
 20
91.066263109999994
 30
0.0
 11
1317.7557157644001
 21
96.066263109999994
 31
0.0
  0
SOLID
  5
1E4
  8
0
 62
     0
 10
1317.7557157644001
 20
91.066263109999994
 30
0.0
 11
1315.8807157644001
 21
98.566263109999994
 31
0.0
 12
1319.6307157644001
 22
98.566263109999994
 32
0.0
 13
1317.7557157644001
 23
96.691263109999994
 33
0.0
  0
LINE
  5
1E5
  8
0
 62
     0
 10
1317.7557157644001
 20
82.066263109999994
 30
0.0
 11
1317.7557157644001
 21
77.066263109999994
 31
0.0
  0
SOLID
  5
1E6
  8
0
 62
     0
 10
1317.7557157644001
 20
82.066263109999994
 30
0.0
 11
1319.6307157644001
 21
74.566263109999994
 31
0.0
 12
1315.8807157644001
 22
74.566263109999994
 32
0.0
 13
1317.7557157644001
 23
76.441263109999994
 33
0.0
  0
ENDBLK
  5
1E7
  8
0
  0
BLOCK
  8
0
  2
*D20
 70
     1
 10
0.0
 20
0.0
 30
0.0
  3
*D20
  1

  0
TEXT
  5
1EB
  8
0
 62
     0
 10
1328.6975925572999
 20
37.2155684536
 30
0.0
 40
8.2461809158000001
  1
98
 50
90.0
  0
LINE
  5
1EC
  8
0
 62
     0
 10
1289.6906770833
 20
-6.9337368899999987
 30
0.0
 11
1332.1528009542001
 21
-6.9337368899999987
 31
0.0
  0
LINE
  5
1ED
  8
0
 62
     0
 10
1289.6906770833
 20
91.066263109999994
 30
0.0
 11
1332.1528009542001
 21
91.066263109999994
 31
0.0
  0
LINE
  5
1EE
  8
0
 62
     0
 10
1331.1528009542001
 20
-6.9337368899999987
 30
0.0
 11
1331.1528009542001
 21
51.767652422799998
 31
0.0
  0
LINE
  5
1EF
  8
0
 62
     0
 10
1331.1528009542001
 20
-6.9337368899999987
 30
0.0
 11
1331.1528009542001
 21
32.3648737973
 31
0.0
  0
LINE
  5
1F0
  8
0
 62
     0
 10
1331.1528009542001
 20
91.066263109999994
 30
0.0
 11
1331.1528009542001
 21
51.767652422799998
 31
0.0
  0
LINE
  5
1F1
  8
0
 62
     0
 10
1331.1528009542001
 20
91.066263109999994
 30
0.0
 11
1331.1528009542001
 21
32.3648737973
 31
0.0
  0
LINE
  5
1F2
  8
0
 62
     0
 10
1331.1528009542001
 20
91.066263109999994
 30
0.0
 11
1331.1528009542001
 21
86.066263109999994
 31
0.0
  0
SOLID
  5
1F3
  8
0
 62
     0
 10
1331.1528009542001
 20
91.066263109999994
 30
0.0
 11
1333.0278009542001
 21
83.566263109999994
 31
0.0
 12
1329.2778009542001
 22
83.566263109999994
 32
0.0
 13
1331.1528009542001
 23
85.441263109999994
 33
0.0
  0
LINE
  5
1F4
  8
0
 62
     0
 10
1331.1528009542001
 20
-6.9337368899999987
 30
0.0
 11
1331.1528009542001
 21
-1.93373689
 31
0.0
  0
SOLID
  5
1F5
  8
0
 62
     0
 10
1331.1528009542001
 20
-6.9337368899999987
 30
0.0
 11
1329.2778009542001
 21
0.56626311
 31
0.0
 12
1333.0278009542001
 22
0.56626311
 32
0.0
 13
1331.1528009542001
 23
-1.30873689
 33
0.0
  0
ENDBLK
  5
1F6
  8
0
  0
BLOCK
  8
0
  2
*D21
 70
     1
 10
0.0
 20
0.0
 30
0.0
  3
*D21
  1

  0
TEXT
  5
1FA
  8
0
 62
     0
 10
1315.3005092748001
 20
37.2155684536
 30
0.0
 40
8.2461809158000001
  1
80
 50
90.0
  0
LINE
  5
1FB
  8
0
 62
     0
 10
1280.6906770833
 20
2.0662631099999991
 30
0.0
 11
1318.7557176717
 21
2.0662631099999991
 31
0.0
  0
LINE
  5
1FC
  8
0
 62
     0
 10
1280.6906770833
 20
82.066263109999994
 30
0.0
 11
1318.7557176717
 21
82.066263109999994
 31
0.0
  0
LINE
  5
1FD
  8
0
 62
     0
 10
1317.7557176717
 20
2.0662631099999991
 30
0.0
 11
1317.7557176717
 21
51.767652422799998
 31
0.0
  0
LINE
  5
1FE
  8
0
 62
     0
 10
1317.7557176717
 20
2.0662631099999991
 30
0.0
 11
1317.7557176717
 21
32.3648737973
 31
0.0
  0
LINE
  5
1FF
  8
0
 62
     0
 10
1317.7557176717
 20
82.066263109999994
 30
0.0
 11
1317.7557176717
 21
51.767652422799998
 31
0.0
  0
LINE
  5
200
  8
0
 62
     0
 10
1317.7557176717
 20
82.066263109999994
 30
0.0
 11
1317.7557176717
 21
32.3648737973
 31
0.0
  0
LINE
  5
201
  8
0
 62
     0
 10
1317.7557176717
 20
82.066263109999994
 30
0.0
 11
1317.7557176717
 21
77.066263109999994
 31
0.0
  0
SOLID
  5
202
  8
0
 62
     0
 10
1317.7557176717
 20
82.066263109999994
 30
0.0
 11
1319.6307176717
 21
74.566263109999994
 31
0.0
 12
1315.8807176717
 22
74.566263109999994
 32
0.0
 13
1317.7557176717
 23
76.441263109999994
 33
0.0
  0
LINE
  5
203
  8
0
 62
     0
 10
1317.7557176717
 20
2.0662631099999991
 30
0.0
 11
1317.7557176717
 21
7.0662631100000004
 31
0.0
  0
SOLID
  5
204
  8
0
 62
     0
 10
1317.7557176717
 20
2.0662631099999991
 30
0.0
 11
1315.8807176717
 21
9.5662631099999995
 31
0.0
 12
1319.6307176717
 22
9.5662631099999995
 32
0.0
 13
1317.7557176717
 23
7.6912631100000004
 33
0.0
  0
ENDBLK
  5
205
  8
0
  0
BLOCK
  8
0
  2
*D22
 70
     1
 10
0.0
 20
0.0
 30
0.0
  3
*D22
  1

  0
TEXT
  5
209
  8
0
 62
     0
 10
1371.7979853689999
 20
119.5684506482
 30
0.0
 40
8.2461809158000001
  1
15
  0
LINE
  5
20A
  8
0
 62
     0
 10
1384.2676757812001
 20
84.066263109999994
 30
0.0
 11
1384.2676757812001
 21
118.11324225129999
 31
0.0
  0
LINE
  5
20B
  8
0
 62
     0
 10
1369.2676757813001
 20
92.266263109999997
 30
0.0
 11
1369.2676757813001
 21
118.11324225129999
 31
0.0
  0
LINE
  5
20C
  8
0
 62
     0
 10
1384.2676757812001
 20
117.11324225129999
 30
0.0
 11
1384.2676757812001
 21
117.11324225129999
 31
0.0
  0
LINE
  5
20D
  8
0
 62
     0
 10
1384.2676757812001
 20
117.11324225129999
 30
0.0
 11
1369.2676757813001
 21
117.11324225129999
 31
0.0
  0
LINE
  5
20E
  8
0
 62
     0
 10
1369.2676757813001
 20
117.11324225129999
 30
0.0
 11
1384.2676757812001
 21
117.11324225129999
 31
0.0
  0
LINE
  5
20F
  8
0
 62
     0
 10
1369.2676757813001
 20
117.11324225129999
 30
0.0
 11
1369.2676757813001
 21
117.11324225129999
 31
0.0
  0
LINE
  5
210
  8
0
 62
     0
 10
1369.2676757813001
 20
117.11324225129999
 30
0.0
 11
1364.2676757813001
 21
117.11324225129999
 31
0.0
  0
SOLID
  5
211
  8
0
 62
     0
 10
1369.2676757813001
 20
117.11324225129999
 30
0.0
 11
1361.7676757813001
 21
115.23824225129999
 31
0.0
 12
1361.7676757813001
 22
118.98824225129999
 32
0.0
 13
1363.6426757813001
 23
117.11324225129999
 33
0.0
  0
LINE
  5
212
  8
0
 62
     0
 10
1384.2676757812001
 20
117.11324225129999
 30
0.0
 11
1389.2676757812001
 21
117.11324225129999
 31
0.0
  0
SOLID
  5
213
  8
0
 62
     0
 10
1384.2676757812001
 20
117.11324225129999
 30
0.0
 11
1391.7676757812001
 21
118.98824225129999
 31
0.0
 12
1391.7676757812001
 22
115.23824225129999
 32
0.0
 13
1389.8926757812001
 23
117.11324225129999
 33
0.0
  0
ENDBLK
  5
214
  8
0
  0
BLOCK
  8
0
  2
*D23
 70
     1
 10
0.0
 20
0.0
 30
0.0
  3
*D23
  1

  0
TEXT
  5
218
  8
0
 62
     0
 10
900.83463509880005
 20
-195.47457991109999
 30
0.0
 40
8.2461809158000001
  1
389
  0
LINE
  5
219
  8
0
 62
     0
 10
1102.6106770833001
 20
-220.9297883081
 30
0.0
 11
1102.6106770833001
 21
-196.9297883081
 31
0.0
  0
LINE
  5
21A
  8
0
 62
     0
 10
713.61067708329995
 20
-220.9297883081
 30
0.0
 11
713.61067708329995
 21
-196.9297883081
 31
0.0
  0
LINE
  5
21B
  8
0
 62
     0
 10
1102.6106770833001
 20
-197.9297883081
 30
0.0
 11
920.23741372429993
 21
-197.9297883081
 31
0.0
  0
LINE
  5
21C
  8
0
 62
     0
 10
1102.6106770833001
 20
-197.9297883081
 30
0.0
 11
895.98394044240001
 21
-197.9297883081
 31
0.0
  0
LINE
  5
21D
  8
0
 62
     0
 10
713.61067708329995
 20
-197.9297883081
 30
0.0
 11
920.23741372429993
 21
-197.9297883081
 31
0.0
  0
LINE
  5
21E
  8
0
 62
     0
 10
713.61067708329995
 20
-197.9297883081
 30
0.0
 11
895.98394044240001
 21
-197.9297883081
 31
0.0
  0
LINE
  5
21F
  8
0
 62
     0
 10
713.61067708329995
 20
-197.9297883081
 30
0.0
 11
718.61067708329995
 21
-197.9297883081
 31
0.0
  0
SOLID
  5
220
  8
0
 62
     0
 10
713.61067708329995
 20
-197.9297883081
 30
0.0
 11
721.11067708330006
 21
-196.0547883081
 31
0.0
 12
721.11067708330006
 22
-199.8047883081
 32
0.0
 13
719.23567708330006
 23
-197.9297883081
 33
0.0
  0
LINE
  5
221
  8
0
 62
     0
 10
1102.6106770833001
 20
-197.9297883081
 30
0.0
 11
1097.6106770833001
 21
-197.9297883081
 31
0.0
  0
SOLID
  5
222
  8
0
 62
     0
 10
1102.6106770833001
 20
-197.9297883081
 30
0.0
 11
1095.1106770833001
 21
-199.8047883081
 31
0.0
 12
1095.1106770833001
 22
-196.0547883081
 32
0.0
 13
1096.9856770833001
 23
-197.9297883081
 33
0.0
  0
ENDBLK
  5
223
  8
0
  0
BLOCK
  8
0
  2
*D24
 70
     1
 10
0.0
 20
0.0
 30
0.0
  3
*D24
  1

  0
TEXT
  5
227
  8
0
 62
     0
 10
1379.4169811249001
 20
133.98684855159999
 30
0.0
 40
8.2461809158000001
  1
30
  0
LINE
  5
228
  8
0
 62
     0
 10
1399.2676757813001
 20
92.266263109999997
 30
0.0
 11
1399.2676757813001
 21
132.5316401547
 31
0.0
  0
LINE
  5
229
  8
0
 62
     0
 10
1369.2676757813001
 20
92.266263109999997
 30
0.0
 11
1369.2676757813001
 21
132.5316401547
 31
0.0
  0
LINE
  5
22A
  8
0
 62
     0
 10
1399.2676757813001
 20
131.5316401547
 30
0.0
 11
1393.9690650939999
 21
131.5316401547
 31
0.0
  0
LINE
  5
22B
  8
0
 62
     0
 10
1399.2676757813001
 20
131.5316401547
 30
0.0
 11
1374.5662864685
 21
131.5316401547
 31
0.0
  0
LINE
  5
22C
  8
0
 62
     0
 10
1369.2676757813001
 20
131.5316401547
 30
0.0
 11
1393.9690650939999
 21
131.5316401547
 31
0.0
  0
LINE
  5
22D
  8
0
 62
     0
 10
1369.2676757813001
 20
131.5316401547
 30
0.0
 11
1374.5662864685
 21
131.5316401547
 31
0.0
  0
LINE
  5
22E
  8
0
 62
     0
 10
1369.2676757813001
 20
131.5316401547
 30
0.0
 11
1364.2676757813001
 21
131.5316401547
 31
0.0
  0
SOLID
  5
22F
  8
0
 62
     0
 10
1369.2676757813001
 20
131.5316401547
 30
0.0
 11
1361.7676757813001
 21
129.6566401547
 31
0.0
 12
1361.7676757813001
 22
133.4066401547
 32
0.0
 13
1363.6426757813001
 23
131.5316401547
 33
0.0
  0
LINE
  5
230
  8
0
 62
     0
 10
1399.2676757813001
 20
131.5316401547
 30
0.0
 11
1404.2676757813001
 21
131.5316401547
 31
0.0
  0
SOLID
  5
231
  8
0
 62
     0
 10
1399.2676757813001
 20
131.5316401547
 30
0.0
 11
1406.7676757813001
 21
133.4066401547
 31
0.0
 12
1406.7676757813001
 22
129.6566401547
 32
0.0
 13
1404.8926757813001
 23
131.5316401547
 33
0.0
  0
ENDBLK
  5
232
  8
0
  0
BLOCK
  8
0
  2
*D25
 70
     1
 10
0.0
 20
0.0
 30
0.0
  3
*D25
  1

  0
TEXT
  5
236
  8
0
 62
     0
 10
1480.9565319061001
 20
133.9500715435
 30
0.0
 40
8.2461809158000001
  1
55
  0
LINE
  5
237
  8
0
 62
     0
 10
1513.3072265625001
 20
92.266721362000013
 30
0.0
 11
1513.3072265625001
 21
132.49486314660001
 31
0.0
  0
LINE
  5
238
  8
0
 62
     0
 10
1458.3072265625001
 20
92.266721362000013
 30
0.0
 11
1458.3072265625001
 21
132.49486314660001
 31
0.0
  0
LINE
  5
239
  8
0
 62
     0
 10
1513.3072265625001
 20
131.49486314660001
 30
0.0
 11
1495.5086158751999
 21
131.49486314660001
 31
0.0
  0
LINE
  5
23A
  8
0
 62
     0
 10
1513.3072265625001
 20
131.49486314660001
 30
0.0
 11
1476.1058372498001
 21
131.49486314660001
 31
0.0
  0
LINE
  5
23B
  8
0
 62
     0
 10
1458.3072265625001
 20
131.49486314660001
 30
0.0
 11
1495.5086158751999
 21
131.49486314660001
 31
0.0
  0
LINE
  5
23C
  8
0
 62
     0
 10
1458.3072265625001
 20
131.49486314660001
 30
0.0
 11
1476.1058372498001
 21
131.49486314660001
 31
0.0
  0
LINE
  5
23D
  8
0
 62
     0
 10
1458.3072265625001
 20
131.49486314660001
 30
0.0
 11
1463.3072265625001
 21
131.49486314660001
 31
0.0
  0
SOLID
  5
23E
  8
0
 62
     0
 10
1458.3072265625001
 20
131.49486314660001
 30
0.0
 11
1465.8072265625001
 21
133.36986314660001
 31
0.0
 12
1465.8072265625001
 22
129.61986314660001
 32
0.0
 13
1463.9322265625001
 23
131.49486314660001
 33
0.0
  0
LINE
  5
23F
  8
0
 62
     0
 10
1513.3072265625001
 20
131.49486314660001
 30
0.0
 11
1508.3072265625001
 21
131.49486314660001
 31
0.0
  0
SOLID
  5
240
  8
0
 62
     0
 10
1513.3072265625001
 20
131.49486314660001
 30
0.0
 11
1505.8072265625001
 21
129.61986314660001
 31
0.0
 12
1505.8072265625001
 22
133.36986314660001
 32
0.0
 13
1507.6822265625001
 23
131.49486314660001
 33
0.0
  0
ENDBLK
  5
241
  8
0
  0
BLOCK
  8
0
  2
*D26
 70
     1
 10
0.0
 20
0.0
 30
0.0
  3
*D26
  1

  0
TEXT
  5
245
  8
0
 62
     0
 10
988.3746350987999
 20
145.22853708919999
 30
0.0
 40
8.2461809158000001
  1
798
  0
LINE
  5
246
  8
0
 62
     0
 10
1287.6906770833
 20
93.066263109999994
 30
0.0
 11
1287.6906770833
 21
143.7733286923
 31
0.0
  0
LINE
  5
247
  8
0
 62
     0
 10
703.61067708330006
 20
93.066263109999994
 30
0.0
 11
703.61067708330006
 21
143.7733286923
 31
0.0
  0
LINE
  5
248
  8
0
 62
     0
 10
1287.6906770833
 20
142.7733286923
 30
0.0
 11
1007.7774137243
 21
142.7733286923
 31
0.0
  0
LINE
  5
249
  8
0
 62
     0
 10
1287.6906770833
 20
142.7733286923
 30
0.0
 11
983.52394044240009
 21
142.7733286923
 31
0.0
  0
LINE
  5
24A
  8
0
 62
     0
 10
703.61067708330006
 20
142.7733286923
 30
0.0
 11
1007.7774137243
 21
142.7733286923
 31
0.0
  0
LINE
  5
24B
  8
0
 62
     0
 10
703.61067708330006
 20
142.7733286923
 30
0.0
 11
983.52394044240009
 21
142.7733286923
 31
0.0
  0
LINE
  5
24C
  8
0
 62
     0
 10
703.61067708330006
 20
142.7733286923
 30
0.0
 11
708.61067708330006
 21
142.7733286923
 31
0.0
  0
SOLID
  5
24D
  8
0
 62
     0
 10
703.61067708330006
 20
142.7733286923
 30
0.0
 11
711.11067708329995
 21
144.6483286923
 31
0.0
 12
711.11067708329995
 22
140.8983286923
 32
0.0
 13
709.23567708329995
 23
142.7733286923
 33
0.0
  0
LINE
  5
24E
  8
0
 62
     0
 10
1287.6906770833
 20
142.7733286923
 30
0.0
 11
1282.6906770833
 21
142.7733286923
 31
0.0
  0
SOLID
  5
24F
  8
0
 62
     0
 10
1287.6906770833
 20
142.7733286923
 30
0.0
 11
1280.1906770833
 21
140.8983286923
 31
0.0
 12
1280.1906770833
 22
144.6483286923
 32
0.0
 13
1282.0656770833
 23
142.7733286923
 33
0.0
  0
ENDBLK
  5
250
  8
0
  0
BLOCK
  8
0
  2
*D27
 70
     1
 10
0.0
 20
0.0
 30
0.0
  3
*D27
  1

  0
TEXT
  5
254
  8
0
 62
     0
 10
1110.7813119038001
 20
-376.99138741399997
 30
0.0
 40
8.2461809158000001
  1
R5
 50
315.0
  0
LINE
  5
255
  8
0
 62
     0
 10
1101.1462109893
 20
-372.15822921839998
 30
0.0
 11
1118.2414729136999
 21
-389.25349114279999
 31
0.0
  0
SOLID
  5
256
  8
0
 62
     0
 10
1101.1462109893
 20
-372.15822921839998
 30
0.0
 11
1107.7753370629
 21
-376.13570486259999
 31
0.0
 12
1105.1236866334
 22
-378.78735529210002
 32
0.0
 13
1105.1236866334
 23
-376.13570486259999
 33
0.0
  0
ENDBLK
  5
257
  8
0
  0
BLOCK
  8
0
  2
*D28
 70
     1
 10
0.0
 20
0.0
 30
0.0
  3
*D28
  1

  0
TEXT
  5
25B
  8
0
 62
     0
 10
1144.3268668492999
 20
-267.28048296439999
 30
0.0
 40
8.2461809158000001
  1
79
 50
90.0
  0
LINE
  5
25C
  8
0
 62
     0
 10
1104.6106770833001
 20
-301.9297883081
 30
0.0
 11
1147.7820752462001
 21
-301.9297883081
 31
0.0
  0
LINE
  5
25D
  8
0
 62
     0
 10
1104.6106770833001
 20
-222.9297883081
 30
0.0
 11
1147.7820752462001
 21
-222.9297883081
 31
0.0
  0
LINE
  5
25E
  8
0
 62
     0
 10
1146.7820752462001
 20
-301.9297883081
 30
0.0
 11
1146.7820752462001
 21
-252.72839899530001
 31
0.0
  0
LINE
  5
25F
  8
0
 62
     0
 10
1146.7820752462001
 20
-301.9297883081
 30
0.0
 11
1146.7820752462001
 21
-272.13117762080009
 31
0.0
  0
LINE
  5
260
  8
0
 62
     0
 10
1146.7820752462001
 20
-222.9297883081
 30
0.0
 11
1146.7820752462001
 21
-252.72839899530001
 31
0.0
  0
LINE
  5
261
  8
0
 62
     0
 10
1146.7820752462001
 20
-222.9297883081
 30
0.0
 11
1146.7820752462001
 21
-272.13117762080009
 31
0.0
  0
LINE
  5
262
  8
0
 62
     0
 10
1146.7820752462001
 20
-222.9297883081
 30
0.0
 11
1146.7820752462001
 21
-227.9297883081
 31
0.0
  0
SOLID
  5
263
  8
0
 62
     0
 10
1146.7820752462001
 20
-222.9297883081
 30
0.0
 11
1148.6570752462001
 21
-230.4297883081
 31
0.0
 12
1144.9070752462001
 22
-230.4297883081
 32
0.0
 13
1146.7820752462001
 23
-228.5547883081
 33
0.0
  0
LINE
  5
264
  8
0
 62
     0
 10
1146.7820752462001
 20
-301.9297883081
 30
0.0
 11
1146.7820752462001
 21
-296.9297883081
 31
0.0
  0
SOLID
  5
265
  8
0
 62
     0
 10
1146.7820752462001
 20
-301.9297883081
 30
0.0
 11
1144.9070752462001
 21
-294.4297883081
 31
0.0
 12
1148.6570752462001
 22
-294.4297883081
 32
0.0
 13
1146.7820752462001
 23
-296.3047883081
 33
0.0
  0
ENDBLK
  5
266
  8
0
  0
BLOCK
  8
0
  2
*D29
 70
     1
 10
0.0
 20
0.0
 30
0.0
  3
*D29
  1

  0
TEXT
  5
26A
  8
0
 62
     0
 10
988.3746350987999
 20
126.3540253705
 30
0.0
 40
8.2461809158000001
  1
780
  0
LINE
  5
26B
  8
0
 62
     0
 10
1278.6906770833
 20
84.066263109999994
 30
0.0
 11
1278.6906770833
 21
124.8988169735
 31
0.0
  0
LINE
  5
26C
  8
0
 62
     0
 10
712.61067708330006
 20
84.066263109999994
 30
0.0
 11
712.61067708330006
 21
124.8988169735
 31
0.0
  0
LINE
  5
26D
  8
0
 62
     0
 10
1278.6906770833
 20
123.8988169735
 30
0.0
 11
1007.7774137243
 21
123.8988169735
 31
0.0
  0
LINE
  5
26E
  8
0
 62
     0
 10
1278.6906770833
 20
123.8988169735
 30
0.0
 11
983.52394044240009
 21
123.8988169735
 31
0.0
  0
LINE
  5
26F
  8
0
 62
     0
 10
712.61067708330006
 20
123.8988169735
 30
0.0
 11
1007.7774137243
 21
123.8988169735
 31
0.0
  0
LINE
  5
270
  8
0
 62
     0
 10
712.61067708330006
 20
123.8988169735
 30
0.0
 11
983.52394044240009
 21
123.8988169735
 31
0.0
  0
LINE
  5
271
  8
0
 62
     0
 10
712.61067708330006
 20
123.8988169735
 30
0.0
 11
717.61067708329995
 21
123.8988169735
 31
0.0
  0
SOLID
  5
272
  8
0
 62
     0
 10
712.61067708330006
 20
123.8988169735
 30
0.0
 11
720.11067708329995
 21
125.7738169735
 31
0.0
 12
720.11067708329995
 22
122.0238169735
 32
0.0
 13
718.23567708329995
 23
123.8988169735
 33
0.0
  0
LINE
  5
273
  8
0
 62
     0
 10
1278.6906770833
 20
123.8988169735
 30
0.0
 11
1273.6906770833
 21
123.8988169735
 31
0.0
  0
SOLID
  5
274
  8
0
 62
     0
 10
1278.6906770833
 20
123.8988169735
 30
0.0
 11
1271.1906770833
 21
122.0238169735
 31
0.0
 12
1271.1906770833
 22
125.7738169735
 32
0.0
 13
1273.0656770833
 23
123.8988169735
 33
0.0
  0
ENDBLK
  5
275
  8
0
  0
BLOCK
  8
0
  2
*D30
 70
     1
 10
0.0
 20
0.0
 30
0.0
  3
*D30
  1

  0
TEXT
  5
279
  8
0
 62
     0
 10
1415.4956388474
 20
95.455687990400008
 30
0.0
 40
8.2461809158000001
  1
15.5
 50
90.0
  0
LINE
  5
27A
  8
0
 62
     0
 10
1400.4676757812999
 20
75.566263109999994
 30
0.0
 11
1418.9508472442999
 21
75.566263109999994
 31
0.0
  0
LINE
  5
27B
  8
0
 62
     0
 10
1397.8676757813
 20
91.066263109999994
 30
0.0
 11
1418.9508472442999
 21
91.066263109999994
 31
0.0
  0
LINE
  5
27C
  8
0
 62
     0
 10
1417.9508472442999
 20
75.566263109999994
 30
0.0
 11
1417.9508472442999
 21
116.87958938929999
 31
0.0
  0
LINE
  5
27D
  8
0
 62
     0
 10
1417.9508472442999
 20
75.566263109999994
 30
0.0
 11
1417.9508472442999
 21
90.604993334000014
 31
0.0
  0
LINE
  5
27E
  8
0
 62
     0
 10
1417.9508472442999
 20
91.066263109999994
 30
0.0
 11
1417.9508472442999
 21
116.87958938929999
 31
0.0
  0
LINE
  5
27F
  8
0
 62
     0
 10
1417.9508472442999
 20
91.066263109999994
 30
0.0
 11
1417.9508472442999
 21
90.604993334000014
 31
0.0
  0
LINE
  5
280
  8
0
 62
     0
 10
1417.9508472442999
 20
91.066263109999994
 30
0.0
 11
1417.9508472442999
 21
86.066263109999994
 31
0.0
  0
SOLID
  5
281
  8
0
 62
     0
 10
1417.9508472442999
 20
91.066263109999994
 30
0.0
 11
1419.8258472442999
 21
83.566263109999994
 31
0.0
 12
1416.0758472442999
 22
83.566263109999994
 32
0.0
 13
1417.9508472442999
 23
85.441263109999994
 33
0.0
  0
LINE
  5
282
  8
0
 62
     0
 10
1417.9508472442999
 20
75.566263109999994
 30
0.0
 11
1417.9508472442999
 21
80.566263109999994
 31
0.0
  0
SOLID
  5
283
  8
0
 62
     0
 10
1417.9508472442999
 20
75.566263109999994
 30
0.0
 11
1416.0758472442999
 21
83.066263109999994
 31
0.0
 12
1419.8258472442999
 22
83.066263109999994
 32
0.0
 13
1417.9508472442999
 23
81.191263109999994
 33
0.0
  0
ENDBLK
  5
284
  8
0
  0
BLOCK
  8
0
  2
*D31
 70
     1
 10
0.0
 20
0.0
 30
0.0
  3
*D31
  1

  0
TEXT
  5
288
  8
0
 62
     0
 10
828.65546868640001
 20
-289.85513563619998
 30
0.0
 40
8.2461809158000001
  1
7
 50
90.0
  0
LINE
  5
289
  8
0
 62
     0
 10
817.11067708329995
 20
-290.9297883081
 30
0.0
 11
832.11067708330006
 21
-290.9297883081
 31
0.0
  0
LINE
  5
28A
  8
0
 62
     0
 10
817.11067708329995
 20
-283.9297883081
 30
0.0
 11
832.11067708330006
 21
-283.9297883081
 31
0.0
  0
LINE
  5
28B
  8
0
 62
     0
 10
831.11067708330006
 20
-290.9297883081
 30
0.0
 11
831.11067708330006
 21
-290.9297883081
 31
0.0
  0
LINE
  5
28C
  8
0
 62
     0
 10
831.11067708330006
 20
-290.9297883081
 30
0.0
 11
831.11067708330006
 21
-283.9297883081
 31
0.0
  0
LINE
  5
28D
  8
0
 62
     0
 10
831.11067708330006
 20
-283.9297883081
 30
0.0
 11
831.11067708330006
 21
-290.9297883081
 31
0.0
  0
LINE
  5
28E
  8
0
 62
     0
 10
831.11067708330006
 20
-283.9297883081
 30
0.0
 11
831.11067708330006
 21
-283.9297883081
 31
0.0
  0
LINE
  5
28F
  8
0
 62
     0
 10
831.11067708330006
 20
-283.9297883081
 30
0.0
 11
831.11067708330006
 21
-278.9297883081
 31
0.0
  0
SOLID
  5
290
  8
0
 62
     0
 10
831.11067708330006
 20
-283.9297883081
 30
0.0
 11
829.23567708329995
 21
-276.4297883081
 31
0.0
 12
832.98567708329995
 22
-276.4297883081
 32
0.0
 13
831.11067708330006
 23
-278.3047883081
 33
0.0
  0
LINE
  5
291
  8
0
 62
     0
 10
831.11067708330006
 20
-290.9297883081
 30
0.0
 11
831.11067708330006
 21
-295.9297883081
 31
0.0
  0
SOLID
  5
292
  8
0
 62
     0
 10
831.11067708330006
 20
-290.9297883081
 30
0.0
 11
832.98567708329995
 21
-298.4297883081
 31
0.0
 12
829.23567708329995
 22
-298.4297883081
 32
0.0
 13
831.11067708330006
 23
-296.5547883081
 33
0.0
  0
ENDBLK
  5
293
  8
0
  0
BLOCK
  8
0
  2
*D32
 70
     1
 10
0.0
 20
0.0
 30
0.0
  3
*D32
  1

  0
TEXT
  5
297
  8
0
 62
     0
 10
802.75998242699995
 20
-272.23467073910001
 30
0.0
 40
8.2461809158000001
  1
22
  0
LINE
  5
298
  8
0
 62
     0
 10
818.61067708330006
 20
-285.4297883081
 30
0.0
 11
818.61067708330006
 21
-273.689879136
 31
0.0
  0
LINE
  5
299
  8
0
 62
     0
 10
796.61067708329995
 20
-285.4297883081
 30
0.0
 11
796.61067708329995
 21
-273.689879136
 31
0.0
  0
LINE
  5
29A
  8
0
 62
     0
 10
818.61067708330006
 20
-274.689879136
 30
0.0
 11
817.31206639610002
 21
-274.689879136
 31
0.0
  0
LINE
  5
29B
  8
0
 62
     0
 10
818.61067708330006
 20
-274.689879136
 30
0.0
 11
797.90928777060003
 21
-274.689879136
 31
0.0
  0
LINE
  5
29C
  8
0
 62
     0
 10
796.61067708329995
 20
-274.689879136
 30
0.0
 11
817.31206639610002
 21
-274.689879136
 31
0.0
  0
LINE
  5
29D
  8
0
 62
     0
 10
796.61067708329995
 20
-274.689879136
 30
0.0
 11
797.90928777060003
 21
-274.689879136
 31
0.0
  0
LINE
  5
29E
  8
0
 62
     0
 10
796.61067708329995
 20
-274.689879136
 30
0.0
 11
791.61067708330006
 21
-274.689879136
 31
0.0
  0
SOLID
  5
29F
  8
0
 62
     0
 10
796.61067708329995
 20
-274.689879136
 30
0.0
 11
789.11067708329995
 21
-276.564879136
 31
0.0
 12
789.11067708329995
 22
-272.814879136
 32
0.0
 13
790.98567708329995
 23
-274.689879136
 33
0.0
  0
LINE
  5
2A0
  8
0
 62
     0
 10
818.61067708330006
 20
-274.689879136
 30
0.0
 11
823.61067708329995
 21
-274.689879136
 31
0.0
  0
SOLID
  5
2A1
  8
0
 62
     0
 10
818.61067708330006
 20
-274.689879136
 30
0.0
 11
826.11067708329995
 21
-272.814879136
 31
0.0
 12
826.11067708329995
 22
-276.564879136
 32
0.0
 13
824.23567708329995
 23
-274.689879136
 33
0.0
  0
ENDBLK
  5
2A2
  8
0
  0
BLOCK
  8
0
  2
CLUMP4
 70
     0
 10
0.0
 20
0.0
 30
0.0
  3
CLUMP4
  1

  0
ARC
  5
2A8
  8
ﾚｲﾔ_1
 62
     5
 10
1083.1106770833001
 20
-287.4297883081
 30
0.0
 40
3.5
 50
270.0
 51
90.0
  0
LINE
  5
2A9
  8
ﾚｲﾔ_1
 62
     5
 10
1068.1106770833001
 20
-283.9297883081
 30
0.0
 11
1083.1106770833001
 21
-283.9297883081
 31
0.0
  0
LINE
  5
2AA
  8
ﾚｲﾔ_1
 62
     5
 10
1083.1106770833001
 20
-290.9297883081
 30
0.0
 11
1068.1106770833001
 21
-290.9297883081
 31
0.0
  0
ARC
  5
2AB
  8
ﾚｲﾔ_1
 62
     5
 10
1068.1106770833001
 20
-287.4297883081
 30
0.0
 40
3.5
 50
90.0
 51
270.0
  0
ENDBLK
  5
2AC
  8
0
  0
BLOCK
  8
0
  2
*D34
 70
     1
 10
0.0
 20
0.0
 30
0.0
  3
*D34
  1

  0
TEXT
  5
2B7
  8
0
 62
     0
 10
1084.2599824270001
 20
-324.47457991110002
 30
0.0
 40
8.2461809158000001
  1
27
  0
LINE
  5
2B8
  8
0
 62
     0
 10
1075.6106770833001
 20
-292.9297883081
 30
0.0
 11
1075.6106770833001
 21
-327.9297883081
 31
0.0
  0
LINE
  5
2B9
  8
0
 62
     0
 10
1102.6106770833001
 20
-303.9297883081
 30
0.0
 11
1102.6106770833001
 21
-327.9297883081
 31
0.0
  0
LINE
  5
2BA
  8
0
 62
     0
 10
1075.6106770833001
 20
-326.9297883081
 30
0.0
 11
1098.8120663960999
 21
-326.9297883081
 31
0.0
  0
LINE
  5
2BB
  8
0
 62
     0
 10
1075.6106770833001
 20
-326.9297883081
 30
0.0
 11
1079.4092877706
 21
-326.9297883081
 31
0.0
  0
LINE
  5
2BC
  8
0
 62
     0
 10
1102.6106770833001
 20
-326.9297883081
 30
0.0
 11
1098.8120663960999
 21
-326.9297883081
 31
0.0
  0
LINE
  5
2BD
  8
0
 62
     0
 10
1102.6106770833001
 20
-326.9297883081
 30
0.0
 11
1079.4092877706
 21
-326.9297883081
 31
0.0
  0
LINE
  5
2BE
  8
0
 62
     0
 10
1102.6106770833001
 20
-326.9297883081
 30
0.0
 11
1107.6106770833001
 21
-326.9297883081
 31
0.0
  0
SOLID
  5
2BF
  8
0
 62
     0
 10
1102.6106770833001
 20
-326.9297883081
 30
0.0
 11
1110.1106770833001
 21
-325.0547883081
 31
0.0
 12
1110.1106770833001
 22
-328.8047883081
 32
0.0
 13
1108.2356770833001
 23
-326.9297883081
 33
0.0
  0
LINE
  5
2C0
  8
0
 62
     0
 10
1075.6106770833001
 20
-326.9297883081
 30
0.0
 11
1070.6106770833001
 21
-326.9297883081
 31
0.0
  0
SOLID
  5
2C1
  8
0
 62
     0
 10
1075.6106770833001
 20
-326.9297883081
 30
0.0
 11
1068.1106770833001
 21
-328.8047883081
 31
0.0
 12
1068.1106770833001
 22
-325.0547883081
 32
0.0
 13
1069.9856770833001
 23
-326.9297883081
 33
0.0
  0
ENDBLK
  5
2C2
  8
0
  0
BLOCK
  8
0
  2
*D35
 70
     1
 10
0.0
 20
0.0
 30
0.0
  3
*D35
  1

  0
TEXT
  5
2C6
  8
0
 62
     0
 10
1125.1554686863999
 20
-325.39943420560002
 30
0.0
 40
8.2461809158000001
  1
14.5
 50
90.0
  0
LINE
  5
2C7
  8
0
 62
     0
 10
1104.6106770833001
 20
-301.9297883081
 30
0.0
 11
1128.6106770833001
 21
-301.9297883081
 31
0.0
  0
LINE
  5
2C8
  8
0
 62
     0
 10
1088.6106770833001
 20
-287.4297883081
 30
0.0
 11
1128.6106770833001
 21
-287.4297883081
 31
0.0
  0
LINE
  5
2C9
  8
0
 62
     0
 10
1127.6106770833001
 20
-301.9297883081
 30
0.0
 11
1127.6106770833001
 21
-303.97553280659997
 31
0.0
  0
LINE
  5
2CA
  8
0
 62
     0
 10
1127.6106770833001
 20
-301.9297883081
 30
0.0
 11
1127.6106770833001
 21
-330.250128862
 31
0.0
  0
LINE
  5
2CB
  8
0
 62
     0
 10
1127.6106770833001
 20
-287.4297883081
 30
0.0
 11
1127.6106770833001
 21
-303.97553280659997
 31
0.0
  0
LINE
  5
2CC
  8
0
 62
     0
 10
1127.6106770833001
 20
-287.4297883081
 30
0.0
 11
1127.6106770833001
 21
-330.250128862
 31
0.0
  0
LINE
  5
2CD
  8
0
 62
     0
 10
1127.6106770833001
 20
-287.4297883081
 30
0.0
 11
1127.6106770833001
 21
-282.4297883081
 31
0.0
  0
SOLID
  5
2CE
  8
0
 62
     0
 10
1127.6106770833001
 20
-287.4297883081
 30
0.0
 11
1125.7356770833001
 21
-279.9297883081
 31
0.0
 12
1129.4856770833001
 22
-279.9297883081
 32
0.0
 13
1127.6106770833001
 23
-281.8047883081
 33
0.0
  0
LINE
  5
2CF
  8
0
 62
     0
 10
1127.6106770833001
 20
-301.9297883081
 30
0.0
 11
1127.6106770833001
 21
-306.9297883081
 31
0.0
  0
SOLID
  5
2D0
  8
0
 62
     0
 10
1127.6106770833001
 20
-301.9297883081
 30
0.0
 11
1129.4856770833001
 21
-309.4297883081
 31
0.0
 12
1125.7356770833001
 22
-309.4297883081
 32
0.0
 13
1127.6106770833001
 23
-307.5547883081
 33
0.0
  0
ENDBLK
  5
2D1
  8
0
  0
BLOCK
  8
0
  2
*D36
 70
     1
 10
0.0
 20
0.0
 30
0.0
  3
*D36
  1

  0
TEXT
  5
2D5
  8
0
 62
     0
 10
1125.1554686863999
 20
-213.88695823820001
 30
0.0
 40
8.2461809158000001
  1
14.5
 50
90.0
  0
LINE
  5
2D6
  8
0
 62
     0
 10
1088.6106770833001
 20
-237.4297883081
 30
0.0
 11
1128.6106770833001
 21
-237.4297883081
 31
0.0
  0
LINE
  5
2D7
  8
0
 62
     0
 10
1104.6106770833001
 20
-222.9297883081
 30
0.0
 11
1128.6106770833001
 21
-222.9297883081
 31
0.0
  0
LINE
  5
2D8
  8
0
 62
     0
 10
1127.6106770833001
 20
-237.4297883081
 30
0.0
 11
1127.6106770833001
 21
-192.46305683919999
 31
0.0
  0
LINE
  5
2D9
  8
0
 62
     0
 10
1127.6106770833001
 20
-237.4297883081
 30
0.0
 11
1127.6106770833001
 21
-218.73765289459999
 31
0.0
  0
LINE
  5
2DA
  8
0
 62
     0
 10
1127.6106770833001
 20
-222.9297883081
 30
0.0
 11
1127.6106770833001
 21
-192.46305683919999
 31
0.0
  0
LINE
  5
2DB
  8
0
 62
     0
 10
1127.6106770833001
 20
-222.9297883081
 30
0.0
 11
1127.6106770833001
 21
-218.73765289459999
 31
0.0
  0
LINE
  5
2DC
  8
0
 62
     0
 10
1127.6106770833001
 20
-222.9297883081
 30
0.0
 11
1127.6106770833001
 21
-217.9297883081
 31
0.0
  0
SOLID
  5
2DD
  8
0
 62
     0
 10
1127.6106770833001
 20
-222.9297883081
 30
0.0
 11
1125.7356770833001
 21
-215.4297883081
 31
0.0
 12
1129.4856770833001
 22
-215.4297883081
 32
0.0
 13
1127.6106770833001
 23
-217.3047883081
 33
0.0
  0
LINE
  5
2DE
  8
0
 62
     0
 10
1127.6106770833001
 20
-237.4297883081
 30
0.0
 11
1127.6106770833001
 21
-242.4297883081
 31
0.0
  0
SOLID
  5
2DF
  8
0
 62
     0
 10
1127.6106770833001
 20
-237.4297883081
 30
0.0
 11
1129.4856770833001
 21
-244.9297883081
 31
0.0
 12
1125.7356770833001
 22
-244.9297883081
 32
0.0
 13
1127.6106770833001
 23
-243.0547883081
 33
0.0
  0
ENDBLK
  5
2E0
  8
0
  0
BLOCK
  8
0
  2
*D37
 70
     1
 10
0.0
 20
0.0
 30
0.0
  3
*D37
  1

  0
TEXT
  5
2E4
  8
0
 62
     0
 10
1125.1554686863999
 20
-279.78048296439999
 30
0.0
 40
8.2461809158000001
  1
25
 50
90.0
  0
LINE
  5
2E5
  8
0
 62
     0
 10
1088.6106770833001
 20
-287.4297883081
 30
0.0
 11
1128.6106770833001
 21
-287.4297883081
 31
0.0
  0
LINE
  5
2E6
  8
0
 62
     0
 10
1109.6106770833001
 20
-262.4297883081
 30
0.0
 11
1128.6106770833001
 21
-262.4297883081
 31
0.0
  0
LINE
  5
2E7
  8
0
 62
     0
 10
1127.6106770833001
 20
-287.4297883081
 30
0.0
 11
1127.6106770833001
 21
-265.22839899529998
 31
0.0
  0
LINE
  5
2E8
  8
0
 62
     0
 10
1127.6106770833001
 20
-287.4297883081
 30
0.0
 11
1127.6106770833001
 21
-284.63117762080009
 31
0.0
  0
LINE
  5
2E9
  8
0
 62
     0
 10
1127.6106770833001
 20
-262.4297883081
 30
0.0
 11
1127.6106770833001
 21
-265.22839899529998
 31
0.0
  0
LINE
  5
2EA
  8
0
 62
     0
 10
1127.6106770833001
 20
-262.4297883081
 30
0.0
 11
1127.6106770833001
 21
-284.63117762080009
 31
0.0
  0
LINE
  5
2EB
  8
0
 62
     0
 10
1127.6106770833001
 20
-262.4297883081
 30
0.0
 11
1127.6106770833001
 21
-257.4297883081
 31
0.0
  0
SOLID
  5
2EC
  8
0
 62
     0
 10
1127.6106770833001
 20
-262.4297883081
 30
0.0
 11
1125.7356770833001
 21
-254.9297883081
 31
0.0
 12
1129.4856770833001
 22
-254.9297883081
 32
0.0
 13
1127.6106770833001
 23
-256.8047883081
 33
0.0
  0
LINE
  5
2ED
  8
0
 62
     0
 10
1127.6106770833001
 20
-287.4297883081
 30
0.0
 11
1127.6106770833001
 21
-292.4297883081
 31
0.0
  0
SOLID
  5
2EE
  8
0
 62
     0
 10
1127.6106770833001
 20
-287.4297883081
 30
0.0
 11
1129.4856770833001
 21
-294.9297883081
 31
0.0
 12
1125.7356770833001
 22
-294.9297883081
 32
0.0
 13
1127.6106770833001
 23
-293.0547883081
 33
0.0
  0
ENDBLK
  5
2EF
  8
0
  0
BLOCK
  8
0
  2
*D38
 70
     1
 10
0.0
 20
0.0
 30
0.0
  3
*D38
  1

  0
TEXT
  5
2F3
  8
0
 62
     0
 10
1125.1554686863999
 20
-254.78048296439999
 30
0.0
 40
8.2461809158000001
  1
25
 50
90.0
  0
LINE
  5
2F4
  8
0
 62
     0
 10
1109.6106770833001
 20
-262.4297883081
 30
0.0
 11
1128.6106770833001
 21
-262.4297883081
 31
0.0
  0
LINE
  5
2F5
  8
0
 62
     0
 10
1088.6106770833001
 20
-237.4297883081
 30
0.0
 11
1128.6106770833001
 21
-237.4297883081
 31
0.0
  0
LINE
  5
2F6
  8
0
 62
     0
 10
1127.6106770833001
 20
-262.4297883081
 30
0.0
 11
1127.6106770833001
 21
-240.22839899530001
 31
0.0
  0
LINE
  5
2F7
  8
0
 62
     0
 10
1127.6106770833001
 20
-262.4297883081
 30
0.0
 11
1127.6106770833001
 21
-259.63117762080009
 31
0.0
  0
LINE
  5
2F8
  8
0
 62
     0
 10
1127.6106770833001
 20
-237.4297883081
 30
0.0
 11
1127.6106770833001
 21
-240.22839899530001
 31
0.0
  0
LINE
  5
2F9
  8
0
 62
     0
 10
1127.6106770833001
 20
-237.4297883081
 30
0.0
 11
1127.6106770833001
 21
-259.63117762080009
 31
0.0
  0
LINE
  5
2FA
  8
0
 62
     0
 10
1127.6106770833001
 20
-237.4297883081
 30
0.0
 11
1127.6106770833001
 21
-232.4297883081
 31
0.0
  0
SOLID
  5
2FB
  8
0
 62
     0
 10
1127.6106770833001
 20
-237.4297883081
 30
0.0
 11
1125.7356770833001
 21
-229.9297883081
 31
0.0
 12
1129.4856770833001
 22
-229.9297883081
 32
0.0
 13
1127.6106770833001
 23
-231.8047883081
 33
0.0
  0
LINE
  5
2FC
  8
0
 62
     0
 10
1127.6106770833001
 20
-262.4297883081
 30
0.0
 11
1127.6106770833001
 21
-267.4297883081
 31
0.0
  0
SOLID
  5
2FD
  8
0
 62
     0
 10
1127.6106770833001
 20
-262.4297883081
 30
0.0
 11
1129.4856770833001
 21
-269.9297883081
 31
0.0
 12
1125.7356770833001
 22
-269.9297883081
 32
0.0
 13
1127.6106770833001
 23
-268.0547883081
 33
0.0
  0
ENDBLK
  5
2FE
  8
0
  0
BLOCK
  8
0
  2
*D39
 70
     1
 10
0.0
 20
0.0
 30
0.0
  3
*D39
  1

  0
TEXT
  5
302
  8
0
 62
     0
 10
836.25998242699995
 20
-324.47457991110002
 30
0.0
 40
8.2461809158000001
  1
67
  0
LINE
  5
303
  8
0
 62
     0
 10
807.61067708329995
 20
-292.9297883081
 30
0.0
 11
807.61067708329995
 21
-327.9297883081
 31
0.0
  0
LINE
  5
304
  8
0
 62
     0
 10
874.61067708329995
 20
-292.9297883081
 30
0.0
 11
874.61067708329995
 21
-327.9297883081
 31
0.0
  0
LINE
  5
305
  8
0
 62
     0
 10
807.61067708329995
 20
-326.9297883081
 30
0.0
 11
850.81206639609991
 21
-326.9297883081
 31
0.0
  0
LINE
  5
306
  8
0
 62
     0
 10
807.61067708329995
 20
-326.9297883081
 30
0.0
 11
831.40928777060003
 21
-326.9297883081
 31
0.0
  0
LINE
  5
307
  8
0
 62
     0
 10
874.61067708329995
 20
-326.9297883081
 30
0.0
 11
850.81206639609991
 21
-326.9297883081
 31
0.0
  0
LINE
  5
308
  8
0
 62
     0
 10
874.61067708329995
 20
-326.9297883081
 30
0.0
 11
831.40928777060003
 21
-326.9297883081
 31
0.0
  0
LINE
  5
309
  8
0
 62
     0
 10
874.61067708329995
 20
-326.9297883081
 30
0.0
 11
869.61067708330006
 21
-326.9297883081
 31
0.0
  0
SOLID
  5
30A
  8
0
 62
     0
 10
874.61067708329995
 20
-326.9297883081
 30
0.0
 11
867.11067708329995
 21
-328.8047883081
 31
0.0
 12
867.11067708329995
 22
-325.0547883081
 32
0.0
 13
868.98567708330006
 23
-326.9297883081
 33
0.0
  0
LINE
  5
30B
  8
0
 62
     0
 10
807.61067708329995
 20
-326.9297883081
 30
0.0
 11
812.61067708330006
 21
-326.9297883081
 31
0.0
  0
SOLID
  5
30C
  8
0
 62
     0
 10
807.61067708329995
 20
-326.9297883081
 30
0.0
 11
815.11067708330006
 21
-325.0547883081
 31
0.0
 12
815.11067708330006
 22
-328.8047883081
 32
0.0
 13
813.23567708329995
 23
-326.9297883081
 33
0.0
  0
ENDBLK
  5
30D
  8
0
  0
BLOCK
  8
0
  2
*D40
 70
     1
 10
0.0
 20
0.0
 30
0.0
  3
*D40
  1

  0
TEXT
  5
311
  8
0
 62
     0
 10
903.25998242699995
 20
-324.47457991110002
 30
0.0
 40
8.2461809158000001
  1
67
  0
LINE
  5
312
  8
0
 62
     0
 10
874.61067708329995
 20
-292.9297883081
 30
0.0
 11
874.61067708329995
 21
-327.9297883081
 31
0.0
  0
LINE
  5
313
  8
0
 62
     0
 10
941.61067708329995
 20
-292.9297883081
 30
0.0
 11
941.61067708329995
 21
-327.9297883081
 31
0.0
  0
LINE
  5
314
  8
0
 62
     0
 10
874.61067708329995
 20
-326.9297883081
 30
0.0
 11
917.81206639609991
 21
-326.9297883081
 31
0.0
  0
LINE
  5
315
  8
0
 62
     0
 10
874.61067708329995
 20
-326.9297883081
 30
0.0
 11
898.40928777060003
 21
-326.9297883081
 31
0.0
  0
LINE
  5
316
  8
0
 62
     0
 10
941.61067708329995
 20
-326.9297883081
 30
0.0
 11
917.81206639609991
 21
-326.9297883081
 31
0.0
  0
LINE
  5
317
  8
0
 62
     0
 10
941.61067708329995
 20
-326.9297883081
 30
0.0
 11
898.40928777060003
 21
-326.9297883081
 31
0.0
  0
LINE
  5
318
  8
0
 62
     0
 10
941.61067708329995
 20
-326.9297883081
 30
0.0
 11
936.61067708330006
 21
-326.9297883081
 31
0.0
  0
SOLID
  5
319
  8
0
 62
     0
 10
941.61067708329995
 20
-326.9297883081
 30
0.0
 11
934.11067708329995
 21
-328.8047883081
 31
0.0
 12
934.11067708329995
 22
-325.0547883081
 32
0.0
 13
935.98567708330006
 23
-326.9297883081
 33
0.0
  0
LINE
  5
31A
  8
0
 62
     0
 10
874.61067708329995
 20
-326.9297883081
 30
0.0
 11
879.61067708329995
 21
-326.9297883081
 31
0.0
  0
SOLID
  5
31B
  8
0
 62
     0
 10
874.61067708329995
 20
-326.9297883081
 30
0.0
 11
882.11067708330006
 21
-325.0547883081
 31
0.0
 12
882.11067708330006
 22
-328.8047883081
 32
0.0
 13
880.23567708329995
 23
-326.9297883081
 33
0.0
  0
ENDBLK
  5
31C
  8
0
  0
BLOCK
  8
0
  2
*D41
 70
     1
 10
0.0
 20
0.0
 30
0.0
  3
*D41
  1

  0
TEXT
  5
320
  8
0
 62
     0
 10
1280.7653297551001
 20
126.3540253705
 30
0.0
 40
8.2461809158000001
  1
9
  0
LINE
  5
321
  8
0
 62
     0
 10
1287.6906770833
 20
93.066263109999994
 30
0.0
 11
1287.6906770833
 21
124.8988169735
 31
0.0
  0
LINE
  5
322
  8
0
 62
     0
 10
1278.6906770833
 20
84.066263109999994
 30
0.0
 11
1278.6906770833
 21
124.8988169735
 31
0.0
  0
LINE
  5
323
  8
0
 62
     0
 10
1287.6906770833
 20
123.8988169735
 30
0.0
 11
1287.6906770833
 21
123.8988169735
 31
0.0
  0
LINE
  5
324
  8
0
 62
     0
 10
1287.6906770833
 20
123.8988169735
 30
0.0
 11
1278.6906770833
 21
123.8988169735
 31
0.0
  0
LINE
  5
325
  8
0
 62
     0
 10
1278.6906770833
 20
123.8988169735
 30
0.0
 11
1287.6906770833
 21
123.8988169735
 31
0.0
  0
LINE
  5
326
  8
0
 62
     0
 10
1278.6906770833
 20
123.8988169735
 30
0.0
 11
1278.6906770833
 21
123.8988169735
 31
0.0
  0
LINE
  5
327
  8
0
 62
     0
 10
1278.6906770833
 20
123.8988169735
 30
0.0
 11
1273.6906770833
 21
123.8988169735
 31
0.0
  0
SOLID
  5
328
  8
0
 62
     0
 10
1278.6906770833
 20
123.8988169735
 30
0.0
 11
1271.1906770833
 21
122.0238169735
 31
0.0
 12
1271.1906770833
 22
125.7738169735
 32
0.0
 13
1273.0656770833
 23
123.8988169735
 33
0.0
  0
LINE
  5
329
  8
0
 62
     0
 10
1287.6906770833
 20
123.8988169735
 30
0.0
 11
1292.6906770833
 21
123.8988169735
 31
0.0
  0
SOLID
  5
32A
  8
0
 62
     0
 10
1287.6906770833
 20
123.8988169735
 30
0.0
 11
1295.1906770833
 21
125.7738169735
 31
0.0
 12
1295.1906770833
 22
122.0238169735
 32
0.0
 13
1293.3156770833
 23
123.8988169735
 33
0.0
  0
ENDBLK
  5
32B
  8
0
  0
BLOCK
  8
0
  2
*D42
 70
     1
 10
0.0
 20
0.0
 30
0.0
  3
*D42
  1

  0
TEXT
  5
32F
  8
0
 62
     0
 10
1306.4157817968
 20
-112.13964420320001
 30
0.0
 40
8.2461809158000001
  1
6
 50
90.0
  0
LINE
  5
330
  8
0
 62
     0
 10
1288.8906770833
 20
-112.714296875
 30
0.0
 11
1309.8709901937
 21
-112.714296875
 31
0.0
  0
LINE
  5
331
  8
0
 62
     0
 10
1289.6906770833
 20
-106.714296875
 30
0.0
 11
1309.8709901937
 21
-106.714296875
 31
0.0
  0
LINE
  5
332
  8
0
 62
     0
 10
1308.8709901937
 20
-112.714296875
 30
0.0
 11
1308.8709901937
 21
-112.714296875
 31
0.0
  0
LINE
  5
333
  8
0
 62
     0
 10
1308.8709901937
 20
-112.714296875
 30
0.0
 11
1308.8709901937
 21
-106.714296875
 31
0.0
  0
LINE
  5
334
  8
0
 62
     0
 10
1308.8709901937
 20
-106.714296875
 30
0.0
 11
1308.8709901937
 21
-112.714296875
 31
0.0
  0
LINE
  5
335
  8
0
 62
     0
 10
1308.8709901937
 20
-106.714296875
 30
0.0
 11
1308.8709901937
 21
-106.714296875
 31
0.0
  0
LINE
  5
336
  8
0
 62
     0
 10
1308.8709901937
 20
-106.714296875
 30
0.0
 11
1308.8709901937
 21
-101.714296875
 31
0.0
  0
SOLID
  5
337
  8
0
 62
     0
 10
1308.8709901937
 20
-106.714296875
 30
0.0
 11
1306.9959901937
 21
-99.214296875000016
 31
0.0
 12
1310.7459901937
 22
-99.214296875000016
 32
0.0
 13
1308.8709901937
 23
-101.089296875
 33
0.0
  0
LINE
  5
338
  8
0
 62
     0
 10
1308.8709901937
 20
-112.714296875
 30
0.0
 11
1308.8709901937
 21
-117.714296875
 31
0.0
  0
SOLID
  5
339
  8
0
 62
     0
 10
1308.8709901937
 20
-112.714296875
 30
0.0
 11
1310.7459901937
 21
-120.214296875
 31
0.0
 12
1306.9959901937
 22
-120.214296875
 32
0.0
 13
1308.8709901937
 23
-118.339296875
 33
0.0
  0
ENDBLK
  5
33A
  8
0
  0
BLOCK
  8
0
  2
*D43
 70
     1
 10
0.0
 20
0.0
 30
0.0
  3
*D43
  1

  0
TEXT
  5
33E
  8
0
 62
     0
 10
1177.2595177968999
 20
-200.47457991109999
 30
0.0
 40
8.2461809158000001
  1
14
  0
LINE
  5
33F
  8
0
 62
     0
 10
1189.1102124531999
 20
-220.9297883081
 30
0.0
 11
1189.1102124531999
 21
-201.9297883081
 31
0.0
  0
LINE
  5
340
  8
0
 62
     0
 10
1175.1102124531999
 20
-222.42978775730001
 30
0.0
 11
1175.1102124531999
 21
-201.9297883081
 31
0.0
  0
LINE
  5
341
  8
0
 62
     0
 10
1189.1102124531999
 20
-202.9297883081
 30
0.0
 11
1189.1102124531999
 21
-202.9297883081
 31
0.0
  0
LINE
  5
342
  8
0
 62
     0
 10
1189.1102124531999
 20
-202.9297883081
 30
0.0
 11
1175.1102124531999
 21
-202.9297883081
 31
0.0
  0
LINE
  5
343
  8
0
 62
     0
 10
1175.1102124531999
 20
-202.9297883081
 30
0.0
 11
1189.1102124531999
 21
-202.9297883081
 31
0.0
  0
LINE
  5
344
  8
0
 62
     0
 10
1175.1102124531999
 20
-202.9297883081
 30
0.0
 11
1175.1102124531999
 21
-202.9297883081
 31
0.0
  0
LINE
  5
345
  8
0
 62
     0
 10
1175.1102124531999
 20
-202.9297883081
 30
0.0
 11
1170.1102124531999
 21
-202.9297883081
 31
0.0
  0
SOLID
  5
346
  8
0
 62
     0
 10
1175.1102124531999
 20
-202.9297883081
 30
0.0
 11
1167.6102124531999
 21
-204.8047883081
 31
0.0
 12
1167.6102124531999
 22
-201.0547883081
 32
0.0
 13
1169.4852124531999
 23
-202.9297883081
 33
0.0
  0
LINE
  5
347
  8
0
 62
     0
 10
1189.1102124531999
 20
-202.9297883081
 30
0.0
 11
1194.1102124531999
 21
-202.9297883081
 31
0.0
  0
SOLID
  5
348
  8
0
 62
     0
 10
1189.1102124531999
 20
-202.9297883081
 30
0.0
 11
1196.6102124531999
 21
-201.0547883081
 31
0.0
 12
1196.6102124531999
 22
-204.8047883081
 32
0.0
 13
1194.7352124531999
 23
-202.9297883081
 33
0.0
  0
ENDBLK
  5
349
  8
0
  0
BLOCK
  8
0
  2
*D44
 70
     1
 10
0.0
 20
0.0
 30
0.0
  3
*D44
  1

  0
TEXT
  5
34D
  8
0
 62
     0
 10
1232.4658568868001
 20
-200.47457991109999
 30
0.0
 40
8.2461809158000001
  1
23
  0
LINE
  5
34E
  8
0
 62
     0
 10
1248.8165515431001
 20
-220.9297883081
 30
0.0
 11
1248.8165515431001
 21
-201.9297883081
 31
0.0
  0
LINE
  5
34F
  8
0
 62
     0
 10
1225.8165515431001
 20
-222.4297883081
 30
0.0
 11
1225.8165515431001
 21
-201.9297883081
 31
0.0
  0
LINE
  5
350
  8
0
 62
     0
 10
1248.8165515431001
 20
-202.9297883081
 30
0.0
 11
1247.0179408559
 21
-202.9297883081
 31
0.0
  0
LINE
  5
351
  8
0
 62
     0
 10
1248.8165515431001
 20
-202.9297883081
 30
0.0
 11
1227.6151622304001
 21
-202.9297883081
 31
0.0
  0
LINE
  5
352
  8
0
 62
     0
 10
1225.8165515431001
 20
-202.9297883081
 30
0.0
 11
1247.0179408559
 21
-202.9297883081
 31
0.0
  0
LINE
  5
353
  8
0
 62
     0
 10
1225.8165515431001
 20
-202.9297883081
 30
0.0
 11
1227.6151622304001
 21
-202.9297883081
 31
0.0
  0
LINE
  5
354
  8
0
 62
     0
 10
1225.8165515431001
 20
-202.9297883081
 30
0.0
 11
1220.8165515431001
 21
-202.9297883081
 31
0.0
  0
SOLID
  5
355
  8
0
 62
     0
 10
1225.8165515431001
 20
-202.9297883081
 30
0.0
 11
1218.3165515431001
 21
-204.8047883081
 31
0.0
 12
1218.3165515431001
 22
-201.0547883081
 32
0.0
 13
1220.1915515431001
 23
-202.9297883081
 33
0.0
  0
LINE
  5
356
  8
0
 62
     0
 10
1248.8165515431001
 20
-202.9297883081
 30
0.0
 11
1253.8165515431001
 21
-202.9297883081
 31
0.0
  0
SOLID
  5
357
  8
0
 62
     0
 10
1248.8165515431001
 20
-202.9297883081
 30
0.0
 11
1256.3165515431001
 21
-201.0547883081
 31
0.0
 12
1256.3165515431001
 22
-204.8047883081
 32
0.0
 13
1254.4415515431001
 23
-202.9297883081
 33
0.0
  0
ENDBLK
  5
358
  8
0
  0
BLOCK
  8
0
  2
*D45
 70
     1
 10
0.0
 20
0.0
 30
0.0
  3
*D45
  1

  0
TEXT
  5
35C
  8
0
 62
     0
 10
705.68532975509993
 20
126.3540253705
 30
0.0
 40
8.2461809158000001
  1
9
  0
LINE
  5
35D
  8
0
 62
     0
 10
712.61067708330006
 20
84.066263109999994
 30
0.0
 11
712.61067708330006
 21
124.8988169735
 31
0.0
  0
LINE
  5
35E
  8
0
 62
     0
 10
703.61067708330006
 20
93.066263109999994
 30
0.0
 11
703.61067708330006
 21
124.8988169735
 31
0.0
  0
LINE
  5
35F
  8
0
 62
     0
 10
712.61067708330006
 20
123.8988169735
 30
0.0
 11
712.61067708330006
 21
123.8988169735
 31
0.0
  0
LINE
  5
360
  8
0
 62
     0
 10
712.61067708330006
 20
123.8988169735
 30
0.0
 11
703.61067708330006
 21
123.8988169735
 31
0.0
  0
LINE
  5
361
  8
0
 62
     0
 10
703.61067708330006
 20
123.8988169735
 30
0.0
 11
712.61067708330006
 21
123.8988169735
 31
0.0
  0
LINE
  5
362
  8
0
 62
     0
 10
703.61067708330006
 20
123.8988169735
 30
0.0
 11
703.61067708330006
 21
123.8988169735
 31
0.0
  0
LINE
  5
363
  8
0
 62
     0
 10
703.61067708330006
 20
123.8988169735
 30
0.0
 11
698.61067708329995
 21
123.8988169735
 31
0.0
  0
SOLID
  5
364
  8
0
 62
     0
 10
703.61067708330006
 20
123.8988169735
 30
0.0
 11
696.11067708330006
 21
122.0238169735
 31
0.0
 12
696.11067708330006
 22
125.7738169735
 32
0.0
 13
697.98567708329995
 23
123.8988169735
 33
0.0
  0
LINE
  5
365
  8
0
 62
     0
 10
712.61067708330006
 20
123.8988169735
 30
0.0
 11
717.61067708329995
 21
123.8988169735
 31
0.0
  0
SOLID
  5
366
  8
0
 62
     0
 10
712.61067708330006
 20
123.8988169735
 30
0.0
 11
720.11067708329995
 21
125.7738169735
 31
0.0
 12
720.11067708329995
 22
122.0238169735
 32
0.0
 13
718.23567708329995
 23
123.8988169735
 33
0.0
  0
ENDBLK
  5
367
  8
0
  0
BLOCK
  8
0
  2
*D46
 70
     1
 10
0.0
 20
0.0
 30
0.0
  3
*D46
  1

  0
TEXT
  5
36B
  8
0
 62
     0
 10
1387.0359768808
 20
119.5684506482
 30
0.0
 40
8.2461809158000001
  1
15
  0
LINE
  5
36C
  8
0
 62
     0
 10
1384.2676757813001
 20
84.066263109999994
 30
0.0
 11
1384.2676757813001
 21
118.11324225129999
 31
0.0
  0
LINE
  5
36D
  8
0
 62
     0
 10
1399.2676757813001
 20
92.266263109999997
 30
0.0
 11
1399.2676757813001
 21
118.11324225129999
 31
0.0
  0
LINE
  5
36E
  8
0
 62
     0
 10
1384.2676757813001
 20
117.11324225129999
 30
0.0
 11
1384.2676757813001
 21
117.11324225129999
 31
0.0
  0
LINE
  5
36F
  8
0
 62
     0
 10
1384.2676757813001
 20
117.11324225129999
 30
0.0
 11
1399.2676757813001
 21
117.11324225129999
 31
0.0
  0
LINE
  5
370
  8
0
 62
     0
 10
1399.2676757813001
 20
117.11324225129999
 30
0.0
 11
1384.2676757813001
 21
117.11324225129999
 31
0.0
  0
LINE
  5
371
  8
0
 62
     0
 10
1399.2676757813001
 20
117.11324225129999
 30
0.0
 11
1399.2676757813001
 21
117.11324225129999
 31
0.0
  0
LINE
  5
372
  8
0
 62
     0
 10
1399.2676757813001
 20
117.11324225129999
 30
0.0
 11
1404.2676757813001
 21
117.11324225129999
 31
0.0
  0
SOLID
  5
373
  8
0
 62
     0
 10
1399.2676757813001
 20
117.11324225129999
 30
0.0
 11
1406.7676757813001
 21
118.98824225129999
 31
0.0
 12
1406.7676757813001
 22
115.23824225129999
 32
0.0
 13
1404.8926757813001
 23
117.11324225129999
 33
0.0
  0
LINE
  5
374
  8
0
 62
     0
 10
1384.2676757813001
 20
117.11324225129999
 30
0.0
 11
1379.2676757813001
 21
117.11324225129999
 31
0.0
  0
SOLID
  5
375
  8
0
 62
     0
 10
1384.2676757813001
 20
117.11324225129999
 30
0.0
 11
1376.7676757813001
 21
115.23824225129999
 31
0.0
 12
1376.7676757813001
 22
118.98824225129999
 32
0.0
 13
1378.6426757813001
 23
117.11324225129999
 33
0.0
  0
ENDBLK
  5
376
  8
0
  0
BLOCK
  8
0
  2
*D47
 70
     1
 10
0.0
 20
0.0
 30
0.0
  3
*D47
  1

  0
TEXT
  5
37A
  8
0
 62
     0
 10
970.25998242699995
 20
-324.47457991110002
 30
0.0
 40
8.2461809158000001
  1
67
  0
LINE
  5
37B
  8
0
 62
     0
 10
941.61067708329995
 20
-292.9297883081
 30
0.0
 11
941.61067708329995
 21
-327.9297883081
 31
0.0
  0
LINE
  5
37C
  8
0
 62
     0
 10
1008.6106770832999
 20
-292.9297883081
 30
0.0
 11
1008.6106770832999
 21
-327.9297883081
 31
0.0
  0
LINE
  5
37D
  8
0
 62
     0
 10
941.61067708329995
 20
-326.9297883081
 30
0.0
 11
984.81206639609991
 21
-326.9297883081
 31
0.0
  0
LINE
  5
37E
  8
0
 62
     0
 10
941.61067708329995
 20
-326.9297883081
 30
0.0
 11
965.40928777060003
 21
-326.9297883081
 31
0.0
  0
LINE
  5
37F
  8
0
 62
     0
 10
1008.6106770832999
 20
-326.9297883081
 30
0.0
 11
984.81206639609991
 21
-326.9297883081
 31
0.0
  0
LINE
  5
380
  8
0
 62
     0
 10
1008.6106770832999
 20
-326.9297883081
 30
0.0
 11
965.40928777060003
 21
-326.9297883081
 31
0.0
  0
LINE
  5
381
  8
0
 62
     0
 10
1008.6106770832999
 20
-326.9297883081
 30
0.0
 11
1003.6106770832999
 21
-326.9297883081
 31
0.0
  0
SOLID
  5
382
  8
0
 62
     0
 10
1008.6106770832999
 20
-326.9297883081
 30
0.0
 11
1001.1106770832999
 21
-328.8047883081
 31
0.0
 12
1001.1106770832999
 22
-325.0547883081
 32
0.0
 13
1002.9856770832999
 23
-326.9297883081
 33
0.0
  0
LINE
  5
383
  8
0
 62
     0
 10
941.61067708329995
 20
-326.9297883081
 30
0.0
 11
946.61067708329995
 21
-326.9297883081
 31
0.0
  0
SOLID
  5
384
  8
0
 62
     0
 10
941.61067708329995
 20
-326.9297883081
 30
0.0
 11
949.11067708330006
 21
-325.0547883081
 31
0.0
 12
949.11067708330006
 22
-328.8047883081
 32
0.0
 13
947.23567708329995
 23
-326.9297883081
 33
0.0
  0
ENDBLK
  5
385
  8
0
  0
BLOCK
  8
0
  2
*D48
 70
     1
 10
0.0
 20
0.0
 30
0.0
  3
*D48
  1

  0
TEXT
  5
389
  8
0
 62
     0
 10
1415.4532556534
 20
37.2155684536
 30
0.0
 40
8.2461809158000001
  1
67
 50
90.0
  0
LINE
  5
38A
  8
0
 62
     0
 10
1400.4676757812999
 20
8.5662631099999995
 30
0.0
 11
1418.9084640502999
 21
8.5662631099999995
 31
0.0
  0
LINE
  5
38B
  8
0
 62
     0
 10
1400.4676757812999
 20
75.566263109999994
 30
0.0
 11
1418.9084640502999
 21
75.566263109999994
 31
0.0
  0
LINE
  5
38C
  8
0
 62
     0
 10
1417.9084640502999
 20
8.5662631099999995
 30
0.0
 11
1417.9084640502999
 21
51.767652422799998
 31
0.0
  0
LINE
  5
38D
  8
0
 62
     0
 10
1417.9084640502999
 20
8.5662631099999995
 30
0.0
 11
1417.9084640502999
 21
32.3648737973
 31
0.0
  0
LINE
  5
38E
  8
0
 62
     0
 10
1417.9084640502999
 20
75.566263109999994
 30
0.0
 11
1417.9084640502999
 21
51.767652422799998
 31
0.0
  0
LINE
  5
38F
  8
0
 62
     0
 10
1417.9084640502999
 20
75.566263109999994
 30
0.0
 11
1417.9084640502999
 21
32.3648737973
 31
0.0
  0
LINE
  5
390
  8
0
 62
     0
 10
1417.9084640502999
 20
75.566263109999994
 30
0.0
 11
1417.9084640502999
 21
70.566263109999994
 31
0.0
  0
SOLID
  5
391
  8
0
 62
     0
 10
1417.9084640502999
 20
75.566263109999994
 30
0.0
 11
1419.7834640502999
 21
68.066263109999994
 31
0.0
 12
1416.0334640502999
 22
68.066263109999994
 32
0.0
 13
1417.9084640502999
 23
69.941263109999994
 33
0.0
  0
LINE
  5
392
  8
0
 62
     0
 10
1417.9084640502999
 20
8.5662631099999995
 30
0.0
 11
1417.9084640502999
 21
13.56626311
 31
0.0
  0
SOLID
  5
393
  8
0
 62
     0
 10
1417.9084640502999
 20
8.5662631099999995
 30
0.0
 11
1416.0334640502999
 21
16.066263110000001
 31
0.0
 12
1419.7834640502999
 22
16.066263110000001
 32
0.0
 13
1417.9084640502999
 23
14.19126311
 33
0.0
  0
ENDBLK
  5
394
  8
0
  0
BLOCK
  8
0
  2
CLUMP5
 70
     0
 10
0.0
 20
0.0
 30
0.0
  3
CLUMP5
  1

  0
ARC
  5
39D
  8
ﾚｲﾔ_1
 62
     5
 10
1016.1106770832999
 20
-287.4297883081
 30
0.0
 40
3.5
 50
270.0
 51
90.0
  0
LINE
  5
39E
  8
ﾚｲﾔ_1
 62
     5
 10
1001.1106770832999
 20
-283.9297883081
 30
0.0
 11
1016.1106770832999
 21
-283.9297883081
 31
0.0
  0
LINE
  5
39F
  8
ﾚｲﾔ_1
 62
     5
 10
1016.1106770832999
 20
-290.9297883081
 30
0.0
 11
1001.1106770832999
 21
-290.9297883081
 31
0.0
  0
ARC
  5
3A0
  8
ﾚｲﾔ_1
 62
     5
 10
1001.1106770832999
 20
-287.4297883081
 30
0.0
 40
3.5
 50
90.0
 51
270.0
  0
ENDBLK
  5
3A1
  8
0
  0
BLOCK
  8
0
  2
CLUMP6
 70
     0
 10
0.0
 20
0.0
 30
0.0
  3
CLUMP6
  1

  0
ARC
  5
3A7
  8
ﾚｲﾔ_1
 62
     5
 10
815.11067708330006
 20
-287.4297883081
 30
0.0
 40
3.5
 50
270.0
 51
90.0
  0
LINE
  5
3A8
  8
ﾚｲﾔ_1
 62
     5
 10
800.11067708330006
 20
-283.9297883081
 30
0.0
 11
815.11067708330006
 21
-283.9297883081
 31
0.0
  0
LINE
  5
3A9
  8
ﾚｲﾔ_1
 62
     5
 10
815.11067708330006
 20
-290.9297883081
 30
0.0
 11
800.11067708330006
 21
-290.9297883081
 31
0.0
  0
ARC
  5
3AA
  8
ﾚｲﾔ_1
 62
     5
 10
800.11067708330006
 20
-287.4297883081
 30
0.0
 40
3.5
 50
90.0
 51
270.0
  0
ENDBLK
  5
3AB
  8
0
  0
BLOCK
  8
0
  2
CLUMP7
 70
     0
 10
0.0
 20
0.0
 30
0.0
  3
CLUMP7
  1

  0
ARC
  5
3B8
  8
ﾚｲﾔ_1
 62
     5
 10
748.11067708329995
 20
-287.4297883081
 30
0.0
 40
3.5
 50
270.0
 51
90.0
  0
LINE
  5
3B9
  8
ﾚｲﾔ_1
 62
     5
 10
733.11067708330006
 20
-283.9297883081
 30
0.0
 11
748.11067708329995
 21
-283.9297883081
 31
0.0
  0
LINE
  5
3BA
  8
ﾚｲﾔ_1
 62
     5
 10
748.11067708329995
 20
-290.9297883081
 30
0.0
 11
733.11067708330006
 21
-290.9297883081
 31
0.0
  0
ARC
  5
3BB
  8
ﾚｲﾔ_1
 62
     5
 10
733.11067708330006
 20
-287.4297883081
 30
0.0
 40
3.5
 50
90.0
 51
270.0
  0
ENDBLK
  5
3BC
  8
0
  0
BLOCK
  8
0
  2
CLUMP8
 70
     0
 10
0.0
 20
0.0
 30
0.0
  3
CLUMP8
  1

  0
ARC
  5
3C0
  8
ﾚｲﾔ_1
 62
     5
 10
882.11067708330006
 20
-237.4297883081
 30
0.0
 40
3.5
 50
270.0
 51
90.0
  0
LINE
  5
3C1
  8
ﾚｲﾔ_1
 62
     5
 10
867.11067708329995
 20
-240.9297883081
 30
0.0
 11
882.11067708330006
 21
-240.9297883081
 31
0.0
  0
LINE
  5
3C2
  8
ﾚｲﾔ_1
 62
     5
 10
882.11067708330006
 20
-233.9297883081
 30
0.0
 11
867.11067708329995
 21
-233.9297883081
 31
0.0
  0
ARC
  5
3C3
  8
ﾚｲﾔ_1
 62
     5
 10
867.11067708329995
 20
-237.4297883081
 30
0.0
 40
3.5
 50
90.0
 51
270.0
  0
ENDBLK
  5
3C4
  8
0
  0
BLOCK
  8
0
  2
CLUMP9
 70
     0
 10
0.0
 20
0.0
 30
0.0
  3
CLUMP9
  1

  0
ARC
  5
3C8
  8
ﾚｲﾔ_1
 62
     5
 10
1083.1106770833001
 20
-237.4297883081
 30
0.0
 40
3.5
 50
270.0
 51
90.0
  0
LINE
  5
3C9
  8
ﾚｲﾔ_1
 62
     5
 10
1068.1106770833001
 20
-240.9297883081
 30
0.0
 11
1083.1106770833001
 21
-240.9297883081
 31
0.0
  0
LINE
  5
3CA
  8
ﾚｲﾔ_1
 62
     5
 10
1083.1106770833001
 20
-233.9297883081
 30
0.0
 11
1068.1106770833001
 21
-233.9297883081
 31
0.0
  0
ARC
  5
3CB
  8
ﾚｲﾔ_1
 62
     5
 10
1068.1106770833001
 20
-237.4297883081
 30
0.0
 40
3.5
 50
90.0
 51
270.0
  0
ENDBLK
  5
3CC
  8
0
  0
BLOCK
  8
0
  2
CLUMP10
 70
     0
 10
0.0
 20
0.0
 30
0.0
  3
CLUMP10
  1

  0
ARC
  5
3D0
  8
ﾚｲﾔ_1
 62
     5
 10
949.11067708330006
 20
-237.4297883081
 30
0.0
 40
3.5
 50
270.0
 51
90.0
  0
LINE
  5
3D1
  8
ﾚｲﾔ_1
 62
     5
 10
934.11067708329995
 20
-240.9297883081
 30
0.0
 11
949.11067708330006
 21
-240.9297883081
 31
0.0
  0
LINE
  5
3D2
  8
ﾚｲﾔ_1
 62
     5
 10
949.11067708330006
 20
-233.9297883081
 30
0.0
 11
934.11067708329995
 21
-233.9297883081
 31
0.0
  0
ARC
  5
3D3
  8
ﾚｲﾔ_1
 62
     5
 10
934.11067708329995
 20
-237.4297883081
 30
0.0
 40
3.5
 50
90.0
 51
270.0
  0
ENDBLK
  5
3D4
  8
0
  0
BLOCK
  8
0
  2
CLUMP11
 70
     0
 10
0.0
 20
0.0
 30
0.0
  3
CLUMP11
  1

  0
ARC
  5
3D8
  8
ﾚｲﾔ_1
 62
     5
 10
1016.1106770832999
 20
-237.4297883081
 30
0.0
 40
3.5
 50
270.0
 51
90.0
  0
LINE
  5
3D9
  8
ﾚｲﾔ_1
 62
     5
 10
1001.1106770832999
 20
-240.9297883081
 30
0.0
 11
1016.1106770832999
 21
-240.9297883081
 31
0.0
  0
LINE
  5
3DA
  8
ﾚｲﾔ_1
 62
     5
 10
1016.1106770832999
 20
-233.9297883081
 30
0.0
 11
1001.1106770832999
 21
-233.9297883081
 31
0.0
  0
ARC
  5
3DB
  8
ﾚｲﾔ_1
 62
     5
 10
1001.1106770832999
 20
-237.4297883081
 30
0.0
 40
3.5
 50
90.0
 51
270.0
  0
ENDBLK
  5
3DC
  8
0
  0
BLOCK
  8
0
  2
CLUMP12
 70
     0
 10
0.0
 20
0.0
 30
0.0
  3
CLUMP12
  1

  0
ARC
  5
3E3
  8
ﾚｲﾔ_1
 62
     5
 10
748.11067708329995
 20
-237.4297883081
 30
0.0
 40
3.5
 50
270.0
 51
90.0
  0
LINE
  5
3E4
  8
ﾚｲﾔ_1
 62
     5
 10
733.11067708330006
 20
-240.9297883081
 30
0.0
 11
748.11067708329995
 21
-240.9297883081
 31
0.0
  0
LINE
  5
3E5
  8
ﾚｲﾔ_1
 62
     5
 10
748.11067708329995
 20
-233.9297883081
 30
0.0
 11
733.11067708330006
 21
-233.9297883081
 31
0.0
  0
ARC
  5
3E6
  8
ﾚｲﾔ_1
 62
     5
 10
733.11067708330006
 20
-237.4297883081
 30
0.0
 40
3.5
 50
90.0
 51
270.0
  0
ENDBLK
  5
3E7
  8
0
  0
BLOCK
  8
0
  2
CLUMP13
 70
     0
 10
0.0
 20
0.0
 30
0.0
  3
CLUMP13
  1

  0
ARC
  5
3EB
  8
ﾚｲﾔ_1
 62
     5
 10
815.11067708330006
 20
-237.4297883081
 30
0.0
 40
3.5
 50
270.0
 51
90.0
  0
LINE
  5
3EC
  8
ﾚｲﾔ_1
 62
     5
 10
800.11067708330006
 20
-240.9297883081
 30
0.0
 11
815.11067708330006
 21
-240.9297883081
 31
0.0
  0
LINE
  5
3ED
  8
ﾚｲﾔ_1
 62
     5
 10
815.11067708330006
 20
-233.9297883081
 30
0.0
 11
800.11067708330006
 21
-233.9297883081
 31
0.0
  0
ARC
  5
3EE
  8
ﾚｲﾔ_1
 62
     5
 10
800.11067708330006
 20
-237.4297883081
 30
0.0
 40
3.5
 50
90.0
 51
270.0
  0
ENDBLK
  5
3EF
  8
0
  0
BLOCK
  8
0
  2
CLUMP14
 70
     0
 10
0.0
 20
0.0
 30
0.0
  3
CLUMP14
  1

  0
ARC
  5
3F9
  8
ﾚｲﾔ_1
 62
     5
 10
1371.7676757813001
 20
4.0662631100000004
 30
0.0
 40
1.5
 50
180.0
 51
270.0
  0
LINE
  5
3FA
  8
ﾚｲﾔ_1
 62
     5
 10
1370.2676757813001
 20
80.066263109999994
 30
0.0
 11
1370.2676757813001
 21
4.0662631100000004
 31
0.0
  0
ARC
  5
3FB
  8
ﾚｲﾔ_1
 62
     5
 10
1371.7676757813001
 20
80.066263109999994
 30
0.0
 40
1.5
 50
90.0
 51
180.0
  0
LINE
  5
3FC
  8
ﾚｲﾔ_1
 62
     5
 10
1371.7676757813001
 20
80.066263109999994
 30
0.0
 11
1371.7676757813001
 21
4.0662631100000004
 31
0.0
  0
LINE
  5
3FD
  8
ﾚｲﾔ_1
 62
     5
 10
1371.7676757813001
 20
81.566263109999994
 30
0.0
 11
1384.2676757813001
 21
81.566263109999994
 31
0.0
  0
LINE
  5
3FE
  8
ﾚｲﾔ_1
 62
     5
 10
1371.7676757813001
 20
80.066263109999994
 30
0.0
 11
1384.2676757813001
 21
80.066263109999994
 31
0.0
  0
LINE
  5
3FF
  8
ﾚｲﾔ_1
 62
     5
 10
1371.7676757813001
 20
2.5662631099999991
 30
0.0
 11
1384.2676757813001
 21
2.5662631099999991
 31
0.0
  0
LINE
  5
400
  8
ﾚｲﾔ_1
 62
     5
 10
1371.7676757813001
 20
4.0662631100000004
 30
0.0
 11
1384.2676757813001
 21
4.0662631100000004
 31
0.0
  0
LINE
  5
401
  8
ﾚｲﾔ_1
 62
     5
 10
1384.2676757813001
 20
2.5662631099999991
 30
0.0
 11
1384.2676757813001
 21
81.566263109999994
 31
0.0
  0
ENDBLK
  5
402
  8
0
  0
BLOCK
  8
0
  2
CLUMP15
 70
     0
 10
0.0
 20
0.0
 30
0.0
  3
CLUMP15
  1

  0
LINE
  5
406
  8
ﾚｲﾔ_1
 62
     5
 10
1373.7676757813001
 20
83.666263110000003
 30
0.0
 11
1373.7676757813001
 21
82.866263110000006
 31
0.0
  0
LINE
  5
407
  8
ﾚｲﾔ_1
 62
     5
 10
1373.7676757813001
 20
83.666263110000003
 30
0.0
 11
1398.4676757812999
 21
83.666263110000003
 31
0.0
  0
LINE
  5
408
  8
ﾚｲﾔ_1
 62
     5
 10
1398.4676757812999
 20
90.266263109999997
 30
0.0
 11
1398.4676757812999
 21
76.366263110000006
 31
0.0
  0
LINE
  5
409
  8
ﾚｲﾔ_1
 62
     5
 10
1398.4676757812999
 20
76.366263110000006
 30
0.0
 11
1385.0676757813001
 21
76.366263110000006
 31
0.0
  0
LINE
  5
40A
  8
ﾚｲﾔ_1
 62
     5
 10
1384.2676757812001
 20
82.866263110000006
 30
0.0
 11
1398.4676757812999
 21
82.866263110000006
 31
0.0
  0
LINE
  5
40B
  8
ﾚｲﾔ_1
 62
     5
 10
1375.2676757813001
 20
90.266263109999997
 30
0.0
 11
1375.2676757813001
 21
83.666263110000003
 31
0.0
  0
ARC
  5
40C
  8
ﾚｲﾔ_1
 62
     5
 10
1370.0676757813001
 20
82.866263110000006
 30
0.0
 40
0.8
 50
180.0
 51
270.0
  0
LINE
  5
40D
  8
ﾚｲﾔ_1
 62
     5
 10
1369.2676757813001
 20
90.266263109999997
 30
0.0
 11
1369.2676757813001
 21
82.866263110000006
 31
0.0
  0
LINE
  5
40E
  8
ﾚｲﾔ_1
 62
     5
 10
1370.0676757813001
 20
82.066263109999994
 30
0.0
 11
1384.2676757813001
 21
82.066263109999994
 31
0.0
  0
ARC
  5
40F
  8
ﾚｲﾔ_1
 62
     5
 10
1384.2676757812001
 20
82.066263109999994
 30
0.0
 40
0.8
 50
0.0
 51
90.0
  0
LINE
  5
410
  8
ﾚｲﾔ_1
 62
     5
 10
1384.2676757812001
 20
82.866263110000006
 30
0.0
 11
1370.0676757813001
 21
82.866263110000006
 31
0.0
  0
LINE
  5
411
  8
ﾚｲﾔ_1
 62
     5
 10
1385.0676757813001
 20
76.366263110000006
 30
0.0
 11
1385.0676757813001
 21
82.066263109999994
 31
0.0
  0
ARC
  5
412
  8
ﾚｲﾔ_1
 62
     5
 10
1385.0676757813001
 20
76.366263110000006
 30
0.0
 40
0.8
 50
180.0
 51
270.0
  0
LINE
  5
413
  8
ﾚｲﾔ_1
 62
     5
 10
1384.2676757813001
 20
82.066263109999994
 30
0.0
 11
1384.2676757813001
 21
76.366263110000006
 31
0.0
  0
LINE
  5
414
  8
ﾚｲﾔ_1
 62
     5
 10
1385.0676757813001
 20
75.566263109999994
 30
0.0
 11
1398.4676757812999
 21
75.566263109999994
 31
0.0
  0
ARC
  5
415
  8
ﾚｲﾔ_1
 62
     5
 10
1398.4676757812999
 20
76.366263110000006
 30
0.0
 40
0.8
 50
270.0
 51
0.0
  0
LINE
  5
416
  8
ﾚｲﾔ_1
 62
     5
 10
1399.2676757813001
 20
76.366263110000006
 30
0.0
 11
1399.2676757813001
 21
90.266263109999997
 31
0.0
  0
ARC
  5
417
  8
ﾚｲﾔ_1
 62
     5
 10
1398.4676757812999
 20
90.266263109999997
 30
0.0
 40
0.8
 50
0.0
 51
90.0
  0
LINE
  5
418
  8
ﾚｲﾔ_1
 62
     5
 10
1398.4676757812999
 20
91.066263109999994
 30
0.0
 11
1393.2676757813001
 21
91.066263109999994
 31
0.0
  0
ARC
  5
419
  8
ﾚｲﾔ_1
 62
     5
 10
1370.0676757813001
 20
90.266263109999997
 30
0.0
 40
0.8
 50
90.0
 51
180.0
  0
LINE
  5
41A
  8
ﾚｲﾔ_1
 62
     5
 10
1375.2676757813001
 20
91.066263109999994
 30
0.0
 11
1370.0676757813001
 21
91.066263109999994
 31
0.0
  0
LINE
  5
41B
  8
ﾚｲﾔ_1
 62
     5
 10
1375.2676757813001
 20
90.266263109999997
 30
0.0
 11
1375.2676757813001
 21
91.066263109999994
 31
0.0
  0
LINE
  5
41C
  8
ﾚｲﾔ_1
 62
     5
 10
1370.0676757813001
 20
90.266263109999997
 30
0.0
 11
1375.2676757813001
 21
90.266263109999997
 31
0.0
  0
LINE
  5
41D
  8
ﾚｲﾔ_1
 62
     5
 10
1370.0676757813001
 20
82.866263110000006
 30
0.0
 11
1370.0676757813001
 21
90.266263109999997
 31
0.0
  0
LINE
  5
41E
  8
ﾚｲﾔ_1
 62
     5
 10
1393.2676757813001
 20
91.066263109999994
 30
0.0
 11
1393.2676757813001
 21
90.266263109999997
 31
0.0
  0
LINE
  5
41F
  8
ﾚｲﾔ_1
 62
     5
 10
1393.2676757813001
 20
90.266263109999997
 30
0.0
 11
1398.4676757812999
 21
90.266263109999997
 31
0.0
  0
ENDBLK
  5
420
  8
0
  0
BLOCK
  8
0
  2
CLUMP16
 70
     0
 10
0.0
 20
0.0
 30
0.0
  3
CLUMP16
  1

  0
LINE
  5
424
  8
ﾚｲﾔ_1
 62
     5
 10
1373.7676757813001
 20
0.46626311
 30
0.0
 11
1373.7676757813001
 21
1.266263109999999
 31
0.0
  0
LINE
  5
425
  8
ﾚｲﾔ_1
 62
     5
 10
1373.7676757813001
 20
0.46626311
 30
0.0
 11
1398.4676757812999
 21
0.46626311
 31
0.0
  0
LINE
  5
426
  8
ﾚｲﾔ_1
 62
     5
 10
1398.4676757812999
 20
-6.1337368899999989
 30
0.0
 11
1398.4676757812999
 21
7.7662631099999988
 31
0.0
  0
LINE
  5
427
  8
ﾚｲﾔ_1
 62
     5
 10
1398.4676757812999
 20
7.7662631099999988
 30
0.0
 11
1385.0676757813001
 21
7.7662631099999988
 31
0.0
  0
LINE
  5
428
  8
ﾚｲﾔ_1
 62
     5
 10
1384.2676757812001
 20
1.266263109999999
 30
0.0
 11
1398.4676757812999
 21
1.266263109999999
 31
0.0
  0
LINE
  5
429
  8
ﾚｲﾔ_1
 62
     5
 10
1375.2676757813001
 20
-6.1337368899999989
 30
0.0
 11
1375.2676757813001
 21
0.46626311
 31
0.0
  0
ARC
  5
42A
  8
ﾚｲﾔ_1
 62
     5
 10
1370.0676757813001
 20
1.266263109999999
 30
0.0
 40
0.8
 50
90.0
 51
180.0
  0
LINE
  5
42B
  8
ﾚｲﾔ_1
 62
     5
 10
1369.2676757813001
 20
-6.1337368899999989
 30
0.0
 11
1369.2676757813001
 21
1.266263109999999
 31
0.0
  0
LINE
  5
42C
  8
ﾚｲﾔ_1
 62
     5
 10
1370.0676757813001
 20
2.0662631099999991
 30
0.0
 11
1384.2676757813001
 21
2.0662631099999991
 31
0.0
  0
ARC
  5
42D
  8
ﾚｲﾔ_1
 62
     5
 10
1384.2676757812001
 20
2.0662631099999991
 30
0.0
 40
0.8
 50
270.0
 51
0.0
  0
LINE
  5
42E
  8
ﾚｲﾔ_1
 62
     5
 10
1384.2676757812001
 20
1.266263109999999
 30
0.0
 11
1370.0676757813001
 21
1.266263109999999
 31
0.0
  0
LINE
  5
42F
  8
ﾚｲﾔ_1
 62
     5
 10
1385.0676757813001
 20
7.7662631099999988
 30
0.0
 11
1385.0676757813001
 21
2.0662631099999991
 31
0.0
  0
ARC
  5
430
  8
ﾚｲﾔ_1
 62
     5
 10
1385.0676757813001
 20
7.7662631099999988
 30
0.0
 40
0.8
 50
90.0
 51
180.0
  0
LINE
  5
431
  8
ﾚｲﾔ_1
 62
     5
 10
1384.2676757813001
 20
2.0662631099999991
 30
0.0
 11
1384.2676757813001
 21
7.7662631099999988
 31
0.0
  0
LINE
  5
432
  8
ﾚｲﾔ_1
 62
     5
 10
1385.0676757813001
 20
8.5662631099999995
 30
0.0
 11
1398.4676757812999
 21
8.5662631099999995
 31
0.0
  0
ARC
  5
433
  8
ﾚｲﾔ_1
 62
     5
 10
1398.4676757812999
 20
7.7662631099999988
 30
0.0
 40
0.8
 50
0.0
 51
90.0
  0
LINE
  5
434
  8
ﾚｲﾔ_1
 62
     5
 10
1399.2676757813001
 20
7.7662631099999988
 30
0.0
 11
1399.2676757813001
 21
-6.1337368899999989
 31
0.0
  0
ARC
  5
435
  8
ﾚｲﾔ_1
 62
     5
 10
1398.4676757812999
 20
-6.1337368899999989
 30
0.0
 40
0.8
 50
270.0
 51
0.0
  0
LINE
  5
436
  8
ﾚｲﾔ_1
 62
     5
 10
1398.4676757812999
 20
-6.9337368899999987
 30
0.0
 11
1393.2676757813001
 21
-6.9337368899999987
 31
0.0
  0
ARC
  5
437
  8
ﾚｲﾔ_1
 62
     5
 10
1370.0676757813001
 20
-6.1337368899999989
 30
0.0
 40
0.8
 50
180.0
 51
270.0
  0
LINE
  5
438
  8
ﾚｲﾔ_1
 62
     5
 10
1375.2676757813001
 20
-6.9337368899999987
 30
0.0
 11
1370.0676757813001
 21
-6.9337368899999987
 31
0.0
  0
LINE
  5
439
  8
ﾚｲﾔ_1
 62
     5
 10
1375.2676757813001
 20
-6.1337368899999989
 30
0.0
 11
1375.2676757813001
 21
-6.9337368899999987
 31
0.0
  0
LINE
  5
43A
  8
ﾚｲﾔ_1
 62
     5
 10
1370.0676757813001
 20
-6.1337368899999989
 30
0.0
 11
1375.2676757813001
 21
-6.1337368899999989
 31
0.0
  0
LINE
  5
43B
  8
ﾚｲﾔ_1
 62
     5
 10
1370.0676757813001
 20
1.266263109999999
 30
0.0
 11
1370.0676757813001
 21
-6.1337368899999989
 31
0.0
  0
LINE
  5
43C
  8
ﾚｲﾔ_1
 62
     5
 10
1393.2676757813001
 20
-6.9337368899999987
 30
0.0
 11
1393.2676757813001
 21
-6.1337368899999989
 31
0.0
  0
LINE
  5
43D
  8
ﾚｲﾔ_1
 62
     5
 10
1393.2676757813001
 20
-6.1337368899999989
 30
0.0
 11
1398.4676757812999
 21
-6.1337368899999989
 31
0.0
  0
ENDBLK
  5
43E
  8
0
  0
BLOCK
  8
0
  2
CLUMP17
 70
     0
 10
0.0
 20
0.0
 30
0.0
  3
CLUMP17
  1

  0
LINE
  5
442
  8
ﾚｲﾔ_1
 62
     5
 10
1465.0072265624999
 20
1.2667213619999991
 30
0.0
 11
1465.0072265624999
 21
0.466721362
 31
0.0
  0
LINE
  5
443
  8
ﾚｲﾔ_1
 62
     5
 10
1459.1072265625
 20
-6.1332786379999993
 30
0.0
 11
1459.1072265625
 21
1.2667213619999991
 31
0.0
  0
LINE
  5
444
  8
ﾚｲﾔ_1
 62
     5
 10
1464.3072265625001
 20
-6.1332786379999993
 30
0.0
 11
1459.1072265625
 21
-6.1332786379999993
 31
0.0
  0
LINE
  5
445
  8
ﾚｲﾔ_1
 62
     5
 10
1464.3072265625001
 20
-6.1332786379999993
 30
0.0
 11
1464.3072265625001
 21
-6.9332786379999991
 31
0.0
  0
LINE
  5
446
  8
ﾚｲﾔ_1
 62
     5
 10
1464.3072265625001
 20
-6.9332786379999991
 30
0.0
 11
1459.1072265625
 21
-6.9332786379999991
 31
0.0
  0
ARC
  5
447
  8
ﾚｲﾔ_1
 62
     5
 10
1459.1072265625
 20
-6.1332786379999993
 30
0.0
 40
0.8
 50
180.0
 51
270.0
  0
LINE
  5
448
  8
ﾚｲﾔ_1
 62
     5
 10
1458.3072265625001
 20
-6.1332786379999993
 30
0.0
 11
1458.3072265625001
 21
1.2667213619999991
 31
0.0
  0
ARC
  5
449
  8
ﾚｲﾔ_1
 62
     5
 10
1459.1072265625
 20
1.2667213619999991
 30
0.0
 40
0.8
 50
90.0
 51
180.0
  0
LINE
  5
44A
  8
ﾚｲﾔ_1
 62
     5
 10
1507.3072265625001
 20
-6.9332786379999991
 30
0.0
 11
1507.3072265625001
 21
-6.1332786379999993
 31
0.0
  0
LINE
  5
44B
  8
ﾚｲﾔ_1
 62
     5
 10
1512.5072265624999
 20
-6.1332786379999993
 30
0.0
 11
1507.3072265625001
 21
-6.1332786379999993
 31
0.0
  0
LINE
  5
44C
  8
ﾚｲﾔ_1
 62
     5
 10
1512.5072265624999
 20
6.2667213620000002
 30
0.0
 11
1512.5072265624999
 21
-6.1332786379999993
 31
0.0
  0
LINE
  5
44D
  8
ﾚｲﾔ_1
 62
     5
 10
1484.1072265625
 20
6.2667213620000002
 30
0.0
 11
1512.5072265624999
 21
6.2667213620000002
 31
0.0
  0
LINE
  5
44E
  8
ﾚｲﾔ_1
 62
     5
 10
1459.1072265625
 20
2.066721362
 30
0.0
 11
1483.3072265625001
 21
2.066721362
 31
0.0
  0
LINE
  5
44F
  8
ﾚｲﾔ_1
 62
     5
 10
1459.1072265625
 20
1.2667213619999991
 30
0.0
 11
1483.3072265625001
 21
1.2667213619999991
 31
0.0
  0
LINE
  5
450
  8
ﾚｲﾔ_1
 62
     5
 10
1484.1072265625
 20
2.066721362
 30
0.0
 11
1484.1072265625
 21
6.2667213620000002
 31
0.0
  0
ARC
  5
451
  8
ﾚｲﾔ_1
 62
     5
 10
1483.3072265625001
 20
2.066721362
 30
0.0
 40
0.8
 50
270.0
 51
0.0
  0
LINE
  5
452
  8
ﾚｲﾔ_1
 62
     5
 10
1483.3072265625001
 20
2.066721362
 30
0.0
 11
1483.3072265625001
 21
6.2667213620000002
 31
0.0
  0
ARC
  5
453
  8
ﾚｲﾔ_1
 62
     5
 10
1484.1072265625
 20
6.2667213620000002
 30
0.0
 40
0.8
 50
90.0
 51
180.0
  0
LINE
  5
454
  8
ﾚｲﾔ_1
 62
     5
 10
1484.1072265625
 20
7.066721362
 30
0.0
 11
1512.5072265624999
 21
7.066721362
 31
0.0
  0
ARC
  5
455
  8
ﾚｲﾔ_1
 62
     5
 10
1512.5072265624999
 20
6.2667213620000002
 30
0.0
 40
0.8
 50
0.0
 51
90.0
  0
LINE
  5
456
  8
ﾚｲﾔ_1
 62
     5
 10
1512.5072265624999
 20
-6.9332786379999991
 30
0.0
 11
1507.3072265625001
 21
-6.9332786379999991
 31
0.0
  0
LINE
  5
457
  8
ﾚｲﾔ_1
 62
     5
 10
1513.3072265625001
 20
6.2667213620000002
 30
0.0
 11
1513.3072265625001
 21
-6.1332786379999993
 31
0.0
  0
ARC
  5
458
  8
ﾚｲﾔ_1
 62
     5
 10
1512.5072265624999
 20
-6.1332786379999993
 30
0.0
 40
0.8
 50
270.0
 51
0.0
  0
LINE
  5
459
  8
ﾚｲﾔ_1
 62
     5
 10
1465.0072265624999
 20
0.466721362
 30
0.0
 11
1512.5072265624999
 21
0.466721362
 31
0.0
  0
LINE
  5
45A
  8
ﾚｲﾔ_1
 62
     5
 10
1483.3072265625001
 20
1.2667213619999991
 30
0.0
 11
1512.5072265624999
 21
1.2667213619999991
 31
0.0
  0
ENDBLK
  5
45B
  8
0
  0
BLOCK
  8
0
  2
CLUMP18
 70
     0
 10
0.0
 20
0.0
 30
0.0
  3
CLUMP18
  1

  0
LINE
  5
461
  8
ﾚｲﾔ_1
 62
     5
 10
1461.8072265625001
 20
2.566721362
 30
0.0
 11
1483.3072265625001
 21
2.566721362
 31
0.0
  0
LINE
  5
462
  8
ﾚｲﾔ_1
 62
     5
 10
1483.3072265625001
 20
2.566721362
 30
0.0
 11
1483.3072265625001
 21
81.566721361999996
 31
0.0
  0
LINE
  5
463
  8
ﾚｲﾔ_1
 62
     5
 10
1461.8072265625001
 20
81.566721361999996
 30
0.0
 11
1483.3072265625001
 21
81.566721361999996
 31
0.0
  0
LINE
  5
464
  8
ﾚｲﾔ_1
 62
     5
 10
1461.8072265625001
 20
4.066721362
 30
0.0
 11
1483.3072265625001
 21
4.066721362
 31
0.0
  0
ARC
  5
465
  8
ﾚｲﾔ_1
 62
     5
 10
1461.8072265625001
 20
4.066721362
 30
0.0
 40
1.5
 50
180.0
 51
270.0
  0
LINE
  5
466
  8
ﾚｲﾔ_1
 62
     5
 10
1461.8072265625001
 20
80.066721361999996
 30
0.0
 11
1461.8072265625001
 21
4.066721362
 31
0.0
  0
LINE
  5
467
  8
ﾚｲﾔ_1
 62
     5
 10
1460.3072265625001
 20
80.066721361999996
 30
0.0
 11
1460.3072265625001
 21
4.066721362
 31
0.0
  0
LINE
  5
468
  8
ﾚｲﾔ_1
 62
     5
 10
1461.8072265625001
 20
80.066721361999996
 30
0.0
 11
1483.3072265625001
 21
80.066721361999996
 31
0.0
  0
ARC
  5
469
  8
ﾚｲﾔ_1
 62
     5
 10
1461.8072265625001
 20
80.066721361999996
 30
0.0
 40
1.5
 50
90.0
 51
180.0
  0
ENDBLK
  5
46A
  8
0
  0
BLOCK
  8
0
  2
CLUMP19
 70
     0
 10
0.0
 20
0.0
 30
0.0
  3
CLUMP19
  1

  0
LINE
  5
46E
  8
ﾚｲﾔ_1
 62
     5
 10
1465.0072265624999
 20
82.866721361999993
 30
0.0
 11
1465.0072265624999
 21
83.666721362000004
 31
0.0
  0
LINE
  5
46F
  8
ﾚｲﾔ_1
 62
     5
 10
1459.1072265625
 20
90.266721362000013
 30
0.0
 11
1459.1072265625
 21
82.866721361999993
 31
0.0
  0
LINE
  5
470
  8
ﾚｲﾔ_1
 62
     5
 10
1464.3072265625001
 20
90.266721362000013
 30
0.0
 11
1459.1072265625
 21
90.266721362000013
 31
0.0
  0
LINE
  5
471
  8
ﾚｲﾔ_1
 62
     5
 10
1464.3072265625001
 20
90.266721362000013
 30
0.0
 11
1464.3072265625001
 21
91.066721362000024
 31
0.0
  0
LINE
  5
472
  8
ﾚｲﾔ_1
 62
     5
 10
1464.3072265625001
 20
91.066721362000024
 30
0.0
 11
1459.1072265625
 21
91.066721362000024
 31
0.0
  0
ARC
  5
473
  8
ﾚｲﾔ_1
 62
     5
 10
1459.1072265625
 20
90.266721362000013
 30
0.0
 40
0.8
 50
90.0
 51
180.0
  0
LINE
  5
474
  8
ﾚｲﾔ_1
 62
     5
 10
1458.3072265625001
 20
90.266721362000013
 30
0.0
 11
1458.3072265625001
 21
82.866721361999993
 31
0.0
  0
ARC
  5
475
  8
ﾚｲﾔ_1
 62
     5
 10
1459.1072265625
 20
82.866721361999993
 30
0.0
 40
0.8
 50
180.0
 51
270.0
  0
LINE
  5
476
  8
ﾚｲﾔ_1
 62
     5
 10
1507.3072265625001
 20
91.066721362000024
 30
0.0
 11
1507.3072265625001
 21
90.266721362000013
 31
0.0
  0
LINE
  5
477
  8
ﾚｲﾔ_1
 62
     5
 10
1512.5072265624999
 20
90.266721362000013
 30
0.0
 11
1507.3072265625001
 21
90.266721362000013
 31
0.0
  0
LINE
  5
478
  8
ﾚｲﾔ_1
 62
     5
 10
1512.5072265624999
 20
77.866721361999993
 30
0.0
 11
1512.5072265624999
 21
90.266721362000013
 31
0.0
  0
LINE
  5
479
  8
ﾚｲﾔ_1
 62
     5
 10
1484.1072265625
 20
77.866721361999993
 30
0.0
 11
1512.5072265624999
 21
77.866721361999993
 31
0.0
  0
LINE
  5
47A
  8
ﾚｲﾔ_1
 62
     5
 10
1459.1072265625
 20
82.066721361999996
 30
0.0
 11
1483.3072265625001
 21
82.066721361999996
 31
0.0
  0
LINE
  5
47B
  8
ﾚｲﾔ_1
 62
     5
 10
1459.1072265625
 20
82.866721361999993
 30
0.0
 11
1483.3072265625001
 21
82.866721361999993
 31
0.0
  0
LINE
  5
47C
  8
ﾚｲﾔ_1
 62
     5
 10
1484.1072265625
 20
82.066721361999996
 30
0.0
 11
1484.1072265625
 21
77.866721361999993
 31
0.0
  0
ARC
  5
47D
  8
ﾚｲﾔ_1
 62
     5
 10
1483.3072265625001
 20
82.066721361999996
 30
0.0
 40
0.8
 50
0.0
 51
90.0
  0
LINE
  5
47E
  8
ﾚｲﾔ_1
 62
     5
 10
1483.3072265625001
 20
82.066721361999996
 30
0.0
 11
1483.3072265625001
 21
77.866721361999993
 31
0.0
  0
ARC
  5
47F
  8
ﾚｲﾔ_1
 62
     5
 10
1484.1072265625
 20
77.866721361999993
 30
0.0
 40
0.8
 50
180.0
 51
270.0
  0
LINE
  5
480
  8
ﾚｲﾔ_1
 62
     5
 10
1484.1072265625
 20
77.066721361999996
 30
0.0
 11
1512.5072265624999
 21
77.066721361999996
 31
0.0
  0
ARC
  5
481
  8
ﾚｲﾔ_1
 62
     5
 10
1512.5072265624999
 20
77.866721361999993
 30
0.0
 40
0.8
 50
270.0
 51
0.0
  0
LINE
  5
482
  8
ﾚｲﾔ_1
 62
     5
 10
1512.5072265624999
 20
91.066721362000024
 30
0.0
 11
1507.3072265625001
 21
91.066721362000024
 31
0.0
  0
LINE
  5
483
  8
ﾚｲﾔ_1
 62
     5
 10
1513.3072265625001
 20
77.866721361999993
 30
0.0
 11
1513.3072265625001
 21
90.266721362000013
 31
0.0
  0
ARC
  5
484
  8
ﾚｲﾔ_1
 62
     5
 10
1512.5072265624999
 20
90.266721362000013
 30
0.0
 40
0.8
 50
0.0
 51
90.0
  0
LINE
  5
485
  8
ﾚｲﾔ_1
 62
     5
 10
1465.0072265624999
 20
83.666721362000004
 30
0.0
 11
1512.5072265624999
 21
83.666721362000004
 31
0.0
  0
LINE
  5
486
  8
ﾚｲﾔ_1
 62
     5
 10
1483.3072265625001
 20
82.866721361999993
 30
0.0
 11
1512.5072265624999
 21
82.866721361999993
 31
0.0
  0
ENDBLK
  5
487
  8
0
  0
BLOCK
  8
0
  2
CLUMP20
 70
     0
 10
0.0
 20
0.0
 30
0.0
  3
CLUMP20
  1

  0
ARC
  5
48F
  8
ﾚｲﾔ_1
 62
     5
 10
882.11067708330006
 20
-287.4297883081
 30
0.0
 40
3.5
 50
270.0
 51
90.0
  0
LINE
  5
490
  8
ﾚｲﾔ_1
 62
     5
 10
867.11067708329995
 20
-283.9297883081
 30
0.0
 11
882.11067708330006
 21
-283.9297883081
 31
0.0
  0
LINE
  5
491
  8
ﾚｲﾔ_1
 62
     5
 10
882.11067708330006
 20
-290.9297883081
 30
0.0
 11
867.11067708329995
 21
-290.9297883081
 31
0.0
  0
ARC
  5
492
  8
ﾚｲﾔ_1
 62
     5
 10
867.11067708329995
 20
-287.4297883081
 30
0.0
 40
3.5
 50
90.0
 51
270.0
  0
ENDBLK
  5
493
  8
0
  0
BLOCK
  8
0
  2
CLUMP21
 70
     0
 10
0.0
 20
0.0
 30
0.0
  3
CLUMP21
  1

  0
ARC
  5
498
  8
ﾚｲﾔ_1
 62
     5
 10
949.11067708330006
 20
-287.4297883081
 30
0.0
 40
3.5
 50
270.0
 51
90.0
  0
LINE
  5
499
  8
ﾚｲﾔ_1
 62
     5
 10
934.11067708329995
 20
-283.9297883081
 30
0.0
 11
949.11067708330006
 21
-283.9297883081
 31
0.0
  0
LINE
  5
49A
  8
ﾚｲﾔ_1
 62
     5
 10
949.11067708330006
 20
-290.9297883081
 30
0.0
 11
934.11067708329995
 21
-290.9297883081
 31
0.0
  0
ARC
  5
49B
  8
ﾚｲﾔ_1
 62
     5
 10
934.11067708329995
 20
-287.4297883081
 30
0.0
 40
3.5
 50
90.0
 51
270.0
  0
ENDBLK
  5
49C
  8
0
  0
BLOCK
  8
0
  2
CLUMP22
 70
     0
 10
0.0
 20
0.0
 30
0.0
  3
CLUMP22
  1

  0
ARC
  5
4B4
  8
ﾚｲﾔ_1
 62
     5
 10
1243.2906770832999
 20
67.066263109999994
 30
0.0
 40
3.5
 50
90.0
 51
270.0
  0
LINE
  5
4B5
  8
ﾚｲﾔ_1
 62
     5
 10
1258.2906770832999
 20
63.566263110000001
 30
0.0
 11
1243.2906770832999
 21
63.566263110000001
 31
0.0
  0
LINE
  5
4B6
  8
ﾚｲﾔ_1
 62
     5
 10
1243.2906770832999
 20
70.566263109999994
 30
0.0
 11
1258.2906770832999
 21
70.566263109999994
 31
0.0
  0
ARC
  5
4B7
  8
ﾚｲﾔ_1
 62
     5
 10
1258.2906770832999
 20
67.066263109999994
 30
0.0
 40
3.5
 50
270.0
 51
90.0
  0
ENDBLK
  5
4B8
  8
0
  0
BLOCK
  8
0
  2
CLUMP23
 70
     0
 10
0.0
 20
0.0
 30
0.0
  3
CLUMP23
  1

  0
ARC
  5
4BC
  8
ﾚｲﾔ_1
 62
     5
 10
1243.2906770832999
 20
17.066263110000001
 30
0.0
 40
3.5
 50
90.0
 51
270.0
  0
LINE
  5
4BD
  8
ﾚｲﾔ_1
 62
     5
 10
1258.2906770832999
 20
20.566263110000001
 30
0.0
 11
1243.2906770832999
 21
20.566263110000001
 31
0.0
  0
LINE
  5
4BE
  8
ﾚｲﾔ_1
 62
     5
 10
1243.2906770832999
 20
13.56626311
 30
0.0
 11
1258.2906770832999
 21
13.56626311
 31
0.0
  0
ARC
  5
4BF
  8
ﾚｲﾔ_1
 62
     5
 10
1258.2906770832999
 20
17.066263110000001
 30
0.0
 40
3.5
 50
270.0
 51
90.0
  0
ENDBLK
  5
4C0
  8
0
  0
BLOCK
  8
0
  2
CLUMP24
 70
     0
 10
0.0
 20
0.0
 30
0.0
  3
CLUMP24
  1

  0
ARC
  5
4C8
  8
ﾚｲﾔ_1
 62
     5
 10
1122.2106770833
 20
67.066263109999994
 30
0.0
 40
3.5
 50
90.0
 51
270.0
  0
LINE
  5
4C9
  8
ﾚｲﾔ_1
 62
     5
 10
1137.2106770833
 20
63.566263110000001
 30
0.0
 11
1122.2106770833
 21
63.566263110000001
 31
0.0
  0
LINE
  5
4CA
  8
ﾚｲﾔ_1
 62
     5
 10
1122.2106770833
 20
70.566263109999994
 30
0.0
 11
1137.2106770833
 21
70.566263109999994
 31
0.0
  0
ARC
  5
4CB
  8
ﾚｲﾔ_1
 62
     5
 10
1137.2106770833
 20
67.066263109999994
 30
0.0
 40
3.5
 50
270.0
 51
90.0
  0
ENDBLK
  5
4CC
  8
0
  0
BLOCK
  8
0
  2
CLUMP25
 70
     0
 10
0.0
 20
0.0
 30
0.0
  3
CLUMP25
  1

  0
ARC
  5
4EA
  8
ﾚｲﾔ_1
 62
     5
 10
1122.2106770833
 20
17.066263110000001
 30
0.0
 40
3.5
 50
90.0
 51
270.0
  0
LINE
  5
4EB
  8
ﾚｲﾔ_1
 62
     5
 10
1137.2106770833
 20
20.566263110000001
 30
0.0
 11
1122.2106770833
 21
20.566263110000001
 31
0.0
  0
LINE
  5
4EC
  8
ﾚｲﾔ_1
 62
     5
 10
1122.2106770833
 20
13.56626311
 30
0.0
 11
1137.2106770833
 21
13.56626311
 31
0.0
  0
ARC
  5
4ED
  8
ﾚｲﾔ_1
 62
     5
 10
1137.2106770833
 20
17.066263110000001
 30
0.0
 40
3.5
 50
270.0
 51
90.0
  0
ENDBLK
  5
4EE
  8
0
  0
BLOCK
  8
0
  2
CLUMP26
 70
     0
 10
0.0
 20
0.0
 30
0.0
  3
CLUMP26
  1

  0
ARC
  5
512
  8
ﾚｲﾔ_1
 62
     5
 10
949.01067708330004
 20
67.066263109999994
 30
0.0
 40
3.5
 50
270.0
 51
90.0
  0
LINE
  5
513
  8
ﾚｲﾔ_1
 62
     5
 10
934.01067708330015
 20
63.566263110000001
 30
0.0
 11
949.01067708330004
 21
63.566263110000001
 31
0.0
  0
LINE
  5
514
  8
ﾚｲﾔ_1
 62
     5
 10
949.01067708330004
 20
70.566263109999994
 30
0.0
 11
934.01067708330015
 21
70.566263109999994
 31
0.0
  0
ARC
  5
515
  8
ﾚｲﾔ_1
 62
     5
 10
934.01067708330015
 20
67.066263109999994
 30
0.0
 40
3.5
 50
90.0
 51
270.0
  0
ENDBLK
  5
516
  8
0
  0
BLOCK
  8
0
  2
CLUMP27
 70
     0
 10
0.0
 20
0.0
 30
0.0
  3
CLUMP27
  1

  0
ARC
  5
51A
  8
ﾚｲﾔ_1
 62
     5
 10
949.01067708330004
 20
17.066263110000001
 30
0.0
 40
3.5
 50
270.0
 51
90.0
  0
LINE
  5
51B
  8
ﾚｲﾔ_1
 62
     5
 10
934.01067708330015
 20
20.566263110000001
 30
0.0
 11
949.01067708330004
 21
20.566263110000001
 31
0.0
  0
LINE
  5
51C
  8
ﾚｲﾔ_1
 62
     5
 10
949.01067708330004
 20
13.56626311
 30
0.0
 11
934.01067708330015
 21
13.56626311
 31
0.0
  0
ARC
  5
51D
  8
ﾚｲﾔ_1
 62
     5
 10
934.01067708330015
 20
17.066263110000001
 30
0.0
 40
3.5
 50
90.0
 51
270.0
  0
ENDBLK
  5
51E
  8
0
  0
BLOCK
  8
0
  2
CLUMP28
 70
     0
 10
0.0
 20
0.0
 30
0.0
  3
CLUMP28
  1

  0
ARC
  5
527
  8
ﾚｲﾔ_1
 62
     5
 10
1083.0106770832999
 20
67.066263109999994
 30
0.0
 40
3.5
 50
270.0
 51
90.0
  0
LINE
  5
528
  8
ﾚｲﾔ_1
 62
     5
 10
1068.0106770832999
 20
63.566263110000001
 30
0.0
 11
1083.0106770832999
 21
63.566263110000001
 31
0.0
  0
LINE
  5
529
  8
ﾚｲﾔ_1
 62
     5
 10
1083.0106770832999
 20
70.566263109999994
 30
0.0
 11
1068.0106770832999
 21
70.566263109999994
 31
0.0
  0
ARC
  5
52A
  8
ﾚｲﾔ_1
 62
     5
 10
1068.0106770832999
 20
67.066263109999994
 30
0.0
 40
3.5
 50
90.0
 51
270.0
  0
ENDBLK
  5
52B
  8
0
  0
BLOCK
  8
0
  2
CLUMP29
 70
     0
 10
0.0
 20
0.0
 30
0.0
  3
CLUMP29
  1

  0
ARC
  5
52F
  8
ﾚｲﾔ_1
 62
     5
 10
1083.0106770832999
 20
17.066263110000001
 30
0.0
 40
3.5
 50
270.0
 51
90.0
  0
LINE
  5
530
  8
ﾚｲﾔ_1
 62
     5
 10
1068.0106770832999
 20
20.566263110000001
 30
0.0
 11
1083.0106770832999
 21
20.566263110000001
 31
0.0
  0
LINE
  5
531
  8
ﾚｲﾔ_1
 62
     5
 10
1083.0106770832999
 20
13.56626311
 30
0.0
 11
1068.0106770832999
 21
13.56626311
 31
0.0
  0
ARC
  5
532
  8
ﾚｲﾔ_1
 62
     5
 10
1068.0106770832999
 20
17.066263110000001
 30
0.0
 40
3.5
 50
90.0
 51
270.0
  0
ENDBLK
  5
533
  8
0
  0
BLOCK
  8
0
  2
CLUMP30
 70
     0
 10
0.0
 20
0.0
 30
0.0
  3
CLUMP30
  1

  0
ARC
  5
543
  8
ﾚｲﾔ_1
 62
     5
 10
815.01067708330004
 20
67.066263109999994
 30
0.0
 40
3.5
 50
270.0
 51
90.0
  0
LINE
  5
544
  8
ﾚｲﾔ_1
 62
     5
 10
800.01067708329992
 20
63.566263110000001
 30
0.0
 11
815.01067708330004
 21
63.566263110000001
 31
0.0
  0
LINE
  5
545
  8
ﾚｲﾔ_1
 62
     5
 10
815.01067708330004
 20
70.566263109999994
 30
0.0
 11
800.01067708329992
 21
70.566263109999994
 31
0.0
  0
ARC
  5
546
  8
ﾚｲﾔ_1
 62
     5
 10
800.01067708329992
 20
67.066263109999994
 30
0.0
 40
3.5
 50
90.0
 51
270.0
  0
ENDBLK
  5
547
  8
0
  0
BLOCK
  8
0
  2
CLUMP31
 70
     0
 10
0.0
 20
0.0
 30
0.0
  3
CLUMP31
  1

  0
ARC
  5
54B
  8
ﾚｲﾔ_1
 62
     5
 10
815.01067708330004
 20
17.066263110000001
 30
0.0
 40
3.5
 50
270.0
 51
90.0
  0
LINE
  5
54C
  8
ﾚｲﾔ_1
 62
     5
 10
800.01067708329992
 20
20.566263110000001
 30
0.0
 11
815.01067708330004
 21
20.566263110000001
 31
0.0
  0
LINE
  5
54D
  8
ﾚｲﾔ_1
 62
     5
 10
815.01067708330004
 20
13.56626311
 30
0.0
 11
800.01067708329992
 21
13.56626311
 31
0.0
  0
ARC
  5
54E
  8
ﾚｲﾔ_1
 62
     5
 10
800.01067708329992
 20
17.066263110000001
 30
0.0
 40
3.5
 50
90.0
 51
270.0
  0
ENDBLK
  5
54F
  8
0
  0
BLOCK
  8
0
  2
CLUMP32
 70
     0
 10
0.0
 20
0.0
 30
0.0
  3
CLUMP32
  1

  0
ARC
  5
554
  8
ﾚｲﾔ_1
 62
     5
 10
748.01067708330004
 20
67.066263109999994
 30
0.0
 40
3.5
 50
270.0
 51
90.0
  0
LINE
  5
555
  8
ﾚｲﾔ_1
 62
     5
 10
733.01067708330004
 20
63.566263110000001
 30
0.0
 11
748.01067708330004
 21
63.566263110000001
 31
0.0
  0
LINE
  5
556
  8
ﾚｲﾔ_1
 62
     5
 10
748.01067708330004
 20
70.566263109999994
 30
0.0
 11
733.01067708330004
 21
70.566263109999994
 31
0.0
  0
ARC
  5
557
  8
ﾚｲﾔ_1
 62
     5
 10
733.01067708330004
 20
67.066263109999994
 30
0.0
 40
3.5
 50
90.0
 51
270.0
  0
ENDBLK
  5
558
  8
0
  0
BLOCK
  8
0
  2
CLUMP33
 70
     0
 10
0.0
 20
0.0
 30
0.0
  3
CLUMP33
  1

  0
ARC
  5
55C
  8
ﾚｲﾔ_1
 62
     5
 10
748.01067708330004
 20
17.066263110000001
 30
0.0
 40
3.5
 50
270.0
 51
90.0
  0
LINE
  5
55D
  8
ﾚｲﾔ_1
 62
     5
 10
733.01067708330004
 20
20.566263110000001
 30
0.0
 11
748.01067708330004
 21
20.566263110000001
 31
0.0
  0
LINE
  5
55E
  8
ﾚｲﾔ_1
 62
     5
 10
748.01067708330004
 20
13.56626311
 30
0.0
 11
733.01067708330004
 21
13.56626311
 31
0.0
  0
ARC
  5
55F
  8
ﾚｲﾔ_1
 62
     5
 10
733.01067708330004
 20
17.066263110000001
 30
0.0
 40
3.5
 50
90.0
 51
270.0
  0
ENDBLK
  5
560
  8
0
  0
BLOCK
  8
0
  2
CLUMP34
 70
     0
 10
0.0
 20
0.0
 30
0.0
  3
CLUMP34
  1

  0
ARC
  5
572
  8
ﾚｲﾔ_1
 62
     5
 10
1016.0106770833
 20
67.066263109999994
 30
0.0
 40
3.5
 50
270.0
 51
90.0
  0
LINE
  5
573
  8
ﾚｲﾔ_1
 62
     5
 10
1001.0106770833
 20
63.566263110000001
 30
0.0
 11
1016.0106770833
 21
63.566263110000001
 31
0.0
  0
LINE
  5
574
  8
ﾚｲﾔ_1
 62
     5
 10
1016.0106770833
 20
70.566263109999994
 30
0.0
 11
1001.0106770833
 21
70.566263109999994
 31
0.0
  0
ARC
  5
575
  8
ﾚｲﾔ_1
 62
     5
 10
1001.0106770833
 20
67.066263109999994
 30
0.0
 40
3.5
 50
90.0
 51
270.0
  0
ENDBLK
  5
576
  8
0
  0
BLOCK
  8
0
  2
CLUMP35
 70
     0
 10
0.0
 20
0.0
 30
0.0
  3
CLUMP35
  1

  0
ARC
  5
57A
  8
ﾚｲﾔ_1
 62
     5
 10
1016.0106770833
 20
17.066263110000001
 30
0.0
 40
3.5
 50
270.0
 51
90.0
  0
LINE
  5
57B
  8
ﾚｲﾔ_1
 62
     5
 10
1001.0106770833
 20
20.566263110000001
 30
0.0
 11
1016.0106770833
 21
20.566263110000001
 31
0.0
  0
LINE
  5
57C
  8
ﾚｲﾔ_1
 62
     5
 10
1016.0106770833
 20
13.56626311
 30
0.0
 11
1001.0106770833
 21
13.56626311
 31
0.0
  0
ARC
  5
57D
  8
ﾚｲﾔ_1
 62
     5
 10
1001.0106770833
 20
17.066263110000001
 30
0.0
 40
3.5
 50
90.0
 51
270.0
  0
ENDBLK
  5
57E
  8
0
  0
BLOCK
  8
0
  2
CLUMP36
 70
     0
 10
0.0
 20
0.0
 30
0.0
  3
CLUMP36
  1

  0
ARC
  5
58C
  8
ﾚｲﾔ_1
 62
     5
 10
882.01067708330004
 20
17.066263110000001
 30
0.0
 40
3.5
 50
270.0
 51
90.0
  0
LINE
  5
58D
  8
ﾚｲﾔ_1
 62
     5
 10
867.01067708329992
 20
20.566263110000001
 30
0.0
 11
882.01067708330004
 21
20.566263110000001
 31
0.0
  0
LINE
  5
58E
  8
ﾚｲﾔ_1
 62
     5
 10
882.01067708330004
 20
13.56626311
 30
0.0
 11
867.01067708329992
 21
13.56626311
 31
0.0
  0
ARC
  5
58F
  8
ﾚｲﾔ_1
 62
     5
 10
867.01067708329992
 20
17.066263110000001
 30
0.0
 40
3.5
 50
90.0
 51
270.0
  0
ENDBLK
  5
590
  8
0
  0
BLOCK
  8
0
  2
CLUMP37
 70
     0
 10
0.0
 20
0.0
 30
0.0
  3
CLUMP37
  1

  0
ARC
  5
594
  8
ﾚｲﾔ_1
 62
     5
 10
882.01067708330004
 20
67.066263109999994
 30
0.0
 40
3.5
 50
270.0
 51
90.0
  0
LINE
  5
595
  8
ﾚｲﾔ_1
 62
     5
 10
867.01067708329992
 20
63.566263110000001
 30
0.0
 11
882.01067708330004
 21
63.566263110000001
 31
0.0
  0
LINE
  5
596
  8
ﾚｲﾔ_1
 62
     5
 10
882.01067708330004
 20
70.566263109999994
 30
0.0
 11
867.01067708329992
 21
70.566263109999994
 31
0.0
  0
ARC
  5
597
  8
ﾚｲﾔ_1
 62
     5
 10
867.01067708329992
 20
67.066263109999994
 30
0.0
 40
3.5
 50
90.0
 51
270.0
  0
ENDBLK
  5
598
  8
0
  0
BLOCK
  8
0
  2
*U82
 70
     1
 10
0.0
 20
0.0
 30
0.0
  3
*U82
  1

  0
TEXT
  5
5DA
  8
図枠
  6
CONTINUOUS
 10
1321.941907309114
 20
-390.7543099320863
 30
0.0
 40
7.496527552599999
  1
本   体
  0
ENDBLK
  5
5DC
  8
0
  0
BLOCK
  8
0
  2
*U83
 70
     1
 10
0.0
 20
0.0
 30
0.0
  3
*U83
  1

  0
TEXT
  5
5DE
  8
図枠
  6
CONTINUOUS
 10
1518.166783667637
 20
-491.70343056759998
 30
0.0
 40
9.7454860209999996
  1
SHF00030
  0
ENDBLK
  5
5E0
  8
0
  0
BLOCK
  8
0
  2
*U84
 70
     1
 10
0.0
 20
0.0
 30
0.0
  3
*U84
  1

  0
TEXT
  5
5E2
  8
図枠
  6
CONTINUOUS
 10
1512.9972238240109
 20
-464.69812528947818
 30
0.0
 40
9.7454860209999996
  1
FM10-80(D)
  0
ENDBLK
  5
5E4
  8
0
  0
BLOCK
  8
0
  2
*U85
 70
     1
 10
0.0
 20
0.0
 30
0.0
  3
*U85
  1

  0
TEXT
  5
5E6
  8
図枠
  6
CONTINUOUS
 10
1469.3156798821681
 20
-437.19812528947818
 30
0.0
 40
9.7454860209999996
  1
ハイとーる(浅型 ・深型 )
  0
ENDBLK
  5
5E8
  8
0
  0
BLOCK
  8
0
  2
*U86
 70
     1
 10
0.0
 20
0.0
 30
0.0
  3
*U86
  1

  0
TEXT
  5
5EA
  8
図枠
  6
CONTINUOUS
 10
1524.8477867485419
 20
-365.33572209919998
 30
0.0
 40
7.496527552599999
  1
2
  0
ENDBLK
  5
5EC
  8
0
  0
BLOCK
  8
0
  2
*U87
 70
     1
 10
0.0
 20
0.0
 30
0.0
  3
*U87
  1

  0
TEXT
  5
5EE
  8
図枠
  6
CONTINUOUS
 10
1335.5437208266601
 20
-442.70632026558633
 30
0.0
 40
7.496527552599999
  1
略 尺
  0
ENDBLK
  5
5F0
  8
0
  0
BLOCK
  8
0
  2
*U88
 70
     1
 10
0.0
 20
0.0
 30
0.0
  3
*U88
  1

  0
TEXT
  5
5F2
  8
図枠
  6
CONTINUOUS
 10
1334.34732853829
 20
-377.83572209919998
 30
0.0
 40
7.496527552599999
  1
耳
  0
ENDBLK
  5
5F4
  8
0
  0
BLOCK
  8
0
  2
*U89
 70
     1
 10
0.0
 20
0.0
 30
0.0
  3
*U89
  1

  0
TEXT
  5
5F6
  8
図枠
  6
CONTINUOUS
 10
1431.8006657214601
 20
-377.83572209919998
 30
0.0
 40
7.496527552599999
  1
SUS304 0.8t
  0
ENDBLK
  5
5F8
  8
0
  0
BLOCK
  8
0
  2
*U90
 70
     1
 10
0.0
 20
0.0
 30
0.0
  3
*U90
  1

  0
TEXT
  5
5FA
  8
図枠
  6
CONTINUOUS
 10
1524.8477867485419
 20
-377.83572209919998
 30
0.0
 40
7.496527552599999
  1
2
  0
ENDBLK
  5
5FC
  8
0
  0
BLOCK
  8
0
  2
*U91
 70
     1
 10
0.0
 20
0.0
 30
0.0
  3
*U91
  1

  0
TEXT
  5
5FE
  8
図枠
  6
CONTINUOUS
 10
1320.400743015306
 20
-365.71625649273301
 30
0.0
 40
7.496527552599999
  1
蓋(目皿)
  0
ENDBLK
  5
600
  8
0
  0
BLOCK
  8
0
  2
*U92
 70
     1
 10
0.0
 20
0.0
 30
0.0
  3
*U92
  1

  0
TEXT
  5
602
  8
図枠
  6
CONTINUOUS
 10
1431.8006657214601
 20
-365.33572209919998
 30
0.0
 40
7.496527552599999
  1
SUS304 1.5t
  0
ENDBLK
  5
604
  8
0
  0
BLOCK
  8
0
  2
*U93
 70
     1
 10
0.0
 20
0.0
 30
0.0
  3
*U93
  1

  0
TEXT
  5
606
  8
図枠
  6
CONTINUOUS
 10
1473.322580911278
 20
189.62394959537511
 30
0.0
 40
6.7468748986999989
  1
改　訂　内　容
  0
ENDBLK
  5
608
  8
0
  0
BLOCK
  8
0
  2
*U94
 70
     1
 10
0.0
 20
0.0
 30
0.0
  3
*U94
  1

  0
TEXT
  5
60A
  8
図枠
  6
CONTINUOUS
 10
1408.1349934051509
 20
189.6924457872401
 30
0.0
 40
6.7468748986999989
  1
改訂日
  0
ENDBLK
  5
60C
  8
0
  0
BLOCK
  8
0
  2
*U95
 70
     1
 10
0.0
 20
0.0
 30
0.0
  3
*U95
  1

  0
TEXT
  5
60E
  8
図枠
  6
CONTINUOUS
 10
1382.552997780442
 20
189.7609419791051
 30
0.0
 40
6.7468748986999989
  1
副番
  0
ENDBLK
  5
610
  8
0
  0
BLOCK
  8
0
  2
*U96
 70
     1
 10
0.0
 20
0.0
 30
0.0
  3
*U96
  1

  0
TEXT
  5
612
  8
図枠
  6
CONTINUOUS
 10
1267.0947457697
 20
-493.55931912110913
 30
0.0
 40
13.4937497973
  1
株式会社
  0
ENDBLK
  5
614
  8
0
  0
BLOCK
  8
0
  2
*U97
 70
     1
 10
0.0
 20
0.0
 30
0.0
  3
*U97
  1

  0
TEXT
  5
616
  8
図枠
  6
CONTINUOUS
 10
1590.8918541246451
 20
189.58970149944261
 30
0.0
 40
6.7468748986999989
  1
検認者
  0
ENDBLK
  5
618
  8
0
  0
BLOCK
  8
0
  2
*U98
 70
     1
 10
0.0
 20
0.0
 30
0.0
  3
*U98
  1

  0
TEXT
  5
61A
  8
図枠
  6
CONTINUOUS
 10
1444.40788114472
 20
-482.72404273531981
 30
0.0
 40
7.496527552599999
  1
図 番
  0
ENDBLK
  5
61C
  8
0
  0
BLOCK
  8
0
  2
*U99
 70
     1
 10
0.0
 20
0.0
 30
0.0
  3
*U99
  1

  0
TEXT
  5
61E
  8
図枠
  6
CONTINUOUS
 10
1441.801220549019
 20
-427.87625649273298
 30
0.0
 40
7.496527552599999
  1
製品名
  0
ENDBLK
  5
620
  8
0
  0
BLOCK
  8
0
  2
*U100
 70
     1
 10
0.0
 20
0.0
 30
0.0
  3
*U100
  1

  0
TEXT
  5
622
  8
図枠
  6
CONTINUOUS
 10
1442.0105144654619
 20
-455.3001496140264
 30
0.0
 40
7.496527552599999
  1
図面名
  0
ENDBLK
  5
624
  8
0
  0
BLOCK
  8
0
  2
*U101
 70
     1
 10
0.0
 20
0.0
 30
0.0
  3
*U101
  1

  0
TEXT
  5
626
  8
図枠
  6
CONTINUOUS
 10
1266.4985292578931
 20
-428.67202783091312
 30
0.0
 40
7.496527552599999
  1
日　　付
  0
ENDBLK
  5
628
  8
0
  0
BLOCK
  8
0
  2
*U102
 70
     1
 10
0.0
 20
0.0
 30
0.0
  3
*U102
  1

  0
TEXT
  5
62A
  8
図枠
  6
CONTINUOUS
 10
1328.1994070314729
 20
-428.90034846703293
 30
0.0
 40
7.496527552599999
  1
尺　　度
  0
ENDBLK
  5
62C
  8
0
  0
BLOCK
  8
0
  2
*U103
 70
     1
 10
0.0
 20
0.0
 30
0.0
  3
*U103
  1

  0
TEXT
  5
62E
  8
図枠
  6
CONTINUOUS
 10
1565.994598412442
 20
189.62394959537511
 30
0.0
 40
6.7468748986999989
  1
改訂者
  0
ENDBLK
  5
630
  8
0
  0
BLOCK
  8
0
  2
*U104
 70
     1
 10
0.0
 20
0.0
 30
0.0
  3
*U104
  1

  0
TEXT
  5
632
  8
図枠
  6
CONTINUOUS
 10
1255.6123279830081
 20
-403.06404273531979
 30
0.0
 40
7.496527552599999
  1
品番
  0
ENDBLK
  5
634
  8
0
  0
BLOCK
  8
0
  2
*U105
 70
     1
 10
0.0
 20
0.0
 30
0.0
  3
*U105
  1

  0
TEXT
  5
636
  8
図枠
  6
CONTINUOUS
 10
1253.4951534278
 20
-470.15034846703293
 30
0.0
 40
7.496527552599999
  1
 製図
  0
ENDBLK
  5
638
  8
0
  0
BLOCK
  8
0
  2
*U106
 70
     1
 10
0.0
 20
0.0
 30
0.0
  3
*U106
  1

  0
TEXT
  5
63A
  8
図枠
  6
CONTINUOUS
 10
1253.4951534278
 20
-456.32424158832629
 30
0.0
 40
7.496527552599999
  1
 設計
  0
ENDBLK
  5
63C
  8
0
  0
BLOCK
  8
0
  2
*U107
 70
     1
 10
0.0
 20
0.0
 30
0.0
  3
*U107
  1

  0
TEXT
  5
63E
  8
図枠
  6
CONTINUOUS
 10
1347.2451534278
 20
-470.18840190638622
 30
0.0
 40
7.496527552599999
  1
 検図
  0
ENDBLK
  5
640
  8
0
  0
BLOCK
  8
0
  2
*U108
 70
     1
 10
0.0
 20
0.0
 30
0.0
  3
*U108
  1

  0
TEXT
  5
642
  8
図枠
  6
CONTINUOUS
 10
1347.2451534278
 20
-456.36229502767958
 30
0.0
 40
7.496527552599999
  1
 照査
  0
ENDBLK
  5
644
  8
0
  0
BLOCK
  8
0
  2
*U109
 70
     1
 10
0.0
 20
0.0
 30
0.0
  3
*U109
  1

  0
TEXT
  5
646
  8
図枠
  6
CONTINUOUS
 10
1517.864980627211
 20
-403.21625649273301
 30
0.0
 40
7.496527552599999
  1
数量
  0
ENDBLK
  5
648
  8
0
  0
BLOCK
  8
0
  2
*U110
 70
     1
 10
0.0
 20
0.0
 30
0.0
  3
*U110
  1

  0
TEXT
  5
64A
  8
図枠
  6
CONTINUOUS
 10
1554.146715740347
 20
-403.33041681079288
 30
0.0
 40
7.496527552599999
  1
備　　　考
  0
ENDBLK
  5
64C
  8
0
  0
BLOCK
  8
0
  2
*U111
 70
     1
 10
0.0
 20
0.0
 30
0.0
  3
*U111
  1

  0
TEXT
  5
64E
  8
図枠
  6
CONTINUOUS
 10
1434.5024599155449
 20
-403.10209617467308
 30
0.0
 40
7.496527552599999
  1
材　　　質
  0
ENDBLK
  5
650
  8
0
  0
BLOCK
  8
0
  2
*U112
 70
     1
 10
0.0
 20
0.0
 30
0.0
  3
*U112
  1

  0
TEXT
  5
652
  8
図枠
  6
CONTINUOUS
 10
1314.7878607106941
 20
-403.14014961402643
 30
0.0
 40
7.496527552599999
  1
品　　　名
  0
ENDBLK
  5
654
  8
0
  0
BLOCK
  8
0
  2
*U113
 70
     1
 10
0.0
 20
0.0
 30
0.0
  3
*U113
  1

  0
TEXT
  5
656
  8
図枠
  6
CONTINUOUS
 10
1299.0187015031991
 20
-470.18840190638622
 30
0.0
 40
7.496527552599999
  1
白須賀
  0
ENDBLK
  5
658
  8
0
  0
BLOCK
  8
0
  2
*U114
 70
     1
 10
0.0
 20
0.0
 30
0.0
  3
*U114
  1

  0
TEXT
  5
65A
  8
図枠
  6
CONTINUOUS
 10
1299.0187015031991
 20
-456.43840190638622
 30
0.0
 40
7.496527552599999
  1
白須賀
  0
ENDBLK
  5
65C
  8
0
  0
BLOCK
  8
0
  2
*U115
 70
     1
 10
0.0
 20
0.0
 30
0.0
  3
*U115
  1

  0
TEXT
  5
65E
  8
図枠
  6
CONTINUOUS
 10
1394.8235872282769
 20
-470.15034846703293
 30
0.0
 40
7.496527552599999
  1
柳 原
  0
ENDBLK
  5
660
  8
0
  0
BLOCK
  8
0
  2
*U116
 70
     1
 10
0.0
 20
0.0
 30
0.0
  3
*U116
  1

  0
TEXT
  5
662
  8
図枠
  6
CONTINUOUS
 10
1394.8235872282769
 20
-456.40034846703293
 30
0.0
 40
7.496527552599999
  1
柳 原
  0
ENDBLK
  5
664
  8
0
  0
BLOCK
  8
0
  2
*U117
 70
     1
 10
0.0
 20
0.0
 30
0.0
  3
*U117
  1

  0
TEXT
  5
666
  8
図枠
  6
CONTINUOUS
 10
1270.227766314516
 20
-442.28773243270001
 30
0.0
 40
7.496527552599999
  1
H09.07
  0
ENDBLK
  5
668
  8
0
  0
BLOCK
  8
0
  2
*U118
 70
     1
 10
0.0
 20
0.0
 30
0.0
  3
*U118
  1

  0
TEXT
  5
66A
  8
図枠
  6
CONTINUOUS
 10
1262.3477867485419
 20
-377.83572209919998
 30
0.0
 40
7.496527552599999
  1
2
  0
ENDBLK
  5
66C
  8
0
  0
BLOCK
  8
0
  2
*U119
 70
     1
 10
0.0
 20
0.0
 30
0.0
  3
*U119
  1

  0
TEXT
  5
66E
  8
図枠
  6
CONTINUOUS
 10
1262.7854013011049
 20
-390.33572209919998
 30
0.0
 40
7.496527552599999
  1
1
  0
ENDBLK
  5
670
  8
0
  0
BLOCK
  8
0
  2
*U120
 70
     1
 10
0.0
 20
0.0
 30
0.0
  3
*U120
  1

  0
TEXT
  5
672
  8
図枠
  6
CONTINUOUS
 10
1524.8477867485419
 20
-390.33572209919998
 30
0.0
 40
7.496527552599999
  1
2
  0
ENDBLK
  5
674
  8
0
  0
BLOCK
  8
0
  2
*U121
 70
     1
 10
0.0
 20
0.0
 30
0.0
  3
*U121
  1

  0
TEXT
  5
676
  8
図枠
  6
CONTINUOUS
 10
1262.3858401878949
 20
-365.33572209919998
 30
0.0
 40
7.496527552599999
  1
3
  0
ENDBLK
  5
678
  8
0
  0
BLOCK
  8
0
  2
*U122
 70
     1
 10
0.0
 20
0.0
 30
0.0
  3
*U122
  1

  0
TEXT
  5
67A
  8
改訂
  6
CONTINUOUS
 10
1570.8578280348549
 20
177.4664305547
 30
0.0
 40
6.7468748986999989
  1
＊＊
  0
ENDBLK
  5
67C
  8
0
  0
BLOCK
  8
0
  2
*U123
 70
     1
 10
0.0
 20
0.0
 30
0.0
  3
*U123
  1

  0
TEXT
  5
67E
  8
改訂
  6
CONTINUOUS
 10
1455.2738343548581
 20
177.47268055469999
 30
0.0
 40
6.7468748986999989
  1
**********************
  0
ENDBLK
  5
680
  8
0
  0
BLOCK
  8
0
  2
*U124
 70
     1
 10
0.0
 20
0.0
 30
0.0
  3
*U124
  1

  0
TEXT
  5
682
  8
改訂
  6
CONTINUOUS
 10
1388.5206630167961
 20
175.95544988649999
 30
0.0
 40
6.7468749188999988
  1
1
  0
ENDBLK
  5
684
  8
0
  0
BLOCK
  8
0
  2
*U125
 70
     1
 10
0.0
 20
0.0
 30
0.0
  3
*U125
  1

  0
TEXT
  5
686
  8
改訂
  6
CONTINUOUS
 10
1401.1483818349229
 20
177.4664305547
 30
0.0
 40
6.7468748986999989
  1
H**.**.**
  0
ENDBLK
  5
688
  8
0
  0
BLOCK
  8
0
  2
*U126
 70
     1
 10
0.0
 20
0.0
 30
0.0
  3
*U126
  1

  0
TEXT
  5
68A
  8
図枠
  6
CONTINUOUS
 10
1431.8006657214601
 20
-390.33572209919998
 30
0.0
 40
7.496527552599999
  1
SUS304 0.8t
  0
ENDBLK
  5
68C
  8
0
  0
BLOCK
  8
0
  2
*U127
 70
     1
 10
0.0
 20
0.0
 30
0.0
  3
*U127
  1

  0
TEXT
  5
68E
  8
ﾚｲﾔ_1
  6
CONTINUOUS
 10
657.43549989754661
 20
-52.396664644799991
 30
0.0
 40
8.2461809158000001
  1
2
  0
ENDBLK
  5
690
  8
0
  0
BLOCK
  8
0
  2
*U128
 70
     1
 10
0.0
 20
0.0
 30
0.0
  3
*U128
  1

  0
TEXT
  5
692
  8
ﾚｲﾔ_1
  6
CONTINUOUS
 10
747.6484807415352
 20
-52.396664644799991
 30
0.0
 40
8.2461809158000001
  1
1
  0
ENDBLK
  5
694
  8
0
  0
BLOCK
  8
0
  2
*U129
 70
     1
 10
0.0
 20
0.0
 30
0.0
  3
*U129
  1

  0
TEXT
  5
696
  8
ﾚｲﾔ_1
  6
CONTINUOUS
 10
809.98116806154655
 20
-52.396664644799991
 30
0.0
 40
8.2461809158000001
  1
3
  0
ENDBLK
  5
698
  8
0
  0
BLOCK
  8
0
  2
*U130
 70
     1
 10
0.0
 20
0.0
 30
0.0
  3
*U130
  1

  0
TEXT
  5
69A
  8
ﾚｲﾔ_1
  6
CONTINUOUS
 10
826.75464219832668
 20
-213.809632837896
 30
0.0
 40
7.4965279578999988
  1
17-小判穴
  0
ENDBLK
  5
69C
  8
0
  0
BLOCK
  8
0
  2
*U131
 70
     1
 10
0.0
 20
0.0
 30
0.0
  3
*U131
  1

  0
TEXT
  5
69E
  8
ﾚｲﾔ_1
  6
CONTINUOUS
 10
1364.4318210324
 20
-45.261247202685269
 30
0.0
 40
7.4965279578999988
  1
（浅型）
  0
ENDBLK
  5
6A0
  8
0
  0
BLOCK
  8
0
  2
*U132
 70
     1
 10
0.0
 20
0.0
 30
0.0
  3
*U132
  1

  0
TEXT
  5
6A2
  8
ﾚｲﾔ_1
  6
CONTINUOUS
 10
1168.2059650534
 20
-318.03275511898528
 30
0.0
 40
7.4965279578999988
  1
（浅型）
  0
ENDBLK
  5
6A4
  8
0
  0
BLOCK
  8
0
  2
*U133
 70
     1
 10
0.0
 20
0.0
 30
0.0
  3
*U133
  1

  0
TEXT
  5
6A6
  8
ﾚｲﾔ_1
  6
CONTINUOUS
 10
1224.6204026277001
 20
-317.88054135334261
 30
0.0
 40
7.4965279578999988
  1
（深型）
  0
ENDBLK
  5
6A8
  8
0
  0
BLOCK
  8
0
  2
*U134
 70
     1
 10
0.0
 20
0.0
 30
0.0
  3
*U134
  1

  0
TEXT
  5
6AA
  8
ﾚｲﾔ_1
  6
CONTINUOUS
 10
1471.3570739836
 20
-45.10903343704264
 30
0.0
 40
7.4965279578999988
  1
（深型）
  0
ENDBLK
  5
6AC
  8
0
  0
ENDSEC
  0
SECTION
  2
ENTITIES
  0
INSERT
  5
2F
  8
0
  6
CONTINUOUS
  2
*U82
 10
0.0
 20
0.0
 30
0.0
  0
INSERT
  5
31
  8
図枠
  2
CLUMP0
 10
0.0
 20
0.0
 30
0.0
  0
INSERT
  5
3B
  8
図枠
  2
CLUMP1
 10
0.0
 20
0.0
 30
0.0
  0
INSERT
  5
44
  8
0
  6
CONTINUOUS
  2
*U83
 10
0.0
 20
0.0
 30
0.0
  0
INSERT
  5
45
  8
0
  6
CONTINUOUS
  2
*U84
 10
0.0
 20
0.0
 30
0.0
  0
INSERT
  5
46
  8
0
  6
CONTINUOUS
  2
*U85
 10
0.0
 20
0.0
 30
0.0
  0
INSERT
  5
47
  8
0
  6
CONTINUOUS
  2
*U86
 10
0.0
 20
0.0
 30
0.0
  0
INSERT
  5
48
  8
0
  6
CONTINUOUS
  2
*U87
 10
0.0
 20
0.0
 30
0.0
  0
DIMENSION
  5
51
  8
寸法線
  2
*D2
 10
720.48997648750003
 20
-272.49935944179998
 30
0.0
 11
726.57634991399993
 21
-284.14081382030002
 31
0.0
 70
   131
  1
2-Φ15
 15
733.88157862419985
 25
-265.74177169080002
 35
0.0
 40
0.0
  0
DIMENSION
  5
61
  8
寸法線
  2
*D3
 10
713.61067708329995
 20
-326.9297883081
 30
0.0
 11
727.11067708329995
 21
-326.9297883081
 31
0.0
 70
   128
  1
<>
 13
713.61067708329995
 23
-301.9297883081
 33
0.0
 14
740.61067708329995
 24
-290.9297883081
 34
0.0
 50
180.0
  0
DIMENSION
  5
70
  8
寸法線
  2
*D4
 10
740.61067708329995
 20
-326.9297883081
 30
0.0
 11
774.11067708329995
 21
-326.9297883081
 31
0.0
 70
   128
  1
<>
 13
740.61067708329995
 23
-290.9297883081
 33
0.0
 14
807.61067708329995
 24
-290.9297883081
 34
0.0
 50
180.0
  0
DIMENSION
  5
7F
  8
寸法線
  2
*D5
 10
1008.6106770832999
 20
-326.9297883081
 30
0.0
 11
1042.1106770833001
 21
-326.9297883081
 31
0.0
 70
   128
  1
<>
 13
1008.6106770832999
 23
-290.9297883081
 33
0.0
 14
1075.6106770833001
 24
-290.9297883081
 34
0.0
 50
180.0
  0
INSERT
  5
80
  8
0
  6
CONTINUOUS
  2
*U88
 10
0.0
 20
0.0
 30
0.0
  0
INSERT
  5
81
  8
0
  6
CONTINUOUS
  2
*U89
 10
0.0
 20
0.0
 30
0.0
  0
INSERT
  5
82
  8
0
  6
CONTINUOUS
  2
*U90
 10
0.0
 20
0.0
 30
0.0
  0
INSERT
  5
84
  8
図枠
  2
CLUMP2
 10
0.0
 20
0.0
 30
0.0
  0
INSERT
  5
8D
  8
0
  6
CONTINUOUS
  2
*U91
 10
0.0
 20
0.0
 30
0.0
  0
INSERT
  5
8E
  8
0
  6
CONTINUOUS
  2
*U92
 10
0.0
 20
0.0
 30
0.0
  0
INSERT
  5
90
  8
図枠
  2
CLUMP3
 10
0.0
 20
0.0
 30
0.0
  0
INSERT
  5
134
  8
0
  6
CONTINUOUS
  2
*U113
 10
0.0
 20
0.0
 30
0.0
  0
INSERT
  5
135
  8
0
  6
CONTINUOUS
  2
*U114
 10
0.0
 20
0.0
 30
0.0
  0
INSERT
  5
136
  8
0
  6
CONTINUOUS
  2
*U115
 10
0.0
 20
0.0
 30
0.0
  0
INSERT
  5
137
  8
0
  6
CONTINUOUS
  2
*U116
 10
0.0
 20
0.0
 30
0.0
  0
INSERT
  5
138
  8
0
  6
CONTINUOUS
  2
*U117
 10
0.0
 20
0.0
 30
0.0
  0
INSERT
  5
139
  8
0
  6
CONTINUOUS
  2
*U118
 10
0.0
 20
0.0
 30
0.0
  0
INSERT
  5
13A
  8
0
  6
CONTINUOUS
  2
*U119
 10
0.0
 20
0.0
 30
0.0
  0
INSERT
  5
13B
  8
0
  6
CONTINUOUS
  2
*U120
 10
0.0
 20
0.0
 30
0.0
  0
INSERT
  5
13C
  8
0
  6
CONTINUOUS
  2
*U121
 10
0.0
 20
0.0
 30
0.0
  0
INSERT
  5
13E
  8
0
  6
CONTINUOUS
  2
*U122
 10
0.0
 20
0.0
 30
0.0
  0
INSERT
  5
13F
  8
0
  6
CONTINUOUS
  2
*U123
 10
0.0
 20
0.0
 30
0.0
  0
INSERT
  5
140
  8
0
  6
CONTINUOUS
  2
*U124
 10
0.0
 20
0.0
 30
0.0
  0
INSERT
  5
141
  8
0
  6
CONTINUOUS
  2
*U125
 10
0.0
 20
0.0
 30
0.0
  0
INSERT
  5
142
  8
0
  6
CONTINUOUS
  2
*U126
 10
0.0
 20
0.0
 30
0.0
  0
DIMENSION
  5
151
  8
寸法線
  2
*D8
 10
1417.9191566467
 20
-6.9337368899999987
 30
0.0
 11
1417.9191566467
 21
-19.313306897299999
 31
0.0
 70
   128
  1
15.5
 13
1398.4676757812999
 23
-6.9337368899999987
 33
0.0
 14
1398.4676757812999
 24
8.5662631099999995
 34
0.0
 50
90.0
  0
INSERT
  5
153
  8
寸法線
  2
BALLON0
 10
0.0
 20
0.0
 30
0.0
  0
INSERT
  5
15E
  8
寸法線
  2
BALLON1
 10
0.0
 20
0.0
 30
0.0
  0
INSERT
  5
168
  8
寸法線
  2
BALLON2
 10
0.0
 20
0.0
 30
0.0
  0
DIMENSION
  5
17F
  8
寸法線
  2
*D12
 10
1513.3072265625001
 20
119.64105646020001
 30
0.0
 11
1498.3072265625001
 21
119.64105646020001
 31
0.0
 70
   128
  1
<>
 13
1513.3072265625001
 23
91.066721362000024
 33
0.0
 14
1483.3072265625001
 24
82.066721361999996
 34
0.0
  0
DIMENSION
  5
18E
  8
寸法線
  2
*D13
 10
1483.3072265625001
 20
119.64105646020001
 30
0.0
 11
1470.8072265625001
 21
119.64105646020001
 31
0.0
 70
   128
  1
<>
 13
1483.3072265625001
 23
82.066721361999996
 33
0.0
 14
1458.3072265625001
 24
91.066721362000024
 34
0.0
  0
DIMENSION
  5
19D
  8
寸法線
  2
*D14
 10
1529.3072265625001
 20
-6.9332786379999991
 30
0.0
 11
1529.3072265625001
 21
0.066721362
 31
0.0
 70
   128
  1
14
 13
1513.3072265625001
 23
-6.9332786379999991
 33
0.0
 14
1513.3072265625001
 24
7.066721362
 34
0.0
 50
90.0
  0
DIMENSION
  5
1AC
  8
寸法線
  2
*D15
 10
1529.3072265625001
 20
7.066721362
 30
0.0
 11
1529.3072265625001
 21
42.066721361999988
 31
0.0
 70
   128
  1
<>
 13
1513.3072265625001
 23
7.066721362
 33
0.0
 14
1513.3072265625001
 24
77.066721361999996
 34
0.0
 50
90.0
  0
DIMENSION
  5
1BB
  8
寸法線
  2
*D16
 10
1529.3072265625001
 20
77.066721361999996
 30
0.0
 11
1529.3072265625001
 21
84.066721361999996
 31
0.0
 70
   128
  1
14
 13
1513.3072265625001
 23
77.066721361999996
 33
0.0
 14
1513.3072265625001
 24
91.066721362000024
 34
0.0
 50
90.0
  0
DIMENSION
  5
1CA
  8
寸法線
  2
*D17
 10
1308.8709901937
 20
-88.714296875000002
 30
0.0
 11
1308.8709901937
 21
-85.714296875000002
 31
0.0
 70
   128
  1
<>
 13
1287.6906770833
 23
-88.714296875000002
 33
0.0
 14
1286.8906770833
 24
-82.714296875000016
 34
0.0
 50
90.0
  0
DIMENSION
  5
1D9
  8
寸法線
  2
*D18
 10
1317.7557157644001
 20
-6.9337368899999987
 30
0.0
 11
1317.7557157644001
 21
-2.43373689
 31
0.0
 70
   128
  1
<>
 13
1287.6906770833
 23
-6.9337368899999987
 33
0.0
 14
1278.6906770833
 24
2.0662631099999991
 34
0.0
 50
90.0
  0
DIMENSION
  5
1E8
  8
寸法線
  2
*D19
 10
1317.7557157644001
 20
82.066263109999994
 30
0.0
 11
1317.7557157644001
 21
86.566263109999994
 31
0.0
 70
   128
  1
<>
 13
1278.6906770833
 23
82.066263109999994
 33
0.0
 14
1287.6906770833
 24
91.066263109999994
 34
0.0
 50
90.0
  0
DIMENSION
  5
1F7
  8
寸法線
  2
*D20
 10
1331.1528009542001
 20
-6.9337368899999987
 30
0.0
 11
1331.1528009542001
 21
42.066263109999987
 31
0.0
 70
   128
  1
<>
 13
1287.6906770833
 23
-6.9337368899999987
 33
0.0
 14
1287.6906770833
 24
91.066263109999994
 34
0.0
 50
90.0
  0
DIMENSION
  5
206
  8
寸法線
  2
*D21
 10
1317.7557176717
 20
2.0662631099999991
 30
0.0
 11
1317.7557176717
 21
42.066263109999987
 31
0.0
 70
   128
  1
<>
 13
1278.6906770833
 23
2.0662631099999991
 33
0.0
 14
1278.6906770833
 24
82.066263109999994
 34
0.0
 50
90.0
  0
DIMENSION
  5
215
  8
寸法線
  2
*D22
 10
1384.2676757812001
 20
117.11324225129999
 30
0.0
 11
1376.6486800253001
 21
117.11324225129999
 31
0.0
 70
   128
  1
<>
 13
1384.2676757812001
 23
82.066263109999994
 33
0.0
 14
1369.2676757813001
 24
90.266263109999997
 34
0.0
  0
DIMENSION
  5
224
  8
寸法線
  2
*D23
 10
1102.6106770833001
 20
-197.9297883081
 30
0.0
 11
908.11067708330006
 21
-197.9297883081
 31
0.0
 70
   128
  1
<>
 13
1102.6106770833001
 23
-222.9297883081
 33
0.0
 14
713.61067708329995
 24
-222.9297883081
 34
0.0
  0
DIMENSION
  5
233
  8
寸法線
  2
*D24
 10
1399.2676757813001
 20
131.5316401547
 30
0.0
 11
1384.2676757813001
 21
131.5316401547
 31
0.0
 70
   128
  1
<>
 13
1399.2676757813001
 23
90.266263109999997
 33
0.0
 14
1369.2676757813001
 24
90.266263109999997
 34
0.0
  0
DIMENSION
  5
242
  8
寸法線
  2
*D25
 10
1513.3072265625001
 20
131.49486314660001
 30
0.0
 11
1485.8072265625001
 21
131.49486314660001
 31
0.0
 70
   128
  1
<>
 13
1513.3072265625001
 23
90.266721362000013
 33
0.0
 14
1458.3072265625001
 24
90.266721362000013
 34
0.0
  0
DIMENSION
  5
251
  8
寸法線
  2
*D26
 10
1287.6906770833
 20
142.7733286923
 30
0.0
 11
995.65067708330002
 21
142.7733286923
 31
0.0
 70
   128
  1
798
 13
1287.6906770833
 23
91.066263109999994
 33
0.0
 14
703.61067708330006
 24
91.066263109999994
 34
0.0
  0
DIMENSION
  5
258
  8
寸法線
  2
*D27
 10
1097.6106770833001
 20
-368.62269531250001
 30
0.0
 11
1093.9897287696001
 21
-384.32292495820002
 31
0.0
 70
   132
  1
<>
 15
1101.1462109893
 25
-372.15822921839998
 35
0.0
 40
0.0
  0
DIMENSION
  5
267
  8
寸法線
  2
*D28
 10
1146.7820752462001
 20
-301.9297883081
 30
0.0
 11
1146.7820752462001
 21
-262.4297883081
 31
0.0
 70
   128
  1
<>
 13
1102.6106770833001
 23
-301.9297883081
 33
0.0
 14
1102.6106770833001
 24
-222.9297883081
 34
0.0
 50
90.0
  0
DIMENSION
  5
276
  8
寸法線
  2
*D29
 10
1278.6906770833
 20
123.8988169735
 30
0.0
 11
995.65067708330002
 21
123.8988169735
 31
0.0
 70
   128
  1
780
 13
1278.6906770833
 23
82.066263109999994
 33
0.0
 14
712.61067708330006
 24
82.066263109999994
 34
0.0
  0
DIMENSION
  5
285
  8
寸法線
  2
*D30
 10
1417.9508472442999
 20
75.566263109999994
 30
0.0
 11
1417.9508472442999
 21
103.7422913617
 31
0.0
 70
   128
  1
15.5
 13
1398.4676757812999
 23
75.566263109999994
 33
0.0
 14
1395.8676757813
 24
91.066263109999994
 34
0.0
 50
90.0
  0
DIMENSION
  5
294
  8
寸法線
  2
*D31
 10
831.11067708330006
 20
-290.9297883081
 30
0.0
 11
831.11067708330006
 21
-287.4297883081
 31
0.0
 70
   128
  1
<>
 13
815.11067708330006
 23
-290.9297883081
 33
0.0
 14
815.11067708330006
 24
-283.9297883081
 34
0.0
 50
90.0
  0
DIMENSION
  5
2A3
  8
寸法線
  2
*D32
 10
818.61067708330006
 20
-274.689879136
 30
0.0
 11
807.61067708329995
 21
-274.689879136
 31
0.0
 70
   128
  1
<>
 13
818.61067708330006
 23
-287.4297883081
 33
0.0
 14
796.61067708329995
 24
-287.4297883081
 34
0.0
  0
ARC
  5
2A4
  8
ﾚｲﾔ_1
 62
     5
 10
1049.6106770833001
 20
-262.4297883081
 30
0.0
 40
3.5
 50
270.0
 51
90.0
  0
INSERT
  5
2A6
  8
ﾚｲﾔ_1
  2
CLUMP4
 10
0.0
 20
0.0
 30
0.0
  0
CIRCLE
  5
2AD
  8
ﾚｲﾔ_1
 62
     5
 10
1075.6106770833001
 20
-262.4297883081
 30
0.0
 40
7.5
  0
LINE
  5
2AE
  8
ﾚｲﾔ_1
  6
BORDER
 62
     3
 10
1075.6106770833001
 20
-249.9297883081
 30
0.0
 11
1075.6106770833001
 21
-274.9297883081
 31
0.0
  0
LINE
  5
2AF
  8
ﾚｲﾔ_1
 62
     5
 10
900.61067708329995
 20
-265.9297883081
 30
0.0
 11
915.61067708329995
 21
-265.9297883081
 31
0.0
  0
INSERT
  5
2B0
  8
0
  6
CONTINUOUS
  2
*U130
 10
0.0
 20
0.0
 30
0.0
  0
INSERT
  5
2B1
  8
0
  6
CONTINUOUS
  2
*U131
 10
0.0
 20
0.0
 30
0.0
  0
INSERT
  5
2B2
  8
0
  6
CONTINUOUS
  2
*U132
 10
0.0
 20
0.0
 30
0.0
  0
INSERT
  5
2B3
  8
0
  6
CONTINUOUS
  2
*U133
 10
0.0
 20
0.0
 30
0.0
  0
INSERT
  5
2B4
  8
0
  6
CONTINUOUS
  2
*U134
 10
0.0
 20
0.0
 30
0.0
  0
DIMENSION
  5
2C3
  8
寸法線
  2
*D34
 10
1075.6106770833001
 20
-326.9297883081
 30
0.0
 11
1089.1106770833001
 21
-326.9297883081
 31
0.0
 70
   128
  1
<>
 13
1075.6106770833001
 23
-290.9297883081
 33
0.0
 14
1102.6106770833001
 24
-301.9297883081
 34
0.0
 50
180.0
  0
DIMENSION
  5
2D2
  8
寸法線
  2
*D35
 10
1127.6106770833001
 20
-301.9297883081
 30
0.0
 11
1127.6106770833001
 21
-317.11283083429998
 31
0.0
 70
   128
  1
<>
 13
1102.6106770833001
 23
-301.9297883081
 33
0.0
 14
1086.6106770833001
 24
-287.4297883081
 34
0.0
 50
90.0
  0
DIMENSION
  5
2E1
  8
寸法線
  2
*D36
 10
1127.6106770833001
 20
-237.4297883081
 30
0.0
 11
1127.6106770833001
 21
-205.60035486690001
 31
0.0
 70
   128
  1
<>
 13
1086.6106770833001
 23
-237.4297883081
 33
0.0
 14
1102.6106770833001
 24
-222.9297883081
 34
0.0
 50
90.0
  0
DIMENSION
  5
2F0
  8
寸法線
  2
*D37
 10
1127.6106770833001
 20
-287.4297883081
 30
0.0
 11
1127.6106770833001
 21
-274.9297883081
 31
0.0
 70
   128
  1
<>
 13
1086.6106770833001
 23
-287.4297883081
 33
0.0
 14
1107.6106770833001
 24
-262.4297883081
 34
0.0
 50
90.0
  0
DIMENSION
  5
2FF
  8
寸法線
  2
*D38
 10
1127.6106770833001
 20
-262.4297883081
 30
0.0
 11
1127.6106770833001
 21
-249.9297883081
 31
0.0
 70
   128
  1
<>
 13
1107.6106770833001
 23
-262.4297883081
 33
0.0
 14
1086.6106770833001
 24
-237.4297883081
 34
0.0
 50
90.0
  0
DIMENSION
  5
30E
  8
寸法線
  2
*D39
 10
807.61067708329995
 20
-326.9297883081
 30
0.0
 11
841.11067708330006
 21
-326.9297883081
 31
0.0
 70
   128
  1
<>
 13
807.61067708329995
 23
-290.9297883081
 33
0.0
 14
874.61067708329995
 24
-290.9297883081
 34
0.0
 50
180.0
  0
DIMENSION
  5
31D
  8
寸法線
  2
*D40
 10
874.61067708329995
 20
-326.9297883081
 30
0.0
 11
908.11067708330006
 21
-326.9297883081
 31
0.0
 70
   128
  1
<>
 13
874.61067708329995
 23
-290.9297883081
 33
0.0
 14
941.61067708329995
 24
-290.9297883081
 34
0.0
 50
180.0
  0
DIMENSION
  5
32C
  8
寸法線
  2
*D41
 10
1287.6906770833
 20
123.8988169735
 30
0.0
 11
1283.1906770833
 21
123.8988169735
 31
0.0
 70
   128
  1
9
 13
1287.6906770833
 23
91.066263109999994
 33
0.0
 14
1278.6906770833
 24
82.066263109999994
 34
0.0
  0
DIMENSION
  5
33B
  8
寸法線
  2
*D42
 10
1308.8709901937
 20
-112.714296875
 30
0.0
 11
1308.8709901937
 21
-109.714296875
 31
0.0
 70
   128
  1
<>
 13
1286.8906770833
 23
-112.714296875
 33
0.0
 14
1287.6906770833
 24
-106.714296875
 34
0.0
 50
90.0
  0
DIMENSION
  5
34A
  8
寸法線
  2
*D43
 10
1189.1102124531999
 20
-202.9297883081
 30
0.0
 11
1182.1102124531999
 21
-202.9297883081
 31
0.0
 70
   128
  1
<>
 13
1189.1102124531999
 23
-222.9297883081
 33
0.0
 14
1175.1102124531999
 24
-224.42978775730001
 34
0.0
  0
DIMENSION
  5
359
  8
寸法線
  2
*D44
 10
1248.8165515431001
 20
-202.9297883081
 30
0.0
 11
1237.3165515431001
 21
-202.9297883081
 31
0.0
 70
   128
  1
<>
 13
1248.8165515431001
 23
-222.9297883081
 33
0.0
 14
1225.8165515431001
 24
-224.4297883081
 34
0.0
  0
DIMENSION
  5
368
  8
寸法線
  2
*D45
 10
712.61067708330006
 20
123.8988169735
 30
0.0
 11
708.11067708330006
 21
123.8988169735
 31
0.0
 70
   128
  1
<>
 13
712.61067708330006
 23
82.066263109999994
 33
0.0
 14
703.61067708330006
 24
91.066263109999994
 34
0.0
  0
DIMENSION
  5
377
  8
寸法線
  2
*D46
 10
1384.2676757813001
 20
117.11324225129999
 30
0.0
 11
1391.8866715372001
 21
117.11324225129999
 31
0.0
 70
   128
  1
<>
 13
1384.2676757813001
 23
82.066263109999994
 33
0.0
 14
1399.2676757813001
 24
90.266263109999997
 34
0.0
  0
DIMENSION
  5
386
  8
寸法線
  2
*D47
 10
941.61067708329995
 20
-326.9297883081
 30
0.0
 11
975.11067708330006
 21
-326.9297883081
 31
0.0
 70
   128
  1
<>
 13
941.61067708329995
 23
-290.9297883081
 33
0.0
 14
1008.6106770832999
 24
-290.9297883081
 34
0.0
 50
180.0
  0
DIMENSION
  5
395
  8
寸法線
  2
*D48
 10
1417.9084640502999
 20
8.5662631099999995
 30
0.0
 11
1417.9084640502999
 21
42.066263109999987
 31
0.0
 70
   128
  1
<>
 13
1398.4676757812999
 23
8.5662631099999995
 33
0.0
 14
1398.4676757812999
 24
75.566263109999994
 34
0.0
 50
90.0
  0
LINE
  5
396
  8
ﾚｲﾔ_1
 62
     5
 10
982.61067708329995
 20
-258.9297883081
 30
0.0
 11
967.61067708329995
 21
-258.9297883081
 31
0.0
  0
LINE
  5
397
  8
ﾚｲﾔ_1
 62
     5
 10
967.61067708329995
 20
-265.9297883081
 30
0.0
 11
982.61067708329995
 21
-265.9297883081
 31
0.0
  0
LINE
  5
398
  8
ﾚｲﾔ_1
 62
     5
 10
915.61067708329995
 20
-258.9297883081
 30
0.0
 11
900.61067708329995
 21
-258.9297883081
 31
0.0
  0
LINE
  5
399
  8
ﾚｲﾔ_1
 62
     5
 10
1034.6106770833001
 20
-265.9297883081
 30
0.0
 11
1049.6106770833001
 21
-265.9297883081
 31
0.0
  0
INSERT
  5
39B
  8
ﾚｲﾔ_1
  2
CLUMP5
 10
0.0
 20
0.0
 30
0.0
  0
ARC
  5
3A2
  8
ﾚｲﾔ_1
 62
     5
 10
900.61067708329995
 20
-262.4297883081
 30
0.0
 40
3.5
 50
90.0
 51
270.0
  0
CIRCLE
  5
3A3
  8
ﾚｲﾔ_1
 62
     5
 10
740.61067708329995
 20
-262.4297883081
 30
0.0
 40
7.5
  0
INSERT
  5
3A5
  8
ﾚｲﾔ_1
  2
CLUMP6
 10
0.0
 20
0.0
 30
0.0
  0
ARC
  5
3AC
  8
ﾚｲﾔ_1
 62
     5
 10
833.61067708329995
 20
-262.4297883081
 30
0.0
 40
3.5
 50
90.0
 51
270.0
  0
LINE
  5
3AD
  8
ﾚｲﾔ_1
 62
     5
 10
848.61067708329995
 20
-258.9297883081
 30
0.0
 11
833.61067708329995
 21
-258.9297883081
 31
0.0
  0
LINE
  5
3AE
  8
ﾚｲﾔ_1
 62
     5
 10
833.61067708329995
 20
-265.9297883081
 30
0.0
 11
848.61067708329995
 21
-265.9297883081
 31
0.0
  0
ARC
  5
3AF
  8
ﾚｲﾔ_1
 62
     5
 10
848.61067708329995
 20
-262.4297883081
 30
0.0
 40
3.5
 50
270.0
 51
90.0
  0
LINE
  5
3B0
  8
ﾚｲﾔ_1
  6
BORDER
 62
     3
 10
740.61067708329995
 20
-249.9297883081
 30
0.0
 11
740.61067708329995
 21
-274.9297883081
 31
0.0
  0
ARC
  5
3B1
  8
ﾚｲﾔ_1
 62
     5
 10
766.61067708330006
 20
-262.4297883081
 30
0.0
 40
3.5
 50
90.0
 51
270.0
  0
LINE
  5
3B2
  8
ﾚｲﾔ_1
 62
     5
 10
781.61067708329995
 20
-258.9297883081
 30
0.0
 11
766.61067708330006
 21
-258.9297883081
 31
0.0
  0
LINE
  5
3B3
  8
ﾚｲﾔ_1
 62
     5
 10
766.61067708330006
 20
-265.9297883081
 30
0.0
 11
781.61067708329995
 21
-265.9297883081
 31
0.0
  0
ARC
  5
3B4
  8
ﾚｲﾔ_1
 62
     5
 10
781.61067708329995
 20
-262.4297883081
 30
0.0
 40
3.5
 50
270.0
 51
90.0
  0
INSERT
  5
3B6
  8
ﾚｲﾔ_1
  2
CLUMP7
 10
0.0
 20
0.0
 30
0.0
  0
INSERT
  5
3BE
  8
ﾚｲﾔ_1
  2
CLUMP8
 10
0.0
 20
0.0
 30
0.0
  0
INSERT
  5
3C6
  8
ﾚｲﾔ_1
  2
CLUMP9
 10
0.0
 20
0.0
 30
0.0
  0
INSERT
  5
3CE
  8
ﾚｲﾔ_1
  2
CLUMP10
 10
0.0
 20
0.0
 30
0.0
  0
INSERT
  5
3D6
  8
ﾚｲﾔ_1
  2
CLUMP11
 10
0.0
 20
0.0
 30
0.0
  0
LINE
  5
3DD
  8
ﾚｲﾔ_1
 10
807.61067708329995
 20
-233.9297883081
 30
0.0
 11
821.17376811760005
 21
-216.4418936612
 31
0.0
  0
SOLID
  5
3DE
  8
ﾚｲﾔ_1
 10
807.61067708329995
 20
-233.9297883081
 30
0.0
 11
809.61627985459995
 21
-229.15773667729999
 31
0.0
 12
809.85387531360016
 22
-231.0374672122
 32
0.0
 13
809.85387531360016
 23
-231.0374672122
 33
0.0
  0
SOLID
  5
3DF
  8
ﾚｲﾔ_1
 10
807.61067708329995
 20
-233.9297883081
 30
0.0
 11
811.73360584859995
 21
-230.79987175330001
 31
0.0
 12
809.85387531360016
 22
-231.0374672122
 32
0.0
 13
809.85387531360016
 23
-231.0374672122
 33
0.0
  0
INSERT
  5
3E1
  8
ﾚｲﾔ_1
  2
CLUMP12
 10
0.0
 20
0.0
 30
0.0
  0
INSERT
  5
3E9
  8
ﾚｲﾔ_1
  2
CLUMP13
 10
0.0
 20
0.0
 30
0.0
  0
LINE
  5
3F0
  8
ﾚｲﾔ_1
 62
     5
 10
1287.6906770833
 20
-6.9337368899999987
 30
0.0
 11
1201.6109895832999
 21
-6.9337368899999987
 31
0.0
  0
LINE
  5
3F1
  8
ﾚｲﾔ_1
 62
     5
 10
1278.6906770833
 20
2.0662631099999991
 30
0.0
 11
1201.6109895832999
 21
2.0662631099999991
 31
0.0
  0
LINE
  5
3F2
  8
ﾚｲﾔ_1
 62
     5
 10
1399.2676757813001
 20
76.366263110000006
 30
0.0
 11
1399.2676757813001
 21
42.066263109999987
 31
0.0
  0
LINE
  5
3F3
  8
ﾚｲﾔ_1
 62
     5
 10
1399.2676757813001
 20
7.7662631099999988
 30
0.0
 11
1399.2676757813001
 21
42.066263109999987
 31
0.0
  0
LINE
  5
3F4
  8
ﾚｲﾔ_1
 62
     5
 10
1369.2676757813001
 20
82.866263110000006
 30
0.0
 11
1369.2676757813001
 21
42.066263109999987
 31
0.0
  0
LINE
  5
3F5
  8
ﾚｲﾔ_1
 62
     5
 10
1369.2676757813001
 20
1.266263109999999
 30
0.0
 11
1369.2676757813001
 21
42.066263109999987
 31
0.0
  0
INSERT
  5
3F7
  8
ﾚｲﾔ_1
 62
     5
  2
CLUMP14
 10
0.0
 20
0.0
 30
0.0
  0
INSERT
  5
404
  8
ﾚｲﾔ_1
 62
     5
  2
CLUMP15
 10
0.0
 20
0.0
 30
0.0
  0
INSERT
  5
422
  8
ﾚｲﾔ_1
 62
     5
  2
CLUMP16
 10
0.0
 20
0.0
 30
0.0
  0
INSERT
  5
440
  8
ﾚｲﾔ_1
 62
     5
  2
CLUMP17
 10
0.0
 20
0.0
 30
0.0
  0
LINE
  5
45C
  8
ﾚｲﾔ_1
 62
     5
 10
1483.3072265625001
 20
82.066721361999996
 30
0.0
 11
1483.3072265625001
 21
81.566721361999996
 31
0.0
  0
LINE
  5
45D
  8
ﾚｲﾔ_1
 62
     5
 10
1483.3072265625001
 20
80.066721361999996
 30
0.0
 11
1483.3072265625001
 21
77.066721361999996
 31
0.0
  0
INSERT
  5
45F
  8
ﾚｲﾔ_1
 62
     5
  2
CLUMP18
 10
0.0
 20
0.0
 30
0.0
  0
INSERT
  5
46C
  8
ﾚｲﾔ_1
 62
     5
  2
CLUMP19
 10
0.0
 20
0.0
 30
0.0
  0
LINE
  5
488
  8
ﾚｲﾔ_1
  6
BORDER
 62
     3
 10
1453.3072265625001
 20
42.066721361999988
 30
0.0
 11
1518.3072265625001
 21
42.066721361999988
 31
0.0
  0
LINE
  5
489
  8
ﾚｲﾔ_1
 62
     5
 10
1513.3072265625001
 20
77.866721361999993
 30
0.0
 11
1513.3072265625001
 21
6.2667213620000002
 31
0.0
  0
LINE
  5
48A
  8
ﾚｲﾔ_1
 62
     5
 10
1458.3072265625001
 20
1.2667213619999991
 30
0.0
 11
1458.3072265625001
 21
82.866721361999993
 31
0.0
  0
LINE
  5
48B
  8
ﾚｲﾔ_1
 62
     5
 10
1483.3072265625001
 20
4.066721362
 30
0.0
 11
1483.3072265625001
 21
7.066721362
 31
0.0
  0
INSERT
  5
48D
  8
ﾚｲﾔ_1
  2
CLUMP20
 10
0.0
 20
0.0
 30
0.0
  0
ARC
  5
494
  8
ﾚｲﾔ_1
 62
     5
 10
915.61067708329995
 20
-262.4297883081
 30
0.0
 40
3.5
 50
270.0
 51
90.0
  0
INSERT
  5
496
  8
ﾚｲﾔ_1
  2
CLUMP21
 10
0.0
 20
0.0
 30
0.0
  0
ARC
  5
49D
  8
ﾚｲﾔ_1
 62
     5
 10
982.61067708329995
 20
-262.4297883081
 30
0.0
 40
3.5
 50
270.0
 51
90.0
  0
ARC
  5
49E
  8
ﾚｲﾔ_1
 62
     5
 10
1034.6106770833001
 20
-262.4297883081
 30
0.0
 40
3.5
 50
90.0
 51
270.0
  0
LINE
  5
49F
  8
ﾚｲﾔ_1
 62
     5
 10
1049.6106770833001
 20
-258.9297883081
 30
0.0
 11
1034.6106770833001
 21
-258.9297883081
 31
0.0
  0
ARC
  5
4A0
  8
ﾚｲﾔ_1
 62
     5
 10
967.61067708329995
 20
-262.4297883081
 30
0.0
 40
3.5
 50
90.0
 51
270.0
  0
ARC
  5
4A1
  8
ﾚｲﾔ_1
 62
     5
 10
1155.7106770833
 20
42.066263109999987
 30
0.0
 40
3.5
 50
90.0
 51
270.0
  0
LINE
  5
4A2
  8
ﾚｲﾔ_1
  6
BORDER
 62
     3
 10
1250.7906770832999
 20
54.566263110000001
 30
0.0
 11
1250.7906770832999
 21
29.566263110000001
 31
0.0
  0
LINE
  5
4A3
  8
ﾚｲﾔ_1
  6
BORDER
 62
     3
 10
1129.7106770833
 20
54.566263110000001
 30
0.0
 11
1129.7106770833
 21
29.566263110000001
 31
0.0
  0
CIRCLE
  5
4A4
  8
ﾚｲﾔ_1
 62
     5
 10
1250.7906770832999
 20
42.066263109999987
 30
0.0
 40
7.5
  0
LINE
  5
4A5
  8
ﾚｲﾔ_1
  6
STITCH
 10
1201.6106770833001
 20
80.066263109999994
 30
0.0
 11
1277.6906770833
 21
80.066263109999994
 31
0.0
  0
LINE
  5
4A6
  8
ﾚｲﾔ_1
  6
STITCH
 10
1201.6106770833001
 20
4.0662631100000004
 30
0.0
 11
1277.6906770833
 21
4.0662631100000004
 31
0.0
  0
ARC
  5
4A7
  8
ﾚｲﾔ_1
 62
     5
 10
1189.2106770833
 20
17.066263110000001
 30
0.0
 40
3.5
 50
90.0
 51
270.0
  0
ARC
  5
4A8
  8
ﾚｲﾔ_1
 62
     5
 10
1189.2106770833
 20
67.066263109999994
 30
0.0
 40
3.5
 50
90.0
 51
270.0
  0
LINE
  5
4A9
  8
ﾚｲﾔ_1
 62
     5
 10
1196.6106770833001
 20
20.566263110000001
 30
0.0
 11
1189.2106770833
 21
20.566263110000001
 31
0.0
  0
LINE
  5
4AA
  8
ﾚｲﾔ_1
 62
     5
 10
1189.2106770833
 20
13.56626311
 30
0.0
 11
1196.6106770833001
 21
13.56626311
 31
0.0
  0
LINE
  5
4AB
  8
ﾚｲﾔ_1
 62
     5
 10
1189.2106770833
 20
70.566263109999994
 30
0.0
 11
1196.6106770833001
 21
70.566263109999994
 31
0.0
  0
LINE
  5
4AC
  8
ﾚｲﾔ_1
 62
     5
 10
1196.6106770833001
 20
63.566263110000001
 30
0.0
 11
1189.2106770833
 21
63.566263110000001
 31
0.0
  0
LINE
  5
4AD
  8
ﾚｲﾔ_1
 62
     5
 10
1201.6106770833001
 20
2.5662631099999991
 30
0.0
 11
1277.6906770833
 21
2.5662631099999991
 31
0.0
  0
LINE
  5
4AE
  8
ﾚｲﾔ_1
 62
     5
 10
1170.7106770833
 20
38.566263110000001
 30
0.0
 11
1155.7106770833
 21
38.566263110000001
 31
0.0
  0
LINE
  5
4AF
  8
ﾚｲﾔ_1
 62
     5
 10
1155.7106770833
 20
45.566263110000001
 30
0.0
 11
1170.7106770833
 21
45.566263110000001
 31
0.0
  0
ARC
  5
4B0
  8
ﾚｲﾔ_1
 62
     5
 10
1170.7106770833
 20
42.066263109999987
 30
0.0
 40
3.5
 50
270.0
 51
90.0
  0
INSERT
  5
4B2
  8
ﾚｲﾔ_1
  2
CLUMP22
 10
0.0
 20
0.0
 30
0.0
  0
INSERT
  5
4BA
  8
ﾚｲﾔ_1
  2
CLUMP23
 10
0.0
 20
0.0
 30
0.0
  0
ARC
  5
4C1
  8
ﾚｲﾔ_1
 62
     5
 10
1209.7906770832999
 20
42.066263109999987
 30
0.0
 40
3.5
 50
90.0
 51
270.0
  0
LINE
  5
4C2
  8
ﾚｲﾔ_1
 62
     5
 10
1224.7906770832999
 20
38.566263110000001
 30
0.0
 11
1209.7906770832999
 21
38.566263110000001
 31
0.0
  0
LINE
  5
4C3
  8
ﾚｲﾔ_1
 62
     5
 10
1209.7906770832999
 20
45.566263110000001
 30
0.0
 11
1224.7906770832999
 21
45.566263110000001
 31
0.0
  0
ARC
  5
4C4
  8
ﾚｲﾔ_1
 62
     5
 10
1224.7906770832999
 20
42.066263109999987
 30
0.0
 40
3.5
 50
270.0
 51
90.0
  0
INSERT
  5
4C6
  8
ﾚｲﾔ_1
  2
CLUMP24
 10
0.0
 20
0.0
 30
0.0
  0
LINE
  5
4CD
  8
ﾚｲﾔ_1
 62
     5
 10
1287.6906770833
 20
91.066263109999994
 30
0.0
 11
1201.6109895832999
 21
91.066263109999994
 31
0.0
  0
CIRCLE
  5
4CE
  8
ﾚｲﾔ_1
 62
     5
 10
1129.7106770833
 20
42.066263109999987
 30
0.0
 40
7.5
  0
LINE
  5
4CF
  8
ﾚｲﾔ_1
 62
     5
 10
1278.6906770833
 20
-97.714296875000016
 30
0.0
 11
1272.9906770832999
 21
-97.714296875000016
 31
0.0
  0
LINE
  5
4D0
  8
ﾚｲﾔ_1
 62
     5
 10
1286.8906770833
 20
-83.514296874999985
 30
0.0
 11
1286.8906770833
 21
-88.714296875000002
 31
0.0
  0
LINE
  5
4D1
  8
ﾚｲﾔ_1
 62
     5
 10
1275.4406770833
 20
-83.714296875000002
 30
0.0
 11
1277.9406770833
 21
-83.714296875000002
 31
0.0
  0
LINE
  5
4D2
  8
ﾚｲﾔ_1
 62
     5
 10
1277.9406770833
 20
-86.214296875000002
 30
0.0
 11
1277.9406770833
 21
-83.714296875000002
 31
0.0
  0
LINE
  5
4D3
  8
ﾚｲﾔ_1
 62
     5
 10
1286.8906770833
 20
-88.714296875000002
 30
0.0
 11
1279.4906770832999
 21
-88.714296875000002
 31
0.0
  0
LINE
  5
4D4
  8
ﾚｲﾔ_1
 62
     5
 10
1279.4906770832999
 20
-97.714296875000016
 30
0.0
 11
1279.4906770832999
 21
-83.514296874999985
 31
0.0
  0
LINE
  5
4D5
  8
ﾚｲﾔ_1
 62
     5
 10
1286.8906770833
 20
-88.714296875000002
 30
0.0
 11
1287.6906770833
 21
-88.714296875000002
 31
0.0
  0
LINE
  5
4D6
  8
ﾚｲﾔ_1
 62
     5
 10
1275.4406770833
 20
-85.714296875000002
 30
0.0
 11
1277.9406770833
 21
-85.714296875000002
 31
0.0
  0
ARC
  5
4D7
  8
ﾚｲﾔ_1
 62
     5
 10
1286.8906770833
 20
-83.514296874999985
 30
0.0
 40
0.8
 50
0.0
 51
90.0
  0
LINE
  5
4D8
  8
ﾚｲﾔ_1
 62
     5
 10
1287.6906770833
 20
-88.714296875000002
 30
0.0
 11
1287.6906770833
 21
-83.514296874999985
 31
0.0
  0
LINE
  5
4D9
  8
ﾚｲﾔ_1
 62
     5
 10
1286.8906770833
 20
-82.714296875000016
 30
0.0
 11
1279.4906770832999
 21
-82.714296875000016
 31
0.0
  0
LINE
  5
4DA
  8
ﾚｲﾔ_1
 62
     5
 10
1278.6906770833
 20
-83.514296874999985
 30
0.0
 11
1278.6906770833
 21
-97.714296875000016
 31
0.0
  0
ARC
  5
4DB
  8
ﾚｲﾔ_1
 62
     5
 10
1279.4906770832999
 20
-83.514296874999985
 30
0.0
 40
0.8
 50
90.0
 51
180.0
  0
LINE
  5
4DC
  8
ﾚｲﾔ_1
 62
     5
 10
1278.6906770833
 20
-97.714296875000016
 30
0.0
 11
1278.6906770833
 21
-111.91429687500001
 31
0.0
  0
LINE
  5
4DD
  8
ﾚｲﾔ_1
  6
BORDER
 62
     3
 10
1196.6106770833001
 20
-77.714296875000002
 30
0.0
 11
1196.6106770833001
 21
-117.714296875
 31
0.0
  0
LINE
  5
4DE
  8
ﾚｲﾔ_1
  6
BORDER
 62
     3
 10
1201.6106770833001
 20
-77.714296875000002
 30
0.0
 11
1201.6106770833001
 21
-117.714296875
 31
0.0
  0
LINE
  5
4DF
  8
ﾚｲﾔ_1
 62
     5
 10
1279.4906770832999
 20
-97.714296875000016
 30
0.0
 11
1279.4906770832999
 21
-111.91429687500001
 31
0.0
  0
LINE
  5
4E0
  8
ﾚｲﾔ_1
 62
     5
 10
1287.6906770833
 20
91.066263109999994
 30
0.0
 11
1287.6906770833
 21
-6.9337368899999987
 31
0.0
  0
LINE
  5
4E1
  8
ﾚｲﾔ_1
 62
     5
 10
1278.6906770833
 20
2.0662631099999991
 30
0.0
 11
1278.6906770833
 21
82.066263109999994
 31
0.0
  0
LINE
  5
4E2
  8
ﾚｲﾔ_1
 62
     5
 10
1278.6906770833
 20
82.066263109999994
 30
0.0
 11
1201.6109895832999
 21
82.066263109999994
 31
0.0
  0
LINE
  5
4E3
  8
ﾚｲﾔ_1
 62
     5
 10
1201.6106770833001
 20
81.566263109999994
 30
0.0
 11
1277.6906770833
 21
81.566263109999994
 31
0.0
  0
LINE
  5
4E4
  8
ﾚｲﾔ_1
 62
     5
 10
1277.6906770833
 20
2.5662631099999991
 30
0.0
 11
1277.6906770833
 21
81.566263109999994
 31
0.0
  0
LINE
  5
4E5
  8
ﾚｲﾔ_1
  6
BORDER
 62
     3
 10
1196.6106770833001
 20
96.066263109999994
 30
0.0
 11
1196.6106770833001
 21
-11.93373689
 31
0.0
  0
LINE
  5
4E6
  8
ﾚｲﾔ_1
  6
BORDER
 62
     3
 10
1201.6106770833001
 20
96.066263109999994
 30
0.0
 11
1201.6106770833001
 21
-11.93373689
 31
0.0
  0
INSERT
  5
4E8
  8
ﾚｲﾔ_1
  2
CLUMP25
 10
0.0
 20
0.0
 30
0.0
  0
LINE
  5
4EF
  8
ﾚｲﾔ_1
  6
BORDER
 62
     3
 10
1169.1102124531999
 20
-262.4297883081
 30
0.0
 11
1194.1102124531999
 21
-262.4297883081
 31
0.0
  0
LINE
  5
4F0
  8
ﾚｲﾔ_1
 62
     5
 10
1227.3165515431001
 20
-224.4297883081
 30
0.0
 11
1248.8165515431001
 21
-224.4297883081
 31
0.0
  0
LINE
  5
4F1
  8
ﾚｲﾔ_1
 62
     5
 10
1227.3165515431001
 20
-222.9297883081
 30
0.0
 11
1248.8165515431001
 21
-222.9297883081
 31
0.0
  0
LINE
  5
4F2
  8
ﾚｲﾔ_1
 62
     5
 10
1189.1102124531999
 20
-222.9297883081
 30
0.0
 11
1189.1102124531999
 21
-224.4297883081
 31
0.0
  0
LINE
  5
4F3
  8
ﾚｲﾔ_1
 62
     5
 10
1176.6102124531999
 20
-222.9297883081
 30
0.0
 11
1189.1102124531999
 21
-222.9297883081
 31
0.0
  0
LINE
  5
4F4
  8
ﾚｲﾔ_1
 62
     5
 10
1176.6102124531999
 20
-224.4297883081
 30
0.0
 11
1189.1102124531999
 21
-224.4297883081
 31
0.0
  0
ARC
  5
4F5
  8
ﾚｲﾔ_1
 62
     5
 10
1176.6102124531999
 20
-224.4297883081
 30
0.0
 40
1.5
 50
90.0
 51
179.99997896209999
  0
LINE
  5
4F6
  8
ﾚｲﾔ_1
 62
     5
 10
1248.8165515431001
 20
-222.9297883081
 30
0.0
 11
1248.8165515431001
 21
-224.4297883081
 31
0.0
  0
ARC
  5
4F7
  8
ﾚｲﾔ_1
 62
     5
 10
1227.3165515431001
 20
-224.4297883081
 30
0.0
 40
1.5
 50
90.0
 51
180.0
  0
LINE
  5
4F8
  8
ﾚｲﾔ_1
 62
     5
 10
1287.6906770833
 20
-106.714296875
 30
0.0
 11
1286.8906770833
 21
-106.714296875
 31
0.0
  0
LINE
  5
4F9
  8
ﾚｲﾔ_1
 62
     5
 10
1286.8906770833
 20
-106.714296875
 30
0.0
 11
1286.8906770833
 21
-111.91429687500001
 31
0.0
  0
LINE
  5
4FA
  8
ﾚｲﾔ_1
 62
     5
 10
1280.2906770832999
 20
-112.714296875
 30
0.0
 11
1286.8906770833
 21
-112.714296875
 31
0.0
  0
LINE
  5
4FB
  8
ﾚｲﾔ_1
 62
     5
 10
1280.2906770832999
 20
-112.714296875
 30
0.0
 11
1272.9906770832999
 21
-112.714296875
 31
0.0
  0
ARC
  5
4FC
  8
ﾚｲﾔ_1
 62
     5
 10
1279.4906770832999
 20
-111.91429687500001
 30
0.0
 40
0.8
 50
180.0
 51
270.0
  0
LINE
  5
4FD
  8
ﾚｲﾔ_1
 62
     5
 10
1272.9906770832999
 20
-112.714296875
 30
0.0
 11
1201.6106770833001
 21
-112.714296875
 31
0.0
  0
ARC
  5
4FE
  8
ﾚｲﾔ_1
 62
     5
 10
1286.8906770833
 20
-111.91429687500001
 30
0.0
 40
0.8
 50
270.0
 51
0.0
  0
LINE
  5
4FF
  8
ﾚｲﾔ_1
 62
     5
 10
1287.6906770833
 20
-111.91429687500001
 30
0.0
 11
1287.6906770833
 21
-106.714296875
 31
0.0
  0
LINE
  5
500
  8
ﾚｲﾔ_1
 62
     5
 10
1279.4906770832999
 20
-111.91429687500001
 30
0.0
 11
1286.8906770833
 21
-111.91429687500001
 31
0.0
  0
LINE
  5
501
  8
ﾚｲﾔ_1
 62
     5
 10
1279.4906770832999
 20
-83.514296874999985
 30
0.0
 11
1286.8906770833
 21
-83.514296874999985
 31
0.0
  0
ARC
  5
502
  8
ﾚｲﾔ_1
 62
     5
 10
1272.9406770833
 20
-92.714296875000016
 30
0.0
 40
5.0
 50
270.0
 51
0.0
  0
LINE
  5
503
  8
ﾚｲﾔ_1
 62
     5
 10
1272.9406770833
 20
-97.714296875000016
 30
0.0
 11
1201.6106770833001
 21
-97.714296875000016
 31
0.0
  0
LINE
  5
504
  8
ﾚｲﾔ_1
 62
     5
 10
1277.9406770833
 20
-86.214296875000002
 30
0.0
 11
1277.9406770833
 21
-92.714296875000016
 31
0.0
  0
LINE
  5
505
  8
ﾚｲﾔ_1
 62
     5
 10
1279.4906770832999
 20
-82.714296875000016
 30
0.0
 11
1201.6106770833001
 21
-82.714296875000016
 31
0.0
  0
LINE
  5
506
  8
ﾚｲﾔ_1
 62
     5
 10
1275.4406770833
 20
-85.714296875000002
 30
0.0
 11
1201.6106770833001
 21
-85.714296875000002
 31
0.0
  0
LINE
  5
507
  8
ﾚｲﾔ_1
 62
     5
 10
1201.6106770833001
 20
-83.714296875000002
 30
0.0
 11
1275.4406770833
 21
-83.714296875000002
 31
0.0
  0
LINE
  5
508
  8
ﾚｲﾔ_1
 62
     5
 10
915.51067708330004
 20
45.566263110000001
 30
0.0
 11
900.51067708330004
 21
45.566263110000001
 31
0.0
  0
LINE
  5
509
  8
ﾚｲﾔ_1
 62
     5
 10
967.51067708330004
 20
38.566263110000001
 30
0.0
 11
982.51067708330004
 21
38.566263110000001
 31
0.0
  0
LINE
  5
50A
  8
ﾚｲﾔ_1
 62
     5
 10
982.51067708330004
 20
45.566263110000001
 30
0.0
 11
967.51067708330004
 21
45.566263110000001
 31
0.0
  0
ARC
  5
50B
  8
ﾚｲﾔ_1
 62
     5
 10
967.51067708330004
 20
42.066263109999987
 30
0.0
 40
3.5
 50
90.0
 51
270.0
  0
LINE
  5
50C
  8
ﾚｲﾔ_1
 62
     5
 10
1049.5106770832999
 20
45.566263110000001
 30
0.0
 11
1034.5106770832999
 21
45.566263110000001
 31
0.0
  0
ARC
  5
50D
  8
ﾚｲﾔ_1
 62
     5
 10
1034.5106770832999
 20
42.066263109999987
 30
0.0
 40
3.5
 50
90.0
 51
270.0
  0
ARC
  5
50E
  8
ﾚｲﾔ_1
 62
     5
 10
982.51067708330004
 20
42.066263109999987
 30
0.0
 40
3.5
 50
270.0
 51
90.0
  0
INSERT
  5
510
  8
ﾚｲﾔ_1
  2
CLUMP26
 10
0.0
 20
0.0
 30
0.0
  0
INSERT
  5
518
  8
ﾚｲﾔ_1
  2
CLUMP27
 10
0.0
 20
0.0
 30
0.0
  0
ARC
  5
51F
  8
ﾚｲﾔ_1
 62
     5
 10
915.51067708330004
 20
42.066263109999987
 30
0.0
 40
3.5
 50
270.0
 51
90.0
  0
LINE
  5
520
  8
ﾚｲﾔ_1
 62
     5
 10
900.51067708330004
 20
38.566263110000001
 30
0.0
 11
915.51067708330004
 21
38.566263110000001
 31
0.0
  0
LINE
  5
521
  8
ﾚｲﾔ_1
 62
     5
 10
1102.6106770833001
 20
2.5662631099999991
 30
0.0
 11
1102.6106770833001
 21
81.566263109999994
 31
0.0
  0
LINE
  5
522
  8
ﾚｲﾔ_1
  6
BORDER
 62
     3
 10
1075.5106770832999
 20
54.566263110000001
 30
0.0
 11
1075.5106770832999
 21
29.566263110000001
 31
0.0
  0
CIRCLE
  5
523
  8
ﾚｲﾔ_1
 62
     5
 10
1075.5106770832999
 20
42.066263109999987
 30
0.0
 40
7.5
  0
INSERT
  5
525
  8
ﾚｲﾔ_1
  2
CLUMP28
 10
0.0
 20
0.0
 30
0.0
  0
INSERT
  5
52D
  8
ﾚｲﾔ_1
  2
CLUMP29
 10
0.0
 20
0.0
 30
0.0
  0
LINE
  5
534
  8
ﾚｲﾔ_1
  6
BORDER
 62
     3
 10
1218.8165515431001
 20
-262.4297883081
 30
0.0
 11
1253.8165515431001
 21
-262.4297883081
 31
0.0
  0
LINE
  5
535
  8
ﾚｲﾔ_1
 62
     5
 10
1189.1102124531999
 20
-300.4297883081
 30
0.0
 11
1189.1102124531999
 21
-301.9297883081
 31
0.0
  0
ARC
  5
536
  8
ﾚｲﾔ_1
 62
     5
 10
1176.6102124531999
 20
-300.4297883081
 30
0.0
 40
1.5
 50
180.0
 51
270.0
  0
LINE
  5
537
  8
ﾚｲﾔ_1
 62
     5
 10
1176.6102124531999
 20
-300.4297883081
 30
0.0
 11
1189.1102124531999
 21
-300.4297883081
 31
0.0
  0
LINE
  5
538
  8
ﾚｲﾔ_1
 62
     5
 10
1176.6102124531999
 20
-301.9297883081
 30
0.0
 11
1189.1102124531999
 21
-301.9297883081
 31
0.0
  0
LINE
  5
539
  8
ﾚｲﾔ_1
 62
     5
 10
1248.8165515431001
 20
-300.4297883081
 30
0.0
 11
1248.8165515431001
 21
-301.9297883081
 31
0.0
  0
LINE
  5
53A
  8
ﾚｲﾔ_1
 62
     5
 10
1227.3165515431001
 20
-301.9297883081
 30
0.0
 11
1248.8165515431001
 21
-301.9297883081
 31
0.0
  0
ARC
  5
53B
  8
ﾚｲﾔ_1
 62
     5
 10
1227.3165515431001
 20
-300.4297883081
 30
0.0
 40
1.5
 50
180.0
 51
270.0
  0
LINE
  5
53C
  8
ﾚｲﾔ_1
 62
     5
 10
1227.3165515431001
 20
-300.4297883081
 30
0.0
 11
1248.8165515431001
 21
-300.4297883081
 31
0.0
  0
LINE
  5
53D
  8
ﾚｲﾔ_1
 10
720.61064399860004
 20
-111.91429687500001
 30
0.0
 11
704.41067708330002
 21
-111.91429687500001
 31
0.0
  0
LINE
  5
53E
  8
ﾚｲﾔ_1
 10
703.61067708330006
 20
-88.714296875000002
 30
0.0
 11
703.61067708330006
 21
-83.514296874999985
 31
0.0
  0
ARC
  5
53F
  8
ﾚｲﾔ_1
 10
704.41067708330002
 20
-83.514296874999985
 30
0.0
 40
0.8
 50
90.0
 51
180.0
  0
INSERT
  5
541
  8
ﾚｲﾔ_1
  2
CLUMP30
 10
0.0
 20
0.0
 30
0.0
  0
INSERT
  5
549
  8
ﾚｲﾔ_1
  2
CLUMP31
 10
0.0
 20
0.0
 30
0.0
  0
CIRCLE
  5
550
  8
ﾚｲﾔ_1
 62
     5
 10
740.51067708330004
 20
42.066263109999987
 30
0.0
 40
7.5
  0
INSERT
  5
552
  8
ﾚｲﾔ_1
  2
CLUMP32
 10
0.0
 20
0.0
 30
0.0
  0
INSERT
  5
55A
  8
ﾚｲﾔ_1
  2
CLUMP33
 10
0.0
 20
0.0
 30
0.0
  0
ARC
  5
561
  8
ﾚｲﾔ_1
 62
     5
 10
781.51067708330004
 20
42.066263109999987
 30
0.0
 40
3.5
 50
270.0
 51
90.0
  0
LINE
  5
562
  8
ﾚｲﾔ_1
 62
     5
 10
766.51067708330004
 20
38.566263110000001
 30
0.0
 11
781.51067708330004
 21
38.566263110000001
 31
0.0
  0
LINE
  5
563
  8
ﾚｲﾔ_1
 62
     5
 10
781.51067708330004
 20
45.566263110000001
 30
0.0
 11
766.51067708330004
 21
45.566263110000001
 31
0.0
  0
ARC
  5
564
  8
ﾚｲﾔ_1
 62
     5
 10
766.51067708330004
 20
42.066263109999987
 30
0.0
 40
3.5
 50
90.0
 51
270.0
  0
LINE
  5
565
  8
ﾚｲﾔ_1
  6
BORDER
 62
     3
 10
740.51067708330004
 20
54.566263110000001
 30
0.0
 11
740.51067708330004
 21
29.566263110000001
 31
0.0
  0
LINE
  5
566
  8
ﾚｲﾔ_1
 62
     5
 10
713.61067708329995
 20
2.5662631099999991
 30
0.0
 11
713.61067708329995
 21
81.566263109999994
 31
0.0
  0
LINE
  5
567
  8
ﾚｲﾔ_1
 62
     5
 10
703.61067708330006
 20
91.066263109999994
 30
0.0
 11
703.61067708330006
 21
-6.9337368899999987
 31
0.0
  0
LINE
  5
568
  8
ﾚｲﾔ_1
 62
     5
 10
712.61067708330006
 20
2.0662631099999991
 30
0.0
 11
712.61067708330006
 21
82.066263109999994
 31
0.0
  0
ARC
  5
569
  8
ﾚｲﾔ_1
 62
     5
 10
848.51067708330015
 20
42.066263109999987
 30
0.0
 40
3.5
 50
270.0
 51
90.0
  0
LINE
  5
56A
  8
ﾚｲﾔ_1
 62
     5
 10
833.51067708330004
 20
38.566263110000001
 30
0.0
 11
848.51067708330015
 21
38.566263110000001
 31
0.0
  0
LINE
  5
56B
  8
ﾚｲﾔ_1
 62
     5
 10
848.51067708330015
 20
45.566263110000001
 30
0.0
 11
833.51067708330004
 21
45.566263110000001
 31
0.0
  0
ARC
  5
56C
  8
ﾚｲﾔ_1
 62
     5
 10
833.51067708330004
 20
42.066263109999987
 30
0.0
 40
3.5
 50
90.0
 51
270.0
  0
ARC
  5
56D
  8
ﾚｲﾔ_1
 62
     5
 10
1049.5106770832999
 20
42.066263109999987
 30
0.0
 40
3.5
 50
270.0
 51
90.0
  0
ARC
  5
56E
  8
ﾚｲﾔ_1
 62
     5
 10
900.51067708330004
 20
42.066263109999987
 30
0.0
 40
3.5
 50
90.0
 51
270.0
  0
INSERT
  5
570
  8
ﾚｲﾔ_1
  2
CLUMP34
 10
0.0
 20
0.0
 30
0.0
  0
INSERT
  5
578
  8
ﾚｲﾔ_1
  2
CLUMP35
 10
0.0
 20
0.0
 30
0.0
  0
LINE
  5
57F
  8
ﾚｲﾔ_1
 62
     5
 10
1034.5106770832999
 20
38.566263110000001
 30
0.0
 11
1049.5106770832999
 21
38.566263110000001
 31
0.0
  0
LINE
  5
580
  8
ﾚｲﾔ_1
 62
     5
 10
713.61067708329995
 20
-301.9297883081
 30
0.0
 11
1102.6106770833001
 21
-301.9297883081
 31
0.0
  0
LINE
  5
581
  8
ﾚｲﾔ_1
  6
STITCH
 10
713.61067708329995
 20
-300.4297883081
 30
0.0
 11
1102.6106770833001
 21
-300.4297883081
 31
0.0
  0
LINE
  5
582
  8
ﾚｲﾔ_1
  6
STITCH
 10
713.61067708329995
 20
-224.4297883081
 30
0.0
 11
1102.6106770833001
 21
-224.4297883081
 31
0.0
  0
LINE
  5
583
  8
ﾚｲﾔ_1
 62
     5
 10
713.61067708329995
 20
-222.9297883081
 30
0.0
 11
1102.6106770833001
 21
-222.9297883081
 31
0.0
  0
LINE
  5
584
  8
ﾚｲﾔ_1
 10
821.17376811760005
 20
-216.4418936612
 30
0.0
 11
874.55045323130014
 21
-216.4418936612
 31
0.0
  0
LINE
  5
585
  8
ﾚｲﾔ_1
 62
     5
 10
703.61067708330006
 20
91.066263109999994
 30
0.0
 11
1102.6106770833001
 21
91.066263109999994
 31
0.0
  0
LINE
  5
586
  8
ﾚｲﾔ_1
 62
     5
 10
703.61067708330006
 20
-6.9337368899999987
 30
0.0
 11
1102.6106770833001
 21
-6.9337368899999987
 31
0.0
  0
LINE
  5
587
  8
ﾚｲﾔ_1
 62
     5
 10
712.61067708330006
 20
82.066263109999994
 30
0.0
 11
1102.6106770833001
 21
82.066263109999994
 31
0.0
  0
LINE
  5
588
  8
ﾚｲﾔ_1
 62
     5
 10
712.61067708330006
 20
2.0662631099999991
 30
0.0
 11
1102.6106770833001
 21
2.0662631099999991
 31
0.0
  0
INSERT
  5
58A
  8
ﾚｲﾔ_1
  2
CLUMP36
 10
0.0
 20
0.0
 30
0.0
  0
INSERT
  5
592
  8
ﾚｲﾔ_1
  2
CLUMP37
 10
0.0
 20
0.0
 30
0.0
  0
LINE
  5
599
  8
ﾚｲﾔ_1
  6
BORDER
 62
     3
 10
1364.2676757813001
 20
42.066263109999987
 30
0.0
 11
1404.2676757813001
 21
42.066263109999987
 31
0.0
  0
LINE
  5
59A
  8
ﾚｲﾔ_1
 62
     5
 10
713.61067708329995
 20
-359.62269531250001
 30
0.0
 11
713.61067708329995
 21
-368.62269531250001
 31
0.0
  0
ARC
  5
59B
  8
ﾚｲﾔ_1
 62
     5
 10
718.61067708329995
 20
-368.62269531250001
 30
0.0
 40
5.0
 50
180.0
 51
269.99999957839998
  0
LINE
  5
59C
  8
ﾚｲﾔ_1
 62
     5
 10
1102.6106770833001
 20
-359.62269531250001
 30
0.0
 11
1102.6106770833001
 21
-368.62269531250001
 31
0.0
  0
ARC
  5
59D
  8
ﾚｲﾔ_1
 62
     5
 10
1097.6106770833001
 20
-368.62269531250001
 30
0.0
 40
5.0
 50
269.99999715709998
 51
0.0
  0
LINE
  5
59E
  8
ﾚｲﾔ_1
  6
BORDER
 62
     3
 10
908.11067708330006
 20
-354.62269531250001
 30
0.0
 11
908.11067708330006
 21
-378.62269531250001
 31
0.0
  0
LINE
  5
59F
  8
ﾚｲﾔ_1
 10
719.81067708329999
 20
-88.714296875000002
 30
0.0
 11
719.81067708329999
 21
-111.91429687500001
 31
0.0
  0
LINE
  5
5A0
  8
ﾚｲﾔ_1
 10
711.81067708329999
 20
-88.714296875000002
 30
0.0
 11
711.81067708329999
 21
-111.91429687500001
 31
0.0
  0
LINE
  5
5A1
  8
ﾚｲﾔ_1
 10
720.61064399860004
 20
-106.714296875
 30
0.0
 11
720.61064399860004
 21
-112.714296875
 31
0.0
  0
LINE
  5
5A2
  8
ﾚｲﾔ_1
 10
704.41067708330002
 20
-106.714296875
 30
0.0
 11
703.61067708330006
 21
-106.714296875
 31
0.0
  0
LINE
  5
5A3
  8
ﾚｲﾔ_1
 10
704.41067708330002
 20
-111.91429687500001
 30
0.0
 11
704.41067708330002
 21
-106.714296875
 31
0.0
  0
LINE
  5
5A4
  8
ﾚｲﾔ_1
 10
703.61067708330006
 20
-111.91429687500001
 30
0.0
 11
703.61067708330006
 21
-106.714296875
 31
0.0
  0
ARC
  5
5A5
  8
ﾚｲﾔ_1
 10
704.41067708330002
 20
-111.91429687500001
 30
0.0
 40
0.8
 50
180.0
 51
270.0
  0
ARC
  5
5A6
  8
ﾚｲﾔ_1
 10
711.81067708329999
 20
-111.91429687500001
 30
0.0
 40
0.8
 50
270.0
 51
0.0
  0
LINE
  5
5A7
  8
ﾚｲﾔ_1
 10
1196.6106770833001
 20
-112.714296875
 30
0.0
 11
704.41067708330002
 21
-112.714296875
 31
0.0
  0
LINE
  5
5A8
  8
ﾚｲﾔ_1
 10
720.61064399860004
 20
-106.714296875
 30
0.0
 11
1196.6106770833001
 21
-106.714296875
 31
0.0
  0
LINE
  5
5A9
  8
ﾚｲﾔ_1
 10
1196.6106770833001
 20
-98.514296875000014
 30
0.0
 11
719.81067708329999
 21
-98.514296875000014
 31
0.0
  0
LINE
  5
5AA
  8
ﾚｲﾔ_1
 10
703.61067708330006
 20
-88.714296875000002
 30
0.0
 11
1196.6106770833001
 21
-88.714296875000002
 31
0.0
  0
LINE
  5
5AB
  8
ﾚｲﾔ_1
 10
704.41067708330002
 20
-82.714296875000016
 30
0.0
 11
1196.6106770833001
 21
-82.714296875000016
 31
0.0
  0
LINE
  5
5AC
  8
ﾚｲﾔ_1
 62
     5
 10
713.61067708329995
 20
81.566263109999994
 30
0.0
 11
1196.6106770833001
 21
81.566263109999994
 31
0.0
  0
LINE
  5
5AD
  8
ﾚｲﾔ_1
 62
     5
 10
713.61067708329995
 20
2.5662631099999991
 30
0.0
 11
1196.6106770833001
 21
2.5662631099999991
 31
0.0
  0
LINE
  5
5AE
  8
ﾚｲﾔ_1
  6
STITCH
 10
713.61067708329995
 20
4.0662631100000004
 30
0.0
 11
1196.6106770833001
 21
4.0662631100000004
 31
0.0
  0
LINE
  5
5AF
  8
ﾚｲﾔ_1
  6
STITCH
 10
713.61067708329995
 20
80.066263109999994
 30
0.0
 11
1196.6106770833001
 21
80.066263109999994
 31
0.0
  0
LINE
  5
5B0
  8
ﾚｲﾔ_1
  6
BORDER
 62
     3
 10
698.61067708329995
 20
42.066263109999987
 30
0.0
 11
1292.6906770833
 21
42.066263109999987
 31
0.0
  0
LINE
  5
5B1
  8
ﾚｲﾔ_1
 62
     5
 10
1196.6106770833001
 20
82.066263109999994
 30
0.0
 11
1102.6106770833001
 21
82.066263109999994
 31
0.0
  0
LINE
  5
5B2
  8
ﾚｲﾔ_1
 62
     5
 10
1196.6106770833001
 20
2.0662631099999991
 30
0.0
 11
1102.6106770833001
 21
2.0662631099999991
 31
0.0
  0
LINE
  5
5B3
  8
ﾚｲﾔ_1
 62
     5
 10
1196.6106770833001
 20
-6.9337368899999987
 30
0.0
 11
1102.6106770833001
 21
-6.9337368899999987
 31
0.0
  0
LINE
  5
5B4
  8
ﾚｲﾔ_1
 62
     5
 10
1196.6106770833001
 20
91.066263109999994
 30
0.0
 11
1102.6106770833001
 21
91.066263109999994
 31
0.0
  0
LINE
  5
5B5
  8
ﾚｲﾔ_1
 62
     5
 10
713.61067708329995
 20
-301.9297883081
 30
0.0
 11
713.61067708329995
 21
-222.9297883081
 31
0.0
  0
LINE
  5
5B6
  8
ﾚｲﾔ_1
 62
     5
 10
1102.6106770833001
 20
-301.9297883081
 30
0.0
 11
1102.6106770833001
 21
-222.9297883081
 31
0.0
  0
LINE
  5
5B7
  8
ﾚｲﾔ_1
  6
BORDER
 62
     3
 10
908.11067708330006
 20
-217.9297883081
 30
0.0
 11
908.11067708330006
 21
-306.9297883081
 31
0.0
  0
LINE
  5
5B8
  8
ﾚｲﾔ_1
 62
     5
 10
1176.6102124531999
 20
-224.4297883081
 30
0.0
 11
1176.6102124531999
 21
-300.4297883081
 31
0.0
  0
LINE
  5
5B9
  8
ﾚｲﾔ_1
 62
     5
 10
1175.1102124531999
 20
-224.42978775730001
 30
0.0
 11
1175.1102124531999
 21
-300.4297883081
 31
0.0
  0
LINE
  5
5BA
  8
ﾚｲﾔ_1
 62
     5
 10
1225.8165515431001
 20
-224.4297883081
 30
0.0
 11
1225.8165515431001
 21
-300.4297883081
 31
0.0
  0
LINE
  5
5BB
  8
ﾚｲﾔ_1
 62
     5
 10
1227.3165515431001
 20
-224.4297883081
 30
0.0
 11
1227.3165515431001
 21
-300.4297883081
 31
0.0
  0
LINE
  5
5BC
  8
ﾚｲﾔ_1
  6
BORDER
 62
     3
 10
708.61067708330006
 20
-262.4297883081
 30
0.0
 11
1107.6106770833001
 21
-262.4297883081
 31
0.0
  0
LINE
  5
5BD
  8
ﾚｲﾔ_1
 62
     5
 10
1097.6106768351999
 20
-373.62269531250001
 30
0.0
 11
718.61067704649986
 21
-373.62269531250001
 31
0.0
  0
LINE
  5
5BE
  8
ﾚｲﾔ_1
  6
STITCH
 10
713.61067708329995
 20
-361.12269531250001
 30
0.0
 11
1102.6106770833001
 21
-361.12269531250001
 31
0.0
  0
LINE
  5
5BF
  8
ﾚｲﾔ_1
 62
     5
 10
713.61067708329995
 20
-359.62269531250001
 30
0.0
 11
1102.6106770833001
 21
-359.62269531250001
 31
0.0
  0
ENDSEC
  0
EOF
