  0
SECTION
  2
HEADER
  9
$ACADVER
  1
AC1009
  9
$INSBASE
 10
0.0
 20
0.0
 30
0.0
  9
$EXTMIN
 10
641.54286458329989
 20
-405.37145833329998
 30
0.0
  9
$EXTMAX
 10
1461.4628645833
 20
171.5485416667
 30
0.0
  9
$LIMMIN
 10
0.0
 20
0.0
  9
$LIMMAX
 10
0.0
 20
0.0
  9
$ORTHOMODE
 70
     0
  9
$REGENMODE
 70
     1
  9
$FILLMODE
 70
     1
  9
$QTEXTMODE
 70
     0
  9
$MIRRTEXT
 70
     1
  9
$DRAGMODE
 70
     2
  9
$LTSCALE
 40
1.0
  9
$OSMODE
 70
    31
  9
$ATTMODE
 70
     1
  9
$TEXTSIZE
 40
0.0
  9
$TRACEWID
 40
0.05
  9
$TEXTSTYLE
  7
STANDARD
  9
$CLAYER
  8
0
  9
$CELTYPE
  6
CONTINUOUS
  9
$CECOLOR
 62
   256
  9
$DIMSCALE
 40
1.0
  9
$DIMASZ
 40
0.18
  9
$DIMEXO
 40
0.0625
  9
$DIMDLI
 40
0.38
  9
$DIMRND
 40
0.0
  9
$DIMDLE
 40
0.0
  9
$DIMEXE
 40
0.18
  9
$DIMTP
 40
0.0
  9
$DIMTM
 40
0.0
  9
$DIMTXT
 40
0.18
  9
$DIMCEN
 40
0.09
  9
$DIMTSZ
 40
0.0
  9
$DIMTOL
 70
     0
  9
$DIMLIM
 70
     0
  9
$DIMTIH
 70
     1
  9
$DIMTOH
 70
     1
  9
$DIMSE1
 70
     0
  9
$DIMSE2
 70
     0
  9
$DIMTAD
 70
     0
  9
$DIMZIN
 70
     0
  9
$DIMBLK
  1

  9
$DIMASO
 70
     1
  9
$DIMSHO
 70
     1
  9
$DIMPOST
  1

  9
$DIMAPOST
  1

  9
$DIMALT
 70
     0
  9
$DIMALTD
 70
     2
  9
$DIMALTF
 40
25.399999999999999
  9
$DIMLFAC
 40
1.0
  9
$DIMTOFL
 70
     0
  9
$DIMTVP
 40
0.0
  9
$DIMTIX
 70
     0
  9
$DIMSOXD
 70
     0
  9
$DIMSAH
 70
     0
  9
$DIMBLK1
  1

  9
$DIMBLK2
  1

  9
$DIMSTYLE
  2
STANDARD
  9
$DIMCLRD
 70
     0
  9
$DIMCLRE
 70
     0
  9
$DIMCLRT
 70
     0
  9
$DIMTFAC
 40
1.0
  9
$DIMGAP
 40
0.09
  9
$LUNITS
 70
     2
  9
$LUPREC
 70
     4
  9
$SKETCHINC
 40
0.1
  9
$FILLETRAD
 40
0.0
  9
$AUNITS
 70
     0
  9
$AUPREC
 70
     0
  9
$MENU
  1
acad
  9
$ELEVATION
 40
0.0
  9
$PELEVATION
 40
0.0
  9
$THICKNESS
 40
0.0
  9
$LIMCHECK
 70
     0
  9
$BLIPMODE
 70
     0
  9
$CHAMFERA
 40
0.0
  9
$CHAMFERB
 40
0.0
  9
$SKPOLY
 70
     0
  9
$TDCREATE
 40
2454859.7962941201
  9
$TDUPDATE
 40
2454859.7964941319
  9
$TDINDWG
 40
0.0002168403
  9
$TDUSRTIMER
 40
0.0002164699
  9
$USRTIMER
 70
     1
  9
$ANGBASE
 50
0.0
  9
$ANGDIR
 70
     0
  9
$PDMODE
 70
     3
  9
$PDSIZE
 40
-1.0
  9
$PLINEWID
 40
0.0
  9
$COORDS
 70
     2
  9
$SPLFRAME
 70
     0
  9
$SPLINETYPE
 70
     6
  9
$SPLINESEGS
 70
     8
  9
$ATTDIA
 70
     0
  9
$ATTREQ
 70
     1
  9
$HANDLING
 70
     1
  9
$HANDSEED
  5
8FB
  9
$SURFTAB1
 70
     6
  9
$SURFTAB2
 70
     6
  9
$SURFTYPE
 70
     6
  9
$SURFU
 70
     6
  9
$SURFV
 70
     6
  9
$UCSNAME
  2

  9
$UCSORG
 10
0.0
 20
0.0
 30
0.0
  9
$UCSXDIR
 10
1.0
 20
0.0
 30
0.0
  9
$UCSYDIR
 10
0.0
 20
1.0
 30
0.0
  9
$PUCSNAME
  2

  9
$PUCSORG
 10
0.0
 20
0.0
 30
0.0
  9
$PUCSXDIR
 10
1.0
 20
0.0
 30
0.0
  9
$PUCSYDIR
 10
0.0
 20
1.0
 30
0.0
  9
$USERI1
 70
     0
  9
$USERI2
 70
     0
  9
$USERI3
 70
     0
  9
$USERI4
 70
     0
  9
$USERI5
 70
     0
  9
$USERR1
 40
0.0
  9
$USERR2
 40
0.0
  9
$USERR3
 40
0.0
  9
$USERR4
 40
0.0
  9
$USERR5
 40
0.0
  9
$WORLDVIEW
 70
     1
  9
$SHADEDGE
 70
     3
  9
$SHADEDIF
 70
    70
  9
$TILEMODE
 70
     1
  9
$MAXACTVP
 70
    16
  9
$PLIMCHECK
 70
     0
  9
$PEXTMIN
 10
1.0000000000000000E+020
 20
1.0000000000000000E+020
 30
1.0000000000000000E+020
  9
$PEXTMAX
 10
-1.0000000000000000E+020
 20
-1.0000000000000000E+020
 30
-1.0000000000000000E+020
  9
$PLIMMIN
 10
0.0
 20
0.0
  9
$PLIMMAX
 10
12.0
 20
9.0
  9
$UNITMODE
 70
     0
  9
$VISRETAIN
 70
     0
  9
$PLINEGEN
 70
     1
  9
$PSLTSCALE
 70
     0
  0
ENDSEC
  0
SECTION
  2
TABLES
  0
TABLE
  2
VPORT
 70
     2
  0
VPORT
  2
*ACTIVE
 70
     0
 10
0.0
 20
0.0
 11
1.0
 21
1.0
 12
1051.5028645832999
 22
-116.9114583333
 13
0.0
 23
0.0
 14
1.0
 24
1.0
 15
0.0
 25
0.0
 16
0.0
 26
0.0
 36
1.0
 17
0.0
 27
0.0
 37
0.0
 40
581.70771784232375
 41
1.6343490304709141
 42
50.0
 43
0.0
 44
0.0
 50
0.0
 51
0.0
 71
     0
 72
   100
 73
     1
 74
     1
 75
     0
 76
     0
 77
     0
 78
     0
  0
ENDTAB
  0
TABLE
  2
LTYPE
 70
    11
  0
LTYPE
  2
CONTINUOUS
 70
     0
  3
Solid line
 72
    65
 73
     0
 40
0.0
  0
LTYPE
  2
DOT
 70
     0
  3
. . . . . . . . 
 72
    65
 73
     2
 40
1.0
 49
0.0
 49
-1.0
  0
LTYPE
  2
DASHED
 70
     0
  3
___  ___  ___  ___  
 72
    65
 73
     2
 40
4.0
 49
3.0
 49
-1.0
  0
LTYPE
  2
HIDDEN
 70
     0
  3
__ __ __ __ 
 72
    65
 73
     2
 40
3.0
 49
2.0
 49
-1.0
  0
LTYPE
  2
STITCH
 70
     0
  3
_ _ _ _ 
 72
    65
 73
     2
 40
2.0
 49
1.0
 49
-1.0
  0
LTYPE
  2
CENTER
 70
     0
  3
______  __  ______  __  
 72
    65
 73
     4
 40
43.0
 49
40.0
 49
-1.0
 49
1.0
 49
-1.0
  0
LTYPE
  2
DASHDOT
 70
     0
  3
____ . ____ . 
 72
    65
 73
     4
 40
32.0
 49
30.0
 49
-1.0
 49
0.0
 49
-1.0
  0
LTYPE
  2
BORDER
 70
     0
  3
__ . __ . 
 72
    65
 73
     4
 40
22.0
 49
20.0
 49
-1.0
 49
0.0
 49
-1.0
  0
LTYPE
  2
CUTTING
 70
     0
  3
________   ___   ___   
 72
    65
 73
     6
 40
45.0
 49
40.0
 49
-1.0
 49
1.0
 49
-1.0
 49
1.0
 49
-1.0
  0
LTYPE
  2
PHANTOM
 70
     0
  3
______  __  __  
 72
    65
 73
     6
 40
35.0
 49
30.0
 49
-1.0
 49
1.0
 49
-1.0
 49
1.0
 49
-1.0
  0
LTYPE
  2
DIVIDE
 70
     0
  3
____ . . ____ . . 
 72
    65
 73
     6
 40
23.0
 49
20.0
 49
-1.0
 49
0.0
 49
-1.0
 49
0.0
 49
-1.0
  0
ENDTAB
  0
TABLE
  2
LAYER
 70
     5
  0
LAYER
  2
0
 70
     0
 62
     7
  6
CONTINUOUS
  0
LAYER
  2
図枠
 70
     0
 62
     7
  6
CONTINUOUS
  0
LAYER
  2
改訂
 70
     0
 62
     7
  6
CONTINUOUS
  0
LAYER
  2
ﾚｲﾔ_1
 70
     0
 62
     7
  6
CONTINUOUS
  0
LAYER
  2
寸法線
 70
     0
 62
     7
  6
CONTINUOUS
  0
ENDTAB
  0
TABLE
  2
STYLE
 70
     1
  0
STYLE
  2
STANDARD
 70
     0
 40
0.0
 41
1.0
 50
0.0
 71
     0
 42
0.0
  3
txt
  4
extfont
  0
ENDTAB
  0
TABLE
  2
VIEW
 70
     0
  0
ENDTAB
  0
TABLE
  2
UCS
 70
     0
  0
ENDTAB
  0
TABLE
  2
APPID
 70
     2
  0
APPID
  2
ACAD
 70
     0
  0
APPID
  2
DCO15
 70
     0
  0
ENDTAB
  0
TABLE
  2
DIMSTYLE
 70
     3
  0
DIMSTYLE
  2
STANDARD
 70
     0
  3

  4

  5

  6

  7

 40
1.0
 41
0.18
 42
0.0625
 43
0.38
 44
0.18
 45
0.0
 46
0.0
 47
0.0
 48
0.0
140
0.18
141
0.09
142
0.0
143
25.399999999999999
144
1.0
145
0.0
146
1.0
147
0.09
 71
     0
 72
     0
 73
     1
 74
     1
 75
     0
 76
     0
 77
     0
 78
     0
170
     0
171
     2
172
     0
173
     0
174
     0
175
     0
176
     0
177
     0
178
     0
  0
DIMSTYLE
  2
VELDIM0
 70
     0
  3

  4

  5

  6

  7

 40
1.0
 41
6.0
 42
0.0625
 43
0.38
 44
1.0
 45
0.0
 46
5.0
 47
0.0
 48
0.0
140
7.1966662884000003
141
0.09
142
0.0
143
25.399999999999999
144
1.0
145
0.0
146
1.0
147
0.09
 71
     0
 72
     0
 73
     0
 74
     0
 75
     0
 76
     0
 77
     0
 78
     8
170
     0
171
     2
172
     0
173
     0
174
     0
175
     0
176
     0
177
     0
178
     0
  0
DIMSTYLE
  2
VELDIM1
 70
     0
  3

  4

  5

  6

  7

 40
1.0
 41
6.0
 42
0.0625
 43
0.38
 44
1.25
 45
0.0
 46
5.0
 47
0.0
 48
0.0
140
7.1966662884000003
141
0.09
142
0.0
143
25.399999999999999
144
1.0
145
0.0
146
1.0
147
0.09
 71
     0
 72
     0
 73
     0
 74
     0
 75
     0
 76
     0
 77
     0
 78
     8
170
     0
171
     2
172
     0
173
     0
174
     0
175
     0
176
     0
177
     0
178
     0
  0
ENDTAB
  0
ENDSEC
  0
SECTION
  2
BLOCKS
  0
BLOCK
  8
0
  2
$MODEL_SPACE
 70
     0
 10
0.0
 20
0.0
 30
0.0
  3
$MODEL_SPACE
  1

  0
ENDBLK
  5
E
  8
0
  0
BLOCK
 67
     1
  8
0
  2
$PAPER_SPACE
 70
     0
 10
0.0
 20
0.0
 30
0.0
  3
$PAPER_SPACE
  1

  0
ENDBLK
  5
10
 67
     1
  8
0
  0
BLOCK
  8
0
  2
CLUMP0
 70
     0
 10
0.0
 20
0.0
 30
0.0
  3
CLUMP0
  1

  0
LINE
  5
33
  8
図枠
 10
1278.1453696811
 20
-381.75811239960001
 30
0.0
 11
1280.1453696811
 21
-378.75811239960001
 31
0.0
  0
LINE
  5
34
  8
図枠
 10
1248.8241575599
 20
-378.75811239960001
 30
0.0
 11
1248.8241575599
 21
-382.75811239960001
 31
0.0
  0
LINE
  5
35
  8
図枠
 10
1296.2782168481001
 20
-385.75811239960001
 30
0.0
 11
1302.5803349777
 21
-385.75811239960001
 31
0.0
  0
LINE
  5
36
  8
図枠
 10
1262.1453696811
 20
-392.75811239960001
 30
0.0
 11
1267.1453696811
 21
-392.75811239960001
 31
0.0
  0
LINE
  5
37
  8
図枠
 10
1262.1453696811
 20
-383.4023329344999
 30
0.0
 11
1270.1453696811
 21
-383.4023329344999
 31
0.0
  0
INSERT
  5
38
  8
0
  6
CONTINUOUS
  2
*U96
 10
0.0
 20
0.0
 30
0.0
  0
LINE
  5
39
  8
図枠
 62
     5
 10
1311.5028645832999
 20
133.0885416667
 30
0.0
 11
1311.5028645832999
 21
163.0885416667
 31
0.0
  0
LINE
  5
3A
  8
図枠
 62
     5
 10
1411.5028645832999
 20
133.0885416667
 30
0.0
 11
1411.5028645832999
 21
163.0885416667
 31
0.0
  0
LINE
  5
3B
  8
図枠
 62
     5
 10
1279.5028645832999
 20
133.0885416667
 30
0.0
 11
1279.5028645832999
 21
163.0885416667
 31
0.0
  0
LINE
  5
3C
  8
図枠
 62
     5
 10
1265.9842938111999
 20
143.9501251687
 30
0.0
 11
1275.8842938112
 21
143.9501251687
 31
0.0
  0
LINE
  5
3D
  8
図枠
 62
     5
 10
1270.9342938112
 20
142.62377666610001
 30
0.0
 11
1275.8842938112
 21
134.05012516869999
 31
0.0
  0
LINE
  5
3E
  8
図枠
 62
     5
 10
1263.5028645832999
 20
133.0885416667
 30
0.0
 11
1263.5028645832999
 21
163.0885416667
 31
0.0
  0
LINE
  5
3F
  8
図枠
 62
     5
 10
1431.5028645832999
 20
133.0885416667
 30
0.0
 11
1431.5028645832999
 21
163.0885416667
 31
0.0
  0
LINE
  5
40
  8
図枠
 62
     5
 10
1263.5028645832999
 20
153.0885416667
 30
0.0
 11
1451.5028645832999
 21
153.0885416667
 31
0.0
  0
LINE
  5
41
  8
図枠
 62
     5
 10
1263.5028645832999
 20
143.0885416667
 30
0.0
 11
1451.5028645832999
 21
143.0885416667
 31
0.0
  0
LINE
  5
42
  8
図枠
 62
     5
 10
1263.5028645832999
 20
133.0885416667
 30
0.0
 11
1451.5028645832999
 21
133.0885416667
 31
0.0
  0
INSERT
  5
43
  8
0
  6
CONTINUOUS
  2
*U97
 10
0.0
 20
0.0
 30
0.0
  0
LINE
  5
44
  8
図枠
 62
     5
 10
651.50286458330004
 20
-396.9114583333
 30
0.0
 11
651.50286458330004
 21
163.0885416667
 31
0.0
  0
LINE
  5
45
  8
図枠
 62
     5
 10
651.50286458330004
 20
-396.9114583333
 30
0.0
 11
1451.5028645832999
 21
-396.9114583333
 31
0.0
  0
LINE
  5
46
  8
図枠
 62
     5
 10
1451.5028645832999
 20
163.0885416667
 30
0.0
 11
651.50286458330004
 21
163.0885416667
 31
0.0
  0
LINE
  5
47
  8
図枠
 62
     5
 10
1451.5028645832999
 20
-396.9114583333
 30
0.0
 11
1451.5028645832999
 21
163.0885416667
 31
0.0
  0
LINE
  5
48
  8
図枠
 10
1262.1453696811
 20
-384.0465534695
 30
0.0
 11
1262.1453696811
 21
-383.4023329344999
 31
0.0
  0
LINE
  5
49
  8
図枠
 10
1237.5219499368
 20
-382.75811239960001
 30
0.0
 11
1237.5219499368
 21
-385.75811239960001
 31
0.0
  0
LINE
  5
4A
  8
図枠
 62
     5
 10
1270.9342938112
 20
152.52377666609999
 30
0.0
 11
1275.8842938112
 21
143.9501251687
 31
0.0
  0
LINE
  5
4B
  8
図枠
 62
     5
 10
1270.9342938112
 20
142.62377666610001
 30
0.0
 11
1265.9842938111999
 21
134.05012516869999
 31
0.0
  0
INSERT
  5
4C
  8
0
  6
CONTINUOUS
  2
*U98
 10
0.0
 20
0.0
 30
0.0
  0
LINE
  5
4D
  8
図枠
  6
DOT
 10
641.54286458329989
 20
-405.37145833329998
 30
0.0
 11
641.54286458329989
 21
171.5485416667
 31
0.0
  0
LINE
  5
4E
  8
図枠
  6
DOT
 10
1461.4628645833
 20
-405.37145833329998
 30
0.0
 11
1461.4628645833
 21
171.5485416667
 31
0.0
  0
LINE
  5
4F
  8
図枠
  6
DOT
 10
641.54286458329989
 20
-405.37145833329998
 30
0.0
 11
1461.4628645833
 21
-405.37145833329998
 31
0.0
  0
LINE
  5
50
  8
図枠
 10
1244.8241575599
 20
-388.75811239960001
 30
0.0
 11
1244.8241575599
 21
-385.75811239960001
 31
0.0
  0
LINE
  5
51
  8
図枠
  6
DOT
 10
1461.4628645833
 20
171.5485416667
 30
0.0
 11
641.54286458329989
 21
171.5485416667
 31
0.0
  0
LINE
  5
52
  8
図枠
 10
1239.8241575599
 20
-385.75811239960001
 30
0.0
 11
1239.8241575599
 21
-388.75811239960001
 31
0.0
  0
LINE
  5
53
  8
図枠
 10
1253.8241575599
 20
-381.75811239960001
 30
0.0
 11
1256.8241575599
 21
-378.75811239960001
 31
0.0
  0
LINE
  5
54
  8
図枠
 10
1291.1030016443999
 20
-387.35811239959997
 30
0.0
 11
1290.6336683110001
 21
-385.75811239960001
 31
0.0
  0
LINE
  5
55
  8
図枠
 10
1244.8241575599
 20
-382.75811239960001
 30
0.0
 11
1244.8241575599
 21
-381.75811239960001
 31
0.0
  0
LINE
  5
56
  8
図枠
 10
1275.8708083853001
 20
-388.45637481749998
 30
0.0
 11
1275.5146042657
 21
-388.80513110589999
 31
0.0
  0
LINE
  5
57
  8
図枠
 10
1278.1453696811
 20
-381.75811239960001
 30
0.0
 11
1280.1453696811
 21
-378.75811239960001
 31
0.0
  0
LINE
  5
58
  8
図枠
 10
1302.5803349777
 20
-387.35811239959997
 30
0.0
 11
1302.5803349777
 21
-390.9581123996
 31
0.0
  0
LINE
  5
59
  8
図枠
 10
1280.1453696811
 20
-389.75811239960001
 30
0.0
 11
1280.1453696811
 21
-392.75811239960001
 31
0.0
  0
LINE
  5
5A
  8
図枠
 10
1295.2422636898
 20
-382.15811239959999
 30
0.0
 11
1302.5803349777
 21
-382.15811239959999
 31
0.0
  0
LINE
  5
5B
  8
図枠
 10
1295.2422636898
 20
-382.15811239959999
 30
0.0
 11
1294.9494751893001
 21
-381.14065461860002
 31
0.0
  0
LINE
  5
5C
  8
図枠
 10
1280.1453696811
 20
-378.75811239960001
 30
0.0
 11
1262.1453696811
 21
-378.75811239960001
 31
0.0
  0
INSERT
  5
5D
  8
0
  6
CONTINUOUS
  2
*U99
 10
0.0
 20
0.0
 30
0.0
  0
LINE
  5
5E
  8
図枠
 10
1292.9803349777001
 20
-393.75811239960001
 30
0.0
 11
1292.1590016444
 21
-390.9581123996
 31
0.0
  0
LINE
  5
5F
  8
図枠
 10
1245.8241575599
 20
-389.75811239960001
 30
0.0
 11
1239.8241575599
 21
-389.75811239960001
 31
0.0
  0
LINE
  5
60
  8
図枠
 10
1262.1453696811
 20
-382.35811239959997
 30
0.0
 11
1272.1453696811
 21
-382.35811239959997
 31
0.0
  0
LINE
  5
61
  8
図枠
 10
1289.2746996067001
 20
-339.51145833330003
 30
0.0
 11
1298.8746996067
 21
-337.11145833329999
 31
0.0
  0
CIRCLE
  5
62
  8
図枠
 10
1278.3028645833001
 20
-341.9114583333
 30
0.0
 40
4.7999999999999989
  0
INSERT
  5
63
  8
0
  6
CONTINUOUS
  2
*U100
 10
0.0
 20
0.0
 30
0.0
  0
LINE
  5
64
  8
図枠
 10
1244.8241575599
 20
-385.75811239960001
 30
0.0
 11
1248.8241575599
 21
-385.75811239960001
 31
0.0
  0
LINE
  5
65
  8
図枠
 10
1284.5803349777
 20
-385.75811239960001
 30
0.0
 11
1290.6336683110001
 21
-385.75811239960001
 31
0.0
  0
LINE
  5
66
  8
図枠
 10
1256.8241575599
 20
-382.75811239960001
 30
0.0
 11
1253.8241575599
 21
-382.75811239960001
 31
0.0
  0
LINE
  5
67
  8
図枠
 10
1253.8241575599
 20
-382.75811239960001
 30
0.0
 11
1253.8241575599
 21
-381.75811239960001
 31
0.0
  0
LINE
  5
68
  8
図枠
 10
1284.5803349777
 20
-382.15811239959999
 30
0.0
 11
1289.577668311
 21
-382.15811239959999
 31
0.0
  0
LINE
  5
69
  8
図枠
 10
1294.9494751893001
 20
-381.14065461860002
 30
0.0
 11
1296.5803349777
 21
-378.75811239960001
 31
0.0
  0
LINE
  5
6A
  8
図枠
 10
1262.1453696811
 20
-392.75811239960001
 30
0.0
 11
1262.1453696811
 21
-389.75811239960001
 31
0.0
  0
LINE
  5
6B
  8
図枠
 10
1311.5028645832999
 20
-330.9114583333
 30
0.0
 11
1311.5028645832999
 21
-396.9114583333
 31
0.0
  0
INSERT
  5
6C
  8
0
  6
CONTINUOUS
  2
*U101
 10
0.0
 20
0.0
 30
0.0
  0
INSERT
  5
6D
  8
0
  6
CONTINUOUS
  2
*U102
 10
0.0
 20
0.0
 30
0.0
  0
INSERT
  5
6E
  8
0
  6
CONTINUOUS
  2
*U103
 10
0.0
 20
0.0
 30
0.0
  0
LINE
  5
6F
  8
図枠
 62
     5
 10
1265.9842938111999
 20
134.05012516869999
 30
0.0
 11
1275.8842938112
 21
134.05012516869999
 31
0.0
  0
LINE
  5
70
  8
図枠
 10
1237.5219499368
 20
-385.75811239960001
 30
0.0
 11
1239.5219499368
 21
-385.75811239960001
 31
0.0
  0
ARC
  5
71
  8
図枠
 10
1267.1453696811
 20
-381.75811239960001
 30
0.0
 40
11.0
 50
322.48761197969998
 51
0.0
  0
LINE
  5
72
  8
図枠
 10
1239.8241575599
 20
-392.75811239960001
 30
0.0
 11
1247.8241575599
 21
-392.75811239960001
 31
0.0
  0
LINE
  5
73
  8
図枠
 10
1284.5803349777
 20
-390.9581123996
 30
0.0
 11
1292.1590016444
 21
-390.9581123996
 31
0.0
  0
ARC
  5
74
  8
図枠
 10
1245.8241575599
 20
-386.75811239960001
 30
0.0
 40
3.0
 50
270.0
 51
0.0
  0
LINE
  5
75
  8
図枠
 10
1284.5803349777
 20
-387.35811239959997
 30
0.0
 11
1284.5803349777
 21
-390.9581123996
 31
0.0
  0
LINE
  5
76
  8
図枠
 10
1239.8241575599
 20
-388.75811239960001
 30
0.0
 11
1244.8241575599
 21
-388.75811239960001
 31
0.0
  0
LINE
  5
77
  8
図枠
 10
1271.2179946645001
 20
-385.79625420980011
 30
0.0
 11
1270.7368030519001
 21
-386.32773093089997
 31
0.0
  0
LINE
  5
78
  8
図枠
 10
1298.5803349777
 20
-393.75811239960001
 30
0.0
 11
1292.9803349777001
 21
-393.75811239960001
 31
0.0
  0
LINE
  5
79
  8
図枠
 10
1248.8241575599
 20
-385.75811239960001
 30
0.0
 11
1248.8241575599
 21
-386.75811239960001
 31
0.0
  0
LINE
  5
7A
  8
図枠
 10
1451.5028645832999
 20
-330.9114583333
 30
0.0
 11
1161.5028645832999
 21
-330.9114583333
 31
0.0
  0
LINE
  5
7B
  8
図枠
 10
1298.8746996067
 20
-337.11145833329999
 30
0.0
 11
1298.8746996067
 21
-346.71145833330002
 31
0.0
  0
LINE
  5
7C
  8
図枠
 62
     5
 10
1270.9342938112
 20
152.52377666609999
 30
0.0
 11
1265.9842938111999
 21
143.9501251687
 31
0.0
  0
LINE
  5
7D
  8
図枠
 10
1256.8241575599
 20
-378.75811239960001
 30
0.0
 11
1248.8241575599
 21
-378.75811239960001
 31
0.0
  0
LINE
  5
7E
  8
図枠
 10
1253.8241575599
 20
-386.75811239960001
 30
0.0
 11
1253.8241575599
 21
-385.75811239960001
 31
0.0
  0
LINE
  5
7F
  8
図枠
 10
1284.5803349777
 20
-382.15811239959999
 30
0.0
 11
1284.5803349777
 21
-385.75811239960001
 31
0.0
  0
LINE
  5
80
  8
図枠
 10
1248.8241575599
 20
-382.75811239960001
 30
0.0
 11
1244.8241575599
 21
-382.75811239960001
 31
0.0
  0
LINE
  5
81
  8
図枠
 10
1247.8241575599
 20
-378.75811239960001
 30
0.0
 11
1239.8241575599
 21
-378.75811239960001
 31
0.0
  0
LINE
  5
82
  8
図枠
 10
1244.8241575599
 20
-381.75811239960001
 30
0.0
 11
1247.8241575599
 21
-378.75811239960001
 31
0.0
  0
LINE
  5
83
  8
図枠
 10
1239.8241575599
 20
-378.75811239960001
 30
0.0
 11
1239.8241575599
 21
-382.75811239960001
 31
0.0
  0
LINE
  5
84
  8
図枠
 10
1297.7745936322999
 20
-390.9581123996
 30
0.0
 11
1302.5803349777
 21
-390.9581123996
 31
0.0
  0
LINE
  5
85
  8
図枠
 10
1289.577668311
 20
-382.15811239959999
 30
0.0
 11
1288.5803349777
 21
-378.75811239960001
 31
0.0
  0
LINE
  5
86
  8
図枠
 10
1284.5803349777
 20
-387.35811239959997
 30
0.0
 11
1291.1030016443999
 21
-387.35811239959997
 31
0.0
  0
LINE
  5
87
  8
図枠
 10
1296.738640474
 20
-387.35811239959997
 30
0.0
 11
1296.2782168481001
 21
-385.75811239960001
 31
0.0
  0
ARC
  5
88
  8
図枠
 10
1264.5453696811001
 20
-382.15811239959999
 30
0.0
 40
7.5999999999999988
 50
270.0
 51
298.08590481520002
  0
INSERT
  5
89
  8
0
  6
CONTINUOUS
  2
*U104
 10
0.0
 20
0.0
 30
0.0
  0
LINE
  5
8A
  8
図枠
 10
1166.5028645832999
 20
-341.9114583333
 30
0.0
 11
1206.5028645832999
 21
-341.9114583333
 31
0.0
  0
LINE
  5
8B
  8
図枠
 10
1211.5028645832999
 20
-330.9114583333
 30
0.0
 11
1211.5028645832999
 21
-352.9114583333
 31
0.0
  0
LINE
  5
8C
  8
図枠
 10
1161.5028645832999
 20
-352.9114583333
 30
0.0
 11
1451.5028645832999
 21
-352.9114583333
 31
0.0
  0
LINE
  5
8D
  8
図枠
 10
1261.5028645832999
 20
-330.9114583333
 30
0.0
 11
1261.5028645832999
 21
-352.9114583333
 31
0.0
  0
LINE
  5
8E
  8
図枠
  6
BORDER
 10
1278.3028645833001
 20
-334.71145833330002
 30
0.0
 11
1278.3028645833001
 21
-349.11145833329999
 31
0.0
  0
LINE
  5
8F
  8
図枠
  6
BORDER
 10
1278.3028645833001
 20
-334.71145833330002
 30
0.0
 11
1278.3028645833001
 21
-349.11145833329999
 31
0.0
  0
LINE
  5
90
  8
図枠
 10
1302.5803349777
 20
-382.15811239959999
 30
0.0
 11
1302.5803349777
 21
-385.75811239960001
 31
0.0
  0
LINE
  5
91
  8
図枠
 10
1216.5028645832999
 20
-341.9114583333
 30
0.0
 11
1256.5028645832999
 21
-341.9114583333
 31
0.0
  0
INSERT
  5
92
  8
0
  6
CONTINUOUS
  2
*U105
 10
0.0
 20
0.0
 30
0.0
  0
CIRCLE
  5
93
  8
図枠
 10
1278.3028645833001
 20
-341.9114583333
 30
0.0
 40
4.7999999999999989
  0
LINE
  5
94
  8
図枠
 10
1289.2746996067001
 20
-339.51145833330003
 30
0.0
 11
1298.8746996067
 21
-337.11145833329999
 31
0.0
  0
INSERT
  5
95
  8
0
  6
CONTINUOUS
  2
*U106
 10
0.0
 20
0.0
 30
0.0
  0
CIRCLE
  5
96
  8
図枠
 10
1278.3028645833001
 20
-341.9114583333
 30
0.0
 40
2.399999999999999
  0
LINE
  5
97
  8
図枠
 10
1298.5803349777
 20
-393.75811239960001
 30
0.0
 11
1297.7745936322999
 21
-390.9581123996
 31
0.0
  0
LINE
  5
98
  8
図枠
 10
1296.738640474
 20
-387.35811239959997
 30
0.0
 11
1302.5803349777
 21
-387.35811239959997
 31
0.0
  0
LINE
  5
99
  8
図枠
 10
1262.1453696811
 20
-389.75811239960001
 30
0.0
 11
1264.5453696811001
 21
-389.75811239960001
 31
0.0
  0
LINE
  5
9A
  8
図枠
 10
1288.5803349777
 20
-378.75811239960001
 30
0.0
 11
1296.5803349777
 21
-378.75811239960001
 31
0.0
  0
LINE
  5
9B
  8
図枠
 10
1239.8241575599
 20
-382.75811239960001
 30
0.0
 11
1237.5219499368
 21
-382.75811239960001
 31
0.0
  0
LINE
  5
9C
  8
図枠
 10
1262.1453696811
 20
-389.75811239960001
 30
0.0
 11
1262.1453696811
 21
-392.75811239960001
 31
0.0
  0
LINE
  5
9D
  8
図枠
 10
1239.8241575599
 20
-385.75811239960001
 30
0.0
 11
1239.5219499368
 21
-385.75811239960001
 31
0.0
  0
LINE
  5
9E
  8
図枠
 10
1239.8241575599
 20
-389.75811239960001
 30
0.0
 11
1239.8241575599
 21
-392.75811239960001
 31
0.0
  0
ARC
  5
9F
  8
図枠
 10
1264.5453696811001
 20
-382.15811239959999
 30
0.0
 40
7.5999999999999988
 50
331.39928138329998
 51
358.49204224580001
  0
LINE
  5
A0
  8
図枠
 10
1253.8241575599
 20
-385.75811239960001
 30
0.0
 11
1256.8241575599
 21
-385.75811239960001
 31
0.0
  0
ARC
  5
A1
  8
図枠
 10
1267.1453696811
 20
-381.75811239960001
 30
0.0
 40
11.0
 50
270.0
 51
302.54495885400001
  0
LINE
  5
A2
  8
図枠
 10
1289.2746996067001
 20
-344.3114583333001
 30
0.0
 11
1298.8746996067
 21
-346.71145833330002
 31
0.0
  0
LINE
  5
A3
  8
図枠
 10
1289.2746996067001
 20
-339.51145833330003
 30
0.0
 11
1289.2746996067001
 21
-344.3114583333001
 31
0.0
  0
LINE
  5
A4
  8
図枠
 10
1298.8746996067
 20
-337.11145833329999
 30
0.0
 11
1298.8746996067
 21
-346.71145833330002
 31
0.0
  0
LINE
  5
A5
  8
図枠
 10
1270.1453696811
 20
-383.4023329344999
 30
0.0
 11
1269.0139988312001
 21
-384.53370378440002
 31
0.0
  0
LINE
  5
A6
  8
図枠
  6
BORDER
 10
1271.1028645833001
 20
-341.9114583333
 30
0.0
 11
1301.9028645833
 21
-341.9114583333
 31
0.0
  0
CIRCLE
  5
A7
  8
図枠
 10
1278.3028645833001
 20
-341.9114583333
 30
0.0
 40
2.399999999999999
  0
POLYLINE
  8
図枠
  5
6D3
  66
     1
 10
0.000000
 20
0.000000
 30
0.000000
  70
     8
  0
VERTEX
  8
図枠
  5
6D4
 10
1275.51
 20
-388.805
 30
0.000000
  70
    32
  0
VERTEX
  8
図枠
  5
6D5
 10
1275.55
 20
-388.815
 30
0.000000
  70
    32
  0
VERTEX
  8
図枠
  5
6D6
 10
1275.58
 20
-388.825
 30
0.000000
  70
    32
  0
VERTEX
  8
図枠
  5
6D7
 10
1275.62
 20
-388.835
 30
0.000000
  70
    32
  0
VERTEX
  8
図枠
  5
6D8
 10
1275.65
 20
-388.844
 30
0.000000
  70
    32
  0
VERTEX
  8
図枠
  5
6D9
 10
1275.69
 20
-388.854
 30
0.000000
  70
    32
  0
VERTEX
  8
図枠
  5
6DA
 10
1275.72
 20
-388.864
 30
0.000000
  70
    32
  0
VERTEX
  8
図枠
  5
6DB
 10
1275.76
 20
-388.873
 30
0.000000
  70
    32
  0
VERTEX
  8
図枠
  5
6DC
 10
1275.80
 20
-388.883
 30
0.000000
  70
    32
  0
VERTEX
  8
図枠
  5
6DD
 10
1275.83
 20
-388.892
 30
0.000000
  70
    32
  0
VERTEX
  8
図枠
  5
6DE
 10
1275.87
 20
-388.902
 30
0.000000
  70
    32
  0
VERTEX
  8
図枠
  5
6DF
 10
1275.90
 20
-388.911
 30
0.000000
  70
    32
  0
VERTEX
  8
図枠
  5
6E0
 10
1275.94
 20
-388.920
 30
0.000000
  70
    32
  0
VERTEX
  8
図枠
  5
6E1
 10
1275.97
 20
-388.930
 30
0.000000
  70
    32
  0
VERTEX
  8
図枠
  5
6E2
 10
1276.01
 20
-388.939
 30
0.000000
  70
    32
  0
VERTEX
  8
図枠
  5
6E3
 10
1276.04
 20
-388.948
 30
0.000000
  70
    32
  0
VERTEX
  8
図枠
  5
6E4
 10
1276.08
 20
-388.957
 30
0.000000
  70
    32
  0
VERTEX
  8
図枠
  5
6E5
 10
1276.11
 20
-388.966
 30
0.000000
  70
    32
  0
VERTEX
  8
図枠
  5
6E6
 10
1276.15
 20
-388.975
 30
0.000000
  70
    32
  0
VERTEX
  8
図枠
  5
6E7
 10
1276.18
 20
-388.984
 30
0.000000
  70
    32
  0
VERTEX
  8
図枠
  5
6E8
 10
1276.22
 20
-388.993
 30
0.000000
  70
    32
  0
VERTEX
  8
図枠
  5
6E9
 10
1276.26
 20
-389.002
 30
0.000000
  70
    32
  0
VERTEX
  8
図枠
  5
6EA
 10
1276.29
 20
-389.011
 30
0.000000
  70
    32
  0
VERTEX
  8
図枠
  5
6EB
 10
1276.33
 20
-389.019
 30
0.000000
  70
    32
  0
VERTEX
  8
図枠
  5
6EC
 10
1276.36
 20
-389.028
 30
0.000000
  70
    32
  0
VERTEX
  8
図枠
  5
6ED
 10
1276.40
 20
-389.037
 30
0.000000
  70
    32
  0
VERTEX
  8
図枠
  5
6EE
 10
1276.43
 20
-389.045
 30
0.000000
  70
    32
  0
VERTEX
  8
図枠
  5
6EF
 10
1276.47
 20
-389.054
 30
0.000000
  70
    32
  0
VERTEX
  8
図枠
  5
6F0
 10
1276.51
 20
-389.063
 30
0.000000
  70
    32
  0
VERTEX
  8
図枠
  5
6F1
 10
1276.54
 20
-389.071
 30
0.000000
  70
    32
  0
VERTEX
  8
図枠
  5
6F2
 10
1276.58
 20
-389.079
 30
0.000000
  70
    32
  0
VERTEX
  8
図枠
  5
6F3
 10
1276.61
 20
-389.088
 30
0.000000
  70
    32
  0
VERTEX
  8
図枠
  5
6F4
 10
1276.65
 20
-389.096
 30
0.000000
  70
    32
  0
VERTEX
  8
図枠
  5
6F5
 10
1276.69
 20
-389.105
 30
0.000000
  70
    32
  0
VERTEX
  8
図枠
  5
6F6
 10
1276.72
 20
-389.113
 30
0.000000
  70
    32
  0
VERTEX
  8
図枠
  5
6F7
 10
1276.76
 20
-389.121
 30
0.000000
  70
    32
  0
VERTEX
  8
図枠
  5
6F8
 10
1276.79
 20
-389.129
 30
0.000000
  70
    32
  0
VERTEX
  8
図枠
  5
6F9
 10
1276.83
 20
-389.137
 30
0.000000
  70
    32
  0
VERTEX
  8
図枠
  5
6FA
 10
1276.87
 20
-389.145
 30
0.000000
  70
    32
  0
VERTEX
  8
図枠
  5
6FB
 10
1276.90
 20
-389.153
 30
0.000000
  70
    32
  0
VERTEX
  8
図枠
  5
6FC
 10
1276.94
 20
-389.162
 30
0.000000
  70
    32
  0
VERTEX
  8
図枠
  5
6FD
 10
1276.97
 20
-389.169
 30
0.000000
  70
    32
  0
VERTEX
  8
図枠
  5
6FE
 10
1277.01
 20
-389.177
 30
0.000000
  70
    32
  0
VERTEX
  8
図枠
  5
6FF
 10
1277.05
 20
-389.185
 30
0.000000
  70
    32
  0
VERTEX
  8
図枠
  5
700
 10
1277.08
 20
-389.193
 30
0.000000
  70
    32
  0
VERTEX
  8
図枠
  5
701
 10
1277.12
 20
-389.201
 30
0.000000
  70
    32
  0
VERTEX
  8
図枠
  5
702
 10
1277.16
 20
-389.209
 30
0.000000
  70
    32
  0
VERTEX
  8
図枠
  5
703
 10
1277.19
 20
-389.217
 30
0.000000
  70
    32
  0
VERTEX
  8
図枠
  5
704
 10
1277.23
 20
-389.224
 30
0.000000
  70
    32
  0
VERTEX
  8
図枠
  5
705
 10
1277.26
 20
-389.232
 30
0.000000
  70
    32
  0
VERTEX
  8
図枠
  5
706
 10
1277.30
 20
-389.240
 30
0.000000
  70
    32
  0
VERTEX
  8
図枠
  5
707
 10
1277.34
 20
-389.247
 30
0.000000
  70
    32
  0
VERTEX
  8
図枠
  5
708
 10
1277.37
 20
-389.255
 30
0.000000
  70
    32
  0
VERTEX
  8
図枠
  5
709
 10
1277.41
 20
-389.262
 30
0.000000
  70
    32
  0
VERTEX
  8
図枠
  5
70A
 10
1277.45
 20
-389.270
 30
0.000000
  70
    32
  0
VERTEX
  8
図枠
  5
70B
 10
1277.48
 20
-389.277
 30
0.000000
  70
    32
  0
VERTEX
  8
図枠
  5
70C
 10
1277.52
 20
-389.285
 30
0.000000
  70
    32
  0
VERTEX
  8
図枠
  5
70D
 10
1277.56
 20
-389.292
 30
0.000000
  70
    32
  0
VERTEX
  8
図枠
  5
70E
 10
1277.59
 20
-389.300
 30
0.000000
  70
    32
  0
VERTEX
  8
図枠
  5
70F
 10
1277.63
 20
-389.307
 30
0.000000
  70
    32
  0
VERTEX
  8
図枠
  5
710
 10
1277.67
 20
-389.314
 30
0.000000
  70
    32
  0
VERTEX
  8
図枠
  5
711
 10
1277.70
 20
-389.322
 30
0.000000
  70
    32
  0
VERTEX
  8
図枠
  5
712
 10
1277.74
 20
-389.329
 30
0.000000
  70
    32
  0
VERTEX
  8
図枠
  5
713
 10
1277.78
 20
-389.336
 30
0.000000
  70
    32
  0
VERTEX
  8
図枠
  5
714
 10
1277.81
 20
-389.343
 30
0.000000
  70
    32
  0
VERTEX
  8
図枠
  5
715
 10
1277.85
 20
-389.350
 30
0.000000
  70
    32
  0
VERTEX
  8
図枠
  5
716
 10
1277.89
 20
-389.358
 30
0.000000
  70
    32
  0
VERTEX
  8
図枠
  5
717
 10
1277.92
 20
-389.365
 30
0.000000
  70
    32
  0
VERTEX
  8
図枠
  5
718
 10
1277.96
 20
-389.372
 30
0.000000
  70
    32
  0
VERTEX
  8
図枠
  5
719
 10
1278.00
 20
-389.379
 30
0.000000
  70
    32
  0
VERTEX
  8
図枠
  5
71A
 10
1278.03
 20
-389.386
 30
0.000000
  70
    32
  0
VERTEX
  8
図枠
  5
71B
 10
1278.07
 20
-389.393
 30
0.000000
  70
    32
  0
VERTEX
  8
図枠
  5
71C
 10
1278.11
 20
-389.400
 30
0.000000
  70
    32
  0
VERTEX
  8
図枠
  5
71D
 10
1278.14
 20
-389.407
 30
0.000000
  70
    32
  0
VERTEX
  8
図枠
  5
71E
 10
1278.18
 20
-389.414
 30
0.000000
  70
    32
  0
VERTEX
  8
図枠
  5
71F
 10
1278.22
 20
-389.421
 30
0.000000
  70
    32
  0
VERTEX
  8
図枠
  5
720
 10
1278.25
 20
-389.428
 30
0.000000
  70
    32
  0
VERTEX
  8
図枠
  5
721
 10
1278.29
 20
-389.434
 30
0.000000
  70
    32
  0
VERTEX
  8
図枠
  5
722
 10
1278.33
 20
-389.441
 30
0.000000
  70
    32
  0
VERTEX
  8
図枠
  5
723
 10
1278.36
 20
-389.448
 30
0.000000
  70
    32
  0
VERTEX
  8
図枠
  5
724
 10
1278.40
 20
-389.455
 30
0.000000
  70
    32
  0
VERTEX
  8
図枠
  5
725
 10
1278.44
 20
-389.462
 30
0.000000
  70
    32
  0
VERTEX
  8
図枠
  5
726
 10
1278.47
 20
-389.468
 30
0.000000
  70
    32
  0
VERTEX
  8
図枠
  5
727
 10
1278.51
 20
-389.475
 30
0.000000
  70
    32
  0
VERTEX
  8
図枠
  5
728
 10
1278.55
 20
-389.482
 30
0.000000
  70
    32
  0
VERTEX
  8
図枠
  5
729
 10
1278.59
 20
-389.489
 30
0.000000
  70
    32
  0
VERTEX
  8
図枠
  5
72A
 10
1278.62
 20
-389.495
 30
0.000000
  70
    32
  0
VERTEX
  8
図枠
  5
72B
 10
1278.66
 20
-389.502
 30
0.000000
  70
    32
  0
VERTEX
  8
図枠
  5
72C
 10
1278.70
 20
-389.508
 30
0.000000
  70
    32
  0
VERTEX
  8
図枠
  5
72D
 10
1278.73
 20
-389.515
 30
0.000000
  70
    32
  0
VERTEX
  8
図枠
  5
72E
 10
1278.77
 20
-389.522
 30
0.000000
  70
    32
  0
VERTEX
  8
図枠
  5
72F
 10
1278.81
 20
-389.528
 30
0.000000
  70
    32
  0
VERTEX
  8
図枠
  5
730
 10
1278.84
 20
-389.535
 30
0.000000
  70
    32
  0
VERTEX
  8
図枠
  5
731
 10
1278.88
 20
-389.541
 30
0.000000
  70
    32
  0
VERTEX
  8
図枠
  5
732
 10
1278.92
 20
-389.548
 30
0.000000
  70
    32
  0
VERTEX
  8
図枠
  5
733
 10
1278.96
 20
-389.554
 30
0.000000
  70
    32
  0
VERTEX
  8
図枠
  5
734
 10
1278.99
 20
-389.561
 30
0.000000
  70
    32
  0
VERTEX
  8
図枠
  5
735
 10
1279.03
 20
-389.567
 30
0.000000
  70
    32
  0
VERTEX
  8
図枠
  5
736
 10
1279.07
 20
-389.574
 30
0.000000
  70
    32
  0
VERTEX
  8
図枠
  5
737
 10
1279.10
 20
-389.580
 30
0.000000
  70
    32
  0
VERTEX
  8
図枠
  5
738
 10
1279.14
 20
-389.587
 30
0.000000
  70
    32
  0
VERTEX
  8
図枠
  5
739
 10
1279.18
 20
-389.593
 30
0.000000
  70
    32
  0
VERTEX
  8
図枠
  5
73A
 10
1279.22
 20
-389.600
 30
0.000000
  70
    32
  0
VERTEX
  8
図枠
  5
73B
 10
1279.25
 20
-389.606
 30
0.000000
  70
    32
  0
VERTEX
  8
図枠
  5
73C
 10
1279.29
 20
-389.613
 30
0.000000
  70
    32
  0
VERTEX
  8
図枠
  5
73D
 10
1279.33
 20
-389.619
 30
0.000000
  70
    32
  0
VERTEX
  8
図枠
  5
73E
 10
1279.36
 20
-389.625
 30
0.000000
  70
    32
  0
VERTEX
  8
図枠
  5
73F
 10
1279.40
 20
-389.632
 30
0.000000
  70
    32
  0
VERTEX
  8
図枠
  5
740
 10
1279.44
 20
-389.638
 30
0.000000
  70
    32
  0
VERTEX
  8
図枠
  5
741
 10
1279.48
 20
-389.645
 30
0.000000
  70
    32
  0
VERTEX
  8
図枠
  5
742
 10
1279.51
 20
-389.651
 30
0.000000
  70
    32
  0
VERTEX
  8
図枠
  5
743
 10
1279.55
 20
-389.657
 30
0.000000
  70
    32
  0
VERTEX
  8
図枠
  5
744
 10
1279.59
 20
-389.664
 30
0.000000
  70
    32
  0
VERTEX
  8
図枠
  5
745
 10
1279.62
 20
-389.670
 30
0.000000
  70
    32
  0
VERTEX
  8
図枠
  5
746
 10
1279.66
 20
-389.676
 30
0.000000
  70
    32
  0
VERTEX
  8
図枠
  5
747
 10
1279.70
 20
-389.683
 30
0.000000
  70
    32
  0
VERTEX
  8
図枠
  5
748
 10
1279.74
 20
-389.689
 30
0.000000
  70
    32
  0
VERTEX
  8
図枠
  5
749
 10
1279.77
 20
-389.695
 30
0.000000
  70
    32
  0
VERTEX
  8
図枠
  5
74A
 10
1279.81
 20
-389.701
 30
0.000000
  70
    32
  0
VERTEX
  8
図枠
  5
74B
 10
1279.85
 20
-389.708
 30
0.000000
  70
    32
  0
VERTEX
  8
図枠
  5
74C
 10
1279.88
 20
-389.714
 30
0.000000
  70
    32
  0
VERTEX
  8
図枠
  5
74D
 10
1279.92
 20
-389.720
 30
0.000000
  70
    32
  0
VERTEX
  8
図枠
  5
74E
 10
1279.96
 20
-389.727
 30
0.000000
  70
    32
  0
VERTEX
  8
図枠
  5
74F
 10
1280.00
 20
-389.733
 30
0.000000
  70
    32
  0
VERTEX
  8
図枠
  5
750
 10
1280.03
 20
-389.739
 30
0.000000
  70
    32
  0
VERTEX
  8
図枠
  5
751
 10
1280.07
 20
-389.746
 30
0.000000
  70
    32
  0
VERTEX
  8
図枠
  5
752
 10
1280.11
 20
-389.752
 30
0.000000
  70
    32
  0
VERTEX
  8
図枠
  5
753
 10
1280.15
 20
-389.758
 30
0.000000
  70
    32
  0
SEQEND
  8
図枠
  5
754
  0
POLYLINE
  8
図枠
  5
755
  66
     1
 10
0.000000
 20
0.000000
 30
0.000000
  70
     8
  0
VERTEX
  8
図枠
  5
756
 10
1269.01
 20
-384.534
 30
0.000000
  70
    32
  0
VERTEX
  8
図枠
  5
757
 10
1269.03
 20
-384.548
 30
0.000000
  70
    32
  0
VERTEX
  8
図枠
  5
758
 10
1269.04
 20
-384.563
 30
0.000000
  70
    32
  0
VERTEX
  8
図枠
  5
759
 10
1269.05
 20
-384.578
 30
0.000000
  70
    32
  0
VERTEX
  8
図枠
  5
75A
 10
1269.07
 20
-384.593
 30
0.000000
  70
    32
  0
VERTEX
  8
図枠
  5
75B
 10
1269.08
 20
-384.607
 30
0.000000
  70
    32
  0
VERTEX
  8
図枠
  5
75C
 10
1269.09
 20
-384.622
 30
0.000000
  70
    32
  0
VERTEX
  8
図枠
  5
75D
 10
1269.11
 20
-384.637
 30
0.000000
  70
    32
  0
VERTEX
  8
図枠
  5
75E
 10
1269.12
 20
-384.651
 30
0.000000
  70
    32
  0
VERTEX
  8
図枠
  5
75F
 10
1269.13
 20
-384.666
 30
0.000000
  70
    32
  0
VERTEX
  8
図枠
  5
760
 10
1269.15
 20
-384.681
 30
0.000000
  70
    32
  0
VERTEX
  8
図枠
  5
761
 10
1269.16
 20
-384.696
 30
0.000000
  70
    32
  0
VERTEX
  8
図枠
  5
762
 10
1269.17
 20
-384.710
 30
0.000000
  70
    32
  0
VERTEX
  8
図枠
  5
763
 10
1269.19
 20
-384.725
 30
0.000000
  70
    32
  0
VERTEX
  8
図枠
  5
764
 10
1269.20
 20
-384.740
 30
0.000000
  70
    32
  0
VERTEX
  8
図枠
  5
765
 10
1269.21
 20
-384.754
 30
0.000000
  70
    32
  0
VERTEX
  8
図枠
  5
766
 10
1269.23
 20
-384.769
 30
0.000000
  70
    32
  0
VERTEX
  8
図枠
  5
767
 10
1269.24
 20
-384.784
 30
0.000000
  70
    32
  0
VERTEX
  8
図枠
  5
768
 10
1269.25
 20
-384.798
 30
0.000000
  70
    32
  0
VERTEX
  8
図枠
  5
769
 10
1269.26
 20
-384.813
 30
0.000000
  70
    32
  0
VERTEX
  8
図枠
  5
76A
 10
1269.28
 20
-384.828
 30
0.000000
  70
    32
  0
VERTEX
  8
図枠
  5
76B
 10
1269.29
 20
-384.842
 30
0.000000
  70
    32
  0
VERTEX
  8
図枠
  5
76C
 10
1269.30
 20
-384.857
 30
0.000000
  70
    32
  0
VERTEX
  8
図枠
  5
76D
 10
1269.32
 20
-384.872
 30
0.000000
  70
    32
  0
VERTEX
  8
図枠
  5
76E
 10
1269.33
 20
-384.886
 30
0.000000
  70
    32
  0
VERTEX
  8
図枠
  5
76F
 10
1269.34
 20
-384.901
 30
0.000000
  70
    32
  0
VERTEX
  8
図枠
  5
770
 10
1269.36
 20
-384.916
 30
0.000000
  70
    32
  0
VERTEX
  8
図枠
  5
771
 10
1269.37
 20
-384.930
 30
0.000000
  70
    32
  0
VERTEX
  8
図枠
  5
772
 10
1269.38
 20
-384.945
 30
0.000000
  70
    32
  0
VERTEX
  8
図枠
  5
773
 10
1269.40
 20
-384.960
 30
0.000000
  70
    32
  0
VERTEX
  8
図枠
  5
774
 10
1269.41
 20
-384.974
 30
0.000000
  70
    32
  0
VERTEX
  8
図枠
  5
775
 10
1269.42
 20
-384.989
 30
0.000000
  70
    32
  0
VERTEX
  8
図枠
  5
776
 10
1269.44
 20
-385.003
 30
0.000000
  70
    32
  0
VERTEX
  8
図枠
  5
777
 10
1269.45
 20
-385.018
 30
0.000000
  70
    32
  0
VERTEX
  8
図枠
  5
778
 10
1269.46
 20
-385.033
 30
0.000000
  70
    32
  0
VERTEX
  8
図枠
  5
779
 10
1269.48
 20
-385.047
 30
0.000000
  70
    32
  0
VERTEX
  8
図枠
  5
77A
 10
1269.49
 20
-385.062
 30
0.000000
  70
    32
  0
VERTEX
  8
図枠
  5
77B
 10
1269.50
 20
-385.076
 30
0.000000
  70
    32
  0
VERTEX
  8
図枠
  5
77C
 10
1269.52
 20
-385.091
 30
0.000000
  70
    32
  0
VERTEX
  8
図枠
  5
77D
 10
1269.53
 20
-385.105
 30
0.000000
  70
    32
  0
VERTEX
  8
図枠
  5
77E
 10
1269.54
 20
-385.120
 30
0.000000
  70
    32
  0
VERTEX
  8
図枠
  5
77F
 10
1269.56
 20
-385.135
 30
0.000000
  70
    32
  0
VERTEX
  8
図枠
  5
780
 10
1269.57
 20
-385.149
 30
0.000000
  70
    32
  0
VERTEX
  8
図枠
  5
781
 10
1269.58
 20
-385.164
 30
0.000000
  70
    32
  0
VERTEX
  8
図枠
  5
782
 10
1269.60
 20
-385.178
 30
0.000000
  70
    32
  0
VERTEX
  8
図枠
  5
783
 10
1269.61
 20
-385.193
 30
0.000000
  70
    32
  0
VERTEX
  8
図枠
  5
784
 10
1269.62
 20
-385.207
 30
0.000000
  70
    32
  0
VERTEX
  8
図枠
  5
785
 10
1269.64
 20
-385.222
 30
0.000000
  70
    32
  0
VERTEX
  8
図枠
  5
786
 10
1269.65
 20
-385.236
 30
0.000000
  70
    32
  0
VERTEX
  8
図枠
  5
787
 10
1269.66
 20
-385.251
 30
0.000000
  70
    32
  0
VERTEX
  8
図枠
  5
788
 10
1269.68
 20
-385.265
 30
0.000000
  70
    32
  0
VERTEX
  8
図枠
  5
789
 10
1269.69
 20
-385.279
 30
0.000000
  70
    32
  0
VERTEX
  8
図枠
  5
78A
 10
1269.70
 20
-385.294
 30
0.000000
  70
    32
  0
VERTEX
  8
図枠
  5
78B
 10
1269.72
 20
-385.308
 30
0.000000
  70
    32
  0
VERTEX
  8
図枠
  5
78C
 10
1269.73
 20
-385.323
 30
0.000000
  70
    32
  0
VERTEX
  8
図枠
  5
78D
 10
1269.74
 20
-385.337
 30
0.000000
  70
    32
  0
VERTEX
  8
図枠
  5
78E
 10
1269.76
 20
-385.351
 30
0.000000
  70
    32
  0
VERTEX
  8
図枠
  5
78F
 10
1269.77
 20
-385.366
 30
0.000000
  70
    32
  0
VERTEX
  8
図枠
  5
790
 10
1269.78
 20
-385.380
 30
0.000000
  70
    32
  0
VERTEX
  8
図枠
  5
791
 10
1269.80
 20
-385.394
 30
0.000000
  70
    32
  0
VERTEX
  8
図枠
  5
792
 10
1269.81
 20
-385.409
 30
0.000000
  70
    32
  0
VERTEX
  8
図枠
  5
793
 10
1269.82
 20
-385.423
 30
0.000000
  70
    32
  0
VERTEX
  8
図枠
  5
794
 10
1269.84
 20
-385.437
 30
0.000000
  70
    32
  0
VERTEX
  8
図枠
  5
795
 10
1269.85
 20
-385.452
 30
0.000000
  70
    32
  0
VERTEX
  8
図枠
  5
796
 10
1269.86
 20
-385.466
 30
0.000000
  70
    32
  0
VERTEX
  8
図枠
  5
797
 10
1269.88
 20
-385.480
 30
0.000000
  70
    32
  0
VERTEX
  8
図枠
  5
798
 10
1269.89
 20
-385.494
 30
0.000000
  70
    32
  0
VERTEX
  8
図枠
  5
799
 10
1269.91
 20
-385.509
 30
0.000000
  70
    32
  0
VERTEX
  8
図枠
  5
79A
 10
1269.92
 20
-385.523
 30
0.000000
  70
    32
  0
VERTEX
  8
図枠
  5
79B
 10
1269.93
 20
-385.537
 30
0.000000
  70
    32
  0
VERTEX
  8
図枠
  5
79C
 10
1269.95
 20
-385.551
 30
0.000000
  70
    32
  0
VERTEX
  8
図枠
  5
79D
 10
1269.96
 20
-385.565
 30
0.000000
  70
    32
  0
VERTEX
  8
図枠
  5
79E
 10
1269.97
 20
-385.580
 30
0.000000
  70
    32
  0
VERTEX
  8
図枠
  5
79F
 10
1269.99
 20
-385.594
 30
0.000000
  70
    32
  0
VERTEX
  8
図枠
  5
7A0
 10
1270.00
 20
-385.608
 30
0.000000
  70
    32
  0
VERTEX
  8
図枠
  5
7A1
 10
1270.01
 20
-385.622
 30
0.000000
  70
    32
  0
VERTEX
  8
図枠
  5
7A2
 10
1270.03
 20
-385.636
 30
0.000000
  70
    32
  0
VERTEX
  8
図枠
  5
7A3
 10
1270.04
 20
-385.650
 30
0.000000
  70
    32
  0
VERTEX
  8
図枠
  5
7A4
 10
1270.05
 20
-385.664
 30
0.000000
  70
    32
  0
VERTEX
  8
図枠
  5
7A5
 10
1270.07
 20
-385.678
 30
0.000000
  70
    32
  0
VERTEX
  8
図枠
  5
7A6
 10
1270.08
 20
-385.692
 30
0.000000
  70
    32
  0
VERTEX
  8
図枠
  5
7A7
 10
1270.10
 20
-385.706
 30
0.000000
  70
    32
  0
VERTEX
  8
図枠
  5
7A8
 10
1270.11
 20
-385.720
 30
0.000000
  70
    32
  0
VERTEX
  8
図枠
  5
7A9
 10
1270.12
 20
-385.734
 30
0.000000
  70
    32
  0
VERTEX
  8
図枠
  5
7AA
 10
1270.14
 20
-385.748
 30
0.000000
  70
    32
  0
VERTEX
  8
図枠
  5
7AB
 10
1270.15
 20
-385.762
 30
0.000000
  70
    32
  0
VERTEX
  8
図枠
  5
7AC
 10
1270.16
 20
-385.776
 30
0.000000
  70
    32
  0
VERTEX
  8
図枠
  5
7AD
 10
1270.18
 20
-385.790
 30
0.000000
  70
    32
  0
VERTEX
  8
図枠
  5
7AE
 10
1270.19
 20
-385.804
 30
0.000000
  70
    32
  0
VERTEX
  8
図枠
  5
7AF
 10
1270.20
 20
-385.818
 30
0.000000
  70
    32
  0
VERTEX
  8
図枠
  5
7B0
 10
1270.22
 20
-385.832
 30
0.000000
  70
    32
  0
VERTEX
  8
図枠
  5
7B1
 10
1270.23
 20
-385.845
 30
0.000000
  70
    32
  0
VERTEX
  8
図枠
  5
7B2
 10
1270.25
 20
-385.859
 30
0.000000
  70
    32
  0
VERTEX
  8
図枠
  5
7B3
 10
1270.26
 20
-385.873
 30
0.000000
  70
    32
  0
VERTEX
  8
図枠
  5
7B4
 10
1270.27
 20
-385.887
 30
0.000000
  70
    32
  0
VERTEX
  8
図枠
  5
7B5
 10
1270.29
 20
-385.900
 30
0.000000
  70
    32
  0
VERTEX
  8
図枠
  5
7B6
 10
1270.30
 20
-385.914
 30
0.000000
  70
    32
  0
VERTEX
  8
図枠
  5
7B7
 10
1270.32
 20
-385.928
 30
0.000000
  70
    32
  0
VERTEX
  8
図枠
  5
7B8
 10
1270.33
 20
-385.941
 30
0.000000
  70
    32
  0
VERTEX
  8
図枠
  5
7B9
 10
1270.34
 20
-385.955
 30
0.000000
  70
    32
  0
VERTEX
  8
図枠
  5
7BA
 10
1270.36
 20
-385.969
 30
0.000000
  70
    32
  0
VERTEX
  8
図枠
  5
7BB
 10
1270.37
 20
-385.982
 30
0.000000
  70
    32
  0
VERTEX
  8
図枠
  5
7BC
 10
1270.38
 20
-385.996
 30
0.000000
  70
    32
  0
VERTEX
  8
図枠
  5
7BD
 10
1270.40
 20
-386.010
 30
0.000000
  70
    32
  0
VERTEX
  8
図枠
  5
7BE
 10
1270.41
 20
-386.023
 30
0.000000
  70
    32
  0
VERTEX
  8
図枠
  5
7BF
 10
1270.43
 20
-386.037
 30
0.000000
  70
    32
  0
VERTEX
  8
図枠
  5
7C0
 10
1270.44
 20
-386.050
 30
0.000000
  70
    32
  0
VERTEX
  8
図枠
  5
7C1
 10
1270.45
 20
-386.064
 30
0.000000
  70
    32
  0
VERTEX
  8
図枠
  5
7C2
 10
1270.47
 20
-386.077
 30
0.000000
  70
    32
  0
VERTEX
  8
図枠
  5
7C3
 10
1270.48
 20
-386.090
 30
0.000000
  70
    32
  0
VERTEX
  8
図枠
  5
7C4
 10
1270.50
 20
-386.104
 30
0.000000
  70
    32
  0
VERTEX
  8
図枠
  5
7C5
 10
1270.51
 20
-386.117
 30
0.000000
  70
    32
  0
VERTEX
  8
図枠
  5
7C6
 10
1270.52
 20
-386.131
 30
0.000000
  70
    32
  0
VERTEX
  8
図枠
  5
7C7
 10
1270.54
 20
-386.144
 30
0.000000
  70
    32
  0
VERTEX
  8
図枠
  5
7C8
 10
1270.55
 20
-386.157
 30
0.000000
  70
    32
  0
VERTEX
  8
図枠
  5
7C9
 10
1270.57
 20
-386.170
 30
0.000000
  70
    32
  0
VERTEX
  8
図枠
  5
7CA
 10
1270.58
 20
-386.184
 30
0.000000
  70
    32
  0
VERTEX
  8
図枠
  5
7CB
 10
1270.59
 20
-386.197
 30
0.000000
  70
    32
  0
VERTEX
  8
図枠
  5
7CC
 10
1270.61
 20
-386.210
 30
0.000000
  70
    32
  0
VERTEX
  8
図枠
  5
7CD
 10
1270.62
 20
-386.223
 30
0.000000
  70
    32
  0
VERTEX
  8
図枠
  5
7CE
 10
1270.64
 20
-386.236
 30
0.000000
  70
    32
  0
VERTEX
  8
図枠
  5
7CF
 10
1270.65
 20
-386.250
 30
0.000000
  70
    32
  0
VERTEX
  8
図枠
  5
7D0
 10
1270.67
 20
-386.263
 30
0.000000
  70
    32
  0
VERTEX
  8
図枠
  5
7D1
 10
1270.68
 20
-386.276
 30
0.000000
  70
    32
  0
VERTEX
  8
図枠
  5
7D2
 10
1270.69
 20
-386.289
 30
0.000000
  70
    32
  0
VERTEX
  8
図枠
  5
7D3
 10
1270.71
 20
-386.302
 30
0.000000
  70
    32
  0
VERTEX
  8
図枠
  5
7D4
 10
1270.72
 20
-386.315
 30
0.000000
  70
    32
  0
VERTEX
  8
図枠
  5
7D5
 10
1270.74
 20
-386.328
 30
0.000000
  70
    32
  0
SEQEND
  8
図枠
  5
7D6
  0
POLYLINE
  8
図枠
  5
7D7
  66
     1
 10
0.000000
 20
0.000000
 30
0.000000
  70
     8
  0
VERTEX
  8
図枠
  5
7D8
 10
1273.06
 20
-391.031
 30
0.000000
  70
    32
  0
VERTEX
  8
図枠
  5
7D9
 10
1273.12
 20
-391.048
 30
0.000000
  70
    32
  0
VERTEX
  8
図枠
  5
7DA
 10
1273.17
 20
-391.065
 30
0.000000
  70
    32
  0
VERTEX
  8
図枠
  5
7DB
 10
1273.22
 20
-391.082
 30
0.000000
  70
    32
  0
VERTEX
  8
図枠
  5
7DC
 10
1273.28
 20
-391.099
 30
0.000000
  70
    32
  0
VERTEX
  8
図枠
  5
7DD
 10
1273.33
 20
-391.116
 30
0.000000
  70
    32
  0
VERTEX
  8
図枠
  5
7DE
 10
1273.39
 20
-391.133
 30
0.000000
  70
    32
  0
VERTEX
  8
図枠
  5
7DF
 10
1273.44
 20
-391.149
 30
0.000000
  70
    32
  0
VERTEX
  8
図枠
  5
7E0
 10
1273.49
 20
-391.166
 30
0.000000
  70
    32
  0
VERTEX
  8
図枠
  5
7E1
 10
1273.55
 20
-391.182
 30
0.000000
  70
    32
  0
VERTEX
  8
図枠
  5
7E2
 10
1273.60
 20
-391.199
 30
0.000000
  70
    32
  0
VERTEX
  8
図枠
  5
7E3
 10
1273.66
 20
-391.215
 30
0.000000
  70
    32
  0
VERTEX
  8
図枠
  5
7E4
 10
1273.71
 20
-391.231
 30
0.000000
  70
    32
  0
VERTEX
  8
図枠
  5
7E5
 10
1273.77
 20
-391.248
 30
0.000000
  70
    32
  0
VERTEX
  8
図枠
  5
7E6
 10
1273.82
 20
-391.264
 30
0.000000
  70
    32
  0
VERTEX
  8
図枠
  5
7E7
 10
1273.88
 20
-391.280
 30
0.000000
  70
    32
  0
VERTEX
  8
図枠
  5
7E8
 10
1273.93
 20
-391.296
 30
0.000000
  70
    32
  0
VERTEX
  8
図枠
  5
7E9
 10
1273.98
 20
-391.312
 30
0.000000
  70
    32
  0
VERTEX
  8
図枠
  5
7EA
 10
1274.04
 20
-391.327
 30
0.000000
  70
    32
  0
VERTEX
  8
図枠
  5
7EB
 10
1274.09
 20
-391.343
 30
0.000000
  70
    32
  0
VERTEX
  8
図枠
  5
7EC
 10
1274.15
 20
-391.359
 30
0.000000
  70
    32
  0
VERTEX
  8
図枠
  5
7ED
 10
1274.20
 20
-391.374
 30
0.000000
  70
    32
  0
VERTEX
  8
図枠
  5
7EE
 10
1274.26
 20
-391.390
 30
0.000000
  70
    32
  0
VERTEX
  8
図枠
  5
7EF
 10
1274.31
 20
-391.405
 30
0.000000
  70
    32
  0
VERTEX
  8
図枠
  5
7F0
 10
1274.37
 20
-391.421
 30
0.000000
  70
    32
  0
VERTEX
  8
図枠
  5
7F1
 10
1274.42
 20
-391.436
 30
0.000000
  70
    32
  0
VERTEX
  8
図枠
  5
7F2
 10
1274.48
 20
-391.451
 30
0.000000
  70
    32
  0
VERTEX
  8
図枠
  5
7F3
 10
1274.53
 20
-391.467
 30
0.000000
  70
    32
  0
VERTEX
  8
図枠
  5
7F4
 10
1274.59
 20
-391.482
 30
0.000000
  70
    32
  0
VERTEX
  8
図枠
  5
7F5
 10
1274.64
 20
-391.497
 30
0.000000
  70
    32
  0
VERTEX
  8
図枠
  5
7F6
 10
1274.70
 20
-391.512
 30
0.000000
  70
    32
  0
VERTEX
  8
図枠
  5
7F7
 10
1274.75
 20
-391.527
 30
0.000000
  70
    32
  0
VERTEX
  8
図枠
  5
7F8
 10
1274.81
 20
-391.542
 30
0.000000
  70
    32
  0
VERTEX
  8
図枠
  5
7F9
 10
1274.86
 20
-391.556
 30
0.000000
  70
    32
  0
VERTEX
  8
図枠
  5
7FA
 10
1274.92
 20
-391.571
 30
0.000000
  70
    32
  0
VERTEX
  8
図枠
  5
7FB
 10
1274.97
 20
-391.586
 30
0.000000
  70
    32
  0
VERTEX
  8
図枠
  5
7FC
 10
1275.03
 20
-391.600
 30
0.000000
  70
    32
  0
VERTEX
  8
図枠
  5
7FD
 10
1275.08
 20
-391.615
 30
0.000000
  70
    32
  0
VERTEX
  8
図枠
  5
7FE
 10
1275.14
 20
-391.629
 30
0.000000
  70
    32
  0
VERTEX
  8
図枠
  5
7FF
 10
1275.19
 20
-391.644
 30
0.000000
  70
    32
  0
VERTEX
  8
図枠
  5
800
 10
1275.25
 20
-391.658
 30
0.000000
  70
    32
  0
VERTEX
  8
図枠
  5
801
 10
1275.30
 20
-391.672
 30
0.000000
  70
    32
  0
VERTEX
  8
図枠
  5
802
 10
1275.36
 20
-391.687
 30
0.000000
  70
    32
  0
VERTEX
  8
図枠
  5
803
 10
1275.41
 20
-391.701
 30
0.000000
  70
    32
  0
VERTEX
  8
図枠
  5
804
 10
1275.47
 20
-391.715
 30
0.000000
  70
    32
  0
VERTEX
  8
図枠
  5
805
 10
1275.53
 20
-391.729
 30
0.000000
  70
    32
  0
VERTEX
  8
図枠
  5
806
 10
1275.58
 20
-391.743
 30
0.000000
  70
    32
  0
VERTEX
  8
図枠
  5
807
 10
1275.64
 20
-391.757
 30
0.000000
  70
    32
  0
VERTEX
  8
図枠
  5
808
 10
1275.69
 20
-391.771
 30
0.000000
  70
    32
  0
VERTEX
  8
図枠
  5
809
 10
1275.75
 20
-391.785
 30
0.000000
  70
    32
  0
VERTEX
  8
図枠
  5
80A
 10
1275.80
 20
-391.799
 30
0.000000
  70
    32
  0
VERTEX
  8
図枠
  5
80B
 10
1275.86
 20
-391.812
 30
0.000000
  70
    32
  0
VERTEX
  8
図枠
  5
80C
 10
1275.92
 20
-391.826
 30
0.000000
  70
    32
  0
VERTEX
  8
図枠
  5
80D
 10
1275.97
 20
-391.840
 30
0.000000
  70
    32
  0
VERTEX
  8
図枠
  5
80E
 10
1276.03
 20
-391.853
 30
0.000000
  70
    32
  0
VERTEX
  8
図枠
  5
80F
 10
1276.08
 20
-391.867
 30
0.000000
  70
    32
  0
VERTEX
  8
図枠
  5
810
 10
1276.14
 20
-391.881
 30
0.000000
  70
    32
  0
VERTEX
  8
図枠
  5
811
 10
1276.19
 20
-391.894
 30
0.000000
  70
    32
  0
VERTEX
  8
図枠
  5
812
 10
1276.25
 20
-391.907
 30
0.000000
  70
    32
  0
VERTEX
  8
図枠
  5
813
 10
1276.31
 20
-391.921
 30
0.000000
  70
    32
  0
VERTEX
  8
図枠
  5
814
 10
1276.36
 20
-391.934
 30
0.000000
  70
    32
  0
VERTEX
  8
図枠
  5
815
 10
1276.42
 20
-391.947
 30
0.000000
  70
    32
  0
VERTEX
  8
図枠
  5
816
 10
1276.47
 20
-391.961
 30
0.000000
  70
    32
  0
VERTEX
  8
図枠
  5
817
 10
1276.53
 20
-391.974
 30
0.000000
  70
    32
  0
VERTEX
  8
図枠
  5
818
 10
1276.59
 20
-391.987
 30
0.000000
  70
    32
  0
VERTEX
  8
図枠
  5
819
 10
1276.64
 20
-392.000
 30
0.000000
  70
    32
  0
VERTEX
  8
図枠
  5
81A
 10
1276.70
 20
-392.013
 30
0.000000
  70
    32
  0
VERTEX
  8
図枠
  5
81B
 10
1276.75
 20
-392.026
 30
0.000000
  70
    32
  0
VERTEX
  8
図枠
  5
81C
 10
1276.81
 20
-392.039
 30
0.000000
  70
    32
  0
VERTEX
  8
図枠
  5
81D
 10
1276.87
 20
-392.052
 30
0.000000
  70
    32
  0
VERTEX
  8
図枠
  5
81E
 10
1276.92
 20
-392.065
 30
0.000000
  70
    32
  0
VERTEX
  8
図枠
  5
81F
 10
1276.98
 20
-392.078
 30
0.000000
  70
    32
  0
VERTEX
  8
図枠
  5
820
 10
1277.03
 20
-392.091
 30
0.000000
  70
    32
  0
VERTEX
  8
図枠
  5
821
 10
1277.09
 20
-392.103
 30
0.000000
  70
    32
  0
VERTEX
  8
図枠
  5
822
 10
1277.15
 20
-392.116
 30
0.000000
  70
    32
  0
VERTEX
  8
図枠
  5
823
 10
1277.20
 20
-392.129
 30
0.000000
  70
    32
  0
VERTEX
  8
図枠
  5
824
 10
1277.26
 20
-392.142
 30
0.000000
  70
    32
  0
VERTEX
  8
図枠
  5
825
 10
1277.32
 20
-392.154
 30
0.000000
  70
    32
  0
VERTEX
  8
図枠
  5
826
 10
1277.37
 20
-392.167
 30
0.000000
  70
    32
  0
VERTEX
  8
図枠
  5
827
 10
1277.43
 20
-392.180
 30
0.000000
  70
    32
  0
VERTEX
  8
図枠
  5
828
 10
1277.48
 20
-392.192
 30
0.000000
  70
    32
  0
VERTEX
  8
図枠
  5
829
 10
1277.54
 20
-392.205
 30
0.000000
  70
    32
  0
VERTEX
  8
図枠
  5
82A
 10
1277.60
 20
-392.217
 30
0.000000
  70
    32
  0
VERTEX
  8
図枠
  5
82B
 10
1277.65
 20
-392.230
 30
0.000000
  70
    32
  0
VERTEX
  8
図枠
  5
82C
 10
1277.71
 20
-392.242
 30
0.000000
  70
    32
  0
VERTEX
  8
図枠
  5
82D
 10
1277.77
 20
-392.254
 30
0.000000
  70
    32
  0
VERTEX
  8
図枠
  5
82E
 10
1277.82
 20
-392.267
 30
0.000000
  70
    32
  0
VERTEX
  8
図枠
  5
82F
 10
1277.88
 20
-392.279
 30
0.000000
  70
    32
  0
VERTEX
  8
図枠
  5
830
 10
1277.94
 20
-392.291
 30
0.000000
  70
    32
  0
VERTEX
  8
図枠
  5
831
 10
1277.99
 20
-392.304
 30
0.000000
  70
    32
  0
VERTEX
  8
図枠
  5
832
 10
1278.05
 20
-392.316
 30
0.000000
  70
    32
  0
VERTEX
  8
図枠
  5
833
 10
1278.11
 20
-392.328
 30
0.000000
  70
    32
  0
VERTEX
  8
図枠
  5
834
 10
1278.16
 20
-392.340
 30
0.000000
  70
    32
  0
VERTEX
  8
図枠
  5
835
 10
1278.22
 20
-392.353
 30
0.000000
  70
    32
  0
VERTEX
  8
図枠
  5
836
 10
1278.28
 20
-392.365
 30
0.000000
  70
    32
  0
VERTEX
  8
図枠
  5
837
 10
1278.33
 20
-392.377
 30
0.000000
  70
    32
  0
VERTEX
  8
図枠
  5
838
 10
1278.39
 20
-392.389
 30
0.000000
  70
    32
  0
VERTEX
  8
図枠
  5
839
 10
1278.44
 20
-392.401
 30
0.000000
  70
    32
  0
VERTEX
  8
図枠
  5
83A
 10
1278.50
 20
-392.413
 30
0.000000
  70
    32
  0
VERTEX
  8
図枠
  5
83B
 10
1278.56
 20
-392.425
 30
0.000000
  70
    32
  0
VERTEX
  8
図枠
  5
83C
 10
1278.61
 20
-392.437
 30
0.000000
  70
    32
  0
VERTEX
  8
図枠
  5
83D
 10
1278.67
 20
-392.449
 30
0.000000
  70
    32
  0
VERTEX
  8
図枠
  5
83E
 10
1278.73
 20
-392.461
 30
0.000000
  70
    32
  0
VERTEX
  8
図枠
  5
83F
 10
1278.78
 20
-392.473
 30
0.000000
  70
    32
  0
VERTEX
  8
図枠
  5
840
 10
1278.84
 20
-392.485
 30
0.000000
  70
    32
  0
VERTEX
  8
図枠
  5
841
 10
1278.90
 20
-392.497
 30
0.000000
  70
    32
  0
VERTEX
  8
図枠
  5
842
 10
1278.95
 20
-392.509
 30
0.000000
  70
    32
  0
VERTEX
  8
図枠
  5
843
 10
1279.01
 20
-392.521
 30
0.000000
  70
    32
  0
VERTEX
  8
図枠
  5
844
 10
1279.07
 20
-392.533
 30
0.000000
  70
    32
  0
VERTEX
  8
図枠
  5
845
 10
1279.12
 20
-392.545
 30
0.000000
  70
    32
  0
VERTEX
  8
図枠
  5
846
 10
1279.18
 20
-392.557
 30
0.000000
  70
    32
  0
VERTEX
  8
図枠
  5
847
 10
1279.24
 20
-392.569
 30
0.000000
  70
    32
  0
VERTEX
  8
図枠
  5
848
 10
1279.29
 20
-392.581
 30
0.000000
  70
    32
  0
VERTEX
  8
図枠
  5
849
 10
1279.35
 20
-392.593
 30
0.000000
  70
    32
  0
VERTEX
  8
図枠
  5
84A
 10
1279.41
 20
-392.605
 30
0.000000
  70
    32
  0
VERTEX
  8
図枠
  5
84B
 10
1279.46
 20
-392.616
 30
0.000000
  70
    32
  0
VERTEX
  8
図枠
  5
84C
 10
1279.52
 20
-392.628
 30
0.000000
  70
    32
  0
VERTEX
  8
図枠
  5
84D
 10
1279.58
 20
-392.640
 30
0.000000
  70
    32
  0
VERTEX
  8
図枠
  5
84E
 10
1279.63
 20
-392.652
 30
0.000000
  70
    32
  0
VERTEX
  8
図枠
  5
84F
 10
1279.69
 20
-392.664
 30
0.000000
  70
    32
  0
VERTEX
  8
図枠
  5
850
 10
1279.75
 20
-392.675
 30
0.000000
  70
    32
  0
VERTEX
  8
図枠
  5
851
 10
1279.80
 20
-392.687
 30
0.000000
  70
    32
  0
VERTEX
  8
図枠
  5
852
 10
1279.86
 20
-392.699
 30
0.000000
  70
    32
  0
VERTEX
  8
図枠
  5
853
 10
1279.92
 20
-392.711
 30
0.000000
  70
    32
  0
VERTEX
  8
図枠
  5
854
 10
1279.98
 20
-392.723
 30
0.000000
  70
    32
  0
VERTEX
  8
図枠
  5
855
 10
1280.03
 20
-392.735
 30
0.000000
  70
    32
  0
VERTEX
  8
図枠
  5
856
 10
1280.09
 20
-392.746
 30
0.000000
  70
    32
  0
VERTEX
  8
図枠
  5
857
 10
1280.15
 20
-392.758
 30
0.000000
  70
    32
  0
SEQEND
  8
図枠
  5
858
  0
POLYLINE
  8
図枠
  5
859
  66
     1
 10
0.000000
 20
0.000000
 30
0.000000
  70
     8
  0
VERTEX
  8
図枠
  5
85A
 10
1262.15
 20
-384.047
 30
0.000000
  70
    32
  0
VERTEX
  8
図枠
  5
85B
 10
1262.18
 20
-384.080
 30
0.000000
  70
    32
  0
VERTEX
  8
図枠
  5
85C
 10
1262.22
 20
-384.113
 30
0.000000
  70
    32
  0
VERTEX
  8
図枠
  5
85D
 10
1262.25
 20
-384.146
 30
0.000000
  70
    32
  0
VERTEX
  8
図枠
  5
85E
 10
1262.29
 20
-384.179
 30
0.000000
  70
    32
  0
VERTEX
  8
図枠
  5
85F
 10
1262.33
 20
-384.213
 30
0.000000
  70
    32
  0
VERTEX
  8
図枠
  5
860
 10
1262.36
 20
-384.246
 30
0.000000
  70
    32
  0
VERTEX
  8
図枠
  5
861
 10
1262.40
 20
-384.279
 30
0.000000
  70
    32
  0
VERTEX
  8
図枠
  5
862
 10
1262.43
 20
-384.312
 30
0.000000
  70
    32
  0
VERTEX
  8
図枠
  5
863
 10
1262.47
 20
-384.345
 30
0.000000
  70
    32
  0
VERTEX
  8
図枠
  5
864
 10
1262.51
 20
-384.378
 30
0.000000
  70
    32
  0
VERTEX
  8
図枠
  5
865
 10
1262.54
 20
-384.412
 30
0.000000
  70
    32
  0
VERTEX
  8
図枠
  5
866
 10
1262.58
 20
-384.445
 30
0.000000
  70
    32
  0
VERTEX
  8
図枠
  5
867
 10
1262.61
 20
-384.478
 30
0.000000
  70
    32
  0
VERTEX
  8
図枠
  5
868
 10
1262.65
 20
-384.511
 30
0.000000
  70
    32
  0
VERTEX
  8
図枠
  5
869
 10
1262.69
 20
-384.544
 30
0.000000
  70
    32
  0
VERTEX
  8
図枠
  5
86A
 10
1262.72
 20
-384.577
 30
0.000000
  70
    32
  0
VERTEX
  8
図枠
  5
86B
 10
1262.76
 20
-384.610
 30
0.000000
  70
    32
  0
VERTEX
  8
図枠
  5
86C
 10
1262.79
 20
-384.644
 30
0.000000
  70
    32
  0
VERTEX
  8
図枠
  5
86D
 10
1262.83
 20
-384.677
 30
0.000000
  70
    32
  0
VERTEX
  8
図枠
  5
86E
 10
1262.87
 20
-384.710
 30
0.000000
  70
    32
  0
VERTEX
  8
図枠
  5
86F
 10
1262.90
 20
-384.743
 30
0.000000
  70
    32
  0
VERTEX
  8
図枠
  5
870
 10
1262.94
 20
-384.776
 30
0.000000
  70
    32
  0
VERTEX
  8
図枠
  5
871
 10
1262.97
 20
-384.809
 30
0.000000
  70
    32
  0
VERTEX
  8
図枠
  5
872
 10
1263.01
 20
-384.842
 30
0.000000
  70
    32
  0
VERTEX
  8
図枠
  5
873
 10
1263.05
 20
-384.875
 30
0.000000
  70
    32
  0
VERTEX
  8
図枠
  5
874
 10
1263.08
 20
-384.908
 30
0.000000
  70
    32
  0
VERTEX
  8
図枠
  5
875
 10
1263.12
 20
-384.941
 30
0.000000
  70
    32
  0
VERTEX
  8
図枠
  5
876
 10
1263.16
 20
-384.974
 30
0.000000
  70
    32
  0
VERTEX
  8
図枠
  5
877
 10
1263.19
 20
-385.007
 30
0.000000
  70
    32
  0
VERTEX
  8
図枠
  5
878
 10
1263.23
 20
-385.040
 30
0.000000
  70
    32
  0
VERTEX
  8
図枠
  5
879
 10
1263.26
 20
-385.072
 30
0.000000
  70
    32
  0
VERTEX
  8
図枠
  5
87A
 10
1263.30
 20
-385.105
 30
0.000000
  70
    32
  0
VERTEX
  8
図枠
  5
87B
 10
1263.34
 20
-385.138
 30
0.000000
  70
    32
  0
VERTEX
  8
図枠
  5
87C
 10
1263.37
 20
-385.171
 30
0.000000
  70
    32
  0
VERTEX
  8
図枠
  5
87D
 10
1263.41
 20
-385.204
 30
0.000000
  70
    32
  0
VERTEX
  8
図枠
  5
87E
 10
1263.45
 20
-385.237
 30
0.000000
  70
    32
  0
VERTEX
  8
図枠
  5
87F
 10
1263.48
 20
-385.269
 30
0.000000
  70
    32
  0
VERTEX
  8
図枠
  5
880
 10
1263.52
 20
-385.302
 30
0.000000
  70
    32
  0
VERTEX
  8
図枠
  5
881
 10
1263.55
 20
-385.335
 30
0.000000
  70
    32
  0
VERTEX
  8
図枠
  5
882
 10
1263.59
 20
-385.367
 30
0.000000
  70
    32
  0
VERTEX
  8
図枠
  5
883
 10
1263.63
 20
-385.400
 30
0.000000
  70
    32
  0
VERTEX
  8
図枠
  5
884
 10
1263.66
 20
-385.433
 30
0.000000
  70
    32
  0
VERTEX
  8
図枠
  5
885
 10
1263.70
 20
-385.465
 30
0.000000
  70
    32
  0
VERTEX
  8
図枠
  5
886
 10
1263.74
 20
-385.498
 30
0.000000
  70
    32
  0
VERTEX
  8
図枠
  5
887
 10
1263.77
 20
-385.530
 30
0.000000
  70
    32
  0
VERTEX
  8
図枠
  5
888
 10
1263.81
 20
-385.563
 30
0.000000
  70
    32
  0
VERTEX
  8
図枠
  5
889
 10
1263.84
 20
-385.595
 30
0.000000
  70
    32
  0
VERTEX
  8
図枠
  5
88A
 10
1263.88
 20
-385.628
 30
0.000000
  70
    32
  0
VERTEX
  8
図枠
  5
88B
 10
1263.92
 20
-385.660
 30
0.000000
  70
    32
  0
VERTEX
  8
図枠
  5
88C
 10
1263.95
 20
-385.692
 30
0.000000
  70
    32
  0
VERTEX
  8
図枠
  5
88D
 10
1263.99
 20
-385.725
 30
0.000000
  70
    32
  0
VERTEX
  8
図枠
  5
88E
 10
1264.03
 20
-385.757
 30
0.000000
  70
    32
  0
VERTEX
  8
図枠
  5
88F
 10
1264.06
 20
-385.789
 30
0.000000
  70
    32
  0
VERTEX
  8
図枠
  5
890
 10
1264.10
 20
-385.821
 30
0.000000
  70
    32
  0
VERTEX
  8
図枠
  5
891
 10
1264.14
 20
-385.854
 30
0.000000
  70
    32
  0
VERTEX
  8
図枠
  5
892
 10
1264.17
 20
-385.886
 30
0.000000
  70
    32
  0
VERTEX
  8
図枠
  5
893
 10
1264.21
 20
-385.918
 30
0.000000
  70
    32
  0
VERTEX
  8
図枠
  5
894
 10
1264.25
 20
-385.950
 30
0.000000
  70
    32
  0
VERTEX
  8
図枠
  5
895
 10
1264.28
 20
-385.982
 30
0.000000
  70
    32
  0
VERTEX
  8
図枠
  5
896
 10
1264.32
 20
-386.014
 30
0.000000
  70
    32
  0
VERTEX
  8
図枠
  5
897
 10
1264.36
 20
-386.046
 30
0.000000
  70
    32
  0
VERTEX
  8
図枠
  5
898
 10
1264.39
 20
-386.078
 30
0.000000
  70
    32
  0
VERTEX
  8
図枠
  5
899
 10
1264.43
 20
-386.110
 30
0.000000
  70
    32
  0
VERTEX
  8
図枠
  5
89A
 10
1264.47
 20
-386.141
 30
0.000000
  70
    32
  0
VERTEX
  8
図枠
  5
89B
 10
1264.50
 20
-386.173
 30
0.000000
  70
    32
  0
VERTEX
  8
図枠
  5
89C
 10
1264.54
 20
-386.205
 30
0.000000
  70
    32
  0
VERTEX
  8
図枠
  5
89D
 10
1264.58
 20
-386.237
 30
0.000000
  70
    32
  0
VERTEX
  8
図枠
  5
89E
 10
1264.61
 20
-386.268
 30
0.000000
  70
    32
  0
VERTEX
  8
図枠
  5
89F
 10
1264.65
 20
-386.300
 30
0.000000
  70
    32
  0
VERTEX
  8
図枠
  5
8A0
 10
1264.69
 20
-386.331
 30
0.000000
  70
    32
  0
VERTEX
  8
図枠
  5
8A1
 10
1264.73
 20
-386.363
 30
0.000000
  70
    32
  0
VERTEX
  8
図枠
  5
8A2
 10
1264.76
 20
-386.394
 30
0.000000
  70
    32
  0
VERTEX
  8
図枠
  5
8A3
 10
1264.80
 20
-386.426
 30
0.000000
  70
    32
  0
VERTEX
  8
図枠
  5
8A4
 10
1264.84
 20
-386.457
 30
0.000000
  70
    32
  0
VERTEX
  8
図枠
  5
8A5
 10
1264.87
 20
-386.488
 30
0.000000
  70
    32
  0
VERTEX
  8
図枠
  5
8A6
 10
1264.91
 20
-386.520
 30
0.000000
  70
    32
  0
VERTEX
  8
図枠
  5
8A7
 10
1264.95
 20
-386.551
 30
0.000000
  70
    32
  0
VERTEX
  8
図枠
  5
8A8
 10
1264.98
 20
-386.582
 30
0.000000
  70
    32
  0
VERTEX
  8
図枠
  5
8A9
 10
1265.02
 20
-386.613
 30
0.000000
  70
    32
  0
VERTEX
  8
図枠
  5
8AA
 10
1265.06
 20
-386.644
 30
0.000000
  70
    32
  0
VERTEX
  8
図枠
  5
8AB
 10
1265.10
 20
-386.675
 30
0.000000
  70
    32
  0
VERTEX
  8
図枠
  5
8AC
 10
1265.13
 20
-386.706
 30
0.000000
  70
    32
  0
VERTEX
  8
図枠
  5
8AD
 10
1265.17
 20
-386.737
 30
0.000000
  70
    32
  0
VERTEX
  8
図枠
  5
8AE
 10
1265.21
 20
-386.768
 30
0.000000
  70
    32
  0
VERTEX
  8
図枠
  5
8AF
 10
1265.25
 20
-386.798
 30
0.000000
  70
    32
  0
VERTEX
  8
図枠
  5
8B0
 10
1265.28
 20
-386.829
 30
0.000000
  70
    32
  0
VERTEX
  8
図枠
  5
8B1
 10
1265.32
 20
-386.860
 30
0.000000
  70
    32
  0
VERTEX
  8
図枠
  5
8B2
 10
1265.36
 20
-386.890
 30
0.000000
  70
    32
  0
VERTEX
  8
図枠
  5
8B3
 10
1265.40
 20
-386.921
 30
0.000000
  70
    32
  0
VERTEX
  8
図枠
  5
8B4
 10
1265.43
 20
-386.951
 30
0.000000
  70
    32
  0
VERTEX
  8
図枠
  5
8B5
 10
1265.47
 20
-386.981
 30
0.000000
  70
    32
  0
VERTEX
  8
図枠
  5
8B6
 10
1265.51
 20
-387.012
 30
0.000000
  70
    32
  0
VERTEX
  8
図枠
  5
8B7
 10
1265.55
 20
-387.042
 30
0.000000
  70
    32
  0
VERTEX
  8
図枠
  5
8B8
 10
1265.58
 20
-387.072
 30
0.000000
  70
    32
  0
VERTEX
  8
図枠
  5
8B9
 10
1265.62
 20
-387.102
 30
0.000000
  70
    32
  0
VERTEX
  8
図枠
  5
8BA
 10
1265.66
 20
-387.132
 30
0.000000
  70
    32
  0
VERTEX
  8
図枠
  5
8BB
 10
1265.70
 20
-387.162
 30
0.000000
  70
    32
  0
VERTEX
  8
図枠
  5
8BC
 10
1265.73
 20
-387.192
 30
0.000000
  70
    32
  0
VERTEX
  8
図枠
  5
8BD
 10
1265.77
 20
-387.222
 30
0.000000
  70
    32
  0
VERTEX
  8
図枠
  5
8BE
 10
1265.81
 20
-387.252
 30
0.000000
  70
    32
  0
VERTEX
  8
図枠
  5
8BF
 10
1265.85
 20
-387.282
 30
0.000000
  70
    32
  0
VERTEX
  8
図枠
  5
8C0
 10
1265.89
 20
-387.311
 30
0.000000
  70
    32
  0
VERTEX
  8
図枠
  5
8C1
 10
1265.92
 20
-387.341
 30
0.000000
  70
    32
  0
VERTEX
  8
図枠
  5
8C2
 10
1265.96
 20
-387.370
 30
0.000000
  70
    32
  0
VERTEX
  8
図枠
  5
8C3
 10
1266.00
 20
-387.400
 30
0.000000
  70
    32
  0
VERTEX
  8
図枠
  5
8C4
 10
1266.04
 20
-387.429
 30
0.000000
  70
    32
  0
VERTEX
  8
図枠
  5
8C5
 10
1266.08
 20
-387.458
 30
0.000000
  70
    32
  0
VERTEX
  8
図枠
  5
8C6
 10
1266.11
 20
-387.488
 30
0.000000
  70
    32
  0
VERTEX
  8
図枠
  5
8C7
 10
1266.15
 20
-387.517
 30
0.000000
  70
    32
  0
VERTEX
  8
図枠
  5
8C8
 10
1266.19
 20
-387.546
 30
0.000000
  70
    32
  0
VERTEX
  8
図枠
  5
8C9
 10
1266.23
 20
-387.575
 30
0.000000
  70
    32
  0
VERTEX
  8
図枠
  5
8CA
 10
1266.27
 20
-387.604
 30
0.000000
  70
    32
  0
VERTEX
  8
図枠
  5
8CB
 10
1266.31
 20
-387.633
 30
0.000000
  70
    32
  0
VERTEX
  8
図枠
  5
8CC
 10
1266.34
 20
-387.661
 30
0.000000
  70
    32
  0
VERTEX
  8
図枠
  5
8CD
 10
1266.38
 20
-387.690
 30
0.000000
  70
    32
  0
VERTEX
  8
図枠
  5
8CE
 10
1266.42
 20
-387.719
 30
0.000000
  70
    32
  0
VERTEX
  8
図枠
  5
8CF
 10
1266.46
 20
-387.747
 30
0.000000
  70
    32
  0
VERTEX
  8
図枠
  5
8D0
 10
1266.50
 20
-387.776
 30
0.000000
  70
    32
  0
VERTEX
  8
図枠
  5
8D1
 10
1266.54
 20
-387.804
 30
0.000000
  70
    32
  0
VERTEX
  8
図枠
  5
8D2
 10
1266.58
 20
-387.832
 30
0.000000
  70
    32
  0
VERTEX
  8
図枠
  5
8D3
 10
1266.61
 20
-387.860
 30
0.000000
  70
    32
  0
VERTEX
  8
図枠
  5
8D4
 10
1266.65
 20
-387.888
 30
0.000000
  70
    32
  0
VERTEX
  8
図枠
  5
8D5
 10
1266.69
 20
-387.916
 30
0.000000
  70
    32
  0
VERTEX
  8
図枠
  5
8D6
 10
1266.73
 20
-387.944
 30
0.000000
  70
    32
  0
VERTEX
  8
図枠
  5
8D7
 10
1266.77
 20
-387.972
 30
0.000000
  70
    32
  0
VERTEX
  8
図枠
  5
8D8
 10
1266.81
 20
-388.000
 30
0.000000
  70
    32
  0
VERTEX
  8
図枠
  5
8D9
 10
1266.85
 20
-388.028
 30
0.000000
  70
    32
  0
VERTEX
  8
図枠
  5
8DA
 10
1266.89
 20
-388.055
 30
0.000000
  70
    32
  0
VERTEX
  8
図枠
  5
8DB
 10
1266.93
 20
-388.083
 30
0.000000
  70
    32
  0
VERTEX
  8
図枠
  5
8DC
 10
1266.97
 20
-388.110
 30
0.000000
  70
    32
  0
VERTEX
  8
図枠
  5
8DD
 10
1267.00
 20
-388.137
 30
0.000000
  70
    32
  0
VERTEX
  8
図枠
  5
8DE
 10
1267.04
 20
-388.165
 30
0.000000
  70
    32
  0
VERTEX
  8
図枠
  5
8DF
 10
1267.08
 20
-388.192
 30
0.000000
  70
    32
  0
VERTEX
  8
図枠
  5
8E0
 10
1267.12
 20
-388.219
 30
0.000000
  70
    32
  0
VERTEX
  8
図枠
  5
8E1
 10
1267.16
 20
-388.246
 30
0.000000
  70
    32
  0
VERTEX
  8
図枠
  5
8E2
 10
1267.20
 20
-388.273
 30
0.000000
  70
    32
  0
VERTEX
  8
図枠
  5
8E3
 10
1267.24
 20
-388.299
 30
0.000000
  70
    32
  0
VERTEX
  8
図枠
  5
8E4
 10
1267.28
 20
-388.326
 30
0.000000
  70
    32
  0
VERTEX
  8
図枠
  5
8E5
 10
1267.32
 20
-388.353
 30
0.000000
  70
    32
  0
VERTEX
  8
図枠
  5
8E6
 10
1267.36
 20
-388.379
 30
0.000000
  70
    32
  0
VERTEX
  8
図枠
  5
8E7
 10
1267.40
 20
-388.406
 30
0.000000
  70
    32
  0
VERTEX
  8
図枠
  5
8E8
 10
1267.44
 20
-388.432
 30
0.000000
  70
    32
  0
VERTEX
  8
図枠
  5
8E9
 10
1267.48
 20
-388.458
 30
0.000000
  70
    32
  0
VERTEX
  8
図枠
  5
8EA
 10
1267.52
 20
-388.484
 30
0.000000
  70
    32
  0
VERTEX
  8
図枠
  5
8EB
 10
1267.56
 20
-388.510
 30
0.000000
  70
    32
  0
VERTEX
  8
図枠
  5
8EC
 10
1267.60
 20
-388.536
 30
0.000000
  70
    32
  0
VERTEX
  8
図枠
  5
8ED
 10
1267.64
 20
-388.562
 30
0.000000
  70
    32
  0
VERTEX
  8
図枠
  5
8EE
 10
1267.68
 20
-388.588
 30
0.000000
  70
    32
  0
VERTEX
  8
図枠
  5
8EF
 10
1267.72
 20
-388.613
 30
0.000000
  70
    32
  0
VERTEX
  8
図枠
  5
8F0
 10
1267.76
 20
-388.639
 30
0.000000
  70
    32
  0
VERTEX
  8
図枠
  5
8F1
 10
1267.80
 20
-388.664
 30
0.000000
  70
    32
  0
VERTEX
  8
図枠
  5
8F2
 10
1267.84
 20
-388.689
 30
0.000000
  70
    32
  0
VERTEX
  8
図枠
  5
8F3
 10
1267.88
 20
-388.714
 30
0.000000
  70
    32
  0
VERTEX
  8
図枠
  5
8F4
 10
1267.92
 20
-388.739
 30
0.000000
  70
    32
  0
VERTEX
  8
図枠
  5
8F5
 10
1267.96
 20
-388.764
 30
0.000000
  70
    32
  0
VERTEX
  8
図枠
  5
8F6
 10
1268.00
 20
-388.789
 30
0.000000
  70
    32
  0
VERTEX
  8
図枠
  5
8F7
 10
1268.04
 20
-388.814
 30
0.000000
  70
    32
  0
VERTEX
  8
図枠
  5
8F8
 10
1268.08
 20
-388.839
 30
0.000000
  70
    32
  0
VERTEX
  8
図枠
  5
8F9
 10
1268.12
 20
-388.863
 30
0.000000
  70
    32
  0
SEQEND
  8
図枠
  5
8FA
  0
INSERT
  5
AC
  8
0
  6
CONTINUOUS
  2
*U107
 10
0.0
 20
0.0
 30
0.0
  0
LINE
  5
AD
  8
図枠
 10
1289.2746996067001
 20
-339.51145833330003
 30
0.0
 11
1289.2746996067001
 21
-344.3114583333001
 31
0.0
  0
LINE
  5
AE
  8
図枠
 10
1256.8241575599
 20
-382.75811239960001
 30
0.0
 11
1256.8241575599
 21
-385.75811239960001
 31
0.0
  0
LINE
  5
AF
  8
図枠
 10
1289.2746996067001
 20
-344.3114583333001
 30
0.0
 11
1298.8746996067
 21
-346.71145833330002
 31
0.0
  0
LINE
  5
B0
  8
図枠
 10
1262.1453696811
 20
-378.75811239960001
 30
0.0
 11
1262.1453696811
 21
-382.35811239959997
 31
0.0
  0
ARC
  5
B1
  8
図枠
 10
1247.8241575599
 20
-386.75811239960001
 30
0.0
 40
6.0
 50
270.0
 51
0.0
  0
LINE
  5
B2
  8
図枠
 10
1161.5028645832999
 20
-330.9114583333
 30
0.0
 11
1161.5028645832999
 21
-396.9114583333
 31
0.0
  0
INSERT
  5
B3
  8
0
  6
CONTINUOUS
  2
*U108
 10
0.0
 20
0.0
 30
0.0
  0
INSERT
  5
B4
  8
0
  6
CONTINUOUS
  2
*U109
 10
0.0
 20
0.0
 30
0.0
  0
INSERT
  5
B5
  8
0
  6
CONTINUOUS
  2
*U110
 10
0.0
 20
0.0
 30
0.0
  0
INSERT
  5
B6
  8
0
  6
CONTINUOUS
  2
*U111
 10
0.0
 20
0.0
 30
0.0
  0
LINE
  5
B7
  8
図枠
 10
1236.5028645832999
 20
-352.9114583333
 30
0.0
 11
1236.5028645832999
 21
-374.9114583333
 31
0.0
  0
LINE
  5
B8
  8
図枠
 10
1161.5028645832999
 20
-374.9114583333
 30
0.0
 11
1451.5028645832999
 21
-374.9114583333
 31
0.0
  0
LINE
  5
B9
  8
図枠
 10
1166.5028645832999
 20
-363.9114583333
 30
0.0
 11
1231.5028645832999
 21
-363.9114583333
 31
0.0
  0
LINE
  5
BA
  8
図枠
 10
1241.5028645832999
 20
-363.9114583333
 30
0.0
 11
1306.5028645832999
 21
-363.9114583333
 31
0.0
  0
INSERT
  5
BB
  8
0
  6
CONTINUOUS
  2
*U112
 10
0.0
 20
0.0
 30
0.0
  0
INSERT
  5
BC
  8
0
  6
CONTINUOUS
  2
*U113
 10
0.0
 20
0.0
 30
0.0
  0
LINE
  5
BD
  8
図枠
 10
1179.5028645832999
 20
-320.9114583333
 30
0.0
 11
1179.5028645832999
 21
-310.9114583333
 31
0.0
  0
LINE
  5
BE
  8
図枠
 10
1161.5028645832999
 20
-320.9114583333
 30
0.0
 11
1161.5028645832999
 21
-310.9114583333
 31
0.0
  0
LINE
  5
BF
  8
図枠
 10
1389.5028645832999
 20
-320.9114583333
 30
0.0
 11
1389.5028645832999
 21
-310.9114583333
 31
0.0
  0
LINE
  5
C0
  8
図枠
 10
1371.5028645832999
 20
-320.9114583333
 30
0.0
 11
1371.5028645832999
 21
-310.9114583333
 31
0.0
  0
LINE
  5
C1
  8
図枠
 10
1451.5028645832999
 20
-310.9114583333
 30
0.0
 11
1161.5028645832999
 21
-310.9114583333
 31
0.0
  0
LINE
  5
C2
  8
図枠
 10
1161.5028645832999
 20
-320.9114583333
 30
0.0
 11
1451.5028645832999
 21
-320.9114583333
 31
0.0
  0
LINE
  5
C3
  8
図枠
 10
1279.5028645832999
 20
-320.9114583333
 30
0.0
 11
1279.5028645832999
 21
-310.9114583333
 31
0.0
  0
INSERT
  5
C4
  8
0
  6
CONTINUOUS
  2
*U114
 10
0.0
 20
0.0
 30
0.0
  0
INSERT
  5
C5
  8
0
  6
CONTINUOUS
  2
*U115
 10
0.0
 20
0.0
 30
0.0
  0
CIRCLE
  5
C6
  8
図枠
 10
1278.3028645833001
 20
-341.9114583333
 30
0.0
 40
2.399999999999999
  0
LINE
  5
C7
  8
図枠
 10
1289.2746996067001
 20
-344.3114583333001
 30
0.0
 11
1298.8746996067
 21
-346.71145833330002
 31
0.0
  0
LINE
  5
C8
  8
図枠
 10
1289.2746996067001
 20
-339.51145833330003
 30
0.0
 11
1289.2746996067001
 21
-344.3114583333001
 31
0.0
  0
LINE
  5
C9
  8
図枠
 10
1298.8746996067
 20
-337.11145833329999
 30
0.0
 11
1298.8746996067
 21
-346.71145833330002
 31
0.0
  0
LINE
  5
CA
  8
図枠
  6
BORDER
 10
1278.3028645833001
 20
-334.71145833330002
 30
0.0
 11
1278.3028645833001
 21
-349.11145833329999
 31
0.0
  0
LINE
  5
CB
  8
図枠
  6
BORDER
 10
1278.3028645833001
 20
-334.71145833330002
 30
0.0
 11
1278.3028645833001
 21
-349.11145833329999
 31
0.0
  0
LINE
  5
CC
  8
図枠
 10
1298.8746996067
 20
-337.11145833329999
 30
0.0
 11
1298.8746996067
 21
-346.71145833330002
 31
0.0
  0
LINE
  5
CD
  8
図枠
 10
1289.2746996067001
 20
-339.51145833330003
 30
0.0
 11
1289.2746996067001
 21
-344.3114583333001
 31
0.0
  0
LINE
  5
CE
  8
図枠
 10
1289.2746996067001
 20
-344.3114583333001
 30
0.0
 11
1298.8746996067
 21
-346.71145833330002
 31
0.0
  0
LINE
  5
CF
  8
図枠
 10
1289.2746996067001
 20
-339.51145833330003
 30
0.0
 11
1298.8746996067
 21
-337.11145833329999
 31
0.0
  0
CIRCLE
  5
D0
  8
図枠
 10
1278.3028645833001
 20
-341.9114583333
 30
0.0
 40
4.7999999999999989
  0
CIRCLE
  5
D1
  8
図枠
 10
1278.3028645833001
 20
-341.9114583333
 30
0.0
 40
2.399999999999999
  0
CIRCLE
  5
D2
  8
図枠
 10
1278.3028645833001
 20
-341.9114583333
 30
0.0
 40
4.7999999999999989
  0
LINE
  5
D3
  8
図枠
 10
1289.2746996067001
 20
-339.51145833330003
 30
0.0
 11
1298.8746996067
 21
-337.11145833329999
 31
0.0
  0
ENDBLK
  5
D4
  8
0
  0
BLOCK
  8
0
  2
CLUMP1
 70
     0
 10
0.0
 20
0.0
 30
0.0
  3
CLUMP1
  1

  0
LINE
  5
E9
  8
図枠
 10
1279.5028645832999
 20
-310.9114583333
 30
0.0
 11
1279.5028645832999
 21
-300.9114583333
 31
0.0
  0
LINE
  5
EA
  8
図枠
 10
1161.5028645832999
 20
-310.9114583333
 30
0.0
 11
1161.5028645832999
 21
-300.9114583333
 31
0.0
  0
LINE
  5
EB
  8
図枠
 10
1179.5028645832999
 20
-310.9114583333
 30
0.0
 11
1179.5028645832999
 21
-300.9114583333
 31
0.0
  0
LINE
  5
EC
  8
図枠
 10
1389.5028645832999
 20
-310.9114583333
 30
0.0
 11
1389.5028645832999
 21
-300.9114583333
 31
0.0
  0
LINE
  5
ED
  8
図枠
 10
1371.5028645832999
 20
-310.9114583333
 30
0.0
 11
1371.5028645832999
 21
-300.9114583333
 31
0.0
  0
LINE
  5
EE
  8
図枠
 10
1451.5028645832999
 20
-300.9114583333
 30
0.0
 11
1161.5028645832999
 21
-300.9114583333
 31
0.0
  0
ENDBLK
  5
EF
  8
0
  0
BLOCK
  8
0
  2
CLUMP2
 70
     0
 10
0.0
 20
0.0
 30
0.0
  3
CLUMP2
  1

  0
LINE
  5
F3
  8
図枠
 10
1279.5028645832999
 20
-300.9114583333
 30
0.0
 11
1279.5028645832999
 21
-290.9114583333
 31
0.0
  0
LINE
  5
F4
  8
図枠
 10
1161.5028645832999
 20
-300.9114583333
 30
0.0
 11
1161.5028645832999
 21
-290.9114583333
 31
0.0
  0
LINE
  5
F5
  8
図枠
 10
1179.5028645832999
 20
-300.9114583333
 30
0.0
 11
1179.5028645832999
 21
-290.9114583333
 31
0.0
  0
LINE
  5
F6
  8
図枠
 10
1389.5028645832999
 20
-300.9114583333
 30
0.0
 11
1389.5028645832999
 21
-290.9114583333
 31
0.0
  0
LINE
  5
F7
  8
図枠
 10
1371.5028645832999
 20
-300.9114583333
 30
0.0
 11
1371.5028645832999
 21
-290.9114583333
 31
0.0
  0
LINE
  5
F8
  8
図枠
 10
1451.5028645832999
 20
-290.9114583333
 30
0.0
 11
1161.5028645832999
 21
-290.9114583333
 31
0.0
  0
ENDBLK
  5
F9
  8
0
  0
BLOCK
  8
0
  2
CLUMP3
 70
     0
 10
0.0
 20
0.0
 30
0.0
  3
CLUMP3
  1

  0
ARC
  5
10E
  8
ﾚｲﾔ_1
 62
     5
 10
879.22265624999989
 20
-198.55025376009999
 30
0.0
 40
3.5
 50
270.0
 51
90.0
  0
LINE
  5
10F
  8
ﾚｲﾔ_1
 62
     5
 10
864.22265624999989
 20
-195.05025376009999
 30
0.0
 11
879.22265624999989
 21
-195.05025376009999
 31
0.0
  0
LINE
  5
110
  8
ﾚｲﾔ_1
 62
     5
 10
879.22265624999989
 20
-202.05025376009999
 30
0.0
 11
864.22265624999989
 21
-202.05025376009999
 31
0.0
  0
ARC
  5
111
  8
ﾚｲﾔ_1
 62
     5
 10
864.22265624999989
 20
-198.55025376009999
 30
0.0
 40
3.5
 50
90.0
 51
270.0
  0
ENDBLK
  5
112
  8
0
  0
BLOCK
  8
0
  2
CLUMP4
 70
     0
 10
0.0
 20
0.0
 30
0.0
  3
CLUMP4
  1

  0
ARC
  5
116
  8
ﾚｲﾔ_1
 62
     5
 10
737.22265624999989
 20
-198.55025376009999
 30
0.0
 40
3.5
 50
270.0
 51
90.0
  0
LINE
  5
117
  8
ﾚｲﾔ_1
 62
     5
 10
722.22265625
 20
-195.05025376009999
 30
0.0
 11
737.22265624999989
 21
-195.05025376009999
 31
0.0
  0
LINE
  5
118
  8
ﾚｲﾔ_1
 62
     5
 10
737.22265624999989
 20
-202.05025376009999
 30
0.0
 11
722.22265625
 21
-202.05025376009999
 31
0.0
  0
ARC
  5
119
  8
ﾚｲﾔ_1
 62
     5
 10
722.22265625
 20
-198.55025376009999
 30
0.0
 40
3.5
 50
90.0
 51
270.0
  0
ENDBLK
  5
11A
  8
0
  0
BLOCK
  8
0
  2
CLUMP5
 70
     0
 10
0.0
 20
0.0
 30
0.0
  3
CLUMP5
  1

  0
ARC
  5
11E
  8
ﾚｲﾔ_1
 62
     5
 10
950.22265625
 20
-198.55025376009999
 30
0.0
 40
3.5
 50
270.0
 51
90.0
  0
LINE
  5
11F
  8
ﾚｲﾔ_1
 62
     5
 10
935.22265625
 20
-195.05025376009999
 30
0.0
 11
950.22265625
 21
-195.05025376009999
 31
0.0
  0
LINE
  5
120
  8
ﾚｲﾔ_1
 62
     5
 10
950.22265625
 20
-202.05025376009999
 30
0.0
 11
935.22265625
 21
-202.05025376009999
 31
0.0
  0
ARC
  5
121
  8
ﾚｲﾔ_1
 62
     5
 10
935.22265625
 20
-198.55025376009999
 30
0.0
 40
3.5
 50
90.0
 51
270.0
  0
ENDBLK
  5
122
  8
0
  0
BLOCK
  8
0
  2
CLUMP6
 70
     0
 10
0.0
 20
0.0
 30
0.0
  3
CLUMP6
  1

  0
LINE
  5
12C
  8
図枠
 10
1279.5028645832999
 20
-290.9114583333
 30
0.0
 11
1279.5028645832999
 21
-280.9114583333
 31
0.0
  0
LINE
  5
12D
  8
図枠
 10
1161.5028645832999
 20
-290.9114583333
 30
0.0
 11
1161.5028645832999
 21
-280.9114583333
 31
0.0
  0
LINE
  5
12E
  8
図枠
 10
1179.5028645832999
 20
-290.9114583333
 30
0.0
 11
1179.5028645832999
 21
-280.9114583333
 31
0.0
  0
LINE
  5
12F
  8
図枠
 10
1389.5028645832999
 20
-290.9114583333
 30
0.0
 11
1389.5028645832999
 21
-280.9114583333
 31
0.0
  0
LINE
  5
130
  8
図枠
 10
1371.5028645832999
 20
-290.9114583333
 30
0.0
 11
1371.5028645832999
 21
-280.9114583333
 31
0.0
  0
LINE
  5
131
  8
図枠
 10
1451.5028645832999
 20
-280.9114583333
 30
0.0
 11
1161.5028645832999
 21
-280.9114583333
 31
0.0
  0
ENDBLK
  5
132
  8
0
  0
BLOCK
  8
0
  2
CLUMP7
 70
     0
 10
0.0
 20
0.0
 30
0.0
  3
CLUMP7
  1

  0
ARC
  5
13E
  8
ﾚｲﾔ_1
 62
     5
 10
1163.22265625
 20
-148.55025376009999
 30
0.0
 40
3.5
 50
270.0
 51
90.0
  0
LINE
  5
13F
  8
ﾚｲﾔ_1
 62
     5
 10
1148.22265625
 20
-152.05025376009999
 30
0.0
 11
1163.22265625
 21
-152.05025376009999
 31
0.0
  0
LINE
  5
140
  8
ﾚｲﾔ_1
 62
     5
 10
1163.22265625
 20
-145.05025376009999
 30
0.0
 11
1148.22265625
 21
-145.05025376009999
 31
0.0
  0
ARC
  5
141
  8
ﾚｲﾔ_1
 62
     5
 10
1148.22265625
 20
-148.55025376009999
 30
0.0
 40
3.5
 50
90.0
 51
270.0
  0
ENDBLK
  5
142
  8
0
  0
BLOCK
  8
0
  2
CLUMP8
 70
     0
 10
0.0
 20
0.0
 30
0.0
  3
CLUMP8
  1

  0
ARC
  5
146
  8
ﾚｲﾔ_1
 62
     5
 10
1124.72265625
 20
-173.55025376009999
 30
0.0
 40
3.5
 50
270.0
 51
90.0
  0
LINE
  5
147
  8
ﾚｲﾔ_1
 62
     5
 10
1109.72265625
 20
-177.05025376009999
 30
0.0
 11
1124.72265625
 21
-177.05025376009999
 31
0.0
  0
LINE
  5
148
  8
ﾚｲﾔ_1
 62
     5
 10
1124.72265625
 20
-170.05025376009999
 30
0.0
 11
1109.72265625
 21
-170.05025376009999
 31
0.0
  0
ARC
  5
149
  8
ﾚｲﾔ_1
 62
     5
 10
1109.72265625
 20
-173.55025376009999
 30
0.0
 40
3.5
 50
90.0
 51
270.0
  0
ENDBLK
  5
14A
  8
0
  0
BLOCK
  8
0
  2
CLUMP9
 70
     0
 10
0.0
 20
0.0
 30
0.0
  3
CLUMP9
  1

  0
ARC
  5
14F
  8
ﾚｲﾔ_1
 62
     5
 10
1092.22265625
 20
-198.55025376009999
 30
0.0
 40
3.5
 50
270.0
 51
90.0
  0
LINE
  5
150
  8
ﾚｲﾔ_1
 62
     5
 10
1077.22265625
 20
-195.05025376009999
 30
0.0
 11
1092.22265625
 21
-195.05025376009999
 31
0.0
  0
LINE
  5
151
  8
ﾚｲﾔ_1
 62
     5
 10
1092.22265625
 20
-202.05025376009999
 30
0.0
 11
1077.22265625
 21
-202.05025376009999
 31
0.0
  0
ARC
  5
152
  8
ﾚｲﾔ_1
 62
     5
 10
1077.22265625
 20
-198.55025376009999
 30
0.0
 40
3.5
 50
90.0
 51
270.0
  0
ENDBLK
  5
153
  8
0
  0
BLOCK
  8
0
  2
CLUMP10
 70
     0
 10
0.0
 20
0.0
 30
0.0
  3
CLUMP10
  1

  0
ARC
  5
157
  8
ﾚｲﾔ_1
 62
     5
 10
1163.22265625
 20
-198.55025376009999
 30
0.0
 40
3.5
 50
270.0
 51
90.0
  0
LINE
  5
158
  8
ﾚｲﾔ_1
 62
     5
 10
1148.22265625
 20
-195.05025376009999
 30
0.0
 11
1163.22265625
 21
-195.05025376009999
 31
0.0
  0
LINE
  5
159
  8
ﾚｲﾔ_1
 62
     5
 10
1163.22265625
 20
-202.05025376009999
 30
0.0
 11
1148.22265625
 21
-202.05025376009999
 31
0.0
  0
ARC
  5
15A
  8
ﾚｲﾔ_1
 62
     5
 10
1148.22265625
 20
-198.55025376009999
 30
0.0
 40
3.5
 50
90.0
 51
270.0
  0
ENDBLK
  5
15B
  8
0
  0
BLOCK
  8
0
  2
CLUMP11
 70
     0
 10
0.0
 20
0.0
 30
0.0
  3
CLUMP11
  1

  0
ARC
  5
167
  8
ﾚｲﾔ_1
 62
     5
 10
911.72265625
 20
-173.55025376009999
 30
0.0
 40
3.5
 50
270.0
 51
90.0
  0
LINE
  5
168
  8
ﾚｲﾔ_1
 62
     5
 10
896.72265625
 20
-177.05025376009999
 30
0.0
 11
911.72265625
 21
-177.05025376009999
 31
0.0
  0
LINE
  5
169
  8
ﾚｲﾔ_1
 62
     5
 10
911.72265625
 20
-170.05025376009999
 30
0.0
 11
896.72265625
 21
-170.05025376009999
 31
0.0
  0
ARC
  5
16A
  8
ﾚｲﾔ_1
 62
     5
 10
896.72265625
 20
-173.55025376009999
 30
0.0
 40
3.5
 50
90.0
 51
270.0
  0
ENDBLK
  5
16B
  8
0
  0
BLOCK
  8
0
  2
CLUMP12
 70
     0
 10
0.0
 20
0.0
 30
0.0
  3
CLUMP12
  1

  0
ARC
  5
170
  8
ﾚｲﾔ_1
 62
     5
 10
816.66159740809985
 20
8.1805860836999997
 30
0.0
 40
3.5
 50
270.0
 51
90.0
  0
LINE
  5
171
  8
ﾚｲﾔ_1
 62
     5
 10
801.66159740809996
 20
11.6805860837
 30
0.0
 11
816.66159740809985
 21
11.6805860837
 31
0.0
  0
LINE
  5
172
  8
ﾚｲﾔ_1
 62
     5
 10
816.66159740809985
 20
4.6805860836999988
 30
0.0
 11
801.66159740809996
 21
4.6805860836999988
 31
0.0
  0
ARC
  5
173
  8
ﾚｲﾔ_1
 62
     5
 10
801.66159740809996
 20
8.1805860836999997
 30
0.0
 40
3.5
 50
90.0
 51
270.0
  0
ENDBLK
  5
174
  8
0
  0
BLOCK
  8
0
  2
CLUMP13
 70
     0
 10
0.0
 20
0.0
 30
0.0
  3
CLUMP13
  1

  0
ARC
  5
180
  8
ﾚｲﾔ_1
 62
     5
 10
1062.1615974081001
 20
33.1805860837
 30
0.0
 40
3.5
 50
270.0
 51
90.0
  0
LINE
  5
181
  8
ﾚｲﾔ_1
 62
     5
 10
1047.1615974081001
 20
29.6805860837
 30
0.0
 11
1062.1615974081001
 21
29.6805860837
 31
0.0
  0
LINE
  5
182
  8
ﾚｲﾔ_1
 62
     5
 10
1062.1615974081001
 20
36.6805860837
 30
0.0
 11
1047.1615974081001
 21
36.6805860837
 31
0.0
  0
ARC
  5
183
  8
ﾚｲﾔ_1
 62
     5
 10
1047.1615974081001
 20
33.1805860837
 30
0.0
 40
3.5
 50
90.0
 51
270.0
  0
ENDBLK
  5
184
  8
0
  0
BLOCK
  8
0
  2
CLUMP14
 70
     0
 10
0.0
 20
0.0
 30
0.0
  3
CLUMP14
  1

  0
ARC
  5
18C
  8
ﾚｲﾔ_1
 62
     5
 10
808.22265625
 20
-198.55025376009999
 30
0.0
 40
3.5
 50
270.0
 51
90.0
  0
LINE
  5
18D
  8
ﾚｲﾔ_1
 62
     5
 10
793.22265625
 20
-195.05025376009999
 30
0.0
 11
808.22265625
 21
-195.05025376009999
 31
0.0
  0
LINE
  5
18E
  8
ﾚｲﾔ_1
 62
     5
 10
808.22265625
 20
-202.05025376009999
 30
0.0
 11
793.22265625
 21
-202.05025376009999
 31
0.0
  0
ARC
  5
18F
  8
ﾚｲﾔ_1
 62
     5
 10
793.22265625
 20
-198.55025376009999
 30
0.0
 40
3.5
 50
90.0
 51
270.0
  0
ENDBLK
  5
190
  8
0
  0
BLOCK
  8
0
  2
CLUMP15
 70
     0
 10
0.0
 20
0.0
 30
0.0
  3
CLUMP15
  1

  0
ARC
  5
194
  8
ﾚｲﾔ_1
 62
     5
 10
1021.22265625
 20
-198.55025376009999
 30
0.0
 40
3.5
 50
270.0
 51
90.0
  0
LINE
  5
195
  8
ﾚｲﾔ_1
 62
     5
 10
1006.22265625
 20
-195.05025376009999
 30
0.0
 11
1021.22265625
 21
-195.05025376009999
 31
0.0
  0
LINE
  5
196
  8
ﾚｲﾔ_1
 62
     5
 10
1021.22265625
 20
-202.05025376009999
 30
0.0
 11
1006.22265625
 21
-202.05025376009999
 31
0.0
  0
ARC
  5
197
  8
ﾚｲﾔ_1
 62
     5
 10
1006.22265625
 20
-198.55025376009999
 30
0.0
 40
3.5
 50
90.0
 51
270.0
  0
ENDBLK
  5
198
  8
0
  0
BLOCK
  8
0
  2
CLUMP16
 70
     0
 10
0.0
 20
0.0
 30
0.0
  3
CLUMP16
  1

  0
ARC
  5
1A7
  8
ﾚｲﾔ_1
 62
     5
 10
879.22265624999989
 20
-148.55025376009999
 30
0.0
 40
3.5
 50
270.0
 51
90.0
  0
LINE
  5
1A8
  8
ﾚｲﾔ_1
 62
     5
 10
864.22265624999989
 20
-152.05025376009999
 30
0.0
 11
879.22265624999989
 21
-152.05025376009999
 31
0.0
  0
LINE
  5
1A9
  8
ﾚｲﾔ_1
 62
     5
 10
879.22265624999989
 20
-145.05025376009999
 30
0.0
 11
864.22265624999989
 21
-145.05025376009999
 31
0.0
  0
ARC
  5
1AA
  8
ﾚｲﾔ_1
 62
     5
 10
864.22265624999989
 20
-148.55025376009999
 30
0.0
 40
3.5
 50
90.0
 51
270.0
  0
ENDBLK
  5
1AB
  8
0
  0
BLOCK
  8
0
  2
CLUMP17
 70
     0
 10
0.0
 20
0.0
 30
0.0
  3
CLUMP17
  1

  0
ARC
  5
1B0
  8
ﾚｲﾔ_1
 62
     5
 10
840.72265625
 20
-173.55025376009999
 30
0.0
 40
3.5
 50
270.0
 51
90.0
  0
LINE
  5
1B1
  8
ﾚｲﾔ_1
 62
     5
 10
825.72265624999989
 20
-177.05025376009999
 30
0.0
 11
840.72265625
 21
-177.05025376009999
 31
0.0
  0
LINE
  5
1B2
  8
ﾚｲﾔ_1
 62
     5
 10
840.72265625
 20
-170.05025376009999
 30
0.0
 11
825.72265624999989
 21
-170.05025376009999
 31
0.0
  0
ARC
  5
1B3
  8
ﾚｲﾔ_1
 62
     5
 10
825.72265624999989
 20
-173.55025376009999
 30
0.0
 40
3.5
 50
90.0
 51
270.0
  0
ENDBLK
  5
1B4
  8
0
  0
BLOCK
  8
0
  2
CLUMP18
 70
     0
 10
0.0
 20
0.0
 30
0.0
  3
CLUMP18
  1

  0
ARC
  5
1BD
  8
ﾚｲﾔ_1
 62
     5
 10
958.66159740809985
 20
8.1805860836999997
 30
0.0
 40
3.5
 50
270.0
 51
90.0
  0
LINE
  5
1BE
  8
ﾚｲﾔ_1
 62
     5
 10
943.66159740809996
 20
11.6805860837
 30
0.0
 11
958.66159740809985
 21
11.6805860837
 31
0.0
  0
LINE
  5
1BF
  8
ﾚｲﾔ_1
 62
     5
 10
958.66159740809985
 20
4.6805860836999988
 30
0.0
 11
943.66159740809996
 21
4.6805860836999988
 31
0.0
  0
ARC
  5
1C0
  8
ﾚｲﾔ_1
 62
     5
 10
943.66159740809996
 20
8.1805860836999997
 30
0.0
 40
3.5
 50
90.0
 51
270.0
  0
ENDBLK
  5
1C1
  8
0
  0
BLOCK
  8
0
  2
CLUMP19
 70
     0
 10
0.0
 20
0.0
 30
0.0
  3
CLUMP19
  1

  0
ARC
  5
1CB
  8
ﾚｲﾔ_1
 62
     5
 10
737.22265624999989
 20
-148.55025376009999
 30
0.0
 40
3.5
 50
270.0
 51
90.0
  0
LINE
  5
1CC
  8
ﾚｲﾔ_1
 62
     5
 10
722.22265625
 20
-152.05025376009999
 30
0.0
 11
737.22265624999989
 21
-152.05025376009999
 31
0.0
  0
LINE
  5
1CD
  8
ﾚｲﾔ_1
 62
     5
 10
737.22265624999989
 20
-145.05025376009999
 30
0.0
 11
722.22265625
 21
-145.05025376009999
 31
0.0
  0
ARC
  5
1CE
  8
ﾚｲﾔ_1
 62
     5
 10
722.22265625
 20
-148.55025376009999
 30
0.0
 40
3.5
 50
90.0
 51
270.0
  0
ENDBLK
  5
1CF
  8
0
  0
BLOCK
  8
0
  2
CLUMP20
 70
     0
 10
0.0
 20
0.0
 30
0.0
  3
CLUMP20
  1

  0
ARC
  5
1D3
  8
ﾚｲﾔ_1
 62
     5
 10
769.72265625
 20
-173.55025376009999
 30
0.0
 40
3.5
 50
270.0
 51
90.0
  0
LINE
  5
1D4
  8
ﾚｲﾔ_1
 62
     5
 10
754.72265625
 20
-177.05025376009999
 30
0.0
 11
769.72265625
 21
-177.05025376009999
 31
0.0
  0
LINE
  5
1D5
  8
ﾚｲﾔ_1
 62
     5
 10
769.72265625
 20
-170.05025376009999
 30
0.0
 11
754.72265625
 21
-170.05025376009999
 31
0.0
  0
ARC
  5
1D6
  8
ﾚｲﾔ_1
 62
     5
 10
754.72265625
 20
-173.55025376009999
 30
0.0
 40
3.5
 50
90.0
 51
270.0
  0
ENDBLK
  5
1D7
  8
0
  0
BLOCK
  8
0
  2
CLUMP21
 70
     0
 10
0.0
 20
0.0
 30
0.0
  3
CLUMP21
  1

  0
ARC
  5
1DC
  8
ﾚｲﾔ_1
 62
     5
 10
1053.72265625
 20
-173.55025376009999
 30
0.0
 40
3.5
 50
270.0
 51
90.0
  0
LINE
  5
1DD
  8
ﾚｲﾔ_1
 62
     5
 10
1038.72265625
 20
-177.05025376009999
 30
0.0
 11
1053.72265625
 21
-177.05025376009999
 31
0.0
  0
LINE
  5
1DE
  8
ﾚｲﾔ_1
 62
     5
 10
1053.72265625
 20
-170.05025376009999
 30
0.0
 11
1038.72265625
 21
-170.05025376009999
 31
0.0
  0
ARC
  5
1DF
  8
ﾚｲﾔ_1
 62
     5
 10
1038.72265625
 20
-173.55025376009999
 30
0.0
 40
3.5
 50
90.0
 51
270.0
  0
ENDBLK
  5
1E0
  8
0
  0
BLOCK
  8
0
  2
CLUMP22
 70
     0
 10
0.0
 20
0.0
 30
0.0
  3
CLUMP22
  1

  0
ARC
  5
1E4
  8
ﾚｲﾔ_1
 62
     5
 10
1021.22265625
 20
-148.55025376009999
 30
0.0
 40
3.5
 50
270.0
 51
90.0
  0
LINE
  5
1E5
  8
ﾚｲﾔ_1
 62
     5
 10
1006.22265625
 20
-152.05025376009999
 30
0.0
 11
1021.22265625
 21
-152.05025376009999
 31
0.0
  0
LINE
  5
1E6
  8
ﾚｲﾔ_1
 62
     5
 10
1021.22265625
 20
-145.05025376009999
 30
0.0
 11
1006.22265625
 21
-145.05025376009999
 31
0.0
  0
ARC
  5
1E7
  8
ﾚｲﾔ_1
 62
     5
 10
1006.22265625
 20
-148.55025376009999
 30
0.0
 40
3.5
 50
90.0
 51
270.0
  0
ENDBLK
  5
1E8
  8
0
  0
BLOCK
  8
0
  2
CLUMP23
 70
     0
 10
0.0
 20
0.0
 30
0.0
  3
CLUMP23
  1

  0
ARC
  5
1ED
  8
ﾚｲﾔ_1
 62
     5
 10
950.22265625
 20
-148.55025376009999
 30
0.0
 40
3.5
 50
270.0
 51
90.0
  0
LINE
  5
1EE
  8
ﾚｲﾔ_1
 62
     5
 10
935.22265625
 20
-152.05025376009999
 30
0.0
 11
950.22265625
 21
-152.05025376009999
 31
0.0
  0
LINE
  5
1EF
  8
ﾚｲﾔ_1
 62
     5
 10
950.22265625
 20
-145.05025376009999
 30
0.0
 11
935.22265625
 21
-145.05025376009999
 31
0.0
  0
ARC
  5
1F0
  8
ﾚｲﾔ_1
 62
     5
 10
935.22265625
 20
-148.55025376009999
 30
0.0
 40
3.5
 50
90.0
 51
270.0
  0
ENDBLK
  5
1F1
  8
0
  0
BLOCK
  8
0
  2
CLUMP24
 70
     0
 10
0.0
 20
0.0
 30
0.0
  3
CLUMP24
  1

  0
ARC
  5
1FA
  8
ﾚｲﾔ_1
 62
     5
 10
1092.22265625
 20
-148.55025376009999
 30
0.0
 40
3.5
 50
270.0
 51
90.0
  0
LINE
  5
1FB
  8
ﾚｲﾔ_1
 62
     5
 10
1077.22265625
 20
-152.05025376009999
 30
0.0
 11
1092.22265625
 21
-152.05025376009999
 31
0.0
  0
LINE
  5
1FC
  8
ﾚｲﾔ_1
 62
     5
 10
1092.22265625
 20
-145.05025376009999
 30
0.0
 11
1077.22265625
 21
-145.05025376009999
 31
0.0
  0
ARC
  5
1FD
  8
ﾚｲﾔ_1
 62
     5
 10
1077.22265625
 20
-148.55025376009999
 30
0.0
 40
3.5
 50
90.0
 51
270.0
  0
ENDBLK
  5
1FE
  8
0
  0
BLOCK
  8
0
  2
CLUMP25
 70
     0
 10
0.0
 20
0.0
 30
0.0
  3
CLUMP25
  1

  0
ARC
  5
203
  8
ﾚｲﾔ_1
 62
     5
 10
991.16159740809996
 20
33.1805860837
 30
0.0
 40
3.5
 50
270.0
 51
90.0
  0
LINE
  5
204
  8
ﾚｲﾔ_1
 62
     5
 10
976.16159740809985
 20
29.6805860837
 30
0.0
 11
991.16159740809996
 21
29.6805860837
 31
0.0
  0
LINE
  5
205
  8
ﾚｲﾔ_1
 62
     5
 10
991.16159740809996
 20
36.6805860837
 30
0.0
 11
976.16159740809985
 21
36.6805860837
 31
0.0
  0
ARC
  5
206
  8
ﾚｲﾔ_1
 62
     5
 10
976.16159740809985
 20
33.1805860837
 30
0.0
 40
3.5
 50
90.0
 51
270.0
  0
ENDBLK
  5
207
  8
0
  0
BLOCK
  8
0
  2
CLUMP26
 70
     0
 10
0.0
 20
0.0
 30
0.0
  3
CLUMP26
  1

  0
ARC
  5
20B
  8
ﾚｲﾔ_1
 62
     5
 10
958.66159740809985
 20
58.1805860837
 30
0.0
 40
3.5
 50
270.0
 51
90.0
  0
LINE
  5
20C
  8
ﾚｲﾔ_1
 62
     5
 10
943.66159740809996
 20
54.6805860837
 30
0.0
 11
958.66159740809985
 21
54.6805860837
 31
0.0
  0
LINE
  5
20D
  8
ﾚｲﾔ_1
 62
     5
 10
958.66159740809985
 20
61.680586083699993
 30
0.0
 11
943.66159740809996
 21
61.680586083699993
 31
0.0
  0
ARC
  5
20E
  8
ﾚｲﾔ_1
 62
     5
 10
943.66159740809996
 20
58.1805860837
 30
0.0
 40
3.5
 50
90.0
 51
270.0
  0
ENDBLK
  5
20F
  8
0
  0
BLOCK
  8
0
  2
CLUMP27
 70
     0
 10
0.0
 20
0.0
 30
0.0
  3
CLUMP27
  1

  0
ARC
  5
213
  8
ﾚｲﾔ_1
 62
     5
 10
887.66159740809996
 20
8.1805860836999997
 30
0.0
 40
3.5
 50
270.0
 51
90.0
  0
LINE
  5
214
  8
ﾚｲﾔ_1
 62
     5
 10
872.66159740809985
 20
11.6805860837
 30
0.0
 11
887.66159740809996
 21
11.6805860837
 31
0.0
  0
LINE
  5
215
  8
ﾚｲﾔ_1
 62
     5
 10
887.66159740809996
 20
4.6805860836999988
 30
0.0
 11
872.66159740809985
 21
4.6805860836999988
 31
0.0
  0
ARC
  5
216
  8
ﾚｲﾔ_1
 62
     5
 10
872.66159740809985
 20
8.1805860836999997
 30
0.0
 40
3.5
 50
90.0
 51
270.0
  0
ENDBLK
  5
217
  8
0
  0
BLOCK
  8
0
  2
CLUMP28
 70
     0
 10
0.0
 20
0.0
 30
0.0
  3
CLUMP28
  1

  0
ARC
  5
21B
  8
ﾚｲﾔ_1
 62
     5
 10
920.16159740809985
 20
33.1805860837
 30
0.0
 40
3.5
 50
270.0
 51
90.0
  0
LINE
  5
21C
  8
ﾚｲﾔ_1
 62
     5
 10
905.16159740809996
 20
29.6805860837
 30
0.0
 11
920.16159740809985
 21
29.6805860837
 31
0.0
  0
LINE
  5
21D
  8
ﾚｲﾔ_1
 62
     5
 10
920.16159740809985
 20
36.6805860837
 30
0.0
 11
905.16159740809996
 21
36.6805860837
 31
0.0
  0
ARC
  5
21E
  8
ﾚｲﾔ_1
 62
     5
 10
905.16159740809996
 20
33.1805860837
 30
0.0
 40
3.5
 50
90.0
 51
270.0
  0
ENDBLK
  5
21F
  8
0
  0
BLOCK
  8
0
  2
CLUMP29
 70
     0
 10
0.0
 20
0.0
 30
0.0
  3
CLUMP29
  1

  0
ARC
  5
223
  8
ﾚｲﾔ_1
 62
     5
 10
887.66159740809996
 20
58.1805860837
 30
0.0
 40
3.5
 50
270.0
 51
90.0
  0
LINE
  5
224
  8
ﾚｲﾔ_1
 62
     5
 10
872.66159740809985
 20
54.6805860837
 30
0.0
 11
887.66159740809996
 21
54.6805860837
 31
0.0
  0
LINE
  5
225
  8
ﾚｲﾔ_1
 62
     5
 10
887.66159740809996
 20
61.680586083699993
 30
0.0
 11
872.66159740809985
 21
61.680586083699993
 31
0.0
  0
ARC
  5
226
  8
ﾚｲﾔ_1
 62
     5
 10
872.66159740809985
 20
58.1805860837
 30
0.0
 40
3.5
 50
90.0
 51
270.0
  0
ENDBLK
  5
227
  8
0
  0
BLOCK
  8
0
  2
CLUMP30
 70
     0
 10
0.0
 20
0.0
 30
0.0
  3
CLUMP30
  1

  0
ARC
  5
22B
  8
ﾚｲﾔ_1
 62
     5
 10
849.16159740809996
 20
33.1805860837
 30
0.0
 40
3.5
 50
270.0
 51
90.0
  0
LINE
  5
22C
  8
ﾚｲﾔ_1
 62
     5
 10
834.16159740809985
 20
29.6805860837
 30
0.0
 11
849.16159740809996
 21
29.6805860837
 31
0.0
  0
LINE
  5
22D
  8
ﾚｲﾔ_1
 62
     5
 10
849.16159740809996
 20
36.6805860837
 30
0.0
 11
834.16159740809985
 21
36.6805860837
 31
0.0
  0
ARC
  5
22E
  8
ﾚｲﾔ_1
 62
     5
 10
834.16159740809985
 20
33.1805860837
 30
0.0
 40
3.5
 50
90.0
 51
270.0
  0
ENDBLK
  5
22F
  8
0
  0
BLOCK
  8
0
  2
CLUMP31
 70
     0
 10
0.0
 20
0.0
 30
0.0
  3
CLUMP31
  1

  0
ARC
  5
233
  8
ﾚｲﾔ_1
 62
     5
 10
816.66159740809985
 20
58.1805860837
 30
0.0
 40
3.5
 50
270.0
 51
90.0
  0
LINE
  5
234
  8
ﾚｲﾔ_1
 62
     5
 10
801.66159740809996
 20
54.6805860837
 30
0.0
 11
816.66159740809985
 21
54.6805860837
 31
0.0
  0
LINE
  5
235
  8
ﾚｲﾔ_1
 62
     5
 10
816.66159740809985
 20
61.680586083699993
 30
0.0
 11
801.66159740809996
 21
61.680586083699993
 31
0.0
  0
ARC
  5
236
  8
ﾚｲﾔ_1
 62
     5
 10
801.66159740809996
 20
58.1805860837
 30
0.0
 40
3.5
 50
90.0
 51
270.0
  0
ENDBLK
  5
237
  8
0
  0
BLOCK
  8
0
  2
CLUMP32
 70
     0
 10
0.0
 20
0.0
 30
0.0
  3
CLUMP32
  1

  0
ARC
  5
23B
  8
ﾚｲﾔ_1
 62
     5
 10
745.66159740809996
 20
58.1805860837
 30
0.0
 40
3.5
 50
270.0
 51
90.0
  0
LINE
  5
23C
  8
ﾚｲﾔ_1
 62
     5
 10
730.66159740809985
 20
54.6805860837
 30
0.0
 11
745.66159740809996
 21
54.6805860837
 31
0.0
  0
LINE
  5
23D
  8
ﾚｲﾔ_1
 62
     5
 10
745.66159740809996
 20
61.680586083699993
 30
0.0
 11
730.66159740809985
 21
61.680586083699993
 31
0.0
  0
ARC
  5
23E
  8
ﾚｲﾔ_1
 62
     5
 10
730.66159740809985
 20
58.1805860837
 30
0.0
 40
3.5
 50
90.0
 51
270.0
  0
ENDBLK
  5
23F
  8
0
  0
BLOCK
  8
0
  2
CLUMP33
 70
     0
 10
0.0
 20
0.0
 30
0.0
  3
CLUMP33
  1

  0
ARC
  5
243
  8
ﾚｲﾔ_1
 62
     5
 10
778.16159740809996
 20
33.1805860837
 30
0.0
 40
3.5
 50
270.0
 51
90.0
  0
LINE
  5
244
  8
ﾚｲﾔ_1
 62
     5
 10
763.16159740809985
 20
29.6805860837
 30
0.0
 11
778.16159740809996
 21
29.6805860837
 31
0.0
  0
LINE
  5
245
  8
ﾚｲﾔ_1
 62
     5
 10
778.16159740809996
 20
36.6805860837
 30
0.0
 11
763.16159740809985
 21
36.6805860837
 31
0.0
  0
ARC
  5
246
  8
ﾚｲﾔ_1
 62
     5
 10
763.16159740809985
 20
33.1805860837
 30
0.0
 40
3.5
 50
90.0
 51
270.0
  0
ENDBLK
  5
247
  8
0
  0
BLOCK
  8
0
  2
CLUMP34
 70
     0
 10
0.0
 20
0.0
 30
0.0
  3
CLUMP34
  1

  0
ARC
  5
24B
  8
ﾚｲﾔ_1
 62
     5
 10
745.66159740809996
 20
8.1805860836999997
 30
0.0
 40
3.5
 50
270.0
 51
90.0
  0
LINE
  5
24C
  8
ﾚｲﾔ_1
 62
     5
 10
730.66159740809985
 20
11.6805860837
 30
0.0
 11
745.66159740809996
 21
11.6805860837
 31
0.0
  0
LINE
  5
24D
  8
ﾚｲﾔ_1
 62
     5
 10
745.66159740809996
 20
4.6805860836999988
 30
0.0
 11
730.66159740809985
 21
4.6805860836999988
 31
0.0
  0
ARC
  5
24E
  8
ﾚｲﾔ_1
 62
     5
 10
730.66159740809985
 20
8.1805860836999997
 30
0.0
 40
3.5
 50
90.0
 51
270.0
  0
ENDBLK
  5
24F
  8
0
  0
BLOCK
  8
0
  2
CLUMP35
 70
     0
 10
0.0
 20
0.0
 30
0.0
  3
CLUMP35
  1

  0
LINE
  5
259
  8
ﾚｲﾔ_1
 62
     5
 10
1357.9506599081001
 20
73.981044335600004
 30
0.0
 11
1357.9506599081001
 21
74.781044335600001
 31
0.0
  0
LINE
  5
25A
  8
ﾚｲﾔ_1
 62
     5
 10
1352.0506599081
 20
81.381044335599995
 30
0.0
 11
1352.0506599081
 21
73.981044335600004
 31
0.0
  0
LINE
  5
25B
  8
ﾚｲﾔ_1
 62
     5
 10
1357.2506599081
 20
81.381044335599995
 30
0.0
 11
1352.0506599081
 21
81.381044335599995
 31
0.0
  0
LINE
  5
25C
  8
ﾚｲﾔ_1
 62
     5
 10
1357.2506599081
 20
81.381044335599995
 30
0.0
 11
1357.2506599081
 21
82.181044335600006
 31
0.0
  0
LINE
  5
25D
  8
ﾚｲﾔ_1
 62
     5
 10
1357.2506599081
 20
82.181044335600006
 30
0.0
 11
1352.0506599081
 21
82.181044335600006
 31
0.0
  0
ARC
  5
25E
  8
ﾚｲﾔ_1
 62
     5
 10
1352.0506599081
 20
81.381044335599995
 30
0.0
 40
0.8
 50
90.0
 51
180.0
  0
LINE
  5
25F
  8
ﾚｲﾔ_1
 62
     5
 10
1351.2506599081
 20
81.381044335599995
 30
0.0
 11
1351.2506599081
 21
73.981044335600004
 31
0.0
  0
ARC
  5
260
  8
ﾚｲﾔ_1
 62
     5
 10
1352.0506599081
 20
73.981044335600004
 30
0.0
 40
0.8
 50
180.0
 51
270.0
  0
LINE
  5
261
  8
ﾚｲﾔ_1
 62
     5
 10
1400.2506599081
 20
82.181044335600006
 30
0.0
 11
1400.2506599081
 21
81.381044335599995
 31
0.0
  0
LINE
  5
262
  8
ﾚｲﾔ_1
 62
     5
 10
1405.4506599081001
 20
81.381044335599995
 30
0.0
 11
1400.2506599081
 21
81.381044335599995
 31
0.0
  0
LINE
  5
263
  8
ﾚｲﾔ_1
 62
     5
 10
1405.4506599081001
 20
68.981044335600004
 30
0.0
 11
1405.4506599081001
 21
81.381044335599995
 31
0.0
  0
LINE
  5
264
  8
ﾚｲﾔ_1
 62
     5
 10
1377.0506599081
 20
68.981044335600004
 30
0.0
 11
1405.4506599081001
 21
68.981044335600004
 31
0.0
  0
LINE
  5
265
  8
ﾚｲﾔ_1
 62
     5
 10
1352.0506599081
 20
73.181044335600006
 30
0.0
 11
1376.2506599081
 21
73.181044335600006
 31
0.0
  0
LINE
  5
266
  8
ﾚｲﾔ_1
 62
     5
 10
1352.0506599081
 20
73.981044335600004
 30
0.0
 11
1376.2506599081
 21
73.981044335600004
 31
0.0
  0
LINE
  5
267
  8
ﾚｲﾔ_1
 62
     5
 10
1377.0506599081
 20
73.181044335600006
 30
0.0
 11
1377.0506599081
 21
68.981044335600004
 31
0.0
  0
ARC
  5
268
  8
ﾚｲﾔ_1
 62
     5
 10
1376.2506599081
 20
73.181044335600006
 30
0.0
 40
0.8
 50
0.0
 51
90.0
  0
LINE
  5
269
  8
ﾚｲﾔ_1
 62
     5
 10
1376.2506599081
 20
73.181044335600006
 30
0.0
 11
1376.2506599081
 21
68.981044335600004
 31
0.0
  0
ARC
  5
26A
  8
ﾚｲﾔ_1
 62
     5
 10
1377.0506599081
 20
68.981044335600004
 30
0.0
 40
0.8
 50
180.0
 51
270.0
  0
LINE
  5
26B
  8
ﾚｲﾔ_1
 62
     5
 10
1377.0506599081
 20
68.181044335600006
 30
0.0
 11
1405.4506599081001
 21
68.181044335600006
 31
0.0
  0
ARC
  5
26C
  8
ﾚｲﾔ_1
 62
     5
 10
1405.4506599081001
 20
68.981044335600004
 30
0.0
 40
0.8
 50
270.0
 51
0.0
  0
LINE
  5
26D
  8
ﾚｲﾔ_1
 62
     5
 10
1405.4506599081001
 20
82.181044335600006
 30
0.0
 11
1400.2506599081
 21
82.181044335600006
 31
0.0
  0
LINE
  5
26E
  8
ﾚｲﾔ_1
 62
     5
 10
1406.2506599081
 20
68.981044335600004
 30
0.0
 11
1406.2506599081
 21
81.381044335599995
 31
0.0
  0
ARC
  5
26F
  8
ﾚｲﾔ_1
 62
     5
 10
1405.4506599081001
 20
81.381044335599995
 30
0.0
 40
0.8
 50
0.0
 51
90.0
  0
LINE
  5
270
  8
ﾚｲﾔ_1
 62
     5
 10
1357.9506599081001
 20
74.781044335600001
 30
0.0
 11
1405.4506599081001
 21
74.781044335600001
 31
0.0
  0
LINE
  5
271
  8
ﾚｲﾔ_1
 62
     5
 10
1376.2506599081
 20
73.981044335600004
 30
0.0
 11
1405.4506599081001
 21
73.981044335600004
 31
0.0
  0
ENDBLK
  5
272
  8
0
  0
BLOCK
  8
0
  2
CLUMP36
 70
     0
 10
0.0
 20
0.0
 30
0.0
  3
CLUMP36
  1

  0
ARC
  5
295
  8
ﾚｲﾔ_1
 62
     5
 10
1029.6615974081001
 20
8.1805860836999997
 30
0.0
 40
3.5
 50
270.0
 51
90.0
  0
LINE
  5
296
  8
ﾚｲﾔ_1
 62
     5
 10
1014.6615974081
 20
11.6805860837
 30
0.0
 11
1029.6615974081001
 21
11.6805860837
 31
0.0
  0
LINE
  5
297
  8
ﾚｲﾔ_1
 62
     5
 10
1029.6615974081001
 20
4.6805860836999988
 30
0.0
 11
1014.6615974081
 21
4.6805860836999988
 31
0.0
  0
ARC
  5
298
  8
ﾚｲﾔ_1
 62
     5
 10
1014.6615974081
 20
8.1805860836999997
 30
0.0
 40
3.5
 50
90.0
 51
270.0
  0
ENDBLK
  5
299
  8
0
  0
BLOCK
  8
0
  2
CLUMP37
 70
     0
 10
0.0
 20
0.0
 30
0.0
  3
CLUMP37
  1

  0
ARC
  5
29D
  8
ﾚｲﾔ_1
 62
     5
 10
1029.6615974081001
 20
58.1805860837
 30
0.0
 40
3.5
 50
270.0
 51
90.0
  0
LINE
  5
29E
  8
ﾚｲﾔ_1
 62
     5
 10
1014.6615974081
 20
54.6805860837
 30
0.0
 11
1029.6615974081001
 21
54.6805860837
 31
0.0
  0
LINE
  5
29F
  8
ﾚｲﾔ_1
 62
     5
 10
1029.6615974081001
 20
61.680586083699993
 30
0.0
 11
1014.6615974081
 21
61.680586083699993
 31
0.0
  0
ARC
  5
2A0
  8
ﾚｲﾔ_1
 62
     5
 10
1014.6615974081
 20
58.1805860837
 30
0.0
 40
3.5
 50
90.0
 51
270.0
  0
ENDBLK
  5
2A1
  8
0
  0
BLOCK
  8
0
  2
CLUMP38
 70
     0
 10
0.0
 20
0.0
 30
0.0
  3
CLUMP38
  1

  0
ARC
  5
2A6
  8
ﾚｲﾔ_1
 62
     5
 10
1133.1615974081001
 20
33.1805860837
 30
0.0
 40
3.5
 50
270.0
 51
90.0
  0
LINE
  5
2A7
  8
ﾚｲﾔ_1
 62
     5
 10
1118.1615974081001
 20
29.6805860837
 30
0.0
 11
1133.1615974081001
 21
29.6805860837
 31
0.0
  0
LINE
  5
2A8
  8
ﾚｲﾔ_1
 62
     5
 10
1133.1615974081001
 20
36.6805860837
 30
0.0
 11
1118.1615974081001
 21
36.6805860837
 31
0.0
  0
ARC
  5
2A9
  8
ﾚｲﾔ_1
 62
     5
 10
1118.1615974081001
 20
33.1805860837
 30
0.0
 40
3.5
 50
90.0
 51
270.0
  0
ENDBLK
  5
2AA
  8
0
  0
BLOCK
  8
0
  2
CLUMP39
 70
     0
 10
0.0
 20
0.0
 30
0.0
  3
CLUMP39
  1

  0
ARC
  5
2B4
  8
ﾚｲﾔ_1
 62
     5
 10
1100.6615974081001
 20
58.1805860837
 30
0.0
 40
3.5
 50
270.0
 51
90.0
  0
LINE
  5
2B5
  8
ﾚｲﾔ_1
 62
     5
 10
1085.6615974081001
 20
54.6805860837
 30
0.0
 11
1100.6615974081001
 21
54.6805860837
 31
0.0
  0
LINE
  5
2B6
  8
ﾚｲﾔ_1
 62
     5
 10
1100.6615974081001
 20
61.680586083699993
 30
0.0
 11
1085.6615974081001
 21
61.680586083699993
 31
0.0
  0
ARC
  5
2B7
  8
ﾚｲﾔ_1
 62
     5
 10
1085.6615974081001
 20
58.1805860837
 30
0.0
 40
3.5
 50
90.0
 51
270.0
  0
ENDBLK
  5
2B8
  8
0
  0
BLOCK
  8
0
  2
CLUMP40
 70
     0
 10
0.0
 20
0.0
 30
0.0
  3
CLUMP40
  1

  0
LINE
  5
2BD
  8
ﾚｲﾔ_1
 62
     5
 10
1282.9053430678
 20
-8.4189556644000003
 30
0.0
 11
1282.9053430678
 21
-7.6189556643999996
 31
0.0
  0
LINE
  5
2BE
  8
ﾚｲﾔ_1
 62
     5
 10
1282.9053430678
 20
-8.4189556644000003
 30
0.0
 11
1307.6053430678
 21
-8.4189556644000003
 31
0.0
  0
LINE
  5
2BF
  8
ﾚｲﾔ_1
 62
     5
 10
1307.6053430678
 20
-15.0189556644
 30
0.0
 11
1307.6053430678
 21
-1.1189556644
 31
0.0
  0
LINE
  5
2C0
  8
ﾚｲﾔ_1
 62
     5
 10
1307.6053430678
 20
-1.1189556644
 30
0.0
 11
1294.2053430678
 21
-1.1189556644
 31
0.0
  0
LINE
  5
2C1
  8
ﾚｲﾔ_1
 62
     5
 10
1293.4053430678
 20
-7.6189556643999996
 30
0.0
 11
1307.6053430678
 21
-7.6189556643999996
 31
0.0
  0
LINE
  5
2C2
  8
ﾚｲﾔ_1
 62
     5
 10
1284.4053430678
 20
-15.0189556644
 30
0.0
 11
1284.4053430678
 21
-8.4189556644000003
 31
0.0
  0
ARC
  5
2C3
  8
ﾚｲﾔ_1
 62
     5
 10
1279.2053430678
 20
-7.6189556643999996
 30
0.0
 40
0.8
 50
90.0
 51
180.0
  0
LINE
  5
2C4
  8
ﾚｲﾔ_1
 62
     5
 10
1278.4053430678
 20
-15.0189556644
 30
0.0
 11
1278.4053430678
 21
-7.6189556643999996
 31
0.0
  0
LINE
  5
2C5
  8
ﾚｲﾔ_1
 62
     5
 10
1279.2053430678
 20
-6.8189556643999998
 30
0.0
 11
1293.4053430678
 21
-6.8189556643999998
 31
0.0
  0
ARC
  5
2C6
  8
ﾚｲﾔ_1
 62
     5
 10
1293.4053430678
 20
-6.8189556643999998
 30
0.0
 40
0.8
 50
270.0
 51
0.0
  0
LINE
  5
2C7
  8
ﾚｲﾔ_1
 62
     5
 10
1293.4053430678
 20
-7.6189556643999996
 30
0.0
 11
1279.2053430678
 21
-7.6189556643999996
 31
0.0
  0
LINE
  5
2C8
  8
ﾚｲﾔ_1
 62
     5
 10
1294.2053430678
 20
-1.1189556644
 30
0.0
 11
1294.2053430678
 21
-6.8189556643999998
 31
0.0
  0
ARC
  5
2C9
  8
ﾚｲﾔ_1
 62
     5
 10
1294.2053430678
 20
-1.1189556644
 30
0.0
 40
0.8
 50
90.0
 51
180.0
  0
LINE
  5
2CA
  8
ﾚｲﾔ_1
 62
     5
 10
1293.4053430678
 20
-6.8189556643999998
 30
0.0
 11
1293.4053430678
 21
-1.1189556644
 31
0.0
  0
LINE
  5
2CB
  8
ﾚｲﾔ_1
 62
     5
 10
1294.2053430678
 20
-0.3189556644
 30
0.0
 11
1307.6053430678
 21
-0.3189556644
 31
0.0
  0
ARC
  5
2CC
  8
ﾚｲﾔ_1
 62
     5
 10
1307.6053430678
 20
-1.1189556644
 30
0.0
 40
0.8
 50
0.0
 51
90.0
  0
LINE
  5
2CD
  8
ﾚｲﾔ_1
 62
     5
 10
1308.4053430678
 20
-1.1189556644
 30
0.0
 11
1308.4053430678
 21
-15.0189556644
 31
0.0
  0
ARC
  5
2CE
  8
ﾚｲﾔ_1
 62
     5
 10
1307.6053430678
 20
-15.0189556644
 30
0.0
 40
0.8
 50
270.0
 51
0.0
  0
LINE
  5
2CF
  8
ﾚｲﾔ_1
 62
     5
 10
1307.6053430678
 20
-15.818955664400001
 30
0.0
 11
1302.4053430678
 21
-15.818955664400001
 31
0.0
  0
ARC
  5
2D0
  8
ﾚｲﾔ_1
 62
     5
 10
1279.2053430678
 20
-15.0189556644
 30
0.0
 40
0.8
 50
180.0
 51
270.0
  0
LINE
  5
2D1
  8
ﾚｲﾔ_1
 62
     5
 10
1284.4053430678
 20
-15.818955664400001
 30
0.0
 11
1279.2053430678
 21
-15.818955664400001
 31
0.0
  0
LINE
  5
2D2
  8
ﾚｲﾔ_1
 62
     5
 10
1284.4053430678
 20
-15.0189556644
 30
0.0
 11
1284.4053430678
 21
-15.818955664400001
 31
0.0
  0
LINE
  5
2D3
  8
ﾚｲﾔ_1
 62
     5
 10
1279.2053430678
 20
-15.0189556644
 30
0.0
 11
1284.4053430678
 21
-15.0189556644
 31
0.0
  0
LINE
  5
2D4
  8
ﾚｲﾔ_1
 62
     5
 10
1279.2053430678
 20
-7.6189556643999996
 30
0.0
 11
1279.2053430678
 21
-15.0189556644
 31
0.0
  0
LINE
  5
2D5
  8
ﾚｲﾔ_1
 62
     5
 10
1302.4053430678
 20
-15.818955664400001
 30
0.0
 11
1302.4053430678
 21
-15.0189556644
 31
0.0
  0
LINE
  5
2D6
  8
ﾚｲﾔ_1
 62
     5
 10
1302.4053430678
 20
-15.0189556644
 30
0.0
 11
1307.6053430678
 21
-15.0189556644
 31
0.0
  0
ENDBLK
  5
2D7
  8
0
  0
BLOCK
  8
0
  2
CLUMP41
 70
     0
 10
0.0
 20
0.0
 30
0.0
  3
CLUMP41
  1

  0
LINE
  5
2DB
  8
ﾚｲﾔ_1
 62
     5
 10
1282.9053430678
 20
74.781044335600001
 30
0.0
 11
1282.9053430678
 21
73.981044335600004
 31
0.0
  0
LINE
  5
2DC
  8
ﾚｲﾔ_1
 62
     5
 10
1282.9053430678
 20
74.781044335600001
 30
0.0
 11
1307.6053430678
 21
74.781044335600001
 31
0.0
  0
LINE
  5
2DD
  8
ﾚｲﾔ_1
 62
     5
 10
1307.6053430678
 20
81.381044335599995
 30
0.0
 11
1307.6053430678
 21
67.481044335600004
 31
0.0
  0
LINE
  5
2DE
  8
ﾚｲﾔ_1
 62
     5
 10
1307.6053430678
 20
67.481044335600004
 30
0.0
 11
1294.2053430678
 21
67.481044335600004
 31
0.0
  0
LINE
  5
2DF
  8
ﾚｲﾔ_1
 62
     5
 10
1293.4053430678
 20
73.981044335600004
 30
0.0
 11
1307.6053430678
 21
73.981044335600004
 31
0.0
  0
LINE
  5
2E0
  8
ﾚｲﾔ_1
 62
     5
 10
1284.4053430678
 20
81.381044335599995
 30
0.0
 11
1284.4053430678
 21
74.781044335600001
 31
0.0
  0
ARC
  5
2E1
  8
ﾚｲﾔ_1
 62
     5
 10
1279.2053430678
 20
73.981044335600004
 30
0.0
 40
0.8
 50
180.0
 51
270.0
  0
LINE
  5
2E2
  8
ﾚｲﾔ_1
 62
     5
 10
1278.4053430678
 20
81.381044335599995
 30
0.0
 11
1278.4053430678
 21
73.981044335600004
 31
0.0
  0
LINE
  5
2E3
  8
ﾚｲﾔ_1
 62
     5
 10
1279.2053430678
 20
73.181044335600006
 30
0.0
 11
1293.4053430678
 21
73.181044335600006
 31
0.0
  0
ARC
  5
2E4
  8
ﾚｲﾔ_1
 62
     5
 10
1293.4053430678
 20
73.181044335600006
 30
0.0
 40
0.8
 50
0.0
 51
90.0
  0
LINE
  5
2E5
  8
ﾚｲﾔ_1
 62
     5
 10
1293.4053430678
 20
73.981044335600004
 30
0.0
 11
1279.2053430678
 21
73.981044335600004
 31
0.0
  0
LINE
  5
2E6
  8
ﾚｲﾔ_1
 62
     5
 10
1294.2053430678
 20
67.481044335600004
 30
0.0
 11
1294.2053430678
 21
73.181044335600006
 31
0.0
  0
ARC
  5
2E7
  8
ﾚｲﾔ_1
 62
     5
 10
1294.2053430678
 20
67.481044335600004
 30
0.0
 40
0.8
 50
180.0
 51
270.0
  0
LINE
  5
2E8
  8
ﾚｲﾔ_1
 62
     5
 10
1293.4053430678
 20
73.181044335600006
 30
0.0
 11
1293.4053430678
 21
67.481044335600004
 31
0.0
  0
LINE
  5
2E9
  8
ﾚｲﾔ_1
 62
     5
 10
1294.2053430678
 20
66.681044335600006
 30
0.0
 11
1307.6053430678
 21
66.681044335600006
 31
0.0
  0
ARC
  5
2EA
  8
ﾚｲﾔ_1
 62
     5
 10
1307.6053430678
 20
67.481044335600004
 30
0.0
 40
0.8
 50
270.0
 51
0.0
  0
LINE
  5
2EB
  8
ﾚｲﾔ_1
 62
     5
 10
1308.4053430678
 20
67.481044335600004
 30
0.0
 11
1308.4053430678
 21
81.381044335599995
 31
0.0
  0
ARC
  5
2EC
  8
ﾚｲﾔ_1
 62
     5
 10
1307.6053430678
 20
81.381044335599995
 30
0.0
 40
0.8
 50
0.0
 51
90.0
  0
LINE
  5
2ED
  8
ﾚｲﾔ_1
 62
     5
 10
1307.6053430678
 20
82.181044335600006
 30
0.0
 11
1302.4053430678
 21
82.181044335600006
 31
0.0
  0
ARC
  5
2EE
  8
ﾚｲﾔ_1
 62
     5
 10
1279.2053430678
 20
81.381044335599995
 30
0.0
 40
0.8
 50
90.0
 51
180.0
  0
LINE
  5
2EF
  8
ﾚｲﾔ_1
 62
     5
 10
1284.4053430678
 20
82.181044335600006
 30
0.0
 11
1279.2053430678
 21
82.181044335600006
 31
0.0
  0
LINE
  5
2F0
  8
ﾚｲﾔ_1
 62
     5
 10
1284.4053430678
 20
81.381044335599995
 30
0.0
 11
1284.4053430678
 21
82.181044335600006
 31
0.0
  0
LINE
  5
2F1
  8
ﾚｲﾔ_1
 62
     5
 10
1279.2053430678
 20
81.381044335599995
 30
0.0
 11
1284.4053430678
 21
81.381044335599995
 31
0.0
  0
LINE
  5
2F2
  8
ﾚｲﾔ_1
 62
     5
 10
1279.2053430678
 20
73.981044335600004
 30
0.0
 11
1279.2053430678
 21
81.381044335599995
 31
0.0
  0
LINE
  5
2F3
  8
ﾚｲﾔ_1
 62
     5
 10
1302.4053430678
 20
82.181044335600006
 30
0.0
 11
1302.4053430678
 21
81.381044335599995
 31
0.0
  0
LINE
  5
2F4
  8
ﾚｲﾔ_1
 62
     5
 10
1302.4053430678
 20
81.381044335599995
 30
0.0
 11
1307.6053430678
 21
81.381044335599995
 31
0.0
  0
ENDBLK
  5
2F5
  8
0
  0
BLOCK
  8
0
  2
CLUMP42
 70
     0
 10
0.0
 20
0.0
 30
0.0
  3
CLUMP42
  1

  0
ARC
  5
2F9
  8
ﾚｲﾔ_1
 62
     5
 10
1280.9053430678
 20
-4.8189556643999989
 30
0.0
 40
1.5
 50
180.0
 51
270.0
  0
LINE
  5
2FA
  8
ﾚｲﾔ_1
 62
     5
 10
1279.4053430678
 20
71.181044335600006
 30
0.0
 11
1279.4053430678
 21
-4.8189556643999989
 31
0.0
  0
ARC
  5
2FB
  8
ﾚｲﾔ_1
 62
     5
 10
1280.9053430678
 20
71.181044335600006
 30
0.0
 40
1.5
 50
90.0
 51
180.0
  0
LINE
  5
2FC
  8
ﾚｲﾔ_1
 62
     5
 10
1280.9053430678
 20
71.181044335600006
 30
0.0
 11
1280.9053430678
 21
-4.8189556643999989
 31
0.0
  0
LINE
  5
2FD
  8
ﾚｲﾔ_1
 62
     5
 10
1280.9053430678
 20
72.681044335600006
 30
0.0
 11
1293.4053430678
 21
72.681044335600006
 31
0.0
  0
LINE
  5
2FE
  8
ﾚｲﾔ_1
 62
     5
 10
1280.9053430678
 20
71.181044335600006
 30
0.0
 11
1293.4053430678
 21
71.181044335600006
 31
0.0
  0
LINE
  5
2FF
  8
ﾚｲﾔ_1
 62
     5
 10
1280.9053430678
 20
-6.3189556643999998
 30
0.0
 11
1293.4053430678
 21
-6.3189556643999998
 31
0.0
  0
LINE
  5
300
  8
ﾚｲﾔ_1
 62
     5
 10
1280.9053430678
 20
-4.8189556643999989
 30
0.0
 11
1293.4053430678
 21
-4.8189556643999989
 31
0.0
  0
LINE
  5
301
  8
ﾚｲﾔ_1
 62
     5
 10
1293.4053430678
 20
-6.3189556643999998
 30
0.0
 11
1293.4053430678
 21
72.681044335600006
 31
0.0
  0
ENDBLK
  5
302
  8
0
  0
BLOCK
  8
0
  2
CLUMP43
 70
     0
 10
0.0
 20
0.0
 30
0.0
  3
CLUMP43
  1

  0
LINE
  5
309
  8
ﾚｲﾔ_1
 62
     5
 10
1354.7506599081
 20
-6.3189556643999998
 30
0.0
 11
1376.2506599081
 21
-6.3189556643999998
 31
0.0
  0
LINE
  5
30A
  8
ﾚｲﾔ_1
 62
     5
 10
1376.2506599081
 20
-6.3189556643999998
 30
0.0
 11
1376.2506599081
 21
72.681044335600006
 31
0.0
  0
LINE
  5
30B
  8
ﾚｲﾔ_1
 62
     5
 10
1354.7506599081
 20
72.681044335600006
 30
0.0
 11
1376.2506599081
 21
72.681044335600006
 31
0.0
  0
LINE
  5
30C
  8
ﾚｲﾔ_1
 62
     5
 10
1354.7506599081
 20
-4.8189556643999989
 30
0.0
 11
1376.2506599081
 21
-4.8189556643999989
 31
0.0
  0
ARC
  5
30D
  8
ﾚｲﾔ_1
 62
     5
 10
1354.7506599081
 20
-4.8189556643999989
 30
0.0
 40
1.5
 50
180.0
 51
270.0
  0
LINE
  5
30E
  8
ﾚｲﾔ_1
 62
     5
 10
1354.7506599081
 20
71.181044335600006
 30
0.0
 11
1354.7506599081
 21
-4.8189556643999989
 31
0.0
  0
LINE
  5
30F
  8
ﾚｲﾔ_1
 62
     5
 10
1353.2506599081
 20
71.181044335600006
 30
0.0
 11
1353.2506599081
 21
-4.8189556643999989
 31
0.0
  0
LINE
  5
310
  8
ﾚｲﾔ_1
 62
     5
 10
1354.7506599081
 20
71.181044335600006
 30
0.0
 11
1376.2506599081
 21
71.181044335600006
 31
0.0
  0
ARC
  5
311
  8
ﾚｲﾔ_1
 62
     5
 10
1354.7506599081
 20
71.181044335600006
 30
0.0
 40
1.5
 50
90.0
 51
180.0
  0
ENDBLK
  5
312
  8
0
  0
BLOCK
  8
0
  2
CLUMP44
 70
     0
 10
0.0
 20
0.0
 30
0.0
  3
CLUMP44
  1

  0
LINE
  5
316
  8
ﾚｲﾔ_1
 62
     5
 10
1357.9506599081001
 20
-7.6189556643999996
 30
0.0
 11
1357.9506599081001
 21
-8.4189556644000003
 31
0.0
  0
LINE
  5
317
  8
ﾚｲﾔ_1
 62
     5
 10
1352.0506599081
 20
-15.0189556644
 30
0.0
 11
1352.0506599081
 21
-7.6189556643999996
 31
0.0
  0
LINE
  5
318
  8
ﾚｲﾔ_1
 62
     5
 10
1357.2506599081
 20
-15.0189556644
 30
0.0
 11
1352.0506599081
 21
-15.0189556644
 31
0.0
  0
LINE
  5
319
  8
ﾚｲﾔ_1
 62
     5
 10
1357.2506599081
 20
-15.0189556644
 30
0.0
 11
1357.2506599081
 21
-15.818955664400001
 31
0.0
  0
LINE
  5
31A
  8
ﾚｲﾔ_1
 62
     5
 10
1357.2506599081
 20
-15.818955664400001
 30
0.0
 11
1352.0506599081
 21
-15.818955664400001
 31
0.0
  0
ARC
  5
31B
  8
ﾚｲﾔ_1
 62
     5
 10
1352.0506599081
 20
-15.0189556644
 30
0.0
 40
0.8
 50
180.0
 51
270.0
  0
LINE
  5
31C
  8
ﾚｲﾔ_1
 62
     5
 10
1351.2506599081
 20
-15.0189556644
 30
0.0
 11
1351.2506599081
 21
-7.6189556643999996
 31
0.0
  0
ARC
  5
31D
  8
ﾚｲﾔ_1
 62
     5
 10
1352.0506599081
 20
-7.6189556643999996
 30
0.0
 40
0.8
 50
90.0
 51
180.0
  0
LINE
  5
31E
  8
ﾚｲﾔ_1
 62
     5
 10
1400.2506599081
 20
-15.818955664400001
 30
0.0
 11
1400.2506599081
 21
-15.0189556644
 31
0.0
  0
LINE
  5
31F
  8
ﾚｲﾔ_1
 62
     5
 10
1405.4506599081001
 20
-15.0189556644
 30
0.0
 11
1400.2506599081
 21
-15.0189556644
 31
0.0
  0
LINE
  5
320
  8
ﾚｲﾔ_1
 62
     5
 10
1405.4506599081001
 20
-2.6189556644
 30
0.0
 11
1405.4506599081001
 21
-15.0189556644
 31
0.0
  0
LINE
  5
321
  8
ﾚｲﾔ_1
 62
     5
 10
1377.0506599081
 20
-2.6189556644
 30
0.0
 11
1405.4506599081001
 21
-2.6189556644
 31
0.0
  0
LINE
  5
322
  8
ﾚｲﾔ_1
 62
     5
 10
1352.0506599081
 20
-6.8189556643999998
 30
0.0
 11
1376.2506599081
 21
-6.8189556643999998
 31
0.0
  0
LINE
  5
323
  8
ﾚｲﾔ_1
 62
     5
 10
1352.0506599081
 20
-7.6189556643999996
 30
0.0
 11
1376.2506599081
 21
-7.6189556643999996
 31
0.0
  0
LINE
  5
324
  8
ﾚｲﾔ_1
 62
     5
 10
1377.0506599081
 20
-6.8189556643999998
 30
0.0
 11
1377.0506599081
 21
-2.6189556644
 31
0.0
  0
ARC
  5
325
  8
ﾚｲﾔ_1
 62
     5
 10
1376.2506599081
 20
-6.8189556643999998
 30
0.0
 40
0.8
 50
270.0
 51
0.0
  0
LINE
  5
326
  8
ﾚｲﾔ_1
 62
     5
 10
1376.2506599081
 20
-6.8189556643999998
 30
0.0
 11
1376.2506599081
 21
-2.6189556644
 31
0.0
  0
ARC
  5
327
  8
ﾚｲﾔ_1
 62
     5
 10
1377.0506599081
 20
-2.6189556644
 30
0.0
 40
0.8
 50
90.0
 51
180.0
  0
LINE
  5
328
  8
ﾚｲﾔ_1
 62
     5
 10
1377.0506599081
 20
-1.8189556643999989
 30
0.0
 11
1405.4506599081001
 21
-1.8189556643999989
 31
0.0
  0
ARC
  5
329
  8
ﾚｲﾔ_1
 62
     5
 10
1405.4506599081001
 20
-2.6189556644
 30
0.0
 40
0.8
 50
0.0
 51
90.0
  0
LINE
  5
32A
  8
ﾚｲﾔ_1
 62
     5
 10
1405.4506599081001
 20
-15.818955664400001
 30
0.0
 11
1400.2506599081
 21
-15.818955664400001
 31
0.0
  0
LINE
  5
32B
  8
ﾚｲﾔ_1
 62
     5
 10
1406.2506599081
 20
-2.6189556644
 30
0.0
 11
1406.2506599081
 21
-15.0189556644
 31
0.0
  0
ARC
  5
32C
  8
ﾚｲﾔ_1
 62
     5
 10
1405.4506599081001
 20
-15.0189556644
 30
0.0
 40
0.8
 50
270.0
 51
0.0
  0
LINE
  5
32D
  8
ﾚｲﾔ_1
 62
     5
 10
1357.9506599081001
 20
-8.4189556644000003
 30
0.0
 11
1405.4506599081001
 21
-8.4189556644000003
 31
0.0
  0
LINE
  5
32E
  8
ﾚｲﾔ_1
 62
     5
 10
1376.2506599081
 20
-7.6189556643999996
 30
0.0
 11
1405.4506599081001
 21
-7.6189556643999996
 31
0.0
  0
ENDBLK
  5
32F
  8
0
  0
BLOCK
  8
0
  2
CLUMP45
 70
     0
 10
0.0
 20
0.0
 30
0.0
  3
CLUMP45
  1

  0
ARC
  5
333
  8
ﾚｲﾔ_1
 62
     5
 10
982.72265624999989
 20
-173.55025376009999
 30
0.0
 40
3.5
 50
270.0
 51
90.0
  0
LINE
  5
334
  8
ﾚｲﾔ_1
 62
     5
 10
967.72265624999989
 20
-177.05025376009999
 30
0.0
 11
982.72265624999989
 21
-177.05025376009999
 31
0.0
  0
LINE
  5
335
  8
ﾚｲﾔ_1
 62
     5
 10
982.72265624999989
 20
-170.05025376009999
 30
0.0
 11
967.72265624999989
 21
-170.05025376009999
 31
0.0
  0
ARC
  5
336
  8
ﾚｲﾔ_1
 62
     5
 10
967.72265624999989
 20
-173.55025376009999
 30
0.0
 40
3.5
 50
90.0
 51
270.0
  0
ENDBLK
  5
337
  8
0
  0
BLOCK
  8
0
  2
CLUMP46
 70
     0
 10
0.0
 20
0.0
 30
0.0
  3
CLUMP46
  1

  0
ARC
  5
33E
  8
ﾚｲﾔ_1
 62
     5
 10
808.22265625
 20
-148.55025376009999
 30
0.0
 40
3.5
 50
270.0
 51
90.0
  0
LINE
  5
33F
  8
ﾚｲﾔ_1
 62
     5
 10
793.22265625
 20
-152.05025376009999
 30
0.0
 11
808.22265625
 21
-152.05025376009999
 31
0.0
  0
LINE
  5
340
  8
ﾚｲﾔ_1
 62
     5
 10
808.22265625
 20
-145.05025376009999
 30
0.0
 11
793.22265625
 21
-145.05025376009999
 31
0.0
  0
ARC
  5
341
  8
ﾚｲﾔ_1
 62
     5
 10
793.22265625
 20
-148.55025376009999
 30
0.0
 40
3.5
 50
90.0
 51
270.0
  0
ENDBLK
  5
342
  8
0
  0
BLOCK
  8
0
  2
*D47
 70
     1
 10
0.0
 20
0.0
 30
0.0
  3
*D47
  1

  0
TEXT
  5
348
  8
0
 62
     0
 10
1219.0719105851999
 20
-79.418713364200002
 30
0.0
 40
7.1966662884000003
  1
6
 50
90.0
  0
LINE
  5
349
  8
0
 62
     0
 10
1201.3615974080999
 20
-80.3020468088
 30
0.0
 11
1222.3419105185001
 21
-80.3020468088
 31
0.0
  0
LINE
  5
34A
  8
0
 62
     0
 10
1202.1615974081001
 20
-74.3020468088
 30
0.0
 11
1222.3419105185001
 21
-74.3020468088
 31
0.0
  0
LINE
  5
34B
  8
0
 62
     0
 10
1221.3419105185001
 20
-80.3020468088
 30
0.0
 11
1221.3419105185001
 21
-80.3020468088
 31
0.0
  0
LINE
  5
34C
  8
0
 62
     0
 10
1221.3419105185001
 20
-80.3020468088
 30
0.0
 11
1221.3419105185001
 21
-74.3020468088
 31
0.0
  0
LINE
  5
34D
  8
0
 62
     0
 10
1221.3419105185001
 20
-74.3020468088
 30
0.0
 11
1221.3419105185001
 21
-80.3020468088
 31
0.0
  0
LINE
  5
34E
  8
0
 62
     0
 10
1221.3419105185001
 20
-74.3020468088
 30
0.0
 11
1221.3419105185001
 21
-74.3020468088
 31
0.0
  0
LINE
  5
34F
  8
0
 62
     0
 10
1221.3419105185001
 20
-74.3020468088
 30
0.0
 11
1221.3419105185001
 21
-69.3020468088
 31
0.0
  0
SOLID
  5
350
  8
0
 62
     0
 10
1221.3419105185001
 20
-74.3020468088
 30
0.0
 11
1219.8419105185001
 21
-68.3020468088
 31
0.0
 12
1222.8419105185001
 22
-68.3020468088
 32
0.0
 13
1221.3419105185001
 23
-69.8020468088
 33
0.0
  0
LINE
  5
351
  8
0
 62
     0
 10
1221.3419105185001
 20
-80.3020468088
 30
0.0
 11
1221.3419105185001
 21
-85.3020468088
 31
0.0
  0
SOLID
  5
352
  8
0
 62
     0
 10
1221.3419105185001
 20
-80.3020468088
 30
0.0
 11
1222.8419105185001
 21
-86.302046808799986
 31
0.0
 12
1219.8419105185001
 22
-86.302046808799986
 32
0.0
 13
1221.3419105185001
 23
-84.8020468088
 33
0.0
  0
ENDBLK
  5
353
  8
0
  0
BLOCK
  8
0
  2
*D48
 70
     1
 10
0.0
 20
0.0
 30
0.0
  3
*D48
  1

  0
TEXT
  5
358
  8
0
 62
     0
 10
1219.0719105851999
 20
-55.418713364200002
 30
0.0
 40
7.1966662884000003
  1
6
 50
90.0
  0
LINE
  5
359
  8
0
 62
     0
 10
1202.1615974081001
 20
-56.3020468088
 30
0.0
 11
1222.3419105185001
 21
-56.3020468088
 31
0.0
  0
LINE
  5
35A
  8
0
 62
     0
 10
1201.3615974080999
 20
-50.3020468088
 30
0.0
 11
1222.3419105185001
 21
-50.3020468088
 31
0.0
  0
LINE
  5
35B
  8
0
 62
     0
 10
1221.3419105185001
 20
-56.3020468088
 30
0.0
 11
1221.3419105185001
 21
-56.3020468088
 31
0.0
  0
LINE
  5
35C
  8
0
 62
     0
 10
1221.3419105185001
 20
-56.3020468088
 30
0.0
 11
1221.3419105185001
 21
-50.3020468088
 31
0.0
  0
LINE
  5
35D
  8
0
 62
     0
 10
1221.3419105185001
 20
-50.3020468088
 30
0.0
 11
1221.3419105185001
 21
-56.3020468088
 31
0.0
  0
LINE
  5
35E
  8
0
 62
     0
 10
1221.3419105185001
 20
-50.3020468088
 30
0.0
 11
1221.3419105185001
 21
-50.3020468088
 31
0.0
  0
LINE
  5
35F
  8
0
 62
     0
 10
1221.3419105185001
 20
-50.3020468088
 30
0.0
 11
1221.3419105185001
 21
-45.302046808799993
 31
0.0
  0
SOLID
  5
360
  8
0
 62
     0
 10
1221.3419105185001
 20
-50.3020468088
 30
0.0
 11
1219.8419105185001
 21
-44.3020468088
 31
0.0
 12
1222.8419105185001
 22
-44.3020468088
 32
0.0
 13
1221.3419105185001
 23
-45.8020468088
 33
0.0
  0
LINE
  5
361
  8
0
 62
     0
 10
1221.3419105185001
 20
-56.3020468088
 30
0.0
 11
1221.3419105185001
 21
-61.3020468088
 31
0.0
  0
SOLID
  5
362
  8
0
 62
     0
 10
1221.3419105185001
 20
-56.3020468088
 30
0.0
 11
1222.8419105185001
 21
-62.3020468088
 31
0.0
 12
1219.8419105185001
 22
-62.3020468088
 32
0.0
 13
1221.3419105185001
 23
-60.8020468088
 33
0.0
  0
ENDBLK
  5
363
  8
0
  0
BLOCK
  8
0
  2
*D49
 70
     1
 10
0.0
 20
0.0
 30
0.0
  3
*D49
  1

  0
TEXT
  5
367
  8
0
 62
     0
 10
1281.5530142011
 20
110.4980234101
 30
0.0
 40
7.1966662884000003
  1
15
  0
LINE
  5
368
  8
0
 62
     0
 10
1293.4053430678
 20
75.181044335600006
 30
0.0
 11
1293.4053430678
 21
109.22802347690001
 31
0.0
  0
LINE
  5
369
  8
0
 62
     0
 10
1278.4053430678
 20
83.381044335600009
 30
0.0
 11
1278.4053430678
 21
109.22802347690001
 31
0.0
  0
LINE
  5
36A
  8
0
 62
     0
 10
1293.4053430678
 20
108.22802347690001
 30
0.0
 11
1293.4053430678
 21
108.22802347690001
 31
0.0
  0
LINE
  5
36B
  8
0
 62
     0
 10
1293.4053430678
 20
108.22802347690001
 30
0.0
 11
1278.4053430678
 21
108.22802347690001
 31
0.0
  0
LINE
  5
36C
  8
0
 62
     0
 10
1278.4053430678
 20
108.22802347690001
 30
0.0
 11
1293.4053430678
 21
108.22802347690001
 31
0.0
  0
LINE
  5
36D
  8
0
 62
     0
 10
1278.4053430678
 20
108.22802347690001
 30
0.0
 11
1278.4053430678
 21
108.22802347690001
 31
0.0
  0
LINE
  5
36E
  8
0
 62
     0
 10
1278.4053430678
 20
108.22802347690001
 30
0.0
 11
1283.4053430678
 21
108.22802347690001
 31
0.0
  0
SOLID
  5
36F
  8
0
 62
     0
 10
1278.4053430678
 20
108.22802347690001
 30
0.0
 11
1284.4053430678
 21
109.72802347690001
 31
0.0
 12
1284.4053430678
 22
106.72802347690001
 32
0.0
 13
1282.9053430678
 23
108.22802347690001
 33
0.0
  0
LINE
  5
370
  8
0
 62
     0
 10
1293.4053430678
 20
108.22802347690001
 30
0.0
 11
1288.4053430678
 21
108.22802347690001
 31
0.0
  0
SOLID
  5
371
  8
0
 62
     0
 10
1293.4053430678
 20
108.22802347690001
 30
0.0
 11
1287.4053430678
 21
106.72802347690001
 31
0.0
 12
1287.4053430678
 22
109.72802347690001
 32
0.0
 13
1288.9053430678
 23
108.22802347690001
 33
0.0
  0
ENDBLK
  5
372
  8
0
  0
BLOCK
  8
0
  2
*D50
 70
     1
 10
0.0
 20
0.0
 30
0.0
  3
*D50
  1

  0
TEXT
  5
376
  8
0
 62
     0
 10
1296.672009957
 20
110.4980203583
 30
0.0
 40
7.1966662884000003
  1
15
  0
LINE
  5
377
  8
0
 62
     0
 10
1308.4053430678
 20
84.181044335600006
 30
0.0
 11
1308.4053430678
 21
109.2280204251
 31
0.0
  0
LINE
  5
378
  8
0
 62
     0
 10
1293.4053430678
 20
75.181044335600006
 30
0.0
 11
1293.4053430678
 21
109.2280204251
 31
0.0
  0
LINE
  5
379
  8
0
 62
     0
 10
1308.4053430678
 20
108.2280204251
 30
0.0
 11
1308.4053430678
 21
108.2280204251
 31
0.0
  0
LINE
  5
37A
  8
0
 62
     0
 10
1308.4053430678
 20
108.2280204251
 30
0.0
 11
1293.4053430678
 21
108.2280204251
 31
0.0
  0
LINE
  5
37B
  8
0
 62
     0
 10
1293.4053430678
 20
108.2280204251
 30
0.0
 11
1308.4053430678
 21
108.2280204251
 31
0.0
  0
LINE
  5
37C
  8
0
 62
     0
 10
1293.4053430678
 20
108.2280204251
 30
0.0
 11
1293.4053430678
 21
108.2280204251
 31
0.0
  0
LINE
  5
37D
  8
0
 62
     0
 10
1293.4053430678
 20
108.2280204251
 30
0.0
 11
1298.4053430678
 21
108.2280204251
 31
0.0
  0
SOLID
  5
37E
  8
0
 62
     0
 10
1293.4053430678
 20
108.2280204251
 30
0.0
 11
1299.4053430678
 21
109.7280204251
 31
0.0
 12
1299.4053430678
 22
106.7280204251
 32
0.0
 13
1297.9053430678
 23
108.2280204251
 33
0.0
  0
LINE
  5
37F
  8
0
 62
     0
 10
1308.4053430678
 20
108.2280204251
 30
0.0
 11
1303.4053430678
 21
108.2280204251
 31
0.0
  0
SOLID
  5
380
  8
0
 62
     0
 10
1308.4053430678
 20
108.2280204251
 30
0.0
 11
1302.4053430678
 21
106.7280204251
 31
0.0
 12
1302.4053430678
 22
109.7280204251
 32
0.0
 13
1303.9053430678
 23
108.2280204251
 33
0.0
  0
ENDBLK
  5
381
  8
0
  0
BLOCK
  8
0
  2
*D51
 70
     1
 10
0.0
 20
0.0
 30
0.0
  3
*D51
  1

  0
TEXT
  5
385
  8
0
 62
     0
 10
1193.5449308527
 20
110.29933136299999
 30
0.0
 40
7.1966662884000003
  1
9
  0
LINE
  5
386
  8
0
 62
     0
 10
1200.1615974081001
 20
84.180586083699993
 30
0.0
 11
1200.1615974081001
 21
109.02933142969999
 31
0.0
  0
LINE
  5
387
  8
0
 62
     0
 10
1191.1615974081001
 20
75.180586083699993
 30
0.0
 11
1191.1615974081001
 21
109.02933142969999
 31
0.0
  0
LINE
  5
388
  8
0
 62
     0
 10
1200.1615974081001
 20
108.02933142969999
 30
0.0
 11
1200.1615974081001
 21
108.02933142969999
 31
0.0
  0
LINE
  5
389
  8
0
 62
     0
 10
1200.1615974081001
 20
108.02933142969999
 30
0.0
 11
1191.1615974081001
 21
108.02933142969999
 31
0.0
  0
LINE
  5
38A
  8
0
 62
     0
 10
1191.1615974081001
 20
108.02933142969999
 30
0.0
 11
1200.1615974081001
 21
108.02933142969999
 31
0.0
  0
LINE
  5
38B
  8
0
 62
     0
 10
1191.1615974081001
 20
108.02933142969999
 30
0.0
 11
1191.1615974081001
 21
108.02933142969999
 31
0.0
  0
LINE
  5
38C
  8
0
 62
     0
 10
1191.1615974081001
 20
108.02933142969999
 30
0.0
 11
1186.1615974081001
 21
108.02933142969999
 31
0.0
  0
SOLID
  5
38D
  8
0
 62
     0
 10
1191.1615974081001
 20
108.02933142969999
 30
0.0
 11
1185.1615974081001
 21
106.52933142969999
 31
0.0
 12
1185.1615974081001
 22
109.52933142969999
 32
0.0
 13
1186.6615974081001
 23
108.02933142969999
 33
0.0
  0
LINE
  5
38E
  8
0
 62
     0
 10
1200.1615974081001
 20
108.02933142969999
 30
0.0
 11
1205.1615974081001
 21
108.02933142969999
 31
0.0
  0
SOLID
  5
38F
  8
0
 62
     0
 10
1200.1615974081001
 20
108.02933142969999
 30
0.0
 11
1206.1615974081001
 21
109.52933142969999
 31
0.0
 12
1206.1615974081001
 22
106.52933142969999
 32
0.0
 13
1204.6615974081001
 23
108.02933142969999
 33
0.0
  0
ENDBLK
  5
390
  8
0
  0
BLOCK
  8
0
  2
*D52
 70
     1
 10
0.0
 20
0.0
 30
0.0
  3
*D52
  1

  0
TEXT
  5
394
  8
0
 62
     0
 10
1237.0603177201999
 20
28.947252972899999
 30
0.0
 40
7.1966662884000003
  1
98
 50
90.0
  0
LINE
  5
395
  8
0
 62
     0
 10
1202.1615974081001
 20
-15.8194139163
 30
0.0
 11
1240.3303176535001
 21
-15.8194139163
 31
0.0
  0
LINE
  5
396
  8
0
 62
     0
 10
1202.1615974081001
 20
82.180586083699978
 30
0.0
 11
1240.3303176535001
 21
82.180586083699978
 31
0.0
  0
LINE
  5
397
  8
0
 62
     0
 10
1239.3303176535001
 20
-15.8194139163
 30
0.0
 11
1239.3303176535001
 21
41.6472523053
 31
0.0
  0
LINE
  5
398
  8
0
 62
     0
 10
1239.3303176535001
 20
-15.8194139163
 30
0.0
 11
1239.3303176535001
 21
24.713919862000001
 31
0.0
  0
LINE
  5
399
  8
0
 62
     0
 10
1239.3303176535001
 20
82.180586083699978
 30
0.0
 11
1239.3303176535001
 21
41.6472523053
 31
0.0
  0
LINE
  5
39A
  8
0
 62
     0
 10
1239.3303176535001
 20
82.180586083699978
 30
0.0
 11
1239.3303176535001
 21
24.713919862000001
 31
0.0
  0
LINE
  5
39B
  8
0
 62
     0
 10
1239.3303176535001
 20
82.180586083699978
 30
0.0
 11
1239.3303176535001
 21
77.180586083699993
 31
0.0
  0
SOLID
  5
39C
  8
0
 62
     0
 10
1239.3303176535001
 20
82.180586083699978
 30
0.0
 11
1240.8303176535001
 21
76.180586083699993
 31
0.0
 12
1237.8303176535001
 22
76.180586083699993
 32
0.0
 13
1239.3303176535001
 23
77.680586083699993
 33
0.0
  0
LINE
  5
39D
  8
0
 62
     0
 10
1239.3303176535001
 20
-15.8194139163
 30
0.0
 11
1239.3303176535001
 21
-10.8194139163
 31
0.0
  0
SOLID
  5
39E
  8
0
 62
     0
 10
1239.3303176535001
 20
-15.8194139163
 30
0.0
 11
1237.8303176535001
 21
-9.8194139163000003
 31
0.0
 12
1240.8303176535001
 22
-9.8194139163000003
 32
0.0
 13
1239.3303176535001
 23
-11.3194139163
 33
0.0
  0
ENDBLK
  5
39F
  8
0
  0
BLOCK
  8
0
  2
*D53
 70
     1
 10
0.0
 20
0.0
 30
0.0
  3
*D53
  1

  0
TEXT
  5
3A3
  8
0
 62
     0
 10
1374.5173267973
 20
124.87918605350001
 30
0.0
 40
7.1966662884000003
  1
55
  0
LINE
  5
3A4
  8
0
 62
     0
 10
1406.2506599081
 20
83.381044335600009
 30
0.0
 11
1406.2506599081
 21
123.6091861203
 31
0.0
  0
LINE
  5
3A5
  8
0
 62
     0
 10
1351.2506599081
 20
83.381044335600009
 30
0.0
 11
1351.2506599081
 21
123.6091861203
 31
0.0
  0
LINE
  5
3A6
  8
0
 62
     0
 10
1406.2506599081
 20
122.6091861203
 30
0.0
 11
1387.2173261297
 21
122.6091861203
 31
0.0
  0
LINE
  5
3A7
  8
0
 62
     0
 10
1406.2506599081
 20
122.6091861203
 30
0.0
 11
1370.2839936865
 21
122.6091861203
 31
0.0
  0
LINE
  5
3A8
  8
0
 62
     0
 10
1351.2506599081
 20
122.6091861203
 30
0.0
 11
1387.2173261297
 21
122.6091861203
 31
0.0
  0
LINE
  5
3A9
  8
0
 62
     0
 10
1351.2506599081
 20
122.6091861203
 30
0.0
 11
1370.2839936865
 21
122.6091861203
 31
0.0
  0
LINE
  5
3AA
  8
0
 62
     0
 10
1351.2506599081
 20
122.6091861203
 30
0.0
 11
1356.2506599081
 21
122.6091861203
 31
0.0
  0
SOLID
  5
3AB
  8
0
 62
     0
 10
1351.2506599081
 20
122.6091861203
 30
0.0
 11
1357.2506599081
 21
124.1091861203
 31
0.0
 12
1357.2506599081
 22
121.1091861203
 32
0.0
 13
1355.7506599081
 23
122.6091861203
 33
0.0
  0
LINE
  5
3AC
  8
0
 62
     0
 10
1406.2506599081
 20
122.6091861203
 30
0.0
 11
1401.2506599081
 21
122.6091861203
 31
0.0
  0
SOLID
  5
3AD
  8
0
 62
     0
 10
1406.2506599081
 20
122.6091861203
 30
0.0
 11
1400.2506599081
 21
121.1091861203
 31
0.0
 12
1400.2506599081
 22
124.1091861203
 32
0.0
 13
1401.7506599081
 23
122.6091861203
 33
0.0
  0
ENDBLK
  5
3AE
  8
0
  0
BLOCK
  8
0
  2
*D54
 70
     1
 10
0.0
 20
0.0
 30
0.0
  3
*D54
  1

  0
TEXT
  5
3B2
  8
0
 62
     0
 10
1289.172009957
 20
124.9164213135
 30
0.0
 40
7.1966662884000003
  1
30
  0
LINE
  5
3B3
  8
0
 62
     0
 10
1308.4053430678
 20
83.381044335600009
 30
0.0
 11
1308.4053430678
 21
123.6464213803
 31
0.0
  0
LINE
  5
3B4
  8
0
 62
     0
 10
1278.4053430678
 20
83.381044335600009
 30
0.0
 11
1278.4053430678
 21
123.6464213803
 31
0.0
  0
LINE
  5
3B5
  8
0
 62
     0
 10
1308.4053430678
 20
122.6464213803
 30
0.0
 11
1301.8720092895001
 21
122.6464213803
 31
0.0
  0
LINE
  5
3B6
  8
0
 62
     0
 10
1308.4053430678
 20
122.6464213803
 30
0.0
 11
1284.9386768462
 21
122.6464213803
 31
0.0
  0
LINE
  5
3B7
  8
0
 62
     0
 10
1278.4053430678
 20
122.6464213803
 30
0.0
 11
1301.8720092895001
 21
122.6464213803
 31
0.0
  0
LINE
  5
3B8
  8
0
 62
     0
 10
1278.4053430678
 20
122.6464213803
 30
0.0
 11
1284.9386768462
 21
122.6464213803
 31
0.0
  0
LINE
  5
3B9
  8
0
 62
     0
 10
1278.4053430678
 20
122.6464213803
 30
0.0
 11
1283.4053430678
 21
122.6464213803
 31
0.0
  0
SOLID
  5
3BA
  8
0
 62
     0
 10
1278.4053430678
 20
122.6464213803
 30
0.0
 11
1284.4053430678
 21
124.1464213803
 31
0.0
 12
1284.4053430678
 22
121.1464213803
 32
0.0
 13
1282.9053430678
 23
122.6464213803
 33
0.0
  0
LINE
  5
3BB
  8
0
 62
     0
 10
1308.4053430678
 20
122.6464213803
 30
0.0
 11
1303.4053430678
 21
122.6464213803
 31
0.0
  0
SOLID
  5
3BC
  8
0
 62
     0
 10
1308.4053430678
 20
122.6464213803
 30
0.0
 11
1302.4053430678
 21
121.1464213803
 31
0.0
 12
1302.4053430678
 22
124.1464213803
 32
0.0
 13
1303.9053430678
 23
122.6464213803
 33
0.0
  0
ENDBLK
  5
3BD
  8
0
  0
BLOCK
  8
0
  2
*D55
 70
     1
 10
0.0
 20
0.0
 30
0.0
  3
*D55
  1

  0
TEXT
  5
3C1
  8
0
 62
     0
 10
944.81159774189996
 20
125.0581185181
 30
0.0
 40
7.1966662884000003
  1
498
  0
LINE
  5
3C2
  8
0
 62
     0
 10
1200.1615974081001
 20
84.180586083699993
 30
0.0
 11
1200.1615974081001
 21
123.7881185849
 31
0.0
  0
LINE
  5
3C3
  8
0
 62
     0
 10
702.16159740809985
 20
84.180586083699993
 30
0.0
 11
702.16159740809985
 21
123.7881185849
 31
0.0
  0
LINE
  5
3C4
  8
0
 62
     0
 10
1200.1615974081001
 20
122.7881185849
 30
0.0
 11
961.74493018519991
 21
122.7881185849
 31
0.0
  0
LINE
  5
3C5
  8
0
 62
     0
 10
1200.1615974081001
 20
122.7881185849
 30
0.0
 11
940.57826463109996
 21
122.7881185849
 31
0.0
  0
LINE
  5
3C6
  8
0
 62
     0
 10
702.16159740809985
 20
122.7881185849
 30
0.0
 11
961.74493018519991
 21
122.7881185849
 31
0.0
  0
LINE
  5
3C7
  8
0
 62
     0
 10
702.16159740809985
 20
122.7881185849
 30
0.0
 11
940.57826463109996
 21
122.7881185849
 31
0.0
  0
LINE
  5
3C8
  8
0
 62
     0
 10
702.16159740809985
 20
122.7881185849
 30
0.0
 11
707.16159740809985
 21
122.7881185849
 31
0.0
  0
SOLID
  5
3C9
  8
0
 62
     0
 10
702.16159740809985
 20
122.7881185849
 30
0.0
 11
708.16159740809996
 21
124.2881185849
 31
0.0
 12
708.16159740809996
 22
121.2881185849
 32
0.0
 13
706.66159740809985
 23
122.7881185849
 33
0.0
  0
LINE
  5
3CA
  8
0
 62
     0
 10
1200.1615974081001
 20
122.7881185849
 30
0.0
 11
1195.1615974081001
 21
122.7881185849
 31
0.0
  0
SOLID
  5
3CB
  8
0
 62
     0
 10
1200.1615974081001
 20
122.7881185849
 30
0.0
 11
1194.1615974081001
 21
121.2881185849
 31
0.0
 12
1194.1615974081001
 22
124.2881185849
 32
0.0
 13
1195.6615974081001
 23
122.7881185849
 33
0.0
  0
ENDBLK
  5
3CC
  8
0
  0
BLOCK
  8
0
  2
*D56
 70
     1
 10
0.0
 20
0.0
 30
0.0
  3
*D56
  1

  0
TEXT
  5
3D0
  8
0
 62
     0
 10
944.81159774189996
 20
110.2993294556
 30
0.0
 40
7.1966662884000003
  1
480
  0
LINE
  5
3D1
  8
0
 62
     0
 10
1191.1615974081001
 20
75.180586083699993
 30
0.0
 11
1191.1615974081001
 21
109.0293295224
 31
0.0
  0
LINE
  5
3D2
  8
0
 62
     0
 10
711.16159740809985
 20
75.180586083699993
 30
0.0
 11
711.16159740809985
 21
109.0293295224
 31
0.0
  0
LINE
  5
3D3
  8
0
 62
     0
 10
1191.1615974081001
 20
108.0293295224
 30
0.0
 11
961.74493018519991
 21
108.0293295224
 31
0.0
  0
LINE
  5
3D4
  8
0
 62
     0
 10
1191.1615974081001
 20
108.0293295224
 30
0.0
 11
940.57826463109996
 21
108.0293295224
 31
0.0
  0
LINE
  5
3D5
  8
0
 62
     0
 10
711.16159740809985
 20
108.0293295224
 30
0.0
 11
961.74493018519991
 21
108.0293295224
 31
0.0
  0
LINE
  5
3D6
  8
0
 62
     0
 10
711.16159740809985
 20
108.0293295224
 30
0.0
 11
940.57826463109996
 21
108.0293295224
 31
0.0
  0
LINE
  5
3D7
  8
0
 62
     0
 10
711.16159740809985
 20
108.0293295224
 30
0.0
 11
716.16159740809996
 21
108.0293295224
 31
0.0
  0
SOLID
  5
3D8
  8
0
 62
     0
 10
711.16159740809985
 20
108.0293295224
 30
0.0
 11
717.16159740809985
 21
109.5293295224
 31
0.0
 12
717.16159740809985
 22
106.5293295224
 32
0.0
 13
715.66159740809985
 23
108.0293295224
 33
0.0
  0
LINE
  5
3D9
  8
0
 62
     0
 10
1191.1615974081001
 20
108.0293295224
 30
0.0
 11
1186.1615974081001
 21
108.0293295224
 31
0.0
  0
SOLID
  5
3DA
  8
0
 62
     0
 10
1191.1615974081001
 20
108.0293295224
 30
0.0
 11
1185.1615974081001
 21
106.5293295224
 31
0.0
 12
1185.1615974081001
 22
109.5293295224
 32
0.0
 13
1186.6615974081001
 23
108.0293295224
 33
0.0
  0
ENDBLK
  5
3DB
  8
0
  0
BLOCK
  8
0
  2
*D57
 70
     1
 10
0.0
 20
0.0
 30
0.0
  3
*D57
  1

  0
TEXT
  5
3DF
  8
0
 62
     0
 10
1225.0549523484999
 20
-13.4360804717
 30
0.0
 40
7.1966662884000003
  1
9
 50
90.0
  0
LINE
  5
3E0
  8
0
 62
     0
 10
1202.1615974081001
 20
-15.8194139163
 30
0.0
 11
1228.3249522818001
 21
-15.8194139163
 31
0.0
  0
LINE
  5
3E1
  8
0
 62
     0
 10
1193.1615974081001
 20
-6.8194139163000003
 30
0.0
 11
1228.3249522818001
 21
-6.8194139163000003
 31
0.0
  0
LINE
  5
3E2
  8
0
 62
     0
 10
1227.3249522818001
 20
-15.8194139163
 30
0.0
 11
1227.3249522818001
 21
-15.8194139163
 31
0.0
  0
LINE
  5
3E3
  8
0
 62
     0
 10
1227.3249522818001
 20
-15.8194139163
 30
0.0
 11
1227.3249522818001
 21
-6.8194139163000003
 31
0.0
  0
LINE
  5
3E4
  8
0
 62
     0
 10
1227.3249522818001
 20
-6.8194139163000003
 30
0.0
 11
1227.3249522818001
 21
-15.8194139163
 31
0.0
  0
LINE
  5
3E5
  8
0
 62
     0
 10
1227.3249522818001
 20
-6.8194139163000003
 30
0.0
 11
1227.3249522818001
 21
-6.8194139163000003
 31
0.0
  0
LINE
  5
3E6
  8
0
 62
     0
 10
1227.3249522818001
 20
-6.8194139163000003
 30
0.0
 11
1227.3249522818001
 21
-1.8194139163
 31
0.0
  0
SOLID
  5
3E7
  8
0
 62
     0
 10
1227.3249522818001
 20
-6.8194139163000003
 30
0.0
 11
1225.8249522818001
 21
-0.8194139162999999
 31
0.0
 12
1228.8249522818001
 22
-0.8194139162999999
 32
0.0
 13
1227.3249522818001
 23
-2.3194139162999989
 33
0.0
  0
LINE
  5
3E8
  8
0
 62
     0
 10
1227.3249522818001
 20
-15.8194139163
 30
0.0
 11
1227.3249522818001
 21
-20.8194139163
 31
0.0
  0
SOLID
  5
3E9
  8
0
 62
     0
 10
1227.3249522818001
 20
-15.8194139163
 30
0.0
 11
1228.8249522818001
 21
-21.8194139163
 31
0.0
 12
1225.8249522818001
 22
-21.8194139163
 32
0.0
 13
1227.3249522818001
 23
-20.3194139163
 33
0.0
  0
ENDBLK
  5
3EA
  8
0
  0
BLOCK
  8
0
  2
*D58
 70
     1
 10
0.0
 20
0.0
 30
0.0
  3
*D58
  1

  0
TEXT
  5
3EE
  8
0
 62
     0
 10
704.54493085269996
 20
110.2993332703
 30
0.0
 40
7.1966662884000003
  1
9
  0
LINE
  5
3EF
  8
0
 62
     0
 10
711.16159740809985
 20
75.180586083699993
 30
0.0
 11
711.16159740809985
 21
109.0293333371
 31
0.0
  0
LINE
  5
3F0
  8
0
 62
     0
 10
702.16159740809985
 20
84.180586083699993
 30
0.0
 11
702.16159740809985
 21
109.0293333371
 31
0.0
  0
LINE
  5
3F1
  8
0
 62
     0
 10
711.16159740809985
 20
108.0293333371
 30
0.0
 11
711.16159740809985
 21
108.0293333371
 31
0.0
  0
LINE
  5
3F2
  8
0
 62
     0
 10
711.16159740809985
 20
108.0293333371
 30
0.0
 11
702.16159740809985
 21
108.0293333371
 31
0.0
  0
LINE
  5
3F3
  8
0
 62
     0
 10
702.16159740809985
 20
108.0293333371
 30
0.0
 11
711.16159740809985
 21
108.0293333371
 31
0.0
  0
LINE
  5
3F4
  8
0
 62
     0
 10
702.16159740809985
 20
108.0293333371
 30
0.0
 11
702.16159740809985
 21
108.0293333371
 31
0.0
  0
LINE
  5
3F5
  8
0
 62
     0
 10
702.16159740809985
 20
108.0293333371
 30
0.0
 11
697.16159740809985
 21
108.0293333371
 31
0.0
  0
SOLID
  5
3F6
  8
0
 62
     0
 10
702.16159740809985
 20
108.0293333371
 30
0.0
 11
696.16159740809985
 21
106.5293333371
 31
0.0
 12
696.16159740809985
 22
109.5293333370999
 32
0.0
 13
697.66159740809985
 23
108.0293333371
 33
0.0
  0
LINE
  5
3F7
  8
0
 62
     0
 10
711.16159740809985
 20
108.0293333371
 30
0.0
 11
716.16159740809996
 21
108.0293333371
 31
0.0
  0
SOLID
  5
3F8
  8
0
 62
     0
 10
711.16159740809985
 20
108.0293333371
 30
0.0
 11
717.16159740809985
 21
109.5293333370999
 31
0.0
 12
717.16159740809985
 22
106.5293333371
 32
0.0
 13
715.66159740809985
 23
108.0293333371
 33
0.0
  0
ENDBLK
  5
3F9
  8
0
  0
BLOCK
  8
0
  2
*D59
 70
     1
 10
0.0
 20
0.0
 30
0.0
  3
*D59
  1

  0
TEXT
  5
3FE
  8
0
 62
     0
 10
1163.3096591947001
 20
-240.9988847493
 30
0.0
 40
7.1966662884000003
  1
R5
 50
315.0
  0
LINE
  5
3FF
  8
0
 62
     0
 10
1180.5081901558999
 20
-262.3882016801
 30
0.0
 11
1161.2142662099
 21
-243.094277734
 31
0.0
  0
SOLID
  5
400
  8
0
 62
     0
 10
1180.5081901558999
 20
-262.3882016801
 30
0.0
 11
1175.2048892969999
 21
-259.20622116470003
 31
0.0
 12
1177.3262096405999
 22
-257.08490082119999
 32
0.0
 13
1177.3262096405999
 23
-259.20622116470003
 33
0.0
  0
ENDBLK
  5
401
  8
0
  0
BLOCK
  8
0
  2
*D60
 70
     1
 10
0.0
 20
0.0
 30
0.0
  3
*D60
  1

  0
TEXT
  5
405
  8
0
 62
     0
 10
1294.3897548826001
 20
-111.78025382680001
 30
0.0
 40
7.1966662884000003
  1
14
  0
LINE
  5
406
  8
0
 62
     0
 10
1305.6230879934001
 20
-132.05025376009999
 30
0.0
 11
1305.6230879934001
 21
-113.05025376010001
 31
0.0
  0
LINE
  5
407
  8
0
 62
     0
 10
1291.6230879934001
 20
-133.5502532093
 30
0.0
 11
1291.6230879934001
 21
-113.05025376010001
 31
0.0
  0
LINE
  5
408
  8
0
 62
     0
 10
1305.6230879934001
 20
-114.05025376010001
 30
0.0
 11
1305.6230879934001
 21
-114.05025376010001
 31
0.0
  0
LINE
  5
409
  8
0
 62
     0
 10
1305.6230879934001
 20
-114.05025376010001
 30
0.0
 11
1291.6230879934001
 21
-114.05025376010001
 31
0.0
  0
LINE
  5
40A
  8
0
 62
     0
 10
1291.6230879934001
 20
-114.05025376010001
 30
0.0
 11
1305.6230879934001
 21
-114.05025376010001
 31
0.0
  0
LINE
  5
40B
  8
0
 62
     0
 10
1291.6230879934001
 20
-114.05025376010001
 30
0.0
 11
1291.6230879934001
 21
-114.05025376010001
 31
0.0
  0
LINE
  5
40C
  8
0
 62
     0
 10
1291.6230879934001
 20
-114.05025376010001
 30
0.0
 11
1296.6230879934001
 21
-114.05025376010001
 31
0.0
  0
SOLID
  5
40D
  8
0
 62
     0
 10
1291.6230879934001
 20
-114.05025376010001
 30
0.0
 11
1297.6230879934001
 21
-112.55025376010001
 31
0.0
 12
1297.6230879934001
 22
-115.55025376010001
 32
0.0
 13
1296.1230879934001
 23
-114.05025376010001
 33
0.0
  0
LINE
  5
40E
  8
0
 62
     0
 10
1305.6230879934001
 20
-114.05025376010001
 30
0.0
 11
1300.6230879934001
 21
-114.05025376010001
 31
0.0
  0
SOLID
  5
40F
  8
0
 62
     0
 10
1305.6230879934001
 20
-114.05025376010001
 30
0.0
 11
1299.6230879934001
 21
-115.55025376010001
 31
0.0
 12
1299.6230879934001
 22
-112.55025376010001
 32
0.0
 13
1301.1230879934001
 23
-114.05025376010001
 33
0.0
  0
ENDBLK
  5
410
  8
0
  0
BLOCK
  8
0
  2
*D61
 70
     1
 10
0.0
 20
0.0
 30
0.0
  3
*D61
  1

  0
TEXT
  5
414
  8
0
 62
     0
 10
1382.5713543892
 20
-111.78025382680001
 30
0.0
 40
7.1966662884000003
  1
23
  0
LINE
  5
415
  8
0
 62
     0
 10
1398.3046875
 20
-132.05025376009999
 30
0.0
 11
1398.3046875
 21
-113.05025376010001
 31
0.0
  0
LINE
  5
416
  8
0
 62
     0
 10
1375.3046875
 20
-133.55025376009999
 30
0.0
 11
1375.3046875
 21
-113.05025376010001
 31
0.0
  0
LINE
  5
417
  8
0
 62
     0
 10
1398.3046875
 20
-114.05025376010001
 30
0.0
 11
1395.2713537216
 21
-114.05025376010001
 31
0.0
  0
LINE
  5
418
  8
0
 62
     0
 10
1398.3046875
 20
-114.05025376010001
 30
0.0
 11
1378.3380212784
 21
-114.05025376010001
 31
0.0
  0
LINE
  5
419
  8
0
 62
     0
 10
1375.3046875
 20
-114.05025376010001
 30
0.0
 11
1395.2713537216
 21
-114.05025376010001
 31
0.0
  0
LINE
  5
41A
  8
0
 62
     0
 10
1375.3046875
 20
-114.05025376010001
 30
0.0
 11
1378.3380212784
 21
-114.05025376010001
 31
0.0
  0
LINE
  5
41B
  8
0
 62
     0
 10
1375.3046875
 20
-114.05025376010001
 30
0.0
 11
1370.3046875
 21
-114.05025376010001
 31
0.0
  0
SOLID
  5
41C
  8
0
 62
     0
 10
1375.3046875
 20
-114.05025376010001
 30
0.0
 11
1369.3046875
 21
-115.55025376010001
 31
0.0
 12
1369.3046875
 22
-112.55025376010001
 32
0.0
 13
1370.8046875
 23
-114.05025376010001
 33
0.0
  0
LINE
  5
41D
  8
0
 62
     0
 10
1398.3046875
 20
-114.05025376010001
 30
0.0
 11
1403.3046875
 21
-114.05025376010001
 31
0.0
  0
SOLID
  5
41E
  8
0
 62
     0
 10
1398.3046875
 20
-114.05025376010001
 30
0.0
 11
1404.3046875
 21
-112.55025376010001
 31
0.0
 12
1404.3046875
 22
-115.55025376010001
 32
0.0
 13
1402.8046875
 23
-114.05025376010001
 33
0.0
  0
ENDBLK
  5
41F
  8
0
  0
BLOCK
  8
0
  2
*D62
 70
     1
 10
0.0
 20
0.0
 30
0.0
  3
*D62
  1

  0
TEXT
  5
423
  8
0
 62
     0
 10
1199.7026563167999
 20
-190.2835868709
 30
0.0
 40
7.1966662884000003
  1
25
 50
90.0
  0
LINE
  5
424
  8
0
 62
     0
 10
1168.72265625
 20
-198.55025376009999
 30
0.0
 11
1202.97265625
 21
-198.55025376009999
 31
0.0
  0
LINE
  5
425
  8
0
 62
     0
 10
1188.97265625
 20
-173.55025376009999
 30
0.0
 11
1202.97265625
 21
-173.55025376009999
 31
0.0
  0
LINE
  5
426
  8
0
 62
     0
 10
1201.97265625
 20
-198.55025376009999
 30
0.0
 11
1201.97265625
 21
-177.58358753850001
 31
0.0
  0
LINE
  5
427
  8
0
 62
     0
 10
1201.97265625
 20
-198.55025376009999
 30
0.0
 11
1201.97265625
 21
-194.5169199817
 31
0.0
  0
LINE
  5
428
  8
0
 62
     0
 10
1201.97265625
 20
-173.55025376009999
 30
0.0
 11
1201.97265625
 21
-177.58358753850001
 31
0.0
  0
LINE
  5
429
  8
0
 62
     0
 10
1201.97265625
 20
-173.55025376009999
 30
0.0
 11
1201.97265625
 21
-194.5169199817
 31
0.0
  0
LINE
  5
42A
  8
0
 62
     0
 10
1201.97265625
 20
-173.55025376009999
 30
0.0
 11
1201.97265625
 21
-168.55025376009999
 31
0.0
  0
SOLID
  5
42B
  8
0
 62
     0
 10
1201.97265625
 20
-173.55025376009999
 30
0.0
 11
1200.47265625
 21
-167.55025376009999
 31
0.0
 12
1203.47265625
 22
-167.55025376009999
 32
0.0
 13
1201.97265625
 23
-169.05025376009999
 33
0.0
  0
LINE
  5
42C
  8
0
 62
     0
 10
1201.97265625
 20
-198.55025376009999
 30
0.0
 11
1201.97265625
 21
-203.55025376009999
 31
0.0
  0
SOLID
  5
42D
  8
0
 62
     0
 10
1201.97265625
 20
-198.55025376009999
 30
0.0
 11
1203.47265625
 21
-204.55025376009999
 31
0.0
 12
1200.47265625
 22
-204.55025376009999
 32
0.0
 13
1201.97265625
 23
-203.05025376009999
 33
0.0
  0
ENDBLK
  5
42E
  8
0
  0
BLOCK
  8
0
  2
*D63
 70
     1
 10
0.0
 20
0.0
 30
0.0
  3
*D63
  1

  0
TEXT
  5
432
  8
0
 62
     0
 10
973.98932313920011
 20
-230.78025382679999
 30
0.0
 40
7.1966662884000003
  1
71
  0
LINE
  5
433
  8
0
 62
     0
 10
942.72265624999989
 20
-220.05025376009999
 30
0.0
 11
942.72265624999989
 21
-234.05025376009999
 31
0.0
  0
LINE
  5
434
  8
0
 62
     0
 10
1013.72265625
 20
-204.05025376009999
 30
0.0
 11
1013.72265625
 21
-234.05025376009999
 31
0.0
  0
LINE
  5
435
  8
0
 62
     0
 10
942.72265624999989
 20
-233.05025376009999
 30
0.0
 11
986.68932247159989
 21
-233.05025376009999
 31
0.0
  0
LINE
  5
436
  8
0
 62
     0
 10
942.72265624999989
 20
-233.05025376009999
 30
0.0
 11
969.75599002839999
 21
-233.05025376009999
 31
0.0
  0
LINE
  5
437
  8
0
 62
     0
 10
1013.72265625
 20
-233.05025376009999
 30
0.0
 11
986.68932247159989
 21
-233.05025376009999
 31
0.0
  0
LINE
  5
438
  8
0
 62
     0
 10
1013.72265625
 20
-233.05025376009999
 30
0.0
 11
969.75599002839999
 21
-233.05025376009999
 31
0.0
  0
LINE
  5
439
  8
0
 62
     0
 10
1013.72265625
 20
-233.05025376009999
 30
0.0
 11
1008.72265625
 21
-233.05025376009999
 31
0.0
  0
SOLID
  5
43A
  8
0
 62
     0
 10
1013.72265625
 20
-233.05025376009999
 30
0.0
 11
1007.72265625
 21
-234.55025376009999
 31
0.0
 12
1007.72265625
 22
-231.55025376009999
 32
0.0
 13
1009.22265625
 23
-233.05025376009999
 33
0.0
  0
LINE
  5
43B
  8
0
 62
     0
 10
942.72265624999989
 20
-233.05025376009999
 30
0.0
 11
947.72265625
 21
-233.05025376009999
 31
0.0
  0
SOLID
  5
43C
  8
0
 62
     0
 10
942.72265624999989
 20
-233.05025376009999
 30
0.0
 11
948.72265625
 21
-231.55025376009999
 31
0.0
 12
948.72265625
 22
-234.55025376009999
 32
0.0
 13
947.22265624999989
 23
-233.05025376009999
 33
0.0
  0
ENDBLK
  5
43D
  8
0
  0
BLOCK
  8
0
  2
*D64
 70
     1
 10
0.0
 20
0.0
 30
0.0
  3
*D64
  1

  0
TEXT
  5
441
  8
0
 62
     0
 10
707.24904563029986
 20
-230.78025382679999
 30
0.0
 40
7.1966662884000003
  1
26.25
  0
LINE
  5
442
  8
0
 62
     0
 10
703.47265625
 20
-215.05025376009999
 30
0.0
 11
703.47265625
 21
-234.05025376009999
 31
0.0
  0
LINE
  5
443
  8
0
 62
     0
 10
729.72265625
 20
-204.05025376009999
 30
0.0
 11
729.72265625
 21
-234.05025376009999
 31
0.0
  0
LINE
  5
444
  8
0
 62
     0
 10
703.47265625
 20
-233.05025376009999
 30
0.0
 11
703.47265625
 21
-233.05025376009999
 31
0.0
  0
LINE
  5
445
  8
0
 62
     0
 10
703.47265625
 20
-233.05025376009999
 30
0.0
 11
729.72265625
 21
-233.05025376009999
 31
0.0
  0
LINE
  5
446
  8
0
 62
     0
 10
729.72265625
 20
-233.05025376009999
 30
0.0
 11
703.47265625
 21
-233.05025376009999
 31
0.0
  0
LINE
  5
447
  8
0
 62
     0
 10
729.72265625
 20
-233.05025376009999
 30
0.0
 11
729.72265625
 21
-233.05025376009999
 31
0.0
  0
LINE
  5
448
  8
0
 62
     0
 10
729.72265625
 20
-233.05025376009999
 30
0.0
 11
724.72265624999989
 21
-233.05025376009999
 31
0.0
  0
SOLID
  5
449
  8
0
 62
     0
 10
729.72265625
 20
-233.05025376009999
 30
0.0
 11
723.72265625
 21
-234.55025376009999
 31
0.0
 12
723.72265625
 22
-231.55025376009999
 32
0.0
 13
725.22265624999989
 23
-233.05025376009999
 33
0.0
  0
LINE
  5
44A
  8
0
 62
     0
 10
703.47265625
 20
-233.05025376009999
 30
0.0
 11
708.47265625
 21
-233.05025376009999
 31
0.0
  0
SOLID
  5
44B
  8
0
 62
     0
 10
703.47265625
 20
-233.05025376009999
 30
0.0
 11
709.47265625
 21
-231.55025376009999
 31
0.0
 12
709.47265625
 22
-234.55025376009999
 32
0.0
 13
707.97265625
 23
-233.05025376009999
 33
0.0
  0
ENDBLK
  5
44C
  8
0
  0
BLOCK
  8
0
  2
*D65
 70
     1
 10
0.0
 20
0.0
 30
0.0
  3
*D65
  1

  0
TEXT
  5
450
  8
0
 62
     0
 10
760.9893231392
 20
-230.78025382679999
 30
0.0
 40
7.1966662884000003
  1
71
  0
LINE
  5
451
  8
0
 62
     0
 10
729.72265625
 20
-204.05025376009999
 30
0.0
 11
729.72265625
 21
-234.05025376009999
 31
0.0
  0
LINE
  5
452
  8
0
 62
     0
 10
800.72265624999989
 20
-204.05025376009999
 30
0.0
 11
800.72265624999989
 21
-234.05025376009999
 31
0.0
  0
LINE
  5
453
  8
0
 62
     0
 10
729.72265625
 20
-233.05025376009999
 30
0.0
 11
773.68932247159989
 21
-233.05025376009999
 31
0.0
  0
LINE
  5
454
  8
0
 62
     0
 10
729.72265625
 20
-233.05025376009999
 30
0.0
 11
756.75599002839999
 21
-233.05025376009999
 31
0.0
  0
LINE
  5
455
  8
0
 62
     0
 10
800.72265624999989
 20
-233.05025376009999
 30
0.0
 11
773.68932247159989
 21
-233.05025376009999
 31
0.0
  0
LINE
  5
456
  8
0
 62
     0
 10
800.72265624999989
 20
-233.05025376009999
 30
0.0
 11
756.75599002839999
 21
-233.05025376009999
 31
0.0
  0
LINE
  5
457
  8
0
 62
     0
 10
800.72265624999989
 20
-233.05025376009999
 30
0.0
 11
795.72265624999989
 21
-233.05025376009999
 31
0.0
  0
SOLID
  5
458
  8
0
 62
     0
 10
800.72265624999989
 20
-233.05025376009999
 30
0.0
 11
794.72265625
 21
-234.55025376009999
 31
0.0
 12
794.72265625
 22
-231.55025376009999
 32
0.0
 13
796.22265625
 23
-233.05025376009999
 33
0.0
  0
LINE
  5
459
  8
0
 62
     0
 10
729.72265625
 20
-233.05025376009999
 30
0.0
 11
734.72265625
 21
-233.05025376009999
 31
0.0
  0
SOLID
  5
45A
  8
0
 62
     0
 10
729.72265625
 20
-233.05025376009999
 30
0.0
 11
735.72265625
 21
-231.55025376009999
 31
0.0
 12
735.72265625
 22
-234.55025376009999
 32
0.0
 13
734.22265625
 23
-233.05025376009999
 33
0.0
  0
ENDBLK
  5
45B
  8
0
  0
BLOCK
  8
0
  2
*D66
 70
     1
 10
0.0
 20
0.0
 30
0.0
  3
*D66
  1

  0
TEXT
  5
45F
  8
0
 62
     0
 10
933.37404563029986
 20
-111.78025382680001
 30
0.0
 40
7.1966662884000003
  1
478.5
  0
LINE
  5
460
  8
0
 62
     0
 10
1181.97265625
 20
-132.05025376009999
 30
0.0
 11
1181.97265625
 21
-113.05025376010001
 31
0.0
  0
LINE
  5
461
  8
0
 62
     0
 10
703.47265625
 20
-132.05025376009999
 30
0.0
 11
703.47265625
 21
-113.05025376010001
 31
0.0
  0
LINE
  5
462
  8
0
 62
     0
 10
1181.97265625
 20
-114.05025376010001
 30
0.0
 11
956.30459998050003
 21
-114.05025376010001
 31
0.0
  0
LINE
  5
463
  8
0
 62
     0
 10
1181.97265625
 20
-114.05025376010001
 30
0.0
 11
929.14071251949997
 21
-114.05025376010001
 31
0.0
  0
LINE
  5
464
  8
0
 62
     0
 10
703.47265625
 20
-114.05025376010001
 30
0.0
 11
956.30459998050003
 21
-114.05025376010001
 31
0.0
  0
LINE
  5
465
  8
0
 62
     0
 10
703.47265625
 20
-114.05025376010001
 30
0.0
 11
929.14071251949997
 21
-114.05025376010001
 31
0.0
  0
LINE
  5
466
  8
0
 62
     0
 10
703.47265625
 20
-114.05025376010001
 30
0.0
 11
708.47265625
 21
-114.05025376010001
 31
0.0
  0
SOLID
  5
467
  8
0
 62
     0
 10
703.47265625
 20
-114.05025376010001
 30
0.0
 11
709.47265625
 21
-112.55025376010001
 31
0.0
 12
709.47265625
 22
-115.55025376010001
 32
0.0
 13
707.97265625
 23
-114.05025376010001
 33
0.0
  0
LINE
  5
468
  8
0
 62
     0
 10
1181.97265625
 20
-114.05025376010001
 30
0.0
 11
1176.97265625
 21
-114.05025376010001
 31
0.0
  0
SOLID
  5
469
  8
0
 62
     0
 10
1181.97265625
 20
-114.05025376010001
 30
0.0
 11
1175.97265625
 21
-115.55025376010001
 31
0.0
 12
1175.97265625
 22
-112.55025376010001
 32
0.0
 13
1177.47265625
 23
-114.05025376010001
 33
0.0
  0
ENDBLK
  5
46A
  8
0
  0
BLOCK
  8
0
  2
CLUMP47
 70
     0
 10
0.0
 20
0.0
 30
0.0
  3
CLUMP47
  1

  0
ARC
  5
471
  8
ﾚｲﾔ_1
 62
     5
 10
1171.6615974081001
 20
8.1805860836999997
 30
0.0
 40
3.5
 50
270.0
 51
90.0
  0
LINE
  5
472
  8
ﾚｲﾔ_1
 62
     5
 10
1156.6615974081001
 20
11.6805860837
 30
0.0
 11
1171.6615974081001
 21
11.6805860837
 31
0.0
  0
LINE
  5
473
  8
ﾚｲﾔ_1
 62
     5
 10
1171.6615974081001
 20
4.6805860836999988
 30
0.0
 11
1156.6615974081001
 21
4.6805860836999988
 31
0.0
  0
ARC
  5
474
  8
ﾚｲﾔ_1
 62
     5
 10
1156.6615974081001
 20
8.1805860836999997
 30
0.0
 40
3.5
 50
90.0
 51
270.0
  0
ENDBLK
  5
475
  8
0
  0
BLOCK
  8
0
  2
CLUMP48
 70
     0
 10
0.0
 20
0.0
 30
0.0
  3
CLUMP48
  1

  0
ARC
  5
479
  8
ﾚｲﾔ_1
 62
     5
 10
1171.6615974081001
 20
58.1805860837
 30
0.0
 40
3.5
 50
270.0
 51
90.0
  0
LINE
  5
47A
  8
ﾚｲﾔ_1
 62
     5
 10
1156.6615974081001
 20
54.6805860837
 30
0.0
 11
1171.6615974081001
 21
54.6805860837
 31
0.0
  0
LINE
  5
47B
  8
ﾚｲﾔ_1
 62
     5
 10
1171.6615974081001
 20
61.680586083699993
 30
0.0
 11
1156.6615974081001
 21
61.680586083699993
 31
0.0
  0
ARC
  5
47C
  8
ﾚｲﾔ_1
 62
     5
 10
1156.6615974081001
 20
58.1805860837
 30
0.0
 40
3.5
 50
90.0
 51
270.0
  0
ENDBLK
  5
47D
  8
0
  0
BLOCK
  8
0
  2
CLUMP49
 70
     0
 10
0.0
 20
0.0
 30
0.0
  3
CLUMP49
  1

  0
ARC
  5
481
  8
ﾚｲﾔ_1
 62
     5
 10
1100.6615974081001
 20
8.1805860836999997
 30
0.0
 40
3.5
 50
270.0
 51
90.0
  0
LINE
  5
482
  8
ﾚｲﾔ_1
 62
     5
 10
1085.6615974081001
 20
11.6805860837
 30
0.0
 11
1100.6615974081001
 21
11.6805860837
 31
0.0
  0
LINE
  5
483
  8
ﾚｲﾔ_1
 62
     5
 10
1100.6615974081001
 20
4.6805860836999988
 30
0.0
 11
1085.6615974081001
 21
4.6805860836999988
 31
0.0
  0
ARC
  5
484
  8
ﾚｲﾔ_1
 62
     5
 10
1085.6615974081001
 20
8.1805860836999997
 30
0.0
 40
3.5
 50
90.0
 51
270.0
  0
ENDBLK
  5
485
  8
0
  0
BLOCK
  8
0
  2
*D70
 70
     1
 10
0.0
 20
0.0
 30
0.0
  3
*D70
  1

  0
TEXT
  5
488
  8
0
 62
     0
 10
1199.7026563167999
 20
-165.2835868709
 30
0.0
 40
7.1966662884000003
  1
25
 50
90.0
  0
LINE
  5
489
  8
0
 62
     0
 10
1188.97265625
 20
-173.55025376009999
 30
0.0
 11
1202.97265625
 21
-173.55025376009999
 31
0.0
  0
LINE
  5
48A
  8
0
 62
     0
 10
1168.72265625
 20
-148.55025376009999
 30
0.0
 11
1202.97265625
 21
-148.55025376009999
 31
0.0
  0
LINE
  5
48B
  8
0
 62
     0
 10
1201.97265625
 20
-173.55025376009999
 30
0.0
 11
1201.97265625
 21
-152.58358753850001
 31
0.0
  0
LINE
  5
48C
  8
0
 62
     0
 10
1201.97265625
 20
-173.55025376009999
 30
0.0
 11
1201.97265625
 21
-169.5169199817
 31
0.0
  0
LINE
  5
48D
  8
0
 62
     0
 10
1201.97265625
 20
-148.55025376009999
 30
0.0
 11
1201.97265625
 21
-152.58358753850001
 31
0.0
  0
LINE
  5
48E
  8
0
 62
     0
 10
1201.97265625
 20
-148.55025376009999
 30
0.0
 11
1201.97265625
 21
-169.5169199817
 31
0.0
  0
LINE
  5
48F
  8
0
 62
     0
 10
1201.97265625
 20
-148.55025376009999
 30
0.0
 11
1201.97265625
 21
-143.55025376009999
 31
0.0
  0
SOLID
  5
490
  8
0
 62
     0
 10
1201.97265625
 20
-148.55025376009999
 30
0.0
 11
1200.47265625
 21
-142.55025376009999
 31
0.0
 12
1203.47265625
 22
-142.55025376009999
 32
0.0
 13
1201.97265625
 23
-144.05025376009999
 33
0.0
  0
LINE
  5
491
  8
0
 62
     0
 10
1201.97265625
 20
-173.55025376009999
 30
0.0
 11
1201.97265625
 21
-178.55025376009999
 31
0.0
  0
SOLID
  5
492
  8
0
 62
     0
 10
1201.97265625
 20
-173.55025376009999
 30
0.0
 11
1203.47265625
 21
-179.55025376009999
 31
0.0
 12
1200.47265625
 22
-179.55025376009999
 32
0.0
 13
1201.97265625
 23
-178.05025376009999
 33
0.0
  0
ENDBLK
  5
493
  8
0
  0
BLOCK
  8
0
  2
*D71
 70
     1
 10
0.0
 20
0.0
 30
0.0
  3
*D71
  1

  0
TEXT
  5
497
  8
0
 62
     0
 10
1199.7026563167999
 20
-148.53219782439999
 30
0.0
 40
7.1966662884000003
  1
14.5
 50
90.0
  0
LINE
  5
498
  8
0
 62
     0
 10
1168.72265625
 20
-148.55025376009999
 30
0.0
 11
1202.97265625
 21
-148.55025376009999
 31
0.0
  0
LINE
  5
499
  8
0
 62
     0
 10
1183.97265625
 20
-134.05025376009999
 30
0.0
 11
1202.97265625
 21
-134.05025376009999
 31
0.0
  0
LINE
  5
49A
  8
0
 62
     0
 10
1201.97265625
 20
-148.55025376009999
 30
0.0
 11
1201.97265625
 21
-148.55025376009999
 31
0.0
  0
LINE
  5
49B
  8
0
 62
     0
 10
1201.97265625
 20
-148.55025376009999
 30
0.0
 11
1201.97265625
 21
-134.05025376009999
 31
0.0
  0
LINE
  5
49C
  8
0
 62
     0
 10
1201.97265625
 20
-134.05025376009999
 30
0.0
 11
1201.97265625
 21
-148.55025376009999
 31
0.0
  0
LINE
  5
49D
  8
0
 62
     0
 10
1201.97265625
 20
-134.05025376009999
 30
0.0
 11
1201.97265625
 21
-134.05025376009999
 31
0.0
  0
LINE
  5
49E
  8
0
 62
     0
 10
1201.97265625
 20
-134.05025376009999
 30
0.0
 11
1201.97265625
 21
-139.05025376009999
 31
0.0
  0
SOLID
  5
49F
  8
0
 62
     0
 10
1201.97265625
 20
-134.05025376009999
 30
0.0
 11
1203.47265625
 21
-140.05025376009999
 31
0.0
 12
1200.47265625
 22
-140.05025376009999
 32
0.0
 13
1201.97265625
 23
-138.55025376009999
 33
0.0
  0
LINE
  5
4A0
  8
0
 62
     0
 10
1201.97265625
 20
-148.55025376009999
 30
0.0
 11
1201.97265625
 21
-143.55025376009999
 31
0.0
  0
SOLID
  5
4A1
  8
0
 62
     0
 10
1201.97265625
 20
-148.55025376009999
 30
0.0
 11
1200.47265625
 21
-142.55025376009999
 31
0.0
 12
1203.47265625
 22
-142.55025376009999
 32
0.0
 13
1201.97265625
 23
-144.05025376009999
 33
0.0
  0
ENDBLK
  5
4A2
  8
0
  0
BLOCK
  8
0
  2
*D72
 70
     1
 10
0.0
 20
0.0
 30
0.0
  3
*D72
  1

  0
TEXT
  5
4A6
  8
0
 62
     0
 10
1044.9893231392
 20
-230.78025382679999
 30
0.0
 40
7.1966662884000003
  1
71
  0
LINE
  5
4A7
  8
0
 62
     0
 10
1013.72265625
 20
-204.05025376009999
 30
0.0
 11
1013.72265625
 21
-234.05025376009999
 31
0.0
  0
LINE
  5
4A8
  8
0
 62
     0
 10
1084.72265625
 20
-204.05025376009999
 30
0.0
 11
1084.72265625
 21
-234.05025376009999
 31
0.0
  0
LINE
  5
4A9
  8
0
 62
     0
 10
1013.72265625
 20
-233.05025376009999
 30
0.0
 11
1057.6893224716
 21
-233.05025376009999
 31
0.0
  0
LINE
  5
4AA
  8
0
 62
     0
 10
1013.72265625
 20
-233.05025376009999
 30
0.0
 11
1040.7559900284
 21
-233.05025376009999
 31
0.0
  0
LINE
  5
4AB
  8
0
 62
     0
 10
1084.72265625
 20
-233.05025376009999
 30
0.0
 11
1057.6893224716
 21
-233.05025376009999
 31
0.0
  0
LINE
  5
4AC
  8
0
 62
     0
 10
1084.72265625
 20
-233.05025376009999
 30
0.0
 11
1040.7559900284
 21
-233.05025376009999
 31
0.0
  0
LINE
  5
4AD
  8
0
 62
     0
 10
1084.72265625
 20
-233.05025376009999
 30
0.0
 11
1079.72265625
 21
-233.05025376009999
 31
0.0
  0
SOLID
  5
4AE
  8
0
 62
     0
 10
1084.72265625
 20
-233.05025376009999
 30
0.0
 11
1078.72265625
 21
-234.55025376009999
 31
0.0
 12
1078.72265625
 22
-231.55025376009999
 32
0.0
 13
1080.22265625
 23
-233.05025376009999
 33
0.0
  0
LINE
  5
4AF
  8
0
 62
     0
 10
1013.72265625
 20
-233.05025376009999
 30
0.0
 11
1018.72265625
 21
-233.05025376009999
 31
0.0
  0
SOLID
  5
4B0
  8
0
 62
     0
 10
1013.72265625
 20
-233.05025376009999
 30
0.0
 11
1019.72265625
 21
-231.55025376009999
 31
0.0
 12
1019.72265625
 22
-234.55025376009999
 32
0.0
 13
1018.22265625
 23
-233.05025376009999
 33
0.0
  0
ENDBLK
  5
4B1
  8
0
  0
BLOCK
  8
0
  2
*D73
 70
     1
 10
0.0
 20
0.0
 30
0.0
  3
*D73
  1

  0
TEXT
  5
4B5
  8
0
 62
     0
 10
1199.7026563167999
 20
-213.03219782439999
 30
0.0
 40
7.1966662884000003
  1
14.5
 50
90.0
  0
LINE
  5
4B6
  8
0
 62
     0
 10
1183.97265625
 20
-213.05025376009999
 30
0.0
 11
1202.97265625
 21
-213.05025376009999
 31
0.0
  0
LINE
  5
4B7
  8
0
 62
     0
 10
1168.72265625
 20
-198.55025376009999
 30
0.0
 11
1202.97265625
 21
-198.55025376009999
 31
0.0
  0
LINE
  5
4B8
  8
0
 62
     0
 10
1201.97265625
 20
-213.05025376009999
 30
0.0
 11
1201.97265625
 21
-213.05025376009999
 31
0.0
  0
LINE
  5
4B9
  8
0
 62
     0
 10
1201.97265625
 20
-213.05025376009999
 30
0.0
 11
1201.97265625
 21
-198.55025376009999
 31
0.0
  0
LINE
  5
4BA
  8
0
 62
     0
 10
1201.97265625
 20
-198.55025376009999
 30
0.0
 11
1201.97265625
 21
-213.05025376009999
 31
0.0
  0
LINE
  5
4BB
  8
0
 62
     0
 10
1201.97265625
 20
-198.55025376009999
 30
0.0
 11
1201.97265625
 21
-198.55025376009999
 31
0.0
  0
LINE
  5
4BC
  8
0
 62
     0
 10
1201.97265625
 20
-198.55025376009999
 30
0.0
 11
1201.97265625
 21
-203.55025376009999
 31
0.0
  0
SOLID
  5
4BD
  8
0
 62
     0
 10
1201.97265625
 20
-198.55025376009999
 30
0.0
 11
1203.47265625
 21
-204.55025376009999
 31
0.0
 12
1200.47265625
 22
-204.55025376009999
 32
0.0
 13
1201.97265625
 23
-203.05025376009999
 33
0.0
  0
LINE
  5
4BE
  8
0
 62
     0
 10
1201.97265625
 20
-213.05025376009999
 30
0.0
 11
1201.97265625
 21
-208.05025376009999
 31
0.0
  0
SOLID
  5
4BF
  8
0
 62
     0
 10
1201.97265625
 20
-213.05025376009999
 30
0.0
 11
1200.47265625
 21
-207.05025376009999
 31
0.0
 12
1203.47265625
 22
-207.05025376009999
 32
0.0
 13
1201.97265625
 23
-208.55025376009999
 33
0.0
  0
ENDBLK
  5
4C0
  8
0
  0
BLOCK
  8
0
  2
*D74
 70
     1
 10
0.0
 20
0.0
 30
0.0
  3
*D74
  1

  0
TEXT
  5
4C4
  8
0
 62
     0
 10
1115.9893231392
 20
-230.78025382679999
 30
0.0
 40
7.1966662884000003
  1
71
  0
LINE
  5
4C5
  8
0
 62
     0
 10
1084.72265625
 20
-204.05025376009999
 30
0.0
 11
1084.72265625
 21
-234.05025376009999
 31
0.0
  0
LINE
  5
4C6
  8
0
 62
     0
 10
1155.72265625
 20
-204.05025376009999
 30
0.0
 11
1155.72265625
 21
-234.05025376009999
 31
0.0
  0
LINE
  5
4C7
  8
0
 62
     0
 10
1084.72265625
 20
-233.05025376009999
 30
0.0
 11
1128.6893224716
 21
-233.05025376009999
 31
0.0
  0
LINE
  5
4C8
  8
0
 62
     0
 10
1084.72265625
 20
-233.05025376009999
 30
0.0
 11
1111.7559900284
 21
-233.05025376009999
 31
0.0
  0
LINE
  5
4C9
  8
0
 62
     0
 10
1155.72265625
 20
-233.05025376009999
 30
0.0
 11
1128.6893224716
 21
-233.05025376009999
 31
0.0
  0
LINE
  5
4CA
  8
0
 62
     0
 10
1155.72265625
 20
-233.05025376009999
 30
0.0
 11
1111.7559900284
 21
-233.05025376009999
 31
0.0
  0
LINE
  5
4CB
  8
0
 62
     0
 10
1155.72265625
 20
-233.05025376009999
 30
0.0
 11
1150.72265625
 21
-233.05025376009999
 31
0.0
  0
SOLID
  5
4CC
  8
0
 62
     0
 10
1155.72265625
 20
-233.05025376009999
 30
0.0
 11
1149.72265625
 21
-234.55025376009999
 31
0.0
 12
1149.72265625
 22
-231.55025376009999
 32
0.0
 13
1151.22265625
 23
-233.05025376009999
 33
0.0
  0
LINE
  5
4CD
  8
0
 62
     0
 10
1084.72265625
 20
-233.05025376009999
 30
0.0
 11
1089.72265625
 21
-233.05025376009999
 31
0.0
  0
SOLID
  5
4CE
  8
0
 62
     0
 10
1084.72265625
 20
-233.05025376009999
 30
0.0
 11
1090.72265625
 21
-231.55025376009999
 31
0.0
 12
1090.72265625
 22
-234.55025376009999
 32
0.0
 13
1089.22265625
 23
-233.05025376009999
 33
0.0
  0
ENDBLK
  5
4CF
  8
0
  0
BLOCK
  8
0
  2
*D75
 70
     1
 10
0.0
 20
0.0
 30
0.0
  3
*D75
  1

  0
TEXT
  5
4D3
  8
0
 62
     0
 10
1159.4990456303001
 20
-230.78025382679999
 30
0.0
 40
7.1966662884000003
  1
26.25
  0
LINE
  5
4D4
  8
0
 62
     0
 10
1155.72265625
 20
-204.05025376009999
 30
0.0
 11
1155.72265625
 21
-234.05025376009999
 31
0.0
  0
LINE
  5
4D5
  8
0
 62
     0
 10
1181.97265625
 20
-215.05025376009999
 30
0.0
 11
1181.97265625
 21
-234.05025376009999
 31
0.0
  0
LINE
  5
4D6
  8
0
 62
     0
 10
1155.72265625
 20
-233.05025376009999
 30
0.0
 11
1155.72265625
 21
-233.05025376009999
 31
0.0
  0
LINE
  5
4D7
  8
0
 62
     0
 10
1155.72265625
 20
-233.05025376009999
 30
0.0
 11
1181.97265625
 21
-233.05025376009999
 31
0.0
  0
LINE
  5
4D8
  8
0
 62
     0
 10
1181.97265625
 20
-233.05025376009999
 30
0.0
 11
1155.72265625
 21
-233.05025376009999
 31
0.0
  0
LINE
  5
4D9
  8
0
 62
     0
 10
1181.97265625
 20
-233.05025376009999
 30
0.0
 11
1181.97265625
 21
-233.05025376009999
 31
0.0
  0
LINE
  5
4DA
  8
0
 62
     0
 10
1181.97265625
 20
-233.05025376009999
 30
0.0
 11
1176.97265625
 21
-233.05025376009999
 31
0.0
  0
SOLID
  5
4DB
  8
0
 62
     0
 10
1181.97265625
 20
-233.05025376009999
 30
0.0
 11
1175.97265625
 21
-234.55025376009999
 31
0.0
 12
1175.97265625
 22
-231.55025376009999
 32
0.0
 13
1177.47265625
 23
-233.05025376009999
 33
0.0
  0
LINE
  5
4DC
  8
0
 62
     0
 10
1155.72265625
 20
-233.05025376009999
 30
0.0
 11
1160.72265625
 21
-233.05025376009999
 31
0.0
  0
SOLID
  5
4DD
  8
0
 62
     0
 10
1155.72265625
 20
-233.05025376009999
 30
0.0
 11
1161.72265625
 21
-231.55025376009999
 31
0.0
 12
1161.72265625
 22
-234.55025376009999
 32
0.0
 13
1160.22265625
 23
-233.05025376009999
 33
0.0
  0
ENDBLK
  5
4DE
  8
0
  0
BLOCK
  8
0
  2
*D76
 70
     1
 10
0.0
 20
0.0
 30
0.0
  3
*D76
  1

  0
TEXT
  5
4E2
  8
0
 62
     0
 10
831.98932313919988
 20
-230.78025382679999
 30
0.0
 40
7.1966662884000003
  1
71
  0
LINE
  5
4E3
  8
0
 62
     0
 10
800.72265624999989
 20
-204.05025376009999
 30
0.0
 11
800.72265624999989
 21
-234.05025376009999
 31
0.0
  0
LINE
  5
4E4
  8
0
 62
     0
 10
871.72265625
 20
-204.05025376009999
 30
0.0
 11
871.72265625
 21
-234.05025376009999
 31
0.0
  0
LINE
  5
4E5
  8
0
 62
     0
 10
800.72265624999989
 20
-233.05025376009999
 30
0.0
 11
844.68932247159989
 21
-233.05025376009999
 31
0.0
  0
LINE
  5
4E6
  8
0
 62
     0
 10
800.72265624999989
 20
-233.05025376009999
 30
0.0
 11
827.75599002839999
 21
-233.05025376009999
 31
0.0
  0
LINE
  5
4E7
  8
0
 62
     0
 10
871.72265625
 20
-233.05025376009999
 30
0.0
 11
844.68932247159989
 21
-233.05025376009999
 31
0.0
  0
LINE
  5
4E8
  8
0
 62
     0
 10
871.72265625
 20
-233.05025376009999
 30
0.0
 11
827.75599002839999
 21
-233.05025376009999
 31
0.0
  0
LINE
  5
4E9
  8
0
 62
     0
 10
871.72265625
 20
-233.05025376009999
 30
0.0
 11
866.72265624999989
 21
-233.05025376009999
 31
0.0
  0
SOLID
  5
4EA
  8
0
 62
     0
 10
871.72265625
 20
-233.05025376009999
 30
0.0
 11
865.72265625
 21
-234.55025376009999
 31
0.0
 12
865.72265625
 22
-231.55025376009999
 32
0.0
 13
867.22265625
 23
-233.05025376009999
 33
0.0
  0
LINE
  5
4EB
  8
0
 62
     0
 10
800.72265624999989
 20
-233.05025376009999
 30
0.0
 11
805.72265625
 21
-233.05025376009999
 31
0.0
  0
SOLID
  5
4EC
  8
0
 62
     0
 10
800.72265624999989
 20
-233.05025376009999
 30
0.0
 11
806.72265625
 21
-231.55025376009999
 31
0.0
 12
806.72265625
 22
-234.55025376009999
 32
0.0
 13
805.22265624999989
 23
-233.05025376009999
 33
0.0
  0
ENDBLK
  5
4ED
  8
0
  0
BLOCK
  8
0
  2
*D77
 70
     1
 10
0.0
 20
0.0
 30
0.0
  3
*D77
  1

  0
TEXT
  5
4F1
  8
0
 62
     0
 10
902.9893231392
 20
-230.78025382679999
 30
0.0
 40
7.1966662884000003
  1
71
  0
LINE
  5
4F2
  8
0
 62
     0
 10
871.72265625
 20
-204.05025376009999
 30
0.0
 11
871.72265625
 21
-234.05025376009999
 31
0.0
  0
LINE
  5
4F3
  8
0
 62
     0
 10
942.72265624999989
 20
-220.05025376009999
 30
0.0
 11
942.72265624999989
 21
-234.05025376009999
 31
0.0
  0
LINE
  5
4F4
  8
0
 62
     0
 10
871.72265625
 20
-233.05025376009999
 30
0.0
 11
915.68932247160001
 21
-233.05025376009999
 31
0.0
  0
LINE
  5
4F5
  8
0
 62
     0
 10
871.72265625
 20
-233.05025376009999
 30
0.0
 11
898.75599002839988
 21
-233.05025376009999
 31
0.0
  0
LINE
  5
4F6
  8
0
 62
     0
 10
942.72265624999989
 20
-233.05025376009999
 30
0.0
 11
915.68932247160001
 21
-233.05025376009999
 31
0.0
  0
LINE
  5
4F7
  8
0
 62
     0
 10
942.72265624999989
 20
-233.05025376009999
 30
0.0
 11
898.75599002839988
 21
-233.05025376009999
 31
0.0
  0
LINE
  5
4F8
  8
0
 62
     0
 10
942.72265624999989
 20
-233.05025376009999
 30
0.0
 11
937.72265625
 21
-233.05025376009999
 31
0.0
  0
SOLID
  5
4F9
  8
0
 62
     0
 10
942.72265624999989
 20
-233.05025376009999
 30
0.0
 11
936.72265625
 21
-234.55025376009999
 31
0.0
 12
936.72265625
 22
-231.55025376009999
 32
0.0
 13
938.22265624999989
 23
-233.05025376009999
 33
0.0
  0
LINE
  5
4FA
  8
0
 62
     0
 10
871.72265625
 20
-233.05025376009999
 30
0.0
 11
876.72265624999989
 21
-233.05025376009999
 31
0.0
  0
SOLID
  5
4FB
  8
0
 62
     0
 10
871.72265625
 20
-233.05025376009999
 30
0.0
 11
877.72265625
 21
-231.55025376009999
 31
0.0
 12
877.72265625
 22
-234.55025376009999
 32
0.0
 13
876.22265625
 23
-233.05025376009999
 33
0.0
  0
ENDBLK
  5
4FC
  8
0
  0
BLOCK
  8
0
  2
*D78
 70
     1
 10
0.0
 20
0.0
 30
0.0
  3
*D78
  1

  0
TEXT
  5
500
  8
0
 62
     0
 10
821.9526563167999
 20
-200.66692031549999
 30
0.0
 40
7.1966662884000003
  1
7
 50
90.0
  0
LINE
  5
501
  8
0
 62
     0
 10
810.22265625
 20
-202.05025376009999
 30
0.0
 11
825.22265625
 21
-202.05025376009999
 31
0.0
  0
LINE
  5
502
  8
0
 62
     0
 10
810.22265625
 20
-195.05025376009999
 30
0.0
 11
825.22265625
 21
-195.05025376009999
 31
0.0
  0
LINE
  5
503
  8
0
 62
     0
 10
824.22265625
 20
-202.05025376009999
 30
0.0
 11
824.22265625
 21
-202.05025376009999
 31
0.0
  0
LINE
  5
504
  8
0
 62
     0
 10
824.22265625
 20
-202.05025376009999
 30
0.0
 11
824.22265625
 21
-195.05025376009999
 31
0.0
  0
LINE
  5
505
  8
0
 62
     0
 10
824.22265625
 20
-195.05025376009999
 30
0.0
 11
824.22265625
 21
-202.05025376009999
 31
0.0
  0
LINE
  5
506
  8
0
 62
     0
 10
824.22265625
 20
-195.05025376009999
 30
0.0
 11
824.22265625
 21
-195.05025376009999
 31
0.0
  0
LINE
  5
507
  8
0
 62
     0
 10
824.22265625
 20
-195.05025376009999
 30
0.0
 11
824.22265625
 21
-190.05025376009991
 31
0.0
  0
SOLID
  5
508
  8
0
 62
     0
 10
824.22265625
 20
-195.05025376009999
 30
0.0
 11
822.72265625
 21
-189.05025376009999
 31
0.0
 12
825.72265624999989
 22
-189.05025376009999
 32
0.0
 13
824.22265625
 23
-190.55025376009999
 33
0.0
  0
LINE
  5
509
  8
0
 62
     0
 10
824.22265625
 20
-202.05025376009999
 30
0.0
 11
824.22265625
 21
-207.05025376009999
 31
0.0
  0
SOLID
  5
50A
  8
0
 62
     0
 10
824.22265625
 20
-202.05025376009999
 30
0.0
 11
825.72265624999989
 21
-208.05025376009999
 31
0.0
 12
822.72265625
 22
-208.05025376009999
 32
0.0
 13
824.22265625
 23
-206.55025376009999
 33
0.0
  0
ENDBLK
  5
50B
  8
0
  0
BLOCK
  8
0
  2
*D79
 70
     1
 10
0.0
 20
0.0
 30
0.0
  3
*D79
  1

  0
TEXT
  5
50F
  8
0
 62
     0
 10
676.11324633710001
 20
-197.19944683590001
 30
0.0
 40
7.1966662884000003
  1
2-Φ15
 50
26.776143397399998
  0
LINE
  5
510
  8
0
 62
     0
 10
722.9935577908999
 20
-176.86223714280001
 30
0.0
 11
677.44824526929995
 21
-199.84503209670001
 31
0.0
  0
SOLID
  5
511
  8
0
 62
     0
 10
722.9935577908999
 20
-176.86223714280001
 30
0.0
 11
718.31267571130002
 21
-180.9044324569
 31
0.0
 12
716.96115816109989
 22
-178.2261120295
 32
0.0
 13
718.97607714990011
 23
-178.88951346810001
 33
0.0
  0
ENDBLK
  5
512
  8
0
  0
BLOCK
  8
0
  2
*D80
 70
     1
 10
0.0
 20
0.0
 30
0.0
  3
*D80
  1

  0
TEXT
  5
516
  8
0
 62
     0
 10
796.48932313919988
 20
-183.54034465480001
 30
0.0
 40
7.1966662884000003
  1
22
  0
LINE
  5
517
  8
0
 62
     0
 10
811.72265625
 20
-196.55025376009999
 30
0.0
 11
811.72265625
 21
-184.81034458799991
 31
0.0
  0
LINE
  5
518
  8
0
 62
     0
 10
789.72265625
 20
-196.55025376009999
 30
0.0
 11
789.72265625
 21
-184.81034458799991
 31
0.0
  0
LINE
  5
519
  8
0
 62
     0
 10
811.72265625
 20
-185.81034458799999
 30
0.0
 11
809.18932247159989
 21
-185.81034458799999
 31
0.0
  0
LINE
  5
51A
  8
0
 62
     0
 10
811.72265625
 20
-185.81034458799999
 30
0.0
 11
792.25599002839988
 21
-185.81034458799999
 31
0.0
  0
LINE
  5
51B
  8
0
 62
     0
 10
789.72265625
 20
-185.81034458799999
 30
0.0
 11
809.18932247159989
 21
-185.81034458799999
 31
0.0
  0
LINE
  5
51C
  8
0
 62
     0
 10
789.72265625
 20
-185.81034458799999
 30
0.0
 11
792.25599002839988
 21
-185.81034458799999
 31
0.0
  0
LINE
  5
51D
  8
0
 62
     0
 10
789.72265625
 20
-185.81034458799999
 30
0.0
 11
784.72265625
 21
-185.81034458799999
 31
0.0
  0
SOLID
  5
51E
  8
0
 62
     0
 10
789.72265625
 20
-185.81034458799999
 30
0.0
 11
783.72265625
 21
-187.31034458799999
 31
0.0
 12
783.72265625
 22
-184.31034458799999
 32
0.0
 13
785.22265625
 23
-185.81034458799999
 33
0.0
  0
LINE
  5
51F
  8
0
 62
     0
 10
811.72265625
 20
-185.81034458799999
 30
0.0
 11
816.72265624999989
 21
-185.81034458799999
 31
0.0
  0
SOLID
  5
520
  8
0
 62
     0
 10
811.72265625
 20
-185.81034458799999
 30
0.0
 11
817.72265624999989
 21
-184.31034458799999
 31
0.0
 12
817.72265624999989
 22
-187.31034458799999
 32
0.0
 13
816.22265625
 23
-185.81034458799999
 33
0.0
  0
ENDBLK
  5
521
  8
0
  0
BLOCK
  8
0
  2
*D81
 70
     1
 10
0.0
 20
0.0
 30
0.0
  3
*D81
  1

  0
TEXT
  5
525
  8
0
 62
     0
 10
1213.8066106319
 20
-177.7835868709
 30
0.0
 40
7.1966662884000003
  1
79
 50
90.0
  0
LINE
  5
526
  8
0
 62
     0
 10
1183.97265625
 20
-213.05025376009999
 30
0.0
 11
1217.0766105652001
 21
-213.05025376009999
 31
0.0
  0
LINE
  5
527
  8
0
 62
     0
 10
1183.97265625
 20
-134.05025376009999
 30
0.0
 11
1217.0766105652001
 21
-134.05025376009999
 31
0.0
  0
LINE
  5
528
  8
0
 62
     0
 10
1216.0766105652001
 20
-213.05025376009999
 30
0.0
 11
1216.0766105652001
 21
-165.08358753850001
 31
0.0
  0
LINE
  5
529
  8
0
 62
     0
 10
1216.0766105652001
 20
-213.05025376009999
 30
0.0
 11
1216.0766105652001
 21
-182.0169199817
 31
0.0
  0
LINE
  5
52A
  8
0
 62
     0
 10
1216.0766105652001
 20
-134.05025376009999
 30
0.0
 11
1216.0766105652001
 21
-165.08358753850001
 31
0.0
  0
LINE
  5
52B
  8
0
 62
     0
 10
1216.0766105652001
 20
-134.05025376009999
 30
0.0
 11
1216.0766105652001
 21
-182.0169199817
 31
0.0
  0
LINE
  5
52C
  8
0
 62
     0
 10
1216.0766105652001
 20
-134.05025376009999
 30
0.0
 11
1216.0766105652001
 21
-139.05025376009999
 31
0.0
  0
SOLID
  5
52D
  8
0
 62
     0
 10
1216.0766105652001
 20
-134.05025376009999
 30
0.0
 11
1217.5766105652001
 21
-140.05025376009999
 31
0.0
 12
1214.5766105652001
 22
-140.05025376009999
 32
0.0
 13
1216.0766105652001
 23
-138.55025376009999
 33
0.0
  0
LINE
  5
52E
  8
0
 62
     0
 10
1216.0766105652001
 20
-213.05025376009999
 30
0.0
 11
1216.0766105652001
 21
-208.05025376009999
 31
0.0
  0
SOLID
  5
52F
  8
0
 62
     0
 10
1216.0766105652001
 20
-213.05025376009999
 30
0.0
 11
1214.5766105652001
 21
-207.05025376009999
 31
0.0
 12
1217.5766105652001
 22
-207.05025376009999
 32
0.0
 13
1216.0766105652001
 23
-208.55025376009999
 33
0.0
  0
ENDBLK
  5
530
  8
0
  0
BLOCK
  8
0
  2
*D82
 70
     1
 10
0.0
 20
0.0
 30
0.0
  3
*D82
  1

  0
TEXT
  5
534
  8
0
 62
     0
 10
1359.5173267973
 20
113.0253793671
 30
0.0
 40
7.1966662884000003
  1
25
  0
LINE
  5
535
  8
0
 62
     0
 10
1376.2506599081
 20
75.181044335600006
 30
0.0
 11
1376.2506599081
 21
111.7553794339
 31
0.0
  0
LINE
  5
536
  8
0
 62
     0
 10
1351.2506599081
 20
84.181044335600006
 30
0.0
 11
1351.2506599081
 21
111.7553794339
 31
0.0
  0
LINE
  5
537
  8
0
 62
     0
 10
1376.2506599081
 20
110.7553794339
 30
0.0
 11
1372.2173261297
 21
110.7553794339
 31
0.0
  0
LINE
  5
538
  8
0
 62
     0
 10
1376.2506599081
 20
110.7553794339
 30
0.0
 11
1355.2839936865
 21
110.7553794339
 31
0.0
  0
LINE
  5
539
  8
0
 62
     0
 10
1351.2506599081
 20
110.7553794339
 30
0.0
 11
1372.2173261297
 21
110.7553794339
 31
0.0
  0
LINE
  5
53A
  8
0
 62
     0
 10
1351.2506599081
 20
110.7553794339
 30
0.0
 11
1355.2839936865
 21
110.7553794339
 31
0.0
  0
LINE
  5
53B
  8
0
 62
     0
 10
1351.2506599081
 20
110.7553794339
 30
0.0
 11
1346.2506599081
 21
110.7553794339
 31
0.0
  0
SOLID
  5
53C
  8
0
 62
     0
 10
1351.2506599081
 20
110.7553794339
 30
0.0
 11
1345.2506599081
 21
109.2553794339
 31
0.0
 12
1345.2506599081
 22
112.2553794339
 32
0.0
 13
1346.7506599081
 23
110.7553794339
 33
0.0
  0
LINE
  5
53D
  8
0
 62
     0
 10
1376.2506599081
 20
110.7553794339
 30
0.0
 11
1381.2506599081
 21
110.7553794339
 31
0.0
  0
SOLID
  5
53E
  8
0
 62
     0
 10
1376.2506599081
 20
110.7553794339
 30
0.0
 11
1382.2506599081
 21
112.2553794339
 31
0.0
 12
1382.2506599081
 22
109.2553794339
 32
0.0
 13
1380.7506599081
 23
110.7553794339
 33
0.0
  0
ENDBLK
  5
53F
  8
0
  0
BLOCK
  8
0
  2
*D83
 70
     1
 10
0.0
 20
0.0
 30
0.0
  3
*D83
  1

  0
TEXT
  5
543
  8
0
 62
     0
 10
1387.0173267973
 20
113.0253793671
 30
0.0
 40
7.1966662884000003
  1
30
  0
LINE
  5
544
  8
0
 62
     0
 10
1406.2506599081
 20
84.181044335600006
 30
0.0
 11
1406.2506599081
 21
111.7553794339
 31
0.0
  0
LINE
  5
545
  8
0
 62
     0
 10
1376.2506599081
 20
75.181044335600006
 30
0.0
 11
1376.2506599081
 21
111.7553794339
 31
0.0
  0
LINE
  5
546
  8
0
 62
     0
 10
1406.2506599081
 20
110.7553794339
 30
0.0
 11
1399.7173261297
 21
110.7553794339
 31
0.0
  0
LINE
  5
547
  8
0
 62
     0
 10
1406.2506599081
 20
110.7553794339
 30
0.0
 11
1382.7839936865
 21
110.7553794339
 31
0.0
  0
LINE
  5
548
  8
0
 62
     0
 10
1376.2506599081
 20
110.7553794339
 30
0.0
 11
1399.7173261297
 21
110.7553794339
 31
0.0
  0
LINE
  5
549
  8
0
 62
     0
 10
1376.2506599081
 20
110.7553794339
 30
0.0
 11
1382.7839936865
 21
110.7553794339
 31
0.0
  0
LINE
  5
54A
  8
0
 62
     0
 10
1376.2506599081
 20
110.7553794339
 30
0.0
 11
1381.2506599081
 21
110.7553794339
 31
0.0
  0
SOLID
  5
54B
  8
0
 62
     0
 10
1376.2506599081
 20
110.7553794339
 30
0.0
 11
1382.2506599081
 21
112.2553794339
 31
0.0
 12
1382.2506599081
 22
109.2553794339
 32
0.0
 13
1380.7506599081
 23
110.7553794339
 33
0.0
  0
LINE
  5
54C
  8
0
 62
     0
 10
1406.2506599081
 20
110.7553794339
 30
0.0
 11
1401.2506599081
 21
110.7553794339
 31
0.0
  0
SOLID
  5
54D
  8
0
 62
     0
 10
1406.2506599081
 20
110.7553794339
 30
0.0
 11
1400.2506599081
 21
109.2553794339
 31
0.0
 12
1400.2506599081
 22
112.2553794339
 32
0.0
 13
1401.7506599081
 23
110.7553794339
 33
0.0
  0
ENDBLK
  5
54E
  8
0
  0
BLOCK
  8
0
  2
*D84
 70
     1
 10
0.0
 20
0.0
 30
0.0
  3
*D84
  1

  0
TEXT
  5
552
  8
0
 62
     0
 10
1225.0549542558999
 20
28.947252972899999
 30
0.0
 40
7.1966662884000003
  1
80
 50
90.0
  0
LINE
  5
553
  8
0
 62
     0
 10
1193.1615974081001
 20
-6.8194139163000003
 30
0.0
 11
1228.3249541891
 21
-6.8194139163000003
 31
0.0
  0
LINE
  5
554
  8
0
 62
     0
 10
1193.1615974081001
 20
73.180586083699993
 30
0.0
 11
1228.3249541891
 21
73.180586083699993
 31
0.0
  0
LINE
  5
555
  8
0
 62
     0
 10
1227.3249541891
 20
-6.8194139163000003
 30
0.0
 11
1227.3249541891
 21
41.6472523053
 31
0.0
  0
LINE
  5
556
  8
0
 62
     0
 10
1227.3249541891
 20
-6.8194139163000003
 30
0.0
 11
1227.3249541891
 21
24.713919862000001
 31
0.0
  0
LINE
  5
557
  8
0
 62
     0
 10
1227.3249541891
 20
73.180586083699993
 30
0.0
 11
1227.3249541891
 21
41.6472523053
 31
0.0
  0
LINE
  5
558
  8
0
 62
     0
 10
1227.3249541891
 20
73.180586083699993
 30
0.0
 11
1227.3249541891
 21
24.713919862000001
 31
0.0
  0
LINE
  5
559
  8
0
 62
     0
 10
1227.3249541891
 20
73.180586083699993
 30
0.0
 11
1227.3249541891
 21
68.180586083699993
 31
0.0
  0
SOLID
  5
55A
  8
0
 62
     0
 10
1227.3249541891
 20
73.180586083699993
 30
0.0
 11
1228.8249541891
 21
67.180586083699993
 31
0.0
 12
1225.8249541891
 22
67.180586083699993
 32
0.0
 13
1227.3249541891
 23
68.680586083699993
 33
0.0
  0
LINE
  5
55B
  8
0
 62
     0
 10
1227.3249541891
 20
-6.8194139163000003
 30
0.0
 11
1227.3249541891
 21
-1.8194139163
 31
0.0
  0
SOLID
  5
55C
  8
0
 62
     0
 10
1227.3249541891
 20
-6.8194139163000003
 30
0.0
 11
1225.8249541891
 21
-0.8194139162999999
 31
0.0
 12
1228.8249541891
 22
-0.8194139162999999
 32
0.0
 13
1227.3249541891
 23
-2.3194139162999989
 33
0.0
  0
ENDBLK
  5
55D
  8
0
  0
BLOCK
  8
0
  2
*D85
 70
     1
 10
0.0
 20
0.0
 30
0.0
  3
*D85
  1

  0
TEXT
  5
561
  8
0
 62
     0
 10
1225.0549523484999
 20
75.563919528300005
 30
0.0
 40
7.1966662884000003
  1
9
 50
90.0
  0
LINE
  5
562
  8
0
 62
     0
 10
1193.1615974081001
 20
73.180586083699993
 30
0.0
 11
1228.3249522818001
 21
73.180586083699993
 31
0.0
  0
LINE
  5
563
  8
0
 62
     0
 10
1202.1615974081001
 20
82.180586083699978
 30
0.0
 11
1228.3249522818001
 21
82.180586083699978
 31
0.0
  0
LINE
  5
564
  8
0
 62
     0
 10
1227.3249522818001
 20
73.180586083699993
 30
0.0
 11
1227.3249522818001
 21
73.180586083699993
 31
0.0
  0
LINE
  5
565
  8
0
 62
     0
 10
1227.3249522818001
 20
73.180586083699993
 30
0.0
 11
1227.3249522818001
 21
82.180586083699978
 31
0.0
  0
LINE
  5
566
  8
0
 62
     0
 10
1227.3249522818001
 20
82.180586083699978
 30
0.0
 11
1227.3249522818001
 21
73.180586083699993
 31
0.0
  0
LINE
  5
567
  8
0
 62
     0
 10
1227.3249522818001
 20
82.180586083699978
 30
0.0
 11
1227.3249522818001
 21
82.180586083699978
 31
0.0
  0
LINE
  5
568
  8
0
 62
     0
 10
1227.3249522818001
 20
82.180586083699978
 30
0.0
 11
1227.3249522818001
 21
87.180586083700007
 31
0.0
  0
SOLID
  5
569
  8
0
 62
     0
 10
1227.3249522818001
 20
82.180586083699978
 30
0.0
 11
1225.8249522818001
 21
88.180586083700007
 31
0.0
 12
1228.8249522818001
 22
88.180586083700007
 32
0.0
 13
1227.3249522818001
 23
86.680586083700007
 33
0.0
  0
LINE
  5
56A
  8
0
 62
     0
 10
1227.3249522818001
 20
73.180586083699993
 30
0.0
 11
1227.3249522818001
 21
68.180586083699993
 31
0.0
  0
SOLID
  5
56B
  8
0
 62
     0
 10
1227.3249522818001
 20
73.180586083699993
 30
0.0
 11
1228.8249522818001
 21
67.180586083699993
 31
0.0
 12
1225.8249522818001
 22
67.180586083699993
 32
0.0
 13
1227.3249522818001
 23
68.680586083699993
 33
0.0
  0
ENDBLK
  5
56C
  8
0
  0
BLOCK
  8
0
  2
*D86
 70
     1
 10
0.0
 20
0.0
 30
0.0
  3
*D86
  1

  0
TEXT
  5
570
  8
0
 62
     0
 10
1324.7761314035999
 20
28.947711224799999
 30
0.0
 40
7.1966662884000003
  1
67
 50
90.0
  0
LINE
  5
571
  8
0
 62
     0
 10
1309.6053430678
 20
-0.3189556644
 30
0.0
 11
1328.0461313369001
 21
-0.3189556644
 31
0.0
  0
LINE
  5
572
  8
0
 62
     0
 10
1309.6053430678
 20
66.681044335600006
 30
0.0
 11
1328.0461313369001
 21
66.681044335600006
 31
0.0
  0
LINE
  5
573
  8
0
 62
     0
 10
1327.0461313369001
 20
-0.3189556644
 30
0.0
 11
1327.0461313369001
 21
41.6477105572
 31
0.0
  0
LINE
  5
574
  8
0
 62
     0
 10
1327.0461313369001
 20
-0.3189556644
 30
0.0
 11
1327.0461313369001
 21
24.714378113999999
 31
0.0
  0
LINE
  5
575
  8
0
 62
     0
 10
1327.0461313369001
 20
66.681044335600006
 30
0.0
 11
1327.0461313369001
 21
41.6477105572
 31
0.0
  0
LINE
  5
576
  8
0
 62
     0
 10
1327.0461313369001
 20
66.681044335600006
 30
0.0
 11
1327.0461313369001
 21
24.714378113999999
 31
0.0
  0
LINE
  5
577
  8
0
 62
     0
 10
1327.0461313369001
 20
66.681044335600006
 30
0.0
 11
1327.0461313369001
 21
61.681044335599999
 31
0.0
  0
SOLID
  5
578
  8
0
 62
     0
 10
1327.0461313369001
 20
66.681044335600006
 30
0.0
 11
1328.5461313369001
 21
60.681044335600014
 31
0.0
 12
1325.5461313369001
 22
60.681044335600014
 32
0.0
 13
1327.0461313369001
 23
62.181044335599999
 33
0.0
  0
LINE
  5
579
  8
0
 62
     0
 10
1327.0461313369001
 20
-0.3189556644
 30
0.0
 11
1327.0461313369001
 21
4.6810443356000002
 31
0.0
  0
SOLID
  5
57A
  8
0
 62
     0
 10
1327.0461313369001
 20
-0.3189556644
 30
0.0
 11
1325.5461313369001
 21
5.6810443355999993
 31
0.0
 12
1328.5461313369001
 22
5.6810443355999993
 32
0.0
 13
1327.0461313369001
 23
4.1810443356000002
 33
0.0
  0
ENDBLK
  5
57B
  8
0
  0
BLOCK
  8
0
  2
BALLON0
 70
     0
 10
0.0
 20
0.0
 30
0.0
  3
BALLON0
  1

  0
INSERT
  5
580
  8
0
  6
CONTINUOUS
  2
*U145
 10
0.0
 20
0.0
 30
0.0
  0
CIRCLE
  5
581
  8
ﾚｲﾔ_1
 10
802.46682990889985
 20
-33.654462286099999
 30
0.0
 40
8.0
  0
LINE
  5
582
  8
寸法線
 10
815.80016324229985
 20
-33.654462286099999
 30
0.0
 11
810.46682990889985
 21
-33.654462286099999
 31
0.0
  0
LINE
  5
583
  8
寸法線
 10
835.33313751619994
 20
8.7559389735000011
 30
0.0
 11
815.80016324229985
 21
-33.654462286099999
 31
0.0
  0
SOLID
  5
584
  8
寸法線
 10
835.33313751619994
 20
8.7559389735000011
 30
0.0
 11
833.4397421793999
 21
0.82025664
 31
0.0
 12
832.65580535970003
 22
2.942859538
 32
0.0
 13
832.65580535970003
 23
2.942859538
 33
0.0
  0
SOLID
  5
585
  8
寸法線
 10
832.65580535970003
 20
2.942859538
 30
0.0
 11
830.5332024615999
 21
2.158922718299999
 31
0.0
 12
835.33313751619994
 22
8.7559389735000011
 32
0.0
 13
835.33313751619994
 23
8.7559389735000011
 33
0.0
  0
ENDBLK
  5
586
  8
0
  0
BLOCK
  8
0
  2
BALLON1
 70
     0
 10
0.0
 20
0.0
 30
0.0
  3
BALLON1
  1

  0
INSERT
  5
58A
  8
0
  6
CONTINUOUS
  2
*U146
 10
0.0
 20
0.0
 30
0.0
  0
CIRCLE
  5
58B
  8
ﾚｲﾔ_1
 10
670.35534598870004
 20
-33.612948227099999
 30
0.0
 40
8.0
  0
LINE
  5
58C
  8
寸法線
 10
683.68867932199987
 20
-33.612948227099999
 30
0.0
 11
678.35534598870004
 21
-33.612948227099999
 31
0.0
  0
LINE
  5
58D
  8
寸法線
 10
710.36159740810001
 20
-71.092116565400005
 30
0.0
 11
683.68867932199987
 21
-33.612948227099999
 31
0.0
  0
SOLID
  5
58E
  8
寸法線
 10
710.36159740810001
 20
-71.092116565400005
 30
0.0
 11
704.41939200729985
 21
-65.50192918270001
 31
0.0
 12
706.6506990048
 22
-65.877786978499998
 32
0.0
 13
706.6506990048
 23
-65.877786978499998
 33
0.0
  0
SOLID
  5
58F
  8
寸法線
 10
706.6506990048
 20
-65.877786978499998
 30
0.0
 11
707.02655680069995
 21
-63.646479980999999
 31
0.0
 12
710.36159740810001
 22
-71.092116565400005
 32
0.0
 13
710.36159740810001
 23
-71.092116565400005
 33
0.0
  0
ENDBLK
  5
590
  8
0
  0
BLOCK
  8
0
  2
BALLON2
 70
     0
 10
0.0
 20
0.0
 30
0.0
  3
BALLON2
  1

  0
INSERT
  5
594
  8
0
  6
CONTINUOUS
  2
*U147
 10
0.0
 20
0.0
 30
0.0
  0
CIRCLE
  5
595
  8
ﾚｲﾔ_1
 10
750.25875503350005
 20
-33.612948227099999
 30
0.0
 40
8.0
  0
LINE
  5
596
  8
寸法線
 10
763.59208836690004
 20
-33.612948227099999
 30
0.0
 11
758.25875503350005
 21
-33.612948227099999
 31
0.0
  0
LINE
  5
597
  8
寸法線
 10
774.05218468769988
 20
-50.3020468088
 30
0.0
 11
763.59208836690004
 21
-33.612948227099999
 31
0.0
  0
SOLID
  5
598
  8
寸法線
 10
774.05218468769988
 20
-50.3020468088
 30
0.0
 11
768.44788419710005
 21
-44.373150114499992
 31
0.0
 12
770.65332226329986
 22
-44.879156968499998
 32
0.0
 13
770.65332226329986
 23
-44.879156968499998
 33
0.0
  0
SOLID
  5
599
  8
寸法線
 10
770.65332226329986
 20
-44.879156968499998
 30
0.0
 11
771.15932911729999
 21
-42.673718902300003
 31
0.0
 12
774.05218468769988
 22
-50.3020468088
 32
0.0
 13
774.05218468769988
 23
-50.3020468088
 33
0.0
  0
ENDBLK
  5
59A
  8
0
  0
BLOCK
  8
0
  2
*D90
 70
     1
 10
0.0
 20
0.0
 30
0.0
  3
*D90
  1

  0
TEXT
  5
59D
  8
0
 62
     0
 10
1324.8185145975999
 20
87.625128522999987
 30
0.0
 40
7.1966662884000003
  1
15.5
 50
90.0
  0
LINE
  5
59E
  8
0
 62
     0
 10
1309.6053430678
 20
66.681044335600006
 30
0.0
 11
1328.0885145309001
 21
66.681044335600006
 31
0.0
  0
LINE
  5
59F
  8
0
 62
     0
 10
1307.0053430677999
 20
82.181044335600006
 30
0.0
 11
1328.0885145309001
 21
82.181044335600006
 31
0.0
  0
LINE
  5
5A0
  8
0
 62
     0
 10
1327.0885145309001
 20
66.681044335600006
 30
0.0
 11
1327.0885145309001
 21
106.32234976239999
 31
0.0
  0
LINE
  5
5A1
  8
0
 62
     0
 10
1327.0885145309001
 20
66.681044335600006
 30
0.0
 11
1327.0885145309001
 21
83.391795412199997
 31
0.0
  0
LINE
  5
5A2
  8
0
 62
     0
 10
1327.0885145309001
 20
82.181044335600006
 30
0.0
 11
1327.0885145309001
 21
106.32234976239999
 31
0.0
  0
LINE
  5
5A3
  8
0
 62
     0
 10
1327.0885145309001
 20
82.181044335600006
 30
0.0
 11
1327.0885145309001
 21
83.391795412199997
 31
0.0
  0
LINE
  5
5A4
  8
0
 62
     0
 10
1327.0885145309001
 20
82.181044335600006
 30
0.0
 11
1327.0885145309001
 21
77.181044335600006
 31
0.0
  0
SOLID
  5
5A5
  8
0
 62
     0
 10
1327.0885145309001
 20
82.181044335600006
 30
0.0
 11
1328.5885145309001
 21
76.181044335600006
 31
0.0
 12
1325.5885145309001
 22
76.181044335600006
 32
0.0
 13
1327.0885145309001
 23
77.681044335600006
 33
0.0
  0
LINE
  5
5A6
  8
0
 62
     0
 10
1327.0885145309001
 20
66.681044335600006
 30
0.0
 11
1327.0885145309001
 21
71.681044335600006
 31
0.0
  0
SOLID
  5
5A7
  8
0
 62
     0
 10
1327.0885145309001
 20
66.681044335600006
 30
0.0
 11
1325.5885145309001
 21
72.681044335600006
 31
0.0
 12
1328.5885145309001
 22
72.681044335600006
 32
0.0
 13
1327.0885145309001
 23
71.181044335600006
 33
0.0
  0
ENDBLK
  5
5A8
  8
0
  0
BLOCK
  8
0
  2
*D91
 70
     1
 10
0.0
 20
0.0
 30
0.0
  3
*D91
  1

  0
TEXT
  5
5AC
  8
0
 62
     0
 10
1324.7868240001001
 20
-35.430469735999999
 30
0.0
 40
7.1966662884000003
  1
15.5
 50
90.0
  0
LINE
  5
5AD
  8
0
 62
     0
 10
1309.6053430678
 20
-15.818955664400001
 30
0.0
 11
1328.0568239332999
 21
-15.818955664400001
 31
0.0
  0
LINE
  5
5AE
  8
0
 62
     0
 10
1309.6053430678
 20
-0.3189556644
 30
0.0
 11
1328.0568239332999
 21
-0.3189556644
 31
0.0
  0
LINE
  5
5AF
  8
0
 62
     0
 10
1327.0568239332999
 20
-15.818955664400001
 30
0.0
 11
1327.0568239332999
 21
-16.733248496600002
 31
0.0
  0
LINE
  5
5B0
  8
0
 62
     0
 10
1327.0568239332999
 20
-15.818955664400001
 30
0.0
 11
1327.0568239332999
 21
-39.663802846799989
 31
0.0
  0
LINE
  5
5B1
  8
0
 62
     0
 10
1327.0568239332999
 20
-0.3189556644
 30
0.0
 11
1327.0568239332999
 21
-16.733248496600002
 31
0.0
  0
LINE
  5
5B2
  8
0
 62
     0
 10
1327.0568239332999
 20
-0.3189556644
 30
0.0
 11
1327.0568239332999
 21
-39.663802846799989
 31
0.0
  0
LINE
  5
5B3
  8
0
 62
     0
 10
1327.0568239332999
 20
-0.3189556644
 30
0.0
 11
1327.0568239332999
 21
-5.3189556643999989
 31
0.0
  0
SOLID
  5
5B4
  8
0
 62
     0
 10
1327.0568239332999
 20
-0.3189556644
 30
0.0
 11
1328.5568239332999
 21
-6.3189556643999998
 31
0.0
 12
1325.5568239332999
 22
-6.3189556643999998
 32
0.0
 13
1327.0568239332999
 23
-4.8189556643999989
 33
0.0
  0
LINE
  5
5B5
  8
0
 62
     0
 10
1327.0568239332999
 20
-15.818955664400001
 30
0.0
 11
1327.0568239332999
 21
-10.818955664400001
 31
0.0
  0
SOLID
  5
5B6
  8
0
 62
     0
 10
1327.0568239332999
 20
-15.818955664400001
 30
0.0
 11
1325.5568239332999
 21
-9.8189556644000007
 31
0.0
 12
1328.5568239332999
 22
-9.8189556644000007
 32
0.0
 13
1327.0568239332999
 23
-11.318955664400001
 33
0.0
  0
ENDBLK
  5
5B7
  8
0
  0
BLOCK
  8
0
  2
*D92
 70
     1
 10
0.0
 20
0.0
 30
0.0
  3
*D92
  1

  0
TEXT
  5
5BB
  8
0
 62
     0
 10
1419.9806599748999
 20
-13.052288775199999
 30
0.0
 40
7.1966662884000003
  1
14
 50
90.0
  0
LINE
  5
5BC
  8
0
 62
     0
 10
1408.2506599081
 20
-15.818955664400001
 30
0.0
 11
1423.2506599081
 21
-15.818955664400001
 31
0.0
  0
LINE
  5
5BD
  8
0
 62
     0
 10
1408.2506599081
 20
-1.8189556643999989
 30
0.0
 11
1423.2506599081
 21
-1.8189556643999989
 31
0.0
  0
LINE
  5
5BE
  8
0
 62
     0
 10
1422.2506599081
 20
-15.818955664400001
 30
0.0
 11
1422.2506599081
 21
-15.818955664400001
 31
0.0
  0
LINE
  5
5BF
  8
0
 62
     0
 10
1422.2506599081
 20
-15.818955664400001
 30
0.0
 11
1422.2506599081
 21
-1.8189556643999989
 31
0.0
  0
LINE
  5
5C0
  8
0
 62
     0
 10
1422.2506599081
 20
-1.8189556643999989
 30
0.0
 11
1422.2506599081
 21
-15.818955664400001
 31
0.0
  0
LINE
  5
5C1
  8
0
 62
     0
 10
1422.2506599081
 20
-1.8189556643999989
 30
0.0
 11
1422.2506599081
 21
-1.8189556643999989
 31
0.0
  0
LINE
  5
5C2
  8
0
 62
     0
 10
1422.2506599081
 20
-1.8189556643999989
 30
0.0
 11
1422.2506599081
 21
-6.8189556643999998
 31
0.0
  0
SOLID
  5
5C3
  8
0
 62
     0
 10
1422.2506599081
 20
-1.8189556643999989
 30
0.0
 11
1423.7506599081
 21
-7.8189556643999998
 31
0.0
 12
1420.7506599081
 22
-7.8189556643999998
 32
0.0
 13
1422.2506599081
 23
-6.3189556643999998
 33
0.0
  0
LINE
  5
5C4
  8
0
 62
     0
 10
1422.2506599081
 20
-15.818955664400001
 30
0.0
 11
1422.2506599081
 21
-10.818955664400001
 31
0.0
  0
SOLID
  5
5C5
  8
0
 62
     0
 10
1422.2506599081
 20
-15.818955664400001
 30
0.0
 11
1420.7506599081
 21
-9.8189556644000007
 31
0.0
 12
1423.7506599081
 22
-9.8189556644000007
 32
0.0
 13
1422.2506599081
 23
-11.318955664400001
 33
0.0
  0
ENDBLK
  5
5C6
  8
0
  0
BLOCK
  8
0
  2
*D93
 70
     1
 10
0.0
 20
0.0
 30
0.0
  3
*D93
  1

  0
TEXT
  5
5CA
  8
0
 62
     0
 10
1419.9806599748999
 20
28.947711224799999
 30
0.0
 40
7.1966662884000003
  1
70
 50
90.0
  0
LINE
  5
5CB
  8
0
 62
     0
 10
1408.2506599081
 20
-1.8189556643999989
 30
0.0
 11
1423.2506599081
 21
-1.8189556643999989
 31
0.0
  0
LINE
  5
5CC
  8
0
 62
     0
 10
1408.2506599081
 20
68.181044335600006
 30
0.0
 11
1423.2506599081
 21
68.181044335600006
 31
0.0
  0
LINE
  5
5CD
  8
0
 62
     0
 10
1422.2506599081
 20
-1.8189556643999989
 30
0.0
 11
1422.2506599081
 21
41.6477105572
 31
0.0
  0
LINE
  5
5CE
  8
0
 62
     0
 10
1422.2506599081
 20
-1.8189556643999989
 30
0.0
 11
1422.2506599081
 21
24.714378113999999
 31
0.0
  0
LINE
  5
5CF
  8
0
 62
     0
 10
1422.2506599081
 20
68.181044335600006
 30
0.0
 11
1422.2506599081
 21
41.6477105572
 31
0.0
  0
LINE
  5
5D0
  8
0
 62
     0
 10
1422.2506599081
 20
68.181044335600006
 30
0.0
 11
1422.2506599081
 21
24.714378113999999
 31
0.0
  0
LINE
  5
5D1
  8
0
 62
     0
 10
1422.2506599081
 20
68.181044335600006
 30
0.0
 11
1422.2506599081
 21
63.181044335600014
 31
0.0
  0
SOLID
  5
5D2
  8
0
 62
     0
 10
1422.2506599081
 20
68.181044335600006
 30
0.0
 11
1423.7506599081
 21
62.181044335599999
 31
0.0
 12
1420.7506599081
 22
62.181044335599999
 32
0.0
 13
1422.2506599081
 23
63.681044335599999
 33
0.0
  0
LINE
  5
5D3
  8
0
 62
     0
 10
1422.2506599081
 20
-1.8189556643999989
 30
0.0
 11
1422.2506599081
 21
3.1810443356000002
 31
0.0
  0
SOLID
  5
5D4
  8
0
 62
     0
 10
1422.2506599081
 20
-1.8189556643999989
 30
0.0
 11
1420.7506599081
 21
4.1810443356000002
 31
0.0
 12
1423.7506599081
 22
4.1810443356000002
 32
0.0
 13
1422.2506599081
 23
2.6810443356000002
 33
0.0
  0
ENDBLK
  5
5D5
  8
0
  0
BLOCK
  8
0
  2
*D94
 70
     1
 10
0.0
 20
0.0
 30
0.0
  3
*D94
  1

  0
TEXT
  5
5D9
  8
0
 62
     0
 10
1419.9806599748999
 20
70.947711224799988
 30
0.0
 40
7.1966662884000003
  1
14
 50
90.0
  0
LINE
  5
5DA
  8
0
 62
     0
 10
1408.2506599081
 20
68.181044335600006
 30
0.0
 11
1423.2506599081
 21
68.181044335600006
 31
0.0
  0
LINE
  5
5DB
  8
0
 62
     0
 10
1408.2506599081
 20
82.181044335600006
 30
0.0
 11
1423.2506599081
 21
82.181044335600006
 31
0.0
  0
LINE
  5
5DC
  8
0
 62
     0
 10
1422.2506599081
 20
68.181044335600006
 30
0.0
 11
1422.2506599081
 21
68.181044335600006
 31
0.0
  0
LINE
  5
5DD
  8
0
 62
     0
 10
1422.2506599081
 20
68.181044335600006
 30
0.0
 11
1422.2506599081
 21
82.181044335600006
 31
0.0
  0
LINE
  5
5DE
  8
0
 62
     0
 10
1422.2506599081
 20
82.181044335600006
 30
0.0
 11
1422.2506599081
 21
68.181044335600006
 31
0.0
  0
LINE
  5
5DF
  8
0
 62
     0
 10
1422.2506599081
 20
82.181044335600006
 30
0.0
 11
1422.2506599081
 21
82.181044335600006
 31
0.0
  0
LINE
  5
5E0
  8
0
 62
     0
 10
1422.2506599081
 20
82.181044335600006
 30
0.0
 11
1422.2506599081
 21
77.181044335600006
 31
0.0
  0
SOLID
  5
5E1
  8
0
 62
     0
 10
1422.2506599081
 20
82.181044335600006
 30
0.0
 11
1423.7506599081
 21
76.181044335600006
 31
0.0
 12
1420.7506599081
 22
76.181044335600006
 32
0.0
 13
1422.2506599081
 23
77.681044335600006
 33
0.0
  0
LINE
  5
5E2
  8
0
 62
     0
 10
1422.2506599081
 20
68.181044335600006
 30
0.0
 11
1422.2506599081
 21
73.181044335600006
 31
0.0
  0
SOLID
  5
5E3
  8
0
 62
     0
 10
1422.2506599081
 20
68.181044335600006
 30
0.0
 11
1420.7506599081
 21
74.181044335600006
 31
0.0
 12
1423.7506599081
 22
74.181044335600006
 32
0.0
 13
1422.2506599081
 23
72.681044335600006
 33
0.0
  0
ENDBLK
  5
5E4
  8
0
  0
BLOCK
  8
0
  2
*U95
 70
     1
 10
0.0
 20
0.0
 30
0.0
  3
*U95
  1

  0
TEXT
  5
600
  8
図枠
  6
CONTINUOUS
 10
1378.9350628819391
 20
-288.38068037540012
 30
0.0
 40
5.9972220420999998
  1
1
  0
ENDBLK
  5
602
  8
0
  0
BLOCK
  8
0
  2
*U96
 70
     1
 10
0.0
 20
0.0
 30
0.0
  3
*U96
  1

  0
TEXT
  5
604
  8
図枠
  6
CONTINUOUS
 10
1337.364806570351
 20
155.58705698034311
 30
0.0
 40
5.3974999188999986
  1
改　訂　内　容
  0
ENDBLK
  5
606
  8
0
  0
BLOCK
  8
0
  2
*U97
 70
     1
 10
0.0
 20
0.0
 30
0.0
  3
*U97
  1

  0
TEXT
  5
608
  8
図枠
  6
CONTINUOUS
 10
1285.214736565295
 20
155.64185393383451
 30
0.0
 40
5.3974999188999986
  1
改訂日
  0
ENDBLK
  5
60A
  8
0
  0
BLOCK
  8
0
  2
*U98
 70
     1
 10
0.0
 20
0.0
 30
0.0
  3
*U98
  1

  0
TEXT
  5
60C
  8
図枠
  6
CONTINUOUS
 10
1264.7491400654881
 20
155.69665088732589
 30
0.0
 40
5.3974999188999986
  1
副番
  0
ENDBLK
  5
60E
  8
0
  0
BLOCK
  8
0
  2
*U99
 70
     1
 10
0.0
 20
0.0
 30
0.0
  3
*U99
  1

  0
TEXT
  5
610
  8
図枠
  6
CONTINUOUS
 10
1172.3825384569
 20
-390.95955799301061
 30
0.0
 40
10.794999837900001
  1
株式会社
  0
ENDBLK
  5
612
  8
0
  0
BLOCK
  8
0
  2
*U100
 70
     1
 10
0.0
 20
0.0
 30
0.0
  3
*U100
  1

  0
TEXT
  5
614
  8
図枠
  6
CONTINUOUS
 10
1431.4202251408881
 20
155.5596585035974
 30
0.0
 40
5.3974999188999986
  1
検認者
  0
ENDBLK
  5
616
  8
0
  0
BLOCK
  8
0
  2
*U101
 70
     1
 10
0.0
 20
0.0
 30
0.0
  3
*U101
  1

  0
TEXT
  5
618
  8
図枠
  6
CONTINUOUS
 10
1314.2330467568049
 20
-382.29133688429641
 30
0.0
 40
5.9972220420999998
  1
図 番
  0
ENDBLK
  5
61A
  8
0
  0
BLOCK
  8
0
  2
*U102
 70
     1
 10
0.0
 20
0.0
 30
0.0
  3
*U102
  1

  0
TEXT
  5
61C
  8
図枠
  6
CONTINUOUS
 10
1312.1477182802371
 20
-338.41310789022742
 30
0.0
 40
5.9972220420999998
  1
製品名
  0
ENDBLK
  5
61E
  8
0
  0
BLOCK
  8
0
  2
*U103
 70
     1
 10
0.0
 20
0.0
 30
0.0
  3
*U103
  1

  0
TEXT
  5
620
  8
図枠
  6
CONTINUOUS
 10
1312.315153413392
 20
-360.35222238726192
 30
0.0
 40
5.9972220420999998
  1
図面名
  0
ENDBLK
  5
622
  8
0
  0
BLOCK
  8
0
  2
*U104
 70
     1
 10
0.0
 20
0.0
 30
0.0
  3
*U104
  1

  0
TEXT
  5
624
  8
図枠
  6
CONTINUOUS
 10
1171.9055652473251
 20
-339.049724960731
 30
0.0
 40
5.9972220420999998
  1
日　　付
  0
ENDBLK
  5
626
  8
0
  0
BLOCK
  8
0
  2
*U105
 70
     1
 10
0.0
 20
0.0
 30
0.0
  3
*U105
  1

  0
TEXT
  5
628
  8
図枠
  6
CONTINUOUS
 10
1221.2662674661881
 20
-339.23238146962751
 30
0.0
 40
5.9972220420999998
  1
尺　　度
  0
ENDBLK
  5
62A
  8
0
  0
BLOCK
  8
0
  2
*U106
 70
     1
 10
0.0
 20
0.0
 30
0.0
  3
*U106
  1

  0
TEXT
  5
62C
  8
図枠
  6
CONTINUOUS
 10
1411.502420571125
 20
155.58705698034311
 30
0.0
 40
5.3974999188999986
  1
改訂者
  0
ENDBLK
  5
62E
  8
0
  0
BLOCK
  8
0
  2
*U107
 70
     1
 10
0.0
 20
0.0
 30
0.0
  3
*U107
  1

  0
TEXT
  5
630
  8
図枠
  6
CONTINUOUS
 10
1163.1966042274421
 20
-318.56333688429652
 30
0.0
 40
5.9972220420999998
  1
品番
  0
ENDBLK
  5
632
  8
0
  0
BLOCK
  8
0
  2
*U108
 70
     1
 10
0.0
 20
0.0
 30
0.0
  3
*U108
  1

  0
TEXT
  5
634
  8
図枠
  6
CONTINUOUS
 10
1161.5028645832999
 20
-372.2323814696274
 30
0.0
 40
5.9972220420999998
  1
 製図
  0
ENDBLK
  5
636
  8
0
  0
BLOCK
  8
0
  2
*U109
 70
     1
 10
0.0
 20
0.0
 30
0.0
  3
*U109
  1

  0
TEXT
  5
638
  8
図枠
  6
CONTINUOUS
 10
1161.5028645832999
 20
-361.17149596666189
 30
0.0
 40
5.9972220420999998
  1
 設計
  0
ENDBLK
  5
63A
  8
0
  0
BLOCK
  8
0
  2
*U110
 70
     1
 10
0.0
 20
0.0
 30
0.0
  3
*U110
  1

  0
TEXT
  5
63C
  8
図枠
  6
CONTINUOUS
 10
1236.5028645832999
 20
-372.26282422111012
 30
0.0
 40
5.9972220420999998
  1
 検図
  0
ENDBLK
  5
63E
  8
0
  0
BLOCK
  8
0
  2
*U111
 70
     1
 10
0.0
 20
0.0
 30
0.0
  3
*U111
  1

  0
TEXT
  5
640
  8
図枠
  6
CONTINUOUS
 10
1236.5028645832999
 20
-361.20193871814462
 30
0.0
 40
5.9972220420999998
  1
 照査
  0
ENDBLK
  5
642
  8
0
  0
BLOCK
  8
0
  2
*U112
 70
     1
 10
0.0
 20
0.0
 30
0.0
  3
*U112
  1

  0
TEXT
  5
644
  8
図枠
  6
CONTINUOUS
 10
1372.998726342804
 20
-318.68510789022753
 30
0.0
 40
5.9972220420999998
  1
数量
  0
ENDBLK
  5
646
  8
0
  0
BLOCK
  8
0
  2
*U113
 70
     1
 10
0.0
 20
0.0
 30
0.0
  3
*U113
  1

  0
TEXT
  5
648
  8
図枠
  6
CONTINUOUS
 10
1402.0241144332761
 20
-318.7764361446757
 30
0.0
 40
5.9972220420999998
  1
備　　　考
  0
ENDBLK
  5
64A
  8
0
  0
BLOCK
  8
0
  2
*U114
 70
     1
 10
0.0
 20
0.0
 30
0.0
  3
*U114
  1

  0
TEXT
  5
64C
  8
図枠
  6
CONTINUOUS
 10
1306.3087097734319
 20
-318.5937796357793
 30
0.0
 40
5.9972220420999998
  1
材　　　質
  0
ENDBLK
  5
64E
  8
0
  0
BLOCK
  8
0
  2
*U115
 70
     1
 10
0.0
 20
0.0
 30
0.0
  3
*U115
  1

  0
TEXT
  5
650
  8
図枠
  6
CONTINUOUS
 10
1210.537030409552
 20
-318.62422238726202
 30
0.0
 40
5.9972220420999998
  1
品　　　名
  0
ENDBLK
  5
652
  8
0
  0
BLOCK
  8
0
  2
*U116
 70
     1
 10
0.0
 20
0.0
 30
0.0
  3
*U116
  1

  0
TEXT
  5
654
  8
図枠
  6
CONTINUOUS
 10
1197.9217030435821
 20
-372.26282422111012
 30
0.0
 40
5.9972220420999998
  1
白須賀
  0
ENDBLK
  5
656
  8
0
  0
BLOCK
  8
0
  2
*U117
 70
     1
 10
0.0
 20
0.0
 30
0.0
  3
*U117
  1

  0
TEXT
  5
658
  8
図枠
  6
CONTINUOUS
 10
1197.9217030435821
 20
-361.26282422111012
 30
0.0
 40
5.9972220420999998
  1
白須賀
  0
ENDBLK
  5
65A
  8
0
  0
BLOCK
  8
0
  2
*U118
 70
     1
 10
0.0
 20
0.0
 30
0.0
  3
*U118
  1

  0
TEXT
  5
65C
  8
図枠
  6
CONTINUOUS
 10
1274.5656116236501
 20
-372.2323814696274
 30
0.0
 40
5.9972220420999998
  1
柳 原
  0
ENDBLK
  5
65E
  8
0
  0
BLOCK
  8
0
  2
*U119
 70
     1
 10
0.0
 20
0.0
 30
0.0
  3
*U119
  1

  0
TEXT
  5
660
  8
図枠
  6
CONTINUOUS
 10
1274.5656116236501
 20
-361.2323814696274
 30
0.0
 40
5.9972220420999998
  1
柳 原
  0
ENDBLK
  5
662
  8
0
  0
BLOCK
  8
0
  2
*U120
 70
     1
 10
0.0
 20
0.0
 30
0.0
  3
*U120
  1

  0
TEXT
  5
664
  8
図枠
  6
CONTINUOUS
 10
1174.888954892634
 20
-349.94228864220003
 30
0.0
 40
5.9972220420999998
  1
H09.07
  0
ENDBLK
  5
666
  8
0
  0
BLOCK
  8
0
  2
*U121
 70
     1
 10
0.0
 20
0.0
 30
0.0
  3
*U121
  1

  0
TEXT
  5
668
  8
図枠
  6
CONTINUOUS
 10
1168.584971239887
 20
-298.38068037540012
 30
0.0
 40
5.9972220420999998
  1
2
  0
ENDBLK
  5
66A
  8
0
  0
BLOCK
  8
0
  2
*U122
 70
     1
 10
0.0
 20
0.0
 30
0.0
  3
*U122
  1

  0
TEXT
  5
66C
  8
図枠
  6
CONTINUOUS
 10
1168.9350628819391
 20
-308.38068037540012
 30
0.0
 40
5.9972220420999998
  1
1
  0
ENDBLK
  5
66E
  8
0
  0
BLOCK
  8
0
  2
*U123
 70
     1
 10
0.0
 20
0.0
 30
0.0
  3
*U123
  1

  0
TEXT
  5
670
  8
図枠
  6
CONTINUOUS
 10
1378.584971239887
 20
-308.38068037540012
 30
0.0
 40
5.9972220420999998
  1
2
  0
ENDBLK
  5
672
  8
0
  0
BLOCK
  8
0
  2
*U124
 70
     1
 10
0.0
 20
0.0
 30
0.0
  3
*U124
  1

  0
TEXT
  5
674
  8
図枠
  6
CONTINUOUS
 10
1168.6154139913699
 20
-288.38068037540012
 30
0.0
 40
5.9972220420999998
  1
3
  0
ENDBLK
  5
676
  8
0
  0
BLOCK
  8
0
  2
*U125
 70
     1
 10
0.0
 20
0.0
 30
0.0
  3
*U125
  1

  0
TEXT
  5
678
  8
改訂
  6
CONTINUOUS
 10
1415.393004269012
 20
145.86104174779999
 30
0.0
 40
5.3974999188999986
  1
＊＊
  0
ENDBLK
  5
67A
  8
0
  0
BLOCK
  8
0
  2
*U126
 70
     1
 10
0.0
 20
0.0
 30
0.0
  3
*U126
  1

  0
TEXT
  5
67C
  8
改訂
  6
CONTINUOUS
 10
1322.925809325375
 20
145.86604174780001
 30
0.0
 40
5.3974999188999986
  1
**********************
  0
ENDBLK
  5
67E
  8
0
  0
BLOCK
  8
0
  2
*U127
 70
     1
 10
0.0
 20
0.0
 30
0.0
  3
*U127
  1

  0
TEXT
  5
680
  8
改訂
  6
CONTINUOUS
 10
1269.5232722545361
 20
144.6522572131
 30
0.0
 40
5.397499935199999
  1
1
  0
ENDBLK
  5
682
  8
0
  0
BLOCK
  8
0
  2
*U128
 70
     1
 10
0.0
 20
0.0
 30
0.0
  3
*U128
  1

  0
TEXT
  5
684
  8
改訂
  6
CONTINUOUS
 10
1279.6254473091749
 20
145.86104174779999
 30
0.0
 40
5.3974999188999986
  1
H**.**.**
  0
ENDBLK
  5
686
  8
0
  0
BLOCK
  8
0
  2
*U129
 70
     1
 10
0.0
 20
0.0
 30
0.0
  3
*U129
  1

  0
TEXT
  5
688
  8
図枠
  6
CONTINUOUS
 10
1228.542085070563
 20
-349.94228864220003
 30
0.0
 40
5.9972220420999998
  1
1：2
  0
ENDBLK
  5
68A
  8
0
  0
BLOCK
  8
0
  2
*U130
 70
     1
 10
0.0
 20
0.0
 30
0.0
  3
*U130
  1

  0
TEXT
  5
68C
  8
図枠
  6
CONTINUOUS
 10
1304.1472744181569
 20
-308.38068037540012
 30
0.0
 40
5.9972220420999998
  1
SUS304 0.8t
  0
ENDBLK
  5
68E
  8
0
  0
BLOCK
  8
0
  2
*U131
 70
     1
 10
0.0
 20
0.0
 30
0.0
  3
*U131
  1

  0
TEXT
  5
690
  8
図枠
  6
CONTINUOUS
 10
1216.2602676883071
 20
-308.71555064171019
 30
0.0
 40
5.9972220420999998
  1
本   体
  0
ENDBLK
  5
692
  8
0
  0
BLOCK
  8
0
  2
*U132
 70
     1
 10
0.0
 20
0.0
 30
0.0
  3
*U132
  1

  0
TEXT
  5
694
  8
図枠
  6
CONTINUOUS
 10
1373.299532141795
 20
-389.4748471501
 30
0.0
 40
7.7963888167999986
  1
SHF00028
  0
ENDBLK
  5
696
  8
0
  0
BLOCK
  8
0
  2
*U133
 70
     1
 10
0.0
 20
0.0
 30
0.0
  3
*U133
  1

  0
TEXT
  5
698
  8
図枠
  6
CONTINUOUS
 10
1369.104520900268
 20
-367.87060292760248
 30
0.0
 40
7.7963888167999986
  1
FM10-50(D)
  0
ENDBLK
  5
69A
  8
0
  0
BLOCK
  8
0
  2
*U134
 70
     1
 10
0.0
 20
0.0
 30
0.0
  3
*U134
  1

  0
TEXT
  5
69C
  8
図枠
  6
CONTINUOUS
 10
1334.159285746794
 20
-345.87060292760248
 30
0.0
 40
7.7963888167999986
  1
ハイとーる(浅型 ・深型 )
  0
ENDBLK
  5
69E
  8
0
  0
BLOCK
  8
0
  2
*U135
 70
     1
 10
0.0
 20
0.0
 30
0.0
  3
*U135
  1

  0
TEXT
  5
6A0
  8
ﾚｲﾔ_1
  6
CONTINUOUS
 10
1368.0933118555999
 20
-52.464961787830958
 30
0.0
 40
5.9972220420999998
  1
（深型）
  0
ENDBLK
  5
6A2
  8
0
  0
BLOCK
  8
0
  2
*U136
 70
     1
 10
0.0
 20
0.0
 30
0.0
  3
*U136
  1

  0
TEXT
  5
6A4
  8
ﾚｲﾔ_1
  6
CONTINUOUS
 10
1279.7678332099999
 20
-52.586732793761932
 30
0.0
 40
5.9972220420999998
  1
（浅型）
  0
ENDBLK
  5
6A6
  8
0
  0
BLOCK
  8
0
  2
*U137
 70
     1
 10
0.0
 20
0.0
 30
0.0
  3
*U137
  1

  0
TEXT
  5
6A8
  8
図枠
  6
CONTINUOUS
 10
1226.184604671681
 20
-298.38068037540012
 30
0.0
 40
5.9972220420999998
  1
耳
  0
ENDBLK
  5
6AA
  8
0
  0
BLOCK
  8
0
  2
*U138
 70
     1
 10
0.0
 20
0.0
 30
0.0
  3
*U138
  1

  0
TEXT
  5
6AC
  8
図枠
  6
CONTINUOUS
 10
1304.1472744181569
 20
-298.38068037540012
 30
0.0
 40
5.9972220420999998
  1
SUS304 0.8t
  0
ENDBLK
  5
6AE
  8
0
  0
BLOCK
  8
0
  2
*U139
 70
     1
 10
0.0
 20
0.0
 30
0.0
  3
*U139
  1

  0
TEXT
  5
6B0
  8
図枠
  6
CONTINUOUS
 10
1378.584971239887
 20
-298.38068037540012
 30
0.0
 40
5.9972220420999998
  1
2
  0
ENDBLK
  5
6B2
  8
0
  0
BLOCK
  8
0
  2
*U140
 70
     1
 10
0.0
 20
0.0
 30
0.0
  3
*U140
  1

  0
TEXT
  5
6B4
  8
図枠
  6
CONTINUOUS
 10
1215.027336253256
 20
-288.68510789022741
 30
0.0
 40
5.9972220420999998
  1
蓋(目皿)
  0
ENDBLK
  5
6B6
  8
0
  0
BLOCK
  8
0
  2
*U141
 70
     1
 10
0.0
 20
0.0
 30
0.0
  3
*U141
  1

  0
TEXT
  5
6B8
  8
図枠
  6
CONTINUOUS
 10
1304.1472744181569
 20
-288.38068037540012
 30
0.0
 40
5.9972220420999998
  1
SUS304 1.5t
  0
ENDBLK
  5
6BA
  8
0
  0
BLOCK
  8
0
  2
*U142
 70
     1
 10
0.0
 20
0.0
 30
0.0
  3
*U142
  1

  0
TEXT
  5
6BC
  8
ﾚｲﾔ_1
  6
CONTINUOUS
 10
1284.7188405935999
 20
-227.5930291357619
 30
0.0
 40
5.9972220420999998
  1
（浅型）
  0
ENDBLK
  5
6BE
  8
0
  0
BLOCK
  8
0
  2
*U143
 70
     1
 10
0.0
 20
0.0
 30
0.0
  3
*U143
  1

  0
TEXT
  5
6C0
  8
ﾚｲﾔ_1
  6
CONTINUOUS
 10
815.17223792988204
 20
-126.33439510974461
 30
0.0
 40
5.9972220420999998
  1
20-小判穴
  0
ENDBLK
  5
6C2
  8
0
  0
BLOCK
  8
0
  2
*U144
 70
     1
 10
0.0
 20
0.0
 30
0.0
  3
*U144
  1

  0
TEXT
  5
6C4
  8
ﾚｲﾔ_1
  6
CONTINUOUS
 10
1374.1085385844999
 20
-227.47125812983089
 30
0.0
 40
5.9972220420999998
  1
（深型）
  0
ENDBLK
  5
6C6
  8
0
  0
BLOCK
  8
0
  2
*U145
 70
     1
 10
0.0
 20
0.0
 30
0.0
  3
*U145
  1

  0
TEXT
  5
6C8
  8
ﾚｲﾔ_1
  6
CONTINUOUS
 10
799.81859141174323
 20
-36.617795463700013
 30
0.0
 40
7.1966662884000003
  1
3
  0
ENDBLK
  5
6CA
  8
0
  0
BLOCK
  8
0
  2
*U146
 70
     1
 10
0.0
 20
0.0
 30
0.0
  3
*U146
  1

  0
TEXT
  5
6CC
  8
ﾚｲﾔ_1
  6
CONTINUOUS
 10
667.70710749154307
 20
-36.576281404700012
 30
0.0
 40
7.1966662884000003
  1
2
  0
ENDBLK
  5
6CE
  8
0
  0
BLOCK
  8
0
  2
*U147
 70
     1
 10
0.0
 20
0.0
 30
0.0
  3
*U147
  1

  0
TEXT
  5
6D0
  8
ﾚｲﾔ_1
  6
CONTINUOUS
 10
747.03805444522027
 20
-36.576281404700012
 30
0.0
 40
7.1966662884000003
  1
1
  0
ENDBLK
  5
6D2
  8
0
  0
ENDSEC
  0
SECTION
  2
ENTITIES
  0
INSERT
  5
2F
  8
0
  6
CONTINUOUS
  2
*U95
 10
0.0
 20
0.0
 30
0.0
  0
INSERT
  5
31
  8
図枠
  2
CLUMP0
 10
0.0
 20
0.0
 30
0.0
  0
INSERT
  5
D5
  8
0
  6
CONTINUOUS
  2
*U116
 10
0.0
 20
0.0
 30
0.0
  0
INSERT
  5
D6
  8
0
  6
CONTINUOUS
  2
*U117
 10
0.0
 20
0.0
 30
0.0
  0
INSERT
  5
D7
  8
0
  6
CONTINUOUS
  2
*U118
 10
0.0
 20
0.0
 30
0.0
  0
INSERT
  5
D8
  8
0
  6
CONTINUOUS
  2
*U119
 10
0.0
 20
0.0
 30
0.0
  0
INSERT
  5
D9
  8
0
  6
CONTINUOUS
  2
*U120
 10
0.0
 20
0.0
 30
0.0
  0
INSERT
  5
DA
  8
0
  6
CONTINUOUS
  2
*U121
 10
0.0
 20
0.0
 30
0.0
  0
INSERT
  5
DB
  8
0
  6
CONTINUOUS
  2
*U122
 10
0.0
 20
0.0
 30
0.0
  0
INSERT
  5
DC
  8
0
  6
CONTINUOUS
  2
*U123
 10
0.0
 20
0.0
 30
0.0
  0
INSERT
  5
DD
  8
0
  6
CONTINUOUS
  2
*U124
 10
0.0
 20
0.0
 30
0.0
  0
INSERT
  5
DF
  8
0
  6
CONTINUOUS
  2
*U125
 10
0.0
 20
0.0
 30
0.0
  0
INSERT
  5
E0
  8
0
  6
CONTINUOUS
  2
*U126
 10
0.0
 20
0.0
 30
0.0
  0
INSERT
  5
E1
  8
0
  6
CONTINUOUS
  2
*U127
 10
0.0
 20
0.0
 30
0.0
  0
INSERT
  5
E2
  8
0
  6
CONTINUOUS
  2
*U128
 10
0.0
 20
0.0
 30
0.0
  0
INSERT
  5
E3
  8
0
  6
CONTINUOUS
  2
*U129
 10
0.0
 20
0.0
 30
0.0
  0
INSERT
  5
E4
  8
0
  6
CONTINUOUS
  2
*U130
 10
0.0
 20
0.0
 30
0.0
  0
INSERT
  5
E5
  8
0
  6
CONTINUOUS
  2
*U131
 10
0.0
 20
0.0
 30
0.0
  0
INSERT
  5
E7
  8
図枠
  2
CLUMP1
 10
0.0
 20
0.0
 30
0.0
  0
INSERT
  5
F1
  8
図枠
  2
CLUMP2
 10
0.0
 20
0.0
 30
0.0
  0
INSERT
  5
FA
  8
0
  6
CONTINUOUS
  2
*U132
 10
0.0
 20
0.0
 30
0.0
  0
INSERT
  5
FB
  8
0
  6
CONTINUOUS
  2
*U133
 10
0.0
 20
0.0
 30
0.0
  0
INSERT
  5
FC
  8
0
  6
CONTINUOUS
  2
*U134
 10
0.0
 20
0.0
 30
0.0
  0
INSERT
  5
FE
  8
0
  6
CONTINUOUS
  2
*U135
 10
0.0
 20
0.0
 30
0.0
  0
INSERT
  5
FF
  8
0
  6
CONTINUOUS
  2
*U136
 10
0.0
 20
0.0
 30
0.0
  0
LINE
  5
100
  8
ﾚｲﾔ_1
 62
     5
 10
1181.97265625
 20
-134.05025376009999
 30
0.0
 11
1181.97265625
 21
-213.05025376009999
 31
0.0
  0
LINE
  5
101
  8
ﾚｲﾔ_1
  6
BORDER
 62
     3
 10
1285.6230879934001
 20
-173.55025376009999
 30
0.0
 11
1310.6230879934001
 21
-173.55025376009999
 31
0.0
  0
LINE
  5
102
  8
ﾚｲﾔ_1
 62
     5
 10
1305.6230879934001
 20
-211.55025376009999
 30
0.0
 11
1305.6230879934001
 21
-213.05025376009999
 31
0.0
  0
ARC
  5
103
  8
ﾚｲﾔ_1
 62
     5
 10
1293.1230879934001
 20
-211.55025376009999
 30
0.0
 40
1.5
 50
180.0
 51
270.0
  0
LINE
  5
104
  8
ﾚｲﾔ_1
 62
     5
 10
1293.1230879934001
 20
-211.55025376009999
 30
0.0
 11
1305.6230879934001
 21
-211.55025376009999
 31
0.0
  0
LINE
  5
105
  8
ﾚｲﾔ_1
 62
     5
 10
1293.1230879934001
 20
-213.05025376009999
 30
0.0
 11
1305.6230879934001
 21
-213.05025376009999
 31
0.0
  0
LINE
  5
106
  8
ﾚｲﾔ_1
 62
     5
 10
1293.1230879934001
 20
-135.55025376009999
 30
0.0
 11
1293.1230879934001
 21
-211.55025376009999
 31
0.0
  0
LINE
  5
107
  8
ﾚｲﾔ_1
 62
     5
 10
1291.6230879934001
 20
-135.5502532093
 30
0.0
 11
1291.6230879934001
 21
-211.55025376009999
 31
0.0
  0
LINE
  5
108
  8
ﾚｲﾔ_1
 62
     5
 10
1305.6230879934001
 20
-134.05025376009999
 30
0.0
 11
1305.6230879934001
 21
-135.55025376009999
 31
0.0
  0
LINE
  5
109
  8
ﾚｲﾔ_1
 62
     5
 10
1176.9726560019001
 20
-263.85266777409998
 30
0.0
 11
708.47265621320003
 21
-263.85266777409998
 31
0.0
  0
LINE
  5
10A
  8
ﾚｲﾔ_1
 62
     5
 10
703.47265625
 20
-249.85266777410001
 30
0.0
 11
1181.97265625
 21
-249.85266777410001
 31
0.0
  0
INSERT
  5
10C
  8
ﾚｲﾔ_1
  2
CLUMP3
 10
0.0
 20
0.0
 30
0.0
  0
INSERT
  5
114
  8
ﾚｲﾔ_1
  2
CLUMP4
 10
0.0
 20
0.0
 30
0.0
  0
INSERT
  5
11C
  8
ﾚｲﾔ_1
  2
CLUMP5
 10
0.0
 20
0.0
 30
0.0
  0
LINE
  5
123
  8
ﾚｲﾔ_1
 62
     5
 10
1375.3046875
 20
-135.55025376009999
 30
0.0
 11
1375.3046875
 21
-211.55025376009999
 31
0.0
  0
LINE
  5
124
  8
ﾚｲﾔ_1
 62
     5
 10
1376.8046875
 20
-134.05025376009999
 30
0.0
 11
1398.3046875
 21
-134.05025376009999
 31
0.0
  0
LINE
  5
125
  8
ﾚｲﾔ_1
 10
951.16159740809985
 20
-66.102046808799983
 30
0.0
 11
718.36159740810001
 21
-66.102046808799983
 31
0.0
  0
INSERT
  5
126
  8
0
  6
CONTINUOUS
  2
*U137
 10
0.0
 20
0.0
 30
0.0
  0
INSERT
  5
127
  8
0
  6
CONTINUOUS
  2
*U138
 10
0.0
 20
0.0
 30
0.0
  0
INSERT
  5
128
  8
0
  6
CONTINUOUS
  2
*U139
 10
0.0
 20
0.0
 30
0.0
  0
INSERT
  5
12A
  8
図枠
  2
CLUMP6
 10
0.0
 20
0.0
 30
0.0
  0
INSERT
  5
133
  8
0
  6
CONTINUOUS
  2
*U140
 10
0.0
 20
0.0
 30
0.0
  0
INSERT
  5
134
  8
0
  6
CONTINUOUS
  2
*U141
 10
0.0
 20
0.0
 30
0.0
  0
LINE
  5
135
  8
ﾚｲﾔ_1
  6
STITCH
 10
703.47265625
 20
-135.55025376009999
 30
0.0
 11
1181.97265625
 21
-135.55025376009999
 31
0.0
  0
LINE
  5
136
  8
ﾚｲﾔ_1
  6
STITCH
 10
703.47265625
 20
-211.55025376009999
 30
0.0
 11
1181.97265625
 21
-211.55025376009999
 31
0.0
  0
LINE
  5
137
  8
ﾚｲﾔ_1
 62
     5
 10
703.47265625
 20
-213.05025376009999
 30
0.0
 11
1181.97265625
 21
-213.05025376009999
 31
0.0
  0
LINE
  5
138
  8
ﾚｲﾔ_1
 62
     5
 10
703.47265625
 20
-134.05025376009999
 30
0.0
 11
1181.97265625
 21
-134.05025376009999
 31
0.0
  0
LINE
  5
139
  8
ﾚｲﾔ_1
  6
BORDER
 62
     3
 10
698.47265625
 20
-173.55025376009999
 30
0.0
 11
1186.97265625
 21
-173.55025376009999
 31
0.0
  0
LINE
  5
13A
  8
ﾚｲﾔ_1
  6
STITCH
 10
703.47265625
 20
-251.35266777410001
 30
0.0
 11
1181.97265625
 21
-251.35266777410001
 31
0.0
  0
INSERT
  5
13C
  8
ﾚｲﾔ_1
  2
CLUMP7
 10
0.0
 20
0.0
 30
0.0
  0
INSERT
  5
144
  8
ﾚｲﾔ_1
  2
CLUMP8
 10
0.0
 20
0.0
 30
0.0
  0
CIRCLE
  5
14B
  8
ﾚｲﾔ_1
 62
     5
 10
1155.72265625
 20
-173.55025376009999
 30
0.0
 40
7.5
  0
INSERT
  5
14D
  8
ﾚｲﾔ_1
  2
CLUMP9
 10
0.0
 20
0.0
 30
0.0
  0
INSERT
  5
155
  8
ﾚｲﾔ_1
  2
CLUMP10
 10
0.0
 20
0.0
 30
0.0
  0
ARC
  5
15C
  8
ﾚｲﾔ_1
 62
     5
 10
1176.97265625
 20
-258.85266777409998
 30
0.0
 40
5.0
 50
269.99999715709998
 51
0.0
  0
LINE
  5
15D
  8
ﾚｲﾔ_1
 62
     5
 10
1398.3046875
 20
-211.55025376009999
 30
0.0
 11
1398.3046875
 21
-213.05025376009999
 31
0.0
  0
LINE
  5
15E
  8
ﾚｲﾔ_1
 62
     5
 10
1376.8046875
 20
-135.55025376009999
 30
0.0
 11
1376.8046875
 21
-211.55025376009999
 31
0.0
  0
LINE
  5
15F
  8
ﾚｲﾔ_1
  6
BORDER
 62
     3
 10
1368.3046875
 20
-173.55025376009999
 30
0.0
 11
1403.3046875
 21
-173.55025376009999
 31
0.0
  0
LINE
  5
160
  8
ﾚｲﾔ_1
 62
     5
 10
1376.8046875
 20
-135.55025376009999
 30
0.0
 11
1398.3046875
 21
-135.55025376009999
 31
0.0
  0
ARC
  5
161
  8
ﾚｲﾔ_1
 62
     5
 10
1376.8046875
 20
-135.55025376009999
 30
0.0
 40
1.5
 50
90.0
 51
180.0
  0
LINE
  5
162
  8
ﾚｲﾔ_1
 10
702.16159740809985
 20
-56.3020468088
 30
0.0
 11
951.16159740809985
 21
-56.3020468088
 31
0.0
  0
LINE
  5
163
  8
ﾚｲﾔ_1
 62
     5
 10
703.47265625
 20
-213.05025376009999
 30
0.0
 11
703.47265625
 21
-134.05025376009999
 31
0.0
  0
INSERT
  5
165
  8
ﾚｲﾔ_1
  2
CLUMP11
 10
0.0
 20
0.0
 30
0.0
  0
LINE
  5
16C
  8
ﾚｲﾔ_1
 62
     5
 10
702.16159740809985
 20
82.180586083699978
 30
0.0
 11
702.16159740809985
 21
-15.8194139163
 31
0.0
  0
INSERT
  5
16E
  8
ﾚｲﾔ_1
  2
CLUMP12
 10
0.0
 20
0.0
 30
0.0
  0
INSERT
  5
175
  8
0
  6
CONTINUOUS
  2
*U142
 10
0.0
 20
0.0
 30
0.0
  0
INSERT
  5
176
  8
0
  6
CONTINUOUS
  2
*U143
 10
0.0
 20
0.0
 30
0.0
  0
INSERT
  5
177
  8
0
  6
CONTINUOUS
  2
*U144
 10
0.0
 20
0.0
 30
0.0
  0
LINE
  5
178
  8
ﾚｲﾔ_1
 62
     5
 10
1191.1615974081001
 20
-65.3020468088
 30
0.0
 11
951.16159740809985
 21
-65.3020468088
 31
0.0
  0
LINE
  5
179
  8
ﾚｲﾔ_1
 62
     5
 10
1200.1615974081001
 20
82.180586083699978
 30
0.0
 11
702.16159740809985
 21
82.180586083699978
 31
0.0
  0
LINE
  5
17A
  8
ﾚｲﾔ_1
 62
     5
 10
711.16159740809985
 20
73.180586083699993
 30
0.0
 11
1191.1615974081001
 21
73.180586083699993
 31
0.0
  0
LINE
  5
17B
  8
ﾚｲﾔ_1
 62
     5
 10
1191.1615974081001
 20
-6.8194139163000003
 30
0.0
 11
711.16159740809985
 21
-6.8194139163000003
 31
0.0
  0
LINE
  5
17C
  8
ﾚｲﾔ_1
  6
BORDER
 62
     3
 10
697.16159740809985
 20
33.1805860837
 30
0.0
 11
1205.1615974081001
 21
33.1805860837
 31
0.0
  0
INSERT
  5
17E
  8
ﾚｲﾔ_1
  2
CLUMP13
 10
0.0
 20
0.0
 30
0.0
  0
LINE
  5
185
  8
ﾚｲﾔ_1
 62
     5
 10
702.16159740809985
 20
-15.8194139163
 30
0.0
 11
1200.1615974081001
 21
-15.8194139163
 31
0.0
  0
LINE
  5
186
  8
ﾚｲﾔ_1
  6
STITCH
 10
711.91159740809985
 20
71.180586083699993
 30
0.0
 11
1190.4115974081001
 21
71.180586083699993
 31
0.0
  0
LINE
  5
187
  8
ﾚｲﾔ_1
  6
STITCH
 10
711.91159740809985
 20
-4.8194139163000003
 30
0.0
 11
1190.4115974081001
 21
-4.8194139163000003
 31
0.0
  0
LINE
  5
188
  8
ﾚｲﾔ_1
 62
     5
 10
711.91159740809985
 20
-6.3194139163000003
 30
0.0
 11
1190.4115974081001
 21
-6.3194139163000003
 31
0.0
  0
INSERT
  5
18A
  8
ﾚｲﾔ_1
  2
CLUMP14
 10
0.0
 20
0.0
 30
0.0
  0
INSERT
  5
192
  8
ﾚｲﾔ_1
  2
CLUMP15
 10
0.0
 20
0.0
 30
0.0
  0
ARC
  5
199
  8
ﾚｲﾔ_1
 62
     5
 10
708.47265625
 20
-258.85266777409998
 30
0.0
 40
5.0
 50
180.0
 51
269.99999957839998
  0
LINE
  5
19A
  8
ﾚｲﾔ_1
 62
     5
 10
703.47265625
 20
-249.85266777410001
 30
0.0
 11
703.47265625
 21
-258.85266777409998
 31
0.0
  0
LINE
  5
19B
  8
ﾚｲﾔ_1
 10
800.72265624999989
 20
-145.05025376009999
 30
0.0
 11
814.3857472842999
 21
-127.5623591132
 31
0.0
  0
SOLID
  5
19C
  8
ﾚｲﾔ_1
 10
800.72265624999989
 20
-145.05025376009999
 30
0.0
 11
802.1496999361998
 21
-141.6883662134
 31
0.0
 12
802.31261333719988
 22
-143.01520898410001
 32
0.0
 13
802.31261333719988
 23
-143.01520898410001
 33
0.0
  0
SOLID
  5
19D
  8
ﾚｲﾔ_1
 10
800.72265624999989
 20
-145.05025376009999
 30
0.0
 11
803.63945610789995
 21
-142.852295583
 31
0.0
 12
802.31261333719988
 22
-143.01520898410001
 32
0.0
 13
802.31261333719988
 23
-143.01520898410001
 33
0.0
  0
LINE
  5
19E
  8
ﾚｲﾔ_1
 10
814.3857472842999
 20
-127.5623591132
 30
0.0
 11
856.52457930470007
 21
-127.5623591132
 31
0.0
  0
ARC
  5
19F
  8
ﾚｲﾔ_1
 10
710.36159740810001
 20
-79.502046808800003
 30
0.0
 40
0.8
 50
270.0
 51
0.0
  0
LINE
  5
1A0
  8
ﾚｲﾔ_1
  6
BORDER
 62
     3
 10
729.72265625
 20
-161.05025376009999
 30
0.0
 11
729.72265625
 21
-186.05025376009999
 31
0.0
  0
LINE
  5
1A1
  8
ﾚｲﾔ_1
 10
719.16156432339994
 20
-74.3020468088
 30
0.0
 11
951.16159740809985
 21
-74.3020468088
 31
0.0
  0
LINE
  5
1A2
  8
ﾚｲﾔ_1
 62
     5
 10
1190.4115974081001
 20
-53.8020468088
 30
0.0
 11
1190.4115974081001
 21
-60.3020468088
 31
0.0
  0
ARC
  5
1A3
  8
ﾚｲﾔ_1
 62
     5
 10
1199.3615974080999
 20
-79.502046808800003
 30
0.0
 40
0.8
 50
270.0
 51
0.0
  0
INSERT
  5
1A5
  8
ﾚｲﾔ_1
  2
CLUMP16
 10
0.0
 20
0.0
 30
0.0
  0
LINE
  5
1AC
  8
ﾚｲﾔ_1
 62
     5
 10
1376.8046875
 20
-211.55025376009999
 30
0.0
 11
1398.3046875
 21
-211.55025376009999
 31
0.0
  0
INSERT
  5
1AE
  8
ﾚｲﾔ_1
  2
CLUMP17
 10
0.0
 20
0.0
 30
0.0
  0
LINE
  5
1B5
  8
ﾚｲﾔ_1
 62
     5
 10
1293.1230879934001
 20
-134.05025376009999
 30
0.0
 11
1305.6230879934001
 21
-134.05025376009999
 31
0.0
  0
LINE
  5
1B6
  8
ﾚｲﾔ_1
 10
702.96159740809992
 20
-74.3020468088
 30
0.0
 11
702.16159740809985
 21
-74.3020468088
 31
0.0
  0
LINE
  5
1B7
  8
ﾚｲﾔ_1
 10
702.96159740809992
 20
-79.502046808800003
 30
0.0
 11
702.96159740809992
 21
-74.3020468088
 31
0.0
  0
LINE
  5
1B8
  8
ﾚｲﾔ_1
  6
BORDER
 62
     3
 10
951.16159740809985
 20
-45.302046808799993
 30
0.0
 11
951.16159740809985
 21
-85.3020468088
 31
0.0
  0
CIRCLE
  5
1B9
  8
ﾚｲﾔ_1
 62
     5
 10
738.16159740809985
 20
33.1805860837
 30
0.0
 40
7.5
  0
INSERT
  5
1BB
  8
ﾚｲﾔ_1
  2
CLUMP18
 10
0.0
 20
0.0
 30
0.0
  0
LINE
  5
1C2
  8
ﾚｲﾔ_1
 62
     5
 10
711.16159740809985
 20
-6.8194139163000003
 30
0.0
 11
711.16159740809985
 21
73.180586083699993
 31
0.0
  0
LINE
  5
1C3
  8
ﾚｲﾔ_1
 62
     5
 10
711.91159740809985
 20
72.680586083699993
 30
0.0
 11
1190.4115974081001
 21
72.680586083699993
 31
0.0
  0
LINE
  5
1C4
  8
ﾚｲﾔ_1
 62
     5
 10
1191.9615974081
 20
-50.3020468088
 30
0.0
 11
951.16159740809985
 21
-50.3020468088
 31
0.0
  0
LINE
  5
1C5
  8
ﾚｲﾔ_1
 62
     5
 10
1187.9115974081001
 20
-53.3020468088
 30
0.0
 11
951.16159740809985
 21
-53.3020468088
 31
0.0
  0
LINE
  5
1C6
  8
ﾚｲﾔ_1
 62
     5
 10
951.16159740809985
 20
-51.3020468088
 30
0.0
 11
1187.9115974081001
 21
-51.3020468088
 31
0.0
  0
LINE
  5
1C7
  8
ﾚｲﾔ_1
 62
     5
 10
1181.97265625
 20
-249.85266777410001
 30
0.0
 11
1181.97265625
 21
-258.85266777409998
 31
0.0
  0
INSERT
  5
1C9
  8
ﾚｲﾔ_1
  2
CLUMP19
 10
0.0
 20
0.0
 30
0.0
  0
INSERT
  5
1D1
  8
ﾚｲﾔ_1
  2
CLUMP20
 10
0.0
 20
0.0
 30
0.0
  0
CIRCLE
  5
1D8
  8
ﾚｲﾔ_1
 62
     5
 10
729.72265625
 20
-173.55025376009999
 30
0.0
 40
7.5
  0
INSERT
  5
1DA
  8
ﾚｲﾔ_1
  2
CLUMP21
 10
0.0
 20
0.0
 30
0.0
  0
INSERT
  5
1E2
  8
ﾚｲﾔ_1
  2
CLUMP22
 10
0.0
 20
0.0
 30
0.0
  0
LINE
  5
1E9
  8
ﾚｲﾔ_1
 62
     5
 10
1191.9615974081
 20
-79.502046808800003
 30
0.0
 11
1199.3615974080999
 21
-79.502046808800003
 31
0.0
  0
INSERT
  5
1EB
  8
ﾚｲﾔ_1
  2
CLUMP23
 10
0.0
 20
0.0
 30
0.0
  0
ARC
  5
1F2
  8
ﾚｲﾔ_1
 62
     5
 10
1199.3615974080999
 20
-51.102046808799997
 30
0.0
 40
0.8
 50
0.0
 51
90.0
  0
LINE
  5
1F3
  8
ﾚｲﾔ_1
 62
     5
 10
1190.4115974081001
 20
72.680586083699993
 30
0.0
 11
1190.4115974081001
 21
-6.3194139163000003
 31
0.0
  0
LINE
  5
1F4
  8
ﾚｲﾔ_1
 62
     5
 10
1200.1615974081001
 20
-79.502046808800003
 30
0.0
 11
1200.1615974081001
 21
-74.3020468088
 31
0.0
  0
LINE
  5
1F5
  8
ﾚｲﾔ_1
  6
BORDER
 62
     3
 10
942.72265624999989
 20
-244.85266777410001
 30
0.0
 11
942.72265610759985
 21
-268.85266777409998
 31
0.0
  0
LINE
  5
1F6
  8
ﾚｲﾔ_1
 62
     5
 10
1293.1230879934001
 20
-135.55025376009999
 30
0.0
 11
1305.6230879934001
 21
-135.55025376009999
 31
0.0
  0
INSERT
  5
1F8
  8
ﾚｲﾔ_1
  2
CLUMP24
 10
0.0
 20
0.0
 30
0.0
  0
ARC
  5
1FF
  8
ﾚｲﾔ_1
 62
     5
 10
1293.1230879934001
 20
-135.55025376009999
 30
0.0
 40
1.5
 50
90.0
 51
179.99997896209999
  0
INSERT
  5
201
  8
ﾚｲﾔ_1
  2
CLUMP25
 10
0.0
 20
0.0
 30
0.0
  0
INSERT
  5
209
  8
ﾚｲﾔ_1
  2
CLUMP26
 10
0.0
 20
0.0
 30
0.0
  0
INSERT
  5
211
  8
ﾚｲﾔ_1
  2
CLUMP27
 10
0.0
 20
0.0
 30
0.0
  0
INSERT
  5
219
  8
ﾚｲﾔ_1
  2
CLUMP28
 10
0.0
 20
0.0
 30
0.0
  0
INSERT
  5
221
  8
ﾚｲﾔ_1
  2
CLUMP29
 10
0.0
 20
0.0
 30
0.0
  0
INSERT
  5
229
  8
ﾚｲﾔ_1
  2
CLUMP30
 10
0.0
 20
0.0
 30
0.0
  0
INSERT
  5
231
  8
ﾚｲﾔ_1
  2
CLUMP31
 10
0.0
 20
0.0
 30
0.0
  0
INSERT
  5
239
  8
ﾚｲﾔ_1
  2
CLUMP32
 10
0.0
 20
0.0
 30
0.0
  0
INSERT
  5
241
  8
ﾚｲﾔ_1
  2
CLUMP33
 10
0.0
 20
0.0
 30
0.0
  0
INSERT
  5
249
  8
ﾚｲﾔ_1
  2
CLUMP34
 10
0.0
 20
0.0
 30
0.0
  0
LINE
  5
250
  8
ﾚｲﾔ_1
 62
     5
 10
711.91159740809985
 20
-6.3194139163000003
 30
0.0
 11
711.91159740809985
 21
72.680586083699993
 31
0.0
  0
LINE
  5
251
  8
ﾚｲﾔ_1
 10
951.16159740809985
 20
-80.3020468088
 30
0.0
 11
702.96159740809992
 21
-80.3020468088
 31
0.0
  0
ARC
  5
252
  8
ﾚｲﾔ_1
 10
702.96159740809992
 20
-51.102046808799997
 30
0.0
 40
0.8
 50
90.0
 51
180.0
  0
LINE
  5
253
  8
ﾚｲﾔ_1
 10
702.16159740809985
 20
-79.502046808800003
 30
0.0
 11
702.16159740809985
 21
-74.3020468088
 31
0.0
  0
ARC
  5
254
  8
ﾚｲﾔ_1
 10
702.96159740809992
 20
-79.502046808800003
 30
0.0
 40
0.8
 50
180.0
 51
270.0
  0
LINE
  5
255
  8
ﾚｲﾔ_1
 10
718.36159740810001
 20
-56.3020468088
 30
0.0
 11
718.36159740810001
 21
-79.502046808800003
 31
0.0
  0
INSERT
  5
257
  8
ﾚｲﾔ_1
 62
     5
  2
CLUMP35
 10
0.0
 20
0.0
 30
0.0
  0
LINE
  5
273
  8
ﾚｲﾔ_1
 62
     5
 10
1376.8046875
 20
-213.05025376009999
 30
0.0
 11
1398.3046875
 21
-213.05025376009999
 31
0.0
  0
LINE
  5
274
  8
ﾚｲﾔ_1
 62
     5
 10
1406.2506599081
 20
68.981044335600004
 30
0.0
 11
1406.2506599081
 21
-2.6189556644
 31
0.0
  0
LINE
  5
275
  8
ﾚｲﾔ_1
  6
BORDER
 62
     3
 10
1346.2506599081
 20
33.181044335599999
 30
0.0
 11
1411.2506599081
 21
33.181044335599999
 31
0.0
  0
ARC
  5
276
  8
ﾚｲﾔ_1
 62
     5
 10
1191.9615974081
 20
-79.502046808800003
 30
0.0
 40
0.8
 50
180.0
 51
270.0
  0
LINE
  5
277
  8
ﾚｲﾔ_1
 10
702.96159740809992
 20
-50.3020468088
 30
0.0
 11
951.16159740809985
 21
-50.3020468088
 31
0.0
  0
ARC
  5
278
  8
ﾚｲﾔ_1
 62
     5
 10
1376.8046875
 20
-211.55025376009999
 30
0.0
 40
1.5
 50
180.0
 51
270.0
  0
LINE
  5
279
  8
ﾚｲﾔ_1
 10
719.16156432339994
 20
-74.3020468088
 30
0.0
 11
719.16156432339994
 21
-80.3020468088
 31
0.0
  0
LINE
  5
27A
  8
ﾚｲﾔ_1
 10
702.16159740809985
 20
-56.3020468088
 30
0.0
 11
702.16159740809985
 21
-51.102046808799997
 31
0.0
  0
LINE
  5
27B
  8
ﾚｲﾔ_1
 62
     5
 10
1192.7615974081
 20
-80.3020468088
 30
0.0
 11
1199.3615974080999
 21
-80.3020468088
 31
0.0
  0
LINE
  5
27C
  8
ﾚｲﾔ_1
 62
     5
 10
1199.3615974080999
 20
-74.3020468088
 30
0.0
 11
1199.3615974080999
 21
-79.502046808800003
 31
0.0
  0
LINE
  5
27D
  8
ﾚｲﾔ_1
 62
     5
 10
1200.1615974081001
 20
-74.3020468088
 30
0.0
 11
1199.3615974080999
 21
-74.3020468088
 31
0.0
  0
LINE
  5
27E
  8
ﾚｲﾔ_1
 62
     5
 10
1191.9615974081
 20
-51.102046808799997
 30
0.0
 11
1199.3615974080999
 21
-51.102046808799997
 31
0.0
  0
LINE
  5
27F
  8
ﾚｲﾔ_1
 62
     5
 10
1200.1615974081001
 20
-56.3020468088
 30
0.0
 11
1200.1615974081001
 21
-51.102046808799997
 31
0.0
  0
LINE
  5
280
  8
ﾚｲﾔ_1
 62
     5
 10
1190.4115974081001
 20
-53.8020468088
 30
0.0
 11
1190.4115974081001
 21
-51.3020468088
 31
0.0
  0
LINE
  5
281
  8
ﾚｲﾔ_1
 62
     5
 10
1187.9115974081001
 20
-51.3020468088
 30
0.0
 11
1190.4115974081001
 21
-51.3020468088
 31
0.0
  0
LINE
  5
282
  8
ﾚｲﾔ_1
 62
     5
 10
1199.3615974080999
 20
-51.102046808799997
 30
0.0
 11
1199.3615974080999
 21
-56.3020468088
 31
0.0
  0
LINE
  5
283
  8
ﾚｲﾔ_1
 62
     5
 10
1199.3615974080999
 20
-56.3020468088
 30
0.0
 11
1200.1615974081001
 21
-56.3020468088
 31
0.0
  0
LINE
  5
284
  8
ﾚｲﾔ_1
 62
     5
 10
1191.1615974081001
 20
-65.3020468088
 30
0.0
 11
1191.1615974081001
 21
-79.502046808800003
 31
0.0
  0
LINE
  5
285
  8
ﾚｲﾔ_1
 62
     5
 10
1185.4115974081001
 20
-65.3020468088
 30
0.0
 11
1185.4615974081
 21
-65.3020468088
 31
0.0
  0
ARC
  5
286
  8
ﾚｲﾔ_1
 62
     5
 10
1185.4115974081001
 20
-60.3020468088
 30
0.0
 40
5.0
 50
270.0
 51
0.0
  0
ARC
  5
287
  8
ﾚｲﾔ_1
 62
     5
 10
1191.9615974081
 20
-51.102046808799997
 30
0.0
 40
0.8
 50
90.0
 51
180.0
  0
LINE
  5
288
  8
ﾚｲﾔ_1
 62
     5
 10
1191.9615974081
 20
-65.3020468088
 30
0.0
 11
1191.9615974081
 21
-79.502046808800003
 31
0.0
  0
LINE
  5
289
  8
ﾚｲﾔ_1
 62
     5
 10
1191.1615974081001
 20
-51.102046808799997
 30
0.0
 11
1191.1615974081001
 21
-65.3020468088
 31
0.0
  0
LINE
  5
28A
  8
ﾚｲﾔ_1
 62
     5
 10
1199.3615974080999
 20
-50.3020468088
 30
0.0
 11
1191.9615974081
 21
-50.3020468088
 31
0.0
  0
LINE
  5
28B
  8
ﾚｲﾔ_1
 62
     5
 10
1351.2506599081
 20
-7.6189556643999996
 30
0.0
 11
1351.2506599081
 21
73.981044335600004
 31
0.0
  0
LINE
  5
28C
  8
ﾚｲﾔ_1
 62
     5
 10
1398.3046875
 20
-134.05025376009999
 30
0.0
 11
1398.3046875
 21
-135.55025376009999
 31
0.0
  0
LINE
  5
28D
  8
ﾚｲﾔ_1
  6
BORDER
 62
     3
 10
942.72265624999989
 20
-218.05025376009999
 30
0.0
 11
942.72265624999989
 21
-129.05025376009999
 31
0.0
  0
LINE
  5
28E
  8
ﾚｲﾔ_1
 62
     5
 10
1376.2506599081
 20
-4.8189556643999989
 30
0.0
 11
1376.2506599081
 21
-1.8189556643999989
 31
0.0
  0
LINE
  5
28F
  8
ﾚｲﾔ_1
  6
BORDER
 62
     3
 10
738.16159740809985
 20
45.6805860837
 30
0.0
 11
738.16159740809985
 21
20.6805860837
 31
0.0
  0
LINE
  5
290
  8
ﾚｲﾔ_1
  6
BORDER
 62
     3
 10
951.16159740809985
 20
-20.8194139163
 30
0.0
 11
951.16159740809985
 21
87.180586083700007
 31
0.0
  0
LINE
  5
291
  8
ﾚｲﾔ_1
  6
BORDER
 62
     3
 10
1155.72265625
 20
-161.05025376009999
 30
0.0
 11
1155.72265625
 21
-186.05025376009999
 31
0.0
  0
INSERT
  5
293
  8
ﾚｲﾔ_1
  2
CLUMP36
 10
0.0
 20
0.0
 30
0.0
  0
INSERT
  5
29B
  8
ﾚｲﾔ_1
  2
CLUMP37
 10
0.0
 20
0.0
 30
0.0
  0
LINE
  5
2A2
  8
ﾚｲﾔ_1
 62
     5
 10
1191.1615974081001
 20
73.180586083699993
 30
0.0
 11
1191.1615974081001
 21
-6.8194139163000003
 31
0.0
  0
INSERT
  5
2A4
  8
ﾚｲﾔ_1
  2
CLUMP38
 10
0.0
 20
0.0
 30
0.0
  0
LINE
  5
2AB
  8
ﾚｲﾔ_1
 62
     5
 10
1308.4053430678
 20
67.481044335600004
 30
0.0
 11
1308.4053430678
 21
33.181044335599999
 31
0.0
  0
LINE
  5
2AC
  8
ﾚｲﾔ_1
 62
     5
 10
1308.4053430678
 20
-1.1189556644
 30
0.0
 11
1308.4053430678
 21
33.181044335599999
 31
0.0
  0
LINE
  5
2AD
  8
ﾚｲﾔ_1
 62
     5
 10
1278.4053430678
 20
-7.6189556643999996
 30
0.0
 11
1278.4053430678
 21
33.181044335599999
 31
0.0
  0
LINE
  5
2AE
  8
ﾚｲﾔ_1
  6
BORDER
 62
     3
 10
1273.4053430678
 20
33.181044335599999
 30
0.0
 11
1313.4053430678
 21
33.181044335599999
 31
0.0
  0
LINE
  5
2AF
  8
ﾚｲﾔ_1
  6
BORDER
 62
     3
 10
1164.1615974081001
 20
45.6805860837
 30
0.0
 11
1164.1615974081001
 21
20.6805860837
 31
0.0
  0
CIRCLE
  5
2B0
  8
ﾚｲﾔ_1
 62
     5
 10
1164.1615974081001
 20
33.1805860837
 30
0.0
 40
7.5
  0
INSERT
  5
2B2
  8
ﾚｲﾔ_1
  2
CLUMP39
 10
0.0
 20
0.0
 30
0.0
  0
LINE
  5
2B9
  8
ﾚｲﾔ_1
 62
     5
 10
1278.4053430678
 20
73.981044335600004
 30
0.0
 11
1278.4053430678
 21
33.181044335599999
 31
0.0
  0
INSERT
  5
2BB
  8
ﾚｲﾔ_1
 62
     5
  2
CLUMP40
 10
0.0
 20
0.0
 30
0.0
  0
INSERT
  5
2D9
  8
ﾚｲﾔ_1
 62
     5
  2
CLUMP41
 10
0.0
 20
0.0
 30
0.0
  0
INSERT
  5
2F7
  8
ﾚｲﾔ_1
 62
     5
  2
CLUMP42
 10
0.0
 20
0.0
 30
0.0
  0
LINE
  5
303
  8
ﾚｲﾔ_1
 62
     5
 10
1200.1615974081001
 20
-15.8194139163
 30
0.0
 11
1200.1615974081001
 21
82.180586083699978
 31
0.0
  0
LINE
  5
304
  8
ﾚｲﾔ_1
 62
     5
 10
1376.2506599081
 20
73.181044335600006
 30
0.0
 11
1376.2506599081
 21
72.681044335600006
 31
0.0
  0
LINE
  5
305
  8
ﾚｲﾔ_1
 62
     5
 10
1376.2506599081
 20
71.181044335600006
 30
0.0
 11
1376.2506599081
 21
68.181044335600006
 31
0.0
  0
INSERT
  5
307
  8
ﾚｲﾔ_1
 62
     5
  2
CLUMP43
 10
0.0
 20
0.0
 30
0.0
  0
INSERT
  5
314
  8
ﾚｲﾔ_1
 62
     5
  2
CLUMP44
 10
0.0
 20
0.0
 30
0.0
  0
INSERT
  5
331
  8
ﾚｲﾔ_1
  2
CLUMP45
 10
0.0
 20
0.0
 30
0.0
  0
LINE
  5
338
  8
ﾚｲﾔ_1
 10
710.36159740810001
 20
-56.3020468088
 30
0.0
 11
710.36159740810001
 21
-79.502046808800003
 31
0.0
  0
LINE
  5
339
  8
ﾚｲﾔ_1
 62
     5
 10
1191.9615974081
 20
-65.3020468088
 30
0.0
 11
1191.9615974081
 21
-51.102046808799997
 31
0.0
  0
LINE
  5
33A
  8
ﾚｲﾔ_1
 10
719.16156432339994
 20
-79.502046808800003
 30
0.0
 11
702.96159740809992
 21
-79.502046808800003
 31
0.0
  0
INSERT
  5
33C
  8
ﾚｲﾔ_1
  2
CLUMP46
 10
0.0
 20
0.0
 30
0.0
  0
LINE
  5
343
  8
ﾚｲﾔ_1
 62
     5
 10
1199.3615974080999
 20
-56.3020468088
 30
0.0
 11
1191.9615974081
 21
-56.3020468088
 31
0.0
  0
LINE
  5
344
  8
ﾚｲﾔ_1
 62
     5
 10
1192.7615974081
 20
-80.3020468088
 30
0.0
 11
1185.4615974081
 21
-80.3020468088
 31
0.0
  0
DIMENSION
  5
355
  8
寸法線
  2
*D47
 10
1221.3419105185001
 20
-80.3020468088
 30
0.0
 11
1221.3419105185001
 21
-77.3020468088
 31
0.0
 70
   128
  1
<>
 13
1199.3615974080999
 23
-80.3020468088
 33
0.0
 14
1200.1615974081001
 24
-74.3020468088
 34
0.0
 50
90.0
  0
DIMENSION
  5
364
  8
寸法線
  2
*D48
 10
1221.3419105185001
 20
-56.3020468088
 30
0.0
 11
1221.3419105185001
 21
-53.3020468088
 31
0.0
 70
   128
  1
<>
 13
1200.1615974081001
 23
-56.3020468088
 33
0.0
 14
1199.3615974080999
 24
-50.3020468088
 34
0.0
 50
90.0
  0
DIMENSION
  5
373
  8
寸法線
  2
*D49
 10
1293.4053430678
 20
108.22802347690001
 30
0.0
 11
1285.7863473119
 21
108.22802347690001
 31
0.0
 70
   128
  1
<>
 13
1293.4053430678
 23
73.181044335600006
 33
0.0
 14
1278.4053430678
 24
81.381044335599995
 34
0.0
  0
DIMENSION
  5
382
  8
寸法線
  2
*D50
 10
1308.4053430678
 20
108.2280204251
 30
0.0
 11
1300.9053430678
 21
108.2280204251
 31
0.0
 70
   128
  1
<>
 13
1308.4053430678
 23
82.181044335600006
 33
0.0
 14
1293.4053430678
 24
73.181044335600006
 34
0.0
  0
DIMENSION
  5
391
  8
寸法線
  2
*D51
 10
1200.1615974081001
 20
108.02933142969999
 30
0.0
 11
1195.6615974081001
 21
108.02933142969999
 31
0.0
 70
   128
  1
<>
 13
1200.1615974081001
 23
82.180586083699978
 33
0.0
 14
1191.1615974081001
 24
73.180586083699993
 34
0.0
  0
DIMENSION
  5
3A0
  8
寸法線
  2
*D52
 10
1239.3303176535001
 20
-15.8194139163
 30
0.0
 11
1239.3303176535001
 21
33.1805860837
 31
0.0
 70
   128
  1
<>
 13
1200.1615974081001
 23
-15.8194139163
 33
0.0
 14
1200.1615974081001
 24
82.180586083699978
 34
0.0
 50
90.0
  0
DIMENSION
  5
3AF
  8
寸法線
  2
*D53
 10
1406.2506599081
 20
122.6091861203
 30
0.0
 11
1378.7506599081
 21
122.6091861203
 31
0.0
 70
   128
  1
<>
 13
1406.2506599081
 23
81.381044335599995
 33
0.0
 14
1351.2506599081
 24
81.381044335599995
 34
0.0
  0
DIMENSION
  5
3BE
  8
寸法線
  2
*D54
 10
1308.4053430678
 20
122.6464213803
 30
0.0
 11
1293.4053430678
 21
122.6464213803
 31
0.0
 70
   128
  1
<>
 13
1308.4053430678
 23
81.381044335599995
 33
0.0
 14
1278.4053430678
 24
81.381044335599995
 34
0.0
  0
DIMENSION
  5
3CD
  8
寸法線
  2
*D55
 10
1200.1615974081001
 20
122.7881185849
 30
0.0
 11
951.16159740809985
 21
122.7881185849
 31
0.0
 70
   128
  1
<>
 13
1200.1615974081001
 23
82.180586083699978
 33
0.0
 14
702.16159740809985
 24
82.180586083699978
 34
0.0
  0
DIMENSION
  5
3DC
  8
寸法線
  2
*D56
 10
1191.1615974081001
 20
108.0293295224
 30
0.0
 11
951.16159740809985
 21
108.0293295224
 31
0.0
 70
   128
  1
<>
 13
1191.1615974081001
 23
73.180586083699993
 33
0.0
 14
711.16159740809985
 24
73.180586083699993
 34
0.0
  0
DIMENSION
  5
3EB
  8
寸法線
  2
*D57
 10
1227.3249522818001
 20
-15.8194139163
 30
0.0
 11
1227.3249522818001
 21
-11.3194139163
 31
0.0
 70
   128
  1
<>
 13
1200.1615974081001
 23
-15.8194139163
 33
0.0
 14
1191.1615974081001
 24
-6.8194139163000003
 34
0.0
 50
90.0
  0
DIMENSION
  5
3FA
  8
寸法線
  2
*D58
 10
711.16159740809985
 20
108.0293333371
 30
0.0
 11
706.66159740809985
 21
108.0293333371
 31
0.0
 70
   128
  1
<>
 13
711.16159740809985
 23
73.180586083699993
 33
0.0
 14
702.16159740809985
 24
82.180586083699978
 34
0.0
  0
DIMENSION
  5
402
  8
寸法線
  2
*D59
 10
1176.97265625
 20
-258.85266777409998
 30
0.0
 11
1238.8869514474
 21
-247.39731689920001
 31
0.0
 70
   132
  1
<>
 15
1180.5081901558999
 25
-262.3882016801
 35
0.0
 40
0.0
  0
DIMENSION
  5
411
  8
寸法線
  2
*D60
 10
1305.6230879934001
 20
-114.05025376010001
 30
0.0
 11
1298.6230879934001
 21
-114.05025376010001
 31
0.0
 70
   128
  1
<>
 13
1305.6230879934001
 23
-134.05025376009999
 33
0.0
 14
1291.6230879934001
 24
-135.5502532093
 34
0.0
  0
DIMENSION
  5
420
  8
寸法線
  2
*D61
 10
1398.3046875
 20
-114.05025376010001
 30
0.0
 11
1386.8046875
 21
-114.05025376010001
 31
0.0
 70
   128
  1
<>
 13
1398.3046875
 23
-134.05025376009999
 33
0.0
 14
1375.3046875
 24
-135.55025376009999
 34
0.0
  0
DIMENSION
  5
42F
  8
寸法線
  2
*D62
 10
1201.97265625
 20
-198.55025376009999
 30
0.0
 11
1201.97265625
 21
-186.05025376009999
 31
0.0
 70
   128
  1
<>
 13
1166.72265625
 23
-198.55025376009999
 33
0.0
 14
1186.97265625
 24
-173.55025376009999
 34
0.0
 50
90.0
  0
DIMENSION
  5
43E
  8
寸法線
  2
*D63
 10
942.72265624999989
 20
-233.05025376009999
 30
0.0
 11
978.22265625
 21
-233.05025376009999
 31
0.0
 70
   128
  1
<>
 13
942.72265624999989
 23
-218.05025376009999
 33
0.0
 14
1013.72265625
 24
-202.05025376009999
 34
0.0
 50
180.0
  0
DIMENSION
  5
44D
  8
寸法線
  2
*D64
 10
703.47265625
 20
-233.05025376009999
 30
0.0
 11
716.59765625
 21
-233.05025376009999
 31
0.0
 70
   128
  1
<>
 13
703.47265625
 23
-213.05025376009999
 33
0.0
 14
729.72265625
 24
-202.05025376009999
 34
0.0
 50
180.0
  0
DIMENSION
  5
45C
  8
寸法線
  2
*D65
 10
729.72265625
 20
-233.05025376009999
 30
0.0
 11
765.22265625
 21
-233.05025376009999
 31
0.0
 70
   128
  1
<>
 13
729.72265625
 23
-202.05025376009999
 33
0.0
 14
800.72265624999989
 24
-202.05025376009999
 34
0.0
 50
180.0
  0
DIMENSION
  5
46B
  8
寸法線
  2
*D66
 10
1181.97265625
 20
-114.05025376010001
 30
0.0
 11
942.72265624999989
 21
-114.05025376010001
 31
0.0
 70
   128
  1
<>
 13
1181.97265625
 23
-134.05025376009999
 33
0.0
 14
703.47265625
 24
-134.05025376009999
 34
0.0
  0
LINE
  5
46C
  8
ﾚｲﾔ_1
 62
     5
 10
1187.9115974081001
 20
-53.3020468088
 30
0.0
 11
1190.4115974081001
 21
-53.3020468088
 31
0.0
  0
LINE
  5
46D
  8
ﾚｲﾔ_1
 62
     5
 10
1185.4615974081
 20
-80.3020468088
 30
0.0
 11
951.16159740809985
 21
-80.3020468088
 31
0.0
  0
INSERT
  5
46F
  8
ﾚｲﾔ_1
  2
CLUMP47
 10
0.0
 20
0.0
 30
0.0
  0
INSERT
  5
477
  8
ﾚｲﾔ_1
  2
CLUMP48
 10
0.0
 20
0.0
 30
0.0
  0
INSERT
  5
47F
  8
ﾚｲﾔ_1
  2
CLUMP49
 10
0.0
 20
0.0
 30
0.0
  0
DIMENSION
  5
494
  8
寸法線
  2
*D70
 10
1201.97265625
 20
-173.55025376009999
 30
0.0
 11
1201.97265625
 21
-161.05025376009999
 31
0.0
 70
   128
  1
<>
 13
1186.97265625
 23
-173.55025376009999
 33
0.0
 14
1166.72265625
 24
-148.55025376009999
 34
0.0
 50
90.0
  0
DIMENSION
  5
4A3
  8
寸法線
  2
*D71
 10
1201.97265625
 20
-148.55025376009999
 30
0.0
 11
1201.97265625
 21
-141.30025376009999
 31
0.0
 70
   128
  1
<>
 13
1166.72265625
 23
-148.55025376009999
 33
0.0
 14
1181.97265625
 24
-134.05025376009999
 34
0.0
 50
90.0
  0
DIMENSION
  5
4B2
  8
寸法線
  2
*D72
 10
1013.72265625
 20
-233.05025376009999
 30
0.0
 11
1049.22265625
 21
-233.05025376009999
 31
0.0
 70
   128
  1
<>
 13
1013.72265625
 23
-202.05025376009999
 33
0.0
 14
1084.72265625
 24
-202.05025376009999
 34
0.0
 50
180.0
  0
DIMENSION
  5
4C1
  8
寸法線
  2
*D73
 10
1201.97265625
 20
-213.05025376009999
 30
0.0
 11
1201.97265625
 21
-205.80025376009999
 31
0.0
 70
   128
  1
<>
 13
1181.97265625
 23
-213.05025376009999
 33
0.0
 14
1166.72265625
 24
-198.55025376009999
 34
0.0
 50
90.0
  0
DIMENSION
  5
4D0
  8
寸法線
  2
*D74
 10
1084.72265625
 20
-233.05025376009999
 30
0.0
 11
1120.22265625
 21
-233.05025376009999
 31
0.0
 70
   128
  1
<>
 13
1084.72265625
 23
-202.05025376009999
 33
0.0
 14
1155.72265625
 24
-202.05025376009999
 34
0.0
 50
180.0
  0
DIMENSION
  5
4DF
  8
寸法線
  2
*D75
 10
1155.72265625
 20
-233.05025376009999
 30
0.0
 11
1168.84765625
 21
-233.05025376009999
 31
0.0
 70
   128
  1
<>
 13
1155.72265625
 23
-202.05025376009999
 33
0.0
 14
1181.97265625
 24
-213.05025376009999
 34
0.0
 50
180.0
  0
DIMENSION
  5
4EE
  8
寸法線
  2
*D76
 10
800.72265624999989
 20
-233.05025376009999
 30
0.0
 11
836.22265625
 21
-233.05025376009999
 31
0.0
 70
   128
  1
<>
 13
800.72265624999989
 23
-202.05025376009999
 33
0.0
 14
871.72265625
 24
-202.05025376009999
 34
0.0
 50
180.0
  0
DIMENSION
  5
4FD
  8
寸法線
  2
*D77
 10
871.72265625
 20
-233.05025376009999
 30
0.0
 11
907.22265625
 21
-233.05025376009999
 31
0.0
 70
   128
  1
<>
 13
871.72265625
 23
-202.05025376009999
 33
0.0
 14
942.72265624999989
 24
-218.05025376009999
 34
0.0
 50
180.0
  0
DIMENSION
  5
50C
  8
寸法線
  2
*D78
 10
824.22265625
 20
-202.05025376009999
 30
0.0
 11
824.22265625
 21
-198.55025376009999
 31
0.0
 70
   128
  1
<>
 13
808.22265625
 23
-202.05025376009999
 33
0.0
 14
808.22265625
 24
-195.05025376009999
 34
0.0
 50
90.0
  0
DIMENSION
  5
513
  8
寸法線
  2
*D79
 10
709.60195565419997
 20
-183.6198248938
 30
0.0
 11
719.55386076369984
 21
-193.17003743570001
 31
0.0
 70
   131
  1
2-Φ15
 15
722.9935577908999
 25
-176.86223714280001
 35
0.0
 40
0.0
  0
DIMENSION
  5
522
  8
寸法線
  2
*D80
 10
811.72265625
 20
-185.81034458799999
 30
0.0
 11
800.72265624999989
 21
-185.81034458799999
 31
0.0
 70
   128
  1
<>
 13
811.72265625
 23
-198.55025376009999
 33
0.0
 14
789.72265625
 24
-198.55025376009999
 34
0.0
  0
DIMENSION
  5
531
  8
寸法線
  2
*D81
 10
1216.0766105652001
 20
-213.05025376009999
 30
0.0
 11
1216.0766105652001
 21
-173.55025376009999
 31
0.0
 70
   128
  1
<>
 13
1181.97265625
 23
-213.05025376009999
 33
0.0
 14
1181.97265625
 24
-134.05025376009999
 34
0.0
 50
90.0
  0
DIMENSION
  5
540
  8
寸法線
  2
*D82
 10
1376.2506599081
 20
110.7553794339
 30
0.0
 11
1363.7506599081
 21
110.7553794339
 31
0.0
 70
   128
  1
<>
 13
1376.2506599081
 23
73.181044335600006
 33
0.0
 14
1351.2506599081
 24
82.181044335600006
 34
0.0
  0
DIMENSION
  5
54F
  8
寸法線
  2
*D83
 10
1406.2506599081
 20
110.7553794339
 30
0.0
 11
1391.2506599081
 21
110.7553794339
 31
0.0
 70
   128
  1
<>
 13
1406.2506599081
 23
82.181044335600006
 33
0.0
 14
1376.2506599081
 24
73.181044335600006
 34
0.0
  0
DIMENSION
  5
55E
  8
寸法線
  2
*D84
 10
1227.3249541891
 20
-6.8194139163000003
 30
0.0
 11
1227.3249541891
 21
33.1805860837
 31
0.0
 70
   128
  1
<>
 13
1191.1615974081001
 23
-6.8194139163000003
 33
0.0
 14
1191.1615974081001
 24
73.180586083699993
 34
0.0
 50
90.0
  0
DIMENSION
  5
56D
  8
寸法線
  2
*D85
 10
1227.3249522818001
 20
73.180586083699993
 30
0.0
 11
1227.3249522818001
 21
77.680586083699993
 31
0.0
 70
   128
  1
<>
 13
1191.1615974081001
 23
73.180586083699993
 33
0.0
 14
1200.1615974081001
 24
82.180586083699978
 34
0.0
 50
90.0
  0
DIMENSION
  5
57C
  8
寸法線
  2
*D86
 10
1327.0461313369001
 20
-0.3189556644
 30
0.0
 11
1327.0461313369001
 21
33.181044335599999
 31
0.0
 70
   128
  1
<>
 13
1307.6053430678
 23
-0.3189556644
 33
0.0
 14
1307.6053430678
 24
66.681044335600006
 34
0.0
 50
90.0
  0
INSERT
  5
57E
  8
寸法線
  2
BALLON0
 10
0.0
 20
0.0
 30
0.0
  0
INSERT
  5
588
  8
寸法線
  2
BALLON1
 10
0.0
 20
0.0
 30
0.0
  0
INSERT
  5
592
  8
寸法線
  2
BALLON2
 10
0.0
 20
0.0
 30
0.0
  0
DIMENSION
  5
5A9
  8
寸法線
  2
*D90
 10
1327.0885145309001
 20
66.681044335600006
 30
0.0
 11
1327.0885145309001
 21
94.857072587299996
 31
0.0
 70
   128
  1
15.5
 13
1307.6053430678
 23
66.681044335600006
 33
0.0
 14
1305.0053430677999
 24
82.181044335600006
 34
0.0
 50
90.0
  0
DIMENSION
  5
5B8
  8
寸法線
  2
*D91
 10
1327.0568239332999
 20
-15.818955664400001
 30
0.0
 11
1327.0568239332999
 21
-28.198525671700001
 31
0.0
 70
   128
  1
15.5
 13
1307.6053430678
 23
-15.818955664400001
 33
0.0
 14
1307.6053430678
 24
-0.3189556644
 34
0.0
 50
90.0
  0
DIMENSION
  5
5C7
  8
寸法線
  2
*D92
 10
1422.2506599081
 20
-15.818955664400001
 30
0.0
 11
1422.2506599081
 21
-8.8189556644000007
 31
0.0
 70
   128
  1
14
 13
1406.2506599081
 23
-15.818955664400001
 33
0.0
 14
1406.2506599081
 24
-1.8189556643999989
 34
0.0
 50
90.0
  0
DIMENSION
  5
5D6
  8
寸法線
  2
*D93
 10
1422.2506599081
 20
-1.8189556643999989
 30
0.0
 11
1422.2506599081
 21
33.181044335599999
 31
0.0
 70
   128
  1
<>
 13
1406.2506599081
 23
-1.8189556643999989
 33
0.0
 14
1406.2506599081
 24
68.181044335600006
 34
0.0
 50
90.0
  0
DIMENSION
  5
5E5
  8
寸法線
  2
*D94
 10
1422.2506599081
 20
68.181044335600006
 30
0.0
 11
1422.2506599081
 21
75.181044335600006
 31
0.0
 70
   128
  1
14
 13
1406.2506599081
 23
68.181044335600006
 33
0.0
 14
1406.2506599081
 24
82.181044335600006
 34
0.0
 50
90.0
  0
ENDSEC
  0
EOF
