  0
SECTION
  2
HEADER
  9
$ACADVER
  1
AC1009
  9
$INSBASE
 10
0.0
 20
0.0
 30
0.0
  9
$EXTMIN
 10
324.56003878429999
 20
-581.20554907719986
 30
0.0
  9
$EXTMAX
 10
1349.4600387843
 20
139.9444509228
 30
0.0
  9
$LIMMIN
 10
0.0
 20
0.0
  9
$LIMMAX
 10
0.0
 20
0.0
  9
$ORTHOMODE
 70
     0
  9
$REGENMODE
 70
     1
  9
$FILLMODE
 70
     1
  9
$QTEXTMODE
 70
     0
  9
$MIRRTEXT
 70
     1
  9
$DRAGMODE
 70
     2
  9
$LTSCALE
 40
1.0
  9
$OSMODE
 70
    31
  9
$ATTMODE
 70
     1
  9
$TEXTSIZE
 40
0.0
  9
$TRACEWID
 40
0.05
  9
$TEXTSTYLE
  7
STANDARD
  9
$CLAYER
  8
0
  9
$CELTYPE
  6
CONTINUOUS
  9
$CECOLOR
 62
   256
  9
$DIMSCALE
 40
1.0
  9
$DIMASZ
 40
0.18
  9
$DIMEXO
 40
0.0625
  9
$DIMDLI
 40
0.38
  9
$DIMRND
 40
0.0
  9
$DIMDLE
 40
0.0
  9
$DIMEXE
 40
0.18
  9
$DIMTP
 40
0.0
  9
$DIMTM
 40
0.0
  9
$DIMTXT
 40
0.18
  9
$DIMCEN
 40
0.09
  9
$DIMTSZ
 40
0.0
  9
$DIMTOL
 70
     0
  9
$DIMLIM
 70
     0
  9
$DIMTIH
 70
     1
  9
$DIMTOH
 70
     1
  9
$DIMSE1
 70
     0
  9
$DIMSE2
 70
     0
  9
$DIMTAD
 70
     0
  9
$DIMZIN
 70
     0
  9
$DIMBLK
  1

  9
$DIMASO
 70
     1
  9
$DIMSHO
 70
     1
  9
$DIMPOST
  1

  9
$DIMAPOST
  1

  9
$DIMALT
 70
     0
  9
$DIMALTD
 70
     2
  9
$DIMALTF
 40
25.399999999999999
  9
$DIMLFAC
 40
1.0
  9
$DIMTOFL
 70
     0
  9
$DIMTVP
 40
0.0
  9
$DIMTIX
 70
     0
  9
$DIMSOXD
 70
     0
  9
$DIMSAH
 70
     0
  9
$DIMBLK1
  1

  9
$DIMBLK2
  1

  9
$DIMSTYLE
  2
STANDARD
  9
$DIMCLRD
 70
     0
  9
$DIMCLRE
 70
     0
  9
$DIMCLRT
 70
     0
  9
$DIMTFAC
 40
1.0
  9
$DIMGAP
 40
0.09
  9
$LUNITS
 70
     2
  9
$LUPREC
 70
     4
  9
$SKETCHINC
 40
0.1
  9
$FILLETRAD
 40
0.0
  9
$AUNITS
 70
     0
  9
$AUPREC
 70
     0
  9
$MENU
  1
acad
  9
$ELEVATION
 40
0.0
  9
$PELEVATION
 40
0.0
  9
$THICKNESS
 40
0.0
  9
$LIMCHECK
 70
     0
  9
$BLIPMODE
 70
     0
  9
$CHAMFERA
 40
0.0
  9
$CHAMFERB
 40
0.0
  9
$SKPOLY
 70
     0
  9
$TDCREATE
 40
2454859.7065870948
  9
$TDUPDATE
 40
2454859.7243938078
  9
$TDINDWG
 40
0.0120766551
  9
$TDUSRTIMER
 40
0.0120761111
  9
$USRTIMER
 70
     1
  9
$ANGBASE
 50
0.0
  9
$ANGDIR
 70
     0
  9
$PDMODE
 70
     3
  9
$PDSIZE
 40
-1.0
  9
$PLINEWID
 40
0.0
  9
$COORDS
 70
     2
  9
$SPLFRAME
 70
     0
  9
$SPLINETYPE
 70
     6
  9
$SPLINESEGS
 70
     8
  9
$ATTDIA
 70
     0
  9
$ATTREQ
 70
     1
  9
$HANDLING
 70
     1
  9
$HANDSEED
  5
1075
  9
$SURFTAB1
 70
     6
  9
$SURFTAB2
 70
     6
  9
$SURFTYPE
 70
     6
  9
$SURFU
 70
     6
  9
$SURFV
 70
     6
  9
$UCSNAME
  2

  9
$UCSORG
 10
0.0
 20
0.0
 30
0.0
  9
$UCSXDIR
 10
1.0
 20
0.0
 30
0.0
  9
$UCSYDIR
 10
0.0
 20
1.0
 30
0.0
  9
$PUCSNAME
  2

  9
$PUCSORG
 10
0.0
 20
0.0
 30
0.0
  9
$PUCSXDIR
 10
1.0
 20
0.0
 30
0.0
  9
$PUCSYDIR
 10
0.0
 20
1.0
 30
0.0
  9
$USERI1
 70
     0
  9
$USERI2
 70
     0
  9
$USERI3
 70
     0
  9
$USERI4
 70
     0
  9
$USERI5
 70
     0
  9
$USERR1
 40
0.0
  9
$USERR2
 40
0.0
  9
$USERR3
 40
0.0
  9
$USERR4
 40
0.0
  9
$USERR5
 40
0.0
  9
$WORLDVIEW
 70
     1
  9
$SHADEDGE
 70
     3
  9
$SHADEDIF
 70
    70
  9
$TILEMODE
 70
     1
  9
$MAXACTVP
 70
    16
  9
$PLIMCHECK
 70
     0
  9
$PEXTMIN
 10
1.0000000000000000E+020
 20
1.0000000000000000E+020
 30
1.0000000000000000E+020
  9
$PEXTMAX
 10
-1.0000000000000000E+020
 20
-1.0000000000000000E+020
 30
-1.0000000000000000E+020
  9
$PLIMMIN
 10
0.0
 20
0.0
  9
$PLIMMAX
 10
12.0
 20
9.0
  9
$UNITMODE
 70
     0
  9
$VISRETAIN
 70
     0
  9
$PLINEGEN
 70
     1
  9
$PSLTSCALE
 70
     0
  0
ENDSEC
  0
SECTION
  2
TABLES
  0
TABLE
  2
VPORT
 70
     2
  0
VPORT
  2
*ACTIVE
 70
     0
 10
0.0
 20
0.0
 11
1.0
 21
1.0
 12
836.9880962340518
 22
-220.6254764693191
 13
0.0
 23
0.0
 14
1.0
 24
1.0
 15
0.0
 25
0.0
 16
0.0
 26
0.0
 36
1.0
 17
0.0
 27
0.0
 37
0.0
 40
727.66675481236041
 41
1.6343490304709141
 42
50.0
 43
0.0
 44
0.0
 50
0.0
 51
0.0
 71
     0
 72
   100
 73
     1
 74
     1
 75
     0
 76
     0
 77
     0
 78
     0
  0
ENDTAB
  0
TABLE
  2
LTYPE
 70
    11
  0
LTYPE
  2
CONTINUOUS
 70
     0
  3
Solid line
 72
    65
 73
     0
 40
0.0
  0
LTYPE
  2
DOT
 70
     0
  3
. . . . . . . . 
 72
    65
 73
     2
 40
1.0
 49
0.0
 49
-1.0
  0
LTYPE
  2
DASHED
 70
     0
  3
___  ___  ___  ___  
 72
    65
 73
     2
 40
4.0
 49
3.0
 49
-1.0
  0
LTYPE
  2
HIDDEN
 70
     0
  3
__ __ __ __ 
 72
    65
 73
     2
 40
3.0
 49
2.0
 49
-1.0
  0
LTYPE
  2
STITCH
 70
     0
  3
_ _ _ _ 
 72
    65
 73
     2
 40
2.0
 49
1.0
 49
-1.0
  0
LTYPE
  2
CENTER
 70
     0
  3
______  __  ______  __  
 72
    65
 73
     4
 40
43.0
 49
40.0
 49
-1.0
 49
1.0
 49
-1.0
  0
LTYPE
  2
DASHDOT
 70
     0
  3
____ . ____ . 
 72
    65
 73
     4
 40
32.0
 49
30.0
 49
-1.0
 49
0.0
 49
-1.0
  0
LTYPE
  2
BORDER
 70
     0
  3
__ . __ . 
 72
    65
 73
     4
 40
22.0
 49
20.0
 49
-1.0
 49
0.0
 49
-1.0
  0
LTYPE
  2
CUTTING
 70
     0
  3
________   ___   ___   
 72
    65
 73
     6
 40
45.0
 49
40.0
 49
-1.0
 49
1.0
 49
-1.0
 49
1.0
 49
-1.0
  0
LTYPE
  2
PHANTOM
 70
     0
  3
______  __  __  
 72
    65
 73
     6
 40
35.0
 49
30.0
 49
-1.0
 49
1.0
 49
-1.0
 49
1.0
 49
-1.0
  0
LTYPE
  2
DIVIDE
 70
     0
  3
____ . . ____ . . 
 72
    65
 73
     6
 40
23.0
 49
20.0
 49
-1.0
 49
0.0
 49
-1.0
 49
0.0
 49
-1.0
  0
ENDTAB
  0
TABLE
  2
LAYER
 70
     5
  0
LAYER
  2
0
 70
     0
 62
     7
  6
CONTINUOUS
  0
LAYER
  2
É}ÿg
 70
     0
 62
     7
  6
CONTINUOUS
  0
LAYER
  2
Éíû@É³
 70
     0
 62
     7
  6
CONTINUOUS
  0
LAYER
  2
ë³Æ¨
 70
     0
 62
     7
  6
CONTINUOUS
  0
LAYER
  2
┌▓È_1
 70
     0
 62
     7
  6
CONTINUOUS
  0
ENDTAB
  0
TABLE
  2
STYLE
 70
     1
  0
STYLE
  2
STANDARD
 70
     0
 40
0.0
 41
1.0
 50
0.0
 71
     0
 42
0.0
  3
txt
  4
extfont
  0
ENDTAB
  0
TABLE
  2
VIEW
 70
     0
  0
ENDTAB
  0
TABLE
  2
UCS
 70
     0
  0
ENDTAB
  0
TABLE
  2
APPID
 70
     2
  0
APPID
  2
ACAD
 70
     0
  0
APPID
  2
DCO15
 70
     0
  0
ENDTAB
  0
TABLE
  2
DIMSTYLE
 70
     4
  0
DIMSTYLE
  2
STANDARD
 70
     0
  3

  4

  5

  6

  7

 40
1.0
 41
0.18
 42
0.0625
 43
0.38
 44
0.18
 45
0.0
 46
0.0
 47
0.0
 48
0.0
140
0.18
141
0.09
142
0.0
143
25.399999999999999
144
1.0
145
0.0
146
1.0
147
0.09
 71
     0
 72
     0
 73
     1
 74
     1
 75
     0
 76
     0
 77
     0
 78
     0
170
     0
171
     2
172
     0
173
     0
174
     0
175
     0
176
     0
177
     0
178
     0
  0
DIMSTYLE
  2
VELDIM0
 70
     0
  3

  4

  5

  6

  7

 40
1.0
 41
7.5
 42
0.0625
 43
0.38
 44
0.5
 45
0.0
 46
3.0
 47
0.0
 48
0.0
140
8.9958330630999992
141
0.09
142
0.0
143
25.399999999999999
144
1.0
145
0.0
146
1.0
147
0.09
 71
     0
 72
     0
 73
     0
 74
     0
 75
     0
 76
     0
 77
     0
 78
     8
170
     0
171
     2
172
     0
173
     0
174
     0
175
     0
176
     0
177
     0
178
     0
  0
DIMSTYLE
  2
VELDIM1
 70
     0
  3

  4

  5

  6

  7

 40
1.0
 41
7.5
 42
0.0625
 43
0.38
 44
1.25
 45
0.0
 46
5.0
 47
0.0
 48
0.0
140
8.9958330630999992
141
0.09
142
0.0
143
25.399999999999999
144
1.0
145
0.0
146
1.0
147
0.09
 71
     0
 72
     0
 73
     0
 74
     0
 75
     0
 76
     0
 77
     0
 78
     8
170
     0
171
     2
172
     0
173
     0
174
     0
175
     0
176
     0
177
     0
178
     0
  0
DIMSTYLE
  2
VELDIM2
 70
     0
  3

  4

  5

  6

  7

 40
1.0
 41
7.5
 42
0.0625
 43
0.38
 44
1.25
 45
0.0
 46
7.5
 47
0.0
 48
0.0
140
8.9958330630999992
141
0.09
142
0.0
143
25.399999999999999
144
1.0
145
0.0
146
1.0
147
0.09
 71
     0
 72
     0
 73
     0
 74
     0
 75
     0
 76
     0
 77
     0
 78
     8
170
     0
171
     2
172
     0
173
     0
174
     0
175
     0
176
     0
177
     0
178
     0
  0
ENDTAB
  0
ENDSEC
  0
SECTION
  2
BLOCKS
  0
BLOCK
  8
0
  2
$MODEL_SPACE
 70
     0
 10
0.0
 20
0.0
 30
0.0
  3
$MODEL_SPACE
  1

  0
ENDBLK
  5
E
  8
0
  0
BLOCK
 67
     1
  8
0
  2
$PAPER_SPACE
 70
     0
 10
0.0
 20
0.0
 30
0.0
  3
$PAPER_SPACE
  1

  0
ENDBLK
  5
10
 67
     1
  8
0
  0
BLOCK
  8
0
  2
*D0
 70
     1
 10
0.0
 20
0.0
 30
0.0
  3
*D0
  1

  0
TEXT
  5
43
  8
0
 62
     0
 10
687.23839656399991
 20
-326.81137128950002
 30
0.0
 40
8.9958330630999992
  1
50
 50
90.0
  0
LINE
  5
44
  8
0
 62
     0
 10
673.72315527490002
 20
-347.26970478179999
 30
0.0
 11
690.32589651640001
 21
-347.26970478179999
 31
0.0
  0
LINE
  5
45
  8
0
 62
     0
 10
671.26253918689986
 20
-295.76970478179999
 30
0.0
 11
690.32589651640001
 21
-295.76970478179999
 31
0.0
  0
LINE
  5
46
  8
0
 62
     0
 10
689.82589651640001
 20
-347.26970478179999
 30
0.0
 11
689.82589651640001
 21
-310.93637176639999
 31
0.0
  0
LINE
  5
47
  8
0
 62
     0
 10
689.82589651640001
 20
-347.26970478179999
 30
0.0
 11
689.82589651640001
 21
-332.10303779729998
 31
0.0
  0
LINE
  5
48
  8
0
 62
     0
 10
689.82589651640001
 20
-295.76970478179999
 30
0.0
 11
689.82589651640001
 21
-310.93637176639999
 31
0.0
  0
LINE
  5
49
  8
0
 62
     0
 10
689.82589651640001
 20
-295.76970478179999
 30
0.0
 11
689.82589651640001
 21
-332.10303779729998
 31
0.0
  0
LINE
  5
4A
  8
0
 62
     0
 10
689.82589651640001
 20
-295.76970478179999
 30
0.0
 11
689.82589651640001
 21
-298.76970478179999
 31
0.0
  0
SOLID
  5
4B
  8
0
 62
     0
 10
689.82589651640001
 20
-295.76970478179999
 30
0.0
 11
691.70089651640001
 21
-303.26970478179999
 31
0.0
 12
687.95089651639989
 22
-303.26970478179999
 32
0.0
 13
689.82589651640001
 23
-301.39470478179999
 33
0.0
  0
LINE
  5
4C
  8
0
 62
     0
 10
689.82589651640001
 20
-347.26970478179999
 30
0.0
 11
689.82589651640001
 21
-344.26970478179999
 31
0.0
  0
SOLID
  5
4D
  8
0
 62
     0
 10
689.82589651640001
 20
-347.26970478179999
 30
0.0
 11
687.95089651639989
 21
-339.76970478179999
 31
0.0
 12
691.70089651640001
 22
-339.76970478179999
 32
0.0
 13
689.82589651640001
 23
-341.64470478179999
 33
0.0
  0
ENDBLK
  5
4E
  8
0
  0
BLOCK
  8
0
  2
*D1
 70
     1
 10
0.0
 20
0.0
 30
0.0
  3
*D1
  1

  0
TEXT
  5
53
  8
0
 62
     0
 10
689.60058868689998
 20
-468.82057375089988
 30
0.0
 40
8.9958330630999992
  1
%%c83.6
  0
LINE
  5
54
  8
0
 62
     0
 10
662.12265687859986
 20
-421.21360806600001
 30
0.0
 11
662.12265687859986
 21
-471.90807370319988
 31
0.0
  0
LINE
  5
55
  8
0
 62
     0
 10
745.74171407860001
 20
-421.21360806600001
 30
0.0
 11
745.74171407860001
 21
-471.90807370319988
 31
0.0
  0
LINE
  5
56
  8
0
 62
     0
 10
662.12265687859986
 20
-471.40807370319988
 30
0.0
 11
723.55544877809996
 21
-471.40807370319988
 31
0.0
  0
LINE
  5
57
  8
0
 62
     0
 10
662.12265687859986
 20
-471.40807370319988
 30
0.0
 11
684.30892217919995
 21
-471.40807370319988
 31
0.0
  0
LINE
  5
58
  8
0
 62
     0
 10
745.74171407860001
 20
-471.40807370319988
 30
0.0
 11
723.55544877809996
 21
-471.40807370319988
 31
0.0
  0
LINE
  5
59
  8
0
 62
     0
 10
745.74171407860001
 20
-471.40807370319988
 30
0.0
 11
684.30892217919995
 21
-471.40807370319988
 31
0.0
  0
LINE
  5
5A
  8
0
 62
     0
 10
745.74171407860001
 20
-471.40807370319988
 30
0.0
 11
742.7417140785999
 21
-471.40807370319988
 31
0.0
  0
SOLID
  5
5B
  8
0
 62
     0
 10
745.74171407860001
 20
-471.40807370319988
 30
0.0
 11
738.2417140785999
 21
-473.28307370319988
 31
0.0
 12
738.2417140785999
 22
-469.53307370319999
 32
0.0
 13
740.11671407860001
 23
-471.40807370319988
 33
0.0
  0
LINE
  5
5C
  8
0
 62
     0
 10
662.12265687859986
 20
-471.40807370319988
 30
0.0
 11
665.12265687859986
 21
-471.40807370319988
 31
0.0
  0
SOLID
  5
5D
  8
0
 62
     0
 10
662.12265687859986
 20
-471.40807370319988
 30
0.0
 11
669.62265687859986
 21
-469.53307370319999
 31
0.0
 12
669.62265687859986
 22
-473.28307370319988
 32
0.0
 13
667.74765687859997
 23
-471.40807370319988
 33
0.0
  0
ENDBLK
  5
5E
  8
0
  0
BLOCK
  8
0
  2
*D2
 70
     1
 10
0.0
 20
0.0
 30
0.0
  3
*D2
  1

  0
TEXT
  5
63
  8
0
 62
     0
 10
532.93273905950002
 20
-24.726271513699999
 30
0.0
 40
8.9958330630999992
  1
2-%%c 14
 50
33.5320275447
  0
LINE
  5
64
  8
0
 62
     0
 10
518.31824038900004
 20
-38.8548493686
 30
0.0
 11
568.61290124339985
 21
-5.5250940189999991
 31
0.0
  0
SOLID
  5
65
  8
0
 62
     0
 10
518.31824038900004
 20
-38.8548493686
 30
0.0
 11
523.53431345859985
 21
-33.148869458699998
 31
0.0
 12
525.60582481979998
 22
-36.274783833800001
 32
0.0
 13
523.0071119516
 23
-35.7475823268
 33
0.0
  0
ENDBLK
  5
66
  8
0
  0
BLOCK
  8
0
  2
*D3
 70
     1
 10
0.0
 20
0.0
 30
0.0
  3
*D3
  1

  0
TEXT
  5
6A
  8
0
 62
     0
 10
474.1919911581
 20
-187.18269505929999
 30
0.0
 40
8.9958330630999992
  1
13
  0
LINE
  5
6B
  8
0
 62
     0
 10
485.9841151096
 20
-213.77019501160001
 30
0.0
 11
485.9841151096
 21
-189.27019501160001
 31
0.0
  0
LINE
  5
6C
  8
0
 62
     0
 10
472.98320022209998
 20
-213.77019501160001
 30
0.0
 11
472.98320022209998
 21
-189.27019501160001
 31
0.0
  0
LINE
  5
6D
  8
0
 62
     0
 10
485.9841151096
 20
-189.77019501160001
 30
0.0
 11
485.9841151096
 21
-189.77019501160001
 31
0.0
  0
LINE
  5
6E
  8
0
 62
     0
 10
485.9841151096
 20
-189.77019501160001
 30
0.0
 11
472.98320022209998
 21
-189.77019501160001
 31
0.0
  0
LINE
  5
6F
  8
0
 62
     0
 10
472.98320022209998
 20
-189.77019501160001
 30
0.0
 11
485.9841151096
 21
-189.77019501160001
 31
0.0
  0
LINE
  5
70
  8
0
 62
     0
 10
472.98320022209998
 20
-189.77019501160001
 30
0.0
 11
472.98320022209998
 21
-189.77019501160001
 31
0.0
  0
LINE
  5
71
  8
0
 62
     0
 10
472.98320022209998
 20
-189.77019501160001
 30
0.0
 11
469.98320022209998
 21
-189.77019501160001
 31
0.0
  0
SOLID
  5
72
  8
0
 62
     0
 10
472.98320022209998
 20
-189.77019501160001
 30
0.0
 11
465.48320022209998
 21
-191.64519501160001
 31
0.0
 12
465.48320022209998
 22
-187.89519501160001
 32
0.0
 13
467.35820022209992
 23
-189.77019501160001
 33
0.0
  0
LINE
  5
73
  8
0
 62
     0
 10
485.9841151096
 20
-189.77019501160001
 30
0.0
 11
488.9841151096
 21
-189.77019501160001
 31
0.0
  0
SOLID
  5
74
  8
0
 62
     0
 10
485.9841151096
 20
-189.77019501160001
 30
0.0
 11
493.4841151096
 21
-187.89519501160001
 31
0.0
 12
493.4841151096
 22
-191.64519501160001
 32
0.0
 13
491.6091151096
 23
-189.77019501160001
 33
0.0
  0
ENDBLK
  5
75
  8
0
  0
BLOCK
  8
0
  2
CLUMP0
 70
     0
 10
0.0
 20
0.0
 30
0.0
  3
CLUMP0
  1

  0
LINE
  5
7C
  8
É}ÿg
 10
1120.3131701565001
 20
-551.68886666000003
 30
0.0
 11
1122.8131701565001
 21
-547.93886666000003
 31
0.0
  0
LINE
  5
7D
  8
É}ÿg
 10
1083.6616550050001
 20
-547.93886666000003
 30
0.0
 11
1083.6616550050001
 21
-552.93886666000003
 31
0.0
  0
LINE
  5
7E
  8
É}ÿg
 10
1142.9792291153001
 20
-556.68886666000003
 30
0.0
 11
1150.8568767771999
 21
-556.68886666000003
 31
0.0
  0
LINE
  5
7F
  8
É}ÿg
 10
1100.3131701565001
 20
-565.43886666000003
 30
0.0
 11
1106.5631701564989
 21
-565.43886666000003
 31
0.0
  0
LINE
  5
80
  8
É}ÿg
 10
1100.3131701565001
 20
-553.74414232870004
 30
0.0
 11
1110.3131701565001
 21
-553.74414232870004
 31
0.0
  0
INSERT
  5
81
  8
0
  6
CONTINUOUS
  2
*U60
 10
0.0
 20
0.0
 30
0.0
  0
LINE
  5
82
  8
É}ÿg
 62
     5
 10
1162.0100387842999
 20
91.869450922800013
 30
0.0
 11
1162.0100387842999
 21
129.36945092280001
 31
0.0
  0
LINE
  5
83
  8
É}ÿg
 62
     5
 10
1287.0100387842999
 20
91.869450922800013
 30
0.0
 11
1287.0100387842999
 21
129.36945092280001
 31
0.0
  0
LINE
  5
84
  8
É}ÿg
 62
     5
 10
1122.0100387842999
 20
91.869450922800013
 30
0.0
 11
1122.0100387842999
 21
129.36945092280001
 31
0.0
  0
LINE
  5
85
  8
É}ÿg
 62
     5
 10
1105.1118253192001
 20
105.44643030029999
 30
0.0
 11
1117.4868253192001
 21
105.44643030029999
 31
0.0
  0
LINE
  5
86
  8
É}ÿg
 62
     5
 10
1111.2993253192001
 20
103.7884946721
 30
0.0
 11
1117.4868253192001
 21
93.071430300300008
 31
0.0
  0
LINE
  5
87
  8
É}ÿg
 62
     5
 10
1102.0100387842999
 20
91.869450922800013
 30
0.0
 11
1102.0100387842999
 21
129.36945092280001
 31
0.0
  0
LINE
  5
88
  8
É}ÿg
 62
     5
 10
1312.0100387842999
 20
91.869450922800013
 30
0.0
 11
1312.0100387842999
 21
129.36945092280001
 31
0.0
  0
LINE
  5
89
  8
É}ÿg
 62
     5
 10
1102.0100387842999
 20
116.8694509228
 30
0.0
 11
1337.0100387842999
 21
116.8694509228
 31
0.0
  0
LINE
  5
8A
  8
É}ÿg
 62
     5
 10
1102.0100387842999
 20
104.3694509228
 30
0.0
 11
1337.0100387842999
 21
104.3694509228
 31
0.0
  0
LINE
  5
8B
  8
É}ÿg
 62
     5
 10
1102.0100387842999
 20
91.869450922800013
 30
0.0
 11
1337.0100387842999
 21
91.869450922800013
 31
0.0
  0
INSERT
  5
8C
  8
0
  6
CONTINUOUS
  2
*U61
 10
0.0
 20
0.0
 30
0.0
  0
LINE
  5
8D
  8
É}ÿg
 62
     5
 10
337.01003878429998
 20
-570.63054907720004
 30
0.0
 11
337.01003878429998
 21
129.36945092280001
 31
0.0
  0
LINE
  5
8E
  8
É}ÿg
 62
     5
 10
337.01003878429998
 20
-570.63054907720004
 30
0.0
 11
1337.0100387842999
 21
-570.63054907720004
 31
0.0
  0
LINE
  5
8F
  8
É}ÿg
 62
     5
 10
1337.0100387842999
 20
129.36945092280001
 30
0.0
 11
337.01003878429998
 21
129.36945092280001
 31
0.0
  0
LINE
  5
90
  8
É}ÿg
 62
     5
 10
1337.0100387842999
 20
-570.63054907720004
 30
0.0
 11
1337.0100387842999
 21
129.36945092280001
 31
0.0
  0
LINE
  5
91
  8
É}ÿg
 10
1100.3131701565001
 20
-554.54941799739981
 30
0.0
 11
1100.3131701565001
 21
-553.74414232870004
 31
0.0
  0
LINE
  5
92
  8
É}ÿg
 10
1069.5338954761
 20
-552.93886666000003
 30
0.0
 11
1069.5338954761
 21
-556.68886666000003
 31
0.0
  0
LINE
  5
93
  8
É}ÿg
 62
     5
 10
1111.2993253192001
 20
116.1634946721
 30
0.0
 11
1117.4868253192001
 21
105.44643030029999
 31
0.0
  0
LINE
  5
94
  8
É}ÿg
 62
     5
 10
1111.2993253192001
 20
103.7884946721
 30
0.0
 11
1105.1118253192001
 21
93.071430300300008
 31
0.0
  0
INSERT
  5
95
  8
0
  6
CONTINUOUS
  2
*U62
 10
0.0
 20
0.0
 30
0.0
  0
LINE
  5
96
  8
É}ÿg
  6
DOT
 10
324.56003878429999
 20
-581.20554907719986
 30
0.0
 11
324.56003878429999
 21
139.9444509228
 31
0.0
  0
LINE
  5
97
  8
É}ÿg
  6
DOT
 10
1349.4600387843
 20
-581.20554907719986
 30
0.0
 11
1349.4600387843
 21
139.9444509228
 31
0.0
  0
LINE
  5
98
  8
É}ÿg
  6
DOT
 10
324.56003878429999
 20
-581.20554907719986
 30
0.0
 11
1349.4600387843
 21
-581.20554907719986
 31
0.0
  0
LINE
  5
99
  8
É}ÿg
 10
1078.6616550050001
 20
-560.43886666000003
 30
0.0
 11
1078.6616550050001
 21
-556.68886666000003
 31
0.0
  0
LINE
  5
9A
  8
É}ÿg
  6
DOT
 10
1349.4600387843
 20
139.9444509228
 30
0.0
 11
324.56003878429999
 21
139.9444509228
 31
0.0
  0
LINE
  5
9B
  8
É}ÿg
 10
1072.4116550050001
 20
-556.68886666000003
 30
0.0
 11
1072.4116550050001
 21
-560.43886666000003
 31
0.0
  0
LINE
  5
9C
  8
É}ÿg
 10
1089.9116550050001
 20
-551.68886666000003
 30
0.0
 11
1093.6616550050001
 21
-547.93886666000003
 31
0.0
  0
LINE
  5
9D
  8
É}ÿg
 10
1136.5102101105999
 20
-558.68886666000003
 30
0.0
 11
1135.9235434438999
 21
-556.68886666000003
 31
0.0
  0
LINE
  5
9E
  8
É}ÿg
 10
1078.6616550050001
 20
-552.93886666000003
 30
0.0
 11
1078.6616550050001
 21
-551.68886666000003
 31
0.0
  0
LINE
  5
9F
  8
É}ÿg
 10
1117.4699685368
 20
-560.06169468250005
 30
0.0
 11
1117.0247133872999
 21
-560.49764004289989
 31
0.0
  0
LINE
  5
A0
  8
É}ÿg
 10
1120.3131701565001
 20
-551.68886666000003
 30
0.0
 11
1122.8131701565001
 21
-547.93886666000003
 31
0.0
  0
LINE
  5
A1
  8
É}ÿg
 10
1150.8568767771999
 20
-558.68886666000003
 30
0.0
 11
1150.8568767771999
 21
-563.18886666000003
 31
0.0
  0
LINE
  5
A2
  8
É}ÿg
 10
1122.8131701565001
 20
-561.68886666000003
 30
0.0
 11
1122.8131701565001
 21
-565.43886666000003
 31
0.0
  0
LINE
  5
A3
  8
É}ÿg
 10
1141.6842876674
 20
-552.18886666000003
 30
0.0
 11
1150.8568767771999
 21
-552.18886666000003
 31
0.0
  0
LINE
  5
A4
  8
É}ÿg
 10
1141.6842876674
 20
-552.18886666000003
 30
0.0
 11
1141.3183020418001
 21
-550.91704443389995
 31
0.0
  0
LINE
  5
A5
  8
É}ÿg
 10
1122.8131701565001
 20
-547.93886666000003
 30
0.0
 11
1100.3131701565001
 21
-547.93886666000003
 31
0.0
  0
INSERT
  5
A6
  8
0
  6
CONTINUOUS
  2
*U63
 10
0.0
 20
0.0
 30
0.0
  0
LINE
  5
A7
  8
É}ÿg
 10
1138.8568767771999
 20
-566.68886666000003
 30
0.0
 11
1137.8302101106001
 21
-563.18886666000003
 31
0.0
  0
LINE
  5
A8
  8
É}ÿg
 10
1079.9116550050001
 20
-561.68886666000003
 30
0.0
 11
1072.4116550050001
 21
-561.68886666000003
 31
0.0
  0
LINE
  5
A9
  8
É}ÿg
 10
1100.3131701565001
 20
-552.43886666000003
 30
0.0
 11
1112.8131701565001
 21
-552.43886666000003
 31
0.0
  0
LINE
  5
AA
  8
É}ÿg
 10
1134.2248325635001
 20
-498.88054907719999
 30
0.0
 11
1146.2248325635001
 21
-495.88054907719987
 31
0.0
  0
CIRCLE
  5
AB
  8
É}ÿg
 10
1120.5100387842999
 20
-501.88054907719999
 30
0.0
 40
6.0
  0
INSERT
  5
AC
  8
0
  6
CONTINUOUS
  2
*U64
 10
0.0
 20
0.0
 30
0.0
  0
LINE
  5
AD
  8
É}ÿg
 10
1078.6616550050001
 20
-556.68886666000003
 30
0.0
 11
1083.6616550050001
 21
-556.68886666000003
 31
0.0
  0
LINE
  5
AE
  8
É}ÿg
 10
1128.3568767771999
 20
-556.68886666000003
 30
0.0
 11
1135.9235434438999
 21
-556.68886666000003
 31
0.0
  0
LINE
  5
AF
  8
É}ÿg
 10
1093.6616550050001
 20
-552.93886666000003
 30
0.0
 11
1089.9116550050001
 21
-552.93886666000003
 31
0.0
  0
LINE
  5
B0
  8
É}ÿg
 10
1089.9116550050001
 20
-552.93886666000003
 30
0.0
 11
1089.9116550050001
 21
-551.68886666000003
 31
0.0
  0
LINE
  5
B1
  8
É}ÿg
 10
1128.3568767771999
 20
-552.18886666000003
 30
0.0
 11
1134.6035434439
 21
-552.18886666000003
 31
0.0
  0
LINE
  5
B2
  8
É}ÿg
 10
1141.3183020418001
 20
-550.91704443389995
 30
0.0
 11
1143.3568767771999
 21
-547.93886666000003
 31
0.0
  0
LINE
  5
B3
  8
É}ÿg
 10
1100.3131701565001
 20
-565.43886666000003
 30
0.0
 11
1100.3131701565001
 21
-561.68886666000003
 31
0.0
  0
LINE
  5
B4
  8
É}ÿg
 10
1162.0100387842999
 20
-488.13054907719999
 30
0.0
 11
1162.0100387842999
 21
-570.63054907720004
 31
0.0
  0
INSERT
  5
B5
  8
0
  6
CONTINUOUS
  2
*U65
 10
0.0
 20
0.0
 30
0.0
  0
INSERT
  5
B6
  8
0
  6
CONTINUOUS
  2
*U66
 10
0.0
 20
0.0
 30
0.0
  0
INSERT
  5
B7
  8
0
  6
CONTINUOUS
  2
*U67
 10
0.0
 20
0.0
 30
0.0
  0
LINE
  5
B8
  8
É}ÿg
 62
     5
 10
1105.1118253192001
 20
93.071430300300008
 30
0.0
 11
1117.4868253192001
 21
93.071430300300008
 31
0.0
  0
LINE
  5
B9
  8
É}ÿg
 10
1069.5338954761
 20
-556.68886666000003
 30
0.0
 11
1072.0338954761
 21
-556.68886666000003
 31
0.0
  0
ARC
  5
BA
  8
É}ÿg
 10
1106.5631701564989
 20
-551.68886666000003
 30
0.0
 40
13.75
 50
322.48761197969998
 51
0.0
  0
LINE
  5
BB
  8
É}ÿg
 10
1072.4116550050001
 20
-565.43886666000003
 30
0.0
 11
1082.4116550050001
 21
-565.43886666000003
 31
0.0
  0
LINE
  5
BC
  8
É}ÿg
 10
1128.3568767771999
 20
-563.18886666000003
 30
0.0
 11
1137.8302101106001
 21
-563.18886666000003
 31
0.0
  0
ARC
  5
BD
  8
É}ÿg
 10
1079.9116550050001
 20
-557.93886666000003
 30
0.0
 40
3.75
 50
270.0
 51
0.0
  0
LINE
  5
BE
  8
É}ÿg
 10
1128.3568767771999
 20
-558.68886666000003
 30
0.0
 11
1128.3568767771999
 21
-563.18886666000003
 31
0.0
  0
LINE
  5
BF
  8
É}ÿg
 10
1072.4116550050001
 20
-560.43886666000003
 30
0.0
 11
1078.6616550050001
 21
-560.43886666000003
 31
0.0
  0
LINE
  5
C0
  8
É}ÿg
 10
1111.6539513857999
 20
-556.73654392280002
 30
0.0
 11
1111.0524618699999
 21
-557.40088982419991
 31
0.0
  0
LINE
  5
C1
  8
É}ÿg
 10
1145.8568767771999
 20
-566.68886666000003
 30
0.0
 11
1138.8568767771999
 21
-566.68886666000003
 31
0.0
  0
LINE
  5
C2
  8
É}ÿg
 10
1083.6616550050001
 20
-556.68886666000003
 30
0.0
 11
1083.6616550050001
 21
-557.93886666000003
 31
0.0
  0
LINE
  5
C3
  8
É}ÿg
 10
1337.0100387842999
 20
-488.13054907719999
 30
0.0
 11
974.51003878429992
 21
-488.13054907719999
 31
0.0
  0
LINE
  5
C4
  8
É}ÿg
 10
1146.2248325635001
 20
-495.88054907719987
 30
0.0
 11
1146.2248325635001
 21
-507.88054907719987
 31
0.0
  0
LINE
  5
C5
  8
É}ÿg
 62
     5
 10
1111.2993253192001
 20
116.1634946721
 30
0.0
 11
1105.1118253192001
 21
105.44643030029999
 31
0.0
  0
LINE
  5
C6
  8
É}ÿg
 10
1093.6616550050001
 20
-547.93886666000003
 30
0.0
 11
1083.6616550050001
 21
-547.93886666000003
 31
0.0
  0
LINE
  5
C7
  8
É}ÿg
 10
1089.9116550050001
 20
-557.93886666000003
 30
0.0
 11
1089.9116550050001
 21
-556.68886666000003
 31
0.0
  0
LINE
  5
C8
  8
É}ÿg
 10
1128.3568767771999
 20
-552.18886666000003
 30
0.0
 11
1128.3568767771999
 21
-556.68886666000003
 31
0.0
  0
LINE
  5
C9
  8
É}ÿg
 10
1083.6616550050001
 20
-552.93886666000003
 30
0.0
 11
1078.6616550050001
 21
-552.93886666000003
 31
0.0
  0
LINE
  5
CA
  8
É}ÿg
 10
1082.4116550050001
 20
-547.93886666000003
 30
0.0
 11
1072.4116550050001
 21
-547.93886666000003
 31
0.0
  0
LINE
  5
CB
  8
É}ÿg
 10
1078.6616550050001
 20
-551.68886666000003
 30
0.0
 11
1082.4116550050001
 21
-547.93886666000003
 31
0.0
  0
LINE
  5
CC
  8
É}ÿg
 10
1072.4116550050001
 20
-547.93886666000003
 30
0.0
 11
1072.4116550050001
 21
-552.93886666000003
 31
0.0
  0
LINE
  5
CD
  8
É}ÿg
 10
1144.8497000955001
 20
-563.18886666000003
 30
0.0
 11
1150.8568767771999
 21
-563.18886666000003
 31
0.0
  0
LINE
  5
CE
  8
É}ÿg
 10
1134.6035434439
 20
-552.18886666000003
 30
0.0
 11
1133.3568767771999
 21
-547.93886666000003
 31
0.0
  0
LINE
  5
CF
  8
É}ÿg
 10
1128.3568767771999
 20
-558.68886666000003
 30
0.0
 11
1136.5102101105999
 21
-558.68886666000003
 31
0.0
  0
LINE
  5
D0
  8
É}ÿg
 10
1143.5547586476
 20
-558.68886666000003
 30
0.0
 11
1142.9792291153001
 21
-556.68886666000003
 31
0.0
  0
ARC
  5
D1
  8
É}ÿg
 10
1103.3131701565001
 20
-552.18886666000003
 30
0.0
 40
9.5
 50
270.0
 51
298.08590481520002
  0
INSERT
  5
D2
  8
0
  6
CONTINUOUS
  2
*U68
 10
0.0
 20
0.0
 30
0.0
  0
LINE
  5
D3
  8
É}ÿg
 10
980.76003878429992
 20
-501.88054907719999
 30
0.0
 11
1030.7600387842999
 21
-501.88054907719999
 31
0.0
  0
LINE
  5
D4
  8
É}ÿg
 10
1037.0100387842999
 20
-488.13054907719999
 30
0.0
 11
1037.0100387842999
 21
-515.63054907720004
 31
0.0
  0
LINE
  5
D5
  8
É}ÿg
 10
974.51003878429992
 20
-515.63054907720004
 30
0.0
 11
1337.0100387842999
 21
-515.63054907720004
 31
0.0
  0
LINE
  5
D6
  8
É}ÿg
 10
1099.5100387842999
 20
-488.13054907719999
 30
0.0
 11
1099.5100387842999
 21
-515.63054907720004
 31
0.0
  0
LINE
  5
D7
  8
É}ÿg
  6
BORDER
 10
1120.5100387842999
 20
-492.88054907719987
 30
0.0
 11
1120.5100387842999
 21
-510.88054907719999
 31
0.0
  0
LINE
  5
D8
  8
É}ÿg
  6
BORDER
 10
1120.5100387842999
 20
-492.88054907719987
 30
0.0
 11
1120.5100387842999
 21
-510.88054907719999
 31
0.0
  0
LINE
  5
D9
  8
É}ÿg
 10
1150.8568767771999
 20
-552.18886666000003
 30
0.0
 11
1150.8568767771999
 21
-556.68886666000003
 31
0.0
  0
LINE
  5
DA
  8
É}ÿg
 10
1043.2600387842999
 20
-501.88054907719999
 30
0.0
 11
1093.2600387842999
 21
-501.88054907719999
 31
0.0
  0
INSERT
  5
DB
  8
0
  6
CONTINUOUS
  2
*U69
 10
0.0
 20
0.0
 30
0.0
  0
CIRCLE
  5
DC
  8
É}ÿg
 10
1120.5100387842999
 20
-501.88054907719999
 30
0.0
 40
6.0
  0
LINE
  5
DD
  8
É}ÿg
 10
1134.2248325635001
 20
-498.88054907719999
 30
0.0
 11
1146.2248325635001
 21
-495.88054907719987
 31
0.0
  0
INSERT
  5
DE
  8
0
  6
CONTINUOUS
  2
*U70
 10
0.0
 20
0.0
 30
0.0
  0
CIRCLE
  5
DF
  8
É}ÿg
 10
1120.5100387842999
 20
-501.88054907719999
 30
0.0
 40
3.0
  0
LINE
  5
E0
  8
É}ÿg
 10
1145.8568767771999
 20
-566.68886666000003
 30
0.0
 11
1144.8497000955001
 21
-563.18886666000003
 31
0.0
  0
LINE
  5
E1
  8
É}ÿg
 10
1143.5547586476
 20
-558.68886666000003
 30
0.0
 11
1150.8568767771999
 21
-558.68886666000003
 31
0.0
  0
LINE
  5
E2
  8
É}ÿg
 10
1100.3131701565001
 20
-561.68886666000003
 30
0.0
 11
1103.3131701565001
 21
-561.68886666000003
 31
0.0
  0
LINE
  5
E3
  8
É}ÿg
 10
1133.3568767771999
 20
-547.93886666000003
 30
0.0
 11
1143.3568767771999
 21
-547.93886666000003
 31
0.0
  0
LINE
  5
E4
  8
É}ÿg
 10
1072.4116550050001
 20
-552.93886666000003
 30
0.0
 11
1069.5338954761
 21
-552.93886666000003
 31
0.0
  0
LINE
  5
E5
  8
É}ÿg
 10
1100.3131701565001
 20
-561.68886666000003
 30
0.0
 11
1100.3131701565001
 21
-565.43886666000003
 31
0.0
  0
LINE
  5
E6
  8
É}ÿg
 10
1072.4116550050001
 20
-556.68886666000003
 30
0.0
 11
1072.0338954761
 21
-556.68886666000003
 31
0.0
  0
LINE
  5
E7
  8
É}ÿg
 10
1072.4116550050001
 20
-561.68886666000003
 30
0.0
 11
1072.4116550050001
 21
-565.43886666000003
 31
0.0
  0
ARC
  5
E8
  8
É}ÿg
 10
1103.3131701565001
 20
-552.18886666000003
 30
0.0
 40
9.5
 50
331.39928138329998
 51
358.49204224580001
  0
LINE
  5
E9
  8
É}ÿg
 10
1089.9116550050001
 20
-556.68886666000003
 30
0.0
 11
1093.6616550050001
 21
-556.68886666000003
 31
0.0
  0
ARC
  5
EA
  8
É}ÿg
 10
1106.5631701564989
 20
-551.68886666000003
 30
0.0
 40
13.75
 50
270.0
 51
302.54495885400001
  0
LINE
  5
EB
  8
É}ÿg
 10
1134.2248325635001
 20
-504.88054907719987
 30
0.0
 11
1146.2248325635001
 21
-507.88054907719987
 31
0.0
  0
LINE
  5
EC
  8
É}ÿg
 10
1134.2248325635001
 20
-498.88054907719999
 30
0.0
 11
1134.2248325635001
 21
-504.88054907719987
 31
0.0
  0
LINE
  5
ED
  8
É}ÿg
 10
1146.2248325635001
 20
-495.88054907719987
 30
0.0
 11
1146.2248325635001
 21
-507.88054907719987
 31
0.0
  0
LINE
  5
EE
  8
É}ÿg
 10
1110.3131701565001
 20
-553.74414232870004
 30
0.0
 11
1108.8989565941999
 21
-555.15835589109997
 31
0.0
  0
LINE
  5
EF
  8
É}ÿg
  6
BORDER
 10
1111.5100387842999
 20
-501.88054907719999
 30
0.0
 11
1150.0100387842999
 21
-501.88054907719999
 31
0.0
  0
CIRCLE
  5
F0
  8
É}ÿg
 10
1120.5100387842999
 20
-501.88054907719999
 30
0.0
 40
3.0
  0
POLYLINE
  8
É}ÿg
  5
757
  66
     1
 10
0.000000
 20
0.000000
 30
0.000000
  70
     8
  0
VERTEX
  8
É}ÿg
  5
758
 10
1117.02
 20
-560.498
 30
0.000000
  70
    32
  0
VERTEX
  8
É}ÿg
  5
759
 10
1117.07
 20
-560.510
 30
0.000000
  70
    32
  0
VERTEX
  8
É}ÿg
  5
75A
 10
1117.11
 20
-560.522
 30
0.000000
  70
    32
  0
VERTEX
  8
É}ÿg
  5
75B
 10
1117.16
 20
-560.535
 30
0.000000
  70
    32
  0
VERTEX
  8
É}ÿg
  5
75C
 10
1117.20
 20
-560.547
 30
0.000000
  70
    32
  0
VERTEX
  8
É}ÿg
  5
75D
 10
1117.24
 20
-560.559
 30
0.000000
  70
    32
  0
VERTEX
  8
É}ÿg
  5
75E
 10
1117.29
 20
-560.571
 30
0.000000
  70
    32
  0
VERTEX
  8
É}ÿg
  5
75F
 10
1117.33
 20
-560.583
 30
0.000000
  70
    32
  0
VERTEX
  8
É}ÿg
  5
760
 10
1117.38
 20
-560.595
 30
0.000000
  70
    32
  0
VERTEX
  8
É}ÿg
  5
761
 10
1117.42
 20
-560.607
 30
0.000000
  70
    32
  0
VERTEX
  8
É}ÿg
  5
762
 10
1117.46
 20
-560.618
 30
0.000000
  70
    32
  0
VERTEX
  8
É}ÿg
  5
763
 10
1117.51
 20
-560.630
 30
0.000000
  70
    32
  0
VERTEX
  8
É}ÿg
  5
764
 10
1117.55
 20
-560.642
 30
0.000000
  70
    32
  0
VERTEX
  8
É}ÿg
  5
765
 10
1117.60
 20
-560.653
 30
0.000000
  70
    32
  0
VERTEX
  8
É}ÿg
  5
766
 10
1117.64
 20
-560.665
 30
0.000000
  70
    32
  0
VERTEX
  8
É}ÿg
  5
767
 10
1117.68
 20
-560.676
 30
0.000000
  70
    32
  0
VERTEX
  8
É}ÿg
  5
768
 10
1117.73
 20
-560.688
 30
0.000000
  70
    32
  0
VERTEX
  8
É}ÿg
  5
769
 10
1117.77
 20
-560.699
 30
0.000000
  70
    32
  0
VERTEX
  8
É}ÿg
  5
76A
 10
1117.82
 20
-560.710
 30
0.000000
  70
    32
  0
VERTEX
  8
É}ÿg
  5
76B
 10
1117.86
 20
-560.721
 30
0.000000
  70
    32
  0
VERTEX
  8
É}ÿg
  5
76C
 10
1117.91
 20
-560.733
 30
0.000000
  70
    32
  0
VERTEX
  8
É}ÿg
  5
76D
 10
1117.95
 20
-560.744
 30
0.000000
  70
    32
  0
VERTEX
  8
É}ÿg
  5
76E
 10
1118.00
 20
-560.755
 30
0.000000
  70
    32
  0
VERTEX
  8
É}ÿg
  5
76F
 10
1118.04
 20
-560.766
 30
0.000000
  70
    32
  0
VERTEX
  8
É}ÿg
  5
770
 10
1118.09
 20
-560.776
 30
0.000000
  70
    32
  0
VERTEX
  8
É}ÿg
  5
771
 10
1118.13
 20
-560.787
 30
0.000000
  70
    32
  0
VERTEX
  8
É}ÿg
  5
772
 10
1118.17
 20
-560.798
 30
0.000000
  70
    32
  0
VERTEX
  8
É}ÿg
  5
773
 10
1118.22
 20
-560.809
 30
0.000000
  70
    32
  0
VERTEX
  8
É}ÿg
  5
774
 10
1118.26
 20
-560.819
 30
0.000000
  70
    32
  0
VERTEX
  8
É}ÿg
  5
775
 10
1118.31
 20
-560.830
 30
0.000000
  70
    32
  0
VERTEX
  8
É}ÿg
  5
776
 10
1118.35
 20
-560.841
 30
0.000000
  70
    32
  0
VERTEX
  8
É}ÿg
  5
777
 10
1118.40
 20
-560.851
 30
0.000000
  70
    32
  0
VERTEX
  8
É}ÿg
  5
778
 10
1118.44
 20
-560.861
 30
0.000000
  70
    32
  0
VERTEX
  8
É}ÿg
  5
779
 10
1118.49
 20
-560.872
 30
0.000000
  70
    32
  0
VERTEX
  8
É}ÿg
  5
77A
 10
1118.53
 20
-560.882
 30
0.000000
  70
    32
  0
VERTEX
  8
É}ÿg
  5
77B
 10
1118.58
 20
-560.892
 30
0.000000
  70
    32
  0
VERTEX
  8
É}ÿg
  5
77C
 10
1118.62
 20
-560.903
 30
0.000000
  70
    32
  0
VERTEX
  8
É}ÿg
  5
77D
 10
1118.67
 20
-560.913
 30
0.000000
  70
    32
  0
VERTEX
  8
É}ÿg
  5
77E
 10
1118.71
 20
-560.923
 30
0.000000
  70
    32
  0
VERTEX
  8
É}ÿg
  5
77F
 10
1118.76
 20
-560.933
 30
0.000000
  70
    32
  0
VERTEX
  8
É}ÿg
  5
780
 10
1118.80
 20
-560.943
 30
0.000000
  70
    32
  0
VERTEX
  8
É}ÿg
  5
781
 10
1118.85
 20
-560.953
 30
0.000000
  70
    32
  0
VERTEX
  8
É}ÿg
  5
782
 10
1118.89
 20
-560.963
 30
0.000000
  70
    32
  0
VERTEX
  8
É}ÿg
  5
783
 10
1118.94
 20
-560.973
 30
0.000000
  70
    32
  0
VERTEX
  8
É}ÿg
  5
784
 10
1118.99
 20
-560.983
 30
0.000000
  70
    32
  0
VERTEX
  8
É}ÿg
  5
785
 10
1119.03
 20
-560.993
 30
0.000000
  70
    32
  0
VERTEX
  8
É}ÿg
  5
786
 10
1119.08
 20
-561.002
 30
0.000000
  70
    32
  0
VERTEX
  8
É}ÿg
  5
787
 10
1119.12
 20
-561.012
 30
0.000000
  70
    32
  0
VERTEX
  8
É}ÿg
  5
788
 10
1119.17
 20
-561.022
 30
0.000000
  70
    32
  0
VERTEX
  8
É}ÿg
  5
789
 10
1119.21
 20
-561.031
 30
0.000000
  70
    32
  0
VERTEX
  8
É}ÿg
  5
78A
 10
1119.26
 20
-561.041
 30
0.000000
  70
    32
  0
VERTEX
  8
É}ÿg
  5
78B
 10
1119.30
 20
-561.050
 30
0.000000
  70
    32
  0
VERTEX
  8
É}ÿg
  5
78C
 10
1119.35
 20
-561.060
 30
0.000000
  70
    32
  0
VERTEX
  8
É}ÿg
  5
78D
 10
1119.39
 20
-561.069
 30
0.000000
  70
    32
  0
VERTEX
  8
É}ÿg
  5
78E
 10
1119.44
 20
-561.079
 30
0.000000
  70
    32
  0
VERTEX
  8
É}ÿg
  5
78F
 10
1119.49
 20
-561.088
 30
0.000000
  70
    32
  0
VERTEX
  8
É}ÿg
  5
790
 10
1119.53
 20
-561.097
 30
0.000000
  70
    32
  0
VERTEX
  8
É}ÿg
  5
791
 10
1119.58
 20
-561.106
 30
0.000000
  70
    32
  0
VERTEX
  8
É}ÿg
  5
792
 10
1119.62
 20
-561.116
 30
0.000000
  70
    32
  0
VERTEX
  8
É}ÿg
  5
793
 10
1119.67
 20
-561.125
 30
0.000000
  70
    32
  0
VERTEX
  8
É}ÿg
  5
794
 10
1119.71
 20
-561.134
 30
0.000000
  70
    32
  0
VERTEX
  8
É}ÿg
  5
795
 10
1119.76
 20
-561.143
 30
0.000000
  70
    32
  0
VERTEX
  8
É}ÿg
  5
796
 10
1119.81
 20
-561.152
 30
0.000000
  70
    32
  0
VERTEX
  8
É}ÿg
  5
797
 10
1119.85
 20
-561.161
 30
0.000000
  70
    32
  0
VERTEX
  8
É}ÿg
  5
798
 10
1119.90
 20
-561.170
 30
0.000000
  70
    32
  0
VERTEX
  8
É}ÿg
  5
799
 10
1119.94
 20
-561.179
 30
0.000000
  70
    32
  0
VERTEX
  8
É}ÿg
  5
79A
 10
1119.99
 20
-561.188
 30
0.000000
  70
    32
  0
VERTEX
  8
É}ÿg
  5
79B
 10
1120.03
 20
-561.197
 30
0.000000
  70
    32
  0
VERTEX
  8
É}ÿg
  5
79C
 10
1120.08
 20
-561.206
 30
0.000000
  70
    32
  0
VERTEX
  8
É}ÿg
  5
79D
 10
1120.13
 20
-561.215
 30
0.000000
  70
    32
  0
VERTEX
  8
É}ÿg
  5
79E
 10
1120.17
 20
-561.224
 30
0.000000
  70
    32
  0
VERTEX
  8
É}ÿg
  5
79F
 10
1120.22
 20
-561.232
 30
0.000000
  70
    32
  0
VERTEX
  8
É}ÿg
  5
7A0
 10
1120.26
 20
-561.241
 30
0.000000
  70
    32
  0
VERTEX
  8
É}ÿg
  5
7A1
 10
1120.31
 20
-561.250
 30
0.000000
  70
    32
  0
VERTEX
  8
É}ÿg
  5
7A2
 10
1120.36
 20
-561.258
 30
0.000000
  70
    32
  0
VERTEX
  8
É}ÿg
  5
7A3
 10
1120.40
 20
-561.267
 30
0.000000
  70
    32
  0
VERTEX
  8
É}ÿg
  5
7A4
 10
1120.45
 20
-561.276
 30
0.000000
  70
    32
  0
VERTEX
  8
É}ÿg
  5
7A5
 10
1120.49
 20
-561.284
 30
0.000000
  70
    32
  0
VERTEX
  8
É}ÿg
  5
7A6
 10
1120.54
 20
-561.293
 30
0.000000
  70
    32
  0
VERTEX
  8
É}ÿg
  5
7A7
 10
1120.59
 20
-561.301
 30
0.000000
  70
    32
  0
VERTEX
  8
É}ÿg
  5
7A8
 10
1120.63
 20
-561.310
 30
0.000000
  70
    32
  0
VERTEX
  8
É}ÿg
  5
7A9
 10
1120.68
 20
-561.318
 30
0.000000
  70
    32
  0
VERTEX
  8
É}ÿg
  5
7AA
 10
1120.72
 20
-561.327
 30
0.000000
  70
    32
  0
VERTEX
  8
É}ÿg
  5
7AB
 10
1120.77
 20
-561.335
 30
0.000000
  70
    32
  0
VERTEX
  8
É}ÿg
  5
7AC
 10
1120.82
 20
-561.343
 30
0.000000
  70
    32
  0
VERTEX
  8
É}ÿg
  5
7AD
 10
1120.86
 20
-561.352
 30
0.000000
  70
    32
  0
VERTEX
  8
É}ÿg
  5
7AE
 10
1120.91
 20
-561.360
 30
0.000000
  70
    32
  0
VERTEX
  8
É}ÿg
  5
7AF
 10
1120.96
 20
-561.369
 30
0.000000
  70
    32
  0
VERTEX
  8
É}ÿg
  5
7B0
 10
1121.00
 20
-561.377
 30
0.000000
  70
    32
  0
VERTEX
  8
É}ÿg
  5
7B1
 10
1121.05
 20
-561.385
 30
0.000000
  70
    32
  0
VERTEX
  8
É}ÿg
  5
7B2
 10
1121.09
 20
-561.393
 30
0.000000
  70
    32
  0
VERTEX
  8
É}ÿg
  5
7B3
 10
1121.14
 20
-561.402
 30
0.000000
  70
    32
  0
VERTEX
  8
É}ÿg
  5
7B4
 10
1121.19
 20
-561.410
 30
0.000000
  70
    32
  0
VERTEX
  8
É}ÿg
  5
7B5
 10
1121.23
 20
-561.418
 30
0.000000
  70
    32
  0
VERTEX
  8
É}ÿg
  5
7B6
 10
1121.28
 20
-561.426
 30
0.000000
  70
    32
  0
VERTEX
  8
É}ÿg
  5
7B7
 10
1121.33
 20
-561.434
 30
0.000000
  70
    32
  0
VERTEX
  8
É}ÿg
  5
7B8
 10
1121.37
 20
-561.442
 30
0.000000
  70
    32
  0
VERTEX
  8
É}ÿg
  5
7B9
 10
1121.42
 20
-561.451
 30
0.000000
  70
    32
  0
VERTEX
  8
É}ÿg
  5
7BA
 10
1121.47
 20
-561.459
 30
0.000000
  70
    32
  0
VERTEX
  8
É}ÿg
  5
7BB
 10
1121.51
 20
-561.467
 30
0.000000
  70
    32
  0
VERTEX
  8
É}ÿg
  5
7BC
 10
1121.56
 20
-561.475
 30
0.000000
  70
    32
  0
VERTEX
  8
É}ÿg
  5
7BD
 10
1121.60
 20
-561.483
 30
0.000000
  70
    32
  0
VERTEX
  8
É}ÿg
  5
7BE
 10
1121.65
 20
-561.491
 30
0.000000
  70
    32
  0
VERTEX
  8
É}ÿg
  5
7BF
 10
1121.70
 20
-561.499
 30
0.000000
  70
    32
  0
VERTEX
  8
É}ÿg
  5
7C0
 10
1121.74
 20
-561.507
 30
0.000000
  70
    32
  0
VERTEX
  8
É}ÿg
  5
7C1
 10
1121.79
 20
-561.515
 30
0.000000
  70
    32
  0
VERTEX
  8
É}ÿg
  5
7C2
 10
1121.84
 20
-561.523
 30
0.000000
  70
    32
  0
VERTEX
  8
É}ÿg
  5
7C3
 10
1121.88
 20
-561.531
 30
0.000000
  70
    32
  0
VERTEX
  8
É}ÿg
  5
7C4
 10
1121.93
 20
-561.539
 30
0.000000
  70
    32
  0
VERTEX
  8
É}ÿg
  5
7C5
 10
1121.98
 20
-561.547
 30
0.000000
  70
    32
  0
VERTEX
  8
É}ÿg
  5
7C6
 10
1122.02
 20
-561.555
 30
0.000000
  70
    32
  0
VERTEX
  8
É}ÿg
  5
7C7
 10
1122.07
 20
-561.563
 30
0.000000
  70
    32
  0
VERTEX
  8
É}ÿg
  5
7C8
 10
1122.12
 20
-561.571
 30
0.000000
  70
    32
  0
VERTEX
  8
É}ÿg
  5
7C9
 10
1122.16
 20
-561.579
 30
0.000000
  70
    32
  0
VERTEX
  8
É}ÿg
  5
7CA
 10
1122.21
 20
-561.587
 30
0.000000
  70
    32
  0
VERTEX
  8
É}ÿg
  5
7CB
 10
1122.25
 20
-561.594
 30
0.000000
  70
    32
  0
VERTEX
  8
É}ÿg
  5
7CC
 10
1122.30
 20
-561.602
 30
0.000000
  70
    32
  0
VERTEX
  8
É}ÿg
  5
7CD
 10
1122.35
 20
-561.610
 30
0.000000
  70
    32
  0
VERTEX
  8
É}ÿg
  5
7CE
 10
1122.39
 20
-561.618
 30
0.000000
  70
    32
  0
VERTEX
  8
É}ÿg
  5
7CF
 10
1122.44
 20
-561.626
 30
0.000000
  70
    32
  0
VERTEX
  8
É}ÿg
  5
7D0
 10
1122.49
 20
-561.634
 30
0.000000
  70
    32
  0
VERTEX
  8
É}ÿg
  5
7D1
 10
1122.53
 20
-561.642
 30
0.000000
  70
    32
  0
VERTEX
  8
É}ÿg
  5
7D2
 10
1122.58
 20
-561.650
 30
0.000000
  70
    32
  0
VERTEX
  8
É}ÿg
  5
7D3
 10
1122.63
 20
-561.657
 30
0.000000
  70
    32
  0
VERTEX
  8
É}ÿg
  5
7D4
 10
1122.67
 20
-561.665
 30
0.000000
  70
    32
  0
VERTEX
  8
É}ÿg
  5
7D5
 10
1122.72
 20
-561.673
 30
0.000000
  70
    32
  0
VERTEX
  8
É}ÿg
  5
7D6
 10
1122.77
 20
-561.681
 30
0.000000
  70
    32
  0
VERTEX
  8
É}ÿg
  5
7D7
 10
1122.81
 20
-561.689
 30
0.000000
  70
    32
  0
SEQEND
  8
É}ÿg
  5
7D8
  0
POLYLINE
  8
É}ÿg
  5
7D9
  66
     1
 10
0.000000
 20
0.000000
 30
0.000000
  70
     8
  0
VERTEX
  8
É}ÿg
  5
7DA
 10
1108.90
 20
-555.158
 30
0.000000
  70
    32
  0
VERTEX
  8
É}ÿg
  5
7DB
 10
1108.92
 20
-555.177
 30
0.000000
  70
    32
  0
VERTEX
  8
É}ÿg
  5
7DC
 10
1108.93
 20
-555.195
 30
0.000000
  70
    32
  0
VERTEX
  8
É}ÿg
  5
7DD
 10
1108.95
 20
-555.214
 30
0.000000
  70
    32
  0
VERTEX
  8
É}ÿg
  5
7DE
 10
1108.96
 20
-555.232
 30
0.000000
  70
    32
  0
VERTEX
  8
É}ÿg
  5
7DF
 10
1108.98
 20
-555.250
 30
0.000000
  70
    32
  0
VERTEX
  8
É}ÿg
  5
7E0
 10
1109.00
 20
-555.269
 30
0.000000
  70
    32
  0
VERTEX
  8
É}ÿg
  5
7E1
 10
1109.01
 20
-555.287
 30
0.000000
  70
    32
  0
VERTEX
  8
É}ÿg
  5
7E2
 10
1109.03
 20
-555.305
 30
0.000000
  70
    32
  0
VERTEX
  8
É}ÿg
  5
7E3
 10
1109.05
 20
-555.324
 30
0.000000
  70
    32
  0
VERTEX
  8
É}ÿg
  5
7E4
 10
1109.06
 20
-555.342
 30
0.000000
  70
    32
  0
VERTEX
  8
É}ÿg
  5
7E5
 10
1109.08
 20
-555.361
 30
0.000000
  70
    32
  0
VERTEX
  8
É}ÿg
  5
7E6
 10
1109.10
 20
-555.379
 30
0.000000
  70
    32
  0
VERTEX
  8
É}ÿg
  5
7E7
 10
1109.11
 20
-555.397
 30
0.000000
  70
    32
  0
VERTEX
  8
É}ÿg
  5
7E8
 10
1109.13
 20
-555.416
 30
0.000000
  70
    32
  0
VERTEX
  8
É}ÿg
  5
7E9
 10
1109.15
 20
-555.434
 30
0.000000
  70
    32
  0
VERTEX
  8
É}ÿg
  5
7EA
 10
1109.16
 20
-555.452
 30
0.000000
  70
    32
  0
VERTEX
  8
É}ÿg
  5
7EB
 10
1109.18
 20
-555.471
 30
0.000000
  70
    32
  0
VERTEX
  8
É}ÿg
  5
7EC
 10
1109.20
 20
-555.489
 30
0.000000
  70
    32
  0
VERTEX
  8
É}ÿg
  5
7ED
 10
1109.21
 20
-555.508
 30
0.000000
  70
    32
  0
VERTEX
  8
É}ÿg
  5
7EE
 10
1109.23
 20
-555.526
 30
0.000000
  70
    32
  0
VERTEX
  8
É}ÿg
  5
7EF
 10
1109.25
 20
-555.544
 30
0.000000
  70
    32
  0
VERTEX
  8
É}ÿg
  5
7F0
 10
1109.26
 20
-555.563
 30
0.000000
  70
    32
  0
VERTEX
  8
É}ÿg
  5
7F1
 10
1109.28
 20
-555.581
 30
0.000000
  70
    32
  0
VERTEX
  8
É}ÿg
  5
7F2
 10
1109.30
 20
-555.599
 30
0.000000
  70
    32
  0
VERTEX
  8
É}ÿg
  5
7F3
 10
1109.31
 20
-555.618
 30
0.000000
  70
    32
  0
VERTEX
  8
É}ÿg
  5
7F4
 10
1109.33
 20
-555.636
 30
0.000000
  70
    32
  0
VERTEX
  8
É}ÿg
  5
7F5
 10
1109.34
 20
-555.654
 30
0.000000
  70
    32
  0
VERTEX
  8
É}ÿg
  5
7F6
 10
1109.36
 20
-555.672
 30
0.000000
  70
    32
  0
VERTEX
  8
É}ÿg
  5
7F7
 10
1109.38
 20
-555.691
 30
0.000000
  70
    32
  0
VERTEX
  8
É}ÿg
  5
7F8
 10
1109.39
 20
-555.709
 30
0.000000
  70
    32
  0
VERTEX
  8
É}ÿg
  5
7F9
 10
1109.41
 20
-555.727
 30
0.000000
  70
    32
  0
VERTEX
  8
É}ÿg
  5
7FA
 10
1109.43
 20
-555.746
 30
0.000000
  70
    32
  0
VERTEX
  8
É}ÿg
  5
7FB
 10
1109.44
 20
-555.764
 30
0.000000
  70
    32
  0
VERTEX
  8
É}ÿg
  5
7FC
 10
1109.46
 20
-555.782
 30
0.000000
  70
    32
  0
VERTEX
  8
É}ÿg
  5
7FD
 10
1109.48
 20
-555.800
 30
0.000000
  70
    32
  0
VERTEX
  8
É}ÿg
  5
7FE
 10
1109.49
 20
-555.818
 30
0.000000
  70
    32
  0
VERTEX
  8
É}ÿg
  5
7FF
 10
1109.51
 20
-555.837
 30
0.000000
  70
    32
  0
VERTEX
  8
É}ÿg
  5
800
 10
1109.53
 20
-555.855
 30
0.000000
  70
    32
  0
VERTEX
  8
É}ÿg
  5
801
 10
1109.54
 20
-555.873
 30
0.000000
  70
    32
  0
VERTEX
  8
É}ÿg
  5
802
 10
1109.56
 20
-555.891
 30
0.000000
  70
    32
  0
VERTEX
  8
É}ÿg
  5
803
 10
1109.58
 20
-555.909
 30
0.000000
  70
    32
  0
VERTEX
  8
É}ÿg
  5
804
 10
1109.59
 20
-555.928
 30
0.000000
  70
    32
  0
VERTEX
  8
É}ÿg
  5
805
 10
1109.61
 20
-555.946
 30
0.000000
  70
    32
  0
VERTEX
  8
É}ÿg
  5
806
 10
1109.63
 20
-555.964
 30
0.000000
  70
    32
  0
VERTEX
  8
É}ÿg
  5
807
 10
1109.64
 20
-555.982
 30
0.000000
  70
    32
  0
VERTEX
  8
É}ÿg
  5
808
 10
1109.66
 20
-556.000
 30
0.000000
  70
    32
  0
VERTEX
  8
É}ÿg
  5
809
 10
1109.68
 20
-556.018
 30
0.000000
  70
    32
  0
VERTEX
  8
É}ÿg
  5
80A
 10
1109.69
 20
-556.036
 30
0.000000
  70
    32
  0
VERTEX
  8
É}ÿg
  5
80B
 10
1109.71
 20
-556.054
 30
0.000000
  70
    32
  0
VERTEX
  8
É}ÿg
  5
80C
 10
1109.73
 20
-556.072
 30
0.000000
  70
    32
  0
VERTEX
  8
É}ÿg
  5
80D
 10
1109.74
 20
-556.090
 30
0.000000
  70
    32
  0
VERTEX
  8
É}ÿg
  5
80E
 10
1109.76
 20
-556.108
 30
0.000000
  70
    32
  0
VERTEX
  8
É}ÿg
  5
80F
 10
1109.78
 20
-556.127
 30
0.000000
  70
    32
  0
VERTEX
  8
É}ÿg
  5
810
 10
1109.79
 20
-556.145
 30
0.000000
  70
    32
  0
VERTEX
  8
É}ÿg
  5
811
 10
1109.81
 20
-556.163
 30
0.000000
  70
    32
  0
VERTEX
  8
É}ÿg
  5
812
 10
1109.83
 20
-556.180
 30
0.000000
  70
    32
  0
VERTEX
  8
É}ÿg
  5
813
 10
1109.84
 20
-556.198
 30
0.000000
  70
    32
  0
VERTEX
  8
É}ÿg
  5
814
 10
1109.86
 20
-556.216
 30
0.000000
  70
    32
  0
VERTEX
  8
É}ÿg
  5
815
 10
1109.88
 20
-556.234
 30
0.000000
  70
    32
  0
VERTEX
  8
É}ÿg
  5
816
 10
1109.89
 20
-556.252
 30
0.000000
  70
    32
  0
VERTEX
  8
É}ÿg
  5
817
 10
1109.91
 20
-556.270
 30
0.000000
  70
    32
  0
VERTEX
  8
É}ÿg
  5
818
 10
1109.93
 20
-556.288
 30
0.000000
  70
    32
  0
VERTEX
  8
É}ÿg
  5
819
 10
1109.95
 20
-556.306
 30
0.000000
  70
    32
  0
VERTEX
  8
É}ÿg
  5
81A
 10
1109.96
 20
-556.324
 30
0.000000
  70
    32
  0
VERTEX
  8
É}ÿg
  5
81B
 10
1109.98
 20
-556.342
 30
0.000000
  70
    32
  0
VERTEX
  8
É}ÿg
  5
81C
 10
1110.00
 20
-556.359
 30
0.000000
  70
    32
  0
VERTEX
  8
É}ÿg
  5
81D
 10
1110.01
 20
-556.377
 30
0.000000
  70
    32
  0
VERTEX
  8
É}ÿg
  5
81E
 10
1110.03
 20
-556.395
 30
0.000000
  70
    32
  0
VERTEX
  8
É}ÿg
  5
81F
 10
1110.05
 20
-556.413
 30
0.000000
  70
    32
  0
VERTEX
  8
É}ÿg
  5
820
 10
1110.06
 20
-556.430
 30
0.000000
  70
    32
  0
VERTEX
  8
É}ÿg
  5
821
 10
1110.08
 20
-556.448
 30
0.000000
  70
    32
  0
VERTEX
  8
É}ÿg
  5
822
 10
1110.10
 20
-556.466
 30
0.000000
  70
    32
  0
VERTEX
  8
É}ÿg
  5
823
 10
1110.11
 20
-556.483
 30
0.000000
  70
    32
  0
VERTEX
  8
É}ÿg
  5
824
 10
1110.13
 20
-556.501
 30
0.000000
  70
    32
  0
VERTEX
  8
É}ÿg
  5
825
 10
1110.15
 20
-556.519
 30
0.000000
  70
    32
  0
VERTEX
  8
É}ÿg
  5
826
 10
1110.17
 20
-556.536
 30
0.000000
  70
    32
  0
VERTEX
  8
É}ÿg
  5
827
 10
1110.18
 20
-556.554
 30
0.000000
  70
    32
  0
VERTEX
  8
É}ÿg
  5
828
 10
1110.20
 20
-556.572
 30
0.000000
  70
    32
  0
VERTEX
  8
É}ÿg
  5
829
 10
1110.22
 20
-556.589
 30
0.000000
  70
    32
  0
VERTEX
  8
É}ÿg
  5
82A
 10
1110.23
 20
-556.607
 30
0.000000
  70
    32
  0
VERTEX
  8
É}ÿg
  5
82B
 10
1110.25
 20
-556.624
 30
0.000000
  70
    32
  0
VERTEX
  8
É}ÿg
  5
82C
 10
1110.27
 20
-556.642
 30
0.000000
  70
    32
  0
VERTEX
  8
É}ÿg
  5
82D
 10
1110.28
 20
-556.659
 30
0.000000
  70
    32
  0
VERTEX
  8
É}ÿg
  5
82E
 10
1110.30
 20
-556.676
 30
0.000000
  70
    32
  0
VERTEX
  8
É}ÿg
  5
82F
 10
1110.32
 20
-556.694
 30
0.000000
  70
    32
  0
VERTEX
  8
É}ÿg
  5
830
 10
1110.34
 20
-556.711
 30
0.000000
  70
    32
  0
VERTEX
  8
É}ÿg
  5
831
 10
1110.35
 20
-556.729
 30
0.000000
  70
    32
  0
VERTEX
  8
É}ÿg
  5
832
 10
1110.37
 20
-556.746
 30
0.000000
  70
    32
  0
VERTEX
  8
É}ÿg
  5
833
 10
1110.39
 20
-556.763
 30
0.000000
  70
    32
  0
VERTEX
  8
É}ÿg
  5
834
 10
1110.40
 20
-556.781
 30
0.000000
  70
    32
  0
VERTEX
  8
É}ÿg
  5
835
 10
1110.42
 20
-556.798
 30
0.000000
  70
    32
  0
VERTEX
  8
É}ÿg
  5
836
 10
1110.44
 20
-556.815
 30
0.000000
  70
    32
  0
VERTEX
  8
É}ÿg
  5
837
 10
1110.46
 20
-556.832
 30
0.000000
  70
    32
  0
VERTEX
  8
É}ÿg
  5
838
 10
1110.47
 20
-556.850
 30
0.000000
  70
    32
  0
VERTEX
  8
É}ÿg
  5
839
 10
1110.49
 20
-556.867
 30
0.000000
  70
    32
  0
VERTEX
  8
É}ÿg
  5
83A
 10
1110.51
 20
-556.884
 30
0.000000
  70
    32
  0
VERTEX
  8
É}ÿg
  5
83B
 10
1110.53
 20
-556.901
 30
0.000000
  70
    32
  0
VERTEX
  8
É}ÿg
  5
83C
 10
1110.54
 20
-556.918
 30
0.000000
  70
    32
  0
VERTEX
  8
É}ÿg
  5
83D
 10
1110.56
 20
-556.935
 30
0.000000
  70
    32
  0
VERTEX
  8
É}ÿg
  5
83E
 10
1110.58
 20
-556.952
 30
0.000000
  70
    32
  0
VERTEX
  8
É}ÿg
  5
83F
 10
1110.59
 20
-556.969
 30
0.000000
  70
    32
  0
VERTEX
  8
É}ÿg
  5
840
 10
1110.61
 20
-556.986
 30
0.000000
  70
    32
  0
VERTEX
  8
É}ÿg
  5
841
 10
1110.63
 20
-557.003
 30
0.000000
  70
    32
  0
VERTEX
  8
É}ÿg
  5
842
 10
1110.65
 20
-557.020
 30
0.000000
  70
    32
  0
VERTEX
  8
É}ÿg
  5
843
 10
1110.66
 20
-557.037
 30
0.000000
  70
    32
  0
VERTEX
  8
É}ÿg
  5
844
 10
1110.68
 20
-557.054
 30
0.000000
  70
    32
  0
VERTEX
  8
É}ÿg
  5
845
 10
1110.70
 20
-557.071
 30
0.000000
  70
    32
  0
VERTEX
  8
É}ÿg
  5
846
 10
1110.72
 20
-557.087
 30
0.000000
  70
    32
  0
VERTEX
  8
É}ÿg
  5
847
 10
1110.73
 20
-557.104
 30
0.000000
  70
    32
  0
VERTEX
  8
É}ÿg
  5
848
 10
1110.75
 20
-557.121
 30
0.000000
  70
    32
  0
VERTEX
  8
É}ÿg
  5
849
 10
1110.77
 20
-557.138
 30
0.000000
  70
    32
  0
VERTEX
  8
É}ÿg
  5
84A
 10
1110.79
 20
-557.154
 30
0.000000
  70
    32
  0
VERTEX
  8
É}ÿg
  5
84B
 10
1110.80
 20
-557.171
 30
0.000000
  70
    32
  0
VERTEX
  8
É}ÿg
  5
84C
 10
1110.82
 20
-557.188
 30
0.000000
  70
    32
  0
VERTEX
  8
É}ÿg
  5
84D
 10
1110.84
 20
-557.204
 30
0.000000
  70
    32
  0
VERTEX
  8
É}ÿg
  5
84E
 10
1110.86
 20
-557.221
 30
0.000000
  70
    32
  0
VERTEX
  8
É}ÿg
  5
84F
 10
1110.87
 20
-557.237
 30
0.000000
  70
    32
  0
VERTEX
  8
É}ÿg
  5
850
 10
1110.89
 20
-557.254
 30
0.000000
  70
    32
  0
VERTEX
  8
É}ÿg
  5
851
 10
1110.91
 20
-557.270
 30
0.000000
  70
    32
  0
VERTEX
  8
É}ÿg
  5
852
 10
1110.93
 20
-557.287
 30
0.000000
  70
    32
  0
VERTEX
  8
É}ÿg
  5
853
 10
1110.95
 20
-557.303
 30
0.000000
  70
    32
  0
VERTEX
  8
É}ÿg
  5
854
 10
1110.96
 20
-557.320
 30
0.000000
  70
    32
  0
VERTEX
  8
É}ÿg
  5
855
 10
1110.98
 20
-557.336
 30
0.000000
  70
    32
  0
VERTEX
  8
É}ÿg
  5
856
 10
1111.00
 20
-557.352
 30
0.000000
  70
    32
  0
VERTEX
  8
É}ÿg
  5
857
 10
1111.02
 20
-557.368
 30
0.000000
  70
    32
  0
VERTEX
  8
É}ÿg
  5
858
 10
1111.03
 20
-557.385
 30
0.000000
  70
    32
  0
VERTEX
  8
É}ÿg
  5
859
 10
1111.05
 20
-557.401
 30
0.000000
  70
    32
  0
SEQEND
  8
É}ÿg
  5
85A
  0
POLYLINE
  8
É}ÿg
  5
85B
  66
     1
 10
0.000000
 20
0.000000
 30
0.000000
  70
     8
  0
VERTEX
  8
É}ÿg
  5
85C
 10
1113.96
 20
-563.280
 30
0.000000
  70
    32
  0
VERTEX
  8
É}ÿg
  5
85D
 10
1114.03
 20
-563.301
 30
0.000000
  70
    32
  0
VERTEX
  8
É}ÿg
  5
85E
 10
1114.09
 20
-563.323
 30
0.000000
  70
    32
  0
VERTEX
  8
É}ÿg
  5
85F
 10
1114.16
 20
-563.344
 30
0.000000
  70
    32
  0
VERTEX
  8
É}ÿg
  5
860
 10
1114.23
 20
-563.365
 30
0.000000
  70
    32
  0
VERTEX
  8
É}ÿg
  5
861
 10
1114.30
 20
-563.386
 30
0.000000
  70
    32
  0
VERTEX
  8
É}ÿg
  5
862
 10
1114.36
 20
-563.407
 30
0.000000
  70
    32
  0
VERTEX
  8
É}ÿg
  5
863
 10
1114.43
 20
-563.428
 30
0.000000
  70
    32
  0
VERTEX
  8
É}ÿg
  5
864
 10
1114.50
 20
-563.448
 30
0.000000
  70
    32
  0
VERTEX
  8
É}ÿg
  5
865
 10
1114.57
 20
-563.469
 30
0.000000
  70
    32
  0
VERTEX
  8
É}ÿg
  5
866
 10
1114.64
 20
-563.490
 30
0.000000
  70
    32
  0
VERTEX
  8
É}ÿg
  5
867
 10
1114.70
 20
-563.510
 30
0.000000
  70
    32
  0
VERTEX
  8
É}ÿg
  5
868
 10
1114.77
 20
-563.530
 30
0.000000
  70
    32
  0
VERTEX
  8
É}ÿg
  5
869
 10
1114.84
 20
-563.551
 30
0.000000
  70
    32
  0
VERTEX
  8
É}ÿg
  5
86A
 10
1114.91
 20
-563.571
 30
0.000000
  70
    32
  0
VERTEX
  8
É}ÿg
  5
86B
 10
1114.98
 20
-563.591
 30
0.000000
  70
    32
  0
VERTEX
  8
É}ÿg
  5
86C
 10
1115.04
 20
-563.611
 30
0.000000
  70
    32
  0
VERTEX
  8
É}ÿg
  5
86D
 10
1115.11
 20
-563.631
 30
0.000000
  70
    32
  0
VERTEX
  8
É}ÿg
  5
86E
 10
1115.18
 20
-563.650
 30
0.000000
  70
    32
  0
VERTEX
  8
É}ÿg
  5
86F
 10
1115.25
 20
-563.670
 30
0.000000
  70
    32
  0
VERTEX
  8
É}ÿg
  5
870
 10
1115.32
 20
-563.690
 30
0.000000
  70
    32
  0
VERTEX
  8
É}ÿg
  5
871
 10
1115.38
 20
-563.709
 30
0.000000
  70
    32
  0
VERTEX
  8
É}ÿg
  5
872
 10
1115.45
 20
-563.729
 30
0.000000
  70
    32
  0
VERTEX
  8
É}ÿg
  5
873
 10
1115.52
 20
-563.748
 30
0.000000
  70
    32
  0
VERTEX
  8
É}ÿg
  5
874
 10
1115.59
 20
-563.767
 30
0.000000
  70
    32
  0
VERTEX
  8
É}ÿg
  5
875
 10
1115.66
 20
-563.786
 30
0.000000
  70
    32
  0
VERTEX
  8
É}ÿg
  5
876
 10
1115.73
 20
-563.805
 30
0.000000
  70
    32
  0
VERTEX
  8
É}ÿg
  5
877
 10
1115.80
 20
-563.824
 30
0.000000
  70
    32
  0
VERTEX
  8
É}ÿg
  5
878
 10
1115.86
 20
-563.843
 30
0.000000
  70
    32
  0
VERTEX
  8
É}ÿg
  5
879
 10
1115.93
 20
-563.862
 30
0.000000
  70
    32
  0
VERTEX
  8
É}ÿg
  5
87A
 10
1116.00
 20
-563.881
 30
0.000000
  70
    32
  0
VERTEX
  8
É}ÿg
  5
87B
 10
1116.07
 20
-563.900
 30
0.000000
  70
    32
  0
VERTEX
  8
É}ÿg
  5
87C
 10
1116.14
 20
-563.918
 30
0.000000
  70
    32
  0
VERTEX
  8
É}ÿg
  5
87D
 10
1116.21
 20
-563.937
 30
0.000000
  70
    32
  0
VERTEX
  8
É}ÿg
  5
87E
 10
1116.28
 20
-563.955
 30
0.000000
  70
    32
  0
VERTEX
  8
É}ÿg
  5
87F
 10
1116.35
 20
-563.973
 30
0.000000
  70
    32
  0
VERTEX
  8
É}ÿg
  5
880
 10
1116.42
 20
-563.992
 30
0.000000
  70
    32
  0
VERTEX
  8
É}ÿg
  5
881
 10
1116.48
 20
-564.010
 30
0.000000
  70
    32
  0
VERTEX
  8
É}ÿg
  5
882
 10
1116.55
 20
-564.028
 30
0.000000
  70
    32
  0
VERTEX
  8
É}ÿg
  5
883
 10
1116.62
 20
-564.046
 30
0.000000
  70
    32
  0
VERTEX
  8
É}ÿg
  5
884
 10
1116.69
 20
-564.064
 30
0.000000
  70
    32
  0
VERTEX
  8
É}ÿg
  5
885
 10
1116.76
 20
-564.082
 30
0.000000
  70
    32
  0
VERTEX
  8
É}ÿg
  5
886
 10
1116.83
 20
-564.100
 30
0.000000
  70
    32
  0
VERTEX
  8
É}ÿg
  5
887
 10
1116.90
 20
-564.117
 30
0.000000
  70
    32
  0
VERTEX
  8
É}ÿg
  5
888
 10
1116.97
 20
-564.135
 30
0.000000
  70
    32
  0
VERTEX
  8
É}ÿg
  5
889
 10
1117.04
 20
-564.153
 30
0.000000
  70
    32
  0
VERTEX
  8
É}ÿg
  5
88A
 10
1117.11
 20
-564.170
 30
0.000000
  70
    32
  0
VERTEX
  8
É}ÿg
  5
88B
 10
1117.18
 20
-564.188
 30
0.000000
  70
    32
  0
VERTEX
  8
É}ÿg
  5
88C
 10
1117.25
 20
-564.205
 30
0.000000
  70
    32
  0
VERTEX
  8
É}ÿg
  5
88D
 10
1117.32
 20
-564.222
 30
0.000000
  70
    32
  0
VERTEX
  8
É}ÿg
  5
88E
 10
1117.39
 20
-564.240
 30
0.000000
  70
    32
  0
VERTEX
  8
É}ÿg
  5
88F
 10
1117.46
 20
-564.257
 30
0.000000
  70
    32
  0
VERTEX
  8
É}ÿg
  5
890
 10
1117.53
 20
-564.274
 30
0.000000
  70
    32
  0
VERTEX
  8
É}ÿg
  5
891
 10
1117.60
 20
-564.291
 30
0.000000
  70
    32
  0
VERTEX
  8
É}ÿg
  5
892
 10
1117.66
 20
-564.308
 30
0.000000
  70
    32
  0
VERTEX
  8
É}ÿg
  5
893
 10
1117.73
 20
-564.325
 30
0.000000
  70
    32
  0
VERTEX
  8
É}ÿg
  5
894
 10
1117.80
 20
-564.342
 30
0.000000
  70
    32
  0
VERTEX
  8
É}ÿg
  5
895
 10
1117.87
 20
-564.359
 30
0.000000
  70
    32
  0
VERTEX
  8
É}ÿg
  5
896
 10
1117.94
 20
-564.375
 30
0.000000
  70
    32
  0
VERTEX
  8
É}ÿg
  5
897
 10
1118.01
 20
-564.392
 30
0.000000
  70
    32
  0
VERTEX
  8
É}ÿg
  5
898
 10
1118.08
 20
-564.409
 30
0.000000
  70
    32
  0
VERTEX
  8
É}ÿg
  5
899
 10
1118.15
 20
-564.425
 30
0.000000
  70
    32
  0
VERTEX
  8
É}ÿg
  5
89A
 10
1118.22
 20
-564.442
 30
0.000000
  70
    32
  0
VERTEX
  8
É}ÿg
  5
89B
 10
1118.29
 20
-564.458
 30
0.000000
  70
    32
  0
VERTEX
  8
É}ÿg
  5
89C
 10
1118.36
 20
-564.475
 30
0.000000
  70
    32
  0
VERTEX
  8
É}ÿg
  5
89D
 10
1118.43
 20
-564.491
 30
0.000000
  70
    32
  0
VERTEX
  8
É}ÿg
  5
89E
 10
1118.50
 20
-564.508
 30
0.000000
  70
    32
  0
VERTEX
  8
É}ÿg
  5
89F
 10
1118.57
 20
-564.524
 30
0.000000
  70
    32
  0
VERTEX
  8
É}ÿg
  5
8A0
 10
1118.64
 20
-564.540
 30
0.000000
  70
    32
  0
VERTEX
  8
É}ÿg
  5
8A1
 10
1118.71
 20
-564.556
 30
0.000000
  70
    32
  0
VERTEX
  8
É}ÿg
  5
8A2
 10
1118.78
 20
-564.572
 30
0.000000
  70
    32
  0
VERTEX
  8
É}ÿg
  5
8A3
 10
1118.85
 20
-564.589
 30
0.000000
  70
    32
  0
VERTEX
  8
É}ÿg
  5
8A4
 10
1118.92
 20
-564.605
 30
0.000000
  70
    32
  0
VERTEX
  8
É}ÿg
  5
8A5
 10
1118.99
 20
-564.621
 30
0.000000
  70
    32
  0
VERTEX
  8
É}ÿg
  5
8A6
 10
1119.07
 20
-564.637
 30
0.000000
  70
    32
  0
VERTEX
  8
É}ÿg
  5
8A7
 10
1119.14
 20
-564.652
 30
0.000000
  70
    32
  0
VERTEX
  8
É}ÿg
  5
8A8
 10
1119.21
 20
-564.668
 30
0.000000
  70
    32
  0
VERTEX
  8
É}ÿg
  5
8A9
 10
1119.28
 20
-564.684
 30
0.000000
  70
    32
  0
VERTEX
  8
É}ÿg
  5
8AA
 10
1119.35
 20
-564.700
 30
0.000000
  70
    32
  0
VERTEX
  8
É}ÿg
  5
8AB
 10
1119.42
 20
-564.716
 30
0.000000
  70
    32
  0
VERTEX
  8
É}ÿg
  5
8AC
 10
1119.49
 20
-564.731
 30
0.000000
  70
    32
  0
VERTEX
  8
É}ÿg
  5
8AD
 10
1119.56
 20
-564.747
 30
0.000000
  70
    32
  0
VERTEX
  8
É}ÿg
  5
8AE
 10
1119.63
 20
-564.763
 30
0.000000
  70
    32
  0
VERTEX
  8
É}ÿg
  5
8AF
 10
1119.70
 20
-564.778
 30
0.000000
  70
    32
  0
VERTEX
  8
É}ÿg
  5
8B0
 10
1119.77
 20
-564.794
 30
0.000000
  70
    32
  0
VERTEX
  8
É}ÿg
  5
8B1
 10
1119.84
 20
-564.809
 30
0.000000
  70
    32
  0
VERTEX
  8
É}ÿg
  5
8B2
 10
1119.91
 20
-564.825
 30
0.000000
  70
    32
  0
VERTEX
  8
É}ÿg
  5
8B3
 10
1119.98
 20
-564.840
 30
0.000000
  70
    32
  0
VERTEX
  8
É}ÿg
  5
8B4
 10
1120.05
 20
-564.855
 30
0.000000
  70
    32
  0
VERTEX
  8
É}ÿg
  5
8B5
 10
1120.12
 20
-564.871
 30
0.000000
  70
    32
  0
VERTEX
  8
É}ÿg
  5
8B6
 10
1120.19
 20
-564.886
 30
0.000000
  70
    32
  0
VERTEX
  8
É}ÿg
  5
8B7
 10
1120.26
 20
-564.902
 30
0.000000
  70
    32
  0
VERTEX
  8
É}ÿg
  5
8B8
 10
1120.33
 20
-564.917
 30
0.000000
  70
    32
  0
VERTEX
  8
É}ÿg
  5
8B9
 10
1120.40
 20
-564.932
 30
0.000000
  70
    32
  0
VERTEX
  8
É}ÿg
  5
8BA
 10
1120.48
 20
-564.947
 30
0.000000
  70
    32
  0
VERTEX
  8
É}ÿg
  5
8BB
 10
1120.55
 20
-564.962
 30
0.000000
  70
    32
  0
VERTEX
  8
É}ÿg
  5
8BC
 10
1120.62
 20
-564.978
 30
0.000000
  70
    32
  0
VERTEX
  8
É}ÿg
  5
8BD
 10
1120.69
 20
-564.993
 30
0.000000
  70
    32
  0
VERTEX
  8
É}ÿg
  5
8BE
 10
1120.76
 20
-565.008
 30
0.000000
  70
    32
  0
VERTEX
  8
É}ÿg
  5
8BF
 10
1120.83
 20
-565.023
 30
0.000000
  70
    32
  0
VERTEX
  8
É}ÿg
  5
8C0
 10
1120.90
 20
-565.038
 30
0.000000
  70
    32
  0
VERTEX
  8
É}ÿg
  5
8C1
 10
1120.97
 20
-565.053
 30
0.000000
  70
    32
  0
VERTEX
  8
É}ÿg
  5
8C2
 10
1121.04
 20
-565.068
 30
0.000000
  70
    32
  0
VERTEX
  8
É}ÿg
  5
8C3
 10
1121.11
 20
-565.083
 30
0.000000
  70
    32
  0
VERTEX
  8
É}ÿg
  5
8C4
 10
1121.18
 20
-565.098
 30
0.000000
  70
    32
  0
VERTEX
  8
É}ÿg
  5
8C5
 10
1121.25
 20
-565.113
 30
0.000000
  70
    32
  0
VERTEX
  8
É}ÿg
  5
8C6
 10
1121.32
 20
-565.128
 30
0.000000
  70
    32
  0
VERTEX
  8
É}ÿg
  5
8C7
 10
1121.40
 20
-565.143
 30
0.000000
  70
    32
  0
VERTEX
  8
É}ÿg
  5
8C8
 10
1121.47
 20
-565.158
 30
0.000000
  70
    32
  0
VERTEX
  8
É}ÿg
  5
8C9
 10
1121.54
 20
-565.173
 30
0.000000
  70
    32
  0
VERTEX
  8
É}ÿg
  5
8CA
 10
1121.61
 20
-565.188
 30
0.000000
  70
    32
  0
VERTEX
  8
É}ÿg
  5
8CB
 10
1121.68
 20
-565.202
 30
0.000000
  70
    32
  0
VERTEX
  8
É}ÿg
  5
8CC
 10
1121.75
 20
-565.217
 30
0.000000
  70
    32
  0
VERTEX
  8
É}ÿg
  5
8CD
 10
1121.82
 20
-565.232
 30
0.000000
  70
    32
  0
VERTEX
  8
É}ÿg
  5
8CE
 10
1121.89
 20
-565.247
 30
0.000000
  70
    32
  0
VERTEX
  8
É}ÿg
  5
8CF
 10
1121.96
 20
-565.262
 30
0.000000
  70
    32
  0
VERTEX
  8
É}ÿg
  5
8D0
 10
1122.03
 20
-565.276
 30
0.000000
  70
    32
  0
VERTEX
  8
É}ÿg
  5
8D1
 10
1122.10
 20
-565.291
 30
0.000000
  70
    32
  0
VERTEX
  8
É}ÿg
  5
8D2
 10
1122.17
 20
-565.306
 30
0.000000
  70
    32
  0
VERTEX
  8
É}ÿg
  5
8D3
 10
1122.25
 20
-565.321
 30
0.000000
  70
    32
  0
VERTEX
  8
É}ÿg
  5
8D4
 10
1122.32
 20
-565.336
 30
0.000000
  70
    32
  0
VERTEX
  8
É}ÿg
  5
8D5
 10
1122.39
 20
-565.350
 30
0.000000
  70
    32
  0
VERTEX
  8
É}ÿg
  5
8D6
 10
1122.46
 20
-565.365
 30
0.000000
  70
    32
  0
VERTEX
  8
É}ÿg
  5
8D7
 10
1122.53
 20
-565.380
 30
0.000000
  70
    32
  0
VERTEX
  8
É}ÿg
  5
8D8
 10
1122.60
 20
-565.395
 30
0.000000
  70
    32
  0
VERTEX
  8
É}ÿg
  5
8D9
 10
1122.67
 20
-565.409
 30
0.000000
  70
    32
  0
VERTEX
  8
É}ÿg
  5
8DA
 10
1122.74
 20
-565.424
 30
0.000000
  70
    32
  0
VERTEX
  8
É}ÿg
  5
8DB
 10
1122.81
 20
-565.439
 30
0.000000
  70
    32
  0
SEQEND
  8
É}ÿg
  5
8DC
  0
POLYLINE
  8
É}ÿg
  5
8DD
  66
     1
 10
0.000000
 20
0.000000
 30
0.000000
  70
     8
  0
VERTEX
  8
É}ÿg
  5
8DE
 10
1100.31
 20
-554.549
 30
0.000000
  70
    32
  0
VERTEX
  8
É}ÿg
  5
8DF
 10
1100.36
 20
-554.591
 30
0.000000
  70
    32
  0
VERTEX
  8
É}ÿg
  5
8E0
 10
1100.40
 20
-554.632
 30
0.000000
  70
    32
  0
VERTEX
  8
É}ÿg
  5
8E1
 10
1100.45
 20
-554.674
 30
0.000000
  70
    32
  0
VERTEX
  8
É}ÿg
  5
8E2
 10
1100.49
 20
-554.715
 30
0.000000
  70
    32
  0
VERTEX
  8
É}ÿg
  5
8E3
 10
1100.54
 20
-554.757
 30
0.000000
  70
    32
  0
VERTEX
  8
É}ÿg
  5
8E4
 10
1100.58
 20
-554.798
 30
0.000000
  70
    32
  0
VERTEX
  8
É}ÿg
  5
8E5
 10
1100.63
 20
-554.840
 30
0.000000
  70
    32
  0
VERTEX
  8
É}ÿg
  5
8E6
 10
1100.67
 20
-554.881
 30
0.000000
  70
    32
  0
VERTEX
  8
É}ÿg
  5
8E7
 10
1100.72
 20
-554.923
 30
0.000000
  70
    32
  0
VERTEX
  8
É}ÿg
  5
8E8
 10
1100.76
 20
-554.964
 30
0.000000
  70
    32
  0
VERTEX
  8
É}ÿg
  5
8E9
 10
1100.81
 20
-555.006
 30
0.000000
  70
    32
  0
VERTEX
  8
É}ÿg
  5
8EA
 10
1100.85
 20
-555.047
 30
0.000000
  70
    32
  0
VERTEX
  8
É}ÿg
  5
8EB
 10
1100.90
 20
-555.089
 30
0.000000
  70
    32
  0
VERTEX
  8
É}ÿg
  5
8EC
 10
1100.94
 20
-555.130
 30
0.000000
  70
    32
  0
VERTEX
  8
É}ÿg
  5
8ED
 10
1100.99
 20
-555.172
 30
0.000000
  70
    32
  0
VERTEX
  8
É}ÿg
  5
8EE
 10
1101.03
 20
-555.213
 30
0.000000
  70
    32
  0
VERTEX
  8
É}ÿg
  5
8EF
 10
1101.08
 20
-555.254
 30
0.000000
  70
    32
  0
VERTEX
  8
É}ÿg
  5
8F0
 10
1101.12
 20
-555.296
 30
0.000000
  70
    32
  0
VERTEX
  8
É}ÿg
  5
8F1
 10
1101.17
 20
-555.337
 30
0.000000
  70
    32
  0
VERTEX
  8
É}ÿg
  5
8F2
 10
1101.21
 20
-555.378
 30
0.000000
  70
    32
  0
VERTEX
  8
É}ÿg
  5
8F3
 10
1101.26
 20
-555.420
 30
0.000000
  70
    32
  0
VERTEX
  8
É}ÿg
  5
8F4
 10
1101.30
 20
-555.461
 30
0.000000
  70
    32
  0
VERTEX
  8
É}ÿg
  5
8F5
 10
1101.35
 20
-555.502
 30
0.000000
  70
    32
  0
VERTEX
  8
É}ÿg
  5
8F6
 10
1101.39
 20
-555.544
 30
0.000000
  70
    32
  0
VERTEX
  8
É}ÿg
  5
8F7
 10
1101.44
 20
-555.585
 30
0.000000
  70
    32
  0
VERTEX
  8
É}ÿg
  5
8F8
 10
1101.49
 20
-555.626
 30
0.000000
  70
    32
  0
VERTEX
  8
É}ÿg
  5
8F9
 10
1101.53
 20
-555.667
 30
0.000000
  70
    32
  0
VERTEX
  8
É}ÿg
  5
8FA
 10
1101.58
 20
-555.708
 30
0.000000
  70
    32
  0
VERTEX
  8
É}ÿg
  5
8FB
 10
1101.62
 20
-555.750
 30
0.000000
  70
    32
  0
VERTEX
  8
É}ÿg
  5
8FC
 10
1101.67
 20
-555.791
 30
0.000000
  70
    32
  0
VERTEX
  8
É}ÿg
  5
8FD
 10
1101.71
 20
-555.832
 30
0.000000
  70
    32
  0
VERTEX
  8
É}ÿg
  5
8FE
 10
1101.76
 20
-555.873
 30
0.000000
  70
    32
  0
VERTEX
  8
É}ÿg
  5
8FF
 10
1101.80
 20
-555.914
 30
0.000000
  70
    32
  0
VERTEX
  8
É}ÿg
  5
900
 10
1101.85
 20
-555.955
 30
0.000000
  70
    32
  0
VERTEX
  8
É}ÿg
  5
901
 10
1101.89
 20
-555.996
 30
0.000000
  70
    32
  0
VERTEX
  8
É}ÿg
  5
902
 10
1101.94
 20
-556.037
 30
0.000000
  70
    32
  0
VERTEX
  8
É}ÿg
  5
903
 10
1101.98
 20
-556.078
 30
0.000000
  70
    32
  0
VERTEX
  8
É}ÿg
  5
904
 10
1102.03
 20
-556.119
 30
0.000000
  70
    32
  0
VERTEX
  8
É}ÿg
  5
905
 10
1102.07
 20
-556.160
 30
0.000000
  70
    32
  0
VERTEX
  8
É}ÿg
  5
906
 10
1102.12
 20
-556.200
 30
0.000000
  70
    32
  0
VERTEX
  8
É}ÿg
  5
907
 10
1102.16
 20
-556.241
 30
0.000000
  70
    32
  0
VERTEX
  8
É}ÿg
  5
908
 10
1102.21
 20
-556.282
 30
0.000000
  70
    32
  0
VERTEX
  8
É}ÿg
  5
909
 10
1102.26
 20
-556.323
 30
0.000000
  70
    32
  0
VERTEX
  8
É}ÿg
  5
90A
 10
1102.30
 20
-556.363
 30
0.000000
  70
    32
  0
VERTEX
  8
É}ÿg
  5
90B
 10
1102.35
 20
-556.404
 30
0.000000
  70
    32
  0
VERTEX
  8
É}ÿg
  5
90C
 10
1102.39
 20
-556.445
 30
0.000000
  70
    32
  0
VERTEX
  8
É}ÿg
  5
90D
 10
1102.44
 20
-556.485
 30
0.000000
  70
    32
  0
VERTEX
  8
É}ÿg
  5
90E
 10
1102.48
 20
-556.526
 30
0.000000
  70
    32
  0
VERTEX
  8
É}ÿg
  5
90F
 10
1102.53
 20
-556.566
 30
0.000000
  70
    32
  0
VERTEX
  8
É}ÿg
  5
910
 10
1102.57
 20
-556.607
 30
0.000000
  70
    32
  0
VERTEX
  8
É}ÿg
  5
911
 10
1102.62
 20
-556.647
 30
0.000000
  70
    32
  0
VERTEX
  8
É}ÿg
  5
912
 10
1102.67
 20
-556.688
 30
0.000000
  70
    32
  0
VERTEX
  8
É}ÿg
  5
913
 10
1102.71
 20
-556.728
 30
0.000000
  70
    32
  0
VERTEX
  8
É}ÿg
  5
914
 10
1102.76
 20
-556.768
 30
0.000000
  70
    32
  0
VERTEX
  8
É}ÿg
  5
915
 10
1102.80
 20
-556.808
 30
0.000000
  70
    32
  0
VERTEX
  8
É}ÿg
  5
916
 10
1102.85
 20
-556.848
 30
0.000000
  70
    32
  0
VERTEX
  8
É}ÿg
  5
917
 10
1102.89
 20
-556.889
 30
0.000000
  70
    32
  0
VERTEX
  8
É}ÿg
  5
918
 10
1102.94
 20
-556.929
 30
0.000000
  70
    32
  0
VERTEX
  8
É}ÿg
  5
919
 10
1102.99
 20
-556.969
 30
0.000000
  70
    32
  0
VERTEX
  8
É}ÿg
  5
91A
 10
1103.03
 20
-557.009
 30
0.000000
  70
    32
  0
VERTEX
  8
É}ÿg
  5
91B
 10
1103.08
 20
-557.049
 30
0.000000
  70
    32
  0
VERTEX
  8
É}ÿg
  5
91C
 10
1103.12
 20
-557.089
 30
0.000000
  70
    32
  0
VERTEX
  8
É}ÿg
  5
91D
 10
1103.17
 20
-557.128
 30
0.000000
  70
    32
  0
VERTEX
  8
É}ÿg
  5
91E
 10
1103.22
 20
-557.168
 30
0.000000
  70
    32
  0
VERTEX
  8
É}ÿg
  5
91F
 10
1103.26
 20
-557.208
 30
0.000000
  70
    32
  0
VERTEX
  8
É}ÿg
  5
920
 10
1103.31
 20
-557.247
 30
0.000000
  70
    32
  0
VERTEX
  8
É}ÿg
  5
921
 10
1103.35
 20
-557.287
 30
0.000000
  70
    32
  0
VERTEX
  8
É}ÿg
  5
922
 10
1103.40
 20
-557.327
 30
0.000000
  70
    32
  0
VERTEX
  8
É}ÿg
  5
923
 10
1103.45
 20
-557.366
 30
0.000000
  70
    32
  0
VERTEX
  8
É}ÿg
  5
924
 10
1103.49
 20
-557.405
 30
0.000000
  70
    32
  0
VERTEX
  8
É}ÿg
  5
925
 10
1103.54
 20
-557.445
 30
0.000000
  70
    32
  0
VERTEX
  8
É}ÿg
  5
926
 10
1103.58
 20
-557.484
 30
0.000000
  70
    32
  0
VERTEX
  8
É}ÿg
  5
927
 10
1103.63
 20
-557.523
 30
0.000000
  70
    32
  0
VERTEX
  8
É}ÿg
  5
928
 10
1103.68
 20
-557.563
 30
0.000000
  70
    32
  0
VERTEX
  8
É}ÿg
  5
929
 10
1103.72
 20
-557.602
 30
0.000000
  70
    32
  0
VERTEX
  8
É}ÿg
  5
92A
 10
1103.77
 20
-557.641
 30
0.000000
  70
    32
  0
VERTEX
  8
É}ÿg
  5
92B
 10
1103.82
 20
-557.680
 30
0.000000
  70
    32
  0
VERTEX
  8
É}ÿg
  5
92C
 10
1103.86
 20
-557.719
 30
0.000000
  70
    32
  0
VERTEX
  8
É}ÿg
  5
92D
 10
1103.91
 20
-557.757
 30
0.000000
  70
    32
  0
VERTEX
  8
É}ÿg
  5
92E
 10
1103.96
 20
-557.796
 30
0.000000
  70
    32
  0
VERTEX
  8
É}ÿg
  5
92F
 10
1104.00
 20
-557.835
 30
0.000000
  70
    32
  0
VERTEX
  8
É}ÿg
  5
930
 10
1104.05
 20
-557.874
 30
0.000000
  70
    32
  0
VERTEX
  8
É}ÿg
  5
931
 10
1104.10
 20
-557.912
 30
0.000000
  70
    32
  0
VERTEX
  8
É}ÿg
  5
932
 10
1104.14
 20
-557.951
 30
0.000000
  70
    32
  0
VERTEX
  8
É}ÿg
  5
933
 10
1104.19
 20
-557.989
 30
0.000000
  70
    32
  0
VERTEX
  8
É}ÿg
  5
934
 10
1104.24
 20
-558.027
 30
0.000000
  70
    32
  0
VERTEX
  8
É}ÿg
  5
935
 10
1104.28
 20
-558.066
 30
0.000000
  70
    32
  0
VERTEX
  8
É}ÿg
  5
936
 10
1104.33
 20
-558.104
 30
0.000000
  70
    32
  0
VERTEX
  8
É}ÿg
  5
937
 10
1104.38
 20
-558.142
 30
0.000000
  70
    32
  0
VERTEX
  8
É}ÿg
  5
938
 10
1104.42
 20
-558.180
 30
0.000000
  70
    32
  0
VERTEX
  8
É}ÿg
  5
939
 10
1104.47
 20
-558.218
 30
0.000000
  70
    32
  0
VERTEX
  8
É}ÿg
  5
93A
 10
1104.52
 20
-558.256
 30
0.000000
  70
    32
  0
VERTEX
  8
É}ÿg
  5
93B
 10
1104.56
 20
-558.294
 30
0.000000
  70
    32
  0
VERTEX
  8
É}ÿg
  5
93C
 10
1104.61
 20
-558.331
 30
0.000000
  70
    32
  0
VERTEX
  8
É}ÿg
  5
93D
 10
1104.66
 20
-558.369
 30
0.000000
  70
    32
  0
VERTEX
  8
É}ÿg
  5
93E
 10
1104.70
 20
-558.407
 30
0.000000
  70
    32
  0
VERTEX
  8
É}ÿg
  5
93F
 10
1104.75
 20
-558.444
 30
0.000000
  70
    32
  0
VERTEX
  8
É}ÿg
  5
940
 10
1104.80
 20
-558.482
 30
0.000000
  70
    32
  0
VERTEX
  8
É}ÿg
  5
941
 10
1104.85
 20
-558.519
 30
0.000000
  70
    32
  0
VERTEX
  8
É}ÿg
  5
942
 10
1104.89
 20
-558.556
 30
0.000000
  70
    32
  0
VERTEX
  8
É}ÿg
  5
943
 10
1104.94
 20
-558.593
 30
0.000000
  70
    32
  0
VERTEX
  8
É}ÿg
  5
944
 10
1104.99
 20
-558.630
 30
0.000000
  70
    32
  0
VERTEX
  8
É}ÿg
  5
945
 10
1105.04
 20
-558.667
 30
0.000000
  70
    32
  0
VERTEX
  8
É}ÿg
  5
946
 10
1105.08
 20
-558.704
 30
0.000000
  70
    32
  0
VERTEX
  8
É}ÿg
  5
947
 10
1105.13
 20
-558.741
 30
0.000000
  70
    32
  0
VERTEX
  8
É}ÿg
  5
948
 10
1105.18
 20
-558.778
 30
0.000000
  70
    32
  0
VERTEX
  8
É}ÿg
  5
949
 10
1105.23
 20
-558.814
 30
0.000000
  70
    32
  0
VERTEX
  8
É}ÿg
  5
94A
 10
1105.27
 20
-558.851
 30
0.000000
  70
    32
  0
VERTEX
  8
É}ÿg
  5
94B
 10
1105.32
 20
-558.887
 30
0.000000
  70
    32
  0
VERTEX
  8
É}ÿg
  5
94C
 10
1105.37
 20
-558.923
 30
0.000000
  70
    32
  0
VERTEX
  8
É}ÿg
  5
94D
 10
1105.42
 20
-558.960
 30
0.000000
  70
    32
  0
VERTEX
  8
É}ÿg
  5
94E
 10
1105.47
 20
-558.996
 30
0.000000
  70
    32
  0
VERTEX
  8
É}ÿg
  5
94F
 10
1105.51
 20
-559.032
 30
0.000000
  70
    32
  0
VERTEX
  8
É}ÿg
  5
950
 10
1105.56
 20
-559.068
 30
0.000000
  70
    32
  0
VERTEX
  8
É}ÿg
  5
951
 10
1105.61
 20
-559.104
 30
0.000000
  70
    32
  0
VERTEX
  8
É}ÿg
  5
952
 10
1105.66
 20
-559.139
 30
0.000000
  70
    32
  0
VERTEX
  8
É}ÿg
  5
953
 10
1105.71
 20
-559.175
 30
0.000000
  70
    32
  0
VERTEX
  8
É}ÿg
  5
954
 10
1105.75
 20
-559.211
 30
0.000000
  70
    32
  0
VERTEX
  8
É}ÿg
  5
955
 10
1105.80
 20
-559.246
 30
0.000000
  70
    32
  0
VERTEX
  8
É}ÿg
  5
956
 10
1105.85
 20
-559.281
 30
0.000000
  70
    32
  0
VERTEX
  8
É}ÿg
  5
957
 10
1105.90
 20
-559.317
 30
0.000000
  70
    32
  0
VERTEX
  8
É}ÿg
  5
958
 10
1105.95
 20
-559.352
 30
0.000000
  70
    32
  0
VERTEX
  8
É}ÿg
  5
959
 10
1106.00
 20
-559.387
 30
0.000000
  70
    32
  0
VERTEX
  8
É}ÿg
  5
95A
 10
1106.05
 20
-559.422
 30
0.000000
  70
    32
  0
VERTEX
  8
É}ÿg
  5
95B
 10
1106.09
 20
-559.457
 30
0.000000
  70
    32
  0
VERTEX
  8
É}ÿg
  5
95C
 10
1106.14
 20
-559.491
 30
0.000000
  70
    32
  0
VERTEX
  8
É}ÿg
  5
95D
 10
1106.19
 20
-559.526
 30
0.000000
  70
    32
  0
VERTEX
  8
É}ÿg
  5
95E
 10
1106.24
 20
-559.560
 30
0.000000
  70
    32
  0
VERTEX
  8
É}ÿg
  5
95F
 10
1106.29
 20
-559.595
 30
0.000000
  70
    32
  0
VERTEX
  8
É}ÿg
  5
960
 10
1106.34
 20
-559.629
 30
0.000000
  70
    32
  0
VERTEX
  8
É}ÿg
  5
961
 10
1106.39
 20
-559.663
 30
0.000000
  70
    32
  0
VERTEX
  8
É}ÿg
  5
962
 10
1106.44
 20
-559.697
 30
0.000000
  70
    32
  0
VERTEX
  8
É}ÿg
  5
963
 10
1106.49
 20
-559.731
 30
0.000000
  70
    32
  0
VERTEX
  8
É}ÿg
  5
964
 10
1106.53
 20
-559.765
 30
0.000000
  70
    32
  0
VERTEX
  8
É}ÿg
  5
965
 10
1106.58
 20
-559.799
 30
0.000000
  70
    32
  0
VERTEX
  8
É}ÿg
  5
966
 10
1106.63
 20
-559.832
 30
0.000000
  70
    32
  0
VERTEX
  8
É}ÿg
  5
967
 10
1106.68
 20
-559.866
 30
0.000000
  70
    32
  0
VERTEX
  8
É}ÿg
  5
968
 10
1106.73
 20
-559.899
 30
0.000000
  70
    32
  0
VERTEX
  8
É}ÿg
  5
969
 10
1106.78
 20
-559.932
 30
0.000000
  70
    32
  0
VERTEX
  8
É}ÿg
  5
96A
 10
1106.83
 20
-559.965
 30
0.000000
  70
    32
  0
VERTEX
  8
É}ÿg
  5
96B
 10
1106.88
 20
-559.998
 30
0.000000
  70
    32
  0
VERTEX
  8
É}ÿg
  5
96C
 10
1106.93
 20
-560.031
 30
0.000000
  70
    32
  0
VERTEX
  8
É}ÿg
  5
96D
 10
1106.98
 20
-560.064
 30
0.000000
  70
    32
  0
VERTEX
  8
É}ÿg
  5
96E
 10
1107.03
 20
-560.096
 30
0.000000
  70
    32
  0
VERTEX
  8
É}ÿg
  5
96F
 10
1107.08
 20
-560.129
 30
0.000000
  70
    32
  0
VERTEX
  8
É}ÿg
  5
970
 10
1107.13
 20
-560.161
 30
0.000000
  70
    32
  0
VERTEX
  8
É}ÿg
  5
971
 10
1107.18
 20
-560.193
 30
0.000000
  70
    32
  0
VERTEX
  8
É}ÿg
  5
972
 10
1107.23
 20
-560.226
 30
0.000000
  70
    32
  0
VERTEX
  8
É}ÿg
  5
973
 10
1107.28
 20
-560.258
 30
0.000000
  70
    32
  0
VERTEX
  8
É}ÿg
  5
974
 10
1107.33
 20
-560.289
 30
0.000000
  70
    32
  0
VERTEX
  8
É}ÿg
  5
975
 10
1107.38
 20
-560.321
 30
0.000000
  70
    32
  0
VERTEX
  8
É}ÿg
  5
976
 10
1107.43
 20
-560.353
 30
0.000000
  70
    32
  0
VERTEX
  8
É}ÿg
  5
977
 10
1107.48
 20
-560.384
 30
0.000000
  70
    32
  0
VERTEX
  8
É}ÿg
  5
978
 10
1107.53
 20
-560.416
 30
0.000000
  70
    32
  0
VERTEX
  8
É}ÿg
  5
979
 10
1107.58
 20
-560.447
 30
0.000000
  70
    32
  0
VERTEX
  8
É}ÿg
  5
97A
 10
1107.63
 20
-560.478
 30
0.000000
  70
    32
  0
VERTEX
  8
É}ÿg
  5
97B
 10
1107.68
 20
-560.509
 30
0.000000
  70
    32
  0
VERTEX
  8
É}ÿg
  5
97C
 10
1107.73
 20
-560.540
 30
0.000000
  70
    32
  0
VERTEX
  8
É}ÿg
  5
97D
 10
1107.79
 20
-560.570
 30
0.000000
  70
    32
  0
SEQEND
  8
É}ÿg
  5
97E
  0
INSERT
  5
F5
  8
0
  6
CONTINUOUS
  2
*U71
 10
0.0
 20
0.0
 30
0.0
  0
LINE
  5
F6
  8
É}ÿg
 10
1134.2248325635001
 20
-498.88054907719999
 30
0.0
 11
1134.2248325635001
 21
-504.88054907719987
 31
0.0
  0
LINE
  5
F7
  8
É}ÿg
 10
1093.6616550050001
 20
-552.93886666000003
 30
0.0
 11
1093.6616550050001
 21
-556.68886666000003
 31
0.0
  0
LINE
  5
F8
  8
É}ÿg
 10
1134.2248325635001
 20
-504.88054907719987
 30
0.0
 11
1146.2248325635001
 21
-507.88054907719987
 31
0.0
  0
LINE
  5
F9
  8
É}ÿg
 10
1100.3131701565001
 20
-547.93886666000003
 30
0.0
 11
1100.3131701565001
 21
-552.43886666000003
 31
0.0
  0
ARC
  5
FA
  8
É}ÿg
 10
1082.4116550050001
 20
-557.93886666000003
 30
0.0
 40
7.5
 50
270.0
 51
0.0
  0
LINE
  5
FB
  8
É}ÿg
 10
974.51003878429992
 20
-488.13054907719999
 30
0.0
 11
974.51003878429992
 21
-570.63054907720004
 31
0.0
  0
INSERT
  5
FC
  8
0
  6
CONTINUOUS
  2
*U72
 10
0.0
 20
0.0
 30
0.0
  0
INSERT
  5
FD
  8
0
  6
CONTINUOUS
  2
*U73
 10
0.0
 20
0.0
 30
0.0
  0
INSERT
  5
FE
  8
0
  6
CONTINUOUS
  2
*U74
 10
0.0
 20
0.0
 30
0.0
  0
INSERT
  5
FF
  8
0
  6
CONTINUOUS
  2
*U75
 10
0.0
 20
0.0
 30
0.0
  0
LINE
  5
100
  8
É}ÿg
 10
1068.2600387842999
 20
-515.63054907720004
 30
0.0
 11
1068.2600387842999
 21
-543.13054907720004
 31
0.0
  0
LINE
  5
101
  8
É}ÿg
 10
974.51003878429992
 20
-543.13054907720004
 30
0.0
 11
1337.0100387842999
 21
-543.13054907720004
 31
0.0
  0
LINE
  5
102
  8
É}ÿg
 10
980.76003878429992
 20
-529.38054907720004
 30
0.0
 11
1062.0100387842999
 21
-529.38054907720004
 31
0.0
  0
LINE
  5
103
  8
É}ÿg
 10
1074.5100387842999
 20
-529.38054907720004
 30
0.0
 11
1155.7600387842999
 21
-529.38054907720004
 31
0.0
  0
INSERT
  5
104
  8
0
  6
CONTINUOUS
  2
*U76
 10
0.0
 20
0.0
 30
0.0
  0
INSERT
  5
105
  8
0
  6
CONTINUOUS
  2
*U77
 10
0.0
 20
0.0
 30
0.0
  0
LINE
  5
106
  8
É}ÿg
 10
997.01003878429992
 20
-475.63054907719999
 30
0.0
 11
997.01003878429992
 21
-463.13054907719999
 31
0.0
  0
LINE
  5
107
  8
É}ÿg
 10
974.51003878429992
 20
-475.63054907719999
 30
0.0
 11
974.51003878429992
 21
-463.13054907719999
 31
0.0
  0
LINE
  5
108
  8
É}ÿg
 10
1259.5100387842999
 20
-475.63054907719999
 30
0.0
 11
1259.5100387842999
 21
-463.13054907719999
 31
0.0
  0
LINE
  5
109
  8
É}ÿg
 10
1237.0100387842999
 20
-475.63054907719999
 30
0.0
 11
1237.0100387842999
 21
-463.13054907719999
 31
0.0
  0
LINE
  5
10A
  8
É}ÿg
 10
1337.0100387842999
 20
-463.13054907719999
 30
0.0
 11
974.51003878429992
 21
-463.13054907719999
 31
0.0
  0
LINE
  5
10B
  8
É}ÿg
 10
974.51003878429992
 20
-475.63054907719999
 30
0.0
 11
1337.0100387842999
 21
-475.63054907719999
 31
0.0
  0
LINE
  5
10C
  8
É}ÿg
 10
1122.0100387842999
 20
-475.63054907719999
 30
0.0
 11
1122.0100387842999
 21
-463.13054907719999
 31
0.0
  0
INSERT
  5
10D
  8
0
  6
CONTINUOUS
  2
*U78
 10
0.0
 20
0.0
 30
0.0
  0
INSERT
  5
10E
  8
0
  6
CONTINUOUS
  2
*U79
 10
0.0
 20
0.0
 30
0.0
  0
CIRCLE
  5
10F
  8
É}ÿg
 10
1120.5100387842999
 20
-501.88054907719999
 30
0.0
 40
3.0
  0
LINE
  5
110
  8
É}ÿg
 10
1134.2248325635001
 20
-504.88054907719987
 30
0.0
 11
1146.2248325635001
 21
-507.88054907719987
 31
0.0
  0
LINE
  5
111
  8
É}ÿg
 10
1134.2248325635001
 20
-498.88054907719999
 30
0.0
 11
1134.2248325635001
 21
-504.88054907719987
 31
0.0
  0
LINE
  5
112
  8
É}ÿg
 10
1146.2248325635001
 20
-495.88054907719987
 30
0.0
 11
1146.2248325635001
 21
-507.88054907719987
 31
0.0
  0
LINE
  5
113
  8
É}ÿg
  6
BORDER
 10
1120.5100387842999
 20
-492.88054907719987
 30
0.0
 11
1120.5100387842999
 21
-510.88054907719999
 31
0.0
  0
LINE
  5
114
  8
É}ÿg
  6
BORDER
 10
1120.5100387842999
 20
-492.88054907719987
 30
0.0
 11
1120.5100387842999
 21
-510.88054907719999
 31
0.0
  0
LINE
  5
115
  8
É}ÿg
 10
1146.2248325635001
 20
-495.88054907719987
 30
0.0
 11
1146.2248325635001
 21
-507.88054907719987
 31
0.0
  0
LINE
  5
116
  8
É}ÿg
 10
1134.2248325635001
 20
-498.88054907719999
 30
0.0
 11
1134.2248325635001
 21
-504.88054907719987
 31
0.0
  0
LINE
  5
117
  8
É}ÿg
 10
1134.2248325635001
 20
-504.88054907719987
 30
0.0
 11
1146.2248325635001
 21
-507.88054907719987
 31
0.0
  0
LINE
  5
118
  8
É}ÿg
 10
1134.2248325635001
 20
-498.88054907719999
 30
0.0
 11
1146.2248325635001
 21
-495.88054907719987
 31
0.0
  0
CIRCLE
  5
119
  8
É}ÿg
 10
1120.5100387842999
 20
-501.88054907719999
 30
0.0
 40
6.0
  0
CIRCLE
  5
11A
  8
É}ÿg
 10
1120.5100387842999
 20
-501.88054907719999
 30
0.0
 40
3.0
  0
CIRCLE
  5
11B
  8
É}ÿg
 10
1120.5100387842999
 20
-501.88054907719999
 30
0.0
 40
6.0
  0
LINE
  5
11C
  8
É}ÿg
 10
1134.2248325635001
 20
-498.88054907719999
 30
0.0
 11
1146.2248325635001
 21
-495.88054907719987
 31
0.0
  0
ENDBLK
  5
11D
  8
0
  0
BLOCK
  8
0
  2
CLUMP1
 70
     0
 10
0.0
 20
0.0
 30
0.0
  3
CLUMP1
  1

  0
LINE
  5
121
  8
É}ÿg
 10
1122.0100387842999
 20
-425.63054907719999
 30
0.0
 11
1122.0100387842999
 21
-413.13054907719999
 31
0.0
  0
LINE
  5
122
  8
É}ÿg
 10
974.51003878429992
 20
-425.63054907719999
 30
0.0
 11
974.51003878429992
 21
-413.13054907719999
 31
0.0
  0
LINE
  5
123
  8
É}ÿg
 10
997.01003878429992
 20
-425.63054907719999
 30
0.0
 11
997.01003878429992
 21
-413.13054907719999
 31
0.0
  0
LINE
  5
124
  8
É}ÿg
 10
1259.5100387842999
 20
-425.63054907719999
 30
0.0
 11
1259.5100387842999
 21
-413.13054907719999
 31
0.0
  0
LINE
  5
125
  8
É}ÿg
 10
1237.0100387842999
 20
-425.63054907719999
 30
0.0
 11
1237.0100387842999
 21
-413.13054907719999
 31
0.0
  0
LINE
  5
126
  8
É}ÿg
 10
1337.0100387842999
 20
-413.13054907719999
 30
0.0
 11
974.51003878429992
 21
-413.13054907719999
 31
0.0
  0
ENDBLK
  5
127
  8
0
  0
BLOCK
  8
0
  2
CLUMP2
 70
     0
 10
0.0
 20
0.0
 30
0.0
  3
CLUMP2
  1

  0
LINE
  5
12B
  8
É}ÿg
 10
1122.0100387842999
 20
-438.13054907719999
 30
0.0
 11
1122.0100387842999
 21
-425.63054907719999
 31
0.0
  0
LINE
  5
12C
  8
É}ÿg
 10
974.51003878429992
 20
-438.13054907719999
 30
0.0
 11
974.51003878429992
 21
-425.63054907719999
 31
0.0
  0
LINE
  5
12D
  8
É}ÿg
 10
997.01003878429992
 20
-438.13054907719999
 30
0.0
 11
997.01003878429992
 21
-425.63054907719999
 31
0.0
  0
LINE
  5
12E
  8
É}ÿg
 10
1259.5100387842999
 20
-438.13054907719999
 30
0.0
 11
1259.5100387842999
 21
-425.63054907719999
 31
0.0
  0
LINE
  5
12F
  8
É}ÿg
 10
1237.0100387842999
 20
-438.13054907719999
 30
0.0
 11
1237.0100387842999
 21
-425.63054907719999
 31
0.0
  0
LINE
  5
130
  8
É}ÿg
 10
1337.0100387842999
 20
-425.63054907719999
 30
0.0
 11
974.51003878429992
 21
-425.63054907719999
 31
0.0
  0
ENDBLK
  5
131
  8
0
  0
BLOCK
  8
0
  2
CLUMP3
 70
     0
 10
0.0
 20
0.0
 30
0.0
  3
CLUMP3
  1

  0
LINE
  5
135
  8
É}ÿg
 10
1122.0100387842999
 20
-450.63054907719999
 30
0.0
 11
1122.0100387842999
 21
-438.13054907719999
 31
0.0
  0
LINE
  5
136
  8
É}ÿg
 10
974.51003878429992
 20
-450.63054907719999
 30
0.0
 11
974.51003878429992
 21
-438.13054907719999
 31
0.0
  0
LINE
  5
137
  8
É}ÿg
 10
997.01003878429992
 20
-450.63054907719999
 30
0.0
 11
997.01003878429992
 21
-438.13054907719999
 31
0.0
  0
LINE
  5
138
  8
É}ÿg
 10
1259.5100387842999
 20
-450.63054907719999
 30
0.0
 11
1259.5100387842999
 21
-438.13054907719999
 31
0.0
  0
LINE
  5
139
  8
É}ÿg
 10
1237.0100387842999
 20
-450.63054907719999
 30
0.0
 11
1237.0100387842999
 21
-438.13054907719999
 31
0.0
  0
LINE
  5
13A
  8
É}ÿg
 10
1337.0100387842999
 20
-438.13054907719999
 30
0.0
 11
974.51003878429992
 21
-438.13054907719999
 31
0.0
  0
ENDBLK
  5
13B
  8
0
  0
BLOCK
  8
0
  2
CLUMP4
 70
     0
 10
0.0
 20
0.0
 30
0.0
  3
CLUMP4
  1

  0
LINE
  5
13F
  8
É}ÿg
 10
1122.0100387842999
 20
-463.13054907719999
 30
0.0
 11
1122.0100387842999
 21
-450.63054907719999
 31
0.0
  0
LINE
  5
140
  8
É}ÿg
 10
974.51003878429992
 20
-463.13054907719999
 30
0.0
 11
974.51003878429992
 21
-450.63054907719999
 31
0.0
  0
LINE
  5
141
  8
É}ÿg
 10
997.01003878429992
 20
-463.13054907719999
 30
0.0
 11
997.01003878429992
 21
-450.63054907719999
 31
0.0
  0
LINE
  5
142
  8
É}ÿg
 10
1259.5100387842999
 20
-463.13054907719999
 30
0.0
 11
1259.5100387842999
 21
-450.63054907719999
 31
0.0
  0
LINE
  5
143
  8
É}ÿg
 10
1237.0100387842999
 20
-463.13054907719999
 30
0.0
 11
1237.0100387842999
 21
-450.63054907719999
 31
0.0
  0
LINE
  5
144
  8
É}ÿg
 10
1337.0100387842999
 20
-450.63054907719999
 30
0.0
 11
974.51003878429992
 21
-450.63054907719999
 31
0.0
  0
ENDBLK
  5
145
  8
0
  0
BLOCK
  8
0
  2
*D9
 70
     1
 10
0.0
 20
0.0
 30
0.0
  3
*D9
  1

  0
TEXT
  5
157
  8
0
 62
     0
 10
621.39570026980005
 20
-85.367503829900002
 30
0.0
 40
8.9958330630999992
  1
8
 50
90.0
  0
LINE
  5
158
  8
0
 62
     0
 10
599.98320022209987
 20
-86.721670576100024
 30
0.0
 11
624.48320022209987
 21
-86.721670576100024
 31
0.0
  0
LINE
  5
159
  8
0
 62
     0
 10
599.98320022209987
 20
-78.721670576099996
 30
0.0
 11
624.48320022209987
 21
-78.721670576099996
 31
0.0
  0
LINE
  5
15A
  8
0
 62
     0
 10
623.98320022209998
 20
-86.721670576100024
 30
0.0
 11
623.98320022209998
 21
-86.721670576100024
 31
0.0
  0
LINE
  5
15B
  8
0
 62
     0
 10
623.98320022209998
 20
-86.721670576100024
 30
0.0
 11
623.98320022209998
 21
-78.721670576099996
 31
0.0
  0
LINE
  5
15C
  8
0
 62
     0
 10
623.98320022209998
 20
-78.721670576099996
 30
0.0
 11
623.98320022209998
 21
-86.721670576100024
 31
0.0
  0
LINE
  5
15D
  8
0
 62
     0
 10
623.98320022209998
 20
-78.721670576099996
 30
0.0
 11
623.98320022209998
 21
-78.721670576099996
 31
0.0
  0
LINE
  5
15E
  8
0
 62
     0
 10
623.98320022209998
 20
-78.721670576099996
 30
0.0
 11
623.98320022209998
 21
-75.721670576099996
 31
0.0
  0
SOLID
  5
15F
  8
0
 62
     0
 10
623.98320022209998
 20
-78.721670576099996
 30
0.0
 11
622.10820022209998
 21
-71.221670576099996
 31
0.0
 12
625.85820022209987
 22
-71.221670576099996
 32
0.0
 13
623.98320022209998
 23
-73.096670576099996
 33
0.0
  0
LINE
  5
160
  8
0
 62
     0
 10
623.98320022209998
 20
-86.721670576100024
 30
0.0
 11
623.98320022209998
 21
-89.721670576099996
 31
0.0
  0
SOLID
  5
161
  8
0
 62
     0
 10
623.98320022209998
 20
-86.721670576100024
 30
0.0
 11
625.85820022209987
 21
-94.221670576100024
 31
0.0
 12
622.10820022209998
 22
-94.221670576100024
 32
0.0
 13
623.98320022209998
 23
-92.346670576100024
 33
0.0
  0
ENDBLK
  5
162
  8
0
  0
BLOCK
  8
0
  2
*D10
 70
     1
 10
0.0
 20
0.0
 30
0.0
  3
*D10
  1

  0
TEXT
  5
166
  8
0
 62
     0
 10
812.68359356509995
 20
-28.0133370838
 30
0.0
 40
8.9958330630999992
  1
40
 50
90.0
  0
LINE
  5
167
  8
0
 62
     0
 10
807.98320022210009
 20
-42.721670576100003
 30
0.0
 11
815.7710935174
 21
-42.721670576100003
 31
0.0
  0
LINE
  5
168
  8
0
 62
     0
 10
807.98320022210009
 20
-2.7216705761000002
 30
0.0
 11
815.7710935174
 21
-2.7216705761000002
 31
0.0
  0
LINE
  5
169
  8
0
 62
     0
 10
815.27109351739989
 20
-42.721670576100003
 30
0.0
 11
815.27109351739989
 21
-12.1383375606
 31
0.0
  0
LINE
  5
16A
  8
0
 62
     0
 10
815.27109351739989
 20
-42.721670576100003
 30
0.0
 11
815.27109351739989
 21
-33.305003591500011
 31
0.0
  0
LINE
  5
16B
  8
0
 62
     0
 10
815.27109351739989
 20
-2.7216705761000002
 30
0.0
 11
815.27109351739989
 21
-12.1383375606
 31
0.0
  0
LINE
  5
16C
  8
0
 62
     0
 10
815.27109351739989
 20
-2.7216705761000002
 30
0.0
 11
815.27109351739989
 21
-33.305003591500011
 31
0.0
  0
LINE
  5
16D
  8
0
 62
     0
 10
815.27109351739989
 20
-2.7216705761000002
 30
0.0
 11
815.27109351739989
 21
-5.7216705761000002
 31
0.0
  0
SOLID
  5
16E
  8
0
 62
     0
 10
815.27109351739989
 20
-2.7216705761000002
 30
0.0
 11
817.1460935174
 21
-10.221670576099999
 31
0.0
 12
813.3960935174
 22
-10.221670576099999
 32
0.0
 13
815.27109351739989
 23
-8.3466705760999993
 33
0.0
  0
LINE
  5
16F
  8
0
 62
     0
 10
815.27109351739989
 20
-42.721670576100003
 30
0.0
 11
815.27109351739989
 21
-39.721670576100003
 31
0.0
  0
SOLID
  5
170
  8
0
 62
     0
 10
815.27109351739989
 20
-42.721670576100003
 30
0.0
 11
813.3960935174
 21
-35.221670576100003
 31
0.0
 12
817.1460935174
 22
-35.221670576100003
 32
0.0
 13
815.27109351739989
 23
-37.096670576100003
 33
0.0
  0
ENDBLK
  5
171
  8
0
  0
BLOCK
  8
0
  2
*D11
 70
     1
 10
0.0
 20
0.0
 30
0.0
  3
*D11
  1

  0
TEXT
  5
175
  8
0
 62
     0
 10
812.68359356509995
 20
-68.013337083799996
 30
0.0
 40
8.9958330630999992
  1
40
 50
90.0
  0
LINE
  5
176
  8
0
 62
     0
 10
807.98320022210009
 20
-82.721670576099996
 30
0.0
 11
815.7710935174
 21
-82.721670576099996
 31
0.0
  0
LINE
  5
177
  8
0
 62
     0
 10
807.98320022210009
 20
-42.721670576100003
 30
0.0
 11
815.7710935174
 21
-42.721670576100003
 31
0.0
  0
LINE
  5
178
  8
0
 62
     0
 10
815.27109351739989
 20
-82.721670576099996
 30
0.0
 11
815.27109351739989
 21
-52.138337560600007
 31
0.0
  0
LINE
  5
179
  8
0
 62
     0
 10
815.27109351739989
 20
-82.721670576099996
 30
0.0
 11
815.27109351739989
 21
-73.305003591499997
 31
0.0
  0
LINE
  5
17A
  8
0
 62
     0
 10
815.27109351739989
 20
-42.721670576100003
 30
0.0
 11
815.27109351739989
 21
-52.138337560600007
 31
0.0
  0
LINE
  5
17B
  8
0
 62
     0
 10
815.27109351739989
 20
-42.721670576100003
 30
0.0
 11
815.27109351739989
 21
-73.305003591499997
 31
0.0
  0
LINE
  5
17C
  8
0
 62
     0
 10
815.27109351739989
 20
-42.721670576100003
 30
0.0
 11
815.27109351739989
 21
-45.721670576099989
 31
0.0
  0
SOLID
  5
17D
  8
0
 62
     0
 10
815.27109351739989
 20
-42.721670576100003
 30
0.0
 11
817.1460935174
 21
-50.221670576099989
 31
0.0
 12
813.3960935174
 22
-50.221670576099989
 32
0.0
 13
815.27109351739989
 23
-48.346670576099989
 33
0.0
  0
LINE
  5
17E
  8
0
 62
     0
 10
815.27109351739989
 20
-82.721670576099996
 30
0.0
 11
815.27109351739989
 21
-79.721670576099996
 31
0.0
  0
SOLID
  5
17F
  8
0
 62
     0
 10
815.27109351739989
 20
-82.721670576099996
 30
0.0
 11
813.3960935174
 21
-75.221670576099996
 31
0.0
 12
817.1460935174
 22
-75.221670576099996
 32
0.0
 13
815.27109351739989
 23
-77.096670576099996
 33
0.0
  0
ENDBLK
  5
180
  8
0
  0
BLOCK
  8
0
  2
*D12
 70
     1
 10
0.0
 20
0.0
 30
0.0
  3
*D12
  1

  0
TEXT
  5
185
  8
0
 62
     0
 10
859.73840889320013
 20
-164.82417455149999
 30
0.0
 40
8.9958330630999992
  1
(100)
  0
LINE
  5
186
  8
0
 62
     0
 10
920.98320022209998
 20
-213.77019501160001
 30
0.0
 11
920.98320022209998
 21
-167.66167450379999
 31
0.0
  0
LINE
  5
187
  8
0
 62
     0
 10
820.98320022209998
 20
-206.77019501160001
 30
0.0
 11
820.98320022209998
 21
-167.66167450379999
 31
0.0
  0
LINE
  5
188
  8
0
 62
     0
 10
920.98320022209998
 20
-168.91167450379999
 30
0.0
 11
887.51965805869986
 21
-168.91167450379999
 31
0.0
  0
LINE
  5
189
  8
0
 62
     0
 10
920.98320022209998
 20
-168.91167450379999
 30
0.0
 11
854.44674238549999
 21
-168.91167450379999
 31
0.0
  0
LINE
  5
18A
  8
0
 62
     0
 10
820.98320022209998
 20
-168.91167450379999
 30
0.0
 11
887.51965805869986
 21
-168.91167450379999
 31
0.0
  0
LINE
  5
18B
  8
0
 62
     0
 10
820.98320022209998
 20
-168.91167450379999
 30
0.0
 11
854.44674238549999
 21
-168.91167450379999
 31
0.0
  0
LINE
  5
18C
  8
0
 62
     0
 10
820.98320022209998
 20
-168.91167450379999
 30
0.0
 11
828.48320022210009
 21
-168.91167450379999
 31
0.0
  0
SOLID
  5
18D
  8
0
 62
     0
 10
820.98320022209998
 20
-168.91167450379999
 30
0.0
 11
828.48320022210009
 21
-167.03667450379999
 31
0.0
 12
828.48320022210009
 22
-170.78667450379999
 32
0.0
 13
826.60820022210009
 23
-168.91167450379999
 33
0.0
  0
LINE
  5
18E
  8
0
 62
     0
 10
920.98320022209998
 20
-168.91167450379999
 30
0.0
 11
913.48320022210009
 21
-168.91167450379999
 31
0.0
  0
SOLID
  5
18F
  8
0
 62
     0
 10
920.98320022209998
 20
-168.91167450379999
 30
0.0
 11
913.48320022210009
 21
-170.78667450379999
 31
0.0
 12
913.48320022210009
 22
-167.03667450379999
 32
0.0
 13
915.35820022209998
 23
-168.91167450379999
 33
0.0
  0
ENDBLK
  5
190
  8
0
  0
BLOCK
  8
0
  2
*D13
 70
     1
 10
0.0
 20
0.0
 30
0.0
  3
*D13
  1

  0
TEXT
  5
194
  8
0
 62
     0
 10
511.7385607725999
 20
-164.82417455149999
 30
0.0
 40
8.9958330630999992
  1
(100)
  0
LINE
  5
195
  8
0
 62
     0
 10
572.98350398089997
 20
-206.77019501160001
 30
0.0
 11
572.98350398089997
 21
-167.66167450379999
 31
0.0
  0
LINE
  5
196
  8
0
 62
     0
 10
472.98320022209998
 20
-213.77019501160001
 30
0.0
 11
472.98320022209998
 21
-167.66167450379999
 31
0.0
  0
LINE
  5
197
  8
0
 62
     0
 10
572.98350398089997
 20
-168.91167450379999
 30
0.0
 11
539.51980993810002
 21
-168.91167450379999
 31
0.0
  0
LINE
  5
198
  8
0
 62
     0
 10
572.98350398089997
 20
-168.91167450379999
 30
0.0
 11
506.44689426489992
 21
-168.91167450379999
 31
0.0
  0
LINE
  5
199
  8
0
 62
     0
 10
472.98320022209998
 20
-168.91167450379999
 30
0.0
 11
539.51980993810002
 21
-168.91167450379999
 31
0.0
  0
LINE
  5
19A
  8
0
 62
     0
 10
472.98320022209998
 20
-168.91167450379999
 30
0.0
 11
506.44689426489992
 21
-168.91167450379999
 31
0.0
  0
LINE
  5
19B
  8
0
 62
     0
 10
472.98320022209998
 20
-168.91167450379999
 30
0.0
 11
480.48320022209992
 21
-168.91167450379999
 31
0.0
  0
SOLID
  5
19C
  8
0
 62
     0
 10
472.98320022209998
 20
-168.91167450379999
 30
0.0
 11
480.48320022209992
 21
-167.03667450379999
 31
0.0
 12
480.48320022209992
 22
-170.78667450379999
 32
0.0
 13
478.60820022209992
 23
-168.91167450379999
 33
0.0
  0
LINE
  5
19D
  8
0
 62
     0
 10
572.98350398089997
 20
-168.91167450379999
 30
0.0
 11
565.48350398089985
 21
-168.91167450379999
 31
0.0
  0
SOLID
  5
19E
  8
0
 62
     0
 10
572.98350398089997
 20
-168.91167450379999
 30
0.0
 11
565.48350398089985
 21
-170.78667450379999
 31
0.0
 12
565.48350398089985
 22
-167.03667450379999
 32
0.0
 13
567.35850398089985
 23
-168.91167450379999
 33
0.0
  0
ENDBLK
  5
19F
  8
0
  0
BLOCK
  8
0
  2
*D14
 70
     1
 10
0.0
 20
0.0
 30
0.0
  3
*D14
  1

  0
TEXT
  5
1A3
  8
0
 62
     0
 10
595.2273222279
 20
-185.1822337118
 30
0.0
 40
8.9958330630999992
  1
20
  0
LINE
  5
1A4
  8
0
 62
     0
 10
582.98331177939997
 20
-211.77019501160001
 30
0.0
 11
582.98331177939997
 21
-187.26973366409999
 31
0.0
  0
LINE
  5
1A5
  8
0
 62
     0
 10
562.98331177939986
 20
-211.76973366409999
 30
0.0
 11
562.98331177939986
 21
-187.26973366409999
 31
0.0
  0
LINE
  5
1A6
  8
0
 62
     0
 10
582.98331177939997
 20
-187.76973366409999
 30
0.0
 11
611.10232175099986
 21
-187.76973366409999
 31
0.0
  0
LINE
  5
1A7
  8
0
 62
     0
 10
582.98331177939997
 20
-187.76973366409999
 30
0.0
 11
589.93565572019997
 21
-187.76973366409999
 31
0.0
  0
LINE
  5
1A8
  8
0
 62
     0
 10
562.98331177939986
 20
-187.76973366409999
 30
0.0
 11
611.10232175099986
 21
-187.76973366409999
 31
0.0
  0
LINE
  5
1A9
  8
0
 62
     0
 10
562.98331177939986
 20
-187.76973366409999
 30
0.0
 11
589.93565572019997
 21
-187.76973366409999
 31
0.0
  0
LINE
  5
1AA
  8
0
 62
     0
 10
562.98331177939986
 20
-187.76973366409999
 30
0.0
 11
565.98331177939997
 21
-187.76973366409999
 31
0.0
  0
SOLID
  5
1AB
  8
0
 62
     0
 10
562.98331177939986
 20
-187.76973366409999
 30
0.0
 11
570.48331177939997
 21
-185.89473366409999
 31
0.0
 12
570.48331177939997
 22
-189.64473366409999
 32
0.0
 13
568.60831177939986
 23
-187.76973366409999
 33
0.0
  0
LINE
  5
1AC
  8
0
 62
     0
 10
582.98331177939997
 20
-187.76973366409999
 30
0.0
 11
579.98331177939986
 21
-187.76973366409999
 31
0.0
  0
SOLID
  5
1AD
  8
0
 62
     0
 10
582.98331177939997
 20
-187.76973366409999
 30
0.0
 11
575.48331177939986
 21
-189.64473366409999
 31
0.0
 12
575.48331177939986
 22
-185.89473366409999
 32
0.0
 13
577.35831177939986
 23
-187.76973366409999
 33
0.0
  0
ENDBLK
  5
1AE
  8
0
  0
BLOCK
  8
0
  2
*D15
 70
     1
 10
0.0
 20
0.0
 30
0.0
  3
*D15
  1

  0
TEXT
  5
1B2
  8
0
 62
     0
 10
943.39570026979993
 20
-218.4160282654
 30
0.0
 40
8.9958330630999992
  1
7
 50
90.0
  0
LINE
  5
1B3
  8
0
 62
     0
 10
921.98320022209998
 20
-218.77019501160001
 30
0.0
 11
946.48320022210009
 21
-218.77019501160001
 31
0.0
  0
LINE
  5
1B4
  8
0
 62
     0
 10
919.98320022209998
 20
-212.77019501160001
 30
0.0
 11
946.48320022210009
 21
-212.77019501160001
 31
0.0
  0
LINE
  5
1B5
  8
0
 62
     0
 10
945.98320022209998
 20
-218.77019501160001
 30
0.0
 11
945.98320022209998
 21
-218.77019501160001
 31
0.0
  0
LINE
  5
1B6
  8
0
 62
     0
 10
945.98320022209998
 20
-218.77019501160001
 30
0.0
 11
945.98320022209998
 21
-212.77019501160001
 31
0.0
  0
LINE
  5
1B7
  8
0
 62
     0
 10
945.98320022209998
 20
-212.77019501160001
 30
0.0
 11
945.98320022209998
 21
-218.77019501160001
 31
0.0
  0
LINE
  5
1B8
  8
0
 62
     0
 10
945.98320022209998
 20
-212.77019501160001
 30
0.0
 11
945.98320022209998
 21
-212.77019501160001
 31
0.0
  0
LINE
  5
1B9
  8
0
 62
     0
 10
945.98320022209998
 20
-212.77019501160001
 30
0.0
 11
945.98320022209998
 21
-209.77019501160001
 31
0.0
  0
SOLID
  5
1BA
  8
0
 62
     0
 10
945.98320022209998
 20
-212.77019501160001
 30
0.0
 11
944.10820022210009
 21
-205.27019501160001
 31
0.0
 12
947.85820022210009
 22
-205.27019501160001
 32
0.0
 13
945.98320022209998
 23
-207.14519501160001
 33
0.0
  0
LINE
  5
1BB
  8
0
 62
     0
 10
945.98320022209998
 20
-218.77019501160001
 30
0.0
 11
945.98320022209998
 21
-221.77019501160001
 31
0.0
  0
SOLID
  5
1BC
  8
0
 62
     0
 10
945.98320022209998
 20
-218.77019501160001
 30
0.0
 11
947.85820022210009
 21
-226.27019501160001
 31
0.0
 12
944.10820022210009
 22
-226.27019501160001
 32
0.0
 13
945.98320022209998
 23
-224.39519501160001
 33
0.0
  0
ENDBLK
  5
1BD
  8
0
  0
BLOCK
  8
0
  2
*D16
 70
     1
 10
0.0
 20
0.0
 30
0.0
  3
*D16
  1

  0
TEXT
  5
1C1
  8
0
 62
     0
 10
909.19153371439995
 20
-187.18269505929999
 30
0.0
 40
8.9958330630999992
  1
13
  0
LINE
  5
1C2
  8
0
 62
     0
 10
920.98320022209998
 20
-213.77019501160001
 30
0.0
 11
920.98320022209998
 21
-189.27019501160001
 31
0.0
  0
LINE
  5
1C3
  8
0
 62
     0
 10
907.98320022210009
 20
-213.77019501160001
 30
0.0
 11
907.98320022210009
 21
-189.27019501160001
 31
0.0
  0
LINE
  5
1C4
  8
0
 62
     0
 10
920.98320022209998
 20
-189.77019501160001
 30
0.0
 11
920.98320022209998
 21
-189.77019501160001
 31
0.0
  0
LINE
  5
1C5
  8
0
 62
     0
 10
920.98320022209998
 20
-189.77019501160001
 30
0.0
 11
907.98320022210009
 21
-189.77019501160001
 31
0.0
  0
LINE
  5
1C6
  8
0
 62
     0
 10
907.98320022210009
 20
-189.77019501160001
 30
0.0
 11
920.98320022209998
 21
-189.77019501160001
 31
0.0
  0
LINE
  5
1C7
  8
0
 62
     0
 10
907.98320022210009
 20
-189.77019501160001
 30
0.0
 11
907.98320022210009
 21
-189.77019501160001
 31
0.0
  0
LINE
  5
1C8
  8
0
 62
     0
 10
907.98320022210009
 20
-189.77019501160001
 30
0.0
 11
904.98320022209998
 21
-189.77019501160001
 31
0.0
  0
SOLID
  5
1C9
  8
0
 62
     0
 10
907.98320022210009
 20
-189.77019501160001
 30
0.0
 11
900.48320022209998
 21
-191.64519501160001
 31
0.0
 12
900.48320022209998
 22
-187.89519501160001
 32
0.0
 13
902.35820022210009
 23
-189.77019501160001
 33
0.0
  0
LINE
  5
1CA
  8
0
 62
     0
 10
920.98320022209998
 20
-189.77019501160001
 30
0.0
 11
923.98320022210009
 21
-189.77019501160001
 31
0.0
  0
SOLID
  5
1CB
  8
0
 62
     0
 10
920.98320022209998
 20
-189.77019501160001
 30
0.0
 11
928.48320022210009
 21
-187.89519501160001
 31
0.0
 12
928.48320022210009
 22
-191.64519501160001
 32
0.0
 13
926.60820022210009
 23
-189.77019501160001
 33
0.0
  0
ENDBLK
  5
1CC
  8
0
  0
BLOCK
  8
0
  2
*D17
 70
     1
 10
0.0
 20
0.0
 30
0.0
  3
*D17
  1

  0
TEXT
  5
1D0
  8
0
 62
     0
 10
947.01549130069998
 20
-50.659170337699997
 30
0.0
 40
8.9958330630999992
  1
148
 50
90.0
  0
LINE
  5
1D1
  8
0
 62
     0
 10
918.98320022210009
 20
-116.7216705761
 30
0.0
 11
950.10299125300003
 21
-116.7216705761
 31
0.0
  0
LINE
  5
1D2
  8
0
 62
     0
 10
918.98320022210009
 20
31.278329423900001
 30
0.0
 11
950.10299125300003
 21
31.278329423900001
 31
0.0
  0
LINE
  5
1D3
  8
0
 62
     0
 10
949.60299125300003
 20
-116.7216705761
 30
0.0
 11
949.60299125300003
 21
-29.492504306800001
 31
0.0
  0
LINE
  5
1D4
  8
0
 62
     0
 10
949.60299125300003
 20
-116.7216705761
 30
0.0
 11
949.60299125300003
 21
-55.950836845399998
 31
0.0
  0
LINE
  5
1D5
  8
0
 62
     0
 10
949.60299125300003
 20
31.278329423900001
 30
0.0
 11
949.60299125300003
 21
-29.492504306800001
 31
0.0
  0
LINE
  5
1D6
  8
0
 62
     0
 10
949.60299125300003
 20
31.278329423900001
 30
0.0
 11
949.60299125300003
 21
-55.950836845399998
 31
0.0
  0
LINE
  5
1D7
  8
0
 62
     0
 10
949.60299125300003
 20
31.278329423900001
 30
0.0
 11
949.60299125300003
 21
28.278329423900001
 31
0.0
  0
SOLID
  5
1D8
  8
0
 62
     0
 10
949.60299125300003
 20
31.278329423900001
 30
0.0
 11
951.47799125300003
 21
23.778329423900001
 31
0.0
 12
947.72799125300014
 22
23.778329423900001
 32
0.0
 13
949.60299125300003
 23
25.653329423900001
 33
0.0
  0
LINE
  5
1D9
  8
0
 62
     0
 10
949.60299125300003
 20
-116.7216705761
 30
0.0
 11
949.60299125300003
 21
-113.7216705761
 31
0.0
  0
SOLID
  5
1DA
  8
0
 62
     0
 10
949.60299125300003
 20
-116.7216705761
 30
0.0
 11
947.72799125300014
 21
-109.2216705761
 31
0.0
 12
951.47799125300003
 22
-109.2216705761
 32
0.0
 13
949.60299125300003
 23
-111.0966705761
 33
0.0
  0
ENDBLK
  5
1DB
  8
0
  0
BLOCK
  8
0
  2
*D18
 70
     1
 10
0.0
 20
0.0
 30
0.0
  3
*D18
  1

  0
TEXT
  5
1DF
  8
0
 62
     0
 10
1066.8045225193
 20
-59.538395852400001
 30
0.0
 40
8.9958330630999992
  1
3
  0
LINE
  5
1E0
  8
0
 62
     0
 10
1053.4069864799001
 20
-58.3220546907
 30
0.0
 11
1053.4069864799001
 21
-62.625895804700001
 31
0.0
  0
LINE
  5
1E1
  8
0
 62
     0
 10
1050.4069864799001
 20
-58.3220546907
 30
0.0
 11
1050.4069864799001
 21
-62.625895804700001
 31
0.0
  0
LINE
  5
1E2
  8
0
 62
     0
 10
1053.4069864799001
 20
-62.125895804700001
 30
0.0
 11
1077.3878555347001
 21
-62.125895804700001
 31
0.0
  0
LINE
  5
1E3
  8
0
 62
     0
 10
1053.4069864799001
 20
-62.125895804700001
 30
0.0
 11
1061.5128560116
 21
-62.125895804700001
 31
0.0
  0
LINE
  5
1E4
  8
0
 62
     0
 10
1050.4069864799001
 20
-62.125895804700001
 30
0.0
 11
1077.3878555347001
 21
-62.125895804700001
 31
0.0
  0
LINE
  5
1E5
  8
0
 62
     0
 10
1050.4069864799001
 20
-62.125895804700001
 30
0.0
 11
1061.5128560116
 21
-62.125895804700001
 31
0.0
  0
LINE
  5
1E6
  8
0
 62
     0
 10
1050.4069864799001
 20
-62.125895804700001
 30
0.0
 11
1047.4069864799001
 21
-62.125895804700001
 31
0.0
  0
SOLID
  5
1E7
  8
0
 62
     0
 10
1050.4069864799001
 20
-62.125895804700001
 30
0.0
 11
1042.9069864799001
 21
-64.000895804700008
 31
0.0
 12
1042.9069864799001
 22
-60.250895804700001
 32
0.0
 13
1044.7819864799001
 23
-62.125895804700001
 33
0.0
  0
LINE
  5
1E8
  8
0
 62
     0
 10
1053.4069864799001
 20
-62.125895804700001
 30
0.0
 11
1056.4069864799001
 21
-62.125895804700001
 31
0.0
  0
SOLID
  5
1E9
  8
0
 62
     0
 10
1053.4069864799001
 20
-62.125895804700001
 30
0.0
 11
1060.9069864799001
 21
-60.250895804700001
 31
0.0
 12
1060.9069864799001
 22
-64.000895804700008
 32
0.0
 13
1059.0319864799001
 23
-62.125895804700001
 33
0.0
  0
ENDBLK
  5
1EA
  8
0
  0
BLOCK
  8
0
  2
*D19
 70
     1
 10
0.0
 20
0.0
 30
0.0
  3
*D19
  1

  0
TEXT
  5
1EE
  8
0
 62
     0
 10
1022.8194865276
 20
19.486825957499999
 30
0.0
 40
8.9958330630999992
  1
13
 50
90.0
  0
LINE
  5
1EF
  8
0
 62
     0
 10
1049.4069864799001
 20
31.278492465199999
 30
0.0
 11
1024.9069864799001
 21
31.278492465199999
 31
0.0
  0
LINE
  5
1F0
  8
0
 62
     0
 10
1049.4069864799001
 20
18.278492465199999
 30
0.0
 11
1024.9069864799001
 21
18.278492465199999
 31
0.0
  0
LINE
  5
1F1
  8
0
 62
     0
 10
1025.4069864799001
 20
31.278492465199999
 30
0.0
 11
1025.4069864799001
 21
31.278492465199999
 31
0.0
  0
LINE
  5
1F2
  8
0
 62
     0
 10
1025.4069864799001
 20
31.278492465199999
 30
0.0
 11
1025.4069864799001
 21
18.278492465199999
 31
0.0
  0
LINE
  5
1F3
  8
0
 62
     0
 10
1025.4069864799001
 20
18.278492465199999
 30
0.0
 11
1025.4069864799001
 21
31.278492465199999
 31
0.0
  0
LINE
  5
1F4
  8
0
 62
     0
 10
1025.4069864799001
 20
18.278492465199999
 30
0.0
 11
1025.4069864799001
 21
18.278492465199999
 31
0.0
  0
LINE
  5
1F5
  8
0
 62
     0
 10
1025.4069864799001
 20
18.278492465199999
 30
0.0
 11
1025.4069864799001
 21
15.278492465199999
 31
0.0
  0
SOLID
  5
1F6
  8
0
 62
     0
 10
1025.4069864799001
 20
18.278492465199999
 30
0.0
 11
1027.2819864799001
 21
10.778492465199999
 31
0.0
 12
1023.5319864799
 22
10.778492465199999
 32
0.0
 13
1025.4069864799001
 23
12.653492465199999
 33
0.0
  0
LINE
  5
1F7
  8
0
 62
     0
 10
1025.4069864799001
 20
31.278492465199999
 30
0.0
 11
1025.4069864799001
 21
34.27849246520001
 31
0.0
  0
SOLID
  5
1F8
  8
0
 62
     0
 10
1025.4069864799001
 20
31.278492465199999
 30
0.0
 11
1023.5319864799
 21
38.778492465200003
 31
0.0
 12
1027.2819864799001
 22
38.778492465200003
 32
0.0
 13
1025.4069864799001
 23
36.903492465200003
 33
0.0
  0
ENDBLK
  5
1F9
  8
0
  0
BLOCK
  8
0
  2
*D20
 70
     1
 10
0.0
 20
0.0
 30
0.0
  3
*D20
  1

  0
TEXT
  5
1FD
  8
0
 62
     0
 10
1022.8194865276
 20
-50.659170337699997
 30
0.0
 40
8.9958330630999992
  1
122
 50
90.0
  0
LINE
  5
1FE
  8
0
 62
     0
 10
1049.4069864799001
 20
18.278492465199999
 30
0.0
 11
1024.9069864799001
 21
18.278492465199999
 31
0.0
  0
LINE
  5
1FF
  8
0
 62
     0
 10
1049.4069864799001
 20
-103.72183361739999
 30
0.0
 11
1024.9069864799001
 21
-103.72183361739999
 31
0.0
  0
LINE
  5
200
  8
0
 62
     0
 10
1025.4069864799001
 20
18.278492465199999
 30
0.0
 11
1025.4069864799001
 21
-29.492504306800001
 31
0.0
  0
LINE
  5
201
  8
0
 62
     0
 10
1025.4069864799001
 20
18.278492465199999
 30
0.0
 11
1025.4069864799001
 21
-55.950836845399998
 31
0.0
  0
LINE
  5
202
  8
0
 62
     0
 10
1025.4069864799001
 20
-103.72183361739999
 30
0.0
 11
1025.4069864799001
 21
-29.492504306800001
 31
0.0
  0
LINE
  5
203
  8
0
 62
     0
 10
1025.4069864799001
 20
-103.72183361739999
 30
0.0
 11
1025.4069864799001
 21
-55.950836845399998
 31
0.0
  0
LINE
  5
204
  8
0
 62
     0
 10
1025.4069864799001
 20
-103.72183361739999
 30
0.0
 11
1025.4069864799001
 21
-100.72183361739999
 31
0.0
  0
SOLID
  5
205
  8
0
 62
     0
 10
1025.4069864799001
 20
-103.72183361739999
 30
0.0
 11
1023.5319864799
 21
-96.221833617399994
 31
0.0
 12
1027.2819864799001
 22
-96.221833617399994
 32
0.0
 13
1025.4069864799001
 23
-98.096833617399994
 33
0.0
  0
LINE
  5
206
  8
0
 62
     0
 10
1025.4069864799001
 20
18.278492465199999
 30
0.0
 11
1025.4069864799001
 21
15.278492465199999
 31
0.0
  0
SOLID
  5
207
  8
0
 62
     0
 10
1025.4069864799001
 20
18.278492465199999
 30
0.0
 11
1027.2819864799001
 21
10.778492465199999
 31
0.0
 12
1023.5319864799
 22
10.778492465199999
 32
0.0
 13
1025.4069864799001
 23
12.653492465199999
 33
0.0
  0
ENDBLK
  5
208
  8
0
  0
BLOCK
  8
0
  2
*D21
 70
     1
 10
0.0
 20
0.0
 30
0.0
  3
*D21
  1

  0
TEXT
  5
20C
  8
0
 62
     0
 10
1022.8194865276
 20
-115.51350012509999
 30
0.0
 40
8.9958330630999992
  1
13
 50
90.0
  0
LINE
  5
20D
  8
0
 62
     0
 10
1049.4069864799001
 20
-103.72183361739999
 30
0.0
 11
1024.9069864799001
 21
-103.72183361739999
 31
0.0
  0
LINE
  5
20E
  8
0
 62
     0
 10
1049.4069864799001
 20
-116.72183361739999
 30
0.0
 11
1024.9069864799001
 21
-116.72183361739999
 31
0.0
  0
LINE
  5
20F
  8
0
 62
     0
 10
1025.4069864799001
 20
-103.72183361739999
 30
0.0
 11
1025.4069864799001
 21
-103.72183361739999
 31
0.0
  0
LINE
  5
210
  8
0
 62
     0
 10
1025.4069864799001
 20
-103.72183361739999
 30
0.0
 11
1025.4069864799001
 21
-116.72183361739999
 31
0.0
  0
LINE
  5
211
  8
0
 62
     0
 10
1025.4069864799001
 20
-116.72183361739999
 30
0.0
 11
1025.4069864799001
 21
-103.72183361739999
 31
0.0
  0
LINE
  5
212
  8
0
 62
     0
 10
1025.4069864799001
 20
-116.72183361739999
 30
0.0
 11
1025.4069864799001
 21
-116.72183361739999
 31
0.0
  0
LINE
  5
213
  8
0
 62
     0
 10
1025.4069864799001
 20
-116.72183361739999
 30
0.0
 11
1025.4069864799001
 21
-119.72183361739999
 31
0.0
  0
SOLID
  5
214
  8
0
 62
     0
 10
1025.4069864799001
 20
-116.72183361739999
 30
0.0
 11
1027.2819864799001
 21
-124.22183361739999
 31
0.0
 12
1023.5319864799
 22
-124.22183361739999
 32
0.0
 13
1025.4069864799001
 23
-122.34683361739999
 33
0.0
  0
LINE
  5
215
  8
0
 62
     0
 10
1025.4069864799001
 20
-103.72183361739999
 30
0.0
 11
1025.4069864799001
 21
-100.72183361739999
 31
0.0
  0
SOLID
  5
216
  8
0
 62
     0
 10
1025.4069864799001
 20
-103.72183361739999
 30
0.0
 11
1023.5319864799
 21
-96.221833617399994
 31
0.0
 12
1027.2819864799001
 22
-96.221833617399994
 32
0.0
 13
1025.4069864799001
 23
-98.096833617399994
 33
0.0
  0
ENDBLK
  5
217
  8
0
  0
BLOCK
  8
0
  2
*D22
 70
     1
 10
0.0
 20
0.0
 30
0.0
  3
*D22
  1

  0
TEXT
  5
21B
  8
0
 62
     0
 10
1062.6153199722
 20
-139.39374304859999
 30
0.0
 40
8.9958330630999992
  1
35
  0
LINE
  5
21C
  8
0
 62
     0
 10
1050.4069864799001
 20
-116.7214651689
 30
0.0
 11
1050.4069864799001
 21
-142.48124300090001
 31
0.0
  0
LINE
  5
21D
  8
0
 62
     0
 10
1085.4069864799001
 20
-123.02146516889999
 30
0.0
 11
1085.4069864799001
 21
-142.48124300090001
 31
0.0
  0
LINE
  5
21E
  8
0
 62
     0
 10
1050.4069864799001
 20
-141.98124300090001
 30
0.0
 11
1078.4903194953999
 21
-141.98124300090001
 31
0.0
  0
LINE
  5
21F
  8
0
 62
     0
 10
1050.4069864799001
 20
-141.98124300090001
 30
0.0
 11
1057.3236534645
 21
-141.98124300090001
 31
0.0
  0
LINE
  5
220
  8
0
 62
     0
 10
1085.4069864799001
 20
-141.98124300090001
 30
0.0
 11
1078.4903194953999
 21
-141.98124300090001
 31
0.0
  0
LINE
  5
221
  8
0
 62
     0
 10
1085.4069864799001
 20
-141.98124300090001
 30
0.0
 11
1057.3236534645
 21
-141.98124300090001
 31
0.0
  0
LINE
  5
222
  8
0
 62
     0
 10
1085.4069864799001
 20
-141.98124300090001
 30
0.0
 11
1088.4069864799001
 21
-141.98124300090001
 31
0.0
  0
SOLID
  5
223
  8
0
 62
     0
 10
1085.4069864799001
 20
-141.98124300090001
 30
0.0
 11
1092.9069864799001
 21
-140.10624300090001
 31
0.0
 12
1092.9069864799001
 22
-143.85624300090001
 32
0.0
 13
1091.0319864799001
 23
-141.98124300090001
 33
0.0
  0
LINE
  5
224
  8
0
 62
     0
 10
1050.4069864799001
 20
-141.98124300090001
 30
0.0
 11
1047.4069864799001
 21
-141.98124300090001
 31
0.0
  0
SOLID
  5
225
  8
0
 62
     0
 10
1050.4069864799001
 20
-141.98124300090001
 30
0.0
 11
1042.9069864799001
 21
-143.85624300090001
 31
0.0
 12
1042.9069864799001
 22
-140.10624300090001
 32
0.0
 13
1044.7819864799001
 23
-141.98124300090001
 33
0.0
  0
ENDBLK
  5
226
  8
0
  0
BLOCK
  8
0
  2
*D23
 70
     1
 10
0.0
 20
0.0
 30
0.0
  3
*D23
  1

  0
TEXT
  5
22A
  8
0
 62
     0
 10
1102.5660056163999
 20
-134.1346932516
 30
0.0
 40
8.9958330630999992
  1
7
 50
90.0
  0
LINE
  5
22B
  8
0
 62
     0
 10
1086.4069864799001
 20
-122.02146516889999
 30
0.0
 11
1105.6535055687
 21
-122.02146516889999
 31
0.0
  0
LINE
  5
22C
  8
0
 62
     0
 10
1085.7069864799
 20
-115.02146516889999
 30
0.0
 11
1105.6535055687
 21
-115.02146516889999
 31
0.0
  0
LINE
  5
22D
  8
0
 62
     0
 10
1105.1535055687
 20
-122.02146516889999
 30
0.0
 11
1105.1535055687
 21
-123.5513602361
 31
0.0
  0
LINE
  5
22E
  8
0
 62
     0
 10
1105.1535055687
 20
-122.02146516889999
 30
0.0
 11
1105.1535055687
 21
-139.4263597593
 31
0.0
  0
LINE
  5
22F
  8
0
 62
     0
 10
1105.1535055687
 20
-115.02146516889999
 30
0.0
 11
1105.1535055687
 21
-123.5513602361
 31
0.0
  0
LINE
  5
230
  8
0
 62
     0
 10
1105.1535055687
 20
-115.02146516889999
 30
0.0
 11
1105.1535055687
 21
-139.4263597593
 31
0.0
  0
LINE
  5
231
  8
0
 62
     0
 10
1105.1535055687
 20
-115.02146516889999
 30
0.0
 11
1105.1535055687
 21
-112.02146516889999
 31
0.0
  0
SOLID
  5
232
  8
0
 62
     0
 10
1105.1535055687
 20
-115.02146516889999
 30
0.0
 11
1103.2785055687
 21
-107.52146516889999
 31
0.0
 12
1107.0285055687
 22
-107.52146516889999
 32
0.0
 13
1105.1535055687
 23
-109.39646516889999
 33
0.0
  0
LINE
  5
233
  8
0
 62
     0
 10
1105.1535055687
 20
-122.02146516889999
 30
0.0
 11
1105.1535055687
 21
-125.02146516889999
 31
0.0
  0
SOLID
  5
234
  8
0
 62
     0
 10
1105.1535055687
 20
-122.02146516889999
 30
0.0
 11
1107.0285055687
 21
-129.52146516889999
 31
0.0
 12
1103.2785055687
 22
-129.52146516889999
 32
0.0
 13
1105.1535055687
 23
-127.64646516889999
 33
0.0
  0
ENDBLK
  5
235
  8
0
  0
BLOCK
  8
0
  2
*D24
 70
     1
 10
0.0
 20
0.0
 30
0.0
  3
*D24
  1

  0
TEXT
  5
239
  8
0
 62
     0
 10
1220.0699189065999
 20
56.865993954799997
 30
0.0
 40
8.9958330630999992
  1
30
  0
LINE
  5
23A
  8
0
 62
     0
 10
1240.4069974762999
 20
-1.6213122255000001
 30
0.0
 11
1240.4069974762999
 21
54.778494002499997
 31
0.0
  0
LINE
  5
23B
  8
0
 62
     0
 10
1210.3161733523
 20
-0.0960749367
 30
0.0
 11
1210.3161733523
 21
54.778494002499997
 31
0.0
  0
LINE
  5
23C
  8
0
 62
     0
 10
1240.4069974762999
 20
54.278494002499997
 30
0.0
 11
1235.9449184297
 21
54.278494002499997
 31
0.0
  0
LINE
  5
23D
  8
0
 62
     0
 10
1240.4069974762999
 20
54.278494002499997
 30
0.0
 11
1214.7782523988001
 21
54.278494002499997
 31
0.0
  0
LINE
  5
23E
  8
0
 62
     0
 10
1210.3161733523
 20
54.278494002499997
 30
0.0
 11
1235.9449184297
 21
54.278494002499997
 31
0.0
  0
LINE
  5
23F
  8
0
 62
     0
 10
1210.3161733523
 20
54.278494002499997
 30
0.0
 11
1214.7782523988001
 21
54.278494002499997
 31
0.0
  0
LINE
  5
240
  8
0
 62
     0
 10
1210.3161733523
 20
54.278494002499997
 30
0.0
 11
1207.3161733523
 21
54.278494002499997
 31
0.0
  0
SOLID
  5
241
  8
0
 62
     0
 10
1210.3161733523
 20
54.278494002499997
 30
0.0
 11
1202.8161733523
 21
52.403494002499997
 31
0.0
 12
1202.8161733523
 22
56.153494002499997
 32
0.0
 13
1204.6911733523
 23
54.278494002499997
 33
0.0
  0
LINE
  5
242
  8
0
 62
     0
 10
1240.4069974762999
 20
54.278494002499997
 30
0.0
 11
1243.4069974762999
 21
54.278494002499997
 31
0.0
  0
SOLID
  5
243
  8
0
 62
     0
 10
1240.4069974762999
 20
54.278494002499997
 30
0.0
 11
1247.9069974762999
 21
56.153494002499997
 31
0.0
 12
1247.9069974762999
 22
52.403494002499997
 32
0.0
 13
1246.0319974762999
 23
54.278494002499997
 33
0.0
  0
ENDBLK
  5
244
  8
0
  0
BLOCK
  8
0
  2
*D25
 70
     1
 10
0.0
 20
0.0
 30
0.0
  3
*D25
  1

  0
TEXT
  5
248
  8
0
 62
     0
 10
1133.1622006492
 20
77.406950822100001
 30
0.0
 40
8.9958330630999992
  1
(192)
  0
LINE
  5
249
  8
0
 62
     0
 10
1240.4069974762999
 20
-1.6213122255000001
 30
0.0
 11
1240.4069974762999
 21
75.319450869799994
 31
0.0
  0
LINE
  5
24A
  8
0
 62
     0
 10
1048.4069864799001
 20
30.278492465199999
 30
0.0
 11
1048.4069864799001
 21
75.319450869799994
 31
0.0
  0
LINE
  5
24B
  8
0
 62
     0
 10
1240.4069974762999
 20
74.819450869799994
 30
0.0
 11
1160.9434498147
 21
74.819450869799994
 31
0.0
  0
LINE
  5
24C
  8
0
 62
     0
 10
1240.4069974762999
 20
74.819450869799994
 30
0.0
 11
1127.8705341415
 21
74.819450869799994
 31
0.0
  0
LINE
  5
24D
  8
0
 62
     0
 10
1048.4069864799001
 20
74.819450869799994
 30
0.0
 11
1160.9434498147
 21
74.819450869799994
 31
0.0
  0
LINE
  5
24E
  8
0
 62
     0
 10
1048.4069864799001
 20
74.819450869799994
 30
0.0
 11
1127.8705341415
 21
74.819450869799994
 31
0.0
  0
LINE
  5
24F
  8
0
 62
     0
 10
1048.4069864799001
 20
74.819450869799994
 30
0.0
 11
1051.4069864799001
 21
74.819450869799994
 31
0.0
  0
SOLID
  5
250
  8
0
 62
     0
 10
1048.4069864799001
 20
74.819450869799994
 30
0.0
 11
1055.9069864799001
 21
76.694450869799994
 31
0.0
 12
1055.9069864799001
 22
72.944450869799994
 32
0.0
 13
1054.0319864799001
 23
74.819450869799994
 33
0.0
  0
LINE
  5
251
  8
0
 62
     0
 10
1240.4069974762999
 20
74.819450869799994
 30
0.0
 11
1237.4069974762999
 21
74.819450869799994
 31
0.0
  0
SOLID
  5
252
  8
0
 62
     0
 10
1240.4069974762999
 20
74.819450869799994
 30
0.0
 11
1232.9069974762999
 21
72.944450869799994
 31
0.0
 12
1232.9069974762999
 22
76.694450869799994
 32
0.0
 13
1234.7819974762999
 23
74.819450869799994
 33
0.0
  0
ENDBLK
  5
253
  8
0
  0
BLOCK
  8
0
  2
*D26
 70
     1
 10
0.0
 20
0.0
 30
0.0
  3
*D26
  1

  0
TEXT
  5
257
  8
0
 62
     0
 10
1146.4258163781999
 20
56.865994171200001
 30
0.0
 40
8.9958330630999992
  1
104.5
  0
LINE
  5
258
  8
0
 62
     0
 10
1210.3161733523
 20
-0.0960749367
 30
0.0
 11
1210.3161733523
 21
54.778494218799999
 31
0.0
  0
LINE
  5
259
  8
0
 62
     0
 10
1105.9069864799001
 20
6.0783294238999988
 30
0.0
 11
1105.9069864799001
 21
54.778494218799999
 31
0.0
  0
LINE
  5
25A
  8
0
 62
     0
 10
1210.3161733523
 20
54.278494218799999
 30
0.0
 11
1175.0890099617
 21
54.278494218799999
 31
0.0
  0
LINE
  5
25B
  8
0
 62
     0
 10
1210.3161733523
 20
54.278494218799999
 30
0.0
 11
1141.1341498705001
 21
54.278494218799999
 31
0.0
  0
LINE
  5
25C
  8
0
 62
     0
 10
1105.9069864799001
 20
54.278494218799999
 30
0.0
 11
1175.0890099617
 21
54.278494218799999
 31
0.0
  0
LINE
  5
25D
  8
0
 62
     0
 10
1105.9069864799001
 20
54.278494218799999
 30
0.0
 11
1141.1341498705001
 21
54.278494218799999
 31
0.0
  0
LINE
  5
25E
  8
0
 62
     0
 10
1105.9069864799001
 20
54.278494218799999
 30
0.0
 11
1108.9069864799001
 21
54.278494218799999
 31
0.0
  0
SOLID
  5
25F
  8
0
 62
     0
 10
1105.9069864799001
 20
54.278494218799999
 30
0.0
 11
1113.4069864799001
 21
56.153494218799999
 31
0.0
 12
1113.4069864799001
 22
52.403494218799999
 32
0.0
 13
1111.5319864799001
 23
54.278494218799999
 33
0.0
  0
LINE
  5
260
  8
0
 62
     0
 10
1210.3161733523
 20
54.278494218799999
 30
0.0
 11
1207.3161733523
 21
54.278494218799999
 31
0.0
  0
SOLID
  5
261
  8
0
 62
     0
 10
1210.3161733523
 20
54.278494218799999
 30
0.0
 11
1202.8161733523
 21
52.403494218799999
 31
0.0
 12
1202.8161733523
 22
56.153494218799999
 32
0.0
 13
1204.6911733523
 23
54.278494218799999
 33
0.0
  0
ENDBLK
  5
262
  8
0
  0
BLOCK
  8
0
  2
*D27
 70
     1
 10
0.0
 20
0.0
 30
0.0
  3
*D27
  1

  0
TEXT
  5
266
  8
0
 62
     0
 10
457.2654922543
 20
-243.71915308659999
 30
0.0
 40
8.9958330630999992
  1
(45)
 50
90.0
  0
LINE
  5
267
  8
0
 62
     0
 10
473.98320022209998
 20
-212.77019501160001
 30
0.0
 11
459.35299220659999
 21
-212.77019501160001
 31
0.0
  0
LINE
  5
268
  8
0
 62
     0
 10
489.98320022209998
 20
-257.47019501160003
 30
0.0
 11
459.35299220659999
 21
-257.47019501160003
 31
0.0
  0
LINE
  5
269
  8
0
 62
     0
 10
459.85299220659999
 20
-212.77019501160001
 30
0.0
 11
459.85299220659999
 21
-221.2295704288
 31
0.0
  0
LINE
  5
26A
  8
0
 62
     0
 10
459.85299220659999
 20
-212.77019501160001
 30
0.0
 11
459.85299220659999
 21
-249.0108195944
 31
0.0
  0
LINE
  5
26B
  8
0
 62
     0
 10
459.85299220659999
 20
-257.47019501160003
 30
0.0
 11
459.85299220659999
 21
-221.2295704288
 31
0.0
  0
LINE
  5
26C
  8
0
 62
     0
 10
459.85299220659999
 20
-257.47019501160003
 30
0.0
 11
459.85299220659999
 21
-249.0108195944
 31
0.0
  0
LINE
  5
26D
  8
0
 62
     0
 10
459.85299220659999
 20
-257.47019501160003
 30
0.0
 11
459.85299220659999
 21
-254.4701950116
 31
0.0
  0
SOLID
  5
26E
  8
0
 62
     0
 10
459.85299220659999
 20
-257.47019501160003
 30
0.0
 11
457.97799220659999
 21
-249.9701950116
 31
0.0
 12
461.72799220659999
 22
-249.9701950116
 32
0.0
 13
459.85299220659999
 23
-251.8451950116
 33
0.0
  0
LINE
  5
26F
  8
0
 62
     0
 10
459.85299220659999
 20
-212.77019501160001
 30
0.0
 11
459.85299220659999
 21
-215.77019501160001
 31
0.0
  0
SOLID
  5
270
  8
0
 62
     0
 10
459.85299220659999
 20
-212.77019501160001
 30
0.0
 11
461.72799220659999
 21
-220.27019501160001
 31
0.0
 12
457.97799220659999
 22
-220.27019501160001
 32
0.0
 13
459.85299220659999
 23
-218.39519501160001
 33
0.0
  0
ENDBLK
  5
271
  8
0
  0
BLOCK
  8
0
  2
*D28
 70
     1
 10
0.0
 20
0.0
 30
0.0
  3
*D28
  1

  0
TEXT
  5
275
  8
0
 62
     0
 10
689.04570046050003
 20
77.848846343999995
 30
0.0
 40
8.9958330630999992
  1
448
  0
LINE
  5
276
  8
0
 62
     0
 10
920.98320022209998
 20
29.278329423900001
 30
0.0
 11
920.98320022209998
 21
75.761346391700002
 31
0.0
  0
LINE
  5
277
  8
0
 62
     0
 10
472.98320022209998
 20
29.278329423900001
 30
0.0
 11
472.98320022209998
 21
75.761346391700002
 31
0.0
  0
LINE
  5
278
  8
0
 62
     0
 10
920.98320022209998
 20
75.261346391700002
 30
0.0
 11
710.21236649139996
 21
75.261346391700002
 31
0.0
  0
LINE
  5
279
  8
0
 62
     0
 10
920.98320022209998
 20
75.261346391700002
 30
0.0
 11
683.7540339528
 21
75.261346391700002
 31
0.0
  0
LINE
  5
27A
  8
0
 62
     0
 10
472.98320022209998
 20
75.261346391700002
 30
0.0
 11
710.21236649139996
 21
75.261346391700002
 31
0.0
  0
LINE
  5
27B
  8
0
 62
     0
 10
472.98320022209998
 20
75.261346391700002
 30
0.0
 11
683.7540339528
 21
75.261346391700002
 31
0.0
  0
LINE
  5
27C
  8
0
 62
     0
 10
472.98320022209998
 20
75.261346391700002
 30
0.0
 11
475.98320022209992
 21
75.261346391700002
 31
0.0
  0
SOLID
  5
27D
  8
0
 62
     0
 10
472.98320022209998
 20
75.261346391700002
 30
0.0
 11
480.48320022209992
 21
77.136346391700002
 31
0.0
 12
480.48320022209992
 22
73.386346391700002
 32
0.0
 13
478.60820022209992
 23
75.261346391700002
 33
0.0
  0
LINE
  5
27E
  8
0
 62
     0
 10
920.98320022209998
 20
75.261346391700002
 30
0.0
 11
917.98320022210009
 21
75.261346391700002
 31
0.0
  0
SOLID
  5
27F
  8
0
 62
     0
 10
920.98320022209998
 20
75.261346391700002
 30
0.0
 11
913.48320022210009
 21
73.386346391700002
 31
0.0
 12
913.48320022210009
 22
77.136346391700002
 32
0.0
 13
915.35820022209998
 23
75.261346391700002
 33
0.0
  0
ENDBLK
  5
280
  8
0
  0
BLOCK
  8
0
  2
*D29
 70
     1
 10
0.0
 20
0.0
 30
0.0
  3
*D29
  1

  0
TEXT
  5
284
  8
0
 62
     0
 10
617.73795144940004
 20
56.135723022500002
 30
0.0
 40
8.9958330630999992
  1
P=68
  0
LINE
  5
285
  8
0
 62
     0
 10
662.98274277829989
 20
2.2783294238999989
 30
0.0
 11
662.98274277829989
 21
54.048223070200002
 31
0.0
  0
LINE
  5
286
  8
0
 62
     0
 10
594.98274277830001
 20
2.2783294238999989
 30
0.0
 11
594.98274277830001
 21
54.048223070200002
 31
0.0
  0
LINE
  5
287
  8
0
 62
     0
 10
662.98274277829989
 20
53.548223070200002
 30
0.0
 11
645.51920061500005
 21
53.548223070200002
 31
0.0
  0
LINE
  5
288
  8
0
 62
     0
 10
662.98274277829989
 20
53.548223070200002
 30
0.0
 11
612.44628494170001
 21
53.548223070200002
 31
0.0
  0
LINE
  5
289
  8
0
 62
     0
 10
594.98274277830001
 20
53.548223070200002
 30
0.0
 11
645.51920061500005
 21
53.548223070200002
 31
0.0
  0
LINE
  5
28A
  8
0
 62
     0
 10
594.98274277830001
 20
53.548223070200002
 30
0.0
 11
612.44628494170001
 21
53.548223070200002
 31
0.0
  0
LINE
  5
28B
  8
0
 62
     0
 10
594.98274277830001
 20
53.548223070200002
 30
0.0
 11
597.98274277830001
 21
53.548223070200002
 31
0.0
  0
SOLID
  5
28C
  8
0
 62
     0
 10
594.98274277830001
 20
53.548223070200002
 30
0.0
 11
602.48274277830001
 21
55.423223070200002
 31
0.0
 12
602.48274277830001
 22
51.673223070200002
 32
0.0
 13
600.60774277830001
 23
53.548223070200002
 33
0.0
  0
LINE
  5
28D
  8
0
 62
     0
 10
662.98274277829989
 20
53.548223070200002
 30
0.0
 11
659.98274277830001
 21
53.548223070200002
 31
0.0
  0
SOLID
  5
28E
  8
0
 62
     0
 10
662.98274277829989
 20
53.548223070200002
 30
0.0
 11
655.48274277830001
 21
51.673223070200002
 31
0.0
 12
655.48274277830001
 22
55.423223070200002
 32
0.0
 13
657.35774277830001
 23
53.548223070200002
 33
0.0
  0
ENDBLK
  5
28F
  8
0
  0
BLOCK
  8
0
  2
*D30
 70
     1
 10
0.0
 20
0.0
 30
0.0
  3
*D30
  1

  0
TEXT
  5
293
  8
0
 62
     0
 10
801.04592918239996
 20
55.620937255900003
 30
0.0
 40
8.9958330630999992
  1
224
  0
LINE
  5
294
  8
0
 62
     0
 10
920.98320022209998
 20
29.278329423900001
 30
0.0
 11
920.98320022209998
 21
53.533437303599989
 31
0.0
  0
LINE
  5
295
  8
0
 62
     0
 10
696.98365766580002
 20
37.278329423899997
 30
0.0
 11
696.98365766580002
 21
53.533437303599989
 31
0.0
  0
LINE
  5
296
  8
0
 62
     0
 10
920.98320022209998
 20
53.033437303599989
 30
0.0
 11
822.21259521330001
 21
53.033437303599989
 31
0.0
  0
LINE
  5
297
  8
0
 62
     0
 10
920.98320022209998
 20
53.033437303599989
 30
0.0
 11
795.75426267470004
 21
53.033437303599989
 31
0.0
  0
LINE
  5
298
  8
0
 62
     0
 10
696.98365766580002
 20
53.033437303599989
 30
0.0
 11
822.21259521330001
 21
53.033437303599989
 31
0.0
  0
LINE
  5
299
  8
0
 62
     0
 10
696.98365766580002
 20
53.033437303599989
 30
0.0
 11
795.75426267470004
 21
53.033437303599989
 31
0.0
  0
LINE
  5
29A
  8
0
 62
     0
 10
696.98365766580002
 20
53.033437303599989
 30
0.0
 11
699.98365766580002
 21
53.033437303599989
 31
0.0
  0
SOLID
  5
29B
  8
0
 62
     0
 10
696.98365766580002
 20
53.033437303599989
 30
0.0
 11
704.48365766580002
 21
54.908437303599989
 31
0.0
 12
704.48365766580002
 22
51.158437303599989
 32
0.0
 13
702.60865766580002
 23
53.033437303599989
 33
0.0
  0
LINE
  5
29C
  8
0
 62
     0
 10
920.98320022209998
 20
53.033437303599989
 30
0.0
 11
917.98320022210009
 21
53.033437303599989
 31
0.0
  0
SOLID
  5
29D
  8
0
 62
     0
 10
920.98320022209998
 20
53.033437303599989
 30
0.0
 11
913.48320022210009
 21
51.158437303599989
 31
0.0
 12
913.48320022210009
 22
54.908437303599989
 32
0.0
 13
915.35820022209998
 23
53.033437303599989
 33
0.0
  0
ENDBLK
  5
29E
  8
0
  0
BLOCK
  8
0
  2
*D31
 70
     1
 10
0.0
 20
0.0
 30
0.0
  3
*D31
  1

  0
TEXT
  5
2A2
  8
0
 62
     0
 10
1064.8097646286001
 20
56.865992417500003
 30
0.0
 40
8.9958330630999992
  1
(57.5)
  0
LINE
  5
2A3
  8
0
 62
     0
 10
1105.9069864799001
 20
6.0783294238999988
 30
0.0
 11
1105.9069864799001
 21
54.778492465200003
 31
0.0
  0
LINE
  5
2A4
  8
0
 62
     0
 10
1048.4069864799001
 20
30.278492465199999
 30
0.0
 11
1048.4069864799001
 21
54.778492465200003
 31
0.0
  0
LINE
  5
2A5
  8
0
 62
     0
 10
1105.9069864799001
 20
54.27849246520001
 30
0.0
 11
1094.7958748389999
 21
54.27849246520001
 31
0.0
  0
LINE
  5
2A6
  8
0
 62
     0
 10
1105.9069864799001
 20
54.27849246520001
 30
0.0
 11
1059.5180981209
 21
54.27849246520001
 31
0.0
  0
LINE
  5
2A7
  8
0
 62
     0
 10
1048.4069864799001
 20
54.27849246520001
 30
0.0
 11
1094.7958748389999
 21
54.27849246520001
 31
0.0
  0
LINE
  5
2A8
  8
0
 62
     0
 10
1048.4069864799001
 20
54.27849246520001
 30
0.0
 11
1059.5180981209
 21
54.27849246520001
 31
0.0
  0
LINE
  5
2A9
  8
0
 62
     0
 10
1048.4069864799001
 20
54.27849246520001
 30
0.0
 11
1051.4069864799001
 21
54.27849246520001
 31
0.0
  0
SOLID
  5
2AA
  8
0
 62
     0
 10
1048.4069864799001
 20
54.27849246520001
 30
0.0
 11
1055.9069864799001
 21
56.15349246520001
 31
0.0
 12
1055.9069864799001
 22
52.40349246520001
 32
0.0
 13
1054.0319864799001
 23
54.27849246520001
 33
0.0
  0
LINE
  5
2AB
  8
0
 62
     0
 10
1105.9069864799001
 20
54.27849246520001
 30
0.0
 11
1102.9069864799001
 21
54.27849246520001
 31
0.0
  0
SOLID
  5
2AC
  8
0
 62
     0
 10
1105.9069864799001
 20
54.27849246520001
 30
0.0
 11
1098.4069864799001
 21
52.40349246520001
 31
0.0
 12
1098.4069864799001
 22
56.15349246520001
 32
0.0
 13
1100.2819864799001
 23
54.27849246520001
 33
0.0
  0
ENDBLK
  5
2AD
  8
0
  0
BLOCK
  8
0
  2
*D32
 70
     1
 10
0.0
 20
0.0
 30
0.0
  3
*D32
  1

  0
TEXT
  5
2B1
  8
0
 62
     0
 10
689.60058868689998
 20
-443.32185780099991
 30
0.0
 40
8.9958330630999992
  1
%%c56.7
  0
LINE
  5
2B2
  8
0
 62
     0
 10
675.58319663860004
 20
-419.754523006
 30
0.0
 11
675.58319663860004
 21
-446.40935775330001
 31
0.0
  0
LINE
  5
2B3
  8
0
 62
     0
 10
732.28117431869987
 20
-419.754523006
 30
0.0
 11
732.28117431869987
 21
-446.40935775330001
 31
0.0
  0
LINE
  5
2B4
  8
0
 62
     0
 10
675.58319663860004
 20
-445.90935775330001
 30
0.0
 11
723.55544877809996
 21
-445.90935775330001
 31
0.0
  0
LINE
  5
2B5
  8
0
 62
     0
 10
675.58319663860004
 20
-445.90935775330001
 30
0.0
 11
684.30892217919995
 21
-445.90935775330001
 31
0.0
  0
LINE
  5
2B6
  8
0
 62
     0
 10
732.28117431869987
 20
-445.90935775330001
 30
0.0
 11
723.55544877809996
 21
-445.90935775330001
 31
0.0
  0
LINE
  5
2B7
  8
0
 62
     0
 10
732.28117431869987
 20
-445.90935775330001
 30
0.0
 11
684.30892217919995
 21
-445.90935775330001
 31
0.0
  0
LINE
  5
2B8
  8
0
 62
     0
 10
732.28117431869987
 20
-445.90935775330001
 30
0.0
 11
729.28117431869998
 21
-445.90935775330001
 31
0.0
  0
SOLID
  5
2B9
  8
0
 62
     0
 10
732.28117431869987
 20
-445.90935775330001
 30
0.0
 11
724.78117431869998
 21
-447.78435775330001
 31
0.0
 12
724.78117431869998
 22
-444.03435775330001
 32
0.0
 13
726.65617431869998
 23
-445.90935775330001
 33
0.0
  0
LINE
  5
2BA
  8
0
 62
     0
 10
675.58319663860004
 20
-445.90935775330001
 30
0.0
 11
678.58319663860004
 21
-445.90935775330001
 31
0.0
  0
SOLID
  5
2BB
  8
0
 62
     0
 10
675.58319663860004
 20
-445.90935775330001
 30
0.0
 11
683.08319663860004
 21
-444.03435775330001
 31
0.0
 12
683.08319663860004
 22
-447.78435775330001
 32
0.0
 13
681.20819663860004
 23
-445.90935775330001
 33
0.0
  0
ENDBLK
  5
2BC
  8
0
  0
BLOCK
  8
0
  2
*D33
 70
     1
 10
0.0
 20
0.0
 30
0.0
  3
*D33
  1

  0
TEXT
  5
2C0
  8
0
 62
     0
 10
589.69153371439995
 20
-60.078413101199992
 30
0.0
 40
8.9958330630999992
  1
16
  0
LINE
  5
2C1
  8
0
 62
     0
 10
602.98320022209998
 20
-81.721670576099996
 30
0.0
 11
602.98320022209998
 21
-62.165913053499999
 31
0.0
  0
LINE
  5
2C2
  8
0
 62
     0
 10
586.98320022209987
 20
-81.721670576099996
 30
0.0
 11
586.98320022209987
 21
-62.165913053499999
 31
0.0
  0
LINE
  5
2C3
  8
0
 62
     0
 10
602.98320022209998
 20
-62.665913053500013
 30
0.0
 11
602.98320022209998
 21
-62.665913053500013
 31
0.0
  0
LINE
  5
2C4
  8
0
 62
     0
 10
602.98320022209998
 20
-62.665913053500013
 30
0.0
 11
586.98320022209987
 21
-62.665913053500013
 31
0.0
  0
LINE
  5
2C5
  8
0
 62
     0
 10
586.98320022209987
 20
-62.665913053500013
 30
0.0
 11
602.98320022209998
 21
-62.665913053500013
 31
0.0
  0
LINE
  5
2C6
  8
0
 62
     0
 10
586.98320022209987
 20
-62.665913053500013
 30
0.0
 11
586.98320022209987
 21
-62.665913053500013
 31
0.0
  0
LINE
  5
2C7
  8
0
 62
     0
 10
586.98320022209987
 20
-62.665913053500013
 30
0.0
 11
589.98320022209998
 21
-62.665913053500013
 31
0.0
  0
SOLID
  5
2C8
  8
0
 62
     0
 10
586.98320022209987
 20
-62.665913053500013
 30
0.0
 11
594.48320022209998
 21
-60.790913053500013
 31
0.0
 12
594.48320022209998
 22
-64.540913053500006
 32
0.0
 13
592.60820022209998
 23
-62.665913053500013
 33
0.0
  0
LINE
  5
2C9
  8
0
 62
     0
 10
602.98320022209998
 20
-62.665913053500013
 30
0.0
 11
599.98320022209987
 21
-62.665913053500013
 31
0.0
  0
SOLID
  5
2CA
  8
0
 62
     0
 10
602.98320022209998
 20
-62.665913053500013
 30
0.0
 11
595.48320022209987
 21
-64.540913053500006
 31
0.0
 12
595.48320022209987
 22
-60.790913053500013
 32
0.0
 13
597.35820022209987
 23
-62.665913053500013
 33
0.0
  0
ENDBLK
  5
2CB
  8
0
  0
BLOCK
  8
0
  2
CLUMP5
 70
     0
 10
0.0
 20
0.0
 30
0.0
  3
CLUMP5
  1

  0
LINE
  5
2DA
  8
┌▓È_1
 62
     5
 10
1050.4069864799001
 20
-115.7214651689
 30
0.0
 11
1050.4069864799001
 21
-115.02146516889999
 31
0.0
  0
ARC
  5
2DB
  8
┌▓È_1
 62
     5
 10
1084.7069864799
 20
-115.7214651689
 30
0.0
 40
0.7
 50
0.0
 51
90.0
  0
LINE
  5
2DC
  8
┌▓È_1
 62
     5
 10
1085.4069864799001
 20
-115.7214651689
 30
0.0
 11
1085.4069864799001
 21
-122.02146516889999
 31
0.0
  0
LINE
  5
2DD
  8
┌▓È_1
 62
     5
 10
1084.7069864799
 20
-115.7214651689
 30
0.0
 11
1084.7069864799
 21
-122.02146516889999
 31
0.0
  0
LINE
  5
2DE
  8
┌▓È_1
 62
     5
 10
1085.4069864799001
 20
-122.02146516889999
 30
0.0
 11
1084.7069864799
 21
-122.02146516889999
 31
0.0
  0
LINE
  5
2DF
  8
┌▓È_1
 62
     5
 10
1050.4069864799001
 20
-115.02146516889999
 30
0.0
 11
1084.7069864799
 21
-115.02146516889999
 31
0.0
  0
LINE
  5
2E0
  8
┌▓È_1
 62
     5
 10
1050.4069864799001
 20
-115.7214651689
 30
0.0
 11
1084.7069864799
 21
-115.7214651689
 31
0.0
  0
ENDBLK
  5
2E1
  8
0
  0
BLOCK
  8
0
  2
BALLON0
 70
     0
 10
0.0
 20
0.0
 30
0.0
  3
BALLON0
  1

  0
INSERT
  5
2F2
  8
0
  6
CONTINUOUS
  2
*U91
 10
0.0
 20
0.0
 30
0.0
  0
CIRCLE
  5
2F3
  8
┌▓È_1
 10
796.68996645280004
 20
-370.56695744680002
 30
0.0
 40
10.0
  0
LINE
  5
2F4
  8
Éíû@É³
 10
780.02329978609998
 20
-370.56695744680002
 30
0.0
 11
786.68996645280004
 21
-370.56695744680002
 31
0.0
  0
LINE
  5
2F5
  8
Éíû@É³
 10
746.04703136939986
 20
-332.41237615969999
 30
0.0
 11
780.02329978609998
 21
-370.56695744680002
 31
0.0
  0
SOLID
  5
2F6
  8
Éíû@É³
 10
746.04703136939986
 20
-332.41237615969999
 30
0.0
 11
754.19097685669988
 21
-338.55046640839998
 31
0.0
 12
751.36728324440003
 22
-338.38689873369998
 32
0.0
 13
751.36728324440003
 23
-338.38689873369998
 33
0.0
  0
SOLID
  5
2F7
  8
Éíû@É³
 10
751.36728324440003
 20
-338.38689873369998
 30
0.0
 11
751.20371556969985
 21
-341.21059234590001
 31
0.0
 12
746.04703136939986
 22
-332.41237615969999
 32
0.0
 13
746.04703136939986
 23
-332.41237615969999
 33
0.0
  0
ENDBLK
  5
2F8
  8
0
  0
BLOCK
  8
0
  2
BALLON1
 70
     0
 10
0.0
 20
0.0
 30
0.0
  3
BALLON1
  1

  0
INSERT
  5
2FC
  8
0
  6
CONTINUOUS
  2
*U92
 10
0.0
 20
0.0
 30
0.0
  0
CIRCLE
  5
2FD
  8
┌▓È_1
 10
434.39345705629989
 20
-46.590641986400001
 30
0.0
 40
10.0
  0
LINE
  5
2FE
  8
Éíû@É³
 10
451.060123723
 20
-46.590641986400001
 30
0.0
 11
444.39345705630001
 21
-46.590641986400001
 31
0.0
  0
LINE
  5
2FF
  8
Éíû@É³
 10
499.50864506929997
 20
-67.792385988900008
 30
0.0
 11
451.060123723
 21
-46.590641986400001
 31
0.0
  0
SOLID
  5
300
  8
Éíû@É³
 10
499.50864506929997
 20
-67.792385988900008
 30
0.0
 11
489.54564201589989
 21
-65.615560281800001
 31
0.0
 12
492.1796928293
 22
-64.585134975200006
 32
0.0
 13
492.1796928293
 23
-64.585134975200006
 33
0.0
  0
SOLID
  5
301
  8
Éíû@É³
 10
492.1796928293
 20
-64.585134975200006
 30
0.0
 11
491.14926752269992
 21
-61.951084161799997
 31
0.0
 12
499.50864506929997
 22
-67.792385988900008
 32
0.0
 13
499.50864506929997
 23
-67.792385988900008
 33
0.0
  0
ENDBLK
  5
302
  8
0
  0
BLOCK
  8
0
  2
BALLON2
 70
     0
 10
0.0
 20
0.0
 30
0.0
  3
BALLON2
  1

  0
INSERT
  5
306
  8
0
  6
CONTINUOUS
  2
*U93
 10
0.0
 20
0.0
 30
0.0
  0
CIRCLE
  5
307
  8
┌▓È_1
 10
434.39345705629989
 20
3.1561353574000002
 30
0.0
 40
10.0
  0
LINE
  5
308
  8
Éíû@É³
 10
451.060123723
 20
3.1561353574000002
 30
0.0
 11
444.39345705630001
 21
3.1561353574000002
 31
0.0
  0
LINE
  5
309
  8
Éíû@É³
 10
480.00864506929997
 20
-25.792385988900001
 30
0.0
 11
451.060123723
 21
3.1561353574000002
 31
0.0
  0
SOLID
  5
30A
  8
Éíû@É³
 10
480.00864506929997
 20
-25.792385988900001
 30
0.0
 11
471.52336369499989
 21
-20.135531739400001
 31
0.0
 12
474.35179081979999
 22
-20.135531739400001
 32
0.0
 13
474.35179081979999
 23
-20.135531739400001
 33
0.0
  0
SOLID
  5
30B
  8
Éíû@É³
 10
474.35179081979999
 20
-20.135531739400001
 30
0.0
 11
474.35179081979999
 21
-17.307104614699998
 31
0.0
 12
480.00864506929997
 22
-25.792385988900001
 32
0.0
 13
480.00864506929997
 23
-25.792385988900001
 33
0.0
  0
ENDBLK
  5
30C
  8
0
  0
BLOCK
  8
0
  2
BALLON3
 70
     0
 10
0.0
 20
0.0
 30
0.0
  3
BALLON3
  1

  0
INSERT
  5
310
  8
0
  6
CONTINUOUS
  2
*U94
 10
0.0
 20
0.0
 30
0.0
  0
CIRCLE
  5
311
  8
┌▓È_1
 10
1004.4982470305
 20
-162.11353795170001
 30
0.0
 40
10.0
  0
LINE
  5
312
  8
Éíû@É³
 10
1021.1649136971
 20
-162.11353795170001
 30
0.0
 11
1014.4982470305
 21
-162.11353795170001
 31
0.0
  0
LINE
  5
313
  8
Éíû@É³
 10
1067.5569864798999
 20
-115.7214651689
 30
0.0
 11
1021.1649136971
 21
-162.11353795170001
 31
0.0
  0
SOLID
  5
314
  8
Éíû@É³
 10
1067.5569864798999
 20
-115.7214651689
 30
0.0
 11
1061.9001322305
 21
-124.2067465431
 31
0.0
 12
1061.9001322305
 22
-121.3783194184
 32
0.0
 13
1061.9001322305
 23
-121.3783194184
 33
0.0
  0
SOLID
  5
315
  8
Éíû@É³
 10
1061.9001322305
 20
-121.3783194184
 30
0.0
 11
1059.0717051056999
 21
-121.3783194184
 31
0.0
 12
1067.5569864798999
 22
-115.7214651689
 32
0.0
 13
1067.5569864798999
 23
-115.7214651689
 33
0.0
  0
ENDBLK
  5
316
  8
0
  0
BLOCK
  8
0
  2
CLUMP6
 70
     0
 10
0.0
 20
0.0
 30
0.0
  3
CLUMP6
  1

  0
LINE
  5
361
  8
┌▓È_1
 62
     5
 10
1050.4069864799001
 20
30.278840717800001
 30
0.0
 11
1050.4069864799001
 21
29.578840717799999
 31
0.0
  0
ARC
  5
362
  8
┌▓È_1
 62
     5
 10
1084.7069864799
 20
30.278840717800001
 30
0.0
 40
0.7
 50
270.0
 51
0.0
  0
LINE
  5
363
  8
┌▓È_1
 62
     5
 10
1085.4069864799001
 20
30.278840717800001
 30
0.0
 11
1085.4069864799001
 21
36.578840717799999
 31
0.0
  0
LINE
  5
364
  8
┌▓È_1
 62
     5
 10
1084.7069864799
 20
30.278840717800001
 30
0.0
 11
1084.7069864799
 21
36.578840717799999
 31
0.0
  0
LINE
  5
365
  8
┌▓È_1
 62
     5
 10
1085.4069864799001
 20
36.578840717799999
 30
0.0
 11
1084.7069864799
 21
36.578840717799999
 31
0.0
  0
LINE
  5
366
  8
┌▓È_1
 62
     5
 10
1050.4069864799001
 20
29.578840717799999
 30
0.0
 11
1084.7069864799
 21
29.578840717799999
 31
0.0
  0
LINE
  5
367
  8
┌▓È_1
 62
     5
 10
1050.4069864799001
 20
30.278840717800001
 30
0.0
 11
1084.7069864799
 21
30.278840717800001
 31
0.0
  0
ENDBLK
  5
368
  8
0
  0
BLOCK
  8
0
  2
CLUMP7
 70
     0
 10
0.0
 20
0.0
 30
0.0
  3
CLUMP7
  1

  0
ARC
  5
3EE
  8
┌▓È_1
 62
     5
 10
1134.1569974762999
 20
-93.712173152099993
 30
0.0
 40
1.75
 50
90.299999999999983
 51
180.0
  0
LINE
  5
3EF
  8
┌▓È_1
 62
     5
 10
1118.4069974762999
 20
8.3786877745000012
 30
0.0
 11
1118.4069974762999
 21
5.2786877744999989
 31
0.0
  0
LINE
  5
3F0
  8
┌▓È_1
 62
     5
 10
1118.4069974762999
 20
8.3786877745000012
 30
0.0
 11
1118.4069974762999
 21
5.2786877744999989
 31
0.0
  0
LINE
  5
3F1
  8
┌▓È_1
 62
     5
 10
1108.9069974762999
 20
-90.071312225499994
 30
0.0
 11
1108.9069974762999
 21
-86.721312225499986
 31
0.0
  0
LINE
  5
3F2
  8
┌▓È_1
 62
     5
 10
1108.9069974762999
 20
-90.071312225499994
 30
0.0
 11
1106.4069974762999
 21
-90.071312225499994
 31
0.0
  0
LINE
  5
3F3
  8
┌▓È_1
 62
     5
 10
1118.4069974762999
 20
-90.721312225499986
 30
0.0
 11
1118.4069974762999
 21
5.2786877744999989
 31
0.0
  0
LINE
  5
3F4
  8
┌▓È_1
 62
     5
 10
1132.4069974762999
 20
8.2695487010999997
 30
0.0
 11
1132.4069974762999
 21
-93.712173152099993
 31
0.0
  0
LINE
  5
3F5
  8
┌▓È_1
 62
     5
 10
1108.9069974762999
 20
-44.721312225499993
 30
0.0
 11
1116.4069974762999
 21
-44.721312225499993
 31
0.0
  0
LINE
  5
3F6
  8
┌▓È_1
 62
     5
 10
1108.9069974762999
 20
-85.7213122255
 30
0.0
 11
1116.4069974762999
 21
-85.7213122255
 31
0.0
  0
LINE
  5
3F7
  8
┌▓È_1
 62
     5
 10
1095.1069974763
 20
-49.438826646800003
 30
0.0
 11
1095.1069974763
 21
-52.6208071621
 31
0.0
  0
LINE
  5
3F8
  8
┌▓È_1
 62
     5
 10
1100.4069974762999
 20
5.1286877744999986
 30
0.0
 11
1100.4069974762999
 21
-90.571312225499994
 31
0.0
  0
LINE
  5
3F9
  8
┌▓È_1
 62
     5
 10
1098.9069974762999
 20
-27.9321331879
 30
0.0
 11
1098.9069974762999
 21
5.1286877744999986
 31
0.0
  0
LINE
  5
3FA
  8
┌▓È_1
 62
     5
 10
1102.9069974762999
 20
4.7786877744999989
 30
0.0
 11
1102.9069974762999
 21
-1.2213122254999991
 31
0.0
  0
LINE
  5
3FB
  8
┌▓È_1
 62
     5
 10
1096.9069974762999
 20
-39.041208785199998
 30
0.0
 11
1096.9069974762999
 21
-41.319566899499989
 31
0.0
  0
LINE
  5
3FC
  8
┌▓È_1
 62
     5
 10
1096.9069974762999
 20
-28.3573511948
 30
0.0
 11
1096.9069974762999
 21
-30.491515819
 31
0.0
  0
CIRCLE
  5
3FD
  8
┌▓È_1
 62
     5
 10
1097.9536697154001
 20
-33.403461559600011
 30
0.0
 40
1.022842196899999
  0
ARC
  5
3FE
  8
┌▓È_1
 62
     5
 10
1097.9069974762999
 20
-28.3573511948
 30
0.0
 40
1.0
 50
360.0
 51
180.0
  0
LINE
  5
3FF
  8
┌▓È_1
 62
     5
 10
1104.9069974762999
 20
-1.2213122254999991
 30
0.0
 11
1104.9069974762999
 21
-84.2213122255
 31
0.0
  0
LINE
  5
400
  8
┌▓È_1
 62
     5
 10
1116.4069974762999
 20
8.3786877745000012
 30
0.0
 11
1118.4069974762999
 21
8.3786877745000012
 31
0.0
  0
LINE
  5
401
  8
┌▓È_1
 62
     5
 10
1118.4069974762999
 20
8.3786877745000012
 30
0.0
 11
1132.4069974762999
 21
8.3786877745000012
 31
0.0
  0
LINE
  5
402
  8
┌▓È_1
 62
     5
 10
1108.9069974762999
 20
0.2786877745
 30
0.0
 11
1116.4069974762999
 21
0.2786877745
 31
0.0
  0
LINE
  5
403
  8
┌▓È_1
 62
     5
 10
1108.9069974762999
 20
-4.7213122255000002
 30
0.0
 11
1116.4069974762999
 21
-4.7213122255000002
 31
0.0
  0
LINE
  5
404
  8
┌▓È_1
 62
     5
 10
1132.4069974762999
 20
8.2695487010999997
 30
0.0
 11
1132.4069974762999
 21
8.3786877745000012
 31
0.0
  0
ARC
  5
405
  8
┌▓È_1
 62
     5
 10
1134.1569974762999
 20
8.2695487010999997
 30
0.0
 40
1.75
 50
180.0
 51
269.69999999999999
  0
LINE
  5
406
  8
┌▓È_1
 62
     5
 10
1108.9069974762999
 20
1.2786877745
 30
0.0
 11
1108.9069974762999
 21
4.6286877744999986
 31
0.0
  0
LINE
  5
407
  8
┌▓È_1
 62
     5
 10
1118.4069974762999
 20
-93.821312225499994
 30
0.0
 11
1118.4069974762999
 21
-90.721312225499986
 31
0.0
  0
LINE
  5
408
  8
┌▓È_1
 62
     5
 10
1108.9069974762999
 20
-40.7213122255
 30
0.0
 11
1116.4069974762999
 21
-40.7213122255
 31
0.0
  0
LINE
  5
409
  8
┌▓È_1
 62
     5
 10
1116.4069974762999
 20
-86.721312225499986
 30
0.0
 11
1116.4069974762999
 21
-93.821312225499994
 31
0.0
  0
LINE
  5
40A
  8
┌▓È_1
 62
     5
 10
1116.4069974762999
 20
-93.821312225499994
 30
0.0
 11
1118.4069974762999
 21
-93.821312225499994
 31
0.0
  0
LINE
  5
40B
  8
┌▓È_1
 62
     5
 10
1116.4069974762999
 20
-86.721312225499986
 30
0.0
 11
1108.9069974762999
 21
-86.721312225499986
 31
0.0
  0
LINE
  5
40C
  8
┌▓È_1
 62
     5
 10
1108.9069974762999
 20
1.2786877745
 30
0.0
 11
1108.9069974762999
 21
-86.721312225499986
 31
0.0
  0
LINE
  5
40D
  8
┌▓È_1
 62
     5
 10
1106.4069974762999
 20
-84.2213122255
 30
0.0
 11
1106.4069974762999
 21
-1.2213122254999991
 31
0.0
  0
LINE
  5
40E
  8
┌▓È_1
 62
     5
 10
1118.4069974762999
 20
-93.821312225499994
 30
0.0
 11
1132.4069974762999
 21
-93.821312225499994
 31
0.0
  0
LINE
  5
40F
  8
┌▓È_1
 62
     5
 10
1132.4069974762999
 20
-93.712173152099993
 30
0.0
 11
1132.4069974762999
 21
-93.821312225499994
 31
0.0
  0
LINE
  5
410
  8
┌▓È_1
 62
     5
 10
1106.4069974762999
 20
4.6286877744999986
 30
0.0
 11
1106.4069974762999
 21
-1.2213122254999991
 31
0.0
  0
LINE
  5
411
  8
┌▓È_1
 62
     5
 10
1106.4069974762999
 20
-1.2213122254999991
 30
0.0
 11
1104.9069974762999
 21
-1.2213122254999991
 31
0.0
  0
LINE
  5
412
  8
┌▓È_1
 62
     5
 10
1104.9069974762999
 20
4.6286877744999986
 30
0.0
 11
1104.9069974762999
 21
-1.2213122254999991
 31
0.0
  0
LINE
  5
413
  8
┌▓È_1
 62
     5
 10
1106.4069974762999
 20
-84.2213122255
 30
0.0
 11
1106.4069974762999
 21
-90.071312225499994
 31
0.0
  0
LINE
  5
414
  8
┌▓È_1
 62
     5
 10
1106.4069974762999
 20
-84.2213122255
 30
0.0
 11
1104.9069974762999
 21
-84.2213122255
 31
0.0
  0
LINE
  5
415
  8
┌▓È_1
 62
     5
 10
1104.9069974762999
 20
-84.2213122255
 30
0.0
 11
1104.9069974762999
 21
-90.071312225499994
 31
0.0
  0
LINE
  5
416
  8
┌▓È_1
 62
     5
 10
1102.9069974762999
 20
-90.071312225499994
 30
0.0
 11
1104.9069974762999
 21
-90.071312225499994
 31
0.0
  0
LINE
  5
417
  8
┌▓È_1
 62
     5
 10
1104.9069974762999
 20
4.6286877744999986
 30
0.0
 11
1102.9069974762999
 21
4.6286877744999986
 31
0.0
  0
LINE
  5
418
  8
┌▓È_1
 62
     5
 10
1108.9069974762999
 20
4.6286877744999986
 30
0.0
 11
1106.4069974762999
 21
4.6286877744999986
 31
0.0
  0
LINE
  5
419
  8
┌▓È_1
 62
     5
 10
1108.9069974762999
 20
-80.7213122255
 30
0.0
 11
1116.4069974762999
 21
-80.7213122255
 31
0.0
  0
LINE
  5
41A
  8
┌▓È_1
 62
     5
 10
1116.4069974762999
 20
1.2786877745
 30
0.0
 11
1108.9069974762999
 21
1.2786877745
 31
0.0
  0
LINE
  5
41B
  8
┌▓È_1
 62
     5
 10
1116.4069974762999
 20
8.3786877745000012
 30
0.0
 11
1116.4069974762999
 21
1.2786877745
 31
0.0
  0
LINE
  5
41C
  8
┌▓È_1
 62
     5
 10
1116.4069974762999
 20
1.2786877745
 30
0.0
 11
1116.4069974762999
 21
-86.721312225499986
 31
0.0
  0
LINE
  5
41D
  8
┌▓È_1
 62
     5
 10
1102.9069974762999
 20
-84.2213122255
 30
0.0
 11
1102.9069974762999
 21
-1.2213122254999991
 31
0.0
  0
ARC
  5
41E
  8
┌▓È_1
 62
     5
 10
1096.9069974762999
 20
-27.9321331879
 30
0.0
 40
2.0
 50
307.20312659799998
 51
0.0
  0
LINE
  5
41F
  8
┌▓È_1
 62
     5
 10
1102.9069974762999
 20
-90.221312225499986
 30
0.0
 11
1102.9069974762999
 21
-84.2213122255
 31
0.0
  0
LINE
  5
420
  8
┌▓È_1
 62
     5
 10
1100.4069974762999
 20
-90.221312225499986
 30
0.0
 11
1102.9069974762999
 21
-90.221312225499986
 31
0.0
  0
ARC
  5
421
  8
┌▓È_1
 62
     5
 10
1096.9069974762999
 20
-54.682064138400001
 30
0.0
 40
2.0
 50
0.0
 51
52.797132081999997
  0
LINE
  5
422
  8
┌▓È_1
 62
     5
 10
1098.9069974762999
 20
-42.7213122255
 30
0.0
 11
1098.9069974762999
 21
-90.571312225499994
 31
0.0
  0
ARC
  5
423
  8
┌▓È_1
 62
     5
 10
1096.9069974762999
 20
-57.864047383599988
 30
0.0
 40
2.0
 50
0.0
 51
52.797132081999997
  0
LINE
  5
424
  8
┌▓È_1
 62
     5
 10
1095.1069974763
 20
-33.175370679499999
 30
0.0
 11
1095.1069974763
 21
-36.357351194800003
 31
0.0
  0
LINE
  5
425
  8
┌▓È_1
 62
     5
 10
1098.9069974762999
 20
-28.3573511948
 30
0.0
 11
1098.9069974762999
 21
-38.449571924300002
 31
0.0
  0
ARC
  5
426
  8
┌▓È_1
 62
     5
 10
1096.9069974762999
 20
-38.418608171100011
 30
0.0
 40
2.0
 50
0.0
 51
52.797132081999997
  0
LINE
  5
427
  8
┌▓È_1
 62
     5
 10
1098.9069974762999
 20
-38.418608171100011
 30
0.0
 11
1098.9069974762999
 21
-42.7213122255
 31
0.0
  0
LINE
  5
428
  8
┌▓È_1
 62
     5
 10
1096.9069974762999
 20
-44.123057551499997
 30
0.0
 11
1096.9069974762999
 21
-50.453440037100002
 31
0.0
  0
LINE
  5
429
  8
┌▓È_1
 62
     5
 10
1098.9069974762999
 20
5.1286877744999986
 30
0.0
 11
1100.4069974762999
 21
5.1286877744999986
 31
0.0
  0
LINE
  5
42A
  8
┌▓È_1
 62
     5
 10
1100.4069974762999
 20
4.7786877744999989
 30
0.0
 11
1102.9069974762999
 21
4.7786877744999989
 31
0.0
  0
POLYLINE
  8
┌▓È_1
  5
97F
  62
5
  66
     1
 10
0.000000
 20
0.000000
 30
0.000000
  70
     8
  0
VERTEX
  8
┌▓È_1
  5
980
 10
1096.91
 20
-48.4242
 30
0.000000
  70
    32
  0
VERTEX
  8
┌▓È_1
  5
981
 10
1096.89
 20
-48.4501
 30
0.000000
  70
    32
  0
VERTEX
  8
┌▓È_1
  5
982
 10
1096.88
 20
-48.4760
 30
0.000000
  70
    32
  0
VERTEX
  8
┌▓È_1
  5
983
 10
1096.86
 20
-48.5018
 30
0.000000
  70
    32
  0
VERTEX
  8
┌▓È_1
  5
984
 10
1096.85
 20
-48.5277
 30
0.000000
  70
    32
  0
VERTEX
  8
┌▓È_1
  5
985
 10
1096.84
 20
-48.5536
 30
0.000000
  70
    32
  0
VERTEX
  8
┌▓È_1
  5
986
 10
1096.83
 20
-48.5794
 30
0.000000
  70
    32
  0
VERTEX
  8
┌▓È_1
  5
987
 10
1096.81
 20
-48.6053
 30
0.000000
  70
    32
  0
VERTEX
  8
┌▓È_1
  5
988
 10
1096.80
 20
-48.6312
 30
0.000000
  70
    32
  0
VERTEX
  8
┌▓È_1
  5
989
 10
1096.79
 20
-48.6570
 30
0.000000
  70
    32
  0
VERTEX
  8
┌▓È_1
  5
98A
 10
1096.78
 20
-48.6829
 30
0.000000
  70
    32
  0
VERTEX
  8
┌▓È_1
  5
98B
 10
1096.77
 20
-48.7088
 30
0.000000
  70
    32
  0
VERTEX
  8
┌▓È_1
  5
98C
 10
1096.76
 20
-48.7346
 30
0.000000
  70
    32
  0
VERTEX
  8
┌▓È_1
  5
98D
 10
1096.74
 20
-48.7605
 30
0.000000
  70
    32
  0
VERTEX
  8
┌▓È_1
  5
98E
 10
1096.73
 20
-48.7864
 30
0.000000
  70
    32
  0
VERTEX
  8
┌▓È_1
  5
98F
 10
1096.73
 20
-48.8122
 30
0.000000
  70
    32
  0
VERTEX
  8
┌▓È_1
  5
990
 10
1096.72
 20
-48.8381
 30
0.000000
  70
    32
  0
VERTEX
  8
┌▓È_1
  5
991
 10
1096.71
 20
-48.8640
 30
0.000000
  70
    32
  0
VERTEX
  8
┌▓È_1
  5
992
 10
1096.70
 20
-48.8898
 30
0.000000
  70
    32
  0
VERTEX
  8
┌▓È_1
  5
993
 10
1096.69
 20
-48.9157
 30
0.000000
  70
    32
  0
VERTEX
  8
┌▓È_1
  5
994
 10
1096.68
 20
-48.9416
 30
0.000000
  70
    32
  0
VERTEX
  8
┌▓È_1
  5
995
 10
1096.67
 20
-48.9675
 30
0.000000
  70
    32
  0
VERTEX
  8
┌▓È_1
  5
996
 10
1096.67
 20
-48.9933
 30
0.000000
  70
    32
  0
VERTEX
  8
┌▓È_1
  5
997
 10
1096.66
 20
-49.0192
 30
0.000000
  70
    32
  0
VERTEX
  8
┌▓È_1
  5
998
 10
1096.65
 20
-49.0451
 30
0.000000
  70
    32
  0
VERTEX
  8
┌▓È_1
  5
999
 10
1096.65
 20
-49.0709
 30
0.000000
  70
    32
  0
VERTEX
  8
┌▓È_1
  5
99A
 10
1096.64
 20
-49.0968
 30
0.000000
  70
    32
  0
VERTEX
  8
┌▓È_1
  5
99B
 10
1096.64
 20
-49.1227
 30
0.000000
  70
    32
  0
VERTEX
  8
┌▓È_1
  5
99C
 10
1096.63
 20
-49.1485
 30
0.000000
  70
    32
  0
VERTEX
  8
┌▓È_1
  5
99D
 10
1096.63
 20
-49.1744
 30
0.000000
  70
    32
  0
VERTEX
  8
┌▓È_1
  5
99E
 10
1096.62
 20
-49.2003
 30
0.000000
  70
    32
  0
VERTEX
  8
┌▓È_1
  5
99F
 10
1096.62
 20
-49.2261
 30
0.000000
  70
    32
  0
VERTEX
  8
┌▓È_1
  5
9A0
 10
1096.62
 20
-49.2520
 30
0.000000
  70
    32
  0
VERTEX
  8
┌▓È_1
  5
9A1
 10
1096.62
 20
-49.2779
 30
0.000000
  70
    32
  0
VERTEX
  8
┌▓È_1
  5
9A2
 10
1096.61
 20
-49.3037
 30
0.000000
  70
    32
  0
VERTEX
  8
┌▓È_1
  5
9A3
 10
1096.61
 20
-49.3296
 30
0.000000
  70
    32
  0
VERTEX
  8
┌▓È_1
  5
9A4
 10
1096.61
 20
-49.3555
 30
0.000000
  70
    32
  0
VERTEX
  8
┌▓È_1
  5
9A5
 10
1096.61
 20
-49.3813
 30
0.000000
  70
    32
  0
VERTEX
  8
┌▓È_1
  5
9A6
 10
1096.61
 20
-49.4072
 30
0.000000
  70
    32
  0
VERTEX
  8
┌▓È_1
  5
9A7
 10
1096.61
 20
-49.4331
 30
0.000000
  70
    32
  0
VERTEX
  8
┌▓È_1
  5
9A8
 10
1096.61
 20
-49.4589
 30
0.000000
  70
    32
  0
VERTEX
  8
┌▓È_1
  5
9A9
 10
1096.61
 20
-49.4848
 30
0.000000
  70
    32
  0
VERTEX
  8
┌▓È_1
  5
9AA
 10
1096.61
 20
-49.5107
 30
0.000000
  70
    32
  0
VERTEX
  8
┌▓È_1
  5
9AB
 10
1096.61
 20
-49.5366
 30
0.000000
  70
    32
  0
VERTEX
  8
┌▓È_1
  5
9AC
 10
1096.61
 20
-49.5624
 30
0.000000
  70
    32
  0
VERTEX
  8
┌▓È_1
  5
9AD
 10
1096.61
 20
-49.5883
 30
0.000000
  70
    32
  0
VERTEX
  8
┌▓È_1
  5
9AE
 10
1096.62
 20
-49.6142
 30
0.000000
  70
    32
  0
VERTEX
  8
┌▓È_1
  5
9AF
 10
1096.62
 20
-49.6400
 30
0.000000
  70
    32
  0
VERTEX
  8
┌▓È_1
  5
9B0
 10
1096.62
 20
-49.6659
 30
0.000000
  70
    32
  0
VERTEX
  8
┌▓È_1
  5
9B1
 10
1096.63
 20
-49.6918
 30
0.000000
  70
    32
  0
VERTEX
  8
┌▓È_1
  5
9B2
 10
1096.63
 20
-49.7176
 30
0.000000
  70
    32
  0
VERTEX
  8
┌▓È_1
  5
9B3
 10
1096.64
 20
-49.7435
 30
0.000000
  70
    32
  0
VERTEX
  8
┌▓È_1
  5
9B4
 10
1096.64
 20
-49.7694
 30
0.000000
  70
    32
  0
VERTEX
  8
┌▓È_1
  5
9B5
 10
1096.65
 20
-49.7952
 30
0.000000
  70
    32
  0
VERTEX
  8
┌▓È_1
  5
9B6
 10
1096.65
 20
-49.8211
 30
0.000000
  70
    32
  0
VERTEX
  8
┌▓È_1
  5
9B7
 10
1096.66
 20
-49.8470
 30
0.000000
  70
    32
  0
VERTEX
  8
┌▓È_1
  5
9B8
 10
1096.66
 20
-49.8728
 30
0.000000
  70
    32
  0
VERTEX
  8
┌▓È_1
  5
9B9
 10
1096.67
 20
-49.8987
 30
0.000000
  70
    32
  0
VERTEX
  8
┌▓È_1
  5
9BA
 10
1096.68
 20
-49.9246
 30
0.000000
  70
    32
  0
VERTEX
  8
┌▓È_1
  5
9BB
 10
1096.69
 20
-49.9504
 30
0.000000
  70
    32
  0
VERTEX
  8
┌▓È_1
  5
9BC
 10
1096.69
 20
-49.9763
 30
0.000000
  70
    32
  0
VERTEX
  8
┌▓È_1
  5
9BD
 10
1096.70
 20
-50.0022
 30
0.000000
  70
    32
  0
VERTEX
  8
┌▓È_1
  5
9BE
 10
1096.71
 20
-50.0280
 30
0.000000
  70
    32
  0
VERTEX
  8
┌▓È_1
  5
9BF
 10
1096.72
 20
-50.0539
 30
0.000000
  70
    32
  0
VERTEX
  8
┌▓È_1
  5
9C0
 10
1096.73
 20
-50.0798
 30
0.000000
  70
    32
  0
VERTEX
  8
┌▓È_1
  5
9C1
 10
1096.74
 20
-50.1056
 30
0.000000
  70
    32
  0
VERTEX
  8
┌▓È_1
  5
9C2
 10
1096.75
 20
-50.1315
 30
0.000000
  70
    32
  0
VERTEX
  8
┌▓È_1
  5
9C3
 10
1096.76
 20
-50.1574
 30
0.000000
  70
    32
  0
VERTEX
  8
┌▓È_1
  5
9C4
 10
1096.77
 20
-50.1833
 30
0.000000
  70
    32
  0
VERTEX
  8
┌▓È_1
  5
9C5
 10
1096.78
 20
-50.2091
 30
0.000000
  70
    32
  0
VERTEX
  8
┌▓È_1
  5
9C6
 10
1096.80
 20
-50.2350
 30
0.000000
  70
    32
  0
VERTEX
  8
┌▓È_1
  5
9C7
 10
1096.81
 20
-50.2609
 30
0.000000
  70
    32
  0
VERTEX
  8
┌▓È_1
  5
9C8
 10
1096.82
 20
-50.2867
 30
0.000000
  70
    32
  0
VERTEX
  8
┌▓È_1
  5
9C9
 10
1096.83
 20
-50.3126
 30
0.000000
  70
    32
  0
VERTEX
  8
┌▓È_1
  5
9CA
 10
1096.85
 20
-50.3385
 30
0.000000
  70
    32
  0
VERTEX
  8
┌▓È_1
  5
9CB
 10
1096.86
 20
-50.3643
 30
0.000000
  70
    32
  0
VERTEX
  8
┌▓È_1
  5
9CC
 10
1096.87
 20
-50.3902
 30
0.000000
  70
    32
  0
VERTEX
  8
┌▓È_1
  5
9CD
 10
1096.89
 20
-50.4161
 30
0.000000
  70
    32
  0
VERTEX
  8
┌▓È_1
  5
9CE
 10
1096.90
 20
-50.4419
 30
0.000000
  70
    32
  0
VERTEX
  8
┌▓È_1
  5
9CF
 10
1096.92
 20
-50.4678
 30
0.000000
  70
    32
  0
VERTEX
  8
┌▓È_1
  5
9D0
 10
1096.93
 20
-50.4937
 30
0.000000
  70
    32
  0
VERTEX
  8
┌▓È_1
  5
9D1
 10
1096.95
 20
-50.5195
 30
0.000000
  70
    32
  0
VERTEX
  8
┌▓È_1
  5
9D2
 10
1096.96
 20
-50.5454
 30
0.000000
  70
    32
  0
VERTEX
  8
┌▓È_1
  5
9D3
 10
1096.98
 20
-50.5713
 30
0.000000
  70
    32
  0
VERTEX
  8
┌▓È_1
  5
9D4
 10
1096.99
 20
-50.5971
 30
0.000000
  70
    32
  0
VERTEX
  8
┌▓È_1
  5
9D5
 10
1097.01
 20
-50.6230
 30
0.000000
  70
    32
  0
VERTEX
  8
┌▓È_1
  5
9D6
 10
1097.03
 20
-50.6489
 30
0.000000
  70
    32
  0
VERTEX
  8
┌▓È_1
  5
9D7
 10
1097.04
 20
-50.6747
 30
0.000000
  70
    32
  0
VERTEX
  8
┌▓È_1
  5
9D8
 10
1097.06
 20
-50.7006
 30
0.000000
  70
    32
  0
VERTEX
  8
┌▓È_1
  5
9D9
 10
1097.08
 20
-50.7265
 30
0.000000
  70
    32
  0
VERTEX
  8
┌▓È_1
  5
9DA
 10
1097.10
 20
-50.7523
 30
0.000000
  70
    32
  0
VERTEX
  8
┌▓È_1
  5
9DB
 10
1097.12
 20
-50.7782
 30
0.000000
  70
    32
  0
VERTEX
  8
┌▓È_1
  5
9DC
 10
1097.13
 20
-50.8041
 30
0.000000
  70
    32
  0
VERTEX
  8
┌▓È_1
  5
9DD
 10
1097.15
 20
-50.8300
 30
0.000000
  70
    32
  0
VERTEX
  8
┌▓È_1
  5
9DE
 10
1097.17
 20
-50.8558
 30
0.000000
  70
    32
  0
VERTEX
  8
┌▓È_1
  5
9DF
 10
1097.19
 20
-50.8817
 30
0.000000
  70
    32
  0
VERTEX
  8
┌▓È_1
  5
9E0
 10
1097.21
 20
-50.9076
 30
0.000000
  70
    32
  0
VERTEX
  8
┌▓È_1
  5
9E1
 10
1097.23
 20
-50.9334
 30
0.000000
  70
    32
  0
VERTEX
  8
┌▓È_1
  5
9E2
 10
1097.25
 20
-50.9593
 30
0.000000
  70
    32
  0
VERTEX
  8
┌▓È_1
  5
9E3
 10
1097.27
 20
-50.9852
 30
0.000000
  70
    32
  0
VERTEX
  8
┌▓È_1
  5
9E4
 10
1097.29
 20
-51.0110
 30
0.000000
  70
    32
  0
VERTEX
  8
┌▓È_1
  5
9E5
 10
1097.31
 20
-51.0369
 30
0.000000
  70
    32
  0
VERTEX
  8
┌▓È_1
  5
9E6
 10
1097.34
 20
-51.0628
 30
0.000000
  70
    32
  0
VERTEX
  8
┌▓È_1
  5
9E7
 10
1097.36
 20
-51.0886
 30
0.000000
  70
    32
  0
VERTEX
  8
┌▓È_1
  5
9E8
 10
1097.38
 20
-51.1145
 30
0.000000
  70
    32
  0
VERTEX
  8
┌▓È_1
  5
9E9
 10
1097.40
 20
-51.1404
 30
0.000000
  70
    32
  0
VERTEX
  8
┌▓È_1
  5
9EA
 10
1097.42
 20
-51.1662
 30
0.000000
  70
    32
  0
VERTEX
  8
┌▓È_1
  5
9EB
 10
1097.45
 20
-51.1921
 30
0.000000
  70
    32
  0
VERTEX
  8
┌▓È_1
  5
9EC
 10
1097.47
 20
-51.2180
 30
0.000000
  70
    32
  0
VERTEX
  8
┌▓È_1
  5
9ED
 10
1097.49
 20
-51.2438
 30
0.000000
  70
    32
  0
VERTEX
  8
┌▓È_1
  5
9EE
 10
1097.52
 20
-51.2697
 30
0.000000
  70
    32
  0
VERTEX
  8
┌▓È_1
  5
9EF
 10
1097.54
 20
-51.2956
 30
0.000000
  70
    32
  0
VERTEX
  8
┌▓È_1
  5
9F0
 10
1097.56
 20
-51.3214
 30
0.000000
  70
    32
  0
VERTEX
  8
┌▓È_1
  5
9F1
 10
1097.59
 20
-51.3473
 30
0.000000
  70
    32
  0
VERTEX
  8
┌▓È_1
  5
9F2
 10
1097.61
 20
-51.3732
 30
0.000000
  70
    32
  0
VERTEX
  8
┌▓È_1
  5
9F3
 10
1097.64
 20
-51.3991
 30
0.000000
  70
    32
  0
VERTEX
  8
┌▓È_1
  5
9F4
 10
1097.66
 20
-51.4249
 30
0.000000
  70
    32
  0
VERTEX
  8
┌▓È_1
  5
9F5
 10
1097.69
 20
-51.4508
 30
0.000000
  70
    32
  0
VERTEX
  8
┌▓È_1
  5
9F6
 10
1097.71
 20
-51.4767
 30
0.000000
  70
    32
  0
VERTEX
  8
┌▓È_1
  5
9F7
 10
1097.74
 20
-51.5025
 30
0.000000
  70
    32
  0
VERTEX
  8
┌▓È_1
  5
9F8
 10
1097.76
 20
-51.5284
 30
0.000000
  70
    32
  0
VERTEX
  8
┌▓È_1
  5
9F9
 10
1097.79
 20
-51.5543
 30
0.000000
  70
    32
  0
VERTEX
  8
┌▓È_1
  5
9FA
 10
1097.81
 20
-51.5801
 30
0.000000
  70
    32
  0
VERTEX
  8
┌▓È_1
  5
9FB
 10
1097.84
 20
-51.6060
 30
0.000000
  70
    32
  0
VERTEX
  8
┌▓È_1
  5
9FC
 10
1097.87
 20
-51.6319
 30
0.000000
  70
    32
  0
VERTEX
  8
┌▓È_1
  5
9FD
 10
1097.89
 20
-51.6577
 30
0.000000
  70
    32
  0
VERTEX
  8
┌▓È_1
  5
9FE
 10
1097.92
 20
-51.6836
 30
0.000000
  70
    32
  0
VERTEX
  8
┌▓È_1
  5
9FF
 10
1097.95
 20
-51.7095
 30
0.000000
  70
    32
  0
VERTEX
  8
┌▓È_1
  5
A00
 10
1097.98
 20
-51.7353
 30
0.000000
  70
    32
  0
VERTEX
  8
┌▓È_1
  5
A01
 10
1098.00
 20
-51.7612
 30
0.000000
  70
    32
  0
VERTEX
  8
┌▓È_1
  5
A02
 10
1098.03
 20
-51.7871
 30
0.000000
  70
    32
  0
VERTEX
  8
┌▓È_1
  5
A03
 10
1098.06
 20
-51.8129
 30
0.000000
  70
    32
  0
VERTEX
  8
┌▓È_1
  5
A04
 10
1098.09
 20
-51.8388
 30
0.000000
  70
    32
  0
VERTEX
  8
┌▓È_1
  5
A05
 10
1098.12
 20
-51.8647
 30
0.000000
  70
    32
  0
VERTEX
  8
┌▓È_1
  5
A06
 10
1098.14
 20
-51.8905
 30
0.000000
  70
    32
  0
VERTEX
  8
┌▓È_1
  5
A07
 10
1098.17
 20
-51.9164
 30
0.000000
  70
    32
  0
VERTEX
  8
┌▓È_1
  5
A08
 10
1098.20
 20
-51.9423
 30
0.000000
  70
    32
  0
VERTEX
  8
┌▓È_1
  5
A09
 10
1098.23
 20
-51.9681
 30
0.000000
  70
    32
  0
VERTEX
  8
┌▓È_1
  5
A0A
 10
1098.26
 20
-51.9940
 30
0.000000
  70
    32
  0
VERTEX
  8
┌▓È_1
  5
A0B
 10
1098.29
 20
-52.0199
 30
0.000000
  70
    32
  0
VERTEX
  8
┌▓È_1
  5
A0C
 10
1098.32
 20
-52.0458
 30
0.000000
  70
    32
  0
VERTEX
  8
┌▓È_1
  5
A0D
 10
1098.35
 20
-52.0716
 30
0.000000
  70
    32
  0
VERTEX
  8
┌▓È_1
  5
A0E
 10
1098.38
 20
-52.0975
 30
0.000000
  70
    32
  0
VERTEX
  8
┌▓È_1
  5
A0F
 10
1098.41
 20
-52.1234
 30
0.000000
  70
    32
  0
VERTEX
  8
┌▓È_1
  5
A10
 10
1098.44
 20
-52.1492
 30
0.000000
  70
    32
  0
VERTEX
  8
┌▓È_1
  5
A11
 10
1098.47
 20
-52.1751
 30
0.000000
  70
    32
  0
VERTEX
  8
┌▓È_1
  5
A12
 10
1098.50
 20
-52.2010
 30
0.000000
  70
    32
  0
VERTEX
  8
┌▓È_1
  5
A13
 10
1098.53
 20
-52.2268
 30
0.000000
  70
    32
  0
VERTEX
  8
┌▓È_1
  5
A14
 10
1098.56
 20
-52.2527
 30
0.000000
  70
    32
  0
VERTEX
  8
┌▓È_1
  5
A15
 10
1098.59
 20
-52.2786
 30
0.000000
  70
    32
  0
VERTEX
  8
┌▓È_1
  5
A16
 10
1098.62
 20
-52.3044
 30
0.000000
  70
    32
  0
VERTEX
  8
┌▓È_1
  5
A17
 10
1098.65
 20
-52.3303
 30
0.000000
  70
    32
  0
VERTEX
  8
┌▓È_1
  5
A18
 10
1098.68
 20
-52.3562
 30
0.000000
  70
    32
  0
VERTEX
  8
┌▓È_1
  5
A19
 10
1098.72
 20
-52.3820
 30
0.000000
  70
    32
  0
VERTEX
  8
┌▓È_1
  5
A1A
 10
1098.75
 20
-52.4079
 30
0.000000
  70
    32
  0
VERTEX
  8
┌▓È_1
  5
A1B
 10
1098.78
 20
-52.4338
 30
0.000000
  70
    32
  0
VERTEX
  8
┌▓È_1
  5
A1C
 10
1098.81
 20
-52.4596
 30
0.000000
  70
    32
  0
VERTEX
  8
┌▓È_1
  5
A1D
 10
1098.84
 20
-52.4855
 30
0.000000
  70
    32
  0
VERTEX
  8
┌▓È_1
  5
A1E
 10
1098.87
 20
-52.5114
 30
0.000000
  70
    32
  0
VERTEX
  8
┌▓È_1
  5
A1F
 10
1098.91
 20
-52.5372
 30
0.000000
  70
    32
  0
SEQEND
  8
┌▓È_1
  5
A20
  0
POLYLINE
  8
┌▓È_1
  5
A21
  62
5
  66
     1
 10
0.000000
 20
0.000000
 30
0.000000
  70
     8
  0
VERTEX
  8
┌▓È_1
  5
A22
 10
1095.11
 20
-52.6208
 30
0.000000
  70
    32
  0
VERTEX
  8
┌▓È_1
  5
A23
 10
1095.11
 20
-52.6438
 30
0.000000
  70
    32
  0
VERTEX
  8
┌▓È_1
  5
A24
 10
1095.11
 20
-52.6667
 30
0.000000
  70
    32
  0
VERTEX
  8
┌▓È_1
  5
A25
 10
1095.11
 20
-52.6897
 30
0.000000
  70
    32
  0
VERTEX
  8
┌▓È_1
  5
A26
 10
1095.11
 20
-52.7126
 30
0.000000
  70
    32
  0
VERTEX
  8
┌▓È_1
  5
A27
 10
1095.11
 20
-52.7356
 30
0.000000
  70
    32
  0
VERTEX
  8
┌▓È_1
  5
A28
 10
1095.11
 20
-52.7586
 30
0.000000
  70
    32
  0
VERTEX
  8
┌▓È_1
  5
A29
 10
1095.12
 20
-52.7815
 30
0.000000
  70
    32
  0
VERTEX
  8
┌▓È_1
  5
A2A
 10
1095.12
 20
-52.8045
 30
0.000000
  70
    32
  0
VERTEX
  8
┌▓È_1
  5
A2B
 10
1095.12
 20
-52.8274
 30
0.000000
  70
    32
  0
VERTEX
  8
┌▓È_1
  5
A2C
 10
1095.12
 20
-52.8504
 30
0.000000
  70
    32
  0
VERTEX
  8
┌▓È_1
  5
A2D
 10
1095.13
 20
-52.8733
 30
0.000000
  70
    32
  0
VERTEX
  8
┌▓È_1
  5
A2E
 10
1095.13
 20
-52.8963
 30
0.000000
  70
    32
  0
VERTEX
  8
┌▓È_1
  5
A2F
 10
1095.13
 20
-52.9193
 30
0.000000
  70
    32
  0
VERTEX
  8
┌▓È_1
  5
A30
 10
1095.14
 20
-52.9422
 30
0.000000
  70
    32
  0
VERTEX
  8
┌▓È_1
  5
A31
 10
1095.14
 20
-52.9652
 30
0.000000
  70
    32
  0
VERTEX
  8
┌▓È_1
  5
A32
 10
1095.15
 20
-52.9881
 30
0.000000
  70
    32
  0
VERTEX
  8
┌▓È_1
  5
A33
 10
1095.15
 20
-53.0111
 30
0.000000
  70
    32
  0
VERTEX
  8
┌▓È_1
  5
A34
 10
1095.16
 20
-53.0340
 30
0.000000
  70
    32
  0
VERTEX
  8
┌▓È_1
  5
A35
 10
1095.17
 20
-53.0570
 30
0.000000
  70
    32
  0
VERTEX
  8
┌▓È_1
  5
A36
 10
1095.17
 20
-53.0800
 30
0.000000
  70
    32
  0
VERTEX
  8
┌▓È_1
  5
A37
 10
1095.18
 20
-53.1029
 30
0.000000
  70
    32
  0
VERTEX
  8
┌▓È_1
  5
A38
 10
1095.18
 20
-53.1259
 30
0.000000
  70
    32
  0
VERTEX
  8
┌▓È_1
  5
A39
 10
1095.19
 20
-53.1488
 30
0.000000
  70
    32
  0
VERTEX
  8
┌▓È_1
  5
A3A
 10
1095.20
 20
-53.1718
 30
0.000000
  70
    32
  0
VERTEX
  8
┌▓È_1
  5
A3B
 10
1095.21
 20
-53.1947
 30
0.000000
  70
    32
  0
VERTEX
  8
┌▓È_1
  5
A3C
 10
1095.21
 20
-53.2177
 30
0.000000
  70
    32
  0
VERTEX
  8
┌▓È_1
  5
A3D
 10
1095.22
 20
-53.2407
 30
0.000000
  70
    32
  0
VERTEX
  8
┌▓È_1
  5
A3E
 10
1095.23
 20
-53.2636
 30
0.000000
  70
    32
  0
VERTEX
  8
┌▓È_1
  5
A3F
 10
1095.24
 20
-53.2866
 30
0.000000
  70
    32
  0
VERTEX
  8
┌▓È_1
  5
A40
 10
1095.25
 20
-53.3095
 30
0.000000
  70
    32
  0
VERTEX
  8
┌▓È_1
  5
A41
 10
1095.26
 20
-53.3325
 30
0.000000
  70
    32
  0
VERTEX
  8
┌▓È_1
  5
A42
 10
1095.27
 20
-53.3554
 30
0.000000
  70
    32
  0
VERTEX
  8
┌▓È_1
  5
A43
 10
1095.28
 20
-53.3784
 30
0.000000
  70
    32
  0
VERTEX
  8
┌▓È_1
  5
A44
 10
1095.29
 20
-53.4014
 30
0.000000
  70
    32
  0
VERTEX
  8
┌▓È_1
  5
A45
 10
1095.30
 20
-53.4243
 30
0.000000
  70
    32
  0
VERTEX
  8
┌▓È_1
  5
A46
 10
1095.31
 20
-53.4473
 30
0.000000
  70
    32
  0
VERTEX
  8
┌▓È_1
  5
A47
 10
1095.32
 20
-53.4702
 30
0.000000
  70
    32
  0
VERTEX
  8
┌▓È_1
  5
A48
 10
1095.33
 20
-53.4932
 30
0.000000
  70
    32
  0
VERTEX
  8
┌▓È_1
  5
A49
 10
1095.34
 20
-53.5161
 30
0.000000
  70
    32
  0
VERTEX
  8
┌▓È_1
  5
A4A
 10
1095.35
 20
-53.5391
 30
0.000000
  70
    32
  0
VERTEX
  8
┌▓È_1
  5
A4B
 10
1095.37
 20
-53.5621
 30
0.000000
  70
    32
  0
VERTEX
  8
┌▓È_1
  5
A4C
 10
1095.38
 20
-53.5850
 30
0.000000
  70
    32
  0
VERTEX
  8
┌▓È_1
  5
A4D
 10
1095.39
 20
-53.6080
 30
0.000000
  70
    32
  0
VERTEX
  8
┌▓È_1
  5
A4E
 10
1095.40
 20
-53.6309
 30
0.000000
  70
    32
  0
VERTEX
  8
┌▓È_1
  5
A4F
 10
1095.42
 20
-53.6539
 30
0.000000
  70
    32
  0
VERTEX
  8
┌▓È_1
  5
A50
 10
1095.43
 20
-53.6769
 30
0.000000
  70
    32
  0
VERTEX
  8
┌▓È_1
  5
A51
 10
1095.44
 20
-53.6998
 30
0.000000
  70
    32
  0
VERTEX
  8
┌▓È_1
  5
A52
 10
1095.46
 20
-53.7228
 30
0.000000
  70
    32
  0
VERTEX
  8
┌▓È_1
  5
A53
 10
1095.47
 20
-53.7457
 30
0.000000
  70
    32
  0
VERTEX
  8
┌▓È_1
  5
A54
 10
1095.49
 20
-53.7687
 30
0.000000
  70
    32
  0
VERTEX
  8
┌▓È_1
  5
A55
 10
1095.50
 20
-53.7916
 30
0.000000
  70
    32
  0
VERTEX
  8
┌▓È_1
  5
A56
 10
1095.52
 20
-53.8146
 30
0.000000
  70
    32
  0
VERTEX
  8
┌▓È_1
  5
A57
 10
1095.53
 20
-53.8376
 30
0.000000
  70
    32
  0
VERTEX
  8
┌▓È_1
  5
A58
 10
1095.55
 20
-53.8605
 30
0.000000
  70
    32
  0
VERTEX
  8
┌▓È_1
  5
A59
 10
1095.56
 20
-53.8835
 30
0.000000
  70
    32
  0
VERTEX
  8
┌▓È_1
  5
A5A
 10
1095.58
 20
-53.9064
 30
0.000000
  70
    32
  0
VERTEX
  8
┌▓È_1
  5
A5B
 10
1095.59
 20
-53.9294
 30
0.000000
  70
    32
  0
VERTEX
  8
┌▓È_1
  5
A5C
 10
1095.61
 20
-53.9523
 30
0.000000
  70
    32
  0
VERTEX
  8
┌▓È_1
  5
A5D
 10
1095.63
 20
-53.9753
 30
0.000000
  70
    32
  0
VERTEX
  8
┌▓È_1
  5
A5E
 10
1095.64
 20
-53.9983
 30
0.000000
  70
    32
  0
VERTEX
  8
┌▓È_1
  5
A5F
 10
1095.66
 20
-54.0212
 30
0.000000
  70
    32
  0
VERTEX
  8
┌▓È_1
  5
A60
 10
1095.68
 20
-54.0442
 30
0.000000
  70
    32
  0
VERTEX
  8
┌▓È_1
  5
A61
 10
1095.69
 20
-54.0671
 30
0.000000
  70
    32
  0
VERTEX
  8
┌▓È_1
  5
A62
 10
1095.71
 20
-54.0901
 30
0.000000
  70
    32
  0
VERTEX
  8
┌▓È_1
  5
A63
 10
1095.73
 20
-54.1130
 30
0.000000
  70
    32
  0
VERTEX
  8
┌▓È_1
  5
A64
 10
1095.75
 20
-54.1360
 30
0.000000
  70
    32
  0
VERTEX
  8
┌▓È_1
  5
A65
 10
1095.77
 20
-54.1590
 30
0.000000
  70
    32
  0
VERTEX
  8
┌▓È_1
  5
A66
 10
1095.78
 20
-54.1819
 30
0.000000
  70
    32
  0
VERTEX
  8
┌▓È_1
  5
A67
 10
1095.80
 20
-54.2049
 30
0.000000
  70
    32
  0
VERTEX
  8
┌▓È_1
  5
A68
 10
1095.82
 20
-54.2278
 30
0.000000
  70
    32
  0
VERTEX
  8
┌▓È_1
  5
A69
 10
1095.84
 20
-54.2508
 30
0.000000
  70
    32
  0
VERTEX
  8
┌▓È_1
  5
A6A
 10
1095.86
 20
-54.2737
 30
0.000000
  70
    32
  0
VERTEX
  8
┌▓È_1
  5
A6B
 10
1095.88
 20
-54.2967
 30
0.000000
  70
    32
  0
VERTEX
  8
┌▓È_1
  5
A6C
 10
1095.90
 20
-54.3197
 30
0.000000
  70
    32
  0
VERTEX
  8
┌▓È_1
  5
A6D
 10
1095.92
 20
-54.3426
 30
0.000000
  70
    32
  0
VERTEX
  8
┌▓È_1
  5
A6E
 10
1095.94
 20
-54.3656
 30
0.000000
  70
    32
  0
VERTEX
  8
┌▓È_1
  5
A6F
 10
1095.96
 20
-54.3885
 30
0.000000
  70
    32
  0
VERTEX
  8
┌▓È_1
  5
A70
 10
1095.98
 20
-54.4115
 30
0.000000
  70
    32
  0
VERTEX
  8
┌▓È_1
  5
A71
 10
1096.00
 20
-54.4344
 30
0.000000
  70
    32
  0
VERTEX
  8
┌▓È_1
  5
A72
 10
1096.02
 20
-54.4574
 30
0.000000
  70
    32
  0
VERTEX
  8
┌▓È_1
  5
A73
 10
1096.04
 20
-54.4804
 30
0.000000
  70
    32
  0
VERTEX
  8
┌▓È_1
  5
A74
 10
1096.06
 20
-54.5033
 30
0.000000
  70
    32
  0
VERTEX
  8
┌▓È_1
  5
A75
 10
1096.08
 20
-54.5263
 30
0.000000
  70
    32
  0
VERTEX
  8
┌▓È_1
  5
A76
 10
1096.11
 20
-54.5492
 30
0.000000
  70
    32
  0
VERTEX
  8
┌▓È_1
  5
A77
 10
1096.13
 20
-54.5722
 30
0.000000
  70
    32
  0
VERTEX
  8
┌▓È_1
  5
A78
 10
1096.15
 20
-54.5952
 30
0.000000
  70
    32
  0
VERTEX
  8
┌▓È_1
  5
A79
 10
1096.17
 20
-54.6181
 30
0.000000
  70
    32
  0
VERTEX
  8
┌▓È_1
  5
A7A
 10
1096.19
 20
-54.6411
 30
0.000000
  70
    32
  0
VERTEX
  8
┌▓È_1
  5
A7B
 10
1096.22
 20
-54.6640
 30
0.000000
  70
    32
  0
VERTEX
  8
┌▓È_1
  5
A7C
 10
1096.24
 20
-54.6870
 30
0.000000
  70
    32
  0
VERTEX
  8
┌▓È_1
  5
A7D
 10
1096.26
 20
-54.7099
 30
0.000000
  70
    32
  0
VERTEX
  8
┌▓È_1
  5
A7E
 10
1096.29
 20
-54.7329
 30
0.000000
  70
    32
  0
VERTEX
  8
┌▓È_1
  5
A7F
 10
1096.31
 20
-54.7559
 30
0.000000
  70
    32
  0
VERTEX
  8
┌▓È_1
  5
A80
 10
1096.33
 20
-54.7788
 30
0.000000
  70
    32
  0
VERTEX
  8
┌▓È_1
  5
A81
 10
1096.36
 20
-54.8018
 30
0.000000
  70
    32
  0
VERTEX
  8
┌▓È_1
  5
A82
 10
1096.38
 20
-54.8247
 30
0.000000
  70
    32
  0
VERTEX
  8
┌▓È_1
  5
A83
 10
1096.40
 20
-54.8477
 30
0.000000
  70
    32
  0
VERTEX
  8
┌▓È_1
  5
A84
 10
1096.43
 20
-54.8706
 30
0.000000
  70
    32
  0
VERTEX
  8
┌▓È_1
  5
A85
 10
1096.45
 20
-54.8936
 30
0.000000
  70
    32
  0
VERTEX
  8
┌▓È_1
  5
A86
 10
1096.47
 20
-54.9166
 30
0.000000
  70
    32
  0
VERTEX
  8
┌▓È_1
  5
A87
 10
1096.50
 20
-54.9395
 30
0.000000
  70
    32
  0
VERTEX
  8
┌▓È_1
  5
A88
 10
1096.52
 20
-54.9625
 30
0.000000
  70
    32
  0
VERTEX
  8
┌▓È_1
  5
A89
 10
1096.55
 20
-54.9854
 30
0.000000
  70
    32
  0
VERTEX
  8
┌▓È_1
  5
A8A
 10
1096.57
 20
-55.0084
 30
0.000000
  70
    32
  0
VERTEX
  8
┌▓È_1
  5
A8B
 10
1096.60
 20
-55.0313
 30
0.000000
  70
    32
  0
VERTEX
  8
┌▓È_1
  5
A8C
 10
1096.62
 20
-55.0543
 30
0.000000
  70
    32
  0
VERTEX
  8
┌▓È_1
  5
A8D
 10
1096.65
 20
-55.0773
 30
0.000000
  70
    32
  0
VERTEX
  8
┌▓È_1
  5
A8E
 10
1096.67
 20
-55.1002
 30
0.000000
  70
    32
  0
VERTEX
  8
┌▓È_1
  5
A8F
 10
1096.70
 20
-55.1232
 30
0.000000
  70
    32
  0
VERTEX
  8
┌▓È_1
  5
A90
 10
1096.73
 20
-55.1461
 30
0.000000
  70
    32
  0
VERTEX
  8
┌▓È_1
  5
A91
 10
1096.75
 20
-55.1691
 30
0.000000
  70
    32
  0
VERTEX
  8
┌▓È_1
  5
A92
 10
1096.78
 20
-55.1920
 30
0.000000
  70
    32
  0
VERTEX
  8
┌▓È_1
  5
A93
 10
1096.80
 20
-55.2150
 30
0.000000
  70
    32
  0
VERTEX
  8
┌▓È_1
  5
A94
 10
1096.83
 20
-55.2380
 30
0.000000
  70
    32
  0
VERTEX
  8
┌▓È_1
  5
A95
 10
1096.86
 20
-55.2609
 30
0.000000
  70
    32
  0
VERTEX
  8
┌▓È_1
  5
A96
 10
1096.88
 20
-55.2839
 30
0.000000
  70
    32
  0
VERTEX
  8
┌▓È_1
  5
A97
 10
1096.91
 20
-55.3068
 30
0.000000
  70
    32
  0
VERTEX
  8
┌▓È_1
  5
A98
 10
1096.94
 20
-55.3298
 30
0.000000
  70
    32
  0
VERTEX
  8
┌▓È_1
  5
A99
 10
1096.96
 20
-55.3527
 30
0.000000
  70
    32
  0
VERTEX
  8
┌▓È_1
  5
A9A
 10
1096.99
 20
-55.3757
 30
0.000000
  70
    32
  0
VERTEX
  8
┌▓È_1
  5
A9B
 10
1097.02
 20
-55.3987
 30
0.000000
  70
    32
  0
VERTEX
  8
┌▓È_1
  5
A9C
 10
1097.04
 20
-55.4216
 30
0.000000
  70
    32
  0
VERTEX
  8
┌▓È_1
  5
A9D
 10
1097.07
 20
-55.4446
 30
0.000000
  70
    32
  0
VERTEX
  8
┌▓È_1
  5
A9E
 10
1097.10
 20
-55.4675
 30
0.000000
  70
    32
  0
VERTEX
  8
┌▓È_1
  5
A9F
 10
1097.13
 20
-55.4905
 30
0.000000
  70
    32
  0
VERTEX
  8
┌▓È_1
  5
AA0
 10
1097.15
 20
-55.5135
 30
0.000000
  70
    32
  0
VERTEX
  8
┌▓È_1
  5
AA1
 10
1097.18
 20
-55.5364
 30
0.000000
  70
    32
  0
VERTEX
  8
┌▓È_1
  5
AA2
 10
1097.21
 20
-55.5594
 30
0.000000
  70
    32
  0
VERTEX
  8
┌▓È_1
  5
AA3
 10
1097.24
 20
-55.5823
 30
0.000000
  70
    32
  0
VERTEX
  8
┌▓È_1
  5
AA4
 10
1097.27
 20
-55.6053
 30
0.000000
  70
    32
  0
VERTEX
  8
┌▓È_1
  5
AA5
 10
1097.29
 20
-55.6282
 30
0.000000
  70
    32
  0
VERTEX
  8
┌▓È_1
  5
AA6
 10
1097.32
 20
-55.6512
 30
0.000000
  70
    32
  0
VERTEX
  8
┌▓È_1
  5
AA7
 10
1097.35
 20
-55.6742
 30
0.000000
  70
    32
  0
VERTEX
  8
┌▓È_1
  5
AA8
 10
1097.38
 20
-55.6971
 30
0.000000
  70
    32
  0
VERTEX
  8
┌▓È_1
  5
AA9
 10
1097.41
 20
-55.7201
 30
0.000000
  70
    32
  0
VERTEX
  8
┌▓È_1
  5
AAA
 10
1097.44
 20
-55.7430
 30
0.000000
  70
    32
  0
VERTEX
  8
┌▓È_1
  5
AAB
 10
1097.47
 20
-55.7660
 30
0.000000
  70
    32
  0
VERTEX
  8
┌▓È_1
  5
AAC
 10
1097.49
 20
-55.7889
 30
0.000000
  70
    32
  0
VERTEX
  8
┌▓È_1
  5
AAD
 10
1097.52
 20
-55.8119
 30
0.000000
  70
    32
  0
VERTEX
  8
┌▓È_1
  5
AAE
 10
1097.55
 20
-55.8349
 30
0.000000
  70
    32
  0
VERTEX
  8
┌▓È_1
  5
AAF
 10
1097.58
 20
-55.8578
 30
0.000000
  70
    32
  0
VERTEX
  8
┌▓È_1
  5
AB0
 10
1097.61
 20
-55.8808
 30
0.000000
  70
    32
  0
VERTEX
  8
┌▓È_1
  5
AB1
 10
1097.64
 20
-55.9037
 30
0.000000
  70
    32
  0
VERTEX
  8
┌▓È_1
  5
AB2
 10
1097.67
 20
-55.9267
 30
0.000000
  70
    32
  0
VERTEX
  8
┌▓È_1
  5
AB3
 10
1097.70
 20
-55.9496
 30
0.000000
  70
    32
  0
VERTEX
  8
┌▓È_1
  5
AB4
 10
1097.73
 20
-55.9726
 30
0.000000
  70
    32
  0
VERTEX
  8
┌▓È_1
  5
AB5
 10
1097.76
 20
-55.9956
 30
0.000000
  70
    32
  0
VERTEX
  8
┌▓È_1
  5
AB6
 10
1097.79
 20
-56.0185
 30
0.000000
  70
    32
  0
VERTEX
  8
┌▓È_1
  5
AB7
 10
1097.82
 20
-56.0415
 30
0.000000
  70
    32
  0
VERTEX
  8
┌▓È_1
  5
AB8
 10
1097.85
 20
-56.0644
 30
0.000000
  70
    32
  0
VERTEX
  8
┌▓È_1
  5
AB9
 10
1097.88
 20
-56.0874
 30
0.000000
  70
    32
  0
VERTEX
  8
┌▓È_1
  5
ABA
 10
1097.91
 20
-56.1103
 30
0.000000
  70
    32
  0
VERTEX
  8
┌▓È_1
  5
ABB
 10
1097.94
 20
-56.1333
 30
0.000000
  70
    32
  0
VERTEX
  8
┌▓È_1
  5
ABC
 10
1097.97
 20
-56.1563
 30
0.000000
  70
    32
  0
VERTEX
  8
┌▓È_1
  5
ABD
 10
1098.00
 20
-56.1792
 30
0.000000
  70
    32
  0
VERTEX
  8
┌▓È_1
  5
ABE
 10
1098.03
 20
-56.2022
 30
0.000000
  70
    32
  0
VERTEX
  8
┌▓È_1
  5
ABF
 10
1098.06
 20
-56.2251
 30
0.000000
  70
    32
  0
VERTEX
  8
┌▓È_1
  5
AC0
 10
1098.09
 20
-56.2481
 30
0.000000
  70
    32
  0
VERTEX
  8
┌▓È_1
  5
AC1
 10
1098.12
 20
-56.2710
 30
0.000000
  70
    32
  0
SEQEND
  8
┌▓È_1
  5
AC2
  0
POLYLINE
  8
┌▓È_1
  5
AC3
  62
5
  66
     1
 10
0.000000
 20
0.000000
 30
0.000000
  70
     8
  0
VERTEX
  8
┌▓È_1
  5
AC4
 10
1096.91
 20
-46.7550
 30
0.000000
  70
    32
  0
VERTEX
  8
┌▓È_1
  5
AC5
 10
1096.86
 20
-46.7948
 30
0.000000
  70
    32
  0
VERTEX
  8
┌▓È_1
  5
AC6
 10
1096.82
 20
-46.8346
 30
0.000000
  70
    32
  0
VERTEX
  8
┌▓È_1
  5
AC7
 10
1096.77
 20
-46.8745
 30
0.000000
  70
    32
  0
VERTEX
  8
┌▓È_1
  5
AC8
 10
1096.72
 20
-46.9143
 30
0.000000
  70
    32
  0
VERTEX
  8
┌▓È_1
  5
AC9
 10
1096.68
 20
-46.9542
 30
0.000000
  70
    32
  0
VERTEX
  8
┌▓È_1
  5
ACA
 10
1096.64
 20
-46.9940
 30
0.000000
  70
    32
  0
VERTEX
  8
┌▓È_1
  5
ACB
 10
1096.59
 20
-47.0338
 30
0.000000
  70
    32
  0
VERTEX
  8
┌▓È_1
  5
ACC
 10
1096.55
 20
-47.0737
 30
0.000000
  70
    32
  0
VERTEX
  8
┌▓È_1
  5
ACD
 10
1096.51
 20
-47.1135
 30
0.000000
  70
    32
  0
VERTEX
  8
┌▓È_1
  5
ACE
 10
1096.46
 20
-47.1533
 30
0.000000
  70
    32
  0
VERTEX
  8
┌▓È_1
  5
ACF
 10
1096.42
 20
-47.1932
 30
0.000000
  70
    32
  0
VERTEX
  8
┌▓È_1
  5
AD0
 10
1096.38
 20
-47.2330
 30
0.000000
  70
    32
  0
VERTEX
  8
┌▓È_1
  5
AD1
 10
1096.34
 20
-47.2729
 30
0.000000
  70
    32
  0
VERTEX
  8
┌▓È_1
  5
AD2
 10
1096.30
 20
-47.3127
 30
0.000000
  70
    32
  0
VERTEX
  8
┌▓È_1
  5
AD3
 10
1096.26
 20
-47.3525
 30
0.000000
  70
    32
  0
VERTEX
  8
┌▓È_1
  5
AD4
 10
1096.22
 20
-47.3924
 30
0.000000
  70
    32
  0
VERTEX
  8
┌▓È_1
  5
AD5
 10
1096.18
 20
-47.4322
 30
0.000000
  70
    32
  0
VERTEX
  8
┌▓È_1
  5
AD6
 10
1096.14
 20
-47.4720
 30
0.000000
  70
    32
  0
VERTEX
  8
┌▓È_1
  5
AD7
 10
1096.10
 20
-47.5119
 30
0.000000
  70
    32
  0
VERTEX
  8
┌▓È_1
  5
AD8
 10
1096.07
 20
-47.5517
 30
0.000000
  70
    32
  0
VERTEX
  8
┌▓È_1
  5
AD9
 10
1096.03
 20
-47.5916
 30
0.000000
  70
    32
  0
VERTEX
  8
┌▓È_1
  5
ADA
 10
1095.99
 20
-47.6314
 30
0.000000
  70
    32
  0
VERTEX
  8
┌▓È_1
  5
ADB
 10
1095.96
 20
-47.6712
 30
0.000000
  70
    32
  0
VERTEX
  8
┌▓È_1
  5
ADC
 10
1095.92
 20
-47.7111
 30
0.000000
  70
    32
  0
VERTEX
  8
┌▓È_1
  5
ADD
 10
1095.89
 20
-47.7509
 30
0.000000
  70
    32
  0
VERTEX
  8
┌▓È_1
  5
ADE
 10
1095.86
 20
-47.7907
 30
0.000000
  70
    32
  0
VERTEX
  8
┌▓È_1
  5
ADF
 10
1095.82
 20
-47.8306
 30
0.000000
  70
    32
  0
VERTEX
  8
┌▓È_1
  5
AE0
 10
1095.79
 20
-47.8704
 30
0.000000
  70
    32
  0
VERTEX
  8
┌▓È_1
  5
AE1
 10
1095.76
 20
-47.9102
 30
0.000000
  70
    32
  0
VERTEX
  8
┌▓È_1
  5
AE2
 10
1095.73
 20
-47.9501
 30
0.000000
  70
    32
  0
VERTEX
  8
┌▓È_1
  5
AE3
 10
1095.70
 20
-47.9899
 30
0.000000
  70
    32
  0
VERTEX
  8
┌▓È_1
  5
AE4
 10
1095.67
 20
-48.0298
 30
0.000000
  70
    32
  0
VERTEX
  8
┌▓È_1
  5
AE5
 10
1095.64
 20
-48.0696
 30
0.000000
  70
    32
  0
VERTEX
  8
┌▓È_1
  5
AE6
 10
1095.61
 20
-48.1094
 30
0.000000
  70
    32
  0
VERTEX
  8
┌▓È_1
  5
AE7
 10
1095.58
 20
-48.1493
 30
0.000000
  70
    32
  0
VERTEX
  8
┌▓È_1
  5
AE8
 10
1095.55
 20
-48.1891
 30
0.000000
  70
    32
  0
VERTEX
  8
┌▓È_1
  5
AE9
 10
1095.53
 20
-48.2289
 30
0.000000
  70
    32
  0
VERTEX
  8
┌▓È_1
  5
AEA
 10
1095.50
 20
-48.2688
 30
0.000000
  70
    32
  0
VERTEX
  8
┌▓È_1
  5
AEB
 10
1095.48
 20
-48.3086
 30
0.000000
  70
    32
  0
VERTEX
  8
┌▓È_1
  5
AEC
 10
1095.45
 20
-48.3485
 30
0.000000
  70
    32
  0
VERTEX
  8
┌▓È_1
  5
AED
 10
1095.43
 20
-48.3883
 30
0.000000
  70
    32
  0
VERTEX
  8
┌▓È_1
  5
AEE
 10
1095.40
 20
-48.4281
 30
0.000000
  70
    32
  0
VERTEX
  8
┌▓È_1
  5
AEF
 10
1095.38
 20
-48.4680
 30
0.000000
  70
    32
  0
VERTEX
  8
┌▓È_1
  5
AF0
 10
1095.36
 20
-48.5078
 30
0.000000
  70
    32
  0
VERTEX
  8
┌▓È_1
  5
AF1
 10
1095.34
 20
-48.5476
 30
0.000000
  70
    32
  0
VERTEX
  8
┌▓È_1
  5
AF2
 10
1095.32
 20
-48.5875
 30
0.000000
  70
    32
  0
VERTEX
  8
┌▓È_1
  5
AF3
 10
1095.30
 20
-48.6273
 30
0.000000
  70
    32
  0
VERTEX
  8
┌▓È_1
  5
AF4
 10
1095.28
 20
-48.6672
 30
0.000000
  70
    32
  0
VERTEX
  8
┌▓È_1
  5
AF5
 10
1095.27
 20
-48.7070
 30
0.000000
  70
    32
  0
VERTEX
  8
┌▓È_1
  5
AF6
 10
1095.25
 20
-48.7468
 30
0.000000
  70
    32
  0
VERTEX
  8
┌▓È_1
  5
AF7
 10
1095.23
 20
-48.7867
 30
0.000000
  70
    32
  0
VERTEX
  8
┌▓È_1
  5
AF8
 10
1095.22
 20
-48.8265
 30
0.000000
  70
    32
  0
VERTEX
  8
┌▓È_1
  5
AF9
 10
1095.21
 20
-48.8663
 30
0.000000
  70
    32
  0
VERTEX
  8
┌▓È_1
  5
AFA
 10
1095.19
 20
-48.9062
 30
0.000000
  70
    32
  0
VERTEX
  8
┌▓È_1
  5
AFB
 10
1095.18
 20
-48.9460
 30
0.000000
  70
    32
  0
VERTEX
  8
┌▓È_1
  5
AFC
 10
1095.17
 20
-48.9858
 30
0.000000
  70
    32
  0
VERTEX
  8
┌▓È_1
  5
AFD
 10
1095.16
 20
-49.0257
 30
0.000000
  70
    32
  0
VERTEX
  8
┌▓È_1
  5
AFE
 10
1095.15
 20
-49.0655
 30
0.000000
  70
    32
  0
VERTEX
  8
┌▓È_1
  5
AFF
 10
1095.14
 20
-49.1054
 30
0.000000
  70
    32
  0
VERTEX
  8
┌▓È_1
  5
B00
 10
1095.13
 20
-49.1452
 30
0.000000
  70
    32
  0
VERTEX
  8
┌▓È_1
  5
B01
 10
1095.13
 20
-49.1850
 30
0.000000
  70
    32
  0
VERTEX
  8
┌▓È_1
  5
B02
 10
1095.12
 20
-49.2249
 30
0.000000
  70
    32
  0
VERTEX
  8
┌▓È_1
  5
B03
 10
1095.12
 20
-49.2647
 30
0.000000
  70
    32
  0
VERTEX
  8
┌▓È_1
  5
B04
 10
1095.11
 20
-49.3045
 30
0.000000
  70
    32
  0
VERTEX
  8
┌▓È_1
  5
B05
 10
1095.11
 20
-49.3444
 30
0.000000
  70
    32
  0
VERTEX
  8
┌▓È_1
  5
B06
 10
1095.11
 20
-49.3842
 30
0.000000
  70
    32
  0
VERTEX
  8
┌▓È_1
  5
B07
 10
1095.11
 20
-49.4241
 30
0.000000
  70
    32
  0
VERTEX
  8
┌▓È_1
  5
B08
 10
1095.11
 20
-49.4639
 30
0.000000
  70
    32
  0
VERTEX
  8
┌▓È_1
  5
B09
 10
1095.11
 20
-49.5037
 30
0.000000
  70
    32
  0
VERTEX
  8
┌▓È_1
  5
B0A
 10
1095.11
 20
-49.5436
 30
0.000000
  70
    32
  0
VERTEX
  8
┌▓È_1
  5
B0B
 10
1095.11
 20
-49.5834
 30
0.000000
  70
    32
  0
VERTEX
  8
┌▓È_1
  5
B0C
 10
1095.12
 20
-49.6232
 30
0.000000
  70
    32
  0
VERTEX
  8
┌▓È_1
  5
B0D
 10
1095.12
 20
-49.6631
 30
0.000000
  70
    32
  0
VERTEX
  8
┌▓È_1
  5
B0E
 10
1095.13
 20
-49.7029
 30
0.000000
  70
    32
  0
VERTEX
  8
┌▓È_1
  5
B0F
 10
1095.14
 20
-49.7428
 30
0.000000
  70
    32
  0
VERTEX
  8
┌▓È_1
  5
B10
 10
1095.14
 20
-49.7826
 30
0.000000
  70
    32
  0
VERTEX
  8
┌▓È_1
  5
B11
 10
1095.15
 20
-49.8224
 30
0.000000
  70
    32
  0
VERTEX
  8
┌▓È_1
  5
B12
 10
1095.16
 20
-49.8623
 30
0.000000
  70
    32
  0
VERTEX
  8
┌▓È_1
  5
B13
 10
1095.17
 20
-49.9021
 30
0.000000
  70
    32
  0
VERTEX
  8
┌▓È_1
  5
B14
 10
1095.18
 20
-49.9419
 30
0.000000
  70
    32
  0
VERTEX
  8
┌▓È_1
  5
B15
 10
1095.20
 20
-49.9818
 30
0.000000
  70
    32
  0
VERTEX
  8
┌▓È_1
  5
B16
 10
1095.21
 20
-50.0216
 30
0.000000
  70
    32
  0
VERTEX
  8
┌▓È_1
  5
B17
 10
1095.22
 20
-50.0614
 30
0.000000
  70
    32
  0
VERTEX
  8
┌▓È_1
  5
B18
 10
1095.24
 20
-50.1013
 30
0.000000
  70
    32
  0
VERTEX
  8
┌▓È_1
  5
B19
 10
1095.25
 20
-50.1411
 30
0.000000
  70
    32
  0
VERTEX
  8
┌▓È_1
  5
B1A
 10
1095.27
 20
-50.1810
 30
0.000000
  70
    32
  0
VERTEX
  8
┌▓È_1
  5
B1B
 10
1095.29
 20
-50.2208
 30
0.000000
  70
    32
  0
VERTEX
  8
┌▓È_1
  5
B1C
 10
1095.31
 20
-50.2606
 30
0.000000
  70
    32
  0
VERTEX
  8
┌▓È_1
  5
B1D
 10
1095.33
 20
-50.3005
 30
0.000000
  70
    32
  0
VERTEX
  8
┌▓È_1
  5
B1E
 10
1095.35
 20
-50.3403
 30
0.000000
  70
    32
  0
VERTEX
  8
┌▓È_1
  5
B1F
 10
1095.37
 20
-50.3801
 30
0.000000
  70
    32
  0
VERTEX
  8
┌▓È_1
  5
B20
 10
1095.39
 20
-50.4200
 30
0.000000
  70
    32
  0
VERTEX
  8
┌▓È_1
  5
B21
 10
1095.41
 20
-50.4598
 30
0.000000
  70
    32
  0
VERTEX
  8
┌▓È_1
  5
B22
 10
1095.43
 20
-50.4997
 30
0.000000
  70
    32
  0
VERTEX
  8
┌▓È_1
  5
B23
 10
1095.46
 20
-50.5395
 30
0.000000
  70
    32
  0
VERTEX
  8
┌▓È_1
  5
B24
 10
1095.48
 20
-50.5793
 30
0.000000
  70
    32
  0
VERTEX
  8
┌▓È_1
  5
B25
 10
1095.51
 20
-50.6192
 30
0.000000
  70
    32
  0
VERTEX
  8
┌▓È_1
  5
B26
 10
1095.53
 20
-50.6590
 30
0.000000
  70
    32
  0
VERTEX
  8
┌▓È_1
  5
B27
 10
1095.56
 20
-50.6988
 30
0.000000
  70
    32
  0
VERTEX
  8
┌▓È_1
  5
B28
 10
1095.59
 20
-50.7387
 30
0.000000
  70
    32
  0
VERTEX
  8
┌▓È_1
  5
B29
 10
1095.62
 20
-50.7785
 30
0.000000
  70
    32
  0
VERTEX
  8
┌▓È_1
  5
B2A
 10
1095.64
 20
-50.8184
 30
0.000000
  70
    32
  0
VERTEX
  8
┌▓È_1
  5
B2B
 10
1095.67
 20
-50.8582
 30
0.000000
  70
    32
  0
VERTEX
  8
┌▓È_1
  5
B2C
 10
1095.70
 20
-50.8980
 30
0.000000
  70
    32
  0
VERTEX
  8
┌▓È_1
  5
B2D
 10
1095.73
 20
-50.9379
 30
0.000000
  70
    32
  0
VERTEX
  8
┌▓È_1
  5
B2E
 10
1095.77
 20
-50.9777
 30
0.000000
  70
    32
  0
VERTEX
  8
┌▓È_1
  5
B2F
 10
1095.80
 20
-51.0175
 30
0.000000
  70
    32
  0
VERTEX
  8
┌▓È_1
  5
B30
 10
1095.83
 20
-51.0574
 30
0.000000
  70
    32
  0
VERTEX
  8
┌▓È_1
  5
B31
 10
1095.86
 20
-51.0972
 30
0.000000
  70
    32
  0
VERTEX
  8
┌▓È_1
  5
B32
 10
1095.90
 20
-51.1370
 30
0.000000
  70
    32
  0
VERTEX
  8
┌▓È_1
  5
B33
 10
1095.93
 20
-51.1769
 30
0.000000
  70
    32
  0
VERTEX
  8
┌▓È_1
  5
B34
 10
1095.97
 20
-51.2167
 30
0.000000
  70
    32
  0
VERTEX
  8
┌▓È_1
  5
B35
 10
1096.00
 20
-51.2566
 30
0.000000
  70
    32
  0
VERTEX
  8
┌▓È_1
  5
B36
 10
1096.04
 20
-51.2964
 30
0.000000
  70
    32
  0
VERTEX
  8
┌▓È_1
  5
B37
 10
1096.08
 20
-51.3362
 30
0.000000
  70
    32
  0
VERTEX
  8
┌▓È_1
  5
B38
 10
1096.11
 20
-51.3761
 30
0.000000
  70
    32
  0
VERTEX
  8
┌▓È_1
  5
B39
 10
1096.15
 20
-51.4159
 30
0.000000
  70
    32
  0
VERTEX
  8
┌▓È_1
  5
B3A
 10
1096.19
 20
-51.4557
 30
0.000000
  70
    32
  0
VERTEX
  8
┌▓È_1
  5
B3B
 10
1096.23
 20
-51.4956
 30
0.000000
  70
    32
  0
VERTEX
  8
┌▓È_1
  5
B3C
 10
1096.27
 20
-51.5354
 30
0.000000
  70
    32
  0
VERTEX
  8
┌▓È_1
  5
B3D
 10
1096.31
 20
-51.5753
 30
0.000000
  70
    32
  0
VERTEX
  8
┌▓È_1
  5
B3E
 10
1096.35
 20
-51.6151
 30
0.000000
  70
    32
  0
VERTEX
  8
┌▓È_1
  5
B3F
 10
1096.39
 20
-51.6549
 30
0.000000
  70
    32
  0
VERTEX
  8
┌▓È_1
  5
B40
 10
1096.43
 20
-51.6948
 30
0.000000
  70
    32
  0
VERTEX
  8
┌▓È_1
  5
B41
 10
1096.47
 20
-51.7346
 30
0.000000
  70
    32
  0
VERTEX
  8
┌▓È_1
  5
B42
 10
1096.52
 20
-51.7744
 30
0.000000
  70
    32
  0
VERTEX
  8
┌▓È_1
  5
B43
 10
1096.56
 20
-51.8143
 30
0.000000
  70
    32
  0
VERTEX
  8
┌▓È_1
  5
B44
 10
1096.60
 20
-51.8541
 30
0.000000
  70
    32
  0
VERTEX
  8
┌▓È_1
  5
B45
 10
1096.65
 20
-51.8940
 30
0.000000
  70
    32
  0
VERTEX
  8
┌▓È_1
  5
B46
 10
1096.69
 20
-51.9338
 30
0.000000
  70
    32
  0
VERTEX
  8
┌▓È_1
  5
B47
 10
1096.74
 20
-51.9736
 30
0.000000
  70
    32
  0
VERTEX
  8
┌▓È_1
  5
B48
 10
1096.78
 20
-52.0135
 30
0.000000
  70
    32
  0
VERTEX
  8
┌▓È_1
  5
B49
 10
1096.83
 20
-52.0533
 30
0.000000
  70
    32
  0
VERTEX
  8
┌▓È_1
  5
B4A
 10
1096.87
 20
-52.0931
 30
0.000000
  70
    32
  0
VERTEX
  8
┌▓È_1
  5
B4B
 10
1096.92
 20
-52.1330
 30
0.000000
  70
    32
  0
VERTEX
  8
┌▓È_1
  5
B4C
 10
1096.97
 20
-52.1728
 30
0.000000
  70
    32
  0
VERTEX
  8
┌▓È_1
  5
B4D
 10
1097.01
 20
-52.2126
 30
0.000000
  70
    32
  0
VERTEX
  8
┌▓È_1
  5
B4E
 10
1097.06
 20
-52.2525
 30
0.000000
  70
    32
  0
VERTEX
  8
┌▓È_1
  5
B4F
 10
1097.11
 20
-52.2923
 30
0.000000
  70
    32
  0
VERTEX
  8
┌▓È_1
  5
B50
 10
1097.16
 20
-52.3322
 30
0.000000
  70
    32
  0
VERTEX
  8
┌▓È_1
  5
B51
 10
1097.20
 20
-52.3720
 30
0.000000
  70
    32
  0
VERTEX
  8
┌▓È_1
  5
B52
 10
1097.25
 20
-52.4118
 30
0.000000
  70
    32
  0
VERTEX
  8
┌▓È_1
  5
B53
 10
1097.30
 20
-52.4517
 30
0.000000
  70
    32
  0
VERTEX
  8
┌▓È_1
  5
B54
 10
1097.35
 20
-52.4915
 30
0.000000
  70
    32
  0
VERTEX
  8
┌▓È_1
  5
B55
 10
1097.40
 20
-52.5313
 30
0.000000
  70
    32
  0
VERTEX
  8
┌▓È_1
  5
B56
 10
1097.45
 20
-52.5712
 30
0.000000
  70
    32
  0
VERTEX
  8
┌▓È_1
  5
B57
 10
1097.50
 20
-52.6110
 30
0.000000
  70
    32
  0
VERTEX
  8
┌▓È_1
  5
B58
 10
1097.55
 20
-52.6509
 30
0.000000
  70
    32
  0
VERTEX
  8
┌▓È_1
  5
B59
 10
1097.60
 20
-52.6907
 30
0.000000
  70
    32
  0
VERTEX
  8
┌▓È_1
  5
B5A
 10
1097.65
 20
-52.7305
 30
0.000000
  70
    32
  0
VERTEX
  8
┌▓È_1
  5
B5B
 10
1097.70
 20
-52.7704
 30
0.000000
  70
    32
  0
VERTEX
  8
┌▓È_1
  5
B5C
 10
1097.75
 20
-52.8102
 30
0.000000
  70
    32
  0
VERTEX
  8
┌▓È_1
  5
B5D
 10
1097.80
 20
-52.8500
 30
0.000000
  70
    32
  0
VERTEX
  8
┌▓È_1
  5
B5E
 10
1097.86
 20
-52.8899
 30
0.000000
  70
    32
  0
VERTEX
  8
┌▓È_1
  5
B5F
 10
1097.91
 20
-52.9297
 30
0.000000
  70
    32
  0
VERTEX
  8
┌▓È_1
  5
B60
 10
1097.96
 20
-52.9696
 30
0.000000
  70
    32
  0
VERTEX
  8
┌▓È_1
  5
B61
 10
1098.01
 20
-53.0094
 30
0.000000
  70
    32
  0
VERTEX
  8
┌▓È_1
  5
B62
 10
1098.06
 20
-53.0492
 30
0.000000
  70
    32
  0
VERTEX
  8
┌▓È_1
  5
B63
 10
1098.12
 20
-53.0891
 30
0.000000
  70
    32
  0
SEQEND
  8
┌▓È_1
  5
B64
  0
POLYLINE
  8
┌▓È_1
  5
B65
  62
5
  66
     1
 10
0.000000
 20
0.000000
 30
0.000000
  70
     8
  0
VERTEX
  8
┌▓È_1
  5
B66
 10
1098.12
 20
-29.5251
 30
0.000000
  70
    32
  0
VERTEX
  8
┌▓È_1
  5
B67
 10
1098.06
 20
-29.5710
 30
0.000000
  70
    32
  0
VERTEX
  8
┌▓È_1
  5
B68
 10
1098.00
 20
-29.6170
 30
0.000000
  70
    32
  0
VERTEX
  8
┌▓È_1
  5
B69
 10
1097.94
 20
-29.6629
 30
0.000000
  70
    32
  0
VERTEX
  8
┌▓È_1
  5
B6A
 10
1097.88
 20
-29.7088
 30
0.000000
  70
    32
  0
VERTEX
  8
┌▓È_1
  5
B6B
 10
1097.82
 20
-29.7547
 30
0.000000
  70
    32
  0
VERTEX
  8
┌▓È_1
  5
B6C
 10
1097.76
 20
-29.8006
 30
0.000000
  70
    32
  0
VERTEX
  8
┌▓È_1
  5
B6D
 10
1097.70
 20
-29.8465
 30
0.000000
  70
    32
  0
VERTEX
  8
┌▓È_1
  5
B6E
 10
1097.64
 20
-29.8924
 30
0.000000
  70
    32
  0
VERTEX
  8
┌▓È_1
  5
B6F
 10
1097.58
 20
-29.9384
 30
0.000000
  70
    32
  0
VERTEX
  8
┌▓È_1
  5
B70
 10
1097.52
 20
-29.9843
 30
0.000000
  70
    32
  0
VERTEX
  8
┌▓È_1
  5
B71
 10
1097.47
 20
-30.0302
 30
0.000000
  70
    32
  0
VERTEX
  8
┌▓È_1
  5
B72
 10
1097.41
 20
-30.0761
 30
0.000000
  70
    32
  0
VERTEX
  8
┌▓È_1
  5
B73
 10
1097.35
 20
-30.1220
 30
0.000000
  70
    32
  0
VERTEX
  8
┌▓È_1
  5
B74
 10
1097.29
 20
-30.1679
 30
0.000000
  70
    32
  0
VERTEX
  8
┌▓È_1
  5
B75
 10
1097.24
 20
-30.2139
 30
0.000000
  70
    32
  0
VERTEX
  8
┌▓È_1
  5
B76
 10
1097.18
 20
-30.2598
 30
0.000000
  70
    32
  0
VERTEX
  8
┌▓È_1
  5
B77
 10
1097.13
 20
-30.3057
 30
0.000000
  70
    32
  0
VERTEX
  8
┌▓È_1
  5
B78
 10
1097.07
 20
-30.3516
 30
0.000000
  70
    32
  0
VERTEX
  8
┌▓È_1
  5
B79
 10
1097.02
 20
-30.3975
 30
0.000000
  70
    32
  0
VERTEX
  8
┌▓È_1
  5
B7A
 10
1096.96
 20
-30.4434
 30
0.000000
  70
    32
  0
VERTEX
  8
┌▓È_1
  5
B7B
 10
1096.91
 20
-30.4893
 30
0.000000
  70
    32
  0
VERTEX
  8
┌▓È_1
  5
B7C
 10
1096.86
 20
-30.5353
 30
0.000000
  70
    32
  0
VERTEX
  8
┌▓È_1
  5
B7D
 10
1096.80
 20
-30.5812
 30
0.000000
  70
    32
  0
VERTEX
  8
┌▓È_1
  5
B7E
 10
1096.75
 20
-30.6271
 30
0.000000
  70
    32
  0
VERTEX
  8
┌▓È_1
  5
B7F
 10
1096.70
 20
-30.6730
 30
0.000000
  70
    32
  0
VERTEX
  8
┌▓È_1
  5
B80
 10
1096.65
 20
-30.7189
 30
0.000000
  70
    32
  0
VERTEX
  8
┌▓È_1
  5
B81
 10
1096.60
 20
-30.7648
 30
0.000000
  70
    32
  0
VERTEX
  8
┌▓È_1
  5
B82
 10
1096.55
 20
-30.8107
 30
0.000000
  70
    32
  0
VERTEX
  8
┌▓È_1
  5
B83
 10
1096.50
 20
-30.8567
 30
0.000000
  70
    32
  0
VERTEX
  8
┌▓È_1
  5
B84
 10
1096.45
 20
-30.9026
 30
0.000000
  70
    32
  0
VERTEX
  8
┌▓È_1
  5
B85
 10
1096.40
 20
-30.9485
 30
0.000000
  70
    32
  0
VERTEX
  8
┌▓È_1
  5
B86
 10
1096.36
 20
-30.9944
 30
0.000000
  70
    32
  0
VERTEX
  8
┌▓È_1
  5
B87
 10
1096.31
 20
-31.0403
 30
0.000000
  70
    32
  0
VERTEX
  8
┌▓È_1
  5
B88
 10
1096.26
 20
-31.0862
 30
0.000000
  70
    32
  0
VERTEX
  8
┌▓È_1
  5
B89
 10
1096.22
 20
-31.1322
 30
0.000000
  70
    32
  0
VERTEX
  8
┌▓È_1
  5
B8A
 10
1096.17
 20
-31.1781
 30
0.000000
  70
    32
  0
VERTEX
  8
┌▓È_1
  5
B8B
 10
1096.13
 20
-31.2240
 30
0.000000
  70
    32
  0
VERTEX
  8
┌▓È_1
  5
B8C
 10
1096.08
 20
-31.2699
 30
0.000000
  70
    32
  0
VERTEX
  8
┌▓È_1
  5
B8D
 10
1096.04
 20
-31.3158
 30
0.000000
  70
    32
  0
VERTEX
  8
┌▓È_1
  5
B8E
 10
1096.00
 20
-31.3617
 30
0.000000
  70
    32
  0
VERTEX
  8
┌▓È_1
  5
B8F
 10
1095.96
 20
-31.4076
 30
0.000000
  70
    32
  0
VERTEX
  8
┌▓È_1
  5
B90
 10
1095.92
 20
-31.4536
 30
0.000000
  70
    32
  0
VERTEX
  8
┌▓È_1
  5
B91
 10
1095.88
 20
-31.4995
 30
0.000000
  70
    32
  0
VERTEX
  8
┌▓È_1
  5
B92
 10
1095.84
 20
-31.5454
 30
0.000000
  70
    32
  0
VERTEX
  8
┌▓È_1
  5
B93
 10
1095.80
 20
-31.5913
 30
0.000000
  70
    32
  0
VERTEX
  8
┌▓È_1
  5
B94
 10
1095.77
 20
-31.6372
 30
0.000000
  70
    32
  0
VERTEX
  8
┌▓È_1
  5
B95
 10
1095.73
 20
-31.6831
 30
0.000000
  70
    32
  0
VERTEX
  8
┌▓È_1
  5
B96
 10
1095.69
 20
-31.7290
 30
0.000000
  70
    32
  0
VERTEX
  8
┌▓È_1
  5
B97
 10
1095.66
 20
-31.7750
 30
0.000000
  70
    32
  0
VERTEX
  8
┌▓È_1
  5
B98
 10
1095.63
 20
-31.8209
 30
0.000000
  70
    32
  0
VERTEX
  8
┌▓È_1
  5
B99
 10
1095.59
 20
-31.8668
 30
0.000000
  70
    32
  0
VERTEX
  8
┌▓È_1
  5
B9A
 10
1095.56
 20
-31.9127
 30
0.000000
  70
    32
  0
VERTEX
  8
┌▓È_1
  5
B9B
 10
1095.53
 20
-31.9586
 30
0.000000
  70
    32
  0
VERTEX
  8
┌▓È_1
  5
B9C
 10
1095.50
 20
-32.0045
 30
0.000000
  70
    32
  0
VERTEX
  8
┌▓È_1
  5
B9D
 10
1095.47
 20
-32.0505
 30
0.000000
  70
    32
  0
VERTEX
  8
┌▓È_1
  5
B9E
 10
1095.44
 20
-32.0964
 30
0.000000
  70
    32
  0
VERTEX
  8
┌▓È_1
  5
B9F
 10
1095.42
 20
-32.1423
 30
0.000000
  70
    32
  0
VERTEX
  8
┌▓È_1
  5
BA0
 10
1095.39
 20
-32.1882
 30
0.000000
  70
    32
  0
VERTEX
  8
┌▓È_1
  5
BA1
 10
1095.37
 20
-32.2341
 30
0.000000
  70
    32
  0
VERTEX
  8
┌▓È_1
  5
BA2
 10
1095.34
 20
-32.2800
 30
0.000000
  70
    32
  0
VERTEX
  8
┌▓È_1
  5
BA3
 10
1095.32
 20
-32.3259
 30
0.000000
  70
    32
  0
VERTEX
  8
┌▓È_1
  5
BA4
 10
1095.30
 20
-32.3719
 30
0.000000
  70
    32
  0
VERTEX
  8
┌▓È_1
  5
BA5
 10
1095.28
 20
-32.4178
 30
0.000000
  70
    32
  0
VERTEX
  8
┌▓È_1
  5
BA6
 10
1095.26
 20
-32.4637
 30
0.000000
  70
    32
  0
VERTEX
  8
┌▓È_1
  5
BA7
 10
1095.24
 20
-32.5096
 30
0.000000
  70
    32
  0
VERTEX
  8
┌▓È_1
  5
BA8
 10
1095.22
 20
-32.5555
 30
0.000000
  70
    32
  0
VERTEX
  8
┌▓È_1
  5
BA9
 10
1095.21
 20
-32.6014
 30
0.000000
  70
    32
  0
VERTEX
  8
┌▓È_1
  5
BAA
 10
1095.19
 20
-32.6473
 30
0.000000
  70
    32
  0
VERTEX
  8
┌▓È_1
  5
BAB
 10
1095.18
 20
-32.6933
 30
0.000000
  70
    32
  0
VERTEX
  8
┌▓È_1
  5
BAC
 10
1095.17
 20
-32.7392
 30
0.000000
  70
    32
  0
VERTEX
  8
┌▓È_1
  5
BAD
 10
1095.15
 20
-32.7851
 30
0.000000
  70
    32
  0
VERTEX
  8
┌▓È_1
  5
BAE
 10
1095.14
 20
-32.8310
 30
0.000000
  70
    32
  0
VERTEX
  8
┌▓È_1
  5
BAF
 10
1095.13
 20
-32.8769
 30
0.000000
  70
    32
  0
VERTEX
  8
┌▓È_1
  5
BB0
 10
1095.13
 20
-32.9228
 30
0.000000
  70
    32
  0
VERTEX
  8
┌▓È_1
  5
BB1
 10
1095.12
 20
-32.9688
 30
0.000000
  70
    32
  0
VERTEX
  8
┌▓È_1
  5
BB2
 10
1095.12
 20
-33.0147
 30
0.000000
  70
    32
  0
VERTEX
  8
┌▓È_1
  5
BB3
 10
1095.11
 20
-33.0606
 30
0.000000
  70
    32
  0
VERTEX
  8
┌▓È_1
  5
BB4
 10
1095.11
 20
-33.1065
 30
0.000000
  70
    32
  0
VERTEX
  8
┌▓È_1
  5
BB5
 10
1095.11
 20
-33.1524
 30
0.000000
  70
    32
  0
VERTEX
  8
┌▓È_1
  5
BB6
 10
1095.11
 20
-33.1983
 30
0.000000
  70
    32
  0
VERTEX
  8
┌▓È_1
  5
BB7
 10
1095.11
 20
-33.2442
 30
0.000000
  70
    32
  0
VERTEX
  8
┌▓È_1
  5
BB8
 10
1095.11
 20
-33.2902
 30
0.000000
  70
    32
  0
VERTEX
  8
┌▓È_1
  5
BB9
 10
1095.12
 20
-33.3361
 30
0.000000
  70
    32
  0
VERTEX
  8
┌▓È_1
  5
BBA
 10
1095.12
 20
-33.3820
 30
0.000000
  70
    32
  0
VERTEX
  8
┌▓È_1
  5
BBB
 10
1095.13
 20
-33.4279
 30
0.000000
  70
    32
  0
VERTEX
  8
┌▓È_1
  5
BBC
 10
1095.13
 20
-33.4738
 30
0.000000
  70
    32
  0
VERTEX
  8
┌▓È_1
  5
BBD
 10
1095.14
 20
-33.5197
 30
0.000000
  70
    32
  0
VERTEX
  8
┌▓È_1
  5
BBE
 10
1095.15
 20
-33.5656
 30
0.000000
  70
    32
  0
VERTEX
  8
┌▓È_1
  5
BBF
 10
1095.17
 20
-33.6116
 30
0.000000
  70
    32
  0
VERTEX
  8
┌▓È_1
  5
BC0
 10
1095.18
 20
-33.6575
 30
0.000000
  70
    32
  0
VERTEX
  8
┌▓È_1
  5
BC1
 10
1095.19
 20
-33.7034
 30
0.000000
  70
    32
  0
VERTEX
  8
┌▓È_1
  5
BC2
 10
1095.21
 20
-33.7493
 30
0.000000
  70
    32
  0
VERTEX
  8
┌▓È_1
  5
BC3
 10
1095.22
 20
-33.7952
 30
0.000000
  70
    32
  0
VERTEX
  8
┌▓È_1
  5
BC4
 10
1095.24
 20
-33.8411
 30
0.000000
  70
    32
  0
VERTEX
  8
┌▓È_1
  5
BC5
 10
1095.26
 20
-33.8871
 30
0.000000
  70
    32
  0
VERTEX
  8
┌▓È_1
  5
BC6
 10
1095.28
 20
-33.9330
 30
0.000000
  70
    32
  0
VERTEX
  8
┌▓È_1
  5
BC7
 10
1095.30
 20
-33.9789
 30
0.000000
  70
    32
  0
VERTEX
  8
┌▓È_1
  5
BC8
 10
1095.32
 20
-34.0248
 30
0.000000
  70
    32
  0
VERTEX
  8
┌▓È_1
  5
BC9
 10
1095.34
 20
-34.0707
 30
0.000000
  70
    32
  0
VERTEX
  8
┌▓È_1
  5
BCA
 10
1095.37
 20
-34.1166
 30
0.000000
  70
    32
  0
VERTEX
  8
┌▓È_1
  5
BCB
 10
1095.39
 20
-34.1625
 30
0.000000
  70
    32
  0
VERTEX
  8
┌▓È_1
  5
BCC
 10
1095.42
 20
-34.2085
 30
0.000000
  70
    32
  0
VERTEX
  8
┌▓È_1
  5
BCD
 10
1095.44
 20
-34.2544
 30
0.000000
  70
    32
  0
VERTEX
  8
┌▓È_1
  5
BCE
 10
1095.47
 20
-34.3003
 30
0.000000
  70
    32
  0
VERTEX
  8
┌▓È_1
  5
BCF
 10
1095.50
 20
-34.3462
 30
0.000000
  70
    32
  0
VERTEX
  8
┌▓È_1
  5
BD0
 10
1095.53
 20
-34.3921
 30
0.000000
  70
    32
  0
VERTEX
  8
┌▓È_1
  5
BD1
 10
1095.56
 20
-34.4380
 30
0.000000
  70
    32
  0
VERTEX
  8
┌▓È_1
  5
BD2
 10
1095.59
 20
-34.4839
 30
0.000000
  70
    32
  0
VERTEX
  8
┌▓È_1
  5
BD3
 10
1095.63
 20
-34.5299
 30
0.000000
  70
    32
  0
VERTEX
  8
┌▓È_1
  5
BD4
 10
1095.66
 20
-34.5758
 30
0.000000
  70
    32
  0
VERTEX
  8
┌▓È_1
  5
BD5
 10
1095.69
 20
-34.6217
 30
0.000000
  70
    32
  0
VERTEX
  8
┌▓È_1
  5
BD6
 10
1095.73
 20
-34.6676
 30
0.000000
  70
    32
  0
VERTEX
  8
┌▓È_1
  5
BD7
 10
1095.77
 20
-34.7135
 30
0.000000
  70
    32
  0
VERTEX
  8
┌▓È_1
  5
BD8
 10
1095.80
 20
-34.7594
 30
0.000000
  70
    32
  0
VERTEX
  8
┌▓È_1
  5
BD9
 10
1095.84
 20
-34.8053
 30
0.000000
  70
    32
  0
VERTEX
  8
┌▓È_1
  5
BDA
 10
1095.88
 20
-34.8513
 30
0.000000
  70
    32
  0
VERTEX
  8
┌▓È_1
  5
BDB
 10
1095.92
 20
-34.8972
 30
0.000000
  70
    32
  0
VERTEX
  8
┌▓È_1
  5
BDC
 10
1095.96
 20
-34.9431
 30
0.000000
  70
    32
  0
VERTEX
  8
┌▓È_1
  5
BDD
 10
1096.00
 20
-34.9890
 30
0.000000
  70
    32
  0
VERTEX
  8
┌▓È_1
  5
BDE
 10
1096.04
 20
-35.0349
 30
0.000000
  70
    32
  0
VERTEX
  8
┌▓È_1
  5
BDF
 10
1096.08
 20
-35.0808
 30
0.000000
  70
    32
  0
VERTEX
  8
┌▓È_1
  5
BE0
 10
1096.13
 20
-35.1268
 30
0.000000
  70
    32
  0
VERTEX
  8
┌▓È_1
  5
BE1
 10
1096.17
 20
-35.1727
 30
0.000000
  70
    32
  0
VERTEX
  8
┌▓È_1
  5
BE2
 10
1096.22
 20
-35.2186
 30
0.000000
  70
    32
  0
VERTEX
  8
┌▓È_1
  5
BE3
 10
1096.26
 20
-35.2645
 30
0.000000
  70
    32
  0
VERTEX
  8
┌▓È_1
  5
BE4
 10
1096.31
 20
-35.3104
 30
0.000000
  70
    32
  0
VERTEX
  8
┌▓È_1
  5
BE5
 10
1096.36
 20
-35.3563
 30
0.000000
  70
    32
  0
VERTEX
  8
┌▓È_1
  5
BE6
 10
1096.40
 20
-35.4022
 30
0.000000
  70
    32
  0
VERTEX
  8
┌▓È_1
  5
BE7
 10
1096.45
 20
-35.4482
 30
0.000000
  70
    32
  0
VERTEX
  8
┌▓È_1
  5
BE8
 10
1096.50
 20
-35.4941
 30
0.000000
  70
    32
  0
VERTEX
  8
┌▓È_1
  5
BE9
 10
1096.55
 20
-35.5400
 30
0.000000
  70
    32
  0
VERTEX
  8
┌▓È_1
  5
BEA
 10
1096.60
 20
-35.5859
 30
0.000000
  70
    32
  0
VERTEX
  8
┌▓È_1
  5
BEB
 10
1096.65
 20
-35.6318
 30
0.000000
  70
    32
  0
VERTEX
  8
┌▓È_1
  5
BEC
 10
1096.70
 20
-35.6777
 30
0.000000
  70
    32
  0
VERTEX
  8
┌▓È_1
  5
BED
 10
1096.75
 20
-35.7236
 30
0.000000
  70
    32
  0
VERTEX
  8
┌▓È_1
  5
BEE
 10
1096.80
 20
-35.7696
 30
0.000000
  70
    32
  0
VERTEX
  8
┌▓È_1
  5
BEF
 10
1096.86
 20
-35.8155
 30
0.000000
  70
    32
  0
VERTEX
  8
┌▓È_1
  5
BF0
 10
1096.91
 20
-35.8614
 30
0.000000
  70
    32
  0
VERTEX
  8
┌▓È_1
  5
BF1
 10
1096.96
 20
-35.9073
 30
0.000000
  70
    32
  0
VERTEX
  8
┌▓È_1
  5
BF2
 10
1097.02
 20
-35.9532
 30
0.000000
  70
    32
  0
VERTEX
  8
┌▓È_1
  5
BF3
 10
1097.07
 20
-35.9991
 30
0.000000
  70
    32
  0
VERTEX
  8
┌▓È_1
  5
BF4
 10
1097.13
 20
-36.0451
 30
0.000000
  70
    32
  0
VERTEX
  8
┌▓È_1
  5
BF5
 10
1097.18
 20
-36.0910
 30
0.000000
  70
    32
  0
VERTEX
  8
┌▓È_1
  5
BF6
 10
1097.24
 20
-36.1369
 30
0.000000
  70
    32
  0
VERTEX
  8
┌▓È_1
  5
BF7
 10
1097.29
 20
-36.1828
 30
0.000000
  70
    32
  0
VERTEX
  8
┌▓È_1
  5
BF8
 10
1097.35
 20
-36.2287
 30
0.000000
  70
    32
  0
VERTEX
  8
┌▓È_1
  5
BF9
 10
1097.41
 20
-36.2746
 30
0.000000
  70
    32
  0
VERTEX
  8
┌▓È_1
  5
BFA
 10
1097.47
 20
-36.3205
 30
0.000000
  70
    32
  0
VERTEX
  8
┌▓È_1
  5
BFB
 10
1097.52
 20
-36.3665
 30
0.000000
  70
    32
  0
VERTEX
  8
┌▓È_1
  5
BFC
 10
1097.58
 20
-36.4124
 30
0.000000
  70
    32
  0
VERTEX
  8
┌▓È_1
  5
BFD
 10
1097.64
 20
-36.4583
 30
0.000000
  70
    32
  0
VERTEX
  8
┌▓È_1
  5
BFE
 10
1097.70
 20
-36.5042
 30
0.000000
  70
    32
  0
VERTEX
  8
┌▓È_1
  5
BFF
 10
1097.76
 20
-36.5501
 30
0.000000
  70
    32
  0
VERTEX
  8
┌▓È_1
  5
C00
 10
1097.82
 20
-36.5960
 30
0.000000
  70
    32
  0
VERTEX
  8
┌▓È_1
  5
C01
 10
1097.88
 20
-36.6419
 30
0.000000
  70
    32
  0
VERTEX
  8
┌▓È_1
  5
C02
 10
1097.94
 20
-36.6879
 30
0.000000
  70
    32
  0
VERTEX
  8
┌▓È_1
  5
C03
 10
1098.00
 20
-36.7338
 30
0.000000
  70
    32
  0
VERTEX
  8
┌▓È_1
  5
C04
 10
1098.06
 20
-36.7797
 30
0.000000
  70
    32
  0
VERTEX
  8
┌▓È_1
  5
C05
 10
1098.12
 20
-36.8256
 30
0.000000
  70
    32
  0
SEQEND
  8
┌▓È_1
  5
C06
  0
POLYLINE
  8
┌▓È_1
  5
C07
  62
5
  66
     1
 10
0.000000
 20
0.000000
 30
0.000000
  70
     8
  0
VERTEX
  8
┌▓È_1
  5
C08
 10
1095.11
 20
-36.3574
 30
0.000000
  70
    32
  0
VERTEX
  8
┌▓È_1
  5
C09
 10
1095.11
 20
-36.3803
 30
0.000000
  70
    32
  0
VERTEX
  8
┌▓È_1
  5
C0A
 10
1095.11
 20
-36.4033
 30
0.000000
  70
    32
  0
VERTEX
  8
┌▓È_1
  5
C0B
 10
1095.11
 20
-36.4262
 30
0.000000
  70
    32
  0
VERTEX
  8
┌▓È_1
  5
C0C
 10
1095.11
 20
-36.4492
 30
0.000000
  70
    32
  0
VERTEX
  8
┌▓È_1
  5
C0D
 10
1095.11
 20
-36.4721
 30
0.000000
  70
    32
  0
VERTEX
  8
┌▓È_1
  5
C0E
 10
1095.11
 20
-36.4951
 30
0.000000
  70
    32
  0
VERTEX
  8
┌▓È_1
  5
C0F
 10
1095.12
 20
-36.5181
 30
0.000000
  70
    32
  0
VERTEX
  8
┌▓È_1
  5
C10
 10
1095.12
 20
-36.5410
 30
0.000000
  70
    32
  0
VERTEX
  8
┌▓È_1
  5
C11
 10
1095.12
 20
-36.5640
 30
0.000000
  70
    32
  0
VERTEX
  8
┌▓È_1
  5
C12
 10
1095.12
 20
-36.5869
 30
0.000000
  70
    32
  0
VERTEX
  8
┌▓È_1
  5
C13
 10
1095.13
 20
-36.6099
 30
0.000000
  70
    32
  0
VERTEX
  8
┌▓È_1
  5
C14
 10
1095.13
 20
-36.6328
 30
0.000000
  70
    32
  0
VERTEX
  8
┌▓È_1
  5
C15
 10
1095.13
 20
-36.6558
 30
0.000000
  70
    32
  0
VERTEX
  8
┌▓È_1
  5
C16
 10
1095.14
 20
-36.6788
 30
0.000000
  70
    32
  0
VERTEX
  8
┌▓È_1
  5
C17
 10
1095.14
 20
-36.7017
 30
0.000000
  70
    32
  0
VERTEX
  8
┌▓È_1
  5
C18
 10
1095.15
 20
-36.7247
 30
0.000000
  70
    32
  0
VERTEX
  8
┌▓È_1
  5
C19
 10
1095.15
 20
-36.7476
 30
0.000000
  70
    32
  0
VERTEX
  8
┌▓È_1
  5
C1A
 10
1095.16
 20
-36.7706
 30
0.000000
  70
    32
  0
VERTEX
  8
┌▓È_1
  5
C1B
 10
1095.17
 20
-36.7935
 30
0.000000
  70
    32
  0
VERTEX
  8
┌▓È_1
  5
C1C
 10
1095.17
 20
-36.8165
 30
0.000000
  70
    32
  0
VERTEX
  8
┌▓È_1
  5
C1D
 10
1095.18
 20
-36.8395
 30
0.000000
  70
    32
  0
VERTEX
  8
┌▓È_1
  5
C1E
 10
1095.18
 20
-36.8624
 30
0.000000
  70
    32
  0
VERTEX
  8
┌▓È_1
  5
C1F
 10
1095.19
 20
-36.8854
 30
0.000000
  70
    32
  0
VERTEX
  8
┌▓È_1
  5
C20
 10
1095.20
 20
-36.9083
 30
0.000000
  70
    32
  0
VERTEX
  8
┌▓È_1
  5
C21
 10
1095.21
 20
-36.9313
 30
0.000000
  70
    32
  0
VERTEX
  8
┌▓È_1
  5
C22
 10
1095.21
 20
-36.9542
 30
0.000000
  70
    32
  0
VERTEX
  8
┌▓È_1
  5
C23
 10
1095.22
 20
-36.9772
 30
0.000000
  70
    32
  0
VERTEX
  8
┌▓È_1
  5
C24
 10
1095.23
 20
-37.0002
 30
0.000000
  70
    32
  0
VERTEX
  8
┌▓È_1
  5
C25
 10
1095.24
 20
-37.0231
 30
0.000000
  70
    32
  0
VERTEX
  8
┌▓È_1
  5
C26
 10
1095.25
 20
-37.0461
 30
0.000000
  70
    32
  0
VERTEX
  8
┌▓È_1
  5
C27
 10
1095.26
 20
-37.0690
 30
0.000000
  70
    32
  0
VERTEX
  8
┌▓È_1
  5
C28
 10
1095.27
 20
-37.0920
 30
0.000000
  70
    32
  0
VERTEX
  8
┌▓È_1
  5
C29
 10
1095.28
 20
-37.1149
 30
0.000000
  70
    32
  0
VERTEX
  8
┌▓È_1
  5
C2A
 10
1095.29
 20
-37.1379
 30
0.000000
  70
    32
  0
VERTEX
  8
┌▓È_1
  5
C2B
 10
1095.30
 20
-37.1609
 30
0.000000
  70
    32
  0
VERTEX
  8
┌▓È_1
  5
C2C
 10
1095.31
 20
-37.1838
 30
0.000000
  70
    32
  0
VERTEX
  8
┌▓È_1
  5
C2D
 10
1095.32
 20
-37.2068
 30
0.000000
  70
    32
  0
VERTEX
  8
┌▓È_1
  5
C2E
 10
1095.33
 20
-37.2297
 30
0.000000
  70
    32
  0
VERTEX
  8
┌▓È_1
  5
C2F
 10
1095.34
 20
-37.2527
 30
0.000000
  70
    32
  0
VERTEX
  8
┌▓È_1
  5
C30
 10
1095.35
 20
-37.2757
 30
0.000000
  70
    32
  0
VERTEX
  8
┌▓È_1
  5
C31
 10
1095.37
 20
-37.2986
 30
0.000000
  70
    32
  0
VERTEX
  8
┌▓È_1
  5
C32
 10
1095.38
 20
-37.3216
 30
0.000000
  70
    32
  0
VERTEX
  8
┌▓È_1
  5
C33
 10
1095.39
 20
-37.3445
 30
0.000000
  70
    32
  0
VERTEX
  8
┌▓È_1
  5
C34
 10
1095.40
 20
-37.3675
 30
0.000000
  70
    32
  0
VERTEX
  8
┌▓È_1
  5
C35
 10
1095.42
 20
-37.3904
 30
0.000000
  70
    32
  0
VERTEX
  8
┌▓È_1
  5
C36
 10
1095.43
 20
-37.4134
 30
0.000000
  70
    32
  0
VERTEX
  8
┌▓È_1
  5
C37
 10
1095.44
 20
-37.4364
 30
0.000000
  70
    32
  0
VERTEX
  8
┌▓È_1
  5
C38
 10
1095.46
 20
-37.4593
 30
0.000000
  70
    32
  0
VERTEX
  8
┌▓È_1
  5
C39
 10
1095.47
 20
-37.4823
 30
0.000000
  70
    32
  0
VERTEX
  8
┌▓È_1
  5
C3A
 10
1095.49
 20
-37.5052
 30
0.000000
  70
    32
  0
VERTEX
  8
┌▓È_1
  5
C3B
 10
1095.50
 20
-37.5282
 30
0.000000
  70
    32
  0
VERTEX
  8
┌▓È_1
  5
C3C
 10
1095.52
 20
-37.5511
 30
0.000000
  70
    32
  0
VERTEX
  8
┌▓È_1
  5
C3D
 10
1095.53
 20
-37.5741
 30
0.000000
  70
    32
  0
VERTEX
  8
┌▓È_1
  5
C3E
 10
1095.55
 20
-37.5971
 30
0.000000
  70
    32
  0
VERTEX
  8
┌▓È_1
  5
C3F
 10
1095.56
 20
-37.6200
 30
0.000000
  70
    32
  0
VERTEX
  8
┌▓È_1
  5
C40
 10
1095.58
 20
-37.6430
 30
0.000000
  70
    32
  0
VERTEX
  8
┌▓È_1
  5
C41
 10
1095.59
 20
-37.6659
 30
0.000000
  70
    32
  0
VERTEX
  8
┌▓È_1
  5
C42
 10
1095.61
 20
-37.6889
 30
0.000000
  70
    32
  0
VERTEX
  8
┌▓È_1
  5
C43
 10
1095.63
 20
-37.7118
 30
0.000000
  70
    32
  0
VERTEX
  8
┌▓È_1
  5
C44
 10
1095.64
 20
-37.7348
 30
0.000000
  70
    32
  0
VERTEX
  8
┌▓È_1
  5
C45
 10
1095.66
 20
-37.7578
 30
0.000000
  70
    32
  0
VERTEX
  8
┌▓È_1
  5
C46
 10
1095.68
 20
-37.7807
 30
0.000000
  70
    32
  0
VERTEX
  8
┌▓È_1
  5
C47
 10
1095.69
 20
-37.8037
 30
0.000000
  70
    32
  0
VERTEX
  8
┌▓È_1
  5
C48
 10
1095.71
 20
-37.8266
 30
0.000000
  70
    32
  0
VERTEX
  8
┌▓È_1
  5
C49
 10
1095.73
 20
-37.8496
 30
0.000000
  70
    32
  0
VERTEX
  8
┌▓È_1
  5
C4A
 10
1095.75
 20
-37.8725
 30
0.000000
  70
    32
  0
VERTEX
  8
┌▓È_1
  5
C4B
 10
1095.77
 20
-37.8955
 30
0.000000
  70
    32
  0
VERTEX
  8
┌▓È_1
  5
C4C
 10
1095.78
 20
-37.9185
 30
0.000000
  70
    32
  0
VERTEX
  8
┌▓È_1
  5
C4D
 10
1095.80
 20
-37.9414
 30
0.000000
  70
    32
  0
VERTEX
  8
┌▓È_1
  5
C4E
 10
1095.82
 20
-37.9644
 30
0.000000
  70
    32
  0
VERTEX
  8
┌▓È_1
  5
C4F
 10
1095.84
 20
-37.9873
 30
0.000000
  70
    32
  0
VERTEX
  8
┌▓È_1
  5
C50
 10
1095.86
 20
-38.0103
 30
0.000000
  70
    32
  0
VERTEX
  8
┌▓È_1
  5
C51
 10
1095.88
 20
-38.0332
 30
0.000000
  70
    32
  0
VERTEX
  8
┌▓È_1
  5
C52
 10
1095.90
 20
-38.0562
 30
0.000000
  70
    32
  0
VERTEX
  8
┌▓È_1
  5
C53
 10
1095.92
 20
-38.0792
 30
0.000000
  70
    32
  0
VERTEX
  8
┌▓È_1
  5
C54
 10
1095.94
 20
-38.1021
 30
0.000000
  70
    32
  0
VERTEX
  8
┌▓È_1
  5
C55
 10
1095.96
 20
-38.1251
 30
0.000000
  70
    32
  0
VERTEX
  8
┌▓È_1
  5
C56
 10
1095.98
 20
-38.1480
 30
0.000000
  70
    32
  0
VERTEX
  8
┌▓È_1
  5
C57
 10
1096.00
 20
-38.1710
 30
0.000000
  70
    32
  0
VERTEX
  8
┌▓È_1
  5
C58
 10
1096.02
 20
-38.1940
 30
0.000000
  70
    32
  0
VERTEX
  8
┌▓È_1
  5
C59
 10
1096.04
 20
-38.2169
 30
0.000000
  70
    32
  0
VERTEX
  8
┌▓È_1
  5
C5A
 10
1096.06
 20
-38.2399
 30
0.000000
  70
    32
  0
VERTEX
  8
┌▓È_1
  5
C5B
 10
1096.08
 20
-38.2628
 30
0.000000
  70
    32
  0
VERTEX
  8
┌▓È_1
  5
C5C
 10
1096.11
 20
-38.2858
 30
0.000000
  70
    32
  0
VERTEX
  8
┌▓È_1
  5
C5D
 10
1096.13
 20
-38.3087
 30
0.000000
  70
    32
  0
VERTEX
  8
┌▓È_1
  5
C5E
 10
1096.15
 20
-38.3317
 30
0.000000
  70
    32
  0
VERTEX
  8
┌▓È_1
  5
C5F
 10
1096.17
 20
-38.3547
 30
0.000000
  70
    32
  0
VERTEX
  8
┌▓È_1
  5
C60
 10
1096.19
 20
-38.3776
 30
0.000000
  70
    32
  0
VERTEX
  8
┌▓È_1
  5
C61
 10
1096.22
 20
-38.4006
 30
0.000000
  70
    32
  0
VERTEX
  8
┌▓È_1
  5
C62
 10
1096.24
 20
-38.4235
 30
0.000000
  70
    32
  0
VERTEX
  8
┌▓È_1
  5
C63
 10
1096.26
 20
-38.4465
 30
0.000000
  70
    32
  0
VERTEX
  8
┌▓È_1
  5
C64
 10
1096.29
 20
-38.4694
 30
0.000000
  70
    32
  0
VERTEX
  8
┌▓È_1
  5
C65
 10
1096.31
 20
-38.4924
 30
0.000000
  70
    32
  0
VERTEX
  8
┌▓È_1
  5
C66
 10
1096.33
 20
-38.5154
 30
0.000000
  70
    32
  0
VERTEX
  8
┌▓È_1
  5
C67
 10
1096.36
 20
-38.5383
 30
0.000000
  70
    32
  0
VERTEX
  8
┌▓È_1
  5
C68
 10
1096.38
 20
-38.5613
 30
0.000000
  70
    32
  0
VERTEX
  8
┌▓È_1
  5
C69
 10
1096.40
 20
-38.5842
 30
0.000000
  70
    32
  0
VERTEX
  8
┌▓È_1
  5
C6A
 10
1096.43
 20
-38.6072
 30
0.000000
  70
    32
  0
VERTEX
  8
┌▓È_1
  5
C6B
 10
1096.45
 20
-38.6301
 30
0.000000
  70
    32
  0
VERTEX
  8
┌▓È_1
  5
C6C
 10
1096.47
 20
-38.6531
 30
0.000000
  70
    32
  0
VERTEX
  8
┌▓È_1
  5
C6D
 10
1096.50
 20
-38.6761
 30
0.000000
  70
    32
  0
VERTEX
  8
┌▓È_1
  5
C6E
 10
1096.52
 20
-38.6990
 30
0.000000
  70
    32
  0
VERTEX
  8
┌▓È_1
  5
C6F
 10
1096.55
 20
-38.7220
 30
0.000000
  70
    32
  0
VERTEX
  8
┌▓È_1
  5
C70
 10
1096.57
 20
-38.7449
 30
0.000000
  70
    32
  0
VERTEX
  8
┌▓È_1
  5
C71
 10
1096.60
 20
-38.7679
 30
0.000000
  70
    32
  0
VERTEX
  8
┌▓È_1
  5
C72
 10
1096.62
 20
-38.7908
 30
0.000000
  70
    32
  0
VERTEX
  8
┌▓È_1
  5
C73
 10
1096.65
 20
-38.8138
 30
0.000000
  70
    32
  0
VERTEX
  8
┌▓È_1
  5
C74
 10
1096.67
 20
-38.8368
 30
0.000000
  70
    32
  0
VERTEX
  8
┌▓È_1
  5
C75
 10
1096.70
 20
-38.8597
 30
0.000000
  70
    32
  0
VERTEX
  8
┌▓È_1
  5
C76
 10
1096.73
 20
-38.8827
 30
0.000000
  70
    32
  0
VERTEX
  8
┌▓È_1
  5
C77
 10
1096.75
 20
-38.9056
 30
0.000000
  70
    32
  0
VERTEX
  8
┌▓È_1
  5
C78
 10
1096.78
 20
-38.9286
 30
0.000000
  70
    32
  0
VERTEX
  8
┌▓È_1
  5
C79
 10
1096.80
 20
-38.9515
 30
0.000000
  70
    32
  0
VERTEX
  8
┌▓È_1
  5
C7A
 10
1096.83
 20
-38.9745
 30
0.000000
  70
    32
  0
VERTEX
  8
┌▓È_1
  5
C7B
 10
1096.86
 20
-38.9975
 30
0.000000
  70
    32
  0
VERTEX
  8
┌▓È_1
  5
C7C
 10
1096.88
 20
-39.0204
 30
0.000000
  70
    32
  0
VERTEX
  8
┌▓È_1
  5
C7D
 10
1096.91
 20
-39.0434
 30
0.000000
  70
    32
  0
VERTEX
  8
┌▓È_1
  5
C7E
 10
1096.94
 20
-39.0663
 30
0.000000
  70
    32
  0
VERTEX
  8
┌▓È_1
  5
C7F
 10
1096.96
 20
-39.0893
 30
0.000000
  70
    32
  0
VERTEX
  8
┌▓È_1
  5
C80
 10
1096.99
 20
-39.1122
 30
0.000000
  70
    32
  0
VERTEX
  8
┌▓È_1
  5
C81
 10
1097.02
 20
-39.1352
 30
0.000000
  70
    32
  0
VERTEX
  8
┌▓È_1
  5
C82
 10
1097.04
 20
-39.1582
 30
0.000000
  70
    32
  0
VERTEX
  8
┌▓È_1
  5
C83
 10
1097.07
 20
-39.1811
 30
0.000000
  70
    32
  0
VERTEX
  8
┌▓È_1
  5
C84
 10
1097.10
 20
-39.2041
 30
0.000000
  70
    32
  0
VERTEX
  8
┌▓È_1
  5
C85
 10
1097.13
 20
-39.2270
 30
0.000000
  70
    32
  0
VERTEX
  8
┌▓È_1
  5
C86
 10
1097.15
 20
-39.2500
 30
0.000000
  70
    32
  0
VERTEX
  8
┌▓È_1
  5
C87
 10
1097.18
 20
-39.2730
 30
0.000000
  70
    32
  0
VERTEX
  8
┌▓È_1
  5
C88
 10
1097.21
 20
-39.2959
 30
0.000000
  70
    32
  0
VERTEX
  8
┌▓È_1
  5
C89
 10
1097.24
 20
-39.3189
 30
0.000000
  70
    32
  0
VERTEX
  8
┌▓È_1
  5
C8A
 10
1097.27
 20
-39.3418
 30
0.000000
  70
    32
  0
VERTEX
  8
┌▓È_1
  5
C8B
 10
1097.29
 20
-39.3648
 30
0.000000
  70
    32
  0
VERTEX
  8
┌▓È_1
  5
C8C
 10
1097.32
 20
-39.3877
 30
0.000000
  70
    32
  0
VERTEX
  8
┌▓È_1
  5
C8D
 10
1097.35
 20
-39.4107
 30
0.000000
  70
    32
  0
VERTEX
  8
┌▓È_1
  5
C8E
 10
1097.38
 20
-39.4337
 30
0.000000
  70
    32
  0
VERTEX
  8
┌▓È_1
  5
C8F
 10
1097.41
 20
-39.4566
 30
0.000000
  70
    32
  0
VERTEX
  8
┌▓È_1
  5
C90
 10
1097.44
 20
-39.4796
 30
0.000000
  70
    32
  0
VERTEX
  8
┌▓È_1
  5
C91
 10
1097.47
 20
-39.5025
 30
0.000000
  70
    32
  0
VERTEX
  8
┌▓È_1
  5
C92
 10
1097.49
 20
-39.5255
 30
0.000000
  70
    32
  0
VERTEX
  8
┌▓È_1
  5
C93
 10
1097.52
 20
-39.5484
 30
0.000000
  70
    32
  0
VERTEX
  8
┌▓È_1
  5
C94
 10
1097.55
 20
-39.5714
 30
0.000000
  70
    32
  0
VERTEX
  8
┌▓È_1
  5
C95
 10
1097.58
 20
-39.5944
 30
0.000000
  70
    32
  0
VERTEX
  8
┌▓È_1
  5
C96
 10
1097.61
 20
-39.6173
 30
0.000000
  70
    32
  0
VERTEX
  8
┌▓È_1
  5
C97
 10
1097.64
 20
-39.6403
 30
0.000000
  70
    32
  0
VERTEX
  8
┌▓È_1
  5
C98
 10
1097.67
 20
-39.6632
 30
0.000000
  70
    32
  0
VERTEX
  8
┌▓È_1
  5
C99
 10
1097.70
 20
-39.6862
 30
0.000000
  70
    32
  0
VERTEX
  8
┌▓È_1
  5
C9A
 10
1097.73
 20
-39.7091
 30
0.000000
  70
    32
  0
VERTEX
  8
┌▓È_1
  5
C9B
 10
1097.76
 20
-39.7321
 30
0.000000
  70
    32
  0
VERTEX
  8
┌▓È_1
  5
C9C
 10
1097.79
 20
-39.7551
 30
0.000000
  70
    32
  0
VERTEX
  8
┌▓È_1
  5
C9D
 10
1097.82
 20
-39.7780
 30
0.000000
  70
    32
  0
VERTEX
  8
┌▓È_1
  5
C9E
 10
1097.85
 20
-39.8010
 30
0.000000
  70
    32
  0
VERTEX
  8
┌▓È_1
  5
C9F
 10
1097.88
 20
-39.8239
 30
0.000000
  70
    32
  0
VERTEX
  8
┌▓È_1
  5
CA0
 10
1097.91
 20
-39.8469
 30
0.000000
  70
    32
  0
VERTEX
  8
┌▓È_1
  5
CA1
 10
1097.94
 20
-39.8698
 30
0.000000
  70
    32
  0
VERTEX
  8
┌▓È_1
  5
CA2
 10
1097.97
 20
-39.8928
 30
0.000000
  70
    32
  0
VERTEX
  8
┌▓È_1
  5
CA3
 10
1098.00
 20
-39.9158
 30
0.000000
  70
    32
  0
VERTEX
  8
┌▓È_1
  5
CA4
 10
1098.03
 20
-39.9387
 30
0.000000
  70
    32
  0
VERTEX
  8
┌▓È_1
  5
CA5
 10
1098.06
 20
-39.9617
 30
0.000000
  70
    32
  0
VERTEX
  8
┌▓È_1
  5
CA6
 10
1098.09
 20
-39.9846
 30
0.000000
  70
    32
  0
VERTEX
  8
┌▓È_1
  5
CA7
 10
1098.12
 20
-40.0076
 30
0.000000
  70
    32
  0
SEQEND
  8
┌▓È_1
  5
CA8
  0
POLYLINE
  8
┌▓È_1
  5
CA9
  62
5
  66
     1
 10
0.000000
 20
0.000000
 30
0.000000
  70
     8
  0
VERTEX
  8
┌▓È_1
  5
CAA
 10
1097.78
 20
-39.7499
 30
0.000000
  70
    32
  0
VERTEX
  8
┌▓È_1
  5
CAB
 10
1097.75
 20
-39.7969
 30
0.000000
  70
    32
  0
VERTEX
  8
┌▓È_1
  5
CAC
 10
1097.72
 20
-39.8439
 30
0.000000
  70
    32
  0
VERTEX
  8
┌▓È_1
  5
CAD
 10
1097.69
 20
-39.8909
 30
0.000000
  70
    32
  0
VERTEX
  8
┌▓È_1
  5
CAE
 10
1097.65
 20
-39.9378
 30
0.000000
  70
    32
  0
VERTEX
  8
┌▓È_1
  5
CAF
 10
1097.62
 20
-39.9848
 30
0.000000
  70
    32
  0
VERTEX
  8
┌▓È_1
  5
CB0
 10
1097.59
 20
-40.0318
 30
0.000000
  70
    32
  0
VERTEX
  8
┌▓È_1
  5
CB1
 10
1097.56
 20
-40.0788
 30
0.000000
  70
    32
  0
VERTEX
  8
┌▓È_1
  5
CB2
 10
1097.53
 20
-40.1258
 30
0.000000
  70
    32
  0
VERTEX
  8
┌▓È_1
  5
CB3
 10
1097.50
 20
-40.1728
 30
0.000000
  70
    32
  0
VERTEX
  8
┌▓È_1
  5
CB4
 10
1097.48
 20
-40.2198
 30
0.000000
  70
    32
  0
VERTEX
  8
┌▓È_1
  5
CB5
 10
1097.45
 20
-40.2668
 30
0.000000
  70
    32
  0
VERTEX
  8
┌▓È_1
  5
CB6
 10
1097.42
 20
-40.3138
 30
0.000000
  70
    32
  0
VERTEX
  8
┌▓È_1
  5
CB7
 10
1097.39
 20
-40.3608
 30
0.000000
  70
    32
  0
VERTEX
  8
┌▓È_1
  5
CB8
 10
1097.36
 20
-40.4077
 30
0.000000
  70
    32
  0
VERTEX
  8
┌▓È_1
  5
CB9
 10
1097.34
 20
-40.4547
 30
0.000000
  70
    32
  0
VERTEX
  8
┌▓È_1
  5
CBA
 10
1097.31
 20
-40.5017
 30
0.000000
  70
    32
  0
VERTEX
  8
┌▓È_1
  5
CBB
 10
1097.28
 20
-40.5487
 30
0.000000
  70
    32
  0
VERTEX
  8
┌▓È_1
  5
CBC
 10
1097.26
 20
-40.5957
 30
0.000000
  70
    32
  0
VERTEX
  8
┌▓È_1
  5
CBD
 10
1097.23
 20
-40.6427
 30
0.000000
  70
    32
  0
VERTEX
  8
┌▓È_1
  5
CBE
 10
1097.20
 20
-40.6897
 30
0.000000
  70
    32
  0
VERTEX
  8
┌▓È_1
  5
CBF
 10
1097.18
 20
-40.7367
 30
0.000000
  70
    32
  0
VERTEX
  8
┌▓È_1
  5
CC0
 10
1097.15
 20
-40.7837
 30
0.000000
  70
    32
  0
VERTEX
  8
┌▓È_1
  5
CC1
 10
1097.13
 20
-40.8307
 30
0.000000
  70
    32
  0
VERTEX
  8
┌▓È_1
  5
CC2
 10
1097.11
 20
-40.8777
 30
0.000000
  70
    32
  0
VERTEX
  8
┌▓È_1
  5
CC3
 10
1097.08
 20
-40.9246
 30
0.000000
  70
    32
  0
VERTEX
  8
┌▓È_1
  5
CC4
 10
1097.06
 20
-40.9716
 30
0.000000
  70
    32
  0
VERTEX
  8
┌▓È_1
  5
CC5
 10
1097.04
 20
-41.0186
 30
0.000000
  70
    32
  0
VERTEX
  8
┌▓È_1
  5
CC6
 10
1097.02
 20
-41.0656
 30
0.000000
  70
    32
  0
VERTEX
  8
┌▓È_1
  5
CC7
 10
1097.00
 20
-41.1126
 30
0.000000
  70
    32
  0
VERTEX
  8
┌▓È_1
  5
CC8
 10
1096.97
 20
-41.1596
 30
0.000000
  70
    32
  0
VERTEX
  8
┌▓È_1
  5
CC9
 10
1096.95
 20
-41.2066
 30
0.000000
  70
    32
  0
VERTEX
  8
┌▓È_1
  5
CCA
 10
1096.93
 20
-41.2536
 30
0.000000
  70
    32
  0
VERTEX
  8
┌▓È_1
  5
CCB
 10
1096.91
 20
-41.3006
 30
0.000000
  70
    32
  0
VERTEX
  8
┌▓È_1
  5
CCC
 10
1096.90
 20
-41.3476
 30
0.000000
  70
    32
  0
VERTEX
  8
┌▓È_1
  5
CCD
 10
1096.88
 20
-41.3945
 30
0.000000
  70
    32
  0
VERTEX
  8
┌▓È_1
  5
CCE
 10
1096.86
 20
-41.4415
 30
0.000000
  70
    32
  0
VERTEX
  8
┌▓È_1
  5
CCF
 10
1096.84
 20
-41.4885
 30
0.000000
  70
    32
  0
VERTEX
  8
┌▓È_1
  5
CD0
 10
1096.83
 20
-41.5355
 30
0.000000
  70
    32
  0
VERTEX
  8
┌▓È_1
  5
CD1
 10
1096.81
 20
-41.5825
 30
0.000000
  70
    32
  0
VERTEX
  8
┌▓È_1
  5
CD2
 10
1096.79
 20
-41.6295
 30
0.000000
  70
    32
  0
VERTEX
  8
┌▓È_1
  5
CD3
 10
1096.78
 20
-41.6765
 30
0.000000
  70
    32
  0
VERTEX
  8
┌▓È_1
  5
CD4
 10
1096.76
 20
-41.7235
 30
0.000000
  70
    32
  0
VERTEX
  8
┌▓È_1
  5
CD5
 10
1096.75
 20
-41.7705
 30
0.000000
  70
    32
  0
VERTEX
  8
┌▓È_1
  5
CD6
 10
1096.74
 20
-41.8175
 30
0.000000
  70
    32
  0
VERTEX
  8
┌▓È_1
  5
CD7
 10
1096.72
 20
-41.8644
 30
0.000000
  70
    32
  0
VERTEX
  8
┌▓È_1
  5
CD8
 10
1096.71
 20
-41.9114
 30
0.000000
  70
    32
  0
VERTEX
  8
┌▓È_1
  5
CD9
 10
1096.70
 20
-41.9584
 30
0.000000
  70
    32
  0
VERTEX
  8
┌▓È_1
  5
CDA
 10
1096.69
 20
-42.0054
 30
0.000000
  70
    32
  0
VERTEX
  8
┌▓È_1
  5
CDB
 10
1096.68
 20
-42.0524
 30
0.000000
  70
    32
  0
VERTEX
  8
┌▓È_1
  5
CDC
 10
1096.67
 20
-42.0994
 30
0.000000
  70
    32
  0
VERTEX
  8
┌▓È_1
  5
CDD
 10
1096.66
 20
-42.1464
 30
0.000000
  70
    32
  0
VERTEX
  8
┌▓È_1
  5
CDE
 10
1096.65
 20
-42.1934
 30
0.000000
  70
    32
  0
VERTEX
  8
┌▓È_1
  5
CDF
 10
1096.65
 20
-42.2404
 30
0.000000
  70
    32
  0
VERTEX
  8
┌▓È_1
  5
CE0
 10
1096.64
 20
-42.2874
 30
0.000000
  70
    32
  0
VERTEX
  8
┌▓È_1
  5
CE1
 10
1096.63
 20
-42.3343
 30
0.000000
  70
    32
  0
VERTEX
  8
┌▓È_1
  5
CE2
 10
1096.63
 20
-42.3813
 30
0.000000
  70
    32
  0
VERTEX
  8
┌▓È_1
  5
CE3
 10
1096.62
 20
-42.4283
 30
0.000000
  70
    32
  0
VERTEX
  8
┌▓È_1
  5
CE4
 10
1096.62
 20
-42.4753
 30
0.000000
  70
    32
  0
VERTEX
  8
┌▓È_1
  5
CE5
 10
1096.61
 20
-42.5223
 30
0.000000
  70
    32
  0
VERTEX
  8
┌▓È_1
  5
CE6
 10
1096.61
 20
-42.5693
 30
0.000000
  70
    32
  0
VERTEX
  8
┌▓È_1
  5
CE7
 10
1096.61
 20
-42.6163
 30
0.000000
  70
    32
  0
VERTEX
  8
┌▓È_1
  5
CE8
 10
1096.61
 20
-42.6633
 30
0.000000
  70
    32
  0
VERTEX
  8
┌▓È_1
  5
CE9
 10
1096.61
 20
-42.7103
 30
0.000000
  70
    32
  0
VERTEX
  8
┌▓È_1
  5
CEA
 10
1096.61
 20
-42.7573
 30
0.000000
  70
    32
  0
VERTEX
  8
┌▓È_1
  5
CEB
 10
1096.61
 20
-42.8042
 30
0.000000
  70
    32
  0
VERTEX
  8
┌▓È_1
  5
CEC
 10
1096.61
 20
-42.8512
 30
0.000000
  70
    32
  0
VERTEX
  8
┌▓È_1
  5
CED
 10
1096.61
 20
-42.8982
 30
0.000000
  70
    32
  0
VERTEX
  8
┌▓È_1
  5
CEE
 10
1096.62
 20
-42.9452
 30
0.000000
  70
    32
  0
VERTEX
  8
┌▓È_1
  5
CEF
 10
1096.62
 20
-42.9922
 30
0.000000
  70
    32
  0
VERTEX
  8
┌▓È_1
  5
CF0
 10
1096.62
 20
-43.0392
 30
0.000000
  70
    32
  0
VERTEX
  8
┌▓È_1
  5
CF1
 10
1096.63
 20
-43.0862
 30
0.000000
  70
    32
  0
VERTEX
  8
┌▓È_1
  5
CF2
 10
1096.64
 20
-43.1332
 30
0.000000
  70
    32
  0
VERTEX
  8
┌▓È_1
  5
CF3
 10
1096.64
 20
-43.1802
 30
0.000000
  70
    32
  0
VERTEX
  8
┌▓È_1
  5
CF4
 10
1096.65
 20
-43.2272
 30
0.000000
  70
    32
  0
VERTEX
  8
┌▓È_1
  5
CF5
 10
1096.66
 20
-43.2741
 30
0.000000
  70
    32
  0
VERTEX
  8
┌▓È_1
  5
CF6
 10
1096.67
 20
-43.3211
 30
0.000000
  70
    32
  0
VERTEX
  8
┌▓È_1
  5
CF7
 10
1096.67
 20
-43.3681
 30
0.000000
  70
    32
  0
VERTEX
  8
┌▓È_1
  5
CF8
 10
1096.68
 20
-43.4151
 30
0.000000
  70
    32
  0
VERTEX
  8
┌▓È_1
  5
CF9
 10
1096.70
 20
-43.4621
 30
0.000000
  70
    32
  0
VERTEX
  8
┌▓È_1
  5
CFA
 10
1096.71
 20
-43.5091
 30
0.000000
  70
    32
  0
VERTEX
  8
┌▓È_1
  5
CFB
 10
1096.72
 20
-43.5561
 30
0.000000
  70
    32
  0
VERTEX
  8
┌▓È_1
  5
CFC
 10
1096.73
 20
-43.6031
 30
0.000000
  70
    32
  0
VERTEX
  8
┌▓È_1
  5
CFD
 10
1096.74
 20
-43.6501
 30
0.000000
  70
    32
  0
VERTEX
  8
┌▓È_1
  5
CFE
 10
1096.76
 20
-43.6971
 30
0.000000
  70
    32
  0
VERTEX
  8
┌▓È_1
  5
CFF
 10
1096.77
 20
-43.7440
 30
0.000000
  70
    32
  0
VERTEX
  8
┌▓È_1
  5
D00
 10
1096.79
 20
-43.7910
 30
0.000000
  70
    32
  0
VERTEX
  8
┌▓È_1
  5
D01
 10
1096.80
 20
-43.8380
 30
0.000000
  70
    32
  0
VERTEX
  8
┌▓È_1
  5
D02
 10
1096.82
 20
-43.8850
 30
0.000000
  70
    32
  0
VERTEX
  8
┌▓È_1
  5
D03
 10
1096.83
 20
-43.9320
 30
0.000000
  70
    32
  0
VERTEX
  8
┌▓È_1
  5
D04
 10
1096.85
 20
-43.9790
 30
0.000000
  70
    32
  0
VERTEX
  8
┌▓È_1
  5
D05
 10
1096.87
 20
-44.0260
 30
0.000000
  70
    32
  0
VERTEX
  8
┌▓È_1
  5
D06
 10
1096.89
 20
-44.0730
 30
0.000000
  70
    32
  0
VERTEX
  8
┌▓È_1
  5
D07
 10
1096.91
 20
-44.1200
 30
0.000000
  70
    32
  0
VERTEX
  8
┌▓È_1
  5
D08
 10
1096.92
 20
-44.1670
 30
0.000000
  70
    32
  0
VERTEX
  8
┌▓È_1
  5
D09
 10
1096.94
 20
-44.2139
 30
0.000000
  70
    32
  0
VERTEX
  8
┌▓È_1
  5
D0A
 10
1096.96
 20
-44.2609
 30
0.000000
  70
    32
  0
VERTEX
  8
┌▓È_1
  5
D0B
 10
1096.99
 20
-44.3079
 30
0.000000
  70
    32
  0
VERTEX
  8
┌▓È_1
  5
D0C
 10
1097.01
 20
-44.3549
 30
0.000000
  70
    32
  0
VERTEX
  8
┌▓È_1
  5
D0D
 10
1097.03
 20
-44.4019
 30
0.000000
  70
    32
  0
VERTEX
  8
┌▓È_1
  5
D0E
 10
1097.05
 20
-44.4489
 30
0.000000
  70
    32
  0
VERTEX
  8
┌▓È_1
  5
D0F
 10
1097.07
 20
-44.4959
 30
0.000000
  70
    32
  0
VERTEX
  8
┌▓È_1
  5
D10
 10
1097.10
 20
-44.5429
 30
0.000000
  70
    32
  0
VERTEX
  8
┌▓È_1
  5
D11
 10
1097.12
 20
-44.5899
 30
0.000000
  70
    32
  0
VERTEX
  8
┌▓È_1
  5
D12
 10
1097.14
 20
-44.6369
 30
0.000000
  70
    32
  0
VERTEX
  8
┌▓È_1
  5
D13
 10
1097.17
 20
-44.6838
 30
0.000000
  70
    32
  0
VERTEX
  8
┌▓È_1
  5
D14
 10
1097.19
 20
-44.7308
 30
0.000000
  70
    32
  0
VERTEX
  8
┌▓È_1
  5
D15
 10
1097.22
 20
-44.7778
 30
0.000000
  70
    32
  0
VERTEX
  8
┌▓È_1
  5
D16
 10
1097.24
 20
-44.8248
 30
0.000000
  70
    32
  0
VERTEX
  8
┌▓È_1
  5
D17
 10
1097.27
 20
-44.8718
 30
0.000000
  70
    32
  0
VERTEX
  8
┌▓È_1
  5
D18
 10
1097.30
 20
-44.9188
 30
0.000000
  70
    32
  0
VERTEX
  8
┌▓È_1
  5
D19
 10
1097.32
 20
-44.9658
 30
0.000000
  70
    32
  0
VERTEX
  8
┌▓È_1
  5
D1A
 10
1097.35
 20
-45.0128
 30
0.000000
  70
    32
  0
VERTEX
  8
┌▓È_1
  5
D1B
 10
1097.38
 20
-45.0598
 30
0.000000
  70
    32
  0
VERTEX
  8
┌▓È_1
  5
D1C
 10
1097.41
 20
-45.1068
 30
0.000000
  70
    32
  0
VERTEX
  8
┌▓È_1
  5
D1D
 10
1097.43
 20
-45.1537
 30
0.000000
  70
    32
  0
VERTEX
  8
┌▓È_1
  5
D1E
 10
1097.46
 20
-45.2007
 30
0.000000
  70
    32
  0
VERTEX
  8
┌▓È_1
  5
D1F
 10
1097.49
 20
-45.2477
 30
0.000000
  70
    32
  0
VERTEX
  8
┌▓È_1
  5
D20
 10
1097.52
 20
-45.2947
 30
0.000000
  70
    32
  0
VERTEX
  8
┌▓È_1
  5
D21
 10
1097.55
 20
-45.3417
 30
0.000000
  70
    32
  0
VERTEX
  8
┌▓È_1
  5
D22
 10
1097.58
 20
-45.3887
 30
0.000000
  70
    32
  0
VERTEX
  8
┌▓È_1
  5
D23
 10
1097.61
 20
-45.4357
 30
0.000000
  70
    32
  0
VERTEX
  8
┌▓È_1
  5
D24
 10
1097.64
 20
-45.4827
 30
0.000000
  70
    32
  0
VERTEX
  8
┌▓È_1
  5
D25
 10
1097.67
 20
-45.5297
 30
0.000000
  70
    32
  0
VERTEX
  8
┌▓È_1
  5
D26
 10
1097.70
 20
-45.5767
 30
0.000000
  70
    32
  0
VERTEX
  8
┌▓È_1
  5
D27
 10
1097.73
 20
-45.6236
 30
0.000000
  70
    32
  0
VERTEX
  8
┌▓È_1
  5
D28
 10
1097.77
 20
-45.6706
 30
0.000000
  70
    32
  0
VERTEX
  8
┌▓È_1
  5
D29
 10
1097.80
 20
-45.7176
 30
0.000000
  70
    32
  0
VERTEX
  8
┌▓È_1
  5
D2A
 10
1097.83
 20
-45.7646
 30
0.000000
  70
    32
  0
VERTEX
  8
┌▓È_1
  5
D2B
 10
1097.86
 20
-45.8116
 30
0.000000
  70
    32
  0
VERTEX
  8
┌▓È_1
  5
D2C
 10
1097.89
 20
-45.8586
 30
0.000000
  70
    32
  0
VERTEX
  8
┌▓È_1
  5
D2D
 10
1097.93
 20
-45.9056
 30
0.000000
  70
    32
  0
VERTEX
  8
┌▓È_1
  5
D2E
 10
1097.96
 20
-45.9526
 30
0.000000
  70
    32
  0
VERTEX
  8
┌▓È_1
  5
D2F
 10
1097.99
 20
-45.9996
 30
0.000000
  70
    32
  0
VERTEX
  8
┌▓È_1
  5
D30
 10
1098.03
 20
-46.0466
 30
0.000000
  70
    32
  0
VERTEX
  8
┌▓È_1
  5
D31
 10
1098.06
 20
-46.0936
 30
0.000000
  70
    32
  0
VERTEX
  8
┌▓È_1
  5
D32
 10
1098.09
 20
-46.1405
 30
0.000000
  70
    32
  0
VERTEX
  8
┌▓È_1
  5
D33
 10
1098.13
 20
-46.1875
 30
0.000000
  70
    32
  0
VERTEX
  8
┌▓È_1
  5
D34
 10
1098.16
 20
-46.2345
 30
0.000000
  70
    32
  0
VERTEX
  8
┌▓È_1
  5
D35
 10
1098.20
 20
-46.2815
 30
0.000000
  70
    32
  0
VERTEX
  8
┌▓È_1
  5
D36
 10
1098.23
 20
-46.3285
 30
0.000000
  70
    32
  0
VERTEX
  8
┌▓È_1
  5
D37
 10
1098.27
 20
-46.3755
 30
0.000000
  70
    32
  0
VERTEX
  8
┌▓È_1
  5
D38
 10
1098.30
 20
-46.4225
 30
0.000000
  70
    32
  0
VERTEX
  8
┌▓È_1
  5
D39
 10
1098.34
 20
-46.4695
 30
0.000000
  70
    32
  0
VERTEX
  8
┌▓È_1
  5
D3A
 10
1098.37
 20
-46.5165
 30
0.000000
  70
    32
  0
VERTEX
  8
┌▓È_1
  5
D3B
 10
1098.41
 20
-46.5635
 30
0.000000
  70
    32
  0
VERTEX
  8
┌▓È_1
  5
D3C
 10
1098.44
 20
-46.6104
 30
0.000000
  70
    32
  0
VERTEX
  8
┌▓È_1
  5
D3D
 10
1098.48
 20
-46.6574
 30
0.000000
  70
    32
  0
VERTEX
  8
┌▓È_1
  5
D3E
 10
1098.51
 20
-46.7044
 30
0.000000
  70
    32
  0
VERTEX
  8
┌▓È_1
  5
D3F
 10
1098.55
 20
-46.7514
 30
0.000000
  70
    32
  0
VERTEX
  8
┌▓È_1
  5
D40
 10
1098.58
 20
-46.7984
 30
0.000000
  70
    32
  0
VERTEX
  8
┌▓È_1
  5
D41
 10
1098.62
 20
-46.8454
 30
0.000000
  70
    32
  0
VERTEX
  8
┌▓È_1
  5
D42
 10
1098.66
 20
-46.8924
 30
0.000000
  70
    32
  0
VERTEX
  8
┌▓È_1
  5
D43
 10
1098.69
 20
-46.9394
 30
0.000000
  70
    32
  0
VERTEX
  8
┌▓È_1
  5
D44
 10
1098.73
 20
-46.9864
 30
0.000000
  70
    32
  0
VERTEX
  8
┌▓È_1
  5
D45
 10
1098.76
 20
-47.0334
 30
0.000000
  70
    32
  0
VERTEX
  8
┌▓È_1
  5
D46
 10
1098.80
 20
-47.0803
 30
0.000000
  70
    32
  0
VERTEX
  8
┌▓È_1
  5
D47
 10
1098.83
 20
-47.1273
 30
0.000000
  70
    32
  0
VERTEX
  8
┌▓È_1
  5
D48
 10
1098.87
 20
-47.1743
 30
0.000000
  70
    32
  0
VERTEX
  8
┌▓È_1
  5
D49
 10
1098.91
 20
-47.2213
 30
0.000000
  70
    32
  0
SEQEND
  8
┌▓È_1
  5
D4A
  0
POLYLINE
  8
┌▓È_1
  5
D4B
  62
5
  66
     1
 10
0.000000
 20
0.000000
 30
0.000000
  70
     8
  0
VERTEX
  8
┌▓È_1
  5
D4C
 10
1098.91
 20
-30.0770
 30
0.000000
  70
    32
  0
VERTEX
  8
┌▓È_1
  5
D4D
 10
1098.86
 20
-30.1159
 30
0.000000
  70
    32
  0
VERTEX
  8
┌▓È_1
  5
D4E
 10
1098.81
 20
-30.1549
 30
0.000000
  70
    32
  0
VERTEX
  8
┌▓È_1
  5
D4F
 10
1098.76
 20
-30.1939
 30
0.000000
  70
    32
  0
VERTEX
  8
┌▓È_1
  5
D50
 10
1098.71
 20
-30.2329
 30
0.000000
  70
    32
  0
VERTEX
  8
┌▓È_1
  5
D51
 10
1098.67
 20
-30.2718
 30
0.000000
  70
    32
  0
VERTEX
  8
┌▓È_1
  5
D52
 10
1098.62
 20
-30.3108
 30
0.000000
  70
    32
  0
VERTEX
  8
┌▓È_1
  5
D53
 10
1098.57
 20
-30.3498
 30
0.000000
  70
    32
  0
VERTEX
  8
┌▓È_1
  5
D54
 10
1098.53
 20
-30.3888
 30
0.000000
  70
    32
  0
VERTEX
  8
┌▓È_1
  5
D55
 10
1098.48
 20
-30.4277
 30
0.000000
  70
    32
  0
VERTEX
  8
┌▓È_1
  5
D56
 10
1098.44
 20
-30.4667
 30
0.000000
  70
    32
  0
VERTEX
  8
┌▓È_1
  5
D57
 10
1098.39
 20
-30.5057
 30
0.000000
  70
    32
  0
VERTEX
  8
┌▓È_1
  5
D58
 10
1098.35
 20
-30.5446
 30
0.000000
  70
    32
  0
VERTEX
  8
┌▓È_1
  5
D59
 10
1098.30
 20
-30.5836
 30
0.000000
  70
    32
  0
VERTEX
  8
┌▓È_1
  5
D5A
 10
1098.26
 20
-30.6226
 30
0.000000
  70
    32
  0
VERTEX
  8
┌▓È_1
  5
D5B
 10
1098.21
 20
-30.6616
 30
0.000000
  70
    32
  0
VERTEX
  8
┌▓È_1
  5
D5C
 10
1098.17
 20
-30.7005
 30
0.000000
  70
    32
  0
VERTEX
  8
┌▓È_1
  5
D5D
 10
1098.13
 20
-30.7395
 30
0.000000
  70
    32
  0
VERTEX
  8
┌▓È_1
  5
D5E
 10
1098.08
 20
-30.7785
 30
0.000000
  70
    32
  0
VERTEX
  8
┌▓È_1
  5
D5F
 10
1098.04
 20
-30.8175
 30
0.000000
  70
    32
  0
VERTEX
  8
┌▓È_1
  5
D60
 10
1098.00
 20
-30.8564
 30
0.000000
  70
    32
  0
VERTEX
  8
┌▓È_1
  5
D61
 10
1097.96
 20
-30.8954
 30
0.000000
  70
    32
  0
VERTEX
  8
┌▓È_1
  5
D62
 10
1097.92
 20
-30.9344
 30
0.000000
  70
    32
  0
VERTEX
  8
┌▓È_1
  5
D63
 10
1097.88
 20
-30.9734
 30
0.000000
  70
    32
  0
VERTEX
  8
┌▓È_1
  5
D64
 10
1097.84
 20
-31.0123
 30
0.000000
  70
    32
  0
VERTEX
  8
┌▓È_1
  5
D65
 10
1097.80
 20
-31.0513
 30
0.000000
  70
    32
  0
VERTEX
  8
┌▓È_1
  5
D66
 10
1097.76
 20
-31.0903
 30
0.000000
  70
    32
  0
VERTEX
  8
┌▓È_1
  5
D67
 10
1097.72
 20
-31.1293
 30
0.000000
  70
    32
  0
VERTEX
  8
┌▓È_1
  5
D68
 10
1097.68
 20
-31.1682
 30
0.000000
  70
    32
  0
VERTEX
  8
┌▓È_1
  5
D69
 10
1097.64
 20
-31.2072
 30
0.000000
  70
    32
  0
VERTEX
  8
┌▓È_1
  5
D6A
 10
1097.61
 20
-31.2462
 30
0.000000
  70
    32
  0
VERTEX
  8
┌▓È_1
  5
D6B
 10
1097.57
 20
-31.2851
 30
0.000000
  70
    32
  0
VERTEX
  8
┌▓È_1
  5
D6C
 10
1097.53
 20
-31.3241
 30
0.000000
  70
    32
  0
VERTEX
  8
┌▓È_1
  5
D6D
 10
1097.50
 20
-31.3631
 30
0.000000
  70
    32
  0
VERTEX
  8
┌▓È_1
  5
D6E
 10
1097.46
 20
-31.4021
 30
0.000000
  70
    32
  0
VERTEX
  8
┌▓È_1
  5
D6F
 10
1097.43
 20
-31.4410
 30
0.000000
  70
    32
  0
VERTEX
  8
┌▓È_1
  5
D70
 10
1097.40
 20
-31.4800
 30
0.000000
  70
    32
  0
VERTEX
  8
┌▓È_1
  5
D71
 10
1097.36
 20
-31.5190
 30
0.000000
  70
    32
  0
VERTEX
  8
┌▓È_1
  5
D72
 10
1097.33
 20
-31.5580
 30
0.000000
  70
    32
  0
VERTEX
  8
┌▓È_1
  5
D73
 10
1097.30
 20
-31.5969
 30
0.000000
  70
    32
  0
VERTEX
  8
┌▓È_1
  5
D74
 10
1097.27
 20
-31.6359
 30
0.000000
  70
    32
  0
VERTEX
  8
┌▓È_1
  5
D75
 10
1097.24
 20
-31.6749
 30
0.000000
  70
    32
  0
VERTEX
  8
┌▓È_1
  5
D76
 10
1097.21
 20
-31.7139
 30
0.000000
  70
    32
  0
VERTEX
  8
┌▓È_1
  5
D77
 10
1097.18
 20
-31.7528
 30
0.000000
  70
    32
  0
VERTEX
  8
┌▓È_1
  5
D78
 10
1097.15
 20
-31.7918
 30
0.000000
  70
    32
  0
VERTEX
  8
┌▓È_1
  5
D79
 10
1097.12
 20
-31.8308
 30
0.000000
  70
    32
  0
VERTEX
  8
┌▓È_1
  5
D7A
 10
1097.09
 20
-31.8698
 30
0.000000
  70
    32
  0
VERTEX
  8
┌▓È_1
  5
D7B
 10
1097.06
 20
-31.9087
 30
0.000000
  70
    32
  0
VERTEX
  8
┌▓È_1
  5
D7C
 10
1097.04
 20
-31.9477
 30
0.000000
  70
    32
  0
VERTEX
  8
┌▓È_1
  5
D7D
 10
1097.01
 20
-31.9867
 30
0.000000
  70
    32
  0
VERTEX
  8
┌▓È_1
  5
D7E
 10
1096.99
 20
-32.0257
 30
0.000000
  70
    32
  0
VERTEX
  8
┌▓È_1
  5
D7F
 10
1096.96
 20
-32.0646
 30
0.000000
  70
    32
  0
VERTEX
  8
┌▓È_1
  5
D80
 10
1096.94
 20
-32.1036
 30
0.000000
  70
    32
  0
VERTEX
  8
┌▓È_1
  5
D81
 10
1096.92
 20
-32.1426
 30
0.000000
  70
    32
  0
VERTEX
  8
┌▓È_1
  5
D82
 10
1096.90
 20
-32.1815
 30
0.000000
  70
    32
  0
VERTEX
  8
┌▓È_1
  5
D83
 10
1096.87
 20
-32.2205
 30
0.000000
  70
    32
  0
VERTEX
  8
┌▓È_1
  5
D84
 10
1096.85
 20
-32.2595
 30
0.000000
  70
    32
  0
VERTEX
  8
┌▓È_1
  5
D85
 10
1096.83
 20
-32.2985
 30
0.000000
  70
    32
  0
VERTEX
  8
┌▓È_1
  5
D86
 10
1096.81
 20
-32.3374
 30
0.000000
  70
    32
  0
VERTEX
  8
┌▓È_1
  5
D87
 10
1096.80
 20
-32.3764
 30
0.000000
  70
    32
  0
VERTEX
  8
┌▓È_1
  5
D88
 10
1096.78
 20
-32.4154
 30
0.000000
  70
    32
  0
VERTEX
  8
┌▓È_1
  5
D89
 10
1096.76
 20
-32.4544
 30
0.000000
  70
    32
  0
VERTEX
  8
┌▓È_1
  5
D8A
 10
1096.75
 20
-32.4933
 30
0.000000
  70
    32
  0
VERTEX
  8
┌▓È_1
  5
D8B
 10
1096.73
 20
-32.5323
 30
0.000000
  70
    32
  0
VERTEX
  8
┌▓È_1
  5
D8C
 10
1096.72
 20
-32.5713
 30
0.000000
  70
    32
  0
VERTEX
  8
┌▓È_1
  5
D8D
 10
1096.70
 20
-32.6103
 30
0.000000
  70
    32
  0
VERTEX
  8
┌▓È_1
  5
D8E
 10
1096.69
 20
-32.6492
 30
0.000000
  70
    32
  0
VERTEX
  8
┌▓È_1
  5
D8F
 10
1096.68
 20
-32.6882
 30
0.000000
  70
    32
  0
VERTEX
  8
┌▓È_1
  5
D90
 10
1096.67
 20
-32.7272
 30
0.000000
  70
    32
  0
VERTEX
  8
┌▓È_1
  5
D91
 10
1096.66
 20
-32.7662
 30
0.000000
  70
    32
  0
VERTEX
  8
┌▓È_1
  5
D92
 10
1096.65
 20
-32.8051
 30
0.000000
  70
    32
  0
VERTEX
  8
┌▓È_1
  5
D93
 10
1096.64
 20
-32.8441
 30
0.000000
  70
    32
  0
VERTEX
  8
┌▓È_1
  5
D94
 10
1096.63
 20
-32.8831
 30
0.000000
  70
    32
  0
VERTEX
  8
┌▓È_1
  5
D95
 10
1096.63
 20
-32.9220
 30
0.000000
  70
    32
  0
VERTEX
  8
┌▓È_1
  5
D96
 10
1096.62
 20
-32.9610
 30
0.000000
  70
    32
  0
VERTEX
  8
┌▓È_1
  5
D97
 10
1096.62
 20
-33.0000
 30
0.000000
  70
    32
  0
VERTEX
  8
┌▓È_1
  5
D98
 10
1096.61
 20
-33.0390
 30
0.000000
  70
    32
  0
VERTEX
  8
┌▓È_1
  5
D99
 10
1096.61
 20
-33.0779
 30
0.000000
  70
    32
  0
VERTEX
  8
┌▓È_1
  5
D9A
 10
1096.61
 20
-33.1169
 30
0.000000
  70
    32
  0
VERTEX
  8
┌▓È_1
  5
D9B
 10
1096.61
 20
-33.1559
 30
0.000000
  70
    32
  0
VERTEX
  8
┌▓È_1
  5
D9C
 10
1096.61
 20
-33.1949
 30
0.000000
  70
    32
  0
VERTEX
  8
┌▓È_1
  5
D9D
 10
1096.61
 20
-33.2338
 30
0.000000
  70
    32
  0
VERTEX
  8
┌▓È_1
  5
D9E
 10
1096.61
 20
-33.2728
 30
0.000000
  70
    32
  0
VERTEX
  8
┌▓È_1
  5
D9F
 10
1096.61
 20
-33.3118
 30
0.000000
  70
    32
  0
VERTEX
  8
┌▓È_1
  5
DA0
 10
1096.62
 20
-33.3508
 30
0.000000
  70
    32
  0
VERTEX
  8
┌▓È_1
  5
DA1
 10
1096.62
 20
-33.3897
 30
0.000000
  70
    32
  0
VERTEX
  8
┌▓È_1
  5
DA2
 10
1096.63
 20
-33.4287
 30
0.000000
  70
    32
  0
VERTEX
  8
┌▓È_1
  5
DA3
 10
1096.63
 20
-33.4677
 30
0.000000
  70
    32
  0
VERTEX
  8
┌▓È_1
  5
DA4
 10
1096.64
 20
-33.5067
 30
0.000000
  70
    32
  0
VERTEX
  8
┌▓È_1
  5
DA5
 10
1096.65
 20
-33.5456
 30
0.000000
  70
    32
  0
VERTEX
  8
┌▓È_1
  5
DA6
 10
1096.66
 20
-33.5846
 30
0.000000
  70
    32
  0
VERTEX
  8
┌▓È_1
  5
DA7
 10
1096.67
 20
-33.6236
 30
0.000000
  70
    32
  0
VERTEX
  8
┌▓È_1
  5
DA8
 10
1096.68
 20
-33.6625
 30
0.000000
  70
    32
  0
VERTEX
  8
┌▓È_1
  5
DA9
 10
1096.69
 20
-33.7015
 30
0.000000
  70
    32
  0
VERTEX
  8
┌▓È_1
  5
DAA
 10
1096.70
 20
-33.7405
 30
0.000000
  70
    32
  0
VERTEX
  8
┌▓È_1
  5
DAB
 10
1096.72
 20
-33.7795
 30
0.000000
  70
    32
  0
VERTEX
  8
┌▓È_1
  5
DAC
 10
1096.73
 20
-33.8184
 30
0.000000
  70
    32
  0
VERTEX
  8
┌▓È_1
  5
DAD
 10
1096.75
 20
-33.8574
 30
0.000000
  70
    32
  0
VERTEX
  8
┌▓È_1
  5
DAE
 10
1096.76
 20
-33.8964
 30
0.000000
  70
    32
  0
VERTEX
  8
┌▓È_1
  5
DAF
 10
1096.78
 20
-33.9354
 30
0.000000
  70
    32
  0
VERTEX
  8
┌▓È_1
  5
DB0
 10
1096.80
 20
-33.9743
 30
0.000000
  70
    32
  0
VERTEX
  8
┌▓È_1
  5
DB1
 10
1096.81
 20
-34.0133
 30
0.000000
  70
    32
  0
VERTEX
  8
┌▓È_1
  5
DB2
 10
1096.83
 20
-34.0523
 30
0.000000
  70
    32
  0
VERTEX
  8
┌▓È_1
  5
DB3
 10
1096.85
 20
-34.0913
 30
0.000000
  70
    32
  0
VERTEX
  8
┌▓È_1
  5
DB4
 10
1096.87
 20
-34.1302
 30
0.000000
  70
    32
  0
VERTEX
  8
┌▓È_1
  5
DB5
 10
1096.90
 20
-34.1692
 30
0.000000
  70
    32
  0
VERTEX
  8
┌▓È_1
  5
DB6
 10
1096.92
 20
-34.2082
 30
0.000000
  70
    32
  0
VERTEX
  8
┌▓È_1
  5
DB7
 10
1096.94
 20
-34.2472
 30
0.000000
  70
    32
  0
VERTEX
  8
┌▓È_1
  5
DB8
 10
1096.96
 20
-34.2861
 30
0.000000
  70
    32
  0
VERTEX
  8
┌▓È_1
  5
DB9
 10
1096.99
 20
-34.3251
 30
0.000000
  70
    32
  0
VERTEX
  8
┌▓È_1
  5
DBA
 10
1097.01
 20
-34.3641
 30
0.000000
  70
    32
  0
VERTEX
  8
┌▓È_1
  5
DBB
 10
1097.04
 20
-34.4030
 30
0.000000
  70
    32
  0
VERTEX
  8
┌▓È_1
  5
DBC
 10
1097.06
 20
-34.4420
 30
0.000000
  70
    32
  0
VERTEX
  8
┌▓È_1
  5
DBD
 10
1097.09
 20
-34.4810
 30
0.000000
  70
    32
  0
VERTEX
  8
┌▓È_1
  5
DBE
 10
1097.12
 20
-34.5200
 30
0.000000
  70
    32
  0
VERTEX
  8
┌▓È_1
  5
DBF
 10
1097.15
 20
-34.5589
 30
0.000000
  70
    32
  0
VERTEX
  8
┌▓È_1
  5
DC0
 10
1097.18
 20
-34.5979
 30
0.000000
  70
    32
  0
VERTEX
  8
┌▓È_1
  5
DC1
 10
1097.21
 20
-34.6369
 30
0.000000
  70
    32
  0
VERTEX
  8
┌▓È_1
  5
DC2
 10
1097.24
 20
-34.6759
 30
0.000000
  70
    32
  0
VERTEX
  8
┌▓È_1
  5
DC3
 10
1097.27
 20
-34.7148
 30
0.000000
  70
    32
  0
VERTEX
  8
┌▓È_1
  5
DC4
 10
1097.30
 20
-34.7538
 30
0.000000
  70
    32
  0
VERTEX
  8
┌▓È_1
  5
DC5
 10
1097.33
 20
-34.7928
 30
0.000000
  70
    32
  0
VERTEX
  8
┌▓È_1
  5
DC6
 10
1097.36
 20
-34.8318
 30
0.000000
  70
    32
  0
VERTEX
  8
┌▓È_1
  5
DC7
 10
1097.40
 20
-34.8707
 30
0.000000
  70
    32
  0
VERTEX
  8
┌▓È_1
  5
DC8
 10
1097.43
 20
-34.9097
 30
0.000000
  70
    32
  0
VERTEX
  8
┌▓È_1
  5
DC9
 10
1097.46
 20
-34.9487
 30
0.000000
  70
    32
  0
VERTEX
  8
┌▓È_1
  5
DCA
 10
1097.50
 20
-34.9877
 30
0.000000
  70
    32
  0
VERTEX
  8
┌▓È_1
  5
DCB
 10
1097.53
 20
-35.0266
 30
0.000000
  70
    32
  0
VERTEX
  8
┌▓È_1
  5
DCC
 10
1097.57
 20
-35.0656
 30
0.000000
  70
    32
  0
VERTEX
  8
┌▓È_1
  5
DCD
 10
1097.61
 20
-35.1046
 30
0.000000
  70
    32
  0
VERTEX
  8
┌▓È_1
  5
DCE
 10
1097.64
 20
-35.1436
 30
0.000000
  70
    32
  0
VERTEX
  8
┌▓È_1
  5
DCF
 10
1097.68
 20
-35.1825
 30
0.000000
  70
    32
  0
VERTEX
  8
┌▓È_1
  5
DD0
 10
1097.72
 20
-35.2215
 30
0.000000
  70
    32
  0
VERTEX
  8
┌▓È_1
  5
DD1
 10
1097.76
 20
-35.2605
 30
0.000000
  70
    32
  0
VERTEX
  8
┌▓È_1
  5
DD2
 10
1097.80
 20
-35.2994
 30
0.000000
  70
    32
  0
VERTEX
  8
┌▓È_1
  5
DD3
 10
1097.84
 20
-35.3384
 30
0.000000
  70
    32
  0
VERTEX
  8
┌▓È_1
  5
DD4
 10
1097.88
 20
-35.3774
 30
0.000000
  70
    32
  0
VERTEX
  8
┌▓È_1
  5
DD5
 10
1097.92
 20
-35.4164
 30
0.000000
  70
    32
  0
VERTEX
  8
┌▓È_1
  5
DD6
 10
1097.96
 20
-35.4553
 30
0.000000
  70
    32
  0
VERTEX
  8
┌▓È_1
  5
DD7
 10
1098.00
 20
-35.4943
 30
0.000000
  70
    32
  0
VERTEX
  8
┌▓È_1
  5
DD8
 10
1098.04
 20
-35.5333
 30
0.000000
  70
    32
  0
VERTEX
  8
┌▓È_1
  5
DD9
 10
1098.08
 20
-35.5723
 30
0.000000
  70
    32
  0
VERTEX
  8
┌▓È_1
  5
DDA
 10
1098.13
 20
-35.6112
 30
0.000000
  70
    32
  0
VERTEX
  8
┌▓È_1
  5
DDB
 10
1098.17
 20
-35.6502
 30
0.000000
  70
    32
  0
VERTEX
  8
┌▓È_1
  5
DDC
 10
1098.21
 20
-35.6892
 30
0.000000
  70
    32
  0
VERTEX
  8
┌▓È_1
  5
DDD
 10
1098.26
 20
-35.7282
 30
0.000000
  70
    32
  0
VERTEX
  8
┌▓È_1
  5
DDE
 10
1098.30
 20
-35.7671
 30
0.000000
  70
    32
  0
VERTEX
  8
┌▓È_1
  5
DDF
 10
1098.35
 20
-35.8061
 30
0.000000
  70
    32
  0
VERTEX
  8
┌▓È_1
  5
DE0
 10
1098.39
 20
-35.8451
 30
0.000000
  70
    32
  0
VERTEX
  8
┌▓È_1
  5
DE1
 10
1098.44
 20
-35.8841
 30
0.000000
  70
    32
  0
VERTEX
  8
┌▓È_1
  5
DE2
 10
1098.48
 20
-35.9230
 30
0.000000
  70
    32
  0
VERTEX
  8
┌▓È_1
  5
DE3
 10
1098.53
 20
-35.9620
 30
0.000000
  70
    32
  0
VERTEX
  8
┌▓È_1
  5
DE4
 10
1098.57
 20
-36.0010
 30
0.000000
  70
    32
  0
VERTEX
  8
┌▓È_1
  5
DE5
 10
1098.62
 20
-36.0399
 30
0.000000
  70
    32
  0
VERTEX
  8
┌▓È_1
  5
DE6
 10
1098.67
 20
-36.0789
 30
0.000000
  70
    32
  0
VERTEX
  8
┌▓È_1
  5
DE7
 10
1098.71
 20
-36.1179
 30
0.000000
  70
    32
  0
VERTEX
  8
┌▓È_1
  5
DE8
 10
1098.76
 20
-36.1569
 30
0.000000
  70
    32
  0
VERTEX
  8
┌▓È_1
  5
DE9
 10
1098.81
 20
-36.1958
 30
0.000000
  70
    32
  0
VERTEX
  8
┌▓È_1
  5
DEA
 10
1098.86
 20
-36.2348
 30
0.000000
  70
    32
  0
VERTEX
  8
┌▓È_1
  5
DEB
 10
1098.91
 20
-36.2738
 30
0.000000
  70
    32
  0
SEQEND
  8
┌▓È_1
  5
DEC
  0
LINE
  5
432
  8
┌▓È_1
 62
     5
 10
1098.9069974762999
 20
-90.571312225499994
 30
0.0
 11
1100.4069974762999
 21
-90.571312225499994
 31
0.0
  0
ARC
  5
433
  8
┌▓È_1
 62
     5
 10
1096.9069974762999
 20
-41.600591416299991
 30
0.0
 40
2.0
 50
0.0
 51
52.797132081999997
  0
LINE
  5
434
  8
┌▓È_1
 62
     5
 10
1134.1478345395999
 20
-91.962197140699999
 30
0.0
 11
1201.9515031689
 21
-91.607174717500001
 31
0.0
  0
LINE
  5
435
  8
┌▓È_1
 62
     5
 10
1134.1478345395999
 20
6.5195726896000004
 30
0.0
 11
1201.9515031689
 21
6.1645502665
 31
0.0
  0
LINE
  5
436
  8
┌▓È_1
 62
     5
 10
1238.6209489579001
 20
-1.5901366326999999
 30
0.0
 11
1210.3161733523
 21
-1.0960749367
 31
0.0
  0
ARC
  5
437
  8
┌▓È_1
 62
     5
 10
1201.9069974762999
 20
-83.107291233400005
 30
0.0
 40
8.5
 50
270.30000000000001
 51
351.61667609839998
  0
LINE
  5
438
  8
┌▓È_1
 62
     5
 10
1240.4069974762999
 20
-82.821312225500009
 30
0.0
 11
1238.6209489579001
 21
-83.852487818400007
 31
0.0
  0
LINE
  5
439
  8
┌▓È_1
 62
     5
 10
1240.4069974762999
 20
-82.821312225500009
 30
0.0
 11
1240.4069974762999
 21
-69.2213122255
 31
0.0
  0
LINE
  5
43A
  8
┌▓È_1
 62
     5
 10
1210.3161733523
 20
-1.0960749367
 30
0.0
 11
1210.3161733523
 21
-84.346549514399996
 31
0.0
  0
LINE
  5
43B
  8
┌▓È_1
 62
     5
 10
1238.6209489579001
 20
-1.5901366326999999
 30
0.0
 11
1238.6209489579001
 21
-83.852487818400007
 31
0.0
  0
ARC
  5
43C
  8
┌▓È_1
 62
     5
 10
1201.9069974762999
 20
-2.3353332176000001
 30
0.0
 40
8.5
 50
8.3833239015999972
 51
89.700000000000003
  0
LINE
  5
43D
  8
┌▓È_1
 62
     5
 10
1240.4069974762999
 20
-42.7213122255
 30
0.0
 11
1240.4069974762999
 21
-16.2213122255
 31
0.0
  0
LINE
  5
43E
  8
┌▓È_1
 62
     5
 10
1240.4069974762999
 20
-42.7213122255
 30
0.0
 11
1240.4069974762999
 21
-69.2213122255
 31
0.0
  0
LINE
  5
43F
  8
┌▓È_1
 62
     5
 10
1238.6209489579001
 20
-83.852487818400007
 30
0.0
 11
1210.3161733523
 21
-84.346549514399996
 31
0.0
  0
LINE
  5
440
  8
┌▓È_1
 62
     5
 10
1240.4069974762999
 20
-2.6213122255000001
 30
0.0
 11
1238.6209489579001
 21
-1.5901366326999999
 31
0.0
  0
LINE
  5
441
  8
┌▓È_1
 62
     5
 10
1240.4069974762999
 20
-2.6213122255000001
 30
0.0
 11
1240.4069974762999
 21
-16.2213122255
 31
0.0
  0
ENDBLK
  5
442
  8
0
  0
BLOCK
  8
0
  2
CLUMP8
 70
     0
 10
0.0
 20
0.0
 30
0.0
  3
CLUMP8
  1

  0
ARC
  5
454
  8
┌▓È_1
 62
     5
 10
656.23365766580002
 20
-366.26970478179999
 30
0.0
 40
6.5
 50
180.0
 51
270.0
  0
LINE
  5
455
  8
┌▓È_1
 62
     5
 10
682.19447862820005
 20
-263.26970478179999
 30
0.0
 11
649.1336576658
 21
-263.26970478179999
 31
0.0
  0
LINE
  5
456
  8
┌▓È_1
 62
     5
 10
649.48365766580002
 20
-264.76970478179999
 30
0.0
 11
694.98365766580002
 21
-264.76970478179999
 31
0.0
  0
LINE
  5
457
  8
┌▓È_1
 62
     5
 10
649.73365766580002
 20
-292.76970478179999
 30
0.0
 11
670.23621826759995
 21
-292.76970478179999
 31
0.0
  0
LINE
  5
458
  8
┌▓È_1
 62
     5
 10
655.48365766580002
 20
-279.76970478179999
 30
0.0
 11
656.48365766580002
 21
-280.76970478179999
 31
0.0
  0
LINE
  5
459
  8
┌▓È_1
 62
     5
 10
648.98365766579991
 20
-294.76970478179999
 30
0.0
 11
670.25376554720003
 21
-294.76970478179999
 31
0.0
  0
LINE
  5
45A
  8
┌▓È_1
 62
     5
 10
655.48365766580002
 20
-268.76970478179999
 30
0.0
 11
656.48365766580002
 21
-268.76970478179999
 31
0.0
  0
LINE
  5
45B
  8
┌▓È_1
 62
     5
 10
653.73365766580002
 20
-282.76970478179999
 30
0.0
 11
670.14848186990002
 21
-282.76970478179999
 31
0.0
  0
LINE
  5
45C
  8
┌▓È_1
 62
     5
 10
647.74277275069994
 20
-298.51054184509991
 30
0.0
 11
648.09779517380002
 21
-366.3142104744
 31
0.0
  0
LINE
  5
45D
  8
┌▓È_1
 62
     5
 10
649.73365766580002
 20
-294.76970478179999
 30
0.0
 11
649.73365766580002
 21
-366.26970478179999
 31
0.0
  0
ARC
  5
45E
  8
┌▓È_1
 62
     5
 10
656.59767865790002
 20
-366.26970478179999
 30
0.0
 40
8.5
 50
180.30000000000001
 51
261.61667609839998
  0
LINE
  5
45F
  8
┌▓È_1
 62
     5
 10
647.98365766580002
 20
-293.76970478179999
 30
0.0
 11
648.98365766579991
 21
-294.76970478179999
 31
0.0
  0
LINE
  5
460
  8
┌▓È_1
 62
     5
 10
647.98365766580002
 20
-291.76970478179999
 30
0.0
 11
648.98365766579991
 21
-292.76970478179999
 31
0.0
  0
LINE
  5
461
  8
┌▓È_1
 62
     5
 10
648.98365766579991
 20
-292.76970478179999
 30
0.0
 11
649.73365766580002
 21
-292.76970478179999
 31
0.0
  0
ARC
  5
462
  8
┌▓È_1
 62
     5
 10
649.73365766580002
 20
-290.76970478179999
 30
0.0
 40
2.0
 50
270.0
 51
0.0
  0
ARC
  5
463
  8
┌▓È_1
 62
     5
 10
645.99279673930005
 20
-298.51970478179999
 30
0.0
 40
1.75
 50
0.3
 51
90.0
  0
LINE
  5
464
  8
┌▓È_1
 62
     5
 10
649.1336576658
 20
-263.26970478179999
 30
0.0
 11
649.1336576658
 21
-264.76970478179999
 31
0.0
  0
ARC
  5
465
  8
┌▓È_1
 62
     5
 10
653.73365766580002
 20
-284.76970478179999
 30
0.0
 40
2.0
 50
90.0
 51
180.0
  0
LINE
  5
466
  8
┌▓È_1
 62
     5
 10
652.98365766579991
 20
-273.26970478179999
 30
0.0
 11
649.63365766579989
 21
-273.26970478179999
 31
0.0
  0
LINE
  5
467
  8
┌▓È_1
 62
     5
 10
645.8836576658
 20
-282.76970478179999
 30
0.0
 11
648.98365766579991
 21
-282.76970478179999
 31
0.0
  0
LINE
  5
468
  8
┌▓È_1
 62
     5
 10
649.1336576658
 20
-264.76970478179999
 30
0.0
 11
649.48365766580002
 21
-264.76970478179999
 31
0.0
  0
LINE
  5
469
  8
┌▓È_1
 62
     5
 10
649.48365766580002
 20
-267.26970478179999
 30
0.0
 11
649.48365766580002
 21
-264.76970478179999
 31
0.0
  0
LINE
  5
46A
  8
┌▓È_1
 62
     5
 10
645.8836576658
 20
-282.76970478179999
 30
0.0
 11
648.98365766579991
 21
-282.76970478179999
 31
0.0
  0
LINE
  5
46B
  8
┌▓È_1
 62
     5
 10
651.73365766580002
 20
-284.76970478179999
 30
0.0
 11
651.73365766580002
 21
-290.76970478179999
 31
0.0
  0
LINE
  5
46C
  8
┌▓È_1
 62
     5
 10
645.8836576658
 20
-280.76970478179999
 30
0.0
 11
652.98365766579991
 21
-280.76970478179999
 31
0.0
  0
LINE
  5
46D
  8
┌▓È_1
 62
     5
 10
652.98365766579991
 20
-280.76970478179999
 30
0.0
 11
652.98365766579991
 21
-273.26970478179999
 31
0.0
  0
LINE
  5
46E
  8
┌▓È_1
 62
     5
 10
649.63365766579989
 20
-270.76970478179999
 30
0.0
 11
655.48365766580002
 21
-270.76970478179999
 31
0.0
  0
ARC
  5
46F
  8
┌▓È_1
 62
     5
 10
653.48365766580002
 20
-280.76970478179999
 30
0.0
 40
2.0
 50
270.0
 51
0.0
  0
LINE
  5
470
  8
┌▓È_1
 62
     5
 10
647.98365766580002
 20
-282.76970478179999
 30
0.0
 11
647.98365766580002
 21
-293.76970478179999
 31
0.0
  0
LINE
  5
471
  8
┌▓È_1
 62
     5
 10
645.8836576658
 20
-282.76970478179999
 30
0.0
 11
645.8836576658
 21
-296.76970478179999
 31
0.0
  0
LINE
  5
472
  8
┌▓È_1
 62
     5
 10
653.73365766580002
 20
-282.76970478179999
 30
0.0
 11
653.48365766580002
 21
-282.76970478179999
 31
0.0
  0
LINE
  5
473
  8
┌▓È_1
 62
     5
 10
645.8836576658
 20
-280.76970478179999
 30
0.0
 11
645.8836576658
 21
-282.76970478179999
 31
0.0
  0
LINE
  5
474
  8
┌▓È_1
 62
     5
 10
649.63365766579989
 20
-273.26970478179999
 30
0.0
 11
649.63365766579989
 21
-270.76970478179999
 31
0.0
  0
LINE
  5
475
  8
┌▓È_1
 62
     5
 10
645.99279673930005
 20
-296.76970478179999
 30
0.0
 11
645.8836576658
 21
-296.76970478179999
 31
0.0
  0
LINE
  5
476
  8
┌▓È_1
 62
     5
 10
655.48365766580002
 20
-268.76970478179999
 30
0.0
 11
655.48365766580002
 21
-279.76970478179999
 31
0.0
  0
LINE
  5
477
  8
┌▓È_1
 62
     5
 10
649.48365766580002
 20
-267.26970478179999
 30
0.0
 11
649.48365766580002
 21
-269.26970478179999
 31
0.0
  0
LINE
  5
478
  8
┌▓È_1
 62
     5
 10
649.48365766580002
 20
-267.26970478179999
 30
0.0
 11
655.48365766580002
 21
-267.26970478179999
 31
0.0
  0
LINE
  5
479
  8
┌▓È_1
 62
     5
 10
649.48365766580002
 20
-269.26970478179999
 30
0.0
 11
655.48365766580002
 21
-269.26969378550001
 31
0.0
  0
LINE
  5
47A
  8
┌▓È_1
 62
     5
 10
703.57315527490005
 20
-284.76970478179999
 30
0.0
 11
698.98365766579991
 21
-284.76970478179999
 31
0.0
  0
LINE
  5
47B
  8
┌▓È_1
 62
     5
 10
699.98365770110001
 20
-287.96970478179998
 30
0.0
 11
693.98365763089998
 21
-287.96970478179998
 31
0.0
  0
ARC
  5
47C
  8
┌▓È_1
 62
     5
 10
699.98365766580002
 20
-286.29756882679999
 30
0.0
 40
1.5278640450000001
 50
49.117607890900011
 51
130.88239210910001
  0
LINE
  5
47D
  8
┌▓È_1
 62
     5
 10
696.98365766580002
 20
-263.26970478179999
 30
0.0
 11
744.83365766580005
 21
-263.26970478179999
 31
0.0
  0
LINE
  5
47E
  8
┌▓È_1
 62
     5
 10
698.38540299190004
 20
-261.26970478179999
 30
0.0
 11
704.7157854774
 21
-261.26970478179999
 31
0.0
  0
LINE
  5
47F
  8
┌▓È_1
 62
     5
 10
698.98365766579991
 20
-264.76970478179999
 30
0.0
 11
744.48365766580002
 21
-264.76970478179999
 31
0.0
  0
ARC
  5
480
  8
┌▓È_1
 62
     5
 10
699.98365766580002
 20
-286.44184073679997
 30
0.0
 40
1.5278640450000001
 50
229.11760789089999
 51
310.88239210910001
  0
LINE
  5
481
  8
┌▓È_1
 62
     5
 10
693.98365751439997
 20
-284.76970478179999
 30
0.0
 11
699.98365788850003
 21
-284.76970478179999
 31
0.0
  0
LINE
  5
482
  8
┌▓È_1
 62
     5
 10
655.85248207300003
 20
-402.9836562635
 30
0.0
 11
655.35842037700002
 21
-374.67888065779999
 31
0.0
  0
LINE
  5
483
  8
┌▓È_1
 62
     5
 10
649.73365766580002
 20
-342.76970478179999
 30
0.0
 11
659.48365766580002
 21
-342.76970478179999
 31
0.0
  0
LINE
  5
484
  8
┌▓È_1
 62
     5
 10
728.7657525198
 20
-372.76970478179999
 30
0.0
 11
696.98365766580002
 21
-372.76970478179999
 31
0.0
  0
LINE
  5
485
  8
┌▓È_1
 62
     5
 10
697.07315527490005
 20
-347.26970478179999
 30
0.0
 11
721.42315527490007
 21
-347.26970478179999
 31
0.0
  0
LINE
  5
486
  8
┌▓È_1
 62
     5
 10
668.98143183540003
 20
-361.76970478179999
 30
0.0
 11
724.98588349629995
 21
-361.76970478179999
 31
0.0
  0
LINE
  5
487
  8
┌▓È_1
 62
     5
 10
668.98135567860004
 20
-359.76970478179999
 30
0.0
 11
724.98595965309994
 21
-359.76970478179999
 31
0.0
  0
LINE
  5
488
  8
┌▓È_1
 62
     5
 10
696.98365766580002
 20
-404.76970478179987
 30
0.0
 11
670.48365766580002
 21
-404.76970478179987
 31
0.0
  0
LINE
  5
489
  8
┌▓È_1
 62
     5
 10
697.07315527490005
 20
-347.26970478179999
 30
0.0
 11
672.72315527490002
 21
-347.26970478179999
 31
0.0
  0
LINE
  5
48A
  8
┌▓È_1
 62
     5
 10
665.20156281189986
 20
-372.76970478179999
 30
0.0
 11
696.98365766580002
 21
-372.76970478179999
 31
0.0
  0
LINE
  5
48B
  8
┌▓È_1
 62
     5
 10
696.08365766580005
 20
-372.76970478179999
 30
0.0
 11
696.08365766580005
 21
-361.76970478179999
 31
0.0
  0
LINE
  5
48C
  8
┌▓È_1
 62
     5
 10
697.88365766579989
 20
-372.76970478179999
 30
0.0
 11
697.88365766579989
 21
-361.76970478179999
 31
0.0
  0
ARC
  5
48D
  8
┌▓È_1
 62
     5
 10
696.98365766580002
 20
-281.96970478179998
 30
0.0
 40
6.0
 50
250.52877936549999
 51
289.47122063450001
  0
ARC
  5
48E
  8
┌▓È_1
 62
     5
 10
696.98365766580002
 20
-290.76970478179999
 30
0.0
 40
6.0
 50
70.5287793655
 51
109.4712206345
  0
LINE
  5
48F
  8
┌▓È_1
 62
     5
 10
693.30355422550008
 20
-261.26970478179999
 30
0.0
 11
695.58191233979994
 21
-261.26970478179999
 31
0.0
  0
LINE
  5
490
  8
┌▓È_1
 62
     5
 10
692.6809536113999
 20
-263.26970478179999
 30
0.0
 11
696.98365766580002
 21
-263.26970478179999
 31
0.0
  0
LINE
  5
491
  8
┌▓È_1
 62
     5
 10
698.98365766579991
 20
-285.14242011779999
 30
0.0
 11
698.98365766579991
 21
-287.62655903130002
 31
0.0
  0
LINE
  5
492
  8
┌▓È_1
 62
     5
 10
695.68365766579996
 20
-291.44805840689997
 30
0.0
 11
695.68365766579996
 21
-287.96970478179998
 31
0.0
  0
LINE
  5
493
  8
┌▓È_1
 62
     5
 10
698.28365766579998
 20
-291.44805840689997
 30
0.0
 11
698.28365766579998
 21
-287.96970478179998
 31
0.0
  0
LINE
  5
494
  8
┌▓È_1
 62
     5
 10
698.28365766579998
 20
-291.44805840689997
 30
0.0
 11
698.98365766579991
 21
-290.74805840689999
 31
0.0
  0
LINE
  5
495
  8
┌▓È_1
 62
     5
 10
694.98365766580002
 20
-290.74805840689999
 30
0.0
 11
695.68365766579996
 21
-291.44805840689997
 31
0.0
  0
LINE
  5
496
  8
┌▓È_1
 62
     5
 10
695.68365766579996
 20
-291.44805840689997
 30
0.0
 11
698.28365766579998
 21
-291.44805840689997
 31
0.0
  0
LINE
  5
497
  8
┌▓È_1
 62
     5
 10
698.28365766579998
 20
-284.76970478179999
 30
0.0
 11
698.28365766579998
 21
-263.26970478179999
 31
0.0
  0
LINE
  5
498
  8
┌▓È_1
 62
     5
 10
698.98365766579991
 20
-263.26970478179999
 30
0.0
 11
698.98365766579991
 21
-284.76970478179999
 31
0.0
  0
LINE
  5
499
  8
┌▓È_1
 62
     5
 10
698.98365766579991
 20
-287.96970478179998
 30
0.0
 11
698.98365766579991
 21
-290.74805840689999
 31
0.0
  0
LINE
  5
49A
  8
┌▓È_1
 62
     5
 10
695.68365766579996
 20
-284.76970478179999
 30
0.0
 11
695.68365766579996
 21
-263.26970478179999
 31
0.0
  0
LINE
  5
49B
  8
┌▓È_1
 62
     5
 10
648.98365766579991
 20
-294.76970478179999
 30
0.0
 11
648.98365766579991
 21
-282.76970478179999
 31
0.0
  0
LINE
  5
49C
  8
┌▓È_1
 62
     5
 10
655.48365766580002
 20
-267.26970478179999
 30
0.0
 11
655.48365766580002
 21
-268.76970478179999
 31
0.0
  0
ARC
  5
49D
  8
┌▓È_1
 62
     5
 10
708.57315527490005
 20
-271.26970478179999
 30
0.0
 40
5.0
 50
180.0
 51
270.0
  0
LINE
  5
49E
  8
┌▓È_1
 62
     5
 10
703.57315527490005
 20
-264.76970478179999
 30
0.0
 11
703.57315527490005
 21
-271.26970478179999
 31
0.0
  0
ARC
  5
49F
  8
┌▓È_1
 62
     5
 10
705.07315527490005
 20
-284.76970478179999
 30
0.0
 40
1.5
 50
180.0
 51
270.0
  0
LINE
  5
4A0
  8
┌▓È_1
 62
     5
 10
703.70117208709996
 20
-259.46970478179998
 30
0.0
 11
706.88315260249988
 21
-259.46970478179998
 31
0.0
  0
ARC
  5
4A1
  8
┌▓È_1
 62
     5
 10
703.89170872350007
 20
-284.76970478179999
 30
0.0
 40
1.5
 50
180.0
 51
270.0
  0
LINE
  5
4A2
  8
┌▓È_1
 62
     5
 10
734.67315527489995
 20
-271.26970478179999
 30
0.0
 11
703.57315527490005
 21
-271.26970478179999
 31
0.0
  0
LINE
  5
4A3
  8
┌▓È_1
 62
     5
 10
701.07315527490005
 20
-266.26970478179999
 30
0.0
 11
701.07315527490005
 21
-264.76970478179999
 31
0.0
  0
LINE
  5
4A4
  8
┌▓È_1
 62
     5
 10
700.98365766580002
 20
-285.14242011779999
 30
0.0
 11
700.98365766580002
 21
-287.59698944590002
 31
0.0
  0
POLYLINE
  8
┌▓È_1
  5
DED
  62
5
  66
     1
 10
0.000000
 20
0.000000
 30
0.000000
  70
     8
  0
VERTEX
  8
┌▓È_1
  5
DEE
 10
701.484
 20
-263.270
 30
0.000000
  70
    32
  0
VERTEX
  8
┌▓È_1
  5
DEF
 10
701.428
 20
-263.227
 30
0.000000
  70
    32
  0
VERTEX
  8
┌▓È_1
  5
DF0
 10
701.372
 20
-263.183
 30
0.000000
  70
    32
  0
VERTEX
  8
┌▓È_1
  5
DF1
 10
701.317
 20
-263.140
 30
0.000000
  70
    32
  0
VERTEX
  8
┌▓È_1
  5
DF2
 10
701.261
 20
-263.097
 30
0.000000
  70
    32
  0
VERTEX
  8
┌▓È_1
  5
DF3
 10
701.206
 20
-263.054
 30
0.000000
  70
    32
  0
VERTEX
  8
┌▓È_1
  5
DF4
 10
701.150
 20
-263.011
 30
0.000000
  70
    32
  0
VERTEX
  8
┌▓È_1
  5
DF5
 10
701.094
 20
-262.969
 30
0.000000
  70
    32
  0
VERTEX
  8
┌▓È_1
  5
DF6
 10
701.039
 20
-262.926
 30
0.000000
  70
    32
  0
VERTEX
  8
┌▓È_1
  5
DF7
 10
700.983
 20
-262.883
 30
0.000000
  70
    32
  0
VERTEX
  8
┌▓È_1
  5
DF8
 10
700.927
 20
-262.841
 30
0.000000
  70
    32
  0
VERTEX
  8
┌▓È_1
  5
DF9
 10
700.872
 20
-262.798
 30
0.000000
  70
    32
  0
VERTEX
  8
┌▓È_1
  5
DFA
 10
700.816
 20
-262.756
 30
0.000000
  70
    32
  0
VERTEX
  8
┌▓È_1
  5
DFB
 10
700.761
 20
-262.714
 30
0.000000
  70
    32
  0
VERTEX
  8
┌▓È_1
  5
DFC
 10
700.705
 20
-262.672
 30
0.000000
  70
    32
  0
VERTEX
  8
┌▓È_1
  5
DFD
 10
700.649
 20
-262.630
 30
0.000000
  70
    32
  0
VERTEX
  8
┌▓È_1
  5
DFE
 10
700.594
 20
-262.589
 30
0.000000
  70
    32
  0
VERTEX
  8
┌▓È_1
  5
DFF
 10
700.538
 20
-262.548
 30
0.000000
  70
    32
  0
VERTEX
  8
┌▓È_1
  5
E00
 10
700.482
 20
-262.507
 30
0.000000
  70
    32
  0
VERTEX
  8
┌▓È_1
  5
E01
 10
700.427
 20
-262.466
 30
0.000000
  70
    32
  0
VERTEX
  8
┌▓È_1
  5
E02
 10
700.371
 20
-262.425
 30
0.000000
  70
    32
  0
VERTEX
  8
┌▓È_1
  5
E03
 10
700.316
 20
-262.385
 30
0.000000
  70
    32
  0
VERTEX
  8
┌▓È_1
  5
E04
 10
700.260
 20
-262.345
 30
0.000000
  70
    32
  0
VERTEX
  8
┌▓È_1
  5
E05
 10
700.204
 20
-262.305
 30
0.000000
  70
    32
  0
VERTEX
  8
┌▓È_1
  5
E06
 10
700.149
 20
-262.266
 30
0.000000
  70
    32
  0
VERTEX
  8
┌▓È_1
  5
E07
 10
700.093
 20
-262.227
 30
0.000000
  70
    32
  0
VERTEX
  8
┌▓È_1
  5
E08
 10
700.038
 20
-262.188
 30
0.000000
  70
    32
  0
VERTEX
  8
┌▓È_1
  5
E09
 10
699.982
 20
-262.150
 30
0.000000
  70
    32
  0
VERTEX
  8
┌▓È_1
  5
E0A
 10
699.927
 20
-262.112
 30
0.000000
  70
    32
  0
VERTEX
  8
┌▓È_1
  5
E0B
 10
699.871
 20
-262.074
 30
0.000000
  70
    32
  0
VERTEX
  8
┌▓È_1
  5
E0C
 10
699.815
 20
-262.037
 30
0.000000
  70
    32
  0
VERTEX
  8
┌▓È_1
  5
E0D
 10
699.760
 20
-262.000
 30
0.000000
  70
    32
  0
VERTEX
  8
┌▓È_1
  5
E0E
 10
699.704
 20
-261.963
 30
0.000000
  70
    32
  0
VERTEX
  8
┌▓È_1
  5
E0F
 10
699.649
 20
-261.927
 30
0.000000
  70
    32
  0
VERTEX
  8
┌▓È_1
  5
E10
 10
699.593
 20
-261.892
 30
0.000000
  70
    32
  0
VERTEX
  8
┌▓È_1
  5
E11
 10
699.538
 20
-261.857
 30
0.000000
  70
    32
  0
VERTEX
  8
┌▓È_1
  5
E12
 10
699.482
 20
-261.822
 30
0.000000
  70
    32
  0
VERTEX
  8
┌▓È_1
  5
E13
 10
699.427
 20
-261.788
 30
0.000000
  70
    32
  0
VERTEX
  8
┌▓È_1
  5
E14
 10
699.371
 20
-261.754
 30
0.000000
  70
    32
  0
VERTEX
  8
┌▓È_1
  5
E15
 10
699.316
 20
-261.721
 30
0.000000
  70
    32
  0
VERTEX
  8
┌▓È_1
  5
E16
 10
699.260
 20
-261.689
 30
0.000000
  70
    32
  0
VERTEX
  8
┌▓È_1
  5
E17
 10
699.204
 20
-261.656
 30
0.000000
  70
    32
  0
VERTEX
  8
┌▓È_1
  5
E18
 10
699.149
 20
-261.625
 30
0.000000
  70
    32
  0
VERTEX
  8
┌▓È_1
  5
E19
 10
699.093
 20
-261.594
 30
0.000000
  70
    32
  0
VERTEX
  8
┌▓È_1
  5
E1A
 10
699.038
 20
-261.564
 30
0.000000
  70
    32
  0
VERTEX
  8
┌▓È_1
  5
E1B
 10
698.983
 20
-261.534
 30
0.000000
  70
    32
  0
VERTEX
  8
┌▓È_1
  5
E1C
 10
698.927
 20
-261.505
 30
0.000000
  70
    32
  0
VERTEX
  8
┌▓È_1
  5
E1D
 10
698.872
 20
-261.476
 30
0.000000
  70
    32
  0
VERTEX
  8
┌▓È_1
  5
E1E
 10
698.816
 20
-261.448
 30
0.000000
  70
    32
  0
VERTEX
  8
┌▓È_1
  5
E1F
 10
698.761
 20
-261.421
 30
0.000000
  70
    32
  0
VERTEX
  8
┌▓È_1
  5
E20
 10
698.705
 20
-261.394
 30
0.000000
  70
    32
  0
VERTEX
  8
┌▓È_1
  5
E21
 10
698.650
 20
-261.368
 30
0.000000
  70
    32
  0
VERTEX
  8
┌▓È_1
  5
E22
 10
698.594
 20
-261.343
 30
0.000000
  70
    32
  0
VERTEX
  8
┌▓È_1
  5
E23
 10
698.539
 20
-261.318
 30
0.000000
  70
    32
  0
VERTEX
  8
┌▓È_1
  5
E24
 10
698.483
 20
-261.295
 30
0.000000
  70
    32
  0
VERTEX
  8
┌▓È_1
  5
E25
 10
698.428
 20
-261.271
 30
0.000000
  70
    32
  0
VERTEX
  8
┌▓È_1
  5
E26
 10
698.373
 20
-261.249
 30
0.000000
  70
    32
  0
VERTEX
  8
┌▓È_1
  5
E27
 10
698.317
 20
-261.227
 30
0.000000
  70
    32
  0
VERTEX
  8
┌▓È_1
  5
E28
 10
698.262
 20
-261.207
 30
0.000000
  70
    32
  0
VERTEX
  8
┌▓È_1
  5
E29
 10
698.206
 20
-261.187
 30
0.000000
  70
    32
  0
VERTEX
  8
┌▓È_1
  5
E2A
 10
698.151
 20
-261.167
 30
0.000000
  70
    32
  0
VERTEX
  8
┌▓È_1
  5
E2B
 10
698.096
 20
-261.149
 30
0.000000
  70
    32
  0
VERTEX
  8
┌▓È_1
  5
E2C
 10
698.040
 20
-261.131
 30
0.000000
  70
    32
  0
VERTEX
  8
┌▓È_1
  5
E2D
 10
697.985
 20
-261.114
 30
0.000000
  70
    32
  0
VERTEX
  8
┌▓È_1
  5
E2E
 10
697.930
 20
-261.098
 30
0.000000
  70
    32
  0
VERTEX
  8
┌▓È_1
  5
E2F
 10
697.874
 20
-261.083
 30
0.000000
  70
    32
  0
VERTEX
  8
┌▓È_1
  5
E30
 10
697.819
 20
-261.069
 30
0.000000
  70
    32
  0
VERTEX
  8
┌▓È_1
  5
E31
 10
697.764
 20
-261.056
 30
0.000000
  70
    32
  0
VERTEX
  8
┌▓È_1
  5
E32
 10
697.708
 20
-261.043
 30
0.000000
  70
    32
  0
VERTEX
  8
┌▓È_1
  5
E33
 10
697.653
 20
-261.032
 30
0.000000
  70
    32
  0
VERTEX
  8
┌▓È_1
  5
E34
 10
697.598
 20
-261.021
 30
0.000000
  70
    32
  0
VERTEX
  8
┌▓È_1
  5
E35
 10
697.543
 20
-261.011
 30
0.000000
  70
    32
  0
VERTEX
  8
┌▓È_1
  5
E36
 10
697.487
 20
-261.003
 30
0.000000
  70
    32
  0
VERTEX
  8
┌▓È_1
  5
E37
 10
697.432
 20
-260.995
 30
0.000000
  70
    32
  0
VERTEX
  8
┌▓È_1
  5
E38
 10
697.377
 20
-260.988
 30
0.000000
  70
    32
  0
VERTEX
  8
┌▓È_1
  5
E39
 10
697.322
 20
-260.982
 30
0.000000
  70
    32
  0
VERTEX
  8
┌▓È_1
  5
E3A
 10
697.266
 20
-260.978
 30
0.000000
  70
    32
  0
VERTEX
  8
┌▓È_1
  5
E3B
 10
697.211
 20
-260.974
 30
0.000000
  70
    32
  0
VERTEX
  8
┌▓È_1
  5
E3C
 10
697.156
 20
-260.971
 30
0.000000
  70
    32
  0
VERTEX
  8
┌▓È_1
  5
E3D
 10
697.101
 20
-260.970
 30
0.000000
  70
    32
  0
VERTEX
  8
┌▓È_1
  5
E3E
 10
697.046
 20
-260.969
 30
0.000000
  70
    32
  0
VERTEX
  8
┌▓È_1
  5
E3F
 10
696.990
 20
-260.970
 30
0.000000
  70
    32
  0
VERTEX
  8
┌▓È_1
  5
E40
 10
696.935
 20
-260.971
 30
0.000000
  70
    32
  0
VERTEX
  8
┌▓È_1
  5
E41
 10
696.880
 20
-260.974
 30
0.000000
  70
    32
  0
VERTEX
  8
┌▓È_1
  5
E42
 10
696.825
 20
-260.978
 30
0.000000
  70
    32
  0
VERTEX
  8
┌▓È_1
  5
E43
 10
696.770
 20
-260.982
 30
0.000000
  70
    32
  0
VERTEX
  8
┌▓È_1
  5
E44
 10
696.715
 20
-260.988
 30
0.000000
  70
    32
  0
VERTEX
  8
┌▓È_1
  5
E45
 10
696.660
 20
-260.995
 30
0.000000
  70
    32
  0
VERTEX
  8
┌▓È_1
  5
E46
 10
696.605
 20
-261.003
 30
0.000000
  70
    32
  0
VERTEX
  8
┌▓È_1
  5
E47
 10
696.550
 20
-261.012
 30
0.000000
  70
    32
  0
VERTEX
  8
┌▓È_1
  5
E48
 10
696.494
 20
-261.022
 30
0.000000
  70
    32
  0
VERTEX
  8
┌▓È_1
  5
E49
 10
696.439
 20
-261.032
 30
0.000000
  70
    32
  0
VERTEX
  8
┌▓È_1
  5
E4A
 10
696.384
 20
-261.044
 30
0.000000
  70
    32
  0
VERTEX
  8
┌▓È_1
  5
E4B
 10
696.329
 20
-261.057
 30
0.000000
  70
    32
  0
VERTEX
  8
┌▓È_1
  5
E4C
 10
696.274
 20
-261.070
 30
0.000000
  70
    32
  0
VERTEX
  8
┌▓È_1
  5
E4D
 10
696.219
 20
-261.085
 30
0.000000
  70
    32
  0
VERTEX
  8
┌▓È_1
  5
E4E
 10
696.164
 20
-261.100
 30
0.000000
  70
    32
  0
VERTEX
  8
┌▓È_1
  5
E4F
 10
696.109
 20
-261.117
 30
0.000000
  70
    32
  0
VERTEX
  8
┌▓È_1
  5
E50
 10
696.054
 20
-261.134
 30
0.000000
  70
    32
  0
VERTEX
  8
┌▓È_1
  5
E51
 10
695.999
 20
-261.152
 30
0.000000
  70
    32
  0
VERTEX
  8
┌▓È_1
  5
E52
 10
695.944
 20
-261.171
 30
0.000000
  70
    32
  0
VERTEX
  8
┌▓È_1
  5
E53
 10
695.889
 20
-261.191
 30
0.000000
  70
    32
  0
VERTEX
  8
┌▓È_1
  5
E54
 10
695.834
 20
-261.211
 30
0.000000
  70
    32
  0
VERTEX
  8
┌▓È_1
  5
E55
 10
695.780
 20
-261.232
 30
0.000000
  70
    32
  0
VERTEX
  8
┌▓È_1
  5
E56
 10
695.725
 20
-261.255
 30
0.000000
  70
    32
  0
VERTEX
  8
┌▓È_1
  5
E57
 10
695.670
 20
-261.277
 30
0.000000
  70
    32
  0
VERTEX
  8
┌▓È_1
  5
E58
 10
695.615
 20
-261.301
 30
0.000000
  70
    32
  0
VERTEX
  8
┌▓È_1
  5
E59
 10
695.560
 20
-261.325
 30
0.000000
  70
    32
  0
VERTEX
  8
┌▓È_1
  5
E5A
 10
695.505
 20
-261.351
 30
0.000000
  70
    32
  0
VERTEX
  8
┌▓È_1
  5
E5B
 10
695.450
 20
-261.376
 30
0.000000
  70
    32
  0
VERTEX
  8
┌▓È_1
  5
E5C
 10
695.395
 20
-261.403
 30
0.000000
  70
    32
  0
VERTEX
  8
┌▓È_1
  5
E5D
 10
695.340
 20
-261.430
 30
0.000000
  70
    32
  0
VERTEX
  8
┌▓È_1
  5
E5E
 10
695.285
 20
-261.458
 30
0.000000
  70
    32
  0
VERTEX
  8
┌▓È_1
  5
E5F
 10
695.231
 20
-261.487
 30
0.000000
  70
    32
  0
VERTEX
  8
┌▓È_1
  5
E60
 10
695.176
 20
-261.516
 30
0.000000
  70
    32
  0
VERTEX
  8
┌▓È_1
  5
E61
 10
695.121
 20
-261.546
 30
0.000000
  70
    32
  0
VERTEX
  8
┌▓È_1
  5
E62
 10
695.066
 20
-261.576
 30
0.000000
  70
    32
  0
VERTEX
  8
┌▓È_1
  5
E63
 10
695.011
 20
-261.607
 30
0.000000
  70
    32
  0
VERTEX
  8
┌▓È_1
  5
E64
 10
694.956
 20
-261.639
 30
0.000000
  70
    32
  0
VERTEX
  8
┌▓È_1
  5
E65
 10
694.902
 20
-261.671
 30
0.000000
  70
    32
  0
VERTEX
  8
┌▓È_1
  5
E66
 10
694.847
 20
-261.704
 30
0.000000
  70
    32
  0
VERTEX
  8
┌▓È_1
  5
E67
 10
694.792
 20
-261.737
 30
0.000000
  70
    32
  0
VERTEX
  8
┌▓È_1
  5
E68
 10
694.737
 20
-261.771
 30
0.000000
  70
    32
  0
VERTEX
  8
┌▓È_1
  5
E69
 10
694.682
 20
-261.805
 30
0.000000
  70
    32
  0
VERTEX
  8
┌▓È_1
  5
E6A
 10
694.627
 20
-261.840
 30
0.000000
  70
    32
  0
VERTEX
  8
┌▓È_1
  5
E6B
 10
694.573
 20
-261.875
 30
0.000000
  70
    32
  0
VERTEX
  8
┌▓È_1
  5
E6C
 10
694.518
 20
-261.911
 30
0.000000
  70
    32
  0
VERTEX
  8
┌▓È_1
  5
E6D
 10
694.463
 20
-261.948
 30
0.000000
  70
    32
  0
VERTEX
  8
┌▓È_1
  5
E6E
 10
694.408
 20
-261.984
 30
0.000000
  70
    32
  0
VERTEX
  8
┌▓È_1
  5
E6F
 10
694.354
 20
-262.022
 30
0.000000
  70
    32
  0
VERTEX
  8
┌▓È_1
  5
E70
 10
694.299
 20
-262.059
 30
0.000000
  70
    32
  0
VERTEX
  8
┌▓È_1
  5
E71
 10
694.244
 20
-262.097
 30
0.000000
  70
    32
  0
VERTEX
  8
┌▓È_1
  5
E72
 10
694.189
 20
-262.136
 30
0.000000
  70
    32
  0
VERTEX
  8
┌▓È_1
  5
E73
 10
694.135
 20
-262.174
 30
0.000000
  70
    32
  0
VERTEX
  8
┌▓È_1
  5
E74
 10
694.080
 20
-262.213
 30
0.000000
  70
    32
  0
VERTEX
  8
┌▓È_1
  5
E75
 10
694.025
 20
-262.253
 30
0.000000
  70
    32
  0
VERTEX
  8
┌▓È_1
  5
E76
 10
693.970
 20
-262.293
 30
0.000000
  70
    32
  0
VERTEX
  8
┌▓È_1
  5
E77
 10
693.916
 20
-262.333
 30
0.000000
  70
    32
  0
VERTEX
  8
┌▓È_1
  5
E78
 10
693.861
 20
-262.373
 30
0.000000
  70
    32
  0
VERTEX
  8
┌▓È_1
  5
E79
 10
693.806
 20
-262.414
 30
0.000000
  70
    32
  0
VERTEX
  8
┌▓È_1
  5
E7A
 10
693.751
 20
-262.455
 30
0.000000
  70
    32
  0
VERTEX
  8
┌▓È_1
  5
E7B
 10
693.697
 20
-262.497
 30
0.000000
  70
    32
  0
VERTEX
  8
┌▓È_1
  5
E7C
 10
693.642
 20
-262.538
 30
0.000000
  70
    32
  0
VERTEX
  8
┌▓È_1
  5
E7D
 10
693.587
 20
-262.580
 30
0.000000
  70
    32
  0
VERTEX
  8
┌▓È_1
  5
E7E
 10
693.533
 20
-262.622
 30
0.000000
  70
    32
  0
VERTEX
  8
┌▓È_1
  5
E7F
 10
693.478
 20
-262.664
 30
0.000000
  70
    32
  0
VERTEX
  8
┌▓È_1
  5
E80
 10
693.423
 20
-262.707
 30
0.000000
  70
    32
  0
VERTEX
  8
┌▓È_1
  5
E81
 10
693.368
 20
-262.749
 30
0.000000
  70
    32
  0
VERTEX
  8
┌▓È_1
  5
E82
 10
693.314
 20
-262.792
 30
0.000000
  70
    32
  0
VERTEX
  8
┌▓È_1
  5
E83
 10
693.259
 20
-262.835
 30
0.000000
  70
    32
  0
VERTEX
  8
┌▓È_1
  5
E84
 10
693.204
 20
-262.878
 30
0.000000
  70
    32
  0
VERTEX
  8
┌▓È_1
  5
E85
 10
693.150
 20
-262.921
 30
0.000000
  70
    32
  0
VERTEX
  8
┌▓È_1
  5
E86
 10
693.095
 20
-262.965
 30
0.000000
  70
    32
  0
VERTEX
  8
┌▓È_1
  5
E87
 10
693.040
 20
-263.008
 30
0.000000
  70
    32
  0
VERTEX
  8
┌▓È_1
  5
E88
 10
692.985
 20
-263.051
 30
0.000000
  70
    32
  0
VERTEX
  8
┌▓È_1
  5
E89
 10
692.931
 20
-263.095
 30
0.000000
  70
    32
  0
VERTEX
  8
┌▓È_1
  5
E8A
 10
692.876
 20
-263.139
 30
0.000000
  70
    32
  0
VERTEX
  8
┌▓È_1
  5
E8B
 10
692.821
 20
-263.182
 30
0.000000
  70
    32
  0
VERTEX
  8
┌▓È_1
  5
E8C
 10
692.767
 20
-263.226
 30
0.000000
  70
    32
  0
VERTEX
  8
┌▓È_1
  5
E8D
 10
692.712
 20
-263.270
 30
0.000000
  70
    32
  0
SEQEND
  8
┌▓È_1
  5
E8E
  0
POLYLINE
  8
┌▓È_1
  5
E8F
  62
5
  66
     1
 10
0.000000
 20
0.000000
 30
0.000000
  70
     8
  0
VERTEX
  8
┌▓È_1
  5
E90
 10
701.017
 20
-261.270
 30
0.000000
  70
    32
  0
VERTEX
  8
┌▓È_1
  5
E91
 10
701.057
 20
-261.224
 30
0.000000
  70
    32
  0
VERTEX
  8
┌▓È_1
  5
E92
 10
701.097
 20
-261.178
 30
0.000000
  70
    32
  0
VERTEX
  8
┌▓È_1
  5
E93
 10
701.137
 20
-261.133
 30
0.000000
  70
    32
  0
VERTEX
  8
┌▓È_1
  5
E94
 10
701.177
 20
-261.088
 30
0.000000
  70
    32
  0
VERTEX
  8
┌▓È_1
  5
E95
 10
701.217
 20
-261.043
 30
0.000000
  70
    32
  0
VERTEX
  8
┌▓È_1
  5
E96
 10
701.256
 20
-260.999
 30
0.000000
  70
    32
  0
VERTEX
  8
┌▓È_1
  5
E97
 10
701.296
 20
-260.955
 30
0.000000
  70
    32
  0
VERTEX
  8
┌▓È_1
  5
E98
 10
701.336
 20
-260.912
 30
0.000000
  70
    32
  0
VERTEX
  8
┌▓È_1
  5
E99
 10
701.376
 20
-260.869
 30
0.000000
  70
    32
  0
VERTEX
  8
┌▓È_1
  5
E9A
 10
701.416
 20
-260.827
 30
0.000000
  70
    32
  0
VERTEX
  8
┌▓È_1
  5
E9B
 10
701.456
 20
-260.785
 30
0.000000
  70
    32
  0
VERTEX
  8
┌▓È_1
  5
E9C
 10
701.495
 20
-260.743
 30
0.000000
  70
    32
  0
VERTEX
  8
┌▓È_1
  5
E9D
 10
701.535
 20
-260.703
 30
0.000000
  70
    32
  0
VERTEX
  8
┌▓È_1
  5
E9E
 10
701.575
 20
-260.662
 30
0.000000
  70
    32
  0
VERTEX
  8
┌▓È_1
  5
E9F
 10
701.615
 20
-260.622
 30
0.000000
  70
    32
  0
VERTEX
  8
┌▓È_1
  5
EA0
 10
701.655
 20
-260.583
 30
0.000000
  70
    32
  0
VERTEX
  8
┌▓È_1
  5
EA1
 10
701.695
 20
-260.544
 30
0.000000
  70
    32
  0
VERTEX
  8
┌▓È_1
  5
EA2
 10
701.734
 20
-260.505
 30
0.000000
  70
    32
  0
VERTEX
  8
┌▓È_1
  5
EA3
 10
701.774
 20
-260.468
 30
0.000000
  70
    32
  0
VERTEX
  8
┌▓È_1
  5
EA4
 10
701.814
 20
-260.430
 30
0.000000
  70
    32
  0
VERTEX
  8
┌▓È_1
  5
EA5
 10
701.854
 20
-260.393
 30
0.000000
  70
    32
  0
VERTEX
  8
┌▓È_1
  5
EA6
 10
701.894
 20
-260.357
 30
0.000000
  70
    32
  0
VERTEX
  8
┌▓È_1
  5
EA7
 10
701.934
 20
-260.322
 30
0.000000
  70
    32
  0
VERTEX
  8
┌▓È_1
  5
EA8
 10
701.973
 20
-260.287
 30
0.000000
  70
    32
  0
VERTEX
  8
┌▓È_1
  5
EA9
 10
702.013
 20
-260.252
 30
0.000000
  70
    32
  0
VERTEX
  8
┌▓È_1
  5
EAA
 10
702.053
 20
-260.218
 30
0.000000
  70
    32
  0
VERTEX
  8
┌▓È_1
  5
EAB
 10
702.093
 20
-260.185
 30
0.000000
  70
    32
  0
VERTEX
  8
┌▓È_1
  5
EAC
 10
702.133
 20
-260.153
 30
0.000000
  70
    32
  0
VERTEX
  8
┌▓È_1
  5
EAD
 10
702.173
 20
-260.121
 30
0.000000
  70
    32
  0
VERTEX
  8
┌▓È_1
  5
EAE
 10
702.212
 20
-260.089
 30
0.000000
  70
    32
  0
VERTEX
  8
┌▓È_1
  5
EAF
 10
702.252
 20
-260.059
 30
0.000000
  70
    32
  0
VERTEX
  8
┌▓È_1
  5
EB0
 10
702.292
 20
-260.029
 30
0.000000
  70
    32
  0
VERTEX
  8
┌▓È_1
  5
EB1
 10
702.332
 20
-260.000
 30
0.000000
  70
    32
  0
VERTEX
  8
┌▓È_1
  5
EB2
 10
702.372
 20
-259.971
 30
0.000000
  70
    32
  0
VERTEX
  8
┌▓È_1
  5
EB3
 10
702.412
 20
-259.943
 30
0.000000
  70
    32
  0
VERTEX
  8
┌▓È_1
  5
EB4
 10
702.451
 20
-259.916
 30
0.000000
  70
    32
  0
VERTEX
  8
┌▓È_1
  5
EB5
 10
702.491
 20
-259.889
 30
0.000000
  70
    32
  0
VERTEX
  8
┌▓È_1
  5
EB6
 10
702.531
 20
-259.863
 30
0.000000
  70
    32
  0
VERTEX
  8
┌▓È_1
  5
EB7
 10
702.571
 20
-259.838
 30
0.000000
  70
    32
  0
VERTEX
  8
┌▓È_1
  5
EB8
 10
702.611
 20
-259.814
 30
0.000000
  70
    32
  0
VERTEX
  8
┌▓È_1
  5
EB9
 10
702.651
 20
-259.790
 30
0.000000
  70
    32
  0
VERTEX
  8
┌▓È_1
  5
EBA
 10
702.690
 20
-259.767
 30
0.000000
  70
    32
  0
VERTEX
  8
┌▓È_1
  5
EBB
 10
702.730
 20
-259.745
 30
0.000000
  70
    32
  0
VERTEX
  8
┌▓È_1
  5
EBC
 10
702.770
 20
-259.724
 30
0.000000
  70
    32
  0
VERTEX
  8
┌▓È_1
  5
EBD
 10
702.810
 20
-259.704
 30
0.000000
  70
    32
  0
VERTEX
  8
┌▓È_1
  5
EBE
 10
702.850
 20
-259.684
 30
0.000000
  70
    32
  0
VERTEX
  8
┌▓È_1
  5
EBF
 10
702.890
 20
-259.665
 30
0.000000
  70
    32
  0
VERTEX
  8
┌▓È_1
  5
EC0
 10
702.929
 20
-259.647
 30
0.000000
  70
    32
  0
VERTEX
  8
┌▓È_1
  5
EC1
 10
702.969
 20
-259.630
 30
0.000000
  70
    32
  0
VERTEX
  8
┌▓È_1
  5
EC2
 10
703.009
 20
-259.613
 30
0.000000
  70
    32
  0
VERTEX
  8
┌▓È_1
  5
EC3
 10
703.049
 20
-259.597
 30
0.000000
  70
    32
  0
VERTEX
  8
┌▓È_1
  5
EC4
 10
703.089
 20
-259.583
 30
0.000000
  70
    32
  0
VERTEX
  8
┌▓È_1
  5
EC5
 10
703.129
 20
-259.569
 30
0.000000
  70
    32
  0
VERTEX
  8
┌▓È_1
  5
EC6
 10
703.169
 20
-259.556
 30
0.000000
  70
    32
  0
VERTEX
  8
┌▓È_1
  5
EC7
 10
703.208
 20
-259.544
 30
0.000000
  70
    32
  0
VERTEX
  8
┌▓È_1
  5
EC8
 10
703.248
 20
-259.532
 30
0.000000
  70
    32
  0
VERTEX
  8
┌▓È_1
  5
EC9
 10
703.288
 20
-259.522
 30
0.000000
  70
    32
  0
VERTEX
  8
┌▓È_1
  5
ECA
 10
703.328
 20
-259.513
 30
0.000000
  70
    32
  0
VERTEX
  8
┌▓È_1
  5
ECB
 10
703.368
 20
-259.504
 30
0.000000
  70
    32
  0
VERTEX
  8
┌▓È_1
  5
ECC
 10
703.408
 20
-259.496
 30
0.000000
  70
    32
  0
VERTEX
  8
┌▓È_1
  5
ECD
 10
703.447
 20
-259.490
 30
0.000000
  70
    32
  0
VERTEX
  8
┌▓È_1
  5
ECE
 10
703.487
 20
-259.484
 30
0.000000
  70
    32
  0
VERTEX
  8
┌▓È_1
  5
ECF
 10
703.527
 20
-259.479
 30
0.000000
  70
    32
  0
VERTEX
  8
┌▓È_1
  5
ED0
 10
703.567
 20
-259.475
 30
0.000000
  70
    32
  0
VERTEX
  8
┌▓È_1
  5
ED1
 10
703.607
 20
-259.473
 30
0.000000
  70
    32
  0
VERTEX
  8
┌▓È_1
  5
ED2
 10
703.647
 20
-259.471
 30
0.000000
  70
    32
  0
VERTEX
  8
┌▓È_1
  5
ED3
 10
703.686
 20
-259.470
 30
0.000000
  70
    32
  0
VERTEX
  8
┌▓È_1
  5
ED4
 10
703.726
 20
-259.470
 30
0.000000
  70
    32
  0
VERTEX
  8
┌▓È_1
  5
ED5
 10
703.766
 20
-259.471
 30
0.000000
  70
    32
  0
VERTEX
  8
┌▓È_1
  5
ED6
 10
703.806
 20
-259.473
 30
0.000000
  70
    32
  0
VERTEX
  8
┌▓È_1
  5
ED7
 10
703.846
 20
-259.476
 30
0.000000
  70
    32
  0
VERTEX
  8
┌▓È_1
  5
ED8
 10
703.886
 20
-259.480
 30
0.000000
  70
    32
  0
VERTEX
  8
┌▓È_1
  5
ED9
 10
703.925
 20
-259.485
 30
0.000000
  70
    32
  0
VERTEX
  8
┌▓È_1
  5
EDA
 10
703.965
 20
-259.491
 30
0.000000
  70
    32
  0
VERTEX
  8
┌▓È_1
  5
EDB
 10
704.005
 20
-259.498
 30
0.000000
  70
    32
  0
VERTEX
  8
┌▓È_1
  5
EDC
 10
704.045
 20
-259.506
 30
0.000000
  70
    32
  0
VERTEX
  8
┌▓È_1
  5
EDD
 10
704.085
 20
-259.515
 30
0.000000
  70
    32
  0
VERTEX
  8
┌▓È_1
  5
EDE
 10
704.125
 20
-259.525
 30
0.000000
  70
    32
  0
VERTEX
  8
┌▓È_1
  5
EDF
 10
704.164
 20
-259.535
 30
0.000000
  70
    32
  0
VERTEX
  8
┌▓È_1
  5
EE0
 10
704.204
 20
-259.547
 30
0.000000
  70
    32
  0
VERTEX
  8
┌▓È_1
  5
EE1
 10
704.244
 20
-259.559
 30
0.000000
  70
    32
  0
VERTEX
  8
┌▓È_1
  5
EE2
 10
704.284
 20
-259.572
 30
0.000000
  70
    32
  0
VERTEX
  8
┌▓È_1
  5
EE3
 10
704.324
 20
-259.586
 30
0.000000
  70
    32
  0
VERTEX
  8
┌▓È_1
  5
EE4
 10
704.364
 20
-259.601
 30
0.000000
  70
    32
  0
VERTEX
  8
┌▓È_1
  5
EE5
 10
704.403
 20
-259.617
 30
0.000000
  70
    32
  0
VERTEX
  8
┌▓È_1
  5
EE6
 10
704.443
 20
-259.634
 30
0.000000
  70
    32
  0
VERTEX
  8
┌▓È_1
  5
EE7
 10
704.483
 20
-259.651
 30
0.000000
  70
    32
  0
VERTEX
  8
┌▓È_1
  5
EE8
 10
704.523
 20
-259.670
 30
0.000000
  70
    32
  0
VERTEX
  8
┌▓È_1
  5
EE9
 10
704.563
 20
-259.689
 30
0.000000
  70
    32
  0
VERTEX
  8
┌▓È_1
  5
EEA
 10
704.603
 20
-259.709
 30
0.000000
  70
    32
  0
VERTEX
  8
┌▓È_1
  5
EEB
 10
704.642
 20
-259.730
 30
0.000000
  70
    32
  0
VERTEX
  8
┌▓È_1
  5
EEC
 10
704.682
 20
-259.751
 30
0.000000
  70
    32
  0
VERTEX
  8
┌▓È_1
  5
EED
 10
704.722
 20
-259.773
 30
0.000000
  70
    32
  0
VERTEX
  8
┌▓È_1
  5
EEE
 10
704.762
 20
-259.796
 30
0.000000
  70
    32
  0
VERTEX
  8
┌▓È_1
  5
EEF
 10
704.802
 20
-259.820
 30
0.000000
  70
    32
  0
VERTEX
  8
┌▓È_1
  5
EF0
 10
704.842
 20
-259.845
 30
0.000000
  70
    32
  0
VERTEX
  8
┌▓È_1
  5
EF1
 10
704.882
 20
-259.870
 30
0.000000
  70
    32
  0
VERTEX
  8
┌▓È_1
  5
EF2
 10
704.921
 20
-259.896
 30
0.000000
  70
    32
  0
VERTEX
  8
┌▓È_1
  5
EF3
 10
704.961
 20
-259.923
 30
0.000000
  70
    32
  0
VERTEX
  8
┌▓È_1
  5
EF4
 10
705.001
 20
-259.950
 30
0.000000
  70
    32
  0
VERTEX
  8
┌▓È_1
  5
EF5
 10
705.041
 20
-259.978
 30
0.000000
  70
    32
  0
VERTEX
  8
┌▓È_1
  5
EF6
 10
705.081
 20
-260.007
 30
0.000000
  70
    32
  0
VERTEX
  8
┌▓È_1
  5
EF7
 10
705.121
 20
-260.037
 30
0.000000
  70
    32
  0
VERTEX
  8
┌▓È_1
  5
EF8
 10
705.160
 20
-260.067
 30
0.000000
  70
    32
  0
VERTEX
  8
┌▓È_1
  5
EF9
 10
705.200
 20
-260.097
 30
0.000000
  70
    32
  0
VERTEX
  8
┌▓È_1
  5
EFA
 10
705.240
 20
-260.129
 30
0.000000
  70
    32
  0
VERTEX
  8
┌▓È_1
  5
EFB
 10
705.280
 20
-260.161
 30
0.000000
  70
    32
  0
VERTEX
  8
┌▓È_1
  5
EFC
 10
705.320
 20
-260.194
 30
0.000000
  70
    32
  0
VERTEX
  8
┌▓È_1
  5
EFD
 10
705.360
 20
-260.227
 30
0.000000
  70
    32
  0
VERTEX
  8
┌▓È_1
  5
EFE
 10
705.399
 20
-260.261
 30
0.000000
  70
    32
  0
VERTEX
  8
┌▓È_1
  5
EFF
 10
705.439
 20
-260.296
 30
0.000000
  70
    32
  0
VERTEX
  8
┌▓È_1
  5
F00
 10
705.479
 20
-260.331
 30
0.000000
  70
    32
  0
VERTEX
  8
┌▓È_1
  5
F01
 10
705.519
 20
-260.367
 30
0.000000
  70
    32
  0
VERTEX
  8
┌▓È_1
  5
F02
 10
705.559
 20
-260.403
 30
0.000000
  70
    32
  0
VERTEX
  8
┌▓È_1
  5
F03
 10
705.599
 20
-260.440
 30
0.000000
  70
    32
  0
VERTEX
  8
┌▓È_1
  5
F04
 10
705.638
 20
-260.477
 30
0.000000
  70
    32
  0
VERTEX
  8
┌▓È_1
  5
F05
 10
705.678
 20
-260.515
 30
0.000000
  70
    32
  0
VERTEX
  8
┌▓È_1
  5
F06
 10
705.718
 20
-260.554
 30
0.000000
  70
    32
  0
VERTEX
  8
┌▓È_1
  5
F07
 10
705.758
 20
-260.593
 30
0.000000
  70
    32
  0
VERTEX
  8
┌▓È_1
  5
F08
 10
705.798
 20
-260.632
 30
0.000000
  70
    32
  0
VERTEX
  8
┌▓È_1
  5
F09
 10
705.838
 20
-260.672
 30
0.000000
  70
    32
  0
VERTEX
  8
┌▓È_1
  5
F0A
 10
705.877
 20
-260.713
 30
0.000000
  70
    32
  0
VERTEX
  8
┌▓È_1
  5
F0B
 10
705.917
 20
-260.754
 30
0.000000
  70
    32
  0
VERTEX
  8
┌▓È_1
  5
F0C
 10
705.957
 20
-260.796
 30
0.000000
  70
    32
  0
VERTEX
  8
┌▓È_1
  5
F0D
 10
705.997
 20
-260.838
 30
0.000000
  70
    32
  0
VERTEX
  8
┌▓È_1
  5
F0E
 10
706.037
 20
-260.880
 30
0.000000
  70
    32
  0
VERTEX
  8
┌▓È_1
  5
F0F
 10
706.077
 20
-260.923
 30
0.000000
  70
    32
  0
VERTEX
  8
┌▓È_1
  5
F10
 10
706.116
 20
-260.966
 30
0.000000
  70
    32
  0
VERTEX
  8
┌▓È_1
  5
F11
 10
706.156
 20
-261.010
 30
0.000000
  70
    32
  0
VERTEX
  8
┌▓È_1
  5
F12
 10
706.196
 20
-261.055
 30
0.000000
  70
    32
  0
VERTEX
  8
┌▓È_1
  5
F13
 10
706.236
 20
-261.099
 30
0.000000
  70
    32
  0
VERTEX
  8
┌▓È_1
  5
F14
 10
706.276
 20
-261.144
 30
0.000000
  70
    32
  0
VERTEX
  8
┌▓È_1
  5
F15
 10
706.316
 20
-261.190
 30
0.000000
  70
    32
  0
VERTEX
  8
┌▓È_1
  5
F16
 10
706.355
 20
-261.235
 30
0.000000
  70
    32
  0
VERTEX
  8
┌▓È_1
  5
F17
 10
706.395
 20
-261.282
 30
0.000000
  70
    32
  0
VERTEX
  8
┌▓È_1
  5
F18
 10
706.435
 20
-261.328
 30
0.000000
  70
    32
  0
VERTEX
  8
┌▓È_1
  5
F19
 10
706.475
 20
-261.375
 30
0.000000
  70
    32
  0
VERTEX
  8
┌▓È_1
  5
F1A
 10
706.515
 20
-261.422
 30
0.000000
  70
    32
  0
VERTEX
  8
┌▓È_1
  5
F1B
 10
706.555
 20
-261.470
 30
0.000000
  70
    32
  0
VERTEX
  8
┌▓È_1
  5
F1C
 10
706.595
 20
-261.518
 30
0.000000
  70
    32
  0
VERTEX
  8
┌▓È_1
  5
F1D
 10
706.634
 20
-261.566
 30
0.000000
  70
    32
  0
VERTEX
  8
┌▓È_1
  5
F1E
 10
706.674
 20
-261.615
 30
0.000000
  70
    32
  0
VERTEX
  8
┌▓È_1
  5
F1F
 10
706.714
 20
-261.664
 30
0.000000
  70
    32
  0
VERTEX
  8
┌▓È_1
  5
F20
 10
706.754
 20
-261.713
 30
0.000000
  70
    32
  0
VERTEX
  8
┌▓È_1
  5
F21
 10
706.794
 20
-261.762
 30
0.000000
  70
    32
  0
VERTEX
  8
┌▓È_1
  5
F22
 10
706.834
 20
-261.812
 30
0.000000
  70
    32
  0
VERTEX
  8
┌▓È_1
  5
F23
 10
706.873
 20
-261.862
 30
0.000000
  70
    32
  0
VERTEX
  8
┌▓È_1
  5
F24
 10
706.913
 20
-261.912
 30
0.000000
  70
    32
  0
VERTEX
  8
┌▓È_1
  5
F25
 10
706.953
 20
-261.963
 30
0.000000
  70
    32
  0
VERTEX
  8
┌▓È_1
  5
F26
 10
706.993
 20
-262.014
 30
0.000000
  70
    32
  0
VERTEX
  8
┌▓È_1
  5
F27
 10
707.033
 20
-262.064
 30
0.000000
  70
    32
  0
VERTEX
  8
┌▓È_1
  5
F28
 10
707.073
 20
-262.116
 30
0.000000
  70
    32
  0
VERTEX
  8
┌▓È_1
  5
F29
 10
707.112
 20
-262.167
 30
0.000000
  70
    32
  0
VERTEX
  8
┌▓È_1
  5
F2A
 10
707.152
 20
-262.219
 30
0.000000
  70
    32
  0
VERTEX
  8
┌▓È_1
  5
F2B
 10
707.192
 20
-262.270
 30
0.000000
  70
    32
  0
VERTEX
  8
┌▓È_1
  5
F2C
 10
707.232
 20
-262.322
 30
0.000000
  70
    32
  0
VERTEX
  8
┌▓È_1
  5
F2D
 10
707.272
 20
-262.374
 30
0.000000
  70
    32
  0
VERTEX
  8
┌▓È_1
  5
F2E
 10
707.312
 20
-262.427
 30
0.000000
  70
    32
  0
VERTEX
  8
┌▓È_1
  5
F2F
 10
707.351
 20
-262.479
 30
0.000000
  70
    32
  0
SEQEND
  8
┌▓È_1
  5
F30
  0
POLYLINE
  8
┌▓È_1
  5
F31
  62
5
  66
     1
 10
0.000000
 20
0.000000
 30
0.000000
  70
     8
  0
VERTEX
  8
┌▓È_1
  5
F32
 10
702.687
 20
-261.270
 30
0.000000
  70
    32
  0
VERTEX
  8
┌▓È_1
  5
F33
 10
702.712
 20
-261.255
 30
0.000000
  70
    32
  0
VERTEX
  8
┌▓È_1
  5
F34
 10
702.738
 20
-261.241
 30
0.000000
  70
    32
  0
VERTEX
  8
┌▓È_1
  5
F35
 10
702.764
 20
-261.227
 30
0.000000
  70
    32
  0
VERTEX
  8
┌▓È_1
  5
F36
 10
702.790
 20
-261.214
 30
0.000000
  70
    32
  0
VERTEX
  8
┌▓È_1
  5
F37
 10
702.816
 20
-261.201
 30
0.000000
  70
    32
  0
VERTEX
  8
┌▓È_1
  5
F38
 10
702.842
 20
-261.188
 30
0.000000
  70
    32
  0
VERTEX
  8
┌▓È_1
  5
F39
 10
702.868
 20
-261.175
 30
0.000000
  70
    32
  0
VERTEX
  8
┌▓È_1
  5
F3A
 10
702.894
 20
-261.163
 30
0.000000
  70
    32
  0
VERTEX
  8
┌▓È_1
  5
F3B
 10
702.919
 20
-261.151
 30
0.000000
  70
    32
  0
VERTEX
  8
┌▓È_1
  5
F3C
 10
702.945
 20
-261.140
 30
0.000000
  70
    32
  0
VERTEX
  8
┌▓È_1
  5
F3D
 10
702.971
 20
-261.129
 30
0.000000
  70
    32
  0
VERTEX
  8
┌▓È_1
  5
F3E
 10
702.997
 20
-261.118
 30
0.000000
  70
    32
  0
VERTEX
  8
┌▓È_1
  5
F3F
 10
703.023
 20
-261.108
 30
0.000000
  70
    32
  0
VERTEX
  8
┌▓È_1
  5
F40
 10
703.049
 20
-261.098
 30
0.000000
  70
    32
  0
VERTEX
  8
┌▓È_1
  5
F41
 10
703.075
 20
-261.088
 30
0.000000
  70
    32
  0
VERTEX
  8
┌▓È_1
  5
F42
 10
703.100
 20
-261.079
 30
0.000000
  70
    32
  0
VERTEX
  8
┌▓È_1
  5
F43
 10
703.126
 20
-261.070
 30
0.000000
  70
    32
  0
VERTEX
  8
┌▓È_1
  5
F44
 10
703.152
 20
-261.061
 30
0.000000
  70
    32
  0
VERTEX
  8
┌▓È_1
  5
F45
 10
703.178
 20
-261.053
 30
0.000000
  70
    32
  0
VERTEX
  8
┌▓È_1
  5
F46
 10
703.204
 20
-261.045
 30
0.000000
  70
    32
  0
VERTEX
  8
┌▓È_1
  5
F47
 10
703.230
 20
-261.037
 30
0.000000
  70
    32
  0
VERTEX
  8
┌▓È_1
  5
F48
 10
703.256
 20
-261.030
 30
0.000000
  70
    32
  0
VERTEX
  8
┌▓È_1
  5
F49
 10
703.282
 20
-261.024
 30
0.000000
  70
    32
  0
VERTEX
  8
┌▓È_1
  5
F4A
 10
703.307
 20
-261.017
 30
0.000000
  70
    32
  0
VERTEX
  8
┌▓È_1
  5
F4B
 10
703.333
 20
-261.011
 30
0.000000
  70
    32
  0
VERTEX
  8
┌▓È_1
  5
F4C
 10
703.359
 20
-261.006
 30
0.000000
  70
    32
  0
VERTEX
  8
┌▓È_1
  5
F4D
 10
703.385
 20
-261.001
 30
0.000000
  70
    32
  0
VERTEX
  8
┌▓È_1
  5
F4E
 10
703.411
 20
-260.996
 30
0.000000
  70
    32
  0
VERTEX
  8
┌▓È_1
  5
F4F
 10
703.437
 20
-260.991
 30
0.000000
  70
    32
  0
VERTEX
  8
┌▓È_1
  5
F50
 10
703.463
 20
-260.987
 30
0.000000
  70
    32
  0
VERTEX
  8
┌▓È_1
  5
F51
 10
703.488
 20
-260.984
 30
0.000000
  70
    32
  0
VERTEX
  8
┌▓È_1
  5
F52
 10
703.514
 20
-260.981
 30
0.000000
  70
    32
  0
VERTEX
  8
┌▓È_1
  5
F53
 10
703.540
 20
-260.978
 30
0.000000
  70
    32
  0
VERTEX
  8
┌▓È_1
  5
F54
 10
703.566
 20
-260.975
 30
0.000000
  70
    32
  0
VERTEX
  8
┌▓È_1
  5
F55
 10
703.592
 20
-260.973
 30
0.000000
  70
    32
  0
VERTEX
  8
┌▓È_1
  5
F56
 10
703.618
 20
-260.972
 30
0.000000
  70
    32
  0
VERTEX
  8
┌▓È_1
  5
F57
 10
703.644
 20
-260.971
 30
0.000000
  70
    32
  0
VERTEX
  8
┌▓È_1
  5
F58
 10
703.670
 20
-260.970
 30
0.000000
  70
    32
  0
VERTEX
  8
┌▓È_1
  5
F59
 10
703.695
 20
-260.970
 30
0.000000
  70
    32
  0
VERTEX
  8
┌▓È_1
  5
F5A
 10
703.721
 20
-260.970
 30
0.000000
  70
    32
  0
VERTEX
  8
┌▓È_1
  5
F5B
 10
703.747
 20
-260.970
 30
0.000000
  70
    32
  0
VERTEX
  8
┌▓È_1
  5
F5C
 10
703.773
 20
-260.971
 30
0.000000
  70
    32
  0
VERTEX
  8
┌▓È_1
  5
F5D
 10
703.799
 20
-260.973
 30
0.000000
  70
    32
  0
VERTEX
  8
┌▓È_1
  5
F5E
 10
703.825
 20
-260.974
 30
0.000000
  70
    32
  0
VERTEX
  8
┌▓È_1
  5
F5F
 10
703.851
 20
-260.977
 30
0.000000
  70
    32
  0
VERTEX
  8
┌▓È_1
  5
F60
 10
703.877
 20
-260.979
 30
0.000000
  70
    32
  0
VERTEX
  8
┌▓È_1
  5
F61
 10
703.902
 20
-260.982
 30
0.000000
  70
    32
  0
VERTEX
  8
┌▓È_1
  5
F62
 10
703.928
 20
-260.986
 30
0.000000
  70
    32
  0
VERTEX
  8
┌▓È_1
  5
F63
 10
703.954
 20
-260.990
 30
0.000000
  70
    32
  0
VERTEX
  8
┌▓È_1
  5
F64
 10
703.980
 20
-260.994
 30
0.000000
  70
    32
  0
VERTEX
  8
┌▓È_1
  5
F65
 10
704.006
 20
-260.998
 30
0.000000
  70
    32
  0
VERTEX
  8
┌▓È_1
  5
F66
 10
704.032
 20
-261.003
 30
0.000000
  70
    32
  0
VERTEX
  8
┌▓È_1
  5
F67
 10
704.058
 20
-261.009
 30
0.000000
  70
    32
  0
VERTEX
  8
┌▓È_1
  5
F68
 10
704.083
 20
-261.015
 30
0.000000
  70
    32
  0
VERTEX
  8
┌▓È_1
  5
F69
 10
704.109
 20
-261.021
 30
0.000000
  70
    32
  0
VERTEX
  8
┌▓È_1
  5
F6A
 10
704.135
 20
-261.027
 30
0.000000
  70
    32
  0
VERTEX
  8
┌▓È_1
  5
F6B
 10
704.161
 20
-261.034
 30
0.000000
  70
    32
  0
VERTEX
  8
┌▓È_1
  5
F6C
 10
704.187
 20
-261.042
 30
0.000000
  70
    32
  0
VERTEX
  8
┌▓È_1
  5
F6D
 10
704.213
 20
-261.049
 30
0.000000
  70
    32
  0
VERTEX
  8
┌▓È_1
  5
F6E
 10
704.239
 20
-261.057
 30
0.000000
  70
    32
  0
VERTEX
  8
┌▓È_1
  5
F6F
 10
704.265
 20
-261.066
 30
0.000000
  70
    32
  0
VERTEX
  8
┌▓È_1
  5
F70
 10
704.290
 20
-261.075
 30
0.000000
  70
    32
  0
VERTEX
  8
┌▓È_1
  5
F71
 10
704.316
 20
-261.084
 30
0.000000
  70
    32
  0
VERTEX
  8
┌▓È_1
  5
F72
 10
704.342
 20
-261.093
 30
0.000000
  70
    32
  0
VERTEX
  8
┌▓È_1
  5
F73
 10
704.368
 20
-261.103
 30
0.000000
  70
    32
  0
VERTEX
  8
┌▓È_1
  5
F74
 10
704.394
 20
-261.113
 30
0.000000
  70
    32
  0
VERTEX
  8
┌▓È_1
  5
F75
 10
704.420
 20
-261.124
 30
0.000000
  70
    32
  0
VERTEX
  8
┌▓È_1
  5
F76
 10
704.446
 20
-261.135
 30
0.000000
  70
    32
  0
VERTEX
  8
┌▓È_1
  5
F77
 10
704.471
 20
-261.146
 30
0.000000
  70
    32
  0
VERTEX
  8
┌▓È_1
  5
F78
 10
704.497
 20
-261.158
 30
0.000000
  70
    32
  0
VERTEX
  8
┌▓È_1
  5
F79
 10
704.523
 20
-261.170
 30
0.000000
  70
    32
  0
VERTEX
  8
┌▓È_1
  5
F7A
 10
704.549
 20
-261.182
 30
0.000000
  70
    32
  0
VERTEX
  8
┌▓È_1
  5
F7B
 10
704.575
 20
-261.195
 30
0.000000
  70
    32
  0
VERTEX
  8
┌▓È_1
  5
F7C
 10
704.601
 20
-261.208
 30
0.000000
  70
    32
  0
VERTEX
  8
┌▓È_1
  5
F7D
 10
704.627
 20
-261.221
 30
0.000000
  70
    32
  0
VERTEX
  8
┌▓È_1
  5
F7E
 10
704.653
 20
-261.235
 30
0.000000
  70
    32
  0
VERTEX
  8
┌▓È_1
  5
F7F
 10
704.678
 20
-261.249
 30
0.000000
  70
    32
  0
VERTEX
  8
┌▓È_1
  5
F80
 10
704.704
 20
-261.263
 30
0.000000
  70
    32
  0
VERTEX
  8
┌▓È_1
  5
F81
 10
704.730
 20
-261.278
 30
0.000000
  70
    32
  0
VERTEX
  8
┌▓È_1
  5
F82
 10
704.756
 20
-261.293
 30
0.000000
  70
    32
  0
VERTEX
  8
┌▓È_1
  5
F83
 10
704.782
 20
-261.308
 30
0.000000
  70
    32
  0
VERTEX
  8
┌▓È_1
  5
F84
 10
704.808
 20
-261.324
 30
0.000000
  70
    32
  0
VERTEX
  8
┌▓È_1
  5
F85
 10
704.834
 20
-261.340
 30
0.000000
  70
    32
  0
VERTEX
  8
┌▓È_1
  5
F86
 10
704.859
 20
-261.356
 30
0.000000
  70
    32
  0
VERTEX
  8
┌▓È_1
  5
F87
 10
704.885
 20
-261.372
 30
0.000000
  70
    32
  0
VERTEX
  8
┌▓È_1
  5
F88
 10
704.911
 20
-261.389
 30
0.000000
  70
    32
  0
VERTEX
  8
┌▓È_1
  5
F89
 10
704.937
 20
-261.406
 30
0.000000
  70
    32
  0
VERTEX
  8
┌▓È_1
  5
F8A
 10
704.963
 20
-261.424
 30
0.000000
  70
    32
  0
VERTEX
  8
┌▓È_1
  5
F8B
 10
704.989
 20
-261.442
 30
0.000000
  70
    32
  0
VERTEX
  8
┌▓È_1
  5
F8C
 10
705.015
 20
-261.460
 30
0.000000
  70
    32
  0
VERTEX
  8
┌▓È_1
  5
F8D
 10
705.041
 20
-261.478
 30
0.000000
  70
    32
  0
VERTEX
  8
┌▓È_1
  5
F8E
 10
705.066
 20
-261.497
 30
0.000000
  70
    32
  0
VERTEX
  8
┌▓È_1
  5
F8F
 10
705.092
 20
-261.516
 30
0.000000
  70
    32
  0
VERTEX
  8
┌▓È_1
  5
F90
 10
705.118
 20
-261.535
 30
0.000000
  70
    32
  0
VERTEX
  8
┌▓È_1
  5
F91
 10
705.144
 20
-261.554
 30
0.000000
  70
    32
  0
VERTEX
  8
┌▓È_1
  5
F92
 10
705.170
 20
-261.574
 30
0.000000
  70
    32
  0
VERTEX
  8
┌▓È_1
  5
F93
 10
705.196
 20
-261.594
 30
0.000000
  70
    32
  0
VERTEX
  8
┌▓È_1
  5
F94
 10
705.222
 20
-261.614
 30
0.000000
  70
    32
  0
VERTEX
  8
┌▓È_1
  5
F95
 10
705.248
 20
-261.635
 30
0.000000
  70
    32
  0
VERTEX
  8
┌▓È_1
  5
F96
 10
705.273
 20
-261.656
 30
0.000000
  70
    32
  0
VERTEX
  8
┌▓È_1
  5
F97
 10
705.299
 20
-261.677
 30
0.000000
  70
    32
  0
VERTEX
  8
┌▓È_1
  5
F98
 10
705.325
 20
-261.698
 30
0.000000
  70
    32
  0
VERTEX
  8
┌▓È_1
  5
F99
 10
705.351
 20
-261.720
 30
0.000000
  70
    32
  0
VERTEX
  8
┌▓È_1
  5
F9A
 10
705.377
 20
-261.742
 30
0.000000
  70
    32
  0
VERTEX
  8
┌▓È_1
  5
F9B
 10
705.403
 20
-261.764
 30
0.000000
  70
    32
  0
VERTEX
  8
┌▓È_1
  5
F9C
 10
705.429
 20
-261.786
 30
0.000000
  70
    32
  0
VERTEX
  8
┌▓È_1
  5
F9D
 10
705.454
 20
-261.809
 30
0.000000
  70
    32
  0
VERTEX
  8
┌▓È_1
  5
F9E
 10
705.480
 20
-261.832
 30
0.000000
  70
    32
  0
VERTEX
  8
┌▓È_1
  5
F9F
 10
705.506
 20
-261.855
 30
0.000000
  70
    32
  0
VERTEX
  8
┌▓È_1
  5
FA0
 10
705.532
 20
-261.879
 30
0.000000
  70
    32
  0
VERTEX
  8
┌▓È_1
  5
FA1
 10
705.558
 20
-261.902
 30
0.000000
  70
    32
  0
VERTEX
  8
┌▓È_1
  5
FA2
 10
705.584
 20
-261.926
 30
0.000000
  70
    32
  0
VERTEX
  8
┌▓È_1
  5
FA3
 10
705.610
 20
-261.950
 30
0.000000
  70
    32
  0
VERTEX
  8
┌▓È_1
  5
FA4
 10
705.636
 20
-261.975
 30
0.000000
  70
    32
  0
VERTEX
  8
┌▓È_1
  5
FA5
 10
705.661
 20
-261.999
 30
0.000000
  70
    32
  0
VERTEX
  8
┌▓È_1
  5
FA6
 10
705.687
 20
-262.024
 30
0.000000
  70
    32
  0
VERTEX
  8
┌▓È_1
  5
FA7
 10
705.713
 20
-262.049
 30
0.000000
  70
    32
  0
VERTEX
  8
┌▓È_1
  5
FA8
 10
705.739
 20
-262.074
 30
0.000000
  70
    32
  0
VERTEX
  8
┌▓È_1
  5
FA9
 10
705.765
 20
-262.100
 30
0.000000
  70
    32
  0
VERTEX
  8
┌▓È_1
  5
FAA
 10
705.791
 20
-262.125
 30
0.000000
  70
    32
  0
VERTEX
  8
┌▓È_1
  5
FAB
 10
705.817
 20
-262.151
 30
0.000000
  70
    32
  0
VERTEX
  8
┌▓È_1
  5
FAC
 10
705.842
 20
-262.177
 30
0.000000
  70
    32
  0
VERTEX
  8
┌▓È_1
  5
FAD
 10
705.868
 20
-262.204
 30
0.000000
  70
    32
  0
VERTEX
  8
┌▓È_1
  5
FAE
 10
705.894
 20
-262.230
 30
0.000000
  70
    32
  0
VERTEX
  8
┌▓È_1
  5
FAF
 10
705.920
 20
-262.257
 30
0.000000
  70
    32
  0
VERTEX
  8
┌▓È_1
  5
FB0
 10
705.946
 20
-262.284
 30
0.000000
  70
    32
  0
VERTEX
  8
┌▓È_1
  5
FB1
 10
705.972
 20
-262.311
 30
0.000000
  70
    32
  0
VERTEX
  8
┌▓È_1
  5
FB2
 10
705.998
 20
-262.338
 30
0.000000
  70
    32
  0
VERTEX
  8
┌▓È_1
  5
FB3
 10
706.024
 20
-262.366
 30
0.000000
  70
    32
  0
VERTEX
  8
┌▓È_1
  5
FB4
 10
706.049
 20
-262.394
 30
0.000000
  70
    32
  0
VERTEX
  8
┌▓È_1
  5
FB5
 10
706.075
 20
-262.422
 30
0.000000
  70
    32
  0
VERTEX
  8
┌▓È_1
  5
FB6
 10
706.101
 20
-262.450
 30
0.000000
  70
    32
  0
VERTEX
  8
┌▓È_1
  5
FB7
 10
706.127
 20
-262.478
 30
0.000000
  70
    32
  0
VERTEX
  8
┌▓È_1
  5
FB8
 10
706.153
 20
-262.507
 30
0.000000
  70
    32
  0
VERTEX
  8
┌▓È_1
  5
FB9
 10
706.179
 20
-262.535
 30
0.000000
  70
    32
  0
VERTEX
  8
┌▓È_1
  5
FBA
 10
706.205
 20
-262.564
 30
0.000000
  70
    32
  0
VERTEX
  8
┌▓È_1
  5
FBB
 10
706.230
 20
-262.593
 30
0.000000
  70
    32
  0
VERTEX
  8
┌▓È_1
  5
FBC
 10
706.256
 20
-262.622
 30
0.000000
  70
    32
  0
VERTEX
  8
┌▓È_1
  5
FBD
 10
706.282
 20
-262.651
 30
0.000000
  70
    32
  0
VERTEX
  8
┌▓È_1
  5
FBE
 10
706.308
 20
-262.681
 30
0.000000
  70
    32
  0
VERTEX
  8
┌▓È_1
  5
FBF
 10
706.334
 20
-262.711
 30
0.000000
  70
    32
  0
VERTEX
  8
┌▓È_1
  5
FC0
 10
706.360
 20
-262.740
 30
0.000000
  70
    32
  0
VERTEX
  8
┌▓È_1
  5
FC1
 10
706.386
 20
-262.770
 30
0.000000
  70
    32
  0
VERTEX
  8
┌▓È_1
  5
FC2
 10
706.412
 20
-262.801
 30
0.000000
  70
    32
  0
VERTEX
  8
┌▓È_1
  5
FC3
 10
706.437
 20
-262.831
 30
0.000000
  70
    32
  0
VERTEX
  8
┌▓È_1
  5
FC4
 10
706.463
 20
-262.861
 30
0.000000
  70
    32
  0
VERTEX
  8
┌▓È_1
  5
FC5
 10
706.489
 20
-262.892
 30
0.000000
  70
    32
  0
VERTEX
  8
┌▓È_1
  5
FC6
 10
706.515
 20
-262.923
 30
0.000000
  70
    32
  0
VERTEX
  8
┌▓È_1
  5
FC7
 10
706.541
 20
-262.954
 30
0.000000
  70
    32
  0
VERTEX
  8
┌▓È_1
  5
FC8
 10
706.567
 20
-262.985
 30
0.000000
  70
    32
  0
VERTEX
  8
┌▓È_1
  5
FC9
 10
706.593
 20
-263.016
 30
0.000000
  70
    32
  0
VERTEX
  8
┌▓È_1
  5
FCA
 10
706.619
 20
-263.047
 30
0.000000
  70
    32
  0
VERTEX
  8
┌▓È_1
  5
FCB
 10
706.644
 20
-263.078
 30
0.000000
  70
    32
  0
VERTEX
  8
┌▓È_1
  5
FCC
 10
706.670
 20
-263.110
 30
0.000000
  70
    32
  0
VERTEX
  8
┌▓È_1
  5
FCD
 10
706.696
 20
-263.142
 30
0.000000
  70
    32
  0
VERTEX
  8
┌▓È_1
  5
FCE
 10
706.722
 20
-263.174
 30
0.000000
  70
    32
  0
VERTEX
  8
┌▓È_1
  5
FCF
 10
706.748
 20
-263.205
 30
0.000000
  70
    32
  0
VERTEX
  8
┌▓È_1
  5
FD0
 10
706.774
 20
-263.238
 30
0.000000
  70
    32
  0
VERTEX
  8
┌▓È_1
  5
FD1
 10
706.800
 20
-263.270
 30
0.000000
  70
    32
  0
SEQEND
  8
┌▓È_1
  5
FD2
  0
LINE
  5
4A8
  8
┌▓È_1
 62
     5
 10
671.98365766580002
 20
-404.76970478179987
 30
0.0
 11
672.20129627339986
 21
-379.83079053029991
 31
0.0
  0
LINE
  5
4A9
  8
┌▓È_1
 62
     5
 10
658.08365766580005
 20
-404.76970478179987
 30
0.0
 11
658.34546369960003
 21
-374.76970478179999
 31
0.0
  0
LINE
  5
4AA
  8
┌▓È_1
 62
     5
 10
656.8836576658
 20
-404.76970478179987
 30
0.0
 11
655.85248207300003
 21
-402.9836562635
 31
0.0
  0
LINE
  5
4AB
  8
┌▓È_1
 62
     5
 10
670.48365766580002
 20
-404.76970478179987
 30
0.0
 11
669.45248207300006
 21
-402.9836562635
 31
0.0
  0
LINE
  5
4AC
  8
┌▓È_1
 62
     5
 10
669.45248207300006
 20
-402.9836562635
 30
0.0
 11
669.04575787819999
 21
-379.6824427496
 31
0.0
  0
LINE
  5
4AD
  8
┌▓È_1
 62
     5
 10
721.98365766580002
 20
-404.76970478179987
 30
0.0
 11
721.7660190583
 21
-379.83079053029991
 31
0.0
  0
LINE
  5
4AE
  8
┌▓È_1
 62
     5
 10
724.51483325869992
 20
-402.9836562635
 30
0.0
 11
724.9215574535001
 21
-379.6824427496
 31
0.0
  0
LINE
  5
4AF
  8
┌▓È_1
 62
     5
 10
738.11483325869995
 20
-402.9836562635
 30
0.0
 11
738.60889495469996
 21
-374.67888065779999
 31
0.0
  0
LINE
  5
4B0
  8
┌▓È_1
 62
     5
 10
735.88365766579989
 20
-404.76970478179987
 30
0.0
 11
735.62185163209995
 21
-374.76970478179999
 31
0.0
  0
LINE
  5
4B1
  8
┌▓È_1
 62
     5
 10
723.48365766580002
 20
-404.76970478179987
 30
0.0
 11
724.51483325869992
 21
-402.9836562635
 31
0.0
  0
LINE
  5
4B2
  8
┌▓È_1
 62
     5
 10
737.08365766580005
 20
-404.76970478179987
 30
0.0
 11
738.11483325869995
 21
-402.9836562635
 31
0.0
  0
LINE
  5
4B3
  8
┌▓È_1
 62
     5
 10
656.8836576658
 20
-404.76970478179987
 30
0.0
 11
670.48365766580002
 21
-404.76970478179987
 31
0.0
  0
LINE
  5
4B4
  8
┌▓È_1
 62
     5
 10
698.98365766579991
 20
-266.26970478179999
 30
0.0
 11
701.07315527490005
 21
-266.26970478179999
 31
0.0
  0
LINE
  5
4B5
  8
┌▓È_1
 62
     5
 10
696.98365766580002
 20
-404.76970478179987
 30
0.0
 11
723.48365766580002
 21
-404.76970478179987
 31
0.0
  0
LINE
  5
4B6
  8
┌▓È_1
 62
     5
 10
661.48365766579991
 20
-295.76970478179999
 30
0.0
 11
661.98162221719997
 21
-352.83079053029991
 31
0.0
  0
LINE
  5
4B7
  8
┌▓È_1
 62
     5
 10
670.12301058260005
 20
-278.86654394689998
 30
0.0
 11
670.72315527490002
 21
-347.26970478179999
 31
0.0
  0
LINE
  5
4B8
  8
┌▓È_1
 62
     5
 10
665.20156281189986
 20
-372.76970478179999
 30
0.0
 11
656.23365766580002
 21
-372.76970478179999
 31
0.0
  0
LINE
  5
4B9
  8
┌▓È_1
 62
     5
 10
670.72315527490002
 20
-347.26970478179999
 30
0.0
 11
672.72315527490002
 21
-347.26970478179999
 31
0.0
  0
LINE
  5
4BA
  8
┌▓È_1
 62
     5
 10
659.98177452779998
 20
-352.8482436013
 30
0.0
 11
660.14697577330003
 21
-371.77843131729998
 31
0.0
  0
LINE
  5
4BB
  8
┌▓È_1
 62
     5
 10
669.15562648569994
 20
-371.76970478179999
 30
0.0
 11
669.15562648569994
 21
-361.76970478179999
 31
0.0
  0
LINE
  5
4BC
  8
┌▓È_1
 62
     5
 10
659.48365766580002
 20
-342.76970478179999
 30
0.0
 11
659.7454636995999
 21
-372.76970478179999
 31
0.0
  0
ARC
  5
4BD
  8
┌▓È_1
 62
     5
 10
665.20156281189986
 20
-379.76970478179999
 30
0.0
 40
7.0
 50
359.50000000000011
 51
90.0
  0
LINE
  5
4BE
  8
┌▓È_1
 62
     5
 10
674.3181417241999
 20
-276.26970478179999
 30
0.0
 11
685.57315527489993
 21
-276.26970478179999
 31
0.0
  0
LINE
  5
4BF
  8
┌▓È_1
 62
     5
 10
689.07315527490005
 20
-286.26970478179999
 30
0.0
 11
675.73377223660009
 21
-286.26970478179999
 31
0.0
  0
LINE
  5
4C0
  8
┌▓È_1
 62
     5
 10
659.47315527490002
 20
-271.26970478179999
 30
0.0
 11
690.57315527490005
 21
-271.26970478179999
 31
0.0
  0
ARC
  5
4C1
  8
┌▓È_1
 62
     5
 10
668.15562648569994
 20
-371.76970478179999
 30
0.0
 40
1.0
 50
270.0
 51
0.0
  0
LINE
  5
4C2
  8
┌▓È_1
 62
     5
 10
658.34546369960003
 20
-374.76970478179999
 30
0.0
 11
664.04651940240001
 21
-374.76970478179999
 31
0.0
  0
ARC
  5
4C3
  8
┌▓È_1
 62
     5
 10
664.04651940240001
 20
-379.76970478179999
 30
0.0
 40
5.0
 50
1.0
 51
90.0
  0
ARC
  5
4C4
  8
┌▓È_1
 62
     5
 10
668.98143183540003
 20
-352.76970478179999
 30
0.0
 40
9.0
 50
180.5
 51
270.0
  0
ARC
  5
4C5
  8
┌▓È_1
 62
     5
 10
668.98135567860004
 20
-352.76970478179999
 30
0.0
 40
7.0
 50
180.5
 51
270.0
  0
ARC
  5
4C6
  8
┌▓È_1
 62
     5
 10
661.14693769630003
 20
-371.76970478179999
 30
0.0
 40
1.0
 50
180.5
 51
270.0
  0
ARC
  5
4C7
  8
┌▓È_1
 62
     5
 10
666.32315527489993
 20
-278.89970478179998
 30
0.0
 40
6.9993009869999998
 50
0.0
 51
32.698256466799997
  0
LINE
  5
4C8
  8
┌▓È_1
 62
     5
 10
659.48365766580002
 20
-295.76970478179999
 30
0.0
 11
670.26253918689986
 21
-295.76970478179999
 31
0.0
  0
LINE
  5
4C9
  8
┌▓È_1
 62
     5
 10
659.47315527490002
 20
-272.76970478179999
 30
0.0
 11
661.67315527489995
 21
-272.76970478179999
 31
0.0
  0
ARC
  5
4CA
  8
┌▓È_1
 62
     5
 10
674.3181417241999
 20
-273.76970478179999
 30
0.0
 40
2.5
 50
212.6530005255
 51
270.0
  0
LINE
  5
4CB
  8
┌▓È_1
 62
     5
 10
656.48365766580002
 20
-268.76970478179999
 30
0.0
 11
656.48365766580002
 21
-280.76970478179999
 31
0.0
  0
LINE
  5
4CC
  8
┌▓È_1
 62
     5
 10
673.32245626190002
 20
-278.89970478179998
 30
0.0
 11
673.23386742900004
 21
-288.74788844310001
 31
0.0
  0
LINE
  5
4CD
  8
┌▓È_1
 62
     5
 10
703.89170872350007
 20
-286.26970478179999
 30
0.0
 11
705.07315527490005
 21
-286.26970478179999
 31
0.0
  0
LINE
  5
4CE
  8
┌▓È_1
 62
     5
 10
703.57315527490005
 20
-271.26970478179999
 30
0.0
 11
703.57315527490005
 21
-284.76970478179999
 31
0.0
  0
LINE
  5
4CF
  8
┌▓È_1
 62
     5
 10
663.47315527490002
 20
-277.36970478180001
 30
0.0
 11
663.47315527490002
 21
-274.83584670810001
 31
0.0
  0
LINE
  5
4D0
  8
┌▓È_1
 62
     5
 10
694.98365766580002
 20
-287.96970478179998
 30
0.0
 11
694.98365766580002
 21
-290.74805840689999
 31
0.0
  0
ARC
  5
4D1
  8
┌▓È_1
 62
     5
 10
675.73377223660009
 20
-288.76970478179999
 30
0.0
 40
2.5
 50
90.0
 51
179.5
  0
ARC
  5
4D2
  8
┌▓È_1
 62
     5
 10
666.31958199680003
 20
-278.89542836840002
 30
0.0
 40
7.0
 50
32.653000525500012
 51
85.0
  0
LINE
  5
4D3
  8
┌▓È_1
 62
     5
 10
659.47315527490002
 20
-271.26970478179999
 30
0.0
 11
666.92967219599996
 21
-271.92206548180002
 31
0.0
  0
LINE
  5
4D4
  8
┌▓È_1
 62
     5
 10
656.48365766580002
 20
-280.76970478179999
 30
0.0
 11
670.13970823010004
 21
-280.76970478179999
 31
0.0
  0
LINE
  5
4D5
  8
┌▓È_1
 62
     5
 10
666.65434709730005
 20
-275.11416492910001
 30
0.0
 11
663.47315527490002
 21
-274.83584670810001
 31
0.0
  0
LINE
  5
4D6
  8
┌▓È_1
 62
     5
 10
693.07315527490005
 20
-266.26970478179999
 30
0.0
 11
693.07315527490005
 21
-264.76970478179999
 31
0.0
  0
LINE
  5
4D7
  8
┌▓È_1
 62
     5
 10
694.98365766580002
 20
-285.1128505323
 30
0.0
 11
694.98365766580002
 21
-287.59698944590002
 31
0.0
  0
LINE
  5
4D8
  8
┌▓È_1
 62
     5
 10
658.8836576658
 20
-280.76970478179999
 30
0.0
 11
658.8836576658
 21
-264.76970478179999
 31
0.0
  0
LINE
  5
4D9
  8
┌▓È_1
 62
     5
 10
684.75386125930004
 20
-261.26970478179999
 30
0.0
 11
693.30355422550008
 21
-261.26970478179999
 31
0.0
  0
CIRCLE
  5
4DA
  8
┌▓È_1
 62
     5
 10
687.66580699990004
 20
-262.31637702099999
 30
0.0
 40
1.022842196899999
  0
ARC
  5
4DB
  8
┌▓È_1
 62
     5
 10
685.57315527489993
 20
-271.26970478179999
 30
0.0
 40
5.0
 50
270.0
 51
0.0
  0
ARC
  5
4DC
  8
┌▓È_1
 62
     5
 10
689.07315527490005
 20
-284.76970478179999
 30
0.0
 40
1.5
 50
270.0
 51
0.0
  0
LINE
  5
4DD
  8
┌▓È_1
 62
     5
 10
690.57315527490005
 20
-284.76970478179999
 30
0.0
 11
694.98365766580002
 21
-284.76970478179999
 31
0.0
  0
LINE
  5
4DE
  8
┌▓È_1
 62
     5
 10
659.47315527490002
 20
-277.36970478180001
 30
0.0
 11
663.47315527490002
 21
-277.36970478180001
 31
0.0
  0
LINE
  5
4DF
  8
┌▓È_1
 62
     5
 10
659.47315527490002
 20
-275.86970478180001
 30
0.0
 11
659.47315527490002
 21
-277.36970478180001
 31
0.0
  0
LINE
  5
4E0
  8
┌▓È_1
 62
     5
 10
661.67315527489995
 20
-275.86970478180001
 30
0.0
 11
659.47315527490002
 21
-275.86970478180001
 31
0.0
  0
LINE
  5
4E1
  8
┌▓È_1
 62
     5
 10
661.67315527489995
 20
-272.76970478179999
 30
0.0
 11
661.67315527489995
 21
-275.86970478180001
 31
0.0
  0
ARC
  5
4E2
  8
┌▓È_1
 62
     5
 10
666.32315527489993
 20
-278.89970478179998
 30
0.0
 40
3.7999999999999989
 50
0.5
 51
85.0
  0
LINE
  5
4E3
  8
┌▓È_1
 62
     5
 10
658.8836576658
 20
-269.76970478179999
 30
0.0
 11
655.99690631989995
 21
-264.76970478179999
 31
0.0
  0
ARC
  5
4E4
  8
┌▓È_1
 62
     5
 10
693.98365766580002
 20
-286.44184073679997
 30
0.0
 40
1.5278640450000001
 50
229.11760789089999
 51
310.88239210910001
  0
ARC
  5
4E5
  8
┌▓È_1
 62
     5
 10
693.98365766580002
 20
-286.29756882679999
 30
0.0
 40
1.5278640450000001
 50
49.117607890900011
 51
130.88239210910001
  0
LINE
  5
4E6
  8
┌▓È_1
 62
     5
 10
659.48365766580002
 20
-295.76970478179999
 30
0.0
 11
659.98177452779998
 21
-352.8482436013
 31
0.0
  0
LINE
  5
4E7
  8
┌▓È_1
 62
     5
 10
672.72315527490002
 20
-347.26970478179999
 30
0.0
 11
673.23386742900004
 21
-288.74788844310001
 31
0.0
  0
LINE
  5
4E8
  8
┌▓È_1
 62
     5
 10
694.98365766580002
 20
-263.26970478179999
 30
0.0
 11
694.98365766580002
 21
-284.76970478179999
 31
0.0
  0
LINE
  5
4E9
  8
┌▓È_1
 62
     5
 10
690.57315527490005
 20
-264.76970478179999
 30
0.0
 11
690.57315527490005
 21
-271.26970478179999
 31
0.0
  0
ARC
  5
4EA
  8
┌▓È_1
 62
     5
 10
682.61969663519994
 20
-262.26970478179999
 30
0.0
 40
1.0
 50
90.0
 51
270.0
  0
LINE
  5
4EB
  8
┌▓È_1
 62
     5
 10
682.61969663519994
 20
-263.26970478179999
 30
0.0
 11
692.71191736460003
 21
-263.26970478179999
 31
0.0
  0
LINE
  5
4EC
  8
┌▓È_1
 62
     5
 10
682.61969663519994
 20
-261.26970478179999
 30
0.0
 11
684.75386125930004
 21
-261.26970478179999
 31
0.0
  0
LINE
  5
4ED
  8
┌▓È_1
 62
     5
 10
694.98365766580002
 20
-266.26970478179999
 30
0.0
 11
693.07315527490005
 21
-266.26970478179999
 31
0.0
  0
LINE
  5
4EE
  8
┌▓È_1
 62
     5
 10
737.08365766580005
 20
-404.76970478179987
 30
0.0
 11
723.48365766580002
 21
-404.76970478179987
 31
0.0
  0
LINE
  5
4EF
  8
┌▓È_1
 62
     5
 10
734.48365766580002
 20
-295.76970478179999
 30
0.0
 11
733.98554080389988
 21
-352.8482436013
 31
0.0
  0
LINE
  5
4F0
  8
┌▓È_1
 62
     5
 10
721.42315527490007
 20
-347.26970478179999
 30
0.0
 11
720.91244312080005
 21
-288.74788844310001
 31
0.0
  0
LINE
  5
4F1
  8
┌▓È_1
 62
     5
 10
732.48365766580002
 20
-295.76970478179999
 30
0.0
 11
731.9856931144999
 21
-352.83079053029991
 31
0.0
  0
LINE
  5
4F2
  8
┌▓È_1
 62
     5
 10
746.22454258100004
 20
-298.51054184509991
 30
0.0
 11
745.86952015789996
 21
-366.3142104744
 31
0.0
  0
LINE
  5
4F3
  8
┌▓È_1
 62
     5
 10
744.23365766580002
 20
-294.76970478179999
 30
0.0
 11
744.23365766580002
 21
-366.26970478179999
 31
0.0
  0
LINE
  5
4F4
  8
┌▓È_1
 62
     5
 10
724.02329996729998
 20
-278.86654394689998
 30
0.0
 11
723.42315527489995
 21
-347.26970478179999
 31
0.0
  0
ARC
  5
4F5
  8
┌▓È_1
 62
     5
 10
729.92079592929986
 20
-379.76970478179999
 30
0.0
 40
5.0
 50
90.0
 51
179.0
  0
LINE
  5
4F6
  8
┌▓È_1
 62
     5
 10
724.81168884600004
 20
-371.76970478179999
 30
0.0
 11
724.81168884600004
 21
-361.76970478179999
 31
0.0
  0
LINE
  5
4F7
  8
┌▓È_1
 62
     5
 10
733.98554080389988
 20
-352.8482436013
 30
0.0
 11
733.82033955839995
 21
-371.77843131729998
 31
0.0
  0
ARC
  5
4F8
  8
┌▓È_1
 62
     5
 10
737.36963667369992
 20
-366.26970478179999
 30
0.0
 40
8.5
 50
278.38332390160002
 51
359.69999999999999
  0
ARC
  5
4F9
  8
┌▓È_1
 62
     5
 10
737.73365766580002
 20
-366.26970478179999
 30
0.0
 40
6.5
 50
270.0
 51
0.0
  0
LINE
  5
4FA
  8
┌▓È_1
 62
     5
 10
728.7657525198
 20
-372.76970478179999
 30
0.0
 11
737.73365766580002
 21
-372.76970478179999
 31
0.0
  0
ARC
  5
4FB
  8
┌▓È_1
 62
     5
 10
728.7657525198
 20
-379.76970478179999
 30
0.0
 40
7.0
 50
90.0
 51
180.5
  0
ARC
  5
4FC
  8
┌▓È_1
 62
     5
 10
725.81168884600004
 20
-371.76970478179999
 30
0.0
 40
1.0
 50
180.0
 51
270.0
  0
LINE
  5
4FD
  8
┌▓È_1
 62
     5
 10
734.48365766580002
 20
-342.76970478179999
 30
0.0
 11
734.22185163209997
 21
-372.76970478179999
 31
0.0
  0
LINE
  5
4FE
  8
┌▓È_1
 62
     5
 10
723.42315527489995
 20
-347.26970478179999
 30
0.0
 11
721.42315527490007
 21
-347.26970478179999
 31
0.0
  0
LINE
  5
4FF
  8
┌▓È_1
 62
     5
 10
659.47315527490002
 20
-271.26970478179999
 30
0.0
 11
659.47315527490002
 21
-272.76970478179999
 31
0.0
  0
LINE
  5
500
  8
┌▓È_1
 62
     5
 10
663.47315527490002
 20
-277.36970478180001
 30
0.0
 11
669.80153133279987
 21
-277.36970478180001
 31
0.0
  0
ARC
  5
501
  8
┌▓È_1
 62
     5
 10
724.98595965309994
 20
-352.76970478179999
 30
0.0
 40
7.0
 50
270.0
 51
359.50000000000011
  0
ARC
  5
502
  8
┌▓È_1
 62
     5
 10
732.82037763539995
 20
-371.76970478179999
 30
0.0
 40
1.0
 50
270.0
 51
359.50000000000011
  0
LINE
  5
503
  8
┌▓È_1
 62
     5
 10
735.62185163209995
 20
-374.76970478179999
 30
0.0
 11
729.92079592929986
 21
-374.76970478179999
 31
0.0
  0
LINE
  5
504
  8
┌▓È_1
 62
     5
 10
744.98365766580002
 20
-292.76970478179999
 30
0.0
 11
745.98365766580002
 21
-291.76970478179999
 31
0.0
  0
ARC
  5
505
  8
┌▓È_1
 62
     5
 10
747.97451859240005
 20
-298.51970478179999
 30
0.0
 40
1.75
 50
90.0
 51
179.69999999999999
  0
LINE
  5
506
  8
┌▓È_1
 62
     5
 10
744.98365766580002
 20
-294.76970478179999
 30
0.0
 11
744.98365766580002
 21
-282.76970478179999
 31
0.0
  0
LINE
  5
507
  8
┌▓È_1
 62
     5
 10
748.08365766580005
 20
-282.76970478179999
 30
0.0
 11
744.98365766580002
 21
-282.76970478179999
 31
0.0
  0
LINE
  5
508
  8
┌▓È_1
 62
     5
 10
748.08365766580005
 20
-282.76970478179999
 30
0.0
 11
748.08365766580005
 21
-296.76970478179999
 31
0.0
  0
LINE
  5
509
  8
┌▓È_1
 62
     5
 10
723.99782867990007
 20
-282.76970478179999
 30
0.0
 11
740.23365766580002
 21
-282.76970478179999
 31
0.0
  0
LINE
  5
50A
  8
┌▓È_1
 62
     5
 10
745.98365766580002
 20
-293.76970478179999
 30
0.0
 11
744.98365766580002
 21
-294.76970478179999
 31
0.0
  0
LINE
  5
50B
  8
┌▓È_1
 62
     5
 10
744.98365766580002
 20
-292.76970478179999
 30
0.0
 11
744.23365766580002
 21
-292.76970478179999
 31
0.0
  0
LINE
  5
50C
  8
┌▓È_1
 62
     5
 10
748.08365766580005
 20
-282.76970478179999
 30
0.0
 11
744.98365766580002
 21
-282.76970478179999
 31
0.0
  0
LINE
  5
50D
  8
┌▓È_1
 62
     5
 10
734.67315527489995
 20
-271.26970478179999
 30
0.0
 11
727.21663835379991
 21
-271.92206548180002
 31
0.0
  0
LINE
  5
50E
  8
┌▓È_1
 62
     5
 10
744.48365766580002
 20
-264.76970478179999
 30
0.0
 11
744.83365766580005
 21
-264.76970478179999
 31
0.0
  0
LINE
  5
50F
  8
┌▓È_1
 62
     5
 10
713.30577122349996
 20
-274.39037276210001
 30
0.0
 11
713.30577122349996
 21
-288.01970478179999
 31
0.0
  0
ARC
  5
510
  8
┌▓È_1
 62
     5
 10
727.82315527490005
 20
-278.89970478179998
 30
0.0
 40
3.7999999999999989
 50
95.0
 51
179.5
  0
LINE
  5
511
  8
┌▓È_1
 62
     5
 10
727.49196345250004
 20
-275.11416492910001
 30
0.0
 11
730.67315527489995
 21
-274.83584670810001
 31
0.0
  0
LINE
  5
512
  8
┌▓È_1
 62
     5
 10
745.98365766580002
 20
-282.76970478179999
 30
0.0
 11
745.98365766580002
 21
-293.76970478179999
 31
0.0
  0
ARC
  5
513
  8
┌▓È_1
 62
     5
 10
727.82315527490005
 20
-278.89970478179998
 30
0.0
 40
6.9993009869999998
 50
147.30174353320001
 51
180.0
  0
ARC
  5
514
  8
┌▓È_1
 62
     5
 10
711.55577122349996
 20
-274.51970478179999
 30
0.0
 40
1.75
 50
270.0
 51
0.0
  0
LINE
  5
515
  8
┌▓È_1
 62
     5
 10
709.99284679399977
 20
-276.26970478179999
 30
0.0
 11
708.57315527490005
 21
-276.26970478179999
 31
0.0
  0
LINE
  5
516
  8
┌▓È_1
 62
     5
 10
732.47315527490002
 20
-272.76970478179999
 30
0.0
 11
732.47315527490002
 21
-275.86970478180001
 31
0.0
  0
LINE
  5
517
  8
┌▓È_1
 62
     5
 10
738.48365766580002
 20
-267.26970478179999
 30
0.0
 11
738.48365766580002
 21
-268.76970478179999
 31
0.0
  0
LINE
  5
518
  8
┌▓È_1
 62
     5
 10
692.98365766580002
 20
-287.59698944590002
 30
0.0
 11
692.98365766580002
 21
-285.14242011779999
 31
0.0
  0
LINE
  5
519
  8
┌▓È_1
 62
     5
 10
690.57315527490005
 20
-271.26970478179999
 30
0.0
 11
690.57315527490005
 21
-284.76970478179999
 31
0.0
  0
LINE
  5
51A
  8
┌▓È_1
 62
     5
 10
744.48365766580002
 20
-267.26970478179999
 30
0.0
 11
738.48365766580002
 21
-267.26970478179999
 31
0.0
  0
LINE
  5
51B
  8
┌▓È_1
 62
     5
 10
744.48365766580002
 20
-264.76970478179999
 30
0.0
 11
744.48365766580002
 21
-267.26970478179999
 31
0.0
  0
LINE
  5
51C
  8
┌▓È_1
 62
     5
 10
747.97451859240005
 20
-296.76970478179999
 30
0.0
 11
748.08365766580005
 21
-296.76970478179999
 31
0.0
  0
ARC
  5
51D
  8
┌▓È_1
 62
     5
 10
744.23365766580002
 20
-290.76970478179999
 30
0.0
 40
2.0
 50
180.0
 51
270.0
  0
LINE
  5
51E
  8
┌▓È_1
 62
     5
 10
734.67315527489995
 20
-275.86970478180001
 30
0.0
 11
734.67315527489995
 21
-277.36970478180001
 31
0.0
  0
LINE
  5
51F
  8
┌▓È_1
 62
     5
 10
732.47315527490002
 20
-275.86970478180001
 30
0.0
 11
734.67315527489995
 21
-275.86970478180001
 31
0.0
  0
LINE
  5
520
  8
┌▓È_1
 62
     5
 10
740.48365766579991
 20
-282.76970478179999
 30
0.0
 11
740.23365766580002
 21
-282.76970478179999
 31
0.0
  0
ARC
  5
521
  8
┌▓È_1
 62
     5
 10
740.23365766580002
 20
-284.76970478179999
 30
0.0
 40
2.0
 50
0.0
 51
90.0
  0
LINE
  5
522
  8
┌▓È_1
 62
     5
 10
723.91009228220003
 20
-292.76970478179999
 30
0.0
 11
744.23365766580002
 21
-292.76970478179999
 31
0.0
  0
LINE
  5
523
  8
┌▓È_1
 62
     5
 10
711.74284679399989
 20
-288.01970478179999
 30
0.0
 11
711.74284679399989
 21
-288.62636096270001
 31
0.0
  0
LINE
  5
524
  8
┌▓È_1
 62
     5
 10
738.48365766580002
 20
-268.76970478179999
 30
0.0
 11
737.48365766580002
 21
-268.76970478179999
 31
0.0
  0
LINE
  5
525
  8
┌▓È_1
 62
     5
 10
730.67315527489995
 20
-277.36970478180001
 30
0.0
 11
730.67315527489995
 21
-274.83584670810001
 31
0.0
  0
ARC
  5
526
  8
┌▓È_1
 62
     5
 10
711.55577122349996
 20
-288.01970478179999
 30
0.0
 40
1.75
 50
0.0
 51
90.0
  0
LINE
  5
527
  8
┌▓È_1
 62
     5
 10
724.00660231970005
 20
-280.76970478179999
 30
0.0
 11
737.48365766580002
 21
-280.76970478179999
 31
0.0
  0
LINE
  5
528
  8
┌▓È_1
 62
     5
 10
734.67315527489995
 20
-272.76970478179999
 30
0.0
 11
732.47315527490002
 21
-272.76970478179999
 31
0.0
  0
LINE
  5
529
  8
┌▓È_1
 62
     5
 10
734.67315527489995
 20
-271.26970478179999
 30
0.0
 11
734.67315527489995
 21
-272.76970478179999
 31
0.0
  0
LINE
  5
52A
  8
┌▓È_1
 62
     5
 10
713.30577122349996
 20
-288.01970478179999
 30
0.0
 11
713.30577122349996
 21
-288.62636096270001
 31
0.0
  0
ARC
  5
52B
  8
┌▓È_1
 62
     5
 10
712.12639282390001
 20
-261.26970478179999
 30
0.0
 40
2.0
 50
217.20286791800001
 51
270.0
  0
ARC
  5
52C
  8
┌▓È_1
 62
     5
 10
708.94440957869995
 20
-261.26970478179999
 30
0.0
 40
2.0
 50
217.20286791800001
 51
270.0
  0
ARC
  5
52D
  8
┌▓È_1
 62
     5
 10
740.48365766579991
 20
-280.76970478179999
 30
0.0
 40
2.0
 50
180.0
 51
270.0
  0
LINE
  5
52E
  8
┌▓È_1
 62
     5
 10
737.48365766580002
 20
-280.76970478179999
 30
0.0
 11
738.48365766580002
 21
-279.76970478179999
 31
0.0
  0
LINE
  5
52F
  8
┌▓È_1
 62
     5
 10
737.48365766580002
 20
-268.76970478179999
 30
0.0
 11
737.48365766580002
 21
-280.76970478179999
 31
0.0
  0
LINE
  5
530
  8
┌▓È_1
 62
     5
 10
735.08365766580005
 20
-280.76970478179999
 30
0.0
 11
735.08365766580005
 21
-264.76970478179999
 31
0.0
  0
LINE
  5
531
  8
┌▓È_1
 62
     5
 10
744.23365766580002
 20
-342.76970478179999
 30
0.0
 11
734.48365766580002
 21
-342.76970478179999
 31
0.0
  0
ARC
  5
532
  8
┌▓È_1
 62
     5
 10
724.98588349629995
 20
-352.76970478179999
 30
0.0
 40
9.0
 50
270.0
 51
359.50000000000011
  0
ARC
  5
533
  8
┌▓È_1
 62
     5
 10
709.99284679399977
 20
-288.01970478179999
 30
0.0
 40
1.75
 50
0.0
 51
90.0
  0
ARC
  5
534
  8
┌▓È_1
 62
     5
 10
727.8267285531
 20
-278.89542836840002
 30
0.0
 40
7.0
 50
95.0
 51
147.3469994745
  0
LINE
  5
535
  8
┌▓È_1
 62
     5
 10
748.08365766580005
 20
-280.76970478179999
 30
0.0
 11
748.08365766580005
 21
-282.76970478179999
 31
0.0
  0
LINE
  5
536
  8
┌▓È_1
 62
     5
 10
742.23365766580002
 20
-284.76970478179999
 30
0.0
 11
742.23365766580002
 21
-290.76970478179999
 31
0.0
  0
LINE
  5
537
  8
┌▓È_1
 62
     5
 10
730.67315527489995
 20
-277.36970478180001
 30
0.0
 11
724.344779217
 21
-277.36970478180001
 31
0.0
  0
LINE
  5
538
  8
┌▓È_1
 62
     5
 10
711.55577122349996
 20
-286.26970478179999
 30
0.0
 11
709.99284679399977
 21
-286.26970478179999
 31
0.0
  0
LINE
  5
539
  8
┌▓È_1
 62
     5
 10
734.67315527489995
 20
-277.36970478180001
 30
0.0
 11
730.67315527489995
 21
-277.36970478180001
 31
0.0
  0
LINE
  5
53A
  8
┌▓È_1
 62
     5
 10
740.98365766580002
 20
-280.76970478179999
 30
0.0
 11
748.08365766580005
 21
-280.76970478179999
 31
0.0
  0
LINE
  5
53B
  8
┌▓È_1
 62
     5
 10
740.98365766580002
 20
-280.76970478179999
 30
0.0
 11
740.98365766580002
 21
-273.26970478179999
 31
0.0
  0
ARC
  5
53C
  8
┌▓È_1
 62
     5
 10
709.99284679399977
 20
-274.51970478179999
 30
0.0
 40
1.75
 50
270.0
 51
0.0
  0
LINE
  5
53D
  8
┌▓È_1
 62
     5
 10
744.83365766580005
 20
-263.26970478179999
 30
0.0
 11
744.83365766580005
 21
-264.76970478179999
 31
0.0
  0
LINE
  5
53E
  8
┌▓È_1
 62
     5
 10
705.07315527490005
 20
-286.26970478179999
 30
0.0
 11
709.99284679399977
 21
-286.26970478179999
 31
0.0
  0
LINE
  5
53F
  8
┌▓È_1
 62
     5
 10
740.98365766580002
 20
-273.26970478179999
 30
0.0
 11
744.33365766580005
 21
-273.26970478179999
 31
0.0
  0
LINE
  5
540
  8
┌▓È_1
 62
     5
 10
744.33365766580005
 20
-270.76970478179999
 30
0.0
 11
738.48365766580002
 21
-270.76970478179999
 31
0.0
  0
LINE
  5
541
  8
┌▓È_1
 62
     5
 10
744.33365766580005
 20
-269.26970478179999
 30
0.0
 11
738.48365766580002
 21
-269.26969378550001
 31
0.0
  0
LINE
  5
542
  8
┌▓È_1
 62
     5
 10
744.33365766580005
 20
-273.26970478179999
 30
0.0
 11
740.98365766580002
 21
-273.26970478179999
 31
0.0
  0
LINE
  5
543
  8
┌▓È_1
 62
     5
 10
744.33365766580005
 20
-273.26970478179999
 30
0.0
 11
744.33365766580005
 21
-270.76970478179999
 31
0.0
  0
LINE
  5
544
  8
┌▓È_1
 62
     5
 10
723.88377136289978
 20
-295.76970478179999
 30
0.0
 11
734.48365766580002
 21
-295.76970478179999
 31
0.0
  0
LINE
  5
545
  8
┌▓È_1
 62
     5
 10
744.98365766580002
 20
-294.76970478179999
 30
0.0
 11
723.89254500269988
 21
-294.76970478179999
 31
0.0
  0
LINE
  5
546
  8
┌▓È_1
 62
     5
 10
738.48365766580002
 20
-279.76970478179999
 30
0.0
 11
738.48365766580002
 21
-268.76970478179999
 31
0.0
  0
LINE
  5
547
  8
┌▓È_1
 62
     5
 10
720.82385428789996
 20
-278.89970478179998
 30
0.0
 11
720.91244312080005
 21
-288.74788844310001
 31
0.0
  0
LINE
  5
548
  8
┌▓È_1
 62
     5
 10
735.08365766580005
 20
-269.76970478179999
 30
0.0
 11
737.97040901179992
 21
-264.76970478179999
 31
0.0
  0
POLYLINE
  8
┌▓È_1
  5
FD3
  62
5
  66
     1
 10
0.000000
 20
0.000000
 30
0.000000
  70
     8
  0
VERTEX
  8
┌▓È_1
  5
FD4
 10
706.883
 20
-259.470
 30
0.000000
  70
    32
  0
VERTEX
  8
┌▓È_1
  5
FD5
 10
706.906
 20
-259.470
 30
0.000000
  70
    32
  0
VERTEX
  8
┌▓È_1
  5
FD6
 10
706.929
 20
-259.470
 30
0.000000
  70
    32
  0
VERTEX
  8
┌▓È_1
  5
FD7
 10
706.952
 20
-259.471
 30
0.000000
  70
    32
  0
VERTEX
  8
┌▓È_1
  5
FD8
 10
706.975
 20
-259.472
 30
0.000000
  70
    32
  0
VERTEX
  8
┌▓È_1
  5
FD9
 10
706.998
 20
-259.474
 30
0.000000
  70
    32
  0
VERTEX
  8
┌▓È_1
  5
FDA
 10
707.021
 20
-259.476
 30
0.000000
  70
    32
  0
VERTEX
  8
┌▓È_1
  5
FDB
 10
707.044
 20
-259.478
 30
0.000000
  70
    32
  0
VERTEX
  8
┌▓È_1
  5
FDC
 10
707.067
 20
-259.480
 30
0.000000
  70
    32
  0
VERTEX
  8
┌▓È_1
  5
FDD
 10
707.090
 20
-259.483
 30
0.000000
  70
    32
  0
VERTEX
  8
┌▓È_1
  5
FDE
 10
707.113
 20
-259.486
 30
0.000000
  70
    32
  0
VERTEX
  8
┌▓È_1
  5
FDF
 10
707.136
 20
-259.489
 30
0.000000
  70
    32
  0
VERTEX
  8
┌▓È_1
  5
FE0
 10
707.159
 20
-259.493
 30
0.000000
  70
    32
  0
VERTEX
  8
┌▓È_1
  5
FE1
 10
707.182
 20
-259.497
 30
0.000000
  70
    32
  0
VERTEX
  8
┌▓È_1
  5
FE2
 10
707.205
 20
-259.502
 30
0.000000
  70
    32
  0
VERTEX
  8
┌▓È_1
  5
FE3
 10
707.228
 20
-259.506
 30
0.000000
  70
    32
  0
VERTEX
  8
┌▓È_1
  5
FE4
 10
707.250
 20
-259.511
 30
0.000000
  70
    32
  0
VERTEX
  8
┌▓È_1
  5
FE5
 10
707.273
 20
-259.516
 30
0.000000
  70
    32
  0
VERTEX
  8
┌▓È_1
  5
FE6
 10
707.296
 20
-259.522
 30
0.000000
  70
    32
  0
VERTEX
  8
┌▓È_1
  5
FE7
 10
707.319
 20
-259.528
 30
0.000000
  70
    32
  0
VERTEX
  8
┌▓È_1
  5
FE8
 10
707.342
 20
-259.534
 30
0.000000
  70
    32
  0
VERTEX
  8
┌▓È_1
  5
FE9
 10
707.365
 20
-259.541
 30
0.000000
  70
    32
  0
VERTEX
  8
┌▓È_1
  5
FEA
 10
707.388
 20
-259.547
 30
0.000000
  70
    32
  0
VERTEX
  8
┌▓È_1
  5
FEB
 10
707.411
 20
-259.554
 30
0.000000
  70
    32
  0
VERTEX
  8
┌▓È_1
  5
FEC
 10
707.434
 20
-259.562
 30
0.000000
  70
    32
  0
VERTEX
  8
┌▓È_1
  5
FED
 10
707.457
 20
-259.569
 30
0.000000
  70
    32
  0
VERTEX
  8
┌▓È_1
  5
FEE
 10
707.480
 20
-259.577
 30
0.000000
  70
    32
  0
VERTEX
  8
┌▓È_1
  5
FEF
 10
707.503
 20
-259.585
 30
0.000000
  70
    32
  0
VERTEX
  8
┌▓È_1
  5
FF0
 10
707.526
 20
-259.594
 30
0.000000
  70
    32
  0
VERTEX
  8
┌▓È_1
  5
FF1
 10
707.549
 20
-259.603
 30
0.000000
  70
    32
  0
VERTEX
  8
┌▓È_1
  5
FF2
 10
707.572
 20
-259.612
 30
0.000000
  70
    32
  0
VERTEX
  8
┌▓È_1
  5
FF3
 10
707.595
 20
-259.621
 30
0.000000
  70
    32
  0
VERTEX
  8
┌▓È_1
  5
FF4
 10
707.618
 20
-259.631
 30
0.000000
  70
    32
  0
VERTEX
  8
┌▓È_1
  5
FF5
 10
707.641
 20
-259.641
 30
0.000000
  70
    32
  0
VERTEX
  8
┌▓È_1
  5
FF6
 10
707.664
 20
-259.651
 30
0.000000
  70
    32
  0
VERTEX
  8
┌▓È_1
  5
FF7
 10
707.687
 20
-259.661
 30
0.000000
  70
    32
  0
VERTEX
  8
┌▓È_1
  5
FF8
 10
707.710
 20
-259.672
 30
0.000000
  70
    32
  0
VERTEX
  8
┌▓È_1
  5
FF9
 10
707.733
 20
-259.683
 30
0.000000
  70
    32
  0
VERTEX
  8
┌▓È_1
  5
FFA
 10
707.756
 20
-259.694
 30
0.000000
  70
    32
  0
VERTEX
  8
┌▓È_1
  5
FFB
 10
707.778
 20
-259.706
 30
0.000000
  70
    32
  0
VERTEX
  8
┌▓È_1
  5
FFC
 10
707.801
 20
-259.717
 30
0.000000
  70
    32
  0
VERTEX
  8
┌▓È_1
  5
FFD
 10
707.824
 20
-259.730
 30
0.000000
  70
    32
  0
VERTEX
  8
┌▓È_1
  5
FFE
 10
707.847
 20
-259.742
 30
0.000000
  70
    32
  0
VERTEX
  8
┌▓È_1
  5
FFF
 10
707.870
 20
-259.754
 30
0.000000
  70
    32
  0
VERTEX
  8
┌▓È_1
  5
1000
 10
707.893
 20
-259.767
 30
0.000000
  70
    32
  0
VERTEX
  8
┌▓È_1
  5
1001
 10
707.916
 20
-259.780
 30
0.000000
  70
    32
  0
VERTEX
  8
┌▓È_1
  5
1002
 10
707.939
 20
-259.794
 30
0.000000
  70
    32
  0
VERTEX
  8
┌▓È_1
  5
1003
 10
707.962
 20
-259.807
 30
0.000000
  70
    32
  0
VERTEX
  8
┌▓È_1
  5
1004
 10
707.985
 20
-259.821
 30
0.000000
  70
    32
  0
VERTEX
  8
┌▓È_1
  5
1005
 10
708.008
 20
-259.835
 30
0.000000
  70
    32
  0
VERTEX
  8
┌▓È_1
  5
1006
 10
708.031
 20
-259.849
 30
0.000000
  70
    32
  0
VERTEX
  8
┌▓È_1
  5
1007
 10
708.054
 20
-259.864
 30
0.000000
  70
    32
  0
VERTEX
  8
┌▓È_1
  5
1008
 10
708.077
 20
-259.879
 30
0.000000
  70
    32
  0
VERTEX
  8
┌▓È_1
  5
1009
 10
708.100
 20
-259.894
 30
0.000000
  70
    32
  0
VERTEX
  8
┌▓È_1
  5
100A
 10
708.123
 20
-259.909
 30
0.000000
  70
    32
  0
VERTEX
  8
┌▓È_1
  5
100B
 10
708.146
 20
-259.924
 30
0.000000
  70
    32
  0
VERTEX
  8
┌▓È_1
  5
100C
 10
708.169
 20
-259.940
 30
0.000000
  70
    32
  0
VERTEX
  8
┌▓È_1
  5
100D
 10
708.192
 20
-259.956
 30
0.000000
  70
    32
  0
VERTEX
  8
┌▓È_1
  5
100E
 10
708.215
 20
-259.972
 30
0.000000
  70
    32
  0
VERTEX
  8
┌▓È_1
  5
100F
 10
708.238
 20
-259.989
 30
0.000000
  70
    32
  0
VERTEX
  8
┌▓È_1
  5
1010
 10
708.261
 20
-260.006
 30
0.000000
  70
    32
  0
VERTEX
  8
┌▓È_1
  5
1011
 10
708.284
 20
-260.022
 30
0.000000
  70
    32
  0
VERTEX
  8
┌▓È_1
  5
1012
 10
708.307
 20
-260.040
 30
0.000000
  70
    32
  0
VERTEX
  8
┌▓È_1
  5
1013
 10
708.329
 20
-260.057
 30
0.000000
  70
    32
  0
VERTEX
  8
┌▓È_1
  5
1014
 10
708.352
 20
-260.074
 30
0.000000
  70
    32
  0
VERTEX
  8
┌▓È_1
  5
1015
 10
708.375
 20
-260.092
 30
0.000000
  70
    32
  0
VERTEX
  8
┌▓È_1
  5
1016
 10
708.398
 20
-260.110
 30
0.000000
  70
    32
  0
VERTEX
  8
┌▓È_1
  5
1017
 10
708.421
 20
-260.128
 30
0.000000
  70
    32
  0
VERTEX
  8
┌▓È_1
  5
1018
 10
708.444
 20
-260.147
 30
0.000000
  70
    32
  0
VERTEX
  8
┌▓È_1
  5
1019
 10
708.467
 20
-260.165
 30
0.000000
  70
    32
  0
VERTEX
  8
┌▓È_1
  5
101A
 10
708.490
 20
-260.184
 30
0.000000
  70
    32
  0
VERTEX
  8
┌▓È_1
  5
101B
 10
708.513
 20
-260.203
 30
0.000000
  70
    32
  0
VERTEX
  8
┌▓È_1
  5
101C
 10
708.536
 20
-260.223
 30
0.000000
  70
    32
  0
VERTEX
  8
┌▓È_1
  5
101D
 10
708.559
 20
-260.242
 30
0.000000
  70
    32
  0
VERTEX
  8
┌▓È_1
  5
101E
 10
708.582
 20
-260.262
 30
0.000000
  70
    32
  0
VERTEX
  8
┌▓È_1
  5
101F
 10
708.605
 20
-260.282
 30
0.000000
  70
    32
  0
VERTEX
  8
┌▓È_1
  5
1020
 10
708.628
 20
-260.302
 30
0.000000
  70
    32
  0
VERTEX
  8
┌▓È_1
  5
1021
 10
708.651
 20
-260.322
 30
0.000000
  70
    32
  0
VERTEX
  8
┌▓È_1
  5
1022
 10
708.674
 20
-260.342
 30
0.000000
  70
    32
  0
VERTEX
  8
┌▓È_1
  5
1023
 10
708.697
 20
-260.363
 30
0.000000
  70
    32
  0
VERTEX
  8
┌▓È_1
  5
1024
 10
708.720
 20
-260.384
 30
0.000000
  70
    32
  0
VERTEX
  8
┌▓È_1
  5
1025
 10
708.743
 20
-260.405
 30
0.000000
  70
    32
  0
VERTEX
  8
┌▓È_1
  5
1026
 10
708.766
 20
-260.426
 30
0.000000
  70
    32
  0
VERTEX
  8
┌▓È_1
  5
1027
 10
708.789
 20
-260.447
 30
0.000000
  70
    32
  0
VERTEX
  8
┌▓È_1
  5
1028
 10
708.812
 20
-260.469
 30
0.000000
  70
    32
  0
VERTEX
  8
┌▓È_1
  5
1029
 10
708.835
 20
-260.491
 30
0.000000
  70
    32
  0
VERTEX
  8
┌▓È_1
  5
102A
 10
708.857
 20
-260.513
 30
0.000000
  70
    32
  0
VERTEX
  8
┌▓È_1
  5
102B
 10
708.880
 20
-260.535
 30
0.000000
  70
    32
  0
VERTEX
  8
┌▓È_1
  5
102C
 10
708.903
 20
-260.557
 30
0.000000
  70
    32
  0
VERTEX
  8
┌▓È_1
  5
102D
 10
708.926
 20
-260.579
 30
0.000000
  70
    32
  0
VERTEX
  8
┌▓È_1
  5
102E
 10
708.949
 20
-260.602
 30
0.000000
  70
    32
  0
VERTEX
  8
┌▓È_1
  5
102F
 10
708.972
 20
-260.625
 30
0.000000
  70
    32
  0
VERTEX
  8
┌▓È_1
  5
1030
 10
708.995
 20
-260.648
 30
0.000000
  70
    32
  0
VERTEX
  8
┌▓È_1
  5
1031
 10
709.018
 20
-260.671
 30
0.000000
  70
    32
  0
VERTEX
  8
┌▓È_1
  5
1032
 10
709.041
 20
-260.694
 30
0.000000
  70
    32
  0
VERTEX
  8
┌▓È_1
  5
1033
 10
709.064
 20
-260.718
 30
0.000000
  70
    32
  0
VERTEX
  8
┌▓È_1
  5
1034
 10
709.087
 20
-260.741
 30
0.000000
  70
    32
  0
VERTEX
  8
┌▓È_1
  5
1035
 10
709.110
 20
-260.765
 30
0.000000
  70
    32
  0
VERTEX
  8
┌▓È_1
  5
1036
 10
709.133
 20
-260.789
 30
0.000000
  70
    32
  0
VERTEX
  8
┌▓È_1
  5
1037
 10
709.156
 20
-260.813
 30
0.000000
  70
    32
  0
VERTEX
  8
┌▓È_1
  5
1038
 10
709.179
 20
-260.838
 30
0.000000
  70
    32
  0
VERTEX
  8
┌▓È_1
  5
1039
 10
709.202
 20
-260.862
 30
0.000000
  70
    32
  0
VERTEX
  8
┌▓È_1
  5
103A
 10
709.225
 20
-260.887
 30
0.000000
  70
    32
  0
VERTEX
  8
┌▓È_1
  5
103B
 10
709.248
 20
-260.911
 30
0.000000
  70
    32
  0
VERTEX
  8
┌▓È_1
  5
103C
 10
709.271
 20
-260.936
 30
0.000000
  70
    32
  0
VERTEX
  8
┌▓È_1
  5
103D
 10
709.294
 20
-260.961
 30
0.000000
  70
    32
  0
VERTEX
  8
┌▓È_1
  5
103E
 10
709.317
 20
-260.986
 30
0.000000
  70
    32
  0
VERTEX
  8
┌▓È_1
  5
103F
 10
709.340
 20
-261.012
 30
0.000000
  70
    32
  0
VERTEX
  8
┌▓È_1
  5
1040
 10
709.363
 20
-261.037
 30
0.000000
  70
    32
  0
VERTEX
  8
┌▓È_1
  5
1041
 10
709.386
 20
-261.063
 30
0.000000
  70
    32
  0
VERTEX
  8
┌▓È_1
  5
1042
 10
709.408
 20
-261.088
 30
0.000000
  70
    32
  0
VERTEX
  8
┌▓È_1
  5
1043
 10
709.431
 20
-261.114
 30
0.000000
  70
    32
  0
VERTEX
  8
┌▓È_1
  5
1044
 10
709.454
 20
-261.140
 30
0.000000
  70
    32
  0
VERTEX
  8
┌▓È_1
  5
1045
 10
709.477
 20
-261.166
 30
0.000000
  70
    32
  0
VERTEX
  8
┌▓È_1
  5
1046
 10
709.500
 20
-261.193
 30
0.000000
  70
    32
  0
VERTEX
  8
┌▓È_1
  5
1047
 10
709.523
 20
-261.219
 30
0.000000
  70
    32
  0
VERTEX
  8
┌▓È_1
  5
1048
 10
709.546
 20
-261.246
 30
0.000000
  70
    32
  0
VERTEX
  8
┌▓È_1
  5
1049
 10
709.569
 20
-261.272
 30
0.000000
  70
    32
  0
VERTEX
  8
┌▓È_1
  5
104A
 10
709.592
 20
-261.299
 30
0.000000
  70
    32
  0
VERTEX
  8
┌▓È_1
  5
104B
 10
709.615
 20
-261.326
 30
0.000000
  70
    32
  0
VERTEX
  8
┌▓È_1
  5
104C
 10
709.638
 20
-261.353
 30
0.000000
  70
    32
  0
VERTEX
  8
┌▓È_1
  5
104D
 10
709.661
 20
-261.380
 30
0.000000
  70
    32
  0
VERTEX
  8
┌▓È_1
  5
104E
 10
709.684
 20
-261.407
 30
0.000000
  70
    32
  0
VERTEX
  8
┌▓È_1
  5
104F
 10
709.707
 20
-261.435
 30
0.000000
  70
    32
  0
VERTEX
  8
┌▓È_1
  5
1050
 10
709.730
 20
-261.462
 30
0.000000
  70
    32
  0
VERTEX
  8
┌▓È_1
  5
1051
 10
709.753
 20
-261.490
 30
0.000000
  70
    32
  0
VERTEX
  8
┌▓È_1
  5
1052
 10
709.776
 20
-261.517
 30
0.000000
  70
    32
  0
VERTEX
  8
┌▓È_1
  5
1053
 10
709.799
 20
-261.545
 30
0.000000
  70
    32
  0
VERTEX
  8
┌▓È_1
  5
1054
 10
709.822
 20
-261.573
 30
0.000000
  70
    32
  0
VERTEX
  8
┌▓È_1
  5
1055
 10
709.845
 20
-261.601
 30
0.000000
  70
    32
  0
VERTEX
  8
┌▓È_1
  5
1056
 10
709.868
 20
-261.629
 30
0.000000
  70
    32
  0
VERTEX
  8
┌▓È_1
  5
1057
 10
709.891
 20
-261.657
 30
0.000000
  70
    32
  0
VERTEX
  8
┌▓È_1
  5
1058
 10
709.914
 20
-261.685
 30
0.000000
  70
    32
  0
VERTEX
  8
┌▓È_1
  5
1059
 10
709.936
 20
-261.714
 30
0.000000
  70
    32
  0
VERTEX
  8
┌▓È_1
  5
105A
 10
709.959
 20
-261.742
 30
0.000000
  70
    32
  0
VERTEX
  8
┌▓È_1
  5
105B
 10
709.982
 20
-261.771
 30
0.000000
  70
    32
  0
VERTEX
  8
┌▓È_1
  5
105C
 10
710.005
 20
-261.799
 30
0.000000
  70
    32
  0
VERTEX
  8
┌▓È_1
  5
105D
 10
710.028
 20
-261.828
 30
0.000000
  70
    32
  0
VERTEX
  8
┌▓È_1
  5
105E
 10
710.051
 20
-261.857
 30
0.000000
  70
    32
  0
VERTEX
  8
┌▓È_1
  5
105F
 10
710.074
 20
-261.886
 30
0.000000
  70
    32
  0
VERTEX
  8
┌▓È_1
  5
1060
 10
710.097
 20
-261.915
 30
0.000000
  70
    32
  0
VERTEX
  8
┌▓È_1
  5
1061
 10
710.120
 20
-261.944
 30
0.000000
  70
    32
  0
VERTEX
  8
┌▓È_1
  5
1062
 10
710.143
 20
-261.973
 30
0.000000
  70
    32
  0
VERTEX
  8
┌▓È_1
  5
1063
 10
710.166
 20
-262.002
 30
0.000000
  70
    32
  0
VERTEX
  8
┌▓È_1
  5
1064
 10
710.189
 20
-262.032
 30
0.000000
  70
    32
  0
VERTEX
  8
┌▓È_1
  5
1065
 10
710.212
 20
-262.061
 30
0.000000
  70
    32
  0
VERTEX
  8
┌▓È_1
  5
1066
 10
710.235
 20
-262.090
 30
0.000000
  70
    32
  0
VERTEX
  8
┌▓È_1
  5
1067
 10
710.258
 20
-262.120
 30
0.000000
  70
    32
  0
VERTEX
  8
┌▓È_1
  5
1068
 10
710.281
 20
-262.150
 30
0.000000
  70
    32
  0
VERTEX
  8
┌▓È_1
  5
1069
 10
710.304
 20
-262.179
 30
0.000000
  70
    32
  0
VERTEX
  8
┌▓È_1
  5
106A
 10
710.327
 20
-262.209
 30
0.000000
  70
    32
  0
VERTEX
  8
┌▓È_1
  5
106B
 10
710.350
 20
-262.239
 30
0.000000
  70
    32
  0
VERTEX
  8
┌▓È_1
  5
106C
 10
710.373
 20
-262.269
 30
0.000000
  70
    32
  0
VERTEX
  8
┌▓È_1
  5
106D
 10
710.396
 20
-262.298
 30
0.000000
  70
    32
  0
VERTEX
  8
┌▓È_1
  5
106E
 10
710.419
 20
-262.328
 30
0.000000
  70
    32
  0
VERTEX
  8
┌▓È_1
  5
106F
 10
710.442
 20
-262.358
 30
0.000000
  70
    32
  0
VERTEX
  8
┌▓È_1
  5
1070
 10
710.465
 20
-262.388
 30
0.000000
  70
    32
  0
VERTEX
  8
┌▓È_1
  5
1071
 10
710.487
 20
-262.419
 30
0.000000
  70
    32
  0
VERTEX
  8
┌▓È_1
  5
1072
 10
710.510
 20
-262.449
 30
0.000000
  70
    32
  0
VERTEX
  8
┌▓È_1
  5
1073
 10
710.533
 20
-262.479
 30
0.000000
  70
    32
  0
SEQEND
  8
┌▓È_1
  5
1074
  0
LINE
  5
54A
  8
┌▓È_1
 62
     5
 10
709.99284679399977
 20
-276.26970478179999
 30
0.0
 11
711.55577122349996
 21
-276.26970478179999
 31
0.0
  0
LINE
  5
54B
  8
┌▓È_1
 62
     5
 10
744.33365766580005
 20
-269.26970478179999
 30
0.0
 11
744.33365766580005
 21
-267.26970478179999
 31
0.0
  0
ENDBLK
  5
54C
  8
0
  0
BLOCK
  8
0
  2
*U42
 70
     1
 10
0.0
 20
0.0
 30
0.0
  3
*U42
  1

  0
TEXT
  5
678
  8
É}ÿg
  6
CONTINUOUS
 10
1040.7877466224761
 20
-422.58123694785991
 30
0.0
 40
7.496527552599999
  1
âAâôâJü[
  0
ENDBLK
  5
67A
  8
0
  0
BLOCK
  8
0
  2
*U43
 70
     1
 10
0.0
 20
0.0
 30
0.0
  3
*U43
  1

  0
TEXT
  5
67C
  8
É}ÿg
  6
CONTINUOUS
 10
1246.3002866576051
 20
-434.96707662979998
 30
0.0
 40
7.496527552599999
  1
1
  0
ENDBLK
  5
67E
  8
0
  0
BLOCK
  8
0
  2
*U44
 70
     1
 10
0.0
 20
0.0
 30
0.0
  3
*U44
  1

  0
TEXT
  5
680
  8
É}ÿg
  6
CONTINUOUS
 10
1155.9169063852539
 20
-435.3095575839796
 30
0.0
 40
7.496527552599999
  1
é`éaérÄ¸Äë
  0
ENDBLK
  5
682
  8
0
  0
BLOCK
  8
0
  2
*U45
 70
     1
 10
0.0
 20
0.0
 30
0.0
  3
*U45
  1

  0
TEXT
  5
684
  8
É}ÿg
  6
CONTINUOUS
 10
1042.1005902801651
 20
-435.76619885621932
 30
0.0
 40
7.496527552599999
  1
âgâëâbâv
  0
ENDBLK
  5
686
  8
0
  0
BLOCK
  8
0
  2
*U46
 70
     1
 10
0.0
 20
0.0
 30
0.0
  3
*U46
  1

  0
TEXT
  5
688
  8
É}ÿg
  6
CONTINUOUS
 10
1246.3002866576051
 20
-447.46707662979998
 30
0.0
 40
7.496527552599999
  1
1
  0
ENDBLK
  5
68A
  8
0
  0
BLOCK
  8
0
  2
*U47
 70
     1
 10
0.0
 20
0.0
 30
0.0
  3
*U47
  1

  0
TEXT
  5
68C
  8
É}ÿg
  6
CONTINUOUS
 10
1152.81555107796
 20
-447.46707662979998
 30
0.0
 40
7.496527552599999
  1
SUS304 3.0t
  0
ENDBLK
  5
68E
  8
0
  0
BLOCK
  8
0
  2
*U48
 70
     1
 10
0.0
 20
0.0
 30
0.0
  3
*U48
  1

  0
TEXT
  5
690
  8
É}ÿg
  6
CONTINUOUS
 10
1038.9802082531951
 20
-447.84761102333289
 30
0.0
 40
7.496527552599999
  1
èWüiû┌ÄM)
  0
ENDBLK
  5
692
  8
0
  0
BLOCK
  8
0
  2
*U49
 70
     1
 10
0.0
 20
0.0
 30
0.0
  3
*U49
  1

  0
TEXT
  5
694
  8
É}ÿg
  6
CONTINUOUS
 10
1040.521372547003
 20
-460.38566446268629
 30
0.0
 40
7.496527552599999
  1
û{ü@ü@æ╠
  0
ENDBLK
  5
696
  8
0
  0
BLOCK
  8
0
  2
*U50
 70
     1
 10
0.0
 20
0.0
 30
0.0
  3
*U50
  1

  0
TEXT
  5
698
  8
É}ÿg
  6
CONTINUOUS
 10
1152.81555107796
 20
-459.96707662979998
 30
0.0
 40
7.496527552599999
  1
SUS304 0.7t
  0
ENDBLK
  5
69A
  8
0
  0
BLOCK
  8
0
  2
*U51
 70
     1
 10
0.0
 20
0.0
 30
0.0
  3
*U51
  1

  0
TEXT
  5
69C
  8
É}ÿg
  6
CONTINUOUS
 10
1053.4572508758661
 20
-511.91908696329989
 30
0.0
 40
7.496527552599999
  1
1üF2.5
  0
ENDBLK
  5
69E
  8
0
  0
BLOCK
  8
0
  2
*U52
 70
     1
 10
0.0
 20
0.0
 30
0.0
  3
*U52
  1

  0
TEXT
  5
6A0
  8
É}ÿg
  6
CONTINUOUS
 10
1246.3002866576051
 20
-459.96707662979998
 30
0.0
 40
7.496527552599999
  1
1
  0
ENDBLK
  5
6A2
  8
0
  0
BLOCK
  8
0
  2
*U53
 70
     1
 10
0.0
 20
0.0
 30
0.0
  3
*U53
  1

  0
TEXT
  5
6A4
  8
É}ÿg
  6
CONTINUOUS
 10
1115.838472584777
 20
-526.03170299763303
 30
0.0
 40
7.496527552599999
  1
û÷ î┤
  0
ENDBLK
  5
6A6
  8
0
  0
BLOCK
  8
0
  2
*U54
 70
     1
 10
0.0
 20
0.0
 30
0.0
  3
*U54
  1

  0
TEXT
  5
6A8
  8
É}ÿg
  6
CONTINUOUS
 10
1115.838472584777
 20
-539.78170299763303
 30
0.0
 40
7.496527552599999
  1
û÷ î┤
  0
ENDBLK
  5
6AA
  8
0
  0
BLOCK
  8
0
  2
*U55
 70
     1
 10
0.0
 20
0.0
 30
0.0
  3
*U55
  1

  0
TEXT
  5
6AC
  8
É}ÿg
  6
CONTINUOUS
 10
1020.033586859699
 20
-526.06975643698615
 30
0.0
 40
7.496527552599999
  1
öÆÉ{ëÛ
  0
ENDBLK
  5
6AE
  8
0
  0
BLOCK
  8
0
  2
*U56
 70
     1
 10
0.0
 20
0.0
 30
0.0
  3
*U56
  1

  0
TEXT
  5
6B0
  8
É}ÿg
  6
CONTINUOUS
 10
1237.4197937394081
 20
-562.08443825880011
 30
0.0
 40
10.495139181600001
  1
SHT00127
  0
ENDBLK
  5
6B2
  8
0
  0
BLOCK
  8
0
  2
*U57
 70
     1
 10
0.0
 20
0.0
 30
0.0
  3
*U57
  1

  0
TEXT
  5
6B4
  8
É}ÿg
  6
CONTINUOUS
 10
1233.3709075576751
 20
-507.93683534969142
 30
0.0
 40
10.495139181600001
  1
âgâëâbâsü[
  0
ENDBLK
  5
6B6
  8
0
  0
BLOCK
  8
0
  2
*U58
 70
     1
 10
0.0
 20
0.0
 30
0.0
  3
*U58
  1

  0
TEXT
  5
6B8
  8
É}ÿg
  6
CONTINUOUS
 10
1218.0810347398101
 20
-534.79753753152295
 30
0.0
 40
10.495139181600001
  1
SP-450C Å│öFÉ}
  0
ENDBLK
  5
6BA
  8
0
  0
BLOCK
  8
0
  2
*U59
 70
     1
 10
0.0
 20
0.0
 30
0.0
  3
*U59
  1

  0
TEXT
  5
6BC
  8
ë³Æ¨
  6
CONTINUOUS
 10
1122.1632671914231
 20
107.8350760241
 30
0.0
 40
6.7468748986999989
  1
H**.**.**
  0
ENDBLK
  5
6BE
  8
0
  0
BLOCK
  8
0
  2
*U60
 70
     1
 10
0.0
 20
0.0
 30
0.0
  3
*U60
  1

  0
TEXT
  5
6C0
  8
É}ÿg
  6
CONTINUOUS
 10
1194.3374662677791
 20
119.9925950647751
 30
0.0
 40
6.7468748986999989
  1
ë³ü@Æ¨ü@ôÓü@ùe
  0
ENDBLK
  5
6C2
  8
0
  0
BLOCK
  8
0
  2
*U61
 70
     1
 10
0.0
 20
0.0
 30
0.0
  3
*U61
  1

  0
TEXT
  5
6C4
  8
É}ÿg
  6
CONTINUOUS
 10
1129.1498787616511
 20
120.0610912566401
 30
0.0
 40
6.7468748986999989
  1
ë³Æ¨ô·
  0
ENDBLK
  5
6C6
  8
0
  0
BLOCK
  8
0
  2
*U62
 70
     1
 10
0.0
 20
0.0
 30
0.0
  3
*U62
  1

  0
TEXT
  5
6C8
  8
É}ÿg
  6
CONTINUOUS
 10
1103.5678831369421
 20
120.12958744850511
 30
0.0
 40
6.7468748986999989
  1
òøöÈ
  0
ENDBLK
  5
6CA
  8
0
  0
BLOCK
  8
0
  2
*U63
 70
     1
 10
0.0
 20
0.0
 30
0.0
  3
*U63
  1

  0
TEXT
  5
6CC
  8
É}ÿg
  6
CONTINUOUS
 10
988.10963112619982
 20
-563.19067365170906
 30
0.0
 40
13.4937497973
  1
èöÄ«ë´Äð
  0
ENDBLK
  5
6CE
  8
0
  0
BLOCK
  8
0
  2
*U64
 70
     1
 10
0.0
 20
0.0
 30
0.0
  3
*U64
  1

  0
TEXT
  5
6D0
  8
É}ÿg
  6
CONTINUOUS
 10
1311.9067394811441
 20
119.9583469688426
 30
0.0
 40
6.7468748986999989
  1
îƒöFÄÊ
  0
ENDBLK
  5
6D2
  8
0
  0
BLOCK
  8
0
  2
*U65
 70
     1
 10
0.0
 20
0.0
 30
0.0
  3
*U65
  1

  0
TEXT
  5
6D4
  8
É}ÿg
  6
CONTINUOUS
 10
1165.4227665012199
 20
-552.35539726591981
 30
0.0
 40
7.496527552599999
  1
É} öÈ
  0
ENDBLK
  5
6D6
  8
0
  0
BLOCK
  8
0
  2
*U66
 70
     1
 10
0.0
 20
0.0
 30
0.0
  3
*U66
  1

  0
TEXT
  5
6D8
  8
É}ÿg
  6
CONTINUOUS
 10
1162.816105905519
 20
-497.50761102333291
 30
0.0
 40
7.496527552599999
  1
É╗òiû╝
  0
ENDBLK
  5
6DA
  8
0
  0
BLOCK
  8
0
  2
*U67
 70
     1
 10
0.0
 20
0.0
 30
0.0
  3
*U67
  1

  0
TEXT
  5
6DC
  8
É}ÿg
  6
CONTINUOUS
 10
1163.0253998219621
 20
-524.93150414462639
 30
0.0
 40
7.496527552599999
  1
É}û╩û╝
  0
ENDBLK
  5
6DE
  8
0
  0
BLOCK
  8
0
  2
*U68
 70
     1
 10
0.0
 20
0.0
 30
0.0
  3
*U68
  1

  0
TEXT
  5
6E0
  8
É}ÿg
  6
CONTINUOUS
 10
987.51341461439279
 20
-498.30338236151312
 30
0.0
 40
7.496527552599999
  1
ô·ü@ü@òt
  0
ENDBLK
  5
6E2
  8
0
  0
BLOCK
  8
0
  2
*U69
 70
     1
 10
0.0
 20
0.0
 30
0.0
  3
*U69
  1

  0
TEXT
  5
6E4
  8
É}ÿg
  6
CONTINUOUS
 10
1049.214292387973
 20
-498.53170299763298
 30
0.0
 40
7.496527552599999
  1
Ä┌ü@ü@ôx
  0
ENDBLK
  5
6E6
  8
0
  0
BLOCK
  8
0
  2
*U70
 70
     1
 10
0.0
 20
0.0
 30
0.0
  3
*U70
  1

  0
TEXT
  5
6E8
  8
É}ÿg
  6
CONTINUOUS
 10
1287.0094837689419
 20
119.9925950647751
 30
0.0
 40
6.7468748986999989
  1
ë³Æ¨ÄÊ
  0
ENDBLK
  5
6EA
  8
0
  0
BLOCK
  8
0
  2
*U71
 70
     1
 10
0.0
 20
0.0
 30
0.0
  3
*U71
  1

  0
TEXT
  5
6EC
  8
É}ÿg
  6
CONTINUOUS
 10
976.62721333950799
 20
-472.69539726591978
 30
0.0
 40
7.496527552599999
  1
òiöÈ
  0
ENDBLK
  5
6EE
  8
0
  0
BLOCK
  8
0
  2
*U72
 70
     1
 10
0.0
 20
0.0
 30
0.0
  3
*U72
  1

  0
TEXT
  5
6F0
  8
É}ÿg
  6
CONTINUOUS
 10
974.51003878429992
 20
-539.78170299763303
 30
0.0
 40
7.496527552599999
  1
 É╗É}
  0
ENDBLK
  5
6F2
  8
0
  0
BLOCK
  8
0
  2
*U73
 70
     1
 10
0.0
 20
0.0
 30
0.0
  3
*U73
  1

  0
TEXT
  5
6F4
  8
É}ÿg
  6
CONTINUOUS
 10
974.51003878429992
 20
-525.95559611892634
 30
0.0
 40
7.496527552599999
  1
 É¦îv
  0
ENDBLK
  5
6F6
  8
0
  0
BLOCK
  8
0
  2
*U74
 70
     1
 10
0.0
 20
0.0
 30
0.0
  3
*U74
  1

  0
TEXT
  5
6F8
  8
É}ÿg
  6
CONTINUOUS
 10
1068.2600387842999
 20
-539.81975643698615
 30
0.0
 40
7.496527552599999
  1
 îƒÉ}
  0
ENDBLK
  5
6FA
  8
0
  0
BLOCK
  8
0
  2
*U75
 70
     1
 10
0.0
 20
0.0
 30
0.0
  3
*U75
  1

  0
TEXT
  5
6FC
  8
É}ÿg
  6
CONTINUOUS
 10
1068.2600387842999
 20
-525.99364955827957
 30
0.0
 40
7.496527552599999
  1
 Åãì©
  0
ENDBLK
  5
6FE
  8
0
  0
BLOCK
  8
0
  2
*U76
 70
     1
 10
0.0
 20
0.0
 30
0.0
  3
*U76
  1

  0
TEXT
  5
700
  8
É}ÿg
  6
CONTINUOUS
 10
1238.8798659837109
 20
-472.84761102333289
 30
0.0
 40
7.496527552599999
  1
Éöù╩
  0
ENDBLK
  5
702
  8
0
  0
BLOCK
  8
0
  2
*U77
 70
     1
 10
0.0
 20
0.0
 30
0.0
  3
*U77
  1

  0
TEXT
  5
704
  8
É}ÿg
  6
CONTINUOUS
 10
1275.1616010968471
 20
-472.96177134139288
 30
0.0
 40
7.496527552599999
  1
ö§ü@ü@ü@ìl
  0
ENDBLK
  5
706
  8
0
  0
BLOCK
  8
0
  2
*U78
 70
     1
 10
0.0
 20
0.0
 30
0.0
  3
*U78
  1

  0
TEXT
  5
708
  8
É}ÿg
  6
CONTINUOUS
 10
1155.5173452720439
 20
-472.73345070527313
 30
0.0
 40
7.496527552599999
  1
ìÌü@ü@ü@Ä┐
  0
ENDBLK
  5
70A
  8
0
  0
BLOCK
  8
0
  2
*U79
 70
     1
 10
0.0
 20
0.0
 30
0.0
  3
*U79
  1

  0
TEXT
  5
70C
  8
É}ÿg
  6
CONTINUOUS
 10
1035.802746067194
 20
-472.77150414462642
 30
0.0
 40
7.496527552599999
  1
òiü@ü@ü@û╝
  0
ENDBLK
  5
70E
  8
0
  0
BLOCK
  8
0
  2
*U80
 70
     1
 10
0.0
 20
0.0
 30
0.0
  3
*U80
  1

  0
TEXT
  5
710
  8
É}ÿg
  6
CONTINUOUS
 10
983.34364538536545
 20
-422.46707662979998
 30
0.0
 40
7.496527552599999
  1
4
  0
ENDBLK
  5
712
  8
0
  0
BLOCK
  8
0
  2
*U81
 70
     1
 10
0.0
 20
0.0
 30
0.0
  3
*U81
  1

  0
TEXT
  5
714
  8
É}ÿg
  6
CONTINUOUS
 10
983.4007255443953
 20
-434.96707662979998
 30
0.0
 40
7.496527552599999
  1
3
  0
ENDBLK
  5
716
  8
0
  0
BLOCK
  8
0
  2
*U82
 70
     1
 10
0.0
 20
0.0
 30
0.0
  3
*U82
  1

  0
TEXT
  5
718
  8
É}ÿg
  6
CONTINUOUS
 10
983.80028665760506
 20
-459.96707662979998
 30
0.0
 40
7.496527552599999
  1
1
  0
ENDBLK
  5
71A
  8
0
  0
BLOCK
  8
0
  2
*U83
 70
     1
 10
0.0
 20
0.0
 30
0.0
  3
*U83
  1

  0
TEXT
  5
71C
  8
É}ÿg
  6
CONTINUOUS
 10
983.36267210504195
 20
-447.46707662979998
 30
0.0
 40
7.496527552599999
  1
2
  0
ENDBLK
  5
71E
  8
0
  0
BLOCK
  8
0
  2
*U84
 70
     1
 10
0.0
 20
0.0
 30
0.0
  3
*U84
  1

  0
TEXT
  5
720
  8
É}ÿg
  6
CONTINUOUS
 10
993.52585803221405
 20
-511.91908696329989
 30
0.0
 40
7.496527552599999
  1
H16.4
  0
ENDBLK
  5
722
  8
0
  0
BLOCK
  8
0
  2
*U85
 70
     1
 10
0.0
 20
0.0
 30
0.0
  3
*U85
  1

  0
TEXT
  5
724
  8
É}ÿg
  6
CONTINUOUS
 10
1022.278739781543
 20
-539.85780987633962
 30
0.0
 40
7.496527552599999
  1
è¦ û{
  0
ENDBLK
  5
726
  8
0
  0
BLOCK
  8
0
  2
*U86
 70
     1
 10
0.0
 20
0.0
 30
0.0
  3
*U86
  1

  0
TEXT
  5
728
  8
ë³Æ¨
  6
CONTINUOUS
 10
1109.5355483733961
 20
106.3240953559
 30
0.0
 40
6.7468749188999988
  1
1
  0
ENDBLK
  5
72A
  8
0
  0
BLOCK
  8
0
  2
*U87
 70
     1
 10
0.0
 20
0.0
 30
0.0
  3
*U87
  1

  0
TEXT
  5
72C
  8
ë³Æ¨
  6
CONTINUOUS
 10
1176.288719711358
 20
107.8413260241
 30
0.0
 40
6.7468748986999989
  1
**********************
  0
ENDBLK
  5
72E
  8
0
  0
BLOCK
  8
0
  2
*U88
 70
     1
 10
0.0
 20
0.0
 30
0.0
  3
*U88
  1

  0
TEXT
  5
730
  8
ë³Æ¨
  6
CONTINUOUS
 10
1291.8727133913551
 20
107.8350760241
 30
0.0
 40
6.7468748986999989
  1
üûüû
  0
ENDBLK
  5
732
  8
0
  0
BLOCK
  8
0
  2
*U89
 70
     1
 10
0.0
 20
0.0
 30
0.0
  3
*U89
  1

  0
TEXT
  5
734
  8
É}ÿg
  6
CONTINUOUS
 10
1245.8436453853651
 20
-422.46707662979998
 30
0.0
 40
7.496527552599999
  1
4
  0
ENDBLK
  5
736
  8
0
  0
BLOCK
  8
0
  2
*U90
 70
     1
 10
0.0
 20
0.0
 30
0.0
  3
*U90
  1

  0
TEXT
  5
738
  8
É}ÿg
  6
CONTINUOUS
 10
1152.81555107796
 20
-422.46707662979998
 30
0.0
 40
7.496527552599999
  1
SUS304 0.7t
  0
ENDBLK
  5
73A
  8
0
  0
BLOCK
  8
0
  2
*U91
 70
     1
 10
0.0
 20
0.0
 30
0.0
  3
*U91
  1

  0
TEXT
  5
73C
  8
┌▓È_1
  6
CONTINUOUS
 10
792.82795174156945
 20
-374.88848526169988
 30
0.0
 40
10.495138979
  1
3
  0
ENDBLK
  5
73E
  8
0
  0
BLOCK
  8
0
  2
*U92
 70
     1
 10
0.0
 20
0.0
 30
0.0
  3
*U92
  1

  0
TEXT
  5
740
  8
┌▓È_1
  6
CONTINUOUS
 10
430.5314423451693
 20
-50.912169801299989
 30
0.0
 40
10.495138979
  1
2
  0
ENDBLK
  5
742
  8
0
  0
BLOCK
  8
0
  2
*U93
 70
     1
 10
0.0
 20
0.0
 30
0.0
  3
*U93
  1

  0
TEXT
  5
744
  8
┌▓È_1
  6
CONTINUOUS
 10
429.69660174456698
 20
-1.165392457499999
 30
0.0
 40
10.495138979
  1
1
  0
ENDBLK
  5
746
  8
0
  0
BLOCK
  8
0
  2
*U94
 70
     1
 10
0.0
 20
0.0
 30
0.0
  3
*U94
  1

  0
TEXT
  5
748
  8
┌▓È_1
  6
CONTINUOUS
 10
1000.874758205156
 20
-166.43506576659999
 30
0.0
 40
10.495138979
  1
4
  0
ENDBLK
  5
74A
  8
0
  0
BLOCK
  8
0
  2
*U95
 70
     1
 10
0.0
 20
0.0
 30
0.0
  3
*U95
  1

  0
TEXT
  5
74C
  8
┌▓È_1
  6
CONTINUOUS
 10
648.64244103473345
 20
-145.3747128409959
 30
0.0
 40
7.4965279578999988
  1
17-Å¼ö╗îè
  0
ENDBLK
  5
74E
  8
0
  0
BLOCK
  8
0
  2
*U96
 70
     1
 10
0.0
 20
0.0
 30
0.0
  3
*U96
  1

  0
TEXT
  5
750
  8
┌▓È_1
  6
CONTINUOUS
 10
695.70148428124662
 20
-455.56413544319997
 30
0.0
 40
7.4965279578999988
  1
VU50
  0
ENDBLK
  5
752
  8
0
  0
BLOCK
  8
0
  2
*U97
 70
     1
 10
0.0
 20
0.0
 30
0.0
  3
*U97
  1

  0
TEXT
  5
754
  8
┌▓È_1
  6
CONTINUOUS
 10
695.17194784854667
 20
-481.67953224680002
 30
0.0
 40
7.4965279578999988
  1
VU75
  0
ENDBLK
  5
756
  8
0
  0
ENDSEC
  0
SECTION
  2
ENTITIES
  0
INSERT
  5
2F
  8
0
  6
CONTINUOUS
  2
*U42
 10
0.0
 20
0.0
 30
0.0
  0
INSERT
  5
30
  8
0
  6
CONTINUOUS
  2
*U43
 10
0.0
 20
0.0
 30
0.0
  0
INSERT
  5
31
  8
0
  6
CONTINUOUS
  2
*U44
 10
0.0
 20
0.0
 30
0.0
  0
INSERT
  5
32
  8
0
  6
CONTINUOUS
  2
*U45
 10
0.0
 20
0.0
 30
0.0
  0
INSERT
  5
33
  8
0
  6
CONTINUOUS
  2
*U46
 10
0.0
 20
0.0
 30
0.0
  0
INSERT
  5
34
  8
0
  6
CONTINUOUS
  2
*U47
 10
0.0
 20
0.0
 30
0.0
  0
INSERT
  5
35
  8
0
  6
CONTINUOUS
  2
*U48
 10
0.0
 20
0.0
 30
0.0
  0
INSERT
  5
36
  8
0
  6
CONTINUOUS
  2
*U49
 10
0.0
 20
0.0
 30
0.0
  0
INSERT
  5
37
  8
0
  6
CONTINUOUS
  2
*U50
 10
0.0
 20
0.0
 30
0.0
  0
INSERT
  5
38
  8
0
  6
CONTINUOUS
  2
*U51
 10
0.0
 20
0.0
 30
0.0
  0
INSERT
  5
39
  8
0
  6
CONTINUOUS
  2
*U52
 10
0.0
 20
0.0
 30
0.0
  0
INSERT
  5
3A
  8
0
  6
CONTINUOUS
  2
*U53
 10
0.0
 20
0.0
 30
0.0
  0
INSERT
  5
3B
  8
0
  6
CONTINUOUS
  2
*U54
 10
0.0
 20
0.0
 30
0.0
  0
INSERT
  5
3C
  8
0
  6
CONTINUOUS
  2
*U55
 10
0.0
 20
0.0
 30
0.0
  0
INSERT
  5
3D
  8
0
  6
CONTINUOUS
  2
*U56
 10
0.0
 20
0.0
 30
0.0
  0
INSERT
  5
3E
  8
0
  6
CONTINUOUS
  2
*U57
 10
0.0
 20
0.0
 30
0.0
  0
INSERT
  5
3F
  8
0
  6
CONTINUOUS
  2
*U58
 10
0.0
 20
0.0
 30
0.0
  0
DIMENSION
  5
50
  8
Éíû@É³
  2
*D0
 10
689.82589651640001
 20
-347.26970478179999
 30
0.0
 11
689.82589651640001
 21
-321.51970478179999
 31
0.0
 70
   128
  1
50
 13
672.72315527490002
 23
-347.26970478179999
 33
0.0
 14
670.26253918689986
 24
-295.76970478179999
 34
0.0
 50
90.0
  0
DIMENSION
  5
5F
  8
Éíû@É³
  2
*D1
 10
662.12265687859986
 20
-471.40807370319988
 30
0.0
 11
703.93218547859999
 21
-471.40807370319988
 31
0.0
 70
   128
  1
%%c83.6
 13
662.12265687859986
 23
-420.21360806599989
 33
0.0
 14
745.74171407860001
 24
-420.21360806599989
 34
0.0
 50
180.0
  0
DIMENSION
  5
67
  8
Éíû@É³
  2
*D2
 10
506.64816005519992
 20
-46.588491783599991
 30
0.0
 11
518.28299949660004
 21
-16.669537097399999
 31
0.0
 70
   131
  1
2-%%c <>
 15
518.31824038900004
 25
-38.8548493686
 35
0.0
 40
0.0
  0
DIMENSION
  5
76
  8
Éíû@É³
  2
*D3
 10
485.9841151096
 20
-189.77019501160001
 30
0.0
 11
479.48365766580002
 21
-189.77019501160001
 31
0.0
 70
   128
  1
13
 13
485.9841151096
 23
-214.77019501160001
 33
0.0
 14
472.98320022209998
 24
-214.77019501160001
 34
0.0
  0
INSERT
  5
78
  8
0
  6
CONTINUOUS
  2
*U59
 10
0.0
 20
0.0
 30
0.0
  0
INSERT
  5
7A
  8
É}ÿg
  2
CLUMP0
 10
0.0
 20
0.0
 30
0.0
  0
INSERT
  5
11F
  8
É}ÿg
  2
CLUMP1
 10
0.0
 20
0.0
 30
0.0
  0
INSERT
  5
129
  8
É}ÿg
  2
CLUMP2
 10
0.0
 20
0.0
 30
0.0
  0
INSERT
  5
133
  8
É}ÿg
  2
CLUMP3
 10
0.0
 20
0.0
 30
0.0
  0
INSERT
  5
13D
  8
É}ÿg
  2
CLUMP4
 10
0.0
 20
0.0
 30
0.0
  0
INSERT
  5
146
  8
0
  6
CONTINUOUS
  2
*U80
 10
0.0
 20
0.0
 30
0.0
  0
INSERT
  5
147
  8
0
  6
CONTINUOUS
  2
*U81
 10
0.0
 20
0.0
 30
0.0
  0
INSERT
  5
148
  8
0
  6
CONTINUOUS
  2
*U82
 10
0.0
 20
0.0
 30
0.0
  0
INSERT
  5
149
  8
0
  6
CONTINUOUS
  2
*U83
 10
0.0
 20
0.0
 30
0.0
  0
INSERT
  5
14A
  8
0
  6
CONTINUOUS
  2
*U84
 10
0.0
 20
0.0
 30
0.0
  0
INSERT
  5
14F
  8
0
  6
CONTINUOUS
  2
*U85
 10
0.0
 20
0.0
 30
0.0
  0
INSERT
  5
150
  8
0
  6
CONTINUOUS
  2
*U86
 10
0.0
 20
0.0
 30
0.0
  0
INSERT
  5
151
  8
0
  6
CONTINUOUS
  2
*U87
 10
0.0
 20
0.0
 30
0.0
  0
INSERT
  5
152
  8
0
  6
CONTINUOUS
  2
*U88
 10
0.0
 20
0.0
 30
0.0
  0
INSERT
  5
153
  8
0
  6
CONTINUOUS
  2
*U89
 10
0.0
 20
0.0
 30
0.0
  0
INSERT
  5
154
  8
0
  6
CONTINUOUS
  2
*U90
 10
0.0
 20
0.0
 30
0.0
  0
DIMENSION
  5
163
  8
Éíû@É³
  2
*D9
 10
623.98320022209998
 20
-86.721670576100024
 30
0.0
 11
623.98320022209998
 21
-82.721670576099996
 31
0.0
 70
   128
  1
<>
 13
598.98320022209998
 23
-86.721670576100024
 33
0.0
 14
598.98320022209998
 24
-78.721670576099996
 34
0.0
 50
90.0
  0
DIMENSION
  5
172
  8
Éíû@É³
  2
*D10
 10
815.27109351739989
 20
-42.721670576100003
 30
0.0
 11
815.27109351739989
 21
-22.721670576099999
 31
0.0
 70
   128
  1
<>
 13
806.98320022210009
 23
-42.721670576100003
 33
0.0
 14
806.98320022210009
 24
-2.7216705761000002
 34
0.0
 50
90.0
  0
DIMENSION
  5
181
  8
Éíû@É³
  2
*D11
 10
815.27109351739989
 20
-82.721670576099996
 30
0.0
 11
815.27109351739989
 21
-62.721670576099989
 31
0.0
 70
   128
  1
<>
 13
806.98320022210009
 23
-82.721670576099996
 33
0.0
 14
806.98320022210009
 24
-42.721670576100003
 34
0.0
 50
90.0
  0
DIMENSION
  5
191
  8
Éíû@É³
  2
*D12
 10
920.98320022209998
 20
-168.91167450379999
 30
0.0
 11
870.98320022209998
 21
-168.91167450379999
 31
0.0
 70
   128
  1
(<>)
 13
920.98320022209998
 23
-214.77019501160001
 33
0.0
 14
820.98320022209998
 24
-207.77019501160001
 34
0.0
  0
DIMENSION
  5
1A0
  8
Éíû@É³
  2
*D13
 10
572.98350398089997
 20
-168.91167450379999
 30
0.0
 11
522.98335210150003
 21
-168.91167450379999
 31
0.0
 70
   128
  1
(<>)
 13
572.98350398089997
 23
-207.77019501160001
 33
0.0
 14
472.98320022209998
 24
-214.77019501160001
 34
0.0
  0
DIMENSION
  5
1AF
  8
Éíû@É³
  2
*D14
 10
582.98331177939997
 20
-187.76973366409999
 30
0.0
 11
600.51898873559992
 21
-187.76973366409999
 31
0.0
 70
   128
  1
<>
 13
582.98331177939997
 23
-212.77019501160001
 33
0.0
 14
562.98331177939986
 24
-212.76973366409999
 34
0.0
  0
DIMENSION
  5
1BE
  8
Éíû@É³
  2
*D15
 10
945.98320022209998
 20
-218.77019501160001
 30
0.0
 11
945.98320022209998
 21
-215.77019501160001
 31
0.0
 70
   128
  1
7
 13
920.98320022209998
 23
-218.77019501160001
 33
0.0
 14
918.98320022210009
 24
-212.77019501160001
 34
0.0
 50
90.0
  0
DIMENSION
  5
1CD
  8
Éíû@É³
  2
*D16
 10
920.98320022209998
 20
-189.77019501160001
 30
0.0
 11
914.48320022210009
 21
-189.77019501160001
 31
0.0
 70
   128
  1
<>
 13
920.98320022209998
 23
-214.77019501160001
 33
0.0
 14
907.98320022210009
 24
-214.77019501160001
 34
0.0
  0
DIMENSION
  5
1DC
  8
Éíû@É³
  2
*D17
 10
949.60299125300003
 20
-116.7216705761
 30
0.0
 11
949.60299125300003
 21
-42.721670576100003
 31
0.0
 70
   128
  1
<>
 13
917.98320022210009
 23
-116.7216705761
 33
0.0
 14
917.98320022210009
 24
31.278329423900001
 34
0.0
 50
90.0
  0
DIMENSION
  5
1EB
  8
Éíû@É³
  2
*D18
 10
1053.4069864799001
 20
-62.125895804700001
 30
0.0
 11
1069.4503557732
 21
-62.125895804700001
 31
0.0
 70
   128
  1
<>
 13
1053.4069864799001
 23
-57.3220546907
 33
0.0
 14
1050.4069864799001
 24
-57.3220546907
 34
0.0
  0
DIMENSION
  5
1FA
  8
Éíû@É³
  2
*D19
 10
1025.4069864799001
 20
31.278492465199999
 30
0.0
 11
1025.4069864799001
 21
24.778492465199999
 31
0.0
 70
   128
  1
<>
 13
1050.4069864799001
 23
31.278492465199999
 33
0.0
 14
1050.4069864799001
 24
18.278492465199999
 34
0.0
 50
90.0
  0
DIMENSION
  5
209
  8
Éíû@É³
  2
*D20
 10
1025.4069864799001
 20
18.278492465199999
 30
0.0
 11
1025.4069864799001
 21
-42.721670576100003
 31
0.0
 70
   128
  1
<>
 13
1050.4069864799001
 23
18.278492465199999
 33
0.0
 14
1050.4069864799001
 24
-103.72183361739999
 34
0.0
 50
90.0
  0
DIMENSION
  5
218
  8
Éíû@É³
  2
*D21
 10
1025.4069864799001
 20
-103.72183361739999
 30
0.0
 11
1025.4069864799001
 21
-110.22183361739999
 31
0.0
 70
   128
  1
<>
 13
1050.4069864799001
 23
-103.72183361739999
 33
0.0
 14
1050.4069864799001
 24
-116.72183361739999
 34
0.0
 50
90.0
  0
DIMENSION
  5
227
  8
Éíû@É³
  2
*D22
 10
1050.4069864799001
 20
-141.98124300090001
 30
0.0
 11
1067.9069864799001
 21
-141.98124300090001
 31
0.0
 70
   128
  1
<>
 13
1050.4069864799001
 23
-115.7214651689
 33
0.0
 14
1085.4069864799001
 24
-122.02146516889999
 34
0.0
 50
180.0
  0
DIMENSION
  5
236
  8
Éíû@É³
  2
*D23
 10
1105.1535055687
 20
-122.02146516889999
 30
0.0
 11
1105.1535055687
 21
-131.48885999769999
 31
0.0
 70
   128
  1
<>
 13
1085.4069864799001
 23
-122.02146516889999
 33
0.0
 14
1084.7069864799
 24
-115.02146516889999
 34
0.0
 50
90.0
  0
DIMENSION
  5
245
  8
Éíû@É³
  2
*D24
 10
1240.4069974762999
 20
54.278494002499997
 30
0.0
 11
1225.3615854143
 21
54.278494002499997
 31
0.0
 70
   128
  1
30
 13
1240.4069974762999
 23
-2.6213122255000001
 33
0.0
 14
1210.3161733523
 24
-1.0960749367
 34
0.0
  0
DIMENSION
  5
254
  8
Éíû@É³
  2
*D25
 10
1240.4069974762999
 20
74.819450869799994
 30
0.0
 11
1144.4069919781
 21
74.819450869799994
 31
0.0
 70
   128
  1
(192)
 13
1240.4069974762999
 23
-2.6213122255000001
 33
0.0
 14
1048.4069864799001
 24
29.278492465199999
 34
0.0
  0
DIMENSION
  5
263
  8
Éíû@É³
  2
*D26
 10
1210.3161733523
 20
54.278494218799999
 30
0.0
 11
1158.1115799161
 21
54.278494218799999
 31
0.0
 70
   128
  1
104.5
 13
1210.3161733523
 23
-1.0960749367
 33
0.0
 14
1105.9069864799001
 24
5.0783294238999988
 34
0.0
  0
DIMENSION
  5
272
  8
Éíû@É³
  2
*D27
 10
459.85299220659999
 20
-212.77019501160001
 30
0.0
 11
459.85299220659999
 21
-235.1201950116
 31
0.0
 70
   128
  1
(45)
 13
474.98320022209992
 23
-212.77019501160001
 33
0.0
 14
490.98320022209998
 24
-257.47019501160003
 34
0.0
 50
90.0
  0
DIMENSION
  5
281
  8
Éíû@É³
  2
*D28
 10
920.98320022209998
 20
75.261346391700002
 30
0.0
 11
696.98320022210009
 21
75.261346391700002
 31
0.0
 70
   128
  1
<>
 13
920.98320022209998
 23
28.278329423900001
 33
0.0
 14
472.98320022209998
 24
28.278329423900001
 34
0.0
  0
DIMENSION
  5
290
  8
Éíû@É³
  2
*D29
 10
662.98274277829989
 20
53.548223070200002
 30
0.0
 11
628.98274277829989
 21
53.548223070200002
 31
0.0
 70
   128
  1
P=<>
 13
662.98274277829989
 23
1.2783294239
 33
0.0
 14
594.98274277830001
 24
1.2783294239
 34
0.0
  0
DIMENSION
  5
29F
  8
Éíû@É³
  2
*D30
 10
920.98320022209998
 20
53.033437303599989
 30
0.0
 11
808.9834289439998
 21
53.033437303599989
 31
0.0
 70
   128
  1
<>
 13
920.98320022209998
 23
28.278329423900001
 33
0.0
 14
696.98365766580002
 24
36.278329423899997
 34
0.0
  0
DIMENSION
  5
2AE
  8
Éíû@É³
  2
*D31
 10
1105.9069864799001
 20
54.27849246520001
 30
0.0
 11
1077.1569864799001
 21
54.27849246520001
 31
0.0
 70
   128
  1
(<>)
 13
1105.9069864799001
 23
5.0783294238999988
 33
0.0
 14
1048.4069864799001
 24
29.278492465199999
 34
0.0
  0
DIMENSION
  5
2BD
  8
Éíû@É³
  2
*D32
 10
675.58319663860004
 20
-445.90935775330001
 30
0.0
 11
703.93218547859999
 21
-445.90935775330001
 31
0.0
 70
   128
  1
%%c56.7
 13
675.58319663860004
 23
-418.754523006
 33
0.0
 14
732.28117431869987
 24
-418.754523006
 34
0.0
 50
180.0
  0
DIMENSION
  5
2CC
  8
Éíû@É³
  2
*D33
 10
602.98320022209998
 20
-62.665913053500013
 30
0.0
 11
594.98320022209998
 21
-62.665913053500013
 31
0.0
 70
   128
  1
<>
 13
602.98320022209998
 23
-82.721670576099996
 33
0.0
 14
586.98320022209987
 24
-82.721670576099996
 34
0.0
  0
LINE
  5
2CE
  8
┌▓È_1
 62
     5
 10
1105.9069864799001
 20
-90.521670576100007
 30
0.0
 11
1105.9069864799001
 21
-84.2213122255
 31
0.0
  0
LINE
  5
2CF
  8
┌▓È_1
 62
     5
 10
1104.9069864799001
 20
-90.521670576100007
 30
0.0
 11
1104.9069864799001
 21
-84.2213122255
 31
0.0
  0
ARC
  5
2D0
  8
┌▓È_1
 62
     5
 10
1055.4069864799001
 20
-99.721833617399994
 30
0.0
 40
2.0
 50
90.0
 51
180.0
  0
ARC
  5
2D1
  8
┌▓È_1
 62
     5
 10
1092.2069864799
 20
-93.721833617399994
 30
0.0
 40
4.0
 50
270.0
 51
0.0
  0
LINE
  5
2D2
  8
┌▓È_1
 62
     5
 10
1050.4069864799001
 20
17.278492465199999
 30
0.0
 11
1050.4069864799001
 21
-42.721670576100003
 31
0.0
  0
LINE
  5
2D3
  8
┌▓È_1
 62
     5
 10
1048.4069864799001
 20
20.278492465199999
 30
0.0
 11
1048.4069864799001
 21
-42.721670576100003
 31
0.0
  0
LINE
  5
2D4
  8
┌▓È_1
 62
     5
 10
1097.2069864799
 20
-93.721833617399994
 30
0.0
 11
1097.2069864799
 21
-93.221670576099996
 31
0.0
  0
LINE
  5
2D5
  8
┌▓È_1
 62
     5
 10
1096.2069864799
 20
-93.721833617399994
 30
0.0
 11
1096.2069864799
 21
-93.221670576099996
 31
0.0
  0
ARC
  5
2D6
  8
┌▓È_1
 62
     5
 10
1098.7069864799
 20
-93.221670576099996
 30
0.0
 40
1.5
 50
90.0
 51
180.0
  0
INSERT
  5
2D8
  8
┌▓È_1
 62
     5
  2
CLUMP5
 10
0.0
 20
0.0
 30
0.0
  0
LINE
  5
2E2
  8
┌▓È_1
 62
     5
 10
1098.7069864799
 20
-91.721670576100024
 30
0.0
 11
1104.7069864799
 21
-91.721670576100024
 31
0.0
  0
ARC
  5
2E3
  8
┌▓È_1
 62
     5
 10
1104.7069864799
 20
-90.521670576100007
 30
0.0
 40
1.1999999999999991
 50
270.0
 51
0.0
  0
LINE
  5
2E4
  8
┌▓È_1
 62
     5
 10
1049.4069864799001
 20
-114.72183361739999
 30
0.0
 11
1049.4069864799001
 21
-105.72183361739999
 31
0.0
  0
ARC
  5
2E5
  8
┌▓È_1
 62
     5
 10
1052.4069864799001
 20
-102.72183361739999
 30
0.0
 40
1.0
 50
270.0
 51
0.0
  0
LINE
  5
2E6
  8
┌▓È_1
 62
     5
 10
1050.4069864799001
 20
-102.72183361739999
 30
0.0
 11
1053.4069864799001
 21
-102.72183361739999
 31
0.0
  0
ARC
  5
2E7
  8
┌▓È_1
 62
     5
 10
1052.4069864799001
 20
-102.72183361739999
 30
0.0
 40
2.0
 50
270.0
 51
0.0
  0
LINE
  5
2E8
  8
┌▓È_1
 62
     5
 10
1054.4069864799001
 20
-102.72183361739999
 30
0.0
 11
1054.4069864799001
 21
-99.721833617399994
 31
0.0
  0
LINE
  5
2E9
  8
┌▓È_1
 62
     5
 10
1053.4069864799001
 20
-102.72183361739999
 30
0.0
 11
1053.4069864799001
 21
-99.721833617399994
 31
0.0
  0
LINE
  5
2EA
  8
┌▓È_1
 62
     5
 10
1053.4069864799001
 20
-99.721833617399994
 30
0.0
 11
1053.4069864799001
 21
-42.721670576100003
 31
0.0
  0
LINE
  5
2EB
  8
┌▓È_1
 62
     5
 10
1048.4069864799001
 20
-105.72183361739999
 30
0.0
 11
1048.4069864799001
 21
-42.721670576100003
 31
0.0
  0
LINE
  5
2EC
  8
┌▓È_1
 10
594.98274277830001
 20
-86.721670576100024
 30
0.0
 11
624.9620292367
 21
-148.917938064
 31
0.0
  0
SOLID
  5
2ED
  8
┌▓È_1
 10
594.98274277830001
 20
-86.721670576100024
 30
0.0
 11
601.73849789769986
 21
-94.566378967099993
 31
0.0
 12
598.16132805749987
 22
-93.316095047499999
 32
0.0
 13
598.16132805749987
 23
-93.316095047499999
 33
0.0
  0
SOLID
  5
2EE
  8
┌▓È_1
 10
594.98274277830001
 20
-86.721670576100024
 30
0.0
 11
596.91104413790003
 21
-96.893264887699985
 31
0.0
 12
598.16132805749987
 22
-93.316095047499999
 32
0.0
 13
598.16132805749987
 23
-93.316095047499999
 33
0.0
  0
INSERT
  5
2F0
  8
Éíû@É³
  2
BALLON0
 10
0.0
 20
0.0
 30
0.0
  0
INSERT
  5
2FA
  8
Éíû@É³
  2
BALLON1
 10
0.0
 20
0.0
 30
0.0
  0
INSERT
  5
304
  8
Éíû@É³
  2
BALLON2
 10
0.0
 20
0.0
 30
0.0
  0
INSERT
  5
30E
  8
Éíû@É³
  2
BALLON3
 10
0.0
 20
0.0
 30
0.0
  0
ARC
  5
317
  8
┌▓È_1
 62
     5
 10
1050.4069864799001
 20
-114.72183361739999
 30
0.0
 40
1.0
 50
180.0
 51
270.0
  0
LINE
  5
318
  8
┌▓È_1
 62
     5
 10
1048.4069864799001
 20
29.278492465199999
 30
0.0
 11
1048.4069864799001
 21
20.278492465199999
 31
0.0
  0
LINE
  5
319
  8
┌▓È_1
 62
     5
 10
1050.4069864799001
 20
18.278492465199999
 30
0.0
 11
1052.4069864799001
 21
18.278492465199999
 31
0.0
  0
LINE
  5
31A
  8
┌▓È_1
 62
     5
 10
1053.4069864799001
 20
17.278492465199999
 30
0.0
 11
1053.4069864799001
 21
14.278492465199999
 31
0.0
  0
ARC
  5
31B
  8
┌▓È_1
 62
     5
 10
1104.7069864799
 20
5.0783294238999988
 30
0.0
 40
0.2
 50
0.0
 51
90.0
  0
ARC
  5
31C
  8
┌▓È_1
 62
     5
 10
1050.4069864799001
 20
-105.72183361739999
 30
0.0
 40
1.0
 50
90.0
 51
180.0
  0
LINE
  5
31D
  8
┌▓È_1
 62
     5
 10
1054.4069864799001
 20
-116.72183361739999
 30
0.0
 11
1050.4069864799001
 21
-116.72183361739999
 31
0.0
  0
ARC
  5
31E
  8
┌▓È_1
 62
     5
 10
1050.4069864799001
 20
-105.72183361739999
 30
0.0
 40
2.0
 50
90.0
 51
180.0
  0
LINE
  5
31F
  8
┌▓È_1
 62
     5
 10
1050.4069864799001
 20
-103.72183361739999
 30
0.0
 11
1052.4069864799001
 21
-103.72183361739999
 31
0.0
  0
LINE
  5
320
  8
┌▓È_1
 62
     5
 10
1054.4069864799001
 20
-115.72183361739999
 30
0.0
 11
1054.4069864799001
 21
-115.7217106598
 31
0.0
  0
ARC
  5
321
  8
┌▓È_1
 62
     5
 10
1055.4069864799001
 20
14.278492465199999
 30
0.0
 40
1.0
 50
180.0
 51
270.0
  0
ARC
  5
322
  8
┌▓È_1
 62
     5
 10
1104.7069864799
 20
5.0783294238999988
 30
0.0
 40
1.1999999999999991
 50
0.0
 51
90.0
  0
LINE
  5
323
  8
┌▓È_1
 62
     5
 10
1050.4069864799001
 20
-102.72183361739999
 30
0.0
 11
1050.4069864799001
 21
-42.721670576100003
 31
0.0
  0
LINE
  5
324
  8
┌▓È_1
 62
     5
 10
1050.4069864799001
 20
-104.72183361739999
 30
0.0
 11
1052.4069864799001
 21
-104.72183361739999
 31
0.0
  0
ARC
  5
325
  8
┌▓È_1
 62
     5
 10
1050.4069864799001
 20
-114.72183361739999
 30
0.0
 40
2.0
 50
180.0
 51
270.0
  0
ARC
  5
326
  8
┌▓È_1
 62
     5
 10
1050.4069864799001
 20
20.278492465199999
 30
0.0
 40
2.0
 50
180.0
 51
270.0
  0
LINE
  5
327
  8
┌▓È_1
 62
     5
 10
1054.4069864799001
 20
31.278492465199999
 30
0.0
 11
1050.4069864799001
 21
31.278492465199999
 31
0.0
  0
ARC
  5
328
  8
┌▓È_1
 62
     5
 10
1052.4069864799001
 20
17.278492465199999
 30
0.0
 40
1.0
 50
0.0
 51
90.0
  0
LINE
  5
329
  8
┌▓È_1
 62
     5
 10
1054.4069864799001
 20
30.278492465199999
 30
0.0
 11
1050.4069864799001
 21
30.278492465199999
 31
0.0
  0
ARC
  5
32A
  8
┌▓È_1
 62
     5
 10
1050.4069864799001
 20
29.278492465199999
 30
0.0
 40
1.0
 50
90.0
 51
180.0
  0
LINE
  5
32B
  8
┌▓È_1
 62
     5
 10
1055.4069864799001
 20
12.278492465199999
 30
0.0
 11
1092.2069864799
 21
12.278492465199999
 31
0.0
  0
LINE
  5
32C
  8
┌▓È_1
 62
     5
 10
1055.4069864799001
 20
-98.721833617399994
 30
0.0
 11
1092.2069864799
 21
-98.721833617399994
 31
0.0
  0
LINE
  5
32D
  8
┌▓È_1
 62
     5
 10
1055.4069864799001
 20
-97.721833617399994
 30
0.0
 11
1092.2069864799
 21
-97.721833617399994
 31
0.0
  0
ARC
  5
32E
  8
┌▓È_1
 62
     5
 10
1055.4069864799001
 20
-99.721833617399994
 30
0.0
 40
1.0
 50
90.0
 51
180.0
  0
LINE
  5
32F
  8
┌▓È_1
 62
     5
 10
1104.9069864799001
 20
-84.2213122255
 30
0.0
 11
1105.9069864799001
 21
-84.2213122255
 31
0.0
  0
ARC
  5
330
  8
┌▓È_1
 62
     5
 10
1092.2069864799
 20
8.2784924651999994
 30
0.0
 40
5.0
 50
0.0
 51
90.0
  0
LINE
  5
331
  8
┌▓È_1
 62
     5
 10
1050.4069864799001
 20
19.278492465199999
 30
0.0
 11
1052.4069864799001
 21
19.278492465199999
 31
0.0
  0
LINE
  5
332
  8
┌▓È_1
 62
     5
 10
1104.9069864799001
 20
-1.2213122254999991
 30
0.0
 11
1105.9069864799001
 21
-1.2213122254999991
 31
0.0
  0
LINE
  5
333
  8
┌▓È_1
 62
     5
 10
1105.9069864799001
 20
5.0783294238999988
 30
0.0
 11
1105.9069864799001
 21
-1.2213122254999991
 31
0.0
  0
LINE
  5
334
  8
┌▓È_1
 62
     5
 10
1104.9069864799001
 20
5.0783294238999988
 30
0.0
 11
1104.9069864799001
 21
-1.2213122254999991
 31
0.0
  0
LINE
  5
335
  8
┌▓È_1
 62
     5
 10
1097.2069864799
 20
8.2784924651999994
 30
0.0
 11
1097.2069864799
 21
7.7783294238999989
 31
0.0
  0
ARC
  5
336
  8
┌▓È_1
 62
     5
 10
1098.7069864799
 20
7.7783294238999989
 30
0.0
 40
1.5
 50
180.0
 51
270.0
  0
LINE
  5
337
  8
┌▓È_1
 62
     5
 10
1054.4069864799001
 20
30.278492465199999
 30
0.0
 11
1054.4069864799001
 21
30.278289340200001
 31
0.0
  0
ARC
  5
338
  8
┌▓È_1
 62
     5
 10
1104.7069864799
 20
-90.521670576100007
 30
0.0
 40
0.2
 50
270.0
 51
0.0
  0
ARC
  5
339
  8
┌▓È_1
 62
     5
 10
1098.7069864799
 20
-93.221670576099996
 30
0.0
 40
2.5
 50
90.0
 51
180.0
  0
LINE
  5
33A
  8
┌▓È_1
 62
     5
 10
1054.4069864799001
 20
-115.72183361739999
 30
0.0
 11
1050.4069864799001
 21
-115.72183361739999
 31
0.0
  0
LINE
  5
33B
  8
┌▓È_1
 62
     5
 10
1049.4069864799001
 20
29.278492465199999
 30
0.0
 11
1049.4069864799001
 21
20.278492465199999
 31
0.0
  0
LINE
  5
33C
  8
┌▓È_1
 62
     5
 10
1054.4069864799001
 20
17.278492465199999
 30
0.0
 11
1054.4069864799001
 21
14.278492465199999
 31
0.0
  0
LINE
  5
33D
  8
┌▓È_1
 62
     5
 10
1098.7069864799
 20
-90.721670576099996
 30
0.0
 11
1104.7069864799
 21
-90.721670576099996
 31
0.0
  0
LINE
  5
33E
  8
┌▓È_1
 62
     5
 10
1054.4069864799001
 20
-115.02146516889999
 30
0.0
 11
1054.4069864799001
 21
-102.72183361739999
 31
0.0
  0
LINE
  5
33F
  8
┌▓È_1
 62
     5
 10
1050.4069864799001
 20
29.579043842800001
 30
0.0
 11
1050.4069864799001
 21
30.278492465199999
 31
0.0
  0
LINE
  5
340
  8
┌▓È_1
 62
     5
 10
1054.4069864799001
 20
29.578840717799999
 30
0.0
 11
1054.4069864799001
 21
17.278492465199999
 31
0.0
  0
LINE
  5
341
  8
┌▓È_1
 62
     5
 10
1054.4068533569
 20
29.578840717799999
 30
0.0
 11
1050.4069864799001
 21
29.579043842800001
 31
0.0
  0
ARC
  5
342
  8
┌▓È_1
 62
     5
 10
1055.4069864799001
 20
14.278492465199999
 30
0.0
 40
2.0
 50
180.0
 51
270.0
  0
ARC
  5
343
  8
┌▓È_1
 62
     5
 10
1052.4069864799001
 20
17.278492465199999
 30
0.0
 40
2.0
 50
0.0
 51
90.0
  0
LINE
  5
344
  8
┌▓È_1
 62
     5
 10
1098.7069864799
 20
6.2783294238999989
 30
0.0
 11
1104.7069864799
 21
6.2783294238999989
 31
0.0
  0
LINE
  5
345
  8
┌▓È_1
 62
     5
 10
1096.2069864799
 20
8.2784924651999994
 30
0.0
 11
1096.2069864799
 21
7.7783294238999989
 31
0.0
  0
ARC
  5
346
  8
┌▓È_1
 62
     5
 10
1092.2069864799
 20
-93.721833617399994
 30
0.0
 40
5.0
 50
270.0
 51
0.0
  0
LINE
  5
347
  8
┌▓È_1
 62
     5
 10
1054.4069864799001
 20
-116.72183361739999
 30
0.0
 11
1054.4069864799001
 21
-115.72183361739999
 31
0.0
  0
LINE
  5
348
  8
┌▓È_1
 62
     5
 10
1048.4069864799001
 20
-114.72183361739999
 30
0.0
 11
1048.4069864799001
 21
-105.72183361739999
 31
0.0
  0
ARC
  5
349
  8
┌▓È_1
 62
     5
 10
917.98320022210009
 20
28.278329423900001
 30
0.0
 40
3.0
 50
0.0
 51
90.0
  0
ARC
  5
34A
  8
┌▓È_1
 62
     5
 10
899.48320022209998
 20
9.7783294239000007
 30
0.0
 40
8.0
 50
0.0
 51
90.0
  0
ARC
  5
34B
  8
┌▓È_1
 62
     5
 10
900.18320022210003
 20
10.4783294239
 30
0.0
 40
7.7999999999999989
 50
0.0
 51
90.0
  0
ARC
  5
34C
  8
┌▓È_1
 62
     5
 10
862.98320022209998
 20
-2.7216705761000002
 30
0.0
 40
4.0
 50
90.0
 51
270.0
  0
LINE
  5
34D
  8
┌▓È_1
 62
     5
 10
870.98320022209998
 20
1.2783294239
 30
0.0
 11
862.98320022209998
 21
1.2783294239
 31
0.0
  0
LINE
  5
34E
  8
┌▓È_1
 62
     5
 10
862.98320022209998
 20
-6.7216705761000002
 30
0.0
 11
870.98320022209998
 21
-6.7216705761000002
 31
0.0
  0
ARC
  5
34F
  8
┌▓È_1
 62
     5
 10
870.98320022209998
 20
-2.7216705761000002
 30
0.0
 40
4.0
 50
270.0
 51
90.0
  0
ARC
  5
350
  8
┌▓È_1
 62
     5
 10
917.98320022210009
 20
-113.7216705761
 30
0.0
 40
3.0
 50
270.0
 51
0.0
  0
ARC
  5
351
  8
┌▓È_1
 62
     5
 10
900.18320022210003
 20
-95.921670576100013
 30
0.0
 40
7.7999999999999989
 50
270.0
 51
0.0
  0
ARC
  5
352
  8
┌▓È_1
 62
     5
 10
899.48320022209998
 20
-95.22167057610001
 30
0.0
 40
8.0
 50
270.0
 51
0.0
  0
ARC
  5
353
  8
┌▓È_1
 62
     5
 10
862.98320022209998
 20
-82.721670576099996
 30
0.0
 40
4.0
 50
90.0
 51
270.0
  0
LINE
  5
354
  8
┌▓È_1
 62
     5
 10
870.98320022209998
 20
-78.721670576099996
 30
0.0
 11
862.98320022209998
 21
-78.721670576099996
 31
0.0
  0
LINE
  5
355
  8
┌▓È_1
 62
     5
 10
862.98320022209998
 20
-86.721670576100024
 30
0.0
 11
870.98320022209998
 21
-86.721670576100024
 31
0.0
  0
LINE
  5
356
  8
┌▓È_1
 62
     5
 10
1054.4069864799001
 20
31.278492465199999
 30
0.0
 11
1054.4069864799001
 21
30.278492465199999
 31
0.0
  0
LINE
  5
357
  8
┌▓È_1
 62
     5
 10
1053.4069864799001
 20
14.278492465199999
 30
0.0
 11
1053.4069864799001
 21
-42.721670576100003
 31
0.0
  0
LINE
  5
358
  8
┌▓È_1
 62
     5
 10
1098.7069864799
 20
5.2783294238999989
 30
0.0
 11
1104.7069864799
 21
5.2783294238999989
 31
0.0
  0
ARC
  5
359
  8
┌▓È_1
 62
     5
 10
1098.7069864799
 20
7.7783294238999989
 30
0.0
 40
2.5
 50
180.0
 51
270.0
  0
ARC
  5
35A
  8
┌▓È_1
 62
     5
 10
1050.4069864799001
 20
20.278492465199999
 30
0.0
 40
1.0
 50
180.0
 51
270.0
  0
LINE
  5
35B
  8
┌▓È_1
 62
     5
 10
1050.4069864799001
 20
17.278492465199999
 30
0.0
 11
1053.4069864799001
 21
17.278492465199999
 31
0.0
  0
LINE
  5
35C
  8
┌▓È_1
 62
     5
 10
1054.4068533569
 20
-115.02146516889999
 30
0.0
 11
1050.4069864799001
 21
-115.02158812650001
 31
0.0
  0
LINE
  5
35D
  8
┌▓È_1
 62
     5
 10
1050.4069864799001
 20
-115.02158812650001
 30
0.0
 11
1050.4069864799001
 21
-115.72183361739999
 31
0.0
  0
INSERT
  5
35F
  8
┌▓È_1
 62
     5
  2
CLUMP6
 10
0.0
 20
0.0
 30
0.0
  0
LINE
  5
369
  8
┌▓È_1
 62
     5
 10
1055.4069864799001
 20
13.278492465199999
 30
0.0
 11
1092.2069864799
 21
13.278492465199999
 31
0.0
  0
ARC
  5
36A
  8
┌▓È_1
 62
     5
 10
1050.4069864799001
 20
29.278492465199999
 30
0.0
 40
2.0
 50
90.0
 51
180.0
  0
ARC
  5
36B
  8
┌▓È_1
 62
     5
 10
1092.2069864799
 20
8.2784924651999994
 30
0.0
 40
4.0
 50
0.0
 51
90.0
  0
ARC
  5
36C
  8
┌▓È_1
 62
     5
 10
909.98320022210009
 20
-214.77019501160001
 30
0.0
 40
1.0
 50
90.0
 51
180.0
  0
LINE
  5
36D
  8
┌▓È_1
 62
     5
 10
907.48365766580002
 20
-214.77019501160001
 30
0.0
 11
907.48365766580002
 21
-217.63595614900001
 31
0.0
  0
LINE
  5
36E
  8
┌▓È_1
 62
     5
 10
901.98320022210009
 20
-219.77019501160001
 30
0.0
 11
901.98320022210009
 21
-252.5897497718
 31
0.0
  0
ARC
  5
36F
  8
┌▓È_1
 62
     5
 10
906.98320022210009
 20
-216.77019501160001
 30
0.0
 40
2.0
 50
270.0
 51
0.0
  0
ARC
  5
370
  8
┌▓È_1
 62
     5
 10
906.98320022210009
 20
-216.77019501160001
 30
0.0
 40
1.0
 50
270.0
 51
0.0
  0
LINE
  5
371
  8
┌▓È_1
 62
     5
 10
907.98320022210009
 20
-214.77019501160001
 30
0.0
 11
907.98320022210009
 21
-216.77019501160001
 31
0.0
  0
LINE
  5
372
  8
┌▓È_1
 62
     5
 10
918.98320022210009
 20
-213.77019501160001
 30
0.0
 11
909.98320022210009
 21
-213.77019501160001
 31
0.0
  0
ARC
  5
373
  8
┌▓È_1
 62
     5
 10
918.98320022210009
 20
-214.77019501160001
 30
0.0
 40
1.0
 50
0.0
 51
90.0
  0
ARC
  5
374
  8
┌▓È_1
 62
     5
 10
918.98320022210009
 20
-214.77019501160001
 30
0.0
 40
2.0
 50
0.0
 51
90.0
  0
LINE
  5
375
  8
┌▓È_1
 62
     5
 10
920.98320022209998
 20
-218.77019501160001
 30
0.0
 11
920.98320022209998
 21
-214.77019501160001
 31
0.0
  0
LINE
  5
376
  8
┌▓È_1
 62
     5
 10
918.98320022210009
 20
-212.77019501160001
 30
0.0
 11
907.98320022210009
 21
-212.77019501160001
 31
0.0
  0
LINE
  5
377
  8
┌▓È_1
 62
     5
 10
906.98320022210009
 20
-217.77019501160001
 30
0.0
 11
903.98320022209998
 21
-217.77019501160001
 31
0.0
  0
ARC
  5
378
  8
┌▓È_1
 62
     5
 10
903.98320022209998
 20
-219.77019501160001
 30
0.0
 40
1.0
 50
90.0
 51
180.0
  0
LINE
  5
379
  8
┌▓È_1
 62
     5
 10
920.98320022209998
 20
-218.77019501160001
 30
0.0
 11
903.98320022209998
 21
-218.77019501160001
 31
0.0
  0
ARC
  5
37A
  8
┌▓È_1
 62
     5
 10
903.98320022209998
 20
-219.77019501160001
 30
0.0
 40
2.0
 50
90.0
 51
180.0
  0
LINE
  5
37B
  8
┌▓È_1
 62
     5
 10
908.98320022210009
 20
-214.77019501160001
 30
0.0
 11
908.98320022210009
 21
-216.77019501160001
 31
0.0
  0
ARC
  5
37C
  8
┌▓È_1
 62
     5
 10
909.98320022210009
 20
-214.77019501160001
 30
0.0
 40
2.0
 50
90.0
 51
180.0
  0
LINE
  5
37D
  8
┌▓È_1
 62
     5
 10
919.98320022209998
 20
-218.77019501160001
 30
0.0
 11
919.98320022209998
 21
-214.77019501160001
 31
0.0
  0
LINE
  5
37E
  8
┌▓È_1
 62
     5
 10
902.98320022210009
 20
-219.77019501160001
 30
0.0
 11
902.98320022210009
 21
-252.5897497718
 31
0.0
  0
LINE
  5
37F
  8
┌▓È_1
  6
BORDER
 62
     3
 10
881.48320022210009
 20
-30.221670576099999
 30
0.0
 11
881.48320022210009
 21
-55.221670576099989
 31
0.0
  0
ARC
  5
380
  8
┌▓È_1
 62
     5
 10
870.98320022209998
 20
-82.721670576099996
 30
0.0
 40
4.0
 50
270.0
 51
90.0
  0
LINE
  5
381
  8
┌▓È_1
 62
     5
 10
920.98320022209998
 20
-113.7216705761
 30
0.0
 11
920.98320022209998
 21
28.278329423900001
 31
0.0
  0
LINE
  5
382
  8
┌▓È_1
 62
     5
 10
907.98320022210009
 20
-95.921670576100013
 30
0.0
 11
907.98320022210009
 21
10.4783294239
 31
0.0
  0
LINE
  5
383
  8
┌▓È_1
 62
     5
 10
907.48320022209998
 20
9.7783294239000007
 30
0.0
 11
907.48320022209998
 21
-95.22167057610001
 31
0.0
  0
CIRCLE
  5
384
  8
┌▓È_1
 62
     5
 10
881.48320022210009
 20
-42.721670576100003
 30
0.0
 40
7.0
  0
ARC
  5
385
  8
┌▓È_1
 62
     5
 10
658.98320022209987
 20
-82.721670576099996
 30
0.0
 40
4.0
 50
90.0
 51
270.0
  0
LINE
  5
386
  8
┌▓È_1
 62
     5
 10
666.98320022209987
 20
-78.721670576099996
 30
0.0
 11
658.98320022209987
 21
-78.721670576099996
 31
0.0
  0
LINE
  5
387
  8
┌▓È_1
 62
     5
 10
836.98320022209998
 20
-38.721670576100003
 30
0.0
 11
828.98320022209998
 21
-38.721670576100003
 31
0.0
  0
ARC
  5
388
  8
┌▓È_1
 62
     5
 10
828.98320022209998
 20
-42.721670576100003
 30
0.0
 40
4.0
 50
90.0
 51
270.0
  0
LINE
  5
389
  8
┌▓È_1
 62
     5
 10
632.98320022209987
 20
-38.721670576100003
 30
0.0
 11
624.98320022209987
 21
-38.721670576100003
 31
0.0
  0
ARC
  5
38A
  8
┌▓È_1
 62
     5
 10
726.98320022210009
 20
-82.721670576099996
 30
0.0
 40
4.0
 50
90.0
 51
270.0
  0
LINE
  5
38B
  8
┌▓È_1
 62
     5
 10
734.98320022210009
 20
-78.721670576099996
 30
0.0
 11
726.98320022210009
 21
-78.721670576099996
 31
0.0
  0
LINE
  5
38C
  8
┌▓È_1
 62
     5
 10
726.98320022210009
 20
-86.721670576100024
 30
0.0
 11
734.98320022210009
 21
-86.721670576100024
 31
0.0
  0
LINE
  5
38D
  8
┌▓È_1
 62
     5
 10
658.98320022209987
 20
-86.721670576100024
 30
0.0
 11
666.98320022209987
 21
-86.721670576100024
 31
0.0
  0
LINE
  5
38E
  8
┌▓È_1
 62
     5
 10
802.98320022210009
 20
-78.721670576099996
 30
0.0
 11
794.98320022209998
 21
-78.721670576099996
 31
0.0
  0
LINE
  5
38F
  8
┌▓È_1
 62
     5
 10
794.98320022209998
 20
-86.721670576100024
 30
0.0
 11
802.98320022210009
 21
-86.721670576100024
 31
0.0
  0
ARC
  5
390
  8
┌▓È_1
 62
     5
 10
802.98320022210009
 20
-82.721670576099996
 30
0.0
 40
4.0
 50
270.0
 51
90.0
  0
ARC
  5
391
  8
┌▓È_1
 62
     5
 10
794.98320022209998
 20
-82.721670576099996
 30
0.0
 40
4.0
 50
90.0
 51
270.0
  0
ARC
  5
392
  8
┌▓È_1
 62
     5
 10
598.98320022209998
 20
-82.721670576099996
 30
0.0
 40
4.0
 50
270.0
 51
90.0
  0
LINE
  5
393
  8
┌▓È_1
 62
     5
 10
828.98320022209998
 20
-46.721670576099989
 30
0.0
 11
836.98320022209998
 21
-46.721670576099989
 31
0.0
  0
ARC
  5
394
  8
┌▓È_1
 62
     5
 10
692.98320022210009
 20
-42.721670576100003
 30
0.0
 40
4.0
 50
90.0
 51
270.0
  0
LINE
  5
395
  8
┌▓È_1
 62
     5
 10
624.98320022209987
 20
-46.721670576099989
 30
0.0
 11
632.98320022209987
 21
-46.721670576099989
 31
0.0
  0
ARC
  5
396
  8
┌▓È_1
 62
     5
 10
624.98320022209987
 20
-42.721670576100003
 30
0.0
 40
4.0
 50
90.0
 51
270.0
  0
LINE
  5
397
  8
┌▓È_1
 62
     5
 10
700.98320022210009
 20
-38.721670576100003
 30
0.0
 11
692.98320022210009
 21
-38.721670576100003
 31
0.0
  0
ARC
  5
398
  8
┌▓È_1
 62
     5
 10
666.98320022209987
 20
-2.7216705761000002
 30
0.0
 40
4.0
 50
270.0
 51
90.0
  0
LINE
  5
399
  8
┌▓È_1
 62
     5
 10
734.98320022210009
 20
1.2783294239
 30
0.0
 11
726.98320022210009
 21
1.2783294239
 31
0.0
  0
ARC
  5
39A
  8
┌▓È_1
 62
     5
 10
734.98320022210009
 20
-2.7216705761000002
 30
0.0
 40
4.0
 50
270.0
 51
90.0
  0
LINE
  5
39B
  8
┌▓È_1
 62
     5
 10
658.98320022209987
 20
-6.7216705761000002
 30
0.0
 11
666.98320022209987
 21
-6.7216705761000002
 31
0.0
  0
INSERT
  5
39C
  8
0
  6
CONTINUOUS
  2
*U95
 10
0.0
 20
0.0
 30
0.0
  0
LINE
  5
39D
  8
┌▓È_1
 10
624.9620292367
 20
-148.917938064
 30
0.0
 11
694.68888818119979
 21
-148.917938064
 31
0.0
  0
LINE
  5
39E
  8
┌▓È_1
  6
STITCH
 10
810.98300802059998
 20
-212.76973366409999
 30
0.0
 11
810.98300802059998
 21
-247.76973366409999
 31
0.0
  0
LINE
  5
39F
  8
┌▓È_1
  6
STITCH
 10
810.98320022210009
 20
-247.76147262110001
 30
0.0
 11
830.98300802059987
 21
-247.76147262110001
 31
0.0
  0
LINE
  5
3A0
  8
┌▓È_1
  6
BORDER
 62
     3
 10
820.98320022209998
 20
-207.77019501160001
 30
0.0
 11
820.98320022209998
 21
-252.76973366409999
 31
0.0
  0
CIRCLE
  5
3A1
  8
┌▓È_1
  6
STITCH
 10
696.98365766580002
 20
-42.721670576100003
 30
0.0
 40
49.0
  0
CIRCLE
  5
3A2
  8
┌▓È_1
  6
STITCH
 10
696.98365766580002
 20
-42.721670576100003
 30
0.0
 40
41.5
  0
LINE
  5
3A3
  8
┌▓È_1
  6
BORDER
 62
     3
 10
696.98365766580002
 20
-121.7216705761
 30
0.0
 11
696.98365766580002
 21
36.278329423899997
 31
0.0
  0
ARC
  5
3A4
  8
┌▓È_1
 62
     5
 10
836.98320022209998
 20
-42.721670576100003
 30
0.0
 40
4.0
 50
270.0
 51
90.0
  0
ARC
  5
3A5
  8
┌▓È_1
 62
     5
 10
632.98320022209987
 20
-42.721670576100003
 30
0.0
 40
4.0
 50
270.0
 51
90.0
  0
LINE
  5
3A6
  8
┌▓È_1
 62
     5
 10
692.98320022210009
 20
-46.721670576099989
 30
0.0
 11
700.98320022210009
 21
-46.721670576099989
 31
0.0
  0
LINE
  5
3A7
  8
┌▓È_1
 62
     5
 10
768.98320022210009
 20
-38.721670576100003
 30
0.0
 11
760.98320022210009
 21
-38.721670576100003
 31
0.0
  0
ARC
  5
3A8
  8
┌▓È_1
 62
     5
 10
760.98320022210009
 20
-42.721670576100003
 30
0.0
 40
4.0
 50
90.0
 51
270.0
  0
LINE
  5
3A9
  8
┌▓È_1
 62
     5
 10
760.98320022210009
 20
-46.721670576099989
 30
0.0
 11
768.98320022210009
 21
-46.721670576099989
 31
0.0
  0
ARC
  5
3AA
  8
┌▓È_1
 62
     5
 10
768.98320022210009
 20
-42.721670576100003
 30
0.0
 40
4.0
 50
270.0
 51
90.0
  0
ARC
  5
3AB
  8
┌▓È_1
 62
     5
 10
700.98320022210009
 20
-42.721670576100003
 30
0.0
 40
4.0
 50
270.0
 51
90.0
  0
LINE
  5
3AC
  8
┌▓È_1
 62
     5
 10
794.98320022209998
 20
-6.7216705761000002
 30
0.0
 11
802.98320022210009
 21
-6.7216705761000002
 31
0.0
  0
ARC
  5
3AD
  8
┌▓È_1
 62
     5
 10
802.98320022210009
 20
-2.7216705761000002
 30
0.0
 40
4.0
 50
270.0
 51
90.0
  0
ARC
  5
3AE
  8
┌▓È_1
 62
     5
 10
658.98320022209987
 20
-2.7216705761000002
 30
0.0
 40
4.0
 50
90.0
 51
270.0
  0
LINE
  5
3AF
  8
┌▓È_1
 62
     5
 10
666.98320022209987
 20
1.2783294239
 30
0.0
 11
658.98320022209987
 21
1.2783294239
 31
0.0
  0
LINE
  5
3B0
  8
┌▓È_1
 62
     5
 10
726.98320022210009
 20
-6.7216705761000002
 30
0.0
 11
734.98320022210009
 21
-6.7216705761000002
 31
0.0
  0
ARC
  5
3B1
  8
┌▓È_1
 62
     5
 10
726.98320022210009
 20
-2.7216705761000002
 30
0.0
 40
4.0
 50
90.0
 51
270.0
  0
ARC
  5
3B2
  8
┌▓È_1
 62
     5
 10
794.98320022209998
 20
-2.7216705761000002
 30
0.0
 40
4.0
 50
90.0
 51
270.0
  0
LINE
  5
3B3
  8
┌▓È_1
 62
     5
 10
802.98320022210009
 20
1.2783294239
 30
0.0
 11
794.98320022209998
 21
1.2783294239
 31
0.0
  0
ARC
  5
3B4
  8
┌▓È_1
 62
     5
 10
598.98320022209998
 20
-2.7216705761000002
 30
0.0
 40
4.0
 50
270.0
 51
90.0
  0
ARC
  5
3B5
  8
┌▓È_1
 62
     5
 10
734.98320022210009
 20
-82.721670576099996
 30
0.0
 40
4.0
 50
270.0
 51
90.0
  0
ARC
  5
3B6
  8
┌▓È_1
 62
     5
 10
666.98320022209987
 20
-82.721670576099996
 30
0.0
 40
4.0
 50
270.0
 51
90.0
  0
LINE
  5
3B7
  8
┌▓È_1
 62
     5
 10
486.48320022209998
 20
-95.22167057610001
 30
0.0
 11
486.48320022209998
 21
9.7783294239000007
 31
0.0
  0
ARC
  5
3B8
  8
┌▓È_1
 62
     5
 10
493.78320022209988
 20
10.4783294239
 30
0.0
 40
7.7999999999999989
 50
90.0
 51
180.0
  0
ARC
  5
3B9
  8
┌▓È_1
 62
     5
 10
494.48320022209998
 20
9.7783294239000007
 30
0.0
 40
8.0
 50
90.0
 51
180.0
  0
LINE
  5
3BA
  8
┌▓È_1
 62
     5
 10
564.98320022209998
 20
-38.721670576100003
 30
0.0
 11
556.98320022209998
 21
-38.721670576100003
 31
0.0
  0
ARC
  5
3BB
  8
┌▓È_1
 62
     5
 10
522.98320022209998
 20
-82.721670576099996
 30
0.0
 40
4.0
 50
90.0
 51
270.0
  0
LINE
  5
3BC
  8
┌▓È_1
 62
     5
 10
530.98320022209987
 20
-78.721670576099996
 30
0.0
 11
522.98320022209998
 21
-78.721670576099996
 31
0.0
  0
LINE
  5
3BD
  8
┌▓È_1
 62
     5
 10
522.98320022209998
 20
-86.721670576100024
 30
0.0
 11
530.98320022209987
 21
-86.721670576100024
 31
0.0
  0
ARC
  5
3BE
  8
┌▓È_1
 62
     5
 10
530.98320022209987
 20
-82.721670576099996
 30
0.0
 40
4.0
 50
270.0
 51
90.0
  0
ARC
  5
3BF
  8
┌▓È_1
 62
     5
 10
475.98320022209992
 20
-113.7216705761
 30
0.0
 40
3.0
 50
180.0
 51
270.00001751389999
  0
ARC
  5
3C0
  8
┌▓È_1
 62
     5
 10
494.48320022209998
 20
-95.22167057610001
 30
0.0
 40
8.0
 50
180.0
 51
270.0
  0
ARC
  5
3C1
  8
┌▓È_1
 62
     5
 10
564.98320022209998
 20
-42.721670576100003
 30
0.0
 40
4.0
 50
270.0
 51
90.0
  0
CIRCLE
  5
3C2
  8
┌▓È_1
 62
     5
 10
512.48320022209987
 20
-42.721670576100003
 30
0.0
 40
7.0
  0
ARC
  5
3C3
  8
┌▓È_1
 62
     5
 10
590.98320022209998
 20
-82.721670576099996
 30
0.0
 40
4.0
 50
90.0
 51
270.0
  0
ARC
  5
3C4
  8
┌▓È_1
 62
     5
 10
475.98320022209992
 20
28.278329423900001
 30
0.0
 40
3.0
 50
90.000002253199995
 51
180.0
  0
ARC
  5
3C5
  8
┌▓È_1
 62
     5
 10
493.78320022209988
 20
-95.921670576100013
 30
0.0
 40
7.7999999999999989
 50
180.0
 51
270.0
  0
LINE
  5
3C6
  8
┌▓È_1
 62
     5
 10
556.98320022209998
 20
-46.721670576099989
 30
0.0
 11
564.98320022209998
 21
-46.721670576099989
 31
0.0
  0
ARC
  5
3C7
  8
┌▓È_1
 62
     5
 10
590.98320022209998
 20
-2.7216705761000002
 30
0.0
 40
4.0
 50
90.0
 51
270.0
  0
ARC
  5
3C8
  8
┌▓È_1
 62
     5
 10
556.98320022209998
 20
-42.721670576100003
 30
0.0
 40
4.0
 50
90.0
 51
270.0
  0
LINE
  5
3C9
  8
┌▓È_1
 62
     5
 10
472.98320022209998
 20
28.278329423900001
 30
0.0
 11
472.98320022209998
 21
-113.7216705761
 31
0.0
  0
LINE
  5
3CA
  8
┌▓È_1
 62
     5
 10
485.98320022209998
 20
10.4783294239
 30
0.0
 11
485.98320022209998
 21
-95.921670576100013
 31
0.0
  0
ARC
  5
3CB
  8
┌▓È_1
 62
     5
 10
522.98320022209998
 20
-2.7216705761000002
 30
0.0
 40
4.0
 50
90.0
 51
270.0
  0
LINE
  5
3CC
  8
┌▓È_1
 62
     5
 10
530.98320022209987
 20
1.2783294239
 30
0.0
 11
522.98320022209998
 21
1.2783294239
 31
0.0
  0
ARC
  5
3CD
  8
┌▓È_1
 62
     5
 10
530.98320022209987
 20
-2.7216705761000002
 30
0.0
 40
4.0
 50
270.0
 51
90.0
  0
LINE
  5
3CE
  8
┌▓È_1
 62
     5
 10
522.98320022209998
 20
-6.7216705761000002
 30
0.0
 11
530.98320022209987
 21
-6.7216705761000002
 31
0.0
  0
LINE
  5
3CF
  8
┌▓È_1
  6
STITCH
 10
830.98300802059987
 20
-247.76147262110001
 30
0.0
 11
830.98300802059987
 21
-212.77019501160001
 31
0.0
  0
LINE
  5
3D0
  8
┌▓È_1
 10
738.79578697190004
 20
-380.82129794550002
 30
0.0
 11
745.74171407860001
 21
-420.21360806599989
 31
0.0
  0
LINE
  5
3D1
  8
┌▓È_1
  6
STITCH
 10
562.98350398089985
 20
-247.76147262110001
 30
0.0
 11
582.98331177939997
 21
-247.76147262110001
 31
0.0
  0
LINE
  5
3D2
  8
┌▓È_1
  6
STITCH
 10
562.98331177939986
 20
-212.76973366409999
 30
0.0
 11
562.98331177939986
 21
-247.76973366409999
 31
0.0
  0
LINE
  5
3D3
  8
┌▓È_1
  6
STITCH
 10
582.98331177939997
 20
-247.76147262110001
 30
0.0
 11
582.98331177939997
 21
-212.77019501160001
 31
0.0
  0
LINE
  5
3D4
  8
┌▓È_1
  6
BORDER
 62
     3
 10
572.98350398089997
 20
-207.77019501160001
 30
0.0
 11
572.98350398089997
 21
-252.76973366409999
 31
0.0
  0
ARC
  5
3D5
  8
┌▓È_1
 62
     5
 10
483.9841151096
 20
-214.77019501160001
 30
0.0
 40
1.0
 50
0.0
 51
90.0
  0
ARC
  5
3D6
  8
┌▓È_1
 62
     5
 10
483.9841151096
 20
-214.77019501160001
 30
0.0
 40
2.0
 50
0.0
 51
90.0
  0
LINE
  5
3D7
  8
┌▓È_1
 62
     5
 10
484.9841151096
 20
-214.77019501160001
 30
0.0
 11
484.9841151096
 21
-216.77019501160001
 31
0.0
  0
LINE
  5
3D8
  8
┌▓È_1
 62
     5
 10
485.9841151096
 20
-214.77019501160001
 30
0.0
 11
485.9841151096
 21
-216.77019501160001
 31
0.0
  0
ARC
  5
3D9
  8
┌▓È_1
 62
     5
 10
486.98411510959988
 20
-216.77019501160001
 30
0.0
 40
1.0
 50
180.0
 51
270.0
  0
ARC
  5
3DA
  8
┌▓È_1
 62
     5
 10
486.98411510959988
 20
-216.77019501160001
 30
0.0
 40
2.0
 50
180.0
 51
270.0
  0
ARC
  5
3DB
  8
┌▓È_1
 62
     5
 10
489.9841151096
 20
-219.77019501160001
 30
0.0
 40
2.0
 50
0.0
 51
90.0
  0
ARC
  5
3DC
  8
┌▓È_1
 62
     5
 10
474.98320022209992
 20
-214.77019501160001
 30
0.0
 40
2.0
 50
90.0
 51
180.0
  0
LINE
  5
3DD
  8
┌▓È_1
 62
     5
 10
490.98320022209998
 20
-219.77019501160001
 30
0.0
 11
490.98320022209998
 21
-252.5897497718
 31
0.0
  0
LINE
  5
3DE
  8
┌▓È_1
 62
     5
 10
486.48365766579991
 20
-214.77019501160001
 30
0.0
 11
486.48365766579991
 21
-217.63595614900001
 31
0.0
  0
LINE
  5
3DF
  8
┌▓È_1
 62
     5
 10
472.98320022209998
 20
-218.77019501160001
 30
0.0
 11
489.98320022209998
 21
-218.77019501160001
 31
0.0
  0
LINE
  5
3E0
  8
┌▓È_1
 62
     5
 10
486.98411510959988
 20
-217.77019501160001
 30
0.0
 11
489.9841151096
 21
-217.77019501160001
 31
0.0
  0
ARC
  5
3E1
  8
┌▓È_1
 62
     5
 10
474.98411510959988
 20
-214.77019501160001
 30
0.0
 40
1.0
 50
90.0
 51
180.0
  0
LINE
  5
3E2
  8
┌▓È_1
 62
     5
 10
474.98411510959988
 20
-213.77019501160001
 30
0.0
 11
483.9841151096
 21
-213.77019501160001
 31
0.0
  0
LINE
  5
3E3
  8
┌▓È_1
 62
     5
 10
473.98411510959988
 20
-218.77019501160001
 30
0.0
 11
473.98411510959988
 21
-214.77019501160001
 31
0.0
  0
LINE
  5
3E4
  8
┌▓È_1
 62
     5
 10
474.98320022209992
 20
-212.77019501160001
 30
0.0
 11
485.98320022209998
 21
-212.77019501160001
 31
0.0
  0
LINE
  5
3E5
  8
┌▓È_1
 62
     5
 10
491.9841151096
 20
-219.77019501160001
 30
0.0
 11
491.9841151096
 21
-252.58977191560001
 31
0.0
  0
ARC
  5
3E6
  8
┌▓È_1
 62
     5
 10
489.98320022209998
 20
-219.77019501160001
 30
0.0
 40
1.0
 50
0.0
 51
90.0
  0
LINE
  5
3E7
  8
┌▓È_1
 62
     5
 10
472.98320022209998
 20
-218.77019501160001
 30
0.0
 11
472.98320022209998
 21
-214.77019501160001
 31
0.0
  0
LINE
  5
3E8
  8
┌▓È_1
  6
BORDER
 62
     3
 10
512.48320022209987
 20
-30.221670576099999
 30
0.0
 11
512.48320022209987
 21
-55.221670576099989
 31
0.0
  0
LINE
  5
3E9
  8
┌▓È_1
 62
     5
 10
598.98320022209998
 20
1.2783294239
 30
0.0
 11
590.98320022209998
 21
1.2783294239
 31
0.0
  0
LINE
  5
3EA
  8
┌▓È_1
  6
BORDER
 62
     3
 10
1043.4069864799001
 20
-42.7213122255
 30
0.0
 11
1245.2212883837001
 21
-42.7213122255
 31
0.0
  0
INSERT
  5
3EC
  8
┌▓È_1
 62
     5
  2
CLUMP7
 10
0.0
 20
0.0
 30
0.0
  0
INSERT
  5
443
  8
0
  6
CONTINUOUS
  2
*U96
 10
0.0
 20
0.0
 30
0.0
  0
LINE
  5
444
  8
┌▓È_1
 62
     5
 10
745.98320022209998
 20
-269.07019501159999
 30
0.0
 11
745.98320022209998
 21
-261.27019501159998
 31
0.0
  0
LINE
  5
445
  8
┌▓È_1
 62
     5
 10
649.18320022210003
 20
-270.27019501159998
 30
0.0
 11
655.48365766580002
 21
-270.26970478179999
 31
0.0
  0
LINE
  5
446
  8
┌▓È_1
 62
     5
 10
655.48365766580002
 20
-269.27019501159998
 30
0.0
 11
649.18320022210003
 21
-269.27019501159998
 31
0.0
  0
LINE
  5
447
  8
┌▓È_1
 62
     5
 10
655.48365766580002
 20
-270.27019501159998
 30
0.0
 11
655.48365766580002
 21
-269.27019501159998
 31
0.0
  0
LINE
  5
448
  8
┌▓È_1
 62
     5
 10
738.48365766580002
 20
-270.27019501159998
 30
0.0
 11
738.48365766580002
 21
-269.27019501159998
 31
0.0
  0
LINE
  5
449
  8
┌▓È_1
 62
     5
 10
738.48365766580002
 20
-269.27019501159998
 30
0.0
 11
744.78320022210005
 21
-269.27019501159998
 31
0.0
  0
LINE
  5
44A
  8
┌▓È_1
 62
     5
 10
738.48365766580002
 20
-270.27019501159998
 30
0.0
 11
744.78320022210005
 21
-270.27019501159998
 31
0.0
  0
ARC
  5
44B
  8
┌▓È_1
 62
     5
 10
649.18320022210003
 20
-269.07019501159999
 30
0.0
 40
0.2
 50
180.0
 51
270.0
  0
ARC
  5
44C
  8
┌▓È_1
 62
     5
 10
744.78320022210005
 20
-269.07019501159999
 30
0.0
 40
0.2
 50
270.0
 51
0.0
  0
ARC
  5
44D
  8
┌▓È_1
 62
     5
 10
744.78320022210005
 20
-269.07019501159999
 30
0.0
 40
1.1999999999999991
 50
270.0
 51
0.0
  0
ARC
  5
44E
  8
┌▓È_1
 62
     5
 10
649.18320022210003
 20
-269.07019501159999
 30
0.0
 40
1.1999999999999991
 50
180.0
 51
270.0
  0
ARC
  5
44F
  8
┌▓È_1
 62
     5
 10
647.98320022209998
 20
-261.27019501159998
 30
0.0
 40
1.0
 50
0.0
 51
88.613493878700012
  0
ARC
  5
450
  8
┌▓È_1
 62
     5
 10
745.98320022209998
 20
-261.27019501159998
 30
0.0
 40
1.0
 50
91.386506121299973
 51
180.0
  0
INSERT
  5
452
  8
┌▓È_1
 62
     5
  2
CLUMP8
 10
0.0
 20
0.0
 30
0.0
  0
LINE
  5
54D
  8
┌▓È_1
 62
     5
 10
648.98320022209998
 20
-269.07019501159999
 30
0.0
 11
648.98320022209998
 21
-261.27019501159998
 31
0.0
  0
LINE
  5
54E
  8
┌▓È_1
 62
     5
 10
744.98320022209998
 20
-269.07019501159999
 30
0.0
 11
744.98320022209998
 21
-261.27019501159998
 31
0.0
  0
LINE
  5
54F
  8
┌▓È_1
 62
     5
 10
647.98320022209998
 20
-269.07019501159999
 30
0.0
 11
647.98320022209998
 21
-261.27019501159998
 31
0.0
  0
INSERT
  5
550
  8
0
  6
CONTINUOUS
  2
*U97
 10
0.0
 20
0.0
 30
0.0
  0
LINE
  5
551
  8
┌▓È_1
 10
655.17672977199993
 20
-380.82129794550002
 30
0.0
 11
662.12265687859986
 21
-420.21360806599989
 31
0.0
  0
LINE
  5
552
  8
┌▓È_1
 10
725.33524721200001
 20
-379.36221288550001
 30
0.0
 11
732.28117431869987
 21
-418.754523006
 31
0.0
  0
LINE
  5
553
  8
┌▓È_1
 10
668.63726953190007
 20
-379.36221288550001
 30
0.0
 11
675.58319663860004
 21
-418.754523006
 31
0.0
  0
LINE
  5
554
  8
┌▓È_1
 62
     5
 10
907.48365766580002
 20
-214.77019501160001
 30
0.0
 11
486.48365766579991
 21
-214.77019501160001
 31
0.0
  0
LINE
  5
555
  8
┌▓È_1
 62
     5
 10
903.98320022209998
 20
-217.77019501160001
 30
0.0
 11
489.9841151096
 21
-217.77019501160001
 31
0.0
  0
LINE
  5
556
  8
┌▓È_1
 62
     5
 10
745.95900348689986
 20
-260.27048779540002
 30
0.0
 11
898.07998716279985
 21
-256.58857863639997
 31
0.0
  0
LINE
  5
557
  8
┌▓È_1
 62
     5
 10
907.98320022210009
 20
-212.77019501160001
 30
0.0
 11
696.98320022210009
 21
-212.77019501160001
 31
0.0
  0
LINE
  5
558
  8
┌▓È_1
 62
     5
 10
745.98320022209998
 20
-261.27019501159998
 30
0.0
 11
898.10418389789993
 21
-257.58828585259999
 31
0.0
  0
LINE
  5
559
  8
┌▓È_1
  6
BORDER
 62
     3
 10
467.98320022209992
 20
-42.721670576100003
 30
0.0
 11
925.98320022210009
 21
-42.721670576100003
 31
0.0
  0
LINE
  5
55A
  8
┌▓È_1
 62
     5
 10
712.98320022209998
 20
-103.7216705761
 30
0.0
 11
900.18320022210003
 21
-103.7216705761
 31
0.0
  0
LINE
  5
55B
  8
┌▓È_1
 62
     5
 10
494.48320022209998
 20
17.778329423900001
 30
0.0
 11
899.48320022209998
 21
17.778329423900001
 31
0.0
  0
LINE
  5
55C
  8
┌▓È_1
 62
     5
 10
899.48320022209998
 20
-103.2216705761
 30
0.0
 11
494.48320022209998
 21
-103.2216705761
 31
0.0
  0
LINE
  5
55D
  8
┌▓È_1
 62
     5
 10
900.18320022210003
 20
18.278329423900001
 30
0.0
 11
712.98320022209998
 21
18.278329423900001
 31
0.0
  0
LINE
  5
55E
  8
┌▓È_1
 62
     5
 10
475.9832011391
 20
-116.7216705761
 30
0.0
 11
917.98320022210009
 21
-116.7216705761
 31
0.0
  0
LINE
  5
55F
  8
┌▓È_1
 62
     5
 10
917.98320022210009
 20
31.278329423900001
 30
0.0
 11
475.98320010409998
 21
31.278329423900001
 31
0.0
  0
LINE
  5
560
  8
┌▓È_1
  6
BORDER
 62
     3
 10
696.98365766580002
 20
-207.77019501160001
 30
0.0
 11
696.98365766580002
 21
-409.58399568919998
 31
0.0
  0
ARC
  5
561
  8
┌▓È_1
 62
     5
 10
495.98411510959988
 20
-252.58977191560001
 30
0.0
 40
4.0
 50
180.0
 51
268.61349387870001
  0
ARC
  5
562
  8
┌▓È_1
 62
     5
 10
495.98320022209992
 20
-252.5897497718
 30
0.0
 40
5.0
 50
180.0
 51
268.61349387870001
  0
LINE
  5
563
  8
┌▓È_1
 62
     5
 10
648.00739695729987
 20
-260.27048779540002
 30
0.0
 11
495.88732816890001
 21
-256.58860078020001
 31
0.0
  0
ARC
  5
564
  8
┌▓È_1
 62
     5
 10
897.98320022209998
 20
-252.5897497718
 30
0.0
 40
5.0
 50
271.38650612129999
 51
0.0
  0
ARC
  5
565
  8
┌▓È_1
 62
     5
 10
897.98320022209998
 20
-252.5897497718
 30
0.0
 40
4.0
 50
271.38650612129999
 51
0.0
  0
LINE
  5
566
  8
┌▓È_1
 62
     5
 10
647.98320022209998
 20
-261.27019501159998
 30
0.0
 11
495.86221654629992
 21
-257.58828585259999
 31
0.0
  0
LINE
  5
567
  8
┌▓È_1
 62
     5
 10
485.98320022209998
 20
-212.77019501160001
 30
0.0
 11
696.98320022210009
 21
-212.77019501160001
 31
0.0
  0
LINE
  5
568
  8
┌▓È_1
 62
     5
 10
712.98320022209998
 20
18.278329423900001
 30
0.0
 11
493.78320022209988
 21
18.278329423900001
 31
0.0
  0
LINE
  5
569
  8
┌▓È_1
 62
     5
 10
493.78320022209988
 20
-103.7216705761
 30
0.0
 11
712.98320022209998
 21
-103.7216705761
 31
0.0
  0
LINE
  5
56A
  8
┌▓È_1
 62
     5
 10
598.98320022209998
 20
-78.721670576099996
 30
0.0
 11
590.98320022209998
 21
-78.721670576099996
 31
0.0
  0
LINE
  5
56B
  8
┌▓È_1
 62
     5
 10
590.98320022209998
 20
-86.721670576100024
 30
0.0
 11
598.98320022209998
 21
-86.721670576100024
 31
0.0
  0
LINE
  5
56C
  8
┌▓È_1
 62
     5
 10
590.98320022209998
 20
-6.7216705761000002
 30
0.0
 11
598.98320022209998
 21
-6.7216705761000002
 31
0.0
  0
ENDSEC
  0
EOF
