  0
SECTION
  2
HEADER
  9
$ACADVER
  1
AC1015
  9
$ACADMAINTVER
 70
               6
  9
$DWGCODEPAGE
  3
ANSI_932
  9
$INSBASE
 10
0.0
 20
0.0
 30
0.0
  9
$EXTMIN
 10
-226.75156836340324
 20
106.50163299346751
 30
0.0
  9
$EXTMAX
 10
204.00459602015837
 20
-105.97690581931788
 30
0.0
  9
$LIMMIN
 10
0.0
 20
0.0
  9
$LIMMAX
 10
0.0
 20
0.0
  9
$ORTHOMODE
 70
               0
  9
$REGENMODE
 70
               1
  9
$FILLMODE
 70
               1
  9
$QTEXTMODE
 70
               0
  9
$MIRRTEXT
 70
               1
  9
$LTSCALE
 40
1.0
  9
$ATTMODE
 70
               1
  9
$TEXTSIZE
 40
0.2
  9
$TRACEWID
 40
0.05
  9
$TEXTSTYLE
  7
Standard
  9
$CLAYER
  8
0
  9
$CELTYPE
  6
Continuous
  9
$CECOLOR
 62
             256
  9
$CELTSCALE
 40
1.0
  9
$DISPSILH
 70
               0
  9
$DIMSCALE
 40
1.0
  9
$DIMASZ
 40
2.4148145657226707
  9
$DIMEXO
 40
1.0
  9
$DIMDLI
 40
0.38
  9
$DIMRND
 40
0.0
  9
$DIMDLE
 40
0.0
  9
$DIMEXE
 40
2.0
  9
$DIMTP
 40
0.0
  9
$DIMTM
 40
0.0
  9
$DIMTXT
 40
3.5277777777777777
  9
$DIMCEN
 40
0.09
  9
$DIMTSZ
 40
0.0
  9
$DIMTOL
 70
               0
  9
$DIMLIM
 70
               0
  9
$DIMTIH
 70
               0
  9
$DIMTOH
 70
               0
  9
$DIMSE1
 70
               0
  9
$DIMSE2
 70
               0
  9
$DIMTAD
 70
               1
  9
$DIMZIN
 70
               0
  9
$DIMBLK
  1

  9
$DIMASO
 70
               1
  9
$DIMSHO
 70
               1
  9
$DIMPOST
  1

  9
$DIMAPOST
  1

  9
$DIMALT
 70
               0
  9
$DIMALTD
 70
               2
  9
$DIMALTF
 40
25.399999999999999
  9
$DIMLFAC
 40
1.0
  9
$DIMTOFL
 70
               0
  9
$DIMTVP
 40
0.0
  9
$DIMTIX
 70
               0
  9
$DIMSOXD
 70
               0
  9
$DIMSAH
 70
               0
  9
$DIMBLK1
  1

  9
$DIMBLK2
  1

  9
$DIMSTYLE
  2
Standard
  9
$DIMCLRD
 70
               7
  9
$DIMCLRE
 70
               7
  9
$DIMCLRT
 70
               7
  9
$DIMTFAC
 40
1.0
  9
$DIMGAP
 40
1.0
  9
$DIMJUST
 70
               0
  9
$DIMSD1
 70
               0
  9
$DIMSD2
 70
               0
  9
$DIMTOLJ
 70
               1
  9
$DIMTZIN
 70
               0
  9
$DIMALTZ
 70
               0
  9
$DIMALTTZ
 70
               0
  9
$DIMUPT
 70
               0
  9
$DIMDEC
 70
               2
  9
$DIMTDEC
 70
               4
  9
$DIMALTU
 70
               2
  9
$DIMALTTD
 70
               2
  9
$DIMTXSTY
  7
Standard
  9
$DIMAUNIT
 70
               0
  9
$DIMADEC
 70
               0
  9
$DIMALTRND
 40
0.0
  9
$DIMAZIN
 70
               0
  9
$DIMDSEP
 70
               0
  9
$DIMATFIT
 70
               3
  9
$DIMFRAC
 70
               0
  9
$DIMLDRBLK
  1

  9
$DIMLUNIT
 70
               2
  9
$DIMLWD
 70
               0
  9
$DIMLWE
 70
               0
  9
$DIMTMOVE
 70
               0
  9
$LUNITS
 70
               2
  9
$LUPREC
 70
               4
  9
$SKETCHINC
 40
0.1
  9
$FILLETRAD
 40
0.0
  9
$AUNITS
 70
               0
  9
$AUPREC
 70
               0
  9
$MENU
  1
acad
  9
$ELEVATION
 40
0.0
  9
$PELEVATION
 40
0.0
  9
$THICKNESS
 40
0.0
  9
$LIMCHECK
 70
               0
  9
$CHAMFERA
 40
0.0
  9
$CHAMFERB
 40
0.0
  9
$CHAMFERC
 40
0.0
  9
$CHAMFERD
 40
0.0
  9
$SKPOLY
 70
               0
  9
$TDCREATE
 40
2457418.709930555
  9
$TDUCREATE
 40
0.000000000
  9
$TDUPDATE
 40
2457418.709930555
  9
$TDUUPDATE
 40
0.000000000
  9
$TDINDWG
 40
0.0000000000
  9
$TDUSRTIMER
 40
0.0000000000
  9
$USRTIMER
 70
               1
  9
$ANGBASE
 50
0.0
  9
$ANGDIR
 70
               0
  9
$PDMODE
 70
               0
  9
$PDSIZE
 40
0.0
  9
$PLINEWID
 40
0.0
  9
$SPLFRAME
 70
               0
  9
$SPLINETYPE
 70
               6
  9
$SPLINESEGS
 70
               8
  9
$HANDSEED
  5
274
  9
$SURFTAB1
 70
               6
  9
$SURFTAB2
 70
               6
  9
$SURFTYPE
 70
               6
  9
$SURFU
 70
               6
  9
$SURFV
 70
               6
  9
$UCSBASE
  2

  9
$UCSNAME
  2

  9
$UCSORG
 10
0.0
 20
0.0
 30
0.0
  9
$UCSXDIR
 10
1.0
 20
0.0
 30
0.0
  9
$UCSYDIR
 10
0.0
 20
1.0
 30
0.0
  9
$UCSORTHOREF
  2

  9
$UCSORTHOVIEW
 70
               0
  9
$UCSORGTOP
 10
0.0
 20
0.0
 30
0.0
  9
$UCSORGBOTTOM
 10
0.0
 20
0.0
 30
0.0
  9
$UCSORGLEFT
 10
0.0
 20
0.0
 30
0.0
  9
$UCSORGRIGHT
 10
0.0
 20
0.0
 30
0.0
  9
$UCSORGFRONT
 10
0.0
 20
0.0
 30
0.0
  9
$UCSORGBACK
 10
0.0
 20
0.0
 30
0.0
  9
$PUCSBASE
  2

  9
$PUCSNAME
  2

  9
$PUCSORG
 10
0.0
 20
0.0
 30
0.0
  9
$PUCSXDIR
 10
1.0
 20
0.0
 30
0.0
  9
$PUCSYDIR
 10
0.0
 20
1.0
 30
0.0
  9
$PUCSORTHOREF
  2

  9
$PUCSORTHOVIEW
 70
               0
  9
$PUCSORGTOP
 10
0.0
 20
0.0
 30
0.0
  9
$PUCSORGBOTTOM
 10
0.0
 20
0.0
 30
0.0
  9
$PUCSORGLEFT
 10
0.0
 20
0.0
 30
0.0
  9
$PUCSORGRIGHT
 10
0.0
 20
0.0
 30
0.0
  9
$PUCSORGFRONT
 10
0.0
 20
0.0
 30
0.0
  9
$PUCSORGBACK
 10
0.0
 20
0.0
 30
0.0
  9
$USERI1
 70
               0
  9
$USERI2
 70
               0
  9
$USERI3
 70
               0
  9
$USERI4
 70
               0
  9
$USERI5
 70
               0
  9
$USERR1
 40
0.0
  9
$USERR2
 40
0.0
  9
$USERR3
 40
0.0
  9
$USERR4
 40
0.0
  9
$USERR5
 40
0.0
  9
$WORLDVIEW
 70
               1
  9
$SHADEDGE
 70
               3
  9
$SHADEDIF
 70
              70
  9
$TILEMODE
 70
               1
  9
$MAXACTVP
 70
              16
  9
$PINSBASE
 10
0.0
 20
0.0
 30
0.0
  9
$PLIMCHECK
 70
               0
  9
$PEXTMIN
 10
1.0000000000000000E+20
 20
1.0000000000000000E+20
 30
1.0000000000000000E+20
  9
$PEXTMAX
 10
-1.0000000000000000E+20
 20
-1.0000000000000000E+20
 30
-1.0000000000000000E+20
  9
$PLIMMIN
 10
0.0
 20
0.0
  9
$PLIMMAX
 10
12.0
 20
9.0
  9
$UNITMODE
 70
               0
  9
$VISRETAIN
 70
               0
  9
$PLINEGEN
 70
               1
  9
$PSLTSCALE
 70
               0
  9
$TREEDEPTH
 70
            3020
  9
$CMLSTYLE
  2
Standard
  9
$CMLJUST
 70
               0
  9
$CMLSCALE
 40
1.0
  9
$PROXYGRAPHICS
 70
               0
  9
$MEASUREMENT
 70
               0
  9
$CELWEIGHT
370
               0
  9
$ENDCAPS
280
               0
  9
$JOINSTYLE
280
               0
  9
$LWDISPLAY
290
               0
  9
$INSUNITS
 70
               0
  9
$HYPERLINKBASE
  1

  9
$STYLESHEET
  1

  9
$XEDIT
290
               1
  9
$CEPSNTYPE
380
               0
  9
$PSTYLEMODE
290
               1
  9
$FINGERPRINTGUID
  2

  9
$VERSIONGUID
  2

  9
$EXTNAMES
290
               1
  9
$PSVPSCALE
 40
0.0
  0
ENDSEC
  0
SECTION
  2
CLASSES
  0
CLASS
  1
LWPOLYLINE
  2
AcDbPolyline
  3
AutoCAD 2000
 90
        0
280
               0
281
               1
  0
CLASS
  1
IMAGE
  2
AcDbRasterImage
  3
ISM
 90
      127
280
               0
281
               1
  0
CLASS
  1
OLE2FRAME
  2
AcDbOle2Frame
  3
AutoCAD 2000
 90
        0
280
               0
281
               1
  0
CLASS
  1
HATCH
  2
AcDbHatch
  3
AutoCAD 2000
 90
        0
280
               0
281
               1
  0
CLASS
  1
DICTIONARYVAR
  2
AcDbDictionaryVar
  3
AutoCAD 2000
 90
        0
280
               0
281
               0
  0
CLASS
  1
RASTERVARIABLES
  2
AcDbRasterVariables
  3
ISM
 90
        0
280
               0
281
               0
  0
CLASS
  1
IMAGEDEF
  2
AcDbRasterImageDef
  3
ISM
 90
        0
280
               0
281
               0
  0
CLASS
  1
IMAGEDEF_REACTOR
  2
AcDbRasterImageDefReactor
  3
ISM
 90
        1
280
               0
281
               0
  0
CLASS
  1
IDBUFFER
  2
AcDbIdBuffer
  3
AutoCAD 2000
 90
        0
280
               0
281
               0
  0
CLASS
  1
SPATIAL_FILTER
  2
AcDbSpatialFilter
  3
AutoCAD 2000
 90
        0
280
               0
281
               0
  0
CLASS
  1
XRECORD
  2
AcDbXrecord
  3
AutoCAD 2000
 90
        0
280
               0
281
               0
  0
CLASS
  1
SORTENTSTABLE
  2
AcDbSortentsTable
  3
AutoCAD 2000
 90
        0
280
               0
281
               0
  0
CLASS
  1
LAYER_INDEX
  2
AcDbLayerIndex
  3
AutoCAD 2000
 90
        0
280
               0
281
               0
  0
CLASS
  1
SPATIAL_INDEX
  2
AcDbSpatialIndex
  3
AutoCAD 2000
 90
        0
280
               0
281
               0
  0
CLASS
  1
OBJECT_PTR
  2
CAseDLPNTableRecord
  3
"ASE-LPNTableRecord"
 90
        1
280
               0
281
               0
  0
CLASS
  1
LAYOUT
  2
AcDbLayout
  3
AutoCAD 2000
 90
        0
280
               0
281
               0
  0
CLASS
  1
PLOTSETTINGS
  2
AcDbPlotSettings
  3
AutoCAD 2000
 90
        0
280
               0
281
               0
  0
CLASS
  1
ACDBDICTIONARYWDFLT
  2
AcDbDictionaryWithDefault
  3
AutoCAD 2000
 90
        0
280
               0
281
               0
  0
CLASS
  1
ACDBPLACEHOLDER
  2
AcDbPlaceHolder
  3
AutoCAD 2000
 90
        0
280
               0
281
               0
  0
CLASS
  1
VBA_PROJECT
  2
AcDbVbaProject
  3
acadvba
 90
        0
280
               0
281
               0
  0
CLASS
  1
WIPEOUT
  2
AcDbWipeout
  3
WipeOut|AutoCAD Express Tool|expresstools@autodesk.com
 90
      127
280
               0
281
               1
  0
CLASS
  1
WIPEOUTVARIABLES
  2
AcDbWipeoutVariables
  3
WipeOut|AutoCAD Express Tool|expresstools@autodesk.com
 90
        0
280
               0
281
               0
  0
CLASS
  1
RTEXT
  2
RText
  3
RText|AutoCAD Express Tool|expresstools@autodesk.com
 90
        0
280
               0
281
               1
  0
CLASS
  1
ARCALIGNEDTEXT
  2
AcDbArcAlignedText
  3
ATEXT|AutoCAD Express Tool|expresstools@autodesk.com
 90
        0
280
               0
281
               1
  0
ENDSEC
  0
SECTION
  2
TABLES
  0
TABLE
  2
VPORT
  5
7
100
AcDbSymbolTable
 70
               1
  0
VPORT
  5
15
100
AcDbSymbolTableRecord
100
AcDbViewportTableRecord
  2
*ACTIVE
 70
               0
 10
0.0
 20
0.0
 11
1.0
 21
1.0
 12
6.5912879999999996
 22
4.5791839999999997
 13
0.0
 23
0.0
 14
1.0
 24
1.0
 15
0.0
 25
0.0
 16
0.0
 26
0.0
 36
1.0
 17
0.0
 27
0.0
 37
0.0
 40
9.1583690000000004
 41
0.688564
 42
50.0
 43
0.0
 44
0.0
 50
0.0
 51
0.0
 71
               0
 72
             100
 73
               1
 74
               1
 75
               0
 76
               0
 77
               0
 78
               0
281
               0
 65
               0
110
0.0
120
0.0
130
0.0
111
1.0
121
0.0
131
0.0
112
0.0
122
1.0
132
0.0
345
0
346
0
 79
               0
146
0.0
  0
ENDTAB
  0
TABLE
  2
LTYPE
  5
4
100
AcDbSymbolTable
 70
              13
  0
LTYPE
  5
11
100
AcDbSymbolTableRecord
100
AcDbLinetypeTableRecord
  2
ByBlock
 70
              64
  3

 72
              65
 73
               0
 40
0.0
  0
LTYPE
  5
12
100
AcDbSymbolTableRecord
100
AcDbLinetypeTableRecord
  2
ByLayer
 70
              64
  3

 72
              65
 73
               0
 40
0.0
  0
LTYPE
  5
13
100
AcDbSymbolTableRecord
100
AcDbLinetypeTableRecord
  2
Continuous
 70
              64
  3
Solid line
 72
              65
 73
               0
 40
0.0
  0
LTYPE
  5
24
100
AcDbSymbolTableRecord
100
AcDbLinetypeTableRecord
  2
DOT
 70
              64
  3

 72
              65
 73
               2
 40
1.0
 49
0.0
 74
               0
 49
-1.0
 74
               0
  0
LTYPE
  5
25
100
AcDbSymbolTableRecord
100
AcDbLinetypeTableRecord
  2
DASHEDX2
 70
              64
  3

 72
              65
 73
               2
 40
4.0
 49
3.0
 74
               0
 49
-1.0
 74
               0
  0
LTYPE
  5
26
100
AcDbSymbolTableRecord
100
AcDbLinetypeTableRecord
  2
DASHED
 70
              64
  3

 72
              65
 73
               2
 40
3.0
 49
2.0
 74
               0
 49
-1.0
 74
               0
  0
LTYPE
  5
27
100
AcDbSymbolTableRecord
100
AcDbLinetypeTableRecord
  2
DASHED2
 70
              64
  3

 72
              65
 73
               2
 40
2.0
 49
1.0
 74
               0
 49
-1.0
 74
               0
  0
LTYPE
  5
28
100
AcDbSymbolTableRecord
100
AcDbLinetypeTableRecord
  2
CENTERX2
 70
              64
  3

 72
              65
 73
               4
 40
43.0
 49
40.0
 74
               0
 49
-1.0
 74
               0
 49
1.0
 74
               0
 49
-1.0
 74
               0
  0
LTYPE
  5
29
100
AcDbSymbolTableRecord
100
AcDbLinetypeTableRecord
  2
CENTER
 70
              64
  3

 72
              65
 73
               4
 40
33.0
 49
30.0
 74
               0
 49
-1.0
 74
               0
 49
1.0
 74
               0
 49
-1.0
 74
               0
  0
LTYPE
  5
2A
100
AcDbSymbolTableRecord
100
AcDbLinetypeTableRecord
  2
CENTER2
 70
              64
  3

 72
              65
 73
               4
 40
23.0
 49
20.0
 74
               0
 49
-1.0
 74
               0
 49
1.0
 74
               0
 49
-1.0
 74
               0
  0
LTYPE
  5
2B
100
AcDbSymbolTableRecord
100
AcDbLinetypeTableRecord
  2
PHANTOMX2
 70
              64
  3

 72
              65
 73
               6
 40
45.0
 49
40.0
 74
               0
 49
-1.0
 74
               0
 49
1.0
 74
               0
 49
-1.0
 74
               0
 49
1.0
 74
               0
 49
-1.0
 74
               0
  0
LTYPE
  5
2C
100
AcDbSymbolTableRecord
100
AcDbLinetypeTableRecord
  2
PHANTOM
 70
              64
  3

 72
              65
 73
               6
 40
35.0
 49
30.0
 74
               0
 49
-1.0
 74
               0
 49
1.0
 74
               0
 49
-1.0
 74
               0
 49
1.0
 74
               0
 49
-1.0
 74
               0
  0
LTYPE
  5
2D
100
AcDbSymbolTableRecord
100
AcDbLinetypeTableRecord
  2
PHANTOM2
 70
              64
  3

 72
              65
 73
               6
 40
25.0
 49
20.0
 74
               0
 49
-1.0
 74
               0
 49
1.0
 74
               0
 49
-1.0
 74
               0
 49
1.0
 74
               0
 49
-1.0
 74
               0
  0
ENDTAB
  0
TABLE
  2
LAYER
  5
2
100
AcDbSymbolTable
 70
              17
  0
LAYER
  5
14
100
AcDbSymbolTableRecord
100
AcDbLayerTableRecord
  2
0
 70
               0
 62
               7
  6
Continuous
290
               1
370
              -3
390
1D
  0
LAYER
  5
2E
100
AcDbSymbolTableRecord
100
AcDbLayerTableRecord
  2
DEFPOINTS
 70
               0
 62
               7
  6
Continuous
290
               0
370
              -3
390
1D
  0
LAYER
  5
2F
100
AcDbSymbolTableRecord
100
AcDbLayerTableRecord
  2
____1
 70
               0
 62
               7
  6
Continuous
290
               1
370
              -3
390
1D
  0
LAYER
  5
30
100
AcDbSymbolTableRecord
100
AcDbLayerTableRecord
  2
______
 70
               0
 62
               7
  6
Continuous
290
               1
370
              -3
390
1D
  0
LAYER
  5
31
100
AcDbSymbolTableRecord
100
AcDbLayerTableRecord
  2
寸法線_1
 70
               0
 62
               7
  6
Continuous
290
               1
370
              -3
390
1D
  0
LAYER
  5
32
100
AcDbSymbolTableRecord
100
AcDbLayerTableRecord
  2
CONSTRUCTION
 70
               0
 62
               7
  6
Continuous
290
               1
370
              -3
390
1D
  0
LAYER
  5
33
100
AcDbSymbolTableRecord
100
AcDbLayerTableRecord
  2
DIMENSION
 70
               0
 62
               7
  6
Continuous
290
               1
370
              -3
390
1D
  0
LAYER
  5
34
100
AcDbSymbolTableRecord
100
AcDbLayerTableRecord
  2
FORMAT
 70
               0
 62
               7
  6
Continuous
290
               1
370
              -3
390
1D
  0
LAYER
  5
35
100
AcDbSymbolTableRecord
100
AcDbLayerTableRecord
  2
____
 70
               0
 62
               7
  6
DOT
290
               1
370
              -3
390
1D
  0
LAYER
  5
36
100
AcDbSymbolTableRecord
100
AcDbLayerTableRecord
  2
___G
 70
               0
 62
               7
  6
DOT
290
               1
370
              -3
390
1D
  0
LAYER
  5
37
100
AcDbSymbolTableRecord
100
AcDbLayerTableRecord
  2
0_1
 70
               0
 62
               7
  6
Continuous
290
               1
370
              -3
390
1D
  0
LAYER
  5
38
100
AcDbSymbolTableRecord
100
AcDbLayerTableRecord
  2
____1_1
 70
               0
 62
              -7
  6
Continuous
290
               1
370
              -3
390
1D
  0
LAYER
  5
39
100
AcDbSymbolTableRecord
100
AcDbLayerTableRecord
  2
________1
 70
               0
 62
               7
  6
Continuous
290
               1
370
              -3
390
1D
  0
LAYER
  5
3A
100
AcDbSymbolTableRecord
100
AcDbLayerTableRecord
  2
________1_____1
 70
               0
 62
               7
  6
Continuous
290
               1
370
              -3
390
1D
  0
LAYER
  5
3B
100
AcDbSymbolTableRecord
100
AcDbLayerTableRecord
  2
________1________1
 70
               0
 62
               7
  6
Continuous
290
               1
370
              -3
390
1D
  0
LAYER
  5
3C
100
AcDbSymbolTableRecord
100
AcDbLayerTableRecord
  2
_____
 70
               0
 62
              -7
  6
Continuous
290
               1
370
              -3
390
1D
  0
LAYER
  5
3D
100
AcDbSymbolTableRecord
100
AcDbLayerTableRecord
  2
__________1
 70
               0
 62
              -7
  6
Continuous
290
               1
370
              -3
390
1D
  0
ENDTAB
  0
TABLE
  2
STYLE
  5
3
100
AcDbSymbolTable
 70
               2
  0
STYLE
  5
17
100
AcDbSymbolTableRecord
100
AcDbTextStyleTableRecord
  2
Standard
 70
               0
 40
0.0
 41
1.0
 50
0.0
 71
               0
 42
0.35
  3
txt
  4

  0
STYLE
  5
52
100
AcDbSymbolTableRecord
100
AcDbTextStyleTableRecord
  2
Style1
 70
               0
 40
0.0
 41
1.0
 50
0.0
 71
               0
 42
0.35
  3
ＭＳ ゴシック
  4

  0
ENDTAB
  0
TABLE
  2
VIEW
  5
5
100
AcDbSymbolTable
 70
               0
  0
ENDTAB
  0
TABLE
  2
UCS
  5
6
100
AcDbSymbolTable
 70
               0
  0
ENDTAB
  0
TABLE
  2
APPID
  5
8
100
AcDbSymbolTable
 70
               1
  0
APPID
  5
16
100
AcDbSymbolTableRecord
100
AcDbRegAppTableRecord
  2
ACAD
 70
               0
  0
ENDTAB
  0
TABLE
  2
DIMSTYLE
  5
9
100
AcDbSymbolTable
 70
               2
100
AcDbDimStyleTable
 71
               0
  0
DIMSTYLE
105
18
100
AcDbSymbolTableRecord
100
AcDbDimStyleTableRecord
  2
Standard
 70
               0
  3

  4

 40
1.0
 41
2.4148145657226707
 42
1.0
 43
0.38
 44
2.0
 45
0.0
 46
0.0
 47
0.0
 48
0.0
 71
               0
 72
               0
 73
               0
 74
               0
 75
               0
 76
               0
 77
               1
 78
               0
 79
               0
140
3.5277777777777777
141
0.09
142
0.0
143
25.399999999999999
144
1.0
145
0.0
146
1.0
147
1.0
148
0.0
170
               0
171
               2
172
               0
173
               0
174
               0
175
               0
176
               7
177
               7
178
               7
179
               0
271
               2
272
               4
273
               2
274
               2
275
               0
276
               0
277
               2
278
              46
279
               0
280
               0
281
               0
282
               0
283
               1
284
               0
285
               0
286
               0
288
               0
289
               0
340
17
341
0
342
0
343
0
344
0
371
              -2
372
              -2
  0
DIMSTYLE
105
11B
100
AcDbSymbolTableRecord
100
AcDbDimStyleTableRecord
  2
DS1
 70
               0
  3

  4

 40
1.0
 41
2.4148145657226707
 42
1.0
 43
0.38
 44
2.0
 45
0.0
 46
0.0
 47
0.0
 48
0.0
 71
               0
 72
               0
 73
               0
 74
               0
 75
               0
 76
               0
 77
               1
 78
               8
 79
               0
140
3.5277776718139648
141
0.09
142
0.0
143
25.399999999999999
144
1.0
145
0.0
146
1.0
147
1.0
148
0.0
170
               0
171
               2
172
               0
173
               0
174
               0
175
               0
176
               7
177
               7
178
               7
179
               0
271
               2
272
               4
273
               2
274
               2
275
               0
276
               0
277
               2
278
              46
279
               0
280
               0
281
               0
282
               0
283
               1
284
               0
285
               0
286
               0
288
               0
289
               3
340
17
341
0
342
0
343
0
344
0
371
              -2
372
              -2
  0
ENDTAB
  0
TABLE
  2
BLOCK_RECORD
  5
1
100
AcDbSymbolTable
 70
              11
  0
BLOCK_RECORD
  5
A
100
AcDbSymbolTableRecord
100
AcDbBlockTableRecord
  2
*MODEL_SPACE
340
20
  0
BLOCK_RECORD
  5
B
100
AcDbSymbolTableRecord
100
AcDbBlockTableRecord
  2
*PAPER_SPACE
340
21
  0
BLOCK_RECORD
  5
10B
100
AcDbSymbolTableRecord
100
AcDbBlockTableRecord
  2
*D0
340
0
  0
BLOCK_RECORD
  5
11C
100
AcDbSymbolTableRecord
100
AcDbBlockTableRecord
  2
*D1
340
0
  0
BLOCK_RECORD
  5
12A
100
AcDbSymbolTableRecord
100
AcDbBlockTableRecord
  2
C0
340
0
102
{BLKREFS
331
131
102
}
  0
BLOCK_RECORD
  5
132
100
AcDbSymbolTableRecord
100
AcDbBlockTableRecord
  2
*D3
340
0
  0
BLOCK_RECORD
  5
13C
100
AcDbSymbolTableRecord
100
AcDbBlockTableRecord
  2
*D4
340
0
  0
BLOCK_RECORD
  5
174
100
AcDbSymbolTableRecord
100
AcDbBlockTableRecord
  2
C1
340
0
102
{BLKREFS
331
218
102
}
  0
BLOCK_RECORD
  5
219
100
AcDbSymbolTableRecord
100
AcDbBlockTableRecord
  2
*D6
340
0
  0
BLOCK_RECORD
  5
226
100
AcDbSymbolTableRecord
100
AcDbBlockTableRecord
  2
*D7
340
0
  0
BLOCK_RECORD
  5
233
100
AcDbSymbolTableRecord
100
AcDbBlockTableRecord
  2
*D8
340
0
  0
BLOCK_RECORD
  5
241
100
AcDbSymbolTableRecord
100
AcDbBlockTableRecord
  2
*D9
340
0
  0
BLOCK_RECORD
  5
251
100
AcDbSymbolTableRecord
100
AcDbBlockTableRecord
  2
*D10
340
0
  0
ENDTAB
  0
ENDSEC
  0
SECTION
  2
BLOCKS
  0
BLOCK
  5
D
100
AcDbEntity
  8
0
390
0
100
AcDbBlockBegin
  2
*MODEL_SPACE
 70
               0
 10
0.0
 20
0.0
 30
0.0
  3
*MODEL_SPACE
  1

  0
ENDBLK
  5
E
100
AcDbEntity
  8
0
390
0
100
AcDbBlockEnd
  0
BLOCK
  5
F
100
AcDbEntity
 67
               1
  8
0
390
0
100
AcDbBlockBegin
  2
*PAPER_SPACE
 70
               0
 10
0.0
 20
0.0
 30
0.0
  3
*PAPER_SPACE
  1

  0
ENDBLK
  5
10
100
AcDbEntity
 67
               1
  8
0
390
0
100
AcDbBlockEnd
  0
BLOCK
  5
10C
100
AcDbEntity
  8
0
390
0
100
AcDbBlockBegin
  2
*D0
 70
              65
 10
0.0
 20
0.0
 30
0.0
  3
*D0
  1

  0
LINE
  5
10D
100
AcDbEntity
  8
____1
370
              18
390
0
  6
Continuous
 62
               7
100
AcDbLine
 10
-58.567140887822688
 20
26.352575741486703
 30
0.0
 11
-58.567140887822688
 21
36.352575741486703
 31
0.0
  0
LINE
  5
10E
100
AcDbEntity
  8
____1
370
              18
390
0
  6
Continuous
 62
               7
100
AcDbLine
 10
-49.567140887822688
 20
36.352575741486703
 30
0.0
 11
-60.567140887822688
 21
36.352575741486703
 31
0.0
  0
LINE
  5
10F
100
AcDbEntity
  8
____1
370
              18
390
0
  6
Continuous
 62
               7
100
AcDbLine
 10
-49.567140887822688
 20
26.352575741486703
 30
0.0
 11
-60.567140887822688
 21
26.352575741486703
 31
0.0
  0
SOLID
  5
110
100
AcDbEntity
  8
____1
370
               5
390
0
  6
Continuous
 62
               7
100
AcDbTrace
 10
-59.214188526715816
 20
23.937761269288217
 30
0.0
 11
-59.214188526715816
 21
23.937761269288217
 31
0.0
 12
-59.052426616992534
 22
24.541464887337838
 32
0.0
 13
-58.567140887822688
 23
24.541464887337838
 33
0.0
  0
SOLID
  5
111
100
AcDbEntity
  8
____1
370
               5
390
0
  6
Continuous
 62
               7
100
AcDbTrace
 10
-57.920093248929561
 20
23.937761269288217
 30
0.0
 11
-57.920093248929561
 21
23.937761269288217
 31
0.0
 12
-58.567140887822688
 22
24.541464887337838
 32
0.0
 13
-58.081855158652843
 23
24.541464887337838
 33
0.0
  0
SOLID
  5
112
100
AcDbEntity
  8
____1
370
               5
390
0
  6
Continuous
 62
               7
100
AcDbTrace
 10
-59.052426616992534
 20
24.541464887337838
 30
0.0
 11
-58.081855158652843
 21
24.541464887337838
 31
0.0
 12
-58.567140887822688
 22
26.352575741486703
 32
0.0
 13
-58.567140887822688
 23
26.352575741486703
 33
0.0
  0
LINE
  5
113
100
AcDbEntity
  8
____1
370
              18
390
0
  6
Continuous
 62
               7
100
AcDbLine
 10
-58.567140887822688
 20
26.352575741486703
 30
0.0
 11
-58.567140887822688
 21
21.352575741486703
 31
0.0
  0
SOLID
  5
114
100
AcDbEntity
  8
____1
370
               5
390
0
  6
Continuous
 62
               7
100
AcDbTrace
 10
-58.567140887822688
 20
36.352575741486703
 30
0.0
 11
-58.567140887822688
 21
36.352575741486703
 31
0.0
 12
-59.052426616992534
 22
38.163686595635568
 32
0.0
 13
-58.081855158652843
 23
38.163686595635568
 33
0.0
  0
SOLID
  5
115
100
AcDbEntity
  8
____1
370
               5
390
0
  6
Continuous
 62
               7
100
AcDbTrace
 10
-59.052426616992534
 20
38.163686595635568
 30
0.0
 11
-58.567140887822688
 21
38.163686595635568
 31
0.0
 12
-59.214188526715816
 22
38.767390213685189
 32
0.0
 13
-59.214188526715816
 23
38.767390213685189
 33
0.0
  0
SOLID
  5
116
100
AcDbEntity
  8
____1
370
               5
390
0
  6
Continuous
 62
               7
100
AcDbTrace
 10
-58.567140887822688
 20
38.163686595635568
 30
0.0
 11
-58.081855158652843
 21
38.163686595635568
 31
0.0
 12
-57.920093248929561
 22
38.767390213685189
 32
0.0
 13
-57.920093248929561
 23
38.767390213685189
 33
0.0
  0
LINE
  5
117
100
AcDbEntity
  8
____1
370
              18
390
0
  6
Continuous
 62
               7
100
AcDbLine
 10
-58.567140887822688
 20
36.352575741486703
 30
0.0
 11
-58.567140887822688
 21
41.352575741486703
 31
0.0
  0
MTEXT
  5
118
100
AcDbEntity
  8
____1
370
              18
390
0
  6
Continuous
 62
               7
100
AcDbMText
 10
-63.094918559636653
 20
29.588686905579721
 30
0.0
 40
3.5277776718139648
 41
3.5415580533444881
 71
               1
 72
               1
  1
10
  7
Style1
 11
0.0
 21
1.0
 31
0.0
 73
               1
 44
1.0
  0
ENDBLK
  5
119
100
AcDbEntity
  8
0
390
0
100
AcDbBlockEnd
  0
BLOCK
  5
11D
100
AcDbEntity
  8
0
390
0
100
AcDbBlockBegin
  2
*D1
 70
              65
 10
0.0
 20
0.0
 30
0.0
  3
*D1
  1

  0
LINE
  5
11E
100
AcDbEntity
  8
____1
370
              18
390
0
  6
Continuous
 62
               7
100
AcDbLine
 10
-34.767167256725543
 20
44.602575741486703
 30
0.0
 11
-27.76716725672577
 21
44.602575741486703
 31
0.0
  0
LINE
  5
11F
100
AcDbEntity
  8
____1
370
              18
390
0
  6
Continuous
 62
               7
100
AcDbLine
 10
-27.76716725672577
 20
34.102575741486703
 30
0.0
 11
-27.76716725672577
 21
46.602575741486703
 31
0.0
  0
LINE
  5
120
100
AcDbEntity
  8
____1
370
              18
390
0
  6
Continuous
 62
               7
100
AcDbLine
 10
-34.767167256725543
 20
35.602575741486703
 30
0.0
 11
-34.767167256725543
 21
46.602575741486703
 31
0.0
  0
SOLID
  5
121
100
AcDbEntity
  8
____1
370
               5
390
0
  6
Continuous
 62
               7
100
AcDbTrace
 10
-37.181981728924029
 20
43.955528102593576
 30
0.0
 11
-37.181981728924029
 21
43.955528102593576
 31
0.0
 12
-36.578278110874408
 22
44.602575741486703
 32
0.0
 13
-34.767167256725543
 23
44.602575741486703
 33
0.0
  0
SOLID
  5
122
100
AcDbEntity
  8
____1
370
               5
390
0
  6
Continuous
 62
               7
100
AcDbTrace
 10
-36.578278110874408
 20
44.602575741486703
 30
0.0
 11
-34.767167256725543
 21
44.602575741486703
 31
0.0
 12
-37.181981728924029
 22
45.24962338037983
 32
0.0
 13
-37.181981728924029
 23
45.24962338037983
 33
0.0
  0
LINE
  5
123
100
AcDbEntity
  8
____1
370
              18
390
0
  6
Continuous
 62
               7
100
AcDbLine
 10
-34.767167256725543
 20
44.602575741486703
 30
0.0
 11
-39.767167256725543
 21
44.602575741486703
 31
0.0
  0
SOLID
  5
124
100
AcDbEntity
  8
____1
370
               5
390
0
  6
Continuous
 62
               7
100
AcDbTrace
 10
-25.352352784527284
 20
43.955528102593576
 30
0.0
 11
-25.352352784527284
 21
43.955528102593576
 31
0.0
 12
-27.76716725672577
 22
44.602575741486703
 32
0.0
 13
-25.956056402576905
 23
44.602575741486703
 33
0.0
  0
SOLID
  5
125
100
AcDbEntity
  8
____1
370
               5
390
0
  6
Continuous
 62
               7
100
AcDbTrace
 10
-27.76716725672577
 20
44.602575741486703
 30
0.0
 11
-25.956056402576905
 21
44.602575741486703
 31
0.0
 12
-25.352352784527284
 22
45.24962338037983
 32
0.0
 13
-25.352352784527284
 23
45.24962338037983
 33
0.0
  0
LINE
  5
126
100
AcDbEntity
  8
____1
370
              18
390
0
  6
Continuous
 62
               7
100
AcDbLine
 10
-27.76716725672577
 20
44.602575741486703
 30
0.0
 11
-22.76716725672577
 21
44.602575741486703
 31
0.0
  0
MTEXT
  5
127
100
AcDbEntity
  8
寸法線_1
370
              18
390
0
  6
Continuous
 62
               7
100
AcDbMText
 10
-32.149111674679148
 20
49.130353413300668
 30
0.0
 40
3.5277776718139648
 41
1.7707790266722441
 71
               1
 72
               1
  1
7
  7
Style1
 73
               1
 44
1.0
  0
ENDBLK
  5
128
100
AcDbEntity
  8
0
390
0
100
AcDbBlockEnd
  0
BLOCK
  5
12B
100
AcDbEntity
  8
0
390
0
100
AcDbBlockBegin
  2
C0
 70
              64
 10
0.0
 20
0.0
 30
0.0
  3
C0
  1

  0
LINE
  5
12C
100
AcDbEntity
  8
____1
370
              18
390
0
  6
CENTER
 62
               7
100
AcDbLine
 10
-34.767167256725543
 20
31.352575741486703
 30
0.0
 11
-38.017167256725543
 21
31.352575741486703
 31
0.0
  0
LINE
  5
12D
100
AcDbEntity
  8
____1
370
              18
390
0
  6
CENTER
 62
               7
100
AcDbLine
 10
-34.767167256725543
 20
31.352575741486703
 30
0.0
 11
-34.767167256725543
 21
28.102575741486703
 31
0.0
  0
LINE
  5
12E
100
AcDbEntity
  8
____1
370
              18
390
0
  6
CENTER
 62
               7
100
AcDbLine
 10
-34.767167256725543
 20
31.352575741486703
 30
0.0
 11
-31.517167256725543
 21
31.352575741486703
 31
0.0
  0
LINE
  5
12F
100
AcDbEntity
  8
____1
370
              18
390
0
  6
CENTER
 62
               7
100
AcDbLine
 10
-34.767167256725543
 20
31.352575741486703
 30
0.0
 11
-34.767167256725543
 21
34.602575741486703
 31
0.0
  0
ENDBLK
  5
130
100
AcDbEntity
  8
0
390
0
100
AcDbBlockEnd
  0
BLOCK
  5
133
100
AcDbEntity
  8
0
390
0
100
AcDbBlockBegin
  2
*D3
 70
              65
 10
0.0
 20
0.0
 30
0.0
  3
*D3
  1

  0
SOLID
  5
134
100
AcDbEntity
  8
____1
370
               5
390
0
  6
Continuous
 62
               7
100
AcDbTrace
 10
-37.073121985199123
 20
27.824556038443376
 30
0.0
 11
-37.073121985199123
 21
27.824556038443376
 31
0.0
 12
-37.148647917133005
 22
28.690474796354628
 32
0.0
 13
-36.631914362424183
 23
28.690474796354628
 33
0.0
  0
SOLID
  5
135
100
AcDbEntity
  8
____1
370
               5
390
0
  6
Continuous
 62
               7
100
AcDbTrace
 10
-38.034822194560704
 20
28.690474796354628
 30
0.0
 11
-38.034822194560704
 21
28.690474796354628
 31
0.0
 12
-38.010677355844308
 22
28.706154637274562
 32
0.0
 13
-37.150015521873328
 23
28.706154637274562
 33
0.0
  0
SOLID
  5
136
100
AcDbEntity
  8
____1
370
               5
390
0
  6
Continuous
 62
               7
100
AcDbTrace
 10
-37.148647917133005
 20
28.690474796354628
 30
0.0
 11
-36.631914362424183
 21
28.690474796354628
 31
0.0
 12
-37.150015521873328
 22
28.706154637274562
 32
0.0
 13
-36.623925084822133
 23
28.706154637274562
 33
0.0
  0
SOLID
  5
137
100
AcDbEntity
  8
____1
370
               5
390
0
  6
Continuous
 62
               7
100
AcDbTrace
 10
-38.010677355844308
 20
28.706154637274562
 30
0.0
 11
-36.623925084822133
 21
28.706154637274562
 31
0.0
 12
-35.938145817853595
 22
30.052072296901237
 32
0.0
 13
-35.938145817853595
 23
30.052072296901237
 33
0.0
  0
LINE
  5
138
100
AcDbEntity
  8
____1
370
              18
390
0
  6
Continuous
 62
               7
100
AcDbLine
 10
-35.938145817853595
 20
30.052072296901237
 30
0.0
 11
-49.145899147093473
 21
15.383376156670431
 31
0.0
  0
MTEXT
  5
139
100
AcDbEntity
  8
寸法線_1
370
              18
390
0
  6
Continuous
 62
               7
100
AcDbMText
 10
-52.291878813785367
 20
18.216028971838568
 30
0.0
 40
3.5277776718139648
 41
8.8538956120610237
 71
               1
 72
               1
  1
φ3.5
  7
Style1
 11
0.6691306063588566
 21
0.7431448254773956
 31
0.0
 73
               1
 44
1.0
  0
ENDBLK
  5
13A
100
AcDbEntity
  8
0
390
0
100
AcDbBlockEnd
  0
BLOCK
  5
13D
100
AcDbEntity
  8
0
390
0
100
AcDbBlockBegin
  2
*D4
 70
              65
 10
0.0
 20
0.0
 30
0.0
  3
*D4
  1

  0
LINE
  5
13E
100
AcDbEntity
  8
____1
370
              18
390
0
  6
Continuous
 62
               7
100
AcDbLine
 10
-19.51716725672577
 20
34.852575741486703
 30
0.0
 11
-19.51716725672577
 21
27.852575741486703
 31
0.0
  0
LINE
  5
13F
100
AcDbEntity
  8
____1
370
              18
390
0
  6
Continuous
 62
               7
100
AcDbLine
 10
-28.51716725672577
 20
27.852575741486703
 30
0.0
 11
-17.51716725672577
 21
27.852575741486703
 31
0.0
  0
LINE
  5
140
100
AcDbEntity
  8
____1
370
              18
390
0
  6
Continuous
 62
               7
100
AcDbLine
 10
-28.51716725672577
 20
34.852575741486703
 30
0.0
 11
-17.51716725672577
 21
34.852575741486703
 31
0.0
  0
SOLID
  5
141
100
AcDbEntity
  8
____1
370
               5
390
0
  6
Continuous
 62
               7
100
AcDbTrace
 10
-19.51716725672577
 20
34.852575741486703
 30
0.0
 11
-19.51716725672577
 21
34.852575741486703
 31
0.0
 12
-20.002452985895616
 22
36.663686595635568
 32
0.0
 13
-19.031881527555925
 23
36.663686595635568
 33
0.0
  0
SOLID
  5
142
100
AcDbEntity
  8
____1
370
               5
390
0
  6
Continuous
 62
               7
100
AcDbTrace
 10
-20.002452985895616
 20
36.663686595635568
 30
0.0
 11
-19.51716725672577
 21
36.663686595635568
 31
0.0
 12
-20.164214895618898
 22
37.267390213685189
 32
0.0
 13
-20.164214895618898
 23
37.267390213685189
 33
0.0
  0
SOLID
  5
143
100
AcDbEntity
  8
____1
370
               5
390
0
  6
Continuous
 62
               7
100
AcDbTrace
 10
-19.51716725672577
 20
36.663686595635568
 30
0.0
 11
-19.031881527555925
 21
36.663686595635568
 31
0.0
 12
-18.870119617832643
 22
37.267390213685189
 32
0.0
 13
-18.870119617832643
 23
37.267390213685189
 33
0.0
  0
LINE
  5
144
100
AcDbEntity
  8
____1
370
              18
390
0
  6
Continuous
 62
               7
100
AcDbLine
 10
-19.51716725672577
 20
34.852575741486703
 30
0.0
 11
-19.51716725672577
 21
39.852575741486703
 31
0.0
  0
SOLID
  5
145
100
AcDbEntity
  8
____1
370
               5
390
0
  6
Continuous
 62
               7
100
AcDbTrace
 10
-20.164214895618898
 20
25.437761269288217
 30
0.0
 11
-20.164214895618898
 21
25.437761269288217
 31
0.0
 12
-20.002452985895616
 22
26.041464887337838
 32
0.0
 13
-19.51716725672577
 23
26.041464887337838
 33
0.0
  0
SOLID
  5
146
100
AcDbEntity
  8
____1
370
               5
390
0
  6
Continuous
 62
               7
100
AcDbTrace
 10
-18.870119617832643
 20
25.437761269288217
 30
0.0
 11
-18.870119617832643
 21
25.437761269288217
 31
0.0
 12
-19.51716725672577
 22
26.041464887337838
 32
0.0
 13
-19.031881527555925
 23
26.041464887337838
 33
0.0
  0
SOLID
  5
147
100
AcDbEntity
  8
____1
370
               5
390
0
  6
Continuous
 62
               7
100
AcDbTrace
 10
-20.002452985895616
 20
26.041464887337838
 30
0.0
 11
-19.031881527555925
 21
26.041464887337838
 31
0.0
 12
-19.51716725672577
 22
27.852575741486703
 32
0.0
 13
-19.51716725672577
 23
27.852575741486703
 33
0.0
  0
LINE
  5
148
100
AcDbEntity
  8
____1
370
              18
390
0
  6
Continuous
 62
               7
100
AcDbLine
 10
-19.51716725672577
 20
27.852575741486703
 30
0.0
 11
-19.51716725672577
 21
22.852575741486703
 31
0.0
  0
MTEXT
  5
149
100
AcDbEntity
  8
寸法線_1
370
              18
390
0
  6
Continuous
 62
               7
100
AcDbMText
 10
-24.044944928539735
 20
30.470631323533212
 30
0.0
 40
3.5277776718139648
 41
1.7707790266722441
 71
               1
 72
               1
  1
7
  7
Style1
 11
0.0
 21
1.0
 31
0.0
 73
               1
 44
1.0
  0
ENDBLK
  5
14A
100
AcDbEntity
  8
0
390
0
100
AcDbBlockEnd
  0
BLOCK
  5
175
100
AcDbEntity
  8
0
390
0
100
AcDbBlockBegin
  2
C1
 70
              64
 10
0.0
 20
0.0
 30
0.0
  3
C1
  1

  0
LINE
  5
176
100
AcDbEntity
  8
___G
370
              18
390
0
  6
Continuous
 62
               7
100
AcDbLine
 10
49.476936334639305
 20
86.947863699760944
 30
0.0
 11
51.951936334639441
 21
82.661037951027936
 31
0.0
  0
LINE
  5
177
100
AcDbEntity
  8
___G
370
              18
390
0
  6
Continuous
 62
               7
100
AcDbLine
 10
47.001936334639282
 20
82.661037951027936
 30
0.0
 11
51.951936334639441
 21
82.661037951027936
 31
0.0
  0
LINE
  5
178
100
AcDbEntity
  8
___G
370
              18
390
0
  6
Continuous
 62
               7
100
AcDbLine
 10
53.761221720682016
 20
77.230246200024737
 30
0.0
 11
53.761221720682016
 21
92.230246200024737
 31
0.0
  0
LINE
  5
179
100
AcDbEntity
  8
___G
370
              18
390
0
  6
Continuous
 62
               7
100
AcDbLine
 10
119.76122172068202
 20
77.230246200024737
 30
0.0
 11
119.76122172068202
 21
92.230246200024737
 31
0.0
  0
LINE
  5
17A
100
AcDbEntity
  8
___G
370
              18
390
0
  6
Continuous
 62
               7
100
AcDbLine
 10
69.761221720682016
 20
77.230246200024737
 30
0.0
 11
69.761221720682016
 21
92.230246200024737
 31
0.0
  0
MTEXT
  5
17B
100
AcDbEntity
  8
___G
370
               5
390
0
  6
DOT
 62
               7
100
AcDbMText
 10
45.761221720682016
 20
91.315246200024717
 30
0.0
 40
3.1749999523162842
 41
8.0
 71
               1
 72
               1
  1
副番
  7
Style1
 73
               1
 44
1.0
  0
MTEXT
  5
17C
100
AcDbEntity
  8
___G
370
               5
390
0
  6
DOT
 62
               7
100
AcDbMText
 10
119.76122172068202
 20
91.315246200024717
 30
0.0
 40
3.1749999523162842
 41
10.0
 71
               1
 72
               1
  1
改訂者
  7
Style1
 73
               1
 44
1.0
  0
MTEXT
  5
17D
100
AcDbEntity
  8
___G
370
               5
390
0
  6
DOT
 62
               7
100
AcDbMText
 10
129.76122172068202
 20
91.315246200024717
 30
0.0
 40
3.1749999523162842
 41
10.000000000000028
 71
               1
 72
               1
  1
検認者
  7
Style1
 73
               1
 44
1.0
  0
MTEXT
  5
17E
100
AcDbEntity
  8
___G
370
               5
390
0
  6
Continuous
 62
               7
100
AcDbMText
 10
69.761221720682016
 20
91.315246200024717
 30
0.0
 40
3.1749999523162842
 41
50.0
 71
               1
 72
               1
  1
改　訂　内　容
  7
Style1
 73
               1
 44
1.0
  0
MTEXT
  5
17F
100
AcDbEntity
  8
___G
370
               5
390
0
  6
Continuous
 62
               7
100
AcDbMText
 10
53.761221720682016
 20
91.315246200024717
 30
0.0
 40
3.1749999523162842
 41
16.0
 71
               1
 72
               1
  1
改訂日
  7
Style1
 73
               1
 44
1.0
  0
LINE
  5
180
100
AcDbEntity
  8
___G
370
              18
390
0
  6
Continuous
 62
               7
100
AcDbLine
 10
45.761221720682016
 20
77.230246200024737
 30
0.0
 11
139.76122172068213
 21
77.230246200024737
 31
0.0
  0
LINE
  5
181
100
AcDbEntity
  8
___G
370
              18
390
0
  6
Continuous
 62
               7
100
AcDbLine
 10
60.558423086675447
 20
-92.241615426465017
 30
0.0
 11
60.558423086675447
 21
-91.841615426465069
 31
0.0
  0
LINE
  5
182
100
AcDbEntity
  8
___G
370
              18
390
0
  6
Continuous
 62
               7
100
AcDbLine
 10
77.125665538622314
 20
-92.001615426465037
 30
0.0
 11
77.008550138443042
 21
-91.594632314091314
 31
0.0
  0
LINE
  5
183
100
AcDbEntity
  8
___G
370
              18
390
0
  6
Continuous
 62
               7
100
AcDbLine
 10
61.758423086675435
 20
-90.641615426465023
 30
0.0
 11
58.558423086675447
 21
-90.641615426465023
 31
0.0
  0
LINE
  5
184
100
AcDbEntity
  8
___G
370
              18
390
0
  6
Continuous
 62
               7
100
AcDbLine
 10
75.469960720453713
 20
-94.081615426465049
 30
0.0
 11
75.282227387120287
 21
-93.441615426465063
 31
0.0
  0
LINE
  5
185
100
AcDbEntity
  8
___G
370
              18
390
0
  6
Continuous
 62
               7
100
AcDbLine
 10
70.286907935160201
 20
-91.841615426465069
 30
0.0
 11
71.086907935160212
 21
-90.641615426465023
 31
0.0
  0
LINE
  5
186
100
AcDbEntity
  8
___G
370
              18
390
0
  6
Continuous
 62
               7
100
AcDbLine
 10
61.758423086675435
 20
-92.241615426465017
 30
0.0
 11
61.758423086675435
 21
-93.441615426465063
 31
0.0
  0
LINE
  5
187
100
AcDbEntity
  8
___G
370
              18
390
0
  6
Continuous
 62
               7
100
AcDbLine
 10
76.220894053787077
 20
-96.641615426464995
 30
0.0
 11
78.460894053786973
 21
-96.641615426464995
 31
0.0
  0
LINE
  5
188
100
AcDbEntity
  8
___G
370
              18
390
0
  6
Continuous
 62
               7
100
AcDbLine
 10
56.958423086675481
 20
-92.241615426465017
 30
0.0
 11
56.958423086675481
 21
-91.841615426465069
 31
0.0
  0
LINE
  5
189
100
AcDbEntity
  8
___G
370
              18
390
0
  6
Continuous
 62
               7
100
AcDbLine
 10
67.515957928509323
 20
-93.456872150553039
 30
0.0
 11
67.323481283456061
 21
-93.669462838996168
 31
0.0
  0
LINE
  5
18A
100
AcDbEntity
  8
___G
370
              18
390
0
  6
Continuous
 62
               7
100
AcDbLine
 10
69.377083416830288
 20
-94.520920393643991
 30
0.0
 11
69.234601768996441
 21
-94.660422908995514
 31
0.0
  0
LINE
  5
18B
100
AcDbEntity
  8
___G
370
              18
390
0
  6
Continuous
 62
               7
100
AcDbLine
 10
77.724216252316722
 20
-94.081615426465049
 30
0.0
 11
77.540046801949273
 21
-93.441615426465063
 31
0.0
  0
LINE
  5
18C
100
AcDbEntity
  8
___G
370
              18
390
0
  6
Continuous
 62
               7
100
AcDbLine
 10
54.037540037432933
 20
-92.241615426465017
 30
0.0
 11
54.037540037432933
 21
-93.441615426465063
 31
0.0
  0
LINE
  5
18D
100
AcDbEntity
  8
___G
370
              18
390
0
  6
Continuous
 62
               7
100
AcDbLine
 10
63.886907935160167
 20
-95.041615426465086
 30
0.0
 11
63.886907935160167
 21
-96.241615426465017
 31
0.0
  0
SPLINE
  5
18E
100
AcDbEntity
  8
___G
370
              18
390
0
  6
Continuous
 62
               7
100
AcDbSpline
210
0.0
220
0.0
230
1.0
 70
               0
 71
               3
 72
               8
 73
               4
 74
               0
 42
0.0000001
 43
0.0000001
 12
0.9618578240638687
 22
-0.2735498606965832
 32
0.0
 13
0.9860364361537908
 23
-0.1665297167989279
 33
0.0
 40
0.0
 40
0.0
 40
0.0
 40
0.0
 40
1.0
 40
1.0
 40
1.0
 40
1.0
 10
69.234601768996441
 20
-94.660422908995514
 30
0.0
 10
69.826417171820168
 20
-94.828733668600847
 30
0.0
 10
70.456662553490077
 20
-94.93517454753291
 30
0.0
 10
71.086907935160212
 20
-95.041615426465086
 30
0.0
  0
SPLINE
  5
18F
100
AcDbEntity
  8
___G
370
              18
390
0
  6
Continuous
 62
               7
100
AcDbSpline
210
0.0
220
0.0
230
1.0
 70
               0
 71
               3
 72
               9
 73
               5
 74
               0
 42
0.0000001
 43
0.0000001
 12
0.7352773642102997
 22
-0.6777663297036484
 32
0.0
 13
0.8573032032596254
 23
-0.5148118274484234
 33
0.0
 40
0.0
 40
0.0
 40
0.0
 40
0.0
 40
0.9999999993702069
 40
1.0
 40
1.0
 40
1.0
 40
1.0
 10
63.886907935160167
 20
-92.756991854435199
 30
0.0
 10
64.650591617853792
 20
-93.460942651601016
 30
0.0
 10
65.414275301028312
 20
-94.164893449210098
 30
0.0
 10
66.278124302278599
 20
-94.683633270759145
 30
0.0
 10
66.278124302822704
 20
-94.683633271085881
 30
0.0
  0
SPLINE
  5
190
100
AcDbEntity
  8
___G
370
              18
390
0
  6
Continuous
 62
               7
100
AcDbSpline
210
0.0
220
0.0
230
1.0
 70
               0
 71
               3
 72
               8
 73
               4
 74
               0
 42
0.0000001
 43
0.0000001
 12
0.9524773181045245
 22
-0.3046095180660189
 32
0.0
 13
0.979066943480174
 23
-0.2035384980400263
 33
0.0
 40
0.0
 40
0.0
 40
0.0
 40
0.0
 40
1.0
 40
1.0
 40
1.0
 40
1.0
 10
68.253937370440525
 20
-95.550681569379861
 30
0.0
 10
69.165206399360073
 20
-95.84211236195776
 30
0.0
 10
70.126057167260143
 20
-96.041863894211446
 30
0.0
 10
71.086907935160212
 20
-96.241615426465017
 30
0.0
  0
SPLINE
  5
191
100
AcDbEntity
  8
___G
370
              18
390
0
  6
Continuous
 62
               7
100
AcDbSpline
210
0.0
220
0.0
230
1.0
 70
               0
 71
               3
 72
               8
 73
               4
 74
               0
 42
0.0000001
 43
0.0000001
 12
0.6676726695720104
 22
-0.7444549726521982
 32
0.0
 13
0.741315969719885
 23
-0.6711561912388697
 33
0.0
 40
0.0
 40
0.0
 40
0.0
 40
0.0
 40
1.0
 40
1.0
 40
1.0
 40
1.0
 10
66.634359595200777
 20
-92.951851980409486
 30
0.0
 10
66.857857537051899
 20
-93.201052167524011
 30
0.0
 10
67.081355478903077
 20
-93.450252354638423
 30
0.0
 10
67.323481283456061
 20
-93.669462838996168
 30
0.0
  0
LINE
  5
192
100
AcDbEntity
  8
___G
370
              18
390
0
  6
Continuous
 62
               7
100
AcDbLine
 10
45.761221720682016
 20
82.230246200024737
 30
0.0
 11
139.76122172068213
 21
82.230246200024737
 31
0.0
  0
LINE
  5
193
100
AcDbEntity
  8
___G
370
              18
390
0
  6
Continuous
 62
               7
100
AcDbLine
 10
45.761221720682016
 20
87.230246200024737
 30
0.0
 11
139.76122172068213
 21
87.230246200024737
 31
0.0
  0
LINE
  5
194
100
AcDbEntity
  8
___G
370
              18
390
0
  6
Continuous
 62
               7
100
AcDbLine
 10
129.76122172068202
 20
77.230246200024737
 30
0.0
 11
129.76122172068202
 21
92.230246200024737
 31
0.0
  0
LINE
  5
195
100
AcDbEntity
  8
___G
370
              18
390
0
  6
Continuous
 62
               7
100
AcDbLine
 10
45.761221720682016
 20
77.230246200024737
 30
0.0
 11
45.761221720682016
 21
92.230246200024737
 31
0.0
  0
LINE
  5
196
100
AcDbEntity
  8
___G
370
              18
390
0
  6
Continuous
 62
               7
100
AcDbLine
 10
47.001936334639282
 20
77.711037951028118
 30
0.0
 11
51.951936334639441
 21
77.711037951028118
 31
0.0
  0
LINE
  5
197
100
AcDbEntity
  8
___G
370
              18
390
0
  6
Continuous
 62
               7
100
AcDbLine
 10
49.476936334639305
 20
81.997863699761012
 30
0.0
 11
51.951936334639441
 21
77.711037951028118
 31
0.0
  0
LINE
  5
198
100
AcDbEntity
  8
___G
370
              18
390
0
  6
Continuous
 62
               7
100
AcDbLine
 10
49.476936334639305
 20
81.997863699761012
 30
0.0
 11
47.001936334639282
 21
77.711037951028118
 31
0.0
  0
LINE
  5
199
100
AcDbEntity
  8
___G
370
              18
390
0
  6
Continuous
 62
               7
100
AcDbLine
 10
49.476936334639305
 20
86.947863699760944
 30
0.0
 11
47.001936334639282
 21
82.661037951027936
 31
0.0
  0
LINE
  5
19A
100
AcDbEntity
  8
___G
370
              18
390
0
  6
Continuous
 62
               7
100
AcDbLine
 10
63.886907935160167
 20
-92.081615426465049
 30
0.0
 11
67.886907935160167
 21
-92.081615426465049
 31
0.0
  0
LINE
  5
19B
100
AcDbEntity
  8
___G
370
              18
390
0
  6
Continuous
 62
               7
100
AcDbLine
 10
80.060894053786996
 20
-92.00161542646515
 30
0.0
 11
80.060894053786996
 21
-93.441615426465063
 31
0.0
  0
LINE
  5
19C
100
AcDbEntity
  8
___G
370
              18
390
0
  6
Continuous
 62
               7
100
AcDbLine
 10
77.008550138443042
 20
-91.594632314091314
 30
0.0
 11
77.660894053787018
 21
-90.641615426465023
 31
0.0
  0
LINE
  5
19D
100
AcDbEntity
  8
___G
370
              18
390
0
  6
Continuous
 62
               7
100
AcDbLine
 10
58.558423086675447
 20
-92.241615426465017
 30
0.0
 11
56.958423086675481
 21
-92.241615426465017
 31
0.0
  0
LINE
  5
19E
100
AcDbEntity
  8
___G
370
              18
390
0
  6
Continuous
 62
               7
100
AcDbLine
 10
58.158423086675469
 20
-90.641615426465023
 30
0.0
 11
54.958423086675481
 21
-90.641615426465023
 31
0.0
  0
LINE
  5
19F
100
AcDbEntity
  8
___G
370
              18
390
0
  6
Continuous
 62
               7
100
AcDbLine
 10
56.958423086675481
 20
-91.841615426465069
 30
0.0
 11
58.158423086675469
 21
-90.641615426465023
 31
0.0
  0
LINE
  5
1A0
100
AcDbEntity
  8
___G
370
              18
390
0
  6
Continuous
 62
               7
100
AcDbLine
 10
54.958423086675481
 20
-92.241615426465017
 30
0.0
 11
54.037540037432933
 21
-92.241615426465017
 31
0.0
  0
ARC
  5
1A1
100
AcDbEntity
  8
___G
370
              18
390
0
  6
Continuous
 62
               7
100
AcDbCircle
 10
58.158423086675469
 20
-93.84161542646504
 30
0.0
 40
2.3999999999999773
210
-0.0
220
-0.0
230
1.0
100
AcDbArc
 50
-90.0
 51
0.0
  0
ARC
  5
1A2
100
AcDbEntity
  8
___G
370
              18
390
0
  6
Continuous
 62
               7
100
AcDbCircle
 10
64.846907935160203
 20
-92.00161542646515
 30
0.0
 40
3.0399999999998575
210
-0.0
220
0.0
230
1.0
100
AcDbArc
 50
-90.0
 51
-61.914095184791336
  0
LINE
  5
1A3
100
AcDbEntity
  8
___G
370
              18
390
0
  6
Continuous
 62
               7
100
AcDbLine
 10
77.540046801949273
 20
-93.441615426465063
 30
0.0
 11
80.060894053786996
 21
-93.441615426465063
 31
0.0
  0
LINE
  5
1A4
100
AcDbEntity
  8
___G
370
              18
390
0
  6
Continuous
 62
               7
100
AcDbLine
 10
58.558423086675447
 20
-90.641615426465023
 30
0.0
 11
58.558423086675447
 21
-92.241615426465017
 31
0.0
  0
LINE
  5
1A5
100
AcDbEntity
  8
___G
370
              18
390
0
  6
Continuous
 62
               7
100
AcDbLine
 10
80.060894053786996
 20
-94.081615426465049
 30
0.0
 11
80.060894053786996
 21
-95.521615426465104
 31
0.0
  0
LINE
  5
1A6
100
AcDbEntity
  8
___G
370
              18
390
0
  6
Continuous
 62
               7
100
AcDbLine
 10
71.086907935160212
 20
-95.041615426465086
 30
0.0
 11
71.086907935160212
 21
-96.241615426465017
 31
0.0
  0
LINE
  5
1A7
100
AcDbEntity
  8
___G
370
              18
390
0
  6
Continuous
 62
               7
100
AcDbLine
 10
54.958423086675481
 20
-93.441615426465063
 30
0.0
 11
54.837540037432888
 21
-93.441615426465063
 31
0.0
  0
LINE
  5
1A8
100
AcDbEntity
  8
___G
370
              18
390
0
  6
Continuous
 62
               7
100
AcDbLine
 10
54.958423086675481
 20
-95.041615426465086
 30
0.0
 11
54.958423086675481
 21
-96.241615426465017
 31
0.0
  0
ARC
  5
1A9
100
AcDbEntity
  8
___G
370
              18
390
0
  6
Continuous
 62
               7
100
AcDbCircle
 10
57.358423086675458
 20
-93.84161542646504
 30
0.0
 40
1.1999999999999886
210
-0.0
220
-0.0
230
1.0
100
AcDbArc
 50
-90.0
 51
0.0
  0
LINE
  5
1AA
100
AcDbEntity
  8
___G
370
              18
390
0
  6
Continuous
 62
               7
100
AcDbLine
 10
63.886907935160167
 20
-92.499303640450051
 30
0.0
 11
67.086907935160212
 21
-92.499303640450051
 31
0.0
  0
LINE
  5
1AB
100
AcDbEntity
  8
___G
370
              18
390
0
  6
Continuous
 62
               7
100
AcDbLine
 10
60.558423086675447
 20
-93.84161542646504
 30
0.0
 11
60.558423086675447
 21
-93.441615426465063
 31
0.0
  0
LINE
  5
1AC
100
AcDbEntity
  8
___G
370
              18
390
0
  6
Continuous
 62
               7
100
AcDbLine
 10
63.886907935160167
 20
-95.041615426465086
 30
0.0
 11
64.846907935160203
 21
-95.041615426465086
 31
0.0
  0
LINE
  5
1AD
100
AcDbEntity
  8
___G
370
              18
390
0
  6
Continuous
 62
               7
100
AcDbLine
 10
74.460894053786973
 20
-90.641615426465023
 30
0.0
 11
77.660894053787018
 21
-90.641615426465023
 31
0.0
  0
LINE
  5
1AE
100
AcDbEntity
  8
___G
370
              18
390
0
  6
Continuous
 62
               7
100
AcDbLine
 10
70.286907935160201
 20
-91.841615426465069
 30
0.0
 11
71.086907935160212
 21
-90.641615426465023
 31
0.0
  0
LINE
  5
1AF
100
AcDbEntity
  8
___G
370
              18
390
0
  6
Continuous
 62
               7
100
AcDbLine
 10
54.958423086675481
 20
-96.241615426465017
 30
0.0
 11
58.158423086675469
 21
-96.241615426465017
 31
0.0
  0
LINE
  5
1B0
100
AcDbEntity
  8
___G
370
              18
390
0
  6
Continuous
 62
               7
100
AcDbLine
 10
63.886907935160167
 20
-96.241615426465017
 30
0.0
 11
65.886907935160281
 21
-96.241615426465017
 31
0.0
  0
ARC
  5
1B1
100
AcDbEntity
  8
___G
370
              18
390
0
  6
Continuous
 62
               7
100
AcDbCircle
 10
64.846907935160203
 20
-92.00161542646515
 30
0.0
 40
3.0399999999999774
210
-0.0
220
0.0
230
1.0
100
AcDbArc
 50
-28.600718616739268
 51
-1.5079577542369229
  0
LINE
  5
1B2
100
AcDbEntity
  8
___G
370
              18
390
0
  6
Continuous
 62
               7
100
AcDbLine
 10
61.758423086675435
 20
-92.241615426465017
 30
0.0
 11
60.558423086675447
 21
-92.241615426465017
 31
0.0
  0
LINE
  5
1B3
100
AcDbEntity
  8
___G
370
              18
390
0
  6
Continuous
 62
               7
100
AcDbLine
 10
58.558423086675447
 20
-93.441615426465063
 30
0.0
 11
58.558423086675447
 21
-93.84161542646504
 31
0.0
  0
LINE
  5
1B4
100
AcDbEntity
  8
___G
370
              18
390
0
  6
Continuous
 62
               7
100
AcDbLine
 10
56.958423086675481
 20
-93.441615426465063
 30
0.0
 11
58.558423086675447
 21
-93.441615426465063
 31
0.0
  0
ARC
  5
1B5
100
AcDbEntity
  8
___G
370
              18
390
0
  6
Continuous
 62
               7
100
AcDbCircle
 10
65.886907935160167
 20
-91.841615426465069
 30
0.0
 40
4.4000000000000341
210
-0.0
220
-0.0
230
1.0
100
AcDbArc
 50
-37.512388020300442
 51
0.0
  0
LINE
  5
1B6
100
AcDbEntity
  8
___G
370
              18
390
0
  6
Continuous
 62
               7
100
AcDbLine
 10
63.886907935160167
 20
-96.241615426465017
 30
0.0
 11
63.886907935160167
 21
-95.041615426465086
 31
0.0
  0
LINE
  5
1B7
100
AcDbEntity
  8
___G
370
              18
390
0
  6
Continuous
 62
               7
100
AcDbLine
 10
78.460894053786973
 20
-96.641615426464995
 30
0.0
 11
78.138597515643795
 21
-95.521615426465104
 31
0.0
  0
LINE
  5
1B8
100
AcDbEntity
  8
___G
370
              18
390
0
  6
Continuous
 62
               7
100
AcDbLine
 10
77.724216252316722
 20
-94.081615426465049
 30
0.0
 11
80.060894053786996
 21
-94.081615426465049
 31
0.0
  0
LINE
  5
1B9
100
AcDbEntity
  8
___G
370
              18
390
0
  6
Continuous
 62
               7
100
AcDbLine
 10
72.860894053787007
 20
-92.00161542646515
 30
0.0
 11
74.859827387120248
 21
-92.00161542646515
 31
0.0
  0
LINE
  5
1BA
100
AcDbEntity
  8
___G
370
              18
390
0
  6
Continuous
 62
               7
100
AcDbLine
 10
72.860894053787007
 20
-95.521615426465104
 30
0.0
 11
75.892360720453752
 21
-95.521615426465104
 31
0.0
  0
LINE
  5
1BB
100
AcDbEntity
  8
___G
370
              18
390
0
  6
Continuous
 62
               7
100
AcDbLine
 10
71.086907935160212
 20
-90.641615426465023
 30
0.0
 11
63.886907935160167
 21
-90.641615426465023
 31
0.0
  0
LINE
  5
1BC
100
AcDbEntity
  8
___G
370
              18
390
0
  6
Continuous
 62
               7
100
AcDbLine
 10
54.958423086675481
 20
-94.641615426464995
 30
0.0
 11
56.958423086675481
 21
-94.641615426464995
 31
0.0
  0
LINE
  5
1BD
100
AcDbEntity
  8
___G
370
              18
390
0
  6
Continuous
 62
               7
100
AcDbLine
 10
60.558423086675447
 20
-91.841615426465069
 30
0.0
 11
61.758423086675435
 21
-90.641615426465023
 31
0.0
  0
ARC
  5
1BE
100
AcDbEntity
  8
___G
370
              18
390
0
  6
Continuous
 62
               7
100
AcDbCircle
 10
65.886907935160167
 20
-91.841615426465069
 30
0.0
 40
4.4000000000000536
210
-0.0
220
0.0
230
1.0
100
AcDbArc
 50
-90.0
 51
-57.455041145954418
  0
LINE
  5
1BF
100
AcDbEntity
  8
___G
370
              18
390
0
  6
Continuous
 62
               7
100
AcDbLine
 10
54.037540037432933
 20
-93.441615426465063
 30
0.0
 11
54.837540037432888
 21
-93.441615426465063
 31
0.0
  0
LINE
  5
1C0
100
AcDbEntity
  8
___G
370
              18
390
0
  6
Continuous
 62
               7
100
AcDbLine
 10
72.860894053787007
 20
-94.081615426465049
 30
0.0
 11
75.469960720453713
 21
-94.081615426465049
 31
0.0
  0
LINE
  5
1C1
100
AcDbEntity
  8
___G
370
              18
390
0
  6
Continuous
 62
               7
100
AcDbLine
 10
63.886907935160167
 20
-90.641615426465023
 30
0.0
 11
63.886907935160167
 21
-92.081615426465049
 31
0.0
  0
LINE
  5
1C2
100
AcDbEntity
  8
___G
370
               5
390
0
  6
Continuous
 62
               7
100
AcDbLine
 10
83.761221720682045
 20
-72.269753799975263
 30
0.0
 11
83.761221720682045
 21
-97.769753799975291
 31
0.0
  0
CIRCLE
  5
1C3
100
AcDbEntity
  8
___G
370
              18
390
0
  6
Continuous
 62
               7
100
AcDbCircle
 10
69.825221720682123
 20
-76.519753799975291
 30
0.0
 40
2.3039999999998599
  0
LINE
  5
1C4
100
AcDbEntity
  8
___G
370
              18
390
0
  6
Continuous
 62
               7
100
AcDbLine
 10
75.09170253190419
 20
-75.367753799975347
 30
0.0
 11
79.699702531904137
 21
-74.215753799975303
 31
0.0
  0
LINE
  5
1C5
100
AcDbEntity
  8
___G
370
              18
390
0
  6
Continuous
 62
               7
100
AcDbLine
 10
72.860894053787007
 20
-94.081615426465049
 30
0.0
 11
72.860894053787007
 21
-95.521615426465104
 31
0.0
  0
LINE
  5
1C6
100
AcDbEntity
  8
___G
370
              18
390
0
  6
Continuous
 62
               7
100
AcDbLine
 10
56.958423086675481
 20
-94.641615426464995
 30
0.0
 11
56.958423086675481
 21
-93.441615426465063
 31
0.0
  0
LINE
  5
1C7
100
AcDbEntity
  8
___G
370
              18
390
0
  6
Continuous
 62
               7
100
AcDbLine
 10
78.138597515643795
 20
-95.521615426465104
 30
0.0
 11
80.060894053786996
 21
-95.521615426465104
 31
0.0
  0
LINE
  5
1C8
100
AcDbEntity
  8
___G
370
              18
390
0
  6
Continuous
 62
               7
100
AcDbLine
 10
72.860894053787007
 20
-92.00161542646515
 30
0.0
 11
72.860894053787007
 21
-93.441615426465063
 31
0.0
  0
LINE
  5
1C9
100
AcDbEntity
  8
___G
370
              18
390
0
  6
Continuous
 62
               7
100
AcDbLine
 10
60.558423086675447
 20
-93.441615426465063
 30
0.0
 11
61.758423086675435
 21
-93.441615426465063
 31
0.0
  0
LINE
  5
1CA
100
AcDbEntity
  8
___G
370
              18
390
0
  6
Continuous
 62
               7
100
AcDbLine
 10
76.220894053787077
 20
-96.641615426464995
 30
0.0
 11
75.892360720453752
 21
-95.521615426465104
 31
0.0
  0
LINE
  5
1CB
100
AcDbEntity
  8
___G
370
              18
390
0
  6
Continuous
 62
               7
100
AcDbLine
 10
57.358423086675458
 20
-95.041615426465086
 30
0.0
 11
54.958423086675481
 21
-95.041615426465086
 31
0.0
  0
LINE
  5
1CC
100
AcDbEntity
  8
___G
370
              18
390
0
  6
Continuous
 62
               7
100
AcDbLine
 10
79.699702531904137
 20
-74.215753799975303
 30
0.0
 11
79.699702531904137
 21
-78.823753799975393
 31
0.0
  0
LINE
  5
1CD
100
AcDbEntity
  8
___G
370
              18
390
0
  6
Continuous
 62
               7
100
AcDbLine
 10
75.09170253190419
 20
-77.671753799975335
 30
0.0
 11
79.699702531904137
 21
-78.823753799975393
 31
0.0
  0
LINE
  5
1CE
100
AcDbEntity
  8
___G
370
              18
390
0
  6
Continuous
 62
               7
100
AcDbLine
 10
75.09170253190419
 20
-75.367753799975347
 30
0.0
 11
75.09170253190419
 21
-77.671753799975335
 31
0.0
  0
LINE
  5
1CF
100
AcDbEntity
  8
___G
370
              18
390
0
  6
CENTER2
 62
               7
100
AcDbLine
 10
69.825221720682123
 20
-73.063753799975373
 30
0.0
 11
69.825221720682123
 21
-79.975753799975337
 31
0.0
  0
LINE
  5
1D0
100
AcDbEntity
  8
___G
370
              18
390
0
  6
Continuous
 62
               7
100
AcDbLine
 10
75.09170253190419
 20
-75.367753799975347
 30
0.0
 11
75.09170253190419
 21
-77.671753799975335
 31
0.0
  0
LINE
  5
1D1
100
AcDbEntity
  8
___G
370
              18
390
0
  6
Continuous
 62
               7
100
AcDbLine
 10
79.699702531904137
 20
-74.215753799975303
 30
0.0
 11
79.699702531904137
 21
-78.823753799975393
 31
0.0
  0
MTEXT
  5
1D2
100
AcDbEntity
  8
___G
370
               5
390
0
  6
Continuous
 62
               7
100
AcDbMText
 10
43.761221720682045
 20
-72.975287207332116
 30
0.0
 40
2.75
 41
20.0
 71
               1
 72
               1
  1
尺 　度
  7
Style1
 73
               1
 44
1.0
  0
LINE
  5
1D3
100
AcDbEntity
  8
___G
370
               5
390
0
  6
Continuous
 62
               7
100
AcDbLine
 10
45.761221720682045
 20
-76.519753799975291
 30
0.0
 11
59.761221720682045
 21
-76.519753799975291
 31
0.0
  0
LINE
  5
1D4
100
AcDbEntity
  8
___G
370
               5
390
0
  6
Continuous
 62
               7
100
AcDbLine
 10
55.761221720682059
 20
-85.019753799975291
 30
0.0
 11
81.761221720682045
 21
-85.019753799975291
 31
0.0
  0
LINE
  5
1D5
100
AcDbEntity
  8
___G
370
               5
390
0
  6
Continuous
 62
               7
100
AcDbLine
 10
25.761221720682045
 20
-85.019753799975291
 30
0.0
 11
51.761221720682045
 21
-85.019753799975291
 31
0.0
  0
LINE
  5
1D6
100
AcDbEntity
  8
___G
370
               5
390
0
  6
Continuous
 62
               7
100
AcDbLine
 10
63.761221720682045
 20
-72.269753799975291
 30
0.0
 11
63.761221720682045
 21
-80.769753799975291
 31
0.0
  0
LINE
  5
1D7
100
AcDbEntity
  8
___G
370
               5
390
0
  6
Continuous
 62
               7
100
AcDbLine
 10
43.761221720682045
 20
-72.269753799975291
 30
0.0
 11
43.761221720682045
 21
-80.769753799975291
 31
0.0
  0
LINE
  5
1D8
100
AcDbEntity
  8
___G
370
               5
390
0
  6
Continuous
 62
               7
100
AcDbLine
 10
43.761221720682045
 20
-72.269753799975291
 30
0.0
 11
43.761221720682045
 21
-55.769753799975319
 31
0.0
  0
LINE
  5
1D9
100
AcDbEntity
  8
___G
370
               5
390
0
  6
Continuous
 62
               7
100
AcDbLine
 10
53.761221720682045
 20
-80.769753799975305
 30
0.0
 11
53.761221720682045
 21
-89.269753799975319
 31
0.0
  0
MTEXT
  5
1DA
100
AcDbEntity
  8
___G
370
               5
390
0
  6
Continuous
 62
               7
100
AcDbMText
 10
27.981775445464709
 20
-90.996420720955101
 30
0.0
 40
5.0799999237060547
 41
24.996311053240746
 71
               1
 72
               1
  1
株式会社
  7
Style1
 73
               1
 44
1.0
  0
LINE
  5
1DB
100
AcDbEntity
  8
___G
370
               5
390
0
  6
Continuous
 62
               7
100
AcDbLine
 10
23.761221720681945
 20
-80.769753799975291
 30
0.0
 11
139.76122172068202
 21
-80.769753799975291
 31
0.0
  0
LINE
  5
1DC
100
AcDbEntity
  8
___G
370
               5
390
0
  6
Continuous
 62
               7
100
AcDbLine
 10
23.761221720682151
 20
-72.269753799975291
 30
0.0
 11
139.76122172068202
 21
-72.269753799975291
 31
0.0
  0
LINE
  5
1DD
100
AcDbEntity
  8
___G
370
               5
390
0
  6
Continuous
 62
               7
100
AcDbLine
 10
25.761221720681988
 20
-76.519753799975291
 30
0.0
 11
41.761221720682045
 21
-76.519753799975291
 31
0.0
  0
LINE
  5
1DE
100
AcDbEntity
  8
___G
370
              18
390
0
  6
Continuous
 62
               7
100
AcDbLine
 10
72.860894053787007
 20
-93.441615426465063
 30
0.0
 11
75.282227387120287
 21
-93.441615426465063
 31
0.0
  0
LINE
  5
1DF
100
AcDbEntity
  8
___G
370
              18
390
0
  6
Continuous
 62
               7
100
AcDbLine
 10
54.958423086675481
 20
-93.441615426465063
 30
0.0
 11
54.958423086675481
 21
-94.641615426464995
 31
0.0
  0
LINE
  5
1E0
100
AcDbEntity
  8
___G
370
              18
390
0
  6
Continuous
 62
               7
100
AcDbLine
 10
54.958423086675481
 20
-90.641615426465023
 30
0.0
 11
54.958423086675481
 21
-92.241615426465017
 31
0.0
  0
LINE
  5
1E1
100
AcDbEntity
  8
___G
370
              18
390
0
  6
Continuous
 62
               7
100
AcDbLine
 10
74.859827387120248
 20
-92.001615426465037
 30
0.0
 11
74.460894053786973
 21
-90.641615426465023
 31
0.0
  0
LINE
  5
1E2
100
AcDbEntity
  8
___G
370
              18
390
0
  6
Continuous
 62
               7
100
AcDbLine
 10
77.125665538622314
 20
-92.00161542646515
 30
0.0
 11
80.060894053786996
 21
-92.00161542646515
 31
0.0
  0
LINE
  5
1E3
100
AcDbEntity
  8
___G
370
              18
390
0
  6
Continuous
 62
               7
100
AcDbLine
 10
67.086907935160212
 20
-92.499303640450051
 30
0.0
 11
66.634359595200777
 21
-92.951851980409486
 31
0.0
  0
LINE
  5
1E4
100
AcDbEntity
  8
___G
370
              18
390
0
  6
Continuous
 62
               7
100
AcDbLine
 10
63.886907935160167
 20
-92.756991854435199
 30
0.0
 11
63.886907935160167
 21
-92.499303640450051
 31
0.0
  0
MTEXT
  5
1E5
100
AcDbEntity
  8
___G
370
              18
390
0
  6
Continuous
 62
               7
100
AcDbMText
 10
23.761221720681931
 20
-56.869753799975285
 30
0.0
 40
3.2999999523162842
 41
20.000000000000114
 71
               1
 72
               1
  1
材　　質
  7
Style1
 73
               1
 44
1.0
  0
MTEXT
  5
1E6
100
AcDbEntity
  8
___G
370
              18
390
0
  6
Continuous
 62
               7
100
AcDbMText
 10
23.761221720681931
 20
-62.369753799975285
 30
0.0
 40
3.2999999523162842
 41
20.000000000000114
 71
               1
 72
               1
  1
表面処理
  7
Style1
 73
               1
 44
1.0
  0
MTEXT
  5
1E7
100
AcDbEntity
  8
___G
370
              18
390
0
  6
Continuous
 62
               7
100
AcDbMText
 10
23.761221720681931
 20
-67.869753799975285
 30
0.0
 40
3.2999999523162842
 41
20.000000000000114
 71
               1
 72
               1
  1
一般公差
  7
Style1
 73
               1
 44
1.0
  0
LINE
  5
1E8
100
AcDbEntity
  8
___G
370
               5
390
0
  6
Continuous
 62
               7
100
AcDbLine
 10
23.761221720681952
 20
-66.769753799975291
 30
0.0
 11
139.76122172068202
 21
-66.769753799975291
 31
0.0
  0
LINE
  5
1E9
100
AcDbEntity
  8
___G
370
               5
390
0
  6
Continuous
 62
               7
100
AcDbLine
 10
23.761221720681952
 20
-61.269753799975291
 30
0.0
 11
139.76122172068202
 21
-61.269753799975291
 31
0.0
  0
LINE
  5
1EA
100
AcDbEntity
  8
___G
370
               5
390
0
  6
Continuous
 62
               7
100
AcDbLine
 10
23.761221720681952
 20
-55.769753799975291
 30
0.0
 11
139.76122172068202
 21
-55.769753799975291
 31
0.0
  0
LINE
  5
1EB
100
AcDbEntity
  8
___G
370
              18
390
0
  6
CENTER2
 62
               7
100
AcDbLine
 10
69.825221720682123
 20
-73.063753799975373
 30
0.0
 11
69.825221720682123
 21
-79.975753799975337
 31
0.0
  0
LINE
  5
1EC
100
AcDbEntity
  8
___G
370
              18
390
0
  6
Continuous
 62
               7
100
AcDbLine
 10
79.699702531904137
 20
-74.215753799975303
 30
0.0
 11
79.699702531904137
 21
-78.823753799975393
 31
0.0
  0
LINE
  5
1ED
100
AcDbEntity
  8
___G
370
              18
390
0
  6
Continuous
 62
               7
100
AcDbLine
 10
75.09170253190419
 20
-75.367753799975347
 30
0.0
 11
75.09170253190419
 21
-77.671753799975335
 31
0.0
  0
LINE
  5
1EE
100
AcDbEntity
  8
___G
370
              18
390
0
  6
Continuous
 62
               7
100
AcDbLine
 10
75.09170253190419
 20
-77.671753799975335
 30
0.0
 11
79.699702531904137
 21
-78.823753799975393
 31
0.0
  0
LINE
  5
1EF
100
AcDbEntity
  8
___G
370
              18
390
0
  6
Continuous
 62
               7
100
AcDbLine
 10
75.09170253190419
 20
-75.367753799975347
 30
0.0
 11
79.699702531904137
 21
-74.215753799975303
 31
0.0
  0
CIRCLE
  5
1F0
100
AcDbEntity
  8
___G
370
              18
390
0
  6
Continuous
 62
               7
100
AcDbCircle
 10
69.825221720682123
 20
-76.519753799975291
 30
0.0
 40
2.3039999999998599
  0
CIRCLE
  5
1F1
100
AcDbEntity
  8
___G
370
              18
390
0
  6
Continuous
 62
               7
100
AcDbCircle
 10
69.825221720682123
 20
-76.519753799975291
 30
0.0
 40
1.1520000000000437
  0
LINE
  5
1F2
100
AcDbEntity
  8
___G
370
              18
390
0
  6
CENTER2
 62
               7
100
AcDbLine
 10
66.369221720681992
 20
-76.519753799975291
 30
0.0
 11
81.153221720682083
 21
-76.519753799975291
 31
0.0
  0
CIRCLE
  5
1F3
100
AcDbEntity
  8
___G
370
              18
390
0
  6
Continuous
 62
               7
100
AcDbCircle
 10
69.825221720682123
 20
-76.519753799975291
 30
0.0
 40
1.1520000000000437
  0
MTEXT
  5
1F4
100
AcDbEntity
  8
___G
370
               5
390
0
  6
Continuous
 62
               7
100
AcDbMText
 10
23.761221720682045
 20
-72.975287207332116
 30
0.0
 40
2.75
 41
20.0
 71
               1
 72
               1
  1
日 　付
  7
Style1
 73
               1
 44
1.0
  0
LINE
  5
1F5
100
AcDbEntity
  8
___G
370
               5
390
0
  6
Continuous
 62
               7
100
AcDbLine
 10
23.761221720682045
 20
-55.769753799975291
 30
0.0
 11
23.761221720682045
 21
-72.269753799975291
 31
0.0
  0
LINE
  5
1F6
100
AcDbEntity
  8
___G
370
               5
390
0
  6
Continuous
 62
               7
100
AcDbLine
 10
23.761221720682045
 20
-72.269753799975291
 30
0.0
 11
23.761221720682045
 21
-97.769753799975291
 31
0.0
  0
LINE
  5
1F7
100
AcDbEntity
  8
___G
370
               5
390
0
  6
Continuous
 62
               7
100
AcDbLine
 10
23.761221720682045
 20
-55.769753799975291
 30
0.0
 11
23.761221720682045
 21
-72.269753799975291
 31
0.0
  0
MTEXT
  5
1F8
100
AcDbEntity
  8
___G
370
               5
390
0
  6
Continuous
 62
               7
100
AcDbMText
 10
84.261221720682045
 20
-81.269753799975291
 30
0.0
 40
2.75
 41
9.3000000000000007
 71
               1
 72
               1
  1
図面名
  7
Style1
 73
               1
 44
1.0
  0
MTEXT
  5
1F9
100
AcDbEntity
  8
___G
370
               5
390
0
  6
Continuous
 62
               7
100
AcDbMText
 10
84.261221720682045
 20
-89.769753799975263
 30
0.0
 40
2.75
 41
9.3000000000000007
 71
               1
 72
               1
  1
図　番
  7
Style1
 73
               1
 44
1.0
  0
MTEXT
  5
1FA
100
AcDbEntity
  8
___G
370
               5
390
0
  6
Continuous
 62
               7
100
AcDbMText
 10
84.261221720682045
 20
-72.769753799975263
 30
0.0
 40
2.75
 41
9.3000000000000007
 71
               1
 72
               1
  1
製品名
  7
Style1
 73
               1
 44
1.0
  0
LINE
  5
1FB
100
AcDbEntity
  8
___G
370
              18
390
0
  6
Continuous
 62
               7
100
AcDbLine
 10
79.699702531904137
 20
-74.215753799975303
 30
0.0
 11
79.699702531904137
 21
-78.823753799975393
 31
0.0
  0
LINE
  5
1FC
100
AcDbEntity
  8
___G
370
              18
390
0
  6
CENTER2
 62
               7
100
AcDbLine
 10
69.825221720682123
 20
-73.063753799975373
 30
0.0
 11
69.825221720682123
 21
-79.975753799975337
 31
0.0
  0
LINE
  5
1FD
100
AcDbEntity
  8
___G
370
              18
390
0
  6
CENTER2
 62
               7
100
AcDbLine
 10
69.825221720682123
 20
-73.063753799975373
 30
0.0
 11
69.825221720682123
 21
-79.975753799975337
 31
0.0
  0
LINE
  5
1FE
100
AcDbEntity
  8
___G
370
              18
390
0
  6
Continuous
 62
               7
100
AcDbLine
 10
-135.23877827931796
 20
92.230246200024737
 30
0.0
 11
139.76122172068202
 21
92.230246200024737
 31
0.0
  0
LINE
  5
1FF
100
AcDbEntity
  8
___G
370
               5
390
0
  6
DOT
 62
               7
100
AcDbLine
 10
-141.23877827931798
 20
-103.51975379997529
 30
0.0
 11
145.76122172068202
 21
-103.51975379997529
 31
0.0
  0
LINE
  5
200
100
AcDbEntity
  8
___G
370
               5
390
0
  6
DOT
 62
               7
100
AcDbLine
 10
-141.23877827931798
 20
97.980246200024737
 30
0.0
 11
145.76122172068202
 21
97.980246200024737
 31
0.0
  0
LINE
  5
201
100
AcDbEntity
  8
___G
370
              18
390
0
  6
Continuous
 62
               7
100
AcDbLine
 10
-135.23877827931796
 20
-97.769753799975291
 30
0.0
 11
139.76122172068202
 21
-97.769753799975291
 31
0.0
  0
LINE
  5
202
100
AcDbEntity
  8
___G
370
               5
390
0
  6
DOT
 62
               7
100
AcDbLine
 10
-141.235778279318
 20
-103.51975379997529
 30
0.0
 11
-141.235778279318
 21
97.980246200024737
 31
0.0
  0
LINE
  5
203
100
AcDbEntity
  8
___G
370
              18
390
0
  6
Continuous
 62
               7
100
AcDbLine
 10
-135.23877827931796
 20
-97.769753799975291
 30
0.0
 11
-135.23877827931796
 21
92.230246200024681
 31
0.0
  0
LINE
  5
204
100
AcDbEntity
  8
___G
370
               5
390
0
  6
DOT
 62
               7
100
AcDbLine
 10
145.76122172068202
 20
-103.51975379997529
 30
0.0
 11
145.76122172068202
 21
97.980246200024737
 31
0.0
  0
LINE
  5
205
100
AcDbEntity
  8
___G
370
              18
390
0
  6
Continuous
 62
               7
100
AcDbLine
 10
139.76122172068202
 20
-97.769753799975291
 30
0.0
 11
139.76122172068202
 21
92.230246200024681
 31
0.0
  0
LINE
  5
206
100
AcDbEntity
  8
___G
370
               5
390
0
  6
Continuous
 62
               7
100
AcDbLine
 10
81.761221720682045
 20
-61.269753799975291
 30
0.0
 11
81.761221720682045
 21
-55.769753799975319
 31
0.0
  0
LINE
  5
207
100
AcDbEntity
  8
___G
370
               5
390
0
  6
Continuous
 62
               7
100
AcDbLine
 10
99.761221720682045
 20
-61.269753799975291
 30
0.0
 11
99.761221720682045
 21
-55.769753799975319
 31
0.0
  0
MTEXT
  5
208
100
AcDbEntity
  8
___G
370
              18
390
0
  6
Continuous
 62
               7
100
AcDbMText
 10
81.761221720682045
 20
-56.869753799975285
 30
0.0
 40
3.2999999523162842
 41
18.0
 71
               1
 72
               1
  1
板　　厚
  7
Style1
 73
               1
 44
1.0
  0
CIRCLE
  5
209
100
AcDbEntity
  8
___G
370
              18
390
0
  6
Continuous
 62
               7
100
AcDbCircle
 10
69.825221720682123
 20
-76.519753799975291
 30
0.0
 40
2.3039999999998599
  0
LINE
  5
20A
100
AcDbEntity
  8
___G
370
              18
390
0
  6
Continuous
 62
               7
100
AcDbLine
 10
75.09170253190419
 20
-75.367753799975347
 30
0.0
 11
79.699702531904137
 21
-74.215753799975303
 31
0.0
  0
LINE
  5
20B
100
AcDbEntity
  8
___G
370
              18
390
0
  6
Continuous
 62
               7
100
AcDbLine
 10
75.09170253190419
 20
-77.671753799975335
 30
0.0
 11
79.699702531904137
 21
-78.823753799975393
 31
0.0
  0
LINE
  5
20C
100
AcDbEntity
  8
___G
370
              18
390
0
  6
Continuous
 62
               7
100
AcDbLine
 10
75.09170253190419
 20
-75.367753799975347
 30
0.0
 11
75.09170253190419
 21
-77.671753799975335
 31
0.0
  0
CIRCLE
  5
20D
100
AcDbEntity
  8
___G
370
              18
390
0
  6
Continuous
 62
               7
100
AcDbCircle
 10
69.825221720682123
 20
-76.519753799975291
 30
0.0
 40
2.3039999999998599
  0
CIRCLE
  5
20E
100
AcDbEntity
  8
___G
370
              18
390
0
  6
Continuous
 62
               7
100
AcDbCircle
 10
69.825221720682123
 20
-76.519753799975291
 30
0.0
 40
1.1520000000000437
  0
LINE
  5
20F
100
AcDbEntity
  8
___G
370
              18
390
0
  6
Continuous
 62
               7
100
AcDbLine
 10
75.09170253190419
 20
-77.671753799975335
 30
0.0
 11
79.699702531904137
 21
-78.823753799975393
 31
0.0
  0
LINE
  5
210
100
AcDbEntity
  8
___G
370
              18
390
0
  6
Continuous
 62
               7
100
AcDbLine
 10
75.09170253190419
 20
-75.367753799975347
 30
0.0
 11
79.699702531904137
 21
-74.215753799975303
 31
0.0
  0
CIRCLE
  5
211
100
AcDbEntity
  8
___G
370
              18
390
0
  6
Continuous
 62
               7
100
AcDbCircle
 10
69.825221720682123
 20
-76.519753799975291
 30
0.0
 40
1.1520000000000437
  0
MTEXT
  5
212
100
AcDbEntity
  8
___G
370
               5
390
0
  6
Continuous
 62
               7
100
AcDbMText
 10
53.761221720682073
 20
-85.725287207332116
 30
0.0
 40
2.75
 41
7.9999999999999716
 71
               1
 72
               1
  1
 検図
  7
Style1
 73
               1
 44
1.0
  0
MTEXT
  5
213
100
AcDbEntity
  8
___G
370
               5
390
0
  6
Continuous
 62
               7
100
AcDbMText
 10
53.761221720682045
 20
-81.475287207332116
 30
0.0
 40
2.75
 41
8.0
 71
               1
 72
               1
  1
 照査
  7
Style1
 73
               1
 44
1.0
  0
MTEXT
  5
214
100
AcDbEntity
  8
___G
370
               5
390
0
  6
Continuous
 62
               7
100
AcDbMText
 10
23.761221720682073
 20
-85.725287207332144
 30
0.0
 40
2.75
 41
7.9999999999999716
 71
               1
 72
               1
  1
製図
  7
Style1
 73
               1
 44
1.0
  0
MTEXT
  5
215
100
AcDbEntity
  8
___G
370
               5
390
0
  6
Continuous
 62
               7
100
AcDbMText
 10
23.761221720682045
 20
-81.475287207332144
 30
0.0
 40
2.75
 41
8.0
 71
               1
 72
               1
  1
 設計
  7
Style1
 73
               1
 44
1.0
  0
LINE
  5
216
100
AcDbEntity
  8
___G
370
               5
390
0
  6
Continuous
 62
               7
100
AcDbLine
 10
23.761221720682151
 20
-89.269753799975291
 30
0.0
 11
139.76122172068202
 21
-89.269753799975291
 31
0.0
  0
ENDBLK
  5
217
100
AcDbEntity
  8
0
390
0
100
AcDbBlockEnd
  0
BLOCK
  5
21A
100
AcDbEntity
  8
0
390
0
100
AcDbBlockBegin
  2
*D6
 70
              65
 10
0.0
 20
0.0
 30
0.0
  3
*D6
  1

  0
LINE
  5
21B
100
AcDbEntity
  8
____1
370
              18
390
0
  6
Continuous
 62
               7
100
AcDbLine
 10
-27.767955449297233
 20
-12.060523585223336
 30
0.0
 11
-27.767955449297233
 21
-1.0605235852233363
 31
0.0
  0
LINE
  5
21C
100
AcDbEntity
  8
____1
370
              18
390
0
  6
Continuous
 62
               7
100
AcDbLine
 10
-48.467167256724451
 20
-12.241162870041023
 30
0.0
 11
-48.467167256724451
 21
-1.0605235852233363
 31
0.0
  0
SOLID
  5
21D
100
AcDbEntity
  8
____1
370
               5
390
0
  6
Continuous
 62
               7
100
AcDbTrace
 10
-46.052352784525965
 20
-3.7075712241164638
 30
0.0
 11
-46.052352784525965
 21
-3.7075712241164638
 31
0.0
 12
-48.467167256724451
 22
-3.0605235852233363
 32
0.0
 13
-46.656056402575587
 23
-3.0605235852233363
 33
0.0
  0
SOLID
  5
21E
100
AcDbEntity
  8
____1
370
               5
390
0
  6
Continuous
 62
               7
100
AcDbTrace
 10
-48.467167256724451
 20
-3.0605235852233363
 30
0.0
 11
-46.656056402575587
 21
-3.0605235852233363
 31
0.0
 12
-46.052352784525965
 22
-2.4134759463302089
 32
0.0
 13
-46.052352784525965
 23
-2.4134759463302089
 33
0.0
  0
LINE
  5
21F
100
AcDbEntity
  8
____1
370
              18
390
0
  6
Continuous
 62
               7
100
AcDbLine
 10
-48.467167256724451
 20
-3.0605235852233363
 30
0.0
 11
-38.117561353010842
 21
-3.0605235852233363
 31
0.0
  0
SOLID
  5
220
100
AcDbEntity
  8
____1
370
               5
390
0
  6
Continuous
 62
               7
100
AcDbTrace
 10
-30.182769921495719
 20
-3.7075712241164638
 30
0.0
 11
-30.182769921495719
 21
-3.7075712241164638
 31
0.0
 12
-29.579066303446098
 22
-3.0605235852233363
 32
0.0
 13
-27.767955449297233
 23
-3.0605235852233363
 33
0.0
  0
SOLID
  5
221
100
AcDbEntity
  8
____1
370
               5
390
0
  6
Continuous
 62
               7
100
AcDbTrace
 10
-29.579066303446098
 20
-3.0605235852233363
 30
0.0
 11
-27.767955449297233
 21
-3.0605235852233363
 31
0.0
 12
-30.182769921495719
 22
-2.4134759463302089
 32
0.0
 13
-30.182769921495719
 23
-2.4134759463302089
 33
0.0
  0
LINE
  5
222
100
AcDbEntity
  8
____1
370
              18
390
0
  6
Continuous
 62
               7
100
AcDbLine
 10
-27.767955449297233
 20
-3.0605235852233363
 30
0.0
 11
-38.117561353010842
 21
-3.0605235852233363
 31
0.0
  0
MTEXT
  5
223
100
AcDbEntity
  8
____1
370
              18
390
0
  6
Continuous
 62
               7
100
AcDbMText
 10
-41.645339024824807
 20
1.4672540865906281
 30
0.0
 40
3.5277776718139648
 41
7.0831161066889763
 71
               1
 72
               1
  1
20.7
  7
Style1
 73
               1
 44
1.0
  0
ENDBLK
  5
224
100
AcDbEntity
  8
0
390
0
100
AcDbBlockEnd
  0
BLOCK
  5
227
100
AcDbEntity
  8
0
390
0
100
AcDbBlockBegin
  2
*D7
 70
              65
 10
0.0
 20
0.0
 30
0.0
  3
*D7
  1

  0
LINE
  5
228
100
AcDbEntity
  8
____1
370
              18
390
0
  6
Continuous
 62
               7
100
AcDbLine
 10
-50.867167256725679
 20
-20.441162870039648
 30
0.0
 11
-50.867167256725679
 21
-47.088819120039716
 31
0.0
  0
LINE
  5
229
100
AcDbEntity
  8
____1
370
              18
390
0
  6
Continuous
 62
               7
100
AcDbLine
 10
-27.741778341962572
 20
-17.060122979064602
 30
0.0
 11
-27.741778341962572
 21
-47.088819120039716
 31
0.0
  0
SOLID
  5
22A
100
AcDbEntity
  8
____1
370
               5
390
0
  6
Continuous
 62
               7
100
AcDbTrace
 10
-30.156592814161058
 20
-45.735866758932843
 30
0.0
 11
-30.156592814161058
 21
-45.735866758932843
 31
0.0
 12
-29.552889196111437
 22
-45.088819120039716
 32
0.0
 13
-27.741778341962572
 23
-45.088819120039716
 33
0.0
  0
SOLID
  5
22B
100
AcDbEntity
  8
____1
370
               5
390
0
  6
Continuous
 62
               7
100
AcDbTrace
 10
-29.552889196111437
 20
-45.088819120039716
 30
0.0
 11
-27.741778341962572
 21
-45.088819120039716
 31
0.0
 12
-30.156592814161058
 22
-44.441771481146588
 32
0.0
 13
-30.156592814161058
 23
-44.441771481146588
 33
0.0
  0
LINE
  5
22C
100
AcDbEntity
  8
____1
370
              18
390
0
  6
Continuous
 62
               7
100
AcDbLine
 10
-27.741778341962572
 20
-45.088819120039716
 30
0.0
 11
-39.304472799344126
 21
-45.088819120039716
 31
0.0
  0
SOLID
  5
22D
100
AcDbEntity
  8
____1
370
               5
390
0
  6
Continuous
 62
               7
100
AcDbTrace
 10
-48.452352784527193
 20
-45.735866758932843
 30
0.0
 11
-48.452352784527193
 21
-45.735866758932843
 31
0.0
 12
-50.867167256725679
 22
-45.088819120039716
 32
0.0
 13
-49.056056402576814
 23
-45.088819120039716
 33
0.0
  0
SOLID
  5
22E
100
AcDbEntity
  8
____1
370
               5
390
0
  6
Continuous
 62
               7
100
AcDbTrace
 10
-50.867167256725679
 20
-45.088819120039716
 30
0.0
 11
-49.056056402576814
 21
-45.088819120039716
 31
0.0
 12
-48.452352784527193
 22
-44.441771481146588
 32
0.0
 13
-48.452352784527193
 23
-44.441771481146588
 33
0.0
  0
LINE
  5
22F
100
AcDbEntity
  8
____1
370
              18
390
0
  6
Continuous
 62
               7
100
AcDbLine
 10
-50.867167256725679
 20
-45.088819120039716
 30
0.0
 11
-39.304472799344126
 21
-45.088819120039716
 31
0.0
  0
MTEXT
  5
230
100
AcDbEntity
  8
寸法線_1
370
              18
390
0
  6
Continuous
 62
               7
100
AcDbMText
 10
-42.83225047115809
 20
-40.561041448225751
 30
0.0
 40
3.5277776718139648
 41
7.0831161066889763
 71
               1
 72
               1
  1
23.1
  7
Style1
 73
               1
 44
1.0
  0
ENDBLK
  5
231
100
AcDbEntity
  8
0
390
0
100
AcDbBlockEnd
  0
BLOCK
  5
234
100
AcDbEntity
  8
0
390
0
100
AcDbBlockBegin
  2
*D8
 70
              65
 10
0.0
 20
0.0
 30
0.0
  3
*D8
  1

  0
LINE
  5
235
100
AcDbEntity
  8
____1
370
              18
390
0
  6
Continuous
 62
               7
100
AcDbLine
 10
-43.867156761948308
 20
-34.422803495039716
 30
0.0
 11
-50.867167256725679
 21
-34.422803495039716
 31
0.0
  0
LINE
  5
236
100
AcDbEntity
  8
____1
370
              18
390
0
  6
Continuous
 62
               7
100
AcDbLine
 10
-50.867167256725679
 20
-20.441162870039648
 30
0.0
 11
-50.867167256725679
 21
-36.422803495039716
 31
0.0
  0
LINE
  5
237
100
AcDbEntity
  8
____1
370
              18
390
0
  6
Continuous
 62
               7
100
AcDbLine
 10
-43.867156761948308
 20
-20.646076043363337
 30
0.0
 11
-43.867156761948308
 21
-36.422803495039716
 31
0.0
  0
SOLID
  5
238
100
AcDbEntity
  8
____1
370
               5
390
0
  6
Continuous
 62
               7
100
AcDbTrace
 10
-41.452342289749822
 20
-35.069851133932843
 30
0.0
 11
-41.452342289749822
 21
-35.069851133932843
 31
0.0
 12
-43.867156761948308
 22
-34.422803495039716
 32
0.0
 13
-42.056045907799444
 23
-34.422803495039716
 33
0.0
  0
SOLID
  5
239
100
AcDbEntity
  8
____1
370
               5
390
0
  6
Continuous
 62
               7
100
AcDbTrace
 10
-43.867156761948308
 20
-34.422803495039716
 30
0.0
 11
-42.056045907799444
 21
-34.422803495039716
 31
0.0
 12
-41.452342289749822
 22
-33.775755856146588
 32
0.0
 13
-41.452342289749822
 23
-33.775755856146588
 33
0.0
  0
LINE
  5
23A
100
AcDbEntity
  8
____1
370
              18
390
0
  6
Continuous
 62
               7
100
AcDbLine
 10
-43.867156761948308
 20
-34.422803495039716
 30
0.0
 11
-38.867156761948308
 21
-34.422803495039716
 31
0.0
  0
SOLID
  5
23B
100
AcDbEntity
  8
____1
370
               5
390
0
  6
Continuous
 62
               7
100
AcDbTrace
 10
-53.281981728924166
 20
-35.069851133932843
 30
0.0
 11
-53.281981728924166
 21
-35.069851133932843
 31
0.0
 12
-52.678278110874544
 22
-34.422803495039716
 32
0.0
 13
-50.867167256725679
 23
-34.422803495039716
 33
0.0
  0
SOLID
  5
23C
100
AcDbEntity
  8
____1
370
               5
390
0
  6
Continuous
 62
               7
100
AcDbTrace
 10
-52.678278110874544
 20
-34.422803495039716
 30
0.0
 11
-50.867167256725679
 21
-34.422803495039716
 31
0.0
 12
-53.281981728924166
 22
-33.775755856146588
 32
0.0
 13
-53.281981728924166
 23
-33.775755856146588
 33
0.0
  0
LINE
  5
23D
100
AcDbEntity
  8
____1
370
              18
390
0
  6
Continuous
 62
               7
100
AcDbLine
 10
-50.867167256725679
 20
-34.422803495039716
 30
0.0
 11
-55.867167256725679
 21
-34.422803495039716
 31
0.0
  0
MTEXT
  5
23E
100
AcDbEntity
  8
寸法線_1
370
              18
390
0
  6
Continuous
 62
               7
100
AcDbMText
 10
-48.249106427290485
 20
-29.895025823225751
 30
0.0
 40
3.5277776718139648
 41
1.7707790266722441
 71
               1
 72
               1
  1
7
  7
Style1
 73
               1
 44
1.0
  0
ENDBLK
  5
23F
100
AcDbEntity
  8
0
390
0
100
AcDbBlockEnd
  0
BLOCK
  5
242
100
AcDbEntity
  8
0
390
0
100
AcDbBlockBegin
  2
*D9
 70
              65
 10
0.0
 20
0.0
 30
0.0
  3
*D9
  1

  0
LINE
  5
243
100
AcDbEntity
  8
____1
370
              18
390
0
  6
Continuous
 62
               7
100
AcDbLine
 10
-58.567148264932257
 20
-25.741162870039659
 30
0.0
 11
-58.567148264932257
 21
-13.241162870041023
 31
0.0
  0
LINE
  5
244
100
AcDbEntity
  8
____1
370
              18
390
0
  6
Continuous
 62
               7
100
AcDbLine
 10
-49.467167256724451
 20
-13.241162870041023
 30
0.0
 11
-60.567148264932257
 21
-13.241162870041023
 31
0.0
  0
LINE
  5
245
100
AcDbEntity
  8
____1
370
              18
390
0
  6
Continuous
 62
               7
100
AcDbLine
 10
-49.567148264932257
 20
-25.741162870039659
 30
0.0
 11
-60.567148264932257
 21
-25.741162870039659
 31
0.0
  0
SOLID
  5
246
100
AcDbEntity
  8
____1
370
               5
390
0
  6
Continuous
 62
               7
100
AcDbTrace
 10
-59.214195903825384
 20
-28.155977342238145
 30
0.0
 11
-59.214195903825384
 21
-28.155977342238145
 31
0.0
 12
-59.052433994102103
 22
-27.552273724188524
 32
0.0
 13
-58.567148264932257
 23
-27.552273724188524
 33
0.0
  0
SOLID
  5
247
100
AcDbEntity
  8
____1
370
               5
390
0
  6
Continuous
 62
               7
100
AcDbTrace
 10
-57.92010062603913
 20
-28.155977342238145
 30
0.0
 11
-57.92010062603913
 21
-28.155977342238145
 31
0.0
 12
-58.567148264932257
 22
-27.552273724188524
 32
0.0
 13
-58.081862535762411
 23
-27.552273724188524
 33
0.0
  0
SOLID
  5
248
100
AcDbEntity
  8
____1
370
               5
390
0
  6
Continuous
 62
               7
100
AcDbTrace
 10
-59.052433994102103
 20
-27.552273724188524
 30
0.0
 11
-58.081862535762411
 21
-27.552273724188524
 31
0.0
 12
-58.567148264932257
 22
-25.741162870039659
 32
0.0
 13
-58.567148264932257
 23
-25.741162870039659
 33
0.0
  0
LINE
  5
249
100
AcDbEntity
  8
____1
370
              18
390
0
  6
Continuous
 62
               7
100
AcDbLine
 10
-58.567148264932257
 20
-25.741162870039659
 30
0.0
 11
-58.567148264932257
 21
-30.741162870039659
 31
0.0
  0
SOLID
  5
24A
100
AcDbEntity
  8
____1
370
               5
390
0
  6
Continuous
 62
               7
100
AcDbTrace
 10
-58.567148264932257
 20
-13.241162870041023
 30
0.0
 11
-58.567148264932257
 21
-13.241162870041023
 31
0.0
 12
-59.052433994102103
 22
-11.430052015892159
 32
0.0
 13
-58.081862535762411
 23
-11.430052015892159
 33
0.0
  0
SOLID
  5
24B
100
AcDbEntity
  8
____1
370
               5
390
0
  6
Continuous
 62
               7
100
AcDbTrace
 10
-59.052433994102103
 20
-11.430052015892159
 30
0.0
 11
-58.567148264932257
 21
-11.430052015892159
 31
0.0
 12
-59.214195903825384
 22
-10.826348397842537
 32
0.0
 13
-59.214195903825384
 23
-10.826348397842537
 33
0.0
  0
SOLID
  5
24C
100
AcDbEntity
  8
____1
370
               5
390
0
  6
Continuous
 62
               7
100
AcDbTrace
 10
-58.567148264932257
 20
-11.430052015892159
 30
0.0
 11
-58.081862535762411
 21
-11.430052015892159
 31
0.0
 12
-57.92010062603913
 22
-10.826348397842537
 32
0.0
 13
-57.92010062603913
 23
-10.826348397842537
 33
0.0
  0
LINE
  5
24D
100
AcDbEntity
  8
____1
370
              18
390
0
  6
Continuous
 62
               7
100
AcDbLine
 10
-58.567148264932257
 20
-13.241162870041023
 30
0.0
 11
-58.567148264932257
 21
-8.2411628700410233
 31
0.0
  0
MTEXT
  5
24E
100
AcDbEntity
  8
寸法線_1
370
              18
390
0
  6
Continuous
 62
               7
100
AcDbMText
 10
-63.094925936746222
 20
-23.018940541854306
 30
0.0
 40
3.5277776718139648
 41
7.0831161066889763
 71
               1
 72
               1
  1
12.5
  7
Style1
 11
0.0
 21
1.0
 31
0.0
 73
               1
 44
1.0
  0
ENDBLK
  5
24F
100
AcDbEntity
  8
0
390
0
100
AcDbBlockEnd
  0
BLOCK
  5
252
100
AcDbEntity
  8
0
390
0
100
AcDbBlockBegin
  2
*D10
 70
              65
 10
0.0
 20
0.0
 30
0.0
  3
*D10
  1

  0
LINE
  5
253
100
AcDbEntity
  8
____1
370
              18
390
0
  6
Continuous
 62
               7
100
AcDbLine
 10
-17.741778341962572
 20
-13.060523585223336
 30
0.0
 11
-17.741778341962572
 21
-16.060122979064602
 31
0.0
  0
LINE
  5
254
100
AcDbEntity
  8
____1
370
              18
390
0
  6
Continuous
 62
               7
100
AcDbLine
 10
-26.741778341962572
 20
-16.060122979064602
 30
0.0
 11
-15.741778341962572
 21
-16.060122979064602
 31
0.0
  0
LINE
  5
255
100
AcDbEntity
  8
____1
370
              18
390
0
  6
Continuous
 62
               7
100
AcDbLine
 10
-26.767955449297233
 20
-13.060523585223336
 30
0.0
 11
-15.741778341962572
 21
-13.060523585223336
 31
0.0
  0
SOLID
  5
256
100
AcDbEntity
  8
____1
370
               5
390
0
  6
Continuous
 62
               7
100
AcDbTrace
 10
-17.741778341962572
 20
-13.060523585223336
 30
0.0
 11
-17.741778341962572
 21
-13.060523585223336
 31
0.0
 12
-18.227064071132418
 22
-11.249412731074472
 32
0.0
 13
-17.256492612792727
 23
-11.249412731074472
 33
0.0
  0
SOLID
  5
257
100
AcDbEntity
  8
____1
370
               5
390
0
  6
Continuous
 62
               7
100
AcDbTrace
 10
-18.227064071132418
 20
-11.249412731074472
 30
0.0
 11
-17.741778341962572
 21
-11.249412731074472
 31
0.0
 12
-18.3888259808557
 22
-10.64570911302485
 32
0.0
 13
-18.3888259808557
 23
-10.64570911302485
 33
0.0
  0
SOLID
  5
258
100
AcDbEntity
  8
____1
370
               5
390
0
  6
Continuous
 62
               7
100
AcDbTrace
 10
-17.741778341962572
 20
-11.249412731074472
 30
0.0
 11
-17.256492612792727
 21
-11.249412731074472
 31
0.0
 12
-17.094730703069445
 22
-10.64570911302485
 32
0.0
 13
-17.094730703069445
 23
-10.64570911302485
 33
0.0
  0
LINE
  5
259
100
AcDbEntity
  8
____1
370
              18
390
0
  6
Continuous
 62
               7
100
AcDbLine
 10
-17.741778341962572
 20
-13.060523585223336
 30
0.0
 11
-17.741778341962572
 21
-8.0605235852233363
 31
0.0
  0
SOLID
  5
25A
100
AcDbEntity
  8
____1
370
               5
390
0
  6
Continuous
 62
               7
100
AcDbTrace
 10
-18.3888259808557
 20
-18.474937451263088
 30
0.0
 11
-18.3888259808557
 21
-18.474937451263088
 31
0.0
 12
-18.227064071132418
 22
-17.871233833213466
 32
0.0
 13
-17.741778341962572
 23
-17.871233833213466
 33
0.0
  0
SOLID
  5
25B
100
AcDbEntity
  8
____1
370
               5
390
0
  6
Continuous
 62
               7
100
AcDbTrace
 10
-17.094730703069445
 20
-18.474937451263088
 30
0.0
 11
-17.094730703069445
 21
-18.474937451263088
 31
0.0
 12
-17.741778341962572
 22
-17.871233833213466
 32
0.0
 13
-17.256492612792727
 23
-17.871233833213466
 33
0.0
  0
SOLID
  5
25C
100
AcDbEntity
  8
____1
370
               5
390
0
  6
Continuous
 62
               7
100
AcDbTrace
 10
-18.227064071132418
 20
-17.871233833213466
 30
0.0
 11
-17.256492612792727
 21
-17.871233833213466
 31
0.0
 12
-17.741778341962572
 22
-16.060122979064602
 32
0.0
 13
-17.741778341962572
 23
-16.060122979064602
 33
0.0
  0
LINE
  5
25D
100
AcDbEntity
  8
____1
370
              18
390
0
  6
Continuous
 62
               7
100
AcDbLine
 10
-17.741778341962572
 20
-16.060122979064602
 30
0.0
 11
-17.741778341962572
 21
-21.060122979064602
 31
0.0
  0
MTEXT
  5
25E
100
AcDbEntity
  8
寸法線_1
370
              18
390
0
  6
Continuous
 62
               7
100
AcDbMText
 10
-22.269556013776537
 20
-15.44226770009746
 30
0.0
 40
3.5277776718139648
 41
1.7707790266722441
 71
               1
 72
               1
  1
3
  7
Style1
 11
0.0
 21
1.0
 31
0.0
 73
               1
 44
1.0
  0
ENDBLK
  5
25F
100
AcDbEntity
  8
0
390
0
100
AcDbBlockEnd
  0
ENDSEC
  0
SECTION
  2
ENTITIES
  0
LINE
  5
3E
100
AcDbEntity
  8
________1________1
370
              18
390
0
  6
Continuous
 62
               7
100
AcDbLine
 10
33.997148783516081
 20
-13.241162870041087
 30
0.0
 11
33.484585650592749
 21
-13.241162870041087
 31
0.0
  0
LINE
  5
3F
100
AcDbEntity
  8
________1________1
370
              18
390
0
  6
Continuous
 62
               7
100
AcDbLine
 10
27.509711916440892
 20
-13.241162870041087
 30
0.0
 11
28.747148783518696
 21
-13.241162870041087
 31
0.0
  0
LINE
  5
40
100
AcDbEntity
  8
________1________1
370
              18
390
0
  6
Continuous
 62
               7
100
AcDbLine
 10
32.247148783518298
 20
-13.241162870039695
 30
0.0
 11
28.747148783518298
 21
-13.241162870039695
 31
0.0
  0
LINE
  5
41
100
AcDbEntity
  8
________1________1
370
              18
390
0
  6
Continuous
 62
               7
100
AcDbLine
 10
33.197148783516297
 20
-25.741162870075797
 30
0.0
 11
33.197148783516297
 21
-25.48326439006361
 31
0.0
  0
LINE
  5
42
100
AcDbEntity
  8
________1________1
370
              18
390
0
  6
Continuous
 62
               7
100
AcDbLine
 10
33.197148783518287
 20
-20.760421363402468
 30
0.0
 11
33.197148783518287
 21
-24.798251118094328
 31
0.0
  0
LINE
  5
43
100
AcDbEntity
  8
________1________1
370
              18
390
0
  6
Continuous
 62
               7
100
AcDbLine
 10
33.197148783516297
 20
-20.213572153037713
 30
0.0
 11
33.197148783516297
 21
-19.646249674157456
 31
0.0
  0
LINE
  5
44
100
AcDbEntity
  8
________1________1
370
              18
390
0
  6
Continuous
 62
               7
100
AcDbLine
 10
27.79714878351831
 20
-16.968095410078284
 30
0.0
 11
27.79714878351831
 21
-16.240876483784994
 31
0.0
  0
LINE
  5
45
100
AcDbEntity
  8
________1________1
370
              18
390
0
  6
Continuous
 62
               7
100
AcDbLine
 10
27.797148783517514
 20
-16.968095410060194
 30
0.0
 11
27.797148783517514
 21
-17.123232598785684
 31
0.0
  0
LINE
  5
46
100
AcDbEntity
  8
________1________1
370
              18
390
0
  6
Continuous
 62
               7
100
AcDbLine
 10
27.79714878351831
 20
-19.646085226801485
 30
0.0
 11
27.79714878351831
 21
-17.467409375599697
 31
0.0
  0
LINE
  5
47
100
AcDbEntity
  8
________1________1
370
              18
390
0
  6
Continuous
 62
               7
100
AcDbLine
 10
27.797148783517514
 20
-20.213407703452884
 30
0.0
 11
27.797148783517514
 21
-20.760256911759665
 31
0.0
  0
LINE
  5
48
100
AcDbEntity
  8
________1________1
370
              18
390
0
  6
Continuous
 62
               7
100
AcDbLine
 10
27.79714878351831
 20
-24.798251118094328
 30
0.0
 11
27.79714878351831
 21
-20.760256911752418
 31
0.0
  0
LINE
  5
49
100
AcDbEntity
  8
________1________1
370
              18
390
0
  6
Continuous
 62
               7
100
AcDbLine
 10
27.797148783517514
 20
-24.798251118073608
 30
0.0
 11
27.797148783517514
 21
-25.48326439006361
 31
0.0
  0
LINE
  5
4A
100
AcDbEntity
  8
________1________1
370
              18
390
0
  6
Continuous
 62
               7
100
AcDbLine
 10
33.997148783518298
 20
-13.241162870039695
 30
0.0
 11
33.997148783518298
 21
-16.240876483784994
 31
0.0
  0
LINE
  5
4B
100
AcDbEntity
  8
________1________1
370
              18
390
0
  6
Continuous
 62
               7
100
AcDbLine
 10
33.997148783518298
 20
-16.968099368178294
 30
0.0
 11
33.997148783518298
 21
-16.240876483784994
 31
0.0
  0
LINE
  5
4C
100
AcDbEntity
  8
________1________1
370
              18
390
0
  6
Continuous
 62
               7
100
AcDbLine
 10
33.997148783516081
 20
-17.123236556887385
 30
0.0
 11
33.997148783516081
 21
-17.467413333698286
 31
0.0
  0
LINE
  5
4D
100
AcDbEntity
  8
________1________1
370
              18
390
0
  6
Continuous
 62
               7
100
AcDbLine
 10
28.747148783518696
 20
-16.240876483783786
 30
0.0
 11
27.509711916440892
 21
-16.240876483783786
 31
0.0
  0
ARC
  5
4E
100
AcDbEntity
  8
________1________1
370
              18
390
0
  6
Continuous
 62
               7
100
AcDbCircle
 10
34.597148783518264
 20
-18.941162870039715
 30
0.0
 40
0.5000000000000543
100
AcDbArc
 50
-44.999999999996547
 51
0.0
  0
LINE
  5
4F
100
AcDbEntity
  8
________1________1
370
              18
390
0
  6
Continuous
 62
               7
100
AcDbLine
 10
35.097148783518264
 20
-14.741162870039695
 30
0.0
 11
35.097148783518264
 21
-18.941162870039715
 31
0.0
  0
ARC
  5
50
100
AcDbEntity
  8
________1________1
370
              18
390
0
  6
Continuous
 62
               7
100
AcDbCircle
 10
26.397148783518276
 20
-18.941162870039715
 30
0.0
 40
0.4999999999999432
100
AcDbArc
 50
180.0
 51
-135.0
  0
MTEXT
  5
51
100
AcDbEntity
  8
___G
370
              18
390
0
  6
Continuous
 62
               7
100
AcDbMText
 10
99.761221720682045
 20
-56.619753799975285
 30
0.0
 40
3.7999999523162842
 41
40.0
 71
               1
 72
               1
  1
0.8t
  7
Style1
 73
               1
 44
1.0
  0
MTEXT
  5
53
100
AcDbEntity
  8
___G
370
               5
390
0
  6
DOT
 62
               7
100
AcDbMText
 10
91.651721174390246
 20
-74.754753799975276
 30
0.0
 40
3.5277776718139648
 41
47.109500546291798
 71
               1
 72
               1
  1
リーフ棚柱
  7
Style1
 73
               1
 44
1.0
  0
MTEXT
  5
54
100
AcDbEntity
  8
___G
370
               5
390
0
  6
DOT
 62
               7
100
AcDbMText
 10
91.651721174390246
 20
-83.254753799975276
 30
0.0
 40
3.5277776718139648
 41
47.109500546291798
 71
               1
 72
               1
  1
LA-311 リーフ棚受け
  7
Style1
 73
               1
 44
1.0
  0
MTEXT
  5
55
100
AcDbEntity
  8
___G
370
               5
390
0
  6
DOT
 62
               7
100
AcDbMText
 10
91.651721174390246
 20
-91.754753799975276
 30
0.0
 40
3.5277776718139648
 41
47.109500546291798
 71
               1
 72
               1
  1
SLZ00167
  7
Style1
 73
               1
 44
1.0
  0
MTEXT
  5
56
100
AcDbEntity
  8
____
370
               5
390
0
  6
Continuous
 62
               7
100
AcDbMText
 10
47.894193309849385
 20
85.710853940844288
 30
0.0
 40
3.174999961853028
 41
3.1654860495798762
 71
               1
 72
               1
  1
1
  7
Style1
 73
               1
 44
1.0
  0
ARC
  5
57
100
AcDbEntity
  8
________1________1
370
              18
390
0
  6
Continuous
 62
               7
100
AcDbCircle
 10
25.997148783518298
 20
-21.141162870039718
 30
0.0
 40
0.4999999999999858
100
AcDbArc
 50
89.999999998469264
 51
135.0
  0
ARC
  5
58
100
AcDbEntity
  8
________1________1
370
              18
390
0
  6
Continuous
 62
               7
100
AcDbCircle
 10
34.597148783518264
 20
-14.741162870039695
 30
0.0
 40
0.5000000000000568
100
AcDbArc
 50
0.0
 51
44.999999999995396
  0
LINE
  5
59
100
AcDbEntity
  8
________1________1
370
              18
390
0
  6
Continuous
 62
               7
100
AcDbLine
 10
34.597148783518264
 20
-14.241162870039695
 30
0.0
 11
33.997148783518298
 21
-14.241162870039695
 31
0.0
  0
LINE
  5
5A
100
AcDbEntity
  8
________1________1
370
              18
390
0
  6
Continuous
 62
               7
100
AcDbLine
 10
33.197148783518287
 20
-25.741162870039716
 30
0.0
 11
33.997148783518298
 21
-25.741162870039716
 31
0.0
  0
LINE
  5
5B
100
AcDbEntity
  8
________1________1
370
              18
390
0
  6
Continuous
 62
               7
100
AcDbLine
 10
34.097150001666478
 20
-25.741162870041137
 30
0.0
 11
34.026438536080775
 21
-25.741162870041137
 31
0.0
  0
ARC
  5
5C
100
AcDbEntity
  8
________1________1
370
              18
390
0
  6
Continuous
 62
               7
100
AcDbCircle
 10
33.097148783518264
 20
-14.141162870039686
 30
0.0
 40
0.9000000000000341
100
AcDbArc
 50
0.0
 51
0.0023410952883877
  0
LINE
  5
5D
100
AcDbEntity
  8
________1________1
370
              18
390
0
  6
Continuous
 62
               7
100
AcDbLine
 10
26.997148783518298
 20
-19.441162870039715
 30
0.0
 11
26.397148783518276
 21
-19.441162870039715
 31
0.0
  0
LINE
  5
5E
100
AcDbEntity
  8
________1________1
370
              18
390
0
  6
Continuous
 62
               7
100
AcDbLine
 10
33.197148783518287
 20
-17.467412822977192
 30
0.0
 11
33.197148783518287
 21
-19.646249674159147
 31
0.0
  0
LINE
  5
5F
100
AcDbEntity
  8
________1________1
370
              18
390
0
  6
Continuous
 62
               7
100
AcDbLine
 10
33.197148783516297
 20
-17.467412822977689
 30
0.0
 11
33.197148783516297
 21
-17.123236046166788
 31
0.0
  0
LINE
  5
60
100
AcDbEntity
  8
________1________1
370
              18
390
0
  6
Continuous
 62
               7
100
AcDbLine
 10
33.197148783518287
 20
-16.240876483784994
 30
0.0
 11
33.197148783518287
 21
-16.968098857455793
 31
0.0
  0
LINE
  5
61
100
AcDbEntity
  8
________1________1
370
              18
390
0
  6
Continuous
 62
               7
100
AcDbLine
 10
34.597148783518264
 20
-19.441162870039715
 30
0.0
 11
33.997148783518298
 21
-19.441162870039715
 31
0.0
  0
ARC
  5
62
100
AcDbEntity
  8
________1________1
370
              18
390
0
  6
Continuous
 62
               7
100
AcDbCircle
 10
34.997148783518355
 20
-25.24116287003973
 30
0.0
 40
0.4999999999817558
100
AcDbArc
 50
-44.999999998470834
 51
0.0
  0
LINE
  5
63
100
AcDbEntity
  8
________1________1
370
              18
390
0
  6
Continuous
 62
               7
100
AcDbLine
 10
35.497148783518298
 20
-25.24116287003973
 30
0.0
 11
35.497148783518298
 21
-21.141162870039718
 31
0.0
  0
ARC
  5
64
100
AcDbEntity
  8
________1________1
370
              18
390
0
  6
Continuous
 62
               7
100
AcDbCircle
 10
34.997148783518355
 20
-21.141162870039718
 30
0.0
 40
0.5000000000182523
100
AcDbArc
 50
44.999999998470834
 51
90.0
  0
LINE
  5
65
100
AcDbEntity
  8
________1________1
370
              18
390
0
  6
Continuous
 62
               7
100
AcDbLine
 10
32.247148783518298
 20
-16.240876483784994
 30
0.0
 11
28.747148783518298
 21
-16.240876483784994
 31
0.0
  0
LINE
  5
66
100
AcDbEntity
  8
________1________1
370
              18
390
0
  6
Continuous
 62
               7
100
AcDbLine
 10
34.997148783518355
 20
-25.74116287003973
 30
0.0
 11
34.097150001664204
 21
-25.74116287003973
 31
0.0
  0
ARC
  5
67
100
AcDbEntity
  8
________1________1
370
              18
390
0
  6
Continuous
 62
               7
100
AcDbCircle
 10
34.997148783518355
 20
-25.24116287003973
 30
0.0
 40
0.4999999999999716
100
AcDbArc
 50
-90.000000002644597
 51
-44.999999999998849
  0
LINE
  5
68
100
AcDbEntity
  8
________1________1
370
              18
390
0
  6
Continuous
 62
               7
100
AcDbLine
 10
27.797148783517514
 20
-17.123232598785684
 30
0.0
 11
27.797148783517514
 21
-17.467409375602298
 31
0.0
  0
LINE
  5
69
100
AcDbEntity
  8
________1________1
370
              18
390
0
  6
Continuous
 62
               7
100
AcDbLine
 10
26.997148783517673
 20
-17.467408864875988
 30
0.0
 11
26.997148783517673
 21
-17.123232088065087
 31
0.0
  0
LINE
  5
6A
100
AcDbEntity
  8
________1________1
370
              18
390
0
  6
Continuous
 62
               7
100
AcDbLine
 10
33.197148783516297
 20
-17.12323604616109
 30
0.0
 11
33.197148783516297
 21
-16.968098857435585
 31
0.0
  0
LINE
  5
6B
100
AcDbEntity
  8
________1________1
370
              18
390
0
  6
Continuous
 62
               7
100
AcDbLine
 10
26.997148783517673
 20
-25.741162870041137
 30
0.0
 11
26.967859030958607
 21
-25.741162870041137
 31
0.0
  0
LINE
  5
6C
100
AcDbEntity
  8
________1________1
370
              18
390
0
  6
Continuous
 62
               7
100
AcDbLine
 10
26.897147565372507
 20
-25.74116287003973
 30
0.0
 11
25.997148783518298
 21
-25.74116287003973
 31
0.0
  0
LINE
  5
6D
100
AcDbEntity
  8
________1________1
370
              18
390
0
  6
Continuous
 62
               7
100
AcDbLine
 10
34.097150001666478
 20
-20.64116287003942
 30
0.0
 11
34.026438536080775
 21
-20.64116287003942
 31
0.0
  0
LINE
  5
6E
100
AcDbEntity
  8
________1________1
370
              18
390
0
  6
Continuous
 62
               7
100
AcDbLine
 10
26.897147565372507
 20
-20.641162870039718
 30
0.0
 11
25.997148783518298
 21
-20.641162870039718
 31
0.0
  0
LINE
  5
6F
100
AcDbEntity
  8
________1________1
370
              18
390
0
  6
Continuous
 62
               7
100
AcDbLine
 10
26.997148783517673
 20
-20.64116287003942
 30
0.0
 11
26.967859030958607
 21
-20.64116287003942
 31
0.0
  0
LINE
  5
70
100
AcDbEntity
  8
________1________1
370
              18
390
0
  6
Continuous
 62
               7
100
AcDbLine
 10
33.197148783516297
 20
-20.760421363331186
 30
0.0
 11
33.197148783516297
 21
-20.213572152997283
 31
0.0
  0
LINE
  5
71
100
AcDbEntity
  8
________1________1
370
              18
390
0
  6
Continuous
 62
               7
100
AcDbLine
 10
27.509711916440892
 20
-16.240876483783786
 30
0.0
 11
26.997148783517673
 21
-16.240876483783786
 31
0.0
  0
LINE
  5
72
100
AcDbEntity
  8
________1________1
370
              18
390
0
  6
Continuous
 62
               7
100
AcDbLine
 10
33.997148783518298
 20
-17.467413333699792
 30
0.0
 11
33.997148783518298
 21
-19.646298399740129
 31
0.0
  0
LINE
  5
73
100
AcDbEntity
  8
________1________1
370
              18
390
0
  6
Continuous
 62
               7
100
AcDbLine
 10
33.997148783516081
 20
-19.646298399741976
 30
0.0
 11
33.997148783516081
 21
-20.213620878576034
 31
0.0
  0
LINE
  5
74
100
AcDbEntity
  8
________1________1
370
              18
390
0
  6
Continuous
 62
               7
100
AcDbLine
 10
33.997148783518298
 20
-24.798251118094328
 30
0.0
 11
33.997148783518298
 21
-20.76047008898345
 31
0.0
  0
LINE
  5
75
100
AcDbEntity
  8
________1________1
370
              18
390
0
  6
Continuous
 62
               7
100
AcDbLine
 10
33.997148783516081
 20
-25.483264390075163
 30
0.0
 11
33.997148783516081
 21
-25.741162870087351
 31
0.0
  0
LINE
  5
76
100
AcDbEntity
  8
________1________1
370
              18
390
0
  6
Continuous
 62
               7
100
AcDbLine
 10
26.997148783517673
 20
-25.483264390075163
 30
0.0
 11
26.997148783517673
 21
-24.798251118079378
 31
0.0
  0
LINE
  5
77
100
AcDbEntity
  8
________1________1
370
              18
390
0
  6
Continuous
 62
               7
100
AcDbLine
 10
26.997148783518298
 20
-24.798251118094328
 30
0.0
 11
26.997148783518298
 21
-20.760256911530899
 31
0.0
  0
LINE
  5
78
100
AcDbEntity
  8
________1________1
370
              18
390
0
  6
Continuous
 62
               7
100
AcDbLine
 10
26.997148783517673
 20
-20.760256911540193
 30
0.0
 11
26.997148783517673
 21
-20.213407703233425
 31
0.0
  0
LINE
  5
79
100
AcDbEntity
  8
________1________1
370
              18
390
0
  6
Continuous
 62
               7
100
AcDbLine
 10
33.484585650592749
 20
-16.240876483783786
 30
0.0
 11
33.997148783516081
 21
-16.240876483783786
 31
0.0
  0
LINE
  5
7A
100
AcDbEntity
  8
________1________1
370
              18
390
0
  6
Continuous
 62
               7
100
AcDbLine
 10
26.997148783517673
 20
-17.123232088065087
 30
0.0
 11
26.997148783517673
 21
-16.968094899339683
 31
0.0
  0
LINE
  5
7B
100
AcDbEntity
  8
________1________1
370
              18
390
0
  6
Continuous
 62
               7
100
AcDbLine
 10
26.997148783518298
 20
-16.968094899355684
 30
0.0
 11
26.997148783518298
 21
-16.240876483784994
 31
0.0
  0
LINE
  5
7C
100
AcDbEntity
  8
________1________1
370
              18
390
0
  6
Continuous
 62
               7
100
AcDbLine
 10
26.997148783517673
 20
-13.241162870041087
 30
0.0
 11
27.509711916440892
 21
-13.241162870041087
 31
0.0
  0
LINE
  5
7D
100
AcDbEntity
  8
________1________1
370
              18
390
0
  6
Continuous
 62
               7
100
AcDbLine
 10
26.997148783518298
 20
-13.241162870039695
 30
0.0
 11
26.997148783518298
 21
-16.240876483784994
 31
0.0
  0
LINE
  5
7E
100
AcDbEntity
  8
________1________1
370
              18
390
0
  6
Continuous
 62
               7
100
AcDbLine
 10
32.247148783520799
 20
-16.240876483783786
 30
0.0
 11
33.484585650592749
 21
-16.240876483783786
 31
0.0
  0
LINE
  5
7F
100
AcDbEntity
  8
________1________1
370
              18
390
0
  6
Continuous
 62
               7
100
AcDbLine
 10
33.484585650592749
 20
-13.241162870041087
 30
0.0
 11
32.247148783520799
 21
-13.241162870041087
 31
0.0
  0
LINE
  5
80
100
AcDbEntity
  8
________1________1
370
              18
390
0
  6
Continuous
 62
               7
100
AcDbLine
 10
26.967859030958607
 20
-25.741162870041137
 30
0.0
 11
26.897147565372961
 21
-25.741162870041137
 31
0.0
  0
LINE
  5
81
100
AcDbEntity
  8
________1________1
370
              18
390
0
  6
Continuous
 62
               7
100
AcDbLine
 10
26.967859030958607
 20
-20.64116287003942
 30
0.0
 11
26.897147565372961
 21
-20.64116287003942
 31
0.0
  0
LINE
  5
82
100
AcDbEntity
  8
________1________1
370
              18
390
0
  6
Continuous
 62
               7
100
AcDbLine
 10
34.026438536080775
 20
-25.741162870041137
 30
0.0
 11
33.997148783516081
 21
-25.741162870041137
 31
0.0
  0
LINE
  5
83
100
AcDbEntity
  8
________1________1
370
              18
390
0
  6
Continuous
 62
               7
100
AcDbLine
 10
34.026438536080775
 20
-20.64116287003942
 30
0.0
 11
33.997148783516081
 21
-20.64116287003942
 31
0.0
  0
LINE
  5
84
100
AcDbEntity
  8
________1________1
370
              18
390
0
  6
Continuous
 62
               7
100
AcDbLine
 10
25.897148783518389
 20
-14.741162870039695
 30
0.0
 11
25.897148783518389
 21
-18.941162870039715
 31
0.0
  0
LINE
  5
85
100
AcDbEntity
  8
________1________1
370
              18
390
0
  6
Continuous
 62
               7
100
AcDbLine
 10
26.997148783518298
 20
-14.241162870039695
 30
0.0
 11
26.397148783518276
 21
-14.241162870039695
 31
0.0
  0
ARC
  5
86
100
AcDbEntity
  8
________1________1
370
              18
390
0
  6
Continuous
 62
               7
100
AcDbCircle
 10
26.397148783518276
 20
-14.741162870039695
 30
0.0
 40
0.499999999999994
100
AcDbArc
 50
135.00000000000114
 51
180.0
  0
ARC
  5
87
100
AcDbEntity
  8
________1________1
370
              18
390
0
  6
Continuous
 62
               7
100
AcDbCircle
 10
25.997148783518298
 20
-25.24116287003973
 30
0.0
 40
0.4999999999999432
100
AcDbArc
 50
180.0
 51
-135.00000000000114
  0
LINE
  5
88
100
AcDbEntity
  8
________1________1
370
              18
390
0
  6
Continuous
 62
               7
100
AcDbLine
 10
25.497148783518355
 20
-21.141162870039718
 30
0.0
 11
25.497148783518355
 21
-25.24116287003973
 31
0.0
  0
MTEXT
  5
89
100
AcDbEntity
  8
___G
370
               5
390
0
  6
DOT
 62
               7
100
AcDbMText
 10
61.761221720682045
 20
-81.475287207332116
 30
0.0
 40
2.75
 41
22.0
 71
               1
 72
               1
  1
＊＊＊
  7
Style1
 73
               1
 44
1.0
  0
MTEXT
  5
8A
100
AcDbEntity
  8
___G
370
               5
390
0
  6
DOT
 62
               7
100
AcDbMText
 10
61.761221720682045
 20
-85.725287207332116
 30
0.0
 40
2.75
 41
22.0
 71
               1
 72
               1
  1
＊＊＊
  7
Style1
 73
               1
 44
1.0
  0
MTEXT
  5
8B
100
AcDbEntity
  8
___G
370
              18
390
0
  6
Continuous
 62
               7
100
AcDbMText
 10
43.761221720682045
 20
-56.619753799975285
 30
0.0
 40
3.7999999523162842
 41
38.0
 71
               1
 72
               1
  1
SUS304
  7
Style1
 73
               1
 44
1.0
  0
MTEXT
  5
8C
100
AcDbEntity
  8
___G
370
              18
390
0
  6
Continuous
 62
               7
100
AcDbMText
 10
23.761221720682016
 20
-77.225287207332116
 30
0.0
 40
2.75
 41
20.000000000000028
 71
               1
 72
               1
  1
H28.1
  7
Style1
 73
               1
 44
1.0
  0
MTEXT
  5
8D
100
AcDbEntity
  8
___G
370
               5
390
0
  6
DOT
 62
               7
100
AcDbMText
 10
31.761221720682045
 20
-81.475287207332144
 30
0.0
 40
2.75
 41
22.0
 71
               1
 72
               1
  1
園原
  7
Style1
 73
               1
 44
1.0
  0
MTEXT
  5
8E
100
AcDbEntity
  8
___G
370
              18
390
0
  6
Continuous
 62
               7
100
AcDbMText
 10
43.761221720682045
 20
-77.225287207332116
 30
0.0
 40
2.75
 41
20.0
 71
               1
 72
               1
  1
1：1
  7
Style1
 73
               1
 44
1.0
  0
MTEXT
  5
8F
100
AcDbEntity
  8
___G
370
               5
390
0
  6
DOT
 62
               7
100
AcDbMText
 10
31.761221720682045
 20
-85.725287207332144
 30
0.0
 40
2.75
 41
22.000000000000028
 71
               1
 72
               1
  1
園原
  7
Style1
 73
               1
 44
1.0
  0
LINE
  5
90
100
AcDbEntity
  8
________1________1
370
              18
390
0
  6
Continuous
 62
               7
100
AcDbLine
 10
27.797148783517514
 20
-25.483264390075163
 30
0.0
 11
27.797148783517514
 21
-25.741162870087351
 31
0.0
  0
LINE
  5
91
100
AcDbEntity
  8
________1________1
370
              18
390
0
  6
Continuous
 62
               7
100
AcDbLine
 10
34.997148783518355
 20
-20.641162870039718
 30
0.0
 11
34.097150001664204
 21
-20.641162870039718
 31
0.0
  0
LINE
  5
92
100
AcDbEntity
  8
________1________1
370
              18
390
0
  6
Continuous
 62
               7
100
AcDbLine
 10
26.997148783517673
 20
-25.741162870075797
 30
0.0
 11
26.997148783517673
 21
-25.48326439006361
 31
0.0
  0
LINE
  5
93
100
AcDbEntity
  8
________1________1
370
              18
390
0
  6
Continuous
 62
               7
100
AcDbLine
 10
26.997148783518298
 20
-25.741162870039716
 30
0.0
 11
27.79714878351831
 21
-25.741162870039716
 31
0.0
  0
LINE
  5
94
100
AcDbEntity
  8
________1________1
370
              18
390
0
  6
Continuous
 62
               7
100
AcDbLine
 10
33.197148783516297
 20
-25.483264390075163
 30
0.0
 11
33.197148783516297
 21
-24.798251118079378
 31
0.0
  0
LINE
  5
95
100
AcDbEntity
  8
________1________1
370
              18
390
0
  6
Continuous
 62
               7
100
AcDbLine
 10
33.997148783516081
 20
-24.798251118073608
 30
0.0
 11
33.997148783516081
 21
-25.48326439006361
 31
0.0
  0
ARC
  5
96
100
AcDbEntity
  8
________1________1
370
              18
390
0
  6
Continuous
 62
               7
100
AcDbCircle
 10
34.597148783518264
 20
-14.741162870039695
 30
0.0
 40
0.5000000000000442
100
AcDbArc
 50
44.999999999995396
 51
90.0
  0
ARC
  5
97
100
AcDbEntity
  8
________1________1
370
              18
390
0
  6
Continuous
 62
               7
100
AcDbCircle
 10
26.397148783518276
 20
-14.741162870039695
 30
0.0
 40
0.4999999999999858
100
AcDbArc
 50
89.999999999993491
 51
135.0
  0
ARC
  5
98
100
AcDbEntity
  8
________1________1
370
              18
390
0
  6
Continuous
 62
               7
100
AcDbCircle
 10
25.997148783518298
 20
-21.141162870039718
 30
0.0
 40
0.4999999999817558
100
AcDbArc
 50
135.00000000265302
 51
180.0
  0
ARC
  5
99
100
AcDbEntity
  8
________1________1
370
              18
390
0
  6
Continuous
 62
               7
100
AcDbCircle
 10
25.997148783518298
 20
-25.24116287003973
 30
0.0
 40
0.5000000000182121
100
AcDbArc
 50
-135.00000000264842
 51
-90.0
  0
ARC
  5
9A
100
AcDbEntity
  8
________1________1
370
              18
390
0
  6
Continuous
 62
               7
100
AcDbCircle
 10
26.397148783518276
 20
-18.941162870039715
 30
0.0
 40
0.500000000000004
100
AcDbArc
 50
-135.0
 51
-90.0
  0
ARC
  5
9B
100
AcDbEntity
  8
________1________1
370
              18
390
0
  6
Continuous
 62
               7
100
AcDbCircle
 10
34.597148783518264
 20
-18.941162870039715
 30
0.0
 40
0.5000000000000284
100
AcDbArc
 50
-90.0
 51
-44.999999999995396
  0
ARC
  5
9C
100
AcDbEntity
  8
________1________1
370
              18
390
0
  6
Continuous
 62
               7
100
AcDbCircle
 10
34.997148783518355
 20
-21.141162870039718
 30
0.0
 40
0.5
100
AcDbArc
 50
0.0
 51
45.0
  0
LINE
  5
9D
100
AcDbEntity
  8
________1________1
370
              18
390
0
  6
Continuous
 62
               7
100
AcDbLine
 10
33.997148783516081
 20
-16.968099368161894
 30
0.0
 11
33.997148783516081
 21
-17.123236556887385
 31
0.0
  0
LINE
  5
9E
100
AcDbEntity
  8
________1________1
370
              18
390
0
  6
Continuous
 62
               7
100
AcDbLine
 10
26.997148783517673
 20
-20.213407703233425
 30
0.0
 11
26.997148783517673
 21
-19.646085226582425
 31
0.0
  0
LINE
  5
9F
100
AcDbEntity
  8
________1________1
370
              18
390
0
  6
Continuous
 62
               7
100
AcDbLine
 10
27.797148783517514
 20
-19.646085226801883
 30
0.0
 11
27.797148783517514
 21
-20.213407703452884
 31
0.0
  0
LINE
  5
A0
100
AcDbEntity
  8
________1________1
370
              18
390
0
  6
Continuous
 62
               7
100
AcDbLine
 10
26.997148783518298
 20
-19.646085226579981
 30
0.0
 11
26.997148783518298
 21
-17.467408864877097
 31
0.0
  0
LINE
  5
A1
100
AcDbEntity
  8
________1________1
370
              18
390
0
  6
Continuous
 62
               7
100
AcDbLine
 10
33.997148783516081
 20
-20.21362087861645
 30
0.0
 11
33.997148783516081
 21
-20.760470088990783
 31
0.0
  0
LINE
  5
A2
100
AcDbEntity
  8
________1________1
370
              18
390
0
  6
Continuous
 62
               7
100
AcDbLine
 10
-48.467167256725645
 20
27.852575741486689
 30
0.0
 11
-50.067167256725668
 21
27.852575741486689
 31
0.0
  0
LINE
  5
A3
100
AcDbEntity
  8
________1________1
370
              18
390
0
  6
Continuous
 62
               7
100
AcDbLine
 10
-49.979667256725691
 20
34.052575741486706
 30
0.0
 11
-48.467167256725645
 21
34.052575741486706
 31
0.0
  0
LINE
  5
A4
100
AcDbEntity
  8
________1________1
370
              18
390
0
  6
Continuous
 62
               7
100
AcDbLine
 10
-48.467167256725645
 20
29.300657769376201
 30
0.0
 11
-48.467167256725645
 21
28.752575741486694
 31
0.0
  0
ARC
  5
A5
100
AcDbEntity
  8
________1________1
370
              18
390
0
  6
Continuous
 62
               7
100
AcDbCircle
 10
-47.667165318905973
 20
34.952575741486669
 30
0.0
 40
0.9000000000005861
100
AcDbArc
 50
179.99930205375205
 51
-173.62058213760326
  0
ARC
  5
A6
100
AcDbEntity
  8
________1________1
370
               5
390
0
  6
DASHED
 62
               7
100
AcDbCircle
 10
-47.667165318905973
 20
34.952575741486669
 30
0.0
 40
0.1000000000000525
100
AcDbArc
 50
179.99930205375568
 51
-135.00034897311153
  0
ARC
  5
A7
100
AcDbEntity
  8
________1________1
370
               5
390
0
  6
DASHED
 62
               7
100
AcDbCircle
 10
-47.667165318905973
 20
27.752575741486694
 30
0.0
 40
0.1000000000000512
100
AcDbArc
 50
89.999999999967429
 51
135.00034897311153
  0
ARC
  5
A8
100
AcDbEntity
  8
________1________1
370
              18
390
0
  6
Continuous
 62
               7
100
AcDbCircle
 10
-47.667157139936876
 20
34.952575741486669
 30
0.0
 40
0.9000000000005785
100
AcDbArc
 50
-152.74246133904305
 51
-152.73891430624801
  0
ARC
  5
A9
100
AcDbEntity
  8
____1
370
              18
390
0
  6
Continuous
 62
               7
100
AcDbCircle
 10
-33.167167256725634
 20
33.152575741486686
 30
0.0
 40
1.0000000000000062
100
AcDbArc
 50
-84.82798347167018
 51
0.0
  0
ARC
  5
AA
100
AcDbEntity
  8
____1
370
              18
390
0
  6
Continuous
 62
               7
100
AcDbCircle
 10
-36.597691615030257
 20
30.680503889931103
 30
0.0
 40
0.2000000000000031
210
-0.0
220
-0.0
230
1.0
100
AcDbArc
 50
20.160568140339493
 51
93.047666499180096
  0
LINE
  5
AB
100
AcDbEntity
  8
________1________1
370
              18
390
0
  6
Continuous
 62
               7
100
AcDbLine
 10
-36.608324962079877
 20
30.880221019718519
 30
0.0
 11
-47.520333991973743
 21
30.299243418313267
 31
0.0
  0
ARC
  5
AC
100
AcDbEntity
  8
____1
370
              18
390
0
  6
Continuous
 62
               7
100
AcDbCircle
 10
-36.598279058753825
 20
32.023045404091128
 30
0.0
 40
0.2000000000000027
100
AcDbArc
 50
-93.04766649917805
 51
-20.110427353540054
  0
ARC
  5
AD
100
AcDbEntity
  8
____1
370
              18
390
0
  6
Continuous
 62
               7
100
AcDbCircle
 10
-33.095050316113074
 20
30.3493185775867
 30
0.0
 40
0.2000000000000017
210
-0.0
220
-0.0
230
1.0
100
AcDbArc
 50
84.827983471670152
 51
149.03657101787658
  0
ARC
  5
AE
100
AcDbEntity
  8
____1
370
              18
390
0
  6
Continuous
 62
               7
100
AcDbCircle
 10
-33.167167256725634
 20
29.552575741486692
 30
0.0
 40
1.0000000000000004
210
-0.0
220
-0.0
230
1.0
100
AcDbArc
 50
0.0
 51
84.827983471669341
  0
ARC
  5
AF
100
AcDbEntity
  8
____1
370
              18
390
0
  6
Continuous
 62
               7
100
AcDbCircle
 10
-34.7671672567256
 20
31.352575741486675
 30
0.0
 40
1.7499999999999951
100
AcDbArc
 50
-159.83943185966135
 51
-30.963428982123066
  0
ARC
  5
B0
100
AcDbEntity
  8
____1
370
              18
390
0
  6
Continuous
 62
               7
100
AcDbCircle
 10
-33.095050316113088
 20
32.355832905386677
 30
0.0
 40
0.2000000000000069
210
-0.0
220
0.0
230
1.0
100
AcDbArc
 50
-149.03657101787658
 51
-84.827983471670336
  0
ARC
  5
B1
100
AcDbEntity
  8
____1
370
              18
390
0
  6
Continuous
 62
               7
100
AcDbCircle
 10
-34.7671672567256
 20
31.352575741486675
 30
0.0
 40
1.7499999999999978
100
AcDbArc
 50
30.96342898212411
 51
159.88957264645893
  0
LINE
  5
B2
100
AcDbEntity
  8
________1________1
370
              18
390
0
  6
Continuous
 62
               7
100
AcDbLine
 10
-32.167167256725634
 20
33.952575741486683
 30
0.0
 11
-32.167167256725634
 21
33.152575741486686
 31
0.0
  0
SPLINE
  5
B3
100
AcDbEntity
  8
________1________1
370
              18
390
0
  6
Continuous
 62
               7
100
AcDbSpline
210
0.0
220
0.0
230
1.0
 70
               0
 71
               3
 72
              15
 73
              11
 74
               0
 42
0.0000001
 43
0.0000001
 12
0.0000121814593113
 22
-0.999999999925806
 32
0.0
 13
0.0000105777380146
 23
-0.9999999999440558
 33
0.0
 40
0.0
 40
0.0
 40
0.0
 40
0.0
 40
0.1386171692007748
 40
0.2758993792861365
 40
0.4105245275267384
 40
0.5411961001513111
 40
0.6666556584828534
 40
0.7856949583914199
 40
0.8971675863453381
 40
1.0
 40
1.0
 40
1.0
 40
1.0
 10
-47.767146176631854
 20
26.852575741496494
 30
0.0
 10
-47.76714597763322
 20
26.836239551440983
 30
0.0
 10
-47.767145584101854
 20
26.803724497770602
 30
0.0
 10
-47.767145006206363
 20
26.755343718226598
 30
0.0
 10
-47.767144447226599
 20
26.707899336219086
 30
0.0
 10
-47.767143912539893
 20
26.661848267082704
 30
0.0
 10
-47.76714340728654
 20
26.617634007787203
 30
0.0
 10
-47.767142936317896
 20
26.575682365819787
 30
0.0
 10
-47.767142504151536
 20
26.536397358425702
 30
0.0
 10
-47.767142232885931
 20
26.511141267064104
 30
0.0
 10
-47.76714210469521
 20
26.499022350893384
 30
0.0
  0
SPLINE
  5
B4
100
AcDbEntity
  8
________1________1
370
              18
390
0
  6
Continuous
 62
               7
100
AcDbSpline
210
0.0
220
0.0
230
1.0
 70
               0
 71
               3
 72
              15
 73
              11
 74
               0
 42
0.0000001
 43
0.0000001
 12
0.0000105777413931
 22
-0.9999999999440558
 32
0.0
 13
-0.9999999985467758
 23
0.0000539114881894
 33
0.0
 40
0.0
 40
0.0
 40
0.0
 40
0.0
 40
0.2250092113804243
 40
0.424601264696907
 40
0.5968539793672609
 40
0.7401084675863158
 40
0.8529851103213275
 40
0.9343968437982765
 40
0.9835596285203579
 40
1.0
 40
1.0
 40
1.0
 40
1.0
 10
-47.76714210469521
 20
26.499022350896908
 30
0.0
 10
-47.767141988509877
 20
26.488038405534084
 30
0.0
 10
-47.767147266770905
 20
26.467316762062197
 30
0.0
 10
-47.767125548546232
 20
26.438159587094603
 30
0.0
 10
-47.767188132918989
 20
26.413077571873387
 30
0.0
 10
-47.767010473779465
 20
26.391988292084008
 30
0.0
 10
-47.767473636224452
 20
26.375974297853091
 30
0.0
 10
-47.766412235381438
 20
26.363028658225986
 30
0.0
 10
-47.768288790661984
 20
26.35772882524499
 30
0.0
 10
-47.76633834221002
 20
26.352575698238482
 30
0.0
 10
-47.767140887762309
 20
26.352575741504907
 30
0.0
  0
SPLINE
  5
B5
100
AcDbEntity
  8
________1________1
370
              18
390
0
  6
Continuous
 62
               7
100
AcDbSpline
210
0.0
220
0.0
230
1.0
 70
               0
 71
               3
 72
              15
 73
              11
 74
               0
 42
0.0000001
 43
0.0000001
 12
0.000010577736153
 22
0.9999999999440558
 32
0.0
 13
-0.9999999985448621
 23
-0.0000539469734527
 33
0.0
 40
0.0
 40
0.0
 40
0.0
 40
0.0
 40
0.2250092113805746
 40
0.4246012646970186
 40
0.5968539793671451
 40
0.7401084675861722
 40
0.852985110321356
 40
0.9343968437980952
 40
0.9835596285201671
 40
1.0
 40
1.0
 40
1.0
 40
1.0
 10
-48.567142104755533
 20
36.206129132076484
 30
0.0
 10
-48.567141988570256
 20
36.217113077439279
 30
0.0
 10
-48.567147266831341
 20
36.237834720910968
 30
0.0
 10
-48.567125548606555
 20
36.266991895879386
 30
0.0
 10
-48.567188132979425
 20
36.292073911098385
 30
0.0
 10
-48.567010473839844
 20
36.313163190893988
 30
0.0
 10
-48.567473636284774
 20
36.329177185108591
 30
0.0
 10
-48.56641223544176
 20
36.342122824773071
 30
0.0
 10
-48.568288790722363
 20
36.347422657687673
 30
0.0
 10
-48.566338342270399
 20
36.352575784763388
 30
0.0
 10
-48.567140887822688
 20
36.352575741468485
 30
0.0
  0
SPLINE
  5
B6
100
AcDbEntity
  8
________1________1
370
              18
390
0
  6
Continuous
 62
               7
100
AcDbSpline
210
0.0
220
0.0
230
1.0
 70
               0
 71
               3
 72
              15
 73
              11
 74
               0
 42
0.0000001
 43
0.0000001
 12
0.999999984880799
 22
-0.000173891925317
 32
0.0
 13
-0.0000105777413931
 23
-0.9999999999440558
 33
0.0
 40
0.0
 40
0.0
 40
0.0
 40
0.0
 40
0.0164403715866125
 40
0.0656031563841005
 40
0.1470148899048968
 40
0.259891532652593
 40
0.4031460208533724
 40
0.5753987354764469
 40
0.7749907887184087
 40
1.0
 40
1.0
 40
1.0
 40
1.0
 10
-47.767140887762309
 20
36.352575741473373
 30
0.0
 10
-47.766338342215761
 20
36.352575601917181
 30
0.0
 10
-47.768288790647887
 20
36.347422919241069
 30
0.0
 10
-47.766412235391783
 20
36.34212265873677
 30
0.0
 10
-47.767473636219393
 20
36.329177260890788
 30
0.0
 10
-47.767010473781454
 20
36.313163161112072
 30
0.0
 10
-47.767188132918193
 20
36.292073921756668
 30
0.0
 10
-47.767125548546517
 20
36.266991892229271
 30
0.0
 10
-47.767147266770849
 20
36.23783472215348
 30
0.0
 10
-47.767141988509877
 20
36.217113077437972
 30
0.0
 10
-47.76714210469521
 20
36.20612913207998
 30
0.0
  0
SPLINE
  5
B7
100
AcDbEntity
  8
________1________1
370
              18
390
0
  6
Continuous
 62
               7
100
AcDbSpline
210
0.0
220
0.0
230
1.0
 70
               0
 71
               3
 72
              15
 73
              11
 74
               0
 42
0.0000001
 43
0.0000001
 12
0.0000121814593113
 22
0.999999999925806
 32
0.0
 13
0.0000105777427174
 23
0.9999999999440558
 33
0.0
 40
0.0
 40
0.0
 40
0.0
 40
0.0
 40
0.1386171692007637
 40
0.2758993792861143
 40
0.4105245275267054
 40
0.5411961001512677
 40
0.6666556584827998
 40
0.7856949583913568
 40
0.8971675863452662
 40
1.0
 40
1.0
 40
1.0
 40
1.0
 10
-48.567146176692233
 20
35.852575741476869
 30
0.0
 10
-48.567145977693599
 20
35.868911931532381
 30
0.0
 10
-48.567145584162233
 20
35.901426985202875
 30
0.0
 10
-48.567145006266799
 20
35.949807764746794
 30
0.0
 10
-48.567144447286978
 20
35.997252146754192
 30
0.0
 10
-48.567143912600329
 20
36.043303215890774
 30
0.0
 10
-48.567143407346919
 20
36.087517475186189
 30
0.0
 10
-48.567142936378275
 20
36.12946911715369
 30
0.0
 10
-48.567142504211972
 20
36.168754124547775
 30
0.0
 10
-48.56714223294631
 20
36.194010215909373
 30
0.0
 10
-48.567142104755533
 20
36.20612913207998
 30
0.0
  0
SPLINE
  5
B8
100
AcDbEntity
  8
________1________1
370
              18
390
0
  6
Continuous
 62
               7
100
AcDbSpline
210
0.0
220
0.0
230
1.0
 70
               0
 71
               3
 72
              15
 73
              11
 74
               0
 42
0.0000001
 43
0.0000001
 12
0.9999999848746463
 22
0.000173927304395
 32
0.0
 13
-0.000010577736153
 23
0.9999999999440559
 33
0.0
 40
0.0
 40
0.0
 40
0.0
 40
0.0
 40
0.0164403715866093
 40
0.0656031563842817
 40
0.1470148899050622
 40
0.2598915326525426
 40
0.4031460208532942
 40
0.5753987354763354
 40
0.7749907887182584
 40
1.0
 40
1.0
 40
1.0
 40
1.0
 10
-48.567140887822688
 20
26.352575741500104
 30
0.0
 10
-48.56633834227614
 20
26.35257588108469
 30
0.0
 10
-48.568288790708266
 20
26.357728563691708
 30
0.0
 10
-48.566412235452106
 20
26.3630288242624
 30
0.0
 10
-48.567473636279828
 20
26.375974222070781
 30
0.0
 10
-48.567010473841833
 20
26.391988321865981
 30
0.0
 10
-48.567188132978629
 20
26.413077561215189
 30
0.0
 10
-48.567125548606839
 20
26.438159590744604
 30
0.0
 10
-48.567147266831228
 20
26.467316760819799
 30
0.0
 10
-48.567141988570256
 20
26.488038405535391
 30
0.0
 10
-48.567142104755533
 20
26.499022350893384
 30
0.0
  0
MTEXT
  5
B9
100
AcDbEntity
  8
___G
370
              18
390
0
  6
Continuous
 62
               7
100
AcDbMText
 10
43.761221720682045
 20
-62.369753799975285
 30
0.0
 40
3.2999999523162842
 41
88.0
 71
               1
 72
               1
  1
研磨仕上げ
  7
Style1
 73
               1
 44
1.0
  0
MTEXT
  5
BA
100
AcDbEntity
  8
___G
370
              18
390
0
  6
Continuous
 62
               7
100
AcDbMText
 10
43.761221720682045
 20
-67.869753799975285
 30
0.0
 40
3.2999999523162842
 41
96.0
 71
               1
 72
               1
  1
指定無き公差はJIS 0408-Bによること
  7
Style1
 73
               1
 44
1.0
  0
LINE
  5
BB
100
AcDbEntity
  8
________1________1
370
              18
390
0
  6
Continuous
 62
               7
100
AcDbLine
 10
-50.067167256724019
 20
26.899022350891684
 30
0.0
 11
-50.067167256724019
 21
26.752575741489082
 31
0.0
  0
LINE
  5
BC
100
AcDbEntity
  8
________1________1
370
              18
390
0
  6
Continuous
 62
               7
100
AcDbLine
 10
-50.867167256723803
 20
26.752575741489082
 30
0.0
 11
-50.867167256723803
 21
26.899022350891684
 31
0.0
  0
ARC
  5
BD
100
AcDbEntity
  8
________1________1
370
              18
390
0
  6
Continuous
 62
               7
100
AcDbCircle
 10
-47.667157139936876
 20
34.952575741486669
 30
0.0
 40
0.1000000000000509
100
AcDbArc
 50
-135.00034897311153
 51
-90.026685435201102
  0
ARC
  5
BE
100
AcDbEntity
  8
________1________1
370
              18
390
0
  6
Continuous
 62
               7
100
AcDbCircle
 10
-29.517167256725656
 20
33.102575741486689
 30
0.0
 40
0.9499999999999956
100
AcDbArc
 50
44.999999999998792
 51
90.0
  0
ARC
  5
BF
100
AcDbEntity
  8
________1________1
370
              18
390
0
  6
Continuous
 62
               7
100
AcDbCircle
 10
-49.979667256725634
 20
34.940075741486567
 30
0.0
 40
0.8875000000000052
100
AcDbArc
 50
-135.0
 51
-90.0
  0
ARC
  5
C0
100
AcDbEntity
  8
________1________1
370
              18
390
0
  6
Continuous
 62
               7
100
AcDbCircle
 10
-49.979667256725634
 20
27.765075741486683
 30
0.0
 40
0.8875000000000052
100
AcDbArc
 50
135.0
 51
180.0
  0
ARC
  5
C1
100
AcDbEntity
  8
____1
370
              18
390
0
  6
Continuous
 62
               7
100
AcDbCircle
 10
-47.467167256725645
 20
33.402860247944673
 30
0.0
 40
1.0000000000000007
210
0.0
220
-0.0
230
1.0
100
AcDbArc
 50
180.0
 51
-93.047666499179329
  0
ARC
  5
C2
100
AcDbEntity
  8
________1________1
370
              18
390
0
  6
Continuous
 62
               7
100
AcDbCircle
 10
-29.517167256725941
 20
33.102575741486405
 30
0.0
 40
1.7500000000003255
100
AcDbArc
 50
45.000000000000988
 51
89.999999999992554
  0
LINE
  5
C3
100
AcDbEntity
  8
________1________1
370
              18
390
0
  6
Continuous
 62
               7
100
AcDbLine
 10
-48.467167256724395
 20
27.852575741486007
 30
0.0
 11
-48.467167256724395
 21
28.116179638418586
 31
0.0
  0
ARC
  5
C4
100
AcDbEntity
  8
____1
370
              18
390
0
  6
Continuous
 62
               7
100
AcDbCircle
 10
-47.467167256725645
 20
29.300657769376201
 30
0.0
 40
1.0
210
-0.0
220
-0.0
230
1.0
100
AcDbArc
 50
93.047666499180139
 51
180.0
  0
LINE
  5
C5
100
AcDbEntity
  8
________1________1
370
              18
390
0
  6
Continuous
 62
               7
100
AcDbLine
 10
-31.167167256725634
 20
27.852575741486689
 30
0.0
 11
-32.167167256725634
 21
27.852575741486689
 31
0.0
  0
LINE
  5
C6
100
AcDbEntity
  8
________1________1
370
              18
390
0
  6
Continuous
 62
               7
100
AcDbLine
 10
-48.467167256725645
 20
33.952575741486683
 30
0.0
 11
-48.467167256725645
 21
33.402860247944673
 31
0.0
  0
LINE
  5
C7
100
AcDbEntity
  8
________1________1
370
              18
390
0
  6
Continuous
 62
               7
100
AcDbLine
 10
-48.5671461766932
 20
26.852575741492004
 30
0.0
 11
-48.567142104756556
 21
26.499022350891792
 31
0.0
  0
LINE
  5
C8
100
AcDbEntity
  8
________1________1
370
              18
390
0
  6
Continuous
 62
               7
100
AcDbLine
 10
-48.567157139871256
 20
27.75256477817409
 30
0.0
 11
-48.567146176692233
 21
26.852575741486689
 31
0.0
  0
ARC
  5
C9
100
AcDbEntity
  8
________1________1
370
              18
390
0
  6
Continuous
 62
               7
100
AcDbCircle
 10
-49.979667256725634
 20
27.765075741486683
 30
0.0
 40
0.8875000000000171
100
AcDbArc
 50
90.0
 51
135.0
  0
LINE
  5
CA
100
AcDbEntity
  8
________1________1
370
              18
390
0
  6
Continuous
 62
               7
100
AcDbLine
 10
-50.867167256725622
 20
27.765075741486683
 30
0.0
 11
-50.867167256725622
 21
27.252575741486694
 31
0.0
  0
LINE
  5
CB
100
AcDbEntity
  8
________1________1
370
              18
390
0
  6
Continuous
 62
               7
100
AcDbLine
 10
-50.067167256724019
 20
35.952575741487067
 30
0.0
 11
-50.067167256724019
 21
35.806129132078667
 31
0.0
  0
ARC
  5
CC
100
AcDbEntity
  8
________1________1
370
              18
390
0
  6
Continuous
 62
               7
100
AcDbCircle
 10
-49.979667256725634
 20
34.940075741486567
 30
0.0
 40
0.8874999999999886
100
AcDbArc
 50
180.0
 51
-135.0
  0
LINE
  5
CD
100
AcDbEntity
  8
________1________1
370
              18
390
0
  6
Continuous
 62
               7
100
AcDbLine
 10
-50.067167256725668
 20
35.452575741486669
 30
0.0
 11
-50.067167256725668
 21
34.852575741486675
 31
0.0
  0
LINE
  5
CE
100
AcDbEntity
  8
________1________1
370
              18
390
0
  6
Continuous
 62
               7
100
AcDbLine
 10
-48.467167256725645
 20
28.6525757414867
 30
0.0
 11
-49.979667256725691
 21
28.6525757414867
 31
0.0
  0
LINE
  5
CF
100
AcDbEntity
  8
________1________1
370
              18
390
0
  6
Continuous
 62
               7
100
AcDbLine
 10
-50.067167256725668
 20
35.952575741486669
 30
0.0
 11
-50.867167256725622
 21
35.952575741486669
 31
0.0
  0
LINE
  5
D0
100
AcDbEntity
  8
________1________1
370
              18
390
0
  6
Continuous
 62
               7
100
AcDbLine
 10
-50.067167256724019
 20
35.806129132078667
 30
0.0
 11
-50.067167256724019
 21
35.452575741484281
 31
0.0
  0
LINE
  5
D1
100
AcDbEntity
  8
________1________1
370
              18
390
0
  6
Continuous
 62
               7
100
AcDbLine
 10
-50.867167256723803
 20
35.452575741484281
 30
0.0
 11
-50.867167256723803
 21
35.806129132078667
 31
0.0
  0
LINE
  5
D2
100
AcDbEntity
  8
________1________1
370
              18
390
0
  6
Continuous
 62
               7
100
AcDbLine
 10
-50.867167256723803
 20
26.899022350891684
 30
0.0
 11
-50.867167256723803
 21
27.252575741486183
 31
0.0
  0
LINE
  5
D3
100
AcDbEntity
  8
________1________1
370
              18
390
0
  6
Continuous
 62
               7
100
AcDbLine
 10
-50.067167256724019
 20
27.252575741486183
 30
0.0
 11
-50.067167256724019
 21
26.899022350891684
 31
0.0
  0
LINE
  5
D4
100
AcDbEntity
  8
________1________1
370
              18
390
0
  6
Continuous
 62
               7
100
AcDbLine
 10
-48.567140887822688
 20
26.352575741486689
 30
0.0
 11
-47.767140887762309
 21
26.352575741486689
 31
0.0
  0
LINE
  5
D5
100
AcDbEntity
  8
________1________1
370
              18
390
0
  6
Continuous
 62
               7
100
AcDbLine
 10
-47.767140887762309
 20
36.352575741486675
 30
0.0
 11
-48.567140887822688
 21
36.352575741486675
 31
0.0
  0
LINE
  5
D6
100
AcDbEntity
  8
________1________1
370
              18
390
0
  6
Continuous
 62
               7
100
AcDbLine
 10
-48.567146176692233
 20
35.852575741486675
 30
0.0
 11
-48.567157139871256
 21
34.952586704799273
 31
0.0
  0
LINE
  5
D7
100
AcDbEntity
  8
________1________1
370
              18
390
0
  6
Continuous
 62
               7
100
AcDbLine
 10
-31.067167256728339
 20
27.852575741486007
 30
0.0
 11
-31.096456578606535
 21
27.852575741486007
 31
0.0
  0
LINE
  5
D8
100
AcDbEntity
  8
________1________1
370
              18
390
0
  6
Continuous
 62
               7
100
AcDbLine
 10
-31.067167256725668
 20
28.6525757414867
 30
0.0
 11
-31.067167256725668
 21
27.852575741486689
 31
0.0
  0
LINE
  5
D9
100
AcDbEntity
  8
________1________1
370
              18
390
0
  6
Continuous
 62
               7
100
AcDbLine
 10
-31.096456578606535
 20
34.052575741484603
 30
0.0
 11
-31.167167256725463
 21
34.052575741484603
 31
0.0
  0
LINE
  5
DA
100
AcDbEntity
  8
________1________1
370
              18
390
0
  6
Continuous
 62
               7
100
AcDbLine
 10
-30.767167256725543
 20
27.852575741486007
 30
0.0
 11
-30.979299291082157
 21
27.852575741486007
 31
0.0
  0
ARC
  5
DB
100
AcDbEntity
  8
________1________1
370
              18
390
0
  6
Continuous
 62
               7
100
AcDbCircle
 10
-29.517167256725941
 20
29.602575741487001
 30
0.0
 40
1.7500000000003979
100
AcDbArc
 50
-89.999999999992554
 51
-45.000000000002636
  0
ARC
  5
DC
100
AcDbEntity
  8
________1________1
370
              18
390
0
  6
Continuous
 62
               7
100
AcDbCircle
 10
-29.517167256725656
 20
29.602575741486689
 30
0.0
 40
0.9500000000000171
100
AcDbArc
 50
-90.0
 51
-45.0
  0
ARC
  5
DD
100
AcDbEntity
  8
________1________1
370
              18
390
0
  6
Continuous
 62
               7
100
AcDbCircle
 10
-47.667165318905973
 20
27.752575741486694
 30
0.0
 40
0.9000000000005878
100
AcDbArc
 50
152.73439185201545
 51
152.74125114186268
  0
ARC
  5
DE
100
AcDbEntity
  8
________1________1
370
               5
390
0
  6
DASHED
 62
               7
100
AcDbCircle
 10
-47.667165318905973
 20
27.752575741486694
 30
0.0
 40
0.1000000000000911
100
AcDbArc
 50
135.00034897313455
 51
179.99930205375568
  0
LINE
  5
DF
100
AcDbEntity
  8
________1________1
370
              18
390
0
  6
Continuous
 62
               7
100
AcDbLine
 10
-36.608912405803437
 20
31.823328274303712
 30
0.0
 11
-47.520333991973729
 21
32.404274599007607
 31
0.0
  0
LINE
  5
E0
100
AcDbEntity
  8
________1________1
370
              18
390
0
  6
Continuous
 62
               7
100
AcDbLine
 10
-32.167167256725634
 20
29.552575741486692
 30
0.0
 11
-32.167167256725634
 21
28.752575741486694
 31
0.0
  0
LINE
  5
E1
100
AcDbEntity
  8
________1________1
370
              18
390
0
  6
Continuous
 62
               7
100
AcDbLine
 10
-47.767146176631627
 20
35.852575741472691
 30
0.0
 11
-47.767142104694983
 21
36.206129132072874
 31
0.0
  0
LINE
  5
E2
100
AcDbEntity
  8
________1________1
370
              18
390
0
  6
Continuous
 62
               7
100
AcDbLine
 10
-47.767146176631854
 20
35.852575741486675
 30
0.0
 11
-47.767157139929566
 21
34.952576959632466
 31
0.0
  0
LINE
  5
E3
100
AcDbEntity
  8
________1________1
370
              18
390
0
  6
Continuous
 62
               7
100
AcDbLine
 10
-48.467167256724395
 20
33.952575741487507
 30
0.0
 11
-48.467167256724395
 21
34.588971844551793
 31
0.0
  0
LINE
  5
E4
100
AcDbEntity
  8
________1________1
370
              18
390
0
  6
Continuous
 62
               7
100
AcDbLine
 10
-48.467167256724395
 20
28.116179638418586
 30
0.0
 11
-48.467167256724395
 21
28.752575741488684
 31
0.0
  0
LINE
  5
E5
100
AcDbEntity
  8
________1________1
370
              18
390
0
  6
Continuous
 62
               7
100
AcDbLine
 10
-47.767157139929566
 20
27.752574523340783
 30
0.0
 11
-47.767146176631854
 21
26.852575741486689
 31
0.0
  0
ARC
  5
E6
100
AcDbEntity
  8
________1________1
370
              18
390
0
  6
Continuous
 62
               7
100
AcDbCircle
 10
-47.667157139936876
 20
27.752575741486694
 30
0.0
 40
0.1000000000000796
100
AcDbArc
 50
90.0
 51
135.00034897313455
  0
ARC
  5
E7
100
AcDbEntity
  8
________1________1
370
              18
390
0
  6
Continuous
 62
               7
100
AcDbCircle
 10
-47.667157139936876
 20
27.752575741486694
 30
0.0
 40
0.9000000000005769
100
AcDbArc
 50
173.6205721408277
 51
179.99930205427316
  0
ARC
  5
E8
100
AcDbEntity
  8
________1________1
370
              18
390
0
  6
Continuous
 62
               7
100
AcDbCircle
 10
-47.667165318905973
 20
27.752575741486694
 30
0.0
 40
0.9000000000005777
100
AcDbArc
 50
173.62056929189075
 51
179.99930205375205
  0
LINE
  5
E9
100
AcDbEntity
  8
________1________1
370
              18
390
0
  6
Continuous
 62
               7
100
AcDbLine
 10
-50.867167256725622
 20
35.452575741486669
 30
0.0
 11
-50.867167256725622
 21
34.940075741486567
 31
0.0
  0
LINE
  5
EA
100
AcDbEntity
  8
________1________1
370
              18
390
0
  6
Continuous
 62
               7
100
AcDbLine
 10
-50.867167256723803
 20
35.806129132078667
 30
0.0
 11
-50.867167256723803
 21
35.952575741487067
 31
0.0
  0
LINE
  5
EB
100
AcDbEntity
  8
________1________1
370
              18
390
0
  6
Continuous
 62
               7
100
AcDbLine
 10
-50.867167256725622
 20
26.752575741486694
 30
0.0
 11
-50.067167256725668
 21
26.752575741486694
 31
0.0
  0
LINE
  5
EC
100
AcDbEntity
  8
________1________1
370
              18
390
0
  6
Continuous
 62
               7
100
AcDbLine
 10
-50.067167256725668
 20
27.852575741486689
 30
0.0
 11
-50.067167256725668
 21
27.252575741486694
 31
0.0
  0
LINE
  5
ED
100
AcDbEntity
  8
________1________1
370
              18
390
0
  6
Continuous
 62
               7
100
AcDbLine
 10
-32.167167256725122
 20
34.852575741484372
 30
0.0
 11
-32.167167256725122
 21
34.588971844551793
 31
0.0
  0
LINE
  5
EE
100
AcDbEntity
  8
________1________1
370
              18
390
0
  6
Continuous
 62
               7
100
AcDbLine
 10
-31.096456578606535
 20
34.852575741484372
 30
0.0
 11
-31.067167256728339
 21
34.852575741484372
 31
0.0
  0
LINE
  5
EF
100
AcDbEntity
  8
________1________1
370
              18
390
0
  6
Continuous
 62
               7
100
AcDbLine
 10
-31.067167256728339
 20
34.052575741484603
 30
0.0
 11
-31.096456578606535
 21
34.052575741484603
 31
0.0
  0
LINE
  5
F0
100
AcDbEntity
  8
________1________1
370
              18
390
0
  6
Continuous
 62
               7
100
AcDbLine
 10
-31.096456578606535
 20
27.852575741486007
 30
0.0
 11
-31.167167256725463
 21
27.852575741486007
 31
0.0
  0
LINE
  5
F1
100
AcDbEntity
  8
________1________1
370
              18
390
0
  6
Continuous
 62
               7
100
AcDbLine
 10
-31.167167256725463
 20
28.652575741485791
 30
0.0
 11
-31.096456578606535
 21
28.652575741485791
 31
0.0
  0
LINE
  5
F2
100
AcDbEntity
  8
________1________1
370
              18
390
0
  6
Continuous
 62
               7
100
AcDbLine
 10
-31.096456578606535
 20
28.652575741485791
 30
0.0
 11
-31.067167256728339
 21
28.652575741485791
 31
0.0
  0
ARC
  5
F3
100
AcDbEntity
  8
________1________1
370
              18
390
0
  6
Continuous
 62
               7
100
AcDbCircle
 10
-29.517167256725941
 20
33.102575741486405
 30
0.0
 40
1.7500000000002274
100
AcDbArc
 50
0.0
 51
45.000000000000988
  0
ARC
  5
F4
100
AcDbEntity
  8
________1________1
370
              18
390
0
  6
Continuous
 62
               7
100
AcDbCircle
 10
-29.517167256725656
 20
33.102575741486689
 30
0.0
 40
0.9499999999999886
100
AcDbArc
 50
0.0
 51
44.999999999998792
  0
LINE
  5
F5
100
AcDbEntity
  8
________1________1
370
              18
390
0
  6
Continuous
 62
               7
100
AcDbLine
 10
-30.979299291082157
 20
34.852575741484372
 30
0.0
 11
-30.767167256725543
 21
34.852575741484372
 31
0.0
  0
LINE
  5
F6
100
AcDbEntity
  8
________1________1
370
              18
390
0
  6
Continuous
 62
               7
100
AcDbLine
 10
-30.767167256725543
 20
34.052575741484603
 30
0.0
 11
-30.979299291082157
 21
34.052575741484603
 31
0.0
  0
LINE
  5
F7
100
AcDbEntity
  8
________1________1
370
              18
390
0
  6
Continuous
 62
               7
100
AcDbLine
 10
-30.979299291082157
 20
28.652575741485791
 30
0.0
 11
-30.767167256725543
 21
28.652575741485791
 31
0.0
  0
LINE
  5
F8
100
AcDbEntity
  8
________1________1
370
              18
390
0
  6
Continuous
 62
               7
100
AcDbLine
 10
-29.517167256725656
 20
34.052575741486706
 30
0.0
 11
-30.767167256725656
 21
34.052575741486706
 31
0.0
  0
LINE
  5
F9
100
AcDbEntity
  8
________1________1
370
              18
390
0
  6
Continuous
 62
               7
100
AcDbLine
 10
-30.979299291082157
 20
34.052575741484603
 30
0.0
 11
-31.067167256728339
 21
34.052575741484603
 31
0.0
  0
LINE
  5
FA
100
AcDbEntity
  8
________1________1
370
              18
390
0
  6
Continuous
 62
               7
100
AcDbLine
 10
-31.067167256725668
 20
34.852575741486675
 30
0.0
 11
-31.067167256725668
 21
34.052575741486706
 31
0.0
  0
LINE
  5
FB
100
AcDbEntity
  8
________1________1
370
              18
390
0
  6
Continuous
 62
               7
100
AcDbLine
 10
-31.167167256725463
 20
34.852575741484372
 30
0.0
 11
-31.096456578606535
 21
34.852575741484372
 31
0.0
  0
LINE
  5
FC
100
AcDbEntity
  8
________1________1
370
              18
390
0
  6
Continuous
 62
               7
100
AcDbLine
 10
-31.167167256725634
 20
34.052575741486706
 30
0.0
 11
-32.167167256725634
 21
34.052575741486706
 31
0.0
  0
ARC
  5
FD
100
AcDbEntity
  8
________1________1
370
              18
390
0
  6
Continuous
 62
               7
100
AcDbCircle
 10
-47.667157139936876
 20
34.952575741486669
 30
0.0
 40
0.9000000000005861
100
AcDbArc
 50
179.99930205375205
 51
-173.62057928974593
  0
ARC
  5
FE
100
AcDbEntity
  8
________1________1
370
              18
390
0
  6
Continuous
 62
               7
100
AcDbCircle
 10
-47.667157139936876
 20
34.952575741486669
 30
0.0
 40
0.1000000000000525
100
AcDbArc
 50
179.99930205375568
 51
-135.00034897313455
  0
LINE
  5
FF
100
AcDbEntity
  8
________1________1
370
              18
390
0
  6
Continuous
 62
               7
100
AcDbLine
 10
-48.467167256725645
 20
27.852575741486689
 30
0.0
 11
-32.167167256725634
 21
27.852575741486689
 31
0.0
  0
LINE
  5
100
100
AcDbEntity
  8
________1________1
370
              18
390
0
  6
Continuous
 62
               7
100
AcDbLine
 10
-32.167167256725634
 20
34.852575741486675
 30
0.0
 11
-48.467167256725645
 21
34.852575741486675
 31
0.0
  0
LINE
  5
101
100
AcDbEntity
  8
________1________1
370
              18
390
0
  6
Continuous
 62
               7
100
AcDbLine
 10
-30.767167256725656
 20
34.852575741486675
 30
0.0
 11
-29.517167256725656
 21
34.852575741486675
 31
0.0
  0
LINE
  5
102
100
AcDbEntity
  8
________1________1
370
              18
390
0
  6
Continuous
 62
               7
100
AcDbLine
 10
-32.167167256725122
 20
28.752575741488684
 30
0.0
 11
-32.167167256725122
 21
28.116179638418586
 31
0.0
  0
LINE
  5
103
100
AcDbEntity
  8
________1________1
370
              18
390
0
  6
Continuous
 62
               7
100
AcDbLine
 10
-30.979299291082157
 20
27.852575741486007
 30
0.0
 11
-31.067167256728339
 21
27.852575741486007
 31
0.0
  0
LINE
  5
104
100
AcDbEntity
  8
________1________1
370
              18
390
0
  6
Continuous
 62
               7
100
AcDbLine
 10
-32.167167256725122
 20
28.116179638418586
 30
0.0
 11
-32.167167256725122
 21
27.852575741486007
 31
0.0
  0
LINE
  5
105
100
AcDbEntity
  8
________1________1
370
              18
390
0
  6
Continuous
 62
               7
100
AcDbLine
 10
-30.767167256725656
 20
27.852575741486689
 30
0.0
 11
-29.517167256725656
 21
27.852575741486689
 31
0.0
  0
LINE
  5
106
100
AcDbEntity
  8
________1________1
370
              18
390
0
  6
Continuous
 62
               7
100
AcDbLine
 10
-28.280499065387673
 20
-13.064996485599281
 30
0.0
 11
-27.767955449297922
 21
-13.060523585224672
 31
0.0
  0
LINE
  5
107
100
AcDbEntity
  8
________1________1
370
              18
390
0
  6
Continuous
 62
               7
100
AcDbLine
 10
-45.70389298179974
 20
-24.815649314598005
 30
0.0
 11
-44.081724140371598
 21
-20.76024607215464
 31
0.0
  0
SPLINE
  5
108
100
AcDbEntity
  8
________1________1
370
              18
390
0
  6
Continuous
 62
               7
100
AcDbSpline
210
0.0
220
0.0
230
1.0
 70
               0
 71
               3
 72
              15
 73
              11
 74
               0
 42
0.0000001
 43
0.0000001
 12
-0.0000016037166544
 22
-0.999999999998714
 32
0.0
 13
-0.0000137851755449
 23
-0.9999999999049846
 33
0.0
 40
0.0
 40
0.0
 40
0.0
 40
0.0
 40
0.1386171691948701
 40
0.2758993792749037
 40
0.4105245275112801
 40
0.5411961001333001
 40
0.6666556584646227
 40
0.7856949583757418
 40
0.8971675863354955
 40
1.0
 40
1.0
 40
1.0
 40
1.0
 10
-47.767147463012066
 20
-25.241162870049422
 30
0.0
 10
-47.767147489210686
 20
-25.257499060103825
 30
0.0
 10
-47.767147560720559
 20
-25.290014113772187
 30
0.0
 10
-47.767147725303573
 20
-25.338394893312952
 30
0.0
 10
-47.767147945421925
 20
-25.385839275317409
 30
0.0
 10
-47.767148218910165
 20
-25.431890344450963
 30
0.0
 10
-47.76714854306573
 20
-25.476104603743963
 30
0.0
 10
-47.767148914657412
 20
-25.518056245709431
 30
0.0
 10
-47.767149329968163
 20
-25.557341253102237
 30
0.0
 10
-47.767149646884377
 20
-25.582597344462769
 30
0.0
 10
-47.767149813945764
 20
-25.594716260632936
 30
0.0
  0
SPLINE
  5
109
100
AcDbEntity
  8
________1________1
370
              18
390
0
  6
Continuous
 62
               7
100
AcDbSpline
210
0.0
220
0.0
230
1.0
 70
               0
 71
               3
 72
              15
 73
              11
 74
               0
 42
0.0000001
 43
0.0000001
 12
-0.0000137851772587
 22
-0.9999999999049845
 32
0.0
 13
-0.9999999999999976
 23
0.0000000723340275
 33
0.0
 40
0.0
 40
0.0
 40
0.0
 40
0.0
 40
0.2250092111515618
 40
0.4246012642792294
 40
0.5968539788054106
 40
0.7401084669299244
 40
0.8529851096274865
 40
0.9343968431379393
 40
0.9835596280026306
 40
1.0
 40
1.0
 40
1.0
 40
1.0
 10
-47.767149813945764
 20
-25.594716260636389
 30
0.0
 10
-47.767149965361398
 20
-25.605700206000378
 30
0.0
 10
-47.767155766258554
 20
-25.626421849771333
 30
0.0
 10
-47.767134869271274
 20
-25.655579023586995
 30
0.0
 10
-47.767198208294019
 20
-25.680661042200171
 30
0.0
 10
-47.76702137243376
 20
-25.701750312423258
 30
0.0
 10
-47.76748502422106
 20
-25.717764331643835
 30
0.0
 10
-47.766424726790831
 20
-25.730709914045832
 30
0.0
 10
-47.768300981091556
 20
-25.736009848238865
 30
0.0
 10
-47.766351810021263
 20
-25.741162870115929
 30
0.0
 10
-47.767154355601008
 20
-25.741162870057877
 30
0.0
  0
SPLINE
  5
10A
100
AcDbEntity
  8
________1________1
370
              18
390
0
  6
Continuous
 62
               7
100
AcDbSpline
210
0.0
220
0.0
230
1.0
 70
               0
 71
               3
 72
              15
 73
              11
 74
               0
 42
0.0000001
 43
0.0000001
 12
0.9999999999888605
 22
-0.0000047200554229
 32
0.0
 13
0.0000105777413812
 23
-0.9999999999440556
 33
0.0
 40
0.0
 40
0.0
 40
0.0
 40
0.0
 40
0.0164403720030544
 40
0.0656031568716744
 40
0.1470148903841148
 40
0.2598915330821088
 40
0.4031460212055751
 40
0.575398735729293
 40
0.7749907888532246
 40
1.0
 40
1.0
 40
1.0
 40
1.0
 10
-47.767146176631911
 20
-20.64116287001654
 30
0.0
 10
-47.766343631051939
 20
-20.6411628738046
 30
0.0
 10
-47.768292818650423
 20
-20.646315886338879
 30
0.0
 10
-47.766416581349006
 20
-20.651615829524555
 30
0.0
 10
-47.767476920301306
 20
-20.664561406843259
 30
0.0
 10
-47.76701331987806
 20
-20.680575428284637
 30
0.0
 10
-47.767190223380794
 20
-20.701664697658256
 30
0.0
 10
-47.767126964807176
 20
-20.726746716572716
 30
0.0
 10
-47.767147955314215
 20
-20.755903890285634
 30
0.0
 10
-47.767142220880544
 20
-20.776625534082594
 30
0.0
 10
-47.76714210469521
 20
-20.78760947944637
 30
0.0
  0
DIMENSION
  5
11A
100
AcDbEntity
  8
寸法線_1
370
               5
390
0
  6
Continuous
 62
               7
100
AcDbDimension
  2
*D0
 10
-58.567140887822688
 20
36.352575741486703
 30
0.0
 11
-58.567140887822688
 21
31.352575741486703
 31
0.0
 71
               5
 72
               1
 41
1.0
 42
0.0
  3
DS1
100
AcDbAlignedDimension
 13
-48.567140887822688
 23
26.352575741486703
 33
0.0
 14
-48.567140887822688
 24
36.352575741486703
 34
0.0
 50
90.0
100
AcDbRotatedDimension
  0
DIMENSION
  5
129
100
AcDbEntity
  8
寸法線_1
370
               5
390
0
  6
Continuous
 62
               7
100
AcDbDimension
  2
*D1
 10
-27.76716725672577
 20
44.602575741486703
 30
0.0
 11
-31.267167256725656
 21
44.602575741486703
 31
0.0
 71
               5
 72
               1
 41
1.0
 42
0.0
  3
DS1
100
AcDbAlignedDimension
 13
-34.767167256725543
 23
34.602575741486703
 33
0.0
 14
-27.76716725672577
 24
33.102575741486703
 34
0.0
 50
0.0000008537736463
100
AcDbRotatedDimension
  0
INSERT
  5
131
100
AcDbEntity
  8
____1
370
              18
390
0
  6
Continuous
 62
               7
100
AcDbBlockReference
  2
C0
 10
0.0
 20
0.0
 30
0.0
  0
DIMENSION
  5
13B
100
AcDbEntity
  8
寸法線_1
370
               5
390
0
  6
Continuous
 62
               7
100
AcDbDimension
  2
*D3
 10
-33.596188695597604
 20
32.653079186072112
 30
0.0
 11
-57.100875081159259
 21
18.660438309474479
 31
0.0
 70
             131
 71
               5
 72
               1
 41
1.0
 42
0.0
  3
DS1
100
AcDbDiametricDimension
 15
-35.938145817853595
 25
30.052072296901237
 35
0.0
 40
0.0
  0
DIMENSION
  5
14B
100
AcDbEntity
  8
寸法線_1
370
               5
390
0
  6
Continuous
 62
               7
100
AcDbDimension
  2
*D4
 10
-19.51716725672577
 20
27.852575741486703
 30
0.0
 11
-19.51716725672577
 21
31.352575741486703
 31
0.0
 71
               5
 72
               1
 41
1.0
 42
0.0
  3
DS1
100
AcDbAlignedDimension
 13
-29.51716725672577
 23
34.852575741486703
 33
0.0
 14
-29.51716725672577
 24
27.852575741486703
 34
0.0
 50
90.0
100
AcDbRotatedDimension
  0
LINE
  5
14C
100
AcDbEntity
  8
________1________1
370
              18
390
0
  6
Continuous
 62
               7
100
AcDbLine
 10
-50.067167256725668
 20
34.852575741486675
 30
0.0
 11
-48.467167256725645
 21
34.852575741486675
 31
0.0
  0
ARC
  5
14D
100
AcDbEntity
  8
________1________1
370
              18
390
0
  6
Continuous
 62
               7
100
AcDbCircle
 10
-47.667157139936876
 20
27.752575741486694
 30
0.0
 40
0.1000000000000911
100
AcDbArc
 50
135.00034897313455
 51
179.99930205375568
  0
ARC
  5
14E
100
AcDbEntity
  8
________1________1
370
               5
390
0
  6
DASHED
 62
               7
100
AcDbCircle
 10
-47.667165318905973
 20
34.952575741486669
 30
0.0
 40
0.1000000000000509
100
AcDbArc
 50
-135.00034897311153
 51
-90.0
  0
ARC
  5
14F
100
AcDbEntity
  8
________1________1
370
               5
390
0
  6
DASHED
 62
               7
100
AcDbCircle
 10
-47.667157139936876
 20
34.952575741486669
 30
0.0
 40
0.1000000000000501
100
AcDbArc
 50
-90.026685435201102
 51
-90.0
  0
LINE
  5
150
100
AcDbEntity
  8
________1________1
370
              18
390
0
  6
Continuous
 62
               7
100
AcDbLine
 10
-48.467167256724395
 20
34.588971844551793
 30
0.0
 11
-48.467167256724395
 21
34.852575741484372
 31
0.0
  0
LINE
  5
151
100
AcDbEntity
  8
________1________1
370
              18
390
0
  6
Continuous
 62
               7
100
AcDbLine
 10
-28.567167256725668
 20
29.602575741486689
 30
0.0
 11
-28.567167256725668
 21
33.102575741486689
 31
0.0
  0
ARC
  5
152
100
AcDbEntity
  8
________1________1
370
              18
390
0
  6
Continuous
 62
               7
100
AcDbCircle
 10
-29.517167256725656
 20
29.602575741486689
 30
0.0
 40
0.9499999999999755
100
AcDbArc
 50
-45.000000000002423
 51
0.0
  0
ARC
  5
153
100
AcDbEntity
  8
________1________1
370
              18
390
0
  6
Continuous
 62
               7
100
AcDbCircle
 10
-29.517167256725941
 20
29.602575741487001
 30
0.0
 40
1.7500000000002554
100
AcDbArc
 50
-45.000000000001315
 51
0.0
  0
LINE
  5
154
100
AcDbEntity
  8
________1________1
370
              18
390
0
  6
Continuous
 62
               7
100
AcDbLine
 10
-27.767167256725656
 20
33.102575741486689
 30
0.0
 11
-27.767167256725656
 21
29.602575741486689
 31
0.0
  0
LINE
  5
155
100
AcDbEntity
  8
________1________1
370
              18
390
0
  6
Continuous
 62
               7
100
AcDbLine
 10
-32.167167256725634
 20
34.852575741486675
 30
0.0
 11
-31.167167256725634
 21
34.852575741486675
 31
0.0
  0
LINE
  5
156
100
AcDbEntity
  8
________1________1
370
              18
390
0
  6
Continuous
 62
               7
100
AcDbLine
 10
-32.167167256725634
 20
28.6525757414867
 30
0.0
 11
-31.167167256725634
 21
28.6525757414867
 31
0.0
  0
LINE
  5
157
100
AcDbEntity
  8
________1________1
370
              18
390
0
  6
Continuous
 62
               7
100
AcDbLine
 10
-31.067167256728339
 20
28.652575741485791
 30
0.0
 11
-30.979299291082157
 21
28.652575741485791
 31
0.0
  0
LINE
  5
158
100
AcDbEntity
  8
________1________1
370
              18
390
0
  6
Continuous
 62
               7
100
AcDbLine
 10
-30.767167256725656
 20
28.6525757414867
 30
0.0
 11
-29.517167256725656
 21
28.6525757414867
 31
0.0
  0
LINE
  5
159
100
AcDbEntity
  8
________1________1
370
              18
390
0
  6
Continuous
 62
               7
100
AcDbLine
 10
-32.167167256725122
 20
34.588971844551793
 30
0.0
 11
-32.167167256725122
 21
33.952575741487507
 31
0.0
  0
LINE
  5
15A
100
AcDbEntity
  8
________1________1
370
              18
390
0
  6
Continuous
 62
               7
100
AcDbLine
 10
-31.067167256728339
 20
34.852575741484372
 30
0.0
 11
-30.979299291082157
 21
34.852575741484372
 31
0.0
  0
ARC
  5
15B
100
AcDbEntity
  8
________1________1
370
              18
390
0
  6
Continuous
 62
               7
100
AcDbCircle
 10
-46.867156762181764
 20
-19.646080415421633
 30
0.0
 40
3.0000000002145968
100
AcDbArc
 50
-21.801278407141858
 51
0.0000835001623671
  0
LINE
  5
15C
100
AcDbEntity
  8
________1________1
370
              18
390
0
  6
Continuous
 62
               7
100
AcDbLine
 10
-50.067167256725725
 20
-14.241162870039695
 30
0.0
 11
-50.867167256725736
 21
-14.241162870039695
 31
0.0
  0
LINE
  5
15D
100
AcDbEntity
  8
________1________1
370
              18
390
0
  6
Continuous
 62
               7
100
AcDbLine
 10
-48.467167256724451
 20
-14.141162870037896
 30
0.0
 11
-48.467167256724451
 21
-13.504766766973695
 31
0.0
  0
LINE
  5
15E
100
AcDbEntity
  8
________1________1
370
              18
390
0
  6
Continuous
 62
               7
100
AcDbLine
 10
-47.767140887762423
 20
-21.141162870039647
 30
0.0
 11
-47.767147463012066
 21
-25.241162870039659
 31
0.0
  0
LINE
  5
15F
100
AcDbEntity
  8
________1________1
370
              18
390
0
  6
Continuous
 62
               7
100
AcDbLine
 10
-48.567140085963025
 20
-20.641162870039647
 30
0.0
 11
-48.567148264932165
 21
-25.741162870039659
 31
0.0
  0
LINE
  5
160
100
AcDbEntity
  8
________1________1
370
              18
390
0
  6
Continuous
 62
               7
100
AcDbLine
 10
-27.741778341962004
 20
-16.060122979065881
 30
0.0
 11
-27.767955449297304
 21
-13.060523585223358
 31
0.0
  0
LINE
  5
161
100
AcDbEntity
  8
________1________1
370
              18
390
0
  6
Continuous
 62
               7
100
AcDbLine
 10
-50.067167256725725
 20
-14.741162870039695
 30
0.0
 11
-50.067167256725725
 21
-18.941162870039658
 31
0.0
  0
LINE
  5
162
100
AcDbEntity
  8
________1________1
370
              18
390
0
  6
Continuous
 62
               7
100
AcDbLine
 10
-50.067167256724076
 20
-14.241162870040789
 30
0.0
 11
-50.067167256724076
 21
-14.38760947944909
 31
0.0
  0
LINE
  5
163
100
AcDbEntity
  8
________1________1
370
              18
390
0
  6
Continuous
 62
               7
100
AcDbLine
 10
-48.467167256724451
 20
-13.504766766973695
 30
0.0
 11
-48.467167256724451
 21
-13.241162870041002
 31
0.0
  0
LINE
  5
164
100
AcDbEntity
  8
________1________1
370
              18
390
0
  6
Continuous
 62
               7
100
AcDbLine
 10
-48.467167256725702
 20
-14.241162870039695
 30
0.0
 11
-50.067167256725725
 21
-14.241162870039695
 31
0.0
  0
LINE
  5
165
100
AcDbEntity
  8
________1________1
370
              18
390
0
  6
Continuous
 62
               7
100
AcDbLine
 10
-48.467167256725702
 20
-14.141162870039601
 30
0.0
 11
-48.467167256725702
 21
-14.241162870039695
 31
0.0
  0
LINE
  5
166
100
AcDbEntity
  8
________1________1
370
              18
390
0
  6
Continuous
 62
               7
100
AcDbLine
 10
-50.867167256725736
 20
-19.441162870039658
 30
0.0
 11
-50.867167256725736
 21
-14.241162870039695
 31
0.0
  0
ARC
  5
167
100
AcDbEntity
  8
________1________1
370
              18
390
0
  6
Continuous
 62
               7
100
AcDbCircle
 10
-30.765223257840312
 20
-13.386691768637725
 30
0.0
 40
0.299999999999996
100
AcDbArc
 50
90.499999999999432
 51
135.50000000000364
  0
LINE
  5
168
100
AcDbEntity
  8
________1________1
370
              18
390
0
  6
Continuous
 62
               7
100
AcDbLine
 10
-29.517888814661191
 20
-13.075795022346831
 30
0.0
 11
-28.280499065387673
 21
-13.064996485599281
 31
0.0
  0
LINE
  5
169
100
AcDbEntity
  8
________1________1
370
              18
390
0
  6
Continuous
 62
               7
100
AcDbLine
 10
-28.254321958052401
 20
-16.064595879439203
 30
0.0
 11
-29.491711707325905
 21
-16.075394416186754
 31
0.0
  0
LINE
  5
16A
100
AcDbEntity
  8
________1________1
370
              18
390
0
  6
Continuous
 62
               7
100
AcDbLine
 10
-31.06521183475958
 20
-13.389309729287241
 30
0.0
 11
-31.060848567010396
 21
-13.889290690819323
 31
0.0
  0
ARC
  5
16B
100
AcDbEntity
  8
________1________1
370
              18
390
0
  6
Continuous
 62
               7
100
AcDbCircle
 10
-31.160844759316831
 20
-13.890163344369164
 30
0.0
 40
0.1000000000000045
100
AcDbArc
 50
-44.500000000007887
 51
0.5000000000020459
  0
ARC
  5
16C
100
AcDbEntity
  8
________1________1
370
              18
390
0
  6
Continuous
 62
               7
100
AcDbCircle
 10
-31.160844759316831
 20
-13.890163344369164
 30
0.0
 40
0.0999999999999963
100
AcDbArc
 50
-89.499999999997854
 51
-44.49999999999627
  0
ARC
  5
16D
100
AcDbEntity
  8
________1________1
370
              18
390
0
  6
Continuous
 62
               7
100
AcDbCircle
 10
-48.592167256725361
 20
-20.441162870039644
 30
0.0
 40
0.999999999999998
100
AcDbArc
 50
44.999999999999424
 51
89.999999999996746
  0
ARC
  5
16E
100
AcDbEntity
  8
________1________1
370
              18
390
0
  6
Continuous
 62
               7
100
AcDbCircle
 10
-48.592167256725361
 20
-20.441162870039644
 30
0.0
 40
1.0
100
AcDbArc
 50
0.0
 51
45.0
  0
LINE
  5
16F
100
AcDbEntity
  8
________1________1
370
              18
390
0
  6
Continuous
 62
               7
100
AcDbLine
 10
-47.737868248732752
 20
-20.641162870039349
 30
0.0
 11
-47.767157085324754
 21
-20.641162870039349
 31
0.0
  0
LINE
  5
170
100
AcDbEntity
  8
________1________1
370
              18
390
0
  6
Continuous
 62
               7
100
AcDbLine
 10
-47.592167256725361
 20
-20.641162870039647
 30
0.0
 11
-47.667157139936933
 21
-20.641162870039647
 31
0.0
  0
LINE
  5
171
100
AcDbEntity
  8
________1________1
370
              18
390
0
  6
Continuous
 62
               7
100
AcDbLine
 10
-47.592167256725361
 20
-20.441162870039644
 30
0.0
 11
-47.592167256725361
 21
-20.641162870039647
 31
0.0
  0
LINE
  5
172
100
AcDbEntity
  8
________1________1
370
              18
390
0
  6
Continuous
 62
               7
100
AcDbLine
 10
-47.667157139938865
 20
-20.641162870039349
 30
0.0
 11
-47.737868248732752
 21
-20.641162870039349
 31
0.0
  0
LINE
  5
173
100
AcDbEntity
  8
________1________1
370
              18
390
0
  6
Continuous
 62
               7
100
AcDbLine
 10
-32.167787910779694
 20
-13.098920341416203
 30
0.0
 11
-48.467167256725702
 21
-13.241162870039702
 31
0.0
  0
INSERT
  5
218
100
AcDbEntity
  8
___G
370
               5
390
0
  6
DOT
 62
               7
100
AcDbBlockReference
  2
C1
 10
0.0
 20
0.0
 30
0.0
  0
DIMENSION
  5
225
100
AcDbEntity
  8
寸法線_1
370
               5
390
0
  6
Continuous
 62
               7
100
AcDbDimension
  2
*D6
 10
-27.767955449297233
 20
-3.0605235852233363
 30
0.0
 11
-38.117561353010842
 21
-3.0605235852233363
 31
0.0
 71
               5
 72
               1
 41
1.0
 42
0.0
  3
DS1
100
AcDbAlignedDimension
 13
-48.467167256724451
 23
-13.241162870041023
 33
0.0
 14
-27.767955449297233
 24
-13.060523585223336
 34
0.0
100
AcDbRotatedDimension
  0
DIMENSION
  5
232
100
AcDbEntity
  8
寸法線_1
370
               5
390
0
  6
Continuous
 62
               7
100
AcDbDimension
  2
*D7
 10
-50.867167256725679
 20
-45.088819120039716
 30
0.0
 11
-39.304472799344126
 21
-45.088819120039716
 31
0.0
 71
               5
 72
               1
 41
1.0
 42
0.0
  3
DS1
100
AcDbAlignedDimension
 13
-27.741778341962572
 23
-16.060122979064602
 33
0.0
 14
-50.867167256725679
 24
-19.441162870039648
 34
0.0
 50
180.0
100
AcDbRotatedDimension
  0
DIMENSION
  5
240
100
AcDbEntity
  8
寸法線_1
370
               5
390
0
  6
Continuous
 62
               7
100
AcDbDimension
  2
*D8
 10
-50.867167256725679
 20
-34.422803495039716
 30
0.0
 11
-47.367162009336994
 21
-34.422803495039716
 31
0.0
 71
               5
 72
               1
 41
1.0
 42
0.0
  3
DS1
100
AcDbAlignedDimension
 13
-43.867156761948308
 23
-19.646076043363337
 33
0.0
 14
-50.867167256725679
 24
-19.441162870039648
 34
0.0
 50
179.99999914622634
100
AcDbRotatedDimension
  0
DIMENSION
  5
250
100
AcDbEntity
  8
寸法線_1
370
               5
390
0
  6
Continuous
 62
               7
100
AcDbDimension
  2
*D9
 10
-58.567148264932257
 20
-13.241162870041023
 30
0.0
 11
-58.567148264932257
 21
-19.491162870040341
 31
0.0
 71
               5
 72
               1
 41
1.0
 42
0.0
  3
DS1
100
AcDbAlignedDimension
 13
-48.567148264932257
 23
-25.741162870039659
 33
0.0
 14
-48.467167256724451
 24
-13.241162870041023
 34
0.0
 50
90.0
100
AcDbRotatedDimension
  0
DIMENSION
  5
260
100
AcDbEntity
  8
寸法線_1
370
               5
390
0
  6
Continuous
 62
               7
100
AcDbDimension
  2
*D10
 10
-17.741778341962572
 20
-16.060122979064602
 30
0.0
 11
-17.741778341962572
 21
-14.560323282143969
 31
0.0
 71
               5
 72
               1
 41
1.0
 42
0.0
  3
DS1
100
AcDbAlignedDimension
 13
-27.767955449297233
 23
-13.060523585223336
 33
0.0
 14
-27.741778341962572
 24
-16.060122979064602
 34
0.0
 50
90.0
100
AcDbRotatedDimension
  0
LINE
  5
261
100
AcDbEntity
  8
________1________1
370
              18
390
0
  6
Continuous
 62
               7
100
AcDbLine
 10
-50.067167256724076
 20
-19.294716260631315
 30
0.0
 11
-50.067167256724076
 21
-19.441162870039616
 31
0.0
  0
LINE
  5
262
100
AcDbEntity
  8
________1________1
370
              18
390
0
  6
Continuous
 62
               7
100
AcDbLine
 10
-47.767140887757989
 20
-21.141162870047889
 30
0.0
 11
-47.767142104690834
 21
-20.78760947944188
 31
0.0
  0
LINE
  5
263
100
AcDbEntity
  8
________1________1
370
              18
390
0
  6
Continuous
 62
               7
100
AcDbLine
 10
-50.067167256724076
 20
-14.38760947944909
 30
0.0
 11
-50.067167256724076
 21
-14.74116287003779
 31
0.0
  0
ARC
  5
264
100
AcDbEntity
  8
____1
370
              18
390
0
  6
Continuous
 62
               7
100
AcDbCircle
 10
-43.367153199944262
 20
-17.424987117149449
 30
0.0
 40
0.5000000000000034
210
-0.0
220
-0.0
230
1.0
100
AcDbArc
 50
93.499999999999716
 51
179.9999081136458
  0
LINE
  5
265
100
AcDbEntity
  8
________1________1
370
              18
390
0
  6
Continuous
 62
               7
100
AcDbLine
 10
-43.397677469711688
 20
-16.925919717938516
 30
0.0
 11
-29.491711707324413
 21
-16.07539441618804
 31
0.0
  0
LINE
  5
266
100
AcDbEntity
  8
________1________1
370
              18
390
0
  6
Continuous
 62
               7
100
AcDbLine
 10
-43.867156761948358
 20
-19.646076043363355
 30
0.0
 11
-43.867153199943623
 21
-17.42498631528974
 31
0.0
  0
LINE
  5
267
100
AcDbEntity
  8
________1________1
370
              18
390
0
  6
Continuous
 62
               7
100
AcDbLine
 10
-27.741778341962643
 20
-16.060122979064595
 30
0.0
 11
-28.254321958052401
 21
-16.064595879439203
 31
0.0
  0
LINE
  5
268
100
AcDbEntity
  8
________1________1
370
              18
390
0
  6
Continuous
 62
               7
100
AcDbLine
 10
-48.464866907961557
 20
-13.504756729744962
 30
0.0
 11
-48.459313374777146
 21
-14.141128600795582
 31
0.0
  0
LINE
  5
269
100
AcDbEntity
  8
________1________1
370
              18
390
0
  6
Continuous
 62
               7
100
AcDbLine
 10
-47.0896478138514
 20
-25.741162870039659
 30
0.0
 11
-48.567148264932165
 21
-25.741162870039659
 31
0.0
  0
ARC
  5
26A
100
AcDbEntity
  8
________1________1
370
              18
390
0
  6
Continuous
 62
               7
100
AcDbCircle
 10
-47.089657558929559
 20
-24.241162870039659
 30
0.0
 40
1.5000000000349729
100
AcDbArc
 50
-90.0
 51
-22.517077406088902
  0
LINE
  5
26B
100
AcDbEntity
  8
________1________1
370
              18
390
0
  6
Continuous
 62
               7
100
AcDbLine
 10
-32.165487562015144
 20
-13.362514201121527
 30
0.0
 11
-32.159934028830726
 21
-13.998886072172155
 31
0.0
  0
LINE
  5
26C
100
AcDbEntity
  8
________1________1
370
              18
390
0
  6
Continuous
 62
               7
100
AcDbLine
 10
-31.159972105766997
 20
-13.990159536675485
 30
0.0
 11
-32.159934028831159
 21
-13.99888607217386
 31
0.0
  0
ARC
  5
26D
100
AcDbEntity
  8
________1________1
370
              18
390
0
  6
Continuous
 62
               7
100
AcDbCircle
 10
-30.765223257840312
 20
-13.386691768637725
 30
0.0
 40
0.3000000000000039
100
AcDbArc
 50
135.50000000000557
 51
-179.49999999999926
  0
LINE
  5
26E
100
AcDbEntity
  8
________1________1
370
              18
390
0
  6
Continuous
 62
               7
100
AcDbLine
 10
-30.767841218489821
 20
-13.086703191718478
 30
0.0
 11
-29.51788881465972
 21
-13.07579502234551
 31
0.0
  0
LINE
  5
26F
100
AcDbEntity
  8
________1________1
370
              18
390
0
  6
Continuous
 62
               7
100
AcDbLine
 10
-32.167787910779232
 20
-13.098920341417504
 30
0.0
 11
-32.165487562015144
 21
-13.362514201121527
 31
0.0
  0
LINE
  5
270
100
AcDbEntity
  8
________1________1
370
              18
390
0
  6
Continuous
 62
               7
100
AcDbLine
 10
-48.592167256725361
 20
-19.441162870039658
 30
0.0
 11
-50.067167256725725
 21
-19.441162870039658
 31
0.0
  0
LINE
  5
271
100
AcDbEntity
  8
________1________1
370
              18
390
0
  6
Continuous
 62
               7
100
AcDbLine
 10
-50.067167256724076
 20
-18.941162870036845
 30
0.0
 11
-50.067167256724076
 21
-19.294716260631315
 31
0.0
  0
LINE
  5
272
100
AcDbEntity
  8
________1________1
370
              18
390
0
  6
Continuous
 62
               7
100
AcDbLine
 10
-50.867167256725736
 20
-19.441162870039658
 30
0.0
 11
-50.067167256725725
 21
-19.441162870039658
 31
0.0
  0
LINE
  5
273
100
AcDbEntity
  8
________1________1
370
              18
390
0
  6
Continuous
 62
               7
100
AcDbLine
 10
-47.767146176631911
 20
-20.641162870039647
 30
0.0
 11
-48.567140085963025
 21
-20.641162870039647
 31
0.0
  0
ENDSEC
  0
SECTION
  2
OBJECTS
  0
DICTIONARY
  5
19
100
AcDbDictionary
280
               0
281
               1
  3
ACAD_GROUP
350
1A
  3
ACAD_MLINESTYLE
350
1B
  3
ACAD_LAYOUT
350
1E
  3
ACAD_PLOTSETTINGS
350
22
  3
ACAD_PLOTSTYLENAME
350
1F
  3
ACAD_WIPEOUT_VARS
350
23
  0
DICTIONARY
  5
1A
102
{ACAD_REACTORS
330
19
102
}
100
AcDbDictionary
280
               0
281
               1
  0
DICTIONARY
  5
1B
102
{ACAD_REACTORS
330
19
102
}
100
AcDbDictionary
280
               0
281
               1
  3
Standard
350
1C
  0
MLINESTYLE
  5
1C
102
{ACAD_REACTORS
330
1B
102
}
100
AcDbMlineStyle
  2
Standard
 70
               0
  3

 62
               0
 51
90.0
 52
90.0
 71
               2
 49
0.5
 62
             256
  6
ByLayer
 49
-0.5
 62
             256
  6
ByLayer
  0
ACDBDICTIONARYWDFLT
  5
1F
102
{ACAD_REACTORS
330
19
102
}
100
AcDbDictionary
281
               1
  3
Normal
350
1D
100
AcDbDictionaryWithDefault
340
1D
  0
ACDBPLACEHOLDER
  5
1D
102
{ACAD_REACTORS
330
1F
102
}
  0
LAYOUT
  5
20
102
{ACAD_REACTORS
330
1E
102
}
100
AcDbPlotSettings
  1

  2

  4

  6

 40
0.0
 41
0.0
 42
0.0
 43
0.0
 44
0.0
 45
0.0
 46
0.0
 47
0.0
 48
0.0
 49
0.0
140
0.0
141
0.0
142
1.0
143
1.0
 70
            1024
 72
               0
 73
               0
 74
               0
  7

 75
               0
147
1.0
148
0.0
149
0.0
100
AcDbLayout
  1
Model
 70
               0
 71
               0
 10
0.0
 20
0.0
 11
0.0
 21
0.0
 12
0.0
 22
0.0
 32
0.0
 14
0.0
 24
0.0
 34
0.0
 15
0.0
 25
0.0
 35
0.0
146
0.0
 13
0.0
 23
0.0
 33
0.0
 16
0.0
 26
0.0
 36
0.0
 17
0.0
 27
0.0
 37
0.0
 76
               0
330
A
331
0
345
0
346
0
  0
LAYOUT
  5
21
102
{ACAD_REACTORS
330
1E
102
}
100
AcDbPlotSettings
  1

  2

  4

  6

 40
0.0
 41
0.0
 42
0.0
 43
0.0
 44
0.0
 45
0.0
 46
0.0
 47
0.0
 48
0.0
 49
0.0
140
0.0
141
0.0
142
1.0
143
1.0
 70
               0
 72
               0
 73
               0
 74
               0
  7

 75
               0
147
1.0
148
0.0
149
0.0
100
AcDbLayout
  1
Layout1
 70
               0
 71
               0
 10
0.0
 20
0.0
 11
0.0
 21
0.0
 12
0.0
 22
0.0
 32
0.0
 14
0.0
 24
0.0
 34
0.0
 15
0.0
 25
0.0
 35
0.0
146
0.0
 13
0.0
 23
0.0
 33
0.0
 16
0.0
 26
0.0
 36
0.0
 17
0.0
 27
0.0
 37
0.0
 76
               0
330
B
331
0
345
0
346
0
  0
DICTIONARY
  5
1E
102
{ACAD_REACTORS
330
19
102
}
100
AcDbDictionary
280
               0
281
               1
  3
Layout1
350
21
  3
Model
350
20
  0
DICTIONARY
  5
22
102
{ACAD_REACTORS
330
19
102
}
100
AcDbDictionary
280
               0
281
               1
  0
WIPEOUTVARIABLES
  5
23
100
AcDbWipeoutVariables
 70
               1
  0
ENDSEC
  0
EOF
