  0
SECTION
  2
HEADER
  9
$ACADVER
  1
AC1015
  9
$ACADMAINTVER
 70
               6
  9
$DWGCODEPAGE
  3
ANSI_932
  9
$INSBASE
 10
0.0
 20
0.0
 30
0.0
  9
$EXTMIN
 10
-700.33386501736129
 20
343.84114583333348
 30
0.0
  9
$EXTMAX
 10
835.07629123263928
 20
-413.52864583333343
 30
0.0
  9
$LIMMIN
 10
0.0
 20
0.0
  9
$LIMMAX
 10
0.0
 20
0.0
  9
$ORTHOMODE
 70
               0
  9
$REGENMODE
 70
               1
  9
$FILLMODE
 70
               1
  9
$QTEXTMODE
 70
               0
  9
$MIRRTEXT
 70
               1
  9
$LTSCALE
 40
1.0
  9
$ATTMODE
 70
               1
  9
$TEXTSIZE
 40
0.2
  9
$TRACEWID
 40
0.05
  9
$TEXTSTYLE
  7
Standard
  9
$CLAYER
  8
0
  9
$CELTYPE
  6
Continuous
  9
$CECOLOR
 62
             256
  9
$CELTSCALE
 40
1.0
  9
$DISPSILH
 70
               0
  9
$DIMSCALE
 40
1.0
  9
$DIMASZ
 40
1.9318516525781366
  9
$DIMEXO
 40
2.0
  9
$DIMDLI
 40
0.38
  9
$DIMRND
 40
0.0
  9
$DIMDLE
 40
0.0
  9
$DIMEXE
 40
1.0
  9
$DIMTP
 40
0.0
  9
$DIMTM
 40
0.0
  9
$DIMTXT
 40
4.2333333333333325
  9
$DIMCEN
 40
0.09
  9
$DIMTSZ
 40
0.0
  9
$DIMTOL
 70
               0
  9
$DIMLIM
 70
               0
  9
$DIMTIH
 70
               0
  9
$DIMTOH
 70
               0
  9
$DIMSE1
 70
               0
  9
$DIMSE2
 70
               0
  9
$DIMTAD
 70
               1
  9
$DIMZIN
 70
               0
  9
$DIMBLK
  1

  9
$DIMASO
 70
               1
  9
$DIMSHO
 70
               1
  9
$DIMPOST
  1

  9
$DIMAPOST
  1

  9
$DIMALT
 70
               0
  9
$DIMALTD
 70
               5
  9
$DIMALTF
 40
25.399999999999999
  9
$DIMLFAC
 40
1.0
  9
$DIMTOFL
 70
               0
  9
$DIMTVP
 40
0.0
  9
$DIMTIX
 70
               0
  9
$DIMSOXD
 70
               0
  9
$DIMSAH
 70
               0
  9
$DIMBLK1
  1

  9
$DIMBLK2
  1

  9
$DIMSTYLE
  2
Standard
  9
$DIMCLRD
 70
               7
  9
$DIMCLRE
 70
               7
  9
$DIMCLRT
 70
               7
  9
$DIMTFAC
 40
1.0
  9
$DIMGAP
 40
1.0
  9
$DIMJUST
 70
               0
  9
$DIMSD1
 70
               0
  9
$DIMSD2
 70
               0
  9
$DIMTOLJ
 70
               1
  9
$DIMTZIN
 70
               0
  9
$DIMALTZ
 70
               0
  9
$DIMALTTZ
 70
               0
  9
$DIMUPT
 70
               0
  9
$DIMDEC
 70
               5
  9
$DIMTDEC
 70
               4
  9
$DIMALTU
 70
               2
  9
$DIMALTTD
 70
               2
  9
$DIMTXSTY
  7
Standard
  9
$DIMAUNIT
 70
               0
  9
$DIMADEC
 70
               0
  9
$DIMALTRND
 40
0.0
  9
$DIMAZIN
 70
               0
  9
$DIMDSEP
 70
               0
  9
$DIMATFIT
 70
               3
  9
$DIMFRAC
 70
               0
  9
$DIMLDRBLK
  1

  9
$DIMLUNIT
 70
               2
  9
$DIMLWD
 70
               0
  9
$DIMLWE
 70
               0
  9
$DIMTMOVE
 70
               0
  9
$LUNITS
 70
               2
  9
$LUPREC
 70
               4
  9
$SKETCHINC
 40
0.1
  9
$FILLETRAD
 40
0.0
  9
$AUNITS
 70
               0
  9
$AUPREC
 70
               0
  9
$MENU
  1
acad
  9
$ELEVATION
 40
0.0
  9
$PELEVATION
 40
0.0
  9
$THICKNESS
 40
0.0
  9
$LIMCHECK
 70
               0
  9
$CHAMFERA
 40
0.0
  9
$CHAMFERB
 40
0.0
  9
$CHAMFERC
 40
0.0
  9
$CHAMFERD
 40
0.0
  9
$SKPOLY
 70
               0
  9
$TDCREATE
 40
2457418.492500000
  9
$TDUCREATE
 40
0.000000000
  9
$TDUPDATE
 40
2457418.492500000
  9
$TDUUPDATE
 40
0.000000000
  9
$TDINDWG
 40
0.0000000000
  9
$TDUSRTIMER
 40
0.0000000000
  9
$USRTIMER
 70
               1
  9
$ANGBASE
 50
0.0
  9
$ANGDIR
 70
               0
  9
$PDMODE
 70
               0
  9
$PDSIZE
 40
0.0
  9
$PLINEWID
 40
0.0
  9
$SPLFRAME
 70
               0
  9
$SPLINETYPE
 70
               6
  9
$SPLINESEGS
 70
               8
  9
$HANDSEED
  5
5DE
  9
$SURFTAB1
 70
               6
  9
$SURFTAB2
 70
               6
  9
$SURFTYPE
 70
               6
  9
$SURFU
 70
               6
  9
$SURFV
 70
               6
  9
$UCSBASE
  2

  9
$UCSNAME
  2

  9
$UCSORG
 10
0.0
 20
0.0
 30
0.0
  9
$UCSXDIR
 10
1.0
 20
0.0
 30
0.0
  9
$UCSYDIR
 10
0.0
 20
1.0
 30
0.0
  9
$UCSORTHOREF
  2

  9
$UCSORTHOVIEW
 70
               0
  9
$UCSORGTOP
 10
0.0
 20
0.0
 30
0.0
  9
$UCSORGBOTTOM
 10
0.0
 20
0.0
 30
0.0
  9
$UCSORGLEFT
 10
0.0
 20
0.0
 30
0.0
  9
$UCSORGRIGHT
 10
0.0
 20
0.0
 30
0.0
  9
$UCSORGFRONT
 10
0.0
 20
0.0
 30
0.0
  9
$UCSORGBACK
 10
0.0
 20
0.0
 30
0.0
  9
$PUCSBASE
  2

  9
$PUCSNAME
  2

  9
$PUCSORG
 10
0.0
 20
0.0
 30
0.0
  9
$PUCSXDIR
 10
1.0
 20
0.0
 30
0.0
  9
$PUCSYDIR
 10
0.0
 20
1.0
 30
0.0
  9
$PUCSORTHOREF
  2

  9
$PUCSORTHOVIEW
 70
               0
  9
$PUCSORGTOP
 10
0.0
 20
0.0
 30
0.0
  9
$PUCSORGBOTTOM
 10
0.0
 20
0.0
 30
0.0
  9
$PUCSORGLEFT
 10
0.0
 20
0.0
 30
0.0
  9
$PUCSORGRIGHT
 10
0.0
 20
0.0
 30
0.0
  9
$PUCSORGFRONT
 10
0.0
 20
0.0
 30
0.0
  9
$PUCSORGBACK
 10
0.0
 20
0.0
 30
0.0
  9
$USERI1
 70
               0
  9
$USERI2
 70
               0
  9
$USERI3
 70
               0
  9
$USERI4
 70
               0
  9
$USERI5
 70
               0
  9
$USERR1
 40
0.0
  9
$USERR2
 40
0.0
  9
$USERR3
 40
0.0
  9
$USERR4
 40
0.0
  9
$USERR5
 40
0.0
  9
$WORLDVIEW
 70
               1
  9
$SHADEDGE
 70
               3
  9
$SHADEDIF
 70
              70
  9
$TILEMODE
 70
               1
  9
$MAXACTVP
 70
              16
  9
$PINSBASE
 10
0.0
 20
0.0
 30
0.0
  9
$PLIMCHECK
 70
               0
  9
$PEXTMIN
 10
1.0000000000000000E+20
 20
1.0000000000000000E+20
 30
1.0000000000000000E+20
  9
$PEXTMAX
 10
-1.0000000000000000E+20
 20
-1.0000000000000000E+20
 30
-1.0000000000000000E+20
  9
$PLIMMIN
 10
0.0
 20
0.0
  9
$PLIMMAX
 10
12.0
 20
9.0
  9
$UNITMODE
 70
               0
  9
$VISRETAIN
 70
               0
  9
$PLINEGEN
 70
               1
  9
$PSLTSCALE
 70
               0
  9
$TREEDEPTH
 70
            3020
  9
$CMLSTYLE
  2
Standard
  9
$CMLJUST
 70
               0
  9
$CMLSCALE
 40
1.0
  9
$PROXYGRAPHICS
 70
               0
  9
$MEASUREMENT
 70
               0
  9
$CELWEIGHT
370
               0
  9
$ENDCAPS
280
               0
  9
$JOINSTYLE
280
               0
  9
$LWDISPLAY
290
               0
  9
$INSUNITS
 70
               0
  9
$HYPERLINKBASE
  1

  9
$STYLESHEET
  1

  9
$XEDIT
290
               1
  9
$CEPSNTYPE
380
               0
  9
$PSTYLEMODE
290
               1
  9
$FINGERPRINTGUID
  2

  9
$VERSIONGUID
  2

  9
$EXTNAMES
290
               1
  9
$PSVPSCALE
 40
0.0
  0
ENDSEC
  0
SECTION
  2
CLASSES
  0
CLASS
  1
LWPOLYLINE
  2
AcDbPolyline
  3
AutoCAD 2000
 90
        0
280
               0
281
               1
  0
CLASS
  1
IMAGE
  2
AcDbRasterImage
  3
ISM
 90
      127
280
               0
281
               1
  0
CLASS
  1
OLE2FRAME
  2
AcDbOle2Frame
  3
AutoCAD 2000
 90
        0
280
               0
281
               1
  0
CLASS
  1
HATCH
  2
AcDbHatch
  3
AutoCAD 2000
 90
        0
280
               0
281
               1
  0
CLASS
  1
DICTIONARYVAR
  2
AcDbDictionaryVar
  3
AutoCAD 2000
 90
        0
280
               0
281
               0
  0
CLASS
  1
RASTERVARIABLES
  2
AcDbRasterVariables
  3
ISM
 90
        0
280
               0
281
               0
  0
CLASS
  1
IMAGEDEF
  2
AcDbRasterImageDef
  3
ISM
 90
        0
280
               0
281
               0
  0
CLASS
  1
IMAGEDEF_REACTOR
  2
AcDbRasterImageDefReactor
  3
ISM
 90
        1
280
               0
281
               0
  0
CLASS
  1
IDBUFFER
  2
AcDbIdBuffer
  3
AutoCAD 2000
 90
        0
280
               0
281
               0
  0
CLASS
  1
SPATIAL_FILTER
  2
AcDbSpatialFilter
  3
AutoCAD 2000
 90
        0
280
               0
281
               0
  0
CLASS
  1
XRECORD
  2
AcDbXrecord
  3
AutoCAD 2000
 90
        0
280
               0
281
               0
  0
CLASS
  1
SORTENTSTABLE
  2
AcDbSortentsTable
  3
AutoCAD 2000
 90
        0
280
               0
281
               0
  0
CLASS
  1
LAYER_INDEX
  2
AcDbLayerIndex
  3
AutoCAD 2000
 90
        0
280
               0
281
               0
  0
CLASS
  1
SPATIAL_INDEX
  2
AcDbSpatialIndex
  3
AutoCAD 2000
 90
        0
280
               0
281
               0
  0
CLASS
  1
OBJECT_PTR
  2
CAseDLPNTableRecord
  3
"ASE-LPNTableRecord"
 90
        1
280
               0
281
               0
  0
CLASS
  1
LAYOUT
  2
AcDbLayout
  3
AutoCAD 2000
 90
        0
280
               0
281
               0
  0
CLASS
  1
PLOTSETTINGS
  2
AcDbPlotSettings
  3
AutoCAD 2000
 90
        0
280
               0
281
               0
  0
CLASS
  1
ACDBDICTIONARYWDFLT
  2
AcDbDictionaryWithDefault
  3
AutoCAD 2000
 90
        0
280
               0
281
               0
  0
CLASS
  1
ACDBPLACEHOLDER
  2
AcDbPlaceHolder
  3
AutoCAD 2000
 90
        0
280
               0
281
               0
  0
CLASS
  1
VBA_PROJECT
  2
AcDbVbaProject
  3
acadvba
 90
        0
280
               0
281
               0
  0
CLASS
  1
WIPEOUT
  2
AcDbWipeout
  3
WipeOut|AutoCAD Express Tool|expresstools@autodesk.com
 90
      127
280
               0
281
               1
  0
CLASS
  1
WIPEOUTVARIABLES
  2
AcDbWipeoutVariables
  3
WipeOut|AutoCAD Express Tool|expresstools@autodesk.com
 90
        0
280
               0
281
               0
  0
CLASS
  1
RTEXT
  2
RText
  3
RText|AutoCAD Express Tool|expresstools@autodesk.com
 90
        0
280
               0
281
               1
  0
CLASS
  1
ARCALIGNEDTEXT
  2
AcDbArcAlignedText
  3
ATEXT|AutoCAD Express Tool|expresstools@autodesk.com
 90
        0
280
               0
281
               1
  0
ENDSEC
  0
SECTION
  2
TABLES
  0
TABLE
  2
VPORT
  5
7
100
AcDbSymbolTable
 70
               1
  0
VPORT
  5
15
100
AcDbSymbolTableRecord
100
AcDbViewportTableRecord
  2
*ACTIVE
 70
               0
 10
0.0
 20
0.0
 11
1.0
 21
1.0
 12
6.5912879999999996
 22
4.5791839999999997
 13
0.0
 23
0.0
 14
1.0
 24
1.0
 15
0.0
 25
0.0
 16
0.0
 26
0.0
 36
1.0
 17
0.0
 27
0.0
 37
0.0
 40
9.1583690000000004
 41
0.688564
 42
50.0
 43
0.0
 44
0.0
 50
0.0
 51
0.0
 71
               0
 72
             100
 73
               1
 74
               1
 75
               0
 76
               0
 77
               0
 78
               0
281
               0
 65
               0
110
0.0
120
0.0
130
0.0
111
1.0
121
0.0
131
0.0
112
0.0
122
1.0
132
0.0
345
0
346
0
 79
               0
146
0.0
  0
ENDTAB
  0
TABLE
  2
LTYPE
  5
4
100
AcDbSymbolTable
 70
              13
  0
LTYPE
  5
11
100
AcDbSymbolTableRecord
100
AcDbLinetypeTableRecord
  2
ByBlock
 70
              64
  3

 72
              65
 73
               0
 40
0.0
  0
LTYPE
  5
12
100
AcDbSymbolTableRecord
100
AcDbLinetypeTableRecord
  2
ByLayer
 70
              64
  3

 72
              65
 73
               0
 40
0.0
  0
LTYPE
  5
13
100
AcDbSymbolTableRecord
100
AcDbLinetypeTableRecord
  2
Continuous
 70
              64
  3
Solid line
 72
              65
 73
               0
 40
0.0
  0
LTYPE
  5
24
100
AcDbSymbolTableRecord
100
AcDbLinetypeTableRecord
  2
DOT
 70
              64
  3

 72
              65
 73
               2
 40
1.0
 49
0.0
 74
               0
 49
-1.0
 74
               0
  0
LTYPE
  5
25
100
AcDbSymbolTableRecord
100
AcDbLinetypeTableRecord
  2
DASHEDX2
 70
              64
  3

 72
              65
 73
               2
 40
4.0
 49
3.0
 74
               0
 49
-1.0
 74
               0
  0
LTYPE
  5
26
100
AcDbSymbolTableRecord
100
AcDbLinetypeTableRecord
  2
DASHED
 70
              64
  3

 72
              65
 73
               2
 40
3.0
 49
2.0
 74
               0
 49
-1.0
 74
               0
  0
LTYPE
  5
27
100
AcDbSymbolTableRecord
100
AcDbLinetypeTableRecord
  2
DASHED2
 70
              64
  3

 72
              65
 73
               2
 40
2.0
 49
1.0
 74
               0
 49
-1.0
 74
               0
  0
LTYPE
  5
28
100
AcDbSymbolTableRecord
100
AcDbLinetypeTableRecord
  2
CENTERX2
 70
              64
  3

 72
              65
 73
               4
 40
43.0
 49
40.0
 74
               0
 49
-1.0
 74
               0
 49
1.0
 74
               0
 49
-1.0
 74
               0
  0
LTYPE
  5
29
100
AcDbSymbolTableRecord
100
AcDbLinetypeTableRecord
  2
CENTER
 70
              64
  3

 72
              65
 73
               4
 40
33.0
 49
30.0
 74
               0
 49
-1.0
 74
               0
 49
1.0
 74
               0
 49
-1.0
 74
               0
  0
LTYPE
  5
2A
100
AcDbSymbolTableRecord
100
AcDbLinetypeTableRecord
  2
CENTER2
 70
              64
  3

 72
              65
 73
               4
 40
23.0
 49
20.0
 74
               0
 49
-1.0
 74
               0
 49
1.0
 74
               0
 49
-1.0
 74
               0
  0
LTYPE
  5
2B
100
AcDbSymbolTableRecord
100
AcDbLinetypeTableRecord
  2
PHANTOMX2
 70
              64
  3

 72
              65
 73
               6
 40
45.0
 49
40.0
 74
               0
 49
-1.0
 74
               0
 49
1.0
 74
               0
 49
-1.0
 74
               0
 49
1.0
 74
               0
 49
-1.0
 74
               0
  0
LTYPE
  5
2C
100
AcDbSymbolTableRecord
100
AcDbLinetypeTableRecord
  2
PHANTOM
 70
              64
  3

 72
              65
 73
               6
 40
35.0
 49
30.0
 74
               0
 49
-1.0
 74
               0
 49
1.0
 74
               0
 49
-1.0
 74
               0
 49
1.0
 74
               0
 49
-1.0
 74
               0
  0
LTYPE
  5
2D
100
AcDbSymbolTableRecord
100
AcDbLinetypeTableRecord
  2
PHANTOM2
 70
              64
  3

 72
              65
 73
               6
 40
25.0
 49
20.0
 74
               0
 49
-1.0
 74
               0
 49
1.0
 74
               0
 49
-1.0
 74
               0
 49
1.0
 74
               0
 49
-1.0
 74
               0
  0
ENDTAB
  0
TABLE
  2
LAYER
  5
2
100
AcDbSymbolTable
 70
              22
  0
LAYER
  5
14
100
AcDbSymbolTableRecord
100
AcDbLayerTableRecord
  2
0
 70
               0
 62
               7
  6
Continuous
290
               1
370
              -3
390
1D
  0
LAYER
  5
2E
100
AcDbSymbolTableRecord
100
AcDbLayerTableRecord
  2
DEFPOINTS
 70
               0
 62
               7
  6
Continuous
290
               0
370
              -3
390
1D
  0
LAYER
  5
2F
100
AcDbSymbolTableRecord
100
AcDbLayerTableRecord
  2
____1
 70
               0
 62
               7
  6
Continuous
290
               1
370
              -3
390
1D
  0
LAYER
  5
30
100
AcDbSymbolTableRecord
100
AcDbLayerTableRecord
  2
______
 70
               0
 62
               7
  6
Continuous
290
               1
370
              -3
390
1D
  0
LAYER
  5
31
100
AcDbSymbolTableRecord
100
AcDbLayerTableRecord
  2
寸法線_1
 70
               0
 62
               7
  6
Continuous
290
               1
370
              -3
390
1D
  0
LAYER
  5
32
100
AcDbSymbolTableRecord
100
AcDbLayerTableRecord
  2
CONSTRUCTION
 70
               0
 62
               7
  6
Continuous
290
               1
370
              -3
390
1D
  0
LAYER
  5
33
100
AcDbSymbolTableRecord
100
AcDbLayerTableRecord
  2
DIMENSION
 70
               0
 62
               7
  6
Continuous
290
               1
370
              -3
390
1D
  0
LAYER
  5
34
100
AcDbSymbolTableRecord
100
AcDbLayerTableRecord
  2
FORMAT
 70
               0
 62
               7
  6
Continuous
290
               1
370
              -3
390
1D
  0
LAYER
  5
35
100
AcDbSymbolTableRecord
100
AcDbLayerTableRecord
  2
0_1
 70
               0
 62
               7
  6
Continuous
290
               1
370
              -3
390
1D
  0
LAYER
  5
36
100
AcDbSymbolTableRecord
100
AcDbLayerTableRecord
  2
2
 70
               0
 62
               7
  6
Continuous
290
               1
370
              -3
390
1D
  0
LAYER
  5
37
100
AcDbSymbolTableRecord
100
AcDbLayerTableRecord
  2
3
 70
               0
 62
               7
  6
Continuous
290
               1
370
              -3
390
1D
  0
LAYER
  5
38
100
AcDbSymbolTableRecord
100
AcDbLayerTableRecord
  2
1
 70
               0
 62
               7
  6
Continuous
290
               1
370
              -3
390
1D
  0
LAYER
  5
39
100
AcDbSymbolTableRecord
100
AcDbLayerTableRecord
  2
____2
 70
               0
 62
               5
  6
Continuous
290
               1
370
              -3
390
1D
  0
LAYER
  5
3A
100
AcDbSymbolTableRecord
100
AcDbLayerTableRecord
  2
DEFPOINTS_1
 70
               0
 62
               5
  6
Continuous
290
               1
370
              -3
390
1D
  0
LAYER
  5
3B
100
AcDbSymbolTableRecord
100
AcDbLayerTableRecord
  2
____
 70
               0
 62
               7
  6
DOT
290
               1
370
              -3
390
1D
  0
LAYER
  5
3C
100
AcDbSymbolTableRecord
100
AcDbLayerTableRecord
  2
___G
 70
               0
 62
               7
  6
DOT
290
               1
370
              -3
390
1D
  0
LAYER
  5
3D
100
AcDbSymbolTableRecord
100
AcDbLayerTableRecord
  2
____1_1
 70
               0
 62
              -7
  6
Continuous
290
               1
370
              -3
390
1D
  0
LAYER
  5
3E
100
AcDbSymbolTableRecord
100
AcDbLayerTableRecord
  2
________1
 70
               0
 62
               7
  6
Continuous
290
               1
370
              -3
390
1D
  0
LAYER
  5
3F
100
AcDbSymbolTableRecord
100
AcDbLayerTableRecord
  2
________1_____1
 70
               0
 62
               7
  6
Continuous
290
               1
370
              -3
390
1D
  0
LAYER
  5
40
100
AcDbSymbolTableRecord
100
AcDbLayerTableRecord
  2
________1________1
 70
               0
 62
               7
  6
Continuous
290
               1
370
              -3
390
1D
  0
LAYER
  5
41
100
AcDbSymbolTableRecord
100
AcDbLayerTableRecord
  2
_____
 70
               0
 62
              -7
  6
Continuous
290
               1
370
              -3
390
1D
  0
LAYER
  5
42
100
AcDbSymbolTableRecord
100
AcDbLayerTableRecord
  2
__________1
 70
               0
 62
              -7
  6
Continuous
290
               1
370
              -3
390
1D
  0
ENDTAB
  0
TABLE
  2
STYLE
  5
3
100
AcDbSymbolTable
 70
               2
  0
STYLE
  5
17
100
AcDbSymbolTableRecord
100
AcDbTextStyleTableRecord
  2
Standard
 70
               0
 40
0.0
 41
1.0
 50
0.0
 71
               0
 42
0.35
  3
txt
  4

  0
STYLE
  5
44
100
AcDbSymbolTableRecord
100
AcDbTextStyleTableRecord
  2
Style1
 70
               0
 40
0.0
 41
1.0
 50
0.0
 71
               0
 42
0.35
  3
ＭＳ ゴシック
  4

  0
ENDTAB
  0
TABLE
  2
VIEW
  5
5
100
AcDbSymbolTable
 70
               0
  0
ENDTAB
  0
TABLE
  2
UCS
  5
6
100
AcDbSymbolTable
 70
               0
  0
ENDTAB
  0
TABLE
  2
APPID
  5
8
100
AcDbSymbolTable
 70
               1
  0
APPID
  5
16
100
AcDbSymbolTableRecord
100
AcDbRegAppTableRecord
  2
ACAD
 70
               0
  0
ENDTAB
  0
TABLE
  2
DIMSTYLE
  5
9
100
AcDbSymbolTable
 70
               2
100
AcDbDimStyleTable
 71
               0
  0
DIMSTYLE
105
18
100
AcDbSymbolTableRecord
100
AcDbDimStyleTableRecord
  2
Standard
 70
               0
  3

  4

 40
1.0
 41
1.9318516525781366
 42
2.0
 43
0.38
 44
1.0
 45
0.0
 46
0.0
 47
0.0
 48
0.0
 71
               0
 72
               0
 73
               0
 74
               0
 75
               0
 76
               0
 77
               1
 78
               0
 79
               0
140
4.2333333333333325
141
0.09
142
0.0
143
25.399999999999999
144
1.0
145
0.0
146
1.0
147
1.0
148
0.0
170
               0
171
               5
172
               0
173
               0
174
               0
175
               0
176
               7
177
               7
178
               7
179
               0
271
               5
272
               4
273
               2
274
               2
275
               0
276
               0
277
               2
278
              46
279
               0
280
               0
281
               0
282
               0
283
               1
284
               0
285
               0
286
               0
288
               0
289
               0
340
17
341
0
342
0
343
0
344
0
371
              -2
372
              -2
  0
DIMSTYLE
105
21D
100
AcDbSymbolTableRecord
100
AcDbDimStyleTableRecord
  2
DS1
 70
               0
  3

  4

 40
1.0
 41
1.9318516525781366
 42
2.0
 43
0.38
 44
1.0
 45
0.0
 46
0.0
 47
0.0
 48
0.0
 71
               0
 72
               0
 73
               0
 74
               0
 75
               0
 76
               0
 77
               1
 78
               8
 79
               0
140
10.583333015441895
141
0.09
142
0.0
143
25.399999999999999
144
1.0
145
0.0
146
1.0
147
1.0
148
0.0
170
               0
171
               5
172
               0
173
               0
174
               0
175
               0
176
               7
177
               7
178
               7
179
               0
271
               5
272
               4
273
               2
274
               2
275
               0
276
               0
277
               2
278
              46
279
               0
280
               0
281
               0
282
               0
283
               1
284
               0
285
               0
286
               0
288
               0
289
               3
340
17
341
0
342
0
343
0
344
0
371
              -2
372
              -2
  0
ENDTAB
  0
TABLE
  2
BLOCK_RECORD
  5
1
100
AcDbSymbolTable
 70
              68
  0
BLOCK_RECORD
  5
A
100
AcDbSymbolTableRecord
100
AcDbBlockTableRecord
  2
*MODEL_SPACE
340
20
  0
BLOCK_RECORD
  5
B
100
AcDbSymbolTableRecord
100
AcDbBlockTableRecord
  2
*PAPER_SPACE
340
21
  0
BLOCK_RECORD
  5
49
100
AcDbSymbolTableRecord
100
AcDbBlockTableRecord
  2
C0
340
0
102
{BLKREFS
331
5C
102
}
  0
BLOCK_RECORD
  5
5D
100
AcDbSymbolTableRecord
100
AcDbBlockTableRecord
  2
C1
340
0
102
{BLKREFS
331
70
102
}
  0
BLOCK_RECORD
  5
71
100
AcDbSymbolTableRecord
100
AcDbBlockTableRecord
  2
C2
340
0
102
{BLKREFS
331
84
102
}
  0
BLOCK_RECORD
  5
85
100
AcDbSymbolTableRecord
100
AcDbBlockTableRecord
  2
C3
340
0
102
{BLKREFS
331
98
102
}
  0
BLOCK_RECORD
  5
87
100
AcDbSymbolTableRecord
100
AcDbBlockTableRecord
  2
C4
340
0
102
{BLKREFS
331
8E
102
}
  0
BLOCK_RECORD
  5
99
100
AcDbSymbolTableRecord
100
AcDbBlockTableRecord
  2
C5
340
0
102
{BLKREFS
331
AC
102
}
  0
BLOCK_RECORD
  5
9B
100
AcDbSymbolTableRecord
100
AcDbBlockTableRecord
  2
C6
340
0
102
{BLKREFS
331
A2
102
}
  0
BLOCK_RECORD
  5
AD
100
AcDbSymbolTableRecord
100
AcDbBlockTableRecord
  2
C7
340
0
102
{BLKREFS
331
C0
102
}
  0
BLOCK_RECORD
  5
C1
100
AcDbSymbolTableRecord
100
AcDbBlockTableRecord
  2
C8
340
0
102
{BLKREFS
331
D4
102
}
  0
BLOCK_RECORD
  5
D5
100
AcDbSymbolTableRecord
100
AcDbBlockTableRecord
  2
C9
340
0
102
{BLKREFS
331
E8
102
}
  0
BLOCK_RECORD
  5
E9
100
AcDbSymbolTableRecord
100
AcDbBlockTableRecord
  2
C10
340
0
102
{BLKREFS
331
FC
102
}
  0
BLOCK_RECORD
  5
10A
100
AcDbSymbolTableRecord
100
AcDbBlockTableRecord
  2
C11
340
0
102
{BLKREFS
331
11D
102
}
  0
BLOCK_RECORD
  5
11E
100
AcDbSymbolTableRecord
100
AcDbBlockTableRecord
  2
C12
340
0
102
{BLKREFS
331
131
102
}
  0
BLOCK_RECORD
  5
132
100
AcDbSymbolTableRecord
100
AcDbBlockTableRecord
  2
C13
340
0
102
{BLKREFS
331
145
102
}
  0
BLOCK_RECORD
  5
149
100
AcDbSymbolTableRecord
100
AcDbBlockTableRecord
  2
C14
340
0
102
{BLKREFS
331
1D8
102
}
  0
BLOCK_RECORD
  5
14B
100
AcDbSymbolTableRecord
100
AcDbBlockTableRecord
  2
C15
340
0
102
{BLKREFS
331
15E
102
}
  0
BLOCK_RECORD
  5
15F
100
AcDbSymbolTableRecord
100
AcDbBlockTableRecord
  2
C16
340
0
102
{BLKREFS
331
172
102
}
  0
BLOCK_RECORD
  5
173
100
AcDbSymbolTableRecord
100
AcDbBlockTableRecord
  2
C17
340
0
102
{BLKREFS
331
186
102
}
  0
BLOCK_RECORD
  5
187
100
AcDbSymbolTableRecord
100
AcDbBlockTableRecord
  2
C18
340
0
102
{BLKREFS
331
19A
102
}
  0
BLOCK_RECORD
  5
19B
100
AcDbSymbolTableRecord
100
AcDbBlockTableRecord
  2
C19
340
0
102
{BLKREFS
331
1AE
102
}
  0
BLOCK_RECORD
  5
1AF
100
AcDbSymbolTableRecord
100
AcDbBlockTableRecord
  2
C20
340
0
102
{BLKREFS
331
1C2
102
}
  0
BLOCK_RECORD
  5
1C3
100
AcDbSymbolTableRecord
100
AcDbBlockTableRecord
  2
C21
340
0
102
{BLKREFS
331
1D6
102
}
  0
BLOCK_RECORD
  5
1DA
100
AcDbSymbolTableRecord
100
AcDbBlockTableRecord
  2
C22
340
0
102
{BLKREFS
331
1ED
102
}
  0
BLOCK_RECORD
  5
1DC
100
AcDbSymbolTableRecord
100
AcDbBlockTableRecord
  2
C23
340
0
102
{BLKREFS
331
1E3
102
}
  0
BLOCK_RECORD
  5
1EE
100
AcDbSymbolTableRecord
100
AcDbBlockTableRecord
  2
C24
340
0
102
{BLKREFS
331
201
102
}
  0
BLOCK_RECORD
  5
1F0
100
AcDbSymbolTableRecord
100
AcDbBlockTableRecord
  2
C25
340
0
102
{BLKREFS
331
1F7
102
}
  0
BLOCK_RECORD
  5
210
100
AcDbSymbolTableRecord
100
AcDbBlockTableRecord
  2
*D26
340
0
  0
BLOCK_RECORD
  5
21F
100
AcDbSymbolTableRecord
100
AcDbBlockTableRecord
  2
C26
340
0
102
{BLKREFS
331
232
102
}
  0
BLOCK_RECORD
  5
233
100
AcDbSymbolTableRecord
100
AcDbBlockTableRecord
  2
C27
340
0
102
{BLKREFS
331
246
102
}
  0
BLOCK_RECORD
  5
247
100
AcDbSymbolTableRecord
100
AcDbBlockTableRecord
  2
C28
340
0
102
{BLKREFS
331
25A
102
}
  0
BLOCK_RECORD
  5
25B
100
AcDbSymbolTableRecord
100
AcDbBlockTableRecord
  2
C29
340
0
102
{BLKREFS
331
26E
102
}
  0
BLOCK_RECORD
  5
26F
100
AcDbSymbolTableRecord
100
AcDbBlockTableRecord
  2
C30
340
0
102
{BLKREFS
331
282
102
}
  0
BLOCK_RECORD
  5
283
100
AcDbSymbolTableRecord
100
AcDbBlockTableRecord
  2
C31
340
0
102
{BLKREFS
331
296
102
}
  0
BLOCK_RECORD
  5
285
100
AcDbSymbolTableRecord
100
AcDbBlockTableRecord
  2
C32
340
0
102
{BLKREFS
331
28C
102
}
  0
BLOCK_RECORD
  5
297
100
AcDbSymbolTableRecord
100
AcDbBlockTableRecord
  2
C33
340
0
102
{BLKREFS
331
2AC
102
}
  0
BLOCK_RECORD
  5
2AD
100
AcDbSymbolTableRecord
100
AcDbBlockTableRecord
  2
C34
340
0
102
{BLKREFS
331
2C0
102
}
  0
BLOCK_RECORD
  5
376
100
AcDbSymbolTableRecord
100
AcDbBlockTableRecord
  2
C35
340
0
102
{BLKREFS
331
389
102
}
  0
BLOCK_RECORD
  5
38A
100
AcDbSymbolTableRecord
100
AcDbBlockTableRecord
  2
C36
340
0
102
{BLKREFS
331
39F
102
}
  0
BLOCK_RECORD
  5
3A0
100
AcDbSymbolTableRecord
100
AcDbBlockTableRecord
  2
C37
340
0
102
{BLKREFS
331
3B3
102
}
  0
BLOCK_RECORD
  5
3B4
100
AcDbSymbolTableRecord
100
AcDbBlockTableRecord
  2
C38
340
0
102
{BLKREFS
331
3C7
102
}
  0
BLOCK_RECORD
  5
3E2
100
AcDbSymbolTableRecord
100
AcDbBlockTableRecord
  2
*D40
340
0
  0
BLOCK_RECORD
  5
3F0
100
AcDbSymbolTableRecord
100
AcDbBlockTableRecord
  2
*D41
340
0
  0
BLOCK_RECORD
  5
413
100
AcDbSymbolTableRecord
100
AcDbBlockTableRecord
  2
*D42
340
0
  0
BLOCK_RECORD
  5
421
100
AcDbSymbolTableRecord
100
AcDbBlockTableRecord
  2
*D43
340
0
  0
BLOCK_RECORD
  5
42E
100
AcDbSymbolTableRecord
100
AcDbBlockTableRecord
  2
C39
340
0
102
{BLKREFS
331
4BD
102
}
  0
BLOCK_RECORD
  5
430
100
AcDbSymbolTableRecord
100
AcDbBlockTableRecord
  2
C40
340
0
102
{BLKREFS
331
443
102
}
  0
BLOCK_RECORD
  5
444
100
AcDbSymbolTableRecord
100
AcDbBlockTableRecord
  2
C41
340
0
102
{BLKREFS
331
457
102
}
  0
BLOCK_RECORD
  5
458
100
AcDbSymbolTableRecord
100
AcDbBlockTableRecord
  2
C42
340
0
102
{BLKREFS
331
46B
102
}
  0
BLOCK_RECORD
  5
46C
100
AcDbSymbolTableRecord
100
AcDbBlockTableRecord
  2
C43
340
0
102
{BLKREFS
331
47F
102
}
  0
BLOCK_RECORD
  5
480
100
AcDbSymbolTableRecord
100
AcDbBlockTableRecord
  2
C44
340
0
102
{BLKREFS
331
493
102
}
  0
BLOCK_RECORD
  5
494
100
AcDbSymbolTableRecord
100
AcDbBlockTableRecord
  2
C45
340
0
102
{BLKREFS
331
4A7
102
}
  0
BLOCK_RECORD
  5
4A8
100
AcDbSymbolTableRecord
100
AcDbBlockTableRecord
  2
C46
340
0
102
{BLKREFS
331
4BB
102
}
  0
BLOCK_RECORD
  5
4C2
100
AcDbSymbolTableRecord
100
AcDbBlockTableRecord
  2
*D52
340
0
  0
BLOCK_RECORD
  5
4D2
100
AcDbSymbolTableRecord
100
AcDbBlockTableRecord
  2
*D53
340
0
  0
BLOCK_RECORD
  5
4E1
100
AcDbSymbolTableRecord
100
AcDbBlockTableRecord
  2
*D54
340
0
  0
BLOCK_RECORD
  5
4F6
100
AcDbSymbolTableRecord
100
AcDbBlockTableRecord
  2
C47
340
0
102
{BLKREFS
331
585
102
}
  0
BLOCK_RECORD
  5
4F8
100
AcDbSymbolTableRecord
100
AcDbBlockTableRecord
  2
C48
340
0
102
{BLKREFS
331
50B
102
}
  0
BLOCK_RECORD
  5
50C
100
AcDbSymbolTableRecord
100
AcDbBlockTableRecord
  2
C49
340
0
102
{BLKREFS
331
51F
102
}
  0
BLOCK_RECORD
  5
520
100
AcDbSymbolTableRecord
100
AcDbBlockTableRecord
  2
C50
340
0
102
{BLKREFS
331
533
102
}
  0
BLOCK_RECORD
  5
534
100
AcDbSymbolTableRecord
100
AcDbBlockTableRecord
  2
C51
340
0
102
{BLKREFS
331
547
102
}
  0
BLOCK_RECORD
  5
548
100
AcDbSymbolTableRecord
100
AcDbBlockTableRecord
  2
C52
340
0
102
{BLKREFS
331
55B
102
}
  0
BLOCK_RECORD
  5
55C
100
AcDbSymbolTableRecord
100
AcDbBlockTableRecord
  2
C53
340
0
102
{BLKREFS
331
56F
102
}
  0
BLOCK_RECORD
  5
570
100
AcDbSymbolTableRecord
100
AcDbBlockTableRecord
  2
C54
340
0
102
{BLKREFS
331
583
102
}
  0
BLOCK_RECORD
  5
587
100
AcDbSymbolTableRecord
100
AcDbBlockTableRecord
  2
*D63
340
0
  0
BLOCK_RECORD
  5
594
100
AcDbSymbolTableRecord
100
AcDbBlockTableRecord
  2
*D64
340
0
  0
BLOCK_RECORD
  5
5A1
100
AcDbSymbolTableRecord
100
AcDbBlockTableRecord
  2
*D65
340
0
  0
BLOCK_RECORD
  5
5AF
100
AcDbSymbolTableRecord
100
AcDbBlockTableRecord
  2
*D66
340
0
  0
BLOCK_RECORD
  5
5D1
100
AcDbSymbolTableRecord
100
AcDbBlockTableRecord
  2
*D67
340
0
  0
ENDTAB
  0
ENDSEC
  0
SECTION
  2
BLOCKS
  0
BLOCK
  5
D
100
AcDbEntity
  8
0
390
0
100
AcDbBlockBegin
  2
*MODEL_SPACE
 70
               0
 10
0.0
 20
0.0
 30
0.0
  3
*MODEL_SPACE
  1

  0
ENDBLK
  5
E
100
AcDbEntity
  8
0
390
0
100
AcDbBlockEnd
  0
BLOCK
  5
F
100
AcDbEntity
 67
               1
  8
0
390
0
100
AcDbBlockBegin
  2
*PAPER_SPACE
 70
               0
 10
0.0
 20
0.0
 30
0.0
  3
*PAPER_SPACE
  1

  0
ENDBLK
  5
10
100
AcDbEntity
 67
               1
  8
0
390
0
100
AcDbBlockEnd
  0
BLOCK
  5
4A
100
AcDbEntity
  8
0
390
0
100
AcDbBlockBegin
  2
C0
 70
              64
 10
0.0
 20
0.0
 30
0.0
  3
C0
  1

  0
ARC
  5
4B
100
AcDbEntity
  8
________1________1
370
              18
390
0
  6
Continuous
 62
               7
100
AcDbCircle
 10
58.712725389254842
 20
33.704688818276338
 30
0.0
 40
0.3000000000000682
100
AcDbArc
 50
-90.0
 51
-45.0
  0
LINE
  5
4C
100
AcDbEntity
  8
________1________1
370
              18
390
0
  6
Continuous
 62
               7
100
AcDbLine
 10
60.324857423610752
 20
34.892556783920384
 30
0.0
 11
58.924857423610888
 21
33.492556783920406
 31
0.0
  0
ARC
  5
4D
100
AcDbEntity
  8
________1________1
370
              18
390
0
  6
Continuous
 62
               7
100
AcDbCircle
 10
60.112725389254706
 20
35.104688818276315
 30
0.0
 40
0.3000000000000346
100
AcDbArc
 50
-44.999999999984652
 51
90.0
  0
LINE
  5
4E
100
AcDbEntity
  8
________1________1
370
              18
390
0
  6
Continuous
 62
               7
100
AcDbLine
 10
53.149121492322706
 20
33.492556783920406
 30
0.0
 11
51.749121492322843
 21
34.892556783920384
 31
0.0
  0
LINE
  5
4F
100
AcDbEntity
  8
________1________1
370
              18
390
0
  6
Continuous
 62
               7
100
AcDbLine
 10
51.961253526678888
 20
35.40468881827627
 30
0.0
 11
60.112725389254706
 21
35.40468881827627
 31
0.0
  0
ARC
  5
50
100
AcDbEntity
  8
________1________1
370
              18
390
0
  6
Continuous
 62
               7
100
AcDbCircle
 10
51.961253526678888
 20
35.104688818276315
 30
0.0
 40
0.2999999999999545
100
AcDbArc
 50
90.0
 51
-135.00000000001538
  0
ARC
  5
51
100
AcDbEntity
  8
________1________1
370
              18
390
0
  6
Continuous
 62
               7
100
AcDbCircle
 10
53.361253526678524
 20
33.704688818276338
 30
0.0
 40
0.2999999999999542
100
AcDbArc
 50
-134.99999999996928
 51
-90.0
  0
LINE
  5
52
100
AcDbEntity
  8
________1________1
370
              18
390
0
  6
Continuous
 62
               7
100
AcDbLine
 10
58.712725389254842
 20
33.40468881827627
 30
0.0
 11
53.361253526678752
 21
33.40468881827627
 31
0.0
  0
LINE
  5
53
100
AcDbEntity
  8
________1________1
370
              18
390
0
  6
Continuous
 62
               7
100
AcDbLine
 10
60.112725389254706
 20
28.404688818276341
 30
0.0
 11
51.961253526678888
 21
28.404688818276341
 31
0.0
  0
LINE
  5
54
100
AcDbEntity
  8
________1________1
370
              18
390
0
  6
Continuous
 62
               7
100
AcDbLine
 10
51.749121492322843
 20
28.916820852632341
 30
0.0
 11
53.149121492322706
 21
30.316820852632318
 31
0.0
  0
ARC
  5
55
100
AcDbEntity
  8
________1________1
370
              18
390
0
  6
Continuous
 62
               7
100
AcDbCircle
 10
51.961253526678888
 20
28.704688818276296
 30
0.0
 40
0.3000000000000748
100
AcDbArc
 50
135.00000000000767
 51
-90.0
  0
ARC
  5
56
100
AcDbEntity
  8
________1________1
370
              18
390
0
  6
Continuous
 62
               7
100
AcDbCircle
 10
60.112725389254706
 20
28.704688818276296
 30
0.0
 40
0.2999999999999545
100
AcDbArc
 50
-90.0
 51
44.999999999984652
  0
LINE
  5
57
100
AcDbEntity
  8
________1________1
370
              18
390
0
  6
Continuous
 62
               7
100
AcDbLine
 10
58.924857423610888
 20
30.316820852632318
 30
0.0
 11
60.324857423610752
 21
28.916820852632341
 31
0.0
  0
ARC
  5
58
100
AcDbEntity
  8
________1________1
370
              18
390
0
  6
Continuous
 62
               7
100
AcDbCircle
 10
58.712725389254842
 20
30.10468881827633
 30
0.0
 40
0.3000000000000346
100
AcDbArc
 50
44.999999999984652
 51
90.0
  0
ARC
  5
59
100
AcDbEntity
  8
________1________1
370
              18
390
0
  6
Continuous
 62
               7
100
AcDbCircle
 10
53.361253526678524
 20
30.10468881827633
 30
0.0
 40
0.3000000000000114
100
AcDbArc
 50
90.0
 51
135.00000000001538
  0
LINE
  5
5A
100
AcDbEntity
  8
________1________1
370
              18
390
0
  6
Continuous
 62
               7
100
AcDbLine
 10
53.361253526678752
 20
30.404688818276341
 30
0.0
 11
58.712725389254842
 21
30.404688818276341
 31
0.0
  0
ENDBLK
  5
5B
100
AcDbEntity
  8
0
390
0
100
AcDbBlockEnd
  0
BLOCK
  5
5E
100
AcDbEntity
  8
0
390
0
100
AcDbBlockBegin
  2
C1
 70
              64
 10
0.0
 20
0.0
 30
0.0
  3
C1
  1

  0
ARC
  5
5F
100
AcDbEntity
  8
________1________1
370
              18
390
0
  6
Continuous
 62
               7
100
AcDbCircle
 10
78.712725389254842
 20
33.704688818276338
 30
0.0
 40
0.3000000000000682
100
AcDbArc
 50
-90.0
 51
-45.0
  0
LINE
  5
60
100
AcDbEntity
  8
________1________1
370
              18
390
0
  6
Continuous
 62
               7
100
AcDbLine
 10
80.324857423610752
 20
34.892556783920384
 30
0.0
 11
78.924857423610888
 21
33.492556783920406
 31
0.0
  0
ARC
  5
61
100
AcDbEntity
  8
________1________1
370
              18
390
0
  6
Continuous
 62
               7
100
AcDbCircle
 10
80.112725389254706
 20
35.104688818276315
 30
0.0
 40
0.3000000000000346
100
AcDbArc
 50
-44.999999999984652
 51
90.0
  0
LINE
  5
62
100
AcDbEntity
  8
________1________1
370
              18
390
0
  6
Continuous
 62
               7
100
AcDbLine
 10
73.149121492322706
 20
33.492556783920406
 30
0.0
 11
71.749121492322843
 21
34.892556783920384
 31
0.0
  0
LINE
  5
63
100
AcDbEntity
  8
________1________1
370
              18
390
0
  6
Continuous
 62
               7
100
AcDbLine
 10
71.961253526678888
 20
35.40468881827627
 30
0.0
 11
80.112725389254706
 21
35.40468881827627
 31
0.0
  0
ARC
  5
64
100
AcDbEntity
  8
________1________1
370
              18
390
0
  6
Continuous
 62
               7
100
AcDbCircle
 10
71.961253526678888
 20
35.104688818276315
 30
0.0
 40
0.2999999999999545
100
AcDbArc
 50
90.0
 51
-135.00000000001538
  0
ARC
  5
65
100
AcDbEntity
  8
________1________1
370
              18
390
0
  6
Continuous
 62
               7
100
AcDbCircle
 10
73.361253526678524
 20
33.704688818276338
 30
0.0
 40
0.2999999999999542
100
AcDbArc
 50
-134.99999999996928
 51
-90.0
  0
LINE
  5
66
100
AcDbEntity
  8
________1________1
370
              18
390
0
  6
Continuous
 62
               7
100
AcDbLine
 10
78.712725389254842
 20
33.40468881827627
 30
0.0
 11
73.361253526678752
 21
33.40468881827627
 31
0.0
  0
LINE
  5
67
100
AcDbEntity
  8
________1________1
370
              18
390
0
  6
Continuous
 62
               7
100
AcDbLine
 10
80.112725389254706
 20
28.404688818276341
 30
0.0
 11
71.961253526678888
 21
28.404688818276341
 31
0.0
  0
LINE
  5
68
100
AcDbEntity
  8
________1________1
370
              18
390
0
  6
Continuous
 62
               7
100
AcDbLine
 10
71.749121492322843
 20
28.916820852632341
 30
0.0
 11
73.149121492322706
 21
30.316820852632318
 31
0.0
  0
ARC
  5
69
100
AcDbEntity
  8
________1________1
370
              18
390
0
  6
Continuous
 62
               7
100
AcDbCircle
 10
71.961253526678888
 20
28.704688818276296
 30
0.0
 40
0.3000000000000748
100
AcDbArc
 50
135.00000000000767
 51
-90.0
  0
ARC
  5
6A
100
AcDbEntity
  8
________1________1
370
              18
390
0
  6
Continuous
 62
               7
100
AcDbCircle
 10
80.112725389254706
 20
28.704688818276296
 30
0.0
 40
0.2999999999999545
100
AcDbArc
 50
-90.0
 51
44.999999999984652
  0
LINE
  5
6B
100
AcDbEntity
  8
________1________1
370
              18
390
0
  6
Continuous
 62
               7
100
AcDbLine
 10
78.924857423610888
 20
30.316820852632318
 30
0.0
 11
80.324857423610752
 21
28.916820852632341
 31
0.0
  0
ARC
  5
6C
100
AcDbEntity
  8
________1________1
370
              18
390
0
  6
Continuous
 62
               7
100
AcDbCircle
 10
78.712725389254842
 20
30.10468881827633
 30
0.0
 40
0.3000000000000346
100
AcDbArc
 50
44.999999999984652
 51
90.0
  0
ARC
  5
6D
100
AcDbEntity
  8
________1________1
370
              18
390
0
  6
Continuous
 62
               7
100
AcDbCircle
 10
73.361253526678524
 20
30.10468881827633
 30
0.0
 40
0.3000000000000114
100
AcDbArc
 50
90.0
 51
135.00000000001538
  0
LINE
  5
6E
100
AcDbEntity
  8
________1________1
370
              18
390
0
  6
Continuous
 62
               7
100
AcDbLine
 10
73.361253526678752
 20
30.404688818276341
 30
0.0
 11
78.712725389254842
 21
30.404688818276341
 31
0.0
  0
ENDBLK
  5
6F
100
AcDbEntity
  8
0
390
0
100
AcDbBlockEnd
  0
BLOCK
  5
72
100
AcDbEntity
  8
0
390
0
100
AcDbBlockBegin
  2
C2
 70
              64
 10
0.0
 20
0.0
 30
0.0
  3
C2
  1

  0
ARC
  5
73
100
AcDbEntity
  8
________1________1
370
              18
390
0
  6
Continuous
 62
               7
100
AcDbCircle
 10
98.712725389254842
 20
33.704688818276338
 30
0.0
 40
0.3000000000000682
100
AcDbArc
 50
-90.0
 51
-45.0
  0
LINE
  5
74
100
AcDbEntity
  8
________1________1
370
              18
390
0
  6
Continuous
 62
               7
100
AcDbLine
 10
100.32485742361075
 20
34.892556783920384
 30
0.0
 11
98.924857423610888
 21
33.492556783920406
 31
0.0
  0
ARC
  5
75
100
AcDbEntity
  8
________1________1
370
              18
390
0
  6
Continuous
 62
               7
100
AcDbCircle
 10
100.11272538925471
 20
35.104688818276315
 30
0.0
 40
0.3000000000000346
100
AcDbArc
 50
-44.999999999984652
 51
90.0
  0
LINE
  5
76
100
AcDbEntity
  8
________1________1
370
              18
390
0
  6
Continuous
 62
               7
100
AcDbLine
 10
93.149121492322706
 20
33.492556783920406
 30
0.0
 11
91.749121492322843
 21
34.892556783920384
 31
0.0
  0
LINE
  5
77
100
AcDbEntity
  8
________1________1
370
              18
390
0
  6
Continuous
 62
               7
100
AcDbLine
 10
91.961253526678888
 20
35.40468881827627
 30
0.0
 11
100.11272538925471
 21
35.40468881827627
 31
0.0
  0
ARC
  5
78
100
AcDbEntity
  8
________1________1
370
              18
390
0
  6
Continuous
 62
               7
100
AcDbCircle
 10
91.961253526678888
 20
35.104688818276315
 30
0.0
 40
0.2999999999999545
100
AcDbArc
 50
90.0
 51
-135.00000000001538
  0
ARC
  5
79
100
AcDbEntity
  8
________1________1
370
              18
390
0
  6
Continuous
 62
               7
100
AcDbCircle
 10
93.361253526678524
 20
33.704688818276338
 30
0.0
 40
0.2999999999999542
100
AcDbArc
 50
-134.99999999996928
 51
-90.0
  0
LINE
  5
7A
100
AcDbEntity
  8
________1________1
370
              18
390
0
  6
Continuous
 62
               7
100
AcDbLine
 10
98.712725389254842
 20
33.40468881827627
 30
0.0
 11
93.361253526678752
 21
33.40468881827627
 31
0.0
  0
LINE
  5
7B
100
AcDbEntity
  8
________1________1
370
              18
390
0
  6
Continuous
 62
               7
100
AcDbLine
 10
100.11272538925471
 20
28.404688818276341
 30
0.0
 11
91.961253526678888
 21
28.404688818276341
 31
0.0
  0
LINE
  5
7C
100
AcDbEntity
  8
________1________1
370
              18
390
0
  6
Continuous
 62
               7
100
AcDbLine
 10
91.749121492322843
 20
28.916820852632341
 30
0.0
 11
93.149121492322706
 21
30.316820852632318
 31
0.0
  0
ARC
  5
7D
100
AcDbEntity
  8
________1________1
370
              18
390
0
  6
Continuous
 62
               7
100
AcDbCircle
 10
91.961253526678888
 20
28.704688818276296
 30
0.0
 40
0.3000000000000748
100
AcDbArc
 50
135.00000000000767
 51
-90.0
  0
ARC
  5
7E
100
AcDbEntity
  8
________1________1
370
              18
390
0
  6
Continuous
 62
               7
100
AcDbCircle
 10
100.11272538925471
 20
28.704688818276296
 30
0.0
 40
0.2999999999999545
100
AcDbArc
 50
-90.0
 51
44.999999999984652
  0
LINE
  5
7F
100
AcDbEntity
  8
________1________1
370
              18
390
0
  6
Continuous
 62
               7
100
AcDbLine
 10
98.924857423610888
 20
30.316820852632318
 30
0.0
 11
100.32485742361075
 21
28.916820852632341
 31
0.0
  0
ARC
  5
80
100
AcDbEntity
  8
________1________1
370
              18
390
0
  6
Continuous
 62
               7
100
AcDbCircle
 10
98.712725389254842
 20
30.10468881827633
 30
0.0
 40
0.3000000000000346
100
AcDbArc
 50
44.999999999984652
 51
90.0
  0
ARC
  5
81
100
AcDbEntity
  8
________1________1
370
              18
390
0
  6
Continuous
 62
               7
100
AcDbCircle
 10
93.361253526678524
 20
30.10468881827633
 30
0.0
 40
0.3000000000000114
100
AcDbArc
 50
90.0
 51
135.00000000001538
  0
LINE
  5
82
100
AcDbEntity
  8
________1________1
370
              18
390
0
  6
Continuous
 62
               7
100
AcDbLine
 10
93.361253526678752
 20
30.404688818276341
 30
0.0
 11
98.712725389254842
 21
30.404688818276341
 31
0.0
  0
ENDBLK
  5
83
100
AcDbEntity
  8
0
390
0
100
AcDbBlockEnd
  0
BLOCK
  5
86
100
AcDbEntity
  8
0
390
0
100
AcDbBlockBegin
  2
C3
 70
              64
 10
0.0
 20
0.0
 30
0.0
  3
C3
  1

  0
INSERT
  5
8E
100
AcDbEntity
  8
____1
370
               5
390
0
  6
CENTER2
 62
               7
100
AcDbBlockReference
  2
C4
 10
0.0
 20
0.0
 30
0.0
  0
ARC
  5
8F
100
AcDbEntity
  8
________1________1
370
               5
390
0
  6
DASHED
 62
               7
100
AcDbCircle
 10
46.036989457966797
 20
31.904688818276398
 30
0.0
 40
3.8298989873223377
100
AcDbArc
 50
-90.0
 51
90.0
  0
ARC
  5
90
100
AcDbEntity
  8
________1________1
370
              18
390
0
  6
Continuous
 62
               7
100
AcDbCircle
 10
46.036989457966797
 20
31.904688818276398
 30
0.0
 40
1.75
100
AcDbArc
 50
-90.0
 51
0.0000000000074443
  0
ARC
  5
91
100
AcDbEntity
  8
________1________1
370
              18
390
0
  6
Continuous
 62
               7
100
AcDbCircle
 10
46.036989457966797
 20
31.904688818276398
 30
0.0
 40
1.75
100
AcDbArc
 50
0.0000000000055832
 51
90.0
  0
ARC
  5
92
100
AcDbEntity
  8
________1________1
370
               5
390
0
  6
DASHED
 62
               7
100
AcDbCircle
 10
46.036989457966797
 20
31.904688818276398
 30
0.0
 40
3.8298989873223803
100
AcDbArc
 50
90.0
 51
-90.0
  0
CIRCLE
  5
93
100
AcDbEntity
  8
________1________1
370
              18
390
0
  6
Continuous
 62
               7
100
AcDbCircle
 10
46.03698945796657
 20
31.904688818276625
 30
0.0
 40
3.25
210
0.0
220
0.0
230
1.0
  0
ARC
  5
94
100
AcDbEntity
  8
________1________1
370
              18
390
0
  6
Continuous
 62
               7
100
AcDbCircle
 10
46.036989457966797
 20
31.904688818276398
 30
0.0
 40
1.7499999999999858
100
AcDbArc
 50
90.0
 51
179.99999999999258
  0
CIRCLE
  5
95
100
AcDbEntity
  8
________1________1
370
               5
390
0
  6
DASHED
 62
               7
100
AcDbCircle
 10
46.036989457966797
 20
31.904688818276398
 30
0.0
 40
2.7399494936611291
210
0.0
220
0.0
230
1.0
  0
ARC
  5
96
100
AcDbEntity
  8
________1________1
370
              18
390
0
  6
Continuous
 62
               7
100
AcDbCircle
 10
46.036989457966797
 20
31.904688818276398
 30
0.0
 40
1.75
100
AcDbArc
 50
179.99999999999443
 51
-90.0
  0
ENDBLK
  5
97
100
AcDbEntity
  8
0
390
0
100
AcDbBlockEnd
  0
BLOCK
  5
88
100
AcDbEntity
  8
0
390
0
100
AcDbBlockBegin
  2
C4
 70
              64
 10
0.0
 20
0.0
 30
0.0
  3
C4
  1

  0
LINE
  5
89
100
AcDbEntity
  8
____1
370
               5
390
0
  6
CENTER2
 62
               7
100
AcDbLine
 10
46.036989457966797
 20
31.904688818276398
 30
0.0
 11
40.707090470644403
 21
31.904688818276398
 31
0.0
  0
LINE
  5
8A
100
AcDbEntity
  8
____1
370
               5
390
0
  6
CENTER2
 62
               7
100
AcDbLine
 10
46.036989457966797
 20
31.904688818276398
 30
0.0
 11
46.036989457966797
 21
26.57478983095406
 31
0.0
  0
LINE
  5
8B
100
AcDbEntity
  8
____1
370
               5
390
0
  6
CENTER2
 62
               7
100
AcDbLine
 10
46.036989457966797
 20
31.904688818276398
 30
0.0
 11
51.366888445289192
 21
31.904688818276398
 31
0.0
  0
LINE
  5
8C
100
AcDbEntity
  8
____1
370
               5
390
0
  6
CENTER2
 62
               7
100
AcDbLine
 10
46.036989457966797
 20
31.904688818276398
 30
0.0
 11
46.036989457966797
 21
37.234587805598721
 31
0.0
  0
ENDBLK
  5
8D
100
AcDbEntity
  8
0
390
0
100
AcDbBlockEnd
  0
BLOCK
  5
9A
100
AcDbEntity
  8
0
390
0
100
AcDbBlockBegin
  2
C5
 70
              64
 10
0.0
 20
0.0
 30
0.0
  3
C5
  1

  0
INSERT
  5
A2
100
AcDbEntity
  8
____1
370
               5
390
0
  6
CENTER2
 62
               7
100
AcDbBlockReference
  2
C6
 10
0.0
 20
0.0
 30
0.0
  0
ARC
  5
A3
100
AcDbEntity
  8
________1________1
370
               5
390
0
  6
DASHED
 62
               7
100
AcDbCircle
 10
207.6168796115453
 20
31.904688818276398
 30
0.0
 40
3.8298989873223377
100
AcDbArc
 50
-90.0
 51
90.0
  0
ARC
  5
A4
100
AcDbEntity
  8
________1________1
370
              18
390
0
  6
Continuous
 62
               7
100
AcDbCircle
 10
207.6168796115453
 20
31.904688818276398
 30
0.0
 40
1.75
100
AcDbArc
 50
-90.0
 51
0.0000000000074443
  0
ARC
  5
A5
100
AcDbEntity
  8
________1________1
370
              18
390
0
  6
Continuous
 62
               7
100
AcDbCircle
 10
207.6168796115453
 20
31.904688818276398
 30
0.0
 40
1.75
100
AcDbArc
 50
0.0000000000055832
 51
90.0
  0
ARC
  5
A6
100
AcDbEntity
  8
________1________1
370
               5
390
0
  6
DASHED
 62
               7
100
AcDbCircle
 10
207.6168796115453
 20
31.904688818276398
 30
0.0
 40
3.8298989873223803
100
AcDbArc
 50
90.0
 51
-90.0
  0
CIRCLE
  5
A7
100
AcDbEntity
  8
________1________1
370
              18
390
0
  6
Continuous
 62
               7
100
AcDbCircle
 10
207.6168796115453
 20
31.904688818276625
 30
0.0
 40
3.25
210
0.0
220
0.0
230
1.0
  0
ARC
  5
A8
100
AcDbEntity
  8
________1________1
370
              18
390
0
  6
Continuous
 62
               7
100
AcDbCircle
 10
207.6168796115453
 20
31.904688818276398
 30
0.0
 40
1.7499999999999858
100
AcDbArc
 50
90.0
 51
179.99999999999258
  0
CIRCLE
  5
A9
100
AcDbEntity
  8
________1________1
370
               5
390
0
  6
DASHED
 62
               7
100
AcDbCircle
 10
207.6168796115453
 20
31.904688818276398
 30
0.0
 40
2.7399494936611291
210
0.0
220
0.0
230
1.0
  0
ARC
  5
AA
100
AcDbEntity
  8
________1________1
370
              18
390
0
  6
Continuous
 62
               7
100
AcDbCircle
 10
207.6168796115453
 20
31.904688818276398
 30
0.0
 40
1.75
100
AcDbArc
 50
179.99999999999443
 51
-90.0
  0
ENDBLK
  5
AB
100
AcDbEntity
  8
0
390
0
100
AcDbBlockEnd
  0
BLOCK
  5
9C
100
AcDbEntity
  8
0
390
0
100
AcDbBlockBegin
  2
C6
 70
              64
 10
0.0
 20
0.0
 30
0.0
  3
C6
  1

  0
LINE
  5
9D
100
AcDbEntity
  8
____1
370
               5
390
0
  6
CENTER2
 62
               7
100
AcDbLine
 10
207.6168796115453
 20
31.904688818276398
 30
0.0
 11
202.28698062422245
 21
31.904688818276398
 31
0.0
  0
LINE
  5
9E
100
AcDbEntity
  8
____1
370
               5
390
0
  6
CENTER2
 62
               7
100
AcDbLine
 10
207.6168796115453
 20
31.904688818276398
 30
0.0
 11
207.6168796115453
 21
26.57478983095406
 31
0.0
  0
LINE
  5
9F
100
AcDbEntity
  8
____1
370
               5
390
0
  6
CENTER2
 62
               7
100
AcDbLine
 10
207.6168796115453
 20
31.904688818276398
 30
0.0
 11
212.94677859886724
 21
31.904688818276398
 31
0.0
  0
LINE
  5
A0
100
AcDbEntity
  8
____1
370
               5
390
0
  6
CENTER2
 62
               7
100
AcDbLine
 10
207.6168796115453
 20
31.904688818276398
 30
0.0
 11
207.6168796115453
 21
37.234587805598721
 31
0.0
  0
ENDBLK
  5
A1
100
AcDbEntity
  8
0
390
0
100
AcDbBlockEnd
  0
BLOCK
  5
AE
100
AcDbEntity
  8
0
390
0
100
AcDbBlockBegin
  2
C7
 70
              64
 10
0.0
 20
0.0
 30
0.0
  3
C7
  1

  0
ARC
  5
AF
100
AcDbEntity
  8
________1________1
370
              18
390
0
  6
Continuous
 62
               7
100
AcDbCircle
 10
200.29261554283312
 20
33.704688818276338
 30
0.0
 40
0.3000000000000682
100
AcDbArc
 50
-90.0
 51
-45.000000000030703
  0
LINE
  5
B0
100
AcDbEntity
  8
________1________1
370
              18
390
0
  6
Continuous
 62
               7
100
AcDbLine
 10
201.90474757718948
 20
34.892556783920384
 30
0.0
 11
200.50474757718894
 21
33.492556783920406
 31
0.0
  0
ARC
  5
B1
100
AcDbEntity
  8
________1________1
370
              18
390
0
  6
Continuous
 62
               7
100
AcDbCircle
 10
201.69261554283275
 20
35.104688818276315
 30
0.0
 40
0.3000000000005169
100
AcDbArc
 50
-44.99999999989253
 51
90.0
  0
LINE
  5
B2
100
AcDbEntity
  8
________1________1
370
              18
390
0
  6
Continuous
 62
               7
100
AcDbLine
 10
194.72901164590075
 20
33.492556783920406
 30
0.0
 11
193.32901164590112
 21
34.892556783920384
 31
0.0
  0
LINE
  5
B3
100
AcDbEntity
  8
________1________1
370
              18
390
0
  6
Continuous
 62
               7
100
AcDbLine
 10
193.54114368025694
 20
35.40468881827627
 30
0.0
 11
201.69261554283275
 21
35.40468881827627
 31
0.0
  0
ARC
  5
B4
100
AcDbEntity
  8
________1________1
370
              18
390
0
  6
Continuous
 62
               7
100
AcDbCircle
 10
193.54114368025694
 20
35.104688818276315
 30
0.0
 40
0.2999999999999545
100
AcDbArc
 50
90.0
 51
-134.99999999998465
  0
ARC
  5
B5
100
AcDbEntity
  8
________1________1
370
              18
390
0
  6
Continuous
 62
               7
100
AcDbCircle
 10
194.94114368025657
 20
33.704688818276338
 30
0.0
 40
0.2999999999999542
100
AcDbArc
 50
-134.99999999996928
 51
-90.0
  0
LINE
  5
B6
100
AcDbEntity
  8
________1________1
370
              18
390
0
  6
Continuous
 62
               7
100
AcDbLine
 10
200.29261554283312
 20
33.40468881827627
 30
0.0
 11
194.94114368025748
 21
33.40468881827627
 31
0.0
  0
LINE
  5
B7
100
AcDbEntity
  8
________1________1
370
              18
390
0
  6
Continuous
 62
               7
100
AcDbLine
 10
201.69261554283275
 20
28.404688818276341
 30
0.0
 11
193.54114368025694
 21
28.404688818276341
 31
0.0
  0
LINE
  5
B8
100
AcDbEntity
  8
________1________1
370
              18
390
0
  6
Continuous
 62
               7
100
AcDbLine
 10
193.32901164590112
 20
28.916820852632341
 30
0.0
 11
194.72901164590075
 21
30.316820852632318
 31
0.0
  0
ARC
  5
B9
100
AcDbEntity
  8
________1________1
370
              18
390
0
  6
Continuous
 62
               7
100
AcDbCircle
 10
193.54114368025694
 20
28.704688818276296
 30
0.0
 40
0.299999999999914
100
AcDbArc
 50
134.99999999997698
 51
-90.0
  0
ARC
  5
BA
100
AcDbEntity
  8
________1________1
370
              18
390
0
  6
Continuous
 62
               7
100
AcDbCircle
 10
201.69261554283275
 20
28.704688818276296
 30
0.0
 40
0.2999999999999545
100
AcDbArc
 50
-90.0
 51
44.99999999989253
  0
LINE
  5
BB
100
AcDbEntity
  8
________1________1
370
              18
390
0
  6
Continuous
 62
               7
100
AcDbLine
 10
200.50474757718894
 20
30.316820852632318
 30
0.0
 11
201.90474757718948
 21
28.916820852632341
 31
0.0
  0
ARC
  5
BC
100
AcDbEntity
  8
________1________1
370
              18
390
0
  6
Continuous
 62
               7
100
AcDbCircle
 10
200.29261554283312
 20
30.10468881827633
 30
0.0
 40
0.2999999999998738
100
AcDbArc
 50
45.000000000015355
 51
90.0
  0
ARC
  5
BD
100
AcDbEntity
  8
________1________1
370
              18
390
0
  6
Continuous
 62
               7
100
AcDbCircle
 10
194.94114368025657
 20
30.10468881827633
 30
0.0
 40
0.3000000000000114
100
AcDbArc
 50
90.0
 51
134.99999999998465
  0
LINE
  5
BE
100
AcDbEntity
  8
________1________1
370
              18
390
0
  6
Continuous
 62
               7
100
AcDbLine
 10
194.94114368025748
 20
30.404688818276341
 30
0.0
 11
200.29261554283312
 21
30.404688818276341
 31
0.0
  0
ENDBLK
  5
BF
100
AcDbEntity
  8
0
390
0
100
AcDbBlockEnd
  0
BLOCK
  5
C2
100
AcDbEntity
  8
0
390
0
100
AcDbBlockBegin
  2
C8
 70
              64
 10
0.0
 20
0.0
 30
0.0
  3
C8
  1

  0
ARC
  5
C3
100
AcDbEntity
  8
________1________1
370
              18
390
0
  6
Continuous
 62
               7
100
AcDbCircle
 10
180.29261554283312
 20
33.704688818276338
 30
0.0
 40
0.3000000000000682
100
AcDbArc
 50
-90.0
 51
-45.000000000030703
  0
LINE
  5
C4
100
AcDbEntity
  8
________1________1
370
              18
390
0
  6
Continuous
 62
               7
100
AcDbLine
 10
181.90474757718948
 20
34.892556783920384
 30
0.0
 11
180.50474757718894
 21
33.492556783920406
 31
0.0
  0
ARC
  5
C5
100
AcDbEntity
  8
________1________1
370
              18
390
0
  6
Continuous
 62
               7
100
AcDbCircle
 10
181.69261554283275
 20
35.104688818276315
 30
0.0
 40
0.3000000000005169
100
AcDbArc
 50
-44.99999999989253
 51
90.0
  0
LINE
  5
C6
100
AcDbEntity
  8
________1________1
370
              18
390
0
  6
Continuous
 62
               7
100
AcDbLine
 10
174.72901164590075
 20
33.492556783920406
 30
0.0
 11
173.32901164590112
 21
34.892556783920384
 31
0.0
  0
LINE
  5
C7
100
AcDbEntity
  8
________1________1
370
              18
390
0
  6
Continuous
 62
               7
100
AcDbLine
 10
173.54114368025694
 20
35.40468881827627
 30
0.0
 11
181.69261554283275
 21
35.40468881827627
 31
0.0
  0
ARC
  5
C8
100
AcDbEntity
  8
________1________1
370
              18
390
0
  6
Continuous
 62
               7
100
AcDbCircle
 10
173.54114368025694
 20
35.104688818276315
 30
0.0
 40
0.2999999999999545
100
AcDbArc
 50
90.0
 51
-134.99999999998465
  0
ARC
  5
C9
100
AcDbEntity
  8
________1________1
370
              18
390
0
  6
Continuous
 62
               7
100
AcDbCircle
 10
174.94114368025657
 20
33.704688818276338
 30
0.0
 40
0.2999999999999542
100
AcDbArc
 50
-134.99999999996928
 51
-90.0
  0
LINE
  5
CA
100
AcDbEntity
  8
________1________1
370
              18
390
0
  6
Continuous
 62
               7
100
AcDbLine
 10
180.29261554283312
 20
33.40468881827627
 30
0.0
 11
174.94114368025748
 21
33.40468881827627
 31
0.0
  0
LINE
  5
CB
100
AcDbEntity
  8
________1________1
370
              18
390
0
  6
Continuous
 62
               7
100
AcDbLine
 10
181.69261554283275
 20
28.404688818276341
 30
0.0
 11
173.54114368025694
 21
28.404688818276341
 31
0.0
  0
LINE
  5
CC
100
AcDbEntity
  8
________1________1
370
              18
390
0
  6
Continuous
 62
               7
100
AcDbLine
 10
173.32901164590112
 20
28.916820852632341
 30
0.0
 11
174.72901164590075
 21
30.316820852632318
 31
0.0
  0
ARC
  5
CD
100
AcDbEntity
  8
________1________1
370
              18
390
0
  6
Continuous
 62
               7
100
AcDbCircle
 10
173.54114368025694
 20
28.704688818276296
 30
0.0
 40
0.299999999999914
100
AcDbArc
 50
134.99999999997698
 51
-90.0
  0
ARC
  5
CE
100
AcDbEntity
  8
________1________1
370
              18
390
0
  6
Continuous
 62
               7
100
AcDbCircle
 10
181.69261554283275
 20
28.704688818276296
 30
0.0
 40
0.2999999999999545
100
AcDbArc
 50
-90.0
 51
44.99999999989253
  0
LINE
  5
CF
100
AcDbEntity
  8
________1________1
370
              18
390
0
  6
Continuous
 62
               7
100
AcDbLine
 10
180.50474757718894
 20
30.316820852632318
 30
0.0
 11
181.90474757718948
 21
28.916820852632341
 31
0.0
  0
ARC
  5
D0
100
AcDbEntity
  8
________1________1
370
              18
390
0
  6
Continuous
 62
               7
100
AcDbCircle
 10
180.29261554283312
 20
30.10468881827633
 30
0.0
 40
0.2999999999998738
100
AcDbArc
 50
45.000000000015355
 51
90.0
  0
ARC
  5
D1
100
AcDbEntity
  8
________1________1
370
              18
390
0
  6
Continuous
 62
               7
100
AcDbCircle
 10
174.94114368025657
 20
30.10468881827633
 30
0.0
 40
0.3000000000000114
100
AcDbArc
 50
90.0
 51
134.99999999998465
  0
LINE
  5
D2
100
AcDbEntity
  8
________1________1
370
              18
390
0
  6
Continuous
 62
               7
100
AcDbLine
 10
174.94114368025748
 20
30.404688818276341
 30
0.0
 11
180.29261554283312
 21
30.404688818276341
 31
0.0
  0
ENDBLK
  5
D3
100
AcDbEntity
  8
0
390
0
100
AcDbBlockEnd
  0
BLOCK
  5
D6
100
AcDbEntity
  8
0
390
0
100
AcDbBlockBegin
  2
C9
 70
              64
 10
0.0
 20
0.0
 30
0.0
  3
C9
  1

  0
ARC
  5
D7
100
AcDbEntity
  8
________1________1
370
              18
390
0
  6
Continuous
 62
               7
100
AcDbCircle
 10
160.292615542833
 20
33.704688818276338
 30
0.0
 40
0.3000000000000682
100
AcDbArc
 50
-90.0
 51
-45.000000000030703
  0
LINE
  5
D8
100
AcDbEntity
  8
________1________1
370
              18
390
0
  6
Continuous
 62
               7
100
AcDbLine
 10
161.90474757718937
 20
34.892556783920384
 30
0.0
 11
160.50474757718882
 21
33.492556783920406
 31
0.0
  0
ARC
  5
D9
100
AcDbEntity
  8
________1________1
370
              18
390
0
  6
Continuous
 62
               7
100
AcDbCircle
 10
161.69261554283264
 20
35.104688818276315
 30
0.0
 40
0.3000000000005169
100
AcDbArc
 50
-44.99999999989253
 51
90.0
  0
LINE
  5
DA
100
AcDbEntity
  8
________1________1
370
              18
390
0
  6
Continuous
 62
               7
100
AcDbLine
 10
154.72901164590067
 20
33.492556783920406
 30
0.0
 11
153.32901164590103
 21
34.892556783920384
 31
0.0
  0
LINE
  5
DB
100
AcDbEntity
  8
________1________1
370
              18
390
0
  6
Continuous
 62
               7
100
AcDbLine
 10
153.54114368025682
 20
35.40468881827627
 30
0.0
 11
161.69261554283264
 21
35.40468881827627
 31
0.0
  0
ARC
  5
DC
100
AcDbEntity
  8
________1________1
370
              18
390
0
  6
Continuous
 62
               7
100
AcDbCircle
 10
153.54114368025682
 20
35.104688818276315
 30
0.0
 40
0.2999999999999545
100
AcDbArc
 50
90.0
 51
-134.99999999998082
  0
ARC
  5
DD
100
AcDbEntity
  8
________1________1
370
              18
390
0
  6
Continuous
 62
               7
100
AcDbCircle
 10
154.94114368025646
 20
33.704688818276338
 30
0.0
 40
0.2999999999999341
100
AcDbArc
 50
-134.99999999996547
 51
-90.0
  0
LINE
  5
DE
100
AcDbEntity
  8
________1________1
370
              18
390
0
  6
Continuous
 62
               7
100
AcDbLine
 10
160.292615542833
 20
33.40468881827627
 30
0.0
 11
154.94114368025737
 21
33.40468881827627
 31
0.0
  0
LINE
  5
DF
100
AcDbEntity
  8
________1________1
370
              18
390
0
  6
Continuous
 62
               7
100
AcDbLine
 10
161.69261554283264
 20
28.404688818276341
 30
0.0
 11
153.54114368025682
 21
28.404688818276341
 31
0.0
  0
LINE
  5
E0
100
AcDbEntity
  8
________1________1
370
              18
390
0
  6
Continuous
 62
               7
100
AcDbLine
 10
153.32901164590103
 20
28.916820852632341
 30
0.0
 11
154.72901164590067
 21
30.316820852632318
 31
0.0
  0
ARC
  5
E1
100
AcDbEntity
  8
________1________1
370
              18
390
0
  6
Continuous
 62
               7
100
AcDbCircle
 10
153.54114368025682
 20
28.704688818276296
 30
0.0
 40
0.2999999999998939
100
AcDbArc
 50
134.99999999997314
 51
-90.0
  0
ARC
  5
E2
100
AcDbEntity
  8
________1________1
370
              18
390
0
  6
Continuous
 62
               7
100
AcDbCircle
 10
161.69261554283264
 20
28.704688818276296
 30
0.0
 40
0.2999999999999545
100
AcDbArc
 50
-90.0
 51
44.99999999989253
  0
LINE
  5
E3
100
AcDbEntity
  8
________1________1
370
              18
390
0
  6
Continuous
 62
               7
100
AcDbLine
 10
160.50474757718882
 20
30.316820852632318
 30
0.0
 11
161.90474757718937
 21
28.916820852632341
 31
0.0
  0
ARC
  5
E4
100
AcDbEntity
  8
________1________1
370
              18
390
0
  6
Continuous
 62
               7
100
AcDbCircle
 10
160.292615542833
 20
30.10468881827633
 30
0.0
 40
0.2999999999998738
100
AcDbArc
 50
45.000000000015355
 51
90.0
  0
ARC
  5
E5
100
AcDbEntity
  8
________1________1
370
              18
390
0
  6
Continuous
 62
               7
100
AcDbCircle
 10
154.94114368025646
 20
30.10468881827633
 30
0.0
 40
0.3000000000000114
100
AcDbArc
 50
90.0
 51
134.99999999998082
  0
LINE
  5
E6
100
AcDbEntity
  8
________1________1
370
              18
390
0
  6
Continuous
 62
               7
100
AcDbLine
 10
154.94114368025737
 20
30.404688818276341
 30
0.0
 11
160.292615542833
 21
30.404688818276341
 31
0.0
  0
ENDBLK
  5
E7
100
AcDbEntity
  8
0
390
0
100
AcDbBlockEnd
  0
BLOCK
  5
EA
100
AcDbEntity
  8
0
390
0
100
AcDbBlockBegin
  2
C10
 70
              64
 10
0.0
 20
0.0
 30
0.0
  3
C10
  1

  0
ARC
  5
EB
100
AcDbEntity
  8
________1________1
370
              18
390
0
  6
Continuous
 62
               7
100
AcDbCircle
 10
140.292615542833
 20
33.704688818276338
 30
0.0
 40
0.3000000000000682
100
AcDbArc
 50
-90.0
 51
-45.000000000030703
  0
LINE
  5
EC
100
AcDbEntity
  8
________1________1
370
              18
390
0
  6
Continuous
 62
               7
100
AcDbLine
 10
141.90474757718937
 20
34.892556783920384
 30
0.0
 11
140.50474757718882
 21
33.492556783920406
 31
0.0
  0
ARC
  5
ED
100
AcDbEntity
  8
________1________1
370
              18
390
0
  6
Continuous
 62
               7
100
AcDbCircle
 10
141.69261554283264
 20
35.104688818276315
 30
0.0
 40
0.3000000000005169
100
AcDbArc
 50
-44.99999999989253
 51
90.0
  0
LINE
  5
EE
100
AcDbEntity
  8
________1________1
370
              18
390
0
  6
Continuous
 62
               7
100
AcDbLine
 10
134.72901164590064
 20
33.492556783920406
 30
0.0
 11
133.32901164590101
 21
34.892556783920384
 31
0.0
  0
LINE
  5
EF
100
AcDbEntity
  8
________1________1
370
              18
390
0
  6
Continuous
 62
               7
100
AcDbLine
 10
133.54114368025682
 20
35.40468881827627
 30
0.0
 11
141.69261554283264
 21
35.40468881827627
 31
0.0
  0
ARC
  5
F0
100
AcDbEntity
  8
________1________1
370
              18
390
0
  6
Continuous
 62
               7
100
AcDbCircle
 10
133.54114368025682
 20
35.104688818276315
 30
0.0
 40
0.2999999999999545
100
AcDbArc
 50
90.0
 51
-134.99999999998465
  0
ARC
  5
F1
100
AcDbEntity
  8
________1________1
370
              18
390
0
  6
Continuous
 62
               7
100
AcDbCircle
 10
134.94114368025646
 20
33.704688818276338
 30
0.0
 40
0.2999999999999542
100
AcDbArc
 50
-134.99999999996928
 51
-90.0
  0
LINE
  5
F2
100
AcDbEntity
  8
________1________1
370
              18
390
0
  6
Continuous
 62
               7
100
AcDbLine
 10
140.292615542833
 20
33.40468881827627
 30
0.0
 11
134.94114368025737
 21
33.40468881827627
 31
0.0
  0
LINE
  5
F3
100
AcDbEntity
  8
________1________1
370
              18
390
0
  6
Continuous
 62
               7
100
AcDbLine
 10
141.69261554283264
 20
28.404688818276341
 30
0.0
 11
133.54114368025682
 21
28.404688818276341
 31
0.0
  0
LINE
  5
F4
100
AcDbEntity
  8
________1________1
370
              18
390
0
  6
Continuous
 62
               7
100
AcDbLine
 10
133.32901164590101
 20
28.916820852632341
 30
0.0
 11
134.72901164590064
 21
30.316820852632318
 31
0.0
  0
ARC
  5
F5
100
AcDbEntity
  8
________1________1
370
              18
390
0
  6
Continuous
 62
               7
100
AcDbCircle
 10
133.54114368025682
 20
28.704688818276296
 30
0.0
 40
0.299999999999914
100
AcDbArc
 50
134.99999999997698
 51
-90.0
  0
ARC
  5
F6
100
AcDbEntity
  8
________1________1
370
              18
390
0
  6
Continuous
 62
               7
100
AcDbCircle
 10
141.69261554283264
 20
28.704688818276296
 30
0.0
 40
0.2999999999999545
100
AcDbArc
 50
-90.0
 51
44.99999999989253
  0
LINE
  5
F7
100
AcDbEntity
  8
________1________1
370
              18
390
0
  6
Continuous
 62
               7
100
AcDbLine
 10
140.50474757718882
 20
30.316820852632318
 30
0.0
 11
141.90474757718937
 21
28.916820852632341
 31
0.0
  0
ARC
  5
F8
100
AcDbEntity
  8
________1________1
370
              18
390
0
  6
Continuous
 62
               7
100
AcDbCircle
 10
140.292615542833
 20
30.10468881827633
 30
0.0
 40
0.2999999999998738
100
AcDbArc
 50
45.000000000015355
 51
90.0
  0
ARC
  5
F9
100
AcDbEntity
  8
________1________1
370
              18
390
0
  6
Continuous
 62
               7
100
AcDbCircle
 10
134.94114368025646
 20
30.10468881827633
 30
0.0
 40
0.3000000000000114
100
AcDbArc
 50
90.0
 51
134.99999999998465
  0
LINE
  5
FA
100
AcDbEntity
  8
________1________1
370
              18
390
0
  6
Continuous
 62
               7
100
AcDbLine
 10
134.94114368025737
 20
30.404688818276341
 30
0.0
 11
140.292615542833
 21
30.404688818276341
 31
0.0
  0
ENDBLK
  5
FB
100
AcDbEntity
  8
0
390
0
100
AcDbBlockEnd
  0
BLOCK
  5
10B
100
AcDbEntity
  8
0
390
0
100
AcDbBlockBegin
  2
C11
 70
              64
 10
0.0
 20
0.0
 30
0.0
  3
C11
  1

  0
ARC
  5
10C
100
AcDbEntity
  8
________1________1
370
              18
390
0
  6
Continuous
 62
               7
100
AcDbCircle
 10
-241.28727461074521
 20
33.704688818276338
 30
0.0
 40
0.3000000000000682
100
AcDbArc
 50
-90.0
 51
-45.0
  0
LINE
  5
10D
100
AcDbEntity
  8
________1________1
370
              18
390
0
  6
Continuous
 62
               7
100
AcDbLine
 10
-239.67514257638931
 20
34.892556783920384
 30
0.0
 11
-241.07514257638917
 21
33.492556783920406
 31
0.0
  0
ARC
  5
10E
100
AcDbEntity
  8
________1________1
370
              18
390
0
  6
Continuous
 62
               7
100
AcDbCircle
 10
-239.88727461074535
 20
35.104688818276315
 30
0.0
 40
0.3000000000000346
100
AcDbArc
 50
-44.999999999984652
 51
90.0
  0
LINE
  5
10F
100
AcDbEntity
  8
________1________1
370
              18
390
0
  6
Continuous
 62
               7
100
AcDbLine
 10
-246.85087850767735
 20
33.492556783920406
 30
0.0
 11
-248.25087850767721
 21
34.892556783920384
 31
0.0
  0
LINE
  5
110
100
AcDbEntity
  8
________1________1
370
              18
390
0
  6
Continuous
 62
               7
100
AcDbLine
 10
-248.03874647332117
 20
35.40468881827627
 30
0.0
 11
-239.88727461074535
 21
35.40468881827627
 31
0.0
  0
ARC
  5
111
100
AcDbEntity
  8
________1________1
370
              18
390
0
  6
Continuous
 62
               7
100
AcDbCircle
 10
-248.03874647332117
 20
35.104688818276315
 30
0.0
 40
0.2999999999999545
100
AcDbArc
 50
90.0
 51
-135.00000000001538
  0
ARC
  5
112
100
AcDbEntity
  8
________1________1
370
              18
390
0
  6
Continuous
 62
               7
100
AcDbCircle
 10
-246.63874647332153
 20
33.704688818276338
 30
0.0
 40
0.2999999999999542
100
AcDbArc
 50
-134.99999999996928
 51
-90.0
  0
LINE
  5
113
100
AcDbEntity
  8
________1________1
370
              18
390
0
  6
Continuous
 62
               7
100
AcDbLine
 10
-241.28727461074521
 20
33.40468881827627
 30
0.0
 11
-246.63874647332131
 21
33.40468881827627
 31
0.0
  0
LINE
  5
114
100
AcDbEntity
  8
________1________1
370
              18
390
0
  6
Continuous
 62
               7
100
AcDbLine
 10
-239.88727461074535
 20
28.404688818276341
 30
0.0
 11
-248.03874647332117
 21
28.404688818276341
 31
0.0
  0
LINE
  5
115
100
AcDbEntity
  8
________1________1
370
              18
390
0
  6
Continuous
 62
               7
100
AcDbLine
 10
-248.25087850767721
 20
28.916820852632341
 30
0.0
 11
-246.85087850767735
 21
30.316820852632318
 31
0.0
  0
ARC
  5
116
100
AcDbEntity
  8
________1________1
370
              18
390
0
  6
Continuous
 62
               7
100
AcDbCircle
 10
-248.03874647332117
 20
28.704688818276296
 30
0.0
 40
0.3000000000000748
100
AcDbArc
 50
135.00000000000767
 51
-90.0
  0
ARC
  5
117
100
AcDbEntity
  8
________1________1
370
              18
390
0
  6
Continuous
 62
               7
100
AcDbCircle
 10
-239.88727461074535
 20
28.704688818276296
 30
0.0
 40
0.2999999999999545
100
AcDbArc
 50
-90.0
 51
44.999999999984652
  0
LINE
  5
118
100
AcDbEntity
  8
________1________1
370
              18
390
0
  6
Continuous
 62
               7
100
AcDbLine
 10
-241.07514257638917
 20
30.316820852632318
 30
0.0
 11
-239.67514257638931
 21
28.916820852632341
 31
0.0
  0
ARC
  5
119
100
AcDbEntity
  8
________1________1
370
              18
390
0
  6
Continuous
 62
               7
100
AcDbCircle
 10
-241.28727461074521
 20
30.10468881827633
 30
0.0
 40
0.3000000000000346
100
AcDbArc
 50
44.999999999984652
 51
90.0
  0
ARC
  5
11A
100
AcDbEntity
  8
________1________1
370
              18
390
0
  6
Continuous
 62
               7
100
AcDbCircle
 10
-246.63874647332153
 20
30.10468881827633
 30
0.0
 40
0.3000000000000114
100
AcDbArc
 50
90.0
 51
135.00000000001538
  0
LINE
  5
11B
100
AcDbEntity
  8
________1________1
370
              18
390
0
  6
Continuous
 62
               7
100
AcDbLine
 10
-246.63874647332131
 20
30.404688818276341
 30
0.0
 11
-241.28727461074521
 21
30.404688818276341
 31
0.0
  0
ENDBLK
  5
11C
100
AcDbEntity
  8
0
390
0
100
AcDbBlockEnd
  0
BLOCK
  5
11F
100
AcDbEntity
  8
0
390
0
100
AcDbBlockBegin
  2
C12
 70
              64
 10
0.0
 20
0.0
 30
0.0
  3
C12
  1

  0
ARC
  5
120
100
AcDbEntity
  8
________1________1
370
              18
390
0
  6
Continuous
 62
               7
100
AcDbCircle
 10
-261.28727461074521
 20
33.704688818276338
 30
0.0
 40
0.3000000000000682
100
AcDbArc
 50
-90.0
 51
-45.0
  0
LINE
  5
121
100
AcDbEntity
  8
________1________1
370
              18
390
0
  6
Continuous
 62
               7
100
AcDbLine
 10
-259.67514257638931
 20
34.892556783920384
 30
0.0
 11
-261.07514257638917
 21
33.492556783920406
 31
0.0
  0
ARC
  5
122
100
AcDbEntity
  8
________1________1
370
              18
390
0
  6
Continuous
 62
               7
100
AcDbCircle
 10
-259.88727461074535
 20
35.104688818276315
 30
0.0
 40
0.3000000000000346
100
AcDbArc
 50
-44.999999999984652
 51
90.0
  0
LINE
  5
123
100
AcDbEntity
  8
________1________1
370
              18
390
0
  6
Continuous
 62
               7
100
AcDbLine
 10
-266.85087850767735
 20
33.492556783920406
 30
0.0
 11
-268.25087850767721
 21
34.892556783920384
 31
0.0
  0
LINE
  5
124
100
AcDbEntity
  8
________1________1
370
              18
390
0
  6
Continuous
 62
               7
100
AcDbLine
 10
-268.03874647332117
 20
35.40468881827627
 30
0.0
 11
-259.88727461074535
 21
35.40468881827627
 31
0.0
  0
ARC
  5
125
100
AcDbEntity
  8
________1________1
370
              18
390
0
  6
Continuous
 62
               7
100
AcDbCircle
 10
-268.03874647332117
 20
35.104688818276315
 30
0.0
 40
0.2999999999999545
100
AcDbArc
 50
90.0
 51
-135.00000000001538
  0
ARC
  5
126
100
AcDbEntity
  8
________1________1
370
              18
390
0
  6
Continuous
 62
               7
100
AcDbCircle
 10
-266.63874647332153
 20
33.704688818276338
 30
0.0
 40
0.2999999999999542
100
AcDbArc
 50
-134.99999999996928
 51
-90.0
  0
LINE
  5
127
100
AcDbEntity
  8
________1________1
370
              18
390
0
  6
Continuous
 62
               7
100
AcDbLine
 10
-261.28727461074521
 20
33.40468881827627
 30
0.0
 11
-266.63874647332131
 21
33.40468881827627
 31
0.0
  0
LINE
  5
128
100
AcDbEntity
  8
________1________1
370
              18
390
0
  6
Continuous
 62
               7
100
AcDbLine
 10
-259.88727461074535
 20
28.404688818276341
 30
0.0
 11
-268.03874647332117
 21
28.404688818276341
 31
0.0
  0
LINE
  5
129
100
AcDbEntity
  8
________1________1
370
              18
390
0
  6
Continuous
 62
               7
100
AcDbLine
 10
-268.25087850767721
 20
28.916820852632341
 30
0.0
 11
-266.85087850767735
 21
30.316820852632318
 31
0.0
  0
ARC
  5
12A
100
AcDbEntity
  8
________1________1
370
              18
390
0
  6
Continuous
 62
               7
100
AcDbCircle
 10
-268.03874647332117
 20
28.704688818276296
 30
0.0
 40
0.3000000000000748
100
AcDbArc
 50
135.00000000000767
 51
-90.0
  0
ARC
  5
12B
100
AcDbEntity
  8
________1________1
370
              18
390
0
  6
Continuous
 62
               7
100
AcDbCircle
 10
-259.88727461074535
 20
28.704688818276296
 30
0.0
 40
0.2999999999999545
100
AcDbArc
 50
-90.0
 51
44.999999999984652
  0
LINE
  5
12C
100
AcDbEntity
  8
________1________1
370
              18
390
0
  6
Continuous
 62
               7
100
AcDbLine
 10
-261.07514257638917
 20
30.316820852632318
 30
0.0
 11
-259.67514257638931
 21
28.916820852632341
 31
0.0
  0
ARC
  5
12D
100
AcDbEntity
  8
________1________1
370
              18
390
0
  6
Continuous
 62
               7
100
AcDbCircle
 10
-261.28727461074521
 20
30.10468881827633
 30
0.0
 40
0.3000000000000346
100
AcDbArc
 50
44.999999999984652
 51
90.0
  0
ARC
  5
12E
100
AcDbEntity
  8
________1________1
370
              18
390
0
  6
Continuous
 62
               7
100
AcDbCircle
 10
-266.63874647332153
 20
30.10468881827633
 30
0.0
 40
0.3000000000000114
100
AcDbArc
 50
90.0
 51
135.00000000001538
  0
LINE
  5
12F
100
AcDbEntity
  8
________1________1
370
              18
390
0
  6
Continuous
 62
               7
100
AcDbLine
 10
-266.63874647332131
 20
30.404688818276341
 30
0.0
 11
-261.28727461074521
 21
30.404688818276341
 31
0.0
  0
ENDBLK
  5
130
100
AcDbEntity
  8
0
390
0
100
AcDbBlockEnd
  0
BLOCK
  5
133
100
AcDbEntity
  8
0
390
0
100
AcDbBlockBegin
  2
C13
 70
              64
 10
0.0
 20
0.0
 30
0.0
  3
C13
  1

  0
ARC
  5
134
100
AcDbEntity
  8
________1________1
370
              18
390
0
  6
Continuous
 62
               7
100
AcDbCircle
 10
-281.28727461074521
 20
33.704688818276338
 30
0.0
 40
0.3000000000000682
100
AcDbArc
 50
-90.0
 51
-45.0
  0
LINE
  5
135
100
AcDbEntity
  8
________1________1
370
              18
390
0
  6
Continuous
 62
               7
100
AcDbLine
 10
-279.67514257638931
 20
34.892556783920384
 30
0.0
 11
-281.07514257638917
 21
33.492556783920406
 31
0.0
  0
ARC
  5
136
100
AcDbEntity
  8
________1________1
370
              18
390
0
  6
Continuous
 62
               7
100
AcDbCircle
 10
-279.88727461074535
 20
35.104688818276315
 30
0.0
 40
0.3000000000000346
100
AcDbArc
 50
-44.999999999984652
 51
90.0
  0
LINE
  5
137
100
AcDbEntity
  8
________1________1
370
              18
390
0
  6
Continuous
 62
               7
100
AcDbLine
 10
-286.85087850767735
 20
33.492556783920406
 30
0.0
 11
-288.25087850767721
 21
34.892556783920384
 31
0.0
  0
LINE
  5
138
100
AcDbEntity
  8
________1________1
370
              18
390
0
  6
Continuous
 62
               7
100
AcDbLine
 10
-288.03874647332117
 20
35.40468881827627
 30
0.0
 11
-279.88727461074535
 21
35.40468881827627
 31
0.0
  0
ARC
  5
139
100
AcDbEntity
  8
________1________1
370
              18
390
0
  6
Continuous
 62
               7
100
AcDbCircle
 10
-288.03874647332117
 20
35.104688818276315
 30
0.0
 40
0.2999999999999545
100
AcDbArc
 50
90.0
 51
-135.00000000001538
  0
ARC
  5
13A
100
AcDbEntity
  8
________1________1
370
              18
390
0
  6
Continuous
 62
               7
100
AcDbCircle
 10
-286.63874647332153
 20
33.704688818276338
 30
0.0
 40
0.2999999999999542
100
AcDbArc
 50
-134.99999999996928
 51
-90.0
  0
LINE
  5
13B
100
AcDbEntity
  8
________1________1
370
              18
390
0
  6
Continuous
 62
               7
100
AcDbLine
 10
-281.28727461074521
 20
33.40468881827627
 30
0.0
 11
-286.63874647332131
 21
33.40468881827627
 31
0.0
  0
LINE
  5
13C
100
AcDbEntity
  8
________1________1
370
              18
390
0
  6
Continuous
 62
               7
100
AcDbLine
 10
-279.88727461074535
 20
28.404688818276341
 30
0.0
 11
-288.03874647332117
 21
28.404688818276341
 31
0.0
  0
LINE
  5
13D
100
AcDbEntity
  8
________1________1
370
              18
390
0
  6
Continuous
 62
               7
100
AcDbLine
 10
-288.25087850767721
 20
28.916820852632341
 30
0.0
 11
-286.85087850767735
 21
30.316820852632318
 31
0.0
  0
ARC
  5
13E
100
AcDbEntity
  8
________1________1
370
              18
390
0
  6
Continuous
 62
               7
100
AcDbCircle
 10
-288.03874647332117
 20
28.704688818276296
 30
0.0
 40
0.3000000000000748
100
AcDbArc
 50
135.00000000000767
 51
-90.0
  0
ARC
  5
13F
100
AcDbEntity
  8
________1________1
370
              18
390
0
  6
Continuous
 62
               7
100
AcDbCircle
 10
-279.88727461074535
 20
28.704688818276296
 30
0.0
 40
0.2999999999999545
100
AcDbArc
 50
-90.0
 51
44.999999999984652
  0
LINE
  5
140
100
AcDbEntity
  8
________1________1
370
              18
390
0
  6
Continuous
 62
               7
100
AcDbLine
 10
-281.07514257638917
 20
30.316820852632318
 30
0.0
 11
-279.67514257638931
 21
28.916820852632341
 31
0.0
  0
ARC
  5
141
100
AcDbEntity
  8
________1________1
370
              18
390
0
  6
Continuous
 62
               7
100
AcDbCircle
 10
-281.28727461074521
 20
30.10468881827633
 30
0.0
 40
0.3000000000000346
100
AcDbArc
 50
44.999999999984652
 51
90.0
  0
ARC
  5
142
100
AcDbEntity
  8
________1________1
370
              18
390
0
  6
Continuous
 62
               7
100
AcDbCircle
 10
-286.63874647332153
 20
30.10468881827633
 30
0.0
 40
0.3000000000000114
100
AcDbArc
 50
90.0
 51
135.00000000001538
  0
LINE
  5
143
100
AcDbEntity
  8
________1________1
370
              18
390
0
  6
Continuous
 62
               7
100
AcDbLine
 10
-286.63874647332131
 20
30.404688818276341
 30
0.0
 11
-281.28727461074521
 21
30.404688818276341
 31
0.0
  0
ENDBLK
  5
144
100
AcDbEntity
  8
0
390
0
100
AcDbBlockEnd
  0
BLOCK
  5
14A
100
AcDbEntity
  8
0
390
0
100
AcDbBlockBegin
  2
C14
 70
              64
 10
0.0
 20
0.0
 30
0.0
  3
C14
  1

  0
INSERT
  5
15E
100
AcDbEntity
  8
____1
370
               5
390
0
  6
Continuous
 62
               7
100
AcDbBlockReference
  2
C15
 10
0.0
 20
0.0
 30
0.0
  0
INSERT
  5
172
100
AcDbEntity
  8
____1
370
               5
390
0
  6
Continuous
 62
               7
100
AcDbBlockReference
  2
C16
 10
0.0
 20
0.0
 30
0.0
  0
INSERT
  5
186
100
AcDbEntity
  8
____1
370
               5
390
0
  6
Continuous
 62
               7
100
AcDbBlockReference
  2
C17
 10
0.0
 20
0.0
 30
0.0
  0
INSERT
  5
19A
100
AcDbEntity
  8
____1
370
               5
390
0
  6
Continuous
 62
               7
100
AcDbBlockReference
  2
C18
 10
0.0
 20
0.0
 30
0.0
  0
INSERT
  5
1AE
100
AcDbEntity
  8
____1
370
               5
390
0
  6
Continuous
 62
               7
100
AcDbBlockReference
  2
C19
 10
0.0
 20
0.0
 30
0.0
  0
INSERT
  5
1C2
100
AcDbEntity
  8
____1
370
               5
390
0
  6
Continuous
 62
               7
100
AcDbBlockReference
  2
C20
 10
0.0
 20
0.0
 30
0.0
  0
INSERT
  5
1D6
100
AcDbEntity
  8
____1
370
               5
390
0
  6
Continuous
 62
               7
100
AcDbBlockReference
  2
C21
 10
0.0
 20
0.0
 30
0.0
  0
ENDBLK
  5
1D7
100
AcDbEntity
  8
0
390
0
100
AcDbBlockEnd
  0
BLOCK
  5
14C
100
AcDbEntity
  8
0
390
0
100
AcDbBlockBegin
  2
C15
 70
              64
 10
0.0
 20
0.0
 30
0.0
  3
C15
  1

  0
ARC
  5
14D
100
AcDbEntity
  8
________1________1
370
              18
390
0
  6
Continuous
 62
               7
100
AcDbCircle
 10
-101.28727461074516
 20
33.704688818276338
 30
0.0
 40
0.3000000000000682
100
AcDbArc
 50
-90.0
 51
-45.0
  0
LINE
  5
14E
100
AcDbEntity
  8
________1________1
370
              18
390
0
  6
Continuous
 62
               7
100
AcDbLine
 10
-99.675142576389248
 20
34.892556783920384
 30
0.0
 11
-101.07514257638911
 21
33.492556783920406
 31
0.0
  0
ARC
  5
14F
100
AcDbEntity
  8
________1________1
370
              18
390
0
  6
Continuous
 62
               7
100
AcDbCircle
 10
-99.887274610745294
 20
35.104688818276315
 30
0.0
 40
0.3000000000000346
100
AcDbArc
 50
-44.999999999984652
 51
90.0
  0
LINE
  5
150
100
AcDbEntity
  8
________1________1
370
              18
390
0
  6
Continuous
 62
               7
100
AcDbLine
 10
-106.85087850767729
 20
33.492556783920406
 30
0.0
 11
-108.25087850767716
 21
34.892556783920384
 31
0.0
  0
LINE
  5
151
100
AcDbEntity
  8
________1________1
370
              18
390
0
  6
Continuous
 62
               7
100
AcDbLine
 10
-108.03874647332111
 20
35.40468881827627
 30
0.0
 11
-99.887274610745294
 21
35.40468881827627
 31
0.0
  0
ARC
  5
152
100
AcDbEntity
  8
________1________1
370
              18
390
0
  6
Continuous
 62
               7
100
AcDbCircle
 10
-108.03874647332111
 20
35.104688818276315
 30
0.0
 40
0.2999999999999545
100
AcDbArc
 50
90.0
 51
-135.00000000001538
  0
ARC
  5
153
100
AcDbEntity
  8
________1________1
370
              18
390
0
  6
Continuous
 62
               7
100
AcDbCircle
 10
-106.63874647332148
 20
33.704688818276338
 30
0.0
 40
0.2999999999999542
100
AcDbArc
 50
-134.99999999996928
 51
-90.0
  0
LINE
  5
154
100
AcDbEntity
  8
________1________1
370
              18
390
0
  6
Continuous
 62
               7
100
AcDbLine
 10
-101.28727461074516
 20
33.40468881827627
 30
0.0
 11
-106.63874647332125
 21
33.40468881827627
 31
0.0
  0
LINE
  5
155
100
AcDbEntity
  8
________1________1
370
              18
390
0
  6
Continuous
 62
               7
100
AcDbLine
 10
-99.887274610745294
 20
28.404688818276341
 30
0.0
 11
-108.03874647332111
 21
28.404688818276341
 31
0.0
  0
LINE
  5
156
100
AcDbEntity
  8
________1________1
370
              18
390
0
  6
Continuous
 62
               7
100
AcDbLine
 10
-108.25087850767716
 20
28.916820852632341
 30
0.0
 11
-106.85087850767729
 21
30.316820852632318
 31
0.0
  0
ARC
  5
157
100
AcDbEntity
  8
________1________1
370
              18
390
0
  6
Continuous
 62
               7
100
AcDbCircle
 10
-108.03874647332111
 20
28.704688818276296
 30
0.0
 40
0.3000000000000748
100
AcDbArc
 50
135.00000000000767
 51
-90.0
  0
ARC
  5
158
100
AcDbEntity
  8
________1________1
370
              18
390
0
  6
Continuous
 62
               7
100
AcDbCircle
 10
-99.887274610745294
 20
28.704688818276296
 30
0.0
 40
0.2999999999999545
100
AcDbArc
 50
-90.0
 51
44.999999999984652
  0
LINE
  5
159
100
AcDbEntity
  8
________1________1
370
              18
390
0
  6
Continuous
 62
               7
100
AcDbLine
 10
-101.07514257638911
 20
30.316820852632318
 30
0.0
 11
-99.675142576389248
 21
28.916820852632341
 31
0.0
  0
ARC
  5
15A
100
AcDbEntity
  8
________1________1
370
              18
390
0
  6
Continuous
 62
               7
100
AcDbCircle
 10
-101.28727461074516
 20
30.10468881827633
 30
0.0
 40
0.3000000000000346
100
AcDbArc
 50
44.999999999984652
 51
90.0
  0
ARC
  5
15B
100
AcDbEntity
  8
________1________1
370
              18
390
0
  6
Continuous
 62
               7
100
AcDbCircle
 10
-106.63874647332148
 20
30.10468881827633
 30
0.0
 40
0.3000000000000114
100
AcDbArc
 50
90.0
 51
135.00000000001538
  0
LINE
  5
15C
100
AcDbEntity
  8
________1________1
370
              18
390
0
  6
Continuous
 62
               7
100
AcDbLine
 10
-106.63874647332125
 20
30.404688818276341
 30
0.0
 11
-101.28727461074516
 21
30.404688818276341
 31
0.0
  0
ENDBLK
  5
15D
100
AcDbEntity
  8
0
390
0
100
AcDbBlockEnd
  0
BLOCK
  5
160
100
AcDbEntity
  8
0
390
0
100
AcDbBlockBegin
  2
C16
 70
              64
 10
0.0
 20
0.0
 30
0.0
  3
C16
  1

  0
ARC
  5
161
100
AcDbEntity
  8
________1________1
370
              18
390
0
  6
Continuous
 62
               7
100
AcDbCircle
 10
-121.28727461074521
 20
33.704688818276338
 30
0.0
 40
0.3000000000000682
100
AcDbArc
 50
-90.0
 51
-45.0
  0
LINE
  5
162
100
AcDbEntity
  8
________1________1
370
              18
390
0
  6
Continuous
 62
               7
100
AcDbLine
 10
-119.67514257638931
 20
34.892556783920384
 30
0.0
 11
-121.07514257638917
 21
33.492556783920406
 31
0.0
  0
ARC
  5
163
100
AcDbEntity
  8
________1________1
370
              18
390
0
  6
Continuous
 62
               7
100
AcDbCircle
 10
-119.88727461074535
 20
35.104688818276315
 30
0.0
 40
0.3000000000000346
100
AcDbArc
 50
-44.999999999984652
 51
90.0
  0
LINE
  5
164
100
AcDbEntity
  8
________1________1
370
              18
390
0
  6
Continuous
 62
               7
100
AcDbLine
 10
-126.85087850767735
 20
33.492556783920406
 30
0.0
 11
-128.25087850767721
 21
34.892556783920384
 31
0.0
  0
LINE
  5
165
100
AcDbEntity
  8
________1________1
370
              18
390
0
  6
Continuous
 62
               7
100
AcDbLine
 10
-128.03874647332117
 20
35.40468881827627
 30
0.0
 11
-119.88727461074535
 21
35.40468881827627
 31
0.0
  0
ARC
  5
166
100
AcDbEntity
  8
________1________1
370
              18
390
0
  6
Continuous
 62
               7
100
AcDbCircle
 10
-128.03874647332117
 20
35.104688818276315
 30
0.0
 40
0.2999999999999545
100
AcDbArc
 50
90.0
 51
-135.00000000001538
  0
ARC
  5
167
100
AcDbEntity
  8
________1________1
370
              18
390
0
  6
Continuous
 62
               7
100
AcDbCircle
 10
-126.63874647332153
 20
33.704688818276338
 30
0.0
 40
0.2999999999999542
100
AcDbArc
 50
-134.99999999996928
 51
-90.0
  0
LINE
  5
168
100
AcDbEntity
  8
________1________1
370
              18
390
0
  6
Continuous
 62
               7
100
AcDbLine
 10
-121.28727461074521
 20
33.40468881827627
 30
0.0
 11
-126.63874647332131
 21
33.40468881827627
 31
0.0
  0
LINE
  5
169
100
AcDbEntity
  8
________1________1
370
              18
390
0
  6
Continuous
 62
               7
100
AcDbLine
 10
-119.88727461074535
 20
28.404688818276341
 30
0.0
 11
-128.03874647332117
 21
28.404688818276341
 31
0.0
  0
LINE
  5
16A
100
AcDbEntity
  8
________1________1
370
              18
390
0
  6
Continuous
 62
               7
100
AcDbLine
 10
-128.25087850767721
 20
28.916820852632341
 30
0.0
 11
-126.85087850767735
 21
30.316820852632318
 31
0.0
  0
ARC
  5
16B
100
AcDbEntity
  8
________1________1
370
              18
390
0
  6
Continuous
 62
               7
100
AcDbCircle
 10
-128.03874647332117
 20
28.704688818276296
 30
0.0
 40
0.3000000000000748
100
AcDbArc
 50
135.00000000000767
 51
-90.0
  0
ARC
  5
16C
100
AcDbEntity
  8
________1________1
370
              18
390
0
  6
Continuous
 62
               7
100
AcDbCircle
 10
-119.88727461074535
 20
28.704688818276296
 30
0.0
 40
0.2999999999999545
100
AcDbArc
 50
-90.0
 51
44.999999999984652
  0
LINE
  5
16D
100
AcDbEntity
  8
________1________1
370
              18
390
0
  6
Continuous
 62
               7
100
AcDbLine
 10
-121.07514257638917
 20
30.316820852632318
 30
0.0
 11
-119.67514257638931
 21
28.916820852632341
 31
0.0
  0
ARC
  5
16E
100
AcDbEntity
  8
________1________1
370
              18
390
0
  6
Continuous
 62
               7
100
AcDbCircle
 10
-121.28727461074521
 20
30.10468881827633
 30
0.0
 40
0.3000000000000346
100
AcDbArc
 50
44.999999999984652
 51
90.0
  0
ARC
  5
16F
100
AcDbEntity
  8
________1________1
370
              18
390
0
  6
Continuous
 62
               7
100
AcDbCircle
 10
-126.63874647332153
 20
30.10468881827633
 30
0.0
 40
0.3000000000000114
100
AcDbArc
 50
90.0
 51
135.00000000001538
  0
LINE
  5
170
100
AcDbEntity
  8
________1________1
370
              18
390
0
  6
Continuous
 62
               7
100
AcDbLine
 10
-126.63874647332131
 20
30.404688818276341
 30
0.0
 11
-121.28727461074521
 21
30.404688818276341
 31
0.0
  0
ENDBLK
  5
171
100
AcDbEntity
  8
0
390
0
100
AcDbBlockEnd
  0
BLOCK
  5
174
100
AcDbEntity
  8
0
390
0
100
AcDbBlockBegin
  2
C17
 70
              64
 10
0.0
 20
0.0
 30
0.0
  3
C17
  1

  0
ARC
  5
175
100
AcDbEntity
  8
________1________1
370
              18
390
0
  6
Continuous
 62
               7
100
AcDbCircle
 10
-141.28727461074521
 20
33.704688818276338
 30
0.0
 40
0.3000000000000682
100
AcDbArc
 50
-90.0
 51
-45.0
  0
LINE
  5
176
100
AcDbEntity
  8
________1________1
370
              18
390
0
  6
Continuous
 62
               7
100
AcDbLine
 10
-139.67514257638931
 20
34.892556783920384
 30
0.0
 11
-141.07514257638917
 21
33.492556783920406
 31
0.0
  0
ARC
  5
177
100
AcDbEntity
  8
________1________1
370
              18
390
0
  6
Continuous
 62
               7
100
AcDbCircle
 10
-139.88727461074535
 20
35.104688818276315
 30
0.0
 40
0.3000000000000346
100
AcDbArc
 50
-44.999999999984652
 51
90.0
  0
LINE
  5
178
100
AcDbEntity
  8
________1________1
370
              18
390
0
  6
Continuous
 62
               7
100
AcDbLine
 10
-146.85087850767735
 20
33.492556783920406
 30
0.0
 11
-148.25087850767721
 21
34.892556783920384
 31
0.0
  0
LINE
  5
179
100
AcDbEntity
  8
________1________1
370
              18
390
0
  6
Continuous
 62
               7
100
AcDbLine
 10
-148.03874647332117
 20
35.40468881827627
 30
0.0
 11
-139.88727461074535
 21
35.40468881827627
 31
0.0
  0
ARC
  5
17A
100
AcDbEntity
  8
________1________1
370
              18
390
0
  6
Continuous
 62
               7
100
AcDbCircle
 10
-148.03874647332117
 20
35.104688818276315
 30
0.0
 40
0.2999999999999545
100
AcDbArc
 50
90.0
 51
-135.00000000001538
  0
ARC
  5
17B
100
AcDbEntity
  8
________1________1
370
              18
390
0
  6
Continuous
 62
               7
100
AcDbCircle
 10
-146.63874647332153
 20
33.704688818276338
 30
0.0
 40
0.2999999999999542
100
AcDbArc
 50
-134.99999999996928
 51
-90.0
  0
LINE
  5
17C
100
AcDbEntity
  8
________1________1
370
              18
390
0
  6
Continuous
 62
               7
100
AcDbLine
 10
-141.28727461074521
 20
33.40468881827627
 30
0.0
 11
-146.63874647332131
 21
33.40468881827627
 31
0.0
  0
LINE
  5
17D
100
AcDbEntity
  8
________1________1
370
              18
390
0
  6
Continuous
 62
               7
100
AcDbLine
 10
-139.88727461074535
 20
28.404688818276341
 30
0.0
 11
-148.03874647332117
 21
28.404688818276341
 31
0.0
  0
LINE
  5
17E
100
AcDbEntity
  8
________1________1
370
              18
390
0
  6
Continuous
 62
               7
100
AcDbLine
 10
-148.25087850767721
 20
28.916820852632341
 30
0.0
 11
-146.85087850767735
 21
30.316820852632318
 31
0.0
  0
ARC
  5
17F
100
AcDbEntity
  8
________1________1
370
              18
390
0
  6
Continuous
 62
               7
100
AcDbCircle
 10
-148.03874647332117
 20
28.704688818276296
 30
0.0
 40
0.3000000000000748
100
AcDbArc
 50
135.00000000000767
 51
-90.0
  0
ARC
  5
180
100
AcDbEntity
  8
________1________1
370
              18
390
0
  6
Continuous
 62
               7
100
AcDbCircle
 10
-139.88727461074535
 20
28.704688818276296
 30
0.0
 40
0.2999999999999545
100
AcDbArc
 50
-90.0
 51
44.999999999984652
  0
LINE
  5
181
100
AcDbEntity
  8
________1________1
370
              18
390
0
  6
Continuous
 62
               7
100
AcDbLine
 10
-141.07514257638917
 20
30.316820852632318
 30
0.0
 11
-139.67514257638931
 21
28.916820852632341
 31
0.0
  0
ARC
  5
182
100
AcDbEntity
  8
________1________1
370
              18
390
0
  6
Continuous
 62
               7
100
AcDbCircle
 10
-141.28727461074521
 20
30.10468881827633
 30
0.0
 40
0.3000000000000346
100
AcDbArc
 50
44.999999999984652
 51
90.0
  0
ARC
  5
183
100
AcDbEntity
  8
________1________1
370
              18
390
0
  6
Continuous
 62
               7
100
AcDbCircle
 10
-146.63874647332153
 20
30.10468881827633
 30
0.0
 40
0.3000000000000114
100
AcDbArc
 50
90.0
 51
135.00000000001538
  0
LINE
  5
184
100
AcDbEntity
  8
________1________1
370
              18
390
0
  6
Continuous
 62
               7
100
AcDbLine
 10
-146.63874647332131
 20
30.404688818276341
 30
0.0
 11
-141.28727461074521
 21
30.404688818276341
 31
0.0
  0
ENDBLK
  5
185
100
AcDbEntity
  8
0
390
0
100
AcDbBlockEnd
  0
BLOCK
  5
188
100
AcDbEntity
  8
0
390
0
100
AcDbBlockBegin
  2
C18
 70
              64
 10
0.0
 20
0.0
 30
0.0
  3
C18
  1

  0
ARC
  5
189
100
AcDbEntity
  8
________1________1
370
              18
390
0
  6
Continuous
 62
               7
100
AcDbCircle
 10
-161.28727461074521
 20
33.704688818276338
 30
0.0
 40
0.3000000000000682
100
AcDbArc
 50
-90.0
 51
-45.0
  0
LINE
  5
18A
100
AcDbEntity
  8
________1________1
370
              18
390
0
  6
Continuous
 62
               7
100
AcDbLine
 10
-159.67514257638931
 20
34.892556783920384
 30
0.0
 11
-161.07514257638917
 21
33.492556783920406
 31
0.0
  0
ARC
  5
18B
100
AcDbEntity
  8
________1________1
370
              18
390
0
  6
Continuous
 62
               7
100
AcDbCircle
 10
-159.88727461074535
 20
35.104688818276315
 30
0.0
 40
0.3000000000000346
100
AcDbArc
 50
-44.999999999984652
 51
90.0
  0
LINE
  5
18C
100
AcDbEntity
  8
________1________1
370
              18
390
0
  6
Continuous
 62
               7
100
AcDbLine
 10
-166.85087850767735
 20
33.492556783920406
 30
0.0
 11
-168.25087850767721
 21
34.892556783920384
 31
0.0
  0
LINE
  5
18D
100
AcDbEntity
  8
________1________1
370
              18
390
0
  6
Continuous
 62
               7
100
AcDbLine
 10
-168.03874647332117
 20
35.40468881827627
 30
0.0
 11
-159.88727461074535
 21
35.40468881827627
 31
0.0
  0
ARC
  5
18E
100
AcDbEntity
  8
________1________1
370
              18
390
0
  6
Continuous
 62
               7
100
AcDbCircle
 10
-168.03874647332117
 20
35.104688818276315
 30
0.0
 40
0.2999999999999545
100
AcDbArc
 50
90.0
 51
-135.00000000001538
  0
ARC
  5
18F
100
AcDbEntity
  8
________1________1
370
              18
390
0
  6
Continuous
 62
               7
100
AcDbCircle
 10
-166.63874647332153
 20
33.704688818276338
 30
0.0
 40
0.2999999999999542
100
AcDbArc
 50
-134.99999999996928
 51
-90.0
  0
LINE
  5
190
100
AcDbEntity
  8
________1________1
370
              18
390
0
  6
Continuous
 62
               7
100
AcDbLine
 10
-161.28727461074521
 20
33.40468881827627
 30
0.0
 11
-166.63874647332131
 21
33.40468881827627
 31
0.0
  0
LINE
  5
191
100
AcDbEntity
  8
________1________1
370
              18
390
0
  6
Continuous
 62
               7
100
AcDbLine
 10
-159.88727461074535
 20
28.404688818276341
 30
0.0
 11
-168.03874647332117
 21
28.404688818276341
 31
0.0
  0
LINE
  5
192
100
AcDbEntity
  8
________1________1
370
              18
390
0
  6
Continuous
 62
               7
100
AcDbLine
 10
-168.25087850767721
 20
28.916820852632341
 30
0.0
 11
-166.85087850767735
 21
30.316820852632318
 31
0.0
  0
ARC
  5
193
100
AcDbEntity
  8
________1________1
370
              18
390
0
  6
Continuous
 62
               7
100
AcDbCircle
 10
-168.03874647332117
 20
28.704688818276296
 30
0.0
 40
0.3000000000000748
100
AcDbArc
 50
135.00000000000767
 51
-90.0
  0
ARC
  5
194
100
AcDbEntity
  8
________1________1
370
              18
390
0
  6
Continuous
 62
               7
100
AcDbCircle
 10
-159.88727461074535
 20
28.704688818276296
 30
0.0
 40
0.2999999999999545
100
AcDbArc
 50
-90.0
 51
44.999999999984652
  0
LINE
  5
195
100
AcDbEntity
  8
________1________1
370
              18
390
0
  6
Continuous
 62
               7
100
AcDbLine
 10
-161.07514257638917
 20
30.316820852632318
 30
0.0
 11
-159.67514257638931
 21
28.916820852632341
 31
0.0
  0
ARC
  5
196
100
AcDbEntity
  8
________1________1
370
              18
390
0
  6
Continuous
 62
               7
100
AcDbCircle
 10
-161.28727461074521
 20
30.10468881827633
 30
0.0
 40
0.3000000000000346
100
AcDbArc
 50
44.999999999984652
 51
90.0
  0
ARC
  5
197
100
AcDbEntity
  8
________1________1
370
              18
390
0
  6
Continuous
 62
               7
100
AcDbCircle
 10
-166.63874647332153
 20
30.10468881827633
 30
0.0
 40
0.3000000000000114
100
AcDbArc
 50
90.0
 51
135.00000000001538
  0
LINE
  5
198
100
AcDbEntity
  8
________1________1
370
              18
390
0
  6
Continuous
 62
               7
100
AcDbLine
 10
-166.63874647332131
 20
30.404688818276341
 30
0.0
 11
-161.28727461074521
 21
30.404688818276341
 31
0.0
  0
ENDBLK
  5
199
100
AcDbEntity
  8
0
390
0
100
AcDbBlockEnd
  0
BLOCK
  5
19C
100
AcDbEntity
  8
0
390
0
100
AcDbBlockBegin
  2
C19
 70
              64
 10
0.0
 20
0.0
 30
0.0
  3
C19
  1

  0
ARC
  5
19D
100
AcDbEntity
  8
________1________1
370
              18
390
0
  6
Continuous
 62
               7
100
AcDbCircle
 10
-181.28727461074521
 20
33.704688818276338
 30
0.0
 40
0.3000000000000682
100
AcDbArc
 50
-90.0
 51
-45.0
  0
LINE
  5
19E
100
AcDbEntity
  8
________1________1
370
              18
390
0
  6
Continuous
 62
               7
100
AcDbLine
 10
-179.67514257638931
 20
34.892556783920384
 30
0.0
 11
-181.07514257638917
 21
33.492556783920406
 31
0.0
  0
ARC
  5
19F
100
AcDbEntity
  8
________1________1
370
              18
390
0
  6
Continuous
 62
               7
100
AcDbCircle
 10
-179.88727461074535
 20
35.104688818276315
 30
0.0
 40
0.3000000000000346
100
AcDbArc
 50
-44.999999999984652
 51
90.0
  0
LINE
  5
1A0
100
AcDbEntity
  8
________1________1
370
              18
390
0
  6
Continuous
 62
               7
100
AcDbLine
 10
-186.85087850767735
 20
33.492556783920406
 30
0.0
 11
-188.25087850767721
 21
34.892556783920384
 31
0.0
  0
LINE
  5
1A1
100
AcDbEntity
  8
________1________1
370
              18
390
0
  6
Continuous
 62
               7
100
AcDbLine
 10
-188.03874647332117
 20
35.40468881827627
 30
0.0
 11
-179.88727461074535
 21
35.40468881827627
 31
0.0
  0
ARC
  5
1A2
100
AcDbEntity
  8
________1________1
370
              18
390
0
  6
Continuous
 62
               7
100
AcDbCircle
 10
-188.03874647332117
 20
35.104688818276315
 30
0.0
 40
0.2999999999999545
100
AcDbArc
 50
90.0
 51
-135.00000000001538
  0
ARC
  5
1A3
100
AcDbEntity
  8
________1________1
370
              18
390
0
  6
Continuous
 62
               7
100
AcDbCircle
 10
-186.63874647332153
 20
33.704688818276338
 30
0.0
 40
0.2999999999999542
100
AcDbArc
 50
-134.99999999996928
 51
-90.0
  0
LINE
  5
1A4
100
AcDbEntity
  8
________1________1
370
              18
390
0
  6
Continuous
 62
               7
100
AcDbLine
 10
-181.28727461074521
 20
33.40468881827627
 30
0.0
 11
-186.63874647332131
 21
33.40468881827627
 31
0.0
  0
LINE
  5
1A5
100
AcDbEntity
  8
________1________1
370
              18
390
0
  6
Continuous
 62
               7
100
AcDbLine
 10
-179.88727461074535
 20
28.404688818276341
 30
0.0
 11
-188.03874647332117
 21
28.404688818276341
 31
0.0
  0
LINE
  5
1A6
100
AcDbEntity
  8
________1________1
370
              18
390
0
  6
Continuous
 62
               7
100
AcDbLine
 10
-188.25087850767721
 20
28.916820852632341
 30
0.0
 11
-186.85087850767735
 21
30.316820852632318
 31
0.0
  0
ARC
  5
1A7
100
AcDbEntity
  8
________1________1
370
              18
390
0
  6
Continuous
 62
               7
100
AcDbCircle
 10
-188.03874647332117
 20
28.704688818276296
 30
0.0
 40
0.3000000000000748
100
AcDbArc
 50
135.00000000000767
 51
-90.0
  0
ARC
  5
1A8
100
AcDbEntity
  8
________1________1
370
              18
390
0
  6
Continuous
 62
               7
100
AcDbCircle
 10
-179.88727461074535
 20
28.704688818276296
 30
0.0
 40
0.2999999999999545
100
AcDbArc
 50
-90.0
 51
44.999999999984652
  0
LINE
  5
1A9
100
AcDbEntity
  8
________1________1
370
              18
390
0
  6
Continuous
 62
               7
100
AcDbLine
 10
-181.07514257638917
 20
30.316820852632318
 30
0.0
 11
-179.67514257638931
 21
28.916820852632341
 31
0.0
  0
ARC
  5
1AA
100
AcDbEntity
  8
________1________1
370
              18
390
0
  6
Continuous
 62
               7
100
AcDbCircle
 10
-181.28727461074521
 20
30.10468881827633
 30
0.0
 40
0.3000000000000346
100
AcDbArc
 50
44.999999999984652
 51
90.0
  0
ARC
  5
1AB
100
AcDbEntity
  8
________1________1
370
              18
390
0
  6
Continuous
 62
               7
100
AcDbCircle
 10
-186.63874647332153
 20
30.10468881827633
 30
0.0
 40
0.3000000000000114
100
AcDbArc
 50
90.0
 51
135.00000000001538
  0
LINE
  5
1AC
100
AcDbEntity
  8
________1________1
370
              18
390
0
  6
Continuous
 62
               7
100
AcDbLine
 10
-186.63874647332131
 20
30.404688818276341
 30
0.0
 11
-181.28727461074521
 21
30.404688818276341
 31
0.0
  0
ENDBLK
  5
1AD
100
AcDbEntity
  8
0
390
0
100
AcDbBlockEnd
  0
BLOCK
  5
1B0
100
AcDbEntity
  8
0
390
0
100
AcDbBlockBegin
  2
C20
 70
              64
 10
0.0
 20
0.0
 30
0.0
  3
C20
  1

  0
ARC
  5
1B1
100
AcDbEntity
  8
________1________1
370
              18
390
0
  6
Continuous
 62
               7
100
AcDbCircle
 10
-201.28727461074521
 20
33.704688818276338
 30
0.0
 40
0.3000000000000682
100
AcDbArc
 50
-90.0
 51
-45.0
  0
LINE
  5
1B2
100
AcDbEntity
  8
________1________1
370
              18
390
0
  6
Continuous
 62
               7
100
AcDbLine
 10
-199.67514257638931
 20
34.892556783920384
 30
0.0
 11
-201.07514257638917
 21
33.492556783920406
 31
0.0
  0
ARC
  5
1B3
100
AcDbEntity
  8
________1________1
370
              18
390
0
  6
Continuous
 62
               7
100
AcDbCircle
 10
-199.88727461074535
 20
35.104688818276315
 30
0.0
 40
0.3000000000000346
100
AcDbArc
 50
-44.999999999984652
 51
90.0
  0
LINE
  5
1B4
100
AcDbEntity
  8
________1________1
370
              18
390
0
  6
Continuous
 62
               7
100
AcDbLine
 10
-206.85087850767735
 20
33.492556783920406
 30
0.0
 11
-208.25087850767721
 21
34.892556783920384
 31
0.0
  0
LINE
  5
1B5
100
AcDbEntity
  8
________1________1
370
              18
390
0
  6
Continuous
 62
               7
100
AcDbLine
 10
-208.03874647332117
 20
35.40468881827627
 30
0.0
 11
-199.88727461074535
 21
35.40468881827627
 31
0.0
  0
ARC
  5
1B6
100
AcDbEntity
  8
________1________1
370
              18
390
0
  6
Continuous
 62
               7
100
AcDbCircle
 10
-208.03874647332117
 20
35.104688818276315
 30
0.0
 40
0.2999999999999545
100
AcDbArc
 50
90.0
 51
-135.00000000001538
  0
ARC
  5
1B7
100
AcDbEntity
  8
________1________1
370
              18
390
0
  6
Continuous
 62
               7
100
AcDbCircle
 10
-206.63874647332153
 20
33.704688818276338
 30
0.0
 40
0.2999999999999542
100
AcDbArc
 50
-134.99999999996928
 51
-90.0
  0
LINE
  5
1B8
100
AcDbEntity
  8
________1________1
370
              18
390
0
  6
Continuous
 62
               7
100
AcDbLine
 10
-201.28727461074521
 20
33.40468881827627
 30
0.0
 11
-206.63874647332131
 21
33.40468881827627
 31
0.0
  0
LINE
  5
1B9
100
AcDbEntity
  8
________1________1
370
              18
390
0
  6
Continuous
 62
               7
100
AcDbLine
 10
-199.88727461074535
 20
28.404688818276341
 30
0.0
 11
-208.03874647332117
 21
28.404688818276341
 31
0.0
  0
LINE
  5
1BA
100
AcDbEntity
  8
________1________1
370
              18
390
0
  6
Continuous
 62
               7
100
AcDbLine
 10
-208.25087850767721
 20
28.916820852632341
 30
0.0
 11
-206.85087850767735
 21
30.316820852632318
 31
0.0
  0
ARC
  5
1BB
100
AcDbEntity
  8
________1________1
370
              18
390
0
  6
Continuous
 62
               7
100
AcDbCircle
 10
-208.03874647332117
 20
28.704688818276296
 30
0.0
 40
0.3000000000000748
100
AcDbArc
 50
135.00000000000767
 51
-90.0
  0
ARC
  5
1BC
100
AcDbEntity
  8
________1________1
370
              18
390
0
  6
Continuous
 62
               7
100
AcDbCircle
 10
-199.88727461074535
 20
28.704688818276296
 30
0.0
 40
0.2999999999999545
100
AcDbArc
 50
-90.0
 51
44.999999999984652
  0
LINE
  5
1BD
100
AcDbEntity
  8
________1________1
370
              18
390
0
  6
Continuous
 62
               7
100
AcDbLine
 10
-201.07514257638917
 20
30.316820852632318
 30
0.0
 11
-199.67514257638931
 21
28.916820852632341
 31
0.0
  0
ARC
  5
1BE
100
AcDbEntity
  8
________1________1
370
              18
390
0
  6
Continuous
 62
               7
100
AcDbCircle
 10
-201.28727461074521
 20
30.10468881827633
 30
0.0
 40
0.3000000000000346
100
AcDbArc
 50
44.999999999984652
 51
90.0
  0
ARC
  5
1BF
100
AcDbEntity
  8
________1________1
370
              18
390
0
  6
Continuous
 62
               7
100
AcDbCircle
 10
-206.63874647332153
 20
30.10468881827633
 30
0.0
 40
0.3000000000000114
100
AcDbArc
 50
90.0
 51
135.00000000001538
  0
LINE
  5
1C0
100
AcDbEntity
  8
________1________1
370
              18
390
0
  6
Continuous
 62
               7
100
AcDbLine
 10
-206.63874647332131
 20
30.404688818276341
 30
0.0
 11
-201.28727461074521
 21
30.404688818276341
 31
0.0
  0
ENDBLK
  5
1C1
100
AcDbEntity
  8
0
390
0
100
AcDbBlockEnd
  0
BLOCK
  5
1C4
100
AcDbEntity
  8
0
390
0
100
AcDbBlockBegin
  2
C21
 70
              64
 10
0.0
 20
0.0
 30
0.0
  3
C21
  1

  0
ARC
  5
1C5
100
AcDbEntity
  8
________1________1
370
              18
390
0
  6
Continuous
 62
               7
100
AcDbCircle
 10
-221.28727461074521
 20
33.704688818276338
 30
0.0
 40
0.3000000000000682
100
AcDbArc
 50
-90.0
 51
-45.0
  0
LINE
  5
1C6
100
AcDbEntity
  8
________1________1
370
              18
390
0
  6
Continuous
 62
               7
100
AcDbLine
 10
-219.67514257638931
 20
34.892556783920384
 30
0.0
 11
-221.07514257638917
 21
33.492556783920406
 31
0.0
  0
ARC
  5
1C7
100
AcDbEntity
  8
________1________1
370
              18
390
0
  6
Continuous
 62
               7
100
AcDbCircle
 10
-219.88727461074535
 20
35.104688818276315
 30
0.0
 40
0.3000000000000346
100
AcDbArc
 50
-44.999999999984652
 51
90.0
  0
LINE
  5
1C8
100
AcDbEntity
  8
________1________1
370
              18
390
0
  6
Continuous
 62
               7
100
AcDbLine
 10
-226.85087850767735
 20
33.492556783920406
 30
0.0
 11
-228.25087850767721
 21
34.892556783920384
 31
0.0
  0
LINE
  5
1C9
100
AcDbEntity
  8
________1________1
370
              18
390
0
  6
Continuous
 62
               7
100
AcDbLine
 10
-228.03874647332117
 20
35.40468881827627
 30
0.0
 11
-219.88727461074535
 21
35.40468881827627
 31
0.0
  0
ARC
  5
1CA
100
AcDbEntity
  8
________1________1
370
              18
390
0
  6
Continuous
 62
               7
100
AcDbCircle
 10
-228.03874647332117
 20
35.104688818276315
 30
0.0
 40
0.2999999999999545
100
AcDbArc
 50
90.0
 51
-135.00000000001538
  0
ARC
  5
1CB
100
AcDbEntity
  8
________1________1
370
              18
390
0
  6
Continuous
 62
               7
100
AcDbCircle
 10
-226.63874647332153
 20
33.704688818276338
 30
0.0
 40
0.2999999999999542
100
AcDbArc
 50
-134.99999999996928
 51
-90.0
  0
LINE
  5
1CC
100
AcDbEntity
  8
________1________1
370
              18
390
0
  6
Continuous
 62
               7
100
AcDbLine
 10
-221.28727461074521
 20
33.40468881827627
 30
0.0
 11
-226.63874647332131
 21
33.40468881827627
 31
0.0
  0
LINE
  5
1CD
100
AcDbEntity
  8
________1________1
370
              18
390
0
  6
Continuous
 62
               7
100
AcDbLine
 10
-219.88727461074535
 20
28.404688818276341
 30
0.0
 11
-228.03874647332117
 21
28.404688818276341
 31
0.0
  0
LINE
  5
1CE
100
AcDbEntity
  8
________1________1
370
              18
390
0
  6
Continuous
 62
               7
100
AcDbLine
 10
-228.25087850767721
 20
28.916820852632341
 30
0.0
 11
-226.85087850767735
 21
30.316820852632318
 31
0.0
  0
ARC
  5
1CF
100
AcDbEntity
  8
________1________1
370
              18
390
0
  6
Continuous
 62
               7
100
AcDbCircle
 10
-228.03874647332117
 20
28.704688818276296
 30
0.0
 40
0.3000000000000748
100
AcDbArc
 50
135.00000000000767
 51
-90.0
  0
ARC
  5
1D0
100
AcDbEntity
  8
________1________1
370
              18
390
0
  6
Continuous
 62
               7
100
AcDbCircle
 10
-219.88727461074535
 20
28.704688818276296
 30
0.0
 40
0.2999999999999545
100
AcDbArc
 50
-90.0
 51
44.999999999984652
  0
LINE
  5
1D1
100
AcDbEntity
  8
________1________1
370
              18
390
0
  6
Continuous
 62
               7
100
AcDbLine
 10
-221.07514257638917
 20
30.316820852632318
 30
0.0
 11
-219.67514257638931
 21
28.916820852632341
 31
0.0
  0
ARC
  5
1D2
100
AcDbEntity
  8
________1________1
370
              18
390
0
  6
Continuous
 62
               7
100
AcDbCircle
 10
-221.28727461074521
 20
30.10468881827633
 30
0.0
 40
0.3000000000000346
100
AcDbArc
 50
44.999999999984652
 51
90.0
  0
ARC
  5
1D3
100
AcDbEntity
  8
________1________1
370
              18
390
0
  6
Continuous
 62
               7
100
AcDbCircle
 10
-226.63874647332153
 20
30.10468881827633
 30
0.0
 40
0.3000000000000114
100
AcDbArc
 50
90.0
 51
135.00000000001538
  0
LINE
  5
1D4
100
AcDbEntity
  8
________1________1
370
              18
390
0
  6
Continuous
 62
               7
100
AcDbLine
 10
-226.63874647332131
 20
30.404688818276341
 30
0.0
 11
-221.28727461074521
 21
30.404688818276341
 31
0.0
  0
ENDBLK
  5
1D5
100
AcDbEntity
  8
0
390
0
100
AcDbBlockEnd
  0
BLOCK
  5
1DB
100
AcDbEntity
  8
0
390
0
100
AcDbBlockBegin
  2
C22
 70
              64
 10
0.0
 20
0.0
 30
0.0
  3
C22
  1

  0
INSERT
  5
1E3
100
AcDbEntity
  8
____1
370
               5
390
0
  6
CENTER2
 62
               7
100
AcDbBlockReference
  2
C23
 10
0.0
 20
0.0
 30
0.0
  0
ARC
  5
1E4
100
AcDbEntity
  8
________1________1
370
               5
390
0
  6
DASHED
 62
               7
100
AcDbCircle
 10
-233.96301054203337
 20
31.904688818276398
 30
0.0
 40
3.8298989873223377
100
AcDbArc
 50
-90.0
 51
90.0
  0
ARC
  5
1E5
100
AcDbEntity
  8
________1________1
370
              18
390
0
  6
Continuous
 62
               7
100
AcDbCircle
 10
-233.96301054203337
 20
31.904688818276398
 30
0.0
 40
1.75
100
AcDbArc
 50
-90.0
 51
0.0000000000074443
  0
ARC
  5
1E6
100
AcDbEntity
  8
________1________1
370
              18
390
0
  6
Continuous
 62
               7
100
AcDbCircle
 10
-233.96301054203337
 20
31.904688818276398
 30
0.0
 40
1.7500000000001137
100
AcDbArc
 50
0.0000000000055832
 51
90.0
  0
ARC
  5
1E7
100
AcDbEntity
  8
________1________1
370
               5
390
0
  6
DASHED
 62
               7
100
AcDbCircle
 10
-233.96301054203337
 20
31.904688818276398
 30
0.0
 40
3.8298989873223803
100
AcDbArc
 50
90.0
 51
-90.0
  0
CIRCLE
  5
1E8
100
AcDbEntity
  8
________1________1
370
              18
390
0
  6
Continuous
 62
               7
100
AcDbCircle
 10
-233.9630105420336
 20
31.904688818276625
 30
0.0
 40
3.25
210
0.0
220
0.0
230
1.0
  0
ARC
  5
1E9
100
AcDbEntity
  8
________1________1
370
              18
390
0
  6
Continuous
 62
               7
100
AcDbCircle
 10
-233.96301054203337
 20
31.904688818276398
 30
0.0
 40
1.7499999999999858
100
AcDbArc
 50
90.0
 51
179.99999999999258
  0
CIRCLE
  5
1EA
100
AcDbEntity
  8
________1________1
370
               5
390
0
  6
DASHED
 62
               7
100
AcDbCircle
 10
-233.96301054203337
 20
31.904688818276398
 30
0.0
 40
2.7399494936611291
210
0.0
220
0.0
230
1.0
  0
ARC
  5
1EB
100
AcDbEntity
  8
________1________1
370
              18
390
0
  6
Continuous
 62
               7
100
AcDbCircle
 10
-233.96301054203337
 20
31.904688818276398
 30
0.0
 40
1.7499999999998863
100
AcDbArc
 50
179.99999999999443
 51
-90.0
  0
ENDBLK
  5
1EC
100
AcDbEntity
  8
0
390
0
100
AcDbBlockEnd
  0
BLOCK
  5
1DD
100
AcDbEntity
  8
0
390
0
100
AcDbBlockBegin
  2
C23
 70
              64
 10
0.0
 20
0.0
 30
0.0
  3
C23
  1

  0
LINE
  5
1DE
100
AcDbEntity
  8
____1
370
               5
390
0
  6
CENTER2
 62
               7
100
AcDbLine
 10
-233.96301054203337
 20
31.904688818276398
 30
0.0
 11
-239.29290952935565
 21
31.904688818276398
 31
0.0
  0
LINE
  5
1DF
100
AcDbEntity
  8
____1
370
               5
390
0
  6
CENTER2
 62
               7
100
AcDbLine
 10
-233.96301054203337
 20
31.904688818276398
 30
0.0
 11
-233.96301054203337
 21
26.57478983095406
 31
0.0
  0
LINE
  5
1E0
100
AcDbEntity
  8
____1
370
               5
390
0
  6
CENTER2
 62
               7
100
AcDbLine
 10
-233.96301054203337
 20
31.904688818276398
 30
0.0
 11
-228.63311155471087
 21
31.904688818276398
 31
0.0
  0
LINE
  5
1E1
100
AcDbEntity
  8
____1
370
               5
390
0
  6
CENTER2
 62
               7
100
AcDbLine
 10
-233.96301054203337
 20
31.904688818276398
 30
0.0
 11
-233.96301054203337
 21
37.234587805598721
 31
0.0
  0
ENDBLK
  5
1E2
100
AcDbEntity
  8
0
390
0
100
AcDbBlockEnd
  0
BLOCK
  5
1EF
100
AcDbEntity
  8
0
390
0
100
AcDbBlockBegin
  2
C24
 70
              64
 10
0.0
 20
0.0
 30
0.0
  3
C24
  1

  0
INSERT
  5
1F7
100
AcDbEntity
  8
____1
370
               5
390
0
  6
CENTER2
 62
               7
100
AcDbBlockReference
  2
C25
 10
0.0
 20
0.0
 30
0.0
  0
ARC
  5
1F8
100
AcDbEntity
  8
________1________1
370
               5
390
0
  6
DASHED
 62
               7
100
AcDbCircle
 10
-93.963010542033203
 20
31.904688818276398
 30
0.0
 40
3.8298989873223377
100
AcDbArc
 50
-90.0
 51
90.0
  0
ARC
  5
1F9
100
AcDbEntity
  8
________1________1
370
              18
390
0
  6
Continuous
 62
               7
100
AcDbCircle
 10
-93.963010542033203
 20
31.904688818276398
 30
0.0
 40
1.75
100
AcDbArc
 50
-90.0
 51
0.0000000000074443
  0
ARC
  5
1FA
100
AcDbEntity
  8
________1________1
370
              18
390
0
  6
Continuous
 62
               7
100
AcDbCircle
 10
-93.963010542033203
 20
31.904688818276398
 30
0.0
 40
1.75
100
AcDbArc
 50
0.0000000000055832
 51
90.0
  0
ARC
  5
1FB
100
AcDbEntity
  8
________1________1
370
               5
390
0
  6
DASHED
 62
               7
100
AcDbCircle
 10
-93.963010542033203
 20
31.904688818276398
 30
0.0
 40
3.8298989873223803
100
AcDbArc
 50
90.0
 51
-90.0
  0
CIRCLE
  5
1FC
100
AcDbEntity
  8
________1________1
370
              18
390
0
  6
Continuous
 62
               7
100
AcDbCircle
 10
-93.96301054203343
 20
31.904688818276625
 30
0.0
 40
3.25
210
0.0
220
0.0
230
1.0
  0
ARC
  5
1FD
100
AcDbEntity
  8
________1________1
370
              18
390
0
  6
Continuous
 62
               7
100
AcDbCircle
 10
-93.963010542033203
 20
31.904688818276398
 30
0.0
 40
1.7499999999999858
100
AcDbArc
 50
90.0
 51
179.99999999999258
  0
CIRCLE
  5
1FE
100
AcDbEntity
  8
________1________1
370
               5
390
0
  6
DASHED
 62
               7
100
AcDbCircle
 10
-93.963010542033203
 20
31.904688818276398
 30
0.0
 40
2.7399494936611291
210
0.0
220
0.0
230
1.0
  0
ARC
  5
1FF
100
AcDbEntity
  8
________1________1
370
              18
390
0
  6
Continuous
 62
               7
100
AcDbCircle
 10
-93.963010542033203
 20
31.904688818276398
 30
0.0
 40
1.75
100
AcDbArc
 50
179.99999999999443
 51
-90.0
  0
ENDBLK
  5
200
100
AcDbEntity
  8
0
390
0
100
AcDbBlockEnd
  0
BLOCK
  5
1F1
100
AcDbEntity
  8
0
390
0
100
AcDbBlockBegin
  2
C25
 70
              64
 10
0.0
 20
0.0
 30
0.0
  3
C25
  1

  0
LINE
  5
1F2
100
AcDbEntity
  8
____1
370
               5
390
0
  6
CENTER2
 62
               7
100
AcDbLine
 10
-93.963010542033203
 20
31.904688818276398
 30
0.0
 11
-99.292909529355597
 21
31.904688818276398
 31
0.0
  0
LINE
  5
1F3
100
AcDbEntity
  8
____1
370
               5
390
0
  6
CENTER2
 62
               7
100
AcDbLine
 10
-93.963010542033203
 20
31.904688818276398
 30
0.0
 11
-93.963010542033203
 21
26.57478983095406
 31
0.0
  0
LINE
  5
1F4
100
AcDbEntity
  8
____1
370
               5
390
0
  6
CENTER2
 62
               7
100
AcDbLine
 10
-93.963010542033203
 20
31.904688818276398
 30
0.0
 11
-88.633111554710808
 21
31.904688818276398
 31
0.0
  0
LINE
  5
1F5
100
AcDbEntity
  8
____1
370
               5
390
0
  6
CENTER2
 62
               7
100
AcDbLine
 10
-93.963010542033203
 20
31.904688818276398
 30
0.0
 11
-93.963010542033203
 21
37.234587805598721
 31
0.0
  0
ENDBLK
  5
1F6
100
AcDbEntity
  8
0
390
0
100
AcDbBlockEnd
  0
BLOCK
  5
211
100
AcDbEntity
  8
0
390
0
100
AcDbBlockBegin
  2
*D26
 70
              65
 10
0.0
 20
0.0
 30
0.0
  3
*D26
  1

  0
LINE
  5
212
100
AcDbEntity
  8
____1
370
               5
390
0
  6
Continuous
 62
               7
100
AcDbLine
 10
487.61687961154479
 20
43.554688818276389
 30
0.0
 11
487.61687961154479
 21
102.94514973958329
 31
0.0
  0
LINE
  5
213
100
AcDbEntity
  8
____1
370
               5
390
0
  6
Continuous
 62
               7
100
AcDbLine
 10
347.61687961154524
 20
42.234587805598721
 30
0.0
 11
347.61687961154524
 21
102.94514973958329
 31
0.0
  0
SOLID
  5
214
100
AcDbEntity
  8
____1
370
               5
390
0
  6
Continuous
 62
               7
100
AcDbTrace
 10
352.44650855594222
 20
99.151054461797031
 30
0.0
 11
352.44650855594222
 21
99.151054461797031
 31
0.0
 12
347.61687961154524
 22
100.44514973958329
 32
0.0
 13
351.23910131984297
 23
100.44514973958329
 33
0.0
  0
SOLID
  5
215
100
AcDbEntity
  8
____1
370
               5
390
0
  6
Continuous
 62
               7
100
AcDbTrace
 10
347.61687961154524
 20
100.44514973958329
 30
0.0
 11
351.23910131984297
 21
100.44514973958329
 31
0.0
 12
352.44650855594222
 22
101.73924501736954
 32
0.0
 13
352.44650855594222
 23
101.73924501736954
 33
0.0
  0
LINE
  5
216
100
AcDbEntity
  8
____1
370
               5
390
0
  6
Continuous
 62
               7
100
AcDbLine
 10
347.61687961154524
 20
100.44514973958329
 30
0.0
 11
417.61687961154502
 21
100.44514973958329
 31
0.0
  0
SOLID
  5
217
100
AcDbEntity
  8
____1
370
               5
390
0
  6
Continuous
 62
               7
100
AcDbTrace
 10
482.78725066714782
 20
99.151054461797031
 30
0.0
 11
482.78725066714782
 21
99.151054461797031
 31
0.0
 12
483.99465790324706
 22
100.44514973958329
 32
0.0
 13
487.61687961154479
 23
100.44514973958329
 33
0.0
  0
SOLID
  5
218
100
AcDbEntity
  8
____1
370
               5
390
0
  6
Continuous
 62
               7
100
AcDbTrace
 10
483.99465790324706
 20
100.44514973958329
 30
0.0
 11
487.61687961154479
 21
100.44514973958329
 31
0.0
 12
482.78725066714782
 22
101.73924501736954
 32
0.0
 13
482.78725066714782
 23
101.73924501736954
 33
0.0
  0
LINE
  5
219
100
AcDbEntity
  8
____1
370
               5
390
0
  6
Continuous
 62
               7
100
AcDbLine
 10
487.61687961154479
 20
100.44514973958329
 30
0.0
 11
417.61687961154502
 21
100.44514973958329
 31
0.0
  0
MTEXT
  5
21A
100
AcDbEntity
  8
寸法線_1
370
               5
390
0
  6
CENTER2
 62
               7
100
AcDbMText
 10
409.6793798499636
 20
113.52848275502518
 30
0.0
 40
10.583333015441895
 41
15.937010761350393
 71
               1
 72
               1
  1
140
  7
Style1
 11
0.9999999999999999
 21
0.0
 31
0.0
 73
               1
 44
1.0
  0
ENDBLK
  5
21B
100
AcDbEntity
  8
0
390
0
100
AcDbBlockEnd
  0
BLOCK
  5
220
100
AcDbEntity
  8
0
390
0
100
AcDbBlockBegin
  2
C26
 70
              64
 10
0.0
 20
0.0
 30
0.0
  3
C26
  1

  0
ARC
  5
221
100
AcDbEntity
  8
________1________1
370
              18
390
0
  6
Continuous
 62
               7
100
AcDbCircle
 10
440.29261554283283
 20
33.704688818276338
 30
0.0
 40
0.3000000000000682
100
AcDbArc
 50
-90.0
 51
-45.000000000030703
  0
LINE
  5
222
100
AcDbEntity
  8
________1________1
370
              18
390
0
  6
Continuous
 62
               7
100
AcDbLine
 10
441.9047475771892
 20
34.892556783920384
 30
0.0
 11
440.50474757718865
 21
33.492556783920406
 31
0.0
  0
ARC
  5
223
100
AcDbEntity
  8
________1________1
370
              18
390
0
  6
Continuous
 62
               7
100
AcDbCircle
 10
441.69261554283247
 20
35.104688818276315
 30
0.0
 40
0.3000000000005169
100
AcDbArc
 50
-44.99999999989253
 51
90.0
  0
LINE
  5
224
100
AcDbEntity
  8
________1________1
370
              18
390
0
  6
Continuous
 62
               7
100
AcDbLine
 10
434.72901164590047
 20
33.492556783920406
 30
0.0
 11
433.32901164590083
 21
34.892556783920384
 31
0.0
  0
LINE
  5
225
100
AcDbEntity
  8
________1________1
370
              18
390
0
  6
Continuous
 62
               7
100
AcDbLine
 10
433.54114368025665
 20
35.40468881827627
 30
0.0
 11
441.69261554283247
 21
35.40468881827627
 31
0.0
  0
ARC
  5
226
100
AcDbEntity
  8
________1________1
370
              18
390
0
  6
Continuous
 62
               7
100
AcDbCircle
 10
433.54114368025665
 20
35.104688818276315
 30
0.0
 40
0.2999999999999545
100
AcDbArc
 50
90.0
 51
-134.99999999998465
  0
ARC
  5
227
100
AcDbEntity
  8
________1________1
370
              18
390
0
  6
Continuous
 62
               7
100
AcDbCircle
 10
434.94114368025629
 20
33.704688818276338
 30
0.0
 40
0.2999999999999542
100
AcDbArc
 50
-134.99999999996928
 51
-90.0
  0
LINE
  5
228
100
AcDbEntity
  8
________1________1
370
              18
390
0
  6
Continuous
 62
               7
100
AcDbLine
 10
440.29261554283283
 20
33.40468881827627
 30
0.0
 11
434.9411436802572
 21
33.40468881827627
 31
0.0
  0
LINE
  5
229
100
AcDbEntity
  8
________1________1
370
              18
390
0
  6
Continuous
 62
               7
100
AcDbLine
 10
441.69261554283247
 20
28.404688818276341
 30
0.0
 11
433.54114368025665
 21
28.404688818276341
 31
0.0
  0
LINE
  5
22A
100
AcDbEntity
  8
________1________1
370
              18
390
0
  6
Continuous
 62
               7
100
AcDbLine
 10
433.32901164590083
 20
28.916820852632341
 30
0.0
 11
434.72901164590047
 21
30.316820852632318
 31
0.0
  0
ARC
  5
22B
100
AcDbEntity
  8
________1________1
370
              18
390
0
  6
Continuous
 62
               7
100
AcDbCircle
 10
433.54114368025665
 20
28.704688818276296
 30
0.0
 40
0.299999999999914
100
AcDbArc
 50
134.99999999997698
 51
-90.0
  0
ARC
  5
22C
100
AcDbEntity
  8
________1________1
370
              18
390
0
  6
Continuous
 62
               7
100
AcDbCircle
 10
441.69261554283247
 20
28.704688818276296
 30
0.0
 40
0.2999999999999545
100
AcDbArc
 50
-90.0
 51
44.99999999989253
  0
LINE
  5
22D
100
AcDbEntity
  8
________1________1
370
              18
390
0
  6
Continuous
 62
               7
100
AcDbLine
 10
440.50474757718865
 20
30.316820852632318
 30
0.0
 11
441.9047475771892
 21
28.916820852632341
 31
0.0
  0
ARC
  5
22E
100
AcDbEntity
  8
________1________1
370
              18
390
0
  6
Continuous
 62
               7
100
AcDbCircle
 10
440.29261554283283
 20
30.10468881827633
 30
0.0
 40
0.2999999999998738
100
AcDbArc
 50
45.000000000015355
 51
90.0
  0
ARC
  5
22F
100
AcDbEntity
  8
________1________1
370
              18
390
0
  6
Continuous
 62
               7
100
AcDbCircle
 10
434.94114368025629
 20
30.10468881827633
 30
0.0
 40
0.3000000000000114
100
AcDbArc
 50
90.0
 51
134.99999999998465
  0
LINE
  5
230
100
AcDbEntity
  8
________1________1
370
              18
390
0
  6
Continuous
 62
               7
100
AcDbLine
 10
434.9411436802572
 20
30.404688818276341
 30
0.0
 11
440.29261554283283
 21
30.404688818276341
 31
0.0
  0
ENDBLK
  5
231
100
AcDbEntity
  8
0
390
0
100
AcDbBlockEnd
  0
BLOCK
  5
234
100
AcDbEntity
  8
0
390
0
100
AcDbBlockBegin
  2
C27
 70
              64
 10
0.0
 20
0.0
 30
0.0
  3
C27
  1

  0
ARC
  5
235
100
AcDbEntity
  8
________1________1
370
              18
390
0
  6
Continuous
 62
               7
100
AcDbCircle
 10
420.29261554283283
 20
33.704688818276338
 30
0.0
 40
0.3000000000000682
100
AcDbArc
 50
-90.0
 51
-45.000000000030703
  0
LINE
  5
236
100
AcDbEntity
  8
________1________1
370
              18
390
0
  6
Continuous
 62
               7
100
AcDbLine
 10
421.9047475771892
 20
34.892556783920384
 30
0.0
 11
420.50474757718865
 21
33.492556783920406
 31
0.0
  0
ARC
  5
237
100
AcDbEntity
  8
________1________1
370
              18
390
0
  6
Continuous
 62
               7
100
AcDbCircle
 10
421.69261554283247
 20
35.104688818276315
 30
0.0
 40
0.3000000000005169
100
AcDbArc
 50
-44.99999999989253
 51
90.0
  0
LINE
  5
238
100
AcDbEntity
  8
________1________1
370
              18
390
0
  6
Continuous
 62
               7
100
AcDbLine
 10
414.72901164590047
 20
33.492556783920406
 30
0.0
 11
413.32901164590083
 21
34.892556783920384
 31
0.0
  0
LINE
  5
239
100
AcDbEntity
  8
________1________1
370
              18
390
0
  6
Continuous
 62
               7
100
AcDbLine
 10
413.54114368025665
 20
35.40468881827627
 30
0.0
 11
421.69261554283247
 21
35.40468881827627
 31
0.0
  0
ARC
  5
23A
100
AcDbEntity
  8
________1________1
370
              18
390
0
  6
Continuous
 62
               7
100
AcDbCircle
 10
413.54114368025665
 20
35.104688818276315
 30
0.0
 40
0.2999999999999545
100
AcDbArc
 50
90.0
 51
-134.99999999998465
  0
ARC
  5
23B
100
AcDbEntity
  8
________1________1
370
              18
390
0
  6
Continuous
 62
               7
100
AcDbCircle
 10
414.94114368025629
 20
33.704688818276338
 30
0.0
 40
0.2999999999999542
100
AcDbArc
 50
-134.99999999996928
 51
-90.0
  0
LINE
  5
23C
100
AcDbEntity
  8
________1________1
370
              18
390
0
  6
Continuous
 62
               7
100
AcDbLine
 10
420.29261554283283
 20
33.40468881827627
 30
0.0
 11
414.9411436802572
 21
33.40468881827627
 31
0.0
  0
LINE
  5
23D
100
AcDbEntity
  8
________1________1
370
              18
390
0
  6
Continuous
 62
               7
100
AcDbLine
 10
421.69261554283247
 20
28.404688818276341
 30
0.0
 11
413.54114368025665
 21
28.404688818276341
 31
0.0
  0
LINE
  5
23E
100
AcDbEntity
  8
________1________1
370
              18
390
0
  6
Continuous
 62
               7
100
AcDbLine
 10
413.32901164590083
 20
28.916820852632341
 30
0.0
 11
414.72901164590047
 21
30.316820852632318
 31
0.0
  0
ARC
  5
23F
100
AcDbEntity
  8
________1________1
370
              18
390
0
  6
Continuous
 62
               7
100
AcDbCircle
 10
413.54114368025665
 20
28.704688818276296
 30
0.0
 40
0.299999999999914
100
AcDbArc
 50
134.99999999997698
 51
-90.0
  0
ARC
  5
240
100
AcDbEntity
  8
________1________1
370
              18
390
0
  6
Continuous
 62
               7
100
AcDbCircle
 10
421.69261554283247
 20
28.704688818276296
 30
0.0
 40
0.2999999999999545
100
AcDbArc
 50
-90.0
 51
44.99999999989253
  0
LINE
  5
241
100
AcDbEntity
  8
________1________1
370
              18
390
0
  6
Continuous
 62
               7
100
AcDbLine
 10
420.50474757718865
 20
30.316820852632318
 30
0.0
 11
421.9047475771892
 21
28.916820852632341
 31
0.0
  0
ARC
  5
242
100
AcDbEntity
  8
________1________1
370
              18
390
0
  6
Continuous
 62
               7
100
AcDbCircle
 10
420.29261554283283
 20
30.10468881827633
 30
0.0
 40
0.2999999999998738
100
AcDbArc
 50
45.000000000015355
 51
90.0
  0
ARC
  5
243
100
AcDbEntity
  8
________1________1
370
              18
390
0
  6
Continuous
 62
               7
100
AcDbCircle
 10
414.94114368025629
 20
30.10468881827633
 30
0.0
 40
0.3000000000000114
100
AcDbArc
 50
90.0
 51
134.99999999998465
  0
LINE
  5
244
100
AcDbEntity
  8
________1________1
370
              18
390
0
  6
Continuous
 62
               7
100
AcDbLine
 10
414.9411436802572
 20
30.404688818276341
 30
0.0
 11
420.29261554283283
 21
30.404688818276341
 31
0.0
  0
ENDBLK
  5
245
100
AcDbEntity
  8
0
390
0
100
AcDbBlockEnd
  0
BLOCK
  5
248
100
AcDbEntity
  8
0
390
0
100
AcDbBlockBegin
  2
C28
 70
              64
 10
0.0
 20
0.0
 30
0.0
  3
C28
  1

  0
ARC
  5
249
100
AcDbEntity
  8
________1________1
370
              18
390
0
  6
Continuous
 62
               7
100
AcDbCircle
 10
400.29261554283295
 20
33.704688818276338
 30
0.0
 40
0.3000000000000682
100
AcDbArc
 50
-90.0
 51
-45.000000000030703
  0
LINE
  5
24A
100
AcDbEntity
  8
________1________1
370
              18
390
0
  6
Continuous
 62
               7
100
AcDbLine
 10
401.90474757718931
 20
34.892556783920384
 30
0.0
 11
400.50474757718877
 21
33.492556783920406
 31
0.0
  0
ARC
  5
24B
100
AcDbEntity
  8
________1________1
370
              18
390
0
  6
Continuous
 62
               7
100
AcDbCircle
 10
401.69261554283258
 20
35.104688818276315
 30
0.0
 40
0.3000000000005169
100
AcDbArc
 50
-44.99999999989253
 51
90.0
  0
LINE
  5
24C
100
AcDbEntity
  8
________1________1
370
              18
390
0
  6
Continuous
 62
               7
100
AcDbLine
 10
394.72901164590058
 20
33.492556783920406
 30
0.0
 11
393.32901164590095
 21
34.892556783920384
 31
0.0
  0
LINE
  5
24D
100
AcDbEntity
  8
________1________1
370
              18
390
0
  6
Continuous
 62
               7
100
AcDbLine
 10
393.54114368025677
 20
35.40468881827627
 30
0.0
 11
401.69261554283258
 21
35.40468881827627
 31
0.0
  0
ARC
  5
24E
100
AcDbEntity
  8
________1________1
370
              18
390
0
  6
Continuous
 62
               7
100
AcDbCircle
 10
393.54114368025677
 20
35.104688818276315
 30
0.0
 40
0.2999999999999545
100
AcDbArc
 50
90.0
 51
-134.99999999998465
  0
ARC
  5
24F
100
AcDbEntity
  8
________1________1
370
              18
390
0
  6
Continuous
 62
               7
100
AcDbCircle
 10
394.9411436802564
 20
33.704688818276338
 30
0.0
 40
0.2999999999999542
100
AcDbArc
 50
-134.99999999996928
 51
-90.0
  0
LINE
  5
250
100
AcDbEntity
  8
________1________1
370
              18
390
0
  6
Continuous
 62
               7
100
AcDbLine
 10
400.29261554283295
 20
33.40468881827627
 30
0.0
 11
394.94114368025731
 21
33.40468881827627
 31
0.0
  0
LINE
  5
251
100
AcDbEntity
  8
________1________1
370
              18
390
0
  6
Continuous
 62
               7
100
AcDbLine
 10
401.69261554283258
 20
28.404688818276341
 30
0.0
 11
393.54114368025677
 21
28.404688818276341
 31
0.0
  0
LINE
  5
252
100
AcDbEntity
  8
________1________1
370
              18
390
0
  6
Continuous
 62
               7
100
AcDbLine
 10
393.32901164590095
 20
28.916820852632341
 30
0.0
 11
394.72901164590058
 21
30.316820852632318
 31
0.0
  0
ARC
  5
253
100
AcDbEntity
  8
________1________1
370
              18
390
0
  6
Continuous
 62
               7
100
AcDbCircle
 10
393.54114368025677
 20
28.704688818276296
 30
0.0
 40
0.299999999999914
100
AcDbArc
 50
134.99999999997698
 51
-90.0
  0
ARC
  5
254
100
AcDbEntity
  8
________1________1
370
              18
390
0
  6
Continuous
 62
               7
100
AcDbCircle
 10
401.69261554283258
 20
28.704688818276296
 30
0.0
 40
0.2999999999999545
100
AcDbArc
 50
-90.0
 51
44.99999999989253
  0
LINE
  5
255
100
AcDbEntity
  8
________1________1
370
              18
390
0
  6
Continuous
 62
               7
100
AcDbLine
 10
400.50474757718877
 20
30.316820852632318
 30
0.0
 11
401.90474757718931
 21
28.916820852632341
 31
0.0
  0
ARC
  5
256
100
AcDbEntity
  8
________1________1
370
              18
390
0
  6
Continuous
 62
               7
100
AcDbCircle
 10
400.29261554283295
 20
30.10468881827633
 30
0.0
 40
0.2999999999998738
100
AcDbArc
 50
45.000000000015355
 51
90.0
  0
ARC
  5
257
100
AcDbEntity
  8
________1________1
370
              18
390
0
  6
Continuous
 62
               7
100
AcDbCircle
 10
394.9411436802564
 20
30.10468881827633
 30
0.0
 40
0.3000000000000114
100
AcDbArc
 50
90.0
 51
134.99999999998465
  0
LINE
  5
258
100
AcDbEntity
  8
________1________1
370
              18
390
0
  6
Continuous
 62
               7
100
AcDbLine
 10
394.94114368025731
 20
30.404688818276341
 30
0.0
 11
400.29261554283295
 21
30.404688818276341
 31
0.0
  0
ENDBLK
  5
259
100
AcDbEntity
  8
0
390
0
100
AcDbBlockEnd
  0
BLOCK
  5
25C
100
AcDbEntity
  8
0
390
0
100
AcDbBlockBegin
  2
C29
 70
              64
 10
0.0
 20
0.0
 30
0.0
  3
C29
  1

  0
ARC
  5
25D
100
AcDbEntity
  8
________1________1
370
              18
390
0
  6
Continuous
 62
               7
100
AcDbCircle
 10
380.29261554283306
 20
33.704688818276338
 30
0.0
 40
0.3000000000000682
100
AcDbArc
 50
-90.0
 51
-45.000000000030703
  0
LINE
  5
25E
100
AcDbEntity
  8
________1________1
370
              18
390
0
  6
Continuous
 62
               7
100
AcDbLine
 10
381.90474757718943
 20
34.892556783920384
 30
0.0
 11
380.50474757718888
 21
33.492556783920406
 31
0.0
  0
ARC
  5
25F
100
AcDbEntity
  8
________1________1
370
              18
390
0
  6
Continuous
 62
               7
100
AcDbCircle
 10
381.6926155428327
 20
35.104688818276315
 30
0.0
 40
0.3000000000005169
100
AcDbArc
 50
-44.99999999989253
 51
90.0
  0
LINE
  5
260
100
AcDbEntity
  8
________1________1
370
              18
390
0
  6
Continuous
 62
               7
100
AcDbLine
 10
374.7290116459007
 20
33.492556783920406
 30
0.0
 11
373.32901164590106
 21
34.892556783920384
 31
0.0
  0
LINE
  5
261
100
AcDbEntity
  8
________1________1
370
              18
390
0
  6
Continuous
 62
               7
100
AcDbLine
 10
373.54114368025688
 20
35.40468881827627
 30
0.0
 11
381.6926155428327
 21
35.40468881827627
 31
0.0
  0
ARC
  5
262
100
AcDbEntity
  8
________1________1
370
              18
390
0
  6
Continuous
 62
               7
100
AcDbCircle
 10
373.54114368025688
 20
35.104688818276315
 30
0.0
 40
0.2999999999999545
100
AcDbArc
 50
90.0
 51
-134.99999999998465
  0
ARC
  5
263
100
AcDbEntity
  8
________1________1
370
              18
390
0
  6
Continuous
 62
               7
100
AcDbCircle
 10
374.94114368025652
 20
33.704688818276338
 30
0.0
 40
0.2999999999999542
100
AcDbArc
 50
-134.99999999996928
 51
-90.0
  0
LINE
  5
264
100
AcDbEntity
  8
________1________1
370
              18
390
0
  6
Continuous
 62
               7
100
AcDbLine
 10
380.29261554283306
 20
33.40468881827627
 30
0.0
 11
374.94114368025743
 21
33.40468881827627
 31
0.0
  0
LINE
  5
265
100
AcDbEntity
  8
________1________1
370
              18
390
0
  6
Continuous
 62
               7
100
AcDbLine
 10
381.6926155428327
 20
28.404688818276341
 30
0.0
 11
373.54114368025688
 21
28.404688818276341
 31
0.0
  0
LINE
  5
266
100
AcDbEntity
  8
________1________1
370
              18
390
0
  6
Continuous
 62
               7
100
AcDbLine
 10
373.32901164590106
 20
28.916820852632341
 30
0.0
 11
374.7290116459007
 21
30.316820852632318
 31
0.0
  0
ARC
  5
267
100
AcDbEntity
  8
________1________1
370
              18
390
0
  6
Continuous
 62
               7
100
AcDbCircle
 10
373.54114368025688
 20
28.704688818276296
 30
0.0
 40
0.299999999999914
100
AcDbArc
 50
134.99999999997698
 51
-90.0
  0
ARC
  5
268
100
AcDbEntity
  8
________1________1
370
              18
390
0
  6
Continuous
 62
               7
100
AcDbCircle
 10
381.6926155428327
 20
28.704688818276296
 30
0.0
 40
0.2999999999999545
100
AcDbArc
 50
-90.0
 51
44.99999999989253
  0
LINE
  5
269
100
AcDbEntity
  8
________1________1
370
              18
390
0
  6
Continuous
 62
               7
100
AcDbLine
 10
380.50474757718888
 20
30.316820852632318
 30
0.0
 11
381.90474757718943
 21
28.916820852632341
 31
0.0
  0
ARC
  5
26A
100
AcDbEntity
  8
________1________1
370
              18
390
0
  6
Continuous
 62
               7
100
AcDbCircle
 10
380.29261554283306
 20
30.10468881827633
 30
0.0
 40
0.2999999999998738
100
AcDbArc
 50
45.000000000015355
 51
90.0
  0
ARC
  5
26B
100
AcDbEntity
  8
________1________1
370
              18
390
0
  6
Continuous
 62
               7
100
AcDbCircle
 10
374.94114368025652
 20
30.10468881827633
 30
0.0
 40
0.3000000000000114
100
AcDbArc
 50
90.0
 51
134.99999999998465
  0
LINE
  5
26C
100
AcDbEntity
  8
________1________1
370
              18
390
0
  6
Continuous
 62
               7
100
AcDbLine
 10
374.94114368025743
 20
30.404688818276341
 30
0.0
 11
380.29261554283306
 21
30.404688818276341
 31
0.0
  0
ENDBLK
  5
26D
100
AcDbEntity
  8
0
390
0
100
AcDbBlockEnd
  0
BLOCK
  5
270
100
AcDbEntity
  8
0
390
0
100
AcDbBlockBegin
  2
C30
 70
              64
 10
0.0
 20
0.0
 30
0.0
  3
C30
  1

  0
ARC
  5
271
100
AcDbEntity
  8
________1________1
370
              18
390
0
  6
Continuous
 62
               7
100
AcDbCircle
 10
360.29261554283295
 20
33.704688818276338
 30
0.0
 40
0.3000000000000682
100
AcDbArc
 50
-90.0
 51
-45.000000000030703
  0
LINE
  5
272
100
AcDbEntity
  8
________1________1
370
              18
390
0
  6
Continuous
 62
               7
100
AcDbLine
 10
361.90474757718931
 20
34.892556783920384
 30
0.0
 11
360.50474757718877
 21
33.492556783920406
 31
0.0
  0
ARC
  5
273
100
AcDbEntity
  8
________1________1
370
              18
390
0
  6
Continuous
 62
               7
100
AcDbCircle
 10
361.69261554283258
 20
35.104688818276315
 30
0.0
 40
0.3000000000005169
100
AcDbArc
 50
-44.99999999989253
 51
90.0
  0
LINE
  5
274
100
AcDbEntity
  8
________1________1
370
              18
390
0
  6
Continuous
 62
               7
100
AcDbLine
 10
354.7290116459007
 20
33.492556783920406
 30
0.0
 11
353.32901164590106
 21
34.892556783920384
 31
0.0
  0
LINE
  5
275
100
AcDbEntity
  8
________1________1
370
              18
390
0
  6
Continuous
 62
               7
100
AcDbLine
 10
353.54114368025688
 20
35.40468881827627
 30
0.0
 11
361.69261554283258
 21
35.40468881827627
 31
0.0
  0
ARC
  5
276
100
AcDbEntity
  8
________1________1
370
              18
390
0
  6
Continuous
 62
               7
100
AcDbCircle
 10
353.54114368025688
 20
35.104688818276315
 30
0.0
 40
0.2999999999999545
100
AcDbArc
 50
90.0
 51
-134.99999999998465
  0
ARC
  5
277
100
AcDbEntity
  8
________1________1
370
              18
390
0
  6
Continuous
 62
               7
100
AcDbCircle
 10
354.94114368025652
 20
33.704688818276338
 30
0.0
 40
0.2999999999999542
100
AcDbArc
 50
-134.99999999996928
 51
-90.0
  0
LINE
  5
278
100
AcDbEntity
  8
________1________1
370
              18
390
0
  6
Continuous
 62
               7
100
AcDbLine
 10
360.29261554283295
 20
33.40468881827627
 30
0.0
 11
354.94114368025743
 21
33.40468881827627
 31
0.0
  0
LINE
  5
279
100
AcDbEntity
  8
________1________1
370
              18
390
0
  6
Continuous
 62
               7
100
AcDbLine
 10
361.69261554283258
 20
28.404688818276341
 30
0.0
 11
353.54114368025688
 21
28.404688818276341
 31
0.0
  0
LINE
  5
27A
100
AcDbEntity
  8
________1________1
370
              18
390
0
  6
Continuous
 62
               7
100
AcDbLine
 10
353.32901164590106
 20
28.916820852632341
 30
0.0
 11
354.7290116459007
 21
30.316820852632318
 31
0.0
  0
ARC
  5
27B
100
AcDbEntity
  8
________1________1
370
              18
390
0
  6
Continuous
 62
               7
100
AcDbCircle
 10
353.54114368025688
 20
28.704688818276296
 30
0.0
 40
0.299999999999914
100
AcDbArc
 50
134.99999999997698
 51
-90.0
  0
ARC
  5
27C
100
AcDbEntity
  8
________1________1
370
              18
390
0
  6
Continuous
 62
               7
100
AcDbCircle
 10
361.69261554283258
 20
28.704688818276296
 30
0.0
 40
0.2999999999999545
100
AcDbArc
 50
-90.0
 51
44.99999999989253
  0
LINE
  5
27D
100
AcDbEntity
  8
________1________1
370
              18
390
0
  6
Continuous
 62
               7
100
AcDbLine
 10
360.50474757718877
 20
30.316820852632318
 30
0.0
 11
361.90474757718931
 21
28.916820852632341
 31
0.0
  0
ARC
  5
27E
100
AcDbEntity
  8
________1________1
370
              18
390
0
  6
Continuous
 62
               7
100
AcDbCircle
 10
360.29261554283295
 20
30.10468881827633
 30
0.0
 40
0.2999999999998738
100
AcDbArc
 50
45.000000000015355
 51
90.0
  0
ARC
  5
27F
100
AcDbEntity
  8
________1________1
370
              18
390
0
  6
Continuous
 62
               7
100
AcDbCircle
 10
354.94114368025652
 20
30.10468881827633
 30
0.0
 40
0.3000000000000114
100
AcDbArc
 50
90.0
 51
134.99999999998465
  0
LINE
  5
280
100
AcDbEntity
  8
________1________1
370
              18
390
0
  6
Continuous
 62
               7
100
AcDbLine
 10
354.94114368025743
 20
30.404688818276341
 30
0.0
 11
360.29261554283295
 21
30.404688818276341
 31
0.0
  0
ENDBLK
  5
281
100
AcDbEntity
  8
0
390
0
100
AcDbBlockEnd
  0
BLOCK
  5
284
100
AcDbEntity
  8
0
390
0
100
AcDbBlockBegin
  2
C31
 70
              64
 10
0.0
 20
0.0
 30
0.0
  3
C31
  1

  0
INSERT
  5
28C
100
AcDbEntity
  8
____1
370
               5
390
0
  6
CENTER2
 62
               7
100
AcDbBlockReference
  2
C32
 10
0.0
 20
0.0
 30
0.0
  0
ARC
  5
28D
100
AcDbEntity
  8
________1________1
370
               5
390
0
  6
DASHED
 62
               7
100
AcDbCircle
 10
347.61687961154524
 20
31.904688818276398
 30
0.0
 40
3.8298989873223377
100
AcDbArc
 50
-90.0
 51
90.0
  0
ARC
  5
28E
100
AcDbEntity
  8
________1________1
370
              18
390
0
  6
Continuous
 62
               7
100
AcDbCircle
 10
347.61687961154524
 20
31.904688818276398
 30
0.0
 40
1.75
100
AcDbArc
 50
-90.0
 51
0.0000000000074443
  0
ARC
  5
28F
100
AcDbEntity
  8
________1________1
370
              18
390
0
  6
Continuous
 62
               7
100
AcDbCircle
 10
347.61687961154524
 20
31.904688818276398
 30
0.0
 40
1.75
100
AcDbArc
 50
0.0000000000055832
 51
90.0
  0
ARC
  5
290
100
AcDbEntity
  8
________1________1
370
               5
390
0
  6
DASHED
 62
               7
100
AcDbCircle
 10
347.61687961154524
 20
31.904688818276398
 30
0.0
 40
3.8298989873223803
100
AcDbArc
 50
90.0
 51
-90.0
  0
CIRCLE
  5
291
100
AcDbEntity
  8
________1________1
370
              18
390
0
  6
Continuous
 62
               7
100
AcDbCircle
 10
347.61687961154524
 20
31.904688818276625
 30
0.0
 40
3.25
210
0.0
220
0.0
230
1.0
  0
ARC
  5
292
100
AcDbEntity
  8
________1________1
370
              18
390
0
  6
Continuous
 62
               7
100
AcDbCircle
 10
347.61687961154524
 20
31.904688818276398
 30
0.0
 40
1.7499999999999858
100
AcDbArc
 50
90.0
 51
179.99999999999258
  0
CIRCLE
  5
293
100
AcDbEntity
  8
________1________1
370
               5
390
0
  6
DASHED
 62
               7
100
AcDbCircle
 10
347.61687961154524
 20
31.904688818276398
 30
0.0
 40
2.7399494936611291
210
0.0
220
0.0
230
1.0
  0
ARC
  5
294
100
AcDbEntity
  8
________1________1
370
              18
390
0
  6
Continuous
 62
               7
100
AcDbCircle
 10
347.61687961154524
 20
31.904688818276398
 30
0.0
 40
1.75
100
AcDbArc
 50
179.99999999999443
 51
-90.0
  0
ENDBLK
  5
295
100
AcDbEntity
  8
0
390
0
100
AcDbBlockEnd
  0
BLOCK
  5
286
100
AcDbEntity
  8
0
390
0
100
AcDbBlockBegin
  2
C32
 70
              64
 10
0.0
 20
0.0
 30
0.0
  3
C32
  1

  0
LINE
  5
287
100
AcDbEntity
  8
____1
370
               5
390
0
  6
CENTER2
 62
               7
100
AcDbLine
 10
347.61687961154524
 20
31.904688818276398
 30
0.0
 11
342.28698062422239
 21
31.904688818276398
 31
0.0
  0
LINE
  5
288
100
AcDbEntity
  8
____1
370
               5
390
0
  6
CENTER2
 62
               7
100
AcDbLine
 10
347.61687961154524
 20
31.904688818276398
 30
0.0
 11
347.61687961154524
 21
26.57478983095406
 31
0.0
  0
LINE
  5
289
100
AcDbEntity
  8
____1
370
               5
390
0
  6
CENTER2
 62
               7
100
AcDbLine
 10
347.61687961154524
 20
31.904688818276398
 30
0.0
 11
352.94677859886718
 21
31.904688818276398
 31
0.0
  0
LINE
  5
28A
100
AcDbEntity
  8
____1
370
               5
390
0
  6
CENTER2
 62
               7
100
AcDbLine
 10
347.61687961154524
 20
31.904688818276398
 30
0.0
 11
347.61687961154524
 21
37.234587805598721
 31
0.0
  0
ENDBLK
  5
28B
100
AcDbEntity
  8
0
390
0
100
AcDbBlockEnd
  0
BLOCK
  5
298
100
AcDbEntity
  8
0
390
0
100
AcDbBlockBegin
  2
C33
 70
              64
 10
0.0
 20
0.0
 30
0.0
  3
C33
  1

  0
ARC
  5
299
100
AcDbEntity
  8
________1________1
370
               5
390
0
  6
DASHED2
 62
               7
100
AcDbCircle
 10
470.1168796115449
 20
31.904688818276384
 30
0.0
 40
3.8298989873223377
210
0.0
220
0.0
230
1.0
100
AcDbArc
 50
90.0
 51
-90.0
  0
ARC
  5
29A
100
AcDbEntity
  8
________1________1
370
               5
390
0
  6
DASHED2
 62
               7
100
AcDbCircle
 10
475.1168796115449
 20
31.904688818276384
 30
0.0
 40
3.8298989873223945
210
-0.0
220
-0.0
230
1.0
100
AcDbArc
 50
-90.0
 51
90.0
  0
LINE
  5
29B
100
AcDbEntity
  8
____1
370
               5
390
0
  6
DASHED2
 62
               7
100
AcDbLine
 10
475.1168796115449
 20
28.074789830953989
 30
0.0
 11
470.1168796115449
 21
28.074789830954046
 31
0.0
  0
LINE
  5
29C
100
AcDbEntity
  8
____1
370
               5
390
0
  6
DASHED2
 62
               7
100
AcDbLine
 10
470.1168796115449
 20
29.164739324615255
 30
0.0
 11
475.1168796115449
 21
29.164739324615255
 31
0.0
  0
LINE
  5
29D
100
AcDbEntity
  8
____1
370
               5
390
0
  6
DASHED2
 62
               7
100
AcDbLine
 10
475.1168796115449
 20
34.644638311937513
 30
0.0
 11
470.1168796115449
 21
34.644638311937513
 31
0.0
  0
LINE
  5
29E
100
AcDbEntity
  8
____1
370
               5
390
0
  6
DASHED2
 62
               7
100
AcDbLine
 10
475.1168796115449
 20
35.734587805598778
 30
0.0
 11
470.1168796115449
 21
35.734587805598721
 31
0.0
  0
LINE
  5
29F
100
AcDbEntity
  8
____1
370
              18
390
0
  6
Continuous
 62
               7
100
AcDbLine
 10
470.1168796115449
 20
28.654688818276384
 30
0.0
 11
475.1168796115449
 21
28.654688818276384
 31
0.0
  0
LINE
  5
2A0
100
AcDbEntity
  8
____1
370
              18
390
0
  6
Continuous
 62
               7
100
AcDbLine
 10
475.1168796115449
 20
35.154688818276384
 30
0.0
 11
470.1168796115449
 21
35.154688818276384
 31
0.0
  0
LINE
  5
2A1
100
AcDbEntity
  8
____1
370
              18
390
0
  6
Continuous
 62
               7
100
AcDbLine
 10
470.1168796115449
 20
30.154688818276384
 30
0.0
 11
475.1168796115449
 21
30.154688818276384
 31
0.0
  0
LINE
  5
2A2
100
AcDbEntity
  8
____1
370
              18
390
0
  6
Continuous
 62
               7
100
AcDbLine
 10
475.1168796115449
 20
33.654688818276384
 30
0.0
 11
470.1168796115449
 21
33.654688818276412
 31
0.0
  0
ARC
  5
2A3
100
AcDbEntity
  8
________1________1
370
               5
390
0
  6
DASHED
 62
               7
100
AcDbCircle
 10
475.1168796115449
 20
31.904688818276384
 30
0.0
 40
2.7399494936611291
100
AcDbArc
 50
-90.0
 51
90.0
  0
ARC
  5
2A4
100
AcDbEntity
  8
________1________1
370
              18
390
0
  6
Continuous
 62
               7
100
AcDbCircle
 10
475.1168796115449
 20
31.904688818276384
 30
0.0
 40
1.75
210
-0.0
220
-0.0
230
0.9999999999999999
100
AcDbArc
 50
-90.0
 51
0.0
  0
ARC
  5
2A5
100
AcDbEntity
  8
________1________1
370
              18
390
0
  6
Continuous
 62
               7
100
AcDbCircle
 10
475.1168796115449
 20
31.904688818276384
 30
0.0
 40
3.25
100
AcDbArc
 50
-90.0
 51
90.0
  0
ARC
  5
2A6
100
AcDbEntity
  8
________1________1
370
              18
390
0
  6
Continuous
 62
               7
100
AcDbCircle
 10
475.1168796115449
 20
31.904688818276384
 30
0.0
 40
1.75
210
-0.0
220
-0.0
230
1.0
100
AcDbArc
 50
0.0
 51
90.0
  0
ARC
  5
2A7
100
AcDbEntity
  8
________1________1
370
               5
390
0
  6
DASHED
 62
               7
100
AcDbCircle
 10
470.1168796115449
 20
31.904688818276384
 30
0.0
 40
2.7399494936611291
100
AcDbArc
 50
90.0
 51
-90.0
  0
ARC
  5
2A8
100
AcDbEntity
  8
________1________1
370
              18
390
0
  6
Continuous
 62
               7
100
AcDbCircle
 10
470.1168796115449
 20
31.904688818276384
 30
0.0
 40
3.25
100
AcDbArc
 50
90.0
 51
-90.0
  0
ARC
  5
2A9
100
AcDbEntity
  8
________1________1
370
              18
390
0
  6
Continuous
 62
               7
100
AcDbCircle
 10
470.1168796115449
 20
31.904688818276384
 30
0.0
 40
1.75
210
-0.0
220
-0.0
230
1.0
100
AcDbArc
 50
90.0
 51
180.0
  0
ARC
  5
2AA
100
AcDbEntity
  8
________1________1
370
              18
390
0
  6
Continuous
 62
               7
100
AcDbCircle
 10
470.1168796115449
 20
31.904688818276384
 30
0.0
 40
1.75
210
0.0
220
0.0
230
0.9999999999999999
100
AcDbArc
 50
180.0
 51
-90.0
  0
ENDBLK
  5
2AB
100
AcDbEntity
  8
0
390
0
100
AcDbBlockEnd
  0
BLOCK
  5
2AE
100
AcDbEntity
  8
0
390
0
100
AcDbBlockBegin
  2
C34
 70
              64
 10
0.0
 20
0.0
 30
0.0
  3
C34
  1

  0
ARC
  5
2AF
100
AcDbEntity
  8
________1________1
370
              18
390
0
  6
Continuous
 62
               7
100
AcDbCircle
 10
460.29261554283295
 20
33.704688818276338
 30
0.0
 40
0.3000000000000682
100
AcDbArc
 50
-90.0
 51
-45.000000000030703
  0
LINE
  5
2B0
100
AcDbEntity
  8
________1________1
370
              18
390
0
  6
Continuous
 62
               7
100
AcDbLine
 10
461.90474757718931
 20
34.892556783920384
 30
0.0
 11
460.50474757718877
 21
33.492556783920406
 31
0.0
  0
ARC
  5
2B1
100
AcDbEntity
  8
________1________1
370
              18
390
0
  6
Continuous
 62
               7
100
AcDbCircle
 10
461.69261554283258
 20
35.104688818276315
 30
0.0
 40
0.3000000000005169
100
AcDbArc
 50
-44.99999999989253
 51
90.0
  0
LINE
  5
2B2
100
AcDbEntity
  8
________1________1
370
              18
390
0
  6
Continuous
 62
               7
100
AcDbLine
 10
454.72901164590047
 20
33.492556783920406
 30
0.0
 11
453.32901164590083
 21
34.892556783920384
 31
0.0
  0
LINE
  5
2B3
100
AcDbEntity
  8
________1________1
370
              18
390
0
  6
Continuous
 62
               7
100
AcDbLine
 10
453.54114368025665
 20
35.40468881827627
 30
0.0
 11
461.69261554283258
 21
35.40468881827627
 31
0.0
  0
ARC
  5
2B4
100
AcDbEntity
  8
________1________1
370
              18
390
0
  6
Continuous
 62
               7
100
AcDbCircle
 10
453.54114368025665
 20
35.104688818276315
 30
0.0
 40
0.2999999999999545
100
AcDbArc
 50
90.0
 51
-134.99999999998465
  0
ARC
  5
2B5
100
AcDbEntity
  8
________1________1
370
              18
390
0
  6
Continuous
 62
               7
100
AcDbCircle
 10
454.94114368025629
 20
33.704688818276338
 30
0.0
 40
0.2999999999999542
100
AcDbArc
 50
-134.99999999996928
 51
-90.0
  0
LINE
  5
2B6
100
AcDbEntity
  8
________1________1
370
              18
390
0
  6
Continuous
 62
               7
100
AcDbLine
 10
460.29261554283295
 20
33.40468881827627
 30
0.0
 11
454.9411436802572
 21
33.40468881827627
 31
0.0
  0
LINE
  5
2B7
100
AcDbEntity
  8
________1________1
370
              18
390
0
  6
Continuous
 62
               7
100
AcDbLine
 10
461.69261554283258
 20
28.404688818276341
 30
0.0
 11
453.54114368025665
 21
28.404688818276341
 31
0.0
  0
LINE
  5
2B8
100
AcDbEntity
  8
________1________1
370
              18
390
0
  6
Continuous
 62
               7
100
AcDbLine
 10
453.32901164590083
 20
28.916820852632341
 30
0.0
 11
454.72901164590047
 21
30.316820852632318
 31
0.0
  0
ARC
  5
2B9
100
AcDbEntity
  8
________1________1
370
              18
390
0
  6
Continuous
 62
               7
100
AcDbCircle
 10
453.54114368025665
 20
28.704688818276296
 30
0.0
 40
0.299999999999914
100
AcDbArc
 50
134.99999999997698
 51
-90.0
  0
ARC
  5
2BA
100
AcDbEntity
  8
________1________1
370
              18
390
0
  6
Continuous
 62
               7
100
AcDbCircle
 10
461.69261554283258
 20
28.704688818276296
 30
0.0
 40
0.2999999999999545
100
AcDbArc
 50
-90.0
 51
44.99999999989253
  0
LINE
  5
2BB
100
AcDbEntity
  8
________1________1
370
              18
390
0
  6
Continuous
 62
               7
100
AcDbLine
 10
460.50474757718877
 20
30.316820852632318
 30
0.0
 11
461.90474757718931
 21
28.916820852632341
 31
0.0
  0
ARC
  5
2BC
100
AcDbEntity
  8
________1________1
370
              18
390
0
  6
Continuous
 62
               7
100
AcDbCircle
 10
460.29261554283295
 20
30.10468881827633
 30
0.0
 40
0.2999999999998738
100
AcDbArc
 50
45.000000000015355
 51
90.0
  0
ARC
  5
2BD
100
AcDbEntity
  8
________1________1
370
              18
390
0
  6
Continuous
 62
               7
100
AcDbCircle
 10
454.94114368025629
 20
30.10468881827633
 30
0.0
 40
0.3000000000000114
100
AcDbArc
 50
90.0
 51
134.99999999998465
  0
LINE
  5
2BE
100
AcDbEntity
  8
________1________1
370
              18
390
0
  6
Continuous
 62
               7
100
AcDbLine
 10
454.9411436802572
 20
30.404688818276341
 30
0.0
 11
460.29261554283295
 21
30.404688818276341
 31
0.0
  0
ENDBLK
  5
2BF
100
AcDbEntity
  8
0
390
0
100
AcDbBlockEnd
  0
BLOCK
  5
377
100
AcDbEntity
  8
0
390
0
100
AcDbBlockBegin
  2
C35
 70
              64
 10
0.0
 20
0.0
 30
0.0
  3
C35
  1

  0
ARC
  5
378
100
AcDbEntity
  8
________1________1
370
              18
390
0
  6
Continuous
 62
               7
100
AcDbCircle
 10
-341.28727461074521
 20
33.704688818276338
 30
0.0
 40
0.3000000000000682
100
AcDbArc
 50
-90.0
 51
-45.0
  0
LINE
  5
379
100
AcDbEntity
  8
________1________1
370
              18
390
0
  6
Continuous
 62
               7
100
AcDbLine
 10
-339.67514257638931
 20
34.892556783920384
 30
0.0
 11
-341.07514257638917
 21
33.492556783920406
 31
0.0
  0
ARC
  5
37A
100
AcDbEntity
  8
________1________1
370
              18
390
0
  6
Continuous
 62
               7
100
AcDbCircle
 10
-339.88727461074535
 20
35.104688818276315
 30
0.0
 40
0.3000000000000346
100
AcDbArc
 50
-44.999999999984652
 51
90.0
  0
LINE
  5
37B
100
AcDbEntity
  8
________1________1
370
              18
390
0
  6
Continuous
 62
               7
100
AcDbLine
 10
-346.85087850767735
 20
33.492556783920406
 30
0.0
 11
-348.25087850767721
 21
34.892556783920384
 31
0.0
  0
LINE
  5
37C
100
AcDbEntity
  8
________1________1
370
              18
390
0
  6
Continuous
 62
               7
100
AcDbLine
 10
-348.03874647332117
 20
35.40468881827627
 30
0.0
 11
-339.88727461074535
 21
35.40468881827627
 31
0.0
  0
ARC
  5
37D
100
AcDbEntity
  8
________1________1
370
              18
390
0
  6
Continuous
 62
               7
100
AcDbCircle
 10
-348.03874647332117
 20
35.104688818276315
 30
0.0
 40
0.2999999999999545
100
AcDbArc
 50
90.0
 51
-135.00000000001538
  0
ARC
  5
37E
100
AcDbEntity
  8
________1________1
370
              18
390
0
  6
Continuous
 62
               7
100
AcDbCircle
 10
-346.63874647332153
 20
33.704688818276338
 30
0.0
 40
0.2999999999999542
100
AcDbArc
 50
-134.99999999996928
 51
-90.0
  0
LINE
  5
37F
100
AcDbEntity
  8
________1________1
370
              18
390
0
  6
Continuous
 62
               7
100
AcDbLine
 10
-341.28727461074521
 20
33.40468881827627
 30
0.0
 11
-346.63874647332131
 21
33.40468881827627
 31
0.0
  0
LINE
  5
380
100
AcDbEntity
  8
________1________1
370
              18
390
0
  6
Continuous
 62
               7
100
AcDbLine
 10
-339.88727461074535
 20
28.404688818276341
 30
0.0
 11
-348.03874647332117
 21
28.404688818276341
 31
0.0
  0
LINE
  5
381
100
AcDbEntity
  8
________1________1
370
              18
390
0
  6
Continuous
 62
               7
100
AcDbLine
 10
-348.25087850767721
 20
28.916820852632341
 30
0.0
 11
-346.85087850767735
 21
30.316820852632318
 31
0.0
  0
ARC
  5
382
100
AcDbEntity
  8
________1________1
370
              18
390
0
  6
Continuous
 62
               7
100
AcDbCircle
 10
-348.03874647332117
 20
28.704688818276296
 30
0.0
 40
0.3000000000000748
100
AcDbArc
 50
135.00000000000767
 51
-90.0
  0
ARC
  5
383
100
AcDbEntity
  8
________1________1
370
              18
390
0
  6
Continuous
 62
               7
100
AcDbCircle
 10
-339.88727461074535
 20
28.704688818276296
 30
0.0
 40
0.2999999999999545
100
AcDbArc
 50
-90.0
 51
44.999999999984652
  0
LINE
  5
384
100
AcDbEntity
  8
________1________1
370
              18
390
0
  6
Continuous
 62
               7
100
AcDbLine
 10
-341.07514257638917
 20
30.316820852632318
 30
0.0
 11
-339.67514257638931
 21
28.916820852632341
 31
0.0
  0
ARC
  5
385
100
AcDbEntity
  8
________1________1
370
              18
390
0
  6
Continuous
 62
               7
100
AcDbCircle
 10
-341.28727461074521
 20
30.10468881827633
 30
0.0
 40
0.3000000000000346
100
AcDbArc
 50
44.999999999984652
 51
90.0
  0
ARC
  5
386
100
AcDbEntity
  8
________1________1
370
              18
390
0
  6
Continuous
 62
               7
100
AcDbCircle
 10
-346.63874647332153
 20
30.10468881827633
 30
0.0
 40
0.3000000000000114
100
AcDbArc
 50
90.0
 51
135.00000000001538
  0
LINE
  5
387
100
AcDbEntity
  8
________1________1
370
              18
390
0
  6
Continuous
 62
               7
100
AcDbLine
 10
-346.63874647332131
 20
30.404688818276341
 30
0.0
 11
-341.28727461074521
 21
30.404688818276341
 31
0.0
  0
ENDBLK
  5
388
100
AcDbEntity
  8
0
390
0
100
AcDbBlockEnd
  0
BLOCK
  5
38B
100
AcDbEntity
  8
0
390
0
100
AcDbBlockBegin
  2
C36
 70
              64
 10
0.0
 20
0.0
 30
0.0
  3
C36
  1

  0
ARC
  5
38C
100
AcDbEntity
  8
________1________1
370
               5
390
0
  6
DASHED2
 62
               7
100
AcDbCircle
 10
-356.46301054203326
 20
31.904688818276398
 30
0.0
 40
3.8298989873223377
100
AcDbArc
 50
-90.0
 51
90.0
  0
ARC
  5
38D
100
AcDbEntity
  8
________1________1
370
               5
390
0
  6
DASHED2
 62
               7
100
AcDbCircle
 10
-361.46301054203326
 20
31.904688818276398
 30
0.0
 40
3.8298989873223803
100
AcDbArc
 50
90.0
 51
-90.0
  0
LINE
  5
38E
100
AcDbEntity
  8
____1
370
               5
390
0
  6
DASHED2
 62
               7
100
AcDbLine
 10
-361.46301054203326
 20
28.074789830954003
 30
0.0
 11
-356.46301054203326
 21
28.07478983095406
 31
0.0
  0
LINE
  5
38F
100
AcDbEntity
  8
____1
370
               5
390
0
  6
DASHED2
 62
               7
100
AcDbLine
 10
-356.46301054203326
 20
29.164739324615269
 30
0.0
 11
-361.46301054203326
 21
29.164739324615269
 31
0.0
  0
LINE
  5
390
100
AcDbEntity
  8
____1
370
               5
390
0
  6
DASHED2
 62
               7
100
AcDbLine
 10
-361.46301054203326
 20
34.644638311937513
 30
0.0
 11
-356.46301054203303
 21
34.644638311937513
 31
0.0
  0
LINE
  5
391
100
AcDbEntity
  8
____1
370
               5
390
0
  6
DASHED2
 62
               7
100
AcDbLine
 10
-361.46301054203326
 20
35.734587805598778
 30
0.0
 11
-356.46301054203326
 21
35.734587805598721
 31
0.0
  0
LINE
  5
392
100
AcDbEntity
  8
____1
370
              18
390
0
  6
Continuous
 62
               7
100
AcDbLine
 10
-356.46301054203326
 20
28.654688818276398
 30
0.0
 11
-361.46301054203326
 21
28.654688818276398
 31
0.0
  0
LINE
  5
393
100
AcDbEntity
  8
____1
370
              18
390
0
  6
Continuous
 62
               7
100
AcDbLine
 10
-361.46301054203326
 20
35.154688818276384
 30
0.0
 11
-356.46301054203326
 21
35.154688818276384
 31
0.0
  0
LINE
  5
394
100
AcDbEntity
  8
____1
370
              18
390
0
  6
Continuous
 62
               7
100
AcDbLine
 10
-356.46301054203326
 20
30.154688818276398
 30
0.0
 11
-361.46301054203326
 21
30.154688818276398
 31
0.0
  0
LINE
  5
395
100
AcDbEntity
  8
____1
370
              18
390
0
  6
Continuous
 62
               7
100
AcDbLine
 10
-361.46301054203326
 20
33.654688818276384
 30
0.0
 11
-356.46301054203326
 21
33.654688818276412
 31
0.0
  0
ARC
  5
396
100
AcDbEntity
  8
________1________1
370
               5
390
0
  6
DASHED
 62
               7
100
AcDbCircle
 10
-361.46301054203326
 20
31.904688818276398
 30
0.0
 40
2.7399494936611291
210
0.0
220
0.0
230
1.0
100
AcDbArc
 50
90.0
 51
-90.0
  0
ARC
  5
397
100
AcDbEntity
  8
________1________1
370
              18
390
0
  6
Continuous
 62
               7
100
AcDbCircle
 10
-361.46301054203326
 20
31.904688818276398
 30
0.0
 40
1.75
100
AcDbArc
 50
180.0
 51
-90.0
  0
ARC
  5
398
100
AcDbEntity
  8
________1________1
370
              18
390
0
  6
Continuous
 62
               7
100
AcDbCircle
 10
-361.46301054203326
 20
31.904688818276398
 30
0.0
 40
3.25
210
0.0
220
0.0
230
1.0
100
AcDbArc
 50
90.0
 51
-90.0
  0
ARC
  5
399
100
AcDbEntity
  8
________1________1
370
              18
390
0
  6
Continuous
 62
               7
100
AcDbCircle
 10
-361.46301054203326
 20
31.904688818276398
 30
0.0
 40
1.7499999999999858
100
AcDbArc
 50
90.0
 51
180.0
  0
ARC
  5
39A
100
AcDbEntity
  8
________1________1
370
               5
390
0
  6
DASHED
 62
               7
100
AcDbCircle
 10
-356.46301054203326
 20
31.904688818276398
 30
0.0
 40
2.7399494936611148
210
-0.0
220
-0.0
230
1.0
100
AcDbArc
 50
-90.0
 51
89.999999999995254
  0
ARC
  5
39B
100
AcDbEntity
  8
________1________1
370
              18
390
0
  6
Continuous
 62
               7
100
AcDbCircle
 10
-356.46301054203326
 20
31.904688818276398
 30
0.0
 40
3.2499999999999858
210
-0.0
220
-0.0
230
1.0
100
AcDbArc
 50
-90.0
 51
90.0
  0
ARC
  5
39C
100
AcDbEntity
  8
________1________1
370
              18
390
0
  6
Continuous
 62
               7
100
AcDbCircle
 10
-356.46301054203326
 20
31.904688818276398
 30
0.0
 40
1.75
100
AcDbArc
 50
0.0
 51
90.0
  0
ARC
  5
39D
100
AcDbEntity
  8
________1________1
370
              18
390
0
  6
Continuous
 62
               7
100
AcDbCircle
 10
-356.46301054203326
 20
31.904688818276398
 30
0.0
 40
1.75
100
AcDbArc
 50
-90.0
 51
0.0
  0
ENDBLK
  5
39E
100
AcDbEntity
  8
0
390
0
100
AcDbBlockEnd
  0
BLOCK
  5
3A1
100
AcDbEntity
  8
0
390
0
100
AcDbBlockBegin
  2
C37
 70
              64
 10
0.0
 20
0.0
 30
0.0
  3
C37
  1

  0
ARC
  5
3A2
100
AcDbEntity
  8
________1________1
370
              18
390
0
  6
Continuous
 62
               7
100
AcDbCircle
 10
-321.28727461074521
 20
33.704688818276338
 30
0.0
 40
0.3000000000000682
100
AcDbArc
 50
-90.0
 51
-45.0
  0
LINE
  5
3A3
100
AcDbEntity
  8
________1________1
370
              18
390
0
  6
Continuous
 62
               7
100
AcDbLine
 10
-319.67514257638931
 20
34.892556783920384
 30
0.0
 11
-321.07514257638917
 21
33.492556783920406
 31
0.0
  0
ARC
  5
3A4
100
AcDbEntity
  8
________1________1
370
              18
390
0
  6
Continuous
 62
               7
100
AcDbCircle
 10
-319.88727461074535
 20
35.104688818276315
 30
0.0
 40
0.3000000000000346
100
AcDbArc
 50
-44.999999999984652
 51
90.0
  0
LINE
  5
3A5
100
AcDbEntity
  8
________1________1
370
              18
390
0
  6
Continuous
 62
               7
100
AcDbLine
 10
-326.85087850767735
 20
33.492556783920406
 30
0.0
 11
-328.25087850767721
 21
34.892556783920384
 31
0.0
  0
LINE
  5
3A6
100
AcDbEntity
  8
________1________1
370
              18
390
0
  6
Continuous
 62
               7
100
AcDbLine
 10
-328.03874647332117
 20
35.40468881827627
 30
0.0
 11
-319.88727461074535
 21
35.40468881827627
 31
0.0
  0
ARC
  5
3A7
100
AcDbEntity
  8
________1________1
370
              18
390
0
  6
Continuous
 62
               7
100
AcDbCircle
 10
-328.03874647332117
 20
35.104688818276315
 30
0.0
 40
0.2999999999999545
100
AcDbArc
 50
90.0
 51
-135.00000000001538
  0
ARC
  5
3A8
100
AcDbEntity
  8
________1________1
370
              18
390
0
  6
Continuous
 62
               7
100
AcDbCircle
 10
-326.63874647332153
 20
33.704688818276338
 30
0.0
 40
0.2999999999999542
100
AcDbArc
 50
-134.99999999996928
 51
-90.0
  0
LINE
  5
3A9
100
AcDbEntity
  8
________1________1
370
              18
390
0
  6
Continuous
 62
               7
100
AcDbLine
 10
-321.28727461074521
 20
33.40468881827627
 30
0.0
 11
-326.63874647332131
 21
33.40468881827627
 31
0.0
  0
LINE
  5
3AA
100
AcDbEntity
  8
________1________1
370
              18
390
0
  6
Continuous
 62
               7
100
AcDbLine
 10
-319.88727461074535
 20
28.404688818276341
 30
0.0
 11
-328.03874647332117
 21
28.404688818276341
 31
0.0
  0
LINE
  5
3AB
100
AcDbEntity
  8
________1________1
370
              18
390
0
  6
Continuous
 62
               7
100
AcDbLine
 10
-328.25087850767721
 20
28.916820852632341
 30
0.0
 11
-326.85087850767735
 21
30.316820852632318
 31
0.0
  0
ARC
  5
3AC
100
AcDbEntity
  8
________1________1
370
              18
390
0
  6
Continuous
 62
               7
100
AcDbCircle
 10
-328.03874647332117
 20
28.704688818276296
 30
0.0
 40
0.3000000000000748
100
AcDbArc
 50
135.00000000000767
 51
-90.0
  0
ARC
  5
3AD
100
AcDbEntity
  8
________1________1
370
              18
390
0
  6
Continuous
 62
               7
100
AcDbCircle
 10
-319.88727461074535
 20
28.704688818276296
 30
0.0
 40
0.2999999999999545
100
AcDbArc
 50
-90.0
 51
44.999999999984652
  0
LINE
  5
3AE
100
AcDbEntity
  8
________1________1
370
              18
390
0
  6
Continuous
 62
               7
100
AcDbLine
 10
-321.07514257638917
 20
30.316820852632318
 30
0.0
 11
-319.67514257638931
 21
28.916820852632341
 31
0.0
  0
ARC
  5
3AF
100
AcDbEntity
  8
________1________1
370
              18
390
0
  6
Continuous
 62
               7
100
AcDbCircle
 10
-321.28727461074521
 20
30.10468881827633
 30
0.0
 40
0.3000000000000346
100
AcDbArc
 50
44.999999999984652
 51
90.0
  0
ARC
  5
3B0
100
AcDbEntity
  8
________1________1
370
              18
390
0
  6
Continuous
 62
               7
100
AcDbCircle
 10
-326.63874647332153
 20
30.10468881827633
 30
0.0
 40
0.3000000000000114
100
AcDbArc
 50
90.0
 51
135.00000000001538
  0
LINE
  5
3B1
100
AcDbEntity
  8
________1________1
370
              18
390
0
  6
Continuous
 62
               7
100
AcDbLine
 10
-326.63874647332131
 20
30.404688818276341
 30
0.0
 11
-321.28727461074521
 21
30.404688818276341
 31
0.0
  0
ENDBLK
  5
3B2
100
AcDbEntity
  8
0
390
0
100
AcDbBlockEnd
  0
BLOCK
  5
3B5
100
AcDbEntity
  8
0
390
0
100
AcDbBlockBegin
  2
C38
 70
              64
 10
0.0
 20
0.0
 30
0.0
  3
C38
  1

  0
ARC
  5
3B6
100
AcDbEntity
  8
________1________1
370
              18
390
0
  6
Continuous
 62
               7
100
AcDbCircle
 10
-301.28727461074521
 20
33.704688818276338
 30
0.0
 40
0.3000000000000682
100
AcDbArc
 50
-90.0
 51
-45.0
  0
LINE
  5
3B7
100
AcDbEntity
  8
________1________1
370
              18
390
0
  6
Continuous
 62
               7
100
AcDbLine
 10
-299.67514257638931
 20
34.892556783920384
 30
0.0
 11
-301.07514257638917
 21
33.492556783920406
 31
0.0
  0
ARC
  5
3B8
100
AcDbEntity
  8
________1________1
370
              18
390
0
  6
Continuous
 62
               7
100
AcDbCircle
 10
-299.88727461074535
 20
35.104688818276315
 30
0.0
 40
0.3000000000000346
100
AcDbArc
 50
-44.999999999984652
 51
90.0
  0
LINE
  5
3B9
100
AcDbEntity
  8
________1________1
370
              18
390
0
  6
Continuous
 62
               7
100
AcDbLine
 10
-306.85087850767735
 20
33.492556783920406
 30
0.0
 11
-308.25087850767721
 21
34.892556783920384
 31
0.0
  0
LINE
  5
3BA
100
AcDbEntity
  8
________1________1
370
              18
390
0
  6
Continuous
 62
               7
100
AcDbLine
 10
-308.03874647332117
 20
35.40468881827627
 30
0.0
 11
-299.88727461074535
 21
35.40468881827627
 31
0.0
  0
ARC
  5
3BB
100
AcDbEntity
  8
________1________1
370
              18
390
0
  6
Continuous
 62
               7
100
AcDbCircle
 10
-308.03874647332117
 20
35.104688818276315
 30
0.0
 40
0.2999999999999545
100
AcDbArc
 50
90.0
 51
-135.00000000001538
  0
ARC
  5
3BC
100
AcDbEntity
  8
________1________1
370
              18
390
0
  6
Continuous
 62
               7
100
AcDbCircle
 10
-306.63874647332153
 20
33.704688818276338
 30
0.0
 40
0.2999999999999542
100
AcDbArc
 50
-134.99999999996928
 51
-90.0
  0
LINE
  5
3BD
100
AcDbEntity
  8
________1________1
370
              18
390
0
  6
Continuous
 62
               7
100
AcDbLine
 10
-301.28727461074521
 20
33.40468881827627
 30
0.0
 11
-306.63874647332131
 21
33.40468881827627
 31
0.0
  0
LINE
  5
3BE
100
AcDbEntity
  8
________1________1
370
              18
390
0
  6
Continuous
 62
               7
100
AcDbLine
 10
-299.88727461074535
 20
28.404688818276341
 30
0.0
 11
-308.03874647332117
 21
28.404688818276341
 31
0.0
  0
LINE
  5
3BF
100
AcDbEntity
  8
________1________1
370
              18
390
0
  6
Continuous
 62
               7
100
AcDbLine
 10
-308.25087850767721
 20
28.916820852632341
 30
0.0
 11
-306.85087850767735
 21
30.316820852632318
 31
0.0
  0
ARC
  5
3C0
100
AcDbEntity
  8
________1________1
370
              18
390
0
  6
Continuous
 62
               7
100
AcDbCircle
 10
-308.03874647332117
 20
28.704688818276296
 30
0.0
 40
0.3000000000000748
100
AcDbArc
 50
135.00000000000767
 51
-90.0
  0
ARC
  5
3C1
100
AcDbEntity
  8
________1________1
370
              18
390
0
  6
Continuous
 62
               7
100
AcDbCircle
 10
-299.88727461074535
 20
28.704688818276296
 30
0.0
 40
0.2999999999999545
100
AcDbArc
 50
-90.0
 51
44.999999999984652
  0
LINE
  5
3C2
100
AcDbEntity
  8
________1________1
370
              18
390
0
  6
Continuous
 62
               7
100
AcDbLine
 10
-301.07514257638917
 20
30.316820852632318
 30
0.0
 11
-299.67514257638931
 21
28.916820852632341
 31
0.0
  0
ARC
  5
3C3
100
AcDbEntity
  8
________1________1
370
              18
390
0
  6
Continuous
 62
               7
100
AcDbCircle
 10
-301.28727461074521
 20
30.10468881827633
 30
0.0
 40
0.3000000000000346
100
AcDbArc
 50
44.999999999984652
 51
90.0
  0
ARC
  5
3C4
100
AcDbEntity
  8
________1________1
370
              18
390
0
  6
Continuous
 62
               7
100
AcDbCircle
 10
-306.63874647332153
 20
30.10468881827633
 30
0.0
 40
0.3000000000000114
100
AcDbArc
 50
90.0
 51
135.00000000001538
  0
LINE
  5
3C5
100
AcDbEntity
  8
________1________1
370
              18
390
0
  6
Continuous
 62
               7
100
AcDbLine
 10
-306.63874647332131
 20
30.404688818276341
 30
0.0
 11
-301.28727461074521
 21
30.404688818276341
 31
0.0
  0
ENDBLK
  5
3C6
100
AcDbEntity
  8
0
390
0
100
AcDbBlockEnd
  0
BLOCK
  5
3E3
100
AcDbEntity
  8
0
390
0
100
AcDbBlockBegin
  2
*D40
 70
              65
 10
0.0
 20
0.0
 30
0.0
  3
*D40
  1

  0
LINE
  5
3E4
100
AcDbEntity
  8
____1
370
               5
390
0
  6
Continuous
 62
               7
100
AcDbLine
 10
-402.48295101822595
 20
62.524304060547053
 30
0.0
 11
-399.7829510182259
 21
62.524304060547053
 31
0.0
  0
LINE
  5
3E5
100
AcDbEntity
  8
____1
370
               5
390
0
  6
Continuous
 62
               7
100
AcDbLine
 10
-399.7829510182259
 20
42.00468861398906
 30
0.0
 11
-399.7829510182259
 21
65.024304060547053
 31
0.0
  0
LINE
  5
3E6
100
AcDbEntity
  8
____1
370
               5
390
0
  6
Continuous
 62
               7
100
AcDbLine
 10
-402.48295101822595
 20
42.524304060547053
 30
0.0
 11
-402.48295101822595
 21
65.024304060547053
 31
0.0
  0
SOLID
  5
3E7
100
AcDbEntity
  8
____1
370
               5
390
0
  6
Continuous
 62
               7
100
AcDbTrace
 10
-407.31257996262292
 20
61.230208782760798
 30
0.0
 11
-407.31257996262292
 21
61.230208782760798
 31
0.0
 12
-406.10517272652368
 22
62.524304060547053
 32
0.0
 13
-402.48295101822595
 23
62.524304060547053
 33
0.0
  0
SOLID
  5
3E8
100
AcDbEntity
  8
____1
370
               5
390
0
  6
Continuous
 62
               7
100
AcDbTrace
 10
-406.10517272652368
 20
62.524304060547053
 30
0.0
 11
-402.48295101822595
 21
62.524304060547053
 31
0.0
 12
-407.31257996262292
 22
63.818399338333307
 32
0.0
 13
-407.31257996262292
 23
63.818399338333307
 33
0.0
  0
LINE
  5
3E9
100
AcDbEntity
  8
____1
370
               5
390
0
  6
Continuous
 62
               7
100
AcDbLine
 10
-402.48295101822595
 20
62.524304060547053
 30
0.0
 11
-414.98295101822595
 21
62.524304060547053
 31
0.0
  0
SOLID
  5
3EA
100
AcDbEntity
  8
____1
370
               5
390
0
  6
Continuous
 62
               7
100
AcDbTrace
 10
-394.95332207382893
 20
61.230208782760798
 30
0.0
 11
-394.95332207382893
 21
61.230208782760798
 31
0.0
 12
-399.7829510182259
 22
62.524304060547053
 32
0.0
 13
-396.16072930992817
 23
62.524304060547053
 33
0.0
  0
SOLID
  5
3EB
100
AcDbEntity
  8
____1
370
               5
390
0
  6
Continuous
 62
               7
100
AcDbTrace
 10
-399.7829510182259
 20
62.524304060547053
 30
0.0
 11
-396.16072930992817
 21
62.524304060547053
 31
0.0
 12
-394.95332207382893
 22
63.818399338333307
 32
0.0
 13
-394.95332207382893
 23
63.818399338333307
 33
0.0
  0
LINE
  5
3EC
100
AcDbEntity
  8
____1
370
               5
390
0
  6
Continuous
 62
               7
100
AcDbLine
 10
-399.7829510182259
 20
62.524304060547053
 30
0.0
 11
-387.2829510182259
 21
62.524304060547053
 31
0.0
  0
MTEXT
  5
3ED
100
AcDbEntity
  8
寸法線_1
370
               5
390
0
  6
Continuous
 62
               7
100
AcDbMText
 10
-409.07045077980735
 20
75.607637075988947
 30
0.0
 40
10.583333015441895
 41
15.937010761350393
 71
               1
 72
               1
  1
2.7
  7
Style1
 11
0.9999999999999999
 21
0.0
 31
0.0
 73
               1
 44
1.0
  0
ENDBLK
  5
3EE
100
AcDbEntity
  8
0
390
0
100
AcDbBlockEnd
  0
BLOCK
  5
3F1
100
AcDbEntity
  8
0
390
0
100
AcDbBlockBegin
  2
*D41
 70
              65
 10
0.0
 20
0.0
 30
0.0
  3
*D41
  1

  0
LINE
  5
3F2
100
AcDbEntity
  8
____1
370
               5
390
0
  6
Continuous
 62
               7
100
AcDbLine
 10
-426.18295101822605
 20
25.404688818276391
 30
0.0
 11
-426.18295101822605
 21
38.404688818276377
 31
0.0
  0
LINE
  5
3F3
100
AcDbEntity
  8
____1
370
               5
390
0
  6
Continuous
 62
               7
100
AcDbLine
 10
-406.18295101822605
 20
38.404688818276377
 30
0.0
 11
-428.68295101822605
 21
38.404688818276377
 31
0.0
  0
LINE
  5
3F4
100
AcDbEntity
  8
____1
370
               5
390
0
  6
Continuous
 62
               7
100
AcDbLine
 10
-406.18295101822599
 20
25.404688818276391
 30
0.0
 11
-428.68295101822605
 21
25.404688818276391
 31
0.0
  0
SOLID
  5
3F5
100
AcDbEntity
  8
____1
370
               5
390
0
  6
Continuous
 62
               7
100
AcDbTrace
 10
-427.4770462960123
 20
20.575059873879418
 30
0.0
 11
-427.4770462960123
 21
20.575059873879418
 31
0.0
 12
-427.15352247656574
 22
21.782467109978661
 32
0.0
 13
-426.18295101822605
 23
21.782467109978661
 33
0.0
  0
SOLID
  5
3F6
100
AcDbEntity
  8
____1
370
               5
390
0
  6
Continuous
 62
               7
100
AcDbTrace
 10
-424.88885574043979
 20
20.575059873879418
 30
0.0
 11
-424.88885574043979
 21
20.575059873879418
 31
0.0
 12
-426.18295101822605
 22
21.782467109978661
 32
0.0
 13
-425.21237955988636
 23
21.782467109978661
 33
0.0
  0
SOLID
  5
3F7
100
AcDbEntity
  8
____1
370
               5
390
0
  6
Continuous
 62
               7
100
AcDbTrace
 10
-427.15352247656574
 20
21.782467109978661
 30
0.0
 11
-425.21237955988636
 21
21.782467109978661
 31
0.0
 12
-426.18295101822605
 22
25.404688818276391
 32
0.0
 13
-426.18295101822605
 23
25.404688818276391
 33
0.0
  0
LINE
  5
3F8
100
AcDbEntity
  8
____1
370
               5
390
0
  6
Continuous
 62
               7
100
AcDbLine
 10
-426.18295101822605
 20
25.404688818276391
 30
0.0
 11
-426.18295101822605
 21
12.904688818276391
 31
0.0
  0
SOLID
  5
3F9
100
AcDbEntity
  8
____1
370
               5
390
0
  6
Continuous
 62
               7
100
AcDbTrace
 10
-426.18295101822605
 20
38.404688818276377
 30
0.0
 11
-426.18295101822605
 21
38.404688818276377
 31
0.0
 12
-427.15352247656574
 22
42.026910526574106
 32
0.0
 13
-425.21237955988636
 23
42.026910526574106
 33
0.0
  0
SOLID
  5
3FA
100
AcDbEntity
  8
____1
370
               5
390
0
  6
Continuous
 62
               7
100
AcDbTrace
 10
-427.15352247656574
 20
42.026910526574106
 30
0.0
 11
-426.18295101822605
 21
42.026910526574106
 31
0.0
 12
-427.4770462960123
 22
43.234317762673349
 32
0.0
 13
-427.4770462960123
 23
43.234317762673349
 33
0.0
  0
SOLID
  5
3FB
100
AcDbEntity
  8
____1
370
               5
390
0
  6
Continuous
 62
               7
100
AcDbTrace
 10
-426.18295101822605
 20
42.026910526574106
 30
0.0
 11
-425.21237955988636
 21
42.026910526574106
 31
0.0
 12
-424.88885574043979
 22
43.234317762673349
 32
0.0
 13
-424.88885574043979
 23
43.234317762673349
 33
0.0
  0
LINE
  5
3FC
100
AcDbEntity
  8
____1
370
               5
390
0
  6
Continuous
 62
               7
100
AcDbLine
 10
-426.18295101822605
 20
38.404688818276377
 30
0.0
 11
-426.18295101822605
 21
50.904688818276377
 31
0.0
  0
MTEXT
  5
3FD
100
AcDbEntity
  8
寸法線_1
370
               5
390
0
  6
Continuous
 62
               7
100
AcDbMText
 10
-439.26628403366794
 20
26.613022310555436
 30
0.0
 40
10.583333015441895
 41
10.624674160033464
 71
               1
 72
               1
  1
13
  7
Style1
 11
0.0
 21
1.0
 31
0.0
 73
               1
 44
1.0
  0
ENDBLK
  5
3FE
100
AcDbEntity
  8
0
390
0
100
AcDbBlockEnd
  0
BLOCK
  5
414
100
AcDbEntity
  8
0
390
0
100
AcDbBlockBegin
  2
*D42
 70
              65
 10
0.0
 20
0.0
 30
0.0
  3
*D42
  1

  0
LINE
  5
415
100
AcDbEntity
  8
____1
370
               5
390
0
  6
Continuous
 62
               7
100
AcDbLine
 10
487.61687961154479
 20
43.554688818276389
 30
0.0
 11
487.61687961154479
 21
142.38628001310377
 31
0.0
  0
LINE
  5
416
100
AcDbEntity
  8
____1
370
               5
390
0
  6
Continuous
 62
               7
100
AcDbLine
 10
-373.96301054203349
 20
43.554688818276389
 30
0.0
 11
-373.96301054203349
 21
142.38628001310377
 31
0.0
  0
SOLID
  5
417
100
AcDbEntity
  8
____1
370
               5
390
0
  6
Continuous
 62
               7
100
AcDbTrace
 10
-369.13338159763651
 20
138.59218473531752
 30
0.0
 11
-369.13338159763651
 21
138.59218473531752
 31
0.0
 12
-373.96301054203349
 22
139.88628001310377
 32
0.0
 13
-370.34078883373576
 23
139.88628001310377
 33
0.0
  0
SOLID
  5
418
100
AcDbEntity
  8
____1
370
               5
390
0
  6
Continuous
 62
               7
100
AcDbTrace
 10
-373.96301054203349
 20
139.88628001310377
 30
0.0
 11
-370.34078883373576
 21
139.88628001310377
 31
0.0
 12
-369.13338159763651
 22
141.18037529089003
 32
0.0
 13
-369.13338159763651
 23
141.18037529089003
 33
0.0
  0
LINE
  5
419
100
AcDbEntity
  8
____1
370
               5
390
0
  6
Continuous
 62
               7
100
AcDbLine
 10
-373.96301054203349
 20
139.88628001310377
 30
0.0
 11
56.826934534755651
 21
139.88628001310377
 31
0.0
  0
SOLID
  5
41A
100
AcDbEntity
  8
____1
370
               5
390
0
  6
Continuous
 62
               7
100
AcDbTrace
 10
482.78725066714782
 20
138.59218473531752
 30
0.0
 11
482.78725066714782
 21
138.59218473531752
 31
0.0
 12
483.99465790324706
 22
139.88628001310377
 32
0.0
 13
487.61687961154479
 23
139.88628001310377
 33
0.0
  0
SOLID
  5
41B
100
AcDbEntity
  8
____1
370
               5
390
0
  6
Continuous
 62
               7
100
AcDbTrace
 10
483.99465790324706
 20
139.88628001310377
 30
0.0
 11
487.61687961154479
 21
139.88628001310377
 31
0.0
 12
482.78725066714782
 22
141.18037529089003
 32
0.0
 13
482.78725066714782
 23
141.18037529089003
 33
0.0
  0
LINE
  5
41C
100
AcDbEntity
  8
____1
370
               5
390
0
  6
Continuous
 62
               7
100
AcDbLine
 10
487.61687961154479
 20
139.88628001310377
 30
0.0
 11
56.826934534755651
 21
139.88628001310377
 31
0.0
  0
MTEXT
  5
41D
100
AcDbEntity
  8
寸法線_1
370
               5
390
0
  6
CENTER2
 62
               7
100
AcDbMText
 10
46.243601519313756
 20
152.96961302854567
 30
0.0
 40
10.583333015441895
 41
21.249348320066929
 71
               1
 72
               1
  1
1820
  7
Style1
 73
               1
 44
1.0
  0
ENDBLK
  5
41E
100
AcDbEntity
  8
0
390
0
100
AcDbBlockEnd
  0
BLOCK
  5
422
100
AcDbEntity
  8
0
390
0
100
AcDbBlockBegin
  2
*D43
 70
              65
 10
0.0
 20
0.0
 30
0.0
  3
*D43
  1

  0
LINE
  5
423
100
AcDbEntity
  8
____1
370
               5
390
0
  6
Continuous
 62
               7
100
AcDbLine
 10
-343.96301054203326
 20
23.404688818276341
 30
0.0
 11
-343.96301054203326
 21
-51.399739583333336
 31
0.0
  0
LINE
  5
424
100
AcDbEntity
  8
____1
370
               5
390
0
  6
Continuous
 62
               7
100
AcDbLine
 10
457.61687961154513
 20
23.404688818276341
 30
0.0
 11
457.61687961154513
 21
-51.399739583333336
 31
0.0
  0
SOLID
  5
425
100
AcDbEntity
  8
____1
370
               5
390
0
  6
Continuous
 62
               7
100
AcDbTrace
 10
452.78725066714816
 20
-50.193834861119591
 30
0.0
 11
452.78725066714816
 21
-50.193834861119591
 31
0.0
 12
453.9946579032474
 22
-48.899739583333336
 32
0.0
 13
457.61687961154513
 23
-48.899739583333336
 33
0.0
  0
SOLID
  5
426
100
AcDbEntity
  8
____1
370
               5
390
0
  6
Continuous
 62
               7
100
AcDbTrace
 10
453.9946579032474
 20
-48.899739583333336
 30
0.0
 11
457.61687961154513
 21
-48.899739583333336
 31
0.0
 12
452.78725066714816
 22
-47.605644305547081
 32
0.0
 13
452.78725066714816
 23
-47.605644305547081
 33
0.0
  0
LINE
  5
427
100
AcDbEntity
  8
____1
370
               5
390
0
  6
Continuous
 62
               7
100
AcDbLine
 10
457.61687961154513
 20
-48.899739583333336
 30
0.0
 11
56.826934534755935
 21
-48.899739583333336
 31
0.0
  0
SOLID
  5
428
100
AcDbEntity
  8
____1
370
               5
390
0
  6
Continuous
 62
               7
100
AcDbTrace
 10
-339.13338159763629
 20
-50.193834861119591
 30
0.0
 11
-339.13338159763629
 21
-50.193834861119591
 31
0.0
 12
-343.96301054203326
 22
-48.899739583333336
 32
0.0
 13
-340.34078883373553
 23
-48.899739583333336
 33
0.0
  0
SOLID
  5
429
100
AcDbEntity
  8
____1
370
               5
390
0
  6
Continuous
 62
               7
100
AcDbTrace
 10
-343.96301054203326
 20
-48.899739583333336
 30
0.0
 11
-340.34078883373553
 21
-48.899739583333336
 31
0.0
 12
-339.13338159763629
 22
-47.605644305547081
 32
0.0
 13
-339.13338159763629
 23
-47.605644305547081
 33
0.0
  0
LINE
  5
42A
100
AcDbEntity
  8
____1
370
               5
390
0
  6
Continuous
 62
               7
100
AcDbLine
 10
-343.96301054203326
 20
-48.899739583333336
 30
0.0
 11
56.826934534755935
 21
-48.899739583333336
 31
0.0
  0
MTEXT
  5
42B
100
AcDbEntity
  8
寸法線_1
370
               5
390
0
  6
CENTER2
 62
               7
100
AcDbMText
 10
38.30610175773262
 20
-35.816406567891441
 30
0.0
 40
10.583333015441895
 41
37.186358124017715
 71
               1
 72
               1
  1
P=20x88
  7
Style1
 73
               1
 44
1.0
  0
ENDBLK
  5
42C
100
AcDbEntity
  8
0
390
0
100
AcDbBlockEnd
  0
BLOCK
  5
42F
100
AcDbEntity
  8
0
390
0
100
AcDbBlockBegin
  2
C39
 70
              64
 10
0.0
 20
0.0
 30
0.0
  3
C39
  1

  0
INSERT
  5
443
100
AcDbEntity
  8
____1
370
               5
390
0
  6
Continuous
 62
               7
100
AcDbBlockReference
  2
C40
 10
0.0
 20
0.0
 30
0.0
  0
INSERT
  5
457
100
AcDbEntity
  8
____1
370
               5
390
0
  6
Continuous
 62
               7
100
AcDbBlockReference
  2
C41
 10
0.0
 20
0.0
 30
0.0
  0
INSERT
  5
46B
100
AcDbEntity
  8
____1
370
               5
390
0
  6
Continuous
 62
               7
100
AcDbBlockReference
  2
C42
 10
0.0
 20
0.0
 30
0.0
  0
INSERT
  5
47F
100
AcDbEntity
  8
____1
370
               5
390
0
  6
Continuous
 62
               7
100
AcDbBlockReference
  2
C43
 10
0.0
 20
0.0
 30
0.0
  0
INSERT
  5
493
100
AcDbEntity
  8
____1
370
               5
390
0
  6
Continuous
 62
               7
100
AcDbBlockReference
  2
C44
 10
0.0
 20
0.0
 30
0.0
  0
INSERT
  5
4A7
100
AcDbEntity
  8
____1
370
               5
390
0
  6
Continuous
 62
               7
100
AcDbBlockReference
  2
C45
 10
0.0
 20
0.0
 30
0.0
  0
INSERT
  5
4BB
100
AcDbEntity
  8
____1
370
               5
390
0
  6
Continuous
 62
               7
100
AcDbBlockReference
  2
C46
 10
0.0
 20
0.0
 30
0.0
  0
ENDBLK
  5
4BC
100
AcDbEntity
  8
0
390
0
100
AcDbBlockEnd
  0
BLOCK
  5
431
100
AcDbEntity
  8
0
390
0
100
AcDbBlockBegin
  2
C40
 70
              64
 10
0.0
 20
0.0
 30
0.0
  3
C40
  1

  0
ARC
  5
432
100
AcDbEntity
  8
________1________1
370
              18
390
0
  6
Continuous
 62
               7
100
AcDbCircle
 10
38.712725389254842
 20
33.704688818276338
 30
0.0
 40
0.3000000000000682
100
AcDbArc
 50
-90.0
 51
-45.0
  0
LINE
  5
433
100
AcDbEntity
  8
________1________1
370
              18
390
0
  6
Continuous
 62
               7
100
AcDbLine
 10
40.324857423610752
 20
34.892556783920384
 30
0.0
 11
38.924857423610888
 21
33.492556783920406
 31
0.0
  0
ARC
  5
434
100
AcDbEntity
  8
________1________1
370
              18
390
0
  6
Continuous
 62
               7
100
AcDbCircle
 10
40.112725389254706
 20
35.104688818276315
 30
0.0
 40
0.3000000000000346
100
AcDbArc
 50
-44.999999999984652
 51
90.0
  0
LINE
  5
435
100
AcDbEntity
  8
________1________1
370
              18
390
0
  6
Continuous
 62
               7
100
AcDbLine
 10
33.149121492322706
 20
33.492556783920406
 30
0.0
 11
31.749121492322843
 21
34.892556783920384
 31
0.0
  0
LINE
  5
436
100
AcDbEntity
  8
________1________1
370
              18
390
0
  6
Continuous
 62
               7
100
AcDbLine
 10
31.961253526678888
 20
35.40468881827627
 30
0.0
 11
40.112725389254706
 21
35.40468881827627
 31
0.0
  0
ARC
  5
437
100
AcDbEntity
  8
________1________1
370
              18
390
0
  6
Continuous
 62
               7
100
AcDbCircle
 10
31.961253526678888
 20
35.104688818276315
 30
0.0
 40
0.2999999999999545
100
AcDbArc
 50
90.0
 51
-135.00000000001538
  0
ARC
  5
438
100
AcDbEntity
  8
________1________1
370
              18
390
0
  6
Continuous
 62
               7
100
AcDbCircle
 10
33.361253526678524
 20
33.704688818276338
 30
0.0
 40
0.2999999999999542
100
AcDbArc
 50
-134.99999999996928
 51
-90.0
  0
LINE
  5
439
100
AcDbEntity
  8
________1________1
370
              18
390
0
  6
Continuous
 62
               7
100
AcDbLine
 10
38.712725389254842
 20
33.40468881827627
 30
0.0
 11
33.361253526678752
 21
33.40468881827627
 31
0.0
  0
LINE
  5
43A
100
AcDbEntity
  8
________1________1
370
              18
390
0
  6
Continuous
 62
               7
100
AcDbLine
 10
40.112725389254706
 20
28.404688818276341
 30
0.0
 11
31.961253526678888
 21
28.404688818276341
 31
0.0
  0
LINE
  5
43B
100
AcDbEntity
  8
________1________1
370
              18
390
0
  6
Continuous
 62
               7
100
AcDbLine
 10
31.749121492322843
 20
28.916820852632341
 30
0.0
 11
33.149121492322706
 21
30.316820852632318
 31
0.0
  0
ARC
  5
43C
100
AcDbEntity
  8
________1________1
370
              18
390
0
  6
Continuous
 62
               7
100
AcDbCircle
 10
31.961253526678888
 20
28.704688818276296
 30
0.0
 40
0.3000000000000748
100
AcDbArc
 50
135.00000000000767
 51
-90.0
  0
ARC
  5
43D
100
AcDbEntity
  8
________1________1
370
              18
390
0
  6
Continuous
 62
               7
100
AcDbCircle
 10
40.112725389254706
 20
28.704688818276296
 30
0.0
 40
0.2999999999999545
100
AcDbArc
 50
-90.0
 51
44.999999999984652
  0
LINE
  5
43E
100
AcDbEntity
  8
________1________1
370
              18
390
0
  6
Continuous
 62
               7
100
AcDbLine
 10
38.924857423610888
 20
30.316820852632318
 30
0.0
 11
40.324857423610752
 21
28.916820852632341
 31
0.0
  0
ARC
  5
43F
100
AcDbEntity
  8
________1________1
370
              18
390
0
  6
Continuous
 62
               7
100
AcDbCircle
 10
38.712725389254842
 20
30.10468881827633
 30
0.0
 40
0.3000000000000346
100
AcDbArc
 50
44.999999999984652
 51
90.0
  0
ARC
  5
440
100
AcDbEntity
  8
________1________1
370
              18
390
0
  6
Continuous
 62
               7
100
AcDbCircle
 10
33.361253526678524
 20
30.10468881827633
 30
0.0
 40
0.3000000000000114
100
AcDbArc
 50
90.0
 51
135.00000000001538
  0
LINE
  5
441
100
AcDbEntity
  8
________1________1
370
              18
390
0
  6
Continuous
 62
               7
100
AcDbLine
 10
33.361253526678752
 20
30.404688818276341
 30
0.0
 11
38.712725389254842
 21
30.404688818276341
 31
0.0
  0
ENDBLK
  5
442
100
AcDbEntity
  8
0
390
0
100
AcDbBlockEnd
  0
BLOCK
  5
445
100
AcDbEntity
  8
0
390
0
100
AcDbBlockBegin
  2
C41
 70
              64
 10
0.0
 20
0.0
 30
0.0
  3
C41
  1

  0
ARC
  5
446
100
AcDbEntity
  8
________1________1
370
              18
390
0
  6
Continuous
 62
               7
100
AcDbCircle
 10
18.712725389254842
 20
33.704688818276338
 30
0.0
 40
0.3000000000000682
100
AcDbArc
 50
-90.0
 51
-45.0
  0
LINE
  5
447
100
AcDbEntity
  8
________1________1
370
              18
390
0
  6
Continuous
 62
               7
100
AcDbLine
 10
20.324857423610752
 20
34.892556783920384
 30
0.0
 11
18.924857423610888
 21
33.492556783920406
 31
0.0
  0
ARC
  5
448
100
AcDbEntity
  8
________1________1
370
              18
390
0
  6
Continuous
 62
               7
100
AcDbCircle
 10
20.112725389254706
 20
35.104688818276315
 30
0.0
 40
0.3000000000000346
100
AcDbArc
 50
-44.999999999984652
 51
90.0
  0
LINE
  5
449
100
AcDbEntity
  8
________1________1
370
              18
390
0
  6
Continuous
 62
               7
100
AcDbLine
 10
13.149121492322706
 20
33.492556783920406
 30
0.0
 11
11.749121492322843
 21
34.892556783920384
 31
0.0
  0
LINE
  5
44A
100
AcDbEntity
  8
________1________1
370
              18
390
0
  6
Continuous
 62
               7
100
AcDbLine
 10
11.961253526678888
 20
35.40468881827627
 30
0.0
 11
20.112725389254706
 21
35.40468881827627
 31
0.0
  0
ARC
  5
44B
100
AcDbEntity
  8
________1________1
370
              18
390
0
  6
Continuous
 62
               7
100
AcDbCircle
 10
11.961253526678888
 20
35.104688818276315
 30
0.0
 40
0.2999999999999545
100
AcDbArc
 50
90.0
 51
-135.00000000001538
  0
ARC
  5
44C
100
AcDbEntity
  8
________1________1
370
              18
390
0
  6
Continuous
 62
               7
100
AcDbCircle
 10
13.361253526678524
 20
33.704688818276338
 30
0.0
 40
0.2999999999999542
100
AcDbArc
 50
-134.99999999996928
 51
-90.0
  0
LINE
  5
44D
100
AcDbEntity
  8
________1________1
370
              18
390
0
  6
Continuous
 62
               7
100
AcDbLine
 10
18.712725389254842
 20
33.40468881827627
 30
0.0
 11
13.361253526678752
 21
33.40468881827627
 31
0.0
  0
LINE
  5
44E
100
AcDbEntity
  8
________1________1
370
              18
390
0
  6
Continuous
 62
               7
100
AcDbLine
 10
20.112725389254706
 20
28.404688818276341
 30
0.0
 11
11.961253526678888
 21
28.404688818276341
 31
0.0
  0
LINE
  5
44F
100
AcDbEntity
  8
________1________1
370
              18
390
0
  6
Continuous
 62
               7
100
AcDbLine
 10
11.749121492322843
 20
28.916820852632341
 30
0.0
 11
13.149121492322706
 21
30.316820852632318
 31
0.0
  0
ARC
  5
450
100
AcDbEntity
  8
________1________1
370
              18
390
0
  6
Continuous
 62
               7
100
AcDbCircle
 10
11.961253526678888
 20
28.704688818276296
 30
0.0
 40
0.3000000000000748
100
AcDbArc
 50
135.00000000000767
 51
-90.0
  0
ARC
  5
451
100
AcDbEntity
  8
________1________1
370
              18
390
0
  6
Continuous
 62
               7
100
AcDbCircle
 10
20.112725389254706
 20
28.704688818276296
 30
0.0
 40
0.2999999999999545
100
AcDbArc
 50
-90.0
 51
44.999999999984652
  0
LINE
  5
452
100
AcDbEntity
  8
________1________1
370
              18
390
0
  6
Continuous
 62
               7
100
AcDbLine
 10
18.924857423610888
 20
30.316820852632318
 30
0.0
 11
20.324857423610752
 21
28.916820852632341
 31
0.0
  0
ARC
  5
453
100
AcDbEntity
  8
________1________1
370
              18
390
0
  6
Continuous
 62
               7
100
AcDbCircle
 10
18.712725389254842
 20
30.10468881827633
 30
0.0
 40
0.3000000000000346
100
AcDbArc
 50
44.999999999984652
 51
90.0
  0
ARC
  5
454
100
AcDbEntity
  8
________1________1
370
              18
390
0
  6
Continuous
 62
               7
100
AcDbCircle
 10
13.361253526678524
 20
30.10468881827633
 30
0.0
 40
0.3000000000000114
100
AcDbArc
 50
90.0
 51
135.00000000001538
  0
LINE
  5
455
100
AcDbEntity
  8
________1________1
370
              18
390
0
  6
Continuous
 62
               7
100
AcDbLine
 10
13.361253526678752
 20
30.404688818276341
 30
0.0
 11
18.712725389254842
 21
30.404688818276341
 31
0.0
  0
ENDBLK
  5
456
100
AcDbEntity
  8
0
390
0
100
AcDbBlockEnd
  0
BLOCK
  5
459
100
AcDbEntity
  8
0
390
0
100
AcDbBlockBegin
  2
C42
 70
              64
 10
0.0
 20
0.0
 30
0.0
  3
C42
  1

  0
ARC
  5
45A
100
AcDbEntity
  8
________1________1
370
              18
390
0
  6
Continuous
 62
               7
100
AcDbCircle
 10
-1.2872746107451576
 20
33.704688818276338
 30
0.0
 40
0.3000000000000682
100
AcDbArc
 50
-90.0
 51
-45.0
  0
LINE
  5
45B
100
AcDbEntity
  8
________1________1
370
              18
390
0
  6
Continuous
 62
               7
100
AcDbLine
 10
0.3248574236107515
 20
34.892556783920384
 30
0.0
 11
-1.075142576389112
 21
33.492556783920406
 31
0.0
  0
ARC
  5
45C
100
AcDbEntity
  8
________1________1
370
              18
390
0
  6
Continuous
 62
               7
100
AcDbCircle
 10
0.112725389254706
 20
35.104688818276315
 30
0.0
 40
0.3000000000000346
100
AcDbArc
 50
-44.999999999984652
 51
90.0
  0
LINE
  5
45D
100
AcDbEntity
  8
________1________1
370
              18
390
0
  6
Continuous
 62
               7
100
AcDbLine
 10
-6.8508785076772938
 20
33.492556783920406
 30
0.0
 11
-8.2508785076771574
 21
34.892556783920384
 31
0.0
  0
LINE
  5
45E
100
AcDbEntity
  8
________1________1
370
              18
390
0
  6
Continuous
 62
               7
100
AcDbLine
 10
-8.0387464733211118
 20
35.40468881827627
 30
0.0
 11
0.112725389254706
 21
35.40468881827627
 31
0.0
  0
ARC
  5
45F
100
AcDbEntity
  8
________1________1
370
              18
390
0
  6
Continuous
 62
               7
100
AcDbCircle
 10
-8.0387464733211118
 20
35.104688818276315
 30
0.0
 40
0.2999999999999545
100
AcDbArc
 50
90.0
 51
-135.00000000001538
  0
ARC
  5
460
100
AcDbEntity
  8
________1________1
370
              18
390
0
  6
Continuous
 62
               7
100
AcDbCircle
 10
-6.6387464733214756
 20
33.704688818276338
 30
0.0
 40
0.2999999999999542
100
AcDbArc
 50
-134.99999999996928
 51
-90.0
  0
LINE
  5
461
100
AcDbEntity
  8
________1________1
370
              18
390
0
  6
Continuous
 62
               7
100
AcDbLine
 10
-1.2872746107451576
 20
33.40468881827627
 30
0.0
 11
-6.6387464733212482
 21
33.40468881827627
 31
0.0
  0
LINE
  5
462
100
AcDbEntity
  8
________1________1
370
              18
390
0
  6
Continuous
 62
               7
100
AcDbLine
 10
0.112725389254706
 20
28.404688818276341
 30
0.0
 11
-8.0387464733211118
 21
28.404688818276341
 31
0.0
  0
LINE
  5
463
100
AcDbEntity
  8
________1________1
370
              18
390
0
  6
Continuous
 62
               7
100
AcDbLine
 10
-8.2508785076771574
 20
28.916820852632341
 30
0.0
 11
-6.8508785076772938
 21
30.316820852632318
 31
0.0
  0
ARC
  5
464
100
AcDbEntity
  8
________1________1
370
              18
390
0
  6
Continuous
 62
               7
100
AcDbCircle
 10
-8.0387464733211118
 20
28.704688818276296
 30
0.0
 40
0.3000000000000748
100
AcDbArc
 50
135.00000000000767
 51
-90.0
  0
ARC
  5
465
100
AcDbEntity
  8
________1________1
370
              18
390
0
  6
Continuous
 62
               7
100
AcDbCircle
 10
0.112725389254706
 20
28.704688818276296
 30
0.0
 40
0.2999999999999545
100
AcDbArc
 50
-90.0
 51
44.999999999984652
  0
LINE
  5
466
100
AcDbEntity
  8
________1________1
370
              18
390
0
  6
Continuous
 62
               7
100
AcDbLine
 10
-1.075142576389112
 20
30.316820852632318
 30
0.0
 11
0.3248574236107515
 21
28.916820852632341
 31
0.0
  0
ARC
  5
467
100
AcDbEntity
  8
________1________1
370
              18
390
0
  6
Continuous
 62
               7
100
AcDbCircle
 10
-1.2872746107451576
 20
30.10468881827633
 30
0.0
 40
0.3000000000000346
100
AcDbArc
 50
44.999999999984652
 51
90.0
  0
ARC
  5
468
100
AcDbEntity
  8
________1________1
370
              18
390
0
  6
Continuous
 62
               7
100
AcDbCircle
 10
-6.6387464733214756
 20
30.10468881827633
 30
0.0
 40
0.3000000000000114
100
AcDbArc
 50
90.0
 51
135.00000000001538
  0
LINE
  5
469
100
AcDbEntity
  8
________1________1
370
              18
390
0
  6
Continuous
 62
               7
100
AcDbLine
 10
-6.6387464733212482
 20
30.404688818276341
 30
0.0
 11
-1.2872746107451576
 21
30.404688818276341
 31
0.0
  0
ENDBLK
  5
46A
100
AcDbEntity
  8
0
390
0
100
AcDbBlockEnd
  0
BLOCK
  5
46D
100
AcDbEntity
  8
0
390
0
100
AcDbBlockBegin
  2
C43
 70
              64
 10
0.0
 20
0.0
 30
0.0
  3
C43
  1

  0
ARC
  5
46E
100
AcDbEntity
  8
________1________1
370
              18
390
0
  6
Continuous
 62
               7
100
AcDbCircle
 10
-21.287274610745158
 20
33.704688818276338
 30
0.0
 40
0.3000000000000682
100
AcDbArc
 50
-90.0
 51
-45.0
  0
LINE
  5
46F
100
AcDbEntity
  8
________1________1
370
              18
390
0
  6
Continuous
 62
               7
100
AcDbLine
 10
-19.675142576389248
 20
34.892556783920384
 30
0.0
 11
-21.075142576389112
 21
33.492556783920406
 31
0.0
  0
ARC
  5
470
100
AcDbEntity
  8
________1________1
370
              18
390
0
  6
Continuous
 62
               7
100
AcDbCircle
 10
-19.887274610745294
 20
35.104688818276315
 30
0.0
 40
0.3000000000000346
100
AcDbArc
 50
-44.999999999984652
 51
90.0
  0
LINE
  5
471
100
AcDbEntity
  8
________1________1
370
              18
390
0
  6
Continuous
 62
               7
100
AcDbLine
 10
-26.850878507677294
 20
33.492556783920406
 30
0.0
 11
-28.250878507677157
 21
34.892556783920384
 31
0.0
  0
LINE
  5
472
100
AcDbEntity
  8
________1________1
370
              18
390
0
  6
Continuous
 62
               7
100
AcDbLine
 10
-28.038746473321112
 20
35.40468881827627
 30
0.0
 11
-19.887274610745294
 21
35.40468881827627
 31
0.0
  0
ARC
  5
473
100
AcDbEntity
  8
________1________1
370
              18
390
0
  6
Continuous
 62
               7
100
AcDbCircle
 10
-28.038746473321112
 20
35.104688818276315
 30
0.0
 40
0.2999999999999545
100
AcDbArc
 50
90.0
 51
-135.00000000001538
  0
ARC
  5
474
100
AcDbEntity
  8
________1________1
370
              18
390
0
  6
Continuous
 62
               7
100
AcDbCircle
 10
-26.638746473321476
 20
33.704688818276338
 30
0.0
 40
0.2999999999999542
100
AcDbArc
 50
-134.99999999996928
 51
-90.0
  0
LINE
  5
475
100
AcDbEntity
  8
________1________1
370
              18
390
0
  6
Continuous
 62
               7
100
AcDbLine
 10
-21.287274610745158
 20
33.40468881827627
 30
0.0
 11
-26.638746473321248
 21
33.40468881827627
 31
0.0
  0
LINE
  5
476
100
AcDbEntity
  8
________1________1
370
              18
390
0
  6
Continuous
 62
               7
100
AcDbLine
 10
-19.887274610745294
 20
28.404688818276341
 30
0.0
 11
-28.038746473321112
 21
28.404688818276341
 31
0.0
  0
LINE
  5
477
100
AcDbEntity
  8
________1________1
370
              18
390
0
  6
Continuous
 62
               7
100
AcDbLine
 10
-28.250878507677157
 20
28.916820852632341
 30
0.0
 11
-26.850878507677294
 21
30.316820852632318
 31
0.0
  0
ARC
  5
478
100
AcDbEntity
  8
________1________1
370
              18
390
0
  6
Continuous
 62
               7
100
AcDbCircle
 10
-28.038746473321112
 20
28.704688818276296
 30
0.0
 40
0.3000000000000748
100
AcDbArc
 50
135.00000000000767
 51
-90.0
  0
ARC
  5
479
100
AcDbEntity
  8
________1________1
370
              18
390
0
  6
Continuous
 62
               7
100
AcDbCircle
 10
-19.887274610745294
 20
28.704688818276296
 30
0.0
 40
0.2999999999999545
100
AcDbArc
 50
-90.0
 51
44.999999999984652
  0
LINE
  5
47A
100
AcDbEntity
  8
________1________1
370
              18
390
0
  6
Continuous
 62
               7
100
AcDbLine
 10
-21.075142576389112
 20
30.316820852632318
 30
0.0
 11
-19.675142576389248
 21
28.916820852632341
 31
0.0
  0
ARC
  5
47B
100
AcDbEntity
  8
________1________1
370
              18
390
0
  6
Continuous
 62
               7
100
AcDbCircle
 10
-21.287274610745158
 20
30.10468881827633
 30
0.0
 40
0.3000000000000346
100
AcDbArc
 50
44.999999999984652
 51
90.0
  0
ARC
  5
47C
100
AcDbEntity
  8
________1________1
370
              18
390
0
  6
Continuous
 62
               7
100
AcDbCircle
 10
-26.638746473321476
 20
30.10468881827633
 30
0.0
 40
0.3000000000000114
100
AcDbArc
 50
90.0
 51
135.00000000001538
  0
LINE
  5
47D
100
AcDbEntity
  8
________1________1
370
              18
390
0
  6
Continuous
 62
               7
100
AcDbLine
 10
-26.638746473321248
 20
30.404688818276341
 30
0.0
 11
-21.287274610745158
 21
30.404688818276341
 31
0.0
  0
ENDBLK
  5
47E
100
AcDbEntity
  8
0
390
0
100
AcDbBlockEnd
  0
BLOCK
  5
481
100
AcDbEntity
  8
0
390
0
100
AcDbBlockBegin
  2
C44
 70
              64
 10
0.0
 20
0.0
 30
0.0
  3
C44
  1

  0
ARC
  5
482
100
AcDbEntity
  8
________1________1
370
              18
390
0
  6
Continuous
 62
               7
100
AcDbCircle
 10
-41.287274610745158
 20
33.704688818276338
 30
0.0
 40
0.3000000000000682
100
AcDbArc
 50
-90.0
 51
-45.0
  0
LINE
  5
483
100
AcDbEntity
  8
________1________1
370
              18
390
0
  6
Continuous
 62
               7
100
AcDbLine
 10
-39.675142576389248
 20
34.892556783920384
 30
0.0
 11
-41.075142576389112
 21
33.492556783920406
 31
0.0
  0
ARC
  5
484
100
AcDbEntity
  8
________1________1
370
              18
390
0
  6
Continuous
 62
               7
100
AcDbCircle
 10
-39.887274610745294
 20
35.104688818276315
 30
0.0
 40
0.3000000000000346
100
AcDbArc
 50
-44.999999999984652
 51
90.0
  0
LINE
  5
485
100
AcDbEntity
  8
________1________1
370
              18
390
0
  6
Continuous
 62
               7
100
AcDbLine
 10
-46.850878507677294
 20
33.492556783920406
 30
0.0
 11
-48.250878507677157
 21
34.892556783920384
 31
0.0
  0
LINE
  5
486
100
AcDbEntity
  8
________1________1
370
              18
390
0
  6
Continuous
 62
               7
100
AcDbLine
 10
-48.038746473321112
 20
35.40468881827627
 30
0.0
 11
-39.887274610745294
 21
35.40468881827627
 31
0.0
  0
ARC
  5
487
100
AcDbEntity
  8
________1________1
370
              18
390
0
  6
Continuous
 62
               7
100
AcDbCircle
 10
-48.038746473321112
 20
35.104688818276315
 30
0.0
 40
0.2999999999999545
100
AcDbArc
 50
90.0
 51
-135.00000000001538
  0
ARC
  5
488
100
AcDbEntity
  8
________1________1
370
              18
390
0
  6
Continuous
 62
               7
100
AcDbCircle
 10
-46.638746473321476
 20
33.704688818276338
 30
0.0
 40
0.2999999999999542
100
AcDbArc
 50
-134.99999999996928
 51
-90.0
  0
LINE
  5
489
100
AcDbEntity
  8
________1________1
370
              18
390
0
  6
Continuous
 62
               7
100
AcDbLine
 10
-41.287274610745158
 20
33.40468881827627
 30
0.0
 11
-46.638746473321248
 21
33.40468881827627
 31
0.0
  0
LINE
  5
48A
100
AcDbEntity
  8
________1________1
370
              18
390
0
  6
Continuous
 62
               7
100
AcDbLine
 10
-39.887274610745294
 20
28.404688818276341
 30
0.0
 11
-48.038746473321112
 21
28.404688818276341
 31
0.0
  0
LINE
  5
48B
100
AcDbEntity
  8
________1________1
370
              18
390
0
  6
Continuous
 62
               7
100
AcDbLine
 10
-48.250878507677157
 20
28.916820852632341
 30
0.0
 11
-46.850878507677294
 21
30.316820852632318
 31
0.0
  0
ARC
  5
48C
100
AcDbEntity
  8
________1________1
370
              18
390
0
  6
Continuous
 62
               7
100
AcDbCircle
 10
-48.038746473321112
 20
28.704688818276296
 30
0.0
 40
0.3000000000000748
100
AcDbArc
 50
135.00000000000767
 51
-90.0
  0
ARC
  5
48D
100
AcDbEntity
  8
________1________1
370
              18
390
0
  6
Continuous
 62
               7
100
AcDbCircle
 10
-39.887274610745294
 20
28.704688818276296
 30
0.0
 40
0.2999999999999545
100
AcDbArc
 50
-90.0
 51
44.999999999984652
  0
LINE
  5
48E
100
AcDbEntity
  8
________1________1
370
              18
390
0
  6
Continuous
 62
               7
100
AcDbLine
 10
-41.075142576389112
 20
30.316820852632318
 30
0.0
 11
-39.675142576389248
 21
28.916820852632341
 31
0.0
  0
ARC
  5
48F
100
AcDbEntity
  8
________1________1
370
              18
390
0
  6
Continuous
 62
               7
100
AcDbCircle
 10
-41.287274610745158
 20
30.10468881827633
 30
0.0
 40
0.3000000000000346
100
AcDbArc
 50
44.999999999984652
 51
90.0
  0
ARC
  5
490
100
AcDbEntity
  8
________1________1
370
              18
390
0
  6
Continuous
 62
               7
100
AcDbCircle
 10
-46.638746473321476
 20
30.10468881827633
 30
0.0
 40
0.3000000000000114
100
AcDbArc
 50
90.0
 51
135.00000000001538
  0
LINE
  5
491
100
AcDbEntity
  8
________1________1
370
              18
390
0
  6
Continuous
 62
               7
100
AcDbLine
 10
-46.638746473321248
 20
30.404688818276341
 30
0.0
 11
-41.287274610745158
 21
30.404688818276341
 31
0.0
  0
ENDBLK
  5
492
100
AcDbEntity
  8
0
390
0
100
AcDbBlockEnd
  0
BLOCK
  5
495
100
AcDbEntity
  8
0
390
0
100
AcDbBlockBegin
  2
C45
 70
              64
 10
0.0
 20
0.0
 30
0.0
  3
C45
  1

  0
ARC
  5
496
100
AcDbEntity
  8
________1________1
370
              18
390
0
  6
Continuous
 62
               7
100
AcDbCircle
 10
-61.287274610745158
 20
33.704688818276338
 30
0.0
 40
0.3000000000000682
100
AcDbArc
 50
-90.0
 51
-45.0
  0
LINE
  5
497
100
AcDbEntity
  8
________1________1
370
              18
390
0
  6
Continuous
 62
               7
100
AcDbLine
 10
-59.675142576389248
 20
34.892556783920384
 30
0.0
 11
-61.075142576389112
 21
33.492556783920406
 31
0.0
  0
ARC
  5
498
100
AcDbEntity
  8
________1________1
370
              18
390
0
  6
Continuous
 62
               7
100
AcDbCircle
 10
-59.887274610745294
 20
35.104688818276315
 30
0.0
 40
0.3000000000000346
100
AcDbArc
 50
-44.999999999984652
 51
90.0
  0
LINE
  5
499
100
AcDbEntity
  8
________1________1
370
              18
390
0
  6
Continuous
 62
               7
100
AcDbLine
 10
-66.850878507677294
 20
33.492556783920406
 30
0.0
 11
-68.250878507677157
 21
34.892556783920384
 31
0.0
  0
LINE
  5
49A
100
AcDbEntity
  8
________1________1
370
              18
390
0
  6
Continuous
 62
               7
100
AcDbLine
 10
-68.038746473321112
 20
35.40468881827627
 30
0.0
 11
-59.887274610745294
 21
35.40468881827627
 31
0.0
  0
ARC
  5
49B
100
AcDbEntity
  8
________1________1
370
              18
390
0
  6
Continuous
 62
               7
100
AcDbCircle
 10
-68.038746473321112
 20
35.104688818276315
 30
0.0
 40
0.2999999999999545
100
AcDbArc
 50
90.0
 51
-135.00000000001538
  0
ARC
  5
49C
100
AcDbEntity
  8
________1________1
370
              18
390
0
  6
Continuous
 62
               7
100
AcDbCircle
 10
-66.638746473321476
 20
33.704688818276338
 30
0.0
 40
0.2999999999999542
100
AcDbArc
 50
-134.99999999996928
 51
-90.0
  0
LINE
  5
49D
100
AcDbEntity
  8
________1________1
370
              18
390
0
  6
Continuous
 62
               7
100
AcDbLine
 10
-61.287274610745158
 20
33.40468881827627
 30
0.0
 11
-66.638746473321248
 21
33.40468881827627
 31
0.0
  0
LINE
  5
49E
100
AcDbEntity
  8
________1________1
370
              18
390
0
  6
Continuous
 62
               7
100
AcDbLine
 10
-59.887274610745294
 20
28.404688818276341
 30
0.0
 11
-68.038746473321112
 21
28.404688818276341
 31
0.0
  0
LINE
  5
49F
100
AcDbEntity
  8
________1________1
370
              18
390
0
  6
Continuous
 62
               7
100
AcDbLine
 10
-68.250878507677157
 20
28.916820852632341
 30
0.0
 11
-66.850878507677294
 21
30.316820852632318
 31
0.0
  0
ARC
  5
4A0
100
AcDbEntity
  8
________1________1
370
              18
390
0
  6
Continuous
 62
               7
100
AcDbCircle
 10
-68.038746473321112
 20
28.704688818276296
 30
0.0
 40
0.3000000000000748
100
AcDbArc
 50
135.00000000000767
 51
-90.0
  0
ARC
  5
4A1
100
AcDbEntity
  8
________1________1
370
              18
390
0
  6
Continuous
 62
               7
100
AcDbCircle
 10
-59.887274610745294
 20
28.704688818276296
 30
0.0
 40
0.2999999999999545
100
AcDbArc
 50
-90.0
 51
44.999999999984652
  0
LINE
  5
4A2
100
AcDbEntity
  8
________1________1
370
              18
390
0
  6
Continuous
 62
               7
100
AcDbLine
 10
-61.075142576389112
 20
30.316820852632318
 30
0.0
 11
-59.675142576389248
 21
28.916820852632341
 31
0.0
  0
ARC
  5
4A3
100
AcDbEntity
  8
________1________1
370
              18
390
0
  6
Continuous
 62
               7
100
AcDbCircle
 10
-61.287274610745158
 20
30.10468881827633
 30
0.0
 40
0.3000000000000346
100
AcDbArc
 50
44.999999999984652
 51
90.0
  0
ARC
  5
4A4
100
AcDbEntity
  8
________1________1
370
              18
390
0
  6
Continuous
 62
               7
100
AcDbCircle
 10
-66.638746473321476
 20
30.10468881827633
 30
0.0
 40
0.3000000000000114
100
AcDbArc
 50
90.0
 51
135.00000000001538
  0
LINE
  5
4A5
100
AcDbEntity
  8
________1________1
370
              18
390
0
  6
Continuous
 62
               7
100
AcDbLine
 10
-66.638746473321248
 20
30.404688818276341
 30
0.0
 11
-61.287274610745158
 21
30.404688818276341
 31
0.0
  0
ENDBLK
  5
4A6
100
AcDbEntity
  8
0
390
0
100
AcDbBlockEnd
  0
BLOCK
  5
4A9
100
AcDbEntity
  8
0
390
0
100
AcDbBlockBegin
  2
C46
 70
              64
 10
0.0
 20
0.0
 30
0.0
  3
C46
  1

  0
ARC
  5
4AA
100
AcDbEntity
  8
________1________1
370
              18
390
0
  6
Continuous
 62
               7
100
AcDbCircle
 10
-81.287274610745158
 20
33.704688818276338
 30
0.0
 40
0.3000000000000682
100
AcDbArc
 50
-90.0
 51
-45.0
  0
LINE
  5
4AB
100
AcDbEntity
  8
________1________1
370
              18
390
0
  6
Continuous
 62
               7
100
AcDbLine
 10
-79.675142576389248
 20
34.892556783920384
 30
0.0
 11
-81.075142576389112
 21
33.492556783920406
 31
0.0
  0
ARC
  5
4AC
100
AcDbEntity
  8
________1________1
370
              18
390
0
  6
Continuous
 62
               7
100
AcDbCircle
 10
-79.887274610745294
 20
35.104688818276315
 30
0.0
 40
0.3000000000000346
100
AcDbArc
 50
-44.999999999984652
 51
90.0
  0
LINE
  5
4AD
100
AcDbEntity
  8
________1________1
370
              18
390
0
  6
Continuous
 62
               7
100
AcDbLine
 10
-86.850878507677294
 20
33.492556783920406
 30
0.0
 11
-88.250878507677157
 21
34.892556783920384
 31
0.0
  0
LINE
  5
4AE
100
AcDbEntity
  8
________1________1
370
              18
390
0
  6
Continuous
 62
               7
100
AcDbLine
 10
-88.038746473321112
 20
35.40468881827627
 30
0.0
 11
-79.887274610745294
 21
35.40468881827627
 31
0.0
  0
ARC
  5
4AF
100
AcDbEntity
  8
________1________1
370
              18
390
0
  6
Continuous
 62
               7
100
AcDbCircle
 10
-88.038746473321112
 20
35.104688818276315
 30
0.0
 40
0.2999999999999545
100
AcDbArc
 50
90.0
 51
-135.00000000001538
  0
ARC
  5
4B0
100
AcDbEntity
  8
________1________1
370
              18
390
0
  6
Continuous
 62
               7
100
AcDbCircle
 10
-86.638746473321476
 20
33.704688818276338
 30
0.0
 40
0.2999999999999542
100
AcDbArc
 50
-134.99999999996928
 51
-90.0
  0
LINE
  5
4B1
100
AcDbEntity
  8
________1________1
370
              18
390
0
  6
Continuous
 62
               7
100
AcDbLine
 10
-81.287274610745158
 20
33.40468881827627
 30
0.0
 11
-86.638746473321248
 21
33.40468881827627
 31
0.0
  0
LINE
  5
4B2
100
AcDbEntity
  8
________1________1
370
              18
390
0
  6
Continuous
 62
               7
100
AcDbLine
 10
-79.887274610745294
 20
28.404688818276341
 30
0.0
 11
-88.038746473321112
 21
28.404688818276341
 31
0.0
  0
LINE
  5
4B3
100
AcDbEntity
  8
________1________1
370
              18
390
0
  6
Continuous
 62
               7
100
AcDbLine
 10
-88.250878507677157
 20
28.916820852632341
 30
0.0
 11
-86.850878507677294
 21
30.316820852632318
 31
0.0
  0
ARC
  5
4B4
100
AcDbEntity
  8
________1________1
370
              18
390
0
  6
Continuous
 62
               7
100
AcDbCircle
 10
-88.038746473321112
 20
28.704688818276296
 30
0.0
 40
0.3000000000000748
100
AcDbArc
 50
135.00000000000767
 51
-90.0
  0
ARC
  5
4B5
100
AcDbEntity
  8
________1________1
370
              18
390
0
  6
Continuous
 62
               7
100
AcDbCircle
 10
-79.887274610745294
 20
28.704688818276296
 30
0.0
 40
0.2999999999999545
100
AcDbArc
 50
-90.0
 51
44.999999999984652
  0
LINE
  5
4B6
100
AcDbEntity
  8
________1________1
370
              18
390
0
  6
Continuous
 62
               7
100
AcDbLine
 10
-81.075142576389112
 20
30.316820852632318
 30
0.0
 11
-79.675142576389248
 21
28.916820852632341
 31
0.0
  0
ARC
  5
4B7
100
AcDbEntity
  8
________1________1
370
              18
390
0
  6
Continuous
 62
               7
100
AcDbCircle
 10
-81.287274610745158
 20
30.10468881827633
 30
0.0
 40
0.3000000000000346
100
AcDbArc
 50
44.999999999984652
 51
90.0
  0
ARC
  5
4B8
100
AcDbEntity
  8
________1________1
370
              18
390
0
  6
Continuous
 62
               7
100
AcDbCircle
 10
-86.638746473321476
 20
30.10468881827633
 30
0.0
 40
0.3000000000000114
100
AcDbArc
 50
90.0
 51
135.00000000001538
  0
LINE
  5
4B9
100
AcDbEntity
  8
________1________1
370
              18
390
0
  6
Continuous
 62
               7
100
AcDbLine
 10
-86.638746473321248
 20
30.404688818276341
 30
0.0
 11
-81.287274610745158
 21
30.404688818276341
 31
0.0
  0
ENDBLK
  5
4BA
100
AcDbEntity
  8
0
390
0
100
AcDbBlockEnd
  0
BLOCK
  5
4C3
100
AcDbEntity
  8
0
390
0
100
AcDbBlockBegin
  2
*D52
 70
              65
 10
0.0
 20
0.0
 30
0.0
  3
*D52
  1

  0
LINE
  5
4C4
100
AcDbEntity
  8
____1
370
               5
390
0
  6
Continuous
 62
               7
100
AcDbLine
 10
-343.96301054203326
 20
-48.899738057454364
 30
0.0
 11
-373.96301054203349
 21
-48.899738057454364
 31
0.0
  0
LINE
  5
4C5
100
AcDbEntity
  8
____1
370
               5
390
0
  6
Continuous
 62
               7
100
AcDbLine
 10
-373.96301054203349
 20
20.254688818276392
 30
0.0
 11
-373.96301054203349
 21
-51.399738057454364
 31
0.0
  0
LINE
  5
4C6
100
AcDbEntity
  8
____1
370
               5
390
0
  6
Continuous
 62
               7
100
AcDbLine
 10
-343.96301054203326
 20
23.404688818276341
 30
0.0
 11
-343.96301054203326
 21
-51.399738057454364
 31
0.0
  0
SOLID
  5
4C7
100
AcDbEntity
  8
____1
370
               5
390
0
  6
Continuous
 62
               7
100
AcDbTrace
 10
-339.13338159763629
 20
-50.193833335240619
 30
0.0
 11
-339.13338159763629
 21
-50.193833335240619
 31
0.0
 12
-343.96301054203326
 22
-48.899738057454364
 32
0.0
 13
-340.34078883373553
 23
-48.899738057454364
 33
0.0
  0
SOLID
  5
4C8
100
AcDbEntity
  8
____1
370
               5
390
0
  6
Continuous
 62
               7
100
AcDbTrace
 10
-343.96301054203326
 20
-48.899738057454364
 30
0.0
 11
-340.34078883373553
 21
-48.899738057454364
 31
0.0
 12
-339.13338159763629
 22
-47.605642779668109
 32
0.0
 13
-339.13338159763629
 23
-47.605642779668109
 33
0.0
  0
LINE
  5
4C9
100
AcDbEntity
  8
____1
370
               5
390
0
  6
Continuous
 62
               7
100
AcDbLine
 10
-343.96301054203326
 20
-48.899738057454364
 30
0.0
 11
-331.46301054203326
 21
-48.899738057454364
 31
0.0
  0
SOLID
  5
4CA
100
AcDbEntity
  8
____1
370
               5
390
0
  6
Continuous
 62
               7
100
AcDbTrace
 10
-378.79263948643046
 20
-50.193833335240619
 30
0.0
 11
-378.79263948643046
 21
-50.193833335240619
 31
0.0
 12
-377.58523225033122
 22
-48.899738057454364
 32
0.0
 13
-373.96301054203349
 23
-48.899738057454364
 33
0.0
  0
SOLID
  5
4CB
100
AcDbEntity
  8
____1
370
               5
390
0
  6
Continuous
 62
               7
100
AcDbTrace
 10
-377.58523225033122
 20
-48.899738057454364
 30
0.0
 11
-373.96301054203349
 21
-48.899738057454364
 31
0.0
 12
-378.79263948643046
 22
-47.605642779668109
 32
0.0
 13
-378.79263948643046
 23
-47.605642779668109
 33
0.0
  0
LINE
  5
4CC
100
AcDbEntity
  8
____1
370
               5
390
0
  6
Continuous
 62
               7
100
AcDbLine
 10
-373.96301054203349
 20
-48.899738057454364
 30
0.0
 11
-386.46301054203349
 21
-48.899738057454364
 31
0.0
  0
MTEXT
  5
4CD
100
AcDbEntity
  8
寸法線_1
370
               5
390
0
  6
CENTER2
 62
               7
100
AcDbMText
 10
-364.25467704975443
 20
-35.81640504201247
 30
0.0
 40
10.583333015441895
 41
10.624674160033464
 71
               1
 72
               1
  1
30
  7
Style1
 73
               1
 44
1.0
  0
ENDBLK
  5
4CE
100
AcDbEntity
  8
0
390
0
100
AcDbBlockEnd
  0
BLOCK
  5
4D3
100
AcDbEntity
  8
0
390
0
100
AcDbBlockBegin
  2
*D53
 70
              65
 10
0.0
 20
0.0
 30
0.0
  3
*D53
  1

  0
LINE
  5
4D4
100
AcDbEntity
  8
____1
370
               5
390
0
  6
Continuous
 62
               7
100
AcDbLine
 10
347.61687961154524
 20
21.57478983095406
 30
0.0
 11
347.61687961154524
 21
-15.846354166666686
 31
0.0
  0
LINE
  5
4D5
100
AcDbEntity
  8
____1
370
               5
390
0
  6
Continuous
 62
               7
100
AcDbLine
 10
472.6168796115449
 20
23.074789830954018
 30
0.0
 11
472.6168796115449
 21
-15.846354166666686
 31
0.0
  0
SOLID
  5
4D6
100
AcDbEntity
  8
____1
370
               5
390
0
  6
Continuous
 62
               7
100
AcDbTrace
 10
467.78725066714793
 20
-14.64044944445294
 30
0.0
 11
467.78725066714793
 21
-14.64044944445294
 31
0.0
 12
468.99465790324717
 22
-13.346354166666686
 32
0.0
 13
472.6168796115449
 23
-13.346354166666686
 33
0.0
  0
SOLID
  5
4D7
100
AcDbEntity
  8
____1
370
               5
390
0
  6
Continuous
 62
               7
100
AcDbTrace
 10
468.99465790324717
 20
-13.346354166666686
 30
0.0
 11
472.6168796115449
 21
-13.346354166666686
 31
0.0
 12
467.78725066714793
 22
-12.052258888880431
 32
0.0
 13
467.78725066714793
 23
-12.052258888880431
 33
0.0
  0
LINE
  5
4D8
100
AcDbEntity
  8
____1
370
               5
390
0
  6
Continuous
 62
               7
100
AcDbLine
 10
472.6168796115449
 20
-13.346354166666686
 30
0.0
 11
410.11687961154502
 21
-13.346354166666686
 31
0.0
  0
SOLID
  5
4D9
100
AcDbEntity
  8
____1
370
               5
390
0
  6
Continuous
 62
               7
100
AcDbTrace
 10
352.44650855594222
 20
-14.64044944445294
 30
0.0
 11
352.44650855594222
 21
-14.64044944445294
 31
0.0
 12
347.61687961154524
 22
-13.346354166666686
 32
0.0
 13
351.23910131984297
 23
-13.346354166666686
 33
0.0
  0
SOLID
  5
4DA
100
AcDbEntity
  8
____1
370
               5
390
0
  6
Continuous
 62
               7
100
AcDbTrace
 10
347.61687961154524
 20
-13.346354166666686
 30
0.0
 11
351.23910131984297
 21
-13.346354166666686
 31
0.0
 12
352.44650855594222
 22
-12.052258888880431
 32
0.0
 13
352.44650855594222
 23
-12.052258888880431
 33
0.0
  0
LINE
  5
4DB
100
AcDbEntity
  8
____1
370
               5
390
0
  6
Continuous
 62
               7
100
AcDbLine
 10
347.61687961154524
 20
-13.346354166666686
 30
0.0
 11
410.11687961154502
 21
-13.346354166666686
 31
0.0
  0
MTEXT
  5
4DC
100
AcDbEntity
  8
寸法線_1
370
               5
390
0
  6
Continuous
 62
               7
100
AcDbMText
 10
402.1793798499636
 20
-0.2630211512247911
 30
0.0
 40
10.583333015441895
 41
15.937010761350393
 71
               1
 72
               1
  1
125
  7
Style1
 11
0.9999999999999999
 21
0.0
 31
0.0
 73
               1
 44
1.0
  0
ENDBLK
  5
4DD
100
AcDbEntity
  8
0
390
0
100
AcDbBlockEnd
  0
BLOCK
  5
4E2
100
AcDbEntity
  8
0
390
0
100
AcDbBlockBegin
  2
*D54
 70
              65
 10
0.0
 20
0.0
 30
0.0
  3
*D54
  1

  0
LINE
  5
4E3
100
AcDbEntity
  8
____1
370
               5
390
0
  6
Continuous
 62
               7
100
AcDbLine
 10
-233.96301054203337
 20
42.234587805598707
 30
0.0
 11
-233.96301054203337
 21
102.94514973958329
 31
0.0
  0
LINE
  5
4E4
100
AcDbEntity
  8
____1
370
               5
390
0
  6
Continuous
 62
               7
100
AcDbLine
 10
-373.96301054203349
 20
43.554688818276389
 30
0.0
 11
-373.96301054203349
 21
102.94514973958329
 31
0.0
  0
SOLID
  5
4E5
100
AcDbEntity
  8
____1
370
               5
390
0
  6
Continuous
 62
               7
100
AcDbTrace
 10
-369.13338159763651
 20
99.151054461797031
 30
0.0
 11
-369.13338159763651
 21
99.151054461797031
 31
0.0
 12
-373.96301054203349
 22
100.44514973958329
 32
0.0
 13
-370.34078883373576
 23
100.44514973958329
 33
0.0
  0
SOLID
  5
4E6
100
AcDbEntity
  8
____1
370
               5
390
0
  6
Continuous
 62
               7
100
AcDbTrace
 10
-373.96301054203349
 20
100.44514973958329
 30
0.0
 11
-370.34078883373576
 21
100.44514973958329
 31
0.0
 12
-369.13338159763651
 22
101.73924501736954
 32
0.0
 13
-369.13338159763651
 23
101.73924501736954
 33
0.0
  0
LINE
  5
4E7
100
AcDbEntity
  8
____1
370
               5
390
0
  6
Continuous
 62
               7
100
AcDbLine
 10
-373.96301054203349
 20
100.44514973958329
 30
0.0
 11
-303.96301054203349
 21
100.44514973958329
 31
0.0
  0
SOLID
  5
4E8
100
AcDbEntity
  8
____1
370
               5
390
0
  6
Continuous
 62
               7
100
AcDbTrace
 10
-238.79263948643035
 20
99.151054461797031
 30
0.0
 11
-238.79263948643035
 21
99.151054461797031
 31
0.0
 12
-237.5852322503311
 22
100.44514973958329
 32
0.0
 13
-233.96301054203337
 23
100.44514973958329
 33
0.0
  0
SOLID
  5
4E9
100
AcDbEntity
  8
____1
370
               5
390
0
  6
Continuous
 62
               7
100
AcDbTrace
 10
-237.5852322503311
 20
100.44514973958329
 30
0.0
 11
-233.96301054203337
 21
100.44514973958329
 31
0.0
 12
-238.79263948643035
 22
101.73924501736954
 32
0.0
 13
-238.79263948643035
 23
101.73924501736954
 33
0.0
  0
LINE
  5
4EA
100
AcDbEntity
  8
____1
370
               5
390
0
  6
Continuous
 62
               7
100
AcDbLine
 10
-233.96301054203337
 20
100.44514973958329
 30
0.0
 11
-303.96301054203349
 21
100.44514973958329
 31
0.0
  0
MTEXT
  5
4EB
100
AcDbEntity
  8
寸法線_1
370
               5
390
0
  6
CENTER2
 62
               7
100
AcDbMText
 10
-311.90051030361491
 20
113.52848275502518
 30
0.0
 40
10.583333015441895
 41
15.937010761350393
 71
               1
 72
               1
  1
140
  7
Style1
 11
0.9999999999999999
 21
0.0
 31
0.0
 73
               1
 44
1.0
  0
ENDBLK
  5
4EC
100
AcDbEntity
  8
0
390
0
100
AcDbBlockEnd
  0
BLOCK
  5
4F7
100
AcDbEntity
  8
0
390
0
100
AcDbBlockBegin
  2
C47
 70
              64
 10
0.0
 20
0.0
 30
0.0
  3
C47
  1

  0
INSERT
  5
50B
100
AcDbEntity
  8
____1
370
               5
390
0
  6
Continuous
 62
               7
100
AcDbBlockReference
  2
C48
 10
0.0
 20
0.0
 30
0.0
  0
INSERT
  5
51F
100
AcDbEntity
  8
____1
370
               5
390
0
  6
Continuous
 62
               7
100
AcDbBlockReference
  2
C49
 10
0.0
 20
0.0
 30
0.0
  0
INSERT
  5
533
100
AcDbEntity
  8
____1
370
               5
390
0
  6
Continuous
 62
               7
100
AcDbBlockReference
  2
C50
 10
0.0
 20
0.0
 30
0.0
  0
INSERT
  5
547
100
AcDbEntity
  8
____1
370
               5
390
0
  6
Continuous
 62
               7
100
AcDbBlockReference
  2
C51
 10
0.0
 20
0.0
 30
0.0
  0
INSERT
  5
55B
100
AcDbEntity
  8
____1
370
               5
390
0
  6
Continuous
 62
               7
100
AcDbBlockReference
  2
C52
 10
0.0
 20
0.0
 30
0.0
  0
INSERT
  5
56F
100
AcDbEntity
  8
____1
370
               5
390
0
  6
Continuous
 62
               7
100
AcDbBlockReference
  2
C53
 10
0.0
 20
0.0
 30
0.0
  0
INSERT
  5
583
100
AcDbEntity
  8
____1
370
               5
390
0
  6
Continuous
 62
               7
100
AcDbBlockReference
  2
C54
 10
0.0
 20
0.0
 30
0.0
  0
ENDBLK
  5
584
100
AcDbEntity
  8
0
390
0
100
AcDbBlockEnd
  0
BLOCK
  5
4F9
100
AcDbEntity
  8
0
390
0
100
AcDbBlockBegin
  2
C48
 70
              64
 10
0.0
 20
0.0
 30
0.0
  3
C48
  1

  0
ARC
  5
4FA
100
AcDbEntity
  8
________1________1
370
              18
390
0
  6
Continuous
 62
               7
100
AcDbCircle
 10
340.29261554283306
 20
33.704688818276338
 30
0.0
 40
0.3000000000000682
100
AcDbArc
 50
-90.0
 51
-45.000000000030703
  0
LINE
  5
4FB
100
AcDbEntity
  8
________1________1
370
              18
390
0
  6
Continuous
 62
               7
100
AcDbLine
 10
341.90474757718943
 20
34.892556783920384
 30
0.0
 11
340.50474757718888
 21
33.492556783920406
 31
0.0
  0
ARC
  5
4FC
100
AcDbEntity
  8
________1________1
370
              18
390
0
  6
Continuous
 62
               7
100
AcDbCircle
 10
341.6926155428327
 20
35.104688818276315
 30
0.0
 40
0.3000000000005169
100
AcDbArc
 50
-44.99999999989253
 51
90.0
  0
LINE
  5
4FD
100
AcDbEntity
  8
________1________1
370
              18
390
0
  6
Continuous
 62
               7
100
AcDbLine
 10
334.7290116459007
 20
33.492556783920406
 30
0.0
 11
333.32901164590106
 21
34.892556783920384
 31
0.0
  0
LINE
  5
4FE
100
AcDbEntity
  8
________1________1
370
              18
390
0
  6
Continuous
 62
               7
100
AcDbLine
 10
333.54114368025688
 20
35.40468881827627
 30
0.0
 11
341.6926155428327
 21
35.40468881827627
 31
0.0
  0
ARC
  5
4FF
100
AcDbEntity
  8
________1________1
370
              18
390
0
  6
Continuous
 62
               7
100
AcDbCircle
 10
333.54114368025688
 20
35.104688818276315
 30
0.0
 40
0.2999999999999545
100
AcDbArc
 50
90.0
 51
-134.99999999998465
  0
ARC
  5
500
100
AcDbEntity
  8
________1________1
370
              18
390
0
  6
Continuous
 62
               7
100
AcDbCircle
 10
334.94114368025652
 20
33.704688818276338
 30
0.0
 40
0.2999999999999542
100
AcDbArc
 50
-134.99999999996928
 51
-90.0
  0
LINE
  5
501
100
AcDbEntity
  8
________1________1
370
              18
390
0
  6
Continuous
 62
               7
100
AcDbLine
 10
340.29261554283306
 20
33.40468881827627
 30
0.0
 11
334.94114368025743
 21
33.40468881827627
 31
0.0
  0
LINE
  5
502
100
AcDbEntity
  8
________1________1
370
              18
390
0
  6
Continuous
 62
               7
100
AcDbLine
 10
341.6926155428327
 20
28.404688818276341
 30
0.0
 11
333.54114368025688
 21
28.404688818276341
 31
0.0
  0
LINE
  5
503
100
AcDbEntity
  8
________1________1
370
              18
390
0
  6
Continuous
 62
               7
100
AcDbLine
 10
333.32901164590106
 20
28.916820852632341
 30
0.0
 11
334.7290116459007
 21
30.316820852632318
 31
0.0
  0
ARC
  5
504
100
AcDbEntity
  8
________1________1
370
              18
390
0
  6
Continuous
 62
               7
100
AcDbCircle
 10
333.54114368025688
 20
28.704688818276296
 30
0.0
 40
0.299999999999914
100
AcDbArc
 50
134.99999999997698
 51
-90.0
  0
ARC
  5
505
100
AcDbEntity
  8
________1________1
370
              18
390
0
  6
Continuous
 62
               7
100
AcDbCircle
 10
341.6926155428327
 20
28.704688818276296
 30
0.0
 40
0.2999999999999545
100
AcDbArc
 50
-90.0
 51
44.99999999989253
  0
LINE
  5
506
100
AcDbEntity
  8
________1________1
370
              18
390
0
  6
Continuous
 62
               7
100
AcDbLine
 10
340.50474757718888
 20
30.316820852632318
 30
0.0
 11
341.90474757718943
 21
28.916820852632341
 31
0.0
  0
ARC
  5
507
100
AcDbEntity
  8
________1________1
370
              18
390
0
  6
Continuous
 62
               7
100
AcDbCircle
 10
340.29261554283306
 20
30.10468881827633
 30
0.0
 40
0.2999999999998738
100
AcDbArc
 50
45.000000000015355
 51
90.0
  0
ARC
  5
508
100
AcDbEntity
  8
________1________1
370
              18
390
0
  6
Continuous
 62
               7
100
AcDbCircle
 10
334.94114368025652
 20
30.10468881827633
 30
0.0
 40
0.3000000000000114
100
AcDbArc
 50
90.0
 51
134.99999999998465
  0
LINE
  5
509
100
AcDbEntity
  8
________1________1
370
              18
390
0
  6
Continuous
 62
               7
100
AcDbLine
 10
334.94114368025743
 20
30.404688818276341
 30
0.0
 11
340.29261554283306
 21
30.404688818276341
 31
0.0
  0
ENDBLK
  5
50A
100
AcDbEntity
  8
0
390
0
100
AcDbBlockEnd
  0
BLOCK
  5
50D
100
AcDbEntity
  8
0
390
0
100
AcDbBlockBegin
  2
C49
 70
              64
 10
0.0
 20
0.0
 30
0.0
  3
C49
  1

  0
ARC
  5
50E
100
AcDbEntity
  8
________1________1
370
              18
390
0
  6
Continuous
 62
               7
100
AcDbCircle
 10
320.29261554283306
 20
33.704688818276338
 30
0.0
 40
0.3000000000000682
100
AcDbArc
 50
-90.0
 51
-45.000000000030703
  0
LINE
  5
50F
100
AcDbEntity
  8
________1________1
370
              18
390
0
  6
Continuous
 62
               7
100
AcDbLine
 10
321.90474757718943
 20
34.892556783920384
 30
0.0
 11
320.50474757718888
 21
33.492556783920406
 31
0.0
  0
ARC
  5
510
100
AcDbEntity
  8
________1________1
370
              18
390
0
  6
Continuous
 62
               7
100
AcDbCircle
 10
321.6926155428327
 20
35.104688818276315
 30
0.0
 40
0.3000000000005169
100
AcDbArc
 50
-44.99999999989253
 51
90.0
  0
LINE
  5
511
100
AcDbEntity
  8
________1________1
370
              18
390
0
  6
Continuous
 62
               7
100
AcDbLine
 10
314.7290116459007
 20
33.492556783920406
 30
0.0
 11
313.32901164590106
 21
34.892556783920384
 31
0.0
  0
LINE
  5
512
100
AcDbEntity
  8
________1________1
370
              18
390
0
  6
Continuous
 62
               7
100
AcDbLine
 10
313.54114368025688
 20
35.40468881827627
 30
0.0
 11
321.6926155428327
 21
35.40468881827627
 31
0.0
  0
ARC
  5
513
100
AcDbEntity
  8
________1________1
370
              18
390
0
  6
Continuous
 62
               7
100
AcDbCircle
 10
313.54114368025688
 20
35.104688818276315
 30
0.0
 40
0.2999999999999545
100
AcDbArc
 50
90.0
 51
-134.99999999998465
  0
ARC
  5
514
100
AcDbEntity
  8
________1________1
370
              18
390
0
  6
Continuous
 62
               7
100
AcDbCircle
 10
314.94114368025652
 20
33.704688818276338
 30
0.0
 40
0.2999999999999542
100
AcDbArc
 50
-134.99999999996928
 51
-90.0
  0
LINE
  5
515
100
AcDbEntity
  8
________1________1
370
              18
390
0
  6
Continuous
 62
               7
100
AcDbLine
 10
320.29261554283306
 20
33.40468881827627
 30
0.0
 11
314.94114368025743
 21
33.40468881827627
 31
0.0
  0
LINE
  5
516
100
AcDbEntity
  8
________1________1
370
              18
390
0
  6
Continuous
 62
               7
100
AcDbLine
 10
321.6926155428327
 20
28.404688818276341
 30
0.0
 11
313.54114368025688
 21
28.404688818276341
 31
0.0
  0
LINE
  5
517
100
AcDbEntity
  8
________1________1
370
              18
390
0
  6
Continuous
 62
               7
100
AcDbLine
 10
313.32901164590106
 20
28.916820852632341
 30
0.0
 11
314.7290116459007
 21
30.316820852632318
 31
0.0
  0
ARC
  5
518
100
AcDbEntity
  8
________1________1
370
              18
390
0
  6
Continuous
 62
               7
100
AcDbCircle
 10
313.54114368025688
 20
28.704688818276296
 30
0.0
 40
0.299999999999914
100
AcDbArc
 50
134.99999999997698
 51
-90.0
  0
ARC
  5
519
100
AcDbEntity
  8
________1________1
370
              18
390
0
  6
Continuous
 62
               7
100
AcDbCircle
 10
321.6926155428327
 20
28.704688818276296
 30
0.0
 40
0.2999999999999545
100
AcDbArc
 50
-90.0
 51
44.99999999989253
  0
LINE
  5
51A
100
AcDbEntity
  8
________1________1
370
              18
390
0
  6
Continuous
 62
               7
100
AcDbLine
 10
320.50474757718888
 20
30.316820852632318
 30
0.0
 11
321.90474757718943
 21
28.916820852632341
 31
0.0
  0
ARC
  5
51B
100
AcDbEntity
  8
________1________1
370
              18
390
0
  6
Continuous
 62
               7
100
AcDbCircle
 10
320.29261554283306
 20
30.10468881827633
 30
0.0
 40
0.2999999999998738
100
AcDbArc
 50
45.000000000015355
 51
90.0
  0
ARC
  5
51C
100
AcDbEntity
  8
________1________1
370
              18
390
0
  6
Continuous
 62
               7
100
AcDbCircle
 10
314.94114368025652
 20
30.10468881827633
 30
0.0
 40
0.3000000000000114
100
AcDbArc
 50
90.0
 51
134.99999999998465
  0
LINE
  5
51D
100
AcDbEntity
  8
________1________1
370
              18
390
0
  6
Continuous
 62
               7
100
AcDbLine
 10
314.94114368025743
 20
30.404688818276341
 30
0.0
 11
320.29261554283306
 21
30.404688818276341
 31
0.0
  0
ENDBLK
  5
51E
100
AcDbEntity
  8
0
390
0
100
AcDbBlockEnd
  0
BLOCK
  5
521
100
AcDbEntity
  8
0
390
0
100
AcDbBlockBegin
  2
C50
 70
              64
 10
0.0
 20
0.0
 30
0.0
  3
C50
  1

  0
ARC
  5
522
100
AcDbEntity
  8
________1________1
370
              18
390
0
  6
Continuous
 62
               7
100
AcDbCircle
 10
300.29261554283306
 20
33.704688818276338
 30
0.0
 40
0.3000000000000682
100
AcDbArc
 50
-90.0
 51
-45.000000000030703
  0
LINE
  5
523
100
AcDbEntity
  8
________1________1
370
              18
390
0
  6
Continuous
 62
               7
100
AcDbLine
 10
301.90474757718943
 20
34.892556783920384
 30
0.0
 11
300.50474757718888
 21
33.492556783920406
 31
0.0
  0
ARC
  5
524
100
AcDbEntity
  8
________1________1
370
              18
390
0
  6
Continuous
 62
               7
100
AcDbCircle
 10
301.6926155428327
 20
35.104688818276315
 30
0.0
 40
0.3000000000005169
100
AcDbArc
 50
-44.99999999989253
 51
90.0
  0
LINE
  5
525
100
AcDbEntity
  8
________1________1
370
              18
390
0
  6
Continuous
 62
               7
100
AcDbLine
 10
294.7290116459007
 20
33.492556783920406
 30
0.0
 11
293.32901164590106
 21
34.892556783920384
 31
0.0
  0
LINE
  5
526
100
AcDbEntity
  8
________1________1
370
              18
390
0
  6
Continuous
 62
               7
100
AcDbLine
 10
293.54114368025688
 20
35.40468881827627
 30
0.0
 11
301.6926155428327
 21
35.40468881827627
 31
0.0
  0
ARC
  5
527
100
AcDbEntity
  8
________1________1
370
              18
390
0
  6
Continuous
 62
               7
100
AcDbCircle
 10
293.54114368025688
 20
35.104688818276315
 30
0.0
 40
0.2999999999999545
100
AcDbArc
 50
90.0
 51
-134.99999999998465
  0
ARC
  5
528
100
AcDbEntity
  8
________1________1
370
              18
390
0
  6
Continuous
 62
               7
100
AcDbCircle
 10
294.94114368025652
 20
33.704688818276338
 30
0.0
 40
0.2999999999999542
100
AcDbArc
 50
-134.99999999996928
 51
-90.0
  0
LINE
  5
529
100
AcDbEntity
  8
________1________1
370
              18
390
0
  6
Continuous
 62
               7
100
AcDbLine
 10
300.29261554283306
 20
33.40468881827627
 30
0.0
 11
294.94114368025743
 21
33.40468881827627
 31
0.0
  0
LINE
  5
52A
100
AcDbEntity
  8
________1________1
370
              18
390
0
  6
Continuous
 62
               7
100
AcDbLine
 10
301.6926155428327
 20
28.404688818276341
 30
0.0
 11
293.54114368025688
 21
28.404688818276341
 31
0.0
  0
LINE
  5
52B
100
AcDbEntity
  8
________1________1
370
              18
390
0
  6
Continuous
 62
               7
100
AcDbLine
 10
293.32901164590106
 20
28.916820852632341
 30
0.0
 11
294.7290116459007
 21
30.316820852632318
 31
0.0
  0
ARC
  5
52C
100
AcDbEntity
  8
________1________1
370
              18
390
0
  6
Continuous
 62
               7
100
AcDbCircle
 10
293.54114368025688
 20
28.704688818276296
 30
0.0
 40
0.299999999999914
100
AcDbArc
 50
134.99999999997698
 51
-90.0
  0
ARC
  5
52D
100
AcDbEntity
  8
________1________1
370
              18
390
0
  6
Continuous
 62
               7
100
AcDbCircle
 10
301.6926155428327
 20
28.704688818276296
 30
0.0
 40
0.2999999999999545
100
AcDbArc
 50
-90.0
 51
44.99999999989253
  0
LINE
  5
52E
100
AcDbEntity
  8
________1________1
370
              18
390
0
  6
Continuous
 62
               7
100
AcDbLine
 10
300.50474757718888
 20
30.316820852632318
 30
0.0
 11
301.90474757718943
 21
28.916820852632341
 31
0.0
  0
ARC
  5
52F
100
AcDbEntity
  8
________1________1
370
              18
390
0
  6
Continuous
 62
               7
100
AcDbCircle
 10
300.29261554283306
 20
30.10468881827633
 30
0.0
 40
0.2999999999998738
100
AcDbArc
 50
45.000000000015355
 51
90.0
  0
ARC
  5
530
100
AcDbEntity
  8
________1________1
370
              18
390
0
  6
Continuous
 62
               7
100
AcDbCircle
 10
294.94114368025652
 20
30.10468881827633
 30
0.0
 40
0.3000000000000114
100
AcDbArc
 50
90.0
 51
134.99999999998465
  0
LINE
  5
531
100
AcDbEntity
  8
________1________1
370
              18
390
0
  6
Continuous
 62
               7
100
AcDbLine
 10
294.94114368025743
 20
30.404688818276341
 30
0.0
 11
300.29261554283306
 21
30.404688818276341
 31
0.0
  0
ENDBLK
  5
532
100
AcDbEntity
  8
0
390
0
100
AcDbBlockEnd
  0
BLOCK
  5
535
100
AcDbEntity
  8
0
390
0
100
AcDbBlockBegin
  2
C51
 70
              64
 10
0.0
 20
0.0
 30
0.0
  3
C51
  1

  0
ARC
  5
536
100
AcDbEntity
  8
________1________1
370
              18
390
0
  6
Continuous
 62
               7
100
AcDbCircle
 10
280.29261554283312
 20
33.704688818276338
 30
0.0
 40
0.3000000000000682
100
AcDbArc
 50
-90.0
 51
-45.000000000030703
  0
LINE
  5
537
100
AcDbEntity
  8
________1________1
370
              18
390
0
  6
Continuous
 62
               7
100
AcDbLine
 10
281.90474757718948
 20
34.892556783920384
 30
0.0
 11
280.50474757718894
 21
33.492556783920406
 31
0.0
  0
ARC
  5
538
100
AcDbEntity
  8
________1________1
370
              18
390
0
  6
Continuous
 62
               7
100
AcDbCircle
 10
281.69261554283275
 20
35.104688818276315
 30
0.0
 40
0.3000000000005169
100
AcDbArc
 50
-44.99999999989253
 51
90.0
  0
LINE
  5
539
100
AcDbEntity
  8
________1________1
370
              18
390
0
  6
Continuous
 62
               7
100
AcDbLine
 10
274.72901164590064
 20
33.492556783920406
 30
0.0
 11
273.32901164590101
 21
34.892556783920384
 31
0.0
  0
LINE
  5
53A
100
AcDbEntity
  8
________1________1
370
              18
390
0
  6
Continuous
 62
               7
100
AcDbLine
 10
273.54114368025682
 20
35.40468881827627
 30
0.0
 11
281.69261554283275
 21
35.40468881827627
 31
0.0
  0
ARC
  5
53B
100
AcDbEntity
  8
________1________1
370
              18
390
0
  6
Continuous
 62
               7
100
AcDbCircle
 10
273.54114368025682
 20
35.104688818276315
 30
0.0
 40
0.2999999999999545
100
AcDbArc
 50
90.0
 51
-134.99999999998465
  0
ARC
  5
53C
100
AcDbEntity
  8
________1________1
370
              18
390
0
  6
Continuous
 62
               7
100
AcDbCircle
 10
274.94114368025646
 20
33.704688818276338
 30
0.0
 40
0.2999999999999542
100
AcDbArc
 50
-134.99999999996928
 51
-90.0
  0
LINE
  5
53D
100
AcDbEntity
  8
________1________1
370
              18
390
0
  6
Continuous
 62
               7
100
AcDbLine
 10
280.29261554283312
 20
33.40468881827627
 30
0.0
 11
274.94114368025737
 21
33.40468881827627
 31
0.0
  0
LINE
  5
53E
100
AcDbEntity
  8
________1________1
370
              18
390
0
  6
Continuous
 62
               7
100
AcDbLine
 10
281.69261554283275
 20
28.404688818276341
 30
0.0
 11
273.54114368025682
 21
28.404688818276341
 31
0.0
  0
LINE
  5
53F
100
AcDbEntity
  8
________1________1
370
              18
390
0
  6
Continuous
 62
               7
100
AcDbLine
 10
273.32901164590101
 20
28.916820852632341
 30
0.0
 11
274.72901164590064
 21
30.316820852632318
 31
0.0
  0
ARC
  5
540
100
AcDbEntity
  8
________1________1
370
              18
390
0
  6
Continuous
 62
               7
100
AcDbCircle
 10
273.54114368025682
 20
28.704688818276296
 30
0.0
 40
0.299999999999914
100
AcDbArc
 50
134.99999999997698
 51
-90.0
  0
ARC
  5
541
100
AcDbEntity
  8
________1________1
370
              18
390
0
  6
Continuous
 62
               7
100
AcDbCircle
 10
281.69261554283275
 20
28.704688818276296
 30
0.0
 40
0.2999999999999545
100
AcDbArc
 50
-90.0
 51
44.99999999989253
  0
LINE
  5
542
100
AcDbEntity
  8
________1________1
370
              18
390
0
  6
Continuous
 62
               7
100
AcDbLine
 10
280.50474757718894
 20
30.316820852632318
 30
0.0
 11
281.90474757718948
 21
28.916820852632341
 31
0.0
  0
ARC
  5
543
100
AcDbEntity
  8
________1________1
370
              18
390
0
  6
Continuous
 62
               7
100
AcDbCircle
 10
280.29261554283312
 20
30.10468881827633
 30
0.0
 40
0.2999999999998738
100
AcDbArc
 50
45.000000000015355
 51
90.0
  0
ARC
  5
544
100
AcDbEntity
  8
________1________1
370
              18
390
0
  6
Continuous
 62
               7
100
AcDbCircle
 10
274.94114368025646
 20
30.10468881827633
 30
0.0
 40
0.3000000000000114
100
AcDbArc
 50
90.0
 51
134.99999999998465
  0
LINE
  5
545
100
AcDbEntity
  8
________1________1
370
              18
390
0
  6
Continuous
 62
               7
100
AcDbLine
 10
274.94114368025737
 20
30.404688818276341
 30
0.0
 11
280.29261554283312
 21
30.404688818276341
 31
0.0
  0
ENDBLK
  5
546
100
AcDbEntity
  8
0
390
0
100
AcDbBlockEnd
  0
BLOCK
  5
549
100
AcDbEntity
  8
0
390
0
100
AcDbBlockBegin
  2
C52
 70
              64
 10
0.0
 20
0.0
 30
0.0
  3
C52
  1

  0
ARC
  5
54A
100
AcDbEntity
  8
________1________1
370
              18
390
0
  6
Continuous
 62
               7
100
AcDbCircle
 10
260.292615542833
 20
33.704688818276338
 30
0.0
 40
0.3000000000000682
100
AcDbArc
 50
-90.0
 51
-45.000000000030703
  0
LINE
  5
54B
100
AcDbEntity
  8
________1________1
370
              18
390
0
  6
Continuous
 62
               7
100
AcDbLine
 10
261.90474757718937
 20
34.892556783920384
 30
0.0
 11
260.50474757718882
 21
33.492556783920406
 31
0.0
  0
ARC
  5
54C
100
AcDbEntity
  8
________1________1
370
              18
390
0
  6
Continuous
 62
               7
100
AcDbCircle
 10
261.69261554283264
 20
35.104688818276315
 30
0.0
 40
0.3000000000005169
100
AcDbArc
 50
-44.99999999989253
 51
90.0
  0
LINE
  5
54D
100
AcDbEntity
  8
________1________1
370
              18
390
0
  6
Continuous
 62
               7
100
AcDbLine
 10
254.72901164590064
 20
33.492556783920406
 30
0.0
 11
253.32901164590101
 21
34.892556783920384
 31
0.0
  0
LINE
  5
54E
100
AcDbEntity
  8
________1________1
370
              18
390
0
  6
Continuous
 62
               7
100
AcDbLine
 10
253.54114368025682
 20
35.40468881827627
 30
0.0
 11
261.69261554283264
 21
35.40468881827627
 31
0.0
  0
ARC
  5
54F
100
AcDbEntity
  8
________1________1
370
              18
390
0
  6
Continuous
 62
               7
100
AcDbCircle
 10
253.54114368025682
 20
35.104688818276315
 30
0.0
 40
0.2999999999999545
100
AcDbArc
 50
90.0
 51
-134.99999999998465
  0
ARC
  5
550
100
AcDbEntity
  8
________1________1
370
              18
390
0
  6
Continuous
 62
               7
100
AcDbCircle
 10
254.94114368025646
 20
33.704688818276338
 30
0.0
 40
0.2999999999999542
100
AcDbArc
 50
-134.99999999996928
 51
-90.0
  0
LINE
  5
551
100
AcDbEntity
  8
________1________1
370
              18
390
0
  6
Continuous
 62
               7
100
AcDbLine
 10
260.292615542833
 20
33.40468881827627
 30
0.0
 11
254.94114368025737
 21
33.40468881827627
 31
0.0
  0
LINE
  5
552
100
AcDbEntity
  8
________1________1
370
              18
390
0
  6
Continuous
 62
               7
100
AcDbLine
 10
261.69261554283264
 20
28.404688818276341
 30
0.0
 11
253.54114368025682
 21
28.404688818276341
 31
0.0
  0
LINE
  5
553
100
AcDbEntity
  8
________1________1
370
              18
390
0
  6
Continuous
 62
               7
100
AcDbLine
 10
253.32901164590101
 20
28.916820852632341
 30
0.0
 11
254.72901164590064
 21
30.316820852632318
 31
0.0
  0
ARC
  5
554
100
AcDbEntity
  8
________1________1
370
              18
390
0
  6
Continuous
 62
               7
100
AcDbCircle
 10
253.54114368025682
 20
28.704688818276296
 30
0.0
 40
0.299999999999914
100
AcDbArc
 50
134.99999999997698
 51
-90.0
  0
ARC
  5
555
100
AcDbEntity
  8
________1________1
370
              18
390
0
  6
Continuous
 62
               7
100
AcDbCircle
 10
261.69261554283264
 20
28.704688818276296
 30
0.0
 40
0.2999999999999545
100
AcDbArc
 50
-90.0
 51
44.99999999989253
  0
LINE
  5
556
100
AcDbEntity
  8
________1________1
370
              18
390
0
  6
Continuous
 62
               7
100
AcDbLine
 10
260.50474757718882
 20
30.316820852632318
 30
0.0
 11
261.90474757718937
 21
28.916820852632341
 31
0.0
  0
ARC
  5
557
100
AcDbEntity
  8
________1________1
370
              18
390
0
  6
Continuous
 62
               7
100
AcDbCircle
 10
260.292615542833
 20
30.10468881827633
 30
0.0
 40
0.2999999999998738
100
AcDbArc
 50
45.000000000015355
 51
90.0
  0
ARC
  5
558
100
AcDbEntity
  8
________1________1
370
              18
390
0
  6
Continuous
 62
               7
100
AcDbCircle
 10
254.94114368025646
 20
30.10468881827633
 30
0.0
 40
0.3000000000000114
100
AcDbArc
 50
90.0
 51
134.99999999998465
  0
LINE
  5
559
100
AcDbEntity
  8
________1________1
370
              18
390
0
  6
Continuous
 62
               7
100
AcDbLine
 10
254.94114368025737
 20
30.404688818276341
 30
0.0
 11
260.292615542833
 21
30.404688818276341
 31
0.0
  0
ENDBLK
  5
55A
100
AcDbEntity
  8
0
390
0
100
AcDbBlockEnd
  0
BLOCK
  5
55D
100
AcDbEntity
  8
0
390
0
100
AcDbBlockBegin
  2
C53
 70
              64
 10
0.0
 20
0.0
 30
0.0
  3
C53
  1

  0
ARC
  5
55E
100
AcDbEntity
  8
________1________1
370
              18
390
0
  6
Continuous
 62
               7
100
AcDbCircle
 10
240.292615542833
 20
33.704688818276338
 30
0.0
 40
0.3000000000000682
100
AcDbArc
 50
-90.0
 51
-45.000000000030703
  0
LINE
  5
55F
100
AcDbEntity
  8
________1________1
370
              18
390
0
  6
Continuous
 62
               7
100
AcDbLine
 10
241.90474757718937
 20
34.892556783920384
 30
0.0
 11
240.50474757718882
 21
33.492556783920406
 31
0.0
  0
ARC
  5
560
100
AcDbEntity
  8
________1________1
370
              18
390
0
  6
Continuous
 62
               7
100
AcDbCircle
 10
241.69261554283264
 20
35.104688818276315
 30
0.0
 40
0.3000000000005169
100
AcDbArc
 50
-44.99999999989253
 51
90.0
  0
LINE
  5
561
100
AcDbEntity
  8
________1________1
370
              18
390
0
  6
Continuous
 62
               7
100
AcDbLine
 10
234.72901164590064
 20
33.492556783920406
 30
0.0
 11
233.32901164590101
 21
34.892556783920384
 31
0.0
  0
LINE
  5
562
100
AcDbEntity
  8
________1________1
370
              18
390
0
  6
Continuous
 62
               7
100
AcDbLine
 10
233.54114368025682
 20
35.40468881827627
 30
0.0
 11
241.69261554283264
 21
35.40468881827627
 31
0.0
  0
ARC
  5
563
100
AcDbEntity
  8
________1________1
370
              18
390
0
  6
Continuous
 62
               7
100
AcDbCircle
 10
233.54114368025682
 20
35.104688818276315
 30
0.0
 40
0.2999999999999545
100
AcDbArc
 50
90.0
 51
-134.99999999998465
  0
ARC
  5
564
100
AcDbEntity
  8
________1________1
370
              18
390
0
  6
Continuous
 62
               7
100
AcDbCircle
 10
234.94114368025646
 20
33.704688818276338
 30
0.0
 40
0.2999999999999542
100
AcDbArc
 50
-134.99999999996928
 51
-90.0
  0
LINE
  5
565
100
AcDbEntity
  8
________1________1
370
              18
390
0
  6
Continuous
 62
               7
100
AcDbLine
 10
240.292615542833
 20
33.40468881827627
 30
0.0
 11
234.94114368025737
 21
33.40468881827627
 31
0.0
  0
LINE
  5
566
100
AcDbEntity
  8
________1________1
370
              18
390
0
  6
Continuous
 62
               7
100
AcDbLine
 10
241.69261554283264
 20
28.404688818276341
 30
0.0
 11
233.54114368025682
 21
28.404688818276341
 31
0.0
  0
LINE
  5
567
100
AcDbEntity
  8
________1________1
370
              18
390
0
  6
Continuous
 62
               7
100
AcDbLine
 10
233.32901164590101
 20
28.916820852632341
 30
0.0
 11
234.72901164590064
 21
30.316820852632318
 31
0.0
  0
ARC
  5
568
100
AcDbEntity
  8
________1________1
370
              18
390
0
  6
Continuous
 62
               7
100
AcDbCircle
 10
233.54114368025682
 20
28.704688818276296
 30
0.0
 40
0.299999999999914
100
AcDbArc
 50
134.99999999997698
 51
-90.0
  0
ARC
  5
569
100
AcDbEntity
  8
________1________1
370
              18
390
0
  6
Continuous
 62
               7
100
AcDbCircle
 10
241.69261554283264
 20
28.704688818276296
 30
0.0
 40
0.2999999999999545
100
AcDbArc
 50
-90.0
 51
44.99999999989253
  0
LINE
  5
56A
100
AcDbEntity
  8
________1________1
370
              18
390
0
  6
Continuous
 62
               7
100
AcDbLine
 10
240.50474757718882
 20
30.316820852632318
 30
0.0
 11
241.90474757718937
 21
28.916820852632341
 31
0.0
  0
ARC
  5
56B
100
AcDbEntity
  8
________1________1
370
              18
390
0
  6
Continuous
 62
               7
100
AcDbCircle
 10
240.292615542833
 20
30.10468881827633
 30
0.0
 40
0.2999999999998738
100
AcDbArc
 50
45.000000000015355
 51
90.0
  0
ARC
  5
56C
100
AcDbEntity
  8
________1________1
370
              18
390
0
  6
Continuous
 62
               7
100
AcDbCircle
 10
234.94114368025646
 20
30.10468881827633
 30
0.0
 40
0.3000000000000114
100
AcDbArc
 50
90.0
 51
134.99999999998465
  0
LINE
  5
56D
100
AcDbEntity
  8
________1________1
370
              18
390
0
  6
Continuous
 62
               7
100
AcDbLine
 10
234.94114368025737
 20
30.404688818276341
 30
0.0
 11
240.292615542833
 21
30.404688818276341
 31
0.0
  0
ENDBLK
  5
56E
100
AcDbEntity
  8
0
390
0
100
AcDbBlockEnd
  0
BLOCK
  5
571
100
AcDbEntity
  8
0
390
0
100
AcDbBlockBegin
  2
C54
 70
              64
 10
0.0
 20
0.0
 30
0.0
  3
C54
  1

  0
ARC
  5
572
100
AcDbEntity
  8
________1________1
370
              18
390
0
  6
Continuous
 62
               7
100
AcDbCircle
 10
220.292615542833
 20
33.704688818276338
 30
0.0
 40
0.3000000000000682
100
AcDbArc
 50
-90.0
 51
-45.000000000030703
  0
LINE
  5
573
100
AcDbEntity
  8
________1________1
370
              18
390
0
  6
Continuous
 62
               7
100
AcDbLine
 10
221.90474757718937
 20
34.892556783920384
 30
0.0
 11
220.50474757718882
 21
33.492556783920406
 31
0.0
  0
ARC
  5
574
100
AcDbEntity
  8
________1________1
370
              18
390
0
  6
Continuous
 62
               7
100
AcDbCircle
 10
221.69261554283264
 20
35.104688818276315
 30
0.0
 40
0.3000000000005169
100
AcDbArc
 50
-44.99999999989253
 51
90.0
  0
LINE
  5
575
100
AcDbEntity
  8
________1________1
370
              18
390
0
  6
Continuous
 62
               7
100
AcDbLine
 10
214.72901164590075
 20
33.492556783920406
 30
0.0
 11
213.32901164590112
 21
34.892556783920384
 31
0.0
  0
LINE
  5
576
100
AcDbEntity
  8
________1________1
370
              18
390
0
  6
Continuous
 62
               7
100
AcDbLine
 10
213.54114368025694
 20
35.40468881827627
 30
0.0
 11
221.69261554283264
 21
35.40468881827627
 31
0.0
  0
ARC
  5
577
100
AcDbEntity
  8
________1________1
370
              18
390
0
  6
Continuous
 62
               7
100
AcDbCircle
 10
213.54114368025694
 20
35.104688818276315
 30
0.0
 40
0.2999999999999545
100
AcDbArc
 50
90.0
 51
-134.99999999998465
  0
ARC
  5
578
100
AcDbEntity
  8
________1________1
370
              18
390
0
  6
Continuous
 62
               7
100
AcDbCircle
 10
214.94114368025657
 20
33.704688818276338
 30
0.0
 40
0.2999999999999542
100
AcDbArc
 50
-134.99999999996928
 51
-90.0
  0
LINE
  5
579
100
AcDbEntity
  8
________1________1
370
              18
390
0
  6
Continuous
 62
               7
100
AcDbLine
 10
220.292615542833
 20
33.40468881827627
 30
0.0
 11
214.94114368025748
 21
33.40468881827627
 31
0.0
  0
LINE
  5
57A
100
AcDbEntity
  8
________1________1
370
              18
390
0
  6
Continuous
 62
               7
100
AcDbLine
 10
221.69261554283264
 20
28.404688818276341
 30
0.0
 11
213.54114368025694
 21
28.404688818276341
 31
0.0
  0
LINE
  5
57B
100
AcDbEntity
  8
________1________1
370
              18
390
0
  6
Continuous
 62
               7
100
AcDbLine
 10
213.32901164590112
 20
28.916820852632341
 30
0.0
 11
214.72901164590075
 21
30.316820852632318
 31
0.0
  0
ARC
  5
57C
100
AcDbEntity
  8
________1________1
370
              18
390
0
  6
Continuous
 62
               7
100
AcDbCircle
 10
213.54114368025694
 20
28.704688818276296
 30
0.0
 40
0.299999999999914
100
AcDbArc
 50
134.99999999997698
 51
-90.0
  0
ARC
  5
57D
100
AcDbEntity
  8
________1________1
370
              18
390
0
  6
Continuous
 62
               7
100
AcDbCircle
 10
221.69261554283264
 20
28.704688818276296
 30
0.0
 40
0.2999999999999545
100
AcDbArc
 50
-90.0
 51
44.99999999989253
  0
LINE
  5
57E
100
AcDbEntity
  8
________1________1
370
              18
390
0
  6
Continuous
 62
               7
100
AcDbLine
 10
220.50474757718882
 20
30.316820852632318
 30
0.0
 11
221.90474757718937
 21
28.916820852632341
 31
0.0
  0
ARC
  5
57F
100
AcDbEntity
  8
________1________1
370
              18
390
0
  6
Continuous
 62
               7
100
AcDbCircle
 10
220.292615542833
 20
30.10468881827633
 30
0.0
 40
0.2999999999998738
100
AcDbArc
 50
45.000000000015355
 51
90.0
  0
ARC
  5
580
100
AcDbEntity
  8
________1________1
370
              18
390
0
  6
Continuous
 62
               7
100
AcDbCircle
 10
214.94114368025657
 20
30.10468881827633
 30
0.0
 40
0.3000000000000114
100
AcDbArc
 50
90.0
 51
134.99999999998465
  0
LINE
  5
581
100
AcDbEntity
  8
________1________1
370
              18
390
0
  6
Continuous
 62
               7
100
AcDbLine
 10
214.94114368025748
 20
30.404688818276341
 30
0.0
 11
220.292615542833
 21
30.404688818276341
 31
0.0
  0
ENDBLK
  5
582
100
AcDbEntity
  8
0
390
0
100
AcDbBlockEnd
  0
BLOCK
  5
588
100
AcDbEntity
  8
0
390
0
100
AcDbBlockBegin
  2
*D63
 70
              65
 10
0.0
 20
0.0
 30
0.0
  3
*D63
  1

  0
LINE
  5
589
100
AcDbEntity
  8
____1
370
               5
390
0
  6
Continuous
 62
               7
100
AcDbLine
 10
-373.96301054203349
 20
20.254688818276392
 30
0.0
 11
-373.96301054203349
 21
-15.84635753242334
 31
0.0
  0
LINE
  5
58A
100
AcDbEntity
  8
____1
370
               5
390
0
  6
Continuous
 62
               7
100
AcDbLine
 10
-358.96301054203326
 20
23.074789830954032
 30
0.0
 11
-358.96301054203326
 21
-15.84635753242334
 31
0.0
  0
SOLID
  5
58B
100
AcDbEntity
  8
____1
370
               5
390
0
  6
Continuous
 62
               7
100
AcDbTrace
 10
-363.79263948643023
 20
-14.640452810209595
 30
0.0
 11
-363.79263948643023
 21
-14.640452810209595
 31
0.0
 12
-362.58523225033099
 22
-13.34635753242334
 32
0.0
 13
-358.96301054203326
 23
-13.34635753242334
 33
0.0
  0
SOLID
  5
58C
100
AcDbEntity
  8
____1
370
               5
390
0
  6
Continuous
 62
               7
100
AcDbTrace
 10
-362.58523225033099
 20
-13.34635753242334
 30
0.0
 11
-358.96301054203326
 21
-13.34635753242334
 31
0.0
 12
-363.79263948643023
 22
-12.052262254637085
 32
0.0
 13
-363.79263948643023
 23
-12.052262254637085
 33
0.0
  0
LINE
  5
58D
100
AcDbEntity
  8
____1
370
               5
390
0
  6
Continuous
 62
               7
100
AcDbLine
 10
-358.96301054203326
 20
-13.34635753242334
 30
0.0
 11
-396.7244896994697
 21
-13.34635753242334
 31
0.0
  0
SOLID
  5
58E
100
AcDbEntity
  8
____1
370
               5
390
0
  6
Continuous
 62
               7
100
AcDbTrace
 10
-369.13338159763651
 20
-14.640452810209595
 30
0.0
 11
-369.13338159763651
 21
-14.640452810209595
 31
0.0
 12
-373.96301054203349
 22
-13.34635753242334
 32
0.0
 13
-370.34078883373576
 23
-13.34635753242334
 33
0.0
  0
SOLID
  5
58F
100
AcDbEntity
  8
____1
370
               5
390
0
  6
Continuous
 62
               7
100
AcDbTrace
 10
-373.96301054203349
 20
-13.34635753242334
 30
0.0
 11
-370.34078883373576
 21
-13.34635753242334
 31
0.0
 12
-369.13338159763651
 22
-12.052262254637085
 32
0.0
 13
-369.13338159763651
 23
-12.052262254637085
 33
0.0
  0
LINE
  5
590
100
AcDbEntity
  8
____1
370
               5
390
0
  6
Continuous
 62
               7
100
AcDbLine
 10
-373.96301054203349
 20
-13.34635753242334
 30
0.0
 11
-358.96301054203326
 21
-13.34635753242334
 31
0.0
  0
MTEXT
  5
591
100
AcDbEntity
  8
寸法線_1
370
               5
390
0
  6
Continuous
 62
               7
100
AcDbMText
 10
-391.43282319174875
 20
-0.2630245169814458
 30
0.0
 40
10.583333015441895
 41
10.624674160033464
 71
               1
 72
               1
  1
15
  7
Style1
 73
               1
 44
1.0
  0
ENDBLK
  5
592
100
AcDbEntity
  8
0
390
0
100
AcDbBlockEnd
  0
BLOCK
  5
595
100
AcDbEntity
  8
0
390
0
100
AcDbBlockBegin
  2
*D64
 70
              65
 10
0.0
 20
0.0
 30
0.0
  3
*D64
  1

  0
LINE
  5
596
100
AcDbEntity
  8
____1
370
               5
390
0
  6
Continuous
 62
               7
100
AcDbLine
 10
-358.96301054203326
 20
23.074789830954032
 30
0.0
 11
-358.96301054203326
 21
-15.84635753242334
 31
0.0
  0
LINE
  5
597
100
AcDbEntity
  8
____1
370
               5
390
0
  6
Continuous
 62
               7
100
AcDbLine
 10
-233.96301054203337
 20
2.7315595665756831
 30
0.0
 11
-233.96301054203337
 21
-15.84635753242334
 31
0.0
  0
SOLID
  5
598
100
AcDbEntity
  8
____1
370
               5
390
0
  6
Continuous
 62
               7
100
AcDbTrace
 10
-238.79263948643035
 20
-14.640452810209595
 30
0.0
 11
-238.79263948643035
 21
-14.640452810209595
 31
0.0
 12
-237.5852322503311
 22
-13.34635753242334
 32
0.0
 13
-233.96301054203337
 23
-13.34635753242334
 33
0.0
  0
SOLID
  5
599
100
AcDbEntity
  8
____1
370
               5
390
0
  6
Continuous
 62
               7
100
AcDbTrace
 10
-237.5852322503311
 20
-13.34635753242334
 30
0.0
 11
-233.96301054203337
 21
-13.34635753242334
 31
0.0
 12
-238.79263948643035
 22
-12.052262254637085
 32
0.0
 13
-238.79263948643035
 23
-12.052262254637085
 33
0.0
  0
LINE
  5
59A
100
AcDbEntity
  8
____1
370
               5
390
0
  6
Continuous
 62
               7
100
AcDbLine
 10
-233.96301054203337
 20
-13.34635753242334
 30
0.0
 11
-296.46301054203332
 21
-13.34635753242334
 31
0.0
  0
SOLID
  5
59B
100
AcDbEntity
  8
____1
370
               5
390
0
  6
Continuous
 62
               7
100
AcDbTrace
 10
-354.13338159763629
 20
-14.640452810209595
 30
0.0
 11
-354.13338159763629
 21
-14.640452810209595
 31
0.0
 12
-358.96301054203326
 22
-13.34635753242334
 32
0.0
 13
-355.34078883373553
 23
-13.34635753242334
 33
0.0
  0
SOLID
  5
59C
100
AcDbEntity
  8
____1
370
               5
390
0
  6
Continuous
 62
               7
100
AcDbTrace
 10
-358.96301054203326
 20
-13.34635753242334
 30
0.0
 11
-355.34078883373553
 21
-13.34635753242334
 31
0.0
 12
-354.13338159763629
 22
-12.052262254637085
 32
0.0
 13
-354.13338159763629
 23
-12.052262254637085
 33
0.0
  0
LINE
  5
59D
100
AcDbEntity
  8
____1
370
               5
390
0
  6
Continuous
 62
               7
100
AcDbLine
 10
-358.96301054203326
 20
-13.34635753242334
 30
0.0
 11
-296.46301054203332
 21
-13.34635753242334
 31
0.0
  0
MTEXT
  5
59E
100
AcDbEntity
  8
寸法線_1
370
               5
390
0
  6
Continuous
 62
               7
100
AcDbMText
 10
-304.40051030361474
 20
-0.2630245169814458
 30
0.0
 40
10.583333015441895
 41
15.937010761350393
 71
               1
 72
               1
  1
125
  7
Style1
 11
0.9999999999999999
 21
0.0
 31
0.0
 73
               1
 44
1.0
  0
ENDBLK
  5
59F
100
AcDbEntity
  8
0
390
0
100
AcDbBlockEnd
  0
BLOCK
  5
5A2
100
AcDbEntity
  8
0
390
0
100
AcDbBlockBegin
  2
*D65
 70
              65
 10
0.0
 20
0.0
 30
0.0
  3
*D65
  1

  0
LINE
  5
5A3
100
AcDbEntity
  8
____1
370
               5
390
0
  6
Continuous
 62
               7
100
AcDbLine
 10
487.61687961154479
 20
-48.899738057454364
 30
0.0
 11
457.61687961154513
 21
-48.899738057454364
 31
0.0
  0
LINE
  5
5A4
100
AcDbEntity
  8
____1
370
               5
390
0
  6
Continuous
 62
               7
100
AcDbLine
 10
457.61687961154513
 20
23.404688818276341
 30
0.0
 11
457.61687961154513
 21
-51.399738057454364
 31
0.0
  0
LINE
  5
5A5
100
AcDbEntity
  8
____1
370
               5
390
0
  6
Continuous
 62
               7
100
AcDbLine
 10
487.61687961154479
 20
20.254688818276392
 30
0.0
 11
487.61687961154479
 21
-51.399738057454364
 31
0.0
  0
SOLID
  5
5A6
100
AcDbEntity
  8
____1
370
               5
390
0
  6
Continuous
 62
               7
100
AcDbTrace
 10
492.44650855594176
 20
-50.193833335240619
 30
0.0
 11
492.44650855594176
 21
-50.193833335240619
 31
0.0
 12
487.61687961154479
 22
-48.899738057454364
 32
0.0
 13
491.23910131984252
 23
-48.899738057454364
 33
0.0
  0
SOLID
  5
5A7
100
AcDbEntity
  8
____1
370
               5
390
0
  6
Continuous
 62
               7
100
AcDbTrace
 10
487.61687961154479
 20
-48.899738057454364
 30
0.0
 11
491.23910131984252
 21
-48.899738057454364
 31
0.0
 12
492.44650855594176
 22
-47.605642779668109
 32
0.0
 13
492.44650855594176
 23
-47.605642779668109
 33
0.0
  0
LINE
  5
5A8
100
AcDbEntity
  8
____1
370
               5
390
0
  6
Continuous
 62
               7
100
AcDbLine
 10
487.61687961154479
 20
-48.899738057454364
 30
0.0
 11
500.11687961154479
 21
-48.899738057454364
 31
0.0
  0
SOLID
  5
5A9
100
AcDbEntity
  8
____1
370
               5
390
0
  6
Continuous
 62
               7
100
AcDbTrace
 10
452.78725066714816
 20
-50.193833335240619
 30
0.0
 11
452.78725066714816
 21
-50.193833335240619
 31
0.0
 12
453.9946579032474
 22
-48.899738057454364
 32
0.0
 13
457.61687961154513
 23
-48.899738057454364
 33
0.0
  0
SOLID
  5
5AA
100
AcDbEntity
  8
____1
370
               5
390
0
  6
Continuous
 62
               7
100
AcDbTrace
 10
453.9946579032474
 20
-48.899738057454364
 30
0.0
 11
457.61687961154513
 21
-48.899738057454364
 31
0.0
 12
452.78725066714816
 22
-47.605642779668109
 32
0.0
 13
452.78725066714816
 23
-47.605642779668109
 33
0.0
  0
LINE
  5
5AB
100
AcDbEntity
  8
____1
370
               5
390
0
  6
Continuous
 62
               7
100
AcDbLine
 10
457.61687961154513
 20
-48.899738057454364
 30
0.0
 11
445.11687961154513
 21
-48.899738057454364
 31
0.0
  0
MTEXT
  5
5AC
100
AcDbEntity
  8
寸法線_1
370
               5
390
0
  6
CENTER2
 62
               7
100
AcDbMText
 10
467.32521310382396
 20
-35.81640504201247
 30
0.0
 40
10.583333015441895
 41
10.624674160033464
 71
               1
 72
               1
  1
30
  7
Style1
 73
               1
 44
1.0
  0
ENDBLK
  5
5AD
100
AcDbEntity
  8
0
390
0
100
AcDbBlockEnd
  0
BLOCK
  5
5B0
100
AcDbEntity
  8
0
390
0
100
AcDbBlockBegin
  2
*D66
 70
              65
 10
0.0
 20
0.0
 30
0.0
  3
*D66
  1

  0
LINE
  5
5B1
100
AcDbEntity
  8
____1
370
               5
390
0
  6
Continuous
 62
               7
100
AcDbLine
 10
487.61687961154479
 20
-13.3463563023912
 30
0.0
 11
472.6168796115449
 21
-13.3463563023912
 31
0.0
  0
LINE
  5
5B2
100
AcDbEntity
  8
____1
370
               5
390
0
  6
Continuous
 62
               7
100
AcDbLine
 10
472.6168796115449
 20
23.654688818276384
 30
0.0
 11
472.6168796115449
 21
-15.8463563023912
 31
0.0
  0
LINE
  5
5B3
100
AcDbEntity
  8
____1
370
               5
390
0
  6
Continuous
 62
               7
100
AcDbLine
 10
487.61687961154479
 20
20.254688818276392
 30
0.0
 11
487.61687961154479
 21
-15.8463563023912
 31
0.0
  0
SOLID
  5
5B4
100
AcDbEntity
  8
____1
370
               5
390
0
  6
Continuous
 62
               7
100
AcDbTrace
 10
492.44650855594176
 20
-14.640451580177455
 30
0.0
 11
492.44650855594176
 21
-14.640451580177455
 31
0.0
 12
487.61687961154479
 22
-13.3463563023912
 32
0.0
 13
491.23910131984252
 23
-13.3463563023912
 33
0.0
  0
SOLID
  5
5B5
100
AcDbEntity
  8
____1
370
               5
390
0
  6
Continuous
 62
               7
100
AcDbTrace
 10
487.61687961154479
 20
-13.3463563023912
 30
0.0
 11
491.23910131984252
 21
-13.3463563023912
 31
0.0
 12
492.44650855594176
 22
-12.052261024604945
 32
0.0
 13
492.44650855594176
 23
-12.052261024604945
 33
0.0
  0
LINE
  5
5B6
100
AcDbEntity
  8
____1
370
               5
390
0
  6
Continuous
 62
               7
100
AcDbLine
 10
487.61687961154479
 20
-13.3463563023912
 30
0.0
 11
500.11687961154479
 21
-13.3463563023912
 31
0.0
  0
SOLID
  5
5B7
100
AcDbEntity
  8
____1
370
               5
390
0
  6
Continuous
 62
               7
100
AcDbTrace
 10
467.78725066714793
 20
-14.640451580177455
 30
0.0
 11
467.78725066714793
 21
-14.640451580177455
 31
0.0
 12
468.99465790324717
 22
-13.3463563023912
 32
0.0
 13
472.6168796115449
 23
-13.3463563023912
 33
0.0
  0
SOLID
  5
5B8
100
AcDbEntity
  8
____1
370
               5
390
0
  6
Continuous
 62
               7
100
AcDbTrace
 10
468.99465790324717
 20
-13.3463563023912
 30
0.0
 11
472.6168796115449
 21
-13.3463563023912
 31
0.0
 12
467.78725066714793
 22
-12.052261024604945
 32
0.0
 13
467.78725066714793
 23
-12.052261024604945
 33
0.0
  0
LINE
  5
5B9
100
AcDbEntity
  8
____1
370
               5
390
0
  6
Continuous
 62
               7
100
AcDbLine
 10
472.6168796115449
 20
-13.3463563023912
 30
0.0
 11
460.1168796115449
 21
-13.3463563023912
 31
0.0
  0
MTEXT
  5
5BA
100
AcDbEntity
  8
寸法線_1
370
               5
390
0
  6
Continuous
 62
               7
100
AcDbMText
 10
474.82521310382396
 20
-0.2630232869493057
 30
0.0
 40
10.583333015441895
 41
10.624674160033464
 71
               1
 72
               1
  1
15
  7
Style1
 73
               1
 44
1.0
  0
ENDBLK
  5
5BB
100
AcDbEntity
  8
0
390
0
100
AcDbBlockEnd
  0
BLOCK
  5
5D2
100
AcDbEntity
  8
0
390
0
100
AcDbBlockBegin
  2
*D67
 70
              65
 10
0.0
 20
0.0
 30
0.0
  3
*D67
  1

  0
LINE
  5
5D3
100
AcDbEntity
  8
____1
370
               5
390
0
  6
Continuous
 62
               7
100
AcDbLine
 10
347.61687961154524
 20
42.234587805598721
 30
0.0
 11
347.61687961154524
 21
102.94515523325327
 31
0.0
  0
LINE
  5
5D4
100
AcDbEntity
  8
____1
370
               5
390
0
  6
Continuous
 62
               7
100
AcDbLine
 10
-233.96301054203337
 20
42.234587805598707
 30
0.0
 11
-233.96301054203337
 21
102.94515523325327
 31
0.0
  0
SOLID
  5
5D5
100
AcDbEntity
  8
____1
370
               5
390
0
  6
Continuous
 62
               7
100
AcDbTrace
 10
-229.1333815976364
 20
99.151059955467019
 30
0.0
 11
-229.1333815976364
 21
99.151059955467019
 31
0.0
 12
-233.96301054203337
 22
100.44515523325327
 32
0.0
 13
-230.34078883373564
 23
100.44515523325327
 33
0.0
  0
SOLID
  5
5D6
100
AcDbEntity
  8
____1
370
               5
390
0
  6
Continuous
 62
               7
100
AcDbTrace
 10
-233.96301054203337
 20
100.44515523325327
 30
0.0
 11
-230.34078883373564
 21
100.44515523325327
 31
0.0
 12
-229.1333815976364
 22
101.73925051103953
 32
0.0
 13
-229.1333815976364
 23
101.73925051103953
 33
0.0
  0
LINE
  5
5D7
100
AcDbEntity
  8
____1
370
               5
390
0
  6
Continuous
 62
               7
100
AcDbLine
 10
-233.96301054203337
 20
100.44515523325327
 30
0.0
 11
56.826934534755935
 21
100.44515523325327
 31
0.0
  0
SOLID
  5
5D8
100
AcDbEntity
  8
____1
370
               5
390
0
  6
Continuous
 62
               7
100
AcDbTrace
 10
342.78725066714827
 20
99.151059955467019
 30
0.0
 11
342.78725066714827
 21
99.151059955467019
 31
0.0
 12
343.99465790324751
 22
100.44515523325327
 32
0.0
 13
347.61687961154524
 23
100.44515523325327
 33
0.0
  0
SOLID
  5
5D9
100
AcDbEntity
  8
____1
370
               5
390
0
  6
Continuous
 62
               7
100
AcDbTrace
 10
343.99465790324751
 20
100.44515523325327
 30
0.0
 11
347.61687961154524
 21
100.44515523325327
 31
0.0
 12
342.78725066714827
 22
101.73925051103953
 32
0.0
 13
342.78725066714827
 23
101.73925051103953
 33
0.0
  0
LINE
  5
5DA
100
AcDbEntity
  8
____1
370
               5
390
0
  6
Continuous
 62
               7
100
AcDbLine
 10
347.61687961154524
 20
100.44515523325327
 30
0.0
 11
56.826934534755935
 21
100.44515523325327
 31
0.0
  0
MTEXT
  5
5DB
100
AcDbEntity
  8
寸法線_1
370
               5
390
0
  6
CENTER2
 62
               7
100
AcDbMText
 10
35.660268503872146
 20
113.52848824869517
 30
0.0
 40
10.583333015441895
 41
42.498696640133858
 71
               1
 72
               1
  1
P=140x11
  7
Style1
 73
               1
 44
1.0
  0
ENDBLK
  5
5DC
100
AcDbEntity
  8
0
390
0
100
AcDbBlockEnd
  0
ENDSEC
  0
SECTION
  2
ENTITIES
  0
MTEXT
  5
43
100
AcDbEntity
  8
___G
370
               5
390
0
  6
DOT
 62
               7
100
AcDbMText
 10
162.2933252122682
 20
-233.82550994873066
 30
0.0
 40
10.583332777023317
 41
62.500000000000014
 71
               1
 72
               1
  1
材　　質
  7
Style1
 73
               1
 44
1.0
  0
MTEXT
  5
45
100
AcDbEntity
  8
___G
370
               5
390
0
  6
Continuous
 62
               7
100
AcDbMText
 10
162.2933252122682
 20
-285.398351922975
 30
0.0
 40
8.8194441795349139
 41
62.500000000000014
 71
               1
 72
               1
  1
日　　付
  7
Style1
 73
               1
 44
1.0
  0
LINE
  5
46
100
AcDbEntity
  8
___G
370
               5
390
0
  6
Continuous
 62
               7
100
AcDbLine
 10
224.79332521226823
 20
-282.87425994873058
 30
0.0
 11
224.79332521226823
 21
-230.37425994873058
 31
0.0
  0
LINE
  5
47
100
AcDbEntity
  8
___G
370
               5
390
0
  6
Continuous
 62
               7
100
AcDbLine
 10
162.2933252122682
 20
-230.37425994873058
 30
0.0
 11
162.2933252122682
 21
-282.87425994873058
 31
0.0
  0
LINE
  5
48
100
AcDbEntity
  8
___G
370
               5
390
0
  6
Continuous
 62
               7
100
AcDbLine
 10
168.5433252122682
 20
-296.62425994873058
 30
0.0
 11
218.54332521226823
 21
-296.62425994873058
 31
0.0
  0
INSERT
  5
5C
100
AcDbEntity
  8
____1
370
               5
390
0
  6
Continuous
 62
               7
100
AcDbBlockReference
  2
C0
 10
0.0
 20
0.0
 30
0.0
  0
INSERT
  5
70
100
AcDbEntity
  8
____1
370
               5
390
0
  6
Continuous
 62
               7
100
AcDbBlockReference
  2
C1
 10
0.0
 20
0.0
 30
0.0
  0
INSERT
  5
84
100
AcDbEntity
  8
____1
370
               5
390
0
  6
Continuous
 62
               7
100
AcDbBlockReference
  2
C2
 10
0.0
 20
0.0
 30
0.0
  0
INSERT
  5
98
100
AcDbEntity
  8
____1
370
               5
390
0
  6
CENTER2
 62
               7
100
AcDbBlockReference
  2
C3
 10
0.0
 20
0.0
 30
0.0
  0
INSERT
  5
AC
100
AcDbEntity
  8
____1
370
               5
390
0
  6
CENTER2
 62
               7
100
AcDbBlockReference
  2
C5
 10
0.0
 20
0.0
 30
0.0
  0
INSERT
  5
C0
100
AcDbEntity
  8
____1
370
               5
390
0
  6
Continuous
 62
               7
100
AcDbBlockReference
  2
C7
 10
0.0
 20
0.0
 30
0.0
  0
INSERT
  5
D4
100
AcDbEntity
  8
____1
370
               5
390
0
  6
Continuous
 62
               7
100
AcDbBlockReference
  2
C8
 10
0.0
 20
0.0
 30
0.0
  0
INSERT
  5
E8
100
AcDbEntity
  8
____1
370
               5
390
0
  6
Continuous
 62
               7
100
AcDbBlockReference
  2
C9
 10
0.0
 20
0.0
 30
0.0
  0
INSERT
  5
FC
100
AcDbEntity
  8
____1
370
               5
390
0
  6
Continuous
 62
               7
100
AcDbBlockReference
  2
C10
 10
0.0
 20
0.0
 30
0.0
  0
LINE
  5
FD
100
AcDbEntity
  8
___G
370
              18
390
0
  6
Continuous
 62
               7
100
AcDbLine
 10
299.08261174716131
 20
321.41978380061016
 30
0.0
 11
292.89511174716131
 21
310.70271942877758
 31
0.0
  0
LINE
  5
FE
100
AcDbEntity
  8
___G
370
              18
390
0
  6
Continuous
 62
               7
100
AcDbLine
 10
299.08261174716131
 20
321.41978380061016
 30
0.0
 11
305.27011174716176
 21
310.70271942877758
 31
0.0
  0
LINE
  5
FF
100
AcDbEntity
  8
___G
370
              18
390
0
  6
Continuous
 62
               7
100
AcDbLine
 10
292.89511174716131
 20
310.70271942877758
 30
0.0
 11
305.27011174716176
 21
310.70271942877758
 31
0.0
  0
LINE
  5
100
100
AcDbEntity
  8
___G
370
              18
390
0
  6
Continuous
 62
               7
100
AcDbLine
 10
309.7933252122682
 20
297.12574005126959
 30
0.0
 11
309.7933252122682
 21
334.62574005126953
 31
0.0
  0
LINE
  5
101
100
AcDbEntity
  8
___G
370
              18
390
0
  6
Continuous
 62
               7
100
AcDbLine
 10
289.7933252122682
 20
297.12574005126959
 30
0.0
 11
289.7933252122682
 21
334.62574005126953
 31
0.0
  0
LINE
  5
102
100
AcDbEntity
  8
___G
370
              18
390
0
  6
Continuous
 62
               7
100
AcDbLine
 10
292.89511174716131
 20
298.32771942877798
 30
0.0
 11
305.27011174716176
 21
298.32771942877798
 31
0.0
  0
MTEXT
  5
103
100
AcDbEntity
  8
____
370
               5
390
0
  6
Continuous
 62
               7
100
AcDbMText
 10
295.12575418518674
 20
318.32725940331841
 30
0.0
 40
7.9374999046325705
 41
7.9137151239496903
 71
               1
 72
               1
  1
1
  7
Style1
 73
               1
 44
1.0
  0
LINE
  5
104
100
AcDbEntity
  8
___G
370
              18
390
0
  6
Continuous
 62
               7
100
AcDbLine
 10
474.7933252122682
 20
297.12574005126959
 30
0.0
 11
474.7933252122682
 21
334.62574005126953
 31
0.0
  0
MTEXT
  5
105
100
AcDbEntity
  8
___G
370
               5
390
0
  6
Continuous
 62
               7
100
AcDbMText
 10
349.79332521226826
 20
332.33824005126974
 30
0.0
 40
7.9374998807907122
 41
125.00000000000003
 71
               1
 72
               1
  1
改　訂　内　容
  7
Style1
 73
               1
 44
1.0
  0
MTEXT
  5
106
100
AcDbEntity
  8
___G
370
               5
390
0
  6
DOT
 62
               7
100
AcDbMText
 10
499.79332521226826
 20
332.33824005126974
 30
0.0
 40
7.9374998807907122
 41
25.000000000000075
 71
               1
 72
               1
  1
検認者
  7
Style1
 73
               1
 44
1.0
  0
MTEXT
  5
107
100
AcDbEntity
  8
___G
370
               5
390
0
  6
DOT
 62
               7
100
AcDbMText
 10
379.7933252122682
 20
-346.33300994873059
 30
0.0
 40
10.583332777023317
 41
145.00000000000003
 71
               1
 72
               1
  1
SLZ00170
  7
Style1
 73
               1
 44
1.0
  0
SPLINE
  5
108
100
AcDbEntity
  8
____1
370
               5
390
0
  6
Continuous
 62
               7
100
AcDbSpline
210
0.0
220
0.0
230
1.0
 70
               0
 71
               3
 72
              10
 73
               6
 74
               0
 42
0.0000001
 43
0.0000001
 12
-0.6328893049084914
 22
-0.7742422926529179
 32
0.0
 13
-0.6414415390225133
 23
-0.7671719181620438
 33
0.0
 40
0.0
 40
0.0
 40
0.0
 40
0.0
 40
0.2492519309287112
 40
0.7247589914996963
 40
1.0
 40
1.0
 40
1.0
 40
1.0
 10
136.42471532028242
 20
79.733693460240403
 30
0.0
 10
130.58885801151808
 20
72.594423595368397
 30
0.0
 10
113.61972143601898
 20
51.835306472264961
 30
0.0
 10
145.60729138494443
 20
15.251600879838062
 30
0.0
 10
127.67093689955085
 20
-6.2004982410935305
 30
0.0
 10
121.09506877446091
 20
-14.065316866332001
 30
0.0
  0
SPLINE
  5
109
100
AcDbEntity
  8
____1
370
               5
390
0
  6
Continuous
 62
               7
100
AcDbSpline
210
0.0
220
0.0
230
1.0
 70
               0
 71
               3
 72
              10
 73
               6
 74
               0
 42
0.0000001
 43
0.0000001
 12
-0.6328893049084924
 22
-0.7742422926529172
 32
0.0
 13
-0.6414415390225133
 23
-0.7671719181620438
 33
0.0
 40
0.0
 40
0.0
 40
0.0
 40
0.0
 40
0.2492519309287112
 40
0.7247589914996963
 40
1.0
 40
1.0
 40
1.0
 40
1.0
 10
112.98987348611004
 20
79.733693460240403
 30
0.0
 10
107.1540161773457
 20
72.594423595368397
 30
0.0
 10
90.184879601846603
 20
51.835306472264953
 30
0.0
 10
122.17244955077206
 20
15.251600879838062
 30
0.0
 10
104.23609506537848
 20
-6.2004982410935305
 30
0.0
 10
97.660226940288538
 20
-14.065316866332001
 30
0.0
  0
INSERT
  5
11D
100
AcDbEntity
  8
____1
370
               5
390
0
  6
Continuous
 62
               7
100
AcDbBlockReference
  2
C11
 10
0.0
 20
0.0
 30
0.0
  0
INSERT
  5
131
100
AcDbEntity
  8
____1
370
               5
390
0
  6
Continuous
 62
               7
100
AcDbBlockReference
  2
C12
 10
0.0
 20
0.0
 30
0.0
  0
INSERT
  5
145
100
AcDbEntity
  8
____1
370
               5
390
0
  6
Continuous
 62
               7
100
AcDbBlockReference
  2
C13
 10
0.0
 20
0.0
 30
0.0
  0
LINE
  5
146
100
AcDbEntity
  8
____1
370
               5
390
0
  6
Continuous
 62
               7
100
AcDbLine
 10
-53.034874131944548
 20
63.0314127604166
 30
0.0
 11
-91.126385064120882
 21
33.490896843114044
 31
0.0
  0
SOLID
  5
147
100
AcDbEntity
  8
____1
390
0
 62
               7
100
AcDbTrace
 10
-91.126385064120882
 20
33.490896843114044
 30
0.0
 11
-84.756267172582852
 21
41.594698299708796
 31
0.0
 12
-91.126385064120882
 22
33.490896843114044
 32
0.0
 13
-85.199748648342023
 23
38.087088831615389
 33
0.0
  0
SOLID
  5
148
100
AcDbEntity
  8
____1
390
0
 62
               7
100
AcDbTrace
 10
-85.199748648342023
 20
38.087088831615389
 30
0.0
 11
-81.692139180248631
 21
37.643607355856219
 31
0.0
 12
-91.126385064120882
 22
33.490896843114044
 32
0.0
 13
-91.126385064120882
 23
33.490896843114044
 33
0.0
  0
INSERT
  5
1D8
100
AcDbEntity
  8
____1
370
               5
390
0
  6
Continuous
 62
               7
100
AcDbBlockReference
  2
C14
 10
0.0
 20
0.0
 30
0.0
  0
LINE
  5
1D9
100
AcDbEntity
  8
____1
370
               5
390
0
  6
CENTER2
 62
               7
100
AcDbLine
 10
-233.96301054203337
 20
52.077818069977099
 30
0.0
 11
-233.96301054203337
 21
11.731559566575697
 31
0.0
  0
INSERT
  5
1ED
100
AcDbEntity
  8
____1
370
               5
390
0
  6
CENTER2
 62
               7
100
AcDbBlockReference
  2
C22
 10
0.0
 20
0.0
 30
0.0
  0
INSERT
  5
201
100
AcDbEntity
  8
____1
370
               5
390
0
  6
CENTER2
 62
               7
100
AcDbBlockReference
  2
C24
 10
0.0
 20
0.0
 30
0.0
  0
MTEXT
  5
202
100
AcDbEntity
  8
___G
370
               5
390
0
  6
Continuous
 62
               7
100
AcDbMText
 10
224.79332521226823
 20
-285.398351922975
 30
0.0
 40
8.8194441795349139
 41
62.500000000000014
 71
               1
 72
               1
  1
尺　　度
  7
Style1
 73
               1
 44
1.0
  0
LINE
  5
203
100
AcDbEntity
  8
___G
370
               5
390
0
  6
Continuous
 62
               7
100
AcDbLine
 10
231.0433252122682
 20
-296.62425994873058
 30
0.0
 11
281.0433252122682
 21
-296.62425994873058
 31
0.0
  0
MTEXT
  5
204
100
AcDbEntity
  8
___G
370
               5
390
0
  6
DOT
 62
               7
100
AcDbMText
 10
162.2933252122682
 20
-268.82550994873071
 30
0.0
 40
10.583332777023317
 41
62.500000000000014
 71
               1
 72
               1
  1
一般公差
  7
Style1
 73
               1
 44
1.0
  0
MTEXT
  5
205
100
AcDbEntity
  8
___G
370
               5
390
0
  6
DOT
 62
               7
100
AcDbMText
 10
162.2933252122682
 20
-251.3255099487306
 30
0.0
 40
10.583332777023317
 41
62.500000000000014
 71
               1
 72
               1
  1
表面処理
  7
Style1
 73
               1
 44
1.0
  0
LINE
  5
206
100
AcDbEntity
  8
___G
370
              18
390
0
  6
Continuous
 62
               7
100
AcDbLine
 10
324.29349653854183
 20
-353.4325775315109
 30
0.0
 11
323.70682987187479
 21
-351.4325775315109
 31
0.0
  0
CIRCLE
  5
207
100
AcDbEntity
  8
___G
370
              18
390
0
  6
Continuous
 62
               7
100
AcDbCircle
 10
308.29332521226843
 20
-296.62425994873058
 30
0.0
 40
5.9999999999997726
  0
LINE
  5
208
100
AcDbEntity
  8
___G
370
              18
390
0
  6
Continuous
 62
               7
100
AcDbLine
 10
322.00811899149249
 20
-293.6242599487307
 30
0.0
 11
334.00811899149249
 21
-290.6242599487307
 31
0.0
  0
LINE
  5
209
100
AcDbEntity
  8
___G
370
              18
390
0
  6
Continuous
 62
               7
100
AcDbLine
 10
329.10158846975838
 20
-345.660755305343
 30
0.0
 11
331.14016320520818
 21
-342.68257753151096
 31
0.0
  0
LINE
  5
20A
100
AcDbEntity
  8
___G
370
              18
390
0
  6
Continuous
 62
               7
100
AcDbLine
 10
308.09645658449955
 20
-346.4325775315109
 30
0.0
 11
310.59645658449949
 21
-342.68257753151096
 31
0.0
  0
LINE
  5
20B
100
AcDbEntity
  8
___G
370
              18
390
0
  6
Continuous
 62
               7
100
AcDbLine
 10
277.69494143298471
 20
-347.6825775315109
 30
0.0
 11
277.69494143298471
 21
-346.4325775315109
 31
0.0
  0
LINE
  5
20C
100
AcDbEntity
  8
___G
370
              18
390
0
  6
Continuous
 62
               7
100
AcDbLine
 10
281.44494143298471
 20
-347.6825775315109
 30
0.0
 11
277.69494143298471
 21
-347.6825775315109
 31
0.0
  0
LINE
  5
20D
100
AcDbEntity
  8
___G
370
              18
390
0
  6
Continuous
 62
               7
100
AcDbLine
 10
334.00811899149249
 20
-290.6242599487307
 30
0.0
 11
334.00811899149249
 21
-302.62425994873075
 31
0.0
  0
LINE
  5
20E
100
AcDbEntity
  8
___G
370
              18
390
0
  6
CENTER2
 62
               7
100
AcDbLine
 10
308.29332521226843
 20
-287.62425994873081
 30
0.0
 11
308.29332521226843
 21
-305.62425994873064
 31
0.0
  0
ARC
  5
20F
100
AcDbEntity
  8
___G
370
              18
390
0
  6
Continuous
 62
               7
100
AcDbCircle
 10
291.09645658449949
 20
-346.93257753151107
 30
0.0
 40
9.4999999999998508
210
-0.0
220
0.0
230
1.0
100
AcDbArc
 50
-90.0
 51
-61.914095184792771
  0
DIMENSION
  5
21C
100
AcDbEntity
  8
寸法線_1
370
               5
390
0
  6
Continuous
 62
               7
100
AcDbDimension
  2
*D26
 10
487.61687961154479
 20
100.44514973958329
 30
0.0
 11
417.61687961154502
 21
100.44514973958329
 31
0.0
 71
               5
 72
               1
 41
1.0
 42
0.0
  3
DS1
100
AcDbAlignedDimension
 13
347.61687961154524
 23
37.234587805598721
 33
0.0
 14
487.61687961154479
 24
38.554688818276389
 34
0.0
100
AcDbRotatedDimension
  0
LINE
  5
21E
100
AcDbEntity
  8
____1
370
              18
390
0
  6
Continuous
 62
               7
100
AcDbLine
 10
487.61687961154479
 20
38.404688818276384
 30
0.0
 11
487.61687961154479
 21
25.404688818276398
 31
0.0
  0
INSERT
  5
232
100
AcDbEntity
  8
____1
370
               5
390
0
  6
Continuous
 62
               7
100
AcDbBlockReference
  2
C26
 10
0.0
 20
0.0
 30
0.0
  0
INSERT
  5
246
100
AcDbEntity
  8
____1
370
               5
390
0
  6
Continuous
 62
               7
100
AcDbBlockReference
  2
C27
 10
0.0
 20
0.0
 30
0.0
  0
INSERT
  5
25A
100
AcDbEntity
  8
____1
370
               5
390
0
  6
Continuous
 62
               7
100
AcDbBlockReference
  2
C28
 10
0.0
 20
0.0
 30
0.0
  0
INSERT
  5
26E
100
AcDbEntity
  8
____1
370
               5
390
0
  6
Continuous
 62
               7
100
AcDbBlockReference
  2
C29
 10
0.0
 20
0.0
 30
0.0
  0
INSERT
  5
282
100
AcDbEntity
  8
____1
370
               5
390
0
  6
Continuous
 62
               7
100
AcDbBlockReference
  2
C30
 10
0.0
 20
0.0
 30
0.0
  0
INSERT
  5
296
100
AcDbEntity
  8
____1
370
               5
390
0
  6
CENTER2
 62
               7
100
AcDbBlockReference
  2
C31
 10
0.0
 20
0.0
 30
0.0
  0
INSERT
  5
2AC
100
AcDbEntity
  8
____1
370
               5
390
0
  6
DASHED2
 62
               7
100
AcDbBlockReference
  2
C33
 10
0.0
 20
0.0
 30
0.0
  0
INSERT
  5
2C0
100
AcDbEntity
  8
____1
370
               5
390
0
  6
Continuous
 62
               7
100
AcDbBlockReference
  2
C34
 10
0.0
 20
0.0
 30
0.0
  0
MTEXT
  5
2C1
100
AcDbEntity
  8
___G
370
               5
390
0
  6
DOT
 62
               7
100
AcDbMText
 10
289.7933252122682
 20
332.33824005126974
 30
0.0
 40
7.9374998807907122
 41
20.000000000000004
 71
               1
 72
               1
  1
副番
  7
Style1
 73
               1
 44
1.0
  0
LINE
  5
2C2
100
AcDbEntity
  8
___G
370
              18
390
0
  6
Continuous
 62
               7
100
AcDbLine
 10
299.08261174716131
 20
309.04478380061028
 30
0.0
 11
305.27011174716176
 21
298.32771942877798
 31
0.0
  0
LINE
  5
2C3
100
AcDbEntity
  8
___G
370
              18
390
0
  6
Continuous
 62
               7
100
AcDbLine
 10
349.79332521226826
 20
297.12574005126959
 30
0.0
 11
349.79332521226826
 21
334.62574005126953
 31
0.0
  0
MTEXT
  5
2C4
100
AcDbEntity
  8
___G
370
               5
390
0
  6
Continuous
 62
               7
100
AcDbMText
 10
309.7933252122682
 20
332.33824005126974
 30
0.0
 40
7.9374998807907122
 41
40.000000000000007
 71
               1
 72
               1
  1
改訂日
  7
Style1
 73
               1
 44
1.0
  0
LINE
  5
2C5
100
AcDbEntity
  8
___G
370
              18
390
0
  6
Continuous
 62
               7
100
AcDbLine
 10
299.08261174716131
 20
309.04478380061028
 30
0.0
 11
292.89511174716131
 21
298.32771942877798
 31
0.0
  0
LINE
  5
2C6
100
AcDbEntity
  8
___G
370
              18
390
0
  6
CENTER2
 62
               7
100
AcDbLine
 10
308.29332521226843
 20
-287.62425994873081
 30
0.0
 11
308.29332521226843
 21
-305.62425994873064
 31
0.0
  0
LINE
  5
2C7
100
AcDbEntity
  8
___G
370
              18
390
0
  6
CENTER2
 62
               7
100
AcDbLine
 10
308.29332521226843
 20
-287.62425994873081
 30
0.0
 11
308.29332521226843
 21
-305.62425994873064
 31
0.0
  0
LINE
  5
2C8
100
AcDbEntity
  8
___G
370
              18
390
0
  6
Continuous
 62
               7
100
AcDbLine
 10
322.00811899149249
 20
-293.6242599487307
 30
0.0
 11
322.00811899149249
 21
-299.6242599487307
 31
0.0
  0
LINE
  5
2C9
100
AcDbEntity
  8
___G
370
              18
390
0
  6
Continuous
 62
               7
100
AcDbLine
 10
271.44494143298471
 20
-351.4325775315109
 30
0.0
 11
271.44494143298471
 21
-352.68257753151096
 31
0.0
  0
LINE
  5
2CA
100
AcDbEntity
  8
___G
370
              18
390
0
  6
Continuous
 62
               7
100
AcDbLine
 10
333.64016320520824
 20
-361.43257753151084
 30
0.0
 11
326.64016320520841
 21
-361.43257753151084
 31
0.0
  0
CIRCLE
  5
2CB
100
AcDbEntity
  8
___G
370
              18
390
0
  6
Continuous
 62
               7
100
AcDbCircle
 10
308.29332521226843
 20
-296.62425994873058
 30
0.0
 40
5.9999999999997726
  0
CIRCLE
  5
2CC
100
AcDbEntity
  8
___G
370
              18
390
0
  6
Continuous
 62
               7
100
AcDbCircle
 10
308.29332521226843
 20
-296.62425994873058
 30
0.0
 40
3.0000000000002274
  0
LINE
  5
2CD
100
AcDbEntity
  8
___G
370
              18
390
0
  6
Continuous
 62
               7
100
AcDbLine
 10
316.14016320520818
 20
-353.4325775315109
 30
0.0
 11
316.14016320520818
 21
-357.93257753151101
 31
0.0
  0
ARC
  5
2CE
100
AcDbEntity
  8
___G
370
              18
390
0
  6
Continuous
 62
               7
100
AcDbCircle
 10
267.69494143298471
 20
-352.68257753151096
 30
0.0
 40
3.75
210
-0.0
220
-0.0
230
0.9999999999999999
100
AcDbArc
 50
-90.0
 51
0.0
  0
LINE
  5
2CF
100
AcDbEntity
  8
___G
370
              18
390
0
  6
Continuous
 62
               7
100
AcDbLine
 10
277.69494143298471
 20
-346.4325775315109
 30
0.0
 11
281.44494143298471
 21
-342.68257753151096
 31
0.0
  0
MTEXT
  5
2D0
100
AcDbEntity
  8
___G
370
               5
390
0
  6
DOT
 62
               7
100
AcDbMText
 10
281.0433252122682
 20
-312.89835192297505
 30
0.0
 40
8.8194441795349139
 41
68.750000000000014
 71
               1
 72
               1
  1
＊＊＊
  7
Style1
 73
               1
 44
1.0
  0
LINE
  5
2D1
100
AcDbEntity
  8
___G
370
              18
390
0
  6
Continuous
 62
               7
100
AcDbLine
 10
322.00811899149249
 20
-293.6242599487307
 30
0.0
 11
334.00811899149249
 21
-290.6242599487307
 31
0.0
  0
CIRCLE
  5
2D2
100
AcDbEntity
  8
___G
370
              18
390
0
  6
Continuous
 62
               7
100
AcDbCircle
 10
308.29332521226843
 20
-296.62425994873058
 30
0.0
 40
3.0000000000002274
  0
MTEXT
  5
2D3
100
AcDbEntity
  8
___G
370
               5
390
0
  6
DOT
 62
               7
100
AcDbMText
 10
281.0433252122682
 20
-326.64835192297522
 30
0.0
 40
8.8194441795349139
 41
68.750000000000014
 71
               1
 72
               1
  1
＊＊＊
  7
Style1
 73
               1
 44
1.0
  0
LINE
  5
2D4
100
AcDbEntity
  8
___G
370
              18
390
0
  6
Continuous
 62
               7
100
AcDbLine
 10
334.00811899149249
 20
-290.6242599487307
 30
0.0
 11
334.00811899149249
 21
-302.62425994873075
 31
0.0
  0
LINE
  5
2D5
100
AcDbEntity
  8
___G
370
              18
390
0
  6
Continuous
 62
               7
100
AcDbLine
 10
322.00811899149249
 20
-299.6242599487307
 30
0.0
 11
334.00811899149249
 21
-302.62425994873075
 31
0.0
  0
LINE
  5
2D6
100
AcDbEntity
  8
___G
370
              18
390
0
  6
Continuous
 62
               7
100
AcDbLine
 10
322.00811899149249
 20
-293.6242599487307
 30
0.0
 11
322.00811899149249
 21
-299.6242599487307
 31
0.0
  0
LINE
  5
2D7
100
AcDbEntity
  8
___G
370
              18
390
0
  6
Continuous
 62
               7
100
AcDbLine
 10
333.64016320520824
 20
-361.43257753151084
 30
0.0
 11
332.63298652351091
 21
-357.93257753151101
 31
0.0
  0
LINE
  5
2D8
100
AcDbEntity
  8
___G
370
              18
390
0
  6
Continuous
 62
               7
100
AcDbLine
 10
288.09645658449949
 20
-360.1825775315109
 30
0.0
 11
288.09645658449949
 21
-356.4325775315109
 31
0.0
  0
LINE
  5
2D9
100
AcDbEntity
  8
___G
370
              18
390
0
  6
Continuous
 62
               7
100
AcDbLine
 10
298.09645658449955
 20
-348.48785320021432
 30
0.0
 11
296.68224302212661
 21
-349.90206676258742
 31
0.0
  0
LINE
  5
2DA
100
AcDbEntity
  8
___G
370
              18
390
0
  6
Continuous
 62
               7
100
AcDbLine
 10
330.76251554321544
 20
-351.4325775315109
 30
0.0
 11
338.64016320520824
 21
-351.4325775315109
 31
0.0
  0
LINE
  5
2DB
100
AcDbEntity
  8
___G
370
              18
390
0
  6
Continuous
 62
               7
100
AcDbLine
 10
271.44494143298471
 20
-342.68257753151096
 30
0.0
 11
271.44494143298471
 21
-347.6825775315109
 31
0.0
  0
LINE
  5
2DC
100
AcDbEntity
  8
___G
370
              18
390
0
  6
CENTER2
 62
               7
100
AcDbLine
 10
308.29332521226843
 20
-287.62425994873081
 30
0.0
 11
308.29332521226843
 21
-305.62425994873064
 31
0.0
  0
LINE
  5
2DD
100
AcDbEntity
  8
___G
370
              18
390
0
  6
Continuous
 62
               7
100
AcDbLine
 10
322.00811899149249
 20
-299.6242599487307
 30
0.0
 11
334.00811899149249
 21
-302.62425994873075
 31
0.0
  0
LINE
  5
2DE
100
AcDbEntity
  8
___G
370
              18
390
0
  6
Continuous
 62
               7
100
AcDbLine
 10
316.14016320520818
 20
-357.93257753151101
 30
0.0
 11
325.61349653854182
 21
-357.93257753151101
 31
0.0
  0
MTEXT
  5
2DF
100
AcDbEntity
  8
___G
370
               5
390
0
  6
DOT
 62
               7
100
AcDbMText
 10
343.5433252122682
 20
-233.82550994873077
 30
0.0
 40
10.583332777023317
 41
62.500000000000014
 71
               1
 72
               1
  1
色
  7
Style1
 73
               1
 44
1.0
  0
LINE
  5
2E0
100
AcDbEntity
  8
___G
370
               5
390
0
  6
Continuous
 62
               7
100
AcDbLine
 10
406.0433252122682
 20
-230.37425994873058
 30
0.0
 11
406.0433252122682
 21
-247.87425994873064
 31
0.0
  0
LINE
  5
2E1
100
AcDbEntity
  8
___G
370
               5
390
0
  6
Continuous
 62
               7
100
AcDbLine
 10
343.5433252122682
 20
-230.37425994873058
 30
0.0
 11
343.5433252122682
 21
-247.87425994873064
 31
0.0
  0
LINE
  5
2E2
100
AcDbEntity
  8
___G
370
              18
390
0
  6
Continuous
 62
               7
100
AcDbLine
 10
266.44494143298471
 20
-351.4325775315109
 30
0.0
 11
271.44494143298471
 21
-351.4325775315109
 31
0.0
  0
LINE
  5
2E3
100
AcDbEntity
  8
___G
370
              18
390
0
  6
Continuous
 62
               7
100
AcDbLine
 10
271.44494143298471
 20
-347.6825775315109
 30
0.0
 11
266.44494143298471
 21
-347.6825775315109
 31
0.0
  0
LINE
  5
2E4
100
AcDbEntity
  8
___G
370
              18
390
0
  6
Continuous
 62
               7
100
AcDbLine
 10
316.14016320520818
 20
-346.93257753151107
 30
0.0
 11
316.14016320520818
 21
-351.4325775315109
 31
0.0
  0
LINE
  5
2E5
100
AcDbEntity
  8
___G
370
              18
390
0
  6
Continuous
 62
               7
100
AcDbLine
 10
277.69494143298471
 20
-352.68257753151096
 30
0.0
 11
277.69494143298471
 21
-351.4325775315109
 31
0.0
  0
LINE
  5
2E6
100
AcDbEntity
  8
___G
370
              18
390
0
  6
Continuous
 62
               7
100
AcDbLine
 10
266.44494143298471
 20
-355.18257753151084
 30
0.0
 11
266.44494143298471
 21
-351.4325775315109
 31
0.0
  0
LINE
  5
2E7
100
AcDbEntity
  8
___G
370
              18
390
0
  6
Continuous
 62
               7
100
AcDbLine
 10
310.59645658449949
 20
-356.4325775315109
 30
0.0
 11
310.59645658449949
 21
-360.1825775315109
 31
0.0
  0
LINE
  5
2E8
100
AcDbEntity
  8
___G
370
              18
390
0
  6
Continuous
 62
               7
100
AcDbLine
 10
305.25325496471874
 20
-354.80540555394504
 30
0.0
 11
304.80799981523774
 21
-355.2413509144186
 31
0.0
  0
LINE
  5
2E9
100
AcDbEntity
  8
___G
370
              18
390
0
  6
Continuous
 62
               7
100
AcDbLine
 10
316.14016320520818
 20
-351.4325775315109
 30
0.0
 11
323.70682987187479
 21
-351.4325775315109
 31
0.0
  0
LINE
  5
2EA
100
AcDbEntity
  8
___G
370
              18
390
0
  6
Continuous
 62
               7
100
AcDbLine
 10
288.09645658449949
 20
-347.18257753151084
 30
0.0
 11
300.59645658449949
 21
-347.18257753151084
 31
0.0
  0
LINE
  5
2EB
100
AcDbEntity
  8
___G
370
               5
390
0
  6
Continuous
 62
               7
100
AcDbLine
 10
287.29332521226826
 20
-282.87425994873058
 30
0.0
 11
287.29332521226826
 21
-310.37425994873087
 31
0.0
  0
ARC
  5
2EC
100
AcDbEntity
  8
___G
370
              18
390
0
  6
Continuous
 62
               7
100
AcDbCircle
 10
294.34645658449949
 20
-346.4325775315109
 30
0.0
 40
13.750000000000057
210
-0.0
220
-0.0
230
1.0
100
AcDbArc
 50
-37.512388020300165
 51
0.0
  0
MTEXT
  5
2ED
100
AcDbEntity
  8
___G
370
               5
390
0
  6
Continuous
 62
               7
100
AcDbMText
 10
351.29332521226826
 20
-339.37425994873053
 30
0.0
 40
8.8194441795349139
 41
30.000000000000007
 71
               1
 72
               1
  1
図 番
  7
Style1
 73
               1
 44
1.0
  0
LINE
  5
2EE
100
AcDbEntity
  8
___G
370
              18
390
0
  6
Continuous
 62
               7
100
AcDbLine
 10
266.44494143298471
 20
-346.4325775315109
 30
0.0
 11
270.19494143298471
 21
-342.68257753151096
 31
0.0
  0
LINE
  5
2EF
100
AcDbEntity
  8
___G
370
              18
390
0
  6
Continuous
 62
               7
100
AcDbLine
 10
322.00811899149249
 20
-293.6242599487307
 30
0.0
 11
334.00811899149249
 21
-290.6242599487307
 31
0.0
  0
LINE
  5
2F0
100
AcDbEntity
  8
___G
370
              18
390
0
  6
Continuous
 62
               7
100
AcDbLine
 10
322.00811899149249
 20
-299.6242599487307
 30
0.0
 11
334.00811899149249
 21
-302.62425994873075
 31
0.0
  0
LINE
  5
2F1
100
AcDbEntity
  8
___G
370
              18
390
0
  6
Continuous
 62
               7
100
AcDbLine
 10
322.00811899149249
 20
-293.6242599487307
 30
0.0
 11
322.00811899149249
 21
-299.6242599487307
 31
0.0
  0
LINE
  5
2F2
100
AcDbEntity
  8
___G
370
              18
390
0
  6
Continuous
 62
               7
100
AcDbLine
 10
334.00811899149249
 20
-290.6242599487307
 30
0.0
 11
334.00811899149249
 21
-302.62425994873075
 31
0.0
  0
LINE
  5
2F3
100
AcDbEntity
  8
___G
370
               5
390
0
  6
Continuous
 62
               7
100
AcDbLine
 10
349.79332521226826
 20
-282.87425994873058
 30
0.0
 11
349.79332521226826
 21
-365.37425994873047
 31
0.0
  0
LINE
  5
2F4
100
AcDbEntity
  8
___G
370
              18
390
0
  6
Continuous
 62
               7
100
AcDbLine
 10
316.14016320520818
 20
-346.93257753151107
 30
0.0
 11
322.38682987187485
 21
-346.93257753151107
 31
0.0
  0
LINE
  5
2F5
100
AcDbEntity
  8
___G
370
              18
390
0
  6
Continuous
 62
               7
100
AcDbLine
 10
338.64016320520824
 20
-346.93257753151107
 30
0.0
 11
338.64016320520824
 21
-351.4325775315109
 31
0.0
  0
CIRCLE
  5
2F6
100
AcDbEntity
  8
___G
370
              18
390
0
  6
Continuous
 62
               7
100
AcDbCircle
 10
308.29332521226843
 20
-296.62425994873058
 30
0.0
 40
3.0000000000002274
  0
LINE
  5
2F7
100
AcDbEntity
  8
___G
370
              18
390
0
  6
Continuous
 62
               7
100
AcDbLine
 10
288.09645658449949
 20
-348.48785320021432
 30
0.0
 11
298.09645658449955
 21
-348.48785320021432
 31
0.0
  0
MTEXT
  5
2F8
100
AcDbEntity
  8
___G
370
               5
390
0
  6
Continuous
 62
               7
100
AcDbMText
 10
256.04332521226826
 20
-312.89835192297505
 30
0.0
 40
8.8194441795349139
 41
25.000000000000004
 71
               1
 72
               1
  1
 照査
  7
Style1
 73
               1
 44
1.0
  0
LINE
  5
2F9
100
AcDbEntity
  8
___G
370
              18
390
0
  6
Continuous
 62
               7
100
AcDbLine
 10
260.19494143298471
 20
-355.18257753151084
 30
0.0
 11
266.44494143298471
 21
-355.18257753151084
 31
0.0
  0
LINE
  5
2FA
100
AcDbEntity
  8
___G
370
              18
390
0
  6
CENTER2
 62
               7
100
AcDbLine
 10
299.2933252122682
 20
-296.62425994873058
 30
0.0
 11
337.79332521226826
 21
-296.62425994873058
 31
0.0
  0
LINE
  5
2FB
100
AcDbEntity
  8
___G
370
              18
390
0
  6
Continuous
 62
               7
100
AcDbLine
 10
277.69494143298471
 20
-351.4325775315109
 30
0.0
 11
281.44494143298471
 21
-351.4325775315109
 31
0.0
  0
ARC
  5
2FC
100
AcDbEntity
  8
___G
370
              18
390
0
  6
Continuous
 62
               7
100
AcDbCircle
 10
291.09645658449949
 20
-346.93257753151107
 30
0.0
 40
9.4999999999997886
210
-0.0
220
0.0
230
1.0
100
AcDbArc
 50
-28.600718616738963
 51
-1.5079577542374811
  0
LINE
  5
2FD
100
AcDbEntity
  8
___G
370
              18
390
0
  6
Continuous
 62
               7
100
AcDbLine
 10
288.09645658449949
 20
-356.4325775315109
 30
0.0
 11
288.09645658449949
 21
-360.1825775315109
 31
0.0
  0
LINE
  5
2FE
100
AcDbEntity
  8
___G
370
              18
390
0
  6
Continuous
 62
               7
100
AcDbLine
 10
310.59645658449949
 20
-342.68257753151096
 30
0.0
 11
288.09645658449949
 21
-342.68257753151096
 31
0.0
  0
LINE
  5
2FF
100
AcDbEntity
  8
___G
370
              18
390
0
  6
Continuous
 62
               7
100
AcDbLine
 10
329.46757409531875
 20
-346.93257753151096
 30
0.0
 11
329.10158846975838
 21
-345.660755305343
 31
0.0
  0
LINE
  5
300
100
AcDbEntity
  8
___G
370
              18
390
0
  6
Continuous
 62
               7
100
AcDbLine
 10
329.46757409531875
 20
-346.93257753151107
 30
0.0
 11
338.64016320520824
 21
-346.93257753151107
 31
0.0
  0
LINE
  5
301
100
AcDbEntity
  8
___G
370
              18
390
0
  6
Continuous
 62
               7
100
AcDbLine
 10
331.33804507561422
 20
-353.4325775315109
 30
0.0
 11
330.76251554321544
 21
-351.4325775315109
 31
0.0
  0
LINE
  5
302
100
AcDbEntity
  8
___G
370
              18
390
0
  6
Continuous
 62
               7
100
AcDbLine
 10
326.64016320520841
 20
-361.43257753151084
 30
0.0
 11
325.61349653854182
 21
-357.93257753151101
 31
0.0
  0
ARC
  5
303
100
AcDbEntity
  8
___G
370
              18
390
0
  6
Continuous
 62
               7
100
AcDbCircle
 10
294.34645658449949
 20
-346.4325775315109
 30
0.0
 40
13.750000000000162
210
-0.0
220
0.0
230
1.0
100
AcDbArc
 50
-90.0
 51
-57.455041145954581
  0
LINE
  5
304
100
AcDbEntity
  8
___G
370
              18
390
0
  6
Continuous
 62
               7
100
AcDbLine
 10
338.64016320520824
 20
-353.4325775315109
 30
0.0
 11
338.64016320520824
 21
-357.93257753151101
 31
0.0
  0
MTEXT
  5
305
100
AcDbEntity
  8
___G
370
               5
390
0
  6
Continuous
 62
               7
100
AcDbMText
 10
351.29332521226826
 20
-311.87425994873053
 30
0.0
 40
8.8194441795349139
 41
30.000000000000007
 71
               1
 72
               1
  1
図面名
  7
Style1
 73
               1
 44
1.0
  0
LINE
  5
306
100
AcDbEntity
  8
___G
370
              18
390
0
  6
Continuous
 62
               7
100
AcDbLine
 10
334.00811899149249
 20
-290.6242599487307
 30
0.0
 11
334.00811899149249
 21
-302.62425994873075
 31
0.0
  0
LINE
  5
307
100
AcDbEntity
  8
___G
370
              18
390
0
  6
Continuous
 62
               7
100
AcDbLine
 10
322.00811899149249
 20
-293.6242599487307
 30
0.0
 11
322.00811899149249
 21
-299.6242599487307
 31
0.0
  0
LINE
  5
308
100
AcDbEntity
  8
___G
370
              18
390
0
  6
Continuous
 62
               7
100
AcDbLine
 10
322.00811899149249
 20
-299.6242599487307
 30
0.0
 11
334.00811899149249
 21
-302.62425994873075
 31
0.0
  0
LINE
  5
309
100
AcDbEntity
  8
___G
370
              18
390
0
  6
Continuous
 62
               7
100
AcDbLine
 10
322.00811899149249
 20
-293.6242599487307
 30
0.0
 11
334.00811899149249
 21
-290.6242599487307
 31
0.0
  0
CIRCLE
  5
30A
100
AcDbEntity
  8
___G
370
              18
390
0
  6
Continuous
 62
               7
100
AcDbCircle
 10
308.29332521226843
 20
-296.62425994873058
 30
0.0
 40
5.9999999999997726
  0
CIRCLE
  5
30B
100
AcDbEntity
  8
___G
370
              18
390
0
  6
Continuous
 62
               7
100
AcDbCircle
 10
308.29332521226843
 20
-296.62425994873058
 30
0.0
 40
3.0000000000002274
  0
CIRCLE
  5
30C
100
AcDbEntity
  8
___G
370
              18
390
0
  6
Continuous
 62
               7
100
AcDbCircle
 10
308.29332521226843
 20
-296.62425994873058
 30
0.0
 40
5.9999999999997726
  0
LINE
  5
30D
100
AcDbEntity
  8
___G
370
              18
390
0
  6
Continuous
 62
               7
100
AcDbLine
 10
321.14016320520818
 20
-342.68257753151096
 30
0.0
 11
331.14016320520818
 21
-342.68257753151096
 31
0.0
  0
LINE
  5
30E
100
AcDbEntity
  8
___G
370
              18
390
0
  6
Continuous
 62
               7
100
AcDbLine
 10
288.09645658449949
 20
-356.4325775315109
 30
0.0
 11
291.09645658449949
 21
-356.4325775315109
 31
0.0
  0
LINE
  5
30F
100
AcDbEntity
  8
___G
370
              18
390
0
  6
Continuous
 62
               7
100
AcDbLine
 10
331.33804507561422
 20
-353.4325775315109
 30
0.0
 11
338.64016320520824
 21
-353.4325775315109
 31
0.0
  0
LINE
  5
310
100
AcDbEntity
  8
___G
370
              18
390
0
  6
Continuous
 62
               7
100
AcDbLine
 10
299.43723781371568
 20
-351.48025479428577
 30
0.0
 11
298.83574829792406
 21
-352.14460069567065
 31
0.0
  0
SPLINE
  5
311
100
AcDbEntity
  8
___G
370
              18
390
0
  6
Continuous
 62
               7
100
AcDbSpline
210
0.0
220
0.0
230
1.0
 70
               0
 71
               3
 72
               8
 73
               4
 74
               0
 42
0.0000001
 43
0.0000001
 12
0.9524773181045078
 22
-0.3046095180660716
 32
0.0
 13
0.9790669434801648
 23
-0.2035384980400709
 33
0.0
 40
0.0
 40
0.0
 40
0.0
 40
0.0
 40
1.0
 40
1.0
 40
1.0
 40
1.0
 10
301.74342356975058
 20
-358.02340922811965
 30
0.0
 10
304.5911392851242
 20
-358.93413045492576
 30
0.0
 10
307.59379793481185
 20
-359.55835399321836
 30
0.0
 10
310.59645658449949
 20
-360.1825775315109
 30
0.0
  0
LINE
  5
312
100
AcDbEntity
  8
___G
370
              18
390
0
  6
Continuous
 62
               7
100
AcDbLine
 10
267.69494143298471
 20
-356.4325775315109
 30
0.0
 11
260.19494143298471
 21
-356.4325775315109
 31
0.0
  0
LINE
  5
313
100
AcDbEntity
  8
___G
370
              18
390
0
  6
Continuous
 62
               7
100
AcDbLine
 10
270.19494143298471
 20
-342.68257753151096
 30
0.0
 11
260.19494143298471
 21
-342.68257753151096
 31
0.0
  0
LINE
  5
314
100
AcDbEntity
  8
___G
370
              18
390
0
  6
Continuous
 62
               7
100
AcDbLine
 10
260.19494143298471
 20
-360.1825775315109
 30
0.0
 11
270.19494143298471
 21
-360.1825775315109
 31
0.0
  0
MTEXT
  5
315
100
AcDbEntity
  8
___G
370
               5
390
0
  6
Continuous
 62
               7
100
AcDbMText
 10
256.04332521226826
 20
-326.64835192297522
 30
0.0
 40
8.8194441795349139
 41
25.000000000000004
 71
               1
 72
               1
  1
 検図
  7
Style1
 73
               1
 44
1.0
  0
LINE
  5
316
100
AcDbEntity
  8
___G
370
               5
390
0
  6
Continuous
 62
               7
100
AcDbLine
 10
262.2933252122682
 20
-324.12425994873041
 30
0.0
 11
343.5433252122682
 21
-324.12425994873041
 31
0.0
  0
LINE
  5
317
100
AcDbEntity
  8
___G
370
              18
390
0
  6
Continuous
 62
               7
100
AcDbLine
 10
308.09645658449955
 20
-346.4325775315109
 30
0.0
 11
310.59645658449949
 21
-342.68257753151096
 31
0.0
  0
LINE
  5
318
100
AcDbEntity
  8
___G
370
              18
390
0
  6
Continuous
 62
               7
100
AcDbLine
 10
257.3171819041018
 20
-347.6825775315109
 30
0.0
 11
257.3171819041018
 21
-351.4325775315109
 31
0.0
  0
LINE
  5
319
100
AcDbEntity
  8
___G
370
              18
390
0
  6
Continuous
 62
               7
100
AcDbLine
 10
260.19494143298471
 20
-356.4325775315109
 30
0.0
 11
260.19494143298471
 21
-360.1825775315109
 31
0.0
  0
LINE
  5
31A
100
AcDbEntity
  8
___G
370
              18
390
0
  6
Continuous
 62
               7
100
AcDbLine
 10
260.19494143298471
 20
-342.68257753151096
 30
0.0
 11
260.19494143298471
 21
-347.6825775315109
 31
0.0
  0
LINE
  5
31B
100
AcDbEntity
  8
___G
370
              18
390
0
  6
Continuous
 62
               7
100
AcDbLine
 10
260.19494143298471
 20
-351.4325775315109
 30
0.0
 11
260.19494143298471
 21
-355.18257753151084
 31
0.0
  0
LINE
  5
31C
100
AcDbEntity
  8
___G
370
              18
390
0
  6
Continuous
 62
               7
100
AcDbLine
 10
260.19494143298471
 20
-347.6825775315109
 30
0.0
 11
257.3171819041018
 21
-347.6825775315109
 31
0.0
  0
LINE
  5
31D
100
AcDbEntity
  8
___G
370
              18
390
0
  6
Continuous
 62
               7
100
AcDbLine
 10
260.19494143298471
 20
-351.4325775315109
 30
0.0
 11
259.81718190410174
 21
-351.4325775315109
 31
0.0
  0
LINE
  5
31E
100
AcDbEntity
  8
___G
370
              18
390
0
  6
Continuous
 62
               7
100
AcDbLine
 10
257.3171819041018
 20
-351.4325775315109
 30
0.0
 11
259.81718190410174
 21
-351.4325775315109
 31
0.0
  0
LINE
  5
31F
100
AcDbEntity
  8
___G
370
              18
390
0
  6
Continuous
 62
               7
100
AcDbLine
 10
266.44494143298471
 20
-347.6825775315109
 30
0.0
 11
266.44494143298471
 21
-346.4325775315109
 31
0.0
  0
LINE
  5
320
100
AcDbEntity
  8
___G
370
              18
390
0
  6
Continuous
 62
               7
100
AcDbLine
 10
316.14016320520818
 20
-353.4325775315109
 30
0.0
 11
324.29349653854183
 21
-353.4325775315109
 31
0.0
  0
LINE
  5
321
100
AcDbEntity
  8
___G
370
              18
390
0
  6
Continuous
 62
               7
100
AcDbLine
 10
322.38682987187485
 20
-346.93257753151096
 30
0.0
 11
321.14016320520818
 21
-342.68257753151096
 31
0.0
  0
LINE
  5
322
100
AcDbEntity
  8
___G
370
              18
390
0
  6
Continuous
 62
               7
100
AcDbLine
 10
332.63298652351091
 20
-357.93257753151101
 30
0.0
 11
338.64016320520824
 21
-357.93257753151101
 31
0.0
  0
ARC
  5
323
100
AcDbEntity
  8
___G
370
              18
390
0
  6
Continuous
 62
               7
100
AcDbCircle
 10
270.19494143298471
 20
-352.68257753151096
 30
0.0
 40
7.5
210
-0.0
220
-0.0
230
0.9999999999999999
100
AcDbArc
 50
-90.0
 51
0.0
  0
LINE
  5
324
100
AcDbEntity
  8
___G
370
              18
390
0
  6
Continuous
 62
               7
100
AcDbLine
 10
288.09645658449949
 20
-342.68257753151096
 30
0.0
 11
288.09645658449949
 21
-347.18257753151084
 31
0.0
  0
LINE
  5
325
100
AcDbEntity
  8
___G
370
              18
390
0
  6
Continuous
 62
               7
100
AcDbLine
 10
288.09645658449949
 20
-360.1825775315109
 30
0.0
 11
294.34645658449949
 21
-360.1825775315109
 31
0.0
  0
LINE
  5
326
100
AcDbEntity
  8
___G
370
              18
390
0
  6
Continuous
 62
               7
100
AcDbLine
 10
288.09645658449949
 20
-349.29312886891762
 30
0.0
 11
288.09645658449949
 21
-348.48785320021432
 31
0.0
  0
MTEXT
  5
327
100
AcDbEntity
  8
___G
370
               5
390
0
  6
Continuous
 62
               7
100
AcDbMText
 10
351.29332521226826
 20
-284.37425994873058
 30
0.0
 40
8.8194441795349139
 41
30.000000000000007
 71
               1
 72
               1
  1
製品名
  7
Style1
 73
               1
 44
1.0
  0
LINE
  5
328
100
AcDbEntity
  8
___G
370
              18
390
0
  6
Continuous
 62
               7
100
AcDbLine
 10
281.44494143298471
 20
-342.68257753151096
 30
0.0
 11
271.44494143298471
 21
-342.68257753151096
 31
0.0
  0
LINE
  5
329
100
AcDbEntity
  8
___G
370
              18
390
0
  6
Continuous
 62
               7
100
AcDbLine
 10
281.44494143298471
 20
-347.6825775315109
 30
0.0
 11
281.44494143298471
 21
-351.4325775315109
 31
0.0
  0
LINE
  5
32A
100
AcDbEntity
  8
________1________1
370
               5
390
0
  6
DASHED
 62
               7
100
AcDbLine
 10
-402.27290051170866
 20
34.644638278743713
 30
0.0
 11
-401.28295102008855
 21
33.654688787123717
 31
0.0
  0
LINE
  5
32B
100
AcDbEntity
  8
________1________1
370
               5
390
0
  6
DASHED
 62
               7
100
AcDbLine
 10
-401.28295101822317
 20
30.154688793081647
 30
0.0
 11
-401.28295101822317
 21
31.90468879308267
 31
0.0
  0
LINE
  5
32C
100
AcDbEntity
  8
________1________1
370
              18
390
0
  6
Continuous
 62
               7
100
AcDbLine
 10
-401.18295102046108
 20
35.734587722680061
 30
0.0
 11
-402.27290051170866
 21
34.644638278743713
 31
0.0
  0
LINE
  5
32D
100
AcDbEntity
  8
________1________1
370
               5
390
0
  6
DASHED
 62
               7
100
AcDbLine
 10
-399.7829510182259
 20
34.892556758728205
 30
0.0
 11
-401.18295101822576
 21
34.892556758728205
 31
0.0
  0
LINE
  5
32E
100
AcDbEntity
  8
________1________1
370
              18
390
0
  6
Continuous
 62
               7
100
AcDbLine
 10
-402.27290051188714
 20
29.164739299422848
 30
0.0
 11
-402.27290051188714
 21
34.64463828674522
 31
0.0
  0
LINE
  5
32F
100
AcDbEntity
  8
________1________1
370
               5
390
0
  6
DASHED
 62
               7
100
AcDbLine
 10
-401.28295101822317
 20
31.90468879308267
 30
0.0
 11
-401.28295101822317
 21
30.154688793081647
 31
0.0
  0
LINE
  5
330
100
AcDbEntity
  8
________1________1
370
               5
390
0
  6
DASHED
 62
               7
100
AcDbLine
 10
-401.28295101822317
 20
31.90468879308267
 30
0.0
 11
-401.28295101822317
 21
30.154688793081647
 31
0.0
  0
LINE
  5
331
100
AcDbEntity
  8
________1________1
370
               5
390
0
  6
DASHED
 62
               7
100
AcDbLine
 10
-399.78295107559524
 20
28.654688850453596
 30
0.0
 11
-401.28295109366303
 21
30.154688868521163
 31
0.0
  0
LINE
  5
332
100
AcDbEntity
  8
________1________1
370
               5
390
0
  6
DASHED
 62
               7
100
AcDbLine
 10
-399.78295107559546
 20
28.654688850453482
 30
0.0
 11
-401.28295109366303
 21
30.154688868521049
 31
0.0
  0
LINE
  5
333
100
AcDbEntity
  8
________1________1
370
               5
390
0
  6
DASHED
 62
               7
100
AcDbLine
 10
-399.7829510182259
 20
30.404688793084091
 30
0.0
 11
-401.18295101822576
 21
30.404688793084091
 31
0.0
  0
LINE
  5
334
100
AcDbEntity
  8
________1________1
370
               5
390
0
  6
DASHED
 62
               7
100
AcDbLine
 10
-399.7829510182259
 20
30.316820827440068
 30
0.0
 11
-401.18295101822576
 21
30.316820827440068
 31
0.0
  0
LINE
  5
335
100
AcDbEntity
  8
________1________1
370
               5
390
0
  6
DASHED
 62
               7
100
AcDbLine
 10
-399.7829510182259
 20
28.404688793084091
 30
0.0
 11
-401.18295101822576
 21
28.404688793084091
 31
0.0
  0
LINE
  5
336
100
AcDbEntity
  8
________1________1
370
               5
390
0
  6
DASHED
 62
               7
100
AcDbLine
 10
-399.7829510182259
 20
28.916820827440091
 30
0.0
 11
-401.18295101822576
 21
28.916820827440091
 31
0.0
  0
LINE
  5
337
100
AcDbEntity
  8
________1________1
370
               5
390
0
  6
DASHED
 62
               7
100
AcDbLine
 10
-399.7829510182259
 20
33.492556758728227
 30
0.0
 11
-401.18295101822576
 21
33.492556758728227
 31
0.0
  0
LINE
  5
338
100
AcDbEntity
  8
________1________1
370
               5
390
0
  6
DASHED
 62
               7
100
AcDbLine
 10
-399.7829510182259
 20
34.892556758728205
 30
0.0
 11
-401.18295101822576
 21
34.892556758728205
 31
0.0
  0
LINE
  5
339
100
AcDbEntity
  8
________1________1
370
               5
390
0
  6
DASHED
 62
               7
100
AcDbLine
 10
-399.7829510182259
 20
35.404688793084091
 30
0.0
 11
-401.18295101822576
 21
35.404688793084091
 31
0.0
  0
LINE
  5
33A
100
AcDbEntity
  8
________1________1
370
               5
390
0
  6
DASHED
 62
               7
100
AcDbLine
 10
-401.28295102213718
 20
33.654688789172468
 30
0.0
 11
-399.78295100406962
 21
35.154688807240035
 31
0.0
  0
MTEXT
  5
33B
100
AcDbEntity
  8
___G
370
               5
390
0
  6
Continuous
 62
               7
100
AcDbMText
 10
162.2933252122682
 20
-312.89835192297505
 30
0.0
 40
8.8194441795349139
 41
25.000000000000004
 71
               1
 72
               1
  1
 設計
  7
Style1
 73
               1
 44
1.0
  0
MTEXT
  5
33C
100
AcDbEntity
  8
___G
370
               5
390
0
  6
Continuous
 62
               7
100
AcDbMText
 10
162.2933252122682
 20
-326.64835192297522
 30
0.0
 40
8.8194441795349139
 41
25.000000000000004
 71
               1
 72
               1
  1
 製図
  7
Style1
 73
               1
 44
1.0
  0
MTEXT
  5
33D
100
AcDbEntity
  8
___G
370
              18
390
0
  6
Continuous
 62
               7
100
AcDbMText
 10
162.2933252122682
 20
-299.16627028221916
 30
0.0
 40
8.8194441795349139
 41
62.500000000000014
 71
               1
 72
               1
  1
H28.1
  7
Style1
 73
               1
 44
1.0
  0
LINE
  5
33E
100
AcDbEntity
  8
___G
370
               5
390
0
  6
Continuous
 62
               7
100
AcDbLine
 10
224.79332521226823
 20
-282.87425994873058
 30
0.0
 11
224.79332521226823
 21
-310.37425994873087
 31
0.0
  0
LINE
  5
33F
100
AcDbEntity
  8
___G
370
               5
390
0
  6
Continuous
 62
               7
100
AcDbLine
 10
162.2933252122682
 20
-282.87425994873058
 30
0.0
 11
162.2933252122682
 21
-365.37425994873047
 31
0.0
  0
SPLINE
  5
340
100
AcDbEntity
  8
___G
370
              18
390
0
  6
Continuous
 62
               7
100
AcDbSpline
210
0.0
220
0.0
230
1.0
 70
               0
 71
               3
 72
               8
 73
               4
 74
               0
 42
0.0000001
 43
0.0000001
 12
0.6676726695723337
 22
-0.7444549726519081
 32
0.0
 13
0.7413159697199178
 23
-0.6711561912388337
 33
0.0
 40
0.0
 40
0.0
 40
0.0
 40
0.0
 40
1.0
 40
1.0
 40
1.0
 40
1.0
 10
296.68224302212661
 20
-349.90206676258742
 30
0.0
 10
297.38067409041179
 20
-350.6808173473201
 30
0.0
 10
298.07910515869594
 20
-351.45956793205295
 30
0.0
 10
298.83574829792406
 20
-352.14460069567087
 30
0.0
  0
SPLINE
  5
341
100
AcDbEntity
  8
___G
370
              18
390
0
  6
Continuous
 62
               7
100
AcDbSpline
210
0.0
220
0.0
230
1.0
 70
               0
 71
               3
 72
               8
 73
               4
 74
               0
 42
0.0000001
 43
0.0000001
 12
0.9618578240638717
 22
-0.2735498606965724
 32
0.0
 13
0.9860364361538028
 23
-0.1665297167988565
 33
0.0
 40
0.0
 40
0.0
 40
0.0
 40
0.0
 40
1.0
 40
1.0
 40
1.0
 40
1.0
 10
304.80799981523774
 20
-355.2413509144186
 30
0.0
 10
306.65742294906181
 20
-355.76732203818523
 30
0.0
 10
308.62693976678088
 20
-356.09994978484809
 30
0.0
 10
310.59645658449949
 20
-356.4325775315109
 30
0.0
  0
SPLINE
  5
342
100
AcDbEntity
  8
___G
370
              18
390
0
  6
Continuous
 62
               7
100
AcDbSpline
210
0.0
220
0.0
230
1.0
 70
               0
 71
               3
 72
               9
 73
               5
 74
               0
 42
0.0000001
 43
0.0000001
 12
0.7352773642103112
 22
-0.6777663297036357
 32
0.0
 13
0.8572955905931974
 23
-0.5148245044182152
 33
0.0
 40
0.0
 40
0.0
 40
0.0
 40
0.0
 40
0.9999999993702069
 40
1.0
 40
1.0
 40
1.0
 40
1.0
 10
288.09645658449949
 20
-349.29312886891762
 30
0.0
 10
290.48296809291696
 20
-351.49297511006063
 30
0.0
 10
292.86947960283737
 20
-353.69282135258925
 30
0.0
 10
295.5690077317447
 20
-355.31388329493006
 30
0.0
 10
295.56900773344483
 20
-355.31388329595103
 30
0.0
  0
LINE
  5
343
100
AcDbEntity
  8
________1________1
370
               5
390
0
  6
DASHED
 62
               7
100
AcDbLine
 10
-399.7829510182259
 20
30.316820827440068
 30
0.0
 11
-401.18295101822576
 21
30.316820827440068
 31
0.0
  0
LINE
  5
344
100
AcDbEntity
  8
____1
370
              18
390
0
  6
Continuous
 62
               7
100
AcDbLine
 10
-401.18295101822599
 20
27.054688818276375
 30
0.0
 11
-402.48295101822595
 21
27.054688818276375
 31
0.0
  0
LINE
  5
345
100
AcDbEntity
  8
________1________1
370
               5
390
0
  6
DASHED
 62
               7
100
AcDbLine
 10
-399.7829510182259
 20
33.492556758728227
 30
0.0
 11
-401.18295101822576
 21
33.492556758728227
 31
0.0
  0
LINE
  5
346
100
AcDbEntity
  8
________1________1
370
               5
390
0
  6
DASHED
 62
               7
100
AcDbLine
 10
-399.7829510182259
 20
30.316820827440068
 30
0.0
 11
-401.18295101822576
 21
30.316820827440068
 31
0.0
  0
LINE
  5
347
100
AcDbEntity
  8
________1________1
370
               5
390
0
  6
DASHED
 62
               7
100
AcDbLine
 10
-399.7829510182259
 20
28.916820827440091
 30
0.0
 11
-401.18295101822576
 21
28.916820827440091
 31
0.0
  0
LINE
  5
348
100
AcDbEntity
  8
________1________1
370
               5
390
0
  6
DASHED
 62
               7
100
AcDbLine
 10
-399.7829510182259
 20
30.316820827440068
 30
0.0
 11
-401.18295101822576
 21
30.316820827440068
 31
0.0
  0
LINE
  5
349
100
AcDbEntity
  8
________1________1
370
               5
390
0
  6
DASHED
 62
               7
100
AcDbLine
 10
-401.28295101822317
 20
33.65468879308375
 30
0.0
 11
-401.28295101822317
 21
31.90468879308267
 31
0.0
  0
LINE
  5
34A
100
AcDbEntity
  8
________1________1
370
               5
390
0
  6
DASHED
 62
               7
100
AcDbLine
 10
-401.28295101822317
 20
31.90468879308267
 30
0.0
 11
-401.28295101822317
 21
33.65468879308375
 31
0.0
  0
LINE
  5
34B
100
AcDbEntity
  8
________1________1
370
               5
390
0
  6
DASHED
 62
               7
100
AcDbLine
 10
-399.7829510182259
 20
33.492556758728227
 30
0.0
 11
-401.18295101822576
 21
33.492556758728227
 31
0.0
  0
LINE
  5
34C
100
AcDbEntity
  8
________1________1
370
               5
390
0
  6
DASHED
 62
               7
100
AcDbLine
 10
-399.7829510182259
 20
34.892556758728205
 30
0.0
 11
-401.18295101822576
 21
34.892556758728205
 31
0.0
  0
LINE
  5
34D
100
AcDbEntity
  8
________1________1
370
               5
390
0
  6
DASHED
 62
               7
100
AcDbLine
 10
-399.7829510182259
 20
28.916820827440091
 30
0.0
 11
-401.18295101822576
 21
28.916820827440091
 31
0.0
  0
LINE
  5
34E
100
AcDbEntity
  8
________1________1
370
               5
390
0
  6
DASHED
 62
               7
100
AcDbLine
 10
-399.7829510182259
 20
33.492556758728227
 30
0.0
 11
-401.18295101822576
 21
33.492556758728227
 31
0.0
  0
LINE
  5
34F
100
AcDbEntity
  8
________1________1
370
               5
390
0
  6
DASHED
 62
               7
100
AcDbLine
 10
-399.7829510182259
 20
30.316820827440068
 30
0.0
 11
-401.18295101822576
 21
30.316820827440068
 31
0.0
  0
LINE
  5
350
100
AcDbEntity
  8
________1________1
370
               5
390
0
  6
DASHED
 62
               7
100
AcDbLine
 10
-401.28295101822317
 20
33.65468879308375
 30
0.0
 11
-401.28295101822317
 21
31.90468879308267
 31
0.0
  0
LINE
  5
351
100
AcDbEntity
  8
________1________1
370
               5
390
0
  6
DASHED
 62
               7
100
AcDbLine
 10
-399.7829510182259
 20
33.492556758728227
 30
0.0
 11
-401.18295101822576
 21
33.492556758728227
 31
0.0
  0
LINE
  5
352
100
AcDbEntity
  8
________1________1
370
               5
390
0
  6
DASHED
 62
               7
100
AcDbLine
 10
-399.7829510182259
 20
28.916820827440091
 30
0.0
 11
-401.18295101822576
 21
28.916820827440091
 31
0.0
  0
ARC
  5
353
100
AcDbEntity
  8
____1
370
              18
390
0
  6
Continuous
 62
               7
100
AcDbCircle
 10
-401.18295101822599
 20
26.804688818276389
 30
0.0
 40
1.4000000000000994
210
-0.0
220
-0.0
230
1.0
100
AcDbArc
 50
-158.21321070173761
 51
0.0000062985544315
  0
LINE
  5
354
100
AcDbEntity
  8
____1
370
              18
390
0
  6
Continuous
 62
               7
100
AcDbLine
 10
-402.48295101822595
 20
26.285073576005729
 30
0.0
 11
-402.48295101822595
 21
27.054688818276375
 31
0.0
  0
LINE
  5
355
100
AcDbEntity
  8
____1
370
              18
390
0
  6
Continuous
 62
               7
100
AcDbLine
 10
-402.48295101822595
 20
36.754688818276378
 30
0.0
 11
-402.48295101822595
 21
37.524304060547053
 31
0.0
  0
ARC
  5
356
100
AcDbEntity
  8
____1
370
              18
390
0
  6
Continuous
 62
               7
100
AcDbCircle
 10
-401.18295101822599
 20
37.004688818276378
 30
0.0
 40
1.4000000000001058
100
AcDbArc
 50
-0.0000083605722242
 51
158.21321070173707
  0
LINE
  5
357
100
AcDbEntity
  8
____1
370
              18
390
0
  6
Continuous
 62
               7
100
AcDbLine
 10
-399.7829510182259
 20
26.804688972179108
 30
0.0
 11
-399.7829510182259
 21
37.00468861398906
 31
0.0
  0
LINE
  5
358
100
AcDbEntity
  8
____1
370
              18
390
0
  6
Continuous
 62
               7
100
AcDbLine
 10
-373.96301054203349
 20
38.404688818276384
 30
0.0
 11
-373.96301054203349
 21
25.404688818276398
 31
0.0
  0
LINE
  5
359
100
AcDbEntity
  8
________1________1
370
               5
390
0
  6
DASHED
 62
               7
100
AcDbLine
 10
-399.7829510182259
 20
34.892556758728205
 30
0.0
 11
-401.18295101822576
 21
34.892556758728205
 31
0.0
  0
LINE
  5
35A
100
AcDbEntity
  8
________1________1
370
              18
390
0
  6
Continuous
 62
               7
100
AcDbLine
 10
-401.18295102046108
 20
35.734587722680061
 30
0.0
 11
-402.27290051170866
 21
34.644638278743713
 31
0.0
  0
LINE
  5
35B
100
AcDbEntity
  8
________1________1
370
              18
390
0
  6
Continuous
 62
               7
100
AcDbLine
 10
-402.27290051170866
 20
29.16473907198619
 30
0.0
 11
-401.18295102046108
 21
28.074790006539246
 31
0.0
  0
LINE
  5
35C
100
AcDbEntity
  8
________1________1
370
              18
390
0
  6
Continuous
 62
               7
100
AcDbLine
 10
-402.27290051188714
 20
29.164739299422848
 30
0.0
 11
-402.27290051188714
 21
34.64463828674522
 31
0.0
  0
LINE
  5
35D
100
AcDbEntity
  8
________1________1
370
               5
390
0
  6
DASHED
 62
               7
100
AcDbLine
 10
-399.7829510182259
 20
34.892556758728205
 30
0.0
 11
-401.18295101822576
 21
34.892556758728205
 31
0.0
  0
LINE
  5
35E
100
AcDbEntity
  8
________1________1
370
               5
390
0
  6
DASHED
 62
               7
100
AcDbLine
 10
-399.7829510182259
 20
34.892556758728205
 30
0.0
 11
-401.18295101822576
 21
34.892556758728205
 31
0.0
  0
LINE
  5
35F
100
AcDbEntity
  8
________1________1
370
               5
390
0
  6
DASHED
 62
               7
100
AcDbLine
 10
-399.7829510182259
 20
30.316820827440068
 30
0.0
 11
-401.18295101822576
 21
30.316820827440068
 31
0.0
  0
LINE
  5
360
100
AcDbEntity
  8
________1________1
370
               5
390
0
  6
DASHED
 62
               7
100
AcDbLine
 10
-401.28295102213741
 20
33.654688789172468
 30
0.0
 11
-399.78295100406962
 21
35.154688807240149
 31
0.0
  0
LINE
  5
361
100
AcDbEntity
  8
________1________1
370
               5
390
0
  6
DASHED
 62
               7
100
AcDbLine
 10
-399.7829510182259
 20
28.916820827440091
 30
0.0
 11
-401.18295101822576
 21
28.916820827440091
 31
0.0
  0
LINE
  5
362
100
AcDbEntity
  8
________1________1
370
               5
390
0
  6
DASHED
 62
               7
100
AcDbLine
 10
-399.7829510182259
 20
30.316820827440068
 30
0.0
 11
-401.18295101822576
 21
30.316820827440068
 31
0.0
  0
LINE
  5
363
100
AcDbEntity
  8
________1________1
370
               5
390
0
  6
DASHED
 62
               7
100
AcDbLine
 10
-399.7829510182259
 20
30.316820827440068
 30
0.0
 11
-401.18295101822576
 21
30.316820827440068
 31
0.0
  0
LINE
  5
364
100
AcDbEntity
  8
________1________1
370
               5
390
0
  6
DASHED
 62
               7
100
AcDbLine
 10
-399.7829510182259
 20
28.916820827440091
 30
0.0
 11
-401.18295101822576
 21
28.916820827440091
 31
0.0
  0
LINE
  5
365
100
AcDbEntity
  8
________1________1
370
               5
390
0
  6
DASHED
 62
               7
100
AcDbLine
 10
-399.7829510182259
 20
33.492556758728227
 30
0.0
 11
-401.18295101822576
 21
33.492556758728227
 31
0.0
  0
LINE
  5
366
100
AcDbEntity
  8
________1________1
370
               5
390
0
  6
DASHED
 62
               7
100
AcDbLine
 10
-399.7829510182259
 20
34.892556758728205
 30
0.0
 11
-401.18295101822576
 21
34.892556758728205
 31
0.0
  0
LINE
  5
367
100
AcDbEntity
  8
________1________1
370
               5
390
0
  6
DASHED
 62
               7
100
AcDbLine
 10
-399.7829510182259
 20
33.492556758728227
 30
0.0
 11
-401.18295101822576
 21
33.492556758728227
 31
0.0
  0
LINE
  5
368
100
AcDbEntity
  8
________1________1
370
               5
390
0
  6
DASHED
 62
               7
100
AcDbLine
 10
-399.7829510182259
 20
33.492556758728227
 30
0.0
 11
-401.18295101822576
 21
33.492556758728227
 31
0.0
  0
LINE
  5
369
100
AcDbEntity
  8
________1________1
370
               5
390
0
  6
DASHED
 62
               7
100
AcDbLine
 10
-399.7829510182259
 20
33.492556758728227
 30
0.0
 11
-401.18295101822576
 21
33.492556758728227
 31
0.0
  0
LINE
  5
36A
100
AcDbEntity
  8
________1________1
370
               5
390
0
  6
DASHED
 62
               7
100
AcDbLine
 10
-399.7829510182259
 20
30.316820827440068
 30
0.0
 11
-401.18295101822576
 21
30.316820827440068
 31
0.0
  0
LINE
  5
36B
100
AcDbEntity
  8
________1________1
370
               5
390
0
  6
DASHED
 62
               7
100
AcDbLine
 10
-399.7829510182259
 20
28.916820827440091
 30
0.0
 11
-401.18295101822576
 21
28.916820827440091
 31
0.0
  0
LINE
  5
36C
100
AcDbEntity
  8
________1________1
370
               5
390
0
  6
DASHED
 62
               7
100
AcDbLine
 10
-399.7829510182259
 20
33.492556758728227
 30
0.0
 11
-401.18295101822576
 21
33.492556758728227
 31
0.0
  0
LINE
  5
36D
100
AcDbEntity
  8
________1________1
370
               5
390
0
  6
DASHED
 62
               7
100
AcDbLine
 10
-399.7829510182259
 20
34.892556758728205
 30
0.0
 11
-401.18295101822576
 21
34.892556758728205
 31
0.0
  0
LINE
  5
36E
100
AcDbEntity
  8
________1________1
370
               5
390
0
  6
DASHED
 62
               7
100
AcDbLine
 10
-399.7829510182259
 20
34.892556758728205
 30
0.0
 11
-401.18295101822576
 21
34.892556758728205
 31
0.0
  0
LINE
  5
36F
100
AcDbEntity
  8
________1________1
370
               5
390
0
  6
DASHED
 62
               7
100
AcDbLine
 10
-399.7829510182259
 20
33.492556758728227
 30
0.0
 11
-401.18295101822576
 21
33.492556758728227
 31
0.0
  0
LINE
  5
370
100
AcDbEntity
  8
________1________1
370
               5
390
0
  6
DASHED
 62
               7
100
AcDbLine
 10
-399.7829510182259
 20
28.916820827440091
 30
0.0
 11
-401.18295101822576
 21
28.916820827440091
 31
0.0
  0
LINE
  5
371
100
AcDbEntity
  8
________1________1
370
               5
390
0
  6
DASHED
 62
               7
100
AcDbLine
 10
-399.7829510182259
 20
30.316820827440068
 30
0.0
 11
-401.18295101822576
 21
30.316820827440068
 31
0.0
  0
LINE
  5
372
100
AcDbEntity
  8
________1________1
370
               5
390
0
  6
DASHED
 62
               7
100
AcDbLine
 10
-399.7829510182259
 20
28.916820827440091
 30
0.0
 11
-401.18295101822576
 21
28.916820827440091
 31
0.0
  0
LINE
  5
373
100
AcDbEntity
  8
________1________1
370
               5
390
0
  6
DASHED
 62
               7
100
AcDbLine
 10
-399.7829510182259
 20
34.892556758728205
 30
0.0
 11
-401.18295101822576
 21
34.892556758728205
 31
0.0
  0
LINE
  5
374
100
AcDbEntity
  8
________1________1
370
               5
390
0
  6
DASHED
 62
               7
100
AcDbLine
 10
-399.7829510182259
 20
28.916820827440091
 30
0.0
 11
-401.18295101822576
 21
28.916820827440091
 31
0.0
  0
LINE
  5
375
100
AcDbEntity
  8
________1________1
370
               5
390
0
  6
DASHED
 62
               7
100
AcDbLine
 10
-399.7829510182259
 20
34.892556758728205
 30
0.0
 11
-401.18295101822576
 21
34.892556758728205
 31
0.0
  0
INSERT
  5
389
100
AcDbEntity
  8
____1
370
               5
390
0
  6
Continuous
 62
               7
100
AcDbBlockReference
  2
C35
 10
0.0
 20
0.0
 30
0.0
  0
INSERT
  5
39F
100
AcDbEntity
  8
____1
370
               5
390
0
  6
DASHED2
 62
               7
100
AcDbBlockReference
  2
C36
 10
0.0
 20
0.0
 30
0.0
  0
INSERT
  5
3B3
100
AcDbEntity
  8
____1
370
               5
390
0
  6
Continuous
 62
               7
100
AcDbBlockReference
  2
C37
 10
0.0
 20
0.0
 30
0.0
  0
INSERT
  5
3C7
100
AcDbEntity
  8
____1
370
               5
390
0
  6
Continuous
 62
               7
100
AcDbBlockReference
  2
C38
 10
0.0
 20
0.0
 30
0.0
  0
LINE
  5
3C8
100
AcDbEntity
  8
________1________1
370
               5
390
0
  6
DASHED
 62
               7
100
AcDbLine
 10
-399.7829510182259
 20
30.316820827440068
 30
0.0
 11
-401.18295101822576
 21
30.316820827440068
 31
0.0
  0
LINE
  5
3C9
100
AcDbEntity
  8
________1________1
370
               5
390
0
  6
DASHED
 62
               7
100
AcDbLine
 10
-399.7829510182259
 20
28.916820827440091
 30
0.0
 11
-401.18295101822576
 21
28.916820827440091
 31
0.0
  0
LINE
  5
3CA
100
AcDbEntity
  8
________1________1
370
               5
390
0
  6
DASHED
 62
               7
100
AcDbLine
 10
-399.7829510182259
 20
34.892556758728205
 30
0.0
 11
-401.18295101822576
 21
34.892556758728205
 31
0.0
  0
LINE
  5
3CB
100
AcDbEntity
  8
________1________1
370
               5
390
0
  6
DASHED
 62
               7
100
AcDbLine
 10
-399.7829510182259
 20
33.492556758728227
 30
0.0
 11
-401.18295101822576
 21
33.492556758728227
 31
0.0
  0
LINE
  5
3CC
100
AcDbEntity
  8
____1
370
              18
390
0
  6
Continuous
 62
               7
100
AcDbLine
 10
-401.18295101822599
 20
27.054688818276375
 30
0.0
 11
-401.18295101822599
 21
36.754688818276378
 31
0.0
  0
LINE
  5
3CD
100
AcDbEntity
  8
____1
370
              18
390
0
  6
Continuous
 62
               7
100
AcDbLine
 10
-401.18295101822599
 20
36.754688818276378
 30
0.0
 11
-402.48295101822595
 21
36.754688818276378
 31
0.0
  0
LINE
  5
3CE
100
AcDbEntity
  8
________1________1
370
               5
390
0
  6
DASHED
 62
               7
100
AcDbLine
 10
-399.7829510182259
 20
28.916820827440091
 30
0.0
 11
-401.18295101822576
 21
28.916820827440091
 31
0.0
  0
LINE
  5
3CF
100
AcDbEntity
  8
________1________1
370
               5
390
0
  6
DASHED
 62
               7
100
AcDbLine
 10
-399.7829510182259
 20
34.892556758728205
 30
0.0
 11
-401.18295101822576
 21
34.892556758728205
 31
0.0
  0
LINE
  5
3D0
100
AcDbEntity
  8
________1________1
370
               5
390
0
  6
DASHED
 62
               7
100
AcDbLine
 10
-399.7829510182259
 20
30.316820827440068
 30
0.0
 11
-401.18295101822576
 21
30.316820827440068
 31
0.0
  0
LINE
  5
3D1
100
AcDbEntity
  8
________1________1
370
               5
390
0
  6
DASHED
 62
               7
100
AcDbLine
 10
-399.7829510182259
 20
28.916820827440091
 30
0.0
 11
-401.18295101822576
 21
28.916820827440091
 31
0.0
  0
LINE
  5
3D2
100
AcDbEntity
  8
________1________1
370
               5
390
0
  6
DASHED
 62
               7
100
AcDbLine
 10
-402.27290051170866
 20
34.644638278743713
 30
0.0
 11
-401.28295102008855
 21
33.654688787123717
 31
0.0
  0
LINE
  5
3D3
100
AcDbEntity
  8
________1________1
370
               5
390
0
  6
DASHED
 62
               7
100
AcDbLine
 10
-399.7829510182259
 20
30.316820827440068
 30
0.0
 11
-401.18295101822576
 21
30.316820827440068
 31
0.0
  0
LINE
  5
3D4
100
AcDbEntity
  8
________1________1
370
               5
390
0
  6
DASHED
 62
               7
100
AcDbLine
 10
-399.7829510182259
 20
30.316820827440068
 30
0.0
 11
-401.18295101822576
 21
30.316820827440068
 31
0.0
  0
LINE
  5
3D5
100
AcDbEntity
  8
________1________1
370
               5
390
0
  6
DASHED
 62
               7
100
AcDbLine
 10
-399.7829510182259
 20
28.916820827440091
 30
0.0
 11
-401.18295101822576
 21
28.916820827440091
 31
0.0
  0
LINE
  5
3D6
100
AcDbEntity
  8
________1________1
370
               5
390
0
  6
DASHED
 62
               7
100
AcDbLine
 10
-399.7829510182259
 20
33.492556758728227
 30
0.0
 11
-401.18295101822576
 21
33.492556758728227
 31
0.0
  0
LINE
  5
3D7
100
AcDbEntity
  8
________1________1
370
               5
390
0
  6
DASHED
 62
               7
100
AcDbLine
 10
-399.7829510182259
 20
34.892556758728205
 30
0.0
 11
-401.18295101822576
 21
34.892556758728205
 31
0.0
  0
LINE
  5
3D8
100
AcDbEntity
  8
________1________1
370
               5
390
0
  6
DASHED
 62
               7
100
AcDbLine
 10
-399.7829510182259
 20
34.892556758728205
 30
0.0
 11
-401.18295101822576
 21
34.892556758728205
 31
0.0
  0
LINE
  5
3D9
100
AcDbEntity
  8
________1________1
370
               5
390
0
  6
DASHED
 62
               7
100
AcDbLine
 10
-399.7829510182259
 20
33.492556758728227
 30
0.0
 11
-401.18295101822576
 21
33.492556758728227
 31
0.0
  0
LINE
  5
3DA
100
AcDbEntity
  8
________1________1
370
               5
390
0
  6
DASHED
 62
               7
100
AcDbLine
 10
-399.7829510182259
 20
34.892556758728205
 30
0.0
 11
-401.18295101822576
 21
34.892556758728205
 31
0.0
  0
LINE
  5
3DB
100
AcDbEntity
  8
________1________1
370
               5
390
0
  6
DASHED
 62
               7
100
AcDbLine
 10
-399.7829510182259
 20
33.404688793084091
 30
0.0
 11
-401.18295101822576
 21
33.404688793084091
 31
0.0
  0
LINE
  5
3DC
100
AcDbEntity
  8
____1
370
               5
390
0
  6
DASHED2
 62
               7
100
AcDbLine
 10
128.12883212804144
 20
36.754688818276378
 30
0.0
 11
487.61687961154479
 21
36.754688818276378
 31
0.0
  0
LINE
  5
3DD
100
AcDbEntity
  8
____1
370
               5
390
0
  6
DASHED2
 62
               7
100
AcDbLine
 10
132.0466715054821
 20
27.054688818276375
 30
0.0
 11
487.61687961154479
 21
27.054688818276375
 31
0.0
  0
LINE
  5
3DE
100
AcDbEntity
  8
____1
370
              18
390
0
  6
Continuous
 62
               7
100
AcDbLine
 10
132.64989320850688
 20
25.404688818276398
 30
0.0
 11
487.61687961154479
 21
25.404688818276398
 31
0.0
  0
LINE
  5
3DF
100
AcDbEntity
  8
____1
370
               5
390
0
  6
Continuous
 62
               7
100
AcDbLine
 10
-328.57361111111123
 20
62.101236979166671
 30
0.0
 11
-352.59739617128497
 21
40.779513435623386
 31
0.0
  0
SOLID
  5
3E0
100
AcDbEntity
  8
____1
390
0
 62
               7
100
AcDbTrace
 10
-352.59739617128497
 20
40.779513435623386
 30
0.0
 11
-346.77772720666098
 21
49.287242459410656
 31
0.0
 12
-352.59739617128497
 22
40.779513435623386
 32
0.0
 13
-346.98803060382323
 23
45.757968811598403
 33
0.0
  0
SOLID
  5
3E1
100
AcDbEntity
  8
____1
390
0
 62
               7
100
AcDbTrace
 10
-346.98803060382323
 20
45.757968811598403
 30
0.0
 11
-343.45875695601092
 21
45.54766541443616
 31
0.0
 12
-352.59739617128497
 22
40.779513435623386
 32
0.0
 13
-352.59739617128497
 23
40.779513435623386
 33
0.0
  0
DIMENSION
  5
3EF
100
AcDbEntity
  8
寸法線_1
370
               5
390
0
  6
Continuous
 62
               7
100
AcDbDimension
  2
*D40
 10
-399.7829510182259
 20
62.524304060547053
 30
0.0
 11
-401.13295101822592
 21
62.524304060547053
 31
0.0
 71
               5
 72
               1
 41
1.0
 42
0.0
  3
DS1
100
AcDbAlignedDimension
 13
-402.48295101822595
 23
37.524304060547053
 33
0.0
 14
-399.7829510182259
 24
37.00468861398906
 34
0.0
100
AcDbRotatedDimension
  0
DIMENSION
  5
3FF
100
AcDbEntity
  8
寸法線_1
370
               5
390
0
  6
Continuous
 62
               7
100
AcDbDimension
  2
*D41
 10
-426.18295101822605
 20
38.404688818276377
 30
0.0
 11
-426.18295101822605
 21
31.904688818276384
 31
0.0
 71
               5
 72
               1
 41
1.0
 42
0.0
  3
DS1
100
AcDbAlignedDimension
 13
-401.18295101822599
 23
25.404688818276391
 33
0.0
 14
-401.18295101822605
 24
38.404688818276377
 34
0.0
 50
90.0
100
AcDbRotatedDimension
  0
LINE
  5
400
100
AcDbEntity
  8
________1________1
370
               5
390
0
  6
DASHED
 62
               7
100
AcDbLine
 10
-399.7829510182259
 20
30.316820827440068
 30
0.0
 11
-401.18295101822576
 21
30.316820827440068
 31
0.0
  0
LINE
  5
401
100
AcDbEntity
  8
________1________1
370
               5
390
0
  6
DASHED
 62
               7
100
AcDbLine
 10
-399.7829510182259
 20
34.892556758728205
 30
0.0
 11
-401.18295101822576
 21
34.892556758728205
 31
0.0
  0
LINE
  5
402
100
AcDbEntity
  8
________1________1
370
               5
390
0
  6
DASHED
 62
               7
100
AcDbLine
 10
-399.7829510182259
 20
33.492556758728227
 30
0.0
 11
-401.18295101822576
 21
33.492556758728227
 31
0.0
  0
LINE
  5
403
100
AcDbEntity
  8
________1________1
370
              18
390
0
  6
Continuous
 62
               7
100
AcDbLine
 10
-402.27290051170866
 20
29.16473907198619
 30
0.0
 11
-401.18295102046108
 21
28.074790006539246
 31
0.0
  0
LINE
  5
404
100
AcDbEntity
  8
________1________1
370
               5
390
0
  6
DASHED
 62
               7
100
AcDbLine
 10
-401.28295101822317
 20
31.90468879308267
 30
0.0
 11
-401.28295101822317
 21
33.65468879308375
 31
0.0
  0
LINE
  5
405
100
AcDbEntity
  8
________1________1
370
               5
390
0
  6
DASHED
 62
               7
100
AcDbLine
 10
-401.28295101822317
 20
30.154688793081647
 30
0.0
 11
-401.28295101822317
 21
31.90468879308267
 31
0.0
  0
LINE
  5
406
100
AcDbEntity
  8
________1________1
370
               5
390
0
  6
DASHED
 62
               7
100
AcDbLine
 10
-401.28295102008855
 20
30.154688942095646
 30
0.0
 11
-402.27290051170866
 21
29.16473907198619
 31
0.0
  0
LINE
  5
407
100
AcDbEntity
  8
________1________1
370
               5
390
0
  6
DASHED
 62
               7
100
AcDbLine
 10
-399.7829510182259
 20
28.916820827440091
 30
0.0
 11
-401.18295101822576
 21
28.916820827440091
 31
0.0
  0
LINE
  5
408
100
AcDbEntity
  8
________1________1
370
               5
390
0
  6
DASHED
 62
               7
100
AcDbLine
 10
-399.7829510182259
 20
33.492556758728227
 30
0.0
 11
-401.18295101822576
 21
33.492556758728227
 31
0.0
  0
LINE
  5
409
100
AcDbEntity
  8
________1________1
370
               5
390
0
  6
DASHED
 62
               7
100
AcDbLine
 10
-399.7829510182259
 20
34.892556758728205
 30
0.0
 11
-401.18295101822576
 21
34.892556758728205
 31
0.0
  0
LINE
  5
40A
100
AcDbEntity
  8
________1________1
370
               5
390
0
  6
DASHED
 62
               7
100
AcDbLine
 10
-401.28295102008855
 20
30.154688942095646
 30
0.0
 11
-402.27290051170866
 21
29.16473907198619
 31
0.0
  0
LINE
  5
40B
100
AcDbEntity
  8
________1________1
370
               5
390
0
  6
DASHED
 62
               7
100
AcDbLine
 10
-399.7829510182259
 20
30.316820827440068
 30
0.0
 11
-401.18295101822576
 21
30.316820827440068
 31
0.0
  0
LINE
  5
40C
100
AcDbEntity
  8
________1________1
370
               5
390
0
  6
DASHED
 62
               7
100
AcDbLine
 10
-399.7829510182259
 20
28.916820827440091
 30
0.0
 11
-401.18295101822576
 21
28.916820827440091
 31
0.0
  0
LINE
  5
40D
100
AcDbEntity
  8
________1________1
370
               5
390
0
  6
DASHED
 62
               7
100
AcDbLine
 10
-399.7829510182259
 20
33.492556758728227
 30
0.0
 11
-401.18295101822576
 21
33.492556758728227
 31
0.0
  0
LINE
  5
40E
100
AcDbEntity
  8
________1________1
370
               5
390
0
  6
DASHED
 62
               7
100
AcDbLine
 10
-399.7829510182259
 20
28.916820827440091
 30
0.0
 11
-401.18295101822576
 21
28.916820827440091
 31
0.0
  0
LINE
  5
40F
100
AcDbEntity
  8
________1________1
370
               5
390
0
  6
DASHED
 62
               7
100
AcDbLine
 10
-399.7829510182259
 20
30.316820827440068
 30
0.0
 11
-401.18295101822576
 21
30.316820827440068
 31
0.0
  0
LINE
  5
410
100
AcDbEntity
  8
________1________1
370
               5
390
0
  6
DASHED
 62
               7
100
AcDbLine
 10
-399.7829510182259
 20
30.316820827440068
 30
0.0
 11
-401.18295101822576
 21
30.316820827440068
 31
0.0
  0
LINE
  5
411
100
AcDbEntity
  8
________1________1
370
               5
390
0
  6
DASHED
 62
               7
100
AcDbLine
 10
-399.7829510182259
 20
28.916820827440091
 30
0.0
 11
-401.18295101822576
 21
28.916820827440091
 31
0.0
  0
LINE
  5
412
100
AcDbEntity
  8
________1________1
370
               5
390
0
  6
DASHED
 62
               7
100
AcDbLine
 10
-399.7829510182259
 20
33.492556758728227
 30
0.0
 11
-401.18295101822576
 21
33.492556758728227
 31
0.0
  0
DIMENSION
  5
41F
100
AcDbEntity
  8
寸法線_1
370
               5
390
0
  6
Continuous
 62
               7
100
AcDbDimension
  2
*D42
 10
487.61687961154479
 20
139.88628001310377
 30
0.0
 11
56.826934534755651
 21
139.88628001310377
 31
0.0
 71
               5
 72
               1
 41
1.0
 42
0.0
  3
DS1
100
AcDbAlignedDimension
 13
-373.96301054203349
 23
38.554688818276389
 33
0.0
 14
487.61687961154479
 24
38.554688818276389
 34
0.0
100
AcDbRotatedDimension
  0
MTEXT
  5
420
100
AcDbEntity
  8
____1
370
               5
390
0
  6
Continuous
 62
               7
100
AcDbMText
 10
-61.046788194444538
 20
73.085579554239857
 30
0.0
 40
7.9375
 41
77.213521061545094
 71
               1
 72
               1
  1
12-φ3.5皿φ6.5
  7
Style1
 73
               1
 44
1.0
  0
DIMENSION
  5
42D
100
AcDbEntity
  8
寸法線_1
370
               5
390
0
  6
Continuous
 62
               7
100
AcDbDimension
  2
*D43
 10
-343.96301054203326
 20
-48.899739583333336
 30
0.0
 11
56.826934534755935
 21
-48.899739583333336
 31
0.0
 71
               5
 72
               1
 41
1.0
 42
0.0
  3
DS1
100
AcDbAlignedDimension
 13
457.61687961154513
 23
28.404688818276341
 33
0.0
 14
-343.96301054203326
 24
28.404688818276341
 34
0.0
 50
180.0
100
AcDbRotatedDimension
  0
INSERT
  5
4BD
100
AcDbEntity
  8
____1
370
               5
390
0
  6
Continuous
 62
               7
100
AcDbBlockReference
  2
C39
 10
0.0
 20
0.0
 30
0.0
  0
LINE
  5
4BE
100
AcDbEntity
  8
____1
370
              18
390
0
  6
Continuous
 62
               7
100
AcDbLine
 10
-373.96301054203349
 20
25.404688818276398
 30
0.0
 11
109.21505137433451
 21
25.404688818276398
 31
0.0
  0
LINE
  5
4BF
100
AcDbEntity
  8
____1
370
               5
390
0
  6
DASHED2
 62
               7
100
AcDbLine
 10
-373.96301054203349
 20
27.054688818276375
 30
0.0
 11
108.61182967130969
 21
27.054688818276375
 31
0.0
  0
LINE
  5
4C0
100
AcDbEntity
  8
____1
370
               5
390
0
  6
DASHED2
 62
               7
100
AcDbLine
 10
-373.96301054203349
 20
36.754688818276378
 30
0.0
 11
104.69399029386909
 21
36.754688818276378
 31
0.0
  0
LINE
  5
4C1
100
AcDbEntity
  8
____1
370
              18
390
0
  6
Continuous
 62
               7
100
AcDbLine
 10
-373.96301054203349
 20
38.404688818276384
 30
0.0
 11
104.03360570509642
 21
38.404688818276384
 31
0.0
  0
DIMENSION
  5
4CF
100
AcDbEntity
  8
寸法線_1
370
               5
390
0
  6
Continuous
 62
               7
100
AcDbDimension
  2
*D52
 10
-373.96301054203349
 20
-48.899738057454364
 30
0.0
 11
-358.96301054203349
 21
-48.899738057454364
 31
0.0
 71
               5
 72
               1
 41
1.0
 42
0.0
  3
DS1
100
AcDbAlignedDimension
 13
-343.96301054203326
 23
28.404688818276341
 33
0.0
 14
-373.96301054203349
 24
25.254688818276392
 34
0.0
 50
180.0
100
AcDbRotatedDimension
  0
LINE
  5
4D0
100
AcDbEntity
  8
___G
370
              18
390
0
  6
Continuous
 62
               7
100
AcDbLine
 10
-475.20667478773169
 20
-365.37425994873047
 30
0.0
 11
-475.20667478773169
 21
334.62574005126953
 31
0.0
  0
LINE
  5
4D1
100
AcDbEntity
  8
___G
370
               5
390
0
  6
DOT
 62
               7
100
AcDbLine
 10
-487.65667478773184
 20
-375.94925994873046
 30
0.0
 11
-487.65667478773184
 21
345.20074005126963
 31
0.0
  0
DIMENSION
  5
4DE
100
AcDbEntity
  8
寸法線_1
370
               5
390
0
  6
Continuous
 62
               7
100
AcDbDimension
  2
*D53
 10
347.61687961154524
 20
-13.346354166666686
 30
0.0
 11
410.11687961154502
 21
-13.346354166666686
 31
0.0
 71
               5
 72
               1
 41
1.0
 42
0.0
  3
DS1
100
AcDbAlignedDimension
 13
472.6168796115449
 23
28.074789830954018
 33
0.0
 14
347.61687961154524
 24
26.57478983095406
 34
0.0
 50
179.99999914622634
100
AcDbRotatedDimension
  0
LINE
  5
4DF
100
AcDbEntity
  8
___G
370
              18
390
0
  6
Continuous
 62
               7
100
AcDbLine
 10
524.7933252122682
 20
-365.37425994873047
 30
0.0
 11
524.7933252122682
 21
334.62574005126953
 31
0.0
  0
LINE
  5
4E0
100
AcDbEntity
  8
___G
370
               5
390
0
  6
DOT
 62
               7
100
AcDbLine
 10
537.24332521226825
 20
-375.94925994873046
 30
0.0
 11
537.24332521226825
 21
345.20074005126963
 31
0.0
  0
DIMENSION
  5
4ED
100
AcDbEntity
  8
寸法線_1
370
               5
390
0
  6
Continuous
 62
               7
100
AcDbDimension
  2
*D54
 10
-233.96301054203337
 20
100.44514973958329
 30
0.0
 11
-303.96301054203349
 21
100.44514973958329
 31
0.0
 71
               5
 72
               1
 41
1.0
 42
0.0
  3
DS1
100
AcDbAlignedDimension
 13
-373.96301054203349
 23
38.554688818276389
 33
0.0
 14
-233.96301054203337
 24
37.234587805598707
 34
0.0
100
AcDbRotatedDimension
  0
MTEXT
  5
4EE
100
AcDbEntity
  8
____1
370
               5
390
0
  6
DASHED2
 62
               7
100
AcDbMText
 10
-382.00746398900498
 20
80.092903772989928
 30
0.0
 40
7.9375
 41
149.76590510306005
 71
               1
 72
               1
  1
両端長穴皿加工\P2 - 3.5ｘ8.5（6.5ｘ11.5皿）
  7
Style1
 73
               1
 44
1.0
  0
MTEXT
  5
4EF
100
AcDbEntity
  8
___G
370
               5
390
0
  6
DOT
 62
               7
100
AcDbMText
 10
224.79332521226823
 20
-232.9505099487306
 30
0.0
 40
12.347222566604616
 41
118.75000000000001
 71
               1
 72
               1
  1
A6063SS-T5
  7
Style1
 73
               1
 44
1.0
  0
MTEXT
  5
4F0
100
AcDbEntity
  8
___G
370
              18
390
0
  6
Continuous
 62
               7
100
AcDbMText
 10
224.79332521226823
 20
-299.16627028221916
 30
0.0
 40
8.8194441795349139
 41
62.500000000000014
 71
               1
 72
               1
  1
1：2.5
  7
Style1
 73
               1
 44
1.0
  0
MTEXT
  5
4F1
100
AcDbEntity
  8
___G
370
               5
390
0
  6
Continuous
 62
               7
100
AcDbMText
 10
175.89291755420155
 20
-343.68717661539716
 30
0.0
 40
15.874999761581424
 41
78.113472041377335
 71
               1
 72
               1
  1
株式会社
  7
Style1
 73
               1
 44
1.0
  0
MTEXT
  5
4F2
100
AcDbEntity
  8
___G
370
               5
390
0
  6
DOT
 62
               7
100
AcDbMText
 10
187.29332521226823
 20
-326.64835192297522
 30
0.0
 40
8.8194441795349139
 41
68.750000000000014
 71
               1
 72
               1
  1
園原
  7
Style1
 73
               1
 44
1.0
  0
MTEXT
  5
4F3
100
AcDbEntity
  8
___G
370
               5
390
0
  6
DOT
 62
               7
100
AcDbMText
 10
187.29332521226823
 20
-312.89835192297505
 30
0.0
 40
8.8194441795349139
 41
68.750000000000014
 71
               1
 72
               1
  1
園原
  7
Style1
 73
               1
 44
1.0
  0
LINE
  5
4F4
100
AcDbEntity
  8
___G
370
               5
390
0
  6
Continuous
 62
               7
100
AcDbLine
 10
256.04332521226826
 20
-310.37425994873053
 30
0.0
 11
256.04332521226826
 21
-337.87425994873064
 31
0.0
  0
LINE
  5
4F5
100
AcDbEntity
  8
___G
370
               5
390
0
  6
Continuous
 62
               7
100
AcDbLine
 10
168.5433252122682
 20
-324.12425994873041
 30
0.0
 11
249.79332521226823
 21
-324.12425994873041
 31
0.0
  0
INSERT
  5
585
100
AcDbEntity
  8
____1
370
               5
390
0
  6
Continuous
 62
               7
100
AcDbBlockReference
  2
C47
 10
0.0
 20
0.0
 30
0.0
  0
LINE
  5
586
100
AcDbEntity
  8
____1
370
              18
390
0
  6
Continuous
 62
               7
100
AcDbLine
 10
127.46844753926878
 20
38.404688818276384
 30
0.0
 11
487.61687961154479
 21
38.404688818276384
 31
0.0
  0
DIMENSION
  5
593
100
AcDbEntity
  8
寸法線_1
370
               5
390
0
  6
Continuous
 62
               7
100
AcDbDimension
  2
*D63
 10
-373.96301054203349
 20
-13.34635753242334
 30
0.0
 11
-386.14115668402781
 21
-13.34635753242334
 31
0.0
 71
               5
 72
               1
 41
1.0
 42
0.0
  3
DS1
100
AcDbAlignedDimension
 13
-358.96301054203326
 23
28.074789830954032
 33
0.0
 14
-373.96301054203349
 24
25.254688818276392
 34
0.0
 50
180.0
100
AcDbRotatedDimension
  0
DIMENSION
  5
5A0
100
AcDbEntity
  8
寸法線_1
370
               5
390
0
  6
Continuous
 62
               7
100
AcDbDimension
  2
*D64
 10
-358.96301054203326
 20
-13.34635753242334
 30
0.0
 11
-296.46301054203332
 21
-13.34635753242334
 31
0.0
 71
               5
 72
               1
 41
1.0
 42
0.0
  3
DS1
100
AcDbAlignedDimension
 13
-233.96301054203337
 23
7.7315595665756831
 33
0.0
 14
-358.96301054203326
 24
28.074789830954032
 34
0.0
 50
180.0
100
AcDbRotatedDimension
  0
DIMENSION
  5
5AE
100
AcDbEntity
  8
寸法線_1
370
               5
390
0
  6
Continuous
 62
               7
100
AcDbDimension
  2
*D65
 10
457.61687961154513
 20
-48.899738057454364
 30
0.0
 11
472.6168796115449
 21
-48.899738057454364
 31
0.0
 71
               5
 72
               1
 41
1.0
 42
0.0
  3
DS1
100
AcDbAlignedDimension
 13
487.61687961154479
 23
25.254688818276392
 33
0.0
 14
457.61687961154513
 24
28.404688818276341
 34
0.0
 50
180.0
100
AcDbRotatedDimension
  0
DIMENSION
  5
5BC
100
AcDbEntity
  8
寸法線_1
370
               5
390
0
  6
Continuous
 62
               7
100
AcDbDimension
  2
*D66
 10
472.6168796115449
 20
-13.3463563023912
 30
0.0
 11
480.1168796115449
 21
-13.3463563023912
 31
0.0
 71
               5
 72
               1
 41
1.0
 42
0.0
  3
DS1
100
AcDbAlignedDimension
 13
487.61687961154479
 23
25.254688818276392
 33
0.0
 14
472.6168796115449
 24
28.654688818276384
 34
0.0
 50
179.99999914622634
100
AcDbRotatedDimension
  0
MTEXT
  5
5BD
100
AcDbEntity
  8
___G
370
               5
390
0
  6
DOT
 62
               7
100
AcDbMText
 10
379.7933252122682
 20
-313.41589411099761
 30
0.0
 40
10.583332777023317
 41
145.00000000000003
 71
               1
 72
               1
  1
柱本体 L=1820\PLA-301・LA-302・LA-303
  7
Style1
 73
               1
 44
1.0
  0
MTEXT
  5
5BE
100
AcDbEntity
  8
___G
370
               5
390
0
  6
DOT
 62
               7
100
AcDbMText
 10
224.79332521226823
 20
-268.8255099487306
 30
0.0
 40
10.583332777023317
 41
300.00000000000006
 71
               1
 72
               1
  1
指定無き公差はJIS B0408-Bによること
  7
Style1
 73
               1
 44
1.0
  0
LINE
  5
5BF
100
AcDbEntity
  8
___G
370
               5
390
0
  6
Continuous
 62
               7
100
AcDbLine
 10
162.2933252122682
 20
-310.37425994873053
 30
0.0
 11
524.7933252122682
 21
-310.37425994873053
 31
0.0
  0
MTEXT
  5
5C0
100
AcDbEntity
  8
___G
370
               5
390
0
  6
DOT
 62
               7
100
AcDbMText
 10
224.79332521226823
 20
-251.3255099487306
 30
0.0
 40
10.583332777023317
 41
300.00000000000006
 71
               1
 72
               1
  1
アルマイト仕上げ
  7
Style1
 73
               1
 44
1.0
  0
LINE
  5
5C1
100
AcDbEntity
  8
___G
370
               5
390
0
  6
Continuous
 62
               7
100
AcDbLine
 10
524.7933252122682
 20
-265.37425994873064
 30
0.0
 11
162.2933252122682
 21
-265.37425994873064
 31
0.0
  0
LINE
  5
5C2
100
AcDbEntity
  8
___G
370
               5
390
0
  6
Continuous
 62
               7
100
AcDbLine
 10
524.7933252122682
 20
-282.87425994873058
 30
0.0
 11
162.2933252122682
 21
-282.87425994873058
 31
0.0
  0
LINE
  5
5C3
100
AcDbEntity
  8
___G
370
               5
390
0
  6
Continuous
 62
               7
100
AcDbLine
 10
524.7933252122682
 20
-230.37425994873058
 30
0.0
 11
162.2933252122682
 21
-230.37425994873058
 31
0.0
  0
LINE
  5
5C4
100
AcDbEntity
  8
___G
370
               5
390
0
  6
Continuous
 62
               7
100
AcDbLine
 10
524.7933252122682
 20
-247.87425994873058
 30
0.0
 11
162.2933252122682
 21
-247.87425994873058
 31
0.0
  0
LINE
  5
5C5
100
AcDbEntity
  8
___G
370
               5
390
0
  6
DOT
 62
               7
100
AcDbLine
 10
537.24332521226825
 20
345.20074005126963
 30
0.0
 11
-487.65667478773184
 21
345.20074005126963
 31
0.0
  0
LINE
  5
5C6
100
AcDbEntity
  8
___G
370
               5
390
0
  6
DOT
 62
               7
100
AcDbLine
 10
-487.65667478773184
 20
-375.94925994873046
 30
0.0
 11
537.24332521226825
 21
-375.94925994873046
 31
0.0
  0
LINE
  5
5C7
100
AcDbEntity
  8
___G
370
              18
390
0
  6
Continuous
 62
               7
100
AcDbLine
 10
524.7933252122682
 20
-365.37425994873047
 30
0.0
 11
-475.20667478773169
 21
-365.37425994873047
 31
0.0
  0
LINE
  5
5C8
100
AcDbEntity
  8
___G
370
              18
390
0
  6
Continuous
 62
               7
100
AcDbLine
 10
524.7933252122682
 20
334.62574005126953
 30
0.0
 11
-475.20667478773191
 21
334.62574005126953
 31
0.0
  0
LINE
  5
5C9
100
AcDbEntity
  8
___G
370
               5
390
0
  6
Continuous
 62
               7
100
AcDbLine
 10
162.2933252122682
 20
-337.87425994873053
 30
0.0
 11
524.7933252122682
 21
-337.87425994873053
 31
0.0
  0
MTEXT
  5
5CA
100
AcDbEntity
  8
___G
370
               5
390
0
  6
DOT
 62
               7
100
AcDbMText
 10
406.0433252122682
 20
-232.9505099487306
 30
0.0
 40
12.347222566604616
 41
118.75000000000001
 71
               1
 72
               1
  1
ｼﾙﾊﾞ%%d・ﾎﾜｲﾄ・ﾌﾞﾗｯｸ
  7
Style1
 73
               1
 44
1.0
  0
MTEXT
  5
5CB
100
AcDbEntity
  8
___G
370
               5
390
0
  6
DOT
 62
               7
100
AcDbMText
 10
379.7933252122682
 20
-291.33300994873036
 30
0.0
 40
10.583332777023317
 41
145.00000000000003
 71
               1
 72
               1
  1
リーフ　棚柱
  7
Style1
 73
               1
 44
1.0
  0
LINE
  5
5CC
100
AcDbEntity
  8
___G
370
              18
390
0
  6
Continuous
 62
               7
100
AcDbLine
 10
289.7933252122682
 20
297.12574005126959
 30
0.0
 11
524.79332521226843
 21
297.12574005126959
 31
0.0
  0
LINE
  5
5CD
100
AcDbEntity
  8
___G
370
              18
390
0
  6
Continuous
 62
               7
100
AcDbLine
 10
289.7933252122682
 20
309.62574005126953
 30
0.0
 11
524.79332521226843
 21
309.62574005126953
 31
0.0
  0
MTEXT
  5
5CE
100
AcDbEntity
  8
___G
370
               5
390
0
  6
DOT
 62
               7
100
AcDbMText
 10
474.7933252122682
 20
332.33824005126974
 30
0.0
 40
7.9374998807907122
 41
25.000000000000004
 71
               1
 72
               1
  1
改訂者
  7
Style1
 73
               1
 44
1.0
  0
LINE
  5
5CF
100
AcDbEntity
  8
___G
370
              18
390
0
  6
Continuous
 62
               7
100
AcDbLine
 10
289.7933252122682
 20
322.12574005126953
 30
0.0
 11
524.79332521226843
 21
322.12574005126953
 31
0.0
  0
LINE
  5
5D0
100
AcDbEntity
  8
___G
370
              18
390
0
  6
Continuous
 62
               7
100
AcDbLine
 10
499.79332521226826
 20
297.12574005126959
 30
0.0
 11
499.79332521226826
 21
334.62574005126953
 31
0.0
  0
DIMENSION
  5
5DD
100
AcDbEntity
  8
寸法線_1
370
               5
390
0
  6
Continuous
 62
               7
100
AcDbDimension
  2
*D67
 10
347.61687961154524
 20
100.44515523325327
 30
0.0
 11
56.826934534755935
 21
100.44515523325327
 31
0.0
 71
               5
 72
               1
 41
1.0
 42
0.0
  3
DS1
100
AcDbAlignedDimension
 13
-233.96301054203337
 23
37.234587805598707
 33
0.0
 14
347.61687961154524
 24
37.234587805598721
 34
0.0
100
AcDbRotatedDimension
  0
ENDSEC
  0
SECTION
  2
OBJECTS
  0
DICTIONARY
  5
19
100
AcDbDictionary
280
               0
281
               1
  3
ACAD_GROUP
350
1A
  3
ACAD_MLINESTYLE
350
1B
  3
ACAD_LAYOUT
350
1E
  3
ACAD_PLOTSETTINGS
350
22
  3
ACAD_PLOTSTYLENAME
350
1F
  3
ACAD_WIPEOUT_VARS
350
23
  0
DICTIONARY
  5
1A
102
{ACAD_REACTORS
330
19
102
}
100
AcDbDictionary
280
               0
281
               1
  0
DICTIONARY
  5
1B
102
{ACAD_REACTORS
330
19
102
}
100
AcDbDictionary
280
               0
281
               1
  3
Standard
350
1C
  0
MLINESTYLE
  5
1C
102
{ACAD_REACTORS
330
1B
102
}
100
AcDbMlineStyle
  2
Standard
 70
               0
  3

 62
               0
 51
90.0
 52
90.0
 71
               2
 49
0.5
 62
             256
  6
ByLayer
 49
-0.5
 62
             256
  6
ByLayer
  0
ACDBDICTIONARYWDFLT
  5
1F
102
{ACAD_REACTORS
330
19
102
}
100
AcDbDictionary
281
               1
  3
Normal
350
1D
100
AcDbDictionaryWithDefault
340
1D
  0
ACDBPLACEHOLDER
  5
1D
102
{ACAD_REACTORS
330
1F
102
}
  0
LAYOUT
  5
20
102
{ACAD_REACTORS
330
1E
102
}
100
AcDbPlotSettings
  1

  2

  4

  6

 40
0.0
 41
0.0
 42
0.0
 43
0.0
 44
0.0
 45
0.0
 46
0.0
 47
0.0
 48
0.0
 49
0.0
140
0.0
141
0.0
142
1.0
143
1.0
 70
            1024
 72
               0
 73
               0
 74
               0
  7

 75
               0
147
1.0
148
0.0
149
0.0
100
AcDbLayout
  1
Model
 70
               0
 71
               0
 10
0.0
 20
0.0
 11
0.0
 21
0.0
 12
0.0
 22
0.0
 32
0.0
 14
0.0
 24
0.0
 34
0.0
 15
0.0
 25
0.0
 35
0.0
146
0.0
 13
0.0
 23
0.0
 33
0.0
 16
0.0
 26
0.0
 36
0.0
 17
0.0
 27
0.0
 37
0.0
 76
               0
330
A
331
0
345
0
346
0
  0
LAYOUT
  5
21
102
{ACAD_REACTORS
330
1E
102
}
100
AcDbPlotSettings
  1

  2

  4

  6

 40
0.0
 41
0.0
 42
0.0
 43
0.0
 44
0.0
 45
0.0
 46
0.0
 47
0.0
 48
0.0
 49
0.0
140
0.0
141
0.0
142
1.0
143
1.0
 70
               0
 72
               0
 73
               0
 74
               0
  7

 75
               0
147
1.0
148
0.0
149
0.0
100
AcDbLayout
  1
Layout1
 70
               0
 71
               0
 10
0.0
 20
0.0
 11
0.0
 21
0.0
 12
0.0
 22
0.0
 32
0.0
 14
0.0
 24
0.0
 34
0.0
 15
0.0
 25
0.0
 35
0.0
146
0.0
 13
0.0
 23
0.0
 33
0.0
 16
0.0
 26
0.0
 36
0.0
 17
0.0
 27
0.0
 37
0.0
 76
               0
330
B
331
0
345
0
346
0
  0
DICTIONARY
  5
1E
102
{ACAD_REACTORS
330
19
102
}
100
AcDbDictionary
280
               0
281
               1
  3
Layout1
350
21
  3
Model
350
20
  0
DICTIONARY
  5
22
102
{ACAD_REACTORS
330
19
102
}
100
AcDbDictionary
280
               0
281
               1
  0
WIPEOUTVARIABLES
  5
23
100
AcDbWipeoutVariables
 70
               1
  0
ENDSEC
  0
EOF
