  0
SECTION
  2
HEADER
  9
$ACADVER
  1
AC1015
  9
$ACADMAINTVER
 70
    20
  9
$DWGCODEPAGE
  3
ANSI_932
  9
$INSBASE
 10
0.0
 20
0.0
 30
0.0
  9
$EXTMIN
 10
-187.5407083387563
 20
-942.6057735514369
 30
-0.0015258207003583
  9
$EXTMAX
 10
1862.712990169281
 20
499.7224684210614
 30
0.0000000349246037
  9
$LIMMIN
 10
0.0
 20
0.0
  9
$LIMMAX
 10
0.0
 20
0.0
  9
$ORTHOMODE
 70
     1
  9
$REGENMODE
 70
     1
  9
$FILLMODE
 70
     1
  9
$QTEXTMODE
 70
     0
  9
$MIRRTEXT
 70
     1
  9
$LTSCALE
 40
1.0
  9
$ATTMODE
 70
     1
  9
$TEXTSIZE
 40
0.35
  9
$TRACEWID
 40
0.05
  9
$TEXTSTYLE
  7
Standard
  9
$CLAYER
  8
0
  9
$CELTYPE
  6
Continuous
  9
$CECOLOR
 62
   256
  9
$CELTSCALE
 40
1.0
  9
$DISPSILH
 70
     0
  9
$DIMSCALE
 40
1.0
  9
$DIMASZ
 40
3.0
  9
$DIMEXO
 40
1.0
  9
$DIMDLI
 40
0.38
  9
$DIMRND
 40
0.0
  9
$DIMDLE
 40
0.0
  9
$DIMEXE
 40
0.5
  9
$DIMTP
 40
0.0
  9
$DIMTM
 40
0.0
  9
$DIMTXT
 40
3.527777777777776
  9
$DIMCEN
 40
0.09
  9
$DIMTSZ
 40
0.0
  9
$DIMTOL
 70
     0
  9
$DIMLIM
 70
     0
  9
$DIMTIH
 70
     0
  9
$DIMTOH
 70
     0
  9
$DIMSE1
 70
     0
  9
$DIMSE2
 70
     0
  9
$DIMTAD
 70
     1
  9
$DIMZIN
 70
     0
  9
$DIMBLK
  1

  9
$DIMASO
 70
     1
  9
$DIMSHO
 70
     1
  9
$DIMPOST
  1

  9
$DIMAPOST
  1

  9
$DIMALT
 70
     0
  9
$DIMALTD
 70
     3
  9
$DIMALTF
 40
25.4
  9
$DIMLFAC
 40
1.0
  9
$DIMTOFL
 70
     0
  9
$DIMTVP
 40
0.0
  9
$DIMTIX
 70
     0
  9
$DIMSOXD
 70
     0
  9
$DIMSAH
 70
     0
  9
$DIMBLK1
  1

  9
$DIMBLK2
  1

  9
$DIMSTYLE
  2
Standard
  9
$DIMCLRD
 70
     7
  9
$DIMCLRE
 70
     7
  9
$DIMCLRT
 70
     7
  9
$DIMTFAC
 40
1.0
  9
$DIMGAP
 40
1.0
  9
$DIMJUST
 70
     0
  9
$DIMSD1
 70
     0
  9
$DIMSD2
 70
     0
  9
$DIMTOLJ
 70
     1
  9
$DIMTZIN
 70
     0
  9
$DIMALTZ
 70
     0
  9
$DIMALTTZ
 70
     0
  9
$DIMUPT
 70
     0
  9
$DIMDEC
 70
     3
  9
$DIMTDEC
 70
     4
  9
$DIMALTU
 70
     2
  9
$DIMALTTD
 70
     2
  9
$DIMTXSTY
  7
Standard
  9
$DIMAUNIT
 70
     0
  9
$DIMADEC
 70
     0
  9
$DIMALTRND
 40
0.0
  9
$DIMAZIN
 70
     0
  9
$DIMDSEP
 70
     0
  9
$DIMATFIT
 70
     3
  9
$DIMFRAC
 70
     0
  9
$DIMLDRBLK
  1

  9
$DIMLUNIT
 70
     2
  9
$DIMLWD
 70
     0
  9
$DIMLWE
 70
     0
  9
$DIMTMOVE
 70
     0
  9
$LUNITS
 70
     2
  9
$LUPREC
 70
     4
  9
$SKETCHINC
 40
0.1
  9
$FILLETRAD
 40
0.0
  9
$AUNITS
 70
     0
  9
$AUPREC
 70
     0
  9
$MENU
  1
acad
  9
$ELEVATION
 40
0.0
  9
$PELEVATION
 40
0.0
  9
$THICKNESS
 40
0.0
  9
$LIMCHECK
 70
     0
  9
$CHAMFERA
 40
0.0
  9
$CHAMFERB
 40
0.0
  9
$CHAMFERC
 40
0.0
  9
$CHAMFERD
 40
0.0
  9
$SKPOLY
 70
     0
  9
$TDCREATE
 40
2456937.953252315
  9
$TDUCREATE
 40
2456937.578252315
  9
$TDUPDATE
 40
2456937.600346134
  9
$TDUUPDATE
 40
2456937.225346134
  9
$TDINDWG
 40
0.0082590046
  9
$TDUSRTIMER
 40
0.0082588194
  9
$USRTIMER
 70
     1
  9
$ANGBASE
 50
0.0
  9
$ANGDIR
 70
     0
  9
$PDMODE
 70
     0
  9
$PDSIZE
 40
0.0
  9
$PLINEWID
 40
0.0
  9
$SPLFRAME
 70
     0
  9
$SPLINETYPE
 70
     6
  9
$SPLINESEGS
 70
     8
  9
$HANDSEED
  5
4DD
  9
$SURFTAB1
 70
     6
  9
$SURFTAB2
 70
     6
  9
$SURFTYPE
 70
     6
  9
$SURFU
 70
     6
  9
$SURFV
 70
     6
  9
$UCSBASE
  2

  9
$UCSNAME
  2

  9
$UCSORG
 10
0.0
 20
0.0
 30
0.0
  9
$UCSXDIR
 10
1.0
 20
0.0
 30
0.0
  9
$UCSYDIR
 10
0.0
 20
1.0
 30
0.0
  9
$UCSORTHOREF
  2

  9
$UCSORTHOVIEW
 70
     0
  9
$UCSORGTOP
 10
0.0
 20
0.0
 30
0.0
  9
$UCSORGBOTTOM
 10
0.0
 20
0.0
 30
0.0
  9
$UCSORGLEFT
 10
0.0
 20
0.0
 30
0.0
  9
$UCSORGRIGHT
 10
0.0
 20
0.0
 30
0.0
  9
$UCSORGFRONT
 10
0.0
 20
0.0
 30
0.0
  9
$UCSORGBACK
 10
0.0
 20
0.0
 30
0.0
  9
$PUCSBASE
  2

  9
$PUCSNAME
  2

  9
$PUCSORG
 10
0.0
 20
0.0
 30
0.0
  9
$PUCSXDIR
 10
1.0
 20
0.0
 30
0.0
  9
$PUCSYDIR
 10
0.0
 20
1.0
 30
0.0
  9
$PUCSORTHOREF
  2

  9
$PUCSORTHOVIEW
 70
     0
  9
$PUCSORGTOP
 10
0.0
 20
0.0
 30
0.0
  9
$PUCSORGBOTTOM
 10
0.0
 20
0.0
 30
0.0
  9
$PUCSORGLEFT
 10
0.0
 20
0.0
 30
0.0
  9
$PUCSORGRIGHT
 10
0.0
 20
0.0
 30
0.0
  9
$PUCSORGFRONT
 10
0.0
 20
0.0
 30
0.0
  9
$PUCSORGBACK
 10
0.0
 20
0.0
 30
0.0
  9
$USERI1
 70
     0
  9
$USERI2
 70
     0
  9
$USERI3
 70
     0
  9
$USERI4
 70
     0
  9
$USERI5
 70
     0
  9
$USERR1
 40
0.0
  9
$USERR2
 40
0.0
  9
$USERR3
 40
0.0
  9
$USERR4
 40
0.0
  9
$USERR5
 40
0.0
  9
$WORLDVIEW
 70
     1
  9
$SHADEDGE
 70
     3
  9
$SHADEDIF
 70
    70
  9
$TILEMODE
 70
     1
  9
$MAXACTVP
 70
    16
  9
$PINSBASE
 10
0.0
 20
0.0
 30
0.0
  9
$PLIMCHECK
 70
     0
  9
$PEXTMIN
 10
1.000000000000000E+20
 20
1.000000000000000E+20
 30
1.000000000000000E+20
  9
$PEXTMAX
 10
-1.000000000000000E+20
 20
-1.000000000000000E+20
 30
-1.000000000000000E+20
  9
$PLIMMIN
 10
0.0
 20
0.0
  9
$PLIMMAX
 10
12.0
 20
9.0
  9
$UNITMODE
 70
     0
  9
$VISRETAIN
 70
     0
  9
$PLINEGEN
 70
     1
  9
$PSLTSCALE
 70
     0
  9
$TREEDEPTH
 70
  3020
  9
$CMLSTYLE
  2
Standard
  9
$CMLJUST
 70
     0
  9
$CMLSCALE
 40
1.0
  9
$PROXYGRAPHICS
 70
     0
  9
$MEASUREMENT
 70
     0
  9
$CELWEIGHT
370
     0
  9
$ENDCAPS
280
     0
  9
$JOINSTYLE
280
     0
  9
$LWDISPLAY
290
     0
  9
$INSUNITS
 70
     0
  9
$HYPERLINKBASE
  1

  9
$STYLESHEET
  1

  9
$XEDIT
290
     1
  9
$CEPSNTYPE
380
     0
  9
$PSTYLEMODE
290
     1
  9
$FINGERPRINTGUID
  2

  9
$VERSIONGUID
  2
{D4BE1C82-54DC-41EC-896A-41DFF331C847}
  9
$EXTNAMES
290
     1
  9
$PSVPSCALE
 40
0.0
  9
$OLESTARTUP
290
     0
  0
ENDSEC
  0
SECTION
  2
CLASSES
  0
CLASS
  1
IMAGE
  2
AcDbRasterImage
  3
ISM
 90
    32895
280
     0
281
     1
  0
CLASS
  1
DICTIONARYVAR
  2
AcDbDictionaryVar
  3
ObjectDBX Classes
 90
        0
280
     0
281
     0
  0
CLASS
  1
RASTERVARIABLES
  2
AcDbRasterVariables
  3
ISM
 90
    32768
280
     0
281
     0
  0
CLASS
  1
IMAGEDEF
  2
AcDbRasterImageDef
  3
ISM
 90
    32768
280
     0
281
     0
  0
CLASS
  1
IMAGEDEF_REACTOR
  2
AcDbRasterImageDefReactor
  3
ISM
 90
    32769
280
     0
281
     0
  0
CLASS
  1
IDBUFFER
  2
AcDbIdBuffer
  3
ObjectDBX Classes
 90
    32768
280
     0
281
     0
  0
CLASS
  1
SPATIAL_FILTER
  2
AcDbSpatialFilter
  3
ObjectDBX Classes
 90
    32768
280
     0
281
     0
  0
CLASS
  1
SORTENTSTABLE
  2
AcDbSortentsTable
  3
ObjectDBX Classes
 90
    32768
280
     0
281
     0
  0
CLASS
  1
LAYER_INDEX
  2
AcDbLayerIndex
  3
ObjectDBX Classes
 90
    32768
280
     0
281
     0
  0
CLASS
  1
SPATIAL_INDEX
  2
AcDbSpatialIndex
  3
ObjectDBX Classes
 90
    32768
280
     0
281
     0
  0
CLASS
  1
OBJECT_PTR
  2
CAseDLPNTableRecord
  3
ASE-LPNTableRecord
 90
    32769
280
     0
281
     0
  0
CLASS
  1
LAYOUT
  2
AcDbLayout
  3
ObjectDBX Classes
 90
        0
280
     0
281
     0
  0
CLASS
  1
PLOTSETTINGS
  2
AcDbPlotSettings
  3
ObjectDBX Classes
 90
    32768
280
     0
281
     0
  0
CLASS
  1
ACDBDICTIONARYWDFLT
  2
AcDbDictionaryWithDefault
  3
ObjectDBX Classes
 90
        0
280
     0
281
     0
  0
CLASS
  1
ACDBPLACEHOLDER
  2
AcDbPlaceHolder
  3
ObjectDBX Classes
 90
        0
280
     0
281
     0
  0
CLASS
  1
VBA_PROJECT
  2
AcDbVbaProject
  3
acad
 90
    32768
280
     0
281
     0
  0
CLASS
  1
WIPEOUT
  2
AcDbWipeout
  3
"WipeOut|Product Desc: Object Enabler for WipeOut entity^I^I^I^I^I^I|Company: Autodesk, Inc.^I^I^I^I^I^I|WEB Address: www.autodesk.com"
 90
    32895
280
     0
281
     1
  0
CLASS
  1
WIPEOUTVARIABLES
  2
AcDbWipeoutVariables
  3
"WipeOut|Product Desc:     WipeOut Dbx Application|Company:          Autodesk, Inc.|WEB Address:      www.autodesk.com"
 90
        0
280
     0
281
     0
  0
CLASS
  1
RTEXT
  2
RText
  3
RText|AutoCAD Express Tool|expresstools@autodesk.com
 90
    32768
280
     0
281
     1
  0
CLASS
  1
ARCALIGNEDTEXT
  2
AcDbArcAlignedText
  3
ATEXT|AutoCAD Express Tool|expresstools@autodesk.com
 90
    32768
280
     0
281
     1
  0
ENDSEC
  0
SECTION
  2
TABLES
  0
TABLE
  2
VPORT
  5
7
330
0
100
AcDbSymbolTable
 70
     2
  0
VPORT
  5
4D5
330
7
100
AcDbSymbolTableRecord
100
AcDbViewportTableRecord
  2
*Active
 70
     0
 10
0.0
 20
0.0
 11
1.0
 21
1.0
 12
837.5861409152621
 22
-221.4416525651877
 13
0.0
 23
0.0
 14
1.0
 24
1.0
 15
0.0
 25
0.0
 16
0.0
 26
0.0
 36
1.0
 17
0.0
 27
0.0
 37
0.0
 40
1455.322190098376
 41
2.530827067669172
 42
50.0
 43
0.0
 44
0.0
 50
0.0
 51
0.0
 71
     0
 72
   100
 73
     1
 74
     1
 75
     0
 76
     0
 77
     0
 78
     0
281
     0
 65
     0
110
0.0
120
0.0
130
0.0
111
1.0
121
0.0
131
0.0
112
0.0
122
1.0
132
0.0
 79
     0
146
0.0
  0
ENDTAB
  0
TABLE
  2
LTYPE
  5
4
330
0
100
AcDbSymbolTable
 70
    11
  0
LTYPE
  5
11
330
4
100
AcDbSymbolTableRecord
100
AcDbLinetypeTableRecord
  2
ByBlock
 70
     0
  3

 72
    65
 73
     0
 40
0.0
  0
LTYPE
  5
12
330
4
100
AcDbSymbolTableRecord
100
AcDbLinetypeTableRecord
  2
ByLayer
 70
     0
  3

 72
    65
 73
     0
 40
0.0
  0
LTYPE
  5
13
330
4
100
AcDbSymbolTableRecord
100
AcDbLinetypeTableRecord
  2
Continuous
 70
     0
  3
Solid line
 72
    65
 73
     0
 40
0.0
  0
LTYPE
  5
24
330
4
100
AcDbSymbolTableRecord
100
AcDbLinetypeTableRecord
  2
DOT
 70
     0
  3

 72
    65
 73
     2
 40
1.0
 49
0.0
 74
     0
 49
-1.0
 74
     0
  0
LTYPE
  5
25
330
4
100
AcDbSymbolTableRecord
100
AcDbLinetypeTableRecord
  2
DASHEDX2
 70
     0
  3

 72
    65
 73
     2
 40
4.0
 49
3.0
 74
     0
 49
-1.0
 74
     0
  0
LTYPE
  5
26
330
4
100
AcDbSymbolTableRecord
100
AcDbLinetypeTableRecord
  2
DASHED
 70
     0
  3

 72
    65
 73
     2
 40
3.0
 49
2.0
 74
     0
 49
-1.0
 74
     0
  0
LTYPE
  5
27
330
4
100
AcDbSymbolTableRecord
100
AcDbLinetypeTableRecord
  2
DASHED2
 70
     0
  3

 72
    65
 73
     2
 40
2.0
 49
1.0
 74
     0
 49
-1.0
 74
     0
  0
LTYPE
  5
28
330
4
100
AcDbSymbolTableRecord
100
AcDbLinetypeTableRecord
  2
CENTERX2
 70
     0
  3

 72
    65
 73
     4
 40
43.0
 49
40.0
 74
     0
 49
-1.0
 74
     0
 49
1.0
 74
     0
 49
-1.0
 74
     0
  0
LTYPE
  5
29
330
4
100
AcDbSymbolTableRecord
100
AcDbLinetypeTableRecord
  2
CENTER
 70
     0
  3

 72
    65
 73
     4
 40
33.0
 49
30.0
 74
     0
 49
-1.0
 74
     0
 49
1.0
 74
     0
 49
-1.0
 74
     0
  0
LTYPE
  5
2A
330
4
100
AcDbSymbolTableRecord
100
AcDbLinetypeTableRecord
  2
CENTER2
 70
     0
  3

 72
    65
 73
     4
 40
23.0
 49
20.0
 74
     0
 49
-1.0
 74
     0
 49
1.0
 74
     0
 49
-1.0
 74
     0
  0
LTYPE
  5
2B
330
4
100
AcDbSymbolTableRecord
100
AcDbLinetypeTableRecord
  2
PHANTOMX2
 70
     0
  3

 72
    65
 73
     6
 40
45.0
 49
40.0
 74
     0
 49
-1.0
 74
     0
 49
1.0
 74
     0
 49
-1.0
 74
     0
 49
1.0
 74
     0
 49
-1.0
 74
     0
  0
LTYPE
  5
2C
330
4
100
AcDbSymbolTableRecord
100
AcDbLinetypeTableRecord
  2
PHANTOM
 70
     0
  3

 72
    65
 73
     6
 40
35.0
 49
30.0
 74
     0
 49
-1.0
 74
     0
 49
1.0
 74
     0
 49
-1.0
 74
     0
 49
1.0
 74
     0
 49
-1.0
 74
     0
  0
LTYPE
  5
2D
330
4
100
AcDbSymbolTableRecord
100
AcDbLinetypeTableRecord
  2
PHANTOM2
 70
     0
  3

 72
    65
 73
     6
 40
25.0
 49
20.0
 74
     0
 49
-1.0
 74
     0
 49
1.0
 74
     0
 49
-1.0
 74
     0
 49
1.0
 74
     0
 49
-1.0
 74
     0
  0
ENDTAB
  0
TABLE
  2
LAYER
  5
2
330
0
100
AcDbSymbolTable
 70
    13
  0
LAYER
  5
14
330
2
100
AcDbSymbolTableRecord
100
AcDbLayerTableRecord
  2
0
 70
     0
 62
     7
  6
Continuous
370
    -3
390
1D
  0
LAYER
  5
2E
330
2
100
AcDbSymbolTableRecord
100
AcDbLayerTableRecord
  2
DEFPOINTS
 70
     0
 62
     7
  6
Continuous
290
     0
370
    -3
390
1D
  0
LAYER
  5
2F
330
2
100
AcDbSymbolTableRecord
100
AcDbLayerTableRecord
  2
____1
 70
     0
 62
     7
  6
Continuous
370
    -3
390
1D
  0
LAYER
  5
30
330
2
100
AcDbSymbolTableRecord
100
AcDbLayerTableRecord
  2
______
 70
     0
 62
     7
  6
Continuous
370
    -3
390
1D
  0
LAYER
  5
31
330
2
100
AcDbSymbolTableRecord
100
AcDbLayerTableRecord
  2
寸法線_1
 70
     0
 62
     7
  6
Continuous
370
    -3
390
1D
  0
LAYER
  5
32
330
2
100
AcDbSymbolTableRecord
100
AcDbLayerTableRecord
  2
CONSTRUCTION
 70
     0
 62
     7
  6
Continuous
370
    -3
390
1D
  0
LAYER
  5
33
330
2
100
AcDbSymbolTableRecord
100
AcDbLayerTableRecord
  2
DIMENSION
 70
     0
 62
     7
  6
Continuous
370
    -3
390
1D
  0
LAYER
  5
34
330
2
100
AcDbSymbolTableRecord
100
AcDbLayerTableRecord
  2
FORMAT
 70
     0
 62
     7
  6
Continuous
370
    -3
390
1D
  0
LAYER
  5
35
330
2
100
AcDbSymbolTableRecord
100
AcDbLayerTableRecord
  2
____2
 70
     0
 62
     5
  6
Continuous
370
    -3
390
1D
  0
LAYER
  5
36
330
2
100
AcDbSymbolTableRecord
100
AcDbLayerTableRecord
  2
0_1
 70
     0
 62
     5
  6
Continuous
370
    -3
390
1D
  0
LAYER
  5
37
330
2
100
AcDbSymbolTableRecord
100
AcDbLayerTableRecord
  2
DEFPOINTS_1
 70
     0
 62
     5
  6
Continuous
370
    -3
390
1D
  0
LAYER
  5
38
330
2
100
AcDbSymbolTableRecord
100
AcDbLayerTableRecord
  2
____
 70
     0
 62
    -7
  6
DOT
370
    -3
390
1D
  0
LAYER
  5
39
330
2
100
AcDbSymbolTableRecord
100
AcDbLayerTableRecord
  2
___G
 70
     0
 62
     7
  6
DOT
370
    -3
390
1D
  0
ENDTAB
  0
TABLE
  2
STYLE
  5
3
330
0
100
AcDbSymbolTable
 70
     2
  0
STYLE
  5
17
330
3
100
AcDbSymbolTableRecord
100
AcDbTextStyleTableRecord
  2
Standard
 70
     0
 40
0.0
 41
1.0
 50
0.0
 71
     0
 42
0.35
  3
txt
  4

  0
STYLE
  5
91
330
3
100
AcDbSymbolTableRecord
100
AcDbTextStyleTableRecord
  2
Style1
 70
     0
 40
0.0
 41
1.0
 50
0.0
 71
     0
 42
0.35
  3
ＭＳ ゴシック
  4

  0
ENDTAB
  0
TABLE
  2
VIEW
  5
5
330
0
100
AcDbSymbolTable
 70
     0
  0
ENDTAB
  0
TABLE
  2
UCS
  5
6
330
0
100
AcDbSymbolTable
 70
     0
  0
ENDTAB
  0
TABLE
  2
APPID
  5
8
330
0
100
AcDbSymbolTable
 70
     2
  0
APPID
  5
16
330
8
100
AcDbSymbolTableRecord
100
AcDbRegAppTableRecord
  2
ACAD
 70
     0
  0
APPID
  5
4BF
330
8
100
AcDbSymbolTableRecord
100
AcDbRegAppTableRecord
  2
DCO15
 70
     0
  0
ENDTAB
  0
TABLE
  2
DIMSTYLE
  5
9
330
0
100
AcDbSymbolTable
 70
     2
100
AcDbDimStyleTable
 71
     0
  0
DIMSTYLE
105
18
330
9
100
AcDbSymbolTableRecord
100
AcDbDimStyleTableRecord
  2
Standard
 70
     0
 41
3.0
 42
1.0
 44
0.5
 73
     0
 74
     0
 77
     1
140
3.527777777777776
147
1.0
171
     3
176
     7
177
     7
178
     7
271
     3
289
     0
340
17
  0
DIMSTYLE
105
94
102
{ACAD_REACTORS
330
93
330
A1
330
AE
330
BB
330
C8
330
D7
330
E5
330
1B9
330
1C6
330
1D3
330
1E0
330
1EE
330
1FC
330
209
330
216
102
}
330
9
100
AcDbSymbolTableRecord
100
AcDbDimStyleTableRecord
  2
DS1
 70
     0
 41
3.0
 42
1.0
 44
0.5
 73
     0
 74
     0
 77
     1
 78
     8
140
17.63888931274414
147
1.0
171
     3
176
     7
177
     7
178
     7
271
     3
340
17
  0
ENDTAB
  0
TABLE
  2
BLOCK_RECORD
  5
1
330
0
100
AcDbSymbolTable
 70
    56
  0
BLOCK_RECORD
  5
A
330
1
100
AcDbSymbolTableRecord
100
AcDbBlockTableRecord
  2
*MODEL_SPACE
340
20
  0
BLOCK_RECORD
  5
B
330
1
100
AcDbSymbolTableRecord
100
AcDbBlockTableRecord
  2
*PAPER_SPACE
340
21
  0
BLOCK_RECORD
  5
3E
330
1
100
AcDbSymbolTableRecord
100
AcDbBlockTableRecord
  2
C0
340
0
102
{BLKREFS
331
45
102
}
  0
BLOCK_RECORD
  5
46
330
1
100
AcDbSymbolTableRecord
100
AcDbBlockTableRecord
  2
C1
340
0
102
{BLKREFS
331
4D
102
}
  0
BLOCK_RECORD
  5
54
330
1
100
AcDbSymbolTableRecord
100
AcDbBlockTableRecord
  2
C2
340
0
102
{BLKREFS
331
5B
102
}
  0
BLOCK_RECORD
  5
5E
330
1
100
AcDbSymbolTableRecord
100
AcDbBlockTableRecord
  2
C3
340
0
102
{BLKREFS
331
65
102
}
  0
BLOCK_RECORD
  5
66
330
1
100
AcDbSymbolTableRecord
100
AcDbBlockTableRecord
  2
C4
340
0
102
{BLKREFS
331
6D
102
}
  0
BLOCK_RECORD
  5
6E
330
1
100
AcDbSymbolTableRecord
100
AcDbBlockTableRecord
  2
C5
340
0
102
{BLKREFS
331
75
102
}
  0
BLOCK_RECORD
  5
76
330
1
100
AcDbSymbolTableRecord
100
AcDbBlockTableRecord
  2
C6
340
0
102
{BLKREFS
331
7D
102
}
  0
BLOCK_RECORD
  5
7E
330
1
100
AcDbSymbolTableRecord
100
AcDbBlockTableRecord
  2
C7
340
0
102
{BLKREFS
331
85
102
}
  0
BLOCK_RECORD
  5
86
330
1
100
AcDbSymbolTableRecord
100
AcDbBlockTableRecord
  2
*D8
340
0
  0
BLOCK_RECORD
  5
95
330
1
100
AcDbSymbolTableRecord
100
AcDbBlockTableRecord
  2
*D9
340
0
  0
BLOCK_RECORD
  5
A2
330
1
100
AcDbSymbolTableRecord
100
AcDbBlockTableRecord
  2
*D10
340
0
  0
BLOCK_RECORD
  5
AF
330
1
100
AcDbSymbolTableRecord
100
AcDbBlockTableRecord
  2
*D11
340
0
  0
BLOCK_RECORD
  5
BC
330
1
100
AcDbSymbolTableRecord
100
AcDbBlockTableRecord
  2
*D12
340
0
  0
BLOCK_RECORD
  5
C9
330
1
100
AcDbSymbolTableRecord
100
AcDbBlockTableRecord
  2
*D13
340
0
  0
BLOCK_RECORD
  5
D8
330
1
100
AcDbSymbolTableRecord
100
AcDbBlockTableRecord
  2
*D14
340
0
  0
BLOCK_RECORD
  5
F1
330
1
100
AcDbSymbolTableRecord
100
AcDbBlockTableRecord
  2
C8
340
0
  0
BLOCK_RECORD
  5
1AD
330
1
100
AcDbSymbolTableRecord
100
AcDbBlockTableRecord
  2
*D16
340
0
  0
BLOCK_RECORD
  5
1BA
330
1
100
AcDbSymbolTableRecord
100
AcDbBlockTableRecord
  2
*D17
340
0
  0
BLOCK_RECORD
  5
1C7
330
1
100
AcDbSymbolTableRecord
100
AcDbBlockTableRecord
  2
*D18
340
0
  0
BLOCK_RECORD
  5
1D4
330
1
100
AcDbSymbolTableRecord
100
AcDbBlockTableRecord
  2
*D19
340
0
  0
BLOCK_RECORD
  5
1E1
330
1
100
AcDbSymbolTableRecord
100
AcDbBlockTableRecord
  2
*D20
340
0
  0
BLOCK_RECORD
  5
1EF
330
1
100
AcDbSymbolTableRecord
100
AcDbBlockTableRecord
  2
*D21
340
0
  0
BLOCK_RECORD
  5
1FD
330
1
100
AcDbSymbolTableRecord
100
AcDbBlockTableRecord
  2
*D22
340
0
  0
BLOCK_RECORD
  5
20A
330
1
100
AcDbSymbolTableRecord
100
AcDbBlockTableRecord
  2
*D23
340
0
  0
BLOCK_RECORD
  5
23D
330
1
100
AcDbSymbolTableRecord
100
AcDbBlockTableRecord
  2
C9
340
0
102
{BLKREFS
331
244
102
}
  0
BLOCK_RECORD
  5
245
330
1
100
AcDbSymbolTableRecord
100
AcDbBlockTableRecord
  2
C10
340
0
102
{BLKREFS
331
24C
102
}
  0
BLOCK_RECORD
  5
265
330
1
100
AcDbSymbolTableRecord
100
AcDbBlockTableRecord
  2
C11
340
0
102
{BLKREFS
331
26C
102
}
  0
BLOCK_RECORD
  5
26D
330
1
100
AcDbSymbolTableRecord
100
AcDbBlockTableRecord
  2
C12
340
0
102
{BLKREFS
331
274
102
}
  0
BLOCK_RECORD
  5
275
330
1
100
AcDbSymbolTableRecord
100
AcDbBlockTableRecord
  2
C13
340
0
102
{BLKREFS
331
27C
102
}
  0
BLOCK_RECORD
  5
27D
330
1
100
AcDbSymbolTableRecord
100
AcDbBlockTableRecord
  2
C14
340
0
102
{BLKREFS
331
284
102
}
  0
BLOCK_RECORD
  5
285
330
1
100
AcDbSymbolTableRecord
100
AcDbBlockTableRecord
  2
C15
340
0
102
{BLKREFS
331
28C
102
}
  0
BLOCK_RECORD
  5
28D
330
1
100
AcDbSymbolTableRecord
100
AcDbBlockTableRecord
  2
C16
340
0
102
{BLKREFS
331
294
102
}
  0
BLOCK_RECORD
  5
295
330
1
100
AcDbSymbolTableRecord
100
AcDbBlockTableRecord
  2
C17
340
0
102
{BLKREFS
331
29C
102
}
  0
BLOCK_RECORD
  5
29D
330
1
100
AcDbSymbolTableRecord
100
AcDbBlockTableRecord
  2
C18
340
0
102
{BLKREFS
331
2A4
102
}
  0
BLOCK_RECORD
  5
2A5
330
1
100
AcDbSymbolTableRecord
100
AcDbBlockTableRecord
  2
C19
340
0
102
{BLKREFS
331
2AC
102
}
  0
BLOCK_RECORD
  5
2AD
330
1
100
AcDbSymbolTableRecord
100
AcDbBlockTableRecord
  2
C20
340
0
102
{BLKREFS
331
2B4
102
}
  0
BLOCK_RECORD
  5
2B5
330
1
100
AcDbSymbolTableRecord
100
AcDbBlockTableRecord
  2
C21
340
0
102
{BLKREFS
331
2BC
102
}
  0
BLOCK_RECORD
  5
2BD
330
1
100
AcDbSymbolTableRecord
100
AcDbBlockTableRecord
  2
C22
340
0
102
{BLKREFS
331
2C4
102
}
  0
BLOCK_RECORD
  5
2C6
330
1
100
AcDbSymbolTableRecord
100
AcDbBlockTableRecord
  2
C23
340
0
102
{BLKREFS
331
2CD
102
}
  0
BLOCK_RECORD
  5
2CE
330
1
100
AcDbSymbolTableRecord
100
AcDbBlockTableRecord
  2
C24
340
0
102
{BLKREFS
331
2D5
102
}
  0
BLOCK_RECORD
  5
2D6
330
1
100
AcDbSymbolTableRecord
100
AcDbBlockTableRecord
  2
C25
340
0
102
{BLKREFS
331
2DD
102
}
  0
BLOCK_RECORD
  5
2DE
330
1
100
AcDbSymbolTableRecord
100
AcDbBlockTableRecord
  2
C26
340
0
102
{BLKREFS
331
2E5
102
}
  0
BLOCK_RECORD
  5
2E6
330
1
100
AcDbSymbolTableRecord
100
AcDbBlockTableRecord
  2
C27
340
0
102
{BLKREFS
331
2ED
102
}
  0
BLOCK_RECORD
  5
2EE
330
1
100
AcDbSymbolTableRecord
100
AcDbBlockTableRecord
  2
C28
340
0
102
{BLKREFS
331
2F5
102
}
  0
BLOCK_RECORD
  5
2F6
330
1
100
AcDbSymbolTableRecord
100
AcDbBlockTableRecord
  2
C29
340
0
102
{BLKREFS
331
2FD
102
}
  0
BLOCK_RECORD
  5
2FE
330
1
100
AcDbSymbolTableRecord
100
AcDbBlockTableRecord
  2
C30
340
0
102
{BLKREFS
331
305
102
}
  0
BLOCK_RECORD
  5
306
330
1
100
AcDbSymbolTableRecord
100
AcDbBlockTableRecord
  2
C31
340
0
102
{BLKREFS
331
30D
102
}
  0
BLOCK_RECORD
  5
30E
330
1
100
AcDbSymbolTableRecord
100
AcDbBlockTableRecord
  2
C32
340
0
102
{BLKREFS
331
315
102
}
  0
BLOCK_RECORD
  5
316
330
1
100
AcDbSymbolTableRecord
100
AcDbBlockTableRecord
  2
C33
340
0
102
{BLKREFS
331
31D
102
}
  0
BLOCK_RECORD
  5
31E
330
1
100
AcDbSymbolTableRecord
100
AcDbBlockTableRecord
  2
C34
340
0
102
{BLKREFS
331
325
102
}
  0
BLOCK_RECORD
  5
326
330
1
100
AcDbSymbolTableRecord
100
AcDbBlockTableRecord
  2
C35
340
0
102
{BLKREFS
331
32D
102
}
  0
BLOCK_RECORD
  5
32E
330
1
100
AcDbSymbolTableRecord
100
AcDbBlockTableRecord
  2
C36
340
0
102
{BLKREFS
331
335
102
}
  0
BLOCK_RECORD
  5
339
330
1
100
AcDbSymbolTableRecord
100
AcDbBlockTableRecord
  2
C37
340
0
102
{BLKREFS
331
340
102
}
  0
BLOCK_RECORD
  5
341
330
1
100
AcDbSymbolTableRecord
100
AcDbBlockTableRecord
  2
C38
340
0
102
{BLKREFS
331
348
102
}
  0
BLOCK_RECORD
  5
349
330
1
100
AcDbSymbolTableRecord
100
AcDbBlockTableRecord
  2
C39
340
0
102
{BLKREFS
331
350
102
}
  0
BLOCK_RECORD
  5
354
330
1
100
AcDbSymbolTableRecord
100
AcDbBlockTableRecord
  2
C40
340
0
102
{BLKREFS
331
35B
102
}
  0
ENDTAB
  0
ENDSEC
  0
SECTION
  2
BLOCKS
  0
BLOCK
  5
D
330
A
100
AcDbEntity
  8
0
100
AcDbBlockBegin
  2
*MODEL_SPACE
 70
     0
 10
0.0
 20
0.0
 30
0.0
  3
*MODEL_SPACE
  1

  0
ENDBLK
  5
E
330
A
100
AcDbEntity
  8
0
100
AcDbBlockEnd
  0
BLOCK
  5
F
330
B
100
AcDbEntity
 67
     1
  8
0
100
AcDbBlockBegin
  2
*PAPER_SPACE
 70
     0
 10
0.0
 20
0.0
 30
0.0
  3
*PAPER_SPACE
  1

  0
ENDBLK
  5
10
330
B
100
AcDbEntity
 67
     1
  8
0
100
AcDbBlockEnd
  0
BLOCK
  5
3F
330
3E
100
AcDbEntity
  8
0
100
AcDbBlockBegin
  2
C0
 70
     0
 10
0.0
 20
0.0
 30
0.0
  3
C0
  1

  0
LINE
  5
40
330
3E
100
AcDbEntity
  8
____1
  6
Continuous
 62
     5
370
    18
100
AcDbLine
 10
130.1674926859355
 20
16.27254387096441
 30
0.0
 11
130.1674926859355
 21
32.27254387096432
 31
0.0
  0
LINE
  5
41
330
3E
100
AcDbEntity
  8
____1
  6
Continuous
 62
     5
370
    18
100
AcDbLine
 10
125.1674926859354
 20
16.27254387096441
 30
0.0
 11
125.1674926859354
 21
32.27254387096432
 31
0.0
  0
LINE
  5
42
330
3E
100
AcDbEntity
  8
____1
  6
Continuous
 62
     5
370
    18
100
AcDbLine
 10
125.1674926859354
 20
16.27254387096441
 30
0.0
 11
130.1674926859355
 21
16.27254387096441
 31
0.0
  0
LINE
  5
43
330
3E
100
AcDbEntity
  8
____1
  6
Continuous
 62
     5
370
    18
100
AcDbLine
 10
125.1674926859354
 20
32.27254387096432
 30
0.0
 11
130.1674926859355
 21
32.27254387096432
 31
0.0
  0
ENDBLK
  5
44
330
3E
100
AcDbEntity
  8
0
100
AcDbBlockEnd
  0
BLOCK
  5
47
330
46
100
AcDbEntity
  8
0
100
AcDbBlockBegin
  2
C1
 70
     0
 10
0.0
 20
0.0
 30
0.0
  3
C1
  1

  0
LINE
  5
48
330
46
100
AcDbEntity
  8
____1
  6
Continuous
 62
     5
370
    18
100
AcDbLine
 10
90.16749268593548
 20
16.27254387096441
 30
0.0
 11
90.16749268593548
 21
32.27254387096432
 31
0.0
  0
LINE
  5
49
330
46
100
AcDbEntity
  8
____1
  6
Continuous
 62
     5
370
    18
100
AcDbLine
 10
85.16749268593548
 20
16.27254387096441
 30
0.0
 11
85.16749268593548
 21
32.27254387096432
 31
0.0
  0
LINE
  5
4A
330
46
100
AcDbEntity
  8
____1
  6
Continuous
 62
     5
370
    18
100
AcDbLine
 10
85.16749268593548
 20
16.27254387096441
 30
0.0
 11
90.16749268593548
 21
16.27254387096441
 31
0.0
  0
LINE
  5
4B
330
46
100
AcDbEntity
  8
____1
  6
Continuous
 62
     5
370
    18
100
AcDbLine
 10
85.16749268593548
 20
32.27254387096432
 30
0.0
 11
90.16749268593548
 21
32.27254387096432
 31
0.0
  0
ENDBLK
  5
4C
330
46
100
AcDbEntity
  8
0
100
AcDbBlockEnd
  0
BLOCK
  5
55
330
54
100
AcDbEntity
  8
0
100
AcDbBlockBegin
  2
C2
 70
     0
 10
0.0
 20
0.0
 30
0.0
  3
C2
  1

  0
LINE
  5
56
330
54
100
AcDbEntity
  8
____1
  6
Continuous
 62
     5
370
    18
100
AcDbLine
 10
10.16749268593617
 20
16.27254387096441
 30
0.0
 11
10.16749268593617
 21
32.27254387096432
 31
0.0
  0
LINE
  5
57
330
54
100
AcDbEntity
  8
____1
  6
Continuous
 62
     5
370
    18
100
AcDbLine
 10
5.167492685936167
 20
16.27254387096441
 30
0.0
 11
5.167492685936167
 21
32.27254387096432
 31
0.0
  0
LINE
  5
58
330
54
100
AcDbEntity
  8
____1
  6
Continuous
 62
     5
370
    18
100
AcDbLine
 10
5.167492685936167
 20
16.27254387096441
 30
0.0
 11
10.16749268593617
 21
16.27254387096441
 31
0.0
  0
LINE
  5
59
330
54
100
AcDbEntity
  8
____1
  6
Continuous
 62
     5
370
    18
100
AcDbLine
 10
5.167492685936167
 20
32.27254387096432
 30
0.0
 11
10.16749268593617
 21
32.27254387096432
 31
0.0
  0
ENDBLK
  5
5A
330
54
100
AcDbEntity
  8
0
100
AcDbBlockEnd
  0
BLOCK
  5
5F
330
5E
100
AcDbEntity
  8
0
100
AcDbBlockBegin
  2
C3
 70
     0
 10
0.0
 20
0.0
 30
0.0
  3
C3
  1

  0
LINE
  5
60
330
5E
100
AcDbEntity
  8
____1
  6
Continuous
 62
     5
370
    18
100
AcDbLine
 10
50.16749268593617
 20
16.27254387096441
 30
0.0
 11
50.16749268593617
 21
32.27254387096432
 31
0.0
  0
LINE
  5
61
330
5E
100
AcDbEntity
  8
____1
  6
Continuous
 62
     5
370
    18
100
AcDbLine
 10
45.16749268593615
 20
16.27254387096441
 30
0.0
 11
45.16749268593615
 21
32.27254387096432
 31
0.0
  0
LINE
  5
62
330
5E
100
AcDbEntity
  8
____1
  6
Continuous
 62
     5
370
    18
100
AcDbLine
 10
45.16749268593615
 20
16.27254387096441
 30
0.0
 11
50.16749268593617
 21
16.27254387096441
 31
0.0
  0
LINE
  5
63
330
5E
100
AcDbEntity
  8
____1
  6
Continuous
 62
     5
370
    18
100
AcDbLine
 10
45.16749268593615
 20
32.27254387096432
 30
0.0
 11
50.16749268593617
 21
32.27254387096432
 31
0.0
  0
ENDBLK
  5
64
330
5E
100
AcDbEntity
  8
0
100
AcDbBlockEnd
  0
BLOCK
  5
67
330
66
100
AcDbEntity
  8
0
100
AcDbBlockBegin
  2
C4
 70
     0
 10
0.0
 20
0.0
 30
0.0
  3
C4
  1

  0
LINE
  5
68
330
66
100
AcDbEntity
  8
____1
  6
Continuous
 62
     5
370
    18
100
AcDbLine
 10
250.1674926859355
 20
16.27254387096441
 30
0.0
 11
250.1674926859355
 21
32.27254387096432
 31
0.0
  0
LINE
  5
69
330
66
100
AcDbEntity
  8
____1
  6
Continuous
 62
     5
370
    18
100
AcDbLine
 10
245.1674926859355
 20
16.27254387096441
 30
0.0
 11
245.1674926859355
 21
32.27254387096432
 31
0.0
  0
LINE
  5
6A
330
66
100
AcDbEntity
  8
____1
  6
Continuous
 62
     5
370
    18
100
AcDbLine
 10
245.1674926859355
 20
16.27254387096441
 30
0.0
 11
250.1674926859355
 21
16.27254387096441
 31
0.0
  0
LINE
  5
6B
330
66
100
AcDbEntity
  8
____1
  6
Continuous
 62
     5
370
    18
100
AcDbLine
 10
245.1674926859355
 20
32.27254387096432
 30
0.0
 11
250.1674926859355
 21
32.27254387096432
 31
0.0
  0
ENDBLK
  5
6C
330
66
100
AcDbEntity
  8
0
100
AcDbBlockEnd
  0
BLOCK
  5
6F
330
6E
100
AcDbEntity
  8
0
100
AcDbBlockBegin
  2
C5
 70
     0
 10
0.0
 20
0.0
 30
0.0
  3
C5
  1

  0
LINE
  5
70
330
6E
100
AcDbEntity
  8
____1
  6
Continuous
 62
     5
370
    18
100
AcDbLine
 10
290.1674926859355
 20
16.27254387096441
 30
0.0
 11
290.1674926859355
 21
32.27254387096432
 31
0.0
  0
LINE
  5
71
330
6E
100
AcDbEntity
  8
____1
  6
Continuous
 62
     5
370
    18
100
AcDbLine
 10
285.1674926859356
 20
16.27254387096441
 30
0.0
 11
285.1674926859356
 21
32.27254387096432
 31
0.0
  0
LINE
  5
72
330
6E
100
AcDbEntity
  8
____1
  6
Continuous
 62
     5
370
    18
100
AcDbLine
 10
285.1674926859356
 20
16.27254387096441
 30
0.0
 11
290.1674926859355
 21
16.27254387096441
 31
0.0
  0
LINE
  5
73
330
6E
100
AcDbEntity
  8
____1
  6
Continuous
 62
     5
370
    18
100
AcDbLine
 10
285.1674926859356
 20
32.27254387096432
 30
0.0
 11
290.1674926859355
 21
32.27254387096432
 31
0.0
  0
ENDBLK
  5
74
330
6E
100
AcDbEntity
  8
0
100
AcDbBlockEnd
  0
BLOCK
  5
77
330
76
100
AcDbEntity
  8
0
100
AcDbBlockBegin
  2
C6
 70
     0
 10
0.0
 20
0.0
 30
0.0
  3
C6
  1

  0
LINE
  5
78
330
76
100
AcDbEntity
  8
____1
  6
Continuous
 62
     5
370
    18
100
AcDbLine
 10
210.1674926859355
 20
16.27254387096441
 30
0.0
 11
210.1674926859355
 21
32.27254387096432
 31
0.0
  0
LINE
  5
79
330
76
100
AcDbEntity
  8
____1
  6
Continuous
 62
     5
370
    18
100
AcDbLine
 10
205.1674926859355
 20
16.27254387096441
 30
0.0
 11
205.1674926859355
 21
32.27254387096432
 31
0.0
  0
LINE
  5
7A
330
76
100
AcDbEntity
  8
____1
  6
Continuous
 62
     5
370
    18
100
AcDbLine
 10
205.1674926859355
 20
16.27254387096441
 30
0.0
 11
210.1674926859355
 21
16.27254387096441
 31
0.0
  0
LINE
  5
7B
330
76
100
AcDbEntity
  8
____1
  6
Continuous
 62
     5
370
    18
100
AcDbLine
 10
205.1674926859355
 20
32.27254387096432
 30
0.0
 11
210.1674926859355
 21
32.27254387096432
 31
0.0
  0
ENDBLK
  5
7C
330
76
100
AcDbEntity
  8
0
100
AcDbBlockEnd
  0
BLOCK
  5
7F
330
7E
100
AcDbEntity
  8
0
100
AcDbBlockBegin
  2
C7
 70
     0
 10
0.0
 20
0.0
 30
0.0
  3
C7
  1

  0
LINE
  5
80
330
7E
100
AcDbEntity
  8
____1
  6
Continuous
 62
     5
370
    18
100
AcDbLine
 10
170.1674926859355
 20
16.27254387096441
 30
0.0
 11
170.1674926859355
 21
32.27254387096432
 31
0.0
  0
LINE
  5
81
330
7E
100
AcDbEntity
  8
____1
  6
Continuous
 62
     5
370
    18
100
AcDbLine
 10
165.1674926859355
 20
16.27254387096441
 30
0.0
 11
165.1674926859355
 21
32.27254387096432
 31
0.0
  0
LINE
  5
82
330
7E
100
AcDbEntity
  8
____1
  6
Continuous
 62
     5
370
    18
100
AcDbLine
 10
165.1674926859355
 20
16.27254387096441
 30
0.0
 11
170.1674926859355
 21
16.27254387096441
 31
0.0
  0
LINE
  5
83
330
7E
100
AcDbEntity
  8
____1
  6
Continuous
 62
     5
370
    18
100
AcDbLine
 10
165.1674926859355
 20
32.27254387096432
 30
0.0
 11
170.1674926859355
 21
32.27254387096432
 31
0.0
  0
ENDBLK
  5
84
330
7E
100
AcDbEntity
  8
0
100
AcDbBlockEnd
  0
BLOCK
  5
87
330
86
100
AcDbEntity
  8
0
100
AcDbBlockBegin
  2
*D8
 70
     1
 10
0.0
 20
0.0
 30
0.0
  3
*D8
  1

  0
LINE
  5
484
330
86
100
AcDbEntity
  8
寸法線_1
  6
Continuous
 62
     7
370
    -2
100
AcDbLine
 10
27.66749268593617
 20
31.27254387096431
 30
0.0
 11
27.66749268593617
 21
89.77254387096465
 31
0.0
  0
LINE
  5
485
330
86
100
AcDbEntity
  8
寸法線_1
  6
Continuous
 62
     7
370
    -2
100
AcDbLine
 10
227.6674926859362
 20
31.27254387096426
 30
0.0
 11
227.6674926859362
 21
89.77254387096465
 31
0.0
  0
LINE
  5
486
330
86
100
AcDbEntity
  8
寸法線_1
  6
Continuous
 62
     7
370
    -2
100
AcDbLine
 10
30.66749268593617
 20
89.27254387096466
 30
0.0
 11
224.6674926859362
 21
89.27254387096466
 31
0.0
  0
SOLID
  5
487
330
86
100
AcDbEntity
  8
寸法線_1
  6
Continuous
 62
     7
370
     0
100
AcDbTrace
 10
30.66749268593617
 20
89.77254387096465
 30
0.0
 11
30.66749268593617
 21
88.77254387096465
 31
0.0
 12
27.66749268593617
 22
89.27254387096466
 32
0.0
 13
27.66749268593617
 23
89.27254387096466
 33
0.0
  0
SOLID
  5
488
330
86
100
AcDbEntity
  8
寸法線_1
  6
Continuous
 62
     7
370
     0
100
AcDbTrace
 10
224.6674926859362
 20
89.77254387096465
 30
0.0
 11
224.6674926859362
 21
88.77254387096465
 31
0.0
 12
227.6674926859362
 22
89.27254387096466
 32
0.0
 13
227.6674926859362
 23
89.27254387096466
 33
0.0
  0
MTEXT
  5
489
330
86
100
AcDbEntity
  8
寸法線_1
  6
Continuous
 62
     7
370
     5
100
AcDbMText
 10
127.6674926859362
 20
99.09198852733672
 30
0.0
 40
17.63888931274414
 41
0.0
 71
     5
 72
     1
  1
\A1;200
 73
     1
 44
1.0
1001
ACAD
1000
MTEXTBEGIN
1070
    73
1070
     1
1070
    44
1040
1.0
1070
    74
1070
     0
1000
MTEXTEND
  0
POINT
  5
48A
330
86
100
AcDbEntity
  8
DEFPOINTS
  6
Continuous
 62
     0
370
     0
100
AcDbPoint
 10
27.66749268593617
 20
30.27254387096431
 30
0.0
  0
POINT
  5
48B
330
86
100
AcDbEntity
  8
DEFPOINTS
  6
Continuous
 62
     0
370
     0
100
AcDbPoint
 10
227.6674926859362
 20
30.27254387096426
 30
0.0
  0
POINT
  5
48C
330
86
100
AcDbEntity
  8
DEFPOINTS
  6
Continuous
 62
     0
370
     0
100
AcDbPoint
 10
227.6674926859362
 20
89.27254387096466
 30
0.0
  0
ENDBLK
  5
92
330
86
100
AcDbEntity
  8
0
100
AcDbBlockEnd
  0
BLOCK
  5
96
330
95
100
AcDbEntity
  8
0
100
AcDbBlockBegin
  2
*D9
 70
     1
 10
0.0
 20
0.0
 30
0.0
  3
*D9
  1

  0
LINE
  5
47B
330
95
100
AcDbEntity
  8
寸法線_1
  6
Continuous
 62
     7
370
    -2
100
AcDbLine
 10
227.6674926859362
 20
31.27254387096426
 30
0.0
 11
227.6674926859362
 21
89.77254387096465
 31
0.0
  0
LINE
  5
47C
330
95
100
AcDbEntity
  8
寸法線_1
  6
Continuous
 62
     7
370
    -2
100
AcDbLine
 10
427.6674926859361
 20
31.2725438709642
 30
0.0
 11
427.6674926859361
 21
89.77254387096465
 31
0.0
  0
LINE
  5
47D
330
95
100
AcDbEntity
  8
寸法線_1
  6
Continuous
 62
     7
370
    -2
100
AcDbLine
 10
230.6674926859362
 20
89.27254387096466
 30
0.0
 11
424.6674926859361
 21
89.27254387096466
 31
0.0
  0
SOLID
  5
47E
330
95
100
AcDbEntity
  8
寸法線_1
  6
Continuous
 62
     7
370
     0
100
AcDbTrace
 10
230.6674926859362
 20
89.77254387096465
 30
0.0
 11
230.6674926859362
 21
88.77254387096465
 31
0.0
 12
227.6674926859362
 22
89.27254387096466
 32
0.0
 13
227.6674926859362
 23
89.27254387096466
 33
0.0
  0
SOLID
  5
47F
330
95
100
AcDbEntity
  8
寸法線_1
  6
Continuous
 62
     7
370
     0
100
AcDbTrace
 10
424.6674926859361
 20
89.77254387096465
 30
0.0
 11
424.6674926859361
 21
88.77254387096465
 31
0.0
 12
427.6674926859361
 22
89.27254387096466
 32
0.0
 13
427.6674926859361
 23
89.27254387096466
 33
0.0
  0
MTEXT
  5
480
330
95
100
AcDbEntity
  8
寸法線_1
  6
Continuous
 62
     7
370
     5
100
AcDbMText
 10
327.6674926859362
 20
99.09198852733672
 30
0.0
 40
17.63888931274414
 41
0.0
 71
     5
 72
     1
  1
\A1;200
 73
     1
 44
1.0
1001
ACAD
1000
MTEXTBEGIN
1070
    73
1070
     1
1070
    44
1040
1.0
1070
    74
1070
     0
1000
MTEXTEND
  0
POINT
  5
481
330
95
100
AcDbEntity
  8
DEFPOINTS
  6
Continuous
 62
     0
370
     0
100
AcDbPoint
 10
227.6674926859362
 20
30.27254387096426
 30
0.0
  0
POINT
  5
482
330
95
100
AcDbEntity
  8
DEFPOINTS
  6
Continuous
 62
     0
370
     0
100
AcDbPoint
 10
427.6674926859361
 20
30.2725438709642
 30
0.0
  0
POINT
  5
483
330
95
100
AcDbEntity
  8
DEFPOINTS
  6
Continuous
 62
     0
370
     0
100
AcDbPoint
 10
427.6674926859361
 20
89.27254387096466
 30
0.0
  0
ENDBLK
  5
A0
330
95
100
AcDbEntity
  8
0
100
AcDbBlockEnd
  0
BLOCK
  5
A3
330
A2
100
AcDbEntity
  8
0
100
AcDbBlockBegin
  2
*D10
 70
     1
 10
0.0
 20
0.0
 30
0.0
  3
*D10
  1

  0
LINE
  5
472
330
A2
100
AcDbEntity
  8
寸法線_1
  6
Continuous
 62
     7
370
    -2
100
AcDbLine
 10
427.6674926859361
 20
31.2725438709642
 30
0.0
 11
427.6674926859361
 21
89.77254387096465
 31
0.0
  0
LINE
  5
473
330
A2
100
AcDbEntity
  8
寸法線_1
  6
Continuous
 62
     7
370
    -2
100
AcDbLine
 10
627.6674926859361
 20
31.27254387096414
 30
0.0
 11
627.6674926859361
 21
89.77254387096465
 31
0.0
  0
LINE
  5
474
330
A2
100
AcDbEntity
  8
寸法線_1
  6
Continuous
 62
     7
370
    -2
100
AcDbLine
 10
430.667492685936
 20
89.27254387096466
 30
0.0
 11
624.6674926859363
 21
89.27254387096466
 31
0.0
  0
SOLID
  5
475
330
A2
100
AcDbEntity
  8
寸法線_1
  6
Continuous
 62
     7
370
     0
100
AcDbTrace
 10
430.667492685936
 20
89.77254387096465
 30
0.0
 11
430.667492685936
 21
88.77254387096465
 31
0.0
 12
427.6674926859361
 22
89.27254387096466
 32
0.0
 13
427.6674926859361
 23
89.27254387096466
 33
0.0
  0
SOLID
  5
476
330
A2
100
AcDbEntity
  8
寸法線_1
  6
Continuous
 62
     7
370
     0
100
AcDbTrace
 10
624.6674926859363
 20
89.77254387096465
 30
0.0
 11
624.6674926859363
 21
88.77254387096465
 31
0.0
 12
627.6674926859361
 22
89.27254387096466
 32
0.0
 13
627.6674926859361
 23
89.27254387096466
 33
0.0
  0
MTEXT
  5
477
330
A2
100
AcDbEntity
  8
寸法線_1
  6
Continuous
 62
     7
370
     5
100
AcDbMText
 10
527.6674926859361
 20
99.09198852733672
 30
0.0
 40
17.63888931274414
 41
0.0
 71
     5
 72
     1
  1
\A1;200
 73
     1
 44
1.0
1001
ACAD
1000
MTEXTBEGIN
1070
    73
1070
     1
1070
    44
1040
1.0
1070
    74
1070
     0
1000
MTEXTEND
  0
POINT
  5
478
330
A2
100
AcDbEntity
  8
DEFPOINTS
  6
Continuous
 62
     0
370
     0
100
AcDbPoint
 10
427.6674926859361
 20
30.2725438709642
 30
0.0
  0
POINT
  5
479
330
A2
100
AcDbEntity
  8
DEFPOINTS
  6
Continuous
 62
     0
370
     0
100
AcDbPoint
 10
627.6674926859361
 20
30.27254387096415
 30
0.0
  0
POINT
  5
47A
330
A2
100
AcDbEntity
  8
DEFPOINTS
  6
Continuous
 62
     0
370
     0
100
AcDbPoint
 10
627.6674926859361
 20
89.27254387096466
 30
0.0
  0
ENDBLK
  5
AD
330
A2
100
AcDbEntity
  8
0
100
AcDbBlockEnd
  0
BLOCK
  5
B0
330
AF
100
AcDbEntity
  8
0
100
AcDbBlockBegin
  2
*D11
 70
     1
 10
0.0
 20
0.0
 30
0.0
  3
*D11
  1

  0
LINE
  5
469
330
AF
100
AcDbEntity
  8
寸法線_1
  6
Continuous
 62
     7
370
    -2
100
AcDbLine
 10
627.6674926859361
 20
31.27254387096414
 30
0.0
 11
627.6674926859361
 21
89.77254387096465
 31
0.0
  0
LINE
  5
46A
330
AF
100
AcDbEntity
  8
寸法線_1
  6
Continuous
 62
     7
370
    -2
100
AcDbLine
 10
827.6674926859362
 20
31.27254387096409
 30
0.0
 11
827.6674926859362
 21
89.77254387096465
 31
0.0
  0
LINE
  5
46B
330
AF
100
AcDbEntity
  8
寸法線_1
  6
Continuous
 62
     7
370
    -2
100
AcDbLine
 10
630.6674926859361
 20
89.27254387096466
 30
0.0
 11
824.6674926859361
 21
89.27254387096466
 31
0.0
  0
SOLID
  5
46C
330
AF
100
AcDbEntity
  8
寸法線_1
  6
Continuous
 62
     7
370
     0
100
AcDbTrace
 10
630.6674926859361
 20
89.77254387096465
 30
0.0
 11
630.6674926859361
 21
88.77254387096465
 31
0.0
 12
627.6674926859361
 22
89.27254387096466
 32
0.0
 13
627.6674926859361
 23
89.27254387096466
 33
0.0
  0
SOLID
  5
46D
330
AF
100
AcDbEntity
  8
寸法線_1
  6
Continuous
 62
     7
370
     0
100
AcDbTrace
 10
824.6674926859361
 20
89.77254387096465
 30
0.0
 11
824.6674926859361
 21
88.77254387096465
 31
0.0
 12
827.6674926859362
 22
89.27254387096466
 32
0.0
 13
827.6674926859362
 23
89.27254387096466
 33
0.0
  0
MTEXT
  5
46E
330
AF
100
AcDbEntity
  8
寸法線_1
  6
Continuous
 62
     7
370
     5
100
AcDbMText
 10
727.6674926859361
 20
99.09198852733672
 30
0.0
 40
17.63888931274414
 41
0.0
 71
     5
 72
     1
  1
\A1;200
 73
     1
 44
1.0
1001
ACAD
1000
MTEXTBEGIN
1070
    73
1070
     1
1070
    44
1040
1.0
1070
    74
1070
     0
1000
MTEXTEND
  0
POINT
  5
46F
330
AF
100
AcDbEntity
  8
DEFPOINTS
  6
Continuous
 62
     0
370
     0
100
AcDbPoint
 10
627.6674926859361
 20
30.27254387096415
 30
0.0
  0
POINT
  5
470
330
AF
100
AcDbEntity
  8
DEFPOINTS
  6
Continuous
 62
     0
370
     0
100
AcDbPoint
 10
827.6674926859362
 20
30.27254387096409
 30
0.0
  0
POINT
  5
471
330
AF
100
AcDbEntity
  8
DEFPOINTS
  6
Continuous
 62
     0
370
     0
100
AcDbPoint
 10
827.6674926859362
 20
89.27254387096466
 30
0.0
  0
ENDBLK
  5
BA
330
AF
100
AcDbEntity
  8
0
100
AcDbBlockEnd
  0
BLOCK
  5
BD
330
BC
100
AcDbEntity
  8
0
100
AcDbBlockBegin
  2
*D12
 70
     1
 10
0.0
 20
0.0
 30
0.0
  3
*D12
  1

  0
LINE
  5
460
330
BC
100
AcDbEntity
  8
寸法線_1
  6
Continuous
 62
     7
370
    -2
100
AcDbLine
 10
827.6674926859362
 20
31.27254387096409
 30
0.0
 11
827.6674926859362
 21
89.77254387096465
 31
0.0
  0
LINE
  5
461
330
BC
100
AcDbEntity
  8
寸法線_1
  6
Continuous
 62
     7
370
    -2
100
AcDbLine
 10
1027.667492685936
 20
31.27254387096404
 30
0.0
 11
1027.667492685936
 21
89.77254387096465
 31
0.0
  0
LINE
  5
462
330
BC
100
AcDbEntity
  8
寸法線_1
  6
Continuous
 62
     7
370
    -2
100
AcDbLine
 10
830.6674926859361
 20
89.27254387096466
 30
0.0
 11
1024.667492685936
 21
89.27254387096466
 31
0.0
  0
SOLID
  5
463
330
BC
100
AcDbEntity
  8
寸法線_1
  6
Continuous
 62
     7
370
     0
100
AcDbTrace
 10
830.6674926859361
 20
89.77254387096465
 30
0.0
 11
830.6674926859361
 21
88.77254387096465
 31
0.0
 12
827.6674926859362
 22
89.27254387096466
 32
0.0
 13
827.6674926859362
 23
89.27254387096466
 33
0.0
  0
SOLID
  5
464
330
BC
100
AcDbEntity
  8
寸法線_1
  6
Continuous
 62
     7
370
     0
100
AcDbTrace
 10
1024.667492685936
 20
89.77254387096465
 30
0.0
 11
1024.667492685936
 21
88.77254387096465
 31
0.0
 12
1027.667492685936
 22
89.27254387096466
 32
0.0
 13
1027.667492685936
 23
89.27254387096466
 33
0.0
  0
MTEXT
  5
465
330
BC
100
AcDbEntity
  8
寸法線_1
  6
Continuous
 62
     7
370
     5
100
AcDbMText
 10
927.6674926859362
 20
99.09198852733672
 30
0.0
 40
17.63888931274414
 41
0.0
 71
     5
 72
     1
  1
\A1;200
 73
     1
 44
1.0
1001
ACAD
1000
MTEXTBEGIN
1070
    73
1070
     1
1070
    44
1040
1.0
1070
    74
1070
     0
1000
MTEXTEND
  0
POINT
  5
466
330
BC
100
AcDbEntity
  8
DEFPOINTS
  6
Continuous
 62
     0
370
     0
100
AcDbPoint
 10
827.6674926859362
 20
30.27254387096409
 30
0.0
  0
POINT
  5
467
330
BC
100
AcDbEntity
  8
DEFPOINTS
  6
Continuous
 62
     0
370
     0
100
AcDbPoint
 10
1027.667492685936
 20
30.27254387096403
 30
0.0
  0
POINT
  5
468
330
BC
100
AcDbEntity
  8
DEFPOINTS
  6
Continuous
 62
     0
370
     0
100
AcDbPoint
 10
1027.667492685936
 20
89.27254387096466
 30
0.0
  0
ENDBLK
  5
C7
330
BC
100
AcDbEntity
  8
0
100
AcDbBlockEnd
  0
BLOCK
  5
CA
330
C9
100
AcDbEntity
  8
0
100
AcDbBlockBegin
  2
*D13
 70
     1
 10
0.0
 20
0.0
 30
0.0
  3
*D13
  1

  0
LINE
  5
457
330
C9
100
AcDbEntity
  8
寸法線_1
  6
Continuous
 62
     7
370
    -2
100
AcDbLine
 10
1195.475733414745
 20
-370.862950516943
 30
0.0
 11
1145.975733414744
 21
-370.862950516943
 31
0.0
  0
LINE
  5
458
330
C9
100
AcDbEntity
  8
寸法線_1
  6
Continuous
 62
     7
370
    -2
100
AcDbLine
 10
1195.475733414745
 20
-220.8629505169416
 30
0.0
 11
1145.975733414744
 21
-220.8629505169416
 31
0.0
  0
LINE
  5
459
330
C9
100
AcDbEntity
  8
寸法線_1
  6
Continuous
 62
     7
370
    -2
100
AcDbLine
 10
1146.475733414744
 20
-367.8629505169429
 30
0.0
 11
1146.475733414744
 21
-223.8629505169416
 31
0.0
  0
SOLID
  5
45A
330
C9
100
AcDbEntity
  8
寸法線_1
  6
Continuous
 62
     7
370
     0
100
AcDbTrace
 10
1145.975733414744
 20
-367.8629505169429
 30
0.0
 11
1146.975733414744
 21
-367.8629505169429
 31
0.0
 12
1146.475733414744
 22
-370.862950516943
 32
0.0
 13
1146.475733414744
 23
-370.862950516943
 33
0.0
  0
SOLID
  5
45B
330
C9
100
AcDbEntity
  8
寸法線_1
  6
Continuous
 62
     7
370
     0
100
AcDbTrace
 10
1145.975733414744
 20
-223.8629505169416
 30
0.0
 11
1146.975733414744
 21
-223.8629505169416
 31
0.0
 12
1146.475733414744
 22
-220.8629505169416
 32
0.0
 13
1146.475733414744
 23
-220.8629505169416
 33
0.0
  0
MTEXT
  5
45C
330
C9
100
AcDbEntity
  8
寸法線_1
  6
Continuous
 62
     7
370
     5
100
AcDbMText
 10
1136.656288758372
 20
-295.8629505169422
 30
0.0
 40
17.63888931274414
 41
0.0
 71
     5
 72
     1
  1
\A1;150
 11
0.0000000000000001
 21
1.0
 31
0.0
 73
     1
 44
1.0
1001
ACAD
1000
MTEXTBEGIN
1070
    73
1070
     1
1070
    44
1040
1.0
1070
    74
1070
     0
1000
MTEXTEND
  0
POINT
  5
45D
330
C9
100
AcDbEntity
  8
DEFPOINTS
  6
Continuous
 62
     0
370
     0
100
AcDbPoint
 10
1196.475733414744
 20
-370.862950516943
 30
0.0
  0
POINT
  5
45E
330
C9
100
AcDbEntity
  8
DEFPOINTS
  6
Continuous
 62
     0
370
     0
100
AcDbPoint
 10
1196.475733414744
 20
-220.8629505169416
 30
0.0
  0
POINT
  5
45F
330
C9
100
AcDbEntity
  8
DEFPOINTS
  6
Continuous
 62
     0
370
     0
100
AcDbPoint
 10
1146.475733414744
 20
-220.8629505169416
 30
0.0
  0
ENDBLK
  5
D6
330
C9
100
AcDbEntity
  8
0
100
AcDbBlockEnd
  0
BLOCK
  5
D9
330
D8
100
AcDbEntity
  8
0
100
AcDbBlockBegin
  2
*D14
 70
     1
 10
0.0
 20
0.0
 30
0.0
  3
*D14
  1

  0
LINE
  5
44D
330
D8
100
AcDbEntity
  8
寸法線_1
  6
Continuous
 62
     7
370
    -2
100
AcDbLine
 10
1191.475733414745
 20
-224.8629505169416
 30
0.0
 11
1191.475733414745
 21
-170.3629505169416
 31
0.0
  0
LINE
  5
44E
330
D8
100
AcDbEntity
  8
寸法線_1
  6
Continuous
 62
     7
370
    -2
100
AcDbLine
 10
1233.975733414744
 20
-219.8629505169416
 30
0.0
 11
1233.975733414744
 21
-170.3629505169416
 31
0.0
  0
LINE
  5
44F
330
D8
100
AcDbEntity
  8
寸法線_1
  6
Continuous
 62
     7
370
    -2
100
AcDbLine
 10
1194.475733414745
 20
-170.8629505169416
 30
0.0
 11
1230.975733414745
 21
-170.8629505169416
 31
0.0
  0
LINE
  5
450
330
D8
100
AcDbEntity
  8
寸法線_1
  6
Continuous
 62
     7
370
    -2
100
AcDbLine
 10
1233.975733414744
 20
-170.8629505169416
 30
0.0
 11
1291.892401352977
 21
-170.8629505169416
 31
0.0
  0
SOLID
  5
451
330
D8
100
AcDbEntity
  8
寸法線_1
  6
Continuous
 62
     7
370
     0
100
AcDbTrace
 10
1194.475733414745
 20
-170.3629505169416
 30
0.0
 11
1194.475733414745
 21
-171.3629505169416
 31
0.0
 12
1191.475733414745
 22
-170.8629505169416
 32
0.0
 13
1191.475733414745
 23
-170.8629505169416
 33
0.0
  0
SOLID
  5
452
330
D8
100
AcDbEntity
  8
寸法線_1
  6
Continuous
 62
     7
370
     0
100
AcDbTrace
 10
1230.975733414745
 20
-170.3629505169416
 30
0.0
 11
1230.975733414745
 21
-171.3629505169416
 31
0.0
 12
1233.975733414744
 22
-170.8629505169416
 32
0.0
 13
1233.975733414744
 23
-170.8629505169416
 33
0.0
  0
MTEXT
  5
453
330
D8
100
AcDbEntity
  8
寸法線_1
  6
Continuous
 62
     7
370
     5
100
AcDbMText
 10
1264.43406738386
 20
-161.0435058605695
 30
0.0
 40
17.63888931274414
 41
0.0
 71
     5
 72
     1
  1
\A1;42.5
 73
     1
 44
1.0
1001
ACAD
1000
MTEXTBEGIN
1070
    73
1070
     1
1070
    44
1040
1.0
1070
    74
1070
     0
1000
MTEXTEND
  0
POINT
  5
454
330
D8
100
AcDbEntity
  8
DEFPOINTS
  6
Continuous
 62
     0
370
     0
100
AcDbPoint
 10
1191.475733414745
 20
-225.8629505169416
 30
0.0
  0
POINT
  5
455
330
D8
100
AcDbEntity
  8
DEFPOINTS
  6
Continuous
 62
     0
370
     0
100
AcDbPoint
 10
1233.975733414744
 20
-220.8629505169416
 30
0.0
  0
POINT
  5
456
330
D8
100
AcDbEntity
  8
DEFPOINTS
  6
Continuous
 62
     0
370
     0
100
AcDbPoint
 10
1233.975733414744
 20
-170.8629505169416
 30
0.0
  0
ENDBLK
  5
E4
330
D8
100
AcDbEntity
  8
0
100
AcDbBlockEnd
  0
BLOCK
  5
F2
330
F1
100
AcDbEntity
  8
0
100
AcDbBlockBegin
  2
C8
 70
     0
 10
0.0
 20
0.0
 30
0.0
  3
C8
  1

  0
LINE
  5
F3
330
F1
100
AcDbEntity
  8
___G
  6
Continuous
 62
     7
370
    18
100
AcDbLine
 10
1320.823284524763
 20
-893.550732387783
 30
0.0
 11
1330.823284524763
 21
-893.550732387783
 31
0.0
  0
LINE
  5
F4
330
F1
100
AcDbEntity
  8
___G
  6
Continuous
 62
     7
370
     5
100
AcDbLine
 10
1112.52005208333
 20
-756.434097222223
 30
0.0
 11
1112.52005208333
 21
-921.4340972222228
 31
0.0
  0
LINE
  5
F5
330
F1
100
AcDbEntity
  8
___G
  6
Continuous
 62
     7
370
     5
100
AcDbLine
 10
1112.52005208333
 20
-866.434097222223
 30
0.0
 11
1837.520052083332
 21
-866.434097222223
 31
0.0
  0
LINE
  5
F6
330
F1
100
AcDbEntity
  8
___G
  6
Continuous
 62
     7
370
     5
100
AcDbLine
 10
1125.02005208333
 20
-838.9340972222232
 30
0.0
 11
1287.52005208333
 21
-838.9340972222232
 31
0.0
  0
LINE
  5
F7
330
F1
100
AcDbEntity
  8
___G
  6
Continuous
 62
     7
370
     5
100
AcDbLine
 10
1312.52005208333
 20
-838.9340972222232
 30
0.0
 11
1475.02005208333
 21
-838.9340972222232
 31
0.0
  0
MTEXT
  5
F8
330
F1
100
AcDbEntity
  8
___G
  6
Continuous
 62
     7
370
     5
100
AcDbMText
 10
1112.52005208333
 20
-761.4822811707123
 30
0.0
 40
17.63888835906982
 41
125.0
 71
     1
 72
     1
  1
日　　付
  7
Style1
 73
     1
 44
1.0
1001
ACAD
1000
MTEXTBEGIN
1070
    73
1070
     1
1070
    44
1040
1.0
1070
    74
1070
     0
1000
MTEXTEND
  0
LINE
  5
F9
330
F1
100
AcDbEntity
  8
___G
  6
Continuous
 62
     7
370
     5
100
AcDbLine
 10
1125.02005208333
 20
-783.9340972222231
 30
0.0
 11
1225.02005208333
 21
-783.9340972222231
 31
0.0
  0
LINE
  5
FA
330
F1
100
AcDbEntity
  8
___G
  6
Continuous
 62
     7
370
     5
100
AcDbLine
 10
1237.52005208333
 20
-756.434097222223
 30
0.0
 11
1237.52005208333
 21
-811.4340972222239
 31
0.0
  0
LINE
  5
FB
330
F1
100
AcDbEntity
  8
___G
  6
DOT
 62
     7
370
     5
100
AcDbLine
 10
-187.3799479166664
 20
-942.5840972222225
 30
0.0
 11
-187.3799479166664
 21
499.7159027777776
 31
0.0
  0
LINE
  5
FC
330
F1
100
AcDbEntity
  8
___G
  6
Continuous
 62
     5
370
    18
100
AcDbLine
 10
-162.4799479166664
 20
-921.4340972222228
 30
0.0
 11
-162.4799479166664
 21
478.5659027777774
 31
0.0
  0
MTEXT
  5
FD
330
F1
100
AcDbEntity
  8
___G
  6
Continuous
 62
     7
370
     5
100
AcDbMText
 10
1300.02005208333
 20
-843.9822811707124
 30
0.0
 40
17.63888835906982
 41
50.0
 71
     1
 72
     1
  1
 検図
  7
Style1
 73
     1
 44
1.0
1001
ACAD
1000
MTEXTBEGIN
1070
    73
1070
     1
1070
    44
1040
1.0
1070
    74
1070
     0
1000
MTEXTEND
  0
LINE
  5
FE
330
F1
100
AcDbEntity
  8
___G
  6
Continuous
 62
     7
370
     5
100
AcDbLine
 10
1362.52005208333
 20
-756.434097222223
 30
0.0
 11
1362.52005208333
 21
-811.4340972222239
 31
0.0
  0
LINE
  5
FF
330
F1
100
AcDbEntity
  8
___G
  6
Continuous
 62
     7
370
     5
100
AcDbLine
 10
1250.02005208333
 20
-783.9340972222231
 30
0.0
 11
1350.02005208333
 21
-783.9340972222231
 31
0.0
  0
MTEXT
  5
100
330
F1
100
AcDbEntity
  8
___G
  6
Continuous
 62
     7
370
     5
100
AcDbMText
 10
1237.52005208333
 20
-761.4822811707123
 30
0.0
 40
17.63888835906982
 41
125.0
 71
     1
 72
     1
  1
尺　　度
  7
Style1
 73
     1
 44
1.0
1001
ACAD
1000
MTEXTBEGIN
1070
    73
1070
     1
1070
    44
1040
1.0
1070
    74
1070
     0
1000
MTEXTEND
  0
LINE
  5
101
330
F1
100
AcDbEntity
  8
___G
  6
Continuous
 62
     7
370
     5
100
AcDbLine
 10
1300.02005208333
 20
-811.434097222223
 30
0.0
 11
1300.02005208333
 21
-866.434097222223
 31
0.0
  0
LINE
  5
102
330
F1
100
AcDbEntity
  8
___G
  6
Continuous
 62
     5
370
    18
100
AcDbLine
 10
1837.520052083332
 20
-921.4340972222228
 30
0.0
 11
1837.520052083332
 21
478.5659027777774
 31
0.0
  0
ARC
  5
103
330
F1
100
AcDbEntity
  8
___G
  6
Continuous
 62
     7
370
    18
100
AcDbCircle
 10
1376.626314827793
 20
-883.550732387783
 30
0.0
 40
27.5
100
AcDbArc
 50
-37.51238802029998
 51
0.0
  0
LINE
  5
104
330
F1
100
AcDbEntity
  8
___G
  6
Continuous
 62
     7
370
    18
100
AcDbLine
 10
1302.567765466997
 20
-893.550732387783
 30
0.0
 11
1307.567765466997
 21
-893.550732387783
 31
0.0
  0
MTEXT
  5
105
330
F1
100
AcDbEntity
  8
___G
  6
Continuous
 62
     7
370
     5
100
AcDbMText
 10
1407.52005208333
 20
473.9909027777777
 30
0.0
 40
15.87499976158142
 41
80.0
 71
     1
 72
     1
  1
改訂日
  7
Style1
 73
     1
 44
1.0
1001
ACAD
1000
MTEXTBEGIN
1070
    73
1070
     1
1070
    44
1040
1.0
1070
    74
1070
     0
1000
MTEXTEND
  0
LINE
  5
106
330
F1
100
AcDbEntity
  8
___G
  6
Continuous
 62
     5
370
    18
100
AcDbLine
 10
1367.52005208333
 20
403.5659027777774
 30
0.0
 11
1837.520052083332
 21
403.5659027777774
 31
0.0
  0
LINE
  5
107
330
F1
100
AcDbEntity
  8
___G
  6
Continuous
 62
     5
370
    18
100
AcDbLine
 10
1367.52005208333
 20
428.5659027777774
 30
0.0
 11
1837.520052083332
 21
428.5659027777774
 31
0.0
  0
LINE
  5
108
330
F1
100
AcDbEntity
  8
___G
  6
Continuous
 62
     5
370
    18
100
AcDbLine
 10
1367.52005208333
 20
453.5659027777774
 30
0.0
 11
1837.520052083332
 21
453.5659027777774
 31
0.0
  0
LINE
  5
109
330
F1
100
AcDbEntity
  8
___G
  6
Continuous
 62
     5
370
    18
100
AcDbLine
 10
1787.520052083331
 20
403.5659027777774
 30
0.0
 11
1787.520052083331
 21
478.5659027777774
 31
0.0
  0
LINE
  5
10A
330
F1
100
AcDbEntity
  8
___G
  6
Continuous
 62
     5
370
    18
100
AcDbLine
 10
1367.52005208333
 20
403.5659027777774
 30
0.0
 11
1367.52005208333
 21
478.5659027777774
 31
0.0
  0
LINE
  5
10B
330
F1
100
AcDbEntity
  8
___G
  6
Continuous
 62
     5
370
    18
100
AcDbLine
 10
1373.723625153116
 20
405.9698615327945
 30
0.0
 11
1398.473625153117
 21
405.9698615327945
 31
0.0
  0
LINE
  5
10C
330
F1
100
AcDbEntity
  8
___G
  6
Continuous
 62
     5
370
    18
100
AcDbLine
 10
1386.098625153116
 20
427.4039902764591
 30
0.0
 11
1398.473625153117
 21
405.9698615327945
 31
0.0
  0
LINE
  5
10D
330
F1
100
AcDbEntity
  8
___G
  6
Continuous
 62
     5
370
    18
100
AcDbLine
 10
1386.098625153116
 20
427.4039902764591
 30
0.0
 11
1373.723625153116
 21
405.9698615327945
 31
0.0
  0
LINE
  5
10E
330
F1
100
AcDbEntity
  8
___G
  6
Continuous
 62
     5
370
    18
100
AcDbLine
 10
1386.098625153116
 20
452.1539902764586
 30
0.0
 11
1373.723625153116
 21
430.7198615327934
 31
0.0
  0
LINE
  5
10F
330
F1
100
AcDbEntity
  8
___G
  6
Continuous
 62
     5
370
    18
100
AcDbLine
 10
1386.098625153116
 20
452.1539902764586
 30
0.0
 11
1398.473625153117
 21
430.7198615327934
 31
0.0
  0
LINE
  5
110
330
F1
100
AcDbEntity
  8
___G
  6
Continuous
 62
     5
370
    18
100
AcDbLine
 10
1373.723625153116
 20
430.7198615327934
 30
0.0
 11
1398.473625153117
 21
430.7198615327934
 31
0.0
  0
LINE
  5
111
330
F1
100
AcDbEntity
  8
___G
  6
Continuous
 62
     5
370
    18
100
AcDbLine
 10
1407.52005208333
 20
403.5659027777774
 30
0.0
 11
1407.52005208333
 21
478.5659027777774
 31
0.0
  0
LINE
  5
112
330
F1
100
AcDbEntity
  8
___G
  6
Continuous
 62
     5
370
    18
100
AcDbLine
 10
1737.520052083331
 20
403.5659027777774
 30
0.0
 11
1737.520052083331
 21
478.5659027777774
 31
0.0
  0
LINE
  5
113
330
F1
100
AcDbEntity
  8
___G
  6
Continuous
 62
     5
370
    18
100
AcDbLine
 10
1487.52005208333
 20
403.5659027777774
 30
0.0
 11
1487.52005208333
 21
478.5659027777774
 31
0.0
  0
MTEXT
  5
114
330
F1
100
AcDbEntity
  8
___G
  6
DOT
 62
     7
370
     5
100
AcDbMText
 10
1367.52005208333
 20
473.9909027777777
 30
0.0
 40
15.87499976158142
 41
40.0
 71
     1
 72
     1
  1
副番
  7
Style1
 73
     1
 44
1.0
1001
ACAD
1000
MTEXTBEGIN
1070
    73
1070
     1
1070
    44
1040
1.0
1070
    74
1070
     0
1000
MTEXTEND
  0
MTEXT
  5
115
330
F1
100
AcDbEntity
  8
___G
  6
DOT
 62
     7
370
     5
100
AcDbMText
 10
1737.520052083331
 20
473.9909027777777
 30
0.0
 40
15.87499976158142
 41
50.0
 71
     1
 72
     1
  1
改訂者
  7
Style1
 73
     1
 44
1.0
1001
ACAD
1000
MTEXTBEGIN
1070
    73
1070
     1
1070
    44
1040
1.0
1070
    74
1070
     0
1000
MTEXTEND
  0
LINE
  5
116
330
F1
100
AcDbEntity
  8
___G
  6
Continuous
 62
     7
370
    18
100
AcDbLine
 10
1384.126314827792
 20
-887.6612837251897
 30
0.0
 11
1381.297887703047
 21
-890.4897108499365
 31
0.0
  0
MTEXT
  5
117
330
F1
100
AcDbEntity
  8
___G
  6
DOT
 62
     7
370
     5
100
AcDbMText
 10
1787.520052083331
 20
473.9909027777777
 30
0.0
 40
15.87499976158142
 41
50.00000000000014
 71
     1
 72
     1
  1
検認者
  7
Style1
 73
     1
 44
1.0
1001
ACAD
1000
MTEXTBEGIN
1070
    73
1070
     1
1070
    44
1040
1.0
1070
    74
1070
     0
1000
MTEXTEND
  0
MTEXT
  5
118
330
F1
100
AcDbEntity
  8
___G
  6
Continuous
 62
     7
370
     5
100
AcDbMText
 10
1487.52005208333
 20
473.9909027777777
 30
0.0
 40
15.87499976158142
 41
250.0
 71
     1
 72
     1
  1
改　訂　内　容
  7
Style1
 73
     1
 44
1.0
1001
ACAD
1000
MTEXTBEGIN
1070
    73
1070
     1
1070
    44
1040
1.0
1070
    74
1070
     0
1000
MTEXTEND
  0
LINE
  5
119
330
F1
100
AcDbEntity
  8
___G
  6
Continuous
 62
     5
370
    18
100
AcDbLine
 10
1837.520052083332
 20
478.5659027777774
 30
0.0
 11
-162.4799479166665
 21
478.5659027777774
 31
0.0
  0
LINE
  5
11A
330
F1
100
AcDbEntity
  8
___G
  6
DOT
 62
     7
370
     5
100
AcDbLine
 10
1862.420052083331
 20
-942.5840972222225
 30
0.0
 11
1862.420052083331
 21
499.7159027777776
 31
0.0
  0
LINE
  5
11B
330
F1
100
AcDbEntity
  8
___G
  6
Continuous
 62
     7
370
    18
100
AcDbLine
 10
1386.807877286225
 20
-893.6460869133336
 30
0.0
 11
1385.604898254642
 21
-894.9747787161024
 31
0.0
  0
LINE
  5
11C
330
F1
100
AcDbEntity
  8
___G
  6
Continuous
 62
     7
370
    18
100
AcDbLine
 10
1308.323284524763
 20
-901.0507323877828
 30
0.0
 11
1320.823284524763
 21
-901.0507323877828
 31
0.0
  0
MTEXT
  5
11D
330
F1
100
AcDbEntity
  8
___G
  6
DOT
 62
     7
370
     5
100
AcDbMText
 10
1112.52005208333
 20
-728.3365972222232
 30
0.0
 40
21.16666555404663
 41
125.0
 71
     1
 72
     1
  1
一般公差
  7
Style1
 73
     1
 44
1.0
1001
ACAD
1000
MTEXTBEGIN
1070
    73
1070
     1
1070
    44
1040
1.0
1070
    74
1070
     0
1000
MTEXTEND
  0
MTEXT
  5
11E
330
F1
100
AcDbEntity
  8
___G
  6
DOT
 62
     7
370
     5
100
AcDbMText
 10
1112.52005208333
 20
-693.336597222223
 30
0.0
 40
21.16666555404663
 41
125.0
 71
     1
 72
     1
  1
表面処理
  7
Style1
 73
     1
 44
1.0
1001
ACAD
1000
MTEXTBEGIN
1070
    73
1070
     1
1070
    44
1040
1.0
1070
    74
1070
     0
1000
MTEXTEND
  0
MTEXT
  5
11F
330
F1
100
AcDbEntity
  8
___G
  6
DOT
 62
     7
370
     5
100
AcDbMText
 10
1475.02005208333
 20
-658.3365972222233
 30
0.0
 40
21.16666555404663
 41
125.0
 71
     1
 72
     1
  1
板　　厚
  7
Style1
 73
     1
 44
1.0
1001
ACAD
1000
MTEXTBEGIN
1070
    73
1070
     1
1070
    44
1040
1.0
1070
    74
1070
     0
1000
MTEXTEND
  0
MTEXT
  5
120
330
F1
100
AcDbEntity
  8
___G
  6
DOT
 62
     7
370
     5
100
AcDbMText
 10
1112.52005208333
 20
-658.3365972222233
 30
0.0
 40
21.16666555404663
 41
125.0
 71
     1
 72
     1
  1
材　　質
  7
Style1
 73
     1
 44
1.0
1001
ACAD
1000
MTEXTBEGIN
1070
    73
1070
     1
1070
    44
1040
1.0
1070
    74
1070
     0
1000
MTEXTEND
  0
LINE
  5
121
330
F1
100
AcDbEntity
  8
___G
  6
Continuous
 62
     7
370
     5
100
AcDbLine
 10
1600.020052083331
 20
-651.4340972222229
 30
0.0
 11
1600.020052083331
 21
-686.4340972222229
 31
0.0
  0
LINE
  5
122
330
F1
100
AcDbEntity
  8
___G
  6
Continuous
 62
     7
370
     5
100
AcDbLine
 10
1475.02005208333
 20
-651.4340972222229
 30
0.0
 11
1475.02005208333
 21
-686.4340972222229
 31
0.0
  0
LINE
  5
123
330
F1
100
AcDbEntity
  8
___G
  6
Continuous
 62
     7
370
     5
100
AcDbLine
 10
1237.52005208333
 20
-756.434097222223
 30
0.0
 11
1237.52005208333
 21
-651.4340972222229
 31
0.0
  0
LINE
  5
124
330
F1
100
AcDbEntity
  8
___G
  6
Continuous
 62
     7
370
     5
100
AcDbLine
 10
1112.52005208333
 20
-651.4340972222229
 30
0.0
 11
1112.52005208333
 21
-756.434097222223
 31
0.0
  0
LINE
  5
125
330
F1
100
AcDbEntity
  8
___G
  6
Continuous
 62
     7
370
     5
100
AcDbLine
 10
1837.520052083332
 20
-651.4340972222229
 30
0.0
 11
1112.52005208333
 21
-651.4340972222229
 31
0.0
  0
LINE
  5
126
330
F1
100
AcDbEntity
  8
___G
  6
Continuous
 62
     7
370
     5
100
AcDbLine
 10
1837.520052083332
 20
-686.4340972222229
 30
0.0
 11
1112.52005208333
 21
-686.4340972222229
 31
0.0
  0
LINE
  5
127
330
F1
100
AcDbEntity
  8
___G
  6
Continuous
 62
     7
370
     5
100
AcDbLine
 10
1837.520052083332
 20
-721.434097222223
 30
0.0
 11
1112.52005208333
 21
-721.434097222223
 31
0.0
  0
LINE
  5
128
330
F1
100
AcDbEntity
  8
___G
  6
Continuous
 62
     7
370
     5
100
AcDbLine
 10
1837.520052083332
 20
-756.434097222223
 30
0.0
 11
1112.52005208333
 21
-756.434097222223
 31
0.0
  0
LINE
  5
129
330
F1
100
AcDbEntity
  8
___G
  6
Continuous
 62
     7
370
    18
100
AcDbLine
 10
1350.823284524763
 20
-876.0507323877829
 30
0.0
 11
1330.823284524763
 21
-876.0507323877829
 31
0.0
  0
LINE
  5
12A
330
F1
100
AcDbEntity
  8
___G
  6
Continuous
 62
     7
370
    18
100
AcDbLine
 10
1350.823284524763
 20
-886.0507323877829
 30
0.0
 11
1350.823284524763
 21
-893.550732387783
 31
0.0
  0
LINE
  5
12B
330
F1
100
AcDbEntity
  8
___G
  6
Continuous
 62
     7
370
    18
100
AcDbLine
 10
1302.567765466997
 20
-886.0507323877829
 30
0.0
 11
1302.567765466997
 21
-893.550732387783
 31
0.0
  0
LINE
  5
12C
330
F1
100
AcDbEntity
  8
___G
  6
Continuous
 62
     7
370
    18
100
AcDbLine
 10
1420.21372806921
 20
-884.5507323877837
 30
0.0
 11
1432.707061402543
 21
-884.5507323877837
 31
0.0
  0
LINE
  5
12D
330
F1
100
AcDbEntity
  8
___G
  6
Continuous
 62
     5
370
    18
100
AcDbLine
 10
1837.520052083332
 20
-921.4340972222228
 30
0.0
 11
-162.4799479166664
 21
-921.4340972222228
 31
0.0
  0
MTEXT
  5
12E
330
F1
100
AcDbEntity
  8
___G
  6
Continuous
 62
     7
370
     5
100
AcDbMText
 10
1300.02005208333
 20
-816.4822811707121
 30
0.0
 40
17.63888835906982
 41
50.0
 71
     1
 72
     1
  1
 照査
  7
Style1
 73
     1
 44
1.0
1001
ACAD
1000
MTEXTBEGIN
1070
    73
1070
     1
1070
    44
1040
1.0
1070
    74
1070
     0
1000
MTEXTEND
  0
LINE
  5
12F
330
F1
100
AcDbEntity
  8
___G
  6
Continuous
 62
     7
370
    18
100
AcDbLine
 10
1465.21372806921
 20
-884.5507323877837
 30
0.0
 11
1465.21372806921
 21
-893.550732387783
 31
0.0
  0
MTEXT
  5
130
330
F1
100
AcDbEntity
  8
___G
  6
Continuous
 62
     7
370
     5
100
AcDbMText
 10
1112.52005208333
 20
-816.4822811707121
 30
0.0
 40
17.63888835906982
 41
50.0
 71
     1
 72
     1
  1
 設計
  7
Style1
 73
     1
 44
1.0
1001
ACAD
1000
MTEXTBEGIN
1070
    73
1070
     1
1070
    44
1040
1.0
1070
    74
1070
     0
1000
MTEXTEND
  0
MTEXT
  5
131
330
F1
100
AcDbEntity
  8
___G
  6
Continuous
 62
     7
370
     5
100
AcDbMText
 10
1112.52005208333
 20
-843.9822811707124
 30
0.0
 40
17.63888835906982
 41
50.0
 71
     1
 72
     1
  1
 製図
  7
Style1
 73
     1
 44
1.0
1001
ACAD
1000
MTEXTBEGIN
1070
    73
1070
     1
1070
    44
1040
1.0
1070
    74
1070
     0
1000
MTEXTEND
  0
LINE
  5
132
330
F1
100
AcDbEntity
  8
___G
  6
Continuous
 62
     7
370
    18
100
AcDbLine
 10
1441.21372806921
 20
-913.5507323877828
 30
0.0
 11
1439.160394735877
 21
-906.5507323877838
 31
0.0
  0
MTEXT
  5
133
330
F1
100
AcDbEntity
  8
___G
  6
Continuous
 62
     7
370
     5
100
AcDbMText
 10
1139.719236767196
 20
-878.0599305555558
 30
0.0
 40
31.74999952316284
 41
156.2269440827546
 71
     1
 72
     1
  1
株式会社
  7
Style1
 73
     1
 44
1.0
1001
ACAD
1000
MTEXTBEGIN
1070
    73
1070
     1
1070
    44
1040
1.0
1070
    74
1070
     0
1000
MTEXTEND
  0
ARC
  5
134
330
F1
100
AcDbEntity
  8
___G
  6
Continuous
 62
     7
370
    18
100
AcDbCircle
 10
1376.626314827793
 20
-883.550732387783
 30
0.0
 40
27.50000000000043
100
AcDbArc
 50
-90.0
 51
-57.45504114595473
  0
LINE
  5
135
330
F1
100
AcDbEntity
  8
___G
  6
Continuous
 62
     7
370
    18
100
AcDbLine
 10
1343.323284524763
 20
-893.550732387783
 30
0.0
 11
1350.823284524763
 21
-893.550732387783
 31
0.0
  0
ARC
  5
136
330
F1
100
AcDbEntity
  8
___G
  6
Continuous
 62
     7
370
    18
100
AcDbCircle
 10
1370.126314827792
 20
-884.5507323877837
 30
0.0
 40
18.99999999999957
100
AcDbArc
 50
-28.60071861673987
 51
-1.50795775423611
  0
LINE
  5
137
330
F1
100
AcDbEntity
  8
___G
  6
Continuous
 62
     7
370
    18
100
AcDbLine
 10
1308.323284524763
 20
-903.550732387783
 30
0.0
 11
1308.323284524763
 21
-911.0507323877827
 31
0.0
  0
LINE
  5
138
330
F1
100
AcDbEntity
  8
___G
  6
Continuous
 62
     7
370
    18
100
AcDbLine
 10
1308.323284524763
 20
-893.550732387783
 30
0.0
 11
1307.567765466997
 21
-893.550732387783
 31
0.0
  0
LINE
  5
139
330
F1
100
AcDbEntity
  8
___G
  6
Continuous
 62
     7
370
    18
100
AcDbLine
 10
1364.126314827793
 20
-903.550732387783
 30
0.0
 11
1364.126314827793
 21
-911.0507323877827
 31
0.0
  0
LINE
  5
13A
330
F1
100
AcDbEntity
  8
___G
  6
Continuous
 62
     7
370
    18
100
AcDbLine
 10
1409.126314827793
 20
-876.0507323877829
 30
0.0
 11
1364.126314827793
 21
-876.0507323877829
 31
0.0
  0
LINE
  5
13B
330
F1
100
AcDbEntity
  8
___G
  6
Continuous
 62
     7
370
    18
100
AcDbLine
 10
1446.868549849431
 20
-884.550732387783
 30
0.0
 11
1446.136578598309
 21
-882.0070879354473
 31
0.0
  0
LINE
  5
13C
330
F1
100
AcDbEntity
  8
___G
  6
Continuous
 62
     7
370
    18
100
AcDbLine
 10
1446.868549849431
 20
-884.5507323877837
 30
0.0
 11
1465.21372806921
 21
-884.5507323877837
 31
0.0
  0
LINE
  5
13D
330
F1
100
AcDbEntity
  8
___G
  6
Continuous
 62
     7
370
    18
100
AcDbLine
 10
1450.609491810022
 20
-897.5507323877829
 30
0.0
 11
1449.458432745224
 21
-893.550732387783
 31
0.0
  0
LINE
  5
13E
330
F1
100
AcDbEntity
  8
___G
  6
Continuous
 62
     7
370
    18
100
AcDbLine
 10
1420.21372806921
 20
-897.5507323877829
 30
0.0
 11
1436.520394735877
 21
-897.5507323877829
 31
0.0
  0
LINE
  5
13F
330
F1
100
AcDbEntity
  8
___G
  6
Continuous
 62
     7
370
    18
100
AcDbLine
 10
1432.707061402543
 20
-884.550732387783
 30
0.0
 11
1430.21372806921
 21
-876.0507323877829
 31
0.0
  0
LINE
  5
140
330
F1
100
AcDbEntity
  8
___G
  6
Continuous
 62
     7
370
    18
100
AcDbLine
 10
1453.199374705815
 20
-906.5507323877838
 30
0.0
 11
1465.21372806921
 21
-906.5507323877838
 31
0.0
  0
LINE
  5
141
330
F1
100
AcDbEntity
  8
___G
  6
Continuous
 62
     7
370
    18
100
AcDbLine
 10
1308.323284524763
 20
-876.0507323877829
 30
0.0
 11
1308.323284524763
 21
-886.0507323877829
 31
0.0
  0
ARC
  5
142
330
F1
100
AcDbEntity
  8
___G
  6
Continuous
 62
     7
370
    18
100
AcDbCircle
 10
1328.323284524763
 20
-896.050732387783
 30
0.0
 40
15.0
100
AcDbArc
 50
-90.0
 51
0.0
  0
LINE
  5
143
330
F1
100
AcDbEntity
  8
___G
  6
Continuous
 62
     7
370
    18
100
AcDbLine
 10
1364.126314827793
 20
-876.0507323877829
 30
0.0
 11
1364.126314827793
 21
-885.0507323877829
 31
0.0
  0
LINE
  5
144
330
F1
100
AcDbEntity
  8
___G
  6
Continuous
 62
     7
370
    18
100
AcDbLine
 10
1364.126314827793
 20
-911.0507323877827
 30
0.0
 11
1376.626314827793
 21
-911.0507323877827
 31
0.0
  0
LINE
  5
145
330
F1
100
AcDbEntity
  8
___G
  6
DOT
 62
     7
370
     5
100
AcDbLine
 10
1862.420052083331
 20
499.7159027777776
 30
0.0
 11
-187.3799479166664
 21
499.7159027777776
 31
0.0
  0
LINE
  5
146
330
F1
100
AcDbEntity
  8
___G
  6
DOT
 62
     7
370
     5
100
AcDbLine
 10
-187.3799479166664
 20
-942.5840972222225
 30
0.0
 11
1862.420052083331
 21
-942.5840972222225
 31
0.0
  0
LINE
  5
147
330
F1
100
AcDbEntity
  8
___G
  6
Continuous
 62
     7
370
    18
100
AcDbLine
 10
1364.126314827793
 20
-889.2718350625967
 30
0.0
 11
1364.126314827793
 21
-887.6612837251897
 31
0.0
  0
LINE
  5
148
330
F1
100
AcDbEntity
  8
___G
  6
Continuous
 62
     7
370
    18
100
AcDbLine
 10
1431.949639641778
 20
-777.934097222223
 30
0.0
 11
1431.949639641778
 21
-789.934097222223
 31
0.0
  0
LINE
  5
149
330
F1
100
AcDbEntity
  8
___G
  6
Continuous
 62
     7
370
    18
100
AcDbLine
 10
1330.823284524763
 20
-893.550732387783
 30
0.0
 11
1330.823284524763
 21
-896.050732387783
 31
0.0
  0
LINE
  5
14A
330
F1
100
AcDbEntity
  8
___G
  6
Continuous
 62
     7
370
    18
100
AcDbLine
 10
1455.21372806921
 20
-913.5507323877828
 30
0.0
 11
1441.21372806921
 21
-913.5507323877828
 31
0.0
  0
CIRCLE
  5
14B
330
F1
100
AcDbEntity
  8
___G
  6
Continuous
 62
     7
370
    18
100
AcDbCircle
 10
1404.52005208333
 20
-783.9340972222231
 30
0.0
 40
11.99999999999954
  0
CIRCLE
  5
14C
330
F1
100
AcDbEntity
  8
___G
  6
Continuous
 62
     7
370
    18
100
AcDbCircle
 10
1404.52005208333
 20
-783.9340972222231
 30
0.0
 40
6.000000000000453
  0
LINE
  5
14D
330
F1
100
AcDbEntity
  8
___G
  6
Continuous
 62
     7
370
    18
100
AcDbLine
 10
1420.21372806921
 20
-897.5507323877829
 30
0.0
 11
1420.21372806921
 21
-906.5507323877838
 31
0.0
  0
ARC
  5
14E
330
F1
100
AcDbEntity
  8
___G
  6
Continuous
 62
     7
370
    18
100
AcDbCircle
 10
1323.323284524763
 20
-896.050732387783
 30
0.0
 40
7.5
100
AcDbArc
 50
-90.0
 51
0.0
  0
LINE
  5
14F
330
F1
100
AcDbEntity
  8
___G
  6
Continuous
 62
     7
370
    18
100
AcDbLine
 10
1420.21372806921
 20
-906.5507323877838
 30
0.0
 11
1439.160394735877
 21
-906.5507323877838
 31
0.0
  0
LINE
  5
150
330
F1
100
AcDbEntity
  8
___G
  6
Continuous
 62
     7
370
    18
100
AcDbLine
 10
1308.323284524763
 20
-911.0507323877827
 30
0.0
 11
1328.323284524763
 21
-911.0507323877827
 31
0.0
  0
LINE
  5
151
330
F1
100
AcDbEntity
  8
___G
  6
Continuous
 62
     7
370
    18
100
AcDbLine
 10
1436.520394735877
 20
-897.5507323877829
 30
0.0
 11
1435.347061402543
 21
-893.550732387783
 31
0.0
  0
LINE
  5
152
330
F1
100
AcDbEntity
  8
___G
  6
Continuous
 62
     7
370
    18
100
AcDbLine
 10
1343.323284524763
 20
-883.550732387783
 30
0.0
 11
1350.823284524763
 21
-876.0507323877829
 31
0.0
  0
LINE
  5
153
330
F1
100
AcDbEntity
  8
___G
  6
Continuous
 62
     7
370
    18
100
AcDbLine
 10
1308.323284524763
 20
-893.550732387783
 30
0.0
 11
1308.323284524763
 21
-901.0507323877828
 31
0.0
  0
MTEXT
  5
154
330
F1
100
AcDbEntity
  8
___G
  6
Continuous
 62
     7
370
     5
100
AcDbMText
 10
1490.52005208333
 20
-814.4340972222231
 30
0.0
 40
17.63888835906982
 41
60.0
 71
     1
 72
     1
  1
図面名
  7
Style1
 73
     1
 44
1.0
1001
ACAD
1000
MTEXTBEGIN
1070
    73
1070
     1
1070
    44
1040
1.0
1070
    74
1070
     0
1000
MTEXTEND
  0
MTEXT
  5
155
330
F1
100
AcDbEntity
  8
___G
  6
Continuous
 62
     7
370
     5
100
AcDbMText
 10
1490.52005208333
 20
-759.434097222223
 30
0.0
 40
17.63888835906982
 41
60.0
 71
     1
 72
     1
  1
製品名
  7
Style1
 73
     1
 44
1.0
1001
ACAD
1000
MTEXTBEGIN
1070
    73
1070
     1
1070
    44
1040
1.0
1070
    74
1070
     0
1000
MTEXTEND
  0
LINE
  5
156
330
F1
100
AcDbEntity
  8
___G
  6
Continuous
 62
     7
370
    18
100
AcDbLine
 10
1308.323284524763
 20
-886.0507323877829
 30
0.0
 11
1302.567765466997
 21
-886.0507323877829
 31
0.0
  0
LINE
  5
157
330
F1
100
AcDbEntity
  8
___G
  6
Continuous
 62
     7
370
    18
100
AcDbLine
 10
1430.21372806921
 20
-876.0507323877829
 30
0.0
 11
1450.21372806921
 21
-876.0507323877829
 31
0.0
  0
LINE
  5
158
330
F1
100
AcDbEntity
  8
___G
  6
Continuous
 62
     7
370
    18
100
AcDbLine
 10
1364.126314827793
 20
-903.550732387783
 30
0.0
 11
1370.126314827792
 21
-903.550732387783
 31
0.0
  0
LINE
  5
159
330
F1
100
AcDbEntity
  8
___G
  6
Continuous
 62
     7
370
    18
100
AcDbLine
 10
1450.609491810022
 20
-897.5507323877829
 30
0.0
 11
1465.21372806921
 21
-897.5507323877829
 31
0.0
  0
LINE
  5
15A
330
F1
100
AcDbEntity
  8
___G
  6
Continuous
 62
     7
370
    18
100
AcDbLine
 10
1455.21372806921
 20
-913.5507323877828
 30
0.0
 11
1453.199374705815
 21
-906.5507323877838
 31
0.0
  0
LINE
  5
15B
330
F1
100
AcDbEntity
  8
___G
  6
Continuous
 62
     7
370
    18
100
AcDbLine
 10
1364.126314827793
 20
-911.0507323877827
 30
0.0
 11
1364.126314827793
 21
-903.550732387783
 31
0.0
  0
LINE
  5
15C
330
F1
100
AcDbEntity
  8
___G
  6
Continuous
 62
     7
370
    18
100
AcDbLine
 10
1446.136578598309
 20
-882.0070879354473
 30
0.0
 11
1450.21372806921
 21
-876.0507323877829
 31
0.0
  0
LINE
  5
15D
330
F1
100
AcDbEntity
  8
___G
  6
Continuous
 62
     7
370
    18
100
AcDbLine
 10
1404.126314827792
 20
-883.550732387783
 30
0.0
 11
1409.126314827793
 21
-876.0507323877829
 31
0.0
  0
LINE
  5
15E
330
F1
100
AcDbEntity
  8
___G
  6
Continuous
 62
     7
370
    18
100
AcDbLine
 10
1343.323284524763
 20
-886.0507323877829
 30
0.0
 11
1343.323284524763
 21
-883.550732387783
 31
0.0
  0
LINE
  5
15F
330
F1
100
AcDbEntity
  8
___G
  6
Continuous
 62
     7
370
    18
100
AcDbLine
 10
1350.823284524763
 20
-886.0507323877829
 30
0.0
 11
1343.323284524763
 21
-886.0507323877829
 31
0.0
  0
LINE
  5
160
330
F1
100
AcDbEntity
  8
___G
  6
Continuous
 62
     7
370
    18
100
AcDbLine
 10
1420.21372806921
 20
-893.550732387783
 30
0.0
 11
1435.347061402543
 21
-893.550732387783
 31
0.0
  0
SPLINE
  5
161
330
F1
100
AcDbEntity
  8
___G
  6
Continuous
 62
     7
370
    18
100
AcDbSpline
210
0.0
220
0.0
230
1.0
 70
     8
 71
     3
 72
     8
 73
     4
 74
     0
 42
0.0000000001
 43
0.0000000001
 40
0.0
 40
0.0
 40
0.0
 40
0.0
 40
1.0
 40
1.0
 40
1.0
 40
1.0
 10
1391.420248798295
 20
-906.7323957810003
 30
0.0
 10
1397.115680229042
 20
-908.5538382346131
 30
0.0
 10
1403.120997528417
 20
-909.8022853111979
 30
0.0
 10
1409.126314827793
 20
-911.0507323877827
 30
0.0
  0
LINE
  5
162
330
F1
100
AcDbEntity
  8
___G
  6
Continuous
 62
     7
370
    18
100
AcDbLine
 10
1364.126314827793
 20
-885.0507323877829
 30
0.0
 11
1389.126314827793
 21
-885.0507323877829
 31
0.0
  0
LINE
  5
163
330
F1
100
AcDbEntity
  8
___G
  6
Continuous
 62
     7
370
    18
100
AcDbLine
 10
1323.323284524763
 20
-903.550732387783
 30
0.0
 11
1308.323284524763
 21
-903.550732387783
 31
0.0
  0
SPLINE
  5
164
330
F1
100
AcDbEntity
  8
___G
  6
Continuous
 62
     7
370
    18
100
AcDbSpline
210
0.0
220
0.0
230
1.0
 70
     8
 71
     3
 72
     8
 73
     4
 74
     0
 42
0.0000000001
 43
0.0000000001
 40
0.0
 40
0.0
 40
0.0
 40
0.0
 40
1.0
 40
1.0
 40
1.0
 40
1.0
 10
1381.297887703047
 20
-890.4897108499365
 30
0.0
 10
1382.694749839617
 20
-892.047212019402
 30
0.0
 10
1384.091611976185
 20
-893.6047131888672
 30
0.0
 10
1385.604898254642
 20
-894.9747787161031
 30
0.0
  0
SPLINE
  5
165
330
F1
100
AcDbEntity
  8
___G
  6
Continuous
 62
     7
370
    18
100
AcDbSpline
210
0.0
220
0.0
230
1.0
 70
     8
 71
     3
 72
     8
 73
     4
 74
     0
 42
0.0000000001
 43
0.0000000001
 40
0.0
 40
0.0
 40
0.0
 40
0.0
 40
1.0
 40
1.0
 40
1.0
 40
1.0
 10
1397.549401289269
 20
-901.1682791535987
 30
0.0
 10
1401.248247556917
 20
-902.2202214011324
 30
0.0
 10
1405.187281192355
 20
-902.8854768944578
 30
0.0
 10
1409.126314827793
 20
-903.550732387783
 30
0.0
  0
MTEXT
  5
166
330
F1
100
AcDbEntity
  8
___G
  6
Continuous
 62
     7
370
     5
100
AcDbMText
 10
1490.52005208333
 20
-869.434097222223
 30
0.0
 40
17.63888835906982
 41
60.0
 71
     1
 72
     1
  1
図 番
  7
Style1
 73
     1
 44
1.0
1001
ACAD
1000
MTEXTBEGIN
1070
    73
1070
     1
1070
    44
1040
1.0
1070
    74
1070
     0
1000
MTEXTEND
  0
LINE
  5
167
330
F1
100
AcDbEntity
  8
___G
  6
Continuous
 62
     7
370
    18
100
AcDbLine
 10
1320.823284524763
 20
-883.550732387783
 30
0.0
 11
1328.323284524763
 21
-876.0507323877829
 31
0.0
  0
LINE
  5
168
330
F1
100
AcDbEntity
  8
___G
  6
Continuous
 62
     7
370
    18
100
AcDbLine
 10
1328.323284524763
 20
-876.0507323877829
 30
0.0
 11
1308.323284524763
 21
-876.0507323877829
 31
0.0
  0
LINE
  5
169
330
F1
100
AcDbEntity
  8
___G
  6
Continuous
 62
     7
370
    18
100
AcDbLine
 10
1330.823284524763
 20
-886.0507323877829
 30
0.0
 11
1320.823284524763
 21
-886.0507323877829
 31
0.0
  0
LINE
  5
16A
330
F1
100
AcDbEntity
  8
___G
  6
Continuous
 62
     7
370
    18
100
AcDbLine
 10
1420.21372806921
 20
-884.5507323877837
 30
0.0
 11
1420.21372806921
 21
-893.550732387783
 31
0.0
  0
LINE
  5
16B
330
F1
100
AcDbEntity
  8
___G
  6
Continuous
 62
     7
370
    18
100
AcDbLine
 10
1343.323284524763
 20
-896.050732387783
 30
0.0
 11
1343.323284524763
 21
-893.550732387783
 31
0.0
  0
LINE
  5
16C
330
F1
100
AcDbEntity
  8
___G
  6
Continuous
 62
     7
370
    18
100
AcDbLine
 10
1320.823284524763
 20
-901.0507323877828
 30
0.0
 11
1320.823284524763
 21
-893.550732387783
 31
0.0
  0
LINE
  5
16D
330
F1
100
AcDbEntity
  8
___G
  6
Continuous
 62
     7
370
    18
100
AcDbLine
 10
1409.126314827793
 20
-903.550732387783
 30
0.0
 11
1409.126314827793
 21
-911.0507323877827
 31
0.0
  0
LINE
  5
16E
330
F1
100
AcDbEntity
  8
___G
  6
Continuous
 62
     7
370
    18
100
AcDbLine
 10
1465.21372806921
 20
-897.5507323877829
 30
0.0
 11
1465.21372806921
 21
-906.5507323877838
 31
0.0
  0
LINE
  5
16F
330
F1
100
AcDbEntity
  8
___G
  6
Continuous
 62
     7
370
    18
100
AcDbLine
 10
1404.126314827792
 20
-883.550732387783
 30
0.0
 11
1409.126314827793
 21
-876.0507323877829
 31
0.0
  0
ARC
  5
170
330
F1
100
AcDbEntity
  8
___G
  6
Continuous
 62
     7
370
    18
100
AcDbCircle
 10
1370.126314827792
 20
-884.5507323877837
 30
0.0
 40
18.9999999999997
100
AcDbArc
 50
-90.0
 51
-61.91409518479279
  0
LINE
  5
171
330
F1
100
AcDbEntity
  8
___G
  6
Continuous
 62
     7
370
    18
100
AcDbLine
 10
1364.126314827793
 20
-887.6612837251897
 30
0.0
 11
1384.126314827792
 21
-887.6612837251897
 31
0.0
  0
LINE
  5
172
330
F1
100
AcDbEntity
  8
___G
  6
CENTER2
 62
     7
370
    18
100
AcDbLine
 10
1404.52005208333
 20
-765.9340972222238
 30
0.0
 11
1404.52005208333
 21
-801.9340972222231
 31
0.0
  0
LINE
  5
173
330
F1
100
AcDbEntity
  8
___G
  6
CENTER2
 62
     7
370
    18
100
AcDbLine
 10
1404.52005208333
 20
-765.9340972222238
 30
0.0
 11
1404.52005208333
 21
-801.9340972222231
 31
0.0
  0
LINE
  5
174
330
F1
100
AcDbEntity
  8
___G
  6
Continuous
 62
     7
370
    18
100
AcDbLine
 10
1455.949639641778
 20
-771.934097222223
 30
0.0
 11
1455.949639641778
 21
-795.9340972222238
 31
0.0
  0
LINE
  5
175
330
F1
100
AcDbEntity
  8
___G
  6
Continuous
 62
     7
370
    18
100
AcDbLine
 10
1431.949639641778
 20
-789.934097222223
 30
0.0
 11
1455.949639641778
 21
-795.9340972222238
 31
0.0
  0
LINE
  5
176
330
F1
100
AcDbEntity
  8
___G
  6
Continuous
 62
     7
370
    18
100
AcDbLine
 10
1431.949639641778
 20
-777.934097222223
 30
0.0
 11
1431.949639641778
 21
-789.934097222223
 31
0.0
  0
LINE
  5
177
330
F1
100
AcDbEntity
  8
___G
  6
Continuous
 62
     7
370
    18
100
AcDbLine
 10
1449.458432745224
 20
-893.550732387783
 30
0.0
 11
1465.21372806921
 21
-893.550732387783
 31
0.0
  0
LINE
  5
178
330
F1
100
AcDbEntity
  8
___G
  6
Continuous
 62
     7
370
    18
100
AcDbLine
 10
1330.823284524763
 20
-876.0507323877829
 30
0.0
 11
1330.823284524763
 21
-886.0507323877829
 31
0.0
  0
LINE
  5
179
330
F1
100
AcDbEntity
  8
___G
  6
CENTER2
 62
     7
370
    18
100
AcDbLine
 10
1404.52005208333
 20
-765.9340972222238
 30
0.0
 11
1404.52005208333
 21
-801.9340972222231
 31
0.0
  0
LINE
  5
17A
330
F1
100
AcDbEntity
  8
___G
  6
Continuous
 62
     7
370
     5
100
AcDbLine
 10
1112.52005208333
 20
-811.434097222223
 30
0.0
 11
1837.520052083332
 21
-811.434097222223
 31
0.0
  0
LINE
  5
17B
330
F1
100
AcDbEntity
  8
___G
  6
Continuous
 62
     7
370
    18
100
AcDbLine
 10
1431.949639641778
 20
-789.934097222223
 30
0.0
 11
1455.949639641778
 21
-795.9340972222238
 31
0.0
  0
LINE
  5
17C
330
F1
100
AcDbEntity
  8
___G
  6
Continuous
 62
     7
370
    18
100
AcDbLine
 10
1431.949639641778
 20
-777.934097222223
 30
0.0
 11
1455.949639641778
 21
-771.934097222223
 31
0.0
  0
CIRCLE
  5
17D
330
F1
100
AcDbEntity
  8
___G
  6
Continuous
 62
     7
370
    18
100
AcDbCircle
 10
1404.52005208333
 20
-783.9340972222231
 30
0.0
 40
6.000000000000453
  0
CIRCLE
  5
17E
330
F1
100
AcDbEntity
  8
___G
  6
Continuous
 62
     7
370
    18
100
AcDbCircle
 10
1404.52005208333
 20
-783.9340972222231
 30
0.0
 40
11.99999999999954
  0
LINE
  5
17F
330
F1
100
AcDbEntity
  8
___G
  6
Continuous
 62
     7
370
    18
100
AcDbLine
 10
1431.949639641778
 20
-777.934097222223
 30
0.0
 11
1455.949639641778
 21
-771.934097222223
 31
0.0
  0
LINE
  5
180
330
F1
100
AcDbEntity
  8
___G
  6
Continuous
 62
     7
370
    18
100
AcDbLine
 10
1455.949639641778
 20
-771.934097222223
 30
0.0
 11
1455.949639641778
 21
-795.9340972222238
 31
0.0
  0
LINE
  5
181
330
F1
100
AcDbEntity
  8
___G
  6
Continuous
 62
     7
370
    18
100
AcDbLine
 10
1431.949639641778
 20
-777.934097222223
 30
0.0
 11
1431.949639641778
 21
-789.934097222223
 31
0.0
  0
LINE
  5
182
330
F1
100
AcDbEntity
  8
___G
  6
Continuous
 62
     7
370
    18
100
AcDbLine
 10
1431.949639641778
 20
-789.934097222223
 30
0.0
 11
1455.949639641778
 21
-795.9340972222238
 31
0.0
  0
LINE
  5
183
330
F1
100
AcDbEntity
  8
___G
  6
Continuous
 62
     7
370
    18
100
AcDbLine
 10
1431.949639641778
 20
-777.934097222223
 30
0.0
 11
1455.949639641778
 21
-771.934097222223
 31
0.0
  0
CIRCLE
  5
184
330
F1
100
AcDbEntity
  8
___G
  6
Continuous
 62
     7
370
    18
100
AcDbCircle
 10
1404.52005208333
 20
-783.9340972222231
 30
0.0
 40
11.99999999999954
  0
CIRCLE
  5
185
330
F1
100
AcDbEntity
  8
___G
  6
Continuous
 62
     7
370
    18
100
AcDbCircle
 10
1404.52005208333
 20
-783.9340972222231
 30
0.0
 40
6.000000000000453
  0
LINE
  5
186
330
F1
100
AcDbEntity
  8
___G
  6
CENTER2
 62
     7
370
    18
100
AcDbLine
 10
1386.52005208333
 20
-783.9340972222231
 30
0.0
 11
1463.52005208333
 21
-783.9340972222231
 31
0.0
  0
CIRCLE
  5
187
330
F1
100
AcDbEntity
  8
___G
  6
Continuous
 62
     7
370
    18
100
AcDbCircle
 10
1404.52005208333
 20
-783.9340972222231
 30
0.0
 40
6.000000000000453
  0
CIRCLE
  5
188
330
F1
100
AcDbEntity
  8
___G
  6
Continuous
 62
     7
370
    18
100
AcDbCircle
 10
1404.52005208333
 20
-783.9340972222231
 30
0.0
 40
11.99999999999954
  0
LINE
  5
189
330
F1
100
AcDbEntity
  8
___G
  6
Continuous
 62
     7
370
    18
100
AcDbLine
 10
1431.949639641778
 20
-777.934097222223
 30
0.0
 11
1455.949639641778
 21
-771.934097222223
 31
0.0
  0
LINE
  5
18A
330
F1
100
AcDbEntity
  8
___G
  6
Continuous
 62
     7
370
    18
100
AcDbLine
 10
1431.949639641778
 20
-789.934097222223
 30
0.0
 11
1455.949639641778
 21
-795.9340972222238
 31
0.0
  0
LINE
  5
18B
330
F1
100
AcDbEntity
  8
___G
  6
Continuous
 62
     7
370
    18
100
AcDbLine
 10
1431.949639641778
 20
-777.934097222223
 30
0.0
 11
1431.949639641778
 21
-789.934097222223
 31
0.0
  0
LINE
  5
18C
330
F1
100
AcDbEntity
  8
___G
  6
Continuous
 62
     7
370
    18
100
AcDbLine
 10
1455.949639641778
 20
-771.934097222223
 30
0.0
 11
1455.949639641778
 21
-795.9340972222238
 31
0.0
  0
LINE
  5
18D
330
F1
100
AcDbEntity
  8
___G
  6
Continuous
 62
     7
370
     5
100
AcDbLine
 10
1487.52005208333
 20
-756.434097222223
 30
0.0
 11
1487.52005208333
 21
-921.4340972222228
 31
0.0
  0
LINE
  5
18E
330
F1
100
AcDbEntity
  8
___G
  6
Continuous
 62
     7
370
    18
100
AcDbLine
 10
1398.439911588231
 20
-900.296388432651
 30
0.0
 11
1397.549401289269
 21
-901.1682791535987
 31
0.0
  0
LINE
  5
18F
330
F1
100
AcDbEntity
  8
___G
  6
Continuous
 62
     7
370
    18
100
AcDbLine
 10
1320.823284524763
 20
-886.0507323877829
 30
0.0
 11
1320.823284524763
 21
-883.550732387783
 31
0.0
  0
LINE
  5
190
330
F1
100
AcDbEntity
  8
___G
  6
Continuous
 62
     7
370
    18
100
AcDbLine
 10
1455.949639641778
 20
-771.934097222223
 30
0.0
 11
1455.949639641778
 21
-795.9340972222238
 31
0.0
  0
LINE
  5
191
330
F1
100
AcDbEntity
  8
___G
  6
CENTER2
 62
     7
370
    18
100
AcDbLine
 10
1404.52005208333
 20
-765.9340972222238
 30
0.0
 11
1404.52005208333
 21
-801.9340972222231
 31
0.0
  0
SPLINE
  5
192
330
F1
100
AcDbEntity
  8
___G
  6
Continuous
 62
     7
370
    18
100
AcDbSpline
210
0.0
220
0.0
230
1.0
 70
     8
 71
     3
 72
     9
 73
     5
 74
     0
 42
0.0000000001
 43
0.0000000001
 40
0.0
 40
0.0
 40
0.0
 40
0.0
 40
0.9999999993702067
 40
1.0
 40
1.0
 40
1.0
 40
1.0
 10
1364.126314827793
 20
-889.2718350625967
 30
0.0
 10
1368.899337844627
 20
-893.6715275448824
 30
0.0
 10
1373.672360864468
 20
-898.0712200299397
 30
0.0
 10
1379.071417122283
 20
-901.3133439146216
 30
0.0
 10
1379.071417125683
 20
-901.3133439166633
 30
0.0
  0
ENDBLK
  5
193
330
F1
100
AcDbEntity
  8
0
100
AcDbBlockEnd
  0
BLOCK
  5
1AE
330
1AD
100
AcDbEntity
  8
0
100
AcDbBlockBegin
  2
*D16
 70
     1
 10
0.0
 20
0.0
 30
0.0
  3
*D16
  1

  0
LINE
  5
444
330
1AD
100
AcDbEntity
  8
寸法線_1
  6
Continuous
 62
     7
370
    -2
100
AcDbLine
 10
1027.667492685936
 20
31.27254387096404
 30
0.0
 11
1027.667492685936
 21
89.77254387096465
 31
0.0
  0
LINE
  5
445
330
1AD
100
AcDbEntity
  8
寸法線_1
  6
Continuous
 62
     7
370
    -2
100
AcDbLine
 10
1227.667492685936
 20
31.27254387096397
 30
0.0
 11
1227.667492685936
 21
89.77254387096465
 31
0.0
  0
LINE
  5
446
330
1AD
100
AcDbEntity
  8
寸法線_1
  6
Continuous
 62
     7
370
    -2
100
AcDbLine
 10
1030.667492685936
 20
89.27254387096466
 30
0.0
 11
1224.667492685936
 21
89.27254387096466
 31
0.0
  0
SOLID
  5
447
330
1AD
100
AcDbEntity
  8
寸法線_1
  6
Continuous
 62
     7
370
     0
100
AcDbTrace
 10
1030.667492685936
 20
89.77254387096465
 30
0.0
 11
1030.667492685936
 21
88.77254387096465
 31
0.0
 12
1027.667492685936
 22
89.27254387096466
 32
0.0
 13
1027.667492685936
 23
89.27254387096466
 33
0.0
  0
SOLID
  5
448
330
1AD
100
AcDbEntity
  8
寸法線_1
  6
Continuous
 62
     7
370
     0
100
AcDbTrace
 10
1224.667492685936
 20
89.77254387096465
 30
0.0
 11
1224.667492685936
 21
88.77254387096465
 31
0.0
 12
1227.667492685936
 22
89.27254387096466
 32
0.0
 13
1227.667492685936
 23
89.27254387096466
 33
0.0
  0
MTEXT
  5
449
330
1AD
100
AcDbEntity
  8
寸法線_1
  6
Continuous
 62
     7
370
     5
100
AcDbMText
 10
1127.667492685936
 20
99.09198852733672
 30
0.0
 40
17.63888931274414
 41
0.0
 71
     5
 72
     1
  1
\A1;200
 73
     1
 44
1.0
1001
ACAD
1000
MTEXTBEGIN
1070
    73
1070
     1
1070
    44
1040
1.0
1070
    74
1070
     0
1000
MTEXTEND
  0
POINT
  5
44A
330
1AD
100
AcDbEntity
  8
DEFPOINTS
  6
Continuous
 62
     0
370
     0
100
AcDbPoint
 10
1027.667492685936
 20
30.27254387096403
 30
0.0
  0
POINT
  5
44B
330
1AD
100
AcDbEntity
  8
DEFPOINTS
  6
Continuous
 62
     0
370
     0
100
AcDbPoint
 10
1227.667492685936
 20
30.27254387096397
 30
0.0
  0
POINT
  5
44C
330
1AD
100
AcDbEntity
  8
DEFPOINTS
  6
Continuous
 62
     0
370
     0
100
AcDbPoint
 10
1227.667492685936
 20
89.27254387096466
 30
0.0
  0
ENDBLK
  5
1B8
330
1AD
100
AcDbEntity
  8
0
100
AcDbBlockEnd
  0
BLOCK
  5
1BB
330
1BA
100
AcDbEntity
  8
0
100
AcDbBlockBegin
  2
*D17
 70
     1
 10
0.0
 20
0.0
 30
0.0
  3
*D17
  1

  0
LINE
  5
43B
330
1BA
100
AcDbEntity
  8
寸法線_1
  6
Continuous
 62
     7
370
    -2
100
AcDbLine
 10
1227.667492685936
 20
31.27254387096397
 30
0.0
 11
1227.667492685936
 21
89.77254387096465
 31
0.0
  0
LINE
  5
43C
330
1BA
100
AcDbEntity
  8
寸法線_1
  6
Continuous
 62
     7
370
    -2
100
AcDbLine
 10
1427.667492685936
 20
31.27254387096392
 30
0.0
 11
1427.667492685936
 21
89.77254387096465
 31
0.0
  0
LINE
  5
43D
330
1BA
100
AcDbEntity
  8
寸法線_1
  6
Continuous
 62
     7
370
    -2
100
AcDbLine
 10
1230.667492685936
 20
89.27254387096466
 30
0.0
 11
1424.667492685936
 21
89.27254387096466
 31
0.0
  0
SOLID
  5
43E
330
1BA
100
AcDbEntity
  8
寸法線_1
  6
Continuous
 62
     7
370
     0
100
AcDbTrace
 10
1230.667492685936
 20
89.77254387096465
 30
0.0
 11
1230.667492685936
 21
88.77254387096465
 31
0.0
 12
1227.667492685936
 22
89.27254387096466
 32
0.0
 13
1227.667492685936
 23
89.27254387096466
 33
0.0
  0
SOLID
  5
43F
330
1BA
100
AcDbEntity
  8
寸法線_1
  6
Continuous
 62
     7
370
     0
100
AcDbTrace
 10
1424.667492685936
 20
89.77254387096465
 30
0.0
 11
1424.667492685936
 21
88.77254387096465
 31
0.0
 12
1427.667492685936
 22
89.27254387096466
 32
0.0
 13
1427.667492685936
 23
89.27254387096466
 33
0.0
  0
MTEXT
  5
440
330
1BA
100
AcDbEntity
  8
寸法線_1
  6
Continuous
 62
     7
370
     5
100
AcDbMText
 10
1327.667492685936
 20
99.09198852733672
 30
0.0
 40
17.63888931274414
 41
0.0
 71
     5
 72
     1
  1
\A1;200
 73
     1
 44
1.0
1001
ACAD
1000
MTEXTBEGIN
1070
    73
1070
     1
1070
    44
1040
1.0
1070
    74
1070
     0
1000
MTEXTEND
  0
POINT
  5
441
330
1BA
100
AcDbEntity
  8
DEFPOINTS
  6
Continuous
 62
     0
370
     0
100
AcDbPoint
 10
1227.667492685936
 20
30.27254387096397
 30
0.0
  0
POINT
  5
442
330
1BA
100
AcDbEntity
  8
DEFPOINTS
  6
Continuous
 62
     0
370
     0
100
AcDbPoint
 10
1427.667492685936
 20
30.27254387096391
 30
0.0
  0
POINT
  5
443
330
1BA
100
AcDbEntity
  8
DEFPOINTS
  6
Continuous
 62
     0
370
     0
100
AcDbPoint
 10
1427.667492685936
 20
89.27254387096466
 30
0.0
  0
ENDBLK
  5
1C5
330
1BA
100
AcDbEntity
  8
0
100
AcDbBlockEnd
  0
BLOCK
  5
1C8
330
1C7
100
AcDbEntity
  8
0
100
AcDbBlockBegin
  2
*D18
 70
     1
 10
0.0
 20
0.0
 30
0.0
  3
*D18
  1

  0
LINE
  5
432
330
1C7
100
AcDbEntity
  8
寸法線_1
  6
Continuous
 62
     7
370
    -2
100
AcDbLine
 10
1427.667492685936
 20
31.27254387096392
 30
0.0
 11
1427.667492685936
 21
89.77254387096465
 31
0.0
  0
LINE
  5
433
330
1C7
100
AcDbEntity
  8
寸法線_1
  6
Continuous
 62
     7
370
    -2
100
AcDbLine
 10
1587.667492685935
 20
40.27254387096465
 30
0.0
 11
1587.667492685935
 21
89.77254387096465
 31
0.0
  0
LINE
  5
434
330
1C7
100
AcDbEntity
  8
寸法線_1
  6
Continuous
 62
     7
370
    -2
100
AcDbLine
 10
1430.667492685936
 20
89.27254387096466
 30
0.0
 11
1584.667492685935
 21
89.27254387096466
 31
0.0
  0
SOLID
  5
435
330
1C7
100
AcDbEntity
  8
寸法線_1
  6
Continuous
 62
     7
370
     0
100
AcDbTrace
 10
1430.667492685936
 20
89.77254387096465
 30
0.0
 11
1430.667492685936
 21
88.77254387096465
 31
0.0
 12
1427.667492685936
 22
89.27254387096466
 32
0.0
 13
1427.667492685936
 23
89.27254387096466
 33
0.0
  0
SOLID
  5
436
330
1C7
100
AcDbEntity
  8
寸法線_1
  6
Continuous
 62
     7
370
     0
100
AcDbTrace
 10
1584.667492685935
 20
89.77254387096465
 30
0.0
 11
1584.667492685935
 21
88.77254387096465
 31
0.0
 12
1587.667492685935
 22
89.27254387096466
 32
0.0
 13
1587.667492685935
 23
89.27254387096466
 33
0.0
  0
MTEXT
  5
437
330
1C7
100
AcDbEntity
  8
寸法線_1
  6
Continuous
 62
     7
370
     5
100
AcDbMText
 10
1507.667492685936
 20
99.09198852733672
 30
0.0
 40
17.63888931274414
 41
0.0
 71
     5
 72
     1
  1
\A1;160
 73
     1
 44
1.0
1001
ACAD
1000
MTEXTBEGIN
1070
    73
1070
     1
1070
    44
1040
1.0
1070
    74
1070
     0
1000
MTEXTEND
  0
POINT
  5
438
330
1C7
100
AcDbEntity
  8
DEFPOINTS
  6
Continuous
 62
     0
370
     0
100
AcDbPoint
 10
1427.667492685936
 20
30.27254387096391
 30
0.0
  0
POINT
  5
439
330
1C7
100
AcDbEntity
  8
DEFPOINTS
  6
Continuous
 62
     0
370
     0
100
AcDbPoint
 10
1587.667492685935
 20
39.27254387096466
 30
0.0
  0
POINT
  5
43A
330
1C7
100
AcDbEntity
  8
DEFPOINTS
  6
Continuous
 62
     0
370
     0
100
AcDbPoint
 10
1587.667492685935
 20
89.27254387096466
 30
0.0
  0
ENDBLK
  5
1D2
330
1C7
100
AcDbEntity
  8
0
100
AcDbBlockEnd
  0
BLOCK
  5
1D5
330
1D4
100
AcDbEntity
  8
0
100
AcDbBlockBegin
  2
*D19
 70
     1
 10
0.0
 20
0.0
 30
0.0
  3
*D19
  1

  0
LINE
  5
429
330
1D4
100
AcDbEntity
  8
寸法線_1
  6
Continuous
 62
     7
370
    -2
100
AcDbLine
 10
-12.33250731406383
 20
40.27254387096465
 30
0.0
 11
-12.33250731406382
 21
196.4172861229885
 31
0.0
  0
LINE
  5
42A
330
1D4
100
AcDbEntity
  8
寸法線_1
  6
Continuous
 62
     7
370
    -2
100
AcDbLine
 10
1587.667492685935
 20
40.27254387096465
 30
0.0
 11
1587.667492685935
 21
196.4172861229885
 31
0.0
  0
LINE
  5
42B
330
1D4
100
AcDbEntity
  8
寸法線_1
  6
Continuous
 62
     7
370
    -2
100
AcDbLine
 10
-9.332507314063825
 20
195.9172861229885
 30
0.0
 11
1584.667492685935
 21
195.9172861229885
 31
0.0
  0
SOLID
  5
42C
330
1D4
100
AcDbEntity
  8
寸法線_1
  6
Continuous
 62
     7
370
     0
100
AcDbTrace
 10
-9.332507314063825
 20
196.4172861229885
 30
0.0
 11
-9.332507314063825
 21
195.4172861229885
 31
0.0
 12
-12.33250731406382
 22
195.9172861229885
 32
0.0
 13
-12.33250731406382
 23
195.9172861229885
 33
0.0
  0
SOLID
  5
42D
330
1D4
100
AcDbEntity
  8
寸法線_1
  6
Continuous
 62
     7
370
     0
100
AcDbTrace
 10
1584.667492685935
 20
196.4172861229885
 30
0.0
 11
1584.667492685935
 21
195.4172861229885
 31
0.0
 12
1587.667492685935
 22
195.9172861229885
 32
0.0
 13
1587.667492685935
 23
195.9172861229885
 33
0.0
  0
MTEXT
  5
42E
330
1D4
100
AcDbEntity
  8
寸法線_1
  6
Continuous
 62
     7
370
     5
100
AcDbMText
 10
787.6674926859358
 20
205.7367307793606
 30
0.0
 40
17.63888931274414
 41
0.0
 71
     5
 72
     1
  1
\A1;1600
 73
     1
 44
1.0
1001
ACAD
1000
MTEXTBEGIN
1070
    73
1070
     1
1070
    44
1040
1.0
1070
    74
1070
     0
1000
MTEXTEND
  0
POINT
  5
42F
330
1D4
100
AcDbEntity
  8
DEFPOINTS
  6
Continuous
 62
     0
370
     0
100
AcDbPoint
 10
-12.33250731406383
 20
39.27254387096466
 30
0.0
  0
POINT
  5
430
330
1D4
100
AcDbEntity
  8
DEFPOINTS
  6
Continuous
 62
     0
370
     0
100
AcDbPoint
 10
1587.667492685935
 20
39.27254387096466
 30
0.0
  0
POINT
  5
431
330
1D4
100
AcDbEntity
  8
DEFPOINTS
  6
Continuous
 62
     0
370
     0
100
AcDbPoint
 10
1587.667492685935
 20
195.9172861229885
 30
0.0
  0
ENDBLK
  5
1DF
330
1D4
100
AcDbEntity
  8
0
100
AcDbBlockEnd
  0
BLOCK
  5
1E2
330
1E1
100
AcDbEntity
  8
0
100
AcDbBlockBegin
  2
*D20
 70
     1
 10
0.0
 20
0.0
 30
0.0
  3
*D20
  1

  0
LINE
  5
41F
330
1E1
100
AcDbEntity
  8
寸法線_1
  6
Continuous
 62
     7
370
    -2
100
AcDbLine
 10
-12.33250731406383
 20
40.27254387096465
 30
0.0
 11
-12.33250731406382
 21
147.8414397688219
 31
0.0
  0
LINE
  5
420
330
1E1
100
AcDbEntity
  8
寸法線_1
  6
Continuous
 62
     7
370
    -2
100
AcDbLine
 10
7.667492685936168
 20
33.27254387096431
 30
0.0
 11
7.667492685936174
 21
147.8414397688219
 31
0.0
  0
LINE
  5
421
330
1E1
100
AcDbEntity
  8
寸法線_1
  6
Continuous
 62
     7
370
    -2
100
AcDbLine
 10
-9.332507314063825
 20
147.3414397688219
 30
0.0
 11
4.667492685936173
 21
147.3414397688219
 31
0.0
  0
LINE
  5
422
330
1E1
100
AcDbEntity
  8
寸法線_1
  6
Continuous
 62
     7
370
    -2
100
AcDbLine
 10
7.667492685936174
 20
147.3414397688219
 30
0.0
 11
39.12582665505239
 21
147.3414397688219
 31
0.0
  0
SOLID
  5
423
330
1E1
100
AcDbEntity
  8
寸法線_1
  6
Continuous
 62
     7
370
     0
100
AcDbTrace
 10
-9.332507314063825
 20
147.8414397688219
 30
0.0
 11
-9.332507314063825
 21
146.8414397688219
 31
0.0
 12
-12.33250731406382
 22
147.3414397688219
 32
0.0
 13
-12.33250731406382
 23
147.3414397688219
 33
0.0
  0
SOLID
  5
424
330
1E1
100
AcDbEntity
  8
寸法線_1
  6
Continuous
 62
     7
370
     0
100
AcDbTrace
 10
4.667492685936173
 20
147.8414397688219
 30
0.0
 11
4.667492685936173
 21
146.8414397688219
 31
0.0
 12
7.667492685936174
 22
147.3414397688219
 32
0.0
 13
7.667492685936174
 23
147.3414397688219
 33
0.0
  0
MTEXT
  5
425
330
1E1
100
AcDbEntity
  8
寸法線_1
  6
Continuous
 62
     7
370
     5
100
AcDbMText
 10
24.89665967049428
 20
157.1608844251939
 30
0.0
 40
17.63888931274414
 41
0.0
 71
     5
 72
     1
  1
\A1;20
 73
     1
 44
1.0
1001
ACAD
1000
MTEXTBEGIN
1070
    73
1070
     1
1070
    44
1040
1.0
1070
    74
1070
     0
1000
MTEXTEND
  0
POINT
  5
426
330
1E1
100
AcDbEntity
  8
DEFPOINTS
  6
Continuous
 62
     0
370
     0
100
AcDbPoint
 10
-12.33250731406383
 20
39.27254387096466
 30
0.0
  0
POINT
  5
427
330
1E1
100
AcDbEntity
  8
DEFPOINTS
  6
Continuous
 62
     0
370
     0
100
AcDbPoint
 10
7.667492685936168
 20
32.27254387096432
 30
0.0
  0
POINT
  5
428
330
1E1
100
AcDbEntity
  8
DEFPOINTS
  6
Continuous
 62
     0
370
     0
100
AcDbPoint
 10
7.667492685936174
 20
147.3414397688219
 30
0.0
  0
ENDBLK
  5
1ED
330
1E1
100
AcDbEntity
  8
0
100
AcDbBlockEnd
  0
BLOCK
  5
1F0
330
1EF
100
AcDbEntity
  8
0
100
AcDbBlockBegin
  2
*D21
 70
     1
 10
0.0
 20
0.0
 30
0.0
  3
*D21
  1

  0
LINE
  5
415
330
1EF
100
AcDbEntity
  8
寸法線_1
  6
Continuous
 62
     7
370
    -2
100
AcDbLine
 10
1567.667492685935
 20
33.27254387096431
 30
0.0
 11
1567.667492685935
 21
147.8414397688219
 31
0.0
  0
LINE
  5
416
330
1EF
100
AcDbEntity
  8
寸法線_1
  6
Continuous
 62
     7
370
    -2
100
AcDbLine
 10
1587.667492685935
 20
40.27254387096465
 30
0.0
 11
1587.667492685935
 21
147.8414397688219
 31
0.0
  0
LINE
  5
417
330
1EF
100
AcDbEntity
  8
寸法線_1
  6
Continuous
 62
     7
370
    -2
100
AcDbLine
 10
1570.667492685935
 20
147.3414397688219
 30
0.0
 11
1584.667492685935
 21
147.3414397688219
 31
0.0
  0
LINE
  5
418
330
1EF
100
AcDbEntity
  8
寸法線_1
  6
Continuous
 62
     7
370
    -2
100
AcDbLine
 10
1587.667492685935
 20
147.3414397688219
 30
0.0
 11
1619.125826655051
 21
147.3414397688219
 31
0.0
  0
SOLID
  5
419
330
1EF
100
AcDbEntity
  8
寸法線_1
  6
Continuous
 62
     7
370
     0
100
AcDbTrace
 10
1570.667492685935
 20
147.8414397688219
 30
0.0
 11
1570.667492685935
 21
146.8414397688219
 31
0.0
 12
1567.667492685935
 22
147.3414397688219
 32
0.0
 13
1567.667492685935
 23
147.3414397688219
 33
0.0
  0
SOLID
  5
41A
330
1EF
100
AcDbEntity
  8
寸法線_1
  6
Continuous
 62
     7
370
     0
100
AcDbTrace
 10
1584.667492685935
 20
147.8414397688219
 30
0.0
 11
1584.667492685935
 21
146.8414397688219
 31
0.0
 12
1587.667492685935
 22
147.3414397688219
 32
0.0
 13
1587.667492685935
 23
147.3414397688219
 33
0.0
  0
MTEXT
  5
41B
330
1EF
100
AcDbEntity
  8
寸法線_1
  6
Continuous
 62
     7
370
     5
100
AcDbMText
 10
1604.896659670493
 20
157.1608844251939
 30
0.0
 40
17.63888931274414
 41
0.0
 71
     5
 72
     1
  1
\A1;20
 73
     1
 44
1.0
1001
ACAD
1000
MTEXTBEGIN
1070
    73
1070
     1
1070
    44
1040
1.0
1070
    74
1070
     0
1000
MTEXTEND
  0
POINT
  5
41C
330
1EF
100
AcDbEntity
  8
DEFPOINTS
  6
Continuous
 62
     0
370
     0
100
AcDbPoint
 10
1567.667492685935
 20
32.27254387096432
 30
0.0
  0
POINT
  5
41D
330
1EF
100
AcDbEntity
  8
DEFPOINTS
  6
Continuous
 62
     0
370
     0
100
AcDbPoint
 10
1587.667492685935
 20
39.27254387096466
 30
0.0
  0
POINT
  5
41E
330
1EF
100
AcDbEntity
  8
DEFPOINTS
  6
Continuous
 62
     0
370
     0
100
AcDbPoint
 10
1587.667492685935
 20
147.3414397688219
 30
0.0
  0
ENDBLK
  5
1FB
330
1EF
100
AcDbEntity
  8
0
100
AcDbBlockEnd
  0
BLOCK
  5
1FE
330
1FD
100
AcDbEntity
  8
0
100
AcDbBlockBegin
  2
*D22
 70
     1
 10
0.0
 20
0.0
 30
0.0
  3
*D22
  1

  0
LINE
  5
40C
330
1FD
100
AcDbEntity
  8
寸法線_1
  6
Continuous
 62
     7
370
    -2
100
AcDbLine
 10
7.667492685936168
 20
33.27254387096431
 30
0.0
 11
7.667492685936174
 21
147.8414397688219
 31
0.0
  0
LINE
  5
40D
330
1FD
100
AcDbEntity
  8
寸法線_1
  6
Continuous
 62
     7
370
    -2
100
AcDbLine
 10
1567.667492685935
 20
33.27254387096431
 30
0.0
 11
1567.667492685935
 21
147.8414397688219
 31
0.0
  0
LINE
  5
40E
330
1FD
100
AcDbEntity
  8
寸法線_1
  6
Continuous
 62
     7
370
    -2
100
AcDbLine
 10
10.66749268593617
 20
147.3414397688219
 30
0.0
 11
1564.667492685935
 21
147.3414397688219
 31
0.0
  0
SOLID
  5
40F
330
1FD
100
AcDbEntity
  8
寸法線_1
  6
Continuous
 62
     7
370
     0
100
AcDbTrace
 10
10.66749268593617
 20
147.8414397688219
 30
0.0
 11
10.66749268593617
 21
146.8414397688219
 31
0.0
 12
7.667492685936174
 22
147.3414397688219
 32
0.0
 13
7.667492685936174
 23
147.3414397688219
 33
0.0
  0
SOLID
  5
410
330
1FD
100
AcDbEntity
  8
寸法線_1
  6
Continuous
 62
     7
370
     0
100
AcDbTrace
 10
1564.667492685935
 20
147.8414397688219
 30
0.0
 11
1564.667492685935
 21
146.8414397688219
 31
0.0
 12
1567.667492685935
 22
147.3414397688219
 32
0.0
 13
1567.667492685935
 23
147.3414397688219
 33
0.0
  0
MTEXT
  5
411
330
1FD
100
AcDbEntity
  8
寸法線_1
  6
Continuous
 62
     7
370
     5
100
AcDbMText
 10
787.6674926859358
 20
157.1608844251939
 30
0.0
 40
17.63888931274414
 41
0.0
 71
     5
 72
     1
  1
\A1;1560
 73
     1
 44
1.0
1001
ACAD
1000
MTEXTBEGIN
1070
    73
1070
     1
1070
    44
1040
1.0
1070
    74
1070
     0
1000
MTEXTEND
  0
POINT
  5
412
330
1FD
100
AcDbEntity
  8
DEFPOINTS
  6
Continuous
 62
     0
370
     0
100
AcDbPoint
 10
7.667492685936168
 20
32.27254387096432
 30
0.0
  0
POINT
  5
413
330
1FD
100
AcDbEntity
  8
DEFPOINTS
  6
Continuous
 62
     0
370
     0
100
AcDbPoint
 10
1567.667492685935
 20
32.27254387096432
 30
0.0
  0
POINT
  5
414
330
1FD
100
AcDbEntity
  8
DEFPOINTS
  6
Continuous
 62
     0
370
     0
100
AcDbPoint
 10
1567.667492685935
 20
147.3414397688219
 30
0.0
  0
ENDBLK
  5
208
330
1FD
100
AcDbEntity
  8
0
100
AcDbBlockEnd
  0
BLOCK
  5
20B
330
20A
100
AcDbEntity
  8
0
100
AcDbBlockBegin
  2
*D23
 70
     1
 10
0.0
 20
0.0
 30
0.0
  3
*D23
  1

  0
LINE
  5
403
330
20A
100
AcDbEntity
  8
寸法線_1
  6
Continuous
 62
     7
370
    -2
100
AcDbLine
 10
-12.33250731406383
 20
40.27254387096465
 30
0.0
 11
-12.33250731406383
 21
89.77254387096465
 31
0.0
  0
LINE
  5
404
330
20A
100
AcDbEntity
  8
寸法線_1
  6
Continuous
 62
     7
370
    -2
100
AcDbLine
 10
27.66749268593617
 20
31.27254387096431
 30
0.0
 11
27.66749268593617
 21
89.77254387096465
 31
0.0
  0
LINE
  5
405
330
20A
100
AcDbEntity
  8
寸法線_1
  6
Continuous
 62
     7
370
    -2
100
AcDbLine
 10
-9.332507314063828
 20
89.27254387096466
 30
0.0
 11
24.66749268593617
 21
89.27254387096466
 31
0.0
  0
SOLID
  5
406
330
20A
100
AcDbEntity
  8
寸法線_1
  6
Continuous
 62
     7
370
     0
100
AcDbTrace
 10
-9.332507314063828
 20
89.77254387096465
 30
0.0
 11
-9.332507314063828
 21
88.77254387096465
 31
0.0
 12
-12.33250731406383
 22
89.27254387096466
 32
0.0
 13
-12.33250731406383
 23
89.27254387096466
 33
0.0
  0
SOLID
  5
407
330
20A
100
AcDbEntity
  8
寸法線_1
  6
Continuous
 62
     7
370
     0
100
AcDbTrace
 10
24.66749268593617
 20
89.77254387096465
 30
0.0
 11
24.66749268593617
 21
88.77254387096465
 31
0.0
 12
27.66749268593617
 22
89.27254387096466
 32
0.0
 13
27.66749268593617
 23
89.27254387096466
 33
0.0
  0
MTEXT
  5
408
330
20A
100
AcDbEntity
  8
寸法線_1
  6
Continuous
 62
     7
370
     5
100
AcDbMText
 10
7.667492685936172
 20
99.09198852733672
 30
0.0
 40
17.63888931274414
 41
0.0
 71
     5
 72
     1
  1
\A1;40
 73
     1
 44
1.0
1001
ACAD
1000
MTEXTBEGIN
1070
    73
1070
     1
1070
    44
1040
1.0
1070
    74
1070
     0
1000
MTEXTEND
  0
POINT
  5
409
330
20A
100
AcDbEntity
  8
DEFPOINTS
  6
Continuous
 62
     0
370
     0
100
AcDbPoint
 10
-12.33250731406383
 20
39.27254387096466
 30
0.0
  0
POINT
  5
40A
330
20A
100
AcDbEntity
  8
DEFPOINTS
  6
Continuous
 62
     0
370
     0
100
AcDbPoint
 10
27.66749268593617
 20
30.27254387096431
 30
0.0
  0
POINT
  5
40B
330
20A
100
AcDbEntity
  8
DEFPOINTS
  6
Continuous
 62
     0
370
     0
100
AcDbPoint
 10
27.66749268593617
 20
89.27254387096466
 30
0.0
  0
ENDBLK
  5
215
330
20A
100
AcDbEntity
  8
0
100
AcDbBlockEnd
  0
BLOCK
  5
23E
330
23D
100
AcDbEntity
  8
0
100
AcDbBlockBegin
  2
C9
 70
     0
 10
0.0
 20
0.0
 30
0.0
  3
C9
  1

  0
LINE
  5
23F
330
23D
100
AcDbEntity
  8
____1
  6
Continuous
 62
     5
370
    18
100
AcDbLine
 10
410.1674926859353
 20
16.27254387096441
 30
0.0
 11
410.1674926859353
 21
32.27254387096432
 31
0.0
  0
LINE
  5
240
330
23D
100
AcDbEntity
  8
____1
  6
Continuous
 62
     5
370
    18
100
AcDbLine
 10
405.1674926859353
 20
16.27254387096441
 30
0.0
 11
405.1674926859353
 21
32.27254387096432
 31
0.0
  0
LINE
  5
241
330
23D
100
AcDbEntity
  8
____1
  6
Continuous
 62
     5
370
    18
100
AcDbLine
 10
405.1674926859353
 20
16.27254387096441
 30
0.0
 11
410.1674926859353
 21
16.27254387096441
 31
0.0
  0
LINE
  5
242
330
23D
100
AcDbEntity
  8
____1
  6
Continuous
 62
     5
370
    18
100
AcDbLine
 10
405.1674926859353
 20
32.27254387096432
 30
0.0
 11
410.1674926859353
 21
32.27254387096432
 31
0.0
  0
ENDBLK
  5
243
330
23D
100
AcDbEntity
  8
0
100
AcDbBlockEnd
  0
BLOCK
  5
246
330
245
100
AcDbEntity
  8
0
100
AcDbBlockBegin
  2
C10
 70
     0
 10
0.0
 20
0.0
 30
0.0
  3
C10
  1

  0
LINE
  5
247
330
245
100
AcDbEntity
  8
____1
  6
Continuous
 62
     5
370
    18
100
AcDbLine
 10
370.1674926859356
 20
16.27254387096441
 30
0.0
 11
370.1674926859356
 21
32.27254387096432
 31
0.0
  0
LINE
  5
248
330
245
100
AcDbEntity
  8
____1
  6
Continuous
 62
     5
370
    18
100
AcDbLine
 10
365.1674926859355
 20
16.27254387096441
 30
0.0
 11
365.1674926859355
 21
32.27254387096432
 31
0.0
  0
LINE
  5
249
330
245
100
AcDbEntity
  8
____1
  6
Continuous
 62
     5
370
    18
100
AcDbLine
 10
365.1674926859355
 20
16.27254387096441
 30
0.0
 11
370.1674926859356
 21
16.27254387096441
 31
0.0
  0
LINE
  5
24A
330
245
100
AcDbEntity
  8
____1
  6
Continuous
 62
     5
370
    18
100
AcDbLine
 10
365.1674926859355
 20
32.27254387096432
 30
0.0
 11
370.1674926859356
 21
32.27254387096432
 31
0.0
  0
ENDBLK
  5
24B
330
245
100
AcDbEntity
  8
0
100
AcDbBlockEnd
  0
BLOCK
  5
266
330
265
100
AcDbEntity
  8
0
100
AcDbBlockBegin
  2
C11
 70
     0
 10
0.0
 20
0.0
 30
0.0
  3
C11
  1

  0
LINE
  5
267
330
265
100
AcDbEntity
  8
____1
  6
Continuous
 62
     5
370
    18
100
AcDbLine
 10
1370.167492685935
 20
16.27254387096441
 30
0.0
 11
1370.167492685935
 21
32.27254387096432
 31
0.0
  0
LINE
  5
268
330
265
100
AcDbEntity
  8
____1
  6
Continuous
 62
     5
370
    18
100
AcDbLine
 10
1365.167492685935
 20
16.27254387096441
 30
0.0
 11
1365.167492685935
 21
32.27254387096432
 31
0.0
  0
LINE
  5
269
330
265
100
AcDbEntity
  8
____1
  6
Continuous
 62
     5
370
    18
100
AcDbLine
 10
1365.167492685935
 20
16.27254387096441
 30
0.0
 11
1370.167492685935
 21
16.27254387096441
 31
0.0
  0
LINE
  5
26A
330
265
100
AcDbEntity
  8
____1
  6
Continuous
 62
     5
370
    18
100
AcDbLine
 10
1365.167492685935
 20
32.27254387096432
 30
0.0
 11
1370.167492685935
 21
32.27254387096432
 31
0.0
  0
ENDBLK
  5
26B
330
265
100
AcDbEntity
  8
0
100
AcDbBlockEnd
  0
BLOCK
  5
26E
330
26D
100
AcDbEntity
  8
0
100
AcDbBlockBegin
  2
C12
 70
     0
 10
0.0
 20
0.0
 30
0.0
  3
C12
  1

  0
LINE
  5
26F
330
26D
100
AcDbEntity
  8
____1
  6
Continuous
 62
     5
370
    18
100
AcDbLine
 10
1330.167492685935
 20
16.27254387096441
 30
0.0
 11
1330.167492685935
 21
32.27254387096432
 31
0.0
  0
LINE
  5
270
330
26D
100
AcDbEntity
  8
____1
  6
Continuous
 62
     5
370
    18
100
AcDbLine
 10
1325.167492685935
 20
16.27254387096441
 30
0.0
 11
1325.167492685935
 21
32.27254387096432
 31
0.0
  0
LINE
  5
271
330
26D
100
AcDbEntity
  8
____1
  6
Continuous
 62
     5
370
    18
100
AcDbLine
 10
1325.167492685935
 20
16.27254387096441
 30
0.0
 11
1330.167492685935
 21
16.27254387096441
 31
0.0
  0
LINE
  5
272
330
26D
100
AcDbEntity
  8
____1
  6
Continuous
 62
     5
370
    18
100
AcDbLine
 10
1325.167492685935
 20
32.27254387096432
 30
0.0
 11
1330.167492685935
 21
32.27254387096432
 31
0.0
  0
ENDBLK
  5
273
330
26D
100
AcDbEntity
  8
0
100
AcDbBlockEnd
  0
BLOCK
  5
276
330
275
100
AcDbEntity
  8
0
100
AcDbBlockBegin
  2
C13
 70
     0
 10
0.0
 20
0.0
 30
0.0
  3
C13
  1

  0
LINE
  5
277
330
275
100
AcDbEntity
  8
____1
  6
Continuous
 62
     5
370
    18
100
AcDbLine
 10
1210.167492685935
 20
16.27254387096441
 30
0.0
 11
1210.167492685935
 21
32.27254387096432
 31
0.0
  0
LINE
  5
278
330
275
100
AcDbEntity
  8
____1
  6
Continuous
 62
     5
370
    18
100
AcDbLine
 10
1205.167492685935
 20
16.27254387096441
 30
0.0
 11
1205.167492685935
 21
32.27254387096432
 31
0.0
  0
LINE
  5
279
330
275
100
AcDbEntity
  8
____1
  6
Continuous
 62
     5
370
    18
100
AcDbLine
 10
1205.167492685935
 20
16.27254387096441
 30
0.0
 11
1210.167492685935
 21
16.27254387096441
 31
0.0
  0
LINE
  5
27A
330
275
100
AcDbEntity
  8
____1
  6
Continuous
 62
     5
370
    18
100
AcDbLine
 10
1205.167492685935
 20
32.27254387096432
 30
0.0
 11
1210.167492685935
 21
32.27254387096432
 31
0.0
  0
ENDBLK
  5
27B
330
275
100
AcDbEntity
  8
0
100
AcDbBlockEnd
  0
BLOCK
  5
27E
330
27D
100
AcDbEntity
  8
0
100
AcDbBlockBegin
  2
C14
 70
     0
 10
0.0
 20
0.0
 30
0.0
  3
C14
  1

  0
LINE
  5
27F
330
27D
100
AcDbEntity
  8
____1
  6
Continuous
 62
     5
370
    18
100
AcDbLine
 10
1250.167492685935
 20
16.27254387096441
 30
0.0
 11
1250.167492685935
 21
32.27254387096432
 31
0.0
  0
LINE
  5
280
330
27D
100
AcDbEntity
  8
____1
  6
Continuous
 62
     5
370
    18
100
AcDbLine
 10
1245.167492685935
 20
16.27254387096441
 30
0.0
 11
1245.167492685935
 21
32.27254387096432
 31
0.0
  0
LINE
  5
281
330
27D
100
AcDbEntity
  8
____1
  6
Continuous
 62
     5
370
    18
100
AcDbLine
 10
1245.167492685935
 20
16.27254387096441
 30
0.0
 11
1250.167492685935
 21
16.27254387096441
 31
0.0
  0
LINE
  5
282
330
27D
100
AcDbEntity
  8
____1
  6
Continuous
 62
     5
370
    18
100
AcDbLine
 10
1245.167492685935
 20
32.27254387096432
 30
0.0
 11
1250.167492685935
 21
32.27254387096432
 31
0.0
  0
ENDBLK
  5
283
330
27D
100
AcDbEntity
  8
0
100
AcDbBlockEnd
  0
BLOCK
  5
286
330
285
100
AcDbEntity
  8
0
100
AcDbBlockBegin
  2
C15
 70
     0
 10
0.0
 20
0.0
 30
0.0
  3
C15
  1

  0
LINE
  5
287
330
285
100
AcDbEntity
  8
____1
  6
Continuous
 62
     5
370
    18
100
AcDbLine
 10
1290.167492685935
 20
16.27254387096441
 30
0.0
 11
1290.167492685935
 21
32.27254387096432
 31
0.0
  0
LINE
  5
288
330
285
100
AcDbEntity
  8
____1
  6
Continuous
 62
     5
370
    18
100
AcDbLine
 10
1285.167492685935
 20
16.27254387096441
 30
0.0
 11
1285.167492685935
 21
32.27254387096432
 31
0.0
  0
LINE
  5
289
330
285
100
AcDbEntity
  8
____1
  6
Continuous
 62
     5
370
    18
100
AcDbLine
 10
1285.167492685935
 20
16.27254387096441
 30
0.0
 11
1290.167492685935
 21
16.27254387096441
 31
0.0
  0
LINE
  5
28A
330
285
100
AcDbEntity
  8
____1
  6
Continuous
 62
     5
370
    18
100
AcDbLine
 10
1285.167492685935
 20
32.27254387096432
 30
0.0
 11
1290.167492685935
 21
32.27254387096432
 31
0.0
  0
ENDBLK
  5
28B
330
285
100
AcDbEntity
  8
0
100
AcDbBlockEnd
  0
BLOCK
  5
28E
330
28D
100
AcDbEntity
  8
0
100
AcDbBlockBegin
  2
C16
 70
     0
 10
0.0
 20
0.0
 30
0.0
  3
C16
  1

  0
LINE
  5
28F
330
28D
100
AcDbEntity
  8
____1
  6
Continuous
 62
     5
370
    18
100
AcDbLine
 10
1170.167492685935
 20
16.27254387096441
 30
0.0
 11
1170.167492685935
 21
32.27254387096432
 31
0.0
  0
LINE
  5
290
330
28D
100
AcDbEntity
  8
____1
  6
Continuous
 62
     5
370
    18
100
AcDbLine
 10
1165.167492685935
 20
16.27254387096441
 30
0.0
 11
1165.167492685935
 21
32.27254387096432
 31
0.0
  0
LINE
  5
291
330
28D
100
AcDbEntity
  8
____1
  6
Continuous
 62
     5
370
    18
100
AcDbLine
 10
1165.167492685935
 20
16.27254387096441
 30
0.0
 11
1170.167492685935
 21
16.27254387096441
 31
0.0
  0
LINE
  5
292
330
28D
100
AcDbEntity
  8
____1
  6
Continuous
 62
     5
370
    18
100
AcDbLine
 10
1165.167492685935
 20
32.27254387096432
 30
0.0
 11
1170.167492685935
 21
32.27254387096432
 31
0.0
  0
ENDBLK
  5
293
330
28D
100
AcDbEntity
  8
0
100
AcDbBlockEnd
  0
BLOCK
  5
296
330
295
100
AcDbEntity
  8
0
100
AcDbBlockBegin
  2
C17
 70
     0
 10
0.0
 20
0.0
 30
0.0
  3
C17
  1

  0
LINE
  5
297
330
295
100
AcDbEntity
  8
____1
  6
Continuous
 62
     5
370
    18
100
AcDbLine
 10
1130.167492685935
 20
16.27254387096441
 30
0.0
 11
1130.167492685935
 21
32.27254387096432
 31
0.0
  0
LINE
  5
298
330
295
100
AcDbEntity
  8
____1
  6
Continuous
 62
     5
370
    18
100
AcDbLine
 10
1125.167492685935
 20
16.27254387096441
 30
0.0
 11
1125.167492685935
 21
32.27254387096432
 31
0.0
  0
LINE
  5
299
330
295
100
AcDbEntity
  8
____1
  6
Continuous
 62
     5
370
    18
100
AcDbLine
 10
1125.167492685935
 20
16.27254387096441
 30
0.0
 11
1130.167492685935
 21
16.27254387096441
 31
0.0
  0
LINE
  5
29A
330
295
100
AcDbEntity
  8
____1
  6
Continuous
 62
     5
370
    18
100
AcDbLine
 10
1125.167492685935
 20
32.27254387096432
 30
0.0
 11
1130.167492685935
 21
32.27254387096432
 31
0.0
  0
ENDBLK
  5
29B
330
295
100
AcDbEntity
  8
0
100
AcDbBlockEnd
  0
BLOCK
  5
29E
330
29D
100
AcDbEntity
  8
0
100
AcDbBlockBegin
  2
C18
 70
     0
 10
0.0
 20
0.0
 30
0.0
  3
C18
  1

  0
LINE
  5
29F
330
29D
100
AcDbEntity
  8
____1
  6
Continuous
 62
     5
370
    18
100
AcDbLine
 10
1090.167492685935
 20
16.27254387096441
 30
0.0
 11
1090.167492685935
 21
32.27254387096432
 31
0.0
  0
LINE
  5
2A0
330
29D
100
AcDbEntity
  8
____1
  6
Continuous
 62
     5
370
    18
100
AcDbLine
 10
1085.167492685935
 20
16.27254387096441
 30
0.0
 11
1085.167492685935
 21
32.27254387096432
 31
0.0
  0
LINE
  5
2A1
330
29D
100
AcDbEntity
  8
____1
  6
Continuous
 62
     5
370
    18
100
AcDbLine
 10
1085.167492685935
 20
16.27254387096441
 30
0.0
 11
1090.167492685935
 21
16.27254387096441
 31
0.0
  0
LINE
  5
2A2
330
29D
100
AcDbEntity
  8
____1
  6
Continuous
 62
     5
370
    18
100
AcDbLine
 10
1085.167492685935
 20
32.27254387096432
 30
0.0
 11
1090.167492685935
 21
32.27254387096432
 31
0.0
  0
ENDBLK
  5
2A3
330
29D
100
AcDbEntity
  8
0
100
AcDbBlockEnd
  0
BLOCK
  5
2A6
330
2A5
100
AcDbEntity
  8
0
100
AcDbBlockBegin
  2
C19
 70
     0
 10
0.0
 20
0.0
 30
0.0
  3
C19
  1

  0
LINE
  5
2A7
330
2A5
100
AcDbEntity
  8
____1
  6
Continuous
 62
     5
370
    18
100
AcDbLine
 10
970.1674926859354
 20
16.27254387096441
 30
0.0
 11
970.1674926859354
 21
32.27254387096432
 31
0.0
  0
LINE
  5
2A8
330
2A5
100
AcDbEntity
  8
____1
  6
Continuous
 62
     5
370
    18
100
AcDbLine
 10
965.1674926859357
 20
16.27254387096441
 30
0.0
 11
965.1674926859357
 21
32.27254387096432
 31
0.0
  0
LINE
  5
2A9
330
2A5
100
AcDbEntity
  8
____1
  6
Continuous
 62
     5
370
    18
100
AcDbLine
 10
965.1674926859357
 20
16.27254387096441
 30
0.0
 11
970.1674926859354
 21
16.27254387096441
 31
0.0
  0
LINE
  5
2AA
330
2A5
100
AcDbEntity
  8
____1
  6
Continuous
 62
     5
370
    18
100
AcDbLine
 10
965.1674926859357
 20
32.27254387096432
 30
0.0
 11
970.1674926859354
 21
32.27254387096432
 31
0.0
  0
ENDBLK
  5
2AB
330
2A5
100
AcDbEntity
  8
0
100
AcDbBlockEnd
  0
BLOCK
  5
2AE
330
2AD
100
AcDbEntity
  8
0
100
AcDbBlockBegin
  2
C20
 70
     0
 10
0.0
 20
0.0
 30
0.0
  3
C20
  1

  0
LINE
  5
2AF
330
2AD
100
AcDbEntity
  8
____1
  6
Continuous
 62
     5
370
    18
100
AcDbLine
 10
1010.167492685935
 20
16.27254387096441
 30
0.0
 11
1010.167492685935
 21
32.27254387096432
 31
0.0
  0
LINE
  5
2B0
330
2AD
100
AcDbEntity
  8
____1
  6
Continuous
 62
     5
370
    18
100
AcDbLine
 10
1005.167492685935
 20
16.27254387096441
 30
0.0
 11
1005.167492685935
 21
32.27254387096432
 31
0.0
  0
LINE
  5
2B1
330
2AD
100
AcDbEntity
  8
____1
  6
Continuous
 62
     5
370
    18
100
AcDbLine
 10
1005.167492685935
 20
16.27254387096441
 30
0.0
 11
1010.167492685935
 21
16.27254387096441
 31
0.0
  0
LINE
  5
2B2
330
2AD
100
AcDbEntity
  8
____1
  6
Continuous
 62
     5
370
    18
100
AcDbLine
 10
1005.167492685935
 20
32.27254387096432
 30
0.0
 11
1010.167492685935
 21
32.27254387096432
 31
0.0
  0
ENDBLK
  5
2B3
330
2AD
100
AcDbEntity
  8
0
100
AcDbBlockEnd
  0
BLOCK
  5
2B6
330
2B5
100
AcDbEntity
  8
0
100
AcDbBlockBegin
  2
C21
 70
     0
 10
0.0
 20
0.0
 30
0.0
  3
C21
  1

  0
LINE
  5
2B7
330
2B5
100
AcDbEntity
  8
____1
  6
Continuous
 62
     5
370
    18
100
AcDbLine
 10
1050.167492685935
 20
16.27254387096441
 30
0.0
 11
1050.167492685935
 21
32.27254387096432
 31
0.0
  0
LINE
  5
2B8
330
2B5
100
AcDbEntity
  8
____1
  6
Continuous
 62
     5
370
    18
100
AcDbLine
 10
1045.167492685935
 20
16.27254387096441
 30
0.0
 11
1045.167492685935
 21
32.27254387096432
 31
0.0
  0
LINE
  5
2B9
330
2B5
100
AcDbEntity
  8
____1
  6
Continuous
 62
     5
370
    18
100
AcDbLine
 10
1045.167492685935
 20
16.27254387096441
 30
0.0
 11
1050.167492685935
 21
16.27254387096441
 31
0.0
  0
LINE
  5
2BA
330
2B5
100
AcDbEntity
  8
____1
  6
Continuous
 62
     5
370
    18
100
AcDbLine
 10
1045.167492685935
 20
32.27254387096432
 30
0.0
 11
1050.167492685935
 21
32.27254387096432
 31
0.0
  0
ENDBLK
  5
2BB
330
2B5
100
AcDbEntity
  8
0
100
AcDbBlockEnd
  0
BLOCK
  5
2BE
330
2BD
100
AcDbEntity
  8
0
100
AcDbBlockBegin
  2
C22
 70
     0
 10
0.0
 20
0.0
 30
0.0
  3
C22
  1

  0
LINE
  5
2BF
330
2BD
100
AcDbEntity
  8
____1
  6
Continuous
 62
     5
370
    18
100
AcDbLine
 10
930.1674926859357
 20
16.27254387096441
 30
0.0
 11
930.1674926859357
 21
32.27254387096432
 31
0.0
  0
LINE
  5
2C0
330
2BD
100
AcDbEntity
  8
____1
  6
Continuous
 62
     5
370
    18
100
AcDbLine
 10
925.1674926859353
 20
16.27254387096441
 30
0.0
 11
925.1674926859353
 21
32.27254387096432
 31
0.0
  0
LINE
  5
2C1
330
2BD
100
AcDbEntity
  8
____1
  6
Continuous
 62
     5
370
    18
100
AcDbLine
 10
925.1674926859353
 20
16.27254387096441
 30
0.0
 11
930.1674926859357
 21
16.27254387096441
 31
0.0
  0
LINE
  5
2C2
330
2BD
100
AcDbEntity
  8
____1
  6
Continuous
 62
     5
370
    18
100
AcDbLine
 10
925.1674926859353
 20
32.27254387096432
 30
0.0
 11
930.1674926859357
 21
32.27254387096432
 31
0.0
  0
ENDBLK
  5
2C3
330
2BD
100
AcDbEntity
  8
0
100
AcDbBlockEnd
  0
BLOCK
  5
2C7
330
2C6
100
AcDbEntity
  8
0
100
AcDbBlockBegin
  2
C23
 70
     0
 10
0.0
 20
0.0
 30
0.0
  3
C23
  1

  0
LINE
  5
2C8
330
2C6
100
AcDbEntity
  8
____1
  6
Continuous
 62
     5
370
    18
100
AcDbLine
 10
890.1674926859355
 20
16.27254387096441
 30
0.0
 11
890.1674926859355
 21
32.27254387096432
 31
0.0
  0
LINE
  5
2C9
330
2C6
100
AcDbEntity
  8
____1
  6
Continuous
 62
     5
370
    18
100
AcDbLine
 10
885.1674926859354
 20
16.27254387096441
 30
0.0
 11
885.1674926859354
 21
32.27254387096432
 31
0.0
  0
LINE
  5
2CA
330
2C6
100
AcDbEntity
  8
____1
  6
Continuous
 62
     5
370
    18
100
AcDbLine
 10
885.1674926859354
 20
16.27254387096441
 30
0.0
 11
890.1674926859355
 21
16.27254387096441
 31
0.0
  0
LINE
  5
2CB
330
2C6
100
AcDbEntity
  8
____1
  6
Continuous
 62
     5
370
    18
100
AcDbLine
 10
885.1674926859354
 20
32.27254387096432
 30
0.0
 11
890.1674926859355
 21
32.27254387096432
 31
0.0
  0
ENDBLK
  5
2CC
330
2C6
100
AcDbEntity
  8
0
100
AcDbBlockEnd
  0
BLOCK
  5
2CF
330
2CE
100
AcDbEntity
  8
0
100
AcDbBlockBegin
  2
C24
 70
     0
 10
0.0
 20
0.0
 30
0.0
  3
C24
  1

  0
LINE
  5
2D0
330
2CE
100
AcDbEntity
  8
____1
  6
Continuous
 62
     5
370
    18
100
AcDbLine
 10
850.1674926859353
 20
16.27254387096441
 30
0.0
 11
850.1674926859353
 21
32.27254387096432
 31
0.0
  0
LINE
  5
2D1
330
2CE
100
AcDbEntity
  8
____1
  6
Continuous
 62
     5
370
    18
100
AcDbLine
 10
845.1674926859354
 20
16.27254387096441
 30
0.0
 11
845.1674926859354
 21
32.27254387096432
 31
0.0
  0
LINE
  5
2D2
330
2CE
100
AcDbEntity
  8
____1
  6
Continuous
 62
     5
370
    18
100
AcDbLine
 10
845.1674926859354
 20
16.27254387096441
 30
0.0
 11
850.1674926859353
 21
16.27254387096441
 31
0.0
  0
LINE
  5
2D3
330
2CE
100
AcDbEntity
  8
____1
  6
Continuous
 62
     5
370
    18
100
AcDbLine
 10
845.1674926859354
 20
32.27254387096432
 30
0.0
 11
850.1674926859353
 21
32.27254387096432
 31
0.0
  0
ENDBLK
  5
2D4
330
2CE
100
AcDbEntity
  8
0
100
AcDbBlockEnd
  0
BLOCK
  5
2D7
330
2D6
100
AcDbEntity
  8
0
100
AcDbBlockBegin
  2
C25
 70
     0
 10
0.0
 20
0.0
 30
0.0
  3
C25
  1

  0
LINE
  5
2D8
330
2D6
100
AcDbEntity
  8
____1
  6
Continuous
 62
     5
370
    18
100
AcDbLine
 10
730.1674926859353
 20
16.27254387096441
 30
0.0
 11
730.1674926859353
 21
32.27254387096432
 31
0.0
  0
LINE
  5
2D9
330
2D6
100
AcDbEntity
  8
____1
  6
Continuous
 62
     5
370
    18
100
AcDbLine
 10
725.1674926859354
 20
16.27254387096441
 30
0.0
 11
725.1674926859354
 21
32.27254387096432
 31
0.0
  0
LINE
  5
2DA
330
2D6
100
AcDbEntity
  8
____1
  6
Continuous
 62
     5
370
    18
100
AcDbLine
 10
725.1674926859354
 20
16.27254387096441
 30
0.0
 11
730.1674926859353
 21
16.27254387096441
 31
0.0
  0
LINE
  5
2DB
330
2D6
100
AcDbEntity
  8
____1
  6
Continuous
 62
     5
370
    18
100
AcDbLine
 10
725.1674926859354
 20
32.27254387096432
 30
0.0
 11
730.1674926859353
 21
32.27254387096432
 31
0.0
  0
ENDBLK
  5
2DC
330
2D6
100
AcDbEntity
  8
0
100
AcDbBlockEnd
  0
BLOCK
  5
2DF
330
2DE
100
AcDbEntity
  8
0
100
AcDbBlockBegin
  2
C26
 70
     0
 10
0.0
 20
0.0
 30
0.0
  3
C26
  1

  0
LINE
  5
2E0
330
2DE
100
AcDbEntity
  8
____1
  6
Continuous
 62
     5
370
    18
100
AcDbLine
 10
770.1674926859355
 20
16.27254387096441
 30
0.0
 11
770.1674926859355
 21
32.27254387096432
 31
0.0
  0
LINE
  5
2E1
330
2DE
100
AcDbEntity
  8
____1
  6
Continuous
 62
     5
370
    18
100
AcDbLine
 10
765.1674926859355
 20
16.27254387096441
 30
0.0
 11
765.1674926859355
 21
32.27254387096432
 31
0.0
  0
LINE
  5
2E2
330
2DE
100
AcDbEntity
  8
____1
  6
Continuous
 62
     5
370
    18
100
AcDbLine
 10
765.1674926859355
 20
16.27254387096441
 30
0.0
 11
770.1674926859355
 21
16.27254387096441
 31
0.0
  0
LINE
  5
2E3
330
2DE
100
AcDbEntity
  8
____1
  6
Continuous
 62
     5
370
    18
100
AcDbLine
 10
765.1674926859355
 20
32.27254387096432
 30
0.0
 11
770.1674926859355
 21
32.27254387096432
 31
0.0
  0
ENDBLK
  5
2E4
330
2DE
100
AcDbEntity
  8
0
100
AcDbBlockEnd
  0
BLOCK
  5
2E7
330
2E6
100
AcDbEntity
  8
0
100
AcDbBlockBegin
  2
C27
 70
     0
 10
0.0
 20
0.0
 30
0.0
  3
C27
  1

  0
LINE
  5
2E8
330
2E6
100
AcDbEntity
  8
____1
  6
Continuous
 62
     5
370
    18
100
AcDbLine
 10
810.1674926859354
 20
16.27254387096441
 30
0.0
 11
810.1674926859354
 21
32.27254387096432
 31
0.0
  0
LINE
  5
2E9
330
2E6
100
AcDbEntity
  8
____1
  6
Continuous
 62
     5
370
    18
100
AcDbLine
 10
805.1674926859355
 20
16.27254387096441
 30
0.0
 11
805.1674926859355
 21
32.27254387096432
 31
0.0
  0
LINE
  5
2EA
330
2E6
100
AcDbEntity
  8
____1
  6
Continuous
 62
     5
370
    18
100
AcDbLine
 10
805.1674926859355
 20
16.27254387096441
 30
0.0
 11
810.1674926859354
 21
16.27254387096441
 31
0.0
  0
LINE
  5
2EB
330
2E6
100
AcDbEntity
  8
____1
  6
Continuous
 62
     5
370
    18
100
AcDbLine
 10
805.1674926859355
 20
32.27254387096432
 30
0.0
 11
810.1674926859354
 21
32.27254387096432
 31
0.0
  0
ENDBLK
  5
2EC
330
2E6
100
AcDbEntity
  8
0
100
AcDbBlockEnd
  0
BLOCK
  5
2EF
330
2EE
100
AcDbEntity
  8
0
100
AcDbBlockBegin
  2
C28
 70
     0
 10
0.0
 20
0.0
 30
0.0
  3
C28
  1

  0
LINE
  5
2F0
330
2EE
100
AcDbEntity
  8
____1
  6
Continuous
 62
     5
370
    18
100
AcDbLine
 10
690.1674926859355
 20
16.27254387096441
 30
0.0
 11
690.1674926859355
 21
32.27254387096432
 31
0.0
  0
LINE
  5
2F1
330
2EE
100
AcDbEntity
  8
____1
  6
Continuous
 62
     5
370
    18
100
AcDbLine
 10
685.1674926859353
 20
16.27254387096441
 30
0.0
 11
685.1674926859353
 21
32.27254387096432
 31
0.0
  0
LINE
  5
2F2
330
2EE
100
AcDbEntity
  8
____1
  6
Continuous
 62
     5
370
    18
100
AcDbLine
 10
685.1674926859353
 20
16.27254387096441
 30
0.0
 11
690.1674926859355
 21
16.27254387096441
 31
0.0
  0
LINE
  5
2F3
330
2EE
100
AcDbEntity
  8
____1
  6
Continuous
 62
     5
370
    18
100
AcDbLine
 10
685.1674926859353
 20
32.27254387096432
 30
0.0
 11
690.1674926859355
 21
32.27254387096432
 31
0.0
  0
ENDBLK
  5
2F4
330
2EE
100
AcDbEntity
  8
0
100
AcDbBlockEnd
  0
BLOCK
  5
2F7
330
2F6
100
AcDbEntity
  8
0
100
AcDbBlockBegin
  2
C29
 70
     0
 10
0.0
 20
0.0
 30
0.0
  3
C29
  1

  0
LINE
  5
2F8
330
2F6
100
AcDbEntity
  8
____1
  6
Continuous
 62
     5
370
    18
100
AcDbLine
 10
650.1674926859354
 20
16.27254387096441
 30
0.0
 11
650.1674926859354
 21
32.27254387096432
 31
0.0
  0
LINE
  5
2F9
330
2F6
100
AcDbEntity
  8
____1
  6
Continuous
 62
     5
370
    18
100
AcDbLine
 10
645.1674926859355
 20
16.27254387096441
 30
0.0
 11
645.1674926859355
 21
32.27254387096432
 31
0.0
  0
LINE
  5
2FA
330
2F6
100
AcDbEntity
  8
____1
  6
Continuous
 62
     5
370
    18
100
AcDbLine
 10
645.1674926859355
 20
16.27254387096441
 30
0.0
 11
650.1674926859354
 21
16.27254387096441
 31
0.0
  0
LINE
  5
2FB
330
2F6
100
AcDbEntity
  8
____1
  6
Continuous
 62
     5
370
    18
100
AcDbLine
 10
645.1674926859355
 20
32.27254387096432
 30
0.0
 11
650.1674926859354
 21
32.27254387096432
 31
0.0
  0
ENDBLK
  5
2FC
330
2F6
100
AcDbEntity
  8
0
100
AcDbBlockEnd
  0
BLOCK
  5
2FF
330
2FE
100
AcDbEntity
  8
0
100
AcDbBlockBegin
  2
C30
 70
     0
 10
0.0
 20
0.0
 30
0.0
  3
C30
  1

  0
LINE
  5
300
330
2FE
100
AcDbEntity
  8
____1
  6
Continuous
 62
     5
370
    18
100
AcDbLine
 10
610.1674926859353
 20
16.27254387096441
 30
0.0
 11
610.1674926859353
 21
32.27254387096432
 31
0.0
  0
LINE
  5
301
330
2FE
100
AcDbEntity
  8
____1
  6
Continuous
 62
     5
370
    18
100
AcDbLine
 10
605.1674926859353
 20
16.27254387096441
 30
0.0
 11
605.1674926859353
 21
32.27254387096432
 31
0.0
  0
LINE
  5
302
330
2FE
100
AcDbEntity
  8
____1
  6
Continuous
 62
     5
370
    18
100
AcDbLine
 10
605.1674926859353
 20
16.27254387096441
 30
0.0
 11
610.1674926859353
 21
16.27254387096441
 31
0.0
  0
LINE
  5
303
330
2FE
100
AcDbEntity
  8
____1
  6
Continuous
 62
     5
370
    18
100
AcDbLine
 10
605.1674926859353
 20
32.27254387096432
 30
0.0
 11
610.1674926859353
 21
32.27254387096432
 31
0.0
  0
ENDBLK
  5
304
330
2FE
100
AcDbEntity
  8
0
100
AcDbBlockEnd
  0
BLOCK
  5
307
330
306
100
AcDbEntity
  8
0
100
AcDbBlockBegin
  2
C31
 70
     0
 10
0.0
 20
0.0
 30
0.0
  3
C31
  1

  0
LINE
  5
308
330
306
100
AcDbEntity
  8
____1
  6
Continuous
 62
     5
370
    18
100
AcDbLine
 10
490.1674926859355
 20
16.27254387096441
 30
0.0
 11
490.1674926859355
 21
32.27254387096432
 31
0.0
  0
LINE
  5
309
330
306
100
AcDbEntity
  8
____1
  6
Continuous
 62
     5
370
    18
100
AcDbLine
 10
485.1674926859353
 20
16.27254387096441
 30
0.0
 11
485.1674926859353
 21
32.27254387096432
 31
0.0
  0
LINE
  5
30A
330
306
100
AcDbEntity
  8
____1
  6
Continuous
 62
     5
370
    18
100
AcDbLine
 10
485.1674926859353
 20
16.27254387096441
 30
0.0
 11
490.1674926859355
 21
16.27254387096441
 31
0.0
  0
LINE
  5
30B
330
306
100
AcDbEntity
  8
____1
  6
Continuous
 62
     5
370
    18
100
AcDbLine
 10
485.1674926859353
 20
32.27254387096432
 30
0.0
 11
490.1674926859355
 21
32.27254387096432
 31
0.0
  0
ENDBLK
  5
30C
330
306
100
AcDbEntity
  8
0
100
AcDbBlockEnd
  0
BLOCK
  5
30F
330
30E
100
AcDbEntity
  8
0
100
AcDbBlockBegin
  2
C32
 70
     0
 10
0.0
 20
0.0
 30
0.0
  3
C32
  1

  0
LINE
  5
310
330
30E
100
AcDbEntity
  8
____1
  6
Continuous
 62
     5
370
    18
100
AcDbLine
 10
530.1674926859353
 20
16.27254387096441
 30
0.0
 11
530.1674926859353
 21
32.27254387096432
 31
0.0
  0
LINE
  5
311
330
30E
100
AcDbEntity
  8
____1
  6
Continuous
 62
     5
370
    18
100
AcDbLine
 10
525.1674926859354
 20
16.27254387096441
 30
0.0
 11
525.1674926859354
 21
32.27254387096432
 31
0.0
  0
LINE
  5
312
330
30E
100
AcDbEntity
  8
____1
  6
Continuous
 62
     5
370
    18
100
AcDbLine
 10
525.1674926859354
 20
16.27254387096441
 30
0.0
 11
530.1674926859353
 21
16.27254387096441
 31
0.0
  0
LINE
  5
313
330
30E
100
AcDbEntity
  8
____1
  6
Continuous
 62
     5
370
    18
100
AcDbLine
 10
525.1674926859354
 20
32.27254387096432
 30
0.0
 11
530.1674926859353
 21
32.27254387096432
 31
0.0
  0
ENDBLK
  5
314
330
30E
100
AcDbEntity
  8
0
100
AcDbBlockEnd
  0
BLOCK
  5
317
330
316
100
AcDbEntity
  8
0
100
AcDbBlockBegin
  2
C33
 70
     0
 10
0.0
 20
0.0
 30
0.0
  3
C33
  1

  0
LINE
  5
318
330
316
100
AcDbEntity
  8
____1
  6
Continuous
 62
     5
370
    18
100
AcDbLine
 10
570.1674926859355
 20
16.27254387096441
 30
0.0
 11
570.1674926859355
 21
32.27254387096432
 31
0.0
  0
LINE
  5
319
330
316
100
AcDbEntity
  8
____1
  6
Continuous
 62
     5
370
    18
100
AcDbLine
 10
565.1674926859355
 20
16.27254387096441
 30
0.0
 11
565.1674926859355
 21
32.27254387096432
 31
0.0
  0
LINE
  5
31A
330
316
100
AcDbEntity
  8
____1
  6
Continuous
 62
     5
370
    18
100
AcDbLine
 10
565.1674926859355
 20
16.27254387096441
 30
0.0
 11
570.1674926859355
 21
16.27254387096441
 31
0.0
  0
LINE
  5
31B
330
316
100
AcDbEntity
  8
____1
  6
Continuous
 62
     5
370
    18
100
AcDbLine
 10
565.1674926859355
 20
32.27254387096432
 30
0.0
 11
570.1674926859355
 21
32.27254387096432
 31
0.0
  0
ENDBLK
  5
31C
330
316
100
AcDbEntity
  8
0
100
AcDbBlockEnd
  0
BLOCK
  5
31F
330
31E
100
AcDbEntity
  8
0
100
AcDbBlockBegin
  2
C34
 70
     0
 10
0.0
 20
0.0
 30
0.0
  3
C34
  1

  0
LINE
  5
320
330
31E
100
AcDbEntity
  8
____1
  6
Continuous
 62
     5
370
    18
100
AcDbLine
 10
450.1674926859354
 20
16.27254387096441
 30
0.0
 11
450.1674926859354
 21
32.27254387096432
 31
0.0
  0
LINE
  5
321
330
31E
100
AcDbEntity
  8
____1
  6
Continuous
 62
     5
370
    18
100
AcDbLine
 10
445.1674926859355
 20
16.27254387096441
 30
0.0
 11
445.1674926859355
 21
32.27254387096432
 31
0.0
  0
LINE
  5
322
330
31E
100
AcDbEntity
  8
____1
  6
Continuous
 62
     5
370
    18
100
AcDbLine
 10
445.1674926859355
 20
16.27254387096441
 30
0.0
 11
450.1674926859354
 21
16.27254387096441
 31
0.0
  0
LINE
  5
323
330
31E
100
AcDbEntity
  8
____1
  6
Continuous
 62
     5
370
    18
100
AcDbLine
 10
445.1674926859355
 20
32.27254387096432
 30
0.0
 11
450.1674926859354
 21
32.27254387096432
 31
0.0
  0
ENDBLK
  5
324
330
31E
100
AcDbEntity
  8
0
100
AcDbBlockEnd
  0
BLOCK
  5
327
330
326
100
AcDbEntity
  8
0
100
AcDbBlockBegin
  2
C35
 70
     0
 10
0.0
 20
0.0
 30
0.0
  3
C35
  1

  0
LINE
  5
328
330
326
100
AcDbEntity
  8
____1
  6
Continuous
 62
     5
370
    18
100
AcDbLine
 10
1530.167492685935
 20
16.27254387096441
 30
0.0
 11
1530.167492685935
 21
32.27254387096432
 31
0.0
  0
LINE
  5
329
330
326
100
AcDbEntity
  8
____1
  6
Continuous
 62
     5
370
    18
100
AcDbLine
 10
1525.167492685935
 20
16.27254387096441
 30
0.0
 11
1525.167492685935
 21
32.27254387096432
 31
0.0
  0
LINE
  5
32A
330
326
100
AcDbEntity
  8
____1
  6
Continuous
 62
     5
370
    18
100
AcDbLine
 10
1525.167492685935
 20
16.27254387096441
 30
0.0
 11
1530.167492685935
 21
16.27254387096441
 31
0.0
  0
LINE
  5
32B
330
326
100
AcDbEntity
  8
____1
  6
Continuous
 62
     5
370
    18
100
AcDbLine
 10
1525.167492685935
 20
32.27254387096432
 30
0.0
 11
1530.167492685935
 21
32.27254387096432
 31
0.0
  0
ENDBLK
  5
32C
330
326
100
AcDbEntity
  8
0
100
AcDbBlockEnd
  0
BLOCK
  5
32F
330
32E
100
AcDbEntity
  8
0
100
AcDbBlockBegin
  2
C36
 70
     0
 10
0.0
 20
0.0
 30
0.0
  3
C36
  1

  0
LINE
  5
330
330
32E
100
AcDbEntity
  8
____1
  6
Continuous
 62
     5
370
    18
100
AcDbLine
 10
1490.167492685935
 20
16.27254387096441
 30
0.0
 11
1490.167492685935
 21
32.27254387096432
 31
0.0
  0
LINE
  5
331
330
32E
100
AcDbEntity
  8
____1
  6
Continuous
 62
     5
370
    18
100
AcDbLine
 10
1485.167492685935
 20
16.27254387096441
 30
0.0
 11
1485.167492685935
 21
32.27254387096432
 31
0.0
  0
LINE
  5
332
330
32E
100
AcDbEntity
  8
____1
  6
Continuous
 62
     5
370
    18
100
AcDbLine
 10
1485.167492685935
 20
16.27254387096441
 30
0.0
 11
1490.167492685935
 21
16.27254387096441
 31
0.0
  0
LINE
  5
333
330
32E
100
AcDbEntity
  8
____1
  6
Continuous
 62
     5
370
    18
100
AcDbLine
 10
1485.167492685935
 20
32.27254387096432
 30
0.0
 11
1490.167492685935
 21
32.27254387096432
 31
0.0
  0
ENDBLK
  5
334
330
32E
100
AcDbEntity
  8
0
100
AcDbBlockEnd
  0
BLOCK
  5
33A
330
339
100
AcDbEntity
  8
0
100
AcDbBlockBegin
  2
C37
 70
     0
 10
0.0
 20
0.0
 30
0.0
  3
C37
  1

  0
LINE
  5
33B
330
339
100
AcDbEntity
  8
____1
  6
Continuous
 62
     5
370
    18
100
AcDbLine
 10
1450.167492685935
 20
16.27254387096441
 30
0.0
 11
1450.167492685935
 21
32.27254387096432
 31
0.0
  0
LINE
  5
33C
330
339
100
AcDbEntity
  8
____1
  6
Continuous
 62
     5
370
    18
100
AcDbLine
 10
1445.167492685935
 20
16.27254387096441
 30
0.0
 11
1445.167492685935
 21
32.27254387096432
 31
0.0
  0
LINE
  5
33D
330
339
100
AcDbEntity
  8
____1
  6
Continuous
 62
     5
370
    18
100
AcDbLine
 10
1445.167492685935
 20
16.27254387096441
 30
0.0
 11
1450.167492685935
 21
16.27254387096441
 31
0.0
  0
LINE
  5
33E
330
339
100
AcDbEntity
  8
____1
  6
Continuous
 62
     5
370
    18
100
AcDbLine
 10
1445.167492685935
 20
32.27254387096432
 30
0.0
 11
1450.167492685935
 21
32.27254387096432
 31
0.0
  0
ENDBLK
  5
33F
330
339
100
AcDbEntity
  8
0
100
AcDbBlockEnd
  0
BLOCK
  5
342
330
341
100
AcDbEntity
  8
0
100
AcDbBlockBegin
  2
C38
 70
     0
 10
0.0
 20
0.0
 30
0.0
  3
C38
  1

  0
LINE
  5
343
330
341
100
AcDbEntity
  8
____1
  6
Continuous
 62
     5
370
    18
100
AcDbLine
 10
1410.167492685935
 20
16.27254387096441
 30
0.0
 11
1410.167492685935
 21
32.27254387096432
 31
0.0
  0
LINE
  5
344
330
341
100
AcDbEntity
  8
____1
  6
Continuous
 62
     5
370
    18
100
AcDbLine
 10
1405.167492685935
 20
16.27254387096441
 30
0.0
 11
1405.167492685935
 21
32.27254387096432
 31
0.0
  0
LINE
  5
345
330
341
100
AcDbEntity
  8
____1
  6
Continuous
 62
     5
370
    18
100
AcDbLine
 10
1405.167492685935
 20
16.27254387096441
 30
0.0
 11
1410.167492685935
 21
16.27254387096441
 31
0.0
  0
LINE
  5
346
330
341
100
AcDbEntity
  8
____1
  6
Continuous
 62
     5
370
    18
100
AcDbLine
 10
1405.167492685935
 20
32.27254387096432
 30
0.0
 11
1410.167492685935
 21
32.27254387096432
 31
0.0
  0
ENDBLK
  5
347
330
341
100
AcDbEntity
  8
0
100
AcDbBlockEnd
  0
BLOCK
  5
34A
330
349
100
AcDbEntity
  8
0
100
AcDbBlockBegin
  2
C39
 70
     0
 10
0.0
 20
0.0
 30
0.0
  3
C39
  1

  0
LINE
  5
34B
330
349
100
AcDbEntity
  8
____1
  6
Continuous
 62
     5
370
    18
100
AcDbLine
 10
1570.167492685935
 20
16.27254387096441
 30
0.0
 11
1570.167492685935
 21
32.27254387096432
 31
0.0
  0
LINE
  5
34C
330
349
100
AcDbEntity
  8
____1
  6
Continuous
 62
     5
370
    18
100
AcDbLine
 10
1565.167492685935
 20
16.27254387096441
 30
0.0
 11
1565.167492685935
 21
32.27254387096432
 31
0.0
  0
LINE
  5
34D
330
349
100
AcDbEntity
  8
____1
  6
Continuous
 62
     5
370
    18
100
AcDbLine
 10
1565.167492685935
 20
16.27254387096441
 30
0.0
 11
1570.167492685935
 21
16.27254387096441
 31
0.0
  0
LINE
  5
34E
330
349
100
AcDbEntity
  8
____1
  6
Continuous
 62
     5
370
    18
100
AcDbLine
 10
1565.167492685935
 20
32.27254387096432
 30
0.0
 11
1570.167492685935
 21
32.27254387096432
 31
0.0
  0
ENDBLK
  5
34F
330
349
100
AcDbEntity
  8
0
100
AcDbBlockEnd
  0
BLOCK
  5
355
330
354
100
AcDbEntity
  8
0
100
AcDbBlockBegin
  2
C40
 70
     0
 10
0.0
 20
0.0
 30
0.0
  3
C40
  1

  0
LINE
  5
356
330
354
100
AcDbEntity
  8
____1
  6
Continuous
 62
     5
370
    18
100
AcDbLine
 10
330.1674926859356
 20
16.27254387096441
 30
0.0
 11
330.1674926859356
 21
32.27254387096432
 31
0.0
  0
LINE
  5
357
330
354
100
AcDbEntity
  8
____1
  6
Continuous
 62
     5
370
    18
100
AcDbLine
 10
325.1674926859355
 20
16.27254387096441
 30
0.0
 11
325.1674926859355
 21
32.27254387096432
 31
0.0
  0
LINE
  5
358
330
354
100
AcDbEntity
  8
____1
  6
Continuous
 62
     5
370
    18
100
AcDbLine
 10
325.1674926859355
 20
16.27254387096441
 30
0.0
 11
330.1674926859356
 21
16.27254387096441
 31
0.0
  0
LINE
  5
359
330
354
100
AcDbEntity
  8
____1
  6
Continuous
 62
     5
370
    18
100
AcDbLine
 10
325.1674926859355
 20
32.27254387096432
 30
0.0
 11
330.1674926859356
 21
32.27254387096432
 31
0.0
  0
ENDBLK
  5
35A
330
354
100
AcDbEntity
  8
0
100
AcDbBlockEnd
  0
ENDSEC
  0
SECTION
  2
ENTITIES
  0
LINE
  5
3A
330
A
100
AcDbEntity
  8
____1
  6
Continuous
 62
     0
370
     5
100
AcDbLine
 10
229.5023220773972
 20
21.89906517836334
 30
0.0
 11
285.2107774035471
 21
-78.00745529263387
 31
0.0
  0
SOLID
  5
3B
330
A
100
AcDbEntity
  8
____1
 62
     0
100
AcDbTrace
 10
229.5023220773972
 20
21.89906517836334
 30
0.0
 11
235.1889941257372
 21
0.8350853477013766
 31
0.0
 12
229.5023220773972
 22
21.89906517836334
 32
0.0
 13
237.2336164345776
 23
8.03390389466195
 33
0.0
  0
SOLID
  5
3C
330
A
100
AcDbEntity
  8
____1
 62
     0
100
AcDbTrace
 10
237.2336164345776
 20
8.03390389466195
 30
0.0
 11
244.4324349815381
 21
5.989281585821597
 31
0.0
 12
229.5023220773972
 22
21.89906517836334
 32
0.0
 13
229.5023220773972
 23
21.89906517836334
 33
0.0
  0
LINE
  5
3D
330
A
100
AcDbEntity
  8
____1
  6
Continuous
 62
     0
370
    18
100
AcDbLine
 10
-12.33250731406383
 20
9.272543870964412
 30
0.0
 11
-12.33250731406383
 21
39.27254387096466
 31
0.0
  0
INSERT
  5
45
330
A
100
AcDbEntity
  8
____1
  6
Continuous
 62
     0
370
    18
100
AcDbBlockReference
  2
C0
 10
0.0
 20
0.0
 30
0.0
  0
INSERT
  5
4D
330
A
100
AcDbEntity
  8
____1
  6
Continuous
 62
     0
370
    18
100
AcDbBlockReference
  2
C1
 10
0.0
 20
0.0
 30
0.0
  0
LINE
  5
4E
330
A
100
AcDbEntity
  8
____1
  6
CENTER2
 62
     0
370
     5
100
AcDbLine
 10
227.6674926859362
 20
30.27254387096426
 30
0.0
 11
227.6674926859362
 21
18.27254387096424
 31
0.0
  0
LINE
  5
4F
330
A
100
AcDbEntity
  8
____1
  6
CENTER2
 62
     0
370
     5
100
AcDbLine
 10
221.6674926859361
 20
24.27254387096426
 30
0.0
 11
233.6674926859362
 21
24.27254387096426
 31
0.0
  0
CIRCLE
  5
50
330
A
100
AcDbEntity
  8
____1
  6
Continuous
 62
     0
370
    18
100
AcDbCircle
 10
227.6674926859362
 20
24.27254387096426
 30
0.0
 40
1.899999999999636
  0
CIRCLE
  5
51
330
A
100
AcDbEntity
  8
____1
  6
Continuous
 62
     0
370
    18
100
AcDbCircle
 10
227.6674926859362
 20
24.27254387096426
 30
0.0
 40
3.0
  0
CIRCLE
  5
52
330
A
100
AcDbEntity
  8
____1
  6
Continuous
 62
     0
370
    18
100
AcDbCircle
 10
27.66749268593617
 20
24.27254387096431
 30
0.0
 40
3.0
  0
CIRCLE
  5
53
330
A
100
AcDbEntity
  8
____1
  6
Continuous
 62
     0
370
    18
100
AcDbCircle
 10
27.66749268593617
 20
24.27254387096431
 30
0.0
 40
1.899999999999636
  0
INSERT
  5
5B
330
A
100
AcDbEntity
  8
____1
  6
Continuous
 62
     0
370
    18
100
AcDbBlockReference
  2
C2
 10
0.0
 20
0.0
 30
0.0
  0
LINE
  5
5C
330
A
100
AcDbEntity
  8
____1
  6
CENTER2
 62
     0
370
     5
100
AcDbLine
 10
21.66749268593617
 20
24.27254387096431
 30
0.0
 11
33.66749268593617
 21
24.27254387096431
 31
0.0
  0
LINE
  5
5D
330
A
100
AcDbEntity
  8
____1
  6
CENTER2
 62
     0
370
     5
100
AcDbLine
 10
27.66749268593617
 20
30.27254387096431
 30
0.0
 11
27.66749268593617
 21
18.2725438709643
 31
0.0
  0
INSERT
  5
65
330
A
100
AcDbEntity
  8
____1
  6
Continuous
 62
     0
370
    18
100
AcDbBlockReference
  2
C3
 10
0.0
 20
0.0
 30
0.0
  0
INSERT
  5
6D
330
A
100
AcDbEntity
  8
____1
  6
Continuous
 62
     0
370
    18
100
AcDbBlockReference
  2
C4
 10
0.0
 20
0.0
 30
0.0
  0
INSERT
  5
75
330
A
100
AcDbEntity
  8
____1
  6
Continuous
 62
     0
370
    18
100
AcDbBlockReference
  2
C5
 10
0.0
 20
0.0
 30
0.0
  0
INSERT
  5
7D
330
A
100
AcDbEntity
  8
____1
  6
Continuous
 62
     0
370
    18
100
AcDbBlockReference
  2
C6
 10
0.0
 20
0.0
 30
0.0
  0
INSERT
  5
85
330
A
100
AcDbEntity
  8
____1
  6
Continuous
 62
     0
370
    18
100
AcDbBlockReference
  2
C7
 10
0.0
 20
0.0
 30
0.0
  0
DIMENSION
  5
93
330
A
100
AcDbEntity
  8
寸法線_1
  6
Continuous
 62
     0
370
     5
100
AcDbDimension
  2
*D8
 10
227.6674926859362
 20
89.27254387096466
 30
0.0
 11
127.6674926859362
 21
99.09198852733672
 31
0.0
 70
    32
 71
     5
 42
200.0
  3
DS1
100
AcDbAlignedDimension
 13
27.66749268593617
 23
30.27254387096431
 33
0.0
 14
227.6674926859362
 24
30.27254387096426
 34
0.0
100
AcDbRotatedDimension
  0
DIMENSION
  5
A1
330
A
100
AcDbEntity
  8
寸法線_1
  6
Continuous
 62
     0
370
     5
100
AcDbDimension
  2
*D9
 10
427.6674926859361
 20
89.27254387096466
 30
0.0
 11
327.6674926859362
 21
99.09198852733672
 31
0.0
 70
    32
 71
     5
 42
200.0
  3
DS1
100
AcDbAlignedDimension
 13
227.6674926859362
 23
30.27254387096426
 33
0.0
 14
427.6674926859361
 24
30.2725438709642
 34
0.0
100
AcDbRotatedDimension
  0
DIMENSION
  5
AE
330
A
100
AcDbEntity
  8
寸法線_1
  6
Continuous
 62
     0
370
     5
100
AcDbDimension
  2
*D10
 10
627.6674926859361
 20
89.27254387096466
 30
0.0
 11
527.6674926859361
 21
99.09198852733672
 31
0.0
 70
    32
 71
     5
 42
200.0
  3
DS1
100
AcDbAlignedDimension
 13
427.6674926859361
 23
30.2725438709642
 33
0.0
 14
627.6674926859361
 24
30.27254387096415
 34
0.0
100
AcDbRotatedDimension
  0
DIMENSION
  5
BB
330
A
100
AcDbEntity
  8
寸法線_1
  6
Continuous
 62
     0
370
     5
100
AcDbDimension
  2
*D11
 10
827.6674926859362
 20
89.27254387096466
 30
0.0
 11
727.6674926859361
 21
99.09198852733672
 31
0.0
 70
    32
 71
     5
 42
200.0
  3
DS1
100
AcDbAlignedDimension
 13
627.6674926859361
 23
30.27254387096415
 33
0.0
 14
827.6674926859362
 24
30.27254387096409
 34
0.0
100
AcDbRotatedDimension
  0
DIMENSION
  5
C8
330
A
100
AcDbEntity
  8
寸法線_1
  6
Continuous
 62
     0
370
     5
100
AcDbDimension
  2
*D12
 10
1027.667492685936
 20
89.27254387096466
 30
0.0
 11
927.6674926859362
 21
99.09198852733672
 31
0.0
 70
    32
 71
     5
 42
200.0
  3
DS1
100
AcDbAlignedDimension
 13
827.6674926859362
 23
30.27254387096409
 33
0.0
 14
1027.667492685936
 24
30.27254387096403
 34
0.0
100
AcDbRotatedDimension
  0
DIMENSION
  5
D7
330
A
100
AcDbEntity
  8
寸法線_1
  6
Continuous
 62
     0
370
     5
100
AcDbDimension
  2
*D13
 10
1146.475733414744
 20
-220.8629505169416
 30
0.0
 11
1136.656288758372
 21
-295.8629505169422
 31
0.0
 70
    32
 71
     5
 42
150.0000000000013
  3
DS1
100
AcDbAlignedDimension
 13
1196.475733414744
 23
-370.862950516943
 33
0.0
 14
1196.475733414744
 24
-220.8629505169416
 34
0.0
 50
90.0
100
AcDbRotatedDimension
  0
DIMENSION
  5
E5
330
A
100
AcDbEntity
  8
寸法線_1
  6
Continuous
 62
     0
370
     5
100
AcDbDimension
  2
*D14
 10
1233.975733414744
 20
-170.8629505169416
 30
0.0
 11
1264.43406738386
 21
-161.0435058605695
 31
0.0
 70
    32
 71
     5
 42
42.49999999999909
  3
DS1
100
AcDbAlignedDimension
 13
1191.475733414745
 23
-225.8629505169416
 33
0.0
 14
1233.975733414744
 24
-220.8629505169416
 34
0.0
100
AcDbRotatedDimension
  0
MTEXT
  5
195
330
A
100
AcDbEntity
  8
____
  6
Continuous
 62
     7
370
     5
100
AcDbMText
 10
147.6000520833336
 20
489.5709027777776
 30
0.0
 40
3.174999952316283
 41
50.0
 71
     1
 72
     1
  1
********************
  7
Style1
 73
     1
 44
1.0
1001
ACAD
1000
MTEXTBEGIN
1070
    73
1070
     1
1070
    44
1040
1.0
1070
    74
1070
     0
1000
MTEXTEND
  0
MTEXT
  5
196
330
A
100
AcDbEntity
  8
____
  6
Continuous
 62
     7
370
     5
100
AcDbMText
 10
125.7330236725008
 20
488.966510518597
 30
0.0
 40
3.174999961853028
 41
3.165486049579876
 71
     1
 72
     1
  1
1
  7
Style1
 73
     1
 44
1.0
1001
ACAD
1000
MTEXTBEGIN
1070
    73
1070
     1
1070
    44
1040
1.0
1070
    74
1070
     0
1000
MTEXTEND
  0
MTEXT
  5
197
330
A
100
AcDbEntity
  8
____
  6
DOT
 62
     7
370
     5
100
AcDbMText
 10
197.6000520833336
 20
489.5709027777776
 30
0.0
 40
3.174999952316283
 41
10.0
 71
     1
 72
     1
  1
***
  7
Style1
 73
     1
 44
1.0
1001
ACAD
1000
MTEXTBEGIN
1070
    73
1070
     1
1070
    44
1040
1.0
1070
    74
1070
     0
1000
MTEXTEND
  0
MTEXT
  5
198
330
A
100
AcDbEntity
  8
____
  6
Continuous
 62
     7
370
     5
100
AcDbMText
 10
131.6000520833336
 20
489.5709027777776
 30
0.0
 40
3.174999952316283
 41
16.0
 71
     1
 72
     1
  1
H**.**.**
  7
Style1
 73
     1
 44
1.0
1001
ACAD
1000
MTEXTBEGIN
1070
    73
1070
     1
1070
    44
1040
1.0
1070
    74
1070
     0
1000
MTEXTEND
  0
LINE
  5
19C
330
A
100
AcDbEntity
  8
____1
  6
Continuous
 62
     0
370
    18
100
AcDbLine
 10
1196.475733414744
 20
-312.9340183288077
 30
0.0
 11
1204.046801226609
 21
-305.3629505169425
 31
0.0
  0
LINE
  5
19D
330
A
100
AcDbEntity
  8
____1
  6
Continuous
 62
     0
370
    18
100
AcDbLine
 10
1196.475733414744
 20
-312.9340183288077
 30
0.0
 11
1196.475733414744
 21
-365.862950516943
 31
0.0
  0
LINE
  5
19E
330
A
100
AcDbEntity
  8
____1
  6
Continuous
 62
     0
370
    18
100
AcDbLine
 10
1196.475733414744
 20
-278.7918827050779
 30
0.0
 11
1204.046801226609
 21
-286.362950516943
 31
0.0
  0
ARC
  5
19F
330
A
100
AcDbEntity
  8
____1
  6
Continuous
 62
     0
370
    18
100
AcDbCircle
 10
1196.475733414744
 20
-312.9340183288077
 30
0.0
 40
4.999999999999396
100
AcDbArc
 50
135.0000000000018
 51
180.0
  0
LINE
  5
1A0
330
A
100
AcDbEntity
  8
____1
  6
Continuous
 62
     0
370
    18
100
AcDbLine
 10
1191.475733414745
 20
-278.7918827050772
 30
0.0
 11
1191.475733414745
 21
-312.9340183288077
 31
0.0
  0
LINE
  5
1A1
330
A
100
AcDbEntity
  8
____1
  6
Continuous
 62
     0
370
    18
100
AcDbLine
 10
1196.475733414744
 20
-370.862950516943
 30
0.0
 11
1233.975733414744
 21
-370.862950516943
 31
0.0
  0
LINE
  5
1A2
330
A
100
AcDbEntity
  8
____1
  6
Continuous
 62
     0
370
    18
100
AcDbLine
 10
1196.475733414744
 20
-365.862950516943
 30
0.0
 11
1233.975733414744
 21
-365.862950516943
 31
0.0
  0
LINE
  5
1A3
330
A
100
AcDbEntity
  8
____1
  6
Continuous
 62
     0
370
    18
100
AcDbLine
 10
1233.975733414744
 20
-365.862950516943
 30
0.0
 11
1233.975733414744
 21
-370.862950516943
 31
0.0
  0
ARC
  5
1A4
330
A
100
AcDbEntity
  8
____1
  6
Continuous
 62
     0
370
    18
100
AcDbCircle
 10
1196.475733414744
 20
-365.862950516943
 30
0.0
 40
4.999999999999089
100
AcDbArc
 50
180.0
 51
-90.0
  0
LINE
  5
1A5
330
A
100
AcDbEntity
  8
____1
  6
CENTER2
 62
     0
370
     5
100
AcDbLine
 10
1166.475733414745
 20
-295.8629505169428
 30
0.0
 11
1258.975733414744
 21
-295.8629505169428
 31
0.0
  0
LINE
  5
1A6
330
A
100
AcDbEntity
  8
____1
  6
Continuous
 62
     0
370
    18
100
AcDbLine
 10
1191.475733414745
 20
-312.9340183288077
 30
0.0
 11
1191.475733414745
 21
-365.862950516943
 31
0.0
  0
LINE
  5
1A7
330
A
100
AcDbEntity
  8
____1
  6
Continuous
 62
     0
370
    18
100
AcDbLine
 10
1196.475733414744
 20
-225.8629505169416
 30
0.0
 11
1196.475733414744
 21
-278.7918827050779
 31
0.0
  0
LINE
  5
1A8
330
A
100
AcDbEntity
  8
____1
  6
Continuous
 62
     0
370
    18
100
AcDbLine
 10
1196.475733414744
 20
-225.8629505169416
 30
0.0
 11
1233.975733414744
 21
-225.8629505169416
 31
0.0
  0
LINE
  5
1A9
330
A
100
AcDbEntity
  8
____1
  6
Continuous
 62
     0
370
    18
100
AcDbLine
 10
1233.975733414744
 20
-220.8629505169416
 30
0.0
 11
1233.975733414744
 21
-225.8629505169416
 31
0.0
  0
ARC
  5
1AA
330
A
100
AcDbEntity
  8
____1
  6
Continuous
 62
     0
370
    18
100
AcDbCircle
 10
1196.475733414744
 20
-225.8629505169416
 30
0.0
 40
5.0
100
AcDbArc
 50
90.0
 51
180.0
  0
LINE
  5
1AB
330
A
100
AcDbEntity
  8
____1
  6
Continuous
 62
     0
370
    18
100
AcDbLine
 10
1191.475733414745
 20
-225.8629505169416
 30
0.0
 11
1191.475733414745
 21
-278.7918827050772
 31
0.0
  0
DIMENSION
  5
1B9
330
A
100
AcDbEntity
  8
寸法線_1
  6
Continuous
 62
     0
370
     5
100
AcDbDimension
  2
*D16
 10
1227.667492685936
 20
89.27254387096466
 30
0.0
 11
1127.667492685936
 21
99.09198852733672
 31
0.0
 70
    32
 71
     5
 42
200.0
  3
DS1
100
AcDbAlignedDimension
 13
1027.667492685936
 23
30.27254387096403
 33
0.0
 14
1227.667492685936
 24
30.27254387096397
 34
0.0
100
AcDbRotatedDimension
  0
DIMENSION
  5
1C6
330
A
100
AcDbEntity
  8
寸法線_1
  6
Continuous
 62
     0
370
     5
100
AcDbDimension
  2
*D17
 10
1427.667492685936
 20
89.27254387096466
 30
0.0
 11
1327.667492685936
 21
99.09198852733672
 31
0.0
 70
    32
 71
     5
 42
200.0
  3
DS1
100
AcDbAlignedDimension
 13
1227.667492685936
 23
30.27254387096397
 33
0.0
 14
1427.667492685936
 24
30.27254387096391
 34
0.0
100
AcDbRotatedDimension
  0
DIMENSION
  5
1D3
330
A
100
AcDbEntity
  8
寸法線_1
  6
Continuous
 62
     0
370
     5
100
AcDbDimension
  2
*D18
 10
1587.667492685935
 20
89.27254387096466
 30
0.0
 11
1507.667492685936
 21
99.09198852733672
 31
0.0
 70
    32
 71
     5
 42
159.9999999999993
  3
DS1
100
AcDbAlignedDimension
 13
1427.667492685936
 23
30.27254387096391
 33
0.0
 14
1587.667492685935
 24
39.27254387096466
 34
0.0
100
AcDbRotatedDimension
  0
DIMENSION
  5
1E0
330
A
100
AcDbEntity
  8
寸法線_1
  6
Continuous
 62
     0
370
     5
100
AcDbDimension
  2
*D19
 10
1587.667492685935
 20
195.9172861229885
 30
0.0
 11
787.6674926859358
 21
205.7367307793606
 31
0.0
 70
    32
 71
     5
 42
1599.999999999999
  3
DS1
100
AcDbAlignedDimension
 13
-12.33250731406383
 23
39.27254387096466
 33
0.0
 14
1587.667492685935
 24
39.27254387096466
 34
0.0
 50
0.0000008537736463
100
AcDbRotatedDimension
  0
DIMENSION
  5
1EE
330
A
100
AcDbEntity
  8
寸法線_1
  6
Continuous
 62
     0
370
     5
100
AcDbDimension
  2
*D20
 10
7.667492685936174
 20
147.3414397688219
 30
0.0
 11
24.89665967049428
 21
157.1608844251939
 31
0.0
 70
    32
 71
     5
 42
20.0
  3
DS1
100
AcDbAlignedDimension
 13
-12.33250731406383
 23
39.27254387096466
 33
0.0
 14
7.667492685936168
 24
32.27254387096432
 34
0.0
100
AcDbRotatedDimension
  0
DIMENSION
  5
1FC
330
A
100
AcDbEntity
  8
寸法線_1
  6
Continuous
 62
     0
370
     5
100
AcDbDimension
  2
*D21
 10
1587.667492685935
 20
147.3414397688219
 30
0.0
 11
1604.896659670493
 21
157.1608844251939
 31
0.0
 70
    32
 71
     5
 42
20.0
  3
DS1
100
AcDbAlignedDimension
 13
1567.667492685935
 23
32.27254387096432
 33
0.0
 14
1587.667492685935
 24
39.27254387096466
 34
0.0
100
AcDbRotatedDimension
  0
DIMENSION
  5
209
330
A
100
AcDbEntity
  8
寸法線_1
  6
Continuous
 62
     0
370
     5
100
AcDbDimension
  2
*D22
 10
1567.667492685935
 20
147.3414397688219
 30
0.0
 11
787.6674926859358
 21
157.1608844251939
 31
0.0
 70
    32
 71
     5
 42
1559.999999999999
  3
DS1
100
AcDbAlignedDimension
 13
7.667492685936168
 23
32.27254387096432
 33
0.0
 14
1567.667492685935
 24
32.27254387096432
 34
0.0
100
AcDbRotatedDimension
  0
DIMENSION
  5
216
330
A
100
AcDbEntity
  8
寸法線_1
  6
Continuous
 62
     0
370
     5
100
AcDbDimension
  2
*D23
 10
27.66749268593617
 20
89.27254387096466
 30
0.0
 11
7.667492685936172
 21
99.09198852733672
 31
0.0
 70
    32
 71
     5
 42
40.0
  3
DS1
100
AcDbAlignedDimension
 13
-12.33250731406383
 23
39.27254387096466
 33
0.0
 14
27.66749268593617
 24
30.27254387096431
 34
0.0
100
AcDbRotatedDimension
  0
LINE
  5
217
330
A
100
AcDbEntity
  8
____1
  6
Continuous
 62
     0
370
    18
100
AcDbLine
 10
1680.479429244108
 20
27.68675743333743
 30
0.0
 11
1681.993642806481
 21
26.17254387096441
 31
0.0
  0
ARC
  5
218
330
A
100
AcDbEntity
  8
____1
  6
Continuous
 62
     0
370
    18
100
AcDbCircle
 10
1680.479429244108
 20
20.85833030859143
 30
0.0
 40
1.000000000000012
100
AcDbArc
 50
135.0000000000089
 51
180.0
  0
LINE
  5
219
330
A
100
AcDbEntity
  8
____1
  6
Continuous
 62
     0
370
    18
100
AcDbLine
 10
1679.479429244108
 20
27.68675743333754
 30
0.0
 11
1679.479429244108
 21
20.85833030859143
 31
0.0
  0
LINE
  5
21A
330
A
100
AcDbEntity
  8
____1
  6
Continuous
 62
     0
370
    18
100
AcDbLine
 10
1680.479429244108
 20
9.272543870964412
 30
0.0
 11
1687.979429244108
 21
9.272543870964412
 31
0.0
  0
LINE
  5
21B
330
A
100
AcDbEntity
  8
____1
  6
Continuous
 62
     0
370
    18
100
AcDbLine
 10
1680.479429244108
 20
10.27254387096441
 30
0.0
 11
1687.979429244108
 21
10.27254387096441
 31
0.0
  0
LINE
  5
21C
330
A
100
AcDbEntity
  8
____1
  6
Continuous
 62
     0
370
    18
100
AcDbLine
 10
1687.979429244108
 20
10.27254387096441
 30
0.0
 11
1687.979429244108
 21
9.272543870964412
 31
0.0
  0
ARC
  5
21D
330
A
100
AcDbEntity
  8
____1
  6
Continuous
 62
     0
370
    18
100
AcDbCircle
 10
1680.479429244108
 20
10.27254387096441
 30
0.0
 40
1.0
100
AcDbArc
 50
180.0
 51
-90.0
  0
LINE
  5
21E
330
A
100
AcDbEntity
  8
____1
  6
CENTER2
 62
     0
370
     5
100
AcDbLine
 10
1674.479429244108
 20
24.27254387096443
 30
0.0
 11
1692.979429244108
 21
24.27254387096443
 31
0.0
  0
LINE
  5
21F
330
A
100
AcDbEntity
  8
____1
  6
Continuous
 62
     0
370
    18
100
AcDbLine
 10
1679.479429244108
 20
20.85833030859143
 30
0.0
 11
1679.479429244108
 21
10.27254387096441
 31
0.0
  0
LINE
  5
220
330
A
100
AcDbEntity
  8
____1
  6
Continuous
 62
     0
370
    18
100
AcDbLine
 10
1680.479429244108
 20
38.27254387096465
 30
0.0
 11
1680.479429244108
 21
27.68675743333743
 31
0.0
  0
LINE
  5
221
330
A
100
AcDbEntity
  8
____1
  6
Continuous
 62
     0
370
    18
100
AcDbLine
 10
1680.479429244108
 20
38.27254387096465
 30
0.0
 11
1687.979429244108
 21
38.27254387096465
 31
0.0
  0
LINE
  5
222
330
A
100
AcDbEntity
  8
____1
  6
Continuous
 62
     0
370
    18
100
AcDbLine
 10
1687.979429244108
 20
39.27254387096466
 30
0.0
 11
1687.979429244108
 21
38.27254387096465
 31
0.0
  0
LINE
  5
223
330
A
100
AcDbEntity
  8
____1
  6
Continuous
 62
     0
370
     5
100
AcDbLine
 10
687.6674926859354
 20
16.27254387096441
 30
0.0
 11
743.3759480120852
 21
-83.63397660003281
 31
0.0
  0
SOLID
  5
224
330
A
100
AcDbEntity
  8
____1
 62
     0
100
AcDbTrace
 10
687.6674926859354
 20
16.27254387096441
 30
0.0
 11
693.3541647342755
 21
-4.791435959697555
 31
0.0
 12
687.6674926859354
 22
16.27254387096441
 32
0.0
 13
695.3987870431157
 23
2.407382587263018
 33
0.0
  0
SOLID
  5
225
330
A
100
AcDbEntity
  8
____1
 62
     0
100
AcDbTrace
 10
695.3987870431157
 20
2.407382587263018
 30
0.0
 11
702.5976055900763
 21
0.3627602784226656
 31
0.0
 12
687.6674926859354
 22
16.27254387096441
 32
0.0
 13
687.6674926859354
 23
16.27254387096441
 33
0.0
  0
LINE
  5
226
330
A
100
AcDbEntity
  8
____1
  6
Continuous
 62
     0
370
     5
100
AcDbLine
 10
743.3759480120852
 20
-83.63397660003281
 30
0.0
 11
936.3472830482804
 21
-83.63397660003281
 31
0.0
  0
CIRCLE
  5
228
330
A
100
AcDbEntity
  8
____1
  6
DASHED2
 62
     0
370
     5
100
AcDbCircle
 10
1683.729429244108
 20
24.27254387096443
 30
0.0
 40
29.99999999999998
  0
MTEXT
  5
229
330
A
100
AcDbEntity
  8
____1
  6
Continuous
 62
     0
370
     5
100
AcDbMText
 10
1714.044439586449
 20
1.5
 30
0.0
 40
17.63888931274414
 41
29.73463566487999
 71
     1
 72
     1
  1
Ａ
  7
Style1
 73
     1
 44
1.0
1001
ACAD
1000
MTEXTBEGIN
1070
    73
1070
     1
1070
    44
1040
1.0
1070
    74
1070
     0
1000
MTEXTEND
  0
LINE
  5
22A
330
A
100
AcDbEntity
  8
____1
  6
Continuous
 62
     0
370
    18
100
AcDbLine
 10
1196.475733414744
 20
-220.8629505169416
 30
0.0
 11
1233.975733414744
 21
-220.8629505169416
 31
0.0
  0
LINE
  5
22B
330
A
100
AcDbEntity
  8
____1
  6
Continuous
 62
     0
370
    18
100
AcDbLine
 10
1204.046801226609
 20
-286.362950516943
 30
0.0
 11
1204.046801226609
 21
-305.3629505169425
 31
0.0
  0
LINE
  5
22C
330
A
100
AcDbEntity
  8
____1
  6
Continuous
 62
     0
370
    18
100
AcDbLine
 10
1196.975733414744
 20
-286.3629505169423
 30
0.0
 11
1196.975733414744
 21
-305.3629505169425
 31
0.0
  0
LINE
  5
22D
330
A
100
AcDbEntity
  8
____1
  6
Continuous
 62
     0
370
    18
100
AcDbLine
 10
1192.940199508812
 20
-282.3274166110101
 30
0.0
 11
1196.975733414744
 21
-286.3629505169423
 31
0.0
  0
ARC
  5
22E
330
A
100
AcDbEntity
  8
____1
  6
Continuous
 62
     0
370
    18
100
AcDbCircle
 10
1196.475733414744
 20
-278.7918827050772
 30
0.0
 40
4.999999999999089
100
AcDbArc
 50
180.0
 51
-134.9999999999963
  0
LINE
  5
22F
330
A
100
AcDbEntity
  8
____1
  6
Continuous
 62
     0
370
    18
100
AcDbLine
 10
1192.940199508812
 20
-309.3984844228753
 30
0.0
 11
1196.975733414744
 21
-305.3629505169425
 31
0.0
  0
LINE
  5
230
330
A
100
AcDbEntity
  8
____1
  6
Continuous
 62
     0
370
    18
100
AcDbLine
 10
1196.975733414744
 20
-305.3629505169425
 30
0.0
 11
1204.046801226609
 21
-305.3629505169425
 31
0.0
  0
LINE
  5
231
330
A
100
AcDbEntity
  8
____1
  6
Continuous
 62
     0
370
    18
100
AcDbLine
 10
1196.975733414744
 20
-286.3629505169423
 30
0.0
 11
1204.046801226609
 21
-286.362950516943
 31
0.0
  0
LINE
  5
232
330
A
100
AcDbEntity
  8
____1
  6
Continuous
 62
     0
370
    18
100
AcDbLine
 10
1679.479429244108
 20
38.27254387096465
 30
0.0
 11
1679.479429244108
 21
27.68675743333754
 31
0.0
  0
LINE
  5
233
330
A
100
AcDbEntity
  8
____1
  6
Continuous
 62
     0
370
    18
100
AcDbLine
 10
1680.479429244108
 20
39.27254387096466
 30
0.0
 11
1687.979429244108
 21
39.27254387096466
 31
0.0
  0
LINE
  5
234
330
A
100
AcDbEntity
  8
____1
  6
Continuous
 62
     0
370
    18
100
AcDbLine
 10
1681.993642806481
 20
26.17254387096441
 30
0.0
 11
1681.993642806481
 21
22.37254387096445
 31
0.0
  0
LINE
  5
235
330
A
100
AcDbEntity
  8
____1
  6
Continuous
 62
     0
370
    18
100
AcDbLine
 10
1680.579429244108
 20
26.17254387096452
 30
0.0
 11
1680.579429244108
 21
22.37254387096445
 31
0.0
  0
LINE
  5
236
330
A
100
AcDbEntity
  8
____1
  6
Continuous
 62
     0
370
    18
100
AcDbLine
 10
1679.772322462921
 20
26.97965065215098
 30
0.0
 11
1680.579429244108
 21
26.17254387096452
 31
0.0
  0
ARC
  5
237
330
A
100
AcDbEntity
  8
____1
  6
Continuous
 62
     0
370
    18
100
AcDbCircle
 10
1680.479429244108
 20
27.68675743333754
 30
0.0
 40
1.0
100
AcDbArc
 50
180.0
 51
-135.0000000000046
  0
LINE
  5
238
330
A
100
AcDbEntity
  8
____1
  6
Continuous
 62
     0
370
    18
100
AcDbLine
 10
1679.772322462921
 20
21.56543708977787
 30
0.0
 11
1680.579429244108
 21
22.37254387096445
 31
0.0
  0
LINE
  5
239
330
A
100
AcDbEntity
  8
____1
  6
Continuous
 62
     0
370
    18
100
AcDbLine
 10
1680.579429244108
 20
22.37254387096445
 30
0.0
 11
1681.993642806481
 21
22.37254387096445
 31
0.0
  0
LINE
  5
23A
330
A
100
AcDbEntity
  8
____1
  6
Continuous
 62
     0
370
    18
100
AcDbLine
 10
1680.579429244108
 20
26.17254387096452
 30
0.0
 11
1681.993642806481
 21
26.17254387096441
 31
0.0
  0
LINE
  5
23B
330
A
100
AcDbEntity
  8
____1
  6
Continuous
 62
     0
370
    18
100
AcDbLine
 10
1680.479429244108
 20
20.85833030859143
 30
0.0
 11
1681.993642806481
 21
22.37254387096445
 31
0.0
  0
LINE
  5
23C
330
A
100
AcDbEntity
  8
____1
  6
Continuous
 62
     0
370
    18
100
AcDbLine
 10
1680.479429244108
 20
20.85833030859143
 30
0.0
 11
1680.479429244108
 21
10.27254387096441
 31
0.0
  0
INSERT
  5
244
330
A
100
AcDbEntity
  8
____1
  6
Continuous
 62
     0
370
    18
100
AcDbBlockReference
  2
C9
 10
0.0
 20
0.0
 30
0.0
  0
INSERT
  5
24C
330
A
100
AcDbEntity
  8
____1
  6
Continuous
 62
     0
370
    18
100
AcDbBlockReference
  2
C10
 10
0.0
 20
0.0
 30
0.0
  0
CIRCLE
  5
24D
330
A
100
AcDbEntity
  8
____1
  6
Continuous
 62
     0
370
    18
100
AcDbCircle
 10
427.6674926859361
 20
24.2725438709642
 30
0.0
 40
3.0
  0
CIRCLE
  5
24E
330
A
100
AcDbEntity
  8
____1
  6
Continuous
 62
     0
370
    18
100
AcDbCircle
 10
427.6674926859361
 20
24.2725438709642
 30
0.0
 40
1.899999999999636
  0
LINE
  5
24F
330
A
100
AcDbEntity
  8
____1
  6
CENTER2
 62
     0
370
     5
100
AcDbLine
 10
421.6674926859361
 20
24.2725438709642
 30
0.0
 11
433.6674926859362
 21
24.2725438709642
 31
0.0
  0
LINE
  5
250
330
A
100
AcDbEntity
  8
____1
  6
CENTER2
 62
     0
370
     5
100
AcDbLine
 10
427.6674926859361
 20
30.2725438709642
 30
0.0
 11
427.6674926859361
 21
18.27254387096418
 31
0.0
  0
LINE
  5
251
330
A
100
AcDbEntity
  8
____1
  6
CENTER2
 62
     0
370
     5
100
AcDbLine
 10
627.6674926859361
 20
30.27254387096415
 30
0.0
 11
627.6674926859361
 21
18.27254387096413
 31
0.0
  0
LINE
  5
252
330
A
100
AcDbEntity
  8
____1
  6
CENTER2
 62
     0
370
     5
100
AcDbLine
 10
621.6674926859361
 20
24.27254387096414
 30
0.0
 11
633.6674926859362
 21
24.27254387096414
 31
0.0
  0
CIRCLE
  5
253
330
A
100
AcDbEntity
  8
____1
  6
Continuous
 62
     0
370
    18
100
AcDbCircle
 10
627.6674926859361
 20
24.27254387096414
 30
0.0
 40
1.899999999999636
  0
CIRCLE
  5
254
330
A
100
AcDbEntity
  8
____1
  6
Continuous
 62
     0
370
    18
100
AcDbCircle
 10
627.6674926859361
 20
24.27254387096414
 30
0.0
 40
3.0
  0
CIRCLE
  5
255
330
A
100
AcDbEntity
  8
____1
  6
Continuous
 62
     0
370
    18
100
AcDbCircle
 10
827.6674926859362
 20
24.27254387096409
 30
0.0
 40
3.0
  0
CIRCLE
  5
256
330
A
100
AcDbEntity
  8
____1
  6
Continuous
 62
     0
370
    18
100
AcDbCircle
 10
827.6674926859362
 20
24.27254387096409
 30
0.0
 40
1.899999999999636
  0
LINE
  5
257
330
A
100
AcDbEntity
  8
____1
  6
CENTER2
 62
     0
370
     5
100
AcDbLine
 10
821.6674926859361
 20
24.27254387096409
 30
0.0
 11
833.6674926859361
 21
24.27254387096409
 31
0.0
  0
LINE
  5
259
330
A
100
AcDbEntity
  8
____1
  6
CENTER2
 62
     0
370
     5
100
AcDbLine
 10
1027.667492685936
 20
30.27254387096403
 30
0.0
 11
1027.667492685936
 21
18.27254387096401
 31
0.0
  0
LINE
  5
25A
330
A
100
AcDbEntity
  8
____1
  6
CENTER2
 62
     0
370
     5
100
AcDbLine
 10
1021.667492685936
 20
24.27254387096403
 30
0.0
 11
1033.667492685936
 21
24.27254387096403
 31
0.0
  0
CIRCLE
  5
25B
330
A
100
AcDbEntity
  8
____1
  6
Continuous
 62
     0
370
    18
100
AcDbCircle
 10
1027.667492685936
 20
24.27254387096403
 30
0.0
 40
1.899999999999636
  0
CIRCLE
  5
25C
330
A
100
AcDbEntity
  8
____1
  6
Continuous
 62
     0
370
    18
100
AcDbCircle
 10
1027.667492685936
 20
24.27254387096403
 30
0.0
 40
3.0
  0
CIRCLE
  5
25D
330
A
100
AcDbEntity
  8
____1
  6
Continuous
 62
     0
370
    18
100
AcDbCircle
 10
1227.667492685936
 20
24.27254387096397
 30
0.0
 40
3.0
  0
CIRCLE
  5
25E
330
A
100
AcDbEntity
  8
____1
  6
Continuous
 62
     0
370
    18
100
AcDbCircle
 10
1227.667492685936
 20
24.27254387096397
 30
0.0
 40
1.899999999999636
  0
LINE
  5
25F
330
A
100
AcDbEntity
  8
____1
  6
CENTER2
 62
     0
370
     5
100
AcDbLine
 10
1221.667492685936
 20
24.27254387096397
 30
0.0
 11
1233.667492685936
 21
24.27254387096397
 31
0.0
  0
LINE
  5
260
330
A
100
AcDbEntity
  8
____1
  6
CENTER2
 62
     0
370
     5
100
AcDbLine
 10
1227.667492685936
 20
30.27254387096397
 30
0.0
 11
1227.667492685936
 21
18.27254387096395
 31
0.0
  0
LINE
  5
261
330
A
100
AcDbEntity
  8
____1
  6
CENTER2
 62
     0
370
     5
100
AcDbLine
 10
1427.667492685936
 20
30.27254387096391
 30
0.0
 11
1427.667492685936
 21
18.2725438709639
 31
0.0
  0
LINE
  5
262
330
A
100
AcDbEntity
  8
____1
  6
CENTER2
 62
     0
370
     5
100
AcDbLine
 10
1421.667492685936
 20
24.27254387096392
 30
0.0
 11
1433.667492685936
 21
24.27254387096392
 31
0.0
  0
LINE
  5
263
330
A
100
AcDbEntity
  8
____1
  6
Continuous
 62
     0
370
     5
100
AcDbLine
 10
285.2107774035471
 20
-78.00745529263387
 30
0.0
 11
559.7610041498865
 21
-78.00745529263387
 31
0.0
  0
LINE
  5
264
330
A
100
AcDbEntity
  8
____1
  6
Continuous
 62
     0
370
    18
100
AcDbLine
 10
-12.33250731406383
 20
39.27254387096466
 30
0.0
 11
1587.667492685935
 21
39.27254387096466
 31
0.0
  0
INSERT
  5
26C
330
A
100
AcDbEntity
  8
____1
  6
Continuous
 62
     0
370
    18
100
AcDbBlockReference
  2
C11
 10
0.0
 20
0.0
 30
0.0
  0
INSERT
  5
274
330
A
100
AcDbEntity
  8
____1
  6
Continuous
 62
     0
370
    18
100
AcDbBlockReference
  2
C12
 10
0.0
 20
0.0
 30
0.0
  0
INSERT
  5
27C
330
A
100
AcDbEntity
  8
____1
  6
Continuous
 62
     0
370
    18
100
AcDbBlockReference
  2
C13
 10
0.0
 20
0.0
 30
0.0
  0
INSERT
  5
284
330
A
100
AcDbEntity
  8
____1
  6
Continuous
 62
     0
370
    18
100
AcDbBlockReference
  2
C14
 10
0.0
 20
0.0
 30
0.0
  0
INSERT
  5
28C
330
A
100
AcDbEntity
  8
____1
  6
Continuous
 62
     0
370
    18
100
AcDbBlockReference
  2
C15
 10
0.0
 20
0.0
 30
0.0
  0
INSERT
  5
294
330
A
100
AcDbEntity
  8
____1
  6
Continuous
 62
     0
370
    18
100
AcDbBlockReference
  2
C16
 10
0.0
 20
0.0
 30
0.0
  0
INSERT
  5
29C
330
A
100
AcDbEntity
  8
____1
  6
Continuous
 62
     0
370
    18
100
AcDbBlockReference
  2
C17
 10
0.0
 20
0.0
 30
0.0
  0
INSERT
  5
2A4
330
A
100
AcDbEntity
  8
____1
  6
Continuous
 62
     0
370
    18
100
AcDbBlockReference
  2
C18
 10
0.0
 20
0.0
 30
0.0
  0
INSERT
  5
2AC
330
A
100
AcDbEntity
  8
____1
  6
Continuous
 62
     0
370
    18
100
AcDbBlockReference
  2
C19
 10
0.0
 20
0.0
 30
0.0
  0
INSERT
  5
2B4
330
A
100
AcDbEntity
  8
____1
  6
Continuous
 62
     0
370
    18
100
AcDbBlockReference
  2
C20
 10
0.0
 20
0.0
 30
0.0
  0
INSERT
  5
2BC
330
A
100
AcDbEntity
  8
____1
  6
Continuous
 62
     0
370
    18
100
AcDbBlockReference
  2
C21
 10
0.0
 20
0.0
 30
0.0
  0
INSERT
  5
2C4
330
A
100
AcDbEntity
  8
____1
  6
Continuous
 62
     0
370
    18
100
AcDbBlockReference
  2
C22
 10
0.0
 20
0.0
 30
0.0
  0
ARC
  5
2C5
330
A
100
AcDbEntity
  8
____1
  6
Continuous
 62
     0
370
    18
100
AcDbCircle
 10
1680.479429244108
 20
38.27254387096465
 30
0.0
 40
1.0
100
AcDbArc
 50
90.0
 51
180.0
  0
INSERT
  5
2CD
330
A
100
AcDbEntity
  8
____1
  6
Continuous
 62
     0
370
    18
100
AcDbBlockReference
  2
C23
 10
0.0
 20
0.0
 30
0.0
  0
INSERT
  5
2D5
330
A
100
AcDbEntity
  8
____1
  6
Continuous
 62
     0
370
    18
100
AcDbBlockReference
  2
C24
 10
0.0
 20
0.0
 30
0.0
  0
INSERT
  5
2DD
330
A
100
AcDbEntity
  8
____1
  6
Continuous
 62
     0
370
    18
100
AcDbBlockReference
  2
C25
 10
0.0
 20
0.0
 30
0.0
  0
INSERT
  5
2E5
330
A
100
AcDbEntity
  8
____1
  6
Continuous
 62
     0
370
    18
100
AcDbBlockReference
  2
C26
 10
0.0
 20
0.0
 30
0.0
  0
INSERT
  5
2ED
330
A
100
AcDbEntity
  8
____1
  6
Continuous
 62
     0
370
    18
100
AcDbBlockReference
  2
C27
 10
0.0
 20
0.0
 30
0.0
  0
INSERT
  5
2F5
330
A
100
AcDbEntity
  8
____1
  6
Continuous
 62
     0
370
    18
100
AcDbBlockReference
  2
C28
 10
0.0
 20
0.0
 30
0.0
  0
INSERT
  5
2FD
330
A
100
AcDbEntity
  8
____1
  6
Continuous
 62
     0
370
    18
100
AcDbBlockReference
  2
C29
 10
0.0
 20
0.0
 30
0.0
  0
INSERT
  5
305
330
A
100
AcDbEntity
  8
____1
  6
Continuous
 62
     0
370
    18
100
AcDbBlockReference
  2
C30
 10
0.0
 20
0.0
 30
0.0
  0
INSERT
  5
30D
330
A
100
AcDbEntity
  8
____1
  6
Continuous
 62
     0
370
    18
100
AcDbBlockReference
  2
C31
 10
0.0
 20
0.0
 30
0.0
  0
INSERT
  5
315
330
A
100
AcDbEntity
  8
____1
  6
Continuous
 62
     0
370
    18
100
AcDbBlockReference
  2
C32
 10
0.0
 20
0.0
 30
0.0
  0
INSERT
  5
31D
330
A
100
AcDbEntity
  8
____1
  6
Continuous
 62
     0
370
    18
100
AcDbBlockReference
  2
C33
 10
0.0
 20
0.0
 30
0.0
  0
INSERT
  5
325
330
A
100
AcDbEntity
  8
____1
  6
Continuous
 62
     0
370
    18
100
AcDbBlockReference
  2
C34
 10
0.0
 20
0.0
 30
0.0
  0
INSERT
  5
32D
330
A
100
AcDbEntity
  8
____1
  6
Continuous
 62
     0
370
    18
100
AcDbBlockReference
  2
C35
 10
0.0
 20
0.0
 30
0.0
  0
INSERT
  5
335
330
A
100
AcDbEntity
  8
____1
  6
Continuous
 62
     0
370
    18
100
AcDbBlockReference
  2
C36
 10
0.0
 20
0.0
 30
0.0
  0
LINE
  5
336
330
A
100
AcDbEntity
  8
____1
  6
Continuous
 62
     0
370
    18
100
AcDbLine
 10
1587.667492685935
 20
9.272543870964412
 30
0.0
 11
1587.667492685935
 21
39.27254387096466
 31
0.0
  0
CIRCLE
  5
337
330
A
100
AcDbEntity
  8
____1
  6
Continuous
 62
     0
370
    18
100
AcDbCircle
 10
1427.667492685935
 20
24.27254387096431
 30
0.0
 40
1.900000000000544
  0
CIRCLE
  5
338
330
A
100
AcDbEntity
  8
____1
  6
Continuous
 62
     0
370
    18
100
AcDbCircle
 10
1427.667492685935
 20
24.27254387096431
 30
0.0
 40
3.0
  0
INSERT
  5
340
330
A
100
AcDbEntity
  8
____1
  6
Continuous
 62
     0
370
    18
100
AcDbBlockReference
  2
C37
 10
0.0
 20
0.0
 30
0.0
  0
INSERT
  5
348
330
A
100
AcDbEntity
  8
____1
  6
Continuous
 62
     0
370
    18
100
AcDbBlockReference
  2
C38
 10
0.0
 20
0.0
 30
0.0
  0
INSERT
  5
350
330
A
100
AcDbEntity
  8
____1
  6
Continuous
 62
     0
370
    18
100
AcDbBlockReference
  2
C39
 10
0.0
 20
0.0
 30
0.0
  0
LINE
  5
351
330
A
100
AcDbEntity
  8
____1
  6
Continuous
 62
     0
370
    18
100
AcDbLine
 10
1587.667492685934
 20
9.272543870964412
 30
0.0
 11
-12.33250731406451
 21
9.272543870964412
 31
0.0
  0
LINE
  5
352
330
A
100
AcDbEntity
  8
____1
  6
DASHED2
 62
     0
370
     5
100
AcDbLine
 10
1587.667492685934
 20
10.27254387096441
 30
0.0
 11
-12.33250731406383
 21
10.27254387096441
 31
0.0
  0
LINE
  5
353
330
A
100
AcDbEntity
  8
____1
  6
DASHED2
 62
     0
370
     5
100
AcDbLine
 10
-12.33250731406383
 20
38.27254387096465
 30
0.0
 11
1587.667492685936
 21
38.27254387096465
 31
0.0
  0
INSERT
  5
35B
330
A
100
AcDbEntity
  8
____1
  6
Continuous
 62
     0
370
    18
100
AcDbBlockReference
  2
C40
 10
0.0
 20
0.0
 30
0.0
  0
LINE
  5
35C
330
A
100
AcDbEntity
  8
____1
  6
CENTER2
 62
     0
370
     5
100
AcDbLine
 10
827.6674926859362
 20
30.27254387096409
 30
0.0
 11
827.6674926859362
 21
18.27254387096407
 31
0.0
  0
LINE
  5
363
330
A
100
AcDbEntity
  8
___G
  6
Continuous
 62
     0
370
    18
100
AcDbLine
 10
1320.823284524763
 20
-893.550732387783
 30
0.0
 11
1330.823284524763
 21
-893.550732387783
 31
0.0
  0
LINE
  5
364
330
A
100
AcDbEntity
  8
___G
  6
Continuous
 62
     0
370
     5
100
AcDbLine
 10
1112.52005208333
 20
-756.434097222223
 30
0.0
 11
1112.52005208333
 21
-921.4340972222228
 31
0.0
  0
LINE
  5
365
330
A
100
AcDbEntity
  8
___G
  6
Continuous
 62
     0
370
     5
100
AcDbLine
 10
1112.52005208333
 20
-866.434097222223
 30
0.0
 11
1837.520052083332
 21
-866.434097222223
 31
0.0
  0
LINE
  5
366
330
A
100
AcDbEntity
  8
___G
  6
Continuous
 62
     0
370
     5
100
AcDbLine
 10
1125.02005208333
 20
-838.9340972222232
 30
0.0
 11
1287.52005208333
 21
-838.9340972222232
 31
0.0
  0
LINE
  5
367
330
A
100
AcDbEntity
  8
___G
  6
Continuous
 62
     0
370
     5
100
AcDbLine
 10
1312.52005208333
 20
-838.9340972222232
 30
0.0
 11
1475.02005208333
 21
-838.9340972222232
 31
0.0
  0
LINE
  5
369
330
A
100
AcDbEntity
  8
___G
  6
Continuous
 62
     0
370
     5
100
AcDbLine
 10
1125.02005208333
 20
-783.9340972222231
 30
0.0
 11
1225.02005208333
 21
-783.9340972222231
 31
0.0
  0
LINE
  5
36A
330
A
100
AcDbEntity
  8
___G
  6
Continuous
 62
     0
370
     5
100
AcDbLine
 10
1237.52005208333
 20
-756.434097222223
 30
0.0
 11
1237.52005208333
 21
-811.4340972222239
 31
0.0
  0
LINE
  5
36B
330
A
100
AcDbEntity
  8
___G
  6
DOT
 62
     0
370
     5
100
AcDbLine
 10
-187.3799479166664
 20
-942.5840972222225
 30
0.0
 11
-187.3799479166664
 21
499.7159027777776
 31
0.0
  0
LINE
  5
36C
330
A
100
AcDbEntity
  8
___G
  6
Continuous
 62
     0
370
    18
100
AcDbLine
 10
-162.4799479166664
 20
-921.4340972222228
 30
0.0
 11
-162.4799479166664
 21
478.5659027777774
 31
0.0
  0
LINE
  5
36E
330
A
100
AcDbEntity
  8
___G
  6
Continuous
 62
     0
370
     5
100
AcDbLine
 10
1362.52005208333
 20
-756.434097222223
 30
0.0
 11
1362.52005208333
 21
-811.4340972222239
 31
0.0
  0
LINE
  5
36F
330
A
100
AcDbEntity
  8
___G
  6
Continuous
 62
     0
370
     5
100
AcDbLine
 10
1250.02005208333
 20
-783.9340972222231
 30
0.0
 11
1350.02005208333
 21
-783.9340972222231
 31
0.0
  0
LINE
  5
371
330
A
100
AcDbEntity
  8
___G
  6
Continuous
 62
     0
370
     5
100
AcDbLine
 10
1300.02005208333
 20
-811.434097222223
 30
0.0
 11
1300.02005208333
 21
-866.434097222223
 31
0.0
  0
LINE
  5
372
330
A
100
AcDbEntity
  8
___G
  6
Continuous
 62
     0
370
    18
100
AcDbLine
 10
1837.520052083332
 20
-921.4340972222228
 30
0.0
 11
1837.520052083332
 21
478.5659027777774
 31
0.0
  0
ARC
  5
373
330
A
100
AcDbEntity
  8
___G
  6
Continuous
 62
     0
370
    18
100
AcDbCircle
 10
1376.626314827793
 20
-883.550732387783
 30
0.0
 40
27.5
100
AcDbArc
 50
322.4876119797
 51
0.0
  0
LINE
  5
374
330
A
100
AcDbEntity
  8
___G
  6
Continuous
 62
     0
370
    18
100
AcDbLine
 10
1302.567765466997
 20
-893.550732387783
 30
0.0
 11
1307.567765466997
 21
-893.550732387783
 31
0.0
  0
LINE
  5
376
330
A
100
AcDbEntity
  8
___G
  6
Continuous
 62
     0
370
    18
100
AcDbLine
 10
1367.52005208333
 20
403.5659027777774
 30
0.0
 11
1837.520052083332
 21
403.5659027777774
 31
0.0
  0
LINE
  5
377
330
A
100
AcDbEntity
  8
___G
  6
Continuous
 62
     0
370
    18
100
AcDbLine
 10
1367.52005208333
 20
428.5659027777774
 30
0.0
 11
1837.520052083332
 21
428.5659027777774
 31
0.0
  0
LINE
  5
378
330
A
100
AcDbEntity
  8
___G
  6
Continuous
 62
     0
370
    18
100
AcDbLine
 10
1367.52005208333
 20
453.5659027777774
 30
0.0
 11
1837.520052083332
 21
453.5659027777774
 31
0.0
  0
LINE
  5
379
330
A
100
AcDbEntity
  8
___G
  6
Continuous
 62
     0
370
    18
100
AcDbLine
 10
1787.520052083331
 20
403.5659027777774
 30
0.0
 11
1787.520052083331
 21
478.5659027777774
 31
0.0
  0
LINE
  5
37A
330
A
100
AcDbEntity
  8
___G
  6
Continuous
 62
     0
370
    18
100
AcDbLine
 10
1367.52005208333
 20
403.5659027777774
 30
0.0
 11
1367.52005208333
 21
478.5659027777774
 31
0.0
  0
LINE
  5
37B
330
A
100
AcDbEntity
  8
___G
  6
Continuous
 62
     0
370
    18
100
AcDbLine
 10
1373.723625153116
 20
405.9698615327945
 30
0.0
 11
1398.473625153117
 21
405.9698615327945
 31
0.0
  0
LINE
  5
37C
330
A
100
AcDbEntity
  8
___G
  6
Continuous
 62
     0
370
    18
100
AcDbLine
 10
1386.098625153116
 20
427.4039902764591
 30
0.0
 11
1398.473625153117
 21
405.9698615327945
 31
0.0
  0
LINE
  5
37D
330
A
100
AcDbEntity
  8
___G
  6
Continuous
 62
     0
370
    18
100
AcDbLine
 10
1386.098625153116
 20
427.4039902764591
 30
0.0
 11
1373.723625153116
 21
405.9698615327945
 31
0.0
  0
LINE
  5
37E
330
A
100
AcDbEntity
  8
___G
  6
Continuous
 62
     0
370
    18
100
AcDbLine
 10
1386.098625153116
 20
452.1539902764586
 30
0.0
 11
1373.723625153116
 21
430.7198615327934
 31
0.0
  0
LINE
  5
37F
330
A
100
AcDbEntity
  8
___G
  6
Continuous
 62
     0
370
    18
100
AcDbLine
 10
1386.098625153116
 20
452.1539902764586
 30
0.0
 11
1398.473625153117
 21
430.7198615327934
 31
0.0
  0
LINE
  5
380
330
A
100
AcDbEntity
  8
___G
  6
Continuous
 62
     0
370
    18
100
AcDbLine
 10
1373.723625153116
 20
430.7198615327934
 30
0.0
 11
1398.473625153117
 21
430.7198615327934
 31
0.0
  0
LINE
  5
381
330
A
100
AcDbEntity
  8
___G
  6
Continuous
 62
     0
370
    18
100
AcDbLine
 10
1407.52005208333
 20
403.5659027777774
 30
0.0
 11
1407.52005208333
 21
478.5659027777774
 31
0.0
  0
LINE
  5
382
330
A
100
AcDbEntity
  8
___G
  6
Continuous
 62
     0
370
    18
100
AcDbLine
 10
1737.520052083331
 20
403.5659027777774
 30
0.0
 11
1737.520052083331
 21
478.5659027777774
 31
0.0
  0
LINE
  5
383
330
A
100
AcDbEntity
  8
___G
  6
Continuous
 62
     0
370
    18
100
AcDbLine
 10
1487.52005208333
 20
403.5659027777774
 30
0.0
 11
1487.52005208333
 21
478.5659027777774
 31
0.0
  0
LINE
  5
386
330
A
100
AcDbEntity
  8
___G
  6
Continuous
 62
     0
370
    18
100
AcDbLine
 10
1384.126314827792
 20
-887.6612837251897
 30
0.0
 11
1381.297887703047
 21
-890.4897108499365
 31
0.0
  0
LINE
  5
389
330
A
100
AcDbEntity
  8
___G
  6
Continuous
 62
     0
370
    18
100
AcDbLine
 10
1837.520052083332
 20
478.5659027777774
 30
0.0
 11
-162.4799479166665
 21
478.5659027777774
 31
0.0
  0
LINE
  5
38A
330
A
100
AcDbEntity
  8
___G
  6
DOT
 62
     0
370
     5
100
AcDbLine
 10
1862.420052083331
 20
-942.5840972222225
 30
0.0
 11
1862.420052083331
 21
499.7159027777776
 31
0.0
  0
LINE
  5
38B
330
A
100
AcDbEntity
  8
___G
  6
Continuous
 62
     0
370
    18
100
AcDbLine
 10
1386.807877286225
 20
-893.6460869133336
 30
0.0
 11
1385.604898254642
 21
-894.9747787161024
 31
0.0
  0
LINE
  5
38C
330
A
100
AcDbEntity
  8
___G
  6
Continuous
 62
     0
370
    18
100
AcDbLine
 10
1308.323284524763
 20
-901.0507323877828
 30
0.0
 11
1320.823284524763
 21
-901.0507323877828
 31
0.0
  0
LINE
  5
391
330
A
100
AcDbEntity
  8
___G
  6
Continuous
 62
     0
370
     5
100
AcDbLine
 10
1600.020052083331
 20
-651.4340972222229
 30
0.0
 11
1600.020052083331
 21
-686.4340972222229
 31
0.0
  0
LINE
  5
392
330
A
100
AcDbEntity
  8
___G
  6
Continuous
 62
     0
370
     5
100
AcDbLine
 10
1475.02005208333
 20
-651.4340972222229
 30
0.0
 11
1475.02005208333
 21
-686.4340972222229
 31
0.0
  0
LINE
  5
393
330
A
100
AcDbEntity
  8
___G
  6
Continuous
 62
     0
370
     5
100
AcDbLine
 10
1237.52005208333
 20
-756.434097222223
 30
0.0
 11
1237.52005208333
 21
-651.4340972222229
 31
0.0
  0
LINE
  5
394
330
A
100
AcDbEntity
  8
___G
  6
Continuous
 62
     0
370
     5
100
AcDbLine
 10
1112.52005208333
 20
-651.4340972222229
 30
0.0
 11
1112.52005208333
 21
-756.434097222223
 31
0.0
  0
LINE
  5
395
330
A
100
AcDbEntity
  8
___G
  6
Continuous
 62
     0
370
     5
100
AcDbLine
 10
1837.520052083332
 20
-651.4340972222229
 30
0.0
 11
1112.52005208333
 21
-651.4340972222229
 31
0.0
  0
LINE
  5
396
330
A
100
AcDbEntity
  8
___G
  6
Continuous
 62
     0
370
     5
100
AcDbLine
 10
1837.520052083332
 20
-686.4340972222229
 30
0.0
 11
1112.52005208333
 21
-686.4340972222229
 31
0.0
  0
LINE
  5
397
330
A
100
AcDbEntity
  8
___G
  6
Continuous
 62
     0
370
     5
100
AcDbLine
 10
1837.520052083332
 20
-721.434097222223
 30
0.0
 11
1112.52005208333
 21
-721.434097222223
 31
0.0
  0
LINE
  5
398
330
A
100
AcDbEntity
  8
___G
  6
Continuous
 62
     0
370
     5
100
AcDbLine
 10
1837.520052083332
 20
-756.434097222223
 30
0.0
 11
1112.52005208333
 21
-756.434097222223
 31
0.0
  0
LINE
  5
399
330
A
100
AcDbEntity
  8
___G
  6
Continuous
 62
     0
370
    18
100
AcDbLine
 10
1350.823284524763
 20
-876.0507323877829
 30
0.0
 11
1330.823284524763
 21
-876.0507323877829
 31
0.0
  0
LINE
  5
39A
330
A
100
AcDbEntity
  8
___G
  6
Continuous
 62
     0
370
    18
100
AcDbLine
 10
1350.823284524763
 20
-886.0507323877829
 30
0.0
 11
1350.823284524763
 21
-893.550732387783
 31
0.0
  0
LINE
  5
39B
330
A
100
AcDbEntity
  8
___G
  6
Continuous
 62
     0
370
    18
100
AcDbLine
 10
1302.567765466997
 20
-886.0507323877829
 30
0.0
 11
1302.567765466997
 21
-893.550732387783
 31
0.0
  0
LINE
  5
39C
330
A
100
AcDbEntity
  8
___G
  6
Continuous
 62
     0
370
    18
100
AcDbLine
 10
1420.21372806921
 20
-884.5507323877837
 30
0.0
 11
1432.707061402543
 21
-884.5507323877837
 31
0.0
  0
LINE
  5
39D
330
A
100
AcDbEntity
  8
___G
  6
Continuous
 62
     0
370
    18
100
AcDbLine
 10
1837.520052083332
 20
-921.4340972222228
 30
0.0
 11
-162.4799479166664
 21
-921.4340972222228
 31
0.0
  0
LINE
  5
39F
330
A
100
AcDbEntity
  8
___G
  6
Continuous
 62
     0
370
    18
100
AcDbLine
 10
1465.21372806921
 20
-884.5507323877837
 30
0.0
 11
1465.21372806921
 21
-893.550732387783
 31
0.0
  0
LINE
  5
3A2
330
A
100
AcDbEntity
  8
___G
  6
Continuous
 62
     0
370
    18
100
AcDbLine
 10
1441.21372806921
 20
-913.5507323877828
 30
0.0
 11
1439.160394735877
 21
-906.5507323877838
 31
0.0
  0
ARC
  5
3A4
330
A
100
AcDbEntity
  8
___G
  6
Continuous
 62
     0
370
    18
100
AcDbCircle
 10
1376.626314827793
 20
-883.550732387783
 30
0.0
 40
27.50000000000043
100
AcDbArc
 50
270.0
 51
302.5449588540453
  0
LINE
  5
3A5
330
A
100
AcDbEntity
  8
___G
  6
Continuous
 62
     0
370
    18
100
AcDbLine
 10
1343.323284524763
 20
-893.550732387783
 30
0.0
 11
1350.823284524763
 21
-893.550732387783
 31
0.0
  0
ARC
  5
3A6
330
A
100
AcDbEntity
  8
___G
  6
Continuous
 62
     0
370
    18
100
AcDbCircle
 10
1370.126314827792
 20
-884.5507323877837
 30
0.0
 40
18.99999999999957
100
AcDbArc
 50
331.3992813832602
 51
358.4920422457638
  0
LINE
  5
3A7
330
A
100
AcDbEntity
  8
___G
  6
Continuous
 62
     0
370
    18
100
AcDbLine
 10
1308.323284524763
 20
-903.550732387783
 30
0.0
 11
1308.323284524763
 21
-911.0507323877827
 31
0.0
  0
LINE
  5
3A8
330
A
100
AcDbEntity
  8
___G
  6
Continuous
 62
     0
370
    18
100
AcDbLine
 10
1308.323284524763
 20
-893.550732387783
 30
0.0
 11
1307.567765466997
 21
-893.550732387783
 31
0.0
  0
LINE
  5
3A9
330
A
100
AcDbEntity
  8
___G
  6
Continuous
 62
     0
370
    18
100
AcDbLine
 10
1364.126314827793
 20
-903.550732387783
 30
0.0
 11
1364.126314827793
 21
-911.0507323877827
 31
0.0
  0
LINE
  5
3AA
330
A
100
AcDbEntity
  8
___G
  6
Continuous
 62
     0
370
    18
100
AcDbLine
 10
1409.126314827793
 20
-876.0507323877829
 30
0.0
 11
1364.126314827793
 21
-876.0507323877829
 31
0.0
  0
LINE
  5
3AB
330
A
100
AcDbEntity
  8
___G
  6
Continuous
 62
     0
370
    18
100
AcDbLine
 10
1446.868549849431
 20
-884.550732387783
 30
0.0
 11
1446.136578598309
 21
-882.0070879354473
 31
0.0
  0
LINE
  5
3AC
330
A
100
AcDbEntity
  8
___G
  6
Continuous
 62
     0
370
    18
100
AcDbLine
 10
1446.868549849431
 20
-884.5507323877837
 30
0.0
 11
1465.21372806921
 21
-884.5507323877837
 31
0.0
  0
LINE
  5
3AD
330
A
100
AcDbEntity
  8
___G
  6
Continuous
 62
     0
370
    18
100
AcDbLine
 10
1450.609491810022
 20
-897.5507323877829
 30
0.0
 11
1449.458432745224
 21
-893.550732387783
 31
0.0
  0
LINE
  5
3AE
330
A
100
AcDbEntity
  8
___G
  6
Continuous
 62
     0
370
    18
100
AcDbLine
 10
1420.21372806921
 20
-897.5507323877829
 30
0.0
 11
1436.520394735877
 21
-897.5507323877829
 31
0.0
  0
LINE
  5
3AF
330
A
100
AcDbEntity
  8
___G
  6
Continuous
 62
     0
370
    18
100
AcDbLine
 10
1432.707061402543
 20
-884.550732387783
 30
0.0
 11
1430.21372806921
 21
-876.0507323877829
 31
0.0
  0
LINE
  5
3B0
330
A
100
AcDbEntity
  8
___G
  6
Continuous
 62
     0
370
    18
100
AcDbLine
 10
1453.199374705815
 20
-906.5507323877838
 30
0.0
 11
1465.21372806921
 21
-906.5507323877838
 31
0.0
  0
LINE
  5
3B1
330
A
100
AcDbEntity
  8
___G
  6
Continuous
 62
     0
370
    18
100
AcDbLine
 10
1308.323284524763
 20
-876.0507323877829
 30
0.0
 11
1308.323284524763
 21
-886.0507323877829
 31
0.0
  0
ARC
  5
3B2
330
A
100
AcDbEntity
  8
___G
  6
Continuous
 62
     0
370
    18
100
AcDbCircle
 10
1328.323284524763
 20
-896.050732387783
 30
0.0
 40
15.0
100
AcDbArc
 50
270.0
 51
0.0
  0
LINE
  5
3B3
330
A
100
AcDbEntity
  8
___G
  6
Continuous
 62
     0
370
    18
100
AcDbLine
 10
1364.126314827793
 20
-876.0507323877829
 30
0.0
 11
1364.126314827793
 21
-885.0507323877829
 31
0.0
  0
LINE
  5
3B4
330
A
100
AcDbEntity
  8
___G
  6
Continuous
 62
     0
370
    18
100
AcDbLine
 10
1364.126314827793
 20
-911.0507323877827
 30
0.0
 11
1376.626314827793
 21
-911.0507323877827
 31
0.0
  0
LINE
  5
3B5
330
A
100
AcDbEntity
  8
___G
  6
DOT
 62
     0
370
     5
100
AcDbLine
 10
1862.420052083331
 20
499.7159027777776
 30
0.0
 11
-187.3799479166664
 21
499.7159027777776
 31
0.0
  0
LINE
  5
3B6
330
A
100
AcDbEntity
  8
___G
  6
DOT
 62
     0
370
     5
100
AcDbLine
 10
-187.3799479166664
 20
-942.5840972222225
 30
0.0
 11
1862.420052083331
 21
-942.5840972222225
 31
0.0
  0
LINE
  5
3B7
330
A
100
AcDbEntity
  8
___G
  6
Continuous
 62
     0
370
    18
100
AcDbLine
 10
1364.126314827793
 20
-889.2718350625967
 30
0.0
 11
1364.126314827793
 21
-887.6612837251897
 31
0.0
  0
LINE
  5
3B8
330
A
100
AcDbEntity
  8
___G
  6
Continuous
 62
     0
370
    18
100
AcDbLine
 10
1431.949639641778
 20
-777.934097222223
 30
0.0
 11
1431.949639641778
 21
-789.934097222223
 31
0.0
  0
LINE
  5
3B9
330
A
100
AcDbEntity
  8
___G
  6
Continuous
 62
     0
370
    18
100
AcDbLine
 10
1330.823284524763
 20
-893.550732387783
 30
0.0
 11
1330.823284524763
 21
-896.050732387783
 31
0.0
  0
LINE
  5
3BA
330
A
100
AcDbEntity
  8
___G
  6
Continuous
 62
     0
370
    18
100
AcDbLine
 10
1455.21372806921
 20
-913.5507323877828
 30
0.0
 11
1441.21372806921
 21
-913.5507323877828
 31
0.0
  0
CIRCLE
  5
3BB
330
A
100
AcDbEntity
  8
___G
  6
Continuous
 62
     0
370
    18
100
AcDbCircle
 10
1404.52005208333
 20
-783.9340972222231
 30
0.0
 40
11.99999999999954
  0
CIRCLE
  5
3BC
330
A
100
AcDbEntity
  8
___G
  6
Continuous
 62
     0
370
    18
100
AcDbCircle
 10
1404.52005208333
 20
-783.9340972222231
 30
0.0
 40
6.000000000000453
  0
LINE
  5
3BD
330
A
100
AcDbEntity
  8
___G
  6
Continuous
 62
     0
370
    18
100
AcDbLine
 10
1420.21372806921
 20
-897.5507323877829
 30
0.0
 11
1420.21372806921
 21
-906.5507323877838
 31
0.0
  0
ARC
  5
3BE
330
A
100
AcDbEntity
  8
___G
  6
Continuous
 62
     0
370
    18
100
AcDbCircle
 10
1323.323284524763
 20
-896.050732387783
 30
0.0
 40
7.5
100
AcDbArc
 50
270.0
 51
0.0
  0
LINE
  5
3BF
330
A
100
AcDbEntity
  8
___G
  6
Continuous
 62
     0
370
    18
100
AcDbLine
 10
1420.21372806921
 20
-906.5507323877838
 30
0.0
 11
1439.160394735877
 21
-906.5507323877838
 31
0.0
  0
LINE
  5
3C0
330
A
100
AcDbEntity
  8
___G
  6
Continuous
 62
     0
370
    18
100
AcDbLine
 10
1308.323284524763
 20
-911.0507323877827
 30
0.0
 11
1328.323284524763
 21
-911.0507323877827
 31
0.0
  0
LINE
  5
3C1
330
A
100
AcDbEntity
  8
___G
  6
Continuous
 62
     0
370
    18
100
AcDbLine
 10
1436.520394735877
 20
-897.5507323877829
 30
0.0
 11
1435.347061402543
 21
-893.550732387783
 31
0.0
  0
LINE
  5
3C2
330
A
100
AcDbEntity
  8
___G
  6
Continuous
 62
     0
370
    18
100
AcDbLine
 10
1343.323284524763
 20
-883.550732387783
 30
0.0
 11
1350.823284524763
 21
-876.0507323877829
 31
0.0
  0
LINE
  5
3C3
330
A
100
AcDbEntity
  8
___G
  6
Continuous
 62
     0
370
    18
100
AcDbLine
 10
1308.323284524763
 20
-893.550732387783
 30
0.0
 11
1308.323284524763
 21
-901.0507323877828
 31
0.0
  0
LINE
  5
3C6
330
A
100
AcDbEntity
  8
___G
  6
Continuous
 62
     0
370
    18
100
AcDbLine
 10
1308.323284524763
 20
-886.0507323877829
 30
0.0
 11
1302.567765466997
 21
-886.0507323877829
 31
0.0
  0
LINE
  5
3C7
330
A
100
AcDbEntity
  8
___G
  6
Continuous
 62
     0
370
    18
100
AcDbLine
 10
1430.21372806921
 20
-876.0507323877829
 30
0.0
 11
1450.21372806921
 21
-876.0507323877829
 31
0.0
  0
LINE
  5
3C8
330
A
100
AcDbEntity
  8
___G
  6
Continuous
 62
     0
370
    18
100
AcDbLine
 10
1364.126314827793
 20
-903.550732387783
 30
0.0
 11
1370.126314827792
 21
-903.550732387783
 31
0.0
  0
LINE
  5
3C9
330
A
100
AcDbEntity
  8
___G
  6
Continuous
 62
     0
370
    18
100
AcDbLine
 10
1450.609491810022
 20
-897.5507323877829
 30
0.0
 11
1465.21372806921
 21
-897.5507323877829
 31
0.0
  0
LINE
  5
3CA
330
A
100
AcDbEntity
  8
___G
  6
Continuous
 62
     0
370
    18
100
AcDbLine
 10
1455.21372806921
 20
-913.5507323877828
 30
0.0
 11
1453.199374705815
 21
-906.5507323877838
 31
0.0
  0
LINE
  5
3CB
330
A
100
AcDbEntity
  8
___G
  6
Continuous
 62
     0
370
    18
100
AcDbLine
 10
1364.126314827793
 20
-911.0507323877827
 30
0.0
 11
1364.126314827793
 21
-903.550732387783
 31
0.0
  0
LINE
  5
3CC
330
A
100
AcDbEntity
  8
___G
  6
Continuous
 62
     0
370
    18
100
AcDbLine
 10
1446.136578598309
 20
-882.0070879354473
 30
0.0
 11
1450.21372806921
 21
-876.0507323877829
 31
0.0
  0
LINE
  5
3CD
330
A
100
AcDbEntity
  8
___G
  6
Continuous
 62
     0
370
    18
100
AcDbLine
 10
1404.126314827792
 20
-883.550732387783
 30
0.0
 11
1409.126314827793
 21
-876.0507323877829
 31
0.0
  0
LINE
  5
3CE
330
A
100
AcDbEntity
  8
___G
  6
Continuous
 62
     0
370
    18
100
AcDbLine
 10
1343.323284524763
 20
-886.0507323877829
 30
0.0
 11
1343.323284524763
 21
-883.550732387783
 31
0.0
  0
LINE
  5
3CF
330
A
100
AcDbEntity
  8
___G
  6
Continuous
 62
     0
370
    18
100
AcDbLine
 10
1350.823284524763
 20
-886.0507323877829
 30
0.0
 11
1343.323284524763
 21
-886.0507323877829
 31
0.0
  0
LINE
  5
3D0
330
A
100
AcDbEntity
  8
___G
  6
Continuous
 62
     0
370
    18
100
AcDbLine
 10
1420.21372806921
 20
-893.550732387783
 30
0.0
 11
1435.347061402543
 21
-893.550732387783
 31
0.0
  0
SPLINE
  5
3D1
330
A
100
AcDbEntity
  8
___G
  6
Continuous
 62
     0
370
    18
100
AcDbSpline
210
0.0
220
0.0
230
1.0
 70
     8
 71
     3
 72
     8
 73
     4
 74
     0
 42
0.0000000001
 43
0.0000000001
 40
0.0
 40
0.0
 40
0.0
 40
0.0
 40
1.0
 40
1.0
 40
1.0
 40
1.0
 10
1391.420248798295
 20
-906.7323957810003
 30
0.0
 10
1397.115680229042
 20
-908.5538382346131
 30
0.0
 10
1403.120997528417
 20
-909.8022853111979
 30
0.0
 10
1409.126314827793
 20
-911.0507323877827
 30
0.0
  0
LINE
  5
3D2
330
A
100
AcDbEntity
  8
___G
  6
Continuous
 62
     0
370
    18
100
AcDbLine
 10
1364.126314827793
 20
-885.0507323877829
 30
0.0
 11
1389.126314827793
 21
-885.0507323877829
 31
0.0
  0
LINE
  5
3D3
330
A
100
AcDbEntity
  8
___G
  6
Continuous
 62
     0
370
    18
100
AcDbLine
 10
1323.323284524763
 20
-903.550732387783
 30
0.0
 11
1308.323284524763
 21
-903.550732387783
 31
0.0
  0
SPLINE
  5
3D4
330
A
100
AcDbEntity
  8
___G
  6
Continuous
 62
     0
370
    18
100
AcDbSpline
210
0.0
220
0.0
230
1.0
 70
     8
 71
     3
 72
     8
 73
     4
 74
     0
 42
0.0000000001
 43
0.0000000001
 40
0.0
 40
0.0
 40
0.0
 40
0.0
 40
1.0
 40
1.0
 40
1.0
 40
1.0
 10
1381.297887703047
 20
-890.4897108499365
 30
0.0
 10
1382.694749839617
 20
-892.047212019402
 30
0.0
 10
1384.091611976185
 20
-893.6047131888672
 30
0.0
 10
1385.604898254642
 20
-894.9747787161031
 30
0.0
  0
SPLINE
  5
3D5
330
A
100
AcDbEntity
  8
___G
  6
Continuous
 62
     0
370
    18
100
AcDbSpline
210
0.0
220
0.0
230
1.0
 70
     8
 71
     3
 72
     8
 73
     4
 74
     0
 42
0.0000000001
 43
0.0000000001
 40
0.0
 40
0.0
 40
0.0
 40
0.0
 40
1.0
 40
1.0
 40
1.0
 40
1.0
 10
1397.549401289269
 20
-901.1682791535987
 30
0.0
 10
1401.248247556917
 20
-902.2202214011324
 30
0.0
 10
1405.187281192355
 20
-902.8854768944578
 30
0.0
 10
1409.126314827793
 20
-903.550732387783
 30
0.0
  0
LINE
  5
3D7
330
A
100
AcDbEntity
  8
___G
  6
Continuous
 62
     0
370
    18
100
AcDbLine
 10
1320.823284524763
 20
-883.550732387783
 30
0.0
 11
1328.323284524763
 21
-876.0507323877829
 31
0.0
  0
LINE
  5
3D8
330
A
100
AcDbEntity
  8
___G
  6
Continuous
 62
     0
370
    18
100
AcDbLine
 10
1328.323284524763
 20
-876.0507323877829
 30
0.0
 11
1308.323284524763
 21
-876.0507323877829
 31
0.0
  0
LINE
  5
3D9
330
A
100
AcDbEntity
  8
___G
  6
Continuous
 62
     0
370
    18
100
AcDbLine
 10
1330.823284524763
 20
-886.0507323877829
 30
0.0
 11
1320.823284524763
 21
-886.0507323877829
 31
0.0
  0
LINE
  5
3DA
330
A
100
AcDbEntity
  8
___G
  6
Continuous
 62
     0
370
    18
100
AcDbLine
 10
1420.21372806921
 20
-884.5507323877837
 30
0.0
 11
1420.21372806921
 21
-893.550732387783
 31
0.0
  0
LINE
  5
3DB
330
A
100
AcDbEntity
  8
___G
  6
Continuous
 62
     0
370
    18
100
AcDbLine
 10
1343.323284524763
 20
-896.050732387783
 30
0.0
 11
1343.323284524763
 21
-893.550732387783
 31
0.0
  0
LINE
  5
3DC
330
A
100
AcDbEntity
  8
___G
  6
Continuous
 62
     0
370
    18
100
AcDbLine
 10
1320.823284524763
 20
-901.0507323877828
 30
0.0
 11
1320.823284524763
 21
-893.550732387783
 31
0.0
  0
LINE
  5
3DD
330
A
100
AcDbEntity
  8
___G
  6
Continuous
 62
     0
370
    18
100
AcDbLine
 10
1409.126314827793
 20
-903.550732387783
 30
0.0
 11
1409.126314827793
 21
-911.0507323877827
 31
0.0
  0
LINE
  5
3DE
330
A
100
AcDbEntity
  8
___G
  6
Continuous
 62
     0
370
    18
100
AcDbLine
 10
1465.21372806921
 20
-897.5507323877829
 30
0.0
 11
1465.21372806921
 21
-906.5507323877838
 31
0.0
  0
LINE
  5
3DF
330
A
100
AcDbEntity
  8
___G
  6
Continuous
 62
     0
370
    18
100
AcDbLine
 10
1404.126314827792
 20
-883.550732387783
 30
0.0
 11
1409.126314827793
 21
-876.0507323877829
 31
0.0
  0
ARC
  5
3E0
330
A
100
AcDbEntity
  8
___G
  6
Continuous
 62
     0
370
    18
100
AcDbCircle
 10
1370.126314827792
 20
-884.5507323877837
 30
0.0
 40
18.9999999999997
100
AcDbArc
 50
270.0
 51
298.0859048152074
  0
LINE
  5
3E1
330
A
100
AcDbEntity
  8
___G
  6
Continuous
 62
     0
370
    18
100
AcDbLine
 10
1364.126314827793
 20
-887.6612837251897
 30
0.0
 11
1384.126314827792
 21
-887.6612837251897
 31
0.0
  0
LINE
  5
3E2
330
A
100
AcDbEntity
  8
___G
  6
CENTER2
 62
     0
370
    18
100
AcDbLine
 10
1404.52005208333
 20
-765.9340972222238
 30
0.0
 11
1404.52005208333
 21
-801.9340972222231
 31
0.0
  0
LINE
  5
3E3
330
A
100
AcDbEntity
  8
___G
  6
CENTER2
 62
     0
370
    18
100
AcDbLine
 10
1404.52005208333
 20
-765.9340972222238
 30
0.0
 11
1404.52005208333
 21
-801.9340972222231
 31
0.0
  0
LINE
  5
3E4
330
A
100
AcDbEntity
  8
___G
  6
Continuous
 62
     0
370
    18
100
AcDbLine
 10
1455.949639641778
 20
-771.934097222223
 30
0.0
 11
1455.949639641778
 21
-795.9340972222238
 31
0.0
  0
LINE
  5
3E5
330
A
100
AcDbEntity
  8
___G
  6
Continuous
 62
     0
370
    18
100
AcDbLine
 10
1431.949639641778
 20
-789.934097222223
 30
0.0
 11
1455.949639641778
 21
-795.9340972222238
 31
0.0
  0
LINE
  5
3E6
330
A
100
AcDbEntity
  8
___G
  6
Continuous
 62
     0
370
    18
100
AcDbLine
 10
1431.949639641778
 20
-777.934097222223
 30
0.0
 11
1431.949639641778
 21
-789.934097222223
 31
0.0
  0
LINE
  5
3E7
330
A
100
AcDbEntity
  8
___G
  6
Continuous
 62
     0
370
    18
100
AcDbLine
 10
1449.458432745224
 20
-893.550732387783
 30
0.0
 11
1465.21372806921
 21
-893.550732387783
 31
0.0
  0
LINE
  5
3E8
330
A
100
AcDbEntity
  8
___G
  6
Continuous
 62
     0
370
    18
100
AcDbLine
 10
1330.823284524763
 20
-876.0507323877829
 30
0.0
 11
1330.823284524763
 21
-886.0507323877829
 31
0.0
  0
LINE
  5
3E9
330
A
100
AcDbEntity
  8
___G
  6
CENTER2
 62
     0
370
    18
100
AcDbLine
 10
1404.52005208333
 20
-765.9340972222238
 30
0.0
 11
1404.52005208333
 21
-801.9340972222231
 31
0.0
  0
LINE
  5
3EA
330
A
100
AcDbEntity
  8
___G
  6
Continuous
 62
     0
370
     5
100
AcDbLine
 10
1112.52005208333
 20
-811.434097222223
 30
0.0
 11
1837.520052083332
 21
-811.434097222223
 31
0.0
  0
LINE
  5
3EB
330
A
100
AcDbEntity
  8
___G
  6
Continuous
 62
     0
370
    18
100
AcDbLine
 10
1431.949639641778
 20
-789.934097222223
 30
0.0
 11
1455.949639641778
 21
-795.9340972222238
 31
0.0
  0
LINE
  5
3EC
330
A
100
AcDbEntity
  8
___G
  6
Continuous
 62
     0
370
    18
100
AcDbLine
 10
1431.949639641778
 20
-777.934097222223
 30
0.0
 11
1455.949639641778
 21
-771.934097222223
 31
0.0
  0
CIRCLE
  5
3ED
330
A
100
AcDbEntity
  8
___G
  6
Continuous
 62
     0
370
    18
100
AcDbCircle
 10
1404.52005208333
 20
-783.9340972222231
 30
0.0
 40
6.000000000000453
  0
CIRCLE
  5
3EE
330
A
100
AcDbEntity
  8
___G
  6
Continuous
 62
     0
370
    18
100
AcDbCircle
 10
1404.52005208333
 20
-783.9340972222231
 30
0.0
 40
11.99999999999954
  0
LINE
  5
3EF
330
A
100
AcDbEntity
  8
___G
  6
Continuous
 62
     0
370
    18
100
AcDbLine
 10
1431.949639641778
 20
-777.934097222223
 30
0.0
 11
1455.949639641778
 21
-771.934097222223
 31
0.0
  0
LINE
  5
3F0
330
A
100
AcDbEntity
  8
___G
  6
Continuous
 62
     0
370
    18
100
AcDbLine
 10
1455.949639641778
 20
-771.934097222223
 30
0.0
 11
1455.949639641778
 21
-795.9340972222238
 31
0.0
  0
LINE
  5
3F1
330
A
100
AcDbEntity
  8
___G
  6
Continuous
 62
     0
370
    18
100
AcDbLine
 10
1431.949639641778
 20
-777.934097222223
 30
0.0
 11
1431.949639641778
 21
-789.934097222223
 31
0.0
  0
LINE
  5
3F2
330
A
100
AcDbEntity
  8
___G
  6
Continuous
 62
     0
370
    18
100
AcDbLine
 10
1431.949639641778
 20
-789.934097222223
 30
0.0
 11
1455.949639641778
 21
-795.9340972222238
 31
0.0
  0
LINE
  5
3F3
330
A
100
AcDbEntity
  8
___G
  6
Continuous
 62
     0
370
    18
100
AcDbLine
 10
1431.949639641778
 20
-777.934097222223
 30
0.0
 11
1455.949639641778
 21
-771.934097222223
 31
0.0
  0
CIRCLE
  5
3F4
330
A
100
AcDbEntity
  8
___G
  6
Continuous
 62
     0
370
    18
100
AcDbCircle
 10
1404.52005208333
 20
-783.9340972222231
 30
0.0
 40
11.99999999999954
  0
CIRCLE
  5
3F5
330
A
100
AcDbEntity
  8
___G
  6
Continuous
 62
     0
370
    18
100
AcDbCircle
 10
1404.52005208333
 20
-783.9340972222231
 30
0.0
 40
6.000000000000453
  0
LINE
  5
3F6
330
A
100
AcDbEntity
  8
___G
  6
CENTER2
 62
     0
370
    18
100
AcDbLine
 10
1386.52005208333
 20
-783.9340972222231
 30
0.0
 11
1463.52005208333
 21
-783.9340972222231
 31
0.0
  0
CIRCLE
  5
3F7
330
A
100
AcDbEntity
  8
___G
  6
Continuous
 62
     0
370
    18
100
AcDbCircle
 10
1404.52005208333
 20
-783.9340972222231
 30
0.0
 40
6.000000000000453
  0
CIRCLE
  5
3F8
330
A
100
AcDbEntity
  8
___G
  6
Continuous
 62
     0
370
    18
100
AcDbCircle
 10
1404.52005208333
 20
-783.9340972222231
 30
0.0
 40
11.99999999999954
  0
LINE
  5
3F9
330
A
100
AcDbEntity
  8
___G
  6
Continuous
 62
     0
370
    18
100
AcDbLine
 10
1431.949639641778
 20
-777.934097222223
 30
0.0
 11
1455.949639641778
 21
-771.934097222223
 31
0.0
  0
LINE
  5
3FA
330
A
100
AcDbEntity
  8
___G
  6
Continuous
 62
     0
370
    18
100
AcDbLine
 10
1431.949639641778
 20
-789.934097222223
 30
0.0
 11
1455.949639641778
 21
-795.9340972222238
 31
0.0
  0
LINE
  5
3FB
330
A
100
AcDbEntity
  8
___G
  6
Continuous
 62
     0
370
    18
100
AcDbLine
 10
1431.949639641778
 20
-777.934097222223
 30
0.0
 11
1431.949639641778
 21
-789.934097222223
 31
0.0
  0
LINE
  5
3FC
330
A
100
AcDbEntity
  8
___G
  6
Continuous
 62
     0
370
    18
100
AcDbLine
 10
1455.949639641778
 20
-771.934097222223
 30
0.0
 11
1455.949639641778
 21
-795.9340972222238
 31
0.0
  0
LINE
  5
3FD
330
A
100
AcDbEntity
  8
___G
  6
Continuous
 62
     0
370
     5
100
AcDbLine
 10
1487.52005208333
 20
-756.434097222223
 30
0.0
 11
1487.52005208333
 21
-921.4340972222228
 31
0.0
  0
LINE
  5
3FE
330
A
100
AcDbEntity
  8
___G
  6
Continuous
 62
     0
370
    18
100
AcDbLine
 10
1398.439911588231
 20
-900.296388432651
 30
0.0
 11
1397.549401289269
 21
-901.1682791535987
 31
0.0
  0
LINE
  5
3FF
330
A
100
AcDbEntity
  8
___G
  6
Continuous
 62
     0
370
    18
100
AcDbLine
 10
1320.823284524763
 20
-886.0507323877829
 30
0.0
 11
1320.823284524763
 21
-883.550732387783
 31
0.0
  0
LINE
  5
400
330
A
100
AcDbEntity
  8
___G
  6
Continuous
 62
     0
370
    18
100
AcDbLine
 10
1455.949639641778
 20
-771.934097222223
 30
0.0
 11
1455.949639641778
 21
-795.9340972222238
 31
0.0
  0
LINE
  5
401
330
A
100
AcDbEntity
  8
___G
  6
CENTER2
 62
     0
370
    18
100
AcDbLine
 10
1404.52005208333
 20
-765.9340972222238
 30
0.0
 11
1404.52005208333
 21
-801.9340972222231
 31
0.0
  0
SPLINE
  5
402
330
A
100
AcDbEntity
  8
___G
  6
Continuous
 62
     0
370
    18
100
AcDbSpline
210
0.0
220
0.0
230
1.0
 70
     8
 71
     3
 72
     9
 73
     5
 74
     0
 42
0.0000000001
 43
0.0000000001
 40
0.0
 40
0.0
 40
0.0
 40
0.0
 40
0.9999999993702067
 40
1.0
 40
1.0
 40
1.0
 40
1.0
 10
1364.126314827793
 20
-889.2718350625967
 30
0.0
 10
1368.899337844627
 20
-893.6715275448824
 30
0.0
 10
1373.672360864468
 20
-898.0712200299397
 30
0.0
 10
1379.071417122283
 20
-901.3133439146216
 30
0.0
 10
1379.071417125683
 20
-901.3133439166633
 30
0.0
  0
TEXT
  5
48D
330
A
100
AcDbEntity
  8
0
  6
Continuous
 62
     0
370
     0
100
AcDbText
 10
1490.52005208333
 20
-887.6102106074574
 30
0.0
 40
16.9333324432373
  1
図 番
  7
Style1
100
AcDbText
  0
TEXT
  5
48E
330
A
100
AcDbEntity
  8
0
  6
Continuous
 62
     0
370
     0
100
AcDbText
 10
1490.52005208333
 20
-777.9683606249005
 30
0.0
 40
16.9333324432373
  1
製品名
  7
Style1
100
AcDbText
  0
TEXT
  5
490
330
A
100
AcDbEntity
  8
0
  6
Continuous
 62
     0
370
     0
100
AcDbText
 10
1490.52005208333
 20
-832.0729855812928
 30
0.0
 40
16.9333324432373
  1
図面名
  7
Style1
100
AcDbText
  0
TEXT
  5
492
330
A
100
AcDbEntity
  8
0
  6
Continuous
 62
     0
370
     0
100
AcDbText
 10
1140.924258976803
 20
-910.9403416121264
 30
0.0
 40
25.39999961853027
  1
株式会社
  7
Style1
100
AcDbText
  0
TEXT
  5
494
330
A
100
AcDbEntity
  8
0
  6
Continuous
 62
     0
370
     0
100
AcDbText
 10
1130.703173964581
 20
-862.5165445733896
 30
0.0
 40
16.9333324432373
  1
製図
  7
Style1
100
AcDbText
  0
TEXT
  5
496
330
A
100
AcDbEntity
  8
0
  6
Continuous
 62
     0
370
     0
100
AcDbText
 10
1130.703173964581
 20
-834.479319547225
 30
0.0
 40
16.9333324432373
  1
設計
  7
Style1
100
AcDbText
  0
TEXT
  5
498
330
A
100
AcDbEntity
  8
0
  6
Continuous
 62
     0
370
     0
100
AcDbText
 10
1318.203173964581
 20
-834.1211695297818
 30
0.0
 40
16.9333324432373
  1
照査
  7
Style1
100
AcDbText
  0
TEXT
  5
49A
330
A
100
AcDbEntity
  8
0
  6
Continuous
 62
     0
370
     0
100
AcDbText
 10
1130.932308946669
 20
-679.6762668721332
 30
0.0
 40
16.9333324432373
  1
材　　質
  7
Style1
100
AcDbText
  0
TEXT
  5
49B
330
A
100
AcDbEntity
  8
0
  6
Continuous
 62
     0
370
     0
100
AcDbText
 10
1492.146872190317
 20
-680.6851578072063
 30
0.0
 40
16.9333324432373
  1
板　　厚
  7
Style1
100
AcDbText
  0
TEXT
  5
49C
330
A
100
AcDbEntity
  8
0
  6
Continuous
 62
     0
370
     0
100
AcDbText
 10
1129.646872190317
 20
-715.4702678015816
 30
0.0
 40
16.9333324432373
  1
表面処理
  7
Style1
100
AcDbText
  0
TEXT
  5
49D
330
A
100
AcDbEntity
  8
0
  6
Continuous
 62
     0
370
     0
100
AcDbText
 10
1129.646872190317
 20
-750.9000478128313
 30
0.0
 40
16.9333324432373
  1
一般公差
  7
Style1
100
AcDbText
  0
TEXT
  5
49E
330
A
100
AcDbEntity
  8
0
  6
Continuous
 62
     0
370
     0
100
AcDbText
 10
1255.703173964581
 20
-780.0165445733896
 30
0.0
 40
16.9333324432373
  1
尺　　度
  7
Style1
100
AcDbText
  0
TEXT
  5
49F
330
A
100
AcDbEntity
  8
0
  6
Continuous
 62
     0
370
     0
100
AcDbText
 10
1318.203173964581
 20
-862.6060820777507
 30
0.0
 40
16.9333324432373
  1
検図
  7
Style1
100
AcDbText
  0
TEXT
  5
4A1
330
A
100
AcDbEntity
  8
0
  6
Continuous
 62
     0
370
     0
100
AcDbText
 10
1130.703173964581
 20
-779.479319547225
 30
0.0
 40
16.9333324432373
  1
日　　付
  7
Style1
100
AcDbText
  0
TEXT
  5
4A2
330
A
100
AcDbEntity
  8
0
  6
Continuous
 62
     0
370
     0
100
AcDbText
 10
1112.425833333333
 20
-636.3849864906718
 30
0.0
 40
21.16666603088379
  1
Ｌ＝1000,1200,2000は受注生産
  7
Style1
100
AcDbText
  0
TEXT
  5
4A4
330
A
100
AcDbEntity
  8
0
  6
Continuous
 62
     0
370
     0
100
AcDbText
 10
1201.15917733315
 20
-862.6956195821112
 30
0.0
 40
16.9333324432373
  1
岸本
  7
Style1
100
AcDbText
  0
TEXT
  5
4A5
330
A
100
AcDbEntity
  8
0
  6
Continuous
 62
     0
370
     0
100
AcDbText
 10
1201.15917733315
 20
-835.1060820777505
 30
0.0
 40
16.9333324432373
  1
白須賀
  7
Style1
100
AcDbText
  0
TEXT
  5
4A6
330
A
100
AcDbEntity
  8
0
  6
Continuous
 62
     0
370
     0
100
AcDbText
 10
1615.884882672003
 20
-837.6663749683293
 30
0.0
 40
16.9333324432373
  1
ＷＴ-１６-３０４
  7
Style1
100
AcDbText
  0
TEXT
  5
4A7
330
A
100
AcDbEntity
  8
0
  6
Continuous
 62
     0
370
     0
100
AcDbText
 10
1615.884882672003
 20
-861.6124619650001
 30
0.0
 40
16.9333324432373
  1
ＷＴ-１６-４３０
  7
Style1
100
AcDbText
  0
TEXT
  5
4A8
330
A
100
AcDbEntity
  8
0
  6
Continuous
 62
     0
370
     0
100
AcDbText
 10
1615.884882672003
 20
-802.60126824663
 30
0.0
 40
16.9333324432373
  1
ワイド棚柱
  7
Style1
100
AcDbText
  0
TEXT
  5
4A9
330
A
100
AcDbEntity
  8
0
  6
Continuous
 62
     0
370
     0
100
AcDbText
 10
1388.65917733315
 20
-862.5165445733896
 30
0.0
 40
16.9333324432373
  1
柳原
  7
Style1
100
AcDbText
  0
TEXT
  5
4AA
330
A
100
AcDbEntity
  8
0
  6
Continuous
 62
     0
370
     0
100
AcDbText
 10
1614.810432643879
 20
-911.3119282128804
 30
0.0
 40
21.16666555404663
  1
SLW00005
  7
Style1
100
AcDbText
  0
TEXT
  5
4AB
330
A
100
AcDbEntity
  8
0
  6
Continuous
 62
     0
370
     0
100
AcDbText
 10
1129.628723912252
 20
-806.6570062482702
 30
0.0
 40
16.9333324432373
  1
H16.4
  7
Style1
100
AcDbText
  0
TEXT
  5
4AC
330
A
100
AcDbEntity
  8
0
  6
Continuous
 62
     0
370
     0
100
AcDbText
 10
1253.464736355562
 20
-806.6570062482702
 30
0.0
 40
16.9333324432373
  1
1：5
  7
Style1
100
AcDbText
  0
TEXT
  5
4AD
330
A
100
AcDbEntity
  8
0
  6
Continuous
 62
     0
370
     0
100
AcDbText
 10
1614.013059356154
 20
-681.2810423554322
 30
0.0
 40
16.9333324432373
  1
1.0t
  7
Style1
100
AcDbText
  0
TEXT
  5
4AE
330
A
100
AcDbEntity
  8
0
  6
Continuous
 62
     0
370
     0
100
AcDbText
 10
1253.393347056652
 20
-681.2810423554322
 30
0.0
 40
16.9333324432373
  1
SUS304・430
  7
Style1
100
AcDbText
  0
TEXT
  5
4AF
330
A
100
AcDbEntity
  8
0
  6
Continuous
 62
     0
370
     0
100
AcDbText
 10
1254.646872190317
 20
-714.5032627762697
 30
0.0
 40
16.9333324432373
  1
ＢＡ
  7
Style1
100
AcDbText
  0
TEXT
  5
4B0
330
A
100
AcDbEntity
  8
0
  6
Continuous
 62
     0
370
     0
100
AcDbText
 10
1254.646872190317
 20
-750.6851578072065
 30
0.0
 40
16.9333324432373
  1
指定無き公差はJIS B0408-Bによること
  7
Style1
100
AcDbText
  0
TEXT
  5
4B1
330
A
100
AcDbEntity
  8
0
  6
Continuous
 62
     0
370
     0
100
AcDbText
 10
1388.65917733315
 20
-835.0165445733896
 30
0.0
 40
16.9333324432373
  1
柳原
  7
Style1
100
AcDbText
  0
TEXT
  5
4B2
330
A
100
AcDbEntity
  8
0
  6
Continuous
 62
     0
370
     0
100
AcDbText
 10
1487.52005208333
 20
457.3100654648468
 30
0.0
 40
12.69999980926513
  1
改　訂　内　容
  7
Style1
100
AcDbText
  0
TEXT
  5
4B3
330
A
100
AcDbEntity
  8
0
  6
Continuous
 62
     0
370
     0
100
AcDbText
 10
1787.520052083331
 20
457.229481709712
 30
0.0
 40
12.69999980926513
  1
検認者
  7
Style1
100
AcDbText
  0
TEXT
  5
4B5
330
A
100
AcDbEntity
  8
0
  6
Continuous
 62
     0
370
     0
100
AcDbText
 10
1737.520052083331
 20
457.4712329751169
 30
0.0
 40
12.69999980926513
  1
改訂者
  7
Style1
100
AcDbText
  0
TEXT
  5
4B7
330
A
100
AcDbEntity
  8
0
  6
Continuous
 62
     0
370
     0
100
AcDbText
 10
1367.52005208333
 20
457.6324004853868
 30
0.0
 40
12.69999980926513
  1
副番
  7
Style1
100
AcDbText
  0
TEXT
  5
4B8
330
A
100
AcDbEntity
  8
0
  6
Continuous
 62
     0
370
     0
100
AcDbText
 10
1407.52005208333
 20
457.4712329751169
 30
0.0
 40
12.69999980926513
  1
改訂日
  7
Style1
100
AcDbText
  0
TEXT
  5
4B9
330
A
100
AcDbEntity
  8
0
  6
Continuous
 62
     0
370
     0
100
AcDbText
 10
318.5219421969512
 20
-71.99767586944219
 30
0.0
 40
17.63888931274414
  1
８-φ３.８穴　φ６皿
  7
Style1
100
AcDbText
  0
TEXT
  5
4BB
330
A
100
AcDbEntity
  8
0
  6
Continuous
 62
     0
370
     0
100
AcDbText
 10
776.6871128054892
 20
-77.9823472136481
 30
0.0
 40
17.63888931274414
  1
５ｘ１６角穴
  7
Style1
100
AcDbText
  0
TEXT
  5
4C2
330
A
100
AcDbEntity
  8
0
  6
Continuous
 62
     0
370
     0
100
AcDbText
 10
1172.838516454504
 20
-440.5764929143614
 30
0.0
 40
17.63888931274414
  1
Ａ部拡大図
  7
Style1
100
AcDbText
  0
ENDSEC
  0
SECTION
  2
OBJECTS
  0
DICTIONARY
  5
19
330
0
100
AcDbDictionary
281
     1
  3
ACAD_COLOR
350
35F
  3
ACAD_GROUP
350
1A
  3
ACAD_LAYOUT
350
1E
  3
ACAD_MATERIAL
350
35E
  3
ACAD_MLINESTYLE
350
1B
  3
ACAD_PLOTSETTINGS
350
22
  3
ACAD_PLOTSTYLENAME
350
1F
  3
ACAD_WIPEOUT_VARS
350
23
  3
ACDBHEADERROUNDTRIPXREC
350
4D6
  3
AcDbVariableDictionary
350
4C5
  3
ASE_INDEX_DICTIONARY
350
4BE
  0
DICTIONARY
  5
35F
102
{ACAD_REACTORS
330
19
102
}
330
19
100
AcDbDictionary
281
     1
  0
DICTIONARY
  5
1A
102
{ACAD_REACTORS
330
19
102
}
330
19
100
AcDbDictionary
281
     1
  0
DICTIONARY
  5
1E
102
{ACAD_REACTORS
330
19
102
}
330
19
100
AcDbDictionary
281
     1
  3
Layout1
350
21
  3
Model
350
20
  0
DICTIONARY
  5
35E
102
{ACAD_REACTORS
330
19
102
}
330
19
100
AcDbDictionary
281
     1
  0
DICTIONARY
  5
1B
102
{ACAD_REACTORS
330
19
102
}
330
19
100
AcDbDictionary
281
     1
  3
Standard
350
1C
  0
DICTIONARY
  5
22
102
{ACAD_REACTORS
330
19
102
}
330
19
100
AcDbDictionary
281
     1
  0
ACDBDICTIONARYWDFLT
  5
1F
102
{ACAD_REACTORS
330
19
102
}
330
19
100
AcDbDictionary
281
     1
  3
Normal
350
1D
100
AcDbDictionaryWithDefault
340
1D
  0
WIPEOUTVARIABLES
  5
23
330
19
100
AcDbWipeoutVariables
 70
     1
  0
DICTIONARY
  5
4D6
102
{ACAD_REACTORS
330
19
102
}
330
19
100
AcDbDictionary
281
     1
  3
COLORDICT
350
4D8
  3
MATERIALDICT
350
4D7
  0
DICTIONARY
  5
4C5
102
{ACAD_REACTORS
330
19
102
}
330
19
100
AcDbDictionary
281
     1
  3
DIMASSOC
350
4C6
  3
PROJECTNAME
350
4C7
  0
DICTIONARY
  5
4BE
102
{ACAD_REACTORS
330
19
102
}
330
19
100
AcDbDictionary
281
     1
  3
ASEBlockHierarchyIndexRecord
350
4C0
1001
DCO15
1040
1826010410.328
  0
LAYOUT
  5
21
102
{ACAD_XDICTIONARY
360
4DB
102
}
102
{ACAD_REACTORS
330
1E
102
}
330
1E
100
AcDbPlotSettings
  1

  2

  4

  6

 40
0.0
 41
0.0
 42
0.0
 43
0.0
 44
0.0
 45
0.0
 46
0.0
 47
0.0
 48
0.0
 49
0.0
140
0.0
141
0.0
142
1.0
143
1.0
 70
     0
 72
     0
 73
     0
 74
     0
  7

 75
     0
147
1.0
148
0.0
149
0.0
100
AcDbLayout
  1
Layout1
 70
     0
 71
     1
 10
0.0
 20
0.0
 11
12.0
 21
9.0
 12
0.0
 22
0.0
 32
0.0
 14
1.000000000000000E+20
 24
1.000000000000000E+20
 34
1.000000000000000E+20
 15
-1.000000000000000E+20
 25
-1.000000000000000E+20
 35
-1.000000000000000E+20
146
0.0
 13
0.0
 23
0.0
 33
0.0
 16
1.0
 26
0.0
 36
0.0
 17
0.0
 27
1.0
 37
0.0
 76
     0
330
B
  0
LAYOUT
  5
20
102
{ACAD_XDICTIONARY
360
4D9
102
}
102
{ACAD_REACTORS
330
1E
102
}
330
1E
100
AcDbPlotSettings
  1

  2

  4

  6

 40
0.0
 41
0.0
 42
0.0
 43
0.0
 44
0.0
 45
0.0
 46
0.0
 47
0.0
 48
0.0
 49
0.0
140
0.0
141
0.0
142
1.0
143
1.0
 70
  1024
 72
     0
 73
     0
 74
     0
  7

 75
     0
147
1.0
148
0.0
149
0.0
100
AcDbLayout
  1
Model
 70
     0
 71
     0
 10
0.0
 20
0.0
 11
0.0
 21
0.0
 12
0.0
 22
0.0
 32
0.0
 14
0.0
 24
0.0
 34
0.0
 15
0.0
 25
0.0
 35
0.0
146
0.0
 13
0.0
 23
0.0
 33
0.0
 16
0.0
 26
0.0
 36
0.0
 17
0.0
 27
0.0
 37
0.0
 76
     0
330
A
  0
MLINESTYLE
  5
1C
102
{ACAD_REACTORS
330
1B
102
}
330
1B
100
AcDbMlineStyle
  2
STANDARD
 70
     0
  3

 62
     0
 51
90.0
 52
90.0
 71
     2
 49
0.5
 62
   256
  6
BYLAYER
 49
-0.5
 62
   256
  6
BYLAYER
  0
ACDBPLACEHOLDER
  5
1D
102
{ACAD_REACTORS
330
1F
102
}
330
1F
  0
XRECORD
  5
4D8
102
{ACAD_REACTORS
330
4D6
102
}
330
4D6
100
AcDbXrecord
280
     1
340
35F
  0
XRECORD
  5
4D7
102
{ACAD_REACTORS
330
4D6
102
}
330
4D6
100
AcDbXrecord
280
     1
340
35E
  0
DICTIONARYVAR
  5
4C6
102
{ACAD_REACTORS
330
4C5
102
}
330
4C5
100
DictionaryVariables
280
     0
  1
1
  0
DICTIONARYVAR
  5
4C7
102
{ACAD_REACTORS
330
4C5
102
}
330
4C5
100
DictionaryVariables
280
     0
  1

  0
XRECORD
  5
4C0
102
{ACAD_REACTORS
330
4BE
102
}
330
4BE
100
AcDbXrecord
280
     1
330
45
330
4D
330
5B
330
65
330
6D
330
75
330
7D
330
85
330
244
330
24C
330
26C
330
274
330
27C
330
284
330
28C
330
294
330
29C
330
2A4
330
2AC
330
2B4
330
2BC
330
2C4
330
2CD
330
2D5
330
2DD
330
2E5
330
2ED
330
2F5
330
2FD
330
305
330
30D
330
315
330
31D
330
325
330
32D
330
335
330
340
330
348
330
350
330
35B
  0
DICTIONARY
  5
4DB
330
21
100
AcDbDictionary
280
     1
281
     1
  3
ACAD_XREC_ROUNDTRIP
360
4DC
  0
DICTIONARY
  5
4D9
330
20
100
AcDbDictionary
280
     1
281
     1
  3
ACAD_XREC_ROUNDTRIP
360
4DA
  0
XRECORD
  5
4DC
102
{ACAD_REACTORS
330
4DB
102
}
330
4DB
100
AcDbXrecord
280
     1
102
SHADEPLOT
 70
     0
102
SHADEPLOTRESLEVEL
 70
     2
102
SHADEPLOTCUSTOMDPI
 70
   300
  0
XRECORD
  5
4DA
102
{ACAD_REACTORS
330
4D9
102
}
330
4D9
100
AcDbXrecord
280
     1
102
SHADEPLOT
 70
     0
102
SHADEPLOTRESLEVEL
 70
     2
102
SHADEPLOTCUSTOMDPI
 70
   300
  0
ENDSEC
  0
EOF

