  0
SECTION
  2
HEADER
  9
$ACADVER
  1
AC1009
  9
$INSBASE
 10
0.0
 20
0.0
 30
0.0
  9
$EXTMIN
 10
860.02998971190004
 20
-542.36268439720004
 30
0.0
  9
$EXTMAX
 10
959.00498971189995
 20
-398.12918439719999
 30
0.0
  9
$LIMMIN
 10
0.0
 20
0.0
  9
$LIMMAX
 10
0.0
 20
0.0
  9
$ORTHOMODE
 70
     0
  9
$REGENMODE
 70
     1
  9
$FILLMODE
 70
     1
  9
$QTEXTMODE
 70
     0
  9
$MIRRTEXT
 70
     1
  9
$DRAGMODE
 70
     2
  9
$LTSCALE
 40
1.0
  9
$OSMODE
 70
    31
  9
$ATTMODE
 70
     1
  9
$TEXTSIZE
 40
0.0
  9
$TRACEWID
 40
0.05
  9
$TEXTSTYLE
  7
STANDARD
  9
$CLAYER
  8
0
  9
$CELTYPE
  6
CONTINUOUS
  9
$CECOLOR
 62
   256
  9
$DIMSCALE
 40
1.0
  9
$DIMASZ
 40
0.18
  9
$DIMEXO
 40
0.0625
  9
$DIMDLI
 40
0.38
  9
$DIMRND
 40
0.0
  9
$DIMDLE
 40
0.0
  9
$DIMEXE
 40
0.18
  9
$DIMTP
 40
0.0
  9
$DIMTM
 40
0.0
  9
$DIMTXT
 40
0.18
  9
$DIMCEN
 40
0.09
  9
$DIMTSZ
 40
0.0
  9
$DIMTOL
 70
     0
  9
$DIMLIM
 70
     0
  9
$DIMTIH
 70
     1
  9
$DIMTOH
 70
     1
  9
$DIMSE1
 70
     0
  9
$DIMSE2
 70
     0
  9
$DIMTAD
 70
     0
  9
$DIMZIN
 70
     0
  9
$DIMBLK
  1

  9
$DIMASO
 70
     1
  9
$DIMSHO
 70
     1
  9
$DIMPOST
  1

  9
$DIMAPOST
  1

  9
$DIMALT
 70
     0
  9
$DIMALTD
 70
     2
  9
$DIMALTF
 40
25.399999999999999
  9
$DIMLFAC
 40
1.0
  9
$DIMTOFL
 70
     0
  9
$DIMTVP
 40
0.0
  9
$DIMTIX
 70
     0
  9
$DIMSOXD
 70
     0
  9
$DIMSAH
 70
     0
  9
$DIMBLK1
  1

  9
$DIMBLK2
  1

  9
$DIMSTYLE
  2
STANDARD
  9
$DIMCLRD
 70
     0
  9
$DIMCLRE
 70
     0
  9
$DIMCLRT
 70
     0
  9
$DIMTFAC
 40
1.0
  9
$DIMGAP
 40
0.09
  9
$LUNITS
 70
     2
  9
$LUPREC
 70
     4
  9
$SKETCHINC
 40
0.1
  9
$FILLETRAD
 40
0.0
  9
$AUNITS
 70
     0
  9
$AUPREC
 70
     0
  9
$MENU
  1
acad
  9
$ELEVATION
 40
0.0
  9
$PELEVATION
 40
0.0
  9
$THICKNESS
 40
0.0
  9
$LIMCHECK
 70
     0
  9
$BLIPMODE
 70
     0
  9
$CHAMFERA
 40
0.0
  9
$CHAMFERB
 40
0.0
  9
$SKPOLY
 70
     0
  9
$TDCREATE
 40
2454858.575223519
  9
$TDUPDATE
 40
2454858.5811192482
  9
$TDINDWG
 40
0.0048077662
  9
$TDUSRTIMER
 40
0.0048074074
  9
$USRTIMER
 70
     1
  9
$ANGBASE
 50
0.0
  9
$ANGDIR
 70
     0
  9
$PDMODE
 70
     3
  9
$PDSIZE
 40
-1.0
  9
$PLINEWID
 40
0.0
  9
$COORDS
 70
     2
  9
$SPLFRAME
 70
     0
  9
$SPLINETYPE
 70
     6
  9
$SPLINESEGS
 70
     8
  9
$ATTDIA
 70
     0
  9
$ATTREQ
 70
     1
  9
$HANDLING
 70
     1
  9
$HANDSEED
  5
872
  9
$SURFTAB1
 70
     6
  9
$SURFTAB2
 70
     6
  9
$SURFTYPE
 70
     6
  9
$SURFU
 70
     6
  9
$SURFV
 70
     6
  9
$UCSNAME
  2

  9
$UCSORG
 10
0.0
 20
0.0
 30
0.0
  9
$UCSXDIR
 10
1.0
 20
0.0
 30
0.0
  9
$UCSYDIR
 10
0.0
 20
1.0
 30
0.0
  9
$PUCSNAME
  2

  9
$PUCSORG
 10
0.0
 20
0.0
 30
0.0
  9
$PUCSXDIR
 10
1.0
 20
0.0
 30
0.0
  9
$PUCSYDIR
 10
0.0
 20
1.0
 30
0.0
  9
$USERI1
 70
     0
  9
$USERI2
 70
     0
  9
$USERI3
 70
     0
  9
$USERI4
 70
     0
  9
$USERI5
 70
     0
  9
$USERR1
 40
0.0
  9
$USERR2
 40
0.0
  9
$USERR3
 40
0.0
  9
$USERR4
 40
0.0
  9
$USERR5
 40
0.0
  9
$WORLDVIEW
 70
     1
  9
$SHADEDGE
 70
     3
  9
$SHADEDIF
 70
    70
  9
$TILEMODE
 70
     1
  9
$MAXACTVP
 70
    16
  9
$PLIMCHECK
 70
     0
  9
$PEXTMIN
 10
1.0000000000000000E+020
 20
1.0000000000000000E+020
 30
1.0000000000000000E+020
  9
$PEXTMAX
 10
-1.0000000000000000E+020
 20
-1.0000000000000000E+020
 30
-1.0000000000000000E+020
  9
$PLIMMIN
 10
0.0
 20
0.0
  9
$PLIMMAX
 10
12.0
 20
9.0
  9
$UNITMODE
 70
     0
  9
$VISRETAIN
 70
     0
  9
$PLINEGEN
 70
     1
  9
$PSLTSCALE
 70
     0
  0
ENDSEC
  0
SECTION
  2
TABLES
  0
TABLE
  2
VPORT
 70
     2
  0
VPORT
  2
*ACTIVE
 70
     0
 10
0.0
 20
0.0
 11
1.0
 21
1.0
 12
909.52221540029927
 22
-470.23496766997829
 13
0.0
 23
0.0
 14
1.0
 24
1.0
 15
0.0
 25
0.0
 16
0.0
 26
0.0
 36
1.0
 17
0.0
 27
0.0
 37
0.0
 40
145.81270877629291
 41
1.897707231040564
 42
50.0
 43
0.0
 44
0.0
 50
0.0
 51
0.0
 71
     0
 72
   100
 73
     1
 74
     1
 75
     0
 76
     0
 77
     0
 78
     0
  0
ENDTAB
  0
TABLE
  2
LTYPE
 70
    11
  0
LTYPE
  2
CONTINUOUS
 70
     0
  3
Solid line
 72
    65
 73
     0
 40
0.0
  0
LTYPE
  2
DOT
 70
     0
  3
. . . . . . . . 
 72
    65
 73
     2
 40
1.0
 49
0.0
 49
-1.0
  0
LTYPE
  2
DASHED
 70
     0
  3
___  ___  ___  ___  
 72
    65
 73
     2
 40
4.0
 49
3.0
 49
-1.0
  0
LTYPE
  2
HIDDEN
 70
     0
  3
__ __ __ __ 
 72
    65
 73
     2
 40
3.0
 49
2.0
 49
-1.0
  0
LTYPE
  2
STITCH
 70
     0
  3
_ _ _ _ 
 72
    65
 73
     2
 40
2.0
 49
1.0
 49
-1.0
  0
LTYPE
  2
CENTER
 70
     0
  3
______  __  ______  __  
 72
    65
 73
     4
 40
43.0
 49
40.0
 49
-1.0
 49
1.0
 49
-1.0
  0
LTYPE
  2
DASHDOT
 70
     0
  3
____ . ____ . 
 72
    65
 73
     4
 40
32.0
 49
30.0
 49
-1.0
 49
0.0
 49
-1.0
  0
LTYPE
  2
BORDER
 70
     0
  3
__ . __ . 
 72
    65
 73
     4
 40
22.0
 49
20.0
 49
-1.0
 49
0.0
 49
-1.0
  0
LTYPE
  2
CUTTING
 70
     0
  3
________   ___   ___   
 72
    65
 73
     6
 40
45.0
 49
40.0
 49
-1.0
 49
1.0
 49
-1.0
 49
1.0
 49
-1.0
  0
LTYPE
  2
PHANTOM
 70
     0
  3
______  __  __  
 72
    65
 73
     6
 40
35.0
 49
30.0
 49
-1.0
 49
1.0
 49
-1.0
 49
1.0
 49
-1.0
  0
LTYPE
  2
DIVIDE
 70
     0
  3
____ . . ____ . . 
 72
    65
 73
     6
 40
23.0
 49
20.0
 49
-1.0
 49
0.0
 49
-1.0
 49
0.0
 49
-1.0
  0
ENDTAB
  0
TABLE
  2
LAYER
 70
     5
  0
LAYER
  2
0
 70
     0
 62
     7
  6
CONTINUOUS
  0
LAYER
  2
É}ÿg
 70
     0
 62
     7
  6
CONTINUOUS
  0
LAYER
  2
┌▓È_1
 70
     0
 62
     7
  6
CONTINUOUS
  0
LAYER
  2
Éíû@É³
 70
     0
 62
     7
  6
CONTINUOUS
  0
LAYER
  2
ë³Æ¨
 70
     0
 62
     7
  6
CONTINUOUS
  0
ENDTAB
  0
TABLE
  2
STYLE
 70
     1
  0
STYLE
  2
STANDARD
 70
     0
 40
0.0
 41
1.0
 50
0.0
 71
     0
 42
0.0
  3
txt
  4
extfont
  0
ENDTAB
  0
TABLE
  2
VIEW
 70
     0
  0
ENDTAB
  0
TABLE
  2
UCS
 70
     0
  0
ENDTAB
  0
TABLE
  2
APPID
 70
     2
  0
APPID
  2
ACAD
 70
     0
  0
APPID
  2
DCO15
 70
     0
  0
ENDTAB
  0
TABLE
  2
DIMSTYLE
 70
     3
  0
DIMSTYLE
  2
STANDARD
 70
     0
  3

  4

  5

  6

  7

 40
1.0
 41
0.18
 42
0.0625
 43
0.38
 44
0.18
 45
0.0
 46
0.0
 47
0.0
 48
0.0
140
0.18
141
0.09
142
0.0
143
25.399999999999999
144
1.0
145
0.0
146
1.0
147
0.09
 71
     0
 72
     0
 73
     1
 74
     1
 75
     0
 76
     0
 77
     0
 78
     0
170
     0
171
     2
172
     0
173
     0
174
     0
175
     0
176
     0
177
     0
178
     0
  0
DIMSTYLE
  2
VELDIM0
 70
     0
  3

  4

  5

  6

  7

 40
1.0
 41
1.5000828504999999
 42
0.0625
 43
0.38
 44
1.25
 45
0.0
 46
5.0
 47
0.0
 48
0.0
140
1.3493749797000001
141
0.09
142
0.0
143
25.399999999999999
144
1.0
145
0.0
146
1.0
147
0.09
 71
     0
 72
     0
 73
     0
 74
     0
 75
     0
 76
     0
 77
     0
 78
     8
170
     0
171
     2
172
     0
173
     0
174
     0
175
     0
176
     0
177
     0
178
     0
  0
DIMSTYLE
  2
VELDIM1
 70
     0
  3

  4

  5

  6

  7

 40
1.0
 41
1.5000828504999999
 42
0.0625
 43
0.38
 44
1.0
 45
0.0
 46
2.5
 47
0.0
 48
0.0
140
1.3493749797000001
141
0.09
142
0.0
143
25.399999999999999
144
1.0
145
0.0
146
1.0
147
0.09
 71
     0
 72
     0
 73
     0
 74
     0
 75
     0
 76
     0
 77
     0
 78
     8
170
     0
171
     2
172
     0
173
     0
174
     0
175
     0
176
     0
177
     0
178
     0
  0
ENDTAB
  0
ENDSEC
  0
SECTION
  2
BLOCKS
  0
BLOCK
  8
0
  2
$MODEL_SPACE
 70
     0
 10
0.0
 20
0.0
 30
0.0
  3
$MODEL_SPACE
  1

  0
ENDBLK
  5
E
  8
0
  0
BLOCK
 67
     1
  8
0
  2
$PAPER_SPACE
 70
     0
 10
0.0
 20
0.0
 30
0.0
  3
$PAPER_SPACE
  1

  0
ENDBLK
  5
10
 67
     1
  8
0
  0
BLOCK
  8
0
  2
*D0
 70
     1
 10
0.0
 20
0.0
 30
0.0
  3
*D0
  1

  0
TEXT
  5
36
  8
0
 62
     0
 10
943.53084751280005
 20
-473.12078164759998
 30
0.0
 40
1.3493749797000001
  1
R17
 50
285.0
  0
LINE
  5
37
  8
0
 62
     0
 10
940.93977886789992
 20
-465.59755193580003
 30
0.0
 11
943.81590543949994
 21
-476.33140242979999
 31
0.0
  0
SOLID
  5
38
  8
0
 62
     0
 10
940.93977886789992
 20
-465.59755193580003
 30
0.0
 11
941.71627888019998
 21
-466.94248942829989
 31
0.0
 12
940.93977887749986
 22
-467.15055197689998
 32
0.0
 13
941.23096637610001
 23
-466.6842785108999
 33
0.0
  0
ENDBLK
  5
39
  8
0
  0
BLOCK
  8
0
  2
*D1
 70
     1
 10
0.0
 20
0.0
 30
0.0
  3
*D1
  1

  0
TEXT
  5
3E
  8
0
 62
     0
 10
909.37010632479985
 20
-467.94051240629989
 30
0.0
 40
1.3493749797000001
  1
R17
 50
285.0
  0
LINE
  5
3F
  8
0
 62
     0
 10
908.16708663969985
 20
-465.59755193580003
 30
0.0
 11
909.65516425140004
 21
-471.15113318850001
 31
0.0
  0
SOLID
  5
40
  8
0
 62
     0
 10
908.16708663969985
 20
-465.59755193580003
 30
0.0
 11
908.94358665189998
 21
-466.94248942829989
 31
0.0
 12
908.1670866492999
 22
-467.15055197689998
 32
0.0
 13
908.45827414790006
 23
-466.6842785108999
 33
0.0
  0
ENDBLK
  5
41
  8
0
  0
BLOCK
  8
0
  2
*D2
 70
     1
 10
0.0
 20
0.0
 30
0.0
  3
*D2
  1

  0
TEXT
  5
46
  8
0
 62
     0
 10
901.22491477089989
 20
-472.84879238809992
 30
0.0
 40
1.3493749797000001
  1
R4
 50
315.0
  0
LINE
  5
47
  8
0
 62
     0
 10
894.93873574820009
 20
-467.34838576409999
 30
0.0
 11
902.51582656899996
 21
-474.92547658489991
 31
0.0
  0
SOLID
  5
48
  8
0
 62
     0
 10
894.93873574820009
 20
-467.34838576409999
 30
0.0
 11
896.28367323110001
 21
-468.12488579299998
 31
0.0
 12
895.71523577710013
 22
-468.69332324699991
 32
0.0
 13
895.73427481509987
 23
-468.14392483109998
 33
0.0
  0
ENDBLK
  5
49
  8
0
  0
BLOCK
  8
0
  2
*D3
 70
     1
 10
0.0
 20
0.0
 30
0.0
  3
*D3
  1

  0
TEXT
  5
50
  8
0
 62
     0
 10
901.97341288489997
 20
-486.54884585910003
 30
0.0
 40
1.3493749797000001
  1
18
  0
LINE
  5
51
  8
0
 62
     0
 10
893.76716287289992
 20
-479.42681288889992
 30
0.0
 11
893.76716287289992
 21
-488.28697085549999
 31
0.0
  0
LINE
  5
52
  8
0
 62
     0
 10
911.76716287289992
 20
-465.17681288889992
 30
0.0
 11
911.76716287289992
 21
-488.28697085549999
 31
0.0
  0
LINE
  5
53
  8
0
 62
     0
 10
893.76716287289992
 20
-487.28697085549999
 30
0.0
 11
904.35466284910001
 21
-487.28697085549999
 31
0.0
  0
LINE
  5
54
  8
0
 62
     0
 10
893.76716287289992
 20
-487.28697085549999
 30
0.0
 11
901.17966289679987
 21
-487.28697085549999
 31
0.0
  0
LINE
  5
55
  8
0
 62
     0
 10
911.76716287289992
 20
-487.28697085549999
 30
0.0
 11
904.35466284910001
 21
-487.28697085549999
 31
0.0
  0
LINE
  5
56
  8
0
 62
     0
 10
911.76716287289992
 20
-487.28697085549999
 30
0.0
 11
901.17966289679987
 21
-487.28697085549999
 31
0.0
  0
LINE
  5
57
  8
0
 62
     0
 10
911.76716287289992
 20
-487.28697085549999
 30
0.0
 11
909.2671628728998
 21
-487.28697085549999
 31
0.0
  0
SOLID
  5
58
  8
0
 62
     0
 10
911.76716287289992
 20
-487.28697085549999
 30
0.0
 11
910.26708002249984
 21
-487.6889168338999
 31
0.0
 12
910.26708002249984
 22
-486.88502487709991
 32
0.0
 13
910.64210073509992
 23
-487.28697085549999
 33
0.0
  0
LINE
  5
59
  8
0
 62
     0
 10
893.76716287289992
 20
-487.28697085549999
 30
0.0
 11
896.26716287289992
 21
-487.28697085549999
 31
0.0
  0
SOLID
  5
5A
  8
0
 62
     0
 10
893.76716287289992
 20
-487.28697085549999
 30
0.0
 11
895.26724572339992
 21
-486.88502487709991
 31
0.0
 12
895.26724572339992
 22
-487.6889168338999
 32
0.0
 13
894.89222501079985
 23
-487.28697085549999
 33
0.0
  0
ENDBLK
  5
5B
  8
0
  0
BLOCK
  8
0
  2
*D4
 70
     1
 10
0.0
 20
0.0
 30
0.0
  3
*D4
  1

  0
TEXT
  5
5F
  8
0
 62
     0
 10
921.24607234869995
 20
-476.12368783519997
 30
0.0
 40
1.3493749797000001
  1
üi19.75üj
 50
90.0
  0
LINE
  5
60
  8
0
 62
     0
 10
893.76716287289992
 20
-482.42681288889992
 30
0.0
 11
922.98419734510003
 21
-482.42681288889992
 31
0.0
  0
LINE
  5
61
  8
0
 62
     0
 10
911.26716287290003
 20
-462.67681288889997
 30
0.0
 11
922.98419734510003
 21
-462.67681288889997
 31
0.0
  0
LINE
  5
62
  8
0
 62
     0
 10
921.9841973450998
 20
-482.42681288889992
 30
0.0
 11
921.9841973450998
 21
-468.18618795439988
 31
0.0
  0
LINE
  5
63
  8
0
 62
     0
 10
921.9841973450998
 20
-482.42681288889992
 30
0.0
 11
921.9841973450998
 21
-476.91743782330002
 31
0.0
  0
LINE
  5
64
  8
0
 62
     0
 10
921.9841973450998
 20
-462.67681288889997
 30
0.0
 11
921.9841973450998
 21
-468.18618795439988
 31
0.0
  0
LINE
  5
65
  8
0
 62
     0
 10
921.9841973450998
 20
-462.67681288889997
 30
0.0
 11
921.9841973450998
 21
-476.91743782330002
 31
0.0
  0
LINE
  5
66
  8
0
 62
     0
 10
921.9841973450998
 20
-462.67681288889997
 30
0.0
 11
921.9841973450998
 21
-465.17681288889992
 31
0.0
  0
SOLID
  5
67
  8
0
 62
     0
 10
921.9841973450998
 20
-462.67681288889997
 30
0.0
 11
922.38614332350005
 21
-464.17689573929999
 31
0.0
 12
921.58225136669989
 22
-464.17689573929999
 32
0.0
 13
921.9841973450998
 23
-463.80187502669997
 33
0.0
  0
LINE
  5
68
  8
0
 62
     0
 10
921.9841973450998
 20
-482.42681288889992
 30
0.0
 11
921.9841973450998
 21
-479.92681288889992
 31
0.0
  0
SOLID
  5
69
  8
0
 62
     0
 10
921.9841973450998
 20
-482.42681288889992
 30
0.0
 11
921.58225136669989
 21
-480.92673003839991
 31
0.0
 12
922.38614332350005
 22
-480.92673003839991
 32
0.0
 13
921.9841973450998
 23
-481.30175075099987
 33
0.0
  0
ENDBLK
  5
6A
  8
0
  0
BLOCK
  8
0
  2
*D5
 70
     1
 10
0.0
 20
0.0
 30
0.0
  3
*D5
  1

  0
TEXT
  5
6E
  8
0
 62
     0
 10
881.97792058089999
 20
-475.6018128412
 30
0.0
 40
1.3493749797000001
  1
20
 50
90.0
  0
LINE
  5
6F
  8
0
 62
     0
 10
889.06716287289998
 20
-462.42681288889992
 30
0.0
 11
881.71604557740011
 21
-462.42681288889992
 31
0.0
  0
LINE
  5
70
  8
0
 62
     0
 10
888.7671628728998
 20
-482.42681288889992
 30
0.0
 11
881.71604557740011
 21
-482.42681288889992
 31
0.0
  0
LINE
  5
71
  8
0
 62
     0
 10
882.7160455774
 20
-462.42681288889992
 30
0.0
 11
882.7160455774
 21
-468.4580629484999
 31
0.0
  0
LINE
  5
72
  8
0
 62
     0
 10
882.7160455774
 20
-462.42681288889992
 30
0.0
 11
882.7160455774
 21
-476.39556282929999
 31
0.0
  0
LINE
  5
73
  8
0
 62
     0
 10
882.7160455774
 20
-482.42681288889992
 30
0.0
 11
882.7160455774
 21
-468.4580629484999
 31
0.0
  0
LINE
  5
74
  8
0
 62
     0
 10
882.7160455774
 20
-482.42681288889992
 30
0.0
 11
882.7160455774
 21
-476.39556282929999
 31
0.0
  0
LINE
  5
75
  8
0
 62
     0
 10
882.7160455774
 20
-482.42681288889992
 30
0.0
 11
882.7160455774
 21
-479.92681288889992
 31
0.0
  0
SOLID
  5
76
  8
0
 62
     0
 10
882.7160455774
 20
-482.42681288889992
 30
0.0
 11
882.31409959899997
 21
-480.92673003839991
 31
0.0
 12
883.1179915557999
 22
-480.92673003839991
 32
0.0
 13
882.7160455774
 23
-481.30175075099987
 33
0.0
  0
LINE
  5
77
  8
0
 62
     0
 10
882.7160455774
 20
-462.42681288889992
 30
0.0
 11
882.7160455774
 21
-464.92681288889997
 31
0.0
  0
SOLID
  5
78
  8
0
 62
     0
 10
882.7160455774
 20
-462.42681288889992
 30
0.0
 11
883.1179915557999
 21
-463.92689573929988
 31
0.0
 12
882.31409959899997
 22
-463.92689573929988
 32
0.0
 13
882.7160455774
 23
-463.55187502669992
 33
0.0
  0
ENDBLK
  5
79
  8
0
  0
BLOCK
  8
0
  2
*D6
 70
     1
 10
0.0
 20
0.0
 30
0.0
  3
*D6
  1

  0
TEXT
  5
7D
  8
0
 62
     0
 10
876.79424711160004
 20
-471.09012475209988
 30
0.0
 40
1.3493749797000001
  1
üi27.41üj
 50
90.0
  0
LINE
  5
7E
  8
0
 62
     0
 10
888.26716287289992
 20
-455.02084804999998
 30
0.0
 11
876.53237210799989
 21
-455.02084804999998
 31
0.0
  0
LINE
  5
7F
  8
0
 62
     0
 10
888.7671628728998
 20
-482.42681288889992
 30
0.0
 11
876.53237210799989
 21
-482.42681288889992
 31
0.0
  0
LINE
  5
80
  8
0
 62
     0
 10
877.53237210799989
 20
-455.02084804999998
 30
0.0
 11
877.53237210799989
 21
-463.15262487129991
 31
0.0
  0
LINE
  5
81
  8
0
 62
     0
 10
877.53237210799989
 20
-455.02084804999998
 30
0.0
 11
877.53237210799989
 21
-471.88387474019987
 31
0.0
  0
LINE
  5
82
  8
0
 62
     0
 10
877.53237210799989
 20
-482.42681288889992
 30
0.0
 11
877.53237210799989
 21
-463.15262487129991
 31
0.0
  0
LINE
  5
83
  8
0
 62
     0
 10
877.53237210799989
 20
-482.42681288889992
 30
0.0
 11
877.53237210799989
 21
-471.88387474019987
 31
0.0
  0
LINE
  5
84
  8
0
 62
     0
 10
877.53237210799989
 20
-482.42681288889992
 30
0.0
 11
877.53237210799989
 21
-479.92681288889992
 31
0.0
  0
SOLID
  5
85
  8
0
 62
     0
 10
877.53237210799989
 20
-482.42681288889992
 30
0.0
 11
877.13042612959998
 21
-480.92673003839991
 31
0.0
 12
877.93431808640003
 22
-480.92673003839991
 32
0.0
 13
877.53237210799989
 23
-481.30175075099987
 33
0.0
  0
LINE
  5
86
  8
0
 62
     0
 10
877.53237210799989
 20
-455.02084804999998
 30
0.0
 11
877.53237210799989
 21
-457.52084804999993
 31
0.0
  0
SOLID
  5
87
  8
0
 62
     0
 10
877.53237210799989
 20
-455.02084804999998
 30
0.0
 11
877.93431808640003
 21
-456.5209309004
 31
0.0
 12
877.13042612959998
 22
-456.5209309004
 32
0.0
 13
877.53237210799989
 23
-456.14591018779993
 33
0.0
  0
ENDBLK
  5
88
  8
0
  0
BLOCK
  8
0
  2
BALLON0
 70
     0
 10
0.0
 20
0.0
 30
0.0
  3
BALLON0
  1

  0
INSERT
  5
93
  8
0
  6
CONTINUOUS
  2
*U28
 10
0.0
 20
0.0
 30
0.0
  0
CIRCLE
  5
94
  8
┌▓È_1
 10
1247.5979642996999
 20
-356.90684533370001
 30
0.0
 40
2.0
  0
LINE
  5
95
  8
Éíû@É³
 10
1244.2646309663
 20
-356.90684533370001
 30
0.0
 11
1245.5979642996999
 21
-356.90684533370001
 31
0.0
  0
LINE
  5
96
  8
Éíû@É³
 10
1222.7542728144999
 20
-335.3964871819
 30
0.0
 11
1244.2646309663
 21
-356.90684533370001
 31
0.0
  0
SOLID
  5
97
  8
Éíû@É³
 10
1222.7542728144999
 20
-335.3964871819
 30
0.0
 11
1224.4513290893999
 21
-336.52785803180001
 31
0.0
 12
1223.8856436644
 22
-336.52785803180001
 32
0.0
 13
1223.8856436644
 23
-336.52785803180001
 33
0.0
  0
SOLID
  5
98
  8
Éíû@É³
 10
1223.8856436644
 20
-336.52785803180001
 30
0.0
 11
1223.8856436644
 21
-337.09354345679998
 31
0.0
 12
1222.7542728144999
 22
-335.3964871819
 32
0.0
 13
1222.7542728144999
 23
-335.3964871819
 33
0.0
  0
ENDBLK
  5
99
  8
0
  0
BLOCK
  8
0
  2
*X8
 70
     1
 10
0.0
 20
0.0
 30
0.0
  3
*X8
  1

  0
LINE
  5
C6
  8
┌▓È_1
 62
     5
 10
897.26716287289992
 20
-462.92078183239988
 30
0.0
 11
897.51113181649998
 21
-462.67681288889997
 31
0.0
  0
LINE
  5
C7
  8
┌▓È_1
 62
     5
 10
897.27629685939996
 20
-463.17681288889997
 30
0.0
 11
897.77629685940008
 21
-462.67681288889997
 31
0.0
  0
LINE
  5
C8
  8
┌▓È_1
 62
     5
 10
897.54146190229983
 20
-463.17681288889997
 30
0.0
 11
898.04146190229994
 21
-462.67681288889997
 31
0.0
  0
LINE
  5
C9
  8
┌▓È_1
 62
     5
 10
898.86728711710009
 20
-463.17681288889997
 30
0.0
 11
899.36728711709998
 21
-462.67681288889997
 31
0.0
  0
LINE
  5
CA
  8
┌▓È_1
 62
     5
 10
899.13245215999984
 20
-463.17681288889997
 30
0.0
 11
899.63245215999996
 21
-462.67681288889997
 31
0.0
  0
LINE
  5
CB
  8
┌▓È_1
 62
     5
 10
899.39761720299998
 20
-463.17681288889997
 30
0.0
 11
899.89761720299987
 21
-462.67681288889997
 31
0.0
  0
LINE
  5
CC
  8
┌▓È_1
 62
     5
 10
899.66278224589996
 20
-463.17681288889997
 30
0.0
 11
900.16278224589985
 21
-462.67681288889997
 31
0.0
  0
LINE
  5
CD
  8
┌▓È_1
 62
     5
 10
900.98860746059995
 20
-463.17681288889997
 30
0.0
 11
901.48860746059995
 21
-462.67681288889997
 31
0.0
  0
LINE
  5
CE
  8
┌▓È_1
 62
     5
 10
901.25377250359986
 20
-463.17681288889997
 30
0.0
 11
901.75377250359998
 21
-462.67681288889997
 31
0.0
  0
LINE
  5
CF
  8
┌▓È_1
 62
     5
 10
901.51893754649984
 20
-463.17681288889997
 30
0.0
 11
902.01893754649996
 21
-462.67681288889997
 31
0.0
  0
LINE
  5
D0
  8
┌▓È_1
 62
     5
 10
901.78410258949998
 20
-463.17681288889997
 30
0.0
 11
902.28410258949987
 21
-462.67681288889997
 31
0.0
  0
LINE
  5
D1
  8
┌▓È_1
 62
     5
 10
903.10992780419986
 20
-463.17681288889997
 30
0.0
 11
903.60992780419997
 21
-462.67681288889997
 31
0.0
  0
LINE
  5
D2
  8
┌▓È_1
 62
     5
 10
903.37509284709995
 20
-463.17681288889997
 30
0.0
 11
903.87509284710006
 21
-462.67681288889997
 31
0.0
  0
LINE
  5
D3
  8
┌▓È_1
 62
     5
 10
903.64025789009997
 20
-463.17681288889997
 30
0.0
 11
904.14025789009986
 21
-462.67681288889997
 31
0.0
  0
LINE
  5
D4
  8
┌▓È_1
 62
     5
 10
903.90542293299995
 20
-463.17681288889997
 30
0.0
 11
904.40542293300007
 21
-462.67681288889997
 31
0.0
  0
LINE
  5
D5
  8
┌▓È_1
 62
     5
 10
905.23124814779987
 20
-463.17681288889997
 30
0.0
 11
905.73124814779999
 21
-462.67681288889997
 31
0.0
  0
LINE
  5
D6
  8
┌▓È_1
 62
     5
 10
905.49641319069997
 20
-463.17681288889997
 30
0.0
 11
905.99641319070008
 21
-462.67681288889997
 31
0.0
  0
LINE
  5
D7
  8
┌▓È_1
 62
     5
 10
905.76157823359995
 20
-463.17681288889997
 30
0.0
 11
906.26157823360006
 21
-462.67681288889997
 31
0.0
  0
LINE
  5
D8
  8
┌▓È_1
 62
     5
 10
906.02674327659997
 20
-463.17681288889997
 30
0.0
 11
906.52674327660009
 21
-462.67681288889997
 31
0.0
  0
LINE
  5
D9
  8
┌▓È_1
 62
     5
 10
907.35256849130008
 20
-463.17681288889997
 30
0.0
 11
907.85256849130008
 21
-462.67681288889997
 31
0.0
  0
LINE
  5
DA
  8
┌▓È_1
 62
     5
 10
907.61773353429987
 20
-463.17681288889997
 30
0.0
 11
908.11773353429976
 21
-462.67681288889997
 31
0.0
  0
LINE
  5
DB
  8
┌▓È_1
 62
     5
 10
907.88289857719997
 20
-463.17681288889997
 30
0.0
 11
908.38289857719985
 21
-462.67681288889997
 31
0.0
  0
LINE
  5
DC
  8
┌▓È_1
 62
     5
 10
908.14806362009995
 20
-463.17681288889997
 30
0.0
 11
908.64806362009995
 21
-462.67681288889997
 31
0.0
  0
LINE
  5
DD
  8
┌▓È_1
 62
     5
 10
909.47388883490009
 20
-463.17681288889997
 30
0.0
 11
909.97388883490009
 21
-462.67681288889997
 31
0.0
  0
LINE
  5
DE
  8
┌▓È_1
 62
     5
 10
909.73905387779985
 20
-463.17681288889997
 30
0.0
 11
910.23905387779985
 21
-462.67681288889997
 31
0.0
  0
LINE
  5
DF
  8
┌▓È_1
 62
     5
 10
910.00421892079999
 20
-463.17681288889997
 30
0.0
 11
910.2671628728998
 21
-462.9138689367
 31
0.0
  0
ENDBLK
  5
E0
  8
0
  0
BLOCK
  8
0
  2
*X9
 70
     1
 10
0.0
 20
0.0
 30
0.0
  3
*X9
  1

  0
LINE
  5
E5
  8
┌▓È_1
 62
     5
 10
897.82337427759978
 20
-430.11642980430003
 30
0.0
 11
901.14984119489998
 21
-426.78996288709988
 31
0.0
  0
LINE
  5
E6
  8
┌▓È_1
 62
     5
 10
897.65234448449996
 20
-430.55262464039993
 30
0.0
 11
901.58603603100005
 21
-426.61893309390001
 31
0.0
  0
LINE
  5
E7
  8
┌▓È_1
 62
     5
 10
897.52159056389996
 20
-430.94854360400001
 30
0.0
 11
901.98195499460007
 21
-426.4881791732999
 31
0.0
  0
LINE
  5
E8
  8
┌▓È_1
 62
     5
 10
897.43297251189995
 20
-431.3023266989
 30
0.0
 11
902.33573808949996
 21
-426.39956112129988
 31
0.0
  0
LINE
  5
E9
  8
┌▓È_1
 62
     5
 10
897.26998229469984
 20
-432.79114213079998
 30
0.0
 11
903.82455352140005
 21
-426.23657090410001
 31
0.0
  0
LINE
  5
EA
  8
┌▓È_1
 62
     5
 10
897.28239902320013
 20
-433.04389044530001
 30
0.0
 11
904.07730183590013
 21
-426.24898763259989
 31
0.0
  0
LINE
  5
EB
  8
┌▓È_1
 62
     5
 10
897.29481575169984
 20
-433.29663875979998
 30
0.0
 11
904.33005015029994
 21
-426.26140436110001
 31
0.0
  0
LINE
  5
EC
  8
┌▓È_1
 62
     5
 10
897.32265586679989
 20
-433.53396368760002
 30
0.0
 11
904.56737507820003
 21
-426.2892444762
 31
0.0
  0
LINE
  5
ED
  8
┌▓È_1
 62
     5
 10
897.55094869429979
 20
-434.6314960748
 30
0.0
 11
905.66490746539978
 21
-426.51753730370001
 31
0.0
  0
LINE
  5
EE
  8
┌▓È_1
 62
     5
 10
897.62082435320008
 20
-434.82678545879998
 30
0.0
 11
905.86019684940004
 21
-426.5874129625999
 31
0.0
  0
LINE
  5
EF
  8
┌▓È_1
 62
     5
 10
897.69070001210002
 20
-435.0220748427999
 30
0.0
 11
906.05548623339985
 21
-426.65728862150002
 31
0.0
  0
LINE
  5
F0
  8
┌▓È_1
 62
     5
 10
897.76057567100008
 20
-435.21736422689997
 30
0.0
 11
906.25077561750004
 21
-426.72716428050001
 31
0.0
  0
LINE
  5
F1
  8
┌▓È_1
 62
     5
 10
898.21128248199989
 20
-436.09248263059999
 30
0.0
 11
907.1258940212
 21
-427.17787109149998
 31
0.0
  0
LINE
  5
F2
  8
┌▓È_1
 62
     5
 10
898.31065481070004
 20
-436.25827534489991
 30
0.0
 11
907.29168673539994
 21
-427.27724342019991
 31
0.0
  0
LINE
  5
F3
  8
┌▓È_1
 62
     5
 10
898.41648955769995
 20
-436.41760564079988
 30
0.0
 11
907.45101703139994
 21
-427.3830781671
 31
0.0
  0
LINE
  5
F4
  8
┌▓È_1
 62
     5
 10
898.52940531989998
 20
-436.56985492159998
 30
0.0
 11
907.60326631210012
 21
-427.4959939293999
 31
0.0
  0
LINE
  5
F5
  8
┌▓È_1
 62
     5
 10
899.13491696309995
 20
-437.2901684931
 30
0.0
 11
908.32357988360002
 21
-428.10150557259999
 31
0.0
  0
LINE
  5
F6
  8
┌▓È_1
 62
     5
 10
899.27028761129998
 20
-437.4199628879
 30
0.0
 11
908.45337427840002
 21
-428.23687622069991
 31
0.0
  0
LINE
  5
F7
  8
┌▓È_1
 62
     5
 10
899.40938349439989
 20
-437.5460320476999
 30
0.0
 11
908.57944343830002
 21
-428.37597210379988
 31
0.0
  0
LINE
  5
F8
  8
┌▓È_1
 62
     5
 10
899.54847937750003
 20
-437.67210120760001
 30
0.0
 11
908.70551259809986
 21
-428.51506798690002
 31
0.0
  0
LINE
  5
F9
  8
┌▓È_1
 62
     5
 10
900.31360867520004
 20
-438.23279712459998
 30
0.0
 11
909.26620851519988
 21
-429.28019728459998
 31
0.0
  0
LINE
  5
FA
  8
┌▓È_1
 62
     5
 10
900.47940138939987
 20
-438.33216945330003
 30
0.0
 11
909.36558084390015
 21
-429.44598999879992
 31
0.0
  0
LINE
  5
FB
  8
┌▓È_1
 62
     5
 10
900.64519410369985
 20
-438.4315417819999
 30
0.0
 11
909.46495317259996
 21
-429.6117827130999
 31
0.0
  0
LINE
  5
FC
  8
┌▓È_1
 62
     5
 10
900.82024720059985
 20
-438.52165372799999
 30
0.0
 11
909.55506511860006
 21
-429.78683581000001
 31
0.0
  0
LINE
  5
FD
  8
┌▓È_1
 62
     5
 10
901.75772498309993
 20
-438.9100011601999
 30
0.0
 11
909.94341255079985
 21
-430.72431359259991
 31
0.0
  0
LINE
  5
FE
  8
┌▓È_1
 62
     5
 10
901.95925375849993
 20
-438.97363742779987
 30
0.0
 11
910.00704881839999
 21
-430.92584236789997
 31
0.0
  0
LINE
  5
FF
  8
┌▓È_1
 62
     5
 10
902.17130318509999
 20
-439.02675304410002
 30
0.0
 11
910.06016443469991
 21
-431.13789179449992
 31
0.0
  0
LINE
  5
100
  8
┌▓È_1
 62
     5
 10
902.38335261179998
 20
-439.07986866039988
 30
0.0
 11
910.11328005100006
 21
-431.34994122120003
 31
0.0
  0
LINE
  5
101
  8
┌▓È_1
 62
     5
 10
903.56521601739996
 20
-439.22383046949989
 30
0.0
 11
910.25724186009995
 21
-432.53180462680001
 31
0.0
  0
LINE
  5
102
  8
┌▓È_1
 62
     5
 10
903.82321364530003
 20
-439.23099788449991
 30
0.0
 11
910.26440927509987
 21
-432.78980225480001
 31
0.0
  0
LINE
  5
103
  8
┌▓È_1
 62
     5
 10
904.10207843699993
 20
-439.21729813579998
 30
0.0
 11
910.25070952630006
 21
-433.06866704639992
 31
0.0
  0
LINE
  5
104
  8
┌▓È_1
 62
     5
 10
904.38094322869995
 20
-439.20359838699989
 30
0.0
 11
910.23700977759995
 21
-433.34753183809988
 31
0.0
  0
LINE
  5
105
  8
┌▓È_1
 62
     5
 10
906.12503878990015
 20
-438.78532804050002
 30
0.0
 11
909.81873943109986
 21
-435.09162739930002
 31
0.0
  0
LINE
  5
106
  8
┌▓È_1
 62
     5
 10
906.59985392199997
 20
-438.57567795139988
 30
0.0
 11
909.60908934190013
 21
-435.5664425315
 31
0.0
  0
LINE
  5
107
  8
┌▓È_1
 62
     5
 10
907.18872370819997
 20
-438.25197320809991
 30
0.0
 11
909.28538459869992
 21
-436.1553123176999
 31
0.0
  0
ENDBLK
  5
108
  8
0
  0
BLOCK
  8
0
  2
*D10
 70
     1
 10
0.0
 20
0.0
 30
0.0
  3
*D10
  1

  0
TEXT
  5
110
  8
0
 62
     0
 10
900.82966289679985
 20
-418.99562648589989
 30
0.0
 40
1.3493749797000001
  1
18.7
  0
LINE
  5
111
  8
0
 62
     0
 10
911.76716287289992
 20
-431.7337514823999
 30
0.0
 11
911.76716287289992
 21
-418.7337514823999
 31
0.0
  0
LINE
  5
112
  8
0
 62
     0
 10
893.06716287289987
 20
-423.7337514823999
 30
0.0
 11
893.06716287289987
 21
-418.7337514823999
 31
0.0
  0
LINE
  5
113
  8
0
 62
     0
 10
911.76716287289992
 20
-419.7337514823999
 30
0.0
 11
904.79841283719998
 21
-419.7337514823999
 31
0.0
  0
LINE
  5
114
  8
0
 62
     0
 10
911.76716287289992
 20
-419.7337514823999
 30
0.0
 11
900.03591290869997
 21
-419.7337514823999
 31
0.0
  0
LINE
  5
115
  8
0
 62
     0
 10
893.06716287289987
 20
-419.7337514823999
 30
0.0
 11
904.79841283719998
 21
-419.7337514823999
 31
0.0
  0
LINE
  5
116
  8
0
 62
     0
 10
893.06716287289987
 20
-419.7337514823999
 30
0.0
 11
900.03591290869997
 21
-419.7337514823999
 31
0.0
  0
LINE
  5
117
  8
0
 62
     0
 10
893.06716287289987
 20
-419.7337514823999
 30
0.0
 11
895.56716287289998
 21
-419.7337514823999
 31
0.0
  0
SOLID
  5
118
  8
0
 62
     0
 10
893.06716287289987
 20
-419.7337514823999
 30
0.0
 11
894.56724572339999
 21
-419.33180550399987
 31
0.0
 12
894.56724572339999
 22
-420.13569746079997
 32
0.0
 13
894.19222501080003
 23
-419.7337514823999
 33
0.0
  0
LINE
  5
119
  8
0
 62
     0
 10
911.76716287289992
 20
-419.7337514823999
 30
0.0
 11
909.2671628728998
 21
-419.7337514823999
 31
0.0
  0
SOLID
  5
11A
  8
0
 62
     0
 10
911.76716287289992
 20
-419.7337514823999
 30
0.0
 11
910.26708002249984
 21
-420.13569746079997
 31
0.0
 12
910.26708002249984
 22
-419.33180550399987
 32
0.0
 13
910.64210073509992
 23
-419.7337514823999
 33
0.0
  0
ENDBLK
  5
11B
  8
0
  0
BLOCK
  8
0
  2
*D11
 70
     1
 10
0.0
 20
0.0
 30
0.0
  3
*D11
  1

  0
TEXT
  5
11F
  8
0
 62
     0
 10
897.15778790269997
 20
-413.53206227239991
 30
0.0
 40
1.3493749797000001
  1
25.25
  0
LINE
  5
120
  8
0
 62
     0
 10
911.76716287289992
 20
-431.7337514823999
 30
0.0
 11
911.76716287289992
 21
-413.27018726879999
 31
0.0
  0
LINE
  5
121
  8
0
 62
     0
 10
886.51716287289992
 20
-430.03375148240002
 30
0.0
 11
886.51716287289992
 21
-413.27018726879999
 31
0.0
  0
LINE
  5
122
  8
0
 62
     0
 10
911.76716287289992
 20
-414.27018726879987
 30
0.0
 11
901.92028783119986
 21
-414.27018726879987
 31
0.0
  0
LINE
  5
123
  8
0
 62
     0
 10
911.76716287289992
 20
-414.27018726879987
 30
0.0
 11
896.36403791469991
 21
-414.27018726879987
 31
0.0
  0
LINE
  5
124
  8
0
 62
     0
 10
886.51716287289992
 20
-414.27018726879987
 30
0.0
 11
901.92028783119986
 21
-414.27018726879987
 31
0.0
  0
LINE
  5
125
  8
0
 62
     0
 10
886.51716287289992
 20
-414.27018726879987
 30
0.0
 11
896.36403791469991
 21
-414.27018726879987
 31
0.0
  0
LINE
  5
126
  8
0
 62
     0
 10
886.51716287289992
 20
-414.27018726879987
 30
0.0
 11
889.01716287290003
 21
-414.27018726879987
 31
0.0
  0
SOLID
  5
127
  8
0
 62
     0
 10
886.51716287289992
 20
-414.27018726879987
 30
0.0
 11
888.01724572339992
 21
-413.86824129040002
 31
0.0
 12
888.01724572339992
 22
-414.67213324720001
 32
0.0
 13
887.64222501079985
 23
-414.27018726879987
 33
0.0
  0
LINE
  5
128
  8
0
 62
     0
 10
911.76716287289992
 20
-414.27018726879987
 30
0.0
 11
909.2671628728998
 21
-414.27018726879987
 31
0.0
  0
SOLID
  5
129
  8
0
 62
     0
 10
911.76716287289992
 20
-414.27018726879987
 30
0.0
 11
910.26708002249984
 21
-414.67213324720001
 31
0.0
 12
910.26708002249984
 22
-413.86824129040002
 32
0.0
 13
910.64210073509992
 23
-414.27018726879987
 33
0.0
  0
ENDBLK
  5
12A
  8
0
  0
BLOCK
  8
0
  2
*X12
 70
     1
 10
0.0
 20
0.0
 30
0.0
  3
*X12
  1

  0
LINE
  5
13D
  8
┌▓È_1
 62
     5
 10
873.81684163349996
 20
-505.27365976509998
 30
0.0
 11
874.77997637550015
 21
-504.31052502310001
 31
0.0
  0
LINE
  5
13E
  8
┌▓È_1
 62
     5
 10
873.52930685249987
 20
-505.82635958899988
 30
0.0
 11
875.33267619939988
 21
-504.02299024209998
 31
0.0
  0
LINE
  5
13F
  8
┌▓È_1
 62
     5
 10
873.32394283149995
 20
-507.35754882470002
 30
0.0
 11
876.86386543509991
 21
-503.8176262211
 31
0.0
  0
LINE
  5
140
  8
┌▓È_1
 62
     5
 10
873.34771768960002
 20
-507.59893900959992
 30
0.0
 11
877.10525561999998
 21
-503.8414010791999
 31
0.0
  0
LINE
  5
141
  8
┌▓È_1
 62
     5
 10
873.39826502199992
 20
-507.8135567201
 30
0.0
 11
877.31987333050006
 21
-503.89194841160003
 31
0.0
  0
LINE
  5
142
  8
┌▓È_1
 62
     5
 10
873.45998070929988
 20
-508.01700607570001
 30
0.0
 11
877.52332268619989
 21
-503.95366409889988
 31
0.0
  0
LINE
  5
143
  8
┌▓È_1
 62
     5
 10
873.8946527743999
 20
-508.90815922529993
 30
0.0
 11
878.41447583579986
 21
-504.3883361639999
 31
0.0
  0
LINE
  5
144
  8
┌▓È_1
 62
     5
 10
874.0141770573
 20
-509.05379998539991
 30
0.0
 11
878.56011659590001
 21
-504.5078604469
 31
0.0
  0
LINE
  5
145
  8
┌▓È_1
 62
     5
 10
874.13370134019999
 20
-509.1994407455
 30
0.0
 11
878.7057573559
 21
-504.62738472969988
 31
0.0
  0
LINE
  5
146
  8
┌▓È_1
 62
     5
 10
874.25520403829989
 20
-509.34310309029991
 30
0.0
 11
878.84941970080013
 21
-504.74888742789989
 31
0.0
  0
LINE
  5
147
  8
┌▓È_1
 62
     5
 10
875.02942237219986
 20
-509.89470997109999
 30
0.0
 11
879.40102658160004
 21
-505.52310576180002
 31
0.0
  0
LINE
  5
148
  8
┌▓È_1
 62
     5
 10
875.20222336189988
 20
-509.98707402439999
 30
0.0
 11
879.49339063489992
 21
-505.69590675139989
 31
0.0
  0
LINE
  5
149
  8
┌▓È_1
 62
     5
 10
875.38858852240014
 20
-510.06587390679988
 30
0.0
 11
879.57219051719994
 21
-505.88227191200002
 31
0.0
  0
LINE
  5
14A
  8
┌▓È_1
 62
     5
 10
875.59203787809986
 20
-510.1275895940999
 30
0.0
 11
879.63390620449991
 21
-506.08572126759998
 31
0.0
  0
LINE
  5
14B
  8
┌▓È_1
 62
     5
 10
876.7832340816999
 20
-510.26221860519991
 30
0.0
 11
879.76853521559985
 21
-507.2769174712999
 31
0.0
  0
LINE
  5
14C
  8
┌▓È_1
 62
     5
 10
877.07736887300007
 20
-510.23324885679989
 30
0.0
 11
879.73956546730005
 21
-507.57105226260001
 31
0.0
  0
LINE
  5
14D
  8
┌▓È_1
 62
     5
 10
877.42890105050003
 20
-510.14688172230001
 30
0.0
 11
879.65319833269996
 21
-507.92258444010002
 31
0.0
  0
LINE
  5
14E
  8
┌▓È_1
 62
     5
 10
877.82121742389995
 20
-510.01973039180001
 30
0.0
 11
879.52604700229995
 21
-508.31490081349989
 31
0.0
  0
LINE
  5
14F
  8
┌▓È_1
 62
     5
 10
873.49412251850003
 20
-517.79397085549988
 30
0.0
 11
873.74412251849992
 21
-517.54397085549999
 31
0.0
  0
LINE
  5
150
  8
┌▓È_1
 62
     5
 10
873.75928756149995
 20
-517.79397085549988
 30
0.0
 11
874.00928756149995
 21
-517.54397085549999
 31
0.0
  0
LINE
  5
151
  8
┌▓È_1
 62
     5
 10
874.02445260440004
 20
-517.79397085549988
 30
0.0
 11
874.27445260440015
 21
-517.54397085549999
 31
0.0
  0
LINE
  5
152
  8
┌▓È_1
 62
     5
 10
874.28961764740006
 20
-517.79397085549988
 30
0.0
 11
874.53961764740006
 21
-517.54397085549999
 31
0.0
  0
LINE
  5
153
  8
┌▓È_1
 62
     5
 10
875.61544286210005
 20
-517.79397085549988
 30
0.0
 11
875.86544286209994
 21
-517.54397085549999
 31
0.0
  0
LINE
  5
154
  8
┌▓È_1
 62
     5
 10
875.88060790500003
 20
-517.79397085549988
 30
0.0
 11
876.13060790499992
 21
-517.54397085549999
 31
0.0
  0
LINE
  5
155
  8
┌▓È_1
 62
     5
 10
876.14577294799994
 20
-517.79397085549988
 30
0.0
 11
876.39577294800006
 21
-517.54397085549999
 31
0.0
  0
LINE
  5
156
  8
┌▓È_1
 62
     5
 10
876.41093799089992
 20
-517.79397085549988
 30
0.0
 11
876.66093799089992
 21
-517.54397085549999
 31
0.0
  0
LINE
  5
157
  8
┌▓È_1
 62
     5
 10
877.73676320560003
 20
-517.79397085549988
 30
0.0
 11
877.98676320559991
 21
-517.54397085549999
 31
0.0
  0
LINE
  5
158
  8
┌▓È_1
 62
     5
 10
878.00192824860005
 20
-517.79397085549988
 30
0.0
 11
878.25192824860005
 21
-517.54397085549999
 31
0.0
  0
LINE
  5
159
  8
┌▓È_1
 62
     5
 10
878.26709329149992
 20
-517.79397085549988
 30
0.0
 11
878.51709329149992
 21
-517.54397085549999
 31
0.0
  0
LINE
  5
15A
  8
┌▓È_1
 62
     5
 10
878.53225833449994
 20
-517.79397085549988
 30
0.0
 11
878.78225833449994
 21
-517.54397085549999
 31
0.0
  0
LINE
  5
15B
  8
┌▓È_1
 62
     5
 10
884.75185939039977
 20
-517.67316578739985
 30
0.0
 11
884.88105432220004
 21
-517.54397085549999
 31
0.0
  0
LINE
  5
15C
  8
┌▓È_1
 62
     5
 10
884.89621936520007
 20
-517.79397085549988
 30
0.0
 11
885.14621936519995
 21
-517.54397085549999
 31
0.0
  0
LINE
  5
15D
  8
┌▓È_1
 62
     5
 10
886.22204457989994
 20
-517.79397085549988
 30
0.0
 11
886.47204457990006
 21
-517.54397085549999
 31
0.0
  0
LINE
  5
15E
  8
┌▓È_1
 62
     5
 10
886.48720962279992
 20
-517.79397085549988
 30
0.0
 11
886.73720962280015
 21
-517.54397085549999
 31
0.0
  0
LINE
  5
15F
  8
┌▓È_1
 62
     5
 10
886.75237466580006
 20
-517.79397085549988
 30
0.0
 11
887.00237466579995
 21
-517.54397085549999
 31
0.0
  0
LINE
  5
160
  8
┌▓È_1
 62
     5
 10
887.01753970869993
 20
-517.79397085549988
 30
0.0
 11
887.26753970869981
 21
-517.54397085549999
 31
0.0
  0
LINE
  5
161
  8
┌▓È_1
 62
     5
 10
888.34336492340003
 20
-517.79397085549988
 30
0.0
 11
888.59336492339992
 21
-517.54397085549999
 31
0.0
  0
LINE
  5
162
  8
┌▓È_1
 62
     5
 10
888.60852996639994
 20
-517.79397085549988
 30
0.0
 11
888.85852996639994
 21
-517.54397085549999
 31
0.0
  0
LINE
  5
163
  8
┌▓È_1
 62
     5
 10
888.87369500929992
 20
-517.79397085549988
 30
0.0
 11
889.12369500929992
 21
-517.54397085549999
 31
0.0
  0
LINE
  5
164
  8
┌▓È_1
 62
     5
 10
889.13886005229995
 20
-517.79397085549988
 30
0.0
 11
889.38886005229983
 21
-517.54397085549999
 31
0.0
  0
LINE
  5
165
  8
┌▓È_1
 62
     5
 10
890.46468526700005
 20
-517.79397085549988
 30
0.0
 11
890.71468526699994
 21
-517.54397085549999
 31
0.0
  0
LINE
  5
166
  8
┌▓È_1
 62
     5
 10
890.72985030999985
 20
-517.79397085549988
 30
0.0
 11
890.97985030999985
 21
-517.54397085549999
 31
0.0
  0
LINE
  5
167
  8
┌▓È_1
 62
     5
 10
890.99501535289994
 20
-517.79397085549988
 30
0.0
 11
891.24501535289994
 21
-517.54397085549999
 31
0.0
  0
ENDBLK
  5
168
  8
0
  0
BLOCK
  8
0
  2
*D13
 70
     1
 10
0.0
 20
0.0
 30
0.0
  3
*D13
  1

  0
TEXT
  5
170
  8
0
 62
     0
 10
890.87028787889983
 20
-486.54884585910003
 30
0.0
 40
1.3493749797000001
  1
5
  0
LINE
  5
171
  8
0
 62
     0
 10
888.7671628728998
 20
-482.42681288889992
 30
0.0
 11
888.7671628728998
 21
-488.28697085549999
 31
0.0
  0
LINE
  5
172
  8
0
 62
     0
 10
893.76716287289992
 20
-479.42681288889992
 30
0.0
 11
893.76716287289992
 21
-488.28697085549999
 31
0.0
  0
LINE
  5
173
  8
0
 62
     0
 10
888.7671628728998
 20
-487.28697085549999
 30
0.0
 11
892.45778785510004
 21
-487.28697085549999
 31
0.0
  0
LINE
  5
174
  8
0
 62
     0
 10
888.7671628728998
 20
-487.28697085549999
 30
0.0
 11
890.07653789080007
 21
-487.28697085549999
 31
0.0
  0
LINE
  5
175
  8
0
 62
     0
 10
893.76716287289992
 20
-487.28697085549999
 30
0.0
 11
892.45778785510004
 21
-487.28697085549999
 31
0.0
  0
LINE
  5
176
  8
0
 62
     0
 10
893.76716287289992
 20
-487.28697085549999
 30
0.0
 11
890.07653789080007
 21
-487.28697085549999
 31
0.0
  0
LINE
  5
177
  8
0
 62
     0
 10
893.76716287289992
 20
-487.28697085549999
 30
0.0
 11
896.26716287289992
 21
-487.28697085549999
 31
0.0
  0
SOLID
  5
178
  8
0
 62
     0
 10
893.76716287289992
 20
-487.28697085549999
 30
0.0
 11
895.26724572339992
 21
-486.88502487709991
 31
0.0
 12
895.26724572339992
 22
-487.6889168338999
 32
0.0
 13
894.89222501079985
 23
-487.28697085549999
 33
0.0
  0
LINE
  5
179
  8
0
 62
     0
 10
888.7671628728998
 20
-487.28697085549999
 30
0.0
 11
886.26716287290003
 21
-487.28697085549999
 31
0.0
  0
SOLID
  5
17A
  8
0
 62
     0
 10
888.7671628728998
 20
-487.28697085549999
 30
0.0
 11
887.26708002249995
 21
-487.6889168338999
 31
0.0
 12
887.26708002249995
 22
-486.88502487709991
 32
0.0
 13
887.6421007350998
 23
-487.28697085549999
 33
0.0
  0
ENDBLK
  5
17B
  8
0
  0
BLOCK
  8
0
  2
CLUMP0
 70
     0
 10
0.0
 20
0.0
 30
0.0
  3
CLUMP0
  1

  0
LINE
  5
18F
  8
┌▓È_1
 62
     5
 10
871.19226827600005
 20
-503.0359516655999
 30
0.0
 11
876.54226863550002
 21
-503.0359516655999
 31
0.0
  0
LINE
  5
190
  8
┌▓È_1
 62
     5
 10
870.04226827600007
 20
-506.18595166559987
 30
0.0
 11
867.91726827599996
 21
-506.18595166559987
 31
0.0
  0
ARC
  5
191
  8
┌▓È_1
 62
     5
 10
876.54226827599996
 20
-507.0359516655999
 30
0.0
 40
4.0
 50
270.0000003175
 51
90.000006459199994
  0
LINE
  5
192
  8
┌▓È_1
 62
     5
 10
871.19226827600005
 20
-511.0359516655999
 30
0.0
 11
871.19226827600005
 21
-509.33595166560002
 31
0.0
  0
LINE
  5
193
  8
┌▓È_1
 62
     5
 10
869.54226827599996
 20
-507.88595166559998
 30
0.0
 11
869.54226827599996
 21
-506.18595166559987
 31
0.0
  0
LINE
  5
194
  8
┌▓È_1
 62
     5
 10
867.91726827599996
 20
-506.18595166559987
 30
0.0
 11
867.91726827599996
 21
-507.88595166559998
 31
0.0
  0
LINE
  5
195
  8
┌▓È_1
 62
     5
 10
871.54226827600007
 20
-507.96095166559991
 30
0.0
 11
871.54226827600007
 21
-506.11095166559988
 31
0.0
  0
LINE
  5
196
  8
┌▓È_1
 62
     5
 10
870.04226827600007
 20
-507.88595166559998
 30
0.0
 11
870.04226827600007
 21
-507.96095166559991
 31
0.0
  0
LINE
  5
197
  8
┌▓È_1
 62
     5
 10
867.91726827599996
 20
-507.88595166559998
 30
0.0
 11
870.04226827600007
 21
-507.88595166559998
 31
0.0
  0
LINE
  5
198
  8
┌▓È_1
 62
     5
 10
870.04226827600007
 20
-507.96095166559991
 30
0.0
 11
872.04226827599996
 21
-507.96095166559991
 31
0.0
  0
LINE
  5
199
  8
┌▓È_1
  6
STITCH
 10
869.39226827600021
 20
-507.88595166559998
 30
0.0
 11
869.39226827600021
 21
-506.18595166559987
 31
0.0
  0
LINE
  5
19A
  8
┌▓È_1
  6
STITCH
 10
870.04226827600007
 20
-507.88595166559998
 30
0.0
 11
870.04226827600007
 21
-506.18595166559987
 31
0.0
  0
ARC
  5
19B
  8
┌▓È_1
 62
     5
 10
871.28415439299999
 20
-509.13595166559992
 30
0.0
 40
0.2
 50
270.0
 51
341.56505117709997
  0
LINE
  5
19C
  8
┌▓È_1
 62
     5
 10
871.47389105260004
 20
-509.1991972187999
 30
0.0
 11
871.65121496109998
 21
-508.66722549320002
 31
0.0
  0
ARC
  5
19D
  8
┌▓È_1
 62
     5
 10
870.89226827599998
 20
-508.41424342039988
 30
0.0
 40
0.8
 50
341.56506175020002
 51
0.0
  0
LINE
  5
19E
  8
┌▓È_1
 62
     5
 10
871.19226827600005
 20
-509.33595166560002
 30
0.0
 11
871.28415439299999
 21
-509.33595166560002
 31
0.0
  0
LINE
  5
19F
  8
┌▓È_1
 62
     5
 10
876.54226829820004
 20
-511.0359516655999
 30
0.0
 11
871.19226827600005
 21
-511.0359516655999
 31
0.0
  0
LINE
  5
1A0
  8
┌▓È_1
 62
     5
 10
871.69226827599994
 20
-508.41424342039988
 30
0.0
 11
871.69226827599994
 21
-507.96095166559991
 31
0.0
  0
LINE
  5
1A1
  8
┌▓È_1
 62
     5
 10
871.19226827600005
 20
-504.73595166559988
 30
0.0
 11
871.28415439299999
 21
-504.73595166559988
 31
0.0
  0
LINE
  5
1A2
  8
┌▓È_1
 62
     5
 10
871.69226827599994
 20
-505.65765991069998
 30
0.0
 11
871.69226827599994
 21
-506.11095166559988
 31
0.0
  0
ARC
  5
1A3
  8
┌▓È_1
 62
     5
 10
870.89226827599998
 20
-505.65765991069998
 30
0.0
 40
0.8
 50
0.0
 51
18.434938249799998
  0
LINE
  5
1A4
  8
┌▓È_1
 62
     5
 10
871.47389105260004
 20
-504.8727061123999
 30
0.0
 11
871.65121496109998
 21
-505.4046778378999
 31
0.0
  0
ARC
  5
1A5
  8
┌▓È_1
 62
     5
 10
871.28415439299999
 20
-504.93595166559987
 30
0.0
 40
0.2
 50
18.434948822900001
 51
90.0
  0
LINE
  5
1A6
  8
┌▓È_1
 62
     5
 10
871.19226827600005
 20
-503.0359516655999
 30
0.0
 11
871.19226827600005
 21
-504.73595166559988
 31
0.0
  0
LINE
  5
1A7
  8
┌▓È_1
 62
     5
 10
870.04226827600007
 20
-506.18595166559987
 30
0.0
 11
870.04226827600007
 21
-506.11095166559988
 31
0.0
  0
LINE
  5
1A8
  8
┌▓È_1
 62
     5
 10
872.04226827599996
 20
-506.11095166559988
 30
0.0
 11
870.04226827600007
 21
-506.11095166559988
 31
0.0
  0
ENDBLK
  5
1A9
  8
0
  0
BLOCK
  8
0
  2
*D15
 70
     1
 10
0.0
 20
0.0
 30
0.0
  3
*D15
  1

  0
TEXT
  5
25A
  8
0
 62
     0
 10
879.60428370329987
 20
-439.24625145850001
 30
0.0
 40
1.3493749797000001
  1
6.15
 50
90.0
  0
LINE
  5
25B
  8
0
 62
     0
 10
889.7671628728998
 20
-434.58375148239992
 30
0.0
 11
879.34240869970006
 21
-434.58375148239992
 31
0.0
  0
LINE
  5
25C
  8
0
 62
     0
 10
892.06716287289987
 20
-440.7337514823999
 30
0.0
 11
879.34240869970006
 21
-440.7337514823999
 31
0.0
  0
LINE
  5
25D
  8
0
 62
     0
 10
880.34240869970006
 20
-434.58375148239992
 30
0.0
 11
880.34240869970006
 21
-435.27750151809988
 31
0.0
  0
LINE
  5
25E
  8
0
 62
     0
 10
880.34240869970006
 20
-434.58375148239992
 30
0.0
 11
880.34240869970006
 21
-440.0400014466
 31
0.0
  0
LINE
  5
25F
  8
0
 62
     0
 10
880.34240869970006
 20
-440.7337514823999
 30
0.0
 11
880.34240869970006
 21
-435.27750151809988
 31
0.0
  0
LINE
  5
260
  8
0
 62
     0
 10
880.34240869970006
 20
-440.7337514823999
 30
0.0
 11
880.34240869970006
 21
-440.0400014466
 31
0.0
  0
LINE
  5
261
  8
0
 62
     0
 10
880.34240869970006
 20
-440.7337514823999
 30
0.0
 11
880.34240869970006
 21
-443.2337514823999
 31
0.0
  0
SOLID
  5
262
  8
0
 62
     0
 10
880.34240869970006
 20
-440.7337514823999
 30
0.0
 11
880.74435467809997
 21
-442.23383433279992
 31
0.0
 12
879.94046272130004
 22
-442.23383433279992
 32
0.0
 13
880.34240869970006
 23
-441.8588136201999
 33
0.0
  0
LINE
  5
263
  8
0
 62
     0
 10
880.34240869970006
 20
-434.58375148239992
 30
0.0
 11
880.34240869970006
 21
-432.08375148239992
 31
0.0
  0
SOLID
  5
264
  8
0
 62
     0
 10
880.34240869970006
 20
-434.58375148239992
 30
0.0
 11
879.94046272130004
 21
-433.08366863190003
 31
0.0
 12
880.74435467809997
 22
-433.08366863190003
 32
0.0
 13
880.34240869970006
 23
-433.45868934449987
 33
0.0
  0
ENDBLK
  5
265
  8
0
  0
BLOCK
  8
0
  2
*D16
 70
     1
 10
0.0
 20
0.0
 30
0.0
  3
*D16
  1

  0
TEXT
  5
269
  8
0
 62
     0
 10
879.60428370329987
 20
-433.92437646449991
 30
0.0
 40
1.3493749797000001
  1
3.7
 50
90.0
  0
LINE
  5
26A
  8
0
 62
     0
 10
889.7671628728998
 20
-430.88375148239987
 30
0.0
 11
879.34240869970006
 21
-430.88375148239987
 31
0.0
  0
LINE
  5
26B
  8
0
 62
     0
 10
889.7671628728998
 20
-434.58375148239992
 30
0.0
 11
879.34240869970006
 21
-434.58375148239992
 31
0.0
  0
LINE
  5
26C
  8
0
 62
     0
 10
880.34240869970006
 20
-430.88375148239987
 30
0.0
 11
880.34240869970006
 21
-430.88375148239987
 31
0.0
  0
LINE
  5
26D
  8
0
 62
     0
 10
880.34240869970006
 20
-430.88375148239987
 30
0.0
 11
880.34240869970006
 21
-434.58375148239992
 31
0.0
  0
LINE
  5
26E
  8
0
 62
     0
 10
880.34240869970006
 20
-434.58375148239992
 30
0.0
 11
880.34240869970006
 21
-430.88375148239987
 31
0.0
  0
LINE
  5
26F
  8
0
 62
     0
 10
880.34240869970006
 20
-434.58375148239992
 30
0.0
 11
880.34240869970006
 21
-434.58375148239992
 31
0.0
  0
LINE
  5
270
  8
0
 62
     0
 10
880.34240869970006
 20
-434.58375148239992
 30
0.0
 11
880.34240869970006
 21
-432.08375148239992
 31
0.0
  0
SOLID
  5
271
  8
0
 62
     0
 10
880.34240869970006
 20
-434.58375148239992
 30
0.0
 11
879.94046272130004
 21
-433.08366863190003
 31
0.0
 12
880.74435467809997
 22
-433.08366863190003
 32
0.0
 13
880.34240869970006
 23
-433.45868934449987
 33
0.0
  0
LINE
  5
272
  8
0
 62
     0
 10
880.34240869970006
 20
-430.88375148239987
 30
0.0
 11
880.34240869970006
 21
-433.38375148239999
 31
0.0
  0
SOLID
  5
273
  8
0
 62
     0
 10
880.34240869970006
 20
-430.88375148239987
 30
0.0
 11
880.74435467809997
 21
-432.38383433280001
 31
0.0
 12
879.94046272130004
 22
-432.38383433280001
 32
0.0
 13
880.34240869970006
 23
-432.00881362019999
 33
0.0
  0
ENDBLK
  5
274
  8
0
  0
BLOCK
  8
0
  2
*D17
 70
     1
 10
0.0
 20
0.0
 30
0.0
  3
*D17
  1

  0
TEXT
  5
278
  8
0
 62
     0
 10
879.60428370329987
 20
-429.39625145849999
 30
0.0
 40
1.3493749797000001
  1
6.15
 50
90.0
  0
LINE
  5
279
  8
0
 62
     0
 10
892.06716287289987
 20
-424.7337514823999
 30
0.0
 11
879.34240869970006
 21
-424.7337514823999
 31
0.0
  0
LINE
  5
27A
  8
0
 62
     0
 10
889.7671628728998
 20
-430.88375148239987
 30
0.0
 11
879.34240869970006
 21
-430.88375148239987
 31
0.0
  0
LINE
  5
27B
  8
0
 62
     0
 10
880.34240869970006
 20
-424.7337514823999
 30
0.0
 11
880.34240869970006
 21
-425.42750151809992
 31
0.0
  0
LINE
  5
27C
  8
0
 62
     0
 10
880.34240869970006
 20
-424.7337514823999
 30
0.0
 11
880.34240869970006
 21
-430.19000144659998
 31
0.0
  0
LINE
  5
27D
  8
0
 62
     0
 10
880.34240869970006
 20
-430.88375148239987
 30
0.0
 11
880.34240869970006
 21
-425.42750151809992
 31
0.0
  0
LINE
  5
27E
  8
0
 62
     0
 10
880.34240869970006
 20
-430.88375148239987
 30
0.0
 11
880.34240869970006
 21
-430.19000144659998
 31
0.0
  0
LINE
  5
27F
  8
0
 62
     0
 10
880.34240869970006
 20
-430.88375148239987
 30
0.0
 11
880.34240869970006
 21
-433.38375148239999
 31
0.0
  0
SOLID
  5
280
  8
0
 62
     0
 10
880.34240869970006
 20
-430.88375148239987
 30
0.0
 11
880.74435467809997
 21
-432.38383433280001
 31
0.0
 12
879.94046272130004
 22
-432.38383433280001
 32
0.0
 13
880.34240869970006
 23
-432.00881362019999
 33
0.0
  0
LINE
  5
281
  8
0
 62
     0
 10
880.34240869970006
 20
-424.7337514823999
 30
0.0
 11
880.34240869970006
 21
-422.2337514823999
 31
0.0
  0
SOLID
  5
282
  8
0
 62
     0
 10
880.34240869970006
 20
-424.7337514823999
 30
0.0
 11
879.94046272130004
 21
-423.23366863189989
 31
0.0
 12
880.74435467809997
 22
-423.23366863189989
 32
0.0
 13
880.34240869970006
 23
-423.60868934450002
 33
0.0
  0
ENDBLK
  5
283
  8
0
  0
BLOCK
  8
0
  2
*D18
 70
     1
 10
0.0
 20
0.0
 30
0.0
  3
*D18
  1

  0
TEXT
  5
292
  8
0
 62
     0
 10
888.20466289679996
 20
-418.99562648589989
 30
0.0
 40
1.3493749797000001
  1
6.55
  0
LINE
  5
293
  8
0
 62
     0
 10
893.06716287289987
 20
-423.7337514823999
 30
0.0
 11
893.06716287289987
 21
-418.7337514823999
 31
0.0
  0
LINE
  5
294
  8
0
 62
     0
 10
886.51716287289992
 20
-430.03375148240002
 30
0.0
 11
886.51716287289992
 21
-418.7337514823999
 31
0.0
  0
LINE
  5
295
  8
0
 62
     0
 10
893.06716287289987
 20
-419.7337514823999
 30
0.0
 11
892.17341283719986
 21
-419.7337514823999
 31
0.0
  0
LINE
  5
296
  8
0
 62
     0
 10
893.06716287289987
 20
-419.7337514823999
 30
0.0
 11
887.41091290869986
 21
-419.7337514823999
 31
0.0
  0
LINE
  5
297
  8
0
 62
     0
 10
886.51716287289992
 20
-419.7337514823999
 30
0.0
 11
892.17341283719986
 21
-419.7337514823999
 31
0.0
  0
LINE
  5
298
  8
0
 62
     0
 10
886.51716287289992
 20
-419.7337514823999
 30
0.0
 11
887.41091290869986
 21
-419.7337514823999
 31
0.0
  0
LINE
  5
299
  8
0
 62
     0
 10
886.51716287289992
 20
-419.7337514823999
 30
0.0
 11
884.01716287289992
 21
-419.7337514823999
 31
0.0
  0
SOLID
  5
29A
  8
0
 62
     0
 10
886.51716287289992
 20
-419.7337514823999
 30
0.0
 11
885.01708002249995
 21
-420.13569746079997
 31
0.0
 12
885.01708002249995
 22
-419.33180550399987
 32
0.0
 13
885.39210073509992
 23
-419.7337514823999
 33
0.0
  0
LINE
  5
29B
  8
0
 62
     0
 10
893.06716287289987
 20
-419.7337514823999
 30
0.0
 11
895.56716287289998
 21
-419.7337514823999
 31
0.0
  0
SOLID
  5
29C
  8
0
 62
     0
 10
893.06716287289987
 20
-419.7337514823999
 30
0.0
 11
894.56724572339999
 21
-419.33180550399987
 31
0.0
 12
894.56724572339999
 22
-420.13569746079997
 32
0.0
 13
894.19222501080003
 23
-419.7337514823999
 33
0.0
  0
ENDBLK
  5
29D
  8
0
  0
BLOCK
  8
0
  2
*D19
 70
     1
 10
0.0
 20
0.0
 30
0.0
  3
*D19
  1

  0
TEXT
  5
2A3
  8
0
 62
     0
 10
916.02903787649996
 20
-462.37809179679999
 30
0.0
 40
1.3493749797000001
  1
0.5
 50
90.0
  0
LINE
  5
2A4
  8
0
 62
     0
 10
912.7671628728998
 20
-463.17681288889997
 30
0.0
 11
917.76716287289992
 21
-463.17681288889997
 31
0.0
  0
LINE
  5
2A5
  8
0
 62
     0
 10
911.26716287290003
 20
-462.67681288889997
 30
0.0
 11
917.76716287289992
 21
-462.67681288889997
 31
0.0
  0
LINE
  5
2A6
  8
0
 62
     0
 10
916.76716287289992
 20
-463.17681288889997
 30
0.0
 11
916.76716287289992
 21
-459.20309184449991
 31
0.0
  0
LINE
  5
2A7
  8
0
 62
     0
 10
916.76716287289992
 20
-463.17681288889997
 30
0.0
 11
916.76716287289992
 21
-463.17184178479999
 31
0.0
  0
LINE
  5
2A8
  8
0
 62
     0
 10
916.76716287289992
 20
-462.67681288889997
 30
0.0
 11
916.76716287289992
 21
-459.20309184449991
 31
0.0
  0
LINE
  5
2A9
  8
0
 62
     0
 10
916.76716287289992
 20
-462.67681288889997
 30
0.0
 11
916.76716287289992
 21
-463.17184178479999
 31
0.0
  0
LINE
  5
2AA
  8
0
 62
     0
 10
916.76716287289992
 20
-462.67681288889997
 30
0.0
 11
916.76716287289992
 21
-460.17681288889992
 31
0.0
  0
SOLID
  5
2AB
  8
0
 62
     0
 10
916.76716287289992
 20
-462.67681288889997
 30
0.0
 11
916.36521689450012
 21
-461.17673003839991
 31
0.0
 12
917.16910885130005
 22
-461.17673003839991
 32
0.0
 13
916.76716287289992
 23
-461.55175075099987
 33
0.0
  0
LINE
  5
2AC
  8
0
 62
     0
 10
916.76716287289992
 20
-463.17681288889997
 30
0.0
 11
916.76716287289992
 21
-465.67681288889992
 31
0.0
  0
SOLID
  5
2AD
  8
0
 62
     0
 10
916.76716287289992
 20
-463.17681288889997
 30
0.0
 11
917.16910885130005
 21
-464.67689573929999
 31
0.0
 12
916.36521689450012
 22
-464.67689573929999
 32
0.0
 13
916.76716287289992
 23
-464.30187502669997
 33
0.0
  0
ENDBLK
  5
2AE
  8
0
  0
BLOCK
  8
0
  2
*D20
 70
     1
 10
0.0
 20
0.0
 30
0.0
  3
*D20
  1

  0
TEXT
  5
2B3
  8
0
 62
     0
 10
915.99259183449988
 20
-425.03381630339987
 30
0.0
 40
1.3493749797000001
  1
%%c13
 50
30.0
  0
LINE
  5
2B4
  8
0
 62
     0
 10
909.39632799749995
 20
-429.4837514823999
 30
0.0
 11
919.02003494610005
 21
-423.92750168499992
 31
0.0
  0
SOLID
  5
2B5
  8
0
 62
     0
 10
909.39632799749995
 20
-429.4837514823999
 30
0.0
 11
910.49446486459999
 21
-428.38561462889987
 31
0.0
 12
910.8964108429999
 22
-429.08180548540003
 32
0.0
 13
910.37066038969999
 23
-428.92122041339991
 33
0.0
  0
ENDBLK
  5
2B6
  8
0
  0
BLOCK
  8
0
  2
*D21
 70
     1
 10
0.0
 20
0.0
 30
0.0
  3
*D21
  1

  0
TEXT
  5
2BB
  8
0
 62
     0
 10
918.19095875879998
 20
-440.41975344280002
 30
0.0
 40
1.3493749797000001
  1
R8
 50
330.0
  0
LINE
  5
2BC
  8
0
 62
     0
 10
910.69536610320006
 20
-436.7337514823999
 30
0.0
 11
919.97536922479981
 21
-442.09156378270001
 31
0.0
  0
SOLID
  5
2BD
  8
0
 62
     0
 10
910.69536610320006
 20
-436.7337514823999
 30
0.0
 11
912.1954489487
 21
-437.13569747930001
 31
0.0
 12
911.79350297029998
 22
-437.83188833579999
 32
0.0
 13
911.66969849539998
 23
-437.2962825512999
 33
0.0
  0
ENDBLK
  5
2BE
  8
0
  0
BLOCK
  8
0
  2
CLUMP1
 70
     0
 10
0.0
 20
0.0
 30
0.0
  3
CLUMP1
  1

  0
LINE
  5
2C3
  8
É}ÿg
 62
     5
 10
908.76748971189988
 20
-406.31418439719988
 30
0.0
 11
955.76748971189988
 21
-406.31418439719988
 31
0.0
  0
LINE
  5
2C4
  8
É}ÿg
 62
     5
 10
908.76748971189988
 20
-403.81418439719999
 30
0.0
 11
955.76748971189988
 21
-403.81418439719999
 31
0.0
  0
LINE
  5
2C5
  8
É}ÿg
 62
     5
 10
920.7674897119
 20
-408.81418439719999
 30
0.0
 11
920.7674897119
 21
-401.31418439719988
 31
0.0
  0
INSERT
  5
2C6
  8
0
  6
CONTINUOUS
  2
*U63
 10
0.0
 20
0.0
 30
0.0
  0
LINE
  5
2C7
  8
É}ÿg
 62
     5
 10
908.76748971189988
 20
-408.81418439719999
 30
0.0
 11
955.76748971189988
 21
-408.81418439719999
 31
0.0
  0
INSERT
  5
2C9
  8
0
  6
CONTINUOUS
  2
*U64
 10
0.0
 20
0.0
 30
0.0
  0
LINE
  5
2CA
  8
É}ÿg
 62
     5
 10
908.76748971189988
 20
-408.81418439719999
 30
0.0
 11
908.76748971189988
 21
-401.31418439719988
 31
0.0
  0
LINE
  5
2CB
  8
É}ÿg
 62
     5
 10
909.38784701889983
 20
-408.57378852170001
 30
0.0
 11
911.86284701889986
 21
-408.57378852170001
 31
0.0
  0
LINE
  5
2CC
  8
É}ÿg
 62
     5
 10
910.62534701890013
 20
-406.43037564730002
 30
0.0
 11
911.86284701889986
 21
-408.57378852170001
 31
0.0
  0
LINE
  5
2CD
  8
É}ÿg
 62
     5
 10
910.62534701890013
 20
-406.43037564730002
 30
0.0
 11
909.38784701889983
 21
-408.57378852170001
 31
0.0
  0
LINE
  5
2CE
  8
É}ÿg
 62
     5
 10
910.62534701890013
 20
-403.9553756473
 30
0.0
 11
909.38784701889983
 21
-406.09878852169999
 31
0.0
  0
LINE
  5
2CF
  8
É}ÿg
 62
     5
 10
910.62534701890013
 20
-403.9553756473
 30
0.0
 11
911.86284701889986
 21
-406.09878852169999
 31
0.0
  0
LINE
  5
2D0
  8
É}ÿg
 62
     5
 10
909.38784701889983
 20
-406.09878852169999
 30
0.0
 11
911.86284701889986
 21
-406.09878852169999
 31
0.0
  0
LINE
  5
2D1
  8
É}ÿg
 62
     5
 10
912.7674897119
 20
-408.81418439719999
 30
0.0
 11
912.7674897119
 21
-401.31418439719988
 31
0.0
  0
INSERT
  5
2D2
  8
0
  6
CONTINUOUS
  2
*U65
 10
0.0
 20
0.0
 30
0.0
  0
INSERT
  5
2D3
  8
0
  6
CONTINUOUS
  2
*U66
 10
0.0
 20
0.0
 30
0.0
  0
LINE
  5
2D4
  8
É}ÿg
 62
     5
 10
950.76748971190011
 20
-408.81418439719999
 30
0.0
 11
950.76748971190011
 21
-401.31418439719988
 31
0.0
  0
LINE
  5
2D5
  8
É}ÿg
 62
     5
 10
945.7674897119
 20
-408.81418439719999
 30
0.0
 11
945.7674897119
 21
-401.31418439719988
 31
0.0
  0
INSERT
  5
2D6
  8
0
  6
CONTINUOUS
  2
*U67
 10
0.0
 20
0.0
 30
0.0
  0
INSERT
  5
2D7
  8
0
  6
CONTINUOUS
  2
*U68
 10
0.0
 20
0.0
 30
0.0
  0
ENDBLK
  5
2D8
  8
0
  0
BLOCK
  8
0
  2
BALLON1
 70
     0
 10
0.0
 20
0.0
 30
0.0
  3
BALLON1
  1

  0
INSERT
  5
2DC
  8
0
  6
CONTINUOUS
  2
*U69
 10
0.0
 20
0.0
 30
0.0
  0
CIRCLE
  5
2DD
  8
┌▓È_1
 10
1243.0256497954999
 20
-320.802235188
 30
0.0
 40
2.0
  0
LINE
  5
2DE
  8
Éíû@É³
 10
1239.6923164622001
 20
-320.802235188
 30
0.0
 11
1241.0256497954999
 21
-320.802235188
 31
0.0
  0
LINE
  5
2DF
  8
Éíû@É³
 10
1226.5494030857999
 20
-331.8964871819
 30
0.0
 11
1239.6923164622001
 21
-320.802235188
 31
0.0
  0
SOLID
  5
2E0
  8
Éíû@É³
 10
1226.5494030857999
 20
-331.8964871819
 30
0.0
 11
1227.8196889131
 21
-330.30075101429998
 31
0.0
 12
1227.7720439018999
 22
-330.86442641100001
 32
0.0
 13
1227.7720439018999
 23
-330.86442641100001
 33
0.0
  0
SOLID
  5
2E1
  8
Éíû@É³
 10
1227.7720439018999
 20
-330.86442641100001
 30
0.0
 11
1228.3357192986
 21
-330.91207142230002
 31
0.0
 12
1226.5494030857999
 22
-331.8964871819
 32
0.0
 13
1226.5494030857999
 23
-331.8964871819
 33
0.0
  0
ENDBLK
  5
2E2
  8
0
  0
BLOCK
  8
0
  2
*X24
 70
     1
 10
0.0
 20
0.0
 30
0.0
  3
*X24
  1

  0
LINE
  5
301
  8
┌▓È_1
 62
     5
 10
930.03985510119992
 20
-462.92614655279988
 30
0.0
 11
930.28918876509999
 21
-462.67681288889997
 31
0.0
  0
LINE
  5
302
  8
┌▓È_1
 62
     5
 10
930.0543538080999
 20
-463.17681288889997
 30
0.0
 11
930.55435380810002
 21
-462.67681288889997
 31
0.0
  0
LINE
  5
303
  8
┌▓È_1
 62
     5
 10
930.31951885100011
 20
-463.17681288889997
 30
0.0
 11
930.81951885100011
 21
-462.67681288889997
 31
0.0
  0
LINE
  5
304
  8
┌▓È_1
 62
     5
 10
931.64534406579992
 20
-463.17681288889997
 30
0.0
 11
932.14534406580003
 21
-462.67681288889997
 31
0.0
  0
LINE
  5
305
  8
┌▓È_1
 62
     5
 10
931.9105091086999
 20
-463.17681288889997
 30
0.0
 11
932.41050910869978
 21
-462.67681288889997
 31
0.0
  0
LINE
  5
306
  8
┌▓È_1
 62
     5
 10
932.17567415159988
 20
-463.17681288889997
 30
0.0
 11
932.67567415159999
 21
-462.67681288889997
 31
0.0
  0
LINE
  5
307
  8
┌▓È_1
 62
     5
 10
932.44083919460013
 20
-463.17681288889997
 30
0.0
 11
932.94083919460002
 21
-462.67681288889997
 31
0.0
  0
LINE
  5
308
  8
┌▓È_1
 62
     5
 10
933.76666440929989
 20
-463.17681288889997
 30
0.0
 11
934.26666440929978
 21
-462.67681288889997
 31
0.0
  0
LINE
  5
309
  8
┌▓È_1
 62
     5
 10
934.03182945229992
 20
-463.17681288889997
 30
0.0
 11
934.5318294522998
 21
-462.67681288889997
 31
0.0
  0
LINE
  5
30A
  8
┌▓È_1
 62
     5
 10
934.29699449520012
 20
-463.17681288889997
 30
0.0
 11
934.79699449520001
 21
-462.67681288889997
 31
0.0
  0
LINE
  5
30B
  8
┌▓È_1
 62
     5
 10
934.56215953809999
 20
-463.17681288889997
 30
0.0
 11
935.06215953809988
 21
-462.67681288889997
 31
0.0
  0
LINE
  5
30C
  8
┌▓È_1
 62
     5
 10
935.88798475289991
 20
-463.17681288889997
 30
0.0
 11
936.3879847528998
 21
-462.67681288889997
 31
0.0
  0
LINE
  5
30D
  8
┌▓È_1
 62
     5
 10
936.15314979579989
 20
-463.17681288889997
 30
0.0
 11
936.6531497958
 21
-462.67681288889997
 31
0.0
  0
LINE
  5
30E
  8
┌▓È_1
 62
     5
 10
936.41831483880014
 20
-463.17681288889997
 30
0.0
 11
936.91831483880003
 21
-462.67681288889997
 31
0.0
  0
LINE
  5
30F
  8
┌▓È_1
 62
     5
 10
936.68347988170001
 20
-463.17681288889997
 30
0.0
 11
937.1834798816999
 21
-462.67681288889997
 31
0.0
  0
LINE
  5
310
  8
┌▓È_1
 62
     5
 10
938.00930509639988
 20
-463.17681288889997
 30
0.0
 11
938.5093050964
 21
-462.67681288889997
 31
0.0
  0
LINE
  5
311
  8
┌▓È_1
 62
     5
 10
938.27447013940014
 20
-463.17681288889997
 30
0.0
 11
938.77447013940002
 21
-462.67681288889997
 31
0.0
  0
LINE
  5
312
  8
┌▓È_1
 62
     5
 10
938.53963518230012
 20
-463.17681288889997
 30
0.0
 11
939.0396351823
 21
-462.67681288889997
 31
0.0
  0
LINE
  5
313
  8
┌▓È_1
 62
     5
 10
938.80480022530003
 20
-463.17681288889997
 30
0.0
 11
939.30480022529991
 21
-462.67681288889997
 31
0.0
  0
LINE
  5
314
  8
┌▓È_1
 62
     5
 10
940.1306254399999
 20
-463.17681288889997
 30
0.0
 11
940.63062544000002
 21
-462.67681288889997
 31
0.0
  0
LINE
  5
315
  8
┌▓È_1
 62
     5
 10
940.39579048289988
 20
-463.17681288889997
 30
0.0
 11
940.89579048289977
 21
-462.67681288889997
 31
0.0
  0
LINE
  5
316
  8
┌▓È_1
 62
     5
 10
940.66095552589991
 20
-463.17681288889997
 30
0.0
 11
941.16095552590002
 21
-462.67681288889997
 31
0.0
  0
LINE
  5
317
  8
┌▓È_1
 62
     5
 10
940.9261205688
 20
-463.17681288889997
 30
0.0
 11
941.42612056879989
 21
-462.67681288889997
 31
0.0
  0
LINE
  5
318
  8
┌▓È_1
 62
     5
 10
942.25194578360015
 20
-463.17681288889997
 30
0.0
 11
942.75194578360004
 21
-462.67681288889997
 31
0.0
  0
LINE
  5
319
  8
┌▓È_1
 62
     5
 10
942.5171108264999
 20
-463.17681288889997
 30
0.0
 11
943.01711082649979
 21
-462.67681288889997
 31
0.0
  0
LINE
  5
31A
  8
┌▓È_1
 62
     5
 10
942.7822758694
 20
-463.17681288889997
 30
0.0
 11
943.03985510119981
 21
-462.91923365719998
 31
0.0
  0
ENDBLK
  5
31B
  8
0
  0
BLOCK
  8
0
  2
*D25
 70
     1
 10
0.0
 20
0.0
 30
0.0
  3
*D25
  1

  0
TEXT
  5
329
  8
0
 62
     0
 10
935.74610511309982
 20
-450.5827232318
 30
0.0
 40
1.3493749797000001
  1
16
  0
LINE
  5
32A
  8
0
 62
     0
 10
944.53985510119992
 20
-462.17681288889997
 30
0.0
 11
944.53985510119992
 21
-450.32084822819991
 31
0.0
  0
LINE
  5
32B
  8
0
 62
     0
 10
928.53985510119992
 20
-462.17681288889997
 30
0.0
 11
928.53985510119992
 21
-450.32084822819991
 31
0.0
  0
LINE
  5
32C
  8
0
 62
     0
 10
944.53985510119992
 20
-451.32084822820002
 30
0.0
 11
938.12735507729997
 21
-451.32084822820002
 31
0.0
  0
LINE
  5
32D
  8
0
 62
     0
 10
944.53985510119992
 20
-451.32084822820002
 30
0.0
 11
934.95235512499994
 21
-451.32084822820002
 31
0.0
  0
LINE
  5
32E
  8
0
 62
     0
 10
928.53985510119992
 20
-451.32084822820002
 30
0.0
 11
938.12735507729997
 21
-451.32084822820002
 31
0.0
  0
LINE
  5
32F
  8
0
 62
     0
 10
928.53985510119992
 20
-451.32084822820002
 30
0.0
 11
934.95235512499994
 21
-451.32084822820002
 31
0.0
  0
LINE
  5
330
  8
0
 62
     0
 10
928.53985510119992
 20
-451.32084822820002
 30
0.0
 11
931.03985510119992
 21
-451.32084822820002
 31
0.0
  0
SOLID
  5
331
  8
0
 62
     0
 10
928.53985510119992
 20
-451.32084822820002
 30
0.0
 11
930.03993795159988
 21
-450.9189022498
 31
0.0
 12
930.03993795159988
 22
-451.72279420659999
 32
0.0
 13
929.66491723899992
 23
-451.32084822820002
 33
0.0
  0
LINE
  5
332
  8
0
 62
     0
 10
944.53985510119992
 20
-451.32084822820002
 30
0.0
 11
942.03985510119992
 21
-451.32084822820002
 31
0.0
  0
SOLID
  5
333
  8
0
 62
     0
 10
944.53985510119992
 20
-451.32084822820002
 30
0.0
 11
943.03977225070014
 21
-451.72279420659999
 31
0.0
 12
943.03977225070014
 22
-450.9189022498
 32
0.0
 13
943.41479296329987
 23
-451.32084822820002
 33
0.0
  0
ENDBLK
  5
334
  8
0
  0
BLOCK
  8
0
  2
*U26
 70
     1
 10
0.0
 20
0.0
 30
0.0
  3
*U26
  1

  0
TEXT
  5
413
  8
É}ÿg
  6
CONTINUOUS
 10
900.30243577788974
 20
-527.60943206526701
 30
0.0
 40
1.1687499999999991
  1
ô· ü@òt
  0
ENDBLK
  5
415
  8
0
  0
BLOCK
  8
0
  2
*U27
 70
     1
 10
0.0
 20
0.0
 30
0.0
  3
*U27
  1

  0
TEXT
  5
417
  8
┌▓È_1
  6
CONTINUOUS
 10
899.50053928656621
 20
-514.25098990770005
 30
0.0
 40
1.4993055104999999
  1
1
  0
ENDBLK
  5
419
  8
0
  0
BLOCK
  8
0
  2
*U28
 70
     1
 10
0.0
 20
0.0
 30
0.0
  3
*U28
  1

  0
TEXT
  5
41B
  8
┌▓È_1
  6
CONTINUOUS
 10
1247.0298488259421
 20
-357.46247032539998
 30
0.0
 40
1.3493749797000001
  1
1
  0
ENDBLK
  5
41D
  8
0
  0
BLOCK
  8
0
  2
*U29
 70
     1
 10
0.0
 20
0.0
 30
0.0
  3
*U29
  1

  0
TEXT
  5
41F
  8
┌▓È_1
  6
CONTINUOUS
 10
899.41301637605477
 20
-511.55598990769988
 30
0.0
 40
1.4993055104999999
  1
2
  0
ENDBLK
  5
421
  8
0
  0
BLOCK
  8
0
  2
*U30
 70
     1
 10
0.0
 20
0.0
 30
0.0
  3
*U30
  1

  0
TEXT
  5
423
  8
É}ÿg
  6
CONTINUOUS
 10
898.4682194073315
 20
-534.02002851196755
 30
0.0
 40
1.1687499999999991
  1
É╗É}
  0
ENDBLK
  5
425
  8
0
  0
BLOCK
  8
0
  2
*U31
 70
     1
 10
0.0
 20
0.0
 30
0.0
  3
*U31
  1

  0
TEXT
  5
427
  8
É}ÿg
  6
CONTINUOUS
 10
899.72399351900663
 20
-529.71070110080007
 30
0.0
 40
1.1687499999999991
  1
H15.6.20
  0
ENDBLK
  5
429
  8
0
  0
BLOCK
  8
0
  2
*U32
 70
     1
 10
0.0
 20
0.0
 30
0.0
  3
*U32
  1

  0
TEXT
  5
42B
  8
┌▓È_1
  6
CONTINUOUS
 10
898.18386029500664
 20
-517.00190011232235
 30
0.0
 40
1.4024999796999991
  1
òiöÈ
  0
ENDBLK
  5
42D
  8
0
  0
BLOCK
  8
0
  2
*U33
 70
     1
 10
0.0
 20
0.0
 30
0.0
  3
*U33
  1

  0
TEXT
  5
42F
  8
É}ÿg
  6
CONTINUOUS
 10
897.76748971189988
 20
-531.88316302973396
 30
0.0
 40
1.1687499999999991
  1
 É¦îv
  0
ENDBLK
  5
431
  8
0
  0
BLOCK
  8
0
  2
*U34
 70
     1
 10
0.0
 20
0.0
 30
0.0
  3
*U34
  1

  0
TEXT
  5
433
  8
É}ÿg
  6
CONTINUOUS
 10
899.87776657429981
 20
-537.70707112298317
 30
0.0
 40
2.1589999675999989
  1
èöÄ«ë´Äð
  0
ENDBLK
  5
435
  8
0
  0
BLOCK
  8
0
  2
*U35
 70
     1
 10
0.0
 20
0.0
 30
0.0
  3
*U35
  1

  0
TEXT
  5
437
  8
É}ÿg
  6
CONTINUOUS
 10
899.21140473799073
 20
-525.35923513698174
 30
0.0
 40
1.4024999796999991
  1
êÛö╩î÷ìÀ
  0
ENDBLK
  5
439
  8
0
  0
BLOCK
  8
0
  2
*U36
 70
     1
 10
0.0
 20
0.0
 30
0.0
  3
*U36
  1

  0
TEXT
  5
43B
  8
É}ÿg
  6
CONTINUOUS
 10
899.17580829180531
 20
-522.58075798003335
 30
0.0
 40
1.4024999796999991
  1
ò\û╩ÅêùØ
  0
ENDBLK
  5
43D
  8
0
  0
BLOCK
  8
0
  2
*U37
 70
     1
 10
0.0
 20
0.0
 30
0.0
  3
*U37
  1

  0
TEXT
  5
43F
  8
┌▓È_1
  6
CONTINUOUS
 10
874.2778381103999
 20
-533.41519272159985
 30
0.0
 40
2.099027836299999
  1
érü@1üF1
  0
ENDBLK
  5
441
  8
0
  0
BLOCK
  8
0
  2
*U38
 70
     1
 10
0.0
 20
0.0
 30
0.0
  3
*U38
  1

  0
TEXT
  5
443
  8
┌▓È_1
  6
CONTINUOUS
 10
927.52877784793634
 20
-517.00901940155927
 30
0.0
 40
1.4024999796999991
  1
ìÌü@ü@ü@Ä┐
  0
ENDBLK
  5
445
  8
0
  0
BLOCK
  8
0
  2
*U39
 70
     1
 10
0.0
 20
0.0
 30
0.0
  3
*U39
  1

  0
TEXT
  5
447
  8
┌▓È_1
  6
CONTINUOUS
 62
     5
 10
914.74104435300717
 20
-494.21397871144723
 30
0.0
 40
1.7991665721000001
  1
ò\ü@û╩ü@ÉFüFLA-621ü@ü@ü@âVâïâoü[
  0
TEXT
  5
448
  8
┌▓È_1
  6
CONTINUOUS
 62
     5
 10
914.74104435300717
 20
-500.39385712322888
 30
0.0
 40
1.7991665721000001
  1
ü@ü@ü@ü@ü@ü@LA-622ü@ü@ü@âuâëâbâN
  0
TEXT
  5
449
  8
┌▓È_1
  6
CONTINUOUS
 62
     5
 10
914.74104435300717
 20
-506.57373553501071
 30
0.0
 40
1.7991665721000001
  1
ü@ü@ü@ü@ü@ü@LA-623ü@ü@ü@âuâìâôâY
  0
ENDBLK
  5
44B
  8
0
  0
BLOCK
  8
0
  2
*U40
 70
     1
 10
0.0
 20
0.0
 30
0.0
  3
*U40
  1

  0
TEXT
  5
44D
  8
É}ÿg
  6
CONTINUOUS
 10
920.18509757992035
 20
-531.83570110079995
 30
0.0
 40
1.1687499999999991
  1
üûüûüû
  0
ENDBLK
  5
44F
  8
0
  0
BLOCK
  8
0
  2
*U41
 70
     1
 10
0.0
 20
0.0
 30
0.0
  3
*U41
  1

  0
TEXT
  5
451
  8
┌▓È_1
  6
CONTINUOUS
 10
929.59729096906244
 20
-514.25098990770005
 30
0.0
 40
1.4993055104999999
  1
ZDC-2
  0
ENDBLK
  5
453
  8
0
  0
BLOCK
  8
0
  2
*U42
 70
     1
 10
0.0
 20
0.0
 30
0.0
  3
*U42
  1

  0
TEXT
  5
455
  8
┌▓È_1
  6
CONTINUOUS
 10
928.35294350222614
 20
-511.62448609853499
 30
0.0
 40
1.4993055104999999
  1
éoédÄ¸Äë
  0
ENDBLK
  5
457
  8
0
  0
BLOCK
  8
0
  2
*U43
 70
     1
 10
0.0
 20
0.0
 30
0.0
  3
*U43
  1

  0
TEXT
  5
459
  8
É}ÿg
  6
CONTINUOUS
 10
916.36846709214808
 20
-525.34499655850755
 30
0.0
 40
1.4024999796999991
  1
ÄwÆÞû│é½î÷ìÀé═JIS 0408-Bé╔éµéÚé▒éã
  0
ENDBLK
  5
45B
  8
0
  0
BLOCK
  8
0
  2
*U44
 70
     1
 10
0.0
 20
0.0
 30
0.0
  3
*U44
  1

  0
TEXT
  5
45D
  8
É}ÿg
  6
CONTINUOUS
 10
920.18509757992035
 20
-533.96070110079995
 30
0.0
 40
1.1687499999999991
  1
üûüûüû
  0
ENDBLK
  5
45F
  8
0
  0
BLOCK
  8
0
  2
*U45
 70
     1
 10
0.0
 20
0.0
 30
0.0
  3
*U45
  1

  0
TEXT
  5
461
  8
É}ÿg
  6
CONTINUOUS
 10
910.17784821443797
 20
-527.64502851196755
 30
0.0
 40
1.1687499999999991
  1
Ä┌ ü@ôx
  0
ENDBLK
  5
463
  8
0
  0
BLOCK
  8
0
  2
*U46
 70
     1
 10
0.0
 20
0.0
 30
0.0
  3
*U46
  1

  0
TEXT
  5
465
  8
É}ÿg
  6
CONTINUOUS
 10
927.90627461037718
 20
-536.01853084390052
 30
0.0
 40
1.1687499999999991
  1
É}ü@öÈ
  0
ENDBLK
  5
467
  8
0
  0
BLOCK
  8
0
  2
*U47
 70
     1
 10
0.0
 20
0.0
 30
0.0
  3
*U47
  1

  0
TEXT
  5
469
  8
É}ÿg
  6
CONTINUOUS
 10
927.91220735149386
 20
-531.78039632613411
 30
0.0
 40
1.1687499999999991
  1
É}û╩û╝
  0
ENDBLK
  5
46B
  8
0
  0
BLOCK
  8
0
  2
*U48
 70
     1
 10
0.0
 20
0.0
 30
0.0
  3
*U48
  1

  0
TEXT
  5
46D
  8
É}ÿg
  6
CONTINUOUS
 10
912.7674897119
 20
-531.88909577085064
 30
0.0
 40
1.1687499999999991
  1
 Åãì©
  0
ENDBLK
  5
46F
  8
0
  0
BLOCK
  8
0
  2
*U49
 70
     1
 10
0.0
 20
0.0
 30
0.0
  3
*U49
  1

  0
TEXT
  5
471
  8
É}ÿg
  6
CONTINUOUS
 10
912.7674897119
 20
-534.02596125308423
 30
0.0
 40
1.1687499999999991
  1
 îƒÉ}
  0
ENDBLK
  5
473
  8
0
  0
BLOCK
  8
0
  2
*U50
 70
     1
 10
0.0
 20
0.0
 30
0.0
  3
*U50
  1

  0
TEXT
  5
475
  8
É}ÿg
  6
CONTINUOUS
 10
905.84363184387973
 20
-533.9903648063837
 30
0.0
 40
1.1687499999999991
  1
ëÇî┤
  0
ENDBLK
  5
477
  8
0
  0
BLOCK
  8
0
  2
*U51
 70
     1
 10
0.0
 20
0.0
 30
0.0
  3
*U51
  1

  0
TEXT
  5
479
  8
É}ÿg
  6
CONTINUOUS
 10
911.36143006722989
 20
-529.71070110080007
 30
0.0
 40
1.1687499999999991
  1
2üF1
  0
ENDBLK
  5
47B
  8
0
  0
BLOCK
  8
0
  2
*U52
 70
     1
 10
0.0
 20
0.0
 30
0.0
  3
*U52
  1

  0
TEXT
  5
47D
  8
É}ÿg
  6
CONTINUOUS
 10
905.84363184387973
 20
-531.86536480638381
 30
0.0
 40
1.1687499999999991
  1
ëÇî┤
  0
ENDBLK
  5
47F
  8
0
  0
BLOCK
  8
0
  2
*U53
 70
     1
 10
0.0
 20
0.0
 30
0.0
  3
*U53
  1

  0
TEXT
  5
481
  8
┌▓È_1
  6
CONTINUOUS
 10
909.38419170868679
 20
-511.63209678640561
 30
0.0
 40
1.4993055104999999
  1
è╔ÅıìÌ
  0
ENDBLK
  5
483
  8
0
  0
BLOCK
  8
0
  2
*U54
 70
     1
 10
0.0
 20
0.0
 30
0.0
  3
*U54
  1

  0
TEXT
  5
485
  8
┌▓È_1
  6
CONTINUOUS
 10
907.36355407905353
 20
-514.33470747427623
 30
0.0
 40
1.4993055104999999
  1
âtâbâNû{æ╠
  0
ENDBLK
  5
487
  8
0
  0
BLOCK
  8
0
  2
*U55
 70
     1
 10
0.0
 20
0.0
 30
0.0
  3
*U55
  1

  0
TEXT
  5
489
  8
┌▓È_1
  6
CONTINUOUS
 10
907.58217251721419
 20
-517.01613869079642
 30
0.0
 40
1.4024999796999991
  1
òiü@ü@ü@û╝
  0
ENDBLK
  5
48B
  8
0
  0
BLOCK
  8
0
  2
*U56
 70
     1
 10
0.0
 20
0.0
 30
0.0
  3
*U56
  1

  0
TEXT
  5
48D
  8
┌▓È_1
  6
CONTINUOUS
 10
944.15084631619163
 20
-511.5166843888
 30
0.0
 40
1.4024999796999991
  1
1
  0
ENDBLK
  5
48F
  8
0
  0
BLOCK
  8
0
  2
*U57
 70
     1
 10
0.0
 20
0.0
 30
0.0
  3
*U57
  1

  0
TEXT
  5
491
  8
┌▓È_1
  6
CONTINUOUS
 10
944.15084631619163
 20
-514.26668438879994
 30
0.0
 40
1.4024999796999991
  1
1
  0
ENDBLK
  5
493
  8
0
  0
BLOCK
  8
0
  2
*U58
 70
     1
 10
0.0
 20
0.0
 30
0.0
  3
*U58
  1

  0
TEXT
  5
495
  8
┌▓È_1
  6
CONTINUOUS
 10
942.76258491496583
 20
-517.0303772692705
 30
0.0
 40
1.4024999796999991
  1
Éöù╩
  0
ENDBLK
  5
497
  8
0
  0
BLOCK
  8
0
  2
*U59
 70
     1
 10
0.0
 20
0.0
 30
0.0
  3
*U59
  1

  0
TEXT
  5
499
  8
É}ÿg
  6
CONTINUOUS
 10
927.87957727535183
 20
-527.54226180836747
 30
0.0
 40
1.1687499999999991
  1
É╗òiû╝
  0
ENDBLK
  5
49B
  8
0
  0
BLOCK
  8
0
  2
*U60
 70
     1
 10
0.0
 20
0.0
 30
0.0
  3
*U60
  1

  0
TEXT
  5
49D
  8
É}ÿg
  6
CONTINUOUS
 10
939.60866376141519
 20
-537.30598990769988
 30
0.0
 40
1.4993055104999999
  1
SLA00002
  0
ENDBLK
  5
49F
  8
0
  0
BLOCK
  8
0
  2
*U61
 70
     1
 10
0.0
 20
0.0
 30
0.0
  3
*U61
  1

  0
TEXT
  5
4A1
  8
É}ÿg
  6
CONTINUOUS
 10
938.87423238190615
 20
-533.08643265918215
 30
0.0
 40
1.4993055104999999
  1
étî^âtâbâN
  0
ENDBLK
  5
4A3
  8
0
  0
BLOCK
  8
0
  2
*U62
 70
     1
 10
0.0
 20
0.0
 30
0.0
  3
*U62
  1

  0
TEXT
  5
4A5
  8
É}ÿg
  6
CONTINUOUS
 10
938.69538121694814
 20
-528.88209678640555
 30
0.0
 40
1.4993055104999999
  1
âXâèâÇÆIÆî
  0
ENDBLK
  5
4A7
  8
0
  0
BLOCK
  8
0
  2
*U63
 70
     1
 10
0.0
 20
0.0
 30
0.0
  3
*U63
  1

  0
TEXT
  5
4A9
  8
É}ÿg
  6
CONTINUOUS
 10
927.23297520877452
 20
-403.1895555687629
 30
0.0
 40
1.3493749797000001
  1
ë³ü@Æ¨ü@ôÓü@ùe
  0
ENDBLK
  5
4AB
  8
0
  0
BLOCK
  8
0
  2
*U64
 70
     1
 10
0.0
 20
0.0
 30
0.0
  3
*U64
  1

  0
TEXT
  5
4AD
  8
ë³Æ¨
  6
CONTINUOUS
 10
910.27259162973405
 20
-405.92325551059997
 30
0.0
 40
1.3493749837999991
  1
1
  0
ENDBLK
  5
4AF
  8
0
  0
BLOCK
  8
0
  2
*U65
 70
     1
 10
0.0
 20
0.0
 30
0.0
  3
*U65
  1

  0
TEXT
  5
4B1
  8
É}ÿg
  6
CONTINUOUS
 10
909.07905858247841
 20
-403.16215709201782
 30
0.0
 40
1.3493749797000001
  1
òøöÈ
  0
ENDBLK
  5
4B3
  8
0
  0
BLOCK
  8
0
  2
*U66
 70
     1
 10
0.0
 20
0.0
 30
0.0
  3
*U66
  1

  0
TEXT
  5
4B5
  8
É}ÿg
  6
CONTINUOUS
 10
914.19545770744639
 20
-403.17585633039027
 30
0.0
 40
1.3493749797000001
  1
ë³Æ¨ô·
  0
ENDBLK
  5
4B7
  8
0
  0
BLOCK
  8
0
  2
*U67
 70
     1
 10
0.0
 20
0.0
 30
0.0
  3
*U67
  1

  0
TEXT
  5
4B9
  8
É}ÿg
  6
CONTINUOUS
 10
945.76737870890258
 20
-403.1895555687629
 30
0.0
 40
1.3493749797000001
  1
ë³Æ¨ÄÊ
  0
ENDBLK
  5
4BB
  8
0
  0
BLOCK
  8
0
  2
*U68
 70
     1
 10
0.0
 20
0.0
 30
0.0
  3
*U68
  1

  0
TEXT
  5
4BD
  8
É}ÿg
  6
CONTINUOUS
 10
950.7468298513437
 20
-403.19640518794932
 30
0.0
 40
1.3493749797000001
  1
îƒöFÄÊ
  0
ENDBLK
  5
4BF
  8
0
  0
BLOCK
  8
0
  2
*U69
 70
     1
 10
0.0
 20
0.0
 30
0.0
  3
*U69
  1

  0
TEXT
  5
4C1
  8
┌▓È_1
  6
CONTINUOUS
 10
1242.546579371264
 20
-321.35786017959998
 30
0.0
 40
1.3493749797000001
  1
2
  0
ENDBLK
  5
4C3
  8
0
  0
ENDSEC
  0
SECTION
  2
ENTITIES
  0
LINE
  5
2F
  8
É}ÿg
 10
897.76748971189988
 20
-526.06418439720005
 30
0.0
 11
897.76748971189988
 21
-538.81418439720005
 31
0.0
  0
INSERT
  5
30
  8
0
  6
CONTINUOUS
  2
*U26
 10
0.0
 20
0.0
 30
0.0
  0
INSERT
  5
32
  8
0
  6
CONTINUOUS
  2
*U27
 10
0.0
 20
0.0
 30
0.0
  0
DIMENSION
  5
3B
  8
Éíû@É³
  2
*D0
 10
936.53985510119992
 20
-449.17681288889992
 30
0.0
 11
948.16753012300001
 21
-474.79799520360001
 31
0.0
 70
   132
  1
<>
 15
940.93977886789992
 25
-465.59755193580003
 35
0.0
 40
0.0
  0
DIMENSION
  5
42
  8
Éíû@É³
  2
*D1
 10
903.76716287289992
 20
-449.17681288889992
 30
0.0
 11
913.69327405959996
 21
-469.61772596230003
 31
0.0
 70
   132
  1
<>
 15
908.16708663969985
 25
-465.59755193580003
 35
0.0
 40
0.0
  0
ARC
  5
43
  8
┌▓È_1
 62
     5
 10
897.7671628728998
 20
-470.17681288889992
 30
0.0
 40
4.0
 50
90.0
 51
180.0
  0
DIMENSION
  5
4A
  8
Éíû@É³
  2
*D2
 10
897.7671628728998
 20
-470.17681288889992
 30
0.0
 11
906.43642785639986
 21
-474.08357758620002
 31
0.0
 70
   132
  1
<>
 15
894.93873574820009
 25
-467.34838576409999
 35
0.0
 40
0.0
  0
LINE
  5
4B
  8
É}ÿg
  6
DOT
 10
860.02998971190004
 20
-542.36268439720004
 30
0.0
 11
860.02998971190004
 21
-398.12918439719999
 31
0.0
  0
LINE
  5
4C
  8
É}ÿg
 62
     5
 10
863.26748971190011
 20
-538.81418439720005
 30
0.0
 11
863.26748971190011
 21
-401.31418439719988
 31
0.0
  0
DIMENSION
  5
5C
  8
Éíû@É³
  2
*D3
 10
893.76716287289992
 20
-487.28697085549999
 30
0.0
 11
902.76716287289992
 21
-487.28697085549999
 31
0.0
 70
   128
  1
<>
 13
893.76716287289992
 23
-478.42681288889992
 33
0.0
 14
911.76716287289992
 24
-464.17681288889992
 34
0.0
 50
180.0
  0
DIMENSION
  5
6B
  8
Éíû@É³
  2
*D4
 10
921.9841973450998
 20
-482.42681288889992
 30
0.0
 11
921.9841973450998
 21
-472.55181288889997
 31
0.0
 70
   128
  1
üi<>üj
 13
892.76716287289992
 23
-482.42681288889992
 33
0.0
 14
910.2671628728998
 24
-462.67681288889997
 34
0.0
 50
90.0
  0
DIMENSION
  5
7A
  8
Éíû@É³
  2
*D5
 10
882.7160455774
 20
-462.42681288889992
 30
0.0
 11
882.7160455774
 21
-472.42681288889997
 31
0.0
 70
   128
  1
<>
 13
890.06716287289998
 23
-462.42681288889992
 33
0.0
 14
889.7671628728998
 24
-482.42681288889992
 34
0.0
 50
90.0
  0
DIMENSION
  5
89
  8
Éíû@É³
  2
*D6
 10
877.53237210799989
 20
-455.02084804999998
 30
0.0
 11
877.53237210799989
 21
-467.51824980570001
 31
0.0
 70
   128
  1
üi<>üj
 13
889.26716287289992
 23
-455.02084804999998
 33
0.0
 14
889.7671628728998
 24
-482.42681288889992
 34
0.0
 50
90.0
  0
LINE
  5
8A
  8
┌▓È_1
  6
BORDER
 62
     3
 10
936.53985510119992
 20
-452.1011711194999
 30
0.0
 11
936.53985510119992
 21
-484.74327529189998
 31
0.0
  0
LINE
  5
8B
  8
┌▓È_1
 62
     5
 10
938.38985510119983
 20
-466.07585132309998
 30
0.0
 11
938.38985510119983
 21
-482.42681288889992
 31
0.0
  0
LINE
  5
8C
  8
┌▓È_1
 62
     5
 10
890.76716287290003
 20
-482.42681288889992
 30
0.0
 11
890.76716287290003
 21
-459.17681288889992
 31
0.0
  0
LINE
  5
8D
  8
┌▓È_1
 62
     5
 10
934.6898551011999
 20
-466.07585132309998
 30
0.0
 11
934.6898551011999
 21
-482.42681288889992
 31
0.0
  0
LINE
  5
8E
  8
┌▓È_1
 62
     5
 10
893.76716287289992
 20
-478.42681288889992
 30
0.0
 11
893.76716287289992
 21
-470.17681288889992
 31
0.0
  0
LINE
  5
8F
  8
É}ÿg
 62
     5
 10
955.76748971189988
 20
-538.81418439720005
 30
0.0
 11
955.76748971189988
 21
-401.31418439719988
 31
0.0
  0
INSERT
  5
91
  8
Éíû@É³
  2
BALLON0
 10
-322.3996113966237
 20
-130.7559330221134
 30
0.0
  0
LINE
  5
9A
  8
É}ÿg
  6
DOT
 10
959.00498971189995
 20
-398.12918439719999
 30
0.0
 11
860.02998971190004
 21
-398.12918439719999
 31
0.0
  0
LINE
  5
9B
  8
É}ÿg
  6
DOT
 10
959.00498971189995
 20
-542.36268439720004
 30
0.0
 11
860.02998971190004
 21
-542.36268439720004
 31
0.0
  0
LINE
  5
9C
  8
É}ÿg
  6
DOT
 10
959.00498971189995
 20
-542.36268439720004
 30
0.0
 11
959.00498971189995
 21
-398.12918439719999
 31
0.0
  0
INSERT
  5
9D
  8
0
  6
CONTINUOUS
  2
*U29
 10
0.0
 20
0.0
 30
0.0
  0
INSERT
  5
9E
  8
0
  6
CONTINUOUS
  2
*U30
 10
0.0
 20
0.0
 30
0.0
  0
INSERT
  5
9F
  8
0
  6
CONTINUOUS
  2
*U31
 10
0.0
 20
0.0
 30
0.0
  0
INSERT
  5
A0
  8
0
  6
CONTINUOUS
  2
*U32
 10
0.0
 20
0.0
 30
0.0
  0
INSERT
  5
A1
  8
0
  6
CONTINUOUS
  2
*U33
 10
0.0
 20
0.0
 30
0.0
  0
INSERT
  5
A2
  8
0
  6
CONTINUOUS
  2
*U34
 10
0.0
 20
0.0
 30
0.0
  0
LINE
  5
A3
  8
É}ÿg
 10
898.76748971189988
 20
-532.43918439720005
 30
0.0
 11
911.7674897119
 21
-532.43918439720005
 31
0.0
  0
LINE
  5
A4
  8
┌▓È_1
 10
897.76748971189988
 20
-509.56418439719999
 30
0.0
 11
897.76748971189988
 21
-517.81418439720005
 31
0.0
  0
LINE
  5
A5
  8
┌▓È_1
 10
902.0174897119
 20
-517.81418439720005
 30
0.0
 11
902.0174897119
 21
-509.56418439719999
 31
0.0
  0
LINE
  5
A6
  8
É}ÿg
 10
897.76748971189988
 20
-520.56418439720005
 30
0.0
 11
897.76748971189988
 21
-526.06418439720005
 31
0.0
  0
LINE
  5
A7
  8
É}ÿg
 10
897.76748971189988
 20
-520.56418439720005
 30
0.0
 11
897.76748971189988
 21
-526.06418439720005
 31
0.0
  0
INSERT
  5
A8
  8
0
  6
CONTINUOUS
  2
*U35
 10
0.0
 20
0.0
 30
0.0
  0
INSERT
  5
A9
  8
0
  6
CONTINUOUS
  2
*U36
 10
0.0
 20
0.0
 30
0.0
  0
LINE
  5
AA
  8
É}ÿg
 10
898.76748971189988
 20
-528.18918439720005
 30
0.0
 11
906.76748971189988
 21
-528.18918439720005
 31
0.0
  0
LINE
  5
AB
  8
É}ÿg
 10
897.76748971189988
 20
-520.56418439720005
 30
0.0
 11
955.76748971189988
 21
-520.56418439720005
 31
0.0
  0
LINE
  5
AC
  8
É}ÿg
 10
897.76748971189988
 20
-523.31418439720005
 30
0.0
 11
955.76748971189988
 21
-523.31418439720005
 31
0.0
  0
LINE
  5
AD
  8
┌▓È_1
 10
897.76748971189988
 20
-520.56418439720005
 30
0.0
 11
955.76748971189988
 21
-520.56418439720005
 31
0.0
  0
LINE
  5
AE
  8
É}ÿg
 10
897.76748971189988
 20
-526.06418439720005
 30
0.0
 11
955.76748971189988
 21
-526.06418439720005
 31
0.0
  0
LINE
  5
AF
  8
É}ÿg
 10
897.76748971189988
 20
-534.56418439720005
 30
0.0
 11
955.76748971189988
 21
-534.56418439720005
 31
0.0
  0
LINE
  5
B0
  8
É}ÿg
 10
897.76748971189988
 20
-530.31418439720005
 30
0.0
 11
955.76748971189988
 21
-530.31418439720005
 31
0.0
  0
LINE
  5
B1
  8
┌▓È_1
 10
897.76748971189988
 20
-517.81418439720005
 30
0.0
 11
955.76748971189988
 21
-517.81418439720005
 31
0.0
  0
LINE
  5
B2
  8
┌▓È_1
 10
897.76748971189988
 20
-515.06418439720005
 30
0.0
 11
955.76748971189988
 21
-515.06418439720005
 31
0.0
  0
LINE
  5
B3
  8
┌▓È_1
 10
897.76748971189988
 20
-512.31418439720005
 30
0.0
 11
955.76748971189988
 21
-512.31418439720005
 31
0.0
  0
LINE
  5
B4
  8
┌▓È_1
 10
897.76748971189988
 20
-509.56418439719999
 30
0.0
 11
955.76748971189988
 21
-509.56418439719999
 31
0.0
  0
LINE
  5
B5
  8
É}ÿg
 62
     5
 10
955.76748971189988
 20
-538.81418439720005
 30
0.0
 11
863.26748971190011
 21
-538.81418439720005
 31
0.0
  0
LINE
  5
B6
  8
┌▓È_1
 62
     5
 10
889.7671628728998
 20
-482.42681288889992
 30
0.0
 11
892.76716287289992
 21
-482.42681288889992
 31
0.0
  0
ARC
  5
B7
  8
┌▓È_1
 62
     5
 10
885.2671628728998
 20
-478.42681288889992
 30
0.0
 40
8.5
 50
331.92751306420001
 51
360.0
  0
INSERT
  5
B8
  8
0
  6
CONTINUOUS
  2
*U37
 10
0.0
 20
0.0
 30
0.0
  0
LINE
  5
B9
  8
┌▓È_1
  6
STITCH
 10
894.65559073359998
 20
-530.34742466659998
 30
0.0
 11
894.65559073359998
 21
-499.47897085549999
 31
0.0
  0
LINE
  5
BA
  8
┌▓È_1
  6
STITCH
 10
865.18146303820004
 20
-530.34742466659998
 30
0.0
 11
894.65559073359998
 21
-530.34742466659998
 31
0.0
  0
LINE
  5
BB
  8
┌▓È_1
  6
STITCH
 10
894.65559073359998
 20
-499.47897085549999
 30
0.0
 11
865.18146303820004
 21
-499.47897085549999
 31
0.0
  0
ARC
  5
BC
  8
┌▓È_1
 62
     5
 10
876.54226827599996
 20
-510.79397085549999
 30
0.0
 40
8.5
 50
269.99999894479998
 51
298.07248693589997
  0
LINE
  5
BD
  8
┌▓È_1
 62
     5
 10
871.19226827600005
 20
-517.79397085549988
 30
0.0
 11
880.54226827600007
 21
-517.79397085549988
 31
0.0
  0
LINE
  5
BE
  8
┌▓È_1
 62
     5
 10
871.19226827600005
 20
-518.29397085549988
 30
0.0
 11
880.54226827600007
 21
-518.29397085549988
 31
0.0
  0
POLYLINE
  5
BF
  8
┌▓È_1
 62
     5
 10
871.44226827600005
 20
-518.97687987369989
 30
0.0
 66
     1
 70
     8
  0
VERTEX
  8
┌▓È_1
  5
4C4
 10
871.442
 20
-518.977
 30
0.000000
  70
    32
  0
VERTEX
  8
┌▓È_1
  5
4C5
 10
871.445
 20
-518.977
 30
0.000000
  70
    32
  0
VERTEX
  8
┌▓È_1
  5
4C6
 10
871.448
 20
-518.977
 30
0.000000
  70
    32
  0
VERTEX
  8
┌▓È_1
  5
4C7
 10
871.451
 20
-518.977
 30
0.000000
  70
    32
  0
VERTEX
  8
┌▓È_1
  5
4C8
 10
871.455
 20
-518.977
 30
0.000000
  70
    32
  0
VERTEX
  8
┌▓È_1
  5
4C9
 10
871.458
 20
-518.977
 30
0.000000
  70
    32
  0
VERTEX
  8
┌▓È_1
  5
4CA
 10
871.461
 20
-518.977
 30
0.000000
  70
    32
  0
VERTEX
  8
┌▓È_1
  5
4CB
 10
871.464
 20
-518.977
 30
0.000000
  70
    32
  0
VERTEX
  8
┌▓È_1
  5
4CC
 10
871.467
 20
-518.977
 30
0.000000
  70
    32
  0
VERTEX
  8
┌▓È_1
  5
4CD
 10
871.470
 20
-518.977
 30
0.000000
  70
    32
  0
VERTEX
  8
┌▓È_1
  5
4CE
 10
871.473
 20
-518.977
 30
0.000000
  70
    32
  0
VERTEX
  8
┌▓È_1
  5
4CF
 10
871.476
 20
-518.977
 30
0.000000
  70
    32
  0
VERTEX
  8
┌▓È_1
  5
4D0
 10
871.479
 20
-518.978
 30
0.000000
  70
    32
  0
VERTEX
  8
┌▓È_1
  5
4D1
 10
871.482
 20
-518.978
 30
0.000000
  70
    32
  0
VERTEX
  8
┌▓È_1
  5
4D2
 10
871.485
 20
-518.978
 30
0.000000
  70
    32
  0
VERTEX
  8
┌▓È_1
  5
4D3
 10
871.488
 20
-518.978
 30
0.000000
  70
    32
  0
VERTEX
  8
┌▓È_1
  5
4D4
 10
871.491
 20
-518.978
 30
0.000000
  70
    32
  0
VERTEX
  8
┌▓È_1
  5
4D5
 10
871.494
 20
-518.978
 30
0.000000
  70
    32
  0
VERTEX
  8
┌▓È_1
  5
4D6
 10
871.497
 20
-518.978
 30
0.000000
  70
    32
  0
VERTEX
  8
┌▓È_1
  5
4D7
 10
871.500
 20
-518.979
 30
0.000000
  70
    32
  0
VERTEX
  8
┌▓È_1
  5
4D8
 10
871.503
 20
-518.979
 30
0.000000
  70
    32
  0
VERTEX
  8
┌▓È_1
  5
4D9
 10
871.506
 20
-518.979
 30
0.000000
  70
    32
  0
VERTEX
  8
┌▓È_1
  5
4DA
 10
871.509
 20
-518.979
 30
0.000000
  70
    32
  0
VERTEX
  8
┌▓È_1
  5
4DB
 10
871.512
 20
-518.979
 30
0.000000
  70
    32
  0
VERTEX
  8
┌▓È_1
  5
4DC
 10
871.515
 20
-518.980
 30
0.000000
  70
    32
  0
VERTEX
  8
┌▓È_1
  5
4DD
 10
871.518
 20
-518.980
 30
0.000000
  70
    32
  0
VERTEX
  8
┌▓È_1
  5
4DE
 10
871.521
 20
-518.980
 30
0.000000
  70
    32
  0
VERTEX
  8
┌▓È_1
  5
4DF
 10
871.524
 20
-518.980
 30
0.000000
  70
    32
  0
VERTEX
  8
┌▓È_1
  5
4E0
 10
871.526
 20
-518.981
 30
0.000000
  70
    32
  0
VERTEX
  8
┌▓È_1
  5
4E1
 10
871.529
 20
-518.981
 30
0.000000
  70
    32
  0
VERTEX
  8
┌▓È_1
  5
4E2
 10
871.532
 20
-518.981
 30
0.000000
  70
    32
  0
VERTEX
  8
┌▓È_1
  5
4E3
 10
871.535
 20
-518.982
 30
0.000000
  70
    32
  0
VERTEX
  8
┌▓È_1
  5
4E4
 10
871.538
 20
-518.982
 30
0.000000
  70
    32
  0
VERTEX
  8
┌▓È_1
  5
4E5
 10
871.541
 20
-518.982
 30
0.000000
  70
    32
  0
VERTEX
  8
┌▓È_1
  5
4E6
 10
871.544
 20
-518.983
 30
0.000000
  70
    32
  0
VERTEX
  8
┌▓È_1
  5
4E7
 10
871.546
 20
-518.983
 30
0.000000
  70
    32
  0
VERTEX
  8
┌▓È_1
  5
4E8
 10
871.549
 20
-518.983
 30
0.000000
  70
    32
  0
VERTEX
  8
┌▓È_1
  5
4E9
 10
871.552
 20
-518.984
 30
0.000000
  70
    32
  0
VERTEX
  8
┌▓È_1
  5
4EA
 10
871.555
 20
-518.984
 30
0.000000
  70
    32
  0
VERTEX
  8
┌▓È_1
  5
4EB
 10
871.557
 20
-518.984
 30
0.000000
  70
    32
  0
VERTEX
  8
┌▓È_1
  5
4EC
 10
871.560
 20
-518.985
 30
0.000000
  70
    32
  0
VERTEX
  8
┌▓È_1
  5
4ED
 10
871.563
 20
-518.985
 30
0.000000
  70
    32
  0
VERTEX
  8
┌▓È_1
  5
4EE
 10
871.565
 20
-518.985
 30
0.000000
  70
    32
  0
VERTEX
  8
┌▓È_1
  5
4EF
 10
871.568
 20
-518.986
 30
0.000000
  70
    32
  0
VERTEX
  8
┌▓È_1
  5
4F0
 10
871.571
 20
-518.986
 30
0.000000
  70
    32
  0
VERTEX
  8
┌▓È_1
  5
4F1
 10
871.573
 20
-518.987
 30
0.000000
  70
    32
  0
VERTEX
  8
┌▓È_1
  5
4F2
 10
871.576
 20
-518.987
 30
0.000000
  70
    32
  0
VERTEX
  8
┌▓È_1
  5
4F3
 10
871.579
 20
-518.988
 30
0.000000
  70
    32
  0
VERTEX
  8
┌▓È_1
  5
4F4
 10
871.581
 20
-518.988
 30
0.000000
  70
    32
  0
VERTEX
  8
┌▓È_1
  5
4F5
 10
871.584
 20
-518.988
 30
0.000000
  70
    32
  0
VERTEX
  8
┌▓È_1
  5
4F6
 10
871.586
 20
-518.989
 30
0.000000
  70
    32
  0
VERTEX
  8
┌▓È_1
  5
4F7
 10
871.589
 20
-518.989
 30
0.000000
  70
    32
  0
VERTEX
  8
┌▓È_1
  5
4F8
 10
871.591
 20
-518.990
 30
0.000000
  70
    32
  0
VERTEX
  8
┌▓È_1
  5
4F9
 10
871.594
 20
-518.990
 30
0.000000
  70
    32
  0
VERTEX
  8
┌▓È_1
  5
4FA
 10
871.596
 20
-518.991
 30
0.000000
  70
    32
  0
VERTEX
  8
┌▓È_1
  5
4FB
 10
871.598
 20
-518.991
 30
0.000000
  70
    32
  0
VERTEX
  8
┌▓È_1
  5
4FC
 10
871.601
 20
-518.992
 30
0.000000
  70
    32
  0
VERTEX
  8
┌▓È_1
  5
4FD
 10
871.603
 20
-518.992
 30
0.000000
  70
    32
  0
VERTEX
  8
┌▓È_1
  5
4FE
 10
871.606
 20
-518.993
 30
0.000000
  70
    32
  0
VERTEX
  8
┌▓È_1
  5
4FF
 10
871.608
 20
-518.993
 30
0.000000
  70
    32
  0
VERTEX
  8
┌▓È_1
  5
500
 10
871.610
 20
-518.994
 30
0.000000
  70
    32
  0
VERTEX
  8
┌▓È_1
  5
501
 10
871.612
 20
-518.995
 30
0.000000
  70
    32
  0
VERTEX
  8
┌▓È_1
  5
502
 10
871.615
 20
-518.995
 30
0.000000
  70
    32
  0
VERTEX
  8
┌▓È_1
  5
503
 10
871.617
 20
-518.996
 30
0.000000
  70
    32
  0
VERTEX
  8
┌▓È_1
  5
504
 10
871.619
 20
-518.996
 30
0.000000
  70
    32
  0
VERTEX
  8
┌▓È_1
  5
505
 10
871.621
 20
-518.997
 30
0.000000
  70
    32
  0
VERTEX
  8
┌▓È_1
  5
506
 10
871.623
 20
-518.997
 30
0.000000
  70
    32
  0
VERTEX
  8
┌▓È_1
  5
507
 10
871.625
 20
-518.998
 30
0.000000
  70
    32
  0
VERTEX
  8
┌▓È_1
  5
508
 10
871.628
 20
-518.999
 30
0.000000
  70
    32
  0
VERTEX
  8
┌▓È_1
  5
509
 10
871.630
 20
-518.999
 30
0.000000
  70
    32
  0
VERTEX
  8
┌▓È_1
  5
50A
 10
871.632
 20
-519.000
 30
0.000000
  70
    32
  0
VERTEX
  8
┌▓È_1
  5
50B
 10
871.634
 20
-519.000
 30
0.000000
  70
    32
  0
VERTEX
  8
┌▓È_1
  5
50C
 10
871.636
 20
-519.001
 30
0.000000
  70
    32
  0
VERTEX
  8
┌▓È_1
  5
50D
 10
871.637
 20
-519.002
 30
0.000000
  70
    32
  0
VERTEX
  8
┌▓È_1
  5
50E
 10
871.639
 20
-519.002
 30
0.000000
  70
    32
  0
VERTEX
  8
┌▓È_1
  5
50F
 10
871.641
 20
-519.003
 30
0.000000
  70
    32
  0
VERTEX
  8
┌▓È_1
  5
510
 10
871.643
 20
-519.004
 30
0.000000
  70
    32
  0
VERTEX
  8
┌▓È_1
  5
511
 10
871.645
 20
-519.004
 30
0.000000
  70
    32
  0
VERTEX
  8
┌▓È_1
  5
512
 10
871.647
 20
-519.005
 30
0.000000
  70
    32
  0
VERTEX
  8
┌▓È_1
  5
513
 10
871.648
 20
-519.006
 30
0.000000
  70
    32
  0
VERTEX
  8
┌▓È_1
  5
514
 10
871.650
 20
-519.006
 30
0.000000
  70
    32
  0
VERTEX
  8
┌▓È_1
  5
515
 10
871.652
 20
-519.007
 30
0.000000
  70
    32
  0
VERTEX
  8
┌▓È_1
  5
516
 10
871.653
 20
-519.008
 30
0.000000
  70
    32
  0
VERTEX
  8
┌▓È_1
  5
517
 10
871.655
 20
-519.008
 30
0.000000
  70
    32
  0
VERTEX
  8
┌▓È_1
  5
518
 10
871.657
 20
-519.009
 30
0.000000
  70
    32
  0
VERTEX
  8
┌▓È_1
  5
519
 10
871.658
 20
-519.010
 30
0.000000
  70
    32
  0
VERTEX
  8
┌▓È_1
  5
51A
 10
871.660
 20
-519.010
 30
0.000000
  70
    32
  0
VERTEX
  8
┌▓È_1
  5
51B
 10
871.661
 20
-519.011
 30
0.000000
  70
    32
  0
VERTEX
  8
┌▓È_1
  5
51C
 10
871.663
 20
-519.012
 30
0.000000
  70
    32
  0
VERTEX
  8
┌▓È_1
  5
51D
 10
871.664
 20
-519.013
 30
0.000000
  70
    32
  0
VERTEX
  8
┌▓È_1
  5
51E
 10
871.666
 20
-519.013
 30
0.000000
  70
    32
  0
VERTEX
  8
┌▓È_1
  5
51F
 10
871.667
 20
-519.014
 30
0.000000
  70
    32
  0
VERTEX
  8
┌▓È_1
  5
520
 10
871.668
 20
-519.015
 30
0.000000
  70
    32
  0
VERTEX
  8
┌▓È_1
  5
521
 10
871.670
 20
-519.016
 30
0.000000
  70
    32
  0
VERTEX
  8
┌▓È_1
  5
522
 10
871.671
 20
-519.016
 30
0.000000
  70
    32
  0
VERTEX
  8
┌▓È_1
  5
523
 10
871.672
 20
-519.017
 30
0.000000
  70
    32
  0
VERTEX
  8
┌▓È_1
  5
524
 10
871.673
 20
-519.018
 30
0.000000
  70
    32
  0
VERTEX
  8
┌▓È_1
  5
525
 10
871.674
 20
-519.018
 30
0.000000
  70
    32
  0
VERTEX
  8
┌▓È_1
  5
526
 10
871.676
 20
-519.019
 30
0.000000
  70
    32
  0
VERTEX
  8
┌▓È_1
  5
527
 10
871.677
 20
-519.020
 30
0.000000
  70
    32
  0
VERTEX
  8
┌▓È_1
  5
528
 10
871.678
 20
-519.021
 30
0.000000
  70
    32
  0
VERTEX
  8
┌▓È_1
  5
529
 10
871.679
 20
-519.022
 30
0.000000
  70
    32
  0
VERTEX
  8
┌▓È_1
  5
52A
 10
871.680
 20
-519.022
 30
0.000000
  70
    32
  0
VERTEX
  8
┌▓È_1
  5
52B
 10
871.681
 20
-519.023
 30
0.000000
  70
    32
  0
VERTEX
  8
┌▓È_1
  5
52C
 10
871.682
 20
-519.024
 30
0.000000
  70
    32
  0
VERTEX
  8
┌▓È_1
  5
52D
 10
871.682
 20
-519.025
 30
0.000000
  70
    32
  0
VERTEX
  8
┌▓È_1
  5
52E
 10
871.683
 20
-519.025
 30
0.000000
  70
    32
  0
VERTEX
  8
┌▓È_1
  5
52F
 10
871.684
 20
-519.026
 30
0.000000
  70
    32
  0
VERTEX
  8
┌▓È_1
  5
530
 10
871.685
 20
-519.027
 30
0.000000
  70
    32
  0
VERTEX
  8
┌▓È_1
  5
531
 10
871.686
 20
-519.028
 30
0.000000
  70
    32
  0
VERTEX
  8
┌▓È_1
  5
532
 10
871.686
 20
-519.029
 30
0.000000
  70
    32
  0
VERTEX
  8
┌▓È_1
  5
533
 10
871.687
 20
-519.029
 30
0.000000
  70
    32
  0
VERTEX
  8
┌▓È_1
  5
534
 10
871.687
 20
-519.030
 30
0.000000
  70
    32
  0
VERTEX
  8
┌▓È_1
  5
535
 10
871.688
 20
-519.031
 30
0.000000
  70
    32
  0
VERTEX
  8
┌▓È_1
  5
536
 10
871.689
 20
-519.032
 30
0.000000
  70
    32
  0
VERTEX
  8
┌▓È_1
  5
537
 10
871.689
 20
-519.033
 30
0.000000
  70
    32
  0
VERTEX
  8
┌▓È_1
  5
538
 10
871.690
 20
-519.033
 30
0.000000
  70
    32
  0
VERTEX
  8
┌▓È_1
  5
539
 10
871.690
 20
-519.034
 30
0.000000
  70
    32
  0
VERTEX
  8
┌▓È_1
  5
53A
 10
871.690
 20
-519.035
 30
0.000000
  70
    32
  0
VERTEX
  8
┌▓È_1
  5
53B
 10
871.691
 20
-519.036
 30
0.000000
  70
    32
  0
VERTEX
  8
┌▓È_1
  5
53C
 10
871.691
 20
-519.037
 30
0.000000
  70
    32
  0
VERTEX
  8
┌▓È_1
  5
53D
 10
871.691
 20
-519.037
 30
0.000000
  70
    32
  0
VERTEX
  8
┌▓È_1
  5
53E
 10
871.692
 20
-519.038
 30
0.000000
  70
    32
  0
VERTEX
  8
┌▓È_1
  5
53F
 10
871.692
 20
-519.039
 30
0.000000
  70
    32
  0
VERTEX
  8
┌▓È_1
  5
540
 10
871.692
 20
-519.040
 30
0.000000
  70
    32
  0
VERTEX
  8
┌▓È_1
  5
541
 10
871.692
 20
-519.041
 30
0.000000
  70
    32
  0
VERTEX
  8
┌▓È_1
  5
542
 10
871.692
 20
-519.041
 30
0.000000
  70
    32
  0
VERTEX
  8
┌▓È_1
  5
543
 10
871.692
 20
-519.042
 30
0.000000
  70
    32
  0
VERTEX
  8
┌▓È_1
  5
544
 10
871.692
 20
-519.043
 30
0.000000
  70
    32
  0
SEQEND
  8
┌▓È_1
  5
545
  0
LINE
  5
C0
  8
┌▓È_1
 62
     5
 10
871.69226827599994
 20
-519.04306171449991
 30
0.0
 11
871.69226827599994
 21
-519.29397085549999
 31
0.0
  0
LINE
  5
C1
  8
┌▓È_1
 62
     5
 10
884.75185939039977
 20
-517.54397085549999
 30
0.0
 11
891.25185939039977
 21
-517.54397085549999
 31
0.0
  0
LINE
  5
C2
  8
┌▓È_1
 62
     5
 10
893.06716287289987
 20
-463.17681288889997
 30
0.0
 11
911.76716287289992
 21
-463.17681288889997
 31
0.0
  0
INSERT
  5
C4
  8
┌▓È_1
 62
     5
  2
*X8
 10
0.0
 20
0.0
 30
0.0
  0
LINE
  5
E1
  8
┌▓È_1
 62
     5
 10
897.26716287289992
 20
-462.67681288889997
 30
0.0
 11
910.2671628728998
 21
-462.67681288889997
 31
0.0
  0
INSERT
  5
E3
  8
┌▓È_1
 62
     5
  2
*X9
 10
0.0
 20
0.0
 30
0.0
  0
CIRCLE
  5
109
  8
┌▓È_1
 62
     5
 10
903.76716287289992
 20
-432.7337514823999
 30
0.0
 40
6.5
  0
LINE
  5
10A
  8
┌▓È_1
 62
     5
 10
893.06716287289987
 20
-424.7337514823999
 30
0.0
 11
903.76716359190004
 21
-424.7337514823999
 31
0.0
  0
LINE
  5
10B
  8
┌▓È_1
 62
     5
 10
903.76716291729986
 20
-440.7337514823999
 30
0.0
 11
893.06716287289987
 21
-440.7337514823999
 31
0.0
  0
LINE
  5
10C
  8
┌▓È_1
 62
     5
 10
894.06716287289987
 20
-466.17681288889997
 30
0.0
 11
903.76716302769989
 21
-466.17681288889997
 31
0.0
  0
LINE
  5
10D
  8
┌▓È_1
 62
     5
 10
893.06716287289987
 20
-464.17681288889992
 30
0.0
 11
911.76716287289992
 21
-464.17681288889992
 31
0.0
  0
DIMENSION
  5
11C
  8
Éíû@É³
  2
*D10
 10
911.76716287289992
 20
-419.7337514823999
 30
0.0
 11
902.41716287289978
 21
-419.7337514823999
 31
0.0
 70
   128
  1
<>
 13
911.76716287289992
 23
-432.7337514823999
 33
0.0
 14
893.06716287289987
 24
-424.7337514823999
 34
0.0
  0
DIMENSION
  5
12B
  8
Éíû@É³
  2
*D11
 10
911.76716287289992
 20
-414.27018726879987
 30
0.0
 11
899.1421628728998
 21
-414.27018726879987
 31
0.0
 70
   128
  1
<>
 13
911.76716287289992
 23
-432.7337514823999
 33
0.0
 14
886.51716287289992
 24
-431.03375148239991
 34
0.0
  0
LINE
  5
12C
  8
É}ÿg
 62
     5
 10
955.76748971189988
 20
-401.31418439719988
 30
0.0
 11
863.26748971190011
 21
-401.31418439719988
 31
0.0
  0
LINE
  5
12D
  8
┌▓È_1
  6
BORDER
 62
     3
 10
883.78641877279995
 20
-432.7337514823999
 30
0.0
 11
916.26213305850001
 21
-432.7337514823999
 31
0.0
  0
LINE
  5
12E
  8
┌▓È_1
 62
     5
 10
892.00185939039977
 20
-517.79397085549988
 30
0.0
 11
892.00185939039977
 21
-518.29397085549988
 31
0.0
  0
LINE
  5
12F
  8
┌▓È_1
  6
STITCH
 10
890.30185939039995
 20
-517.79397085549988
 30
0.0
 11
890.30185939039995
 21
-518.9768798737
 31
0.0
  0
LINE
  5
130
  8
┌▓È_1
  6
STITCH
 10
887.15185939039986
 20
-517.41897085549988
 30
0.0
 11
888.85185939039991
 21
-517.41897085549988
 31
0.0
  0
ARC
  5
131
  8
┌▓È_1
 62
     5
 10
888.00185939039989
 20
-510.79397085549999
 30
0.0
 40
8.5
 50
241.9275130641
 51
298.07248693589997
  0
LINE
  5
132
  8
┌▓È_1
 62
     5
 10
887.07685939039993
 20
-515.79397085549999
 30
0.0
 11
888.92685939039995
 21
-515.79397085549999
 31
0.0
  0
LINE
  5
133
  8
┌▓È_1
  6
STITCH
 10
887.15185939039986
 20
-525.91897085549988
 30
0.0
 11
888.85185939039991
 21
-525.91897085549988
 31
0.0
  0
LINE
  5
134
  8
┌▓È_1
  6
STITCH
 10
888.85185939039991
 20
-527.41897085549999
 30
0.0
 11
888.85185939039991
 21
-525.91897085549988
 31
0.0
  0
LINE
  5
135
  8
┌▓È_1
 62
     5
 10
888.85185939039991
 20
-513.71598843599986
 30
0.0
 11
887.15185939039986
 21
-513.71598843599986
 31
0.0
  0
LINE
  5
136
  8
┌▓È_1
 62
     5
 10
887.15185939039986
 20
-515.11897085550004
 30
0.0
 11
888.85185939039991
 21
-515.11897085550004
 31
0.0
  0
LINE
  5
137
  8
┌▓È_1
 62
     5
 10
887.07685939039993
 20
-527.41897085549999
 30
0.0
 11
888.92685939039995
 21
-527.41897085549999
 31
0.0
  0
LINE
  5
138
  8
┌▓È_1
 62
     5
 10
884.00185939039977
 20
-518.29397085549988
 30
0.0
 11
892.00185939039977
 21
-518.29397085549988
 31
0.0
  0
LINE
  5
139
  8
┌▓È_1
 62
     5
 10
884.00185939039977
 20
-517.79397085549988
 30
0.0
 11
892.00185939039977
 21
-517.79397085549988
 31
0.0
  0
INSERT
  5
13B
  8
┌▓È_1
 62
     5
  2
*X12
 10
0.0
 20
0.0
 30
0.0
  0
LINE
  5
169
  8
┌▓È_1
 62
     5
 10
888.92685939039995
 20
-515.79397085549999
 30
0.0
 11
888.92685939039995
 21
-517.54397085549999
 31
0.0
  0
LINE
  5
16A
  8
┌▓È_1
 62
     5
 10
873.29226827600007
 20
-517.54397085549999
 30
0.0
 11
879.79226827600007
 21
-517.54397085549999
 31
0.0
  0
LINE
  5
16B
  8
┌▓È_1
 62
     5
 10
879.79226827600007
 20
-517.54397085549999
 30
0.0
 11
879.79226827600007
 21
-517.79397085549988
 31
0.0
  0
LINE
  5
16C
  8
┌▓È_1
 62
     5
 10
873.29226827600007
 20
-517.54397085549999
 30
0.0
 11
873.29226827600007
 21
-517.79397085549988
 31
0.0
  0
CIRCLE
  5
16D
  8
┌▓È_1
 62
     5
 10
876.54226827599996
 20
-507.0359516655999
 30
0.0
 40
3.25
  0
DIMENSION
  5
17C
  8
Éíû@É³
  2
*D13
 10
888.7671628728998
 20
-487.28697085549999
 30
0.0
 11
891.26716287289992
 21
-487.28697085549999
 31
0.0
 70
   128
  1
<>
 13
888.7671628728998
 23
-481.42681288889997
 33
0.0
 14
893.76716287289992
 24
-478.42681288889992
 34
0.0
 50
180.0
  0
LINE
  5
17D
  8
┌▓È_1
  6
STITCH
 10
888.92685939039995
 20
-517.54397085549999
 30
0.0
 11
888.92685939039995
 21
-519.24349007260003
 31
0.0
  0
ARC
  5
17E
  8
┌▓È_1
 62
     5
 10
869.54226827599996
 20
-526.91897085549999
 30
0.0
 40
0.5
 50
180.0
 51
270.0
  0
LINE
  5
17F
  8
┌▓È_1
 62
     5
 10
889.7671628728998
 20
-479.42681288889992
 30
0.0
 11
890.76716287290003
 21
-479.42681288889992
 31
0.0
  0
LINE
  5
180
  8
┌▓È_1
 62
     5
 10
888.7671628728998
 20
-481.42681288889997
 30
0.0
 11
888.7671628728998
 21
-480.42681288889992
 31
0.0
  0
ARC
  5
181
  8
┌▓È_1
 62
     5
 10
889.7671628728998
 20
-481.42681288889997
 30
0.0
 40
1.0
 50
180.0
 51
270.00000000009999
  0
ARC
  5
182
  8
┌▓È_1
 62
     5
 10
889.7671628728998
 20
-480.42681288889992
 30
0.0
 40
1.0
 50
90.0
 51
180.0
  0
LINE
  5
183
  8
┌▓È_1
 62
     5
 10
887.07685939039993
 20
-519.24349007260003
 30
0.0
 11
887.07685939039993
 21
-527.41897085549999
 31
0.0
  0
LINE
  5
184
  8
┌▓È_1
 62
     5
 10
869.76726825899993
 20
-515.79397085549999
 30
0.0
 11
871.29226827599996
 21
-515.79397085549999
 31
0.0
  0
ARC
  5
185
  8
┌▓È_1
 62
     5
 10
869.79226827600007
 20
-515.54397085549988
 30
0.0
 40
1.875
 50
103.40801953170001
 51
270.0
  0
ARC
  5
186
  8
┌▓È_1
 62
     5
 10
869.76726827599998
 20
-515.41897085549999
 30
0.0
 40
0.375
 50
126.86989764579999
 51
269.9999974287
  0
LINE
  5
187
  8
┌▓È_1
 62
     5
 10
870.04226827600007
 20
-527.41897085549999
 30
0.0
 11
870.04226827600007
 21
-515.79397085549999
 31
0.0
  0
ARC
  5
188
  8
┌▓È_1
 62
     5
 10
869.54226827599996
 20
-526.41897085549999
 30
0.0
 40
0.5
 50
90.0
 51
180.0
  0
LINE
  5
189
  8
┌▓È_1
 62
     5
 10
869.54226827599996
 20
-525.91897085549988
 30
0.0
 11
870.04226827600007
 21
-525.91897085549988
 31
0.0
  0
ARC
  5
18A
  8
┌▓È_1
 62
     5
 10
867.29226827600007
 20
-525.41897085549988
 30
0.0
 40
4.25
 50
331.92751306420001
 51
360.0
  0
LINE
  5
18B
  8
┌▓È_1
 62
     5
 10
869.54226827599996
 20
-527.41897085549999
 30
0.0
 11
871.04226827599996
 21
-527.41897085549999
 31
0.0
  0
INSERT
  5
18D
  8
┌▓È_1
  2
CLUMP0
 10
0.0
 20
0.0
 30
0.0
  0
LINE
  5
1AA
  8
┌▓È_1
 62
     5
 10
880.54226827600007
 20
-517.79397085549988
 30
0.0
 11
880.54226827600007
 21
-518.29397085549988
 31
0.0
  0
LINE
  5
1AB
  8
┌▓È_1
  6
STITCH
 10
885.70185939039993
 20
-517.79397085549988
 30
0.0
 11
885.70185939039993
 21
-518.9768798737
 31
0.0
  0
LINE
  5
1AC
  8
┌▓È_1
 62
     5
 10
887.15185939039986
 20
-513.71598843599986
 30
0.0
 11
887.15185939039986
 21
-515.79397085549999
 31
0.0
  0
LINE
  5
1AD
  8
┌▓È_1
  6
STITCH
 10
887.15185939039986
 20
-525.91897085549988
 30
0.0
 11
887.15185939039986
 21
-527.41897085549999
 31
0.0
  0
LINE
  5
1AE
  8
┌▓È_1
 62
     5
 10
884.00185939039977
 20
-517.79397085549988
 30
0.0
 11
884.00185939039977
 21
-518.29397085549988
 31
0.0
  0
LINE
  5
1AF
  8
┌▓È_1
 62
     5
 10
871.69226827599994
 20
-519.29397085549999
 30
0.0
 11
876.5422683534
 21
-519.29397085549999
 31
0.0
  0
ARC
  5
1B0
  8
┌▓È_1
 62
     5
 10
873.54226827600007
 20
-521.29397085549988
 30
0.0
 40
2.0
 50
90.0
 51
180.0
  0
LINE
  5
1B1
  8
┌▓È_1
 62
     5
 10
871.54226827600007
 20
-517.29397106459999
 30
0.0
 11
871.54226827600007
 21
-516.04397085549988
 31
0.0
  0
LINE
  5
1B2
  8
┌▓È_1
 62
     5
 10
871.44226827600005
 20
-518.9768798737
 30
0.0
 11
871.19226827600005
 21
-518.9768798737
 31
0.0
  0
LINE
  5
1B3
  8
┌▓È_1
 62
     5
 10
871.19226827600005
 20
-518.9768798737
 30
0.0
 11
871.19226827600005
 21
-517.79397085549988
 31
0.0
  0
ARC
  5
1B4
  8
┌▓È_1
 62
     5
 10
872.04226827599996
 20
-517.29397085549988
 30
0.0
 40
0.5
 50
180.0
 51
270.0
  0
LINE
  5
1B5
  8
┌▓È_1
 62
     5
 10
891.25185939039977
 20
-517.54397085549999
 30
0.0
 11
891.25185939039977
 21
-517.79397085549988
 31
0.0
  0
LINE
  5
1B6
  8
┌▓È_1
 62
     5
 10
888.85185939039991
 20
-515.79397085549999
 30
0.0
 11
888.85185939039991
 21
-513.71598843599986
 31
0.0
  0
LINE
  5
1B7
  8
┌▓È_1
  6
STITCH
 10
888.85185939039991
 20
-517.41897085549988
 30
0.0
 11
888.85185939039991
 21
-515.79397085549999
 31
0.0
  0
LINE
  5
1B8
  8
┌▓È_1
 62
     5
 10
888.92685939039995
 20
-519.24349007260003
 30
0.0
 11
888.92685939039995
 21
-527.41897085549999
 31
0.0
  0
LINE
  5
1B9
  8
É}ÿg
 10
923.4327301175
 20
-527.61318439720003
 30
0.0
 11
923.4327301175
 21
-528.76518439719985
 31
0.0
  0
LINE
  5
1BA
  8
É}ÿg
 10
923.11732587849997
 20
-535.25011521040005
 30
0.0
 11
924.71732587849999
 21
-535.25011521040005
 31
0.0
  0
LINE
  5
1BB
  8
É}ÿg
 10
913.7674897119
 20
-532.43918439720005
 30
0.0
 11
926.7674897119
 21
-532.43918439720005
 31
0.0
  0
CIRCLE
  5
1BC
  8
É}ÿg
 10
920.79948971190004
 20
-528.18918439720005
 30
0.0
 40
0.5760000000000001
  0
LINE
  5
1BD
  8
É}ÿg
  6
BORDER
 10
919.07148971189986
 20
-528.18918439720005
 30
0.0
 11
926.46348971190002
 21
-528.18918439720005
 31
0.0
  0
LINE
  5
1BE
  8
É}ÿg
 10
923.99732587850008
 20
-538.25011521040005
 30
0.0
 11
925.11732587849997
 21
-538.25011521040005
 31
0.0
  0
INSERT
  5
1BF
  8
0
  6
CONTINUOUS
  2
*U38
 10
0.0
 20
0.0
 30
0.0
  0
LINE
  5
1C0
  8
┌▓È_1
 10
922.01748971189988
 20
-517.81418439720005
 30
0.0
 11
922.01748971189988
 21
-509.56418439719999
 31
0.0
  0
INSERT
  5
1C1
  8
0
  6
CONTINUOUS
  2
*U39
 10
0.0
 20
0.0
 30
0.0
  0
LINE
  5
1C2
  8
É}ÿg
 10
923.4327301175
 20
-527.61318439720003
 30
0.0
 11
925.73673011749986
 21
-527.03718439719989
 31
0.0
  0
CIRCLE
  5
1C3
  8
É}ÿg
 10
920.79948971190004
 20
-528.18918439720005
 30
0.0
 40
1.1519999999999999
  0
LINE
  5
1C4
  8
É}ÿg
 10
921.03033281919988
 20
-535.85011521039996
 30
0.0
 11
921.43033281919998
 21
-535.25011521040005
 31
0.0
  0
CIRCLE
  5
1C5
  8
É}ÿg
 10
920.79948971190004
 20
-528.18918439720005
 30
0.0
 40
1.1519999999999999
  0
LINE
  5
1C6
  8
É}ÿg
 10
923.4327301175
 20
-527.61318439720003
 30
0.0
 11
923.4327301175
 21
-528.76518439719985
 31
0.0
  0
ARC
  5
1C7
  8
┌▓È_1
 62
     5
 10
871.29226827599996
 20
-516.04397085549988
 30
0.0
 40
0.25
 50
0.0
 51
90.0
  0
LINE
  5
1C8
  8
┌▓È_1
 62
     5
 10
869.79226827600007
 20
-517.41897085549988
 30
0.0
 11
870.04226827600007
 21
-517.41897085549988
 31
0.0
  0
LINE
  5
1C9
  8
┌▓È_1
 62
     5
 10
887.07685939039993
 20
-515.79397085549999
 30
0.0
 11
887.07685939039993
 21
-517.54397085549999
 31
0.0
  0
LINE
  5
1CA
  8
┌▓È_1
  6
STITCH
 10
887.07685939039993
 20
-517.54397085549999
 30
0.0
 11
887.07685939039993
 21
-519.24349007260003
 31
0.0
  0
LINE
  5
1CB
  8
┌▓È_1
 62
     5
 10
884.75185939039977
 20
-517.54397085549999
 30
0.0
 11
884.75185939039977
 21
-517.79397085549988
 31
0.0
  0
LINE
  5
1CC
  8
┌▓È_1
  6
STITCH
 10
865.18146303820004
 20
-499.47897085549999
 30
0.0
 11
865.18146303820004
 21
-530.34742466659998
 31
0.0
  0
LINE
  5
1CD
  8
┌▓È_1
 62
     5
 10
869.04226827600007
 20
-526.91897085549999
 30
0.0
 11
869.04226827600007
 21
-526.41897085549999
 31
0.0
  0
LINE
  5
1CE
  8
┌▓È_1
 62
     5
 10
871.54226827600007
 20
-525.41897085549988
 30
0.0
 11
871.54226827600007
 21
-521.29397085549988
 31
0.0
  0
POLYLINE
  5
1CF
  8
┌▓È_1
 62
     5
 10
869.54226827600019
 20
-513.86598843599995
 30
0.0
 66
     1
 70
     8
  0
VERTEX
  8
┌▓È_1
  5
546
 10
869.542
 20
-513.866
 30
0.000000
  70
    32
  0
VERTEX
  8
┌▓È_1
  5
547
 10
869.542
 20
-513.864
 30
0.000000
  70
    32
  0
VERTEX
  8
┌▓È_1
  5
548
 10
869.542
 20
-513.862
 30
0.000000
  70
    32
  0
VERTEX
  8
┌▓È_1
  5
549
 10
869.542
 20
-513.860
 30
0.000000
  70
    32
  0
VERTEX
  8
┌▓È_1
  5
54A
 10
869.542
 20
-513.858
 30
0.000000
  70
    32
  0
VERTEX
  8
┌▓È_1
  5
54B
 10
869.542
 20
-513.855
 30
0.000000
  70
    32
  0
VERTEX
  8
┌▓È_1
  5
54C
 10
869.542
 20
-513.853
 30
0.000000
  70
    32
  0
VERTEX
  8
┌▓È_1
  5
54D
 10
869.542
 20
-513.851
 30
0.000000
  70
    32
  0
VERTEX
  8
┌▓È_1
  5
54E
 10
869.541
 20
-513.849
 30
0.000000
  70
    32
  0
VERTEX
  8
┌▓È_1
  5
54F
 10
869.541
 20
-513.847
 30
0.000000
  70
    32
  0
VERTEX
  8
┌▓È_1
  5
550
 10
869.541
 20
-513.845
 30
0.000000
  70
    32
  0
VERTEX
  8
┌▓È_1
  5
551
 10
869.540
 20
-513.843
 30
0.000000
  70
    32
  0
VERTEX
  8
┌▓È_1
  5
552
 10
869.540
 20
-513.841
 30
0.000000
  70
    32
  0
VERTEX
  8
┌▓È_1
  5
553
 10
869.540
 20
-513.839
 30
0.000000
  70
    32
  0
VERTEX
  8
┌▓È_1
  5
554
 10
869.539
 20
-513.837
 30
0.000000
  70
    32
  0
VERTEX
  8
┌▓È_1
  5
555
 10
869.539
 20
-513.834
 30
0.000000
  70
    32
  0
VERTEX
  8
┌▓È_1
  5
556
 10
869.538
 20
-513.832
 30
0.000000
  70
    32
  0
VERTEX
  8
┌▓È_1
  5
557
 10
869.538
 20
-513.830
 30
0.000000
  70
    32
  0
VERTEX
  8
┌▓È_1
  5
558
 10
869.537
 20
-513.828
 30
0.000000
  70
    32
  0
VERTEX
  8
┌▓È_1
  5
559
 10
869.537
 20
-513.826
 30
0.000000
  70
    32
  0
VERTEX
  8
┌▓È_1
  5
55A
 10
869.536
 20
-513.824
 30
0.000000
  70
    32
  0
VERTEX
  8
┌▓È_1
  5
55B
 10
869.536
 20
-513.822
 30
0.000000
  70
    32
  0
VERTEX
  8
┌▓È_1
  5
55C
 10
869.535
 20
-513.820
 30
0.000000
  70
    32
  0
VERTEX
  8
┌▓È_1
  5
55D
 10
869.534
 20
-513.818
 30
0.000000
  70
    32
  0
VERTEX
  8
┌▓È_1
  5
55E
 10
869.534
 20
-513.816
 30
0.000000
  70
    32
  0
VERTEX
  8
┌▓È_1
  5
55F
 10
869.533
 20
-513.814
 30
0.000000
  70
    32
  0
VERTEX
  8
┌▓È_1
  5
560
 10
869.532
 20
-513.812
 30
0.000000
  70
    32
  0
VERTEX
  8
┌▓È_1
  5
561
 10
869.532
 20
-513.810
 30
0.000000
  70
    32
  0
VERTEX
  8
┌▓È_1
  5
562
 10
869.531
 20
-513.808
 30
0.000000
  70
    32
  0
VERTEX
  8
┌▓È_1
  5
563
 10
869.530
 20
-513.806
 30
0.000000
  70
    32
  0
VERTEX
  8
┌▓È_1
  5
564
 10
869.529
 20
-513.804
 30
0.000000
  70
    32
  0
VERTEX
  8
┌▓È_1
  5
565
 10
869.528
 20
-513.802
 30
0.000000
  70
    32
  0
VERTEX
  8
┌▓È_1
  5
566
 10
869.527
 20
-513.801
 30
0.000000
  70
    32
  0
VERTEX
  8
┌▓È_1
  5
567
 10
869.526
 20
-513.799
 30
0.000000
  70
    32
  0
VERTEX
  8
┌▓È_1
  5
568
 10
869.525
 20
-513.797
 30
0.000000
  70
    32
  0
VERTEX
  8
┌▓È_1
  5
569
 10
869.524
 20
-513.795
 30
0.000000
  70
    32
  0
VERTEX
  8
┌▓È_1
  5
56A
 10
869.523
 20
-513.793
 30
0.000000
  70
    32
  0
VERTEX
  8
┌▓È_1
  5
56B
 10
869.522
 20
-513.791
 30
0.000000
  70
    32
  0
VERTEX
  8
┌▓È_1
  5
56C
 10
869.521
 20
-513.789
 30
0.000000
  70
    32
  0
VERTEX
  8
┌▓È_1
  5
56D
 10
869.520
 20
-513.788
 30
0.000000
  70
    32
  0
VERTEX
  8
┌▓È_1
  5
56E
 10
869.519
 20
-513.786
 30
0.000000
  70
    32
  0
VERTEX
  8
┌▓È_1
  5
56F
 10
869.518
 20
-513.784
 30
0.000000
  70
    32
  0
VERTEX
  8
┌▓È_1
  5
570
 10
869.517
 20
-513.782
 30
0.000000
  70
    32
  0
VERTEX
  8
┌▓È_1
  5
571
 10
869.516
 20
-513.781
 30
0.000000
  70
    32
  0
VERTEX
  8
┌▓È_1
  5
572
 10
869.514
 20
-513.779
 30
0.000000
  70
    32
  0
VERTEX
  8
┌▓È_1
  5
573
 10
869.513
 20
-513.777
 30
0.000000
  70
    32
  0
VERTEX
  8
┌▓È_1
  5
574
 10
869.512
 20
-513.775
 30
0.000000
  70
    32
  0
VERTEX
  8
┌▓È_1
  5
575
 10
869.511
 20
-513.774
 30
0.000000
  70
    32
  0
VERTEX
  8
┌▓È_1
  5
576
 10
869.509
 20
-513.772
 30
0.000000
  70
    32
  0
VERTEX
  8
┌▓È_1
  5
577
 10
869.508
 20
-513.770
 30
0.000000
  70
    32
  0
VERTEX
  8
┌▓È_1
  5
578
 10
869.507
 20
-513.769
 30
0.000000
  70
    32
  0
VERTEX
  8
┌▓È_1
  5
579
 10
869.505
 20
-513.767
 30
0.000000
  70
    32
  0
VERTEX
  8
┌▓È_1
  5
57A
 10
869.504
 20
-513.766
 30
0.000000
  70
    32
  0
VERTEX
  8
┌▓È_1
  5
57B
 10
869.502
 20
-513.764
 30
0.000000
  70
    32
  0
VERTEX
  8
┌▓È_1
  5
57C
 10
869.501
 20
-513.762
 30
0.000000
  70
    32
  0
VERTEX
  8
┌▓È_1
  5
57D
 10
869.499
 20
-513.761
 30
0.000000
  70
    32
  0
VERTEX
  8
┌▓È_1
  5
57E
 10
869.498
 20
-513.759
 30
0.000000
  70
    32
  0
VERTEX
  8
┌▓È_1
  5
57F
 10
869.496
 20
-513.758
 30
0.000000
  70
    32
  0
VERTEX
  8
┌▓È_1
  5
580
 10
869.495
 20
-513.757
 30
0.000000
  70
    32
  0
VERTEX
  8
┌▓È_1
  5
581
 10
869.493
 20
-513.755
 30
0.000000
  70
    32
  0
VERTEX
  8
┌▓È_1
  5
582
 10
869.492
 20
-513.754
 30
0.000000
  70
    32
  0
VERTEX
  8
┌▓È_1
  5
583
 10
869.490
 20
-513.752
 30
0.000000
  70
    32
  0
VERTEX
  8
┌▓È_1
  5
584
 10
869.489
 20
-513.751
 30
0.000000
  70
    32
  0
VERTEX
  8
┌▓È_1
  5
585
 10
869.487
 20
-513.750
 30
0.000000
  70
    32
  0
VERTEX
  8
┌▓È_1
  5
586
 10
869.485
 20
-513.748
 30
0.000000
  70
    32
  0
VERTEX
  8
┌▓È_1
  5
587
 10
869.484
 20
-513.747
 30
0.000000
  70
    32
  0
VERTEX
  8
┌▓È_1
  5
588
 10
869.482
 20
-513.746
 30
0.000000
  70
    32
  0
VERTEX
  8
┌▓È_1
  5
589
 10
869.480
 20
-513.744
 30
0.000000
  70
    32
  0
VERTEX
  8
┌▓È_1
  5
58A
 10
869.478
 20
-513.743
 30
0.000000
  70
    32
  0
VERTEX
  8
┌▓È_1
  5
58B
 10
869.477
 20
-513.742
 30
0.000000
  70
    32
  0
VERTEX
  8
┌▓È_1
  5
58C
 10
869.475
 20
-513.741
 30
0.000000
  70
    32
  0
VERTEX
  8
┌▓È_1
  5
58D
 10
869.473
 20
-513.740
 30
0.000000
  70
    32
  0
VERTEX
  8
┌▓È_1
  5
58E
 10
869.471
 20
-513.739
 30
0.000000
  70
    32
  0
VERTEX
  8
┌▓È_1
  5
58F
 10
869.470
 20
-513.737
 30
0.000000
  70
    32
  0
VERTEX
  8
┌▓È_1
  5
590
 10
869.468
 20
-513.736
 30
0.000000
  70
    32
  0
VERTEX
  8
┌▓È_1
  5
591
 10
869.466
 20
-513.735
 30
0.000000
  70
    32
  0
VERTEX
  8
┌▓È_1
  5
592
 10
869.464
 20
-513.734
 30
0.000000
  70
    32
  0
VERTEX
  8
┌▓È_1
  5
593
 10
869.462
 20
-513.733
 30
0.000000
  70
    32
  0
VERTEX
  8
┌▓È_1
  5
594
 10
869.460
 20
-513.732
 30
0.000000
  70
    32
  0
VERTEX
  8
┌▓È_1
  5
595
 10
869.458
 20
-513.731
 30
0.000000
  70
    32
  0
VERTEX
  8
┌▓È_1
  5
596
 10
869.457
 20
-513.730
 30
0.000000
  70
    32
  0
VERTEX
  8
┌▓È_1
  5
597
 10
869.455
 20
-513.730
 30
0.000000
  70
    32
  0
VERTEX
  8
┌▓È_1
  5
598
 10
869.453
 20
-513.729
 30
0.000000
  70
    32
  0
VERTEX
  8
┌▓È_1
  5
599
 10
869.451
 20
-513.728
 30
0.000000
  70
    32
  0
VERTEX
  8
┌▓È_1
  5
59A
 10
869.449
 20
-513.727
 30
0.000000
  70
    32
  0
VERTEX
  8
┌▓È_1
  5
59B
 10
869.447
 20
-513.726
 30
0.000000
  70
    32
  0
VERTEX
  8
┌▓È_1
  5
59C
 10
869.445
 20
-513.726
 30
0.000000
  70
    32
  0
VERTEX
  8
┌▓È_1
  5
59D
 10
869.443
 20
-513.725
 30
0.000000
  70
    32
  0
VERTEX
  8
┌▓È_1
  5
59E
 10
869.441
 20
-513.724
 30
0.000000
  70
    32
  0
VERTEX
  8
┌▓È_1
  5
59F
 10
869.439
 20
-513.723
 30
0.000000
  70
    32
  0
VERTEX
  8
┌▓È_1
  5
5A0
 10
869.437
 20
-513.723
 30
0.000000
  70
    32
  0
VERTEX
  8
┌▓È_1
  5
5A1
 10
869.435
 20
-513.722
 30
0.000000
  70
    32
  0
VERTEX
  8
┌▓È_1
  5
5A2
 10
869.433
 20
-513.722
 30
0.000000
  70
    32
  0
VERTEX
  8
┌▓È_1
  5
5A3
 10
869.431
 20
-513.721
 30
0.000000
  70
    32
  0
VERTEX
  8
┌▓È_1
  5
5A4
 10
869.429
 20
-513.720
 30
0.000000
  70
    32
  0
VERTEX
  8
┌▓È_1
  5
5A5
 10
869.427
 20
-513.720
 30
0.000000
  70
    32
  0
VERTEX
  8
┌▓È_1
  5
5A6
 10
869.425
 20
-513.720
 30
0.000000
  70
    32
  0
VERTEX
  8
┌▓È_1
  5
5A7
 10
869.423
 20
-513.719
 30
0.000000
  70
    32
  0
VERTEX
  8
┌▓È_1
  5
5A8
 10
869.420
 20
-513.719
 30
0.000000
  70
    32
  0
VERTEX
  8
┌▓È_1
  5
5A9
 10
869.418
 20
-513.718
 30
0.000000
  70
    32
  0
VERTEX
  8
┌▓È_1
  5
5AA
 10
869.416
 20
-513.718
 30
0.000000
  70
    32
  0
VERTEX
  8
┌▓È_1
  5
5AB
 10
869.414
 20
-513.718
 30
0.000000
  70
    32
  0
VERTEX
  8
┌▓È_1
  5
5AC
 10
869.412
 20
-513.717
 30
0.000000
  70
    32
  0
VERTEX
  8
┌▓È_1
  5
5AD
 10
869.410
 20
-513.717
 30
0.000000
  70
    32
  0
VERTEX
  8
┌▓È_1
  5
5AE
 10
869.408
 20
-513.717
 30
0.000000
  70
    32
  0
VERTEX
  8
┌▓È_1
  5
5AF
 10
869.406
 20
-513.717
 30
0.000000
  70
    32
  0
VERTEX
  8
┌▓È_1
  5
5B0
 10
869.404
 20
-513.716
 30
0.000000
  70
    32
  0
VERTEX
  8
┌▓È_1
  5
5B1
 10
869.402
 20
-513.716
 30
0.000000
  70
    32
  0
VERTEX
  8
┌▓È_1
  5
5B2
 10
869.399
 20
-513.716
 30
0.000000
  70
    32
  0
VERTEX
  8
┌▓È_1
  5
5B3
 10
869.397
 20
-513.716
 30
0.000000
  70
    32
  0
VERTEX
  8
┌▓È_1
  5
5B4
 10
869.395
 20
-513.716
 30
0.000000
  70
    32
  0
VERTEX
  8
┌▓È_1
  5
5B5
 10
869.393
 20
-513.716
 30
0.000000
  70
    32
  0
VERTEX
  8
┌▓È_1
  5
5B6
 10
869.391
 20
-513.716
 30
0.000000
  70
    32
  0
VERTEX
  8
┌▓È_1
  5
5B7
 10
869.389
 20
-513.716
 30
0.000000
  70
    32
  0
VERTEX
  8
┌▓È_1
  5
5B8
 10
869.387
 20
-513.716
 30
0.000000
  70
    32
  0
VERTEX
  8
┌▓È_1
  5
5B9
 10
869.385
 20
-513.716
 30
0.000000
  70
    32
  0
VERTEX
  8
┌▓È_1
  5
5BA
 10
869.383
 20
-513.716
 30
0.000000
  70
    32
  0
VERTEX
  8
┌▓È_1
  5
5BB
 10
869.380
 20
-513.716
 30
0.000000
  70
    32
  0
VERTEX
  8
┌▓È_1
  5
5BC
 10
869.378
 20
-513.717
 30
0.000000
  70
    32
  0
VERTEX
  8
┌▓È_1
  5
5BD
 10
869.376
 20
-513.717
 30
0.000000
  70
    32
  0
VERTEX
  8
┌▓È_1
  5
5BE
 10
869.374
 20
-513.717
 30
0.000000
  70
    32
  0
VERTEX
  8
┌▓È_1
  5
5BF
 10
869.372
 20
-513.717
 30
0.000000
  70
    32
  0
VERTEX
  8
┌▓È_1
  5
5C0
 10
869.370
 20
-513.718
 30
0.000000
  70
    32
  0
VERTEX
  8
┌▓È_1
  5
5C1
 10
869.368
 20
-513.718
 30
0.000000
  70
    32
  0
VERTEX
  8
┌▓È_1
  5
5C2
 10
869.366
 20
-513.718
 30
0.000000
  70
    32
  0
VERTEX
  8
┌▓È_1
  5
5C3
 10
869.364
 20
-513.719
 30
0.000000
  70
    32
  0
VERTEX
  8
┌▓È_1
  5
5C4
 10
869.362
 20
-513.719
 30
0.000000
  70
    32
  0
VERTEX
  8
┌▓È_1
  5
5C5
 10
869.360
 20
-513.720
 30
0.000000
  70
    32
  0
VERTEX
  8
┌▓È_1
  5
5C6
 10
869.357
 20
-513.720
 30
0.000000
  70
    32
  0
SEQEND
  8
┌▓È_1
  5
5C7
  0
LINE
  5
1D0
  8
┌▓È_1
 62
     5
 10
869.54226827599996
 20
-515.11897085550004
 30
0.0
 11
869.54226827599996
 21
-513.86598843599995
 31
0.0
  0
LINE
  5
1D1
  8
┌▓È_1
  6
STITCH
 10
887.15185939039986
 20
-515.79397085549999
 30
0.0
 11
887.15185939039986
 21
-517.41897085549988
 31
0.0
  0
INSERT
  5
1D2
  8
0
  6
CONTINUOUS
  2
*U40
 10
0.0
 20
0.0
 30
0.0
  0
INSERT
  5
1D3
  8
0
  6
CONTINUOUS
  2
*U41
 10
0.0
 20
0.0
 30
0.0
  0
INSERT
  5
1D4
  8
0
  6
CONTINUOUS
  2
*U42
 10
0.0
 20
0.0
 30
0.0
  0
LINE
  5
1D5
  8
É}ÿg
 10
922.3173258784999
 20
-535.93011521039989
 30
0.0
 11
922.3173258784999
 21
-536.65011521040003
 31
0.0
  0
LINE
  5
1D6
  8
É}ÿg
 10
922.3173258784999
 20
-536.97011521039985
 30
0.0
 11
923.62185921180003
 21
-536.97011521039985
 31
0.0
  0
LINE
  5
1D7
  8
É}ÿg
 10
921.43033281919998
 20
-535.25011521040005
 30
0.0
 11
917.83033281919995
 21
-535.25011521040005
 31
0.0
  0
LINE
  5
1D8
  8
É}ÿg
 10
922.3173258784999
 20
-537.69011521039988
 30
0.0
 11
923.83305921179976
 21
-537.69011521039988
 31
0.0
  0
LINE
  5
1D9
  8
É}ÿg
 10
922.3173258784999
 20
-535.93011521039989
 30
0.0
 11
923.31679254520009
 21
-535.93011521039989
 31
0.0
  0
LINE
  5
1DA
  8
É}ÿg
 10
923.4327301175
 20
-527.61318439720003
 30
0.0
 11
925.73673011749986
 21
-527.03718439719989
 31
0.0
  0
CIRCLE
  5
1DB
  8
É}ÿg
 10
920.79948971190004
 20
-528.18918439720005
 30
0.0
 40
0.5760000000000001
  0
CIRCLE
  5
1DC
  8
É}ÿg
 10
920.79948971190004
 20
-528.18918439720005
 30
0.0
 40
1.1519999999999999
  0
LINE
  5
1DD
  8
É}ÿg
 10
923.4327301175
 20
-527.61318439720003
 30
0.0
 11
925.73673011749986
 21
-527.03718439719989
 31
0.0
  0
LINE
  5
1DE
  8
É}ÿg
 10
923.4327301175
 20
-528.76518439719985
 30
0.0
 11
925.73673011749986
 21
-529.34118439719987
 31
0.0
  0
LINE
  5
1DF
  8
É}ÿg
 10
923.4327301175
 20
-527.61318439720003
 30
0.0
 11
923.4327301175
 21
-528.76518439719985
 31
0.0
  0
ARC
  5
1E0
  8
É}ÿg
 10
918.83033281919995
 20
-535.85011521039996
 30
0.0
 40
2.2000000000000002
 50
322.48761197969998
 51
0.0
  0
LINE
  5
1E1
  8
É}ÿg
 10
921.03033281919988
 20
-535.85011521039996
 30
0.0
 11
921.43033281919998
 21
-535.25011521040005
 31
0.0
  0
LINE
  5
1E2
  8
É}ÿg
 10
923.62185921180003
 20
-536.97011521039985
 30
0.0
 11
923.52799254520005
 21
-536.65011521040003
 31
0.0
  0
LINE
  5
1E3
  8
É}ÿg
 10
922.3173258784999
 20
-536.65011521040003
 30
0.0
 11
923.52799254520005
 21
-536.65011521040003
 31
0.0
  0
LINE
  5
1E4
  8
É}ÿg
 10
921.43033281919998
 20
-537.45011521039999
 30
0.0
 11
921.43033281919998
 21
-538.05011521040001
 31
0.0
  0
LINE
  5
1E5
  8
É}ÿg
 10
915.16609039490004
 20
-536.05011521039989
 30
0.0
 11
914.36609039490008
 21
-536.05011521039989
 31
0.0
  0
LINE
  5
1E6
  8
É}ÿg
  6
BORDER
 10
920.79948971190004
 20
-526.46118439719999
 30
0.0
 11
920.79948971190004
 21
-529.9171843972
 31
0.0
  0
LINE
  5
1E7
  8
É}ÿg
 10
923.99732587850008
 20
-538.25011521040005
 30
0.0
 11
923.83305921179976
 21
-537.69011521039988
 31
0.0
  0
LINE
  5
1E8
  8
É}ÿg
 10
923.4327301175
 20
-528.76518439719985
 30
0.0
 11
925.73673011749986
 21
-529.34118439719987
 31
0.0
  0
CIRCLE
  5
1E9
  8
É}ÿg
 10
920.79948971190004
 20
-528.18918439720005
 30
0.0
 40
0.5760000000000001
  0
CIRCLE
  5
1EA
  8
É}ÿg
 10
920.79948971190004
 20
-528.18918439720005
 30
0.0
 40
1.1519999999999999
  0
LINE
  5
1EB
  8
É}ÿg
 10
923.4327301175
 20
-527.61318439720003
 30
0.0
 11
925.73673011749986
 21
-527.03718439719989
 31
0.0
  0
LINE
  5
1EC
  8
É}ÿg
 10
917.83033281919995
 20
-537.45011521039999
 30
0.0
 11
917.83033281919995
 21
-538.05011521040001
 31
0.0
  0
LINE
  5
1ED
  8
É}ÿg
 10
912.90564887029996
 20
-536.05011521039989
 30
0.0
 11
912.90564887029996
 21
-536.65011521040003
 31
0.0
  0
LINE
  5
1EE
  8
É}ÿg
 10
916.76609039489995
 20
-536.05011521039989
 30
0.0
 11
916.16609039490004
 21
-536.05011521039989
 31
0.0
  0
ARC
  5
1EF
  8
É}ÿg
 10
918.31033281919997
 20
-535.93011521039989
 30
0.0
 40
1.52
 50
331.39928138329998
 51
358.49204224580001
  0
LINE
  5
1F0
  8
É}ÿg
 10
917.83033281919995
 20
-538.05011521040001
 30
0.0
 11
918.83033281919995
 21
-538.05011521040001
 31
0.0
  0
LINE
  5
1F1
  8
É}ÿg
 10
913.36609039490008
 20
-538.05011521040001
 30
0.0
 11
914.96609039490011
 21
-538.05011521040001
 31
0.0
  0
LINE
  5
1F2
  8
É}ÿg
 10
916.76609039489995
 20
-535.25011521040005
 30
0.0
 11
915.16609039490004
 21
-535.25011521040005
 31
0.0
  0
LINE
  5
1F3
  8
É}ÿg
 10
916.16609039490004
 20
-536.05011521039989
 30
0.0
 11
916.16609039490004
 21
-535.85011521039996
 31
0.0
  0
LINE
  5
1F4
  8
É}ÿg
 10
916.16609039490004
 20
-536.85011521039985
 30
0.0
 11
916.16609039490004
 21
-536.65011521040003
 31
0.0
  0
LINE
  5
1F5
  8
É}ÿg
 10
917.83033281919995
 20
-536.17895931739986
 30
0.0
 11
919.43033281919986
 21
-536.17895931739986
 31
0.0
  0
ARC
  5
1F6
  8
É}ÿg
 10
914.56609039490002
 20
-536.85011521039985
 30
0.0
 40
0.6
 50
270.0
 51
0.0
  0
LINE
  5
1F7
  8
É}ÿg
 10
913.36609039490008
 20
-537.45011521039999
 30
0.0
 11
913.36609039490008
 21
-538.05011521040001
 31
0.0
  0
LINE
  5
1F8
  8
É}ÿg
 10
920.57542055999988
 20
-537.18976769400001
 30
0.0
 11
920.5041797360999
 21
-537.25951895169987
 31
0.0
  0
ARC
  5
1F9
  8
É}ÿg
 10
918.83033281919995
 20
-535.85011521039996
 30
0.0
 40
2.2000000000000002
 50
270.0
 51
302.54495885400001
  0
LINE
  5
1FA
  8
É}ÿg
 10
916.16609039490004
 20
-535.85011521039996
 30
0.0
 11
916.76609039489995
 21
-535.25011521040005
 31
0.0
  0
LINE
  5
1FB
  8
É}ÿg
 10
913.36609039490008
 20
-537.25011521040005
 30
0.0
 11
914.36609039490008
 21
-537.25011521040005
 31
0.0
  0
LINE
  5
1FC
  8
É}ÿg
 10
917.83033281919995
 20
-538.05011521040001
 30
0.0
 11
917.83033281919995
 21
-537.45011521039999
 31
0.0
  0
LINE
  5
1FD
  8
É}ÿg
 10
922.3173258784999
 20
-536.97011521039985
 30
0.0
 11
922.3173258784999
 21
-537.69011521039988
 31
0.0
  0
LINE
  5
1FE
  8
É}ÿg
 10
915.16609039490004
 20
-535.25011521040005
 30
0.0
 11
915.16609039490004
 21
-536.05011521039989
 31
0.0
  0
ARC
  5
1FF
  8
É}ÿg
 10
918.31033281919997
 20
-535.93011521039989
 30
0.0
 40
1.52
 50
270.0
 51
298.08590481520002
  0
LINE
  5
200
  8
É}ÿg
 10
923.4327301175
 20
-527.61318439720003
 30
0.0
 11
923.4327301175
 21
-528.76518439719985
 31
0.0
  0
LINE
  5
201
  8
É}ÿg
 10
923.4327301175
 20
-528.76518439719985
 30
0.0
 11
925.73673011749986
 21
-529.34118439719987
 31
0.0
  0
INSERT
  5
202
  8
0
  6
CONTINUOUS
  2
*U43
 10
0.0
 20
0.0
 30
0.0
  0
INSERT
  5
203
  8
0
  6
CONTINUOUS
  2
*U44
 10
0.0
 20
0.0
 30
0.0
  0
LINE
  5
204
  8
É}ÿg
 10
907.76748971189988
 20
-526.06418439720005
 30
0.0
 11
907.76748971189988
 21
-520.56418439720005
 31
0.0
  0
LINE
  5
205
  8
É}ÿg
 10
914.36609039490008
 20
-537.25011521040005
 30
0.0
 11
914.36609039490008
 21
-536.65011521040003
 31
0.0
  0
LINE
  5
206
  8
É}ÿg
 10
917.83033281919995
 20
-535.25011521040005
 30
0.0
 11
917.83033281919995
 21
-535.97011521039985
 31
0.0
  0
LINE
  5
207
  8
É}ÿg
 10
912.90564887029996
 20
-536.65011521040003
 30
0.0
 11
913.30564887029993
 21
-536.65011521040003
 31
0.0
  0
LINE
  5
208
  8
É}ÿg
 10
908.76748971189988
 20
-528.18918439720005
 30
0.0
 11
915.76748971189988
 21
-528.18918439720005
 31
0.0
  0
INSERT
  5
209
  8
0
  6
CONTINUOUS
  2
*U45
 10
0.0
 20
0.0
 30
0.0
  0
LINE
  5
20A
  8
É}ÿg
 10
917.83033281919995
 20
-535.97011521039985
 30
0.0
 11
919.83033281919995
 21
-535.97011521039985
 31
0.0
  0
LINE
  5
20B
  8
É}ÿg
 10
914.56609039490002
 20
-537.45011521039999
 30
0.0
 11
913.36609039490008
 21
-537.45011521039999
 31
0.0
  0
LINE
  5
20C
  8
É}ÿg
 10
917.83033281919995
 20
-537.45011521039999
 30
0.0
 11
918.31033281919997
 21
-537.45011521039999
 31
0.0
  0
LINE
  5
20D
  8
É}ÿg
 10
913.36609039490008
 20
-535.25011521040005
 30
0.0
 11
913.36609039490008
 21
-536.05011521039989
 31
0.0
  0
LINE
  5
20E
  8
É}ÿg
 10
913.36609039490008
 20
-536.65011521040003
 30
0.0
 11
913.36609039490008
 21
-537.25011521040005
 31
0.0
  0
LINE
  5
20F
  8
É}ÿg
 10
912.7674897119
 20
-530.31418439720005
 30
0.0
 11
912.7674897119
 21
-534.56418439720005
 31
0.0
  0
LINE
  5
210
  8
É}ÿg
 10
907.76748971189988
 20
-526.06418439720005
 30
0.0
 11
907.76748971189988
 21
-530.31418439720005
 31
0.0
  0
LINE
  5
211
  8
É}ÿg
 10
917.7674897119
 20
-526.06418439720005
 30
0.0
 11
917.7674897119
 21
-530.31418439720005
 31
0.0
  0
LINE
  5
212
  8
É}ÿg
 10
919.64485781579992
 20
-536.65774357249995
 30
0.0
 11
919.54861949329995
 21
-536.76403891669986
 31
0.0
  0
LINE
  5
213
  8
É}ÿg
 10
914.36609039490008
 20
-536.05011521039989
 30
0.0
 11
914.36609039490008
 21
-535.85011521039996
 31
0.0
  0
LINE
  5
214
  8
É}ÿg
 10
916.76609039489995
 20
-536.05011521039989
 30
0.0
 11
916.76609039489995
 21
-536.65011521040003
 31
0.0
  0
LINE
  5
215
  8
É}ÿg
 10
914.36609039490008
 20
-535.85011521039996
 30
0.0
 11
914.96609039490011
 21
-535.25011521040005
 31
0.0
  0
LINE
  5
216
  8
É}ÿg
 10
914.96609039490011
 20
-535.25011521040005
 30
0.0
 11
913.36609039490008
 21
-535.25011521040005
 31
0.0
  0
INSERT
  5
217
  8
0
  6
CONTINUOUS
  2
*U46
 10
0.0
 20
0.0
 30
0.0
  0
INSERT
  5
218
  8
0
  6
CONTINUOUS
  2
*U47
 10
0.0
 20
0.0
 30
0.0
  0
LINE
  5
219
  8
É}ÿg
  6
BORDER
 10
920.79948971190004
 20
-526.46118439719999
 30
0.0
 11
920.79948971190004
 21
-529.9171843972
 31
0.0
  0
LINE
  5
21A
  8
É}ÿg
 10
923.31679254520009
 20
-535.93011521039989
 30
0.0
 11
923.11732587849997
 21
-535.25011521040005
 31
0.0
  0
CIRCLE
  5
21B
  8
É}ÿg
 10
920.79948971190004
 20
-528.18918439720005
 30
0.0
 40
0.5760000000000001
  0
LINE
  5
21C
  8
É}ÿg
 10
923.4327301175
 20
-528.76518439719985
 30
0.0
 11
925.73673011749986
 21
-529.34118439719987
 31
0.0
  0
LINE
  5
21D
  8
É}ÿg
 10
924.44971162089996
 20
-535.93011521039989
 30
0.0
 11
924.39115392079987
 21
-535.72662365420001
 31
0.0
  0
LINE
  5
21E
  8
É}ÿg
 10
925.91732587850015
 20
-536.97011521039985
 30
0.0
 11
925.91732587850015
 21
-537.69011521039988
 31
0.0
  0
LINE
  5
21F
  8
É}ÿg
 10
924.65690225259993
 20
-536.65011521040003
 30
0.0
 11
925.91732587850015
 21
-536.65011521040003
 31
0.0
  0
LINE
  5
220
  8
É}ÿg
 10
925.73673011749986
 20
-527.03718439719989
 30
0.0
 11
925.73673011749986
 21
-529.34118439719987
 31
0.0
  0
LINE
  5
221
  8
É}ÿg
 10
924.39115392079987
 20
-535.72662365420001
 30
0.0
 11
924.71732587849999
 21
-535.25011521040005
 31
0.0
  0
LINE
  5
222
  8
É}ÿg
  6
BORDER
 10
920.79948971190004
 20
-526.46118439719999
 30
0.0
 11
920.79948971190004
 21
-529.9171843972
 31
0.0
  0
LINE
  5
223
  8
É}ÿg
 10
914.36609039490008
 20
-536.65011521040003
 30
0.0
 11
915.16609039490004
 21
-536.65011521040003
 31
0.0
  0
LINE
  5
224
  8
É}ÿg
 10
915.16609039490004
 20
-536.65011521040003
 30
0.0
 11
915.16609039490004
 21
-536.85011521039985
 31
0.0
  0
LINE
  5
225
  8
É}ÿg
 10
917.83033281919995
 20
-536.30780342440005
 30
0.0
 11
917.83033281919995
 21
-536.17895931739986
 31
0.0
  0
LINE
  5
226
  8
É}ÿg
 10
919.43033281919986
 20
-536.17895931739986
 30
0.0
 11
919.20405864919996
 21
-536.40523348739987
 31
0.0
  0
LINE
  5
227
  8
É}ÿg
  6
BORDER
 10
920.79948971190004
 20
-526.46118439719999
 30
0.0
 11
920.79948971190004
 21
-529.9171843972
 31
0.0
  0
INSERT
  5
228
  8
0
  6
CONTINUOUS
  2
*U48
 10
0.0
 20
0.0
 30
0.0
  0
INSERT
  5
229
  8
0
  6
CONTINUOUS
  2
*U49
 10
0.0
 20
0.0
 30
0.0
  0
INSERT
  5
22A
  8
0
  6
CONTINUOUS
  2
*U50
 10
0.0
 20
0.0
 30
0.0
  0
INSERT
  5
22B
  8
0
  6
CONTINUOUS
  2
*U51
 10
0.0
 20
0.0
 30
0.0
  0
INSERT
  5
22C
  8
0
  6
CONTINUOUS
  2
*U52
 10
0.0
 20
0.0
 30
0.0
  0
INSERT
  5
22D
  8
0
  6
CONTINUOUS
  2
*U53
 10
0.0
 20
0.0
 30
0.0
  0
INSERT
  5
22E
  8
0
  6
CONTINUOUS
  2
*U54
 10
0.0
 20
0.0
 30
0.0
  0
LINE
  5
22F
  8
É}ÿg
 10
913.36609039490008
 20
-536.65011521040003
 30
0.0
 11
913.30564887029993
 21
-536.65011521040003
 31
0.0
  0
LINE
  5
230
  8
É}ÿg
 10
925.91732587850015
 20
-535.93011521039989
 30
0.0
 11
925.91732587850015
 21
-536.65011521040003
 31
0.0
  0
LINE
  5
231
  8
É}ÿg
 10
925.73673011749986
 20
-527.03718439719989
 30
0.0
 11
925.73673011749986
 21
-529.34118439719987
 31
0.0
  0
ARC
  5
232
  8
É}ÿg
 10
914.96609039490011
 20
-536.85011521039985
 30
0.0
 40
1.1999999999999991
 50
270.0
 51
0.0
  0
LINE
  5
233
  8
É}ÿg
 10
913.36609039490008
 20
-536.05011521039989
 30
0.0
 11
912.90564887029996
 21
-536.05011521039989
 31
0.0
  0
LINE
  5
234
  8
É}ÿg
 10
916.16609039490004
 20
-536.65011521040003
 30
0.0
 11
916.76609039489995
 21
-536.65011521040003
 31
0.0
  0
INSERT
  5
235
  8
0
  6
CONTINUOUS
  2
*U55
 10
0.0
 20
0.0
 30
0.0
  0
POLYLINE
  8
É}ÿg
  5
5C8
  66
     1
 10
0.000000
 20
0.000000
 30
0.000000
  70
     8
  0
VERTEX
  8
É}ÿg
  5
5C9
 10
919.204
 20
-536.405
 30
0.000000
  70
    32
  0
VERTEX
  8
É}ÿg
  5
5CA
 10
919.207
 20
-536.408
 30
0.000000
  70
    32
  0
VERTEX
  8
É}ÿg
  5
5CB
 10
919.209
 20
-536.411
 30
0.000000
  70
    32
  0
VERTEX
  8
É}ÿg
  5
5CC
 10
919.212
 20
-536.414
 30
0.000000
  70
    32
  0
VERTEX
  8
É}ÿg
  5
5CD
 10
919.215
 20
-536.417
 30
0.000000
  70
    32
  0
VERTEX
  8
É}ÿg
  5
5CE
 10
919.217
 20
-536.420
 30
0.000000
  70
    32
  0
VERTEX
  8
É}ÿg
  5
5CF
 10
919.220
 20
-536.423
 30
0.000000
  70
    32
  0
VERTEX
  8
É}ÿg
  5
5D0
 10
919.223
 20
-536.426
 30
0.000000
  70
    32
  0
VERTEX
  8
É}ÿg
  5
5D1
 10
919.225
 20
-536.429
 30
0.000000
  70
    32
  0
VERTEX
  8
É}ÿg
  5
5D2
 10
919.228
 20
-536.432
 30
0.000000
  70
    32
  0
VERTEX
  8
É}ÿg
  5
5D3
 10
919.230
 20
-536.435
 30
0.000000
  70
    32
  0
VERTEX
  8
É}ÿg
  5
5D4
 10
919.233
 20
-536.438
 30
0.000000
  70
    32
  0
VERTEX
  8
É}ÿg
  5
5D5
 10
919.236
 20
-536.441
 30
0.000000
  70
    32
  0
VERTEX
  8
É}ÿg
  5
5D6
 10
919.238
 20
-536.443
 30
0.000000
  70
    32
  0
VERTEX
  8
É}ÿg
  5
5D7
 10
919.241
 20
-536.446
 30
0.000000
  70
    32
  0
VERTEX
  8
É}ÿg
  5
5D8
 10
919.244
 20
-536.449
 30
0.000000
  70
    32
  0
VERTEX
  8
É}ÿg
  5
5D9
 10
919.246
 20
-536.452
 30
0.000000
  70
    32
  0
VERTEX
  8
É}ÿg
  5
5DA
 10
919.249
 20
-536.455
 30
0.000000
  70
    32
  0
VERTEX
  8
É}ÿg
  5
5DB
 10
919.252
 20
-536.458
 30
0.000000
  70
    32
  0
VERTEX
  8
É}ÿg
  5
5DC
 10
919.254
 20
-536.461
 30
0.000000
  70
    32
  0
VERTEX
  8
É}ÿg
  5
5DD
 10
919.257
 20
-536.464
 30
0.000000
  70
    32
  0
VERTEX
  8
É}ÿg
  5
5DE
 10
919.260
 20
-536.467
 30
0.000000
  70
    32
  0
VERTEX
  8
É}ÿg
  5
5DF
 10
919.262
 20
-536.470
 30
0.000000
  70
    32
  0
VERTEX
  8
É}ÿg
  5
5E0
 10
919.265
 20
-536.473
 30
0.000000
  70
    32
  0
VERTEX
  8
É}ÿg
  5
5E1
 10
919.267
 20
-536.476
 30
0.000000
  70
    32
  0
VERTEX
  8
É}ÿg
  5
5E2
 10
919.270
 20
-536.479
 30
0.000000
  70
    32
  0
VERTEX
  8
É}ÿg
  5
5E3
 10
919.273
 20
-536.482
 30
0.000000
  70
    32
  0
VERTEX
  8
É}ÿg
  5
5E4
 10
919.275
 20
-536.485
 30
0.000000
  70
    32
  0
VERTEX
  8
É}ÿg
  5
5E5
 10
919.278
 20
-536.487
 30
0.000000
  70
    32
  0
VERTEX
  8
É}ÿg
  5
5E6
 10
919.281
 20
-536.490
 30
0.000000
  70
    32
  0
VERTEX
  8
É}ÿg
  5
5E7
 10
919.283
 20
-536.493
 30
0.000000
  70
    32
  0
VERTEX
  8
É}ÿg
  5
5E8
 10
919.286
 20
-536.496
 30
0.000000
  70
    32
  0
VERTEX
  8
É}ÿg
  5
5E9
 10
919.289
 20
-536.499
 30
0.000000
  70
    32
  0
VERTEX
  8
É}ÿg
  5
5EA
 10
919.291
 20
-536.502
 30
0.000000
  70
    32
  0
VERTEX
  8
É}ÿg
  5
5EB
 10
919.294
 20
-536.505
 30
0.000000
  70
    32
  0
VERTEX
  8
É}ÿg
  5
5EC
 10
919.297
 20
-536.508
 30
0.000000
  70
    32
  0
VERTEX
  8
É}ÿg
  5
5ED
 10
919.299
 20
-536.511
 30
0.000000
  70
    32
  0
VERTEX
  8
É}ÿg
  5
5EE
 10
919.302
 20
-536.514
 30
0.000000
  70
    32
  0
VERTEX
  8
É}ÿg
  5
5EF
 10
919.305
 20
-536.517
 30
0.000000
  70
    32
  0
VERTEX
  8
É}ÿg
  5
5F0
 10
919.307
 20
-536.520
 30
0.000000
  70
    32
  0
VERTEX
  8
É}ÿg
  5
5F1
 10
919.310
 20
-536.522
 30
0.000000
  70
    32
  0
VERTEX
  8
É}ÿg
  5
5F2
 10
919.313
 20
-536.525
 30
0.000000
  70
    32
  0
VERTEX
  8
É}ÿg
  5
5F3
 10
919.315
 20
-536.528
 30
0.000000
  70
    32
  0
VERTEX
  8
É}ÿg
  5
5F4
 10
919.318
 20
-536.531
 30
0.000000
  70
    32
  0
VERTEX
  8
É}ÿg
  5
5F5
 10
919.321
 20
-536.534
 30
0.000000
  70
    32
  0
VERTEX
  8
É}ÿg
  5
5F6
 10
919.323
 20
-536.537
 30
0.000000
  70
    32
  0
VERTEX
  8
É}ÿg
  5
5F7
 10
919.326
 20
-536.540
 30
0.000000
  70
    32
  0
VERTEX
  8
É}ÿg
  5
5F8
 10
919.329
 20
-536.543
 30
0.000000
  70
    32
  0
VERTEX
  8
É}ÿg
  5
5F9
 10
919.331
 20
-536.546
 30
0.000000
  70
    32
  0
VERTEX
  8
É}ÿg
  5
5FA
 10
919.334
 20
-536.549
 30
0.000000
  70
    32
  0
VERTEX
  8
É}ÿg
  5
5FB
 10
919.337
 20
-536.551
 30
0.000000
  70
    32
  0
VERTEX
  8
É}ÿg
  5
5FC
 10
919.339
 20
-536.554
 30
0.000000
  70
    32
  0
VERTEX
  8
É}ÿg
  5
5FD
 10
919.342
 20
-536.557
 30
0.000000
  70
    32
  0
VERTEX
  8
É}ÿg
  5
5FE
 10
919.345
 20
-536.560
 30
0.000000
  70
    32
  0
VERTEX
  8
É}ÿg
  5
5FF
 10
919.347
 20
-536.563
 30
0.000000
  70
    32
  0
VERTEX
  8
É}ÿg
  5
600
 10
919.350
 20
-536.566
 30
0.000000
  70
    32
  0
VERTEX
  8
É}ÿg
  5
601
 10
919.353
 20
-536.569
 30
0.000000
  70
    32
  0
VERTEX
  8
É}ÿg
  5
602
 10
919.355
 20
-536.572
 30
0.000000
  70
    32
  0
VERTEX
  8
É}ÿg
  5
603
 10
919.358
 20
-536.575
 30
0.000000
  70
    32
  0
VERTEX
  8
É}ÿg
  5
604
 10
919.361
 20
-536.577
 30
0.000000
  70
    32
  0
VERTEX
  8
É}ÿg
  5
605
 10
919.363
 20
-536.580
 30
0.000000
  70
    32
  0
VERTEX
  8
É}ÿg
  5
606
 10
919.366
 20
-536.583
 30
0.000000
  70
    32
  0
VERTEX
  8
É}ÿg
  5
607
 10
919.369
 20
-536.586
 30
0.000000
  70
    32
  0
VERTEX
  8
É}ÿg
  5
608
 10
919.371
 20
-536.589
 30
0.000000
  70
    32
  0
VERTEX
  8
É}ÿg
  5
609
 10
919.374
 20
-536.592
 30
0.000000
  70
    32
  0
VERTEX
  8
É}ÿg
  5
60A
 10
919.377
 20
-536.595
 30
0.000000
  70
    32
  0
VERTEX
  8
É}ÿg
  5
60B
 10
919.380
 20
-536.597
 30
0.000000
  70
    32
  0
VERTEX
  8
É}ÿg
  5
60C
 10
919.382
 20
-536.600
 30
0.000000
  70
    32
  0
VERTEX
  8
É}ÿg
  5
60D
 10
919.385
 20
-536.603
 30
0.000000
  70
    32
  0
VERTEX
  8
É}ÿg
  5
60E
 10
919.388
 20
-536.606
 30
0.000000
  70
    32
  0
VERTEX
  8
É}ÿg
  5
60F
 10
919.390
 20
-536.609
 30
0.000000
  70
    32
  0
VERTEX
  8
É}ÿg
  5
610
 10
919.393
 20
-536.612
 30
0.000000
  70
    32
  0
VERTEX
  8
É}ÿg
  5
611
 10
919.396
 20
-536.614
 30
0.000000
  70
    32
  0
VERTEX
  8
É}ÿg
  5
612
 10
919.399
 20
-536.617
 30
0.000000
  70
    32
  0
VERTEX
  8
É}ÿg
  5
613
 10
919.401
 20
-536.620
 30
0.000000
  70
    32
  0
VERTEX
  8
É}ÿg
  5
614
 10
919.404
 20
-536.623
 30
0.000000
  70
    32
  0
VERTEX
  8
É}ÿg
  5
615
 10
919.407
 20
-536.626
 30
0.000000
  70
    32
  0
VERTEX
  8
É}ÿg
  5
616
 10
919.409
 20
-536.629
 30
0.000000
  70
    32
  0
VERTEX
  8
É}ÿg
  5
617
 10
919.412
 20
-536.631
 30
0.000000
  70
    32
  0
VERTEX
  8
É}ÿg
  5
618
 10
919.415
 20
-536.634
 30
0.000000
  70
    32
  0
VERTEX
  8
É}ÿg
  5
619
 10
919.418
 20
-536.637
 30
0.000000
  70
    32
  0
VERTEX
  8
É}ÿg
  5
61A
 10
919.420
 20
-536.640
 30
0.000000
  70
    32
  0
VERTEX
  8
É}ÿg
  5
61B
 10
919.423
 20
-536.643
 30
0.000000
  70
    32
  0
VERTEX
  8
É}ÿg
  5
61C
 10
919.426
 20
-536.645
 30
0.000000
  70
    32
  0
VERTEX
  8
É}ÿg
  5
61D
 10
919.428
 20
-536.648
 30
0.000000
  70
    32
  0
VERTEX
  8
É}ÿg
  5
61E
 10
919.431
 20
-536.651
 30
0.000000
  70
    32
  0
VERTEX
  8
É}ÿg
  5
61F
 10
919.434
 20
-536.654
 30
0.000000
  70
    32
  0
VERTEX
  8
É}ÿg
  5
620
 10
919.437
 20
-536.656
 30
0.000000
  70
    32
  0
VERTEX
  8
É}ÿg
  5
621
 10
919.439
 20
-536.659
 30
0.000000
  70
    32
  0
VERTEX
  8
É}ÿg
  5
622
 10
919.442
 20
-536.662
 30
0.000000
  70
    32
  0
VERTEX
  8
É}ÿg
  5
623
 10
919.445
 20
-536.665
 30
0.000000
  70
    32
  0
VERTEX
  8
É}ÿg
  5
624
 10
919.448
 20
-536.668
 30
0.000000
  70
    32
  0
VERTEX
  8
É}ÿg
  5
625
 10
919.450
 20
-536.670
 30
0.000000
  70
    32
  0
VERTEX
  8
É}ÿg
  5
626
 10
919.453
 20
-536.673
 30
0.000000
  70
    32
  0
VERTEX
  8
É}ÿg
  5
627
 10
919.456
 20
-536.676
 30
0.000000
  70
    32
  0
VERTEX
  8
É}ÿg
  5
628
 10
919.459
 20
-536.679
 30
0.000000
  70
    32
  0
VERTEX
  8
É}ÿg
  5
629
 10
919.461
 20
-536.681
 30
0.000000
  70
    32
  0
VERTEX
  8
É}ÿg
  5
62A
 10
919.464
 20
-536.684
 30
0.000000
  70
    32
  0
VERTEX
  8
É}ÿg
  5
62B
 10
919.467
 20
-536.687
 30
0.000000
  70
    32
  0
VERTEX
  8
É}ÿg
  5
62C
 10
919.470
 20
-536.690
 30
0.000000
  70
    32
  0
VERTEX
  8
É}ÿg
  5
62D
 10
919.473
 20
-536.692
 30
0.000000
  70
    32
  0
VERTEX
  8
É}ÿg
  5
62E
 10
919.475
 20
-536.695
 30
0.000000
  70
    32
  0
VERTEX
  8
É}ÿg
  5
62F
 10
919.478
 20
-536.698
 30
0.000000
  70
    32
  0
VERTEX
  8
É}ÿg
  5
630
 10
919.481
 20
-536.700
 30
0.000000
  70
    32
  0
VERTEX
  8
É}ÿg
  5
631
 10
919.484
 20
-536.703
 30
0.000000
  70
    32
  0
VERTEX
  8
É}ÿg
  5
632
 10
919.486
 20
-536.706
 30
0.000000
  70
    32
  0
VERTEX
  8
É}ÿg
  5
633
 10
919.489
 20
-536.709
 30
0.000000
  70
    32
  0
VERTEX
  8
É}ÿg
  5
634
 10
919.492
 20
-536.711
 30
0.000000
  70
    32
  0
VERTEX
  8
É}ÿg
  5
635
 10
919.495
 20
-536.714
 30
0.000000
  70
    32
  0
VERTEX
  8
É}ÿg
  5
636
 10
919.498
 20
-536.717
 30
0.000000
  70
    32
  0
VERTEX
  8
É}ÿg
  5
637
 10
919.500
 20
-536.719
 30
0.000000
  70
    32
  0
VERTEX
  8
É}ÿg
  5
638
 10
919.503
 20
-536.722
 30
0.000000
  70
    32
  0
VERTEX
  8
É}ÿg
  5
639
 10
919.506
 20
-536.725
 30
0.000000
  70
    32
  0
VERTEX
  8
É}ÿg
  5
63A
 10
919.509
 20
-536.727
 30
0.000000
  70
    32
  0
VERTEX
  8
É}ÿg
  5
63B
 10
919.512
 20
-536.730
 30
0.000000
  70
    32
  0
VERTEX
  8
É}ÿg
  5
63C
 10
919.515
 20
-536.733
 30
0.000000
  70
    32
  0
VERTEX
  8
É}ÿg
  5
63D
 10
919.517
 20
-536.735
 30
0.000000
  70
    32
  0
VERTEX
  8
É}ÿg
  5
63E
 10
919.520
 20
-536.738
 30
0.000000
  70
    32
  0
VERTEX
  8
É}ÿg
  5
63F
 10
919.523
 20
-536.741
 30
0.000000
  70
    32
  0
VERTEX
  8
É}ÿg
  5
640
 10
919.526
 20
-536.743
 30
0.000000
  70
    32
  0
VERTEX
  8
É}ÿg
  5
641
 10
919.529
 20
-536.746
 30
0.000000
  70
    32
  0
VERTEX
  8
É}ÿg
  5
642
 10
919.532
 20
-536.748
 30
0.000000
  70
    32
  0
VERTEX
  8
É}ÿg
  5
643
 10
919.534
 20
-536.751
 30
0.000000
  70
    32
  0
VERTEX
  8
É}ÿg
  5
644
 10
919.537
 20
-536.754
 30
0.000000
  70
    32
  0
VERTEX
  8
É}ÿg
  5
645
 10
919.540
 20
-536.756
 30
0.000000
  70
    32
  0
VERTEX
  8
É}ÿg
  5
646
 10
919.543
 20
-536.759
 30
0.000000
  70
    32
  0
VERTEX
  8
É}ÿg
  5
647
 10
919.546
 20
-536.761
 30
0.000000
  70
    32
  0
VERTEX
  8
É}ÿg
  5
648
 10
919.549
 20
-536.764
 30
0.000000
  70
    32
  0
SEQEND
  8
É}ÿg
  5
649
  0
POLYLINE
  8
É}ÿg
  5
64A
  66
     1
 10
0.000000
 20
0.000000
 30
0.000000
  70
     8
  0
VERTEX
  8
É}ÿg
  5
64B
 10
917.830
 20
-536.308
 30
0.000000
  70
    32
  0
VERTEX
  8
É}ÿg
  5
64C
 10
917.838
 20
-536.314
 30
0.000000
  70
    32
  0
VERTEX
  8
É}ÿg
  5
64D
 10
917.845
 20
-536.321
 30
0.000000
  70
    32
  0
VERTEX
  8
É}ÿg
  5
64E
 10
917.852
 20
-536.328
 30
0.000000
  70
    32
  0
VERTEX
  8
É}ÿg
  5
64F
 10
917.859
 20
-536.334
 30
0.000000
  70
    32
  0
VERTEX
  8
É}ÿg
  5
650
 10
917.866
 20
-536.341
 30
0.000000
  70
    32
  0
VERTEX
  8
É}ÿg
  5
651
 10
917.874
 20
-536.348
 30
0.000000
  70
    32
  0
VERTEX
  8
É}ÿg
  5
652
 10
917.881
 20
-536.354
 30
0.000000
  70
    32
  0
VERTEX
  8
É}ÿg
  5
653
 10
917.888
 20
-536.361
 30
0.000000
  70
    32
  0
VERTEX
  8
É}ÿg
  5
654
 10
917.895
 20
-536.368
 30
0.000000
  70
    32
  0
VERTEX
  8
É}ÿg
  5
655
 10
917.902
 20
-536.374
 30
0.000000
  70
    32
  0
VERTEX
  8
É}ÿg
  5
656
 10
917.910
 20
-536.381
 30
0.000000
  70
    32
  0
VERTEX
  8
É}ÿg
  5
657
 10
917.917
 20
-536.387
 30
0.000000
  70
    32
  0
VERTEX
  8
É}ÿg
  5
658
 10
917.924
 20
-536.394
 30
0.000000
  70
    32
  0
VERTEX
  8
É}ÿg
  5
659
 10
917.931
 20
-536.401
 30
0.000000
  70
    32
  0
VERTEX
  8
É}ÿg
  5
65A
 10
917.938
 20
-536.407
 30
0.000000
  70
    32
  0
VERTEX
  8
É}ÿg
  5
65B
 10
917.946
 20
-536.414
 30
0.000000
  70
    32
  0
VERTEX
  8
É}ÿg
  5
65C
 10
917.953
 20
-536.421
 30
0.000000
  70
    32
  0
VERTEX
  8
É}ÿg
  5
65D
 10
917.960
 20
-536.427
 30
0.000000
  70
    32
  0
VERTEX
  8
É}ÿg
  5
65E
 10
917.967
 20
-536.434
 30
0.000000
  70
    32
  0
VERTEX
  8
É}ÿg
  5
65F
 10
917.975
 20
-536.440
 30
0.000000
  70
    32
  0
VERTEX
  8
É}ÿg
  5
660
 10
917.982
 20
-536.447
 30
0.000000
  70
    32
  0
VERTEX
  8
É}ÿg
  5
661
 10
917.989
 20
-536.454
 30
0.000000
  70
    32
  0
VERTEX
  8
É}ÿg
  5
662
 10
917.996
 20
-536.460
 30
0.000000
  70
    32
  0
VERTEX
  8
É}ÿg
  5
663
 10
918.003
 20
-536.467
 30
0.000000
  70
    32
  0
VERTEX
  8
É}ÿg
  5
664
 10
918.011
 20
-536.473
 30
0.000000
  70
    32
  0
VERTEX
  8
É}ÿg
  5
665
 10
918.018
 20
-536.480
 30
0.000000
  70
    32
  0
VERTEX
  8
É}ÿg
  5
666
 10
918.025
 20
-536.487
 30
0.000000
  70
    32
  0
VERTEX
  8
É}ÿg
  5
667
 10
918.032
 20
-536.493
 30
0.000000
  70
    32
  0
VERTEX
  8
É}ÿg
  5
668
 10
918.040
 20
-536.500
 30
0.000000
  70
    32
  0
VERTEX
  8
É}ÿg
  5
669
 10
918.047
 20
-536.506
 30
0.000000
  70
    32
  0
VERTEX
  8
É}ÿg
  5
66A
 10
918.054
 20
-536.513
 30
0.000000
  70
    32
  0
VERTEX
  8
É}ÿg
  5
66B
 10
918.061
 20
-536.520
 30
0.000000
  70
    32
  0
VERTEX
  8
É}ÿg
  5
66C
 10
918.069
 20
-536.526
 30
0.000000
  70
    32
  0
VERTEX
  8
É}ÿg
  5
66D
 10
918.076
 20
-536.533
 30
0.000000
  70
    32
  0
VERTEX
  8
É}ÿg
  5
66E
 10
918.083
 20
-536.539
 30
0.000000
  70
    32
  0
VERTEX
  8
É}ÿg
  5
66F
 10
918.090
 20
-536.546
 30
0.000000
  70
    32
  0
VERTEX
  8
É}ÿg
  5
670
 10
918.098
 20
-536.552
 30
0.000000
  70
    32
  0
VERTEX
  8
É}ÿg
  5
671
 10
918.105
 20
-536.559
 30
0.000000
  70
    32
  0
VERTEX
  8
É}ÿg
  5
672
 10
918.112
 20
-536.565
 30
0.000000
  70
    32
  0
VERTEX
  8
É}ÿg
  5
673
 10
918.119
 20
-536.572
 30
0.000000
  70
    32
  0
VERTEX
  8
É}ÿg
  5
674
 10
918.127
 20
-536.578
 30
0.000000
  70
    32
  0
VERTEX
  8
É}ÿg
  5
675
 10
918.134
 20
-536.585
 30
0.000000
  70
    32
  0
VERTEX
  8
É}ÿg
  5
676
 10
918.141
 20
-536.592
 30
0.000000
  70
    32
  0
VERTEX
  8
É}ÿg
  5
677
 10
918.148
 20
-536.598
 30
0.000000
  70
    32
  0
VERTEX
  8
É}ÿg
  5
678
 10
918.156
 20
-536.605
 30
0.000000
  70
    32
  0
VERTEX
  8
É}ÿg
  5
679
 10
918.163
 20
-536.611
 30
0.000000
  70
    32
  0
VERTEX
  8
É}ÿg
  5
67A
 10
918.170
 20
-536.618
 30
0.000000
  70
    32
  0
VERTEX
  8
É}ÿg
  5
67B
 10
918.178
 20
-536.624
 30
0.000000
  70
    32
  0
VERTEX
  8
É}ÿg
  5
67C
 10
918.185
 20
-536.631
 30
0.000000
  70
    32
  0
VERTEX
  8
É}ÿg
  5
67D
 10
918.192
 20
-536.637
 30
0.000000
  70
    32
  0
VERTEX
  8
É}ÿg
  5
67E
 10
918.199
 20
-536.643
 30
0.000000
  70
    32
  0
VERTEX
  8
É}ÿg
  5
67F
 10
918.207
 20
-536.650
 30
0.000000
  70
    32
  0
VERTEX
  8
É}ÿg
  5
680
 10
918.214
 20
-536.656
 30
0.000000
  70
    32
  0
VERTEX
  8
É}ÿg
  5
681
 10
918.221
 20
-536.663
 30
0.000000
  70
    32
  0
VERTEX
  8
É}ÿg
  5
682
 10
918.229
 20
-536.669
 30
0.000000
  70
    32
  0
VERTEX
  8
É}ÿg
  5
683
 10
918.236
 20
-536.676
 30
0.000000
  70
    32
  0
VERTEX
  8
É}ÿg
  5
684
 10
918.243
 20
-536.682
 30
0.000000
  70
    32
  0
VERTEX
  8
É}ÿg
  5
685
 10
918.251
 20
-536.688
 30
0.000000
  70
    32
  0
VERTEX
  8
É}ÿg
  5
686
 10
918.258
 20
-536.695
 30
0.000000
  70
    32
  0
VERTEX
  8
É}ÿg
  5
687
 10
918.265
 20
-536.701
 30
0.000000
  70
    32
  0
VERTEX
  8
É}ÿg
  5
688
 10
918.273
 20
-536.708
 30
0.000000
  70
    32
  0
VERTEX
  8
É}ÿg
  5
689
 10
918.280
 20
-536.714
 30
0.000000
  70
    32
  0
VERTEX
  8
É}ÿg
  5
68A
 10
918.287
 20
-536.720
 30
0.000000
  70
    32
  0
VERTEX
  8
É}ÿg
  5
68B
 10
918.295
 20
-536.727
 30
0.000000
  70
    32
  0
VERTEX
  8
É}ÿg
  5
68C
 10
918.302
 20
-536.733
 30
0.000000
  70
    32
  0
VERTEX
  8
É}ÿg
  5
68D
 10
918.309
 20
-536.739
 30
0.000000
  70
    32
  0
VERTEX
  8
É}ÿg
  5
68E
 10
918.317
 20
-536.746
 30
0.000000
  70
    32
  0
VERTEX
  8
É}ÿg
  5
68F
 10
918.324
 20
-536.752
 30
0.000000
  70
    32
  0
VERTEX
  8
É}ÿg
  5
690
 10
918.332
 20
-536.758
 30
0.000000
  70
    32
  0
VERTEX
  8
É}ÿg
  5
691
 10
918.339
 20
-536.765
 30
0.000000
  70
    32
  0
VERTEX
  8
É}ÿg
  5
692
 10
918.346
 20
-536.771
 30
0.000000
  70
    32
  0
VERTEX
  8
É}ÿg
  5
693
 10
918.354
 20
-536.777
 30
0.000000
  70
    32
  0
VERTEX
  8
É}ÿg
  5
694
 10
918.361
 20
-536.784
 30
0.000000
  70
    32
  0
VERTEX
  8
É}ÿg
  5
695
 10
918.369
 20
-536.790
 30
0.000000
  70
    32
  0
VERTEX
  8
É}ÿg
  5
696
 10
918.376
 20
-536.796
 30
0.000000
  70
    32
  0
VERTEX
  8
É}ÿg
  5
697
 10
918.383
 20
-536.802
 30
0.000000
  70
    32
  0
VERTEX
  8
É}ÿg
  5
698
 10
918.391
 20
-536.809
 30
0.000000
  70
    32
  0
VERTEX
  8
É}ÿg
  5
699
 10
918.398
 20
-536.815
 30
0.000000
  70
    32
  0
VERTEX
  8
É}ÿg
  5
69A
 10
918.406
 20
-536.821
 30
0.000000
  70
    32
  0
VERTEX
  8
É}ÿg
  5
69B
 10
918.413
 20
-536.827
 30
0.000000
  70
    32
  0
VERTEX
  8
É}ÿg
  5
69C
 10
918.421
 20
-536.833
 30
0.000000
  70
    32
  0
VERTEX
  8
É}ÿg
  5
69D
 10
918.428
 20
-536.840
 30
0.000000
  70
    32
  0
VERTEX
  8
É}ÿg
  5
69E
 10
918.435
 20
-536.846
 30
0.000000
  70
    32
  0
VERTEX
  8
É}ÿg
  5
69F
 10
918.443
 20
-536.852
 30
0.000000
  70
    32
  0
VERTEX
  8
É}ÿg
  5
6A0
 10
918.450
 20
-536.858
 30
0.000000
  70
    32
  0
VERTEX
  8
É}ÿg
  5
6A1
 10
918.458
 20
-536.864
 30
0.000000
  70
    32
  0
VERTEX
  8
É}ÿg
  5
6A2
 10
918.465
 20
-536.870
 30
0.000000
  70
    32
  0
VERTEX
  8
É}ÿg
  5
6A3
 10
918.473
 20
-536.877
 30
0.000000
  70
    32
  0
VERTEX
  8
É}ÿg
  5
6A4
 10
918.480
 20
-536.883
 30
0.000000
  70
    32
  0
VERTEX
  8
É}ÿg
  5
6A5
 10
918.488
 20
-536.889
 30
0.000000
  70
    32
  0
VERTEX
  8
É}ÿg
  5
6A6
 10
918.495
 20
-536.895
 30
0.000000
  70
    32
  0
VERTEX
  8
É}ÿg
  5
6A7
 10
918.503
 20
-536.901
 30
0.000000
  70
    32
  0
VERTEX
  8
É}ÿg
  5
6A8
 10
918.510
 20
-536.907
 30
0.000000
  70
    32
  0
VERTEX
  8
É}ÿg
  5
6A9
 10
918.518
 20
-536.913
 30
0.000000
  70
    32
  0
VERTEX
  8
É}ÿg
  5
6AA
 10
918.525
 20
-536.919
 30
0.000000
  70
    32
  0
VERTEX
  8
É}ÿg
  5
6AB
 10
918.533
 20
-536.925
 30
0.000000
  70
    32
  0
VERTEX
  8
É}ÿg
  5
6AC
 10
918.541
 20
-536.931
 30
0.000000
  70
    32
  0
VERTEX
  8
É}ÿg
  5
6AD
 10
918.548
 20
-536.937
 30
0.000000
  70
    32
  0
VERTEX
  8
É}ÿg
  5
6AE
 10
918.556
 20
-536.943
 30
0.000000
  70
    32
  0
VERTEX
  8
É}ÿg
  5
6AF
 10
918.563
 20
-536.949
 30
0.000000
  70
    32
  0
VERTEX
  8
É}ÿg
  5
6B0
 10
918.571
 20
-536.955
 30
0.000000
  70
    32
  0
VERTEX
  8
É}ÿg
  5
6B1
 10
918.578
 20
-536.961
 30
0.000000
  70
    32
  0
VERTEX
  8
É}ÿg
  5
6B2
 10
918.586
 20
-536.967
 30
0.000000
  70
    32
  0
VERTEX
  8
É}ÿg
  5
6B3
 10
918.594
 20
-536.973
 30
0.000000
  70
    32
  0
VERTEX
  8
É}ÿg
  5
6B4
 10
918.601
 20
-536.978
 30
0.000000
  70
    32
  0
VERTEX
  8
É}ÿg
  5
6B5
 10
918.609
 20
-536.984
 30
0.000000
  70
    32
  0
VERTEX
  8
É}ÿg
  5
6B6
 10
918.616
 20
-536.990
 30
0.000000
  70
    32
  0
VERTEX
  8
É}ÿg
  5
6B7
 10
918.624
 20
-536.996
 30
0.000000
  70
    32
  0
VERTEX
  8
É}ÿg
  5
6B8
 10
918.632
 20
-537.002
 30
0.000000
  70
    32
  0
VERTEX
  8
É}ÿg
  5
6B9
 10
918.639
 20
-537.008
 30
0.000000
  70
    32
  0
VERTEX
  8
É}ÿg
  5
6BA
 10
918.647
 20
-537.013
 30
0.000000
  70
    32
  0
VERTEX
  8
É}ÿg
  5
6BB
 10
918.655
 20
-537.019
 30
0.000000
  70
    32
  0
VERTEX
  8
É}ÿg
  5
6BC
 10
918.662
 20
-537.025
 30
0.000000
  70
    32
  0
VERTEX
  8
É}ÿg
  5
6BD
 10
918.670
 20
-537.031
 30
0.000000
  70
    32
  0
VERTEX
  8
É}ÿg
  5
6BE
 10
918.678
 20
-537.036
 30
0.000000
  70
    32
  0
VERTEX
  8
É}ÿg
  5
6BF
 10
918.686
 20
-537.042
 30
0.000000
  70
    32
  0
VERTEX
  8
É}ÿg
  5
6C0
 10
918.693
 20
-537.048
 30
0.000000
  70
    32
  0
VERTEX
  8
É}ÿg
  5
6C1
 10
918.701
 20
-537.054
 30
0.000000
  70
    32
  0
VERTEX
  8
É}ÿg
  5
6C2
 10
918.709
 20
-537.059
 30
0.000000
  70
    32
  0
VERTEX
  8
É}ÿg
  5
6C3
 10
918.716
 20
-537.065
 30
0.000000
  70
    32
  0
VERTEX
  8
É}ÿg
  5
6C4
 10
918.724
 20
-537.071
 30
0.000000
  70
    32
  0
VERTEX
  8
É}ÿg
  5
6C5
 10
918.732
 20
-537.076
 30
0.000000
  70
    32
  0
VERTEX
  8
É}ÿg
  5
6C6
 10
918.740
 20
-537.082
 30
0.000000
  70
    32
  0
VERTEX
  8
É}ÿg
  5
6C7
 10
918.747
 20
-537.087
 30
0.000000
  70
    32
  0
VERTEX
  8
É}ÿg
  5
6C8
 10
918.755
 20
-537.093
 30
0.000000
  70
    32
  0
VERTEX
  8
É}ÿg
  5
6C9
 10
918.763
 20
-537.098
 30
0.000000
  70
    32
  0
VERTEX
  8
É}ÿg
  5
6CA
 10
918.771
 20
-537.104
 30
0.000000
  70
    32
  0
VERTEX
  8
É}ÿg
  5
6CB
 10
918.779
 20
-537.110
 30
0.000000
  70
    32
  0
VERTEX
  8
É}ÿg
  5
6CC
 10
918.786
 20
-537.115
 30
0.000000
  70
    32
  0
VERTEX
  8
É}ÿg
  5
6CD
 10
918.794
 20
-537.121
 30
0.000000
  70
    32
  0
VERTEX
  8
É}ÿg
  5
6CE
 10
918.802
 20
-537.126
 30
0.000000
  70
    32
  0
VERTEX
  8
É}ÿg
  5
6CF
 10
918.810
 20
-537.131
 30
0.000000
  70
    32
  0
VERTEX
  8
É}ÿg
  5
6D0
 10
918.818
 20
-537.137
 30
0.000000
  70
    32
  0
VERTEX
  8
É}ÿg
  5
6D1
 10
918.826
 20
-537.142
 30
0.000000
  70
    32
  0
VERTEX
  8
É}ÿg
  5
6D2
 10
918.834
 20
-537.148
 30
0.000000
  70
    32
  0
VERTEX
  8
É}ÿg
  5
6D3
 10
918.841
 20
-537.153
 30
0.000000
  70
    32
  0
VERTEX
  8
É}ÿg
  5
6D4
 10
918.849
 20
-537.158
 30
0.000000
  70
    32
  0
VERTEX
  8
É}ÿg
  5
6D5
 10
918.857
 20
-537.164
 30
0.000000
  70
    32
  0
VERTEX
  8
É}ÿg
  5
6D6
 10
918.865
 20
-537.169
 30
0.000000
  70
    32
  0
VERTEX
  8
É}ÿg
  5
6D7
 10
918.873
 20
-537.174
 30
0.000000
  70
    32
  0
VERTEX
  8
É}ÿg
  5
6D8
 10
918.881
 20
-537.180
 30
0.000000
  70
    32
  0
VERTEX
  8
É}ÿg
  5
6D9
 10
918.889
 20
-537.185
 30
0.000000
  70
    32
  0
VERTEX
  8
É}ÿg
  5
6DA
 10
918.897
 20
-537.190
 30
0.000000
  70
    32
  0
VERTEX
  8
É}ÿg
  5
6DB
 10
918.905
 20
-537.195
 30
0.000000
  70
    32
  0
VERTEX
  8
É}ÿg
  5
6DC
 10
918.913
 20
-537.201
 30
0.000000
  70
    32
  0
VERTEX
  8
É}ÿg
  5
6DD
 10
918.921
 20
-537.206
 30
0.000000
  70
    32
  0
VERTEX
  8
É}ÿg
  5
6DE
 10
918.929
 20
-537.211
 30
0.000000
  70
    32
  0
VERTEX
  8
É}ÿg
  5
6DF
 10
918.937
 20
-537.216
 30
0.000000
  70
    32
  0
VERTEX
  8
É}ÿg
  5
6E0
 10
918.945
 20
-537.221
 30
0.000000
  70
    32
  0
VERTEX
  8
É}ÿg
  5
6E1
 10
918.953
 20
-537.226
 30
0.000000
  70
    32
  0
VERTEX
  8
É}ÿg
  5
6E2
 10
918.961
 20
-537.231
 30
0.000000
  70
    32
  0
VERTEX
  8
É}ÿg
  5
6E3
 10
918.969
 20
-537.236
 30
0.000000
  70
    32
  0
VERTEX
  8
É}ÿg
  5
6E4
 10
918.977
 20
-537.241
 30
0.000000
  70
    32
  0
VERTEX
  8
É}ÿg
  5
6E5
 10
918.985
 20
-537.246
 30
0.000000
  70
    32
  0
VERTEX
  8
É}ÿg
  5
6E6
 10
918.993
 20
-537.251
 30
0.000000
  70
    32
  0
VERTEX
  8
É}ÿg
  5
6E7
 10
919.002
 20
-537.256
 30
0.000000
  70
    32
  0
VERTEX
  8
É}ÿg
  5
6E8
 10
919.010
 20
-537.261
 30
0.000000
  70
    32
  0
VERTEX
  8
É}ÿg
  5
6E9
 10
919.018
 20
-537.266
 30
0.000000
  70
    32
  0
VERTEX
  8
É}ÿg
  5
6EA
 10
919.026
 20
-537.271
 30
0.000000
  70
    32
  0
SEQEND
  8
É}ÿg
  5
6EB
  0
POLYLINE
  8
É}ÿg
  5
6EC
  66
     1
 10
0.000000
 20
0.000000
 30
0.000000
  70
     8
  0
VERTEX
  8
É}ÿg
  5
6ED
 10
920.014
 20
-537.705
 30
0.000000
  70
    32
  0
VERTEX
  8
É}ÿg
  5
6EE
 10
920.025
 20
-537.708
 30
0.000000
  70
    32
  0
VERTEX
  8
É}ÿg
  5
6EF
 10
920.035
 20
-537.711
 30
0.000000
  70
    32
  0
VERTEX
  8
É}ÿg
  5
6F0
 10
920.046
 20
-537.715
 30
0.000000
  70
    32
  0
VERTEX
  8
É}ÿg
  5
6F1
 10
920.057
 20
-537.718
 30
0.000000
  70
    32
  0
VERTEX
  8
É}ÿg
  5
6F2
 10
920.068
 20
-537.722
 30
0.000000
  70
    32
  0
VERTEX
  8
É}ÿg
  5
6F3
 10
920.079
 20
-537.725
 30
0.000000
  70
    32
  0
VERTEX
  8
É}ÿg
  5
6F4
 10
920.089
 20
-537.728
 30
0.000000
  70
    32
  0
VERTEX
  8
É}ÿg
  5
6F5
 10
920.100
 20
-537.732
 30
0.000000
  70
    32
  0
VERTEX
  8
É}ÿg
  5
6F6
 10
920.111
 20
-537.735
 30
0.000000
  70
    32
  0
VERTEX
  8
É}ÿg
  5
6F7
 10
920.122
 20
-537.738
 30
0.000000
  70
    32
  0
VERTEX
  8
É}ÿg
  5
6F8
 10
920.133
 20
-537.742
 30
0.000000
  70
    32
  0
VERTEX
  8
É}ÿg
  5
6F9
 10
920.144
 20
-537.745
 30
0.000000
  70
    32
  0
VERTEX
  8
É}ÿg
  5
6FA
 10
920.155
 20
-537.748
 30
0.000000
  70
    32
  0
VERTEX
  8
É}ÿg
  5
6FB
 10
920.165
 20
-537.751
 30
0.000000
  70
    32
  0
VERTEX
  8
É}ÿg
  5
6FC
 10
920.176
 20
-537.754
 30
0.000000
  70
    32
  0
VERTEX
  8
É}ÿg
  5
6FD
 10
920.187
 20
-537.758
 30
0.000000
  70
    32
  0
VERTEX
  8
É}ÿg
  5
6FE
 10
920.198
 20
-537.761
 30
0.000000
  70
    32
  0
VERTEX
  8
É}ÿg
  5
6FF
 10
920.209
 20
-537.764
 30
0.000000
  70
    32
  0
VERTEX
  8
É}ÿg
  5
700
 10
920.220
 20
-537.767
 30
0.000000
  70
    32
  0
VERTEX
  8
É}ÿg
  5
701
 10
920.231
 20
-537.770
 30
0.000000
  70
    32
  0
VERTEX
  8
É}ÿg
  5
702
 10
920.242
 20
-537.773
 30
0.000000
  70
    32
  0
VERTEX
  8
É}ÿg
  5
703
 10
920.253
 20
-537.776
 30
0.000000
  70
    32
  0
VERTEX
  8
É}ÿg
  5
704
 10
920.264
 20
-537.780
 30
0.000000
  70
    32
  0
VERTEX
  8
É}ÿg
  5
705
 10
920.275
 20
-537.783
 30
0.000000
  70
    32
  0
VERTEX
  8
É}ÿg
  5
706
 10
920.286
 20
-537.786
 30
0.000000
  70
    32
  0
VERTEX
  8
É}ÿg
  5
707
 10
920.297
 20
-537.789
 30
0.000000
  70
    32
  0
VERTEX
  8
É}ÿg
  5
708
 10
920.308
 20
-537.792
 30
0.000000
  70
    32
  0
VERTEX
  8
É}ÿg
  5
709
 10
920.319
 20
-537.795
 30
0.000000
  70
    32
  0
VERTEX
  8
É}ÿg
  5
70A
 10
920.330
 20
-537.798
 30
0.000000
  70
    32
  0
VERTEX
  8
É}ÿg
  5
70B
 10
920.341
 20
-537.801
 30
0.000000
  70
    32
  0
VERTEX
  8
É}ÿg
  5
70C
 10
920.352
 20
-537.804
 30
0.000000
  70
    32
  0
VERTEX
  8
É}ÿg
  5
70D
 10
920.363
 20
-537.807
 30
0.000000
  70
    32
  0
VERTEX
  8
É}ÿg
  5
70E
 10
920.374
 20
-537.810
 30
0.000000
  70
    32
  0
VERTEX
  8
É}ÿg
  5
70F
 10
920.385
 20
-537.813
 30
0.000000
  70
    32
  0
VERTEX
  8
É}ÿg
  5
710
 10
920.396
 20
-537.816
 30
0.000000
  70
    32
  0
VERTEX
  8
É}ÿg
  5
711
 10
920.407
 20
-537.819
 30
0.000000
  70
    32
  0
VERTEX
  8
É}ÿg
  5
712
 10
920.418
 20
-537.821
 30
0.000000
  70
    32
  0
VERTEX
  8
É}ÿg
  5
713
 10
920.429
 20
-537.824
 30
0.000000
  70
    32
  0
VERTEX
  8
É}ÿg
  5
714
 10
920.440
 20
-537.827
 30
0.000000
  70
    32
  0
VERTEX
  8
É}ÿg
  5
715
 10
920.451
 20
-537.830
 30
0.000000
  70
    32
  0
VERTEX
  8
É}ÿg
  5
716
 10
920.462
 20
-537.833
 30
0.000000
  70
    32
  0
VERTEX
  8
É}ÿg
  5
717
 10
920.473
 20
-537.836
 30
0.000000
  70
    32
  0
VERTEX
  8
É}ÿg
  5
718
 10
920.484
 20
-537.839
 30
0.000000
  70
    32
  0
VERTEX
  8
É}ÿg
  5
719
 10
920.495
 20
-537.842
 30
0.000000
  70
    32
  0
VERTEX
  8
É}ÿg
  5
71A
 10
920.506
 20
-537.844
 30
0.000000
  70
    32
  0
VERTEX
  8
É}ÿg
  5
71B
 10
920.518
 20
-537.847
 30
0.000000
  70
    32
  0
VERTEX
  8
É}ÿg
  5
71C
 10
920.529
 20
-537.850
 30
0.000000
  70
    32
  0
VERTEX
  8
É}ÿg
  5
71D
 10
920.540
 20
-537.853
 30
0.000000
  70
    32
  0
VERTEX
  8
É}ÿg
  5
71E
 10
920.551
 20
-537.855
 30
0.000000
  70
    32
  0
VERTEX
  8
É}ÿg
  5
71F
 10
920.562
 20
-537.858
 30
0.000000
  70
    32
  0
VERTEX
  8
É}ÿg
  5
720
 10
920.573
 20
-537.861
 30
0.000000
  70
    32
  0
VERTEX
  8
É}ÿg
  5
721
 10
920.584
 20
-537.864
 30
0.000000
  70
    32
  0
VERTEX
  8
É}ÿg
  5
722
 10
920.595
 20
-537.866
 30
0.000000
  70
    32
  0
VERTEX
  8
É}ÿg
  5
723
 10
920.607
 20
-537.869
 30
0.000000
  70
    32
  0
VERTEX
  8
É}ÿg
  5
724
 10
920.618
 20
-537.872
 30
0.000000
  70
    32
  0
VERTEX
  8
É}ÿg
  5
725
 10
920.629
 20
-537.875
 30
0.000000
  70
    32
  0
VERTEX
  8
É}ÿg
  5
726
 10
920.640
 20
-537.877
 30
0.000000
  70
    32
  0
VERTEX
  8
É}ÿg
  5
727
 10
920.651
 20
-537.880
 30
0.000000
  70
    32
  0
VERTEX
  8
É}ÿg
  5
728
 10
920.662
 20
-537.883
 30
0.000000
  70
    32
  0
VERTEX
  8
É}ÿg
  5
729
 10
920.674
 20
-537.885
 30
0.000000
  70
    32
  0
VERTEX
  8
É}ÿg
  5
72A
 10
920.685
 20
-537.888
 30
0.000000
  70
    32
  0
VERTEX
  8
É}ÿg
  5
72B
 10
920.696
 20
-537.891
 30
0.000000
  70
    32
  0
VERTEX
  8
É}ÿg
  5
72C
 10
920.707
 20
-537.893
 30
0.000000
  70
    32
  0
VERTEX
  8
É}ÿg
  5
72D
 10
920.718
 20
-537.896
 30
0.000000
  70
    32
  0
VERTEX
  8
É}ÿg
  5
72E
 10
920.730
 20
-537.899
 30
0.000000
  70
    32
  0
VERTEX
  8
É}ÿg
  5
72F
 10
920.741
 20
-537.901
 30
0.000000
  70
    32
  0
VERTEX
  8
É}ÿg
  5
730
 10
920.752
 20
-537.904
 30
0.000000
  70
    32
  0
VERTEX
  8
É}ÿg
  5
731
 10
920.763
 20
-537.906
 30
0.000000
  70
    32
  0
VERTEX
  8
É}ÿg
  5
732
 10
920.774
 20
-537.909
 30
0.000000
  70
    32
  0
VERTEX
  8
É}ÿg
  5
733
 10
920.786
 20
-537.911
 30
0.000000
  70
    32
  0
VERTEX
  8
É}ÿg
  5
734
 10
920.797
 20
-537.914
 30
0.000000
  70
    32
  0
VERTEX
  8
É}ÿg
  5
735
 10
920.808
 20
-537.917
 30
0.000000
  70
    32
  0
VERTEX
  8
É}ÿg
  5
736
 10
920.819
 20
-537.919
 30
0.000000
  70
    32
  0
VERTEX
  8
É}ÿg
  5
737
 10
920.831
 20
-537.922
 30
0.000000
  70
    32
  0
VERTEX
  8
É}ÿg
  5
738
 10
920.842
 20
-537.924
 30
0.000000
  70
    32
  0
VERTEX
  8
É}ÿg
  5
739
 10
920.853
 20
-537.927
 30
0.000000
  70
    32
  0
VERTEX
  8
É}ÿg
  5
73A
 10
920.864
 20
-537.929
 30
0.000000
  70
    32
  0
VERTEX
  8
É}ÿg
  5
73B
 10
920.876
 20
-537.932
 30
0.000000
  70
    32
  0
VERTEX
  8
É}ÿg
  5
73C
 10
920.887
 20
-537.934
 30
0.000000
  70
    32
  0
VERTEX
  8
É}ÿg
  5
73D
 10
920.898
 20
-537.937
 30
0.000000
  70
    32
  0
VERTEX
  8
É}ÿg
  5
73E
 10
920.909
 20
-537.939
 30
0.000000
  70
    32
  0
VERTEX
  8
É}ÿg
  5
73F
 10
920.921
 20
-537.942
 30
0.000000
  70
    32
  0
VERTEX
  8
É}ÿg
  5
740
 10
920.932
 20
-537.944
 30
0.000000
  70
    32
  0
VERTEX
  8
É}ÿg
  5
741
 10
920.943
 20
-537.947
 30
0.000000
  70
    32
  0
VERTEX
  8
É}ÿg
  5
742
 10
920.955
 20
-537.949
 30
0.000000
  70
    32
  0
VERTEX
  8
É}ÿg
  5
743
 10
920.966
 20
-537.952
 30
0.000000
  70
    32
  0
VERTEX
  8
É}ÿg
  5
744
 10
920.977
 20
-537.954
 30
0.000000
  70
    32
  0
VERTEX
  8
É}ÿg
  5
745
 10
920.988
 20
-537.957
 30
0.000000
  70
    32
  0
VERTEX
  8
É}ÿg
  5
746
 10
921.000
 20
-537.959
 30
0.000000
  70
    32
  0
VERTEX
  8
É}ÿg
  5
747
 10
921.011
 20
-537.962
 30
0.000000
  70
    32
  0
VERTEX
  8
É}ÿg
  5
748
 10
921.022
 20
-537.964
 30
0.000000
  70
    32
  0
VERTEX
  8
É}ÿg
  5
749
 10
921.034
 20
-537.967
 30
0.000000
  70
    32
  0
VERTEX
  8
É}ÿg
  5
74A
 10
921.045
 20
-537.969
 30
0.000000
  70
    32
  0
VERTEX
  8
É}ÿg
  5
74B
 10
921.056
 20
-537.971
 30
0.000000
  70
    32
  0
VERTEX
  8
É}ÿg
  5
74C
 10
921.068
 20
-537.974
 30
0.000000
  70
    32
  0
VERTEX
  8
É}ÿg
  5
74D
 10
921.079
 20
-537.976
 30
0.000000
  70
    32
  0
VERTEX
  8
É}ÿg
  5
74E
 10
921.090
 20
-537.979
 30
0.000000
  70
    32
  0
VERTEX
  8
É}ÿg
  5
74F
 10
921.102
 20
-537.981
 30
0.000000
  70
    32
  0
VERTEX
  8
É}ÿg
  5
750
 10
921.113
 20
-537.984
 30
0.000000
  70
    32
  0
VERTEX
  8
É}ÿg
  5
751
 10
921.124
 20
-537.986
 30
0.000000
  70
    32
  0
VERTEX
  8
É}ÿg
  5
752
 10
921.135
 20
-537.988
 30
0.000000
  70
    32
  0
VERTEX
  8
É}ÿg
  5
753
 10
921.147
 20
-537.991
 30
0.000000
  70
    32
  0
VERTEX
  8
É}ÿg
  5
754
 10
921.158
 20
-537.993
 30
0.000000
  70
    32
  0
VERTEX
  8
É}ÿg
  5
755
 10
921.169
 20
-537.996
 30
0.000000
  70
    32
  0
VERTEX
  8
É}ÿg
  5
756
 10
921.181
 20
-537.998
 30
0.000000
  70
    32
  0
VERTEX
  8
É}ÿg
  5
757
 10
921.192
 20
-538.000
 30
0.000000
  70
    32
  0
VERTEX
  8
É}ÿg
  5
758
 10
921.203
 20
-538.003
 30
0.000000
  70
    32
  0
VERTEX
  8
É}ÿg
  5
759
 10
921.215
 20
-538.005
 30
0.000000
  70
    32
  0
VERTEX
  8
É}ÿg
  5
75A
 10
921.226
 20
-538.008
 30
0.000000
  70
    32
  0
VERTEX
  8
É}ÿg
  5
75B
 10
921.237
 20
-538.010
 30
0.000000
  70
    32
  0
VERTEX
  8
É}ÿg
  5
75C
 10
921.249
 20
-538.012
 30
0.000000
  70
    32
  0
VERTEX
  8
É}ÿg
  5
75D
 10
921.260
 20
-538.015
 30
0.000000
  70
    32
  0
VERTEX
  8
É}ÿg
  5
75E
 10
921.271
 20
-538.017
 30
0.000000
  70
    32
  0
VERTEX
  8
É}ÿg
  5
75F
 10
921.283
 20
-538.019
 30
0.000000
  70
    32
  0
VERTEX
  8
É}ÿg
  5
760
 10
921.294
 20
-538.022
 30
0.000000
  70
    32
  0
VERTEX
  8
É}ÿg
  5
761
 10
921.306
 20
-538.024
 30
0.000000
  70
    32
  0
VERTEX
  8
É}ÿg
  5
762
 10
921.317
 20
-538.027
 30
0.000000
  70
    32
  0
VERTEX
  8
É}ÿg
  5
763
 10
921.328
 20
-538.029
 30
0.000000
  70
    32
  0
VERTEX
  8
É}ÿg
  5
764
 10
921.340
 20
-538.031
 30
0.000000
  70
    32
  0
VERTEX
  8
É}ÿg
  5
765
 10
921.351
 20
-538.034
 30
0.000000
  70
    32
  0
VERTEX
  8
É}ÿg
  5
766
 10
921.362
 20
-538.036
 30
0.000000
  70
    32
  0
VERTEX
  8
É}ÿg
  5
767
 10
921.374
 20
-538.038
 30
0.000000
  70
    32
  0
VERTEX
  8
É}ÿg
  5
768
 10
921.385
 20
-538.041
 30
0.000000
  70
    32
  0
VERTEX
  8
É}ÿg
  5
769
 10
921.396
 20
-538.043
 30
0.000000
  70
    32
  0
VERTEX
  8
É}ÿg
  5
76A
 10
921.408
 20
-538.045
 30
0.000000
  70
    32
  0
VERTEX
  8
É}ÿg
  5
76B
 10
921.419
 20
-538.048
 30
0.000000
  70
    32
  0
VERTEX
  8
É}ÿg
  5
76C
 10
921.430
 20
-538.050
 30
0.000000
  70
    32
  0
SEQEND
  8
É}ÿg
  5
76D
  0
POLYLINE
  8
É}ÿg
  5
76E
  66
     1
 10
0.000000
 20
0.000000
 30
0.000000
  70
     8
  0
VERTEX
  8
É}ÿg
  5
76F
 10
920.504
 20
-537.260
 30
0.000000
  70
    32
  0
VERTEX
  8
É}ÿg
  5
770
 10
920.511
 20
-537.262
 30
0.000000
  70
    32
  0
VERTEX
  8
É}ÿg
  5
771
 10
920.518
 20
-537.263
 30
0.000000
  70
    32
  0
VERTEX
  8
É}ÿg
  5
772
 10
920.525
 20
-537.265
 30
0.000000
  70
    32
  0
VERTEX
  8
É}ÿg
  5
773
 10
920.532
 20
-537.267
 30
0.000000
  70
    32
  0
VERTEX
  8
É}ÿg
  5
774
 10
920.539
 20
-537.269
 30
0.000000
  70
    32
  0
VERTEX
  8
É}ÿg
  5
775
 10
920.546
 20
-537.271
 30
0.000000
  70
    32
  0
VERTEX
  8
É}ÿg
  5
776
 10
920.553
 20
-537.273
 30
0.000000
  70
    32
  0
VERTEX
  8
É}ÿg
  5
777
 10
920.560
 20
-537.275
 30
0.000000
  70
    32
  0
VERTEX
  8
É}ÿg
  5
778
 10
920.567
 20
-537.277
 30
0.000000
  70
    32
  0
VERTEX
  8
É}ÿg
  5
779
 10
920.574
 20
-537.279
 30
0.000000
  70
    32
  0
VERTEX
  8
É}ÿg
  5
77A
 10
920.581
 20
-537.281
 30
0.000000
  70
    32
  0
VERTEX
  8
É}ÿg
  5
77B
 10
920.589
 20
-537.283
 30
0.000000
  70
    32
  0
VERTEX
  8
É}ÿg
  5
77C
 10
920.596
 20
-537.284
 30
0.000000
  70
    32
  0
VERTEX
  8
É}ÿg
  5
77D
 10
920.603
 20
-537.286
 30
0.000000
  70
    32
  0
VERTEX
  8
É}ÿg
  5
77E
 10
920.610
 20
-537.288
 30
0.000000
  70
    32
  0
VERTEX
  8
É}ÿg
  5
77F
 10
920.617
 20
-537.290
 30
0.000000
  70
    32
  0
VERTEX
  8
É}ÿg
  5
780
 10
920.624
 20
-537.292
 30
0.000000
  70
    32
  0
VERTEX
  8
É}ÿg
  5
781
 10
920.631
 20
-537.294
 30
0.000000
  70
    32
  0
VERTEX
  8
É}ÿg
  5
782
 10
920.638
 20
-537.295
 30
0.000000
  70
    32
  0
VERTEX
  8
É}ÿg
  5
783
 10
920.645
 20
-537.297
 30
0.000000
  70
    32
  0
VERTEX
  8
É}ÿg
  5
784
 10
920.652
 20
-537.299
 30
0.000000
  70
    32
  0
VERTEX
  8
É}ÿg
  5
785
 10
920.660
 20
-537.301
 30
0.000000
  70
    32
  0
VERTEX
  8
É}ÿg
  5
786
 10
920.667
 20
-537.302
 30
0.000000
  70
    32
  0
VERTEX
  8
É}ÿg
  5
787
 10
920.674
 20
-537.304
 30
0.000000
  70
    32
  0
VERTEX
  8
É}ÿg
  5
788
 10
920.681
 20
-537.306
 30
0.000000
  70
    32
  0
VERTEX
  8
É}ÿg
  5
789
 10
920.688
 20
-537.308
 30
0.000000
  70
    32
  0
VERTEX
  8
É}ÿg
  5
78A
 10
920.695
 20
-537.309
 30
0.000000
  70
    32
  0
VERTEX
  8
É}ÿg
  5
78B
 10
920.702
 20
-537.311
 30
0.000000
  70
    32
  0
VERTEX
  8
É}ÿg
  5
78C
 10
920.710
 20
-537.313
 30
0.000000
  70
    32
  0
VERTEX
  8
É}ÿg
  5
78D
 10
920.717
 20
-537.314
 30
0.000000
  70
    32
  0
VERTEX
  8
É}ÿg
  5
78E
 10
920.724
 20
-537.316
 30
0.000000
  70
    32
  0
VERTEX
  8
É}ÿg
  5
78F
 10
920.731
 20
-537.318
 30
0.000000
  70
    32
  0
VERTEX
  8
É}ÿg
  5
790
 10
920.738
 20
-537.319
 30
0.000000
  70
    32
  0
VERTEX
  8
É}ÿg
  5
791
 10
920.746
 20
-537.321
 30
0.000000
  70
    32
  0
VERTEX
  8
É}ÿg
  5
792
 10
920.753
 20
-537.323
 30
0.000000
  70
    32
  0
VERTEX
  8
É}ÿg
  5
793
 10
920.760
 20
-537.324
 30
0.000000
  70
    32
  0
VERTEX
  8
É}ÿg
  5
794
 10
920.767
 20
-537.326
 30
0.000000
  70
    32
  0
VERTEX
  8
É}ÿg
  5
795
 10
920.774
 20
-537.328
 30
0.000000
  70
    32
  0
VERTEX
  8
É}ÿg
  5
796
 10
920.782
 20
-537.329
 30
0.000000
  70
    32
  0
VERTEX
  8
É}ÿg
  5
797
 10
920.789
 20
-537.331
 30
0.000000
  70
    32
  0
VERTEX
  8
É}ÿg
  5
798
 10
920.796
 20
-537.332
 30
0.000000
  70
    32
  0
VERTEX
  8
É}ÿg
  5
799
 10
920.803
 20
-537.334
 30
0.000000
  70
    32
  0
VERTEX
  8
É}ÿg
  5
79A
 10
920.811
 20
-537.336
 30
0.000000
  70
    32
  0
VERTEX
  8
É}ÿg
  5
79B
 10
920.818
 20
-537.337
 30
0.000000
  70
    32
  0
VERTEX
  8
É}ÿg
  5
79C
 10
920.825
 20
-537.339
 30
0.000000
  70
    32
  0
VERTEX
  8
É}ÿg
  5
79D
 10
920.832
 20
-537.340
 30
0.000000
  70
    32
  0
VERTEX
  8
É}ÿg
  5
79E
 10
920.840
 20
-537.342
 30
0.000000
  70
    32
  0
VERTEX
  8
É}ÿg
  5
79F
 10
920.847
 20
-537.343
 30
0.000000
  70
    32
  0
VERTEX
  8
É}ÿg
  5
7A0
 10
920.854
 20
-537.345
 30
0.000000
  70
    32
  0
VERTEX
  8
É}ÿg
  5
7A1
 10
920.861
 20
-537.346
 30
0.000000
  70
    32
  0
VERTEX
  8
É}ÿg
  5
7A2
 10
920.869
 20
-537.348
 30
0.000000
  70
    32
  0
VERTEX
  8
É}ÿg
  5
7A3
 10
920.876
 20
-537.349
 30
0.000000
  70
    32
  0
VERTEX
  8
É}ÿg
  5
7A4
 10
920.883
 20
-537.351
 30
0.000000
  70
    32
  0
VERTEX
  8
É}ÿg
  5
7A5
 10
920.891
 20
-537.352
 30
0.000000
  70
    32
  0
VERTEX
  8
É}ÿg
  5
7A6
 10
920.898
 20
-537.354
 30
0.000000
  70
    32
  0
VERTEX
  8
É}ÿg
  5
7A7
 10
920.905
 20
-537.355
 30
0.000000
  70
    32
  0
VERTEX
  8
É}ÿg
  5
7A8
 10
920.912
 20
-537.357
 30
0.000000
  70
    32
  0
VERTEX
  8
É}ÿg
  5
7A9
 10
920.920
 20
-537.358
 30
0.000000
  70
    32
  0
VERTEX
  8
É}ÿg
  5
7AA
 10
920.927
 20
-537.360
 30
0.000000
  70
    32
  0
VERTEX
  8
É}ÿg
  5
7AB
 10
920.934
 20
-537.361
 30
0.000000
  70
    32
  0
VERTEX
  8
É}ÿg
  5
7AC
 10
920.942
 20
-537.363
 30
0.000000
  70
    32
  0
VERTEX
  8
É}ÿg
  5
7AD
 10
920.949
 20
-537.364
 30
0.000000
  70
    32
  0
VERTEX
  8
É}ÿg
  5
7AE
 10
920.956
 20
-537.366
 30
0.000000
  70
    32
  0
VERTEX
  8
É}ÿg
  5
7AF
 10
920.964
 20
-537.367
 30
0.000000
  70
    32
  0
VERTEX
  8
É}ÿg
  5
7B0
 10
920.971
 20
-537.369
 30
0.000000
  70
    32
  0
VERTEX
  8
É}ÿg
  5
7B1
 10
920.978
 20
-537.370
 30
0.000000
  70
    32
  0
VERTEX
  8
É}ÿg
  5
7B2
 10
920.986
 20
-537.371
 30
0.000000
  70
    32
  0
VERTEX
  8
É}ÿg
  5
7B3
 10
920.993
 20
-537.373
 30
0.000000
  70
    32
  0
VERTEX
  8
É}ÿg
  5
7B4
 10
921.000
 20
-537.374
 30
0.000000
  70
    32
  0
VERTEX
  8
É}ÿg
  5
7B5
 10
921.008
 20
-537.376
 30
0.000000
  70
    32
  0
VERTEX
  8
É}ÿg
  5
7B6
 10
921.015
 20
-537.377
 30
0.000000
  70
    32
  0
VERTEX
  8
É}ÿg
  5
7B7
 10
921.022
 20
-537.378
 30
0.000000
  70
    32
  0
VERTEX
  8
É}ÿg
  5
7B8
 10
921.030
 20
-537.380
 30
0.000000
  70
    32
  0
VERTEX
  8
É}ÿg
  5
7B9
 10
921.037
 20
-537.381
 30
0.000000
  70
    32
  0
VERTEX
  8
É}ÿg
  5
7BA
 10
921.045
 20
-537.383
 30
0.000000
  70
    32
  0
VERTEX
  8
É}ÿg
  5
7BB
 10
921.052
 20
-537.384
 30
0.000000
  70
    32
  0
VERTEX
  8
É}ÿg
  5
7BC
 10
921.059
 20
-537.385
 30
0.000000
  70
    32
  0
VERTEX
  8
É}ÿg
  5
7BD
 10
921.067
 20
-537.387
 30
0.000000
  70
    32
  0
VERTEX
  8
É}ÿg
  5
7BE
 10
921.074
 20
-537.388
 30
0.000000
  70
    32
  0
VERTEX
  8
É}ÿg
  5
7BF
 10
921.081
 20
-537.389
 30
0.000000
  70
    32
  0
VERTEX
  8
É}ÿg
  5
7C0
 10
921.089
 20
-537.391
 30
0.000000
  70
    32
  0
VERTEX
  8
É}ÿg
  5
7C1
 10
921.096
 20
-537.392
 30
0.000000
  70
    32
  0
VERTEX
  8
É}ÿg
  5
7C2
 10
921.104
 20
-537.394
 30
0.000000
  70
    32
  0
VERTEX
  8
É}ÿg
  5
7C3
 10
921.111
 20
-537.395
 30
0.000000
  70
    32
  0
VERTEX
  8
É}ÿg
  5
7C4
 10
921.118
 20
-537.396
 30
0.000000
  70
    32
  0
VERTEX
  8
É}ÿg
  5
7C5
 10
921.126
 20
-537.398
 30
0.000000
  70
    32
  0
VERTEX
  8
É}ÿg
  5
7C6
 10
921.133
 20
-537.399
 30
0.000000
  70
    32
  0
VERTEX
  8
É}ÿg
  5
7C7
 10
921.141
 20
-537.400
 30
0.000000
  70
    32
  0
VERTEX
  8
É}ÿg
  5
7C8
 10
921.148
 20
-537.402
 30
0.000000
  70
    32
  0
VERTEX
  8
É}ÿg
  5
7C9
 10
921.155
 20
-537.403
 30
0.000000
  70
    32
  0
VERTEX
  8
É}ÿg
  5
7CA
 10
921.163
 20
-537.404
 30
0.000000
  70
    32
  0
VERTEX
  8
É}ÿg
  5
7CB
 10
921.170
 20
-537.405
 30
0.000000
  70
    32
  0
VERTEX
  8
É}ÿg
  5
7CC
 10
921.178
 20
-537.407
 30
0.000000
  70
    32
  0
VERTEX
  8
É}ÿg
  5
7CD
 10
921.185
 20
-537.408
 30
0.000000
  70
    32
  0
VERTEX
  8
É}ÿg
  5
7CE
 10
921.192
 20
-537.409
 30
0.000000
  70
    32
  0
VERTEX
  8
É}ÿg
  5
7CF
 10
921.200
 20
-537.411
 30
0.000000
  70
    32
  0
VERTEX
  8
É}ÿg
  5
7D0
 10
921.207
 20
-537.412
 30
0.000000
  70
    32
  0
VERTEX
  8
É}ÿg
  5
7D1
 10
921.215
 20
-537.413
 30
0.000000
  70
    32
  0
VERTEX
  8
É}ÿg
  5
7D2
 10
921.222
 20
-537.415
 30
0.000000
  70
    32
  0
VERTEX
  8
É}ÿg
  5
7D3
 10
921.230
 20
-537.416
 30
0.000000
  70
    32
  0
VERTEX
  8
É}ÿg
  5
7D4
 10
921.237
 20
-537.417
 30
0.000000
  70
    32
  0
VERTEX
  8
É}ÿg
  5
7D5
 10
921.244
 20
-537.418
 30
0.000000
  70
    32
  0
VERTEX
  8
É}ÿg
  5
7D6
 10
921.252
 20
-537.420
 30
0.000000
  70
    32
  0
VERTEX
  8
É}ÿg
  5
7D7
 10
921.259
 20
-537.421
 30
0.000000
  70
    32
  0
VERTEX
  8
É}ÿg
  5
7D8
 10
921.267
 20
-537.422
 30
0.000000
  70
    32
  0
VERTEX
  8
É}ÿg
  5
7D9
 10
921.274
 20
-537.424
 30
0.000000
  70
    32
  0
VERTEX
  8
É}ÿg
  5
7DA
 10
921.282
 20
-537.425
 30
0.000000
  70
    32
  0
VERTEX
  8
É}ÿg
  5
7DB
 10
921.289
 20
-537.426
 30
0.000000
  70
    32
  0
VERTEX
  8
É}ÿg
  5
7DC
 10
921.296
 20
-537.427
 30
0.000000
  70
    32
  0
VERTEX
  8
É}ÿg
  5
7DD
 10
921.304
 20
-537.429
 30
0.000000
  70
    32
  0
VERTEX
  8
É}ÿg
  5
7DE
 10
921.311
 20
-537.430
 30
0.000000
  70
    32
  0
VERTEX
  8
É}ÿg
  5
7DF
 10
921.319
 20
-537.431
 30
0.000000
  70
    32
  0
VERTEX
  8
É}ÿg
  5
7E0
 10
921.326
 20
-537.432
 30
0.000000
  70
    32
  0
VERTEX
  8
É}ÿg
  5
7E1
 10
921.334
 20
-537.434
 30
0.000000
  70
    32
  0
VERTEX
  8
É}ÿg
  5
7E2
 10
921.341
 20
-537.435
 30
0.000000
  70
    32
  0
VERTEX
  8
É}ÿg
  5
7E3
 10
921.348
 20
-537.436
 30
0.000000
  70
    32
  0
VERTEX
  8
É}ÿg
  5
7E4
 10
921.356
 20
-537.438
 30
0.000000
  70
    32
  0
VERTEX
  8
É}ÿg
  5
7E5
 10
921.363
 20
-537.439
 30
0.000000
  70
    32
  0
VERTEX
  8
É}ÿg
  5
7E6
 10
921.371
 20
-537.440
 30
0.000000
  70
    32
  0
VERTEX
  8
É}ÿg
  5
7E7
 10
921.378
 20
-537.441
 30
0.000000
  70
    32
  0
VERTEX
  8
É}ÿg
  5
7E8
 10
921.386
 20
-537.443
 30
0.000000
  70
    32
  0
VERTEX
  8
É}ÿg
  5
7E9
 10
921.393
 20
-537.444
 30
0.000000
  70
    32
  0
VERTEX
  8
É}ÿg
  5
7EA
 10
921.401
 20
-537.445
 30
0.000000
  70
    32
  0
VERTEX
  8
É}ÿg
  5
7EB
 10
921.408
 20
-537.446
 30
0.000000
  70
    32
  0
VERTEX
  8
É}ÿg
  5
7EC
 10
921.415
 20
-537.448
 30
0.000000
  70
    32
  0
VERTEX
  8
É}ÿg
  5
7ED
 10
921.423
 20
-537.449
 30
0.000000
  70
    32
  0
VERTEX
  8
É}ÿg
  5
7EE
 10
921.430
 20
-537.450
 30
0.000000
  70
    32
  0
SEQEND
  8
É}ÿg
  5
7EF
  0
LINE
  5
23A
  8
É}ÿg
 10
924.9561776093999
 20
-537.69011521039988
 30
0.0
 11
925.91732587850015
 21
-537.69011521039988
 31
0.0
  0
LINE
  5
23B
  8
É}ÿg
 10
925.73673011749986
 20
-527.03718439719989
 30
0.0
 11
925.73673011749986
 21
-529.34118439719987
 31
0.0
  0
LINE
  5
23C
  8
É}ÿg
 10
927.7674897119
 20
-526.06418439720005
 30
0.0
 11
927.7674897119
 21
-538.81418439720005
 31
0.0
  0
LINE
  5
23D
  8
É}ÿg
 10
924.74898697779997
 20
-536.97011521039985
 30
0.0
 11
925.91732587850015
 21
-536.97011521039985
 31
0.0
  0
LINE
  5
23E
  8
É}ÿg
 10
925.11732587849997
 20
-538.25011521040005
 30
0.0
 11
924.9561776093999
 21
-537.69011521039988
 31
0.0
  0
LINE
  5
23F
  8
É}ÿg
 10
925.73673011749986
 20
-527.03718439719989
 30
0.0
 11
925.73673011749986
 21
-529.34118439719987
 31
0.0
  0
LINE
  5
240
  8
É}ÿg
 10
924.44971162089996
 20
-535.93011521039989
 30
0.0
 11
925.91732587850015
 21
-535.93011521039989
 31
0.0
  0
LINE
  5
241
  8
┌▓È_1
  6
STITCH
 10
934.83985510119999
 20
-479.42681288889992
 30
0.0
 11
934.83985510119999
 21
-482.42681288889992
 31
0.0
  0
LINE
  5
242
  8
┌▓È_1
  6
STITCH
 10
934.83985510119999
 20
-479.42681288889992
 30
0.0
 11
938.23985510119996
 21
-479.42681288889992
 31
0.0
  0
LINE
  5
243
  8
┌▓È_1
  6
STITCH
 10
938.23985510119996
 20
-482.42681288889992
 30
0.0
 11
938.23985510119996
 21
-479.42681288889992
 31
0.0
  0
LINE
  5
244
  8
┌▓È_1
 62
     5
 10
934.6898551011999
 20
-482.42681288889992
 30
0.0
 11
938.38985510119983
 21
-482.42681288889992
 31
0.0
  0
INSERT
  5
245
  8
0
  6
CONTINUOUS
  2
*U56
 10
0.0
 20
0.0
 30
0.0
  0
INSERT
  5
246
  8
0
  6
CONTINUOUS
  2
*U57
 10
0.0
 20
0.0
 30
0.0
  0
INSERT
  5
247
  8
0
  6
CONTINUOUS
  2
*U58
 10
0.0
 20
0.0
 30
0.0
  0
LINE
  5
248
  8
┌▓È_1
 10
942.0174897119
 20
-517.81418439720005
 30
0.0
 11
942.0174897119
 21
-509.56418439719999
 31
0.0
  0
LINE
  5
249
  8
┌▓È_1
 10
947.01748971189988
 20
-517.81418439720005
 30
0.0
 11
947.01748971189988
 21
-509.56418439719999
 31
0.0
  0
INSERT
  5
24A
  8
0
  6
CONTINUOUS
  2
*U59
 10
0.0
 20
0.0
 30
0.0
  0
INSERT
  5
24B
  8
0
  6
CONTINUOUS
  2
*U60
 10
0.0
 20
0.0
 30
0.0
  0
INSERT
  5
24C
  8
0
  6
CONTINUOUS
  2
*U61
 10
0.0
 20
0.0
 30
0.0
  0
INSERT
  5
24D
  8
0
  6
CONTINUOUS
  2
*U62
 10
0.0
 20
0.0
 30
0.0
  0
LINE
  5
24E
  8
É}ÿg
 10
924.74898697779997
 20
-536.97011521039985
 30
0.0
 11
924.65690225259993
 21
-536.65011521040003
 31
0.0
  0
LINE
  5
24F
  8
┌▓È_1
 62
     5
 10
893.06716287289987
 20
-437.33375148239992
 30
0.0
 11
893.25093510689987
 21
-437.33375148239992
 31
0.0
  0
LINE
  5
250
  8
┌▓È_1
 62
     5
 10
894.06716287289987
 20
-435.49033499209992
 30
0.0
 11
894.06716287289987
 21
-434.58375148239992
 31
0.0
  0
LINE
  5
251
  8
┌▓È_1
 62
     5
 10
894.76716287289992
 20
-430.88375148239987
 30
0.0
 11
890.76716287290003
 21
-430.88375148239987
 31
0.0
  0
LINE
  5
252
  8
┌▓È_1
 62
     5
 10
893.06716287289987
 20
-440.7337514823999
 30
0.0
 11
893.06716287289987
 21
-437.33375148239992
 31
0.0
  0
LINE
  5
253
  8
┌▓È_1
 62
     5
 10
893.76716287289992
 20
-434.58375148239992
 30
0.0
 11
893.76716287289992
 21
-430.88375148239987
 31
0.0
  0
LINE
  5
254
  8
┌▓È_1
 62
     5
 10
890.76716287290003
 20
-434.58375148239992
 30
0.0
 11
894.76716287289992
 21
-434.58375148239992
 31
0.0
  0
ARC
  5
255
  8
┌▓È_1
 62
     5
 10
893.25093510689987
 20
-436.9337514824
 30
0.0
 40
0.4
 50
270.0
 51
341.56505117709997
  0
LINE
  5
256
  8
┌▓È_1
 62
     5
 10
893.63040842609985
 20
-437.06024258879989
 30
0.0
 11
893.98505624320012
 21
-435.99629913759998
 31
0.0
  0
ARC
  5
257
  8
┌▓È_1
 62
     5
 10
892.46716287289985
 20
-435.49033499209992
 30
0.0
 40
1.6000000000000001
 50
341.56506175020002
 51
0.0
  0
DIMENSION
  5
266
  8
Éíû@É³
  2
*D15
 10
880.34240869970006
 20
-434.58375148239992
 30
0.0
 11
880.34240869970006
 21
-437.65875148240002
 31
0.0
 70
   128
  1
<>
 13
890.76716287290003
 23
-434.58375148239992
 33
0.0
 14
893.06716287289987
 24
-440.7337514823999
 34
0.0
 50
90.0
  0
DIMENSION
  5
275
  8
Éíû@É³
  2
*D16
 10
880.34240869970006
 20
-430.88375148239987
 30
0.0
 11
880.34240869970006
 21
-432.7337514823999
 31
0.0
 70
   128
  1
<>
 13
890.76716287290003
 23
-430.88375148239987
 33
0.0
 14
890.76716287290003
 24
-434.58375148239992
 34
0.0
 50
90.0
  0
DIMENSION
  5
284
  8
Éíû@É³
  2
*D17
 10
880.34240869970006
 20
-424.7337514823999
 30
0.0
 11
880.34240869970006
 21
-427.8087514824
 31
0.0
 70
   128
  1
<>
 13
893.06716287289987
 23
-424.7337514823999
 33
0.0
 14
890.76716287290003
 24
-430.88375148239987
 34
0.0
 50
90.0
  0
LINE
  5
285
  8
┌▓È_1
 62
     5
 10
890.76716287290003
 20
-431.03375148239991
 30
0.0
 11
886.51716287289992
 21
-431.03375148239991
 31
0.0
  0
LINE
  5
286
  8
┌▓È_1
 62
     5
 10
890.76716287290003
 20
-431.03375148239991
 30
0.0
 11
890.76716287290003
 21
-430.88375148239987
 31
0.0
  0
LINE
  5
287
  8
┌▓È_1
 62
     5
 10
889.7671628728998
 20
-434.43375148239988
 30
0.0
 11
889.7671628728998
 21
-431.03375148239991
 31
0.0
  0
LINE
  5
288
  8
┌▓È_1
 62
     5
 10
886.51716287289992
 20
-431.03375148239991
 30
0.0
 11
886.51716287289992
 21
-434.43375148239988
 31
0.0
  0
LINE
  5
289
  8
┌▓È_1
 62
     5
 10
894.06716287289987
 20
-465.67499460689999
 30
0.0
 11
894.06716287289987
 21
-466.17681288889997
 31
0.0
  0
POLYLINE
  5
28A
  8
┌▓È_1
 62
     5
 10
893.5671628729001
 20
-465.54263092529999
 30
0.0
 66
     1
 70
     8
  0
VERTEX
  8
┌▓È_1
  5
7F0
 10
893.567
 20
-465.543
 30
0.000000
  70
    32
  0
VERTEX
  8
┌▓È_1
  5
7F1
 10
893.573
 20
-465.543
 30
0.000000
  70
    32
  0
VERTEX
  8
┌▓È_1
  5
7F2
 10
893.579
 20
-465.543
 30
0.000000
  70
    32
  0
VERTEX
  8
┌▓È_1
  5
7F3
 10
893.586
 20
-465.543
 30
0.000000
  70
    32
  0
VERTEX
  8
┌▓È_1
  5
7F4
 10
893.592
 20
-465.543
 30
0.000000
  70
    32
  0
VERTEX
  8
┌▓È_1
  5
7F5
 10
893.598
 20
-465.543
 30
0.000000
  70
    32
  0
VERTEX
  8
┌▓È_1
  5
7F6
 10
893.604
 20
-465.543
 30
0.000000
  70
    32
  0
VERTEX
  8
┌▓È_1
  5
7F7
 10
893.610
 20
-465.543
 30
0.000000
  70
    32
  0
VERTEX
  8
┌▓È_1
  5
7F8
 10
893.616
 20
-465.543
 30
0.000000
  70
    32
  0
VERTEX
  8
┌▓È_1
  5
7F9
 10
893.622
 20
-465.543
 30
0.000000
  70
    32
  0
VERTEX
  8
┌▓È_1
  5
7FA
 10
893.628
 20
-465.544
 30
0.000000
  70
    32
  0
VERTEX
  8
┌▓È_1
  5
7FB
 10
893.634
 20
-465.544
 30
0.000000
  70
    32
  0
VERTEX
  8
┌▓È_1
  5
7FC
 10
893.641
 20
-465.544
 30
0.000000
  70
    32
  0
VERTEX
  8
┌▓È_1
  5
7FD
 10
893.647
 20
-465.544
 30
0.000000
  70
    32
  0
VERTEX
  8
┌▓È_1
  5
7FE
 10
893.653
 20
-465.545
 30
0.000000
  70
    32
  0
VERTEX
  8
┌▓È_1
  5
7FF
 10
893.659
 20
-465.545
 30
0.000000
  70
    32
  0
VERTEX
  8
┌▓È_1
  5
800
 10
893.665
 20
-465.545
 30
0.000000
  70
    32
  0
VERTEX
  8
┌▓È_1
  5
801
 10
893.671
 20
-465.546
 30
0.000000
  70
    32
  0
VERTEX
  8
┌▓È_1
  5
802
 10
893.677
 20
-465.546
 30
0.000000
  70
    32
  0
VERTEX
  8
┌▓È_1
  5
803
 10
893.683
 20
-465.546
 30
0.000000
  70
    32
  0
VERTEX
  8
┌▓È_1
  5
804
 10
893.689
 20
-465.547
 30
0.000000
  70
    32
  0
VERTEX
  8
┌▓È_1
  5
805
 10
893.695
 20
-465.547
 30
0.000000
  70
    32
  0
VERTEX
  8
┌▓È_1
  5
806
 10
893.701
 20
-465.547
 30
0.000000
  70
    32
  0
VERTEX
  8
┌▓È_1
  5
807
 10
893.706
 20
-465.548
 30
0.000000
  70
    32
  0
VERTEX
  8
┌▓È_1
  5
808
 10
893.712
 20
-465.548
 30
0.000000
  70
    32
  0
VERTEX
  8
┌▓È_1
  5
809
 10
893.718
 20
-465.549
 30
0.000000
  70
    32
  0
VERTEX
  8
┌▓È_1
  5
80A
 10
893.724
 20
-465.549
 30
0.000000
  70
    32
  0
VERTEX
  8
┌▓È_1
  5
80B
 10
893.730
 20
-465.550
 30
0.000000
  70
    32
  0
VERTEX
  8
┌▓È_1
  5
80C
 10
893.736
 20
-465.550
 30
0.000000
  70
    32
  0
VERTEX
  8
┌▓È_1
  5
80D
 10
893.741
 20
-465.551
 30
0.000000
  70
    32
  0
VERTEX
  8
┌▓È_1
  5
80E
 10
893.747
 20
-465.552
 30
0.000000
  70
    32
  0
VERTEX
  8
┌▓È_1
  5
80F
 10
893.753
 20
-465.552
 30
0.000000
  70
    32
  0
VERTEX
  8
┌▓È_1
  5
810
 10
893.759
 20
-465.553
 30
0.000000
  70
    32
  0
VERTEX
  8
┌▓È_1
  5
811
 10
893.764
 20
-465.553
 30
0.000000
  70
    32
  0
VERTEX
  8
┌▓È_1
  5
812
 10
893.770
 20
-465.554
 30
0.000000
  70
    32
  0
VERTEX
  8
┌▓È_1
  5
813
 10
893.775
 20
-465.555
 30
0.000000
  70
    32
  0
VERTEX
  8
┌▓È_1
  5
814
 10
893.781
 20
-465.555
 30
0.000000
  70
    32
  0
VERTEX
  8
┌▓È_1
  5
815
 10
893.786
 20
-465.556
 30
0.000000
  70
    32
  0
VERTEX
  8
┌▓È_1
  5
816
 10
893.792
 20
-465.557
 30
0.000000
  70
    32
  0
VERTEX
  8
┌▓È_1
  5
817
 10
893.797
 20
-465.558
 30
0.000000
  70
    32
  0
VERTEX
  8
┌▓È_1
  5
818
 10
893.803
 20
-465.558
 30
0.000000
  70
    32
  0
VERTEX
  8
┌▓È_1
  5
819
 10
893.808
 20
-465.559
 30
0.000000
  70
    32
  0
VERTEX
  8
┌▓È_1
  5
81A
 10
893.814
 20
-465.560
 30
0.000000
  70
    32
  0
VERTEX
  8
┌▓È_1
  5
81B
 10
893.819
 20
-465.561
 30
0.000000
  70
    32
  0
VERTEX
  8
┌▓È_1
  5
81C
 10
893.824
 20
-465.561
 30
0.000000
  70
    32
  0
VERTEX
  8
┌▓È_1
  5
81D
 10
893.829
 20
-465.562
 30
0.000000
  70
    32
  0
VERTEX
  8
┌▓È_1
  5
81E
 10
893.835
 20
-465.563
 30
0.000000
  70
    32
  0
VERTEX
  8
┌▓È_1
  5
81F
 10
893.840
 20
-465.564
 30
0.000000
  70
    32
  0
VERTEX
  8
┌▓È_1
  5
820
 10
893.845
 20
-465.565
 30
0.000000
  70
    32
  0
VERTEX
  8
┌▓È_1
  5
821
 10
893.850
 20
-465.566
 30
0.000000
  70
    32
  0
VERTEX
  8
┌▓È_1
  5
822
 10
893.855
 20
-465.567
 30
0.000000
  70
    32
  0
VERTEX
  8
┌▓È_1
  5
823
 10
893.860
 20
-465.568
 30
0.000000
  70
    32
  0
VERTEX
  8
┌▓È_1
  5
824
 10
893.865
 20
-465.569
 30
0.000000
  70
    32
  0
VERTEX
  8
┌▓È_1
  5
825
 10
893.870
 20
-465.570
 30
0.000000
  70
    32
  0
VERTEX
  8
┌▓È_1
  5
826
 10
893.875
 20
-465.571
 30
0.000000
  70
    32
  0
VERTEX
  8
┌▓È_1
  5
827
 10
893.880
 20
-465.572
 30
0.000000
  70
    32
  0
VERTEX
  8
┌▓È_1
  5
828
 10
893.884
 20
-465.573
 30
0.000000
  70
    32
  0
VERTEX
  8
┌▓È_1
  5
829
 10
893.889
 20
-465.574
 30
0.000000
  70
    32
  0
VERTEX
  8
┌▓È_1
  5
82A
 10
893.894
 20
-465.575
 30
0.000000
  70
    32
  0
VERTEX
  8
┌▓È_1
  5
82B
 10
893.898
 20
-465.576
 30
0.000000
  70
    32
  0
VERTEX
  8
┌▓È_1
  5
82C
 10
893.903
 20
-465.577
 30
0.000000
  70
    32
  0
VERTEX
  8
┌▓È_1
  5
82D
 10
893.907
 20
-465.578
 30
0.000000
  70
    32
  0
VERTEX
  8
┌▓È_1
  5
82E
 10
893.912
 20
-465.579
 30
0.000000
  70
    32
  0
VERTEX
  8
┌▓È_1
  5
82F
 10
893.916
 20
-465.580
 30
0.000000
  70
    32
  0
VERTEX
  8
┌▓È_1
  5
830
 10
893.921
 20
-465.581
 30
0.000000
  70
    32
  0
VERTEX
  8
┌▓È_1
  5
831
 10
893.925
 20
-465.583
 30
0.000000
  70
    32
  0
VERTEX
  8
┌▓È_1
  5
832
 10
893.929
 20
-465.584
 30
0.000000
  70
    32
  0
VERTEX
  8
┌▓È_1
  5
833
 10
893.933
 20
-465.585
 30
0.000000
  70
    32
  0
VERTEX
  8
┌▓È_1
  5
834
 10
893.938
 20
-465.586
 30
0.000000
  70
    32
  0
VERTEX
  8
┌▓È_1
  5
835
 10
893.942
 20
-465.587
 30
0.000000
  70
    32
  0
VERTEX
  8
┌▓È_1
  5
836
 10
893.946
 20
-465.589
 30
0.000000
  70
    32
  0
VERTEX
  8
┌▓È_1
  5
837
 10
893.950
 20
-465.590
 30
0.000000
  70
    32
  0
VERTEX
  8
┌▓È_1
  5
838
 10
893.954
 20
-465.591
 30
0.000000
  70
    32
  0
VERTEX
  8
┌▓È_1
  5
839
 10
893.958
 20
-465.592
 30
0.000000
  70
    32
  0
VERTEX
  8
┌▓È_1
  5
83A
 10
893.961
 20
-465.594
 30
0.000000
  70
    32
  0
VERTEX
  8
┌▓È_1
  5
83B
 10
893.965
 20
-465.595
 30
0.000000
  70
    32
  0
VERTEX
  8
┌▓È_1
  5
83C
 10
893.969
 20
-465.596
 30
0.000000
  70
    32
  0
VERTEX
  8
┌▓È_1
  5
83D
 10
893.972
 20
-465.597
 30
0.000000
  70
    32
  0
VERTEX
  8
┌▓È_1
  5
83E
 10
893.976
 20
-465.599
 30
0.000000
  70
    32
  0
VERTEX
  8
┌▓È_1
  5
83F
 10
893.979
 20
-465.600
 30
0.000000
  70
    32
  0
VERTEX
  8
┌▓È_1
  5
840
 10
893.983
 20
-465.601
 30
0.000000
  70
    32
  0
VERTEX
  8
┌▓È_1
  5
841
 10
893.986
 20
-465.603
 30
0.000000
  70
    32
  0
VERTEX
  8
┌▓È_1
  5
842
 10
893.990
 20
-465.604
 30
0.000000
  70
    32
  0
VERTEX
  8
┌▓È_1
  5
843
 10
893.993
 20
-465.606
 30
0.000000
  70
    32
  0
VERTEX
  8
┌▓È_1
  5
844
 10
893.996
 20
-465.607
 30
0.000000
  70
    32
  0
VERTEX
  8
┌▓È_1
  5
845
 10
893.999
 20
-465.608
 30
0.000000
  70
    32
  0
VERTEX
  8
┌▓È_1
  5
846
 10
894.002
 20
-465.610
 30
0.000000
  70
    32
  0
VERTEX
  8
┌▓È_1
  5
847
 10
894.005
 20
-465.611
 30
0.000000
  70
    32
  0
VERTEX
  8
┌▓È_1
  5
848
 10
894.008
 20
-465.613
 30
0.000000
  70
    32
  0
VERTEX
  8
┌▓È_1
  5
849
 10
894.011
 20
-465.614
 30
0.000000
  70
    32
  0
VERTEX
  8
┌▓È_1
  5
84A
 10
894.014
 20
-465.615
 30
0.000000
  70
    32
  0
VERTEX
  8
┌▓È_1
  5
84B
 10
894.017
 20
-465.617
 30
0.000000
  70
    32
  0
VERTEX
  8
┌▓È_1
  5
84C
 10
894.019
 20
-465.618
 30
0.000000
  70
    32
  0
VERTEX
  8
┌▓È_1
  5
84D
 10
894.022
 20
-465.620
 30
0.000000
  70
    32
  0
VERTEX
  8
┌▓È_1
  5
84E
 10
894.024
 20
-465.621
 30
0.000000
  70
    32
  0
VERTEX
  8
┌▓È_1
  5
84F
 10
894.027
 20
-465.623
 30
0.000000
  70
    32
  0
VERTEX
  8
┌▓È_1
  5
850
 10
894.029
 20
-465.624
 30
0.000000
  70
    32
  0
VERTEX
  8
┌▓È_1
  5
851
 10
894.031
 20
-465.626
 30
0.000000
  70
    32
  0
VERTEX
  8
┌▓È_1
  5
852
 10
894.034
 20
-465.627
 30
0.000000
  70
    32
  0
VERTEX
  8
┌▓È_1
  5
853
 10
894.036
 20
-465.629
 30
0.000000
  70
    32
  0
VERTEX
  8
┌▓È_1
  5
854
 10
894.038
 20
-465.630
 30
0.000000
  70
    32
  0
VERTEX
  8
┌▓È_1
  5
855
 10
894.040
 20
-465.632
 30
0.000000
  70
    32
  0
VERTEX
  8
┌▓È_1
  5
856
 10
894.042
 20
-465.633
 30
0.000000
  70
    32
  0
VERTEX
  8
┌▓È_1
  5
857
 10
894.044
 20
-465.635
 30
0.000000
  70
    32
  0
VERTEX
  8
┌▓È_1
  5
858
 10
894.046
 20
-465.637
 30
0.000000
  70
    32
  0
VERTEX
  8
┌▓È_1
  5
859
 10
894.047
 20
-465.638
 30
0.000000
  70
    32
  0
VERTEX
  8
┌▓È_1
  5
85A
 10
894.049
 20
-465.640
 30
0.000000
  70
    32
  0
VERTEX
  8
┌▓È_1
  5
85B
 10
894.051
 20
-465.641
 30
0.000000
  70
    32
  0
VERTEX
  8
┌▓È_1
  5
85C
 10
894.052
 20
-465.643
 30
0.000000
  70
    32
  0
VERTEX
  8
┌▓È_1
  5
85D
 10
894.054
 20
-465.644
 30
0.000000
  70
    32
  0
VERTEX
  8
┌▓È_1
  5
85E
 10
894.055
 20
-465.646
 30
0.000000
  70
    32
  0
VERTEX
  8
┌▓È_1
  5
85F
 10
894.056
 20
-465.648
 30
0.000000
  70
    32
  0
VERTEX
  8
┌▓È_1
  5
860
 10
894.058
 20
-465.649
 30
0.000000
  70
    32
  0
VERTEX
  8
┌▓È_1
  5
861
 10
894.059
 20
-465.651
 30
0.000000
  70
    32
  0
VERTEX
  8
┌▓È_1
  5
862
 10
894.060
 20
-465.652
 30
0.000000
  70
    32
  0
VERTEX
  8
┌▓È_1
  5
863
 10
894.061
 20
-465.654
 30
0.000000
  70
    32
  0
VERTEX
  8
┌▓È_1
  5
864
 10
894.062
 20
-465.656
 30
0.000000
  70
    32
  0
VERTEX
  8
┌▓È_1
  5
865
 10
894.063
 20
-465.657
 30
0.000000
  70
    32
  0
VERTEX
  8
┌▓È_1
  5
866
 10
894.063
 20
-465.659
 30
0.000000
  70
    32
  0
VERTEX
  8
┌▓È_1
  5
867
 10
894.064
 20
-465.660
 30
0.000000
  70
    32
  0
VERTEX
  8
┌▓È_1
  5
868
 10
894.065
 20
-465.662
 30
0.000000
  70
    32
  0
VERTEX
  8
┌▓È_1
  5
869
 10
894.065
 20
-465.664
 30
0.000000
  70
    32
  0
VERTEX
  8
┌▓È_1
  5
86A
 10
894.066
 20
-465.665
 30
0.000000
  70
    32
  0
VERTEX
  8
┌▓È_1
  5
86B
 10
894.066
 20
-465.667
 30
0.000000
  70
    32
  0
VERTEX
  8
┌▓È_1
  5
86C
 10
894.067
 20
-465.668
 30
0.000000
  70
    32
  0
VERTEX
  8
┌▓È_1
  5
86D
 10
894.067
 20
-465.670
 30
0.000000
  70
    32
  0
VERTEX
  8
┌▓È_1
  5
86E
 10
894.067
 20
-465.672
 30
0.000000
  70
    32
  0
VERTEX
  8
┌▓È_1
  5
86F
 10
894.067
 20
-465.673
 30
0.000000
  70
    32
  0
VERTEX
  8
┌▓È_1
  5
870
 10
894.067
 20
-465.675
 30
0.000000
  70
    32
  0
SEQEND
  8
┌▓È_1
  5
871
  0
LINE
  5
28B
  8
┌▓È_1
  6
STITCH
 10
894.06716287289987
 20
-463.17681288889997
 30
0.0
 11
894.06716287289987
 21
-466.17681288889997
 31
0.0
  0
LINE
  5
28C
  8
┌▓È_1
 62
     5
 10
893.06716287289987
 20
-465.54263092529999
 30
0.0
 11
893.06716287289987
 21
-463.17681288889997
 31
0.0
  0
LINE
  5
28D
  8
┌▓È_1
 62
     5
 10
890.76716287290003
 20
-434.43375148239988
 30
0.0
 11
890.76716287290003
 21
-434.58375148239992
 31
0.0
  0
LINE
  5
28E
  8
┌▓È_1
 62
     5
 10
897.26716287289992
 20
-462.67681288889997
 30
0.0
 11
897.26716287289992
 21
-463.17681288889997
 31
0.0
  0
LINE
  5
28F
  8
┌▓È_1
 62
     5
 10
893.56716287289998
 20
-465.54263092529999
 30
0.0
 11
893.06716287289987
 21
-465.54263092529999
 31
0.0
  0
DIMENSION
  5
29E
  8
Éíû@É³
  2
*D18
 10
893.06716287289987
 20
-419.7337514823999
 30
0.0
 11
889.79216287289989
 21
-419.7337514823999
 31
0.0
 70
   128
  1
<>
 13
893.06716287289987
 23
-424.7337514823999
 33
0.0
 14
886.51716287289992
 24
-431.03375148239991
 34
0.0
  0
ARC
  5
29F
  8
┌▓È_1
 62
     5
 10
892.46716287289985
 20
-429.97716797259989
 30
0.0
 40
1.6000000000000001
 50
0.0
 51
18.434938249799998
  0
LINE
  5
2A0
  8
┌▓È_1
 62
     5
 10
911.76716287289992
 20
-463.17681288889997
 30
0.0
 11
911.76716287289992
 21
-464.17681288889992
 31
0.0
  0
DIMENSION
  5
2AF
  8
Éíû@É³
  2
*D19
 10
916.76716287289992
 20
-463.17681288889997
 30
0.0
 11
916.76716287289992
 21
-461.18746681469997
 31
0.0
 70
   128
  1
<>
 13
911.76716287289992
 23
-463.17681288889997
 33
0.0
 14
910.2671628728998
 24
-462.67681288889997
 34
0.0
 50
90.0
  0
ARC
  5
2B0
  8
┌▓È_1
 62
     5
 10
936.53985510119992
 20
-449.17681288889992
 30
0.0
 40
17.0
 50
241.9275130641
 51
298.07248693589997
  0
DIMENSION
  5
2B7
  8
Éíû@É³
  2
*D20
 10
898.13799774829988
 20
-435.98375148240001
 30
0.0
 11
922.40771963729992
 21
-424.72125167309991
 31
0.0
 70
   131
  1
<>
 15
909.39632799749995
 25
-429.4837514823999
 35
0.0
 40
0.0
  0
ARC
  5
2B8
  8
┌▓È_1
 62
     5
 10
903.76716287289992
 20
-449.17681288889992
 30
0.0
 40
17.0
 50
269.99999894479998
 51
298.07248693589997
  0
DIMENSION
  5
2BF
  8
Éíû@É³
  2
*D21
 10
903.76716287289992
 20
-432.7337514823999
 30
0.0
 11
923.70675774289998
 21
-441.4962512916
 31
0.0
 70
   132
  1
<>
 15
910.69536610320006
 25
-436.7337514823999
 35
0.0
 40
0.0
  0
INSERT
  5
2C1
  8
┌▓È_1
  2
CLUMP1
 10
0.0
 20
0.0
 30
0.0
  0
INSERT
  5
2DA
  8
Éíû@É³
  2
BALLON1
 10
-322.3996113966237
 20
-130.7559330221134
 30
0.0
  0
LINE
  5
2E3
  8
┌▓È_1
 62
     5
 10
886.51716287289992
 20
-434.43375148239988
 30
0.0
 11
890.76716287290003
 21
-434.43375148239988
 31
0.0
  0
LINE
  5
2E4
  8
┌▓È_1
  6
STITCH
 10
889.46716287289996
 20
-434.43375148239988
 30
0.0
 11
889.46716287289996
 21
-431.03375148239991
 31
0.0
  0
LINE
  5
2E5
  8
┌▓È_1
  6
STITCH
 10
890.76716287290003
 20
-434.43375148239988
 30
0.0
 11
890.76716287290003
 21
-431.03375148239991
 31
0.0
  0
ARC
  5
2E6
  8
┌▓È_1
 62
     5
 10
893.2671628728998
 20
-459.67681288889992
 30
0.0
 40
0.5
 50
0.0
 51
90.0
  0
ARC
  5
2E7
  8
┌▓È_1
 62
     5
 10
894.76716287289992
 20
-462.17681288889997
 30
0.0
 40
1.0
 50
180.0
 51
270.0
  0
LINE
  5
2E8
  8
┌▓È_1
 62
     5
 10
893.76716287289992
 20
-462.17681330699992
 30
0.0
 11
893.76716287289992
 21
-459.67681288889992
 31
0.0
  0
LINE
  5
2E9
  8
┌▓È_1
 62
     5
 10
890.21716283889998
 20
-459.17681288889992
 30
0.0
 11
893.2671628728998
 21
-459.17681288889992
 31
0.0
  0
LINE
  5
2EA
  8
┌▓È_1
 62
     5
 10
890.06716287289998
 20
-462.42681288889992
 30
0.0
 11
890.76716287290003
 21
-462.42681288889992
 31
0.0
  0
LINE
  5
2EB
  8
┌▓È_1
 62
     5
 10
889.56716287289987
 20
-458.0526471501999
 30
0.0
 11
889.56716287289987
 21
-455.32084805
 31
0.0
  0
ARC
  5
2EC
  8
┌▓È_1
 62
     5
 10
890.21716287289996
 20
-458.42681288889992
 30
0.0
 40
0.75
 50
150.0735651334
 51
269.9999974287
  0
ARC
  5
2ED
  8
┌▓È_1
 62
     5
 10
889.26716287289992
 20
-455.32084805
 30
0.0
 40
0.3
 50
0.0
 51
103.40801953179999
  0
ARC
  5
2EE
  8
┌▓È_1
 62
     5
 10
890.06716287289998
 20
-458.67681288889997
 30
0.0
 40
3.75
 50
103.40801953170001
 51
270.0
  0
LINE
  5
2EF
  8
┌▓È_1
 62
     5
 10
894.06716287289987
 20
-429.97716797259989
 30
0.0
 11
894.06716287289987
 21
-430.88375148239987
 31
0.0
  0
LINE
  5
2F0
  8
┌▓È_1
 62
     5
 10
893.63040842609985
 20
-428.40726037600001
 30
0.0
 11
893.98505624320012
 21
-429.4712038271
 31
0.0
  0
ARC
  5
2F1
  8
┌▓È_1
 62
     5
 10
893.25093510689987
 20
-428.53375148239991
 30
0.0
 40
0.4
 50
18.434948822900001
 51
90.0
  0
LINE
  5
2F2
  8
┌▓È_1
 62
     5
 10
893.06716287289987
 20
-424.7337514823999
 30
0.0
 11
893.06716287289987
 21
-428.13375148239999
 31
0.0
  0
LINE
  5
2F3
  8
┌▓È_1
 62
     5
 10
893.06716287289987
 20
-428.13375148239999
 30
0.0
 11
893.25093510689987
 21
-428.13375148239999
 31
0.0
  0
LINE
  5
2F4
  8
┌▓È_1
  6
STITCH
 10
934.6898551011999
 20
-462.67681288889997
 30
0.0
 11
934.6898551011999
 21
-466.07585132309998
 31
0.0
  0
LINE
  5
2F5
  8
┌▓È_1
  6
STITCH
 10
938.38985510119983
 20
-462.67681288889997
 30
0.0
 11
938.38985510119983
 21
-466.07585132309998
 31
0.0
  0
LINE
  5
2F6
  8
┌▓È_1
 62
     5
 10
928.53985510119992
 20
-463.17681288889997
 30
0.0
 11
944.53985510119992
 21
-463.17681288889997
 31
0.0
  0
LINE
  5
2F7
  8
┌▓È_1
 62
     5
 10
928.53985510119992
 20
-464.17681288889992
 30
0.0
 11
944.53985510119992
 21
-464.17681288889992
 31
0.0
  0
LINE
  5
2F8
  8
┌▓È_1
  6
STITCH
 10
931.93985510119978
 20
-463.17681288889997
 30
0.0
 11
931.93985510119978
 21
-465.54263092529999
 31
0.0
  0
LINE
  5
2F9
  8
┌▓È_1
 62
     5
 10
928.53985510119992
 20
-463.17681288889997
 30
0.0
 11
928.53985510119992
 21
-464.17681288889992
 31
0.0
  0
LINE
  5
2FA
  8
┌▓È_1
 62
     5
 10
934.6898551011999
 20
-459.17681288889992
 30
0.0
 11
938.38985510119983
 21
-459.17681288889992
 31
0.0
  0
LINE
  5
2FB
  8
┌▓È_1
 62
     5
 10
934.83985510119999
 20
-455.02084804999998
 30
0.0
 11
934.83985510119999
 21
-459.17681288889992
 31
0.0
  0
LINE
  5
2FC
  8
┌▓È_1
 62
     5
 10
938.38985510119983
 20
-459.17681288889992
 30
0.0
 11
938.38985510119983
 21
-462.67681288889997
 31
0.0
  0
LINE
  5
2FD
  8
┌▓È_1
 62
     5
 10
934.6898551011999
 20
-459.17681288889992
 30
0.0
 11
934.6898551011999
 21
-462.67681288889997
 31
0.0
  0
INSERT
  5
2FF
  8
┌▓È_1
 62
     5
  2
*X24
 10
0.0
 20
0.0
 30
0.0
  0
LINE
  5
31C
  8
┌▓È_1
 62
     5
 10
930.03985510119992
 20
-462.67681288889997
 30
0.0
 11
943.03985510119981
 21
-462.67681288889997
 31
0.0
  0
LINE
  5
31D
  8
┌▓È_1
 62
     5
 10
943.03985510119981
 20
-462.67681288889997
 30
0.0
 11
943.03985510119981
 21
-463.17681288889997
 31
0.0
  0
LINE
  5
31E
  8
┌▓È_1
 62
     5
 10
930.03985510119992
 20
-462.67681288889997
 30
0.0
 11
930.03985510119992
 21
-463.17681288889997
 31
0.0
  0
LINE
  5
31F
  8
┌▓È_1
  6
STITCH
 10
934.83985510119999
 20
-459.17681288889992
 30
0.0
 11
934.83985510119999
 21
-462.42681288889992
 31
0.0
  0
LINE
  5
320
  8
┌▓È_1
  6
STITCH
 10
934.83985510119999
 20
-462.42681288889992
 30
0.0
 11
938.23985510119996
 21
-462.42681288889992
 31
0.0
  0
LINE
  5
321
  8
┌▓È_1
 62
     5
 10
934.83985510119999
 20
-457.82681288890001
 30
0.0
 11
938.23985510119996
 21
-457.82681288890001
 31
0.0
  0
LINE
  5
322
  8
┌▓È_1
 62
     5
 10
938.23985510119996
 20
-455.02084804999998
 30
0.0
 11
934.83985510119999
 21
-455.02084804999998
 31
0.0
  0
LINE
  5
323
  8
┌▓È_1
 62
     5
 10
944.53985510119992
 20
-463.17681288889997
 30
0.0
 11
944.53985510119992
 21
-464.17681288889992
 31
0.0
  0
LINE
  5
324
  8
┌▓È_1
  6
STITCH
 10
941.13985510119983
 20
-463.17681288889997
 30
0.0
 11
941.13985510119983
 21
-465.54263092529999
 31
0.0
  0
LINE
  5
325
  8
┌▓È_1
  6
STITCH
 10
938.23985510119996
 20
-462.42681288889992
 30
0.0
 11
938.23985510119996
 21
-459.17681288889992
 31
0.0
  0
LINE
  5
326
  8
┌▓È_1
 62
     5
 10
938.23985510119996
 20
-459.17681288889992
 30
0.0
 11
938.23985510119996
 21
-455.02084804999998
 31
0.0
  0
DIMENSION
  5
335
  8
Éíû@É³
  2
*D25
 10
944.53985510119992
 20
-451.32084822820002
 30
0.0
 11
936.53985510119992
 21
-451.32084822820002
 31
0.0
 70
   128
  1
<>
 13
944.53985510119992
 23
-463.17681288889997
 33
0.0
 14
928.53985510119992
 24
-463.17681288889997
 34
0.0
  0
LINE
  5
336
  8
┌▓È_1
 62
     5
 10
910.2671628728998
 20
-462.67681288889997
 30
0.0
 11
910.2671628728998
 21
-463.17681288889997
 31
0.0
  0
ARC
  5
337
  8
┌▓È_1
 62
     5
 10
903.76716287289992
 20
-432.7337514823999
 30
0.0
 40
8.0
 50
270.0000003175
 51
90.000006459199994
  0
ENDSEC
  0
EOF
