  0
SECTION
  2
HEADER
  9
$ACADVER
  1
AC1009
  9
$INSBASE
 10
0.0
 20
0.0
 30
0.0
  9
$EXTMIN
 10
-377.10296875
 20
-306.3198958333
 30
0.0
  9
$EXTMAX
 10
442.8170312499999
 20
270.60010416670002
 30
0.5
  9
$LIMMIN
 10
0.0
 20
0.0
  9
$LIMMAX
 10
0.0
 20
0.0
  9
$ORTHOMODE
 70
     0
  9
$REGENMODE
 70
     1
  9
$FILLMODE
 70
     1
  9
$QTEXTMODE
 70
     0
  9
$MIRRTEXT
 70
     1
  9
$DRAGMODE
 70
     2
  9
$LTSCALE
 40
1.0
  9
$OSMODE
 70
    31
  9
$ATTMODE
 70
     1
  9
$TEXTSIZE
 40
0.0
  9
$TRACEWID
 40
0.05
  9
$TEXTSTYLE
  7
STANDARD
  9
$CLAYER
  8
0
  9
$CELTYPE
  6
CONTINUOUS
  9
$CECOLOR
 62
   256
  9
$DIMSCALE
 40
1.0
  9
$DIMASZ
 40
0.18
  9
$DIMEXO
 40
0.0625
  9
$DIMDLI
 40
0.38
  9
$DIMRND
 40
0.0
  9
$DIMDLE
 40
0.0
  9
$DIMEXE
 40
0.18
  9
$DIMTP
 40
0.0
  9
$DIMTM
 40
0.0
  9
$DIMTXT
 40
0.18
  9
$DIMCEN
 40
0.09
  9
$DIMTSZ
 40
0.0
  9
$DIMTOL
 70
     0
  9
$DIMLIM
 70
     0
  9
$DIMTIH
 70
     1
  9
$DIMTOH
 70
     1
  9
$DIMSE1
 70
     0
  9
$DIMSE2
 70
     0
  9
$DIMTAD
 70
     0
  9
$DIMZIN
 70
     0
  9
$DIMBLK
  1

  9
$DIMASO
 70
     1
  9
$DIMSHO
 70
     1
  9
$DIMPOST
  1

  9
$DIMAPOST
  1

  9
$DIMALT
 70
     0
  9
$DIMALTD
 70
     2
  9
$DIMALTF
 40
25.399999999999999
  9
$DIMLFAC
 40
1.0
  9
$DIMTOFL
 70
     0
  9
$DIMTVP
 40
0.0
  9
$DIMTIX
 70
     0
  9
$DIMSOXD
 70
     0
  9
$DIMSAH
 70
     0
  9
$DIMBLK1
  1

  9
$DIMBLK2
  1

  9
$DIMSTYLE
  2
STANDARD
  9
$DIMCLRD
 70
     0
  9
$DIMCLRE
 70
     0
  9
$DIMCLRT
 70
     0
  9
$DIMTFAC
 40
1.0
  9
$DIMGAP
 40
0.09
  9
$LUNITS
 70
     2
  9
$LUPREC
 70
     4
  9
$SKETCHINC
 40
0.1
  9
$FILLETRAD
 40
0.0
  9
$AUNITS
 70
     0
  9
$AUPREC
 70
     0
  9
$MENU
  1
acad
  9
$ELEVATION
 40
0.0
  9
$PELEVATION
 40
0.0
  9
$THICKNESS
 40
0.0
  9
$LIMCHECK
 70
     0
  9
$BLIPMODE
 70
     0
  9
$CHAMFERA
 40
0.0
  9
$CHAMFERB
 40
0.0
  9
$SKPOLY
 70
     0
  9
$TDCREATE
 40
2454866.4995702319
  9
$TDUPDATE
 40
2454866.4999203468
  9
$TDINDWG
 40
0.000406713
  9
$TDUSRTIMER
 40
0.0003994792
  9
$USRTIMER
 70
     1
  9
$ANGBASE
 50
0.0
  9
$ANGDIR
 70
     0
  9
$PDMODE
 70
     3
  9
$PDSIZE
 40
-1.0
  9
$PLINEWID
 40
0.0
  9
$COORDS
 70
     2
  9
$SPLFRAME
 70
     0
  9
$SPLINETYPE
 70
     6
  9
$SPLINESEGS
 70
     8
  9
$ATTDIA
 70
     0
  9
$ATTREQ
 70
     1
  9
$HANDLING
 70
     1
  9
$HANDSEED
  5
F8D
  9
$SURFTAB1
 70
     6
  9
$SURFTAB2
 70
     6
  9
$SURFTYPE
 70
     6
  9
$SURFU
 70
     6
  9
$SURFV
 70
     6
  9
$UCSNAME
  2

  9
$UCSORG
 10
0.0
 20
0.0
 30
0.0
  9
$UCSXDIR
 10
1.0
 20
0.0
 30
0.0
  9
$UCSYDIR
 10
0.0
 20
1.0
 30
0.0
  9
$PUCSNAME
  2

  9
$PUCSORG
 10
0.0
 20
0.0
 30
0.0
  9
$PUCSXDIR
 10
1.0
 20
0.0
 30
0.0
  9
$PUCSYDIR
 10
0.0
 20
1.0
 30
0.0
  9
$USERI1
 70
     0
  9
$USERI2
 70
     0
  9
$USERI3
 70
     0
  9
$USERI4
 70
     0
  9
$USERI5
 70
     0
  9
$USERR1
 40
0.0
  9
$USERR2
 40
0.0
  9
$USERR3
 40
0.0
  9
$USERR4
 40
0.0
  9
$USERR5
 40
0.0
  9
$WORLDVIEW
 70
     1
  9
$SHADEDGE
 70
     3
  9
$SHADEDIF
 70
    70
  9
$TILEMODE
 70
     1
  9
$MAXACTVP
 70
    16
  9
$PLIMCHECK
 70
     0
  9
$PEXTMIN
 10
1.0000000000000000E+020
 20
1.0000000000000000E+020
 30
1.0000000000000000E+020
  9
$PEXTMAX
 10
-1.0000000000000000E+020
 20
-1.0000000000000000E+020
 30
-1.0000000000000000E+020
  9
$PLIMMIN
 10
0.0
 20
0.0
  9
$PLIMMAX
 10
12.0
 20
9.0
  9
$UNITMODE
 70
     0
  9
$VISRETAIN
 70
     0
  9
$PLINEGEN
 70
     1
  9
$PSLTSCALE
 70
     0
  0
ENDSEC
  0
SECTION
  2
TABLES
  0
TABLE
  2
VPORT
 70
     2
  0
VPORT
  2
*ACTIVE
 70
     0
 10
0.0
 20
0.0
 11
1.0
 21
1.0
 12
32.857031250000063
 22
-17.859895833300008
 13
0.0
 23
0.0
 14
1.0
 24
1.0
 15
0.0
 25
0.0
 16
0.0
 26
0.0
 36
1.0
 17
0.0
 27
0.0
 37
0.0
 40
581.80915254237289
 41
1.5459688826025451
 42
50.0
 43
0.0
 44
0.0
 50
0.0
 51
0.0
 71
     0
 72
   100
 73
     1
 74
     1
 75
     0
 76
     0
 77
     0
 78
     0
  0
ENDTAB
  0
TABLE
  2
LTYPE
 70
    11
  0
LTYPE
  2
CONTINUOUS
 70
     0
  3
Solid line
 72
    65
 73
     0
 40
0.0
  0
LTYPE
  2
DOT
 70
     0
  3
. . . . . . . . 
 72
    65
 73
     2
 40
1.0
 49
0.0
 49
-1.0
  0
LTYPE
  2
DASHED
 70
     0
  3
___  ___  ___  ___  
 72
    65
 73
     2
 40
4.0
 49
3.0
 49
-1.0
  0
LTYPE
  2
HIDDEN
 70
     0
  3
__ __ __ __ 
 72
    65
 73
     2
 40
3.0
 49
2.0
 49
-1.0
  0
LTYPE
  2
STITCH
 70
     0
  3
_ _ _ _ 
 72
    65
 73
     2
 40
2.0
 49
1.0
 49
-1.0
  0
LTYPE
  2
CENTER
 70
     0
  3
______  __  ______  __  
 72
    65
 73
     4
 40
43.0
 49
40.0
 49
-1.0
 49
1.0
 49
-1.0
  0
LTYPE
  2
DASHDOT
 70
     0
  3
____ . ____ . 
 72
    65
 73
     4
 40
32.0
 49
30.0
 49
-1.0
 49
0.0
 49
-1.0
  0
LTYPE
  2
BORDER
 70
     0
  3
__ . __ . 
 72
    65
 73
     4
 40
22.0
 49
20.0
 49
-1.0
 49
0.0
 49
-1.0
  0
LTYPE
  2
CUTTING
 70
     0
  3
________   ___   ___   
 72
    65
 73
     6
 40
45.0
 49
40.0
 49
-1.0
 49
1.0
 49
-1.0
 49
1.0
 49
-1.0
  0
LTYPE
  2
PHANTOM
 70
     0
  3
______  __  __  
 72
    65
 73
     6
 40
35.0
 49
30.0
 49
-1.0
 49
1.0
 49
-1.0
 49
1.0
 49
-1.0
  0
LTYPE
  2
DIVIDE
 70
     0
  3
____ . . ____ . . 
 72
    65
 73
     6
 40
23.0
 49
20.0
 49
-1.0
 49
0.0
 49
-1.0
 49
0.0
 49
-1.0
  0
ENDTAB
  0
TABLE
  2
LAYER
 70
     5
  0
LAYER
  2
0
 70
     0
 62
     7
  6
CONTINUOUS
  0
LAYER
  2
┌▓È_1
 70
     0
 62
     7
  6
CONTINUOUS
  0
LAYER
  2
Éíû@É³
 70
     0
 62
     7
  6
CONTINUOUS
  0
LAYER
  2
ë³Æ¨
 70
     0
 62
     7
  6
CONTINUOUS
  0
LAYER
  2
É}ÿg
 70
     0
 62
     7
  6
CONTINUOUS
  0
ENDTAB
  0
TABLE
  2
STYLE
 70
     1
  0
STYLE
  2
STANDARD
 70
     0
 40
0.0
 41
1.0
 50
0.0
 71
     0
 42
0.0
  3
txt
  4
extfont
  0
ENDTAB
  0
TABLE
  2
VIEW
 70
     0
  0
ENDTAB
  0
TABLE
  2
UCS
 70
     0
  0
ENDTAB
  0
TABLE
  2
APPID
 70
     2
  0
APPID
  2
ACAD
 70
     0
  0
APPID
  2
DCO15
 70
     0
  0
ENDTAB
  0
TABLE
  2
DIMSTYLE
 70
     3
  0
DIMSTYLE
  2
STANDARD
 70
     0
  3

  4

  5

  6

  7

 40
1.0
 41
0.18
 42
0.0625
 43
0.38
 44
0.18
 45
0.0
 46
0.0
 47
0.0
 48
0.0
140
0.18
141
0.09
142
0.0
143
25.399999999999999
144
1.0
145
0.0
146
1.0
147
0.09
 71
     0
 72
     0
 73
     1
 74
     1
 75
     0
 76
     0
 77
     0
 78
     0
170
     0
171
     2
172
     0
173
     0
174
     0
175
     0
176
     0
177
     0
178
     0
  0
DIMSTYLE
  2
VELDIM0
 70
     0
  3

  4

  5

  6

  7

 40
1.0
 41
3.8637032508999991
 42
0.0625
 43
0.38
 44
2.0
 45
0.0
 46
10.0
 47
0.0
 48
0.0
140
7.1966662884000003
141
0.09
142
0.0
143
25.399999999999999
144
1.0
145
0.0
146
1.0
147
0.09
 71
     0
 72
     0
 73
     0
 74
     0
 75
     0
 76
     0
 77
     0
 78
     8
170
     0
171
     2
172
     0
173
     0
174
     0
175
     0
176
     0
177
     0
178
     0
  0
DIMSTYLE
  2
VELDIM1
 70
     0
  3

  4

  5

  6

  7

 40
1.0
 41
3.8637032508999991
 42
0.0625
 43
0.38
 44
1.25
 45
0.0
 46
5.0
 47
0.0
 48
0.0
140
7.1966662884000003
141
0.09
142
0.0
143
25.399999999999999
144
1.0
145
0.0
146
1.0
147
0.09
 71
     0
 72
     0
 73
     0
 74
     0
 75
     0
 76
     0
 77
     0
 78
     8
170
     0
171
     2
172
     0
173
     0
174
     0
175
     0
176
     0
177
     0
178
     0
  0
ENDTAB
  0
ENDSEC
  0
SECTION
  2
BLOCKS
  0
BLOCK
  8
0
  2
$MODEL_SPACE
 70
     0
 10
0.0
 20
0.0
 30
0.0
  3
$MODEL_SPACE
  1

  0
ENDBLK
  5
E
  8
0
  0
BLOCK
 67
     1
  8
0
  2
$PAPER_SPACE
 70
     0
 10
0.0
 20
0.0
 30
0.0
  3
$PAPER_SPACE
  1

  0
ENDBLK
  5
10
 67
     1
  8
0
  0
BLOCK
  8
0
  2
CLUMP0
 70
     0
 10
0.0
 20
0.0
 30
0.0
  3
CLUMP0
  1

  0
CIRCLE
  5
39
  8
┌▓È_1
  6
STITCH
 10
147.45911458329999
 20
119.9037760417
 30
0.0
 40
1.5
  0
CIRCLE
  5
3A
  8
┌▓È_1
  6
STITCH
 10
147.45911458329999
 20
119.9037760417
 30
0.0
 40
3.0
  0
LINE
  5
3B
  8
┌▓È_1
  6
STITCH
 10
147.45911458329999
 20
124.9037760417
 30
0.0
 11
147.45911458329999
 21
114.9037760417
 31
0.0
  0
LINE
  5
3C
  8
┌▓È_1
  6
STITCH
 10
142.45911458329999
 20
119.9037760417
 30
0.0
 11
152.45911458329999
 21
119.9037760417
 31
0.0
  0
ENDBLK
  5
3D
  8
0
  0
BLOCK
  8
0
  2
*D1
 70
     1
 10
0.0
 20
0.0
 30
0.0
  3
*D1
  1

  0
TEXT
  5
48
  8
0
 62
     0
 10
318.22578147249999
 20
64.433541599899996
 30
0.0
 40
7.1966662884000003
  1
30
  0
LINE
  5
49
  8
0
 62
     0
 10
307.45911458329999
 20
112.9037760417
 30
0.0
 11
307.45911458329999
 21
59.163541666699999
 31
0.0
  0
LINE
  5
4A
  8
0
 62
     0
 10
337.45911458329999
 20
110.9037760417
 30
0.0
 11
337.45911458329999
 21
59.163541666699999
 31
0.0
  0
LINE
  5
4B
  8
0
 62
     0
 10
307.45911458329999
 20
61.163541666699992
 30
0.0
 11
330.92578080499999
 21
61.163541666699992
 31
0.0
  0
LINE
  5
4C
  8
0
 62
     0
 10
307.45911458329999
 20
61.163541666699992
 30
0.0
 11
313.99244836169999
 21
61.163541666699992
 31
0.0
  0
LINE
  5
4D
  8
0
 62
     0
 10
337.45911458329999
 20
61.163541666699992
 30
0.0
 11
330.92578080499999
 21
61.163541666699992
 31
0.0
  0
LINE
  5
4E
  8
0
 62
     0
 10
337.45911458329999
 20
61.163541666699992
 30
0.0
 11
313.99244836169999
 21
61.163541666699992
 31
0.0
  0
LINE
  5
4F
  8
0
 62
     0
 10
337.45911458329999
 20
61.163541666699992
 30
0.0
 11
327.45911458329999
 21
61.163541666699992
 31
0.0
  0
SOLID
  5
50
  8
0
 62
     0
 10
337.45911458329999
 20
61.163541666699992
 30
0.0
 11
333.59541133239998
 21
60.128265492099999
 31
0.0
 12
333.59541133239998
 22
62.198817841199997
 32
0.0
 13
334.56133714520001
 23
61.163541666699992
 33
0.0
  0
LINE
  5
51
  8
0
 62
     0
 10
307.45911458329999
 20
61.163541666699992
 30
0.0
 11
317.45911458329999
 21
61.163541666699992
 31
0.0
  0
SOLID
  5
52
  8
0
 62
     0
 10
307.45911458329999
 20
61.163541666699992
 30
0.0
 11
311.32281783420001
 21
62.198817841199997
 31
0.0
 12
311.32281783420001
 22
60.128265492099999
 32
0.0
 13
310.35689202150002
 23
61.163541666699992
 33
0.0
  0
ENDBLK
  5
53
  8
0
  0
BLOCK
  8
0
  2
CLUMP1
 70
     0
 10
0.0
 20
0.0
 30
0.0
  3
CLUMP1
  1

  0
CIRCLE
  5
5D
  8
┌▓È_1
  6
STITCH
 10
307.45911458329999
 20
119.9037760417
 30
0.0
 40
1.5
  0
CIRCLE
  5
5E
  8
┌▓È_1
  6
STITCH
 10
307.45911458329999
 20
119.9037760417
 30
0.0
 40
3.0
  0
LINE
  5
5F
  8
┌▓È_1
  6
STITCH
 10
307.45911458329999
 20
124.9037760417
 30
0.0
 11
307.45911458329999
 21
114.9037760417
 31
0.0
  0
LINE
  5
60
  8
┌▓È_1
  6
STITCH
 10
302.45911458329999
 20
119.9037760417
 30
0.0
 11
312.45911458329999
 21
119.9037760417
 31
0.0
  0
ENDBLK
  5
61
  8
0
  0
BLOCK
  8
0
  2
*D3
 70
     1
 10
0.0
 20
0.0
 30
0.0
  3
*D3
  1

  0
TEXT
  5
6D
  8
0
 62
     0
 10
321.74244836169999
 20
-41.763203191799988
 30
0.0
 40
7.1966662884000003
  1
14.5
  0
LINE
  5
6E
  8
0
 62
     0
 10
337.45911458329999
 20
-79.939062500000006
 30
0.0
 11
337.45911458329999
 21
-43.033203125
 31
0.0
  0
LINE
  5
6F
  8
0
 62
     0
 10
322.95911458329999
 20
-81.439062500000006
 30
0.0
 11
322.95911458329999
 21
-43.033203125
 31
0.0
  0
LINE
  5
70
  8
0
 62
     0
 10
337.45911458329999
 20
-45.033203125
 30
0.0
 11
337.45911458329999
 21
-45.033203125
 31
0.0
  0
LINE
  5
71
  8
0
 62
     0
 10
337.45911458329999
 20
-45.033203125
 30
0.0
 11
322.95911458329999
 21
-45.033203125
 31
0.0
  0
LINE
  5
72
  8
0
 62
     0
 10
322.95911458329999
 20
-45.033203125
 30
0.0
 11
337.45911458329999
 21
-45.033203125
 31
0.0
  0
LINE
  5
73
  8
0
 62
     0
 10
322.95911458329999
 20
-45.033203125
 30
0.0
 11
322.95911458329999
 21
-45.033203125
 31
0.0
  0
LINE
  5
74
  8
0
 62
     0
 10
322.95911458329999
 20
-45.033203125
 30
0.0
 11
332.95911458329999
 21
-45.033203125
 31
0.0
  0
SOLID
  5
75
  8
0
 62
     0
 10
322.95911458329999
 20
-45.033203125
 30
0.0
 11
326.82281783420001
 21
-43.997926950500002
 31
0.0
 12
326.82281783420001
 22
-46.068479299499991
 32
0.0
 13
325.85689202150002
 23
-45.033203125
 33
0.0
  0
LINE
  5
76
  8
0
 62
     0
 10
337.45911458329999
 20
-45.033203125
 30
0.0
 11
327.45911458329999
 21
-45.033203125
 31
0.0
  0
SOLID
  5
77
  8
0
 62
     0
 10
337.45911458329999
 20
-45.033203125
 30
0.0
 11
333.59541133239998
 21
-46.068479299499991
 31
0.0
 12
333.59541133239998
 22
-43.997926950500002
 32
0.0
 13
334.56133714520001
 23
-45.033203125
 33
0.0
  0
ENDBLK
  5
78
  8
0
  0
BLOCK
  8
0
  2
CLUMP2
 70
     0
 10
0.0
 20
0.0
 30
0.0
  3
CLUMP2
  1

  0
CIRCLE
  5
182
  8
┌▓È_1
  6
STITCH
 10
-52.5408854167
 20
119.9037760417
 30
0.0
 40
1.5
  0
CIRCLE
  5
183
  8
┌▓È_1
  6
STITCH
 10
-52.5408854167
 20
119.9037760417
 30
0.0
 40
3.0
  0
LINE
  5
184
  8
┌▓È_1
  6
STITCH
 10
-52.5408854167
 20
124.9037760417
 30
0.0
 11
-52.5408854167
 21
114.9037760417
 31
0.0
  0
LINE
  5
185
  8
┌▓È_1
  6
STITCH
 10
-57.5408854167
 20
119.9037760417
 30
0.0
 11
-47.540885416699993
 21
119.9037760417
 31
0.0
  0
ENDBLK
  5
186
  8
0
  0
BLOCK
  8
0
  2
CLUMP3
 70
     0
 10
0.0
 20
0.0
 30
0.0
  3
CLUMP3
  1

  0
CIRCLE
  5
19F
  8
┌▓È_1
  6
STITCH
 10
-212.54088541670001
 20
119.9037760417
 30
0.0
 40
1.5
  0
CIRCLE
  5
1A0
  8
┌▓È_1
  6
STITCH
 10
-212.54088541670001
 20
119.9037760417
 30
0.0
 40
3.0
  0
LINE
  5
1A1
  8
┌▓È_1
  6
STITCH
 10
-212.54088541670001
 20
124.9037760417
 30
0.0
 11
-212.54088541670001
 21
114.9037760417
 31
0.0
  0
LINE
  5
1A2
  8
┌▓È_1
  6
STITCH
 10
-217.54088541670001
 20
119.9037760417
 30
0.0
 11
-207.54088541670001
 21
119.9037760417
 31
0.0
  0
ENDBLK
  5
1A3
  8
0
  0
BLOCK
  8
0
  2
CLUMP4
 70
     0
 10
0.0
 20
0.0
 30
0.0
  3
CLUMP4
  1

  0
LINE
  5
1A7
  8
┌▓È_1
 62
     5
 10
-292.69955685169998
 20
114.854083915
 30
0.0
 11
-292.69955685169998
 21
124.954083915
 31
0.0
  0
INSERT
  5
1A9
  8
┌▓È_1
 62
     5
  2
CLUMP5
 10
0.0
 20
0.0
 30
0.0
  0
INSERT
  5
1B3
  8
┌▓È_1
 62
     5
  2
CLUMP6
 10
0.0
 20
0.0
 30
0.0
  0
LINE
  5
1BC
  8
┌▓È_1
 62
     5
 10
-293.3495568516999
 20
124.404083915
 30
0.0
 11
-293.3495568516999
 21
115.404083915
 31
0.0
  0
ENDBLK
  5
1BD
  8
0
  0
BLOCK
  8
0
  2
CLUMP5
 70
     0
 10
0.0
 20
0.0
 30
0.0
  3
CLUMP5
  1

  0
LINE
  5
1AB
  8
┌▓È_1
 62
     5
 10
-292.69955685169998
 20
124.954083915
 30
0.0
 11
-293.48747398239999
 21
124.954083915
 31
0.0
  0
ARC
  5
1AC
  8
┌▓È_1
 62
     5
 10
-293.59955685170002
 20
124.704083915
 30
0.0
 40
0.3
 50
180.0
 51
270.0
  0
LINE
  5
1AD
  8
┌▓È_1
 62
     5
 10
-293.3495568516999
 20
124.404083915
 30
0.0
 11
-293.59955685170002
 21
124.404083915
 31
0.0
  0
LINE
  5
1AE
  8
┌▓È_1
 62
     5
 10
-293.48747398239999
 20
124.954083915
 30
0.0
 11
-293.48747398239999
 21
125.074083915
 31
0.0
  0
LINE
  5
1AF
  8
┌▓È_1
 62
     5
 10
-293.89955685170003
 20
124.704083915
 30
0.0
 11
-293.89955685170003
 21
124.9490840192
 31
0.0
  0
POLYLINE
  5
1B0
  8
┌▓È_1
 62
     5
 10
-293.89955685169997
 20
124.94908402257461
 30
0.0
 66
     1
 70
     8
  0
VERTEX
  8
┌▓È_1
  5
6D1
 10
-293.900
 20
124.949
 30
0.000000
  70
    32
  0
VERTEX
  8
┌▓È_1
  5
6D2
 10
-293.900
 20
124.954
 30
0.000000
  70
    32
  0
VERTEX
  8
┌▓È_1
  5
6D3
 10
-293.899
 20
124.958
 30
0.000000
  70
    32
  0
VERTEX
  8
┌▓È_1
  5
6D4
 10
-293.899
 20
124.963
 30
0.000000
  70
    32
  0
VERTEX
  8
┌▓È_1
  5
6D5
 10
-293.899
 20
124.967
 30
0.000000
  70
    32
  0
VERTEX
  8
┌▓È_1
  5
6D6
 10
-293.898
 20
124.971
 30
0.000000
  70
    32
  0
VERTEX
  8
┌▓È_1
  5
6D7
 10
-293.898
 20
124.976
 30
0.000000
  70
    32
  0
VERTEX
  8
┌▓È_1
  5
6D8
 10
-293.897
 20
124.980
 30
0.000000
  70
    32
  0
VERTEX
  8
┌▓È_1
  5
6D9
 10
-293.897
 20
124.985
 30
0.000000
  70
    32
  0
VERTEX
  8
┌▓È_1
  5
6DA
 10
-293.896
 20
124.989
 30
0.000000
  70
    32
  0
VERTEX
  8
┌▓È_1
  5
6DB
 10
-293.895
 20
124.994
 30
0.000000
  70
    32
  0
VERTEX
  8
┌▓È_1
  5
6DC
 10
-293.894
 20
124.998
 30
0.000000
  70
    32
  0
VERTEX
  8
┌▓È_1
  5
6DD
 10
-293.893
 20
125.002
 30
0.000000
  70
    32
  0
VERTEX
  8
┌▓È_1
  5
6DE
 10
-293.892
 20
125.007
 30
0.000000
  70
    32
  0
VERTEX
  8
┌▓È_1
  5
6DF
 10
-293.891
 20
125.011
 30
0.000000
  70
    32
  0
VERTEX
  8
┌▓È_1
  5
6E0
 10
-293.890
 20
125.015
 30
0.000000
  70
    32
  0
VERTEX
  8
┌▓È_1
  5
6E1
 10
-293.888
 20
125.020
 30
0.000000
  70
    32
  0
VERTEX
  8
┌▓È_1
  5
6E2
 10
-293.887
 20
125.024
 30
0.000000
  70
    32
  0
VERTEX
  8
┌▓È_1
  5
6E3
 10
-293.885
 20
125.028
 30
0.000000
  70
    32
  0
VERTEX
  8
┌▓È_1
  5
6E4
 10
-293.884
 20
125.032
 30
0.000000
  70
    32
  0
VERTEX
  8
┌▓È_1
  5
6E5
 10
-293.882
 20
125.036
 30
0.000000
  70
    32
  0
VERTEX
  8
┌▓È_1
  5
6E6
 10
-293.880
 20
125.041
 30
0.000000
  70
    32
  0
VERTEX
  8
┌▓È_1
  5
6E7
 10
-293.878
 20
125.045
 30
0.000000
  70
    32
  0
VERTEX
  8
┌▓È_1
  5
6E8
 10
-293.876
 20
125.049
 30
0.000000
  70
    32
  0
VERTEX
  8
┌▓È_1
  5
6E9
 10
-293.874
 20
125.053
 30
0.000000
  70
    32
  0
VERTEX
  8
┌▓È_1
  5
6EA
 10
-293.872
 20
125.057
 30
0.000000
  70
    32
  0
VERTEX
  8
┌▓È_1
  5
6EB
 10
-293.870
 20
125.061
 30
0.000000
  70
    32
  0
VERTEX
  8
┌▓È_1
  5
6EC
 10
-293.868
 20
125.064
 30
0.000000
  70
    32
  0
VERTEX
  8
┌▓È_1
  5
6ED
 10
-293.865
 20
125.068
 30
0.000000
  70
    32
  0
VERTEX
  8
┌▓È_1
  5
6EE
 10
-293.863
 20
125.072
 30
0.000000
  70
    32
  0
VERTEX
  8
┌▓È_1
  5
6EF
 10
-293.860
 20
125.076
 30
0.000000
  70
    32
  0
VERTEX
  8
┌▓È_1
  5
6F0
 10
-293.858
 20
125.079
 30
0.000000
  70
    32
  0
VERTEX
  8
┌▓È_1
  5
6F1
 10
-293.855
 20
125.083
 30
0.000000
  70
    32
  0
VERTEX
  8
┌▓È_1
  5
6F2
 10
-293.853
 20
125.087
 30
0.000000
  70
    32
  0
VERTEX
  8
┌▓È_1
  5
6F3
 10
-293.850
 20
125.090
 30
0.000000
  70
    32
  0
VERTEX
  8
┌▓È_1
  5
6F4
 10
-293.847
 20
125.094
 30
0.000000
  70
    32
  0
VERTEX
  8
┌▓È_1
  5
6F5
 10
-293.844
 20
125.097
 30
0.000000
  70
    32
  0
VERTEX
  8
┌▓È_1
  5
6F6
 10
-293.841
 20
125.100
 30
0.000000
  70
    32
  0
VERTEX
  8
┌▓È_1
  5
6F7
 10
-293.838
 20
125.104
 30
0.000000
  70
    32
  0
VERTEX
  8
┌▓È_1
  5
6F8
 10
-293.835
 20
125.107
 30
0.000000
  70
    32
  0
VERTEX
  8
┌▓È_1
  5
6F9
 10
-293.832
 20
125.110
 30
0.000000
  70
    32
  0
VERTEX
  8
┌▓È_1
  5
6FA
 10
-293.828
 20
125.113
 30
0.000000
  70
    32
  0
VERTEX
  8
┌▓È_1
  5
6FB
 10
-293.825
 20
125.116
 30
0.000000
  70
    32
  0
VERTEX
  8
┌▓È_1
  5
6FC
 10
-293.822
 20
125.119
 30
0.000000
  70
    32
  0
VERTEX
  8
┌▓È_1
  5
6FD
 10
-293.818
 20
125.122
 30
0.000000
  70
    32
  0
VERTEX
  8
┌▓È_1
  5
6FE
 10
-293.815
 20
125.125
 30
0.000000
  70
    32
  0
VERTEX
  8
┌▓È_1
  5
6FF
 10
-293.811
 20
125.128
 30
0.000000
  70
    32
  0
VERTEX
  8
┌▓È_1
  5
700
 10
-293.808
 20
125.130
 30
0.000000
  70
    32
  0
VERTEX
  8
┌▓È_1
  5
701
 10
-293.804
 20
125.133
 30
0.000000
  70
    32
  0
VERTEX
  8
┌▓È_1
  5
702
 10
-293.800
 20
125.136
 30
0.000000
  70
    32
  0
VERTEX
  8
┌▓È_1
  5
703
 10
-293.797
 20
125.138
 30
0.000000
  70
    32
  0
VERTEX
  8
┌▓È_1
  5
704
 10
-293.793
 20
125.140
 30
0.000000
  70
    32
  0
VERTEX
  8
┌▓È_1
  5
705
 10
-293.789
 20
125.143
 30
0.000000
  70
    32
  0
VERTEX
  8
┌▓È_1
  5
706
 10
-293.785
 20
125.145
 30
0.000000
  70
    32
  0
VERTEX
  8
┌▓È_1
  5
707
 10
-293.781
 20
125.147
 30
0.000000
  70
    32
  0
VERTEX
  8
┌▓È_1
  5
708
 10
-293.777
 20
125.149
 30
0.000000
  70
    32
  0
VERTEX
  8
┌▓È_1
  5
709
 10
-293.773
 20
125.151
 30
0.000000
  70
    32
  0
VERTEX
  8
┌▓È_1
  5
70A
 10
-293.769
 20
125.153
 30
0.000000
  70
    32
  0
VERTEX
  8
┌▓È_1
  5
70B
 10
-293.765
 20
125.155
 30
0.000000
  70
    32
  0
VERTEX
  8
┌▓È_1
  5
70C
 10
-293.761
 20
125.157
 30
0.000000
  70
    32
  0
VERTEX
  8
┌▓È_1
  5
70D
 10
-293.757
 20
125.159
 30
0.000000
  70
    32
  0
VERTEX
  8
┌▓È_1
  5
70E
 10
-293.753
 20
125.160
 30
0.000000
  70
    32
  0
VERTEX
  8
┌▓È_1
  5
70F
 10
-293.748
 20
125.162
 30
0.000000
  70
    32
  0
VERTEX
  8
┌▓È_1
  5
710
 10
-293.744
 20
125.163
 30
0.000000
  70
    32
  0
VERTEX
  8
┌▓È_1
  5
711
 10
-293.740
 20
125.164
 30
0.000000
  70
    32
  0
VERTEX
  8
┌▓È_1
  5
712
 10
-293.736
 20
125.166
 30
0.000000
  70
    32
  0
VERTEX
  8
┌▓È_1
  5
713
 10
-293.731
 20
125.167
 30
0.000000
  70
    32
  0
VERTEX
  8
┌▓È_1
  5
714
 10
-293.727
 20
125.168
 30
0.000000
  70
    32
  0
VERTEX
  8
┌▓È_1
  5
715
 10
-293.723
 20
125.169
 30
0.000000
  70
    32
  0
VERTEX
  8
┌▓È_1
  5
716
 10
-293.718
 20
125.170
 30
0.000000
  70
    32
  0
VERTEX
  8
┌▓È_1
  5
717
 10
-293.714
 20
125.171
 30
0.000000
  70
    32
  0
VERTEX
  8
┌▓È_1
  5
718
 10
-293.709
 20
125.171
 30
0.000000
  70
    32
  0
VERTEX
  8
┌▓È_1
  5
719
 10
-293.705
 20
125.172
 30
0.000000
  70
    32
  0
VERTEX
  8
┌▓È_1
  5
71A
 10
-293.700
 20
125.173
 30
0.000000
  70
    32
  0
VERTEX
  8
┌▓È_1
  5
71B
 10
-293.696
 20
125.173
 30
0.000000
  70
    32
  0
VERTEX
  8
┌▓È_1
  5
71C
 10
-293.691
 20
125.173
 30
0.000000
  70
    32
  0
VERTEX
  8
┌▓È_1
  5
71D
 10
-293.687
 20
125.174
 30
0.000000
  70
    32
  0
VERTEX
  8
┌▓È_1
  5
71E
 10
-293.682
 20
125.174
 30
0.000000
  70
    32
  0
VERTEX
  8
┌▓È_1
  5
71F
 10
-293.678
 20
125.174
 30
0.000000
  70
    32
  0
VERTEX
  8
┌▓È_1
  5
720
 10
-293.674
 20
125.174
 30
0.000000
  70
    32
  0
VERTEX
  8
┌▓È_1
  5
721
 10
-293.669
 20
125.174
 30
0.000000
  70
    32
  0
VERTEX
  8
┌▓È_1
  5
722
 10
-293.665
 20
125.174
 30
0.000000
  70
    32
  0
VERTEX
  8
┌▓È_1
  5
723
 10
-293.660
 20
125.174
 30
0.000000
  70
    32
  0
VERTEX
  8
┌▓È_1
  5
724
 10
-293.656
 20
125.173
 30
0.000000
  70
    32
  0
VERTEX
  8
┌▓È_1
  5
725
 10
-293.651
 20
125.173
 30
0.000000
  70
    32
  0
VERTEX
  8
┌▓È_1
  5
726
 10
-293.647
 20
125.172
 30
0.000000
  70
    32
  0
VERTEX
  8
┌▓È_1
  5
727
 10
-293.642
 20
125.172
 30
0.000000
  70
    32
  0
VERTEX
  8
┌▓È_1
  5
728
 10
-293.638
 20
125.171
 30
0.000000
  70
    32
  0
VERTEX
  8
┌▓È_1
  5
729
 10
-293.633
 20
125.170
 30
0.000000
  70
    32
  0
VERTEX
  8
┌▓È_1
  5
72A
 10
-293.629
 20
125.169
 30
0.000000
  70
    32
  0
VERTEX
  8
┌▓È_1
  5
72B
 10
-293.625
 20
125.168
 30
0.000000
  70
    32
  0
VERTEX
  8
┌▓È_1
  5
72C
 10
-293.620
 20
125.167
 30
0.000000
  70
    32
  0
VERTEX
  8
┌▓È_1
  5
72D
 10
-293.616
 20
125.166
 30
0.000000
  70
    32
  0
VERTEX
  8
┌▓È_1
  5
72E
 10
-293.612
 20
125.165
 30
0.000000
  70
    32
  0
VERTEX
  8
┌▓È_1
  5
72F
 10
-293.607
 20
125.164
 30
0.000000
  70
    32
  0
VERTEX
  8
┌▓È_1
  5
730
 10
-293.603
 20
125.162
 30
0.000000
  70
    32
  0
VERTEX
  8
┌▓È_1
  5
731
 10
-293.599
 20
125.161
 30
0.000000
  70
    32
  0
VERTEX
  8
┌▓È_1
  5
732
 10
-293.595
 20
125.159
 30
0.000000
  70
    32
  0
VERTEX
  8
┌▓È_1
  5
733
 10
-293.590
 20
125.158
 30
0.000000
  70
    32
  0
VERTEX
  8
┌▓È_1
  5
734
 10
-293.586
 20
125.156
 30
0.000000
  70
    32
  0
VERTEX
  8
┌▓È_1
  5
735
 10
-293.582
 20
125.154
 30
0.000000
  70
    32
  0
VERTEX
  8
┌▓È_1
  5
736
 10
-293.578
 20
125.152
 30
0.000000
  70
    32
  0
VERTEX
  8
┌▓È_1
  5
737
 10
-293.574
 20
125.150
 30
0.000000
  70
    32
  0
VERTEX
  8
┌▓È_1
  5
738
 10
-293.570
 20
125.148
 30
0.000000
  70
    32
  0
VERTEX
  8
┌▓È_1
  5
739
 10
-293.566
 20
125.146
 30
0.000000
  70
    32
  0
VERTEX
  8
┌▓È_1
  5
73A
 10
-293.562
 20
125.144
 30
0.000000
  70
    32
  0
VERTEX
  8
┌▓È_1
  5
73B
 10
-293.558
 20
125.142
 30
0.000000
  70
    32
  0
VERTEX
  8
┌▓È_1
  5
73C
 10
-293.554
 20
125.139
 30
0.000000
  70
    32
  0
VERTEX
  8
┌▓È_1
  5
73D
 10
-293.551
 20
125.137
 30
0.000000
  70
    32
  0
VERTEX
  8
┌▓È_1
  5
73E
 10
-293.547
 20
125.134
 30
0.000000
  70
    32
  0
VERTEX
  8
┌▓È_1
  5
73F
 10
-293.543
 20
125.132
 30
0.000000
  70
    32
  0
VERTEX
  8
┌▓È_1
  5
740
 10
-293.540
 20
125.129
 30
0.000000
  70
    32
  0
VERTEX
  8
┌▓È_1
  5
741
 10
-293.536
 20
125.126
 30
0.000000
  70
    32
  0
VERTEX
  8
┌▓È_1
  5
742
 10
-293.533
 20
125.124
 30
0.000000
  70
    32
  0
VERTEX
  8
┌▓È_1
  5
743
 10
-293.529
 20
125.121
 30
0.000000
  70
    32
  0
VERTEX
  8
┌▓È_1
  5
744
 10
-293.526
 20
125.118
 30
0.000000
  70
    32
  0
VERTEX
  8
┌▓È_1
  5
745
 10
-293.522
 20
125.115
 30
0.000000
  70
    32
  0
VERTEX
  8
┌▓È_1
  5
746
 10
-293.519
 20
125.112
 30
0.000000
  70
    32
  0
VERTEX
  8
┌▓È_1
  5
747
 10
-293.516
 20
125.109
 30
0.000000
  70
    32
  0
VERTEX
  8
┌▓È_1
  5
748
 10
-293.513
 20
125.105
 30
0.000000
  70
    32
  0
VERTEX
  8
┌▓È_1
  5
749
 10
-293.510
 20
125.102
 30
0.000000
  70
    32
  0
VERTEX
  8
┌▓È_1
  5
74A
 10
-293.507
 20
125.099
 30
0.000000
  70
    32
  0
VERTEX
  8
┌▓È_1
  5
74B
 10
-293.504
 20
125.096
 30
0.000000
  70
    32
  0
VERTEX
  8
┌▓È_1
  5
74C
 10
-293.501
 20
125.092
 30
0.000000
  70
    32
  0
VERTEX
  8
┌▓È_1
  5
74D
 10
-293.498
 20
125.089
 30
0.000000
  70
    32
  0
VERTEX
  8
┌▓È_1
  5
74E
 10
-293.495
 20
125.085
 30
0.000000
  70
    32
  0
VERTEX
  8
┌▓È_1
  5
74F
 10
-293.493
 20
125.081
 30
0.000000
  70
    32
  0
VERTEX
  8
┌▓È_1
  5
750
 10
-293.490
 20
125.078
 30
0.000000
  70
    32
  0
VERTEX
  8
┌▓È_1
  5
751
 10
-293.487
 20
125.074
 30
0.000000
  70
    32
  0
SEQEND
  8
┌▓È_1
  5
752
  0
ENDBLK
  5
1B1
  8
0
  0
BLOCK
  8
0
  2
CLUMP6
 70
     0
 10
0.0
 20
0.0
 30
0.0
  3
CLUMP6
  1

  0
LINE
  5
1B5
  8
┌▓È_1
 62
     5
 10
-292.69955685169998
 20
114.854083915
 30
0.0
 11
-293.48747398239999
 21
114.854083915
 31
0.0
  0
ARC
  5
1B6
  8
┌▓È_1
 62
     5
 10
-293.59955685170002
 20
115.104083915
 30
0.0
 40
0.3
 50
90.0
 51
180.0
  0
LINE
  5
1B7
  8
┌▓È_1
 62
     5
 10
-293.3495568516999
 20
115.404083915
 30
0.0
 11
-293.59955685170002
 21
115.404083915
 31
0.0
  0
LINE
  5
1B8
  8
┌▓È_1
 62
     5
 10
-293.48747398239999
 20
114.854083915
 30
0.0
 11
-293.48747398239999
 21
114.734083915
 31
0.0
  0
LINE
  5
1B9
  8
┌▓È_1
 62
     5
 10
-293.89955685170003
 20
115.104083915
 30
0.0
 11
-293.89955685170003
 21
114.8590838107
 31
0.0
  0
POLYLINE
  5
1BA
  8
┌▓È_1
 62
     5
 10
-293.89955685169997
 20
114.85908380742539
 30
0.0
 66
     1
 70
     8
  0
VERTEX
  8
┌▓È_1
  5
753
 10
-293.900
 20
114.859
 30
0.000000
  70
    32
  0
VERTEX
  8
┌▓È_1
  5
754
 10
-293.900
 20
114.855
 30
0.000000
  70
    32
  0
VERTEX
  8
┌▓È_1
  5
755
 10
-293.899
 20
114.850
 30
0.000000
  70
    32
  0
VERTEX
  8
┌▓È_1
  5
756
 10
-293.899
 20
114.846
 30
0.000000
  70
    32
  0
VERTEX
  8
┌▓È_1
  5
757
 10
-293.899
 20
114.841
 30
0.000000
  70
    32
  0
VERTEX
  8
┌▓È_1
  5
758
 10
-293.898
 20
114.837
 30
0.000000
  70
    32
  0
VERTEX
  8
┌▓È_1
  5
759
 10
-293.898
 20
114.832
 30
0.000000
  70
    32
  0
VERTEX
  8
┌▓È_1
  5
75A
 10
-293.897
 20
114.828
 30
0.000000
  70
    32
  0
VERTEX
  8
┌▓È_1
  5
75B
 10
-293.897
 20
114.823
 30
0.000000
  70
    32
  0
VERTEX
  8
┌▓È_1
  5
75C
 10
-293.896
 20
114.819
 30
0.000000
  70
    32
  0
VERTEX
  8
┌▓È_1
  5
75D
 10
-293.895
 20
114.815
 30
0.000000
  70
    32
  0
VERTEX
  8
┌▓È_1
  5
75E
 10
-293.894
 20
114.810
 30
0.000000
  70
    32
  0
VERTEX
  8
┌▓È_1
  5
75F
 10
-293.893
 20
114.806
 30
0.000000
  70
    32
  0
VERTEX
  8
┌▓È_1
  5
760
 10
-293.892
 20
114.801
 30
0.000000
  70
    32
  0
VERTEX
  8
┌▓È_1
  5
761
 10
-293.891
 20
114.797
 30
0.000000
  70
    32
  0
VERTEX
  8
┌▓È_1
  5
762
 10
-293.890
 20
114.793
 30
0.000000
  70
    32
  0
VERTEX
  8
┌▓È_1
  5
763
 10
-293.888
 20
114.789
 30
0.000000
  70
    32
  0
VERTEX
  8
┌▓È_1
  5
764
 10
-293.887
 20
114.784
 30
0.000000
  70
    32
  0
VERTEX
  8
┌▓È_1
  5
765
 10
-293.885
 20
114.780
 30
0.000000
  70
    32
  0
VERTEX
  8
┌▓È_1
  5
766
 10
-293.884
 20
114.776
 30
0.000000
  70
    32
  0
VERTEX
  8
┌▓È_1
  5
767
 10
-293.882
 20
114.772
 30
0.000000
  70
    32
  0
VERTEX
  8
┌▓È_1
  5
768
 10
-293.880
 20
114.768
 30
0.000000
  70
    32
  0
VERTEX
  8
┌▓È_1
  5
769
 10
-293.878
 20
114.764
 30
0.000000
  70
    32
  0
VERTEX
  8
┌▓È_1
  5
76A
 10
-293.876
 20
114.759
 30
0.000000
  70
    32
  0
VERTEX
  8
┌▓È_1
  5
76B
 10
-293.874
 20
114.755
 30
0.000000
  70
    32
  0
VERTEX
  8
┌▓È_1
  5
76C
 10
-293.872
 20
114.752
 30
0.000000
  70
    32
  0
VERTEX
  8
┌▓È_1
  5
76D
 10
-293.870
 20
114.748
 30
0.000000
  70
    32
  0
VERTEX
  8
┌▓È_1
  5
76E
 10
-293.868
 20
114.744
 30
0.000000
  70
    32
  0
VERTEX
  8
┌▓È_1
  5
76F
 10
-293.865
 20
114.740
 30
0.000000
  70
    32
  0
VERTEX
  8
┌▓È_1
  5
770
 10
-293.863
 20
114.736
 30
0.000000
  70
    32
  0
VERTEX
  8
┌▓È_1
  5
771
 10
-293.860
 20
114.732
 30
0.000000
  70
    32
  0
VERTEX
  8
┌▓È_1
  5
772
 10
-293.858
 20
114.729
 30
0.000000
  70
    32
  0
VERTEX
  8
┌▓È_1
  5
773
 10
-293.855
 20
114.725
 30
0.000000
  70
    32
  0
VERTEX
  8
┌▓È_1
  5
774
 10
-293.853
 20
114.721
 30
0.000000
  70
    32
  0
VERTEX
  8
┌▓È_1
  5
775
 10
-293.850
 20
114.718
 30
0.000000
  70
    32
  0
VERTEX
  8
┌▓È_1
  5
776
 10
-293.847
 20
114.714
 30
0.000000
  70
    32
  0
VERTEX
  8
┌▓È_1
  5
777
 10
-293.844
 20
114.711
 30
0.000000
  70
    32
  0
VERTEX
  8
┌▓È_1
  5
778
 10
-293.841
 20
114.708
 30
0.000000
  70
    32
  0
VERTEX
  8
┌▓È_1
  5
779
 10
-293.838
 20
114.704
 30
0.000000
  70
    32
  0
VERTEX
  8
┌▓È_1
  5
77A
 10
-293.835
 20
114.701
 30
0.000000
  70
    32
  0
VERTEX
  8
┌▓È_1
  5
77B
 10
-293.832
 20
114.698
 30
0.000000
  70
    32
  0
VERTEX
  8
┌▓È_1
  5
77C
 10
-293.828
 20
114.695
 30
0.000000
  70
    32
  0
VERTEX
  8
┌▓È_1
  5
77D
 10
-293.825
 20
114.692
 30
0.000000
  70
    32
  0
VERTEX
  8
┌▓È_1
  5
77E
 10
-293.822
 20
114.689
 30
0.000000
  70
    32
  0
VERTEX
  8
┌▓È_1
  5
77F
 10
-293.818
 20
114.686
 30
0.000000
  70
    32
  0
VERTEX
  8
┌▓È_1
  5
780
 10
-293.815
 20
114.683
 30
0.000000
  70
    32
  0
VERTEX
  8
┌▓È_1
  5
781
 10
-293.811
 20
114.680
 30
0.000000
  70
    32
  0
VERTEX
  8
┌▓È_1
  5
782
 10
-293.808
 20
114.678
 30
0.000000
  70
    32
  0
VERTEX
  8
┌▓È_1
  5
783
 10
-293.804
 20
114.675
 30
0.000000
  70
    32
  0
VERTEX
  8
┌▓È_1
  5
784
 10
-293.800
 20
114.673
 30
0.000000
  70
    32
  0
VERTEX
  8
┌▓È_1
  5
785
 10
-293.797
 20
114.670
 30
0.000000
  70
    32
  0
VERTEX
  8
┌▓È_1
  5
786
 10
-293.793
 20
114.668
 30
0.000000
  70
    32
  0
VERTEX
  8
┌▓È_1
  5
787
 10
-293.789
 20
114.665
 30
0.000000
  70
    32
  0
VERTEX
  8
┌▓È_1
  5
788
 10
-293.785
 20
114.663
 30
0.000000
  70
    32
  0
VERTEX
  8
┌▓È_1
  5
789
 10
-293.781
 20
114.661
 30
0.000000
  70
    32
  0
VERTEX
  8
┌▓È_1
  5
78A
 10
-293.777
 20
114.659
 30
0.000000
  70
    32
  0
VERTEX
  8
┌▓È_1
  5
78B
 10
-293.773
 20
114.657
 30
0.000000
  70
    32
  0
VERTEX
  8
┌▓È_1
  5
78C
 10
-293.769
 20
114.655
 30
0.000000
  70
    32
  0
VERTEX
  8
┌▓È_1
  5
78D
 10
-293.765
 20
114.653
 30
0.000000
  70
    32
  0
VERTEX
  8
┌▓È_1
  5
78E
 10
-293.761
 20
114.651
 30
0.000000
  70
    32
  0
VERTEX
  8
┌▓È_1
  5
78F
 10
-293.757
 20
114.650
 30
0.000000
  70
    32
  0
VERTEX
  8
┌▓È_1
  5
790
 10
-293.753
 20
114.648
 30
0.000000
  70
    32
  0
VERTEX
  8
┌▓È_1
  5
791
 10
-293.748
 20
114.647
 30
0.000000
  70
    32
  0
VERTEX
  8
┌▓È_1
  5
792
 10
-293.744
 20
114.645
 30
0.000000
  70
    32
  0
VERTEX
  8
┌▓È_1
  5
793
 10
-293.740
 20
114.644
 30
0.000000
  70
    32
  0
VERTEX
  8
┌▓È_1
  5
794
 10
-293.736
 20
114.643
 30
0.000000
  70
    32
  0
VERTEX
  8
┌▓È_1
  5
795
 10
-293.731
 20
114.641
 30
0.000000
  70
    32
  0
VERTEX
  8
┌▓È_1
  5
796
 10
-293.727
 20
114.640
 30
0.000000
  70
    32
  0
VERTEX
  8
┌▓È_1
  5
797
 10
-293.723
 20
114.639
 30
0.000000
  70
    32
  0
VERTEX
  8
┌▓È_1
  5
798
 10
-293.718
 20
114.638
 30
0.000000
  70
    32
  0
VERTEX
  8
┌▓È_1
  5
799
 10
-293.714
 20
114.638
 30
0.000000
  70
    32
  0
VERTEX
  8
┌▓È_1
  5
79A
 10
-293.709
 20
114.637
 30
0.000000
  70
    32
  0
VERTEX
  8
┌▓È_1
  5
79B
 10
-293.705
 20
114.636
 30
0.000000
  70
    32
  0
VERTEX
  8
┌▓È_1
  5
79C
 10
-293.700
 20
114.636
 30
0.000000
  70
    32
  0
VERTEX
  8
┌▓È_1
  5
79D
 10
-293.696
 20
114.635
 30
0.000000
  70
    32
  0
VERTEX
  8
┌▓È_1
  5
79E
 10
-293.691
 20
114.635
 30
0.000000
  70
    32
  0
VERTEX
  8
┌▓È_1
  5
79F
 10
-293.687
 20
114.634
 30
0.000000
  70
    32
  0
VERTEX
  8
┌▓È_1
  5
7A0
 10
-293.682
 20
114.634
 30
0.000000
  70
    32
  0
VERTEX
  8
┌▓È_1
  5
7A1
 10
-293.678
 20
114.634
 30
0.000000
  70
    32
  0
VERTEX
  8
┌▓È_1
  5
7A2
 10
-293.674
 20
114.634
 30
0.000000
  70
    32
  0
VERTEX
  8
┌▓È_1
  5
7A3
 10
-293.669
 20
114.634
 30
0.000000
  70
    32
  0
VERTEX
  8
┌▓È_1
  5
7A4
 10
-293.665
 20
114.634
 30
0.000000
  70
    32
  0
VERTEX
  8
┌▓È_1
  5
7A5
 10
-293.660
 20
114.635
 30
0.000000
  70
    32
  0
VERTEX
  8
┌▓È_1
  5
7A6
 10
-293.656
 20
114.635
 30
0.000000
  70
    32
  0
VERTEX
  8
┌▓È_1
  5
7A7
 10
-293.651
 20
114.635
 30
0.000000
  70
    32
  0
VERTEX
  8
┌▓È_1
  5
7A8
 10
-293.647
 20
114.636
 30
0.000000
  70
    32
  0
VERTEX
  8
┌▓È_1
  5
7A9
 10
-293.642
 20
114.636
 30
0.000000
  70
    32
  0
VERTEX
  8
┌▓È_1
  5
7AA
 10
-293.638
 20
114.637
 30
0.000000
  70
    32
  0
VERTEX
  8
┌▓È_1
  5
7AB
 10
-293.633
 20
114.638
 30
0.000000
  70
    32
  0
VERTEX
  8
┌▓È_1
  5
7AC
 10
-293.629
 20
114.639
 30
0.000000
  70
    32
  0
VERTEX
  8
┌▓È_1
  5
7AD
 10
-293.625
 20
114.640
 30
0.000000
  70
    32
  0
VERTEX
  8
┌▓È_1
  5
7AE
 10
-293.620
 20
114.641
 30
0.000000
  70
    32
  0
VERTEX
  8
┌▓È_1
  5
7AF
 10
-293.616
 20
114.642
 30
0.000000
  70
    32
  0
VERTEX
  8
┌▓È_1
  5
7B0
 10
-293.612
 20
114.643
 30
0.000000
  70
    32
  0
VERTEX
  8
┌▓È_1
  5
7B1
 10
-293.607
 20
114.644
 30
0.000000
  70
    32
  0
VERTEX
  8
┌▓È_1
  5
7B2
 10
-293.603
 20
114.646
 30
0.000000
  70
    32
  0
VERTEX
  8
┌▓È_1
  5
7B3
 10
-293.599
 20
114.647
 30
0.000000
  70
    32
  0
VERTEX
  8
┌▓È_1
  5
7B4
 10
-293.595
 20
114.649
 30
0.000000
  70
    32
  0
VERTEX
  8
┌▓È_1
  5
7B5
 10
-293.590
 20
114.650
 30
0.000000
  70
    32
  0
VERTEX
  8
┌▓È_1
  5
7B6
 10
-293.586
 20
114.652
 30
0.000000
  70
    32
  0
VERTEX
  8
┌▓È_1
  5
7B7
 10
-293.582
 20
114.654
 30
0.000000
  70
    32
  0
VERTEX
  8
┌▓È_1
  5
7B8
 10
-293.578
 20
114.656
 30
0.000000
  70
    32
  0
VERTEX
  8
┌▓È_1
  5
7B9
 10
-293.574
 20
114.658
 30
0.000000
  70
    32
  0
VERTEX
  8
┌▓È_1
  5
7BA
 10
-293.570
 20
114.660
 30
0.000000
  70
    32
  0
VERTEX
  8
┌▓È_1
  5
7BB
 10
-293.566
 20
114.662
 30
0.000000
  70
    32
  0
VERTEX
  8
┌▓È_1
  5
7BC
 10
-293.562
 20
114.664
 30
0.000000
  70
    32
  0
VERTEX
  8
┌▓È_1
  5
7BD
 10
-293.558
 20
114.666
 30
0.000000
  70
    32
  0
VERTEX
  8
┌▓È_1
  5
7BE
 10
-293.554
 20
114.669
 30
0.000000
  70
    32
  0
VERTEX
  8
┌▓È_1
  5
7BF
 10
-293.551
 20
114.671
 30
0.000000
  70
    32
  0
VERTEX
  8
┌▓È_1
  5
7C0
 10
-293.547
 20
114.674
 30
0.000000
  70
    32
  0
VERTEX
  8
┌▓È_1
  5
7C1
 10
-293.543
 20
114.676
 30
0.000000
  70
    32
  0
VERTEX
  8
┌▓È_1
  5
7C2
 10
-293.540
 20
114.679
 30
0.000000
  70
    32
  0
VERTEX
  8
┌▓È_1
  5
7C3
 10
-293.536
 20
114.682
 30
0.000000
  70
    32
  0
VERTEX
  8
┌▓È_1
  5
7C4
 10
-293.533
 20
114.685
 30
0.000000
  70
    32
  0
VERTEX
  8
┌▓È_1
  5
7C5
 10
-293.529
 20
114.687
 30
0.000000
  70
    32
  0
VERTEX
  8
┌▓È_1
  5
7C6
 10
-293.526
 20
114.690
 30
0.000000
  70
    32
  0
VERTEX
  8
┌▓È_1
  5
7C7
 10
-293.522
 20
114.693
 30
0.000000
  70
    32
  0
VERTEX
  8
┌▓È_1
  5
7C8
 10
-293.519
 20
114.696
 30
0.000000
  70
    32
  0
VERTEX
  8
┌▓È_1
  5
7C9
 10
-293.516
 20
114.700
 30
0.000000
  70
    32
  0
VERTEX
  8
┌▓È_1
  5
7CA
 10
-293.513
 20
114.703
 30
0.000000
  70
    32
  0
VERTEX
  8
┌▓È_1
  5
7CB
 10
-293.510
 20
114.706
 30
0.000000
  70
    32
  0
VERTEX
  8
┌▓È_1
  5
7CC
 10
-293.507
 20
114.709
 30
0.000000
  70
    32
  0
VERTEX
  8
┌▓È_1
  5
7CD
 10
-293.504
 20
114.713
 30
0.000000
  70
    32
  0
VERTEX
  8
┌▓È_1
  5
7CE
 10
-293.501
 20
114.716
 30
0.000000
  70
    32
  0
VERTEX
  8
┌▓È_1
  5
7CF
 10
-293.498
 20
114.720
 30
0.000000
  70
    32
  0
VERTEX
  8
┌▓È_1
  5
7D0
 10
-293.495
 20
114.723
 30
0.000000
  70
    32
  0
VERTEX
  8
┌▓È_1
  5
7D1
 10
-293.493
 20
114.727
 30
0.000000
  70
    32
  0
VERTEX
  8
┌▓È_1
  5
7D2
 10
-293.490
 20
114.730
 30
0.000000
  70
    32
  0
VERTEX
  8
┌▓È_1
  5
7D3
 10
-293.487
 20
114.734
 30
0.000000
  70
    32
  0
SEQEND
  8
┌▓È_1
  5
7D4
  0
ENDBLK
  5
1BB
  8
0
  0
BLOCK
  8
0
  2
*D9
 70
     1
 10
0.0
 20
0.0
 30
0.0
  3
*D9
  1

  0
TEXT
  5
1C0
  8
0
 62
     0
 10
-265.81088534989999
 20
115.67044293089999
 30
0.0
 40
7.1966662884000003
  1
14
 50
90.0
  0
LINE
  5
1C1
  8
0
 62
     0
 10
-244.54088541670001
 20
126.9037760417
 30
0.0
 11
-264.54088541670001
 21
126.9037760417
 31
0.0
  0
LINE
  5
1C2
  8
0
 62
     0
 10
-244.54088541670001
 20
112.9037760417
 30
0.0
 11
-264.54088541670001
 21
112.9037760417
 31
0.0
  0
LINE
  5
1C3
  8
0
 62
     0
 10
-262.54088541670001
 20
126.9037760417
 30
0.0
 11
-262.54088541670001
 21
126.9037760417
 31
0.0
  0
LINE
  5
1C4
  8
0
 62
     0
 10
-262.54088541670001
 20
126.9037760417
 30
0.0
 11
-262.54088541670001
 21
112.9037760417
 31
0.0
  0
LINE
  5
1C5
  8
0
 62
     0
 10
-262.54088541670001
 20
112.9037760417
 30
0.0
 11
-262.54088541670001
 21
126.9037760417
 31
0.0
  0
LINE
  5
1C6
  8
0
 62
     0
 10
-262.54088541670001
 20
112.9037760417
 30
0.0
 11
-262.54088541670001
 21
112.9037760417
 31
0.0
  0
LINE
  5
1C7
  8
0
 62
     0
 10
-262.54088541670001
 20
112.9037760417
 30
0.0
 11
-262.54088541670001
 21
122.9037760417
 31
0.0
  0
SOLID
  5
1C8
  8
0
 62
     0
 10
-262.54088541670001
 20
112.9037760417
 30
0.0
 11
-263.57616159119999
 21
116.7674792926
 31
0.0
 12
-261.50560924209998
 22
116.7674792926
 32
0.0
 13
-262.54088541670001
 23
115.80155347980001
 33
0.0
  0
LINE
  5
1C9
  8
0
 62
     0
 10
-262.54088541670001
 20
126.9037760417
 30
0.0
 11
-262.54088541670001
 21
116.9037760417
 31
0.0
  0
SOLID
  5
1CA
  8
0
 62
     0
 10
-262.54088541670001
 20
126.9037760417
 30
0.0
 11
-261.50560924209998
 21
123.0400727908
 31
0.0
 12
-263.57616159119999
 22
123.0400727908
 32
0.0
 13
-262.54088541670001
 23
124.0059986035
 33
0.0
  0
ENDBLK
  5
1CB
  8
0
  0
BLOCK
  8
0
  2
*D10
 70
     1
 10
0.0
 20
0.0
 30
0.0
  3
*D10
  1

  0
TEXT
  5
1CF
  8
0
 62
     0
 10
-265.81088534989999
 20
4.238542000499999
 30
0.0
 40
7.1966662884000003
  1
3.5
 50
90.0
  0
LINE
  5
1D0
  8
0
 62
     0
 10
-244.54088541670001
 20
12.338541666699999
 30
0.0
 11
-264.54088541670001
 21
12.338541666699999
 31
0.0
  0
LINE
  5
1D1
  8
0
 62
     0
 10
-244.54088541670001
 20
8.8385416666999994
 30
0.0
 11
-264.54088541670001
 21
8.8385416666999994
 31
0.0
  0
LINE
  5
1D2
  8
0
 62
     0
 10
-262.54088541670001
 20
12.338541666699999
 30
0.0
 11
-262.54088541670001
 21
12.338541666699999
 31
0.0
  0
LINE
  5
1D3
  8
0
 62
     0
 10
-262.54088541670001
 20
12.338541666699999
 30
0.0
 11
-262.54088541670001
 21
8.8385416666999994
 31
0.0
  0
LINE
  5
1D4
  8
0
 62
     0
 10
-262.54088541670001
 20
8.8385416666999994
 30
0.0
 11
-262.54088541670001
 21
12.338541666699999
 31
0.0
  0
LINE
  5
1D5
  8
0
 62
     0
 10
-262.54088541670001
 20
8.8385416666999994
 30
0.0
 11
-262.54088541670001
 21
8.8385416666999994
 31
0.0
  0
LINE
  5
1D6
  8
0
 62
     0
 10
-262.54088541670001
 20
8.8385416666999994
 30
0.0
 11
-262.54088541670001
 21
-1.161458333299999
 31
0.0
  0
SOLID
  5
1D7
  8
0
 62
     0
 10
-262.54088541670001
 20
8.8385416666999994
 30
0.0
 11
-261.50560924209998
 21
4.974838415799999
 31
0.0
 12
-263.57616159119999
 22
4.974838415799999
 32
0.0
 13
-262.54088541670001
 23
5.9407642284999991
 33
0.0
  0
LINE
  5
1D8
  8
0
 62
     0
 10
-262.54088541670001
 20
12.338541666699999
 30
0.0
 11
-262.54088541670001
 21
22.338541666699999
 31
0.0
  0
SOLID
  5
1D9
  8
0
 62
     0
 10
-262.54088541670001
 20
12.338541666699999
 30
0.0
 11
-263.57616159119999
 21
16.202244917600002
 31
0.0
 12
-261.50560924209998
 22
16.202244917600002
 32
0.0
 13
-262.54088541670001
 23
15.2363191048
 33
0.0
  0
ENDBLK
  5
1DA
  8
0
  0
BLOCK
  8
0
  2
*D11
 70
     1
 10
0.0
 20
0.0
 30
0.0
  3
*D11
  1

  0
TEXT
  5
1F3
  8
0
 62
     0
 10
-231.77421852750001
 20
64.433541599899996
 30
0.0
 40
7.1966662884000003
  1
30
  0
LINE
  5
1F4
  8
0
 62
     0
 10
-242.54088541670001
 20
110.9037760417
 30
0.0
 11
-242.54088541670001
 21
59.163541666699999
 31
0.0
  0
LINE
  5
1F5
  8
0
 62
     0
 10
-212.54088541670001
 20
112.9037760417
 30
0.0
 11
-212.54088541670001
 21
59.163541666699999
 31
0.0
  0
LINE
  5
1F6
  8
0
 62
     0
 10
-242.54088541670001
 20
61.163541666699992
 30
0.0
 11
-219.07421919500001
 21
61.163541666699992
 31
0.0
  0
LINE
  5
1F7
  8
0
 62
     0
 10
-242.54088541670001
 20
61.163541666699992
 30
0.0
 11
-236.00755163829999
 21
61.163541666699992
 31
0.0
  0
LINE
  5
1F8
  8
0
 62
     0
 10
-212.54088541670001
 20
61.163541666699992
 30
0.0
 11
-219.07421919500001
 21
61.163541666699992
 31
0.0
  0
LINE
  5
1F9
  8
0
 62
     0
 10
-212.54088541670001
 20
61.163541666699992
 30
0.0
 11
-236.00755163829999
 21
61.163541666699992
 31
0.0
  0
LINE
  5
1FA
  8
0
 62
     0
 10
-212.54088541670001
 20
61.163541666699992
 30
0.0
 11
-222.54088541670001
 21
61.163541666699992
 31
0.0
  0
SOLID
  5
1FB
  8
0
 62
     0
 10
-212.54088541670001
 20
61.163541666699992
 30
0.0
 11
-216.4045886676
 21
60.128265492099999
 31
0.0
 12
-216.4045886676
 22
62.198817841199997
 32
0.0
 13
-215.43866285479999
 23
61.163541666699992
 33
0.0
  0
LINE
  5
1FC
  8
0
 62
     0
 10
-242.54088541670001
 20
61.163541666699992
 30
0.0
 11
-232.54088541670001
 21
61.163541666699992
 31
0.0
  0
SOLID
  5
1FD
  8
0
 62
     0
 10
-242.54088541670001
 20
61.163541666699992
 30
0.0
 11
-238.67718216579999
 21
62.198817841199997
 31
0.0
 12
-238.67718216579999
 22
60.128265492099999
 32
0.0
 13
-239.64310797850001
 23
61.163541666699992
 33
0.0
  0
ENDBLK
  5
1FE
  8
0
  0
BLOCK
  8
0
  2
*D12
 70
     1
 10
0.0
 20
0.0
 30
0.0
  3
*D12
  1

  0
TEXT
  5
288
  8
0
 62
     0
 10
-211.27421852750001
 20
-58.93195217449999
 30
0.0
 40
7.1966662884000003
  1
20
  0
LINE
  5
289
  8
0
 62
     0
 10
-197.04088541670001
 20
-81.439062500000006
 30
0.0
 11
-197.04088541670001
 21
-60.201952107700002
 31
0.0
  0
LINE
  5
28A
  8
0
 62
     0
 10
-217.04088541670001
 20
-81.439062500000006
 30
0.0
 11
-217.04088541670001
 21
-60.201952107700002
 31
0.0
  0
LINE
  5
28B
  8
0
 62
     0
 10
-197.04088541670001
 20
-62.201952107700002
 30
0.0
 11
-198.57421919500001
 21
-62.201952107700002
 31
0.0
  0
LINE
  5
28C
  8
0
 62
     0
 10
-197.04088541670001
 20
-62.201952107700002
 30
0.0
 11
-215.50755163829999
 21
-62.201952107700002
 31
0.0
  0
LINE
  5
28D
  8
0
 62
     0
 10
-217.04088541670001
 20
-62.201952107700002
 30
0.0
 11
-198.57421919500001
 21
-62.201952107700002
 31
0.0
  0
LINE
  5
28E
  8
0
 62
     0
 10
-217.04088541670001
 20
-62.201952107700002
 30
0.0
 11
-215.50755163829999
 21
-62.201952107700002
 31
0.0
  0
LINE
  5
28F
  8
0
 62
     0
 10
-217.04088541670001
 20
-62.201952107700002
 30
0.0
 11
-227.04088541670001
 21
-62.201952107700002
 31
0.0
  0
SOLID
  5
290
  8
0
 62
     0
 10
-217.04088541670001
 20
-62.201952107700002
 30
0.0
 11
-220.9045886676
 21
-63.237228282300002
 31
0.0
 12
-220.9045886676
 22
-61.16667593319999
 32
0.0
 13
-219.93866285479999
 23
-62.201952107700002
 33
0.0
  0
LINE
  5
291
  8
0
 62
     0
 10
-197.04088541670001
 20
-62.201952107700002
 30
0.0
 11
-187.04088541670001
 21
-62.201952107700002
 31
0.0
  0
SOLID
  5
292
  8
0
 62
     0
 10
-197.04088541670001
 20
-62.201952107700002
 30
0.0
 11
-193.17718216579999
 21
-61.16667593319999
 31
0.0
 12
-193.17718216579999
 22
-63.237228282300002
 32
0.0
 13
-194.1431079784999
 23
-62.201952107700002
 33
0.0
  0
ENDBLK
  5
293
  8
0
  0
BLOCK
  8
0
  2
CLUMP7
 70
     0
 10
0.0
 20
0.0
 30
0.0
  3
CLUMP7
  1

  0
LINE
  5
2C7
  8
┌▓È_1
 62
     5
 10
-295.99955853720002
 20
-93.489062500000003
 30
0.0
 11
-295.99955853720002
 21
-83.389062499999994
 31
0.0
  0
INSERT
  5
2C9
  8
┌▓È_1
 62
     5
  2
CLUMP8
 10
0.0
 20
0.0
 30
0.0
  0
INSERT
  5
2D3
  8
┌▓È_1
 62
     5
  2
CLUMP9
 10
0.0
 20
0.0
 30
0.0
  0
LINE
  5
2DC
  8
┌▓È_1
 62
     5
 10
-295.34955853719998
 20
-83.939062500000006
 30
0.0
 11
-295.34955853719998
 21
-92.939062500000006
 31
0.0
  0
ENDBLK
  5
2DD
  8
0
  0
BLOCK
  8
0
  2
CLUMP8
 70
     0
 10
0.0
 20
0.0
 30
0.0
  3
CLUMP8
  1

  0
LINE
  5
2CB
  8
┌▓È_1
 62
     5
 10
-295.99955853720002
 20
-83.389062499999994
 30
0.0
 11
-295.21164140659999
 21
-83.389062499999994
 31
0.0
  0
ARC
  5
2CC
  8
┌▓È_1
 62
     5
 10
-295.09955853719998
 20
-83.639062499999994
 30
0.0
 40
0.3
 50
270.0
 51
0.0
  0
LINE
  5
2CD
  8
┌▓È_1
 62
     5
 10
-295.34955853719998
 20
-83.939062500000006
 30
0.0
 11
-295.09955853719998
 21
-83.939062500000006
 31
0.0
  0
LINE
  5
2CE
  8
┌▓È_1
 62
     5
 10
-295.21164140659999
 20
-83.389062499999994
 30
0.0
 11
-295.21164140659999
 21
-83.269062500000004
 31
0.0
  0
LINE
  5
2CF
  8
┌▓È_1
 62
     5
 10
-294.79955853720003
 20
-83.639062499999994
 30
0.0
 11
-294.79955853720003
 21
-83.394062395800006
 31
0.0
  0
POLYLINE
  5
2D0
  8
┌▓È_1
 62
     5
 10
-294.79955853720003
 20
-83.394062392425397
 30
0.0
 66
     1
 70
     8
  0
VERTEX
  8
┌▓È_1
  5
7D5
 10
-294.800
 20
-83.3941
 30
0.000000
  70
    32
  0
VERTEX
  8
┌▓È_1
  5
7D6
 10
-294.800
 20
-83.3896
 30
0.000000
  70
    32
  0
VERTEX
  8
┌▓È_1
  5
7D7
 10
-294.800
 20
-83.3851
 30
0.000000
  70
    32
  0
VERTEX
  8
┌▓È_1
  5
7D8
 10
-294.800
 20
-83.3806
 30
0.000000
  70
    32
  0
VERTEX
  8
┌▓È_1
  5
7D9
 10
-294.800
 20
-83.3761
 30
0.000000
  70
    32
  0
VERTEX
  8
┌▓È_1
  5
7DA
 10
-294.801
 20
-83.3717
 30
0.000000
  70
    32
  0
VERTEX
  8
┌▓È_1
  5
7DB
 10
-294.801
 20
-83.3672
 30
0.000000
  70
    32
  0
VERTEX
  8
┌▓È_1
  5
7DC
 10
-294.802
 20
-83.3628
 30
0.000000
  70
    32
  0
VERTEX
  8
┌▓È_1
  5
7DD
 10
-294.802
 20
-83.3583
 30
0.000000
  70
    32
  0
VERTEX
  8
┌▓È_1
  5
7DE
 10
-294.803
 20
-83.3539
 30
0.000000
  70
    32
  0
VERTEX
  8
┌▓È_1
  5
7DF
 10
-294.804
 20
-83.3495
 30
0.000000
  70
    32
  0
VERTEX
  8
┌▓È_1
  5
7E0
 10
-294.805
 20
-83.3451
 30
0.000000
  70
    32
  0
VERTEX
  8
┌▓È_1
  5
7E1
 10
-294.806
 20
-83.3407
 30
0.000000
  70
    32
  0
VERTEX
  8
┌▓È_1
  5
7E2
 10
-294.807
 20
-83.3364
 30
0.000000
  70
    32
  0
VERTEX
  8
┌▓È_1
  5
7E3
 10
-294.808
 20
-83.3321
 30
0.000000
  70
    32
  0
VERTEX
  8
┌▓È_1
  5
7E4
 10
-294.810
 20
-83.3278
 30
0.000000
  70
    32
  0
VERTEX
  8
┌▓È_1
  5
7E5
 10
-294.811
 20
-83.3235
 30
0.000000
  70
    32
  0
VERTEX
  8
┌▓È_1
  5
7E6
 10
-294.812
 20
-83.3192
 30
0.000000
  70
    32
  0
VERTEX
  8
┌▓È_1
  5
7E7
 10
-294.814
 20
-83.3150
 30
0.000000
  70
    32
  0
VERTEX
  8
┌▓È_1
  5
7E8
 10
-294.816
 20
-83.3108
 30
0.000000
  70
    32
  0
VERTEX
  8
┌▓È_1
  5
7E9
 10
-294.817
 20
-83.3067
 30
0.000000
  70
    32
  0
VERTEX
  8
┌▓È_1
  5
7EA
 10
-294.819
 20
-83.3026
 30
0.000000
  70
    32
  0
VERTEX
  8
┌▓È_1
  5
7EB
 10
-294.821
 20
-83.2985
 30
0.000000
  70
    32
  0
VERTEX
  8
┌▓È_1
  5
7EC
 10
-294.823
 20
-83.2944
 30
0.000000
  70
    32
  0
VERTEX
  8
┌▓È_1
  5
7ED
 10
-294.825
 20
-83.2904
 30
0.000000
  70
    32
  0
VERTEX
  8
┌▓È_1
  5
7EE
 10
-294.827
 20
-83.2865
 30
0.000000
  70
    32
  0
VERTEX
  8
┌▓È_1
  5
7EF
 10
-294.829
 20
-83.2826
 30
0.000000
  70
    32
  0
VERTEX
  8
┌▓È_1
  5
7F0
 10
-294.831
 20
-83.2787
 30
0.000000
  70
    32
  0
VERTEX
  8
┌▓È_1
  5
7F1
 10
-294.834
 20
-83.2749
 30
0.000000
  70
    32
  0
VERTEX
  8
┌▓È_1
  5
7F2
 10
-294.836
 20
-83.2711
 30
0.000000
  70
    32
  0
VERTEX
  8
┌▓È_1
  5
7F3
 10
-294.839
 20
-83.2673
 30
0.000000
  70
    32
  0
VERTEX
  8
┌▓È_1
  5
7F4
 10
-294.841
 20
-83.2637
 30
0.000000
  70
    32
  0
VERTEX
  8
┌▓È_1
  5
7F5
 10
-294.844
 20
-83.2600
 30
0.000000
  70
    32
  0
VERTEX
  8
┌▓È_1
  5
7F6
 10
-294.847
 20
-83.2565
 30
0.000000
  70
    32
  0
VERTEX
  8
┌▓È_1
  5
7F7
 10
-294.849
 20
-83.2529
 30
0.000000
  70
    32
  0
VERTEX
  8
┌▓È_1
  5
7F8
 10
-294.852
 20
-83.2495
 30
0.000000
  70
    32
  0
VERTEX
  8
┌▓È_1
  5
7F9
 10
-294.855
 20
-83.2461
 30
0.000000
  70
    32
  0
VERTEX
  8
┌▓È_1
  5
7FA
 10
-294.858
 20
-83.2427
 30
0.000000
  70
    32
  0
VERTEX
  8
┌▓È_1
  5
7FB
 10
-294.861
 20
-83.2394
 30
0.000000
  70
    32
  0
VERTEX
  8
┌▓È_1
  5
7FC
 10
-294.864
 20
-83.2362
 30
0.000000
  70
    32
  0
VERTEX
  8
┌▓È_1
  5
7FD
 10
-294.867
 20
-83.2330
 30
0.000000
  70
    32
  0
VERTEX
  8
┌▓È_1
  5
7FE
 10
-294.871
 20
-83.2299
 30
0.000000
  70
    32
  0
VERTEX
  8
┌▓È_1
  5
7FF
 10
-294.874
 20
-83.2269
 30
0.000000
  70
    32
  0
VERTEX
  8
┌▓È_1
  5
800
 10
-294.877
 20
-83.2239
 30
0.000000
  70
    32
  0
VERTEX
  8
┌▓È_1
  5
801
 10
-294.881
 20
-83.2210
 30
0.000000
  70
    32
  0
VERTEX
  8
┌▓È_1
  5
802
 10
-294.884
 20
-83.2182
 30
0.000000
  70
    32
  0
VERTEX
  8
┌▓È_1
  5
803
 10
-294.888
 20
-83.2154
 30
0.000000
  70
    32
  0
VERTEX
  8
┌▓È_1
  5
804
 10
-294.891
 20
-83.2127
 30
0.000000
  70
    32
  0
VERTEX
  8
┌▓È_1
  5
805
 10
-294.895
 20
-83.2101
 30
0.000000
  70
    32
  0
VERTEX
  8
┌▓È_1
  5
806
 10
-294.899
 20
-83.2076
 30
0.000000
  70
    32
  0
VERTEX
  8
┌▓È_1
  5
807
 10
-294.902
 20
-83.2051
 30
0.000000
  70
    32
  0
VERTEX
  8
┌▓È_1
  5
808
 10
-294.906
 20
-83.2027
 30
0.000000
  70
    32
  0
VERTEX
  8
┌▓È_1
  5
809
 10
-294.910
 20
-83.2004
 30
0.000000
  70
    32
  0
VERTEX
  8
┌▓È_1
  5
80A
 10
-294.914
 20
-83.1981
 30
0.000000
  70
    32
  0
VERTEX
  8
┌▓È_1
  5
80B
 10
-294.918
 20
-83.1960
 30
0.000000
  70
    32
  0
VERTEX
  8
┌▓È_1
  5
80C
 10
-294.922
 20
-83.1939
 30
0.000000
  70
    32
  0
VERTEX
  8
┌▓È_1
  5
80D
 10
-294.926
 20
-83.1919
 30
0.000000
  70
    32
  0
VERTEX
  8
┌▓È_1
  5
80E
 10
-294.930
 20
-83.1899
 30
0.000000
  70
    32
  0
VERTEX
  8
┌▓È_1
  5
80F
 10
-294.934
 20
-83.1881
 30
0.000000
  70
    32
  0
VERTEX
  8
┌▓È_1
  5
810
 10
-294.938
 20
-83.1863
 30
0.000000
  70
    32
  0
VERTEX
  8
┌▓È_1
  5
811
 10
-294.942
 20
-83.1846
 30
0.000000
  70
    32
  0
VERTEX
  8
┌▓È_1
  5
812
 10
-294.946
 20
-83.1830
 30
0.000000
  70
    32
  0
VERTEX
  8
┌▓È_1
  5
813
 10
-294.951
 20
-83.1815
 30
0.000000
  70
    32
  0
VERTEX
  8
┌▓È_1
  5
814
 10
-294.955
 20
-83.1801
 30
0.000000
  70
    32
  0
VERTEX
  8
┌▓È_1
  5
815
 10
-294.959
 20
-83.1788
 30
0.000000
  70
    32
  0
VERTEX
  8
┌▓È_1
  5
816
 10
-294.964
 20
-83.1775
 30
0.000000
  70
    32
  0
VERTEX
  8
┌▓È_1
  5
817
 10
-294.968
 20
-83.1763
 30
0.000000
  70
    32
  0
VERTEX
  8
┌▓È_1
  5
818
 10
-294.972
 20
-83.1752
 30
0.000000
  70
    32
  0
VERTEX
  8
┌▓È_1
  5
819
 10
-294.977
 20
-83.1742
 30
0.000000
  70
    32
  0
VERTEX
  8
┌▓È_1
  5
81A
 10
-294.981
 20
-83.1733
 30
0.000000
  70
    32
  0
VERTEX
  8
┌▓È_1
  5
81B
 10
-294.985
 20
-83.1725
 30
0.000000
  70
    32
  0
VERTEX
  8
┌▓È_1
  5
81C
 10
-294.990
 20
-83.1718
 30
0.000000
  70
    32
  0
VERTEX
  8
┌▓È_1
  5
81D
 10
-294.994
 20
-83.1711
 30
0.000000
  70
    32
  0
VERTEX
  8
┌▓È_1
  5
81E
 10
-294.999
 20
-83.1705
 30
0.000000
  70
    32
  0
VERTEX
  8
┌▓È_1
  5
81F
 10
-295.003
 20
-83.1701
 30
0.000000
  70
    32
  0
VERTEX
  8
┌▓È_1
  5
820
 10
-295.008
 20
-83.1697
 30
0.000000
  70
    32
  0
VERTEX
  8
┌▓È_1
  5
821
 10
-295.012
 20
-83.1694
 30
0.000000
  70
    32
  0
VERTEX
  8
┌▓È_1
  5
822
 10
-295.017
 20
-83.1692
 30
0.000000
  70
    32
  0
VERTEX
  8
┌▓È_1
  5
823
 10
-295.021
 20
-83.1691
 30
0.000000
  70
    32
  0
VERTEX
  8
┌▓È_1
  5
824
 10
-295.026
 20
-83.1691
 30
0.000000
  70
    32
  0
VERTEX
  8
┌▓È_1
  5
825
 10
-295.030
 20
-83.1691
 30
0.000000
  70
    32
  0
VERTEX
  8
┌▓È_1
  5
826
 10
-295.035
 20
-83.1693
 30
0.000000
  70
    32
  0
VERTEX
  8
┌▓È_1
  5
827
 10
-295.039
 20
-83.1695
 30
0.000000
  70
    32
  0
VERTEX
  8
┌▓È_1
  5
828
 10
-295.044
 20
-83.1699
 30
0.000000
  70
    32
  0
VERTEX
  8
┌▓È_1
  5
829
 10
-295.048
 20
-83.1703
 30
0.000000
  70
    32
  0
VERTEX
  8
┌▓È_1
  5
82A
 10
-295.052
 20
-83.1708
 30
0.000000
  70
    32
  0
VERTEX
  8
┌▓È_1
  5
82B
 10
-295.057
 20
-83.1714
 30
0.000000
  70
    32
  0
VERTEX
  8
┌▓È_1
  5
82C
 10
-295.061
 20
-83.1721
 30
0.000000
  70
    32
  0
VERTEX
  8
┌▓È_1
  5
82D
 10
-295.066
 20
-83.1729
 30
0.000000
  70
    32
  0
VERTEX
  8
┌▓È_1
  5
82E
 10
-295.070
 20
-83.1737
 30
0.000000
  70
    32
  0
VERTEX
  8
┌▓È_1
  5
82F
 10
-295.075
 20
-83.1747
 30
0.000000
  70
    32
  0
VERTEX
  8
┌▓È_1
  5
830
 10
-295.079
 20
-83.1757
 30
0.000000
  70
    32
  0
VERTEX
  8
┌▓È_1
  5
831
 10
-295.083
 20
-83.1768
 30
0.000000
  70
    32
  0
VERTEX
  8
┌▓È_1
  5
832
 10
-295.088
 20
-83.1781
 30
0.000000
  70
    32
  0
VERTEX
  8
┌▓È_1
  5
833
 10
-295.092
 20
-83.1794
 30
0.000000
  70
    32
  0
VERTEX
  8
┌▓È_1
  5
834
 10
-295.096
 20
-83.1807
 30
0.000000
  70
    32
  0
VERTEX
  8
┌▓È_1
  5
835
 10
-295.100
 20
-83.1822
 30
0.000000
  70
    32
  0
VERTEX
  8
┌▓È_1
  5
836
 10
-295.105
 20
-83.1838
 30
0.000000
  70
    32
  0
VERTEX
  8
┌▓È_1
  5
837
 10
-295.109
 20
-83.1854
 30
0.000000
  70
    32
  0
VERTEX
  8
┌▓È_1
  5
838
 10
-295.113
 20
-83.1871
 30
0.000000
  70
    32
  0
VERTEX
  8
┌▓È_1
  5
839
 10
-295.117
 20
-83.1889
 30
0.000000
  70
    32
  0
VERTEX
  8
┌▓È_1
  5
83A
 10
-295.121
 20
-83.1908
 30
0.000000
  70
    32
  0
VERTEX
  8
┌▓È_1
  5
83B
 10
-295.125
 20
-83.1928
 30
0.000000
  70
    32
  0
VERTEX
  8
┌▓È_1
  5
83C
 10
-295.129
 20
-83.1948
 30
0.000000
  70
    32
  0
VERTEX
  8
┌▓È_1
  5
83D
 10
-295.133
 20
-83.1969
 30
0.000000
  70
    32
  0
VERTEX
  8
┌▓È_1
  5
83E
 10
-295.137
 20
-83.1992
 30
0.000000
  70
    32
  0
VERTEX
  8
┌▓È_1
  5
83F
 10
-295.141
 20
-83.2014
 30
0.000000
  70
    32
  0
VERTEX
  8
┌▓È_1
  5
840
 10
-295.145
 20
-83.2038
 30
0.000000
  70
    32
  0
VERTEX
  8
┌▓È_1
  5
841
 10
-295.148
 20
-83.2062
 30
0.000000
  70
    32
  0
VERTEX
  8
┌▓È_1
  5
842
 10
-295.152
 20
-83.2087
 30
0.000000
  70
    32
  0
VERTEX
  8
┌▓È_1
  5
843
 10
-295.156
 20
-83.2113
 30
0.000000
  70
    32
  0
VERTEX
  8
┌▓È_1
  5
844
 10
-295.159
 20
-83.2140
 30
0.000000
  70
    32
  0
VERTEX
  8
┌▓È_1
  5
845
 10
-295.163
 20
-83.2167
 30
0.000000
  70
    32
  0
VERTEX
  8
┌▓È_1
  5
846
 10
-295.166
 20
-83.2195
 30
0.000000
  70
    32
  0
VERTEX
  8
┌▓È_1
  5
847
 10
-295.170
 20
-83.2223
 30
0.000000
  70
    32
  0
VERTEX
  8
┌▓È_1
  5
848
 10
-295.173
 20
-83.2253
 30
0.000000
  70
    32
  0
VERTEX
  8
┌▓È_1
  5
849
 10
-295.177
 20
-83.2283
 30
0.000000
  70
    32
  0
VERTEX
  8
┌▓È_1
  5
84A
 10
-295.180
 20
-83.2313
 30
0.000000
  70
    32
  0
VERTEX
  8
┌▓È_1
  5
84B
 10
-295.183
 20
-83.2345
 30
0.000000
  70
    32
  0
VERTEX
  8
┌▓È_1
  5
84C
 10
-295.186
 20
-83.2377
 30
0.000000
  70
    32
  0
VERTEX
  8
┌▓È_1
  5
84D
 10
-295.189
 20
-83.2409
 30
0.000000
  70
    32
  0
VERTEX
  8
┌▓È_1
  5
84E
 10
-295.192
 20
-83.2442
 30
0.000000
  70
    32
  0
VERTEX
  8
┌▓È_1
  5
84F
 10
-295.195
 20
-83.2476
 30
0.000000
  70
    32
  0
VERTEX
  8
┌▓È_1
  5
850
 10
-295.198
 20
-83.2511
 30
0.000000
  70
    32
  0
VERTEX
  8
┌▓È_1
  5
851
 10
-295.201
 20
-83.2546
 30
0.000000
  70
    32
  0
VERTEX
  8
┌▓È_1
  5
852
 10
-295.204
 20
-83.2581
 30
0.000000
  70
    32
  0
VERTEX
  8
┌▓È_1
  5
853
 10
-295.207
 20
-83.2617
 30
0.000000
  70
    32
  0
VERTEX
  8
┌▓È_1
  5
854
 10
-295.209
 20
-83.2654
 30
0.000000
  70
    32
  0
VERTEX
  8
┌▓È_1
  5
855
 10
-295.212
 20
-83.2691
 30
0.000000
  70
    32
  0
SEQEND
  8
┌▓È_1
  5
856
  0
ENDBLK
  5
2D1
  8
0
  0
BLOCK
  8
0
  2
CLUMP9
 70
     0
 10
0.0
 20
0.0
 30
0.0
  3
CLUMP9
  1

  0
LINE
  5
2D5
  8
┌▓È_1
 62
     5
 10
-295.99955853720002
 20
-93.489062500000003
 30
0.0
 11
-295.21164140659999
 21
-93.489062500000003
 31
0.0
  0
ARC
  5
2D6
  8
┌▓È_1
 62
     5
 10
-295.09955853719998
 20
-93.239062500000003
 30
0.0
 40
0.3
 50
0.0
 51
90.0
  0
LINE
  5
2D7
  8
┌▓È_1
 62
     5
 10
-295.34955853719998
 20
-92.939062500000006
 30
0.0
 11
-295.09955853719998
 21
-92.939062500000006
 31
0.0
  0
LINE
  5
2D8
  8
┌▓È_1
 62
     5
 10
-295.21164140659999
 20
-93.489062500000003
 30
0.0
 11
-295.21164140659999
 21
-93.609062499999993
 31
0.0
  0
LINE
  5
2D9
  8
┌▓È_1
 62
     5
 10
-294.79955853720003
 20
-93.239062500000003
 30
0.0
 11
-294.79955853720003
 21
-93.484062604200005
 31
0.0
  0
POLYLINE
  5
2DA
  8
┌▓È_1
 62
     5
 10
-294.79955853720003
 20
-93.4840626075746
 30
0.0
 66
     1
 70
     8
  0
VERTEX
  8
┌▓È_1
  5
857
 10
-294.800
 20
-93.4841
 30
0.000000
  70
    32
  0
VERTEX
  8
┌▓È_1
  5
858
 10
-294.800
 20
-93.4885
 30
0.000000
  70
    32
  0
VERTEX
  8
┌▓È_1
  5
859
 10
-294.800
 20
-93.4930
 30
0.000000
  70
    32
  0
VERTEX
  8
┌▓È_1
  5
85A
 10
-294.800
 20
-93.4975
 30
0.000000
  70
    32
  0
VERTEX
  8
┌▓È_1
  5
85B
 10
-294.800
 20
-93.5020
 30
0.000000
  70
    32
  0
VERTEX
  8
┌▓È_1
  5
85C
 10
-294.801
 20
-93.5065
 30
0.000000
  70
    32
  0
VERTEX
  8
┌▓È_1
  5
85D
 10
-294.801
 20
-93.5109
 30
0.000000
  70
    32
  0
VERTEX
  8
┌▓È_1
  5
85E
 10
-294.802
 20
-93.5154
 30
0.000000
  70
    32
  0
VERTEX
  8
┌▓È_1
  5
85F
 10
-294.802
 20
-93.5198
 30
0.000000
  70
    32
  0
VERTEX
  8
┌▓È_1
  5
860
 10
-294.803
 20
-93.5242
 30
0.000000
  70
    32
  0
VERTEX
  8
┌▓È_1
  5
861
 10
-294.804
 20
-93.5286
 30
0.000000
  70
    32
  0
VERTEX
  8
┌▓È_1
  5
862
 10
-294.805
 20
-93.5330
 30
0.000000
  70
    32
  0
VERTEX
  8
┌▓È_1
  5
863
 10
-294.806
 20
-93.5374
 30
0.000000
  70
    32
  0
VERTEX
  8
┌▓È_1
  5
864
 10
-294.807
 20
-93.5417
 30
0.000000
  70
    32
  0
VERTEX
  8
┌▓È_1
  5
865
 10
-294.808
 20
-93.5461
 30
0.000000
  70
    32
  0
VERTEX
  8
┌▓È_1
  5
866
 10
-294.810
 20
-93.5504
 30
0.000000
  70
    32
  0
VERTEX
  8
┌▓È_1
  5
867
 10
-294.811
 20
-93.5546
 30
0.000000
  70
    32
  0
VERTEX
  8
┌▓È_1
  5
868
 10
-294.812
 20
-93.5589
 30
0.000000
  70
    32
  0
VERTEX
  8
┌▓È_1
  5
869
 10
-294.814
 20
-93.5631
 30
0.000000
  70
    32
  0
VERTEX
  8
┌▓È_1
  5
86A
 10
-294.816
 20
-93.5673
 30
0.000000
  70
    32
  0
VERTEX
  8
┌▓È_1
  5
86B
 10
-294.817
 20
-93.5714
 30
0.000000
  70
    32
  0
VERTEX
  8
┌▓È_1
  5
86C
 10
-294.819
 20
-93.5756
 30
0.000000
  70
    32
  0
VERTEX
  8
┌▓È_1
  5
86D
 10
-294.821
 20
-93.5796
 30
0.000000
  70
    32
  0
VERTEX
  8
┌▓È_1
  5
86E
 10
-294.823
 20
-93.5837
 30
0.000000
  70
    32
  0
VERTEX
  8
┌▓È_1
  5
86F
 10
-294.825
 20
-93.5877
 30
0.000000
  70
    32
  0
VERTEX
  8
┌▓È_1
  5
870
 10
-294.827
 20
-93.5916
 30
0.000000
  70
    32
  0
VERTEX
  8
┌▓È_1
  5
871
 10
-294.829
 20
-93.5956
 30
0.000000
  70
    32
  0
VERTEX
  8
┌▓È_1
  5
872
 10
-294.831
 20
-93.5994
 30
0.000000
  70
    32
  0
VERTEX
  8
┌▓È_1
  5
873
 10
-294.834
 20
-93.6033
 30
0.000000
  70
    32
  0
VERTEX
  8
┌▓È_1
  5
874
 10
-294.836
 20
-93.6071
 30
0.000000
  70
    32
  0
VERTEX
  8
┌▓È_1
  5
875
 10
-294.839
 20
-93.6108
 30
0.000000
  70
    32
  0
VERTEX
  8
┌▓È_1
  5
876
 10
-294.841
 20
-93.6145
 30
0.000000
  70
    32
  0
VERTEX
  8
┌▓È_1
  5
877
 10
-294.844
 20
-93.6181
 30
0.000000
  70
    32
  0
VERTEX
  8
┌▓È_1
  5
878
 10
-294.847
 20
-93.6217
 30
0.000000
  70
    32
  0
VERTEX
  8
┌▓È_1
  5
879
 10
-294.849
 20
-93.6252
 30
0.000000
  70
    32
  0
VERTEX
  8
┌▓È_1
  5
87A
 10
-294.852
 20
-93.6287
 30
0.000000
  70
    32
  0
VERTEX
  8
┌▓È_1
  5
87B
 10
-294.855
 20
-93.6321
 30
0.000000
  70
    32
  0
VERTEX
  8
┌▓È_1
  5
87C
 10
-294.858
 20
-93.6354
 30
0.000000
  70
    32
  0
VERTEX
  8
┌▓È_1
  5
87D
 10
-294.861
 20
-93.6387
 30
0.000000
  70
    32
  0
VERTEX
  8
┌▓È_1
  5
87E
 10
-294.864
 20
-93.6419
 30
0.000000
  70
    32
  0
VERTEX
  8
┌▓È_1
  5
87F
 10
-294.867
 20
-93.6451
 30
0.000000
  70
    32
  0
VERTEX
  8
┌▓È_1
  5
880
 10
-294.871
 20
-93.6482
 30
0.000000
  70
    32
  0
VERTEX
  8
┌▓È_1
  5
881
 10
-294.874
 20
-93.6512
 30
0.000000
  70
    32
  0
VERTEX
  8
┌▓È_1
  5
882
 10
-294.877
 20
-93.6542
 30
0.000000
  70
    32
  0
VERTEX
  8
┌▓È_1
  5
883
 10
-294.881
 20
-93.6571
 30
0.000000
  70
    32
  0
VERTEX
  8
┌▓È_1
  5
884
 10
-294.884
 20
-93.6599
 30
0.000000
  70
    32
  0
VERTEX
  8
┌▓È_1
  5
885
 10
-294.888
 20
-93.6627
 30
0.000000
  70
    32
  0
VERTEX
  8
┌▓È_1
  5
886
 10
-294.891
 20
-93.6654
 30
0.000000
  70
    32
  0
VERTEX
  8
┌▓È_1
  5
887
 10
-294.895
 20
-93.6680
 30
0.000000
  70
    32
  0
VERTEX
  8
┌▓È_1
  5
888
 10
-294.899
 20
-93.6706
 30
0.000000
  70
    32
  0
VERTEX
  8
┌▓È_1
  5
889
 10
-294.902
 20
-93.6730
 30
0.000000
  70
    32
  0
VERTEX
  8
┌▓È_1
  5
88A
 10
-294.906
 20
-93.6754
 30
0.000000
  70
    32
  0
VERTEX
  8
┌▓È_1
  5
88B
 10
-294.910
 20
-93.6778
 30
0.000000
  70
    32
  0
VERTEX
  8
┌▓È_1
  5
88C
 10
-294.914
 20
-93.6800
 30
0.000000
  70
    32
  0
VERTEX
  8
┌▓È_1
  5
88D
 10
-294.918
 20
-93.6822
 30
0.000000
  70
    32
  0
VERTEX
  8
┌▓È_1
  5
88E
 10
-294.922
 20
-93.6843
 30
0.000000
  70
    32
  0
VERTEX
  8
┌▓È_1
  5
88F
 10
-294.926
 20
-93.6863
 30
0.000000
  70
    32
  0
VERTEX
  8
┌▓È_1
  5
890
 10
-294.930
 20
-93.6882
 30
0.000000
  70
    32
  0
VERTEX
  8
┌▓È_1
  5
891
 10
-294.934
 20
-93.6900
 30
0.000000
  70
    32
  0
VERTEX
  8
┌▓È_1
  5
892
 10
-294.938
 20
-93.6918
 30
0.000000
  70
    32
  0
VERTEX
  8
┌▓È_1
  5
893
 10
-294.942
 20
-93.6935
 30
0.000000
  70
    32
  0
VERTEX
  8
┌▓È_1
  5
894
 10
-294.946
 20
-93.6951
 30
0.000000
  70
    32
  0
VERTEX
  8
┌▓È_1
  5
895
 10
-294.951
 20
-93.6966
 30
0.000000
  70
    32
  0
VERTEX
  8
┌▓È_1
  5
896
 10
-294.955
 20
-93.6980
 30
0.000000
  70
    32
  0
VERTEX
  8
┌▓È_1
  5
897
 10
-294.959
 20
-93.6994
 30
0.000000
  70
    32
  0
VERTEX
  8
┌▓È_1
  5
898
 10
-294.964
 20
-93.7006
 30
0.000000
  70
    32
  0
VERTEX
  8
┌▓È_1
  5
899
 10
-294.968
 20
-93.7018
 30
0.000000
  70
    32
  0
VERTEX
  8
┌▓È_1
  5
89A
 10
-294.972
 20
-93.7029
 30
0.000000
  70
    32
  0
VERTEX
  8
┌▓È_1
  5
89B
 10
-294.977
 20
-93.7039
 30
0.000000
  70
    32
  0
VERTEX
  8
┌▓È_1
  5
89C
 10
-294.981
 20
-93.7048
 30
0.000000
  70
    32
  0
VERTEX
  8
┌▓È_1
  5
89D
 10
-294.985
 20
-93.7056
 30
0.000000
  70
    32
  0
VERTEX
  8
┌▓È_1
  5
89E
 10
-294.990
 20
-93.7064
 30
0.000000
  70
    32
  0
VERTEX
  8
┌▓È_1
  5
89F
 10
-294.994
 20
-93.7070
 30
0.000000
  70
    32
  0
VERTEX
  8
┌▓È_1
  5
8A0
 10
-294.999
 20
-93.7076
 30
0.000000
  70
    32
  0
VERTEX
  8
┌▓È_1
  5
8A1
 10
-295.003
 20
-93.7080
 30
0.000000
  70
    32
  0
VERTEX
  8
┌▓È_1
  5
8A2
 10
-295.008
 20
-93.7084
 30
0.000000
  70
    32
  0
VERTEX
  8
┌▓È_1
  5
8A3
 10
-295.012
 20
-93.7087
 30
0.000000
  70
    32
  0
VERTEX
  8
┌▓È_1
  5
8A4
 10
-295.017
 20
-93.7089
 30
0.000000
  70
    32
  0
VERTEX
  8
┌▓È_1
  5
8A5
 10
-295.021
 20
-93.7090
 30
0.000000
  70
    32
  0
VERTEX
  8
┌▓È_1
  5
8A6
 10
-295.026
 20
-93.7091
 30
0.000000
  70
    32
  0
VERTEX
  8
┌▓È_1
  5
8A7
 10
-295.030
 20
-93.7090
 30
0.000000
  70
    32
  0
VERTEX
  8
┌▓È_1
  5
8A8
 10
-295.035
 20
-93.7088
 30
0.000000
  70
    32
  0
VERTEX
  8
┌▓È_1
  5
8A9
 10
-295.039
 20
-93.7086
 30
0.000000
  70
    32
  0
VERTEX
  8
┌▓È_1
  5
8AA
 10
-295.044
 20
-93.7083
 30
0.000000
  70
    32
  0
VERTEX
  8
┌▓È_1
  5
8AB
 10
-295.048
 20
-93.7078
 30
0.000000
  70
    32
  0
VERTEX
  8
┌▓È_1
  5
8AC
 10
-295.052
 20
-93.7073
 30
0.000000
  70
    32
  0
VERTEX
  8
┌▓È_1
  5
8AD
 10
-295.057
 20
-93.7067
 30
0.000000
  70
    32
  0
VERTEX
  8
┌▓È_1
  5
8AE
 10
-295.061
 20
-93.7060
 30
0.000000
  70
    32
  0
VERTEX
  8
┌▓È_1
  5
8AF
 10
-295.066
 20
-93.7053
 30
0.000000
  70
    32
  0
VERTEX
  8
┌▓È_1
  5
8B0
 10
-295.070
 20
-93.7044
 30
0.000000
  70
    32
  0
VERTEX
  8
┌▓È_1
  5
8B1
 10
-295.075
 20
-93.7034
 30
0.000000
  70
    32
  0
VERTEX
  8
┌▓È_1
  5
8B2
 10
-295.079
 20
-93.7024
 30
0.000000
  70
    32
  0
VERTEX
  8
┌▓È_1
  5
8B3
 10
-295.083
 20
-93.7013
 30
0.000000
  70
    32
  0
VERTEX
  8
┌▓È_1
  5
8B4
 10
-295.088
 20
-93.7001
 30
0.000000
  70
    32
  0
VERTEX
  8
┌▓È_1
  5
8B5
 10
-295.092
 20
-93.6988
 30
0.000000
  70
    32
  0
VERTEX
  8
┌▓È_1
  5
8B6
 10
-295.096
 20
-93.6974
 30
0.000000
  70
    32
  0
VERTEX
  8
┌▓È_1
  5
8B7
 10
-295.100
 20
-93.6959
 30
0.000000
  70
    32
  0
VERTEX
  8
┌▓È_1
  5
8B8
 10
-295.105
 20
-93.6944
 30
0.000000
  70
    32
  0
VERTEX
  8
┌▓È_1
  5
8B9
 10
-295.109
 20
-93.6927
 30
0.000000
  70
    32
  0
VERTEX
  8
┌▓È_1
  5
8BA
 10
-295.113
 20
-93.6910
 30
0.000000
  70
    32
  0
VERTEX
  8
┌▓È_1
  5
8BB
 10
-295.117
 20
-93.6892
 30
0.000000
  70
    32
  0
VERTEX
  8
┌▓È_1
  5
8BC
 10
-295.121
 20
-93.6873
 30
0.000000
  70
    32
  0
VERTEX
  8
┌▓È_1
  5
8BD
 10
-295.125
 20
-93.6853
 30
0.000000
  70
    32
  0
VERTEX
  8
┌▓È_1
  5
8BE
 10
-295.129
 20
-93.6833
 30
0.000000
  70
    32
  0
VERTEX
  8
┌▓È_1
  5
8BF
 10
-295.133
 20
-93.6812
 30
0.000000
  70
    32
  0
VERTEX
  8
┌▓È_1
  5
8C0
 10
-295.137
 20
-93.6790
 30
0.000000
  70
    32
  0
VERTEX
  8
┌▓È_1
  5
8C1
 10
-295.141
 20
-93.6767
 30
0.000000
  70
    32
  0
VERTEX
  8
┌▓È_1
  5
8C2
 10
-295.145
 20
-93.6743
 30
0.000000
  70
    32
  0
VERTEX
  8
┌▓È_1
  5
8C3
 10
-295.148
 20
-93.6719
 30
0.000000
  70
    32
  0
VERTEX
  8
┌▓È_1
  5
8C4
 10
-295.152
 20
-93.6694
 30
0.000000
  70
    32
  0
VERTEX
  8
┌▓È_1
  5
8C5
 10
-295.156
 20
-93.6668
 30
0.000000
  70
    32
  0
VERTEX
  8
┌▓È_1
  5
8C6
 10
-295.159
 20
-93.6642
 30
0.000000
  70
    32
  0
VERTEX
  8
┌▓È_1
  5
8C7
 10
-295.163
 20
-93.6614
 30
0.000000
  70
    32
  0
VERTEX
  8
┌▓È_1
  5
8C8
 10
-295.166
 20
-93.6586
 30
0.000000
  70
    32
  0
VERTEX
  8
┌▓È_1
  5
8C9
 10
-295.170
 20
-93.6558
 30
0.000000
  70
    32
  0
VERTEX
  8
┌▓È_1
  5
8CA
 10
-295.173
 20
-93.6528
 30
0.000000
  70
    32
  0
VERTEX
  8
┌▓È_1
  5
8CB
 10
-295.177
 20
-93.6498
 30
0.000000
  70
    32
  0
VERTEX
  8
┌▓È_1
  5
8CC
 10
-295.180
 20
-93.6468
 30
0.000000
  70
    32
  0
VERTEX
  8
┌▓È_1
  5
8CD
 10
-295.183
 20
-93.6436
 30
0.000000
  70
    32
  0
VERTEX
  8
┌▓È_1
  5
8CE
 10
-295.186
 20
-93.6405
 30
0.000000
  70
    32
  0
VERTEX
  8
┌▓È_1
  5
8CF
 10
-295.189
 20
-93.6372
 30
0.000000
  70
    32
  0
VERTEX
  8
┌▓È_1
  5
8D0
 10
-295.192
 20
-93.6339
 30
0.000000
  70
    32
  0
VERTEX
  8
┌▓È_1
  5
8D1
 10
-295.195
 20
-93.6305
 30
0.000000
  70
    32
  0
VERTEX
  8
┌▓È_1
  5
8D2
 10
-295.198
 20
-93.6271
 30
0.000000
  70
    32
  0
VERTEX
  8
┌▓È_1
  5
8D3
 10
-295.201
 20
-93.6236
 30
0.000000
  70
    32
  0
VERTEX
  8
┌▓È_1
  5
8D4
 10
-295.204
 20
-93.6200
 30
0.000000
  70
    32
  0
VERTEX
  8
┌▓È_1
  5
8D5
 10
-295.207
 20
-93.6164
 30
0.000000
  70
    32
  0
VERTEX
  8
┌▓È_1
  5
8D6
 10
-295.209
 20
-93.6128
 30
0.000000
  70
    32
  0
VERTEX
  8
┌▓È_1
  5
8D7
 10
-295.212
 20
-93.6091
 30
0.000000
  70
    32
  0
SEQEND
  8
┌▓È_1
  5
8D8
  0
ENDBLK
  5
2DB
  8
0
  0
BLOCK
  8
0
  2
*D16
 70
     1
 10
0.0
 20
0.0
 30
0.0
  3
*D16
  1

  0
TEXT
  5
2E0
  8
0
 62
     0
 10
-238.25755163829999
 20
-41.763203191799988
 30
0.0
 40
7.1966662884000003
  1
25.5
  0
LINE
  5
2E1
  8
0
 62
     0
 10
-217.04088541670001
 20
-81.439062500000006
 30
0.0
 11
-217.04088541670001
 21
-43.033203125
 31
0.0
  0
LINE
  5
2E2
  8
0
 62
     0
 10
-242.54088541670001
 20
-79.439062500000006
 30
0.0
 11
-242.54088541670001
 21
-43.033203125
 31
0.0
  0
LINE
  5
2E3
  8
0
 62
     0
 10
-217.04088541670001
 20
-45.033203125
 30
0.0
 11
-217.09088608420001
 21
-45.033203125
 31
0.0
  0
LINE
  5
2E4
  8
0
 62
     0
 10
-217.04088541670001
 20
-45.033203125
 30
0.0
 11
-242.49088474909999
 21
-45.033203125
 31
0.0
  0
LINE
  5
2E5
  8
0
 62
     0
 10
-242.54088541670001
 20
-45.033203125
 30
0.0
 11
-217.09088608420001
 21
-45.033203125
 31
0.0
  0
LINE
  5
2E6
  8
0
 62
     0
 10
-242.54088541670001
 20
-45.033203125
 30
0.0
 11
-242.49088474909999
 21
-45.033203125
 31
0.0
  0
LINE
  5
2E7
  8
0
 62
     0
 10
-242.54088541670001
 20
-45.033203125
 30
0.0
 11
-252.54088541670001
 21
-45.033203125
 31
0.0
  0
SOLID
  5
2E8
  8
0
 62
     0
 10
-242.54088541670001
 20
-45.033203125
 30
0.0
 11
-246.4045886676
 21
-46.068479299499991
 31
0.0
 12
-246.4045886676
 22
-43.997926950500002
 32
0.0
 13
-245.43866285479999
 23
-45.033203125
 33
0.0
  0
LINE
  5
2E9
  8
0
 62
     0
 10
-217.04088541670001
 20
-45.033203125
 30
0.0
 11
-207.04088541670001
 21
-45.033203125
 31
0.0
  0
SOLID
  5
2EA
  8
0
 62
     0
 10
-217.04088541670001
 20
-45.033203125
 30
0.0
 11
-213.17718216579999
 21
-43.997926950500002
 31
0.0
 12
-213.17718216579999
 22
-46.068479299499991
 32
0.0
 13
-214.14310797850001
 23
-45.033203125
 33
0.0
  0
ENDBLK
  5
2EB
  8
0
  0
BLOCK
  8
0
  2
BALLON0
 70
     0
 10
0.0
 20
0.0
 30
0.0
  3
BALLON0
  1

  0
INSERT
  5
330
  8
0
  6
CONTINUOUS
  2
*U44
 10
0.0
 20
0.0
 30
0.0
  0
CIRCLE
  5
331
  8
┌▓È_1
 10
-156.95752350090001
 20
209.88165201070001
 30
0.0
 40
8.0
  0
LINE
  5
332
  8
Éíû@É³
 10
-143.62419016749999
 20
209.88165201070001
 30
0.0
 11
-148.95752350090001
 21
209.88165201070001
 31
0.0
  0
LINE
  5
333
  8
Éíû@É³
 10
-104.6658203125
 20
142.40377604170001
 30
0.0
 11
-143.62419016749999
 21
209.88165201070001
 31
0.0
  0
SOLID
  5
334
  8
Éíû@É³
 10
-104.6658203125
 20
142.40377604170001
 30
0.0
 11
-110.0514609586
 21
148.53197927190001
 31
0.0
 12
-107.86582031250001
 22
147.94633862590001
 32
0.0
 13
-107.86582031250001
 23
147.94633862590001
 33
0.0
  0
SOLID
  5
335
  8
Éíû@É³
 10
-107.86582031250001
 20
147.94633862590001
 30
0.0
 11
-107.2801796664
 21
150.13197927190001
 31
0.0
 12
-104.6658203125
 22
142.40377604170001
 32
0.0
 13
-104.6658203125
 23
142.40377604170001
 33
0.0
  0
ENDBLK
  5
336
  8
0
  0
BLOCK
  8
0
  2
*D18
 70
     1
 10
0.0
 20
0.0
 30
0.0
  3
*D18
  1

  0
TEXT
  5
343
  8
0
 62
     0
 10
50.759115473400001
 20
64.433541599899996
 30
0.0
 40
7.1966662884000003
  1
P=160x11
  0
LINE
  5
344
  8
0
 62
     0
 10
-212.54088541670001
 20
112.9037760417
 30
0.0
 11
-212.54088541670001
 21
59.163541666699999
 31
0.0
  0
LINE
  5
345
  8
0
 62
     0
 10
307.45911458329999
 20
112.9037760417
 30
0.0
 11
307.45911458329999
 21
59.163541666699999
 31
0.0
  0
LINE
  5
346
  8
0
 62
     0
 10
-212.54088541670001
 20
61.163541666699992
 30
0.0
 11
88.859113470699995
 21
61.163541666699992
 31
0.0
  0
LINE
  5
347
  8
0
 62
     0
 10
-212.54088541670001
 20
61.163541666699992
 30
0.0
 11
46.525782362599998
 21
61.163541666699992
 31
0.0
  0
LINE
  5
348
  8
0
 62
     0
 10
307.45911458329999
 20
61.163541666699992
 30
0.0
 11
88.859113470699995
 21
61.163541666699992
 31
0.0
  0
LINE
  5
349
  8
0
 62
     0
 10
307.45911458329999
 20
61.163541666699992
 30
0.0
 11
46.525782362599998
 21
61.163541666699992
 31
0.0
  0
LINE
  5
34A
  8
0
 62
     0
 10
307.45911458329999
 20
61.163541666699992
 30
0.0
 11
297.45911458329999
 21
61.163541666699992
 31
0.0
  0
SOLID
  5
34B
  8
0
 62
     0
 10
307.45911458329999
 20
61.163541666699992
 30
0.0
 11
303.59541133239998
 21
60.128265492099999
 31
0.0
 12
303.59541133239998
 22
62.198817841199997
 32
0.0
 13
304.56133714520001
 23
61.163541666699992
 33
0.0
  0
LINE
  5
34C
  8
0
 62
     0
 10
-212.54088541670001
 20
61.163541666699992
 30
0.0
 11
-202.54088541670001
 21
61.163541666699992
 31
0.0
  0
SOLID
  5
34D
  8
0
 62
     0
 10
-212.54088541670001
 20
61.163541666699992
 30
0.0
 11
-208.67718216579999
 21
62.198817841199997
 31
0.0
 12
-208.67718216579999
 22
60.128265492099999
 32
0.0
 13
-209.64310797850001
 23
61.163541666699992
 33
0.0
  0
ENDBLK
  5
34E
  8
0
  0
BLOCK
  8
0
  2
BALLON1
 70
     0
 10
0.0
 20
0.0
 30
0.0
  3
BALLON1
  1

  0
INSERT
  5
353
  8
0
  6
CONTINUOUS
  2
*U45
 10
0.0
 20
0.0
 30
0.0
  0
CIRCLE
  5
354
  8
┌▓È_1
 10
-6.0489412814999994
 20
209.88165201070001
 30
0.0
 40
8.0
  0
LINE
  5
355
  8
Éíû@É³
 10
-19.3822746148
 20
209.88165201070001
 30
0.0
 11
-14.048941281499999
 21
209.88165201070001
 31
0.0
  0
LINE
  5
356
  8
Éíû@É³
 10
-62.382096354200002
 20
135.40377604170001
 30
0.0
 11
-19.3822746148
 21
209.88165201070001
 31
0.0
  0
SOLID
  5
357
  8
Éíû@É³
 10
-62.382096354200002
 20
135.40377604170001
 30
0.0
 11
-59.7677370002
 21
143.13197927190001
 31
0.0
 12
-59.182096354199999
 22
140.94633862590001
 32
0.0
 13
-59.182096354199999
 23
140.94633862590001
 33
0.0
  0
SOLID
  5
358
  8
Éíû@É³
 10
-59.182096354199999
 20
140.94633862590001
 30
0.0
 11
-56.996455708100001
 21
141.53197927190001
 31
0.0
 12
-62.382096354200002
 22
135.40377604170001
 32
0.0
 13
-62.382096354200002
 23
135.40377604170001
 33
0.0
  0
ENDBLK
  5
359
  8
0
  0
BLOCK
  8
0
  2
*D20
 70
     1
 10
0.0
 20
0.0
 30
0.0
  3
*D20
  1

  0
TEXT
  5
35F
  8
0
 62
     0
 10
-193.89088508290001
 20
-130.86059902509999
 30
0.0
 40
7.1966662884000003
  1
110
  0
LINE
  5
360
  8
0
 62
     0
 10
-242.54088541670001
 20
-97.439062500000006
 30
0.0
 11
-242.54088541670001
 21
-136.1305989583
 31
0.0
  0
LINE
  5
361
  8
0
 62
     0
 10
-132.54088541670001
 20
-94.696128443700005
 30
0.0
 11
-132.54088541670001
 21
-136.1305989583
 31
0.0
  0
LINE
  5
362
  8
0
 62
     0
 10
-242.54088541670001
 20
-134.1305989583
 30
0.0
 11
-176.95755263960001
 21
-134.1305989583
 31
0.0
  0
LINE
  5
363
  8
0
 62
     0
 10
-242.54088541670001
 20
-134.1305989583
 30
0.0
 11
-198.12421819369999
 21
-134.1305989583
 31
0.0
  0
LINE
  5
364
  8
0
 62
     0
 10
-132.54088541670001
 20
-134.1305989583
 30
0.0
 11
-176.95755263960001
 21
-134.1305989583
 31
0.0
  0
LINE
  5
365
  8
0
 62
     0
 10
-132.54088541670001
 20
-134.1305989583
 30
0.0
 11
-198.12421819369999
 21
-134.1305989583
 31
0.0
  0
LINE
  5
366
  8
0
 62
     0
 10
-132.54088541670001
 20
-134.1305989583
 30
0.0
 11
-142.54088541670001
 21
-134.1305989583
 31
0.0
  0
SOLID
  5
367
  8
0
 62
     0
 10
-132.54088541670001
 20
-134.1305989583
 30
0.0
 11
-136.4045886676
 21
-135.1658751329
 31
0.0
 12
-136.4045886676
 22
-133.09532278379999
 32
0.0
 13
-135.43866285479999
 23
-134.1305989583
 33
0.0
  0
LINE
  5
368
  8
0
 62
     0
 10
-242.54088541670001
 20
-134.1305989583
 30
0.0
 11
-232.54088541670001
 21
-134.1305989583
 31
0.0
  0
SOLID
  5
369
  8
0
 62
     0
 10
-242.54088541670001
 20
-134.1305989583
 30
0.0
 11
-238.67718216579999
 21
-133.09532278379999
 31
0.0
 12
-238.67718216579999
 22
-135.1658751329
 32
0.0
 13
-239.64310797850001
 23
-134.1305989583
 33
0.0
  0
ENDBLK
  5
36A
  8
0
  0
BLOCK
  8
0
  2
*D21
 70
     1
 10
0.0
 20
0.0
 30
0.0
  3
*D21
  1

  0
TEXT
  5
370
  8
0
 62
     0
 10
-206.62914726689999
 20
137.41178385520001
 30
0.0
 40
7.1966662884000003
  1
%%c3.0éÿ%%c6ÄM
 50
62.114433163900003
  0
LINE
  5
371
  8
0
 62
     0
 10
-211.13776389660001
 20
122.55542647110001
 30
0.0
 11
-180.25038287890001
 21
180.9270899162
 31
0.0
  0
SOLID
  5
372
  8
0
 62
     0
 10
-211.13776389660001
 20
122.55542647110001
 30
0.0
 11
-210.24574567479999
 21
126.4546960258
 31
0.0
 12
-208.4156186662
 22
125.4862838394
 32
0.0
 13
-209.78245260200001
 23
125.1167240672
 33
0.0
  0
ENDBLK
  5
373
  8
0
  0
BLOCK
  8
0
  2
*D22
 70
     1
 10
0.0
 20
0.0
 30
0.0
  3
*D22
  1

  0
TEXT
  5
384
  8
0
 62
     0
 10
276.10911491709999
 20
-130.86059902509999
 30
0.0
 40
7.1966662884000003
  1
110
  0
LINE
  5
385
  8
0
 62
     0
 10
227.45911458329999
 20
-94.638754626700006
 30
0.0
 11
227.45911458329999
 21
-136.1305989583
 31
0.0
  0
LINE
  5
386
  8
0
 62
     0
 10
337.45911458329999
 20
-96.939062500000006
 30
0.0
 11
337.45911458329999
 21
-136.1305989583
 31
0.0
  0
LINE
  5
387
  8
0
 62
     0
 10
227.45911458329999
 20
-134.1305989583
 30
0.0
 11
293.04244736039999
 21
-134.1305989583
 31
0.0
  0
LINE
  5
388
  8
0
 62
     0
 10
227.45911458329999
 20
-134.1305989583
 30
0.0
 11
271.87578180629998
 21
-134.1305989583
 31
0.0
  0
LINE
  5
389
  8
0
 62
     0
 10
337.45911458329999
 20
-134.1305989583
 30
0.0
 11
293.04244736039999
 21
-134.1305989583
 31
0.0
  0
LINE
  5
38A
  8
0
 62
     0
 10
337.45911458329999
 20
-134.1305989583
 30
0.0
 11
271.87578180629998
 21
-134.1305989583
 31
0.0
  0
LINE
  5
38B
  8
0
 62
     0
 10
337.45911458329999
 20
-134.1305989583
 30
0.0
 11
327.45911458329999
 21
-134.1305989583
 31
0.0
  0
SOLID
  5
38C
  8
0
 62
     0
 10
337.45911458329999
 20
-134.1305989583
 30
0.0
 11
333.59541133239998
 21
-135.1658751329
 31
0.0
 12
333.59541133239998
 22
-133.09532278379999
 32
0.0
 13
334.56133714520001
 23
-134.1305989583
 33
0.0
  0
LINE
  5
38D
  8
0
 62
     0
 10
227.45911458329999
 20
-134.1305989583
 30
0.0
 11
237.45911458329999
 21
-134.1305989583
 31
0.0
  0
SOLID
  5
38E
  8
0
 62
     0
 10
227.45911458329999
 20
-134.1305989583
 30
0.0
 11
231.32281783420001
 21
-133.09532278379999
 31
0.0
 12
231.32281783420001
 22
-135.1658751329
 32
0.0
 13
230.35689202149999
 23
-134.1305989583
 33
0.0
  0
ENDBLK
  5
38F
  8
0
  0
BLOCK
  8
0
  2
*X23
 70
     1
 10
0.0
 20
0.0
 30
0.0
  3
*X23
  1

  0
LINE
  5
3A2
  8
┌▓È_1
 10
-242.54088541670001
 20
123.1150577305
 30
0.0
 11
-240.65216710550001
 21
125.00377604169999
 31
0.0
  0
LINE
  5
3A3
  8
┌▓È_1
 10
-242.54088541670001
 20
117.458203481
 30
0.0
 11
-234.995312856
 21
125.00377604169999
 31
0.0
  0
LINE
  5
3A4
  8
┌▓È_1
 10
-239.5384586065
 20
114.8037760417
 30
0.0
 11
-229.33845860650001
 21
125.00377604169999
 31
0.0
  0
LINE
  5
3A5
  8
┌▓È_1
 10
-233.8816043571
 20
114.8037760417
 30
0.0
 11
-223.68160435710001
 21
125.00377604169999
 31
0.0
  0
LINE
  5
3A6
  8
┌▓È_1
 10
-228.22475010759999
 20
114.8037760417
 30
0.0
 11
-218.0247501076
 21
125.00377604169999
 31
0.0
  0
LINE
  5
3A7
  8
┌▓È_1
 10
-222.5678958581
 20
114.8037760417
 30
0.0
 11
-212.36789585810001
 21
125.00377604169999
 31
0.0
  0
LINE
  5
3A8
  8
┌▓È_1
 10
-216.91104160859999
 20
114.8037760417
 30
0.0
 11
-206.7110416086
 21
125.00377604169999
 31
0.0
  0
LINE
  5
3A9
  8
┌▓È_1
 10
-211.2541873591
 20
114.8037760417
 30
0.0
 11
-201.05418735910001
 21
125.00377604169999
 31
0.0
  0
LINE
  5
3AA
  8
┌▓È_1
 10
-205.59733310959999
 20
114.8037760417
 30
0.0
 11
-195.3973331096
 21
125.00377604169999
 31
0.0
  0
LINE
  5
3AB
  8
┌▓È_1
 10
-199.94047886009989
 20
114.8037760417
 30
0.0
 11
-189.74047886010001
 21
125.00377604169999
 31
0.0
  0
LINE
  5
3AC
  8
┌▓È_1
 10
-194.28362461059999
 20
114.8037760417
 30
0.0
 11
-184.0836246106
 21
125.00377604169999
 31
0.0
  0
LINE
  5
3AD
  8
┌▓È_1
 10
-188.6267703611
 20
114.8037760417
 30
0.0
 11
-178.42677036110001
 21
125.00377604169999
 31
0.0
  0
LINE
  5
3AE
  8
┌▓È_1
 10
-182.96991611160001
 20
114.8037760417
 30
0.0
 11
-172.7699161116
 21
125.00377604169999
 31
0.0
  0
LINE
  5
3AF
  8
┌▓È_1
 10
-177.3130618621
 20
114.8037760417
 30
0.0
 11
-167.1130618620999
 21
125.00377604169999
 31
0.0
  0
LINE
  5
3B0
  8
┌▓È_1
 10
-171.65620761260001
 20
114.8037760417
 30
0.0
 11
-161.4562076126
 21
125.00377604169999
 31
0.0
  0
LINE
  5
3B1
  8
┌▓È_1
 10
-165.9993533631
 20
114.8037760417
 30
0.0
 11
-155.79935336310001
 21
125.00377604169999
 31
0.0
  0
LINE
  5
3B2
  8
┌▓È_1
 10
-160.34249911360001
 20
114.8037760417
 30
0.0
 11
-150.1424991136
 21
125.00377604169999
 31
0.0
  0
LINE
  5
3B3
  8
┌▓È_1
 10
-154.68564486419999
 20
114.8037760417
 30
0.0
 11
-144.4856448642
 21
125.00377604169999
 31
0.0
  0
LINE
  5
3B4
  8
┌▓È_1
 10
-149.0287906147
 20
114.8037760417
 30
0.0
 11
-138.82879061470001
 21
125.00377604169999
 31
0.0
  0
LINE
  5
3B5
  8
┌▓È_1
 10
-143.37193636520001
 20
114.8037760417
 30
0.0
 11
-133.1719363652
 21
125.00377604169999
 31
0.0
  0
LINE
  5
3B6
  8
┌▓È_1
 10
-137.7150821157
 20
114.8037760417
 30
0.0
 11
-127.5150821157
 21
125.00377604169999
 31
0.0
  0
LINE
  5
3B7
  8
┌▓È_1
 10
-132.05822786620001
 20
114.8037760417
 30
0.0
 11
-121.8582278662
 21
125.00377604169999
 31
0.0
  0
LINE
  5
3B8
  8
┌▓È_1
 10
-126.4013736167
 20
114.8037760417
 30
0.0
 11
-116.2013736167
 21
125.00377604169999
 31
0.0
  0
LINE
  5
3B9
  8
┌▓È_1
 10
-120.7445193672
 20
114.8037760417
 30
0.0
 11
-110.5445193672
 21
125.00377604169999
 31
0.0
  0
LINE
  5
3BA
  8
┌▓È_1
 10
-115.0876651177
 20
114.8037760417
 30
0.0
 11
-104.8876651177
 21
125.00377604169999
 31
0.0
  0
LINE
  5
3BB
  8
┌▓È_1
 10
-109.4308108682
 20
114.8037760417
 30
0.0
 11
-99.230810868199995
 21
125.00377604169999
 31
0.0
  0
LINE
  5
3BC
  8
┌▓È_1
 10
-103.7739566187
 20
114.8037760417
 30
0.0
 11
-93.573956618699995
 21
125.00377604169999
 31
0.0
  0
LINE
  5
3BD
  8
┌▓È_1
 10
-98.117102369199984
 20
114.8037760417
 30
0.0
 11
-87.917102369199995
 21
125.00377604169999
 31
0.0
  0
LINE
  5
3BE
  8
┌▓È_1
 10
-92.460248119699997
 20
114.8037760417
 30
0.0
 11
-82.260248119700009
 21
125.00377604169999
 31
0.0
  0
LINE
  5
3BF
  8
┌▓È_1
 10
-86.803393870200011
 20
114.8037760417
 30
0.0
 11
-76.603393870200009
 21
125.00377604169999
 31
0.0
  0
LINE
  5
3C0
  8
┌▓È_1
 10
-81.146539620799999
 20
114.8037760417
 30
0.0
 11
-70.946539620799996
 21
125.00377604169999
 31
0.0
  0
LINE
  5
3C1
  8
┌▓È_1
 10
-75.489685371299998
 20
114.8037760417
 30
0.0
 11
-65.289685371299996
 21
125.00377604169999
 31
0.0
  0
LINE
  5
3C2
  8
┌▓È_1
 10
-69.832831121799998
 20
114.8037760417
 30
0.0
 11
-59.632831121800002
 21
125.00377604169999
 31
0.0
  0
LINE
  5
3C3
  8
┌▓È_1
 10
-64.175976872299984
 20
114.8037760417
 30
0.0
 11
-53.975976872300002
 21
125.00377604169999
 31
0.0
  0
LINE
  5
3C4
  8
┌▓È_1
 10
-58.519122622799991
 20
114.8037760417
 30
0.0
 11
-48.319122622799988
 21
125.00377604169999
 31
0.0
  0
LINE
  5
3C5
  8
┌▓È_1
 10
-52.862268373299997
 20
114.8037760417
 30
0.0
 11
-42.662268373300002
 21
125.00377604169999
 31
0.0
  0
LINE
  5
3C6
  8
┌▓È_1
 10
-47.205414123799997
 20
114.8037760417
 30
0.0
 11
-37.005414123800001
 21
125.00377604169999
 31
0.0
  0
LINE
  5
3C7
  8
┌▓È_1
 10
-41.54855987429999
 20
114.8037760417
 30
0.0
 11
-31.348559874300001
 21
125.00377604169999
 31
0.0
  0
LINE
  5
3C8
  8
┌▓È_1
 10
-35.891705624799997
 20
114.8037760417
 30
0.0
 11
-25.691705624800001
 21
125.00377604169999
 31
0.0
  0
LINE
  5
3C9
  8
┌▓È_1
 10
-30.234851375300011
 20
114.8037760417
 30
0.0
 11
-20.034851375300001
 21
125.00377604169999
 31
0.0
  0
LINE
  5
3CA
  8
┌▓È_1
 10
-24.5779971258
 20
114.8037760417
 30
0.0
 11
-14.3779971258
 21
125.00377604169999
 31
0.0
  0
LINE
  5
3CB
  8
┌▓È_1
 10
-18.921142876299999
 20
114.8037760417
 30
0.0
 11
-8.7211428763000001
 21
125.00377604169999
 31
0.0
  0
LINE
  5
3CC
  8
┌▓È_1
 10
-13.264288626800001
 20
114.8037760417
 30
0.0
 11
-3.0642886267999998
 21
125.00377604169999
 31
0.0
  0
LINE
  5
3CD
  8
┌▓È_1
 10
-7.6074343773999988
 20
114.8037760417
 30
0.0
 11
2.5925656226
 21
125.00377604169999
 31
0.0
  0
LINE
  5
3CE
  8
┌▓È_1
 10
-1.950580127899999
 20
114.8037760417
 30
0.0
 11
8.2494198721000007
 21
125.00377604169999
 31
0.0
  0
LINE
  5
3CF
  8
┌▓È_1
 10
3.7062741215999999
 20
114.8037760417
 30
0.0
 11
13.906274121599999
 21
125.00377604169999
 31
0.0
  0
LINE
  5
3D0
  8
┌▓È_1
 10
9.3631283711000002
 20
114.8037760417
 30
0.0
 11
19.563128371099999
 21
125.00377604169999
 31
0.0
  0
LINE
  5
3D1
  8
┌▓È_1
 10
15.0199826206
 20
114.8037760417
 30
0.0
 11
25.2199826206
 21
125.00377604169999
 31
0.0
  0
LINE
  5
3D2
  8
┌▓È_1
 10
20.676836870100001
 20
114.8037760417
 30
0.0
 11
29.529703509000001
 21
123.6566426806
 31
0.0
  0
LINE
  5
3D3
  8
┌▓È_1
 10
26.333691119600001
 20
114.8037760417
 30
0.0
 11
32.129112288400002
 21
120.59919721049999
 31
0.0
  0
LINE
  5
3D4
  8
┌▓È_1
 10
31.990545369100001
 20
114.8037760417
 30
0.0
 11
35.0548319281
 21
117.8680626007
 31
0.0
  0
LINE
  5
3D5
  8
┌▓È_1
 10
37.647399618599998
 20
114.8037760417
 30
0.0
 11
38.163464815399998
 21
115.3198412385
 31
0.0
  0
LINE
  5
3D6
  8
┌▓È_1
 10
50.828599491699997
 20
122.3281216653
 30
0.0
 11
53.504253868100001
 21
125.00377604169999
 31
0.0
  0
LINE
  5
3D7
  8
┌▓È_1
 10
53.466363051099989
 20
119.3090309752
 30
0.0
 11
59.161108117600001
 21
125.00377604169999
 31
0.0
  0
LINE
  5
3D8
  8
┌▓È_1
 10
56.574995938400001
 20
116.76080961309999
 30
0.0
 11
64.817962367099994
 21
125.00377604169999
 31
0.0
  0
LINE
  5
3D9
  8
┌▓È_1
 10
60.274816616599999
 20
114.8037760417
 30
0.0
 11
70.474816616599995
 21
125.00377604169999
 31
0.0
  0
LINE
  5
3DA
  8
┌▓È_1
 10
65.931670866000005
 20
114.8037760417
 30
0.0
 11
76.131670865999993
 21
125.00377604169999
 31
0.0
  0
LINE
  5
3DB
  8
┌▓È_1
 10
71.588525115500005
 20
114.8037760417
 30
0.0
 11
81.788525115500008
 21
125.00377604169999
 31
0.0
  0
LINE
  5
3DC
  8
┌▓È_1
 10
77.245379365000005
 20
114.8037760417
 30
0.0
 11
87.445379364999994
 21
125.00377604169999
 31
0.0
  0
LINE
  5
3DD
  8
┌▓È_1
 10
82.902233614499991
 20
114.8037760417
 30
0.0
 11
93.102233614500008
 21
125.00377604169999
 31
0.0
  0
LINE
  5
3DE
  8
┌▓È_1
 10
88.559087863999977
 20
114.8037760417
 30
0.0
 11
98.759087863999994
 21
125.00377604169999
 31
0.0
  0
LINE
  5
3DF
  8
┌▓È_1
 10
94.215942113500006
 20
114.8037760417
 30
0.0
 11
104.41594211349999
 21
125.00377604169999
 31
0.0
  0
LINE
  5
3E0
  8
┌▓È_1
 10
99.872796363000006
 20
114.8037760417
 30
0.0
 11
110.07279636299999
 21
125.00377604169999
 31
0.0
  0
LINE
  5
3E1
  8
┌▓È_1
 10
105.52965061250001
 20
114.8037760417
 30
0.0
 11
115.7296506125
 21
125.00377604169999
 31
0.0
  0
LINE
  5
3E2
  8
┌▓È_1
 10
111.18650486200001
 20
114.8037760417
 30
0.0
 11
121.386504862
 21
125.00377604169999
 31
0.0
  0
LINE
  5
3E3
  8
┌▓È_1
 10
116.84335911150001
 20
114.8037760417
 30
0.0
 11
127.0433591115
 21
125.00377604169999
 31
0.0
  0
LINE
  5
3E4
  8
┌▓È_1
 10
122.50021336099999
 20
114.8037760417
 30
0.0
 11
132.70021336100001
 21
125.00377604169999
 31
0.0
  0
LINE
  5
3E5
  8
┌▓È_1
 10
128.15706761050001
 20
114.8037760417
 30
0.0
 11
138.3570676105
 21
125.00377604169999
 31
0.0
  0
LINE
  5
3E6
  8
┌▓È_1
 10
133.81392185999999
 20
114.8037760417
 30
0.0
 11
144.01392186000001
 21
125.00377604169999
 31
0.0
  0
LINE
  5
3E7
  8
┌▓È_1
 10
139.47077610939999
 20
114.8037760417
 30
0.0
 11
149.67077610940001
 21
125.00377604169999
 31
0.0
  0
LINE
  5
3E8
  8
┌▓È_1
 10
145.12763035890001
 20
114.8037760417
 30
0.0
 11
155.3276303589
 21
125.00377604169999
 31
0.0
  0
LINE
  5
3E9
  8
┌▓È_1
 10
150.78448460839999
 20
114.8037760417
 30
0.0
 11
160.98448460840001
 21
125.00377604169999
 31
0.0
  0
LINE
  5
3EA
  8
┌▓È_1
 10
156.44133885790001
 20
114.8037760417
 30
0.0
 11
166.6413388579
 21
125.00377604169999
 31
0.0
  0
LINE
  5
3EB
  8
┌▓È_1
 10
162.09819310739999
 20
114.8037760417
 30
0.0
 11
172.29819310740001
 21
125.00377604169999
 31
0.0
  0
LINE
  5
3EC
  8
┌▓È_1
 10
167.75504735690001
 20
114.8037760417
 30
0.0
 11
177.9550473569
 21
125.00377604169999
 31
0.0
  0
LINE
  5
3ED
  8
┌▓È_1
 10
173.41190160639999
 20
114.8037760417
 30
0.0
 11
183.61190160640001
 21
125.00377604169999
 31
0.0
  0
LINE
  5
3EE
  8
┌▓È_1
 10
179.06875585590001
 20
114.8037760417
 30
0.0
 11
189.2687558559
 21
125.00377604169999
 31
0.0
  0
LINE
  5
3EF
  8
┌▓È_1
 10
184.72561010539999
 20
114.8037760417
 30
0.0
 11
194.92561010540001
 21
125.00377604169999
 31
0.0
  0
LINE
  5
3F0
  8
┌▓È_1
 10
190.38246435490001
 20
114.8037760417
 30
0.0
 11
200.5824643549
 21
125.00377604169999
 31
0.0
  0
LINE
  5
3F1
  8
┌▓È_1
 10
196.03931860439999
 20
114.8037760417
 30
0.0
 11
206.23931860440001
 21
125.00377604169999
 31
0.0
  0
LINE
  5
3F2
  8
┌▓È_1
 10
201.69617285390001
 20
114.8037760417
 30
0.0
 11
211.8961728539
 21
125.00377604169999
 31
0.0
  0
LINE
  5
3F3
  8
┌▓È_1
 10
207.3530271034
 20
114.8037760417
 30
0.0
 11
217.55302710340001
 21
125.00377604169999
 31
0.0
  0
LINE
  5
3F4
  8
┌▓È_1
 10
213.00988135279999
 20
114.8037760417
 30
0.0
 11
223.20988135280001
 21
125.00377604169999
 31
0.0
  0
LINE
  5
3F5
  8
┌▓È_1
 10
218.66673560230001
 20
114.8037760417
 30
0.0
 11
228.8667356023
 21
125.00377604169999
 31
0.0
  0
LINE
  5
3F6
  8
┌▓È_1
 10
224.32358985179999
 20
114.8037760417
 30
0.0
 11
234.52358985180001
 21
125.00377604169999
 31
0.0
  0
LINE
  5
3F7
  8
┌▓È_1
 10
229.98044410130001
 20
114.8037760417
 30
0.0
 11
240.1804441013
 21
125.00377604169999
 31
0.0
  0
LINE
  5
3F8
  8
┌▓È_1
 10
235.63729835079999
 20
114.8037760417
 30
0.0
 11
245.83729835080001
 21
125.00377604169999
 31
0.0
  0
LINE
  5
3F9
  8
┌▓È_1
 10
241.29415260030001
 20
114.8037760417
 30
0.0
 11
251.4941526003
 21
125.00377604169999
 31
0.0
  0
LINE
  5
3FA
  8
┌▓È_1
 10
246.9510068498
 20
114.8037760417
 30
0.0
 11
257.15100684980001
 21
125.00377604169999
 31
0.0
  0
LINE
  5
3FB
  8
┌▓È_1
 10
252.60786109930001
 20
114.8037760417
 30
0.0
 11
262.8078610993
 21
125.00377604169999
 31
0.0
  0
LINE
  5
3FC
  8
┌▓È_1
 10
258.2647153488
 20
114.8037760417
 30
0.0
 11
268.46471534879998
 21
125.00377604169999
 31
0.0
  0
LINE
  5
3FD
  8
┌▓È_1
 10
263.9215695983001
 20
114.8037760417
 30
0.0
 11
274.12156959830003
 21
125.00377604169999
 31
0.0
  0
LINE
  5
3FE
  8
┌▓È_1
 10
269.57842384780002
 20
114.8037760417
 30
0.0
 11
279.77842384780001
 21
125.00377604169999
 31
0.0
  0
LINE
  5
3FF
  8
┌▓È_1
 10
275.23527809730001
 20
114.8037760417
 30
0.0
 11
285.4352780973
 21
125.00377604169999
 31
0.0
  0
LINE
  5
400
  8
┌▓È_1
 10
280.8921323468
 20
114.8037760417
 30
0.0
 11
291.09213234679999
 21
125.00377604169999
 31
0.0
  0
LINE
  5
401
  8
┌▓È_1
 10
286.5489865962
 20
114.8037760417
 30
0.0
 11
296.74898659619998
 21
125.00377604169999
 31
0.0
  0
LINE
  5
402
  8
┌▓È_1
 10
292.20584084569998
 20
114.8037760417
 30
0.0
 11
302.40584084570003
 21
125.00377604169999
 31
0.0
  0
LINE
  5
403
  8
┌▓È_1
 10
297.86269509520002
 20
114.8037760417
 30
0.0
 11
308.06269509520001
 21
125.00377604169999
 31
0.0
  0
LINE
  5
404
  8
┌▓È_1
 10
303.51954934470001
 20
114.8037760417
 30
0.0
 11
313.7195493447
 21
125.00377604169999
 31
0.0
  0
LINE
  5
405
  8
┌▓È_1
 10
309.1764035942
 20
114.8037760417
 30
0.0
 11
319.37640359419999
 21
125.00377604169999
 31
0.0
  0
LINE
  5
406
  8
┌▓È_1
 10
314.83325784369998
 20
114.8037760417
 30
0.0
 11
325.03325784370003
 21
125.00377604169999
 31
0.0
  0
LINE
  5
407
  8
┌▓È_1
 10
320.49011209320003
 20
114.8037760417
 30
0.0
 11
330.69011209320001
 21
125.00377604169999
 31
0.0
  0
LINE
  5
408
  8
┌▓È_1
 10
326.14696634270001
 20
114.8037760417
 30
0.0
 11
336.3469663427
 21
125.00377604169999
 31
0.0
  0
LINE
  5
409
  8
┌▓È_1
 10
331.8038205922
 20
114.8037760417
 30
0.0
 11
337.45911458329999
 21
120.4590700328
 31
0.0
  0
LINE
  5
40A
  8
┌▓È_1
 10
-240.6528034337
 20
114.8037760417
 30
0.0
 11
-242.54088541670001
 21
116.6918580247
 31
0.0
  0
LINE
  5
40B
  8
┌▓È_1
 10
-234.99594918419999
 20
114.8037760417
 30
0.0
 11
-242.54088541670001
 21
122.3487122742
 31
0.0
  0
LINE
  5
40C
  8
┌▓È_1
 10
-229.3390949347
 20
114.8037760417
 30
0.0
 11
-239.53909493469999
 21
125.00377604169999
 31
0.0
  0
LINE
  5
40D
  8
┌▓È_1
 10
-223.68224068519999
 20
114.8037760417
 30
0.0
 11
-233.8822406852
 21
125.00377604169999
 31
0.0
  0
LINE
  5
40E
  8
┌▓È_1
 10
-218.0253864357
 20
114.8037760417
 30
0.0
 11
-228.22538643569999
 21
125.00377604169999
 31
0.0
  0
LINE
  5
40F
  8
┌▓È_1
 10
-212.36853218620001
 20
114.8037760417
 30
0.0
 11
-222.5685321862
 21
125.00377604169999
 31
0.0
  0
LINE
  5
410
  8
┌▓È_1
 10
-206.7116779367
 20
114.8037760417
 30
0.0
 11
-216.91167793669999
 21
125.00377604169999
 31
0.0
  0
LINE
  5
411
  8
┌▓È_1
 10
-201.05482368720001
 20
114.8037760417
 30
0.0
 11
-211.2548236872
 21
125.00377604169999
 31
0.0
  0
LINE
  5
412
  8
┌▓È_1
 10
-195.3979694377
 20
114.8037760417
 30
0.0
 11
-205.59796943769999
 21
125.00377604169999
 31
0.0
  0
LINE
  5
413
  8
┌▓È_1
 10
-189.74111518820001
 20
114.8037760417
 30
0.0
 11
-199.9411151882
 21
125.00377604169999
 31
0.0
  0
LINE
  5
414
  8
┌▓È_1
 10
-184.0842609387
 20
114.8037760417
 30
0.0
 11
-194.28426093869999
 21
125.00377604169999
 31
0.0
  0
LINE
  5
415
  8
┌▓È_1
 10
-178.4274066893
 20
114.8037760417
 30
0.0
 11
-188.62740668929999
 21
125.00377604169999
 31
0.0
  0
LINE
  5
416
  8
┌▓È_1
 10
-172.77055243980001
 20
114.8037760417
 30
0.0
 11
-182.9705524398
 21
125.00377604169999
 31
0.0
  0
LINE
  5
417
  8
┌▓È_1
 10
-167.1136981903
 20
114.8037760417
 30
0.0
 11
-177.31369819029999
 21
125.00377604169999
 31
0.0
  0
LINE
  5
418
  8
┌▓È_1
 10
-161.45684394080001
 20
114.8037760417
 30
0.0
 11
-171.6568439408
 21
125.00377604169999
 31
0.0
  0
LINE
  5
419
  8
┌▓È_1
 10
-155.7999896913
 20
114.8037760417
 30
0.0
 11
-165.99998969129999
 21
125.00377604169999
 31
0.0
  0
LINE
  5
41A
  8
┌▓È_1
 10
-150.14313544180001
 20
114.8037760417
 30
0.0
 11
-160.3431354418
 21
125.00377604169999
 31
0.0
  0
LINE
  5
41B
  8
┌▓È_1
 10
-144.4862811923
 20
114.8037760417
 30
0.0
 11
-154.68628119229999
 21
125.00377604169999
 31
0.0
  0
LINE
  5
41C
  8
┌▓È_1
 10
-138.82942694280001
 20
114.8037760417
 30
0.0
 11
-149.0294269428
 21
125.00377604169999
 31
0.0
  0
LINE
  5
41D
  8
┌▓È_1
 10
-133.1725726933
 20
114.8037760417
 30
0.0
 11
-143.37257269329999
 21
125.00377604169999
 31
0.0
  0
LINE
  5
41E
  8
┌▓È_1
 10
-127.5157184438
 20
114.8037760417
 30
0.0
 11
-137.7157184438
 21
125.00377604169999
 31
0.0
  0
LINE
  5
41F
  8
┌▓È_1
 10
-121.8588641943
 20
114.8037760417
 30
0.0
 11
-132.05886419430001
 21
125.00377604169999
 31
0.0
  0
LINE
  5
420
  8
┌▓È_1
 10
-116.2020099448
 20
114.8037760417
 30
0.0
 11
-126.4020099448
 21
125.00377604169999
 31
0.0
  0
LINE
  5
421
  8
┌▓È_1
 10
-110.5451556953
 20
114.8037760417
 30
0.0
 11
-120.7451556953
 21
125.00377604169999
 31
0.0
  0
LINE
  5
422
  8
┌▓È_1
 10
-104.8883014459
 20
114.8037760417
 30
0.0
 11
-115.0883014459
 21
125.00377604169999
 31
0.0
  0
LINE
  5
423
  8
┌▓È_1
 10
-99.231447196399984
 20
114.8037760417
 30
0.0
 11
-109.4314471964
 21
125.00377604169999
 31
0.0
  0
LINE
  5
424
  8
┌▓È_1
 10
-93.574592946899998
 20
114.8037760417
 30
0.0
 11
-103.7745929469
 21
125.00377604169999
 31
0.0
  0
LINE
  5
425
  8
┌▓È_1
 10
-87.917738697399997
 20
114.8037760417
 30
0.0
 11
-98.117738697400014
 21
125.00377604169999
 31
0.0
  0
LINE
  5
426
  8
┌▓È_1
 10
-82.260884447899997
 20
114.8037760417
 30
0.0
 11
-92.460884447900014
 21
125.00377604169999
 31
0.0
  0
LINE
  5
427
  8
┌▓È_1
 10
-76.604030198399997
 20
114.8037760417
 30
0.0
 11
-86.804030198399985
 21
125.00377604169999
 31
0.0
  0
LINE
  5
428
  8
┌▓È_1
 10
-70.947175948899996
 20
114.8037760417
 30
0.0
 11
-81.147175948899999
 21
125.00377604169999
 31
0.0
  0
LINE
  5
429
  8
┌▓È_1
 10
-65.290321699399996
 20
114.8037760417
 30
0.0
 11
-75.490321699399999
 21
125.00377604169999
 31
0.0
  0
LINE
  5
42A
  8
┌▓È_1
 10
-59.633467449899989
 20
114.8037760417
 30
0.0
 11
-69.833467449899999
 21
125.00377604169999
 31
0.0
  0
LINE
  5
42B
  8
┌▓È_1
 10
-53.976613200400003
 20
114.8037760417
 30
0.0
 11
-64.176613200399999
 21
125.00377604169999
 31
0.0
  0
LINE
  5
42C
  8
┌▓È_1
 10
-48.319758950900003
 20
114.8037760417
 30
0.0
 11
-58.519758950899991
 21
125.00377604169999
 31
0.0
  0
LINE
  5
42D
  8
┌▓È_1
 10
-42.662904701399988
 20
114.8037760417
 30
0.0
 11
-52.862904701399998
 21
125.00377604169999
 31
0.0
  0
LINE
  5
42E
  8
┌▓È_1
 10
-37.006050451900002
 20
114.8037760417
 30
0.0
 11
-47.206050451899998
 21
125.00377604169999
 31
0.0
  0
LINE
  5
42F
  8
┌▓È_1
 10
-31.3491962025
 20
114.8037760417
 30
0.0
 11
-41.549196202499999
 21
125.00377604169999
 31
0.0
  0
LINE
  5
430
  8
┌▓È_1
 10
-25.692341953
 20
114.8037760417
 30
0.0
 11
-35.892341952999999
 21
125.00377604169999
 31
0.0
  0
LINE
  5
431
  8
┌▓È_1
 10
-20.035487703499999
 20
114.8037760417
 30
0.0
 11
-30.235487703499999
 21
125.00377604169999
 31
0.0
  0
LINE
  5
432
  8
┌▓È_1
 10
-14.378633453999999
 20
114.8037760417
 30
0.0
 11
-24.578633453999998
 21
125.00377604169999
 31
0.0
  0
LINE
  5
433
  8
┌▓È_1
 10
-8.7217792045000007
 20
114.8037760417
 30
0.0
 11
-18.921779204500002
 21
125.00377604169999
 31
0.0
  0
LINE
  5
434
  8
┌▓È_1
 10
-3.0649249549999991
 20
114.8037760417
 30
0.0
 11
-13.264924955
 21
125.00377604169999
 31
0.0
  0
LINE
  5
435
  8
┌▓È_1
 10
2.591929294499999
 20
114.8037760417
 30
0.0
 11
-7.6080707054999994
 21
125.00377604169999
 31
0.0
  0
LINE
  5
436
  8
┌▓È_1
 10
8.2487835440000001
 20
114.8037760417
 30
0.0
 11
-1.951216456
 21
125.00377604169999
 31
0.0
  0
LINE
  5
437
  8
┌▓È_1
 10
13.9056377935
 20
114.8037760417
 30
0.0
 11
3.7056377935000002
 21
125.00377604169999
 31
0.0
  0
LINE
  5
438
  8
┌▓È_1
 10
19.562492042999999
 20
114.8037760417
 30
0.0
 11
9.3624920429999996
 21
125.00377604169999
 31
0.0
  0
LINE
  5
439
  8
┌▓È_1
 10
25.219346292499999
 20
114.8037760417
 30
0.0
 11
15.0193462925
 21
125.00377604169999
 31
0.0
  0
LINE
  5
43A
  8
┌▓È_1
 10
30.876200541999999
 20
114.8037760417
 30
0.0
 11
20.676200542
 21
125.00377604169999
 31
0.0
  0
LINE
  5
43B
  8
┌▓È_1
 10
36.5330547915
 20
114.8037760417
 30
0.0
 11
26.3330547915
 21
125.00377604169999
 31
0.0
  0
LINE
  5
43C
  8
┌▓È_1
 10
59.160471789399999
 20
114.8037760417
 30
0.0
 11
48.960471789399989
 21
125.00377604169999
 31
0.0
  0
LINE
  5
43D
  8
┌▓È_1
 10
64.817326038900006
 20
114.8037760417
 30
0.0
 11
54.617326038900003
 21
125.00377604169999
 31
0.0
  0
LINE
  5
43E
  8
┌▓È_1
 10
70.474180288400007
 20
114.8037760417
 30
0.0
 11
60.274180288399997
 21
125.00377604169999
 31
0.0
  0
LINE
  5
43F
  8
┌▓È_1
 10
76.131034537899993
 20
114.8037760417
 30
0.0
 11
65.931034537900004
 21
125.00377604169999
 31
0.0
  0
LINE
  5
440
  8
┌▓È_1
 10
81.787888787399979
 20
114.8037760417
 30
0.0
 11
71.587888787400004
 21
125.00377604169999
 31
0.0
  0
LINE
  5
441
  8
┌▓È_1
 10
87.444743036900007
 20
114.8037760417
 30
0.0
 11
77.24474303689999
 21
125.00377604169999
 31
0.0
  0
LINE
  5
442
  8
┌▓È_1
 10
93.101597286399993
 20
114.8037760417
 30
0.0
 11
82.901597286400005
 21
125.00377604169999
 31
0.0
  0
LINE
  5
443
  8
┌▓È_1
 10
98.758451535900008
 20
114.8037760417
 30
0.0
 11
88.558451535900005
 21
125.00377604169999
 31
0.0
  0
LINE
  5
444
  8
┌▓È_1
 10
104.41530578539999
 20
114.8037760417
 30
0.0
 11
94.215305785400005
 21
125.00377604169999
 31
0.0
  0
LINE
  5
445
  8
┌▓È_1
 10
110.07216003489999
 20
114.8037760417
 30
0.0
 11
99.872160034899991
 21
125.00377604169999
 31
0.0
  0
LINE
  5
446
  8
┌▓È_1
 10
115.72901428439999
 20
114.8037760417
 30
0.0
 11
105.52901428440001
 21
125.00377604169999
 31
0.0
  0
LINE
  5
447
  8
┌▓È_1
 10
121.38586853379999
 20
114.8037760417
 30
0.0
 11
111.1858685338
 21
125.00377604169999
 31
0.0
  0
LINE
  5
448
  8
┌▓È_1
 10
127.04272278329999
 20
114.8037760417
 30
0.0
 11
116.8427227833
 21
125.00377604169999
 31
0.0
  0
LINE
  5
449
  8
┌▓È_1
 10
132.69957703279999
 20
114.8037760417
 30
0.0
 11
122.4995770328
 21
125.00377604169999
 31
0.0
  0
LINE
  5
44A
  8
┌▓È_1
 10
138.35643128230001
 20
114.8037760417
 30
0.0
 11
128.15643128229999
 21
125.00377604169999
 31
0.0
  0
LINE
  5
44B
  8
┌▓È_1
 10
144.01328553179999
 20
114.8037760417
 30
0.0
 11
133.81328553180001
 21
125.00377604169999
 31
0.0
  0
LINE
  5
44C
  8
┌▓È_1
 10
149.67013978130001
 20
114.8037760417
 30
0.0
 11
139.47013978129999
 21
125.00377604169999
 31
0.0
  0
LINE
  5
44D
  8
┌▓È_1
 10
155.32699403079999
 20
114.8037760417
 30
0.0
 11
145.12699403080001
 21
125.00377604169999
 31
0.0
  0
LINE
  5
44E
  8
┌▓È_1
 10
160.98384828030001
 20
114.8037760417
 30
0.0
 11
150.78384828029999
 21
125.00377604169999
 31
0.0
  0
LINE
  5
44F
  8
┌▓È_1
 10
166.6407025298
 20
114.8037760417
 30
0.0
 11
156.44070252980001
 21
125.00377604169999
 31
0.0
  0
LINE
  5
450
  8
┌▓È_1
 10
172.29755677930001
 20
114.8037760417
 30
0.0
 11
162.09755677929999
 21
125.00377604169999
 31
0.0
  0
LINE
  5
451
  8
┌▓È_1
 10
177.9544110288
 20
114.8037760417
 30
0.0
 11
167.75441102880001
 21
125.00377604169999
 31
0.0
  0
LINE
  5
452
  8
┌▓È_1
 10
183.61126527830001
 20
114.8037760417
 30
0.0
 11
173.41126527829999
 21
125.00377604169999
 31
0.0
  0
LINE
  5
453
  8
┌▓È_1
 10
189.2681195278
 20
114.8037760417
 30
0.0
 11
179.06811952780001
 21
125.00377604169999
 31
0.0
  0
LINE
  5
454
  8
┌▓È_1
 10
194.92497377719999
 20
114.8037760417
 30
0.0
 11
184.72497377720001
 21
125.00377604169999
 31
0.0
  0
LINE
  5
455
  8
┌▓È_1
 10
200.58182802670001
 20
114.8037760417
 30
0.0
 11
190.38182802669999
 21
125.00377604169999
 31
0.0
  0
LINE
  5
456
  8
┌▓È_1
 10
206.2386822762
 20
114.8037760417
 30
0.0
 11
196.03868227620001
 21
125.00377604169999
 31
0.0
  0
LINE
  5
457
  8
┌▓È_1
 10
211.89553652570001
 20
114.8037760417
 30
0.0
 11
201.69553652569999
 21
125.00377604169999
 31
0.0
  0
LINE
  5
458
  8
┌▓È_1
 10
217.5523907752
 20
114.8037760417
 30
0.0
 11
207.35239077520001
 21
125.00377604169999
 31
0.0
  0
LINE
  5
459
  8
┌▓È_1
 10
223.20924502470001
 20
114.8037760417
 30
0.0
 11
213.00924502469999
 21
125.00377604169999
 31
0.0
  0
LINE
  5
45A
  8
┌▓È_1
 10
228.8660992742
 20
114.8037760417
 30
0.0
 11
218.66609927420001
 21
125.00377604169999
 31
0.0
  0
LINE
  5
45B
  8
┌▓È_1
 10
234.52295352370001
 20
114.8037760417
 30
0.0
 11
224.32295352369999
 21
125.00377604169999
 31
0.0
  0
LINE
  5
45C
  8
┌▓È_1
 10
240.1798077732
 20
114.8037760417
 30
0.0
 11
229.97980777320001
 21
125.00377604169999
 31
0.0
  0
LINE
  5
45D
  8
┌▓È_1
 10
245.83666202270001
 20
114.8037760417
 30
0.0
 11
235.63666202269999
 21
125.00377604169999
 31
0.0
  0
LINE
  5
45E
  8
┌▓È_1
 10
251.4935162722
 20
114.8037760417
 30
0.0
 11
241.29351627220001
 21
125.00377604169999
 31
0.0
  0
LINE
  5
45F
  8
┌▓È_1
 10
257.15037052169998
 20
114.8037760417
 30
0.0
 11
246.95037052169999
 21
125.00377604169999
 31
0.0
  0
LINE
  5
460
  8
┌▓È_1
 10
262.80722477120003
 20
114.8037760417
 30
0.0
 11
252.60722477120001
 21
125.00377604169999
 31
0.0
  0
LINE
  5
461
  8
┌▓È_1
 10
268.46407902060002
 20
114.8037760417
 30
0.0
 11
258.26407902059998
 21
125.00377604169999
 31
0.0
  0
LINE
  5
462
  8
┌▓È_1
 10
274.12093327010001
 20
114.8037760417
 30
0.0
 11
263.92093327010002
 21
125.00377604169999
 31
0.0
  0
LINE
  5
463
  8
┌▓È_1
 10
279.7777875196
 20
114.8037760417
 30
0.0
 11
269.57778751960001
 21
125.00377604169999
 31
0.0
  0
LINE
  5
464
  8
┌▓È_1
 10
285.43464176909998
 20
114.8037760417
 30
0.0
 11
275.23464176909999
 21
125.00377604169999
 31
0.0
  0
LINE
  5
465
  8
┌▓È_1
 10
291.09149601860003
 20
114.8037760417
 30
0.0
 11
280.89149601859998
 21
125.00377604169999
 31
0.0
  0
LINE
  5
466
  8
┌▓È_1
 10
296.74835026810001
 20
114.8037760417
 30
0.0
 11
286.54835026810002
 21
125.00377604169999
 31
0.0
  0
LINE
  5
467
  8
┌▓È_1
 10
302.4052045176
 20
114.8037760417
 30
0.0
 11
292.20520451760001
 21
125.00377604169999
 31
0.0
  0
LINE
  5
468
  8
┌▓È_1
 10
308.06205876709998
 20
114.8037760417
 30
0.0
 11
297.8620587671
 21
125.00377604169999
 31
0.0
  0
LINE
  5
469
  8
┌▓È_1
 10
313.71891301660003
 20
114.8037760417
 30
0.0
 11
303.51891301659998
 21
125.00377604169999
 31
0.0
  0
LINE
  5
46A
  8
┌▓È_1
 10
319.37576726610001
 20
114.8037760417
 30
0.0
 11
309.17576726610002
 21
125.00377604169999
 31
0.0
  0
LINE
  5
46B
  8
┌▓È_1
 10
325.0326215156
 20
114.8037760417
 30
0.0
 11
314.83262151560001
 21
125.00377604169999
 31
0.0
  0
LINE
  5
46C
  8
┌▓È_1
 10
330.68947576509998
 20
114.8037760417
 30
0.0
 11
320.4894757651
 21
125.00377604169999
 31
0.0
  0
LINE
  5
46D
  8
┌▓È_1
 10
336.34633001460003
 20
114.8037760417
 30
0.0
 11
326.14633001459998
 21
125.00377604169999
 31
0.0
  0
LINE
  5
46E
  8
┌▓È_1
 10
337.45911458329999
 20
119.3478457224
 30
0.0
 11
331.80318426399998
 21
125.00377604169999
 31
0.0
  0
ENDBLK
  5
46F
  8
0
  0
BLOCK
  8
0
  2
CLUMP10
 70
     0
 10
0.0
 20
0.0
 30
0.0
  3
CLUMP10
  1

  0
INSERT
  5
473
  8
0
  6
CONTINUOUS
  2
*U52
 10
0.0
 20
0.0
 30
0.0
  0
LINE
  5
474
  8
É}ÿg
 10
142.85703125000001
 20
-193.85989583329999
 30
0.0
 11
142.85703125000001
 21
-153.85989583329999
 31
0.0
  0
LINE
  5
475
  8
É}ÿg
 10
162.85703125000001
 20
-193.85989583329999
 30
0.0
 11
162.85703125000001
 21
-153.85989583329999
 31
0.0
  0
LINE
  5
476
  8
É}ÿg
 10
262.85703124999998
 20
-193.85989583329999
 30
0.0
 11
262.85703124999998
 21
-153.85989583329999
 31
0.0
  0
LINE
  5
477
  8
É}ÿg
 10
362.85703124999998
 20
-193.85989583329999
 30
0.0
 11
362.85703124999998
 21
-153.85989583329999
 31
0.0
  0
LINE
  5
478
  8
É}ÿg
 10
432.85703124999998
 20
-153.85989583329999
 30
0.0
 11
142.85703125000001
 21
-153.85989583329999
 31
0.0
  0
LINE
  5
479
  8
É}ÿg
 10
432.85703124999998
 20
-163.85989583329999
 30
0.0
 11
142.85703125000001
 21
-163.85989583329999
 31
0.0
  0
LINE
  5
47A
  8
É}ÿg
 10
432.85703124999998
 20
-173.85989583329999
 30
0.0
 11
142.85703125000001
 21
-173.85989583329999
 31
0.0
  0
INSERT
  5
47B
  8
0
  6
CONTINUOUS
  2
*U53
 10
0.0
 20
0.0
 30
0.0
  0
INSERT
  5
47C
  8
0
  6
CONTINUOUS
  2
*U54
 10
0.0
 20
0.0
 30
0.0
  0
INSERT
  5
47D
  8
0
  6
CONTINUOUS
  2
*U55
 10
0.0
 20
0.0
 30
0.0
  0
LINE
  5
47E
  8
É}ÿg
 10
432.85703124999998
 20
-183.85989583329999
 30
0.0
 11
142.85703125000001
 21
-183.85989583329999
 31
0.0
  0
LINE
  5
47F
  8
É}ÿg
 10
221.17832422660001
 20
-286.70654989960002
 30
0.0
 11
221.17832422660001
 21
-289.70654989959991
 31
0.0
  0
LINE
  5
480
  8
É}ÿg
 10
235.17832422660001
 20
-282.70654989960002
 30
0.0
 11
238.17832422660001
 21
-279.70654989959991
 31
0.0
  0
LINE
  5
481
  8
É}ÿg
 10
230.17832422660001
 20
-286.70654989960002
 30
0.0
 11
230.17832422660001
 21
-287.70654989960002
 31
0.0
  0
LINE
  5
482
  8
É}ÿg
 10
230.17832422660001
 20
-279.70654989959991
 30
0.0
 11
230.17832422660001
 21
-283.70654989960002
 31
0.0
  0
LINE
  5
483
  8
É}ÿg
 10
221.17832422660001
 20
-279.70654989959991
 30
0.0
 11
221.17832422660001
 21
-283.70654989960002
 31
0.0
  0
LINE
  5
484
  8
É}ÿg
 10
276.59643035639999
 20
-283.1065498996
 30
0.0
 11
276.30364185600001
 21
-282.08909211859998
 31
0.0
  0
LINE
  5
485
  8
É}ÿg
 10
261.49953634780002
 20
-279.70654989959991
 30
0.0
 11
243.49953634779999
 21
-279.70654989959991
 31
0.0
  0
LINE
  5
486
  8
É}ÿg
 10
243.49953634779999
 20
-290.70654989960002
 30
0.0
 11
243.49953634779999
 21
-293.70654989960002
 31
0.0
  0
LINE
  5
487
  8
É}ÿg
 10
278.09280714070002
 20
-288.30654989959999
 30
0.0
 11
283.93450164439997
 21
-288.30654989959999
 31
0.0
  0
LINE
  5
488
  8
É}ÿg
 10
221.17832422660001
 20
-289.70654989959991
 30
0.0
 11
226.17832422660001
 21
-289.70654989959991
 31
0.0
  0
LINE
  5
489
  8
É}ÿg
 10
252.57216133119999
 20
-286.74469170980001
 30
0.0
 11
252.09096971849999
 21
-287.27616843089999
 31
0.0
  0
LINE
  5
48A
  8
É}ÿg
 10
238.17832422660001
 20
-283.70654989960002
 30
0.0
 11
238.17832422660001
 21
-286.70654989960002
 31
0.0
  0
LINE
  5
48B
  8
É}ÿg
 10
238.17832422660001
 20
-279.70654989959991
 30
0.0
 11
230.17832422660001
 21
-279.70654989959991
 31
0.0
  0
LINE
  5
48C
  8
É}ÿg
 10
279.93450164439997
 20
-294.70654989960002
 30
0.0
 11
279.12876029900002
 21
-291.90654989960001
 31
0.0
  0
LINE
  5
48D
  8
É}ÿg
 10
432.85703124999998
 20
-231.85989583329999
 30
0.0
 11
142.85703125000001
 21
-231.85989583329999
 31
0.0
  0
LINE
  5
48E
  8
É}ÿg
 10
432.85703124999998
 20
-217.85989583329999
 30
0.0
 11
142.85703125000001
 21
-217.85989583329999
 31
0.0
  0
LINE
  5
48F
  8
É}ÿg
 10
192.85703125000001
 20
-231.85989583329999
 30
0.0
 11
192.85703125000001
 21
-253.85989583329999
 31
0.0
  0
LINE
  5
490
  8
É}ÿg
 10
147.85703125000001
 20
-242.85989583329999
 30
0.0
 11
187.85703125000001
 21
-242.85989583329999
 31
0.0
  0
LINE
  5
491
  8
É}ÿg
 10
226.17832422660001
 20
-283.70654989960002
 30
0.0
 11
226.17832422660001
 21
-282.70654989960002
 31
0.0
  0
LINE
  5
492
  8
É}ÿg
 10
257.22497505199999
 20
-289.40481231749999
 30
0.0
 11
256.86877093240003
 21
-289.7535686059
 31
0.0
  0
LINE
  5
493
  8
É}ÿg
 10
292.85703124999998
 20
-231.85989583329999
 30
0.0
 11
292.85703124999998
 21
-297.85989583330002
 31
0.0
  0
LINE
  5
494
  8
É}ÿg
 10
235.17832422660001
 20
-283.70654989960002
 30
0.0
 11
235.17832422660001
 21
-282.70654989960002
 31
0.0
  0
LINE
  5
495
  8
É}ÿg
 10
222.85703125000001
 20
-264.85989583330002
 30
0.0
 11
287.85703124999998
 21
-264.85989583330002
 31
0.0
  0
LINE
  5
496
  8
É}ÿg
 10
147.85703125000001
 20
-264.85989583330002
 30
0.0
 11
212.85703125000001
 21
-264.85989583330002
 31
0.0
  0
LINE
  5
497
  8
É}ÿg
 10
142.85703125000001
 20
-275.85989583330002
 30
0.0
 11
432.85703124999998
 21
-275.85989583330002
 31
0.0
  0
LINE
  5
498
  8
É}ÿg
 10
142.85703125000001
 20
-231.85989583329999
 30
0.0
 11
142.85703125000001
 21
-297.85989583330002
 31
0.0
  0
LINE
  5
499
  8
É}ÿg
 10
226.17832422660001
 20
-286.70654989960002
 30
0.0
 11
230.17832422660001
 21
-286.70654989960002
 31
0.0
  0
ARC
  5
49A
  8
É}ÿg
 10
248.49953634779999
 20
-282.70654989960002
 30
0.0
 40
11.0
 50
270.0
 51
302.54495885400001
  0
LINE
  5
49B
  8
É}ÿg
 10
274.33450164440001
 20
-294.70654989960002
 30
0.0
 11
273.51316831100002
 21
-291.90654989960001
 31
0.0
  0
LINE
  5
49C
  8
É}ÿg
 10
283.93450164439997
 20
-283.1065498996
 30
0.0
 11
283.93450164439997
 21
-286.70654989960002
 31
0.0
  0
LINE
  5
49D
  8
É}ÿg
 10
265.93450164439997
 20
-286.70654989960002
 30
0.0
 11
271.9878349777
 21
-286.70654989960002
 31
0.0
  0
LINE
  5
49E
  8
É}ÿg
 10
238.17832422660001
 20
-283.70654989960002
 30
0.0
 11
235.17832422660001
 21
-283.70654989960002
 31
0.0
  0
LINE
  5
49F
  8
É}ÿg
 10
279.12876029900002
 20
-291.90654989960001
 30
0.0
 11
283.93450164439997
 21
-291.90654989960001
 31
0.0
  0
LINE
  5
4A0
  8
É}ÿg
 10
218.87611660350001
 20
-286.70654989960002
 30
0.0
 11
220.87611660350001
 21
-286.70654989960002
 31
0.0
  0
ARC
  5
4A1
  8
É}ÿg
 10
248.49953634779999
 20
-282.70654989960002
 30
0.0
 40
11.0
 50
322.48761197969998
 51
0.0
  0
LINE
  5
4A2
  8
É}ÿg
 10
217.85703125000001
 20
-253.85989583329999
 30
0.0
 11
217.85703125000001
 21
-275.85989583330002
 31
0.0
  0
LINE
  5
4A3
  8
É}ÿg
 10
197.85703125000001
 20
-242.85989583329999
 30
0.0
 11
237.85703125000001
 21
-242.85989583329999
 31
0.0
  0
LINE
  5
4A4
  8
É}ÿg
 10
242.85703125000001
 20
-231.85989583329999
 30
0.0
 11
242.85703125000001
 21
-253.85989583329999
 31
0.0
  0
LINE
  5
4A5
  8
É}ÿg
 10
142.85703125000001
 20
-253.85989583329999
 30
0.0
 11
432.85703124999998
 21
-253.85989583329999
 31
0.0
  0
LINE
  5
4A6
  8
É}ÿg
 10
265.93450164439997
 20
-283.1065498996
 30
0.0
 11
270.93183497770002
 21
-283.1065498996
 31
0.0
  0
LINE
  5
4A7
  8
É}ÿg
 10
218.87611660350001
 20
-283.70654989960002
 30
0.0
 11
218.87611660350001
 21
-286.70654989960002
 31
0.0
  0
LINE
  5
4A8
  8
É}ÿg
 10
432.85703124999998
 20
-203.85989583329999
 30
0.0
 11
142.85703125000001
 21
-203.85989583329999
 31
0.0
  0
LINE
  5
4A9
  8
É}ÿg
 10
243.49953634779999
 20
-284.35077043450002
 30
0.0
 11
251.49953634779999
 21
-284.35077043450002
 31
0.0
  0
ARC
  5
4AA
  8
É}ÿg
 10
245.89953634779999
 20
-283.1065498996
 30
0.0
 40
7.5999999999999988
 50
270.0
 51
298.08590481520002
  0
LINE
  5
4AB
  8
É}ÿg
 10
277.63238351479998
 20
-286.70654989960002
 30
0.0
 11
283.93450164439997
 21
-286.70654989960002
 31
0.0
  0
LINE
  5
4AC
  8
É}ÿg
 10
251.49953634779999
 20
-284.35077043450002
 30
0.0
 11
250.36816549790001
 21
-285.48214128439997
 31
0.0
  0
LINE
  5
4AD
  8
É}ÿg
 10
243.49953634779999
 20
-284.99499096950001
 30
0.0
 11
243.49953634779999
 21
-284.35077043450002
 31
0.0
  0
LINE
  5
4AE
  8
É}ÿg
 10
243.49953634779999
 20
-293.70654989960002
 30
0.0
 11
248.49953634779999
 21
-293.70654989960002
 31
0.0
  0
LINE
  5
4AF
  8
É}ÿg
 10
243.49953634779999
 20
-279.70654989959991
 30
0.0
 11
243.49953634779999
 21
-283.30654989959999
 31
0.0
  0
ARC
  5
4B0
  8
É}ÿg
 10
229.17832422660001
 20
-287.70654989960002
 30
0.0
 40
6.0
 50
270.0
 51
0.0
  0
LINE
  5
4B1
  8
É}ÿg
 10
270.93183497770002
 20
-283.1065498996
 30
0.0
 11
269.93450164439997
 21
-279.70654989959991
 31
0.0
  0
LINE
  5
4B2
  8
É}ÿg
 10
265.93450164439997
 20
-288.30654989959999
 30
0.0
 11
272.45716831099998
 21
-288.30654989959999
 31
0.0
  0
LINE
  5
4B3
  8
É}ÿg
 10
278.09280714070002
 20
-288.30654989959999
 30
0.0
 11
277.63238351479998
 21
-286.70654989960002
 31
0.0
  0
LINE
  5
4B4
  8
É}ÿg
 10
276.59643035639999
 20
-283.1065498996
 30
0.0
 11
283.93450164439997
 21
-283.1065498996
 31
0.0
  0
LINE
  5
4B5
  8
É}ÿg
 10
235.17832422660001
 20
-287.70654989960002
 30
0.0
 11
235.17832422660001
 21
-286.70654989960002
 31
0.0
  0
LINE
  5
4B6
  8
É}ÿg
 10
265.93450164439997
 20
-283.1065498996
 30
0.0
 11
265.93450164439997
 21
-286.70654989960002
 31
0.0
  0
LINE
  5
4B7
  8
É}ÿg
 10
230.17832422660001
 20
-283.70654989960002
 30
0.0
 11
226.17832422660001
 21
-283.70654989960002
 31
0.0
  0
LINE
  5
4B8
  8
É}ÿg
 10
221.17832422660001
 20
-286.70654989960002
 30
0.0
 11
220.87611660350001
 21
-286.70654989960002
 31
0.0
  0
LINE
  5
4B9
  8
É}ÿg
 10
221.17832422660001
 20
-290.70654989960002
 30
0.0
 11
221.17832422660001
 21
-293.70654989960002
 31
0.0
  0
ARC
  5
4BA
  8
É}ÿg
 10
245.89953634779999
 20
-283.1065498996
 30
0.0
 40
7.5999999999999988
 50
331.39928138329998
 51
358.49204224580001
  0
LINE
  5
4BB
  8
É}ÿg
 10
235.17832422660001
 20
-286.70654989960002
 30
0.0
 11
238.17832422660001
 21
-286.70654989960002
 31
0.0
  0
INSERT
  5
4BC
  8
0
  6
CONTINUOUS
  2
*U56
 10
0.0
 20
0.0
 30
0.0
  0
LINE
  5
4BD
  8
É}ÿg
 10
259.49953634780002
 20
-282.70654989960002
 30
0.0
 11
261.49953634780002
 21
-279.70654989959991
 31
0.0
  0
LINE
  5
4BE
  8
É}ÿg
 10
276.30364185600001
 20
-282.08909211859998
 30
0.0
 11
277.93450164439997
 21
-279.70654989959991
 31
0.0
  0
LINE
  5
4BF
  8
É}ÿg
 10
243.49953634779999
 20
-293.70654989960002
 30
0.0
 11
243.49953634779999
 21
-290.70654989960002
 31
0.0
  0
LINE
  5
4C0
  8
É}ÿg
 10
243.49953634779999
 20
-290.70654989960002
 30
0.0
 11
245.89953634779999
 21
-290.70654989960002
 31
0.0
  0
LINE
  5
4C1
  8
É}ÿg
 10
269.93450164439997
 20
-279.70654989959991
 30
0.0
 11
277.93450164439997
 21
-279.70654989959991
 31
0.0
  0
LINE
  5
4C2
  8
É}ÿg
 10
221.17832422660001
 20
-283.70654989960002
 30
0.0
 11
218.87611660350001
 21
-283.70654989960002
 31
0.0
  0
LINE
  5
4C3
  8
É}ÿg
 10
270.62886627339998
 20
-240.45989583330001
 30
0.0
 11
270.62886627339998
 21
-245.25989583329999
 31
0.0
  0
LINE
  5
4C4
  8
É}ÿg
 10
280.2288662734
 20
-238.0598958333
 30
0.0
 11
280.2288662734
 21
-247.6598958333
 31
0.0
  0
LINE
  5
4C5
  8
É}ÿg
 10
272.45716831099998
 20
-288.30654989959999
 30
0.0
 11
271.9878349777
 21
-286.70654989960002
 31
0.0
  0
LINE
  5
4C6
  8
É}ÿg
 10
221.17832422660001
 20
-293.70654989960002
 30
0.0
 11
229.17832422660001
 21
-293.70654989960002
 31
0.0
  0
LINE
  5
4C7
  8
É}ÿg
 10
265.93450164439997
 20
-291.90654989960001
 30
0.0
 11
273.51316831100002
 21
-291.90654989960001
 31
0.0
  0
ARC
  5
4C8
  8
É}ÿg
 10
227.17832422660001
 20
-287.70654989960002
 30
0.0
 40
3.0
 50
270.0
 51
0.0
  0
LINE
  5
4C9
  8
É}ÿg
 10
265.93450164439997
 20
-288.30654989959999
 30
0.0
 11
265.93450164439997
 21
-291.90654989960001
 31
0.0
  0
LINE
  5
4CA
  8
É}ÿg
 10
279.93450164439997
 20
-294.70654989960002
 30
0.0
 11
274.33450164440001
 21
-294.70654989960002
 31
0.0
  0
LINE
  5
4CB
  8
É}ÿg
 10
259.49953634780002
 20
-282.70654989960002
 30
0.0
 11
261.49953634780002
 21
-279.70654989959991
 31
0.0
  0
LINE
  5
4CC
  8
É}ÿg
 10
283.93450164439997
 20
-288.30654989959999
 30
0.0
 11
283.93450164439997
 21
-291.90654989960001
 31
0.0
  0
LINE
  5
4CD
  8
É}ÿg
 10
261.49953634780002
 20
-290.70654989960002
 30
0.0
 11
261.49953634780002
 21
-293.70654989960002
 31
0.0
  0
LINE
  5
4CE
  8
É}ÿg
 10
226.17832422660001
 20
-289.70654989959991
 30
0.0
 11
226.17832422660001
 21
-286.70654989960002
 31
0.0
  0
LINE
  5
4CF
  8
É}ÿg
 10
192.85703125000001
 20
-231.85989583329999
 30
0.0
 11
192.85703125000001
 21
-203.85989583329999
 31
0.0
  0
LINE
  5
4D0
  8
É}ÿg
 10
229.17832422660001
 20
-279.70654989959991
 30
0.0
 11
221.17832422660001
 21
-279.70654989959991
 31
0.0
  0
LINE
  5
4D1
  8
É}ÿg
 10
226.17832422660001
 20
-282.70654989960002
 30
0.0
 11
229.17832422660001
 21
-279.70654989959991
 31
0.0
  0
LINE
  5
4D2
  8
É}ÿg
 10
227.17832422660001
 20
-290.70654989960002
 30
0.0
 11
221.17832422660001
 21
-290.70654989960002
 31
0.0
  0
LINE
  5
4D3
  8
É}ÿg
 10
243.49953634779999
 20
-283.30654989959999
 30
0.0
 11
253.49953634779999
 21
-283.30654989959999
 31
0.0
  0
LINE
  5
4D4
  8
É}ÿg
  6
BORDER
 10
259.65703124999999
 20
-235.6598958333
 30
0.0
 11
259.65703124999999
 21
-250.0598958333
 31
0.0
  0
LINE
  5
4D5
  8
É}ÿg
  6
BORDER
 10
252.45703125
 20
-242.85989583329999
 30
0.0
 11
283.25703125000001
 21
-242.85989583329999
 31
0.0
  0
CIRCLE
  5
4D6
  8
É}ÿg
 10
259.65703124999999
 20
-242.85989583329999
 30
0.0
 40
2.399999999999999
  0
LINE
  5
4D7
  8
É}ÿg
 10
142.85703125000001
 20
-203.85989583329999
 30
0.0
 11
142.85703125000001
 21
-231.85989583329999
 31
0.0
  0
INSERT
  5
4D8
  8
0
  6
CONTINUOUS
  2
*U57
 10
0.0
 20
0.0
 30
0.0
  0
INSERT
  5
4D9
  8
0
  6
CONTINUOUS
  2
*U58
 10
0.0
 20
0.0
 30
0.0
  0
INSERT
  5
4DA
  8
0
  6
CONTINUOUS
  2
*U59
 10
0.0
 20
0.0
 30
0.0
  0
INSERT
  5
4DB
  8
0
  6
CONTINUOUS
  2
*U60
 10
0.0
 20
0.0
 30
0.0
  0
INSERT
  5
4DC
  8
0
  6
CONTINUOUS
  2
*U61
 10
0.0
 20
0.0
 30
0.0
  0
INSERT
  5
4DD
  8
0
  6
CONTINUOUS
  2
*U62
 10
0.0
 20
0.0
 30
0.0
  0
LINE
  5
4DE
  8
É}ÿg
 62
     5
 10
432.85703124999998
 20
-297.85989583330002
 30
0.0
 11
432.85703124999998
 21
262.14010416669998
 31
0.0
  0
LINE
  5
4DF
  8
É}ÿg
 62
     5
 10
432.85703124999998
 20
-297.85989583330002
 30
0.0
 11
-367.14296875000002
 21
-297.85989583330002
 31
0.0
  0
INSERT
  5
4E0
  8
0
  6
CONTINUOUS
  2
*U63
 10
0.0
 20
0.0
 30
0.0
  0
LINE
  5
4E1
  8
É}ÿg
 62
     5
 10
-367.14296875000002
 20
-297.85989583330002
 30
0.0
 11
-367.14296875000002
 21
262.14010416669998
 31
0.0
  0
LINE
  5
4E2
  8
É}ÿg
  6
DOT
 10
-377.10296875
 20
-306.3198958333
 30
0.0
 11
-377.10296875
 21
270.60010416670002
 31
0.0
  0
LINE
  5
4E3
  8
É}ÿg
  6
DOT
 10
-377.10296875
 20
-306.3198958333
 30
0.0
 11
442.8170312499999
 21
-306.3198958333
 31
0.0
  0
LINE
  5
4E4
  8
É}ÿg
  6
DOT
 10
442.8170312499999
 20
270.60010416670002
 30
0.0
 11
-377.10296875
 21
270.60010416670002
 31
0.0
  0
LINE
  5
4E5
  8
É}ÿg
  6
DOT
 10
442.8170312499999
 20
-306.3198958333
 30
0.0
 11
442.8170312499999
 21
270.60010416670002
 31
0.0
  0
LINE
  5
4E6
  8
É}ÿg
 62
     5
 10
432.85703124999998
 20
262.14010416669998
 30
0.0
 11
-367.14296875000002
 21
262.14010416669998
 31
0.0
  0
LINE
  5
4E7
  8
É}ÿg
 62
     5
 10
292.85703124999998
 20
232.14010416670001
 30
0.0
 11
292.85703124999998
 21
262.14010416669998
 31
0.0
  0
INSERT
  5
4E8
  8
0
  6
CONTINUOUS
  2
*U64
 10
0.0
 20
0.0
 30
0.0
  0
INSERT
  5
4E9
  8
0
  6
CONTINUOUS
  2
*U65
 10
0.0
 20
0.0
 30
0.0
  0
INSERT
  5
4EA
  8
0
  6
CONTINUOUS
  2
*U66
 10
0.0
 20
0.0
 30
0.0
  0
LINE
  5
4EB
  8
É}ÿg
 62
     5
 10
392.85703124999998
 20
232.14010416670001
 30
0.0
 11
392.85703124999998
 21
262.14010416669998
 31
0.0
  0
INSERT
  5
4EC
  8
0
  6
CONTINUOUS
  2
*U67
 10
0.0
 20
0.0
 30
0.0
  0
INSERT
  5
4ED
  8
0
  6
CONTINUOUS
  2
*U68
 10
0.0
 20
0.0
 30
0.0
  0
LINE
  5
4EE
  8
É}ÿg
 62
     5
 10
260.85703124999998
 20
232.14010416670001
 30
0.0
 11
260.85703124999998
 21
262.14010416669998
 31
0.0
  0
LINE
  5
4EF
  8
É}ÿg
 62
     5
 10
247.33846047789999
 20
243.00168766869999
 30
0.0
 11
257.23846047789999
 21
243.00168766869999
 31
0.0
  0
LINE
  5
4F0
  8
É}ÿg
 62
     5
 10
252.2884604779
 20
251.57533916610001
 30
0.0
 11
257.23846047789999
 21
243.00168766869999
 31
0.0
  0
LINE
  5
4F1
  8
É}ÿg
 62
     5
 10
252.2884604779
 20
251.57533916610001
 30
0.0
 11
247.33846047789999
 21
243.00168766869999
 31
0.0
  0
LINE
  5
4F2
  8
É}ÿg
 62
     5
 10
252.2884604779
 20
241.6753391661
 30
0.0
 11
247.33846047789999
 21
233.10168766870001
 31
0.0
  0
LINE
  5
4F3
  8
É}ÿg
 62
     5
 10
252.2884604779
 20
241.6753391661
 30
0.0
 11
257.23846047789999
 21
233.10168766870001
 31
0.0
  0
INSERT
  5
4F4
  8
0
  6
CONTINUOUS
  2
*U69
 10
0.0
 20
0.0
 30
0.0
  0
INSERT
  5
4F5
  8
0
  6
CONTINUOUS
  2
*U70
 10
0.0
 20
0.0
 30
0.0
  0
INSERT
  5
4F6
  8
0
  6
CONTINUOUS
  2
*U71
 10
0.0
 20
0.0
 30
0.0
  0
LINE
  5
4F7
  8
É}ÿg
 62
     5
 10
247.33846047789999
 20
233.10168766870001
 30
0.0
 11
257.23846047789999
 21
233.10168766870001
 31
0.0
  0
LINE
  5
4F8
  8
É}ÿg
 62
     5
 10
244.85703125000001
 20
232.14010416670001
 30
0.0
 11
244.85703125000001
 21
262.14010416669998
 31
0.0
  0
LINE
  5
4F9
  8
É}ÿg
 62
     5
 10
412.85703124999992
 20
232.14010416670001
 30
0.0
 11
412.85703124999992
 21
262.14010416669998
 31
0.0
  0
LINE
  5
4FA
  8
É}ÿg
 62
     5
 10
244.85703125000001
 20
252.14010416670001
 30
0.0
 11
432.85703124999998
 21
252.14010416670001
 31
0.0
  0
LINE
  5
4FB
  8
É}ÿg
 62
     5
 10
244.85703125000001
 20
242.14010416670001
 30
0.0
 11
432.85703124999998
 21
242.14010416670001
 31
0.0
  0
LINE
  5
4FC
  8
É}ÿg
 62
     5
 10
244.85703125000001
 20
232.14010416670001
 30
0.0
 11
432.85703124999998
 21
232.14010416670001
 31
0.0
  0
INSERT
  5
4FD
  8
0
  6
CONTINUOUS
  2
*U72
 10
0.0
 20
0.0
 30
0.0
  0
LINE
  5
4FE
  8
É}ÿg
 10
270.62886627339998
 20
-240.45989583330001
 30
0.0
 11
280.2288662734
 21
-238.0598958333
 31
0.0
  0
LINE
  5
4FF
  8
É}ÿg
 10
270.62886627339998
 20
-245.25989583329999
 30
0.0
 11
280.2288662734
 21
-247.6598958333
 31
0.0
  0
LINE
  5
500
  8
É}ÿg
 10
432.85703124999998
 20
-193.85989583329999
 30
0.0
 11
142.85703125000001
 21
-193.85989583329999
 31
0.0
  0
POLYLINE
  8
É}ÿg
  5
8D9
  66
     1
 10
0.000000
 20
0.000000
 30
0.000000
  70
     8
  0
VERTEX
  8
É}ÿg
  5
8DA
 10
254.417
 20
-291.979
 30
0.000000
  70
    32
  0
VERTEX
  8
É}ÿg
  5
8DB
 10
254.471
 20
-291.996
 30
0.000000
  70
    32
  0
VERTEX
  8
É}ÿg
  5
8DC
 10
254.525
 20
-292.013
 30
0.000000
  70
    32
  0
VERTEX
  8
É}ÿg
  5
8DD
 10
254.579
 20
-292.030
 30
0.000000
  70
    32
  0
VERTEX
  8
É}ÿg
  5
8DE
 10
254.633
 20
-292.047
 30
0.000000
  70
    32
  0
VERTEX
  8
É}ÿg
  5
8DF
 10
254.687
 20
-292.064
 30
0.000000
  70
    32
  0
VERTEX
  8
É}ÿg
  5
8E0
 10
254.741
 20
-292.081
 30
0.000000
  70
    32
  0
VERTEX
  8
É}ÿg
  5
8E1
 10
254.795
 20
-292.098
 30
0.000000
  70
    32
  0
VERTEX
  8
É}ÿg
  5
8E2
 10
254.849
 20
-292.114
 30
0.000000
  70
    32
  0
VERTEX
  8
É}ÿg
  5
8E3
 10
254.903
 20
-292.131
 30
0.000000
  70
    32
  0
VERTEX
  8
É}ÿg
  5
8E4
 10
254.958
 20
-292.147
 30
0.000000
  70
    32
  0
VERTEX
  8
É}ÿg
  5
8E5
 10
255.012
 20
-292.164
 30
0.000000
  70
    32
  0
VERTEX
  8
É}ÿg
  5
8E6
 10
255.066
 20
-292.180
 30
0.000000
  70
    32
  0
VERTEX
  8
É}ÿg
  5
8E7
 10
255.120
 20
-292.196
 30
0.000000
  70
    32
  0
VERTEX
  8
É}ÿg
  5
8E8
 10
255.175
 20
-292.212
 30
0.000000
  70
    32
  0
VERTEX
  8
É}ÿg
  5
8E9
 10
255.229
 20
-292.228
 30
0.000000
  70
    32
  0
VERTEX
  8
É}ÿg
  5
8EA
 10
255.284
 20
-292.244
 30
0.000000
  70
    32
  0
VERTEX
  8
É}ÿg
  5
8EB
 10
255.338
 20
-292.260
 30
0.000000
  70
    32
  0
VERTEX
  8
É}ÿg
  5
8EC
 10
255.393
 20
-292.276
 30
0.000000
  70
    32
  0
VERTEX
  8
É}ÿg
  5
8ED
 10
255.448
 20
-292.292
 30
0.000000
  70
    32
  0
VERTEX
  8
É}ÿg
  5
8EE
 10
255.502
 20
-292.307
 30
0.000000
  70
    32
  0
VERTEX
  8
É}ÿg
  5
8EF
 10
255.557
 20
-292.323
 30
0.000000
  70
    32
  0
VERTEX
  8
É}ÿg
  5
8F0
 10
255.612
 20
-292.338
 30
0.000000
  70
    32
  0
VERTEX
  8
É}ÿg
  5
8F1
 10
255.666
 20
-292.354
 30
0.000000
  70
    32
  0
VERTEX
  8
É}ÿg
  5
8F2
 10
255.721
 20
-292.369
 30
0.000000
  70
    32
  0
VERTEX
  8
É}ÿg
  5
8F3
 10
255.776
 20
-292.385
 30
0.000000
  70
    32
  0
VERTEX
  8
É}ÿg
  5
8F4
 10
255.831
 20
-292.400
 30
0.000000
  70
    32
  0
VERTEX
  8
É}ÿg
  5
8F5
 10
255.886
 20
-292.415
 30
0.000000
  70
    32
  0
VERTEX
  8
É}ÿg
  5
8F6
 10
255.941
 20
-292.430
 30
0.000000
  70
    32
  0
VERTEX
  8
É}ÿg
  5
8F7
 10
255.996
 20
-292.445
 30
0.000000
  70
    32
  0
VERTEX
  8
É}ÿg
  5
8F8
 10
256.051
 20
-292.460
 30
0.000000
  70
    32
  0
VERTEX
  8
É}ÿg
  5
8F9
 10
256.106
 20
-292.475
 30
0.000000
  70
    32
  0
VERTEX
  8
É}ÿg
  5
8FA
 10
256.161
 20
-292.490
 30
0.000000
  70
    32
  0
VERTEX
  8
É}ÿg
  5
8FB
 10
256.216
 20
-292.505
 30
0.000000
  70
    32
  0
VERTEX
  8
É}ÿg
  5
8FC
 10
256.271
 20
-292.519
 30
0.000000
  70
    32
  0
VERTEX
  8
É}ÿg
  5
8FD
 10
256.326
 20
-292.534
 30
0.000000
  70
    32
  0
VERTEX
  8
É}ÿg
  5
8FE
 10
256.382
 20
-292.549
 30
0.000000
  70
    32
  0
VERTEX
  8
É}ÿg
  5
8FF
 10
256.437
 20
-292.563
 30
0.000000
  70
    32
  0
VERTEX
  8
É}ÿg
  5
900
 10
256.492
 20
-292.578
 30
0.000000
  70
    32
  0
VERTEX
  8
É}ÿg
  5
901
 10
256.547
 20
-292.592
 30
0.000000
  70
    32
  0
VERTEX
  8
É}ÿg
  5
902
 10
256.603
 20
-292.607
 30
0.000000
  70
    32
  0
VERTEX
  8
É}ÿg
  5
903
 10
256.658
 20
-292.621
 30
0.000000
  70
    32
  0
VERTEX
  8
É}ÿg
  5
904
 10
256.714
 20
-292.635
 30
0.000000
  70
    32
  0
VERTEX
  8
É}ÿg
  5
905
 10
256.769
 20
-292.649
 30
0.000000
  70
    32
  0
VERTEX
  8
É}ÿg
  5
906
 10
256.824
 20
-292.663
 30
0.000000
  70
    32
  0
VERTEX
  8
É}ÿg
  5
907
 10
256.880
 20
-292.678
 30
0.000000
  70
    32
  0
VERTEX
  8
É}ÿg
  5
908
 10
256.935
 20
-292.692
 30
0.000000
  70
    32
  0
VERTEX
  8
É}ÿg
  5
909
 10
256.991
 20
-292.706
 30
0.000000
  70
    32
  0
VERTEX
  8
É}ÿg
  5
90A
 10
257.047
 20
-292.719
 30
0.000000
  70
    32
  0
VERTEX
  8
É}ÿg
  5
90B
 10
257.102
 20
-292.733
 30
0.000000
  70
    32
  0
VERTEX
  8
É}ÿg
  5
90C
 10
257.158
 20
-292.747
 30
0.000000
  70
    32
  0
VERTEX
  8
É}ÿg
  5
90D
 10
257.214
 20
-292.761
 30
0.000000
  70
    32
  0
VERTEX
  8
É}ÿg
  5
90E
 10
257.269
 20
-292.775
 30
0.000000
  70
    32
  0
VERTEX
  8
É}ÿg
  5
90F
 10
257.325
 20
-292.788
 30
0.000000
  70
    32
  0
VERTEX
  8
É}ÿg
  5
910
 10
257.381
 20
-292.802
 30
0.000000
  70
    32
  0
VERTEX
  8
É}ÿg
  5
911
 10
257.437
 20
-292.815
 30
0.000000
  70
    32
  0
VERTEX
  8
É}ÿg
  5
912
 10
257.492
 20
-292.829
 30
0.000000
  70
    32
  0
VERTEX
  8
É}ÿg
  5
913
 10
257.548
 20
-292.842
 30
0.000000
  70
    32
  0
VERTEX
  8
É}ÿg
  5
914
 10
257.604
 20
-292.856
 30
0.000000
  70
    32
  0
VERTEX
  8
É}ÿg
  5
915
 10
257.660
 20
-292.869
 30
0.000000
  70
    32
  0
VERTEX
  8
É}ÿg
  5
916
 10
257.716
 20
-292.883
 30
0.000000
  70
    32
  0
VERTEX
  8
É}ÿg
  5
917
 10
257.772
 20
-292.896
 30
0.000000
  70
    32
  0
VERTEX
  8
É}ÿg
  5
918
 10
257.828
 20
-292.909
 30
0.000000
  70
    32
  0
VERTEX
  8
É}ÿg
  5
919
 10
257.884
 20
-292.922
 30
0.000000
  70
    32
  0
VERTEX
  8
É}ÿg
  5
91A
 10
257.940
 20
-292.935
 30
0.000000
  70
    32
  0
VERTEX
  8
É}ÿg
  5
91B
 10
257.996
 20
-292.949
 30
0.000000
  70
    32
  0
VERTEX
  8
É}ÿg
  5
91C
 10
258.052
 20
-292.962
 30
0.000000
  70
    32
  0
VERTEX
  8
É}ÿg
  5
91D
 10
258.108
 20
-292.975
 30
0.000000
  70
    32
  0
VERTEX
  8
É}ÿg
  5
91E
 10
258.164
 20
-292.988
 30
0.000000
  70
    32
  0
VERTEX
  8
É}ÿg
  5
91F
 10
258.220
 20
-293.001
 30
0.000000
  70
    32
  0
VERTEX
  8
É}ÿg
  5
920
 10
258.276
 20
-293.013
 30
0.000000
  70
    32
  0
VERTEX
  8
É}ÿg
  5
921
 10
258.333
 20
-293.026
 30
0.000000
  70
    32
  0
VERTEX
  8
É}ÿg
  5
922
 10
258.389
 20
-293.039
 30
0.000000
  70
    32
  0
VERTEX
  8
É}ÿg
  5
923
 10
258.445
 20
-293.052
 30
0.000000
  70
    32
  0
VERTEX
  8
É}ÿg
  5
924
 10
258.501
 20
-293.065
 30
0.000000
  70
    32
  0
VERTEX
  8
É}ÿg
  5
925
 10
258.557
 20
-293.077
 30
0.000000
  70
    32
  0
VERTEX
  8
É}ÿg
  5
926
 10
258.614
 20
-293.090
 30
0.000000
  70
    32
  0
VERTEX
  8
É}ÿg
  5
927
 10
258.670
 20
-293.103
 30
0.000000
  70
    32
  0
VERTEX
  8
É}ÿg
  5
928
 10
258.726
 20
-293.115
 30
0.000000
  70
    32
  0
VERTEX
  8
É}ÿg
  5
929
 10
258.783
 20
-293.128
 30
0.000000
  70
    32
  0
VERTEX
  8
É}ÿg
  5
92A
 10
258.839
 20
-293.141
 30
0.000000
  70
    32
  0
VERTEX
  8
É}ÿg
  5
92B
 10
258.895
 20
-293.153
 30
0.000000
  70
    32
  0
VERTEX
  8
É}ÿg
  5
92C
 10
258.952
 20
-293.166
 30
0.000000
  70
    32
  0
VERTEX
  8
É}ÿg
  5
92D
 10
259.008
 20
-293.178
 30
0.000000
  70
    32
  0
VERTEX
  8
É}ÿg
  5
92E
 10
259.064
 20
-293.190
 30
0.000000
  70
    32
  0
VERTEX
  8
É}ÿg
  5
92F
 10
259.121
 20
-293.203
 30
0.000000
  70
    32
  0
VERTEX
  8
É}ÿg
  5
930
 10
259.177
 20
-293.215
 30
0.000000
  70
    32
  0
VERTEX
  8
É}ÿg
  5
931
 10
259.234
 20
-293.228
 30
0.000000
  70
    32
  0
VERTEX
  8
É}ÿg
  5
932
 10
259.290
 20
-293.240
 30
0.000000
  70
    32
  0
VERTEX
  8
É}ÿg
  5
933
 10
259.347
 20
-293.252
 30
0.000000
  70
    32
  0
VERTEX
  8
É}ÿg
  5
934
 10
259.403
 20
-293.264
 30
0.000000
  70
    32
  0
VERTEX
  8
É}ÿg
  5
935
 10
259.460
 20
-293.277
 30
0.000000
  70
    32
  0
VERTEX
  8
É}ÿg
  5
936
 10
259.516
 20
-293.289
 30
0.000000
  70
    32
  0
VERTEX
  8
É}ÿg
  5
937
 10
259.573
 20
-293.301
 30
0.000000
  70
    32
  0
VERTEX
  8
É}ÿg
  5
938
 10
259.629
 20
-293.313
 30
0.000000
  70
    32
  0
VERTEX
  8
É}ÿg
  5
939
 10
259.686
 20
-293.325
 30
0.000000
  70
    32
  0
VERTEX
  8
É}ÿg
  5
93A
 10
259.742
 20
-293.338
 30
0.000000
  70
    32
  0
VERTEX
  8
É}ÿg
  5
93B
 10
259.799
 20
-293.350
 30
0.000000
  70
    32
  0
VERTEX
  8
É}ÿg
  5
93C
 10
259.855
 20
-293.362
 30
0.000000
  70
    32
  0
VERTEX
  8
É}ÿg
  5
93D
 10
259.912
 20
-293.374
 30
0.000000
  70
    32
  0
VERTEX
  8
É}ÿg
  5
93E
 10
259.969
 20
-293.386
 30
0.000000
  70
    32
  0
VERTEX
  8
É}ÿg
  5
93F
 10
260.025
 20
-293.398
 30
0.000000
  70
    32
  0
VERTEX
  8
É}ÿg
  5
940
 10
260.082
 20
-293.410
 30
0.000000
  70
    32
  0
VERTEX
  8
É}ÿg
  5
941
 10
260.139
 20
-293.422
 30
0.000000
  70
    32
  0
VERTEX
  8
É}ÿg
  5
942
 10
260.195
 20
-293.434
 30
0.000000
  70
    32
  0
VERTEX
  8
É}ÿg
  5
943
 10
260.252
 20
-293.446
 30
0.000000
  70
    32
  0
VERTEX
  8
É}ÿg
  5
944
 10
260.308
 20
-293.458
 30
0.000000
  70
    32
  0
VERTEX
  8
É}ÿg
  5
945
 10
260.365
 20
-293.470
 30
0.000000
  70
    32
  0
VERTEX
  8
É}ÿg
  5
946
 10
260.422
 20
-293.482
 30
0.000000
  70
    32
  0
VERTEX
  8
É}ÿg
  5
947
 10
260.479
 20
-293.494
 30
0.000000
  70
    32
  0
VERTEX
  8
É}ÿg
  5
948
 10
260.535
 20
-293.505
 30
0.000000
  70
    32
  0
VERTEX
  8
É}ÿg
  5
949
 10
260.592
 20
-293.517
 30
0.000000
  70
    32
  0
VERTEX
  8
É}ÿg
  5
94A
 10
260.649
 20
-293.529
 30
0.000000
  70
    32
  0
VERTEX
  8
É}ÿg
  5
94B
 10
260.705
 20
-293.541
 30
0.000000
  70
    32
  0
VERTEX
  8
É}ÿg
  5
94C
 10
260.762
 20
-293.553
 30
0.000000
  70
    32
  0
VERTEX
  8
É}ÿg
  5
94D
 10
260.819
 20
-293.565
 30
0.000000
  70
    32
  0
VERTEX
  8
É}ÿg
  5
94E
 10
260.875
 20
-293.577
 30
0.000000
  70
    32
  0
VERTEX
  8
É}ÿg
  5
94F
 10
260.932
 20
-293.588
 30
0.000000
  70
    32
  0
VERTEX
  8
É}ÿg
  5
950
 10
260.989
 20
-293.600
 30
0.000000
  70
    32
  0
VERTEX
  8
É}ÿg
  5
951
 10
261.046
 20
-293.612
 30
0.000000
  70
    32
  0
VERTEX
  8
É}ÿg
  5
952
 10
261.102
 20
-293.624
 30
0.000000
  70
    32
  0
VERTEX
  8
É}ÿg
  5
953
 10
261.159
 20
-293.636
 30
0.000000
  70
    32
  0
VERTEX
  8
É}ÿg
  5
954
 10
261.216
 20
-293.648
 30
0.000000
  70
    32
  0
VERTEX
  8
É}ÿg
  5
955
 10
261.273
 20
-293.659
 30
0.000000
  70
    32
  0
VERTEX
  8
É}ÿg
  5
956
 10
261.329
 20
-293.671
 30
0.000000
  70
    32
  0
VERTEX
  8
É}ÿg
  5
957
 10
261.386
 20
-293.683
 30
0.000000
  70
    32
  0
VERTEX
  8
É}ÿg
  5
958
 10
261.443
 20
-293.695
 30
0.000000
  70
    32
  0
VERTEX
  8
É}ÿg
  5
959
 10
261.500
 20
-293.707
 30
0.000000
  70
    32
  0
SEQEND
  8
É}ÿg
  5
95A
  0
POLYLINE
  8
É}ÿg
  5
95B
  66
     1
 10
0.000000
 20
0.000000
 30
0.000000
  70
     8
  0
VERTEX
  8
É}ÿg
  5
95C
 10
243.500
 20
-284.995
 30
0.000000
  70
    32
  0
VERTEX
  8
É}ÿg
  5
95D
 10
243.536
 20
-285.028
 30
0.000000
  70
    32
  0
VERTEX
  8
É}ÿg
  5
95E
 10
243.572
 20
-285.061
 30
0.000000
  70
    32
  0
VERTEX
  8
É}ÿg
  5
95F
 10
243.608
 20
-285.095
 30
0.000000
  70
    32
  0
VERTEX
  8
É}ÿg
  5
960
 10
243.644
 20
-285.128
 30
0.000000
  70
    32
  0
VERTEX
  8
É}ÿg
  5
961
 10
243.680
 20
-285.161
 30
0.000000
  70
    32
  0
VERTEX
  8
É}ÿg
  5
962
 10
243.716
 20
-285.194
 30
0.000000
  70
    32
  0
VERTEX
  8
É}ÿg
  5
963
 10
243.752
 20
-285.227
 30
0.000000
  70
    32
  0
VERTEX
  8
É}ÿg
  5
964
 10
243.788
 20
-285.261
 30
0.000000
  70
    32
  0
VERTEX
  8
É}ÿg
  5
965
 10
243.824
 20
-285.294
 30
0.000000
  70
    32
  0
VERTEX
  8
É}ÿg
  5
966
 10
243.860
 20
-285.327
 30
0.000000
  70
    32
  0
VERTEX
  8
É}ÿg
  5
967
 10
243.896
 20
-285.360
 30
0.000000
  70
    32
  0
VERTEX
  8
É}ÿg
  5
968
 10
243.932
 20
-285.393
 30
0.000000
  70
    32
  0
VERTEX
  8
É}ÿg
  5
969
 10
243.968
 20
-285.426
 30
0.000000
  70
    32
  0
VERTEX
  8
É}ÿg
  5
96A
 10
244.004
 20
-285.460
 30
0.000000
  70
    32
  0
VERTEX
  8
É}ÿg
  5
96B
 10
244.040
 20
-285.493
 30
0.000000
  70
    32
  0
VERTEX
  8
É}ÿg
  5
96C
 10
244.076
 20
-285.526
 30
0.000000
  70
    32
  0
VERTEX
  8
É}ÿg
  5
96D
 10
244.112
 20
-285.559
 30
0.000000
  70
    32
  0
VERTEX
  8
É}ÿg
  5
96E
 10
244.148
 20
-285.592
 30
0.000000
  70
    32
  0
VERTEX
  8
É}ÿg
  5
96F
 10
244.184
 20
-285.625
 30
0.000000
  70
    32
  0
VERTEX
  8
É}ÿg
  5
970
 10
244.220
 20
-285.658
 30
0.000000
  70
    32
  0
VERTEX
  8
É}ÿg
  5
971
 10
244.257
 20
-285.691
 30
0.000000
  70
    32
  0
VERTEX
  8
É}ÿg
  5
972
 10
244.293
 20
-285.724
 30
0.000000
  70
    32
  0
VERTEX
  8
É}ÿg
  5
973
 10
244.329
 20
-285.757
 30
0.000000
  70
    32
  0
VERTEX
  8
É}ÿg
  5
974
 10
244.365
 20
-285.790
 30
0.000000
  70
    32
  0
VERTEX
  8
É}ÿg
  5
975
 10
244.401
 20
-285.823
 30
0.000000
  70
    32
  0
VERTEX
  8
É}ÿg
  5
976
 10
244.437
 20
-285.856
 30
0.000000
  70
    32
  0
VERTEX
  8
É}ÿg
  5
977
 10
244.473
 20
-285.889
 30
0.000000
  70
    32
  0
VERTEX
  8
É}ÿg
  5
978
 10
244.510
 20
-285.922
 30
0.000000
  70
    32
  0
VERTEX
  8
É}ÿg
  5
979
 10
244.546
 20
-285.955
 30
0.000000
  70
    32
  0
VERTEX
  8
É}ÿg
  5
97A
 10
244.582
 20
-285.988
 30
0.000000
  70
    32
  0
VERTEX
  8
É}ÿg
  5
97B
 10
244.618
 20
-286.021
 30
0.000000
  70
    32
  0
VERTEX
  8
É}ÿg
  5
97C
 10
244.654
 20
-286.054
 30
0.000000
  70
    32
  0
VERTEX
  8
É}ÿg
  5
97D
 10
244.691
 20
-286.087
 30
0.000000
  70
    32
  0
VERTEX
  8
É}ÿg
  5
97E
 10
244.727
 20
-286.119
 30
0.000000
  70
    32
  0
VERTEX
  8
É}ÿg
  5
97F
 10
244.763
 20
-286.152
 30
0.000000
  70
    32
  0
VERTEX
  8
É}ÿg
  5
980
 10
244.799
 20
-286.185
 30
0.000000
  70
    32
  0
VERTEX
  8
É}ÿg
  5
981
 10
244.836
 20
-286.218
 30
0.000000
  70
    32
  0
VERTEX
  8
É}ÿg
  5
982
 10
244.872
 20
-286.250
 30
0.000000
  70
    32
  0
VERTEX
  8
É}ÿg
  5
983
 10
244.908
 20
-286.283
 30
0.000000
  70
    32
  0
VERTEX
  8
É}ÿg
  5
984
 10
244.944
 20
-286.316
 30
0.000000
  70
    32
  0
VERTEX
  8
É}ÿg
  5
985
 10
244.981
 20
-286.348
 30
0.000000
  70
    32
  0
VERTEX
  8
É}ÿg
  5
986
 10
245.017
 20
-286.381
 30
0.000000
  70
    32
  0
VERTEX
  8
É}ÿg
  5
987
 10
245.053
 20
-286.414
 30
0.000000
  70
    32
  0
VERTEX
  8
É}ÿg
  5
988
 10
245.090
 20
-286.446
 30
0.000000
  70
    32
  0
VERTEX
  8
É}ÿg
  5
989
 10
245.126
 20
-286.479
 30
0.000000
  70
    32
  0
VERTEX
  8
É}ÿg
  5
98A
 10
245.163
 20
-286.511
 30
0.000000
  70
    32
  0
VERTEX
  8
É}ÿg
  5
98B
 10
245.199
 20
-286.544
 30
0.000000
  70
    32
  0
VERTEX
  8
É}ÿg
  5
98C
 10
245.236
 20
-286.576
 30
0.000000
  70
    32
  0
VERTEX
  8
É}ÿg
  5
98D
 10
245.272
 20
-286.608
 30
0.000000
  70
    32
  0
VERTEX
  8
É}ÿg
  5
98E
 10
245.308
 20
-286.641
 30
0.000000
  70
    32
  0
VERTEX
  8
É}ÿg
  5
98F
 10
245.345
 20
-286.673
 30
0.000000
  70
    32
  0
VERTEX
  8
É}ÿg
  5
990
 10
245.381
 20
-286.705
 30
0.000000
  70
    32
  0
VERTEX
  8
É}ÿg
  5
991
 10
245.418
 20
-286.738
 30
0.000000
  70
    32
  0
VERTEX
  8
É}ÿg
  5
992
 10
245.455
 20
-286.770
 30
0.000000
  70
    32
  0
VERTEX
  8
É}ÿg
  5
993
 10
245.491
 20
-286.802
 30
0.000000
  70
    32
  0
VERTEX
  8
É}ÿg
  5
994
 10
245.528
 20
-286.834
 30
0.000000
  70
    32
  0
VERTEX
  8
É}ÿg
  5
995
 10
245.564
 20
-286.866
 30
0.000000
  70
    32
  0
VERTEX
  8
É}ÿg
  5
996
 10
245.601
 20
-286.898
 30
0.000000
  70
    32
  0
VERTEX
  8
É}ÿg
  5
997
 10
245.638
 20
-286.930
 30
0.000000
  70
    32
  0
VERTEX
  8
É}ÿg
  5
998
 10
245.674
 20
-286.962
 30
0.000000
  70
    32
  0
VERTEX
  8
É}ÿg
  5
999
 10
245.711
 20
-286.994
 30
0.000000
  70
    32
  0
VERTEX
  8
É}ÿg
  5
99A
 10
245.748
 20
-287.026
 30
0.000000
  70
    32
  0
VERTEX
  8
É}ÿg
  5
99B
 10
245.785
 20
-287.058
 30
0.000000
  70
    32
  0
VERTEX
  8
É}ÿg
  5
99C
 10
245.821
 20
-287.090
 30
0.000000
  70
    32
  0
VERTEX
  8
É}ÿg
  5
99D
 10
245.858
 20
-287.122
 30
0.000000
  70
    32
  0
VERTEX
  8
É}ÿg
  5
99E
 10
245.895
 20
-287.153
 30
0.000000
  70
    32
  0
VERTEX
  8
É}ÿg
  5
99F
 10
245.932
 20
-287.185
 30
0.000000
  70
    32
  0
VERTEX
  8
É}ÿg
  5
9A0
 10
245.969
 20
-287.217
 30
0.000000
  70
    32
  0
VERTEX
  8
É}ÿg
  5
9A1
 10
246.006
 20
-287.248
 30
0.000000
  70
    32
  0
VERTEX
  8
É}ÿg
  5
9A2
 10
246.043
 20
-287.280
 30
0.000000
  70
    32
  0
VERTEX
  8
É}ÿg
  5
9A3
 10
246.079
 20
-287.311
 30
0.000000
  70
    32
  0
VERTEX
  8
É}ÿg
  5
9A4
 10
246.116
 20
-287.343
 30
0.000000
  70
    32
  0
VERTEX
  8
É}ÿg
  5
9A5
 10
246.153
 20
-287.374
 30
0.000000
  70
    32
  0
VERTEX
  8
É}ÿg
  5
9A6
 10
246.190
 20
-287.405
 30
0.000000
  70
    32
  0
VERTEX
  8
É}ÿg
  5
9A7
 10
246.228
 20
-287.437
 30
0.000000
  70
    32
  0
VERTEX
  8
É}ÿg
  5
9A8
 10
246.265
 20
-287.468
 30
0.000000
  70
    32
  0
VERTEX
  8
É}ÿg
  5
9A9
 10
246.302
 20
-287.499
 30
0.000000
  70
    32
  0
VERTEX
  8
É}ÿg
  5
9AA
 10
246.339
 20
-287.530
 30
0.000000
  70
    32
  0
VERTEX
  8
É}ÿg
  5
9AB
 10
246.376
 20
-287.561
 30
0.000000
  70
    32
  0
VERTEX
  8
É}ÿg
  5
9AC
 10
246.413
 20
-287.592
 30
0.000000
  70
    32
  0
VERTEX
  8
É}ÿg
  5
9AD
 10
246.450
 20
-287.623
 30
0.000000
  70
    32
  0
VERTEX
  8
É}ÿg
  5
9AE
 10
246.488
 20
-287.654
 30
0.000000
  70
    32
  0
VERTEX
  8
É}ÿg
  5
9AF
 10
246.525
 20
-287.685
 30
0.000000
  70
    32
  0
VERTEX
  8
É}ÿg
  5
9B0
 10
246.562
 20
-287.716
 30
0.000000
  70
    32
  0
VERTEX
  8
É}ÿg
  5
9B1
 10
246.600
 20
-287.747
 30
0.000000
  70
    32
  0
VERTEX
  8
É}ÿg
  5
9B2
 10
246.637
 20
-287.777
 30
0.000000
  70
    32
  0
VERTEX
  8
É}ÿg
  5
9B3
 10
246.675
 20
-287.808
 30
0.000000
  70
    32
  0
VERTEX
  8
É}ÿg
  5
9B4
 10
246.712
 20
-287.839
 30
0.000000
  70
    32
  0
VERTEX
  8
É}ÿg
  5
9B5
 10
246.749
 20
-287.869
 30
0.000000
  70
    32
  0
VERTEX
  8
É}ÿg
  5
9B6
 10
246.787
 20
-287.899
 30
0.000000
  70
    32
  0
VERTEX
  8
É}ÿg
  5
9B7
 10
246.825
 20
-287.930
 30
0.000000
  70
    32
  0
VERTEX
  8
É}ÿg
  5
9B8
 10
246.862
 20
-287.960
 30
0.000000
  70
    32
  0
VERTEX
  8
É}ÿg
  5
9B9
 10
246.900
 20
-287.990
 30
0.000000
  70
    32
  0
VERTEX
  8
É}ÿg
  5
9BA
 10
246.937
 20
-288.021
 30
0.000000
  70
    32
  0
VERTEX
  8
É}ÿg
  5
9BB
 10
246.975
 20
-288.051
 30
0.000000
  70
    32
  0
VERTEX
  8
É}ÿg
  5
9BC
 10
247.013
 20
-288.081
 30
0.000000
  70
    32
  0
VERTEX
  8
É}ÿg
  5
9BD
 10
247.051
 20
-288.111
 30
0.000000
  70
    32
  0
VERTEX
  8
É}ÿg
  5
9BE
 10
247.088
 20
-288.141
 30
0.000000
  70
    32
  0
VERTEX
  8
É}ÿg
  5
9BF
 10
247.126
 20
-288.171
 30
0.000000
  70
    32
  0
VERTEX
  8
É}ÿg
  5
9C0
 10
247.164
 20
-288.200
 30
0.000000
  70
    32
  0
VERTEX
  8
É}ÿg
  5
9C1
 10
247.202
 20
-288.230
 30
0.000000
  70
    32
  0
VERTEX
  8
É}ÿg
  5
9C2
 10
247.240
 20
-288.260
 30
0.000000
  70
    32
  0
VERTEX
  8
É}ÿg
  5
9C3
 10
247.278
 20
-288.289
 30
0.000000
  70
    32
  0
VERTEX
  8
É}ÿg
  5
9C4
 10
247.316
 20
-288.319
 30
0.000000
  70
    32
  0
VERTEX
  8
É}ÿg
  5
9C5
 10
247.354
 20
-288.348
 30
0.000000
  70
    32
  0
VERTEX
  8
É}ÿg
  5
9C6
 10
247.392
 20
-288.378
 30
0.000000
  70
    32
  0
VERTEX
  8
É}ÿg
  5
9C7
 10
247.430
 20
-288.407
 30
0.000000
  70
    32
  0
VERTEX
  8
É}ÿg
  5
9C8
 10
247.468
 20
-288.436
 30
0.000000
  70
    32
  0
VERTEX
  8
É}ÿg
  5
9C9
 10
247.507
 20
-288.465
 30
0.000000
  70
    32
  0
VERTEX
  8
É}ÿg
  5
9CA
 10
247.545
 20
-288.494
 30
0.000000
  70
    32
  0
VERTEX
  8
É}ÿg
  5
9CB
 10
247.583
 20
-288.523
 30
0.000000
  70
    32
  0
VERTEX
  8
É}ÿg
  5
9CC
 10
247.622
 20
-288.552
 30
0.000000
  70
    32
  0
VERTEX
  8
É}ÿg
  5
9CD
 10
247.660
 20
-288.581
 30
0.000000
  70
    32
  0
VERTEX
  8
É}ÿg
  5
9CE
 10
247.698
 20
-288.610
 30
0.000000
  70
    32
  0
VERTEX
  8
É}ÿg
  5
9CF
 10
247.737
 20
-288.638
 30
0.000000
  70
    32
  0
VERTEX
  8
É}ÿg
  5
9D0
 10
247.775
 20
-288.667
 30
0.000000
  70
    32
  0
VERTEX
  8
É}ÿg
  5
9D1
 10
247.814
 20
-288.696
 30
0.000000
  70
    32
  0
VERTEX
  8
É}ÿg
  5
9D2
 10
247.853
 20
-288.724
 30
0.000000
  70
    32
  0
VERTEX
  8
É}ÿg
  5
9D3
 10
247.891
 20
-288.752
 30
0.000000
  70
    32
  0
VERTEX
  8
É}ÿg
  5
9D4
 10
247.930
 20
-288.781
 30
0.000000
  70
    32
  0
VERTEX
  8
É}ÿg
  5
9D5
 10
247.969
 20
-288.809
 30
0.000000
  70
    32
  0
VERTEX
  8
É}ÿg
  5
9D6
 10
248.007
 20
-288.837
 30
0.000000
  70
    32
  0
VERTEX
  8
É}ÿg
  5
9D7
 10
248.046
 20
-288.865
 30
0.000000
  70
    32
  0
VERTEX
  8
É}ÿg
  5
9D8
 10
248.085
 20
-288.893
 30
0.000000
  70
    32
  0
VERTEX
  8
É}ÿg
  5
9D9
 10
248.124
 20
-288.921
 30
0.000000
  70
    32
  0
VERTEX
  8
É}ÿg
  5
9DA
 10
248.163
 20
-288.948
 30
0.000000
  70
    32
  0
VERTEX
  8
É}ÿg
  5
9DB
 10
248.202
 20
-288.976
 30
0.000000
  70
    32
  0
VERTEX
  8
É}ÿg
  5
9DC
 10
248.241
 20
-289.004
 30
0.000000
  70
    32
  0
VERTEX
  8
É}ÿg
  5
9DD
 10
248.280
 20
-289.031
 30
0.000000
  70
    32
  0
VERTEX
  8
É}ÿg
  5
9DE
 10
248.319
 20
-289.059
 30
0.000000
  70
    32
  0
VERTEX
  8
É}ÿg
  5
9DF
 10
248.359
 20
-289.086
 30
0.000000
  70
    32
  0
VERTEX
  8
É}ÿg
  5
9E0
 10
248.398
 20
-289.113
 30
0.000000
  70
    32
  0
VERTEX
  8
É}ÿg
  5
9E1
 10
248.437
 20
-289.140
 30
0.000000
  70
    32
  0
VERTEX
  8
É}ÿg
  5
9E2
 10
248.476
 20
-289.167
 30
0.000000
  70
    32
  0
VERTEX
  8
É}ÿg
  5
9E3
 10
248.516
 20
-289.194
 30
0.000000
  70
    32
  0
VERTEX
  8
É}ÿg
  5
9E4
 10
248.555
 20
-289.221
 30
0.000000
  70
    32
  0
VERTEX
  8
É}ÿg
  5
9E5
 10
248.595
 20
-289.248
 30
0.000000
  70
    32
  0
VERTEX
  8
É}ÿg
  5
9E6
 10
248.634
 20
-289.275
 30
0.000000
  70
    32
  0
VERTEX
  8
É}ÿg
  5
9E7
 10
248.674
 20
-289.301
 30
0.000000
  70
    32
  0
VERTEX
  8
É}ÿg
  5
9E8
 10
248.714
 20
-289.328
 30
0.000000
  70
    32
  0
VERTEX
  8
É}ÿg
  5
9E9
 10
248.753
 20
-289.354
 30
0.000000
  70
    32
  0
VERTEX
  8
É}ÿg
  5
9EA
 10
248.793
 20
-289.380
 30
0.000000
  70
    32
  0
VERTEX
  8
É}ÿg
  5
9EB
 10
248.833
 20
-289.406
 30
0.000000
  70
    32
  0
VERTEX
  8
É}ÿg
  5
9EC
 10
248.873
 20
-289.433
 30
0.000000
  70
    32
  0
VERTEX
  8
É}ÿg
  5
9ED
 10
248.913
 20
-289.459
 30
0.000000
  70
    32
  0
VERTEX
  8
É}ÿg
  5
9EE
 10
248.953
 20
-289.484
 30
0.000000
  70
    32
  0
VERTEX
  8
É}ÿg
  5
9EF
 10
248.993
 20
-289.510
 30
0.000000
  70
    32
  0
VERTEX
  8
É}ÿg
  5
9F0
 10
249.033
 20
-289.536
 30
0.000000
  70
    32
  0
VERTEX
  8
É}ÿg
  5
9F1
 10
249.073
 20
-289.562
 30
0.000000
  70
    32
  0
VERTEX
  8
É}ÿg
  5
9F2
 10
249.113
 20
-289.587
 30
0.000000
  70
    32
  0
VERTEX
  8
É}ÿg
  5
9F3
 10
249.153
 20
-289.612
 30
0.000000
  70
    32
  0
VERTEX
  8
É}ÿg
  5
9F4
 10
249.194
 20
-289.638
 30
0.000000
  70
    32
  0
VERTEX
  8
É}ÿg
  5
9F5
 10
249.234
 20
-289.663
 30
0.000000
  70
    32
  0
VERTEX
  8
É}ÿg
  5
9F6
 10
249.275
 20
-289.688
 30
0.000000
  70
    32
  0
VERTEX
  8
É}ÿg
  5
9F7
 10
249.315
 20
-289.713
 30
0.000000
  70
    32
  0
VERTEX
  8
É}ÿg
  5
9F8
 10
249.356
 20
-289.738
 30
0.000000
  70
    32
  0
VERTEX
  8
É}ÿg
  5
9F9
 10
249.396
 20
-289.762
 30
0.000000
  70
    32
  0
VERTEX
  8
É}ÿg
  5
9FA
 10
249.437
 20
-289.787
 30
0.000000
  70
    32
  0
VERTEX
  8
É}ÿg
  5
9FB
 10
249.478
 20
-289.812
 30
0.000000
  70
    32
  0
SEQEND
  8
É}ÿg
  5
9FC
  0
POLYLINE
  8
É}ÿg
  5
9FD
  66
     1
 10
0.000000
 20
0.000000
 30
0.000000
  70
     8
  0
VERTEX
  8
É}ÿg
  5
9FE
 10
256.869
 20
-289.754
 30
0.000000
  70
    32
  0
VERTEX
  8
É}ÿg
  5
9FF
 10
256.904
 20
-289.763
 30
0.000000
  70
    32
  0
VERTEX
  8
É}ÿg
  5
A00
 10
256.939
 20
-289.773
 30
0.000000
  70
    32
  0
VERTEX
  8
É}ÿg
  5
A01
 10
256.974
 20
-289.783
 30
0.000000
  70
    32
  0
VERTEX
  8
É}ÿg
  5
A02
 10
257.009
 20
-289.793
 30
0.000000
  70
    32
  0
VERTEX
  8
É}ÿg
  5
A03
 10
257.044
 20
-289.803
 30
0.000000
  70
    32
  0
VERTEX
  8
É}ÿg
  5
A04
 10
257.079
 20
-289.812
 30
0.000000
  70
    32
  0
VERTEX
  8
É}ÿg
  5
A05
 10
257.114
 20
-289.822
 30
0.000000
  70
    32
  0
VERTEX
  8
É}ÿg
  5
A06
 10
257.149
 20
-289.831
 30
0.000000
  70
    32
  0
VERTEX
  8
É}ÿg
  5
A07
 10
257.185
 20
-289.841
 30
0.000000
  70
    32
  0
VERTEX
  8
É}ÿg
  5
A08
 10
257.220
 20
-289.850
 30
0.000000
  70
    32
  0
VERTEX
  8
É}ÿg
  5
A09
 10
257.255
 20
-289.860
 30
0.000000
  70
    32
  0
VERTEX
  8
É}ÿg
  5
A0A
 10
257.291
 20
-289.869
 30
0.000000
  70
    32
  0
VERTEX
  8
É}ÿg
  5
A0B
 10
257.326
 20
-289.878
 30
0.000000
  70
    32
  0
VERTEX
  8
É}ÿg
  5
A0C
 10
257.361
 20
-289.887
 30
0.000000
  70
    32
  0
VERTEX
  8
É}ÿg
  5
A0D
 10
257.397
 20
-289.896
 30
0.000000
  70
    32
  0
VERTEX
  8
É}ÿg
  5
A0E
 10
257.432
 20
-289.906
 30
0.000000
  70
    32
  0
VERTEX
  8
É}ÿg
  5
A0F
 10
257.468
 20
-289.915
 30
0.000000
  70
    32
  0
VERTEX
  8
É}ÿg
  5
A10
 10
257.503
 20
-289.924
 30
0.000000
  70
    32
  0
VERTEX
  8
É}ÿg
  5
A11
 10
257.539
 20
-289.933
 30
0.000000
  70
    32
  0
VERTEX
  8
É}ÿg
  5
A12
 10
257.575
 20
-289.941
 30
0.000000
  70
    32
  0
VERTEX
  8
É}ÿg
  5
A13
 10
257.610
 20
-289.950
 30
0.000000
  70
    32
  0
VERTEX
  8
É}ÿg
  5
A14
 10
257.646
 20
-289.959
 30
0.000000
  70
    32
  0
VERTEX
  8
É}ÿg
  5
A15
 10
257.681
 20
-289.968
 30
0.000000
  70
    32
  0
VERTEX
  8
É}ÿg
  5
A16
 10
257.717
 20
-289.977
 30
0.000000
  70
    32
  0
VERTEX
  8
É}ÿg
  5
A17
 10
257.753
 20
-289.985
 30
0.000000
  70
    32
  0
VERTEX
  8
É}ÿg
  5
A18
 10
257.789
 20
-289.994
 30
0.000000
  70
    32
  0
VERTEX
  8
É}ÿg
  5
A19
 10
257.825
 20
-290.002
 30
0.000000
  70
    32
  0
VERTEX
  8
É}ÿg
  5
A1A
 10
257.860
 20
-290.011
 30
0.000000
  70
    32
  0
VERTEX
  8
É}ÿg
  5
A1B
 10
257.896
 20
-290.019
 30
0.000000
  70
    32
  0
VERTEX
  8
É}ÿg
  5
A1C
 10
257.932
 20
-290.028
 30
0.000000
  70
    32
  0
VERTEX
  8
É}ÿg
  5
A1D
 10
257.968
 20
-290.036
 30
0.000000
  70
    32
  0
VERTEX
  8
É}ÿg
  5
A1E
 10
258.004
 20
-290.045
 30
0.000000
  70
    32
  0
VERTEX
  8
É}ÿg
  5
A1F
 10
258.040
 20
-290.053
 30
0.000000
  70
    32
  0
VERTEX
  8
É}ÿg
  5
A20
 10
258.076
 20
-290.061
 30
0.000000
  70
    32
  0
VERTEX
  8
É}ÿg
  5
A21
 10
258.112
 20
-290.069
 30
0.000000
  70
    32
  0
VERTEX
  8
É}ÿg
  5
A22
 10
258.148
 20
-290.078
 30
0.000000
  70
    32
  0
VERTEX
  8
É}ÿg
  5
A23
 10
258.184
 20
-290.086
 30
0.000000
  70
    32
  0
VERTEX
  8
É}ÿg
  5
A24
 10
258.220
 20
-290.094
 30
0.000000
  70
    32
  0
VERTEX
  8
É}ÿg
  5
A25
 10
258.256
 20
-290.102
 30
0.000000
  70
    32
  0
VERTEX
  8
É}ÿg
  5
A26
 10
258.292
 20
-290.110
 30
0.000000
  70
    32
  0
VERTEX
  8
É}ÿg
  5
A27
 10
258.329
 20
-290.118
 30
0.000000
  70
    32
  0
VERTEX
  8
É}ÿg
  5
A28
 10
258.365
 20
-290.126
 30
0.000000
  70
    32
  0
VERTEX
  8
É}ÿg
  5
A29
 10
258.401
 20
-290.134
 30
0.000000
  70
    32
  0
VERTEX
  8
É}ÿg
  5
A2A
 10
258.437
 20
-290.142
 30
0.000000
  70
    32
  0
VERTEX
  8
É}ÿg
  5
A2B
 10
258.473
 20
-290.149
 30
0.000000
  70
    32
  0
VERTEX
  8
É}ÿg
  5
A2C
 10
258.510
 20
-290.157
 30
0.000000
  70
    32
  0
VERTEX
  8
É}ÿg
  5
A2D
 10
258.546
 20
-290.165
 30
0.000000
  70
    32
  0
VERTEX
  8
É}ÿg
  5
A2E
 10
258.582
 20
-290.173
 30
0.000000
  70
    32
  0
VERTEX
  8
É}ÿg
  5
A2F
 10
258.619
 20
-290.180
 30
0.000000
  70
    32
  0
VERTEX
  8
É}ÿg
  5
A30
 10
258.655
 20
-290.188
 30
0.000000
  70
    32
  0
VERTEX
  8
É}ÿg
  5
A31
 10
258.691
 20
-290.196
 30
0.000000
  70
    32
  0
VERTEX
  8
É}ÿg
  5
A32
 10
258.728
 20
-290.203
 30
0.000000
  70
    32
  0
VERTEX
  8
É}ÿg
  5
A33
 10
258.764
 20
-290.211
 30
0.000000
  70
    32
  0
VERTEX
  8
É}ÿg
  5
A34
 10
258.801
 20
-290.218
 30
0.000000
  70
    32
  0
VERTEX
  8
É}ÿg
  5
A35
 10
258.837
 20
-290.226
 30
0.000000
  70
    32
  0
VERTEX
  8
É}ÿg
  5
A36
 10
258.874
 20
-290.233
 30
0.000000
  70
    32
  0
VERTEX
  8
É}ÿg
  5
A37
 10
258.910
 20
-290.241
 30
0.000000
  70
    32
  0
VERTEX
  8
É}ÿg
  5
A38
 10
258.947
 20
-290.248
 30
0.000000
  70
    32
  0
VERTEX
  8
É}ÿg
  5
A39
 10
258.983
 20
-290.255
 30
0.000000
  70
    32
  0
VERTEX
  8
É}ÿg
  5
A3A
 10
259.020
 20
-290.263
 30
0.000000
  70
    32
  0
VERTEX
  8
É}ÿg
  5
A3B
 10
259.057
 20
-290.270
 30
0.000000
  70
    32
  0
VERTEX
  8
É}ÿg
  5
A3C
 10
259.093
 20
-290.277
 30
0.000000
  70
    32
  0
VERTEX
  8
É}ÿg
  5
A3D
 10
259.130
 20
-290.284
 30
0.000000
  70
    32
  0
VERTEX
  8
É}ÿg
  5
A3E
 10
259.166
 20
-290.292
 30
0.000000
  70
    32
  0
VERTEX
  8
É}ÿg
  5
A3F
 10
259.203
 20
-290.299
 30
0.000000
  70
    32
  0
VERTEX
  8
É}ÿg
  5
A40
 10
259.240
 20
-290.306
 30
0.000000
  70
    32
  0
VERTEX
  8
É}ÿg
  5
A41
 10
259.277
 20
-290.313
 30
0.000000
  70
    32
  0
VERTEX
  8
É}ÿg
  5
A42
 10
259.313
 20
-290.320
 30
0.000000
  70
    32
  0
VERTEX
  8
É}ÿg
  5
A43
 10
259.350
 20
-290.327
 30
0.000000
  70
    32
  0
VERTEX
  8
É}ÿg
  5
A44
 10
259.387
 20
-290.334
 30
0.000000
  70
    32
  0
VERTEX
  8
É}ÿg
  5
A45
 10
259.423
 20
-290.341
 30
0.000000
  70
    32
  0
VERTEX
  8
É}ÿg
  5
A46
 10
259.460
 20
-290.348
 30
0.000000
  70
    32
  0
VERTEX
  8
É}ÿg
  5
A47
 10
259.497
 20
-290.355
 30
0.000000
  70
    32
  0
VERTEX
  8
É}ÿg
  5
A48
 10
259.534
 20
-290.362
 30
0.000000
  70
    32
  0
VERTEX
  8
É}ÿg
  5
A49
 10
259.571
 20
-290.369
 30
0.000000
  70
    32
  0
VERTEX
  8
É}ÿg
  5
A4A
 10
259.608
 20
-290.376
 30
0.000000
  70
    32
  0
VERTEX
  8
É}ÿg
  5
A4B
 10
259.644
 20
-290.383
 30
0.000000
  70
    32
  0
VERTEX
  8
É}ÿg
  5
A4C
 10
259.681
 20
-290.390
 30
0.000000
  70
    32
  0
VERTEX
  8
É}ÿg
  5
A4D
 10
259.718
 20
-290.396
 30
0.000000
  70
    32
  0
VERTEX
  8
É}ÿg
  5
A4E
 10
259.755
 20
-290.403
 30
0.000000
  70
    32
  0
VERTEX
  8
É}ÿg
  5
A4F
 10
259.792
 20
-290.410
 30
0.000000
  70
    32
  0
VERTEX
  8
É}ÿg
  5
A50
 10
259.829
 20
-290.417
 30
0.000000
  70
    32
  0
VERTEX
  8
É}ÿg
  5
A51
 10
259.866
 20
-290.424
 30
0.000000
  70
    32
  0
VERTEX
  8
É}ÿg
  5
A52
 10
259.903
 20
-290.430
 30
0.000000
  70
    32
  0
VERTEX
  8
É}ÿg
  5
A53
 10
259.940
 20
-290.437
 30
0.000000
  70
    32
  0
VERTEX
  8
É}ÿg
  5
A54
 10
259.977
 20
-290.444
 30
0.000000
  70
    32
  0
VERTEX
  8
É}ÿg
  5
A55
 10
260.014
 20
-290.450
 30
0.000000
  70
    32
  0
VERTEX
  8
É}ÿg
  5
A56
 10
260.051
 20
-290.457
 30
0.000000
  70
    32
  0
VERTEX
  8
É}ÿg
  5
A57
 10
260.088
 20
-290.464
 30
0.000000
  70
    32
  0
VERTEX
  8
É}ÿg
  5
A58
 10
260.125
 20
-290.470
 30
0.000000
  70
    32
  0
VERTEX
  8
É}ÿg
  5
A59
 10
260.162
 20
-290.477
 30
0.000000
  70
    32
  0
VERTEX
  8
É}ÿg
  5
A5A
 10
260.199
 20
-290.483
 30
0.000000
  70
    32
  0
VERTEX
  8
É}ÿg
  5
A5B
 10
260.236
 20
-290.490
 30
0.000000
  70
    32
  0
VERTEX
  8
É}ÿg
  5
A5C
 10
260.273
 20
-290.496
 30
0.000000
  70
    32
  0
VERTEX
  8
É}ÿg
  5
A5D
 10
260.310
 20
-290.503
 30
0.000000
  70
    32
  0
VERTEX
  8
É}ÿg
  5
A5E
 10
260.347
 20
-290.509
 30
0.000000
  70
    32
  0
VERTEX
  8
É}ÿg
  5
A5F
 10
260.384
 20
-290.516
 30
0.000000
  70
    32
  0
VERTEX
  8
É}ÿg
  5
A60
 10
260.421
 20
-290.522
 30
0.000000
  70
    32
  0
VERTEX
  8
É}ÿg
  5
A61
 10
260.458
 20
-290.529
 30
0.000000
  70
    32
  0
VERTEX
  8
É}ÿg
  5
A62
 10
260.496
 20
-290.535
 30
0.000000
  70
    32
  0
VERTEX
  8
É}ÿg
  5
A63
 10
260.533
 20
-290.542
 30
0.000000
  70
    32
  0
VERTEX
  8
É}ÿg
  5
A64
 10
260.570
 20
-290.548
 30
0.000000
  70
    32
  0
VERTEX
  8
É}ÿg
  5
A65
 10
260.607
 20
-290.555
 30
0.000000
  70
    32
  0
VERTEX
  8
É}ÿg
  5
A66
 10
260.644
 20
-290.561
 30
0.000000
  70
    32
  0
VERTEX
  8
É}ÿg
  5
A67
 10
260.681
 20
-290.567
 30
0.000000
  70
    32
  0
VERTEX
  8
É}ÿg
  5
A68
 10
260.718
 20
-290.574
 30
0.000000
  70
    32
  0
VERTEX
  8
É}ÿg
  5
A69
 10
260.756
 20
-290.580
 30
0.000000
  70
    32
  0
VERTEX
  8
É}ÿg
  5
A6A
 10
260.793
 20
-290.587
 30
0.000000
  70
    32
  0
VERTEX
  8
É}ÿg
  5
A6B
 10
260.830
 20
-290.593
 30
0.000000
  70
    32
  0
VERTEX
  8
É}ÿg
  5
A6C
 10
260.867
 20
-290.599
 30
0.000000
  70
    32
  0
VERTEX
  8
É}ÿg
  5
A6D
 10
260.904
 20
-290.606
 30
0.000000
  70
    32
  0
VERTEX
  8
É}ÿg
  5
A6E
 10
260.941
 20
-290.612
 30
0.000000
  70
    32
  0
VERTEX
  8
É}ÿg
  5
A6F
 10
260.979
 20
-290.618
 30
0.000000
  70
    32
  0
VERTEX
  8
É}ÿg
  5
A70
 10
261.016
 20
-290.625
 30
0.000000
  70
    32
  0
VERTEX
  8
É}ÿg
  5
A71
 10
261.053
 20
-290.631
 30
0.000000
  70
    32
  0
VERTEX
  8
É}ÿg
  5
A72
 10
261.090
 20
-290.637
 30
0.000000
  70
    32
  0
VERTEX
  8
É}ÿg
  5
A73
 10
261.127
 20
-290.644
 30
0.000000
  70
    32
  0
VERTEX
  8
É}ÿg
  5
A74
 10
261.165
 20
-290.650
 30
0.000000
  70
    32
  0
VERTEX
  8
É}ÿg
  5
A75
 10
261.202
 20
-290.656
 30
0.000000
  70
    32
  0
VERTEX
  8
É}ÿg
  5
A76
 10
261.239
 20
-290.663
 30
0.000000
  70
    32
  0
VERTEX
  8
É}ÿg
  5
A77
 10
261.276
 20
-290.669
 30
0.000000
  70
    32
  0
VERTEX
  8
É}ÿg
  5
A78
 10
261.313
 20
-290.675
 30
0.000000
  70
    32
  0
VERTEX
  8
É}ÿg
  5
A79
 10
261.351
 20
-290.681
 30
0.000000
  70
    32
  0
VERTEX
  8
É}ÿg
  5
A7A
 10
261.388
 20
-290.688
 30
0.000000
  70
    32
  0
VERTEX
  8
É}ÿg
  5
A7B
 10
261.425
 20
-290.694
 30
0.000000
  70
    32
  0
VERTEX
  8
É}ÿg
  5
A7C
 10
261.462
 20
-290.700
 30
0.000000
  70
    32
  0
VERTEX
  8
É}ÿg
  5
A7D
 10
261.500
 20
-290.707
 30
0.000000
  70
    32
  0
SEQEND
  8
É}ÿg
  5
A7E
  0
POLYLINE
  8
É}ÿg
  5
A7F
  66
     1
 10
0.000000
 20
0.000000
 30
0.000000
  70
     8
  0
VERTEX
  8
É}ÿg
  5
A80
 10
250.368
 20
-285.482
 30
0.000000
  70
    32
  0
VERTEX
  8
É}ÿg
  5
A81
 10
250.381
 20
-285.497
 30
0.000000
  70
    32
  0
VERTEX
  8
É}ÿg
  5
A82
 10
250.395
 20
-285.512
 30
0.000000
  70
    32
  0
VERTEX
  8
É}ÿg
  5
A83
 10
250.408
 20
-285.526
 30
0.000000
  70
    32
  0
VERTEX
  8
É}ÿg
  5
A84
 10
250.421
 20
-285.541
 30
0.000000
  70
    32
  0
VERTEX
  8
É}ÿg
  5
A85
 10
250.434
 20
-285.556
 30
0.000000
  70
    32
  0
VERTEX
  8
É}ÿg
  5
A86
 10
250.447
 20
-285.570
 30
0.000000
  70
    32
  0
VERTEX
  8
É}ÿg
  5
A87
 10
250.461
 20
-285.585
 30
0.000000
  70
    32
  0
VERTEX
  8
É}ÿg
  5
A88
 10
250.474
 20
-285.600
 30
0.000000
  70
    32
  0
VERTEX
  8
É}ÿg
  5
A89
 10
250.487
 20
-285.615
 30
0.000000
  70
    32
  0
VERTEX
  8
É}ÿg
  5
A8A
 10
250.500
 20
-285.629
 30
0.000000
  70
    32
  0
VERTEX
  8
É}ÿg
  5
A8B
 10
250.513
 20
-285.644
 30
0.000000
  70
    32
  0
VERTEX
  8
É}ÿg
  5
A8C
 10
250.527
 20
-285.659
 30
0.000000
  70
    32
  0
VERTEX
  8
É}ÿg
  5
A8D
 10
250.540
 20
-285.673
 30
0.000000
  70
    32
  0
VERTEX
  8
É}ÿg
  5
A8E
 10
250.553
 20
-285.688
 30
0.000000
  70
    32
  0
VERTEX
  8
É}ÿg
  5
A8F
 10
250.566
 20
-285.703
 30
0.000000
  70
    32
  0
VERTEX
  8
É}ÿg
  5
A90
 10
250.579
 20
-285.717
 30
0.000000
  70
    32
  0
VERTEX
  8
É}ÿg
  5
A91
 10
250.593
 20
-285.732
 30
0.000000
  70
    32
  0
VERTEX
  8
É}ÿg
  5
A92
 10
250.606
 20
-285.747
 30
0.000000
  70
    32
  0
VERTEX
  8
É}ÿg
  5
A93
 10
250.619
 20
-285.762
 30
0.000000
  70
    32
  0
VERTEX
  8
É}ÿg
  5
A94
 10
250.632
 20
-285.776
 30
0.000000
  70
    32
  0
VERTEX
  8
É}ÿg
  5
A95
 10
250.646
 20
-285.791
 30
0.000000
  70
    32
  0
VERTEX
  8
É}ÿg
  5
A96
 10
250.659
 20
-285.806
 30
0.000000
  70
    32
  0
VERTEX
  8
É}ÿg
  5
A97
 10
250.672
 20
-285.820
 30
0.000000
  70
    32
  0
VERTEX
  8
É}ÿg
  5
A98
 10
250.685
 20
-285.835
 30
0.000000
  70
    32
  0
VERTEX
  8
É}ÿg
  5
A99
 10
250.698
 20
-285.849
 30
0.000000
  70
    32
  0
VERTEX
  8
É}ÿg
  5
A9A
 10
250.712
 20
-285.864
 30
0.000000
  70
    32
  0
VERTEX
  8
É}ÿg
  5
A9B
 10
250.725
 20
-285.879
 30
0.000000
  70
    32
  0
VERTEX
  8
É}ÿg
  5
A9C
 10
250.738
 20
-285.893
 30
0.000000
  70
    32
  0
VERTEX
  8
É}ÿg
  5
A9D
 10
250.751
 20
-285.908
 30
0.000000
  70
    32
  0
VERTEX
  8
É}ÿg
  5
A9E
 10
250.765
 20
-285.923
 30
0.000000
  70
    32
  0
VERTEX
  8
É}ÿg
  5
A9F
 10
250.778
 20
-285.937
 30
0.000000
  70
    32
  0
VERTEX
  8
É}ÿg
  5
AA0
 10
250.791
 20
-285.952
 30
0.000000
  70
    32
  0
VERTEX
  8
É}ÿg
  5
AA1
 10
250.805
 20
-285.966
 30
0.000000
  70
    32
  0
VERTEX
  8
É}ÿg
  5
AA2
 10
250.818
 20
-285.981
 30
0.000000
  70
    32
  0
VERTEX
  8
É}ÿg
  5
AA3
 10
250.831
 20
-285.996
 30
0.000000
  70
    32
  0
VERTEX
  8
É}ÿg
  5
AA4
 10
250.844
 20
-286.010
 30
0.000000
  70
    32
  0
VERTEX
  8
É}ÿg
  5
AA5
 10
250.858
 20
-286.025
 30
0.000000
  70
    32
  0
VERTEX
  8
É}ÿg
  5
AA6
 10
250.871
 20
-286.039
 30
0.000000
  70
    32
  0
VERTEX
  8
É}ÿg
  5
AA7
 10
250.884
 20
-286.054
 30
0.000000
  70
    32
  0
VERTEX
  8
É}ÿg
  5
AA8
 10
250.898
 20
-286.068
 30
0.000000
  70
    32
  0
VERTEX
  8
É}ÿg
  5
AA9
 10
250.911
 20
-286.083
 30
0.000000
  70
    32
  0
VERTEX
  8
É}ÿg
  5
AAA
 10
250.924
 20
-286.098
 30
0.000000
  70
    32
  0
VERTEX
  8
É}ÿg
  5
AAB
 10
250.938
 20
-286.112
 30
0.000000
  70
    32
  0
VERTEX
  8
É}ÿg
  5
AAC
 10
250.951
 20
-286.127
 30
0.000000
  70
    32
  0
VERTEX
  8
É}ÿg
  5
AAD
 10
250.964
 20
-286.141
 30
0.000000
  70
    32
  0
VERTEX
  8
É}ÿg
  5
AAE
 10
250.978
 20
-286.156
 30
0.000000
  70
    32
  0
VERTEX
  8
É}ÿg
  5
AAF
 10
250.991
 20
-286.170
 30
0.000000
  70
    32
  0
VERTEX
  8
É}ÿg
  5
AB0
 10
251.004
 20
-286.184
 30
0.000000
  70
    32
  0
VERTEX
  8
É}ÿg
  5
AB1
 10
251.018
 20
-286.199
 30
0.000000
  70
    32
  0
VERTEX
  8
É}ÿg
  5
AB2
 10
251.031
 20
-286.213
 30
0.000000
  70
    32
  0
VERTEX
  8
É}ÿg
  5
AB3
 10
251.044
 20
-286.228
 30
0.000000
  70
    32
  0
VERTEX
  8
É}ÿg
  5
AB4
 10
251.058
 20
-286.242
 30
0.000000
  70
    32
  0
VERTEX
  8
É}ÿg
  5
AB5
 10
251.071
 20
-286.257
 30
0.000000
  70
    32
  0
VERTEX
  8
É}ÿg
  5
AB6
 10
251.084
 20
-286.271
 30
0.000000
  70
    32
  0
VERTEX
  8
É}ÿg
  5
AB7
 10
251.098
 20
-286.285
 30
0.000000
  70
    32
  0
VERTEX
  8
É}ÿg
  5
AB8
 10
251.111
 20
-286.300
 30
0.000000
  70
    32
  0
VERTEX
  8
É}ÿg
  5
AB9
 10
251.125
 20
-286.314
 30
0.000000
  70
    32
  0
VERTEX
  8
É}ÿg
  5
ABA
 10
251.138
 20
-286.329
 30
0.000000
  70
    32
  0
VERTEX
  8
É}ÿg
  5
ABB
 10
251.152
 20
-286.343
 30
0.000000
  70
    32
  0
VERTEX
  8
É}ÿg
  5
ABC
 10
251.165
 20
-286.357
 30
0.000000
  70
    32
  0
VERTEX
  8
É}ÿg
  5
ABD
 10
251.178
 20
-286.372
 30
0.000000
  70
    32
  0
VERTEX
  8
É}ÿg
  5
ABE
 10
251.192
 20
-286.386
 30
0.000000
  70
    32
  0
VERTEX
  8
É}ÿg
  5
ABF
 10
251.205
 20
-286.400
 30
0.000000
  70
    32
  0
VERTEX
  8
É}ÿg
  5
AC0
 10
251.219
 20
-286.414
 30
0.000000
  70
    32
  0
VERTEX
  8
É}ÿg
  5
AC1
 10
251.232
 20
-286.429
 30
0.000000
  70
    32
  0
VERTEX
  8
É}ÿg
  5
AC2
 10
251.246
 20
-286.443
 30
0.000000
  70
    32
  0
VERTEX
  8
É}ÿg
  5
AC3
 10
251.259
 20
-286.457
 30
0.000000
  70
    32
  0
VERTEX
  8
É}ÿg
  5
AC4
 10
251.273
 20
-286.471
 30
0.000000
  70
    32
  0
VERTEX
  8
É}ÿg
  5
AC5
 10
251.286
 20
-286.486
 30
0.000000
  70
    32
  0
VERTEX
  8
É}ÿg
  5
AC6
 10
251.300
 20
-286.500
 30
0.000000
  70
    32
  0
VERTEX
  8
É}ÿg
  5
AC7
 10
251.313
 20
-286.514
 30
0.000000
  70
    32
  0
VERTEX
  8
É}ÿg
  5
AC8
 10
251.327
 20
-286.528
 30
0.000000
  70
    32
  0
VERTEX
  8
É}ÿg
  5
AC9
 10
251.341
 20
-286.542
 30
0.000000
  70
    32
  0
VERTEX
  8
É}ÿg
  5
ACA
 10
251.354
 20
-286.556
 30
0.000000
  70
    32
  0
VERTEX
  8
É}ÿg
  5
ACB
 10
251.368
 20
-286.570
 30
0.000000
  70
    32
  0
VERTEX
  8
É}ÿg
  5
ACC
 10
251.381
 20
-286.585
 30
0.000000
  70
    32
  0
VERTEX
  8
É}ÿg
  5
ACD
 10
251.395
 20
-286.599
 30
0.000000
  70
    32
  0
VERTEX
  8
É}ÿg
  5
ACE
 10
251.408
 20
-286.613
 30
0.000000
  70
    32
  0
VERTEX
  8
É}ÿg
  5
ACF
 10
251.422
 20
-286.627
 30
0.000000
  70
    32
  0
VERTEX
  8
É}ÿg
  5
AD0
 10
251.436
 20
-286.641
 30
0.000000
  70
    32
  0
VERTEX
  8
É}ÿg
  5
AD1
 10
251.449
 20
-286.655
 30
0.000000
  70
    32
  0
VERTEX
  8
É}ÿg
  5
AD2
 10
251.463
 20
-286.669
 30
0.000000
  70
    32
  0
VERTEX
  8
É}ÿg
  5
AD3
 10
251.477
 20
-286.683
 30
0.000000
  70
    32
  0
VERTEX
  8
É}ÿg
  5
AD4
 10
251.490
 20
-286.697
 30
0.000000
  70
    32
  0
VERTEX
  8
É}ÿg
  5
AD5
 10
251.504
 20
-286.711
 30
0.000000
  70
    32
  0
VERTEX
  8
É}ÿg
  5
AD6
 10
251.518
 20
-286.724
 30
0.000000
  70
    32
  0
VERTEX
  8
É}ÿg
  5
AD7
 10
251.531
 20
-286.738
 30
0.000000
  70
    32
  0
VERTEX
  8
É}ÿg
  5
AD8
 10
251.545
 20
-286.752
 30
0.000000
  70
    32
  0
VERTEX
  8
É}ÿg
  5
AD9
 10
251.559
 20
-286.766
 30
0.000000
  70
    32
  0
VERTEX
  8
É}ÿg
  5
ADA
 10
251.573
 20
-286.780
 30
0.000000
  70
    32
  0
VERTEX
  8
É}ÿg
  5
ADB
 10
251.586
 20
-286.794
 30
0.000000
  70
    32
  0
VERTEX
  8
É}ÿg
  5
ADC
 10
251.600
 20
-286.808
 30
0.000000
  70
    32
  0
VERTEX
  8
É}ÿg
  5
ADD
 10
251.614
 20
-286.821
 30
0.000000
  70
    32
  0
VERTEX
  8
É}ÿg
  5
ADE
 10
251.628
 20
-286.835
 30
0.000000
  70
    32
  0
VERTEX
  8
É}ÿg
  5
ADF
 10
251.642
 20
-286.849
 30
0.000000
  70
    32
  0
VERTEX
  8
É}ÿg
  5
AE0
 10
251.655
 20
-286.863
 30
0.000000
  70
    32
  0
VERTEX
  8
É}ÿg
  5
AE1
 10
251.669
 20
-286.876
 30
0.000000
  70
    32
  0
VERTEX
  8
É}ÿg
  5
AE2
 10
251.683
 20
-286.890
 30
0.000000
  70
    32
  0
VERTEX
  8
É}ÿg
  5
AE3
 10
251.697
 20
-286.904
 30
0.000000
  70
    32
  0
VERTEX
  8
É}ÿg
  5
AE4
 10
251.711
 20
-286.917
 30
0.000000
  70
    32
  0
VERTEX
  8
É}ÿg
  5
AE5
 10
251.725
 20
-286.931
 30
0.000000
  70
    32
  0
VERTEX
  8
É}ÿg
  5
AE6
 10
251.739
 20
-286.944
 30
0.000000
  70
    32
  0
VERTEX
  8
É}ÿg
  5
AE7
 10
251.752
 20
-286.958
 30
0.000000
  70
    32
  0
VERTEX
  8
É}ÿg
  5
AE8
 10
251.766
 20
-286.971
 30
0.000000
  70
    32
  0
VERTEX
  8
É}ÿg
  5
AE9
 10
251.780
 20
-286.985
 30
0.000000
  70
    32
  0
VERTEX
  8
É}ÿg
  5
AEA
 10
251.794
 20
-286.999
 30
0.000000
  70
    32
  0
VERTEX
  8
É}ÿg
  5
AEB
 10
251.808
 20
-287.012
 30
0.000000
  70
    32
  0
VERTEX
  8
É}ÿg
  5
AEC
 10
251.822
 20
-287.025
 30
0.000000
  70
    32
  0
VERTEX
  8
É}ÿg
  5
AED
 10
251.836
 20
-287.039
 30
0.000000
  70
    32
  0
VERTEX
  8
É}ÿg
  5
AEE
 10
251.850
 20
-287.052
 30
0.000000
  70
    32
  0
VERTEX
  8
É}ÿg
  5
AEF
 10
251.864
 20
-287.066
 30
0.000000
  70
    32
  0
VERTEX
  8
É}ÿg
  5
AF0
 10
251.878
 20
-287.079
 30
0.000000
  70
    32
  0
VERTEX
  8
É}ÿg
  5
AF1
 10
251.892
 20
-287.092
 30
0.000000
  70
    32
  0
VERTEX
  8
É}ÿg
  5
AF2
 10
251.906
 20
-287.106
 30
0.000000
  70
    32
  0
VERTEX
  8
É}ÿg
  5
AF3
 10
251.921
 20
-287.119
 30
0.000000
  70
    32
  0
VERTEX
  8
É}ÿg
  5
AF4
 10
251.935
 20
-287.132
 30
0.000000
  70
    32
  0
VERTEX
  8
É}ÿg
  5
AF5
 10
251.949
 20
-287.145
 30
0.000000
  70
    32
  0
VERTEX
  8
É}ÿg
  5
AF6
 10
251.963
 20
-287.159
 30
0.000000
  70
    32
  0
VERTEX
  8
É}ÿg
  5
AF7
 10
251.977
 20
-287.172
 30
0.000000
  70
    32
  0
VERTEX
  8
É}ÿg
  5
AF8
 10
251.991
 20
-287.185
 30
0.000000
  70
    32
  0
VERTEX
  8
É}ÿg
  5
AF9
 10
252.005
 20
-287.198
 30
0.000000
  70
    32
  0
VERTEX
  8
É}ÿg
  5
AFA
 10
252.020
 20
-287.211
 30
0.000000
  70
    32
  0
VERTEX
  8
É}ÿg
  5
AFB
 10
252.034
 20
-287.224
 30
0.000000
  70
    32
  0
VERTEX
  8
É}ÿg
  5
AFC
 10
252.048
 20
-287.237
 30
0.000000
  70
    32
  0
VERTEX
  8
É}ÿg
  5
AFD
 10
252.062
 20
-287.250
 30
0.000000
  70
    32
  0
VERTEX
  8
É}ÿg
  5
AFE
 10
252.077
 20
-287.263
 30
0.000000
  70
    32
  0
VERTEX
  8
É}ÿg
  5
AFF
 10
252.091
 20
-287.276
 30
0.000000
  70
    32
  0
SEQEND
  8
É}ÿg
  5
B00
  0
INSERT
  5
506
  8
É}ÿg
  2
CLUMP11
 10
0.0
 20
0.0
 30
0.0
  0
CIRCLE
  5
51F
  8
É}ÿg
 10
259.65703124999999
 20
-242.85989583329999
 30
0.0
 40
4.7999999999999989
  0
ENDBLK
  5
520
  8
0
  0
BLOCK
  8
0
  2
CLUMP11
 70
     0
 10
0.0
 20
0.0
 30
0.0
  3
CLUMP11
  1

  0
LINE
  5
508
  8
É}ÿg
 10
432.85703124999998
 20
-193.85989583329999
 30
0.0
 11
142.85703125000001
 21
-193.85989583329999
 31
0.0
  0
LINE
  5
509
  8
É}ÿg
 10
270.62886627339998
 20
-240.45989583330001
 30
0.0
 11
270.62886627339998
 21
-245.25989583329999
 31
0.0
  0
LINE
  5
50A
  8
É}ÿg
  6
BORDER
 10
259.65703124999999
 20
-235.6598958333
 30
0.0
 11
259.65703124999999
 21
-250.0598958333
 31
0.0
  0
LINE
  5
50B
  8
É}ÿg
 10
280.2288662734
 20
-238.0598958333
 30
0.0
 11
280.2288662734
 21
-247.6598958333
 31
0.0
  0
LINE
  5
50C
  8
É}ÿg
 10
270.62886627339998
 20
-245.25989583329999
 30
0.0
 11
280.2288662734
 21
-247.6598958333
 31
0.0
  0
LINE
  5
50D
  8
É}ÿg
 10
270.62886627339998
 20
-240.45989583330001
 30
0.0
 11
270.62886627339998
 21
-245.25989583329999
 31
0.0
  0
LINE
  5
50E
  8
É}ÿg
 10
270.62886627339998
 20
-245.25989583329999
 30
0.0
 11
280.2288662734
 21
-247.6598958333
 31
0.0
  0
LINE
  5
50F
  8
É}ÿg
 10
280.2288662734
 20
-238.0598958333
 30
0.0
 11
280.2288662734
 21
-247.6598958333
 31
0.0
  0
LINE
  5
510
  8
É}ÿg
  6
BORDER
 10
259.65703124999999
 20
-235.6598958333
 30
0.0
 11
259.65703124999999
 21
-250.0598958333
 31
0.0
  0
LINE
  5
511
  8
É}ÿg
  6
BORDER
 10
259.65703124999999
 20
-235.6598958333
 30
0.0
 11
259.65703124999999
 21
-250.0598958333
 31
0.0
  0
CIRCLE
  5
512
  8
É}ÿg
 10
259.65703124999999
 20
-242.85989583329999
 30
0.0
 40
4.7999999999999989
  0
LINE
  5
513
  8
É}ÿg
 10
270.62886627339998
 20
-240.45989583330001
 30
0.0
 11
280.2288662734
 21
-238.0598958333
 31
0.0
  0
LINE
  5
514
  8
É}ÿg
 10
270.62886627339998
 20
-240.45989583330001
 30
0.0
 11
280.2288662734
 21
-238.0598958333
 31
0.0
  0
CIRCLE
  5
515
  8
É}ÿg
 10
259.65703124999999
 20
-242.85989583329999
 30
0.0
 40
4.7999999999999989
  0
CIRCLE
  5
516
  8
É}ÿg
 10
259.65703124999999
 20
-242.85989583329999
 30
0.0
 40
2.399999999999999
  0
LINE
  5
517
  8
É}ÿg
 10
280.2288662734
 20
-238.0598958333
 30
0.0
 11
280.2288662734
 21
-247.6598958333
 31
0.0
  0
LINE
  5
518
  8
É}ÿg
 10
270.62886627339998
 20
-240.45989583330001
 30
0.0
 11
270.62886627339998
 21
-245.25989583329999
 31
0.0
  0
LINE
  5
519
  8
É}ÿg
 10
270.62886627339998
 20
-245.25989583329999
 30
0.0
 11
280.2288662734
 21
-247.6598958333
 31
0.0
  0
CIRCLE
  5
51A
  8
É}ÿg
 10
259.65703124999999
 20
-242.85989583329999
 30
0.0
 40
2.399999999999999
  0
CIRCLE
  5
51B
  8
É}ÿg
 10
259.65703124999999
 20
-242.85989583329999
 30
0.0
 40
4.7999999999999989
  0
LINE
  5
51C
  8
É}ÿg
 10
270.62886627339998
 20
-240.45989583330001
 30
0.0
 11
280.2288662734
 21
-238.0598958333
 31
0.0
  0
CIRCLE
  5
51D
  8
É}ÿg
 10
259.65703124999999
 20
-242.85989583329999
 30
0.0
 40
2.399999999999999
  0
ENDBLK
  5
51E
  8
0
  0
BLOCK
  8
0
  2
CLUMP12
 70
     0
 10
0.0
 20
0.0
 30
0.0
  3
CLUMP12
  1

  0
ARC
  5
527
  8
┌▓È_1
 62
     5
 10
-216.04088532540001
 20
-85.439370373299994
 30
0.0
 40
1.0
 50
90.000003578299996
 51
179.9999915933
  0
LINE
  5
528
  8
┌▓È_1
 62
     5
 10
-132.9880990122
 20
-85.276423747300001
 30
0.0
 11
-134.66220576020001
 21
-84.439370373299994
 31
0.0
  0
LINE
  5
529
  8
┌▓È_1
 62
     5
 10
-132.09367182119999
 20
-85.276423747300001
 30
0.0
 11
-130.41956507309999
 21
-84.439370373299994
 31
0.0
  0
ARC
  5
52A
  8
┌▓È_1
 62
     5
 10
-132.54088541670001
 20
-84.381996556299995
 30
0.0
 40
1.0
 50
243.4349488229
 51
296.56505117709997
  0
ARC
  5
52B
  8
┌▓È_1
 62
     5
 10
-117.5408853254
 20
-85.439370373299994
 30
0.0
 40
0.5
 50
269.9999790855
 51
0.0000168133
  0
ARC
  5
52C
  8
┌▓È_1
 62
     5
 10
-116.0408853254
 20
-85.439370373299994
 30
0.0
 40
1.0
 50
90.000003578299996
 51
179.9999915933
  0
ARC
  5
52D
  8
┌▓È_1
 62
     5
 10
110.9591144921
 20
-85.439370373299994
 30
0.0
 40
1.0
 50
0.0000084067
 51
89.999996421700004
  0
ARC
  5
52E
  8
┌▓È_1
 62
     5
 10
112.4591144921
 20
-85.439370373299994
 30
0.0
 40
0.5
 50
179.99998318670001
 51
270.0000209145
  0
LINE
  5
52F
  8
┌▓È_1
 62
     5
 10
-97.540885507900015
 20
-85.939370373299994
 30
0.0
 11
-107.5408853254
 21
-85.939370373299994
 31
0.0
  0
ARC
  5
530
  8
┌▓È_1
 62
     5
 10
130.95911449210001
 20
-85.439370373299994
 30
0.0
 40
1.0
 50
0.0000084067
 51
89.999996421700004
  0
ARC
  5
531
  8
┌▓È_1
 62
     5
 10
132.45911449210001
 20
-85.439370373299994
 30
0.0
 40
0.5
 50
179.99998318670001
 51
270.0000209145
  0
LINE
  5
532
  8
┌▓È_1
 62
     5
 10
132.45911467459999
 20
-85.939370373299994
 30
0.0
 11
142.45911449210001
 21
-85.939370373299994
 31
0.0
  0
LINE
  5
533
  8
┌▓È_1
 62
     5
 10
130.95911455449999
 20
-84.439370373299994
 30
0.0
 11
123.9591144921
 21
-84.439370373299994
 31
0.0
  0
LINE
  5
534
  8
┌▓È_1
 62
     5
 10
-196.0408853879
 20
-84.439370373299994
 30
0.0
 11
-189.04088532540001
 21
-84.439370373299994
 31
0.0
  0
ARC
  5
535
  8
┌▓È_1
 62
     5
 10
-176.04088532540001
 20
-85.439370373299994
 30
0.0
 40
1.0
 50
90.000003578299996
 51
179.9999915933
  0
ARC
  5
536
  8
┌▓È_1
 62
     5
 10
-177.54088532540001
 20
-85.439370373299994
 30
0.0
 40
0.5
 50
269.9999790855
 51
0.0000168133
  0
ARC
  5
537
  8
┌▓È_1
 62
     5
 10
-189.04088532540001
 20
-85.439370373299994
 30
0.0
 40
1.0
 50
0.0000082544
 51
90.0
  0
ARC
  5
538
  8
┌▓È_1
 62
     5
 10
-187.54088532540001
 20
-85.439370373299994
 30
0.0
 40
0.5
 50
179.9999834912
 51
270.0
  0
LINE
  5
539
  8
┌▓È_1
 62
     5
 10
-177.54088550789999
 20
-85.939370373299994
 30
0.0
 11
-187.54088532540001
 21
-85.939370373299994
 31
0.0
  0
LINE
  5
53A
  8
┌▓È_1
 62
     5
 10
-216.0408853879
 20
-84.439370373299994
 30
0.0
 11
-209.04088532540001
 21
-84.439370373299994
 31
0.0
  0
ARC
  5
53B
  8
┌▓È_1
 62
     5
 10
-196.04088532540001
 20
-85.439370373299994
 30
0.0
 40
1.0
 50
90.000003578299996
 51
179.9999915933
  0
ARC
  5
53C
  8
┌▓È_1
 62
     5
 10
-197.54088532540001
 20
-85.439370373299994
 30
0.0
 40
0.5
 50
269.9999790855
 51
0.0000168133
  0
ARC
  5
53D
  8
┌▓È_1
 62
     5
 10
-209.04088532540001
 20
-85.439370373299994
 30
0.0
 40
1.0
 50
0.0000082544
 51
90.0
  0
ARC
  5
53E
  8
┌▓È_1
 62
     5
 10
-207.54088532540001
 20
-85.439370373299994
 30
0.0
 40
0.5
 50
179.9999834912
 51
270.0
  0
LINE
  5
53F
  8
┌▓È_1
 62
     5
 10
-197.54088550789999
 20
-85.939370373299994
 30
0.0
 11
-207.54088532540001
 21
-85.939370373299994
 31
0.0
  0
LINE
  5
540
  8
┌▓È_1
 62
     5
 10
-217.54088550789999
 20
-85.939370373299994
 30
0.0
 11
-227.54088532540001
 21
-85.939370373299994
 31
0.0
  0
ARC
  5
541
  8
┌▓È_1
 62
     5
 10
-227.54088532540001
 20
-85.439370373299994
 30
0.0
 40
0.5
 50
179.9999834912
 51
270.0
  0
ARC
  5
542
  8
┌▓È_1
 62
     5
 10
-229.04088532540001
 20
-85.439370373299994
 30
0.0
 40
1.0
 50
0.0000082544
 51
90.0
  0
ARC
  5
543
  8
┌▓È_1
 62
     5
 10
-217.54088532540001
 20
-85.439370373299994
 30
0.0
 40
0.5
 50
269.9999790855
 51
0.0000168133
  0
ARC
  5
544
  8
┌▓È_1
 62
     5
 10
-16.040885325400001
 20
-85.439370373299994
 30
0.0
 40
1.0
 50
90.000003578299996
 51
179.9999915933
  0
ARC
  5
545
  8
┌▓È_1
 62
     5
 10
-17.540885325400001
 20
-85.439370373299994
 30
0.0
 40
0.5
 50
269.9999790855
 51
0.0000168133
  0
ARC
  5
546
  8
┌▓È_1
 62
     5
 10
-29.040885325400001
 20
-85.439370373299994
 30
0.0
 40
1.0
 50
0.0000082544
 51
90.0
  0
ARC
  5
547
  8
┌▓È_1
 62
     5
 10
-27.540885325400001
 20
-85.439370373299994
 30
0.0
 40
0.5
 50
179.9999834912
 51
270.0
  0
LINE
  5
548
  8
┌▓È_1
 62
     5
 10
-116.0408853879
 20
-84.439370373299994
 30
0.0
 11
-109.0408853254
 21
-84.439370373299994
 31
0.0
  0
ARC
  5
549
  8
┌▓È_1
 62
     5
 10
-109.0408853254
 20
-85.439370373299994
 30
0.0
 40
1.0
 50
0.0000082544
 51
90.0
  0
ARC
  5
54A
  8
┌▓È_1
 62
     5
 10
-107.5408853254
 20
-85.439370373299994
 30
0.0
 40
0.5
 50
179.9999834912
 51
270.0
  0
LINE
  5
54B
  8
┌▓È_1
 62
     5
 10
-156.0408853879
 20
-84.439370373299994
 30
0.0
 11
-149.04088532540001
 21
-84.439370373299994
 31
0.0
  0
ARC
  5
54C
  8
┌▓È_1
 62
     5
 10
-136.04088532540001
 20
-85.439370373299994
 30
0.0
 40
1.0
 50
90.000003578299996
 51
179.9999915933
  0
ARC
  5
54D
  8
┌▓È_1
 62
     5
 10
-137.54088532540001
 20
-85.439370373299994
 30
0.0
 40
0.5
 50
269.9999790855
 51
0.0000168133
  0
ARC
  5
54E
  8
┌▓È_1
 62
     5
 10
-149.04088532540001
 20
-85.439370373299994
 30
0.0
 40
1.0
 50
0.0000082544
 51
90.0
  0
ARC
  5
54F
  8
┌▓È_1
 62
     5
 10
-147.54088532540001
 20
-85.439370373299994
 30
0.0
 40
0.5
 50
179.9999834912
 51
270.0
  0
LINE
  5
550
  8
┌▓È_1
 62
     5
 10
-137.54088550789999
 20
-85.939370373299994
 30
0.0
 11
-147.54088532540001
 21
-85.939370373299994
 31
0.0
  0
LINE
  5
551
  8
┌▓È_1
 62
     5
 10
-176.0408853879
 20
-84.439370373299994
 30
0.0
 11
-169.04088532540001
 21
-84.439370373299994
 31
0.0
  0
ARC
  5
552
  8
┌▓È_1
 62
     5
 10
-156.04088532540001
 20
-85.439370373299994
 30
0.0
 40
1.0
 50
90.000003578299996
 51
179.9999915933
  0
ARC
  5
553
  8
┌▓È_1
 62
     5
 10
-157.54088532540001
 20
-85.439370373299994
 30
0.0
 40
0.5
 50
269.9999790855
 51
0.0000168133
  0
ARC
  5
554
  8
┌▓È_1
 62
     5
 10
-169.04088532540001
 20
-85.439370373299994
 30
0.0
 40
1.0
 50
0.0000082544
 51
90.0
  0
ARC
  5
555
  8
┌▓È_1
 62
     5
 10
-167.54088532540001
 20
-85.439370373299994
 30
0.0
 40
0.5
 50
179.9999834912
 51
270.0
  0
LINE
  5
556
  8
┌▓È_1
 62
     5
 10
-157.54088550789999
 20
-85.939370373299994
 30
0.0
 11
-167.54088532540001
 21
-85.939370373299994
 31
0.0
  0
LINE
  5
557
  8
┌▓È_1
 62
     5
 10
-130.41956507309999
 20
-84.439370373299994
 30
0.0
 11
-129.04088532540001
 21
-84.439370373299994
 31
0.0
  0
LINE
  5
558
  8
┌▓È_1
 62
     5
 10
-136.0408853879
 20
-84.439370373299994
 30
0.0
 11
-134.66220576020001
 21
-84.439370373299994
 31
0.0
  0
LINE
  5
559
  8
┌▓È_1
 62
     5
 10
-229.04088541670001
 20
-84.439370373299994
 30
0.0
 11
-242.54088541670001
 21
-84.439370373299994
 31
0.0
  0
LINE
  5
55A
  8
┌▓È_1
 62
     5
 10
-117.5408855079
 20
-85.939370373299994
 30
0.0
 11
-127.5408853254
 21
-85.939370373299994
 31
0.0
  0
ARC
  5
55B
  8
┌▓È_1
 62
     5
 10
-127.5408853254
 20
-85.439370373299994
 30
0.0
 40
0.5
 50
179.9999834912
 51
270.0
  0
ARC
  5
55C
  8
┌▓È_1
 62
     5
 10
-129.04088532540001
 20
-85.439370373299994
 30
0.0
 40
1.0
 50
0.0000082544
 51
90.0
  0
ARC
  5
55D
  8
┌▓È_1
 62
     5
 10
92.459114492099985
 20
-85.439370373299994
 30
0.0
 40
0.5
 50
179.99998318670001
 51
270.0000209145
  0
ARC
  5
55E
  8
┌▓È_1
 62
     5
 10
103.9591144921
 20
-85.439370373299994
 30
0.0
 40
1.0
 50
90.0
 51
179.9999917456
  0
ARC
  5
55F
  8
┌▓È_1
 62
     5
 10
102.4591144921
 20
-85.439370373299994
 30
0.0
 40
0.5
 50
270.0
 51
0.0000165088
  0
LINE
  5
560
  8
┌▓È_1
 62
     5
 10
92.459114674599988
 20
-85.939370373299994
 30
0.0
 11
102.4591144921
 21
-85.939370373299994
 31
0.0
  0
ARC
  5
561
  8
┌▓È_1
 62
     5
 10
123.9591144921
 20
-85.439370373299994
 30
0.0
 40
1.0
 50
90.0
 51
179.9999917456
  0
ARC
  5
562
  8
┌▓È_1
 62
     5
 10
122.4591144921
 20
-85.439370373299994
 30
0.0
 40
0.5
 50
270.0
 51
0.0000165088
  0
LINE
  5
563
  8
┌▓È_1
 62
     5
 10
112.4591146746
 20
-85.939370373299994
 30
0.0
 11
122.4591144921
 21
-85.939370373299994
 31
0.0
  0
ARC
  5
564
  8
┌▓È_1
 62
     5
 10
-96.040885325400026
 20
-85.439370373299994
 30
0.0
 40
1.0
 50
90.000003578299996
 51
179.9999915933
  0
ARC
  5
565
  8
┌▓È_1
 62
     5
 10
-97.540885325400026
 20
-85.439370373299994
 30
0.0
 40
0.5
 50
269.9999790855
 51
0.0000168133
  0
LINE
  5
566
  8
┌▓È_1
 62
     5
 10
3.9591146120999992
 20
-84.439370373299994
 30
0.0
 11
10.9591146746
 21
-84.439370373299994
 31
0.0
  0
ARC
  5
567
  8
┌▓È_1
 62
     5
 10
23.959114674599999
 20
-85.439370373299994
 30
0.0
 40
1.0
 50
90.000003578299996
 51
179.9999915933
  0
ARC
  5
568
  8
┌▓È_1
 62
     5
 10
22.459114674599999
 20
-85.439370373299994
 30
0.0
 40
0.5
 50
269.9999790855
 51
0.0000168133
  0
ARC
  5
569
  8
┌▓È_1
 62
     5
 10
10.9591146746
 20
-85.439370373299994
 30
0.0
 40
1.0
 50
0.0000082544
 51
90.0
  0
ARC
  5
56A
  8
┌▓È_1
 62
     5
 10
12.4591146746
 20
-85.439370373299994
 30
0.0
 40
0.5
 50
179.9999834912
 51
270.0
  0
LINE
  5
56B
  8
┌▓È_1
 62
     5
 10
22.459114492099999
 20
-85.939370373299994
 30
0.0
 11
12.4591146746
 21
-85.939370373299994
 31
0.0
  0
LINE
  5
56C
  8
┌▓È_1
 62
     5
 10
-16.040885387900001
 20
-84.439370373299994
 30
0.0
 11
-9.0408853253999997
 21
-84.439370373299994
 31
0.0
  0
ARC
  5
56D
  8
┌▓È_1
 62
     5
 10
3.959114674599999
 20
-85.439370373299994
 30
0.0
 40
1.0
 50
90.000003578299996
 51
179.9999915933
  0
ARC
  5
56E
  8
┌▓È_1
 62
     5
 10
2.459114674599999
 20
-85.439370373299994
 30
0.0
 40
0.5
 50
269.9999790855
 51
0.0000168133
  0
ARC
  5
56F
  8
┌▓È_1
 62
     5
 10
-9.0408853253999997
 20
-85.439370373299994
 30
0.0
 40
1.0
 50
0.0000082544
 51
90.0
  0
ARC
  5
570
  8
┌▓È_1
 62
     5
 10
-7.5408853253999988
 20
-85.439370373299994
 30
0.0
 40
0.5
 50
179.9999834912
 51
270.0
  0
LINE
  5
571
  8
┌▓È_1
 62
     5
 10
2.459114492099999
 20
-85.939370373299994
 30
0.0
 11
-7.5408853253999988
 21
-85.939370373299994
 31
0.0
  0
LINE
  5
572
  8
┌▓È_1
 62
     5
 10
67.906328178799995
 20
-85.276423747300001
 30
0.0
 11
69.580434926899997
 21
-84.439370373299994
 31
0.0
  0
LINE
  5
573
  8
┌▓È_1
 62
     5
 10
67.011900987800004
 20
-85.276423747300001
 30
0.0
 11
65.33779423979999
 21
-84.439370373299994
 31
0.0
  0
ARC
  5
574
  8
┌▓È_1
 62
     5
 10
67.459114583299993
 20
-84.381996556299995
 30
0.0
 40
1.0
 50
243.4349488229
 51
296.56505117709997
  0
LINE
  5
575
  8
┌▓È_1
 62
     5
 10
-36.040885387899998
 20
-84.439370373299994
 30
0.0
 11
-29.040885325400001
 21
-84.439370373299994
 31
0.0
  0
LINE
  5
576
  8
┌▓È_1
 62
     5
 10
190.95911455449999
 20
-84.439370373299994
 30
0.0
 11
183.95911449210001
 21
-84.439370373299994
 31
0.0
  0
ARC
  5
577
  8
┌▓È_1
 62
     5
 10
170.95911449210001
 20
-85.439370373299994
 30
0.0
 40
1.0
 50
0.0000084067
 51
89.999996421700004
  0
ARC
  5
578
  8
┌▓È_1
 62
     5
 10
172.45911449210001
 20
-85.439370373299994
 30
0.0
 40
0.5
 50
179.99998318670001
 51
270.0000209145
  0
ARC
  5
579
  8
┌▓È_1
 62
     5
 10
183.95911449210001
 20
-85.439370373299994
 30
0.0
 40
1.0
 50
90.0
 51
179.9999917456
  0
LINE
  5
57A
  8
┌▓È_1
 62
     5
 10
-17.540885507900001
 20
-85.939370373299994
 30
0.0
 11
-27.540885325400001
 21
-85.939370373299994
 31
0.0
  0
LINE
  5
57B
  8
┌▓È_1
 62
     5
 10
-56.040885387899998
 20
-84.439370373299994
 30
0.0
 11
-49.040885325399998
 21
-84.439370373299994
 31
0.0
  0
ARC
  5
57C
  8
┌▓È_1
 62
     5
 10
-36.040885325399998
 20
-85.439370373299994
 30
0.0
 40
1.0
 50
90.000003578299996
 51
179.9999915933
  0
ARC
  5
57D
  8
┌▓È_1
 62
     5
 10
-37.540885325399998
 20
-85.439370373299994
 30
0.0
 40
0.5
 50
269.9999790855
 51
0.0000168133
  0
ARC
  5
57E
  8
┌▓È_1
 62
     5
 10
-49.040885325399998
 20
-85.439370373299994
 30
0.0
 40
1.0
 50
0.0000082544
 51
90.0
  0
ARC
  5
57F
  8
┌▓È_1
 62
     5
 10
-47.540885325399991
 20
-85.439370373299994
 30
0.0
 40
0.5
 50
179.9999834912
 51
270.0
  0
LINE
  5
580
  8
┌▓È_1
 62
     5
 10
-37.540885507900001
 20
-85.939370373299994
 30
0.0
 11
-47.540885325399991
 21
-85.939370373299994
 31
0.0
  0
LINE
  5
581
  8
┌▓È_1
 62
     5
 10
-76.040885387900005
 20
-84.439370373299994
 30
0.0
 11
-69.040885325399998
 21
-84.439370373299994
 31
0.0
  0
ARC
  5
582
  8
┌▓È_1
 62
     5
 10
-56.040885325399998
 20
-85.439370373299994
 30
0.0
 40
1.0
 50
90.000003578299996
 51
179.9999915933
  0
ARC
  5
583
  8
┌▓È_1
 62
     5
 10
-57.540885325399991
 20
-85.439370373299994
 30
0.0
 40
0.5
 50
269.9999790855
 51
0.0000168133
  0
ARC
  5
584
  8
┌▓È_1
 62
     5
 10
-69.040885325399998
 20
-85.439370373299994
 30
0.0
 40
1.0
 50
0.0000082544
 51
90.0
  0
ARC
  5
585
  8
┌▓È_1
 62
     5
 10
-67.540885325399984
 20
-85.439370373299994
 30
0.0
 40
0.5
 50
179.9999834912
 51
270.0
  0
LINE
  5
586
  8
┌▓È_1
 62
     5
 10
-57.540885507900001
 20
-85.939370373299994
 30
0.0
 11
-67.540885325399984
 21
-85.939370373299994
 31
0.0
  0
LINE
  5
587
  8
┌▓È_1
 62
     5
 10
-96.040885387900005
 20
-84.439370373299994
 30
0.0
 11
-89.040885325400012
 21
-84.439370373299994
 31
0.0
  0
ARC
  5
588
  8
┌▓È_1
 62
     5
 10
-76.040885325399998
 20
-85.439370373299994
 30
0.0
 40
1.0
 50
90.000003578299996
 51
179.9999915933
  0
ARC
  5
589
  8
┌▓È_1
 62
     5
 10
-77.540885325399984
 20
-85.439370373299994
 30
0.0
 40
0.5
 50
269.9999790855
 51
0.0000168133
  0
ARC
  5
58A
  8
┌▓È_1
 62
     5
 10
-89.040885325400012
 20
-85.439370373299994
 30
0.0
 40
1.0
 50
0.0000082544
 51
90.0
  0
ARC
  5
58B
  8
┌▓È_1
 62
     5
 10
-87.540885325399998
 20
-85.439370373299994
 30
0.0
 40
0.5
 50
179.9999834912
 51
270.0
  0
LINE
  5
58C
  8
┌▓È_1
 62
     5
 10
-77.540885507900001
 20
-85.939370373299994
 30
0.0
 11
-87.540885325399998
 21
-85.939370373299994
 31
0.0
  0
LINE
  5
58D
  8
┌▓È_1
 62
     5
 10
110.9591145545
 20
-84.439370373299994
 30
0.0
 11
103.9591144921
 21
-84.439370373299994
 31
0.0
  0
ARC
  5
58E
  8
┌▓È_1
 62
     5
 10
90.959114492099985
 20
-85.439370373299994
 30
0.0
 40
1.0
 50
0.0000084067
 51
89.999996421700004
  0
LINE
  5
58F
  8
┌▓È_1
 62
     5
 10
292.45911467460002
 20
-85.939370373299994
 30
0.0
 11
302.45911449210001
 21
-85.939370373299994
 31
0.0
  0
LINE
  5
590
  8
┌▓È_1
 62
     5
 10
290.95911455449999
 20
-84.439370373299994
 30
0.0
 11
283.95911449210001
 21
-84.439370373299994
 31
0.0
  0
ARC
  5
591
  8
┌▓È_1
 62
     5
 10
270.95911449210001
 20
-85.439370373299994
 30
0.0
 40
1.0
 50
0.0000084067
 51
89.999996421700004
  0
ARC
  5
592
  8
┌▓È_1
 62
     5
 10
272.45911449210001
 20
-85.439370373299994
 30
0.0
 40
0.5
 50
179.99998318670001
 51
270.0000209145
  0
LINE
  5
593
  8
┌▓È_1
 62
     5
 10
90.959114554500005
 20
-84.439370373299994
 30
0.0
 11
83.959114492099999
 21
-84.439370373299994
 31
0.0
  0
ARC
  5
594
  8
┌▓È_1
 62
     5
 10
70.959114492099985
 20
-85.439370373299994
 30
0.0
 40
1.0
 50
0.0000084067
 51
89.999996421700004
  0
ARC
  5
595
  8
┌▓È_1
 62
     5
 10
72.459114492099999
 20
-85.439370373299994
 30
0.0
 40
0.5
 50
179.99998318670001
 51
270.0000209145
  0
ARC
  5
596
  8
┌▓È_1
 62
     5
 10
83.959114492099999
 20
-85.439370373299994
 30
0.0
 40
1.0
 50
90.0
 51
179.9999917456
  0
ARC
  5
597
  8
┌▓È_1
 62
     5
 10
82.459114492099999
 20
-85.439370373299994
 30
0.0
 40
0.5
 50
270.0
 51
0.0000165088
  0
LINE
  5
598
  8
┌▓È_1
 62
     5
 10
72.459114674600002
 20
-85.939370373299994
 30
0.0
 11
82.459114492099999
 21
-85.939370373299994
 31
0.0
  0
LINE
  5
599
  8
┌▓È_1
 62
     5
 10
70.959114554500005
 20
-84.439370373299994
 30
0.0
 11
69.580434926899997
 21
-84.439370373299994
 31
0.0
  0
LINE
  5
59A
  8
┌▓È_1
 62
     5
 10
65.33779423979999
 20
-84.439370373299994
 30
0.0
 11
63.959114492099999
 21
-84.439370373299994
 31
0.0
  0
LINE
  5
59B
  8
┌▓È_1
 62
     5
 10
27.90632817880001
 20
-85.276423747300001
 30
0.0
 11
29.172034178499999
 21
-84.643570747499993
 31
0.0
  0
LINE
  5
59C
  8
┌▓È_1
 62
     5
 10
27.011900987800001
 20
-85.276423747300001
 30
0.0
 11
25.337794239800001
 21
-84.439370373299994
 31
0.0
  0
ARC
  5
59D
  8
┌▓È_1
 62
     5
 10
27.4591145833
 20
-84.381996556299995
 30
0.0
 40
1.0
 50
243.4349488229
 51
296.56505117709997
  0
LINE
  5
59E
  8
┌▓È_1
 62
     5
 10
23.959114612099999
 20
-84.439370373299994
 30
0.0
 11
25.337794239800001
 21
-84.439370373299994
 31
0.0
  0
LINE
  5
59F
  8
┌▓È_1
 62
     5
 10
52.459114674600002
 20
-85.939370373299994
 30
0.0
 11
62.459114492099999
 21
-85.939370373299994
 31
0.0
  0
ARC
  5
5A0
  8
┌▓È_1
 62
     5
 10
62.459114492099999
 20
-85.439370373299994
 30
0.0
 40
0.5
 50
270.0
 51
0.0000165088
  0
ARC
  5
5A1
  8
┌▓È_1
 62
     5
 10
63.959114492099999
 20
-85.439370373299994
 30
0.0
 40
1.0
 50
90.0
 51
179.9999917456
  0
ARC
  5
5A2
  8
┌▓È_1
 62
     5
 10
52.459114492099999
 20
-85.439370373299994
 30
0.0
 40
0.5
 50
179.99998318670001
 51
270.0000209145
  0
ARC
  5
5A3
  8
┌▓È_1
 62
     5
 10
50.959114492099992
 20
-85.439370373299994
 30
0.0
 40
1.0
 50
0.0000084067
 51
89.999996421700004
  0
LINE
  5
5A4
  8
┌▓È_1
 62
     5
 10
50.959114554499997
 20
-84.439370373299994
 30
0.0
 11
49.224286749799987
 21
-84.439370264999994
 31
0.0
  0
LINE
  5
5A5
  8
┌▓È_1
 62
     5
 10
150.95911455449999
 20
-84.439370373299994
 30
0.0
 11
143.95911449210001
 21
-84.439370373299994
 31
0.0
  0
ARC
  5
5A6
  8
┌▓È_1
 62
     5
 10
143.95911449210001
 20
-85.439370373299994
 30
0.0
 40
1.0
 50
90.0
 51
179.9999917456
  0
ARC
  5
5A7
  8
┌▓È_1
 62
     5
 10
142.45911449210001
 20
-85.439370373299994
 30
0.0
 40
0.5
 50
270.0
 51
0.0000165088
  0
LINE
  5
5A8
  8
┌▓È_1
 62
     5
 10
230.95911455449999
 20
-84.439370373299994
 30
0.0
 11
229.58043492690001
 21
-84.439370373299994
 31
0.0
  0
LINE
  5
5A9
  8
┌▓È_1
 62
     5
 10
225.33779423979999
 20
-84.439370373299994
 30
0.0
 11
223.95911449210001
 21
-84.439370373299994
 31
0.0
  0
ARC
  5
5AA
  8
┌▓È_1
 62
     5
 10
210.95911449210001
 20
-85.439370373299994
 30
0.0
 40
1.0
 50
0.0000084067
 51
89.999996421700004
  0
ARC
  5
5AB
  8
┌▓È_1
 62
     5
 10
212.45911449210001
 20
-85.439370373299994
 30
0.0
 40
0.5
 50
179.99998318670001
 51
270.0000209145
  0
ARC
  5
5AC
  8
┌▓È_1
 62
     5
 10
182.45911449210001
 20
-85.439370373299994
 30
0.0
 40
0.5
 50
270.0
 51
0.0000165088
  0
LINE
  5
5AD
  8
┌▓È_1
 62
     5
 10
172.45911467459999
 20
-85.939370373299994
 30
0.0
 11
182.45911449210001
 21
-85.939370373299994
 31
0.0
  0
LINE
  5
5AE
  8
┌▓È_1
 62
     5
 10
170.95911455449999
 20
-84.439370373299994
 30
0.0
 11
163.95911449210001
 21
-84.439370373299994
 31
0.0
  0
ARC
  5
5AF
  8
┌▓È_1
 62
     5
 10
150.95911449210001
 20
-85.439370373299994
 30
0.0
 40
1.0
 50
0.0000084067
 51
89.999996421700004
  0
ARC
  5
5B0
  8
┌▓È_1
 62
     5
 10
152.45911449210001
 20
-85.439370373299994
 30
0.0
 40
0.5
 50
179.99998318670001
 51
270.0000209145
  0
ARC
  5
5B1
  8
┌▓È_1
 62
     5
 10
163.95911449210001
 20
-85.439370373299994
 30
0.0
 40
1.0
 50
90.0
 51
179.9999917456
  0
ARC
  5
5B2
  8
┌▓È_1
 62
     5
 10
162.45911449210001
 20
-85.439370373299994
 30
0.0
 40
0.5
 50
270.0
 51
0.0000165088
  0
LINE
  5
5B3
  8
┌▓È_1
 62
     5
 10
152.45911467459999
 20
-85.939370373299994
 30
0.0
 11
162.45911449210001
 21
-85.939370373299994
 31
0.0
  0
LINE
  5
5B4
  8
┌▓È_1
 62
     5
 10
227.90632817880001
 20
-85.276423747300001
 30
0.0
 11
229.58043492690001
 21
-84.439370373299994
 31
0.0
  0
LINE
  5
5B5
  8
┌▓È_1
 62
     5
 10
227.0119009878
 20
-85.276423747300001
 30
0.0
 11
225.33779423979999
 21
-84.439370373299994
 31
0.0
  0
ARC
  5
5B6
  8
┌▓È_1
 62
     5
 10
227.45911458329999
 20
-84.381996556299995
 30
0.0
 40
1.0
 50
243.4349488229
 51
296.56505117709997
  0
LINE
  5
5B7
  8
┌▓È_1
 62
     5
 10
312.45911467460002
 20
-85.939370373299994
 30
0.0
 11
322.45911449210001
 21
-85.939370373299994
 31
0.0
  0
ARC
  5
5B8
  8
┌▓È_1
 62
     5
 10
322.45911449210001
 20
-85.439370373299994
 30
0.0
 40
0.5
 50
270.0
 51
0.0000165088
  0
ARC
  5
5B9
  8
┌▓È_1
 62
     5
 10
323.95911449210001
 20
-85.439370373299994
 30
0.0
 40
1.0
 50
90.0
 51
179.9999917456
  0
ARC
  5
5BA
  8
┌▓È_1
 62
     5
 10
312.45911449210001
 20
-85.439370373299994
 30
0.0
 40
0.5
 50
179.99998318670001
 51
270.0000209145
  0
ARC
  5
5BB
  8
┌▓È_1
 62
     5
 10
310.95911449210001
 20
-85.439370373299994
 30
0.0
 40
1.0
 50
0.0000084067
 51
89.999996421700004
  0
LINE
  5
5BC
  8
┌▓È_1
 62
     5
 10
310.95911455449999
 20
-84.439370373299994
 30
0.0
 11
303.95911449210001
 21
-84.439370373299994
 31
0.0
  0
ARC
  5
5BD
  8
┌▓È_1
 62
     5
 10
290.95911449210001
 20
-85.439370373299994
 30
0.0
 40
1.0
 50
0.0000084067
 51
89.999996421700004
  0
ARC
  5
5BE
  8
┌▓È_1
 62
     5
 10
292.45911449210001
 20
-85.439370373299994
 30
0.0
 40
0.5
 50
179.99998318670001
 51
270.0000209145
  0
ARC
  5
5BF
  8
┌▓È_1
 62
     5
 10
303.95911449210001
 20
-85.439370373299994
 30
0.0
 40
1.0
 50
90.0
 51
179.9999917456
  0
ARC
  5
5C0
  8
┌▓È_1
 62
     5
 10
302.45911449210001
 20
-85.439370373299994
 30
0.0
 40
0.5
 50
270.0
 51
0.0000165088
  0
ARC
  5
5C1
  8
┌▓È_1
 62
     5
 10
223.95911449210001
 20
-85.439370373299994
 30
0.0
 40
1.0
 50
90.0
 51
179.9999917456
  0
ARC
  5
5C2
  8
┌▓È_1
 62
     5
 10
222.45911449210001
 20
-85.439370373299994
 30
0.0
 40
0.5
 50
270.0
 51
0.0000165088
  0
LINE
  5
5C3
  8
┌▓È_1
 62
     5
 10
212.45911467459999
 20
-85.939370373299994
 30
0.0
 11
222.45911449210001
 21
-85.939370373299994
 31
0.0
  0
LINE
  5
5C4
  8
┌▓È_1
 62
     5
 10
323.95911458329999
 20
-84.439370373299994
 30
0.0
 11
337.45911458329999
 21
-84.439370373299994
 31
0.0
  0
ARC
  5
5C5
  8
┌▓È_1
 62
     5
 10
283.95911449210001
 20
-85.439370373299994
 30
0.0
 40
1.0
 50
90.0
 51
179.9999917456
  0
ARC
  5
5C6
  8
┌▓È_1
 62
     5
 10
282.45911449210001
 20
-85.439370373299994
 30
0.0
 40
0.5
 50
270.0
 51
0.0000165088
  0
LINE
  5
5C7
  8
┌▓È_1
 62
     5
 10
272.45911467460002
 20
-85.939370373299994
 30
0.0
 11
282.45911449210001
 21
-85.939370373299994
 31
0.0
  0
LINE
  5
5C8
  8
┌▓È_1
 62
     5
 10
270.95911455449999
 20
-84.439370373299994
 30
0.0
 11
263.95911449210001
 21
-84.439370373299994
 31
0.0
  0
ARC
  5
5C9
  8
┌▓È_1
 62
     5
 10
250.95911449210001
 20
-85.439370373299994
 30
0.0
 40
1.0
 50
0.0000084067
 51
89.999996421700004
  0
ARC
  5
5CA
  8
┌▓È_1
 62
     5
 10
252.45911449210001
 20
-85.439370373299994
 30
0.0
 40
0.5
 50
179.99998318670001
 51
270.0000209145
  0
ARC
  5
5CB
  8
┌▓È_1
 62
     5
 10
263.95911449210001
 20
-85.439370373299994
 30
0.0
 40
1.0
 50
90.0
 51
179.9999917456
  0
ARC
  5
5CC
  8
┌▓È_1
 62
     5
 10
262.45911449210001
 20
-85.439370373299994
 30
0.0
 40
0.5
 50
270.0
 51
0.0000165088
  0
LINE
  5
5CD
  8
┌▓È_1
 62
     5
 10
252.45911467459999
 20
-85.939370373299994
 30
0.0
 11
262.45911449210001
 21
-85.939370373299994
 31
0.0
  0
LINE
  5
5CE
  8
┌▓È_1
 62
     5
 10
250.95911455449999
 20
-84.439370373299994
 30
0.0
 11
243.95911449210001
 21
-84.439370373299994
 31
0.0
  0
ARC
  5
5CF
  8
┌▓È_1
 62
     5
 10
230.95911449210001
 20
-85.439370373299994
 30
0.0
 40
1.0
 50
0.0000084067
 51
89.999996421700004
  0
ARC
  5
5D0
  8
┌▓È_1
 62
     5
 10
232.45911449210001
 20
-85.439370373299994
 30
0.0
 40
0.5
 50
179.99998318670001
 51
270.0000209145
  0
ARC
  5
5D1
  8
┌▓È_1
 62
     5
 10
243.95911449210001
 20
-85.439370373299994
 30
0.0
 40
1.0
 50
90.0
 51
179.9999917456
  0
ARC
  5
5D2
  8
┌▓È_1
 62
     5
 10
242.45911449210001
 20
-85.439370373299994
 30
0.0
 40
0.5
 50
270.0
 51
0.0000165088
  0
LINE
  5
5D3
  8
┌▓È_1
 62
     5
 10
232.45911467459999
 20
-85.939370373299994
 30
0.0
 11
242.45911449210001
 21
-85.939370373299994
 31
0.0
  0
LINE
  5
5D4
  8
┌▓È_1
 62
     5
 10
210.95911455449999
 20
-84.439370373299994
 30
0.0
 11
203.95911449210001
 21
-84.439370373299994
 31
0.0
  0
ARC
  5
5D5
  8
┌▓È_1
 62
     5
 10
190.95911449210001
 20
-85.439370373299994
 30
0.0
 40
1.0
 50
0.0000084067
 51
89.999996421700004
  0
ARC
  5
5D6
  8
┌▓È_1
 62
     5
 10
192.45911449210001
 20
-85.439370373299994
 30
0.0
 40
0.5
 50
179.99998318670001
 51
270.0000209145
  0
ARC
  5
5D7
  8
┌▓È_1
 62
     5
 10
203.95911449210001
 20
-85.439370373299994
 30
0.0
 40
1.0
 50
90.0
 51
179.9999917456
  0
ARC
  5
5D8
  8
┌▓È_1
 62
     5
 10
202.45911449210001
 20
-85.439370373299994
 30
0.0
 40
0.5
 50
270.0
 51
0.0000165088
  0
LINE
  5
5D9
  8
┌▓È_1
 62
     5
 10
192.45911467459999
 20
-85.939370373299994
 30
0.0
 11
202.45911449210001
 21
-85.939370373299994
 31
0.0
  0
ENDBLK
  5
5DA
  8
0
  0
BLOCK
  8
0
  2
*D27
 70
     1
 10
0.0
 20
0.0
 30
0.0
  3
*D27
  1

  0
TEXT
  5
5E2
  8
0
 62
     0
 10
30.525782140099999
 20
-130.86059902509999
 30
0.0
 40
7.1966662884000003
  1
P=160x10
  0
LINE
  5
5E3
  8
0
 62
     0
 10
-132.54088541670001
 20
-94.696128443700005
 30
0.0
 11
-132.54088541670001
 21
-136.1305989583
 31
0.0
  0
LINE
  5
5E4
  8
0
 62
     0
 10
227.45911458329999
 20
-94.638754626700006
 30
0.0
 11
227.45911458329999
 21
-136.1305989583
 31
0.0
  0
LINE
  5
5E5
  8
0
 62
     0
 10
-132.54088541670001
 20
-134.1305989583
 30
0.0
 11
68.6257801374
 21
-134.1305989583
 31
0.0
  0
LINE
  5
5E6
  8
0
 62
     0
 10
-132.54088541670001
 20
-134.1305989583
 30
0.0
 11
26.292449029299998
 21
-134.1305989583
 31
0.0
  0
LINE
  5
5E7
  8
0
 62
     0
 10
227.45911458329999
 20
-134.1305989583
 30
0.0
 11
68.6257801374
 21
-134.1305989583
 31
0.0
  0
LINE
  5
5E8
  8
0
 62
     0
 10
227.45911458329999
 20
-134.1305989583
 30
0.0
 11
26.292449029299998
 21
-134.1305989583
 31
0.0
  0
LINE
  5
5E9
  8
0
 62
     0
 10
227.45911458329999
 20
-134.1305989583
 30
0.0
 11
217.45911458329999
 21
-134.1305989583
 31
0.0
  0
SOLID
  5
5EA
  8
0
 62
     0
 10
227.45911458329999
 20
-134.1305989583
 30
0.0
 11
223.5954113324
 21
-135.1658751329
 31
0.0
 12
223.5954113324
 22
-133.09532278379999
 32
0.0
 13
224.56133714520001
 23
-134.1305989583
 33
0.0
  0
LINE
  5
5EB
  8
0
 62
     0
 10
-132.54088541670001
 20
-134.1305989583
 30
0.0
 11
-122.54088541669999
 21
-134.1305989583
 31
0.0
  0
SOLID
  5
5EC
  8
0
 62
     0
 10
-132.54088541670001
 20
-134.1305989583
 30
0.0
 11
-128.67718216579999
 21
-133.09532278379999
 31
0.0
 12
-128.67718216579999
 22
-135.1658751329
 32
0.0
 13
-129.64310797850001
 23
-134.1305989583
 33
0.0
  0
ENDBLK
  5
5ED
  8
0
  0
BLOCK
  8
0
  2
*D28
 70
     1
 10
0.0
 20
0.0
 30
0.0
  3
*D28
  1

  0
TEXT
  5
5F1
  8
0
 62
     0
 10
38.142448695500001
 20
-41.763203191799988
 30
0.0
 40
7.1966662884000003
  1
P=20x89
  0
LINE
  5
5F2
  8
0
 62
     0
 10
322.95911458329999
 20
-81.439062500000006
 30
0.0
 11
322.95911458329999
 21
-43.033203125
 31
0.0
  0
LINE
  5
5F3
  8
0
 62
     0
 10
-217.04088541670001
 20
-81.439062500000006
 30
0.0
 11
-217.04088541670001
 21
-43.033203125
 31
0.0
  0
LINE
  5
5F4
  8
0
 62
     0
 10
322.95911458329999
 20
-45.033203125
 30
0.0
 11
72.009113581999983
 21
-45.033203125
 31
0.0
  0
LINE
  5
5F5
  8
0
 62
     0
 10
322.95911458329999
 20
-45.033203125
 30
0.0
 11
33.909115584699997
 21
-45.033203125
 31
0.0
  0
LINE
  5
5F6
  8
0
 62
     0
 10
-217.04088541670001
 20
-45.033203125
 30
0.0
 11
72.009113581999983
 21
-45.033203125
 31
0.0
  0
LINE
  5
5F7
  8
0
 62
     0
 10
-217.04088541670001
 20
-45.033203125
 30
0.0
 11
33.909115584699997
 21
-45.033203125
 31
0.0
  0
LINE
  5
5F8
  8
0
 62
     0
 10
-217.04088541670001
 20
-45.033203125
 30
0.0
 11
-207.04088541670001
 21
-45.033203125
 31
0.0
  0
SOLID
  5
5F9
  8
0
 62
     0
 10
-217.04088541670001
 20
-45.033203125
 30
0.0
 11
-213.17718216579999
 21
-43.997926950500002
 31
0.0
 12
-213.17718216579999
 22
-46.068479299499991
 32
0.0
 13
-214.14310797850001
 23
-45.033203125
 33
0.0
  0
LINE
  5
5FA
  8
0
 62
     0
 10
322.95911458329999
 20
-45.033203125
 30
0.0
 11
312.95911458329999
 21
-45.033203125
 31
0.0
  0
SOLID
  5
5FB
  8
0
 62
     0
 10
322.95911458329999
 20
-45.033203125
 30
0.0
 11
319.09541133239998
 21
-46.068479299499991
 31
0.0
 12
319.09541133239998
 22
-43.997926950500002
 32
0.0
 13
320.06133714520001
 23
-45.033203125
 33
0.0
  0
ENDBLK
  5
5FC
  8
0
  0
BLOCK
  8
0
  2
*D29
 70
     1
 10
0.0
 20
0.0
 30
0.0
  3
*D29
  1

  0
TEXT
  5
600
  8
0
 62
     0
 10
36.165879281399988
 20
166.98393375079999
 30
0.0
 40
7.1966662884000003
  1
1820
  0
LINE
  5
601
  8
0
 62
     0
 10
337.45911458329999
 20
128.90377604170001
 30
0.0
 11
337.45911458329999
 21
165.71393381749999
 31
0.0
  0
LINE
  5
602
  8
0
 62
     0
 10
-242.54088541670001
 20
128.90377604170001
 30
0.0
 11
-242.54088541670001
 21
165.71393381749999
 31
0.0
  0
LINE
  5
603
  8
0
 62
     0
 10
337.45911458329999
 20
163.71393381749999
 30
0.0
 11
57.3325448354
 21
163.71393381749999
 31
0.0
  0
LINE
  5
604
  8
0
 62
     0
 10
337.45911458329999
 20
163.71393381749999
 30
0.0
 11
31.932546170599998
 21
163.71393381749999
 31
0.0
  0
LINE
  5
605
  8
0
 62
     0
 10
-242.54088541670001
 20
163.71393381749999
 30
0.0
 11
57.3325448354
 21
163.71393381749999
 31
0.0
  0
LINE
  5
606
  8
0
 62
     0
 10
-242.54088541670001
 20
163.71393381749999
 30
0.0
 11
31.932546170599998
 21
163.71393381749999
 31
0.0
  0
LINE
  5
607
  8
0
 62
     0
 10
-242.54088541670001
 20
163.71393381749999
 30
0.0
 11
-232.54088541670001
 21
163.71393381749999
 31
0.0
  0
SOLID
  5
608
  8
0
 62
     0
 10
-242.54088541670001
 20
163.71393381749999
 30
0.0
 11
-238.67718216579999
 21
164.74920999209999
 31
0.0
 12
-238.67718216579999
 22
162.67865764299989
 32
0.0
 13
-239.64310797850001
 23
163.71393381749999
 33
0.0
  0
LINE
  5
609
  8
0
 62
     0
 10
337.45911458329999
 20
163.71393381749999
 30
0.0
 11
327.45911458329999
 21
163.71393381749999
 31
0.0
  0
SOLID
  5
60A
  8
0
 62
     0
 10
337.45911458329999
 20
163.71393381749999
 30
0.0
 11
333.59541133239998
 21
162.67865764299989
 31
0.0
 12
333.59541133239998
 22
164.74920999209999
 32
0.0
 13
334.56133714520001
 23
163.71393381749999
 33
0.0
  0
ENDBLK
  5
60B
  8
0
  0
BLOCK
  8
0
  2
*U30
 70
     1
 10
0.0
 20
0.0
 30
0.0
  3
*U30
  1

  0
TEXT
  5
626
  8
ë³Æ¨
  6
CONTINUOUS
 10
250.87743892123601
 20
243.70381971309999
 30
0.0
 40
5.397499935199999
  1
1
  0
ENDBLK
  5
628
  8
0
  0
BLOCK
  8
0
  2
*U31
 70
     1
 10
0.0
 20
0.0
 30
0.0
  3
*U31
  1

  0
TEXT
  5
62A
  8
É}ÿg
  6
CONTINUOUS
 10
374.41611260828932
 20
-181.32911787539999
 30
0.0
 40
5.9972220420999998
  1
B2âAâïâ}âCâg
  0
ENDBLK
  5
62C
  8
0
  0
BLOCK
  8
0
  2
*U32
 70
     1
 10
0.0
 20
0.0
 30
0.0
  3
*U32
  1

  0
TEXT
  5
62E
  8
É}ÿg
  6
CONTINUOUS
 10
374.7357614988581
 20
-171.60310263874459
 30
0.0
 40
5.9972220420999998
  1
ìòüEöÆüEöûÆâ
  0
ENDBLK
  5
630
  8
0
  0
BLOCK
  8
0
  2
*U33
 70
     1
 10
0.0
 20
0.0
 30
0.0
  3
*U33
  1

  0
TEXT
  5
632
  8
É}ÿg
  6
CONTINUOUS
 10
356.1530051603512
 20
-289.82356212170009
 30
0.0
 40
7.1966662884000003
  1
SLZ00020
  0
ENDBLK
  5
634
  8
0
  0
BLOCK
  8
0
  2
*U34
 70
     1
 10
0.0
 20
0.0
 30
0.0
  3
*U34
  1

  0
TEXT
  5
636
  8
É}ÿg
  6
CONTINUOUS
 10
327.00102699718781
 20
-268.22540643221981
 30
0.0
 40
7.1966662884000003
  1
ÆIÆîû{æ╠ L=1820Å│öFÉ}
  0
ENDBLK
  5
638
  8
0
  0
BLOCK
  8
0
  2
*U35
 70
     1
 10
0.0
 20
0.0
 30
0.0
  3
*U35
  1

  0
TEXT
  5
63A
  8
É}ÿg
  6
CONTINUOUS
 10
342.91040856367613
 20
-246.1888751312635
 30
0.0
 40
7.1966662884000003
  1
âtâëâbâVâàÆIÆî
  0
ENDBLK
  5
63C
  8
0
  0
BLOCK
  8
0
  2
*U36
 70
     1
 10
0.0
 20
0.0
 30
0.0
  3
*U36
  1

  0
TEXT
  5
63E
  8
É}ÿg
  6
CONTINUOUS
 10
276.76714936721038
 20
-181.39000337836549
 30
0.0
 40
5.9972220420999998
  1
âAâïâ~üiA6063S-T5üj
  0
ENDBLK
  5
640
  8
0
  0
BLOCK
  8
0
  2
*U37
 70
     1
 10
0.0
 20
0.0
 30
0.0
  3
*U37
  1

  0
TEXT
  5
642
  8
É}ÿg
  6
CONTINUOUS
 10
291.74498309671901
 20
-171.51177438429639
 30
0.0
 40
5.9972220420999998
  1
PVCüiìdÄ┐üj
  0
ENDBLK
  5
644
  8
0
  0
BLOCK
  8
0
  2
*U38
 70
     1
 10
0.0
 20
0.0
 30
0.0
  3
*U38
  1

  0
TEXT
  5
646
  8
É}ÿg
  6
CONTINUOUS
 10
150.96958065806999
 20
-161.32911787539999
 30
0.0
 40
5.9972220420999998
  1
3
  0
ENDBLK
  5
648
  8
0
  0
BLOCK
  8
0
  2
*U39
 70
     1
 10
0.0
 20
0.0
 30
0.0
  3
*U39
  1

  0
TEXT
  5
64A
  8
É}ÿg
  6
CONTINUOUS
 10
150.3676705231652
 20
-250.89072614220001
 30
0.0
 40
5.9972220420999998
  1
H20.10.23
  0
ENDBLK
  5
64C
  8
0
  0
BLOCK
  8
0
  2
*U40
 70
     1
 10
0.0
 20
0.0
 30
0.0
  3
*U40
  1

  0
TEXT
  5
64E
  8
É}ÿg
  6
CONTINUOUS
 10
183.05077089414209
 20
-273.02860521221368
 30
0.0
 40
5.9972220420999998
  1
ëÇî┤
  0
ENDBLK
  5
650
  8
0
  0
BLOCK
  8
0
  2
*U41
 70
     1
 10
0.0
 20
0.0
 30
0.0
  3
*U41
  1

  0
TEXT
  5
652
  8
É}ÿg
  6
CONTINUOUS
 10
183.05077089414209
 20
-262.02860521221368
 30
0.0
 40
5.9972220420999998
  1
ëÇî┤
  0
ENDBLK
  5
654
  8
0
  0
BLOCK
  8
0
  2
*U42
 70
     1
 10
0.0
 20
0.0
 30
0.0
  3
*U42
  1

  0
TEXT
  5
656
  8
É}ÿg
  6
CONTINUOUS
 10
151.28922954863879
 20
-181.32911787539999
 30
0.0
 40
5.9972220420999998
  1
1
  0
ENDBLK
  5
658
  8
0
  0
BLOCK
  8
0
  2
*U43
 70
     1
 10
0.0
 20
0.0
 30
0.0
  3
*U43
  1

  0
TEXT
  5
65A
  8
É}ÿg
  6
CONTINUOUS
 10
150.93913790658729
 20
-171.32911787539999
 30
0.0
 40
5.9972220420999998
  1
2
  0
ENDBLK
  5
65C
  8
0
  0
BLOCK
  8
0
  2
*U44
 70
     1
 10
0.0
 20
0.0
 30
0.0
  3
*U44
  1

  0
TEXT
  5
65E
  8
┌▓È_1
  6
CONTINUOUS
 10
-159.98747258020859
 20
206.91831883309999
 30
0.0
 40
7.1966662884000003
  1
1
  0
ENDBLK
  5
660
  8
0
  0
BLOCK
  8
0
  2
*U45
 70
     1
 10
0.0
 20
0.0
 30
0.0
  3
*U45
  1

  0
TEXT
  5
662
  8
┌▓È_1
  6
CONTINUOUS
 10
-8.6039834483761428
 20
206.91831883309999
 30
0.0
 40
7.1966662884000003
  1
2
  0
ENDBLK
  5
664
  8
0
  0
BLOCK
  8
0
  2
*U46
 70
     1
 10
0.0
 20
0.0
 30
0.0
  3
*U46
  1

  0
TEXT
  5
666
  8
É}ÿg
  6
CONTINUOUS
 10
185.91519618777409
 20
-181.66398814171021
 30
0.0
 40
5.9972220420999998
  1
Æîû{æ╠ü@L=1820
  0
ENDBLK
  5
668
  8
0
  0
BLOCK
  8
0
  2
*U47
 70
     1
 10
0.0
 20
0.0
 30
0.0
  3
*U47
  1

  0
TEXT
  5
66A
  8
É}ÿg
  6
CONTINUOUS
 10
178.18273731115781
 20
-171.60310263874459
 30
0.0
 40
5.9972220420999998
  1
ë╗Å¤âJâoü[ü@L=1820
  0
ENDBLK
  5
66C
  8
0
  0
BLOCK
  8
0
  2
*U48
 70
     1
 10
0.0
 20
0.0
 30
0.0
  3
*U48
  1

  0
TEXT
  5
66E
  8
É}ÿg
  6
CONTINUOUS
 10
254.6716254795578
 20
-261.8763914548
 30
0.0
 40
5.9972220420999998
  1
üûüûüû
  0
ENDBLK
  5
670
  8
0
  0
BLOCK
  8
0
  2
*U49
 70
     1
 10
0.0
 20
0.0
 30
0.0
  3
*U49
  1

  0
TEXT
  5
672
  8
É}ÿg
  6
CONTINUOUS
 10
254.6716254795578
 20
-272.8763914548
 30
0.0
 40
5.9972220420999998
  1
üûüûüû
  0
ENDBLK
  5
674
  8
0
  0
BLOCK
  8
0
  2
*U50
 70
     1
 10
0.0
 20
0.0
 30
0.0
  3
*U50
  1

  0
TEXT
  5
676
  8
É}ÿg
  6
CONTINUOUS
 10
209.89625173726321
 20
-250.89072614220001
 30
0.0
 40
5.9972220420999998
  1
1üF2
  0
ENDBLK
  5
678
  8
0
  0
BLOCK
  8
0
  2
*U51
 70
     1
 10
0.0
 20
0.0
 30
0.0
  3
*U51
  1

  0
TEXT
  5
67A
  8
É}ÿg
  6
CONTINUOUS
 10
231.50182402021929
 20
-228.21940643221981
 30
0.0
 40
7.1966662884000003
  1
ÄwÆÞû│é½î÷ìÀé═JIS B0408-Bé╔éµéÚé▒éã
  0
ENDBLK
  5
67C
  8
0
  0
BLOCK
  8
0
  2
*U52
 70
     1
 10
0.0
 20
0.0
 30
0.0
  3
*U52
  1

  0
TEXT
  5
67E
  8
É}ÿg
  6
CONTINUOUS
 10
379.37828109997611
 20
-191.7248736446756
 30
0.0
 40
5.9972220420999998
  1
ö§ü@ü@ü@ìl
  0
ENDBLK
  5
680
  8
0
  0
BLOCK
  8
0
  2
*U53
 70
     1
 10
0.0
 20
0.0
 30
0.0
  3
*U53
  1

  0
TEXT
  5
682
  8
É}ÿg
  6
CONTINUOUS
 10
193.8911970762523
 20
-191.57265988726189
 30
0.0
 40
5.9972220420999998
  1
òiü@ü@ü@û╝
  0
ENDBLK
  5
684
  8
0
  0
BLOCK
  8
0
  2
*U54
 70
     1
 10
0.0
 20
0.0
 30
0.0
  3
*U54
  1

  0
TEXT
  5
686
  8
É}ÿg
  6
CONTINUOUS
 10
293.6628764401317
 20
-191.5422171357792
 30
0.0
 40
5.9972220420999998
  1
ìÌü@ü@ü@Ä┐
  0
ENDBLK
  5
688
  8
0
  0
BLOCK
  8
0
  2
*U55
 70
     1
 10
0.0
 20
0.0
 30
0.0
  3
*U55
  1

  0
TEXT
  5
68A
  8
É}ÿg
  6
CONTINUOUS
 10
145.55077089414209
 20
-191.51177438429639
 30
0.0
 40
5.9972220420999998
  1
òiöÈ
  0
ENDBLK
  5
68C
  8
0
  0
BLOCK
  8
0
  2
*U56
 70
     1
 10
0.0
 20
0.0
 30
0.0
  3
*U56
  1

  0
TEXT
  5
68E
  8
É}ÿg
  6
CONTINUOUS
 10
153.25973191402559
 20
-239.99816246073101
 30
0.0
 40
5.9972220420999998
  1
ô·ü@ü@òt
  0
ENDBLK
  5
690
  8
0
  0
BLOCK
  8
0
  2
*U57
 70
     1
 10
0.0
 20
0.0
 30
0.0
  3
*U57
  1

  0
TEXT
  5
692
  8
É}ÿg
  6
CONTINUOUS
 10
295.58721342350532
 20
-283.23977438429642
 30
0.0
 40
5.9972220420999998
  1
É} öÈ
  0
ENDBLK
  5
694
  8
0
  0
BLOCK
  8
0
  2
*U58
 70
     1
 10
0.0
 20
0.0
 30
0.0
  3
*U58
  1

  0
TEXT
  5
696
  8
É}ÿg
  6
CONTINUOUS
 10
153.7367051235
 20
-291.90799549301062
 30
0.0
 40
10.794999837900001
  1
èöÄ«ë´Äð
  0
ENDBLK
  5
698
  8
0
  0
BLOCK
  8
0
  2
*U59
 70
     1
 10
0.0
 20
0.0
 30
0.0
  3
*U59
  1

  0
TEXT
  5
69A
  8
É}ÿg
  6
CONTINUOUS
 10
142.85703125000001
 20
-273.18081896962741
 30
0.0
 40
5.9972220420999998
  1
 É╗É}
  0
ENDBLK
  5
69C
  8
0
  0
BLOCK
  8
0
  2
*U60
 70
     1
 10
0.0
 20
0.0
 30
0.0
  3
*U60
  1

  0
TEXT
  5
69E
  8
É}ÿg
  6
CONTINUOUS
 10
142.85703125000001
 20
-262.11993346666202
 30
0.0
 40
5.9972220420999998
  1
 É¦îv
  0
ENDBLK
  5
6A0
  8
0
  0
BLOCK
  8
0
  2
*U61
 70
     1
 10
0.0
 20
0.0
 30
0.0
  3
*U61
  1

  0
TEXT
  5
6A2
  8
É}ÿg
  6
CONTINUOUS
 10
293.50188494693759
 20
-239.36154539022741
 30
0.0
 40
5.9972220420999998
  1
É╗òiû╝
  0
ENDBLK
  5
6A4
  8
0
  0
BLOCK
  8
0
  2
*U62
 70
     1
 10
0.0
 20
0.0
 30
0.0
  3
*U62
  1

  0
TEXT
  5
6A6
  8
É}ÿg
  6
CONTINUOUS
 10
293.66932008009258
 20
-261.30065988726187
 30
0.0
 40
5.9972220420999998
  1
É}û╩û╝
  0
ENDBLK
  5
6A8
  8
0
  0
BLOCK
  8
0
  2
*U63
 70
     1
 10
0.0
 20
0.0
 30
0.0
  3
*U63
  1

  0
TEXT
  5
6AA
  8
É}ÿg
  6
CONTINUOUS
 10
318.71897323705127
 20
254.63861948034321
 30
0.0
 40
5.3974999188999986
  1
ë³ü@Æ¨ü@ôÓü@ùe
  0
ENDBLK
  5
6AC
  8
0
  0
BLOCK
  8
0
  2
*U64
 70
     1
 10
0.0
 20
0.0
 30
0.0
  3
*U64
  1

  0
TEXT
  5
6AE
  8
É}ÿg
  6
CONTINUOUS
 10
149.4269899175238
 20
-214.1463438303071
 30
0.0
 40
7.1966662884000003
  1
ò\û╩ÅêùØ
  0
ENDBLK
  5
6B0
  8
0
  0
BLOCK
  8
0
  2
*U65
 70
     1
 10
0.0
 20
0.0
 30
0.0
  3
*U65
  1

  0
TEXT
  5
6B2
  8
É}ÿg
  6
CONTINUOUS
 10
149.60964642230559
 20
-228.29246903413249
 30
0.0
 40
7.1966662884000003
  1
êÛö╩î÷ìÀ
  0
ENDBLK
  5
6B4
  8
0
  0
BLOCK
  8
0
  2
*U66
 70
     1
 10
0.0
 20
0.0
 30
0.0
  3
*U66
  1

  0
TEXT
  5
6B6
  8
É}ÿg
  6
CONTINUOUS
 10
202.62043413288811
 20
-240.18081896962741
 30
0.0
 40
5.9972220420999998
  1
Ä┌ü@ü@ôx
  0
ENDBLK
  5
6B8
  8
0
  0
BLOCK
  8
0
  2
*U67
 70
     1
 10
0.0
 20
0.0
 30
0.0
  3
*U67
  1

  0
TEXT
  5
6BA
  8
É}ÿg
  6
CONTINUOUS
 10
217.85703125000001
 20
-273.21126172111008
 30
0.0
 40
5.9972220420999998
  1
 îƒÉ}
  0
ENDBLK
  5
6BC
  8
0
  0
BLOCK
  8
0
  2
*U68
 70
     1
 10
0.0
 20
0.0
 30
0.0
  3
*U68
  1

  0
TEXT
  5
6BE
  8
É}ÿg
  6
CONTINUOUS
 10
217.85703125000001
 20
-262.15037621814469
 30
0.0
 40
5.9972220420999998
  1
 Åãì©
  0
ENDBLK
  5
6C0
  8
0
  0
BLOCK
  8
0
  2
*U69
 70
     1
 10
0.0
 20
0.0
 30
0.0
  3
*U69
  1

  0
TEXT
  5
6C2
  8
É}ÿg
  6
CONTINUOUS
 10
412.77439180758779
 20
254.61122100359751
 30
0.0
 40
5.3974999188999986
  1
îƒöFÄÊ
  0
ENDBLK
  5
6C4
  8
0
  0
BLOCK
  8
0
  2
*U70
 70
     1
 10
0.0
 20
0.0
 30
0.0
  3
*U70
  1

  0
TEXT
  5
6C6
  8
É}ÿg
  6
CONTINUOUS
 10
392.85658723782478
 20
254.63861948034321
 30
0.0
 40
5.3974999188999986
  1
ë³Æ¨ÄÊ
  0
ENDBLK
  5
6C8
  8
0
  0
BLOCK
  8
0
  2
*U71
 70
     1
 10
0.0
 20
0.0
 30
0.0
  3
*U71
  1

  0
TEXT
  5
6CA
  8
É}ÿg
  6
CONTINUOUS
 10
246.1033067321886
 20
254.7482133873259
 30
0.0
 40
5.3974999188999986
  1
òøöÈ
  0
ENDBLK
  5
6CC
  8
0
  0
BLOCK
  8
0
  2
*U72
 70
     1
 10
0.0
 20
0.0
 30
0.0
  3
*U72
  1

  0
TEXT
  5
6CE
  8
É}ÿg
  6
CONTINUOUS
 10
266.56890323199519
 20
254.6934164338345
 30
0.0
 40
5.3974999188999986
  1
ë³Æ¨ô·
  0
ENDBLK
  5
6D0
  8
0
  0
ENDSEC
  0
SECTION
  2
ENTITIES
  0
LINE
  5
2F
  8
┌▓È_1
 62
     5
 10
191.95911458329999
 20
8.8385416666999994
 30
0.0
 11
191.95911458329999
 21
10.0385416667
 31
0.0
  0
LINE
  5
30
  8
┌▓È_1
 62
     5
 10
227.45911458329999
 20
8.8385416666999994
 30
0.0
 11
227.45911458329999
 21
10.0385416667
 31
0.0
  0
LINE
  5
31
  8
┌▓È_1
 62
     5
 10
211.95911458329999
 20
8.8385416666999994
 30
0.0
 11
211.95911458329999
 21
10.0385416667
 31
0.0
  0
LINE
  5
32
  8
┌▓È_1
 62
     5
 10
202.95911458329999
 20
8.8385416666999994
 30
0.0
 11
202.95911458329999
 21
10.0385416667
 31
0.0
  0
LINE
  5
33
  8
┌▓È_1
 62
     5
 10
231.95911458329999
 20
8.8385416666999994
 30
0.0
 11
231.95911458329999
 21
10.0385416667
 31
0.0
  0
LINE
  5
34
  8
┌▓È_1
 62
     5
 10
225.95911458329999
 20
8.8385416666999994
 30
0.0
 11
225.95911458329999
 21
10.0385416667
 31
0.0
  0
LINE
  5
35
  8
┌▓È_1
 62
     5
 10
228.95911458329999
 20
8.8385416666999994
 30
0.0
 11
228.95911458329999
 21
10.0385416667
 31
0.0
  0
INSERT
  5
37
  8
┌▓È_1
  6
STITCH
  2
CLUMP0
 10
0.0
 20
0.0
 30
0.0
  0
POLYLINE
  8
┌▓È_1
  5
B01
  66
     1
 10
0.000000
 20
0.000000
 30
0.000000
  70
     8
  0
VERTEX
  8
┌▓È_1
  5
B02
 10
48.7579
 20
37.9296
 30
0.000000
  70
    32
  0
VERTEX
  8
┌▓È_1
  5
B03
 10
48.5375
 20
37.6473
 30
0.000000
  70
    32
  0
VERTEX
  8
┌▓È_1
  5
B04
 10
48.3207
 20
37.3656
 30
0.000000
  70
    32
  0
VERTEX
  8
┌▓È_1
  5
B05
 10
48.1077
 20
37.0843
 30
0.000000
  70
    32
  0
VERTEX
  8
┌▓È_1
  5
B06
 10
47.8985
 20
36.8036
 30
0.000000
  70
    32
  0
VERTEX
  8
┌▓È_1
  5
B07
 10
47.6932
 20
36.5233
 30
0.000000
  70
    32
  0
VERTEX
  8
┌▓È_1
  5
B08
 10
47.4919
 20
36.2436
 30
0.000000
  70
    32
  0
VERTEX
  8
┌▓È_1
  5
B09
 10
47.2947
 20
35.9644
 30
0.000000
  70
    32
  0
VERTEX
  8
┌▓È_1
  5
B0A
 10
47.1017
 20
35.6858
 30
0.000000
  70
    32
  0
VERTEX
  8
┌▓È_1
  5
B0B
 10
46.9129
 20
35.4077
 30
0.000000
  70
    32
  0
VERTEX
  8
┌▓È_1
  5
B0C
 10
46.7284
 20
35.1303
 30
0.000000
  70
    32
  0
VERTEX
  8
┌▓È_1
  5
B0D
 10
46.5484
 20
34.8533
 30
0.000000
  70
    32
  0
VERTEX
  8
┌▓È_1
  5
B0E
 10
46.3729
 20
34.5770
 30
0.000000
  70
    32
  0
VERTEX
  8
┌▓È_1
  5
B0F
 10
46.2020
 20
34.3013
 30
0.000000
  70
    32
  0
VERTEX
  8
┌▓È_1
  5
B10
 10
46.0358
 20
34.0262
 30
0.000000
  70
    32
  0
VERTEX
  8
┌▓È_1
  5
B11
 10
45.8743
 20
33.7517
 30
0.000000
  70
    32
  0
VERTEX
  8
┌▓È_1
  5
B12
 10
45.7177
 20
33.4779
 30
0.000000
  70
    32
  0
VERTEX
  8
┌▓È_1
  5
B13
 10
45.5660
 20
33.2047
 30
0.000000
  70
    32
  0
VERTEX
  8
┌▓È_1
  5
B14
 10
45.4194
 20
32.9322
 30
0.000000
  70
    32
  0
VERTEX
  8
┌▓È_1
  5
B15
 10
45.2778
 20
32.6604
 30
0.000000
  70
    32
  0
VERTEX
  8
┌▓È_1
  5
B16
 10
45.1415
 20
32.3892
 30
0.000000
  70
    32
  0
VERTEX
  8
┌▓È_1
  5
B17
 10
45.0104
 20
32.1187
 30
0.000000
  70
    32
  0
VERTEX
  8
┌▓È_1
  5
B18
 10
44.8846
 20
31.8490
 30
0.000000
  70
    32
  0
VERTEX
  8
┌▓È_1
  5
B19
 10
44.7643
 20
31.5799
 30
0.000000
  70
    32
  0
VERTEX
  8
┌▓È_1
  5
B1A
 10
44.6495
 20
31.3116
 30
0.000000
  70
    32
  0
VERTEX
  8
┌▓È_1
  5
B1B
 10
44.5404
 20
31.0440
 30
0.000000
  70
    32
  0
VERTEX
  8
┌▓È_1
  5
B1C
 10
44.4369
 20
30.7772
 30
0.000000
  70
    32
  0
VERTEX
  8
┌▓È_1
  5
B1D
 10
44.3392
 20
30.5111
 30
0.000000
  70
    32
  0
VERTEX
  8
┌▓È_1
  5
B1E
 10
44.2474
 20
30.2458
 30
0.000000
  70
    32
  0
VERTEX
  8
┌▓È_1
  5
B1F
 10
44.1615
 20
29.9813
 30
0.000000
  70
    32
  0
VERTEX
  8
┌▓È_1
  5
B20
 10
44.0817
 20
29.7176
 30
0.000000
  70
    32
  0
VERTEX
  8
┌▓È_1
  5
B21
 10
44.0079
 20
29.4546
 30
0.000000
  70
    32
  0
VERTEX
  8
┌▓È_1
  5
B22
 10
43.9404
 20
29.1925
 30
0.000000
  70
    32
  0
VERTEX
  8
┌▓È_1
  5
B23
 10
43.8792
 20
28.9313
 30
0.000000
  70
    32
  0
VERTEX
  8
┌▓È_1
  5
B24
 10
43.8243
 20
28.6708
 30
0.000000
  70
    32
  0
VERTEX
  8
┌▓È_1
  5
B25
 10
43.7759
 20
28.4113
 30
0.000000
  70
    32
  0
VERTEX
  8
┌▓È_1
  5
B26
 10
43.7341
 20
28.1525
 30
0.000000
  70
    32
  0
VERTEX
  8
┌▓È_1
  5
B27
 10
43.6988
 20
27.8947
 30
0.000000
  70
    32
  0
VERTEX
  8
┌▓È_1
  5
B28
 10
43.6703
 20
27.6377
 30
0.000000
  70
    32
  0
VERTEX
  8
┌▓È_1
  5
B29
 10
43.6486
 20
27.3816
 30
0.000000
  70
    32
  0
VERTEX
  8
┌▓È_1
  5
B2A
 10
43.6338
 20
27.1265
 30
0.000000
  70
    32
  0
VERTEX
  8
┌▓È_1
  5
B2B
 10
43.6259
 20
26.8722
 30
0.000000
  70
    32
  0
VERTEX
  8
┌▓È_1
  5
B2C
 10
43.6250
 20
26.6189
 30
0.000000
  70
    32
  0
VERTEX
  8
┌▓È_1
  5
B2D
 10
43.6314
 20
26.3665
 30
0.000000
  70
    32
  0
VERTEX
  8
┌▓È_1
  5
B2E
 10
43.6449
 20
26.1151
 30
0.000000
  70
    32
  0
VERTEX
  8
┌▓È_1
  5
B2F
 10
43.6657
 20
25.8646
 30
0.000000
  70
    32
  0
VERTEX
  8
┌▓È_1
  5
B30
 10
43.6939
 20
25.6151
 30
0.000000
  70
    32
  0
VERTEX
  8
┌▓È_1
  5
B31
 10
43.7296
 20
25.3666
 30
0.000000
  70
    32
  0
VERTEX
  8
┌▓È_1
  5
B32
 10
43.7729
 20
25.1191
 30
0.000000
  70
    32
  0
VERTEX
  8
┌▓È_1
  5
B33
 10
43.8238
 20
24.8726
 30
0.000000
  70
    32
  0
VERTEX
  8
┌▓È_1
  5
B34
 10
43.8824
 20
24.6271
 30
0.000000
  70
    32
  0
VERTEX
  8
┌▓È_1
  5
B35
 10
43.9488
 20
24.3826
 30
0.000000
  70
    32
  0
VERTEX
  8
┌▓È_1
  5
B36
 10
44.0232
 20
24.1392
 30
0.000000
  70
    32
  0
VERTEX
  8
┌▓È_1
  5
B37
 10
44.1055
 20
23.8968
 30
0.000000
  70
    32
  0
VERTEX
  8
┌▓È_1
  5
B38
 10
44.1959
 20
23.6555
 30
0.000000
  70
    32
  0
VERTEX
  8
┌▓È_1
  5
B39
 10
44.2944
 20
23.4153
 30
0.000000
  70
    32
  0
VERTEX
  8
┌▓È_1
  5
B3A
 10
44.4011
 20
23.1761
 30
0.000000
  70
    32
  0
VERTEX
  8
┌▓È_1
  5
B3B
 10
44.5162
 20
22.9381
 30
0.000000
  70
    32
  0
VERTEX
  8
┌▓È_1
  5
B3C
 10
44.6397
 20
22.7011
 30
0.000000
  70
    32
  0
VERTEX
  8
┌▓È_1
  5
B3D
 10
44.7714
 20
22.4652
 30
0.000000
  70
    32
  0
VERTEX
  8
┌▓È_1
  5
B3E
 10
44.9111
 20
22.2304
 30
0.000000
  70
    32
  0
VERTEX
  8
┌▓È_1
  5
B3F
 10
45.0586
 20
21.9966
 30
0.000000
  70
    32
  0
VERTEX
  8
┌▓È_1
  5
B40
 10
45.2136
 20
21.7638
 30
0.000000
  70
    32
  0
VERTEX
  8
┌▓È_1
  5
B41
 10
45.3759
 20
21.5320
 30
0.000000
  70
    32
  0
VERTEX
  8
┌▓È_1
  5
B42
 10
45.5453
 20
21.3011
 30
0.000000
  70
    32
  0
VERTEX
  8
┌▓È_1
  5
B43
 10
45.7215
 20
21.0710
 30
0.000000
  70
    32
  0
VERTEX
  8
┌▓È_1
  5
B44
 10
45.9043
 20
20.8419
 30
0.000000
  70
    32
  0
VERTEX
  8
┌▓È_1
  5
B45
 10
46.0935
 20
20.6136
 30
0.000000
  70
    32
  0
VERTEX
  8
┌▓È_1
  5
B46
 10
46.2887
 20
20.3861
 30
0.000000
  70
    32
  0
VERTEX
  8
┌▓È_1
  5
B47
 10
46.4899
 20
20.1594
 30
0.000000
  70
    32
  0
VERTEX
  8
┌▓È_1
  5
B48
 10
46.6968
 20
19.9334
 30
0.000000
  70
    32
  0
VERTEX
  8
┌▓È_1
  5
B49
 10
46.9090
 20
19.7081
 30
0.000000
  70
    32
  0
VERTEX
  8
┌▓È_1
  5
B4A
 10
47.1265
 20
19.4835
 30
0.000000
  70
    32
  0
VERTEX
  8
┌▓È_1
  5
B4B
 10
47.3488
 20
19.2596
 30
0.000000
  70
    32
  0
VERTEX
  8
┌▓È_1
  5
B4C
 10
47.5760
 20
19.0363
 30
0.000000
  70
    32
  0
VERTEX
  8
┌▓È_1
  5
B4D
 10
47.8076
 20
18.8136
 30
0.000000
  70
    32
  0
VERTEX
  8
┌▓È_1
  5
B4E
 10
48.0434
 20
18.5914
 30
0.000000
  70
    32
  0
VERTEX
  8
┌▓È_1
  5
B4F
 10
48.2833
 20
18.3698
 30
0.000000
  70
    32
  0
VERTEX
  8
┌▓È_1
  5
B50
 10
48.5269
 20
18.1486
 30
0.000000
  70
    32
  0
VERTEX
  8
┌▓È_1
  5
B51
 10
48.7741
 20
17.9280
 30
0.000000
  70
    32
  0
VERTEX
  8
┌▓È_1
  5
B52
 10
49.0246
 20
17.7077
 30
0.000000
  70
    32
  0
VERTEX
  8
┌▓È_1
  5
B53
 10
49.2781
 20
17.4879
 30
0.000000
  70
    32
  0
VERTEX
  8
┌▓È_1
  5
B54
 10
49.5345
 20
17.2684
 30
0.000000
  70
    32
  0
VERTEX
  8
┌▓È_1
  5
B55
 10
49.7935
 20
17.0493
 30
0.000000
  70
    32
  0
VERTEX
  8
┌▓È_1
  5
B56
 10
50.0549
 20
16.8305
 30
0.000000
  70
    32
  0
VERTEX
  8
┌▓È_1
  5
B57
 10
50.3184
 20
16.6120
 30
0.000000
  70
    32
  0
VERTEX
  8
┌▓È_1
  5
B58
 10
50.5838
 20
16.3937
 30
0.000000
  70
    32
  0
VERTEX
  8
┌▓È_1
  5
B59
 10
50.8509
 20
16.1757
 30
0.000000
  70
    32
  0
VERTEX
  8
┌▓È_1
  5
B5A
 10
51.1194
 20
15.9578
 30
0.000000
  70
    32
  0
VERTEX
  8
┌▓È_1
  5
B5B
 10
51.3891
 20
15.7401
 30
0.000000
  70
    32
  0
VERTEX
  8
┌▓È_1
  5
B5C
 10
51.6598
 20
15.5225
 30
0.000000
  70
    32
  0
VERTEX
  8
┌▓È_1
  5
B5D
 10
51.9312
 20
15.3051
 30
0.000000
  70
    32
  0
VERTEX
  8
┌▓È_1
  5
B5E
 10
52.2031
 20
15.0876
 30
0.000000
  70
    32
  0
VERTEX
  8
┌▓È_1
  5
B5F
 10
52.4752
 20
14.8703
 30
0.000000
  70
    32
  0
VERTEX
  8
┌▓È_1
  5
B60
 10
52.7474
 20
14.6529
 30
0.000000
  70
    32
  0
VERTEX
  8
┌▓È_1
  5
B61
 10
53.0194
 20
14.4355
 30
0.000000
  70
    32
  0
VERTEX
  8
┌▓È_1
  5
B62
 10
53.2909
 20
14.2180
 30
0.000000
  70
    32
  0
VERTEX
  8
┌▓È_1
  5
B63
 10
53.5617
 20
14.0005
 30
0.000000
  70
    32
  0
VERTEX
  8
┌▓È_1
  5
B64
 10
53.8316
 20
13.7828
 30
0.000000
  70
    32
  0
VERTEX
  8
┌▓È_1
  5
B65
 10
54.1004
 20
13.5649
 30
0.000000
  70
    32
  0
VERTEX
  8
┌▓È_1
  5
B66
 10
54.3678
 20
13.3469
 30
0.000000
  70
    32
  0
VERTEX
  8
┌▓È_1
  5
B67
 10
54.6335
 20
13.1287
 30
0.000000
  70
    32
  0
VERTEX
  8
┌▓È_1
  5
B68
 10
54.8974
 20
12.9102
 30
0.000000
  70
    32
  0
VERTEX
  8
┌▓È_1
  5
B69
 10
55.1593
 20
12.6915
 30
0.000000
  70
    32
  0
VERTEX
  8
┌▓È_1
  5
B6A
 10
55.4187
 20
12.4725
 30
0.000000
  70
    32
  0
VERTEX
  8
┌▓È_1
  5
B6B
 10
55.6757
 20
12.2531
 30
0.000000
  70
    32
  0
VERTEX
  8
┌▓È_1
  5
B6C
 10
55.9298
 20
12.0333
 30
0.000000
  70
    32
  0
VERTEX
  8
┌▓È_1
  5
B6D
 10
56.1809
 20
11.8132
 30
0.000000
  70
    32
  0
VERTEX
  8
┌▓È_1
  5
B6E
 10
56.4288
 20
11.5926
 30
0.000000
  70
    32
  0
VERTEX
  8
┌▓È_1
  5
B6F
 10
56.6731
 20
11.3715
 30
0.000000
  70
    32
  0
VERTEX
  8
┌▓È_1
  5
B70
 10
56.9137
 20
11.1500
 30
0.000000
  70
    32
  0
VERTEX
  8
┌▓È_1
  5
B71
 10
57.1504
 20
10.9279
 30
0.000000
  70
    32
  0
VERTEX
  8
┌▓È_1
  5
B72
 10
57.3828
 20
10.7053
 30
0.000000
  70
    32
  0
VERTEX
  8
┌▓È_1
  5
B73
 10
57.6108
 20
10.4821
 30
0.000000
  70
    32
  0
VERTEX
  8
┌▓È_1
  5
B74
 10
57.8342
 20
10.2583
 30
0.000000
  70
    32
  0
VERTEX
  8
┌▓È_1
  5
B75
 10
58.0526
 20
10.0339
 30
0.000000
  70
    32
  0
VERTEX
  8
┌▓È_1
  5
B76
 10
58.2659
 20
9.80874
 30
0.000000
  70
    32
  0
VERTEX
  8
┌▓È_1
  5
B77
 10
58.4738
 20
9.58291
 30
0.000000
  70
    32
  0
VERTEX
  8
┌▓È_1
  5
B78
 10
58.6761
 20
9.35633
 30
0.000000
  70
    32
  0
VERTEX
  8
┌▓È_1
  5
B79
 10
58.8726
 20
9.12898
 30
0.000000
  70
    32
  0
VERTEX
  8
┌▓È_1
  5
B7A
 10
59.0630
 20
8.90083
 30
0.000000
  70
    32
  0
VERTEX
  8
┌▓È_1
  5
B7B
 10
59.2470
 20
8.67185
 30
0.000000
  70
    32
  0
VERTEX
  8
┌▓È_1
  5
B7C
 10
59.4245
 20
8.44201
 30
0.000000
  70
    32
  0
VERTEX
  8
┌▓È_1
  5
B7D
 10
59.5953
 20
8.21128
 30
0.000000
  70
    32
  0
VERTEX
  8
┌▓È_1
  5
B7E
 10
59.7590
 20
7.97962
 30
0.000000
  70
    32
  0
VERTEX
  8
┌▓È_1
  5
B7F
 10
59.9154
 20
7.74701
 30
0.000000
  70
    32
  0
VERTEX
  8
┌▓È_1
  5
B80
 10
60.0644
 20
7.51341
 30
0.000000
  70
    32
  0
VERTEX
  8
┌▓È_1
  5
B81
 10
60.2057
 20
7.27879
 30
0.000000
  70
    32
  0
VERTEX
  8
┌▓È_1
  5
B82
 10
60.3389
 20
7.04313
 30
0.000000
  70
    32
  0
VERTEX
  8
┌▓È_1
  5
B83
 10
60.4642
 20
6.80640
 30
0.000000
  70
    32
  0
VERTEX
  8
┌▓È_1
  5
B84
 10
60.5815
 20
6.56863
 30
0.000000
  70
    32
  0
VERTEX
  8
┌▓È_1
  5
B85
 10
60.6908
 20
6.32982
 30
0.000000
  70
    32
  0
VERTEX
  8
┌▓È_1
  5
B86
 10
60.7924
 20
6.08998
 30
0.000000
  70
    32
  0
VERTEX
  8
┌▓È_1
  5
B87
 10
60.8862
 20
5.84911
 30
0.000000
  70
    32
  0
VERTEX
  8
┌▓È_1
  5
B88
 10
60.9723
 20
5.60724
 30
0.000000
  70
    32
  0
VERTEX
  8
┌▓È_1
  5
B89
 10
61.0508
 20
5.36436
 30
0.000000
  70
    32
  0
VERTEX
  8
┌▓È_1
  5
B8A
 10
61.1218
 20
5.12049
 30
0.000000
  70
    32
  0
VERTEX
  8
┌▓È_1
  5
B8B
 10
61.1853
 20
4.87564
 30
0.000000
  70
    32
  0
VERTEX
  8
┌▓È_1
  5
B8C
 10
61.2414
 20
4.62982
 30
0.000000
  70
    32
  0
VERTEX
  8
┌▓È_1
  5
B8D
 10
61.2903
 20
4.38304
 30
0.000000
  70
    32
  0
VERTEX
  8
┌▓È_1
  5
B8E
 10
61.3319
 20
4.13531
 30
0.000000
  70
    32
  0
VERTEX
  8
┌▓È_1
  5
B8F
 10
61.3663
 20
3.88663
 30
0.000000
  70
    32
  0
VERTEX
  8
┌▓È_1
  5
B90
 10
61.3937
 20
3.63702
 30
0.000000
  70
    32
  0
VERTEX
  8
┌▓È_1
  5
B91
 10
61.4141
 20
3.38649
 30
0.000000
  70
    32
  0
VERTEX
  8
┌▓È_1
  5
B92
 10
61.4275
 20
3.13505
 30
0.000000
  70
    32
  0
VERTEX
  8
┌▓È_1
  5
B93
 10
61.4341
 20
2.88271
 30
0.000000
  70
    32
  0
VERTEX
  8
┌▓È_1
  5
B94
 10
61.4339
 20
2.62947
 30
0.000000
  70
    32
  0
VERTEX
  8
┌▓È_1
  5
B95
 10
61.4270
 20
2.37535
 30
0.000000
  70
    32
  0
VERTEX
  8
┌▓È_1
  5
B96
 10
61.4135
 20
2.12036
 30
0.000000
  70
    32
  0
VERTEX
  8
┌▓È_1
  5
B97
 10
61.3934
 20
1.86450
 30
0.000000
  70
    32
  0
VERTEX
  8
┌▓È_1
  5
B98
 10
61.3668
 20
1.60779
 30
0.000000
  70
    32
  0
VERTEX
  8
┌▓È_1
  5
B99
 10
61.3339
 20
1.35024
 30
0.000000
  70
    32
  0
VERTEX
  8
┌▓È_1
  5
B9A
 10
61.2946
 20
1.09185
 30
0.000000
  70
    32
  0
VERTEX
  8
┌▓È_1
  5
B9B
 10
61.2490
 20
0.832644
 30
0.000000
  70
    32
  0
VERTEX
  8
┌▓È_1
  5
B9C
 10
61.1973
 20
0.572621
 30
0.000000
  70
    32
  0
VERTEX
  8
┌▓È_1
  5
B9D
 10
61.1394
 20
0.311794
 30
0.000000
  70
    32
  0
VERTEX
  8
┌▓È_1
  5
B9E
 10
61.0755
 20
0.0501731
 30
0.000000
  70
    32
  0
VERTEX
  8
┌▓È_1
  5
B9F
 10
61.0057
 20
-0.212232
 30
0.000000
  70
    32
  0
VERTEX
  8
┌▓È_1
  5
BA0
 10
60.9300
 20
-0.475412
 30
0.000000
  70
    32
  0
VERTEX
  8
┌▓È_1
  5
BA1
 10
60.8485
 20
-0.739356
 30
0.000000
  70
    32
  0
VERTEX
  8
┌▓È_1
  5
BA2
 10
60.7612
 20
-1.00405
 30
0.000000
  70
    32
  0
VERTEX
  8
┌▓È_1
  5
BA3
 10
60.6683
 20
-1.26950
 30
0.000000
  70
    32
  0
VERTEX
  8
┌▓È_1
  5
BA4
 10
60.5698
 20
-1.53568
 30
0.000000
  70
    32
  0
VERTEX
  8
┌▓È_1
  5
BA5
 10
60.4658
 20
-1.80258
 30
0.000000
  70
    32
  0
VERTEX
  8
┌▓È_1
  5
BA6
 10
60.3564
 20
-2.07020
 30
0.000000
  70
    32
  0
VERTEX
  8
┌▓È_1
  5
BA7
 10
60.2416
 20
-2.33852
 30
0.000000
  70
    32
  0
VERTEX
  8
┌▓È_1
  5
BA8
 10
60.1215
 20
-2.60754
 30
0.000000
  70
    32
  0
VERTEX
  8
┌▓È_1
  5
BA9
 10
59.9963
 20
-2.87725
 30
0.000000
  70
    32
  0
VERTEX
  8
┌▓È_1
  5
BAA
 10
59.8659
 20
-3.14763
 30
0.000000
  70
    32
  0
VERTEX
  8
┌▓È_1
  5
BAB
 10
59.7304
 20
-3.41867
 30
0.000000
  70
    32
  0
VERTEX
  8
┌▓È_1
  5
BAC
 10
59.5899
 20
-3.69037
 30
0.000000
  70
    32
  0
VERTEX
  8
┌▓È_1
  5
BAD
 10
59.4446
 20
-3.96272
 30
0.000000
  70
    32
  0
VERTEX
  8
┌▓È_1
  5
BAE
 10
59.2944
 20
-4.23571
 30
0.000000
  70
    32
  0
VERTEX
  8
┌▓È_1
  5
BAF
 10
59.1394
 20
-4.50932
 30
0.000000
  70
    32
  0
VERTEX
  8
┌▓È_1
  5
BB0
 10
58.9798
 20
-4.78355
 30
0.000000
  70
    32
  0
VERTEX
  8
┌▓È_1
  5
BB1
 10
58.8156
 20
-5.05838
 30
0.000000
  70
    32
  0
VERTEX
  8
┌▓È_1
  5
BB2
 10
58.6468
 20
-5.33381
 30
0.000000
  70
    32
  0
VERTEX
  8
┌▓È_1
  5
BB3
 10
58.4735
 20
-5.60983
 30
0.000000
  70
    32
  0
VERTEX
  8
┌▓È_1
  5
BB4
 10
58.2959
 20
-5.88643
 30
0.000000
  70
    32
  0
VERTEX
  8
┌▓È_1
  5
BB5
 10
58.1140
 20
-6.16359
 30
0.000000
  70
    32
  0
VERTEX
  8
┌▓È_1
  5
BB6
 10
57.9278
 20
-6.44131
 30
0.000000
  70
    32
  0
VERTEX
  8
┌▓È_1
  5
BB7
 10
57.7375
 20
-6.71958
 30
0.000000
  70
    32
  0
VERTEX
  8
┌▓È_1
  5
BB8
 10
57.5431
 20
-6.99839
 30
0.000000
  70
    32
  0
VERTEX
  8
┌▓È_1
  5
BB9
 10
57.3447
 20
-7.27772
 30
0.000000
  70
    32
  0
VERTEX
  8
┌▓È_1
  5
BBA
 10
57.1423
 20
-7.55757
 30
0.000000
  70
    32
  0
VERTEX
  8
┌▓È_1
  5
BBB
 10
56.9361
 20
-7.83793
 30
0.000000
  70
    32
  0
VERTEX
  8
┌▓È_1
  5
BBC
 10
56.7261
 20
-8.11879
 30
0.000000
  70
    32
  0
VERTEX
  8
┌▓È_1
  5
BBD
 10
56.5124
 20
-8.40013
 30
0.000000
  70
    32
  0
VERTEX
  8
┌▓È_1
  5
BBE
 10
56.2951
 20
-8.68196
 30
0.000000
  70
    32
  0
VERTEX
  8
┌▓È_1
  5
BBF
 10
56.0742
 20
-8.96425
 30
0.000000
  70
    32
  0
VERTEX
  8
┌▓È_1
  5
BC0
 10
55.8498
 20
-9.24701
 30
0.000000
  70
    32
  0
VERTEX
  8
┌▓È_1
  5
BC1
 10
55.6220
 20
-9.53021
 30
0.000000
  70
    32
  0
SEQEND
  8
┌▓È_1
  5
BC2
  0
LINE
  5
3F
  8
┌▓È_1
 62
     5
 10
251.95911458329999
 20
8.8385416666999994
 30
0.0
 11
251.95911458329999
 21
10.0385416667
 31
0.0
  0
LINE
  5
40
  8
┌▓È_1
 62
     5
 10
242.95911458329999
 20
8.8385416666999994
 30
0.0
 11
242.95911458329999
 21
10.0385416667
 31
0.0
  0
LINE
  5
41
  8
┌▓È_1
 62
     5
 10
291.95911458329999
 20
8.8385416666999994
 30
0.0
 11
291.95911458329999
 21
10.0385416667
 31
0.0
  0
LINE
  5
42
  8
┌▓È_1
 62
     5
 10
282.95911458329999
 20
8.8385416666999994
 30
0.0
 11
282.95911458329999
 21
10.0385416667
 31
0.0
  0
LINE
  5
43
  8
┌▓È_1
 62
     5
 10
271.95911458329999
 20
8.8385416666999994
 30
0.0
 11
271.95911458329999
 21
10.0385416667
 31
0.0
  0
LINE
  5
44
  8
┌▓È_1
 62
     5
 10
262.95911458329999
 20
8.8385416666999994
 30
0.0
 11
262.95911458329999
 21
10.0385416667
 31
0.0
  0
DIMENSION
  5
55
  8
Éíû@É³
  2
*D1
 10
307.45911458329999
 20
61.163541666699992
 30
0.0
 11
322.45911458329999
 21
61.163541666699992
 31
0.0
 70
   128
  1
<>
 13
307.45911458329999
 23
114.9037760417
 33
0.0
 14
337.45911458329999
 24
112.9037760417
 34
0.0
 50
180.0
  0
LINE
  5
56
  8
┌▓È_1
 62
     5
 10
302.95911458329999
 20
8.8385416666999994
 30
0.0
 11
302.95911458329999
 21
10.0385416667
 31
0.0
  0
LINE
  5
57
  8
┌▓È_1
 62
     5
 10
311.95911458329999
 20
8.8385416666999994
 30
0.0
 11
311.95911458329999
 21
10.0385416667
 31
0.0
  0
LINE
  5
58
  8
┌▓È_1
 62
     5
 10
337.45911458329999
 20
8.8385416666999994
 30
0.0
 11
337.45911458329999
 21
12.338541666699999
 31
0.0
  0
LINE
  5
59
  8
┌▓È_1
 62
     5
 10
322.95911458329999
 20
8.8385416666999994
 30
0.0
 11
322.95911458329999
 21
10.0385416667
 31
0.0
  0
INSERT
  5
5B
  8
┌▓È_1
  6
STITCH
  2
CLUMP1
 10
0.0
 20
0.0
 30
0.0
  0
INSERT
  5
63
  8
0
  6
CONTINUOUS
  2
*U30
 10
0.0
 20
0.0
 30
0.0
  0
CIRCLE
  5
64
  8
┌▓È_1
  6
STITCH
 10
307.45911458329999
 20
-88.439062500000006
 30
0.0
 40
3.0
  0
LINE
  5
65
  8
┌▓È_1
 62
     5
 10
311.95911458329999
 20
-82.739370373300005
 30
0.0
 11
302.95911458329999
 21
-82.739370373300005
 31
0.0
  0
LINE
  5
66
  8
┌▓È_1
 62
     5
 10
302.95911458329999
 20
-94.138754626700006
 30
0.0
 11
311.95911458329999
 21
-94.138754626700006
 31
0.0
  0
LINE
  5
67
  8
┌▓È_1
 62
     5
 10
302.95911458329999
 20
-94.138754626700006
 30
0.0
 11
302.95911458329999
 21
-92.638754626700006
 31
0.0
  0
LINE
  5
68
  8
┌▓È_1
 62
     5
 10
291.95911458329999
 20
-92.638754626700006
 30
0.0
 11
302.95911458329999
 21
-92.638754626700006
 31
0.0
  0
LINE
  5
69
  8
┌▓È_1
 62
     5
 10
291.95911458329999
 20
-84.239370373300005
 30
0.0
 11
302.95911458329999
 21
-84.239370373300005
 31
0.0
  0
LINE
  5
6A
  8
┌▓È_1
 62
     5
 10
302.95911458329999
 20
-82.739370373300005
 30
0.0
 11
302.95911458329999
 21
-84.239370373300005
 31
0.0
  0
DIMENSION
  5
79
  8
Éíû@É³
  2
*D3
 10
337.45911458329999
 20
-45.033203125
 30
0.0
 11
330.20911458329999
 21
-45.033203125
 31
0.0
 70
   128
  1
<>
 13
337.45911458329999
 23
-81.939062500000006
 33
0.0
 14
322.95911458329999
 24
-83.439062500000006
 34
0.0
  0
LINE
  5
7A
  8
┌▓È_1
 62
     5
 10
162.95911458329999
 20
8.8385416666999994
 30
0.0
 11
162.95911458329999
 21
10.0385416667
 31
0.0
  0
LINE
  5
7B
  8
┌▓È_1
 62
     5
 10
102.95911458330001
 20
8.8385416666999994
 30
0.0
 11
102.95911458330001
 21
10.0385416667
 31
0.0
  0
LINE
  5
7C
  8
┌▓È_1
 62
     5
 10
71.959114583299993
 20
8.8385416666999994
 30
0.0
 11
71.959114583299993
 21
10.0385416667
 31
0.0
  0
LINE
  5
7D
  8
┌▓È_1
 62
     5
 10
131.95911458329999
 20
8.8385416666999994
 30
0.0
 11
131.95911458329999
 21
10.0385416667
 31
0.0
  0
LINE
  5
7E
  8
┌▓È_1
 62
     5
 10
82.959114583299993
 20
8.8385416666999994
 30
0.0
 11
82.959114583299993
 21
10.0385416667
 31
0.0
  0
LINE
  5
7F
  8
┌▓È_1
 62
     5
 10
91.959114583300007
 20
8.8385416666999994
 30
0.0
 11
91.959114583300007
 21
10.0385416667
 31
0.0
  0
LINE
  5
80
  8
┌▓È_1
 62
     5
 10
62.959114583299993
 20
8.8385416666999994
 30
0.0
 11
62.959114583299993
 21
10.0385416667
 31
0.0
  0
LINE
  5
81
  8
┌▓È_1
 62
     5
 10
111.95911458330001
 20
8.8385416666999994
 30
0.0
 11
111.95911458330001
 21
10.0385416667
 31
0.0
  0
LINE
  5
82
  8
┌▓È_1
 62
     5
 10
122.95911458330001
 20
8.8385416666999994
 30
0.0
 11
122.95911458330001
 21
10.0385416667
 31
0.0
  0
LINE
  5
83
  8
┌▓È_1
 62
     5
 10
68.959114583299993
 20
8.8385416666999994
 30
0.0
 11
68.959114583299993
 21
10.0385416667
 31
0.0
  0
LINE
  5
84
  8
┌▓È_1
 62
     5
 10
65.959114583299993
 20
8.8385416666999994
 30
0.0
 11
65.959114583299993
 21
10.0385416667
 31
0.0
  0
LINE
  5
85
  8
┌▓È_1
 62
     5
 10
67.459114583299993
 20
8.8385416666999994
 30
0.0
 11
67.459114583299993
 21
10.0385416667
 31
0.0
  0
LINE
  5
86
  8
┌▓È_1
 62
     5
 10
151.95911458329999
 20
8.8385416666999994
 30
0.0
 11
151.95911458329999
 21
10.0385416667
 31
0.0
  0
LINE
  5
87
  8
┌▓È_1
 62
     5
 10
142.95911458329999
 20
8.8385416666999994
 30
0.0
 11
142.95911458329999
 21
10.0385416667
 31
0.0
  0
LINE
  5
88
  8
┌▓È_1
 62
     5
 10
222.95911458329999
 20
8.8385416666999994
 30
0.0
 11
222.95911458329999
 21
10.0385416667
 31
0.0
  0
LINE
  5
89
  8
┌▓È_1
 62
     5
 10
182.95911458329999
 20
8.8385416666999994
 30
0.0
 11
182.95911458329999
 21
10.0385416667
 31
0.0
  0
LINE
  5
8A
  8
┌▓È_1
 62
     5
 10
171.95911458329999
 20
8.8385416666999994
 30
0.0
 11
171.95911458329999
 21
10.0385416667
 31
0.0
  0
LINE
  5
8B
  8
┌▓È_1
 62
     5
 10
271.95911458329999
 20
-94.138754626700006
 30
0.0
 11
271.95911458329999
 21
-92.638754626700006
 31
0.0
  0
ARC
  5
8C
  8
┌▓È_1
 62
     5
 10
322.45911449210001
 20
-91.438754626700003
 30
0.0
 40
0.5
 50
359.99998349120011
 51
90.0
  0
LINE
  5
8D
  8
┌▓È_1
 62
     5
 10
323.95911458329999
 20
-92.438754626700003
 30
0.0
 11
337.45911458329999
 21
-92.438754626700003
 31
0.0
  0
LINE
  5
8E
  8
┌▓È_1
 62
     5
 10
312.45911467460002
 20
-90.938754626700003
 30
0.0
 11
322.45911449210001
 21
-90.938754626700003
 31
0.0
  0
LINE
  5
8F
  8
┌▓È_1
 62
     5
 10
311.95911458329999
 20
-82.739370373300005
 30
0.0
 11
311.95911458329999
 21
-84.239370373300005
 31
0.0
  0
ARC
  5
90
  8
┌▓È_1
 62
     5
 10
323.95911449210001
 20
-91.438754626700003
 30
0.0
 40
1.0
 50
180.00000825439989
 51
270.0
  0
ARC
  5
91
  8
┌▓È_1
 62
     5
 10
312.45911449210001
 20
-91.438754626700003
 30
0.0
 40
0.5
 50
89.999979085500001
 51
180.00001681329999
  0
ARC
  5
92
  8
┌▓È_1
 62
     5
 10
310.95911449210001
 20
-91.438754626700003
 30
0.0
 40
1.0
 50
270.00000357829998
 51
359.99999159330002
  0
LINE
  5
93
  8
┌▓È_1
 62
     5
 10
310.95911455449999
 20
-92.438754626700003
 30
0.0
 11
303.95911449210001
 21
-92.438754626700003
 31
0.0
  0
ARC
  5
94
  8
┌▓È_1
 62
     5
 10
303.95911449210001
 20
-91.438754626700003
 30
0.0
 40
1.0
 50
180.00000825439989
 51
270.0
  0
ARC
  5
95
  8
┌▓È_1
 62
     5
 10
302.45911449210001
 20
-91.438754626700003
 30
0.0
 40
0.5
 50
359.99998349120011
 51
90.0
  0
CIRCLE
  5
96
  8
┌▓È_1
 62
     5
 10
307.45911458329999
 20
-88.439062500000006
 30
0.0
 40
1.5
  0
LINE
  5
97
  8
┌▓È_1
  6
BORDER
 62
     3
 10
307.45911458329999
 20
-83.439062500000006
 30
0.0
 11
307.45911458329999
 21
-93.439062500000006
 31
0.0
  0
LINE
  5
98
  8
┌▓È_1
 62
     5
 10
292.45911467460002
 20
-90.938754626700003
 30
0.0
 11
302.45911449210001
 21
-90.938754626700003
 31
0.0
  0
LINE
  5
99
  8
┌▓È_1
 62
     5
 10
337.45911458329999
 20
-81.939062500000006
 30
0.0
 11
337.45911458329999
 21
-94.939062500000006
 31
0.0
  0
LINE
  5
9A
  8
┌▓È_1
 62
     5
 10
322.95911458329999
 20
-94.139370373299997
 30
0.0
 11
337.45911458329999
 21
-94.139370373299997
 31
0.0
  0
LINE
  5
9B
  8
┌▓È_1
 62
     5
 10
322.95911458329999
 20
-82.739370373300005
 30
0.0
 11
337.45911458329999
 21
-82.739370373300005
 31
0.0
  0
LINE
  5
9C
  8
┌▓È_1
 62
     5
 10
322.95911458329999
 20
-82.739370373300005
 30
0.0
 11
322.95911458329999
 21
-84.239370373300005
 31
0.0
  0
LINE
  5
9D
  8
┌▓È_1
 62
     5
 10
311.95911458329999
 20
-84.239370373300005
 30
0.0
 11
322.95911458329999
 21
-84.239370373300005
 31
0.0
  0
LINE
  5
9E
  8
┌▓È_1
 62
     5
 10
311.95911458329999
 20
-92.638754626700006
 30
0.0
 11
322.95911458329999
 21
-92.638754626700006
 31
0.0
  0
LINE
  5
9F
  8
┌▓È_1
 62
     5
 10
322.95911458329999
 20
-94.138754626700006
 30
0.0
 11
322.95911458329999
 21
-92.638754626700006
 31
0.0
  0
LINE
  5
A0
  8
┌▓È_1
 62
     5
 10
311.95911458329999
 20
-94.138754626700006
 30
0.0
 11
311.95911458329999
 21
-92.638754626700006
 31
0.0
  0
LINE
  5
A1
  8
┌▓È_1
  6
BORDER
 62
     3
 10
312.45911458329999
 20
-88.439062500000006
 30
0.0
 11
302.45911458329999
 21
-88.439062500000006
 31
0.0
  0
CIRCLE
  5
A2
  8
┌▓È_1
 62
     5
 10
307.45911458329999
 20
-88.439062500000006
 30
0.0
 40
2.2071067811999998
  0
CIRCLE
  5
A3
  8
┌▓È_1
 62
     5
 10
307.45911458329999
 20
-88.439062500000006
 30
0.0
 40
3.4142135624000001
  0
ARC
  5
A4
  8
┌▓È_1
 62
     5
 10
272.45911449210001
 20
-91.438754626700003
 30
0.0
 40
0.5
 50
89.999979085500001
 51
180.00001681329999
  0
ARC
  5
A5
  8
┌▓È_1
 62
     5
 10
290.95911449210001
 20
-91.438754626700003
 30
0.0
 40
1.0
 50
270.00000357829998
 51
359.99999159330002
  0
ARC
  5
A6
  8
┌▓È_1
 62
     5
 10
292.45911449210001
 20
-91.438754626700003
 30
0.0
 40
0.5
 50
89.999979085500001
 51
180.00001681329999
  0
LINE
  5
A7
  8
┌▓È_1
 62
     5
 10
251.95911458329999
 20
-92.638754626700006
 30
0.0
 11
262.95911458329999
 21
-92.638754626700006
 31
0.0
  0
LINE
  5
A8
  8
┌▓È_1
 62
     5
 10
251.95911458329999
 20
-84.239370373300005
 30
0.0
 11
262.95911458329999
 21
-84.239370373300005
 31
0.0
  0
LINE
  5
A9
  8
┌▓È_1
 62
     5
 10
262.95911458329999
 20
-82.739370373300005
 30
0.0
 11
262.95911458329999
 21
-84.239370373300005
 31
0.0
  0
LINE
  5
AA
  8
┌▓È_1
 62
     5
 10
251.95911458329999
 20
-82.739370373300005
 30
0.0
 11
251.95911458329999
 21
-84.239370373300005
 31
0.0
  0
LINE
  5
AB
  8
┌▓È_1
 62
     5
 10
251.95911458329999
 20
-82.739370373300005
 30
0.0
 11
242.95911458329999
 21
-82.739370373300005
 31
0.0
  0
LINE
  5
AC
  8
┌▓È_1
 62
     5
 10
242.95911458329999
 20
-94.138754626700006
 30
0.0
 11
251.95911458329999
 21
-94.138754626700006
 31
0.0
  0
LINE
  5
AD
  8
┌▓È_1
 62
     5
 10
242.95911458329999
 20
-94.138754626700006
 30
0.0
 11
242.95911458329999
 21
-92.638754626700006
 31
0.0
  0
LINE
  5
AE
  8
┌▓È_1
 62
     5
 10
242.95911458329999
 20
-82.739370373300005
 30
0.0
 11
242.95911458329999
 21
-84.239370373300005
 31
0.0
  0
LINE
  5
AF
  8
┌▓È_1
 62
     5
 10
290.95911455449999
 20
-92.438754626700003
 30
0.0
 11
283.95911449210001
 21
-92.438754626700003
 31
0.0
  0
LINE
  5
B0
  8
┌▓È_1
 62
     5
 10
251.95911458329999
 20
-94.138754626700006
 30
0.0
 11
251.95911458329999
 21
-92.638754626700006
 31
0.0
  0
LINE
  5
B1
  8
┌▓È_1
 62
     5
 10
262.95911458329999
 20
-94.138754626700006
 30
0.0
 11
262.95911458329999
 21
-92.638754626700006
 31
0.0
  0
LINE
  5
B2
  8
┌▓È_1
 62
     5
 10
282.95911458329999
 20
-94.138754626700006
 30
0.0
 11
282.95911458329999
 21
-92.638754626700006
 31
0.0
  0
LINE
  5
B3
  8
┌▓È_1
 62
     5
 10
271.95911458329999
 20
-92.638754626700006
 30
0.0
 11
282.95911458329999
 21
-92.638754626700006
 31
0.0
  0
LINE
  5
B4
  8
┌▓È_1
 62
     5
 10
271.95911458329999
 20
-84.239370373300005
 30
0.0
 11
282.95911458329999
 21
-84.239370373300005
 31
0.0
  0
LINE
  5
B5
  8
┌▓È_1
 62
     5
 10
282.95911458329999
 20
-82.739370373300005
 30
0.0
 11
282.95911458329999
 21
-84.239370373300005
 31
0.0
  0
LINE
  5
B6
  8
┌▓È_1
 62
     5
 10
271.95911458329999
 20
-82.739370373300005
 30
0.0
 11
271.95911458329999
 21
-84.239370373300005
 31
0.0
  0
LINE
  5
B7
  8
┌▓È_1
 62
     5
 10
271.95911458329999
 20
-82.739370373300005
 30
0.0
 11
262.95911458329999
 21
-82.739370373300005
 31
0.0
  0
LINE
  5
B8
  8
┌▓È_1
 62
     5
 10
262.95911458329999
 20
-94.138754626700006
 30
0.0
 11
271.95911458329999
 21
-94.138754626700006
 31
0.0
  0
LINE
  5
B9
  8
┌▓È_1
 62
     5
 10
291.95911458329999
 20
-94.138754626700006
 30
0.0
 11
291.95911458329999
 21
-92.638754626700006
 31
0.0
  0
LINE
  5
BA
  8
┌▓È_1
 62
     5
 10
291.95911458329999
 20
-82.739370373300005
 30
0.0
 11
291.95911458329999
 21
-84.239370373300005
 31
0.0
  0
LINE
  5
BB
  8
┌▓È_1
 62
     5
 10
291.95911458329999
 20
-82.739370373300005
 30
0.0
 11
282.95911458329999
 21
-82.739370373300005
 31
0.0
  0
LINE
  5
BC
  8
┌▓È_1
 62
     5
 10
282.95911458329999
 20
-94.138754626700006
 30
0.0
 11
291.95911458329999
 21
-94.138754626700006
 31
0.0
  0
LINE
  5
BD
  8
┌▓È_1
 62
     5
 10
202.95911458329999
 20
-94.138754626700006
 30
0.0
 11
211.95911458329999
 21
-94.138754626700006
 31
0.0
  0
LINE
  5
BE
  8
┌▓È_1
 62
     5
 10
191.95911458329999
 20
-94.138754626700006
 30
0.0
 11
191.95911458329999
 21
-92.638754626700006
 31
0.0
  0
LINE
  5
BF
  8
┌▓È_1
 62
     5
 10
202.95911458329999
 20
-94.138754626700006
 30
0.0
 11
202.95911458329999
 21
-92.638754626700006
 31
0.0
  0
LINE
  5
C0
  8
┌▓È_1
 62
     5
 10
191.95911458329999
 20
-92.638754626700006
 30
0.0
 11
202.95911458329999
 21
-92.638754626700006
 31
0.0
  0
LINE
  5
C1
  8
┌▓È_1
 62
     5
 10
191.95911458329999
 20
-84.239370373300005
 30
0.0
 11
202.95911458329999
 21
-84.239370373300005
 31
0.0
  0
INSERT
  5
C3
  8
0
  6
CONTINUOUS
  2
*U31
 10
0.0
 20
0.0
 30
0.0
  0
INSERT
  5
C4
  8
0
  6
CONTINUOUS
  2
*U32
 10
0.0
 20
0.0
 30
0.0
  0
INSERT
  5
C5
  8
0
  6
CONTINUOUS
  2
*U33
 10
0.0
 20
0.0
 30
0.0
  0
INSERT
  5
C6
  8
0
  6
CONTINUOUS
  2
*U34
 10
0.0
 20
0.0
 30
0.0
  0
INSERT
  5
C7
  8
0
  6
CONTINUOUS
  2
*U35
 10
0.0
 20
0.0
 30
0.0
  0
INSERT
  5
C8
  8
0
  6
CONTINUOUS
  2
*U36
 10
0.0
 20
0.0
 30
0.0
  0
INSERT
  5
C9
  8
0
  6
CONTINUOUS
  2
*U37
 10
0.0
 20
0.0
 30
0.0
  0
ARC
  5
CA
  8
┌▓È_1
 62
     5
 10
283.95911449210001
 20
-91.438754626700003
 30
0.0
 40
1.0
 50
180.00000825439989
 51
270.0
  0
ARC
  5
CB
  8
┌▓È_1
 62
     5
 10
282.45911449210001
 20
-91.438754626700003
 30
0.0
 40
0.5
 50
359.99998349120011
 51
90.0
  0
LINE
  5
CC
  8
┌▓È_1
 62
     5
 10
272.45911467460002
 20
-90.938754626700003
 30
0.0
 11
282.45911449210001
 21
-90.938754626700003
 31
0.0
  0
LINE
  5
CD
  8
┌▓È_1
 62
     5
 10
270.95911455449999
 20
-92.438754626700003
 30
0.0
 11
263.95911449210001
 21
-92.438754626700003
 31
0.0
  0
ARC
  5
CE
  8
┌▓È_1
 62
     5
 10
250.95911449210001
 20
-91.438754626700003
 30
0.0
 40
1.0
 50
270.00000357829998
 51
359.99999159330002
  0
ARC
  5
CF
  8
┌▓È_1
 62
     5
 10
252.45911449210001
 20
-91.438754626700003
 30
0.0
 40
0.5
 50
89.999979085500001
 51
180.00001681329999
  0
ARC
  5
D0
  8
┌▓È_1
 62
     5
 10
263.95911449210001
 20
-91.438754626700003
 30
0.0
 40
1.0
 50
180.00000825439989
 51
270.0
  0
ARC
  5
D1
  8
┌▓È_1
 62
     5
 10
262.45911449210001
 20
-91.438754626700003
 30
0.0
 40
0.5
 50
359.99998349120011
 51
90.0
  0
LINE
  5
D2
  8
┌▓È_1
 62
     5
 10
252.45911467459999
 20
-90.938754626700003
 30
0.0
 11
262.45911449210001
 21
-90.938754626700003
 31
0.0
  0
LINE
  5
D3
  8
┌▓È_1
 62
     5
 10
250.95911455449999
 20
-92.438754626700003
 30
0.0
 11
243.95911449210001
 21
-92.438754626700003
 31
0.0
  0
ARC
  5
D4
  8
┌▓È_1
 62
     5
 10
243.95911449210001
 20
-91.438754626700003
 30
0.0
 40
1.0
 50
180.00000825439989
 51
270.0
  0
ARC
  5
D5
  8
┌▓È_1
 62
     5
 10
242.45911449210001
 20
-91.438754626700003
 30
0.0
 40
0.5
 50
359.99998349120011
 51
90.0
  0
ARC
  5
D6
  8
┌▓È_1
 62
     5
 10
270.95911449210001
 20
-91.438754626700003
 30
0.0
 40
1.0
 50
270.00000357829998
 51
359.99999159330002
  0
LINE
  5
D7
  8
┌▓È_1
 62
     5
 10
182.95911458329999
 20
-94.138754626700006
 30
0.0
 11
182.95911458329999
 21
-92.638754626700006
 31
0.0
  0
LINE
  5
D8
  8
┌▓È_1
 62
     5
 10
171.95911458329999
 20
-92.638754626700006
 30
0.0
 11
182.95911458329999
 21
-92.638754626700006
 31
0.0
  0
LINE
  5
D9
  8
┌▓È_1
 62
     5
 10
171.95911458329999
 20
-84.239370373300005
 30
0.0
 11
182.95911458329999
 21
-84.239370373300005
 31
0.0
  0
LINE
  5
DA
  8
┌▓È_1
 62
     5
 10
182.95911458329999
 20
-82.739370373300005
 30
0.0
 11
182.95911458329999
 21
-84.239370373300005
 31
0.0
  0
LINE
  5
DB
  8
┌▓È_1
 62
     5
 10
171.95911458329999
 20
-82.739370373300005
 30
0.0
 11
171.95911458329999
 21
-84.239370373300005
 31
0.0
  0
LINE
  5
DC
  8
┌▓È_1
 62
     5
 10
190.95911455449999
 20
-92.438754626700003
 30
0.0
 11
183.95911449210001
 21
-92.438754626700003
 31
0.0
  0
ARC
  5
DD
  8
┌▓È_1
 62
     5
 10
172.45911449210001
 20
-91.438754626700003
 30
0.0
 40
0.5
 50
89.999979085500001
 51
180.00001681329999
  0
ARC
  5
DE
  8
┌▓È_1
 62
     5
 10
183.95911449210001
 20
-91.438754626700003
 30
0.0
 40
1.0
 50
180.00000825439989
 51
270.0
  0
LINE
  5
DF
  8
┌▓È_1
 62
     5
 10
202.95911458329999
 20
-82.739370373300005
 30
0.0
 11
202.95911458329999
 21
-84.239370373300005
 31
0.0
  0
LINE
  5
E0
  8
┌▓È_1
 62
     5
 10
191.95911458329999
 20
-82.739370373300005
 30
0.0
 11
191.95911458329999
 21
-84.239370373300005
 31
0.0
  0
LINE
  5
E1
  8
┌▓È_1
 62
     5
 10
228.95911458329999
 20
-94.138754626700006
 30
0.0
 11
231.95911458329999
 21
-94.138754626700006
 31
0.0
  0
LINE
  5
E2
  8
┌▓È_1
 62
     5
 10
222.95911458329999
 20
-94.138754626700006
 30
0.0
 11
225.95911458329999
 21
-94.138754626700006
 31
0.0
  0
LINE
  5
E3
  8
┌▓È_1
 62
     5
 10
225.95911458329999
 20
-82.739370373300005
 30
0.0
 11
222.95911458329999
 21
-82.739370373300005
 31
0.0
  0
LINE
  5
E4
  8
┌▓È_1
 62
     5
 10
231.95911458329999
 20
-82.739370373300005
 30
0.0
 11
228.95911458329999
 21
-82.739370373300005
 31
0.0
  0
LINE
  5
E5
  8
┌▓È_1
 62
     5
 10
211.95911458329999
 20
-94.138754626700006
 30
0.0
 11
211.95911458329999
 21
-92.638754626700006
 31
0.0
  0
LINE
  5
E6
  8
┌▓È_1
 62
     5
 10
222.95911458329999
 20
-94.138754626700006
 30
0.0
 11
222.95911458329999
 21
-92.638754626700006
 31
0.0
  0
LINE
  5
E7
  8
┌▓È_1
 62
     5
 10
211.95911458329999
 20
-92.638754626700006
 30
0.0
 11
222.95911458329999
 21
-92.638754626700006
 31
0.0
  0
LINE
  5
E8
  8
┌▓È_1
 62
     5
 10
211.95911458329999
 20
-84.239370373300005
 30
0.0
 11
222.95911458329999
 21
-84.239370373300005
 31
0.0
  0
LINE
  5
E9
  8
┌▓È_1
 62
     5
 10
222.95911458329999
 20
-82.739370373300005
 30
0.0
 11
222.95911458329999
 21
-84.239370373300005
 31
0.0
  0
LINE
  5
EA
  8
┌▓È_1
 62
     5
 10
228.95911458329999
 20
-82.739370373300005
 30
0.0
 11
227.45911458329999
 21
-84.239370373300005
 31
0.0
  0
LINE
  5
EB
  8
┌▓È_1
 62
     5
 10
225.95911458329999
 20
-82.739370373300005
 30
0.0
 11
227.45911458329999
 21
-84.239370373300005
 31
0.0
  0
LINE
  5
EC
  8
┌▓È_1
 62
     5
 10
225.95911458329999
 20
-94.138754626700006
 30
0.0
 11
227.45911458329999
 21
-92.638754626700006
 31
0.0
  0
LINE
  5
ED
  8
┌▓È_1
 62
     5
 10
228.95911458329999
 20
-94.138754626700006
 30
0.0
 11
227.45911458329999
 21
-92.638754626700006
 31
0.0
  0
LINE
  5
EE
  8
┌▓È_1
 62
     5
 10
231.95911458329999
 20
-82.739370373300005
 30
0.0
 11
231.95911458329999
 21
-84.239370373300005
 31
0.0
  0
LINE
  5
EF
  8
┌▓È_1
 62
     5
 10
211.95911458329999
 20
-82.739370373300005
 30
0.0
 11
202.95911458329999
 21
-82.739370373300005
 31
0.0
  0
ARC
  5
F0
  8
┌▓È_1
 62
     5
 10
192.45911449210001
 20
-91.438754626700003
 30
0.0
 40
0.5
 50
89.999979085500001
 51
180.00001681329999
  0
ARC
  5
F1
  8
┌▓È_1
 62
     5
 10
203.95911449210001
 20
-91.438754626700003
 30
0.0
 40
1.0
 50
180.00000825439989
 51
270.0
  0
ARC
  5
F2
  8
┌▓È_1
 62
     5
 10
202.45911449210001
 20
-91.438754626700003
 30
0.0
 40
0.5
 50
359.99998349120011
 51
90.0
  0
LINE
  5
F3
  8
┌▓È_1
 62
     5
 10
192.45911467459999
 20
-90.938754626700003
 30
0.0
 11
202.45911449210001
 21
-90.938754626700003
 31
0.0
  0
ARC
  5
F4
  8
┌▓È_1
 62
     5
 10
230.95911449210001
 20
-91.438754626700003
 30
0.0
 40
1.0
 50
270.00000357829998
 51
359.99999159330002
  0
ARC
  5
F5
  8
┌▓È_1
 62
     5
 10
232.45911449210001
 20
-91.438754626700003
 30
0.0
 40
0.5
 50
89.999979085500001
 51
180.00001681329999
  0
LINE
  5
F6
  8
┌▓È_1
 62
     5
 10
182.95911458329999
 20
-94.138754626700006
 30
0.0
 11
191.95911458329999
 21
-94.138754626700006
 31
0.0
  0
LINE
  5
F7
  8
┌▓È_1
 62
     5
 10
210.95911455449999
 20
-92.438754626700003
 30
0.0
 11
203.95911449210001
 21
-92.438754626700003
 31
0.0
  0
ARC
  5
F8
  8
┌▓È_1
 62
     5
 10
190.95911449210001
 20
-91.438754626700003
 30
0.0
 40
1.0
 50
270.00000357829998
 51
359.99999159330002
  0
LINE
  5
F9
  8
┌▓È_1
 62
     5
 10
230.95911455449999
 20
-92.438754626700003
 30
0.0
 11
229.58043492690001
 21
-92.438754626700003
 31
0.0
  0
LINE
  5
FA
  8
┌▓È_1
 62
     5
 10
225.33779423979999
 20
-92.438754626700003
 30
0.0
 11
223.95911449210001
 21
-92.438754626700003
 31
0.0
  0
ARC
  5
FB
  8
┌▓È_1
 62
     5
 10
210.95911449210001
 20
-91.438754626700003
 30
0.0
 40
1.0
 50
270.00000357829998
 51
359.99999159330002
  0
ARC
  5
FC
  8
┌▓È_1
 62
     5
 10
212.45911449210001
 20
-91.438754626700003
 30
0.0
 40
0.5
 50
89.999979085500001
 51
180.00001681329999
  0
ARC
  5
FD
  8
┌▓È_1
 62
     5
 10
182.45911449210001
 20
-91.438754626700003
 30
0.0
 40
0.5
 50
359.99998349120011
 51
90.0
  0
LINE
  5
FE
  8
┌▓È_1
 62
     5
 10
172.45911467459999
 20
-90.938754626700003
 30
0.0
 11
182.45911449210001
 21
-90.938754626700003
 31
0.0
  0
LINE
  5
FF
  8
┌▓È_1
 62
     5
 10
227.90632817880001
 20
-91.601701252700011
 30
0.0
 11
229.58043492690001
 21
-92.438754626700003
 31
0.0
  0
LINE
  5
100
  8
┌▓È_1
 62
     5
 10
227.0119009878
 20
-91.601701252700011
 30
0.0
 11
225.33779423979999
 21
-92.438754626700003
 31
0.0
  0
ARC
  5
101
  8
┌▓È_1
 62
     5
 10
227.45911458329999
 20
-92.496128443700002
 30
0.0
 40
1.0
 50
63.43494882289999
 51
116.5650511771
  0
LINE
  5
102
  8
┌▓È_1
 62
     5
 10
211.95911458329999
 20
-82.739370373300005
 30
0.0
 11
211.95911458329999
 21
-84.239370373300005
 31
0.0
  0
ARC
  5
103
  8
┌▓È_1
 62
     5
 10
223.95911449210001
 20
-91.438754626700003
 30
0.0
 40
1.0
 50
180.00000825439989
 51
270.0
  0
ARC
  5
104
  8
┌▓È_1
 62
     5
 10
222.45911449210001
 20
-91.438754626700003
 30
0.0
 40
0.5
 50
359.99998349120011
 51
90.0
  0
LINE
  5
105
  8
┌▓È_1
 62
     5
 10
212.45911467459999
 20
-90.938754626700003
 30
0.0
 11
222.45911449210001
 21
-90.938754626700003
 31
0.0
  0
LINE
  5
106
  8
┌▓È_1
 62
     5
 10
231.95911458329999
 20
-94.138754626700006
 30
0.0
 11
231.95911458329999
 21
-92.638754626700006
 31
0.0
  0
LINE
  5
107
  8
┌▓È_1
 62
     5
 10
191.95911458329999
 20
-82.739370373300005
 30
0.0
 11
182.95911458329999
 21
-82.739370373300005
 31
0.0
  0
LINE
  5
108
  8
┌▓È_1
 62
     5
 10
171.95911458329999
 20
-94.138754626700006
 30
0.0
 11
171.95911458329999
 21
-92.638754626700006
 31
0.0
  0
LINE
  5
109
  8
┌▓È_1
 62
     5
 10
51.9591145833
 20
-82.739370373300005
 30
0.0
 11
51.9591145833
 21
-84.239370373300005
 31
0.0
  0
LINE
  5
10A
  8
┌▓È_1
 62
     5
 10
62.959114583299993
 20
-82.739370373300005
 30
0.0
 11
62.959114583299993
 21
-84.239370373300005
 31
0.0
  0
LINE
  5
10B
  8
┌▓È_1
 62
     5
 10
51.9591145833
 20
-84.239370373300005
 30
0.0
 11
62.959114583299993
 21
-84.239370373300005
 31
0.0
  0
LINE
  5
10C
  8
┌▓È_1
 62
     5
 10
62.959114583299993
 20
-94.138754626700006
 30
0.0
 11
62.959114583299993
 21
-92.638754626700006
 31
0.0
  0
LINE
  5
10D
  8
┌▓È_1
 62
     5
 10
57.8506034129
 20
-92.638754626700006
 30
0.0
 11
62.959114583299993
 21
-92.638754626700006
 31
0.0
  0
LINE
  5
10E
  8
┌▓È_1
 62
     5
 10
51.9591145833
 20
-82.739370373300005
 30
0.0
 11
48.5621872591
 21
-82.739370373300005
 31
0.0
  0
LINE
  5
10F
  8
┌▓È_1
 62
     5
 10
68.959114583299993
 20
-82.739370373300005
 30
0.0
 11
67.459114583299993
 21
-84.239370373300005
 31
0.0
  0
LINE
  5
110
  8
┌▓È_1
 62
     5
 10
65.959114583299993
 20
-82.739370373300005
 30
0.0
 11
67.459114583299993
 21
-84.239370373300005
 31
0.0
  0
LINE
  5
111
  8
┌▓È_1
 62
     5
 10
65.959114583299993
 20
-94.138754626700006
 30
0.0
 11
67.459114583299993
 21
-92.638754626700006
 31
0.0
  0
LINE
  5
112
  8
┌▓È_1
 62
     5
 10
71.959114583299993
 20
-92.638754626700006
 30
0.0
 11
82.959114583299993
 21
-92.638754626700006
 31
0.0
  0
LINE
  5
113
  8
┌▓È_1
 62
     5
 10
71.959114583299993
 20
-84.239370373300005
 30
0.0
 11
82.959114583299993
 21
-84.239370373300005
 31
0.0
  0
LINE
  5
114
  8
┌▓È_1
 62
     5
 10
82.959114583299993
 20
-82.739370373300005
 30
0.0
 11
82.959114583299993
 21
-84.239370373300005
 31
0.0
  0
LINE
  5
115
  8
┌▓È_1
 62
     5
 10
71.959114583299993
 20
-82.739370373300005
 30
0.0
 11
71.959114583299993
 21
-84.239370373300005
 31
0.0
  0
LINE
  5
116
  8
┌▓È_1
 62
     5
 10
151.95911458329999
 20
-82.739370373300005
 30
0.0
 11
151.95911458329999
 21
-84.239370373300005
 31
0.0
  0
CIRCLE
  5
117
  8
┌▓È_1
 62
     5
 10
147.45911458329999
 20
-88.439062500000006
 30
0.0
 40
1.5
  0
LINE
  5
118
  8
┌▓È_1
  6
BORDER
 62
     3
 10
147.45911458329999
 20
-83.439062500000006
 30
0.0
 11
147.45911458329999
 21
-93.439062500000006
 31
0.0
  0
LINE
  5
119
  8
┌▓È_1
  6
BORDER
 62
     3
 10
152.45911458329999
 20
-88.439062500000006
 30
0.0
 11
142.45911458329999
 21
-88.439062500000006
 31
0.0
  0
CIRCLE
  5
11A
  8
┌▓È_1
 62
     5
 10
147.45911458329999
 20
-88.439062500000006
 30
0.0
 40
2.2071067811999998
  0
LINE
  5
11B
  8
┌▓È_1
 62
     5
 10
142.95911458329999
 20
-94.138754626700006
 30
0.0
 11
151.95911458329999
 21
-94.138754626700006
 31
0.0
  0
LINE
  5
11C
  8
┌▓È_1
 62
     5
 10
142.95911458329999
 20
-94.138754626700006
 30
0.0
 11
142.95911458329999
 21
-92.638754626700006
 31
0.0
  0
LINE
  5
11D
  8
┌▓È_1
 62
     5
 10
142.95911458329999
 20
-82.739370373300005
 30
0.0
 11
142.95911458329999
 21
-84.239370373300005
 31
0.0
  0
LINE
  5
11E
  8
┌▓È_1
 62
     5
 10
151.95911458329999
 20
-94.138754626700006
 30
0.0
 11
151.95911458329999
 21
-92.638754626700006
 31
0.0
  0
POLYLINE
  8
┌▓È_1
  5
BC3
  66
     1
 10
0.000000
 20
0.000000
 30
0.000000
  70
     8
  0
VERTEX
  8
┌▓È_1
  5
BC4
 10
64.8020
 20
-56.6800
 30
0.000000
  70
    32
  0
VERTEX
  8
┌▓È_1
  5
BC5
 10
64.4386
 20
-57.0367
 30
0.000000
  70
    32
  0
VERTEX
  8
┌▓È_1
  5
BC6
 10
64.0755
 20
-57.3934
 30
0.000000
  70
    32
  0
VERTEX
  8
┌▓È_1
  5
BC7
 10
63.7126
 20
-57.7500
 30
0.000000
  70
    32
  0
VERTEX
  8
┌▓È_1
  5
BC8
 10
63.3502
 20
-58.1066
 30
0.000000
  70
    32
  0
VERTEX
  8
┌▓È_1
  5
BC9
 10
62.9884
 20
-58.4631
 30
0.000000
  70
    32
  0
VERTEX
  8
┌▓È_1
  5
BCA
 10
62.6274
 20
-58.8195
 30
0.000000
  70
    32
  0
VERTEX
  8
┌▓È_1
  5
BCB
 10
62.2673
 20
-59.1758
 30
0.000000
  70
    32
  0
VERTEX
  8
┌▓È_1
  5
BCC
 10
61.9083
 20
-59.5320
 30
0.000000
  70
    32
  0
VERTEX
  8
┌▓È_1
  5
BCD
 10
61.5505
 20
-59.8879
 30
0.000000
  70
    32
  0
VERTEX
  8
┌▓È_1
  5
BCE
 10
61.1941
 20
-60.2437
 30
0.000000
  70
    32
  0
VERTEX
  8
┌▓È_1
  5
BCF
 10
60.8393
 20
-60.5993
 30
0.000000
  70
    32
  0
VERTEX
  8
┌▓È_1
  5
BD0
 10
60.4861
 20
-60.9547
 30
0.000000
  70
    32
  0
VERTEX
  8
┌▓È_1
  5
BD1
 10
60.1347
 20
-61.3098
 30
0.000000
  70
    32
  0
VERTEX
  8
┌▓È_1
  5
BD2
 10
59.7854
 20
-61.6647
 30
0.000000
  70
    32
  0
VERTEX
  8
┌▓È_1
  5
BD3
 10
59.4382
 20
-62.0193
 30
0.000000
  70
    32
  0
VERTEX
  8
┌▓È_1
  5
BD4
 10
59.0934
 20
-62.3736
 30
0.000000
  70
    32
  0
VERTEX
  8
┌▓È_1
  5
BD5
 10
58.7509
 20
-62.7275
 30
0.000000
  70
    32
  0
VERTEX
  8
┌▓È_1
  5
BD6
 10
58.4111
 20
-63.0812
 30
0.000000
  70
    32
  0
VERTEX
  8
┌▓È_1
  5
BD7
 10
58.0741
 20
-63.4344
 30
0.000000
  70
    32
  0
VERTEX
  8
┌▓È_1
  5
BD8
 10
57.7400
 20
-63.7873
 30
0.000000
  70
    32
  0
VERTEX
  8
┌▓È_1
  5
BD9
 10
57.4090
 20
-64.1397
 30
0.000000
  70
    32
  0
VERTEX
  8
┌▓È_1
  5
BDA
 10
57.0811
 20
-64.4918
 30
0.000000
  70
    32
  0
VERTEX
  8
┌▓È_1
  5
BDB
 10
56.7567
 20
-64.8434
 30
0.000000
  70
    32
  0
VERTEX
  8
┌▓È_1
  5
BDC
 10
56.4358
 20
-65.1945
 30
0.000000
  70
    32
  0
VERTEX
  8
┌▓È_1
  5
BDD
 10
56.1186
 20
-65.5451
 30
0.000000
  70
    32
  0
VERTEX
  8
┌▓È_1
  5
BDE
 10
55.8052
 20
-65.8953
 30
0.000000
  70
    32
  0
VERTEX
  8
┌▓È_1
  5
BDF
 10
55.4959
 20
-66.2449
 30
0.000000
  70
    32
  0
VERTEX
  8
┌▓È_1
  5
BE0
 10
55.1907
 20
-66.5940
 30
0.000000
  70
    32
  0
VERTEX
  8
┌▓È_1
  5
BE1
 10
54.8897
 20
-66.9425
 30
0.000000
  70
    32
  0
VERTEX
  8
┌▓È_1
  5
BE2
 10
54.5933
 20
-67.2904
 30
0.000000
  70
    32
  0
VERTEX
  8
┌▓È_1
  5
BE3
 10
54.3014
 20
-67.6377
 30
0.000000
  70
    32
  0
VERTEX
  8
┌▓È_1
  5
BE4
 10
54.0144
 20
-67.9843
 30
0.000000
  70
    32
  0
VERTEX
  8
┌▓È_1
  5
BE5
 10
53.7322
 20
-68.3304
 30
0.000000
  70
    32
  0
VERTEX
  8
┌▓È_1
  5
BE6
 10
53.4551
 20
-68.6757
 30
0.000000
  70
    32
  0
VERTEX
  8
┌▓È_1
  5
BE7
 10
53.1832
 20
-69.0204
 30
0.000000
  70
    32
  0
VERTEX
  8
┌▓È_1
  5
BE8
 10
52.9168
 20
-69.3644
 30
0.000000
  70
    32
  0
VERTEX
  8
┌▓È_1
  5
BE9
 10
52.6558
 20
-69.7076
 30
0.000000
  70
    32
  0
VERTEX
  8
┌▓È_1
  5
BEA
 10
52.4005
 20
-70.0501
 30
0.000000
  70
    32
  0
VERTEX
  8
┌▓È_1
  5
BEB
 10
52.1511
 20
-70.3918
 30
0.000000
  70
    32
  0
VERTEX
  8
┌▓È_1
  5
BEC
 10
51.9077
 20
-70.7327
 30
0.000000
  70
    32
  0
VERTEX
  8
┌▓È_1
  5
BED
 10
51.6704
 20
-71.0728
 30
0.000000
  70
    32
  0
VERTEX
  8
┌▓È_1
  5
BEE
 10
51.4394
 20
-71.4121
 30
0.000000
  70
    32
  0
VERTEX
  8
┌▓È_1
  5
BEF
 10
51.2149
 20
-71.7506
 30
0.000000
  70
    32
  0
VERTEX
  8
┌▓È_1
  5
BF0
 10
50.9970
 20
-72.0881
 30
0.000000
  70
    32
  0
VERTEX
  8
┌▓È_1
  5
BF1
 10
50.7859
 20
-72.4248
 30
0.000000
  70
    32
  0
VERTEX
  8
┌▓È_1
  5
BF2
 10
50.5816
 20
-72.7606
 30
0.000000
  70
    32
  0
VERTEX
  8
┌▓È_1
  5
BF3
 10
50.3845
 20
-73.0954
 30
0.000000
  70
    32
  0
VERTEX
  8
┌▓È_1
  5
BF4
 10
50.1945
 20
-73.4293
 30
0.000000
  70
    32
  0
VERTEX
  8
┌▓È_1
  5
BF5
 10
50.0120
 20
-73.7622
 30
0.000000
  70
    32
  0
VERTEX
  8
┌▓È_1
  5
BF6
 10
49.8370
 20
-74.0942
 30
0.000000
  70
    32
  0
VERTEX
  8
┌▓È_1
  5
BF7
 10
49.6696
 20
-74.4251
 30
0.000000
  70
    32
  0
VERTEX
  8
┌▓È_1
  5
BF8
 10
49.5101
 20
-74.7549
 30
0.000000
  70
    32
  0
VERTEX
  8
┌▓È_1
  5
BF9
 10
49.3586
 20
-75.0838
 30
0.000000
  70
    32
  0
VERTEX
  8
┌▓È_1
  5
BFA
 10
49.2152
 20
-75.4115
 30
0.000000
  70
    32
  0
VERTEX
  8
┌▓È_1
  5
BFB
 10
49.0802
 20
-75.7382
 30
0.000000
  70
    32
  0
VERTEX
  8
┌▓È_1
  5
BFC
 10
48.9536
 20
-76.0637
 30
0.000000
  70
    32
  0
VERTEX
  8
┌▓È_1
  5
BFD
 10
48.8356
 20
-76.3881
 30
0.000000
  70
    32
  0
VERTEX
  8
┌▓È_1
  5
BFE
 10
48.7263
 20
-76.7114
 30
0.000000
  70
    32
  0
VERTEX
  8
┌▓È_1
  5
BFF
 10
48.6260
 20
-77.0335
 30
0.000000
  70
    32
  0
VERTEX
  8
┌▓È_1
  5
C00
 10
48.5347
 20
-77.3544
 30
0.000000
  70
    32
  0
VERTEX
  8
┌▓È_1
  5
C01
 10
48.4527
 20
-77.6741
 30
0.000000
  70
    32
  0
VERTEX
  8
┌▓È_1
  5
C02
 10
48.3801
 20
-77.9925
 30
0.000000
  70
    32
  0
VERTEX
  8
┌▓È_1
  5
C03
 10
48.3169
 20
-78.3097
 30
0.000000
  70
    32
  0
VERTEX
  8
┌▓È_1
  5
C04
 10
48.2635
 20
-78.6256
 30
0.000000
  70
    32
  0
VERTEX
  8
┌▓È_1
  5
C05
 10
48.2199
 20
-78.9402
 30
0.000000
  70
    32
  0
VERTEX
  8
┌▓È_1
  5
C06
 10
48.1863
 20
-79.2536
 30
0.000000
  70
    32
  0
VERTEX
  8
┌▓È_1
  5
C07
 10
48.1628
 20
-79.5655
 30
0.000000
  70
    32
  0
VERTEX
  8
┌▓È_1
  5
C08
 10
48.1496
 20
-79.8761
 30
0.000000
  70
    32
  0
VERTEX
  8
┌▓È_1
  5
C09
 10
48.1469
 20
-80.1854
 30
0.000000
  70
    32
  0
VERTEX
  8
┌▓È_1
  5
C0A
 10
48.1548
 20
-80.4932
 30
0.000000
  70
    32
  0
VERTEX
  8
┌▓È_1
  5
C0B
 10
48.1734
 20
-80.7996
 30
0.000000
  70
    32
  0
VERTEX
  8
┌▓È_1
  5
C0C
 10
48.2030
 20
-81.1046
 30
0.000000
  70
    32
  0
VERTEX
  8
┌▓È_1
  5
C0D
 10
48.2436
 20
-81.4082
 30
0.000000
  70
    32
  0
VERTEX
  8
┌▓È_1
  5
C0E
 10
48.2955
 20
-81.7102
 30
0.000000
  70
    32
  0
VERTEX
  8
┌▓È_1
  5
C0F
 10
48.3587
 20
-82.0108
 30
0.000000
  70
    32
  0
VERTEX
  8
┌▓È_1
  5
C10
 10
48.4334
 20
-82.3098
 30
0.000000
  70
    32
  0
VERTEX
  8
┌▓È_1
  5
C11
 10
48.5199
 20
-82.6073
 30
0.000000
  70
    32
  0
VERTEX
  8
┌▓È_1
  5
C12
 10
48.6181
 20
-82.9033
 30
0.000000
  70
    32
  0
VERTEX
  8
┌▓È_1
  5
C13
 10
48.7284
 20
-83.1976
 30
0.000000
  70
    32
  0
VERTEX
  8
┌▓È_1
  5
C14
 10
48.8508
 20
-83.4904
 30
0.000000
  70
    32
  0
VERTEX
  8
┌▓È_1
  5
C15
 10
48.9855
 20
-83.7815
 30
0.000000
  70
    32
  0
VERTEX
  8
┌▓È_1
  5
C16
 10
49.1326
 20
-84.0710
 30
0.000000
  70
    32
  0
VERTEX
  8
┌▓È_1
  5
C17
 10
49.2921
 20
-84.3589
 30
0.000000
  70
    32
  0
VERTEX
  8
┌▓È_1
  5
C18
 10
49.4635
 20
-84.6453
 30
0.000000
  70
    32
  0
VERTEX
  8
┌▓È_1
  5
C19
 10
49.6463
 20
-84.9301
 30
0.000000
  70
    32
  0
VERTEX
  8
┌▓È_1
  5
C1A
 10
49.8403
 20
-85.2134
 30
0.000000
  70
    32
  0
VERTEX
  8
┌▓È_1
  5
C1B
 10
50.0448
 20
-85.4954
 30
0.000000
  70
    32
  0
VERTEX
  8
┌▓È_1
  5
C1C
 10
50.2596
 20
-85.7760
 30
0.000000
  70
    32
  0
VERTEX
  8
┌▓È_1
  5
C1D
 10
50.4841
 20
-86.0553
 30
0.000000
  70
    32
  0
VERTEX
  8
┌▓È_1
  5
C1E
 10
50.7180
 20
-86.3334
 30
0.000000
  70
    32
  0
VERTEX
  8
┌▓È_1
  5
C1F
 10
50.9609
 20
-86.6103
 30
0.000000
  70
    32
  0
VERTEX
  8
┌▓È_1
  5
C20
 10
51.2122
 20
-86.8861
 30
0.000000
  70
    32
  0
VERTEX
  8
┌▓È_1
  5
C21
 10
51.4716
 20
-87.1608
 30
0.000000
  70
    32
  0
VERTEX
  8
┌▓È_1
  5
C22
 10
51.7387
 20
-87.4345
 30
0.000000
  70
    32
  0
VERTEX
  8
┌▓È_1
  5
C23
 10
52.0130
 20
-87.7073
 30
0.000000
  70
    32
  0
VERTEX
  8
┌▓È_1
  5
C24
 10
52.2941
 20
-87.9792
 30
0.000000
  70
    32
  0
VERTEX
  8
┌▓È_1
  5
C25
 10
52.5816
 20
-88.2502
 30
0.000000
  70
    32
  0
VERTEX
  8
┌▓È_1
  5
C26
 10
52.8750
 20
-88.5204
 30
0.000000
  70
    32
  0
VERTEX
  8
┌▓È_1
  5
C27
 10
53.1740
 20
-88.7900
 30
0.000000
  70
    32
  0
VERTEX
  8
┌▓È_1
  5
C28
 10
53.4780
 20
-89.0588
 30
0.000000
  70
    32
  0
VERTEX
  8
┌▓È_1
  5
C29
 10
53.7867
 20
-89.3271
 30
0.000000
  70
    32
  0
VERTEX
  8
┌▓È_1
  5
C2A
 10
54.0997
 20
-89.5947
 30
0.000000
  70
    32
  0
VERTEX
  8
┌▓È_1
  5
C2B
 10
54.4164
 20
-89.8619
 30
0.000000
  70
    32
  0
VERTEX
  8
┌▓È_1
  5
C2C
 10
54.7366
 20
-90.1286
 30
0.000000
  70
    32
  0
VERTEX
  8
┌▓È_1
  5
C2D
 10
55.0597
 20
-90.3950
 30
0.000000
  70
    32
  0
VERTEX
  8
┌▓È_1
  5
C2E
 10
55.3854
 20
-90.6610
 30
0.000000
  70
    32
  0
VERTEX
  8
┌▓È_1
  5
C2F
 10
55.7132
 20
-90.9267
 30
0.000000
  70
    32
  0
VERTEX
  8
┌▓È_1
  5
C30
 10
56.0427
 20
-91.1922
 30
0.000000
  70
    32
  0
VERTEX
  8
┌▓È_1
  5
C31
 10
56.3734
 20
-91.4576
 30
0.000000
  70
    32
  0
VERTEX
  8
┌▓È_1
  5
C32
 10
56.7050
 20
-91.7228
 30
0.000000
  70
    32
  0
VERTEX
  8
┌▓È_1
  5
C33
 10
57.0369
 20
-91.9880
 30
0.000000
  70
    32
  0
VERTEX
  8
┌▓È_1
  5
C34
 10
57.3689
 20
-92.2531
 30
0.000000
  70
    32
  0
VERTEX
  8
┌▓È_1
  5
C35
 10
57.7004
 20
-92.5184
 30
0.000000
  70
    32
  0
VERTEX
  8
┌▓È_1
  5
C36
 10
58.0311
 20
-92.7837
 30
0.000000
  70
    32
  0
VERTEX
  8
┌▓È_1
  5
C37
 10
58.3604
 20
-93.0492
 30
0.000000
  70
    32
  0
VERTEX
  8
┌▓È_1
  5
C38
 10
58.6881
 20
-93.3150
 30
0.000000
  70
    32
  0
VERTEX
  8
┌▓È_1
  5
C39
 10
59.0136
 20
-93.5810
 30
0.000000
  70
    32
  0
VERTEX
  8
┌▓È_1
  5
C3A
 10
59.3365
 20
-93.8474
 30
0.000000
  70
    32
  0
VERTEX
  8
┌▓È_1
  5
C3B
 10
59.6564
 20
-94.1141
 30
0.000000
  70
    32
  0
VERTEX
  8
┌▓È_1
  5
C3C
 10
59.9729
 20
-94.3814
 30
0.000000
  70
    32
  0
VERTEX
  8
┌▓È_1
  5
C3D
 10
60.2855
 20
-94.6491
 30
0.000000
  70
    32
  0
VERTEX
  8
┌▓È_1
  5
C3E
 10
60.5939
 20
-94.9174
 30
0.000000
  70
    32
  0
VERTEX
  8
┌▓È_1
  5
C3F
 10
60.8975
 20
-95.1863
 30
0.000000
  70
    32
  0
VERTEX
  8
┌▓È_1
  5
C40
 10
61.1961
 20
-95.4558
 30
0.000000
  70
    32
  0
VERTEX
  8
┌▓È_1
  5
C41
 10
61.4890
 20
-95.7261
 30
0.000000
  70
    32
  0
VERTEX
  8
┌▓È_1
  5
C42
 10
61.7760
 20
-95.9972
 30
0.000000
  70
    32
  0
VERTEX
  8
┌▓È_1
  5
C43
 10
62.0566
 20
-96.2692
 30
0.000000
  70
    32
  0
VERTEX
  8
┌▓È_1
  5
C44
 10
62.3304
 20
-96.5420
 30
0.000000
  70
    32
  0
VERTEX
  8
┌▓È_1
  5
C45
 10
62.5969
 20
-96.8158
 30
0.000000
  70
    32
  0
VERTEX
  8
┌▓È_1
  5
C46
 10
62.8557
 20
-97.0906
 30
0.000000
  70
    32
  0
VERTEX
  8
┌▓È_1
  5
C47
 10
63.1064
 20
-97.3665
 30
0.000000
  70
    32
  0
VERTEX
  8
┌▓È_1
  5
C48
 10
63.3485
 20
-97.6435
 30
0.000000
  70
    32
  0
VERTEX
  8
┌▓È_1
  5
C49
 10
63.5817
 20
-97.9217
 30
0.000000
  70
    32
  0
VERTEX
  8
┌▓È_1
  5
C4A
 10
63.8055
 20
-98.2011
 30
0.000000
  70
    32
  0
VERTEX
  8
┌▓È_1
  5
C4B
 10
64.0195
 20
-98.4818
 30
0.000000
  70
    32
  0
VERTEX
  8
┌▓È_1
  5
C4C
 10
64.2232
 20
-98.7639
 30
0.000000
  70
    32
  0
VERTEX
  8
┌▓È_1
  5
C4D
 10
64.4163
 20
-99.0473
 30
0.000000
  70
    32
  0
VERTEX
  8
┌▓È_1
  5
C4E
 10
64.5983
 20
-99.3323
 30
0.000000
  70
    32
  0
VERTEX
  8
┌▓È_1
  5
C4F
 10
64.7687
 20
-99.6187
 30
0.000000
  70
    32
  0
VERTEX
  8
┌▓È_1
  5
C50
 10
64.9273
 20
-99.9067
 30
0.000000
  70
    32
  0
VERTEX
  8
┌▓È_1
  5
C51
 10
65.0739
 20
-100.196
 30
0.000000
  70
    32
  0
VERTEX
  8
┌▓È_1
  5
C52
 10
65.2088
 20
-100.487
 30
0.000000
  70
    32
  0
VERTEX
  8
┌▓È_1
  5
C53
 10
65.3320
 20
-100.780
 30
0.000000
  70
    32
  0
VERTEX
  8
┌▓È_1
  5
C54
 10
65.4437
 20
-101.074
 30
0.000000
  70
    32
  0
VERTEX
  8
┌▓È_1
  5
C55
 10
65.5439
 20
-101.370
 30
0.000000
  70
    32
  0
VERTEX
  8
┌▓È_1
  5
C56
 10
65.6330
 20
-101.667
 30
0.000000
  70
    32
  0
VERTEX
  8
┌▓È_1
  5
C57
 10
65.7109
 20
-101.966
 30
0.000000
  70
    32
  0
VERTEX
  8
┌▓È_1
  5
C58
 10
65.7779
 20
-102.266
 30
0.000000
  70
    32
  0
VERTEX
  8
┌▓È_1
  5
C59
 10
65.8340
 20
-102.567
 30
0.000000
  70
    32
  0
VERTEX
  8
┌▓È_1
  5
C5A
 10
65.8795
 20
-102.870
 30
0.000000
  70
    32
  0
VERTEX
  8
┌▓È_1
  5
C5B
 10
65.9143
 20
-103.174
 30
0.000000
  70
    32
  0
VERTEX
  8
┌▓È_1
  5
C5C
 10
65.9387
 20
-103.480
 30
0.000000
  70
    32
  0
VERTEX
  8
┌▓È_1
  5
C5D
 10
65.9529
 20
-103.787
 30
0.000000
  70
    32
  0
VERTEX
  8
┌▓È_1
  5
C5E
 10
65.9569
 20
-104.095
 30
0.000000
  70
    32
  0
VERTEX
  8
┌▓È_1
  5
C5F
 10
65.9508
 20
-104.405
 30
0.000000
  70
    32
  0
VERTEX
  8
┌▓È_1
  5
C60
 10
65.9349
 20
-104.716
 30
0.000000
  70
    32
  0
VERTEX
  8
┌▓È_1
  5
C61
 10
65.9092
 20
-105.028
 30
0.000000
  70
    32
  0
VERTEX
  8
┌▓È_1
  5
C62
 10
65.8739
 20
-105.342
 30
0.000000
  70
    32
  0
VERTEX
  8
┌▓È_1
  5
C63
 10
65.8291
 20
-105.657
 30
0.000000
  70
    32
  0
VERTEX
  8
┌▓È_1
  5
C64
 10
65.7750
 20
-105.973
 30
0.000000
  70
    32
  0
VERTEX
  8
┌▓È_1
  5
C65
 10
65.7117
 20
-106.290
 30
0.000000
  70
    32
  0
VERTEX
  8
┌▓È_1
  5
C66
 10
65.6393
 20
-106.608
 30
0.000000
  70
    32
  0
VERTEX
  8
┌▓È_1
  5
C67
 10
65.5580
 20
-106.928
 30
0.000000
  70
    32
  0
VERTEX
  8
┌▓È_1
  5
C68
 10
65.4679
 20
-107.249
 30
0.000000
  70
    32
  0
VERTEX
  8
┌▓È_1
  5
C69
 10
65.3691
 20
-107.571
 30
0.000000
  70
    32
  0
VERTEX
  8
┌▓È_1
  5
C6A
 10
65.2618
 20
-107.894
 30
0.000000
  70
    32
  0
VERTEX
  8
┌▓È_1
  5
C6B
 10
65.1460
 20
-108.218
 30
0.000000
  70
    32
  0
VERTEX
  8
┌▓È_1
  5
C6C
 10
65.0221
 20
-108.543
 30
0.000000
  70
    32
  0
VERTEX
  8
┌▓È_1
  5
C6D
 10
64.8900
 20
-108.869
 30
0.000000
  70
    32
  0
VERTEX
  8
┌▓È_1
  5
C6E
 10
64.7499
 20
-109.196
 30
0.000000
  70
    32
  0
VERTEX
  8
┌▓È_1
  5
C6F
 10
64.6020
 20
-109.525
 30
0.000000
  70
    32
  0
VERTEX
  8
┌▓È_1
  5
C70
 10
64.4464
 20
-109.854
 30
0.000000
  70
    32
  0
VERTEX
  8
┌▓È_1
  5
C71
 10
64.2832
 20
-110.185
 30
0.000000
  70
    32
  0
VERTEX
  8
┌▓È_1
  5
C72
 10
64.1126
 20
-110.516
 30
0.000000
  70
    32
  0
VERTEX
  8
┌▓È_1
  5
C73
 10
63.9346
 20
-110.848
 30
0.000000
  70
    32
  0
VERTEX
  8
┌▓È_1
  5
C74
 10
63.7495
 20
-111.181
 30
0.000000
  70
    32
  0
VERTEX
  8
┌▓È_1
  5
C75
 10
63.5574
 20
-111.516
 30
0.000000
  70
    32
  0
VERTEX
  8
┌▓È_1
  5
C76
 10
63.3583
 20
-111.851
 30
0.000000
  70
    32
  0
VERTEX
  8
┌▓È_1
  5
C77
 10
63.1525
 20
-112.187
 30
0.000000
  70
    32
  0
VERTEX
  8
┌▓È_1
  5
C78
 10
62.9401
 20
-112.524
 30
0.000000
  70
    32
  0
VERTEX
  8
┌▓È_1
  5
C79
 10
62.7212
 20
-112.861
 30
0.000000
  70
    32
  0
VERTEX
  8
┌▓È_1
  5
C7A
 10
62.4959
 20
-113.200
 30
0.000000
  70
    32
  0
VERTEX
  8
┌▓È_1
  5
C7B
 10
62.2644
 20
-113.539
 30
0.000000
  70
    32
  0
VERTEX
  8
┌▓È_1
  5
C7C
 10
62.0269
 20
-113.879
 30
0.000000
  70
    32
  0
VERTEX
  8
┌▓È_1
  5
C7D
 10
61.7834
 20
-114.220
 30
0.000000
  70
    32
  0
VERTEX
  8
┌▓È_1
  5
C7E
 10
61.5340
 20
-114.562
 30
0.000000
  70
    32
  0
VERTEX
  8
┌▓È_1
  5
C7F
 10
61.2791
 20
-114.904
 30
0.000000
  70
    32
  0
VERTEX
  8
┌▓È_1
  5
C80
 10
61.0185
 20
-115.248
 30
0.000000
  70
    32
  0
VERTEX
  8
┌▓È_1
  5
C81
 10
60.7526
 20
-115.591
 30
0.000000
  70
    32
  0
VERTEX
  8
┌▓È_1
  5
C82
 10
60.4814
 20
-115.936
 30
0.000000
  70
    32
  0
VERTEX
  8
┌▓È_1
  5
C83
 10
60.2051
 20
-116.281
 30
0.000000
  70
    32
  0
SEQEND
  8
┌▓È_1
  5
C84
  0
INSERT
  5
120
  8
0
  6
CONTINUOUS
  2
*U38
 10
0.0
 20
0.0
 30
0.0
  0
ARC
  5
121
  8
┌▓È_1
 62
     5
 10
170.95911449210001
 20
-91.438754626700003
 30
0.0
 40
1.0
 50
270.00000357829998
 51
359.99999159330002
  0
LINE
  5
122
  8
┌▓È_1
 62
     5
 10
130.95911455449999
 20
-92.438754626700003
 30
0.0
 11
123.9591144921
 21
-92.438754626700003
 31
0.0
  0
LINE
  5
123
  8
┌▓È_1
 62
     5
 10
68.959114583299993
 20
-94.138754626700006
 30
0.0
 11
67.459114583299993
 21
-92.638754626700006
 31
0.0
  0
LINE
  5
124
  8
┌▓È_1
 62
     5
 10
91.959114583300007
 20
-94.138754626700006
 30
0.0
 11
91.959114583300007
 21
-92.638754626700006
 31
0.0
  0
LINE
  5
125
  8
┌▓È_1
 62
     5
 10
102.95911458330001
 20
-94.138754626700006
 30
0.0
 11
102.95911458330001
 21
-92.638754626700006
 31
0.0
  0
LINE
  5
126
  8
┌▓È_1
 62
     5
 10
91.959114583300007
 20
-92.638754626700006
 30
0.0
 11
102.95911458330001
 21
-92.638754626700006
 31
0.0
  0
LINE
  5
127
  8
┌▓È_1
 62
     5
 10
91.959114583300007
 20
-84.239370373300005
 30
0.0
 11
102.95911458330001
 21
-84.239370373300005
 31
0.0
  0
LINE
  5
128
  8
┌▓È_1
 62
     5
 10
102.95911458330001
 20
-82.739370373300005
 30
0.0
 11
102.95911458330001
 21
-84.239370373300005
 31
0.0
  0
LINE
  5
129
  8
┌▓È_1
 62
     5
 10
91.959114583300007
 20
-82.739370373300005
 30
0.0
 11
91.959114583300007
 21
-84.239370373300005
 31
0.0
  0
LINE
  5
12A
  8
┌▓È_1
 62
     5
 10
91.959114583300007
 20
-82.739370373300005
 30
0.0
 11
82.959114583299993
 21
-82.739370373300005
 31
0.0
  0
LINE
  5
12B
  8
┌▓È_1
 62
     5
 10
82.959114583299993
 20
-94.138754626700006
 30
0.0
 11
91.959114583300007
 21
-94.138754626700006
 31
0.0
  0
LINE
  5
12C
  8
┌▓È_1
 62
     5
 10
71.959114583299993
 20
-94.138754626700006
 30
0.0
 11
71.959114583299993
 21
-92.638754626700006
 31
0.0
  0
LINE
  5
12D
  8
┌▓È_1
 62
     5
 10
82.959114583299993
 20
-94.138754626700006
 30
0.0
 11
82.959114583299993
 21
-92.638754626700006
 31
0.0
  0
LINE
  5
12E
  8
┌▓È_1
 62
     5
 10
111.95911458330001
 20
-94.138754626700006
 30
0.0
 11
111.95911458330001
 21
-92.638754626700006
 31
0.0
  0
LINE
  5
12F
  8
┌▓È_1
 62
     5
 10
122.95911458330001
 20
-94.138754626700006
 30
0.0
 11
122.95911458330001
 21
-92.638754626700006
 31
0.0
  0
LINE
  5
130
  8
┌▓È_1
 62
     5
 10
111.95911458330001
 20
-92.638754626700006
 30
0.0
 11
122.95911458330001
 21
-92.638754626700006
 31
0.0
  0
LINE
  5
131
  8
┌▓È_1
 62
     5
 10
111.95911458330001
 20
-84.239370373300005
 30
0.0
 11
122.95911458330001
 21
-84.239370373300005
 31
0.0
  0
LINE
  5
132
  8
┌▓È_1
 62
     5
 10
122.95911458330001
 20
-82.739370373300005
 30
0.0
 11
122.95911458330001
 21
-84.239370373300005
 31
0.0
  0
LINE
  5
133
  8
┌▓È_1
 62
     5
 10
111.95911458330001
 20
-82.739370373300005
 30
0.0
 11
111.95911458330001
 21
-84.239370373300005
 31
0.0
  0
LINE
  5
134
  8
┌▓È_1
 62
     5
 10
68.959114583299993
 20
-94.138754626700006
 30
0.0
 11
71.959114583299993
 21
-94.138754626700006
 31
0.0
  0
LINE
  5
135
  8
┌▓È_1
 62
     5
 10
62.959114583299993
 20
-94.138754626700006
 30
0.0
 11
65.959114583299993
 21
-94.138754626700006
 31
0.0
  0
LINE
  5
136
  8
┌▓È_1
 62
     5
 10
65.959114583299993
 20
-82.739370373300005
 30
0.0
 11
62.959114583299993
 21
-82.739370373300005
 31
0.0
  0
LINE
  5
137
  8
┌▓È_1
 62
     5
 10
71.959114583299993
 20
-82.739370373300005
 30
0.0
 11
68.959114583299993
 21
-82.739370373300005
 31
0.0
  0
CIRCLE
  5
138
  8
┌▓È_1
 62
     5
 10
147.45911458329999
 20
-88.439062500000006
 30
0.0
 40
3.4142135624000001
  0
CIRCLE
  5
139
  8
┌▓È_1
  6
STITCH
 10
147.45911458329999
 20
-88.439062500000006
 30
0.0
 40
3.0
  0
LINE
  5
13A
  8
┌▓È_1
 62
     5
 10
151.95911458329999
 20
-82.739370373300005
 30
0.0
 11
142.95911458329999
 21
-82.739370373300005
 31
0.0
  0
ARC
  5
13B
  8
┌▓È_1
 62
     5
 10
72.459114492099999
 20
-91.438754626700003
 30
0.0
 40
0.5
 50
89.999979085500001
 51
180.00001681329999
  0
ARC
  5
13C
  8
┌▓È_1
 62
     5
 10
83.959114492099999
 20
-91.438754626700003
 30
0.0
 40
1.0
 50
180.00000825439989
 51
270.0
  0
ARC
  5
13D
  8
┌▓È_1
 62
     5
 10
82.459114492099999
 20
-91.438754626700003
 30
0.0
 40
0.5
 50
359.99998349120011
 51
90.0
  0
LINE
  5
13E
  8
┌▓È_1
 62
     5
 10
72.459114674600002
 20
-90.938754626700003
 30
0.0
 11
82.459114492099999
 21
-90.938754626700003
 31
0.0
  0
LINE
  5
13F
  8
┌▓È_1
 62
     5
 10
70.959114554500005
 20
-92.438754626700003
 30
0.0
 11
69.580434926899997
 21
-92.438754626700003
 31
0.0
  0
LINE
  5
140
  8
┌▓È_1
 62
     5
 10
65.33779423979999
 20
-92.438754626700003
 30
0.0
 11
63.959114492099999
 21
-92.438754626700003
 31
0.0
  0
ARC
  5
141
  8
┌▓È_1
 62
     5
 10
92.459114492099985
 20
-91.438754626700003
 30
0.0
 40
0.5
 50
89.999979085500001
 51
180.00001681329999
  0
ARC
  5
142
  8
┌▓È_1
 62
     5
 10
103.9591144921
 20
-91.438754626700003
 30
0.0
 40
1.0
 50
180.00000825439989
 51
270.0
  0
LINE
  5
143
  8
┌▓È_1
 62
     5
 10
111.95911458330001
 20
-82.739370373300005
 30
0.0
 11
102.95911458330001
 21
-82.739370373300005
 31
0.0
  0
LINE
  5
144
  8
┌▓È_1
 62
     5
 10
102.95911458330001
 20
-94.138754626700006
 30
0.0
 11
111.95911458330001
 21
-94.138754626700006
 31
0.0
  0
ARC
  5
145
  8
┌▓È_1
 62
     5
 10
122.4591144921
 20
-91.438754626700003
 30
0.0
 40
0.5
 50
359.99998349120011
 51
90.0
  0
LINE
  5
146
  8
┌▓È_1
 62
     5
 10
112.4591146746
 20
-90.938754626700003
 30
0.0
 11
122.4591144921
 21
-90.938754626700003
 31
0.0
  0
LINE
  5
147
  8
┌▓È_1
 62
     5
 10
67.906328178799995
 20
-91.601701252700011
 30
0.0
 11
69.580434926899997
 21
-92.438754626700003
 31
0.0
  0
LINE
  5
148
  8
┌▓È_1
 62
     5
 10
67.011900987800004
 20
-91.601701252700011
 30
0.0
 11
65.33779423979999
 21
-92.438754626700003
 31
0.0
  0
LINE
  5
149
  8
┌▓È_1
 62
     5
 10
131.95911458329999
 20
-82.739370373300005
 30
0.0
 11
131.95911458329999
 21
-84.239370373300005
 31
0.0
  0
LINE
  5
14A
  8
┌▓È_1
 62
     5
 10
131.95911458329999
 20
-82.739370373300005
 30
0.0
 11
122.95911458330001
 21
-82.739370373300005
 31
0.0
  0
LINE
  5
14B
  8
┌▓È_1
 62
     5
 10
122.95911458330001
 20
-94.138754626700006
 30
0.0
 11
131.95911458329999
 21
-94.138754626700006
 31
0.0
  0
LINE
  5
14C
  8
┌▓È_1
 62
     5
 10
131.95911458329999
 20
-94.138754626700006
 30
0.0
 11
131.95911458329999
 21
-92.638754626700006
 31
0.0
  0
LINE
  5
14D
  8
┌▓È_1
 62
     5
 10
131.95911458329999
 20
-92.638754626700006
 30
0.0
 11
142.95911458329999
 21
-92.638754626700006
 31
0.0
  0
LINE
  5
14E
  8
┌▓È_1
 62
     5
 10
131.95911458329999
 20
-84.239370373300005
 30
0.0
 11
142.95911458329999
 21
-84.239370373300005
 31
0.0
  0
ARC
  5
14F
  8
┌▓È_1
 62
     5
 10
110.9591144921
 20
-91.438754626700003
 30
0.0
 40
1.0
 50
270.00000357829998
 51
359.99999159330002
  0
ARC
  5
150
  8
┌▓È_1
 62
     5
 10
112.4591144921
 20
-91.438754626700003
 30
0.0
 40
0.5
 50
89.999979085500001
 51
180.00001681329999
  0
ARC
  5
151
  8
┌▓È_1
 62
     5
 10
130.95911449210001
 20
-91.438754626700003
 30
0.0
 40
1.0
 50
270.00000357829998
 51
359.99999159330002
  0
ARC
  5
152
  8
┌▓È_1
 62
     5
 10
132.45911449210001
 20
-91.438754626700003
 30
0.0
 40
0.5
 50
89.999979085500001
 51
180.00001681329999
  0
LINE
  5
153
  8
┌▓È_1
 62
     5
 10
132.45911467459999
 20
-90.938754626700003
 30
0.0
 11
142.45911449210001
 21
-90.938754626700003
 31
0.0
  0
LINE
  5
154
  8
┌▓È_1
 62
     5
 10
162.95911458329999
 20
-94.138754626700006
 30
0.0
 11
171.95911458329999
 21
-94.138754626700006
 31
0.0
  0
LINE
  5
155
  8
┌▓È_1
 62
     5
 10
170.95911455449999
 20
-92.438754626700003
 30
0.0
 11
163.95911449210001
 21
-92.438754626700003
 31
0.0
  0
ARC
  5
156
  8
┌▓È_1
 62
     5
 10
163.95911449210001
 20
-91.438754626700003
 30
0.0
 40
1.0
 50
180.00000825439989
 51
270.0
  0
ARC
  5
157
  8
┌▓È_1
 62
     5
 10
162.45911449210001
 20
-91.438754626700003
 30
0.0
 40
0.5
 50
359.99998349120011
 51
90.0
  0
LINE
  5
158
  8
┌▓È_1
 62
     5
 10
152.45911467459999
 20
-90.938754626700003
 30
0.0
 11
162.45911449210001
 21
-90.938754626700003
 31
0.0
  0
LINE
  5
159
  8
┌▓È_1
 62
     5
 10
162.95911458329999
 20
-94.138754626700006
 30
0.0
 11
162.95911458329999
 21
-92.638754626700006
 31
0.0
  0
LINE
  5
15A
  8
┌▓È_1
 62
     5
 10
151.95911458329999
 20
-92.638754626700006
 30
0.0
 11
162.95911458329999
 21
-92.638754626700006
 31
0.0
  0
LINE
  5
15B
  8
┌▓È_1
 62
     5
 10
151.95911458329999
 20
-84.239370373300005
 30
0.0
 11
162.95911458329999
 21
-84.239370373300005
 31
0.0
  0
LINE
  5
15C
  8
┌▓È_1
 62
     5
 10
162.95911458329999
 20
-82.739370373300005
 30
0.0
 11
162.95911458329999
 21
-84.239370373300005
 31
0.0
  0
ARC
  5
15D
  8
┌▓È_1
 62
     5
 10
102.4591144921
 20
-91.438754626700003
 30
0.0
 40
0.5
 50
359.99998349120011
 51
90.0
  0
LINE
  5
15E
  8
┌▓È_1
 62
     5
 10
92.459114674599988
 20
-90.938754626700003
 30
0.0
 11
102.4591144921
 21
-90.938754626700003
 31
0.0
  0
ARC
  5
15F
  8
┌▓È_1
 62
     5
 10
123.9591144921
 20
-91.438754626700003
 30
0.0
 40
1.0
 50
180.00000825439989
 51
270.0
  0
ARC
  5
160
  8
┌▓È_1
 62
     5
 10
62.459114492099999
 20
-91.438754626700003
 30
0.0
 40
0.5
 50
359.99998349120011
 51
90.0
  0
ARC
  5
161
  8
┌▓È_1
 62
     5
 10
63.959114492099999
 20
-91.438754626700003
 30
0.0
 40
1.0
 50
180.00000825439989
 51
270.0
  0
LINE
  5
162
  8
┌▓È_1
 62
     5
 10
150.95911455449999
 20
-92.438754626700003
 30
0.0
 11
143.95911449210001
 21
-92.438754626700003
 31
0.0
  0
ARC
  5
163
  8
┌▓È_1
 62
     5
 10
143.95911449210001
 20
-91.438754626700003
 30
0.0
 40
1.0
 50
180.00000825439989
 51
270.0
  0
ARC
  5
164
  8
┌▓È_1
 62
     5
 10
142.45911449210001
 20
-91.438754626700003
 30
0.0
 40
0.5
 50
359.99998349120011
 51
90.0
  0
ARC
  5
165
  8
┌▓È_1
 62
     5
 10
150.95911449210001
 20
-91.438754626700003
 30
0.0
 40
1.0
 50
270.00000357829998
 51
359.99999159330002
  0
ARC
  5
166
  8
┌▓È_1
 62
     5
 10
152.45911449210001
 20
-91.438754626700003
 30
0.0
 40
0.5
 50
89.999979085500001
 51
180.00001681329999
  0
LINE
  5
167
  8
┌▓È_1
 62
     5
 10
55.728102309699999
 20
-90.938754626700003
 30
0.0
 11
62.459114492099999
 21
-90.938754626700003
 31
0.0
  0
ARC
  5
168
  8
┌▓È_1
 62
     5
 10
67.459114583299993
 20
-92.496128443700002
 30
0.0
 40
1.0
 50
63.43494882289999
 51
116.5650511771
  0
LINE
  5
169
  8
┌▓È_1
 62
     5
 10
110.9591145545
 20
-92.438754626700003
 30
0.0
 11
103.9591144921
 21
-92.438754626700003
 31
0.0
  0
ARC
  5
16A
  8
┌▓È_1
 62
     5
 10
90.959114492099985
 20
-91.438754626700003
 30
0.0
 40
1.0
 50
270.00000357829998
 51
359.99999159330002
  0
LINE
  5
16B
  8
┌▓È_1
 62
     5
 10
90.959114554500005
 20
-92.438754626700003
 30
0.0
 11
83.959114492099999
 21
-92.438754626700003
 31
0.0
  0
ARC
  5
16C
  8
┌▓È_1
 62
     5
 10
70.959114492099985
 20
-91.438754626700003
 30
0.0
 40
1.0
 50
270.00000357829998
 51
359.99999159330002
  0
LINE
  5
16D
  8
┌▓È_1
 62
     5
 10
-168.04088541670001
 20
8.8385416666999994
 30
0.0
 11
-168.04088541670001
 21
10.0385416667
 31
0.0
  0
LINE
  5
16E
  8
┌▓È_1
 62
     5
 10
-132.54088541670001
 20
8.8385416666999994
 30
0.0
 11
-132.54088541670001
 21
10.0385416667
 31
0.0
  0
LINE
  5
16F
  8
┌▓È_1
 62
     5
 10
-131.04088541670001
 20
8.8385416666999994
 30
0.0
 11
-131.04088541670001
 21
10.0385416667
 31
0.0
  0
LINE
  5
170
  8
┌▓È_1
 62
     5
 10
-134.04088541670001
 20
8.8385416666999994
 30
0.0
 11
-134.04088541670001
 21
10.0385416667
 31
0.0
  0
LINE
  5
171
  8
┌▓È_1
 62
     5
 10
-148.04088541670001
 20
8.8385416666999994
 30
0.0
 11
-148.04088541670001
 21
10.0385416667
 31
0.0
  0
LINE
  5
172
  8
┌▓È_1
 62
     5
 10
-157.04088541670001
 20
8.8385416666999994
 30
0.0
 11
-157.04088541670001
 21
10.0385416667
 31
0.0
  0
LINE
  5
173
  8
┌▓È_1
 62
     5
 10
-128.04088541670001
 20
8.8385416666999994
 30
0.0
 11
-128.04088541670001
 21
10.0385416667
 31
0.0
  0
LINE
  5
174
  8
┌▓È_1
 62
     5
 10
-137.04088541670001
 20
8.8385416666999994
 30
0.0
 11
-137.04088541670001
 21
10.0385416667
 31
0.0
  0
LINE
  5
175
  8
┌▓È_1
 62
     5
 10
-108.04088541669999
 20
8.8385416666999994
 30
0.0
 11
-108.04088541669999
 21
10.0385416667
 31
0.0
  0
LINE
  5
176
  8
┌▓È_1
 62
     5
 10
-88.040885416700007
 20
8.8385416666999994
 30
0.0
 11
-88.040885416700007
 21
10.0385416667
 31
0.0
  0
LINE
  5
177
  8
┌▓È_1
 62
     5
 10
-97.040885416700007
 20
8.8385416666999994
 30
0.0
 11
-97.040885416700007
 21
10.0385416667
 31
0.0
  0
LINE
  5
178
  8
┌▓È_1
 62
     5
 10
-77.040885416699993
 20
8.8385416666999994
 30
0.0
 11
-77.040885416699993
 21
10.0385416667
 31
0.0
  0
LINE
  5
179
  8
┌▓È_1
 62
     5
 10
-68.040885416700007
 20
8.8385416666999994
 30
0.0
 11
-68.040885416700007
 21
10.0385416667
 31
0.0
  0
LINE
  5
17A
  8
┌▓È_1
 62
     5
 10
-17.0408854167
 20
8.8385416666999994
 30
0.0
 11
-17.0408854167
 21
10.0385416667
 31
0.0
  0
LINE
  5
17B
  8
┌▓È_1
 62
     5
 10
-28.0408854167
 20
8.8385416666999994
 30
0.0
 11
-28.0408854167
 21
10.0385416667
 31
0.0
  0
LINE
  5
17C
  8
┌▓È_1
 62
     5
 10
-37.0408854167
 20
8.8385416666999994
 30
0.0
 11
-37.0408854167
 21
10.0385416667
 31
0.0
  0
LINE
  5
17D
  8
┌▓È_1
 62
     5
 10
-48.0408854167
 20
8.8385416666999994
 30
0.0
 11
-48.0408854167
 21
10.0385416667
 31
0.0
  0
LINE
  5
17E
  8
┌▓È_1
 62
     5
 10
-57.0408854167
 20
8.8385416666999994
 30
0.0
 11
-57.0408854167
 21
10.0385416667
 31
0.0
  0
INSERT
  5
180
  8
┌▓È_1
  6
STITCH
  2
CLUMP2
 10
0.0
 20
0.0
 30
0.0
  0
INSERT
  5
187
  8
0
  6
CONTINUOUS
  2
*U39
 10
0.0
 20
0.0
 30
0.0
  0
INSERT
  5
188
  8
0
  6
CONTINUOUS
  2
*U40
 10
0.0
 20
0.0
 30
0.0
  0
INSERT
  5
189
  8
0
  6
CONTINUOUS
  2
*U41
 10
0.0
 20
0.0
 30
0.0
  0
INSERT
  5
18A
  8
0
  6
CONTINUOUS
  2
*U42
 10
0.0
 20
0.0
 30
0.0
  0
INSERT
  5
18B
  8
0
  6
CONTINUOUS
  2
*U43
 10
0.0
 20
0.0
 30
0.0
  0
LINE
  5
18C
  8
┌▓È_1
 62
     5
 10
171.95911458329999
 20
-82.739370373300005
 30
0.0
 11
162.95911458329999
 21
-82.739370373300005
 31
0.0
  0
LINE
  5
18D
  8
┌▓È_1
 62
     5
 10
-292.59955779730001
 20
113.9037760417
 30
0.0
 11
-292.59955779730001
 21
114.6037760417
 31
0.0
  0
ARC
  5
18E
  8
┌▓È_1
 62
     5
 10
-293.59955779730001
 20
113.9037760417
 30
0.0
 40
1.0
 50
270.0
 51
0.0
  0
LINE
  5
18F
  8
┌▓È_1
 62
     5
 10
-293.44955773409998
 20
114.8037760417
 30
0.0
 11
-292.7995577973
 21
114.8037760417
 31
0.0
  0
ARC
  5
190
  8
┌▓È_1
 62
     5
 10
-293.64955773409997
 20
114.9537760417
 30
0.0
 40
0.25
 50
180.00001252800001
 51
323.13010235420001
  0
ARC
  5
191
  8
┌▓È_1
 62
     5
 10
-292.7995577973
 20
114.6037760417
 30
0.0
 40
0.2
 50
0.0
 51
90.0
  0
ARC
  5
192
  8
┌▓È_1
 62
     5
 10
-292.7995577973
 20
125.2037760417
 30
0.0
 40
0.2
 50
270.0
 51
0.0
  0
LINE
  5
193
  8
┌▓È_1
 62
     5
 10
-293.44955773409998
 20
125.00377604169999
 30
0.0
 11
-292.7995577973
 21
125.00377604169999
 31
0.0
  0
ARC
  5
194
  8
┌▓È_1
 62
     5
 10
-293.64955773409997
 20
124.8537760417
 30
0.0
 40
0.25
 50
36.869897645800002
 51
179.99998747199999
  0
LINE
  5
195
  8
┌▓È_1
 62
     5
 10
-293.89955773409997
 20
114.953775987
 30
0.0
 11
-293.8995568492
 21
124.854391843
 31
0.0
  0
ARC
  5
196
  8
┌▓È_1
 62
     5
 10
-294.59955779730001
 20
113.2037760417
 30
0.0
 40
0.3
 50
180.0
 51
270.0
  0
LINE
  5
197
  8
┌▓È_1
 62
     5
 10
-296.09955779730001
 20
114.2037760417
 30
0.0
 11
-294.89955779730002
 21
114.2037760417
 31
0.0
  0
LINE
  5
198
  8
┌▓È_1
 62
     5
 10
-296.09955779730001
 20
115.9037760417
 30
0.0
 11
-294.89955779730002
 21
115.9037760417
 31
0.0
  0
LINE
  5
199
  8
┌▓È_1
 62
     5
 10
-296.09955779730001
 20
115.9037760417
 30
0.0
 11
-296.09955779730001
 21
114.2037760417
 31
0.0
  0
LINE
  5
19A
  8
┌▓È_1
 62
     5
 10
-294.89955779730002
 20
123.9037760417
 30
0.0
 11
-294.89955779730002
 21
115.9037760417
 31
0.0
  0
LINE
  5
19B
  8
┌▓È_1
 62
     5
 10
-294.89955779730002
 20
123.9037760417
 30
0.0
 11
-296.09955779730001
 21
123.9037760417
 31
0.0
  0
INSERT
  5
19D
  8
┌▓È_1
  6
STITCH
  2
CLUMP3
 10
0.0
 20
0.0
 30
0.0
  0
INSERT
  5
1A5
  8
┌▓È_1
  6
STITCH
 62
     5
  2
CLUMP4
 10
0.0
 20
0.0
 30
0.0
  0
DIMENSION
  5
1CC
  8
Éíû@É³
  2
*D9
 10
-262.54088541670001
 20
126.9037760417
 30
0.0
 11
-262.54088541670001
 21
119.9037760417
 31
0.0
 70
   128
  1
<>
 13
-242.54088541670001
 23
126.9037760417
 33
0.0
 14
-242.54088541670001
 24
112.9037760417
 34
0.0
 50
90.0
  0
DIMENSION
  5
1DB
  8
Éíû@É³
  2
*D10
 10
-262.54088541670001
 20
12.338541666699999
 30
0.0
 11
-262.54088541670001
 21
10.588541666699999
 31
0.0
 70
   128
  1
<>
 13
-242.54088541670001
 23
12.338541666699999
 33
0.0
 14
-242.54088541670001
 24
8.8385416666999994
 34
0.0
 50
90.0
  0
LINE
  5
1DC
  8
┌▓È_1
 62
     5
 10
12.192447916700001
 20
8.8385416666999994
 30
0.0
 11
12.192447916700001
 21
10.0385416667
 31
0.0
  0
LINE
  5
1DD
  8
┌▓È_1
 62
     5
 10
25.9591145833
 20
8.8385416666999994
 30
0.0
 11
25.9591145833
 21
10.0385416667
 31
0.0
  0
LINE
  5
1DE
  8
┌▓È_1
 62
     5
 10
28.9591145833
 20
8.8385416666999994
 30
0.0
 11
28.9591145833
 21
10.0385416667
 31
0.0
  0
LINE
  5
1DF
  8
┌▓È_1
 62
     5
 10
27.4591145833
 20
8.8385416666999994
 30
0.0
 11
27.4591145833
 21
10.0385416667
 31
0.0
  0
LINE
  5
1E0
  8
┌▓È_1
 62
     5
 10
23.192447916700001
 20
8.8385416666999994
 30
0.0
 11
23.192447916700001
 21
10.0385416667
 31
0.0
  0
LINE
  5
1E1
  8
┌▓È_1
 62
     5
 10
-117.04088541669999
 20
8.8385416666999994
 30
0.0
 11
-117.04088541669999
 21
10.0385416667
 31
0.0
  0
LINE
  5
1E2
  8
┌▓È_1
 62
     5
 10
-28.0408854167
 20
-94.138754626700006
 30
0.0
 11
-37.0408854167
 21
-94.138754626700006
 31
0.0
  0
LINE
  5
1E3
  8
┌▓È_1
 62
     5
 10
-57.0408854167
 20
-82.739370373300005
 30
0.0
 11
-48.0408854167
 21
-82.739370373300005
 31
0.0
  0
LINE
  5
1E4
  8
┌▓È_1
 62
     5
 10
-48.0408854167
 20
-94.138754626700006
 30
0.0
 11
-57.0408854167
 21
-94.138754626700006
 31
0.0
  0
LINE
  5
1E5
  8
┌▓È_1
 62
     5
 10
-37.0408854167
 20
-94.138754626700006
 30
0.0
 11
-37.0408854167
 21
-92.638754626700006
 31
0.0
  0
LINE
  5
1E6
  8
┌▓È_1
 62
     5
 10
-48.0408854167
 20
-94.138754626700006
 30
0.0
 11
-48.0408854167
 21
-92.638754626700006
 31
0.0
  0
LINE
  5
1E7
  8
┌▓È_1
 62
     5
 10
-37.0408854167
 20
-92.638754626700006
 30
0.0
 11
-48.0408854167
 21
-92.638754626700006
 31
0.0
  0
LINE
  5
1E8
  8
┌▓È_1
 62
     5
 10
-37.0408854167
 20
-84.239370373300005
 30
0.0
 11
-48.0408854167
 21
-84.239370373300005
 31
0.0
  0
LINE
  5
1E9
  8
┌▓È_1
 62
     5
 10
-48.0408854167
 20
-82.739370373300005
 30
0.0
 11
-48.0408854167
 21
-84.239370373300005
 31
0.0
  0
LINE
  5
1EA
  8
┌▓È_1
 62
     5
 10
-37.0408854167
 20
-82.739370373300005
 30
0.0
 11
-37.0408854167
 21
-84.239370373300005
 31
0.0
  0
LINE
  5
1EB
  8
┌▓È_1
 62
     5
 10
-57.0408854167
 20
-94.138754626700006
 30
0.0
 11
-57.0408854167
 21
-92.638754626700006
 31
0.0
  0
LINE
  5
1EC
  8
┌▓È_1
 62
     5
 10
-57.0408854167
 20
-82.739370373300005
 30
0.0
 11
-57.0408854167
 21
-84.239370373300005
 31
0.0
  0
ARC
  5
1ED
  8
┌▓È_1
 62
     5
 10
2.459114674599999
 20
-91.438754626700003
 30
0.0
 40
0.5
 50
359.99998318669998
 51
90.000020914500013
  0
LINE
  5
1EE
  8
┌▓È_1
 62
     5
 10
2.459114492099999
 20
-90.938754626700003
 30
0.0
 11
-7.5408853253999988
 21
-90.938754626700003
 31
0.0
  0
LINE
  5
1EF
  8
┌▓È_1
 62
     5
 10
2.959114583299999
 20
-92.638754626700006
 30
0.0
 11
-8.0408854167000001
 21
-92.638754626700006
 31
0.0
  0
LINE
  5
1F0
  8
┌▓È_1
 62
     5
 10
2.959114583299999
 20
-84.239370373300005
 30
0.0
 11
-8.0408854167000001
 21
-84.239370373300005
 31
0.0
  0
DIMENSION
  5
1FF
  8
Éíû@É³
  2
*D11
 10
-242.54088541670001
 20
61.163541666699992
 30
0.0
 11
-227.54088541670001
 21
61.163541666699992
 31
0.0
 70
   128
  1
<>
 13
-242.54088541670001
 23
112.9037760417
 33
0.0
 14
-212.54088541670001
 24
114.9037760417
 34
0.0
 50
180.0
  0
LINE
  5
200
  8
┌▓È_1
 62
     5
 10
-228.04088541670001
 20
8.8385416666999994
 30
0.0
 11
-228.04088541670001
 21
10.0385416667
 31
0.0
  0
LINE
  5
201
  8
┌▓È_1
 62
     5
 10
-217.04088541670001
 20
8.8385416666999994
 30
0.0
 11
-217.04088541670001
 21
10.0385416667
 31
0.0
  0
LINE
  5
202
  8
┌▓È_1
 62
     5
 10
-208.04088541670001
 20
8.8385416666999994
 30
0.0
 11
-208.04088541670001
 21
10.0385416667
 31
0.0
  0
LINE
  5
203
  8
┌▓È_1
 62
     5
 10
-197.04088541670001
 20
8.8385416666999994
 30
0.0
 11
-197.04088541670001
 21
10.0385416667
 31
0.0
  0
LINE
  5
204
  8
┌▓È_1
 62
     5
 10
-188.04088541670001
 20
8.8385416666999994
 30
0.0
 11
-188.04088541670001
 21
10.0385416667
 31
0.0
  0
LINE
  5
205
  8
┌▓È_1
 62
     5
 10
-177.04088541670001
 20
8.8385416666999994
 30
0.0
 11
-177.04088541670001
 21
10.0385416667
 31
0.0
  0
LINE
  5
206
  8
┌▓È_1
 62
     5
 10
-242.54088541670001
 20
12.338541666699999
 30
0.0
 11
-242.54088541670001
 21
8.8385416666999994
 31
0.0
  0
LINE
  5
207
  8
┌▓È_1
 62
     5
 10
-294.59955779730001
 20
112.9037760417
 30
0.0
 11
-293.59955779730001
 21
112.9037760417
 31
0.0
  0
LINE
  5
208
  8
┌▓È_1
 62
     5
 10
-294.89955779730002
 20
114.2037760417
 30
0.0
 11
-294.89955779730002
 21
113.2037760417
 31
0.0
  0
ARC
  5
209
  8
┌▓È_1
 62
     5
 10
-56.040885325399998
 20
-91.438754626700003
 30
0.0
 40
1.0
 50
180.0000084067
 51
269.99999642170002
  0
ARC
  5
20A
  8
┌▓È_1
 62
     5
 10
-57.540885325399991
 20
-91.438754626700003
 30
0.0
 40
0.5
 50
359.99998318669998
 51
90.000020914500013
  0
ARC
  5
20B
  8
┌▓È_1
 62
     5
 10
-16.040885325400001
 20
-91.438754626700003
 30
0.0
 40
1.0
 50
180.0000084067
 51
269.99999642170002
  0
ARC
  5
20C
  8
┌▓È_1
 62
     5
 10
-17.540885325400001
 20
-91.438754626700003
 30
0.0
 40
0.5
 50
359.99998318669998
 51
90.000020914500013
  0
ARC
  5
20D
  8
┌▓È_1
 62
     5
 10
-29.040885325400001
 20
-91.438754626700003
 30
0.0
 40
1.0
 50
270.0
 51
359.99999174560003
  0
ARC
  5
20E
  8
┌▓È_1
 62
     5
 10
-27.540885325400001
 20
-91.438754626700003
 30
0.0
 40
0.5
 50
90.0
 51
180.0000165088
  0
LINE
  5
20F
  8
┌▓È_1
 62
     5
 10
-17.0408854167
 20
-82.739370373300005
 30
0.0
 11
-17.0408854167
 21
-84.239370373300005
 31
0.0
  0
LINE
  5
210
  8
┌▓È_1
 62
     5
 10
-16.040885387900001
 20
-92.438754626700003
 30
0.0
 11
-9.0408853253999997
 21
-92.438754626700003
 31
0.0
  0
ARC
  5
211
  8
┌▓È_1
 62
     5
 10
-9.0408853253999997
 20
-91.438754626700003
 30
0.0
 40
1.0
 50
270.0
 51
359.99999174560003
  0
ARC
  5
212
  8
┌▓È_1
 62
     5
 10
-7.5408853253999988
 20
-91.438754626700003
 30
0.0
 40
0.5
 50
90.0
 51
180.0000165088
  0
LINE
  5
213
  8
┌▓È_1
 62
     5
 10
-8.0408854167000001
 20
-94.138754626700006
 30
0.0
 11
-17.0408854167
 21
-94.138754626700006
 31
0.0
  0
LINE
  5
214
  8
┌▓È_1
 62
     5
 10
-8.0408854167000001
 20
-94.138754626700006
 30
0.0
 11
-8.0408854167000001
 21
-92.638754626700006
 31
0.0
  0
LINE
  5
215
  8
┌▓È_1
 62
     5
 10
-17.0408854167
 20
-94.138754626700006
 30
0.0
 11
-17.0408854167
 21
-92.638754626700006
 31
0.0
  0
LINE
  5
216
  8
┌▓È_1
 62
     5
 10
-28.0408854167
 20
-94.138754626700006
 30
0.0
 11
-28.0408854167
 21
-92.638754626700006
 31
0.0
  0
LINE
  5
217
  8
┌▓È_1
 62
     5
 10
-17.0408854167
 20
-92.638754626700006
 30
0.0
 11
-28.0408854167
 21
-92.638754626700006
 31
0.0
  0
LINE
  5
218
  8
┌▓È_1
 62
     5
 10
-17.0408854167
 20
-84.239370373300005
 30
0.0
 11
-28.0408854167
 21
-84.239370373300005
 31
0.0
  0
LINE
  5
219
  8
┌▓È_1
 62
     5
 10
-28.0408854167
 20
-82.739370373300005
 30
0.0
 11
-28.0408854167
 21
-84.239370373300005
 31
0.0
  0
CIRCLE
  5
21A
  8
┌▓È_1
 62
     5
 10
-52.5408854167
 20
-88.439062500000006
 30
0.0
 40
2.2071067811999998
  0
CIRCLE
  5
21B
  8
┌▓È_1
 62
     5
 10
-52.5408854167
 20
-88.439062500000006
 30
0.0
 40
3.4142135624000001
  0
CIRCLE
  5
21C
  8
┌▓È_1
  6
STITCH
 10
-52.5408854167
 20
-88.439062500000006
 30
0.0
 40
3.0
  0
LINE
  5
21D
  8
┌▓È_1
 62
     5
 10
-8.0408854167000001
 20
-82.739370373300005
 30
0.0
 11
-8.0408854167000001
 21
-84.239370373300005
 31
0.0
  0
CIRCLE
  5
21E
  8
┌▓È_1
 62
     5
 10
-52.5408854167
 20
-88.439062500000006
 30
0.0
 40
1.5
  0
LINE
  5
21F
  8
┌▓È_1
  6
BORDER
 62
     3
 10
-52.5408854167
 20
-83.439062500000006
 30
0.0
 11
-52.5408854167
 21
-93.439062500000006
 31
0.0
  0
LINE
  5
220
  8
┌▓È_1
  6
BORDER
 62
     3
 10
-57.5408854167
 20
-88.439062500000006
 30
0.0
 11
-47.540885416699993
 21
-88.439062500000006
 31
0.0
  0
LINE
  5
221
  8
┌▓È_1
 62
     5
 10
-37.0408854167
 20
-82.739370373300005
 30
0.0
 11
-28.0408854167
 21
-82.739370373300005
 31
0.0
  0
LINE
  5
222
  8
┌▓È_1
 62
     5
 10
-77.040885416699993
 20
-94.138754626700006
 30
0.0
 11
-77.040885416699993
 21
-92.638754626700006
 31
0.0
  0
LINE
  5
223
  8
┌▓È_1
 62
     5
 10
-88.040885416700007
 20
-94.138754626700006
 30
0.0
 11
-88.040885416700007
 21
-92.638754626700006
 31
0.0
  0
LINE
  5
224
  8
┌▓È_1
 62
     5
 10
-77.040885416699993
 20
-92.638754626700006
 30
0.0
 11
-88.040885416700007
 21
-92.638754626700006
 31
0.0
  0
LINE
  5
225
  8
┌▓È_1
 62
     5
 10
-77.040885416699993
 20
-84.239370373300005
 30
0.0
 11
-88.040885416700007
 21
-84.239370373300005
 31
0.0
  0
LINE
  5
226
  8
┌▓È_1
 62
     5
 10
-88.040885416700007
 20
-82.739370373300005
 30
0.0
 11
-88.040885416700007
 21
-84.239370373300005
 31
0.0
  0
LINE
  5
227
  8
┌▓È_1
 62
     5
 10
-77.040885416699993
 20
-82.739370373300005
 30
0.0
 11
-77.040885416699993
 21
-84.239370373300005
 31
0.0
  0
LINE
  5
228
  8
┌▓È_1
 62
     5
 10
-97.040885416700007
 20
-94.138754626700006
 30
0.0
 11
-97.040885416700007
 21
-92.638754626700006
 31
0.0
  0
LINE
  5
229
  8
┌▓È_1
 62
     5
 10
-108.04088541669999
 20
-82.739370373300005
 30
0.0
 11
-108.04088541669999
 21
-84.239370373300005
 31
0.0
  0
LINE
  5
22A
  8
┌▓È_1
 62
     5
 10
-157.04088541670001
 20
-82.739370373300005
 30
0.0
 11
-148.04088541670001
 21
-82.739370373300005
 31
0.0
  0
LINE
  5
22B
  8
┌▓È_1
 62
     5
 10
-68.040885416700007
 20
-94.138754626700006
 30
0.0
 11
-68.040885416700007
 21
-92.638754626700006
 31
0.0
  0
LINE
  5
22C
  8
┌▓È_1
 62
     5
 10
-57.0408854167
 20
-92.638754626700006
 30
0.0
 11
-68.040885416700007
 21
-92.638754626700006
 31
0.0
  0
LINE
  5
22D
  8
┌▓È_1
 62
     5
 10
-57.0408854167
 20
-84.239370373300005
 30
0.0
 11
-68.040885416700007
 21
-84.239370373300005
 31
0.0
  0
LINE
  5
22E
  8
┌▓È_1
 62
     5
 10
-68.040885416700007
 20
-82.739370373300005
 30
0.0
 11
-68.040885416700007
 21
-84.239370373300005
 31
0.0
  0
ARC
  5
22F
  8
┌▓È_1
 62
     5
 10
-69.040885325399998
 20
-91.438754626700003
 30
0.0
 40
1.0
 50
270.0
 51
359.99999174560003
  0
ARC
  5
230
  8
┌▓È_1
 62
     5
 10
-67.540885325399984
 20
-91.438754626700003
 30
0.0
 40
0.5
 50
90.0
 51
180.0000165088
  0
LINE
  5
231
  8
┌▓È_1
 62
     5
 10
-57.540885507900001
 20
-90.938754626700003
 30
0.0
 11
-67.540885325399984
 21
-90.938754626700003
 31
0.0
  0
ARC
  5
232
  8
┌▓È_1
 62
     5
 10
-49.040885325399998
 20
-91.438754626700003
 30
0.0
 40
1.0
 50
270.0
 51
359.99999174560003
  0
ARC
  5
233
  8
┌▓È_1
 62
     5
 10
-47.540885325399991
 20
-91.438754626700003
 30
0.0
 40
0.5
 50
90.0
 51
180.0000165088
  0
LINE
  5
234
  8
┌▓È_1
 62
     5
 10
-36.040885387899998
 20
-92.438754626700003
 30
0.0
 11
-29.040885325400001
 21
-92.438754626700003
 31
0.0
  0
LINE
  5
235
  8
┌▓È_1
 62
     5
 10
-17.540885507900001
 20
-90.938754626700003
 30
0.0
 11
-27.540885325400001
 21
-90.938754626700003
 31
0.0
  0
LINE
  5
236
  8
┌▓È_1
 62
     5
 10
-56.040885387899998
 20
-92.438754626700003
 30
0.0
 11
-49.040885325399998
 21
-92.438754626700003
 31
0.0
  0
ARC
  5
237
  8
┌▓È_1
 62
     5
 10
-36.040885325399998
 20
-91.438754626700003
 30
0.0
 40
1.0
 50
180.0000084067
 51
269.99999642170002
  0
ARC
  5
238
  8
┌▓È_1
 62
     5
 10
-37.540885325399998
 20
-91.438754626700003
 30
0.0
 40
0.5
 50
359.99998318669998
 51
90.000020914500013
  0
LINE
  5
239
  8
┌▓È_1
 62
     5
 10
-17.0408854167
 20
-82.739370373300005
 30
0.0
 11
-8.0408854167000001
 21
-82.739370373300005
 31
0.0
  0
LINE
  5
23A
  8
┌▓È_1
 62
     5
 10
-37.540885507900001
 20
-90.938754626700003
 30
0.0
 11
-47.540885325399991
 21
-90.938754626700003
 31
0.0
  0
LINE
  5
23B
  8
┌▓È_1
 62
     5
 10
-134.04088541670001
 20
-94.138754626700006
 30
0.0
 11
-137.04088541670001
 21
-94.138754626700006
 31
0.0
  0
LINE
  5
23C
  8
┌▓È_1
 62
     5
 10
-128.04088541670001
 20
-94.138754626700006
 30
0.0
 11
-131.04088541670001
 21
-94.138754626700006
 31
0.0
  0
LINE
  5
23D
  8
┌▓È_1
 62
     5
 10
-131.04088541670001
 20
-82.739370373300005
 30
0.0
 11
-128.04088541670001
 21
-82.739370373300005
 31
0.0
  0
LINE
  5
23E
  8
┌▓È_1
 62
     5
 10
-137.04088541670001
 20
-82.739370373300005
 30
0.0
 11
-134.04088541670001
 21
-82.739370373300005
 31
0.0
  0
LINE
  5
23F
  8
┌▓È_1
 62
     5
 10
-97.040885416700007
 20
-82.739370373300005
 30
0.0
 11
-97.040885416700007
 21
-84.239370373300005
 31
0.0
  0
LINE
  5
240
  8
┌▓È_1
 62
     5
 10
-117.04088541669999
 20
-82.739370373300005
 30
0.0
 11
-117.04088541669999
 21
-84.239370373300005
 31
0.0
  0
LINE
  5
241
  8
┌▓È_1
 62
     5
 10
-128.04088541670001
 20
-82.739370373300005
 30
0.0
 11
-128.04088541670001
 21
-84.239370373300005
 31
0.0
  0
LINE
  5
242
  8
┌▓È_1
 62
     5
 10
-117.04088541669999
 20
-84.239370373300005
 30
0.0
 11
-128.04088541670001
 21
-84.239370373300005
 31
0.0
  0
LINE
  5
243
  8
┌▓È_1
 62
     5
 10
-117.04088541669999
 20
-92.638754626700006
 30
0.0
 11
-128.04088541670001
 21
-92.638754626700006
 31
0.0
  0
LINE
  5
244
  8
┌▓È_1
 62
     5
 10
-128.04088541670001
 20
-94.138754626700006
 30
0.0
 11
-128.04088541670001
 21
-92.638754626700006
 31
0.0
  0
LINE
  5
245
  8
┌▓È_1
 62
     5
 10
-117.04088541669999
 20
-94.138754626700006
 30
0.0
 11
-117.04088541669999
 21
-92.638754626700006
 31
0.0
  0
LINE
  5
246
  8
┌▓È_1
 62
     5
 10
-148.04088541670001
 20
-94.138754626700006
 30
0.0
 11
-157.04088541670001
 21
-94.138754626700006
 31
0.0
  0
LINE
  5
247
  8
┌▓È_1
 62
     5
 10
-137.04088541670001
 20
-94.138754626700006
 30
0.0
 11
-137.04088541670001
 21
-92.638754626700006
 31
0.0
  0
LINE
  5
248
  8
┌▓È_1
 62
     5
 10
-148.04088541670001
 20
-94.138754626700006
 30
0.0
 11
-148.04088541670001
 21
-92.638754626700006
 31
0.0
  0
LINE
  5
249
  8
┌▓È_1
 62
     5
 10
-137.04088541670001
 20
-92.638754626700006
 30
0.0
 11
-148.04088541670001
 21
-92.638754626700006
 31
0.0
  0
LINE
  5
24A
  8
┌▓È_1
 62
     5
 10
-137.04088541670001
 20
-84.239370373300005
 30
0.0
 11
-148.04088541670001
 21
-84.239370373300005
 31
0.0
  0
LINE
  5
24B
  8
┌▓È_1
 62
     5
 10
-148.04088541670001
 20
-82.739370373300005
 30
0.0
 11
-148.04088541670001
 21
-84.239370373300005
 31
0.0
  0
LINE
  5
24C
  8
┌▓È_1
 62
     5
 10
-137.04088541670001
 20
-82.739370373300005
 30
0.0
 11
-137.04088541670001
 21
-84.239370373300005
 31
0.0
  0
LINE
  5
24D
  8
┌▓È_1
 62
     5
 10
-157.04088541670001
 20
-94.138754626700006
 30
0.0
 11
-157.04088541670001
 21
-92.638754626700006
 31
0.0
  0
LINE
  5
24E
  8
┌▓È_1
 62
     5
 10
-168.04088541670001
 20
-94.138754626700006
 30
0.0
 11
-168.04088541670001
 21
-92.638754626700006
 31
0.0
  0
LINE
  5
24F
  8
┌▓È_1
 62
     5
 10
-157.04088541670001
 20
-92.638754626700006
 30
0.0
 11
-168.04088541670001
 21
-92.638754626700006
 31
0.0
  0
LINE
  5
250
  8
┌▓È_1
 62
     5
 10
-157.04088541670001
 20
-84.239370373300005
 30
0.0
 11
-168.04088541670001
 21
-84.239370373300005
 31
0.0
  0
LINE
  5
251
  8
┌▓È_1
 62
     5
 10
-168.04088541670001
 20
-82.739370373300005
 30
0.0
 11
-168.04088541670001
 21
-84.239370373300005
 31
0.0
  0
LINE
  5
252
  8
┌▓È_1
 62
     5
 10
-97.040885416700007
 20
-82.739370373300005
 30
0.0
 11
-88.040885416700007
 21
-82.739370373300005
 31
0.0
  0
LINE
  5
253
  8
┌▓È_1
 62
     5
 10
-88.040885416700007
 20
-94.138754626700006
 30
0.0
 11
-97.040885416700007
 21
-94.138754626700006
 31
0.0
  0
LINE
  5
254
  8
┌▓È_1
 62
     5
 10
-116.0408853879
 20
-92.438754626700003
 30
0.0
 11
-109.0408853254
 21
-92.438754626700003
 31
0.0
  0
ARC
  5
255
  8
┌▓È_1
 62
     5
 10
-109.0408853254
 20
-91.438754626700003
 30
0.0
 40
1.0
 50
270.0
 51
359.99999174560003
  0
ARC
  5
256
  8
┌▓È_1
 62
     5
 10
-107.5408853254
 20
-91.438754626700003
 30
0.0
 40
0.5
 50
90.0
 51
180.0000165088
  0
LINE
  5
257
  8
┌▓È_1
 62
     5
 10
-156.0408853879
 20
-92.438754626700003
 30
0.0
 11
-149.04088532540001
 21
-92.438754626700003
 31
0.0
  0
ARC
  5
258
  8
┌▓È_1
 62
     5
 10
-136.04088532540001
 20
-91.438754626700003
 30
0.0
 40
1.0
 50
180.0000084067
 51
269.99999642170002
  0
ARC
  5
259
  8
┌▓È_1
 62
     5
 10
-137.54088532540001
 20
-91.438754626700003
 30
0.0
 40
0.5
 50
359.99998318669998
 51
90.000020914500013
  0
ARC
  5
25A
  8
┌▓È_1
 62
     5
 10
-149.04088532540001
 20
-91.438754626700003
 30
0.0
 40
1.0
 50
270.0
 51
359.99999174560003
  0
ARC
  5
25B
  8
┌▓È_1
 62
     5
 10
-147.54088532540001
 20
-91.438754626700003
 30
0.0
 40
0.5
 50
90.0
 51
180.0000165088
  0
LINE
  5
25C
  8
┌▓È_1
 62
     5
 10
-134.04088541670001
 20
-82.739370373300005
 30
0.0
 11
-132.54088541670001
 21
-84.239370373300005
 31
0.0
  0
LINE
  5
25D
  8
┌▓È_1
 62
     5
 10
-131.04088541670001
 20
-82.739370373300005
 30
0.0
 11
-132.54088541670001
 21
-84.239370373300005
 31
0.0
  0
LINE
  5
25E
  8
┌▓È_1
 62
     5
 10
-131.04088541670001
 20
-94.138754626700006
 30
0.0
 11
-132.54088541670001
 21
-92.638754626700006
 31
0.0
  0
LINE
  5
25F
  8
┌▓È_1
 62
     5
 10
-134.04088541670001
 20
-94.138754626700006
 30
0.0
 11
-132.54088541670001
 21
-92.638754626700006
 31
0.0
  0
LINE
  5
260
  8
┌▓È_1
 62
     5
 10
-117.04088541669999
 20
-82.739370373300005
 30
0.0
 11
-108.04088541669999
 21
-82.739370373300005
 31
0.0
  0
LINE
  5
261
  8
┌▓È_1
 62
     5
 10
-108.04088541669999
 20
-94.138754626700006
 30
0.0
 11
-117.04088541669999
 21
-94.138754626700006
 31
0.0
  0
LINE
  5
262
  8
┌▓È_1
 62
     5
 10
-108.04088541669999
 20
-94.138754626700006
 30
0.0
 11
-108.04088541669999
 21
-92.638754626700006
 31
0.0
  0
ARC
  5
263
  8
┌▓È_1
 62
     5
 10
-167.54088532540001
 20
-91.438754626700003
 30
0.0
 40
0.5
 50
90.0
 51
180.0000165088
  0
LINE
  5
264
  8
┌▓È_1
 62
     5
 10
-157.54088550789999
 20
-90.938754626700003
 30
0.0
 11
-167.54088532540001
 21
-90.938754626700003
 31
0.0
  0
LINE
  5
265
  8
┌▓È_1
 62
     5
 10
-97.040885416700007
 20
-92.638754626700006
 30
0.0
 11
-108.04088541669999
 21
-92.638754626700006
 31
0.0
  0
LINE
  5
266
  8
┌▓È_1
 62
     5
 10
-97.040885416700007
 20
-84.239370373300005
 30
0.0
 11
-108.04088541669999
 21
-84.239370373300005
 31
0.0
  0
LINE
  5
267
  8
┌▓È_1
 62
     5
 10
-132.9880990122
 20
-91.601701252700011
 30
0.0
 11
-134.66220576020001
 21
-92.438754626700003
 31
0.0
  0
LINE
  5
268
  8
┌▓È_1
 62
     5
 10
-132.09367182119999
 20
-91.601701252700011
 30
0.0
 11
-130.41956507309999
 21
-92.438754626700003
 31
0.0
  0
ARC
  5
269
  8
┌▓È_1
 62
     5
 10
-132.54088541670001
 20
-92.496128443700002
 30
0.0
 40
1.0
 50
63.43494882289999
 51
116.5650511771
  0
ARC
  5
26A
  8
┌▓È_1
 62
     5
 10
-117.5408853254
 20
-91.438754626700003
 30
0.0
 40
0.5
 50
359.99998318669998
 51
90.000020914500013
  0
ARC
  5
26B
  8
┌▓È_1
 62
     5
 10
-116.0408853254
 20
-91.438754626700003
 30
0.0
 40
1.0
 50
180.0000084067
 51
269.99999642170002
  0
LINE
  5
26C
  8
┌▓È_1
 62
     5
 10
-157.04088541670001
 20
-82.739370373300005
 30
0.0
 11
-157.04088541670001
 21
-84.239370373300005
 31
0.0
  0
LINE
  5
26D
  8
┌▓È_1
 62
     5
 10
28.542592969099999
 20
-83.155891987499999
 30
0.0
 11
27.4591145833
 21
-84.239370373300005
 31
0.0
  0
LINE
  5
26E
  8
┌▓È_1
 62
     5
 10
25.9591145833
 20
-82.739370373300005
 30
0.0
 11
27.4591145833
 21
-84.239370373300005
 31
0.0
  0
LINE
  5
26F
  8
┌▓È_1
 62
     5
 10
25.9591145833
 20
-94.138754626700006
 30
0.0
 11
22.9591145833
 21
-94.138754626700006
 31
0.0
  0
LINE
  5
270
  8
┌▓È_1
 62
     5
 10
2.959114583299999
 20
-82.739370373300005
 30
0.0
 11
2.959114583299999
 21
-84.239370373300005
 31
0.0
  0
LINE
  5
271
  8
┌▓È_1
 62
     5
 10
-77.040885416699993
 20
-82.739370373300005
 30
0.0
 11
-68.040885416700007
 21
-82.739370373300005
 31
0.0
  0
LINE
  5
272
  8
┌▓È_1
 62
     5
 10
-68.040885416700007
 20
-94.138754626700006
 30
0.0
 11
-77.040885416699993
 21
-94.138754626700006
 31
0.0
  0
LINE
  5
273
  8
┌▓È_1
 62
     5
 10
-76.040885387900005
 20
-92.438754626700003
 30
0.0
 11
-69.040885325399998
 21
-92.438754626700003
 31
0.0
  0
LINE
  5
274
  8
┌▓È_1
 62
     5
 10
-137.54088550789999
 20
-90.938754626700003
 30
0.0
 11
-147.54088532540001
 21
-90.938754626700003
 31
0.0
  0
ARC
  5
275
  8
┌▓È_1
 62
     5
 10
-156.04088532540001
 20
-91.438754626700003
 30
0.0
 40
1.0
 50
180.0000084067
 51
269.99999642170002
  0
ARC
  5
276
  8
┌▓È_1
 62
     5
 10
-157.54088532540001
 20
-91.438754626700003
 30
0.0
 40
0.5
 50
359.99998318669998
 51
90.000020914500013
  0
ARC
  5
277
  8
┌▓È_1
 62
     5
 10
-169.04088532540001
 20
-91.438754626700003
 30
0.0
 40
1.0
 50
270.0
 51
359.99999174560003
  0
LINE
  5
278
  8
┌▓È_1
 62
     5
 10
-130.41956507309999
 20
-92.438754626700003
 30
0.0
 11
-129.04088532540001
 21
-92.438754626700003
 31
0.0
  0
LINE
  5
279
  8
┌▓È_1
 62
     5
 10
-136.0408853879
 20
-92.438754626700003
 30
0.0
 11
-134.66220576020001
 21
-92.438754626700003
 31
0.0
  0
LINE
  5
27A
  8
┌▓È_1
 62
     5
 10
-117.5408855079
 20
-90.938754626700003
 30
0.0
 11
-127.5408853254
 21
-90.938754626700003
 31
0.0
  0
ARC
  5
27B
  8
┌▓È_1
 62
     5
 10
-127.5408853254
 20
-91.438754626700003
 30
0.0
 40
0.5
 50
90.0
 51
180.0000165088
  0
ARC
  5
27C
  8
┌▓È_1
 62
     5
 10
-129.04088532540001
 20
-91.438754626700003
 30
0.0
 40
1.0
 50
270.0
 51
359.99999174560003
  0
ARC
  5
27D
  8
┌▓È_1
 62
     5
 10
-96.040885325400026
 20
-91.438754626700003
 30
0.0
 40
1.0
 50
180.0000084067
 51
269.99999642170002
  0
ARC
  5
27E
  8
┌▓È_1
 62
     5
 10
-97.540885325400026
 20
-91.438754626700003
 30
0.0
 40
0.5
 50
359.99998318669998
 51
90.000020914500013
  0
LINE
  5
27F
  8
┌▓È_1
 62
     5
 10
-96.040885387900005
 20
-92.438754626700003
 30
0.0
 11
-89.040885325400012
 21
-92.438754626700003
 31
0.0
  0
ARC
  5
280
  8
┌▓È_1
 62
     5
 10
-76.040885325399998
 20
-91.438754626700003
 30
0.0
 40
1.0
 50
180.0000084067
 51
269.99999642170002
  0
ARC
  5
281
  8
┌▓È_1
 62
     5
 10
-77.540885325399984
 20
-91.438754626700003
 30
0.0
 40
0.5
 50
359.99998318669998
 51
90.000020914500013
  0
ARC
  5
282
  8
┌▓È_1
 62
     5
 10
-89.040885325400012
 20
-91.438754626700003
 30
0.0
 40
1.0
 50
270.0
 51
359.99999174560003
  0
ARC
  5
283
  8
┌▓È_1
 62
     5
 10
-87.540885325399998
 20
-91.438754626700003
 30
0.0
 40
0.5
 50
90.0
 51
180.0000165088
  0
LINE
  5
284
  8
┌▓È_1
 62
     5
 10
-77.540885507900001
 20
-90.938754626700003
 30
0.0
 11
-87.540885325399998
 21
-90.938754626700003
 31
0.0
  0
LINE
  5
285
  8
┌▓È_1
 62
     5
 10
-97.540885507900015
 20
-90.938754626700003
 30
0.0
 11
-107.5408853254
 21
-90.938754626700003
 31
0.0
  0
DIMENSION
  5
294
  8
Éíû@É³
  2
*D12
 10
-197.04088541670001
 20
-62.201952107700002
 30
0.0
 11
-207.04088541670001
 21
-62.201952107700002
 31
0.0
 70
   128
  1
<>
 13
-197.04088541670001
 23
-83.439062500000006
 33
0.0
 14
-217.04088541670001
 24
-83.439062500000006
 34
0.0
  0
LINE
  5
295
  8
┌▓È_1
  6
BORDER
 62
     3
 10
-288.88949554599992
 20
-88.439062500000006
 30
0.0
 11
-297.83181764340009
 21
-88.439062500000006
 31
0.0
  0
LINE
  5
296
  8
┌▓È_1
 62
     5
 10
23.959114612099999
 20
-92.438754626700003
 30
0.0
 11
25.337794239800001
 21
-92.438754626700003
 31
0.0
  0
LINE
  5
297
  8
┌▓È_1
 62
     5
 10
11.9591145833
 20
-82.739370373300005
 30
0.0
 11
11.9591145833
 21
-84.239370373300005
 31
0.0
  0
LINE
  5
298
  8
┌▓È_1
 62
     5
 10
22.9591145833
 20
-82.739370373300005
 30
0.0
 11
22.9591145833
 21
-84.239370373300005
 31
0.0
  0
LINE
  5
299
  8
┌▓È_1
 62
     5
 10
27.90632817880001
 20
-91.601701252700011
 30
0.0
 11
29.172034178499999
 21
-92.234554252500004
 31
0.0
  0
LINE
  5
29A
  8
┌▓È_1
 62
     5
 10
27.011900987800001
 20
-91.601701252700011
 30
0.0
 11
25.337794239800001
 21
-92.438754626700003
 31
0.0
  0
ARC
  5
29B
  8
┌▓È_1
 62
     5
 10
27.4591145833
 20
-92.496128443700002
 30
0.0
 40
1.0
 50
63.43494882289999
 51
116.5650511771
  0
LINE
  5
29C
  8
┌▓È_1
 62
     5
 10
3.9591146120999992
 20
-92.438754626700003
 30
0.0
 11
10.9591146746
 21
-92.438754626700003
 31
0.0
  0
ARC
  5
29D
  8
┌▓È_1
 62
     5
 10
23.959114674599999
 20
-91.438754626700003
 30
0.0
 40
1.0
 50
180.0000084067
 51
269.99999642170002
  0
ARC
  5
29E
  8
┌▓È_1
 62
     5
 10
22.459114674599999
 20
-91.438754626700003
 30
0.0
 40
0.5
 50
359.99998318669998
 51
90.000020914500013
  0
ARC
  5
29F
  8
┌▓È_1
 62
     5
 10
10.9591146746
 20
-91.438754626700003
 30
0.0
 40
1.0
 50
270.0
 51
359.99999174560003
  0
ARC
  5
2A0
  8
┌▓È_1
 62
     5
 10
12.4591146746
 20
-91.438754626700003
 30
0.0
 40
0.5
 50
90.0
 51
180.0000165088
  0
LINE
  5
2A1
  8
┌▓È_1
 62
     5
 10
22.459114492099999
 20
-90.938754626700003
 30
0.0
 11
12.4591146746
 21
-90.938754626700003
 31
0.0
  0
ARC
  5
2A2
  8
┌▓È_1
 62
     5
 10
3.959114674599999
 20
-91.438754626700003
 30
0.0
 40
1.0
 50
180.0000084067
 51
269.99999642170002
  0
LINE
  5
2A3
  8
┌▓È_1
 62
     5
 10
2.959114583299999
 20
-82.739370373300005
 30
0.0
 11
11.9591145833
 21
-82.739370373300005
 31
0.0
  0
LINE
  5
2A4
  8
┌▓È_1
 62
     5
 10
11.9591145833
 20
-94.138754626700006
 30
0.0
 11
2.959114583299999
 21
-94.138754626700006
 31
0.0
  0
LINE
  5
2A5
  8
┌▓È_1
 62
     5
 10
22.9591145833
 20
-94.138754626700006
 30
0.0
 11
22.9591145833
 21
-92.638754626700006
 31
0.0
  0
LINE
  5
2A6
  8
┌▓È_1
 62
     5
 10
11.9591145833
 20
-94.138754626700006
 30
0.0
 11
11.9591145833
 21
-92.638754626700006
 31
0.0
  0
LINE
  5
2A7
  8
┌▓È_1
 62
     5
 10
22.9591145833
 20
-92.638754626700006
 30
0.0
 11
11.9591145833
 21
-92.638754626700006
 31
0.0
  0
LINE
  5
2A8
  8
┌▓È_1
 62
     5
 10
22.9591145833
 20
-84.239370373300005
 30
0.0
 11
11.9591145833
 21
-84.239370373300005
 31
0.0
  0
LINE
  5
2A9
  8
┌▓È_1
 62
     5
 10
28.9591145833
 20
-94.138754626700006
 30
0.0
 11
27.4591145833
 21
-92.638754626700006
 31
0.0
  0
LINE
  5
2AA
  8
┌▓È_1
 62
     5
 10
25.9591145833
 20
-94.138754626700006
 30
0.0
 11
27.4591145833
 21
-92.638754626700006
 31
0.0
  0
LINE
  5
2AB
  8
┌▓È_1
 62
     5
 10
22.9591145833
 20
-82.739370373300005
 30
0.0
 11
25.9591145833
 21
-82.739370373300005
 31
0.0
  0
LINE
  5
2AC
  8
┌▓È_1
 62
     5
 10
2.959114583299999
 20
-94.138754626700006
 30
0.0
 11
2.959114583299999
 21
-92.638754626700006
 31
0.0
  0
LINE
  5
2AD
  8
┌▓È_1
 62
     5
 10
-208.04088541670001
 20
-94.138754626700006
 30
0.0
 11
-208.04088541670001
 21
-92.638754626700006
 31
0.0
  0
ARC
  5
2AE
  8
┌▓È_1
 62
     5
 10
-196.04088532540001
 20
-91.438754626700003
 30
0.0
 40
1.0
 50
180.0000084067
 51
269.99999642170002
  0
ARC
  5
2AF
  8
┌▓È_1
 62
     5
 10
-197.54088532540001
 20
-91.438754626700003
 30
0.0
 40
0.5
 50
359.99998318669998
 51
90.000020914500013
  0
LINE
  5
2B0
  8
┌▓È_1
 62
     5
 10
-208.04088541670001
 20
-82.739370373300005
 30
0.0
 11
-208.04088541670001
 21
-84.239370373300005
 31
0.0
  0
LINE
  5
2B1
  8
┌▓È_1
 62
     5
 10
-197.04088541670001
 20
-82.739370373300005
 30
0.0
 11
-197.04088541670001
 21
-84.239370373300005
 31
0.0
  0
LINE
  5
2B2
  8
┌▓È_1
 62
     5
 10
-217.04088541670001
 20
-82.739370373300005
 30
0.0
 11
-217.04088541670001
 21
-84.239370373300005
 31
0.0
  0
LINE
  5
2B3
  8
┌▓È_1
 62
     5
 10
-228.04088541670001
 20
-82.739370373300005
 30
0.0
 11
-228.04088541670001
 21
-84.239370373300005
 31
0.0
  0
LINE
  5
2B4
  8
┌▓È_1
 62
     5
 10
-217.04088541670001
 20
-84.239370373300005
 30
0.0
 11
-228.04088541670001
 21
-84.239370373300005
 31
0.0
  0
LINE
  5
2B5
  8
┌▓È_1
 62
     5
 10
-217.04088541670001
 20
-92.638754626700006
 30
0.0
 11
-228.04088541670001
 21
-92.638754626700006
 31
0.0
  0
LINE
  5
2B6
  8
┌▓È_1
 62
     5
 10
-228.04088541670001
 20
-94.138754626700006
 30
0.0
 11
-228.04088541670001
 21
-92.638754626700006
 31
0.0
  0
LINE
  5
2B7
  8
┌▓È_1
 62
     5
 10
-217.04088541670001
 20
-94.138754626700006
 30
0.0
 11
-217.04088541670001
 21
-92.638754626700006
 31
0.0
  0
CIRCLE
  5
2B8
  8
┌▓È_1
 62
     5
 10
-212.54088541670001
 20
-88.439062500000006
 30
0.0
 40
1.5
  0
LINE
  5
2B9
  8
┌▓È_1
  6
BORDER
 62
     3
 10
-212.54088541670001
 20
-83.439062500000006
 30
0.0
 11
-212.54088541670001
 21
-93.439062500000006
 31
0.0
  0
LINE
  5
2BA
  8
┌▓È_1
  6
BORDER
 62
     3
 10
-217.54088541670001
 20
-88.439062500000006
 30
0.0
 11
-207.54088541670001
 21
-88.439062500000006
 31
0.0
  0
CIRCLE
  5
2BB
  8
┌▓È_1
 62
     5
 10
-212.54088541670001
 20
-88.439062500000006
 30
0.0
 40
2.2071067811999998
  0
CIRCLE
  5
2BC
  8
┌▓È_1
 62
     5
 10
-212.54088541670001
 20
-88.439062500000006
 30
0.0
 40
3.4142135624000001
  0
CIRCLE
  5
2BD
  8
┌▓È_1
  6
STITCH
 10
-212.54088541670001
 20
-88.439062500000006
 30
0.0
 40
3.0
  0
LINE
  5
2BE
  8
┌▓È_1
 62
     5
 10
-228.04088541670001
 20
-82.739370373300005
 30
0.0
 11
-242.54088541670001
 21
-82.739370373300005
 31
0.0
  0
LINE
  5
2BF
  8
┌▓È_1
 62
     5
 10
-228.04088541670001
 20
-94.139370373299997
 30
0.0
 11
-242.54088541670001
 21
-94.139370373299997
 31
0.0
  0
LINE
  5
2C0
  8
┌▓È_1
 62
     5
 10
-188.04088541670001
 20
-94.138754626700006
 30
0.0
 11
-197.04088541670001
 21
-94.138754626700006
 31
0.0
  0
LINE
  5
2C1
  8
┌▓È_1
 62
     5
 10
-177.04088541670001
 20
-94.138754626700006
 30
0.0
 11
-177.04088541670001
 21
-92.638754626700006
 31
0.0
  0
LINE
  5
2C2
  8
┌▓È_1
 62
     5
 10
-197.04088541670001
 20
-92.638754626700006
 30
0.0
 11
-208.04088541670001
 21
-92.638754626700006
 31
0.0
  0
LINE
  5
2C3
  8
┌▓È_1
 62
     5
 10
-197.04088541670001
 20
-84.239370373300005
 30
0.0
 11
-208.04088541670001
 21
-84.239370373300005
 31
0.0
  0
INSERT
  5
2C5
  8
┌▓È_1
  6
STITCH
 62
     5
  2
CLUMP7
 10
0.0
 20
0.0
 30
0.0
  0
DIMENSION
  5
2EC
  8
Éíû@É³
  2
*D16
 10
-217.04088541670001
 20
-45.033203125
 30
0.0
 11
-229.79088541670001
 21
-45.033203125
 31
0.0
 70
   128
  1
<>
 13
-217.04088541670001
 23
-83.439062500000006
 33
0.0
 14
-242.54088541670001
 24
-81.439062500000006
 34
0.0
  0
ARC
  5
2ED
  8
┌▓È_1
 62
     5
 10
-177.54088532540001
 20
-91.438754626700003
 30
0.0
 40
0.5
 50
359.99998318669998
 51
90.000020914500013
  0
ARC
  5
2EE
  8
┌▓È_1
 62
     5
 10
-189.04088532540001
 20
-91.438754626700003
 30
0.0
 40
1.0
 50
270.0
 51
359.99999174560003
  0
ARC
  5
2EF
  8
┌▓È_1
 62
     5
 10
-187.54088532540001
 20
-91.438754626700003
 30
0.0
 40
0.5
 50
90.0
 51
180.0000165088
  0
LINE
  5
2F0
  8
┌▓È_1
 62
     5
 10
-177.54088550789999
 20
-90.938754626700003
 30
0.0
 11
-187.54088532540001
 21
-90.938754626700003
 31
0.0
  0
LINE
  5
2F1
  8
┌▓È_1
 62
     5
 10
-216.0408853879
 20
-92.438754626700003
 30
0.0
 11
-209.04088532540001
 21
-92.438754626700003
 31
0.0
  0
LINE
  5
2F2
  8
┌▓È_1
 62
     5
 10
-296.09955759169998
 20
-82.439370373299994
 30
0.0
 11
-296.09955759169998
 21
-83.139370373299997
 31
0.0
  0
LINE
  5
2F3
  8
┌▓È_1
 62
     5
 10
-296.09955759169998
 20
-94.439370373299994
 30
0.0
 11
-296.09955759169998
 21
-93.739370373300005
 31
0.0
  0
ARC
  5
2F4
  8
┌▓È_1
 62
     5
 10
-209.04088532540001
 20
-91.438754626700003
 30
0.0
 40
1.0
 50
270.0
 51
359.99999174560003
  0
ARC
  5
2F5
  8
┌▓È_1
 62
     5
 10
-207.54088532540001
 20
-91.438754626700003
 30
0.0
 40
0.5
 50
90.0
 51
180.0000165088
  0
LINE
  5
2F6
  8
┌▓È_1
 62
     5
 10
-197.54088550789999
 20
-90.938754626700003
 30
0.0
 11
-207.54088532540001
 21
-90.938754626700003
 31
0.0
  0
LINE
  5
2F7
  8
┌▓È_1
 62
     5
 10
-217.54088550789999
 20
-90.938754626700003
 30
0.0
 11
-227.54088532540001
 21
-90.938754626700003
 31
0.0
  0
ARC
  5
2F8
  8
┌▓È_1
 62
     5
 10
-227.54088532540001
 20
-91.438754626700003
 30
0.0
 40
0.5
 50
90.0
 51
180.0000165088
  0
ARC
  5
2F9
  8
┌▓È_1
 62
     5
 10
-229.04088532540001
 20
-91.438754626700003
 30
0.0
 40
1.0
 50
270.0
 51
359.99999174560003
  0
ARC
  5
2FA
  8
┌▓È_1
 62
     5
 10
-217.54088532540001
 20
-91.438754626700003
 30
0.0
 40
0.5
 50
359.99998318669998
 51
90.000020914500013
  0
LINE
  5
2FB
  8
┌▓È_1
 62
     5
 10
-197.04088541670001
 20
-82.739370373300005
 30
0.0
 11
-188.04088541670001
 21
-82.739370373300005
 31
0.0
  0
LINE
  5
2FC
  8
┌▓È_1
 62
     5
 10
-188.04088541670001
 20
-94.138754626700006
 30
0.0
 11
-188.04088541670001
 21
-92.638754626700006
 31
0.0
  0
LINE
  5
2FD
  8
┌▓È_1
 62
     5
 10
-177.04088541670001
 20
-92.638754626700006
 30
0.0
 11
-188.04088541670001
 21
-92.638754626700006
 31
0.0
  0
LINE
  5
2FE
  8
┌▓È_1
 62
     5
 10
-177.04088541670001
 20
-84.239370373300005
 30
0.0
 11
-188.04088541670001
 21
-84.239370373300005
 31
0.0
  0
LINE
  5
2FF
  8
┌▓È_1
 62
     5
 10
-188.04088541670001
 20
-82.739370373300005
 30
0.0
 11
-188.04088541670001
 21
-84.239370373300005
 31
0.0
  0
LINE
  5
300
  8
┌▓È_1
 62
     5
 10
-177.04088541670001
 20
-82.739370373300005
 30
0.0
 11
-177.04088541670001
 21
-84.239370373300005
 31
0.0
  0
LINE
  5
301
  8
┌▓È_1
 62
     5
 10
-217.04088541670001
 20
-82.739370373300005
 30
0.0
 11
-208.04088541670001
 21
-82.739370373300005
 31
0.0
  0
LINE
  5
302
  8
┌▓È_1
 62
     5
 10
-208.04088541670001
 20
-94.138754626700006
 30
0.0
 11
-217.04088541670001
 21
-94.138754626700006
 31
0.0
  0
ARC
  5
303
  8
┌▓È_1
 62
     5
 10
-216.04088532540001
 20
-91.438754626700003
 30
0.0
 40
1.0
 50
180.0000084067
 51
269.99999642170002
  0
LINE
  5
304
  8
┌▓È_1
 62
     5
 10
-242.54088541670001
 20
-81.439062500000006
 30
0.0
 11
-242.54088541670001
 21
-95.439062500000006
 31
0.0
  0
LINE
  5
305
  8
┌▓È_1
 62
     5
 10
-197.04088541670001
 20
-94.138754626700006
 30
0.0
 11
-197.04088541670001
 21
-92.638754626700006
 31
0.0
  0
LINE
  5
306
  8
┌▓È_1
 62
     5
 10
-295.2495576549
 20
-83.339370373300014
 30
0.0
 11
-295.89955759169999
 21
-83.339370373300014
 31
0.0
  0
ARC
  5
307
  8
┌▓È_1
 62
     5
 10
-295.04955765490001
 20
-83.489370373300005
 30
0.0
 40
0.25
 50
0.000012528
 51
143.13010235420001
  0
ARC
  5
308
  8
┌▓È_1
 62
     5
 10
-295.09955759169998
 20
-82.439370373299994
 30
0.0
 40
1.0
 50
90.0
 51
180.0
  0
ARC
  5
309
  8
┌▓È_1
 62
     5
 10
-295.09955759169998
 20
-94.439370373299994
 30
0.0
 40
1.0
 50
180.0
 51
270.0
  0
LINE
  5
30A
  8
┌▓È_1
 62
     5
 10
-295.2495576549
 20
-93.539370373300002
 30
0.0
 11
-295.89955759169999
 21
-93.539370373300002
 31
0.0
  0
ARC
  5
30B
  8
┌▓È_1
 62
     5
 10
-295.04955765490001
 20
-93.389370373299997
 30
0.0
 40
0.25
 50
216.86989764579999
 51
359.99998747199999
  0
ARC
  5
30C
  8
┌▓È_1
 62
     5
 10
-295.89955759169999
 20
-93.739370373300005
 30
0.0
 40
0.2
 50
90.0
 51
180.0
  0
LINE
  5
30D
  8
┌▓È_1
 62
     5
 10
-294.7995577973
 20
-85.439062500000006
 30
0.0
 11
-293.2995577973
 21
-86.939062500000006
 31
0.0
  0
LINE
  5
30E
  8
┌▓È_1
 62
     5
 10
-293.79955759170002
 20
-81.739370373300005
 30
0.0
 11
-293.79955759170002
 21
-82.739370373300005
 31
0.0
  0
LINE
  5
30F
  8
┌▓È_1
 62
     5
 10
-295.09955759169998
 20
-81.439370373299994
 30
0.0
 11
-294.09955759169998
 21
-81.439370373299994
 31
0.0
  0
ARC
  5
310
  8
┌▓È_1
 62
     5
 10
-294.09955759169998
 20
-81.739370373300005
 30
0.0
 40
0.3
 50
0.0
 51
90.0
  0
LINE
  5
311
  8
┌▓È_1
 62
     5
 10
-293.79955759170002
 20
-82.739370373300005
 30
0.0
 11
-292.59955759169998
 21
-82.739370373300005
 31
0.0
  0
LINE
  5
312
  8
┌▓È_1
 62
     5
 10
-292.59955759169998
 20
-82.739370373300005
 30
0.0
 11
-292.59955759169998
 21
-84.439370373299994
 31
0.0
  0
LINE
  5
313
  8
┌▓È_1
 62
     5
 10
-293.79955759170002
 20
-84.439370373299994
 30
0.0
 11
-293.79955759170002
 21
-85.024849143200001
 31
0.0
  0
LINE
  5
314
  8
┌▓È_1
 62
     5
 10
-293.79955759170002
 20
-84.439370373299994
 30
0.0
 11
-292.59955759169998
 21
-84.439370373299994
 31
0.0
  0
LINE
  5
315
  8
┌▓È_1
 62
     5
 10
-292.59955759169998
 20
-92.439370373299994
 30
0.0
 11
-292.59955759169998
 21
-94.139370373299997
 31
0.0
  0
LINE
  5
316
  8
┌▓È_1
 62
     5
 10
-293.79955759170002
 20
-91.853275856799996
 30
0.0
 11
-293.79955759170002
 21
-92.439370373299994
 31
0.0
  0
LINE
  5
317
  8
┌▓È_1
 62
     5
 10
-292.59955759169998
 20
-92.439370373299994
 30
0.0
 11
-293.79955759170002
 21
-92.439370373299994
 31
0.0
  0
LINE
  5
318
  8
┌▓È_1
 62
     5
 10
-294.09955759169998
 20
-95.439370373299994
 30
0.0
 11
-295.09955759169998
 21
-95.439370373299994
 31
0.0
  0
LINE
  5
319
  8
┌▓È_1
 62
     5
 10
-293.79955759170002
 20
-94.139370373299997
 30
0.0
 11
-293.79955759170002
 21
-95.139370373299997
 31
0.0
  0
ARC
  5
31A
  8
┌▓È_1
 62
     5
 10
-294.09955759169998
 20
-95.139370373299997
 30
0.0
 40
0.3
 50
270.0
 51
0.0
  0
LINE
  5
31B
  8
┌▓È_1
 62
     5
 10
-229.04088541670001
 20
-92.438754626700003
 30
0.0
 11
-242.54088541670001
 21
-92.438754626700003
 31
0.0
  0
LINE
  5
31C
  8
┌▓È_1
 62
     5
 10
-294.7995583654
 20
-85.4390619319
 30
0.0
 11
-294.7995585397
 21
-83.488754572000005
 31
0.0
  0
LINE
  5
31D
  8
┌▓È_1
 62
     5
 10
-196.0408853879
 20
-92.438754626700003
 30
0.0
 11
-189.04088532540001
 21
-92.438754626700003
 31
0.0
  0
ARC
  5
31E
  8
┌▓È_1
 62
     5
 10
-176.04088532540001
 20
-91.438754626700003
 30
0.0
 40
1.0
 50
180.0000084067
 51
269.99999642170002
  0
LINE
  5
31F
  8
┌▓È_1
  6
STITCH
 10
56.544290525000001
 20
11.4885417299
 30
0.0
 11
337.45911458329999
 21
11.4885417299
 31
0.0
  0
LINE
  5
320
  8
┌▓È_1
 62
     5
 10
337.45911458329999
 20
8.8385416666999994
 30
0.0
 11
59.113729043799999
 21
8.8385416666999994
 31
0.0
  0
LINE
  5
321
  8
┌▓È_1
 62
     5
 10
60.618603785600001
 20
112.9037760417
 30
0.0
 11
337.45911458329999
 21
112.9037760417
 31
0.0
  0
LINE
  5
322
  8
┌▓È_1
 62
     5
 10
337.45911458329999
 20
126.9037760417
 30
0.0
 11
48.34253660209999
 21
126.9037760417
 31
0.0
  0
LINE
  5
323
  8
┌▓È_1
 62
     5
 10
58.962425465499997
 20
114.8037760417
 30
0.0
 11
337.45911458329999
 21
114.8037760417
 31
0.0
  0
LINE
  5
324
  8
┌▓È_1
 62
     5
 10
337.45911458329999
 20
125.00377604169999
 30
0.0
 11
48.785921001600002
 21
125.00377604169999
 31
0.0
  0
ARC
  5
325
  8
┌▓È_1
 62
     5
 10
-293.59955779730001
 20
125.9037760417
 30
0.0
 40
1.0
 50
0.0
 51
90.0
  0
LINE
  5
326
  8
┌▓È_1
 62
     5
 10
-293.59955779730001
 20
126.9037760417
 30
0.0
 11
-294.59955779730001
 21
126.9037760417
 31
0.0
  0
LINE
  5
327
  8
┌▓È_1
 62
     5
 10
-292.59955779730001
 20
125.9037760417
 30
0.0
 11
-292.59955779730001
 21
125.2037760417
 31
0.0
  0
LINE
  5
328
  8
┌▓È_1
 62
     5
 10
-294.89955779730002
 20
126.6037760417
 30
0.0
 11
-294.89955779730002
 21
125.6037760417
 31
0.0
  0
ARC
  5
329
  8
┌▓È_1
 62
     5
 10
-294.59955779730001
 20
126.6037760417
 30
0.0
 40
0.3
 50
90.0
 51
180.0
  0
LINE
  5
32A
  8
┌▓È_1
 62
     5
 10
-294.89955779730002
 20
125.6037760417
 30
0.0
 11
-296.09955779730001
 21
125.6037760417
 31
0.0
  0
LINE
  5
32B
  8
┌▓È_1
 62
     5
 10
-296.09955779730001
 20
125.6037760417
 30
0.0
 11
-296.09955779730001
 21
123.9037760417
 31
0.0
  0
LINE
  5
32C
  8
┌▓È_1
 62
     5
 10
-242.54088541670001
 20
126.9037760417
 30
0.0
 11
-242.54088541670001
 21
112.9037760417
 31
0.0
  0
INSERT
  5
32E
  8
Éíû@É³
  2
BALLON0
 10
0.0
 20
0.0
 30
0.0
  0
POLYLINE
  8
┌▓È_1
  5
C85
  66
     1
 10
0.000000
 20
0.000000
 30
0.000000
  70
     8
  0
VERTEX
  8
┌▓È_1
  5
C86
 10
64.8020
 20
151.663
 30
0.000000
  70
    32
  0
VERTEX
  8
┌▓È_1
  5
C87
 10
64.3688
 20
151.238
 30
0.000000
  70
    32
  0
VERTEX
  8
┌▓È_1
  5
C88
 10
63.9358
 20
150.812
 30
0.000000
  70
    32
  0
VERTEX
  8
┌▓È_1
  5
C89
 10
63.5034
 20
150.387
 30
0.000000
  70
    32
  0
VERTEX
  8
┌▓È_1
  5
C8A
 10
63.0718
 20
149.962
 30
0.000000
  70
    32
  0
VERTEX
  8
┌▓È_1
  5
C8B
 10
62.6412
 20
149.537
 30
0.000000
  70
    32
  0
VERTEX
  8
┌▓È_1
  5
C8C
 10
62.2119
 20
149.112
 30
0.000000
  70
    32
  0
VERTEX
  8
┌▓È_1
  5
C8D
 10
61.7842
 20
148.688
 30
0.000000
  70
    32
  0
VERTEX
  8
┌▓È_1
  5
C8E
 10
61.3583
 20
148.263
 30
0.000000
  70
    32
  0
VERTEX
  8
┌▓È_1
  5
C8F
 10
60.9345
 20
147.839
 30
0.000000
  70
    32
  0
VERTEX
  8
┌▓È_1
  5
C90
 10
60.5130
 20
147.415
 30
0.000000
  70
    32
  0
VERTEX
  8
┌▓È_1
  5
C91
 10
60.0942
 20
146.992
 30
0.000000
  70
    32
  0
VERTEX
  8
┌▓È_1
  5
C92
 10
59.6782
 20
146.569
 30
0.000000
  70
    32
  0
VERTEX
  8
┌▓È_1
  5
C93
 10
59.2653
 20
146.146
 30
0.000000
  70
    32
  0
VERTEX
  8
┌▓È_1
  5
C94
 10
58.8558
 20
145.724
 30
0.000000
  70
    32
  0
VERTEX
  8
┌▓È_1
  5
C95
 10
58.4500
 20
145.302
 30
0.000000
  70
    32
  0
VERTEX
  8
┌▓È_1
  5
C96
 10
58.0481
 20
144.881
 30
0.000000
  70
    32
  0
VERTEX
  8
┌▓È_1
  5
C97
 10
57.6503
 20
144.460
 30
0.000000
  70
    32
  0
VERTEX
  8
┌▓È_1
  5
C98
 10
57.2570
 20
144.040
 30
0.000000
  70
    32
  0
VERTEX
  8
┌▓È_1
  5
C99
 10
56.8684
 20
143.621
 30
0.000000
  70
    32
  0
VERTEX
  8
┌▓È_1
  5
C9A
 10
56.4847
 20
143.202
 30
0.000000
  70
    32
  0
VERTEX
  8
┌▓È_1
  5
C9B
 10
56.1062
 20
142.784
 30
0.000000
  70
    32
  0
VERTEX
  8
┌▓È_1
  5
C9C
 10
55.7332
 20
142.367
 30
0.000000
  70
    32
  0
VERTEX
  8
┌▓È_1
  5
C9D
 10
55.3660
 20
141.950
 30
0.000000
  70
    32
  0
VERTEX
  8
┌▓È_1
  5
C9E
 10
55.0047
 20
141.534
 30
0.000000
  70
    32
  0
VERTEX
  8
┌▓È_1
  5
C9F
 10
54.6497
 20
141.119
 30
0.000000
  70
    32
  0
VERTEX
  8
┌▓È_1
  5
CA0
 10
54.3011
 20
140.705
 30
0.000000
  70
    32
  0
VERTEX
  8
┌▓È_1
  5
CA1
 10
53.9594
 20
140.292
 30
0.000000
  70
    32
  0
VERTEX
  8
┌▓È_1
  5
CA2
 10
53.6247
 20
139.879
 30
0.000000
  70
    32
  0
VERTEX
  8
┌▓È_1
  5
CA3
 10
53.2973
 20
139.468
 30
0.000000
  70
    32
  0
VERTEX
  8
┌▓È_1
  5
CA4
 10
52.9775
 20
139.057
 30
0.000000
  70
    32
  0
VERTEX
  8
┌▓È_1
  5
CA5
 10
52.6654
 20
138.648
 30
0.000000
  70
    32
  0
VERTEX
  8
┌▓È_1
  5
CA6
 10
52.3615
 20
138.240
 30
0.000000
  70
    32
  0
VERTEX
  8
┌▓È_1
  5
CA7
 10
52.0659
 20
137.832
 30
0.000000
  70
    32
  0
VERTEX
  8
┌▓È_1
  5
CA8
 10
51.7788
 20
137.426
 30
0.000000
  70
    32
  0
VERTEX
  8
┌▓È_1
  5
CA9
 10
51.5007
 20
137.022
 30
0.000000
  70
    32
  0
VERTEX
  8
┌▓È_1
  5
CAA
 10
51.2317
 20
136.618
 30
0.000000
  70
    32
  0
VERTEX
  8
┌▓È_1
  5
CAB
 10
50.9720
 20
136.215
 30
0.000000
  70
    32
  0
VERTEX
  8
┌▓È_1
  5
CAC
 10
50.7220
 20
135.814
 30
0.000000
  70
    32
  0
VERTEX
  8
┌▓È_1
  5
CAD
 10
50.4819
 20
135.414
 30
0.000000
  70
    32
  0
VERTEX
  8
┌▓È_1
  5
CAE
 10
50.2519
 20
135.016
 30
0.000000
  70
    32
  0
VERTEX
  8
┌▓È_1
  5
CAF
 10
50.0324
 20
134.618
 30
0.000000
  70
    32
  0
VERTEX
  8
┌▓È_1
  5
CB0
 10
49.8235
 20
134.223
 30
0.000000
  70
    32
  0
VERTEX
  8
┌▓È_1
  5
CB1
 10
49.6256
 20
133.828
 30
0.000000
  70
    32
  0
VERTEX
  8
┌▓È_1
  5
CB2
 10
49.4389
 20
133.435
 30
0.000000
  70
    32
  0
VERTEX
  8
┌▓È_1
  5
CB3
 10
49.2637
 20
133.044
 30
0.000000
  70
    32
  0
VERTEX
  8
┌▓È_1
  5
CB4
 10
49.1002
 20
132.654
 30
0.000000
  70
    32
  0
VERTEX
  8
┌▓È_1
  5
CB5
 10
48.9486
 20
132.266
 30
0.000000
  70
    32
  0
VERTEX
  8
┌▓È_1
  5
CB6
 10
48.8094
 20
131.879
 30
0.000000
  70
    32
  0
VERTEX
  8
┌▓È_1
  5
CB7
 10
48.6826
 20
131.494
 30
0.000000
  70
    32
  0
VERTEX
  8
┌▓È_1
  5
CB8
 10
48.5686
 20
131.111
 30
0.000000
  70
    32
  0
VERTEX
  8
┌▓È_1
  5
CB9
 10
48.4676
 20
130.730
 30
0.000000
  70
    32
  0
VERTEX
  8
┌▓È_1
  5
CBA
 10
48.3799
 20
130.350
 30
0.000000
  70
    32
  0
VERTEX
  8
┌▓È_1
  5
CBB
 10
48.3058
 20
129.972
 30
0.000000
  70
    32
  0
VERTEX
  8
┌▓È_1
  5
CBC
 10
48.2454
 20
129.595
 30
0.000000
  70
    32
  0
VERTEX
  8
┌▓È_1
  5
CBD
 10
48.1992
 20
129.221
 30
0.000000
  70
    32
  0
VERTEX
  8
┌▓È_1
  5
CBE
 10
48.1673
 20
128.849
 30
0.000000
  70
    32
  0
VERTEX
  8
┌▓È_1
  5
CBF
 10
48.1499
 20
128.478
 30
0.000000
  70
    32
  0
VERTEX
  8
┌▓È_1
  5
CC0
 10
48.1474
 20
128.109
 30
0.000000
  70
    32
  0
VERTEX
  8
┌▓È_1
  5
CC1
 10
48.1601
 20
127.743
 30
0.000000
  70
    32
  0
VERTEX
  8
┌▓È_1
  5
CC2
 10
48.1881
 20
127.378
 30
0.000000
  70
    32
  0
VERTEX
  8
┌▓È_1
  5
CC3
 10
48.2317
 20
127.016
 30
0.000000
  70
    32
  0
VERTEX
  8
┌▓È_1
  5
CC4
 10
48.2912
 20
126.655
 30
0.000000
  70
    32
  0
VERTEX
  8
┌▓È_1
  5
CC5
 10
48.3669
 20
126.297
 30
0.000000
  70
    32
  0
VERTEX
  8
┌▓È_1
  5
CC6
 10
48.4590
 20
125.941
 30
0.000000
  70
    32
  0
VERTEX
  8
┌▓È_1
  5
CC7
 10
48.5678
 20
125.587
 30
0.000000
  70
    32
  0
VERTEX
  8
┌▓È_1
  5
CC8
 10
48.6935
 20
125.235
 30
0.000000
  70
    32
  0
VERTEX
  8
┌▓È_1
  5
CC9
 10
48.8364
 20
124.885
 30
0.000000
  70
    32
  0
VERTEX
  8
┌▓È_1
  5
CCA
 10
48.9967
 20
124.538
 30
0.000000
  70
    32
  0
VERTEX
  8
┌▓È_1
  5
CCB
 10
49.1748
 20
124.193
 30
0.000000
  70
    32
  0
VERTEX
  8
┌▓È_1
  5
CCC
 10
49.3702
 20
123.851
 30
0.000000
  70
    32
  0
VERTEX
  8
┌▓È_1
  5
CCD
 10
49.5823
 20
123.510
 30
0.000000
  70
    32
  0
VERTEX
  8
┌▓È_1
  5
CCE
 10
49.8103
 20
123.172
 30
0.000000
  70
    32
  0
VERTEX
  8
┌▓È_1
  5
CCF
 10
50.0535
 20
122.836
 30
0.000000
  70
    32
  0
VERTEX
  8
┌▓È_1
  5
CD0
 10
50.3112
 20
122.501
 30
0.000000
  70
    32
  0
VERTEX
  8
┌▓È_1
  5
CD1
 10
50.5827
 20
122.169
 30
0.000000
  70
    32
  0
VERTEX
  8
┌▓È_1
  5
CD2
 10
50.8672
 20
121.838
 30
0.000000
  70
    32
  0
VERTEX
  8
┌▓È_1
  5
CD3
 10
51.1640
 20
121.509
 30
0.000000
  70
    32
  0
VERTEX
  8
┌▓È_1
  5
CD4
 10
51.4724
 20
121.181
 30
0.000000
  70
    32
  0
VERTEX
  8
┌▓È_1
  5
CD5
 10
51.7917
 20
120.855
 30
0.000000
  70
    32
  0
VERTEX
  8
┌▓È_1
  5
CD6
 10
52.1212
 20
120.530
 30
0.000000
  70
    32
  0
VERTEX
  8
┌▓È_1
  5
CD7
 10
52.4601
 20
120.206
 30
0.000000
  70
    32
  0
VERTEX
  8
┌▓È_1
  5
CD8
 10
52.8077
 20
119.884
 30
0.000000
  70
    32
  0
VERTEX
  8
┌▓È_1
  5
CD9
 10
53.1633
 20
119.562
 30
0.000000
  70
    32
  0
VERTEX
  8
┌▓È_1
  5
CDA
 10
53.5262
 20
119.242
 30
0.000000
  70
    32
  0
VERTEX
  8
┌▓È_1
  5
CDB
 10
53.8956
 20
118.922
 30
0.000000
  70
    32
  0
VERTEX
  8
┌▓È_1
  5
CDC
 10
54.2709
 20
118.603
 30
0.000000
  70
    32
  0
VERTEX
  8
┌▓È_1
  5
CDD
 10
54.6512
 20
118.285
 30
0.000000
  70
    32
  0
VERTEX
  8
┌▓È_1
  5
CDE
 10
55.0359
 20
117.967
 30
0.000000
  70
    32
  0
VERTEX
  8
┌▓È_1
  5
CDF
 10
55.4243
 20
117.650
 30
0.000000
  70
    32
  0
VERTEX
  8
┌▓È_1
  5
CE0
 10
55.8156
 20
117.333
 30
0.000000
  70
    32
  0
VERTEX
  8
┌▓È_1
  5
CE1
 10
56.2091
 20
117.017
 30
0.000000
  70
    32
  0
VERTEX
  8
┌▓È_1
  5
CE2
 10
56.6041
 20
116.701
 30
0.000000
  70
    32
  0
VERTEX
  8
┌▓È_1
  5
CE3
 10
56.9998
 20
116.385
 30
0.000000
  70
    32
  0
VERTEX
  8
┌▓È_1
  5
CE4
 10
57.3957
 20
116.068
 30
0.000000
  70
    32
  0
VERTEX
  8
┌▓È_1
  5
CE5
 10
57.7908
 20
115.752
 30
0.000000
  70
    32
  0
VERTEX
  8
┌▓È_1
  5
CE6
 10
58.1845
 20
115.436
 30
0.000000
  70
    32
  0
VERTEX
  8
┌▓È_1
  5
CE7
 10
58.5761
 20
115.119
 30
0.000000
  70
    32
  0
VERTEX
  8
┌▓È_1
  5
CE8
 10
58.9649
 20
114.802
 30
0.000000
  70
    32
  0
VERTEX
  8
┌▓È_1
  5
CE9
 10
59.3501
 20
114.484
 30
0.000000
  70
    32
  0
VERTEX
  8
┌▓È_1
  5
CEA
 10
59.7310
 20
114.166
 30
0.000000
  70
    32
  0
VERTEX
  8
┌▓È_1
  5
CEB
 10
60.1069
 20
113.847
 30
0.000000
  70
    32
  0
VERTEX
  8
┌▓È_1
  5
CEC
 10
60.4770
 20
113.528
 30
0.000000
  70
    32
  0
VERTEX
  8
┌▓È_1
  5
CED
 10
60.8407
 20
113.207
 30
0.000000
  70
    32
  0
VERTEX
  8
┌▓È_1
  5
CEE
 10
61.1973
 20
112.886
 30
0.000000
  70
    32
  0
VERTEX
  8
┌▓È_1
  5
CEF
 10
61.5459
 20
112.564
 30
0.000000
  70
    32
  0
VERTEX
  8
┌▓È_1
  5
CF0
 10
61.8859
 20
112.240
 30
0.000000
  70
    32
  0
VERTEX
  8
┌▓È_1
  5
CF1
 10
62.2166
 20
111.915
 30
0.000000
  70
    32
  0
VERTEX
  8
┌▓È_1
  5
CF2
 10
62.5371
 20
111.589
 30
0.000000
  70
    32
  0
VERTEX
  8
┌▓È_1
  5
CF3
 10
62.8469
 20
111.262
 30
0.000000
  70
    32
  0
VERTEX
  8
┌▓È_1
  5
CF4
 10
63.1452
 20
110.933
 30
0.000000
  70
    32
  0
VERTEX
  8
┌▓È_1
  5
CF5
 10
63.4313
 20
110.602
 30
0.000000
  70
    32
  0
VERTEX
  8
┌▓È_1
  5
CF6
 10
63.7044
 20
110.270
 30
0.000000
  70
    32
  0
VERTEX
  8
┌▓È_1
  5
CF7
 10
63.9638
 20
109.935
 30
0.000000
  70
    32
  0
VERTEX
  8
┌▓È_1
  5
CF8
 10
64.2088
 20
109.599
 30
0.000000
  70
    32
  0
VERTEX
  8
┌▓È_1
  5
CF9
 10
64.4387
 20
109.261
 30
0.000000
  70
    32
  0
VERTEX
  8
┌▓È_1
  5
CFA
 10
64.6528
 20
108.921
 30
0.000000
  70
    32
  0
VERTEX
  8
┌▓È_1
  5
CFB
 10
64.8502
 20
108.579
 30
0.000000
  70
    32
  0
VERTEX
  8
┌▓È_1
  5
CFC
 10
65.0307
 20
108.234
 30
0.000000
  70
    32
  0
VERTEX
  8
┌▓È_1
  5
CFD
 10
65.1944
 20
107.888
 30
0.000000
  70
    32
  0
VERTEX
  8
┌▓È_1
  5
CFE
 10
65.3415
 20
107.539
 30
0.000000
  70
    32
  0
VERTEX
  8
┌▓È_1
  5
CFF
 10
65.4723
 20
107.188
 30
0.000000
  70
    32
  0
VERTEX
  8
┌▓È_1
  5
D00
 10
65.5869
 20
106.835
 30
0.000000
  70
    32
  0
VERTEX
  8
┌▓È_1
  5
D01
 10
65.6856
 20
106.479
 30
0.000000
  70
    32
  0
VERTEX
  8
┌▓È_1
  5
D02
 10
65.7686
 20
106.122
 30
0.000000
  70
    32
  0
VERTEX
  8
┌▓È_1
  5
D03
 10
65.8362
 20
105.762
 30
0.000000
  70
    32
  0
VERTEX
  8
┌▓È_1
  5
D04
 10
65.8886
 20
105.401
 30
0.000000
  70
    32
  0
VERTEX
  8
┌▓È_1
  5
D05
 10
65.9260
 20
105.038
 30
0.000000
  70
    32
  0
VERTEX
  8
┌▓È_1
  5
D06
 10
65.9487
 20
104.672
 30
0.000000
  70
    32
  0
VERTEX
  8
┌▓È_1
  5
D07
 10
65.9569
 20
104.305
 30
0.000000
  70
    32
  0
VERTEX
  8
┌▓È_1
  5
D08
 10
65.9508
 20
103.936
 30
0.000000
  70
    32
  0
VERTEX
  8
┌▓È_1
  5
D09
 10
65.9306
 20
103.565
 30
0.000000
  70
    32
  0
VERTEX
  8
┌▓È_1
  5
D0A
 10
65.8966
 20
103.192
 30
0.000000
  70
    32
  0
VERTEX
  8
┌▓È_1
  5
D0B
 10
65.8490
 20
102.818
 30
0.000000
  70
    32
  0
VERTEX
  8
┌▓È_1
  5
D0C
 10
65.7880
 20
102.442
 30
0.000000
  70
    32
  0
VERTEX
  8
┌▓È_1
  5
D0D
 10
65.7140
 20
102.063
 30
0.000000
  70
    32
  0
VERTEX
  8
┌▓È_1
  5
D0E
 10
65.6270
 20
101.684
 30
0.000000
  70
    32
  0
VERTEX
  8
┌▓È_1
  5
D0F
 10
65.5273
 20
101.302
 30
0.000000
  70
    32
  0
VERTEX
  8
┌▓È_1
  5
D10
 10
65.4152
 20
100.919
 30
0.000000
  70
    32
  0
VERTEX
  8
┌▓È_1
  5
D11
 10
65.2909
 20
100.535
 30
0.000000
  70
    32
  0
VERTEX
  8
┌▓È_1
  5
D12
 10
65.1546
 20
100.148
 30
0.000000
  70
    32
  0
VERTEX
  8
┌▓È_1
  5
D13
 10
65.0065
 20
99.7606
 30
0.000000
  70
    32
  0
VERTEX
  8
┌▓È_1
  5
D14
 10
64.8470
 20
99.3713
 30
0.000000
  70
    32
  0
VERTEX
  8
┌▓È_1
  5
D15
 10
64.6761
 20
98.9805
 30
0.000000
  70
    32
  0
VERTEX
  8
┌▓È_1
  5
D16
 10
64.4942
 20
98.5883
 30
0.000000
  70
    32
  0
VERTEX
  8
┌▓È_1
  5
D17
 10
64.3015
 20
98.1946
 30
0.000000
  70
    32
  0
VERTEX
  8
┌▓È_1
  5
D18
 10
64.0981
 20
97.7995
 30
0.000000
  70
    32
  0
VERTEX
  8
┌▓È_1
  5
D19
 10
63.8844
 20
97.4031
 30
0.000000
  70
    32
  0
VERTEX
  8
┌▓È_1
  5
D1A
 10
63.6606
 20
97.0053
 30
0.000000
  70
    32
  0
VERTEX
  8
┌▓È_1
  5
D1B
 10
63.4268
 20
96.6063
 30
0.000000
  70
    32
  0
VERTEX
  8
┌▓È_1
  5
D1C
 10
63.1834
 20
96.2059
 30
0.000000
  70
    32
  0
VERTEX
  8
┌▓È_1
  5
D1D
 10
62.9305
 20
95.8043
 30
0.000000
  70
    32
  0
VERTEX
  8
┌▓È_1
  5
D1E
 10
62.6684
 20
95.4015
 30
0.000000
  70
    32
  0
VERTEX
  8
┌▓È_1
  5
D1F
 10
62.3974
 20
94.9976
 30
0.000000
  70
    32
  0
VERTEX
  8
┌▓È_1
  5
D20
 10
62.1175
 20
94.5924
 30
0.000000
  70
    32
  0
VERTEX
  8
┌▓È_1
  5
D21
 10
61.8292
 20
94.1862
 30
0.000000
  70
    32
  0
VERTEX
  8
┌▓È_1
  5
D22
 10
61.5325
 20
93.7788
 30
0.000000
  70
    32
  0
VERTEX
  8
┌▓È_1
  5
D23
 10
61.2278
 20
93.3704
 30
0.000000
  70
    32
  0
VERTEX
  8
┌▓È_1
  5
D24
 10
60.9152
 20
92.9610
 30
0.000000
  70
    32
  0
VERTEX
  8
┌▓È_1
  5
D25
 10
60.5951
 20
92.5505
 30
0.000000
  70
    32
  0
VERTEX
  8
┌▓È_1
  5
D26
 10
60.2676
 20
92.1391
 30
0.000000
  70
    32
  0
VERTEX
  8
┌▓È_1
  5
D27
 10
59.9329
 20
91.7268
 30
0.000000
  70
    32
  0
VERTEX
  8
┌▓È_1
  5
D28
 10
59.5913
 20
91.3135
 30
0.000000
  70
    32
  0
VERTEX
  8
┌▓È_1
  5
D29
 10
59.2431
 20
90.8994
 30
0.000000
  70
    32
  0
VERTEX
  8
┌▓È_1
  5
D2A
 10
58.8884
 20
90.4844
 30
0.000000
  70
    32
  0
VERTEX
  8
┌▓È_1
  5
D2B
 10
58.5274
 20
90.0686
 30
0.000000
  70
    32
  0
VERTEX
  8
┌▓È_1
  5
D2C
 10
58.1605
 20
89.6520
 30
0.000000
  70
    32
  0
VERTEX
  8
┌▓È_1
  5
D2D
 10
57.7878
 20
89.2346
 30
0.000000
  70
    32
  0
VERTEX
  8
┌▓È_1
  5
D2E
 10
57.4096
 20
88.8165
 30
0.000000
  70
    32
  0
VERTEX
  8
┌▓È_1
  5
D2F
 10
57.0261
 20
88.3977
 30
0.000000
  70
    32
  0
VERTEX
  8
┌▓È_1
  5
D30
 10
56.6375
 20
87.9783
 30
0.000000
  70
    32
  0
VERTEX
  8
┌▓È_1
  5
D31
 10
56.2441
 20
87.5582
 30
0.000000
  70
    32
  0
VERTEX
  8
┌▓È_1
  5
D32
 10
55.8461
 20
87.1375
 30
0.000000
  70
    32
  0
VERTEX
  8
┌▓È_1
  5
D33
 10
55.4437
 20
86.7162
 30
0.000000
  70
    32
  0
VERTEX
  8
┌▓È_1
  5
D34
 10
55.0371
 20
86.2944
 30
0.000000
  70
    32
  0
VERTEX
  8
┌▓È_1
  5
D35
 10
54.6267
 20
85.8721
 30
0.000000
  70
    32
  0
VERTEX
  8
┌▓È_1
  5
D36
 10
54.2125
 20
85.4493
 30
0.000000
  70
    32
  0
VERTEX
  8
┌▓È_1
  5
D37
 10
53.7949
 20
85.0260
 30
0.000000
  70
    32
  0
VERTEX
  8
┌▓È_1
  5
D38
 10
53.3741
 20
84.6023
 30
0.000000
  70
    32
  0
VERTEX
  8
┌▓È_1
  5
D39
 10
52.9502
 20
84.1782
 30
0.000000
  70
    32
  0
VERTEX
  8
┌▓È_1
  5
D3A
 10
52.5236
 20
83.7538
 30
0.000000
  70
    32
  0
VERTEX
  8
┌▓È_1
  5
D3B
 10
52.0945
 20
83.3290
 30
0.000000
  70
    32
  0
VERTEX
  8
┌▓È_1
  5
D3C
 10
51.6631
 20
82.9039
 30
0.000000
  70
    32
  0
VERTEX
  8
┌▓È_1
  5
D3D
 10
51.2296
 20
82.4785
 30
0.000000
  70
    32
  0
VERTEX
  8
┌▓È_1
  5
D3E
 10
50.7942
 20
82.0529
 30
0.000000
  70
    32
  0
VERTEX
  8
┌▓È_1
  5
D3F
 10
50.3573
 20
81.6271
 30
0.000000
  70
    32
  0
VERTEX
  8
┌▓È_1
  5
D40
 10
49.9189
 20
81.2011
 30
0.000000
  70
    32
  0
VERTEX
  8
┌▓È_1
  5
D41
 10
49.4794
 20
80.7749
 30
0.000000
  70
    32
  0
VERTEX
  8
┌▓È_1
  5
D42
 10
49.0390
 20
80.3487
 30
0.000000
  70
    32
  0
VERTEX
  8
┌▓È_1
  5
D43
 10
48.5979
 20
79.9223
 30
0.000000
  70
    32
  0
VERTEX
  8
┌▓È_1
  5
D44
 10
48.1563
 20
79.4959
 30
0.000000
  70
    32
  0
VERTEX
  8
┌▓È_1
  5
D45
 10
47.7145
 20
79.0694
 30
0.000000
  70
    32
  0
SEQEND
  8
┌▓È_1
  5
D46
  0
LINE
  5
338
  8
┌▓È_1
 62
     5
 10
337.45911458329999
 20
126.9037760417
 30
0.0
 11
337.45911458329999
 21
112.9037760417
 31
0.0
  0
LINE
  5
339
  8
┌▓È_1
 62
     5
 10
-292.59955759169998
 20
-94.139370373299997
 30
0.0
 11
-293.79955759170002
 21
-94.139370373299997
 31
0.0
  0
LINE
  5
33A
  8
┌▓È_1
 62
     5
 10
-293.7995577973
 20
-85.024848937599998
 30
0.0
 11
-292.59245101609997
 21
-86.231955718799995
 31
0.0
  0
LINE
  5
33B
  8
┌▓È_1
 62
     5
 10
-293.7995577973
 20
-91.853276062399985
 30
0.0
 11
-292.59245101609997
 21
-90.646169281200017
 31
0.0
  0
LINE
  5
33C
  8
┌▓È_1
 62
     5
 10
-293.2995577973
 20
-86.939062500000006
 30
0.0
 11
-292.59245101609997
 21
-86.231955718799995
 31
0.0
  0
LINE
  5
33D
  8
┌▓È_1
 62
     5
 10
-293.2995577973
 20
-89.939062500000006
 30
0.0
 11
-292.59245101609997
 21
-90.646169281200017
 31
0.0
  0
LINE
  5
33E
  8
┌▓È_1
 62
     5
 10
-294.7995577973
 20
-91.439062500000006
 30
0.0
 11
-293.2995577973
 21
-89.939062500000006
 31
0.0
  0
LINE
  5
33F
  8
┌▓È_1
 62
     5
 10
-294.79955765490001
 20
-93.389370427999992
 30
0.0
 11
-294.79955782920001
 21
-91.439062531900007
 31
0.0
  0
ARC
  5
340
  8
┌▓È_1
 62
     5
 10
-295.89955759169999
 20
-83.139370373299997
 30
0.0
 40
0.2
 50
180.0
 51
270.0
  0
DIMENSION
  5
34F
  8
Éíû@É³
  2
*D18
 10
-212.54088541670001
 20
61.163541666699992
 30
0.0
 11
67.692447916700004
 21
61.163541666699992
 31
0.0
 70
   128
  1
P=160x11
 13
-212.54088541670001
 23
114.9037760417
 33
0.0
 14
307.45911458329999
 24
114.9037760417
 34
0.0
 50
180.0
  0
INSERT
  5
351
  8
Éíû@É³
  2
BALLON1
 10
0.0
 20
0.0
 30
0.0
  0
LINE
  5
35A
  8
┌▓È_1
 62
     5
 10
-176.0408853879
 20
-92.438754626700003
 30
0.0
 11
-169.04088532540001
 21
-92.438754626700003
 31
0.0
  0
LINE
  5
35B
  8
┌▓È_1
 62
     5
 10
-177.04088541670001
 20
-82.739370373300005
 30
0.0
 11
-168.04088541670001
 21
-82.739370373300005
 31
0.0
  0
LINE
  5
35C
  8
┌▓È_1
 62
     5
 10
-168.04088541670001
 20
-94.138754626700006
 30
0.0
 11
-177.04088541670001
 21
-94.138754626700006
 31
0.0
  0
DIMENSION
  5
36B
  8
Éíû@É³
  2
*D20
 10
-242.54088541670001
 20
-134.1305989583
 30
0.0
 11
-187.54088541670001
 21
-134.1305989583
 31
0.0
 70
   128
  1
<>
 13
-242.54088541670001
 23
-95.439062500000006
 33
0.0
 14
-132.54088541670001
 24
-92.696128443700005
 34
0.0
 50
180.0
  0
LINE
  5
36C
  8
┌▓È_1
 62
     5
 10
28.1731355605
 20
-81.439062500000006
 30
0.0
 11
-242.54088541670001
 21
-81.439062500000006
 31
0.0
  0
DIMENSION
  5
374
  8
Éíû@É³
  2
*D21
 10
-213.94400693669999
 20
117.2521256122
 30
0.0
 11
-149.81674186289999
 21
158.47645079360001
 31
0.0
 70
   131
  1
%%c3.0éÿ%%c6ÄM
 15
-211.13776389660001
 25
122.55542647110001
 35
0.0
 40
0.0
  0
LINE
  5
375
  8
┌▓È_1
 62
     5
 10
28.1731355605
 20
126.9037760417
 30
0.0
 11
-242.54088541670001
 21
126.9037760417
 31
0.0
  0
LINE
  5
376
  8
┌▓È_1
 62
     5
 10
28.6165199599
 20
125.00377604169999
 30
0.0
 11
-242.54088541670001
 21
125.00377604169999
 31
0.0
  0
INSERT
  5
377
  8
0
  6
CONTINUOUS
  2
*U46
 10
0.0
 20
0.0
 30
0.0
  0
INSERT
  5
378
  8
0
  6
CONTINUOUS
  2
*U47
 10
0.0
 20
0.0
 30
0.0
  0
LINE
  5
379
  8
┌▓È_1
 62
     5
 10
232.45911467459999
 20
-90.938754626700003
 30
0.0
 11
242.45911449210001
 21
-90.938754626700003
 31
0.0
  0
LINE
  5
37A
  8
┌▓È_1
 62
     5
 10
231.95911458329999
 20
-92.638754626700006
 30
0.0
 11
242.95911458329999
 21
-92.638754626700006
 31
0.0
  0
LINE
  5
37B
  8
┌▓È_1
 62
     5
 10
231.95911458329999
 20
-84.239370373300005
 30
0.0
 11
242.95911458329999
 21
-84.239370373300005
 31
0.0
  0
INSERT
  5
37C
  8
0
  6
CONTINUOUS
  2
*U48
 10
0.0
 20
0.0
 30
0.0
  0
INSERT
  5
37D
  8
0
  6
CONTINUOUS
  2
*U49
 10
0.0
 20
0.0
 30
0.0
  0
INSERT
  5
37E
  8
0
  6
CONTINUOUS
  2
*U50
 10
0.0
 20
0.0
 30
0.0
  0
INSERT
  5
37F
  8
0
  6
CONTINUOUS
  2
*U51
 10
0.0
 20
0.0
 30
0.0
  0
LINE
  5
380
  8
┌▓È_1
 62
     5
 10
337.45911458329999
 20
-94.939062500000006
 30
0.0
 11
60.618603785600001
 21
-94.939062500000006
 31
0.0
  0
LINE
  5
381
  8
┌▓È_1
 62
     5
 10
48.34253660209999
 20
-81.939062500000006
 30
0.0
 11
337.45911458329999
 21
-81.939062500000006
 31
0.0
  0
DIMENSION
  5
390
  8
Éíû@É³
  2
*D22
 10
227.45911458329999
 20
-134.1305989583
 30
0.0
 11
282.45911458329999
 21
-134.1305989583
 31
0.0
 70
   128
  1
<>
 13
227.45911458329999
 23
-92.638754626700006
 33
0.0
 14
337.45911458329999
 24
-94.939062500000006
 34
0.0
 50
180.0
  0
LINE
  5
391
  8
┌▓È_1
  6
STITCH
 10
57.0330991704
 20
11.0385416667
 30
0.0
 11
337.45911458329999
 21
11.0385416667
 31
0.0
  0
LINE
  5
392
  8
┌▓È_1
 62
     5
 10
58.048124788800003
 20
10.0385416667
 30
0.0
 11
337.45911458329999
 21
10.0385416667
 31
0.0
  0
LINE
  5
393
  8
┌▓È_1
 62
     5
 10
55.57594224399999
 20
12.338541666699999
 30
0.0
 11
337.45911458329999
 21
12.338541666699999
 31
0.0
  0
POLYLINE
  8
┌▓È_1
  5
D47
  66
     1
 10
0.000000
 20
0.000000
 30
0.000000
  70
     8
  0
VERTEX
  8
┌▓È_1
  5
D48
 10
44.6326
 20
151.663
 30
0.000000
  70
    32
  0
VERTEX
  8
┌▓È_1
  5
D49
 10
44.1994
 20
151.238
 30
0.000000
  70
    32
  0
VERTEX
  8
┌▓È_1
  5
D4A
 10
43.7664
 20
150.812
 30
0.000000
  70
    32
  0
VERTEX
  8
┌▓È_1
  5
D4B
 10
43.3340
 20
150.387
 30
0.000000
  70
    32
  0
VERTEX
  8
┌▓È_1
  5
D4C
 10
42.9024
 20
149.962
 30
0.000000
  70
    32
  0
VERTEX
  8
┌▓È_1
  5
D4D
 10
42.4718
 20
149.537
 30
0.000000
  70
    32
  0
VERTEX
  8
┌▓È_1
  5
D4E
 10
42.0425
 20
149.112
 30
0.000000
  70
    32
  0
VERTEX
  8
┌▓È_1
  5
D4F
 10
41.6148
 20
148.688
 30
0.000000
  70
    32
  0
VERTEX
  8
┌▓È_1
  5
D50
 10
41.1889
 20
148.263
 30
0.000000
  70
    32
  0
VERTEX
  8
┌▓È_1
  5
D51
 10
40.7651
 20
147.839
 30
0.000000
  70
    32
  0
VERTEX
  8
┌▓È_1
  5
D52
 10
40.3436
 20
147.415
 30
0.000000
  70
    32
  0
VERTEX
  8
┌▓È_1
  5
D53
 10
39.9248
 20
146.992
 30
0.000000
  70
    32
  0
VERTEX
  8
┌▓È_1
  5
D54
 10
39.5088
 20
146.569
 30
0.000000
  70
    32
  0
VERTEX
  8
┌▓È_1
  5
D55
 10
39.0959
 20
146.146
 30
0.000000
  70
    32
  0
VERTEX
  8
┌▓È_1
  5
D56
 10
38.6864
 20
145.724
 30
0.000000
  70
    32
  0
VERTEX
  8
┌▓È_1
  5
D57
 10
38.2806
 20
145.302
 30
0.000000
  70
    32
  0
VERTEX
  8
┌▓È_1
  5
D58
 10
37.8787
 20
144.881
 30
0.000000
  70
    32
  0
VERTEX
  8
┌▓È_1
  5
D59
 10
37.4809
 20
144.460
 30
0.000000
  70
    32
  0
VERTEX
  8
┌▓È_1
  5
D5A
 10
37.0876
 20
144.040
 30
0.000000
  70
    32
  0
VERTEX
  8
┌▓È_1
  5
D5B
 10
36.6990
 20
143.621
 30
0.000000
  70
    32
  0
VERTEX
  8
┌▓È_1
  5
D5C
 10
36.3153
 20
143.202
 30
0.000000
  70
    32
  0
VERTEX
  8
┌▓È_1
  5
D5D
 10
35.9368
 20
142.784
 30
0.000000
  70
    32
  0
VERTEX
  8
┌▓È_1
  5
D5E
 10
35.5638
 20
142.367
 30
0.000000
  70
    32
  0
VERTEX
  8
┌▓È_1
  5
D5F
 10
35.1966
 20
141.950
 30
0.000000
  70
    32
  0
VERTEX
  8
┌▓È_1
  5
D60
 10
34.8353
 20
141.534
 30
0.000000
  70
    32
  0
VERTEX
  8
┌▓È_1
  5
D61
 10
34.4803
 20
141.119
 30
0.000000
  70
    32
  0
VERTEX
  8
┌▓È_1
  5
D62
 10
34.1317
 20
140.705
 30
0.000000
  70
    32
  0
VERTEX
  8
┌▓È_1
  5
D63
 10
33.7900
 20
140.292
 30
0.000000
  70
    32
  0
VERTEX
  8
┌▓È_1
  5
D64
 10
33.4553
 20
139.879
 30
0.000000
  70
    32
  0
VERTEX
  8
┌▓È_1
  5
D65
 10
33.1279
 20
139.468
 30
0.000000
  70
    32
  0
VERTEX
  8
┌▓È_1
  5
D66
 10
32.8081
 20
139.057
 30
0.000000
  70
    32
  0
VERTEX
  8
┌▓È_1
  5
D67
 10
32.4960
 20
138.648
 30
0.000000
  70
    32
  0
VERTEX
  8
┌▓È_1
  5
D68
 10
32.1921
 20
138.240
 30
0.000000
  70
    32
  0
VERTEX
  8
┌▓È_1
  5
D69
 10
31.8965
 20
137.832
 30
0.000000
  70
    32
  0
VERTEX
  8
┌▓È_1
  5
D6A
 10
31.6094
 20
137.426
 30
0.000000
  70
    32
  0
VERTEX
  8
┌▓È_1
  5
D6B
 10
31.3313
 20
137.022
 30
0.000000
  70
    32
  0
VERTEX
  8
┌▓È_1
  5
D6C
 10
31.0623
 20
136.618
 30
0.000000
  70
    32
  0
VERTEX
  8
┌▓È_1
  5
D6D
 10
30.8026
 20
136.215
 30
0.000000
  70
    32
  0
VERTEX
  8
┌▓È_1
  5
D6E
 10
30.5526
 20
135.814
 30
0.000000
  70
    32
  0
VERTEX
  8
┌▓È_1
  5
D6F
 10
30.3125
 20
135.414
 30
0.000000
  70
    32
  0
VERTEX
  8
┌▓È_1
  5
D70
 10
30.0825
 20
135.016
 30
0.000000
  70
    32
  0
VERTEX
  8
┌▓È_1
  5
D71
 10
29.8630
 20
134.618
 30
0.000000
  70
    32
  0
VERTEX
  8
┌▓È_1
  5
D72
 10
29.6541
 20
134.223
 30
0.000000
  70
    32
  0
VERTEX
  8
┌▓È_1
  5
D73
 10
29.4562
 20
133.828
 30
0.000000
  70
    32
  0
VERTEX
  8
┌▓È_1
  5
D74
 10
29.2695
 20
133.435
 30
0.000000
  70
    32
  0
VERTEX
  8
┌▓È_1
  5
D75
 10
29.0943
 20
133.044
 30
0.000000
  70
    32
  0
VERTEX
  8
┌▓È_1
  5
D76
 10
28.9308
 20
132.654
 30
0.000000
  70
    32
  0
VERTEX
  8
┌▓È_1
  5
D77
 10
28.7792
 20
132.266
 30
0.000000
  70
    32
  0
VERTEX
  8
┌▓È_1
  5
D78
 10
28.6400
 20
131.879
 30
0.000000
  70
    32
  0
VERTEX
  8
┌▓È_1
  5
D79
 10
28.5132
 20
131.494
 30
0.000000
  70
    32
  0
VERTEX
  8
┌▓È_1
  5
D7A
 10
28.3992
 20
131.111
 30
0.000000
  70
    32
  0
VERTEX
  8
┌▓È_1
  5
D7B
 10
28.2982
 20
130.730
 30
0.000000
  70
    32
  0
VERTEX
  8
┌▓È_1
  5
D7C
 10
28.2105
 20
130.350
 30
0.000000
  70
    32
  0
VERTEX
  8
┌▓È_1
  5
D7D
 10
28.1364
 20
129.972
 30
0.000000
  70
    32
  0
VERTEX
  8
┌▓È_1
  5
D7E
 10
28.0760
 20
129.595
 30
0.000000
  70
    32
  0
VERTEX
  8
┌▓È_1
  5
D7F
 10
28.0298
 20
129.221
 30
0.000000
  70
    32
  0
VERTEX
  8
┌▓È_1
  5
D80
 10
27.9979
 20
128.849
 30
0.000000
  70
    32
  0
VERTEX
  8
┌▓È_1
  5
D81
 10
27.9805
 20
128.478
 30
0.000000
  70
    32
  0
VERTEX
  8
┌▓È_1
  5
D82
 10
27.9780
 20
128.109
 30
0.000000
  70
    32
  0
VERTEX
  8
┌▓È_1
  5
D83
 10
27.9907
 20
127.743
 30
0.000000
  70
    32
  0
VERTEX
  8
┌▓È_1
  5
D84
 10
28.0187
 20
127.378
 30
0.000000
  70
    32
  0
VERTEX
  8
┌▓È_1
  5
D85
 10
28.0623
 20
127.016
 30
0.000000
  70
    32
  0
VERTEX
  8
┌▓È_1
  5
D86
 10
28.1218
 20
126.655
 30
0.000000
  70
    32
  0
VERTEX
  8
┌▓È_1
  5
D87
 10
28.1975
 20
126.297
 30
0.000000
  70
    32
  0
VERTEX
  8
┌▓È_1
  5
D88
 10
28.2896
 20
125.941
 30
0.000000
  70
    32
  0
VERTEX
  8
┌▓È_1
  5
D89
 10
28.3984
 20
125.587
 30
0.000000
  70
    32
  0
VERTEX
  8
┌▓È_1
  5
D8A
 10
28.5241
 20
125.235
 30
0.000000
  70
    32
  0
VERTEX
  8
┌▓È_1
  5
D8B
 10
28.6670
 20
124.885
 30
0.000000
  70
    32
  0
VERTEX
  8
┌▓È_1
  5
D8C
 10
28.8273
 20
124.538
 30
0.000000
  70
    32
  0
VERTEX
  8
┌▓È_1
  5
D8D
 10
29.0054
 20
124.193
 30
0.000000
  70
    32
  0
VERTEX
  8
┌▓È_1
  5
D8E
 10
29.2008
 20
123.851
 30
0.000000
  70
    32
  0
VERTEX
  8
┌▓È_1
  5
D8F
 10
29.4129
 20
123.510
 30
0.000000
  70
    32
  0
VERTEX
  8
┌▓È_1
  5
D90
 10
29.6409
 20
123.172
 30
0.000000
  70
    32
  0
VERTEX
  8
┌▓È_1
  5
D91
 10
29.8841
 20
122.836
 30
0.000000
  70
    32
  0
VERTEX
  8
┌▓È_1
  5
D92
 10
30.1418
 20
122.501
 30
0.000000
  70
    32
  0
VERTEX
  8
┌▓È_1
  5
D93
 10
30.4133
 20
122.169
 30
0.000000
  70
    32
  0
VERTEX
  8
┌▓È_1
  5
D94
 10
30.6978
 20
121.838
 30
0.000000
  70
    32
  0
VERTEX
  8
┌▓È_1
  5
D95
 10
30.9946
 20
121.509
 30
0.000000
  70
    32
  0
VERTEX
  8
┌▓È_1
  5
D96
 10
31.3030
 20
121.181
 30
0.000000
  70
    32
  0
VERTEX
  8
┌▓È_1
  5
D97
 10
31.6223
 20
120.855
 30
0.000000
  70
    32
  0
VERTEX
  8
┌▓È_1
  5
D98
 10
31.9518
 20
120.530
 30
0.000000
  70
    32
  0
VERTEX
  8
┌▓È_1
  5
D99
 10
32.2907
 20
120.206
 30
0.000000
  70
    32
  0
VERTEX
  8
┌▓È_1
  5
D9A
 10
32.6383
 20
119.884
 30
0.000000
  70
    32
  0
VERTEX
  8
┌▓È_1
  5
D9B
 10
32.9939
 20
119.562
 30
0.000000
  70
    32
  0
VERTEX
  8
┌▓È_1
  5
D9C
 10
33.3568
 20
119.242
 30
0.000000
  70
    32
  0
VERTEX
  8
┌▓È_1
  5
D9D
 10
33.7262
 20
118.922
 30
0.000000
  70
    32
  0
VERTEX
  8
┌▓È_1
  5
D9E
 10
34.1014
 20
118.603
 30
0.000000
  70
    32
  0
VERTEX
  8
┌▓È_1
  5
D9F
 10
34.4818
 20
118.285
 30
0.000000
  70
    32
  0
VERTEX
  8
┌▓È_1
  5
DA0
 10
34.8665
 20
117.967
 30
0.000000
  70
    32
  0
VERTEX
  8
┌▓È_1
  5
DA1
 10
35.2549
 20
117.650
 30
0.000000
  70
    32
  0
VERTEX
  8
┌▓È_1
  5
DA2
 10
35.6462
 20
117.333
 30
0.000000
  70
    32
  0
VERTEX
  8
┌▓È_1
  5
DA3
 10
36.0397
 20
117.017
 30
0.000000
  70
    32
  0
VERTEX
  8
┌▓È_1
  5
DA4
 10
36.4347
 20
116.701
 30
0.000000
  70
    32
  0
VERTEX
  8
┌▓È_1
  5
DA5
 10
36.8304
 20
116.385
 30
0.000000
  70
    32
  0
VERTEX
  8
┌▓È_1
  5
DA6
 10
37.2262
 20
116.068
 30
0.000000
  70
    32
  0
VERTEX
  8
┌▓È_1
  5
DA7
 10
37.6214
 20
115.752
 30
0.000000
  70
    32
  0
VERTEX
  8
┌▓È_1
  5
DA8
 10
38.0151
 20
115.436
 30
0.000000
  70
    32
  0
VERTEX
  8
┌▓È_1
  5
DA9
 10
38.4067
 20
115.119
 30
0.000000
  70
    32
  0
VERTEX
  8
┌▓È_1
  5
DAA
 10
38.7955
 20
114.802
 30
0.000000
  70
    32
  0
VERTEX
  8
┌▓È_1
  5
DAB
 10
39.1807
 20
114.484
 30
0.000000
  70
    32
  0
VERTEX
  8
┌▓È_1
  5
DAC
 10
39.5616
 20
114.166
 30
0.000000
  70
    32
  0
VERTEX
  8
┌▓È_1
  5
DAD
 10
39.9375
 20
113.847
 30
0.000000
  70
    32
  0
VERTEX
  8
┌▓È_1
  5
DAE
 10
40.3076
 20
113.528
 30
0.000000
  70
    32
  0
VERTEX
  8
┌▓È_1
  5
DAF
 10
40.6713
 20
113.207
 30
0.000000
  70
    32
  0
VERTEX
  8
┌▓È_1
  5
DB0
 10
41.0279
 20
112.886
 30
0.000000
  70
    32
  0
VERTEX
  8
┌▓È_1
  5
DB1
 10
41.3765
 20
112.564
 30
0.000000
  70
    32
  0
VERTEX
  8
┌▓È_1
  5
DB2
 10
41.7165
 20
112.240
 30
0.000000
  70
    32
  0
VERTEX
  8
┌▓È_1
  5
DB3
 10
42.0472
 20
111.915
 30
0.000000
  70
    32
  0
VERTEX
  8
┌▓È_1
  5
DB4
 10
42.3677
 20
111.589
 30
0.000000
  70
    32
  0
VERTEX
  8
┌▓È_1
  5
DB5
 10
42.6775
 20
111.262
 30
0.000000
  70
    32
  0
VERTEX
  8
┌▓È_1
  5
DB6
 10
42.9758
 20
110.933
 30
0.000000
  70
    32
  0
VERTEX
  8
┌▓È_1
  5
DB7
 10
43.2619
 20
110.602
 30
0.000000
  70
    32
  0
VERTEX
  8
┌▓È_1
  5
DB8
 10
43.5350
 20
110.270
 30
0.000000
  70
    32
  0
VERTEX
  8
┌▓È_1
  5
DB9
 10
43.7944
 20
109.935
 30
0.000000
  70
    32
  0
VERTEX
  8
┌▓È_1
  5
DBA
 10
44.0394
 20
109.599
 30
0.000000
  70
    32
  0
VERTEX
  8
┌▓È_1
  5
DBB
 10
44.2693
 20
109.261
 30
0.000000
  70
    32
  0
VERTEX
  8
┌▓È_1
  5
DBC
 10
44.4834
 20
108.921
 30
0.000000
  70
    32
  0
VERTEX
  8
┌▓È_1
  5
DBD
 10
44.6808
 20
108.579
 30
0.000000
  70
    32
  0
VERTEX
  8
┌▓È_1
  5
DBE
 10
44.8613
 20
108.234
 30
0.000000
  70
    32
  0
VERTEX
  8
┌▓È_1
  5
DBF
 10
45.0250
 20
107.888
 30
0.000000
  70
    32
  0
VERTEX
  8
┌▓È_1
  5
DC0
 10
45.1721
 20
107.539
 30
0.000000
  70
    32
  0
VERTEX
  8
┌▓È_1
  5
DC1
 10
45.3029
 20
107.188
 30
0.000000
  70
    32
  0
VERTEX
  8
┌▓È_1
  5
DC2
 10
45.4175
 20
106.835
 30
0.000000
  70
    32
  0
VERTEX
  8
┌▓È_1
  5
DC3
 10
45.5162
 20
106.479
 30
0.000000
  70
    32
  0
VERTEX
  8
┌▓È_1
  5
DC4
 10
45.5992
 20
106.122
 30
0.000000
  70
    32
  0
VERTEX
  8
┌▓È_1
  5
DC5
 10
45.6668
 20
105.762
 30
0.000000
  70
    32
  0
VERTEX
  8
┌▓È_1
  5
DC6
 10
45.7192
 20
105.401
 30
0.000000
  70
    32
  0
VERTEX
  8
┌▓È_1
  5
DC7
 10
45.7566
 20
105.038
 30
0.000000
  70
    32
  0
VERTEX
  8
┌▓È_1
  5
DC8
 10
45.7793
 20
104.672
 30
0.000000
  70
    32
  0
VERTEX
  8
┌▓È_1
  5
DC9
 10
45.7875
 20
104.305
 30
0.000000
  70
    32
  0
VERTEX
  8
┌▓È_1
  5
DCA
 10
45.7814
 20
103.936
 30
0.000000
  70
    32
  0
VERTEX
  8
┌▓È_1
  5
DCB
 10
45.7612
 20
103.565
 30
0.000000
  70
    32
  0
VERTEX
  8
┌▓È_1
  5
DCC
 10
45.7272
 20
103.192
 30
0.000000
  70
    32
  0
VERTEX
  8
┌▓È_1
  5
DCD
 10
45.6796
 20
102.818
 30
0.000000
  70
    32
  0
VERTEX
  8
┌▓È_1
  5
DCE
 10
45.6186
 20
102.442
 30
0.000000
  70
    32
  0
VERTEX
  8
┌▓È_1
  5
DCF
 10
45.5446
 20
102.063
 30
0.000000
  70
    32
  0
VERTEX
  8
┌▓È_1
  5
DD0
 10
45.4576
 20
101.684
 30
0.000000
  70
    32
  0
VERTEX
  8
┌▓È_1
  5
DD1
 10
45.3579
 20
101.302
 30
0.000000
  70
    32
  0
VERTEX
  8
┌▓È_1
  5
DD2
 10
45.2458
 20
100.919
 30
0.000000
  70
    32
  0
VERTEX
  8
┌▓È_1
  5
DD3
 10
45.1215
 20
100.535
 30
0.000000
  70
    32
  0
VERTEX
  8
┌▓È_1
  5
DD4
 10
44.9852
 20
100.148
 30
0.000000
  70
    32
  0
VERTEX
  8
┌▓È_1
  5
DD5
 10
44.8371
 20
99.7606
 30
0.000000
  70
    32
  0
VERTEX
  8
┌▓È_1
  5
DD6
 10
44.6776
 20
99.3713
 30
0.000000
  70
    32
  0
VERTEX
  8
┌▓È_1
  5
DD7
 10
44.5067
 20
98.9805
 30
0.000000
  70
    32
  0
VERTEX
  8
┌▓È_1
  5
DD8
 10
44.3248
 20
98.5883
 30
0.000000
  70
    32
  0
VERTEX
  8
┌▓È_1
  5
DD9
 10
44.1321
 20
98.1946
 30
0.000000
  70
    32
  0
VERTEX
  8
┌▓È_1
  5
DDA
 10
43.9287
 20
97.7995
 30
0.000000
  70
    32
  0
VERTEX
  8
┌▓È_1
  5
DDB
 10
43.7150
 20
97.4031
 30
0.000000
  70
    32
  0
VERTEX
  8
┌▓È_1
  5
DDC
 10
43.4912
 20
97.0053
 30
0.000000
  70
    32
  0
VERTEX
  8
┌▓È_1
  5
DDD
 10
43.2574
 20
96.6063
 30
0.000000
  70
    32
  0
VERTEX
  8
┌▓È_1
  5
DDE
 10
43.0140
 20
96.2059
 30
0.000000
  70
    32
  0
VERTEX
  8
┌▓È_1
  5
DDF
 10
42.7611
 20
95.8043
 30
0.000000
  70
    32
  0
VERTEX
  8
┌▓È_1
  5
DE0
 10
42.4990
 20
95.4015
 30
0.000000
  70
    32
  0
VERTEX
  8
┌▓È_1
  5
DE1
 10
42.2280
 20
94.9976
 30
0.000000
  70
    32
  0
VERTEX
  8
┌▓È_1
  5
DE2
 10
41.9481
 20
94.5924
 30
0.000000
  70
    32
  0
VERTEX
  8
┌▓È_1
  5
DE3
 10
41.6598
 20
94.1862
 30
0.000000
  70
    32
  0
VERTEX
  8
┌▓È_1
  5
DE4
 10
41.3631
 20
93.7788
 30
0.000000
  70
    32
  0
VERTEX
  8
┌▓È_1
  5
DE5
 10
41.0584
 20
93.3704
 30
0.000000
  70
    32
  0
VERTEX
  8
┌▓È_1
  5
DE6
 10
40.7458
 20
92.9610
 30
0.000000
  70
    32
  0
VERTEX
  8
┌▓È_1
  5
DE7
 10
40.4257
 20
92.5505
 30
0.000000
  70
    32
  0
VERTEX
  8
┌▓È_1
  5
DE8
 10
40.0982
 20
92.1391
 30
0.000000
  70
    32
  0
VERTEX
  8
┌▓È_1
  5
DE9
 10
39.7635
 20
91.7268
 30
0.000000
  70
    32
  0
VERTEX
  8
┌▓È_1
  5
DEA
 10
39.4219
 20
91.3135
 30
0.000000
  70
    32
  0
VERTEX
  8
┌▓È_1
  5
DEB
 10
39.0737
 20
90.8994
 30
0.000000
  70
    32
  0
VERTEX
  8
┌▓È_1
  5
DEC
 10
38.7190
 20
90.4844
 30
0.000000
  70
    32
  0
VERTEX
  8
┌▓È_1
  5
DED
 10
38.3580
 20
90.0686
 30
0.000000
  70
    32
  0
VERTEX
  8
┌▓È_1
  5
DEE
 10
37.9911
 20
89.6520
 30
0.000000
  70
    32
  0
VERTEX
  8
┌▓È_1
  5
DEF
 10
37.6184
 20
89.2346
 30
0.000000
  70
    32
  0
VERTEX
  8
┌▓È_1
  5
DF0
 10
37.2402
 20
88.8165
 30
0.000000
  70
    32
  0
VERTEX
  8
┌▓È_1
  5
DF1
 10
36.8567
 20
88.3977
 30
0.000000
  70
    32
  0
VERTEX
  8
┌▓È_1
  5
DF2
 10
36.4681
 20
87.9783
 30
0.000000
  70
    32
  0
VERTEX
  8
┌▓È_1
  5
DF3
 10
36.0747
 20
87.5582
 30
0.000000
  70
    32
  0
VERTEX
  8
┌▓È_1
  5
DF4
 10
35.6767
 20
87.1375
 30
0.000000
  70
    32
  0
VERTEX
  8
┌▓È_1
  5
DF5
 10
35.2743
 20
86.7162
 30
0.000000
  70
    32
  0
VERTEX
  8
┌▓È_1
  5
DF6
 10
34.8677
 20
86.2944
 30
0.000000
  70
    32
  0
VERTEX
  8
┌▓È_1
  5
DF7
 10
34.4573
 20
85.8721
 30
0.000000
  70
    32
  0
VERTEX
  8
┌▓È_1
  5
DF8
 10
34.0431
 20
85.4493
 30
0.000000
  70
    32
  0
VERTEX
  8
┌▓È_1
  5
DF9
 10
33.6255
 20
85.0260
 30
0.000000
  70
    32
  0
VERTEX
  8
┌▓È_1
  5
DFA
 10
33.2047
 20
84.6023
 30
0.000000
  70
    32
  0
VERTEX
  8
┌▓È_1
  5
DFB
 10
32.7808
 20
84.1782
 30
0.000000
  70
    32
  0
VERTEX
  8
┌▓È_1
  5
DFC
 10
32.3542
 20
83.7538
 30
0.000000
  70
    32
  0
VERTEX
  8
┌▓È_1
  5
DFD
 10
31.9251
 20
83.3290
 30
0.000000
  70
    32
  0
VERTEX
  8
┌▓È_1
  5
DFE
 10
31.4937
 20
82.9039
 30
0.000000
  70
    32
  0
VERTEX
  8
┌▓È_1
  5
DFF
 10
31.0602
 20
82.4785
 30
0.000000
  70
    32
  0
VERTEX
  8
┌▓È_1
  5
E00
 10
30.6248
 20
82.0529
 30
0.000000
  70
    32
  0
VERTEX
  8
┌▓È_1
  5
E01
 10
30.1879
 20
81.6271
 30
0.000000
  70
    32
  0
VERTEX
  8
┌▓È_1
  5
E02
 10
29.7495
 20
81.2011
 30
0.000000
  70
    32
  0
VERTEX
  8
┌▓È_1
  5
E03
 10
29.3100
 20
80.7749
 30
0.000000
  70
    32
  0
VERTEX
  8
┌▓È_1
  5
E04
 10
28.8696
 20
80.3487
 30
0.000000
  70
    32
  0
VERTEX
  8
┌▓È_1
  5
E05
 10
28.4285
 20
79.9223
 30
0.000000
  70
    32
  0
VERTEX
  8
┌▓È_1
  5
E06
 10
27.9869
 20
79.4959
 30
0.000000
  70
    32
  0
VERTEX
  8
┌▓È_1
  5
E07
 10
27.5451
 20
79.0694
 30
0.000000
  70
    32
  0
SEQEND
  8
┌▓È_1
  5
E08
  0
LINE
  5
395
  8
┌▓È_1
 62
     5
 10
32.192447916699997
 20
8.8385416666999994
 30
0.0
 11
32.192447916699997
 21
10.0385416667
 31
0.0
  0
LINE
  5
396
  8
┌▓È_1
 62
     5
 10
30.906861983199999
 20
-92.234554144100002
 30
0.0
 11
29.172034178499999
 21
-92.234554252500004
 31
0.0
  0
ARC
  5
397
  8
┌▓È_1
 62
     5
 10
30.906861920800001
 20
-91.234554144100017
 30
0.0
 40
1.0
 50
270.00000357829998
 51
359.99999159330002
  0
ARC
  5
398
  8
┌▓È_1
 62
     5
 10
32.406861920799997
 20
-91.234554144100017
 30
0.0
 40
0.5
 50
89.999979085500001
 51
180.00001681329999
  0
LINE
  5
399
  8
┌▓È_1
 62
     5
 10
32.4068621033
 20
-90.734554144100002
 30
0.0
 11
35.306536095300011
 21
-90.734554144100002
 31
0.0
  0
LINE
  5
39A
  8
┌▓È_1
 62
     5
 10
31.9591145833
 20
-94.138754626700006
 30
0.0
 11
28.9591145833
 21
-94.138754626700006
 31
0.0
  0
LINE
  5
39B
  8
┌▓È_1
 62
     5
 10
31.9591145833
 20
-94.138754626700006
 30
0.0
 11
31.9591145833
 21
-92.638754626700006
 31
0.0
  0
LINE
  5
39C
  8
┌▓È_1
 62
     5
 10
37.681202371200001
 20
-92.638754626700006
 30
0.0
 11
31.9591145833
 21
-92.638754626700006
 31
0.0
  0
POLYLINE
  8
┌▓È_1
  5
E09
  66
     1
 10
0.000000
 20
0.000000
 30
0.000000
  70
     8
  0
VERTEX
  8
┌▓È_1
  5
E0A
 10
44.6326
 20
-56.6800
 30
0.000000
  70
    32
  0
VERTEX
  8
┌▓È_1
  5
E0B
 10
44.2692
 20
-57.0367
 30
0.000000
  70
    32
  0
VERTEX
  8
┌▓È_1
  5
E0C
 10
43.9061
 20
-57.3934
 30
0.000000
  70
    32
  0
VERTEX
  8
┌▓È_1
  5
E0D
 10
43.5432
 20
-57.7500
 30
0.000000
  70
    32
  0
VERTEX
  8
┌▓È_1
  5
E0E
 10
43.1808
 20
-58.1066
 30
0.000000
  70
    32
  0
VERTEX
  8
┌▓È_1
  5
E0F
 10
42.8190
 20
-58.4631
 30
0.000000
  70
    32
  0
VERTEX
  8
┌▓È_1
  5
E10
 10
42.4580
 20
-58.8195
 30
0.000000
  70
    32
  0
VERTEX
  8
┌▓È_1
  5
E11
 10
42.0979
 20
-59.1758
 30
0.000000
  70
    32
  0
VERTEX
  8
┌▓È_1
  5
E12
 10
41.7389
 20
-59.5320
 30
0.000000
  70
    32
  0
VERTEX
  8
┌▓È_1
  5
E13
 10
41.3811
 20
-59.8879
 30
0.000000
  70
    32
  0
VERTEX
  8
┌▓È_1
  5
E14
 10
41.0247
 20
-60.2437
 30
0.000000
  70
    32
  0
VERTEX
  8
┌▓È_1
  5
E15
 10
40.6699
 20
-60.5993
 30
0.000000
  70
    32
  0
VERTEX
  8
┌▓È_1
  5
E16
 10
40.3167
 20
-60.9547
 30
0.000000
  70
    32
  0
VERTEX
  8
┌▓È_1
  5
E17
 10
39.9653
 20
-61.3098
 30
0.000000
  70
    32
  0
VERTEX
  8
┌▓È_1
  5
E18
 10
39.6160
 20
-61.6647
 30
0.000000
  70
    32
  0
VERTEX
  8
┌▓È_1
  5
E19
 10
39.2688
 20
-62.0193
 30
0.000000
  70
    32
  0
VERTEX
  8
┌▓È_1
  5
E1A
 10
38.9240
 20
-62.3736
 30
0.000000
  70
    32
  0
VERTEX
  8
┌▓È_1
  5
E1B
 10
38.5815
 20
-62.7275
 30
0.000000
  70
    32
  0
VERTEX
  8
┌▓È_1
  5
E1C
 10
38.2417
 20
-63.0812
 30
0.000000
  70
    32
  0
VERTEX
  8
┌▓È_1
  5
E1D
 10
37.9047
 20
-63.4344
 30
0.000000
  70
    32
  0
VERTEX
  8
┌▓È_1
  5
E1E
 10
37.5706
 20
-63.7873
 30
0.000000
  70
    32
  0
VERTEX
  8
┌▓È_1
  5
E1F
 10
37.2396
 20
-64.1397
 30
0.000000
  70
    32
  0
VERTEX
  8
┌▓È_1
  5
E20
 10
36.9117
 20
-64.4918
 30
0.000000
  70
    32
  0
VERTEX
  8
┌▓È_1
  5
E21
 10
36.5873
 20
-64.8434
 30
0.000000
  70
    32
  0
VERTEX
  8
┌▓È_1
  5
E22
 10
36.2664
 20
-65.1945
 30
0.000000
  70
    32
  0
VERTEX
  8
┌▓È_1
  5
E23
 10
35.9492
 20
-65.5451
 30
0.000000
  70
    32
  0
VERTEX
  8
┌▓È_1
  5
E24
 10
35.6358
 20
-65.8953
 30
0.000000
  70
    32
  0
VERTEX
  8
┌▓È_1
  5
E25
 10
35.3265
 20
-66.2449
 30
0.000000
  70
    32
  0
VERTEX
  8
┌▓È_1
  5
E26
 10
35.0213
 20
-66.5940
 30
0.000000
  70
    32
  0
VERTEX
  8
┌▓È_1
  5
E27
 10
34.7203
 20
-66.9425
 30
0.000000
  70
    32
  0
VERTEX
  8
┌▓È_1
  5
E28
 10
34.4239
 20
-67.2904
 30
0.000000
  70
    32
  0
VERTEX
  8
┌▓È_1
  5
E29
 10
34.1320
 20
-67.6377
 30
0.000000
  70
    32
  0
VERTEX
  8
┌▓È_1
  5
E2A
 10
33.8450
 20
-67.9843
 30
0.000000
  70
    32
  0
VERTEX
  8
┌▓È_1
  5
E2B
 10
33.5628
 20
-68.3304
 30
0.000000
  70
    32
  0
VERTEX
  8
┌▓È_1
  5
E2C
 10
33.2857
 20
-68.6757
 30
0.000000
  70
    32
  0
VERTEX
  8
┌▓È_1
  5
E2D
 10
33.0138
 20
-69.0204
 30
0.000000
  70
    32
  0
VERTEX
  8
┌▓È_1
  5
E2E
 10
32.7474
 20
-69.3644
 30
0.000000
  70
    32
  0
VERTEX
  8
┌▓È_1
  5
E2F
 10
32.4864
 20
-69.7076
 30
0.000000
  70
    32
  0
VERTEX
  8
┌▓È_1
  5
E30
 10
32.2311
 20
-70.0501
 30
0.000000
  70
    32
  0
VERTEX
  8
┌▓È_1
  5
E31
 10
31.9817
 20
-70.3918
 30
0.000000
  70
    32
  0
VERTEX
  8
┌▓È_1
  5
E32
 10
31.7383
 20
-70.7327
 30
0.000000
  70
    32
  0
VERTEX
  8
┌▓È_1
  5
E33
 10
31.5010
 20
-71.0728
 30
0.000000
  70
    32
  0
VERTEX
  8
┌▓È_1
  5
E34
 10
31.2700
 20
-71.4121
 30
0.000000
  70
    32
  0
VERTEX
  8
┌▓È_1
  5
E35
 10
31.0455
 20
-71.7506
 30
0.000000
  70
    32
  0
VERTEX
  8
┌▓È_1
  5
E36
 10
30.8276
 20
-72.0881
 30
0.000000
  70
    32
  0
VERTEX
  8
┌▓È_1
  5
E37
 10
30.6165
 20
-72.4248
 30
0.000000
  70
    32
  0
VERTEX
  8
┌▓È_1
  5
E38
 10
30.4122
 20
-72.7606
 30
0.000000
  70
    32
  0
VERTEX
  8
┌▓È_1
  5
E39
 10
30.2151
 20
-73.0954
 30
0.000000
  70
    32
  0
VERTEX
  8
┌▓È_1
  5
E3A
 10
30.0251
 20
-73.4293
 30
0.000000
  70
    32
  0
VERTEX
  8
┌▓È_1
  5
E3B
 10
29.8426
 20
-73.7622
 30
0.000000
  70
    32
  0
VERTEX
  8
┌▓È_1
  5
E3C
 10
29.6676
 20
-74.0942
 30
0.000000
  70
    32
  0
VERTEX
  8
┌▓È_1
  5
E3D
 10
29.5002
 20
-74.4251
 30
0.000000
  70
    32
  0
VERTEX
  8
┌▓È_1
  5
E3E
 10
29.3407
 20
-74.7549
 30
0.000000
  70
    32
  0
VERTEX
  8
┌▓È_1
  5
E3F
 10
29.1892
 20
-75.0838
 30
0.000000
  70
    32
  0
VERTEX
  8
┌▓È_1
  5
E40
 10
29.0458
 20
-75.4115
 30
0.000000
  70
    32
  0
VERTEX
  8
┌▓È_1
  5
E41
 10
28.9108
 20
-75.7382
 30
0.000000
  70
    32
  0
VERTEX
  8
┌▓È_1
  5
E42
 10
28.7842
 20
-76.0637
 30
0.000000
  70
    32
  0
VERTEX
  8
┌▓È_1
  5
E43
 10
28.6662
 20
-76.3881
 30
0.000000
  70
    32
  0
VERTEX
  8
┌▓È_1
  5
E44
 10
28.5569
 20
-76.7114
 30
0.000000
  70
    32
  0
VERTEX
  8
┌▓È_1
  5
E45
 10
28.4566
 20
-77.0335
 30
0.000000
  70
    32
  0
VERTEX
  8
┌▓È_1
  5
E46
 10
28.3653
 20
-77.3544
 30
0.000000
  70
    32
  0
VERTEX
  8
┌▓È_1
  5
E47
 10
28.2833
 20
-77.6741
 30
0.000000
  70
    32
  0
VERTEX
  8
┌▓È_1
  5
E48
 10
28.2107
 20
-77.9925
 30
0.000000
  70
    32
  0
VERTEX
  8
┌▓È_1
  5
E49
 10
28.1475
 20
-78.3097
 30
0.000000
  70
    32
  0
VERTEX
  8
┌▓È_1
  5
E4A
 10
28.0941
 20
-78.6256
 30
0.000000
  70
    32
  0
VERTEX
  8
┌▓È_1
  5
E4B
 10
28.0505
 20
-78.9402
 30
0.000000
  70
    32
  0
VERTEX
  8
┌▓È_1
  5
E4C
 10
28.0169
 20
-79.2536
 30
0.000000
  70
    32
  0
VERTEX
  8
┌▓È_1
  5
E4D
 10
27.9934
 20
-79.5655
 30
0.000000
  70
    32
  0
VERTEX
  8
┌▓È_1
  5
E4E
 10
27.9802
 20
-79.8761
 30
0.000000
  70
    32
  0
VERTEX
  8
┌▓È_1
  5
E4F
 10
27.9775
 20
-80.1854
 30
0.000000
  70
    32
  0
VERTEX
  8
┌▓È_1
  5
E50
 10
27.9854
 20
-80.4932
 30
0.000000
  70
    32
  0
VERTEX
  8
┌▓È_1
  5
E51
 10
28.0040
 20
-80.7996
 30
0.000000
  70
    32
  0
VERTEX
  8
┌▓È_1
  5
E52
 10
28.0336
 20
-81.1046
 30
0.000000
  70
    32
  0
VERTEX
  8
┌▓È_1
  5
E53
 10
28.0742
 20
-81.4082
 30
0.000000
  70
    32
  0
VERTEX
  8
┌▓È_1
  5
E54
 10
28.1261
 20
-81.7102
 30
0.000000
  70
    32
  0
VERTEX
  8
┌▓È_1
  5
E55
 10
28.1893
 20
-82.0108
 30
0.000000
  70
    32
  0
VERTEX
  8
┌▓È_1
  5
E56
 10
28.2640
 20
-82.3098
 30
0.000000
  70
    32
  0
VERTEX
  8
┌▓È_1
  5
E57
 10
28.3505
 20
-82.6073
 30
0.000000
  70
    32
  0
VERTEX
  8
┌▓È_1
  5
E58
 10
28.4487
 20
-82.9033
 30
0.000000
  70
    32
  0
VERTEX
  8
┌▓È_1
  5
E59
 10
28.5590
 20
-83.1976
 30
0.000000
  70
    32
  0
VERTEX
  8
┌▓È_1
  5
E5A
 10
28.6814
 20
-83.4904
 30
0.000000
  70
    32
  0
VERTEX
  8
┌▓È_1
  5
E5B
 10
28.8161
 20
-83.7815
 30
0.000000
  70
    32
  0
VERTEX
  8
┌▓È_1
  5
E5C
 10
28.9632
 20
-84.0710
 30
0.000000
  70
    32
  0
VERTEX
  8
┌▓È_1
  5
E5D
 10
29.1227
 20
-84.3589
 30
0.000000
  70
    32
  0
VERTEX
  8
┌▓È_1
  5
E5E
 10
29.2941
 20
-84.6453
 30
0.000000
  70
    32
  0
VERTEX
  8
┌▓È_1
  5
E5F
 10
29.4769
 20
-84.9301
 30
0.000000
  70
    32
  0
VERTEX
  8
┌▓È_1
  5
E60
 10
29.6708
 20
-85.2134
 30
0.000000
  70
    32
  0
VERTEX
  8
┌▓È_1
  5
E61
 10
29.8754
 20
-85.4954
 30
0.000000
  70
    32
  0
VERTEX
  8
┌▓È_1
  5
E62
 10
30.0902
 20
-85.7760
 30
0.000000
  70
    32
  0
VERTEX
  8
┌▓È_1
  5
E63
 10
30.3147
 20
-86.0553
 30
0.000000
  70
    32
  0
VERTEX
  8
┌▓È_1
  5
E64
 10
30.5486
 20
-86.3334
 30
0.000000
  70
    32
  0
VERTEX
  8
┌▓È_1
  5
E65
 10
30.7915
 20
-86.6103
 30
0.000000
  70
    32
  0
VERTEX
  8
┌▓È_1
  5
E66
 10
31.0428
 20
-86.8861
 30
0.000000
  70
    32
  0
VERTEX
  8
┌▓È_1
  5
E67
 10
31.3022
 20
-87.1608
 30
0.000000
  70
    32
  0
VERTEX
  8
┌▓È_1
  5
E68
 10
31.5693
 20
-87.4345
 30
0.000000
  70
    32
  0
VERTEX
  8
┌▓È_1
  5
E69
 10
31.8436
 20
-87.7073
 30
0.000000
  70
    32
  0
VERTEX
  8
┌▓È_1
  5
E6A
 10
32.1247
 20
-87.9792
 30
0.000000
  70
    32
  0
VERTEX
  8
┌▓È_1
  5
E6B
 10
32.4122
 20
-88.2502
 30
0.000000
  70
    32
  0
VERTEX
  8
┌▓È_1
  5
E6C
 10
32.7056
 20
-88.5204
 30
0.000000
  70
    32
  0
VERTEX
  8
┌▓È_1
  5
E6D
 10
33.0046
 20
-88.7900
 30
0.000000
  70
    32
  0
VERTEX
  8
┌▓È_1
  5
E6E
 10
33.3086
 20
-89.0588
 30
0.000000
  70
    32
  0
VERTEX
  8
┌▓È_1
  5
E6F
 10
33.6173
 20
-89.3271
 30
0.000000
  70
    32
  0
VERTEX
  8
┌▓È_1
  5
E70
 10
33.9303
 20
-89.5947
 30
0.000000
  70
    32
  0
VERTEX
  8
┌▓È_1
  5
E71
 10
34.2470
 20
-89.8619
 30
0.000000
  70
    32
  0
VERTEX
  8
┌▓È_1
  5
E72
 10
34.5672
 20
-90.1286
 30
0.000000
  70
    32
  0
VERTEX
  8
┌▓È_1
  5
E73
 10
34.8903
 20
-90.3950
 30
0.000000
  70
    32
  0
VERTEX
  8
┌▓È_1
  5
E74
 10
35.2160
 20
-90.6610
 30
0.000000
  70
    32
  0
VERTEX
  8
┌▓È_1
  5
E75
 10
35.5438
 20
-90.9267
 30
0.000000
  70
    32
  0
VERTEX
  8
┌▓È_1
  5
E76
 10
35.8733
 20
-91.1922
 30
0.000000
  70
    32
  0
VERTEX
  8
┌▓È_1
  5
E77
 10
36.2040
 20
-91.4576
 30
0.000000
  70
    32
  0
VERTEX
  8
┌▓È_1
  5
E78
 10
36.5356
 20
-91.7228
 30
0.000000
  70
    32
  0
VERTEX
  8
┌▓È_1
  5
E79
 10
36.8675
 20
-91.9880
 30
0.000000
  70
    32
  0
VERTEX
  8
┌▓È_1
  5
E7A
 10
37.1995
 20
-92.2531
 30
0.000000
  70
    32
  0
VERTEX
  8
┌▓È_1
  5
E7B
 10
37.5310
 20
-92.5184
 30
0.000000
  70
    32
  0
VERTEX
  8
┌▓È_1
  5
E7C
 10
37.8617
 20
-92.7837
 30
0.000000
  70
    32
  0
VERTEX
  8
┌▓È_1
  5
E7D
 10
38.1910
 20
-93.0492
 30
0.000000
  70
    32
  0
VERTEX
  8
┌▓È_1
  5
E7E
 10
38.5187
 20
-93.3150
 30
0.000000
  70
    32
  0
VERTEX
  8
┌▓È_1
  5
E7F
 10
38.8442
 20
-93.5810
 30
0.000000
  70
    32
  0
VERTEX
  8
┌▓È_1
  5
E80
 10
39.1671
 20
-93.8474
 30
0.000000
  70
    32
  0
VERTEX
  8
┌▓È_1
  5
E81
 10
39.4870
 20
-94.1141
 30
0.000000
  70
    32
  0
VERTEX
  8
┌▓È_1
  5
E82
 10
39.8035
 20
-94.3814
 30
0.000000
  70
    32
  0
VERTEX
  8
┌▓È_1
  5
E83
 10
40.1161
 20
-94.6491
 30
0.000000
  70
    32
  0
VERTEX
  8
┌▓È_1
  5
E84
 10
40.4245
 20
-94.9174
 30
0.000000
  70
    32
  0
VERTEX
  8
┌▓È_1
  5
E85
 10
40.7281
 20
-95.1863
 30
0.000000
  70
    32
  0
VERTEX
  8
┌▓È_1
  5
E86
 10
41.0267
 20
-95.4558
 30
0.000000
  70
    32
  0
VERTEX
  8
┌▓È_1
  5
E87
 10
41.3196
 20
-95.7261
 30
0.000000
  70
    32
  0
VERTEX
  8
┌▓È_1
  5
E88
 10
41.6066
 20
-95.9972
 30
0.000000
  70
    32
  0
VERTEX
  8
┌▓È_1
  5
E89
 10
41.8872
 20
-96.2692
 30
0.000000
  70
    32
  0
VERTEX
  8
┌▓È_1
  5
E8A
 10
42.1610
 20
-96.5420
 30
0.000000
  70
    32
  0
VERTEX
  8
┌▓È_1
  5
E8B
 10
42.4275
 20
-96.8158
 30
0.000000
  70
    32
  0
VERTEX
  8
┌▓È_1
  5
E8C
 10
42.6863
 20
-97.0906
 30
0.000000
  70
    32
  0
VERTEX
  8
┌▓È_1
  5
E8D
 10
42.9370
 20
-97.3665
 30
0.000000
  70
    32
  0
VERTEX
  8
┌▓È_1
  5
E8E
 10
43.1791
 20
-97.6435
 30
0.000000
  70
    32
  0
VERTEX
  8
┌▓È_1
  5
E8F
 10
43.4123
 20
-97.9217
 30
0.000000
  70
    32
  0
VERTEX
  8
┌▓È_1
  5
E90
 10
43.6361
 20
-98.2011
 30
0.000000
  70
    32
  0
VERTEX
  8
┌▓È_1
  5
E91
 10
43.8501
 20
-98.4818
 30
0.000000
  70
    32
  0
VERTEX
  8
┌▓È_1
  5
E92
 10
44.0538
 20
-98.7639
 30
0.000000
  70
    32
  0
VERTEX
  8
┌▓È_1
  5
E93
 10
44.2469
 20
-99.0473
 30
0.000000
  70
    32
  0
VERTEX
  8
┌▓È_1
  5
E94
 10
44.4289
 20
-99.3323
 30
0.000000
  70
    32
  0
VERTEX
  8
┌▓È_1
  5
E95
 10
44.5993
 20
-99.6187
 30
0.000000
  70
    32
  0
VERTEX
  8
┌▓È_1
  5
E96
 10
44.7579
 20
-99.9067
 30
0.000000
  70
    32
  0
VERTEX
  8
┌▓È_1
  5
E97
 10
44.9045
 20
-100.196
 30
0.000000
  70
    32
  0
VERTEX
  8
┌▓È_1
  5
E98
 10
45.0394
 20
-100.487
 30
0.000000
  70
    32
  0
VERTEX
  8
┌▓È_1
  5
E99
 10
45.1626
 20
-100.780
 30
0.000000
  70
    32
  0
VERTEX
  8
┌▓È_1
  5
E9A
 10
45.2743
 20
-101.074
 30
0.000000
  70
    32
  0
VERTEX
  8
┌▓È_1
  5
E9B
 10
45.3745
 20
-101.370
 30
0.000000
  70
    32
  0
VERTEX
  8
┌▓È_1
  5
E9C
 10
45.4636
 20
-101.667
 30
0.000000
  70
    32
  0
VERTEX
  8
┌▓È_1
  5
E9D
 10
45.5415
 20
-101.966
 30
0.000000
  70
    32
  0
VERTEX
  8
┌▓È_1
  5
E9E
 10
45.6085
 20
-102.266
 30
0.000000
  70
    32
  0
VERTEX
  8
┌▓È_1
  5
E9F
 10
45.6646
 20
-102.567
 30
0.000000
  70
    32
  0
VERTEX
  8
┌▓È_1
  5
EA0
 10
45.7101
 20
-102.870
 30
0.000000
  70
    32
  0
VERTEX
  8
┌▓È_1
  5
EA1
 10
45.7449
 20
-103.174
 30
0.000000
  70
    32
  0
VERTEX
  8
┌▓È_1
  5
EA2
 10
45.7693
 20
-103.480
 30
0.000000
  70
    32
  0
VERTEX
  8
┌▓È_1
  5
EA3
 10
45.7835
 20
-103.787
 30
0.000000
  70
    32
  0
VERTEX
  8
┌▓È_1
  5
EA4
 10
45.7875
 20
-104.095
 30
0.000000
  70
    32
  0
VERTEX
  8
┌▓È_1
  5
EA5
 10
45.7814
 20
-104.405
 30
0.000000
  70
    32
  0
VERTEX
  8
┌▓È_1
  5
EA6
 10
45.7655
 20
-104.716
 30
0.000000
  70
    32
  0
VERTEX
  8
┌▓È_1
  5
EA7
 10
45.7398
 20
-105.028
 30
0.000000
  70
    32
  0
VERTEX
  8
┌▓È_1
  5
EA8
 10
45.7045
 20
-105.342
 30
0.000000
  70
    32
  0
VERTEX
  8
┌▓È_1
  5
EA9
 10
45.6597
 20
-105.657
 30
0.000000
  70
    32
  0
VERTEX
  8
┌▓È_1
  5
EAA
 10
45.6056
 20
-105.973
 30
0.000000
  70
    32
  0
VERTEX
  8
┌▓È_1
  5
EAB
 10
45.5423
 20
-106.290
 30
0.000000
  70
    32
  0
VERTEX
  8
┌▓È_1
  5
EAC
 10
45.4699
 20
-106.608
 30
0.000000
  70
    32
  0
VERTEX
  8
┌▓È_1
  5
EAD
 10
45.3886
 20
-106.928
 30
0.000000
  70
    32
  0
VERTEX
  8
┌▓È_1
  5
EAE
 10
45.2985
 20
-107.249
 30
0.000000
  70
    32
  0
VERTEX
  8
┌▓È_1
  5
EAF
 10
45.1997
 20
-107.571
 30
0.000000
  70
    32
  0
VERTEX
  8
┌▓È_1
  5
EB0
 10
45.0924
 20
-107.894
 30
0.000000
  70
    32
  0
VERTEX
  8
┌▓È_1
  5
EB1
 10
44.9766
 20
-108.218
 30
0.000000
  70
    32
  0
VERTEX
  8
┌▓È_1
  5
EB2
 10
44.8527
 20
-108.543
 30
0.000000
  70
    32
  0
VERTEX
  8
┌▓È_1
  5
EB3
 10
44.7206
 20
-108.869
 30
0.000000
  70
    32
  0
VERTEX
  8
┌▓È_1
  5
EB4
 10
44.5805
 20
-109.196
 30
0.000000
  70
    32
  0
VERTEX
  8
┌▓È_1
  5
EB5
 10
44.4326
 20
-109.525
 30
0.000000
  70
    32
  0
VERTEX
  8
┌▓È_1
  5
EB6
 10
44.2770
 20
-109.854
 30
0.000000
  70
    32
  0
VERTEX
  8
┌▓È_1
  5
EB7
 10
44.1138
 20
-110.185
 30
0.000000
  70
    32
  0
VERTEX
  8
┌▓È_1
  5
EB8
 10
43.9432
 20
-110.516
 30
0.000000
  70
    32
  0
VERTEX
  8
┌▓È_1
  5
EB9
 10
43.7652
 20
-110.848
 30
0.000000
  70
    32
  0
VERTEX
  8
┌▓È_1
  5
EBA
 10
43.5801
 20
-111.181
 30
0.000000
  70
    32
  0
VERTEX
  8
┌▓È_1
  5
EBB
 10
43.3880
 20
-111.516
 30
0.000000
  70
    32
  0
VERTEX
  8
┌▓È_1
  5
EBC
 10
43.1889
 20
-111.851
 30
0.000000
  70
    32
  0
VERTEX
  8
┌▓È_1
  5
EBD
 10
42.9831
 20
-112.187
 30
0.000000
  70
    32
  0
VERTEX
  8
┌▓È_1
  5
EBE
 10
42.7707
 20
-112.524
 30
0.000000
  70
    32
  0
VERTEX
  8
┌▓È_1
  5
EBF
 10
42.5518
 20
-112.861
 30
0.000000
  70
    32
  0
VERTEX
  8
┌▓È_1
  5
EC0
 10
42.3265
 20
-113.200
 30
0.000000
  70
    32
  0
VERTEX
  8
┌▓È_1
  5
EC1
 10
42.0950
 20
-113.539
 30
0.000000
  70
    32
  0
VERTEX
  8
┌▓È_1
  5
EC2
 10
41.8575
 20
-113.879
 30
0.000000
  70
    32
  0
VERTEX
  8
┌▓È_1
  5
EC3
 10
41.6140
 20
-114.220
 30
0.000000
  70
    32
  0
VERTEX
  8
┌▓È_1
  5
EC4
 10
41.3646
 20
-114.562
 30
0.000000
  70
    32
  0
VERTEX
  8
┌▓È_1
  5
EC5
 10
41.1097
 20
-114.904
 30
0.000000
  70
    32
  0
VERTEX
  8
┌▓È_1
  5
EC6
 10
40.8491
 20
-115.248
 30
0.000000
  70
    32
  0
VERTEX
  8
┌▓È_1
  5
EC7
 10
40.5832
 20
-115.591
 30
0.000000
  70
    32
  0
VERTEX
  8
┌▓È_1
  5
EC8
 10
40.3120
 20
-115.936
 30
0.000000
  70
    32
  0
VERTEX
  8
┌▓È_1
  5
EC9
 10
40.0357
 20
-116.281
 30
0.000000
  70
    32
  0
SEQEND
  8
┌▓È_1
  5
ECA
  0
POLYLINE
  8
┌▓È_1
  5
ECB
  66
     1
 10
0.000000
 20
0.000000
 30
0.000000
  70
     8
  0
VERTEX
  8
┌▓È_1
  5
ECC
 10
28.5885
 20
37.9296
 30
0.000000
  70
    32
  0
VERTEX
  8
┌▓È_1
  5
ECD
 10
28.3681
 20
37.6473
 30
0.000000
  70
    32
  0
VERTEX
  8
┌▓È_1
  5
ECE
 10
28.1513
 20
37.3656
 30
0.000000
  70
    32
  0
VERTEX
  8
┌▓È_1
  5
ECF
 10
27.9383
 20
37.0843
 30
0.000000
  70
    32
  0
VERTEX
  8
┌▓È_1
  5
ED0
 10
27.7291
 20
36.8036
 30
0.000000
  70
    32
  0
VERTEX
  8
┌▓È_1
  5
ED1
 10
27.5238
 20
36.5233
 30
0.000000
  70
    32
  0
VERTEX
  8
┌▓È_1
  5
ED2
 10
27.3225
 20
36.2436
 30
0.000000
  70
    32
  0
VERTEX
  8
┌▓È_1
  5
ED3
 10
27.1253
 20
35.9644
 30
0.000000
  70
    32
  0
VERTEX
  8
┌▓È_1
  5
ED4
 10
26.9323
 20
35.6858
 30
0.000000
  70
    32
  0
VERTEX
  8
┌▓È_1
  5
ED5
 10
26.7435
 20
35.4077
 30
0.000000
  70
    32
  0
VERTEX
  8
┌▓È_1
  5
ED6
 10
26.5590
 20
35.1303
 30
0.000000
  70
    32
  0
VERTEX
  8
┌▓È_1
  5
ED7
 10
26.3790
 20
34.8533
 30
0.000000
  70
    32
  0
VERTEX
  8
┌▓È_1
  5
ED8
 10
26.2035
 20
34.5770
 30
0.000000
  70
    32
  0
VERTEX
  8
┌▓È_1
  5
ED9
 10
26.0326
 20
34.3013
 30
0.000000
  70
    32
  0
VERTEX
  8
┌▓È_1
  5
EDA
 10
25.8664
 20
34.0262
 30
0.000000
  70
    32
  0
VERTEX
  8
┌▓È_1
  5
EDB
 10
25.7049
 20
33.7517
 30
0.000000
  70
    32
  0
VERTEX
  8
┌▓È_1
  5
EDC
 10
25.5483
 20
33.4779
 30
0.000000
  70
    32
  0
VERTEX
  8
┌▓È_1
  5
EDD
 10
25.3966
 20
33.2047
 30
0.000000
  70
    32
  0
VERTEX
  8
┌▓È_1
  5
EDE
 10
25.2500
 20
32.9322
 30
0.000000
  70
    32
  0
VERTEX
  8
┌▓È_1
  5
EDF
 10
25.1084
 20
32.6604
 30
0.000000
  70
    32
  0
VERTEX
  8
┌▓È_1
  5
EE0
 10
24.9721
 20
32.3892
 30
0.000000
  70
    32
  0
VERTEX
  8
┌▓È_1
  5
EE1
 10
24.8410
 20
32.1187
 30
0.000000
  70
    32
  0
VERTEX
  8
┌▓È_1
  5
EE2
 10
24.7152
 20
31.8490
 30
0.000000
  70
    32
  0
VERTEX
  8
┌▓È_1
  5
EE3
 10
24.5949
 20
31.5799
 30
0.000000
  70
    32
  0
VERTEX
  8
┌▓È_1
  5
EE4
 10
24.4801
 20
31.3116
 30
0.000000
  70
    32
  0
VERTEX
  8
┌▓È_1
  5
EE5
 10
24.3710
 20
31.0440
 30
0.000000
  70
    32
  0
VERTEX
  8
┌▓È_1
  5
EE6
 10
24.2675
 20
30.7772
 30
0.000000
  70
    32
  0
VERTEX
  8
┌▓È_1
  5
EE7
 10
24.1698
 20
30.5111
 30
0.000000
  70
    32
  0
VERTEX
  8
┌▓È_1
  5
EE8
 10
24.0780
 20
30.2458
 30
0.000000
  70
    32
  0
VERTEX
  8
┌▓È_1
  5
EE9
 10
23.9921
 20
29.9813
 30
0.000000
  70
    32
  0
VERTEX
  8
┌▓È_1
  5
EEA
 10
23.9123
 20
29.7176
 30
0.000000
  70
    32
  0
VERTEX
  8
┌▓È_1
  5
EEB
 10
23.8385
 20
29.4546
 30
0.000000
  70
    32
  0
VERTEX
  8
┌▓È_1
  5
EEC
 10
23.7710
 20
29.1925
 30
0.000000
  70
    32
  0
VERTEX
  8
┌▓È_1
  5
EED
 10
23.7098
 20
28.9313
 30
0.000000
  70
    32
  0
VERTEX
  8
┌▓È_1
  5
EEE
 10
23.6549
 20
28.6708
 30
0.000000
  70
    32
  0
VERTEX
  8
┌▓È_1
  5
EEF
 10
23.6065
 20
28.4113
 30
0.000000
  70
    32
  0
VERTEX
  8
┌▓È_1
  5
EF0
 10
23.5647
 20
28.1525
 30
0.000000
  70
    32
  0
VERTEX
  8
┌▓È_1
  5
EF1
 10
23.5294
 20
27.8947
 30
0.000000
  70
    32
  0
VERTEX
  8
┌▓È_1
  5
EF2
 10
23.5009
 20
27.6377
 30
0.000000
  70
    32
  0
VERTEX
  8
┌▓È_1
  5
EF3
 10
23.4792
 20
27.3816
 30
0.000000
  70
    32
  0
VERTEX
  8
┌▓È_1
  5
EF4
 10
23.4643
 20
27.1265
 30
0.000000
  70
    32
  0
VERTEX
  8
┌▓È_1
  5
EF5
 10
23.4565
 20
26.8722
 30
0.000000
  70
    32
  0
VERTEX
  8
┌▓È_1
  5
EF6
 10
23.4556
 20
26.6189
 30
0.000000
  70
    32
  0
VERTEX
  8
┌▓È_1
  5
EF7
 10
23.4620
 20
26.3665
 30
0.000000
  70
    32
  0
VERTEX
  8
┌▓È_1
  5
EF8
 10
23.4755
 20
26.1151
 30
0.000000
  70
    32
  0
VERTEX
  8
┌▓È_1
  5
EF9
 10
23.4963
 20
25.8646
 30
0.000000
  70
    32
  0
VERTEX
  8
┌▓È_1
  5
EFA
 10
23.5245
 20
25.6151
 30
0.000000
  70
    32
  0
VERTEX
  8
┌▓È_1
  5
EFB
 10
23.5602
 20
25.3666
 30
0.000000
  70
    32
  0
VERTEX
  8
┌▓È_1
  5
EFC
 10
23.6035
 20
25.1191
 30
0.000000
  70
    32
  0
VERTEX
  8
┌▓È_1
  5
EFD
 10
23.6544
 20
24.8726
 30
0.000000
  70
    32
  0
VERTEX
  8
┌▓È_1
  5
EFE
 10
23.7130
 20
24.6271
 30
0.000000
  70
    32
  0
VERTEX
  8
┌▓È_1
  5
EFF
 10
23.7794
 20
24.3826
 30
0.000000
  70
    32
  0
VERTEX
  8
┌▓È_1
  5
F00
 10
23.8538
 20
24.1392
 30
0.000000
  70
    32
  0
VERTEX
  8
┌▓È_1
  5
F01
 10
23.9361
 20
23.8968
 30
0.000000
  70
    32
  0
VERTEX
  8
┌▓È_1
  5
F02
 10
24.0264
 20
23.6555
 30
0.000000
  70
    32
  0
VERTEX
  8
┌▓È_1
  5
F03
 10
24.1250
 20
23.4153
 30
0.000000
  70
    32
  0
VERTEX
  8
┌▓È_1
  5
F04
 10
24.2317
 20
23.1761
 30
0.000000
  70
    32
  0
VERTEX
  8
┌▓È_1
  5
F05
 10
24.3468
 20
22.9381
 30
0.000000
  70
    32
  0
VERTEX
  8
┌▓È_1
  5
F06
 10
24.4703
 20
22.7011
 30
0.000000
  70
    32
  0
VERTEX
  8
┌▓È_1
  5
F07
 10
24.6020
 20
22.4652
 30
0.000000
  70
    32
  0
VERTEX
  8
┌▓È_1
  5
F08
 10
24.7417
 20
22.2304
 30
0.000000
  70
    32
  0
VERTEX
  8
┌▓È_1
  5
F09
 10
24.8892
 20
21.9966
 30
0.000000
  70
    32
  0
VERTEX
  8
┌▓È_1
  5
F0A
 10
25.0442
 20
21.7638
 30
0.000000
  70
    32
  0
VERTEX
  8
┌▓È_1
  5
F0B
 10
25.2065
 20
21.5320
 30
0.000000
  70
    32
  0
VERTEX
  8
┌▓È_1
  5
F0C
 10
25.3759
 20
21.3011
 30
0.000000
  70
    32
  0
VERTEX
  8
┌▓È_1
  5
F0D
 10
25.5521
 20
21.0710
 30
0.000000
  70
    32
  0
VERTEX
  8
┌▓È_1
  5
F0E
 10
25.7349
 20
20.8419
 30
0.000000
  70
    32
  0
VERTEX
  8
┌▓È_1
  5
F0F
 10
25.9241
 20
20.6136
 30
0.000000
  70
    32
  0
VERTEX
  8
┌▓È_1
  5
F10
 10
26.1193
 20
20.3861
 30
0.000000
  70
    32
  0
VERTEX
  8
┌▓È_1
  5
F11
 10
26.3205
 20
20.1594
 30
0.000000
  70
    32
  0
VERTEX
  8
┌▓È_1
  5
F12
 10
26.5274
 20
19.9334
 30
0.000000
  70
    32
  0
VERTEX
  8
┌▓È_1
  5
F13
 10
26.7396
 20
19.7081
 30
0.000000
  70
    32
  0
VERTEX
  8
┌▓È_1
  5
F14
 10
26.9571
 20
19.4835
 30
0.000000
  70
    32
  0
VERTEX
  8
┌▓È_1
  5
F15
 10
27.1794
 20
19.2596
 30
0.000000
  70
    32
  0
VERTEX
  8
┌▓È_1
  5
F16
 10
27.4066
 20
19.0363
 30
0.000000
  70
    32
  0
VERTEX
  8
┌▓È_1
  5
F17
 10
27.6382
 20
18.8136
 30
0.000000
  70
    32
  0
VERTEX
  8
┌▓È_1
  5
F18
 10
27.8740
 20
18.5914
 30
0.000000
  70
    32
  0
VERTEX
  8
┌▓È_1
  5
F19
 10
28.1139
 20
18.3698
 30
0.000000
  70
    32
  0
VERTEX
  8
┌▓È_1
  5
F1A
 10
28.3575
 20
18.1486
 30
0.000000
  70
    32
  0
VERTEX
  8
┌▓È_1
  5
F1B
 10
28.6047
 20
17.9280
 30
0.000000
  70
    32
  0
VERTEX
  8
┌▓È_1
  5
F1C
 10
28.8552
 20
17.7077
 30
0.000000
  70
    32
  0
VERTEX
  8
┌▓È_1
  5
F1D
 10
29.1087
 20
17.4879
 30
0.000000
  70
    32
  0
VERTEX
  8
┌▓È_1
  5
F1E
 10
29.3651
 20
17.2684
 30
0.000000
  70
    32
  0
VERTEX
  8
┌▓È_1
  5
F1F
 10
29.6241
 20
17.0493
 30
0.000000
  70
    32
  0
VERTEX
  8
┌▓È_1
  5
F20
 10
29.8855
 20
16.8305
 30
0.000000
  70
    32
  0
VERTEX
  8
┌▓È_1
  5
F21
 10
30.1490
 20
16.6120
 30
0.000000
  70
    32
  0
VERTEX
  8
┌▓È_1
  5
F22
 10
30.4144
 20
16.3937
 30
0.000000
  70
    32
  0
VERTEX
  8
┌▓È_1
  5
F23
 10
30.6815
 20
16.1757
 30
0.000000
  70
    32
  0
VERTEX
  8
┌▓È_1
  5
F24
 10
30.9500
 20
15.9578
 30
0.000000
  70
    32
  0
VERTEX
  8
┌▓È_1
  5
F25
 10
31.2197
 20
15.7401
 30
0.000000
  70
    32
  0
VERTEX
  8
┌▓È_1
  5
F26
 10
31.4904
 20
15.5225
 30
0.000000
  70
    32
  0
VERTEX
  8
┌▓È_1
  5
F27
 10
31.7618
 20
15.3051
 30
0.000000
  70
    32
  0
VERTEX
  8
┌▓È_1
  5
F28
 10
32.0337
 20
15.0876
 30
0.000000
  70
    32
  0
VERTEX
  8
┌▓È_1
  5
F29
 10
32.3058
 20
14.8703
 30
0.000000
  70
    32
  0
VERTEX
  8
┌▓È_1
  5
F2A
 10
32.5780
 20
14.6529
 30
0.000000
  70
    32
  0
VERTEX
  8
┌▓È_1
  5
F2B
 10
32.8500
 20
14.4355
 30
0.000000
  70
    32
  0
VERTEX
  8
┌▓È_1
  5
F2C
 10
33.1215
 20
14.2180
 30
0.000000
  70
    32
  0
VERTEX
  8
┌▓È_1
  5
F2D
 10
33.3923
 20
14.0005
 30
0.000000
  70
    32
  0
VERTEX
  8
┌▓È_1
  5
F2E
 10
33.6622
 20
13.7828
 30
0.000000
  70
    32
  0
VERTEX
  8
┌▓È_1
  5
F2F
 10
33.9310
 20
13.5649
 30
0.000000
  70
    32
  0
VERTEX
  8
┌▓È_1
  5
F30
 10
34.1984
 20
13.3469
 30
0.000000
  70
    32
  0
VERTEX
  8
┌▓È_1
  5
F31
 10
34.4641
 20
13.1287
 30
0.000000
  70
    32
  0
VERTEX
  8
┌▓È_1
  5
F32
 10
34.7280
 20
12.9102
 30
0.000000
  70
    32
  0
VERTEX
  8
┌▓È_1
  5
F33
 10
34.9899
 20
12.6915
 30
0.000000
  70
    32
  0
VERTEX
  8
┌▓È_1
  5
F34
 10
35.2493
 20
12.4725
 30
0.000000
  70
    32
  0
VERTEX
  8
┌▓È_1
  5
F35
 10
35.5063
 20
12.2531
 30
0.000000
  70
    32
  0
VERTEX
  8
┌▓È_1
  5
F36
 10
35.7604
 20
12.0333
 30
0.000000
  70
    32
  0
VERTEX
  8
┌▓È_1
  5
F37
 10
36.0115
 20
11.8132
 30
0.000000
  70
    32
  0
VERTEX
  8
┌▓È_1
  5
F38
 10
36.2594
 20
11.5926
 30
0.000000
  70
    32
  0
VERTEX
  8
┌▓È_1
  5
F39
 10
36.5037
 20
11.3715
 30
0.000000
  70
    32
  0
VERTEX
  8
┌▓È_1
  5
F3A
 10
36.7443
 20
11.1500
 30
0.000000
  70
    32
  0
VERTEX
  8
┌▓È_1
  5
F3B
 10
36.9810
 20
10.9279
 30
0.000000
  70
    32
  0
VERTEX
  8
┌▓È_1
  5
F3C
 10
37.2134
 20
10.7053
 30
0.000000
  70
    32
  0
VERTEX
  8
┌▓È_1
  5
F3D
 10
37.4414
 20
10.4821
 30
0.000000
  70
    32
  0
VERTEX
  8
┌▓È_1
  5
F3E
 10
37.6648
 20
10.2583
 30
0.000000
  70
    32
  0
VERTEX
  8
┌▓È_1
  5
F3F
 10
37.8832
 20
10.0339
 30
0.000000
  70
    32
  0
VERTEX
  8
┌▓È_1
  5
F40
 10
38.0965
 20
9.80874
 30
0.000000
  70
    32
  0
VERTEX
  8
┌▓È_1
  5
F41
 10
38.3044
 20
9.58291
 30
0.000000
  70
    32
  0
VERTEX
  8
┌▓È_1
  5
F42
 10
38.5067
 20
9.35633
 30
0.000000
  70
    32
  0
VERTEX
  8
┌▓È_1
  5
F43
 10
38.7032
 20
9.12898
 30
0.000000
  70
    32
  0
VERTEX
  8
┌▓È_1
  5
F44
 10
38.8936
 20
8.90083
 30
0.000000
  70
    32
  0
VERTEX
  8
┌▓È_1
  5
F45
 10
39.0776
 20
8.67185
 30
0.000000
  70
    32
  0
VERTEX
  8
┌▓È_1
  5
F46
 10
39.2551
 20
8.44201
 30
0.000000
  70
    32
  0
VERTEX
  8
┌▓È_1
  5
F47
 10
39.4259
 20
8.21128
 30
0.000000
  70
    32
  0
VERTEX
  8
┌▓È_1
  5
F48
 10
39.5896
 20
7.97962
 30
0.000000
  70
    32
  0
VERTEX
  8
┌▓È_1
  5
F49
 10
39.7460
 20
7.74701
 30
0.000000
  70
    32
  0
VERTEX
  8
┌▓È_1
  5
F4A
 10
39.8950
 20
7.51341
 30
0.000000
  70
    32
  0
VERTEX
  8
┌▓È_1
  5
F4B
 10
40.0363
 20
7.27879
 30
0.000000
  70
    32
  0
VERTEX
  8
┌▓È_1
  5
F4C
 10
40.1695
 20
7.04313
 30
0.000000
  70
    32
  0
VERTEX
  8
┌▓È_1
  5
F4D
 10
40.2948
 20
6.80640
 30
0.000000
  70
    32
  0
VERTEX
  8
┌▓È_1
  5
F4E
 10
40.4121
 20
6.56863
 30
0.000000
  70
    32
  0
VERTEX
  8
┌▓È_1
  5
F4F
 10
40.5214
 20
6.32982
 30
0.000000
  70
    32
  0
VERTEX
  8
┌▓È_1
  5
F50
 10
40.6230
 20
6.08998
 30
0.000000
  70
    32
  0
VERTEX
  8
┌▓È_1
  5
F51
 10
40.7168
 20
5.84911
 30
0.000000
  70
    32
  0
VERTEX
  8
┌▓È_1
  5
F52
 10
40.8029
 20
5.60724
 30
0.000000
  70
    32
  0
VERTEX
  8
┌▓È_1
  5
F53
 10
40.8814
 20
5.36436
 30
0.000000
  70
    32
  0
VERTEX
  8
┌▓È_1
  5
F54
 10
40.9524
 20
5.12049
 30
0.000000
  70
    32
  0
VERTEX
  8
┌▓È_1
  5
F55
 10
41.0159
 20
4.87564
 30
0.000000
  70
    32
  0
VERTEX
  8
┌▓È_1
  5
F56
 10
41.0720
 20
4.62982
 30
0.000000
  70
    32
  0
VERTEX
  8
┌▓È_1
  5
F57
 10
41.1209
 20
4.38304
 30
0.000000
  70
    32
  0
VERTEX
  8
┌▓È_1
  5
F58
 10
41.1625
 20
4.13531
 30
0.000000
  70
    32
  0
VERTEX
  8
┌▓È_1
  5
F59
 10
41.1969
 20
3.88663
 30
0.000000
  70
    32
  0
VERTEX
  8
┌▓È_1
  5
F5A
 10
41.2243
 20
3.63702
 30
0.000000
  70
    32
  0
VERTEX
  8
┌▓È_1
  5
F5B
 10
41.2447
 20
3.38649
 30
0.000000
  70
    32
  0
VERTEX
  8
┌▓È_1
  5
F5C
 10
41.2581
 20
3.13505
 30
0.000000
  70
    32
  0
VERTEX
  8
┌▓È_1
  5
F5D
 10
41.2647
 20
2.88271
 30
0.000000
  70
    32
  0
VERTEX
  8
┌▓È_1
  5
F5E
 10
41.2645
 20
2.62947
 30
0.000000
  70
    32
  0
VERTEX
  8
┌▓È_1
  5
F5F
 10
41.2576
 20
2.37535
 30
0.000000
  70
    32
  0
VERTEX
  8
┌▓È_1
  5
F60
 10
41.2441
 20
2.12036
 30
0.000000
  70
    32
  0
VERTEX
  8
┌▓È_1
  5
F61
 10
41.2240
 20
1.86450
 30
0.000000
  70
    32
  0
VERTEX
  8
┌▓È_1
  5
F62
 10
41.1974
 20
1.60779
 30
0.000000
  70
    32
  0
VERTEX
  8
┌▓È_1
  5
F63
 10
41.1645
 20
1.35024
 30
0.000000
  70
    32
  0
VERTEX
  8
┌▓È_1
  5
F64
 10
41.1252
 20
1.09185
 30
0.000000
  70
    32
  0
VERTEX
  8
┌▓È_1
  5
F65
 10
41.0796
 20
0.832644
 30
0.000000
  70
    32
  0
VERTEX
  8
┌▓È_1
  5
F66
 10
41.0279
 20
0.572621
 30
0.000000
  70
    32
  0
VERTEX
  8
┌▓È_1
  5
F67
 10
40.9700
 20
0.311794
 30
0.000000
  70
    32
  0
VERTEX
  8
┌▓È_1
  5
F68
 10
40.9061
 20
0.0501731
 30
0.000000
  70
    32
  0
VERTEX
  8
┌▓È_1
  5
F69
 10
40.8363
 20
-0.212232
 30
0.000000
  70
    32
  0
VERTEX
  8
┌▓È_1
  5
F6A
 10
40.7606
 20
-0.475412
 30
0.000000
  70
    32
  0
VERTEX
  8
┌▓È_1
  5
F6B
 10
40.6791
 20
-0.739356
 30
0.000000
  70
    32
  0
VERTEX
  8
┌▓È_1
  5
F6C
 10
40.5918
 20
-1.00405
 30
0.000000
  70
    32
  0
VERTEX
  8
┌▓È_1
  5
F6D
 10
40.4989
 20
-1.26950
 30
0.000000
  70
    32
  0
VERTEX
  8
┌▓È_1
  5
F6E
 10
40.4004
 20
-1.53568
 30
0.000000
  70
    32
  0
VERTEX
  8
┌▓È_1
  5
F6F
 10
40.2964
 20
-1.80258
 30
0.000000
  70
    32
  0
VERTEX
  8
┌▓È_1
  5
F70
 10
40.1870
 20
-2.07020
 30
0.000000
  70
    32
  0
VERTEX
  8
┌▓È_1
  5
F71
 10
40.0722
 20
-2.33852
 30
0.000000
  70
    32
  0
VERTEX
  8
┌▓È_1
  5
F72
 10
39.9521
 20
-2.60754
 30
0.000000
  70
    32
  0
VERTEX
  8
┌▓È_1
  5
F73
 10
39.8269
 20
-2.87725
 30
0.000000
  70
    32
  0
VERTEX
  8
┌▓È_1
  5
F74
 10
39.6965
 20
-3.14763
 30
0.000000
  70
    32
  0
VERTEX
  8
┌▓È_1
  5
F75
 10
39.5610
 20
-3.41867
 30
0.000000
  70
    32
  0
VERTEX
  8
┌▓È_1
  5
F76
 10
39.4205
 20
-3.69037
 30
0.000000
  70
    32
  0
VERTEX
  8
┌▓È_1
  5
F77
 10
39.2752
 20
-3.96272
 30
0.000000
  70
    32
  0
VERTEX
  8
┌▓È_1
  5
F78
 10
39.1250
 20
-4.23571
 30
0.000000
  70
    32
  0
VERTEX
  8
┌▓È_1
  5
F79
 10
38.9700
 20
-4.50932
 30
0.000000
  70
    32
  0
VERTEX
  8
┌▓È_1
  5
F7A
 10
38.8104
 20
-4.78355
 30
0.000000
  70
    32
  0
VERTEX
  8
┌▓È_1
  5
F7B
 10
38.6462
 20
-5.05838
 30
0.000000
  70
    32
  0
VERTEX
  8
┌▓È_1
  5
F7C
 10
38.4774
 20
-5.33381
 30
0.000000
  70
    32
  0
VERTEX
  8
┌▓È_1
  5
F7D
 10
38.3041
 20
-5.60983
 30
0.000000
  70
    32
  0
VERTEX
  8
┌▓È_1
  5
F7E
 10
38.1265
 20
-5.88643
 30
0.000000
  70
    32
  0
VERTEX
  8
┌▓È_1
  5
F7F
 10
37.9446
 20
-6.16359
 30
0.000000
  70
    32
  0
VERTEX
  8
┌▓È_1
  5
F80
 10
37.7584
 20
-6.44131
 30
0.000000
  70
    32
  0
VERTEX
  8
┌▓È_1
  5
F81
 10
37.5681
 20
-6.71958
 30
0.000000
  70
    32
  0
VERTEX
  8
┌▓È_1
  5
F82
 10
37.3737
 20
-6.99839
 30
0.000000
  70
    32
  0
VERTEX
  8
┌▓È_1
  5
F83
 10
37.1753
 20
-7.27772
 30
0.000000
  70
    32
  0
VERTEX
  8
┌▓È_1
  5
F84
 10
36.9729
 20
-7.55757
 30
0.000000
  70
    32
  0
VERTEX
  8
┌▓È_1
  5
F85
 10
36.7667
 20
-7.83793
 30
0.000000
  70
    32
  0
VERTEX
  8
┌▓È_1
  5
F86
 10
36.5567
 20
-8.11879
 30
0.000000
  70
    32
  0
VERTEX
  8
┌▓È_1
  5
F87
 10
36.3430
 20
-8.40013
 30
0.000000
  70
    32
  0
VERTEX
  8
┌▓È_1
  5
F88
 10
36.1257
 20
-8.68196
 30
0.000000
  70
    32
  0
VERTEX
  8
┌▓È_1
  5
F89
 10
35.9048
 20
-8.96425
 30
0.000000
  70
    32
  0
VERTEX
  8
┌▓È_1
  5
F8A
 10
35.6804
 20
-9.24701
 30
0.000000
  70
    32
  0
VERTEX
  8
┌▓È_1
  5
F8B
 10
35.4526
 20
-9.53021
 30
0.000000
  70
    32
  0
SEQEND
  8
┌▓È_1
  5
F8C
  0
INSERT
  5
3A0
  8
┌▓È_1
  2
*X23
 10
0.0
 20
0.0
 30
0.0
  0
INSERT
  5
471
  8
É}ÿg
  2
CLUMP10
 10
0.0
 20
0.0
 30
0.0
  0
LINE
  5
521
  8
┌▓È_1
  6
STITCH
 10
-242.54088541670001
 20
11.0385416667
 30
0.5
 11
36.86369812880001
 21
11.0385416667
 31
0.5
  0
LINE
  5
522
  8
┌▓È_1
 62
     5
 10
-242.54088541670001
 20
10.0385416667
 30
0.0
 11
37.878723747199999
 21
10.0385416667
 31
0.0
  0
LINE
  5
523
  8
┌▓È_1
  6
STITCH
 10
-242.54088541670001
 20
11.4885417299
 30
0.0
 11
36.374889483400011
 21
11.4885417299
 31
0.0
  0
INSERT
  5
525
  8
┌▓È_1
  6
STITCH
 62
     5
  2
CLUMP12
 10
0.0
 20
0.0
 30
0.0
  0
LINE
  5
5DB
  8
┌▓È_1
 62
     5
 10
41.00827599769999
 20
-95.439062500000006
 30
0.0
 11
-242.54088541670001
 21
-95.439062500000006
 31
0.0
  0
LINE
  5
5DC
  8
┌▓È_1
 62
     5
 10
-242.54088541670001
 20
112.9037760417
 30
0.0
 11
40.449202743899988
 21
112.9037760417
 31
0.0
  0
LINE
  5
5DD
  8
┌▓È_1
 62
     5
 10
-242.54088541670001
 20
114.8037760417
 30
0.0
 11
38.793024423799999
 21
114.8037760417
 31
0.0
  0
LINE
  5
5DE
  8
┌▓È_1
 62
     5
 10
-242.54088541670001
 20
8.8385416666999994
 30
0.0
 11
38.944328002100001
 21
8.8385416666999994
 31
0.0
  0
LINE
  5
5DF
  8
┌▓È_1
 62
     5
 10
-242.54088541670001
 20
12.338541666699999
 30
0.0
 11
35.406541202299998
 21
12.338541666699999
 31
0.0
  0
DIMENSION
  5
5EE
  8
Éíû@É³
  2
*D27
 10
-132.54088541670001
 20
-134.1305989583
 30
0.0
 11
47.4591145833
 21
-134.1305989583
 31
0.0
 70
   128
  1
P=160x10
 13
-132.54088541670001
 23
-92.696128443700005
 33
0.0
 14
227.45911458329999
 24
-92.638754626700006
 34
0.0
 50
180.0
  0
DIMENSION
  5
5FD
  8
Éíû@É³
  2
*D28
 10
322.95911458329999
 20
-45.033203125
 30
0.0
 11
52.959114583299993
 21
-45.033203125
 31
0.0
 70
   128
  1
P=20x89
 13
322.95911458329999
 23
-83.439062500000006
 33
0.0
 14
-217.04088541670001
 24
-83.439062500000006
 34
0.0
  0
DIMENSION
  5
60C
  8
Éíû@É³
  2
*D29
 10
337.45911458329999
 20
163.71393381749999
 30
0.0
 11
44.632545503000003
 21
163.71393381749999
 31
0.0
 70
   128
  1
1820
 13
337.45911458329999
 23
126.9037760417
 33
0.0
 14
-242.54088541670001
 24
126.9037760417
 34
0.0
  0
ENDSEC
  0
EOF
