  0
SECTION
  2
HEADER
  9
$ACADVER
  1
AC1009
  9
$INSBASE
 10
0.0
 20
0.0
 30
0.0
  9
$EXTMIN
 10
693.52936867410006
 20
-321.3514714941
 30
0.0
  9
$EXTMAX
 10
980.50066867409998
 20
-119.8716214941
 30
0.0
  9
$LIMMIN
 10
0.0
 20
0.0
  9
$LIMMAX
 10
0.0
 20
0.0
  9
$ORTHOMODE
 70
     0
  9
$REGENMODE
 70
     1
  9
$FILLMODE
 70
     1
  9
$QTEXTMODE
 70
     0
  9
$MIRRTEXT
 70
     1
  9
$DRAGMODE
 70
     2
  9
$LTSCALE
 40
1.0
  9
$OSMODE
 70
    31
  9
$ATTMODE
 70
     1
  9
$TEXTSIZE
 40
0.0
  9
$TRACEWID
 40
0.05
  9
$TEXTSTYLE
  7
STANDARD
  9
$CLAYER
  8
0
  9
$CELTYPE
  6
CONTINUOUS
  9
$CECOLOR
 62
   256
  9
$DIMSCALE
 40
1.0
  9
$DIMASZ
 40
0.18
  9
$DIMEXO
 40
0.0625
  9
$DIMDLI
 40
0.38
  9
$DIMRND
 40
0.0
  9
$DIMDLE
 40
0.0
  9
$DIMEXE
 40
0.18
  9
$DIMTP
 40
0.0
  9
$DIMTM
 40
0.0
  9
$DIMTXT
 40
0.18
  9
$DIMCEN
 40
0.09
  9
$DIMTSZ
 40
0.0
  9
$DIMTOL
 70
     0
  9
$DIMLIM
 70
     0
  9
$DIMTIH
 70
     1
  9
$DIMTOH
 70
     1
  9
$DIMSE1
 70
     0
  9
$DIMSE2
 70
     0
  9
$DIMTAD
 70
     0
  9
$DIMZIN
 70
     0
  9
$DIMBLK
  1

  9
$DIMASO
 70
     1
  9
$DIMSHO
 70
     1
  9
$DIMPOST
  1

  9
$DIMAPOST
  1

  9
$DIMALT
 70
     0
  9
$DIMALTD
 70
     2
  9
$DIMALTF
 40
25.399999999999999
  9
$DIMLFAC
 40
1.0
  9
$DIMTOFL
 70
     0
  9
$DIMTVP
 40
0.0
  9
$DIMTIX
 70
     0
  9
$DIMSOXD
 70
     0
  9
$DIMSAH
 70
     0
  9
$DIMBLK1
  1

  9
$DIMBLK2
  1

  9
$DIMSTYLE
  2
STANDARD
  9
$DIMCLRD
 70
     0
  9
$DIMCLRE
 70
     0
  9
$DIMCLRT
 70
     0
  9
$DIMTFAC
 40
1.0
  9
$DIMGAP
 40
0.09
  9
$LUNITS
 70
     2
  9
$LUPREC
 70
     4
  9
$SKETCHINC
 40
0.1
  9
$FILLETRAD
 40
0.0
  9
$AUNITS
 70
     0
  9
$AUPREC
 70
     0
  9
$MENU
  1
acad
  9
$ELEVATION
 40
0.0
  9
$PELEVATION
 40
0.0
  9
$THICKNESS
 40
0.0
  9
$LIMCHECK
 70
     0
  9
$BLIPMODE
 70
     0
  9
$CHAMFERA
 40
0.0
  9
$CHAMFERB
 40
0.0
  9
$SKPOLY
 70
     0
  9
$TDCREATE
 40
2454865.6473860652
  9
$TDUPDATE
 40
2454865.6475569559
  9
$TDINDWG
 40
0.0001806597
  9
$TDUSRTIMER
 40
0.0001803009
  9
$USRTIMER
 70
     1
  9
$ANGBASE
 50
0.0
  9
$ANGDIR
 70
     0
  9
$PDMODE
 70
     3
  9
$PDSIZE
 40
-1.0
  9
$PLINEWID
 40
0.0
  9
$COORDS
 70
     2
  9
$SPLFRAME
 70
     0
  9
$SPLINETYPE
 70
     6
  9
$SPLINESEGS
 70
     8
  9
$ATTDIA
 70
     0
  9
$ATTREQ
 70
     1
  9
$HANDLING
 70
     1
  9
$HANDSEED
  5
592
  9
$SURFTAB1
 70
     6
  9
$SURFTAB2
 70
     6
  9
$SURFTYPE
 70
     6
  9
$SURFU
 70
     6
  9
$SURFV
 70
     6
  9
$UCSNAME
  2

  9
$UCSORG
 10
0.0
 20
0.0
 30
0.0
  9
$UCSXDIR
 10
1.0
 20
0.0
 30
0.0
  9
$UCSYDIR
 10
0.0
 20
1.0
 30
0.0
  9
$PUCSNAME
  2

  9
$PUCSORG
 10
0.0
 20
0.0
 30
0.0
  9
$PUCSXDIR
 10
1.0
 20
0.0
 30
0.0
  9
$PUCSYDIR
 10
0.0
 20
1.0
 30
0.0
  9
$USERI1
 70
     0
  9
$USERI2
 70
     0
  9
$USERI3
 70
     0
  9
$USERI4
 70
     0
  9
$USERI5
 70
     0
  9
$USERR1
 40
0.0
  9
$USERR2
 40
0.0
  9
$USERR3
 40
0.0
  9
$USERR4
 40
0.0
  9
$USERR5
 40
0.0
  9
$WORLDVIEW
 70
     1
  9
$SHADEDGE
 70
     3
  9
$SHADEDIF
 70
    70
  9
$TILEMODE
 70
     1
  9
$MAXACTVP
 70
    16
  9
$PLIMCHECK
 70
     0
  9
$PEXTMIN
 10
1.0000000000000000E+020
 20
1.0000000000000000E+020
 30
1.0000000000000000E+020
  9
$PEXTMAX
 10
-1.0000000000000000E+020
 20
-1.0000000000000000E+020
 30
-1.0000000000000000E+020
  9
$PLIMMIN
 10
0.0
 20
0.0
  9
$PLIMMAX
 10
12.0
 20
9.0
  9
$UNITMODE
 70
     0
  9
$VISRETAIN
 70
     0
  9
$PLINEGEN
 70
     1
  9
$PSLTSCALE
 70
     0
  0
ENDSEC
  0
SECTION
  2
TABLES
  0
TABLE
  2
VPORT
 70
     2
  0
VPORT
  2
*ACTIVE
 70
     0
 10
0.0
 20
0.0
 11
1.0
 21
1.0
 12
837.01501867410002
 22
-220.6115464941
 13
0.0
 23
0.0
 14
1.0
 24
1.0
 15
0.0
 25
0.0
 16
0.0
 26
0.0
 36
1.0
 17
0.0
 27
0.0
 37
0.0
 40
203.1518819502075
 41
1.6343490304709141
 42
50.0
 43
0.0
 44
0.0
 50
0.0
 51
0.0
 71
     0
 72
   100
 73
     1
 74
     1
 75
     0
 76
     0
 77
     0
 78
     0
  0
ENDTAB
  0
TABLE
  2
LTYPE
 70
    11
  0
LTYPE
  2
CONTINUOUS
 70
     0
  3
Solid line
 72
    65
 73
     0
 40
0.0
  0
LTYPE
  2
DOT
 70
     0
  3
. . . . . . . . 
 72
    65
 73
     2
 40
1.0
 49
0.0
 49
-1.0
  0
LTYPE
  2
DASHED
 70
     0
  3
___  ___  ___  ___  
 72
    65
 73
     2
 40
4.0
 49
3.0
 49
-1.0
  0
LTYPE
  2
HIDDEN
 70
     0
  3
__ __ __ __ 
 72
    65
 73
     2
 40
3.0
 49
2.0
 49
-1.0
  0
LTYPE
  2
STITCH
 70
     0
  3
_ _ _ _ 
 72
    65
 73
     2
 40
2.0
 49
1.0
 49
-1.0
  0
LTYPE
  2
CENTER
 70
     0
  3
______  __  ______  __  
 72
    65
 73
     4
 40
43.0
 49
40.0
 49
-1.0
 49
1.0
 49
-1.0
  0
LTYPE
  2
DASHDOT
 70
     0
  3
____ . ____ . 
 72
    65
 73
     4
 40
32.0
 49
30.0
 49
-1.0
 49
0.0
 49
-1.0
  0
LTYPE
  2
BORDER
 70
     0
  3
__ . __ . 
 72
    65
 73
     4
 40
22.0
 49
20.0
 49
-1.0
 49
0.0
 49
-1.0
  0
LTYPE
  2
CUTTING
 70
     0
  3
________   ___   ___   
 72
    65
 73
     6
 40
45.0
 49
40.0
 49
-1.0
 49
1.0
 49
-1.0
 49
1.0
 49
-1.0
  0
LTYPE
  2
PHANTOM
 70
     0
  3
______  __  __  
 72
    65
 73
     6
 40
35.0
 49
30.0
 49
-1.0
 49
1.0
 49
-1.0
 49
1.0
 49
-1.0
  0
LTYPE
  2
DIVIDE
 70
     0
  3
____ . . ____ . . 
 72
    65
 73
     6
 40
23.0
 49
20.0
 49
-1.0
 49
0.0
 49
-1.0
 49
0.0
 49
-1.0
  0
ENDTAB
  0
TABLE
  2
LAYER
 70
     4
  0
LAYER
  2
0
 70
     0
 62
     7
  6
CONTINUOUS
  0
LAYER
  2
図枠
 70
     0
 62
     7
  6
CONTINUOUS
  0
LAYER
  2
ﾚｲﾔ_1
 70
     0
 62
     7
  6
CONTINUOUS
  0
LAYER
  2
寸法線
 70
     0
 62
     7
  6
CONTINUOUS
  0
ENDTAB
  0
TABLE
  2
STYLE
 70
     1
  0
STYLE
  2
STANDARD
 70
     0
 40
0.0
 41
1.0
 50
0.0
 71
     0
 42
0.0
  3
txt
  4
extfont
  0
ENDTAB
  0
TABLE
  2
VIEW
 70
     0
  0
ENDTAB
  0
TABLE
  2
UCS
 70
     0
  0
ENDTAB
  0
TABLE
  2
APPID
 70
     2
  0
APPID
  2
ACAD
 70
     0
  0
APPID
  2
DCO15
 70
     0
  0
ENDTAB
  0
TABLE
  2
DIMSTYLE
 70
     3
  0
DIMSTYLE
  2
STANDARD
 70
     0
  3

  4

  5

  6

  7

 40
1.0
 41
0.18
 42
0.0625
 43
0.38
 44
0.18
 45
0.0
 46
0.0
 47
0.0
 48
0.0
140
0.18
141
0.09
142
0.0
143
25.399999999999999
144
1.0
145
0.0
146
1.0
147
0.09
 71
     0
 72
     0
 73
     1
 74
     1
 75
     0
 76
     0
 77
     0
 78
     0
170
     0
171
     2
172
     0
173
     0
174
     0
175
     0
176
     0
177
     0
178
     0
  0
DIMSTYLE
  2
VELDIM0
 70
     0
  3

  4

  5

  6

  7

 40
1.0
 41
3.0
 42
0.0625
 43
0.38
 44
1.25
 45
0.0
 46
5.0
 47
0.0
 48
0.0
140
2.9986110209999999
141
0.09
142
0.0
143
25.399999999999999
144
1.0
145
0.0
146
1.0
147
0.09
 71
     0
 72
     0
 73
     0
 74
     0
 75
     0
 76
     0
 77
     0
 78
     8
170
     0
171
     2
172
     0
173
     0
174
     0
175
     0
176
     0
177
     0
178
     0
  0
DIMSTYLE
  2
VELDIM1
 70
     0
  3

  4

  5

  6

  7

 40
1.0
 41
3.0
 42
0.0625
 43
0.38
 44
0.5
 45
0.0
 46
3.0
 47
0.0
 48
0.0
140
2.9986110209999999
141
0.09
142
0.0
143
25.399999999999999
144
1.0
145
0.0
146
1.0
147
0.09
 71
     0
 72
     0
 73
     0
 74
     0
 75
     0
 76
     0
 77
     0
 78
     8
170
     0
171
     2
172
     0
173
     0
174
     0
175
     0
176
     0
177
     0
178
     0
  0
ENDTAB
  0
ENDSEC
  0
SECTION
  2
BLOCKS
  0
BLOCK
  8
0
  2
$MODEL_SPACE
 70
     0
 10
0.0
 20
0.0
 30
0.0
  3
$MODEL_SPACE
  1

  0
ENDBLK
  5
E
  8
0
  0
BLOCK
 67
     1
  8
0
  2
$PAPER_SPACE
 70
     0
 10
0.0
 20
0.0
 30
0.0
  3
$PAPER_SPACE
  1

  0
ENDBLK
  5
10
 67
     1
  8
0
  0
BLOCK
  8
0
  2
*D0
 70
     1
 10
0.0
 20
0.0
 30
0.0
  3
*D0
  1

  0
TEXT
  5
D2
  8
0
 62
     0
 10
753.08322251419986
 20
-156.02079100340001
 30
0.0
 40
2.9986110209999999
  1
4x12.5-5.5x14皿長穴
  0
LINE
  5
D3
  8
0
 62
     0
 10
790.3019581847999
 20
-156.5499576542
 30
0.0
 11
749.55544484240011
 21
-156.5499576542
 31
0.0
  0
LINE
  5
D4
  8
0
 62
     0
 10
816.97950852499991
 20
-175.42510452010001
 30
0.0
 11
790.3019581847999
 21
-156.5499576542
 31
0.0
  0
SOLID
  5
D5
  8
0
 62
     0
 10
816.97950852499991
 20
-175.42510452010001
 30
0.0
 11
814.09732147559998
 21
-174.30461453219999
 31
0.0
 12
814.96369171099991
 22
-173.0801135664
 32
0.0
 13
815.14275707619993
 23
-174.125549167
 33
0.0
  0
ENDBLK
  5
D6
  8
0
  0
BLOCK
  8
0
  2
*D1
 70
     1
 10
0.0
 20
0.0
 30
0.0
  3
*D1
  1

  0
TEXT
  5
DB
  8
0
 62
     0
 10
748.89771539419985
 20
-163.58298622660001
 30
0.0
 40
2.9986110209999999
  1
2-%%c4x%%c5.5皿穴
  0
LINE
  5
DC
  8
0
 62
     0
 10
785.91330616729988
 20
-164.11215287740001
 30
0.0
 11
745.36993772239998
 21
-164.11215287740001
 31
0.0
  0
LINE
  5
DD
  8
0
 62
     0
 10
806.31258661000004
 20
-178.5452402263
 30
0.0
 11
785.91330616729988
 21
-164.11215287740001
 31
0.0
  0
SOLID
  5
DE
  8
0
 62
     0
 10
806.31258661000004
 20
-178.5452402263
 30
0.0
 11
803.43039956070004
 21
-177.4247502385
 31
0.0
 12
804.29676979609997
 22
-176.20024927270001
 32
0.0
 13
804.4758351613001
 23
-177.24568487330001
 33
0.0
  0
ENDBLK
  5
DF
  8
0
  0
BLOCK
  8
0
  2
*D2
 70
     1
 10
0.0
 20
0.0
 30
0.0
  3
*D2
  1

  0
TEXT
  5
E4
  8
0
 62
     0
 10
853.00105191869989
 20
-193.66618312590001
 30
0.0
 40
2.9986110209999999
  1
5.5
 50
90.0
  0
LINE
  5
E5
  8
0
 62
     0
 10
842.76158854169989
 20
-185.77798069709999
 30
0.0
 11
855.03021856939995
 21
-185.77798069709999
 31
0.0
  0
LINE
  5
E6
  8
0
 62
     0
 10
843.76158854169989
 20
-180.27798069709999
 30
0.0
 11
855.03021856939995
 21
-180.27798069709999
 31
0.0
  0
LINE
  5
E7
  8
0
 62
     0
 10
854.53021856939995
 20
-185.77798069709999
 30
0.0
 11
854.53021856939995
 21
-186.6106277822
 31
0.0
  0
LINE
  5
E8
  8
0
 62
     0
 10
854.53021856939995
 20
-185.77798069709999
 30
0.0
 11
854.53021856939995
 21
-195.4300719618
 31
0.0
  0
LINE
  5
E9
  8
0
 62
     0
 10
854.53021856939995
 20
-180.27798069709999
 30
0.0
 11
854.53021856939995
 21
-186.6106277822
 31
0.0
  0
LINE
  5
EA
  8
0
 62
     0
 10
854.53021856939995
 20
-180.27798069709999
 30
0.0
 11
854.53021856939995
 21
-195.4300719618
 31
0.0
  0
LINE
  5
EB
  8
0
 62
     0
 10
854.53021856939995
 20
-180.27798069709999
 30
0.0
 11
854.53021856939995
 21
-177.27798069709999
 31
0.0
  0
SOLID
  5
EC
  8
0
 62
     0
 10
854.53021856939995
 20
-180.27798069709999
 30
0.0
 11
853.78021856940006
 21
-177.27798069709999
 31
0.0
 12
855.28021856939995
 22
-177.27798069709999
 32
0.0
 13
854.53021856939995
 23
-178.02798069709999
 33
0.0
  0
LINE
  5
ED
  8
0
 62
     0
 10
854.53021856939995
 20
-185.77798069709999
 30
0.0
 11
854.53021856939995
 21
-188.77798069709999
 31
0.0
  0
SOLID
  5
EE
  8
0
 62
     0
 10
854.53021856939995
 20
-185.77798069709999
 30
0.0
 11
855.28021856939995
 21
-188.77798069709999
 31
0.0
 12
853.78021856940006
 22
-188.77798069709999
 32
0.0
 13
854.53021856939995
 23
-188.02798069709999
 33
0.0
  0
ENDBLK
  5
EF
  8
0
  0
BLOCK
  8
0
  2
*D3
 70
     1
 10
0.0
 20
0.0
 30
0.0
  3
*D3
  1

  0
TEXT
  5
F3
  8
0
 62
     0
 10
810.49769970580007
 20
-159.2488140463
 30
0.0
 40
2.9986110209999999
  1
63
  0
LINE
  5
F4
  8
0
 62
     0
 10
843.76158854169989
 20
-174.27798069709999
 30
0.0
 11
843.76158854169989
 21
-160.27798069709999
 31
0.0
  0
LINE
  5
F5
  8
0
 62
     0
 10
780.76158854170001
 20
-169.77798069709999
 30
0.0
 11
780.76158854170001
 21
-160.27798069709999
 31
0.0
  0
LINE
  5
F6
  8
0
 62
     0
 10
843.76158854169989
 20
-160.77798069709999
 30
0.0
 11
815.78936621349999
 21
-160.77798069709999
 31
0.0
  0
LINE
  5
F7
  8
0
 62
     0
 10
843.76158854169989
 20
-160.77798069709999
 30
0.0
 11
808.73381086990003
 21
-160.77798069709999
 31
0.0
  0
LINE
  5
F8
  8
0
 62
     0
 10
780.76158854170001
 20
-160.77798069709999
 30
0.0
 11
815.78936621349999
 21
-160.77798069709999
 31
0.0
  0
LINE
  5
F9
  8
0
 62
     0
 10
780.76158854170001
 20
-160.77798069709999
 30
0.0
 11
808.73381086990003
 21
-160.77798069709999
 31
0.0
  0
LINE
  5
FA
  8
0
 62
     0
 10
780.76158854170001
 20
-160.77798069709999
 30
0.0
 11
783.76158854170001
 21
-160.77798069709999
 31
0.0
  0
SOLID
  5
FB
  8
0
 62
     0
 10
780.76158854170001
 20
-160.77798069709999
 30
0.0
 11
783.76158854170001
 21
-160.02798069709999
 31
0.0
 12
783.76158854170001
 22
-161.52798069709999
 32
0.0
 13
783.01158854170001
 23
-160.77798069709999
 33
0.0
  0
LINE
  5
FC
  8
0
 62
     0
 10
843.76158854169989
 20
-160.77798069709999
 30
0.0
 11
840.76158854170001
 21
-160.77798069709999
 31
0.0
  0
SOLID
  5
FD
  8
0
 62
     0
 10
843.76158854169989
 20
-160.77798069709999
 30
0.0
 11
840.76158854170001
 21
-161.52798069709999
 31
0.0
 12
840.76158854170001
 22
-160.02798069709999
 32
0.0
 13
841.51158854170001
 23
-160.77798069709999
 33
0.0
  0
ENDBLK
  5
FE
  8
0
  0
BLOCK
  8
0
  2
*D4
 70
     1
 10
0.0
 20
0.0
 30
0.0
  3
*D4
  1

  0
TEXT
  5
102
  8
0
 62
     0
 10
774.73242189090001
 20
-213.15992511499999
 30
0.0
 40
2.9986110209999999
  1
6
 50
90.0
  0
LINE
  5
103
  8
0
 62
     0
 10
789.76158854170001
 20
-209.27798069709999
 30
0.0
 11
775.76158854170001
 21
-209.27798069709999
 31
0.0
  0
LINE
  5
104
  8
0
 62
     0
 10
785.26158854170001
 20
-215.27798069709999
 30
0.0
 11
775.76158854170001
 21
-215.27798069709999
 31
0.0
  0
LINE
  5
105
  8
0
 62
     0
 10
776.26158854170001
 20
-209.27798069709999
 30
0.0
 11
776.26158854170001
 21
-209.63214744320001
 31
0.0
  0
LINE
  5
106
  8
0
 62
     0
 10
776.26158854170001
 20
-209.27798069709999
 30
0.0
 11
776.26158854170001
 21
-214.92381395090001
 31
0.0
  0
LINE
  5
107
  8
0
 62
     0
 10
776.26158854170001
 20
-215.27798069709999
 30
0.0
 11
776.26158854170001
 21
-209.63214744320001
 31
0.0
  0
LINE
  5
108
  8
0
 62
     0
 10
776.26158854170001
 20
-215.27798069709999
 30
0.0
 11
776.26158854170001
 21
-214.92381395090001
 31
0.0
  0
LINE
  5
109
  8
0
 62
     0
 10
776.26158854170001
 20
-215.27798069709999
 30
0.0
 11
776.26158854170001
 21
-218.27798069709999
 31
0.0
  0
SOLID
  5
10A
  8
0
 62
     0
 10
776.26158854170001
 20
-215.27798069709999
 30
0.0
 11
777.01158854169989
 21
-218.27798069709999
 31
0.0
 12
775.51158854170001
 22
-218.27798069709999
 32
0.0
 13
776.26158854170001
 23
-217.52798069709999
 33
0.0
  0
LINE
  5
10B
  8
0
 62
     0
 10
776.26158854170001
 20
-209.27798069709999
 30
0.0
 11
776.26158854170001
 21
-206.27798069709999
 31
0.0
  0
SOLID
  5
10C
  8
0
 62
     0
 10
776.26158854170001
 20
-209.27798069709999
 30
0.0
 11
775.51158854170001
 21
-206.27798069709999
 31
0.0
 12
777.01158854169989
 22
-206.27798069709999
 32
0.0
 13
776.26158854170001
 23
-207.02798069709999
 33
0.0
  0
ENDBLK
  5
10D
  8
0
  0
BLOCK
  8
0
  2
*D5
 70
     1
 10
0.0
 20
0.0
 30
0.0
  3
*D5
  1

  0
TEXT
  5
111
  8
0
 62
     0
 10
774.73242189090001
 20
-204.54186953300001
 30
0.0
 40
2.9986110209999999
  1
13
 50
90.0
  0
LINE
  5
112
  8
0
 62
     0
 10
783.26158854169989
 20
-196.27798069709991
 30
0.0
 11
775.76158854170001
 21
-196.27798069709991
 31
0.0
  0
LINE
  5
113
  8
0
 62
     0
 10
789.76158854170001
 20
-209.27798069709999
 30
0.0
 11
775.76158854170001
 21
-209.27798069709999
 31
0.0
  0
LINE
  5
114
  8
0
 62
     0
 10
776.26158854170001
 20
-196.27798069709991
 30
0.0
 11
776.26158854170001
 21
-199.25020302519999
 31
0.0
  0
LINE
  5
115
  8
0
 62
     0
 10
776.26158854170001
 20
-196.27798069709991
 30
0.0
 11
776.26158854170001
 21
-206.3057583689
 31
0.0
  0
LINE
  5
116
  8
0
 62
     0
 10
776.26158854170001
 20
-209.27798069709999
 30
0.0
 11
776.26158854170001
 21
-199.25020302519999
 31
0.0
  0
LINE
  5
117
  8
0
 62
     0
 10
776.26158854170001
 20
-209.27798069709999
 30
0.0
 11
776.26158854170001
 21
-206.3057583689
 31
0.0
  0
LINE
  5
118
  8
0
 62
     0
 10
776.26158854170001
 20
-209.27798069709999
 30
0.0
 11
776.26158854170001
 21
-212.27798069709999
 31
0.0
  0
SOLID
  5
119
  8
0
 62
     0
 10
776.26158854170001
 20
-209.27798069709999
 30
0.0
 11
777.01158854169989
 21
-212.27798069709999
 31
0.0
 12
775.51158854170001
 22
-212.27798069709999
 32
0.0
 13
776.26158854170001
 23
-211.52798069709999
 33
0.0
  0
LINE
  5
11A
  8
0
 62
     0
 10
776.26158854170001
 20
-196.27798069709991
 30
0.0
 11
776.26158854170001
 21
-193.27798069709999
 31
0.0
  0
SOLID
  5
11B
  8
0
 62
     0
 10
776.26158854170001
 20
-196.27798069709991
 30
0.0
 11
775.51158854170001
 21
-193.27798069709999
 31
0.0
 12
777.01158854169989
 22
-193.27798069709999
 32
0.0
 13
776.26158854170001
 23
-194.02798069709999
 33
0.0
  0
ENDBLK
  5
11C
  8
0
  0
BLOCK
  8
0
  2
*D6
 70
     1
 10
0.0
 20
0.0
 30
0.0
  3
*D6
  1

  0
TEXT
  5
120
  8
0
 62
     0
 10
839.8796441236999
 20
-193.7488140463
 30
0.0
 40
2.9986110209999999
  1
6
  0
LINE
  5
121
  8
0
 62
     0
 10
837.76158854170001
 20
-186.27798069709999
 30
0.0
 11
837.76158854170001
 21
-195.77798069709999
 31
0.0
  0
LINE
  5
122
  8
0
 62
     0
 10
843.76158854169989
 20
-184.77798069709999
 30
0.0
 11
843.76158854169989
 21
-195.77798069709999
 31
0.0
  0
LINE
  5
123
  8
0
 62
     0
 10
837.76158854170001
 20
-195.27798069709999
 30
0.0
 11
843.4074217955
 21
-195.27798069709999
 31
0.0
  0
LINE
  5
124
  8
0
 62
     0
 10
837.76158854170001
 20
-195.27798069709999
 30
0.0
 11
838.11575528779986
 21
-195.27798069709999
 31
0.0
  0
LINE
  5
125
  8
0
 62
     0
 10
843.76158854169989
 20
-195.27798069709999
 30
0.0
 11
843.4074217955
 21
-195.27798069709999
 31
0.0
  0
LINE
  5
126
  8
0
 62
     0
 10
843.76158854169989
 20
-195.27798069709999
 30
0.0
 11
838.11575528779986
 21
-195.27798069709999
 31
0.0
  0
LINE
  5
127
  8
0
 62
     0
 10
843.76158854169989
 20
-195.27798069709999
 30
0.0
 11
846.76158854170001
 21
-195.27798069709999
 31
0.0
  0
SOLID
  5
128
  8
0
 62
     0
 10
843.76158854169989
 20
-195.27798069709999
 30
0.0
 11
846.76158854170001
 21
-194.52798069709999
 31
0.0
 12
846.76158854170001
 22
-196.02798069709999
 32
0.0
 13
846.01158854170001
 23
-195.27798069709999
 33
0.0
  0
LINE
  5
129
  8
0
 62
     0
 10
837.76158854170001
 20
-195.27798069709999
 30
0.0
 11
834.76158854169989
 21
-195.27798069709999
 31
0.0
  0
SOLID
  5
12A
  8
0
 62
     0
 10
837.76158854170001
 20
-195.27798069709999
 30
0.0
 11
834.76158854169989
 21
-196.02798069709999
 31
0.0
 12
834.76158854169989
 22
-194.52798069709999
 32
0.0
 13
835.51158854169989
 23
-195.27798069709999
 33
0.0
  0
ENDBLK
  5
12B
  8
0
  0
BLOCK
  8
0
  2
*D7
 70
     1
 10
0.0
 20
0.0
 30
0.0
  3
*D7
  1

  0
TEXT
  5
12F
  8
0
 62
     0
 10
826.98381093939986
 20
-193.7488140463
 30
0.0
 40
2.9986110209999999
  1
14.5
  0
LINE
  5
130
  8
0
 62
     0
 10
823.26158868079995
 20
-183.02798069709999
 30
0.0
 11
823.26158868079995
 21
-195.77798069709999
 31
0.0
  0
LINE
  5
131
  8
0
 62
     0
 10
837.76158854170001
 20
-186.27798069709999
 30
0.0
 11
837.76158854170001
 21
-195.77798069709999
 31
0.0
  0
LINE
  5
132
  8
0
 62
     0
 10
823.26158868079995
 20
-195.27798069709999
 30
0.0
 11
835.80325511899991
 21
-195.27798069709999
 31
0.0
  0
LINE
  5
133
  8
0
 62
     0
 10
823.26158868079995
 20
-195.27798069709999
 30
0.0
 11
825.21992210350015
 21
-195.27798069709999
 31
0.0
  0
LINE
  5
134
  8
0
 62
     0
 10
837.76158854170001
 20
-195.27798069709999
 30
0.0
 11
835.80325511899991
 21
-195.27798069709999
 31
0.0
  0
LINE
  5
135
  8
0
 62
     0
 10
837.76158854170001
 20
-195.27798069709999
 30
0.0
 11
825.21992210350015
 21
-195.27798069709999
 31
0.0
  0
LINE
  5
136
  8
0
 62
     0
 10
837.76158854170001
 20
-195.27798069709999
 30
0.0
 11
840.76158854170001
 21
-195.27798069709999
 31
0.0
  0
SOLID
  5
137
  8
0
 62
     0
 10
837.76158854170001
 20
-195.27798069709999
 30
0.0
 11
840.76158854170001
 21
-194.52798069709999
 31
0.0
 12
840.76158854170001
 22
-196.02798069709999
 32
0.0
 13
840.01158854169989
 23
-195.27798069709999
 33
0.0
  0
LINE
  5
138
  8
0
 62
     0
 10
823.26158868079995
 20
-195.27798069709999
 30
0.0
 11
820.26158868080006
 21
-195.27798069709999
 31
0.0
  0
SOLID
  5
139
  8
0
 62
     0
 10
823.26158868079995
 20
-195.27798069709999
 30
0.0
 11
820.26158868080006
 21
-196.02798069709999
 31
0.0
 12
820.26158868080006
 22
-194.52798069709999
 32
0.0
 13
821.01158868080006
 23
-195.27798069709999
 33
0.0
  0
ENDBLK
  5
13A
  8
0
  0
BLOCK
  8
0
  2
*D8
 70
     1
 10
0.0
 20
0.0
 30
0.0
  3
*D8
  1

  0
TEXT
  5
13E
  8
0
 62
     0
 10
785.87964412369979
 20
-224.3257710204
 30
0.0
 40
2.9986110209999999
  1
5
  0
LINE
  5
13F
  8
0
 62
     0
 10
784.26158854170001
 20
-214.27798069709999
 30
0.0
 11
784.26158854170001
 21
-226.3549376711
 31
0.0
  0
LINE
  5
140
  8
0
 62
     0
 10
789.26158854170001
 20
-202.27798069709999
 30
0.0
 11
789.26158854170001
 21
-226.3549376711
 31
0.0
  0
LINE
  5
141
  8
0
 62
     0
 10
784.26158854170001
 20
-225.8549376711
 30
0.0
 11
784.26158854170001
 21
-225.8549376711
 31
0.0
  0
LINE
  5
142
  8
0
 62
     0
 10
784.26158854170001
 20
-225.8549376711
 30
0.0
 11
789.26158854170001
 21
-225.8549376711
 31
0.0
  0
LINE
  5
143
  8
0
 62
     0
 10
789.26158854170001
 20
-225.8549376711
 30
0.0
 11
784.26158854170001
 21
-225.8549376711
 31
0.0
  0
LINE
  5
144
  8
0
 62
     0
 10
789.26158854170001
 20
-225.8549376711
 30
0.0
 11
789.26158854170001
 21
-225.8549376711
 31
0.0
  0
LINE
  5
145
  8
0
 62
     0
 10
789.26158854170001
 20
-225.8549376711
 30
0.0
 11
792.26158854170001
 21
-225.8549376711
 31
0.0
  0
SOLID
  5
146
  8
0
 62
     0
 10
789.26158854170001
 20
-225.8549376711
 30
0.0
 11
792.26158854170001
 21
-225.1049376711
 31
0.0
 12
792.26158854170001
 22
-226.6049376711
 32
0.0
 13
791.51158854170001
 23
-225.8549376711
 33
0.0
  0
LINE
  5
147
  8
0
 62
     0
 10
784.26158854170001
 20
-225.8549376711
 30
0.0
 11
781.26158854170001
 21
-225.8549376711
 31
0.0
  0
SOLID
  5
148
  8
0
 62
     0
 10
784.26158854170001
 20
-225.8549376711
 30
0.0
 11
781.26158854170001
 21
-226.6049376711
 31
0.0
 12
781.26158854170001
 22
-225.1049376711
 32
0.0
 13
782.01158854170001
 23
-225.8549376711
 33
0.0
  0
ENDBLK
  5
149
  8
0
  0
BLOCK
  8
0
  2
*D9
 70
     1
 10
0.0
 20
0.0
 30
0.0
  3
*D9
  1

  0
TEXT
  5
14D
  8
0
 62
     0
 10
789.86575528779997
 20
-224.3257710204
 30
0.0
 40
2.9986110209999999
  1
6.5
  0
LINE
  5
14E
  8
0
 62
     0
 10
789.26158854170001
 20
-202.27798069709999
 30
0.0
 11
789.26158854170001
 21
-226.3549376711
 31
0.0
  0
LINE
  5
14F
  8
0
 62
     0
 10
795.76158854169989
 20
-215.27798069709999
 30
0.0
 11
795.76158854169989
 21
-226.3549376711
 31
0.0
  0
LINE
  5
150
  8
0
 62
     0
 10
789.26158854170001
 20
-225.8549376711
 30
0.0
 11
789.26158854170001
 21
-225.8549376711
 31
0.0
  0
LINE
  5
151
  8
0
 62
     0
 10
789.26158854170001
 20
-225.8549376711
 30
0.0
 11
795.76158854169989
 21
-225.8549376711
 31
0.0
  0
LINE
  5
152
  8
0
 62
     0
 10
795.76158854169989
 20
-225.8549376711
 30
0.0
 11
789.26158854170001
 21
-225.8549376711
 31
0.0
  0
LINE
  5
153
  8
0
 62
     0
 10
795.76158854169989
 20
-225.8549376711
 30
0.0
 11
795.76158854169989
 21
-225.8549376711
 31
0.0
  0
LINE
  5
154
  8
0
 62
     0
 10
795.76158854169989
 20
-225.8549376711
 30
0.0
 11
792.76158854170001
 21
-225.8549376711
 31
0.0
  0
SOLID
  5
155
  8
0
 62
     0
 10
795.76158854169989
 20
-225.8549376711
 30
0.0
 11
792.76158854170001
 21
-226.6049376711
 31
0.0
 12
792.76158854170001
 22
-225.1049376711
 32
0.0
 13
793.51158854169989
 23
-225.8549376711
 33
0.0
  0
LINE
  5
156
  8
0
 62
     0
 10
789.26158854170001
 20
-225.8549376711
 30
0.0
 11
792.26158854170001
 21
-225.8549376711
 31
0.0
  0
SOLID
  5
157
  8
0
 62
     0
 10
789.26158854170001
 20
-225.8549376711
 30
0.0
 11
792.26158854170001
 21
-225.1049376711
 31
0.0
 12
792.26158854170001
 22
-226.6049376711
 32
0.0
 13
791.51158854170001
 23
-225.8549376711
 33
0.0
  0
ENDBLK
  5
158
  8
0
  0
BLOCK
  8
0
  2
*D10
 70
     1
 10
0.0
 20
0.0
 30
0.0
  3
*D10
  1

  0
TEXT
  5
15C
  8
0
 62
     0
 10
797.3796441236999
 20
-224.3257710204
 30
0.0
 40
2.9986110209999999
  1
5
  0
LINE
  5
15D
  8
0
 62
     0
 10
795.76158854169989
 20
-215.27798069709999
 30
0.0
 11
795.76158854169989
 21
-226.3549376711
 31
0.0
  0
LINE
  5
15E
  8
0
 62
     0
 10
800.76158854169989
 20
-214.27798069709999
 30
0.0
 11
800.76158854169989
 21
-226.3549376711
 31
0.0
  0
LINE
  5
15F
  8
0
 62
     0
 10
795.76158854169989
 20
-225.8549376711
 30
0.0
 11
795.76158854169989
 21
-225.8549376711
 31
0.0
  0
LINE
  5
160
  8
0
 62
     0
 10
795.76158854169989
 20
-225.8549376711
 30
0.0
 11
800.76158854169989
 21
-225.8549376711
 31
0.0
  0
LINE
  5
161
  8
0
 62
     0
 10
800.76158854169989
 20
-225.8549376711
 30
0.0
 11
795.76158854169989
 21
-225.8549376711
 31
0.0
  0
LINE
  5
162
  8
0
 62
     0
 10
800.76158854169989
 20
-225.8549376711
 30
0.0
 11
800.76158854169989
 21
-225.8549376711
 31
0.0
  0
LINE
  5
163
  8
0
 62
     0
 10
800.76158854169989
 20
-225.8549376711
 30
0.0
 11
803.76158854170001
 21
-225.8549376711
 31
0.0
  0
SOLID
  5
164
  8
0
 62
     0
 10
800.76158854169989
 20
-225.8549376711
 30
0.0
 11
803.76158854170001
 21
-225.1049376711
 31
0.0
 12
803.76158854170001
 22
-226.6049376711
 32
0.0
 13
803.01158854170001
 23
-225.8549376711
 33
0.0
  0
LINE
  5
165
  8
0
 62
     0
 10
795.76158854169989
 20
-225.8549376711
 30
0.0
 11
792.76158854170001
 21
-225.8549376711
 31
0.0
  0
SOLID
  5
166
  8
0
 62
     0
 10
795.76158854169989
 20
-225.8549376711
 30
0.0
 11
792.76158854170001
 21
-226.6049376711
 31
0.0
 12
792.76158854170001
 22
-225.1049376711
 32
0.0
 13
793.51158854169989
 23
-225.8549376711
 33
0.0
  0
ENDBLK
  5
167
  8
0
  0
BLOCK
  8
0
  2
*D11
 70
     1
 10
0.0
 20
0.0
 30
0.0
  3
*D11
  1

  0
TEXT
  5
16B
  8
0
 62
     0
 10
788.98381086990003
 20
-232.67260735170001
 30
0.0
 40
2.9986110209999999
  1
16.5
  0
LINE
  5
16C
  8
0
 62
     0
 10
784.26158854170001
 20
-214.27798069709999
 30
0.0
 11
784.26158854170001
 21
-234.7017740025
 31
0.0
  0
LINE
  5
16D
  8
0
 62
     0
 10
800.76158854169989
 20
-214.27798069709999
 30
0.0
 11
800.76158854169989
 21
-234.7017740025
 31
0.0
  0
LINE
  5
16E
  8
0
 62
     0
 10
784.26158854170001
 20
-234.2017740025
 30
0.0
 11
797.80325504940004
 21
-234.2017740025
 31
0.0
  0
LINE
  5
16F
  8
0
 62
     0
 10
784.26158854170001
 20
-234.2017740025
 30
0.0
 11
787.21992203390005
 21
-234.2017740025
 31
0.0
  0
LINE
  5
170
  8
0
 62
     0
 10
800.76158854169989
 20
-234.2017740025
 30
0.0
 11
797.80325504940004
 21
-234.2017740025
 31
0.0
  0
LINE
  5
171
  8
0
 62
     0
 10
800.76158854169989
 20
-234.2017740025
 30
0.0
 11
787.21992203390005
 21
-234.2017740025
 31
0.0
  0
LINE
  5
172
  8
0
 62
     0
 10
800.76158854169989
 20
-234.2017740025
 30
0.0
 11
803.76158854170001
 21
-234.2017740025
 31
0.0
  0
SOLID
  5
173
  8
0
 62
     0
 10
800.76158854169989
 20
-234.2017740025
 30
0.0
 11
803.76158854170001
 21
-233.4517740025
 31
0.0
 12
803.76158854170001
 22
-234.9517740025
 32
0.0
 13
803.01158854170001
 23
-234.2017740025
 33
0.0
  0
LINE
  5
174
  8
0
 62
     0
 10
784.26158854170001
 20
-234.2017740025
 30
0.0
 11
781.26158854170001
 21
-234.2017740025
 31
0.0
  0
SOLID
  5
175
  8
0
 62
     0
 10
784.26158854170001
 20
-234.2017740025
 30
0.0
 11
781.26158854170001
 21
-234.9517740025
 31
0.0
 12
781.26158854170001
 22
-233.4517740025
 32
0.0
 13
782.01158854170001
 23
-234.2017740025
 33
0.0
  0
ENDBLK
  5
176
  8
0
  0
BLOCK
  8
0
  2
*D12
 70
     1
 10
0.0
 20
0.0
 30
0.0
  3
*D12
  1

  0
TEXT
  5
17A
  8
0
 62
     0
 10
768.56963151169998
 20
-196.04186953300001
 30
0.0
 40
2.9986110209999999
  1
42
 50
90.0
  0
LINE
  5
17B
  8
0
 62
     0
 10
779.76158854170001
 20
-173.27798069709999
 30
0.0
 11
769.59879816249986
 21
-173.27798069709999
 31
0.0
  0
LINE
  5
17C
  8
0
 62
     0
 10
785.26158854170001
 20
-215.27798069709999
 30
0.0
 11
769.59879816249986
 21
-215.27798069709999
 31
0.0
  0
LINE
  5
17D
  8
0
 62
     0
 10
770.09879816249986
 20
-173.27798069709999
 30
0.0
 11
770.09879816249986
 21
-190.75020302519999
 31
0.0
  0
LINE
  5
17E
  8
0
 62
     0
 10
770.09879816249986
 20
-173.27798069709999
 30
0.0
 11
770.09879816249986
 21
-197.8057583689
 31
0.0
  0
LINE
  5
17F
  8
0
 62
     0
 10
770.09879816249986
 20
-215.27798069709999
 30
0.0
 11
770.09879816249986
 21
-190.75020302519999
 31
0.0
  0
LINE
  5
180
  8
0
 62
     0
 10
770.09879816249986
 20
-215.27798069709999
 30
0.0
 11
770.09879816249986
 21
-197.8057583689
 31
0.0
  0
LINE
  5
181
  8
0
 62
     0
 10
770.09879816249986
 20
-215.27798069709999
 30
0.0
 11
770.09879816249986
 21
-212.27798069709999
 31
0.0
  0
SOLID
  5
182
  8
0
 62
     0
 10
770.09879816249986
 20
-215.27798069709999
 30
0.0
 11
769.34879816249997
 21
-212.27798069709999
 31
0.0
 12
770.84879816249986
 22
-212.27798069709999
 32
0.0
 13
770.09879816249986
 23
-213.02798069709999
 33
0.0
  0
LINE
  5
183
  8
0
 62
     0
 10
770.09879816249986
 20
-173.27798069709999
 30
0.0
 11
770.09879816249986
 21
-176.27798069709999
 31
0.0
  0
SOLID
  5
184
  8
0
 62
     0
 10
770.09879816249986
 20
-173.27798069709999
 30
0.0
 11
770.84879816249986
 21
-176.27798069709999
 31
0.0
 12
769.34879816249997
 22
-176.27798069709999
 32
0.0
 13
770.09879816249986
 23
-175.52798069709999
 33
0.0
  0
ENDBLK
  5
185
  8
0
  0
BLOCK
  8
0
  2
*D13
 70
     1
 10
0.0
 20
0.0
 30
0.0
  3
*D13
  1

  0
TEXT
  5
189
  8
0
 62
     0
 10
762.40637556920001
 20
-196.5557583689
 30
0.0
 40
2.9986110209999999
  1
44.5
 50
90.0
  0
LINE
  5
18A
  8
0
 62
     0
 10
779.76158854170001
 20
-170.77798069709999
 30
0.0
 11
763.43554222
 21
-170.77798069709999
 31
0.0
  0
LINE
  5
18B
  8
0
 62
     0
 10
785.26158854170001
 20
-215.27798069709999
 30
0.0
 11
763.43554222
 21
-215.27798069709999
 31
0.0
  0
LINE
  5
18C
  8
0
 62
     0
 10
763.93554222
 20
-170.77798069709999
 30
0.0
 11
763.93554222
 21
-187.7363141893
 31
0.0
  0
LINE
  5
18D
  8
0
 62
     0
 10
763.93554222
 20
-170.77798069709999
 30
0.0
 11
763.93554222
 21
-198.31964720479999
 31
0.0
  0
LINE
  5
18E
  8
0
 62
     0
 10
763.93554222
 20
-215.27798069709999
 30
0.0
 11
763.93554222
 21
-187.7363141893
 31
0.0
  0
LINE
  5
18F
  8
0
 62
     0
 10
763.93554222
 20
-215.27798069709999
 30
0.0
 11
763.93554222
 21
-198.31964720479999
 31
0.0
  0
LINE
  5
190
  8
0
 62
     0
 10
763.93554222
 20
-215.27798069709999
 30
0.0
 11
763.93554222
 21
-212.27798069709999
 31
0.0
  0
SOLID
  5
191
  8
0
 62
     0
 10
763.93554222
 20
-215.27798069709999
 30
0.0
 11
763.18554222
 21
-212.27798069709999
 31
0.0
 12
764.68554221999989
 22
-212.27798069709999
 32
0.0
 13
763.93554222
 23
-213.02798069709999
 33
0.0
  0
LINE
  5
192
  8
0
 62
     0
 10
763.93554222
 20
-170.77798069709999
 30
0.0
 11
763.93554222
 21
-173.77798069709999
 31
0.0
  0
SOLID
  5
193
  8
0
 62
     0
 10
763.93554222
 20
-170.77798069709999
 30
0.0
 11
764.68554221999989
 21
-173.77798069709999
 31
0.0
 12
763.18554222
 22
-173.77798069709999
 32
0.0
 13
763.93554222
 23
-173.02798069709999
 33
0.0
  0
ENDBLK
  5
194
  8
0
  0
BLOCK
  8
0
  2
*D14
 70
     1
 10
0.0
 20
0.0
 30
0.0
  3
*D14
  1

  0
TEXT
  5
198
  8
0
 62
     0
 10
905.90453083420005
 20
-223.7488140463
 30
0.0
 40
2.9986110209999999
  1
20.5
  0
LINE
  5
199
  8
0
 62
     0
 10
899.18230850600003
 20
-175.87798069710001
 30
0.0
 11
899.18230850600003
 21
-225.77798069709999
 31
0.0
  0
LINE
  5
19A
  8
0
 62
     0
 10
919.68230850600003
 20
-216.27798069709999
 30
0.0
 11
919.68230850600003
 21
-225.77798069709999
 31
0.0
  0
LINE
  5
19B
  8
0
 62
     0
 10
899.18230850600003
 20
-225.27798069709999
 30
0.0
 11
914.72397501370006
 21
-225.27798069709999
 31
0.0
  0
LINE
  5
19C
  8
0
 62
     0
 10
899.18230850600003
 20
-225.27798069709999
 30
0.0
 11
904.14064199829988
 21
-225.27798069709999
 31
0.0
  0
LINE
  5
19D
  8
0
 62
     0
 10
919.68230850600003
 20
-225.27798069709999
 30
0.0
 11
914.72397501370006
 21
-225.27798069709999
 31
0.0
  0
LINE
  5
19E
  8
0
 62
     0
 10
919.68230850600003
 20
-225.27798069709999
 30
0.0
 11
904.14064199829988
 21
-225.27798069709999
 31
0.0
  0
LINE
  5
19F
  8
0
 62
     0
 10
919.68230850600003
 20
-225.27798069709999
 30
0.0
 11
916.68230850600003
 21
-225.27798069709999
 31
0.0
  0
SOLID
  5
1A0
  8
0
 62
     0
 10
919.68230850600003
 20
-225.27798069709999
 30
0.0
 11
916.68230850600003
 21
-226.02798069709999
 31
0.0
 12
916.68230850600003
 22
-224.52798069709999
 32
0.0
 13
917.43230850600014
 23
-225.27798069709999
 33
0.0
  0
LINE
  5
1A1
  8
0
 62
     0
 10
899.18230850600003
 20
-225.27798069709999
 30
0.0
 11
902.18230850600014
 21
-225.27798069709999
 31
0.0
  0
SOLID
  5
1A2
  8
0
 62
     0
 10
899.18230850600003
 20
-225.27798069709999
 30
0.0
 11
902.18230850600014
 21
-224.52798069709999
 31
0.0
 12
902.18230850600014
 22
-226.02798069709999
 32
0.0
 13
901.43230850600003
 23
-225.27798069709999
 33
0.0
  0
ENDBLK
  5
1A3
  8
0
  0
BLOCK
  8
0
  2
*D15
 70
     1
 10
0.0
 20
0.0
 30
0.0
  3
*D15
  1

  0
TEXT
  5
1A7
  8
0
 62
     0
 10
908.41841967009998
 20
-159.2488140463
 30
0.0
 40
2.9986110209999999
  1
22
  0
LINE
  5
1A8
  8
0
 62
     0
 10
921.18230850600003
 20
-171.37798069710001
 30
0.0
 11
921.18230850600003
 21
-160.27798069709999
 31
0.0
  0
LINE
  5
1A9
  8
0
 62
     0
 10
899.18230850600003
 20
-169.77798069709999
 30
0.0
 11
899.18230850600003
 21
-160.27798069709999
 31
0.0
  0
LINE
  5
1AA
  8
0
 62
     0
 10
921.18230850600003
 20
-160.77798069709999
 30
0.0
 11
913.71008617780001
 21
-160.77798069709999
 31
0.0
  0
LINE
  5
1AB
  8
0
 62
     0
 10
921.18230850600003
 20
-160.77798069709999
 30
0.0
 11
906.65453083419982
 21
-160.77798069709999
 31
0.0
  0
LINE
  5
1AC
  8
0
 62
     0
 10
899.18230850600003
 20
-160.77798069709999
 30
0.0
 11
913.71008617780001
 21
-160.77798069709999
 31
0.0
  0
LINE
  5
1AD
  8
0
 62
     0
 10
899.18230850600003
 20
-160.77798069709999
 30
0.0
 11
906.65453083419982
 21
-160.77798069709999
 31
0.0
  0
LINE
  5
1AE
  8
0
 62
     0
 10
899.18230850600003
 20
-160.77798069709999
 30
0.0
 11
902.18230850600014
 21
-160.77798069709999
 31
0.0
  0
SOLID
  5
1AF
  8
0
 62
     0
 10
899.18230850600003
 20
-160.77798069709999
 30
0.0
 11
902.18230850600014
 21
-160.02798069709999
 31
0.0
 12
902.18230850600014
 22
-161.52798069709999
 32
0.0
 13
901.43230850600003
 23
-160.77798069709999
 33
0.0
  0
LINE
  5
1B0
  8
0
 62
     0
 10
921.18230850600003
 20
-160.77798069709999
 30
0.0
 11
918.18230850600014
 21
-160.77798069709999
 31
0.0
  0
SOLID
  5
1B1
  8
0
 62
     0
 10
921.18230850600003
 20
-160.77798069709999
 30
0.0
 11
918.18230850600014
 21
-161.52798069709999
 31
0.0
 12
918.18230850600014
 22
-160.02798069709999
 32
0.0
 13
918.93230850599991
 23
-160.77798069709999
 33
0.0
  0
ENDBLK
  5
1B2
  8
0
  0
BLOCK
  8
0
  2
*D16
 70
     1
 10
0.0
 20
0.0
 30
0.0
  3
*D16
  1

  0
TEXT
  5
1B6
  8
0
 62
     0
 10
774.73242189090001
 20
-191.54186953300001
 30
0.0
 40
2.9986110209999999
  1
13
 50
90.0
  0
LINE
  5
1B7
  8
0
 62
     0
 10
789.76158854170001
 20
-183.27798069709999
 30
0.0
 11
775.76158854170001
 21
-183.27798069709999
 31
0.0
  0
LINE
  5
1B8
  8
0
 62
     0
 10
783.26158854169989
 20
-196.27798069709991
 30
0.0
 11
775.76158854170001
 21
-196.27798069709991
 31
0.0
  0
LINE
  5
1B9
  8
0
 62
     0
 10
776.26158854170001
 20
-183.27798069709999
 30
0.0
 11
776.26158854170001
 21
-186.25020302519999
 31
0.0
  0
LINE
  5
1BA
  8
0
 62
     0
 10
776.26158854170001
 20
-183.27798069709999
 30
0.0
 11
776.26158854170001
 21
-193.3057583689
 31
0.0
  0
LINE
  5
1BB
  8
0
 62
     0
 10
776.26158854170001
 20
-196.27798069709991
 30
0.0
 11
776.26158854170001
 21
-186.25020302519999
 31
0.0
  0
LINE
  5
1BC
  8
0
 62
     0
 10
776.26158854170001
 20
-196.27798069709991
 30
0.0
 11
776.26158854170001
 21
-193.3057583689
 31
0.0
  0
LINE
  5
1BD
  8
0
 62
     0
 10
776.26158854170001
 20
-196.27798069709991
 30
0.0
 11
776.26158854170001
 21
-199.27798069709999
 31
0.0
  0
SOLID
  5
1BE
  8
0
 62
     0
 10
776.26158854170001
 20
-196.27798069709991
 30
0.0
 11
777.01158854169989
 21
-199.27798069709999
 31
0.0
 12
775.51158854170001
 22
-199.27798069709999
 32
0.0
 13
776.26158854170001
 23
-198.52798069709999
 33
0.0
  0
LINE
  5
1BF
  8
0
 62
     0
 10
776.26158854170001
 20
-183.27798069709999
 30
0.0
 11
776.26158854170001
 21
-180.27798069709999
 31
0.0
  0
SOLID
  5
1C0
  8
0
 62
     0
 10
776.26158854170001
 20
-183.27798069709999
 30
0.0
 11
775.51158854170001
 21
-180.27798069709999
 31
0.0
 12
777.01158854169989
 22
-180.27798069709999
 32
0.0
 13
776.26158854170001
 23
-181.02798069709999
 33
0.0
  0
ENDBLK
  5
1C1
  8
0
  0
BLOCK
  8
0
  2
*D17
 70
     1
 10
0.0
 20
0.0
 30
0.0
  3
*D17
  1

  0
TEXT
  5
1C5
  8
0
 62
     0
 10
867.62287743779984
 20
-180.04186953300001
 30
0.0
 40
2.9986110209999999
  1
15
 50
90.0
  0
LINE
  5
1C6
  8
0
 62
     0
 10
842.76158854169989
 20
-185.77798069709999
 30
0.0
 11
869.65204408859995
 21
-185.77798069709999
 31
0.0
  0
LINE
  5
1C7
  8
0
 62
     0
 10
831.76158854170001
 20
-170.77798069709999
 30
0.0
 11
869.65204408859995
 21
-170.77798069709999
 31
0.0
  0
LINE
  5
1C8
  8
0
 62
     0
 10
869.15204408859995
 20
-185.77798069709999
 30
0.0
 11
869.15204408859995
 21
-174.75020302519999
 31
0.0
  0
LINE
  5
1C9
  8
0
 62
     0
 10
869.15204408859995
 20
-185.77798069709999
 30
0.0
 11
869.15204408859995
 21
-181.8057583689
 31
0.0
  0
LINE
  5
1CA
  8
0
 62
     0
 10
869.15204408859995
 20
-170.77798069709999
 30
0.0
 11
869.15204408859995
 21
-174.75020302519999
 31
0.0
  0
LINE
  5
1CB
  8
0
 62
     0
 10
869.15204408859995
 20
-170.77798069709999
 30
0.0
 11
869.15204408859995
 21
-181.8057583689
 31
0.0
  0
LINE
  5
1CC
  8
0
 62
     0
 10
869.15204408859995
 20
-170.77798069709999
 30
0.0
 11
869.15204408859995
 21
-173.77798069709999
 31
0.0
  0
SOLID
  5
1CD
  8
0
 62
     0
 10
869.15204408859995
 20
-170.77798069709999
 30
0.0
 11
869.90204408859995
 21
-173.77798069709999
 31
0.0
 12
868.40204408859995
 22
-173.77798069709999
 32
0.0
 13
869.15204408859995
 23
-173.02798069709999
 33
0.0
  0
LINE
  5
1CE
  8
0
 62
     0
 10
869.15204408859995
 20
-185.77798069709999
 30
0.0
 11
869.15204408859995
 21
-182.77798069709999
 31
0.0
  0
SOLID
  5
1CF
  8
0
 62
     0
 10
869.15204408859995
 20
-185.77798069709999
 30
0.0
 11
868.40204408859995
 21
-182.77798069709999
 31
0.0
 12
869.90204408859995
 22
-182.77798069709999
 32
0.0
 13
869.15204408859995
 23
-183.52798069709999
 33
0.0
  0
ENDBLK
  5
1D0
  8
0
  0
BLOCK
  8
0
  2
*D18
 70
     1
 10
0.0
 20
0.0
 30
0.0
  3
*D18
  1

  0
TEXT
  5
1D4
  8
0
 62
     0
 10
860.98235456199995
 20
-183.0557583689
 30
0.0
 40
2.9986110209999999
  1
12.5
 50
90.0
  0
LINE
  5
1D5
  8
0
 62
     0
 10
842.76158854169989
 20
-185.77798069709999
 30
0.0
 11
863.01152121279995
 21
-185.77798069709999
 31
0.0
  0
LINE
  5
1D6
  8
0
 62
     0
 10
842.76158854169989
 20
-173.27798069709999
 30
0.0
 11
863.01152121279995
 21
-173.27798069709999
 31
0.0
  0
LINE
  5
1D7
  8
0
 62
     0
 10
862.51152121279995
 20
-185.77798069709999
 30
0.0
 11
862.51152121279995
 21
-174.2363141893
 31
0.0
  0
LINE
  5
1D8
  8
0
 62
     0
 10
862.51152121279995
 20
-185.77798069709999
 30
0.0
 11
862.51152121279995
 21
-184.81964720479999
 31
0.0
  0
LINE
  5
1D9
  8
0
 62
     0
 10
862.51152121279995
 20
-173.27798069709999
 30
0.0
 11
862.51152121279995
 21
-174.2363141893
 31
0.0
  0
LINE
  5
1DA
  8
0
 62
     0
 10
862.51152121279995
 20
-173.27798069709999
 30
0.0
 11
862.51152121279995
 21
-184.81964720479999
 31
0.0
  0
LINE
  5
1DB
  8
0
 62
     0
 10
862.51152121279995
 20
-173.27798069709999
 30
0.0
 11
862.51152121279995
 21
-170.27798069709999
 31
0.0
  0
SOLID
  5
1DC
  8
0
 62
     0
 10
862.51152121279995
 20
-173.27798069709999
 30
0.0
 11
861.76152121279995
 21
-170.27798069709999
 31
0.0
 12
863.26152121279995
 22
-170.27798069709999
 32
0.0
 13
862.51152121279995
 23
-171.02798069709999
 33
0.0
  0
LINE
  5
1DD
  8
0
 62
     0
 10
862.51152121279995
 20
-185.77798069709999
 30
0.0
 11
862.51152121279995
 21
-188.77798069709999
 31
0.0
  0
SOLID
  5
1DE
  8
0
 62
     0
 10
862.51152121279995
 20
-185.77798069709999
 30
0.0
 11
863.26152121279995
 21
-188.77798069709999
 31
0.0
 12
861.76152121279995
 22
-188.77798069709999
 32
0.0
 13
862.51152121279995
 23
-188.02798069709999
 33
0.0
  0
ENDBLK
  5
1DF
  8
0
  0
BLOCK
  8
0
  2
*D19
 70
     1
 10
0.0
 20
0.0
 30
0.0
  3
*D19
  1

  0
TEXT
  5
1E3
  8
0
 62
     0
 10
853.00471743440005
 20
-176.15992487700001
 30
0.0
 40
2.9986110209999999
  1
4
 50
90.0
  0
LINE
  5
1E4
  8
0
 62
     0
 10
833.26158866729997
 20
-177.27798022109999
 30
0.0
 11
855.03388408520016
 21
-177.27798022109999
 31
0.0
  0
LINE
  5
1E5
  8
0
 62
     0
 10
842.76158854169989
 20
-173.27798069709999
 30
0.0
 11
855.03388408520016
 21
-173.27798069709999
 31
0.0
  0
LINE
  5
1E6
  8
0
 62
     0
 10
854.53388408520004
 20
-177.27798022109999
 30
0.0
 11
854.53388408520004
 21
-177.27798022109999
 31
0.0
  0
LINE
  5
1E7
  8
0
 62
     0
 10
854.53388408520004
 20
-177.27798022109999
 30
0.0
 11
854.53388408520004
 21
-173.27798069709999
 31
0.0
  0
LINE
  5
1E8
  8
0
 62
     0
 10
854.53388408520004
 20
-173.27798069709999
 30
0.0
 11
854.53388408520004
 21
-177.27798022109999
 31
0.0
  0
LINE
  5
1E9
  8
0
 62
     0
 10
854.53388408520004
 20
-173.27798069709999
 30
0.0
 11
854.53388408520004
 21
-173.27798069709999
 31
0.0
  0
LINE
  5
1EA
  8
0
 62
     0
 10
854.53388408520004
 20
-173.27798069709999
 30
0.0
 11
854.53388408520004
 21
-170.27798069709999
 31
0.0
  0
SOLID
  5
1EB
  8
0
 62
     0
 10
854.53388408520004
 20
-173.27798069709999
 30
0.0
 11
853.78388408520004
 21
-170.27798069709999
 31
0.0
 12
855.28388408520004
 22
-170.27798069709999
 32
0.0
 13
854.53388408520004
 23
-171.02798069709999
 33
0.0
  0
LINE
  5
1EC
  8
0
 62
     0
 10
854.53388408520004
 20
-177.27798022109999
 30
0.0
 11
854.53388408520004
 21
-180.27798022109999
 31
0.0
  0
SOLID
  5
1ED
  8
0
 62
     0
 10
854.53388408520004
 20
-177.27798022109999
 30
0.0
 11
855.28388408520004
 21
-180.27798022109999
 31
0.0
 12
853.78388408520004
 22
-180.27798022109999
 32
0.0
 13
854.53388408520004
 23
-179.52798022109999
 33
0.0
  0
ENDBLK
  5
1EE
  8
0
  0
BLOCK
  8
0
  2
*D20
 70
     1
 10
0.0
 20
0.0
 30
0.0
  3
*D20
  1

  0
TEXT
  5
1F2
  8
0
 62
     0
 10
812.48381093939997
 20
-193.7488140463
 30
0.0
 40
2.9986110209999999
  1
14.5
  0
LINE
  5
1F3
  8
0
 62
     0
 10
808.76158854169989
 20
-186.27798069709999
 30
0.0
 11
808.76158854169989
 21
-195.77798069709999
 31
0.0
  0
LINE
  5
1F4
  8
0
 62
     0
 10
823.26158868079995
 20
-183.02798069709999
 30
0.0
 11
823.26158868079995
 21
-195.77798069709999
 31
0.0
  0
LINE
  5
1F5
  8
0
 62
     0
 10
808.76158854169989
 20
-195.27798069709999
 30
0.0
 11
821.3032551189998
 21
-195.27798069709999
 31
0.0
  0
LINE
  5
1F6
  8
0
 62
     0
 10
808.76158854169989
 20
-195.27798069709999
 30
0.0
 11
810.71992210349993
 21
-195.27798069709999
 31
0.0
  0
LINE
  5
1F7
  8
0
 62
     0
 10
823.26158868079995
 20
-195.27798069709999
 30
0.0
 11
821.3032551189998
 21
-195.27798069709999
 31
0.0
  0
LINE
  5
1F8
  8
0
 62
     0
 10
823.26158868079995
 20
-195.27798069709999
 30
0.0
 11
810.71992210349993
 21
-195.27798069709999
 31
0.0
  0
LINE
  5
1F9
  8
0
 62
     0
 10
823.26158868079995
 20
-195.27798069709999
 30
0.0
 11
826.26158868080006
 21
-195.27798069709999
 31
0.0
  0
SOLID
  5
1FA
  8
0
 62
     0
 10
823.26158868079995
 20
-195.27798069709999
 30
0.0
 11
826.26158868080006
 21
-194.52798069709999
 31
0.0
 12
826.26158868080006
 22
-196.02798069709999
 32
0.0
 13
825.51158868080006
 23
-195.27798069709999
 33
0.0
  0
LINE
  5
1FB
  8
0
 62
     0
 10
808.76158854169989
 20
-195.27798069709999
 30
0.0
 11
805.76158854170001
 21
-195.27798069709999
 31
0.0
  0
SOLID
  5
1FC
  8
0
 62
     0
 10
808.76158854169989
 20
-195.27798069709999
 30
0.0
 11
805.76158854170001
 21
-196.02798069709999
 31
0.0
 12
805.76158854170001
 22
-194.52798069709999
 32
0.0
 13
806.51158854170001
 23
-195.27798069709999
 33
0.0
  0
ENDBLK
  5
1FD
  8
0
  0
BLOCK
  8
0
  2
*D21
 70
     1
 10
0.0
 20
0.0
 30
0.0
  3
*D21
  1

  0
TEXT
  5
201
  8
0
 62
     0
 10
804.87964412369979
 20
-193.7488140463
 30
0.0
 40
2.9986110209999999
  1
6
  0
LINE
  5
202
  8
0
 62
     0
 10
802.76158854170001
 20
-184.77798069709999
 30
0.0
 11
802.76158854170001
 21
-195.77798069709999
 31
0.0
  0
LINE
  5
203
  8
0
 62
     0
 10
808.76158854169989
 20
-186.27798069709999
 30
0.0
 11
808.76158854169989
 21
-195.77798069709999
 31
0.0
  0
LINE
  5
204
  8
0
 62
     0
 10
802.76158854170001
 20
-195.27798069709999
 30
0.0
 11
808.4074217955
 21
-195.27798069709999
 31
0.0
  0
LINE
  5
205
  8
0
 62
     0
 10
802.76158854170001
 20
-195.27798069709999
 30
0.0
 11
803.11575528779986
 21
-195.27798069709999
 31
0.0
  0
LINE
  5
206
  8
0
 62
     0
 10
808.76158854169989
 20
-195.27798069709999
 30
0.0
 11
808.4074217955
 21
-195.27798069709999
 31
0.0
  0
LINE
  5
207
  8
0
 62
     0
 10
808.76158854169989
 20
-195.27798069709999
 30
0.0
 11
803.11575528779986
 21
-195.27798069709999
 31
0.0
  0
LINE
  5
208
  8
0
 62
     0
 10
808.76158854169989
 20
-195.27798069709999
 30
0.0
 11
811.76158854170001
 21
-195.27798069709999
 31
0.0
  0
SOLID
  5
209
  8
0
 62
     0
 10
808.76158854169989
 20
-195.27798069709999
 30
0.0
 11
811.76158854170001
 21
-194.52798069709999
 31
0.0
 12
811.76158854170001
 22
-196.02798069709999
 32
0.0
 13
811.01158854170001
 23
-195.27798069709999
 33
0.0
  0
LINE
  5
20A
  8
0
 62
     0
 10
802.76158854170001
 20
-195.27798069709999
 30
0.0
 11
799.76158854169989
 21
-195.27798069709999
 31
0.0
  0
SOLID
  5
20B
  8
0
 62
     0
 10
802.76158854170001
 20
-195.27798069709999
 30
0.0
 11
799.76158854169989
 21
-196.02798069709999
 31
0.0
 12
799.76158854169989
 22
-194.52798069709999
 32
0.0
 13
800.51158854170001
 23
-195.27798069709999
 33
0.0
  0
ENDBLK
  5
20C
  8
0
  0
BLOCK
  8
0
  2
*D22
 70
     1
 10
0.0
 20
0.0
 30
0.0
  3
*D22
  1

  0
TEXT
  5
210
  8
0
 62
     0
 10
821.49769970579996
 20
-202.1330322622
 30
0.0
 40
2.9986110209999999
  1
41
  0
LINE
  5
211
  8
0
 62
     0
 10
802.76158854170001
 20
-184.77798069709999
 30
0.0
 11
802.76158854170001
 21
-204.162198913
 31
0.0
  0
LINE
  5
212
  8
0
 62
     0
 10
843.76158854169989
 20
-184.77798069709999
 30
0.0
 11
843.76158854169989
 21
-204.162198913
 31
0.0
  0
LINE
  5
213
  8
0
 62
     0
 10
802.76158854170001
 20
-203.662198913
 30
0.0
 11
826.7893662135001
 21
-203.662198913
 31
0.0
  0
LINE
  5
214
  8
0
 62
     0
 10
802.76158854170001
 20
-203.662198913
 30
0.0
 11
819.73381086990003
 21
-203.662198913
 31
0.0
  0
LINE
  5
215
  8
0
 62
     0
 10
843.76158854169989
 20
-203.662198913
 30
0.0
 11
826.7893662135001
 21
-203.662198913
 31
0.0
  0
LINE
  5
216
  8
0
 62
     0
 10
843.76158854169989
 20
-203.662198913
 30
0.0
 11
819.73381086990003
 21
-203.662198913
 31
0.0
  0
LINE
  5
217
  8
0
 62
     0
 10
843.76158854169989
 20
-203.662198913
 30
0.0
 11
840.76158854170001
 21
-203.662198913
 31
0.0
  0
SOLID
  5
218
  8
0
 62
     0
 10
843.76158854169989
 20
-203.662198913
 30
0.0
 11
840.76158854170001
 21
-204.412198913
 31
0.0
 12
840.76158854170001
 22
-202.912198913
 32
0.0
 13
841.51158854170001
 23
-203.662198913
 33
0.0
  0
LINE
  5
219
  8
0
 62
     0
 10
802.76158854170001
 20
-203.662198913
 30
0.0
 11
805.76158854170001
 21
-203.662198913
 31
0.0
  0
SOLID
  5
21A
  8
0
 62
     0
 10
802.76158854170001
 20
-203.662198913
 30
0.0
 11
805.76158854170001
 21
-202.912198913
 31
0.0
 12
805.76158854170001
 22
-204.412198913
 32
0.0
 13
805.01158854170001
 23
-203.662198913
 33
0.0
  0
ENDBLK
  5
21B
  8
0
  0
BLOCK
  8
0
  2
*D23
 70
     1
 10
0.0
 20
0.0
 30
0.0
  3
*D23
  1

  0
TEXT
  5
21F
  8
0
 62
     0
 10
853.00105191869989
 20
-179.65992487700001
 30
0.0
 40
2.9986110209999999
  1
3
 50
90.0
  0
LINE
  5
220
  8
0
 62
     0
 10
843.76158854169989
 20
-180.27798069709999
 30
0.0
 11
855.03021856939995
 21
-180.27798069709999
 31
0.0
  0
LINE
  5
221
  8
0
 62
     0
 10
833.26158866729997
 20
-177.27798022109999
 30
0.0
 11
855.03021856939995
 21
-177.27798022109999
 31
0.0
  0
LINE
  5
222
  8
0
 62
     0
 10
854.53021856939995
 20
-180.27798069709999
 30
0.0
 11
854.53021856939995
 21
-180.27798069709999
 31
0.0
  0
LINE
  5
223
  8
0
 62
     0
 10
854.53021856939995
 20
-180.27798069709999
 30
0.0
 11
854.53021856939995
 21
-177.27798022109999
 31
0.0
  0
LINE
  5
224
  8
0
 62
     0
 10
854.53021856939995
 20
-177.27798022109999
 30
0.0
 11
854.53021856939995
 21
-180.27798069709999
 31
0.0
  0
LINE
  5
225
  8
0
 62
     0
 10
854.53021856939995
 20
-177.27798022109999
 30
0.0
 11
854.53021856939995
 21
-177.27798022109999
 31
0.0
  0
LINE
  5
226
  8
0
 62
     0
 10
854.53021856939995
 20
-177.27798022109999
 30
0.0
 11
854.53021856939995
 21
-174.27798022109999
 31
0.0
  0
SOLID
  5
227
  8
0
 62
     0
 10
854.53021856939995
 20
-177.27798022109999
 30
0.0
 11
853.78021856940006
 21
-174.27798022109999
 31
0.0
 12
855.28021856939995
 22
-174.27798022109999
 32
0.0
 13
854.53021856939995
 23
-175.02798022109999
 33
0.0
  0
LINE
  5
228
  8
0
 62
     0
 10
854.53021856939995
 20
-180.27798069709999
 30
0.0
 11
854.53021856939995
 21
-183.27798069709999
 31
0.0
  0
SOLID
  5
229
  8
0
 62
     0
 10
854.53021856939995
 20
-180.27798069709999
 30
0.0
 11
855.28021856939995
 21
-183.27798069709999
 31
0.0
 12
853.78021856940006
 22
-183.27798069709999
 32
0.0
 13
854.53021856939995
 23
-182.52798069709999
 33
0.0
  0
ENDBLK
  5
22A
  8
0
  0
BLOCK
  8
0
  2
*D24
 70
     1
 10
0.0
 20
0.0
 30
0.0
  3
*D24
  1

  0
TEXT
  5
247
  8
0
 62
     0
 10
732.48128396720006
 20
-184.7856858879
 30
0.0
 40
2.9986110209999999
  1
3-%%c4x%%c5.5皿穴
  0
LINE
  5
248
  8
0
 62
     0
 10
773.76664138119986
 20
-185.31485253860001
 30
0.0
 11
728.95350629539996
 21
-185.31485253860001
 31
0.0
  0
LINE
  5
249
  8
0
 62
     0
 10
786.81258661000004
 20
-194.5452402263
 30
0.0
 11
773.76664138119986
 21
-185.31485253860001
 31
0.0
  0
SOLID
  5
24A
  8
0
 62
     0
 10
786.81258661000004
 20
-194.5452402263
 30
0.0
 11
783.93039956070004
 21
-193.4247502385
 31
0.0
 12
784.79676979609985
 22
-192.20024927270001
 32
0.0
 13
784.9758351613001
 23
-193.24568487330001
 33
0.0
  0
ENDBLK
  5
24B
  8
0
  0
BLOCK
  8
0
  2
CLUMP0
 70
     0
 10
0.0
 20
0.0
 30
0.0
  3
CLUMP0
  1

  0
CIRCLE
  5
278
  8
ﾚｲﾔ_1
  6
STITCH
 10
795.76158854169989
 20
-209.27798069709999
 30
0.0
 40
2.75
  0
CIRCLE
  5
279
  8
ﾚｲﾔ_1
  6
STITCH
 10
789.26158854170001
 20
-196.27798069709991
 30
0.0
 40
2.75
  0
CIRCLE
  5
27A
  8
ﾚｲﾔ_1
  6
STITCH
 10
795.76158854169989
 20
-183.27798069709999
 30
0.0
 40
2.75
  0
CIRCLE
  5
27B
  8
ﾚｲﾔ_1
 62
     5
 10
795.76158854169989
 20
-183.27798069709999
 30
0.0
 40
2.0
  0
LINE
  5
27C
  8
ﾚｲﾔ_1
  6
BORDER
 62
     3
 10
800.76158854169989
 20
-183.27798069709999
 30
0.0
 11
790.76158854170001
 21
-183.27798069709999
 31
0.0
  0
LINE
  5
27D
  8
ﾚｲﾔ_1
  6
BORDER
 62
     3
 10
795.76158854169989
 20
-178.27798069709999
 30
0.0
 11
795.76158854169989
 21
-188.27798069709999
 31
0.0
  0
LINE
  5
27E
  8
ﾚｲﾔ_1
  6
BORDER
 62
     3
 10
789.26158854170001
 20
-191.27798069709999
 30
0.0
 11
789.26158854170001
 21
-201.27798069709999
 31
0.0
  0
LINE
  5
27F
  8
ﾚｲﾔ_1
  6
BORDER
 62
     3
 10
794.26158854170001
 20
-196.27798069709991
 30
0.0
 11
784.26158854170001
 21
-196.27798069709991
 31
0.0
  0
CIRCLE
  5
280
  8
ﾚｲﾔ_1
 62
     5
 10
789.26158854170001
 20
-196.27798069709991
 30
0.0
 40
2.0
  0
CIRCLE
  5
281
  8
ﾚｲﾔ_1
 62
     5
 10
795.76158854169989
 20
-209.27798069709999
 30
0.0
 40
2.0
  0
LINE
  5
282
  8
ﾚｲﾔ_1
  6
BORDER
 62
     3
 10
800.76158854169989
 20
-209.27798069709999
 30
0.0
 11
790.76158854170001
 21
-209.27798069709999
 31
0.0
  0
LINE
  5
283
  8
ﾚｲﾔ_1
  6
BORDER
 62
     3
 10
795.76158854169989
 20
-204.27798069709999
 30
0.0
 11
795.76158854169989
 21
-214.27798069709999
 31
0.0
  0
ARC
  5
284
  8
ﾚｲﾔ_1
 62
     5
 10
798.76158854170001
 20
-213.27798069709999
 30
0.0
 40
2.0
 50
270.0
 51
0.0
  0
LINE
  5
285
  8
ﾚｲﾔ_1
 62
     5
 10
798.76158854170001
 20
-215.27798069709999
 30
0.0
 11
786.26158854170001
 21
-215.27798069709999
 31
0.0
  0
LINE
  5
286
  8
ﾚｲﾔ_1
 62
     5
 10
800.76158854169989
 20
-173.27798069709999
 30
0.0
 11
800.76158854169989
 21
-213.27798069709999
 31
0.0
  0
ARC
  5
287
  8
ﾚｲﾔ_1
 62
     5
 10
786.26158854170001
 20
-213.27798069709999
 30
0.0
 40
2.0
 50
180.0
 51
270.0
  0
LINE
  5
288
  8
ﾚｲﾔ_1
 62
     5
 10
784.26158854170001
 20
-175.0779806971
 30
0.0
 11
784.26158854170001
 21
-213.27798069709999
 31
0.0
  0
LINE
  5
289
  8
ﾚｲﾔ_1
  6
STITCH
 10
784.26158854170001
 20
-175.0779806971
 30
0.0
 11
784.26158854170001
 21
-173.27798069709999
 31
0.0
  0
LINE
  5
28A
  8
ﾚｲﾔ_1
 62
     5
 10
780.76158854170001
 20
-173.27798069709999
 30
0.0
 11
780.76158854170001
 21
-174.87798069710001
 31
0.0
  0
LINE
  5
28B
  8
ﾚｲﾔ_1
 62
     5
 10
780.76158854170001
 20
-173.27798069709999
 30
0.0
 11
800.76158854169989
 21
-173.27798069709999
 31
0.0
  0
LINE
  5
28C
  8
ﾚｲﾔ_1
 62
     5
 10
780.76158854170001
 20
-174.87798069710001
 30
0.0
 11
800.76158854169989
 21
-174.87798069710001
 31
0.0
  0
ENDBLK
  5
28D
  8
0
  0
BLOCK
  8
0
  2
CLUMP1
 70
     0
 10
0.0
 20
0.0
 30
0.0
  3
CLUMP1
  1

  0
LINE
  5
291
  8
ﾚｲﾔ_1
  6
BORDER
 62
     3
 10
808.76158854169989
 20
-175.27798069709999
 30
0.0
 11
808.76158854169989
 21
-185.27798069709999
 31
0.0
  0
LINE
  5
292
  8
ﾚｲﾔ_1
  6
BORDER
 62
     3
 10
813.76158854170001
 20
-180.27798069709999
 30
0.0
 11
803.76158854170001
 21
-180.27798069709999
 31
0.0
  0
CIRCLE
  5
293
  8
ﾚｲﾔ_1
 62
     5
 10
808.76158854169989
 20
-180.27798069709999
 30
0.0
 40
2.0
  0
CIRCLE
  5
294
  8
ﾚｲﾔ_1
 62
     5
 10
837.76158854170001
 20
-180.27798069709999
 30
0.0
 40
2.0
  0
LINE
  5
295
  8
ﾚｲﾔ_1
  6
BORDER
 62
     3
 10
842.76158854169989
 20
-180.27798069709999
 30
0.0
 11
832.76158854169989
 21
-180.27798069709999
 31
0.0
  0
LINE
  5
296
  8
ﾚｲﾔ_1
  6
BORDER
 62
     3
 10
837.76158854170001
 20
-175.27798069709999
 30
0.0
 11
837.76158854170001
 21
-185.27798069709999
 31
0.0
  0
LINE
  5
297
  8
ﾚｲﾔ_1
 62
     5
 10
831.7666011046
 20
-172.37798069710001
 30
0.0
 11
780.76158854170001
 21
-172.37798069710001
 31
0.0
  0
ARC
  5
298
  8
ﾚｲﾔ_1
 62
     5
 10
832.76158854169989
 20
-172.27798069709999
 30
0.0
 40
1.0
 50
180.0
 51
270.0
  0
LINE
  5
299
  8
ﾚｲﾔ_1
 62
     5
 10
841.76158854169989
 20
-173.27798069709999
 30
0.0
 11
832.76158854169989
 21
-173.27798069709999
 31
0.0
  0
LINE
  5
29A
  8
ﾚｲﾔ_1
 62
     5
 10
831.76158854170001
 20
-171.77798069709999
 30
0.0
 11
831.76158854170001
 21
-172.27798069709999
 31
0.0
  0
ARC
  5
29B
  8
ﾚｲﾔ_1
 62
     5
 10
830.76158854170001
 20
-171.77798069709999
 30
0.0
 40
1.0
 50
0.0
 51
90.0
  0
LINE
  5
29C
  8
ﾚｲﾔ_1
 62
     5
 10
830.76158854170001
 20
-170.77798069709999
 30
0.0
 11
780.76158854170001
 21
-170.77798069709999
 31
0.0
  0
ARC
  5
29D
  8
ﾚｲﾔ_1
 62
     5
 10
804.76158854170001
 20
-183.77798069709991
 30
0.0
 40
2.0
 50
180.0
 51
270.0
  0
LINE
  5
29E
  8
ﾚｲﾔ_1
 62
     5
 10
780.76158854170001
 20
-170.77798069709999
 30
0.0
 11
780.76158854170001
 21
-172.37798069710001
 31
0.0
  0
LINE
  5
29F
  8
ﾚｲﾔ_1
 62
     5
 10
841.76158854169989
 20
-185.77798069709999
 30
0.0
 11
804.76158854170001
 21
-185.77798069709999
 31
0.0
  0
LINE
  5
2A0
  8
ﾚｲﾔ_1
 62
     5
 10
802.76158854170001
 20
-172.37798069710001
 30
0.0
 11
802.76158854170001
 21
-183.77798069709991
 31
0.0
  0
ARC
  5
2A1
  8
ﾚｲﾔ_1
 62
     5
 10
841.76158854169989
 20
-183.77798069709991
 30
0.0
 40
2.0
 50
270.0
 51
0.0
  0
LINE
  5
2A2
  8
ﾚｲﾔ_1
 62
     5
 10
843.76158854169989
 20
-175.27798069709999
 30
0.0
 11
843.76158854169989
 21
-183.77798069709991
 31
0.0
  0
ARC
  5
2A3
  8
ﾚｲﾔ_1
 62
     5
 10
841.76158854169989
 20
-175.27798069709999
 30
0.0
 40
2.0
 50
0.0
 51
90.0
  0
LINE
  5
2A4
  8
ﾚｲﾔ_1
  6
STITCH
 10
802.76158854170001
 20
-170.77798069709999
 30
0.0
 11
802.76158854170001
 21
-172.37798069710001
 31
0.0
  0
ARC
  5
2A5
  8
ﾚｲﾔ_1
 62
     5
 10
819.01158854170001
 20
-177.27798088009999
 30
0.0
 40
2.0
 50
90.000009780400006
 51
270.00000682450002
  0
ARC
  5
2A6
  8
ﾚｲﾔ_1
 62
     5
 10
819.01158854170001
 20
-177.27798088009999
 30
0.0
 40
2.75
 50
90.000009780400006
 51
270.00000682450002
  0
LINE
  5
2A7
  8
ﾚｲﾔ_1
 62
     5
 10
827.51158884759991
 20
-180.02798051400001
 30
0.0
 11
819.01158877990008
 21
-180.02798088009999
 31
0.0
  0
LINE
  5
2A8
  8
ﾚｲﾔ_1
 62
     5
 10
819.01158820030003
 20
-174.52798088009999
 30
0.0
 11
827.51158884149993
 21
-174.52798051400001
 31
0.0
  0
LINE
  5
2A9
  8
ﾚｲﾔ_1
 62
     5
 10
827.51158884759991
 20
-179.27798051400001
 30
0.0
 11
819.01158877990008
 21
-179.27798088009999
 31
0.0
  0
LINE
  5
2AA
  8
ﾚｲﾔ_1
 62
     5
 10
819.01158820030003
 20
-175.2779808800999
 30
0.0
 11
827.51158884149993
 21
-175.27798051400001
 31
0.0
  0
ARC
  5
2AB
  8
ﾚｲﾔ_1
 62
     5
 10
827.51158854169989
 20
-177.27798051400001
 30
0.0
 40
2.0
 50
270.00000876569999
 51
89.999991411299987
  0
ARC
  5
2AC
  8
ﾚｲﾔ_1
 62
     5
 10
827.51158854169989
 20
-177.27798051400001
 30
0.0
 40
2.75
 50
270.00000876569999
 51
89.999991411299987
  0
LINE
  5
2AD
  8
ﾚｲﾔ_1
  6
BORDER
 62
     3
 10
832.26158866729997
 20
-177.27798022109999
 30
0.0
 11
813.7615885342999
 21
-177.27798099
 31
0.0
  0
CIRCLE
  5
2AE
  8
ﾚｲﾔ_1
 62
     5
 10
808.76158854169989
 20
-180.27798069709999
 30
0.0
 40
2.75
  0
CIRCLE
  5
2AF
  8
ﾚｲﾔ_1
 62
     5
 10
837.76158854170001
 20
-180.27798069709999
 30
0.0
 40
2.75
  0
LINE
  5
2B0
  8
ﾚｲﾔ_1
  6
BORDER
 62
     3
 10
823.26158840249991
 20
-172.52798069709999
 30
0.0
 11
823.26158868079995
 21
-182.02798069709999
 31
0.0
  0
ENDBLK
  5
2B1
  8
0
  0
BLOCK
  8
0
  2
CLUMP2
 70
     0
 10
0.0
 20
0.0
 30
0.0
  3
CLUMP2
  1

  0
LINE
  5
2C4
  8
ﾚｲﾔ_1
  6
BORDER
 62
     3
 10
785.76158854170001
 20
-259.61707179140001
 30
0.0
 11
785.76158854170001
 21
-255.61707179140001
 31
0.0
  0
LINE
  5
2C5
  8
ﾚｲﾔ_1
  6
BORDER
 62
     3
 10
783.76158854170001
 20
-257.61707179140001
 30
0.0
 11
787.76158854170001
 21
-257.61707179140001
 31
0.0
  0
ARC
  5
2C6
  8
ﾚｲﾔ_1
 62
     5
 10
830.61146436850015
 20
-252.74539514509999
 30
0.0
 40
50.0
 50
184.44106025650001
 51
202.05111034839999
  0
LINE
  5
2C7
  8
ﾚｲﾔ_1
  6
BORDER
 62
     3
 10
789.26899835849997
 20
-269.51707179139999
 30
0.0
 11
789.26899835849997
 21
-275.11707179140001
 31
0.0
  0
LINE
  5
2C8
  8
ﾚｲﾔ_1
 62
     5
 10
784.26899835850008
 20
-271.51707179139999
 30
0.0
 11
784.26899835850008
 21
-273.11707179140001
 31
0.0
  0
LINE
  5
2C9
  8
ﾚｲﾔ_1
  6
STITCH
 10
787.26899835850008
 20
-272.11707179140001
 30
0.0
 11
787.26899835850008
 21
-271.51707179139999
 31
0.0
  0
LINE
  5
2CA
  8
ﾚｲﾔ_1
  6
STITCH
 10
786.26899835849997
 20
-273.11707179140001
 30
0.0
 11
787.26899835850008
 21
-272.11707179140001
 31
0.0
  0
LINE
  5
2CB
  8
ﾚｲﾔ_1
  6
STITCH
 10
791.26899835850008
 20
-272.11707179140001
 30
0.0
 11
791.26899835850008
 21
-271.51707179139999
 31
0.0
  0
LINE
  5
2CC
  8
ﾚｲﾔ_1
  6
STITCH
 10
792.26899835850008
 20
-273.11707179140001
 30
0.0
 11
791.26899835850008
 21
-272.11707179140001
 31
0.0
  0
LINE
  5
2CD
  8
ﾚｲﾔ_1
  6
STITCH
 10
793.76899835849997
 20
-272.11707179140001
 30
0.0
 11
793.76899835849997
 21
-271.51707179139999
 31
0.0
  0
LINE
  5
2CE
  8
ﾚｲﾔ_1
  6
STITCH
 10
792.76899835849997
 20
-273.11707179140001
 30
0.0
 11
793.76899835849997
 21
-272.11707179140001
 31
0.0
  0
LINE
  5
2CF
  8
ﾚｲﾔ_1
  6
STITCH
 10
797.76899835849997
 20
-272.11707179140001
 30
0.0
 11
797.76899835849997
 21
-271.51707179139999
 31
0.0
  0
LINE
  5
2D0
  8
ﾚｲﾔ_1
  6
STITCH
 10
798.76899835849997
 20
-273.11707179140001
 30
0.0
 11
797.76899835849997
 21
-272.11707179140001
 31
0.0
  0
LINE
  5
2D1
  8
ﾚｲﾔ_1
  6
BORDER
 62
     3
 10
795.76899835850008
 20
-269.51707179139999
 30
0.0
 11
795.76899835850008
 21
-275.11707179140001
 31
0.0
  0
LINE
  5
2D2
  8
ﾚｲﾔ_1
 62
     5
 10
800.76899835850008
 20
-271.51707179139999
 30
0.0
 11
800.76899835850008
 21
-273.11707179140001
 31
0.0
  0
LINE
  5
2D3
  8
ﾚｲﾔ_1
 62
     5
 10
784.26899835850008
 20
-271.51707179139999
 30
0.0
 11
800.76899835850008
 21
-271.51707179139999
 31
0.0
  0
LINE
  5
2D4
  8
ﾚｲﾔ_1
 62
     5
 10
784.26899835850008
 20
-273.11707179140001
 30
0.0
 11
800.76899835850008
 21
-273.11707179140001
 31
0.0
  0
ARC
  5
2D5
  8
ﾚｲﾔ_1
 62
     5
 10
784.59667779210008
 20
-254.61707179140001
 30
0.0
 40
2.0
 50
77.762105615500005
 51
94.942748993400002
  0
ARC
  5
2D6
  8
ﾚｲﾔ_1
 62
     5
 10
784.76899835849997
 20
-256.61707179140001
 30
0.0
 40
4.0074098168000001
 50
94.933587031399995
 51
180.0
  0
ARC
  5
2D7
  8
ﾚｲﾔ_1
 62
     5
 10
780.78093583550003
 20
-272.2079817545
 30
0.0
 40
20.0
 50
1.979705139
 51
77.761342153599983
  0
ENDBLK
  5
2D8
  8
0
  0
BLOCK
  8
0
  2
*U28
 70
     1
 10
0.0
 20
0.0
 30
0.0
  3
*U28
  1

  0
TEXT
  5
303
  8
ﾚｲﾔ_1
  6
CONTINUOUS
 10
927.44847867270005
 20
-286.89007098758168
 30
0.0
 40
3.5983331442000002
  1
＊図はＲ用(Ｌ用は対称)
  0
ENDBLK
  5
305
  8
0
  0
BLOCK
  8
0
  2
*U29
 70
     1
 10
0.0
 20
0.0
 30
0.0
  3
*U29
  1

  0
TEXT
  5
307
  8
図枠
  6
CONTINUOUS
 10
964.46095308478016
 20
-129.3851116315416
 30
0.0
 40
2.698480084499999
  1
検認者
  0
ENDBLK
  5
309
  8
0
  0
BLOCK
  8
0
  2
*U30
 70
     1
 10
0.0
 20
0.0
 30
0.0
  3
*U30
  1

  0
TEXT
  5
30B
  8
ﾚｲﾔ_1
  6
CONTINUOUS
 10
857.84798694119991
 20
-286.92660228853799
 30
0.0
 40
3.5983331442000002
  1
材質：鉄製　クロメートメッキ
  0
ENDBLK
  5
30D
  8
0
  0
BLOCK
  8
0
  2
*U31
 70
     1
 10
0.0
 20
0.0
 30
0.0
  3
*U31
  1

  0
TEXT
  5
30F
  8
図枠
  6
CONTINUOUS
 10
858.51286867409988
 20
-301.74138996358232
 30
0.0
 40
2.337266249999999
  1
 設計
  0
ENDBLK
  5
311
  8
0
  0
BLOCK
  8
0
  2
*U32
 70
     1
 10
0.0
 20
0.0
 30
0.0
  3
*U32
  1

  0
TEXT
  5
313
  8
図枠
  6
CONTINUOUS
 10
888.50986867410006
 20
-306.02655785063808
 30
0.0
 40
2.337266249999999
  1
 検図
  0
ENDBLK
  5
315
  8
0
  0
BLOCK
  8
0
  2
*U33
 70
     1
 10
0.0
 20
0.0
 30
0.0
  3
*U33
  1

  0
TEXT
  5
317
  8
図枠
  6
CONTINUOUS
 10
891.36551907141086
 20
-129.34401802619391
 30
0.0
 40
2.698480084499999
  1
改訂日
  0
ENDBLK
  5
319
  8
0
  0
BLOCK
  8
0
  2
*U34
 70
     1
 10
0.0
 20
0.0
 30
0.0
  3
*U34
  1

  0
TEXT
  5
31B
  8
図枠
  6
CONTINUOUS
 10
881.13374410136294
 20
-129.3166222892954
 30
0.0
 40
2.698480084499999
  1
副番
  0
ENDBLK
  5
31D
  8
0
  0
BLOCK
  8
0
  2
*U35
 70
     1
 10
0.0
 20
0.0
 30
0.0
  3
*U35
  1

  0
TEXT
  5
31F
  8
図枠
  6
CONTINUOUS
 10
954.50304669012792
 20
-129.37141376309239
 30
0.0
 40
2.698480084499999
  1
改訂者
  0
ENDBLK
  5
321
  8
0
  0
BLOCK
  8
0
  2
*U36
 70
     1
 10
0.0
 20
0.0
 30
0.0
  3
*U36
  1

  0
TEXT
  5
323
  8
図枠
  6
CONTINUOUS
 10
917.43794657032095
 20
-129.37141376309239
 30
0.0
 40
2.698480084499999
  1
改　訂　内　容
  0
ENDBLK
  5
325
  8
0
  0
BLOCK
  8
0
  2
*U37
 70
     1
 10
0.0
 20
0.0
 30
0.0
  3
*U37
  1

  0
TEXT
  5
327
  8
図枠
  6
CONTINUOUS
 10
918.73102138349077
 20
-293.06045570095279
 30
0.0
 40
2.337266249999999
  1
製品名
  0
ENDBLK
  5
329
  8
0
  0
BLOCK
  8
0
  2
*U38
 70
     1
 10
0.0
 20
0.0
 30
0.0
  3
*U38
  1

  0
TEXT
  5
32B
  8
図枠
  6
CONTINUOUS
 10
859.91418791902402
 20
-306.01469355495283
 30
0.0
 40
2.337266249999999
  1
製図
  0
ENDBLK
  5
32D
  8
0
  0
BLOCK
  8
0
  2
*U39
 70
     1
 10
0.0
 20
0.0
 30
0.0
  3
*U39
  1

  0
TEXT
  5
32F
  8
図枠
  6
CONTINUOUS
 10
883.33110360747571
 20
-293.26596855495279
 30
0.0
 40
2.337266249999999
  1
尺 　度
  0
ENDBLK
  5
331
  8
0
  0
BLOCK
  8
0
  2
*U40
 70
     1
 10
0.0
 20
0.0
 30
0.0
  3
*U40
  1

  0
TEXT
  5
333
  8
図枠
  6
CONTINUOUS
 10
885.62091267473465
 20
-297.39690059809999
 30
0.0
 40
2.337266249999999
  1
1：1
  0
ENDBLK
  5
335
  8
0
  0
BLOCK
  8
0
  2
*U41
 70
     1
 10
0.0
 20
0.0
 30
0.0
  3
*U41
  1

  0
TEXT
  5
337
  8
図枠
  6
CONTINUOUS
 10
873.89235849008992
 20
-306.03842214632328
 30
0.0
 40
2.337266249999999
  1
岸 本
  0
ENDBLK
  5
339
  8
0
  0
BLOCK
  8
0
  2
*U42
 70
     1
 10
0.0
 20
0.0
 30
0.0
  3
*U42
  1

  0
TEXT
  5
33B
  8
図枠
  6
CONTINUOUS
 10
873.19236504465835
 20
-301.77698285063809
 30
0.0
 40
2.337266249999999
  1
白須賀
  0
ENDBLK
  5
33D
  8
0
  0
BLOCK
  8
0
  2
*U43
 70
     1
 10
0.0
 20
0.0
 30
0.0
  3
*U43
  1

  0
TEXT
  5
33F
  8
図枠
  6
CONTINUOUS
 10
903.90122278577508
 20
-301.70579707652638
 30
0.0
 40
2.337266249999999
  1
園 原
  0
ENDBLK
  5
341
  8
0
  0
BLOCK
  8
0
  2
*U44
 70
     1
 10
0.0
 20
0.0
 30
0.0
  3
*U44
  1

  0
TEXT
  5
343
  8
図枠
  6
CONTINUOUS
 10
903.90122278577508
 20
-305.95537207652637
 30
0.0
 40
2.337266249999999
  1
園 原
  0
ENDBLK
  5
345
  8
0
  0
BLOCK
  8
0
  2
*U45
 70
     1
 10
0.0
 20
0.0
 30
0.0
  3
*U45
  1

  0
TEXT
  5
347
  8
図枠
  6
CONTINUOUS
 10
888.50986867410006
 20
-301.75325425926752
 30
0.0
 40
2.337266249999999
  1
 照査
  0
ENDBLK
  5
349
  8
0
  0
BLOCK
  8
0
  2
*U46
 70
     1
 10
0.0
 20
0.0
 30
0.0
  3
*U46
  1

  0
TEXT
  5
34B
  8
図枠
  6
CONTINUOUS
 10
933.6134606215528
 20
-295.87683637246761
 30
0.0
 40
2.9983111599000001
  1
 キャビネット丁番
  0
ENDBLK
  5
34D
  8
0
  0
BLOCK
  8
0
  2
*U47
 70
     1
 10
0.0
 20
0.0
 30
0.0
  3
*U47
  1

  0
TEXT
  5
34F
  8
図枠
  6
CONTINUOUS
 10
862.73300034349995
 20
-313.38804136830657
 30
0.0
 40
4.3175681352000002
  1
株式会社
  0
ENDBLK
  5
351
  8
0
  0
BLOCK
  8
0
  2
*U48
 70
     1
 10
0.0
 20
0.0
 30
0.0
  3
*U48
  1

  0
TEXT
  5
353
  8
図枠
  6
CONTINUOUS
 10
937.15207658437896
 20
-304.1476885684142
 30
0.0
 40
2.9983111599000001
  1
ＳＳ型   承認図
  0
ENDBLK
  5
355
  8
0
  0
BLOCK
  8
0
  2
*U49
 70
     1
 10
0.0
 20
0.0
 30
0.0
  3
*U49
  1

  0
TEXT
  5
357
  8
図枠
  6
CONTINUOUS
 10
864.69749761128276
 20
-297.39690059809999
 30
0.0
 40
2.337266249999999
  1
H16.4
  0
ENDBLK
  5
359
  8
0
  0
BLOCK
  8
0
  2
*U50
 70
     1
 10
0.0
 20
0.0
 30
0.0
  3
*U50
  1

  0
TEXT
  5
35B
  8
図枠
  6
CONTINUOUS
 10
863.58225381686657
 20
-293.19478278084108
 30
0.0
 40
2.337266249999999
  1
日 　付
  0
ENDBLK
  5
35D
  8
0
  0
BLOCK
  8
0
  2
*U51
 70
     1
 10
0.0
 20
0.0
 30
0.0
  3
*U51
  1

  0
TEXT
  5
35F
  8
図枠
  6
CONTINUOUS
 10
935.78228976005926
 20
-312.58595915400002
 30
0.0
 40
2.9983111599000001
  1
ＳＦＺ０００２７
  0
ENDBLK
  5
361
  8
0
  0
BLOCK
  8
0
  2
*U52
 70
     1
 10
0.0
 20
0.0
 30
0.0
  3
*U52
  1

  0
TEXT
  5
363
  8
図枠
  6
CONTINUOUS
 10
918.78441071407462
 20
-310.01129851821167
 30
0.0
 40
2.337266249999999
  1
図　番
  0
ENDBLK
  5
365
  8
0
  0
BLOCK
  8
0
  2
*U53
 70
     1
 10
0.0
 20
0.0
 30
0.0
  3
*U53
  1

  0
TEXT
  5
367
  8
図枠
  6
CONTINUOUS
 10
918.79627500975982
 20
-301.53587710958232
 30
0.0
 40
2.337266249999999
  1
図面名
  0
ENDBLK
  5
369
  8
0
  0
ENDSEC
  0
SECTION
  2
ENTITIES
  0
LINE
  5
2F
  8
図枠
 10
858.51286867409988
 20
-307.10289649409998
 30
0.0
 11
974.50126867409995
 21
-307.10289649409998
 31
0.0
  0
CIRCLE
  5
30
  8
図枠
 10
904.5722622740999
 20
-294.3541714941
 30
0.0
 40
2.303769599999999
  0
LINE
  5
31
  8
図枠
  6
BORDER
 10
901.11660787410005
 20
-294.3541714941
 30
0.0
 11
915.89912947409994
 21
-294.3541714941
 31
0.0
  0
LINE
  5
32
  8
図枠
  6
DOT
 10
693.52936867410006
 20
-321.3514714941
 30
0.0
 11
980.50066867409998
 21
-321.3514714941
 31
0.0
  0
LINE
  5
33
  8
図枠
 62
     5
 10
699.52876867410009
 20
-315.60204649410002
 30
0.0
 11
974.50126867409995
 21
-315.60204649410002
 31
0.0
  0
LINE
  5
34
  8
図枠
 62
     5
 10
974.50126867409995
 20
-315.60204649410002
 30
0.0
 11
974.50126867409995
 21
-125.6210464941
 31
0.0
  0
LINE
  5
35
  8
図枠
 10
880.51066867409997
 20
-294.3541714941
 30
0.0
 11
894.50926867409999
 21
-294.3541714941
 31
0.0
  0
LINE
  5
36
  8
図枠
 10
895.30639031999999
 20
-310.0744609345
 30
0.0
 11
895.30639031999999
 21
-309.67450093449997
 31
0.0
  0
INSERT
  5
38
  8
0
  6
CONTINUOUS
  2
*U28
 10
0.0
 20
0.0
 30
0.0
  0
LINE
  5
39
  8
図枠
  6
BORDER
 10
904.5722622740999
 20
-290.89851709409999
 30
0.0
 11
904.5722622740999
 21
-297.80982589410002
 31
0.0
  0
ARC
  5
3A
  8
図枠
 10
900.63434231999997
 20
-309.67450093449997
 30
0.0
 40
4.3995600000000001
 50
322.48761197969998
 51
0.0
  0
LINE
  5
3B
  8
図枠
 10
902.26322940830005
 20
-311.28959613289999
 30
0.0
 11
902.07077201099992
 21
-311.50216556219999
 31
0.0
  0
LINE
  5
3C
  8
図枠
 10
889.70695032000003
 20
-312.87418093450009
 30
0.0
 11
889.70695032000003
 21
-314.07406093449998
 31
0.0
  0
LINE
  5
3D
  8
図枠
 10
898.63454232000015
 20
-314.07406093449998
 30
0.0
 11
900.63434231999997
 21
-314.07406093449998
 31
0.0
  0
LINE
  5
3E
  8
図枠
 10
858.51286867409988
 20
-298.60374649409999
 30
0.0
 11
974.50126867409995
 21
-298.60374649409999
 31
0.0
  0
ARC
  5
3F
  8
図枠
 10
899.59444631999997
 20
-309.83448493449998
 30
0.0
 40
3.0396959999999988
 50
270.0
 51
298.08590481520002
  0
LINE
  5
40
  8
図枠
 10
895.30639031999999
 20
-309.67450093449997
 30
0.0
 11
896.50627032
 21
-308.47462093450002
 31
0.0
  0
LINE
  5
41
  8
図枠
 10
893.30659032000005
 20
-308.47462093450002
 30
0.0
 11
893.30659032000005
 21
-310.0744609345
 31
0.0
  0
INSERT
  5
42
  8
0
  6
CONTINUOUS
  2
*U29
 10
0.0
 20
0.0
 30
0.0
  0
LINE
  5
43
  8
図枠
 62
     5
 10
888.50986867410006
 20
-140.61954649410001
 30
0.0
 11
888.50986867410006
 21
-125.6210464941
 31
0.0
  0
INSERT
  5
44
  8
0
  6
CONTINUOUS
  2
*U30
 10
0.0
 20
0.0
 30
0.0
  0
LINE
  5
45
  8
図枠
 10
910.96729503999995
 20
-314.4740209345
 30
0.0
 11
913.20707103999985
 21
-314.4740209345
 31
0.0
  0
LINE
  5
46
  8
図枠
 10
896.50627032
 20
-310.0744609345
 30
0.0
 11
895.30639031999999
 21
-310.0744609345
 31
0.0
  0
LINE
  5
47
  8
図枠
 10
891.70675031999997
 20
-311.2743409345
 30
0.0
 11
893.30659032000005
 21
-311.2743409345
 31
0.0
  0
LINE
  5
48
  8
図枠
 10
889.70695032000003
 20
-308.47462093450002
 30
0.0
 11
889.70695032000003
 21
-310.0744609345
 31
0.0
  0
LINE
  5
49
  8
図枠
 10
896.50627032
 20
-310.0744609345
 30
0.0
 11
896.50627032
 21
-311.2743409345
 31
0.0
  0
LINE
  5
4A
  8
図枠
 10
904.12416878409988
 20
-312.35353797110002
 30
0.0
 11
903.98170138440003
 21
-312.49302653619998
 31
0.0
  0
LINE
  5
4B
  8
図枠
  6
DOT
 10
693.52936867410006
 20
-119.8716214941
 30
0.0
 11
980.50066867409998
 21
-119.8716214941
 31
0.0
  0
LINE
  5
4C
  8
図枠
 62
     5
 10
699.52876867410009
 20
-125.6210464941
 30
0.0
 11
974.50126867409995
 21
-125.6210464941
 31
0.0
  0
LINE
  5
4D
  8
図枠
 62
     5
 10
699.52876867410009
 20
-315.60204649410002
 30
0.0
 11
699.52876867410009
 21
-125.6210464941
 31
0.0
  0
LINE
  5
4E
  8
図枠
  6
DOT
 10
693.53236837410009
 20
-321.3514714941
 30
0.0
 11
693.53236837410009
 21
-119.8716214941
 31
0.0
  0
LINE
  5
4F
  8
図枠
 10
909.83821643729993
 20
-293.2022866941
 30
0.0
 11
909.83821643729993
 21
-295.50605629410001
 31
0.0
  0
LINE
  5
50
  8
図枠
 10
888.50986867410006
 20
-298.60374649409999
 30
0.0
 11
888.50986867410006
 21
-307.10289649409998
 31
0.0
  0
LINE
  5
51
  8
図枠
 10
905.03390232000015
 20
-309.67450093449997
 30
0.0
 11
905.83382231999985
 21
-308.47462093450002
 31
0.0
  0
LINE
  5
52
  8
図枠
 10
898.63454232000015
 20
-310.33212337959998
 30
0.0
 11
901.83422231999987
 21
-310.33212337959998
 31
0.0
  0
LINE
  5
53
  8
図枠
 10
898.63454232000015
 20
-310.5897858248
 30
0.0
 11
898.63454232000015
 21
-310.33212337959998
 31
0.0
  0
LINE
  5
54
  8
図枠
 10
898.63454232000015
 20
-314.07406093449998
 30
0.0
 11
898.63454232000015
 21
-312.87418093450009
 31
0.0
  0
INSERT
  5
55
  8
0
  6
CONTINUOUS
  2
*U31
 10
0.0
 20
0.0
 30
0.0
  0
LINE
  5
56
  8
図枠
 10
888.78615935909988
 20
-311.2743409345
 30
0.0
 11
889.58607935909993
 21
-311.2743409345
 31
0.0
  0
LINE
  5
57
  8
図枠
 10
891.70675031999997
 20
-309.67450093449997
 30
0.0
 11
892.90663031999998
 21
-308.47462093450002
 31
0.0
  0
POLYLINE
  8
図枠
  5
36A
  66
     1
 10
0.000000
 20
0.000000
 30
0.000000
  70
     8
  0
VERTEX
  8
図枠
  5
36B
 10
903.001
 20
-313.383
 30
0.000000
  70
    32
  0
VERTEX
  8
図枠
  5
36C
 10
903.023
 20
-313.390
 30
0.000000
  70
    32
  0
VERTEX
  8
図枠
  5
36D
 10
903.044
 20
-313.397
 30
0.000000
  70
    32
  0
VERTEX
  8
図枠
  5
36E
 10
903.066
 20
-313.404
 30
0.000000
  70
    32
  0
VERTEX
  8
図枠
  5
36F
 10
903.087
 20
-313.410
 30
0.000000
  70
    32
  0
VERTEX
  8
図枠
  5
370
 10
903.109
 20
-313.417
 30
0.000000
  70
    32
  0
VERTEX
  8
図枠
  5
371
 10
903.131
 20
-313.424
 30
0.000000
  70
    32
  0
VERTEX
  8
図枠
  5
372
 10
903.152
 20
-313.431
 30
0.000000
  70
    32
  0
VERTEX
  8
図枠
  5
373
 10
903.174
 20
-313.437
 30
0.000000
  70
    32
  0
VERTEX
  8
図枠
  5
374
 10
903.196
 20
-313.444
 30
0.000000
  70
    32
  0
VERTEX
  8
図枠
  5
375
 10
903.217
 20
-313.450
 30
0.000000
  70
    32
  0
VERTEX
  8
図枠
  5
376
 10
903.239
 20
-313.457
 30
0.000000
  70
    32
  0
VERTEX
  8
図枠
  5
377
 10
903.261
 20
-313.463
 30
0.000000
  70
    32
  0
VERTEX
  8
図枠
  5
378
 10
903.282
 20
-313.470
 30
0.000000
  70
    32
  0
VERTEX
  8
図枠
  5
379
 10
903.304
 20
-313.476
 30
0.000000
  70
    32
  0
VERTEX
  8
図枠
  5
37A
 10
903.326
 20
-313.483
 30
0.000000
  70
    32
  0
VERTEX
  8
図枠
  5
37B
 10
903.348
 20
-313.489
 30
0.000000
  70
    32
  0
VERTEX
  8
図枠
  5
37C
 10
903.370
 20
-313.496
 30
0.000000
  70
    32
  0
VERTEX
  8
図枠
  5
37D
 10
903.391
 20
-313.502
 30
0.000000
  70
    32
  0
VERTEX
  8
図枠
  5
37E
 10
903.413
 20
-313.508
 30
0.000000
  70
    32
  0
VERTEX
  8
図枠
  5
37F
 10
903.435
 20
-313.514
 30
0.000000
  70
    32
  0
VERTEX
  8
図枠
  5
380
 10
903.457
 20
-313.521
 30
0.000000
  70
    32
  0
VERTEX
  8
図枠
  5
381
 10
903.479
 20
-313.527
 30
0.000000
  70
    32
  0
VERTEX
  8
図枠
  5
382
 10
903.501
 20
-313.533
 30
0.000000
  70
    32
  0
VERTEX
  8
図枠
  5
383
 10
903.523
 20
-313.539
 30
0.000000
  70
    32
  0
VERTEX
  8
図枠
  5
384
 10
903.545
 20
-313.545
 30
0.000000
  70
    32
  0
VERTEX
  8
図枠
  5
385
 10
903.567
 20
-313.551
 30
0.000000
  70
    32
  0
VERTEX
  8
図枠
  5
386
 10
903.589
 20
-313.558
 30
0.000000
  70
    32
  0
VERTEX
  8
図枠
  5
387
 10
903.611
 20
-313.564
 30
0.000000
  70
    32
  0
VERTEX
  8
図枠
  5
388
 10
903.632
 20
-313.570
 30
0.000000
  70
    32
  0
VERTEX
  8
図枠
  5
389
 10
903.654
 20
-313.576
 30
0.000000
  70
    32
  0
VERTEX
  8
図枠
  5
38A
 10
903.677
 20
-313.582
 30
0.000000
  70
    32
  0
VERTEX
  8
図枠
  5
38B
 10
903.699
 20
-313.587
 30
0.000000
  70
    32
  0
VERTEX
  8
図枠
  5
38C
 10
903.721
 20
-313.593
 30
0.000000
  70
    32
  0
VERTEX
  8
図枠
  5
38D
 10
903.743
 20
-313.599
 30
0.000000
  70
    32
  0
VERTEX
  8
図枠
  5
38E
 10
903.765
 20
-313.605
 30
0.000000
  70
    32
  0
VERTEX
  8
図枠
  5
38F
 10
903.787
 20
-313.611
 30
0.000000
  70
    32
  0
VERTEX
  8
図枠
  5
390
 10
903.809
 20
-313.617
 30
0.000000
  70
    32
  0
VERTEX
  8
図枠
  5
391
 10
903.831
 20
-313.623
 30
0.000000
  70
    32
  0
VERTEX
  8
図枠
  5
392
 10
903.853
 20
-313.628
 30
0.000000
  70
    32
  0
VERTEX
  8
図枠
  5
393
 10
903.875
 20
-313.634
 30
0.000000
  70
    32
  0
VERTEX
  8
図枠
  5
394
 10
903.897
 20
-313.640
 30
0.000000
  70
    32
  0
VERTEX
  8
図枠
  5
395
 10
903.920
 20
-313.646
 30
0.000000
  70
    32
  0
VERTEX
  8
図枠
  5
396
 10
903.942
 20
-313.651
 30
0.000000
  70
    32
  0
VERTEX
  8
図枠
  5
397
 10
903.964
 20
-313.657
 30
0.000000
  70
    32
  0
VERTEX
  8
図枠
  5
398
 10
903.986
 20
-313.663
 30
0.000000
  70
    32
  0
VERTEX
  8
図枠
  5
399
 10
904.008
 20
-313.668
 30
0.000000
  70
    32
  0
VERTEX
  8
図枠
  5
39A
 10
904.031
 20
-313.674
 30
0.000000
  70
    32
  0
VERTEX
  8
図枠
  5
39B
 10
904.053
 20
-313.679
 30
0.000000
  70
    32
  0
VERTEX
  8
図枠
  5
39C
 10
904.075
 20
-313.685
 30
0.000000
  70
    32
  0
VERTEX
  8
図枠
  5
39D
 10
904.097
 20
-313.690
 30
0.000000
  70
    32
  0
VERTEX
  8
図枠
  5
39E
 10
904.120
 20
-313.696
 30
0.000000
  70
    32
  0
VERTEX
  8
図枠
  5
39F
 10
904.142
 20
-313.701
 30
0.000000
  70
    32
  0
VERTEX
  8
図枠
  5
3A0
 10
904.164
 20
-313.707
 30
0.000000
  70
    32
  0
VERTEX
  8
図枠
  5
3A1
 10
904.187
 20
-313.712
 30
0.000000
  70
    32
  0
VERTEX
  8
図枠
  5
3A2
 10
904.209
 20
-313.718
 30
0.000000
  70
    32
  0
VERTEX
  8
図枠
  5
3A3
 10
904.231
 20
-313.723
 30
0.000000
  70
    32
  0
VERTEX
  8
図枠
  5
3A4
 10
904.253
 20
-313.728
 30
0.000000
  70
    32
  0
VERTEX
  8
図枠
  5
3A5
 10
904.276
 20
-313.734
 30
0.000000
  70
    32
  0
VERTEX
  8
図枠
  5
3A6
 10
904.298
 20
-313.739
 30
0.000000
  70
    32
  0
VERTEX
  8
図枠
  5
3A7
 10
904.321
 20
-313.744
 30
0.000000
  70
    32
  0
VERTEX
  8
図枠
  5
3A8
 10
904.343
 20
-313.750
 30
0.000000
  70
    32
  0
VERTEX
  8
図枠
  5
3A9
 10
904.365
 20
-313.755
 30
0.000000
  70
    32
  0
VERTEX
  8
図枠
  5
3AA
 10
904.388
 20
-313.760
 30
0.000000
  70
    32
  0
VERTEX
  8
図枠
  5
3AB
 10
904.410
 20
-313.766
 30
0.000000
  70
    32
  0
VERTEX
  8
図枠
  5
3AC
 10
904.433
 20
-313.771
 30
0.000000
  70
    32
  0
VERTEX
  8
図枠
  5
3AD
 10
904.455
 20
-313.776
 30
0.000000
  70
    32
  0
VERTEX
  8
図枠
  5
3AE
 10
904.477
 20
-313.781
 30
0.000000
  70
    32
  0
VERTEX
  8
図枠
  5
3AF
 10
904.500
 20
-313.787
 30
0.000000
  70
    32
  0
VERTEX
  8
図枠
  5
3B0
 10
904.522
 20
-313.792
 30
0.000000
  70
    32
  0
VERTEX
  8
図枠
  5
3B1
 10
904.545
 20
-313.797
 30
0.000000
  70
    32
  0
VERTEX
  8
図枠
  5
3B2
 10
904.567
 20
-313.802
 30
0.000000
  70
    32
  0
VERTEX
  8
図枠
  5
3B3
 10
904.590
 20
-313.807
 30
0.000000
  70
    32
  0
VERTEX
  8
図枠
  5
3B4
 10
904.612
 20
-313.812
 30
0.000000
  70
    32
  0
VERTEX
  8
図枠
  5
3B5
 10
904.635
 20
-313.817
 30
0.000000
  70
    32
  0
VERTEX
  8
図枠
  5
3B6
 10
904.657
 20
-313.822
 30
0.000000
  70
    32
  0
VERTEX
  8
図枠
  5
3B7
 10
904.680
 20
-313.828
 30
0.000000
  70
    32
  0
VERTEX
  8
図枠
  5
3B8
 10
904.702
 20
-313.833
 30
0.000000
  70
    32
  0
VERTEX
  8
図枠
  5
3B9
 10
904.725
 20
-313.838
 30
0.000000
  70
    32
  0
VERTEX
  8
図枠
  5
3BA
 10
904.747
 20
-313.843
 30
0.000000
  70
    32
  0
VERTEX
  8
図枠
  5
3BB
 10
904.770
 20
-313.848
 30
0.000000
  70
    32
  0
VERTEX
  8
図枠
  5
3BC
 10
904.792
 20
-313.853
 30
0.000000
  70
    32
  0
VERTEX
  8
図枠
  5
3BD
 10
904.815
 20
-313.858
 30
0.000000
  70
    32
  0
VERTEX
  8
図枠
  5
3BE
 10
904.837
 20
-313.863
 30
0.000000
  70
    32
  0
VERTEX
  8
図枠
  5
3BF
 10
904.860
 20
-313.868
 30
0.000000
  70
    32
  0
VERTEX
  8
図枠
  5
3C0
 10
904.882
 20
-313.873
 30
0.000000
  70
    32
  0
VERTEX
  8
図枠
  5
3C1
 10
904.905
 20
-313.878
 30
0.000000
  70
    32
  0
VERTEX
  8
図枠
  5
3C2
 10
904.928
 20
-313.882
 30
0.000000
  70
    32
  0
VERTEX
  8
図枠
  5
3C3
 10
904.950
 20
-313.887
 30
0.000000
  70
    32
  0
VERTEX
  8
図枠
  5
3C4
 10
904.973
 20
-313.892
 30
0.000000
  70
    32
  0
VERTEX
  8
図枠
  5
3C5
 10
904.995
 20
-313.897
 30
0.000000
  70
    32
  0
VERTEX
  8
図枠
  5
3C6
 10
905.018
 20
-313.902
 30
0.000000
  70
    32
  0
VERTEX
  8
図枠
  5
3C7
 10
905.041
 20
-313.907
 30
0.000000
  70
    32
  0
VERTEX
  8
図枠
  5
3C8
 10
905.063
 20
-313.912
 30
0.000000
  70
    32
  0
VERTEX
  8
図枠
  5
3C9
 10
905.086
 20
-313.917
 30
0.000000
  70
    32
  0
VERTEX
  8
図枠
  5
3CA
 10
905.108
 20
-313.922
 30
0.000000
  70
    32
  0
VERTEX
  8
図枠
  5
3CB
 10
905.131
 20
-313.926
 30
0.000000
  70
    32
  0
VERTEX
  8
図枠
  5
3CC
 10
905.154
 20
-313.931
 30
0.000000
  70
    32
  0
VERTEX
  8
図枠
  5
3CD
 10
905.176
 20
-313.936
 30
0.000000
  70
    32
  0
VERTEX
  8
図枠
  5
3CE
 10
905.199
 20
-313.941
 30
0.000000
  70
    32
  0
VERTEX
  8
図枠
  5
3CF
 10
905.222
 20
-313.946
 30
0.000000
  70
    32
  0
VERTEX
  8
図枠
  5
3D0
 10
905.244
 20
-313.951
 30
0.000000
  70
    32
  0
VERTEX
  8
図枠
  5
3D1
 10
905.267
 20
-313.955
 30
0.000000
  70
    32
  0
VERTEX
  8
図枠
  5
3D2
 10
905.289
 20
-313.960
 30
0.000000
  70
    32
  0
VERTEX
  8
図枠
  5
3D3
 10
905.312
 20
-313.965
 30
0.000000
  70
    32
  0
VERTEX
  8
図枠
  5
3D4
 10
905.335
 20
-313.970
 30
0.000000
  70
    32
  0
VERTEX
  8
図枠
  5
3D5
 10
905.357
 20
-313.975
 30
0.000000
  70
    32
  0
VERTEX
  8
図枠
  5
3D6
 10
905.380
 20
-313.979
 30
0.000000
  70
    32
  0
VERTEX
  8
図枠
  5
3D7
 10
905.403
 20
-313.984
 30
0.000000
  70
    32
  0
VERTEX
  8
図枠
  5
3D8
 10
905.425
 20
-313.989
 30
0.000000
  70
    32
  0
VERTEX
  8
図枠
  5
3D9
 10
905.448
 20
-313.994
 30
0.000000
  70
    32
  0
VERTEX
  8
図枠
  5
3DA
 10
905.471
 20
-313.998
 30
0.000000
  70
    32
  0
VERTEX
  8
図枠
  5
3DB
 10
905.493
 20
-314.003
 30
0.000000
  70
    32
  0
VERTEX
  8
図枠
  5
3DC
 10
905.516
 20
-314.008
 30
0.000000
  70
    32
  0
VERTEX
  8
図枠
  5
3DD
 10
905.539
 20
-314.013
 30
0.000000
  70
    32
  0
VERTEX
  8
図枠
  5
3DE
 10
905.562
 20
-314.017
 30
0.000000
  70
    32
  0
VERTEX
  8
図枠
  5
3DF
 10
905.584
 20
-314.022
 30
0.000000
  70
    32
  0
VERTEX
  8
図枠
  5
3E0
 10
905.607
 20
-314.027
 30
0.000000
  70
    32
  0
VERTEX
  8
図枠
  5
3E1
 10
905.630
 20
-314.032
 30
0.000000
  70
    32
  0
VERTEX
  8
図枠
  5
3E2
 10
905.652
 20
-314.036
 30
0.000000
  70
    32
  0
VERTEX
  8
図枠
  5
3E3
 10
905.675
 20
-314.041
 30
0.000000
  70
    32
  0
VERTEX
  8
図枠
  5
3E4
 10
905.698
 20
-314.046
 30
0.000000
  70
    32
  0
VERTEX
  8
図枠
  5
3E5
 10
905.720
 20
-314.050
 30
0.000000
  70
    32
  0
VERTEX
  8
図枠
  5
3E6
 10
905.743
 20
-314.055
 30
0.000000
  70
    32
  0
VERTEX
  8
図枠
  5
3E7
 10
905.766
 20
-314.060
 30
0.000000
  70
    32
  0
VERTEX
  8
図枠
  5
3E8
 10
905.788
 20
-314.065
 30
0.000000
  70
    32
  0
VERTEX
  8
図枠
  5
3E9
 10
905.811
 20
-314.069
 30
0.000000
  70
    32
  0
VERTEX
  8
図枠
  5
3EA
 10
905.834
 20
-314.074
 30
0.000000
  70
    32
  0
SEQEND
  8
図枠
  5
3EB
  0
LINE
  5
59
  8
図枠
 10
909.83821643729993
 20
-293.2022866941
 30
0.0
 11
914.44575563729995
 21
-292.05040189409999
 31
0.0
  0
LINE
  5
5A
  8
図枠
  6
BORDER
 10
904.5722622740999
 20
-290.89851709409999
 30
0.0
 11
904.5722622740999
 21
-297.80982589410002
 31
0.0
  0
LINE
  5
5B
  8
図枠
 10
889.70695032000003
 20
-311.2743409345
 30
0.0
 11
889.58607935909993
 21
-311.2743409345
 31
0.0
  0
LINE
  5
5C
  8
図枠
 10
914.44575563729995
 20
-292.05040189409999
 30
0.0
 11
914.44575563729995
 21
-296.65794109410001
 31
0.0
  0
LINE
  5
5D
  8
図枠
 10
898.63454232000015
 20
-308.47462093450002
 30
0.0
 11
898.63454232000015
 21
-309.91447693449999
 31
0.0
  0
INSERT
  5
5E
  8
0
  6
CONTINUOUS
  2
*U32
 10
0.0
 20
0.0
 30
0.0
  0
LINE
  5
5F
  8
図枠
  6
DOT
 10
980.50066867409998
 20
-321.3514714941
 30
0.0
 11
980.50066867409998
 21
-119.8716214941
 31
0.0
  0
LINE
  5
60
  8
図枠
 62
     5
 10
880.51066867409997
 20
-140.61954649410001
 30
0.0
 11
880.51066867409997
 21
-125.6210464941
 31
0.0
  0
LINE
  5
61
  8
図枠
 62
     5
 10
954.50326867410001
 20
-140.61954649410001
 30
0.0
 11
954.50326867410001
 21
-125.6210464941
 31
0.0
  0
INSERT
  5
62
  8
0
  6
CONTINUOUS
  2
*U33
 10
0.0
 20
0.0
 30
0.0
  0
INSERT
  5
63
  8
0
  6
CONTINUOUS
  2
*U34
 10
0.0
 20
0.0
 30
0.0
  0
INSERT
  5
64
  8
0
  6
CONTINUOUS
  2
*U35
 10
0.0
 20
0.0
 30
0.0
  0
LINE
  5
65
  8
図枠
 62
     5
 10
880.51066867409997
 20
-130.62054649410001
 30
0.0
 11
974.50126867409995
 21
-130.62054649410001
 31
0.0
  0
INSERT
  5
66
  8
0
  6
CONTINUOUS
  2
*U36
 10
0.0
 20
0.0
 30
0.0
  0
LINE
  5
67
  8
図枠
 62
     5
 10
904.50826867410001
 20
-140.61954649410001
 30
0.0
 11
904.50826867410001
 21
-125.6210464941
 31
0.0
  0
LINE
  5
68
  8
図枠
 62
     5
 10
880.51066867409997
 20
-140.61954649410001
 30
0.0
 11
974.50126867409995
 21
-140.61954649410001
 31
0.0
  0
LINE
  5
69
  8
図枠
 62
     5
 10
884.22601171660006
 20
-135.85240575610001
 30
0.0
 11
881.75125921660003
 21
-140.13880282229999
 31
0.0
  0
POLYLINE
  8
図枠
  5
3EC
  66
     1
 10
0.000000
 20
0.000000
 30
0.000000
  70
     8
  0
VERTEX
  8
図枠
  5
3ED
 10
903.982
 20
-312.493
 30
0.000000
  70
    32
  0
VERTEX
  8
図枠
  5
3EE
 10
903.996
 20
-312.497
 30
0.000000
  70
    32
  0
VERTEX
  8
図枠
  5
3EF
 10
904.010
 20
-312.501
 30
0.000000
  70
    32
  0
VERTEX
  8
図枠
  5
3F0
 10
904.024
 20
-312.505
 30
0.000000
  70
    32
  0
VERTEX
  8
図枠
  5
3F1
 10
904.038
 20
-312.509
 30
0.000000
  70
    32
  0
VERTEX
  8
図枠
  5
3F2
 10
904.052
 20
-312.513
 30
0.000000
  70
    32
  0
VERTEX
  8
図枠
  5
3F3
 10
904.066
 20
-312.516
 30
0.000000
  70
    32
  0
VERTEX
  8
図枠
  5
3F4
 10
904.080
 20
-312.520
 30
0.000000
  70
    32
  0
VERTEX
  8
図枠
  5
3F5
 10
904.094
 20
-312.524
 30
0.000000
  70
    32
  0
VERTEX
  8
図枠
  5
3F6
 10
904.108
 20
-312.528
 30
0.000000
  70
    32
  0
VERTEX
  8
図枠
  5
3F7
 10
904.122
 20
-312.532
 30
0.000000
  70
    32
  0
VERTEX
  8
図枠
  5
3F8
 10
904.136
 20
-312.535
 30
0.000000
  70
    32
  0
VERTEX
  8
図枠
  5
3F9
 10
904.150
 20
-312.539
 30
0.000000
  70
    32
  0
VERTEX
  8
図枠
  5
3FA
 10
904.165
 20
-312.543
 30
0.000000
  70
    32
  0
VERTEX
  8
図枠
  5
3FB
 10
904.179
 20
-312.547
 30
0.000000
  70
    32
  0
VERTEX
  8
図枠
  5
3FC
 10
904.193
 20
-312.550
 30
0.000000
  70
    32
  0
VERTEX
  8
図枠
  5
3FD
 10
904.207
 20
-312.554
 30
0.000000
  70
    32
  0
VERTEX
  8
図枠
  5
3FE
 10
904.221
 20
-312.557
 30
0.000000
  70
    32
  0
VERTEX
  8
図枠
  5
3FF
 10
904.236
 20
-312.561
 30
0.000000
  70
    32
  0
VERTEX
  8
図枠
  5
400
 10
904.250
 20
-312.565
 30
0.000000
  70
    32
  0
VERTEX
  8
図枠
  5
401
 10
904.264
 20
-312.568
 30
0.000000
  70
    32
  0
VERTEX
  8
図枠
  5
402
 10
904.278
 20
-312.572
 30
0.000000
  70
    32
  0
VERTEX
  8
図枠
  5
403
 10
904.292
 20
-312.575
 30
0.000000
  70
    32
  0
VERTEX
  8
図枠
  5
404
 10
904.307
 20
-312.579
 30
0.000000
  70
    32
  0
VERTEX
  8
図枠
  5
405
 10
904.321
 20
-312.582
 30
0.000000
  70
    32
  0
VERTEX
  8
図枠
  5
406
 10
904.335
 20
-312.586
 30
0.000000
  70
    32
  0
VERTEX
  8
図枠
  5
407
 10
904.350
 20
-312.589
 30
0.000000
  70
    32
  0
VERTEX
  8
図枠
  5
408
 10
904.364
 20
-312.593
 30
0.000000
  70
    32
  0
VERTEX
  8
図枠
  5
409
 10
904.378
 20
-312.596
 30
0.000000
  70
    32
  0
VERTEX
  8
図枠
  5
40A
 10
904.393
 20
-312.599
 30
0.000000
  70
    32
  0
VERTEX
  8
図枠
  5
40B
 10
904.407
 20
-312.603
 30
0.000000
  70
    32
  0
VERTEX
  8
図枠
  5
40C
 10
904.421
 20
-312.606
 30
0.000000
  70
    32
  0
VERTEX
  8
図枠
  5
40D
 10
904.436
 20
-312.609
 30
0.000000
  70
    32
  0
VERTEX
  8
図枠
  5
40E
 10
904.450
 20
-312.613
 30
0.000000
  70
    32
  0
VERTEX
  8
図枠
  5
40F
 10
904.464
 20
-312.616
 30
0.000000
  70
    32
  0
VERTEX
  8
図枠
  5
410
 10
904.479
 20
-312.619
 30
0.000000
  70
    32
  0
VERTEX
  8
図枠
  5
411
 10
904.493
 20
-312.623
 30
0.000000
  70
    32
  0
VERTEX
  8
図枠
  5
412
 10
904.508
 20
-312.626
 30
0.000000
  70
    32
  0
VERTEX
  8
図枠
  5
413
 10
904.522
 20
-312.629
 30
0.000000
  70
    32
  0
VERTEX
  8
図枠
  5
414
 10
904.537
 20
-312.632
 30
0.000000
  70
    32
  0
VERTEX
  8
図枠
  5
415
 10
904.551
 20
-312.636
 30
0.000000
  70
    32
  0
VERTEX
  8
図枠
  5
416
 10
904.566
 20
-312.639
 30
0.000000
  70
    32
  0
VERTEX
  8
図枠
  5
417
 10
904.580
 20
-312.642
 30
0.000000
  70
    32
  0
VERTEX
  8
図枠
  5
418
 10
904.595
 20
-312.645
 30
0.000000
  70
    32
  0
VERTEX
  8
図枠
  5
419
 10
904.609
 20
-312.648
 30
0.000000
  70
    32
  0
VERTEX
  8
図枠
  5
41A
 10
904.623
 20
-312.651
 30
0.000000
  70
    32
  0
VERTEX
  8
図枠
  5
41B
 10
904.638
 20
-312.654
 30
0.000000
  70
    32
  0
VERTEX
  8
図枠
  5
41C
 10
904.653
 20
-312.658
 30
0.000000
  70
    32
  0
VERTEX
  8
図枠
  5
41D
 10
904.667
 20
-312.661
 30
0.000000
  70
    32
  0
VERTEX
  8
図枠
  5
41E
 10
904.682
 20
-312.664
 30
0.000000
  70
    32
  0
VERTEX
  8
図枠
  5
41F
 10
904.696
 20
-312.667
 30
0.000000
  70
    32
  0
VERTEX
  8
図枠
  5
420
 10
904.711
 20
-312.670
 30
0.000000
  70
    32
  0
VERTEX
  8
図枠
  5
421
 10
904.725
 20
-312.673
 30
0.000000
  70
    32
  0
VERTEX
  8
図枠
  5
422
 10
904.740
 20
-312.676
 30
0.000000
  70
    32
  0
VERTEX
  8
図枠
  5
423
 10
904.754
 20
-312.679
 30
0.000000
  70
    32
  0
VERTEX
  8
図枠
  5
424
 10
904.769
 20
-312.682
 30
0.000000
  70
    32
  0
VERTEX
  8
図枠
  5
425
 10
904.784
 20
-312.685
 30
0.000000
  70
    32
  0
VERTEX
  8
図枠
  5
426
 10
904.798
 20
-312.688
 30
0.000000
  70
    32
  0
VERTEX
  8
図枠
  5
427
 10
904.813
 20
-312.691
 30
0.000000
  70
    32
  0
VERTEX
  8
図枠
  5
428
 10
904.827
 20
-312.694
 30
0.000000
  70
    32
  0
VERTEX
  8
図枠
  5
429
 10
904.842
 20
-312.697
 30
0.000000
  70
    32
  0
VERTEX
  8
図枠
  5
42A
 10
904.857
 20
-312.700
 30
0.000000
  70
    32
  0
VERTEX
  8
図枠
  5
42B
 10
904.871
 20
-312.702
 30
0.000000
  70
    32
  0
VERTEX
  8
図枠
  5
42C
 10
904.886
 20
-312.705
 30
0.000000
  70
    32
  0
VERTEX
  8
図枠
  5
42D
 10
904.901
 20
-312.708
 30
0.000000
  70
    32
  0
VERTEX
  8
図枠
  5
42E
 10
904.915
 20
-312.711
 30
0.000000
  70
    32
  0
VERTEX
  8
図枠
  5
42F
 10
904.930
 20
-312.714
 30
0.000000
  70
    32
  0
VERTEX
  8
図枠
  5
430
 10
904.945
 20
-312.717
 30
0.000000
  70
    32
  0
VERTEX
  8
図枠
  5
431
 10
904.959
 20
-312.720
 30
0.000000
  70
    32
  0
VERTEX
  8
図枠
  5
432
 10
904.974
 20
-312.722
 30
0.000000
  70
    32
  0
VERTEX
  8
図枠
  5
433
 10
904.989
 20
-312.725
 30
0.000000
  70
    32
  0
VERTEX
  8
図枠
  5
434
 10
905.003
 20
-312.728
 30
0.000000
  70
    32
  0
VERTEX
  8
図枠
  5
435
 10
905.018
 20
-312.731
 30
0.000000
  70
    32
  0
VERTEX
  8
図枠
  5
436
 10
905.033
 20
-312.734
 30
0.000000
  70
    32
  0
VERTEX
  8
図枠
  5
437
 10
905.048
 20
-312.736
 30
0.000000
  70
    32
  0
VERTEX
  8
図枠
  5
438
 10
905.062
 20
-312.739
 30
0.000000
  70
    32
  0
VERTEX
  8
図枠
  5
439
 10
905.077
 20
-312.742
 30
0.000000
  70
    32
  0
VERTEX
  8
図枠
  5
43A
 10
905.092
 20
-312.745
 30
0.000000
  70
    32
  0
VERTEX
  8
図枠
  5
43B
 10
905.107
 20
-312.747
 30
0.000000
  70
    32
  0
VERTEX
  8
図枠
  5
43C
 10
905.121
 20
-312.750
 30
0.000000
  70
    32
  0
VERTEX
  8
図枠
  5
43D
 10
905.136
 20
-312.753
 30
0.000000
  70
    32
  0
VERTEX
  8
図枠
  5
43E
 10
905.151
 20
-312.756
 30
0.000000
  70
    32
  0
VERTEX
  8
図枠
  5
43F
 10
905.166
 20
-312.758
 30
0.000000
  70
    32
  0
VERTEX
  8
図枠
  5
440
 10
905.180
 20
-312.761
 30
0.000000
  70
    32
  0
VERTEX
  8
図枠
  5
441
 10
905.195
 20
-312.764
 30
0.000000
  70
    32
  0
VERTEX
  8
図枠
  5
442
 10
905.210
 20
-312.766
 30
0.000000
  70
    32
  0
VERTEX
  8
図枠
  5
443
 10
905.225
 20
-312.769
 30
0.000000
  70
    32
  0
VERTEX
  8
図枠
  5
444
 10
905.240
 20
-312.772
 30
0.000000
  70
    32
  0
VERTEX
  8
図枠
  5
445
 10
905.254
 20
-312.774
 30
0.000000
  70
    32
  0
VERTEX
  8
図枠
  5
446
 10
905.269
 20
-312.777
 30
0.000000
  70
    32
  0
VERTEX
  8
図枠
  5
447
 10
905.284
 20
-312.780
 30
0.000000
  70
    32
  0
VERTEX
  8
図枠
  5
448
 10
905.299
 20
-312.782
 30
0.000000
  70
    32
  0
VERTEX
  8
図枠
  5
449
 10
905.314
 20
-312.785
 30
0.000000
  70
    32
  0
VERTEX
  8
図枠
  5
44A
 10
905.328
 20
-312.788
 30
0.000000
  70
    32
  0
VERTEX
  8
図枠
  5
44B
 10
905.343
 20
-312.790
 30
0.000000
  70
    32
  0
VERTEX
  8
図枠
  5
44C
 10
905.358
 20
-312.793
 30
0.000000
  70
    32
  0
VERTEX
  8
図枠
  5
44D
 10
905.373
 20
-312.795
 30
0.000000
  70
    32
  0
VERTEX
  8
図枠
  5
44E
 10
905.388
 20
-312.798
 30
0.000000
  70
    32
  0
VERTEX
  8
図枠
  5
44F
 10
905.403
 20
-312.801
 30
0.000000
  70
    32
  0
VERTEX
  8
図枠
  5
450
 10
905.417
 20
-312.803
 30
0.000000
  70
    32
  0
VERTEX
  8
図枠
  5
451
 10
905.432
 20
-312.806
 30
0.000000
  70
    32
  0
VERTEX
  8
図枠
  5
452
 10
905.447
 20
-312.808
 30
0.000000
  70
    32
  0
VERTEX
  8
図枠
  5
453
 10
905.462
 20
-312.811
 30
0.000000
  70
    32
  0
VERTEX
  8
図枠
  5
454
 10
905.477
 20
-312.813
 30
0.000000
  70
    32
  0
VERTEX
  8
図枠
  5
455
 10
905.492
 20
-312.816
 30
0.000000
  70
    32
  0
VERTEX
  8
図枠
  5
456
 10
905.507
 20
-312.819
 30
0.000000
  70
    32
  0
VERTEX
  8
図枠
  5
457
 10
905.521
 20
-312.821
 30
0.000000
  70
    32
  0
VERTEX
  8
図枠
  5
458
 10
905.536
 20
-312.824
 30
0.000000
  70
    32
  0
VERTEX
  8
図枠
  5
459
 10
905.551
 20
-312.826
 30
0.000000
  70
    32
  0
VERTEX
  8
図枠
  5
45A
 10
905.566
 20
-312.829
 30
0.000000
  70
    32
  0
VERTEX
  8
図枠
  5
45B
 10
905.581
 20
-312.831
 30
0.000000
  70
    32
  0
VERTEX
  8
図枠
  5
45C
 10
905.596
 20
-312.834
 30
0.000000
  70
    32
  0
VERTEX
  8
図枠
  5
45D
 10
905.611
 20
-312.836
 30
0.000000
  70
    32
  0
VERTEX
  8
図枠
  5
45E
 10
905.625
 20
-312.839
 30
0.000000
  70
    32
  0
VERTEX
  8
図枠
  5
45F
 10
905.640
 20
-312.841
 30
0.000000
  70
    32
  0
VERTEX
  8
図枠
  5
460
 10
905.655
 20
-312.844
 30
0.000000
  70
    32
  0
VERTEX
  8
図枠
  5
461
 10
905.670
 20
-312.846
 30
0.000000
  70
    32
  0
VERTEX
  8
図枠
  5
462
 10
905.685
 20
-312.849
 30
0.000000
  70
    32
  0
VERTEX
  8
図枠
  5
463
 10
905.700
 20
-312.852
 30
0.000000
  70
    32
  0
VERTEX
  8
図枠
  5
464
 10
905.715
 20
-312.854
 30
0.000000
  70
    32
  0
VERTEX
  8
図枠
  5
465
 10
905.730
 20
-312.857
 30
0.000000
  70
    32
  0
VERTEX
  8
図枠
  5
466
 10
905.745
 20
-312.859
 30
0.000000
  70
    32
  0
VERTEX
  8
図枠
  5
467
 10
905.759
 20
-312.862
 30
0.000000
  70
    32
  0
VERTEX
  8
図枠
  5
468
 10
905.774
 20
-312.864
 30
0.000000
  70
    32
  0
VERTEX
  8
図枠
  5
469
 10
905.789
 20
-312.867
 30
0.000000
  70
    32
  0
VERTEX
  8
図枠
  5
46A
 10
905.804
 20
-312.869
 30
0.000000
  70
    32
  0
VERTEX
  8
図枠
  5
46B
 10
905.819
 20
-312.872
 30
0.000000
  70
    32
  0
VERTEX
  8
図枠
  5
46C
 10
905.834
 20
-312.874
 30
0.000000
  70
    32
  0
SEQEND
  8
図枠
  5
46D
  0
LINE
  5
6B
  8
図枠
 10
895.30639031999999
 20
-311.2743409345
 30
0.0
 11
896.50627032
 21
-311.2743409345
 31
0.0
  0
LINE
  5
6C
  8
図枠
 10
914.44575563729995
 20
-292.05040189409999
 30
0.0
 11
914.44575563729995
 21
-296.65794109410001
 31
0.0
  0
LINE
  5
6D
  8
図枠
 10
911.75487235910009
 20
-309.42754252039998
 30
0.0
 11
912.40715104000003
 21
-308.47462093450002
 31
0.0
  0
LINE
  5
6E
  8
図枠
 10
892.10671032000005
 20
-312.87418093450009
 30
0.0
 11
889.70695032000003
 21
-312.87418093450009
 31
0.0
  0
LINE
  5
6F
  8
図枠
 10
893.30659032000005
 20
-311.2743409345
 30
0.0
 11
893.30659032000005
 21
-311.67430093450002
 31
0.0
  0
CIRCLE
  5
70
  8
図枠
 10
904.5722622740999
 20
-294.3541714941
 30
0.0
 40
1.151884799999999
  0
CIRCLE
  5
71
  8
図枠
 10
904.5722622740999
 20
-294.3541714941
 30
0.0
 40
2.303769599999999
  0
LINE
  5
72
  8
図枠
 10
907.60763103999989
 20
-311.91427693449998
 30
0.0
 11
907.60763103999989
 21
-313.3541329345
 31
0.0
  0
LINE
  5
73
  8
図枠
 10
909.83821643729993
 20
-293.2022866941
 30
0.0
 11
909.83821643729993
 21
-295.50605629410001
 31
0.0
  0
LINE
  5
74
  8
図枠
 10
860.51266867410004
 20
-294.3541714941
 30
0.0
 11
876.51106867409999
 21
-294.3541714941
 31
0.0
  0
ARC
  5
75
  8
図枠
 10
900.63434231999997
 20
-309.67450093449997
 30
0.0
 40
4.3995600000000001
 50
270.0
 51
302.54495885400001
  0
LINE
  5
76
  8
図枠
 10
889.70695032000003
 20
-311.2743409345
 30
0.0
 11
889.70695032000003
 21
-312.47422093450001
 31
0.0
  0
LINE
  5
77
  8
図枠
 10
909.83821643729993
 20
-295.50605629410001
 30
0.0
 11
914.44575563729995
 21
-296.65794109410001
 31
0.0
  0
LINE
  5
78
  8
図枠
 10
905.83382231999985
 20
-312.87418093450009
 30
0.0
 11
905.83382231999985
 21
-314.07406093449998
 31
0.0
  0
LINE
  5
79
  8
図枠
 10
905.83382231999985
 20
-308.47462093450002
 30
0.0
 11
898.63454232000015
 21
-308.47462093450002
 31
0.0
  0
INSERT
  5
7A
  8
0
  6
CONTINUOUS
  2
*U37
 10
0.0
 20
0.0
 30
0.0
  0
LINE
  5
7B
  8
図枠
 62
     5
 10
884.22601171660006
 20
-135.85240575610001
 30
0.0
 11
886.70076421660008
 21
-140.13880282229999
 31
0.0
  0
LINE
  5
7C
  8
図枠
 62
     5
 10
881.75125921660003
 20
-140.13880282229999
 30
0.0
 11
886.70076421660008
 21
-140.13880282229999
 31
0.0
  0
LINE
  5
7D
  8
図枠
 62
     5
 10
880.51066867409997
 20
-135.6200464941
 30
0.0
 11
974.50126867409995
 21
-135.6200464941
 31
0.0
  0
INSERT
  5
7E
  8
0
  6
CONTINUOUS
  2
*U38
 10
0.0
 20
0.0
 30
0.0
  0
LINE
  5
7F
  8
図枠
 10
898.63454232000015
 20
-312.87418093450009
 30
0.0
 11
898.63454232000015
 21
-314.07406093449998
 31
0.0
  0
LINE
  5
80
  8
図枠
 10
860.51266867410004
 20
-302.85332149409999
 30
0.0
 11
886.51006867410001
 21
-302.85332149409999
 31
0.0
  0
INSERT
  5
81
  8
0
  6
CONTINUOUS
  2
*U39
 10
0.0
 20
0.0
 30
0.0
  0
ARC
  5
82
  8
図枠
 10
892.90663031999998
 20
-311.67430093450002
 30
0.0
 40
2.3997599999999988
 50
270.0
 51
0.0
  0
CIRCLE
  5
83
  8
図枠
 10
904.5722622740999
 20
-294.3541714941
 30
0.0
 40
1.151884799999999
  0
INSERT
  5
84
  8
0
  6
CONTINUOUS
  2
*U40
 10
0.0
 20
0.0
 30
0.0
  0
INSERT
  5
85
  8
0
  6
CONTINUOUS
  2
*U41
 10
0.0
 20
0.0
 30
0.0
  0
INSERT
  5
86
  8
0
  6
CONTINUOUS
  2
*U42
 10
0.0
 20
0.0
 30
0.0
  0
INSERT
  5
87
  8
0
  6
CONTINUOUS
  2
*U43
 10
0.0
 20
0.0
 30
0.0
  0
INSERT
  5
88
  8
0
  6
CONTINUOUS
  2
*U44
 10
0.0
 20
0.0
 30
0.0
  0
LINE
  5
89
  8
図枠
 10
909.60636448000002
 20
-309.83448493449998
 30
0.0
 11
909.20747103999997
 21
-308.47462093450002
 31
0.0
  0
LINE
  5
8A
  8
図枠
 10
911.87197604769995
 20
-309.83448493449998
 30
0.0
 11
914.80691103999993
 21
-309.83448493449998
 31
0.0
  0
LINE
  5
8B
  8
図枠
 10
910.96729503999995
 20
-314.4740209345
 30
0.0
 11
910.63879455999995
 21
-313.3541329345
 31
0.0
  0
LINE
  5
8C
  8
図枠
 10
898.63454232000015
 20
-312.87418093450009
 30
0.0
 11
899.59444631999997
 21
-312.87418093450009
 31
0.0
  0
INSERT
  5
8D
  8
0
  6
CONTINUOUS
  2
*U45
 10
0.0
 20
0.0
 30
0.0
  0
LINE
  5
8E
  8
図枠
 10
898.50886867410009
 20
-290.10459649410001
 30
0.0
 11
898.50886867410009
 21
-298.60374649409999
 31
0.0
  0
LINE
  5
8F
  8
図枠
 10
910.21643679999977
 20
-311.91427693449998
 30
0.0
 11
910.02872223999998
 21
-311.2743409345
 31
0.0
  0
LINE
  5
90
  8
図枠
 10
909.83821643729993
 20
-293.2022866941
 30
0.0
 11
909.83821643729993
 21
-295.50605629410001
 31
0.0
  0
LINE
  5
91
  8
図枠
 10
889.70695032000003
 20
-310.0744609345
 30
0.0
 11
888.78615935909988
 21
-310.0744609345
 31
0.0
  0
LINE
  5
92
  8
図枠
 10
888.78615935909988
 20
-310.0744609345
 30
0.0
 11
888.78615935909988
 21
-311.2743409345
 31
0.0
  0
LINE
  5
93
  8
図枠
 10
912.47046690630009
 20
-311.91427693449998
 30
0.0
 11
912.28631587289976
 21
-311.2743409345
 31
0.0
  0
LINE
  5
94
  8
図枠
 62
     5
 10
884.22601171660006
 20
-130.8529057561
 30
0.0
 11
886.70076421660008
 21
-135.13930282230001
 31
0.0
  0
LINE
  5
95
  8
図枠
 62
     5
 10
884.22601171660006
 20
-130.8529057561
 30
0.0
 11
881.75125921660003
 21
-135.13930282230001
 31
0.0
  0
INSERT
  5
96
  8
0
  6
CONTINUOUS
  2
*U46
 10
0.0
 20
0.0
 30
0.0
  0
LINE
  5
97
  8
図枠
 10
891.70675031999997
 20
-312.47422093450001
 30
0.0
 11
891.70675031999997
 21
-311.2743409345
 31
0.0
  0
POLYLINE
  8
図枠
  5
46E
  66
     1
 10
0.000000
 20
0.000000
 30
0.000000
  70
     8
  0
VERTEX
  8
図枠
  5
46F
 10
898.635
 20
-310.590
 30
0.000000
  70
    32
  0
VERTEX
  8
図枠
  5
470
 10
898.649
 20
-310.603
 30
0.000000
  70
    32
  0
VERTEX
  8
図枠
  5
471
 10
898.663
 20
-310.616
 30
0.000000
  70
    32
  0
VERTEX
  8
図枠
  5
472
 10
898.678
 20
-310.630
 30
0.000000
  70
    32
  0
VERTEX
  8
図枠
  5
473
 10
898.692
 20
-310.643
 30
0.000000
  70
    32
  0
VERTEX
  8
図枠
  5
474
 10
898.707
 20
-310.656
 30
0.000000
  70
    32
  0
VERTEX
  8
図枠
  5
475
 10
898.721
 20
-310.669
 30
0.000000
  70
    32
  0
VERTEX
  8
図枠
  5
476
 10
898.735
 20
-310.683
 30
0.000000
  70
    32
  0
VERTEX
  8
図枠
  5
477
 10
898.750
 20
-310.696
 30
0.000000
  70
    32
  0
VERTEX
  8
図枠
  5
478
 10
898.764
 20
-310.709
 30
0.000000
  70
    32
  0
VERTEX
  8
図枠
  5
479
 10
898.779
 20
-310.723
 30
0.000000
  70
    32
  0
VERTEX
  8
図枠
  5
47A
 10
898.793
 20
-310.736
 30
0.000000
  70
    32
  0
VERTEX
  8
図枠
  5
47B
 10
898.807
 20
-310.749
 30
0.000000
  70
    32
  0
VERTEX
  8
図枠
  5
47C
 10
898.822
 20
-310.762
 30
0.000000
  70
    32
  0
VERTEX
  8
図枠
  5
47D
 10
898.836
 20
-310.776
 30
0.000000
  70
    32
  0
VERTEX
  8
図枠
  5
47E
 10
898.851
 20
-310.789
 30
0.000000
  70
    32
  0
VERTEX
  8
図枠
  5
47F
 10
898.865
 20
-310.802
 30
0.000000
  70
    32
  0
VERTEX
  8
図枠
  5
480
 10
898.880
 20
-310.815
 30
0.000000
  70
    32
  0
VERTEX
  8
図枠
  5
481
 10
898.894
 20
-310.829
 30
0.000000
  70
    32
  0
VERTEX
  8
図枠
  5
482
 10
898.908
 20
-310.842
 30
0.000000
  70
    32
  0
VERTEX
  8
図枠
  5
483
 10
898.923
 20
-310.855
 30
0.000000
  70
    32
  0
VERTEX
  8
図枠
  5
484
 10
898.937
 20
-310.868
 30
0.000000
  70
    32
  0
VERTEX
  8
図枠
  5
485
 10
898.952
 20
-310.881
 30
0.000000
  70
    32
  0
VERTEX
  8
図枠
  5
486
 10
898.966
 20
-310.895
 30
0.000000
  70
    32
  0
VERTEX
  8
図枠
  5
487
 10
898.981
 20
-310.908
 30
0.000000
  70
    32
  0
VERTEX
  8
図枠
  5
488
 10
898.995
 20
-310.921
 30
0.000000
  70
    32
  0
VERTEX
  8
図枠
  5
489
 10
899.010
 20
-310.934
 30
0.000000
  70
    32
  0
VERTEX
  8
図枠
  5
48A
 10
899.024
 20
-310.947
 30
0.000000
  70
    32
  0
VERTEX
  8
図枠
  5
48B
 10
899.039
 20
-310.961
 30
0.000000
  70
    32
  0
VERTEX
  8
図枠
  5
48C
 10
899.053
 20
-310.974
 30
0.000000
  70
    32
  0
VERTEX
  8
図枠
  5
48D
 10
899.067
 20
-310.987
 30
0.000000
  70
    32
  0
VERTEX
  8
図枠
  5
48E
 10
899.082
 20
-311.000
 30
0.000000
  70
    32
  0
VERTEX
  8
図枠
  5
48F
 10
899.096
 20
-311.013
 30
0.000000
  70
    32
  0
VERTEX
  8
図枠
  5
490
 10
899.111
 20
-311.026
 30
0.000000
  70
    32
  0
VERTEX
  8
図枠
  5
491
 10
899.125
 20
-311.040
 30
0.000000
  70
    32
  0
VERTEX
  8
図枠
  5
492
 10
899.140
 20
-311.053
 30
0.000000
  70
    32
  0
VERTEX
  8
図枠
  5
493
 10
899.154
 20
-311.066
 30
0.000000
  70
    32
  0
VERTEX
  8
図枠
  5
494
 10
899.169
 20
-311.079
 30
0.000000
  70
    32
  0
VERTEX
  8
図枠
  5
495
 10
899.183
 20
-311.092
 30
0.000000
  70
    32
  0
VERTEX
  8
図枠
  5
496
 10
899.198
 20
-311.105
 30
0.000000
  70
    32
  0
VERTEX
  8
図枠
  5
497
 10
899.212
 20
-311.118
 30
0.000000
  70
    32
  0
VERTEX
  8
図枠
  5
498
 10
899.227
 20
-311.131
 30
0.000000
  70
    32
  0
VERTEX
  8
図枠
  5
499
 10
899.242
 20
-311.144
 30
0.000000
  70
    32
  0
VERTEX
  8
図枠
  5
49A
 10
899.256
 20
-311.157
 30
0.000000
  70
    32
  0
VERTEX
  8
図枠
  5
49B
 10
899.271
 20
-311.170
 30
0.000000
  70
    32
  0
VERTEX
  8
図枠
  5
49C
 10
899.285
 20
-311.183
 30
0.000000
  70
    32
  0
VERTEX
  8
図枠
  5
49D
 10
899.300
 20
-311.196
 30
0.000000
  70
    32
  0
VERTEX
  8
図枠
  5
49E
 10
899.314
 20
-311.209
 30
0.000000
  70
    32
  0
VERTEX
  8
図枠
  5
49F
 10
899.329
 20
-311.222
 30
0.000000
  70
    32
  0
VERTEX
  8
図枠
  5
4A0
 10
899.343
 20
-311.235
 30
0.000000
  70
    32
  0
VERTEX
  8
図枠
  5
4A1
 10
899.358
 20
-311.248
 30
0.000000
  70
    32
  0
VERTEX
  8
図枠
  5
4A2
 10
899.373
 20
-311.261
 30
0.000000
  70
    32
  0
VERTEX
  8
図枠
  5
4A3
 10
899.387
 20
-311.274
 30
0.000000
  70
    32
  0
VERTEX
  8
図枠
  5
4A4
 10
899.402
 20
-311.287
 30
0.000000
  70
    32
  0
VERTEX
  8
図枠
  5
4A5
 10
899.416
 20
-311.300
 30
0.000000
  70
    32
  0
VERTEX
  8
図枠
  5
4A6
 10
899.431
 20
-311.313
 30
0.000000
  70
    32
  0
VERTEX
  8
図枠
  5
4A7
 10
899.446
 20
-311.325
 30
0.000000
  70
    32
  0
VERTEX
  8
図枠
  5
4A8
 10
899.460
 20
-311.338
 30
0.000000
  70
    32
  0
VERTEX
  8
図枠
  5
4A9
 10
899.475
 20
-311.351
 30
0.000000
  70
    32
  0
VERTEX
  8
図枠
  5
4AA
 10
899.490
 20
-311.364
 30
0.000000
  70
    32
  0
VERTEX
  8
図枠
  5
4AB
 10
899.504
 20
-311.377
 30
0.000000
  70
    32
  0
VERTEX
  8
図枠
  5
4AC
 10
899.519
 20
-311.389
 30
0.000000
  70
    32
  0
VERTEX
  8
図枠
  5
4AD
 10
899.534
 20
-311.402
 30
0.000000
  70
    32
  0
VERTEX
  8
図枠
  5
4AE
 10
899.548
 20
-311.415
 30
0.000000
  70
    32
  0
VERTEX
  8
図枠
  5
4AF
 10
899.563
 20
-311.428
 30
0.000000
  70
    32
  0
VERTEX
  8
図枠
  5
4B0
 10
899.578
 20
-311.440
 30
0.000000
  70
    32
  0
VERTEX
  8
図枠
  5
4B1
 10
899.593
 20
-311.453
 30
0.000000
  70
    32
  0
VERTEX
  8
図枠
  5
4B2
 10
899.607
 20
-311.466
 30
0.000000
  70
    32
  0
VERTEX
  8
図枠
  5
4B3
 10
899.622
 20
-311.478
 30
0.000000
  70
    32
  0
VERTEX
  8
図枠
  5
4B4
 10
899.637
 20
-311.491
 30
0.000000
  70
    32
  0
VERTEX
  8
図枠
  5
4B5
 10
899.652
 20
-311.504
 30
0.000000
  70
    32
  0
VERTEX
  8
図枠
  5
4B6
 10
899.666
 20
-311.516
 30
0.000000
  70
    32
  0
VERTEX
  8
図枠
  5
4B7
 10
899.681
 20
-311.529
 30
0.000000
  70
    32
  0
VERTEX
  8
図枠
  5
4B8
 10
899.696
 20
-311.541
 30
0.000000
  70
    32
  0
VERTEX
  8
図枠
  5
4B9
 10
899.711
 20
-311.554
 30
0.000000
  70
    32
  0
VERTEX
  8
図枠
  5
4BA
 10
899.726
 20
-311.566
 30
0.000000
  70
    32
  0
VERTEX
  8
図枠
  5
4BB
 10
899.740
 20
-311.579
 30
0.000000
  70
    32
  0
VERTEX
  8
図枠
  5
4BC
 10
899.755
 20
-311.591
 30
0.000000
  70
    32
  0
VERTEX
  8
図枠
  5
4BD
 10
899.770
 20
-311.604
 30
0.000000
  70
    32
  0
VERTEX
  8
図枠
  5
4BE
 10
899.785
 20
-311.616
 30
0.000000
  70
    32
  0
VERTEX
  8
図枠
  5
4BF
 10
899.800
 20
-311.629
 30
0.000000
  70
    32
  0
VERTEX
  8
図枠
  5
4C0
 10
899.815
 20
-311.641
 30
0.000000
  70
    32
  0
VERTEX
  8
図枠
  5
4C1
 10
899.830
 20
-311.653
 30
0.000000
  70
    32
  0
VERTEX
  8
図枠
  5
4C2
 10
899.845
 20
-311.666
 30
0.000000
  70
    32
  0
VERTEX
  8
図枠
  5
4C3
 10
899.860
 20
-311.678
 30
0.000000
  70
    32
  0
VERTEX
  8
図枠
  5
4C4
 10
899.874
 20
-311.690
 30
0.000000
  70
    32
  0
VERTEX
  8
図枠
  5
4C5
 10
899.889
 20
-311.703
 30
0.000000
  70
    32
  0
VERTEX
  8
図枠
  5
4C6
 10
899.904
 20
-311.715
 30
0.000000
  70
    32
  0
VERTEX
  8
図枠
  5
4C7
 10
899.919
 20
-311.727
 30
0.000000
  70
    32
  0
VERTEX
  8
図枠
  5
4C8
 10
899.934
 20
-311.739
 30
0.000000
  70
    32
  0
VERTEX
  8
図枠
  5
4C9
 10
899.949
 20
-311.751
 30
0.000000
  70
    32
  0
VERTEX
  8
図枠
  5
4CA
 10
899.964
 20
-311.764
 30
0.000000
  70
    32
  0
VERTEX
  8
図枠
  5
4CB
 10
899.979
 20
-311.776
 30
0.000000
  70
    32
  0
VERTEX
  8
図枠
  5
4CC
 10
899.994
 20
-311.788
 30
0.000000
  70
    32
  0
VERTEX
  8
図枠
  5
4CD
 10
900.010
 20
-311.800
 30
0.000000
  70
    32
  0
VERTEX
  8
図枠
  5
4CE
 10
900.025
 20
-311.812
 30
0.000000
  70
    32
  0
VERTEX
  8
図枠
  5
4CF
 10
900.040
 20
-311.824
 30
0.000000
  70
    32
  0
VERTEX
  8
図枠
  5
4D0
 10
900.055
 20
-311.836
 30
0.000000
  70
    32
  0
VERTEX
  8
図枠
  5
4D1
 10
900.070
 20
-311.848
 30
0.000000
  70
    32
  0
VERTEX
  8
図枠
  5
4D2
 10
900.085
 20
-311.860
 30
0.000000
  70
    32
  0
VERTEX
  8
図枠
  5
4D3
 10
900.100
 20
-311.872
 30
0.000000
  70
    32
  0
VERTEX
  8
図枠
  5
4D4
 10
900.115
 20
-311.884
 30
0.000000
  70
    32
  0
VERTEX
  8
図枠
  5
4D5
 10
900.131
 20
-311.896
 30
0.000000
  70
    32
  0
VERTEX
  8
図枠
  5
4D6
 10
900.146
 20
-311.907
 30
0.000000
  70
    32
  0
VERTEX
  8
図枠
  5
4D7
 10
900.161
 20
-311.919
 30
0.000000
  70
    32
  0
VERTEX
  8
図枠
  5
4D8
 10
900.176
 20
-311.931
 30
0.000000
  70
    32
  0
VERTEX
  8
図枠
  5
4D9
 10
900.191
 20
-311.943
 30
0.000000
  70
    32
  0
VERTEX
  8
図枠
  5
4DA
 10
900.207
 20
-311.954
 30
0.000000
  70
    32
  0
VERTEX
  8
図枠
  5
4DB
 10
900.222
 20
-311.966
 30
0.000000
  70
    32
  0
VERTEX
  8
図枠
  5
4DC
 10
900.237
 20
-311.978
 30
0.000000
  70
    32
  0
VERTEX
  8
図枠
  5
4DD
 10
900.253
 20
-311.989
 30
0.000000
  70
    32
  0
VERTEX
  8
図枠
  5
4DE
 10
900.268
 20
-312.001
 30
0.000000
  70
    32
  0
VERTEX
  8
図枠
  5
4DF
 10
900.283
 20
-312.013
 30
0.000000
  70
    32
  0
VERTEX
  8
図枠
  5
4E0
 10
900.299
 20
-312.024
 30
0.000000
  70
    32
  0
VERTEX
  8
図枠
  5
4E1
 10
900.314
 20
-312.036
 30
0.000000
  70
    32
  0
VERTEX
  8
図枠
  5
4E2
 10
900.329
 20
-312.047
 30
0.000000
  70
    32
  0
VERTEX
  8
図枠
  5
4E3
 10
900.345
 20
-312.058
 30
0.000000
  70
    32
  0
VERTEX
  8
図枠
  5
4E4
 10
900.360
 20
-312.070
 30
0.000000
  70
    32
  0
VERTEX
  8
図枠
  5
4E5
 10
900.376
 20
-312.081
 30
0.000000
  70
    32
  0
VERTEX
  8
図枠
  5
4E6
 10
900.391
 20
-312.093
 30
0.000000
  70
    32
  0
VERTEX
  8
図枠
  5
4E7
 10
900.407
 20
-312.104
 30
0.000000
  70
    32
  0
VERTEX
  8
図枠
  5
4E8
 10
900.422
 20
-312.115
 30
0.000000
  70
    32
  0
VERTEX
  8
図枠
  5
4E9
 10
900.438
 20
-312.126
 30
0.000000
  70
    32
  0
VERTEX
  8
図枠
  5
4EA
 10
900.453
 20
-312.138
 30
0.000000
  70
    32
  0
VERTEX
  8
図枠
  5
4EB
 10
900.469
 20
-312.149
 30
0.000000
  70
    32
  0
VERTEX
  8
図枠
  5
4EC
 10
900.484
 20
-312.160
 30
0.000000
  70
    32
  0
VERTEX
  8
図枠
  5
4ED
 10
900.500
 20
-312.171
 30
0.000000
  70
    32
  0
VERTEX
  8
図枠
  5
4EE
 10
900.515
 20
-312.182
 30
0.000000
  70
    32
  0
VERTEX
  8
図枠
  5
4EF
 10
900.531
 20
-312.193
 30
0.000000
  70
    32
  0
VERTEX
  8
図枠
  5
4F0
 10
900.547
 20
-312.204
 30
0.000000
  70
    32
  0
VERTEX
  8
図枠
  5
4F1
 10
900.562
 20
-312.215
 30
0.000000
  70
    32
  0
VERTEX
  8
図枠
  5
4F2
 10
900.578
 20
-312.226
 30
0.000000
  70
    32
  0
VERTEX
  8
図枠
  5
4F3
 10
900.594
 20
-312.237
 30
0.000000
  70
    32
  0
VERTEX
  8
図枠
  5
4F4
 10
900.609
 20
-312.248
 30
0.000000
  70
    32
  0
VERTEX
  8
図枠
  5
4F5
 10
900.625
 20
-312.259
 30
0.000000
  70
    32
  0
VERTEX
  8
図枠
  5
4F6
 10
900.641
 20
-312.269
 30
0.000000
  70
    32
  0
VERTEX
  8
図枠
  5
4F7
 10
900.657
 20
-312.280
 30
0.000000
  70
    32
  0
VERTEX
  8
図枠
  5
4F8
 10
900.672
 20
-312.291
 30
0.000000
  70
    32
  0
VERTEX
  8
図枠
  5
4F9
 10
900.688
 20
-312.301
 30
0.000000
  70
    32
  0
VERTEX
  8
図枠
  5
4FA
 10
900.704
 20
-312.312
 30
0.000000
  70
    32
  0
VERTEX
  8
図枠
  5
4FB
 10
900.720
 20
-312.323
 30
0.000000
  70
    32
  0
VERTEX
  8
図枠
  5
4FC
 10
900.736
 20
-312.333
 30
0.000000
  70
    32
  0
VERTEX
  8
図枠
  5
4FD
 10
900.752
 20
-312.344
 30
0.000000
  70
    32
  0
VERTEX
  8
図枠
  5
4FE
 10
900.768
 20
-312.354
 30
0.000000
  70
    32
  0
VERTEX
  8
図枠
  5
4FF
 10
900.784
 20
-312.365
 30
0.000000
  70
    32
  0
VERTEX
  8
図枠
  5
500
 10
900.800
 20
-312.375
 30
0.000000
  70
    32
  0
VERTEX
  8
図枠
  5
501
 10
900.816
 20
-312.385
 30
0.000000
  70
    32
  0
VERTEX
  8
図枠
  5
502
 10
900.832
 20
-312.396
 30
0.000000
  70
    32
  0
VERTEX
  8
図枠
  5
503
 10
900.848
 20
-312.406
 30
0.000000
  70
    32
  0
VERTEX
  8
図枠
  5
504
 10
900.864
 20
-312.416
 30
0.000000
  70
    32
  0
VERTEX
  8
図枠
  5
505
 10
900.880
 20
-312.426
 30
0.000000
  70
    32
  0
VERTEX
  8
図枠
  5
506
 10
900.896
 20
-312.437
 30
0.000000
  70
    32
  0
VERTEX
  8
図枠
  5
507
 10
900.912
 20
-312.447
 30
0.000000
  70
    32
  0
VERTEX
  8
図枠
  5
508
 10
900.928
 20
-312.457
 30
0.000000
  70
    32
  0
VERTEX
  8
図枠
  5
509
 10
900.944
 20
-312.467
 30
0.000000
  70
    32
  0
VERTEX
  8
図枠
  5
50A
 10
900.961
 20
-312.477
 30
0.000000
  70
    32
  0
VERTEX
  8
図枠
  5
50B
 10
900.977
 20
-312.487
 30
0.000000
  70
    32
  0
VERTEX
  8
図枠
  5
50C
 10
900.993
 20
-312.497
 30
0.000000
  70
    32
  0
VERTEX
  8
図枠
  5
50D
 10
901.009
 20
-312.506
 30
0.000000
  70
    32
  0
VERTEX
  8
図枠
  5
50E
 10
901.026
 20
-312.516
 30
0.000000
  70
    32
  0
SEQEND
  8
図枠
  5
50F
  0
INSERT
  5
99
  8
0
  6
CONTINUOUS
  2
*U47
 10
0.0
 20
0.0
 30
0.0
  0
LINE
  5
9A
  8
図枠
  6
BORDER
 10
904.5722622740999
 20
-290.89851709409999
 30
0.0
 11
904.5722622740999
 21
-297.80982589410002
 31
0.0
  0
CIRCLE
  5
9B
  8
図枠
 10
904.5722622740999
 20
-294.3541714941
 30
0.0
 40
2.303769599999999
  0
LINE
  5
9C
  8
図枠
 10
905.03390232000015
 20
-309.67450093449997
 30
0.0
 11
905.83382231999985
 21
-308.47462093450002
 31
0.0
  0
LINE
  5
9D
  8
図枠
 10
893.30659032000005
 20
-310.0744609345
 30
0.0
 11
891.70675031999997
 21
-310.0744609345
 31
0.0
  0
LINE
  5
9E
  8
図枠
 10
858.51286867409988
 20
-290.10459649410001
 30
0.0
 11
974.50126867409995
 21
-290.10459649410001
 31
0.0
  0
LINE
  5
9F
  8
図枠
 10
909.83821643729993
 20
-293.2022866941
 30
0.0
 11
909.83821643729993
 21
-295.50605629410001
 31
0.0
  0
INSERT
  5
A0
  8
0
  6
CONTINUOUS
  2
*U48
 10
0.0
 20
0.0
 30
0.0
  0
LINE
  5
A1
  8
図枠
 10
907.60763103999989
 20
-311.91427693449998
 30
0.0
 11
910.21643679999977
 21
-311.91427693449998
 31
0.0
  0
LINE
  5
A2
  8
図枠
 10
914.44575563729995
 20
-292.05040189409999
 30
0.0
 11
914.44575563729995
 21
-296.65794109410001
 31
0.0
  0
INSERT
  5
A3
  8
0
  6
CONTINUOUS
  2
*U49
 10
0.0
 20
0.0
 30
0.0
  0
LINE
  5
A4
  8
図枠
 10
878.51086867410015
 20
-290.10459649410001
 30
0.0
 11
878.51086867410015
 21
-298.60374649409999
 31
0.0
  0
LINE
  5
A5
  8
図枠
 10
892.90663031999998
 20
-308.47462093450002
 30
0.0
 11
889.70695032000003
 21
-308.47462093450002
 31
0.0
  0
LINE
  5
A6
  8
図枠
 10
912.28631587289976
 20
-311.2743409345
 30
0.0
 11
914.80691103999993
 21
-311.2743409345
 31
0.0
  0
LINE
  5
A7
  8
図枠
 10
907.60763103999989
 20
-313.3541329345
 30
0.0
 11
910.63879455999995
 21
-313.3541329345
 31
0.0
  0
ARC
  5
A8
  8
図枠
 10
892.10671032000005
 20
-311.67430093450002
 30
0.0
 40
1.1998799999999989
 50
270.0
 51
0.0
  0
LINE
  5
A9
  8
図枠
  6
BORDER
 10
904.5722622740999
 20
-290.89851709409999
 30
0.0
 11
904.5722622740999
 21
-297.80982589410002
 31
0.0
  0
LINE
  5
AA
  8
図枠
 10
914.80691103999993
 20
-311.91427693449998
 30
0.0
 11
914.80691103999993
 21
-313.3541329345
 31
0.0
  0
LINE
  5
AB
  8
図枠
 10
913.20707103999985
 20
-314.4740209345
 30
0.0
 11
912.88480673149991
 21
-313.3541329345
 31
0.0
  0
LINE
  5
AC
  8
図枠
 10
909.20747103999997
 20
-308.47462093450002
 30
0.0
 11
912.40715104000003
 21
-308.47462093450002
 31
0.0
  0
LINE
  5
AD
  8
図枠
 10
907.60763103999989
 20
-311.2743409345
 30
0.0
 11
910.02872223999998
 21
-311.2743409345
 31
0.0
  0
LINE
  5
AE
  8
図枠
 10
890.5096686741
 20
-302.85332149409999
 30
0.0
 11
916.50706867410008
 21
-302.85332149409999
 31
0.0
  0
LINE
  5
AF
  8
図枠
 62
     5
 10
881.75125921660003
 20
-135.13930282230001
 30
0.0
 11
886.70076421660008
 21
-135.13930282230001
 31
0.0
  0
LINE
  5
B0
  8
図枠
 10
889.70695032000003
 20
-312.47422093450001
 30
0.0
 11
891.70675031999997
 21
-312.47422093450001
 31
0.0
  0
LINE
  5
B1
  8
図枠
 10
858.51286867409988
 20
-290.10459649410001
 30
0.0
 11
858.51286867409988
 21
-315.60204649410002
 31
0.0
  0
LINE
  5
B2
  8
図枠
 10
896.50627032
 20
-308.47462093450002
 30
0.0
 11
893.30659032000005
 21
-308.47462093450002
 31
0.0
  0
LINE
  5
B3
  8
図枠
 10
891.70675031999997
 20
-310.0744609345
 30
0.0
 11
891.70675031999997
 21
-309.67450093449997
 31
0.0
  0
ARC
  5
B4
  8
図枠
 10
899.59444631999997
 20
-309.83448493449998
 30
0.0
 40
3.0396959999999988
 50
331.39928138329998
 51
358.49204224580001
  0
CIRCLE
  5
B5
  8
図枠
 10
904.5722622740999
 20
-294.3541714941
 30
0.0
 40
2.303769599999999
  0
LINE
  5
B6
  8
図枠
 10
912.88480673149991
 20
-313.3541329345
 30
0.0
 11
914.80691103999993
 21
-313.3541329345
 31
0.0
  0
LINE
  5
B7
  8
図枠
 10
914.80691103999993
 20
-309.83448493449998
 30
0.0
 11
914.80691103999993
 21
-311.2743409345
 31
0.0
  0
LINE
  5
B8
  8
図枠
 10
907.60763103999989
 20
-309.83448493449998
 30
0.0
 11
909.60636448000002
 21
-309.83448493449998
 31
0.0
  0
CIRCLE
  5
B9
  8
図枠
 10
904.5722622740999
 20
-294.3541714941
 30
0.0
 40
1.151884799999999
  0
CIRCLE
  5
BA
  8
図枠
 10
904.5722622740999
 20
-294.3541714941
 30
0.0
 40
1.151884799999999
  0
LINE
  5
BB
  8
図枠
 10
901.83422231999987
 20
-310.33212337959998
 30
0.0
 11
901.38171923489995
 21
-310.78462646470001
 31
0.0
  0
INSERT
  5
BC
  8
0
  6
CONTINUOUS
  2
*U50
 10
0.0
 20
0.0
 30
0.0
  0
LINE
  5
BD
  8
図枠
 10
889.70695032000003
 20
-314.07406093449998
 30
0.0
 11
892.90663031999998
 21
-314.07406093449998
 31
0.0
  0
LINE
  5
BE
  8
図枠
 10
898.63454232000015
 20
-309.91447693449999
 30
0.0
 11
902.63414231999991
 21
-309.91447693449999
 31
0.0
  0
LINE
  5
BF
  8
図枠
 10
918.50686867410013
 20
-290.10459649410001
 30
0.0
 11
918.50686867410013
 21
-315.60204649410002
 31
0.0
  0
LINE
  5
C0
  8
図枠
 10
907.60763103999989
 20
-309.83448493449998
 30
0.0
 11
907.60763103999989
 21
-311.2743409345
 31
0.0
  0
LINE
  5
C1
  8
図枠
 10
909.83821643729993
 20
-295.50605629410001
 30
0.0
 11
914.44575563729995
 21
-296.65794109410001
 31
0.0
  0
INSERT
  5
C2
  8
0
  6
CONTINUOUS
  2
*U51
 10
0.0
 20
0.0
 30
0.0
  0
LINE
  5
C3
  8
図枠
 10
909.83821643729993
 20
-293.2022866941
 30
0.0
 11
914.44575563729995
 21
-292.05040189409999
 31
0.0
  0
LINE
  5
C4
  8
図枠
 10
909.83821643729993
 20
-293.2022866941
 30
0.0
 11
914.44575563729995
 21
-292.05040189409999
 31
0.0
  0
LINE
  5
C5
  8
図枠
 10
914.44575563729995
 20
-292.05040189409999
 30
0.0
 11
914.44575563729995
 21
-296.65794109410001
 31
0.0
  0
LINE
  5
C6
  8
図枠
 10
911.87197604769995
 20
-309.83448493449998
 30
0.0
 11
911.75487235910009
 21
-309.42754252039998
 31
0.0
  0
POLYLINE
  8
図枠
  5
510
  66
     1
 10
0.000000
 20
0.000000
 30
0.000000
  70
     8
  0
VERTEX
  8
図枠
  5
511
 10
901.382
 20
-310.785
 30
0.000000
  70
    32
  0
VERTEX
  8
図枠
  5
512
 10
901.387
 20
-310.791
 30
0.000000
  70
    32
  0
VERTEX
  8
図枠
  5
513
 10
901.392
 20
-310.796
 30
0.000000
  70
    32
  0
VERTEX
  8
図枠
  5
514
 10
901.398
 20
-310.802
 30
0.000000
  70
    32
  0
VERTEX
  8
図枠
  5
515
 10
901.403
 20
-310.808
 30
0.000000
  70
    32
  0
VERTEX
  8
図枠
  5
516
 10
901.408
 20
-310.814
 30
0.000000
  70
    32
  0
VERTEX
  8
図枠
  5
517
 10
901.413
 20
-310.820
 30
0.000000
  70
    32
  0
VERTEX
  8
図枠
  5
518
 10
901.419
 20
-310.826
 30
0.000000
  70
    32
  0
VERTEX
  8
図枠
  5
519
 10
901.424
 20
-310.832
 30
0.000000
  70
    32
  0
VERTEX
  8
図枠
  5
51A
 10
901.429
 20
-310.838
 30
0.000000
  70
    32
  0
VERTEX
  8
図枠
  5
51B
 10
901.435
 20
-310.843
 30
0.000000
  70
    32
  0
VERTEX
  8
図枠
  5
51C
 10
901.440
 20
-310.849
 30
0.000000
  70
    32
  0
VERTEX
  8
図枠
  5
51D
 10
901.445
 20
-310.855
 30
0.000000
  70
    32
  0
VERTEX
  8
図枠
  5
51E
 10
901.450
 20
-310.861
 30
0.000000
  70
    32
  0
VERTEX
  8
図枠
  5
51F
 10
901.456
 20
-310.867
 30
0.000000
  70
    32
  0
VERTEX
  8
図枠
  5
520
 10
901.461
 20
-310.873
 30
0.000000
  70
    32
  0
VERTEX
  8
図枠
  5
521
 10
901.466
 20
-310.879
 30
0.000000
  70
    32
  0
VERTEX
  8
図枠
  5
522
 10
901.472
 20
-310.885
 30
0.000000
  70
    32
  0
VERTEX
  8
図枠
  5
523
 10
901.477
 20
-310.890
 30
0.000000
  70
    32
  0
VERTEX
  8
図枠
  5
524
 10
901.482
 20
-310.896
 30
0.000000
  70
    32
  0
VERTEX
  8
図枠
  5
525
 10
901.487
 20
-310.902
 30
0.000000
  70
    32
  0
VERTEX
  8
図枠
  5
526
 10
901.493
 20
-310.908
 30
0.000000
  70
    32
  0
VERTEX
  8
図枠
  5
527
 10
901.498
 20
-310.914
 30
0.000000
  70
    32
  0
VERTEX
  8
図枠
  5
528
 10
901.503
 20
-310.920
 30
0.000000
  70
    32
  0
VERTEX
  8
図枠
  5
529
 10
901.509
 20
-310.926
 30
0.000000
  70
    32
  0
VERTEX
  8
図枠
  5
52A
 10
901.514
 20
-310.932
 30
0.000000
  70
    32
  0
VERTEX
  8
図枠
  5
52B
 10
901.519
 20
-310.937
 30
0.000000
  70
    32
  0
VERTEX
  8
図枠
  5
52C
 10
901.524
 20
-310.943
 30
0.000000
  70
    32
  0
VERTEX
  8
図枠
  5
52D
 10
901.530
 20
-310.949
 30
0.000000
  70
    32
  0
VERTEX
  8
図枠
  5
52E
 10
901.535
 20
-310.955
 30
0.000000
  70
    32
  0
VERTEX
  8
図枠
  5
52F
 10
901.540
 20
-310.961
 30
0.000000
  70
    32
  0
VERTEX
  8
図枠
  5
530
 10
901.546
 20
-310.967
 30
0.000000
  70
    32
  0
VERTEX
  8
図枠
  5
531
 10
901.551
 20
-310.972
 30
0.000000
  70
    32
  0
VERTEX
  8
図枠
  5
532
 10
901.556
 20
-310.978
 30
0.000000
  70
    32
  0
VERTEX
  8
図枠
  5
533
 10
901.562
 20
-310.984
 30
0.000000
  70
    32
  0
VERTEX
  8
図枠
  5
534
 10
901.567
 20
-310.990
 30
0.000000
  70
    32
  0
VERTEX
  8
図枠
  5
535
 10
901.572
 20
-310.996
 30
0.000000
  70
    32
  0
VERTEX
  8
図枠
  5
536
 10
901.578
 20
-311.002
 30
0.000000
  70
    32
  0
VERTEX
  8
図枠
  5
537
 10
901.583
 20
-311.007
 30
0.000000
  70
    32
  0
VERTEX
  8
図枠
  5
538
 10
901.588
 20
-311.013
 30
0.000000
  70
    32
  0
VERTEX
  8
図枠
  5
539
 10
901.593
 20
-311.019
 30
0.000000
  70
    32
  0
VERTEX
  8
図枠
  5
53A
 10
901.599
 20
-311.025
 30
0.000000
  70
    32
  0
VERTEX
  8
図枠
  5
53B
 10
901.604
 20
-311.031
 30
0.000000
  70
    32
  0
VERTEX
  8
図枠
  5
53C
 10
901.609
 20
-311.037
 30
0.000000
  70
    32
  0
VERTEX
  8
図枠
  5
53D
 10
901.615
 20
-311.042
 30
0.000000
  70
    32
  0
VERTEX
  8
図枠
  5
53E
 10
901.620
 20
-311.048
 30
0.000000
  70
    32
  0
VERTEX
  8
図枠
  5
53F
 10
901.625
 20
-311.054
 30
0.000000
  70
    32
  0
VERTEX
  8
図枠
  5
540
 10
901.631
 20
-311.060
 30
0.000000
  70
    32
  0
VERTEX
  8
図枠
  5
541
 10
901.636
 20
-311.066
 30
0.000000
  70
    32
  0
VERTEX
  8
図枠
  5
542
 10
901.641
 20
-311.071
 30
0.000000
  70
    32
  0
VERTEX
  8
図枠
  5
543
 10
901.647
 20
-311.077
 30
0.000000
  70
    32
  0
VERTEX
  8
図枠
  5
544
 10
901.652
 20
-311.083
 30
0.000000
  70
    32
  0
VERTEX
  8
図枠
  5
545
 10
901.658
 20
-311.089
 30
0.000000
  70
    32
  0
VERTEX
  8
図枠
  5
546
 10
901.663
 20
-311.094
 30
0.000000
  70
    32
  0
VERTEX
  8
図枠
  5
547
 10
901.668
 20
-311.100
 30
0.000000
  70
    32
  0
VERTEX
  8
図枠
  5
548
 10
901.674
 20
-311.106
 30
0.000000
  70
    32
  0
VERTEX
  8
図枠
  5
549
 10
901.679
 20
-311.112
 30
0.000000
  70
    32
  0
VERTEX
  8
図枠
  5
54A
 10
901.684
 20
-311.117
 30
0.000000
  70
    32
  0
VERTEX
  8
図枠
  5
54B
 10
901.690
 20
-311.123
 30
0.000000
  70
    32
  0
VERTEX
  8
図枠
  5
54C
 10
901.695
 20
-311.129
 30
0.000000
  70
    32
  0
VERTEX
  8
図枠
  5
54D
 10
901.700
 20
-311.135
 30
0.000000
  70
    32
  0
VERTEX
  8
図枠
  5
54E
 10
901.706
 20
-311.140
 30
0.000000
  70
    32
  0
VERTEX
  8
図枠
  5
54F
 10
901.711
 20
-311.146
 30
0.000000
  70
    32
  0
VERTEX
  8
図枠
  5
550
 10
901.717
 20
-311.152
 30
0.000000
  70
    32
  0
VERTEX
  8
図枠
  5
551
 10
901.722
 20
-311.157
 30
0.000000
  70
    32
  0
VERTEX
  8
図枠
  5
552
 10
901.727
 20
-311.163
 30
0.000000
  70
    32
  0
VERTEX
  8
図枠
  5
553
 10
901.733
 20
-311.169
 30
0.000000
  70
    32
  0
VERTEX
  8
図枠
  5
554
 10
901.738
 20
-311.175
 30
0.000000
  70
    32
  0
VERTEX
  8
図枠
  5
555
 10
901.744
 20
-311.180
 30
0.000000
  70
    32
  0
VERTEX
  8
図枠
  5
556
 10
901.749
 20
-311.186
 30
0.000000
  70
    32
  0
VERTEX
  8
図枠
  5
557
 10
901.754
 20
-311.192
 30
0.000000
  70
    32
  0
VERTEX
  8
図枠
  5
558
 10
901.760
 20
-311.197
 30
0.000000
  70
    32
  0
VERTEX
  8
図枠
  5
559
 10
901.765
 20
-311.203
 30
0.000000
  70
    32
  0
VERTEX
  8
図枠
  5
55A
 10
901.771
 20
-311.209
 30
0.000000
  70
    32
  0
VERTEX
  8
図枠
  5
55B
 10
901.776
 20
-311.214
 30
0.000000
  70
    32
  0
VERTEX
  8
図枠
  5
55C
 10
901.781
 20
-311.220
 30
0.000000
  70
    32
  0
VERTEX
  8
図枠
  5
55D
 10
901.787
 20
-311.226
 30
0.000000
  70
    32
  0
VERTEX
  8
図枠
  5
55E
 10
901.792
 20
-311.231
 30
0.000000
  70
    32
  0
VERTEX
  8
図枠
  5
55F
 10
901.798
 20
-311.237
 30
0.000000
  70
    32
  0
VERTEX
  8
図枠
  5
560
 10
901.803
 20
-311.242
 30
0.000000
  70
    32
  0
VERTEX
  8
図枠
  5
561
 10
901.809
 20
-311.248
 30
0.000000
  70
    32
  0
VERTEX
  8
図枠
  5
562
 10
901.814
 20
-311.254
 30
0.000000
  70
    32
  0
VERTEX
  8
図枠
  5
563
 10
901.820
 20
-311.259
 30
0.000000
  70
    32
  0
VERTEX
  8
図枠
  5
564
 10
901.825
 20
-311.265
 30
0.000000
  70
    32
  0
VERTEX
  8
図枠
  5
565
 10
901.831
 20
-311.270
 30
0.000000
  70
    32
  0
VERTEX
  8
図枠
  5
566
 10
901.836
 20
-311.276
 30
0.000000
  70
    32
  0
VERTEX
  8
図枠
  5
567
 10
901.841
 20
-311.282
 30
0.000000
  70
    32
  0
VERTEX
  8
図枠
  5
568
 10
901.847
 20
-311.287
 30
0.000000
  70
    32
  0
VERTEX
  8
図枠
  5
569
 10
901.852
 20
-311.293
 30
0.000000
  70
    32
  0
VERTEX
  8
図枠
  5
56A
 10
901.858
 20
-311.298
 30
0.000000
  70
    32
  0
VERTEX
  8
図枠
  5
56B
 10
901.863
 20
-311.304
 30
0.000000
  70
    32
  0
VERTEX
  8
図枠
  5
56C
 10
901.869
 20
-311.309
 30
0.000000
  70
    32
  0
VERTEX
  8
図枠
  5
56D
 10
901.874
 20
-311.315
 30
0.000000
  70
    32
  0
VERTEX
  8
図枠
  5
56E
 10
901.880
 20
-311.320
 30
0.000000
  70
    32
  0
VERTEX
  8
図枠
  5
56F
 10
901.885
 20
-311.326
 30
0.000000
  70
    32
  0
VERTEX
  8
図枠
  5
570
 10
901.891
 20
-311.331
 30
0.000000
  70
    32
  0
VERTEX
  8
図枠
  5
571
 10
901.897
 20
-311.337
 30
0.000000
  70
    32
  0
VERTEX
  8
図枠
  5
572
 10
901.902
 20
-311.342
 30
0.000000
  70
    32
  0
VERTEX
  8
図枠
  5
573
 10
901.908
 20
-311.348
 30
0.000000
  70
    32
  0
VERTEX
  8
図枠
  5
574
 10
901.913
 20
-311.353
 30
0.000000
  70
    32
  0
VERTEX
  8
図枠
  5
575
 10
901.919
 20
-311.359
 30
0.000000
  70
    32
  0
VERTEX
  8
図枠
  5
576
 10
901.924
 20
-311.364
 30
0.000000
  70
    32
  0
VERTEX
  8
図枠
  5
577
 10
901.930
 20
-311.369
 30
0.000000
  70
    32
  0
VERTEX
  8
図枠
  5
578
 10
901.935
 20
-311.375
 30
0.000000
  70
    32
  0
VERTEX
  8
図枠
  5
579
 10
901.941
 20
-311.380
 30
0.000000
  70
    32
  0
VERTEX
  8
図枠
  5
57A
 10
901.947
 20
-311.386
 30
0.000000
  70
    32
  0
VERTEX
  8
図枠
  5
57B
 10
901.952
 20
-311.391
 30
0.000000
  70
    32
  0
VERTEX
  8
図枠
  5
57C
 10
901.958
 20
-311.396
 30
0.000000
  70
    32
  0
VERTEX
  8
図枠
  5
57D
 10
901.963
 20
-311.402
 30
0.000000
  70
    32
  0
VERTEX
  8
図枠
  5
57E
 10
901.969
 20
-311.407
 30
0.000000
  70
    32
  0
VERTEX
  8
図枠
  5
57F
 10
901.975
 20
-311.413
 30
0.000000
  70
    32
  0
VERTEX
  8
図枠
  5
580
 10
901.980
 20
-311.418
 30
0.000000
  70
    32
  0
VERTEX
  8
図枠
  5
581
 10
901.986
 20
-311.423
 30
0.000000
  70
    32
  0
VERTEX
  8
図枠
  5
582
 10
901.991
 20
-311.429
 30
0.000000
  70
    32
  0
VERTEX
  8
図枠
  5
583
 10
901.997
 20
-311.434
 30
0.000000
  70
    32
  0
VERTEX
  8
図枠
  5
584
 10
902.003
 20
-311.439
 30
0.000000
  70
    32
  0
VERTEX
  8
図枠
  5
585
 10
902.008
 20
-311.445
 30
0.000000
  70
    32
  0
VERTEX
  8
図枠
  5
586
 10
902.014
 20
-311.450
 30
0.000000
  70
    32
  0
VERTEX
  8
図枠
  5
587
 10
902.020
 20
-311.455
 30
0.000000
  70
    32
  0
VERTEX
  8
図枠
  5
588
 10
902.025
 20
-311.460
 30
0.000000
  70
    32
  0
VERTEX
  8
図枠
  5
589
 10
902.031
 20
-311.466
 30
0.000000
  70
    32
  0
VERTEX
  8
図枠
  5
58A
 10
902.037
 20
-311.471
 30
0.000000
  70
    32
  0
VERTEX
  8
図枠
  5
58B
 10
902.042
 20
-311.476
 30
0.000000
  70
    32
  0
VERTEX
  8
図枠
  5
58C
 10
902.048
 20
-311.481
 30
0.000000
  70
    32
  0
VERTEX
  8
図枠
  5
58D
 10
902.054
 20
-311.487
 30
0.000000
  70
    32
  0
VERTEX
  8
図枠
  5
58E
 10
902.059
 20
-311.492
 30
0.000000
  70
    32
  0
VERTEX
  8
図枠
  5
58F
 10
902.065
 20
-311.497
 30
0.000000
  70
    32
  0
VERTEX
  8
図枠
  5
590
 10
902.071
 20
-311.502
 30
0.000000
  70
    32
  0
SEQEND
  8
図枠
  5
591
  0
LINE
  5
C8
  8
図枠
 62
     5
 10
964.50226867410004
 20
-140.61954649410001
 30
0.0
 11
964.50226867410004
 21
-125.6210464941
 31
0.0
  0
LINE
  5
C9
  8
図枠
 10
912.47046690630009
 20
-311.91427693449998
 30
0.0
 11
914.80691103999993
 21
-311.91427693449998
 31
0.0
  0
LINE
  5
CA
  8
図枠
 10
909.83821643729993
 20
-293.2022866941
 30
0.0
 11
914.44575563729995
 21
-292.05040189409999
 31
0.0
  0
LINE
  5
CB
  8
図枠
 10
895.30639031999999
 20
-311.67430093450002
 30
0.0
 11
895.30639031999999
 21
-311.2743409345
 31
0.0
  0
INSERT
  5
CC
  8
0
  6
CONTINUOUS
  2
*U52
 10
0.0
 20
0.0
 30
0.0
  0
INSERT
  5
CD
  8
0
  6
CONTINUOUS
  2
*U53
 10
0.0
 20
0.0
 30
0.0
  0
LINE
  5
CE
  8
図枠
 10
909.83821643729993
 20
-295.50605629410001
 30
0.0
 11
914.44575563729995
 21
-296.65794109410001
 31
0.0
  0
DIMENSION
  5
D8
  8
寸法線
  2
*D0
 10
821.87751238819999
 20
-178.8905854615
 30
0.0
 11
788.36099923229995
 21
-156.5499576542
 31
0.0
 70
   131
  1
4x12.5-5.5x14皿長穴
 15
816.97950852499991
 25
-175.42510452010001
 35
0.0
 40
0.0
  0
DIMENSION
  5
E0
  8
寸法線
  2
*D1
 10
811.21059047330004
 20
-182.0107211678
 30
0.0
 11
777.11993676869997
 21
-164.11215287740001
 31
0.0
 70
   131
  1
2-%%c4x%%c5.5皿穴
 15
806.31258661000004
 25
-178.5452402263
 35
0.0
 40
0.0
  0
DIMENSION
  5
F0
  8
寸法線
  2
*D2
 10
854.53021856939995
 20
-185.77798069709999
 30
0.0
 11
854.53021856939995
 21
-191.020349872
 31
0.0
 70
   128
  1
<>
 13
841.76158854169989
 23
-185.77798069709999
 33
0.0
 14
842.76158854169989
 24
-180.27798069709999
 34
0.0
 50
90.0
  0
DIMENSION
  5
FF
  8
寸法線
  2
*D3
 10
843.76158854169989
 20
-160.77798069709999
 30
0.0
 11
812.26158854169989
 21
-160.77798069709999
 31
0.0
 70
   128
  1
<>
 13
843.76158854169989
 23
-175.27798069709999
 33
0.0
 14
780.76158854170001
 24
-170.77798069709999
 34
0.0
  0
DIMENSION
  5
10E
  8
寸法線
  2
*D4
 10
776.26158854170001
 20
-209.27798069709999
 30
0.0
 11
776.26158854170001
 21
-212.27798069709999
 31
0.0
 70
   128
  1
<>
 13
790.76158854170001
 23
-209.27798069709999
 33
0.0
 14
786.26158854170001
 24
-215.27798069709999
 34
0.0
 50
90.0
  0
DIMENSION
  5
11D
  8
寸法線
  2
*D5
 10
776.26158854170001
 20
-196.27798069709991
 30
0.0
 11
776.26158854170001
 21
-202.77798069709999
 31
0.0
 70
   128
  1
<>
 13
784.26158854170001
 23
-196.27798069709991
 33
0.0
 14
790.76158854170001
 24
-209.27798069709999
 34
0.0
 50
90.0
  0
DIMENSION
  5
12C
  8
寸法線
  2
*D6
 10
837.76158854170001
 20
-195.27798069709999
 30
0.0
 11
840.76158854170001
 21
-195.27798069709999
 31
0.0
 70
   128
  1
<>
 13
837.76158854170001
 23
-185.27798069709999
 33
0.0
 14
843.76158854169989
 24
-183.77798069709991
 34
0.0
 50
180.0
  0
DIMENSION
  5
13B
  8
寸法線
  2
*D7
 10
823.26158868079995
 20
-195.27798069709999
 30
0.0
 11
830.51158861119995
 21
-195.27798069709999
 31
0.0
 70
   128
  1
<>
 13
823.26158868079995
 23
-182.02798069709999
 33
0.0
 14
837.76158854170001
 24
-185.27798069709999
 34
0.0
 50
180.0
  0
DIMENSION
  5
14A
  8
寸法線
  2
*D8
 10
784.26158854170001
 20
-225.8549376711
 30
0.0
 11
786.76158854169989
 21
-225.8549376711
 31
0.0
 70
   128
  1
<>
 13
784.26158854170001
 23
-213.27798069709999
 33
0.0
 14
789.26158854170001
 24
-201.27798069709999
 34
0.0
 50
180.0
  0
DIMENSION
  5
159
  8
寸法線
  2
*D9
 10
789.26158854170001
 20
-225.8549376711
 30
0.0
 11
792.51158854170001
 21
-225.8549376711
 31
0.0
 70
   128
  1
<>
 13
789.26158854170001
 23
-201.27798069709999
 33
0.0
 14
795.76158854169989
 24
-214.27798069709999
 34
0.0
 50
180.0
  0
DIMENSION
  5
168
  8
寸法線
  2
*D10
 10
795.76158854169989
 20
-225.8549376711
 30
0.0
 11
798.26158854170001
 21
-225.8549376711
 31
0.0
 70
   128
  1
<>
 13
795.76158854169989
 23
-214.27798069709999
 33
0.0
 14
800.76158854169989
 24
-213.27798069709999
 34
0.0
 50
180.0
  0
DIMENSION
  5
177
  8
寸法線
  2
*D11
 10
784.26158854170001
 20
-234.2017740025
 30
0.0
 11
792.51158854170001
 21
-234.2017740025
 31
0.0
 70
   128
  1
<>
 13
784.26158854170001
 23
-213.27798069709999
 33
0.0
 14
800.76158854169989
 24
-213.27798069709999
 34
0.0
 50
180.0
  0
DIMENSION
  5
186
  8
寸法線
  2
*D12
 10
770.09879816249986
 20
-173.27798069709999
 30
0.0
 11
770.09879816249986
 21
-194.27798069709999
 31
0.0
 70
   128
  1
<>
 13
780.76158854170001
 23
-173.27798069709999
 33
0.0
 14
786.26158854170001
 24
-215.27798069709999
 34
0.0
 50
90.0
  0
DIMENSION
  5
195
  8
寸法線
  2
*D13
 10
763.93554222
 20
-170.77798069709999
 30
0.0
 11
763.93554222
 21
-193.02798069709999
 31
0.0
 70
   128
  1
<>
 13
780.76158854170001
 23
-170.77798069709999
 33
0.0
 14
786.26158854170001
 24
-215.27798069709999
 34
0.0
 50
90.0
  0
DIMENSION
  5
1A4
  8
寸法線
  2
*D14
 10
899.18230850600003
 20
-225.27798069709999
 30
0.0
 11
909.43230850600003
 21
-225.27798069709999
 31
0.0
 70
   128
  1
<>
 13
899.18230850600003
 23
-174.87798069710001
 33
0.0
 14
919.68230850600003
 24
-215.27798069709999
 34
0.0
 50
180.0
  0
DIMENSION
  5
1B3
  8
寸法線
  2
*D15
 10
921.18230850600003
 20
-160.77798069709999
 30
0.0
 11
910.18230850600014
 21
-160.77798069709999
 31
0.0
 70
   128
  1
<>
 13
921.18230850600003
 23
-172.37798069710001
 33
0.0
 14
899.18230850600003
 24
-170.77798069709999
 34
0.0
  0
DIMENSION
  5
1C2
  8
寸法線
  2
*D16
 10
776.26158854170001
 20
-183.27798069709999
 30
0.0
 11
776.26158854170001
 21
-189.77798069709999
 31
0.0
 70
   128
  1
<>
 13
790.76158854170001
 23
-183.27798069709999
 33
0.0
 14
784.26158854170001
 24
-196.27798069709991
 34
0.0
 50
90.0
  0
DIMENSION
  5
1D1
  8
寸法線
  2
*D17
 10
869.15204408859995
 20
-185.77798069709999
 30
0.0
 11
869.15204408859995
 21
-178.27798069709999
 31
0.0
 70
   128
  1
<>
 13
841.76158854169989
 23
-185.77798069709999
 33
0.0
 14
830.76158854170001
 24
-170.77798069709999
 34
0.0
 50
90.0
  0
DIMENSION
  5
1E0
  8
寸法線
  2
*D18
 10
862.51152121279995
 20
-185.77798069709999
 30
0.0
 11
862.51152121279995
 21
-179.52798069709999
 31
0.0
 70
   128
  1
<>
 13
841.76158854169989
 23
-185.77798069709999
 33
0.0
 14
841.76158854169989
 24
-173.27798069709999
 34
0.0
 50
90.0
  0
DIMENSION
  5
1EF
  8
寸法線
  2
*D19
 10
854.53388408520004
 20
-177.27798022109999
 30
0.0
 11
854.53388408520004
 21
-175.27798045910001
 31
0.0
 70
   128
  1
<>
 13
832.26158866729997
 23
-177.27798022109999
 33
0.0
 14
841.76158854169989
 24
-173.27798069709999
 34
0.0
 50
90.0
  0
DIMENSION
  5
1FE
  8
寸法線
  2
*D20
 10
808.76158854169989
 20
-195.27798069709999
 30
0.0
 11
816.01158861119995
 21
-195.27798069709999
 31
0.0
 70
   128
  1
<>
 13
808.76158854169989
 23
-185.27798069709999
 33
0.0
 14
823.26158868079995
 24
-182.02798069709999
 34
0.0
 50
180.0
  0
DIMENSION
  5
20D
  8
寸法線
  2
*D21
 10
802.76158854170001
 20
-195.27798069709999
 30
0.0
 11
805.76158854170001
 21
-195.27798069709999
 31
0.0
 70
   128
  1
<>
 13
802.76158854170001
 23
-183.77798069709991
 33
0.0
 14
808.76158854169989
 24
-185.27798069709999
 34
0.0
 50
180.0
  0
DIMENSION
  5
21C
  8
寸法線
  2
*D22
 10
802.76158854170001
 20
-203.662198913
 30
0.0
 11
823.26158854170012
 21
-203.662198913
 31
0.0
 70
   128
  1
<>
 13
802.76158854170001
 23
-183.77798069709991
 33
0.0
 14
843.76158854169989
 24
-183.77798069709991
 34
0.0
 50
180.0
  0
DIMENSION
  5
22B
  8
寸法線
  2
*D23
 10
854.53021856939995
 20
-180.27798069709999
 30
0.0
 11
854.53021856939995
 21
-178.77798045910001
 31
0.0
 70
   128
  1
<>
 13
842.76158854169989
 23
-180.27798069709999
 33
0.0
 14
832.26158866729997
 24
-177.27798022109999
 34
0.0
 50
90.0
  0
LINE
  5
22C
  8
図枠
 10
909.83821643729993
 20
-295.50605629410001
 30
0.0
 11
914.44575563729995
 21
-296.65794109410001
 31
0.0
  0
LINE
  5
22D
  8
ﾚｲﾔ_1
  6
STITCH
 10
920.332308506
 20
-175.27798022109999
 30
0.0
 11
921.18230850600003
 21
-175.27798022109999
 31
0.0
  0
LINE
  5
22E
  8
ﾚｲﾔ_1
  6
STITCH
 10
919.582308506
 20
-174.52798022109999
 30
0.0
 11
920.332308506
 21
-175.27798022109999
 31
0.0
  0
LINE
  5
22F
  8
ﾚｲﾔ_1
  6
STITCH
 10
919.582308506
 20
-177.52798069709999
 30
0.0
 11
920.332308506
 21
-178.27798069709999
 31
0.0
  0
LINE
  5
230
  8
ﾚｲﾔ_1
  6
STITCH
 10
920.332308506
 20
-178.27798069709999
 30
0.0
 11
921.18230850600003
 21
-178.27798069709999
 31
0.0
  0
LINE
  5
231
  8
ﾚｲﾔ_1
  6
STITCH
 10
920.332308506
 20
-182.27798069709999
 30
0.0
 11
921.18230850600003
 21
-182.27798069709999
 31
0.0
  0
LINE
  5
232
  8
ﾚｲﾔ_1
  6
STITCH
 10
919.582308506
 20
-183.02798069709999
 30
0.0
 11
920.332308506
 21
-182.27798069709999
 31
0.0
  0
LINE
  5
233
  8
ﾚｲﾔ_1
  6
STITCH
 10
919.68230850600003
 20
-174.87798069710001
 30
0.0
 11
919.68230850600003
 21
-185.77798069709999
 31
0.0
  0
ARC
  5
234
  8
ﾚｲﾔ_1
  6
STITCH
 10
918.08230850600012
 20
-174.87798069710001
 30
0.0
 40
1.6000000000000001
 50
0.0
 51
20.364134806300001
  0
ARC
  5
235
  8
ﾚｲﾔ_1
 62
     5
 10
918.08230850600012
 20
-174.87798069710001
 30
0.0
 40
1.6000000000000001
 50
20.364134806300001
 51
90.0
  0
LINE
  5
236
  8
ﾚｲﾔ_1
 62
     5
 10
919.68230850600003
 20
-185.77798069709999
 30
0.0
 11
919.68230850600003
 21
-215.27798069709999
 31
0.0
  0
LINE
  5
237
  8
ﾚｲﾔ_1
 62
     5
 10
899.18230850600003
 20
-173.27798069709999
 30
0.0
 11
918.08230850600012
 21
-173.27798069709999
 31
0.0
  0
LINE
  5
238
  8
ﾚｲﾔ_1
 62
     5
 10
918.08230850600012
 20
-174.87798069710001
 30
0.0
 11
918.08230850600012
 21
-215.27798069709999
 31
0.0
  0
LINE
  5
239
  8
ﾚｲﾔ_1
 62
     5
 10
899.18230850600003
 20
-174.87798069710001
 30
0.0
 11
918.08230850600012
 21
-174.87798069710001
 31
0.0
  0
LINE
  5
23A
  8
ﾚｲﾔ_1
 62
     5
 10
918.08230850600012
 20
-215.27798069709999
 30
0.0
 11
919.68230850600003
 21
-215.27798069709999
 31
0.0
  0
LINE
  5
23B
  8
ﾚｲﾔ_1
 62
     5
 10
919.582308506
 20
-185.77798069709999
 30
0.0
 11
921.18230850600003
 21
-185.77798069709999
 31
0.0
  0
LINE
  5
23C
  8
ﾚｲﾔ_1
 62
     5
 10
899.18230850600003
 20
-172.37798069710001
 30
0.0
 11
919.582308506
 21
-172.37798069710001
 31
0.0
  0
LINE
  5
23D
  8
ﾚｲﾔ_1
 62
     5
 10
919.582308506
 20
-172.37798069710001
 30
0.0
 11
919.582308506
 21
-185.77798069709999
 31
0.0
  0
LINE
  5
23E
  8
ﾚｲﾔ_1
 62
     5
 10
899.18230850600003
 20
-170.77798069709999
 30
0.0
 11
919.582308506
 21
-170.77798069709999
 31
0.0
  0
LINE
  5
23F
  8
ﾚｲﾔ_1
 62
     5
 10
921.18230850600003
 20
-172.37798069710001
 30
0.0
 11
921.18230850600003
 21
-185.77798069709999
 31
0.0
  0
ARC
  5
240
  8
ﾚｲﾔ_1
 62
     5
 10
919.582308506
 20
-172.37798069710001
 30
0.0
 40
1.6000000000000001
 50
0.0
 51
90.0
  0
LINE
  5
241
  8
ﾚｲﾔ_1
  6
BORDER
 62
     3
 10
921.68230850599991
 20
-196.27798069709991
 30
0.0
 11
916.082308506
 21
-196.27798069709991
 31
0.0
  0
LINE
  5
242
  8
ﾚｲﾔ_1
  6
BORDER
 62
     3
 10
921.68230850599991
 20
-209.27798069709999
 30
0.0
 11
916.082308506
 21
-209.27798069709999
 31
0.0
  0
LINE
  5
243
  8
ﾚｲﾔ_1
  6
STITCH
 10
919.68230850600003
 20
-212.02798069709999
 30
0.0
 11
918.93230850599991
 21
-211.27798069709999
 31
0.0
  0
LINE
  5
244
  8
ﾚｲﾔ_1
  6
STITCH
 10
918.93230850599991
 20
-211.27798069709999
 30
0.0
 11
918.08230850600012
 21
-211.27798069709999
 31
0.0
  0
DIMENSION
  5
24C
  8
寸法線
  2
*D24
 10
791.71059047330004
 20
-198.0107211678
 30
0.0
 11
760.70350534169995
 21
-185.31485253860001
 31
0.0
 70
   131
  1
3-%%c4x%%c5.5皿穴
 15
786.81258661000004
 25
-194.5452402263
 35
0.0
 40
0.0
  0
LINE
  5
24D
  8
ﾚｲﾔ_1
  6
STITCH
 10
918.93230850599991
 20
-181.27798069709999
 30
0.0
 11
918.08230850600012
 21
-181.27798069709999
 31
0.0
  0
LINE
  5
24E
  8
ﾚｲﾔ_1
  6
STITCH
 10
919.68230850600003
 20
-180.52798069709999
 30
0.0
 11
918.93230850599991
 21
-181.27798069709999
 31
0.0
  0
LINE
  5
24F
  8
ﾚｲﾔ_1
  6
STITCH
 10
919.68230850600003
 20
-193.52798069709999
 30
0.0
 11
918.93230850599991
 21
-194.27798069709999
 31
0.0
  0
LINE
  5
250
  8
ﾚｲﾔ_1
  6
STITCH
 10
918.93230850599991
 20
-194.27798069709999
 30
0.0
 11
918.08230850600012
 21
-194.27798069709999
 31
0.0
  0
LINE
  5
251
  8
ﾚｲﾔ_1
  6
STITCH
 10
918.93230850599991
 20
-198.27798069709999
 30
0.0
 11
918.08230850600012
 21
-198.27798069709999
 31
0.0
  0
LINE
  5
252
  8
ﾚｲﾔ_1
  6
STITCH
 10
919.68230850600003
 20
-199.02798069709999
 30
0.0
 11
918.93230850599991
 21
-198.27798069709999
 31
0.0
  0
LINE
  5
253
  8
ﾚｲﾔ_1
 62
     5
 10
899.18230850600003
 20
-170.77798069709999
 30
0.0
 11
899.18230850600003
 21
-172.37798069710001
 31
0.0
  0
LINE
  5
254
  8
ﾚｲﾔ_1
  6
BORDER
 62
     3
 10
917.58230850600012
 20
-180.27798069709999
 30
0.0
 11
923.18230850600003
 21
-180.27798069709999
 31
0.0
  0
LINE
  5
255
  8
ﾚｲﾔ_1
 62
     5
 10
906.18230850600003
 20
-174.87798069710001
 30
0.0
 11
906.18230850600003
 21
-175.0779806971
 31
0.0
  0
LINE
  5
256
  8
ﾚｲﾔ_1
 62
     5
 10
902.18230850600014
 20
-174.87798069710001
 30
0.0
 11
902.18230850600014
 21
-175.0779806971
 31
0.0
  0
LINE
  5
257
  8
ﾚｲﾔ_1
 62
     5
 10
902.18230850600014
 20
-175.0779806971
 30
0.0
 11
906.18230850600003
 21
-175.0779806971
 31
0.0
  0
LINE
  5
258
  8
ﾚｲﾔ_1
 62
     5
 10
900.18230850599991
 20
-172.37798069710001
 30
0.0
 11
900.18230850599991
 21
-173.27798069709999
 31
0.0
  0
LINE
  5
259
  8
ﾚｲﾔ_1
 62
     5
 10
908.18230850599991
 20
-172.37798069710001
 30
0.0
 11
908.18230850599991
 21
-173.27798069709999
 31
0.0
  0
LINE
  5
25A
  8
ﾚｲﾔ_1
 62
     5
 10
906.18230850600003
 20
-169.77798069709999
 30
0.0
 11
902.18230850600014
 21
-169.77798069709999
 31
0.0
  0
LINE
  5
25B
  8
ﾚｲﾔ_1
 62
     5
 10
906.18230850600003
 20
-169.77798069709999
 30
0.0
 11
906.18230850600003
 21
-170.77798069709999
 31
0.0
  0
LINE
  5
25C
  8
ﾚｲﾔ_1
 62
     5
 10
902.18230850600014
 20
-169.77798069709999
 30
0.0
 11
902.18230850600014
 21
-170.77798069709999
 31
0.0
  0
LINE
  5
25D
  8
ﾚｲﾔ_1
  6
BORDER
 62
     3
 10
904.18230850600003
 20
-166.77798069709999
 30
0.0
 11
904.18230850600003
 21
-178.1779806971
 31
0.0
  0
ARC
  5
25E
  8
ﾚｲﾔ_1
 62
     5
 10
829.76158854170001
 20
-272.94327561400002
 30
0.0
 40
2.0
 50
0.0
 51
67.096868200399996
  0
LINE
  5
25F
  8
ﾚｲﾔ_1
  6
STITCH
 10
829.51158854170012
 20
-273.76707179139999
 30
0.0
 11
829.51158854170012
 21
-274.61707179140001
 31
0.0
  0
LINE
  5
260
  8
ﾚｲﾔ_1
  6
STITCH
 10
830.26158854169989
 20
-273.01707179139999
 30
0.0
 11
829.51158854170012
 21
-273.76707179139999
 31
0.0
  0
LINE
  5
261
  8
ﾚｲﾔ_1
  6
STITCH
 10
918.93230850599991
 20
-207.27798069709999
 30
0.0
 11
918.08230850600012
 21
-207.27798069709999
 31
0.0
  0
LINE
  5
262
  8
ﾚｲﾔ_1
  6
STITCH
 10
919.68230850600003
 20
-206.52798069709999
 30
0.0
 11
918.93230850599991
 21
-207.27798069709999
 31
0.0
  0
LINE
  5
263
  8
ﾚｲﾔ_1
  6
BORDER
 62
     3
 10
917.58230850600012
 20
-177.27798022109999
 30
0.0
 11
923.18230850600003
 21
-177.27798022109999
 31
0.0
  0
LINE
  5
264
  8
ﾚｲﾔ_1
  6
STITCH
 10
919.582308506
 20
-180.02798022109999
 30
0.0
 11
920.332308506
 21
-179.27798022109999
 31
0.0
  0
LINE
  5
265
  8
ﾚｲﾔ_1
  6
STITCH
 10
920.332308506
 20
-179.27798022109999
 30
0.0
 11
921.18230850600003
 21
-179.27798022109999
 31
0.0
  0
LINE
  5
266
  8
ﾚｲﾔ_1
  6
STITCH
 10
811.51158854169989
 20
-273.01707179139999
 30
0.0
 11
810.76158854170012
 21
-273.76707179139999
 31
0.0
  0
LINE
  5
267
  8
ﾚｲﾔ_1
  6
STITCH
 10
810.76158854170012
 20
-273.76707179139999
 30
0.0
 11
810.76158854170012
 21
-274.61707179140001
 31
0.0
  0
LINE
  5
268
  8
ﾚｲﾔ_1
  6
STITCH
 10
806.76158854170001
 20
-273.76707179139999
 30
0.0
 11
806.76158854170001
 21
-274.61707179140001
 31
0.0
  0
LINE
  5
269
  8
ﾚｲﾔ_1
  6
STITCH
 10
806.01158854169989
 20
-273.01707179139999
 30
0.0
 11
806.76158854170001
 21
-273.76707179139999
 31
0.0
  0
LINE
  5
26A
  8
ﾚｲﾔ_1
  6
STITCH
 10
835.01158854170001
 20
-273.01707179139999
 30
0.0
 11
835.76158854170012
 21
-273.76707179139999
 31
0.0
  0
LINE
  5
26B
  8
ﾚｲﾔ_1
  6
STITCH
 10
835.76158854170012
 20
-273.76707179139999
 30
0.0
 11
835.76158854170012
 21
-274.61707179140001
 31
0.0
  0
LINE
  5
26C
  8
ﾚｲﾔ_1
  6
STITCH
 10
839.76158854170001
 20
-273.76707179139999
 30
0.0
 11
839.76158854170001
 21
-274.61707179140001
 31
0.0
  0
CIRCLE
  5
26D
  8
ﾚｲﾔ_1
 62
     5
 10
785.76158854170001
 20
-257.61707179140001
 30
0.0
 40
2.0
  0
LINE
  5
26E
  8
ﾚｲﾔ_1
  6
BORDER
 62
     3
 10
781.76158854170001
 20
-257.61707179140001
 30
0.0
 11
789.76158854170001
 21
-257.61707179140001
 31
0.0
  0
LINE
  5
26F
  8
ﾚｲﾔ_1
  6
BORDER
 62
     3
 10
785.76158854170001
 20
-253.61707179140001
 30
0.0
 11
785.76158854170001
 21
-261.61707179140001
 31
0.0
  0
ARC
  5
270
  8
ﾚｲﾔ_1
 62
     5
 10
784.5892679753
 20
-254.61707179140001
 30
0.0
 40
2.0
 50
77.762105615500005
 51
94.942748993400002
  0
ARC
  5
271
  8
ﾚｲﾔ_1
 62
     5
 10
784.76158854170001
 20
-256.61707179140001
 30
0.0
 40
4.0074098168000001
 50
94.933587031399995
 51
180.0
  0
LINE
  5
272
  8
ﾚｲﾔ_1
 62
     5
 10
802.76158854170001
 20
-272.61707179140001
 30
0.0
 11
800.76899835850008
 21
-272.61707179140001
 31
0.0
  0
LINE
  5
273
  8
ﾚｲﾔ_1
  6
STITCH
 10
800.76899835850008
 20
-272.61707179140001
 30
0.0
 11
786.73668026119992
 21
-272.61707179140001
 31
0.0
  0
ARC
  5
274
  8
ﾚｲﾔ_1
  6
STITCH
 10
786.73668026119992
 20
-269.61707179140001
 30
0.0
 40
3.0
 50
201.03706684010001
 51
270.0
  0
INSERT
  5
276
  8
ﾚｲﾔ_1
  6
STITCH
  2
CLUMP0
 10
0.0
 20
0.0
 30
0.0
  0
INSERT
  5
28F
  8
ﾚｲﾔ_1
  6
STITCH
  2
CLUMP1
 10
0.0
 20
0.0
 30
0.0
  0
LINE
  5
2B2
  8
ﾚｲﾔ_1
 62
     5
 10
787.76158854170001
 20
-174.87798069710001
 30
0.0
 11
787.76158854170001
 21
-175.0779806971
 31
0.0
  0
LINE
  5
2B3
  8
ﾚｲﾔ_1
 62
     5
 10
783.76158854170001
 20
-174.87798069710001
 30
0.0
 11
783.76158854170001
 21
-175.0779806971
 31
0.0
  0
LINE
  5
2B4
  8
ﾚｲﾔ_1
 62
     5
 10
783.76158854170001
 20
-175.0779806971
 30
0.0
 11
787.76158854170001
 21
-175.0779806971
 31
0.0
  0
LINE
  5
2B5
  8
ﾚｲﾔ_1
 62
     5
 10
899.18230850600003
 20
-173.27798069709999
 30
0.0
 11
899.18230850600003
 21
-174.87798069710001
 31
0.0
  0
LINE
  5
2B6
  8
ﾚｲﾔ_1
 62
     5
 10
919.582308506
 20
-173.27798069709999
 30
0.0
 11
921.18230850600003
 21
-173.27798069709999
 31
0.0
  0
LINE
  5
2B7
  8
ﾚｲﾔ_1
  6
BORDER
 62
     3
 10
921.68230850599991
 20
-183.27798069709999
 30
0.0
 11
916.082308506
 21
-183.27798069709999
 31
0.0
  0
LINE
  5
2B8
  8
ﾚｲﾔ_1
  6
STITCH
 10
919.68230850600003
 20
-186.02798069709999
 30
0.0
 11
918.93230850599991
 21
-185.27798069709999
 31
0.0
  0
LINE
  5
2B9
  8
ﾚｲﾔ_1
  6
STITCH
 10
918.93230850599991
 20
-185.27798069709999
 30
0.0
 11
918.08230850600012
 21
-185.27798069709999
 31
0.0
  0
LINE
  5
2BA
  8
ﾚｲﾔ_1
 62
     5
 10
789.76158854170001
 20
-173.27798069709999
 30
0.0
 11
781.76158854170001
 21
-173.27798069709999
 31
0.0
  0
LINE
  5
2BB
  8
ﾚｲﾔ_1
 62
     5
 10
781.76158854170001
 20
-172.37798069710001
 30
0.0
 11
781.76158854170001
 21
-173.27798069709999
 31
0.0
  0
LINE
  5
2BC
  8
ﾚｲﾔ_1
 62
     5
 10
789.76158854170001
 20
-172.37798069710001
 30
0.0
 11
789.76158854170001
 21
-173.27798069709999
 31
0.0
  0
LINE
  5
2BD
  8
ﾚｲﾔ_1
 62
     5
 10
787.76158854170001
 20
-169.77798069709999
 30
0.0
 11
783.76158854170001
 21
-169.77798069709999
 31
0.0
  0
LINE
  5
2BE
  8
ﾚｲﾔ_1
 62
     5
 10
787.76158854170001
 20
-169.77798069709999
 30
0.0
 11
787.76158854170001
 21
-170.77798069709999
 31
0.0
  0
LINE
  5
2BF
  8
ﾚｲﾔ_1
 62
     5
 10
783.76158854170001
 20
-169.77798069709999
 30
0.0
 11
783.76158854170001
 21
-170.77798069709999
 31
0.0
  0
LINE
  5
2C0
  8
ﾚｲﾔ_1
  6
BORDER
 62
     3
 10
785.76158854170001
 20
-166.77798069709999
 30
0.0
 11
785.76158854170001
 21
-178.1779806971
 31
0.0
  0
INSERT
  5
2C2
  8
ﾚｲﾔ_1
  6
BORDER
  2
CLUMP2
 10
0.0
 20
0.0
 30
0.0
  0
ARC
  5
2D9
  8
ﾚｲﾔ_1
 62
     5
 10
780.77352601869995
 20
-272.2079817545
 30
0.0
 40
20.0
 50
67.584925325499995
 51
77.761342153599983
  0
LINE
  5
2DA
  8
ﾚｲﾔ_1
 62
     5
 10
830.53993714520016
 20
-271.10094734479998
 30
0.0
 11
788.39979829309993
 21
-253.71906693509999
 31
0.0
  0
LINE
  5
2DB
  8
ﾚｲﾔ_1
  6
STITCH
 10
840.51158854170001
 20
-273.01707179139999
 30
0.0
 11
839.76158854170001
 21
-273.76707179139999
 31
0.0
  0
LINE
  5
2DC
  8
ﾚｲﾔ_1
  6
BORDER
 62
     3
 10
837.76158854170001
 20
-271.01707179139999
 30
0.0
 11
837.76158854170001
 21
-276.61707179140001
 31
0.0
  0
LINE
  5
2DD
  8
ﾚｲﾔ_1
  6
BORDER
 62
     3
 10
785.76158854170001
 20
-255.61707179140001
 30
0.0
 11
785.76158854170001
 21
-259.61707179140001
 31
0.0
  0
LINE
  5
2DE
  8
ﾚｲﾔ_1
  6
BORDER
 62
     3
 10
787.76158854170001
 20
-257.61707179140001
 30
0.0
 11
783.76158854170001
 21
-257.61707179140001
 31
0.0
  0
LINE
  5
2DF
  8
ﾚｲﾔ_1
 62
     5
 10
843.76158854169989
 20
-273.01707179139999
 30
0.0
 11
843.76158854169989
 21
-274.61707179140001
 31
0.0
  0
LINE
  5
2E0
  8
ﾚｲﾔ_1
 62
     5
 10
843.76158854169989
 20
-274.61707179140001
 30
0.0
 11
802.76158854170001
 21
-274.61707179140001
 31
0.0
  0
LINE
  5
2E1
  8
ﾚｲﾔ_1
 62
     5
 10
843.76158854169989
 20
-273.01707179139999
 30
0.0
 11
802.76158854170001
 21
-273.01707179139999
 31
0.0
  0
LINE
  5
2E2
  8
ﾚｲﾔ_1
 62
     5
 10
802.76158854170001
 20
-272.61707179140001
 30
0.0
 11
802.76158854170001
 21
-274.61707179140001
 31
0.0
  0
LINE
  5
2E3
  8
ﾚｲﾔ_1
  6
STITCH
 10
831.76158854170001
 20
-273.01707179139999
 30
0.0
 11
831.76158854170001
 21
-274.61707179140001
 31
0.0
  0
LINE
  5
2E4
  8
ﾚｲﾔ_1
 62
     5
 10
831.76158854170001
 20
-272.94327561400002
 30
0.0
 11
831.76158854170001
 21
-273.01707179139999
 31
0.0
  0
LINE
  5
2E5
  8
ﾚｲﾔ_1
  6
STITCH
 10
816.26158854170001
 20
-273.01707179139999
 30
0.0
 11
817.01158854170012
 21
-273.76707179139999
 31
0.0
  0
LINE
  5
2E6
  8
ﾚｲﾔ_1
  6
STITCH
 10
817.01158854170012
 20
-273.76707179139999
 30
0.0
 11
817.01158854170012
 21
-274.61707179140001
 31
0.0
  0
LINE
  5
2E7
  8
ﾚｲﾔ_1
  6
BORDER
 62
     3
 10
823.26158854170012
 20
-271.01707179139999
 30
0.0
 11
823.26158854170012
 21
-276.61707179140001
 31
0.0
  0
ARC
  5
2E8
  8
ﾚｲﾔ_1
 62
     5
 10
830.60405455159992
 20
-252.74539514509999
 30
0.0
 40
50.0
 50
184.44106025650001
 51
201.03706684010001
  0
LINE
  5
2E9
  8
ﾚｲﾔ_1
  6
BORDER
 62
     3
 10
808.76158854169989
 20
-271.01707179139999
 30
0.0
 11
808.76158854169989
 21
-276.61707179140001
 31
0.0
  0
ENDSEC
  0
EOF
